  0
SECTION
  2
HEADER
  9
$ACADVER
  1
AC1015
  9
$ACADMAINTVER
 70
    20
  9
$DWGCODEPAGE
  3
ANSI_932
  9
$INSBASE
 10
0.0
 20
0.0
 30
0.0
  9
$EXTMIN
 10
139.9999999999995
 20
-0.0000000000000909
 30
0.0
  9
$EXTMAX
 10
16307.2
 20
11409.6
 30
0.0
  9
$LIMMIN
 10
0.0
 20
0.0
  9
$LIMMAX
 10
16800.0
 20
11880.0
  9
$ORTHOMODE
 70
     0
  9
$REGENMODE
 70
     1
  9
$FILLMODE
 70
     1
  9
$QTEXTMODE
 70
     0
  9
$MIRRTEXT
 70
     1
  9
$LTSCALE
 40
20.0
  9
$ATTMODE
 70
     1
  9
$TEXTSIZE
 40
4.0
  9
$TRACEWID
 40
1.0
  9
$TEXTSTYLE
  7
STYLE1
  9
$CLAYER
  8
寸法
  9
$CELTYPE
  6
BYLAYER
  9
$CECOLOR
 62
   256
  9
$CELTSCALE
 40
50.0
  9
$DISPSILH
 70
     0
  9
$DIMSCALE
 40
40.0
  9
$DIMASZ
 40
2.5
  9
$DIMEXO
 40
0.5
  9
$DIMDLI
 40
7.0
  9
$DIMRND
 40
0.0
  9
$DIMDLE
 40
0.0
  9
$DIMEXE
 40
1.5
  9
$DIMTP
 40
0.0
  9
$DIMTM
 40
0.0
  9
$DIMTXT
 40
3.0
  9
$DIMCEN
 40
0.0
  9
$DIMTSZ
 40
0.0
  9
$DIMTOL
 70
     0
  9
$DIMLIM
 70
     0
  9
$DIMTIH
 70
     0
  9
$DIMTOH
 70
     0
  9
$DIMSE1
 70
     0
  9
$DIMSE2
 70
     0
  9
$DIMTAD
 70
     3
  9
$DIMZIN
 70
     8
  9
$DIMBLK
  1

  9
$DIMASO
 70
     1
  9
$DIMSHO
 70
     1
  9
$DIMPOST
  1

  9
$DIMAPOST
  1

  9
$DIMALT
 70
     0
  9
$DIMALTD
 70
     2
  9
$DIMALTF
 40
0.0394
  9
$DIMLFAC
 40
1.0
  9
$DIMTOFL
 70
     1
  9
$DIMTVP
 40
0.0
  9
$DIMTIX
 70
     1
  9
$DIMSOXD
 70
     0
  9
$DIMSAH
 70
     1
  9
$DIMBLK1
  1
DOTSMALL
  9
$DIMBLK2
  1
DOTSMALL
  9
$DIMSTYLE
  2
INABA_S40G
  9
$DIMCLRD
 70
     0
  9
$DIMCLRE
 70
     0
  9
$DIMCLRT
 70
     7
  9
$DIMTFAC
 40
1.0
  9
$DIMGAP
 40
1.0
  9
$DIMJUST
 70
     0
  9
$DIMSD1
 70
     0
  9
$DIMSD2
 70
     0
  9
$DIMTOLJ
 70
     1
  9
$DIMTZIN
 70
     0
  9
$DIMALTZ
 70
     0
  9
$DIMALTTZ
 70
     0
  9
$DIMUPT
 70
     0
  9
$DIMDEC
 70
     1
  9
$DIMTDEC
 70
     4
  9
$DIMALTU
 70
     2
  9
$DIMALTTD
 70
     2
  9
$DIMTXSTY
  7
STYLE1
  9
$DIMAUNIT
 70
     0
  9
$DIMADEC
 70
     0
  9
$DIMALTRND
 40
0.0
  9
$DIMAZIN
 70
     0
  9
$DIMDSEP
 70
    46
  9
$DIMATFIT
 70
     3
  9
$DIMFRAC
 70
     0
  9
$DIMLDRBLK
  1

  9
$DIMLUNIT
 70
     2
  9
$DIMLWD
 70
    -2
  9
$DIMLWE
 70
    -2
  9
$DIMTMOVE
 70
     0
  9
$LUNITS
 70
     2
  9
$LUPREC
 70
     1
  9
$SKETCHINC
 40
1.0
  9
$FILLETRAD
 40
3.0
  9
$AUNITS
 70
     0
  9
$AUPREC
 70
     0
  9
$MENU
  1
acad
  9
$ELEVATION
 40
0.0
  9
$PELEVATION
 40
0.0
  9
$THICKNESS
 40
0.0
  9
$LIMCHECK
 70
     0
  9
$CHAMFERA
 40
0.0
  9
$CHAMFERB
 40
0.0
  9
$CHAMFERC
 40
0.0
  9
$CHAMFERD
 40
0.0
  9
$SKPOLY
 70
     0
  9
$TDCREATE
 40
2451368.612993866
  9
$TDUCREATE
 40
2451368.237993866
  9
$TDUPDATE
 40
2455827.764797767
  9
$TDUUPDATE
 40
2455827.389797766
  9
$TDINDWG
 40
0.8575203935
  9
$TDUSRTIMER
 40
0.8575196759
  9
$USRTIMER
 70
     1
  9
$ANGBASE
 50
0.0
  9
$ANGDIR
 70
     0
  9
$PDMODE
 70
     3
  9
$PDSIZE
 40
2.0
  9
$PLINEWID
 40
0.0
  9
$SPLFRAME
 70
     0
  9
$SPLINETYPE
 70
     6
  9
$SPLINESEGS
 70
     8
  9
$HANDSEED
  5
24450
  9
$SURFTAB1
 70
     6
  9
$SURFTAB2
 70
     6
  9
$SURFTYPE
 70
     6
  9
$SURFU
 70
     6
  9
$SURFV
 70
     6
  9
$UCSBASE
  2

  9
$UCSNAME
  2

  9
$UCSORG
 10
0.0
 20
0.0
 30
0.0
  9
$UCSXDIR
 10
1.0
 20
0.0
 30
0.0
  9
$UCSYDIR
 10
0.0
 20
1.0
 30
0.0
  9
$UCSORTHOREF
  2

  9
$UCSORTHOVIEW
 70
     0
  9
$UCSORGTOP
 10
0.0
 20
0.0
 30
0.0
  9
$UCSORGBOTTOM
 10
0.0
 20
0.0
 30
0.0
  9
$UCSORGLEFT
 10
0.0
 20
0.0
 30
0.0
  9
$UCSORGRIGHT
 10
0.0
 20
0.0
 30
0.0
  9
$UCSORGFRONT
 10
0.0
 20
0.0
 30
0.0
  9
$UCSORGBACK
 10
0.0
 20
0.0
 30
0.0
  9
$PUCSBASE
  2

  9
$PUCSNAME
  2

  9
$PUCSORG
 10
0.0
 20
0.0
 30
0.0
  9
$PUCSXDIR
 10
1.0
 20
0.0
 30
0.0
  9
$PUCSYDIR
 10
0.0
 20
1.0
 30
0.0
  9
$PUCSORTHOREF
  2

  9
$PUCSORTHOVIEW
 70
     0
  9
$PUCSORGTOP
 10
0.0
 20
0.0
 30
0.0
  9
$PUCSORGBOTTOM
 10
0.0
 20
0.0
 30
0.0
  9
$PUCSORGLEFT
 10
0.0
 20
0.0
 30
0.0
  9
$PUCSORGRIGHT
 10
0.0
 20
0.0
 30
0.0
  9
$PUCSORGFRONT
 10
0.0
 20
0.0
 30
0.0
  9
$PUCSORGBACK
 10
0.0
 20
0.0
 30
0.0
  9
$USERI1
 70
     0
  9
$USERI2
 70
     0
  9
$USERI3
 70
     0
  9
$USERI4
 70
     0
  9
$USERI5
 70
     0
  9
$USERR1
 40
0.0
  9
$USERR2
 40
0.0
  9
$USERR3
 40
0.0
  9
$USERR4
 40
0.0
  9
$USERR5
 40
0.0
  9
$WORLDVIEW
 70
     1
  9
$SHADEDGE
 70
     3
  9
$SHADEDIF
 70
    70
  9
$TILEMODE
 70
     1
  9
$MAXACTVP
 70
    16
  9
$PINSBASE
 10
0.0
 20
0.0
 30
0.0
  9
$PLIMCHECK
 70
     0
  9
$PEXTMIN
 10
1.000000000000000E+20
 20
1.000000000000000E+20
 30
1.000000000000000E+20
  9
$PEXTMAX
 10
-1.000000000000000E+20
 20
-1.000000000000000E+20
 30
-1.000000000000000E+20
  9
$PLIMMIN
 10
0.0
 20
0.0
  9
$PLIMMAX
 10
420.0
 20
297.0
  9
$UNITMODE
 70
     0
  9
$VISRETAIN
 70
     0
  9
$PLINEGEN
 70
     0
  9
$PSLTSCALE
 70
     0
  9
$TREEDEPTH
 70
  3020
  9
$CMLSTYLE
  2
STANDARD
  9
$CMLJUST
 70
     0
  9
$CMLSCALE
 40
1.0
  9
$PROXYGRAPHICS
 70
     1
  9
$MEASUREMENT
 70
     1
  9
$CELWEIGHT
370
    -1
  9
$ENDCAPS
280
     0
  9
$JOINSTYLE
280
     0
  9
$LWDISPLAY
290
     0
  9
$INSUNITS
 70
     0
  9
$HYPERLINKBASE
  1

  9
$STYLESHEET
  1
inaba.ctb
  9
$XEDIT
290
     1
  9
$CEPSNTYPE
380
     0
  9
$PSTYLEMODE
290
     1
  9
$FINGERPRINTGUID
  2
{5EAC461A-2277-4BF8-9AB0-99C43BB394F0}
  9
$VERSIONGUID
  2
{07FB7CC3-232C-406A-BA56-83ABB46EFA93}
  9
$EXTNAMES
290
     1
  9
$PSVPSCALE
 40
0.0
  9
$OLESTARTUP
290
     0
  0
ENDSEC
  0
SECTION
  2
CLASSES
  0
CLASS
  1
ACDBDICTIONARYWDFLT
  2
AcDbDictionaryWithDefault
  3
ObjectDBX Classes
 90
        0
280
     0
281
     0
  0
CLASS
  1
DICTIONARYVAR
  2
AcDbDictionaryVar
  3
ObjectDBX Classes
 90
        0
280
     0
281
     0
  0
CLASS
  1
ACDBPLACEHOLDER
  2
AcDbPlaceHolder
  3
ObjectDBX Classes
 90
        0
280
     0
281
     0
  0
CLASS
  1
LAYOUT
  2
AcDbLayout
  3
ObjectDBX Classes
 90
        0
280
     0
281
     0
  0
ENDSEC
  0
SECTION
  2
TABLES
  0
TABLE
  2
VPORT
  5
746D
330
0
100
AcDbSymbolTable
 70
     2
  0
VPORT
  5
24448
330
746D
100
AcDbSymbolTableRecord
100
AcDbViewportTableRecord
  2
*Active
 70
     0
 10
0.0
 20
0.0
 11
1.0
 21
1.0
 12
9779.741870590704
 22
5704.796475140369
 13
0.0
 23
0.0
 14
10.0
 24
10.0
 15
10.0
 25
10.0
 16
0.0
 26
0.0
 36
1.0
 17
0.0
 27
0.0
 37
0.0
 40
11494.73464854293
 41
1.79295154185022
 42
50.0
 43
0.0
 44
0.0
 50
0.0
 51
0.0
 71
     0
 72
     0
 73
     1
 74
     0
 75
     0
 76
     0
 77
     0
 78
     0
281
     0
 65
     1
110
0.0
120
0.0
130
0.0
111
1.0
121
0.0
131
0.0
112
0.0
122
1.0
132
0.0
 79
     0
146
0.0
  0
ENDTAB
  0
TABLE
  2
LTYPE
  5
746A
330
0
100
AcDbSymbolTable
 70
     3
  0
LTYPE
  5
7477
330
746A
100
AcDbSymbolTableRecord
100
AcDbLinetypeTableRecord
  2
BYBLOCK
 70
     0
  3

 72
    65
 73
     0
 40
0.0
  0
LTYPE
  5
7478
330
746A
100
AcDbSymbolTableRecord
100
AcDbLinetypeTableRecord
  2
BYLAYER
 70
     0
  3

 72
    65
 73
     0
 40
0.0
  0
LTYPE
  5
7479
330
746A
100
AcDbSymbolTableRecord
100
AcDbLinetypeTableRecord
  2
CONTINUOUS
 70
     0
  3
Solid line
 72
    65
 73
     0
 40
0.0
  0
LTYPE
  5
7816
330
746A
100
AcDbSymbolTableRecord
100
AcDbLinetypeTableRecord
  2
CENTER
 70
     0
  3
____ _ ____ _ ____ _ ____ _ ____ _ ____ _ ____ 
 72
    65
 73
     4
 40
2.0
 49
1.25
 74
     0
 49
-0.25
 74
     0
 49
0.25
 74
     0
 49
-0.25
 74
     0
  0
LTYPE
  5
781B
330
746A
100
AcDbSymbolTableRecord
100
AcDbLinetypeTableRecord
  2
PHANTOM
 70
     0
  3
______  __  __  ______  __  __  ______  __  __ 
 72
    65
 73
     6
 40
2.5
 49
1.25
 74
     0
 49
-0.25
 74
     0
 49
0.25
 74
     0
 49
-0.25
 74
     0
 49
0.25
 74
     0
 49
-0.25
 74
     0
  0
ENDTAB
  0
TABLE
  2
LAYER
  5
7467
102
{ACAD_XDICTIONARY
360
1758F
102
}
330
0
100
AcDbSymbolTable
 70
    10
  0
LAYER
  5
7474
330
7467
100
AcDbSymbolTableRecord
100
AcDbLayerTableRecord
  2
0
 70
     0
 62
     7
  6
CONTINUOUS
370
    -3
390
173D0
  0
LAYER
  5
DEB2
330
7467
100
AcDbSymbolTableRecord
100
AcDbLayerTableRecord
  2
センター
 70
     0
 62
     3
  6
CENTER
370
    -3
390
173D0
  0
LAYER
  5
DEB3
330
7467
100
AcDbSymbolTableRecord
100
AcDbLayerTableRecord
  2
寸法
 70
     0
 62
     4
  6
CONTINUOUS
370
    -3
390
173D0
  0
LAYER
  5
DEB4
330
7467
100
AcDbSymbolTableRecord
100
AcDbLayerTableRecord
  2
部品1
 70
     0
 62
     7
  6
CONTINUOUS
370
    -3
390
173D0
  0
LAYER
  5
DEB5
330
7467
100
AcDbSymbolTableRecord
100
AcDbLayerTableRecord
  2
補助
 70
     0
 62
    -1
  6
CONTINUOUS
370
    -3
390
173D0
  0
LAYER
  5
DEB6
330
7467
100
AcDbSymbolTableRecord
100
AcDbLayerTableRecord
  2
文字
 70
     0
 62
     7
  6
CONTINUOUS
370
    -3
390
173D0
  0
LAYER
  5
F255
330
7467
100
AcDbSymbolTableRecord
100
AcDbLayerTableRecord
  2
DEFPOINTS
 70
     0
 62
     7
  6
CONTINUOUS
290
     0
370
    -3
390
173D0
  0
LAYER
  5
10B54
330
7467
100
AcDbSymbolTableRecord
100
AcDbLayerTableRecord
  2
仕様書枠
 70
     0
 62
   230
  6
CONTINUOUS
370
    -3
390
173D0
  0
LAYER
  5
1173F
330
7467
100
AcDbSymbolTableRecord
100
AcDbLayerTableRecord
  2
細線
 70
     0
 62
     5
  6
CONTINUOUS
370
    -3
390
173D0
  0
LAYER
  5
12CC4
330
7467
100
AcDbSymbolTableRecord
100
AcDbLayerTableRecord
  2
想像線
 70
     0
 62
     6
  6
PHANTOM
370
    -3
390
173D0
  0
ENDTAB
  0
TABLE
  2
STYLE
  5
7468
330
0
100
AcDbSymbolTable
 70
     4
  0
STYLE
  5
7475
330
7468
100
AcDbSymbolTableRecord
100
AcDbTextStyleTableRecord
  2
STANDARD
 70
     0
 40
0.0
 41
1.0
 50
0.0
 71
     0
 42
4.0
  3
txt
  4
C:\AutoCAD LT\bigfont.shx
  0
STYLE
  5
763C
330
7468
100
AcDbSymbolTableRecord
100
AcDbTextStyleTableRecord
  2
MSMINCHO
 70
     0
 40
0.0
 41
1.0
 50
0.0
 71
     0
 42
1.199999999999999
  3
C:\AutoCAD LT\msminch2.TTF
  4

  0
STYLE
  5
F706
330
7468
100
AcDbSymbolTableRecord
100
AcDbTextStyleTableRecord
  2
STYLE1
 70
     0
 40
0.0
 41
1.0
 50
0.0
 71
     0
 42
4.0
  3
isocp.shx
  4
bigfont.shx
  0
STYLE
  5
103BF
330
7468
100
AcDbSymbolTableRecord
100
AcDbTextStyleTableRecord
  2
STYLE2
 70
     0
 40
0.0
 41
1.0
 50
0.0
 71
     0
 42
100.0
  3
MS PGothic.ttf
  4

1001
ACAD
1000
MS PGothic
1071
    32818
  0
ENDTAB
  0
TABLE
  2
VIEW
  5
746B
330
0
100
AcDbSymbolTable
 70
     0
  0
ENDTAB
  0
TABLE
  2
UCS
  5
746C
330
0
100
AcDbSymbolTable
 70
     0
  0
ENDTAB
  0
TABLE
  2
APPID
  5
746E
330
0
100
AcDbSymbolTable
 70
     6
  0
APPID
  5
7476
330
746E
100
AcDbSymbolTableRecord
100
AcDbRegAppTableRecord
  2
ACAD
 70
     0
  0
APPID
  5
DEA9
330
746E
100
AcDbSymbolTableRecord
100
AcDbRegAppTableRecord
  2
CONTENTBLOCKICON
 70
     0
  0
APPID
  5
DEAA
330
746E
100
AcDbSymbolTableRecord
100
AcDbRegAppTableRecord
  2
CONTENTBLOCKDESCRIPTION
 70
     0
  0
APPID
  5
E71D
330
746E
100
AcDbSymbolTableRecord
100
AcDbRegAppTableRecord
  2
CONTENTTABDATA
 70
     0
  0
APPID
  5
E71E
330
746E
100
AcDbSymbolTableRecord
100
AcDbRegAppTableRecord
  2
CONTENTCURRENTTAB
 70
     0
  0
APPID
  5
F3BA
330
746E
100
AcDbSymbolTableRecord
100
AcDbRegAppTableRecord
  2
DRAWINGVARIABLESXDATA
 70
     0
  0
ENDTAB
  0
TABLE
  2
DIMSTYLE
  5
746F
330
0
100
AcDbSymbolTable
 70
     1
100
AcDbDimStyleTable
 71
     1
340
F71F
  0
DIMSTYLE
105
F71F
102
{ACAD_REACTORS
330
2411A
330
24081
330
2407B
330
24079
330
24064
330
24022
330
24021
330
24020
330
24013
330
24012
330
2400F
330
2400E
330
2400C
330
2400B
330
24008
330
24005
330
24003
330
24002
330
23FFF
330
23E28
330
23A97
330
23730
330
222D5
330
2227B
330
21966
330
21964
330
21959
330
21958
330
21957
330
21942
330
218CC
330
218B2
330
218AA
330
218A9
330
218A8
330
218A6
330
218A5
330
218A4
330
217E5
330
21671
330
2160C
330
21608
330
215F5
330
215F4
330
215F3
330
215EF
330
215ED
330
20E3A
330
20E15
330
20DFB
330
20DE1
330
1DAC7
330
1D333
330
1D2D6
330
1AC2C
330
1AC27
102
}
330
746F
100
AcDbSymbolTableRecord
100
AcDbDimStyleTableRecord
  2
INABA_S40G
 70
     0
 40
40.0
 41
2.5
 42
0.5
 43
7.0
 44
1.5
 73
     0
 74
     0
 77
     3
 78
     8
140
3.0
141
0.0
143
0.0394
147
1.0
172
     1
173
     1
174
     1
178
     7
271
     1
340
F706
341
F770
343
F770
344
F770
  0
ENDTAB
  0
TABLE
  2
BLOCK_RECORD
  5
7466
330
0
100
AcDbSymbolTable
 70
    40
  0
BLOCK_RECORD
  5
747D
330
7466
100
AcDbSymbolTableRecord
100
AcDbBlockTableRecord
  2
*MODEL_SPACE
340
173D5
  0
BLOCK_RECORD
  5
747A
330
7466
100
AcDbSymbolTableRecord
100
AcDbBlockTableRecord
  2
*PAPER_SPACE
340
173D6
  0
BLOCK_RECORD
  5
F770
330
7466
100
AcDbSymbolTableRecord
100
AcDbBlockTableRecord
  2
_DOTSMALL
340
0
102
{BLKREFS
331
2429C
331
2429D
331
242A5
331
242A6
331
242AE
331
242AF
331
242B7
331
242B8
331
242C0
331
242C1
331
242C9
331
242CA
331
242D4
331
242D5
331
242DD
331
242DE
331
242E7
331
242E8
331
242F0
331
242F1
331
242F9
331
242FA
331
24303
331
24304
331
2430D
331
2430E
331
24316
331
24317
331
2431F
331
24320
331
24329
331
2432A
331
24332
331
24333
331
2433B
331
2433C
331
24344
331
24345
331
2434E
331
2434F
331
24358
331
24359
331
24362
331
24363
331
2436C
331
2436D
331
24375
331
24376
331
2437E
331
2437F
331
24387
331
24388
331
24391
331
24392
331
2439A
331
2439B
331
243A3
331
243A4
331
243AC
331
243AD
331
243B5
331
243B6
331
243BE
331
243BF
331
243C8
331
243C9
331
243D2
331
243D3
331
243DD
331
243DE
331
243E8
331
243E9
331
243F3
331
243F4
331
243FE
331
243FF
331
24409
331
2440A
102
}
  0
BLOCK_RECORD
  5
1DAD7
330
7466
100
AcDbSymbolTableRecord
100
AcDbBlockTableRecord
  2
*D1
340
0
  0
BLOCK_RECORD
  5
20DE2
330
7466
100
AcDbSymbolTableRecord
100
AcDbBlockTableRecord
  2
*D2
340
0
  0
BLOCK_RECORD
  5
20DFC
330
7466
100
AcDbSymbolTableRecord
100
AcDbBlockTableRecord
  2
*D3
340
0
  0
BLOCK_RECORD
  5
20E16
330
7466
100
AcDbSymbolTableRecord
100
AcDbBlockTableRecord
  2
*D4
340
0
  0
BLOCK_RECORD
  5
20E3B
330
7466
100
AcDbSymbolTableRecord
100
AcDbBlockTableRecord
  2
*D5
340
0
  0
BLOCK_RECORD
  5
2196C
330
7466
100
AcDbSymbolTableRecord
100
AcDbBlockTableRecord
  2
*D6
340
0
  0
BLOCK_RECORD
  5
21979
330
7466
100
AcDbSymbolTableRecord
100
AcDbBlockTableRecord
  2
*D7
340
0
  0
BLOCK_RECORD
  5
21986
330
7466
100
AcDbSymbolTableRecord
100
AcDbBlockTableRecord
  2
*D8
340
0
  0
BLOCK_RECORD
  5
21991
330
7466
100
AcDbSymbolTableRecord
100
AcDbBlockTableRecord
  2
*D9
340
0
  0
BLOCK_RECORD
  5
2199D
330
7466
100
AcDbSymbolTableRecord
100
AcDbBlockTableRecord
  2
*D10
340
0
  0
BLOCK_RECORD
  5
219A8
330
7466
100
AcDbSymbolTableRecord
100
AcDbBlockTableRecord
  2
*D11
340
0
  0
BLOCK_RECORD
  5
219B4
330
7466
100
AcDbSymbolTableRecord
100
AcDbBlockTableRecord
  2
*D12
340
0
  0
BLOCK_RECORD
  5
219DD
330
7466
100
AcDbSymbolTableRecord
100
AcDbBlockTableRecord
  2
*D13
340
0
  0
BLOCK_RECORD
  5
219E8
330
7466
100
AcDbSymbolTableRecord
100
AcDbBlockTableRecord
  2
*D14
340
0
  0
BLOCK_RECORD
  5
219F4
330
7466
100
AcDbSymbolTableRecord
100
AcDbBlockTableRecord
  2
*D15
340
0
  0
BLOCK_RECORD
  5
21A0E
330
7466
100
AcDbSymbolTableRecord
100
AcDbBlockTableRecord
  2
*D16
340
0
  0
BLOCK_RECORD
  5
21A1B
330
7466
100
AcDbSymbolTableRecord
100
AcDbBlockTableRecord
  2
*D17
340
0
  0
BLOCK_RECORD
  5
21A28
330
7466
100
AcDbSymbolTableRecord
100
AcDbBlockTableRecord
  2
*D18
340
0
  0
BLOCK_RECORD
  5
21A35
330
7466
100
AcDbSymbolTableRecord
100
AcDbBlockTableRecord
  2
*D19
340
0
  0
BLOCK_RECORD
  5
21A41
330
7466
100
AcDbSymbolTableRecord
100
AcDbBlockTableRecord
  2
*D20
340
0
  0
BLOCK_RECORD
  5
21A66
330
7466
100
AcDbSymbolTableRecord
100
AcDbBlockTableRecord
  2
*D21
340
0
  0
BLOCK_RECORD
  5
21A72
330
7466
100
AcDbSymbolTableRecord
100
AcDbBlockTableRecord
  2
*D22
340
0
  0
BLOCK_RECORD
  5
21A7F
330
7466
100
AcDbSymbolTableRecord
100
AcDbBlockTableRecord
  2
*D23
340
0
  0
BLOCK_RECORD
  5
21A8B
330
7466
100
AcDbSymbolTableRecord
100
AcDbBlockTableRecord
  2
*D24
340
0
  0
BLOCK_RECORD
  5
21AA3
330
7466
100
AcDbSymbolTableRecord
100
AcDbBlockTableRecord
  2
*D25
340
0
  0
BLOCK_RECORD
  5
21AB0
330
7466
100
AcDbSymbolTableRecord
100
AcDbBlockTableRecord
  2
*D26
340
0
  0
BLOCK_RECORD
  5
21AE2
330
7466
100
AcDbSymbolTableRecord
100
AcDbBlockTableRecord
  2
*D27
340
0
  0
BLOCK_RECORD
  5
21AEF
330
7466
100
AcDbSymbolTableRecord
100
AcDbBlockTableRecord
  2
*D28
340
0
  0
BLOCK_RECORD
  5
2227C
330
7466
100
AcDbSymbolTableRecord
100
AcDbBlockTableRecord
  2
*D29
340
0
  0
BLOCK_RECORD
  5
222D6
330
7466
100
AcDbSymbolTableRecord
100
AcDbBlockTableRecord
  2
*D30
340
0
  0
BLOCK_RECORD
  5
23731
330
7466
100
AcDbSymbolTableRecord
100
AcDbBlockTableRecord
  2
*D31
340
0
  0
BLOCK_RECORD
  5
23BBF
330
7466
100
AcDbSymbolTableRecord
100
AcDbBlockTableRecord
  2
*D32
340
0
  0
BLOCK_RECORD
  5
23E29
330
7466
100
AcDbSymbolTableRecord
100
AcDbBlockTableRecord
  2
*D33
340
0
  0
BLOCK_RECORD
  5
24138
330
7466
100
AcDbSymbolTableRecord
100
AcDbBlockTableRecord
  2
*D34
340
0
  0
BLOCK_RECORD
  5
24143
330
7466
100
AcDbSymbolTableRecord
100
AcDbBlockTableRecord
  2
*D35
340
0
  0
BLOCK_RECORD
  5
24151
330
7466
100
AcDbSymbolTableRecord
100
AcDbBlockTableRecord
  2
*D36
340
0
  0
BLOCK_RECORD
  5
2415D
330
7466
100
AcDbSymbolTableRecord
100
AcDbBlockTableRecord
  2
*D37
340
0
  0
BLOCK_RECORD
  5
24169
330
7466
100
AcDbSymbolTableRecord
100
AcDbBlockTableRecord
  2
*D38
340
0
  0
BLOCK_RECORD
  5
24175
330
7466
100
AcDbSymbolTableRecord
100
AcDbBlockTableRecord
  2
*D39
340
0
  0
ENDTAB
  0
ENDSEC
  0
SECTION
  2
BLOCKS
  0
BLOCK
  5
7489
330
747D
100
AcDbEntity
  8
0
100
AcDbBlockBegin
  2
*MODEL_SPACE
 70
     0
 10
0.0
 20
0.0
 30
0.0
  3
*MODEL_SPACE
  1

  0
ENDBLK
  5
748A
330
747D
100
AcDbEntity
  8
0
100
AcDbBlockEnd
  0
BLOCK
  5
7487
330
747A
100
AcDbEntity
 67
     1
  8
0
100
AcDbBlockBegin
  2
*PAPER_SPACE
 70
     0
 10
0.0
 20
0.0
 30
0.0
  3
*PAPER_SPACE
  1

  0
ENDBLK
  5
7488
330
747A
100
AcDbEntity
 67
     1
  8
0
100
AcDbBlockEnd
  0
BLOCK
  5
F771
330
F770
100
AcDbEntity
  8
0
 48
50.0
100
AcDbBlockBegin
  2
_DOTSMALL
 70
     0
 10
0.0
 20
0.0
 30
0.0
  3
_DOTSMALL
  1

  0
LWPOLYLINE
  5
F772
330
F770
100
AcDbEntity
  8
0
  6
ByBlock
 62
     0
 48
50.0
100
AcDbPolyline
 90
        2
 70
     1
 43
0.5
 10
-0.0625
 20
0.0
 42
1.0
 10
0.0625
 20
0.0
 42
1.0
  0
ENDBLK
  5
F776
330
F770
100
AcDbEntity
  8
0
 48
50.0
100
AcDbBlockEnd
  0
BLOCK
  5
1DAE3
330
1DAD7
100
AcDbEntity
  8
0
 48
50.0
100
AcDbBlockBegin
  2
*D1
 70
     1
 10
0.0
 20
0.0
 30
0.0
  3
*D1
  1

  0
LINE
  5
24404
330
1DAD7
100
AcDbEntity
  8
寸法
 62
     0
 48
50.0
370
    -2
100
AcDbLine
 10
8216.600000000001
 20
5754.082677076063
 30
0.0
 11
8523.202780124334
 21
5754.082677076063
 31
0.0
  0
LINE
  5
24405
330
1DAD7
100
AcDbEntity
  8
寸法
 62
     0
 48
50.0
370
    -2
100
AcDbLine
 10
8216.600000000008
 20
5829.082677076065
 30
0.0
 11
8523.202780124334
 21
5829.082677076065
 31
0.0
  0
LINE
  5
24406
330
1DAD7
100
AcDbEntity
  8
寸法
 62
     0
 48
50.0
370
    -2
100
AcDbLine
 10
8463.202780124335
 20
5829.082677076065
 30
0.0
 11
8463.202780124335
 21
5929.082677076064
 31
0.0
  0
LINE
  5
24407
330
1DAD7
100
AcDbEntity
  8
寸法
 62
     0
 48
50.0
370
    -2
100
AcDbLine
 10
8463.202780124335
 20
5754.082677076063
 30
0.0
 11
8463.202780124335
 21
4887.112114327585
 31
0.0
  0
LINE
  5
24408
330
1DAD7
100
AcDbEntity
  8
寸法
 62
     0
 48
50.0
370
    -2
100
AcDbLine
 10
8463.202780124335
 20
5829.082677076065
 30
0.0
 11
8463.202780124335
 21
5754.082677076063
 31
0.0
  0
INSERT
  5
24409
330
1DAD7
100
AcDbEntity
  8
寸法
 62
     0
 48
50.0
370
    -2
100
AcDbBlockReference
  2
_DOTSMALL
 10
8463.202780124335
 20
5829.082677076065
 30
0.0
 41
100.0
 42
100.0
 43
100.0
 50
270.0
  0
INSERT
  5
2440A
330
1DAD7
100
AcDbEntity
  8
寸法
 62
     0
 48
50.0
370
    -2
100
AcDbBlockReference
  2
_DOTSMALL
 10
8463.202780124335
 20
5754.082677076063
 30
0.0
 41
100.0
 42
100.0
 43
100.0
 50
90.0
  0
MTEXT
  5
2440B
330
1DAD7
100
AcDbEntity
  8
寸法
 62
     7
 48
50.0
100
AcDbMText
 10
8363.202780124332
 20
5220.597395701825
 30
0.0
 40
120.0
 41
0.0
 71
     5
 72
     1
  1
\A1;扉の出75
  7
STYLE1
 11
0.0000000000000001
 21
1.0
 31
0.0
 73
     1
 44
1.0
1001
ACAD
1000
MTEXTBEGIN
1070
    73
1070
     1
1070
    44
1040
1.0
1070
    74
1070
     0
1000
MTEXTEND
  0
POINT
  5
2440C
330
1DAD7
100
AcDbEntity
  8
DEFPOINTS
 62
     0
 48
50.0
100
AcDbPoint
 10
8196.600000000001
 20
5754.082677076063
 30
0.0
  0
POINT
  5
2440D
330
1DAD7
100
AcDbEntity
  8
DEFPOINTS
 62
     0
 48
50.0
100
AcDbPoint
 10
8196.600000000008
 20
5829.082677076065
 30
0.0
  0
POINT
  5
2440E
330
1DAD7
100
AcDbEntity
  8
DEFPOINTS
 62
     0
 48
50.0
100
AcDbPoint
 10
8463.202780124335
 20
5829.082677076065
 30
0.0
  0
ENDBLK
  5
1DAE4
330
1DAD7
100
AcDbEntity
  8
0
 48
50.0
100
AcDbBlockEnd
  0
BLOCK
  5
20DEE
330
20DE2
100
AcDbEntity
  8
0
 48
50.0
100
AcDbBlockBegin
  2
*D2
 70
     1
 10
0.0
 20
0.0
 30
0.0
  3
*D2
  1

  0
LINE
  5
243F9
330
20DE2
100
AcDbEntity
  8
寸法
 62
     0
 48
50.0
370
    -2
100
AcDbLine
 10
10438.6
 20
8069.082677076037
 30
0.0
 11
10438.6
 21
9067.302999134961
 31
0.0
  0
LINE
  5
243FA
330
20DE2
100
AcDbEntity
  8
寸法
 62
     0
 48
50.0
370
    -2
100
AcDbLine
 10
10483.6
 20
8814.842303618123
 30
0.0
 11
10483.6
 21
9067.302999134961
 31
0.0
  0
LINE
  5
243FB
330
20DE2
100
AcDbEntity
  8
寸法
 62
     0
 48
50.0
370
    -2
100
AcDbLine
 10
10438.6
 20
9007.302999134962
 30
0.0
 11
10338.6
 21
9007.302999134962
 31
0.0
  0
LINE
  5
243FC
330
20DE2
100
AcDbEntity
  8
寸法
 62
     0
 48
50.0
370
    -2
100
AcDbLine
 10
10483.6
 20
9007.302999134962
 30
0.0
 11
10820.94924240492
 21
9007.302999134962
 31
0.0
  0
LINE
  5
243FD
330
20DE2
100
AcDbEntity
  8
寸法
 62
     0
 48
50.0
370
    -2
100
AcDbLine
 10
10438.6
 20
9007.302999134962
 30
0.0
 11
10483.6
 21
9007.302999134962
 31
0.0
  0
INSERT
  5
243FE
330
20DE2
100
AcDbEntity
  8
寸法
 62
     0
 48
50.0
370
    -2
100
AcDbBlockReference
  2
_DOTSMALL
 10
10438.6
 20
9007.302999134962
 30
0.0
 41
100.0
 42
100.0
 43
100.0
  0
INSERT
  5
243FF
330
20DE2
100
AcDbEntity
  8
寸法
 62
     0
 48
50.0
370
    -2
100
AcDbBlockReference
  2
_DOTSMALL
 10
10483.6
 20
9007.302999134962
 30
0.0
 41
100.0
 42
100.0
 43
100.0
 50
180.0
  0
MTEXT
  5
24400
330
20DE2
100
AcDbEntity
  8
寸法
 62
     7
 48
50.0
100
AcDbMText
 10
10754.77462120246
 20
9107.302999134962
 30
0.0
 40
120.0
 41
0.0
 71
     5
 72
     1
  1
\A1;a
  7
STYLE1
 73
     1
 44
1.0
1001
ACAD
1000
MTEXTBEGIN
1070
    73
1070
     1
1070
    44
1040
1.0
1070
    74
1070
     0
1000
MTEXTEND
  0
POINT
  5
24401
330
20DE2
100
AcDbEntity
  8
DEFPOINTS
 62
     0
 48
50.0
100
AcDbPoint
 10
10438.6
 20
8049.082677076039
 30
0.0
  0
POINT
  5
24402
330
20DE2
100
AcDbEntity
  8
DEFPOINTS
 62
     0
 48
50.0
100
AcDbPoint
 10
10483.6
 20
8794.842303618123
 30
0.0
  0
POINT
  5
24403
330
20DE2
100
AcDbEntity
  8
DEFPOINTS
 62
     0
 48
50.0
100
AcDbPoint
 10
10483.6
 20
9007.302999134962
 30
0.0
  0
ENDBLK
  5
20DEF
330
20DE2
100
AcDbEntity
  8
0
 48
50.0
100
AcDbBlockEnd
  0
BLOCK
  5
20E08
330
20DFC
100
AcDbEntity
  8
0
 48
50.0
100
AcDbBlockBegin
  2
*D3
 70
     1
 10
0.0
 20
0.0
 30
0.0
  3
*D3
  1

  0
LINE
  5
243EE
330
20DFC
100
AcDbEntity
  8
寸法
 62
     0
 48
50.0
370
    -2
100
AcDbLine
 10
5963.600000000009
 20
8814.842303618123
 30
0.0
 11
5963.600000000009
 21
9067.302999134961
 31
0.0
  0
LINE
  5
243EF
330
20DFC
100
AcDbEntity
  8
寸法
 62
     0
 48
50.0
370
    -2
100
AcDbLine
 10
6008.600000000001
 20
8069.082677076037
 30
0.0
 11
6008.600000000001
 21
9067.302999134961
 31
0.0
  0
LINE
  5
243F0
330
20DFC
100
AcDbEntity
  8
寸法
 62
     0
 48
50.0
370
    -2
100
AcDbLine
 10
6008.600000000001
 20
9007.302999134962
 30
0.0
 11
6108.600000000001
 21
9007.302999134962
 31
0.0
  0
LINE
  5
243F1
330
20DFC
100
AcDbEntity
  8
寸法
 62
     0
 48
50.0
370
    -2
100
AcDbLine
 10
5963.600000000009
 20
9007.302999134962
 30
0.0
 11
5626.250757595084
 21
9007.302999134962
 31
0.0
  0
LINE
  5
243F2
330
20DFC
100
AcDbEntity
  8
寸法
 62
     0
 48
50.0
370
    -2
100
AcDbLine
 10
6008.600000000001
 20
9007.302999134962
 30
0.0
 11
5963.600000000009
 21
9007.302999134962
 31
0.0
  0
INSERT
  5
243F3
330
20DFC
100
AcDbEntity
  8
寸法
 62
     0
 48
50.0
370
    -2
100
AcDbBlockReference
  2
_DOTSMALL
 10
6008.600000000001
 20
9007.302999134962
 30
0.0
 41
100.0
 42
100.0
 43
100.0
 50
180.0
  0
INSERT
  5
243F4
330
20DFC
100
AcDbEntity
  8
寸法
 62
     0
 48
50.0
370
    -2
100
AcDbBlockReference
  2
_DOTSMALL
 10
5963.600000000009
 20
9007.302999134962
 30
0.0
 41
100.0
 42
100.0
 43
100.0
  0
MTEXT
  5
243F5
330
20DFC
100
AcDbEntity
  8
寸法
 62
     7
 48
50.0
100
AcDbMText
 10
5692.425378797541
 20
9107.302999134962
 30
0.0
 40
120.0
 41
0.0
 71
     5
 72
     1
  1
\A1;a
  7
STYLE1
 73
     1
 44
1.0
1001
ACAD
1000
MTEXTBEGIN
1070
    73
1070
     1
1070
    44
1040
1.0
1070
    74
1070
     0
1000
MTEXTEND
  0
POINT
  5
243F6
330
20DFC
100
AcDbEntity
  8
DEFPOINTS
 62
     0
 48
50.0
100
AcDbPoint
 10
5963.600000000009
 20
8794.842303618123
 30
0.0
  0
POINT
  5
243F7
330
20DFC
100
AcDbEntity
  8
DEFPOINTS
 62
     0
 48
50.0
100
AcDbPoint
 10
6008.600000000001
 20
8049.082677076039
 30
0.0
  0
POINT
  5
243F8
330
20DFC
100
AcDbEntity
  8
DEFPOINTS
 62
     0
 48
50.0
100
AcDbPoint
 10
6008.600000000001
 20
9007.302999134962
 30
0.0
  0
ENDBLK
  5
20E09
330
20DFC
100
AcDbEntity
  8
0
 48
50.0
100
AcDbBlockEnd
  0
BLOCK
  5
20E22
330
20E16
100
AcDbEntity
  8
0
 48
50.0
100
AcDbBlockBegin
  2
*D4
 70
     1
 10
0.0
 20
0.0
 30
0.0
  3
*D4
  1

  0
LINE
  5
243E3
330
20E16
100
AcDbEntity
  8
寸法
 62
     0
 48
50.0
370
    -2
100
AcDbLine
 10
5492.657733986178
 20
8124.082677076044
 30
0.0
 11
5207.164931848212
 21
8124.082677076044
 31
0.0
  0
LINE
  5
243E4
330
20E16
100
AcDbEntity
  8
寸法
 62
     0
 48
50.0
370
    -2
100
AcDbLine
 10
5988.600000000002
 20
8049.082677076041
 30
0.0
 11
5207.164931848212
 21
8049.082677076041
 31
0.0
  0
LINE
  5
243E5
330
20E16
100
AcDbEntity
  8
寸法
 62
     0
 48
50.0
370
    -2
100
AcDbLine
 10
5267.164931848212
 20
8124.082677076044
 30
0.0
 11
5267.164931848212
 21
8224.082677076044
 31
0.0
  0
LINE
  5
243E6
330
20E16
100
AcDbEntity
  8
寸法
 62
     0
 48
50.0
370
    -2
100
AcDbLine
 10
5267.164931848212
 20
8049.082677076041
 30
0.0
 11
5267.164931848212
 21
7949.082677076042
 31
0.0
  0
LINE
  5
243E7
330
20E16
100
AcDbEntity
  8
寸法
 62
     0
 48
50.0
370
    -2
100
AcDbLine
 10
5267.164931848212
 20
8124.082677076044
 30
0.0
 11
5267.164931848212
 21
8049.082677076041
 31
0.0
  0
INSERT
  5
243E8
330
20E16
100
AcDbEntity
  8
寸法
 62
     0
 48
50.0
370
    -2
100
AcDbBlockReference
  2
_DOTSMALL
 10
5267.164931848212
 20
8124.082677076044
 30
0.0
 41
100.0
 42
100.0
 43
100.0
 50
270.0
  0
INSERT
  5
243E9
330
20E16
100
AcDbEntity
  8
寸法
 62
     0
 48
50.0
370
    -2
100
AcDbBlockReference
  2
_DOTSMALL
 10
5267.164931848212
 20
8049.082677076041
 30
0.0
 41
100.0
 42
100.0
 43
100.0
 50
90.0
  0
MTEXT
  5
243EA
330
20E16
100
AcDbEntity
  8
寸法
 62
     7
 48
50.0
100
AcDbMText
 10
5167.164931848212
 20
8086.582677076043
 30
0.0
 40
120.0
 41
0.0
 71
     5
 72
     1
  1
\A1;c
  7
STYLE1
 11
0.0000000000000001
 21
1.0
 31
0.0
 73
     1
 44
1.0
1001
ACAD
1000
MTEXTBEGIN
1070
    73
1070
     1
1070
    44
1040
1.0
1070
    74
1070
     0
1000
MTEXTEND
  0
POINT
  5
243EB
330
20E16
100
AcDbEntity
  8
DEFPOINTS
 62
     0
 48
50.0
100
AcDbPoint
 10
5512.657733986179
 20
8124.082677076044
 30
0.0
  0
POINT
  5
243EC
330
20E16
100
AcDbEntity
  8
DEFPOINTS
 62
     0
 48
50.0
100
AcDbPoint
 10
6008.600000000002
 20
8049.082677076041
 30
0.0
  0
POINT
  5
243ED
330
20E16
100
AcDbEntity
  8
DEFPOINTS
 62
     0
 48
50.0
100
AcDbPoint
 10
5267.164931848212
 20
8049.082677076041
 30
0.0
  0
ENDBLK
  5
20E23
330
20E16
100
AcDbEntity
  8
0
 48
50.0
100
AcDbBlockEnd
  0
BLOCK
  5
20E47
330
20E3B
100
AcDbEntity
  8
0
 48
50.0
100
AcDbBlockBegin
  2
*D5
 70
     1
 10
0.0
 20
0.0
 30
0.0
  3
*D5
  1

  0
LINE
  5
243D8
330
20E3B
100
AcDbEntity
  8
寸法
 62
     0
 48
50.0
370
    -2
100
AcDbLine
 10
5988.600000000001
 20
5829.082677076041
 30
0.0
 11
5207.164931848212
 21
5829.082677076041
 31
0.0
  0
LINE
  5
243D9
330
20E3B
100
AcDbEntity
  8
寸法
 62
     0
 48
50.0
370
    -2
100
AcDbLine
 10
5492.657733986178
 20
5774.082677076052
 30
0.0
 11
5207.164931848212
 21
5774.082677076052
 31
0.0
  0
LINE
  5
243DA
330
20E3B
100
AcDbEntity
  8
寸法
 62
     0
 48
50.0
370
    -2
100
AcDbLine
 10
5267.164931848212
 20
5829.082677076041
 30
0.0
 11
5267.164931848212
 21
5929.082677076042
 31
0.0
  0
LINE
  5
243DB
330
20E3B
100
AcDbEntity
  8
寸法
 62
     0
 48
50.0
370
    -2
100
AcDbLine
 10
5267.164931848212
 20
5774.082677076052
 30
0.0
 11
5267.164931848212
 21
5674.082677076052
 31
0.0
  0
LINE
  5
243DC
330
20E3B
100
AcDbEntity
  8
寸法
 62
     0
 48
50.0
370
    -2
100
AcDbLine
 10
5267.164931848212
 20
5829.082677076041
 30
0.0
 11
5267.164931848212
 21
5774.082677076052
 31
0.0
  0
INSERT
  5
243DD
330
20E3B
100
AcDbEntity
  8
寸法
 62
     0
 48
50.0
370
    -2
100
AcDbBlockReference
  2
_DOTSMALL
 10
5267.164931848212
 20
5829.082677076041
 30
0.0
 41
100.0
 42
100.0
 43
100.0
 50
270.0
  0
INSERT
  5
243DE
330
20E3B
100
AcDbEntity
  8
寸法
 62
     0
 48
50.0
370
    -2
100
AcDbBlockReference
  2
_DOTSMALL
 10
5267.164931848212
 20
5774.082677076052
 30
0.0
 41
100.0
 42
100.0
 43
100.0
 50
90.0
  0
MTEXT
  5
243DF
330
20E3B
100
AcDbEntity
  8
寸法
 62
     7
 48
50.0
100
AcDbMText
 10
5167.164931848212
 20
5801.582677076048
 30
0.0
 40
120.0
 41
0.0
 71
     5
 72
     1
  1
\A1;b
  7
STYLE1
 11
0.0000000000000001
 21
1.0
 31
0.0
 73
     1
 44
1.0
1001
ACAD
1000
MTEXTBEGIN
1070
    73
1070
     1
1070
    44
1040
1.0
1070
    74
1070
     0
1000
MTEXTEND
  0
POINT
  5
243E0
330
20E3B
100
AcDbEntity
  8
DEFPOINTS
 62
     0
 48
50.0
100
AcDbPoint
 10
6008.600000000001
 20
5829.082677076041
 30
0.0
  0
POINT
  5
243E1
330
20E3B
100
AcDbEntity
  8
DEFPOINTS
 62
     0
 48
50.0
100
AcDbPoint
 10
5512.657733986179
 20
5774.082677076052
 30
0.0
  0
POINT
  5
243E2
330
20E3B
100
AcDbEntity
  8
DEFPOINTS
 62
     0
 48
50.0
100
AcDbPoint
 10
5267.164931848212
 20
5774.082677076052
 30
0.0
  0
ENDBLK
  5
20E48
330
20E3B
100
AcDbEntity
  8
0
 48
50.0
100
AcDbBlockEnd
  0
BLOCK
  5
21977
330
2196C
100
AcDbEntity
  8
0
 48
50.0
100
AcDbBlockBegin
  2
*D6
 70
     1
 10
0.0
 20
0.0
 30
0.0
  3
*D6
  1

  0
LINE
  5
243CE
330
2196C
100
AcDbEntity
  8
寸法
 62
     0
 48
50.0
370
    -2
100
AcDbLine
 10
8762.599867447319
 20
5949.082677076056
 30
0.0
 11
8610.14438614211
 21
5949.082677076056
 31
0.0
  0
LINE
  5
243CF
330
2196C
100
AcDbEntity
  8
寸法
 62
     0
 48
50.0
370
    -2
100
AcDbLine
 10
8255.600000000001
 20
6059.08267707606
 30
0.0
 11
8730.144386142111
 21
6059.08267707606
 31
0.0
  0
LINE
  5
243D0
330
2196C
100
AcDbEntity
  8
寸法
 62
     0
 48
50.0
370
    -2
100
AcDbLine
 10
8670.14438614211
 20
5949.082677076056
 30
0.0
 11
8670.14438614211
 21
6059.08267707606
 31
0.0
  0
LINE
  5
243D1
330
2196C
100
AcDbEntity
  8
寸法
 62
     0
 48
50.0
370
    -2
100
AcDbLine
 10
8670.14438614211
 20
6059.08267707606
 30
0.0
 11
8670.14438614211
 21
6453.188976288672
 31
0.0
  0
INSERT
  5
243D2
330
2196C
100
AcDbEntity
  8
寸法
 62
     0
 48
50.0
370
    -2
100
AcDbBlockReference
  2
_DOTSMALL
 10
8670.14438614211
 20
5949.082677076056
 30
0.0
 41
100.0
 42
100.0
 43
100.0
 50
270.0
  0
INSERT
  5
243D3
330
2196C
100
AcDbEntity
  8
寸法
 62
     0
 48
50.0
370
    -2
100
AcDbBlockReference
  2
_DOTSMALL
 10
8670.14438614211
 20
6059.08267707606
 30
0.0
 41
100.0
 42
100.0
 43
100.0
 50
90.0
  0
MTEXT
  5
243D4
330
2196C
100
AcDbEntity
  8
寸法
 62
     7
 48
50.0
100
AcDbMText
 10
8570.144386142109
 20
6329.141732194184
 30
0.0
 40
120.0
 41
0.0
 71
     5
 72
     1
  1
\A1;110
  7
STYLE1
 11
0.0000000000000001
 21
1.0
 31
0.0
 73
     1
 44
1.0
1001
ACAD
1000
MTEXTBEGIN
1070
    73
1070
     1
1070
    44
1040
1.0
1070
    74
1070
     0
1000
MTEXTEND
  0
POINT
  5
243D5
330
2196C
100
AcDbEntity
  8
DEFPOINTS
 62
     0
 48
50.0
100
AcDbPoint
 10
8782.599867447318
 20
5949.082677076056
 30
0.0
  0
POINT
  5
243D6
330
2196C
100
AcDbEntity
  8
DEFPOINTS
 62
     0
 48
50.0
100
AcDbPoint
 10
8235.600000000001
 20
6059.08267707606
 30
0.0
  0
POINT
  5
243D7
330
2196C
100
AcDbEntity
  8
DEFPOINTS
 62
     0
 48
50.0
100
AcDbPoint
 10
8670.14438614211
 20
6059.08267707606
 30
0.0
  0
ENDBLK
  5
21978
330
2196C
100
AcDbEntity
  8
0
 48
50.0
100
AcDbBlockEnd
  0
BLOCK
  5
21984
330
21979
100
AcDbEntity
  8
0
 48
50.0
100
AcDbBlockBegin
  2
*D7
 70
     1
 10
0.0
 20
0.0
 30
0.0
  3
*D7
  1

  0
LINE
  5
243C4
330
21979
100
AcDbEntity
  8
寸法
 62
     0
 48
50.0
370
    -2
100
AcDbLine
 10
8327.41918098816
 20
5829.082677076069
 30
0.0
 11
8730.144386142111
 21
5829.082677076069
 31
0.0
  0
LINE
  5
243C5
330
21979
100
AcDbEntity
  8
寸法
 62
     0
 48
50.0
370
    -2
100
AcDbLine
 10
8762.599867447319
 20
5949.082677076056
 30
0.0
 11
8610.14438614211
 21
5949.082677076056
 31
0.0
  0
LINE
  5
243C6
330
21979
100
AcDbEntity
  8
寸法
 62
     0
 48
50.0
370
    -2
100
AcDbLine
 10
8670.14438614211
 20
5949.082677076056
 30
0.0
 11
8670.14438614211
 21
5829.082677076069
 31
0.0
  0
LINE
  5
243C7
330
21979
100
AcDbEntity
  8
寸法
 62
     0
 48
50.0
370
    -2
100
AcDbLine
 10
8670.14438614211
 20
5829.082677076069
 30
0.0
 11
8670.14438614211
 21
5356.747128013612
 31
0.0
  0
INSERT
  5
243C8
330
21979
100
AcDbEntity
  8
寸法
 62
     0
 48
50.0
370
    -2
100
AcDbBlockReference
  2
_DOTSMALL
 10
8670.14438614211
 20
5949.082677076056
 30
0.0
 41
100.0
 42
100.0
 43
100.0
 50
90.0
  0
INSERT
  5
243C9
330
21979
100
AcDbEntity
  8
寸法
 62
     0
 48
50.0
370
    -2
100
AcDbBlockReference
  2
_DOTSMALL
 10
8670.14438614211
 20
5829.082677076069
 30
0.0
 41
100.0
 42
100.0
 43
100.0
 50
270.0
  0
MTEXT
  5
243CA
330
21979
100
AcDbEntity
  8
寸法
 62
     7
 48
50.0
100
AcDbMText
 10
8570.132575118487
 20
5492.794372108101
 30
0.0
 40
120.0
 41
0.0
 71
     5
 72
     1
  1
\A1;120
  7
STYLE1
 11
0.0000000000000001
 21
1.0
 31
0.0
 73
     1
 44
1.0
1001
ACAD
1000
MTEXTBEGIN
1070
    73
1070
     1
1070
    44
1040
1.0
1070
    74
1070
     0
1000
MTEXTEND
  0
POINT
  5
243CB
330
21979
100
AcDbEntity
  8
DEFPOINTS
 62
     0
 48
50.0
100
AcDbPoint
 10
8307.41918098816
 20
5829.082677076069
 30
0.0
  0
POINT
  5
243CC
330
21979
100
AcDbEntity
  8
DEFPOINTS
 62
     0
 48
50.0
100
AcDbPoint
 10
8782.599867447318
 20
5949.082677076056
 30
0.0
  0
POINT
  5
243CD
330
21979
100
AcDbEntity
  8
DEFPOINTS
 62
     0
 48
50.0
100
AcDbPoint
 10
8670.14438614211
 20
5949.082677076056
 30
0.0
  0
ENDBLK
  5
21985
330
21979
100
AcDbEntity
  8
0
 48
50.0
100
AcDbBlockEnd
  0
BLOCK
  5
2198F
330
21986
100
AcDbEntity
  8
0
 48
50.0
100
AcDbBlockBegin
  2
*D8
 70
     1
 10
0.0
 20
0.0
 30
0.0
  3
*D8
  1

  0
LINE
  5
243BB
330
21986
100
AcDbEntity
  8
寸法
 62
     0
 48
50.0
370
    -2
100
AcDbLine
 10
6008.600000000001
 20
8069.082677076041
 30
0.0
 11
6008.600000000001
 21
9067.302999134961
 31
0.0
  0
LINE
  5
243BC
330
21986
100
AcDbEntity
  8
寸法
 62
     0
 48
50.0
370
    -2
100
AcDbLine
 10
10438.6
 20
8069.082677076041
 30
0.0
 11
10438.6
 21
9067.302999134961
 31
0.0
  0
LINE
  5
243BD
330
21986
100
AcDbEntity
  8
寸法
 62
     0
 48
50.0
370
    -2
100
AcDbLine
 10
6008.600000000001
 20
9007.302999134962
 30
0.0
 11
10438.6
 21
9007.302999134962
 31
0.0
  0
INSERT
  5
243BE
330
21986
100
AcDbEntity
  8
寸法
 62
     0
 48
50.0
370
    -2
100
AcDbBlockReference
  2
_DOTSMALL
 10
6008.600000000001
 20
9007.302999134962
 30
0.0
 41
100.0
 42
100.0
 43
100.0
 50
180.0
  0
INSERT
  5
243BF
330
21986
100
AcDbEntity
  8
寸法
 62
     0
 48
50.0
370
    -2
100
AcDbBlockReference
  2
_DOTSMALL
 10
10438.6
 20
9007.302999134962
 30
0.0
 41
100.0
 42
100.0
 43
100.0
  0
MTEXT
  5
243C0
330
21986
100
AcDbEntity
  8
寸法
 62
     7
 48
50.0
100
AcDbMText
 10
8223.600000000001
 20
9107.302999134962
 30
0.0
 40
120.0
 41
0.0
 71
     5
 72
     1
  1
\A1;4430
  7
STYLE1
 73
     1
 44
1.0
1001
ACAD
1000
MTEXTBEGIN
1070
    73
1070
     1
1070
    44
1040
1.0
1070
    74
1070
     0
1000
MTEXTEND
  0
POINT
  5
243C1
330
21986
100
AcDbEntity
  8
DEFPOINTS
 62
     0
 48
50.0
100
AcDbPoint
 10
6008.600000000001
 20
8049.082677076041
 30
0.0
  0
POINT
  5
243C2
330
21986
100
AcDbEntity
  8
DEFPOINTS
 62
     0
 48
50.0
100
AcDbPoint
 10
10438.6
 20
8049.082677076041
 30
0.0
  0
POINT
  5
243C3
330
21986
100
AcDbEntity
  8
DEFPOINTS
 62
     0
 48
50.0
100
AcDbPoint
 10
10438.6
 20
9007.302999134962
 30
0.0
  0
ENDBLK
  5
21990
330
21986
100
AcDbEntity
  8
0
 48
50.0
100
AcDbBlockEnd
  0
BLOCK
  5
2199B
330
21991
100
AcDbEntity
  8
0
 48
50.0
100
AcDbBlockBegin
  2
*D9
 70
     1
 10
0.0
 20
0.0
 30
0.0
  3
*D9
  1

  0
LINE
  5
243B2
330
21991
100
AcDbEntity
  8
寸法
 62
     0
 48
50.0
370
    -2
100
AcDbLine
 10
8983.6
 20
7434.082677076043
 30
0.0
 11
8983.6
 21
8635.99244272437
 31
0.0
  0
LINE
  5
243B3
330
21991
100
AcDbEntity
  8
寸法
 62
     0
 48
50.0
370
    -2
100
AcDbLine
 10
8223.600000000001
 20
7059.082677076052
 30
0.0
 11
8223.600000000001
 21
8635.99244272437
 31
0.0
  0
LINE
  5
243B4
330
21991
100
AcDbEntity
  8
寸法
 62
     0
 48
50.0
370
    -2
100
AcDbLine
 10
8983.6
 20
8575.99244272437
 30
0.0
 11
8223.600000000001
 21
8575.99244272437
 31
0.0
  0
INSERT
  5
243B5
330
21991
100
AcDbEntity
  8
寸法
 62
     0
 48
50.0
370
    -2
100
AcDbBlockReference
  2
_DOTSMALL
 10
8983.6
 20
8575.99244272437
 30
0.0
 41
100.0
 42
100.0
 43
100.0
  0
INSERT
  5
243B6
330
21991
100
AcDbEntity
  8
寸法
 62
     0
 48
50.0
370
    -2
100
AcDbBlockReference
  2
_DOTSMALL
 10
8223.600000000001
 20
8575.99244272437
 30
0.0
 41
100.0
 42
100.0
 43
100.0
 50
180.0
  0
MTEXT
  5
243B7
330
21991
100
AcDbEntity
  8
寸法
 62
     7
 48
50.0
100
AcDbMText
 10
8603.6
 20
8675.992442724369
 30
0.0
 40
120.0
 41
0.0
 71
     5
 72
     1
  1
\A1;760
  7
STYLE1
 73
     1
 44
1.0
1001
ACAD
1000
MTEXTBEGIN
1070
    73
1070
     1
1070
    44
1040
1.0
1070
    74
1070
     0
1000
MTEXTEND
  0
POINT
  5
243B8
330
21991
100
AcDbEntity
  8
DEFPOINTS
 62
     0
 48
50.0
100
AcDbPoint
 10
8983.6
 20
7414.082677076042
 30
0.0
  0
POINT
  5
243B9
330
21991
100
AcDbEntity
  8
DEFPOINTS
 62
     0
 48
50.0
100
AcDbPoint
 10
8223.600000000001
 20
7039.082677076051
 30
0.0
  0
POINT
  5
243BA
330
21991
100
AcDbEntity
  8
DEFPOINTS
 62
     0
 48
50.0
100
AcDbPoint
 10
8223.600000000001
 20
8575.99244272437
 30
0.0
  0
ENDBLK
  5
2199C
330
21991
100
AcDbEntity
  8
0
 48
50.0
100
AcDbBlockEnd
  0
BLOCK
  5
219A6
330
2199D
100
AcDbEntity
  8
0
 48
50.0
100
AcDbBlockBegin
  2
*D10
 70
     1
 10
0.0
 20
0.0
 30
0.0
  3
*D10
  1

  0
LINE
  5
243A9
330
2199D
100
AcDbEntity
  8
寸法
 62
     0
 48
50.0
370
    -2
100
AcDbLine
 10
10315.6
 20
7996.082677076042
 30
0.0
 11
10315.6
 21
8854.842303618125
 31
0.0
  0
LINE
  5
243AA
330
2199D
100
AcDbEntity
  8
寸法
 62
     0
 48
50.0
370
    -2
100
AcDbLine
 10
8105.6
 20
7996.082677076042
 30
0.0
 11
8105.6
 21
8854.842303618125
 31
0.0
  0
LINE
  5
243AB
330
2199D
100
AcDbEntity
  8
寸法
 62
     0
 48
50.0
370
    -2
100
AcDbLine
 10
10315.6
 20
8794.842303618125
 30
0.0
 11
8105.6
 21
8794.842303618125
 31
0.0
  0
INSERT
  5
243AC
330
2199D
100
AcDbEntity
  8
寸法
 62
     0
 48
50.0
370
    -2
100
AcDbBlockReference
  2
_DOTSMALL
 10
10315.6
 20
8794.842303618125
 30
0.0
 41
100.0
 42
100.0
 43
100.0
  0
INSERT
  5
243AD
330
2199D
100
AcDbEntity
  8
寸法
 62
     0
 48
50.0
370
    -2
100
AcDbBlockReference
  2
_DOTSMALL
 10
8105.6
 20
8794.842303618125
 30
0.0
 41
100.0
 42
100.0
 43
100.0
 50
180.0
  0
MTEXT
  5
243AE
330
2199D
100
AcDbEntity
  8
寸法
 62
     7
 48
50.0
100
AcDbMText
 10
9210.600000000001
 20
8894.854114641747
 30
0.0
 40
120.0
 41
0.0
 71
     5
 72
     1
  1
\A1;2210
  7
STYLE1
 73
     1
 44
1.0
1001
ACAD
1000
MTEXTBEGIN
1070
    73
1070
     1
1070
    44
1040
1.0
1070
    74
1070
     0
1000
MTEXTEND
  0
POINT
  5
243AF
330
2199D
100
AcDbEntity
  8
DEFPOINTS
 62
     0
 48
50.0
100
AcDbPoint
 10
10315.6
 20
7976.082677076043
 30
0.0
  0
POINT
  5
243B0
330
2199D
100
AcDbEntity
  8
DEFPOINTS
 62
     0
 48
50.0
100
AcDbPoint
 10
8105.6
 20
7976.082677076043
 30
0.0
  0
POINT
  5
243B1
330
2199D
100
AcDbEntity
  8
DEFPOINTS
 62
     0
 48
50.0
100
AcDbPoint
 10
8105.6
 20
8794.842303618125
 30
0.0
  0
ENDBLK
  5
219A7
330
2199D
100
AcDbEntity
  8
0
 48
50.0
100
AcDbBlockEnd
  0
BLOCK
  5
219B2
330
219A8
100
AcDbEntity
  8
0
 48
50.0
100
AcDbBlockBegin
  2
*D11
 70
     1
 10
0.0
 20
0.0
 30
0.0
  3
*D11
  1

  0
LINE
  5
243A0
330
219A8
100
AcDbEntity
  8
寸法
 62
     0
 48
50.0
370
    -2
100
AcDbLine
 10
6061.600000000001
 20
7926.082677076043
 30
0.0
 11
5452.657733986178
 21
7926.082677076043
 31
0.0
  0
LINE
  5
243A1
330
219A8
100
AcDbEntity
  8
寸法
 62
     0
 48
50.0
370
    -2
100
AcDbLine
 10
6061.600000000009
 20
5952.082677076042
 30
0.0
 11
5452.657733986178
 21
5952.082677076042
 31
0.0
  0
LINE
  5
243A2
330
219A8
100
AcDbEntity
  8
寸法
 62
     0
 48
50.0
370
    -2
100
AcDbLine
 10
5512.657733986179
 20
7926.082677076043
 30
0.0
 11
5512.657733986178
 21
5952.082677076042
 31
0.0
  0
INSERT
  5
243A3
330
219A8
100
AcDbEntity
  8
寸法
 62
     0
 48
50.0
370
    -2
100
AcDbBlockReference
  2
_DOTSMALL
 10
5512.657733986179
 20
7926.082677076043
 30
0.0
 41
100.0
 42
100.0
 43
100.0
 50
90.0
  0
INSERT
  5
243A4
330
219A8
100
AcDbEntity
  8
寸法
 62
     0
 48
50.0
370
    -2
100
AcDbBlockReference
  2
_DOTSMALL
 10
5512.657733986178
 20
5952.082677076042
 30
0.0
 41
100.0
 42
100.0
 43
100.0
 50
270.0
  0
MTEXT
  5
243A5
330
219A8
100
AcDbEntity
  8
寸法
 62
     7
 48
50.0
100
AcDbMText
 10
5412.657733986176
 20
6939.082677076043
 30
0.0
 40
120.0
 41
0.0
 71
     5
 72
     1
  1
\A1;1974
  7
STYLE1
 11
0.0000000000000001
 21
1.0
 31
0.0
 73
     1
 44
1.0
1001
ACAD
1000
MTEXTBEGIN
1070
    73
1070
     1
1070
    44
1040
1.0
1070
    74
1070
     0
1000
MTEXTEND
  0
POINT
  5
243A6
330
219A8
100
AcDbEntity
  8
DEFPOINTS
 62
     0
 48
50.0
100
AcDbPoint
 10
6081.6
 20
7926.082677076043
 30
0.0
  0
POINT
  5
243A7
330
219A8
100
AcDbEntity
  8
DEFPOINTS
 62
     0
 48
50.0
100
AcDbPoint
 10
6081.600000000008
 20
5952.082677076042
 30
0.0
  0
POINT
  5
243A8
330
219A8
100
AcDbEntity
  8
DEFPOINTS
 62
     0
 48
50.0
100
AcDbPoint
 10
5512.657733986178
 20
5952.082677076042
 30
0.0
  0
ENDBLK
  5
219B3
330
219A8
100
AcDbEntity
  8
0
 48
50.0
100
AcDbBlockEnd
  0
BLOCK
  5
219BD
330
219B4
100
AcDbEntity
  8
0
 48
50.0
100
AcDbBlockBegin
  2
*D12
 70
     1
 10
0.0
 20
0.0
 30
0.0
  3
*D12
  1

  0
LINE
  5
24397
330
219B4
100
AcDbEntity
  8
寸法
 62
     0
 48
50.0
370
    -2
100
AcDbLine
 10
5988.600000000001
 20
8049.082677076041
 30
0.0
 11
5207.164931848211
 21
8049.082677076041
 31
0.0
  0
LINE
  5
24398
330
219B4
100
AcDbEntity
  8
寸法
 62
     0
 48
50.0
370
    -2
100
AcDbLine
 10
5988.600000000001
 20
5829.082677076041
 30
0.0
 11
5207.164931848211
 21
5829.082677076041
 31
0.0
  0
LINE
  5
24399
330
219B4
100
AcDbEntity
  8
寸法
 62
     0
 48
50.0
370
    -2
100
AcDbLine
 10
5267.164931848212
 20
8049.082677076041
 30
0.0
 11
5267.16493184821
 21
5829.082677076041
 31
0.0
  0
INSERT
  5
2439A
330
219B4
100
AcDbEntity
  8
寸法
 62
     0
 48
50.0
370
    -2
100
AcDbBlockReference
  2
_DOTSMALL
 10
5267.164931848212
 20
8049.082677076041
 30
0.0
 41
100.0
 42
100.0
 43
100.0
 50
90.0
  0
INSERT
  5
2439B
330
219B4
100
AcDbEntity
  8
寸法
 62
     0
 48
50.0
370
    -2
100
AcDbBlockReference
  2
_DOTSMALL
 10
5267.16493184821
 20
5829.082677076041
 30
0.0
 41
100.0
 42
100.0
 43
100.0
 50
270.0
  0
MTEXT
  5
2439C
330
219B4
100
AcDbEntity
  8
寸法
 62
     7
 48
50.0
100
AcDbMText
 10
5167.153120824588
 20
6939.082677076043
 30
0.0
 40
120.0
 41
0.0
 71
     5
 72
     1
  1
\A1;2220
  7
STYLE1
 11
0.0000000000000001
 21
1.0
 31
0.0
 73
     1
 44
1.0
1001
ACAD
1000
MTEXTBEGIN
1070
    73
1070
     1
1070
    44
1040
1.0
1070
    74
1070
     0
1000
MTEXTEND
  0
POINT
  5
2439D
330
219B4
100
AcDbEntity
  8
DEFPOINTS
 62
     0
 48
50.0
100
AcDbPoint
 10
6008.600000000001
 20
8049.082677076041
 30
0.0
  0
POINT
  5
2439E
330
219B4
100
AcDbEntity
  8
DEFPOINTS
 62
     0
 48
50.0
100
AcDbPoint
 10
6008.600000000001
 20
5829.082677076041
 30
0.0
  0
POINT
  5
2439F
330
219B4
100
AcDbEntity
  8
DEFPOINTS
 62
     0
 48
50.0
100
AcDbPoint
 10
5267.16493184821
 20
5829.082677076041
 30
0.0
  0
ENDBLK
  5
219BE
330
219B4
100
AcDbEntity
  8
0
 48
50.0
100
AcDbBlockEnd
  0
BLOCK
  5
219E6
330
219DD
100
AcDbEntity
  8
0
 48
50.0
100
AcDbBlockBegin
  2
*D13
 70
     1
 10
0.0
 20
0.0
 30
0.0
  3
*D13
  1

  0
LINE
  5
2437B
330
219DD
100
AcDbEntity
  8
寸法
 62
     0
 48
50.0
370
    -2
100
AcDbLine
 10
6773.6
 20
7434.082677076043
 30
0.0
 11
6773.6
 21
8635.99244272437
 31
0.0
  0
LINE
  5
2437C
330
219DD
100
AcDbEntity
  8
寸法
 62
     0
 48
50.0
370
    -2
100
AcDbLine
 10
6008.600000000001
 20
8069.082677076041
 30
0.0
 11
6008.600000000001
 21
8635.99244272437
 31
0.0
  0
LINE
  5
2437D
330
219DD
100
AcDbEntity
  8
寸法
 62
     0
 48
50.0
370
    -2
100
AcDbLine
 10
6773.6
 20
8575.99244272437
 30
0.0
 11
6008.600000000001
 21
8575.99244272437
 31
0.0
  0
INSERT
  5
2437E
330
219DD
100
AcDbEntity
  8
寸法
 62
     0
 48
50.0
370
    -2
100
AcDbBlockReference
  2
_DOTSMALL
 10
6773.6
 20
8575.99244272437
 30
0.0
 41
100.0
 42
100.0
 43
100.0
  0
INSERT
  5
2437F
330
219DD
100
AcDbEntity
  8
寸法
 62
     0
 48
50.0
370
    -2
100
AcDbBlockReference
  2
_DOTSMALL
 10
6008.600000000001
 20
8575.99244272437
 30
0.0
 41
100.0
 42
100.0
 43
100.0
 50
180.0
  0
MTEXT
  5
24380
330
219DD
100
AcDbEntity
  8
寸法
 62
     7
 48
50.0
100
AcDbMText
 10
6391.100000000001
 20
8675.992442724369
 30
0.0
 40
120.0
 41
0.0
 71
     5
 72
     1
  1
\A1;765
  7
STYLE1
 73
     1
 44
1.0
1001
ACAD
1000
MTEXTBEGIN
1070
    73
1070
     1
1070
    44
1040
1.0
1070
    74
1070
     0
1000
MTEXTEND
  0
POINT
  5
24381
330
219DD
100
AcDbEntity
  8
DEFPOINTS
 62
     0
 48
50.0
100
AcDbPoint
 10
6773.6
 20
7414.082677076042
 30
0.0
  0
POINT
  5
24382
330
219DD
100
AcDbEntity
  8
DEFPOINTS
 62
     0
 48
50.0
100
AcDbPoint
 10
6008.600000000001
 20
8049.082677076041
 30
0.0
  0
POINT
  5
24383
330
219DD
100
AcDbEntity
  8
DEFPOINTS
 62
     0
 48
50.0
100
AcDbPoint
 10
6008.600000000001
 20
8575.99244272437
 30
0.0
  0
ENDBLK
  5
219E7
330
219DD
100
AcDbEntity
  8
0
 48
50.0
100
AcDbBlockEnd
  0
BLOCK
  5
219F2
330
219E8
100
AcDbEntity
  8
0
 48
50.0
100
AcDbBlockBegin
  2
*D14
 70
     1
 10
0.0
 20
0.0
 30
0.0
  3
*D14
  1

  0
LINE
  5
24372
330
219E8
100
AcDbEntity
  8
寸法
 62
     0
 48
50.0
370
    -2
100
AcDbLine
 10
8105.6
 20
7996.082677076042
 30
0.0
 11
8105.6
 21
8854.842303618125
 31
0.0
  0
LINE
  5
24373
330
219E8
100
AcDbEntity
  8
寸法
 62
     0
 48
50.0
370
    -2
100
AcDbLine
 10
6131.6
 20
7996.082677076042
 30
0.0
 11
6131.6
 21
8854.842303618125
 31
0.0
  0
LINE
  5
24374
330
219E8
100
AcDbEntity
  8
寸法
 62
     0
 48
50.0
370
    -2
100
AcDbLine
 10
8105.6
 20
8794.842303618125
 30
0.0
 11
6131.6
 21
8794.842303618125
 31
0.0
  0
INSERT
  5
24375
330
219E8
100
AcDbEntity
  8
寸法
 62
     0
 48
50.0
370
    -2
100
AcDbBlockReference
  2
_DOTSMALL
 10
8105.6
 20
8794.842303618125
 30
0.0
 41
100.0
 42
100.0
 43
100.0
  0
INSERT
  5
24376
330
219E8
100
AcDbEntity
  8
寸法
 62
     0
 48
50.0
370
    -2
100
AcDbBlockReference
  2
_DOTSMALL
 10
6131.6
 20
8794.842303618125
 30
0.0
 41
100.0
 42
100.0
 43
100.0
 50
180.0
  0
MTEXT
  5
24377
330
219E8
100
AcDbEntity
  8
寸法
 62
     7
 48
50.0
100
AcDbMText
 10
7118.6
 20
8894.842303618125
 30
0.0
 40
120.0
 41
0.0
 71
     5
 72
     1
  1
\A1;1974
  7
STYLE1
 73
     1
 44
1.0
1001
ACAD
1000
MTEXTBEGIN
1070
    73
1070
     1
1070
    44
1040
1.0
1070
    74
1070
     0
1000
MTEXTEND
  0
POINT
  5
24378
330
219E8
100
AcDbEntity
  8
DEFPOINTS
 62
     0
 48
50.0
100
AcDbPoint
 10
8105.6
 20
7976.082677076043
 30
0.0
  0
POINT
  5
24379
330
219E8
100
AcDbEntity
  8
DEFPOINTS
 62
     0
 48
50.0
100
AcDbPoint
 10
6131.6
 20
7976.082677076043
 30
0.0
  0
POINT
  5
2437A
330
219E8
100
AcDbEntity
  8
DEFPOINTS
 62
     0
 48
50.0
100
AcDbPoint
 10
6131.6
 20
8794.842303618125
 30
0.0
  0
ENDBLK
  5
219F3
330
219E8
100
AcDbEntity
  8
0
 48
50.0
100
AcDbBlockEnd
  0
BLOCK
  5
219FF
330
219F4
100
AcDbEntity
  8
0
 48
50.0
100
AcDbBlockBegin
  2
*D15
 70
     1
 10
0.0
 20
0.0
 30
0.0
  3
*D15
  1

  0
LINE
  5
24368
330
219F4
100
AcDbEntity
  8
寸法
 62
     0
 48
50.0
370
    -2
100
AcDbLine
 10
6131.6
 20
7996.082677076042
 30
0.0
 11
6131.6
 21
8854.842303618125
 31
0.0
  0
LINE
  5
24369
330
219F4
100
AcDbEntity
  8
寸法
 62
     0
 48
50.0
370
    -2
100
AcDbLine
 10
6008.600000000001
 20
8069.082677076041
 30
0.0
 11
6008.600000000001
 21
8854.842303618125
 31
0.0
  0
LINE
  5
2436A
330
219F4
100
AcDbEntity
  8
寸法
 62
     0
 48
50.0
370
    -2
100
AcDbLine
 10
6131.6
 20
8794.842303618125
 30
0.0
 11
6008.600000000001
 21
8794.842303618125
 31
0.0
  0
LINE
  5
2436B
330
219F4
100
AcDbEntity
  8
寸法
 62
     0
 48
50.0
370
    -2
100
AcDbLine
 10
6008.600000000001
 20
8794.842303618125
 30
0.0
 11
5597.008116907963
 21
8794.842303618125
 31
0.0
  0
INSERT
  5
2436C
330
219F4
100
AcDbEntity
  8
寸法
 62
     0
 48
50.0
370
    -2
100
AcDbBlockReference
  2
_DOTSMALL
 10
6131.6
 20
8794.842303618125
 30
0.0
 41
100.0
 42
100.0
 43
100.0
  0
INSERT
  5
2436D
330
219F4
100
AcDbEntity
  8
寸法
 62
     0
 48
50.0
370
    -2
100
AcDbBlockReference
  2
_DOTSMALL
 10
6008.600000000001
 20
8794.842303618125
 30
0.0
 41
100.0
 42
100.0
 43
100.0
 50
180.0
  0
MTEXT
  5
2436E
330
219F4
100
AcDbEntity
  8
寸法
 62
     7
 48
50.0
100
AcDbMText
 10
5735.493398282202
 20
8894.854114641747
 30
0.0
 40
120.0
 41
0.0
 71
     5
 72
     1
  1
\A1;123
  7
STYLE1
 73
     1
 44
1.0
1001
ACAD
1000
MTEXTBEGIN
1070
    73
1070
     1
1070
    44
1040
1.0
1070
    74
1070
     0
1000
MTEXTEND
  0
POINT
  5
2436F
330
219F4
100
AcDbEntity
  8
DEFPOINTS
 62
     0
 48
50.0
100
AcDbPoint
 10
6131.6
 20
7976.082677076043
 30
0.0
  0
POINT
  5
24370
330
219F4
100
AcDbEntity
  8
DEFPOINTS
 62
     0
 48
50.0
100
AcDbPoint
 10
6008.600000000001
 20
8049.082677076041
 30
0.0
  0
POINT
  5
24371
330
219F4
100
AcDbEntity
  8
DEFPOINTS
 62
     0
 48
50.0
100
AcDbPoint
 10
6008.600000000001
 20
8794.842303618125
 30
0.0
  0
ENDBLK
  5
21A00
330
219F4
100
AcDbEntity
  8
0
 48
50.0
100
AcDbBlockEnd
  0
BLOCK
  5
21A19
330
21A0E
100
AcDbEntity
  8
0
 48
50.0
100
AcDbBlockBegin
  2
*D16
 70
     1
 10
0.0
 20
0.0
 30
0.0
  3
*D16
  1

  0
LINE
  5
2435E
330
21A0E
100
AcDbEntity
  8
寸法
 62
     0
 48
50.0
370
    -2
100
AcDbLine
 10
5988.600000000001
 20
8049.082677076041
 30
0.0
 11
5452.657733986178
 21
8049.082677076041
 31
0.0
  0
LINE
  5
2435F
330
21A0E
100
AcDbEntity
  8
寸法
 62
     0
 48
50.0
370
    -2
100
AcDbLine
 10
6061.600000000001
 20
7926.082677076043
 30
0.0
 11
5452.657733986178
 21
7926.082677076043
 31
0.0
  0
LINE
  5
24360
330
21A0E
100
AcDbEntity
  8
寸法
 62
     0
 48
50.0
370
    -2
100
AcDbLine
 10
5512.657733986179
 20
7926.082677076043
 30
0.0
 11
5512.657733986179
 21
8049.082677076041
 31
0.0
  0
LINE
  5
24361
330
21A0E
100
AcDbEntity
  8
寸法
 62
     0
 48
50.0
370
    -2
100
AcDbLine
 10
5512.657733986179
 20
8049.082677076041
 30
0.0
 11
5512.657733986179
 21
8460.674560168078
 31
0.0
  0
INSERT
  5
24362
330
21A0E
100
AcDbEntity
  8
寸法
 62
     0
 48
50.0
370
    -2
100
AcDbBlockReference
  2
_DOTSMALL
 10
5512.657733986179
 20
7926.082677076043
 30
0.0
 41
100.0
 42
100.0
 43
100.0
 50
270.0
  0
INSERT
  5
24363
330
21A0E
100
AcDbEntity
  8
寸法
 62
     0
 48
50.0
370
    -2
100
AcDbBlockReference
  2
_DOTSMALL
 10
5512.657733986179
 20
8049.082677076041
 30
0.0
 41
100.0
 42
100.0
 43
100.0
 50
90.0
  0
MTEXT
  5
24364
330
21A0E
100
AcDbEntity
  8
寸法
 62
     7
 48
50.0
100
AcDbMText
 10
5412.645922962556
 20
8322.189278793841
 30
0.0
 40
120.0
 41
0.0
 71
     5
 72
     1
  1
\A1;123
  7
STYLE1
 11
0.0000000000000001
 21
1.0
 31
0.0
 73
     1
 44
1.0
1001
ACAD
1000
MTEXTBEGIN
1070
    73
1070
     1
1070
    44
1040
1.0
1070
    74
1070
     0
1000
MTEXTEND
  0
POINT
  5
24365
330
21A0E
100
AcDbEntity
  8
DEFPOINTS
 62
     0
 48
50.0
100
AcDbPoint
 10
6008.600000000001
 20
8049.082677076041
 30
0.0
  0
POINT
  5
24366
330
21A0E
100
AcDbEntity
  8
DEFPOINTS
 62
     0
 48
50.0
100
AcDbPoint
 10
6081.6
 20
7926.082677076043
 30
0.0
  0
POINT
  5
24367
330
21A0E
100
AcDbEntity
  8
DEFPOINTS
 62
     0
 48
50.0
100
AcDbPoint
 10
5512.657733986179
 20
7926.082677076043
 30
0.0
  0
ENDBLK
  5
21A1A
330
21A0E
100
AcDbEntity
  8
0
 48
50.0
100
AcDbBlockEnd
  0
BLOCK
  5
21A26
330
21A1B
100
AcDbEntity
  8
0
 48
50.0
100
AcDbBlockBegin
  2
*D17
 70
     1
 10
0.0
 20
0.0
 30
0.0
  3
*D17
  1

  0
LINE
  5
24354
330
21A1B
100
AcDbEntity
  8
寸法
 62
     0
 48
50.0
370
    -2
100
AcDbLine
 10
6258.600000000001
 20
7929.08267707604
 30
0.0
 11
6515.307249876099
 21
7929.08267707604
 31
0.0
  0
LINE
  5
24355
330
21A1B
100
AcDbEntity
  8
寸法
 62
     0
 48
50.0
370
    -2
100
AcDbLine
 10
6258.600000000001
 20
8049.082677076039
 30
0.0
 11
6515.307249876099
 21
8049.082677076039
 31
0.0
  0
LINE
  5
24356
330
21A1B
100
AcDbEntity
  8
寸法
 62
     0
 48
50.0
370
    -2
100
AcDbLine
 10
6455.307249876098
 20
7929.08267707604
 30
0.0
 11
6455.307249876098
 21
8049.082677076039
 31
0.0
  0
LINE
  5
24357
330
21A1B
100
AcDbEntity
  8
寸法
 62
     0
 48
50.0
370
    -2
100
AcDbLine
 10
6455.307249876098
 20
8049.082677076039
 30
0.0
 11
6455.307249876098
 21
8463.213464443411
 31
0.0
  0
INSERT
  5
24358
330
21A1B
100
AcDbEntity
  8
寸法
 62
     0
 48
50.0
370
    -2
100
AcDbBlockReference
  2
_DOTSMALL
 10
6455.307249876098
 20
7929.08267707604
 30
0.0
 41
100.0
 42
100.0
 43
100.0
 50
270.0
  0
INSERT
  5
24359
330
21A1B
100
AcDbEntity
  8
寸法
 62
     0
 48
50.0
370
    -2
100
AcDbBlockReference
  2
_DOTSMALL
 10
6455.307249876098
 20
8049.082677076039
 30
0.0
 41
100.0
 42
100.0
 43
100.0
 50
90.0
  0
MTEXT
  5
2435A
330
21A1B
100
AcDbEntity
  8
寸法
 62
     7
 48
50.0
100
AcDbMText
 10
6355.295438852476
 20
8327.166220348926
 30
0.0
 40
120.0
 41
0.0
 71
     5
 72
     1
  1
\A1;120
  7
STYLE1
 11
0.0000000000000001
 21
1.0
 31
0.0
 73
     1
 44
1.0
1001
ACAD
1000
MTEXTBEGIN
1070
    73
1070
     1
1070
    44
1040
1.0
1070
    74
1070
     0
1000
MTEXTEND
  0
POINT
  5
2435B
330
21A1B
100
AcDbEntity
  8
DEFPOINTS
 62
     0
 48
50.0
100
AcDbPoint
 10
6238.6
 20
7929.08267707604
 30
0.0
  0
POINT
  5
2435C
330
21A1B
100
AcDbEntity
  8
DEFPOINTS
 62
     0
 48
50.0
100
AcDbPoint
 10
6238.6
 20
8049.082677076039
 30
0.0
  0
POINT
  5
2435D
330
21A1B
100
AcDbEntity
  8
DEFPOINTS
 62
     0
 48
50.0
100
AcDbPoint
 10
6455.307249876098
 20
8049.082677076039
 30
0.0
  0
ENDBLK
  5
21A27
330
21A1B
100
AcDbEntity
  8
0
 48
50.0
100
AcDbBlockEnd
  0
BLOCK
  5
21A33
330
21A28
100
AcDbEntity
  8
0
 48
50.0
100
AcDbBlockBegin
  2
*D18
 70
     1
 10
0.0
 20
0.0
 30
0.0
  3
*D18
  1

  0
LINE
  5
2434A
330
21A28
100
AcDbEntity
  8
寸法
 62
     0
 48
50.0
370
    -2
100
AcDbLine
 10
6258.600000000001
 20
7929.082677076042
 30
0.0
 11
6515.307249876099
 21
7929.082677076042
 31
0.0
  0
LINE
  5
2434B
330
21A28
100
AcDbEntity
  8
寸法
 62
     0
 48
50.0
370
    -2
100
AcDbLine
 10
6258.600000000001
 20
7819.082677076038
 30
0.0
 11
6515.307249876099
 21
7819.082677076038
 31
0.0
  0
LINE
  5
2434C
330
21A28
100
AcDbEntity
  8
寸法
 62
     0
 48
50.0
370
    -2
100
AcDbLine
 10
6455.307249876098
 20
7929.082677076042
 30
0.0
 11
6455.307249876098
 21
7819.082677076038
 31
0.0
  0
LINE
  5
2434D
330
21A28
100
AcDbEntity
  8
寸法
 62
     0
 48
50.0
370
    -2
100
AcDbLine
 10
6455.307249876098
 20
7819.082677076038
 30
0.0
 11
6455.307249876098
 21
7354.976377863438
 31
0.0
  0
INSERT
  5
2434E
330
21A28
100
AcDbEntity
  8
寸法
 62
     0
 48
50.0
370
    -2
100
AcDbBlockReference
  2
_DOTSMALL
 10
6455.307249876098
 20
7929.082677076042
 30
0.0
 41
100.0
 42
100.0
 43
100.0
 50
90.0
  0
INSERT
  5
2434F
330
21A28
100
AcDbEntity
  8
寸法
 62
     0
 48
50.0
370
    -2
100
AcDbBlockReference
  2
_DOTSMALL
 10
6455.307249876098
 20
7819.082677076038
 30
0.0
 41
100.0
 42
100.0
 43
100.0
 50
270.0
  0
MTEXT
  5
24350
330
21A28
100
AcDbEntity
  8
寸法
 62
     7
 48
50.0
100
AcDbMText
 10
6355.307249876098
 20
7479.023621957927
 30
0.0
 40
120.0
 41
0.0
 71
     5
 72
     1
  1
\A1;110
  7
STYLE1
 11
0.0000000000000001
 21
1.0
 31
0.0
 73
     1
 44
1.0
1001
ACAD
1000
MTEXTBEGIN
1070
    73
1070
     1
1070
    44
1040
1.0
1070
    74
1070
     0
1000
MTEXTEND
  0
POINT
  5
24351
330
21A28
100
AcDbEntity
  8
DEFPOINTS
 62
     0
 48
50.0
100
AcDbPoint
 10
6238.6
 20
7929.082677076042
 30
0.0
  0
POINT
  5
24352
330
21A28
100
AcDbEntity
  8
DEFPOINTS
 62
     0
 48
50.0
100
AcDbPoint
 10
6238.6
 20
7819.082677076038
 30
0.0
  0
POINT
  5
24353
330
21A28
100
AcDbEntity
  8
DEFPOINTS
 62
     0
 48
50.0
100
AcDbPoint
 10
6455.307249876098
 20
7819.082677076038
 30
0.0
  0
ENDBLK
  5
21A34
330
21A28
100
AcDbEntity
  8
0
 48
50.0
100
AcDbBlockEnd
  0
BLOCK
  5
21A3F
330
21A35
100
AcDbEntity
  8
0
 48
50.0
100
AcDbBlockBegin
  2
*D19
 70
     1
 10
0.0
 20
0.0
 30
0.0
  3
*D19
  1

  0
LINE
  5
24341
330
21A35
100
AcDbEntity
  8
寸法
 62
     0
 48
50.0
370
    -2
100
AcDbLine
 10
8223.600000000001
 20
7059.082677076052
 30
0.0
 11
8223.600000000001
 21
8635.99244272437
 31
0.0
  0
LINE
  5
24342
330
21A35
100
AcDbEntity
  8
寸法
 62
     0
 48
50.0
370
    -2
100
AcDbLine
 10
7463.600000000001
 20
7534.082677076042
 30
0.0
 11
7463.600000000001
 21
8635.99244272437
 31
0.0
  0
LINE
  5
24343
330
21A35
100
AcDbEntity
  8
寸法
 62
     0
 48
50.0
370
    -2
100
AcDbLine
 10
8223.600000000001
 20
8575.99244272437
 30
0.0
 11
7463.600000000001
 21
8575.99244272437
 31
0.0
  0
INSERT
  5
24344
330
21A35
100
AcDbEntity
  8
寸法
 62
     0
 48
50.0
370
    -2
100
AcDbBlockReference
  2
_DOTSMALL
 10
8223.600000000001
 20
8575.99244272437
 30
0.0
 41
100.0
 42
100.0
 43
100.0
  0
INSERT
  5
24345
330
21A35
100
AcDbEntity
  8
寸法
 62
     0
 48
50.0
370
    -2
100
AcDbBlockReference
  2
_DOTSMALL
 10
7463.600000000001
 20
8575.99244272437
 30
0.0
 41
100.0
 42
100.0
 43
100.0
 50
180.0
  0
MTEXT
  5
24346
330
21A35
100
AcDbEntity
  8
寸法
 62
     7
 48
50.0
100
AcDbMText
 10
7843.600000000001
 20
8675.992442724369
 30
0.0
 40
120.0
 41
0.0
 71
     5
 72
     1
  1
\A1;760
  7
STYLE1
 73
     1
 44
1.0
1001
ACAD
1000
MTEXTBEGIN
1070
    73
1070
     1
1070
    44
1040
1.0
1070
    74
1070
     0
1000
MTEXTEND
  0
POINT
  5
24347
330
21A35
100
AcDbEntity
  8
DEFPOINTS
 62
     0
 48
50.0
100
AcDbPoint
 10
8223.600000000001
 20
7039.082677076051
 30
0.0
  0
POINT
  5
24348
330
21A35
100
AcDbEntity
  8
DEFPOINTS
 62
     0
 48
50.0
100
AcDbPoint
 10
7463.600000000001
 20
7514.082677076043
 30
0.0
  0
POINT
  5
24349
330
21A35
100
AcDbEntity
  8
DEFPOINTS
 62
     0
 48
50.0
100
AcDbPoint
 10
7463.600000000001
 20
8575.99244272437
 30
0.0
  0
ENDBLK
  5
21A40
330
21A35
100
AcDbEntity
  8
0
 48
50.0
100
AcDbBlockEnd
  0
BLOCK
  5
21A4B
330
21A41
100
AcDbEntity
  8
0
 48
50.0
100
AcDbBlockBegin
  2
*D20
 70
     1
 10
0.0
 20
0.0
 30
0.0
  3
*D20
  1

  0
LINE
  5
24338
330
21A41
100
AcDbEntity
  8
寸法
 62
     0
 48
50.0
370
    -2
100
AcDbLine
 10
9553.600000000001
 20
7314.082677076043
 30
0.0
 11
9249.531448609053
 21
7314.082677076043
 31
0.0
  0
LINE
  5
24339
330
21A41
100
AcDbEntity
  8
寸法
 62
     0
 48
50.0
370
    -2
100
AcDbLine
 10
9553.600000000001
 20
6564.082677076043
 30
0.0
 11
9249.531448609053
 21
6564.082677076043
 31
0.0
  0
LINE
  5
2433A
330
21A41
100
AcDbEntity
  8
寸法
 62
     0
 48
50.0
370
    -2
100
AcDbLine
 10
9309.531448609051
 20
7314.082677076043
 30
0.0
 11
9309.531448609051
 21
6564.082677076043
 31
0.0
  0
INSERT
  5
2433B
330
21A41
100
AcDbEntity
  8
寸法
 62
     0
 48
50.0
370
    -2
100
AcDbBlockReference
  2
_DOTSMALL
 10
9309.531448609051
 20
7314.082677076043
 30
0.0
 41
100.0
 42
100.0
 43
100.0
 50
90.0
  0
INSERT
  5
2433C
330
21A41
100
AcDbEntity
  8
寸法
 62
     0
 48
50.0
370
    -2
100
AcDbBlockReference
  2
_DOTSMALL
 10
9309.531448609051
 20
6564.082677076043
 30
0.0
 41
100.0
 42
100.0
 43
100.0
 50
270.0
  0
MTEXT
  5
2433D
330
21A41
100
AcDbEntity
  8
寸法
 62
     7
 48
50.0
100
AcDbMText
 10
9209.53144860905
 20
6939.082677076043
 30
0.0
 40
120.0
 41
0.0
 71
     5
 72
     1
  1
\A1;750
  7
STYLE1
 11
0.0000000000000001
 21
1.0
 31
0.0
 73
     1
 44
1.0
1001
ACAD
1000
MTEXTBEGIN
1070
    73
1070
     1
1070
    44
1040
1.0
1070
    74
1070
     0
1000
MTEXTEND
  0
POINT
  5
2433E
330
21A41
100
AcDbEntity
  8
DEFPOINTS
 62
     0
 48
50.0
100
AcDbPoint
 10
9573.6
 20
7314.082677076043
 30
0.0
  0
POINT
  5
2433F
330
21A41
100
AcDbEntity
  8
DEFPOINTS
 62
     0
 48
50.0
100
AcDbPoint
 10
9573.6
 20
6564.082677076043
 30
0.0
  0
POINT
  5
24340
330
21A41
100
AcDbEntity
  8
DEFPOINTS
 62
     0
 48
50.0
100
AcDbPoint
 10
9309.531448609051
 20
6564.082677076043
 30
0.0
  0
ENDBLK
  5
21A4C
330
21A41
100
AcDbEntity
  8
0
 48
50.0
100
AcDbBlockEnd
  0
BLOCK
  5
21A70
330
21A66
100
AcDbEntity
  8
0
 48
50.0
100
AcDbBlockBegin
  2
*D21
 70
     1
 10
0.0
 20
0.0
 30
0.0
  3
*D21
  1

  0
LINE
  5
2432F
330
21A66
100
AcDbEntity
  8
寸法
 62
     0
 48
50.0
370
    -2
100
AcDbLine
 10
9230.045939259559
 20
5829.082677076051
 30
0.0
 11
9369.531448609052
 21
5829.082677076051
 31
0.0
  0
LINE
  5
24330
330
21A66
100
AcDbEntity
  8
寸法
 62
     0
 48
50.0
370
    -2
100
AcDbLine
 10
9553.600000000001
 20
6564.082677076043
 30
0.0
 11
9249.531448609053
 21
6564.082677076043
 31
0.0
  0
LINE
  5
24331
330
21A66
100
AcDbEntity
  8
寸法
 62
     0
 48
50.0
370
    -2
100
AcDbLine
 10
9309.531448609051
 20
5829.082677076051
 30
0.0
 11
9309.531448609051
 21
6564.082677076043
 31
0.0
  0
INSERT
  5
24332
330
21A66
100
AcDbEntity
  8
寸法
 62
     0
 48
50.0
370
    -2
100
AcDbBlockReference
  2
_DOTSMALL
 10
9309.531448609051
 20
5829.082677076051
 30
0.0
 41
100.0
 42
100.0
 43
100.0
 50
270.0
  0
INSERT
  5
24333
330
21A66
100
AcDbEntity
  8
寸法
 62
     0
 48
50.0
370
    -2
100
AcDbBlockReference
  2
_DOTSMALL
 10
9309.531448609051
 20
6564.082677076043
 30
0.0
 41
100.0
 42
100.0
 43
100.0
 50
90.0
  0
MTEXT
  5
24334
330
21A66
100
AcDbEntity
  8
寸法
 62
     7
 48
50.0
100
AcDbMText
 10
9209.53144860905
 20
6196.582677076047
 30
0.0
 40
120.0
 41
0.0
 71
     5
 72
     1
  1
\A1;735
  7
STYLE1
 11
0.0000000000000001
 21
1.0
 31
0.0
 73
     1
 44
1.0
1001
ACAD
1000
MTEXTBEGIN
1070
    73
1070
     1
1070
    44
1040
1.0
1070
    74
1070
     0
1000
MTEXTEND
  0
POINT
  5
24335
330
21A66
100
AcDbEntity
  8
DEFPOINTS
 62
     0
 48
50.0
100
AcDbPoint
 10
9210.045939259561
 20
5829.082677076051
 30
0.0
  0
POINT
  5
24336
330
21A66
100
AcDbEntity
  8
DEFPOINTS
 62
     0
 48
50.0
100
AcDbPoint
 10
9573.6
 20
6564.082677076043
 30
0.0
  0
POINT
  5
24337
330
21A66
100
AcDbEntity
  8
DEFPOINTS
 62
     0
 48
50.0
100
AcDbPoint
 10
9309.531448609051
 20
6564.082677076043
 30
0.0
  0
ENDBLK
  5
21A71
330
21A66
100
AcDbEntity
  8
0
 48
50.0
100
AcDbBlockEnd
  0
BLOCK
  5
21A7D
330
21A72
100
AcDbEntity
  8
0
 48
50.0
100
AcDbBlockBegin
  2
*D22
 70
     1
 10
0.0
 20
0.0
 30
0.0
  3
*D22
  1

  0
LINE
  5
24325
330
21A72
100
AcDbEntity
  8
寸法
 62
     0
 48
50.0
370
    -2
100
AcDbLine
 10
10318.6
 20
7799.082677076042
 30
0.0
 11
10318.6
 21
7531.374009575667
 31
0.0
  0
LINE
  5
24326
330
21A72
100
AcDbEntity
  8
寸法
 62
     0
 48
50.0
370
    -2
100
AcDbLine
 10
10208.6
 20
7799.082677076039
 30
0.0
 11
10208.6
 21
7531.374009575667
 31
0.0
  0
LINE
  5
24327
330
21A72
100
AcDbEntity
  8
寸法
 62
     0
 48
50.0
370
    -2
100
AcDbLine
 10
10318.6
 20
7591.374009575668
 30
0.0
 11
10208.6
 21
7591.374009575668
 31
0.0
  0
LINE
  5
24328
330
21A72
100
AcDbEntity
  8
寸法
 62
     0
 48
50.0
370
    -2
100
AcDbLine
 10
10208.6
 20
7591.374009575668
 30
0.0
 11
9814.493700787403
 21
7591.374009575668
 31
0.0
  0
INSERT
  5
24329
330
21A72
100
AcDbEntity
  8
寸法
 62
     0
 48
50.0
370
    -2
100
AcDbBlockReference
  2
_DOTSMALL
 10
10318.6
 20
7591.374009575668
 30
0.0
 41
100.0
 42
100.0
 43
100.0
  0
INSERT
  5
2432A
330
21A72
100
AcDbEntity
  8
寸法
 62
     0
 48
50.0
370
    -2
100
AcDbBlockReference
  2
_DOTSMALL
 10
10208.6
 20
7591.374009575668
 30
0.0
 41
100.0
 42
100.0
 43
100.0
 50
180.0
  0
MTEXT
  5
2432B
330
21A72
100
AcDbEntity
  8
寸法
 62
     7
 48
50.0
100
AcDbMText
 10
9938.540944881893
 20
7691.374009575667
 30
0.0
 40
120.0
 41
0.0
 71
     5
 72
     1
  1
\A1;110
  7
STYLE1
 73
     1
 44
1.0
1001
ACAD
1000
MTEXTBEGIN
1070
    73
1070
     1
1070
    44
1040
1.0
1070
    74
1070
     0
1000
MTEXTEND
  0
POINT
  5
2432C
330
21A72
100
AcDbEntity
  8
DEFPOINTS
 62
     0
 48
50.0
100
AcDbPoint
 10
10318.6
 20
7819.082677076043
 30
0.0
  0
POINT
  5
2432D
330
21A72
100
AcDbEntity
  8
DEFPOINTS
 62
     0
 48
50.0
100
AcDbPoint
 10
10208.6
 20
7819.082677076038
 30
0.0
  0
POINT
  5
2432E
330
21A72
100
AcDbEntity
  8
DEFPOINTS
 62
     0
 48
50.0
100
AcDbPoint
 10
10208.6
 20
7591.374009575668
 30
0.0
  0
ENDBLK
  5
21A7E
330
21A72
100
AcDbEntity
  8
0
 48
50.0
100
AcDbBlockEnd
  0
BLOCK
  5
21A89
330
21A7F
100
AcDbEntity
  8
0
 48
50.0
100
AcDbBlockBegin
  2
*D23
 70
     1
 10
0.0
 20
0.0
 30
0.0
  3
*D23
  1

  0
LINE
  5
2431C
330
21A7F
100
AcDbEntity
  8
寸法
 62
     0
 48
50.0
370
    -2
100
AcDbLine
 10
10438.6
 20
8069.082677076041
 30
0.0
 11
10438.6
 21
8635.99244272437
 31
0.0
  0
LINE
  5
2431D
330
21A7F
100
AcDbEntity
  8
寸法
 62
     0
 48
50.0
370
    -2
100
AcDbLine
 10
9673.6
 20
7534.082677076042
 30
0.0
 11
9673.6
 21
8635.99244272437
 31
0.0
  0
LINE
  5
2431E
330
21A7F
100
AcDbEntity
  8
寸法
 62
     0
 48
50.0
370
    -2
100
AcDbLine
 10
10438.6
 20
8575.99244272437
 30
0.0
 11
9673.6
 21
8575.99244272437
 31
0.0
  0
INSERT
  5
2431F
330
21A7F
100
AcDbEntity
  8
寸法
 62
     0
 48
50.0
370
    -2
100
AcDbBlockReference
  2
_DOTSMALL
 10
10438.6
 20
8575.99244272437
 30
0.0
 41
100.0
 42
100.0
 43
100.0
  0
INSERT
  5
24320
330
21A7F
100
AcDbEntity
  8
寸法
 62
     0
 48
50.0
370
    -2
100
AcDbBlockReference
  2
_DOTSMALL
 10
9673.6
 20
8575.99244272437
 30
0.0
 41
100.0
 42
100.0
 43
100.0
 50
180.0
  0
MTEXT
  5
24321
330
21A7F
100
AcDbEntity
  8
寸法
 62
     7
 48
50.0
100
AcDbMText
 10
10056.1
 20
8675.992442724369
 30
0.0
 40
120.0
 41
0.0
 71
     5
 72
     1
  1
\A1;765
  7
STYLE1
 73
     1
 44
1.0
1001
ACAD
1000
MTEXTBEGIN
1070
    73
1070
     1
1070
    44
1040
1.0
1070
    74
1070
     0
1000
MTEXTEND
  0
POINT
  5
24322
330
21A7F
100
AcDbEntity
  8
DEFPOINTS
 62
     0
 48
50.0
100
AcDbPoint
 10
10438.6
 20
8049.082677076041
 30
0.0
  0
POINT
  5
24323
330
21A7F
100
AcDbEntity
  8
DEFPOINTS
 62
     0
 48
50.0
100
AcDbPoint
 10
9673.6
 20
7514.082677076043
 30
0.0
  0
POINT
  5
24324
330
21A7F
100
AcDbEntity
  8
DEFPOINTS
 62
     0
 48
50.0
100
AcDbPoint
 10
9673.6
 20
8575.99244272437
 30
0.0
  0
ENDBLK
  5
21A8A
330
21A7F
100
AcDbEntity
  8
0
 48
50.0
100
AcDbBlockEnd
  0
BLOCK
  5
21A94
330
21A8B
100
AcDbEntity
  8
0
 48
50.0
100
AcDbBlockBegin
  2
*D24
 70
     1
 10
0.0
 20
0.0
 30
0.0
  3
*D24
  1

  0
LINE
  5
24313
330
21A8B
100
AcDbEntity
  8
寸法
 62
     0
 48
50.0
370
    -2
100
AcDbLine
 10
9553.600000000001
 20
7314.082677076043
 30
0.0
 11
9249.531448609053
 21
7314.082677076043
 31
0.0
  0
LINE
  5
24314
330
21A8B
100
AcDbEntity
  8
寸法
 62
     0
 48
50.0
370
    -2
100
AcDbLine
 10
9134.157431058357
 20
8049.082677076041
 30
0.0
 11
9369.531448609052
 21
8049.082677076041
 31
0.0
  0
LINE
  5
24315
330
21A8B
100
AcDbEntity
  8
寸法
 62
     0
 48
50.0
370
    -2
100
AcDbLine
 10
9309.531448609051
 20
7314.082677076043
 30
0.0
 11
9309.531448609051
 21
8049.082677076041
 31
0.0
  0
INSERT
  5
24316
330
21A8B
100
AcDbEntity
  8
寸法
 62
     0
 48
50.0
370
    -2
100
AcDbBlockReference
  2
_DOTSMALL
 10
9309.531448609051
 20
7314.082677076043
 30
0.0
 41
100.0
 42
100.0
 43
100.0
 50
270.0
  0
INSERT
  5
24317
330
21A8B
100
AcDbEntity
  8
寸法
 62
     0
 48
50.0
370
    -2
100
AcDbBlockReference
  2
_DOTSMALL
 10
9309.531448609051
 20
8049.082677076041
 30
0.0
 41
100.0
 42
100.0
 43
100.0
 50
90.0
  0
MTEXT
  5
24318
330
21A8B
100
AcDbEntity
  8
寸法
 62
     7
 48
50.0
100
AcDbMText
 10
9209.53144860905
 20
7681.582677076043
 30
0.0
 40
120.0
 41
0.0
 71
     5
 72
     1
  1
\A1;735
  7
STYLE1
 11
0.0000000000000001
 21
1.0
 31
0.0
 73
     1
 44
1.0
1001
ACAD
1000
MTEXTBEGIN
1070
    73
1070
     1
1070
    44
1040
1.0
1070
    74
1070
     0
1000
MTEXTEND
  0
POINT
  5
24319
330
21A8B
100
AcDbEntity
  8
DEFPOINTS
 62
     0
 48
50.0
100
AcDbPoint
 10
9573.6
 20
7314.082677076043
 30
0.0
  0
POINT
  5
2431A
330
21A8B
100
AcDbEntity
  8
DEFPOINTS
 62
     0
 48
50.0
100
AcDbPoint
 10
9114.157431058357
 20
8049.082677076041
 30
0.0
  0
POINT
  5
2431B
330
21A8B
100
AcDbEntity
  8
DEFPOINTS
 62
     0
 48
50.0
100
AcDbPoint
 10
9309.531448609051
 20
8049.082677076041
 30
0.0
  0
ENDBLK
  5
21A95
330
21A8B
100
AcDbEntity
  8
0
 48
50.0
100
AcDbBlockEnd
  0
BLOCK
  5
21AAE
330
21AA3
100
AcDbEntity
  8
0
 48
50.0
100
AcDbBlockBegin
  2
*D25
 70
     1
 10
0.0
 20
0.0
 30
0.0
  3
*D25
  1

  0
LINE
  5
24309
330
21AA3
100
AcDbEntity
  8
寸法
 62
     0
 48
50.0
370
    -2
100
AcDbLine
 10
10438.6
 20
8069.082677076041
 30
0.0
 11
10438.6
 21
8854.842303618125
 31
0.0
  0
LINE
  5
2430A
330
21AA3
100
AcDbEntity
  8
寸法
 62
     0
 48
50.0
370
    -2
100
AcDbLine
 10
10315.6
 20
7996.082677076042
 30
0.0
 11
10315.6
 21
8854.842303618125
 31
0.0
  0
LINE
  5
2430B
330
21AA3
100
AcDbEntity
  8
寸法
 62
     0
 48
50.0
370
    -2
100
AcDbLine
 10
10315.6
 20
8794.842303618125
 30
0.0
 11
10438.6
 21
8794.842303618125
 31
0.0
  0
LINE
  5
2430C
330
21AA3
100
AcDbEntity
  8
寸法
 62
     0
 48
50.0
370
    -2
100
AcDbLine
 10
10438.6
 20
8794.842303618125
 30
0.0
 11
10850.19188309204
 21
8794.842303618125
 31
0.0
  0
INSERT
  5
2430D
330
21AA3
100
AcDbEntity
  8
寸法
 62
     0
 48
50.0
370
    -2
100
AcDbBlockReference
  2
_DOTSMALL
 10
10315.6
 20
8794.842303618125
 30
0.0
 41
100.0
 42
100.0
 43
100.0
 50
180.0
  0
INSERT
  5
2430E
330
21AA3
100
AcDbEntity
  8
寸法
 62
     0
 48
50.0
370
    -2
100
AcDbBlockReference
  2
_DOTSMALL
 10
10438.6
 20
8794.842303618125
 30
0.0
 41
100.0
 42
100.0
 43
100.0
  0
MTEXT
  5
2430F
330
21AA3
100
AcDbEntity
  8
寸法
 62
     7
 48
50.0
100
AcDbMText
 10
10711.7066017178
 20
8894.854114641747
 30
0.0
 40
120.0
 41
0.0
 71
     5
 72
     1
  1
\A1;123
  7
STYLE1
 73
     1
 44
1.0
1001
ACAD
1000
MTEXTBEGIN
1070
    73
1070
     1
1070
    44
1040
1.0
1070
    74
1070
     0
1000
MTEXTEND
  0
POINT
  5
24310
330
21AA3
100
AcDbEntity
  8
DEFPOINTS
 62
     0
 48
50.0
100
AcDbPoint
 10
10438.6
 20
8049.082677076041
 30
0.0
  0
POINT
  5
24311
330
21AA3
100
AcDbEntity
  8
DEFPOINTS
 62
     0
 48
50.0
100
AcDbPoint
 10
10315.6
 20
7976.082677076043
 30
0.0
  0
POINT
  5
24312
330
21AA3
100
AcDbEntity
  8
DEFPOINTS
 62
     0
 48
50.0
100
AcDbPoint
 10
10315.6
 20
8794.842303618125
 30
0.0
  0
ENDBLK
  5
21AAF
330
21AA3
100
AcDbEntity
  8
0
 48
50.0
100
AcDbBlockEnd
  0
BLOCK
  5
21ABB
330
21AB0
100
AcDbEntity
  8
0
 48
50.0
100
AcDbBlockBegin
  2
*D26
 70
     1
 10
0.0
 20
0.0
 30
0.0
  3
*D26
  1

  0
LINE
  5
242FF
330
21AB0
100
AcDbEntity
  8
寸法
 62
     0
 48
50.0
370
    -2
100
AcDbLine
 10
10438.6
 20
7588.367273614498
 30
0.0
 11
10438.6
 21
7531.374009575667
 31
0.0
  0
LINE
  5
24300
330
21AB0
100
AcDbEntity
  8
寸法
 62
     0
 48
50.0
370
    -2
100
AcDbLine
 10
10318.6
 20
7799.082677076042
 30
0.0
 11
10318.6
 21
7531.374009575667
 31
0.0
  0
LINE
  5
24301
330
21AB0
100
AcDbEntity
  8
寸法
 62
     0
 48
50.0
370
    -2
100
AcDbLine
 10
10318.6
 20
7591.374009575668
 30
0.0
 11
10438.6
 21
7591.374009575668
 31
0.0
  0
LINE
  5
24302
330
21AB0
100
AcDbEntity
  8
寸法
 62
     0
 48
50.0
370
    -2
100
AcDbLine
 10
10438.6
 20
7591.374009575668
 30
0.0
 11
10844.7062992126
 21
7591.374009575668
 31
0.0
  0
INSERT
  5
24303
330
21AB0
100
AcDbEntity
  8
寸法
 62
     0
 48
50.0
370
    -2
100
AcDbBlockReference
  2
_DOTSMALL
 10
10318.6
 20
7591.374009575668
 30
0.0
 41
100.0
 42
100.0
 43
100.0
 50
180.0
  0
INSERT
  5
24304
330
21AB0
100
AcDbEntity
  8
寸法
 62
     0
 48
50.0
370
    -2
100
AcDbBlockReference
  2
_DOTSMALL
 10
10438.6
 20
7591.374009575668
 30
0.0
 41
100.0
 42
100.0
 43
100.0
  0
MTEXT
  5
24305
330
21AB0
100
AcDbEntity
  8
寸法
 62
     7
 48
50.0
100
AcDbMText
 10
10708.65905511811
 20
7691.38582059929
 30
0.0
 40
120.0
 41
0.0
 71
     5
 72
     1
  1
\A1;120
  7
STYLE1
 73
     1
 44
1.0
1001
ACAD
1000
MTEXTBEGIN
1070
    73
1070
     1
1070
    44
1040
1.0
1070
    74
1070
     0
1000
MTEXTEND
  0
POINT
  5
24306
330
21AB0
100
AcDbEntity
  8
DEFPOINTS
 62
     0
 48
50.0
100
AcDbPoint
 10
10438.6
 20
7608.367273614497
 30
0.0
  0
POINT
  5
24307
330
21AB0
100
AcDbEntity
  8
DEFPOINTS
 62
     0
 48
50.0
100
AcDbPoint
 10
10318.6
 20
7819.082677076043
 30
0.0
  0
POINT
  5
24308
330
21AB0
100
AcDbEntity
  8
DEFPOINTS
 62
     0
 48
50.0
100
AcDbPoint
 10
10318.6
 20
7591.374009575668
 30
0.0
  0
ENDBLK
  5
21ABC
330
21AB0
100
AcDbEntity
  8
0
 48
50.0
100
AcDbBlockEnd
  0
BLOCK
  5
21AED
330
21AE2
100
AcDbEntity
  8
0
 48
50.0
100
AcDbBlockBegin
  2
*D27
 70
     1
 10
0.0
 20
0.0
 30
0.0
  3
*D27
  1

  0
LINE
  5
2438D
330
21AE2
100
AcDbEntity
  8
寸法
 62
     0
 48
50.0
370
    -2
100
AcDbLine
 10
6061.600000000009
 20
5952.082677076042
 30
0.0
 11
5452.657733986178
 21
5952.082677076042
 31
0.0
  0
LINE
  5
2438E
330
21AE2
100
AcDbEntity
  8
寸法
 62
     0
 48
50.0
370
    -2
100
AcDbLine
 10
5988.600000000001
 20
5829.08267707603
 30
0.0
 11
5452.657733986178
 21
5829.08267707603
 31
0.0
  0
LINE
  5
2438F
330
21AE2
100
AcDbEntity
  8
寸法
 62
     0
 48
50.0
370
    -2
100
AcDbLine
 10
5512.657733986179
 20
5952.082677076042
 30
0.0
 11
5512.657733986179
 21
5829.08267707603
 31
0.0
  0
LINE
  5
24390
330
21AE2
100
AcDbEntity
  8
寸法
 62
     0
 48
50.0
370
    -2
100
AcDbLine
 10
5512.657733986179
 20
5829.08267707603
 30
0.0
 11
5512.657733986179
 21
5355.066446859209
 31
0.0
  0
INSERT
  5
24391
330
21AE2
100
AcDbEntity
  8
寸法
 62
     0
 48
50.0
370
    -2
100
AcDbBlockReference
  2
_DOTSMALL
 10
5512.657733986179
 20
5952.082677076042
 30
0.0
 41
100.0
 42
100.0
 43
100.0
 50
90.0
  0
INSERT
  5
24392
330
21AE2
100
AcDbEntity
  8
寸法
 62
     0
 48
50.0
370
    -2
100
AcDbBlockReference
  2
_DOTSMALL
 10
5512.657733986179
 20
5829.08267707603
 30
0.0
 41
100.0
 42
100.0
 43
100.0
 50
270.0
  0
MTEXT
  5
24393
330
21AE2
100
AcDbEntity
  8
寸法
 62
     7
 48
50.0
100
AcDbMText
 10
5412.645922962556
 20
5493.551728233449
 30
0.0
 40
120.0
 41
0.0
 71
     5
 72
     1
  1
\A1;123
  7
STYLE1
 11
0.0000000000000001
 21
1.0
 31
0.0
 73
     1
 44
1.0
1001
ACAD
1000
MTEXTBEGIN
1070
    73
1070
     1
1070
    44
1040
1.0
1070
    74
1070
     0
1000
MTEXTEND
  0
POINT
  5
24394
330
21AE2
100
AcDbEntity
  8
DEFPOINTS
 62
     0
 48
50.0
100
AcDbPoint
 10
6081.600000000008
 20
5952.082677076042
 30
0.0
  0
POINT
  5
24395
330
21AE2
100
AcDbEntity
  8
DEFPOINTS
 62
     0
 48
50.0
100
AcDbPoint
 10
6008.600000000001
 20
5829.08267707603
 30
0.0
  0
POINT
  5
24396
330
21AE2
100
AcDbEntity
  8
DEFPOINTS
 62
     0
 48
50.0
100
AcDbPoint
 10
5512.657733986179
 20
5829.08267707603
 30
0.0
  0
ENDBLK
  5
21AEE
330
21AE2
100
AcDbEntity
  8
0
 48
50.0
100
AcDbBlockEnd
  0
BLOCK
  5
21AF7
330
21AEF
100
AcDbEntity
  8
0
 48
50.0
100
AcDbBlockBegin
  2
*D28
 70
     1
 10
0.0
 20
0.0
 30
0.0
  3
*D28
  1

  0
LINE
  5
24384
330
21AEF
100
AcDbEntity
  8
寸法
 62
     0
 48
50.0
370
    -2
100
AcDbLine
 10
8235.600000000001
 20
6079.082677076059
 30
0.0
 11
8235.600000000001
 21
6375.33706418395
 31
0.0
  0
LINE
  5
24385
330
21AEF
100
AcDbEntity
  8
寸法
 62
     0
 48
50.0
370
    -2
100
AcDbLine
 10
7975.6
 20
6079.082677076059
 30
0.0
 11
7975.6
 21
6375.33706418395
 31
0.0
  0
LINE
  5
24386
330
21AEF
100
AcDbEntity
  8
寸法
 62
     0
 48
50.0
370
    -2
100
AcDbLine
 10
8235.600000000001
 20
6315.33706418395
 30
0.0
 11
7975.6
 21
6315.33706418395
 31
0.0
  0
INSERT
  5
24387
330
21AEF
100
AcDbEntity
  8
寸法
 62
     0
 48
50.0
370
    -2
100
AcDbBlockReference
  2
_DOTSMALL
 10
8235.600000000001
 20
6315.33706418395
 30
0.0
 41
100.0
 42
100.0
 43
100.0
  0
INSERT
  5
24388
330
21AEF
100
AcDbEntity
  8
寸法
 62
     0
 48
50.0
370
    -2
100
AcDbBlockReference
  2
_DOTSMALL
 10
7975.6
 20
6315.33706418395
 30
0.0
 41
100.0
 42
100.0
 43
100.0
 50
180.0
  0
MTEXT
  5
24389
330
21AEF
100
AcDbEntity
  8
寸法
 62
     7
 48
50.0
100
AcDbMText
 10
8105.6
 20
6415.348875207572
 30
0.0
 40
120.0
 41
0.0
 71
     5
 72
     1
  1
\A1;260
  7
STYLE1
 73
     1
 44
1.0
1001
ACAD
1000
MTEXTBEGIN
1070
    73
1070
     1
1070
    44
1040
1.0
1070
    74
1070
     0
1000
MTEXTEND
  0
POINT
  5
2438A
330
21AEF
100
AcDbEntity
  8
DEFPOINTS
 62
     0
 48
50.0
100
AcDbPoint
 10
8235.600000000001
 20
6059.08267707606
 30
0.0
  0
POINT
  5
2438B
330
21AEF
100
AcDbEntity
  8
DEFPOINTS
 62
     0
 48
50.0
100
AcDbPoint
 10
7975.6
 20
6059.08267707606
 30
0.0
  0
POINT
  5
2438C
330
21AEF
100
AcDbEntity
  8
DEFPOINTS
 62
     0
 48
50.0
100
AcDbPoint
 10
7975.6
 20
6315.33706418395
 30
0.0
  0
ENDBLK
  5
21AF8
330
21AEF
100
AcDbEntity
  8
0
 48
50.0
100
AcDbBlockEnd
  0
BLOCK
  5
22286
330
2227C
100
AcDbEntity
  8
0
 48
50.0
100
AcDbBlockBegin
  2
*D29
 70
     1
 10
0.0
 20
0.0
 30
0.0
  3
*D29
  1

  0
LINE
  5
242F6
330
2227C
100
AcDbEntity
  8
寸法
 62
     0
 48
50.0
370
    -2
100
AcDbLine
 10
7463.600000000001
 20
7434.082677076043
 30
0.0
 11
7463.600000000001
 21
8635.99244272437
 31
0.0
  0
LINE
  5
242F7
330
2227C
100
AcDbEntity
  8
寸法
 62
     0
 48
50.0
370
    -2
100
AcDbLine
 10
6773.6
 20
7434.082677076043
 30
0.0
 11
6773.6
 21
8635.99244272437
 31
0.0
  0
LINE
  5
242F8
330
2227C
100
AcDbEntity
  8
寸法
 62
     0
 48
50.0
370
    -2
100
AcDbLine
 10
7463.600000000001
 20
8575.99244272437
 30
0.0
 11
6773.6
 21
8575.99244272437
 31
0.0
  0
INSERT
  5
242F9
330
2227C
100
AcDbEntity
  8
寸法
 62
     0
 48
50.0
370
    -2
100
AcDbBlockReference
  2
_DOTSMALL
 10
7463.600000000001
 20
8575.99244272437
 30
0.0
 41
100.0
 42
100.0
 43
100.0
  0
INSERT
  5
242FA
330
2227C
100
AcDbEntity
  8
寸法
 62
     0
 48
50.0
370
    -2
100
AcDbBlockReference
  2
_DOTSMALL
 10
6773.6
 20
8575.99244272437
 30
0.0
 41
100.0
 42
100.0
 43
100.0
 50
180.0
  0
MTEXT
  5
242FB
330
2227C
100
AcDbEntity
  8
寸法
 62
     7
 48
50.0
100
AcDbMText
 10
7118.6
 20
8675.992442724369
 30
0.0
 40
120.0
 41
0.0
 71
     5
 72
     1
  1
\A1;690
  7
STYLE1
 73
     1
 44
1.0
1001
ACAD
1000
MTEXTBEGIN
1070
    73
1070
     1
1070
    44
1040
1.0
1070
    74
1070
     0
1000
MTEXTEND
  0
POINT
  5
242FC
330
2227C
100
AcDbEntity
  8
DEFPOINTS
 62
     0
 48
50.0
100
AcDbPoint
 10
7463.600000000001
 20
7414.082677076042
 30
0.0
  0
POINT
  5
242FD
330
2227C
100
AcDbEntity
  8
DEFPOINTS
 62
     0
 48
50.0
100
AcDbPoint
 10
6773.6
 20
7414.082677076042
 30
0.0
  0
POINT
  5
242FE
330
2227C
100
AcDbEntity
  8
DEFPOINTS
 62
     0
 48
50.0
100
AcDbPoint
 10
6773.6
 20
8575.99244272437
 30
0.0
  0
ENDBLK
  5
22287
330
2227C
100
AcDbEntity
  8
0
 48
50.0
100
AcDbBlockEnd
  0
BLOCK
  5
222E0
330
222D6
100
AcDbEntity
  8
0
 48
50.0
100
AcDbBlockBegin
  2
*D30
 70
     1
 10
0.0
 20
0.0
 30
0.0
  3
*D30
  1

  0
LINE
  5
242ED
330
222D6
100
AcDbEntity
  8
寸法
 62
     0
 48
50.0
370
    -2
100
AcDbLine
 10
9673.6
 20
7434.082677076043
 30
0.0
 11
9673.6
 21
8635.99244272437
 31
0.0
  0
LINE
  5
242EE
330
222D6
100
AcDbEntity
  8
寸法
 62
     0
 48
50.0
370
    -2
100
AcDbLine
 10
8983.6
 20
7434.082677076043
 30
0.0
 11
8983.6
 21
8635.99244272437
 31
0.0
  0
LINE
  5
242EF
330
222D6
100
AcDbEntity
  8
寸法
 62
     0
 48
50.0
370
    -2
100
AcDbLine
 10
9673.6
 20
8575.99244272437
 30
0.0
 11
8983.6
 21
8575.99244272437
 31
0.0
  0
INSERT
  5
242F0
330
222D6
100
AcDbEntity
  8
寸法
 62
     0
 48
50.0
370
    -2
100
AcDbBlockReference
  2
_DOTSMALL
 10
9673.6
 20
8575.99244272437
 30
0.0
 41
100.0
 42
100.0
 43
100.0
  0
INSERT
  5
242F1
330
222D6
100
AcDbEntity
  8
寸法
 62
     0
 48
50.0
370
    -2
100
AcDbBlockReference
  2
_DOTSMALL
 10
8983.6
 20
8575.99244272437
 30
0.0
 41
100.0
 42
100.0
 43
100.0
 50
180.0
  0
MTEXT
  5
242F2
330
222D6
100
AcDbEntity
  8
寸法
 62
     7
 48
50.0
100
AcDbMText
 10
9328.599999999999
 20
8675.992442724369
 30
0.0
 40
120.0
 41
0.0
 71
     5
 72
     1
  1
\A1;690
  7
STYLE1
 73
     1
 44
1.0
1001
ACAD
1000
MTEXTBEGIN
1070
    73
1070
     1
1070
    44
1040
1.0
1070
    74
1070
     0
1000
MTEXTEND
  0
POINT
  5
242F3
330
222D6
100
AcDbEntity
  8
DEFPOINTS
 62
     0
 48
50.0
100
AcDbPoint
 10
9673.6
 20
7414.082677076042
 30
0.0
  0
POINT
  5
242F4
330
222D6
100
AcDbEntity
  8
DEFPOINTS
 62
     0
 48
50.0
100
AcDbPoint
 10
8983.6
 20
7414.082677076042
 30
0.0
  0
POINT
  5
242F5
330
222D6
100
AcDbEntity
  8
DEFPOINTS
 62
     0
 48
50.0
100
AcDbPoint
 10
8983.6
 20
8575.99244272437
 30
0.0
  0
ENDBLK
  5
222E1
330
222D6
100
AcDbEntity
  8
0
 48
50.0
100
AcDbBlockEnd
  0
BLOCK
  5
2373D
330
23731
100
AcDbEntity
  8
0
 48
50.0
100
AcDbBlockBegin
  2
*D31
 70
     1
 10
0.0
 20
0.0
 30
0.0
  3
*D31
  1

  0
LINE
  5
242E3
330
23731
100
AcDbEntity
  8
寸法
 62
     0
 48
50.0
370
    -2
100
AcDbLine
 10
6258.600000000001
 20
5949.082677076046
 30
0.0
 11
6508.41995844098
 21
5949.082677076046
 31
0.0
  0
LINE
  5
242E4
330
23731
100
AcDbEntity
  8
寸法
 62
     0
 48
50.0
370
    -2
100
AcDbLine
 10
6258.600000000001
 20
5754.082677076031
 30
0.0
 11
6508.41995844098
 21
5754.082677076031
 31
0.0
  0
LINE
  5
242E5
330
23731
100
AcDbEntity
  8
寸法
 62
     0
 48
50.0
370
    -2
100
AcDbLine
 10
6448.419958440979
 20
5949.082677076046
 30
0.0
 11
6448.419958440979
 21
5754.082677076031
 31
0.0
  0
LINE
  5
242E6
330
23731
100
AcDbEntity
  8
寸法
 62
     0
 48
50.0
370
    -2
100
AcDbLine
 10
6448.419958440979
 20
5754.082677076031
 30
0.0
 11
6448.419958440979
 21
5376.69279466824
 31
0.0
  0
INSERT
  5
242E7
330
23731
100
AcDbEntity
  8
寸法
 62
     0
 48
50.0
370
    -2
100
AcDbBlockReference
  2
_DOTSMALL
 10
6448.419958440979
 20
5949.082677076046
 30
0.0
 41
100.0
 42
100.0
 43
100.0
 50
90.0
  0
INSERT
  5
242E8
330
23731
100
AcDbEntity
  8
寸法
 62
     0
 48
50.0
370
    -2
100
AcDbBlockReference
  2
_DOTSMALL
 10
6448.419958440979
 20
5754.082677076031
 30
0.0
 41
100.0
 42
100.0
 43
100.0
 50
270.0
  0
MTEXT
  5
242E9
330
23731
100
AcDbEntity
  8
寸法
 62
     7
 48
50.0
100
AcDbMText
 10
6348.419958440979
 20
5515.387735872138
 30
0.0
 40
120.0
 41
0.0
 71
     5
 72
     1
  1
\A1;195
  7
STYLE1
 11
0.0000000000000001
 21
1.0
 31
0.0
 73
     1
 44
1.0
1001
ACAD
1000
MTEXTBEGIN
1070
    73
1070
     1
1070
    44
1040
1.0
1070
    74
1070
     0
1000
MTEXTEND
  0
POINT
  5
242EA
330
23731
100
AcDbEntity
  8
DEFPOINTS
 62
     0
 48
50.0
100
AcDbPoint
 10
6238.6
 20
5949.082677076046
 30
0.0
  0
POINT
  5
242EB
330
23731
100
AcDbEntity
  8
DEFPOINTS
 62
     0
 48
50.0
100
AcDbPoint
 10
6238.600000000001
 20
5754.082677076031
 30
0.0
  0
POINT
  5
242EC
330
23731
100
AcDbEntity
  8
DEFPOINTS
 62
     0
 48
50.0
100
AcDbPoint
 10
6448.419958440979
 20
5754.082677076031
 30
0.0
  0
ENDBLK
  5
2373E
330
23731
100
AcDbEntity
  8
0
 48
50.0
100
AcDbBlockEnd
  0
BLOCK
  5
23BC9
330
23BBF
100
AcDbEntity
  8
0
 48
50.0
100
AcDbBlockBegin
  2
*D32
 70
     1
 10
0.0
 20
0.0
 30
0.0
  3
*D32
  1

  0
LINE
  5
242DA
330
23BBF
100
AcDbEntity
  8
寸法
 62
     0
 48
50.0
370
    -2
100
AcDbLine
 10
8196.600000000001
 20
5734.082677076062
 30
0.0
 11
8196.600000000001
 21
5090.096947257302
 31
0.0
  0
LINE
  5
242DB
330
23BBF
100
AcDbEntity
  8
寸法
 62
     0
 48
50.0
370
    -2
100
AcDbLine
 10
6008.600000000001
 20
5734.082677076048
 30
0.0
 11
6008.600000000001
 21
5090.096947257302
 31
0.0
  0
LINE
  5
242DC
330
23BBF
100
AcDbEntity
  8
寸法
 62
     0
 48
50.0
370
    -2
100
AcDbLine
 10
8196.600000000001
 20
5150.096947257303
 30
0.0
 11
6008.600000000001
 21
5150.096947257303
 31
0.0
  0
INSERT
  5
242DD
330
23BBF
100
AcDbEntity
  8
寸法
 62
     0
 48
50.0
370
    -2
100
AcDbBlockReference
  2
_DOTSMALL
 10
8196.600000000001
 20
5150.096947257303
 30
0.0
 41
100.0
 42
100.0
 43
100.0
  0
INSERT
  5
242DE
330
23BBF
100
AcDbEntity
  8
寸法
 62
     0
 48
50.0
370
    -2
100
AcDbBlockReference
  2
_DOTSMALL
 10
6008.600000000001
 20
5150.096947257303
 30
0.0
 41
100.0
 42
100.0
 43
100.0
 50
180.0
  0
MTEXT
  5
242DF
330
23BBF
100
AcDbEntity
  8
寸法
 62
     7
 48
50.0
100
AcDbMText
 10
7098.766762832856
 20
5250.108758280924
 30
0.0
 40
120.0
 41
0.0
 71
     5
 72
     1
  1
\A1;扉の幅 2188
  7
STYLE1
 73
     1
 44
1.0
1001
ACAD
1000
MTEXTBEGIN
1070
    73
1070
     1
1070
    44
1040
1.0
1070
    74
1070
     0
1000
MTEXTEND
  0
POINT
  5
242E0
330
23BBF
100
AcDbEntity
  8
DEFPOINTS
 62
     0
 48
50.0
100
AcDbPoint
 10
8196.600000000001
 20
5754.082677076063
 30
0.0
  0
POINT
  5
242E1
330
23BBF
100
AcDbEntity
  8
DEFPOINTS
 62
     0
 48
50.0
100
AcDbPoint
 10
6008.600000000001
 20
5754.082677076048
 30
0.0
  0
POINT
  5
242E2
330
23BBF
100
AcDbEntity
  8
DEFPOINTS
 62
     0
 48
50.0
100
AcDbPoint
 10
6008.600000000001
 20
5150.096947257303
 30
0.0
  0
ENDBLK
  5
23BCA
330
23BBF
100
AcDbEntity
  8
0
 48
50.0
100
AcDbBlockEnd
  0
BLOCK
  5
23E35
330
23E29
100
AcDbEntity
  8
0
 48
50.0
100
AcDbBlockBegin
  2
*D33
 70
     1
 10
0.0
 20
0.0
 30
0.0
  3
*D33
  1

  0
LINE
  5
242CF
330
23E29
100
AcDbEntity
  8
寸法
 62
     0
 48
50.0
370
    -2
100
AcDbLine
 10
5988.600000000001
 20
5754.082677076064
 30
0.0
 11
5712.312481891146
 21
5754.082677076064
 31
0.0
  0
LINE
  5
242D0
330
23E29
100
AcDbEntity
  8
寸法
 62
     0
 48
50.0
370
    -2
100
AcDbLine
 10
5988.600000000008
 20
5829.082677076065
 30
0.0
 11
5712.312481891146
 21
5829.082677076065
 31
0.0
  0
LINE
  5
242D1
330
23E29
100
AcDbEntity
  8
寸法
 62
     0
 48
50.0
370
    -2
100
AcDbLine
 10
5772.312481891145
 20
5829.082677076065
 30
0.0
 11
5772.312481891145
 21
5929.082677076064
 31
0.0
  0
LINE
  5
242D2
330
23E29
100
AcDbEntity
  8
寸法
 62
     0
 48
50.0
370
    -2
100
AcDbLine
 10
5772.312481891145
 20
5754.082677076064
 30
0.0
 11
5772.312481891145
 21
4887.112114327587
 31
0.0
  0
LINE
  5
242D3
330
23E29
100
AcDbEntity
  8
寸法
 62
     0
 48
50.0
370
    -2
100
AcDbLine
 10
5772.312481891145
 20
5829.082677076065
 30
0.0
 11
5772.312481891145
 21
5754.082677076064
 31
0.0
  0
INSERT
  5
242D4
330
23E29
100
AcDbEntity
  8
寸法
 62
     0
 48
50.0
370
    -2
100
AcDbBlockReference
  2
_DOTSMALL
 10
5772.312481891145
 20
5829.082677076065
 30
0.0
 41
100.0
 42
100.0
 43
100.0
 50
270.0
  0
INSERT
  5
242D5
330
23E29
100
AcDbEntity
  8
寸法
 62
     0
 48
50.0
370
    -2
100
AcDbBlockReference
  2
_DOTSMALL
 10
5772.312481891145
 20
5754.082677076064
 30
0.0
 41
100.0
 42
100.0
 43
100.0
 50
90.0
  0
MTEXT
  5
242D6
330
23E29
100
AcDbEntity
  8
寸法
 62
     7
 48
50.0
100
AcDbMText
 10
5672.312481891145
 20
5220.597395701827
 30
0.0
 40
120.0
 41
0.0
 71
     5
 72
     1
  1
\A1;扉の出75
  7
STYLE1
 11
0.0000000000000001
 21
1.0
 31
0.0
 73
     1
 44
1.0
1001
ACAD
1000
MTEXTBEGIN
1070
    73
1070
     1
1070
    44
1040
1.0
1070
    74
1070
     0
1000
MTEXTEND
  0
POINT
  5
242D7
330
23E29
100
AcDbEntity
  8
DEFPOINTS
 62
     0
 48
50.0
100
AcDbPoint
 10
6008.600000000001
 20
5754.082677076064
 30
0.0
  0
POINT
  5
242D8
330
23E29
100
AcDbEntity
  8
DEFPOINTS
 62
     0
 48
50.0
100
AcDbPoint
 10
6008.600000000008
 20
5829.082677076065
 30
0.0
  0
POINT
  5
242D9
330
23E29
100
AcDbEntity
  8
DEFPOINTS
 62
     0
 48
50.0
100
AcDbPoint
 10
5772.312481891145
 20
5829.082677076065
 30
0.0
  0
ENDBLK
  5
23E36
330
23E29
100
AcDbEntity
  8
0
 48
50.0
100
AcDbBlockEnd
  0
BLOCK
  5
24141
330
24138
100
AcDbEntity
  8
0
 48
50.0
100
AcDbBlockBegin
  2
*D34
 70
     1
 10
0.0
 20
0.0
 30
0.0
  3
*D34
  1

  0
LINE
  5
242A2
330
24138
100
AcDbEntity
  8
寸法
 62
     0
 48
50.0
370
    -2
100
AcDbLine
 10
7545.246369361686
 20
1870.092172533627
 30
0.0
 11
8212.582119072743
 21
1870.092172533627
 31
0.0
  0
LINE
  5
242A3
330
24138
100
AcDbEntity
  8
寸法
 62
     0
 48
50.0
370
    -2
100
AcDbLine
 10
7545.246369361686
 20
1465.092172533625
 30
0.0
 11
8212.582119072743
 21
1465.092172533625
 31
0.0
  0
LINE
  5
242A4
330
24138
100
AcDbEntity
  8
寸法
 62
     0
 48
50.0
370
    -2
100
AcDbLine
 10
8152.582119072743
 20
1870.092172533627
 30
0.0
 11
8152.582119072743
 21
1465.092172533625
 31
0.0
  0
INSERT
  5
242A5
330
24138
100
AcDbEntity
  8
寸法
 62
     0
 48
50.0
370
    -2
100
AcDbBlockReference
  2
_DOTSMALL
 10
8152.582119072743
 20
1870.092172533627
 30
0.0
 41
100.0
 42
100.0
 43
100.0
 50
90.0
  0
INSERT
  5
242A6
330
24138
100
AcDbEntity
  8
寸法
 62
     0
 48
50.0
370
    -2
100
AcDbBlockReference
  2
_DOTSMALL
 10
8152.582119072743
 20
1465.092172533625
 30
0.0
 41
100.0
 42
100.0
 43
100.0
 50
270.0
  0
MTEXT
  5
242A7
330
24138
100
AcDbEntity
  8
寸法
 62
     7
 48
50.0
100
AcDbMText
 10
8052.582119072743
 20
1667.592172533627
 30
0.0
 40
120.0
 41
0.0
 71
     5
 72
     1
  1
\A1;180
  7
STYLE1
 11
0.0000000000000001
 21
1.0
 31
0.0
 73
     1
 44
1.0
1001
ACAD
1000
MTEXTBEGIN
1070
    73
1070
     1
1070
    44
1040
1.0
1070
    74
1070
     0
1000
MTEXTEND
  0
POINT
  5
242A8
330
24138
100
AcDbEntity
  8
DEFPOINTS
 62
     0
 48
50.0
100
AcDbPoint
 10
7525.246369361686
 20
1870.092172533627
 30
0.0
  0
POINT
  5
242A9
330
24138
100
AcDbEntity
  8
DEFPOINTS
 62
     0
 48
50.0
100
AcDbPoint
 10
7525.246369361686
 20
1465.092172533625
 30
0.0
  0
POINT
  5
242AA
330
24138
100
AcDbEntity
  8
DEFPOINTS
 62
     0
 48
50.0
100
AcDbPoint
 10
8152.582119072743
 20
1465.092172533625
 30
0.0
  0
ENDBLK
  5
24142
330
24138
100
AcDbEntity
  8
0
 48
50.0
100
AcDbBlockEnd
  0
BLOCK
  5
2414F
330
24143
100
AcDbEntity
  8
0
 48
50.0
100
AcDbBlockBegin
  2
*D35
 70
     1
 10
0.0
 20
0.0
 30
0.0
  3
*D35
  1

  0
LINE
  5
24297
330
24143
100
AcDbEntity
  8
寸法
 62
     0
 48
50.0
370
    -2
100
AcDbLine
 10
7311.246369361687
 20
1936.042172533627
 30
0.0
 11
8557.650451721526
 21
1936.042172533627
 31
0.0
  0
LINE
  5
24298
330
24143
100
AcDbEntity
  8
寸法
 62
     0
 48
50.0
370
    -2
100
AcDbLine
 10
7545.246369361686
 20
1870.092172533627
 30
0.0
 11
8557.650451721526
 21
1870.092172533627
 31
0.0
  0
LINE
  5
24299
330
24143
100
AcDbEntity
  8
寸法
 62
     0
 48
50.0
370
    -2
100
AcDbLine
 10
8497.650451721526
 20
1936.042172533627
 30
0.0
 11
8497.650451721526
 21
2036.042172533627
 31
0.0
  0
LINE
  5
2429A
330
24143
100
AcDbEntity
  8
寸法
 62
     0
 48
50.0
370
    -2
100
AcDbLine
 10
8497.650451721526
 20
1870.092172533627
 30
0.0
 11
8497.650451721526
 21
1138.074365690661
 31
0.0
  0
LINE
  5
2429B
330
24143
100
AcDbEntity
  8
寸法
 62
     0
 48
50.0
370
    -2
100
AcDbLine
 10
8497.650451721526
 20
1936.042172533627
 30
0.0
 11
8497.650451721526
 21
1870.092172533627
 31
0.0
  0
INSERT
  5
2429C
330
24143
100
AcDbEntity
  8
寸法
 62
     0
 48
50.0
370
    -2
100
AcDbBlockReference
  2
_DOTSMALL
 10
8497.650451721526
 20
1936.042172533627
 30
0.0
 41
100.0
 42
100.0
 43
100.0
 50
270.0
  0
INSERT
  5
2429D
330
24143
100
AcDbEntity
  8
寸法
 62
     0
 48
50.0
370
    -2
100
AcDbBlockReference
  2
_DOTSMALL
 10
8497.650451721526
 20
1870.092172533627
 30
0.0
 41
100.0
 42
100.0
 43
100.0
 50
90.0
  0
MTEXT
  5
2429E
330
24143
100
AcDbEntity
  8
寸法
 62
     7
 48
50.0
100
AcDbMText
 10
8397.638640697904
 20
1404.083269112145
 30
0.0
 40
120.0
 41
0.0
 71
     5
 72
     1
  1
\A1;20～25
  7
STYLE1
 11
0.0000000000000001
 21
1.0
 31
0.0
 73
     1
 44
1.0
1001
ACAD
1000
MTEXTBEGIN
1070
    73
1070
     1
1070
    44
1040
1.0
1070
    74
1070
     0
1000
MTEXTEND
  0
POINT
  5
2429F
330
24143
100
AcDbEntity
  8
DEFPOINTS
 62
     0
 48
50.0
100
AcDbPoint
 10
7291.246369361687
 20
1936.042172533627
 30
0.0
  0
POINT
  5
242A0
330
24143
100
AcDbEntity
  8
DEFPOINTS
 62
     0
 48
50.0
100
AcDbPoint
 10
7525.246369361686
 20
1870.092172533627
 30
0.0
  0
POINT
  5
242A1
330
24143
100
AcDbEntity
  8
DEFPOINTS
 62
     0
 48
50.0
100
AcDbPoint
 10
8497.650451721526
 20
1870.092172533627
 30
0.0
  0
ENDBLK
  5
24150
330
24143
100
AcDbEntity
  8
0
 48
50.0
100
AcDbBlockEnd
  0
BLOCK
  5
2415B
330
24151
100
AcDbEntity
  8
0
 48
50.0
100
AcDbBlockBegin
  2
*D36
 70
     1
 10
0.0
 20
0.0
 30
0.0
  3
*D36
  1

  0
LINE
  5
242C6
330
24151
100
AcDbEntity
  8
寸法
 62
     0
 48
50.0
370
    -2
100
AcDbLine
 10
5122.697227890193
 20
1890.092172533627
 30
0.0
 11
5122.697227890193
 21
2454.676932429102
 31
0.0
  0
LINE
  5
242C7
330
24151
100
AcDbEntity
  8
寸法
 62
     0
 48
50.0
370
    -2
100
AcDbLine
 10
4882.697227890194
 20
1890.092172533627
 30
0.0
 11
4882.697227890194
 21
2454.676932429102
 31
0.0
  0
LINE
  5
242C8
330
24151
100
AcDbEntity
  8
寸法
 62
     0
 48
50.0
370
    -2
100
AcDbLine
 10
5122.697227890193
 20
2394.676932429102
 30
0.0
 11
4882.697227890194
 21
2394.676932429102
 31
0.0
  0
INSERT
  5
242C9
330
24151
100
AcDbEntity
  8
寸法
 62
     0
 48
50.0
370
    -2
100
AcDbBlockReference
  2
_DOTSMALL
 10
5122.697227890193
 20
2394.676932429102
 30
0.0
 41
100.0
 42
100.0
 43
100.0
  0
INSERT
  5
242CA
330
24151
100
AcDbEntity
  8
寸法
 62
     0
 48
50.0
370
    -2
100
AcDbBlockReference
  2
_DOTSMALL
 10
4882.697227890194
 20
2394.676932429102
 30
0.0
 41
100.0
 42
100.0
 43
100.0
 50
180.0
  0
MTEXT
  5
242CB
330
24151
100
AcDbEntity
  8
寸法
 62
     7
 48
50.0
100
AcDbMText
 10
5002.697227890195
 20
2600.717744993906
 30
0.0
 40
120.0
 41
0.0
 71
     5
 72
     1
  1
\A1;120\P(195)
  7
STYLE1
 73
     1
 44
1.0
1001
ACAD
1000
MTEXTBEGIN
1070
    73
1070
     1
1070
    44
1040
1.0
1070
    74
1070
     0
1000
MTEXTEND
  0
POINT
  5
242CC
330
24151
100
AcDbEntity
  8
DEFPOINTS
 62
     0
 48
50.0
100
AcDbPoint
 10
5122.697227890193
 20
1870.092172533627
 30
0.0
  0
POINT
  5
242CD
330
24151
100
AcDbEntity
  8
DEFPOINTS
 62
     0
 48
50.0
100
AcDbPoint
 10
4882.697227890194
 20
1870.092172533627
 30
0.0
  0
POINT
  5
242CE
330
24151
100
AcDbEntity
  8
DEFPOINTS
 62
     0
 48
50.0
100
AcDbPoint
 10
4882.697227890194
 20
2394.676932429102
 30
0.0
  0
ENDBLK
  5
2415C
330
24151
100
AcDbEntity
  8
0
 48
50.0
100
AcDbBlockEnd
  0
BLOCK
  5
24167
330
2415D
100
AcDbEntity
  8
0
 48
50.0
100
AcDbBlockBegin
  2
*D37
 70
     1
 10
0.0
 20
0.0
 30
0.0
  3
*D37
  1

  0
LINE
  5
242BD
330
2415D
100
AcDbEntity
  8
寸法
 62
     0
 48
50.0
370
    -2
100
AcDbLine
 10
4702.697227890193
 20
1190.092172533625
 30
0.0
 11
4484.671835724618
 21
1190.092172533625
 31
0.0
  0
LINE
  5
242BE
330
2415D
100
AcDbEntity
  8
寸法
 62
     0
 48
50.0
370
    -2
100
AcDbLine
 10
4602.697227890196
 20
890.0921725336258
 30
0.0
 11
4484.671835724618
 21
890.0921725336258
 31
0.0
  0
LINE
  5
242BF
330
2415D
100
AcDbEntity
  8
寸法
 62
     0
 48
50.0
370
    -2
100
AcDbLine
 10
4544.671835724619
 20
1190.092172533625
 30
0.0
 11
4544.671835724619
 21
890.0921725336258
 31
0.0
  0
INSERT
  5
242C0
330
2415D
100
AcDbEntity
  8
寸法
 62
     0
 48
50.0
370
    -2
100
AcDbBlockReference
  2
_DOTSMALL
 10
4544.671835724619
 20
1190.092172533625
 30
0.0
 41
100.0
 42
100.0
 43
100.0
 50
90.0
  0
INSERT
  5
242C1
330
2415D
100
AcDbEntity
  8
寸法
 62
     0
 48
50.0
370
    -2
100
AcDbBlockReference
  2
_DOTSMALL
 10
4544.671835724619
 20
890.0921725336258
 30
0.0
 41
100.0
 42
100.0
 43
100.0
 50
270.0
  0
MTEXT
  5
242C2
330
2415D
100
AcDbEntity
  8
寸法
 62
     7
 48
50.0
100
AcDbMText
 10
4444.671835724618
 20
1040.092172533626
 30
0.0
 40
120.0
 41
0.0
 71
     5
 72
     1
  1
\A1;150
  7
STYLE1
 11
0.0000000000000001
 21
1.0
 31
0.0
 73
     1
 44
1.0
1001
ACAD
1000
MTEXTBEGIN
1070
    73
1070
     1
1070
    44
1040
1.0
1070
    74
1070
     0
1000
MTEXTEND
  0
POINT
  5
242C3
330
2415D
100
AcDbEntity
  8
DEFPOINTS
 62
     0
 48
50.0
100
AcDbPoint
 10
4722.697227890193
 20
1190.092172533625
 30
0.0
  0
POINT
  5
242C4
330
2415D
100
AcDbEntity
  8
DEFPOINTS
 62
     0
 48
50.0
100
AcDbPoint
 10
4622.697227890196
 20
890.0921725336258
 30
0.0
  0
POINT
  5
242C5
330
2415D
100
AcDbEntity
  8
DEFPOINTS
 62
     0
 48
50.0
100
AcDbPoint
 10
4544.671835724619
 20
890.0921725336258
 30
0.0
  0
ENDBLK
  5
24168
330
2415D
100
AcDbEntity
  8
0
 48
50.0
100
AcDbBlockEnd
  0
BLOCK
  5
24173
330
24169
100
AcDbEntity
  8
0
 48
50.0
100
AcDbBlockBegin
  2
*D38
 70
     1
 10
0.0
 20
0.0
 30
0.0
  3
*D38
  1

  0
LINE
  5
242B4
330
24169
100
AcDbEntity
  8
寸法
 62
     0
 48
50.0
370
    -2
100
AcDbLine
 10
4862.697227890194
 20
1870.092172533627
 30
0.0
 11
4062.05228985413
 21
1870.092172533627
 31
0.0
  0
LINE
  5
242B5
330
24169
100
AcDbEntity
  8
寸法
 62
     0
 48
50.0
370
    -2
100
AcDbLine
 10
4602.697227890196
 20
890.0921725336258
 30
0.0
 11
4062.052289854129
 21
890.0921725336258
 31
0.0
  0
LINE
  5
242B6
330
24169
100
AcDbEntity
  8
寸法
 62
     0
 48
50.0
370
    -2
100
AcDbLine
 10
4122.05228985413
 20
1870.092172533627
 30
0.0
 11
4122.05228985413
 21
890.0921725336258
 31
0.0
  0
INSERT
  5
242B7
330
24169
100
AcDbEntity
  8
寸法
 62
     0
 48
50.0
370
    -2
100
AcDbBlockReference
  2
_DOTSMALL
 10
4122.05228985413
 20
1870.092172533627
 30
0.0
 41
100.0
 42
100.0
 43
100.0
 50
90.0
  0
INSERT
  5
242B8
330
24169
100
AcDbEntity
  8
寸法
 62
     0
 48
50.0
370
    -2
100
AcDbBlockReference
  2
_DOTSMALL
 10
4122.05228985413
 20
890.0921725336258
 30
0.0
 41
100.0
 42
100.0
 43
100.0
 50
270.0
  0
MTEXT
  5
242B9
330
24169
100
AcDbEntity
  8
寸法
 62
     7
 48
50.0
100
AcDbMText
 10
4022.052289854129
 20
1380.092172533627
 30
0.0
 40
120.0
 41
0.0
 71
     5
 72
     1
  1
\A1;540
  7
STYLE1
 11
0.0000000000000001
 21
1.0
 31
0.0
 73
     1
 44
1.0
1001
ACAD
1000
MTEXTBEGIN
1070
    73
1070
     1
1070
    44
1040
1.0
1070
    74
1070
     0
1000
MTEXTEND
  0
POINT
  5
242BA
330
24169
100
AcDbEntity
  8
DEFPOINTS
 62
     0
 48
50.0
100
AcDbPoint
 10
4882.697227890194
 20
1870.092172533627
 30
0.0
  0
POINT
  5
242BB
330
24169
100
AcDbEntity
  8
DEFPOINTS
 62
     0
 48
50.0
100
AcDbPoint
 10
4622.697227890196
 20
890.0921725336258
 30
0.0
  0
POINT
  5
242BC
330
24169
100
AcDbEntity
  8
DEFPOINTS
 62
     0
 48
50.0
100
AcDbPoint
 10
4122.05228985413
 20
890.0921725336258
 30
0.0
  0
ENDBLK
  5
24174
330
24169
100
AcDbEntity
  8
0
 48
50.0
100
AcDbBlockEnd
  0
BLOCK
  5
2417F
330
24175
100
AcDbEntity
  8
0
 48
50.0
100
AcDbBlockBegin
  2
*D39
 70
     1
 10
0.0
 20
0.0
 30
0.0
  3
*D39
  1

  0
LINE
  5
242AB
330
24175
100
AcDbEntity
  8
寸法
 62
     0
 48
50.0
370
    -2
100
AcDbLine
 10
4722.697227890193
 20
710.0921725336256
 30
0.0
 11
4722.697227890193
 21
371.1400660776927
 31
0.0
  0
LINE
  5
242AC
330
24175
100
AcDbEntity
  8
寸法
 62
     0
 48
50.0
370
    -2
100
AcDbLine
 10
5282.697227890194
 20
710.0921725336256
 30
0.0
 11
5282.697227890194
 21
371.1400660776927
 31
0.0
  0
LINE
  5
242AD
330
24175
100
AcDbEntity
  8
寸法
 62
     0
 48
50.0
370
    -2
100
AcDbLine
 10
4722.697227890193
 20
431.1400660776926
 30
0.0
 11
5282.697227890194
 21
431.1400660776926
 31
0.0
  0
INSERT
  5
242AE
330
24175
100
AcDbEntity
  8
寸法
 62
     0
 48
50.0
370
    -2
100
AcDbBlockReference
  2
_DOTSMALL
 10
4722.697227890193
 20
431.1400660776926
 30
0.0
 41
100.0
 42
100.0
 43
100.0
 50
180.0
  0
INSERT
  5
242AF
330
24175
100
AcDbEntity
  8
寸法
 62
     0
 48
50.0
370
    -2
100
AcDbBlockReference
  2
_DOTSMALL
 10
5282.697227890194
 20
431.1400660776926
 30
0.0
 41
100.0
 42
100.0
 43
100.0
  0
MTEXT
  5
242B0
330
24175
100
AcDbEntity
  8
寸法
 62
     7
 48
50.0
100
AcDbMText
 10
5002.697227890193
 20
531.1400660776926
 30
0.0
 40
120.0
 41
0.0
 71
     5
 72
     1
  1
\A1;300
  7
STYLE1
 73
     1
 44
1.0
1001
ACAD
1000
MTEXTBEGIN
1070
    73
1070
     1
1070
    44
1040
1.0
1070
    74
1070
     0
1000
MTEXTEND
  0
POINT
  5
242B1
330
24175
100
AcDbEntity
  8
DEFPOINTS
 62
     0
 48
50.0
100
AcDbPoint
 10
4722.697227890193
 20
730.0921725336256
 30
0.0
  0
POINT
  5
242B2
330
24175
100
AcDbEntity
  8
DEFPOINTS
 62
     0
 48
50.0
100
AcDbPoint
 10
5282.697227890194
 20
730.0921725336256
 30
0.0
  0
POINT
  5
242B3
330
24175
100
AcDbEntity
  8
DEFPOINTS
 62
     0
 48
50.0
100
AcDbPoint
 10
5282.697227890194
 20
431.1400660776926
 30
0.0
  0
ENDBLK
  5
24180
330
24175
100
AcDbEntity
  8
0
 48
50.0
100
AcDbBlockEnd
  0
ENDSEC
  0
SECTION
  2
ENTITIES
  0
MTEXT
  5
763F
330
747D
100
AcDbEntity
  8
0
100
AcDbMText
 10
302.846345836809
 20
280.1983726409901
 30
0.0
 40
3.5
 41
5.323721266742722
 71
     1
 72
     5
  1

  7
MSMINCHO
 73
     1
 44
1.0
1001
ACAD
1000
MTEXTBEGIN
1070
    73
1070
     1
1070
    44
1040
1.0
1070
    74
1070
     0
1000
MTEXTEND
  0
LINE
  5
10B57
330
747D
100
AcDbEntity
  8
補助
  6
PHANTOM
 62
   230
 48
50.0
100
AcDbLine
 10
139.9999999999995
 20
11409.6
 30
0.0
 11
16307.2
 21
11409.6
 31
0.0
  0
LINE
  5
10B59
330
747D
100
AcDbEntity
  8
仕様書枠
  6
Continuous
 48
50.0
100
AcDbLine
 10
13107.2
 20
1200.0
 30
0.0
 11
13107.2
 21
-0.0000000000000729
 31
0.0
  0
LINE
  5
10B5D
330
747D
100
AcDbEntity
  8
仕様書枠
 48
50.0
100
AcDbLine
 10
140.0
 20
0.0
 30
0.0
 11
16307.2
 21
-0.0000000000000909
 31
0.0
  0
LINE
  5
10B5E
330
747D
100
AcDbEntity
  8
補助
  6
PHANTOM
 62
   230
 48
50.0
100
AcDbLine
 10
16307.2
 20
11409.6
 30
0.0
 11
16307.2
 21
1200.0
 31
0.0
  0
LINE
  5
10B6C
330
747D
100
AcDbEntity
  8
仕様書枠
 48
50.0
100
AcDbLine
 10
13107.2
 20
1200.0
 30
0.0
 11
16307.2
 21
1200.0
 31
0.0
  0
TEXT
  5
10B73
330
747D
100
AcDbEntity
  8
文字
 62
     7
 48
50.0
100
AcDbText
 10
13162.9790565769
 20
895.0906074299405
 30
0.0
 40
200.0
  1
基 礎 図
  7
STYLE2
100
AcDbText
  0
LINE
  5
10B7B
330
747D
100
AcDbEntity
  8
仕様書枠
 48
50.0
100
AcDbLine
 10
13107.2
 20
800.0
 30
0.0
 11
14251.2
 21
800.0
 31
0.0
  0
LINE
  5
10B88
330
747D
100
AcDbEntity
  8
仕様書枠
  6
Continuous
 48
50.0
100
AcDbLine
 10
14251.2
 20
1200.0
 30
0.0
 11
14251.2
 21
800.0
 31
0.0
  0
LINE
  5
16462
330
747D
100
AcDbEntity
  8
仕様書枠
 48
50.0
100
AcDbLine
 10
16307.2
 20
1200.0
 30
0.0
 11
16307.2
 21
-0.0000000000000909
 31
0.0
  0
LINE
  5
1903B
330
747D
100
AcDbEntity
  8
補助
  6
PHANTOM
 62
   230
 48
50.0
100
AcDbLine
 10
140.0
 20
0.0
 30
0.0
 11
139.9999999999995
 21
11409.6
 31
0.0
  0
LEADER
  5
1AC27
330
747D
100
AcDbEntity
  8
寸法
 48
50.0
100
AcDbLeader
  3
INABA_S40G
 73
     0
 74
     0
 75
     1
 40
120.0
 41
720.0000000000001
 76
     3
 10
10438.69549961499
 20
6953.284847657854
 30
0.0
 10
10605.46907400128
 20
6677.270934090021
 30
0.0
 10
10705.46907400128
 20
6677.270934090021
 30
0.0
340
1AC28
1001
ACAD
1000
DSTYLE
1002
{
1070
   341
1005
0
1002
}
  0
MTEXT
  5
1AC28
102
{ACAD_REACTORS
330
1AC27
102
}
330
747D
100
AcDbEntity
  8
部品1
 62
     7
 48
50.0
100
AcDbMText
 10
11465.46907400128
 20
6777.270934090021
 30
0.0
 40
120.0
 41
0.0
 71
     6
 72
     1
  1
\A1;床下換気口
  7
STYLE1
 73
     1
 44
1.0
1001
ACAD
1000
MTEXTBEGIN
1070
    73
1070
     1
1070
    44
1040
1.0
1070
    74
1070
     0
1000
MTEXTEND
  0
TEXT
  5
1AC29
330
747D
100
AcDbEntity
  8
部品1
 48
50.0
100
AcDbText
 10
10782.50116389398
 20
5553.991775739251
 30
0.0
 40
80.0
  1
(a=45,b=55,c=75)
  7
STYLE1
100
AcDbText
  0
TEXT
  5
1AC2A
330
747D
100
AcDbEntity
  8
部品1
 48
50.0
100
AcDbText
 10
10623.92215513968
 20
5660.836996608004
 30
0.0
 40
80.0
  1
※a,b,cは屋根の出幅です。
  7
STYLE1
100
AcDbText
  0
MTEXT
  5
1AC2B
102
{ACAD_REACTORS
330
1AC2C
102
}
330
747D
100
AcDbEntity
  8
部品1
 62
     7
 48
50.0
100
AcDbMText
 10
11421.70935112828
 20
5840.147683541079
 30
0.0
 40
120.0
 41
0.0
 71
     6
 72
     1
  1
\A1;屋根の外寸
  7
STYLE1
 73
     1
 44
1.0
1001
ACAD
1000
MTEXTBEGIN
1070
    73
1070
     1
1070
    44
1040
1.0
1070
    74
1070
     0
1000
MTEXTEND
  0
LEADER
  5
1AC2C
330
747D
100
AcDbEntity
  8
寸法
 48
50.0
100
AcDbLeader
  3
INABA_S40G
 73
     0
 74
     0
 75
     1
 40
120.0
 41
672.0
 76
     3
 10
10483.76933893624
 20
6014.037027004654
 30
0.0
 10
10609.70935112828
 20
5740.14768354108
 30
0.0
 10
10709.70935112828
 20
5740.14768354108
 30
0.0
340
1AC2B
1001
ACAD
1000
DSTYLE
1002
{
1070
   341
1005
0
1002
}
  0
TEXT
  5
1C7A1
330
747D
100
AcDbEntity
  8
文字
 62
     7
 48
50.0
100
AcDbText
 10
13188.16259899338
 20
79.80631269190417
 30
0.0
 40
80.0
  1
※布基礎には換気口を設けてください。
  7
STYLE2
100
AcDbText
  0
TEXT
  5
1C7E7
330
747D
100
AcDbEntity
  8
文字
 62
     7
 48
50.0
100
AcDbText
 10
13188.16259899338
 20
246.7109242801889
 30
0.0
 40
80.0
  1
※寒冷地等は地域の実情に合わせた基礎にして下さい。
  7
STYLE2
100
AcDbText
  0
TEXT
  5
1C7E8
330
747D
100
AcDbEntity
  8
文字
 62
     7
 48
50.0
100
AcDbText
 10
14478.98566430227
 20
499.5983841039506
 30
0.0
 40
160.0
  1
ＮＸＮ－９８Ｈ
  7
STYLE2
100
AcDbText
  0
TEXT
  5
1C7E9
330
747D
100
AcDbEntity
  8
文字
 62
     7
 48
50.0
100
AcDbText
 10
14641.2525855784
 20
871.1744590657927
 30
0.0
 40
100.0
  1
～一般型・多雪地型～
  7
STYLE2
100
AcDbText
  0
TEXT
  5
1C7EC
330
747D
100
AcDbEntity
  8
文字
 62
     7
 48
50.0
100
AcDbText
 10
14524.131837222
 20
1031.557706291229
 30
0.0
 40
100.0
  1
      <縮尺> S=1/40
  7
STYLE2
100
AcDbText
  0
TEXT
  5
1C7ED
330
747D
100
AcDbEntity
  8
文字
 62
     7
 48
50.0
100
AcDbText
 10
13201.43669998441
 20
477.2740661031257
 30
0.0
 40
160.0
  1
機種名
  7
STYLE2
100
AcDbText
  0
LINE
  5
1C7EF
330
747D
100
AcDbEntity
  8
文字
 62
     7
 48
50.0
100
AcDbLine
 10
13187.2
 20
400.0
 30
0.0
 11
16227.2
 21
400.0
 31
0.0
  0
MTEXT
  5
1D2D5
102
{ACAD_REACTORS
330
1D2D6
102
}
330
747D
100
AcDbEntity
  8
部品1
 62
     7
 48
50.0
100
AcDbMText
 10
11633.99523070988
 20
8353.420855881642
 30
0.0
 40
120.0
 41
0.0
 71
     6
 72
     1
  1
アンカーボルト
  7
STYLE1
 73
     1
 44
1.0
1001
ACAD
1000
MTEXTBEGIN
1070
    73
1070
     1
1070
    44
1040
1.0
1070
    74
1070
     0
1000
MTEXTEND
  0
LEADER
  5
1D2D6
330
747D
100
AcDbEntity
  8
寸法
 48
50.0
100
AcDbLeader
  3
INABA_S40G
 73
     0
 74
     0
 75
     1
 40
120.0
 41
994.3492424049171
 76
     3
 10
10315.680085757
 20
7926.29052143475
 30
0.0
 10
10499.64598830496
 20
8253.420855881643
 30
0.0
 10
10599.64598830496
 20
8253.420855881643
 30
0.0
340
1D2D5
1001
ACAD
1000
DSTYLE
1002
{
1070
   341
1005
0
1002
}
  0
MTEXT
  5
1D332
102
{ACAD_REACTORS
330
1D333
102
}
330
747D
100
AcDbEntity
  8
部品1
 62
     7
 48
50.0
100
AcDbMText
 10
7175.440328953418
 20
6326.093440812515
 30
0.0
 40
120.0
 41
0.0
 71
     6
 72
     1
  1
CB
  7
STYLE1
 73
     1
 44
1.0
1001
ACAD
1000
MTEXTBEGIN
1070
    73
1070
     1
1070
    44
1040
1.0
1070
    74
1070
     0
1000
MTEXTEND
  0
LEADER
  5
1D333
330
747D
100
AcDbEntity
  8
寸法
 48
50.0
100
AcDbLeader
  3
INABA_S40G
 73
     0
 74
     0
 75
     1
 40
120.0
 41
149.591883092037
 76
     3
 10
6748.565642998737
 20
6502.107354380348
 30
0.0
 10
6885.84844586138
 20
6226.093440812515
 30
0.0
 10
6985.84844586138
 20
6226.093440812515
 30
0.0
340
1D332
1001
ACAD
1000
DSTYLE
1002
{
1070
   341
1005
0
1002
}
  0
DIMENSION
  5
1DAC7
330
747D
100
AcDbEntity
  8
寸法
 48
50.0
100
AcDbDimension
  2
*D1
 10
8463.202780124335
 20
5829.082677076065
 30
0.0
 11
8463.202780124332
 21
5220.597395701825
 31
0.0
 70
   160
  1
扉の出<>
 71
     5
 42
75.00000000000091
  3
INABA_S40G
100
AcDbAlignedDimension
 13
8196.600000000001
 23
5754.082677076063
 33
0.0
 14
8196.600000000008
 24
5829.082677076065
 34
0.0
 50
90.0
100
AcDbRotatedDimension
1001
ACAD
1000
DSTYLE
1002
{
1070
   341
1005
0
1002
}
  0
LINE
  5
20992
330
747D
100
AcDbEntity
  8
想像線
 48
10.0
100
AcDbLine
 10
10483.6
 20
5774.082677076048
 30
0.0
 11
10483.6
 21
8124.082677076039
 31
0.0
  0
DIMENSION
  5
20DE1
330
747D
100
AcDbEntity
  8
寸法
 48
50.0
100
AcDbDimension
  2
*D2
 10
10483.6
 20
9007.302999134962
 30
0.0
 11
10754.77462120246
 21
9007.302999134962
 31
0.0
 70
   160
  1
a
 71
     5
 42
45.0
  3
INABA_S40G
100
AcDbAlignedDimension
 13
10438.6
 23
8049.082677076039
 33
0.0
 14
10483.6
 24
8794.842303618123
 34
0.0
100
AcDbRotatedDimension
1001
ACAD
1000
DSTYLE
1002
{
1070
   341
1005
0
1002
}
  0
DIMENSION
  5
20DFB
330
747D
100
AcDbEntity
  8
寸法
 48
50.0
100
AcDbDimension
  2
*D3
 10
6008.600000000001
 20
9007.302999134962
 30
0.0
 11
5692.425378797541
 21
9007.302999134962
 31
0.0
 70
   160
  1
a
 71
     5
 42
44.99999999999272
  3
INABA_S40G
100
AcDbAlignedDimension
 13
5963.600000000009
 23
8794.842303618123
 33
0.0
 14
6008.600000000001
 24
8049.082677076039
 34
0.0
100
AcDbRotatedDimension
1001
ACAD
1000
DSTYLE
1002
{
1070
   341
1005
0
1002
}
  0
DIMENSION
  5
20E15
330
747D
100
AcDbEntity
  8
寸法
 48
50.0
100
AcDbDimension
  2
*D4
 10
5267.164931848212
 20
8049.082677076041
 30
0.0
 11
5167.164931848212
 21
8086.582677076043
 31
0.0
 70
    32
  1
c
 71
     5
 42
75.00000000000273
  3
INABA_S40G
100
AcDbAlignedDimension
 13
5512.657733986179
 23
8124.082677076044
 33
0.0
 14
6008.600000000002
 24
8049.082677076041
 34
0.0
 50
90.0
100
AcDbRotatedDimension
1001
ACAD
1000
DSTYLE
1002
{
1070
   341
1005
0
1002
}
  0
DIMENSION
  5
20E3A
330
747D
100
AcDbEntity
  8
寸法
 48
50.0
100
AcDbDimension
  2
*D5
 10
5267.164931848212
 20
5774.082677076052
 30
0.0
 11
5167.164931848212
 21
5801.582677076048
 31
0.0
 70
    32
  1
b
 71
     5
 42
54.99999999998909
  3
INABA_S40G
100
AcDbAlignedDimension
 13
6008.600000000001
 23
5829.082677076041
 33
0.0
 14
5512.657733986179
 24
5774.082677076052
 34
0.0
 50
90.0
100
AcDbRotatedDimension
1001
ACAD
1000
DSTYLE
1002
{
1070
   341
1005
0
1002
}
  0
LINE
  5
215EC
330
747D
100
AcDbEntity
  8
部品1
 48
50.0
100
AcDbLine
 10
10208.6
 20
5949.082677076058
 30
0.0
 11
8235.600000000003
 21
5949.082677076053
 31
0.0
  0
DIMENSION
  5
215ED
330
747D
100
AcDbEntity
  8
寸法
 48
50.0
100
AcDbDimension
  2
*D6
 10
8670.14438614211
 20
6059.08267707606
 30
0.0
 11
8670.144386142109
 21
6329.141732194184
 31
0.0
 70
   160
 71
     5
 42
110.0000000000036
  3
INABA_S40G
100
AcDbAlignedDimension
 13
8782.599867447318
 23
5949.082677076056
 33
0.0
 14
8235.600000000001
 24
6059.08267707606
 34
0.0
 50
90.0
100
AcDbRotatedDimension
1001
ACAD
1000
DSTYLE
1002
{
1070
   341
1005
0
1002
}
  0
LINE
  5
215EE
330
747D
100
AcDbEntity
  8
部品1
 48
50.0
100
AcDbLine
 10
10208.6
 20
7929.082677076042
 30
0.0
 11
8235.600000000001
 21
7929.082677076042
 31
0.0
  0
DIMENSION
  5
215EF
330
747D
100
AcDbEntity
  8
寸法
 48
50.0
100
AcDbDimension
  2
*D7
 10
8670.14438614211
 20
5949.082677076056
 30
0.0
 11
8670.144386142109
 21
5492.794372108101
 31
0.0
 70
   160
 71
     5
 42
119.9999999999863
  3
INABA_S40G
100
AcDbAlignedDimension
 13
8307.41918098816
 23
5829.082677076069
 33
0.0
 14
8782.599867447318
 24
5949.082677076056
 34
0.0
 50
90.0
100
AcDbRotatedDimension
1001
ACAD
1000
DSTYLE
1002
{
1070
   341
1005
0
1002
}
  0
LINE
  5
215F0
330
747D
100
AcDbEntity
  8
部品1
 48
50.0
100
AcDbLine
 10
10438.6
 20
5829.082677076059
 30
0.0
 11
8196.600000000001
 21
5829.082677076041
 31
0.0
  0
LINE
  5
215F2
330
747D
100
AcDbEntity
  8
部品1
 48
50.0
100
AcDbLine
 10
10438.6
 20
8049.082677076041
 30
0.0
 11
6008.600000000001
 21
8049.082677076041
 31
0.0
  0
DIMENSION
  5
215F3
330
747D
100
AcDbEntity
  8
寸法
 48
50.0
100
AcDbDimension
  2
*D8
 10
10438.6
 20
9007.302999134962
 30
0.0
 11
8223.600000000001
 21
9107.302999134962
 31
0.0
 70
    32
 71
     5
 42
4429.999999999998
  3
INABA_S40G
100
AcDbAlignedDimension
 13
6008.600000000001
 23
8049.082677076041
 33
0.0
 14
10438.6
 24
8049.082677076041
 34
0.0
100
AcDbRotatedDimension
1001
ACAD
1000
DSTYLE
1002
{
1070
   341
1005
0
1002
}
  0
DIMENSION
  5
215F4
330
747D
100
AcDbEntity
  8
寸法
 48
50.0
100
AcDbDimension
  2
*D9
 10
8223.600000000001
 20
8575.99244272437
 30
0.0
 11
8603.6
 21
8675.992442724369
 31
0.0
 70
    32
 71
     5
 42
760.0
  3
INABA_S40G
100
AcDbAlignedDimension
 13
8983.6
 23
7414.082677076042
 33
0.0
 14
8223.600000000001
 24
7039.082677076051
 34
0.0
100
AcDbRotatedDimension
1001
ACAD
1000
DSTYLE
1002
{
1070
   341
1005
0
1002
}
  0
DIMENSION
  5
215F5
330
747D
100
AcDbEntity
  8
寸法
 48
50.0
100
AcDbDimension
  2
*D10
 10
8105.6
 20
8794.842303618125
 30
0.0
 11
9210.600000000001
 21
8894.854114641747
 31
0.0
 70
    32
 71
     5
 42
2210.0
  3
INABA_S40G
100
AcDbAlignedDimension
 13
10315.6
 23
7976.082677076043
 33
0.0
 14
8105.6
 24
7976.082677076043
 34
0.0
100
AcDbRotatedDimension
1001
ACAD
1000
DSTYLE
1002
{
1070
   341
1005
0
1002
}
  0
DIMENSION
  5
21608
330
747D
100
AcDbEntity
  8
寸法
 48
50.0
100
AcDbDimension
  2
*D11
 10
5512.657733986178
 20
5952.082677076042
 30
0.0
 11
5412.657733986176
 21
6939.082677076043
 31
0.0
 70
    32
 71
     5
 42
1974.0
  3
INABA_S40G
100
AcDbAlignedDimension
 13
6081.6
 23
7926.082677076043
 33
0.0
 14
6081.600000000008
 24
5952.082677076042
 34
0.0
 50
90.0
100
AcDbRotatedDimension
1001
ACAD
1000
DSTYLE
1002
{
1070
   341
1005
0
1002
}
  0
LINE
  5
21609
330
747D
100
AcDbEntity
  8
部品1
 48
50.0
100
AcDbLine
 10
6128.6
 20
6059.082677076042
 30
0.0
 11
6128.6
 21
7819.082677076041
 31
0.0
  0
LINE
  5
2160A
330
747D
100
AcDbEntity
  8
部品1
 48
50.0
100
AcDbLine
 10
6008.600000000001
 20
5829.082677076041
 30
0.0
 11
6008.600000000001
 21
8049.082677076041
 31
0.0
  0
DIMENSION
  5
2160C
330
747D
100
AcDbEntity
  8
寸法
 48
50.0
100
AcDbDimension
  2
*D12
 10
5267.16493184821
 20
5829.082677076041
 30
0.0
 11
5167.153120824588
 21
6939.082677076043
 31
0.0
 70
    32
 71
     5
 42
2220.0
  3
INABA_S40G
100
AcDbAlignedDimension
 13
6008.600000000001
 23
8049.082677076041
 33
0.0
 14
6008.600000000001
 24
5829.082677076041
 34
0.0
 50
90.0
100
AcDbRotatedDimension
1001
ACAD
1000
DSTYLE
1002
{
1070
   341
1005
0
1002
}
  0
LINE
  5
2166C
330
747D
100
AcDbEntity
  8
部品1
 48
50.0
100
AcDbLine
 10
7975.6
 20
5949.082677076051
 30
0.0
 11
6238.6
 21
5949.082677076046
 31
0.0
  0
LINE
  5
2166D
330
747D
100
AcDbEntity
  8
部品1
 48
50.0
100
AcDbLine
 10
8196.600000000001
 20
5754.082677076045
 30
0.0
 11
6008.600000000001
 21
5754.082677076031
 31
0.0
  0
DIMENSION
  5
21671
330
747D
100
AcDbEntity
  8
寸法
 48
50.0
100
AcDbDimension
  2
*D27
 10
5512.657733986179
 20
5829.08267707603
 30
0.0
 11
5512.657733986178
 21
5493.551728233449
 31
0.0
 70
   160
 71
     5
 42
123.0000000000118
  3
INABA_S40G
100
AcDbAlignedDimension
 13
6081.600000000008
 23
5952.082677076042
 33
0.0
 14
6008.600000000001
 24
5829.08267707603
 34
0.0
 50
90.0
100
AcDbRotatedDimension
1001
ACAD
1000
DSTYLE
1002
{
1070
   341
1005
0
1002
}
  0
LINE
  5
21673
330
747D
100
AcDbEntity
  8
部品1
 48
50.0
100
AcDbLine
 10
6238.6
 20
5949.082677076046
 30
0.0
 11
6238.6
 21
6059.082677076045
 31
0.0
  0
LINE
  5
2167B
330
747D
100
AcDbEntity
  8
センター
 48
2.0
100
AcDbLine
 10
6131.600000000009
 20
6002.082677076042
 30
0.0
 11
6131.600000000009
 21
5902.082677076045
 31
0.0
  0
LINE
  5
216AC
330
747D
100
AcDbEntity
  8
センター
 48
2.0
100
AcDbLine
 10
6081.600000000008
 20
5952.082677076042
 30
0.0
 11
6181.600000000009
 21
5952.082677076042
 31
0.0
  0
CIRCLE
  5
216AD
330
747D
100
AcDbEntity
  8
部品1
 48
50.0
100
AcDbCircle
 10
6131.600000000009
 20
5952.082677076042
 30
0.0
 40
35.0
  0
LINE
  5
216AE
330
747D
100
AcDbEntity
  8
部品1
 48
50.0
100
AcDbLine
 10
6008.600000000001
 20
5754.082677076048
 30
0.0
 11
6008.600000000001
 21
5829.08267707603
 31
0.0
  0
LINE
  5
216F0
330
747D
100
AcDbEntity
  8
部品1
 48
50.0
100
AcDbLine
 10
6238.6
 20
6059.082677076045
 30
0.0
 11
6128.6
 21
6059.082677076042
 31
0.0
  0
LINE
  5
2175A
330
747D
100
AcDbEntity
  8
部品1
 48
50.0
100
AcDbLine
 10
6128.599999999998
 20
6839.082677076041
 30
0.0
 11
6008.600000000001
 21
6839.082677076041
 31
0.0
  0
LINE
  5
2175D
330
747D
100
AcDbEntity
  8
部品1
 48
50.0
100
AcDbLine
 10
7018.599999999999
 20
5949.082677076049
 30
0.0
 11
7018.600000000002
 21
5754.082677076034
 31
0.0
  0
LINE
  5
2179D
330
747D
100
AcDbEntity
  8
部品1
 48
50.0
100
AcDbLine
 10
7218.600000000002
 20
5949.08267707605
 30
0.0
 11
7218.600000000002
 21
5754.082677076038
 31
0.0
  0
LINE
  5
217DF
330
747D
100
AcDbEntity
  8
部品1
 48
50.0
100
AcDbLine
 10
6873.6
 20
6664.082677076042
 30
0.0
 11
6673.6
 21
6664.082677076042
 31
0.0
  0
LINE
  5
217E0
330
747D
100
AcDbEntity
  8
部品1
 48
50.0
100
AcDbLine
 10
6873.6
 20
6464.082677076041
 30
0.0
 11
6673.6
 21
6464.082677076041
 31
0.0
  0
LINE
  5
217E1
330
747D
100
AcDbEntity
  8
センター
 48
2.0
100
AcDbLine
 10
6773.6
 20
6614.082677076043
 30
0.0
 11
6773.6
 21
6514.082677076043
 31
0.0
  0
LINE
  5
217E2
330
747D
100
AcDbEntity
  8
部品1
 48
50.0
100
AcDbLine
 10
6673.600000000002
 20
6464.082677076041
 30
0.0
 11
6673.6
 21
6664.082677076042
 31
0.0
  0
LINE
  5
217E3
330
747D
100
AcDbEntity
  8
センター
 48
2.0
100
AcDbLine
 10
6723.600000000002
 20
6564.082677076043
 30
0.0
 11
6823.6
 21
6564.082677076043
 31
0.0
  0
LINE
  5
217E4
330
747D
100
AcDbEntity
  8
部品1
 48
50.0
100
AcDbLine
 10
6873.6
 20
6464.082677076041
 30
0.0
 11
6873.6
 21
6664.082677076042
 31
0.0
  0
DIMENSION
  5
217E5
330
747D
100
AcDbEntity
  8
寸法
 48
50.0
100
AcDbDimension
  2
*D28
 10
7975.6
 20
6315.33706418395
 30
0.0
 11
8105.6
 21
6315.33706418395
 31
0.0
 70
   160
 71
     5
 42
260.0
  3
INABA_S40G
100
AcDbAlignedDimension
 13
8235.600000000001
 23
6059.08267707606
 33
0.0
 14
7975.6
 24
6059.08267707606
 34
0.0
100
AcDbRotatedDimension
1001
ACAD
1000
DSTYLE
1002
{
1070
   341
1005
0
1002
}
  0
LINE
  5
217E6
330
747D
100
AcDbEntity
  8
部品1
 48
50.0
100
AcDbLine
 10
8235.600000000001
 20
6059.08267707606
 30
0.0
 11
7975.6
 21
6059.08267707606
 31
0.0
  0
LINE
  5
217E7
330
747D
100
AcDbEntity
  8
部品1
 48
50.0
100
AcDbLine
 10
7975.6
 20
5949.082677076051
 30
0.0
 11
7975.6
 21
6059.08267707606
 31
0.0
  0
LINE
  5
2186A
330
747D
100
AcDbEntity
  8
部品1
 48
50.0
100
AcDbLine
 10
8235.600000000003
 20
5949.082677076053
 30
0.0
 11
8235.600000000001
 21
6059.08267707606
 31
0.0
  0
LINE
  5
2186B
330
747D
100
AcDbEntity
  8
センター
 48
2.0
100
AcDbLine
 10
8055.600000000008
 20
5952.082677076042
 30
0.0
 11
8155.600000000008
 21
5952.082677076042
 31
0.0
  0
CIRCLE
  5
2186C
330
747D
100
AcDbEntity
  8
部品1
 48
50.0
100
AcDbCircle
 10
8105.600000000007
 20
5952.082677076042
 30
0.0
 40
35.0
  0
LINE
  5
2186D
330
747D
100
AcDbEntity
  8
センター
 48
2.0
100
AcDbLine
 10
8105.600000000007
 20
6002.082677076042
 30
0.0
 11
8105.600000000007
 21
5902.082677076045
 31
0.0
  0
LINE
  5
218A0
330
747D
100
AcDbEntity
  8
部品1
 48
50.0
100
AcDbLine
 10
8196.600000000001
 20
5754.082677076048
 30
0.0
 11
8196.600000000001
 21
5829.082677076042
 31
0.0
  0
LINE
  5
218A3
330
747D
100
AcDbEntity
  8
部品1
 48
50.0
100
AcDbLine
 10
7975.6
 20
7929.082677076042
 30
0.0
 11
6238.599999999999
 21
7929.082677076042
 31
0.0
  0
DIMENSION
  5
218A4
330
747D
100
AcDbEntity
  8
寸法
 48
50.0
100
AcDbDimension
  2
*D13
 10
6008.600000000001
 20
8575.99244272437
 30
0.0
 11
6391.100000000001
 21
8675.992442724369
 31
0.0
 70
    32
 71
     5
 42
764.9999999999991
  3
INABA_S40G
100
AcDbAlignedDimension
 13
6773.6
 23
7414.082677076042
 33
0.0
 14
6008.600000000001
 24
8049.082677076041
 34
0.0
100
AcDbRotatedDimension
1001
ACAD
1000
DSTYLE
1002
{
1070
   341
1005
0
1002
}
  0
DIMENSION
  5
218A5
330
747D
100
AcDbEntity
  8
寸法
 48
50.0
100
AcDbDimension
  2
*D14
 10
6131.6
 20
8794.842303618125
 30
0.0
 11
7118.6
 21
8894.842303618125
 31
0.0
 70
    32
 71
     5
 42
1974.0
  3
INABA_S40G
100
AcDbAlignedDimension
 13
8105.6
 23
7976.082677076043
 33
0.0
 14
6131.6
 24
7976.082677076043
 34
0.0
100
AcDbRotatedDimension
1001
ACAD
1000
DSTYLE
1002
{
1070
   341
1005
0
1002
}
  0
DIMENSION
  5
218A6
330
747D
100
AcDbEntity
  8
寸法
 48
50.0
100
AcDbDimension
  2
*D15
 10
6008.600000000001
 20
8794.842303618125
 30
0.0
 11
5735.493398282202
 21
8794.842303618125
 31
0.0
 70
   160
 71
     5
 42
122.9999999999991
  3
INABA_S40G
100
AcDbAlignedDimension
 13
6131.6
 23
7976.082677076043
 33
0.0
 14
6008.600000000001
 24
8049.082677076041
 34
0.0
100
AcDbRotatedDimension
1001
ACAD
1000
DSTYLE
1002
{
1070
   341
1005
0
1002
}
  0
DIMENSION
  5
218A8
330
747D
100
AcDbEntity
  8
寸法
 48
50.0
100
AcDbDimension
  2
*D16
 10
5512.657733986179
 20
7926.082677076043
 30
0.0
 11
5512.657733986178
 21
8322.189278793841
 31
0.0
 70
   160
 71
     5
 42
122.9999999999991
  3
INABA_S40G
100
AcDbAlignedDimension
 13
6008.600000000001
 23
8049.082677076041
 33
0.0
 14
6081.6
 24
7926.082677076043
 34
0.0
 50
90.0
100
AcDbRotatedDimension
1001
ACAD
1000
DSTYLE
1002
{
1070
   341
1005
0
1002
}
  0
DIMENSION
  5
218A9
330
747D
100
AcDbEntity
  8
寸法
 48
50.0
100
AcDbDimension
  2
*D17
 10
6455.307249876098
 20
8049.082677076039
 30
0.0
 11
6455.307249876098
 21
8327.166220348926
 31
0.0
 70
   160
 71
     5
 42
119.9999999999981
  3
INABA_S40G
100
AcDbAlignedDimension
 13
6238.6
 23
7929.08267707604
 33
0.0
 14
6238.6
 24
8049.082677076039
 34
0.0
 50
90.0
100
AcDbRotatedDimension
1001
ACAD
1000
DSTYLE
1002
{
1070
   341
1005
0
1002
}
  0
DIMENSION
  5
218AA
330
747D
100
AcDbEntity
  8
寸法
 48
50.0
100
AcDbDimension
  2
*D18
 10
6455.307249876098
 20
7819.082677076038
 30
0.0
 11
6455.307249876098
 21
7479.023621957927
 31
0.0
 70
   160
 71
     5
 42
110.0000000000045
  3
INABA_S40G
100
AcDbAlignedDimension
 13
6238.6
 23
7929.082677076042
 33
0.0
 14
6238.6
 24
7819.082677076038
 34
0.0
 50
90.0
100
AcDbRotatedDimension
1001
ACAD
1000
DSTYLE
1002
{
1070
   341
1005
0
1002
}
  0
LINE
  5
218AB
330
747D
100
AcDbEntity
  8
部品1
 48
50.0
100
AcDbLine
 10
6128.599999999998
 20
7039.082677076041
 30
0.0
 11
6008.600000000001
 21
7039.082677076041
 31
0.0
  0
LINE
  5
218AC
330
747D
100
AcDbEntity
  8
部品1
 48
50.0
100
AcDbLine
 10
6407.928907166848
 20
8049.082677076038
 30
0.0
 11
6008.600000000001
 21
8049.082677076041
 31
0.0
  0
LINE
  5
218AD
330
747D
100
AcDbEntity
  8
部品1
 48
50.0
100
AcDbLine
 10
6238.6
 20
7819.082677076038
 30
0.0
 11
6128.6
 21
7819.082677076041
 31
0.0
  0
LINE
  5
218AE
330
747D
100
AcDbEntity
  8
センター
 48
2.0
100
AcDbLine
 10
6131.6
 20
7976.082677076043
 30
0.0
 11
6131.6
 21
7876.082677076041
 31
0.0
  0
LINE
  5
218AF
330
747D
100
AcDbEntity
  8
センター
 48
2.0
100
AcDbLine
 10
6081.6
 20
7926.082677076043
 30
0.0
 11
6181.6
 21
7926.082677076043
 31
0.0
  0
CIRCLE
  5
218B0
330
747D
100
AcDbEntity
  8
部品1
 48
50.0
100
AcDbCircle
 10
6131.6
 20
7926.082677076043
 30
0.0
 40
35.0
  0
LINE
  5
218B1
330
747D
100
AcDbEntity
  8
部品1
 48
50.0
100
AcDbLine
 10
6238.6
 20
7819.082677076038
 30
0.0
 11
6238.599999999999
 21
7929.082677076042
 31
0.0
  0
DIMENSION
  5
218B2
330
747D
100
AcDbEntity
  8
寸法
 48
50.0
100
AcDbDimension
  2
*D19
 10
7463.600000000001
 20
8575.99244272437
 30
0.0
 11
7843.600000000001
 21
8675.992442724369
 31
0.0
 70
    32
 71
     5
 42
759.999999999999
  3
INABA_S40G
100
AcDbAlignedDimension
 13
8223.600000000001
 23
7039.082677076051
 33
0.0
 14
7463.600000000001
 24
7514.082677076043
 34
0.0
100
AcDbRotatedDimension
1001
ACAD
1000
DSTYLE
1002
{
1070
   341
1005
0
1002
}
  0
LINE
  5
218B3
330
747D
100
AcDbEntity
  8
部品1
 48
50.0
100
AcDbLine
 10
6673.6
 20
7214.082677076041
 30
0.0
 11
6673.6
 21
7414.082677076042
 31
0.0
  0
LINE
  5
218B4
330
747D
100
AcDbEntity
  8
部品1
 48
50.0
100
AcDbLine
 10
6873.6
 20
7214.082677076041
 30
0.0
 11
6873.6
 21
7414.082677076042
 31
0.0
  0
LINE
  5
218B5
330
747D
100
AcDbEntity
  8
部品1
 48
50.0
100
AcDbLine
 10
6873.6
 20
7214.082677076041
 30
0.0
 11
6673.6
 21
7214.082677076041
 31
0.0
  0
LINE
  5
218B8
330
747D
100
AcDbEntity
  8
センター
 48
2.0
100
AcDbLine
 10
6723.600000000002
 20
7314.082677076043
 30
0.0
 11
6823.6
 21
7314.082677076043
 31
0.0
  0
LINE
  5
218B9
330
747D
100
AcDbEntity
  8
センター
 48
2.0
100
AcDbLine
 10
6773.6
 20
7364.082677076043
 30
0.0
 11
6773.6
 21
7264.082677076043
 31
0.0
  0
LINE
  5
218BC
330
747D
100
AcDbEntity
  8
部品1
 48
50.0
100
AcDbLine
 10
6873.6
 20
7414.082677076042
 30
0.0
 11
6673.6
 21
7414.082677076042
 31
0.0
  0
LINE
  5
218BD
330
747D
100
AcDbEntity
  8
部品1
 48
50.0
100
AcDbLine
 10
7018.600000000009
 20
8049.082677076041
 30
0.0
 11
7018.600000000009
 21
7929.082677076042
 31
0.0
  0
LINE
  5
218BE
330
747D
100
AcDbEntity
  8
部品1
 48
50.0
100
AcDbLine
 10
7218.600000000009
 20
8049.082677076041
 30
0.0
 11
7218.600000000009
 21
7929.082677076042
 31
0.0
  0
LINE
  5
218C1
330
747D
100
AcDbEntity
  8
部品1
 48
50.0
100
AcDbLine
 10
8235.600000000001
 20
7819.082677076024
 30
0.0
 11
7975.6
 21
7819.082677076024
 31
0.0
  0
LINE
  5
218C2
330
747D
100
AcDbEntity
  8
部品1
 48
50.0
100
AcDbLine
 10
7975.6
 20
7929.082677076042
 30
0.0
 11
7975.6
 21
7819.082677076024
 31
0.0
  0
LINE
  5
218C3
330
747D
100
AcDbEntity
  8
部品1
 48
50.0
100
AcDbLine
 10
8235.600000000001
 20
7929.082677076042
 30
0.0
 11
8235.600000000001
 21
7819.082677076024
 31
0.0
  0
CIRCLE
  5
218C4
330
747D
100
AcDbEntity
  8
部品1
 48
50.0
100
AcDbCircle
 10
8105.6
 20
7926.082677076043
 30
0.0
 40
35.0
  0
LINE
  5
218C5
330
747D
100
AcDbEntity
  8
センター
 48
2.0
100
AcDbLine
 10
8105.6
 20
7976.082677076043
 30
0.0
 11
8105.6
 21
7876.082677076041
 31
0.0
  0
LINE
  5
218C6
330
747D
100
AcDbEntity
  8
センター
 48
2.0
100
AcDbLine
 10
8055.600000000001
 20
7926.082677076043
 30
0.0
 11
8155.600000000001
 21
7926.082677076043
 31
0.0
  0
LINE
  5
218C7
330
747D
100
AcDbEntity
  8
部品1
 48
50.0
100
AcDbLine
 10
10438.6
 20
5829.082677076059
 30
0.0
 11
10438.6
 21
8049.082677076041
 31
0.0
  0
LINE
  5
218C8
330
747D
100
AcDbEntity
  8
部品1
 48
50.0
100
AcDbLine
 10
10318.6
 20
6059.082677076059
 30
0.0
 11
10318.6
 21
7819.082677076043
 31
0.0
  0
DIMENSION
  5
218CC
330
747D
100
AcDbEntity
  8
寸法
 48
50.0
100
AcDbDimension
  2
*D20
 10
9309.531448609051
 20
6564.082677076043
 30
0.0
 11
9209.53144860905
 21
6939.082677076043
 31
0.0
 70
    32
 71
     5
 42
750.0
  3
INABA_S40G
100
AcDbAlignedDimension
 13
9573.6
 23
7314.082677076043
 33
0.0
 14
9573.6
 24
6564.082677076043
 34
0.0
 50
90.0
100
AcDbRotatedDimension
1001
ACAD
1000
DSTYLE
1002
{
1070
   341
1005
0
1002
}
  0
LINE
  5
2193F
330
747D
100
AcDbEntity
  8
部品1
 48
50.0
100
AcDbLine
 10
9773.600000000001
 20
6664.082677076042
 30
0.0
 11
9573.6
 21
6664.082677076042
 31
0.0
  0
LINE
  5
21940
330
747D
100
AcDbEntity
  8
部品1
 48
50.0
100
AcDbLine
 10
9773.600000000001
 20
6464.082677076041
 30
0.0
 11
9573.6
 21
6464.082677076041
 31
0.0
  0
DIMENSION
  5
21942
330
747D
100
AcDbEntity
  8
寸法
 48
50.0
100
AcDbDimension
  2
*D21
 10
9309.531448609051
 20
6564.082677076043
 30
0.0
 11
9209.53144860905
 21
6196.582677076047
 31
0.0
 70
    32
 71
     5
 42
734.9999999999909
  3
INABA_S40G
100
AcDbAlignedDimension
 13
9210.045939259561
 23
5829.082677076051
 33
0.0
 14
9573.6
 24
6564.082677076043
 34
0.0
 50
90.0
100
AcDbRotatedDimension
1001
ACAD
1000
DSTYLE
1002
{
1070
   341
1005
0
1002
}
  0
LINE
  5
21943
330
747D
100
AcDbEntity
  8
部品1
 48
50.0
100
AcDbLine
 10
9228.600000000012
 20
5949.082677076055
 30
0.0
 11
9228.600000000012
 21
5829.082677076056
 31
0.0
  0
LINE
  5
21944
330
747D
100
AcDbEntity
  8
部品1
 48
50.0
100
AcDbLine
 10
9573.6
 20
6464.082677076041
 30
0.0
 11
9573.6
 21
6664.082677076042
 31
0.0
  0
LINE
  5
21945
330
747D
100
AcDbEntity
  8
部品1
 48
50.0
100
AcDbLine
 10
9428.600000000013
 20
5949.082677076055
 30
0.0
 11
9428.600000000013
 21
5829.082677076056
 31
0.0
  0
LINE
  5
21946
330
747D
100
AcDbEntity
  8
センター
 48
2.0
100
AcDbLine
 10
9673.6
 20
6614.082677076043
 30
0.0
 11
9673.6
 21
6514.082677076043
 31
0.0
  0
LINE
  5
21947
330
747D
100
AcDbEntity
  8
部品1
 48
50.0
100
AcDbLine
 10
9773.600000000001
 20
6464.082677076041
 30
0.0
 11
9773.600000000001
 21
6664.082677076042
 31
0.0
  0
LINE
  5
21948
330
747D
100
AcDbEntity
  8
センター
 48
2.0
100
AcDbLine
 10
9623.600000000001
 20
6564.082677076043
 30
0.0
 11
9723.600000000001
 21
6564.082677076043
 31
0.0
  0
LINE
  5
2194D
330
747D
100
AcDbEntity
  8
部品1
 48
50.0
100
AcDbLine
 10
10208.6
 20
5949.082677076058
 30
0.0
 11
10208.6
 21
6059.08267707606
 31
0.0
  0
CIRCLE
  5
2194E
330
747D
100
AcDbEntity
  8
部品1
 48
50.0
100
AcDbCircle
 10
10315.60000000001
 20
5952.082677076042
 30
0.0
 40
35.0
  0
LINE
  5
2194F
330
747D
100
AcDbEntity
  8
センター
 48
2.0
100
AcDbLine
 10
10265.60000000001
 20
5952.082677076042
 30
0.0
 11
10365.60000000001
 21
5952.082677076042
 31
0.0
  0
LINE
  5
21950
330
747D
100
AcDbEntity
  8
センター
 48
2.0
100
AcDbLine
 10
10315.60000000001
 20
6002.082677076042
 30
0.0
 11
10315.60000000001
 21
5902.082677076045
 31
0.0
  0
LINE
  5
21951
330
747D
100
AcDbEntity
  8
部品1
 48
50.0
100
AcDbLine
 10
10318.6
 20
6059.082677076059
 30
0.0
 11
10208.6
 21
6059.08267707606
 31
0.0
  0
LINE
  5
21952
330
747D
100
AcDbEntity
  8
部品1
 48
50.0
100
AcDbLine
 10
10438.6
 20
6839.082677076042
 30
0.0
 11
10318.6
 21
6839.082677076042
 31
0.0
  0
DIMENSION
  5
21957
330
747D
100
AcDbEntity
  8
寸法
 48
50.0
100
AcDbDimension
  2
*D22
 10
10208.6
 20
7591.374009575668
 30
0.0
 11
9938.540944881893
 21
7591.374009575668
 31
0.0
 70
   160
 71
     5
 42
110.0
  3
INABA_S40G
100
AcDbAlignedDimension
 13
10318.6
 23
7819.082677076043
 33
0.0
 14
10208.6
 24
7819.082677076038
 34
0.0
100
AcDbRotatedDimension
1001
ACAD
1000
DSTYLE
1002
{
1070
   341
1005
0
1002
}
  0
DIMENSION
  5
21958
330
747D
100
AcDbEntity
  8
寸法
 48
50.0
100
AcDbDimension
  2
*D23
 10
9673.6
 20
8575.99244272437
 30
0.0
 11
10056.1
 21
8675.992442724369
 31
0.0
 70
    32
 71
     5
 42
765.0
  3
INABA_S40G
100
AcDbAlignedDimension
 13
10438.6
 23
8049.082677076041
 33
0.0
 14
9673.6
 24
7514.082677076043
 34
0.0
100
AcDbRotatedDimension
1001
ACAD
1000
DSTYLE
1002
{
1070
   341
1005
0
1002
}
  0
DIMENSION
  5
21959
330
747D
100
AcDbEntity
  8
寸法
 48
50.0
100
AcDbDimension
  2
*D24
 10
9309.531448609051
 20
8049.082677076041
 30
0.0
 11
9209.53144860905
 21
7681.582677076043
 31
0.0
 70
    32
 71
     5
 42
735.0
  3
INABA_S40G
100
AcDbAlignedDimension
 13
9573.6
 23
7314.082677076043
 33
0.0
 14
9114.157431058357
 24
8049.082677076041
 34
0.0
 50
90.0
100
AcDbRotatedDimension
1001
ACAD
1000
DSTYLE
1002
{
1070
   341
1005
0
1002
}
  0
LINE
  5
2195B
330
747D
100
AcDbEntity
  8
部品1
 48
50.0
100
AcDbLine
 10
9773.600000000001
 20
7414.082677076042
 30
0.0
 11
9573.6
 21
7414.082677076042
 31
0.0
  0
LINE
  5
2195C
330
747D
100
AcDbEntity
  8
部品1
 48
50.0
100
AcDbLine
 10
9773.600000000001
 20
7214.082677076041
 30
0.0
 11
9573.6
 21
7214.082677076041
 31
0.0
  0
LINE
  5
2195D
330
747D
100
AcDbEntity
  8
部品1
 48
50.0
100
AcDbLine
 10
9573.6
 20
7214.082677076041
 30
0.0
 11
9573.6
 21
7414.082677076042
 31
0.0
  0
LINE
  5
2195E
330
747D
100
AcDbEntity
  8
部品1
 48
50.0
100
AcDbLine
 10
9228.600000000007
 20
8049.082677076039
 30
0.0
 11
9228.60000000001
 21
7929.082677076042
 31
0.0
  0
LINE
  5
2195F
330
747D
100
AcDbEntity
  8
部品1
 48
50.0
100
AcDbLine
 10
9773.600000000001
 20
7214.082677076041
 30
0.0
 11
9773.600000000001
 21
7414.082677076042
 31
0.0
  0
LINE
  5
21960
330
747D
100
AcDbEntity
  8
センター
 48
2.0
100
AcDbLine
 10
9623.600000000001
 20
7314.082677076043
 30
0.0
 11
9723.600000000001
 21
7314.082677076043
 31
0.0
  0
LINE
  5
21961
330
747D
100
AcDbEntity
  8
センター
 48
2.0
100
AcDbLine
 10
9673.6
 20
7364.082677076043
 30
0.0
 11
9673.6
 21
7264.082677076043
 31
0.0
  0
LINE
  5
21962
330
747D
100
AcDbEntity
  8
部品1
 48
50.0
100
AcDbLine
 10
9428.600000000008
 20
8049.082677076039
 30
0.0
 11
9428.600000000008
 21
7929.082677076042
 31
0.0
  0
DIMENSION
  5
21964
330
747D
100
AcDbEntity
  8
寸法
 48
50.0
100
AcDbDimension
  2
*D25
 10
10315.6
 20
8794.842303618125
 30
0.0
 11
10711.7066017178
 21
8794.842303618125
 31
0.0
 70
   160
 71
     5
 42
123.0
  3
INABA_S40G
100
AcDbAlignedDimension
 13
10438.6
 23
8049.082677076041
 33
0.0
 14
10315.6
 24
7976.082677076043
 34
0.0
100
AcDbRotatedDimension
1001
ACAD
1000
DSTYLE
1002
{
1070
   341
1005
0
1002
}
  0
LINE
  5
21965
330
747D
100
AcDbEntity
  8
部品1
 48
50.0
100
AcDbLine
 10
10438.6
 20
7039.082677076042
 30
0.0
 11
10318.6
 21
7039.082677076042
 31
0.0
  0
DIMENSION
  5
21966
330
747D
100
AcDbEntity
  8
寸法
 48
50.0
100
AcDbDimension
  2
*D26
 10
10318.6
 20
7591.374009575668
 30
0.0
 11
10708.65905511811
 21
7591.374009575668
 31
0.0
 70
   160
 71
     5
 42
120.0
  3
INABA_S40G
100
AcDbAlignedDimension
 13
10438.6
 23
7608.367273614497
 33
0.0
 14
10318.6
 24
7819.082677076043
 34
0.0
100
AcDbRotatedDimension
1001
ACAD
1000
DSTYLE
1002
{
1070
   341
1005
0
1002
}
  0
CIRCLE
  5
21967
330
747D
100
AcDbEntity
  8
部品1
 48
50.0
100
AcDbCircle
 10
10315.6
 20
7926.082677076043
 30
0.0
 40
35.0
  0
LINE
  5
21968
330
747D
100
AcDbEntity
  8
センター
 48
2.0
100
AcDbLine
 10
10265.6
 20
7926.082677076043
 30
0.0
 11
10365.6
 21
7926.082677076043
 31
0.0
  0
LINE
  5
21969
330
747D
100
AcDbEntity
  8
部品1
 48
50.0
100
AcDbLine
 10
10318.6
 20
7819.082677076043
 30
0.0
 11
10208.6
 21
7819.082677076038
 31
0.0
  0
LINE
  5
2196A
330
747D
100
AcDbEntity
  8
部品1
 48
50.0
100
AcDbLine
 10
10208.6
 20
7819.082677076038
 30
0.0
 11
10208.6
 21
7929.082677076042
 31
0.0
  0
LINE
  5
2196B
330
747D
100
AcDbEntity
  8
センター
 48
2.0
100
AcDbLine
 10
10315.6
 20
7976.082677076043
 30
0.0
 11
10315.6
 21
7876.082677076041
 31
0.0
  0
LINE
  5
22266
330
747D
100
AcDbEntity
  8
部品1
 48
50.0
100
AcDbLine
 10
7563.6
 20
7414.082677076042
 30
0.0
 11
7363.600000000001
 21
7414.082677076042
 31
0.0
  0
LINE
  5
22267
330
747D
100
AcDbEntity
  8
センター
 48
2.0
100
AcDbLine
 10
7463.600000000001
 20
7364.082677076043
 30
0.0
 11
7463.600000000001
 21
7264.082677076043
 31
0.0
  0
LINE
  5
22268
330
747D
100
AcDbEntity
  8
センター
 48
2.0
100
AcDbLine
 10
7413.600000000001
 20
7314.082677076043
 30
0.0
 11
7513.600000000001
 21
7314.082677076043
 31
0.0
  0
LINE
  5
22269
330
747D
100
AcDbEntity
  8
部品1
 48
50.0
100
AcDbLine
 10
7563.6
 20
7214.082677076041
 30
0.0
 11
7363.600000000001
 21
7214.082677076041
 31
0.0
  0
LINE
  5
2226A
330
747D
100
AcDbEntity
  8
部品1
 48
50.0
100
AcDbLine
 10
7563.6
 20
7214.082677076041
 30
0.0
 11
7563.6
 21
7414.082677076042
 31
0.0
  0
LINE
  5
2226B
330
747D
100
AcDbEntity
  8
部品1
 48
50.0
100
AcDbLine
 10
7363.600000000001
 20
7214.082677076041
 30
0.0
 11
7363.600000000001
 21
7414.082677076042
 31
0.0
  0
LINE
  5
2226C
330
747D
100
AcDbEntity
  8
部品1
 48
50.0
100
AcDbLine
 10
7563.6
 20
6464.082677076041
 30
0.0
 11
7563.6
 21
6664.082677076042
 31
0.0
  0
LINE
  5
2226D
330
747D
100
AcDbEntity
  8
センター
 48
2.0
100
AcDbLine
 10
7413.600000000001
 20
6564.082677076043
 30
0.0
 11
7513.600000000001
 21
6564.082677076043
 31
0.0
  0
LINE
  5
2226E
330
747D
100
AcDbEntity
  8
部品1
 48
50.0
100
AcDbLine
 10
7363.600000000001
 20
6464.082677076041
 30
0.0
 11
7363.600000000001
 21
6664.082677076042
 31
0.0
  0
LINE
  5
2226F
330
747D
100
AcDbEntity
  8
センター
 48
2.0
100
AcDbLine
 10
7463.600000000001
 20
6614.082677076043
 30
0.0
 11
7463.600000000001
 21
6514.082677076043
 31
0.0
  0
LINE
  5
22270
330
747D
100
AcDbEntity
  8
部品1
 48
50.0
100
AcDbLine
 10
7563.6
 20
6464.082677076041
 30
0.0
 11
7363.600000000001
 21
6464.082677076041
 31
0.0
  0
LINE
  5
22271
330
747D
100
AcDbEntity
  8
部品1
 48
50.0
100
AcDbLine
 10
7563.6
 20
6664.082677076042
 30
0.0
 11
7363.600000000001
 21
6664.082677076042
 31
0.0
  0
DIMENSION
  5
2227B
330
747D
100
AcDbEntity
  8
寸法
 48
50.0
100
AcDbDimension
  2
*D29
 10
6773.6
 20
8575.99244272437
 30
0.0
 11
7118.6
 21
8675.992442724369
 31
0.0
 70
    32
 71
     5
 42
690.0000000000009
  3
INABA_S40G
100
AcDbAlignedDimension
 13
7463.600000000001
 23
7414.082677076042
 33
0.0
 14
6773.6
 24
7414.082677076042
 34
0.0
100
AcDbRotatedDimension
1001
ACAD
1000
DSTYLE
1002
{
1070
   341
1005
0
1002
}
  0
LINE
  5
222C0
330
747D
100
AcDbEntity
  8
部品1
 48
50.0
100
AcDbLine
 10
9083.6
 20
7414.082677076042
 30
0.0
 11
8883.599999999999
 21
7414.082677076042
 31
0.0
  0
LINE
  5
222C1
330
747D
100
AcDbEntity
  8
センター
 48
2.0
100
AcDbLine
 10
8983.6
 20
7364.082677076043
 30
0.0
 11
8983.6
 21
7264.082677076043
 31
0.0
  0
LINE
  5
222C2
330
747D
100
AcDbEntity
  8
センター
 48
2.0
100
AcDbLine
 10
8933.6
 20
7314.082677076043
 30
0.0
 11
9033.599999999999
 21
7314.082677076043
 31
0.0
  0
LINE
  5
222C3
330
747D
100
AcDbEntity
  8
部品1
 48
50.0
100
AcDbLine
 10
9083.6
 20
7214.082677076041
 30
0.0
 11
8883.599999999999
 21
7214.082677076041
 31
0.0
  0
LINE
  5
222C4
330
747D
100
AcDbEntity
  8
部品1
 48
50.0
100
AcDbLine
 10
9083.6
 20
7214.082677076041
 30
0.0
 11
9083.6
 21
7414.082677076042
 31
0.0
  0
LINE
  5
222C5
330
747D
100
AcDbEntity
  8
部品1
 48
50.0
100
AcDbLine
 10
8883.599999999999
 20
7214.082677076042
 30
0.0
 11
8883.599999999999
 21
7414.082677076042
 31
0.0
  0
LINE
  5
222C6
330
747D
100
AcDbEntity
  8
部品1
 48
50.0
100
AcDbLine
 10
9083.6
 20
6464.082677076041
 30
0.0
 11
9083.6
 21
6664.082677076042
 31
0.0
  0
LINE
  5
222C7
330
747D
100
AcDbEntity
  8
センター
 48
2.0
100
AcDbLine
 10
8933.6
 20
6564.082677076043
 30
0.0
 11
9033.599999999999
 21
6564.082677076043
 31
0.0
  0
LINE
  5
222C8
330
747D
100
AcDbEntity
  8
部品1
 48
50.0
100
AcDbLine
 10
8883.599999999999
 20
6464.082677076041
 30
0.0
 11
8883.599999999999
 21
6664.082677076042
 31
0.0
  0
LINE
  5
222C9
330
747D
100
AcDbEntity
  8
センター
 48
2.0
100
AcDbLine
 10
8983.6
 20
6614.082677076043
 30
0.0
 11
8983.6
 21
6514.082677076043
 31
0.0
  0
LINE
  5
222CA
330
747D
100
AcDbEntity
  8
部品1
 48
50.0
100
AcDbLine
 10
9083.6
 20
6464.082677076041
 30
0.0
 11
8883.599999999999
 21
6464.082677076041
 31
0.0
  0
LINE
  5
222CB
330
747D
100
AcDbEntity
  8
部品1
 48
50.0
100
AcDbLine
 10
9083.6
 20
6664.082677076042
 30
0.0
 11
8883.599999999999
 21
6664.082677076042
 31
0.0
  0
DIMENSION
  5
222D5
330
747D
100
AcDbEntity
  8
寸法
 48
50.0
100
AcDbDimension
  2
*D30
 10
8983.6
 20
8575.99244272437
 30
0.0
 11
9328.599999999999
 21
8675.992442724369
 31
0.0
 70
    32
 71
     5
 42
690.0
  3
INABA_S40G
100
AcDbAlignedDimension
 13
9673.6
 23
7414.082677076042
 33
0.0
 14
8983.6
 24
7414.082677076042
 34
0.0
100
AcDbRotatedDimension
1001
ACAD
1000
DSTYLE
1002
{
1070
   341
1005
0
1002
}
  0
LINE
  5
236E9
330
747D
100
AcDbEntity
  8
部品1
 48
50.0
100
AcDbLine
 10
8323.6
 20
7039.082677076051
 30
0.0
 11
8123.600000000001
 21
7039.082677076051
 31
0.0
  0
LINE
  5
236EA
330
747D
100
AcDbEntity
  8
センター
 48
2.0
100
AcDbLine
 10
8173.6
 20
6939.082677076051
 30
0.0
 11
8273.6
 21
6939.082677076051
 31
0.0
  0
LINE
  5
236EB
330
747D
100
AcDbEntity
  8
部品1
 48
50.0
100
AcDbLine
 10
8323.6
 20
6839.082677076048
 30
0.0
 11
8123.600000000001
 21
6839.082677076048
 31
0.0
  0
LINE
  5
236EC
330
747D
100
AcDbEntity
  8
部品1
 48
50.0
100
AcDbLine
 10
8323.6
 20
6839.082677076048
 30
0.0
 11
8323.6
 21
7039.082677076051
 31
0.0
  0
LINE
  5
236ED
330
747D
100
AcDbEntity
  8
センター
 48
2.0
100
AcDbLine
 10
8223.600000000001
 20
6989.082677076051
 30
0.0
 11
8223.600000000001
 21
6889.082677076051
 31
0.0
  0
LINE
  5
236EE
330
747D
100
AcDbEntity
  8
部品1
 48
50.0
100
AcDbLine
 10
8123.600000000001
 20
6839.082677076051
 30
0.0
 11
8123.600000000001
 21
7039.082677076051
 31
0.0
  0
DIMENSION
  5
23730
330
747D
100
AcDbEntity
  8
寸法
 48
50.0
100
AcDbDimension
  2
*D31
 10
6448.419958440979
 20
5754.082677076031
 30
0.0
 11
6448.419958440979
 21
5515.387735872138
 31
0.0
 70
   160
 71
     5
 42
195.0000000000145
  3
INABA_S40G
100
AcDbAlignedDimension
 13
6238.6
 23
5949.082677076046
 33
0.0
 14
6238.600000000001
 24
5754.082677076031
 34
0.0
 50
90.0
100
AcDbRotatedDimension
1001
ACAD
1000
DSTYLE
1002
{
1070
   341
1005
0
1002
}
  0
LINE
  5
23A23
330
747D
100
AcDbEntity
  8
想像線
 48
10.0
100
AcDbLine
 10
9147.16214885316
 20
5774.082677076052
 30
0.0
 11
10483.6
 21
5774.082677076048
 31
0.0
  0
LINE
  5
23A24
330
747D
100
AcDbEntity
  8
想像線
 48
10.0
100
AcDbLine
 10
9147.16214885316
 20
8124.082677076042
 30
0.0
 11
10483.6
 21
8124.082677076039
 31
0.0
  0
TEXT
  5
23A25
330
747D
100
AcDbEntity
  8
寸法
 62
     7
100
AcDbText
 10
6533.456352585791
 20
4670.254164561153
 30
0.0
 40
120.0
  1
扉位置 (2188x75)
  7
STYLE1
100
AcDbText
  0
SOLID
  5
23A26
330
747D
100
AcDbEntity
  8
寸法
 48
50.0
100
AcDbTrace
 10
-6740.941652225425
 20
5628.491648171149
 30
0.0
 11
-6757.850857895411
 21
5754.082677076037
 31
0.0
 12
-6701.123437751947
 22
5640.764419140058
 32
0.0
 13
-6701.123437751947
 23
5640.764419140058
 33
0.0
210
0.0
220
0.0
230
-1.0
1001
ACAD
1000
DSTYLE
1002
{
1070
   341
1005
0
1070
    40
1040
1.0
1070
   343
1005
0
1070
   344
1005
0
1002
}
  0
LWPOLYLINE
  5
23A27
330
747D
100
AcDbEntity
  8
寸法
 48
50.0
100
AcDbPolyline
 90
        3
 70
     0
 43
0.0
 10
-6757.850857895411
 20
5754.082677076037
 10
-6416.840393393039
 20
4647.986217012833
 10
-9230.90480632468
 20
4647.986217012833
210
0.0
220
0.0
230
-1.0
1001
ACAD
1000
DSTYLE
1002
{
1070
   341
1005
0
1070
    40
1040
1.0
1070
   343
1005
0
1070
   344
1005
0
1002
}
  0
TEXT
  5
23A28
330
747D
100
AcDbEntity
  8
寸法
 62
     7
100
AcDbText
 10
6533.456352585791
 20
4498.650401677828
 30
0.0
 40
120.0
  1
扉の位置に合わせた基礎形状として下さい。
  7
STYLE1
100
AcDbText
  0
DIMENSION
  5
23A97
330
747D
100
AcDbEntity
  8
寸法
 48
50.0
100
AcDbDimension
  2
*D32
 10
6008.600000000001
 20
5150.096947257303
 30
0.0
 11
7098.766762832856
 21
5150.096947257303
 31
0.0
 70
   160
  1
扉の幅 <>
 71
     5
 42
2187.999999999999
  3
INABA_S40G
100
AcDbAlignedDimension
 13
8196.600000000001
 23
5754.082677076063
 33
0.0
 14
6008.600000000001
 24
5754.082677076048
 34
0.0
100
AcDbRotatedDimension
1001
ACAD
1000
DSTYLE
1002
{
1070
   341
1005
0
1002
}
  0
DIMENSION
  5
23E28
330
747D
100
AcDbEntity
  8
寸法
 48
50.0
100
AcDbDimension
  2
*D33
 10
5772.312481891145
 20
5829.082677076065
 30
0.0
 11
5772.312481891145
 21
5220.597395701827
 31
0.0
 70
   160
  1
扉の出<>
 71
     5
 42
75.0
  3
INABA_S40G
100
AcDbAlignedDimension
 13
6008.600000000001
 23
5754.082677076064
 33
0.0
 14
6008.600000000008
 24
5829.082677076065
 34
0.0
 50
90.0
100
AcDbRotatedDimension
1001
ACAD
1000
DSTYLE
1002
{
1070
   341
1005
0
1002
}
  0
LINE
  5
23FF5
330
747D
100
AcDbEntity
  8
細線
100
AcDbLine
 10
9563.151971713283
 20
1570.092172533627
 30
0.0
 11
9319.860304617304
 21
1813.383839629605
 31
0.0
  0
LINE
  5
23FF6
330
747D
100
AcDbEntity
  8
細線
100
AcDbLine
 10
9499.512361406493
 20
1570.092172533627
 30
0.0
 11
9319.860304617304
 21
1749.744229322817
 31
0.0
  0
LINE
  5
23FF7
330
747D
100
AcDbEntity
  8
部品1
100
AcDbLine
 10
9319.860304617304
 20
1870.092172533627
 30
0.0
 11
9919.860304617303
 21
1870.092172533627
 31
0.0
  0
LINE
  5
23FF8
330
747D
100
AcDbEntity
  8
細線
100
AcDbLine
 10
9311.155797741463
 20
1455.468527966939
 30
0.0
 11
9425.779442308154
 21
1570.092172533626
 31
0.0
  0
LWPOLYLINE
  5
23FF9
330
747D
100
AcDbEntity
  8
部品1
 48
50.0
100
AcDbPolyline
 90
        2
 70
     0
 43
15.0
 10
8839.09622699182
 20
1570.092172533627
 10
10340.46160590635
 20
1570.092172533627
  0
LINE
  5
23FFA
330
747D
100
AcDbEntity
  8
部品1
100
AcDbLine
 10
9169.860304617303
 20
1455.468527966939
 30
0.0
 11
10069.8603046173
 21
1455.468527966942
 31
0.0
  0
LINE
  5
23FFB
330
747D
100
AcDbEntity
  8
部品1
100
AcDbLine
 10
9169.860304617303
 20
1295.468527966935
 30
0.0
 11
10069.8603046173
 21
1295.468527966939
 31
0.0
  0
LINE
  5
23FFC
330
747D
100
AcDbEntity
  8
部品1
100
AcDbLine
 10
3763.89653633841
 20
262.2371978999945
 30
0.0
 11
10660.37123243644
 21
262.2371978999945
 31
0.0
  0
LINE
  5
23FFD
330
747D
100
AcDbEntity
  8
部品1
100
AcDbLine
 10
10660.37123243644
 20
3221.306697254682
 30
0.0
 11
3763.89653633841
 21
3221.306697254682
 31
0.0
  0
LINE
  5
23FFE
330
747D
100
AcDbEntity
  8
部品1
100
AcDbLine
 10
10660.37123243644
 20
3521.306697254683
 30
0.0
 11
3763.89653633841
 21
3521.306697254682
 31
0.0
  0
LEADER
  5
23FFF
330
747D
100
AcDbEntity
  8
寸法
 48
50.0
100
AcDbLeader
  3
INABA_S40G
 73
     0
 75
     1
 40
141.4772727272727
 41
760.7954545454546
 76
     3
 10
7245.417307034248
 20
1806.986764231474
 30
0.0
 10
7030.662521170063
 20
2862.460617177073
 30
0.0
 10
6930.662521170063
 20
2862.460617177073
 30
0.0
340
24000
1001
ACAD
1000
DSTYLE
1002
{
1070
   341
1005
0
1002
}
  0
MTEXT
  5
24000
102
{ACAD_REACTORS
330
23FFF
102
}
330
747D
100
AcDbEntity
  8
寸法
 62
     7
 48
50.0
100
AcDbMText
 10
6890.662521170064
 20
2973.199253540709
 30
0.0
 40
100.0
 41
1.0
 71
     6
 72
     1
  1
\A1;φ70スリーブ
  7
STYLE2
 73
     1
 44
1.0
1001
ACAD
1000
MTEXTBEGIN
1070
    73
1070
     1
1070
    44
1040
1.0
1070
    74
1070
     0
1000
MTEXTEND
  0
LINE
  5
24001
330
747D
100
AcDbEntity
  8
部品1
100
AcDbLine
 10
3763.896536338414
 20
3521.306697254682
 30
0.0
 11
3763.896536338414
 21
262.2371978999945
 31
0.0
  0
DIMENSION
  5
24002
330
747D
100
AcDbEntity
  8
寸法
 48
50.0
100
AcDbDimension
  2
*D36
 10
4882.697227890194
 20
2394.676932429102
 30
0.0
 11
5002.697227890195
 21
2394.676932429102
 31
0.0
 70
   160
  1
120\P(195)
 71
     5
 42
239.9999999999991
  3
INABA_S40G
100
AcDbAlignedDimension
 13
5122.697227890193
 23
1870.092172533627
 33
0.0
 14
4882.697227890194
 24
1870.092172533627
 34
0.0
100
AcDbRotatedDimension
1001
ACAD
1000
DSTYLE
1002
{
1070
   341
1005
0
1002
}
  0
LEADER
  5
24003
330
747D
100
AcDbEntity
  8
寸法
 48
50.0
100
AcDbLeader
  3
INABA_S40G
 73
     0
 74
     0
 75
     1
 40
127.8409090909091
 41
1133.522727272727
 76
     3
 10
7334.496369361686
 20
2206.496283088977
 30
0.0
 10
7434.335857322738
 20
2641.790934347247
 30
0.0
 10
7534.335857322737
 20
2641.790934347247
 30
0.0
340
24004
1001
ACAD
1000
DSTYLE
1002
{
1070
   341
1005
0
1002
}
  0
MTEXT
  5
24004
102
{ACAD_REACTORS
330
24003
102
}
330
747D
100
AcDbEntity
  8
部品1
 62
     7
 48
50.0
100
AcDbMText
 10
7574.335857322738
 20
2745.711388892702
 30
0.0
 40
100.0
 41
1.0
 71
     4
 72
     1
  1
\A1;ワッシャー(市販品)
  7
STYLE2
 73
     1
 44
1.0
1001
ACAD
1000
MTEXTBEGIN
1070
    73
1070
     1
1070
    44
1040
1.0
1070
    74
1070
     0
1000
MTEXTEND
  0
LEADER
  5
24005
330
747D
100
AcDbEntity
  8
寸法
 48
50.0
100
AcDbLeader
  3
INABA_S40G
 73
     0
 74
     0
 75
     1
 40
127.8409090909091
 41
850.0
 76
     3
 10
7304.496369361685
 20
2368.686273920055
 30
0.0
 10
7394.938833253383
 20
2873.002287803233
 30
0.0
 10
7494.938833253383
 20
2873.002287803233
 30
0.0
340
24006
1001
ACAD
1000
DSTYLE
1002
{
1070
   341
1005
0
1002
}
  0
MTEXT
  5
24006
102
{ACAD_REACTORS
330
24005
102
}
330
747D
100
AcDbEntity
  8
部品1
 62
     7
 48
50.0
100
AcDbMText
 10
7534.938833253383
 20
2976.922742348687
 30
0.0
 40
100.0
 41
1.0
 71
     4
 72
     1
  1
\A1;ナット(市販品)
  7
STYLE2
 73
     1
 44
1.0
1001
ACAD
1000
MTEXTBEGIN
1070
    73
1070
     1
1070
    44
1040
1.0
1070
    74
1070
     0
1000
MTEXTEND
  0
MTEXT
  5
24007
102
{ACAD_REACTORS
330
24008
102
}
330
747D
100
AcDbEntity
  8
寸法
 62
     7
 48
50.0
100
AcDbMText
 10
6923.966278930513
 20
2522.343913656315
 30
0.0
 40
100.0
 41
1.0
 71
     6
 72
     1
  1
アンカープレート {\fArial|b0|i0|c0|p32;U}
  7
STYLE2
 73
     1
 44
1.0
1001
ACAD
1000
MTEXTBEGIN
1070
    73
1070
     1
1070
    44
1040
1.0
1070
    74
1070
     0
1000
MTEXTEND
  0
LEADER
  5
24008
330
747D
100
AcDbEntity
  8
寸法
 48
50.0
100
AcDbLeader
  3
INABA_S40G
 73
     0
 75
     1
 40
132.9545454545455
 41
1129.404378023068
 76
     3
 10
7171.996369361686
 20
1957.042172533627
 30
0.0
 10
7063.966278930513
 20
2415.866640929043
 30
0.0
 10
6963.966278930513
 20
2415.866640929043
 30
0.0
340
24007
1001
ACAD
1000
DSTYLE
1002
{
1070
   341
1005
0
1002
}
  0
TEXT
  5
24009
330
747D
100
AcDbEntity
  8
部品1
 48
50.0
100
AcDbText
 10
4365.022350598997
 20
1584.140912887695
 30
0.0
 40
100.0
  1
▽G.L
  7
STYLE2
100
AcDbText
  0
LWPOLYLINE
  5
2400A
330
747D
100
AcDbEntity
  8
部品1
 48
50.0
100
AcDbPolyline
 90
        2
 70
     0
 43
10.0
 10
4365.022350598997
 20
1570.092172533628
 10
4882.697227890194
 20
1570.092172533628
  0
DIMENSION
  5
2400B
330
747D
100
AcDbEntity
  8
寸法
 48
50.0
100
AcDbDimension
  2
*D37
 10
4544.671835724619
 20
890.0921725336258
 30
0.0
 11
4544.671835724619
 21
1040.092172533626
 31
0.0
 70
   160
  1
150
 71
     5
 42
299.9999999999993
  3
INABA_S40G
100
AcDbAlignedDimension
 13
4722.697227890193
 23
1190.092172533625
 33
0.0
 14
4622.697227890196
 24
890.0921725336258
 34
0.0
 50
90.0
100
AcDbRotatedDimension
1001
ACAD
1000
DSTYLE
1002
{
1070
   341
1005
0
1002
}
  0
DIMENSION
  5
2400C
330
747D
100
AcDbEntity
  8
寸法
 48
50.0
100
AcDbDimension
  2
*D38
 10
4122.05228985413
 20
890.0921725336258
 30
0.0
 11
4122.05228985413
 21
1380.092172533627
 31
0.0
 70
   160
  1
540
 71
     5
 42
980.0000000000013
  3
INABA_S40G
100
AcDbAlignedDimension
 13
4882.697227890194
 23
1870.092172533627
 33
0.0
 14
4622.697227890196
 24
890.0921725336258
 34
0.0
 50
90.0
100
AcDbRotatedDimension
1001
ACAD
1000
DSTYLE
1002
{
1070
   341
1005
0
1002
}
  0
MTEXT
  5
2400D
102
{ACAD_REACTORS
330
2400E
102
}
330
747D
100
AcDbEntity
  8
寸法
 62
     7
 48
50.0
100
AcDbMText
 10
4798.779227971912
 20
2135.737447536181
 30
0.0
 40
100.0
 41
1.0
 71
     6
 72
     1
  1
\A1;金コテ押エ
  7
STYLE2
 73
     1
 44
1.0
1001
ACAD
1000
MTEXTBEGIN
1070
    73
1070
     1
1070
    44
1040
1.0
1070
    74
1070
     0
1000
MTEXTEND
  0
LEADER
  5
2400E
330
747D
100
AcDbEntity
  8
寸法
 48
50.0
100
AcDbLeader
  3
INABA_S40G
 71
     0
 73
     0
 75
     1
 40
130.1136363636363
 41
651.1363636363636
 76
     3
 10
4982.697227890194
 20
1870.092172533627
 30
0.0
 10
4923.779227971911
 20
2045.680629354361
 30
0.0
 10
4823.779227971911
 20
2045.680629354361
 30
0.0
1001
ACAD
1000
DSTYLE
1002
{
1070
   341
1005
0
1002
}
  0
LEADER
  5
2400F
330
747D
100
AcDbEntity
  8
寸法
 48
50.0
100
AcDbLeader
  3
INABA_S40G
 71
     0
 73
     0
 75
     1
 40
100.0
 41
540.3409090909091
 76
     3
 10
5012.697227890194
 20
1567.75119090503
 30
0.0
 10
4883.969432229322
 20
1290.913280229025
 30
0.0
 10
4783.969432229322
 20
1290.913280229025
 30
0.0
213
-12.16522788236671
223
-5.804645826423211
233
0.0
1001
ACAD
1000
DSTYLE
1002
{
1070
   341
1005
0
1002
}
  0
MTEXT
  5
24010
102
{ACAD_REACTORS
330
2400F
102
}
330
747D
100
AcDbEntity
  8
寸法
 62
     7
 48
50.0
100
AcDbMText
 10
4771.134660111687
 20
1371.717926055447
 30
0.0
 40
100.0
 41
1.0
 71
     6
 72
     1
  1
\A1;D10@300
  7
STYLE2
 73
     1
 44
1.0
1001
ACAD
1000
MTEXTBEGIN
1070
    73
1070
     1
1070
    44
1040
1.0
1070
    74
1070
     0
1000
MTEXTEND
  0
MTEXT
  5
24011
102
{ACAD_REACTORS
330
24012
102
}
330
747D
100
AcDbEntity
  8
寸法
 62
     7
 48
50.0
100
AcDbMText
 10
4544.181854592994
 20
560.2936148362767
 30
0.0
 40
100.0
 41
1.0
 71
     6
 72
     1
  1
D13
  7
STYLE2
 73
     1
 44
1.0
1001
ACAD
1000
MTEXTBEGIN
1070
    73
1070
     1
1070
    44
1040
1.0
1070
    74
1070
     0
1000
MTEXTEND
  0
LEADER
  5
24012
330
747D
100
AcDbEntity
  8
寸法
 48
50.0
100
AcDbLeader
  3
INABA_S40G
 71
     0
 73
     0
 75
     1
 40
100.0
 41
222.7272727272727
 76
     3
 10
5002.697227890193
 20
1040.092172533626
 30
0.0
 10
4669.181854592994
 20
485.2936148362767
 30
0.0
 10
4569.181854592994
 20
485.2936148362767
 30
0.0
1001
ACAD
1000
DSTYLE
1002
{
1070
   341
1005
0
1002
}
  0
LEADER
  5
24013
330
747D
100
AcDbEntity
  8
寸法
 48
50.0
100
AcDbLeader
  3
INABA_S40G
 71
     0
 73
     0
 75
     1
 40
100.0
 41
225.0
 76
     3
 10
4842.575918330371
 20
1040.092172533626
 30
0.0
 10
4634.0284451462
 20
710.688805510581
 30
0.0
 10
4534.0284451462
 20
710.688805510581
 30
0.0
1001
ACAD
1000
DSTYLE
1002
{
1070
   341
1005
0
1002
}
  0
MTEXT
  5
24014
102
{ACAD_REACTORS
330
24013
102
}
330
747D
100
AcDbEntity
  8
寸法
 62
     7
 48
50.0
100
AcDbMText
 10
4509.028445146201
 20
785.688805510581
 30
0.0
 40
100.0
 41
1.0
 71
     6
 72
     1
  1
D10
  7
STYLE2
 73
     1
 44
1.0
1001
ACAD
1000
MTEXTBEGIN
1070
    73
1070
     1
1070
    44
1040
1.0
1070
    74
1070
     0
1000
MTEXTEND
  0
LINE
  5
24015
330
747D
100
AcDbEntity
  8
部品1
 48
50.0
100
AcDbLine
 10
5122.697227890194
 20
1870.092172533627
 30
0.0
 11
5122.697227890194
 21
1190.092172533625
 31
0.0
  0
LINE
  5
24016
330
747D
100
AcDbEntity
  8
細線
 48
50.0
100
AcDbLine
 10
4882.697227890194
 20
1248.65060473634
 30
0.0
 11
5012.697227890202
 21
1378.65060473634
 31
0.0
  0
LINE
  5
24017
330
747D
100
AcDbEntity
  8
細線
 48
50.0
100
AcDbLine
 10
4882.697227890194
 20
1316.002525644359
 30
0.0
 11
5012.697227890194
 21
1446.002525644358
 31
0.0
  0
LINE
  5
24018
330
747D
100
AcDbEntity
  8
細線
 48
50.0
100
AcDbLine
 10
4882.697227890194
 20
1282.326565190349
 30
0.0
 11
5012.697227890202
 21
1412.326565190353
 31
0.0
  0
LINE
  5
24019
330
747D
100
AcDbEntity
  8
部品1
 48
50.0
100
AcDbLine
 10
4882.697227890194
 20
1190.092172533625
 30
0.0
 11
4882.697227890194
 21
1870.092172533627
 31
0.0
  0
LINE
  5
2401A
330
747D
100
AcDbEntity
  8
部品1
 48
50.0
100
AcDbLine
 10
5012.697227890202
 20
1040.092172533626
 30
0.0
 11
5012.697227890186
 21
1695.410209276433
 31
0.0
  0
LINE
  5
2401B
330
747D
100
AcDbEntity
  8
部品1
 48
50.0
100
AcDbLine
 10
5032.697227890201
 20
1040.092172533626
 30
0.0
 11
5032.697227890194
 21
1695.410209276433
 31
0.0
  0
LINE
  5
2401C
330
747D
100
AcDbEntity
  8
部品1
 48
50.0
100
AcDbLine
 10
5122.697227890194
 20
1190.092172533625
 30
0.0
 11
5282.697227890194
 21
1190.092172533625
 31
0.0
  0
LINE
  5
2401D
330
747D
100
AcDbEntity
  8
細線
 48
50.0
100
AcDbLine
 10
5169.278202497624
 20
1030.092172533626
 30
0.0
 11
5282.697227890194
 21
1143.5111979262
 31
0.0
  0
LINE
  5
2401E
330
747D
100
AcDbEntity
  8
細線
 48
50.0
100
AcDbLine
 10
5202.95416295163
 20
1030.092172533626
 30
0.0
 11
5282.697227890194
 21
1109.835237472191
 31
0.0
  0
LINE
  5
2401F
330
747D
100
AcDbEntity
  8
細線
 48
50.0
100
AcDbLine
 10
5135.602242043604
 20
1030.092172533626
 30
0.0
 11
5282.697227890194
 21
1177.187158380209
 31
0.0
  0
LEADER
  5
24020
330
747D
100
AcDbEntity
  8
寸法
 48
50.0
100
AcDbLeader
  3
INABA_S40G
 71
     0
 73
     0
 74
     0
 75
     1
 40
100.0
 41
225.0
 76
     3
 10
5162.575918330372
 20
1040.092172533626
 30
0.0
 10
5286.85680264855
 20
920.8458363549107
 30
0.0
 10
5386.85680264855
 20
920.8458363549107
 30
0.0
1001
ACAD
1000
DSTYLE
1002
{
1070
   341
1005
0
1002
}
  0
DIMENSION
  5
24021
330
747D
100
AcDbEntity
  8
寸法
 48
50.0
100
AcDbDimension
  2
*D39
 10
5282.697227890194
 20
431.1400660776926
 30
0.0
 11
5002.697227890193
 21
431.1400660776926
 31
0.0
 70
   160
  1
300
 71
     5
 42
560.0000000000009
  3
INABA_S40G
100
AcDbAlignedDimension
 13
4722.697227890193
 23
730.0921725336256
 33
0.0
 14
5282.697227890194
 24
730.0921725336256
 34
0.0
100
AcDbRotatedDimension
1001
ACAD
1000
DSTYLE
1002
{
1070
   341
1005
0
1002
}
  0
LEADER
  5
24022
330
747D
100
AcDbEntity
  8
寸法
 48
50.0
100
AcDbLeader
  3
INABA_S40G
 71
     0
 73
     0
 74
     0
 75
     1
 40
100.0
 41
540.3409090909091
 76
     3
 10
5095.128689156663
 20
1019.166509516719
 30
0.0
 10
5299.870297716757
 20
592.1279870230972
 30
0.0
 10
5399.870297716756
 20
592.1279870230972
 30
0.0
213
0.0
223
-1.277828345336728
233
0.0
1001
ACAD
1000
DSTYLE
1002
{
1070
   341
1005
0
1002
}
  0
LINE
  5
24023
330
747D
100
AcDbEntity
  8
部品1
 48
50.0
100
AcDbLine
 10
5382.697227890197
 20
890.0921725336258
 30
0.0
 11
4622.697227890196
 21
890.0921725336258
 31
0.0
  0
LINE
  5
24024
330
747D
100
AcDbEntity
  8
部品1
 48
50.0
100
AcDbLine
 10
5382.697227890197
 20
730.0921725336256
 30
0.0
 11
4622.697227890196
 21
730.0921725336256
 31
0.0
  0
LINE
  5
24025
330
747D
100
AcDbEntity
  8
細線
 48
50.0
100
AcDbLine
 10
5176.395889628331
 20
730.0921725336247
 30
0.0
 11
5219.267760417308
 21
890.0921725336248
 31
0.0
  0
LINE
  5
24026
330
747D
100
AcDbEntity
  8
細線
 48
50.0
100
AcDbLine
 10
4979.175777260213
 20
730.0921725336256
 30
0.0
 11
5022.047648049191
 21
890.0921725336258
 31
0.0
  0
LINE
  5
24027
330
747D
100
AcDbEntity
  8
部品1
 48
50.0
100
AcDbLine
 10
4622.697227890196
 20
730.0921725336256
 30
0.0
 11
4622.697227890196
 21
890.0921725336258
 31
0.0
  0
LINE
  5
24028
330
747D
100
AcDbEntity
  8
細線
 48
50.0
100
AcDbLine
 10
4683.345608708019
 20
730.0921725336247
 30
0.0
 11
4726.217479496995
 21
890.0921725336248
 31
0.0
  0
LINE
  5
24029
330
747D
100
AcDbEntity
  8
細線
 48
50.0
100
AcDbLine
 10
4880.565721076147
 20
730.0921725336247
 30
0.0
 11
4923.437591865126
 21
890.0921725336248
 31
0.0
  0
LINE
  5
2402A
330
747D
100
AcDbEntity
  8
細線
 48
50.0
100
AcDbLine
 10
4781.95566489209
 20
730.0921725336256
 30
0.0
 11
4824.827535681068
 21
890.0921725336258
 31
0.0
  0
LINE
  5
2402B
330
747D
100
AcDbEntity
  8
細線
 48
50.0
100
AcDbLine
 10
5077.78583344427
 20
730.0921725336256
 30
0.0
 11
5120.657704233252
 21
890.0921725336248
 31
0.0
  0
LINE
  5
2402C
330
747D
100
AcDbEntity
  8
細線
 48
50.0
100
AcDbLine
 10
4789.994140665023
 20
760.0921725336256
 30
0.0
 11
4798.032616437956
 21
730.0921725336256
 31
0.0
  0
LINE
  5
2402D
330
747D
100
AcDbEntity
  8
細線
 48
50.0
100
AcDbLine
 10
4691.384084480958
 20
760.0921725336256
 30
0.0
 11
4699.422560253892
 21
730.0921725336256
 31
0.0
  0
LINE
  5
2402E
330
747D
100
AcDbEntity
  8
細線
 48
50.0
100
AcDbLine
 10
4987.214253033153
 20
760.0921725336256
 30
0.0
 11
4995.252728806086
 21
730.0921725336256
 31
0.0
  0
LINE
  5
2402F
330
747D
100
AcDbEntity
  8
細線
 48
50.0
100
AcDbLine
 10
4888.604196849088
 20
760.0921725336256
 30
0.0
 11
4896.642672622022
 21
730.0921725336256
 31
0.0
  0
LINE
  5
24030
330
747D
100
AcDbEntity
  8
細線
 48
50.0
100
AcDbLine
 10
5184.434365401267
 20
760.0921725336256
 30
0.0
 11
5192.4728411742
 21
730.0921725336256
 31
0.0
  0
LINE
  5
24031
330
747D
100
AcDbEntity
  8
細線
 48
50.0
100
AcDbLine
 10
5085.824309217212
 20
760.0921725336256
 30
0.0
 11
5093.862784990144
 21
730.0921725336256
 31
0.0
  0
LINE
  5
24032
330
747D
100
AcDbEntity
  8
部品1
 48
50.0
100
AcDbLine
 10
4722.697227890193
 20
1190.092172533625
 30
0.0
 11
4882.697227890194
 21
1190.092172533625
 31
0.0
  0
LINE
  5
24033
330
747D
100
AcDbEntity
  8
細線
 48
50.0
100
AcDbLine
 10
4726.194558411537
 20
890.0921725336258
 30
0.0
 11
4846.194558411537
 21
1010.092172533625
 31
0.0
  0
LINE
  5
24034
330
747D
100
AcDbEntity
  8
細線
 48
50.0
100
AcDbLine
 10
4759.870518865549
 20
890.0921725336258
 30
0.0
 11
4879.87051886555
 21
1010.092172533625
 31
0.0
  0
CIRCLE
  5
24035
330
747D
100
AcDbEntity
  8
部品1
 48
50.0
100
AcDbCircle
 10
4842.697227890194
 20
1040.092172533626
 30
0.0
 40
10.0
  0
LINE
  5
24036
330
747D
100
AcDbEntity
  8
細線
 48
50.0
100
AcDbLine
 10
4793.546479319554
 20
890.0921725336258
 30
0.0
 11
4913.546479319555
 21
1010.092172533625
 31
0.0
  0
LINE
  5
24037
330
747D
100
AcDbEntity
  8
部品1
 48
50.0
100
AcDbLine
 10
4792.697227890194
 20
1030.092172533626
 30
0.0
 11
5212.697227890194
 21
1030.092172533626
 31
0.0
  0
LINE
  5
24038
330
747D
100
AcDbEntity
  8
部品1
 48
50.0
100
AcDbLine
 10
4792.697227890194
 20
1010.092172533625
 30
0.0
 11
5212.697227890194
 21
1010.092172533625
 31
0.0
  0
LINE
  5
24039
330
747D
100
AcDbEntity
  8
部品1
 48
50.0
100
AcDbLine
 10
4722.697227890193
 20
890.0921725336258
 30
0.0
 11
4722.697227890193
 21
1190.092172533625
 31
0.0
  0
LINE
  5
2403A
330
747D
100
AcDbEntity
  8
細線
 48
50.0
100
AcDbLine
 10
4622.697227890194
 20
871.7670737408507
 30
0.0
 11
4627.607423312938
 21
890.0921725336258
 31
0.0
  0
LINE
  5
2403B
330
747D
100
AcDbEntity
  8
細線
 48
50.0
100
AcDbLine
 10
4718.17900372407
 20
860.0921725336265
 30
0.0
 11
4710.140527951135
 21
890.0921725336258
 31
0.0
  0
LINE
  5
2403C
330
747D
100
AcDbEntity
  8
細線
 48
50.0
100
AcDbLine
 10
4816.789059908135
 20
860.0921725336265
 30
0.0
 11
4808.7505841352
 21
890.0921725336258
 31
0.0
  0
LINE
  5
2403D
330
747D
100
AcDbEntity
  8
部品1
 48
50.0
100
AcDbLine
 10
4792.697227890194
 20
1030.092172533626
 30
0.0
 11
4792.697227890194
 21
1010.092172533625
 31
0.0
  0
LINE
  5
2403E
330
747D
100
AcDbEntity
  8
細線
 48
50.0
100
AcDbLine
 10
4722.697227890185
 20
1088.65060473634
 30
0.0
 11
4824.138795687479
 21
1190.092172533625
 31
0.0
  0
LINE
  5
2403F
330
747D
100
AcDbEntity
  8
細線
 48
50.0
100
AcDbLine
 10
4722.697227890185
 20
1156.002525644359
 30
0.0
 11
4756.786874779462
 21
1190.092172533625
 31
0.0
  0
LINE
  5
24040
330
747D
100
AcDbEntity
  8
細線
 48
50.0
100
AcDbLine
 10
4722.697227890185
 20
1122.326565190346
 30
0.0
 11
4790.462835233475
 21
1190.092172533625
 31
0.0
  0
LINE
  5
24041
330
747D
100
AcDbEntity
  8
部品1
 48
50.0
100
AcDbLine
 10
4992.697227890194
 20
1112.75119090503
 30
0.0
 11
4992.697227890194
 21
1040.092172533626
 31
0.0
  0
LINE
  5
24042
330
747D
100
AcDbEntity
  8
細線
 48
50.0
100
AcDbLine
 10
4899.870518865548
 20
1030.092172533626
 30
0.0
 11
4972.697227890193
 21
1102.918881558275
 31
0.0
  0
LINE
  5
24043
330
747D
100
AcDbEntity
  8
部品1
 48
50.0
100
AcDbLine
 10
4972.697227890193
 20
1112.75119090503
 30
0.0
 11
4972.697227890193
 21
1040.092172533626
 31
0.0
  0
LINE
  5
24044
330
747D
100
AcDbEntity
  8
細線
 48
50.0
100
AcDbLine
 10
4933.546479319556
 20
1030.092172533626
 30
0.0
 11
4972.697227890193
 21
1069.242921104265
 31
0.0
  0
LINE
  5
24045
330
747D
100
AcDbEntity
  8
細線
 48
50.0
100
AcDbLine
 10
4866.194558411536
 20
1030.092172533626
 30
0.0
 11
5012.697227890194
 21
1176.594842012284
 31
0.0
  0
LINE
  5
24046
330
747D
100
AcDbEntity
  8
細線
 48
50.0
100
AcDbLine
 10
4995.602242043611
 20
890.0921725336258
 30
0.0
 11
5115.60224204361
 21
1010.092172533625
 31
0.0
  0
LINE
  5
24047
330
747D
100
AcDbEntity
  8
細線
 48
50.0
100
AcDbLine
 10
5029.278202497624
 20
890.0921725336258
 30
0.0
 11
5149.278202497624
 21
1010.092172533625
 31
0.0
  0
CIRCLE
  5
24048
330
747D
100
AcDbEntity
  8
部品1
 48
50.0
100
AcDbCircle
 10
5002.697227890195
 20
1040.092172533626
 30
0.0
 40
10.0
  0
LINE
  5
24049
330
747D
100
AcDbEntity
  8
細線
 48
50.0
100
AcDbLine
 10
4915.399116092199
 20
860.0921725336265
 30
0.0
 11
4907.360640319266
 21
890.0921725336258
 31
0.0
  0
ARC
  5
2404A
330
747D
100
AcDbEntity
  8
部品1
 48
50.0
100
AcDbCircle
 10
5002.697227890195
 20
1040.092172533626
 30
0.0
 40
30.0
100
AcDbArc
 50
180.0
 51
199.4712206345269
  0
LINE
  5
2404B
330
747D
100
AcDbEntity
  8
細線
 48
50.0
100
AcDbLine
 10
5014.009172276264
 20
860.0921725336265
 30
0.0
 11
5005.970696503331
 21
890.0921725336258
 31
0.0
  0
ARC
  5
2404C
330
747D
100
AcDbEntity
  8
部品1
 48
50.0
100
AcDbCircle
 10
5002.697227890195
 20
1040.092172533626
 30
0.0
 40
30.0
100
AcDbArc
 50
340.5287793654732
 51
0.0
  0
LINE
  5
2404D
330
747D
100
AcDbEntity
  8
細線
 48
50.0
100
AcDbLine
 10
5112.619228460322
 20
860.0921725336265
 30
0.0
 11
5104.580752687389
 21
890.0921725336258
 31
0.0
  0
CIRCLE
  5
2404E
330
747D
100
AcDbEntity
  8
部品1
 48
50.0
100
AcDbCircle
 10
5162.697227890194
 20
1040.092172533626
 30
0.0
 40
10.0
  0
LINE
  5
2404F
330
747D
100
AcDbEntity
  8
細線
 48
50.0
100
AcDbLine
 10
5211.22928464438
 20
860.0921725336265
 30
0.0
 11
5203.190808871447
 21
890.0921725336258
 31
0.0
  0
LINE
  5
24050
330
747D
100
AcDbEntity
  8
部品1
 48
50.0
100
AcDbLine
 10
5212.697227890194
 20
1030.092172533626
 30
0.0
 11
5212.697227890194
 21
1010.092172533625
 31
0.0
  0
LINE
  5
24051
330
747D
100
AcDbEntity
  8
細線
 48
50.0
100
AcDbLine
 10
5062.95416295163
 20
890.0921725336258
 30
0.0
 11
5182.95527275805
 21
1010.093282340051
 31
0.0
  0
LINE
  5
24052
330
747D
100
AcDbEntity
  8
細線
 48
50.0
100
AcDbLine
 10
5032.697227890201
 20
1129.242921104265
 30
0.0
 11
5122.697227890187
 21
1219.242921104265
 31
0.0
  0
LINE
  5
24053
330
747D
100
AcDbEntity
  8
細線
 48
50.0
100
AcDbLine
 10
5032.697227890201
 20
1196.594842012288
 30
0.0
 11
5122.697227890187
 21
1286.594842012284
 31
0.0
  0
LINE
  5
24054
330
747D
100
AcDbEntity
  8
細線
 48
50.0
100
AcDbLine
 10
5032.697227890201
 20
1162.918881558278
 30
0.0
 11
5122.697227890187
 21
1252.918881558271
 31
0.0
  0
LINE
  5
24055
330
747D
100
AcDbEntity
  8
細線
 48
50.0
100
AcDbLine
 10
4992.697227890194
 20
1089.242921104265
 30
0.0
 11
5012.697227890202
 21
1109.242921104265
 31
0.0
  0
LINE
  5
24056
330
747D
100
AcDbEntity
  8
細線
 48
50.0
100
AcDbLine
 10
4982.529537236949
 20
1112.75119090503
 30
0.0
 11
5012.697227890202
 21
1142.918881558278
 31
0.0
  0
LINE
  5
24057
330
747D
100
AcDbEntity
  8
部品1
 48
50.0
100
AcDbLine
 10
4992.697227890194
 20
1112.75119090503
 30
0.0
 11
4972.697227890193
 21
1112.75119090503
 31
0.0
  0
LINE
  5
24058
330
747D
100
AcDbEntity
  8
細線
 48
50.0
100
AcDbLine
 10
5275.005945812385
 20
730.0921725336256
 30
0.0
 11
5317.877816601367
 21
890.0921725336248
 31
0.0
  0
LINE
  5
24059
330
747D
100
AcDbEntity
  8
部品1
 48
50.0
100
AcDbLine
 10
5382.697227890197
 20
890.0921725336258
 30
0.0
 11
5382.697227890197
 21
730.0921725336256
 31
0.0
  0
MTEXT
  5
2405A
102
{ACAD_REACTORS
330
24022
102
}
330
747D
100
AcDbEntity
  8
寸法
 62
     7
 48
50.0
100
AcDbMText
 10
5424.870297716758
 20
668.4058153684345
 30
0.0
 40
100.0
 41
1.0
 71
     4
 72
     1
  1
\A1;D10@300
  7
STYLE2
 73
     1
 44
1.0
1001
ACAD
1000
MTEXTBEGIN
1070
    73
1070
     1
1070
    44
1040
1.0
1070
    74
1070
     0
1000
MTEXTEND
  0
LINE
  5
2405B
330
747D
100
AcDbEntity
  8
細線
 48
50.0
100
AcDbLine
 10
5373.616001996448
 20
730.0921725336247
 30
0.0
 11
5382.697227890194
 21
763.9837689641117
 31
0.0
  0
LINE
  5
2405C
330
747D
100
AcDbEntity
  8
細線
 48
50.0
100
AcDbLine
 10
5381.654477769384
 20
760.0921725336256
 30
0.0
 11
5382.697227890194
 21
756.2005761031704
 31
0.0
  0
LINE
  5
2405D
330
747D
100
AcDbEntity
  8
細線
 48
50.0
100
AcDbLine
 10
5283.044421585326
 20
760.0921725336256
 30
0.0
 11
5291.082897358259
 21
730.0921725336256
 31
0.0
  0
LINE
  5
2405E
330
747D
100
AcDbEntity
  8
部品1
 48
50.0
100
AcDbLine
 10
5282.697227890194
 20
1190.092172533625
 30
0.0
 11
5282.697227890194
 21
890.0921725336258
 31
0.0
  0
MTEXT
  5
2405F
102
{ACAD_REACTORS
330
24020
102
}
330
747D
100
AcDbEntity
  8
寸法
 62
     7
 48
50.0
100
AcDbMText
 10
5411.85680264855
 20
995.8458363549098
 30
0.0
 40
100.0
 41
1.0
 71
     4
 72
     1
  1
D10
  7
STYLE2
 73
     1
 44
1.0
1001
ACAD
1000
MTEXTBEGIN
1070
    73
1070
     1
1070
    44
1040
1.0
1070
    74
1070
     0
1000
MTEXTEND
  0
LINE
  5
24060
330
747D
100
AcDbEntity
  8
細線
 48
50.0
100
AcDbLine
 10
5265.009925675686
 20
890.0921725336258
 30
0.0
 11
5282.697227890194
 21
907.7794747481348
 31
0.0
  0
LINE
  5
24061
330
747D
100
AcDbEntity
  8
細線
 48
50.0
100
AcDbLine
 10
5309.839340828439
 20
860.0921725336265
 30
0.0
 11
5301.800865055504
 21
890.0921725336258
 31
0.0
  0
MTEXT
  5
24062
102
{ACAD_REACTORS
330
24064
102
}
330
747D
100
AcDbEntity
  8
寸法
 62
     7
 48
50.0
100
AcDbMText
 10
5226.304649174437
 20
1696.676624157286
 30
0.0
 40
100.0
 41
1.0
 71
     4
 72
     1
  1
D13
  7
STYLE2
 73
     1
 44
1.0
1001
ACAD
1000
MTEXTBEGIN
1070
    73
1070
     1
1070
    44
1040
1.0
1070
    74
1070
     0
1000
MTEXTEND
  0
LWPOLYLINE
  5
24063
330
747D
100
AcDbEntity
  8
部品1
 48
50.0
100
AcDbPolyline
 90
        2
 70
     0
 43
10.0
 10
5122.697227890193
 20
1570.092172533628
 10
5640.372105181391
 20
1570.092172533628
  0
LEADER
  5
24064
330
747D
100
AcDbEntity
  8
寸法
 48
50.0
100
AcDbLeader
  3
INABA_S40G
 71
     0
 73
     0
 74
     0
 75
     1
 40
100.0
 41
222.7272727272727
 76
     3
 10
5002.697227890193
 20
1695.410209276433
 30
0.0
 10
5101.304649174438
 20
1621.676624157286
 30
0.0
 10
5201.304649174439
 20
1621.676624157286
 30
0.0
1001
ACAD
1000
DSTYLE
1002
{
1070
   341
1005
0
1002
}
  0
LINE
  5
24065
330
747D
100
AcDbEntity
  8
部品1
 48
50.0
100
AcDbLine
 10
4992.697227890194
 20
1622.75119090503
 30
0.0
 11
4992.697227890194
 21
1695.410209276433
 31
0.0
  0
LINE
  5
24066
330
747D
100
AcDbEntity
  8
部品1
 48
50.0
100
AcDbLine
 10
4972.697227890193
 20
1622.751190905034
 30
0.0
 11
4972.697227890193
 21
1695.410209276433
 31
0.0
  0
LINE
  5
24067
330
747D
100
AcDbEntity
  8
細線
 48
50.0
100
AcDbLine
 10
4992.697227890194
 20
1628.058288368415
 30
0.0
 11
5012.697227890194
 21
1648.058288368415
 31
0.0
  0
LINE
  5
24068
330
747D
100
AcDbEntity
  8
細線
 48
50.0
100
AcDbLine
 10
4882.697227890194
 20
1585.410209276433
 30
0.0
 11
4972.697227890193
 21
1675.410209276433
 31
0.0
  0
LINE
  5
24069
330
747D
100
AcDbEntity
  8
細線
 48
50.0
100
AcDbLine
 10
4882.697227890194
 20
1551.734248822424
 30
0.0
 11
4972.697227890193
 21
1641.734248822424
 31
0.0
  0
LINE
  5
2406A
330
747D
100
AcDbEntity
  8
細線
 48
50.0
100
AcDbLine
 10
5032.697227890201
 20
1432.326565190353
 30
0.0
 11
5122.697227890187
 21
1522.326565190344
 31
0.0
  0
LINE
  5
2406B
330
747D
100
AcDbEntity
  8
細線
 48
50.0
100
AcDbLine
 10
5032.697227890194
 20
1466.002525644358
 30
0.0
 11
5122.697227890194
 21
1556.002525644359
 31
0.0
  0
LINE
  5
2406C
330
747D
100
AcDbEntity
  8
細線
 48
50.0
100
AcDbLine
 10
5032.697227890201
 20
1398.65060473634
 30
0.0
 11
5122.697227890187
 21
1488.65060473634
 31
0.0
  0
LINE
  5
2406D
330
747D
100
AcDbEntity
  8
部品1
 48
50.0
100
AcDbLine
 10
4992.697227890194
 20
1622.75119090503
 30
0.0
 11
4972.697227890193
 21
1622.751190905034
 31
0.0
  0
LINE
  5
2406E
330
747D
100
AcDbEntity
  8
細線
 48
50.0
100
AcDbLine
 10
4882.697227890194
 20
1518.058288368415
 30
0.0
 11
4987.390130426813
 21
1622.75119090503
 31
0.0
  0
LINE
  5
2406F
330
747D
100
AcDbEntity
  8
部品1
 48
50.0
100
AcDbLine
 10
4882.697227890194
 20
1870.092172533627
 30
0.0
 11
5122.697227890194
 21
1870.092172533627
 31
0.0
  0
LINE
  5
24070
330
747D
100
AcDbEntity
  8
細線
 48
50.0
100
AcDbLine
 10
5018.312756018282
 20
1721.025737404521
 30
0.0
 11
5122.697227890194
 21
1825.410209276433
 31
0.0
  0
LINE
  5
24071
330
747D
100
AcDbEntity
  8
細線
 48
50.0
100
AcDbLine
 10
5032.138111972678
 20
1701.175132904904
 30
0.0
 11
5122.697227890194
 21
1791.734248822424
 31
0.0
  0
LINE
  5
24072
330
747D
100
AcDbEntity
  8
細線
 48
50.0
100
AcDbLine
 10
5032.697227890194
 20
1668.058288368414
 30
0.0
 11
5122.697227890194
 21
1758.058288368415
 31
0.0
  0
LINE
  5
24073
330
747D
100
AcDbEntity
  8
細線
 48
50.0
100
AcDbLine
 10
4992.697227890194
 20
1661.734248822424
 30
0.0
 11
5012.697227890194
 21
1681.734248822424
 31
0.0
  0
CIRCLE
  5
24074
330
747D
100
AcDbEntity
  8
部品1
 48
50.0
100
AcDbCircle
 10
5002.697227890195
 20
1695.410209276433
 30
0.0
 40
10.0
  0
ARC
  5
24075
330
747D
100
AcDbEntity
  8
部品1
 48
50.0
100
AcDbCircle
 10
5002.697227890195
 20
1695.410209276433
 30
0.0
 40
30.0
100
AcDbArc
 50
0.0
 51
180.0
  0
LINE
  5
24076
330
747D
100
AcDbEntity
  8
細線
 48
50.0
100
AcDbLine
 10
4882.697227890194
 20
1854.817892908508
 30
0.0
 11
4897.971507515314
 21
1870.092172533627
 31
0.0
  0
LINE
  5
24077
330
747D
100
AcDbEntity
  8
細線
 48
50.0
100
AcDbLine
 10
4882.697227890194
 20
1787.465972000489
 30
0.0
 11
4965.323428423332
 21
1870.092172533627
 31
0.0
  0
LINE
  5
24078
330
747D
100
AcDbEntity
  8
細線
 48
50.0
100
AcDbLine
 10
4882.697227890194
 20
1821.141932454499
 30
0.0
 11
4931.647467969327
 21
1870.092172533627
 31
0.0
  0
LEADER
  5
24079
330
747D
100
AcDbEntity
  8
寸法
 48
50.0
100
AcDbLeader
  3
INABA_S40G
 73
     0
 74
     0
 75
     1
 40
100.0
 41
543.75
 76
     3
 10
7295.746369361687
 20
1931.542172533626
 30
0.0
 10
7396.426947385837
 20
2110.571330225165
 30
0.0
 10
7496.426947385836
 20
2110.571330225165
 30
0.0
340
2407A
1001
ACAD
1000
DSTYLE
1002
{
1070
   341
1005
0
1002
}
  0
MTEXT
  5
2407A
102
{ACAD_REACTORS
330
24079
102
}
330
747D
100
AcDbEntity
  8
部品1
 62
     7
 48
50.0
100
AcDbMText
 10
7536.426947385836
 20
2200.571330225165
 30
0.0
 40
100.0
 41
1.0
 71
     4
 72
     1
  1
M10X160
  7
STYLE2
 73
     1
 44
1.0
1001
ACAD
1000
MTEXTBEGIN
1070
    73
1070
     1
1070
    44
1040
1.0
1070
    74
1070
     0
1000
MTEXTEND
  0
DIMENSION
  5
2407B
330
747D
100
AcDbEntity
  8
寸法
 48
50.0
100
AcDbDimension
  2
*D34
 10
8152.582119072743
 20
1465.092172533625
 30
0.0
 11
8052.582119072743
 21
1667.592172533627
 31
0.0
 70
    32
  1
180
 71
     5
 42
405.000000000002
  3
INABA_S40G
100
AcDbAlignedDimension
 13
7525.246369361686
 23
1870.092172533627
 33
0.0
 14
7525.246369361686
 24
1465.092172533625
 34
0.0
 50
90.0
100
AcDbRotatedDimension
1001
ACAD
1000
DSTYLE
1002
{
1070
   341
1005
0
1002
}
  0
LWPOLYLINE
  5
2407C
330
747D
100
AcDbEntity
  8
部品1
 48
50.0
100
AcDbPolyline
 90
        2
 70
     0
 43
10.0
 10
7525.246369361686
 20
1570.092172533628
 10
7892.374448610917
 20
1570.092172533628
  0
LINE
  5
2407D
330
747D
100
AcDbEntity
  8
部品1
 48
50.0
100
AcDbLine
 10
7785.246369361691
 20
890.0921725336258
 30
0.0
 11
6747.746369361689
 21
890.0921725336258
 31
0.0
  0
LINE
  5
2407E
330
747D
100
AcDbEntity
  8
細線
 48
50.0
100
AcDbLine
 10
7703.923731608995
 20
760.0921725336247
 30
0.0
 11
7711.962207381929
 21
730.0921725336247
 31
0.0
  0
LINE
  5
2407F
330
747D
100
AcDbEntity
  8
部品1
 48
50.0
100
AcDbLine
 10
7785.246369361691
 20
730.0921725336256
 30
0.0
 11
6747.746369361689
 21
730.0921725336256
 31
0.0
  0
LINE
  5
24080
330
747D
100
AcDbEntity
  8
細線
 48
50.0
100
AcDbLine
 10
7695.885255836055
 20
730.0921725336247
 30
0.0
 11
7738.757126625035
 21
890.092172533623
 31
0.0
  0
DIMENSION
  5
24081
330
747D
100
AcDbEntity
  8
寸法
 48
50.0
100
AcDbDimension
  2
*D35
 10
8497.650451721526
 20
1870.092172533627
 30
0.0
 11
8497.650451721526
 21
1404.083269112145
 31
0.0
 70
   160
  1
20～25
 71
     5
 42
65.95000000000005
  3
INABA_S40G
100
AcDbAlignedDimension
 13
7291.246369361687
 23
1936.042172533627
 33
0.0
 14
7525.246369361686
 24
1870.092172533627
 34
0.0
 50
90.0
100
AcDbRotatedDimension
1001
ACAD
1000
DSTYLE
1002
{
1070
   341
1005
0
1002
}
  0
TEXT
  5
24082
330
747D
100
AcDbEntity
  8
部品1
 48
50.0
100
AcDbText
 10
7530.688349717222
 20
2314.940523486377
 30
0.0
 40
100.0
  1
基礎ボルト(市販品)
  7
STYLE2
100
AcDbText
  0
LINE
  5
24083
330
747D
100
AcDbEntity
  8
細線
 48
50.0
100
AcDbLine
 10
6884.91966033704
 20
890.0921725336258
 30
0.0
 11
7525.246369361692
 21
1530.41888155827
 31
0.0
  0
LINE
  5
24084
330
747D
100
AcDbEntity
  8
細線
 48
50.0
100
AcDbLine
 10
6918.595620791049
 20
890.0921725336258
 30
0.0
 11
7525.246369361686
 21
1496.742921104261
 31
0.0
  0
LINE
  5
24085
330
747D
100
AcDbEntity
  8
細線
 48
50.0
100
AcDbLine
 10
7007.746369361687
 20
1316.002525644359
 30
0.0
 11
7205.746369361678
 21
1514.002525644352
 31
0.0
  0
LINE
  5
24086
330
747D
100
AcDbEntity
  8
細線
 48
50.0
100
AcDbLine
 10
7007.746369361687
 20
1248.65060473634
 30
0.0
 11
7224.187937158979
 21
1465.092172533625
 31
0.0
  0
LINE
  5
24087
330
747D
100
AcDbEntity
  8
細線
 48
50.0
100
AcDbLine
 10
7007.746369361687
 20
1282.326565190349
 30
0.0
 11
7205.746369361678
 21
1480.326565190335
 31
0.0
  0
LINE
  5
24088
330
747D
100
AcDbEntity
  8
部品1
 48
50.0
100
AcDbLine
 10
7007.746369361687
 20
1190.092172533625
 30
0.0
 11
7007.746369361687
 21
1870.092172533627
 31
0.0
  0
LINE
  5
24089
330
747D
100
AcDbEntity
  8
部品1
100
AcDbLine
 10
7525.246369361685
 20
1190.092172533625
 30
0.0
 11
7525.246369361686
 21
1870.092172533627
 31
0.0
  0
LINE
  5
2408A
330
747D
100
AcDbEntity
  8
細線
 48
50.0
100
AcDbLine
 10
6851.243699883029
 20
890.0921725336258
 30
0.0
 11
7525.246369361685
 21
1564.094842012283
 31
0.0
  0
LINE
  5
2408B
330
747D
100
AcDbEntity
  8
部品1
 48
50.0
100
AcDbLine
 10
6847.746369361686
 20
1190.092172533625
 30
0.0
 11
7007.746369361687
 21
1190.092172533625
 31
0.0
  0
LINE
  5
2408C
330
747D
100
AcDbEntity
  8
細線
 48
50.0
100
AcDbLine
 10
6847.746369361678
 20
1088.65060473634
 30
0.0
 11
6949.187937158973
 21
1190.092172533625
 31
0.0
  0
LINE
  5
2408D
330
747D
100
AcDbEntity
  8
細線
 48
50.0
100
AcDbLine
 10
6847.746369361678
 20
1122.326565190346
 30
0.0
 11
6915.511976704967
 21
1190.092172533625
 31
0.0
  0
LINE
  5
2408E
330
747D
100
AcDbEntity
  8
細線
 48
50.0
100
AcDbLine
 10
6808.394750179511
 20
730.0921725336247
 30
0.0
 11
6851.266620968488
 21
890.0921725336248
 31
0.0
  0
LINE
  5
2408F
330
747D
100
AcDbEntity
  8
部品1
 48
50.0
100
AcDbLine
 10
6747.746369361689
 20
730.0921725336256
 30
0.0
 11
6747.746369361689
 21
890.0921725336258
 31
0.0
  0
LINE
  5
24090
330
747D
100
AcDbEntity
  8
細線
 48
50.0
100
AcDbLine
 10
6816.433225952451
 20
760.0921725336256
 30
0.0
 11
6824.471701725385
 21
730.0921725336256
 31
0.0
  0
LINE
  5
24091
330
747D
100
AcDbEntity
  8
部品1
 48
50.0
100
AcDbLine
 10
6847.746369361686
 20
890.0921725336258
 30
0.0
 11
6847.746369361686
 21
1190.092172533625
 31
0.0
  0
LINE
  5
24092
330
747D
100
AcDbEntity
  8
細線
 48
50.0
100
AcDbLine
 10
6843.228145195563
 20
860.0921725336265
 30
0.0
 11
6835.189669422629
 21
890.0921725336258
 31
0.0
  0
LINE
  5
24093
330
747D
100
AcDbEntity
  8
細線
 48
50.0
100
AcDbLine
 10
6747.746369361687
 20
871.7670737408507
 30
0.0
 11
6752.65656478443
 21
890.0921725336258
 31
0.0
  0
LINE
  5
24094
330
747D
100
AcDbEntity
  8
細線
 48
50.0
100
AcDbLine
 10
6847.746369361678
 20
1156.002525644359
 30
0.0
 11
6881.836016250955
 21
1190.092172533625
 31
0.0
  0
LINE
  5
24095
330
747D
100
AcDbEntity
  8
細線
 48
50.0
100
AcDbLine
 10
7005.614862547638
 20
730.0921725336247
 30
0.0
 11
7048.486733336618
 21
890.0921725336248
 31
0.0
  0
LINE
  5
24096
330
747D
100
AcDbEntity
  8
細線
 48
50.0
100
AcDbLine
 10
6907.00480636358
 20
730.0921725336256
 30
0.0
 11
6949.876677152561
 21
890.0921725336258
 31
0.0
  0
LINE
  5
24097
330
747D
100
AcDbEntity
  8
細線
 48
50.0
100
AcDbLine
 10
7400.055087283876
 20
730.0921725336256
 30
0.0
 11
7442.926958072859
 21
890.0921725336248
 31
0.0
  0
LINE
  5
24098
330
747D
100
AcDbEntity
  8
細線
 48
50.0
100
AcDbLine
 10
7202.834974915764
 20
730.0921725336256
 30
0.0
 11
7245.706845704744
 21
890.0921725336248
 31
0.0
  0
LINE
  5
24099
330
747D
100
AcDbEntity
  8
細線
 48
50.0
100
AcDbLine
 10
7104.224918731707
 20
730.0921725336256
 30
0.0
 11
7147.096789520684
 21
890.0921725336258
 31
0.0
  0
LINE
  5
2409A
330
747D
100
AcDbEntity
  8
細線
 48
50.0
100
AcDbLine
 10
7301.445031099824
 20
730.0921725336247
 30
0.0
 11
7344.316901888804
 21
890.0921725336248
 31
0.0
  0
LINE
  5
2409B
330
747D
100
AcDbEntity
  8
細線
 48
50.0
100
AcDbLine
 10
7597.275199651999
 20
730.0921725336229
 30
0.0
 11
7640.147070440979
 21
890.092172533623
 31
0.0
  0
LINE
  5
2409C
330
747D
100
AcDbEntity
  8
細線
 48
50.0
100
AcDbLine
 10
7498.665143467938
 20
730.0921725336247
 30
0.0
 11
7541.537014256906
 21
890.0921725336258
 31
0.0
  0
LINE
  5
2409D
330
747D
100
AcDbEntity
  8
細線
 48
50.0
100
AcDbLine
 10
7013.65333832058
 20
760.0921725336256
 30
0.0
 11
7021.691814093516
 21
730.0921725336256
 31
0.0
  0
LINE
  5
2409E
330
747D
100
AcDbEntity
  8
細線
 48
50.0
100
AcDbLine
 10
6915.043282136514
 20
760.0921725336256
 30
0.0
 11
6923.081757909449
 21
730.0921725336256
 31
0.0
  0
LINE
  5
2409F
330
747D
100
AcDbEntity
  8
細線
 48
50.0
100
AcDbLine
 10
7210.873450688701
 20
760.0921725336256
 30
0.0
 11
7218.911926461635
 21
730.0921725336256
 31
0.0
  0
LINE
  5
240A0
330
747D
100
AcDbEntity
  8
細線
 48
50.0
100
AcDbLine
 10
7112.263394504646
 20
760.0921725336256
 30
0.0
 11
7120.301870277579
 21
730.0921725336256
 31
0.0
  0
LINE
  5
240A1
330
747D
100
AcDbEntity
  8
細線
 48
50.0
100
AcDbLine
 10
7408.093563056819
 20
760.0921725336256
 30
0.0
 11
7416.132038829752
 21
730.0921725336256
 31
0.0
  0
LINE
  5
240A2
330
747D
100
AcDbEntity
  8
細線
 48
50.0
100
AcDbLine
 10
7309.483506872759
 20
760.0921725336256
 30
0.0
 11
7317.521982645693
 21
730.0921725336256
 31
0.0
  0
LINE
  5
240A3
330
747D
100
AcDbEntity
  8
細線
 48
50.0
100
AcDbLine
 10
7605.313675424937
 20
760.0921725336247
 30
0.0
 11
7613.352151197871
 21
730.0921725336247
 31
0.0
  0
LINE
  5
240A4
330
747D
100
AcDbEntity
  8
細線
 48
50.0
100
AcDbLine
 10
7506.703619240877
 20
760.0921725336256
 30
0.0
 11
7514.742095013826
 21
730.0921725336256
 31
0.0
  0
LINE
  5
240A5
330
747D
100
AcDbEntity
  8
細線
 48
50.0
100
AcDbLine
 10
7188.003304423123
 20
890.0921725336258
 30
0.0
 11
7525.246369361686
 21
1227.335237472198
 31
0.0
  0
LINE
  5
240A6
330
747D
100
AcDbEntity
  8
細線
 48
50.0
100
AcDbLine
 10
7154.327343969113
 20
890.0921725336258
 30
0.0
 11
7525.246369361686
 21
1261.011197926192
 31
0.0
  0
LINE
  5
240A7
330
747D
100
AcDbEntity
  8
細線
 48
50.0
100
AcDbLine
 10
7120.651383515104
 20
890.0921725336258
 30
0.0
 11
7525.246369361685
 21
1294.687158380209
 31
0.0
  0
LINE
  5
240A8
330
747D
100
AcDbEntity
  8
細線
 48
50.0
100
AcDbLine
 10
7040.448257563692
 20
860.0921725336265
 30
0.0
 11
7032.409781790758
 21
890.0921725336258
 31
0.0
  0
LINE
  5
240A9
330
747D
100
AcDbEntity
  8
細線
 48
50.0
100
AcDbLine
 10
6941.838201379629
 20
860.0921725336265
 30
0.0
 11
6933.799725606694
 21
890.0921725336258
 31
0.0
  0
LINE
  5
240AA
330
747D
100
AcDbEntity
  8
細線
 48
50.0
100
AcDbLine
 10
7237.668369931815
 20
860.0921725336265
 30
0.0
 11
7229.629894158882
 21
890.0921725336258
 31
0.0
  0
LINE
  5
240AB
330
747D
100
AcDbEntity
  8
細線
 48
50.0
100
AcDbLine
 10
7139.058313747757
 20
860.0921725336265
 30
0.0
 11
7131.019837974825
 21
890.0921725336258
 31
0.0
  0
LINE
  5
240AC
330
747D
100
AcDbEntity
  8
部品1
 48
50.0
100
AcDbLine
 10
7685.246369361687
 20
1190.092172533625
 30
0.0
 11
7685.246369361687
 21
890.0921725336258
 31
0.0
  0
LINE
  5
240AD
330
747D
100
AcDbEntity
  8
細線
 48
50.0
100
AcDbLine
 10
7457.410988055197
 20
890.0921725336258
 30
0.0
 11
7685.246369361687
 21
1117.927553840121
 31
0.0
  0
LINE
  5
240AE
330
747D
100
AcDbEntity
  8
細線
 48
50.0
100
AcDbLine
 10
7423.735027601191
 20
890.0921725336258
 30
0.0
 11
7685.246369361687
 21
1151.603514294119
 31
0.0
  0
LINE
  5
240AF
330
747D
100
AcDbEntity
  8
細線
 48
50.0
100
AcDbLine
 10
7390.059067147179
 20
890.0921725336258
 30
0.0
 11
7685.246369361687
 21
1185.279474748136
 31
0.0
  0
LINE
  5
240B0
330
747D
100
AcDbEntity
  8
細線
 48
50.0
100
AcDbLine
 10
7434.888482299929
 20
860.0921725336265
 30
0.0
 11
7426.850006526996
 21
890.0921725336258
 31
0.0
  0
LINE
  5
240B1
330
747D
100
AcDbEntity
  8
細線
 48
50.0
100
AcDbLine
 10
7336.278426115871
 20
860.0921725336265
 30
0.0
 11
7328.23995034294
 21
890.0921725336258
 31
0.0
  0
LINE
  5
240B2
330
747D
100
AcDbEntity
  8
細線
 48
50.0
100
AcDbLine
 10
7632.108594668046
 20
860.0921725336247
 30
0.0
 11
7624.070118895115
 21
890.0921725336248
 31
0.0
  0
LINE
  5
240B3
330
747D
100
AcDbEntity
  8
細線
 48
50.0
100
AcDbLine
 10
7533.498538483975
 20
860.0921725336265
 30
0.0
 11
7525.460062711044
 21
890.0921725336258
 31
0.0
  0
LINE
  5
240B4
330
747D
100
AcDbEntity
  8
部品1
 48
50.0
100
AcDbLine
 10
7525.246369361686
 20
1190.092172533625
 30
0.0
 11
7685.246369361687
 21
1190.092172533625
 31
0.0
  0
LWPOLYLINE
  5
240B5
330
747D
100
AcDbEntity
  8
部品1
 48
50.0
100
AcDbPolyline
 90
        2
 70
     0
 43
10.0
 10
6490.07149207049
 20
1570.092172533628
 10
7007.746369361687
 20
1570.092172533628
  0
TEXT
  5
240B6
330
747D
100
AcDbEntity
  8
部品1
 48
50.0
100
AcDbText
 10
6490.07149207049
 20
1584.140912887695
 30
0.0
 40
100.0
  1
▽G.L
  7
STYLE2
100
AcDbText
  0
LINE
  5
240B7
330
747D
100
AcDbEntity
  8
部品1
100
AcDbLine
 10
7273.246369361685
 20
1588.842172533627
 30
0.0
 11
7273.246369361683
 21
1931.542172533626
 31
0.0
  0
LINE
  5
240B8
330
747D
100
AcDbEntity
  8
部品1
100
AcDbLine
 10
7295.746369361687
 20
1588.842172533627
 30
0.0
 11
7295.746369361684
 21
1931.542172533626
 31
0.0
  0
LINE
  5
240B9
330
747D
100
AcDbEntity
  8
部品1
100
AcDbLine
 10
7210.571369361691
 20
1953.667172533628
 30
0.0
 11
7210.571369361682
 21
1885.417172533627
 31
0.0
  0
LINE
  5
240BA
330
747D
100
AcDbEntity
  8
部品1
100
AcDbLine
 10
7195.621369361686
 20
1938.717172533627
 30
0.0
 11
7195.621369361686
 21
1885.417172533627
 31
0.0
  0
LINE
  5
240BB
330
747D
100
AcDbEntity
  8
細線
100
AcDbLine
 10
7277.746369361691
 20
1882.042172533627
 30
0.0
 11
7277.746369361685
 21
1936.042172533627
 31
0.0
  0
LINE
  5
240BC
330
747D
100
AcDbEntity
  8
細線
100
AcDbLine
 10
7291.246369361687
 20
1882.042172533627
 30
0.0
 11
7291.246369361687
 21
1936.042172533627
 31
0.0
  0
LINE
  5
240BD
330
747D
100
AcDbEntity
  8
部品1
100
AcDbLine
 10
7015.621369361686
 20
1885.417172533627
 30
0.0
 11
7015.621369361686
 21
1963.082052162011
 31
0.0
  0
LINE
  5
240BE
330
747D
100
AcDbEntity
  8
部品1
100
AcDbLine
 10
7295.746369361687
 20
1588.842172533627
 30
0.0
 11
7340.746369361686
 21
1588.842172533627
 31
0.0
  0
LINE
  5
240BF
330
747D
100
AcDbEntity
  8
部品1
100
AcDbLine
 10
7295.746369361687
 20
1566.342172533625
 30
0.0
 11
7340.746369361686
 21
1566.342172533625
 31
0.0
  0
LINE
  5
240C0
330
747D
100
AcDbEntity
  8
部品1
100
AcDbLine
 10
7213.94636936168
 20
1882.042172533627
 30
0.0
 11
7465.621369361677
 21
1882.042172533627
 31
0.0
  0
LINE
  5
240C1
330
747D
100
AcDbEntity
  8
部品1
 48
50.0
100
AcDbLine
 10
7007.746369361687
 20
1870.092172533627
 30
0.0
 11
7525.246369361692
 21
1870.092172533627
 31
0.0
  0
LINE
  5
240C2
330
747D
100
AcDbEntity
  8
部品1
100
AcDbLine
 10
7363.246369361687
 20
1465.092172533625
 30
0.0
 11
7205.74636936168
 21
1465.092172533625
 31
0.0
  0
LINE
  5
240C3
330
747D
100
AcDbEntity
  8
細線
 48
50.0
100
AcDbLine
 10
7007.746369361687
 20
1551.734248822424
 30
0.0
 11
7205.746369361685
 21
1749.734248822421
 31
0.0
  0
LINE
  5
240C4
330
747D
100
AcDbEntity
  8
細線
 48
50.0
100
AcDbLine
 10
7007.746369361687
 20
1585.410209276433
 30
0.0
 11
7205.746369361685
 21
1783.41020927643
 31
0.0
  0
LINE
  5
240C5
330
747D
100
AcDbEntity
  8
部品1
100
AcDbLine
 10
7205.74636936168
 20
1465.092172533626
 30
0.0
 11
7205.746369361688
 21
1870.092172533627
 31
0.0
  0
LINE
  5
240C6
330
747D
100
AcDbEntity
  8
細線
 48
50.0
100
AcDbLine
 10
7007.746369361687
 20
1518.058288368415
 30
0.0
 11
7205.746369361683
 21
1716.058288368405
 31
0.0
  0
ARC
  5
240C7
330
747D
100
AcDbEntity
  8
部品1
100
AcDbCircle
 10
7295.746369361687
 20
1588.842172533627
 30
0.0
 40
22.5
100
AcDbArc
 50
180.0
 51
270.0
  0
LINE
  5
240C8
330
747D
100
AcDbEntity
  8
細線
 48
50.0
100
AcDbLine
 10
7007.746369361687
 20
1787.465972000489
 30
0.0
 11
7090.372569894825
 21
1870.092172533627
 31
0.0
  0
LINE
  5
240C9
330
747D
100
AcDbEntity
  8
細線
 48
50.0
100
AcDbLine
 10
7007.746369361687
 20
1821.141932454499
 30
0.0
 11
7056.696609440819
 21
1870.092172533627
 31
0.0
  0
LINE
  5
240CA
330
747D
100
AcDbEntity
  8
部品1
100
AcDbLine
 10
7018.996369361686
 20
1882.042172533627
 30
0.0
 11
7033.62136936168
 21
1882.042172533627
 31
0.0
  0
LINE
  5
240CB
330
747D
100
AcDbEntity
  8
細線
 48
50.0
100
AcDbLine
 10
7007.746369361687
 20
1854.817892908508
 30
0.0
 11
7023.020648986805
 21
1870.092172533627
 31
0.0
  0
ARC
  5
240CC
330
747D
100
AcDbEntity
  8
部品1
100
AcDbCircle
 10
7018.996369361686
 20
1885.417172533627
 30
0.0
 40
3.375
100
AcDbArc
 50
180.0
 51
270.0
  0
ARC
  5
240CD
330
747D
100
AcDbEntity
  8
部品1
100
AcDbCircle
 10
7192.246369361686
 20
1885.417172533627
 30
0.0
 40
3.375
100
AcDbArc
 50
270.0
 51
0.0
  0
ARC
  5
240CE
330
747D
100
AcDbEntity
  8
部品1
100
AcDbCircle
 10
7213.94636936168
 20
1885.417172533627
 30
0.0
 40
3.375
100
AcDbArc
 50
180.0
 51
270.0
  0
LINE
  5
240CF
330
747D
100
AcDbEntity
  8
部品1
100
AcDbLine
 10
7177.621369361688
 20
1882.042172533627
 30
0.0
 11
7192.246369361686
 21
1882.042172533627
 31
0.0
  0
LINE
  5
240D0
330
747D
100
AcDbEntity
  8
細線
 48
50.0
100
AcDbLine
 10
7363.246369361688
 20
1604.150604736324
 30
0.0
 11
7525.246369361686
 21
1766.150604736314
 31
0.0
  0
LINE
  5
240D1
330
747D
100
AcDbEntity
  8
部品1
100
AcDbLine
 10
7363.246369361687
 20
1465.092172533626
 30
0.0
 11
7363.246369361687
 21
1870.092172533627
 31
0.0
  0
LINE
  5
240D2
330
747D
100
AcDbEntity
  8
部品1
100
AcDbLine
 10
7340.746369361686
 20
1566.342172533625
 30
0.0
 11
7340.746369361686
 21
1588.842172533627
 31
0.0
  0
LINE
  5
240D3
330
747D
100
AcDbEntity
  8
細線
 48
50.0
100
AcDbLine
 10
7363.246369361688
 20
1637.826565190341
 30
0.0
 11
7525.246369361686
 21
1799.826565190337
 31
0.0
  0
LINE
  5
240D4
330
747D
100
AcDbEntity
  8
細線
 48
50.0
100
AcDbLine
 10
7363.246369361688
 20
1671.502525644362
 30
0.0
 11
7525.246369361686
 21
1833.502525644361
 31
0.0
  0
LINE
  5
240D5
330
747D
100
AcDbEntity
  8
部品1
 48
50.0
100
AcDbLine
 10
7264.496369361687
 20
2348.686273920055
 30
0.0
 11
7304.496369361685
 21
2348.686273920055
 31
0.0
  0
LINE
  5
240D6
330
747D
100
AcDbEntity
  8
部品1
 48
50.0
100
AcDbLine
 10
7264.496369361687
 20
2308.686273920055
 30
0.0
 11
7304.496369361685
 21
2308.686273920055
 31
0.0
  0
ELLIPSE
  5
240D7
330
747D
100
AcDbEntity
  8
細線
 48
50.0
100
AcDbEllipse
 10
7284.496369361686
 20
2358.686273920056
 30
0.0
 11
18.45838483258558
 21
0.0
 31
0.0
210
0.0
220
0.0
230
1.0
 40
0.2071254069489396
 41
0.0
 42
6.283185307179584
  0
LINE
  5
240D8
330
747D
100
AcDbEntity
  8
部品1
 48
50.0
100
AcDbLine
 10
7264.496369361687
 20
2368.686273920054
 30
0.0
 11
7304.496369361685
 21
2368.686273920054
 31
0.0
  0
ELLIPSE
  5
240D9
330
747D
100
AcDbEntity
  8
部品1
 48
50.0
100
AcDbEllipse
 10
7284.496369361686
 20
2194.496283088967
 30
0.0
 11
50.0
 21
0.0
 31
0.0
210
0.0
220
0.0
230
1.0
 40
0.4
 41
3.141592653589792
 42
6.283185307179584
  0
ELLIPSE
  5
240DA
330
747D
100
AcDbEntity
  8
部品1
 48
50.0
100
AcDbEllipse
 10
7284.496369361686
 20
2206.496283088966
 30
0.0
 11
50.0
 21
0.0
 31
0.0
210
0.0
220
0.0
230
1.0
 40
0.4
 41
0.0
 42
6.283185307179584
  0
ELLIPSE
  5
240DB
330
747D
100
AcDbEntity
  8
部品1
 48
50.0
100
AcDbEllipse
 10
7284.496369361686
 20
2206.496283088966
 30
0.0
 11
23.0
 21
0.0
 31
0.0
210
0.0
220
0.0
230
1.0
 40
0.3478260869565217
 41
0.0
 42
6.283185307179584
  0
LINE
  5
240DC
330
747D
100
AcDbEntity
  8
部品1
100
AcDbLine
 10
7086.496369361687
 20
2009.592172533626
 30
0.0
 11
7139.371369361686
 21
2009.592172533623
 31
0.0
  0
LINE
  5
240DD
330
747D
100
AcDbEntity
  8
部品1
100
AcDbLine
 10
7032.496369361687
 20
1982.592172533627
 30
0.0
 11
7079.746369361686
 21
1982.592172533627
 31
0.0
  0
LINE
  5
240DE
330
747D
100
AcDbEntity
  8
部品1
100
AcDbLine
 10
7018.177811627187
 20
1966.356283100002
 30
0.0
 11
7029.121369361686
 21
1969.092172533627
 31
0.0
  0
ARC
  5
240DF
330
747D
100
AcDbEntity
  8
部品1
100
AcDbCircle
 10
7018.996369361686
 20
1963.082052162011
 30
0.0
 40
3.375
100
AcDbArc
 50
104.0362434679012
 51
180.0
  0
ARC
  5
240E0
330
747D
100
AcDbEntity
  8
部品1
100
AcDbCircle
 10
7032.496369361687
 20
1979.217172533627
 30
0.0
 40
3.375
100
AcDbArc
 50
90.0
 51
180.0
  0
LINE
  5
240E1
330
747D
100
AcDbEntity
  8
部品1
100
AcDbLine
 10
7029.121369361686
 20
1969.092172533627
 30
0.0
 11
7029.121369361686
 21
1979.217172533627
 31
0.0
  0
ARC
  5
240E2
330
747D
100
AcDbEntity
  8
部品1
100
AcDbCircle
 10
7083.121369361686
 20
1992.717172533627
 30
0.0
 40
3.375
100
AcDbArc
 50
90.0
 51
180.0
  0
LINE
  5
240E3
330
747D
100
AcDbEntity
  8
部品1
100
AcDbLine
 10
7079.746369361686
 20
1982.592172533627
 30
0.0
 11
7079.746369361686
 21
1992.717172533627
 31
0.0
  0
LINE
  5
240E4
330
747D
100
AcDbEntity
  8
部品1
100
AcDbLine
 10
7083.121369361686
 20
1996.092172533627
 30
0.0
 11
7083.121369361686
 21
2006.217172533627
 31
0.0
  0
LINE
  5
240E5
330
747D
100
AcDbEntity
  8
部品1
100
AcDbLine
 10
7083.121369361686
 20
1996.092172533627
 30
0.0
 11
7083.121369361686
 21
1996.092172533627
 31
0.0
  0
ARC
  5
240E6
330
747D
100
AcDbEntity
  8
部品1
100
AcDbCircle
 10
7086.496369361687
 20
2006.217172533627
 30
0.0
 40
3.375
100
AcDbArc
 50
90.0
 51
180.0
  0
LINE
  5
240E7
330
747D
100
AcDbEntity
  8
部品1
100
AcDbLine
 10
7168.621369361686
 20
1953.667172533628
 30
0.0
 11
7168.621369361686
 21
1932.292172533627
 31
0.0
  0
ARC
  5
240E8
330
747D
100
AcDbEntity
  8
部品1
100
AcDbCircle
 10
7192.246369361686
 20
1938.717172533627
 30
0.0
 40
3.375
100
AcDbArc
 50
0.0
 51
90.0
  0
LINE
  5
240E9
330
747D
100
AcDbEntity
  8
部品1
100
AcDbLine
 10
7277.746369361685
 20
1936.042172533627
 30
0.0
 11
7291.246369361687
 21
1936.042172533627
 31
0.0
  0
LINE
  5
240EA
330
747D
100
AcDbEntity
  8
部品1
100
AcDbLine
 10
7273.246369361685
 20
1931.542172533626
 30
0.0
 11
7295.746369361687
 21
1931.542172533626
 31
0.0
  0
ARC
  5
240EB
330
747D
100
AcDbEntity
  8
部品1
100
AcDbCircle
 10
7207.196369361689
 20
1953.667172533628
 30
0.0
 40
3.375
100
AcDbArc
 50
0.0
 51
90.0
  0
ARC
  5
240EC
330
747D
100
AcDbEntity
  8
部品1
100
AcDbCircle
 10
7171.996369361686
 20
1953.667172533628
 30
0.0
 40
3.375
100
AcDbArc
 50
90.0
 51
180.0
  0
LINE
  5
240ED
330
747D
100
AcDbEntity
  8
部品1
100
AcDbLine
 10
7171.996369361686
 20
1957.042172533627
 30
0.0
 11
7207.196369361689
 21
1957.042172533627
 31
0.0
  0
LINE
  5
240EE
330
747D
100
AcDbEntity
  8
部品1
 48
50.0
100
AcDbLine
 10
7234.496369361686
 20
2206.496283088966
 30
0.0
 11
7234.496369361686
 21
2194.496283088967
 31
0.0
  0
LINE
  5
240EF
330
747D
100
AcDbEntity
  8
部品1
100
AcDbLine
 10
7142.746369361687
 20
2006.217172533623
 30
0.0
 11
7142.746369361687
 21
1942.092172533627
 31
0.0
  0
ARC
  5
240F0
330
747D
100
AcDbEntity
  8
部品1
100
AcDbCircle
 10
7139.371369361686
 20
2006.217172533623
 30
0.0
 40
3.375
100
AcDbArc
 50
0.0
 51
90.0
  0
LINE
  5
240F1
330
747D
100
AcDbEntity
  8
部品1
100
AcDbLine
 10
7142.746369361687
 20
1942.092172533627
 30
0.0
 11
7192.246369361686
 21
1942.092172533627
 31
0.0
  0
LINE
  5
240F2
330
747D
100
AcDbEntity
  8
部品1
 48
50.0
100
AcDbLine
 10
7244.496369361687
 20
2358.686273920056
 30
0.0
 11
7264.496369361687
 21
2368.686273920054
 31
0.0
  0
LINE
  5
240F3
330
747D
100
AcDbEntity
  8
部品1
 48
50.0
100
AcDbLine
 10
7244.496369361687
 20
2318.686273920055
 30
0.0
 11
7264.496369361687
 21
2308.686273920055
 31
0.0
  0
LINE
  5
240F4
330
747D
100
AcDbEntity
  8
部品1
 48
50.0
100
AcDbLine
 10
7244.496369361687
 20
2358.686273920056
 30
0.0
 11
7264.496369361687
 21
2348.686273920055
 31
0.0
  0
LINE
  5
240F5
330
747D
100
AcDbEntity
  8
部品1
 48
50.0
100
AcDbLine
 10
7244.496369361687
 20
2318.686273920055
 30
0.0
 11
7244.496369361687
 21
2358.686273920056
 31
0.0
  0
LINE
  5
240F6
330
747D
100
AcDbEntity
  8
細線
 48
50.0
100
AcDbLine
 10
7264.496369361687
 20
2308.686273920055
 30
0.0
 11
7264.496369361687
 21
2348.686273920055
 31
0.0
  0
LINE
  5
240F7
330
747D
100
AcDbEntity
  8
部品1
 48
50.0
100
AcDbLine
 10
7334.496369361686
 20
2194.496283088967
 30
0.0
 11
7334.496369361686
 21
2206.496283088966
 31
0.0
  0
LINE
  5
240F8
330
747D
100
AcDbEntity
  8
部品1
 48
50.0
100
AcDbLine
 10
7304.496369361685
 20
2368.686273920054
 30
0.0
 11
7324.496369361686
 21
2358.686273920056
 31
0.0
  0
LINE
  5
240F9
330
747D
100
AcDbEntity
  8
部品1
 48
50.0
100
AcDbLine
 10
7324.496369361686
 20
2318.686273920055
 30
0.0
 11
7324.496369361686
 21
2358.686273920056
 31
0.0
  0
LINE
  5
240FA
330
747D
100
AcDbEntity
  8
細線
 48
50.0
100
AcDbLine
 10
7304.496369361685
 20
2308.686273920055
 30
0.0
 11
7304.496369361685
 21
2348.686273920055
 31
0.0
  0
LINE
  5
240FB
330
747D
100
AcDbEntity
  8
部品1
 48
50.0
100
AcDbLine
 10
7304.496369361685
 20
2348.686273920055
 30
0.0
 11
7324.496369361686
 21
2358.686273920056
 31
0.0
  0
LINE
  5
240FC
330
747D
100
AcDbEntity
  8
部品1
 48
50.0
100
AcDbLine
 10
7304.496369361685
 20
2308.686273920055
 30
0.0
 11
7324.496369361686
 21
2318.686273920055
 31
0.0
  0
LINE
  5
240FD
330
747D
100
AcDbEntity
  8
細線
 48
50.0
100
AcDbLine
 10
9290.228797803253
 20
1295.468527966936
 30
0.0
 11
9333.100668592232
 21
1455.468527966936
 31
0.0
  0
TEXT
  5
240FE
330
747D
100
AcDbEntity
  8
部品1
 48
50.0
100
AcDbText
 10
8694.518676292004
 20
1236.59249673699
 30
0.0
 40
100.0
  1
ボルトの出
 50
90.0
  7
STYLE2
100
AcDbText
  0
LINE
  5
240FF
330
747D
100
AcDbEntity
  8
部品1
100
AcDbLine
 10
9169.860304617303
 20
1295.468527966935
 30
0.0
 11
9169.860304617303
 21
1570.092172533627
 31
0.0
  0
LINE
  5
24100
330
747D
100
AcDbEntity
  8
細線
 48
50.0
100
AcDbLine
 10
9191.618741619192
 20
1295.468527966939
 30
0.0
 11
9234.490612408171
 21
1455.468527966939
 31
0.0
  0
LINE
  5
24101
330
747D
100
AcDbEntity
  8
部品1
 48
50.0
100
AcDbLine
 10
7785.246369361691
 20
890.0921725336258
 30
0.0
 11
7785.246369361691
 21
730.0921725336256
 31
0.0
  0
LINE
  5
24102
330
747D
100
AcDbEntity
  8
細線
 48
50.0
100
AcDbLine
 10
7730.718650852107
 20
860.0921725336247
 30
0.0
 11
7722.680175079175
 21
890.0921725336248
 31
0.0
  0
LINE
  5
24103
330
747D
100
AcDbEntity
  8
細線
 48
50.0
100
AcDbLine
 10
9298.267273576191
 20
1325.468527966939
 30
0.0
 11
9306.305749349119
 21
1295.468527966939
 31
0.0
  0
LINE
  5
24104
330
747D
100
AcDbEntity
  8
細線
 48
50.0
100
AcDbLine
 10
9199.657217392132
 20
1325.468527966939
 30
0.0
 11
9207.695693165062
 21
1295.468527966939
 31
0.0
  0
LINE
  5
24105
330
747D
100
AcDbEntity
  8
部品1
100
AcDbLine
 10
9319.860304617304
 20
1570.092172533627
 30
0.0
 11
9319.860304617304
 21
1870.092172533627
 31
0.0
  0
LINE
  5
24106
330
747D
100
AcDbEntity
  8
細線
 48
50.0
100
AcDbLine
 10
9226.452136635243
 20
1425.468527966939
 30
0.0
 11
9218.413660862303
 21
1455.468527966939
 31
0.0
  0
LINE
  5
24107
330
747D
100
AcDbEntity
  8
細線
 48
50.0
100
AcDbLine
 10
9325.0621928193
 20
1425.468527966939
 30
0.0
 11
9317.023717046373
 21
1455.468527966939
 31
0.0
  0
TEXT
  5
24108
330
747D
100
AcDbEntity
  8
部品1
100
AcDbText
 10
6769.825644855058
 20
3296.866782315397
 30
0.0
 40
150.0
  1
基礎詳細
  7
STYLE2
100
AcDbText
  0
LINE
  5
24109
330
747D
100
AcDbEntity
  8
部品1
100
AcDbLine
 10
10660.37123243644
 20
262.2371945065934
 30
0.0
 11
10660.37123243644
 21
3521.306697254683
 31
0.0
  0
LINE
  5
2410A
330
747D
100
AcDbEntity
  8
部品1
100
AcDbLine
 10
10069.8603046173
 20
1570.092172533627
 30
0.0
 11
10069.8603046173
 21
1295.468527966939
 31
0.0
  0
LINE
  5
2410B
330
747D
100
AcDbEntity
  8
細線
 48
50.0
100
AcDbLine
 10
9881.889134907613
 20
1295.468527966935
 30
0.0
 11
9924.761005696591
 21
1455.468527966934
 31
0.0
  0
LINE
  5
2410C
330
747D
100
AcDbEntity
  8
細線
 48
50.0
100
AcDbLine
 10
9980.499191091665
 20
1295.468527966936
 30
0.0
 11
10023.37106188065
 21
1455.468527966934
 31
0.0
  0
LINE
  5
2410D
330
747D
100
AcDbEntity
  8
細線
 48
50.0
100
AcDbLine
 10
9684.669022539493
 20
1295.468527966939
 30
0.0
 11
9727.540893328473
 21
1455.468527966936
 31
0.0
  0
LINE
  5
2410E
330
747D
100
AcDbEntity
  8
細線
 48
50.0
100
AcDbLine
 10
9783.279078723552
 20
1295.468527966936
 30
0.0
 11
9826.150949512525
 21
1455.468527966939
 31
0.0
  0
LINE
  5
2410F
330
747D
100
AcDbEntity
  8
細線
 48
50.0
100
AcDbLine
 10
9487.448910171371
 20
1295.468527966939
 30
0.0
 11
9530.320780960352
 21
1455.468527966936
 31
0.0
  0
LINE
  5
24110
330
747D
100
AcDbEntity
  8
細線
 48
50.0
100
AcDbLine
 10
9388.838853987321
 20
1295.468527966939
 30
0.0
 11
9431.710724776293
 21
1455.468527966939
 31
0.0
  0
LINE
  5
24111
330
747D
100
AcDbEntity
  8
細線
 48
50.0
100
AcDbLine
 10
9586.058966355436
 20
1295.468527966936
 30
0.0
 11
9628.930837144412
 21
1455.468527966936
 31
0.0
  0
LINE
  5
24112
330
747D
100
AcDbEntity
  8
細線
 48
50.0
100
AcDbLine
 10
9495.487385944313
 20
1325.468527966939
 30
0.0
 11
9503.525861717253
 21
1295.468527966939
 31
0.0
  0
LINE
  5
24113
330
747D
100
AcDbEntity
  8
細線
 48
50.0
100
AcDbLine
 10
9396.877329760263
 20
1325.468527966939
 30
0.0
 11
9404.915805533191
 21
1295.468527966939
 31
0.0
  0
LINE
  5
24114
330
747D
100
AcDbEntity
  8
細線
 48
50.0
100
AcDbLine
 10
9692.707498312431
 20
1325.468527966939
 30
0.0
 11
9700.745974085364
 21
1295.468527966939
 31
0.0
  0
LINE
  5
24115
330
747D
100
AcDbEntity
  8
細線
 48
50.0
100
AcDbLine
 10
9594.097442128372
 20
1325.468527966939
 30
0.0
 11
9602.135917901303
 21
1295.468527966939
 31
0.0
  0
LINE
  5
24116
330
747D
100
AcDbEntity
  8
細線
 48
50.0
100
AcDbLine
 10
9889.927610680551
 20
1325.468527966936
 30
0.0
 11
9897.966086453482
 21
1295.468527966936
 31
0.0
  0
LINE
  5
24117
330
747D
100
AcDbEntity
  8
細線
 48
50.0
100
AcDbLine
 10
9791.317554496494
 20
1325.468527966939
 30
0.0
 11
9799.356030269434
 21
1295.468527966939
 31
0.0
  0
LINE
  5
24118
330
747D
100
AcDbEntity
  8
細線
 48
50.0
100
AcDbLine
 10
9988.537666864612
 20
1325.468527966936
 30
0.0
 11
9996.576142637541
 21
1295.468527966936
 31
0.0
  0
MTEXT
  5
24119
102
{ACAD_REACTORS
330
2411A
102
}
330
747D
100
AcDbEntity
  8
寸法
 62
     7
 48
50.0
100
AcDbMText
 10
10062.18857742926
 20
2191.525073385049
 30
0.0
 40
150.0
 41
1.0
 71
     4
 72
     1
  1
\A1;C.B
  7
STYLE1
 73
     1
 44
1.0
1001
ACAD
1000
MTEXTBEGIN
1070
    73
1070
     1
1070
    44
1040
1.0
1070
    74
1070
     0
1000
MTEXTEND
  0
LEADER
  5
2411A
330
747D
100
AcDbEntity
  8
寸法
 48
50.0
100
AcDbLeader
  3
INABA_S40G
 73
     0
 74
     0
 75
     1
 40
150.0
 41
231.9898538650463
 76
     3
 10
9833.265819137205
 20
1870.092172533627
 30
0.0
 10
9922.18857742926
 20
2076.525073385049
 30
0.0
 10
10022.18857742926
 20
2076.525073385049
 30
0.0
340
24119
1001
ACAD
1000
DSTYLE
1002
{
1070
   341
1005
0
1002
}
  0
LINE
  5
2411B
330
747D
100
AcDbEntity
  8
細線
100
AcDbLine
 10
9902.563226682824
 20
1570.092172533628
 30
0.0
 11
9602.563226682832
 21
1870.092172533627
 31
0.0
  0
LINE
  5
2411C
330
747D
100
AcDbEntity
  8
細線
100
AcDbLine
 10
9838.923616376042
 20
1570.092172533627
 30
0.0
 11
9538.923616376044
 21
1870.092172533627
 31
0.0
  0
LINE
  5
2411D
330
747D
100
AcDbEntity
  8
細線
 48
50.0
100
AcDbLine
 10
9423.672249003372
 20
1425.468527966939
 30
0.0
 11
9415.633773230432
 21
1455.468527966939
 31
0.0
  0
LINE
  5
2411E
330
747D
100
AcDbEntity
  8
細線
 48
50.0
100
AcDbLine
 10
9522.282305187422
 20
1425.468527966939
 30
0.0
 11
9514.243829414493
 21
1455.468527966939
 31
0.0
  0
LINE
  5
2411F
330
747D
100
AcDbEntity
  8
細線
100
AcDbLine
 10
9396.008611483852
 20
1455.46852796694
 30
0.0
 11
9510.632256050532
 21
1570.092172533627
 31
0.0
  0
LINE
  5
24120
330
747D
100
AcDbEntity
  8
細線
100
AcDbLine
 10
9353.582204612663
 20
1455.46852796694
 30
0.0
 11
9468.205849179339
 21
1570.092172533627
 31
0.0
  0
LINE
  5
24121
330
747D
100
AcDbEntity
  8
細線
 48
50.0
100
AcDbLine
 10
9719.502417555546
 20
1425.468527966939
 30
0.0
 11
9711.463941782612
 21
1455.468527966939
 31
0.0
  0
LINE
  5
24122
330
747D
100
AcDbEntity
  8
細線
 48
50.0
100
AcDbLine
 10
9620.892361371481
 20
1425.468527966939
 30
0.0
 11
9612.853885598553
 21
1455.468527966939
 31
0.0
  0
LINE
  5
24123
330
747D
100
AcDbEntity
  8
部品1
100
AcDbLine
 10
9919.860304617303
 20
1870.092172533627
 30
0.0
 11
9919.860304617303
 21
1570.092172533627
 31
0.0
  0
LINE
  5
24124
330
747D
100
AcDbEntity
  8
細線
 48
50.0
100
AcDbLine
 10
9916.722529923662
 20
1425.468527966936
 30
0.0
 11
9908.684054150725
 21
1455.468527966936
 31
0.0
  0
LINE
  5
24125
330
747D
100
AcDbEntity
  8
細線
 48
50.0
100
AcDbLine
 10
9818.112473739594
 20
1425.468527966939
 30
0.0
 11
9810.073997966654
 21
1455.468527966939
 31
0.0
  0
LINE
  5
24126
330
747D
100
AcDbEntity
  8
細線
100
AcDbLine
 10
9846.008611483853
 20
1455.468527966941
 30
0.0
 11
9960.632256050532
 21
1570.092172533627
 31
0.0
  0
LINE
  5
24127
330
747D
100
AcDbEntity
  8
細線
100
AcDbLine
 10
9761.155797741473
 20
1455.468527966941
 30
0.0
 11
9875.779442308152
 21
1570.092172533627
 31
0.0
  0
LINE
  5
24128
330
747D
100
AcDbEntity
  8
細線
100
AcDbLine
 10
9803.582204612665
 20
1455.468527966941
 30
0.0
 11
9918.205849179342
 21
1570.092172533627
 31
0.0
  0
LINE
  5
24129
330
747D
100
AcDbEntity
  8
細線
 48
50.0
100
AcDbLine
 10
10015.33258610772
 20
1425.468527966936
 30
0.0
 11
10007.29411033478
 21
1455.468527966936
 31
0.0
  0
LINE
  5
24235
330
747D
100
AcDbEntity
  8
細線
 48
50.0
100
AcDbLine
 10
10318.6
 20
7013.123756264718
 30
0.0
 11
10344.55892081131
 21
7039.082677076042
 31
0.0
  0
LINE
  5
24236
330
747D
100
AcDbEntity
  8
細線
 48
50.0
100
AcDbLine
 10
10318.59999999999
 20
6968.222475659381
 30
0.0
 11
10389.46020141666
 21
7039.082677076041
 31
0.0
  0
LINE
  5
24237
330
747D
100
AcDbEntity
  8
細線
 48
50.0
100
AcDbLine
 10
10318.6
 20
6923.321195054032
 30
0.0
 11
10434.36148202201
 21
7039.082677076042
 31
0.0
  0
LINE
  5
24238
330
747D
100
AcDbEntity
  8
細線
 48
50.0
100
AcDbLine
 10
10318.6
 20
6878.419914448689
 30
0.0
 11
10438.6
 21
6998.419914448688
 31
0.0
  0
LINE
  5
24239
330
747D
100
AcDbEntity
  8
細線
 48
50.0
100
AcDbLine
 10
10324.1640432327
 20
6839.082677076044
 30
0.0
 11
10438.6
 21
6953.518633843343
 31
0.0
  0
LINE
  5
2423A
330
747D
100
AcDbEntity
  8
細線
 48
50.0
100
AcDbLine
 10
10369.06532383804
 20
6839.082677076042
 30
0.0
 11
10438.6
 21
6908.617353237997
 31
0.0
  0
LINE
  5
2423B
330
747D
100
AcDbEntity
  8
細線
 48
50.0
100
AcDbLine
 10
10413.96660444339
 20
6839.082677076041
 30
0.0
 11
10438.6
 21
6863.716072632652
 31
0.0
  0
LINE
  5
2423C
330
747D
100
AcDbEntity
  8
細線
 48
50.0
100
AcDbLine
 10
9228.600000000012
 20
5894.110950211278
 30
0.0
 11
9283.57172686479
 21
5949.082677076057
 31
0.0
  0
LINE
  5
2423D
330
747D
100
AcDbEntity
  8
細線
 48
50.0
100
AcDbLine
 10
9228.600000000012
 20
5849.209669605933
 30
0.0
 11
9328.473007470135
 21
5949.082677076056
 31
0.0
  0
LINE
  5
2423E
330
747D
100
AcDbEntity
  8
細線
 48
50.0
100
AcDbLine
 10
9253.37428807548
 20
5829.082677076056
 30
0.0
 11
9373.37428807548
 21
5949.082677076056
 31
0.0
  0
LINE
  5
2423F
330
747D
100
AcDbEntity
  8
細線
 48
50.0
100
AcDbLine
 10
9298.275568680827
 20
5829.082677076056
 30
0.0
 11
9418.275568680824
 21
5949.082677076055
 31
0.0
  0
LINE
  5
24240
330
747D
100
AcDbEntity
  8
細線
 48
50.0
100
AcDbLine
 10
9343.176849286171
 20
5829.082677076056
 30
0.0
 11
9428.600000000013
 21
5914.505827789896
 31
0.0
  0
LINE
  5
24241
330
747D
100
AcDbEntity
  8
細線
 48
50.0
100
AcDbLine
 10
9388.078129891516
 20
5829.082677076056
 30
0.0
 11
9428.600000000013
 21
5869.604547184549
 31
0.0
  0
LINE
  5
24242
330
747D
100
AcDbEntity
  8
細線
 48
50.0
100
AcDbLine
 10
7018.600000000002
 20
5919.6392363119
 30
0.0
 11
7048.043440764145
 21
5949.082677076049
 31
0.0
  0
LINE
  5
24243
330
747D
100
AcDbEntity
  8
細線
 48
50.0
100
AcDbLine
 10
7018.600000000002
 20
5874.737955706557
 30
0.0
 11
7092.944721369493
 21
5949.08267707605
 31
0.0
  0
LINE
  5
24244
330
747D
100
AcDbEntity
  8
細線
 48
50.0
100
AcDbLine
 10
7018.600000000002
 20
5829.836675101211
 30
0.0
 11
7137.846001974843
 21
5949.08267707605
 31
0.0
  0
LINE
  5
24245
330
747D
100
AcDbEntity
  8
細線
 48
50.0
100
AcDbLine
 10
7018.600000000002
 20
5784.935394495864
 30
0.0
 11
7182.747282580185
 21
5949.082677076049
 31
0.0
  0
LINE
  5
24246
330
747D
100
AcDbEntity
  8
細線
 48
50.0
100
AcDbLine
 10
7032.648563185515
 20
5754.082677076032
 30
0.0
 11
7218.600000000002
 21
5940.034113890519
 31
0.0
  0
LINE
  5
24247
330
747D
100
AcDbEntity
  8
細線
 48
50.0
100
AcDbLine
 10
7077.549843790862
 20
5754.082677076035
 30
0.0
 11
7218.600000000002
 21
5895.132833285174
 31
0.0
  0
LINE
  5
24248
330
747D
100
AcDbEntity
  8
細線
 48
50.0
100
AcDbLine
 10
7122.45112439621
 20
5754.082677076037
 30
0.0
 11
7218.600000000002
 21
5850.231552679827
 31
0.0
  0
LINE
  5
24249
330
747D
100
AcDbEntity
  8
細線
 48
50.0
100
AcDbLine
 10
7167.352405001557
 20
5754.082677076038
 30
0.0
 11
7218.600000000002
 21
5805.330272074481
 31
0.0
  0
LINE
  5
2424A
330
747D
100
AcDbEntity
  8
細線
 48
50.0
100
AcDbLine
 10
7212.253685606902
 20
5754.082677076038
 30
0.0
 11
7218.600000000002
 21
5760.428991469136
 31
0.0
  0
LINE
  5
2424B
330
747D
100
AcDbEntity
  8
細線
 48
50.0
100
AcDbLine
 10
6008.600000000001
 20
7033.12375626472
 30
0.0
 11
6014.558920811322
 21
7039.082677076041
 31
0.0
  0
LINE
  5
2424C
330
747D
100
AcDbEntity
  8
細線
 48
50.0
100
AcDbLine
 10
6008.600000000001
 20
6988.222475659373
 30
0.0
 11
6059.460201416669
 21
7039.082677076041
 31
0.0
  0
LINE
  5
2424D
330
747D
100
AcDbEntity
  8
細線
 48
50.0
100
AcDbLine
 10
6008.600000000001
 20
6943.321195054029
 30
0.0
 11
6104.361482022016
 21
7039.082677076042
 31
0.0
  0
LINE
  5
2424E
330
747D
100
AcDbEntity
  8
細線
 48
50.0
100
AcDbLine
 10
6008.600000000001
 20
6898.419914448684
 30
0.0
 11
6128.599999999998
 21
7018.419914448682
 31
0.0
  0
LINE
  5
2424F
330
747D
100
AcDbEntity
  8
細線
 48
50.0
100
AcDbLine
 10
6008.600000000001
 20
6853.518633843336
 30
0.0
 11
6128.599999999998
 21
6973.518633843332
 31
0.0
  0
LINE
  5
24250
330
747D
100
AcDbEntity
  8
細線
 48
50.0
100
AcDbLine
 10
6039.065323838051
 20
6839.082677076041
 30
0.0
 11
6128.6
 21
6928.61735323799
 31
0.0
  0
LINE
  5
24251
330
747D
100
AcDbEntity
  8
細線
 48
50.0
100
AcDbLine
 10
6083.966604443396
 20
6839.082677076041
 30
0.0
 11
6128.599999999998
 21
6883.716072632644
 31
0.0
  0
LINE
  5
24252
330
747D
100
AcDbEntity
  8
細線
 48
50.0
100
AcDbLine
 10
7018.600000000009
 20
8014.110950211263
 30
0.0
 11
7053.571726864783
 21
8049.082677076039
 31
0.0
  0
LINE
  5
24253
330
747D
100
AcDbEntity
  8
細線
 48
50.0
100
AcDbLine
 10
7018.600000000009
 20
7969.209669605918
 30
0.0
 11
7098.473007470129
 21
8049.082677076039
 31
0.0
  0
LINE
  5
24254
330
747D
100
AcDbEntity
  8
細線
 48
50.0
100
AcDbLine
 10
7023.374288075477
 20
7929.082677076042
 30
0.0
 11
7143.374288075475
 21
8049.082677076039
 31
0.0
  0
LINE
  5
24255
330
747D
100
AcDbEntity
  8
細線
 48
50.0
100
AcDbLine
 10
7068.275568680824
 20
7929.082677076042
 30
0.0
 11
7188.275568680818
 21
8049.082677076039
 31
0.0
  0
LINE
  5
24256
330
747D
100
AcDbEntity
  8
細線
 48
50.0
100
AcDbLine
 10
7113.176849286168
 20
7929.082677076042
 30
0.0
 11
7218.600000000006
 21
8034.505827789878
 31
0.0
  0
LINE
  5
24257
330
747D
100
AcDbEntity
  8
細線
 48
50.0
100
AcDbLine
 10
7158.078129891513
 20
7929.08267707604
 30
0.0
 11
7218.600000000009
 21
7989.604547184534
 31
0.0
  0
LINE
  5
24258
330
747D
100
AcDbEntity
  8
細線
 48
50.0
100
AcDbLine
 10
9228.600000000007
 20
8014.110950211263
 30
0.0
 11
9263.571726864782
 21
8049.082677076036
 31
0.0
  0
LINE
  5
24259
330
747D
100
AcDbEntity
  8
細線
 48
50.0
100
AcDbLine
 10
9228.60000000001
 20
7969.209669605915
 30
0.0
 11
9308.473007470125
 21
8049.082677076036
 31
0.0
  0
LINE
  5
2425A
330
747D
100
AcDbEntity
  8
細線
 48
50.0
100
AcDbLine
 10
9233.374288075479
 20
7929.082677076042
 30
0.0
 11
9353.374288075476
 21
8049.082677076038
 31
0.0
  0
LINE
  5
2425B
330
747D
100
AcDbEntity
  8
細線
 48
50.0
100
AcDbLine
 10
9278.275568680827
 20
7929.082677076042
 30
0.0
 11
9398.275568680821
 21
8049.082677076036
 31
0.0
  0
LINE
  5
2425C
330
747D
100
AcDbEntity
  8
細線
 48
50.0
100
AcDbLine
 10
9323.17684928617
 20
7929.082677076042
 30
0.0
 11
9428.60000000001
 21
8034.505827789878
 31
0.0
  0
LINE
  5
2425D
330
747D
100
AcDbEntity
  8
細線
 48
50.0
100
AcDbLine
 10
9368.078129891513
 20
7929.082677076042
 30
0.0
 11
9428.60000000001
 21
7989.604547184534
 31
0.0
  0
LINE
  5
2425E
330
747D
100
AcDbEntity
  8
細線
 48
50.0
100
AcDbLine
 10
9412.979410496856
 20
7929.082677076042
 30
0.0
 11
9428.600000000008
 21
7944.703266579193
 31
0.0
  0
LINE
  5
2425F
330
747D
100
AcDbEntity
  8
細線
 48
50.0
100
AcDbLine
 10
7202.979410496856
 20
7929.082677076042
 30
0.0
 11
7218.600000000009
 21
7944.703266579193
 31
0.0
  0
TEXT
  5
2441D
330
747D
100
AcDbEntity
  8
部品1
 48
50.0
100
AcDbText
 10
6419.104388632568
 20
2258.176165890161
 30
0.0
 40
100.0
  1
※(別売)
  7
STYLE2
100
AcDbText
  0
ENDSEC
  0
SECTION
  2
OBJECTS
  0
DICTIONARY
  5
7471
330
0
100
AcDbDictionary
281
     1
  3
ACAD_COLOR
350
173D2
  3
ACAD_GROUP
350
7472
  3
ACAD_LAYOUT
350
173D3
  3
ACAD_MATERIAL
350
173D1
  3
ACAD_MLINESTYLE
350
7473
  3
ACAD_PLOTSETTINGS
350
173D4
  3
ACAD_PLOTSTYLENAME
350
173CF
  3
ACDBHEADERROUNDTRIPXREC
350
24449
  3
AcDbVariableDictionary
350
24272
  3
CONTENTDICTIONARY
350
E71C
  3
DRAWINGVARIABLESDICT
350
F3B9
  0
DICTIONARY
  5
1758F
330
7467
100
AcDbDictionary
280
     1
281
     1
  3
ACAD_LAYERSTATES
360
17590
  0
DICTIONARY
  5
173D2
102
{ACAD_REACTORS
330
7471
102
}
330
7471
100
AcDbDictionary
281
     1
  0
DICTIONARY
  5
7472
102
{ACAD_REACTORS
330
7471
102
}
330
7471
100
AcDbDictionary
281
     1
  3
*A1
350
1D2A9
  0
DICTIONARY
  5
173D3
102
{ACAD_REACTORS
330
7471
102
}
330
7471
100
AcDbDictionary
281
     1
  3
Model
350
173D5
  3
レイアウト1
350
173D6
  0
DICTIONARY
  5
173D1
102
{ACAD_REACTORS
330
7471
102
}
330
7471
100
AcDbDictionary
281
     1
  0
DICTIONARY
  5
7473
102
{ACAD_REACTORS
330
7471
102
}
330
7471
100
AcDbDictionary
281
     1
  3
STANDARD
350
7480
  0
DICTIONARY
  5
173D4
102
{ACAD_REACTORS
330
7471
102
}
330
7471
100
AcDbDictionary
281
     1
  0
ACDBDICTIONARYWDFLT
  5
173CF
102
{ACAD_REACTORS
330
7471
102
}
330
7471
100
AcDbDictionary
281
     1
  3
Normal
350
173D0
100
AcDbDictionaryWithDefault
340
173D0
  0
DICTIONARY
  5
24449
102
{ACAD_REACTORS
330
7471
102
}
330
7471
100
AcDbDictionary
281
     1
  3
COLORDICT
350
2444B
  3
MATERIALDICT
350
2444A
  0
DICTIONARY
  5
24272
102
{ACAD_REACTORS
330
7471
102
}
330
7471
100
AcDbDictionary
281
     1
  3
DIMASSOC
350
24273
  3
PROJECTNAME
350
24274
  0
DICTIONARY
  5
E71C
102
{ACAD_REACTORS
330
7471
102
}
330
7471
100
AcDbDictionary
281
     1
  0
DICTIONARY
  5
F3B9
102
{ACAD_REACTORS
330
7471
102
}
330
7471
100
AcDbDictionary
281
     1
1001
DRAWINGVARIABLESXDATA
1000
POLARMODE
1000
1
  0
DICTIONARY
  5
17590
102
{ACAD_REACTORS
330
1758F
102
}
330
1758F
100
AcDbDictionary
281
     1
  0
GROUP
  5
1D2A9
102
{ACAD_REACTORS
330
7472
102
}
330
7472
100
AcDbGroup
300

 70
     1
 71
     1
  0
LAYOUT
  5
173D5
102
{ACAD_XDICTIONARY
360
2444C
102
}
102
{ACAD_REACTORS
330
173D3
102
}
330
173D3
100
AcDbPlotSettings
  1

  2
クセロPDF
  4
A3
  6

 40
3.174999952316284
 41
3.174999952316284
 42
3.17498779296875
 43
3.17498779296875
 44
419.9466552734374
 45
296.9259948730469
 46
0.0
 47
0.0
 48
0.0
 49
0.0
140
0.0
141
0.0
142
1.0
143
40.0
 70
 11952
 72
     1
 73
     0
 74
     2
  7
inaba.ctb
 75
    24
147
0.025
148
0.0
149
0.0
100
AcDbLayout
  1
Model
 70
     1
 71
     0
 10
0.0
 20
0.0
 11
12.0
 21
9.0
 12
0.0
 22
0.0
 32
0.0
 14
0.0
 24
0.0
 34
0.0
 15
0.0
 25
0.0
 35
0.0
146
0.0
 13
0.0
 23
0.0
 33
0.0
 16
1.0
 26
0.0
 36
0.0
 17
0.0
 27
1.0
 37
0.0
 76
     0
330
747D
  0
LAYOUT
  5
173D6
102
{ACAD_XDICTIONARY
360
2444E
102
}
102
{ACAD_REACTORS
330
173D3
102
}
330
173D3
100
AcDbPlotSettings
  1

  2
Microsoft Office Document Image Writer
  4

  6

 40
0.0
 41
0.0
 42
0.0
 43
0.0
 44
0.0
 45
0.0
 46
0.0
 47
0.0
 48
0.0
 49
0.0
140
0.0
141
0.0
142
1.0
143
1.0
 70
   688
 72
     0
 73
     0
 74
     5
  7
inaba.ctb
 75
    16
147
1.0
148
0.0
149
0.0
100
AcDbLayout
  1
レイアウト1
 70
     0
 71
     1
 10
0.0
 20
0.0
 11
420.0
 21
297.0
 12
0.0
 22
0.0
 32
0.0
 14
1.000000000000000E+20
 24
1.000000000000000E+20
 34
1.000000000000000E+20
 15
-1.000000000000000E+20
 25
-1.000000000000000E+20
 35
-1.000000000000000E+20
146
0.0
 13
0.0
 23
0.0
 33
0.0
 16
1.0
 26
0.0
 36
0.0
 17
0.0
 27
1.0
 37
0.0
 76
     0
330
747A
  0
MLINESTYLE
  5
7480
102
{ACAD_REACTORS
330
7473
102
}
330
7473
100
AcDbMlineStyle
  2
STANDARD
 70
     0
  3

 62
     0
 51
90.0
 52
90.0
 71
     2
 49
0.5
 62
   256
  6
BYLAYER
 49
-0.5
 62
   256
  6
BYLAYER
  0
ACDBPLACEHOLDER
  5
173D0
102
{ACAD_REACTORS
330
173CF
102
}
330
173CF
  0
XRECORD
  5
2444B
102
{ACAD_REACTORS
330
24449
102
}
330
24449
100
AcDbXrecord
280
     1
340
173D2
  0
XRECORD
  5
2444A
102
{ACAD_REACTORS
330
24449
102
}
330
24449
100
AcDbXrecord
280
     1
340
173D1
  0
DICTIONARYVAR
  5
24273
102
{ACAD_REACTORS
330
24272
102
}
330
24272
100
DictionaryVariables
280
     0
  1
1
  0
DICTIONARYVAR
  5
24274
102
{ACAD_REACTORS
330
24272
102
}
330
24272
100
DictionaryVariables
280
     0
  1

  0
DICTIONARY
  5
2444C
330
173D5
100
AcDbDictionary
280
     1
281
     1
  3
ACAD_XREC_ROUNDTRIP
360
2444D
  0
DICTIONARY
  5
2444E
330
173D6
100
AcDbDictionary
280
     1
281
     1
  3
ACAD_XREC_ROUNDTRIP
360
2444F
  0
XRECORD
  5
2444D
102
{ACAD_REACTORS
330
2444C
102
}
330
2444C
100
AcDbXrecord
280
     1
102
SHADEPLOT
 70
     0
102
SHADEPLOTRESLEVEL
 70
     2
102
SHADEPLOTCUSTOMDPI
 70
   150
  0
XRECORD
  5
2444F
102
{ACAD_REACTORS
330
2444E
102
}
330
2444E
100
AcDbXrecord
280
     1
102
SHADEPLOT
 70
     0
102
SHADEPLOTRESLEVEL
 70
     2
102
SHADEPLOTCUSTOMDPI
 70
   300
  0
ENDSEC
  0
EOF
