  0
SECTION
  2
HEADER
  9
$ACADVER
  1
AC1015
  9
$ACADMAINTVER
 70
    20
  9
$DWGCODEPAGE
  3
ANSI_932
  9
$INSBASE
 10
0.0
 20
0.0
 30
0.0
  9
$EXTMIN
 10
139.9999999999995
 20
-0.0000000000000909
 30
0.0
  9
$EXTMAX
 10
16307.2
 20
11409.6
 30
0.0
  9
$LIMMIN
 10
0.0
 20
0.0
  9
$LIMMAX
 10
16800.0
 20
11880.0
  9
$ORTHOMODE
 70
     0
  9
$REGENMODE
 70
     1
  9
$FILLMODE
 70
     1
  9
$QTEXTMODE
 70
     0
  9
$MIRRTEXT
 70
     1
  9
$LTSCALE
 40
20.0
  9
$ATTMODE
 70
     1
  9
$TEXTSIZE
 40
4.0
  9
$TRACEWID
 40
1.0
  9
$TEXTSTYLE
  7
STYLE1
  9
$CLAYER
  8
細線
  9
$CELTYPE
  6
BYLAYER
  9
$CECOLOR
 62
   256
  9
$CELTSCALE
 40
50.0
  9
$DISPSILH
 70
     0
  9
$DIMSCALE
 40
40.0
  9
$DIMASZ
 40
2.5
  9
$DIMEXO
 40
0.5
  9
$DIMDLI
 40
7.0
  9
$DIMRND
 40
0.0
  9
$DIMDLE
 40
0.0
  9
$DIMEXE
 40
1.5
  9
$DIMTP
 40
0.0
  9
$DIMTM
 40
0.0
  9
$DIMTXT
 40
3.0
  9
$DIMCEN
 40
0.0
  9
$DIMTSZ
 40
0.0
  9
$DIMTOL
 70
     0
  9
$DIMLIM
 70
     0
  9
$DIMTIH
 70
     0
  9
$DIMTOH
 70
     0
  9
$DIMSE1
 70
     0
  9
$DIMSE2
 70
     0
  9
$DIMTAD
 70
     3
  9
$DIMZIN
 70
     8
  9
$DIMBLK
  1

  9
$DIMASO
 70
     1
  9
$DIMSHO
 70
     1
  9
$DIMPOST
  1

  9
$DIMAPOST
  1

  9
$DIMALT
 70
     0
  9
$DIMALTD
 70
     2
  9
$DIMALTF
 40
0.0394
  9
$DIMLFAC
 40
1.0
  9
$DIMTOFL
 70
     1
  9
$DIMTVP
 40
0.0
  9
$DIMTIX
 70
     1
  9
$DIMSOXD
 70
     0
  9
$DIMSAH
 70
     1
  9
$DIMBLK1
  1
DOTSMALL
  9
$DIMBLK2
  1
DOTSMALL
  9
$DIMSTYLE
  2
INABA_S40G
  9
$DIMCLRD
 70
     0
  9
$DIMCLRE
 70
     0
  9
$DIMCLRT
 70
     7
  9
$DIMTFAC
 40
1.0
  9
$DIMGAP
 40
1.0
  9
$DIMJUST
 70
     0
  9
$DIMSD1
 70
     0
  9
$DIMSD2
 70
     0
  9
$DIMTOLJ
 70
     1
  9
$DIMTZIN
 70
     0
  9
$DIMALTZ
 70
     0
  9
$DIMALTTZ
 70
     0
  9
$DIMUPT
 70
     0
  9
$DIMDEC
 70
     1
  9
$DIMTDEC
 70
     4
  9
$DIMALTU
 70
     2
  9
$DIMALTTD
 70
     2
  9
$DIMTXSTY
  7
STYLE1
  9
$DIMAUNIT
 70
     0
  9
$DIMADEC
 70
     0
  9
$DIMALTRND
 40
0.0
  9
$DIMAZIN
 70
     0
  9
$DIMDSEP
 70
    46
  9
$DIMATFIT
 70
     3
  9
$DIMFRAC
 70
     0
  9
$DIMLDRBLK
  1

  9
$DIMLUNIT
 70
     2
  9
$DIMLWD
 70
    -2
  9
$DIMLWE
 70
    -2
  9
$DIMTMOVE
 70
     0
  9
$LUNITS
 70
     2
  9
$LUPREC
 70
     1
  9
$SKETCHINC
 40
1.0
  9
$FILLETRAD
 40
3.0
  9
$AUNITS
 70
     0
  9
$AUPREC
 70
     0
  9
$MENU
  1
acad
  9
$ELEVATION
 40
0.0
  9
$PELEVATION
 40
0.0
  9
$THICKNESS
 40
0.0
  9
$LIMCHECK
 70
     0
  9
$CHAMFERA
 40
0.0
  9
$CHAMFERB
 40
0.0
  9
$CHAMFERC
 40
0.0
  9
$CHAMFERD
 40
0.0
  9
$SKPOLY
 70
     0
  9
$TDCREATE
 40
2451368.612993866
  9
$TDUCREATE
 40
2451368.237993866
  9
$TDUPDATE
 40
2455827.764580753
  9
$TDUUPDATE
 40
2455827.389580752
  9
$TDINDWG
 40
0.9186884606
  9
$TDUSRTIMER
 40
0.9186866435
  9
$USRTIMER
 70
     1
  9
$ANGBASE
 50
0.0
  9
$ANGDIR
 70
     0
  9
$PDMODE
 70
     3
  9
$PDSIZE
 40
2.0
  9
$PLINEWID
 40
0.0
  9
$SPLFRAME
 70
     0
  9
$SPLINETYPE
 70
     6
  9
$SPLINESEGS
 70
     8
  9
$HANDSEED
  5
2C2F9
  9
$SURFTAB1
 70
     6
  9
$SURFTAB2
 70
     6
  9
$SURFTYPE
 70
     6
  9
$SURFU
 70
     6
  9
$SURFV
 70
     6
  9
$UCSBASE
  2

  9
$UCSNAME
  2

  9
$UCSORG
 10
0.0
 20
0.0
 30
0.0
  9
$UCSXDIR
 10
1.0
 20
0.0
 30
0.0
  9
$UCSYDIR
 10
0.0
 20
1.0
 30
0.0
  9
$UCSORTHOREF
  2

  9
$UCSORTHOVIEW
 70
     0
  9
$UCSORGTOP
 10
0.0
 20
0.0
 30
0.0
  9
$UCSORGBOTTOM
 10
0.0
 20
0.0
 30
0.0
  9
$UCSORGLEFT
 10
0.0
 20
0.0
 30
0.0
  9
$UCSORGRIGHT
 10
0.0
 20
0.0
 30
0.0
  9
$UCSORGFRONT
 10
0.0
 20
0.0
 30
0.0
  9
$UCSORGBACK
 10
0.0
 20
0.0
 30
0.0
  9
$PUCSBASE
  2

  9
$PUCSNAME
  2

  9
$PUCSORG
 10
0.0
 20
0.0
 30
0.0
  9
$PUCSXDIR
 10
1.0
 20
0.0
 30
0.0
  9
$PUCSYDIR
 10
0.0
 20
1.0
 30
0.0
  9
$PUCSORTHOREF
  2

  9
$PUCSORTHOVIEW
 70
     0
  9
$PUCSORGTOP
 10
0.0
 20
0.0
 30
0.0
  9
$PUCSORGBOTTOM
 10
0.0
 20
0.0
 30
0.0
  9
$PUCSORGLEFT
 10
0.0
 20
0.0
 30
0.0
  9
$PUCSORGRIGHT
 10
0.0
 20
0.0
 30
0.0
  9
$PUCSORGFRONT
 10
0.0
 20
0.0
 30
0.0
  9
$PUCSORGBACK
 10
0.0
 20
0.0
 30
0.0
  9
$USERI1
 70
     0
  9
$USERI2
 70
     0
  9
$USERI3
 70
     0
  9
$USERI4
 70
     0
  9
$USERI5
 70
     0
  9
$USERR1
 40
0.0
  9
$USERR2
 40
0.0
  9
$USERR3
 40
0.0
  9
$USERR4
 40
0.0
  9
$USERR5
 40
0.0
  9
$WORLDVIEW
 70
     1
  9
$SHADEDGE
 70
     3
  9
$SHADEDIF
 70
    70
  9
$TILEMODE
 70
     1
  9
$MAXACTVP
 70
    16
  9
$PINSBASE
 10
0.0
 20
0.0
 30
0.0
  9
$PLIMCHECK
 70
     0
  9
$PEXTMIN
 10
1.000000000000000E+20
 20
1.000000000000000E+20
 30
1.000000000000000E+20
  9
$PEXTMAX
 10
-1.000000000000000E+20
 20
-1.000000000000000E+20
 30
-1.000000000000000E+20
  9
$PLIMMIN
 10
0.0
 20
0.0
  9
$PLIMMAX
 10
420.0
 20
297.0
  9
$UNITMODE
 70
     0
  9
$VISRETAIN
 70
     0
  9
$PLINEGEN
 70
     0
  9
$PSLTSCALE
 70
     0
  9
$TREEDEPTH
 70
  3020
  9
$CMLSTYLE
  2
STANDARD
  9
$CMLJUST
 70
     0
  9
$CMLSCALE
 40
1.0
  9
$PROXYGRAPHICS
 70
     1
  9
$MEASUREMENT
 70
     1
  9
$CELWEIGHT
370
    -1
  9
$ENDCAPS
280
     0
  9
$JOINSTYLE
280
     0
  9
$LWDISPLAY
290
     0
  9
$INSUNITS
 70
     0
  9
$HYPERLINKBASE
  1

  9
$STYLESHEET
  1
inaba.ctb
  9
$XEDIT
290
     1
  9
$CEPSNTYPE
380
     0
  9
$PSTYLEMODE
290
     1
  9
$FINGERPRINTGUID
  2
{5EAC461A-2277-4BF8-9AB0-99C43BB394F0}
  9
$VERSIONGUID
  2
{AD9C9B21-6C7E-46D5-93F6-263C6AA18C40}
  9
$EXTNAMES
290
     1
  9
$PSVPSCALE
 40
0.0
  9
$OLESTARTUP
290
     0
  0
ENDSEC
  0
SECTION
  2
CLASSES
  0
CLASS
  1
ACDBDICTIONARYWDFLT
  2
AcDbDictionaryWithDefault
  3
ObjectDBX Classes
 90
        0
280
     0
281
     0
  0
CLASS
  1
DICTIONARYVAR
  2
AcDbDictionaryVar
  3
ObjectDBX Classes
 90
        0
280
     0
281
     0
  0
CLASS
  1
ACDBPLACEHOLDER
  2
AcDbPlaceHolder
  3
ObjectDBX Classes
 90
        0
280
     0
281
     0
  0
CLASS
  1
LAYOUT
  2
AcDbLayout
  3
ObjectDBX Classes
 90
        0
280
     0
281
     0
  0
ENDSEC
  0
SECTION
  2
TABLES
  0
TABLE
  2
VPORT
  5
746D
330
0
100
AcDbSymbolTable
 70
     2
  0
VPORT
  5
2C2F1
330
746D
100
AcDbSymbolTableRecord
100
AcDbViewportTableRecord
  2
*Active
 70
     0
 10
0.0
 20
0.0
 11
1.0
 21
1.0
 12
9850.170722332201
 22
5755.737687086469
 13
0.0
 23
0.0
 14
10.0
 24
10.0
 15
10.0
 25
10.0
 16
0.0
 26
0.0
 36
1.0
 17
0.0
 27
0.0
 37
0.0
 40
11599.42632032148
 41
1.79295154185022
 42
50.0
 43
0.0
 44
0.0
 50
0.0
 51
0.0
 71
     0
 72
     0
 73
     1
 74
     0
 75
     0
 76
     0
 77
     0
 78
     0
281
     0
 65
     1
110
0.0
120
0.0
130
0.0
111
1.0
121
0.0
131
0.0
112
0.0
122
1.0
132
0.0
 79
     0
146
0.0
  0
ENDTAB
  0
TABLE
  2
LTYPE
  5
746A
330
0
100
AcDbSymbolTable
 70
     3
  0
LTYPE
  5
7477
330
746A
100
AcDbSymbolTableRecord
100
AcDbLinetypeTableRecord
  2
BYBLOCK
 70
     0
  3

 72
    65
 73
     0
 40
0.0
  0
LTYPE
  5
7478
330
746A
100
AcDbSymbolTableRecord
100
AcDbLinetypeTableRecord
  2
BYLAYER
 70
     0
  3

 72
    65
 73
     0
 40
0.0
  0
LTYPE
  5
7479
330
746A
100
AcDbSymbolTableRecord
100
AcDbLinetypeTableRecord
  2
CONTINUOUS
 70
     0
  3
Solid line
 72
    65
 73
     0
 40
0.0
  0
LTYPE
  5
7816
330
746A
100
AcDbSymbolTableRecord
100
AcDbLinetypeTableRecord
  2
CENTER
 70
     0
  3
____ _ ____ _ ____ _ ____ _ ____ _ ____ _ ____ 
 72
    65
 73
     4
 40
2.0
 49
1.25
 74
     0
 49
-0.25
 74
     0
 49
0.25
 74
     0
 49
-0.25
 74
     0
  0
LTYPE
  5
781B
330
746A
100
AcDbSymbolTableRecord
100
AcDbLinetypeTableRecord
  2
PHANTOM
 70
     0
  3
______  __  __  ______  __  __  ______  __  __ 
 72
    65
 73
     6
 40
2.5
 49
1.25
 74
     0
 49
-0.25
 74
     0
 49
0.25
 74
     0
 49
-0.25
 74
     0
 49
0.25
 74
     0
 49
-0.25
 74
     0
  0
ENDTAB
  0
TABLE
  2
LAYER
  5
7467
102
{ACAD_XDICTIONARY
360
1758F
102
}
330
0
100
AcDbSymbolTable
 70
    10
  0
LAYER
  5
7474
330
7467
100
AcDbSymbolTableRecord
100
AcDbLayerTableRecord
  2
0
 70
     0
 62
     7
  6
CONTINUOUS
370
    -3
390
173D0
  0
LAYER
  5
DEB2
330
7467
100
AcDbSymbolTableRecord
100
AcDbLayerTableRecord
  2
センター
 70
     0
 62
     3
  6
CENTER
370
    -3
390
173D0
  0
LAYER
  5
DEB3
330
7467
100
AcDbSymbolTableRecord
100
AcDbLayerTableRecord
  2
寸法
 70
     0
 62
     4
  6
CONTINUOUS
370
    -3
390
173D0
  0
LAYER
  5
DEB4
330
7467
100
AcDbSymbolTableRecord
100
AcDbLayerTableRecord
  2
部品1
 70
     0
 62
     7
  6
CONTINUOUS
370
    -3
390
173D0
  0
LAYER
  5
DEB5
330
7467
100
AcDbSymbolTableRecord
100
AcDbLayerTableRecord
  2
補助
 70
     0
 62
    -1
  6
CONTINUOUS
370
    -3
390
173D0
  0
LAYER
  5
DEB6
330
7467
100
AcDbSymbolTableRecord
100
AcDbLayerTableRecord
  2
文字
 70
     0
 62
     7
  6
CONTINUOUS
370
    -3
390
173D0
  0
LAYER
  5
F255
330
7467
100
AcDbSymbolTableRecord
100
AcDbLayerTableRecord
  2
DEFPOINTS
 70
     0
 62
     7
  6
CONTINUOUS
290
     0
370
    -3
390
173D0
  0
LAYER
  5
10B54
330
7467
100
AcDbSymbolTableRecord
100
AcDbLayerTableRecord
  2
仕様書枠
 70
     0
 62
   230
  6
CONTINUOUS
370
    -3
390
173D0
  0
LAYER
  5
1173F
330
7467
100
AcDbSymbolTableRecord
100
AcDbLayerTableRecord
  2
細線
 70
     0
 62
     5
  6
CONTINUOUS
370
    -3
390
173D0
  0
LAYER
  5
12CC4
330
7467
100
AcDbSymbolTableRecord
100
AcDbLayerTableRecord
  2
想像線
 70
     0
 62
     6
  6
PHANTOM
370
    -3
390
173D0
  0
ENDTAB
  0
TABLE
  2
STYLE
  5
7468
330
0
100
AcDbSymbolTable
 70
     4
  0
STYLE
  5
7475
330
7468
100
AcDbSymbolTableRecord
100
AcDbTextStyleTableRecord
  2
STANDARD
 70
     0
 40
0.0
 41
1.0
 50
0.0
 71
     0
 42
4.0
  3
txt
  4
C:\AutoCAD LT\bigfont.shx
  0
STYLE
  5
763C
330
7468
100
AcDbSymbolTableRecord
100
AcDbTextStyleTableRecord
  2
MSMINCHO
 70
     0
 40
0.0
 41
1.0
 50
0.0
 71
     0
 42
1.199999999999999
  3
C:\AutoCAD LT\msminch2.TTF
  4

  0
STYLE
  5
F706
330
7468
100
AcDbSymbolTableRecord
100
AcDbTextStyleTableRecord
  2
STYLE1
 70
     0
 40
0.0
 41
1.0
 50
0.0
 71
     0
 42
4.0
  3
isocp.shx
  4
bigfont.shx
  0
STYLE
  5
103BF
330
7468
100
AcDbSymbolTableRecord
100
AcDbTextStyleTableRecord
  2
STYLE2
 70
     0
 40
0.0
 41
1.0
 50
0.0
 71
     0
 42
100.0
  3
MS PGothic.ttf
  4

1001
ACAD
1000
MS PGothic
1071
    32818
  0
ENDTAB
  0
TABLE
  2
VIEW
  5
746B
330
0
100
AcDbSymbolTable
 70
     0
  0
ENDTAB
  0
TABLE
  2
UCS
  5
746C
330
0
100
AcDbSymbolTable
 70
     0
  0
ENDTAB
  0
TABLE
  2
APPID
  5
746E
330
0
100
AcDbSymbolTable
 70
     6
  0
APPID
  5
7476
330
746E
100
AcDbSymbolTableRecord
100
AcDbRegAppTableRecord
  2
ACAD
 70
     0
  0
APPID
  5
DEA9
330
746E
100
AcDbSymbolTableRecord
100
AcDbRegAppTableRecord
  2
CONTENTBLOCKICON
 70
     0
  0
APPID
  5
DEAA
330
746E
100
AcDbSymbolTableRecord
100
AcDbRegAppTableRecord
  2
CONTENTBLOCKDESCRIPTION
 70
     0
  0
APPID
  5
E71D
330
746E
100
AcDbSymbolTableRecord
100
AcDbRegAppTableRecord
  2
CONTENTTABDATA
 70
     0
  0
APPID
  5
E71E
330
746E
100
AcDbSymbolTableRecord
100
AcDbRegAppTableRecord
  2
CONTENTCURRENTTAB
 70
     0
  0
APPID
  5
F3BA
330
746E
100
AcDbSymbolTableRecord
100
AcDbRegAppTableRecord
  2
DRAWINGVARIABLESXDATA
 70
     0
  0
ENDTAB
  0
TABLE
  2
DIMSTYLE
  5
746F
330
0
100
AcDbSymbolTable
 70
     1
100
AcDbDimStyleTable
 71
     1
340
F71F
  0
DIMSTYLE
105
F71F
102
{ACAD_REACTORS
330
2BFAD
330
2BFAA
330
2BFA9
330
2BFA7
330
2BFA4
330
2BFA1
330
2BFA0
330
2BF9E
330
2BF9D
330
2BF9A
330
2BF99
330
2BF8C
330
2BF8B
330
2BF8A
330
2BF48
330
2BF33
330
2BF31
330
2BF2B
330
2BE92
330
2B962
330
2A8B8
330
29997
330
284F0
330
284E9
330
284BE
330
284BD
330
284BC
330
284BB
330
284BA
330
284B9
330
284AF
330
28493
330
2847A
330
2845D
330
2845C
330
2845B
330
2845A
330
28459
330
28458
330
28457
330
28456
330
28454
330
28242
330
2823F
330
28237
330
28236
330
28233
330
28232
330
28231
330
2701E
330
26F7E
330
26F64
330
26F3F
330
26F1A
330
26F00
330
26236
330
1D2D6
330
1AC2C
330
1AC27
102
}
330
746F
100
AcDbSymbolTableRecord
100
AcDbDimStyleTableRecord
  2
INABA_S40G
 70
     0
 40
40.0
 41
2.5
 42
0.5
 43
7.0
 44
1.5
 73
     0
 74
     0
 77
     3
 78
     8
140
3.0
141
0.0
143
0.0394
147
1.0
172
     1
173
     1
174
     1
178
     7
271
     1
340
F706
341
F770
343
F770
344
F770
  0
ENDTAB
  0
TABLE
  2
BLOCK_RECORD
  5
7466
330
0
100
AcDbSymbolTable
 70
    43
  0
BLOCK_RECORD
  5
747D
330
7466
100
AcDbSymbolTableRecord
100
AcDbBlockTableRecord
  2
*MODEL_SPACE
340
173D5
  0
BLOCK_RECORD
  5
747A
330
7466
100
AcDbSymbolTableRecord
100
AcDbBlockTableRecord
  2
*PAPER_SPACE
340
173D6
  0
BLOCK_RECORD
  5
F770
330
7466
100
AcDbSymbolTableRecord
100
AcDbBlockTableRecord
  2
_DOTSMALL
340
0
102
{BLKREFS
331
2C13F
331
2C140
331
2C148
331
2C149
331
2C151
331
2C152
331
2C15A
331
2C15B
331
2C163
331
2C164
331
2C16E
331
2C16F
331
2C177
331
2C178
331
2C180
331
2C181
331
2C18A
331
2C18B
331
2C194
331
2C195
331
2C19D
331
2C19E
331
2C1A6
331
2C1A7
331
2C1AF
331
2C1B0
331
2C1B8
331
2C1B9
331
2C1C1
331
2C1C2
331
2C1CB
331
2C1CC
331
2C1D4
331
2C1D5
331
2C1DD
331
2C1DE
331
2C1E7
331
2C1E8
331
2C1F0
331
2C1F1
331
2C1F9
331
2C1FA
331
2C203
331
2C204
331
2C20C
331
2C20D
331
2C215
331
2C216
331
2C21E
331
2C21F
331
2C227
331
2C228
331
2C231
331
2C232
331
2C23B
331
2C23C
331
2C244
331
2C245
331
2C24E
331
2C24F
331
2C257
331
2C258
331
2C260
331
2C261
331
2C26A
331
2C26B
331
2C274
331
2C275
331
2C27D
331
2C27E
331
2C287
331
2C288
331
2C292
331
2C293
331
2C29D
331
2C29E
331
2C2A8
331
2C2A9
331
2C2B3
331
2C2B4
331
2C2BE
331
2C2BF
331
2C2C7
331
2C2C8
102
}
  0
BLOCK_RECORD
  5
265C5
330
7466
100
AcDbSymbolTableRecord
100
AcDbBlockTableRecord
  2
*D1
340
0
  0
BLOCK_RECORD
  5
26F01
330
7466
100
AcDbSymbolTableRecord
100
AcDbBlockTableRecord
  2
*D2
340
0
  0
BLOCK_RECORD
  5
26F1B
330
7466
100
AcDbSymbolTableRecord
100
AcDbBlockTableRecord
  2
*D3
340
0
  0
BLOCK_RECORD
  5
26F40
330
7466
100
AcDbSymbolTableRecord
100
AcDbBlockTableRecord
  2
*D4
340
0
  0
BLOCK_RECORD
  5
26F65
330
7466
100
AcDbSymbolTableRecord
100
AcDbBlockTableRecord
  2
*D5
340
0
  0
BLOCK_RECORD
  5
26F7F
330
7466
100
AcDbSymbolTableRecord
100
AcDbBlockTableRecord
  2
*D6
340
0
  0
BLOCK_RECORD
  5
2701F
330
7466
100
AcDbSymbolTableRecord
100
AcDbBlockTableRecord
  2
*D7
340
0
  0
BLOCK_RECORD
  5
284F6
330
7466
100
AcDbSymbolTableRecord
100
AcDbBlockTableRecord
  2
*D8
340
0
  0
BLOCK_RECORD
  5
28501
330
7466
100
AcDbSymbolTableRecord
100
AcDbBlockTableRecord
  2
*D9
340
0
  0
BLOCK_RECORD
  5
2850E
330
7466
100
AcDbSymbolTableRecord
100
AcDbBlockTableRecord
  2
*D10
340
0
  0
BLOCK_RECORD
  5
2851B
330
7466
100
AcDbSymbolTableRecord
100
AcDbBlockTableRecord
  2
*D11
340
0
  0
BLOCK_RECORD
  5
28526
330
7466
100
AcDbSymbolTableRecord
100
AcDbBlockTableRecord
  2
*D12
340
0
  0
BLOCK_RECORD
  5
28531
330
7466
100
AcDbSymbolTableRecord
100
AcDbBlockTableRecord
  2
*D13
340
0
  0
BLOCK_RECORD
  5
2853E
330
7466
100
AcDbSymbolTableRecord
100
AcDbBlockTableRecord
  2
*D14
340
0
  0
BLOCK_RECORD
  5
28586
330
7466
100
AcDbSymbolTableRecord
100
AcDbBlockTableRecord
  2
*D15
340
0
  0
BLOCK_RECORD
  5
2859D
330
7466
100
AcDbSymbolTableRecord
100
AcDbBlockTableRecord
  2
*D16
340
0
  0
BLOCK_RECORD
  5
285AA
330
7466
100
AcDbSymbolTableRecord
100
AcDbBlockTableRecord
  2
*D17
340
0
  0
BLOCK_RECORD
  5
285B5
330
7466
100
AcDbSymbolTableRecord
100
AcDbBlockTableRecord
  2
*D18
340
0
  0
BLOCK_RECORD
  5
285C1
330
7466
100
AcDbSymbolTableRecord
100
AcDbBlockTableRecord
  2
*D19
340
0
  0
BLOCK_RECORD
  5
285CC
330
7466
100
AcDbSymbolTableRecord
100
AcDbBlockTableRecord
  2
*D20
340
0
  0
BLOCK_RECORD
  5
285D8
330
7466
100
AcDbSymbolTableRecord
100
AcDbBlockTableRecord
  2
*D21
340
0
  0
BLOCK_RECORD
  5
285E5
330
7466
100
AcDbSymbolTableRecord
100
AcDbBlockTableRecord
  2
*D22
340
0
  0
BLOCK_RECORD
  5
285F1
330
7466
100
AcDbSymbolTableRecord
100
AcDbBlockTableRecord
  2
*D23
340
0
  0
BLOCK_RECORD
  5
285FD
330
7466
100
AcDbSymbolTableRecord
100
AcDbBlockTableRecord
  2
*D24
340
0
  0
BLOCK_RECORD
  5
2860A
330
7466
100
AcDbSymbolTableRecord
100
AcDbBlockTableRecord
  2
*D25
340
0
  0
BLOCK_RECORD
  5
28614
330
7466
100
AcDbSymbolTableRecord
100
AcDbBlockTableRecord
  2
*D26
340
0
  0
BLOCK_RECORD
  5
2862D
330
7466
100
AcDbSymbolTableRecord
100
AcDbBlockTableRecord
  2
*D27
340
0
  0
BLOCK_RECORD
  5
2863A
330
7466
100
AcDbSymbolTableRecord
100
AcDbBlockTableRecord
  2
*D28
340
0
  0
BLOCK_RECORD
  5
28646
330
7466
100
AcDbSymbolTableRecord
100
AcDbBlockTableRecord
  2
*D29
340
0
  0
BLOCK_RECORD
  5
28652
330
7466
100
AcDbSymbolTableRecord
100
AcDbBlockTableRecord
  2
*D30
340
0
  0
BLOCK_RECORD
  5
2865E
330
7466
100
AcDbSymbolTableRecord
100
AcDbBlockTableRecord
  2
*D31
340
0
  0
BLOCK_RECORD
  5
2866A
330
7466
100
AcDbSymbolTableRecord
100
AcDbBlockTableRecord
  2
*D32
340
0
  0
BLOCK_RECORD
  5
28675
330
7466
100
AcDbSymbolTableRecord
100
AcDbBlockTableRecord
  2
*D33
340
0
  0
BLOCK_RECORD
  5
28682
330
7466
100
AcDbSymbolTableRecord
100
AcDbBlockTableRecord
  2
*D34
340
0
  0
BLOCK_RECORD
  5
2A8B9
330
7466
100
AcDbSymbolTableRecord
100
AcDbBlockTableRecord
  2
*D35
340
0
  0
BLOCK_RECORD
  5
2BA09
330
7466
100
AcDbSymbolTableRecord
100
AcDbBlockTableRecord
  2
*D36
340
0
  0
BLOCK_RECORD
  5
2BFB8
330
7466
100
AcDbSymbolTableRecord
100
AcDbBlockTableRecord
  2
*D37
340
0
  0
BLOCK_RECORD
  5
2BFC3
330
7466
100
AcDbSymbolTableRecord
100
AcDbBlockTableRecord
  2
*D38
340
0
  0
BLOCK_RECORD
  5
2BFCF
330
7466
100
AcDbSymbolTableRecord
100
AcDbBlockTableRecord
  2
*D39
340
0
  0
BLOCK_RECORD
  5
2BFDB
330
7466
100
AcDbSymbolTableRecord
100
AcDbBlockTableRecord
  2
*D40
340
0
  0
BLOCK_RECORD
  5
2BFE7
330
7466
100
AcDbSymbolTableRecord
100
AcDbBlockTableRecord
  2
*D41
340
0
  0
BLOCK_RECORD
  5
2BFF3
330
7466
100
AcDbSymbolTableRecord
100
AcDbBlockTableRecord
  2
*D42
340
0
  0
ENDTAB
  0
ENDSEC
  0
SECTION
  2
BLOCKS
  0
BLOCK
  5
7489
330
747D
100
AcDbEntity
  8
0
100
AcDbBlockBegin
  2
*MODEL_SPACE
 70
     0
 10
0.0
 20
0.0
 30
0.0
  3
*MODEL_SPACE
  1

  0
ENDBLK
  5
748A
330
747D
100
AcDbEntity
  8
0
100
AcDbBlockEnd
  0
BLOCK
  5
7487
330
747A
100
AcDbEntity
 67
     1
  8
0
100
AcDbBlockBegin
  2
*PAPER_SPACE
 70
     0
 10
0.0
 20
0.0
 30
0.0
  3
*PAPER_SPACE
  1

  0
ENDBLK
  5
7488
330
747A
100
AcDbEntity
 67
     1
  8
0
100
AcDbBlockEnd
  0
BLOCK
  5
F771
330
F770
100
AcDbEntity
  8
0
 48
50.0
100
AcDbBlockBegin
  2
_DOTSMALL
 70
     0
 10
0.0
 20
0.0
 30
0.0
  3
_DOTSMALL
  1

  0
LWPOLYLINE
  5
F772
330
F770
100
AcDbEntity
  8
0
  6
ByBlock
 62
     0
 48
50.0
100
AcDbPolyline
 90
        2
 70
     1
 43
0.5
 10
-0.0625
 20
0.0
 42
1.0
 10
0.0625
 20
0.0
 42
1.0
  0
ENDBLK
  5
F776
330
F770
100
AcDbEntity
  8
0
 48
50.0
100
AcDbBlockEnd
  0
BLOCK
  5
265CE
330
265C5
100
AcDbEntity
  8
0
 48
50.0
100
AcDbBlockBegin
  2
*D1
 70
     1
 10
0.0
 20
0.0
 30
0.0
  3
*D1
  1

  0
LINE
  5
2C2C4
330
265C5
100
AcDbEntity
  8
寸法
 62
     0
 48
50.0
370
    -2
100
AcDbLine
 10
5621.6
 20
5207.854429179775
 30
0.0
 11
5621.6
 21
4683.009414837592
 31
0.0
  0
LINE
  5
2C2C5
330
265C5
100
AcDbEntity
  8
寸法
 62
     0
 48
50.0
370
    -2
100
AcDbLine
 10
5168.600000000001
 20
5282.854429179785
 30
0.0
 11
5168.600000000001
 21
4683.009414837592
 31
0.0
  0
LINE
  5
2C2C6
330
265C5
100
AcDbEntity
  8
寸法
 62
     0
 48
50.0
370
    -2
100
AcDbLine
 10
5621.6
 20
4743.009414837593
 30
0.0
 11
5168.600000000001
 21
4743.009414837593
 31
0.0
  0
INSERT
  5
2C2C7
330
265C5
100
AcDbEntity
  8
寸法
 62
     0
 48
50.0
370
    -2
100
AcDbBlockReference
  2
_DOTSMALL
 10
5621.6
 20
4743.009414837593
 30
0.0
 41
100.0
 42
100.0
 43
100.0
  0
INSERT
  5
2C2C8
330
265C5
100
AcDbEntity
  8
寸法
 62
     0
 48
50.0
370
    -2
100
AcDbBlockReference
  2
_DOTSMALL
 10
5168.600000000001
 20
4743.009414837593
 30
0.0
 41
100.0
 42
100.0
 43
100.0
 50
180.0
  0
MTEXT
  5
2C2C9
330
265C5
100
AcDbEntity
  8
寸法
 62
     7
 48
50.0
100
AcDbMText
 10
5395.100000000001
 20
4843.009414837593
 30
0.0
 40
120.0
 41
0.0
 71
     5
 72
     1
  1
\A1;453
  7
STYLE1
 73
     1
 44
1.0
1001
ACAD
1000
MTEXTBEGIN
1070
    73
1070
     1
1070
    44
1040
1.0
1070
    74
1070
     0
1000
MTEXTEND
  0
POINT
  5
2C2CA
330
265C5
100
AcDbEntity
  8
DEFPOINTS
 62
     0
 48
50.0
100
AcDbPoint
 10
5621.6
 20
5227.854429179775
 30
0.0
  0
POINT
  5
2C2CB
330
265C5
100
AcDbEntity
  8
DEFPOINTS
 62
     0
 48
50.0
100
AcDbPoint
 10
5168.600000000001
 20
5302.854429179785
 30
0.0
  0
POINT
  5
2C2CC
330
265C5
100
AcDbEntity
  8
DEFPOINTS
 62
     0
 48
50.0
100
AcDbPoint
 10
5168.600000000001
 20
4743.009414837593
 30
0.0
  0
ENDBLK
  5
265CF
330
265C5
100
AcDbEntity
  8
0
 48
50.0
100
AcDbBlockEnd
  0
BLOCK
  5
26F0D
330
26F01
100
AcDbEntity
  8
0
 48
50.0
100
AcDbBlockBegin
  2
*D2
 70
     1
 10
0.0
 20
0.0
 30
0.0
  3
*D2
  1

  0
LINE
  5
2C2B9
330
26F01
100
AcDbEntity
  8
寸法
 62
     0
 48
50.0
370
    -2
100
AcDbLine
 10
7796.600000000001
 20
5227.854429179808
 30
0.0
 11
8103.202780124334
 21
5227.854429179808
 31
0.0
  0
LINE
  5
2C2BA
330
26F01
100
AcDbEntity
  8
寸法
 62
     0
 48
50.0
370
    -2
100
AcDbLine
 10
7796.600000000009
 20
5302.854429179809
 30
0.0
 11
8103.202780124334
 21
5302.854429179809
 31
0.0
  0
LINE
  5
2C2BB
330
26F01
100
AcDbEntity
  8
寸法
 62
     0
 48
50.0
370
    -2
100
AcDbLine
 10
8043.202780124335
 20
5302.854429179809
 30
0.0
 11
8043.202780124335
 21
5402.854429179809
 31
0.0
  0
LINE
  5
2C2BC
330
26F01
100
AcDbEntity
  8
寸法
 62
     0
 48
50.0
370
    -2
100
AcDbLine
 10
8043.202780124335
 20
5227.854429179808
 30
0.0
 11
8043.202780124335
 21
4360.883866431328
 31
0.0
  0
LINE
  5
2C2BD
330
26F01
100
AcDbEntity
  8
寸法
 62
     0
 48
50.0
370
    -2
100
AcDbLine
 10
8043.202780124335
 20
5302.854429179809
 30
0.0
 11
8043.202780124335
 21
5227.854429179808
 31
0.0
  0
INSERT
  5
2C2BE
330
26F01
100
AcDbEntity
  8
寸法
 62
     0
 48
50.0
370
    -2
100
AcDbBlockReference
  2
_DOTSMALL
 10
8043.202780124335
 20
5302.854429179809
 30
0.0
 41
100.0
 42
100.0
 43
100.0
 50
270.0
  0
INSERT
  5
2C2BF
330
26F01
100
AcDbEntity
  8
寸法
 62
     0
 48
50.0
370
    -2
100
AcDbBlockReference
  2
_DOTSMALL
 10
8043.202780124335
 20
5227.854429179808
 30
0.0
 41
100.0
 42
100.0
 43
100.0
 50
90.0
  0
MTEXT
  5
2C2C0
330
26F01
100
AcDbEntity
  8
寸法
 62
     7
 48
50.0
100
AcDbMText
 10
7943.202780124334
 20
4694.369147805569
 30
0.0
 40
120.0
 41
0.0
 71
     5
 72
     1
  1
\A1;扉の出75
  7
STYLE1
 11
0.0000000000000001
 21
1.0
 31
0.0
 73
     1
 44
1.0
1001
ACAD
1000
MTEXTBEGIN
1070
    73
1070
     1
1070
    44
1040
1.0
1070
    74
1070
     0
1000
MTEXTEND
  0
POINT
  5
2C2C1
330
26F01
100
AcDbEntity
  8
DEFPOINTS
 62
     0
 48
50.0
100
AcDbPoint
 10
7776.600000000001
 20
5227.854429179808
 30
0.0
  0
POINT
  5
2C2C2
330
26F01
100
AcDbEntity
  8
DEFPOINTS
 62
     0
 48
50.0
100
AcDbPoint
 10
7776.600000000009
 20
5302.854429179809
 30
0.0
  0
POINT
  5
2C2C3
330
26F01
100
AcDbEntity
  8
DEFPOINTS
 62
     0
 48
50.0
100
AcDbPoint
 10
8043.202780124335
 20
5302.854429179809
 30
0.0
  0
ENDBLK
  5
26F0E
330
26F01
100
AcDbEntity
  8
0
 48
50.0
100
AcDbBlockEnd
  0
BLOCK
  5
26F27
330
26F1B
100
AcDbEntity
  8
0
 48
50.0
100
AcDbBlockBegin
  2
*D3
 70
     1
 10
0.0
 20
0.0
 30
0.0
  3
*D3
  1

  0
LINE
  5
2C2AE
330
26F1B
100
AcDbEntity
  8
寸法
 62
     0
 48
50.0
370
    -2
100
AcDbLine
 10
4652.657733986178
 20
8857.854429179788
 30
0.0
 11
4367.164931848213
 21
8857.854429179788
 31
0.0
  0
LINE
  5
2C2AF
330
26F1B
100
AcDbEntity
  8
寸法
 62
     0
 48
50.0
370
    -2
100
AcDbLine
 10
5148.600000000002
 20
8782.854429179783
 30
0.0
 11
4367.164931848213
 21
8782.854429179783
 31
0.0
  0
LINE
  5
2C2B0
330
26F1B
100
AcDbEntity
  8
寸法
 62
     0
 48
50.0
370
    -2
100
AcDbLine
 10
4427.164931848213
 20
8857.854429179788
 30
0.0
 11
4427.164931848213
 21
8957.854429179787
 31
0.0
  0
LINE
  5
2C2B1
330
26F1B
100
AcDbEntity
  8
寸法
 62
     0
 48
50.0
370
    -2
100
AcDbLine
 10
4427.164931848213
 20
8782.854429179783
 30
0.0
 11
4427.164931848213
 21
8682.854429179782
 31
0.0
  0
LINE
  5
2C2B2
330
26F1B
100
AcDbEntity
  8
寸法
 62
     0
 48
50.0
370
    -2
100
AcDbLine
 10
4427.164931848213
 20
8857.854429179788
 30
0.0
 11
4427.164931848213
 21
8782.854429179783
 31
0.0
  0
INSERT
  5
2C2B3
330
26F1B
100
AcDbEntity
  8
寸法
 62
     0
 48
50.0
370
    -2
100
AcDbBlockReference
  2
_DOTSMALL
 10
4427.164931848213
 20
8857.854429179788
 30
0.0
 41
100.0
 42
100.0
 43
100.0
 50
270.0
  0
INSERT
  5
2C2B4
330
26F1B
100
AcDbEntity
  8
寸法
 62
     0
 48
50.0
370
    -2
100
AcDbBlockReference
  2
_DOTSMALL
 10
4427.164931848213
 20
8782.854429179783
 30
0.0
 41
100.0
 42
100.0
 43
100.0
 50
90.0
  0
MTEXT
  5
2C2B5
330
26F1B
100
AcDbEntity
  8
寸法
 62
     7
 48
50.0
100
AcDbMText
 10
4327.164931848212
 20
8820.354429179788
 30
0.0
 40
120.0
 41
0.0
 71
     5
 72
     1
  1
\A1;c
  7
STYLE1
 11
0.0000000000000001
 21
1.0
 31
0.0
 73
     1
 44
1.0
1001
ACAD
1000
MTEXTBEGIN
1070
    73
1070
     1
1070
    44
1040
1.0
1070
    74
1070
     0
1000
MTEXTEND
  0
POINT
  5
2C2B6
330
26F1B
100
AcDbEntity
  8
DEFPOINTS
 62
     0
 48
50.0
100
AcDbPoint
 10
4672.657733986179
 20
8857.854429179788
 30
0.0
  0
POINT
  5
2C2B7
330
26F1B
100
AcDbEntity
  8
DEFPOINTS
 62
     0
 48
50.0
100
AcDbPoint
 10
5168.600000000002
 20
8782.854429179783
 30
0.0
  0
POINT
  5
2C2B8
330
26F1B
100
AcDbEntity
  8
DEFPOINTS
 62
     0
 48
50.0
100
AcDbPoint
 10
4427.164931848213
 20
8782.854429179783
 30
0.0
  0
ENDBLK
  5
26F28
330
26F1B
100
AcDbEntity
  8
0
 48
50.0
100
AcDbBlockEnd
  0
BLOCK
  5
26F4C
330
26F40
100
AcDbEntity
  8
0
 48
50.0
100
AcDbBlockBegin
  2
*D4
 70
     1
 10
0.0
 20
0.0
 30
0.0
  3
*D4
  1

  0
LINE
  5
2C2A3
330
26F40
100
AcDbEntity
  8
寸法
 62
     0
 48
50.0
370
    -2
100
AcDbLine
 10
5155.050294581425
 20
5302.854429179785
 30
0.0
 11
4367.16493184821
 21
5302.854429179785
 31
0.0
  0
LINE
  5
2C2A4
330
26F40
100
AcDbEntity
  8
寸法
 62
     0
 48
50.0
370
    -2
100
AcDbLine
 10
4652.657733986178
 20
5247.854429179806
 30
0.0
 11
4367.16493184821
 21
5247.854429179806
 31
0.0
  0
LINE
  5
2C2A5
330
26F40
100
AcDbEntity
  8
寸法
 62
     0
 48
50.0
370
    -2
100
AcDbLine
 10
4427.16493184821
 20
5302.854429179785
 30
0.0
 11
4427.16493184821
 21
5402.854429179786
 31
0.0
  0
LINE
  5
2C2A6
330
26F40
100
AcDbEntity
  8
寸法
 62
     0
 48
50.0
370
    -2
100
AcDbLine
 10
4427.16493184821
 20
5247.854429179806
 30
0.0
 11
4427.16493184821
 21
5147.854429179806
 31
0.0
  0
LINE
  5
2C2A7
330
26F40
100
AcDbEntity
  8
寸法
 62
     0
 48
50.0
370
    -2
100
AcDbLine
 10
4427.16493184821
 20
5302.854429179785
 30
0.0
 11
4427.16493184821
 21
5247.854429179806
 31
0.0
  0
INSERT
  5
2C2A8
330
26F40
100
AcDbEntity
  8
寸法
 62
     0
 48
50.0
370
    -2
100
AcDbBlockReference
  2
_DOTSMALL
 10
4427.16493184821
 20
5302.854429179785
 30
0.0
 41
100.0
 42
100.0
 43
100.0
 50
270.0
  0
INSERT
  5
2C2A9
330
26F40
100
AcDbEntity
  8
寸法
 62
     0
 48
50.0
370
    -2
100
AcDbBlockReference
  2
_DOTSMALL
 10
4427.16493184821
 20
5247.854429179806
 30
0.0
 41
100.0
 42
100.0
 43
100.0
 50
90.0
  0
MTEXT
  5
2C2AA
330
26F40
100
AcDbEntity
  8
寸法
 62
     7
 48
50.0
100
AcDbMText
 10
4327.164931848209
 20
5275.354429179797
 30
0.0
 40
120.0
 41
0.0
 71
     5
 72
     1
  1
\A1;b
  7
STYLE1
 11
0.0000000000000001
 21
1.0
 31
0.0
 73
     1
 44
1.0
1001
ACAD
1000
MTEXTBEGIN
1070
    73
1070
     1
1070
    44
1040
1.0
1070
    74
1070
     0
1000
MTEXTEND
  0
POINT
  5
2C2AB
330
26F40
100
AcDbEntity
  8
DEFPOINTS
 62
     0
 48
50.0
100
AcDbPoint
 10
5175.050294581424
 20
5302.854429179785
 30
0.0
  0
POINT
  5
2C2AC
330
26F40
100
AcDbEntity
  8
DEFPOINTS
 62
     0
 48
50.0
100
AcDbPoint
 10
4672.657733986179
 20
5247.854429179806
 30
0.0
  0
POINT
  5
2C2AD
330
26F40
100
AcDbEntity
  8
DEFPOINTS
 62
     0
 48
50.0
100
AcDbPoint
 10
4427.16493184821
 20
5247.854429179806
 30
0.0
  0
ENDBLK
  5
26F4D
330
26F40
100
AcDbEntity
  8
0
 48
50.0
100
AcDbBlockEnd
  0
BLOCK
  5
26F71
330
26F65
100
AcDbEntity
  8
0
 48
50.0
100
AcDbBlockBegin
  2
*D5
 70
     1
 10
0.0
 20
0.0
 30
0.0
  3
*D5
  1

  0
LINE
  5
2C298
330
26F65
100
AcDbEntity
  8
寸法
 62
     0
 48
50.0
370
    -2
100
AcDbLine
 10
11278.6
 20
8802.854429179783
 30
0.0
 11
11278.6
 21
9801.074751238708
 31
0.0
  0
LINE
  5
2C299
330
26F65
100
AcDbEntity
  8
寸法
 62
     0
 48
50.0
370
    -2
100
AcDbLine
 10
11323.6
 20
9548.614055721865
 30
0.0
 11
11323.6
 21
9801.074751238708
 31
0.0
  0
LINE
  5
2C29A
330
26F65
100
AcDbEntity
  8
寸法
 62
     0
 48
50.0
370
    -2
100
AcDbLine
 10
11278.6
 20
9741.074751238706
 30
0.0
 11
11178.6
 21
9741.074751238706
 31
0.0
  0
LINE
  5
2C29B
330
26F65
100
AcDbEntity
  8
寸法
 62
     0
 48
50.0
370
    -2
100
AcDbLine
 10
11323.6
 20
9741.074751238706
 30
0.0
 11
11660.94924240491
 21
9741.074751238706
 31
0.0
  0
LINE
  5
2C29C
330
26F65
100
AcDbEntity
  8
寸法
 62
     0
 48
50.0
370
    -2
100
AcDbLine
 10
11278.6
 20
9741.074751238706
 30
0.0
 11
11323.6
 21
9741.074751238706
 31
0.0
  0
INSERT
  5
2C29D
330
26F65
100
AcDbEntity
  8
寸法
 62
     0
 48
50.0
370
    -2
100
AcDbBlockReference
  2
_DOTSMALL
 10
11278.6
 20
9741.074751238706
 30
0.0
 41
100.0
 42
100.0
 43
100.0
  0
INSERT
  5
2C29E
330
26F65
100
AcDbEntity
  8
寸法
 62
     0
 48
50.0
370
    -2
100
AcDbBlockReference
  2
_DOTSMALL
 10
11323.6
 20
9741.074751238706
 30
0.0
 41
100.0
 42
100.0
 43
100.0
 50
180.0
  0
MTEXT
  5
2C29F
330
26F65
100
AcDbEntity
  8
寸法
 62
     7
 48
50.0
100
AcDbMText
 10
11594.77462120245
 20
9841.074751238707
 30
0.0
 40
120.0
 41
0.0
 71
     5
 72
     1
  1
\A1;a
  7
STYLE1
 73
     1
 44
1.0
1001
ACAD
1000
MTEXTBEGIN
1070
    73
1070
     1
1070
    44
1040
1.0
1070
    74
1070
     0
1000
MTEXTEND
  0
POINT
  5
2C2A0
330
26F65
100
AcDbEntity
  8
DEFPOINTS
 62
     0
 48
50.0
100
AcDbPoint
 10
11278.6
 20
8782.854429179783
 30
0.0
  0
POINT
  5
2C2A1
330
26F65
100
AcDbEntity
  8
DEFPOINTS
 62
     0
 48
50.0
100
AcDbPoint
 10
11323.6
 20
9528.614055721865
 30
0.0
  0
POINT
  5
2C2A2
330
26F65
100
AcDbEntity
  8
DEFPOINTS
 62
     0
 48
50.0
100
AcDbPoint
 10
11323.6
 20
9741.074751238706
 30
0.0
  0
ENDBLK
  5
26F72
330
26F65
100
AcDbEntity
  8
0
 48
50.0
100
AcDbBlockEnd
  0
BLOCK
  5
26F8B
330
26F7F
100
AcDbEntity
  8
0
 48
50.0
100
AcDbBlockBegin
  2
*D6
 70
     1
 10
0.0
 20
0.0
 30
0.0
  3
*D6
  1

  0
LINE
  5
2C28D
330
26F7F
100
AcDbEntity
  8
寸法
 62
     0
 48
50.0
370
    -2
100
AcDbLine
 10
5123.600000000006
 20
9548.614055721865
 30
0.0
 11
5123.600000000006
 21
9801.074751238708
 31
0.0
  0
LINE
  5
2C28E
330
26F7F
100
AcDbEntity
  8
寸法
 62
     0
 48
50.0
370
    -2
100
AcDbLine
 10
5168.600000000001
 20
8802.854429179783
 30
0.0
 11
5168.600000000001
 21
9801.074751238708
 31
0.0
  0
LINE
  5
2C28F
330
26F7F
100
AcDbEntity
  8
寸法
 62
     0
 48
50.0
370
    -2
100
AcDbLine
 10
5168.600000000001
 20
9741.074751238706
 30
0.0
 11
5268.600000000001
 21
9741.074751238706
 31
0.0
  0
LINE
  5
2C290
330
26F7F
100
AcDbEntity
  8
寸法
 62
     0
 48
50.0
370
    -2
100
AcDbLine
 10
5123.600000000006
 20
9741.074751238706
 30
0.0
 11
4786.250757595083
 21
9741.074751238706
 31
0.0
  0
LINE
  5
2C291
330
26F7F
100
AcDbEntity
  8
寸法
 62
     0
 48
50.0
370
    -2
100
AcDbLine
 10
5168.600000000001
 20
9741.074751238706
 30
0.0
 11
5123.600000000006
 21
9741.074751238706
 31
0.0
  0
INSERT
  5
2C292
330
26F7F
100
AcDbEntity
  8
寸法
 62
     0
 48
50.0
370
    -2
100
AcDbBlockReference
  2
_DOTSMALL
 10
5168.600000000001
 20
9741.074751238706
 30
0.0
 41
100.0
 42
100.0
 43
100.0
 50
180.0
  0
INSERT
  5
2C293
330
26F7F
100
AcDbEntity
  8
寸法
 62
     0
 48
50.0
370
    -2
100
AcDbBlockReference
  2
_DOTSMALL
 10
5123.600000000006
 20
9741.074751238706
 30
0.0
 41
100.0
 42
100.0
 43
100.0
  0
MTEXT
  5
2C294
330
26F7F
100
AcDbEntity
  8
寸法
 62
     7
 48
50.0
100
AcDbMText
 10
4852.425378797541
 20
9841.074751238707
 30
0.0
 40
120.0
 41
0.0
 71
     5
 72
     1
  1
\A1;a
  7
STYLE1
 73
     1
 44
1.0
1001
ACAD
1000
MTEXTBEGIN
1070
    73
1070
     1
1070
    44
1040
1.0
1070
    74
1070
     0
1000
MTEXTEND
  0
POINT
  5
2C295
330
26F7F
100
AcDbEntity
  8
DEFPOINTS
 62
     0
 48
50.0
100
AcDbPoint
 10
5123.600000000006
 20
9528.614055721865
 30
0.0
  0
POINT
  5
2C296
330
26F7F
100
AcDbEntity
  8
DEFPOINTS
 62
     0
 48
50.0
100
AcDbPoint
 10
5168.600000000001
 20
8782.854429179783
 30
0.0
  0
POINT
  5
2C297
330
26F7F
100
AcDbEntity
  8
DEFPOINTS
 62
     0
 48
50.0
100
AcDbPoint
 10
5168.600000000001
 20
9741.074751238706
 30
0.0
  0
ENDBLK
  5
26F8C
330
26F7F
100
AcDbEntity
  8
0
 48
50.0
100
AcDbBlockEnd
  0
BLOCK
  5
2702B
330
2701F
100
AcDbEntity
  8
0
 48
50.0
100
AcDbBlockBegin
  2
*D7
 70
     1
 10
0.0
 20
0.0
 30
0.0
  3
*D7
  1

  0
LINE
  5
2C283
330
2701F
100
AcDbEntity
  8
寸法
 62
     0
 48
50.0
370
    -2
100
AcDbLine
 10
5641.6
 20
5227.854429179775
 30
0.0
 11
5949.18320630424
 21
5227.854429179775
 31
0.0
  0
LINE
  5
2C284
330
2701F
100
AcDbEntity
  8
寸法
 62
     0
 48
50.0
370
    -2
100
AcDbLine
 10
5641.6
 20
5422.854429179789
 30
0.0
 11
5949.18320630424
 21
5422.854429179789
 31
0.0
  0
LINE
  5
2C285
330
2701F
100
AcDbEntity
  8
寸法
 62
     0
 48
50.0
370
    -2
100
AcDbLine
 10
5889.18320630424
 20
5422.854429179789
 30
0.0
 11
5889.18320630424
 21
5227.854429179775
 31
0.0
  0
LINE
  5
2C286
330
2701F
100
AcDbEntity
  8
寸法
 62
     0
 48
50.0
370
    -2
100
AcDbLine
 10
5889.18320630424
 20
5227.854429179775
 30
0.0
 11
5889.18320630424
 21
4850.464546771983
 31
0.0
  0
INSERT
  5
2C287
330
2701F
100
AcDbEntity
  8
寸法
 62
     0
 48
50.0
370
    -2
100
AcDbBlockReference
  2
_DOTSMALL
 10
5889.18320630424
 20
5422.854429179789
 30
0.0
 41
100.0
 42
100.0
 43
100.0
 50
90.0
  0
INSERT
  5
2C288
330
2701F
100
AcDbEntity
  8
寸法
 62
     0
 48
50.0
370
    -2
100
AcDbBlockReference
  2
_DOTSMALL
 10
5889.18320630424
 20
5227.854429179775
 30
0.0
 41
100.0
 42
100.0
 43
100.0
 50
270.0
  0
MTEXT
  5
2C289
330
2701F
100
AcDbEntity
  8
寸法
 62
     7
 48
50.0
100
AcDbMText
 10
5789.183206304239
 20
4989.15948797588
 30
0.0
 40
120.0
 41
0.0
 71
     5
 72
     1
  1
\A1;195
  7
STYLE1
 11
0.0000000000000001
 21
1.0
 31
0.0
 73
     1
 44
1.0
1001
ACAD
1000
MTEXTBEGIN
1070
    73
1070
     1
1070
    44
1040
1.0
1070
    74
1070
     0
1000
MTEXTEND
  0
POINT
  5
2C28A
330
2701F
100
AcDbEntity
  8
DEFPOINTS
 62
     0
 48
50.0
100
AcDbPoint
 10
5621.6
 20
5227.854429179775
 30
0.0
  0
POINT
  5
2C28B
330
2701F
100
AcDbEntity
  8
DEFPOINTS
 62
     0
 48
50.0
100
AcDbPoint
 10
5621.6
 20
5422.854429179789
 30
0.0
  0
POINT
  5
2C28C
330
2701F
100
AcDbEntity
  8
DEFPOINTS
 62
     0
 48
50.0
100
AcDbPoint
 10
5889.18320630424
 20
5422.854429179789
 30
0.0
  0
ENDBLK
  5
2702C
330
2701F
100
AcDbEntity
  8
0
 48
50.0
100
AcDbBlockEnd
  0
BLOCK
  5
284FF
330
284F6
100
AcDbEntity
  8
0
 48
50.0
100
AcDbBlockBegin
  2
*D8
 70
     1
 10
0.0
 20
0.0
 30
0.0
  3
*D8
  1

  0
LINE
  5
2C27A
330
284F6
100
AcDbEntity
  8
寸法
 62
     0
 48
50.0
370
    -2
100
AcDbLine
 10
11155.6
 20
8729.854429179784
 30
0.0
 11
11155.6
 21
9588.614055721867
 31
0.0
  0
LINE
  5
2C27B
330
284F6
100
AcDbEntity
  8
寸法
 62
     0
 48
50.0
370
    -2
100
AcDbLine
 10
8105.6
 20
8729.854429179784
 30
0.0
 11
8105.6
 21
9588.614055721867
 31
0.0
  0
LINE
  5
2C27C
330
284F6
100
AcDbEntity
  8
寸法
 62
     0
 48
50.0
370
    -2
100
AcDbLine
 10
11155.6
 20
9528.614055721867
 30
0.0
 11
8105.6
 21
9528.614055721867
 31
0.0
  0
INSERT
  5
2C27D
330
284F6
100
AcDbEntity
  8
寸法
 62
     0
 48
50.0
370
    -2
100
AcDbBlockReference
  2
_DOTSMALL
 10
11155.6
 20
9528.614055721867
 30
0.0
 41
100.0
 42
100.0
 43
100.0
  0
INSERT
  5
2C27E
330
284F6
100
AcDbEntity
  8
寸法
 62
     0
 48
50.0
370
    -2
100
AcDbBlockReference
  2
_DOTSMALL
 10
8105.6
 20
9528.614055721867
 30
0.0
 41
100.0
 42
100.0
 43
100.0
 50
180.0
  0
MTEXT
  5
2C27F
330
284F6
100
AcDbEntity
  8
寸法
 62
     7
 48
50.0
100
AcDbMText
 10
9630.600000000001
 20
9628.614055721868
 30
0.0
 40
120.0
 41
0.0
 71
     5
 72
     1
  1
\A1;3050
  7
STYLE1
 73
     1
 44
1.0
1001
ACAD
1000
MTEXTBEGIN
1070
    73
1070
     1
1070
    44
1040
1.0
1070
    74
1070
     0
1000
MTEXTEND
  0
POINT
  5
2C280
330
284F6
100
AcDbEntity
  8
DEFPOINTS
 62
     0
 48
50.0
100
AcDbPoint
 10
11155.6
 20
8709.854429179785
 30
0.0
  0
POINT
  5
2C281
330
284F6
100
AcDbEntity
  8
DEFPOINTS
 62
     0
 48
50.0
100
AcDbPoint
 10
8105.6
 20
8709.854429179785
 30
0.0
  0
POINT
  5
2C282
330
284F6
100
AcDbEntity
  8
DEFPOINTS
 62
     0
 48
50.0
100
AcDbPoint
 10
8105.6
 20
9528.614055721867
 30
0.0
  0
ENDBLK
  5
28500
330
284F6
100
AcDbEntity
  8
0
 48
50.0
100
AcDbBlockEnd
  0
BLOCK
  5
2850C
330
28501
100
AcDbEntity
  8
0
 48
50.0
100
AcDbBlockBegin
  2
*D9
 70
     1
 10
0.0
 20
0.0
 30
0.0
  3
*D9
  1

  0
LINE
  5
2C270
330
28501
100
AcDbEntity
  8
寸法
 62
     0
 48
50.0
370
    -2
100
AcDbLine
 10
8255.600000000001
 20
5302.854429179812
 30
0.0
 11
8730.144386142111
 21
5302.854429179812
 31
0.0
  0
LINE
  5
2C271
330
28501
100
AcDbEntity
  8
寸法
 62
     0
 48
50.0
370
    -2
100
AcDbLine
 10
8255.600000000001
 20
5422.854429179793
 30
0.0
 11
8730.144386142111
 21
5422.854429179793
 31
0.0
  0
LINE
  5
2C272
330
28501
100
AcDbEntity
  8
寸法
 62
     0
 48
50.0
370
    -2
100
AcDbLine
 10
8670.14438614211
 20
5422.854429179793
 30
0.0
 11
8670.14438614211
 21
5302.854429179812
 31
0.0
  0
LINE
  5
2C273
330
28501
100
AcDbEntity
  8
寸法
 62
     0
 48
50.0
370
    -2
100
AcDbLine
 10
8670.14438614211
 20
5302.854429179812
 30
0.0
 11
8670.14438614211
 21
4843.975111742209
 31
0.0
  0
INSERT
  5
2C274
330
28501
100
AcDbEntity
  8
寸法
 62
     0
 48
50.0
370
    -2
100
AcDbBlockReference
  2
_DOTSMALL
 10
8670.14438614211
 20
5422.854429179793
 30
0.0
 41
100.0
 42
100.0
 43
100.0
 50
90.0
  0
INSERT
  5
2C275
330
28501
100
AcDbEntity
  8
寸法
 62
     0
 48
50.0
370
    -2
100
AcDbBlockReference
  2
_DOTSMALL
 10
8670.14438614211
 20
5302.854429179812
 30
0.0
 41
100.0
 42
100.0
 43
100.0
 50
270.0
  0
MTEXT
  5
2C276
330
28501
100
AcDbEntity
  8
寸法
 62
     7
 48
50.0
100
AcDbMText
 10
8570.132575118487
 20
4980.022355836698
 30
0.0
 40
120.0
 41
0.0
 71
     5
 72
     1
  1
\A1;120
  7
STYLE1
 11
0.0000000000000001
 21
1.0
 31
0.0
 73
     1
 44
1.0
1001
ACAD
1000
MTEXTBEGIN
1070
    73
1070
     1
1070
    44
1040
1.0
1070
    74
1070
     0
1000
MTEXTEND
  0
POINT
  5
2C277
330
28501
100
AcDbEntity
  8
DEFPOINTS
 62
     0
 48
50.0
100
AcDbPoint
 10
8235.600000000001
 20
5302.854429179812
 30
0.0
  0
POINT
  5
2C278
330
28501
100
AcDbEntity
  8
DEFPOINTS
 62
     0
 48
50.0
100
AcDbPoint
 10
8235.600000000001
 20
5422.854429179793
 30
0.0
  0
POINT
  5
2C279
330
28501
100
AcDbEntity
  8
DEFPOINTS
 62
     0
 48
50.0
100
AcDbPoint
 10
8670.14438614211
 20
5422.854429179793
 30
0.0
  0
ENDBLK
  5
2850D
330
28501
100
AcDbEntity
  8
0
 48
50.0
100
AcDbBlockEnd
  0
BLOCK
  5
28519
330
2850E
100
AcDbEntity
  8
0
 48
50.0
100
AcDbBlockBegin
  2
*D10
 70
     1
 10
0.0
 20
0.0
 30
0.0
  3
*D10
  1

  0
LINE
  5
2C266
330
2850E
100
AcDbEntity
  8
寸法
 62
     0
 48
50.0
370
    -2
100
AcDbLine
 10
8255.600000000001
 20
5422.854429179793
 30
0.0
 11
8730.144386142111
 21
5422.854429179793
 31
0.0
  0
LINE
  5
2C267
330
2850E
100
AcDbEntity
  8
寸法
 62
     0
 48
50.0
370
    -2
100
AcDbLine
 10
8255.600000000001
 20
5532.854429179804
 30
0.0
 11
8730.144386142111
 21
5532.854429179804
 31
0.0
  0
LINE
  5
2C268
330
2850E
100
AcDbEntity
  8
寸法
 62
     0
 48
50.0
370
    -2
100
AcDbLine
 10
8670.14438614211
 20
5422.854429179793
 30
0.0
 11
8670.14438614211
 21
5532.854429179804
 31
0.0
  0
LINE
  5
2C269
330
2850E
100
AcDbEntity
  8
寸法
 62
     0
 48
50.0
370
    -2
100
AcDbLine
 10
8670.14438614211
 20
5532.854429179804
 30
0.0
 11
8670.14438614211
 21
5892.948917368779
 31
0.0
  0
INSERT
  5
2C26A
330
2850E
100
AcDbEntity
  8
寸法
 62
     0
 48
50.0
370
    -2
100
AcDbBlockReference
  2
_DOTSMALL
 10
8670.14438614211
 20
5422.854429179793
 30
0.0
 41
100.0
 42
100.0
 43
100.0
 50
270.0
  0
INSERT
  5
2C26B
330
2850E
100
AcDbEntity
  8
寸法
 62
     0
 48
50.0
370
    -2
100
AcDbBlockReference
  2
_DOTSMALL
 10
8670.14438614211
 20
5532.854429179804
 30
0.0
 41
100.0
 42
100.0
 43
100.0
 50
90.0
  0
MTEXT
  5
2C26C
330
2850E
100
AcDbEntity
  8
寸法
 62
     7
 48
50.0
100
AcDbMText
 10
8570.144386142109
 20
5768.901673274292
 30
0.0
 40
120.0
 41
0.0
 71
     5
 72
     1
  1
\A1;110
  7
STYLE1
 11
0.0000000000000001
 21
1.0
 31
0.0
 73
     1
 44
1.0
1001
ACAD
1000
MTEXTBEGIN
1070
    73
1070
     1
1070
    44
1040
1.0
1070
    74
1070
     0
1000
MTEXTEND
  0
POINT
  5
2C26D
330
2850E
100
AcDbEntity
  8
DEFPOINTS
 62
     0
 48
50.0
100
AcDbPoint
 10
8235.600000000001
 20
5422.854429179793
 30
0.0
  0
POINT
  5
2C26E
330
2850E
100
AcDbEntity
  8
DEFPOINTS
 62
     0
 48
50.0
100
AcDbPoint
 10
8235.600000000001
 20
5532.854429179804
 30
0.0
  0
POINT
  5
2C26F
330
2850E
100
AcDbEntity
  8
DEFPOINTS
 62
     0
 48
50.0
100
AcDbPoint
 10
8670.14438614211
 20
5532.854429179804
 30
0.0
  0
ENDBLK
  5
2851A
330
2850E
100
AcDbEntity
  8
0
 48
50.0
100
AcDbBlockEnd
  0
BLOCK
  5
28524
330
2851B
100
AcDbEntity
  8
0
 48
50.0
100
AcDbBlockBegin
  2
*D11
 70
     1
 10
0.0
 20
0.0
 30
0.0
  3
*D11
  1

  0
LINE
  5
2C25D
330
2851B
100
AcDbEntity
  8
寸法
 62
     0
 48
50.0
370
    -2
100
AcDbLine
 10
9021.600000000001
 20
8117.854429179782
 30
0.0
 11
9021.600000000001
 21
9369.764194828109
 31
0.0
  0
LINE
  5
2C25E
330
2851B
100
AcDbEntity
  8
寸法
 62
     0
 48
50.0
370
    -2
100
AcDbLine
 10
8223.600000000001
 20
8172.854429179782
 30
0.0
 11
8223.600000000001
 21
9369.764194828109
 31
0.0
  0
LINE
  5
2C25F
330
2851B
100
AcDbEntity
  8
寸法
 62
     0
 48
50.0
370
    -2
100
AcDbLine
 10
9021.600000000001
 20
9309.76419482811
 30
0.0
 11
8223.600000000001
 21
9309.76419482811
 31
0.0
  0
INSERT
  5
2C260
330
2851B
100
AcDbEntity
  8
寸法
 62
     0
 48
50.0
370
    -2
100
AcDbBlockReference
  2
_DOTSMALL
 10
9021.600000000001
 20
9309.76419482811
 30
0.0
 41
100.0
 42
100.0
 43
100.0
  0
INSERT
  5
2C261
330
2851B
100
AcDbEntity
  8
寸法
 62
     0
 48
50.0
370
    -2
100
AcDbBlockReference
  2
_DOTSMALL
 10
8223.600000000001
 20
9309.76419482811
 30
0.0
 41
100.0
 42
100.0
 43
100.0
 50
180.0
  0
MTEXT
  5
2C262
330
2851B
100
AcDbEntity
  8
寸法
 62
     7
 48
50.0
100
AcDbMText
 10
8622.6
 20
9409.76419482811
 30
0.0
 40
120.0
 41
0.0
 71
     5
 72
     1
  1
\A1;798
  7
STYLE1
 73
     1
 44
1.0
1001
ACAD
1000
MTEXTBEGIN
1070
    73
1070
     1
1070
    44
1040
1.0
1070
    74
1070
     0
1000
MTEXTEND
  0
POINT
  5
2C263
330
2851B
100
AcDbEntity
  8
DEFPOINTS
 62
     0
 48
50.0
100
AcDbPoint
 10
9021.600000000001
 20
8097.854429179783
 30
0.0
  0
POINT
  5
2C264
330
2851B
100
AcDbEntity
  8
DEFPOINTS
 62
     0
 48
50.0
100
AcDbPoint
 10
8223.600000000001
 20
8152.854429179781
 30
0.0
  0
POINT
  5
2C265
330
2851B
100
AcDbEntity
  8
DEFPOINTS
 62
     0
 48
50.0
100
AcDbPoint
 10
8223.600000000001
 20
9309.76419482811
 30
0.0
  0
ENDBLK
  5
28525
330
2851B
100
AcDbEntity
  8
0
 48
50.0
100
AcDbBlockEnd
  0
BLOCK
  5
2852F
330
28526
100
AcDbEntity
  8
0
 48
50.0
100
AcDbBlockBegin
  2
*D12
 70
     1
 10
0.0
 20
0.0
 30
0.0
  3
*D12
  1

  0
LINE
  5
2C254
330
28526
100
AcDbEntity
  8
寸法
 62
     0
 48
50.0
370
    -2
100
AcDbLine
 10
5168.600000000001
 20
8802.854429179783
 30
0.0
 11
5168.600000000001
 21
9801.074751238708
 31
0.0
  0
LINE
  5
2C255
330
28526
100
AcDbEntity
  8
寸法
 62
     0
 48
50.0
370
    -2
100
AcDbLine
 10
11278.6
 20
8802.854429179783
 30
0.0
 11
11278.6
 21
9801.074751238708
 31
0.0
  0
LINE
  5
2C256
330
28526
100
AcDbEntity
  8
寸法
 62
     0
 48
50.0
370
    -2
100
AcDbLine
 10
5168.600000000001
 20
9741.074751238706
 30
0.0
 11
11278.6
 21
9741.074751238706
 31
0.0
  0
INSERT
  5
2C257
330
28526
100
AcDbEntity
  8
寸法
 62
     0
 48
50.0
370
    -2
100
AcDbBlockReference
  2
_DOTSMALL
 10
5168.600000000001
 20
9741.074751238706
 30
0.0
 41
100.0
 42
100.0
 43
100.0
 50
180.0
  0
INSERT
  5
2C258
330
28526
100
AcDbEntity
  8
寸法
 62
     0
 48
50.0
370
    -2
100
AcDbBlockReference
  2
_DOTSMALL
 10
11278.6
 20
9741.074751238706
 30
0.0
 41
100.0
 42
100.0
 43
100.0
  0
MTEXT
  5
2C259
330
28526
100
AcDbEntity
  8
寸法
 62
     7
 48
50.0
100
AcDbMText
 10
8223.600000000001
 20
9841.074751238707
 30
0.0
 40
120.0
 41
0.0
 71
     5
 72
     1
  1
\A1;6110
  7
STYLE1
 73
     1
 44
1.0
1001
ACAD
1000
MTEXTBEGIN
1070
    73
1070
     1
1070
    44
1040
1.0
1070
    74
1070
     0
1000
MTEXTEND
  0
POINT
  5
2C25A
330
28526
100
AcDbEntity
  8
DEFPOINTS
 62
     0
 48
50.0
100
AcDbPoint
 10
5168.600000000001
 20
8782.854429179783
 30
0.0
  0
POINT
  5
2C25B
330
28526
100
AcDbEntity
  8
DEFPOINTS
 62
     0
 48
50.0
100
AcDbPoint
 10
11278.6
 20
8782.854429179783
 30
0.0
  0
POINT
  5
2C25C
330
28526
100
AcDbEntity
  8
DEFPOINTS
 62
     0
 48
50.0
100
AcDbPoint
 10
11278.6
 20
9741.074751238706
 30
0.0
  0
ENDBLK
  5
28530
330
28526
100
AcDbEntity
  8
0
 48
50.0
100
AcDbBlockEnd
  0
BLOCK
  5
2853C
330
28531
100
AcDbEntity
  8
0
 48
50.0
100
AcDbBlockBegin
  2
*D13
 70
     1
 10
0.0
 20
0.0
 30
0.0
  3
*D13
  1

  0
LINE
  5
2C24A
330
28531
100
AcDbEntity
  8
寸法
 62
     0
 48
50.0
370
    -2
100
AcDbLine
 10
5221.600000000008
 20
5425.854429179786
 30
0.0
 11
4612.657733986177
 21
5425.854429179786
 31
0.0
  0
LINE
  5
2C24B
330
28531
100
AcDbEntity
  8
寸法
 62
     0
 48
50.0
370
    -2
100
AcDbLine
 10
5148.600000000001
 20
5302.854429179785
 30
0.0
 11
4612.657733986177
 21
5302.854429179785
 31
0.0
  0
LINE
  5
2C24C
330
28531
100
AcDbEntity
  8
寸法
 62
     0
 48
50.0
370
    -2
100
AcDbLine
 10
4672.657733986176
 20
5425.854429179786
 30
0.0
 11
4672.657733986176
 21
5302.854429179785
 31
0.0
  0
LINE
  5
2C24D
330
28531
100
AcDbEntity
  8
寸法
 62
     0
 48
50.0
370
    -2
100
AcDbLine
 10
4672.657733986176
 20
5302.854429179785
 30
0.0
 11
4672.657733986176
 21
4828.838198962952
 31
0.0
  0
INSERT
  5
2C24E
330
28531
100
AcDbEntity
  8
寸法
 62
     0
 48
50.0
370
    -2
100
AcDbBlockReference
  2
_DOTSMALL
 10
4672.657733986176
 20
5425.854429179786
 30
0.0
 41
100.0
 42
100.0
 43
100.0
 50
90.0
  0
INSERT
  5
2C24F
330
28531
100
AcDbEntity
  8
寸法
 62
     0
 48
50.0
370
    -2
100
AcDbBlockReference
  2
_DOTSMALL
 10
4672.657733986176
 20
5302.854429179785
 30
0.0
 41
100.0
 42
100.0
 43
100.0
 50
270.0
  0
MTEXT
  5
2C250
330
28531
100
AcDbEntity
  8
寸法
 62
     7
 48
50.0
100
AcDbMText
 10
4572.645922962554
 20
4967.323480337192
 30
0.0
 40
120.0
 41
0.0
 71
     5
 72
     1
  1
\A1;123
  7
STYLE1
 11
0.0000000000000001
 21
1.0
 31
0.0
 73
     1
 44
1.0
1001
ACAD
1000
MTEXTBEGIN
1070
    73
1070
     1
1070
    44
1040
1.0
1070
    74
1070
     0
1000
MTEXTEND
  0
POINT
  5
2C251
330
28531
100
AcDbEntity
  8
DEFPOINTS
 62
     0
 48
50.0
100
AcDbPoint
 10
5241.600000000008
 20
5425.854429179786
 30
0.0
  0
POINT
  5
2C252
330
28531
100
AcDbEntity
  8
DEFPOINTS
 62
     0
 48
50.0
100
AcDbPoint
 10
5168.600000000001
 20
5302.854429179785
 30
0.0
  0
POINT
  5
2C253
330
28531
100
AcDbEntity
  8
DEFPOINTS
 62
     0
 48
50.0
100
AcDbPoint
 10
4672.657733986176
 20
5302.854429179785
 30
0.0
  0
ENDBLK
  5
2853D
330
28531
100
AcDbEntity
  8
0
 48
50.0
100
AcDbBlockEnd
  0
BLOCK
  5
28547
330
2853E
100
AcDbEntity
  8
0
 48
50.0
100
AcDbBlockBegin
  2
*D14
 70
     1
 10
0.0
 20
0.0
 30
0.0
  3
*D14
  1

  0
LINE
  5
2C241
330
2853E
100
AcDbEntity
  8
寸法
 62
     0
 48
50.0
370
    -2
100
AcDbLine
 10
5148.600000000001
 20
8782.854429179783
 30
0.0
 11
4367.16493184821
 21
8782.854429179783
 31
0.0
  0
LINE
  5
2C242
330
2853E
100
AcDbEntity
  8
寸法
 62
     0
 48
50.0
370
    -2
100
AcDbLine
 10
5148.600000000001
 20
5302.854429179785
 30
0.0
 11
4367.164931848209
 21
5302.854429179785
 31
0.0
  0
LINE
  5
2C243
330
2853E
100
AcDbEntity
  8
寸法
 62
     0
 48
50.0
370
    -2
100
AcDbLine
 10
4427.16493184821
 20
8782.854429179783
 30
0.0
 11
4427.164931848209
 21
5302.854429179785
 31
0.0
  0
INSERT
  5
2C244
330
2853E
100
AcDbEntity
  8
寸法
 62
     0
 48
50.0
370
    -2
100
AcDbBlockReference
  2
_DOTSMALL
 10
4427.16493184821
 20
8782.854429179783
 30
0.0
 41
100.0
 42
100.0
 43
100.0
 50
90.0
  0
INSERT
  5
2C245
330
2853E
100
AcDbEntity
  8
寸法
 62
     0
 48
50.0
370
    -2
100
AcDbBlockReference
  2
_DOTSMALL
 10
4427.164931848209
 20
5302.854429179785
 30
0.0
 41
100.0
 42
100.0
 43
100.0
 50
270.0
  0
MTEXT
  5
2C246
330
2853E
100
AcDbEntity
  8
寸法
 62
     7
 48
50.0
100
AcDbMText
 10
4327.164931848209
 20
7042.854429179785
 30
0.0
 40
120.0
 41
0.0
 71
     5
 72
     1
  1
\A1;3480
  7
STYLE1
 11
0.0000000000000001
 21
1.0
 31
0.0
 73
     1
 44
1.0
1001
ACAD
1000
MTEXTBEGIN
1070
    73
1070
     1
1070
    44
1040
1.0
1070
    74
1070
     0
1000
MTEXTEND
  0
POINT
  5
2C247
330
2853E
100
AcDbEntity
  8
DEFPOINTS
 62
     0
 48
50.0
100
AcDbPoint
 10
5168.600000000001
 20
8782.854429179783
 30
0.0
  0
POINT
  5
2C248
330
2853E
100
AcDbEntity
  8
DEFPOINTS
 62
     0
 48
50.0
100
AcDbPoint
 10
5168.600000000001
 20
5302.854429179785
 30
0.0
  0
POINT
  5
2C249
330
2853E
100
AcDbEntity
  8
DEFPOINTS
 62
     0
 48
50.0
100
AcDbPoint
 10
4427.164931848209
 20
5302.854429179785
 30
0.0
  0
ENDBLK
  5
28548
330
2853E
100
AcDbEntity
  8
0
 48
50.0
100
AcDbBlockEnd
  0
BLOCK
  5
28591
330
28586
100
AcDbEntity
  8
0
 48
50.0
100
AcDbBlockBegin
  2
*D15
 70
     1
 10
0.0
 20
0.0
 30
0.0
  3
*D15
  1

  0
LINE
  5
2C237
330
28586
100
AcDbEntity
  8
寸法
 62
     0
 48
50.0
370
    -2
100
AcDbLine
 10
5291.6
 20
8729.854429179784
 30
0.0
 11
5291.6
 21
9588.614055721867
 31
0.0
  0
LINE
  5
2C238
330
28586
100
AcDbEntity
  8
寸法
 62
     0
 48
50.0
370
    -2
100
AcDbLine
 10
5168.600000000001
 20
8802.854429179783
 30
0.0
 11
5168.600000000001
 21
9588.614055721867
 31
0.0
  0
LINE
  5
2C239
330
28586
100
AcDbEntity
  8
寸法
 62
     0
 48
50.0
370
    -2
100
AcDbLine
 10
5291.6
 20
9528.614055721867
 30
0.0
 11
5168.600000000001
 21
9528.614055721867
 31
0.0
  0
LINE
  5
2C23A
330
28586
100
AcDbEntity
  8
寸法
 62
     0
 48
50.0
370
    -2
100
AcDbLine
 10
5168.600000000001
 20
9528.614055721867
 30
0.0
 11
4757.008116907962
 21
9528.614055721867
 31
0.0
  0
INSERT
  5
2C23B
330
28586
100
AcDbEntity
  8
寸法
 62
     0
 48
50.0
370
    -2
100
AcDbBlockReference
  2
_DOTSMALL
 10
5291.6
 20
9528.614055721867
 30
0.0
 41
100.0
 42
100.0
 43
100.0
  0
INSERT
  5
2C23C
330
28586
100
AcDbEntity
  8
寸法
 62
     0
 48
50.0
370
    -2
100
AcDbBlockReference
  2
_DOTSMALL
 10
5168.600000000001
 20
9528.614055721867
 30
0.0
 41
100.0
 42
100.0
 43
100.0
 50
180.0
  0
MTEXT
  5
2C23D
330
28586
100
AcDbEntity
  8
寸法
 62
     7
 48
50.0
100
AcDbMText
 10
4895.493398282201
 20
9628.62586674549
 30
0.0
 40
120.0
 41
0.0
 71
     5
 72
     1
  1
\A1;123
  7
STYLE1
 73
     1
 44
1.0
1001
ACAD
1000
MTEXTBEGIN
1070
    73
1070
     1
1070
    44
1040
1.0
1070
    74
1070
     0
1000
MTEXTEND
  0
POINT
  5
2C23E
330
28586
100
AcDbEntity
  8
DEFPOINTS
 62
     0
 48
50.0
100
AcDbPoint
 10
5291.6
 20
8709.854429179785
 30
0.0
  0
POINT
  5
2C23F
330
28586
100
AcDbEntity
  8
DEFPOINTS
 62
     0
 48
50.0
100
AcDbPoint
 10
5168.600000000001
 20
8782.854429179783
 30
0.0
  0
POINT
  5
2C240
330
28586
100
AcDbEntity
  8
DEFPOINTS
 62
     0
 48
50.0
100
AcDbPoint
 10
5168.600000000001
 20
9528.614055721867
 30
0.0
  0
ENDBLK
  5
28592
330
28586
100
AcDbEntity
  8
0
 48
50.0
100
AcDbBlockEnd
  0
BLOCK
  5
285A8
330
2859D
100
AcDbEntity
  8
0
 48
50.0
100
AcDbBlockBegin
  2
*D16
 70
     1
 10
0.0
 20
0.0
 30
0.0
  3
*D16
  1

  0
LINE
  5
2C22D
330
2859D
100
AcDbEntity
  8
寸法
 62
     0
 48
50.0
370
    -2
100
AcDbLine
 10
5148.600000000001
 20
8782.854429179783
 30
0.0
 11
4612.657733986177
 21
8782.854429179783
 31
0.0
  0
LINE
  5
2C22E
330
2859D
100
AcDbEntity
  8
寸法
 62
     0
 48
50.0
370
    -2
100
AcDbLine
 10
5221.600000000001
 20
8659.854429179786
 30
0.0
 11
4612.657733986177
 21
8659.854429179786
 31
0.0
  0
LINE
  5
2C22F
330
2859D
100
AcDbEntity
  8
寸法
 62
     0
 48
50.0
370
    -2
100
AcDbLine
 10
4672.657733986176
 20
8659.854429179786
 30
0.0
 11
4672.657733986176
 21
8782.854429179783
 31
0.0
  0
LINE
  5
2C230
330
2859D
100
AcDbEntity
  8
寸法
 62
     0
 48
50.0
370
    -2
100
AcDbLine
 10
4672.657733986176
 20
8782.854429179783
 30
0.0
 11
4672.657733986176
 21
9194.44631227182
 31
0.0
  0
INSERT
  5
2C231
330
2859D
100
AcDbEntity
  8
寸法
 62
     0
 48
50.0
370
    -2
100
AcDbBlockReference
  2
_DOTSMALL
 10
4672.657733986176
 20
8659.854429179786
 30
0.0
 41
100.0
 42
100.0
 43
100.0
 50
270.0
  0
INSERT
  5
2C232
330
2859D
100
AcDbEntity
  8
寸法
 62
     0
 48
50.0
370
    -2
100
AcDbBlockReference
  2
_DOTSMALL
 10
4672.657733986176
 20
8782.854429179783
 30
0.0
 41
100.0
 42
100.0
 43
100.0
 50
90.0
  0
MTEXT
  5
2C233
330
2859D
100
AcDbEntity
  8
寸法
 62
     7
 48
50.0
100
AcDbMText
 10
4572.645922962554
 20
9055.961030897584
 30
0.0
 40
120.0
 41
0.0
 71
     5
 72
     1
  1
\A1;123
  7
STYLE1
 11
0.0000000000000001
 21
1.0
 31
0.0
 73
     1
 44
1.0
1001
ACAD
1000
MTEXTBEGIN
1070
    73
1070
     1
1070
    44
1040
1.0
1070
    74
1070
     0
1000
MTEXTEND
  0
POINT
  5
2C234
330
2859D
100
AcDbEntity
  8
DEFPOINTS
 62
     0
 48
50.0
100
AcDbPoint
 10
5168.600000000001
 20
8782.854429179783
 30
0.0
  0
POINT
  5
2C235
330
2859D
100
AcDbEntity
  8
DEFPOINTS
 62
     0
 48
50.0
100
AcDbPoint
 10
5241.6
 20
8659.854429179786
 30
0.0
  0
POINT
  5
2C236
330
2859D
100
AcDbEntity
  8
DEFPOINTS
 62
     0
 48
50.0
100
AcDbPoint
 10
4672.657733986176
 20
8659.854429179786
 30
0.0
  0
ENDBLK
  5
285A9
330
2859D
100
AcDbEntity
  8
0
 48
50.0
100
AcDbBlockEnd
  0
BLOCK
  5
285B3
330
285AA
100
AcDbEntity
  8
0
 48
50.0
100
AcDbBlockBegin
  2
*D17
 70
     1
 10
0.0
 20
0.0
 30
0.0
  3
*D17
  1

  0
LINE
  5
2C224
330
285AA
100
AcDbEntity
  8
寸法
 62
     0
 48
50.0
370
    -2
100
AcDbLine
 10
5971.600000000002
 20
8117.854429179782
 30
0.0
 11
5971.600000000002
 21
9369.764194828109
 31
0.0
  0
LINE
  5
2C225
330
285AA
100
AcDbEntity
  8
寸法
 62
     0
 48
50.0
370
    -2
100
AcDbLine
 10
5168.600000000001
 20
8802.854429179783
 30
0.0
 11
5168.600000000001
 21
9369.764194828109
 31
0.0
  0
LINE
  5
2C226
330
285AA
100
AcDbEntity
  8
寸法
 62
     0
 48
50.0
370
    -2
100
AcDbLine
 10
5971.600000000002
 20
9309.76419482811
 30
0.0
 11
5168.600000000001
 21
9309.76419482811
 31
0.0
  0
INSERT
  5
2C227
330
285AA
100
AcDbEntity
  8
寸法
 62
     0
 48
50.0
370
    -2
100
AcDbBlockReference
  2
_DOTSMALL
 10
5971.600000000002
 20
9309.76419482811
 30
0.0
 41
100.0
 42
100.0
 43
100.0
  0
INSERT
  5
2C228
330
285AA
100
AcDbEntity
  8
寸法
 62
     0
 48
50.0
370
    -2
100
AcDbBlockReference
  2
_DOTSMALL
 10
5168.600000000001
 20
9309.76419482811
 30
0.0
 41
100.0
 42
100.0
 43
100.0
 50
180.0
  0
MTEXT
  5
2C229
330
285AA
100
AcDbEntity
  8
寸法
 62
     7
 48
50.0
100
AcDbMText
 10
5570.100000000002
 20
9409.76419482811
 30
0.0
 40
120.0
 41
0.0
 71
     5
 72
     1
  1
\A1;803
  7
STYLE1
 73
     1
 44
1.0
1001
ACAD
1000
MTEXTBEGIN
1070
    73
1070
     1
1070
    44
1040
1.0
1070
    74
1070
     0
1000
MTEXTEND
  0
POINT
  5
2C22A
330
285AA
100
AcDbEntity
  8
DEFPOINTS
 62
     0
 48
50.0
100
AcDbPoint
 10
5971.600000000002
 20
8097.854429179783
 30
0.0
  0
POINT
  5
2C22B
330
285AA
100
AcDbEntity
  8
DEFPOINTS
 62
     0
 48
50.0
100
AcDbPoint
 10
5168.600000000001
 20
8782.854429179783
 30
0.0
  0
POINT
  5
2C22C
330
285AA
100
AcDbEntity
  8
DEFPOINTS
 62
     0
 48
50.0
100
AcDbPoint
 10
5168.600000000001
 20
9309.76419482811
 30
0.0
  0
ENDBLK
  5
285B4
330
285AA
100
AcDbEntity
  8
0
 48
50.0
100
AcDbBlockEnd
  0
BLOCK
  5
285BF
330
285B5
100
AcDbEntity
  8
0
 48
50.0
100
AcDbBlockBegin
  2
*D18
 70
     1
 10
0.0
 20
0.0
 30
0.0
  3
*D18
  1

  0
LINE
  5
2C21B
330
285B5
100
AcDbEntity
  8
寸法
 62
     0
 48
50.0
370
    -2
100
AcDbLine
 10
5221.600000000001
 20
8659.854429179786
 30
0.0
 11
4612.657733986176
 21
8659.854429179786
 31
0.0
  0
LINE
  5
2C21C
330
285B5
100
AcDbEntity
  8
寸法
 62
     0
 48
50.0
370
    -2
100
AcDbLine
 10
5221.600000000008
 20
5425.854429179786
 30
0.0
 11
4612.657733986175
 21
5425.854429179786
 31
0.0
  0
LINE
  5
2C21D
330
285B5
100
AcDbEntity
  8
寸法
 62
     0
 48
50.0
370
    -2
100
AcDbLine
 10
4672.657733986176
 20
8659.854429179786
 30
0.0
 11
4672.657733986175
 21
5425.854429179786
 31
0.0
  0
INSERT
  5
2C21E
330
285B5
100
AcDbEntity
  8
寸法
 62
     0
 48
50.0
370
    -2
100
AcDbBlockReference
  2
_DOTSMALL
 10
4672.657733986176
 20
8659.854429179786
 30
0.0
 41
100.0
 42
100.0
 43
100.0
 50
90.0
  0
INSERT
  5
2C21F
330
285B5
100
AcDbEntity
  8
寸法
 62
     0
 48
50.0
370
    -2
100
AcDbBlockReference
  2
_DOTSMALL
 10
4672.657733986175
 20
5425.854429179786
 30
0.0
 41
100.0
 42
100.0
 43
100.0
 50
270.0
  0
MTEXT
  5
2C220
330
285B5
100
AcDbEntity
  8
寸法
 62
     7
 48
50.0
100
AcDbMText
 10
4572.645922962553
 20
7042.854429179787
 30
0.0
 40
120.0
 41
0.0
 71
     5
 72
     1
  1
\A1;3234
  7
STYLE1
 11
0.0000000000000001
 21
1.0
 31
0.0
 73
     1
 44
1.0
1001
ACAD
1000
MTEXTBEGIN
1070
    73
1070
     1
1070
    44
1040
1.0
1070
    74
1070
     0
1000
MTEXTEND
  0
POINT
  5
2C221
330
285B5
100
AcDbEntity
  8
DEFPOINTS
 62
     0
 48
50.0
100
AcDbPoint
 10
5241.6
 20
8659.854429179786
 30
0.0
  0
POINT
  5
2C222
330
285B5
100
AcDbEntity
  8
DEFPOINTS
 62
     0
 48
50.0
100
AcDbPoint
 10
5241.600000000008
 20
5425.854429179786
 30
0.0
  0
POINT
  5
2C223
330
285B5
100
AcDbEntity
  8
DEFPOINTS
 62
     0
 48
50.0
100
AcDbPoint
 10
4672.657733986175
 20
5425.854429179786
 30
0.0
  0
ENDBLK
  5
285C0
330
285B5
100
AcDbEntity
  8
0
 48
50.0
100
AcDbBlockEnd
  0
BLOCK
  5
285CA
330
285C1
100
AcDbEntity
  8
0
 48
50.0
100
AcDbBlockBegin
  2
*D19
 70
     1
 10
0.0
 20
0.0
 30
0.0
  3
*D19
  1

  0
LINE
  5
2C212
330
285C1
100
AcDbEntity
  8
寸法
 62
     0
 48
50.0
370
    -2
100
AcDbLine
 10
8223.600000000001
 20
8017.854429179783
 30
0.0
 11
8223.600000000001
 21
9369.764194828109
 31
0.0
  0
LINE
  5
2C213
330
285C1
100
AcDbEntity
  8
寸法
 62
     0
 48
50.0
370
    -2
100
AcDbLine
 10
7425.6
 20
8117.854429179782
 30
0.0
 11
7425.6
 21
9369.764194828109
 31
0.0
  0
LINE
  5
2C214
330
285C1
100
AcDbEntity
  8
寸法
 62
     0
 48
50.0
370
    -2
100
AcDbLine
 10
8223.600000000001
 20
9309.76419482811
 30
0.0
 11
7425.6
 21
9309.76419482811
 31
0.0
  0
INSERT
  5
2C215
330
285C1
100
AcDbEntity
  8
寸法
 62
     0
 48
50.0
370
    -2
100
AcDbBlockReference
  2
_DOTSMALL
 10
8223.600000000001
 20
9309.76419482811
 30
0.0
 41
100.0
 42
100.0
 43
100.0
  0
INSERT
  5
2C216
330
285C1
100
AcDbEntity
  8
寸法
 62
     0
 48
50.0
370
    -2
100
AcDbBlockReference
  2
_DOTSMALL
 10
7425.6
 20
9309.76419482811
 30
0.0
 41
100.0
 42
100.0
 43
100.0
 50
180.0
  0
MTEXT
  5
2C217
330
285C1
100
AcDbEntity
  8
寸法
 62
     7
 48
50.0
100
AcDbMText
 10
7824.600000000001
 20
9409.76419482811
 30
0.0
 40
120.0
 41
0.0
 71
     5
 72
     1
  1
\A1;798
  7
STYLE1
 73
     1
 44
1.0
1001
ACAD
1000
MTEXTBEGIN
1070
    73
1070
     1
1070
    44
1040
1.0
1070
    74
1070
     0
1000
MTEXTEND
  0
POINT
  5
2C218
330
285C1
100
AcDbEntity
  8
DEFPOINTS
 62
     0
 48
50.0
100
AcDbPoint
 10
8223.600000000001
 20
7997.854429179783
 30
0.0
  0
POINT
  5
2C219
330
285C1
100
AcDbEntity
  8
DEFPOINTS
 62
     0
 48
50.0
100
AcDbPoint
 10
7425.6
 20
8097.854429179783
 30
0.0
  0
POINT
  5
2C21A
330
285C1
100
AcDbEntity
  8
DEFPOINTS
 62
     0
 48
50.0
100
AcDbPoint
 10
7425.6
 20
9309.76419482811
 30
0.0
  0
ENDBLK
  5
285CB
330
285C1
100
AcDbEntity
  8
0
 48
50.0
100
AcDbBlockEnd
  0
BLOCK
  5
285D6
330
285CC
100
AcDbEntity
  8
0
 48
50.0
100
AcDbBlockBegin
  2
*D20
 70
     1
 10
0.0
 20
0.0
 30
0.0
  3
*D20
  1

  0
LINE
  5
2C209
330
285CC
100
AcDbEntity
  8
寸法
 62
     0
 48
50.0
370
    -2
100
AcDbLine
 10
7425.6
 20
8117.854429179782
 30
0.0
 11
7425.6
 21
9369.764194828109
 31
0.0
  0
LINE
  5
2C20A
330
285CC
100
AcDbEntity
  8
寸法
 62
     0
 48
50.0
370
    -2
100
AcDbLine
 10
6698.6
 20
8172.854429179782
 30
0.0
 11
6698.6
 21
9369.764194828109
 31
0.0
  0
LINE
  5
2C20B
330
285CC
100
AcDbEntity
  8
寸法
 62
     0
 48
50.0
370
    -2
100
AcDbLine
 10
7425.6
 20
9309.76419482811
 30
0.0
 11
6698.6
 21
9309.76419482811
 31
0.0
  0
INSERT
  5
2C20C
330
285CC
100
AcDbEntity
  8
寸法
 62
     0
 48
50.0
370
    -2
100
AcDbBlockReference
  2
_DOTSMALL
 10
7425.6
 20
9309.76419482811
 30
0.0
 41
100.0
 42
100.0
 43
100.0
  0
INSERT
  5
2C20D
330
285CC
100
AcDbEntity
  8
寸法
 62
     0
 48
50.0
370
    -2
100
AcDbBlockReference
  2
_DOTSMALL
 10
6698.6
 20
9309.76419482811
 30
0.0
 41
100.0
 42
100.0
 43
100.0
 50
180.0
  0
MTEXT
  5
2C20E
330
285CC
100
AcDbEntity
  8
寸法
 62
     7
 48
50.0
100
AcDbMText
 10
7062.1
 20
9409.77600585173
 30
0.0
 40
120.0
 41
0.0
 71
     5
 72
     1
  1
\A1;727
  7
STYLE1
 73
     1
 44
1.0
1001
ACAD
1000
MTEXTBEGIN
1070
    73
1070
     1
1070
    44
1040
1.0
1070
    74
1070
     0
1000
MTEXTEND
  0
POINT
  5
2C20F
330
285CC
100
AcDbEntity
  8
DEFPOINTS
 62
     0
 48
50.0
100
AcDbPoint
 10
7425.6
 20
8097.854429179783
 30
0.0
  0
POINT
  5
2C210
330
285CC
100
AcDbEntity
  8
DEFPOINTS
 62
     0
 48
50.0
100
AcDbPoint
 10
6698.6
 20
8152.854429179781
 30
0.0
  0
POINT
  5
2C211
330
285CC
100
AcDbEntity
  8
DEFPOINTS
 62
     0
 48
50.0
100
AcDbPoint
 10
6698.6
 20
9309.76419482811
 30
0.0
  0
ENDBLK
  5
285D7
330
285CC
100
AcDbEntity
  8
0
 48
50.0
100
AcDbBlockEnd
  0
BLOCK
  5
285E3
330
285D8
100
AcDbEntity
  8
0
 48
50.0
100
AcDbBlockBegin
  2
*D21
 70
     1
 10
0.0
 20
0.0
 30
0.0
  3
*D21
  1

  0
LINE
  5
2C1FF
330
285D8
100
AcDbEntity
  8
寸法
 62
     0
 48
50.0
370
    -2
100
AcDbLine
 10
5418.600000000001
 20
8662.85442917978
 30
0.0
 11
5675.307249876098
 21
8662.85442917978
 31
0.0
  0
LINE
  5
2C200
330
285D8
100
AcDbEntity
  8
寸法
 62
     0
 48
50.0
370
    -2
100
AcDbLine
 10
5418.600000000002
 20
8782.854429179783
 30
0.0
 11
5675.307249876098
 21
8782.854429179783
 31
0.0
  0
LINE
  5
2C201
330
285D8
100
AcDbEntity
  8
寸法
 62
     0
 48
50.0
370
    -2
100
AcDbLine
 10
5615.307249876098
 20
8662.85442917978
 30
0.0
 11
5615.307249876098
 21
8782.854429179783
 31
0.0
  0
LINE
  5
2C202
330
285D8
100
AcDbEntity
  8
寸法
 62
     0
 48
50.0
370
    -2
100
AcDbLine
 10
5615.307249876098
 20
8782.854429179783
 30
0.0
 11
5615.307249876098
 21
9196.985216547158
 31
0.0
  0
INSERT
  5
2C203
330
285D8
100
AcDbEntity
  8
寸法
 62
     0
 48
50.0
370
    -2
100
AcDbBlockReference
  2
_DOTSMALL
 10
5615.307249876098
 20
8662.85442917978
 30
0.0
 41
100.0
 42
100.0
 43
100.0
 50
270.0
  0
INSERT
  5
2C204
330
285D8
100
AcDbEntity
  8
寸法
 62
     0
 48
50.0
370
    -2
100
AcDbBlockReference
  2
_DOTSMALL
 10
5615.307249876098
 20
8782.854429179783
 30
0.0
 41
100.0
 42
100.0
 43
100.0
 50
90.0
  0
MTEXT
  5
2C205
330
285D8
100
AcDbEntity
  8
寸法
 62
     7
 48
50.0
100
AcDbMText
 10
5515.295438852476
 20
9060.937972452672
 30
0.0
 40
120.0
 41
0.0
 71
     5
 72
     1
  1
\A1;120
  7
STYLE1
 11
0.0000000000000001
 21
1.0
 31
0.0
 73
     1
 44
1.0
1001
ACAD
1000
MTEXTBEGIN
1070
    73
1070
     1
1070
    44
1040
1.0
1070
    74
1070
     0
1000
MTEXTEND
  0
POINT
  5
2C206
330
285D8
100
AcDbEntity
  8
DEFPOINTS
 62
     0
 48
50.0
100
AcDbPoint
 10
5398.6
 20
8662.85442917978
 30
0.0
  0
POINT
  5
2C207
330
285D8
100
AcDbEntity
  8
DEFPOINTS
 62
     0
 48
50.0
100
AcDbPoint
 10
5398.600000000002
 20
8782.854429179783
 30
0.0
  0
POINT
  5
2C208
330
285D8
100
AcDbEntity
  8
DEFPOINTS
 62
     0
 48
50.0
100
AcDbPoint
 10
5615.307249876098
 20
8782.854429179783
 30
0.0
  0
ENDBLK
  5
285E4
330
285D8
100
AcDbEntity
  8
0
 48
50.0
100
AcDbBlockEnd
  0
BLOCK
  5
285EF
330
285E5
100
AcDbEntity
  8
0
 48
50.0
100
AcDbBlockBegin
  2
*D22
 70
     1
 10
0.0
 20
0.0
 30
0.0
  3
*D22
  1

  0
LINE
  5
2C1F6
330
285E5
100
AcDbEntity
  8
寸法
 62
     0
 48
50.0
370
    -2
100
AcDbLine
 10
8105.6
 20
8729.854429179784
 30
0.0
 11
8105.6
 21
9588.614055721867
 31
0.0
  0
LINE
  5
2C1F7
330
285E5
100
AcDbEntity
  8
寸法
 62
     0
 48
50.0
370
    -2
100
AcDbLine
 10
5291.6
 20
8729.854429179784
 30
0.0
 11
5291.6
 21
9588.614055721867
 31
0.0
  0
LINE
  5
2C1F8
330
285E5
100
AcDbEntity
  8
寸法
 62
     0
 48
50.0
370
    -2
100
AcDbLine
 10
8105.6
 20
9528.614055721867
 30
0.0
 11
5291.6
 21
9528.614055721867
 31
0.0
  0
INSERT
  5
2C1F9
330
285E5
100
AcDbEntity
  8
寸法
 62
     0
 48
50.0
370
    -2
100
AcDbBlockReference
  2
_DOTSMALL
 10
8105.6
 20
9528.614055721867
 30
0.0
 41
100.0
 42
100.0
 43
100.0
  0
INSERT
  5
2C1FA
330
285E5
100
AcDbEntity
  8
寸法
 62
     0
 48
50.0
370
    -2
100
AcDbBlockReference
  2
_DOTSMALL
 10
5291.6
 20
9528.614055721867
 30
0.0
 41
100.0
 42
100.0
 43
100.0
 50
180.0
  0
MTEXT
  5
2C1FB
330
285E5
100
AcDbEntity
  8
寸法
 62
     7
 48
50.0
100
AcDbMText
 10
6698.6
 20
9628.62586674549
 30
0.0
 40
120.0
 41
0.0
 71
     5
 72
     1
  1
\A1;2814
  7
STYLE1
 73
     1
 44
1.0
1001
ACAD
1000
MTEXTBEGIN
1070
    73
1070
     1
1070
    44
1040
1.0
1070
    74
1070
     0
1000
MTEXTEND
  0
POINT
  5
2C1FC
330
285E5
100
AcDbEntity
  8
DEFPOINTS
 62
     0
 48
50.0
100
AcDbPoint
 10
8105.6
 20
8709.854429179785
 30
0.0
  0
POINT
  5
2C1FD
330
285E5
100
AcDbEntity
  8
DEFPOINTS
 62
     0
 48
50.0
100
AcDbPoint
 10
5291.6
 20
8709.854429179785
 30
0.0
  0
POINT
  5
2C1FE
330
285E5
100
AcDbEntity
  8
DEFPOINTS
 62
     0
 48
50.0
100
AcDbPoint
 10
5291.6
 20
9528.614055721867
 30
0.0
  0
ENDBLK
  5
285F0
330
285E5
100
AcDbEntity
  8
0
 48
50.0
100
AcDbBlockEnd
  0
BLOCK
  5
285FB
330
285F1
100
AcDbEntity
  8
0
 48
50.0
100
AcDbBlockBegin
  2
*D23
 70
     1
 10
0.0
 20
0.0
 30
0.0
  3
*D23
  1

  0
LINE
  5
2C1ED
330
285F1
100
AcDbEntity
  8
寸法
 62
     0
 48
50.0
370
    -2
100
AcDbLine
 10
6698.6
 20
8117.854429179782
 30
0.0
 11
6698.6
 21
9369.764194828109
 31
0.0
  0
LINE
  5
2C1EE
330
285F1
100
AcDbEntity
  8
寸法
 62
     0
 48
50.0
370
    -2
100
AcDbLine
 10
5971.600000000002
 20
8117.854429179782
 30
0.0
 11
5971.600000000002
 21
9369.764194828109
 31
0.0
  0
LINE
  5
2C1EF
330
285F1
100
AcDbEntity
  8
寸法
 62
     0
 48
50.0
370
    -2
100
AcDbLine
 10
6698.6
 20
9309.76419482811
 30
0.0
 11
5971.600000000002
 21
9309.76419482811
 31
0.0
  0
INSERT
  5
2C1F0
330
285F1
100
AcDbEntity
  8
寸法
 62
     0
 48
50.0
370
    -2
100
AcDbBlockReference
  2
_DOTSMALL
 10
6698.6
 20
9309.76419482811
 30
0.0
 41
100.0
 42
100.0
 43
100.0
  0
INSERT
  5
2C1F1
330
285F1
100
AcDbEntity
  8
寸法
 62
     0
 48
50.0
370
    -2
100
AcDbBlockReference
  2
_DOTSMALL
 10
5971.600000000002
 20
9309.76419482811
 30
0.0
 41
100.0
 42
100.0
 43
100.0
 50
180.0
  0
MTEXT
  5
2C1F2
330
285F1
100
AcDbEntity
  8
寸法
 62
     7
 48
50.0
100
AcDbMText
 10
6335.100000000001
 20
9409.77600585173
 30
0.0
 40
120.0
 41
0.0
 71
     5
 72
     1
  1
\A1;727
  7
STYLE1
 73
     1
 44
1.0
1001
ACAD
1000
MTEXTBEGIN
1070
    73
1070
     1
1070
    44
1040
1.0
1070
    74
1070
     0
1000
MTEXTEND
  0
POINT
  5
2C1F3
330
285F1
100
AcDbEntity
  8
DEFPOINTS
 62
     0
 48
50.0
100
AcDbPoint
 10
6698.6
 20
8097.854429179783
 30
0.0
  0
POINT
  5
2C1F4
330
285F1
100
AcDbEntity
  8
DEFPOINTS
 62
     0
 48
50.0
100
AcDbPoint
 10
5971.600000000002
 20
8097.854429179783
 30
0.0
  0
POINT
  5
2C1F5
330
285F1
100
AcDbEntity
  8
DEFPOINTS
 62
     0
 48
50.0
100
AcDbPoint
 10
5971.600000000002
 20
9309.76419482811
 30
0.0
  0
ENDBLK
  5
285FC
330
285F1
100
AcDbEntity
  8
0
 48
50.0
100
AcDbBlockEnd
  0
BLOCK
  5
28608
330
285FD
100
AcDbEntity
  8
0
 48
50.0
100
AcDbBlockBegin
  2
*D24
 70
     1
 10
0.0
 20
0.0
 30
0.0
  3
*D24
  1

  0
LINE
  5
2C1E3
330
285FD
100
AcDbEntity
  8
寸法
 62
     0
 48
50.0
370
    -2
100
AcDbLine
 10
5418.600000000001
 20
8662.854429179786
 30
0.0
 11
5675.307249876098
 21
8662.854429179786
 31
0.0
  0
LINE
  5
2C1E4
330
285FD
100
AcDbEntity
  8
寸法
 62
     0
 48
50.0
370
    -2
100
AcDbLine
 10
5418.600000000001
 20
8552.854429179781
 30
0.0
 11
5675.307249876098
 21
8552.854429179781
 31
0.0
  0
LINE
  5
2C1E5
330
285FD
100
AcDbEntity
  8
寸法
 62
     0
 48
50.0
370
    -2
100
AcDbLine
 10
5615.307249876098
 20
8662.854429179786
 30
0.0
 11
5615.307249876098
 21
8552.854429179781
 31
0.0
  0
LINE
  5
2C1E6
330
285FD
100
AcDbEntity
  8
寸法
 62
     0
 48
50.0
370
    -2
100
AcDbLine
 10
5615.307249876098
 20
8552.854429179781
 30
0.0
 11
5615.307249876098
 21
8088.748129967182
 31
0.0
  0
INSERT
  5
2C1E7
330
285FD
100
AcDbEntity
  8
寸法
 62
     0
 48
50.0
370
    -2
100
AcDbBlockReference
  2
_DOTSMALL
 10
5615.307249876098
 20
8662.854429179786
 30
0.0
 41
100.0
 42
100.0
 43
100.0
 50
90.0
  0
INSERT
  5
2C1E8
330
285FD
100
AcDbEntity
  8
寸法
 62
     0
 48
50.0
370
    -2
100
AcDbBlockReference
  2
_DOTSMALL
 10
5615.307249876098
 20
8552.854429179781
 30
0.0
 41
100.0
 42
100.0
 43
100.0
 50
270.0
  0
MTEXT
  5
2C1E9
330
285FD
100
AcDbEntity
  8
寸法
 62
     7
 48
50.0
100
AcDbMText
 10
5515.307249876098
 20
8212.79537406167
 30
0.0
 40
120.0
 41
0.0
 71
     5
 72
     1
  1
\A1;110
  7
STYLE1
 11
0.0000000000000001
 21
1.0
 31
0.0
 73
     1
 44
1.0
1001
ACAD
1000
MTEXTBEGIN
1070
    73
1070
     1
1070
    44
1040
1.0
1070
    74
1070
     0
1000
MTEXTEND
  0
POINT
  5
2C1EA
330
285FD
100
AcDbEntity
  8
DEFPOINTS
 62
     0
 48
50.0
100
AcDbPoint
 10
5398.6
 20
8662.854429179786
 30
0.0
  0
POINT
  5
2C1EB
330
285FD
100
AcDbEntity
  8
DEFPOINTS
 62
     0
 48
50.0
100
AcDbPoint
 10
5398.6
 20
8552.854429179781
 30
0.0
  0
POINT
  5
2C1EC
330
285FD
100
AcDbEntity
  8
DEFPOINTS
 62
     0
 48
50.0
100
AcDbPoint
 10
5615.307249876098
 20
8552.854429179781
 30
0.0
  0
ENDBLK
  5
28609
330
285FD
100
AcDbEntity
  8
0
 48
50.0
100
AcDbBlockEnd
  0
BLOCK
  5
28612
330
2860A
100
AcDbEntity
  8
0
 48
50.0
100
AcDbBlockBegin
  2
*D25
 70
     1
 10
0.0
 20
0.0
 30
0.0
  3
*D25
  1

  0
LINE
  5
2C1DA
330
2860A
100
AcDbEntity
  8
寸法
 62
     0
 48
50.0
370
    -2
100
AcDbLine
 10
8235.600000000001
 20
5552.854429179803
 30
0.0
 11
8235.600000000001
 21
5870.500255434265
 31
0.0
  0
LINE
  5
2C1DB
330
2860A
100
AcDbEntity
  8
寸法
 62
     0
 48
50.0
370
    -2
100
AcDbLine
 10
7975.6
 20
5552.854429179803
 30
0.0
 11
7975.6
 21
5870.500255434265
 31
0.0
  0
LINE
  5
2C1DC
330
2860A
100
AcDbEntity
  8
寸法
 62
     0
 48
50.0
370
    -2
100
AcDbLine
 10
8235.600000000001
 20
5810.500255434265
 30
0.0
 11
7975.6
 21
5810.500255434265
 31
0.0
  0
INSERT
  5
2C1DD
330
2860A
100
AcDbEntity
  8
寸法
 62
     0
 48
50.0
370
    -2
100
AcDbBlockReference
  2
_DOTSMALL
 10
8235.600000000001
 20
5810.500255434265
 30
0.0
 41
100.0
 42
100.0
 43
100.0
  0
INSERT
  5
2C1DE
330
2860A
100
AcDbEntity
  8
寸法
 62
     0
 48
50.0
370
    -2
100
AcDbBlockReference
  2
_DOTSMALL
 10
7975.6
 20
5810.500255434265
 30
0.0
 41
100.0
 42
100.0
 43
100.0
 50
180.0
  0
MTEXT
  5
2C1DF
330
2860A
100
AcDbEntity
  8
寸法
 62
     7
 48
50.0
100
AcDbMText
 10
8105.6
 20
5910.512066457886
 30
0.0
 40
120.0
 41
0.0
 71
     5
 72
     1
  1
\A1;260
  7
STYLE1
 73
     1
 44
1.0
1001
ACAD
1000
MTEXTBEGIN
1070
    73
1070
     1
1070
    44
1040
1.0
1070
    74
1070
     0
1000
MTEXTEND
  0
POINT
  5
2C1E0
330
2860A
100
AcDbEntity
  8
DEFPOINTS
 62
     0
 48
50.0
100
AcDbPoint
 10
8235.600000000001
 20
5532.854429179804
 30
0.0
  0
POINT
  5
2C1E1
330
2860A
100
AcDbEntity
  8
DEFPOINTS
 62
     0
 48
50.0
100
AcDbPoint
 10
7975.6
 20
5532.854429179804
 30
0.0
  0
POINT
  5
2C1E2
330
2860A
100
AcDbEntity
  8
DEFPOINTS
 62
     0
 48
50.0
100
AcDbPoint
 10
7975.6
 20
5810.500255434265
 30
0.0
  0
ENDBLK
  5
28613
330
2860A
100
AcDbEntity
  8
0
 48
50.0
100
AcDbBlockEnd
  0
BLOCK
  5
2861E
330
28614
100
AcDbEntity
  8
0
 48
50.0
100
AcDbBlockBegin
  2
*D26
 70
     1
 10
0.0
 20
0.0
 30
0.0
  3
*D26
  1

  0
LINE
  5
2C1D1
330
28614
100
AcDbEntity
  8
寸法
 62
     0
 48
50.0
370
    -2
100
AcDbLine
 10
9929.045939259561
 20
5302.854429179793
 30
0.0
 11
10223.85510029273
 21
5302.854429179793
 31
0.0
  0
LINE
  5
2C1D2
330
28614
100
AcDbEntity
  8
寸法
 62
     0
 48
50.0
370
    -2
100
AcDbLine
 10
10355.6
 20
6187.854429179775
 30
0.0
 11
10103.85510029273
 21
6187.854429179776
 31
0.0
  0
LINE
  5
2C1D3
330
28614
100
AcDbEntity
  8
寸法
 62
     0
 48
50.0
370
    -2
100
AcDbLine
 10
10163.85510029273
 20
5302.854429179793
 30
0.0
 11
10163.85510029273
 21
6187.854429179776
 31
0.0
  0
INSERT
  5
2C1D4
330
28614
100
AcDbEntity
  8
寸法
 62
     0
 48
50.0
370
    -2
100
AcDbBlockReference
  2
_DOTSMALL
 10
10163.85510029273
 20
5302.854429179793
 30
0.0
 41
100.0
 42
100.0
 43
100.0
 50
270.0
  0
INSERT
  5
2C1D5
330
28614
100
AcDbEntity
  8
寸法
 62
     0
 48
50.0
370
    -2
100
AcDbBlockReference
  2
_DOTSMALL
 10
10163.85510029273
 20
6187.854429179776
 30
0.0
 41
100.0
 42
100.0
 43
100.0
 50
90.0
  0
MTEXT
  5
2C1D6
330
28614
100
AcDbEntity
  8
寸法
 62
     7
 48
50.0
100
AcDbMText
 10
10063.85510029272
 20
5745.354429179785
 30
0.0
 40
120.0
 41
0.0
 71
     5
 72
     1
  1
\A1;885
  7
STYLE1
 11
0.0000000000000001
 21
1.0
 31
0.0
 73
     1
 44
1.0
1001
ACAD
1000
MTEXTBEGIN
1070
    73
1070
     1
1070
    44
1040
1.0
1070
    74
1070
     0
1000
MTEXTEND
  0
POINT
  5
2C1D7
330
28614
100
AcDbEntity
  8
DEFPOINTS
 62
     0
 48
50.0
100
AcDbPoint
 10
9909.045939259561
 20
5302.854429179793
 30
0.0
  0
POINT
  5
2C1D8
330
28614
100
AcDbEntity
  8
DEFPOINTS
 62
     0
 48
50.0
100
AcDbPoint
 10
10375.6
 20
6187.854429179775
 30
0.0
  0
POINT
  5
2C1D9
330
28614
100
AcDbEntity
  8
DEFPOINTS
 62
     0
 48
50.0
100
AcDbPoint
 10
10163.85510029273
 20
6187.854429179776
 30
0.0
  0
ENDBLK
  5
2861F
330
28614
100
AcDbEntity
  8
0
 48
50.0
100
AcDbBlockEnd
  0
BLOCK
  5
28638
330
2862D
100
AcDbEntity
  8
0
 48
50.0
100
AcDbBlockBegin
  2
*D27
 70
     1
 10
0.0
 20
0.0
 30
0.0
  3
*D27
  1

  0
LINE
  5
2C1C7
330
2862D
100
AcDbEntity
  8
寸法
 62
     0
 48
50.0
370
    -2
100
AcDbLine
 10
11278.6
 20
8802.854429179783
 30
0.0
 11
11278.6
 21
9588.614055721867
 31
0.0
  0
LINE
  5
2C1C8
330
2862D
100
AcDbEntity
  8
寸法
 62
     0
 48
50.0
370
    -2
100
AcDbLine
 10
11155.6
 20
8729.854429179784
 30
0.0
 11
11155.6
 21
9588.614055721867
 31
0.0
  0
LINE
  5
2C1C9
330
2862D
100
AcDbEntity
  8
寸法
 62
     0
 48
50.0
370
    -2
100
AcDbLine
 10
11155.6
 20
9528.614055721867
 30
0.0
 11
11278.6
 21
9528.614055721867
 31
0.0
  0
LINE
  5
2C1CA
330
2862D
100
AcDbEntity
  8
寸法
 62
     0
 48
50.0
370
    -2
100
AcDbLine
 10
11278.6
 20
9528.614055721867
 30
0.0
 11
11690.19188309204
 21
9528.614055721867
 31
0.0
  0
INSERT
  5
2C1CB
330
2862D
100
AcDbEntity
  8
寸法
 62
     0
 48
50.0
370
    -2
100
AcDbBlockReference
  2
_DOTSMALL
 10
11155.6
 20
9528.614055721867
 30
0.0
 41
100.0
 42
100.0
 43
100.0
 50
180.0
  0
INSERT
  5
2C1CC
330
2862D
100
AcDbEntity
  8
寸法
 62
     0
 48
50.0
370
    -2
100
AcDbBlockReference
  2
_DOTSMALL
 10
11278.6
 20
9528.614055721867
 30
0.0
 41
100.0
 42
100.0
 43
100.0
  0
MTEXT
  5
2C1CD
330
2862D
100
AcDbEntity
  8
寸法
 62
     7
 48
50.0
100
AcDbMText
 10
11551.7066017178
 20
9628.62586674549
 30
0.0
 40
120.0
 41
0.0
 71
     5
 72
     1
  1
\A1;123
  7
STYLE1
 73
     1
 44
1.0
1001
ACAD
1000
MTEXTBEGIN
1070
    73
1070
     1
1070
    44
1040
1.0
1070
    74
1070
     0
1000
MTEXTEND
  0
POINT
  5
2C1CE
330
2862D
100
AcDbEntity
  8
DEFPOINTS
 62
     0
 48
50.0
100
AcDbPoint
 10
11278.6
 20
8782.854429179783
 30
0.0
  0
POINT
  5
2C1CF
330
2862D
100
AcDbEntity
  8
DEFPOINTS
 62
     0
 48
50.0
100
AcDbPoint
 10
11155.6
 20
8709.854429179785
 30
0.0
  0
POINT
  5
2C1D0
330
2862D
100
AcDbEntity
  8
DEFPOINTS
 62
     0
 48
50.0
100
AcDbPoint
 10
11155.6
 20
9528.614055721867
 30
0.0
  0
ENDBLK
  5
28639
330
2862D
100
AcDbEntity
  8
0
 48
50.0
100
AcDbBlockEnd
  0
BLOCK
  5
28644
330
2863A
100
AcDbEntity
  8
0
 48
50.0
100
AcDbBlockBegin
  2
*D28
 70
     1
 10
0.0
 20
0.0
 30
0.0
  3
*D28
  1

  0
LINE
  5
2C1BE
330
2863A
100
AcDbEntity
  8
寸法
 62
     0
 48
50.0
370
    -2
100
AcDbLine
 10
10475.6
 20
8117.854429179782
 30
0.0
 11
10475.6
 21
9369.764194828109
 31
0.0
  0
LINE
  5
2C1BF
330
2863A
100
AcDbEntity
  8
寸法
 62
     0
 48
50.0
370
    -2
100
AcDbLine
 10
9748.600000000001
 20
8172.854429179782
 30
0.0
 11
9748.600000000001
 21
9369.764194828109
 31
0.0
  0
LINE
  5
2C1C0
330
2863A
100
AcDbEntity
  8
寸法
 62
     0
 48
50.0
370
    -2
100
AcDbLine
 10
10475.6
 20
9309.76419482811
 30
0.0
 11
9748.600000000001
 21
9309.76419482811
 31
0.0
  0
INSERT
  5
2C1C1
330
2863A
100
AcDbEntity
  8
寸法
 62
     0
 48
50.0
370
    -2
100
AcDbBlockReference
  2
_DOTSMALL
 10
10475.6
 20
9309.76419482811
 30
0.0
 41
100.0
 42
100.0
 43
100.0
  0
INSERT
  5
2C1C2
330
2863A
100
AcDbEntity
  8
寸法
 62
     0
 48
50.0
370
    -2
100
AcDbBlockReference
  2
_DOTSMALL
 10
9748.600000000001
 20
9309.76419482811
 30
0.0
 41
100.0
 42
100.0
 43
100.0
 50
180.0
  0
MTEXT
  5
2C1C3
330
2863A
100
AcDbEntity
  8
寸法
 62
     7
 48
50.0
100
AcDbMText
 10
10112.1
 20
9409.77600585173
 30
0.0
 40
120.0
 41
0.0
 71
     5
 72
     1
  1
\A1;727
  7
STYLE1
 73
     1
 44
1.0
1001
ACAD
1000
MTEXTBEGIN
1070
    73
1070
     1
1070
    44
1040
1.0
1070
    74
1070
     0
1000
MTEXTEND
  0
POINT
  5
2C1C4
330
2863A
100
AcDbEntity
  8
DEFPOINTS
 62
     0
 48
50.0
100
AcDbPoint
 10
10475.6
 20
8097.854429179783
 30
0.0
  0
POINT
  5
2C1C5
330
2863A
100
AcDbEntity
  8
DEFPOINTS
 62
     0
 48
50.0
100
AcDbPoint
 10
9748.600000000001
 20
8152.854429179781
 30
0.0
  0
POINT
  5
2C1C6
330
2863A
100
AcDbEntity
  8
DEFPOINTS
 62
     0
 48
50.0
100
AcDbPoint
 10
9748.600000000001
 20
9309.76419482811
 30
0.0
  0
ENDBLK
  5
28645
330
2863A
100
AcDbEntity
  8
0
 48
50.0
100
AcDbBlockEnd
  0
BLOCK
  5
28650
330
28646
100
AcDbEntity
  8
0
 48
50.0
100
AcDbBlockBegin
  2
*D29
 70
     1
 10
0.0
 20
0.0
 30
0.0
  3
*D29
  1

  0
LINE
  5
2C1B5
330
28646
100
AcDbEntity
  8
寸法
 62
     0
 48
50.0
370
    -2
100
AcDbLine
 10
11278.6
 20
8802.854429179783
 30
0.0
 11
11278.6
 21
9369.764194828109
 31
0.0
  0
LINE
  5
2C1B6
330
28646
100
AcDbEntity
  8
寸法
 62
     0
 48
50.0
370
    -2
100
AcDbLine
 10
10475.6
 20
8117.854429179782
 30
0.0
 11
10475.6
 21
9369.764194828109
 31
0.0
  0
LINE
  5
2C1B7
330
28646
100
AcDbEntity
  8
寸法
 62
     0
 48
50.0
370
    -2
100
AcDbLine
 10
11278.6
 20
9309.76419482811
 30
0.0
 11
10475.6
 21
9309.76419482811
 31
0.0
  0
INSERT
  5
2C1B8
330
28646
100
AcDbEntity
  8
寸法
 62
     0
 48
50.0
370
    -2
100
AcDbBlockReference
  2
_DOTSMALL
 10
11278.6
 20
9309.76419482811
 30
0.0
 41
100.0
 42
100.0
 43
100.0
  0
INSERT
  5
2C1B9
330
28646
100
AcDbEntity
  8
寸法
 62
     0
 48
50.0
370
    -2
100
AcDbBlockReference
  2
_DOTSMALL
 10
10475.6
 20
9309.76419482811
 30
0.0
 41
100.0
 42
100.0
 43
100.0
 50
180.0
  0
MTEXT
  5
2C1BA
330
28646
100
AcDbEntity
  8
寸法
 62
     7
 48
50.0
100
AcDbMText
 10
10877.1
 20
9409.76419482811
 30
0.0
 40
120.0
 41
0.0
 71
     5
 72
     1
  1
\A1;803
  7
STYLE1
 73
     1
 44
1.0
1001
ACAD
1000
MTEXTBEGIN
1070
    73
1070
     1
1070
    44
1040
1.0
1070
    74
1070
     0
1000
MTEXTEND
  0
POINT
  5
2C1BB
330
28646
100
AcDbEntity
  8
DEFPOINTS
 62
     0
 48
50.0
100
AcDbPoint
 10
11278.6
 20
8782.854429179783
 30
0.0
  0
POINT
  5
2C1BC
330
28646
100
AcDbEntity
  8
DEFPOINTS
 62
     0
 48
50.0
100
AcDbPoint
 10
10475.6
 20
8097.854429179783
 30
0.0
  0
POINT
  5
2C1BD
330
28646
100
AcDbEntity
  8
DEFPOINTS
 62
     0
 48
50.0
100
AcDbPoint
 10
10475.6
 20
9309.76419482811
 30
0.0
  0
ENDBLK
  5
28651
330
28646
100
AcDbEntity
  8
0
 48
50.0
100
AcDbBlockEnd
  0
BLOCK
  5
2865C
330
28652
100
AcDbEntity
  8
0
 48
50.0
100
AcDbBlockBegin
  2
*D30
 70
     1
 10
0.0
 20
0.0
 30
0.0
  3
*D30
  1

  0
LINE
  5
2C1AC
330
28652
100
AcDbEntity
  8
寸法
 62
     0
 48
50.0
370
    -2
100
AcDbLine
 10
9748.600000000001
 20
8117.854429179782
 30
0.0
 11
9748.600000000001
 21
9369.764194828109
 31
0.0
  0
LINE
  5
2C1AD
330
28652
100
AcDbEntity
  8
寸法
 62
     0
 48
50.0
370
    -2
100
AcDbLine
 10
9021.600000000001
 20
8117.854429179782
 30
0.0
 11
9021.600000000001
 21
9369.764194828109
 31
0.0
  0
LINE
  5
2C1AE
330
28652
100
AcDbEntity
  8
寸法
 62
     0
 48
50.0
370
    -2
100
AcDbLine
 10
9748.600000000001
 20
9309.76419482811
 30
0.0
 11
9021.600000000001
 21
9309.76419482811
 31
0.0
  0
INSERT
  5
2C1AF
330
28652
100
AcDbEntity
  8
寸法
 62
     0
 48
50.0
370
    -2
100
AcDbBlockReference
  2
_DOTSMALL
 10
9748.600000000001
 20
9309.76419482811
 30
0.0
 41
100.0
 42
100.0
 43
100.0
  0
INSERT
  5
2C1B0
330
28652
100
AcDbEntity
  8
寸法
 62
     0
 48
50.0
370
    -2
100
AcDbBlockReference
  2
_DOTSMALL
 10
9021.600000000001
 20
9309.76419482811
 30
0.0
 41
100.0
 42
100.0
 43
100.0
 50
180.0
  0
MTEXT
  5
2C1B1
330
28652
100
AcDbEntity
  8
寸法
 62
     7
 48
50.0
100
AcDbMText
 10
9385.099999999999
 20
9409.77600585173
 30
0.0
 40
120.0
 41
0.0
 71
     5
 72
     1
  1
\A1;727
  7
STYLE1
 73
     1
 44
1.0
1001
ACAD
1000
MTEXTBEGIN
1070
    73
1070
     1
1070
    44
1040
1.0
1070
    74
1070
     0
1000
MTEXTEND
  0
POINT
  5
2C1B2
330
28652
100
AcDbEntity
  8
DEFPOINTS
 62
     0
 48
50.0
100
AcDbPoint
 10
9748.600000000001
 20
8097.854429179783
 30
0.0
  0
POINT
  5
2C1B3
330
28652
100
AcDbEntity
  8
DEFPOINTS
 62
     0
 48
50.0
100
AcDbPoint
 10
9021.600000000001
 20
8097.854429179783
 30
0.0
  0
POINT
  5
2C1B4
330
28652
100
AcDbEntity
  8
DEFPOINTS
 62
     0
 48
50.0
100
AcDbPoint
 10
9021.600000000001
 20
9309.76419482811
 30
0.0
  0
ENDBLK
  5
2865D
330
28652
100
AcDbEntity
  8
0
 48
50.0
100
AcDbBlockEnd
  0
BLOCK
  5
28668
330
2865E
100
AcDbEntity
  8
0
 48
50.0
100
AcDbBlockBegin
  2
*D31
 70
     1
 10
0.0
 20
0.0
 30
0.0
  3
*D31
  1

  0
LINE
  5
2C1A3
330
2865E
100
AcDbEntity
  8
寸法
 62
     0
 48
50.0
370
    -2
100
AcDbLine
 10
10355.6
 20
7042.854429179782
 30
0.0
 11
10103.85510029273
 21
7042.854429179782
 31
0.0
  0
LINE
  5
2C1A4
330
2865E
100
AcDbEntity
  8
寸法
 62
     0
 48
50.0
370
    -2
100
AcDbLine
 10
10355.6
 20
7897.854429179783
 30
0.0
 11
10103.85510029273
 21
7897.854429179783
 31
0.0
  0
LINE
  5
2C1A5
330
2865E
100
AcDbEntity
  8
寸法
 62
     0
 48
50.0
370
    -2
100
AcDbLine
 10
10163.85510029273
 20
7042.854429179782
 30
0.0
 11
10163.85510029273
 21
7897.854429179783
 31
0.0
  0
INSERT
  5
2C1A6
330
2865E
100
AcDbEntity
  8
寸法
 62
     0
 48
50.0
370
    -2
100
AcDbBlockReference
  2
_DOTSMALL
 10
10163.85510029273
 20
7042.854429179782
 30
0.0
 41
100.0
 42
100.0
 43
100.0
 50
270.0
  0
INSERT
  5
2C1A7
330
2865E
100
AcDbEntity
  8
寸法
 62
     0
 48
50.0
370
    -2
100
AcDbBlockReference
  2
_DOTSMALL
 10
10163.85510029273
 20
7897.854429179783
 30
0.0
 41
100.0
 42
100.0
 43
100.0
 50
90.0
  0
MTEXT
  5
2C1A8
330
2865E
100
AcDbEntity
  8
寸法
 62
     7
 48
50.0
100
AcDbMText
 10
10063.85510029272
 20
7470.354429179784
 30
0.0
 40
120.0
 41
0.0
 71
     5
 72
     1
  1
\A1;855
  7
STYLE1
 11
0.0000000000000001
 21
1.0
 31
0.0
 73
     1
 44
1.0
1001
ACAD
1000
MTEXTBEGIN
1070
    73
1070
     1
1070
    44
1040
1.0
1070
    74
1070
     0
1000
MTEXTEND
  0
POINT
  5
2C1A9
330
2865E
100
AcDbEntity
  8
DEFPOINTS
 62
     0
 48
50.0
100
AcDbPoint
 10
10375.6
 20
7042.854429179782
 30
0.0
  0
POINT
  5
2C1AA
330
2865E
100
AcDbEntity
  8
DEFPOINTS
 62
     0
 48
50.0
100
AcDbPoint
 10
10375.6
 20
7897.854429179783
 30
0.0
  0
POINT
  5
2C1AB
330
2865E
100
AcDbEntity
  8
DEFPOINTS
 62
     0
 48
50.0
100
AcDbPoint
 10
10163.85510029273
 20
7897.854429179783
 30
0.0
  0
ENDBLK
  5
28669
330
2865E
100
AcDbEntity
  8
0
 48
50.0
100
AcDbBlockEnd
  0
BLOCK
  5
28673
330
2866A
100
AcDbEntity
  8
0
 48
50.0
100
AcDbBlockBegin
  2
*D32
 70
     1
 10
0.0
 20
0.0
 30
0.0
  3
*D32
  1

  0
LINE
  5
2C19A
330
2866A
100
AcDbEntity
  8
寸法
 62
     0
 48
50.0
370
    -2
100
AcDbLine
 10
10355.6
 20
7897.854429179783
 30
0.0
 11
10103.85510029273
 21
7897.854429179783
 31
0.0
  0
LINE
  5
2C19B
330
2866A
100
AcDbEntity
  8
寸法
 62
     0
 48
50.0
370
    -2
100
AcDbLine
 10
9833.157431058356
 20
8782.854429179783
 30
0.0
 11
10223.85510029273
 21
8782.854429179783
 31
0.0
  0
LINE
  5
2C19C
330
2866A
100
AcDbEntity
  8
寸法
 62
     0
 48
50.0
370
    -2
100
AcDbLine
 10
10163.85510029273
 20
7897.854429179783
 30
0.0
 11
10163.85510029273
 21
8782.854429179783
 31
0.0
  0
INSERT
  5
2C19D
330
2866A
100
AcDbEntity
  8
寸法
 62
     0
 48
50.0
370
    -2
100
AcDbBlockReference
  2
_DOTSMALL
 10
10163.85510029273
 20
7897.854429179783
 30
0.0
 41
100.0
 42
100.0
 43
100.0
 50
270.0
  0
INSERT
  5
2C19E
330
2866A
100
AcDbEntity
  8
寸法
 62
     0
 48
50.0
370
    -2
100
AcDbBlockReference
  2
_DOTSMALL
 10
10163.85510029273
 20
8782.854429179783
 30
0.0
 41
100.0
 42
100.0
 43
100.0
 50
90.0
  0
MTEXT
  5
2C19F
330
2866A
100
AcDbEntity
  8
寸法
 62
     7
 48
50.0
100
AcDbMText
 10
10063.85510029272
 20
8340.354429179784
 30
0.0
 40
120.0
 41
0.0
 71
     5
 72
     1
  1
\A1;885
  7
STYLE1
 11
0.0000000000000001
 21
1.0
 31
0.0
 73
     1
 44
1.0
1001
ACAD
1000
MTEXTBEGIN
1070
    73
1070
     1
1070
    44
1040
1.0
1070
    74
1070
     0
1000
MTEXTEND
  0
POINT
  5
2C1A0
330
2866A
100
AcDbEntity
  8
DEFPOINTS
 62
     0
 48
50.0
100
AcDbPoint
 10
10375.6
 20
7897.854429179783
 30
0.0
  0
POINT
  5
2C1A1
330
2866A
100
AcDbEntity
  8
DEFPOINTS
 62
     0
 48
50.0
100
AcDbPoint
 10
9813.157431058357
 20
8782.854429179783
 30
0.0
  0
POINT
  5
2C1A2
330
2866A
100
AcDbEntity
  8
DEFPOINTS
 62
     0
 48
50.0
100
AcDbPoint
 10
10163.85510029273
 20
8782.854429179783
 30
0.0
  0
ENDBLK
  5
28674
330
2866A
100
AcDbEntity
  8
0
 48
50.0
100
AcDbBlockEnd
  0
BLOCK
  5
28680
330
28675
100
AcDbEntity
  8
0
 48
50.0
100
AcDbBlockBegin
  2
*D33
 70
     1
 10
0.0
 20
0.0
 30
0.0
  3
*D33
  1

  0
LINE
  5
2C190
330
28675
100
AcDbEntity
  8
寸法
 62
     0
 48
50.0
370
    -2
100
AcDbLine
 10
11158.6
 20
8532.854429179783
 30
0.0
 11
11158.6
 21
8265.145761679411
 31
0.0
  0
LINE
  5
2C191
330
28675
100
AcDbEntity
  8
寸法
 62
     0
 48
50.0
370
    -2
100
AcDbLine
 10
11048.6
 20
8532.854429179783
 30
0.0
 11
11048.6
 21
8265.145761679411
 31
0.0
  0
LINE
  5
2C192
330
28675
100
AcDbEntity
  8
寸法
 62
     0
 48
50.0
370
    -2
100
AcDbLine
 10
11158.6
 20
8325.145761679413
 30
0.0
 11
11048.6
 21
8325.145761679413
 31
0.0
  0
LINE
  5
2C193
330
28675
100
AcDbEntity
  8
寸法
 62
     0
 48
50.0
370
    -2
100
AcDbLine
 10
11048.6
 20
8325.145761679413
 30
0.0
 11
10654.4937007874
 21
8325.145761679413
 31
0.0
  0
INSERT
  5
2C194
330
28675
100
AcDbEntity
  8
寸法
 62
     0
 48
50.0
370
    -2
100
AcDbBlockReference
  2
_DOTSMALL
 10
11158.6
 20
8325.145761679413
 30
0.0
 41
100.0
 42
100.0
 43
100.0
  0
INSERT
  5
2C195
330
28675
100
AcDbEntity
  8
寸法
 62
     0
 48
50.0
370
    -2
100
AcDbBlockReference
  2
_DOTSMALL
 10
11048.6
 20
8325.145761679413
 30
0.0
 41
100.0
 42
100.0
 43
100.0
 50
180.0
  0
MTEXT
  5
2C196
330
28675
100
AcDbEntity
  8
寸法
 62
     7
 48
50.0
100
AcDbMText
 10
10778.54094488189
 20
8425.145761679413
 30
0.0
 40
120.0
 41
0.0
 71
     5
 72
     1
  1
\A1;110
  7
STYLE1
 73
     1
 44
1.0
1001
ACAD
1000
MTEXTBEGIN
1070
    73
1070
     1
1070
    44
1040
1.0
1070
    74
1070
     0
1000
MTEXTEND
  0
POINT
  5
2C197
330
28675
100
AcDbEntity
  8
DEFPOINTS
 62
     0
 48
50.0
100
AcDbPoint
 10
11158.6
 20
8552.854429179785
 30
0.0
  0
POINT
  5
2C198
330
28675
100
AcDbEntity
  8
DEFPOINTS
 62
     0
 48
50.0
100
AcDbPoint
 10
11048.6
 20
8552.854429179783
 30
0.0
  0
POINT
  5
2C199
330
28675
100
AcDbEntity
  8
DEFPOINTS
 62
     0
 48
50.0
100
AcDbPoint
 10
11048.6
 20
8325.145761679413
 30
0.0
  0
ENDBLK
  5
28681
330
28675
100
AcDbEntity
  8
0
 48
50.0
100
AcDbBlockEnd
  0
BLOCK
  5
2868D
330
28682
100
AcDbEntity
  8
0
 48
50.0
100
AcDbBlockBegin
  2
*D34
 70
     1
 10
0.0
 20
0.0
 30
0.0
  3
*D34
  1

  0
LINE
  5
2C186
330
28682
100
AcDbEntity
  8
寸法
 62
     0
 48
50.0
370
    -2
100
AcDbLine
 10
11278.6
 20
8322.139025718241
 30
0.0
 11
11278.6
 21
8265.145761679411
 31
0.0
  0
LINE
  5
2C187
330
28682
100
AcDbEntity
  8
寸法
 62
     0
 48
50.0
370
    -2
100
AcDbLine
 10
11158.6
 20
8532.854429179783
 30
0.0
 11
11158.6
 21
8265.145761679411
 31
0.0
  0
LINE
  5
2C188
330
28682
100
AcDbEntity
  8
寸法
 62
     0
 48
50.0
370
    -2
100
AcDbLine
 10
11158.6
 20
8325.145761679413
 30
0.0
 11
11278.6
 21
8325.145761679413
 31
0.0
  0
LINE
  5
2C189
330
28682
100
AcDbEntity
  8
寸法
 62
     0
 48
50.0
370
    -2
100
AcDbLine
 10
11278.6
 20
8325.145761679413
 30
0.0
 11
11684.7062992126
 21
8325.145761679413
 31
0.0
  0
INSERT
  5
2C18A
330
28682
100
AcDbEntity
  8
寸法
 62
     0
 48
50.0
370
    -2
100
AcDbBlockReference
  2
_DOTSMALL
 10
11158.6
 20
8325.145761679413
 30
0.0
 41
100.0
 42
100.0
 43
100.0
 50
180.0
  0
INSERT
  5
2C18B
330
28682
100
AcDbEntity
  8
寸法
 62
     0
 48
50.0
370
    -2
100
AcDbBlockReference
  2
_DOTSMALL
 10
11278.6
 20
8325.145761679413
 30
0.0
 41
100.0
 42
100.0
 43
100.0
  0
MTEXT
  5
2C18C
330
28682
100
AcDbEntity
  8
寸法
 62
     7
 48
50.0
100
AcDbMText
 10
11548.65905511811
 20
8425.157572703033
 30
0.0
 40
120.0
 41
0.0
 71
     5
 72
     1
  1
\A1;120
  7
STYLE1
 73
     1
 44
1.0
1001
ACAD
1000
MTEXTBEGIN
1070
    73
1070
     1
1070
    44
1040
1.0
1070
    74
1070
     0
1000
MTEXTEND
  0
POINT
  5
2C18D
330
28682
100
AcDbEntity
  8
DEFPOINTS
 62
     0
 48
50.0
100
AcDbPoint
 10
11278.6
 20
8342.139025718241
 30
0.0
  0
POINT
  5
2C18E
330
28682
100
AcDbEntity
  8
DEFPOINTS
 62
     0
 48
50.0
100
AcDbPoint
 10
11158.6
 20
8552.854429179785
 30
0.0
  0
POINT
  5
2C18F
330
28682
100
AcDbEntity
  8
DEFPOINTS
 62
     0
 48
50.0
100
AcDbPoint
 10
11158.6
 20
8325.145761679413
 30
0.0
  0
ENDBLK
  5
2868E
330
28682
100
AcDbEntity
  8
0
 48
50.0
100
AcDbBlockEnd
  0
BLOCK
  5
2A8C3
330
2A8B9
100
AcDbEntity
  8
0
 48
50.0
100
AcDbBlockBegin
  2
*D35
 70
     1
 10
0.0
 20
0.0
 30
0.0
  3
*D35
  1

  0
LINE
  5
2C17D
330
2A8B9
100
AcDbEntity
  8
寸法
 62
     0
 48
50.0
370
    -2
100
AcDbLine
 10
10355.6
 20
6187.854429179783
 30
0.0
 11
10103.85510029273
 21
6187.854429179783
 31
0.0
  0
LINE
  5
2C17E
330
2A8B9
100
AcDbEntity
  8
寸法
 62
     0
 48
50.0
370
    -2
100
AcDbLine
 10
10355.6
 20
7042.854429179782
 30
0.0
 11
10103.85510029273
 21
7042.854429179782
 31
0.0
  0
LINE
  5
2C17F
330
2A8B9
100
AcDbEntity
  8
寸法
 62
     0
 48
50.0
370
    -2
100
AcDbLine
 10
10163.85510029273
 20
6187.854429179783
 30
0.0
 11
10163.85510029273
 21
7042.854429179782
 31
0.0
  0
INSERT
  5
2C180
330
2A8B9
100
AcDbEntity
  8
寸法
 62
     0
 48
50.0
370
    -2
100
AcDbBlockReference
  2
_DOTSMALL
 10
10163.85510029273
 20
6187.854429179783
 30
0.0
 41
100.0
 42
100.0
 43
100.0
 50
270.0
  0
INSERT
  5
2C181
330
2A8B9
100
AcDbEntity
  8
寸法
 62
     0
 48
50.0
370
    -2
100
AcDbBlockReference
  2
_DOTSMALL
 10
10163.85510029273
 20
7042.854429179782
 30
0.0
 41
100.0
 42
100.0
 43
100.0
 50
90.0
  0
MTEXT
  5
2C182
330
2A8B9
100
AcDbEntity
  8
寸法
 62
     7
 48
50.0
100
AcDbMText
 10
10063.85510029272
 20
6615.354429179783
 30
0.0
 40
120.0
 41
0.0
 71
     5
 72
     1
  1
\A1;855
  7
STYLE1
 11
0.0000000000000001
 21
1.0
 31
0.0
 73
     1
 44
1.0
1001
ACAD
1000
MTEXTBEGIN
1070
    73
1070
     1
1070
    44
1040
1.0
1070
    74
1070
     0
1000
MTEXTEND
  0
POINT
  5
2C183
330
2A8B9
100
AcDbEntity
  8
DEFPOINTS
 62
     0
 48
50.0
100
AcDbPoint
 10
10375.6
 20
6187.854429179783
 30
0.0
  0
POINT
  5
2C184
330
2A8B9
100
AcDbEntity
  8
DEFPOINTS
 62
     0
 48
50.0
100
AcDbPoint
 10
10375.6
 20
7042.854429179782
 30
0.0
  0
POINT
  5
2C185
330
2A8B9
100
AcDbEntity
  8
DEFPOINTS
 62
     0
 48
50.0
100
AcDbPoint
 10
10163.85510029273
 20
7042.854429179782
 30
0.0
  0
ENDBLK
  5
2A8C4
330
2A8B9
100
AcDbEntity
  8
0
 48
50.0
100
AcDbBlockEnd
  0
BLOCK
  5
2BA13
330
2BA09
100
AcDbEntity
  8
0
 48
50.0
100
AcDbBlockBegin
  2
*D36
 70
     1
 10
0.0
 20
0.0
 30
0.0
  3
*D36
  1

  0
LINE
  5
2C174
330
2BA09
100
AcDbEntity
  8
寸法
 62
     0
 48
50.0
370
    -2
100
AcDbLine
 10
7776.600000000001
 20
5207.854429179807
 30
0.0
 11
7776.600000000001
 21
4683.009414837592
 31
0.0
  0
LINE
  5
2C175
330
2BA09
100
AcDbEntity
  8
寸法
 62
     0
 48
50.0
370
    -2
100
AcDbLine
 10
5621.6
 20
5207.854429179789
 30
0.0
 11
5621.6
 21
4683.009414837592
 31
0.0
  0
LINE
  5
2C176
330
2BA09
100
AcDbEntity
  8
寸法
 62
     0
 48
50.0
370
    -2
100
AcDbLine
 10
7776.600000000001
 20
4743.009414837593
 30
0.0
 11
5621.6
 21
4743.009414837593
 31
0.0
  0
INSERT
  5
2C177
330
2BA09
100
AcDbEntity
  8
寸法
 62
     0
 48
50.0
370
    -2
100
AcDbBlockReference
  2
_DOTSMALL
 10
7776.600000000001
 20
4743.009414837593
 30
0.0
 41
100.0
 42
100.0
 43
100.0
  0
INSERT
  5
2C178
330
2BA09
100
AcDbEntity
  8
寸法
 62
     0
 48
50.0
370
    -2
100
AcDbBlockReference
  2
_DOTSMALL
 10
5621.6
 20
4743.009414837593
 30
0.0
 41
100.0
 42
100.0
 43
100.0
 50
180.0
  0
MTEXT
  5
2C179
330
2BA09
100
AcDbEntity
  8
寸法
 62
     7
 48
50.0
100
AcDbMText
 10
6699.1
 20
4843.021225861214
 30
0.0
 40
120.0
 41
0.0
 71
     5
 72
     1
  1
\A1;扉の幅 2155
  7
STYLE1
 73
     1
 44
1.0
1001
ACAD
1000
MTEXTBEGIN
1070
    73
1070
     1
1070
    44
1040
1.0
1070
    74
1070
     0
1000
MTEXTEND
  0
POINT
  5
2C17A
330
2BA09
100
AcDbEntity
  8
DEFPOINTS
 62
     0
 48
50.0
100
AcDbPoint
 10
7776.600000000001
 20
5227.854429179807
 30
0.0
  0
POINT
  5
2C17B
330
2BA09
100
AcDbEntity
  8
DEFPOINTS
 62
     0
 48
50.0
100
AcDbPoint
 10
5621.6
 20
5227.85442917979
 30
0.0
  0
POINT
  5
2C17C
330
2BA09
100
AcDbEntity
  8
DEFPOINTS
 62
     0
 48
50.0
100
AcDbPoint
 10
5621.6
 20
4743.009414837593
 30
0.0
  0
ENDBLK
  5
2BA14
330
2BA09
100
AcDbEntity
  8
0
 48
50.0
100
AcDbBlockEnd
  0
BLOCK
  5
2BFC1
330
2BFB8
100
AcDbEntity
  8
0
 48
50.0
100
AcDbBlockBegin
  2
*D37
 70
     1
 10
0.0
 20
0.0
 30
0.0
  3
*D37
  1

  0
LINE
  5
2C160
330
2BFB8
100
AcDbEntity
  8
寸法
 62
     0
 48
50.0
370
    -2
100
AcDbLine
 10
7168.988519839114
 20
1947.565869837138
 30
0.0
 11
7836.324269550168
 21
1947.565869837138
 31
0.0
  0
LINE
  5
2C161
330
2BFB8
100
AcDbEntity
  8
寸法
 62
     0
 48
50.0
370
    -2
100
AcDbLine
 10
7168.988519839114
 20
1542.565869837136
 30
0.0
 11
7836.324269550168
 21
1542.565869837136
 31
0.0
  0
LINE
  5
2C162
330
2BFB8
100
AcDbEntity
  8
寸法
 62
     0
 48
50.0
370
    -2
100
AcDbLine
 10
7776.324269550169
 20
1947.565869837138
 30
0.0
 11
7776.324269550169
 21
1542.565869837136
 31
0.0
  0
INSERT
  5
2C163
330
2BFB8
100
AcDbEntity
  8
寸法
 62
     0
 48
50.0
370
    -2
100
AcDbBlockReference
  2
_DOTSMALL
 10
7776.324269550169
 20
1947.565869837138
 30
0.0
 41
100.0
 42
100.0
 43
100.0
 50
90.0
  0
INSERT
  5
2C164
330
2BFB8
100
AcDbEntity
  8
寸法
 62
     0
 48
50.0
370
    -2
100
AcDbBlockReference
  2
_DOTSMALL
 10
7776.324269550169
 20
1542.565869837136
 30
0.0
 41
100.0
 42
100.0
 43
100.0
 50
270.0
  0
MTEXT
  5
2C165
330
2BFB8
100
AcDbEntity
  8
寸法
 62
     7
 48
50.0
100
AcDbMText
 10
7676.324269550168
 20
1745.065869837138
 30
0.0
 40
120.0
 41
0.0
 71
     5
 72
     1
  1
\A1;180
  7
STYLE1
 11
0.0000000000000001
 21
1.0
 31
0.0
 73
     1
 44
1.0
1001
ACAD
1000
MTEXTBEGIN
1070
    73
1070
     1
1070
    44
1040
1.0
1070
    74
1070
     0
1000
MTEXTEND
  0
POINT
  5
2C166
330
2BFB8
100
AcDbEntity
  8
DEFPOINTS
 62
     0
 48
50.0
100
AcDbPoint
 10
7148.988519839114
 20
1947.565869837138
 30
0.0
  0
POINT
  5
2C167
330
2BFB8
100
AcDbEntity
  8
DEFPOINTS
 62
     0
 48
50.0
100
AcDbPoint
 10
7148.988519839114
 20
1542.565869837136
 30
0.0
  0
POINT
  5
2C168
330
2BFB8
100
AcDbEntity
  8
DEFPOINTS
 62
     0
 48
50.0
100
AcDbPoint
 10
7776.324269550169
 20
1542.565869837136
 30
0.0
  0
ENDBLK
  5
2BFC2
330
2BFB8
100
AcDbEntity
  8
0
 48
50.0
100
AcDbBlockEnd
  0
BLOCK
  5
2BFCD
330
2BFC3
100
AcDbEntity
  8
0
 48
50.0
100
AcDbBlockBegin
  2
*D38
 70
     1
 10
0.0
 20
0.0
 30
0.0
  3
*D38
  1

  0
LINE
  5
2C157
330
2BFC3
100
AcDbEntity
  8
寸法
 62
     0
 48
50.0
370
    -2
100
AcDbLine
 10
4346.439378367619
 20
787.5658698371367
 30
0.0
 11
4346.439378367619
 21
448.6137633812036
 31
0.0
  0
LINE
  5
2C158
330
2BFC3
100
AcDbEntity
  8
寸法
 62
     0
 48
50.0
370
    -2
100
AcDbLine
 10
4906.439378367621
 20
787.5658698371367
 30
0.0
 11
4906.439378367621
 21
448.6137633812036
 31
0.0
  0
LINE
  5
2C159
330
2BFC3
100
AcDbEntity
  8
寸法
 62
     0
 48
50.0
370
    -2
100
AcDbLine
 10
4346.439378367619
 20
508.6137633812036
 30
0.0
 11
4906.439378367621
 21
508.6137633812036
 31
0.0
  0
INSERT
  5
2C15A
330
2BFC3
100
AcDbEntity
  8
寸法
 62
     0
 48
50.0
370
    -2
100
AcDbBlockReference
  2
_DOTSMALL
 10
4346.439378367619
 20
508.6137633812036
 30
0.0
 41
100.0
 42
100.0
 43
100.0
 50
180.0
  0
INSERT
  5
2C15B
330
2BFC3
100
AcDbEntity
  8
寸法
 62
     0
 48
50.0
370
    -2
100
AcDbBlockReference
  2
_DOTSMALL
 10
4906.439378367621
 20
508.6137633812036
 30
0.0
 41
100.0
 42
100.0
 43
100.0
  0
MTEXT
  5
2C15C
330
2BFC3
100
AcDbEntity
  8
寸法
 62
     7
 48
50.0
100
AcDbMText
 10
4626.43937836762
 20
608.6137633812036
 30
0.0
 40
120.0
 41
0.0
 71
     5
 72
     1
  1
\A1;300
  7
STYLE1
 73
     1
 44
1.0
1001
ACAD
1000
MTEXTBEGIN
1070
    73
1070
     1
1070
    44
1040
1.0
1070
    74
1070
     0
1000
MTEXTEND
  0
POINT
  5
2C15D
330
2BFC3
100
AcDbEntity
  8
DEFPOINTS
 62
     0
 48
50.0
100
AcDbPoint
 10
4346.439378367619
 20
807.5658698371366
 30
0.0
  0
POINT
  5
2C15E
330
2BFC3
100
AcDbEntity
  8
DEFPOINTS
 62
     0
 48
50.0
100
AcDbPoint
 10
4906.439378367621
 20
807.5658698371366
 30
0.0
  0
POINT
  5
2C15F
330
2BFC3
100
AcDbEntity
  8
DEFPOINTS
 62
     0
 48
50.0
100
AcDbPoint
 10
4906.439378367621
 20
508.6137633812036
 30
0.0
  0
ENDBLK
  5
2BFCE
330
2BFC3
100
AcDbEntity
  8
0
 48
50.0
100
AcDbBlockEnd
  0
BLOCK
  5
2BFD9
330
2BFCF
100
AcDbEntity
  8
0
 48
50.0
100
AcDbBlockBegin
  2
*D39
 70
     1
 10
0.0
 20
0.0
 30
0.0
  3
*D39
  1

  0
LINE
  5
2C14E
330
2BFCF
100
AcDbEntity
  8
寸法
 62
     0
 48
50.0
370
    -2
100
AcDbLine
 10
4486.439378367618
 20
1947.565869837138
 30
0.0
 11
3685.794440331557
 21
1947.565869837138
 31
0.0
  0
LINE
  5
2C14F
330
2BFCF
100
AcDbEntity
  8
寸法
 62
     0
 48
50.0
370
    -2
100
AcDbLine
 10
4226.439378367624
 20
967.5658698371366
 30
0.0
 11
3685.794440331557
 21
967.5658698371368
 31
0.0
  0
LINE
  5
2C150
330
2BFCF
100
AcDbEntity
  8
寸法
 62
     0
 48
50.0
370
    -2
100
AcDbLine
 10
3745.794440331557
 20
1947.565869837138
 30
0.0
 11
3745.794440331556
 21
967.5658698371368
 31
0.0
  0
INSERT
  5
2C151
330
2BFCF
100
AcDbEntity
  8
寸法
 62
     0
 48
50.0
370
    -2
100
AcDbBlockReference
  2
_DOTSMALL
 10
3745.794440331557
 20
1947.565869837138
 30
0.0
 41
100.0
 42
100.0
 43
100.0
 50
90.0
  0
INSERT
  5
2C152
330
2BFCF
100
AcDbEntity
  8
寸法
 62
     0
 48
50.0
370
    -2
100
AcDbBlockReference
  2
_DOTSMALL
 10
3745.794440331556
 20
967.5658698371368
 30
0.0
 41
100.0
 42
100.0
 43
100.0
 50
270.0
  0
MTEXT
  5
2C153
330
2BFCF
100
AcDbEntity
  8
寸法
 62
     7
 48
50.0
100
AcDbMText
 10
3645.794440331556
 20
1457.565869837137
 30
0.0
 40
120.0
 41
0.0
 71
     5
 72
     1
  1
\A1;540
  7
STYLE1
 11
0.0000000000000001
 21
1.0
 31
0.0
 73
     1
 44
1.0
1001
ACAD
1000
MTEXTBEGIN
1070
    73
1070
     1
1070
    44
1040
1.0
1070
    74
1070
     0
1000
MTEXTEND
  0
POINT
  5
2C154
330
2BFCF
100
AcDbEntity
  8
DEFPOINTS
 62
     0
 48
50.0
100
AcDbPoint
 10
4506.439378367619
 20
1947.565869837138
 30
0.0
  0
POINT
  5
2C155
330
2BFCF
100
AcDbEntity
  8
DEFPOINTS
 62
     0
 48
50.0
100
AcDbPoint
 10
4246.439378367624
 20
967.5658698371366
 30
0.0
  0
POINT
  5
2C156
330
2BFCF
100
AcDbEntity
  8
DEFPOINTS
 62
     0
 48
50.0
100
AcDbPoint
 10
3745.794440331556
 20
967.5658698371368
 30
0.0
  0
ENDBLK
  5
2BFDA
330
2BFCF
100
AcDbEntity
  8
0
 48
50.0
100
AcDbBlockEnd
  0
BLOCK
  5
2BFE5
330
2BFDB
100
AcDbEntity
  8
0
 48
50.0
100
AcDbBlockBegin
  2
*D40
 70
     1
 10
0.0
 20
0.0
 30
0.0
  3
*D40
  1

  0
LINE
  5
2C145
330
2BFDB
100
AcDbEntity
  8
寸法
 62
     0
 48
50.0
370
    -2
100
AcDbLine
 10
4326.439378367619
 20
1267.565869837137
 30
0.0
 11
4108.413986202045
 21
1267.565869837137
 31
0.0
  0
LINE
  5
2C146
330
2BFDB
100
AcDbEntity
  8
寸法
 62
     0
 48
50.0
370
    -2
100
AcDbLine
 10
4226.439378367624
 20
967.5658698371366
 30
0.0
 11
4108.413986202045
 21
967.5658698371366
 31
0.0
  0
LINE
  5
2C147
330
2BFDB
100
AcDbEntity
  8
寸法
 62
     0
 48
50.0
370
    -2
100
AcDbLine
 10
4168.413986202046
 20
1267.565869837137
 30
0.0
 11
4168.413986202046
 21
967.5658698371366
 31
0.0
  0
INSERT
  5
2C148
330
2BFDB
100
AcDbEntity
  8
寸法
 62
     0
 48
50.0
370
    -2
100
AcDbBlockReference
  2
_DOTSMALL
 10
4168.413986202046
 20
1267.565869837137
 30
0.0
 41
100.0
 42
100.0
 43
100.0
 50
90.0
  0
INSERT
  5
2C149
330
2BFDB
100
AcDbEntity
  8
寸法
 62
     0
 48
50.0
370
    -2
100
AcDbBlockReference
  2
_DOTSMALL
 10
4168.413986202046
 20
967.5658698371366
 30
0.0
 41
100.0
 42
100.0
 43
100.0
 50
270.0
  0
MTEXT
  5
2C14A
330
2BFDB
100
AcDbEntity
  8
寸法
 62
     7
 48
50.0
100
AcDbMText
 10
4068.413986202045
 20
1117.565869837136
 30
0.0
 40
120.0
 41
0.0
 71
     5
 72
     1
  1
\A1;150
  7
STYLE1
 11
0.0000000000000001
 21
1.0
 31
0.0
 73
     1
 44
1.0
1001
ACAD
1000
MTEXTBEGIN
1070
    73
1070
     1
1070
    44
1040
1.0
1070
    74
1070
     0
1000
MTEXTEND
  0
POINT
  5
2C14B
330
2BFDB
100
AcDbEntity
  8
DEFPOINTS
 62
     0
 48
50.0
100
AcDbPoint
 10
4346.439378367619
 20
1267.565869837137
 30
0.0
  0
POINT
  5
2C14C
330
2BFDB
100
AcDbEntity
  8
DEFPOINTS
 62
     0
 48
50.0
100
AcDbPoint
 10
4246.439378367624
 20
967.5658698371366
 30
0.0
  0
POINT
  5
2C14D
330
2BFDB
100
AcDbEntity
  8
DEFPOINTS
 62
     0
 48
50.0
100
AcDbPoint
 10
4168.413986202046
 20
967.5658698371366
 30
0.0
  0
ENDBLK
  5
2BFE6
330
2BFDB
100
AcDbEntity
  8
0
 48
50.0
100
AcDbBlockEnd
  0
BLOCK
  5
2BFF1
330
2BFE7
100
AcDbEntity
  8
0
 48
50.0
100
AcDbBlockBegin
  2
*D41
 70
     1
 10
0.0
 20
0.0
 30
0.0
  3
*D41
  1

  0
LINE
  5
2C13C
330
2BFE7
100
AcDbEntity
  8
寸法
 62
     0
 48
50.0
370
    -2
100
AcDbLine
 10
4746.439378367617
 20
1967.565869837138
 30
0.0
 11
4746.439378367617
 21
2532.150629732614
 31
0.0
  0
LINE
  5
2C13D
330
2BFE7
100
AcDbEntity
  8
寸法
 62
     0
 48
50.0
370
    -2
100
AcDbLine
 10
4506.439378367619
 20
1967.565869837138
 30
0.0
 11
4506.439378367619
 21
2532.150629732614
 31
0.0
  0
LINE
  5
2C13E
330
2BFE7
100
AcDbEntity
  8
寸法
 62
     0
 48
50.0
370
    -2
100
AcDbLine
 10
4746.439378367617
 20
2472.150629732614
 30
0.0
 11
4506.439378367619
 21
2472.150629732614
 31
0.0
  0
INSERT
  5
2C13F
330
2BFE7
100
AcDbEntity
  8
寸法
 62
     0
 48
50.0
370
    -2
100
AcDbBlockReference
  2
_DOTSMALL
 10
4746.439378367617
 20
2472.150629732614
 30
0.0
 41
100.0
 42
100.0
 43
100.0
  0
INSERT
  5
2C140
330
2BFE7
100
AcDbEntity
  8
寸法
 62
     0
 48
50.0
370
    -2
100
AcDbBlockReference
  2
_DOTSMALL
 10
4506.439378367619
 20
2472.150629732614
 30
0.0
 41
100.0
 42
100.0
 43
100.0
 50
180.0
  0
MTEXT
  5
2C141
330
2BFE7
100
AcDbEntity
  8
寸法
 62
     7
 48
50.0
100
AcDbMText
 10
4626.439378367619
 20
2678.191442297418
 30
0.0
 40
120.0
 41
0.0
 71
     5
 72
     1
  1
\A1;120\P(195)
  7
STYLE1
 73
     1
 44
1.0
1001
ACAD
1000
MTEXTBEGIN
1070
    73
1070
     1
1070
    44
1040
1.0
1070
    74
1070
     0
1000
MTEXTEND
  0
POINT
  5
2C142
330
2BFE7
100
AcDbEntity
  8
DEFPOINTS
 62
     0
 48
50.0
100
AcDbPoint
 10
4746.439378367617
 20
1947.565869837138
 30
0.0
  0
POINT
  5
2C143
330
2BFE7
100
AcDbEntity
  8
DEFPOINTS
 62
     0
 48
50.0
100
AcDbPoint
 10
4506.439378367619
 20
1947.565869837138
 30
0.0
  0
POINT
  5
2C144
330
2BFE7
100
AcDbEntity
  8
DEFPOINTS
 62
     0
 48
50.0
100
AcDbPoint
 10
4506.439378367619
 20
2472.150629732614
 30
0.0
  0
ENDBLK
  5
2BFF2
330
2BFE7
100
AcDbEntity
  8
0
 48
50.0
100
AcDbBlockEnd
  0
BLOCK
  5
2BFFF
330
2BFF3
100
AcDbEntity
  8
0
 48
50.0
100
AcDbBlockBegin
  2
*D42
 70
     1
 10
0.0
 20
0.0
 30
0.0
  3
*D42
  1

  0
LINE
  5
2C169
330
2BFF3
100
AcDbEntity
  8
寸法
 62
     0
 48
50.0
370
    -2
100
AcDbLine
 10
6934.988519839113
 20
2013.515869837138
 30
0.0
 11
8181.392602198952
 21
2013.515869837138
 31
0.0
  0
LINE
  5
2C16A
330
2BFF3
100
AcDbEntity
  8
寸法
 62
     0
 48
50.0
370
    -2
100
AcDbLine
 10
7168.988519839114
 20
1947.565869837138
 30
0.0
 11
8181.392602198952
 21
1947.565869837138
 31
0.0
  0
LINE
  5
2C16B
330
2BFF3
100
AcDbEntity
  8
寸法
 62
     0
 48
50.0
370
    -2
100
AcDbLine
 10
8121.392602198952
 20
2013.515869837138
 30
0.0
 11
8121.392602198953
 21
2113.515869837138
 31
0.0
  0
LINE
  5
2C16C
330
2BFF3
100
AcDbEntity
  8
寸法
 62
     0
 48
50.0
370
    -2
100
AcDbLine
 10
8121.392602198952
 20
1947.565869837138
 30
0.0
 11
8121.392602198952
 21
1215.548062994172
 31
0.0
  0
LINE
  5
2C16D
330
2BFF3
100
AcDbEntity
  8
寸法
 62
     0
 48
50.0
370
    -2
100
AcDbLine
 10
8121.392602198952
 20
2013.515869837138
 30
0.0
 11
8121.392602198952
 21
1947.565869837138
 31
0.0
  0
INSERT
  5
2C16E
330
2BFF3
100
AcDbEntity
  8
寸法
 62
     0
 48
50.0
370
    -2
100
AcDbBlockReference
  2
_DOTSMALL
 10
8121.392602198952
 20
2013.515869837138
 30
0.0
 41
100.0
 42
100.0
 43
100.0
 50
270.0
  0
INSERT
  5
2C16F
330
2BFF3
100
AcDbEntity
  8
寸法
 62
     0
 48
50.0
370
    -2
100
AcDbBlockReference
  2
_DOTSMALL
 10
8121.392602198952
 20
1947.565869837138
 30
0.0
 41
100.0
 42
100.0
 43
100.0
 50
90.0
  0
MTEXT
  5
2C170
330
2BFF3
100
AcDbEntity
  8
寸法
 62
     7
 48
50.0
100
AcDbMText
 10
8021.38079117533
 20
1481.556966415656
 30
0.0
 40
120.0
 41
0.0
 71
     5
 72
     1
  1
\A1;20～25
  7
STYLE1
 11
0.0000000000000001
 21
1.0
 31
0.0
 73
     1
 44
1.0
1001
ACAD
1000
MTEXTBEGIN
1070
    73
1070
     1
1070
    44
1040
1.0
1070
    74
1070
     0
1000
MTEXTEND
  0
POINT
  5
2C171
330
2BFF3
100
AcDbEntity
  8
DEFPOINTS
 62
     0
 48
50.0
100
AcDbPoint
 10
6914.988519839113
 20
2013.515869837138
 30
0.0
  0
POINT
  5
2C172
330
2BFF3
100
AcDbEntity
  8
DEFPOINTS
 62
     0
 48
50.0
100
AcDbPoint
 10
7148.988519839114
 20
1947.565869837138
 30
0.0
  0
POINT
  5
2C173
330
2BFF3
100
AcDbEntity
  8
DEFPOINTS
 62
     0
 48
50.0
100
AcDbPoint
 10
8121.392602198952
 20
1947.565869837138
 30
0.0
  0
ENDBLK
  5
2C000
330
2BFF3
100
AcDbEntity
  8
0
 48
50.0
100
AcDbBlockEnd
  0
ENDSEC
  0
SECTION
  2
ENTITIES
  0
MTEXT
  5
763F
330
747D
100
AcDbEntity
  8
0
100
AcDbMText
 10
302.846345836809
 20
280.1983726409901
 30
0.0
 40
3.5
 41
5.323721266742722
 71
     1
 72
     5
  1

  7
MSMINCHO
 73
     1
 44
1.0
1001
ACAD
1000
MTEXTBEGIN
1070
    73
1070
     1
1070
    44
1040
1.0
1070
    74
1070
     0
1000
MTEXTEND
  0
LINE
  5
10B57
330
747D
100
AcDbEntity
  8
補助
  6
PHANTOM
 62
   230
 48
50.0
100
AcDbLine
 10
139.9999999999995
 20
11409.6
 30
0.0
 11
16307.2
 21
11409.6
 31
0.0
  0
LINE
  5
10B59
330
747D
100
AcDbEntity
  8
仕様書枠
  6
Continuous
 48
50.0
100
AcDbLine
 10
13107.2
 20
1200.0
 30
0.0
 11
13107.2
 21
-0.0000000000000729
 31
0.0
  0
LINE
  5
10B5D
330
747D
100
AcDbEntity
  8
仕様書枠
 48
50.0
100
AcDbLine
 10
140.0
 20
0.0
 30
0.0
 11
16307.2
 21
-0.0000000000000909
 31
0.0
  0
LINE
  5
10B5E
330
747D
100
AcDbEntity
  8
補助
  6
PHANTOM
 62
   230
 48
50.0
100
AcDbLine
 10
16307.2
 20
11409.6
 30
0.0
 11
16307.2
 21
1200.0
 31
0.0
  0
LINE
  5
10B6C
330
747D
100
AcDbEntity
  8
仕様書枠
 48
50.0
100
AcDbLine
 10
13107.2
 20
1200.0
 30
0.0
 11
16307.2
 21
1200.0
 31
0.0
  0
TEXT
  5
10B73
330
747D
100
AcDbEntity
  8
文字
 62
     7
 48
50.0
100
AcDbText
 10
13162.9790565769
 20
895.0906074299405
 30
0.0
 40
200.0
  1
基 礎 図
  7
STYLE2
100
AcDbText
  0
LINE
  5
10B7B
330
747D
100
AcDbEntity
  8
仕様書枠
 48
50.0
100
AcDbLine
 10
13107.2
 20
800.0
 30
0.0
 11
14251.2
 21
800.0
 31
0.0
  0
LINE
  5
10B88
330
747D
100
AcDbEntity
  8
仕様書枠
  6
Continuous
 48
50.0
100
AcDbLine
 10
14251.2
 20
1200.0
 30
0.0
 11
14251.2
 21
800.0
 31
0.0
  0
LINE
  5
16462
330
747D
100
AcDbEntity
  8
仕様書枠
 48
50.0
100
AcDbLine
 10
16307.2
 20
1200.0
 30
0.0
 11
16307.2
 21
-0.0000000000000909
 31
0.0
  0
LINE
  5
1903B
330
747D
100
AcDbEntity
  8
補助
  6
PHANTOM
 62
   230
 48
50.0
100
AcDbLine
 10
140.0
 20
0.0
 30
0.0
 11
139.9999999999995
 21
11409.6
 31
0.0
  0
LEADER
  5
1AC27
330
747D
100
AcDbEntity
  8
寸法
 48
50.0
100
AcDbLeader
  3
INABA_S40G
 73
     0
 74
     0
 75
     1
 40
120.0
 41
720.0000000000001
 76
     3
 10
11278.695499615
 20
7057.056599761597
 30
0.0
 10
11445.46907400128
 20
6781.042686193763
 30
0.0
 10
11545.46907400128
 20
6781.042686193763
 30
0.0
340
1AC28
1001
ACAD
1000
DSTYLE
1002
{
1070
   341
1005
0
1002
}
  0
MTEXT
  5
1AC28
102
{ACAD_REACTORS
330
1AC27
102
}
330
747D
100
AcDbEntity
  8
部品1
 62
     7
 48
50.0
100
AcDbMText
 10
12305.46907400128
 20
6881.042686193763
 30
0.0
 40
120.0
 41
0.0
 71
     6
 72
     1
  1
\A1;床下換気口
  7
STYLE1
 73
     1
 44
1.0
1001
ACAD
1000
MTEXTBEGIN
1070
    73
1070
     1
1070
    44
1040
1.0
1070
    74
1070
     0
1000
MTEXTEND
  0
TEXT
  5
1AC29
330
747D
100
AcDbEntity
  8
部品1
 48
50.0
100
AcDbText
 10
11622.50116389398
 20
5027.763527842993
 30
0.0
 40
80.0
  1
(a=45,b=55,c=75)
  7
STYLE1
100
AcDbText
  0
TEXT
  5
1AC2A
330
747D
100
AcDbEntity
  8
部品1
 48
50.0
100
AcDbText
 10
11463.92215513968
 20
5134.608748711746
 30
0.0
 40
80.0
  1
※a,b,cは屋根の出幅です。
  7
STYLE1
100
AcDbText
  0
MTEXT
  5
1AC2B
102
{ACAD_REACTORS
330
1AC2C
102
}
330
747D
100
AcDbEntity
  8
部品1
 62
     7
 48
50.0
100
AcDbMText
 10
12261.70935112828
 20
5313.919435644823
 30
0.0
 40
120.0
 41
0.0
 71
     6
 72
     1
  1
\A1;屋根の外寸
  7
STYLE1
 73
     1
 44
1.0
1001
ACAD
1000
MTEXTBEGIN
1070
    73
1070
     1
1070
    44
1040
1.0
1070
    74
1070
     0
1000
MTEXTEND
  0
LEADER
  5
1AC2C
330
747D
100
AcDbEntity
  8
寸法
 48
50.0
100
AcDbLeader
  3
INABA_S40G
 73
     0
 74
     0
 75
     1
 40
120.0
 41
672.0
 76
     3
 10
11323.76933893624
 20
5487.808779108398
 30
0.0
 10
11449.70935112828
 20
5213.919435644823
 30
0.0
 10
11549.70935112828
 20
5213.919435644823
 30
0.0
340
1AC2B
1001
ACAD
1000
DSTYLE
1002
{
1070
   341
1005
0
1002
}
  0
TEXT
  5
1C7A1
330
747D
100
AcDbEntity
  8
文字
 62
     7
 48
50.0
100
AcDbText
 10
13188.16259899338
 20
79.80631269190417
 30
0.0
 40
80.0
  1
※布基礎には換気口を設けてください。
  7
STYLE2
100
AcDbText
  0
TEXT
  5
1C7E7
330
747D
100
AcDbEntity
  8
文字
 62
     7
 48
50.0
100
AcDbText
 10
13188.16259899338
 20
246.7109242801889
 30
0.0
 40
80.0
  1
※寒冷地等は地域の実情に合わせた基礎にして下さい。
  7
STYLE2
100
AcDbText
  0
TEXT
  5
1C7E8
330
747D
100
AcDbEntity
  8
文字
 62
     7
 48
50.0
100
AcDbText
 10
14362.72510291744
 20
499.5983841039506
 30
0.0
 40
160.0
  1
ＮＸＮ－２１５Ｈ
  7
STYLE2
100
AcDbText
  0
TEXT
  5
1C7EC
330
747D
100
AcDbEntity
  8
文字
 62
     7
 48
50.0
100
AcDbText
 10
14524.131837222
 20
1031.557706291229
 30
0.0
 40
100.0
  1
      <縮尺> S=1/40
  7
STYLE2
100
AcDbText
  0
TEXT
  5
1C7ED
330
747D
100
AcDbEntity
  8
文字
 62
     7
 48
50.0
100
AcDbText
 10
13201.43669998441
 20
477.2740661031257
 30
0.0
 40
160.0
  1
機種名
  7
STYLE2
100
AcDbText
  0
LINE
  5
1C7EF
330
747D
100
AcDbEntity
  8
文字
 62
     7
 48
50.0
100
AcDbLine
 10
13187.2
 20
400.0
 30
0.0
 11
16227.2
 21
400.0
 31
0.0
  0
MTEXT
  5
1D2D5
102
{ACAD_REACTORS
330
1D2D6
102
}
330
747D
100
AcDbEntity
  8
部品1
 62
     7
 48
50.0
100
AcDbMText
 10
12473.99523070988
 20
9053.539874905768
 30
0.0
 40
120.0
 41
0.0
 71
     6
 72
     1
  1
アンカーボルト
  7
STYLE1
 73
     1
 44
1.0
1001
ACAD
1000
MTEXTBEGIN
1070
    73
1070
     1
1070
    44
1040
1.0
1070
    74
1070
     0
1000
MTEXTEND
  0
LEADER
  5
1D2D6
330
747D
100
AcDbEntity
  8
寸法
 48
50.0
100
AcDbLeader
  3
INABA_S40G
 73
     0
 74
     0
 75
     1
 40
120.0
 41
994.3492424049171
 76
     3
 10
11155.680085757
 20
8660.062273538493
 30
0.0
 10
11339.64598830496
 20
8953.539874905768
 30
0.0
 10
11439.64598830496
 20
8953.539874905768
 30
0.0
340
1D2D5
1001
ACAD
1000
DSTYLE
1002
{
1070
   341
1005
0
1002
}
  0
LINE
  5
20992
330
747D
100
AcDbEntity
  8
想像線
 48
10.0
100
AcDbLine
 10
11323.6
 20
5247.854429179803
 30
0.0
 11
11323.6
 21
8857.854429179784
 31
0.0
  0
DIMENSION
  5
26236
330
747D
100
AcDbEntity
  8
寸法
 48
50.0
100
AcDbDimension
  2
*D1
 10
5168.600000000001
 20
4743.009414837593
 30
0.0
 11
5395.100000000001
 21
4843.009414837593
 31
0.0
 70
    32
 71
     5
 42
452.9999999999991
  3
INABA_S40G
100
AcDbAlignedDimension
 13
5621.6
 23
5227.854429179775
 33
0.0
 14
5168.600000000001
 24
5302.854429179785
 34
0.0
100
AcDbRotatedDimension
1001
ACAD
1000
DSTYLE
1002
{
1070
   341
1005
0
1002
}
  0
DIMENSION
  5
26F00
330
747D
100
AcDbEntity
  8
寸法
 48
50.0
100
AcDbDimension
  2
*D2
 10
8043.202780124335
 20
5302.854429179809
 30
0.0
 11
8043.202780124333
 21
4694.369147805569
 31
0.0
 70
   160
  1
扉の出<>
 71
     5
 42
75.00000000000091
  3
INABA_S40G
100
AcDbAlignedDimension
 13
7776.600000000001
 23
5227.854429179808
 33
0.0
 14
7776.600000000009
 24
5302.854429179809
 34
0.0
 50
90.0
100
AcDbRotatedDimension
1001
ACAD
1000
DSTYLE
1002
{
1070
   341
1005
0
1002
}
  0
DIMENSION
  5
26F1A
330
747D
100
AcDbEntity
  8
寸法
 48
50.0
100
AcDbDimension
  2
*D3
 10
4427.164931848213
 20
8782.854429179783
 30
0.0
 11
4327.164931848212
 21
8820.354429179788
 31
0.0
 70
    32
  1
c
 71
     5
 42
75.00000000000546
  3
INABA_S40G
100
AcDbAlignedDimension
 13
4672.657733986179
 23
8857.854429179788
 33
0.0
 14
5168.600000000002
 24
8782.854429179783
 34
0.0
 50
90.0
100
AcDbRotatedDimension
1001
ACAD
1000
DSTYLE
1002
{
1070
   341
1005
0
1002
}
  0
DIMENSION
  5
26F3F
330
747D
100
AcDbEntity
  8
寸法
 48
50.0
100
AcDbDimension
  2
*D4
 10
4427.16493184821
 20
5247.854429179806
 30
0.0
 11
4327.164931848209
 21
5275.354429179797
 31
0.0
 70
    32
  1
b
 71
     5
 42
54.99999999997908
  3
INABA_S40G
100
AcDbAlignedDimension
 13
5175.050294581424
 23
5302.854429179785
 33
0.0
 14
4672.657733986179
 24
5247.854429179806
 34
0.0
 50
90.0
100
AcDbRotatedDimension
1001
ACAD
1000
DSTYLE
1002
{
1070
   341
1005
0
1002
}
  0
DIMENSION
  5
26F64
330
747D
100
AcDbEntity
  8
寸法
 48
50.0
100
AcDbDimension
  2
*D5
 10
11323.6
 20
9741.074751238706
 30
0.0
 11
11594.77462120245
 21
9741.074751238706
 31
0.0
 70
   160
  1
a
 71
     5
 42
45.0
  3
INABA_S40G
100
AcDbAlignedDimension
 13
11278.6
 23
8782.854429179783
 33
0.0
 14
11323.6
 24
9528.614055721865
 34
0.0
100
AcDbRotatedDimension
1001
ACAD
1000
DSTYLE
1002
{
1070
   341
1005
0
1002
}
  0
DIMENSION
  5
26F7E
330
747D
100
AcDbEntity
  8
寸法
 48
50.0
100
AcDbDimension
  2
*D6
 10
5168.600000000001
 20
9741.074751238706
 30
0.0
 11
4852.425378797541
 21
9741.074751238706
 31
0.0
 70
   160
  1
a
 71
     5
 42
44.99999999999545
  3
INABA_S40G
100
AcDbAlignedDimension
 13
5123.600000000006
 23
9528.614055721865
 33
0.0
 14
5168.600000000001
 24
8782.854429179783
 34
0.0
100
AcDbRotatedDimension
1001
ACAD
1000
DSTYLE
1002
{
1070
   341
1005
0
1002
}
  0
DIMENSION
  5
2701E
330
747D
100
AcDbEntity
  8
寸法
 48
50.0
100
AcDbDimension
  2
*D7
 10
5889.18320630424
 20
5422.854429179789
 30
0.0
 11
5889.183206304239
 21
4989.15948797588
 31
0.0
 70
   160
 71
     5
 42
195.0000000000145
  3
INABA_S40G
100
AcDbAlignedDimension
 13
5621.6
 23
5227.854429179775
 33
0.0
 14
5621.6
 24
5422.854429179789
 34
0.0
 50
90.0
100
AcDbRotatedDimension
1001
ACAD
1000
DSTYLE
1002
{
1070
   341
1005
0
1002
}
  0
LINE
  5
28230
102
{ACAD_REACTORS
330
2C0FC
102
}
330
747D
100
AcDbEntity
  8
部品1
 48
50.0
100
AcDbLine
 10
11048.6
 20
8662.85442917978
 30
0.0
 11
8235.600000000001
 21
8662.854429179786
 31
0.0
  0
DIMENSION
  5
28231
330
747D
100
AcDbEntity
  8
寸法
 48
50.0
100
AcDbDimension
  2
*D8
 10
8105.6
 20
9528.614055721867
 30
0.0
 11
9630.600000000001
 21
9628.614055721868
 31
0.0
 70
    32
 71
     5
 42
3050.0
  3
INABA_S40G
100
AcDbAlignedDimension
 13
11155.6
 23
8709.854429179785
 33
0.0
 14
8105.6
 24
8709.854429179785
 34
0.0
100
AcDbRotatedDimension
1001
ACAD
1000
DSTYLE
1002
{
1070
   341
1005
0
1002
}
  0
DIMENSION
  5
28232
330
747D
100
AcDbEntity
  8
寸法
 48
50.0
100
AcDbDimension
  2
*D9
 10
8670.14438614211
 20
5422.854429179793
 30
0.0
 11
8670.144386142109
 21
4980.022355836698
 31
0.0
 70
   160
 71
     5
 42
119.9999999999818
  3
INABA_S40G
100
AcDbAlignedDimension
 13
8235.600000000001
 23
5302.854429179812
 33
0.0
 14
8235.600000000001
 24
5422.854429179793
 34
0.0
 50
90.0
100
AcDbRotatedDimension
1001
ACAD
1000
DSTYLE
1002
{
1070
   341
1005
0
1002
}
  0
DIMENSION
  5
28233
330
747D
100
AcDbEntity
  8
寸法
 48
50.0
100
AcDbDimension
  2
*D10
 10
8670.14438614211
 20
5532.854429179804
 30
0.0
 11
8670.144386142109
 21
5768.901673274292
 31
0.0
 70
   160
 71
     5
 42
110.00000000001
  3
INABA_S40G
100
AcDbAlignedDimension
 13
8235.600000000001
 23
5422.854429179793
 33
0.0
 14
8235.600000000001
 24
5532.854429179804
 34
0.0
 50
90.0
100
AcDbRotatedDimension
1001
ACAD
1000
DSTYLE
1002
{
1070
   341
1005
0
1002
}
  0
LINE
  5
28234
102
{ACAD_REACTORS
330
2C0FC
102
}
330
747D
100
AcDbEntity
  8
部品1
 48
50.0
100
AcDbLine
 10
11278.6
 20
5302.854429179802
 30
0.0
 11
7776.600000000001
 21
5302.854429179785
 31
0.0
  0
LINE
  5
28235
102
{ACAD_REACTORS
330
2C0FC
102
}
330
747D
100
AcDbEntity
  8
部品1
 48
50.0
100
AcDbLine
 10
11048.6
 20
5422.854429179801
 30
0.0
 11
8235.600000000001
 21
5422.854429179795
 31
0.0
  0
DIMENSION
  5
28236
330
747D
100
AcDbEntity
  8
寸法
 48
50.0
100
AcDbDimension
  2
*D11
 10
8223.600000000001
 20
9309.76419482811
 30
0.0
 11
8622.6
 21
9409.76419482811
 31
0.0
 70
    32
 71
     5
 42
798.0
  3
INABA_S40G
100
AcDbAlignedDimension
 13
9021.600000000001
 23
8097.854429179783
 33
0.0
 14
8223.600000000001
 24
8152.854429179781
 34
0.0
100
AcDbRotatedDimension
1001
ACAD
1000
DSTYLE
1002
{
1070
   341
1005
0
1002
}
  0
DIMENSION
  5
28237
330
747D
100
AcDbEntity
  8
寸法
 48
50.0
100
AcDbDimension
  2
*D12
 10
11278.6
 20
9741.074751238706
 30
0.0
 11
8223.600000000001
 21
9841.074751238707
 31
0.0
 70
    32
 71
     5
 42
6109.999999999999
  3
INABA_S40G
100
AcDbAlignedDimension
 13
5168.600000000001
 23
8782.854429179783
 33
0.0
 14
11278.6
 24
8782.854429179783
 34
0.0
100
AcDbRotatedDimension
1001
ACAD
1000
DSTYLE
1002
{
1070
   341
1005
0
1002
}
  0
LINE
  5
28238
102
{ACAD_REACTORS
330
2C0FC
102
}
330
747D
100
AcDbEntity
  8
部品1
 48
50.0
100
AcDbLine
 10
11278.6
 20
8782.854429179783
 30
0.0
 11
5168.600000000001
 21
8782.854429179783
 31
0.0
  0
LINE
  5
2823D
102
{ACAD_REACTORS
330
2C0FC
102
}
330
747D
100
AcDbEntity
  8
部品1
 48
50.0
100
AcDbLine
 10
6598.600000000002
 20
5422.854429179792
 30
0.0
 11
6598.600000000002
 21
5227.854429179781
 31
0.0
  0
LINE
  5
2823E
102
{ACAD_REACTORS
330
2C0FC
102
}
330
747D
100
AcDbEntity
  8
部品1
 48
50.0
100
AcDbLine
 10
6798.600000000002
 20
5422.854429179792
 30
0.0
 11
6798.600000000002
 21
5227.854429179781
 31
0.0
  0
DIMENSION
  5
2823F
330
747D
100
AcDbEntity
  8
寸法
 48
50.0
100
AcDbDimension
  2
*D13
 10
4672.657733986176
 20
5302.854429179785
 30
0.0
 11
4672.657733986176
 21
4967.323480337192
 31
0.0
 70
   160
 71
     5
 42
123.0000000000009
  3
INABA_S40G
100
AcDbAlignedDimension
 13
5241.600000000008
 23
5425.854429179786
 33
0.0
 14
5168.600000000001
 24
5302.854429179785
 34
0.0
 50
90.0
100
AcDbRotatedDimension
1001
ACAD
1000
DSTYLE
1002
{
1070
   341
1005
0
1002
}
  0
LINE
  5
28241
102
{ACAD_REACTORS
330
2C0FC
102
}
330
747D
100
AcDbEntity
  8
部品1
 48
50.0
100
AcDbLine
 10
5168.600000000001
 20
5302.854429179785
 30
0.0
 11
5168.600000000001
 21
8782.854429179783
 31
0.0
  0
DIMENSION
  5
28242
330
747D
100
AcDbEntity
  8
寸法
 48
50.0
100
AcDbDimension
  2
*D14
 10
4427.164931848209
 20
5302.854429179785
 30
0.0
 11
4327.164931848209
 21
7042.854429179785
 31
0.0
 70
    32
 71
     5
 42
3479.999999999999
  3
INABA_S40G
100
AcDbAlignedDimension
 13
5168.600000000001
 23
8782.854429179783
 33
0.0
 14
5168.600000000001
 24
5302.854429179785
 34
0.0
 50
90.0
100
AcDbRotatedDimension
1001
ACAD
1000
DSTYLE
1002
{
1070
   341
1005
0
1002
}
  0
LINE
  5
28247
102
{ACAD_REACTORS
330
2C0FC
102
}
330
747D
100
AcDbEntity
  8
部品1
 48
50.0
100
AcDbLine
 10
7776.600000000001
 20
5227.854429179788
 30
0.0
 11
5621.6
 21
5227.854429179775
 31
0.0
  0
LINE
  5
2824A
330
747D
100
AcDbEntity
  8
部品1
 48
50.0
100
AcDbLine
 10
5168.600000000001
 20
5302.854429179785
 30
0.0
 11
5621.6
 21
5302.854429179785
 31
0.0
  0
LINE
  5
28255
330
747D
100
AcDbEntity
  8
部品1
 48
50.0
100
AcDbLine
 10
5621.6
 20
5227.85442917979
 30
0.0
 11
5621.6
 21
5302.854429179774
 31
0.0
  0
LINE
  5
28422
330
747D
100
AcDbEntity
  8
部品1
 48
50.0
100
AcDbLine
 10
7776.600000000001
 20
5227.85442917979
 30
0.0
 11
7776.600000000001
 21
5302.854429179786
 31
0.0
  0
DIMENSION
  5
28454
330
747D
100
AcDbEntity
  8
寸法
 48
50.0
100
AcDbDimension
  2
*D15
 10
5168.600000000001
 20
9528.614055721867
 30
0.0
 11
4895.493398282201
 21
9528.614055721867
 31
0.0
 70
   160
 71
     5
 42
122.9999999999991
  3
INABA_S40G
100
AcDbAlignedDimension
 13
5291.6
 23
8709.854429179785
 33
0.0
 14
5168.600000000001
 24
8782.854429179783
 34
0.0
100
AcDbRotatedDimension
1001
ACAD
1000
DSTYLE
1002
{
1070
   341
1005
0
1002
}
  0
DIMENSION
  5
28456
330
747D
100
AcDbEntity
  8
寸法
 48
50.0
100
AcDbDimension
  2
*D16
 10
4672.657733986176
 20
8659.854429179786
 30
0.0
 11
4672.657733986176
 21
9055.961030897584
 31
0.0
 70
   160
 71
     5
 42
122.9999999999963
  3
INABA_S40G
100
AcDbAlignedDimension
 13
5168.600000000001
 23
8782.854429179783
 33
0.0
 14
5241.6
 24
8659.854429179786
 34
0.0
 50
90.0
100
AcDbRotatedDimension
1001
ACAD
1000
DSTYLE
1002
{
1070
   341
1005
0
1002
}
  0
DIMENSION
  5
28457
330
747D
100
AcDbEntity
  8
寸法
 48
50.0
100
AcDbDimension
  2
*D17
 10
5168.600000000001
 20
9309.76419482811
 30
0.0
 11
5570.100000000002
 21
9409.76419482811
 31
0.0
 70
    32
 71
     5
 42
803.000000000001
  3
INABA_S40G
100
AcDbAlignedDimension
 13
5971.600000000002
 23
8097.854429179783
 33
0.0
 14
5168.600000000001
 24
8782.854429179783
 34
0.0
100
AcDbRotatedDimension
1001
ACAD
1000
DSTYLE
1002
{
1070
   341
1005
0
1002
}
  0
DIMENSION
  5
28458
330
747D
100
AcDbEntity
  8
寸法
 48
50.0
100
AcDbDimension
  2
*D18
 10
4672.657733986175
 20
5425.854429179786
 30
0.0
 11
4572.645922962553
 21
7042.854429179787
 31
0.0
 70
    32
 71
     5
 42
3234.000000000001
  3
INABA_S40G
100
AcDbAlignedDimension
 13
5241.6
 23
8659.854429179786
 33
0.0
 14
5241.600000000008
 24
5425.854429179786
 34
0.0
 50
90.0
100
AcDbRotatedDimension
1001
ACAD
1000
DSTYLE
1002
{
1070
   341
1005
0
1002
}
  0
DIMENSION
  5
28459
330
747D
100
AcDbEntity
  8
寸法
 48
50.0
100
AcDbDimension
  2
*D19
 10
7425.6
 20
9309.76419482811
 30
0.0
 11
7824.600000000001
 21
9409.76419482811
 31
0.0
 70
    32
 71
     5
 42
798.0
  3
INABA_S40G
100
AcDbAlignedDimension
 13
8223.600000000001
 23
7997.854429179783
 33
0.0
 14
7425.6
 24
8097.854429179783
 34
0.0
100
AcDbRotatedDimension
1001
ACAD
1000
DSTYLE
1002
{
1070
   341
1005
0
1002
}
  0
DIMENSION
  5
2845A
330
747D
100
AcDbEntity
  8
寸法
 48
50.0
100
AcDbDimension
  2
*D20
 10
6698.6
 20
9309.76419482811
 30
0.0
 11
7062.1
 21
9409.77600585173
 31
0.0
 70
    32
 71
     5
 42
727.0
  3
INABA_S40G
100
AcDbAlignedDimension
 13
7425.6
 23
8097.854429179783
 33
0.0
 14
6698.6
 24
8152.854429179781
 34
0.0
100
AcDbRotatedDimension
1001
ACAD
1000
DSTYLE
1002
{
1070
   341
1005
0
1002
}
  0
DIMENSION
  5
2845B
330
747D
100
AcDbEntity
  8
寸法
 48
50.0
100
AcDbDimension
  2
*D21
 10
5615.307249876098
 20
8782.854429179783
 30
0.0
 11
5615.307249876098
 21
9060.937972452672
 31
0.0
 70
   160
 71
     5
 42
120.0000000000018
  3
INABA_S40G
100
AcDbAlignedDimension
 13
5398.6
 23
8662.85442917978
 33
0.0
 14
5398.600000000002
 24
8782.854429179783
 34
0.0
 50
90.0
100
AcDbRotatedDimension
1001
ACAD
1000
DSTYLE
1002
{
1070
   341
1005
0
1002
}
  0
DIMENSION
  5
2845C
330
747D
100
AcDbEntity
  8
寸法
 48
50.0
100
AcDbDimension
  2
*D22
 10
5291.6
 20
9528.614055721867
 30
0.0
 11
6698.6
 21
9628.62586674549
 31
0.0
 70
    32
 71
     5
 42
2814.0
  3
INABA_S40G
100
AcDbAlignedDimension
 13
8105.6
 23
8709.854429179785
 33
0.0
 14
5291.6
 24
8709.854429179785
 34
0.0
100
AcDbRotatedDimension
1001
ACAD
1000
DSTYLE
1002
{
1070
   341
1005
0
1002
}
  0
DIMENSION
  5
2845D
330
747D
100
AcDbEntity
  8
寸法
 48
50.0
100
AcDbDimension
  2
*D23
 10
5971.600000000002
 20
9309.76419482811
 30
0.0
 11
6335.100000000001
 21
9409.77600585173
 31
0.0
 70
    32
 71
     5
 42
726.9999999999981
  3
INABA_S40G
100
AcDbAlignedDimension
 13
6698.6
 23
8097.854429179783
 33
0.0
 14
5971.600000000002
 24
8097.854429179783
 34
0.0
100
AcDbRotatedDimension
1001
ACAD
1000
DSTYLE
1002
{
1070
   341
1005
0
1002
}
  0
LINE
  5
2845E
102
{ACAD_REACTORS
330
2C0FC
102
}
330
747D
100
AcDbEntity
  8
部品1
 48
50.0
100
AcDbLine
 10
7975.6
 20
5422.854429179793
 30
0.0
 11
5398.6
 21
5422.854429179788
 31
0.0
  0
LINE
  5
2845F
102
{ACAD_REACTORS
330
2C0FC
102
}
330
747D
100
AcDbEntity
  8
部品1
 48
50.0
100
AcDbLine
 10
7975.6
 20
8662.854429179786
 30
0.0
 11
5398.6
 21
8662.854429179786
 31
0.0
  0
LINE
  5
28460
102
{ACAD_REACTORS
330
2C0FC
102
}
330
747D
100
AcDbEntity
  8
部品1
 48
50.0
100
AcDbLine
 10
5288.6
 20
5532.854429179786
 30
0.0
 11
5288.6
 21
8552.854429179781
 31
0.0
  0
LINE
  5
28467
330
747D
100
AcDbEntity
  8
部品1
 48
50.0
100
AcDbLine
 10
5398.6
 20
5532.854429179788
 30
0.0
 11
5288.6
 21
5532.854429179788
 31
0.0
  0
CIRCLE
  5
28468
330
747D
100
AcDbEntity
  8
部品1
 48
50.0
100
AcDbCircle
 10
5291.600000000006
 20
5425.854429179786
 30
0.0
 40
35.0
  0
LINE
  5
28469
330
747D
100
AcDbEntity
  8
センター
 48
2.0
100
AcDbLine
 10
5291.600000000006
 20
5475.854429179786
 30
0.0
 11
5291.600000000006
 21
5375.854429179786
 31
0.0
  0
LINE
  5
2846A
330
747D
100
AcDbEntity
  8
センター
 48
2.0
100
AcDbLine
 10
5241.600000000008
 20
5425.854429179786
 30
0.0
 11
5341.600000000006
 21
5425.854429179786
 31
0.0
  0
LINE
  5
2846B
330
747D
100
AcDbEntity
  8
部品1
 48
50.0
100
AcDbLine
 10
5398.6
 20
5422.854429179788
 30
0.0
 11
5398.6
 21
5532.854429179788
 31
0.0
  0
LINE
  5
2846C
102
{ACAD_REACTORS
330
2C0FC
102
}
330
747D
100
AcDbEntity
  8
部品1
 48
50.0
100
AcDbLine
 10
5288.599999999998
 20
7142.854429179782
 30
0.0
 11
5168.599999999998
 21
7142.854429179782
 31
0.0
  0
LINE
  5
2846D
102
{ACAD_REACTORS
330
2C0FC
102
}
330
747D
100
AcDbEntity
  8
部品1
 48
50.0
100
AcDbLine
 10
5288.599999999998
 20
6942.854429179782
 30
0.0
 11
5168.599999999998
 21
6942.854429179782
 31
0.0
  0
DIMENSION
  5
2847A
330
747D
100
AcDbEntity
  8
寸法
 48
50.0
100
AcDbDimension
  2
*D24
 10
5615.307249876098
 20
8552.854429179781
 30
0.0
 11
5615.307249876098
 21
8212.79537406167
 31
0.0
 70
   160
 71
     5
 42
110.0000000000054
  3
INABA_S40G
100
AcDbAlignedDimension
 13
5398.6
 23
8662.854429179786
 33
0.0
 14
5398.6
 24
8552.854429179781
 34
0.0
 50
90.0
100
AcDbRotatedDimension
1001
ACAD
1000
DSTYLE
1002
{
1070
   341
1005
0
1002
}
  0
LINE
  5
2847D
330
747D
100
AcDbEntity
  8
部品1
 48
50.0
100
AcDbLine
 10
5398.599999999999
 20
8552.854429179781
 30
0.0
 11
5398.6
 21
8662.854429179786
 31
0.0
  0
CIRCLE
  5
2847E
330
747D
100
AcDbEntity
  8
部品1
 48
50.0
100
AcDbCircle
 10
5291.6
 20
8659.854429179786
 30
0.0
 40
35.0
  0
LINE
  5
2847F
330
747D
100
AcDbEntity
  8
センター
 48
2.0
100
AcDbLine
 10
5291.6
 20
8709.854429179785
 30
0.0
 11
5291.6
 21
8609.854429179785
 31
0.0
  0
LINE
  5
28480
330
747D
100
AcDbEntity
  8
部品1
 48
50.0
100
AcDbLine
 10
5398.599999999999
 20
8552.854429179781
 30
0.0
 11
5288.6
 21
8552.854429179783
 31
0.0
  0
LINE
  5
28481
330
747D
100
AcDbEntity
  8
部品1
 48
50.0
100
AcDbLine
 10
5567.928907166848
 20
8782.854429179781
 30
0.0
 11
5168.600000000001
 21
8782.854429179783
 31
0.0
  0
LINE
  5
28482
330
747D
100
AcDbEntity
  8
センター
 48
2.0
100
AcDbLine
 10
5241.6
 20
8659.854429179786
 30
0.0
 11
5341.6
 21
8659.854429179786
 31
0.0
  0
LINE
  5
2848A
102
{ACAD_REACTORS
330
2C0FC
102
}
330
747D
100
AcDbEntity
  8
部品1
 48
50.0
100
AcDbLine
 10
6798.6
 20
8782.854429179783
 30
0.0
 11
6798.6
 21
8662.854429179786
 31
0.0
  0
LINE
  5
2848B
102
{ACAD_REACTORS
330
2C0FC
102
}
330
747D
100
AcDbEntity
  8
部品1
 48
50.0
100
AcDbLine
 10
6598.600000000002
 20
8782.854429179783
 30
0.0
 11
6598.600000000002
 21
8662.854429179786
 31
0.0
  0
DIMENSION
  5
28493
330
747D
100
AcDbEntity
  8
寸法
 48
50.0
100
AcDbDimension
  2
*D25
 10
7975.6
 20
5810.500255434265
 30
0.0
 11
8105.6
 21
5810.500255434265
 31
0.0
 70
   160
 71
     5
 42
260.0
  3
INABA_S40G
100
AcDbAlignedDimension
 13
8235.600000000001
 23
5532.854429179804
 33
0.0
 14
7975.6
 24
5532.854429179804
 34
0.0
100
AcDbRotatedDimension
1001
ACAD
1000
DSTYLE
1002
{
1070
   341
1005
0
1002
}
  0
LINE
  5
28494
330
747D
100
AcDbEntity
  8
部品1
 48
50.0
100
AcDbLine
 10
8235.600000000001
 20
5532.854429179804
 30
0.0
 11
7975.6
 21
5532.854429179804
 31
0.0
  0
LINE
  5
28495
330
747D
100
AcDbEntity
  8
部品1
 48
50.0
100
AcDbLine
 10
7975.6
 20
5422.854429179793
 30
0.0
 11
7975.6
 21
5532.854429179804
 31
0.0
  0
LINE
  5
28496
330
747D
100
AcDbEntity
  8
部品1
 48
50.0
100
AcDbLine
 10
8235.600000000001
 20
5422.854429179795
 30
0.0
 11
8235.600000000001
 21
5532.854429179804
 31
0.0
  0
LINE
  5
28497
330
747D
100
AcDbEntity
  8
センター
 48
2.0
100
AcDbLine
 10
8055.600000000008
 20
5425.854429179786
 30
0.0
 11
8155.600000000008
 21
5425.854429179786
 31
0.0
  0
CIRCLE
  5
28498
330
747D
100
AcDbEntity
  8
部品1
 48
50.0
100
AcDbCircle
 10
8105.600000000007
 20
5425.854429179786
 30
0.0
 40
35.0
  0
LINE
  5
28499
330
747D
100
AcDbEntity
  8
センター
 48
2.0
100
AcDbLine
 10
8105.600000000007
 20
5475.854429179786
 30
0.0
 11
8105.600000000007
 21
5375.854429179786
 31
0.0
  0
LINE
  5
284A6
330
747D
100
AcDbEntity
  8
部品1
 48
50.0
100
AcDbLine
 10
8235.600000000001
 20
8552.854429179765
 30
0.0
 11
7975.6
 21
8552.854429179765
 31
0.0
  0
LINE
  5
284A7
330
747D
100
AcDbEntity
  8
部品1
 48
50.0
100
AcDbLine
 10
7975.6
 20
8662.85442917978
 30
0.0
 11
7975.6
 21
8552.854429179765
 31
0.0
  0
LINE
  5
284A8
330
747D
100
AcDbEntity
  8
部品1
 48
50.0
100
AcDbLine
 10
8235.600000000001
 20
8662.854429179786
 30
0.0
 11
8235.600000000001
 21
8552.854429179765
 31
0.0
  0
CIRCLE
  5
284A9
330
747D
100
AcDbEntity
  8
部品1
 48
50.0
100
AcDbCircle
 10
8105.6
 20
8659.854429179786
 30
0.0
 40
35.0
  0
LINE
  5
284AA
330
747D
100
AcDbEntity
  8
センター
 48
2.0
100
AcDbLine
 10
8105.6
 20
8709.854429179785
 30
0.0
 11
8105.6
 21
8609.854429179785
 31
0.0
  0
LINE
  5
284AB
330
747D
100
AcDbEntity
  8
センター
 48
2.0
100
AcDbLine
 10
8055.600000000001
 20
8659.854429179786
 30
0.0
 11
8155.600000000001
 21
8659.854429179786
 31
0.0
  0
LINE
  5
284AD
102
{ACAD_REACTORS
330
2C0FC
102
}
330
747D
100
AcDbEntity
  8
部品1
 48
50.0
100
AcDbLine
 10
9648.600000000014
 20
5422.854429179798
 30
0.0
 11
9648.600000000014
 21
5302.854429179797
 31
0.0
  0
LINE
  5
284AE
102
{ACAD_REACTORS
330
2C0FC
102
}
330
747D
100
AcDbEntity
  8
部品1
 48
50.0
100
AcDbLine
 10
9848.600000000013
 20
5422.854429179799
 30
0.0
 11
9848.600000000013
 21
5302.854429179797
 31
0.0
  0
DIMENSION
  5
284AF
330
747D
100
AcDbEntity
  8
寸法
 48
50.0
100
AcDbDimension
  2
*D26
 10
10163.85510029273
 20
6187.854429179776
 30
0.0
 11
10063.85510029272
 21
5745.354429179785
 31
0.0
 70
    32
 71
     5
 42
884.9999999999827
  3
INABA_S40G
100
AcDbAlignedDimension
 13
9909.045939259561
 23
5302.854429179793
 33
0.0
 14
10375.6
 24
6187.854429179775
 34
0.0
 50
90.0
100
AcDbRotatedDimension
1001
ACAD
1000
DSTYLE
1002
{
1070
   341
1005
0
1002
}
  0
LINE
  5
284B1
102
{ACAD_REACTORS
330
2C0FC
102
}
330
747D
100
AcDbEntity
  8
部品1
 48
50.0
100
AcDbLine
 10
11278.6
 20
5302.854429179802
 30
0.0
 11
11278.6
 21
8782.854429179783
 31
0.0
  0
DIMENSION
  5
284B9
330
747D
100
AcDbEntity
  8
寸法
 48
50.0
100
AcDbDimension
  2
*D27
 10
11155.6
 20
9528.614055721867
 30
0.0
 11
11551.7066017178
 21
9528.614055721867
 31
0.0
 70
   160
 71
     5
 42
123.0
  3
INABA_S40G
100
AcDbAlignedDimension
 13
11278.6
 23
8782.854429179783
 33
0.0
 14
11155.6
 24
8709.854429179785
 34
0.0
100
AcDbRotatedDimension
1001
ACAD
1000
DSTYLE
1002
{
1070
   341
1005
0
1002
}
  0
DIMENSION
  5
284BA
330
747D
100
AcDbEntity
  8
寸法
 48
50.0
100
AcDbDimension
  2
*D28
 10
9748.600000000001
 20
9309.76419482811
 30
0.0
 11
10112.1
 21
9409.77600585173
 31
0.0
 70
    32
 71
     5
 42
727.0
  3
INABA_S40G
100
AcDbAlignedDimension
 13
10475.6
 23
8097.854429179783
 33
0.0
 14
9748.600000000001
 24
8152.854429179781
 34
0.0
100
AcDbRotatedDimension
1001
ACAD
1000
DSTYLE
1002
{
1070
   341
1005
0
1002
}
  0
DIMENSION
  5
284BB
330
747D
100
AcDbEntity
  8
寸法
 48
50.0
100
AcDbDimension
  2
*D29
 10
10475.6
 20
9309.76419482811
 30
0.0
 11
10877.1
 21
9409.76419482811
 31
0.0
 70
    32
 71
     5
 42
803.0
  3
INABA_S40G
100
AcDbAlignedDimension
 13
11278.6
 23
8782.854429179783
 33
0.0
 14
10475.6
 24
8097.854429179783
 34
0.0
100
AcDbRotatedDimension
1001
ACAD
1000
DSTYLE
1002
{
1070
   341
1005
0
1002
}
  0
DIMENSION
  5
284BC
330
747D
100
AcDbEntity
  8
寸法
 48
50.0
100
AcDbDimension
  2
*D30
 10
9021.600000000001
 20
9309.76419482811
 30
0.0
 11
9385.099999999999
 21
9409.77600585173
 31
0.0
 70
    32
 71
     5
 42
727.0
  3
INABA_S40G
100
AcDbAlignedDimension
 13
9748.600000000001
 23
8097.854429179783
 33
0.0
 14
9021.600000000001
 24
8097.854429179783
 34
0.0
100
AcDbRotatedDimension
1001
ACAD
1000
DSTYLE
1002
{
1070
   341
1005
0
1002
}
  0
DIMENSION
  5
284BD
330
747D
100
AcDbEntity
  8
寸法
 48
50.0
100
AcDbDimension
  2
*D31
 10
10163.85510029273
 20
7897.854429179783
 30
0.0
 11
10063.85510029272
 21
7470.354429179784
 31
0.0
 70
    32
 71
     5
 42
855.0000000000009
  3
INABA_S40G
100
AcDbAlignedDimension
 13
10375.6
 23
7042.854429179782
 33
0.0
 14
10375.6
 24
7897.854429179783
 34
0.0
 50
90.0
100
AcDbRotatedDimension
1001
ACAD
1000
DSTYLE
1002
{
1070
   341
1005
0
1002
}
  0
DIMENSION
  5
284BE
330
747D
100
AcDbEntity
  8
寸法
 48
50.0
100
AcDbDimension
  2
*D32
 10
10163.85510029273
 20
8782.854429179783
 30
0.0
 11
10063.85510029272
 21
8340.354429179784
 31
0.0
 70
    32
 71
     5
 42
884.999999999999
  3
INABA_S40G
100
AcDbAlignedDimension
 13
10375.6
 23
7897.854429179783
 33
0.0
 14
9813.157431058357
 24
8782.854429179783
 34
0.0
 50
90.0
100
AcDbRotatedDimension
1001
ACAD
1000
DSTYLE
1002
{
1070
   341
1005
0
1002
}
  0
LINE
  5
284D8
102
{ACAD_REACTORS
330
2C0FC
102
}
330
747D
100
AcDbEntity
  8
部品1
 48
50.0
100
AcDbLine
 10
9648.600000000001
 20
8782.854429179783
 30
0.0
 11
9648.600000000001
 21
8662.85442917978
 31
0.0
  0
LINE
  5
284D9
102
{ACAD_REACTORS
330
2C0FC
102
}
330
747D
100
AcDbEntity
  8
部品1
 48
50.0
100
AcDbLine
 10
9848.600000000001
 20
8782.854429179783
 30
0.0
 11
9848.600000000001
 21
8662.85442917978
 31
0.0
  0
LINE
  5
284DA
102
{ACAD_REACTORS
330
2C0FC
102
}
330
747D
100
AcDbEntity
  8
部品1
 48
50.0
100
AcDbLine
 10
11158.6
 20
5532.854429179804
 30
0.0
 11
11158.6
 21
8552.854429179785
 31
0.0
  0
LINE
  5
284E1
330
747D
100
AcDbEntity
  8
センター
 48
2.0
100
AcDbLine
 10
11105.60000000001
 20
5425.854429179786
 30
0.0
 11
11205.60000000001
 21
5425.854429179786
 31
0.0
  0
LINE
  5
284E2
330
747D
100
AcDbEntity
  8
部品1
 48
50.0
100
AcDbLine
 10
11158.6
 20
5532.854429179804
 30
0.0
 11
11048.6
 21
5532.854429179804
 31
0.0
  0
LINE
  5
284E3
330
747D
100
AcDbEntity
  8
部品1
 48
50.0
100
AcDbLine
 10
11048.6
 20
5422.854429179801
 30
0.0
 11
11048.6
 21
5532.854429179804
 31
0.0
  0
LINE
  5
284E4
330
747D
100
AcDbEntity
  8
センター
 48
2.0
100
AcDbLine
 10
11155.6
 20
5475.854429179786
 30
0.0
 11
11155.6
 21
5375.854429179786
 31
0.0
  0
CIRCLE
  5
284E5
330
747D
100
AcDbEntity
  8
部品1
 48
50.0
100
AcDbCircle
 10
11155.6
 20
5425.854429179786
 30
0.0
 40
35.0
  0
LINE
  5
284E6
102
{ACAD_REACTORS
330
2C0FC
102
}
330
747D
100
AcDbEntity
  8
部品1
 48
50.0
100
AcDbLine
 10
11278.6
 20
7142.854429179782
 30
0.0
 11
11158.6
 21
7142.854429179782
 31
0.0
  0
LINE
  5
284E7
102
{ACAD_REACTORS
330
2C0FC
102
}
330
747D
100
AcDbEntity
  8
部品1
 48
50.0
100
AcDbLine
 10
11278.6
 20
6942.854429179782
 30
0.0
 11
11158.6
 21
6942.854429179782
 31
0.0
  0
DIMENSION
  5
284E9
330
747D
100
AcDbEntity
  8
寸法
 48
50.0
100
AcDbDimension
  2
*D33
 10
11048.6
 20
8325.145761679413
 30
0.0
 11
10778.54094488189
 21
8325.145761679413
 31
0.0
 70
   160
 71
     5
 42
110.0
  3
INABA_S40G
100
AcDbAlignedDimension
 13
11158.6
 23
8552.854429179785
 33
0.0
 14
11048.6
 24
8552.854429179783
 34
0.0
100
AcDbRotatedDimension
1001
ACAD
1000
DSTYLE
1002
{
1070
   341
1005
0
1002
}
  0
DIMENSION
  5
284F0
330
747D
100
AcDbEntity
  8
寸法
 48
50.0
100
AcDbDimension
  2
*D34
 10
11158.6
 20
8325.145761679413
 30
0.0
 11
11548.65905511811
 21
8325.145761679413
 31
0.0
 70
   160
 71
     5
 42
120.0
  3
INABA_S40G
100
AcDbAlignedDimension
 13
11278.6
 23
8342.139025718241
 33
0.0
 14
11158.6
 24
8552.854429179785
 34
0.0
100
AcDbRotatedDimension
1001
ACAD
1000
DSTYLE
1002
{
1070
   341
1005
0
1002
}
  0
LINE
  5
284F1
330
747D
100
AcDbEntity
  8
センター
 48
2.0
100
AcDbLine
 10
11155.6
 20
8709.854429179785
 30
0.0
 11
11155.6
 21
8609.854429179785
 31
0.0
  0
CIRCLE
  5
284F2
330
747D
100
AcDbEntity
  8
部品1
 48
50.0
100
AcDbCircle
 10
11155.6
 20
8659.854429179786
 30
0.0
 40
35.0
  0
LINE
  5
284F3
330
747D
100
AcDbEntity
  8
部品1
 48
50.0
100
AcDbLine
 10
11048.6
 20
8552.854429179783
 30
0.0
 11
11048.6
 21
8662.85442917978
 31
0.0
  0
LINE
  5
284F4
330
747D
100
AcDbEntity
  8
部品1
 48
50.0
100
AcDbLine
 10
11158.6
 20
8552.854429179785
 30
0.0
 11
11048.6
 21
8552.854429179783
 31
0.0
  0
LINE
  5
284F5
330
747D
100
AcDbEntity
  8
センター
 48
2.0
100
AcDbLine
 10
11105.6
 20
8659.854429179786
 30
0.0
 11
11205.6
 21
8659.854429179786
 31
0.0
  0
MTEXT
  5
29996
102
{ACAD_REACTORS
330
29997
102
}
330
747D
100
AcDbEntity
  8
部品1
 62
     7
 48
50.0
100
AcDbMText
 10
6373.440328953416
 20
6704.865192916257
 30
0.0
 40
120.0
 41
0.0
 71
     6
 72
     1
  1
CB
  7
STYLE1
 73
     1
 44
1.0
1001
ACAD
1000
MTEXTBEGIN
1070
    73
1070
     1
1070
    44
1040
1.0
1070
    74
1070
     0
1000
MTEXTEND
  0
LEADER
  5
29997
330
747D
100
AcDbEntity
  8
寸法
 48
50.0
100
AcDbLeader
  3
INABA_S40G
 73
     0
 74
     0
 75
     1
 40
120.0
 41
149.591883092037
 76
     3
 10
5946.565642998738
 20
6880.879106484091
 30
0.0
 10
6083.848445861379
 20
6604.865192916257
 30
0.0
 10
6183.848445861379
 20
6604.865192916257
 30
0.0
340
29996
1001
ACAD
1000
DSTYLE
1002
{
1070
   341
1005
0
1002
}
  0
DIMENSION
  5
2A8B8
330
747D
100
AcDbEntity
  8
寸法
 48
50.0
100
AcDbDimension
  2
*D35
 10
10163.85510029273
 20
7042.854429179782
 30
0.0
 11
10063.85510029272
 21
6615.354429179783
 31
0.0
 70
    32
 71
     5
 42
854.9999999999991
  3
INABA_S40G
100
AcDbAlignedDimension
 13
10375.6
 23
6187.854429179783
 33
0.0
 14
10375.6
 24
7042.854429179782
 34
0.0
 50
90.0
100
AcDbRotatedDimension
1001
ACAD
1000
DSTYLE
1002
{
1070
   341
1005
0
1002
}
  0
LINE
  5
2B459
330
747D
100
AcDbEntity
  8
部品1
 48
50.0
100
AcDbLine
 10
7525.6
 20
7242.854429179782
 30
0.0
 11
7325.6
 21
7242.854429179782
 31
0.0
  0
LINE
  5
2B45A
330
747D
100
AcDbEntity
  8
部品1
 48
50.0
100
AcDbLine
 10
7525.6
 20
6842.85442917978
 30
0.0
 11
7325.6
 21
6842.85442917978
 31
0.0
  0
LINE
  5
2B45B
330
747D
100
AcDbEntity
  8
センター
 48
2.0
100
AcDbLine
 10
7375.6
 20
7042.854429179782
 30
0.0
 11
7475.6
 21
7042.854429179782
 31
0.0
  0
LINE
  5
2B45C
330
747D
100
AcDbEntity
  8
部品1
 48
50.0
100
AcDbLine
 10
7525.6
 20
6842.85442917978
 30
0.0
 11
7525.6
 21
7242.854429179782
 31
0.0
  0
LINE
  5
2B45D
330
747D
100
AcDbEntity
  8
部品1
 48
50.0
100
AcDbLine
 10
7325.6
 20
6842.854429179782
 30
0.0
 11
7325.6
 21
7242.854429179782
 31
0.0
  0
LINE
  5
2B45E
330
747D
100
AcDbEntity
  8
センター
 48
2.0
100
AcDbLine
 10
7425.6
 20
7092.854429179782
 30
0.0
 11
7425.6
 21
6992.854429179782
 31
0.0
  0
LINE
  5
2B45F
330
747D
100
AcDbEntity
  8
センター
 48
2.0
100
AcDbLine
 10
7375.6
 20
6187.854429179783
 30
0.0
 11
7475.6
 21
6187.854429179783
 31
0.0
  0
LINE
  5
2B460
330
747D
100
AcDbEntity
  8
部品1
 48
50.0
100
AcDbLine
 10
7525.6
 20
6387.854429179783
 30
0.0
 11
7325.6
 21
6387.854429179783
 31
0.0
  0
LINE
  5
2B461
330
747D
100
AcDbEntity
  8
部品1
 48
50.0
100
AcDbLine
 10
6798.6
 20
7242.854429179782
 30
0.0
 11
6598.600000000002
 21
7242.854429179782
 31
0.0
  0
LINE
  5
2B462
330
747D
100
AcDbEntity
  8
部品1
 48
50.0
100
AcDbLine
 10
6798.6
 20
6842.85442917978
 30
0.0
 11
6598.600000000002
 21
6842.85442917978
 31
0.0
  0
LINE
  5
2B463
330
747D
100
AcDbEntity
  8
センター
 48
2.0
100
AcDbLine
 10
6648.6
 20
7042.854429179782
 30
0.0
 11
6748.6
 21
7042.854429179782
 31
0.0
  0
LINE
  5
2B464
330
747D
100
AcDbEntity
  8
部品1
 48
50.0
100
AcDbLine
 10
6798.6
 20
6842.85442917978
 30
0.0
 11
6798.6
 21
7242.854429179782
 31
0.0
  0
LINE
  5
2B465
330
747D
100
AcDbEntity
  8
部品1
 48
50.0
100
AcDbLine
 10
6598.600000000002
 20
6842.854429179782
 30
0.0
 11
6598.600000000002
 21
7242.854429179782
 31
0.0
  0
LINE
  5
2B466
330
747D
100
AcDbEntity
  8
センター
 48
2.0
100
AcDbLine
 10
6698.6
 20
7092.854429179782
 30
0.0
 11
6698.6
 21
6992.854429179782
 31
0.0
  0
LINE
  5
2B467
330
747D
100
AcDbEntity
  8
部品1
 48
50.0
100
AcDbLine
 10
6071.6
 20
6842.85442917978
 30
0.0
 11
6071.6
 21
7242.854429179782
 31
0.0
  0
LINE
  5
2B468
330
747D
100
AcDbEntity
  8
センター
 48
2.0
100
AcDbLine
 10
6648.6
 20
6187.854429179783
 30
0.0
 11
6748.6
 21
6187.854429179783
 31
0.0
  0
LINE
  5
2B469
330
747D
100
AcDbEntity
  8
部品1
 48
50.0
100
AcDbLine
 10
6798.6
 20
6387.854429179783
 30
0.0
 11
6598.600000000002
 21
6387.854429179783
 31
0.0
  0
LINE
  5
2B46A
330
747D
100
AcDbEntity
  8
部品1
 48
50.0
100
AcDbLine
 10
5871.6
 20
6842.854429179782
 30
0.0
 11
5871.6
 21
7242.854429179782
 31
0.0
  0
LINE
  5
2B46B
330
747D
100
AcDbEntity
  8
センター
 48
2.0
100
AcDbLine
 10
5971.600000000002
 20
7092.854429179782
 30
0.0
 11
5971.600000000002
 21
6992.854429179782
 31
0.0
  0
LINE
  5
2B46C
330
747D
100
AcDbEntity
  8
部品1
 48
50.0
100
AcDbLine
 10
6071.6
 20
6387.854429179783
 30
0.0
 11
5871.6
 21
6387.854429179783
 31
0.0
  0
LINE
  5
2B46D
330
747D
100
AcDbEntity
  8
センター
 48
2.0
100
AcDbLine
 10
5921.600000000001
 20
6187.854429179783
 30
0.0
 11
6021.600000000002
 21
6187.854429179783
 31
0.0
  0
LINE
  5
2B46E
330
747D
100
AcDbEntity
  8
センター
 48
2.0
100
AcDbLine
 10
5921.600000000001
 20
7042.854429179782
 30
0.0
 11
6021.600000000002
 21
7042.854429179782
 31
0.0
  0
LINE
  5
2B46F
330
747D
100
AcDbEntity
  8
部品1
 48
50.0
100
AcDbLine
 10
6071.6
 20
7242.854429179782
 30
0.0
 11
5871.6
 21
7242.854429179782
 31
0.0
  0
LINE
  5
2B470
330
747D
100
AcDbEntity
  8
部品1
 48
50.0
100
AcDbLine
 10
6071.6
 20
6842.85442917978
 30
0.0
 11
5871.6
 21
6842.85442917978
 31
0.0
  0
LINE
  5
2B471
330
747D
100
AcDbEntity
  8
部品1
 48
50.0
100
AcDbLine
 10
7525.6
 20
5987.854429179781
 30
0.0
 11
7325.6
 21
5987.854429179781
 31
0.0
  0
LINE
  5
2B472
330
747D
100
AcDbEntity
  8
部品1
 48
50.0
100
AcDbLine
 10
6798.6
 20
5987.854429179781
 30
0.0
 11
6598.600000000002
 21
5987.854429179781
 31
0.0
  0
LINE
  5
2B473
330
747D
100
AcDbEntity
  8
部品1
 48
50.0
100
AcDbLine
 10
6071.6
 20
5987.854429179781
 30
0.0
 11
5871.6
 21
5987.854429179781
 31
0.0
  0
LINE
  5
2B474
330
747D
100
AcDbEntity
  8
部品1
 48
50.0
100
AcDbLine
 10
5871.6
 20
5987.854429179781
 30
0.0
 11
5871.6
 21
6387.854429179783
 31
0.0
  0
LINE
  5
2B475
330
747D
100
AcDbEntity
  8
センター
 48
2.0
100
AcDbLine
 10
5971.600000000002
 20
6237.854429179783
 30
0.0
 11
5971.600000000002
 21
6137.854429179782
 31
0.0
  0
LINE
  5
2B476
330
747D
100
AcDbEntity
  8
部品1
 48
50.0
100
AcDbLine
 10
6071.6
 20
5987.854429179781
 30
0.0
 11
6071.6
 21
6387.854429179783
 31
0.0
  0
LINE
  5
2B477
330
747D
100
AcDbEntity
  8
部品1
 48
50.0
100
AcDbLine
 10
6598.600000000002
 20
5987.854429179781
 30
0.0
 11
6598.600000000002
 21
6387.854429179783
 31
0.0
  0
LINE
  5
2B478
330
747D
100
AcDbEntity
  8
部品1
 48
50.0
100
AcDbLine
 10
6798.6
 20
5987.854429179781
 30
0.0
 11
6798.6
 21
6387.854429179783
 31
0.0
  0
LINE
  5
2B479
330
747D
100
AcDbEntity
  8
センター
 48
2.0
100
AcDbLine
 10
6698.6
 20
6237.854429179783
 30
0.0
 11
6698.6
 21
6137.854429179782
 31
0.0
  0
LINE
  5
2B47A
330
747D
100
AcDbEntity
  8
部品1
 48
50.0
100
AcDbLine
 10
7325.6
 20
5987.854429179781
 30
0.0
 11
7325.6
 21
6387.854429179783
 31
0.0
  0
LINE
  5
2B47B
330
747D
100
AcDbEntity
  8
部品1
 48
50.0
100
AcDbLine
 10
7525.6
 20
5987.854429179781
 30
0.0
 11
7525.6
 21
6387.854429179783
 31
0.0
  0
LINE
  5
2B47C
330
747D
100
AcDbEntity
  8
センター
 48
2.0
100
AcDbLine
 10
7425.6
 20
6237.854429179783
 30
0.0
 11
7425.6
 21
6137.854429179782
 31
0.0
  0
LINE
  5
2B47D
330
747D
100
AcDbEntity
  8
部品1
 48
50.0
100
AcDbLine
 10
6071.6
 20
7697.854429179781
 30
0.0
 11
6071.6
 21
8097.854429179783
 31
0.0
  0
LINE
  5
2B47E
330
747D
100
AcDbEntity
  8
部品1
 48
50.0
100
AcDbLine
 10
5871.6
 20
7697.854429179783
 30
0.0
 11
5871.6
 21
8097.854429179783
 31
0.0
  0
LINE
  5
2B47F
330
747D
100
AcDbEntity
  8
センター
 48
2.0
100
AcDbLine
 10
5971.600000000002
 20
7947.854429179783
 30
0.0
 11
5971.600000000002
 21
7847.854429179783
 31
0.0
  0
LINE
  5
2B480
330
747D
100
AcDbEntity
  8
部品1
 48
50.0
100
AcDbLine
 10
6071.6
 20
7697.854429179781
 30
0.0
 11
5871.6
 21
7697.854429179781
 31
0.0
  0
LINE
  5
2B481
330
747D
100
AcDbEntity
  8
部品1
 48
50.0
100
AcDbLine
 10
6071.6
 20
8097.854429179783
 30
0.0
 11
5871.6
 21
8097.854429179783
 31
0.0
  0
LINE
  5
2B482
330
747D
100
AcDbEntity
  8
センター
 48
2.0
100
AcDbLine
 10
5921.600000000001
 20
7897.854429179783
 30
0.0
 11
6021.600000000002
 21
7897.854429179783
 31
0.0
  0
LINE
  5
2B484
330
747D
100
AcDbEntity
  8
部品1
 48
50.0
100
AcDbLine
 10
7525.6
 20
8097.854429179783
 30
0.0
 11
7325.6
 21
8097.854429179783
 31
0.0
  0
LINE
  5
2B485
330
747D
100
AcDbEntity
  8
部品1
 48
50.0
100
AcDbLine
 10
7525.6
 20
7697.854429179781
 30
0.0
 11
7325.6
 21
7697.854429179781
 31
0.0
  0
LINE
  5
2B486
330
747D
100
AcDbEntity
  8
センター
 48
2.0
100
AcDbLine
 10
7375.6
 20
7897.854429179783
 30
0.0
 11
7475.6
 21
7897.854429179783
 31
0.0
  0
LINE
  5
2B487
330
747D
100
AcDbEntity
  8
部品1
 48
50.0
100
AcDbLine
 10
7325.6
 20
7697.854429179783
 30
0.0
 11
7325.6
 21
8097.854429179783
 31
0.0
  0
LINE
  5
2B488
330
747D
100
AcDbEntity
  8
部品1
 48
50.0
100
AcDbLine
 10
7525.6
 20
7697.854429179781
 30
0.0
 11
7525.6
 21
8097.854429179783
 31
0.0
  0
LINE
  5
2B489
330
747D
100
AcDbEntity
  8
センター
 48
2.0
100
AcDbLine
 10
7425.6
 20
7947.854429179783
 30
0.0
 11
7425.6
 21
7847.854429179783
 31
0.0
  0
LINE
  5
2B48A
330
747D
100
AcDbEntity
  8
部品1
 48
50.0
100
AcDbLine
 10
6798.6
 20
8097.854429179783
 30
0.0
 11
6598.600000000002
 21
8097.854429179783
 31
0.0
  0
LINE
  5
2B48B
330
747D
100
AcDbEntity
  8
部品1
 48
50.0
100
AcDbLine
 10
6798.6
 20
7697.854429179781
 30
0.0
 11
6598.600000000002
 21
7697.854429179781
 31
0.0
  0
LINE
  5
2B48C
330
747D
100
AcDbEntity
  8
センター
 48
2.0
100
AcDbLine
 10
6648.6
 20
7897.854429179783
 30
0.0
 11
6748.6
 21
7897.854429179783
 31
0.0
  0
LINE
  5
2B48D
330
747D
100
AcDbEntity
  8
部品1
 48
50.0
100
AcDbLine
 10
6598.600000000002
 20
7697.854429179783
 30
0.0
 11
6598.600000000002
 21
8097.854429179783
 31
0.0
  0
LINE
  5
2B48E
330
747D
100
AcDbEntity
  8
部品1
 48
50.0
100
AcDbLine
 10
6798.6
 20
7697.854429179781
 30
0.0
 11
6798.6
 21
8097.854429179783
 31
0.0
  0
LINE
  5
2B48F
330
747D
100
AcDbEntity
  8
センター
 48
2.0
100
AcDbLine
 10
6698.6
 20
7947.854429179783
 30
0.0
 11
6698.6
 21
7847.854429179783
 31
0.0
  0
LINE
  5
2B490
330
747D
100
AcDbEntity
  8
部品1
 48
50.0
100
AcDbLine
 10
8323.6
 20
7997.854429179783
 30
0.0
 11
8123.600000000001
 21
7997.854429179783
 31
0.0
  0
LINE
  5
2B491
330
747D
100
AcDbEntity
  8
部品1
 48
50.0
100
AcDbLine
 10
8323.6
 20
7797.85442917978
 30
0.0
 11
8123.600000000001
 21
7797.85442917978
 31
0.0
  0
LINE
  5
2B492
330
747D
100
AcDbEntity
  8
センター
 48
2.0
100
AcDbLine
 10
8173.6
 20
7897.854429179783
 30
0.0
 11
8273.6
 21
7897.854429179783
 31
0.0
  0
LINE
  5
2B493
330
747D
100
AcDbEntity
  8
センター
 48
2.0
100
AcDbLine
 10
8223.600000000001
 20
7947.854429179783
 30
0.0
 11
8223.600000000001
 21
7847.854429179783
 31
0.0
  0
LINE
  5
2B494
330
747D
100
AcDbEntity
  8
部品1
 48
50.0
100
AcDbLine
 10
8123.600000000001
 20
7797.854429179783
 30
0.0
 11
8123.600000000001
 21
7997.854429179783
 31
0.0
  0
LINE
  5
2B495
330
747D
100
AcDbEntity
  8
部品1
 48
50.0
100
AcDbLine
 10
8323.6
 20
7797.85442917978
 30
0.0
 11
8323.6
 21
7997.854429179783
 31
0.0
  0
LINE
  5
2B496
330
747D
100
AcDbEntity
  8
部品1
 48
50.0
100
AcDbLine
 10
8323.6
 20
7142.854429179782
 30
0.0
 11
8123.600000000001
 21
7142.854429179782
 31
0.0
  0
LINE
  5
2B497
330
747D
100
AcDbEntity
  8
部品1
 48
50.0
100
AcDbLine
 10
8323.6
 20
6942.854429179782
 30
0.0
 11
8123.600000000001
 21
6942.854429179782
 31
0.0
  0
LINE
  5
2B498
330
747D
100
AcDbEntity
  8
センター
 48
2.0
100
AcDbLine
 10
8173.6
 20
7042.854429179782
 30
0.0
 11
8273.6
 21
7042.854429179782
 31
0.0
  0
LINE
  5
2B499
330
747D
100
AcDbEntity
  8
センター
 48
2.0
100
AcDbLine
 10
8223.600000000001
 20
7092.854429179782
 30
0.0
 11
8223.600000000001
 21
6992.854429179782
 31
0.0
  0
LINE
  5
2B49A
330
747D
100
AcDbEntity
  8
部品1
 48
50.0
100
AcDbLine
 10
8123.600000000001
 20
6942.854429179782
 30
0.0
 11
8123.600000000001
 21
7142.854429179782
 31
0.0
  0
LINE
  5
2B49B
330
747D
100
AcDbEntity
  8
部品1
 48
50.0
100
AcDbLine
 10
8323.6
 20
6942.854429179782
 30
0.0
 11
8323.6
 21
7142.854429179782
 31
0.0
  0
LINE
  5
2B49C
330
747D
100
AcDbEntity
  8
センター
 48
2.0
100
AcDbLine
 10
8173.6
 20
6187.854429179783
 30
0.0
 11
8273.6
 21
6187.854429179783
 31
0.0
  0
LINE
  5
2B49D
330
747D
100
AcDbEntity
  8
部品1
 48
50.0
100
AcDbLine
 10
8323.6
 20
6287.854429179783
 30
0.0
 11
8123.600000000001
 21
6287.854429179783
 31
0.0
  0
LINE
  5
2B49E
330
747D
100
AcDbEntity
  8
部品1
 48
50.0
100
AcDbLine
 10
8323.6
 20
6087.854429179781
 30
0.0
 11
8123.600000000001
 21
6087.854429179781
 31
0.0
  0
LINE
  5
2B49F
330
747D
100
AcDbEntity
  8
センター
 48
2.0
100
AcDbLine
 10
8223.600000000001
 20
6237.854429179783
 30
0.0
 11
8223.600000000001
 21
6137.854429179782
 31
0.0
  0
LINE
  5
2B4A0
330
747D
100
AcDbEntity
  8
部品1
 48
50.0
100
AcDbLine
 10
8123.600000000001
 20
6087.854429179781
 30
0.0
 11
8123.600000000001
 21
6287.854429179783
 31
0.0
  0
LINE
  5
2B4A1
330
747D
100
AcDbEntity
  8
部品1
 48
50.0
100
AcDbLine
 10
8323.6
 20
6087.854429179781
 30
0.0
 11
8323.6
 21
6287.854429179783
 31
0.0
  0
LINE
  5
2B4A2
330
747D
100
AcDbEntity
  8
部品1
 48
50.0
100
AcDbLine
 10
10575.6
 20
8097.854429179783
 30
0.0
 11
10375.6
 21
8097.854429179783
 31
0.0
  0
LINE
  5
2B4A3
330
747D
100
AcDbEntity
  8
部品1
 48
50.0
100
AcDbLine
 10
10575.6
 20
7697.854429179781
 30
0.0
 11
10375.6
 21
7697.854429179781
 31
0.0
  0
LINE
  5
2B4A4
330
747D
100
AcDbEntity
  8
センター
 48
2.0
100
AcDbLine
 10
10425.6
 20
7897.854429179783
 30
0.0
 11
10525.6
 21
7897.854429179783
 31
0.0
  0
LINE
  5
2B4A5
330
747D
100
AcDbEntity
  8
部品1
 48
50.0
100
AcDbLine
 10
10375.6
 20
7697.854429179783
 30
0.0
 11
10375.6
 21
8097.854429179783
 31
0.0
  0
LINE
  5
2B4A6
330
747D
100
AcDbEntity
  8
部品1
 48
50.0
100
AcDbLine
 10
10575.6
 20
7697.854429179781
 30
0.0
 11
10575.6
 21
8097.854429179783
 31
0.0
  0
LINE
  5
2B4A7
330
747D
100
AcDbEntity
  8
センター
 48
2.0
100
AcDbLine
 10
10475.6
 20
7947.854429179783
 30
0.0
 11
10475.6
 21
7847.854429179783
 31
0.0
  0
LINE
  5
2B4A8
330
747D
100
AcDbEntity
  8
部品1
 48
50.0
100
AcDbLine
 10
9848.600000000001
 20
8097.854429179783
 30
0.0
 11
9648.600000000001
 21
8097.854429179783
 31
0.0
  0
LINE
  5
2B4A9
330
747D
100
AcDbEntity
  8
センター
 48
2.0
100
AcDbLine
 10
9698.6
 20
7897.854429179783
 30
0.0
 11
9798.6
 21
7897.854429179783
 31
0.0
  0
LINE
  5
2B4AA
330
747D
100
AcDbEntity
  8
部品1
 48
50.0
100
AcDbLine
 10
9848.600000000001
 20
7697.854429179781
 30
0.0
 11
9648.600000000001
 21
7697.854429179781
 31
0.0
  0
LINE
  5
2B4AB
330
747D
100
AcDbEntity
  8
部品1
 48
50.0
100
AcDbLine
 10
9848.600000000001
 20
7697.854429179781
 30
0.0
 11
9848.600000000001
 21
8097.854429179783
 31
0.0
  0
LINE
  5
2B4AC
330
747D
100
AcDbEntity
  8
部品1
 48
50.0
100
AcDbLine
 10
9648.600000000001
 20
7697.854429179783
 30
0.0
 11
9648.600000000001
 21
8097.854429179783
 31
0.0
  0
LINE
  5
2B4AD
330
747D
100
AcDbEntity
  8
センター
 48
2.0
100
AcDbLine
 10
9748.600000000001
 20
7947.854429179783
 30
0.0
 11
9748.600000000001
 21
7847.854429179783
 31
0.0
  0
LINE
  5
2B4AE
330
747D
100
AcDbEntity
  8
部品1
 48
50.0
100
AcDbLine
 10
9121.6
 20
8097.854429179783
 30
0.0
 11
8921.600000000001
 21
8097.854429179783
 31
0.0
  0
LINE
  5
2B4AF
330
747D
100
AcDbEntity
  8
部品1
 48
50.0
100
AcDbLine
 10
9121.6
 20
7697.854429179781
 30
0.0
 11
8921.600000000001
 21
7697.854429179781
 31
0.0
  0
LINE
  5
2B4B0
330
747D
100
AcDbEntity
  8
センター
 48
2.0
100
AcDbLine
 10
8971.6
 20
7897.854429179783
 30
0.0
 11
9071.600000000001
 21
7897.854429179783
 31
0.0
  0
LINE
  5
2B4B1
330
747D
100
AcDbEntity
  8
部品1
 48
50.0
100
AcDbLine
 10
8921.600000000001
 20
7697.854429179783
 30
0.0
 11
8921.600000000001
 21
8097.854429179783
 31
0.0
  0
LINE
  5
2B4B2
330
747D
100
AcDbEntity
  8
部品1
 48
50.0
100
AcDbLine
 10
9121.6
 20
7697.854429179781
 30
0.0
 11
9121.6
 21
8097.854429179783
 31
0.0
  0
LINE
  5
2B4B3
330
747D
100
AcDbEntity
  8
センター
 48
2.0
100
AcDbLine
 10
9021.600000000001
 20
7947.854429179783
 30
0.0
 11
9021.600000000001
 21
7847.854429179783
 31
0.0
  0
LINE
  5
2B4B4
330
747D
100
AcDbEntity
  8
部品1
 48
50.0
100
AcDbLine
 10
10575.6
 20
6842.85442917978
 30
0.0
 11
10575.6
 21
7242.854429179782
 31
0.0
  0
LINE
  5
2B4B5
330
747D
100
AcDbEntity
  8
部品1
 48
50.0
100
AcDbLine
 10
10375.6
 20
6842.854429179782
 30
0.0
 11
10375.6
 21
7242.854429179782
 31
0.0
  0
LINE
  5
2B4B6
330
747D
100
AcDbEntity
  8
センター
 48
2.0
100
AcDbLine
 10
10475.6
 20
7092.854429179782
 30
0.0
 11
10475.6
 21
6992.854429179782
 31
0.0
  0
LINE
  5
2B4B7
330
747D
100
AcDbEntity
  8
センター
 48
2.0
100
AcDbLine
 10
10425.6
 20
7042.854429179782
 30
0.0
 11
10525.6
 21
7042.854429179782
 31
0.0
  0
LINE
  5
2B4B8
330
747D
100
AcDbEntity
  8
部品1
 48
50.0
100
AcDbLine
 10
10575.6
 20
6842.85442917978
 30
0.0
 11
10375.6
 21
6842.85442917978
 31
0.0
  0
LINE
  5
2B4B9
330
747D
100
AcDbEntity
  8
部品1
 48
50.0
100
AcDbLine
 10
10575.6
 20
7242.854429179782
 30
0.0
 11
10375.6
 21
7242.854429179782
 31
0.0
  0
LINE
  5
2B4BA
330
747D
100
AcDbEntity
  8
センター
 48
2.0
100
AcDbLine
 10
9698.6
 20
7042.854429179782
 30
0.0
 11
9798.6
 21
7042.854429179782
 31
0.0
  0
LINE
  5
2B4BB
330
747D
100
AcDbEntity
  8
部品1
 48
50.0
100
AcDbLine
 10
9848.600000000001
 20
6842.85442917978
 30
0.0
 11
9848.600000000001
 21
7242.854429179782
 31
0.0
  0
LINE
  5
2B4BC
330
747D
100
AcDbEntity
  8
センター
 48
2.0
100
AcDbLine
 10
9748.600000000001
 20
7092.854429179782
 30
0.0
 11
9748.600000000001
 21
6992.854429179782
 31
0.0
  0
LINE
  5
2B4BD
330
747D
100
AcDbEntity
  8
部品1
 48
50.0
100
AcDbLine
 10
9648.600000000001
 20
6842.854429179782
 30
0.0
 11
9648.600000000001
 21
7242.854429179782
 31
0.0
  0
LINE
  5
2B4BE
330
747D
100
AcDbEntity
  8
部品1
 48
50.0
100
AcDbLine
 10
9848.600000000001
 20
6842.85442917978
 30
0.0
 11
9648.600000000001
 21
6842.85442917978
 31
0.0
  0
LINE
  5
2B4BF
330
747D
100
AcDbEntity
  8
部品1
 48
50.0
100
AcDbLine
 10
9848.600000000001
 20
7242.854429179782
 30
0.0
 11
9648.600000000001
 21
7242.854429179782
 31
0.0
  0
LINE
  5
2B4C0
330
747D
100
AcDbEntity
  8
部品1
 48
50.0
100
AcDbLine
 10
9121.6
 20
7242.854429179782
 30
0.0
 11
8921.600000000001
 21
7242.854429179782
 31
0.0
  0
LINE
  5
2B4C1
330
747D
100
AcDbEntity
  8
部品1
 48
50.0
100
AcDbLine
 10
9121.6
 20
6842.85442917978
 30
0.0
 11
8921.600000000001
 21
6842.85442917978
 31
0.0
  0
LINE
  5
2B4C2
330
747D
100
AcDbEntity
  8
センター
 48
2.0
100
AcDbLine
 10
8971.6
 20
7042.854429179782
 30
0.0
 11
9071.600000000001
 21
7042.854429179782
 31
0.0
  0
LINE
  5
2B4C3
330
747D
100
AcDbEntity
  8
部品1
 48
50.0
100
AcDbLine
 10
9121.6
 20
6842.85442917978
 30
0.0
 11
9121.6
 21
7242.854429179782
 31
0.0
  0
LINE
  5
2B4C4
330
747D
100
AcDbEntity
  8
部品1
 48
50.0
100
AcDbLine
 10
8921.600000000001
 20
6842.854429179782
 30
0.0
 11
8921.600000000001
 21
7242.854429179782
 31
0.0
  0
LINE
  5
2B4C5
330
747D
100
AcDbEntity
  8
センター
 48
2.0
100
AcDbLine
 10
9021.600000000001
 20
7092.854429179782
 30
0.0
 11
9021.600000000001
 21
6992.854429179782
 31
0.0
  0
LINE
  5
2B4C6
330
747D
100
AcDbEntity
  8
部品1
 48
50.0
100
AcDbLine
 10
10575.6
 20
6387.854429179783
 30
0.0
 11
10375.6
 21
6387.854429179783
 31
0.0
  0
LINE
  5
2B4C7
330
747D
100
AcDbEntity
  8
センター
 48
2.0
100
AcDbLine
 10
10425.6
 20
6187.854429179783
 30
0.0
 11
10525.6
 21
6187.854429179783
 31
0.0
  0
LINE
  5
2B4C8
330
747D
100
AcDbEntity
  8
センター
 48
2.0
100
AcDbLine
 10
9698.6
 20
6187.854429179783
 30
0.0
 11
9798.6
 21
6187.854429179783
 31
0.0
  0
LINE
  5
2B4C9
330
747D
100
AcDbEntity
  8
部品1
 48
50.0
100
AcDbLine
 10
9848.600000000001
 20
6387.854429179783
 30
0.0
 11
9648.600000000001
 21
6387.854429179783
 31
0.0
  0
LINE
  5
2B4CA
330
747D
100
AcDbEntity
  8
センター
 48
2.0
100
AcDbLine
 10
8971.6
 20
6187.854429179783
 30
0.0
 11
9071.600000000001
 21
6187.854429179783
 31
0.0
  0
LINE
  5
2B4CB
330
747D
100
AcDbEntity
  8
部品1
 48
50.0
100
AcDbLine
 10
9121.6
 20
6387.854429179783
 30
0.0
 11
8921.600000000001
 21
6387.854429179783
 31
0.0
  0
LINE
  5
2B4CC
330
747D
100
AcDbEntity
  8
部品1
 48
50.0
100
AcDbLine
 10
10575.6
 20
5987.854429179779
 30
0.0
 11
10375.6
 21
5987.854429179779
 31
0.0
  0
LINE
  5
2B4CD
330
747D
100
AcDbEntity
  8
部品1
 48
50.0
100
AcDbLine
 10
9848.600000000001
 20
5987.854429179779
 30
0.0
 11
9648.600000000001
 21
5987.854429179779
 31
0.0
  0
LINE
  5
2B4CE
330
747D
100
AcDbEntity
  8
部品1
 48
50.0
100
AcDbLine
 10
9121.6
 20
5987.854429179779
 30
0.0
 11
8921.600000000001
 21
5987.854429179779
 31
0.0
  0
LINE
  5
2B4CF
330
747D
100
AcDbEntity
  8
部品1
 48
50.0
100
AcDbLine
 10
8921.600000000001
 20
5987.854429179781
 30
0.0
 11
8921.600000000001
 21
6387.854429179783
 31
0.0
  0
LINE
  5
2B4D0
330
747D
100
AcDbEntity
  8
部品1
 48
50.0
100
AcDbLine
 10
9121.6
 20
5987.854429179779
 30
0.0
 11
9121.6
 21
6387.854429179783
 31
0.0
  0
LINE
  5
2B4D1
330
747D
100
AcDbEntity
  8
センター
 48
2.0
100
AcDbLine
 10
9021.600000000001
 20
6237.854429179783
 30
0.0
 11
9021.600000000001
 21
6137.854429179782
 31
0.0
  0
LINE
  5
2B4D2
330
747D
100
AcDbEntity
  8
部品1
 48
50.0
100
AcDbLine
 10
9848.600000000001
 20
5987.854429179779
 30
0.0
 11
9848.600000000001
 21
6387.854429179783
 31
0.0
  0
LINE
  5
2B4D3
330
747D
100
AcDbEntity
  8
部品1
 48
50.0
100
AcDbLine
 10
9648.600000000001
 20
5987.854429179781
 30
0.0
 11
9648.600000000001
 21
6387.854429179783
 31
0.0
  0
LINE
  5
2B4D4
330
747D
100
AcDbEntity
  8
センター
 48
2.0
100
AcDbLine
 10
9748.600000000001
 20
6237.854429179783
 30
0.0
 11
9748.600000000001
 21
6137.854429179782
 31
0.0
  0
LINE
  5
2B4D5
330
747D
100
AcDbEntity
  8
部品1
 48
50.0
100
AcDbLine
 10
10375.6
 20
5987.854429179781
 30
0.0
 11
10375.6
 21
6387.854429179783
 31
0.0
  0
LINE
  5
2B4D6
330
747D
100
AcDbEntity
  8
部品1
 48
50.0
100
AcDbLine
 10
10575.6
 20
5987.854429179779
 30
0.0
 11
10575.6
 21
6387.854429179783
 31
0.0
  0
LINE
  5
2B4D7
330
747D
100
AcDbEntity
  8
センター
 48
2.0
100
AcDbLine
 10
10475.6
 20
6237.854429179783
 30
0.0
 11
10475.6
 21
6137.854429179782
 31
0.0
  0
LINE
  5
2B960
330
747D
100
AcDbEntity
  8
想像線
 48
10.0
100
AcDbLine
 10
10098.18265186352
 20
5247.854429179804
 30
0.0
 11
11323.6
 21
5247.854429179803
 31
0.0
  0
LINE
  5
2B961
330
747D
100
AcDbEntity
  8
想像線
 48
10.0
100
AcDbLine
 10
10098.18265186352
 20
8857.854429179786
 30
0.0
 11
11323.6
 21
8857.854429179784
 31
0.0
  0
DIMENSION
  5
2B962
330
747D
100
AcDbEntity
  8
寸法
 48
50.0
100
AcDbDimension
  2
*D36
 10
5621.6
 20
4743.009414837593
 30
0.0
 11
6699.1
 21
4843.021225861214
 31
0.0
 70
    32
  1
扉の幅 <>
 71
     5
 42
2155.000000000001
  3
INABA_S40G
100
AcDbAlignedDimension
 13
7776.600000000001
 23
5227.854429179807
 33
0.0
 14
5621.6
 24
5227.85442917979
 34
0.0
100
AcDbRotatedDimension
1001
ACAD
1000
DSTYLE
1002
{
1070
   341
1005
0
1002
}
  0
TEXT
  5
2B963
330
747D
100
AcDbEntity
  8
寸法
 62
     7
100
AcDbText
 10
5983.043590408922
 20
4144.025916664896
 30
0.0
 40
120.0
  1
扉位置 (2155x75)
  7
STYLE1
100
AcDbText
  0
SOLID
  5
2B964
330
747D
100
AcDbEntity
  8
寸法
 48
50.0
100
AcDbTrace
 10
-6190.528890048555
 20
5102.263400274893
 30
0.0
 11
-6207.438095718543
 21
5227.854429179779
 31
0.0
 12
-6150.710675575076
 22
5114.536171243802
 32
0.0
 13
-6150.710675575076
 23
5114.536171243802
 33
0.0
210
0.0
220
0.0
230
-1.0
1001
ACAD
1000
DSTYLE
1002
{
1070
   341
1005
0
1070
    40
1040
1.0
1070
   343
1005
0
1070
   344
1005
0
1002
}
  0
LWPOLYLINE
  5
2B965
330
747D
100
AcDbEntity
  8
寸法
 48
50.0
100
AcDbPolyline
 90
        3
 70
     0
 43
0.0
 10
-6207.438095718543
 20
5227.854429179779
 10
-5866.427631216168
 20
4121.757969116575
 10
-8680.492044147811
 20
4121.757969116575
210
0.0
220
0.0
230
-1.0
1001
ACAD
1000
DSTYLE
1002
{
1070
   341
1005
0
1070
    40
1040
1.0
1070
   343
1005
0
1070
   344
1005
0
1002
}
  0
TEXT
  5
2B966
330
747D
100
AcDbEntity
  8
寸法
 62
     7
100
AcDbText
 10
5983.043590408922
 20
3972.422153781571
 30
0.0
 40
120.0
  1
扉の位置に合わせた基礎形状として下さい。
  7
STYLE1
100
AcDbText
  0
LINE
  5
2BE83
330
747D
100
AcDbEntity
  8
細線
 48
50.0
100
AcDbLine
 10
9639.074736585154
 20
1502.942225270447
 30
0.0
 11
9631.036260812209
 21
1532.942225270447
 31
0.0
  0
LINE
  5
2BE84
330
747D
100
AcDbEntity
  8
細線
100
AcDbLine
 10
9427.324355090091
 20
1532.942225270452
 30
0.0
 11
9541.947999656768
 21
1647.565869837137
 31
0.0
  0
LINE
  5
2BE85
330
747D
100
AcDbEntity
  8
細線
100
AcDbLine
 10
9384.897948218901
 20
1532.942225270452
 30
0.0
 11
9499.521592785582
 21
1647.565869837137
 31
0.0
  0
LINE
  5
2BE86
330
747D
100
AcDbEntity
  8
細線
100
AcDbLine
 10
9469.750761961281
 20
1532.942225270452
 30
0.0
 11
9584.37440652796
 21
1647.565869837137
 31
0.0
  0
LINE
  5
2BE87
330
747D
100
AcDbEntity
  8
細線
 48
50.0
100
AcDbLine
 10
9441.85462421702
 20
1502.94222527045
 30
0.0
 11
9433.816148444078
 21
1532.94222527045
 31
0.0
  0
LINE
  5
2BE88
330
747D
100
AcDbEntity
  8
細線
 48
50.0
100
AcDbLine
 10
9540.464680401088
 20
1502.942225270447
 30
0.0
 11
9532.42620462815
 21
1532.942225270447
 31
0.0
  0
LINE
  5
2BE89
330
747D
100
AcDbEntity
  8
部品1
100
AcDbLine
 10
9543.602455094728
 20
1947.565869837138
 30
0.0
 11
9543.602455094728
 21
1647.565869837137
 31
0.0
  0
LINE
  5
2BE8A
330
747D
100
AcDbEntity
  8
細線
 48
50.0
100
AcDbLine
 10
9244.634511848907
 20
1502.94222527045
 30
0.0
 11
9236.596036075978
 21
1532.94222527045
 31
0.0
  0
LINE
  5
2BE8B
330
747D
100
AcDbEntity
  8
細線
 48
50.0
100
AcDbLine
 10
9343.24456803297
 20
1502.94222527045
 30
0.0
 11
9335.20609226004
 21
1532.94222527045
 31
0.0
  0
LINE
  5
2BE8C
330
747D
100
AcDbEntity
  8
細線
100
AcDbLine
 10
8977.32435509009
 20
1532.94222527045
 30
0.0
 11
9091.947999656769
 21
1647.565869837137
 31
0.0
  0
LINE
  5
2BE8D
330
747D
100
AcDbEntity
  8
細線
100
AcDbLine
 10
9019.75076196128
 20
1532.94222527045
 30
0.0
 11
9134.374406527959
 21
1647.565869837137
 31
0.0
  0
LINE
  5
2BE8E
330
747D
100
AcDbEntity
  8
細線
 48
50.0
100
AcDbLine
 10
9146.024455664848
 20
1502.94222527045
 30
0.0
 11
9137.98597989192
 21
1532.94222527045
 31
0.0
  0
LINE
  5
2BE8F
330
747D
100
AcDbEntity
  8
細線
 48
50.0
100
AcDbLine
 10
9047.414399480798
 20
1502.94222527045
 30
0.0
 11
9039.37592370786
 21
1532.94222527045
 31
0.0
  0
LINE
  5
2BE90
330
747D
100
AcDbEntity
  8
細線
100
AcDbLine
 10
9462.66576685347
 20
1647.565869837137
 30
0.0
 11
9162.66576685347
 21
1947.565869837138
 31
0.0
  0
LINE
  5
2BE91
330
747D
100
AcDbEntity
  8
細線
100
AcDbLine
 10
9526.30537716025
 20
1647.565869837139
 30
0.0
 11
9226.305377160256
 21
1947.565869837138
 31
0.0
  0
LEADER
  5
2BE92
330
747D
100
AcDbEntity
  8
寸法
 48
50.0
100
AcDbLeader
  3
INABA_S40G
 73
     0
 74
     0
 75
     1
 40
150.0
 41
231.9898538650463
 76
     3
 10
9457.007969614627
 20
1947.565869837138
 30
0.0
 10
9545.930727906691
 20
2153.998770688561
 30
0.0
 10
9645.930727906694
 20
2153.998770688561
 30
0.0
340
2BE93
1001
ACAD
1000
DSTYLE
1002
{
1070
   341
1005
0
1002
}
  0
MTEXT
  5
2BE93
102
{ACAD_REACTORS
330
2BE92
102
}
330
747D
100
AcDbEntity
  8
寸法
 62
     7
 48
50.0
100
AcDbMText
 10
9685.930727906693
 20
2268.99877068856
 30
0.0
 40
150.0
 41
1.0
 71
     4
 72
     1
  1
\A1;C.B
  7
STYLE1
 73
     1
 44
1.0
1001
ACAD
1000
MTEXTBEGIN
1070
    73
1070
     1
1070
    44
1040
1.0
1070
    74
1070
     0
1000
MTEXTEND
  0
LINE
  5
2BE94
330
747D
100
AcDbEntity
  8
細線
 48
50.0
100
AcDbLine
 10
9612.279817342038
 20
1402.942225270447
 30
0.0
 11
9620.318293114969
 21
1372.942225270447
 31
0.0
  0
LINE
  5
2BE95
330
747D
100
AcDbEntity
  8
細線
 48
50.0
100
AcDbLine
 10
9415.059704973918
 20
1402.94222527045
 30
0.0
 11
9423.09818074686
 21
1372.94222527045
 31
0.0
  0
LINE
  5
2BE96
330
747D
100
AcDbEntity
  8
細線
 48
50.0
100
AcDbLine
 10
9513.669761157981
 20
1402.942225270447
 30
0.0
 11
9521.708236930908
 21
1372.942225270447
 31
0.0
  0
LINE
  5
2BE97
330
747D
100
AcDbEntity
  8
細線
 48
50.0
100
AcDbLine
 10
9217.839592605798
 20
1402.94222527045
 30
0.0
 11
9225.878068378731
 21
1372.94222527045
 31
0.0
  0
LINE
  5
2BE98
330
747D
100
AcDbEntity
  8
細線
 48
50.0
100
AcDbLine
 10
9316.449648789861
 20
1402.94222527045
 30
0.0
 11
9324.488124562789
 21
1372.94222527045
 31
0.0
  0
LINE
  5
2BE99
330
747D
100
AcDbEntity
  8
細線
 48
50.0
100
AcDbLine
 10
9020.619480237689
 20
1402.94222527045
 30
0.0
 11
9028.65795601062
 21
1372.94222527045
 31
0.0
  0
LINE
  5
2BE9A
330
747D
100
AcDbEntity
  8
細線
 48
50.0
100
AcDbLine
 10
9119.229536421739
 20
1402.94222527045
 30
0.0
 11
9127.268012194679
 21
1372.94222527045
 31
0.0
  0
LINE
  5
2BE9B
330
747D
100
AcDbEntity
  8
細線
 48
50.0
100
AcDbLine
 10
9209.80111683286
 20
1372.942225270447
 30
0.0
 11
9252.672987621838
 21
1532.942225270447
 31
0.0
  0
LINE
  5
2BE9C
330
747D
100
AcDbEntity
  8
細線
 48
50.0
100
AcDbLine
 10
9012.581004464747
 20
1372.94222527045
 30
0.0
 11
9055.452875253719
 21
1532.94222527045
 31
0.0
  0
LINE
  5
2BE9D
330
747D
100
AcDbEntity
  8
細線
 48
50.0
100
AcDbLine
 10
9111.191060648797
 20
1372.94222527045
 30
0.0
 11
9154.062931437781
 21
1532.942225270447
 31
0.0
  0
LINE
  5
2BE9E
330
747D
100
AcDbEntity
  8
細線
 48
50.0
100
AcDbLine
 10
9407.021229200978
 20
1372.942225270447
 30
0.0
 11
9449.893099989948
 21
1532.94222527045
 31
0.0
  0
LINE
  5
2BE9F
330
747D
100
AcDbEntity
  8
細線
 48
50.0
100
AcDbLine
 10
9308.411173016921
 20
1372.94222527045
 30
0.0
 11
9351.283043805899
 21
1532.942225270447
 31
0.0
  0
LINE
  5
2BEA0
330
747D
100
AcDbEntity
  8
細線
 48
50.0
100
AcDbLine
 10
9604.241341569093
 20
1372.942225270447
 30
0.0
 11
9647.113212358078
 21
1532.942225270446
 31
0.0
  0
LINE
  5
2BEA1
330
747D
100
AcDbEntity
  8
細線
 48
50.0
100
AcDbLine
 10
9505.631285385041
 20
1372.942225270446
 30
0.0
 11
9548.503156174019
 21
1532.942225270446
 31
0.0
  0
LINE
  5
2BEA2
330
747D
100
AcDbEntity
  8
部品1
100
AcDbLine
 10
9693.60245509473
 20
1647.565869837137
 30
0.0
 11
9693.60245509473
 21
1372.94222527045
 31
0.0
  0
LINE
  5
2BEA3
330
747D
100
AcDbEntity
  8
部品1
100
AcDbLine
 10
10284.11338291387
 20
339.7108918101044
 30
0.0
 11
10284.11338291387
 21
3598.780394558195
 31
0.0
  0
TEXT
  5
2BEA4
330
747D
100
AcDbEntity
  8
部品1
100
AcDbText
 10
6393.567795332486
 20
3374.340479618908
 30
0.0
 40
150.0
  1
基礎詳細
  7
STYLE2
100
AcDbText
  0
LINE
  5
2BEA5
330
747D
100
AcDbEntity
  8
細線
 48
50.0
100
AcDbLine
 10
8948.80434329673
 20
1502.94222527045
 30
0.0
 11
8940.765867523799
 21
1532.94222527045
 31
0.0
  0
LINE
  5
2BEA6
330
747D
100
AcDbEntity
  8
細線
 48
50.0
100
AcDbLine
 10
8850.194287112669
 20
1502.94222527045
 30
0.0
 11
8842.155811339729
 21
1532.94222527045
 31
0.0
  0
LINE
  5
2BEA7
330
747D
100
AcDbEntity
  8
部品1
100
AcDbLine
 10
8943.60245509473
 20
1647.565869837137
 30
0.0
 11
8943.60245509473
 21
1947.565869837138
 31
0.0
  0
LINE
  5
2BEA8
330
747D
100
AcDbEntity
  8
細線
 48
50.0
100
AcDbLine
 10
8823.399367869559
 20
1402.94222527045
 30
0.0
 11
8831.437843642488
 21
1372.94222527045
 31
0.0
  0
LINE
  5
2BEA9
330
747D
100
AcDbEntity
  8
細線
 48
50.0
100
AcDbLine
 10
8922.009424053618
 20
1402.94222527045
 30
0.0
 11
8930.047899826545
 21
1372.94222527045
 31
0.0
  0
LINE
  5
2BEAA
330
747D
100
AcDbEntity
  8
細線
 48
50.0
100
AcDbLine
 10
7354.460801329533
 20
937.5658698371358
 30
0.0
 11
7346.422325556601
 21
967.5658698371357
 31
0.0
  0
LINE
  5
2BEAB
330
747D
100
AcDbEntity
  8
部品1
 48
50.0
100
AcDbLine
 10
7408.988519839117
 20
967.5658698371366
 30
0.0
 11
7408.988519839117
 21
807.5658698371366
 31
0.0
  0
LINE
  5
2BEAC
330
747D
100
AcDbEntity
  8
細線
 48
50.0
100
AcDbLine
 10
8815.360892096618
 20
1372.94222527045
 30
0.0
 11
8858.232762885597
 21
1532.94222527045
 31
0.0
  0
LINE
  5
2BEAD
330
747D
100
AcDbEntity
  8
部品1
100
AcDbLine
 10
8793.602455094729
 20
1372.942225270446
 30
0.0
 11
8793.602455094729
 21
1647.565869837137
 31
0.0
  0
TEXT
  5
2BEAE
330
747D
100
AcDbEntity
  8
部品1
 48
50.0
100
AcDbText
 10
8318.26082676943
 20
1314.066194040501
 30
0.0
 40
100.0
  1
ボルトの出
 50
90.0
  7
STYLE2
100
AcDbText
  0
LINE
  5
2BEAF
330
747D
100
AcDbEntity
  8
細線
 48
50.0
100
AcDbLine
 10
8913.970948280679
 20
1372.942225270447
 30
0.0
 11
8956.84281906966
 21
1532.942225270447
 31
0.0
  0
LINE
  5
2BEB0
330
747D
100
AcDbEntity
  8
部品1
 48
50.0
100
AcDbLine
 10
6928.238519839112
 20
2386.159971223566
 30
0.0
 11
6948.238519839113
 21
2396.159971223566
 31
0.0
  0
LINE
  5
2BEB1
330
747D
100
AcDbEntity
  8
部品1
 48
50.0
100
AcDbLine
 10
6928.238519839112
 20
2426.159971223566
 30
0.0
 11
6948.238519839113
 21
2436.159971223567
 31
0.0
  0
LINE
  5
2BEB2
330
747D
100
AcDbEntity
  8
細線
 48
50.0
100
AcDbLine
 10
6928.238519839112
 20
2386.159971223566
 30
0.0
 11
6928.238519839112
 21
2426.159971223566
 31
0.0
  0
LINE
  5
2BEB3
330
747D
100
AcDbEntity
  8
部品1
 48
50.0
100
AcDbLine
 10
6948.238519839113
 20
2396.159971223566
 30
0.0
 11
6948.238519839113
 21
2436.159971223567
 31
0.0
  0
LINE
  5
2BEB4
330
747D
100
AcDbEntity
  8
部品1
 48
50.0
100
AcDbLine
 10
6928.238519839112
 20
2446.159971223566
 30
0.0
 11
6948.238519839113
 21
2436.159971223567
 31
0.0
  0
LINE
  5
2BEB5
330
747D
100
AcDbEntity
  8
部品1
 48
50.0
100
AcDbLine
 10
6958.238519839113
 20
2271.969980392478
 30
0.0
 11
6958.238519839113
 21
2283.969980392479
 31
0.0
  0
LINE
  5
2BEB6
330
747D
100
AcDbEntity
  8
細線
 48
50.0
100
AcDbLine
 10
6888.238519839113
 20
2386.159971223566
 30
0.0
 11
6888.238519839113
 21
2426.159971223566
 31
0.0
  0
LINE
  5
2BEB7
330
747D
100
AcDbEntity
  8
部品1
 48
50.0
100
AcDbLine
 10
6868.238519839113
 20
2396.159971223566
 30
0.0
 11
6868.238519839113
 21
2436.159971223567
 31
0.0
  0
LINE
  5
2BEB8
330
747D
100
AcDbEntity
  8
部品1
 48
50.0
100
AcDbLine
 10
6868.238519839113
 20
2436.159971223567
 30
0.0
 11
6888.238519839113
 21
2426.159971223566
 31
0.0
  0
LINE
  5
2BEB9
330
747D
100
AcDbEntity
  8
部品1
 48
50.0
100
AcDbLine
 10
6868.238519839113
 20
2396.159971223566
 30
0.0
 11
6888.238519839113
 21
2386.159971223566
 31
0.0
  0
LINE
  5
2BEBA
330
747D
100
AcDbEntity
  8
部品1
 48
50.0
100
AcDbLine
 10
6868.238519839113
 20
2436.159971223567
 30
0.0
 11
6888.238519839113
 21
2446.159971223566
 31
0.0
  0
LINE
  5
2BEBB
330
747D
100
AcDbEntity
  8
部品1
100
AcDbLine
 10
6766.488519839113
 20
2019.565869837138
 30
0.0
 11
6815.988519839113
 21
2019.565869837138
 31
0.0
  0
ARC
  5
2BEBC
330
747D
100
AcDbEntity
  8
部品1
100
AcDbCircle
 10
6763.113519839113
 20
2083.690869837134
 30
0.0
 40
3.375
100
AcDbArc
 50
0.0
 51
90.0
  0
LINE
  5
2BEBD
330
747D
100
AcDbEntity
  8
部品1
100
AcDbLine
 10
6766.488519839113
 20
2083.690869837134
 30
0.0
 11
6766.488519839113
 21
2019.565869837138
 31
0.0
  0
LINE
  5
2BEBE
330
747D
100
AcDbEntity
  8
部品1
 48
50.0
100
AcDbLine
 10
6858.238519839114
 20
2283.969980392479
 30
0.0
 11
6858.238519839114
 21
2271.969980392478
 31
0.0
  0
LINE
  5
2BEBF
330
747D
100
AcDbEntity
  8
部品1
100
AcDbLine
 10
6795.738519839114
 20
2034.515869837138
 30
0.0
 11
6830.938519839115
 21
2034.515869837138
 31
0.0
  0
ARC
  5
2BEC0
330
747D
100
AcDbEntity
  8
部品1
100
AcDbCircle
 10
6795.738519839114
 20
2031.140869837139
 30
0.0
 40
3.375
100
AcDbArc
 50
90.0
 51
180.0
  0
ARC
  5
2BEC1
330
747D
100
AcDbEntity
  8
部品1
100
AcDbCircle
 10
6830.938519839115
 20
2031.140869837139
 30
0.0
 40
3.375
100
AcDbArc
 50
0.0
 51
90.0
  0
LINE
  5
2BEC2
330
747D
100
AcDbEntity
  8
部品1
100
AcDbLine
 10
6896.988519839112
 20
2009.015869837138
 30
0.0
 11
6919.488519839113
 21
2009.015869837138
 31
0.0
  0
LINE
  5
2BEC3
330
747D
100
AcDbEntity
  8
部品1
100
AcDbLine
 10
6901.488519839112
 20
2013.515869837138
 30
0.0
 11
6914.988519839113
 21
2013.515869837138
 31
0.0
  0
ARC
  5
2BEC4
330
747D
100
AcDbEntity
  8
部品1
100
AcDbCircle
 10
6815.988519839113
 20
2016.190869837138
 30
0.0
 40
3.375
100
AcDbArc
 50
0.0
 51
90.0
  0
LINE
  5
2BEC5
330
747D
100
AcDbEntity
  8
部品1
100
AcDbLine
 10
6792.363519839113
 20
2031.140869837139
 30
0.0
 11
6792.363519839113
 21
2009.765869837139
 31
0.0
  0
ARC
  5
2BEC6
330
747D
100
AcDbEntity
  8
部品1
100
AcDbCircle
 10
6710.238519839113
 20
2083.690869837138
 30
0.0
 40
3.375
100
AcDbArc
 50
90.0
 51
180.0
  0
LINE
  5
2BEC7
330
747D
100
AcDbEntity
  8
部品1
100
AcDbLine
 10
6706.863519839114
 20
2073.565869837138
 30
0.0
 11
6706.863519839114
 21
2073.565869837138
 31
0.0
  0
LINE
  5
2BEC8
330
747D
100
AcDbEntity
  8
部品1
100
AcDbLine
 10
6706.863519839114
 20
2073.565869837138
 30
0.0
 11
6706.863519839114
 21
2083.690869837138
 31
0.0
  0
LINE
  5
2BEC9
330
747D
100
AcDbEntity
  8
部品1
100
AcDbLine
 10
6703.488519839114
 20
2060.065869837138
 30
0.0
 11
6703.488519839114
 21
2070.190869837138
 31
0.0
  0
ARC
  5
2BECA
330
747D
100
AcDbEntity
  8
部品1
100
AcDbCircle
 10
6706.863519839114
 20
2070.190869837138
 30
0.0
 40
3.375
100
AcDbArc
 50
90.0
 51
180.0
  0
LINE
  5
2BECB
330
747D
100
AcDbEntity
  8
部品1
100
AcDbLine
 10
6652.863519839113
 20
2046.565869837138
 30
0.0
 11
6652.863519839113
 21
2056.690869837138
 31
0.0
  0
ARC
  5
2BECC
330
747D
100
AcDbEntity
  8
部品1
100
AcDbCircle
 10
6656.238519839113
 20
2056.690869837138
 30
0.0
 40
3.375
100
AcDbArc
 50
90.0
 51
180.0
  0
ARC
  5
2BECD
330
747D
100
AcDbEntity
  8
部品1
100
AcDbCircle
 10
6642.738519839113
 20
2040.555749465523
 30
0.0
 40
3.375
100
AcDbArc
 50
104.0362434679075
 51
180.0
  0
LINE
  5
2BECE
330
747D
100
AcDbEntity
  8
部品1
100
AcDbLine
 10
6641.919962104613
 20
2043.829980403513
 30
0.0
 11
6652.863519839113
 21
2046.565869837138
 31
0.0
  0
LINE
  5
2BECF
330
747D
100
AcDbEntity
  8
部品1
100
AcDbLine
 10
6656.238519839113
 20
2060.065869837138
 30
0.0
 11
6703.488519839114
 21
2060.065869837138
 31
0.0
  0
LINE
  5
2BED0
330
747D
100
AcDbEntity
  8
部品1
100
AcDbLine
 10
6710.238519839113
 20
2087.065869837137
 30
0.0
 11
6763.113519839113
 21
2087.065869837134
 31
0.0
  0
ELLIPSE
  5
2BED1
330
747D
100
AcDbEntity
  8
部品1
 48
50.0
100
AcDbEllipse
 10
6908.238519839113
 20
2283.969980392479
 30
0.0
 11
23.0
 21
0.0
 31
0.0
210
0.0
220
0.0
230
1.0
 40
0.3478260869565217
 41
0.0
 42
6.283185307179584
  0
ELLIPSE
  5
2BED2
330
747D
100
AcDbEntity
  8
部品1
 48
50.0
100
AcDbEllipse
 10
6908.238519839113
 20
2283.969980392479
 30
0.0
 11
50.0
 21
0.0
 31
0.0
210
0.0
220
0.0
230
1.0
 40
0.4
 41
0.0
 42
6.283185307179584
  0
ELLIPSE
  5
2BED3
330
747D
100
AcDbEntity
  8
部品1
 48
50.0
100
AcDbEllipse
 10
6908.238519839113
 20
2271.969980392478
 30
0.0
 11
50.0
 21
0.0
 31
0.0
210
0.0
220
0.0
230
1.0
 40
0.4
 41
3.141592653589792
 42
6.283185307179584
  0
LINE
  5
2BED4
330
747D
100
AcDbEntity
  8
部品1
 48
50.0
100
AcDbLine
 10
6888.238519839113
 20
2446.159971223566
 30
0.0
 11
6928.238519839112
 21
2446.159971223566
 31
0.0
  0
ELLIPSE
  5
2BED5
330
747D
100
AcDbEntity
  8
細線
 48
50.0
100
AcDbEllipse
 10
6908.238519839113
 20
2436.159971223567
 30
0.0
 11
18.45838483258558
 21
0.0
 31
0.0
210
0.0
220
0.0
230
1.0
 40
0.2071254069489396
 41
0.0
 42
6.283185307179584
  0
LINE
  5
2BED6
330
747D
100
AcDbEntity
  8
部品1
 48
50.0
100
AcDbLine
 10
6888.238519839113
 20
2386.159971223566
 30
0.0
 11
6928.238519839112
 21
2386.159971223566
 31
0.0
  0
LINE
  5
2BED7
330
747D
100
AcDbEntity
  8
部品1
 48
50.0
100
AcDbLine
 10
6888.238519839113
 20
2426.159971223566
 30
0.0
 11
6928.238519839112
 21
2426.159971223566
 31
0.0
  0
LINE
  5
2BED8
330
747D
100
AcDbEntity
  8
細線
 48
50.0
100
AcDbLine
 10
6986.988519839115
 20
1748.976222947873
 30
0.0
 11
7148.988519839114
 21
1910.976222947872
 31
0.0
  0
LINE
  5
2BED9
330
747D
100
AcDbEntity
  8
細線
 48
50.0
100
AcDbLine
 10
6986.988519839115
 20
1715.300262493852
 30
0.0
 11
7148.988519839114
 21
1877.300262493848
 31
0.0
  0
LINE
  5
2BEDA
330
747D
100
AcDbEntity
  8
部品1
100
AcDbLine
 10
6964.488519839114
 20
1643.815869837137
 30
0.0
 11
6964.488519839114
 21
1666.315869837137
 31
0.0
  0
LINE
  5
2BEDB
330
747D
100
AcDbEntity
  8
部品1
100
AcDbLine
 10
6986.988519839113
 20
1542.565869837136
 30
0.0
 11
6986.988519839113
 21
1947.565869837138
 31
0.0
  0
LINE
  5
2BEDC
330
747D
100
AcDbEntity
  8
細線
 48
50.0
100
AcDbLine
 10
6986.988519839115
 20
1681.624302039835
 30
0.0
 11
7148.988519839114
 21
1843.624302039825
 31
0.0
  0
LINE
  5
2BEDD
330
747D
100
AcDbEntity
  8
部品1
100
AcDbLine
 10
6801.363519839113
 20
1959.515869837138
 30
0.0
 11
6815.988519839113
 21
1959.515869837138
 31
0.0
  0
ARC
  5
2BEDE
330
747D
100
AcDbEntity
  8
部品1
100
AcDbCircle
 10
6837.688519839106
 20
1962.890869837138
 30
0.0
 40
3.375
100
AcDbArc
 50
180.0
 51
270.0
  0
ARC
  5
2BEDF
330
747D
100
AcDbEntity
  8
部品1
100
AcDbCircle
 10
6815.988519839113
 20
1962.890869837138
 30
0.0
 40
3.375
100
AcDbArc
 50
270.0
 51
0.0
  0
ARC
  5
2BEE0
330
747D
100
AcDbEntity
  8
部品1
100
AcDbCircle
 10
6642.738519839113
 20
1962.890869837138
 30
0.0
 40
3.375
100
AcDbArc
 50
180.0
 51
270.0
  0
LINE
  5
2BEE1
330
747D
100
AcDbEntity
  8
細線
 48
50.0
100
AcDbLine
 10
6631.488519839113
 20
1932.291590212019
 30
0.0
 11
6646.762799464231
 21
1947.565869837138
 31
0.0
  0
LINE
  5
2BEE2
330
747D
100
AcDbEntity
  8
部品1
100
AcDbLine
 10
6642.738519839113
 20
1959.515869837138
 30
0.0
 11
6657.363519839107
 21
1959.515869837138
 31
0.0
  0
LINE
  5
2BEE3
330
747D
100
AcDbEntity
  8
細線
 48
50.0
100
AcDbLine
 10
6631.488519839113
 20
1898.61562975801
 30
0.0
 11
6680.438759918245
 21
1947.565869837138
 31
0.0
  0
LINE
  5
2BEE4
330
747D
100
AcDbEntity
  8
細線
 48
50.0
100
AcDbLine
 10
6631.488519839113
 20
1864.939669304
 30
0.0
 11
6714.114720372251
 21
1947.565869837138
 31
0.0
  0
ARC
  5
2BEE5
330
747D
100
AcDbEntity
  8
部品1
100
AcDbCircle
 10
6919.488519839113
 20
1666.315869837137
 30
0.0
 40
22.5
100
AcDbArc
 50
180.0
 51
270.0
  0
LINE
  5
2BEE6
330
747D
100
AcDbEntity
  8
細線
 48
50.0
100
AcDbLine
 10
6631.488519839113
 20
1595.531985671926
 30
0.0
 11
6829.488519839109
 21
1793.531985671916
 31
0.0
  0
LINE
  5
2BEE7
330
747D
100
AcDbEntity
  8
部品1
100
AcDbLine
 10
6829.488519839107
 20
1542.565869837136
 30
0.0
 11
6829.488519839113
 21
1947.565869837138
 31
0.0
  0
LINE
  5
2BEE8
330
747D
100
AcDbEntity
  8
細線
 48
50.0
100
AcDbLine
 10
6631.488519839113
 20
1662.883906579944
 30
0.0
 11
6829.488519839111
 21
1860.883906579941
 31
0.0
  0
LINE
  5
2BEE9
330
747D
100
AcDbEntity
  8
細線
 48
50.0
100
AcDbLine
 10
6631.488519839113
 20
1629.207946125935
 30
0.0
 11
6829.488519839111
 21
1827.207946125932
 31
0.0
  0
LINE
  5
2BEEA
330
747D
100
AcDbEntity
  8
部品1
100
AcDbLine
 10
6986.988519839113
 20
1542.565869837136
 30
0.0
 11
6829.488519839107
 21
1542.565869837136
 31
0.0
  0
LINE
  5
2BEEB
330
747D
100
AcDbEntity
  8
部品1
 48
50.0
100
AcDbLine
 10
6631.488519839113
 20
1947.565869837138
 30
0.0
 11
7148.988519839116
 21
1947.565869837138
 31
0.0
  0
LINE
  5
2BEEC
330
747D
100
AcDbEntity
  8
部品1
100
AcDbLine
 10
6837.688519839106
 20
1959.515869837138
 30
0.0
 11
7089.363519839105
 21
1959.515869837138
 31
0.0
  0
LINE
  5
2BEED
330
747D
100
AcDbEntity
  8
部品1
100
AcDbLine
 10
6919.488519839113
 20
1643.815869837137
 30
0.0
 11
6964.488519839114
 21
1643.815869837137
 31
0.0
  0
LINE
  5
2BEEE
330
747D
100
AcDbEntity
  8
部品1
100
AcDbLine
 10
6919.488519839113
 20
1666.315869837137
 30
0.0
 11
6964.488519839114
 21
1666.315869837137
 31
0.0
  0
LINE
  5
2BEEF
330
747D
100
AcDbEntity
  8
部品1
100
AcDbLine
 10
6639.363519839114
 20
1962.890869837138
 30
0.0
 11
6639.363519839114
 21
2040.555749465523
 31
0.0
  0
LINE
  5
2BEF0
330
747D
100
AcDbEntity
  8
細線
100
AcDbLine
 10
6914.988519839113
 20
1959.515869837138
 30
0.0
 11
6914.988519839113
 21
2013.515869837138
 31
0.0
  0
LINE
  5
2BEF1
330
747D
100
AcDbEntity
  8
細線
100
AcDbLine
 10
6901.488519839118
 20
1959.515869837138
 30
0.0
 11
6901.488519839112
 21
2013.515869837138
 31
0.0
  0
LINE
  5
2BEF2
330
747D
100
AcDbEntity
  8
部品1
100
AcDbLine
 10
6819.363519839114
 20
2016.190869837138
 30
0.0
 11
6819.363519839114
 21
1962.890869837138
 31
0.0
  0
LINE
  5
2BEF3
330
747D
100
AcDbEntity
  8
部品1
100
AcDbLine
 10
6834.313519839115
 20
2031.140869837139
 30
0.0
 11
6834.313519839108
 21
1962.890869837138
 31
0.0
  0
LINE
  5
2BEF4
330
747D
100
AcDbEntity
  8
部品1
100
AcDbLine
 10
6919.488519839113
 20
1666.315869837137
 30
0.0
 11
6919.488519839109
 21
2009.015869837138
 31
0.0
  0
LINE
  5
2BEF5
330
747D
100
AcDbEntity
  8
部品1
100
AcDbLine
 10
6896.988519839112
 20
1666.315869837137
 30
0.0
 11
6896.988519839108
 21
2009.015869837138
 31
0.0
  0
TEXT
  5
2BEF6
330
747D
100
AcDbEntity
  8
部品1
 48
50.0
100
AcDbText
 10
6113.813642547918
 20
1661.614610191207
 30
0.0
 40
100.0
  1
▽G.L
  7
STYLE2
100
AcDbText
  0
LWPOLYLINE
  5
2BEF7
330
747D
100
AcDbEntity
  8
部品1
 48
50.0
100
AcDbPolyline
 90
        2
 70
     0
 43
10.0
 10
6113.813642547918
 20
1647.565869837139
 10
6631.488519839113
 20
1647.565869837139
  0
LINE
  5
2BEF8
330
747D
100
AcDbEntity
  8
部品1
 48
50.0
100
AcDbLine
 10
7148.988519839114
 20
1267.565869837137
 30
0.0
 11
7308.988519839113
 21
1267.565869837137
 31
0.0
  0
LINE
  5
2BEF9
330
747D
100
AcDbEntity
  8
細線
 48
50.0
100
AcDbLine
 10
7157.240688961401
 20
937.5658698371379
 30
0.0
 11
7149.202213188471
 21
967.5658698371366
 31
0.0
  0
LINE
  5
2BEFA
330
747D
100
AcDbEntity
  8
細線
 48
50.0
100
AcDbLine
 10
7255.850745145473
 20
937.5658698371358
 30
0.0
 11
7247.812269372542
 21
967.5658698371357
 31
0.0
  0
LINE
  5
2BEFB
330
747D
100
AcDbEntity
  8
細線
 48
50.0
100
AcDbLine
 10
6960.020576593298
 20
937.5658698371379
 30
0.0
 11
6951.982100820368
 21
967.5658698371366
 31
0.0
  0
LINE
  5
2BEFC
330
747D
100
AcDbEntity
  8
細線
 48
50.0
100
AcDbLine
 10
7058.630632777357
 20
937.5658698371379
 30
0.0
 11
7050.592157004423
 21
967.5658698371366
 31
0.0
  0
LINE
  5
2BEFD
330
747D
100
AcDbEntity
  8
細線
 48
50.0
100
AcDbLine
 10
7013.801217624605
 20
967.5658698371366
 30
0.0
 11
7308.988519839113
 21
1262.753172051646
 31
0.0
  0
LINE
  5
2BEFE
330
747D
100
AcDbEntity
  8
細線
 48
50.0
100
AcDbLine
 10
7047.477178078621
 20
967.5658698371366
 30
0.0
 11
7308.988519839113
 21
1229.07721159763
 31
0.0
  0
LINE
  5
2BEFF
330
747D
100
AcDbEntity
  8
細線
 48
50.0
100
AcDbLine
 10
7081.153138532624
 20
967.5658698371366
 30
0.0
 11
7308.988519839113
 21
1195.401251143632
 31
0.0
  0
LINE
  5
2BF00
330
747D
100
AcDbEntity
  8
部品1
 48
50.0
100
AcDbLine
 10
7308.988519839113
 20
1267.565869837137
 30
0.0
 11
7308.988519839113
 21
967.5658698371366
 31
0.0
  0
LINE
  5
2BF01
330
747D
100
AcDbEntity
  8
細線
 48
50.0
100
AcDbLine
 10
6762.800464225183
 20
937.5658698371379
 30
0.0
 11
6754.76198845225
 21
967.5658698371366
 31
0.0
  0
LINE
  5
2BF02
330
747D
100
AcDbEntity
  8
細線
 48
50.0
100
AcDbLine
 10
6861.410520409241
 20
937.5658698371379
 30
0.0
 11
6853.372044636309
 21
967.5658698371366
 31
0.0
  0
LINE
  5
2BF03
330
747D
100
AcDbEntity
  8
細線
 48
50.0
100
AcDbLine
 10
6565.580351857055
 20
937.5658698371379
 30
0.0
 11
6557.54187608412
 21
967.5658698371366
 31
0.0
  0
LINE
  5
2BF04
330
747D
100
AcDbEntity
  8
細線
 48
50.0
100
AcDbLine
 10
6664.190408041119
 20
937.5658698371379
 30
0.0
 11
6656.151932268183
 21
967.5658698371366
 31
0.0
  0
LINE
  5
2BF05
330
747D
100
AcDbEntity
  8
細線
 48
50.0
100
AcDbLine
 10
6744.393533992528
 20
967.5658698371366
 30
0.0
 11
7148.988519839111
 21
1372.16085568372
 31
0.0
  0
LINE
  5
2BF06
330
747D
100
AcDbEntity
  8
細線
 48
50.0
100
AcDbLine
 10
6778.06949444654
 20
967.5658698371366
 30
0.0
 11
7148.988519839114
 21
1338.484895229703
 31
0.0
  0
LINE
  5
2BF07
330
747D
100
AcDbEntity
  8
細線
 48
50.0
100
AcDbLine
 10
6811.74545490055
 20
967.5658698371366
 30
0.0
 11
7148.988519839114
 21
1304.808934775709
 31
0.0
  0
LINE
  5
2BF08
330
747D
100
AcDbEntity
  8
細線
 48
50.0
100
AcDbLine
 10
7130.445769718304
 20
837.5658698371367
 30
0.0
 11
7138.48424549125
 21
807.5658698371366
 31
0.0
  0
LINE
  5
2BF09
330
747D
100
AcDbEntity
  8
細線
 48
50.0
100
AcDbLine
 10
7229.055825902365
 20
837.5658698371358
 30
0.0
 11
7237.094301675296
 21
807.5658698371357
 31
0.0
  0
LINE
  5
2BF0A
330
747D
100
AcDbEntity
  8
細線
 48
50.0
100
AcDbLine
 10
6933.225657350185
 20
837.5658698371367
 30
0.0
 11
6941.264133123121
 21
807.5658698371366
 31
0.0
  0
LINE
  5
2BF0B
330
747D
100
AcDbEntity
  8
細線
 48
50.0
100
AcDbLine
 10
7031.835713534245
 20
837.5658698371367
 30
0.0
 11
7039.87418930718
 21
807.5658698371366
 31
0.0
  0
LINE
  5
2BF0C
330
747D
100
AcDbEntity
  8
細線
 48
50.0
100
AcDbLine
 10
6736.00554498207
 20
837.5658698371367
 30
0.0
 11
6744.044020755004
 21
807.5658698371366
 31
0.0
  0
LINE
  5
2BF0D
330
747D
100
AcDbEntity
  8
細線
 48
50.0
100
AcDbLine
 10
6834.615601166129
 20
837.5658698371367
 30
0.0
 11
6842.654076939062
 21
807.5658698371366
 31
0.0
  0
LINE
  5
2BF0E
330
747D
100
AcDbEntity
  8
細線
 48
50.0
100
AcDbLine
 10
6538.78543261394
 20
837.5658698371367
 30
0.0
 11
6546.823908386875
 21
807.5658698371366
 31
0.0
  0
LINE
  5
2BF0F
330
747D
100
AcDbEntity
  8
細線
 48
50.0
100
AcDbLine
 10
6637.395488798008
 20
837.5658698371367
 30
0.0
 11
6645.433964570942
 21
807.5658698371366
 31
0.0
  0
LINE
  5
2BF10
330
747D
100
AcDbEntity
  8
細線
 48
50.0
100
AcDbLine
 10
7122.407293945363
 20
807.5658698371357
 30
0.0
 11
7165.279164734333
 21
967.5658698371366
 31
0.0
  0
LINE
  5
2BF11
330
747D
100
AcDbEntity
  8
細線
 48
50.0
100
AcDbLine
 10
7221.017350129426
 20
807.565869837134
 30
0.0
 11
7263.889220918405
 21
967.5658698371339
 31
0.0
  0
LINE
  5
2BF12
330
747D
100
AcDbEntity
  8
細線
 48
50.0
100
AcDbLine
 10
6925.18718157725
 20
807.5658698371357
 30
0.0
 11
6968.05905236623
 21
967.5658698371357
 31
0.0
  0
LINE
  5
2BF13
330
747D
100
AcDbEntity
  8
細線
 48
50.0
100
AcDbLine
 10
6727.967069209133
 20
807.5658698371366
 30
0.0
 11
6770.83893999811
 21
967.5658698371366
 31
0.0
  0
LINE
  5
2BF14
330
747D
100
AcDbEntity
  8
細線
 48
50.0
100
AcDbLine
 10
6826.577125393189
 20
807.5658698371366
 30
0.0
 11
6869.44899618217
 21
967.5658698371357
 31
0.0
  0
LINE
  5
2BF15
330
747D
100
AcDbEntity
  8
細線
 48
50.0
100
AcDbLine
 10
7023.797237761302
 20
807.5658698371366
 30
0.0
 11
7066.669108550285
 21
967.5658698371357
 31
0.0
  0
LINE
  5
2BF16
330
747D
100
AcDbEntity
  8
細線
 48
50.0
100
AcDbLine
 10
6530.746956841008
 20
807.5658698371366
 30
0.0
 11
6573.618827629987
 21
967.5658698371366
 31
0.0
  0
LINE
  5
2BF17
330
747D
100
AcDbEntity
  8
細線
 48
50.0
100
AcDbLine
 10
6629.357013025064
 20
807.5658698371357
 30
0.0
 11
6672.228883814044
 21
967.5658698371357
 31
0.0
  0
LINE
  5
2BF18
330
747D
100
AcDbEntity
  8
細線
 48
50.0
100
AcDbLine
 10
6471.488519839105
 20
1233.476222947869
 30
0.0
 11
6505.578166728382
 21
1267.565869837137
 31
0.0
  0
LINE
  5
2BF19
330
747D
100
AcDbEntity
  8
細線
 48
50.0
100
AcDbLine
 10
6371.488519839113
 20
949.2407710443616
 30
0.0
 11
6376.398715261855
 21
967.5658698371366
 31
0.0
  0
LINE
  5
2BF1A
330
747D
100
AcDbEntity
  8
細線
 48
50.0
100
AcDbLine
 10
6466.970295672989
 20
937.5658698371379
 30
0.0
 11
6458.931819900056
 21
967.5658698371366
 31
0.0
  0
LINE
  5
2BF1B
330
747D
100
AcDbEntity
  8
部品1
 48
50.0
100
AcDbLine
 10
6471.488519839112
 20
967.5658698371366
 30
0.0
 11
6471.488519839112
 21
1267.565869837137
 31
0.0
  0
LINE
  5
2BF1C
330
747D
100
AcDbEntity
  8
細線
 48
50.0
100
AcDbLine
 10
6440.175376429876
 20
837.5658698371367
 30
0.0
 11
6448.213852202812
 21
807.5658698371366
 31
0.0
  0
LINE
  5
2BF1D
330
747D
100
AcDbEntity
  8
部品1
 48
50.0
100
AcDbLine
 10
6371.488519839116
 20
807.5658698371366
 30
0.0
 11
6371.488519839116
 21
967.5658698371366
 31
0.0
  0
LINE
  5
2BF1E
330
747D
100
AcDbEntity
  8
細線
 48
50.0
100
AcDbLine
 10
6432.136900656937
 20
807.5658698371357
 30
0.0
 11
6475.008771445915
 21
967.5658698371357
 31
0.0
  0
LINE
  5
2BF1F
330
747D
100
AcDbEntity
  8
細線
 48
50.0
100
AcDbLine
 10
6471.488519839105
 20
1199.800262493857
 30
0.0
 11
6539.254127182394
 21
1267.565869837137
 31
0.0
  0
LINE
  5
2BF20
330
747D
100
AcDbEntity
  8
細線
 48
50.0
100
AcDbLine
 10
6471.488519839105
 20
1166.124302039851
 30
0.0
 11
6572.930087636399
 21
1267.565869837137
 31
0.0
  0
LINE
  5
2BF21
330
747D
100
AcDbEntity
  8
部品1
 48
50.0
100
AcDbLine
 10
6471.488519839112
 20
1267.565869837137
 30
0.0
 11
6631.488519839113
 21
1267.565869837137
 31
0.0
  0
LINE
  5
2BF22
330
747D
100
AcDbEntity
  8
細線
 48
50.0
100
AcDbLine
 10
6474.985850360457
 20
967.5658698371366
 30
0.0
 11
7148.988519839111
 21
1641.568539315794
 31
0.0
  0
LINE
  5
2BF23
330
747D
100
AcDbEntity
  8
部品1
100
AcDbLine
 10
7148.988519839111
 20
1267.565869837137
 30
0.0
 11
7148.988519839114
 21
1947.565869837138
 31
0.0
  0
LINE
  5
2BF24
330
747D
100
AcDbEntity
  8
部品1
 48
50.0
100
AcDbLine
 10
6631.488519839113
 20
1267.565869837137
 30
0.0
 11
6631.488519839113
 21
1947.565869837138
 31
0.0
  0
LINE
  5
2BF25
330
747D
100
AcDbEntity
  8
細線
 48
50.0
100
AcDbLine
 10
6631.488519839113
 20
1359.80026249386
 30
0.0
 11
6829.488519839104
 21
1557.800262493846
 31
0.0
  0
LINE
  5
2BF26
330
747D
100
AcDbEntity
  8
細線
 48
50.0
100
AcDbLine
 10
6631.488519839113
 20
1326.124302039851
 30
0.0
 11
6847.930087636406
 21
1542.565869837136
 31
0.0
  0
LINE
  5
2BF27
330
747D
100
AcDbEntity
  8
細線
 48
50.0
100
AcDbLine
 10
6631.488519839113
 20
1393.476222947869
 30
0.0
 11
6829.488519839104
 21
1591.476222947863
 31
0.0
  0
LINE
  5
2BF28
330
747D
100
AcDbEntity
  8
細線
 48
50.0
100
AcDbLine
 10
6542.337771268474
 20
967.5658698371366
 30
0.0
 11
7148.988519839114
 21
1574.216618407773
 31
0.0
  0
LINE
  5
2BF29
330
747D
100
AcDbEntity
  8
細線
 48
50.0
100
AcDbLine
 10
6508.661810814466
 20
967.5658698371366
 30
0.0
 11
7148.988519839116
 21
1607.892578861781
 31
0.0
  0
TEXT
  5
2BF2A
330
747D
100
AcDbEntity
  8
部品1
 48
50.0
100
AcDbText
 10
7154.430500194648
 20
2392.414220789888
 30
0.0
 40
100.0
  1
基礎ボルト(市販品)
  7
STYLE2
100
AcDbText
  0
DIMENSION
  5
2BF2B
330
747D
100
AcDbEntity
  8
寸法
 48
50.0
100
AcDbDimension
  2
*D42
 10
8121.392602198952
 20
1947.565869837138
 30
0.0
 11
8121.392602198952
 21
1481.556966415656
 31
0.0
 70
   160
  1
20～25
 71
     5
 42
65.95000000000005
  3
INABA_S40G
100
AcDbAlignedDimension
 13
6914.988519839113
 23
2013.515869837138
 33
0.0
 14
7148.988519839114
 24
1947.565869837138
 34
0.0
 50
90.0
100
AcDbRotatedDimension
1001
ACAD
1000
DSTYLE
1002
{
1070
   341
1005
0
1002
}
  0
LINE
  5
2BF2C
330
747D
100
AcDbEntity
  8
細線
 48
50.0
100
AcDbLine
 10
7319.627406313482
 20
807.5658698371357
 30
0.0
 11
7362.499277102462
 21
967.5658698371339
 31
0.0
  0
LINE
  5
2BF2D
330
747D
100
AcDbEntity
  8
部品1
 48
50.0
100
AcDbLine
 10
7408.988519839117
 20
807.5658698371366
 30
0.0
 11
6371.488519839116
 21
807.5658698371366
 31
0.0
  0
LINE
  5
2BF2E
330
747D
100
AcDbEntity
  8
細線
 48
50.0
100
AcDbLine
 10
7327.665882086421
 20
837.5658698371358
 30
0.0
 11
7335.704357859356
 21
807.5658698371357
 31
0.0
  0
LINE
  5
2BF2F
330
747D
100
AcDbEntity
  8
部品1
 48
50.0
100
AcDbLine
 10
7408.988519839117
 20
967.5658698371366
 30
0.0
 11
6371.488519839116
 21
967.5658698371366
 31
0.0
  0
LWPOLYLINE
  5
2BF30
330
747D
100
AcDbEntity
  8
部品1
 48
50.0
100
AcDbPolyline
 90
        2
 70
     0
 43
10.0
 10
7148.988519839114
 20
1647.565869837139
 10
7516.116599088343
 20
1647.565869837139
  0
DIMENSION
  5
2BF31
330
747D
100
AcDbEntity
  8
寸法
 48
50.0
100
AcDbDimension
  2
*D37
 10
7776.324269550169
 20
1542.565869837136
 30
0.0
 11
7676.324269550168
 21
1745.065869837138
 31
0.0
 70
    32
  1
180
 71
     5
 42
405.000000000002
  3
INABA_S40G
100
AcDbAlignedDimension
 13
7148.988519839114
 23
1947.565869837138
 33
0.0
 14
7148.988519839114
 24
1542.565869837136
 34
0.0
 50
90.0
100
AcDbRotatedDimension
1001
ACAD
1000
DSTYLE
1002
{
1070
   341
1005
0
1002
}
  0
MTEXT
  5
2BF32
102
{ACAD_REACTORS
330
2BF33
102
}
330
747D
100
AcDbEntity
  8
部品1
 62
     7
 48
50.0
100
AcDbMText
 10
7160.169097863262
 20
2278.045027528676
 30
0.0
 40
100.0
 41
1.0
 71
     4
 72
     1
  1
M10X160
  7
STYLE2
 73
     1
 44
1.0
1001
ACAD
1000
MTEXTBEGIN
1070
    73
1070
     1
1070
    44
1040
1.0
1070
    74
1070
     0
1000
MTEXTEND
  0
LEADER
  5
2BF33
330
747D
100
AcDbEntity
  8
寸法
 48
50.0
100
AcDbLeader
  3
INABA_S40G
 73
     0
 74
     0
 75
     1
 40
100.0
 41
543.75
 76
     3
 10
6919.488519839113
 20
2009.015869837138
 30
0.0
 10
7020.169097863261
 20
2188.045027528676
 30
0.0
 10
7120.169097863261
 20
2188.045027528676
 30
0.0
340
2BF32
1001
ACAD
1000
DSTYLE
1002
{
1070
   341
1005
0
1002
}
  0
LINE
  5
2BF34
330
747D
100
AcDbEntity
  8
細線
 48
50.0
100
AcDbLine
 10
4506.439378367621
 20
1898.61562975801
 30
0.0
 11
4555.389618446752
 21
1947.565869837138
 31
0.0
  0
LINE
  5
2BF35
330
747D
100
AcDbEntity
  8
細線
 48
50.0
100
AcDbLine
 10
4506.439378367621
 20
1864.939669304
 30
0.0
 11
4589.065578900758
 21
1947.565869837138
 31
0.0
  0
LINE
  5
2BF36
330
747D
100
AcDbEntity
  8
細線
 48
50.0
100
AcDbLine
 10
4506.439378367621
 20
1932.291590212019
 30
0.0
 11
4521.713657992739
 21
1947.565869837138
 31
0.0
  0
ARC
  5
2BF37
330
747D
100
AcDbEntity
  8
部品1
 48
50.0
100
AcDbCircle
 10
4626.43937836762
 20
1772.883906579943
 30
0.0
 40
30.0
100
AcDbArc
 50
0.0
 51
180.0
  0
CIRCLE
  5
2BF38
330
747D
100
AcDbEntity
  8
部品1
 48
50.0
100
AcDbCircle
 10
4626.43937836762
 20
1772.883906579943
 30
0.0
 40
10.0
  0
LINE
  5
2BF39
330
747D
100
AcDbEntity
  8
細線
 48
50.0
100
AcDbLine
 10
4616.43937836762
 20
1739.207946125935
 30
0.0
 11
4636.43937836762
 21
1759.207946125935
 31
0.0
  0
LINE
  5
2BF3A
330
747D
100
AcDbEntity
  8
細線
 48
50.0
100
AcDbLine
 10
4656.439378367621
 20
1745.531985671925
 30
0.0
 11
4746.439378367621
 21
1835.531985671926
 31
0.0
  0
LINE
  5
2BF3B
330
747D
100
AcDbEntity
  8
細線
 48
50.0
100
AcDbLine
 10
4655.880262450104
 20
1778.648830208415
 30
0.0
 11
4746.439378367621
 21
1869.207946125935
 31
0.0
  0
LINE
  5
2BF3C
330
747D
100
AcDbEntity
  8
細線
 48
50.0
100
AcDbLine
 10
4642.054906495706
 20
1798.499434708032
 30
0.0
 11
4746.439378367621
 21
1902.883906579944
 31
0.0
  0
LINE
  5
2BF3D
330
747D
100
AcDbEntity
  8
部品1
 48
50.0
100
AcDbLine
 10
4506.439378367621
 20
1947.565869837138
 30
0.0
 11
4746.439378367621
 21
1947.565869837138
 31
0.0
  0
LINE
  5
2BF3E
330
747D
100
AcDbEntity
  8
細線
 48
50.0
100
AcDbLine
 10
4506.439378367621
 20
1595.531985671926
 30
0.0
 11
4611.132280904238
 21
1700.224888208541
 31
0.0
  0
LINE
  5
2BF3F
330
747D
100
AcDbEntity
  8
部品1
 48
50.0
100
AcDbLine
 10
4616.43937836762
 20
1700.224888208541
 30
0.0
 11
4596.43937836762
 21
1700.224888208545
 31
0.0
  0
LINE
  5
2BF40
330
747D
100
AcDbEntity
  8
細線
 48
50.0
100
AcDbLine
 10
4656.439378367628
 20
1476.124302039851
 30
0.0
 11
4746.439378367614
 21
1566.124302039851
 31
0.0
  0
LINE
  5
2BF41
330
747D
100
AcDbEntity
  8
細線
 48
50.0
100
AcDbLine
 10
4656.439378367621
 20
1543.476222947869
 30
0.0
 11
4746.439378367621
 21
1633.47622294787
 31
0.0
  0
LINE
  5
2BF42
330
747D
100
AcDbEntity
  8
細線
 48
50.0
100
AcDbLine
 10
4656.439378367628
 20
1509.800262493864
 30
0.0
 11
4746.439378367614
 21
1599.800262493857
 31
0.0
  0
LINE
  5
2BF43
330
747D
100
AcDbEntity
  8
細線
 48
50.0
100
AcDbLine
 10
4506.439378367621
 20
1629.207946125935
 30
0.0
 11
4596.43937836762
 21
1719.207946125935
 31
0.0
  0
LINE
  5
2BF44
330
747D
100
AcDbEntity
  8
細線
 48
50.0
100
AcDbLine
 10
4506.439378367621
 20
1662.883906579944
 30
0.0
 11
4596.43937836762
 21
1752.883906579944
 31
0.0
  0
LINE
  5
2BF45
330
747D
100
AcDbEntity
  8
細線
 48
50.0
100
AcDbLine
 10
4616.43937836762
 20
1705.531985671926
 30
0.0
 11
4636.43937836762
 21
1725.531985671926
 31
0.0
  0
LINE
  5
2BF46
330
747D
100
AcDbEntity
  8
部品1
 48
50.0
100
AcDbLine
 10
4596.43937836762
 20
1700.224888208545
 30
0.0
 11
4596.43937836762
 21
1772.883906579943
 31
0.0
  0
LINE
  5
2BF47
330
747D
100
AcDbEntity
  8
部品1
 48
50.0
100
AcDbLine
 10
4616.43937836762
 20
1700.224888208541
 30
0.0
 11
4616.43937836762
 21
1772.883906579943
 31
0.0
  0
LEADER
  5
2BF48
330
747D
100
AcDbEntity
  8
寸法
 48
50.0
100
AcDbLeader
  3
INABA_S40G
 71
     0
 73
     0
 74
     0
 75
     1
 40
100.0
 41
222.7272727272727
 76
     3
 10
4626.43937836762
 20
1772.883906579943
 30
0.0
 10
4725.046799651863
 20
1699.150321460797
 30
0.0
 10
4825.046799651864
 20
1699.150321460797
 30
0.0
1001
ACAD
1000
DSTYLE
1002
{
1070
   341
1005
0
1002
}
  0
LWPOLYLINE
  5
2BF49
330
747D
100
AcDbEntity
  8
部品1
 48
50.0
100
AcDbPolyline
 90
        2
 70
     0
 43
10.0
 10
4746.439378367617
 20
1647.565869837139
 10
5264.114255658817
 20
1647.565869837139
  0
MTEXT
  5
2BF4A
102
{ACAD_REACTORS
330
2BF48
102
}
330
747D
100
AcDbEntity
  8
寸法
 62
     7
 48
50.0
100
AcDbMText
 10
4850.046799651863
 20
1774.150321460797
 30
0.0
 40
100.0
 41
1.0
 71
     4
 72
     1
  1
D13
  7
STYLE2
 73
     1
 44
1.0
1001
ACAD
1000
MTEXTBEGIN
1070
    73
1070
     1
1070
    44
1040
1.0
1070
    74
1070
     0
1000
MTEXTEND
  0
LINE
  5
2BF4B
330
747D
100
AcDbEntity
  8
細線
 48
50.0
100
AcDbLine
 10
4933.581491305865
 20
937.5658698371379
 30
0.0
 11
4925.543015532929
 21
967.5658698371366
 31
0.0
  0
LINE
  5
2BF4C
330
747D
100
AcDbEntity
  8
細線
 48
50.0
100
AcDbLine
 10
4888.752076153112
 20
967.5658698371366
 30
0.0
 11
4906.439378367621
 21
985.2531720516456
 31
0.0
  0
MTEXT
  5
2BF4D
102
{ACAD_REACTORS
330
2BF8C
102
}
330
747D
100
AcDbEntity
  8
寸法
 62
     7
 48
50.0
100
AcDbMText
 10
5035.598953125976
 20
1073.319533658421
 30
0.0
 40
100.0
 41
1.0
 71
     4
 72
     1
  1
D10
  7
STYLE2
 73
     1
 44
1.0
1001
ACAD
1000
MTEXTBEGIN
1070
    73
1070
     1
1070
    44
1040
1.0
1070
    74
1070
     0
1000
MTEXTEND
  0
LINE
  5
2BF4E
330
747D
100
AcDbEntity
  8
部品1
 48
50.0
100
AcDbLine
 10
4906.439378367621
 20
1267.565869837137
 30
0.0
 11
4906.439378367621
 21
967.5658698371366
 31
0.0
  0
LINE
  5
2BF4F
330
747D
100
AcDbEntity
  8
細線
 48
50.0
100
AcDbLine
 10
4906.786572062753
 20
837.5658698371367
 30
0.0
 11
4914.825047835686
 21
807.5658698371366
 31
0.0
  0
LINE
  5
2BF50
330
747D
100
AcDbEntity
  8
細線
 48
50.0
100
AcDbLine
 10
5005.39662824681
 20
837.5658698371367
 30
0.0
 11
5006.439378367621
 21
833.6742734066811
 31
0.0
  0
LINE
  5
2BF51
330
747D
100
AcDbEntity
  8
細線
 48
50.0
100
AcDbLine
 10
4997.358152473875
 20
807.5658698371357
 30
0.0
 11
5006.439378367621
 21
841.4574662676226
 31
0.0
  0
MTEXT
  5
2BF52
102
{ACAD_REACTORS
330
2BF8A
102
}
330
747D
100
AcDbEntity
  8
寸法
 62
     7
 48
50.0
100
AcDbMText
 10
5048.612448194184
 20
745.8795126719453
 30
0.0
 40
100.0
 41
1.0
 71
     4
 72
     1
  1
\A1;D10@300
  7
STYLE2
 73
     1
 44
1.0
1001
ACAD
1000
MTEXTBEGIN
1070
    73
1070
     1
1070
    44
1040
1.0
1070
    74
1070
     0
1000
MTEXTEND
  0
LINE
  5
2BF53
330
747D
100
AcDbEntity
  8
部品1
 48
50.0
100
AcDbLine
 10
5006.439378367624
 20
967.5658698371366
 30
0.0
 11
5006.439378367624
 21
807.5658698371366
 31
0.0
  0
LINE
  5
2BF54
330
747D
100
AcDbEntity
  8
細線
 48
50.0
100
AcDbLine
 10
4898.748096289812
 20
807.5658698371366
 30
0.0
 11
4941.619967078794
 21
967.5658698371357
 31
0.0
  0
LINE
  5
2BF55
330
747D
100
AcDbEntity
  8
部品1
 48
50.0
100
AcDbLine
 10
4616.43937836762
 20
1190.224888208541
 30
0.0
 11
4596.43937836762
 21
1190.224888208541
 31
0.0
  0
LINE
  5
2BF56
330
747D
100
AcDbEntity
  8
細線
 48
50.0
100
AcDbLine
 10
4606.271687714374
 20
1190.224888208541
 30
0.0
 11
4636.439378367628
 21
1220.392578861789
 31
0.0
  0
LINE
  5
2BF57
330
747D
100
AcDbEntity
  8
細線
 48
50.0
100
AcDbLine
 10
4616.43937836762
 20
1166.716618407776
 30
0.0
 11
4636.439378367628
 21
1186.716618407776
 31
0.0
  0
LINE
  5
2BF58
330
747D
100
AcDbEntity
  8
細線
 48
50.0
100
AcDbLine
 10
4656.439378367628
 20
1240.392578861789
 30
0.0
 11
4746.439378367614
 21
1330.392578861782
 31
0.0
  0
LINE
  5
2BF59
330
747D
100
AcDbEntity
  8
細線
 48
50.0
100
AcDbLine
 10
4656.439378367628
 20
1274.068539315799
 30
0.0
 11
4746.439378367614
 21
1364.068539315795
 31
0.0
  0
LINE
  5
2BF5A
330
747D
100
AcDbEntity
  8
細線
 48
50.0
100
AcDbLine
 10
4656.439378367628
 20
1206.716618407776
 30
0.0
 11
4746.439378367614
 21
1296.716618407776
 31
0.0
  0
LINE
  5
2BF5B
330
747D
100
AcDbEntity
  8
細線
 48
50.0
100
AcDbLine
 10
4686.696313429055
 20
967.5658698371366
 30
0.0
 11
4806.697423235476
 21
1087.566979643562
 31
0.0
  0
LINE
  5
2BF5C
330
747D
100
AcDbEntity
  8
部品1
 48
50.0
100
AcDbLine
 10
4836.439378367621
 20
1107.565869837136
 30
0.0
 11
4836.439378367621
 21
1087.565869837137
 31
0.0
  0
LINE
  5
2BF5D
330
747D
100
AcDbEntity
  8
細線
 48
50.0
100
AcDbLine
 10
4834.971435121806
 20
937.5658698371379
 30
0.0
 11
4826.932959348874
 21
967.5658698371366
 31
0.0
  0
CIRCLE
  5
2BF5E
330
747D
100
AcDbEntity
  8
部品1
 48
50.0
100
AcDbCircle
 10
4786.43937836762
 20
1117.565869837136
 30
0.0
 40
10.0
  0
LINE
  5
2BF5F
330
747D
100
AcDbEntity
  8
細線
 48
50.0
100
AcDbLine
 10
4736.361378937749
 20
937.5658698371379
 30
0.0
 11
4728.322903164815
 21
967.5658698371366
 31
0.0
  0
ARC
  5
2BF60
330
747D
100
AcDbEntity
  8
部品1
 48
50.0
100
AcDbCircle
 10
4626.43937836762
 20
1117.565869837136
 30
0.0
 40
30.0
100
AcDbArc
 50
340.5287793654709
 51
0.0
  0
LINE
  5
2BF61
330
747D
100
AcDbEntity
  8
細線
 48
50.0
100
AcDbLine
 10
4637.751322753691
 20
937.5658698371379
 30
0.0
 11
4629.712846980758
 21
967.5658698371366
 31
0.0
  0
ARC
  5
2BF62
330
747D
100
AcDbEntity
  8
部品1
 48
50.0
100
AcDbCircle
 10
4626.43937836762
 20
1117.565869837136
 30
0.0
 40
30.0
100
AcDbArc
 50
180.0
 51
199.471220634529
  0
LINE
  5
2BF63
330
747D
100
AcDbEntity
  8
細線
 48
50.0
100
AcDbLine
 10
4539.141266569626
 20
937.5658698371379
 30
0.0
 11
4531.102790796693
 21
967.5658698371366
 31
0.0
  0
CIRCLE
  5
2BF64
330
747D
100
AcDbEntity
  8
部品1
 48
50.0
100
AcDbCircle
 10
4626.43937836762
 20
1117.565869837136
 30
0.0
 40
10.0
  0
LINE
  5
2BF65
330
747D
100
AcDbEntity
  8
細線
 48
50.0
100
AcDbLine
 10
4653.02035297505
 20
967.5658698371366
 30
0.0
 11
4773.020352975049
 21
1087.565869837137
 31
0.0
  0
LINE
  5
2BF66
330
747D
100
AcDbEntity
  8
細線
 48
50.0
100
AcDbLine
 10
4619.344392521036
 20
967.5658698371366
 30
0.0
 11
4739.344392521037
 21
1087.565869837137
 31
0.0
  0
LINE
  5
2BF67
330
747D
100
AcDbEntity
  8
細線
 48
50.0
100
AcDbLine
 10
4489.936708888963
 20
1107.565869837136
 30
0.0
 11
4636.43937836762
 21
1254.068539315795
 31
0.0
  0
LINE
  5
2BF68
330
747D
100
AcDbEntity
  8
細線
 48
50.0
100
AcDbLine
 10
4557.288629796981
 20
1107.565869837136
 30
0.0
 11
4596.43937836762
 21
1146.716618407776
 31
0.0
  0
LINE
  5
2BF69
330
747D
100
AcDbEntity
  8
部品1
 48
50.0
100
AcDbLine
 10
4596.43937836762
 20
1190.224888208541
 30
0.0
 11
4596.43937836762
 21
1117.565869837136
 31
0.0
  0
LINE
  5
2BF6A
330
747D
100
AcDbEntity
  8
細線
 48
50.0
100
AcDbLine
 10
4523.612669342976
 20
1107.565869837136
 30
0.0
 11
4596.43937836762
 21
1180.392578861786
 31
0.0
  0
LINE
  5
2BF6B
330
747D
100
AcDbEntity
  8
部品1
 48
50.0
100
AcDbLine
 10
4616.43937836762
 20
1190.224888208541
 30
0.0
 11
4616.43937836762
 21
1117.565869837136
 31
0.0
  0
LINE
  5
2BF6C
330
747D
100
AcDbEntity
  8
細線
 48
50.0
100
AcDbLine
 10
4346.439378367613
 20
1199.800262493857
 30
0.0
 11
4414.204985710902
 21
1267.565869837137
 31
0.0
  0
LINE
  5
2BF6D
330
747D
100
AcDbEntity
  8
細線
 48
50.0
100
AcDbLine
 10
4346.439378367613
 20
1233.476222947869
 30
0.0
 11
4380.52902525689
 21
1267.565869837137
 31
0.0
  0
LINE
  5
2BF6E
330
747D
100
AcDbEntity
  8
細線
 48
50.0
100
AcDbLine
 10
4346.439378367613
 20
1166.124302039851
 30
0.0
 11
4447.880946164906
 21
1267.565869837137
 31
0.0
  0
LINE
  5
2BF6F
330
747D
100
AcDbEntity
  8
部品1
 48
50.0
100
AcDbLine
 10
4416.43937836762
 20
1107.565869837136
 30
0.0
 11
4416.43937836762
 21
1087.565869837137
 31
0.0
  0
LINE
  5
2BF70
330
747D
100
AcDbEntity
  8
細線
 48
50.0
100
AcDbLine
 10
4440.531210385561
 20
937.5658698371379
 30
0.0
 11
4432.492734612628
 21
967.5658698371366
 31
0.0
  0
LINE
  5
2BF71
330
747D
100
AcDbEntity
  8
細線
 48
50.0
100
AcDbLine
 10
4341.921154201496
 20
937.5658698371379
 30
0.0
 11
4333.882678428563
 21
967.5658698371366
 31
0.0
  0
LINE
  5
2BF72
330
747D
100
AcDbEntity
  8
細線
 48
50.0
100
AcDbLine
 10
4246.439378367621
 20
949.2407710443616
 30
0.0
 11
4251.349573790365
 21
967.5658698371366
 31
0.0
  0
LINE
  5
2BF73
330
747D
100
AcDbEntity
  8
部品1
 48
50.0
100
AcDbLine
 10
4346.43937836762
 20
967.5658698371366
 30
0.0
 11
4346.43937836762
 21
1267.565869837137
 31
0.0
  0
LINE
  5
2BF74
330
747D
100
AcDbEntity
  8
部品1
 48
50.0
100
AcDbLine
 10
4416.43937836762
 20
1087.565869837137
 30
0.0
 11
4836.439378367621
 21
1087.565869837137
 31
0.0
  0
LINE
  5
2BF75
330
747D
100
AcDbEntity
  8
部品1
 48
50.0
100
AcDbLine
 10
4416.43937836762
 20
1107.565869837136
 30
0.0
 11
4836.439378367621
 21
1107.565869837136
 31
0.0
  0
LINE
  5
2BF76
330
747D
100
AcDbEntity
  8
細線
 48
50.0
100
AcDbLine
 10
4417.28862979698
 20
967.5658698371366
 30
0.0
 11
4537.28862979698
 21
1087.565869837137
 31
0.0
  0
CIRCLE
  5
2BF77
330
747D
100
AcDbEntity
  8
部品1
 48
50.0
100
AcDbCircle
 10
4466.43937836762
 20
1117.565869837136
 30
0.0
 40
10.0
  0
LINE
  5
2BF78
330
747D
100
AcDbEntity
  8
細線
 48
50.0
100
AcDbLine
 10
4383.612669342975
 20
967.5658698371366
 30
0.0
 11
4503.612669342976
 21
1087.565869837137
 31
0.0
  0
LINE
  5
2BF79
330
747D
100
AcDbEntity
  8
細線
 48
50.0
100
AcDbLine
 10
4349.936708888963
 20
967.5658698371366
 30
0.0
 11
4469.936708888963
 21
1087.565869837137
 31
0.0
  0
LINE
  5
2BF7A
330
747D
100
AcDbEntity
  8
部品1
 48
50.0
100
AcDbLine
 10
4346.43937836762
 20
1267.565869837137
 30
0.0
 11
4506.439378367621
 21
1267.565869837137
 31
0.0
  0
LINE
  5
2BF7B
330
747D
100
AcDbEntity
  8
細線
 48
50.0
100
AcDbLine
 10
4709.566459694637
 20
837.5658698371367
 30
0.0
 11
4717.60493546757
 21
807.5658698371366
 31
0.0
  0
LINE
  5
2BF7C
330
747D
100
AcDbEntity
  8
細線
 48
50.0
100
AcDbLine
 10
4808.176515878695
 20
837.5658698371367
 30
0.0
 11
4816.214991651628
 21
807.5658698371366
 31
0.0
  0
LINE
  5
2BF7D
330
747D
100
AcDbEntity
  8
細線
 48
50.0
100
AcDbLine
 10
4512.346347326515
 20
837.5658698371367
 30
0.0
 11
4520.384823099448
 21
807.5658698371366
 31
0.0
  0
LINE
  5
2BF7E
330
747D
100
AcDbEntity
  8
細線
 48
50.0
100
AcDbLine
 10
4610.95640351058
 20
837.5658698371367
 30
0.0
 11
4618.994879283513
 21
807.5658698371366
 31
0.0
  0
LINE
  5
2BF7F
330
747D
100
AcDbEntity
  8
細線
 48
50.0
100
AcDbLine
 10
4315.126234958385
 20
837.5658698371367
 30
0.0
 11
4323.164710731317
 21
807.5658698371366
 31
0.0
  0
LINE
  5
2BF80
330
747D
100
AcDbEntity
  8
細線
 48
50.0
100
AcDbLine
 10
4413.736291142448
 20
837.5658698371367
 30
0.0
 11
4421.774766915382
 21
807.5658698371366
 31
0.0
  0
LINE
  5
2BF81
330
747D
100
AcDbEntity
  8
細線
 48
50.0
100
AcDbLine
 10
4701.527983921696
 20
807.5658698371366
 30
0.0
 11
4744.399854710678
 21
967.5658698371357
 31
0.0
  0
LINE
  5
2BF82
330
747D
100
AcDbEntity
  8
細線
 48
50.0
100
AcDbLine
 10
4405.697815369516
 20
807.5658698371366
 30
0.0
 11
4448.569686158495
 21
967.5658698371366
 31
0.0
  0
LINE
  5
2BF83
330
747D
100
AcDbEntity
  8
細線
 48
50.0
100
AcDbLine
 10
4504.307871553574
 20
807.5658698371357
 30
0.0
 11
4547.179742342551
 21
967.5658698371357
 31
0.0
  0
LINE
  5
2BF84
330
747D
100
AcDbEntity
  8
細線
 48
50.0
100
AcDbLine
 10
4307.087759185444
 20
807.5658698371357
 30
0.0
 11
4349.959629974422
 21
967.5658698371357
 31
0.0
  0
LINE
  5
2BF85
330
747D
100
AcDbEntity
  8
部品1
 48
50.0
100
AcDbLine
 10
4246.439378367624
 20
807.5658698371366
 30
0.0
 11
4246.439378367624
 21
967.5658698371366
 31
0.0
  0
LINE
  5
2BF86
330
747D
100
AcDbEntity
  8
細線
 48
50.0
100
AcDbLine
 10
4602.917927737638
 20
807.5658698371366
 30
0.0
 11
4645.789798526616
 21
967.5658698371366
 31
0.0
  0
LINE
  5
2BF87
330
747D
100
AcDbEntity
  8
細線
 48
50.0
100
AcDbLine
 10
4800.138040105758
 20
807.5658698371357
 30
0.0
 11
4843.009910894735
 21
967.5658698371357
 31
0.0
  0
LINE
  5
2BF88
330
747D
100
AcDbEntity
  8
部品1
 48
50.0
100
AcDbLine
 10
5006.439378367624
 20
807.5658698371366
 30
0.0
 11
4246.439378367624
 21
807.5658698371366
 31
0.0
  0
LINE
  5
2BF89
330
747D
100
AcDbEntity
  8
部品1
 48
50.0
100
AcDbLine
 10
5006.439378367624
 20
967.5658698371366
 30
0.0
 11
4246.439378367624
 21
967.5658698371366
 31
0.0
  0
LEADER
  5
2BF8A
330
747D
100
AcDbEntity
  8
寸法
 48
50.0
100
AcDbLeader
  3
INABA_S40G
 71
     0
 73
     0
 74
     0
 75
     1
 40
100.0
 41
540.3409090909091
 76
     3
 10
4718.870839634088
 20
1096.64020682023
 30
0.0
 10
4923.612448194184
 20
669.6016843266087
 30
0.0
 10
5023.612448194184
 20
669.6016843266087
 30
0.0
213
0.0
223
-1.277828345336728
233
0.0
1001
ACAD
1000
DSTYLE
1002
{
1070
   341
1005
0
1002
}
  0
DIMENSION
  5
2BF8B
330
747D
100
AcDbEntity
  8
寸法
 48
50.0
100
AcDbDimension
  2
*D38
 10
4906.439378367621
 20
508.6137633812036
 30
0.0
 11
4626.43937836762
 21
508.6137633812036
 31
0.0
 70
   160
  1
300
 71
     5
 42
560.0000000000018
  3
INABA_S40G
100
AcDbAlignedDimension
 13
4346.439378367619
 23
807.5658698371366
 33
0.0
 14
4906.439378367621
 24
807.5658698371366
 34
0.0
100
AcDbRotatedDimension
1001
ACAD
1000
DSTYLE
1002
{
1070
   341
1005
0
1002
}
  0
LEADER
  5
2BF8C
330
747D
100
AcDbEntity
  8
寸法
 48
50.0
100
AcDbLeader
  3
INABA_S40G
 71
     0
 73
     0
 74
     0
 75
     1
 40
100.0
 41
225.0
 76
     3
 10
4786.318068807799
 20
1117.565869837136
 30
0.0
 10
4910.598953125977
 20
998.3195336584216
 30
0.0
 10
5010.598953125978
 20
998.3195336584216
 30
0.0
1001
ACAD
1000
DSTYLE
1002
{
1070
   341
1005
0
1002
}
  0
LINE
  5
2BF8D
330
747D
100
AcDbEntity
  8
細線
 48
50.0
100
AcDbLine
 10
4759.344392521029
 20
1107.565869837136
 30
0.0
 11
4906.439378367621
 21
1254.66085568372
 31
0.0
  0
LINE
  5
2BF8E
330
747D
100
AcDbEntity
  8
細線
 48
50.0
100
AcDbLine
 10
4826.696313429057
 20
1107.565869837136
 30
0.0
 11
4906.439378367621
 21
1187.308934775701
 31
0.0
  0
LINE
  5
2BF8F
330
747D
100
AcDbEntity
  8
細線
 48
50.0
100
AcDbLine
 10
4793.020352975051
 20
1107.565869837136
 30
0.0
 11
4906.439378367621
 21
1220.984895229711
 31
0.0
  0
LINE
  5
2BF90
330
747D
100
AcDbEntity
  8
部品1
 48
50.0
100
AcDbLine
 10
4746.439378367621
 20
1267.565869837137
 30
0.0
 11
4906.439378367621
 21
1267.565869837137
 31
0.0
  0
LINE
  5
2BF91
330
747D
100
AcDbEntity
  8
部品1
 48
50.0
100
AcDbLine
 10
4656.439378367628
 20
1117.565869837136
 30
0.0
 11
4656.439378367621
 21
1772.883906579943
 31
0.0
  0
LINE
  5
2BF92
330
747D
100
AcDbEntity
  8
部品1
 48
50.0
100
AcDbLine
 10
4636.439378367628
 20
1117.565869837136
 30
0.0
 11
4636.439378367613
 21
1772.883906579943
 31
0.0
  0
LINE
  5
2BF93
330
747D
100
AcDbEntity
  8
部品1
 48
50.0
100
AcDbLine
 10
4506.439378367621
 20
1267.565869837137
 30
0.0
 11
4506.439378367621
 21
1947.565869837138
 31
0.0
  0
LINE
  5
2BF94
330
747D
100
AcDbEntity
  8
細線
 48
50.0
100
AcDbLine
 10
4506.439378367621
 20
1359.80026249386
 30
0.0
 11
4636.439378367628
 21
1489.800262493864
 31
0.0
  0
LINE
  5
2BF95
330
747D
100
AcDbEntity
  8
細線
 48
50.0
100
AcDbLine
 10
4506.439378367621
 20
1393.476222947869
 30
0.0
 11
4636.43937836762
 21
1523.476222947869
 31
0.0
  0
LINE
  5
2BF96
330
747D
100
AcDbEntity
  8
細線
 48
50.0
100
AcDbLine
 10
4506.439378367621
 20
1326.124302039851
 30
0.0
 11
4636.439378367628
 21
1456.124302039851
 31
0.0
  0
LINE
  5
2BF97
330
747D
100
AcDbEntity
  8
部品1
 48
50.0
100
AcDbLine
 10
4746.439378367621
 20
1947.565869837138
 30
0.0
 11
4746.439378367621
 21
1267.565869837137
 31
0.0
  0
MTEXT
  5
2BF98
102
{ACAD_REACTORS
330
2BF99
102
}
330
747D
100
AcDbEntity
  8
寸法
 62
     7
 48
50.0
100
AcDbMText
 10
4132.770595623628
 20
863.1625028140918
 30
0.0
 40
100.0
 41
1.0
 71
     6
 72
     1
  1
D10
  7
STYLE2
 73
     1
 44
1.0
1001
ACAD
1000
MTEXTBEGIN
1070
    73
1070
     1
1070
    44
1040
1.0
1070
    74
1070
     0
1000
MTEXTEND
  0
LEADER
  5
2BF99
330
747D
100
AcDbEntity
  8
寸法
 48
50.0
100
AcDbLeader
  3
INABA_S40G
 71
     0
 73
     0
 75
     1
 40
100.0
 41
225.0
 76
     3
 10
4466.318068807799
 20
1117.565869837136
 30
0.0
 10
4257.770595623627
 20
788.1625028140919
 30
0.0
 10
4157.770595623627
 20
788.1625028140919
 30
0.0
1001
ACAD
1000
DSTYLE
1002
{
1070
   341
1005
0
1002
}
  0
LEADER
  5
2BF9A
330
747D
100
AcDbEntity
  8
寸法
 48
50.0
100
AcDbLeader
  3
INABA_S40G
 71
     0
 73
     0
 75
     1
 40
100.0
 41
222.7272727272727
 76
     3
 10
4626.43937836762
 20
1117.565869837136
 30
0.0
 10
4292.92400507042
 20
562.7673121397879
 30
0.0
 10
4192.924005070421
 20
562.7673121397879
 30
0.0
1001
ACAD
1000
DSTYLE
1002
{
1070
   341
1005
0
1002
}
  0
MTEXT
  5
2BF9B
102
{ACAD_REACTORS
330
2BF9A
102
}
330
747D
100
AcDbEntity
  8
寸法
 62
     7
 48
50.0
100
AcDbMText
 10
4167.92400507042
 20
637.7673121397879
 30
0.0
 40
100.0
 41
1.0
 71
     6
 72
     1
  1
D13
  7
STYLE2
 73
     1
 44
1.0
1001
ACAD
1000
MTEXTBEGIN
1070
    73
1070
     1
1070
    44
1040
1.0
1070
    74
1070
     0
1000
MTEXTEND
  0
MTEXT
  5
2BF9C
102
{ACAD_REACTORS
330
2BF9D
102
}
330
747D
100
AcDbEntity
  8
寸法
 62
     7
 48
50.0
100
AcDbMText
 10
4394.876810589114
 20
1449.191623358958
 30
0.0
 40
100.0
 41
1.0
 71
     6
 72
     1
  1
\A1;D10@300
  7
STYLE2
 73
     1
 44
1.0
1001
ACAD
1000
MTEXTBEGIN
1070
    73
1070
     1
1070
    44
1040
1.0
1070
    74
1070
     0
1000
MTEXTEND
  0
LEADER
  5
2BF9D
330
747D
100
AcDbEntity
  8
寸法
 48
50.0
100
AcDbLeader
  3
INABA_S40G
 71
     0
 73
     0
 75
     1
 40
100.0
 41
540.3409090909091
 76
     3
 10
4636.43937836762
 20
1645.224888208541
 30
0.0
 10
4507.711582706748
 20
1368.386977532536
 30
0.0
 10
4407.711582706748
 20
1368.386977532536
 30
0.0
213
-12.16522788236671
223
-5.804645826423211
233
0.0
1001
ACAD
1000
DSTYLE
1002
{
1070
   341
1005
0
1002
}
  0
LEADER
  5
2BF9E
330
747D
100
AcDbEntity
  8
寸法
 48
50.0
100
AcDbLeader
  3
INABA_S40G
 71
     0
 73
     0
 75
     1
 40
130.1136363636363
 41
651.1363636363636
 76
     3
 10
4606.43937836762
 20
1947.565869837138
 30
0.0
 10
4547.521378449338
 20
2123.154326657872
 30
0.0
 10
4447.521378449338
 20
2123.154326657872
 30
0.0
1001
ACAD
1000
DSTYLE
1002
{
1070
   341
1005
0
1002
}
  0
MTEXT
  5
2BF9F
102
{ACAD_REACTORS
330
2BF9E
102
}
330
747D
100
AcDbEntity
  8
寸法
 62
     7
 48
50.0
100
AcDbMText
 10
4422.521378449338
 20
2213.211144839691
 30
0.0
 40
100.0
 41
1.0
 71
     6
 72
     1
  1
\A1;金コテ押エ
  7
STYLE2
 73
     1
 44
1.0
1001
ACAD
1000
MTEXTBEGIN
1070
    73
1070
     1
1070
    44
1040
1.0
1070
    74
1070
     0
1000
MTEXTEND
  0
DIMENSION
  5
2BFA0
330
747D
100
AcDbEntity
  8
寸法
 48
50.0
100
AcDbDimension
  2
*D39
 10
3745.794440331556
 20
967.5658698371368
 30
0.0
 11
3745.794440331556
 21
1457.565869837137
 31
0.0
 70
   160
  1
540
 71
     5
 42
980.0000000000013
  3
INABA_S40G
100
AcDbAlignedDimension
 13
4506.439378367619
 23
1947.565869837138
 33
0.0
 14
4246.439378367624
 24
967.5658698371366
 34
0.0
 50
90.0
100
AcDbRotatedDimension
1001
ACAD
1000
DSTYLE
1002
{
1070
   341
1005
0
1002
}
  0
DIMENSION
  5
2BFA1
330
747D
100
AcDbEntity
  8
寸法
 48
50.0
100
AcDbDimension
  2
*D40
 10
4168.413986202046
 20
967.5658698371366
 30
0.0
 11
4168.413986202046
 21
1117.565869837136
 31
0.0
 70
   160
  1
150
 71
     5
 42
300.0000000000002
  3
INABA_S40G
100
AcDbAlignedDimension
 13
4346.439378367619
 23
1267.565869837137
 33
0.0
 14
4246.439378367624
 24
967.5658698371366
 34
0.0
 50
90.0
100
AcDbRotatedDimension
1001
ACAD
1000
DSTYLE
1002
{
1070
   341
1005
0
1002
}
  0
LWPOLYLINE
  5
2BFA2
330
747D
100
AcDbEntity
  8
部品1
 48
50.0
100
AcDbPolyline
 90
        2
 70
     0
 43
10.0
 10
3988.764501076424
 20
1647.565869837139
 10
4506.439378367619
 20
1647.565869837139
  0
TEXT
  5
2BFA3
330
747D
100
AcDbEntity
  8
部品1
 48
50.0
100
AcDbText
 10
3988.764501076424
 20
1661.614610191207
 30
0.0
 40
100.0
  1
▽G.L
  7
STYLE2
100
AcDbText
  0
LEADER
  5
2BFA4
330
747D
100
AcDbEntity
  8
寸法
 48
50.0
100
AcDbLeader
  3
INABA_S40G
 73
     0
 75
     1
 40
132.9545454545455
 41
1116.477272727273
 76
     3
 10
6795.738519839114
 20
2034.515869837138
 30
0.0
 10
6687.70842940794
 20
2493.340338232553
 30
0.0
 10
6587.708429407939
 20
2493.340338232553
 30
0.0
340
2BFA5
1001
ACAD
1000
DSTYLE
1002
{
1070
   341
1005
0
1002
}
  0
MTEXT
  5
2BFA5
102
{ACAD_REACTORS
330
2BFA4
102
}
330
747D
100
AcDbEntity
  8
寸法
 62
     7
 48
50.0
100
AcDbMText
 10
6547.708429407939
 20
2599.817610959826
 30
0.0
 40
100.0
 41
1.0
 71
     6
 72
     1
  1
\A1;アンカープレート L
  7
STYLE2
 73
     1
 44
1.0
1001
ACAD
1000
MTEXTBEGIN
1070
    73
1070
     1
1070
    44
1040
1.0
1070
    74
1070
     0
1000
MTEXTEND
  0
MTEXT
  5
2BFA6
102
{ACAD_REACTORS
330
2BFA7
102
}
330
747D
100
AcDbEntity
  8
部品1
 62
     7
 48
50.0
100
AcDbMText
 10
7158.68098373081
 20
3054.396439652198
 30
0.0
 40
100.0
 41
1.0
 71
     4
 72
     1
  1
\A1;ナット(市販品)
  7
STYLE2
 73
     1
 44
1.0
1001
ACAD
1000
MTEXTBEGIN
1070
    73
1070
     1
1070
    44
1040
1.0
1070
    74
1070
     0
1000
MTEXTEND
  0
LEADER
  5
2BFA7
330
747D
100
AcDbEntity
  8
寸法
 48
50.0
100
AcDbLeader
  3
INABA_S40G
 73
     0
 74
     0
 75
     1
 40
127.8409090909091
 41
850.0
 76
     3
 10
6928.238519839112
 20
2446.159971223566
 30
0.0
 10
7018.680983730809
 20
2950.475985106744
 30
0.0
 10
7118.680983730809
 20
2950.475985106744
 30
0.0
340
2BFA6
1001
ACAD
1000
DSTYLE
1002
{
1070
   341
1005
0
1002
}
  0
MTEXT
  5
2BFA8
102
{ACAD_REACTORS
330
2BFA9
102
}
330
747D
100
AcDbEntity
  8
部品1
 62
     7
 48
50.0
100
AcDbMText
 10
7198.078007800164
 20
2823.185086196213
 30
0.0
 40
100.0
 41
1.0
 71
     4
 72
     1
  1
\A1;ワッシャー(市販品)
  7
STYLE2
 73
     1
 44
1.0
1001
ACAD
1000
MTEXTBEGIN
1070
    73
1070
     1
1070
    44
1040
1.0
1070
    74
1070
     0
1000
MTEXTEND
  0
LEADER
  5
2BFA9
330
747D
100
AcDbEntity
  8
寸法
 48
50.0
100
AcDbLeader
  3
INABA_S40G
 73
     0
 74
     0
 75
     1
 40
127.8409090909091
 41
1133.522727272727
 76
     3
 10
6958.238519839113
 20
2283.969980392487
 30
0.0
 10
7058.078007800164
 20
2719.264631650759
 30
0.0
 10
7158.078007800163
 20
2719.264631650759
 30
0.0
340
2BFA8
1001
ACAD
1000
DSTYLE
1002
{
1070
   341
1005
0
1002
}
  0
DIMENSION
  5
2BFAA
330
747D
100
AcDbEntity
  8
寸法
 48
50.0
100
AcDbDimension
  2
*D41
 10
4506.439378367619
 20
2472.150629732614
 30
0.0
 11
4626.439378367619
 21
2472.150629732614
 31
0.0
 70
   160
  1
120\P(195)
 71
     5
 42
239.9999999999991
  3
INABA_S40G
100
AcDbAlignedDimension
 13
4746.439378367617
 23
1947.565869837138
 33
0.0
 14
4506.439378367619
 24
1947.565869837138
 34
0.0
100
AcDbRotatedDimension
1001
ACAD
1000
DSTYLE
1002
{
1070
   341
1005
0
1002
}
  0
LINE
  5
2BFAB
330
747D
100
AcDbEntity
  8
部品1
100
AcDbLine
 10
3387.638686815841
 20
3598.780394558193
 30
0.0
 11
3387.638686815841
 21
339.7108952035055
 31
0.0
  0
MTEXT
  5
2BFAC
102
{ACAD_REACTORS
330
2BFAD
102
}
330
747D
100
AcDbEntity
  8
寸法
 62
     7
 48
50.0
100
AcDbMText
 10
6514.404671647492
 20
3050.67295084422
 30
0.0
 40
100.0
 41
1.0
 71
     6
 72
     1
  1
\A1;φ70スリーブ
  7
STYLE2
 73
     1
 44
1.0
1001
ACAD
1000
MTEXTBEGIN
1070
    73
1070
     1
1070
    44
1040
1.0
1070
    74
1070
     0
1000
MTEXTEND
  0
LEADER
  5
2BFAD
330
747D
100
AcDbEntity
  8
寸法
 48
50.0
100
AcDbLeader
  3
INABA_S40G
 73
     0
 75
     1
 40
141.4772727272727
 41
760.7954545454546
 76
     3
 10
6869.159457511674
 20
1884.460461534986
 30
0.0
 10
6654.40467164749
 20
2939.934314480584
 30
0.0
 10
6554.404671647491
 20
2939.934314480584
 30
0.0
340
2BFAC
1001
ACAD
1000
DSTYLE
1002
{
1070
   341
1005
0
1002
}
  0
LINE
  5
2BFAE
330
747D
100
AcDbEntity
  8
部品1
100
AcDbLine
 10
10284.11338291387
 20
3598.780394558195
 30
0.0
 11
3387.638686815837
 21
3598.780394558193
 31
0.0
  0
LINE
  5
2BFAF
330
747D
100
AcDbEntity
  8
部品1
100
AcDbLine
 10
10284.11338291387
 20
3298.780394558193
 30
0.0
 11
3387.638686815837
 21
3298.780394558193
 31
0.0
  0
LINE
  5
2BFB0
330
747D
100
AcDbEntity
  8
部品1
100
AcDbLine
 10
3387.638686815837
 20
339.7108952035055
 30
0.0
 11
10284.11338291387
 21
339.7108952035055
 31
0.0
  0
LINE
  5
2BFB1
330
747D
100
AcDbEntity
  8
部品1
100
AcDbLine
 10
8793.602455094729
 20
1372.942225270446
 30
0.0
 11
9693.60245509473
 21
1372.94222527045
 31
0.0
  0
LINE
  5
2BFB2
330
747D
100
AcDbEntity
  8
部品1
100
AcDbLine
 10
8793.602455094729
 20
1532.94222527045
 30
0.0
 11
9693.60245509473
 21
1532.942225270453
 31
0.0
  0
LWPOLYLINE
  5
2BFB3
330
747D
100
AcDbEntity
  8
部品1
 48
50.0
100
AcDbPolyline
 90
        2
 70
     0
 43
15.0
 10
8462.838377469244
 20
1647.565869837137
 10
9964.203756383781
 20
1647.565869837137
  0
LINE
  5
2BFB4
330
747D
100
AcDbEntity
  8
細線
100
AcDbLine
 10
8934.897948218889
 20
1532.94222527045
 30
0.0
 11
9049.52159278558
 21
1647.565869837137
 31
0.0
  0
LINE
  5
2BFB5
330
747D
100
AcDbEntity
  8
部品1
100
AcDbLine
 10
8943.60245509473
 20
1947.565869837138
 30
0.0
 11
9543.602455094728
 21
1947.565869837138
 31
0.0
  0
LINE
  5
2BFB6
330
747D
100
AcDbEntity
  8
細線
100
AcDbLine
 10
9123.254511883919
 20
1647.565869837137
 30
0.0
 11
8943.60245509473
 21
1827.217926626328
 31
0.0
  0
LINE
  5
2BFB7
330
747D
100
AcDbEntity
  8
細線
100
AcDbLine
 10
9186.894122190707
 20
1647.565869837137
 30
0.0
 11
8943.60245509473
 21
1890.857536933116
 31
0.0
  0
HATCH
  5
2C0FC
330
747D
100
AcDbEntity
  8
細線
 48
50.0
100
AcDbHatch
 10
0.0
 20
0.0
 30
0.0
210
0.0
220
0.0
230
1.0
  2
LINE
 70
     0
 71
     1
 91
        6
 92
        7
 72
     0
 73
     1
 93
        4
 10
6798.600000000002
 20
8782.854429179783
 10
6598.600000000002
 20
8782.854429179783
 10
6598.599999999999
 20
8662.854429179786
 10
6798.599999999999
 20
8662.854429179786
 97
        4
330
28238
330
2848B
330
2845F
330
2848A
 92
        7
 72
     0
 73
     1
 93
        4
 10
5288.6
 20
7142.854429179782
 10
5168.600000000001
 20
7142.854429179782
 10
5168.600000000001
 20
6942.854429179782
 10
5288.6
 20
6942.854429179782
 97
        4
330
2846C
330
28241
330
2846D
330
28460
 92
        7
 72
     0
 73
     1
 93
        4
 10
6798.600000000002
 20
5422.854429179792
 10
6598.600000000002
 20
5422.854429179792
 10
6598.600000000004
 20
5227.85442917978
 10
6798.600000000002
 20
5227.854429179783
 97
        4
330
2845E
330
2823D
330
28247
330
2823E
 92
        7
 72
     0
 73
     1
 93
        4
 10
9848.600000000013
 20
5422.854429179798
 10
9648.600000000014
 20
5422.854429179798
 10
9648.600000000014
 20
5302.854429179792
 10
9848.600000000018
 20
5302.854429179793
 97
        4
330
28235
330
284AD
330
28234
330
284AE
 92
        7
 72
     0
 73
     1
 93
        4
 10
11278.6
 20
7142.854429179782
 10
11158.6
 20
7142.854429179782
 10
11158.6
 20
6942.854429179782
 10
11278.6
 20
6942.854429179782
 97
        4
330
284E6
330
284DA
330
284E7
330
284B1
 92
        7
 72
     0
 73
     1
 93
        4
 10
9848.600000000001
 20
8782.854429179788
 10
9648.600000000001
 20
8782.854429179788
 10
9648.600000000001
 20
8662.85442917978
 10
9848.600000000001
 20
8662.85442917978
 97
        4
330
28238
330
284D8
330
28230
330
284D9
 75
     0
 76
     1
 52
45.0
 41
10.0
 77
     0
 78
     1
 53
45.0
 43
0.0
 44
0.0
 45
-22.45064030267288
 46
22.45064030267288
 79
     0
 47
11.75966935344705
 98
        6
 10
6633.92113810309
 20
8772.541101218594
 10
5245.683137927306
 20
7032.110029584976
 10
6728.039003366212
 20
5279.919246623678
 10
9680.985872972309
 20
5350.477292987511
 10
11210.40067104275
 20
7043.869685512094
 10
9728.044805603861
 20
8760.781389890915
  0
TEXT
  5
2C120
330
747D
100
AcDbEntity
  8
文字
 62
     7
 48
50.0
100
AcDbText
 10
14773.51716161636
 20
871.1744590657927
 30
0.0
 40
100.0
  1
～一般型～
  7
STYLE2
100
AcDbText
  0
ENDSEC
  0
SECTION
  2
OBJECTS
  0
DICTIONARY
  5
7471
330
0
100
AcDbDictionary
281
     1
  3
ACAD_COLOR
350
173D2
  3
ACAD_GROUP
350
7472
  3
ACAD_LAYOUT
350
173D3
  3
ACAD_MATERIAL
350
173D1
  3
ACAD_MLINESTYLE
350
7473
  3
ACAD_PLOTSETTINGS
350
173D4
  3
ACAD_PLOTSTYLENAME
350
173CF
  3
ACDBHEADERROUNDTRIPXREC
350
2C2F2
  3
AcDbVariableDictionary
350
2C107
  3
CONTENTDICTIONARY
350
E71C
  3
DRAWINGVARIABLESDICT
350
F3B9
  0
DICTIONARY
  5
1758F
330
7467
100
AcDbDictionary
280
     1
281
     1
  3
ACAD_LAYERSTATES
360
17590
  0
DICTIONARY
  5
173D2
102
{ACAD_REACTORS
330
7471
102
}
330
7471
100
AcDbDictionary
281
     1
  0
DICTIONARY
  5
7472
102
{ACAD_REACTORS
330
7471
102
}
330
7471
100
AcDbDictionary
281
     1
  3
*A1
350
1D2A9
  0
DICTIONARY
  5
173D3
102
{ACAD_REACTORS
330
7471
102
}
330
7471
100
AcDbDictionary
281
     1
  3
Model
350
173D5
  3
レイアウト1
350
173D6
  0
DICTIONARY
  5
173D1
102
{ACAD_REACTORS
330
7471
102
}
330
7471
100
AcDbDictionary
281
     1
  0
DICTIONARY
  5
7473
102
{ACAD_REACTORS
330
7471
102
}
330
7471
100
AcDbDictionary
281
     1
  3
STANDARD
350
7480
  0
DICTIONARY
  5
173D4
102
{ACAD_REACTORS
330
7471
102
}
330
7471
100
AcDbDictionary
281
     1
  0
ACDBDICTIONARYWDFLT
  5
173CF
102
{ACAD_REACTORS
330
7471
102
}
330
7471
100
AcDbDictionary
281
     1
  3
Normal
350
173D0
100
AcDbDictionaryWithDefault
340
173D0
  0
DICTIONARY
  5
2C2F2
102
{ACAD_REACTORS
330
7471
102
}
330
7471
100
AcDbDictionary
281
     1
  3
COLORDICT
350
2C2F4
  3
MATERIALDICT
350
2C2F3
  0
DICTIONARY
  5
2C107
102
{ACAD_REACTORS
330
7471
102
}
330
7471
100
AcDbDictionary
281
     1
  3
DIMASSOC
350
2C108
  3
PROJECTNAME
350
2C109
  0
DICTIONARY
  5
E71C
102
{ACAD_REACTORS
330
7471
102
}
330
7471
100
AcDbDictionary
281
     1
  0
DICTIONARY
  5
F3B9
102
{ACAD_REACTORS
330
7471
102
}
330
7471
100
AcDbDictionary
281
     1
1001
DRAWINGVARIABLESXDATA
1000
POLARMODE
1000
1
  0
DICTIONARY
  5
17590
102
{ACAD_REACTORS
330
1758F
102
}
330
1758F
100
AcDbDictionary
281
     1
  0
GROUP
  5
1D2A9
102
{ACAD_REACTORS
330
7472
102
}
330
7472
100
AcDbGroup
300

 70
     1
 71
     1
  0
LAYOUT
  5
173D5
102
{ACAD_XDICTIONARY
360
2C2F5
102
}
102
{ACAD_REACTORS
330
173D3
102
}
330
173D3
100
AcDbPlotSettings
  1

  2
クセロPDF
  4
A3
  6

 40
3.174999999999999
 41
3.174999999999999
 42
3.174987999999999
 43
3.174987999999999
 44
419.946655
 45
296.925995
 46
0.0
 47
0.0
 48
0.0
 49
0.0
140
0.0
141
0.0
142
1.0
143
40.88431155294937
 70
 11952
 72
     1
 73
     0
 74
     2
  7
inaba.ctb
 75
     0
147
0.0244592598484849
148
0.0
149
0.0
100
AcDbLayout
  1
Model
 70
     1
 71
     0
 10
0.0
 20
0.0
 11
12.0
 21
9.0
 12
0.0
 22
0.0
 32
0.0
 14
0.0
 24
0.0
 34
0.0
 15
0.0
 25
0.0
 35
0.0
146
0.0
 13
0.0
 23
0.0
 33
0.0
 16
1.0
 26
0.0
 36
0.0
 17
0.0
 27
1.0
 37
0.0
 76
     0
330
747D
  0
LAYOUT
  5
173D6
102
{ACAD_XDICTIONARY
360
2C2F7
102
}
102
{ACAD_REACTORS
330
173D3
102
}
330
173D3
100
AcDbPlotSettings
  1

  2
Microsoft Office Document Image Writer
  4

  6

 40
0.0
 41
0.0
 42
0.0
 43
0.0
 44
0.0
 45
0.0
 46
0.0
 47
0.0
 48
0.0
 49
0.0
140
0.0
141
0.0
142
1.0
143
1.0
 70
   688
 72
     0
 73
     0
 74
     5
  7
inaba.ctb
 75
    16
147
1.0
148
0.0
149
0.0
100
AcDbLayout
  1
レイアウト1
 70
     0
 71
     1
 10
0.0
 20
0.0
 11
420.0
 21
297.0
 12
0.0
 22
0.0
 32
0.0
 14
1.000000000000000E+20
 24
1.000000000000000E+20
 34
1.000000000000000E+20
 15
-1.000000000000000E+20
 25
-1.000000000000000E+20
 35
-1.000000000000000E+20
146
0.0
 13
0.0
 23
0.0
 33
0.0
 16
1.0
 26
0.0
 36
0.0
 17
0.0
 27
1.0
 37
0.0
 76
     0
330
747A
  0
MLINESTYLE
  5
7480
102
{ACAD_REACTORS
330
7473
102
}
330
7473
100
AcDbMlineStyle
  2
STANDARD
 70
     0
  3

 62
     0
 51
90.0
 52
90.0
 71
     2
 49
0.5
 62
   256
  6
BYLAYER
 49
-0.5
 62
   256
  6
BYLAYER
  0
ACDBPLACEHOLDER
  5
173D0
102
{ACAD_REACTORS
330
173CF
102
}
330
173CF
  0
XRECORD
  5
2C2F4
102
{ACAD_REACTORS
330
2C2F2
102
}
330
2C2F2
100
AcDbXrecord
280
     1
340
173D2
  0
XRECORD
  5
2C2F3
102
{ACAD_REACTORS
330
2C2F2
102
}
330
2C2F2
100
AcDbXrecord
280
     1
340
173D1
  0
DICTIONARYVAR
  5
2C108
102
{ACAD_REACTORS
330
2C107
102
}
330
2C107
100
DictionaryVariables
280
     0
  1
1
  0
DICTIONARYVAR
  5
2C109
102
{ACAD_REACTORS
330
2C107
102
}
330
2C107
100
DictionaryVariables
280
     0
  1

  0
DICTIONARY
  5
2C2F5
330
173D5
100
AcDbDictionary
280
     1
281
     1
  3
ACAD_XREC_ROUNDTRIP
360
2C2F6
  0
DICTIONARY
  5
2C2F7
330
173D6
100
AcDbDictionary
280
     1
281
     1
  3
ACAD_XREC_ROUNDTRIP
360
2C2F8
  0
XRECORD
  5
2C2F6
102
{ACAD_REACTORS
330
2C2F5
102
}
330
2C2F5
100
AcDbXrecord
280
     1
102
SHADEPLOT
 70
     1
102
SHADEPLOTRESLEVEL
 70
     2
102
SHADEPLOTCUSTOMDPI
 70
   300
  0
XRECORD
  5
2C2F8
102
{ACAD_REACTORS
330
2C2F7
102
}
330
2C2F7
100
AcDbXrecord
280
     1
102
SHADEPLOT
 70
     0
102
SHADEPLOTRESLEVEL
 70
     2
102
SHADEPLOTCUSTOMDPI
 70
   300
  0
ENDSEC
  0
EOF
