  0
SECTION
  2
HEADER
  9
$ACADVER
  1
AC1015
  9
$ACADMAINTVER
 70
    20
  9
$DWGCODEPAGE
  3
ANSI_932
  9
$INSBASE
 10
0.0
 20
0.0
 30
0.0
  9
$EXTMIN
 10
139.9999999999995
 20
-0.0000000000000909
 30
0.0
  9
$EXTMAX
 10
16307.2
 20
11409.6
 30
0.0
  9
$LIMMIN
 10
0.0
 20
0.0
  9
$LIMMAX
 10
16800.0
 20
11880.0
  9
$ORTHOMODE
 70
     0
  9
$REGENMODE
 70
     1
  9
$FILLMODE
 70
     1
  9
$QTEXTMODE
 70
     0
  9
$MIRRTEXT
 70
     1
  9
$LTSCALE
 40
20.0
  9
$ATTMODE
 70
     1
  9
$TEXTSIZE
 40
4.0
  9
$TRACEWID
 40
1.0
  9
$TEXTSTYLE
  7
STYLE1
  9
$CLAYER
  8
細線
  9
$CELTYPE
  6
BYLAYER
  9
$CECOLOR
 62
   256
  9
$CELTSCALE
 40
50.0
  9
$DISPSILH
 70
     0
  9
$DIMSCALE
 40
40.0
  9
$DIMASZ
 40
2.5
  9
$DIMEXO
 40
0.5
  9
$DIMDLI
 40
7.0
  9
$DIMRND
 40
0.0
  9
$DIMDLE
 40
0.0
  9
$DIMEXE
 40
1.5
  9
$DIMTP
 40
0.0
  9
$DIMTM
 40
0.0
  9
$DIMTXT
 40
3.0
  9
$DIMCEN
 40
0.0
  9
$DIMTSZ
 40
0.0
  9
$DIMTOL
 70
     0
  9
$DIMLIM
 70
     0
  9
$DIMTIH
 70
     0
  9
$DIMTOH
 70
     0
  9
$DIMSE1
 70
     0
  9
$DIMSE2
 70
     0
  9
$DIMTAD
 70
     3
  9
$DIMZIN
 70
     8
  9
$DIMBLK
  1

  9
$DIMASO
 70
     1
  9
$DIMSHO
 70
     1
  9
$DIMPOST
  1

  9
$DIMAPOST
  1

  9
$DIMALT
 70
     0
  9
$DIMALTD
 70
     2
  9
$DIMALTF
 40
0.0394
  9
$DIMLFAC
 40
1.0
  9
$DIMTOFL
 70
     1
  9
$DIMTVP
 40
0.0
  9
$DIMTIX
 70
     1
  9
$DIMSOXD
 70
     0
  9
$DIMSAH
 70
     1
  9
$DIMBLK1
  1
DOTSMALL
  9
$DIMBLK2
  1
DOTSMALL
  9
$DIMSTYLE
  2
INABA_S40G
  9
$DIMCLRD
 70
     0
  9
$DIMCLRE
 70
     0
  9
$DIMCLRT
 70
     7
  9
$DIMTFAC
 40
1.0
  9
$DIMGAP
 40
1.0
  9
$DIMJUST
 70
     0
  9
$DIMSD1
 70
     0
  9
$DIMSD2
 70
     0
  9
$DIMTOLJ
 70
     1
  9
$DIMTZIN
 70
     0
  9
$DIMALTZ
 70
     0
  9
$DIMALTTZ
 70
     0
  9
$DIMUPT
 70
     0
  9
$DIMDEC
 70
     1
  9
$DIMTDEC
 70
     4
  9
$DIMALTU
 70
     2
  9
$DIMALTTD
 70
     2
  9
$DIMTXSTY
  7
STYLE1
  9
$DIMAUNIT
 70
     0
  9
$DIMADEC
 70
     0
  9
$DIMALTRND
 40
0.0
  9
$DIMAZIN
 70
     0
  9
$DIMDSEP
 70
    46
  9
$DIMATFIT
 70
     3
  9
$DIMFRAC
 70
     0
  9
$DIMLDRBLK
  1

  9
$DIMLUNIT
 70
     2
  9
$DIMLWD
 70
    -2
  9
$DIMLWE
 70
    -2
  9
$DIMTMOVE
 70
     0
  9
$LUNITS
 70
     2
  9
$LUPREC
 70
     1
  9
$SKETCHINC
 40
1.0
  9
$FILLETRAD
 40
3.0
  9
$AUNITS
 70
     0
  9
$AUPREC
 70
     0
  9
$MENU
  1
acad
  9
$ELEVATION
 40
0.0
  9
$PELEVATION
 40
0.0
  9
$THICKNESS
 40
0.0
  9
$LIMCHECK
 70
     0
  9
$CHAMFERA
 40
0.0
  9
$CHAMFERB
 40
0.0
  9
$CHAMFERC
 40
0.0
  9
$CHAMFERD
 40
0.0
  9
$SKPOLY
 70
     0
  9
$TDCREATE
 40
2451368.612993866
  9
$TDUCREATE
 40
2451368.237993866
  9
$TDUPDATE
 40
2455827.764549838
  9
$TDUUPDATE
 40
2455827.389549838
  9
$TDINDWG
 40
0.9033745486
  9
$TDUSRTIMER
 40
0.9033729282
  9
$USRTIMER
 70
     1
  9
$ANGBASE
 50
0.0
  9
$ANGDIR
 70
     0
  9
$PDMODE
 70
     3
  9
$PDSIZE
 40
2.0
  9
$PLINEWID
 40
0.0
  9
$SPLFRAME
 70
     0
  9
$SPLINETYPE
 70
     6
  9
$SPLINESEGS
 70
     8
  9
$HANDSEED
  5
2B4CE
  9
$SURFTAB1
 70
     6
  9
$SURFTAB2
 70
     6
  9
$SURFTYPE
 70
     6
  9
$SURFU
 70
     6
  9
$SURFV
 70
     6
  9
$UCSBASE
  2

  9
$UCSNAME
  2

  9
$UCSORG
 10
0.0
 20
0.0
 30
0.0
  9
$UCSXDIR
 10
1.0
 20
0.0
 30
0.0
  9
$UCSYDIR
 10
0.0
 20
1.0
 30
0.0
  9
$UCSORTHOREF
  2

  9
$UCSORTHOVIEW
 70
     0
  9
$UCSORGTOP
 10
0.0
 20
0.0
 30
0.0
  9
$UCSORGBOTTOM
 10
0.0
 20
0.0
 30
0.0
  9
$UCSORGLEFT
 10
0.0
 20
0.0
 30
0.0
  9
$UCSORGRIGHT
 10
0.0
 20
0.0
 30
0.0
  9
$UCSORGFRONT
 10
0.0
 20
0.0
 30
0.0
  9
$UCSORGBACK
 10
0.0
 20
0.0
 30
0.0
  9
$PUCSBASE
  2

  9
$PUCSNAME
  2

  9
$PUCSORG
 10
0.0
 20
0.0
 30
0.0
  9
$PUCSXDIR
 10
1.0
 20
0.0
 30
0.0
  9
$PUCSYDIR
 10
0.0
 20
1.0
 30
0.0
  9
$PUCSORTHOREF
  2

  9
$PUCSORTHOVIEW
 70
     0
  9
$PUCSORGTOP
 10
0.0
 20
0.0
 30
0.0
  9
$PUCSORGBOTTOM
 10
0.0
 20
0.0
 30
0.0
  9
$PUCSORGLEFT
 10
0.0
 20
0.0
 30
0.0
  9
$PUCSORGRIGHT
 10
0.0
 20
0.0
 30
0.0
  9
$PUCSORGFRONT
 10
0.0
 20
0.0
 30
0.0
  9
$PUCSORGBACK
 10
0.0
 20
0.0
 30
0.0
  9
$USERI1
 70
     0
  9
$USERI2
 70
     0
  9
$USERI3
 70
     0
  9
$USERI4
 70
     0
  9
$USERI5
 70
     0
  9
$USERR1
 40
0.0
  9
$USERR2
 40
0.0
  9
$USERR3
 40
0.0
  9
$USERR4
 40
0.0
  9
$USERR5
 40
0.0
  9
$WORLDVIEW
 70
     1
  9
$SHADEDGE
 70
     3
  9
$SHADEDIF
 70
    70
  9
$TILEMODE
 70
     1
  9
$MAXACTVP
 70
    16
  9
$PINSBASE
 10
0.0
 20
0.0
 30
0.0
  9
$PLIMCHECK
 70
     0
  9
$PEXTMIN
 10
1.000000000000000E+20
 20
1.000000000000000E+20
 30
1.000000000000000E+20
  9
$PEXTMAX
 10
-1.000000000000000E+20
 20
-1.000000000000000E+20
 30
-1.000000000000000E+20
  9
$PLIMMIN
 10
0.0
 20
0.0
  9
$PLIMMAX
 10
420.0
 20
297.0
  9
$UNITMODE
 70
     0
  9
$VISRETAIN
 70
     0
  9
$PLINEGEN
 70
     0
  9
$PSLTSCALE
 70
     0
  9
$TREEDEPTH
 70
  3020
  9
$CMLSTYLE
  2
STANDARD
  9
$CMLJUST
 70
     0
  9
$CMLSCALE
 40
1.0
  9
$PROXYGRAPHICS
 70
     1
  9
$MEASUREMENT
 70
     1
  9
$CELWEIGHT
370
    -1
  9
$ENDCAPS
280
     0
  9
$JOINSTYLE
280
     0
  9
$LWDISPLAY
290
     0
  9
$INSUNITS
 70
     0
  9
$HYPERLINKBASE
  1

  9
$STYLESHEET
  1
inaba.ctb
  9
$XEDIT
290
     1
  9
$CEPSNTYPE
380
     0
  9
$PSTYLEMODE
290
     1
  9
$FINGERPRINTGUID
  2
{5EAC461A-2277-4BF8-9AB0-99C43BB394F0}
  9
$VERSIONGUID
  2
{E2F01244-F16D-4880-A8B8-D40C924DB351}
  9
$EXTNAMES
290
     1
  9
$PSVPSCALE
 40
0.0
  9
$OLESTARTUP
290
     0
  0
ENDSEC
  0
SECTION
  2
CLASSES
  0
CLASS
  1
ACDBDICTIONARYWDFLT
  2
AcDbDictionaryWithDefault
  3
ObjectDBX Classes
 90
        0
280
     0
281
     0
  0
CLASS
  1
DICTIONARYVAR
  2
AcDbDictionaryVar
  3
ObjectDBX Classes
 90
        0
280
     0
281
     0
  0
CLASS
  1
ACDBPLACEHOLDER
  2
AcDbPlaceHolder
  3
ObjectDBX Classes
 90
        0
280
     0
281
     0
  0
CLASS
  1
LAYOUT
  2
AcDbLayout
  3
ObjectDBX Classes
 90
        0
280
     0
281
     0
  0
ENDSEC
  0
SECTION
  2
TABLES
  0
TABLE
  2
VPORT
  5
746D
330
0
100
AcDbSymbolTable
 70
     2
  0
VPORT
  5
2B4C6
330
746D
100
AcDbSymbolTableRecord
100
AcDbViewportTableRecord
  2
*Active
 70
     0
 10
0.0
 20
0.0
 11
1.0
 21
1.0
 12
9850.11470609157
 22
5755.737687086469
 13
0.0
 23
0.0
 14
10.0
 24
10.0
 15
10.0
 25
10.0
 16
0.0
 26
0.0
 36
1.0
 17
0.0
 27
0.0
 37
0.0
 40
11599.01250300234
 41
1.79295154185022
 42
50.0
 43
0.0
 44
0.0
 50
0.0
 51
0.0
 71
     0
 72
     0
 73
     1
 74
     0
 75
     0
 76
     0
 77
     0
 78
     0
281
     0
 65
     1
110
0.0
120
0.0
130
0.0
111
1.0
121
0.0
131
0.0
112
0.0
122
1.0
132
0.0
 79
     0
146
0.0
  0
ENDTAB
  0
TABLE
  2
LTYPE
  5
746A
330
0
100
AcDbSymbolTable
 70
     3
  0
LTYPE
  5
7477
330
746A
100
AcDbSymbolTableRecord
100
AcDbLinetypeTableRecord
  2
BYBLOCK
 70
     0
  3

 72
    65
 73
     0
 40
0.0
  0
LTYPE
  5
7478
330
746A
100
AcDbSymbolTableRecord
100
AcDbLinetypeTableRecord
  2
BYLAYER
 70
     0
  3

 72
    65
 73
     0
 40
0.0
  0
LTYPE
  5
7479
330
746A
100
AcDbSymbolTableRecord
100
AcDbLinetypeTableRecord
  2
CONTINUOUS
 70
     0
  3
Solid line
 72
    65
 73
     0
 40
0.0
  0
LTYPE
  5
7816
330
746A
100
AcDbSymbolTableRecord
100
AcDbLinetypeTableRecord
  2
CENTER
 70
     0
  3
____ _ ____ _ ____ _ ____ _ ____ _ ____ _ ____ 
 72
    65
 73
     4
 40
2.0
 49
1.25
 74
     0
 49
-0.25
 74
     0
 49
0.25
 74
     0
 49
-0.25
 74
     0
  0
LTYPE
  5
781B
330
746A
100
AcDbSymbolTableRecord
100
AcDbLinetypeTableRecord
  2
PHANTOM
 70
     0
  3
______  __  __  ______  __  __  ______  __  __ 
 72
    65
 73
     6
 40
2.5
 49
1.25
 74
     0
 49
-0.25
 74
     0
 49
0.25
 74
     0
 49
-0.25
 74
     0
 49
0.25
 74
     0
 49
-0.25
 74
     0
  0
ENDTAB
  0
TABLE
  2
LAYER
  5
7467
102
{ACAD_XDICTIONARY
360
1758F
102
}
330
0
100
AcDbSymbolTable
 70
    10
  0
LAYER
  5
7474
330
7467
100
AcDbSymbolTableRecord
100
AcDbLayerTableRecord
  2
0
 70
     0
 62
     7
  6
CONTINUOUS
370
    -3
390
173D0
  0
LAYER
  5
DEB2
330
7467
100
AcDbSymbolTableRecord
100
AcDbLayerTableRecord
  2
センター
 70
     0
 62
     3
  6
CENTER
370
    -3
390
173D0
  0
LAYER
  5
DEB3
330
7467
100
AcDbSymbolTableRecord
100
AcDbLayerTableRecord
  2
寸法
 70
     0
 62
     4
  6
CONTINUOUS
370
    -3
390
173D0
  0
LAYER
  5
DEB4
330
7467
100
AcDbSymbolTableRecord
100
AcDbLayerTableRecord
  2
部品1
 70
     0
 62
     7
  6
CONTINUOUS
370
    -3
390
173D0
  0
LAYER
  5
DEB5
330
7467
100
AcDbSymbolTableRecord
100
AcDbLayerTableRecord
  2
補助
 70
     0
 62
    -1
  6
CONTINUOUS
370
    -3
390
173D0
  0
LAYER
  5
DEB6
330
7467
100
AcDbSymbolTableRecord
100
AcDbLayerTableRecord
  2
文字
 70
     0
 62
     7
  6
CONTINUOUS
370
    -3
390
173D0
  0
LAYER
  5
F255
330
7467
100
AcDbSymbolTableRecord
100
AcDbLayerTableRecord
  2
DEFPOINTS
 70
     0
 62
     7
  6
CONTINUOUS
290
     0
370
    -3
390
173D0
  0
LAYER
  5
10B54
330
7467
100
AcDbSymbolTableRecord
100
AcDbLayerTableRecord
  2
仕様書枠
 70
     0
 62
   230
  6
CONTINUOUS
370
    -3
390
173D0
  0
LAYER
  5
1173F
330
7467
100
AcDbSymbolTableRecord
100
AcDbLayerTableRecord
  2
細線
 70
     0
 62
     5
  6
CONTINUOUS
370
    -3
390
173D0
  0
LAYER
  5
12CC4
330
7467
100
AcDbSymbolTableRecord
100
AcDbLayerTableRecord
  2
想像線
 70
     0
 62
     6
  6
PHANTOM
370
    -3
390
173D0
  0
ENDTAB
  0
TABLE
  2
STYLE
  5
7468
330
0
100
AcDbSymbolTable
 70
     4
  0
STYLE
  5
7475
330
7468
100
AcDbSymbolTableRecord
100
AcDbTextStyleTableRecord
  2
STANDARD
 70
     0
 40
0.0
 41
1.0
 50
0.0
 71
     0
 42
4.0
  3
txt
  4
C:\AutoCAD LT\bigfont.shx
  0
STYLE
  5
763C
330
7468
100
AcDbSymbolTableRecord
100
AcDbTextStyleTableRecord
  2
MSMINCHO
 70
     0
 40
0.0
 41
1.0
 50
0.0
 71
     0
 42
1.199999999999999
  3
C:\AutoCAD LT\msminch2.TTF
  4

  0
STYLE
  5
F706
330
7468
100
AcDbSymbolTableRecord
100
AcDbTextStyleTableRecord
  2
STYLE1
 70
     0
 40
0.0
 41
1.0
 50
0.0
 71
     0
 42
4.0
  3
isocp.shx
  4
bigfont.shx
  0
STYLE
  5
103BF
330
7468
100
AcDbSymbolTableRecord
100
AcDbTextStyleTableRecord
  2
STYLE2
 70
     0
 40
0.0
 41
1.0
 50
0.0
 71
     0
 42
100.0
  3
MS PGothic.ttf
  4

1001
ACAD
1000
MS PGothic
1071
    32818
  0
ENDTAB
  0
TABLE
  2
VIEW
  5
746B
330
0
100
AcDbSymbolTable
 70
     0
  0
ENDTAB
  0
TABLE
  2
UCS
  5
746C
330
0
100
AcDbSymbolTable
 70
     0
  0
ENDTAB
  0
TABLE
  2
APPID
  5
746E
330
0
100
AcDbSymbolTable
 70
     6
  0
APPID
  5
7476
330
746E
100
AcDbSymbolTableRecord
100
AcDbRegAppTableRecord
  2
ACAD
 70
     0
  0
APPID
  5
DEA9
330
746E
100
AcDbSymbolTableRecord
100
AcDbRegAppTableRecord
  2
CONTENTBLOCKICON
 70
     0
  0
APPID
  5
DEAA
330
746E
100
AcDbSymbolTableRecord
100
AcDbRegAppTableRecord
  2
CONTENTBLOCKDESCRIPTION
 70
     0
  0
APPID
  5
E71D
330
746E
100
AcDbSymbolTableRecord
100
AcDbRegAppTableRecord
  2
CONTENTTABDATA
 70
     0
  0
APPID
  5
E71E
330
746E
100
AcDbSymbolTableRecord
100
AcDbRegAppTableRecord
  2
CONTENTCURRENTTAB
 70
     0
  0
APPID
  5
F3BA
330
746E
100
AcDbSymbolTableRecord
100
AcDbRegAppTableRecord
  2
DRAWINGVARIABLESXDATA
 70
     0
  0
ENDTAB
  0
TABLE
  2
DIMSTYLE
  5
746F
330
0
100
AcDbSymbolTable
 70
     1
100
AcDbDimStyleTable
 71
     1
340
F71F
  0
DIMSTYLE
105
F71F
102
{ACAD_REACTORS
330
2B19E
330
2B105
330
2B0FF
330
2B0FD
330
2B0E8
330
2B0A6
330
2B0A5
330
2B0A4
330
2B097
330
2B096
330
2B093
330
2B092
330
2B090
330
2B08F
330
2B08C
330
2B089
330
2B087
330
2B086
330
2B083
330
2AB59
330
2A8B8
330
29997
330
284F0
330
284E9
330
284BE
330
284BD
330
284BC
330
284BB
330
284BA
330
284B9
330
284AF
330
28493
330
2847A
330
2845D
330
2845C
330
2845B
330
2845A
330
28459
330
28458
330
28457
330
28456
330
28454
330
28242
330
2823F
330
28237
330
28236
330
28233
330
28232
330
28231
330
2701E
330
26F7E
330
26F64
330
26F3F
330
26F1A
330
26F00
330
26236
330
1D2D6
330
1AC2C
330
1AC27
102
}
330
746F
100
AcDbSymbolTableRecord
100
AcDbDimStyleTableRecord
  2
INABA_S40G
 70
     0
 40
40.0
 41
2.5
 42
0.5
 43
7.0
 44
1.5
 73
     0
 74
     0
 77
     3
 78
     8
140
3.0
141
0.0
143
0.0394
147
1.0
172
     1
173
     1
174
     1
178
     7
271
     1
340
F706
341
F770
343
F770
344
F770
  0
ENDTAB
  0
TABLE
  2
BLOCK_RECORD
  5
7466
330
0
100
AcDbSymbolTable
 70
    43
  0
BLOCK_RECORD
  5
747D
330
7466
100
AcDbSymbolTableRecord
100
AcDbBlockTableRecord
  2
*MODEL_SPACE
340
173D5
  0
BLOCK_RECORD
  5
747A
330
7466
100
AcDbSymbolTableRecord
100
AcDbBlockTableRecord
  2
*PAPER_SPACE
340
173D6
  0
BLOCK_RECORD
  5
F770
330
7466
100
AcDbSymbolTableRecord
100
AcDbBlockTableRecord
  2
_DOTSMALL
340
0
102
{BLKREFS
331
2B316
331
2B317
331
2B31F
331
2B320
331
2B328
331
2B329
331
2B331
331
2B332
331
2B33A
331
2B33B
331
2B343
331
2B344
331
2B34C
331
2B34D
331
2B355
331
2B356
331
2B35F
331
2B360
331
2B369
331
2B36A
331
2B372
331
2B373
331
2B37B
331
2B37C
331
2B384
331
2B385
331
2B38D
331
2B38E
331
2B396
331
2B397
331
2B3A0
331
2B3A1
331
2B3A9
331
2B3AA
331
2B3B2
331
2B3B3
331
2B3BC
331
2B3BD
331
2B3C5
331
2B3C6
331
2B3CE
331
2B3CF
331
2B3D8
331
2B3D9
331
2B3E1
331
2B3E2
331
2B3EA
331
2B3EB
331
2B3F3
331
2B3F4
331
2B3FC
331
2B3FD
331
2B406
331
2B407
331
2B410
331
2B411
331
2B419
331
2B41A
331
2B423
331
2B424
331
2B42C
331
2B42D
331
2B435
331
2B436
331
2B43F
331
2B440
331
2B449
331
2B44A
331
2B452
331
2B453
331
2B45C
331
2B45D
331
2B467
331
2B468
331
2B472
331
2B473
331
2B47D
331
2B47E
331
2B488
331
2B489
331
2B493
331
2B494
331
2B49C
331
2B49D
102
}
  0
BLOCK_RECORD
  5
265C5
330
7466
100
AcDbSymbolTableRecord
100
AcDbBlockTableRecord
  2
*D1
340
0
  0
BLOCK_RECORD
  5
26F01
330
7466
100
AcDbSymbolTableRecord
100
AcDbBlockTableRecord
  2
*D2
340
0
  0
BLOCK_RECORD
  5
26F1B
330
7466
100
AcDbSymbolTableRecord
100
AcDbBlockTableRecord
  2
*D3
340
0
  0
BLOCK_RECORD
  5
26F40
330
7466
100
AcDbSymbolTableRecord
100
AcDbBlockTableRecord
  2
*D4
340
0
  0
BLOCK_RECORD
  5
26F65
330
7466
100
AcDbSymbolTableRecord
100
AcDbBlockTableRecord
  2
*D5
340
0
  0
BLOCK_RECORD
  5
26F7F
330
7466
100
AcDbSymbolTableRecord
100
AcDbBlockTableRecord
  2
*D6
340
0
  0
BLOCK_RECORD
  5
2701F
330
7466
100
AcDbSymbolTableRecord
100
AcDbBlockTableRecord
  2
*D7
340
0
  0
BLOCK_RECORD
  5
284F6
330
7466
100
AcDbSymbolTableRecord
100
AcDbBlockTableRecord
  2
*D8
340
0
  0
BLOCK_RECORD
  5
28501
330
7466
100
AcDbSymbolTableRecord
100
AcDbBlockTableRecord
  2
*D9
340
0
  0
BLOCK_RECORD
  5
2850E
330
7466
100
AcDbSymbolTableRecord
100
AcDbBlockTableRecord
  2
*D10
340
0
  0
BLOCK_RECORD
  5
2851B
330
7466
100
AcDbSymbolTableRecord
100
AcDbBlockTableRecord
  2
*D11
340
0
  0
BLOCK_RECORD
  5
28526
330
7466
100
AcDbSymbolTableRecord
100
AcDbBlockTableRecord
  2
*D12
340
0
  0
BLOCK_RECORD
  5
28531
330
7466
100
AcDbSymbolTableRecord
100
AcDbBlockTableRecord
  2
*D13
340
0
  0
BLOCK_RECORD
  5
2853E
330
7466
100
AcDbSymbolTableRecord
100
AcDbBlockTableRecord
  2
*D14
340
0
  0
BLOCK_RECORD
  5
28586
330
7466
100
AcDbSymbolTableRecord
100
AcDbBlockTableRecord
  2
*D15
340
0
  0
BLOCK_RECORD
  5
2859D
330
7466
100
AcDbSymbolTableRecord
100
AcDbBlockTableRecord
  2
*D16
340
0
  0
BLOCK_RECORD
  5
285AA
330
7466
100
AcDbSymbolTableRecord
100
AcDbBlockTableRecord
  2
*D17
340
0
  0
BLOCK_RECORD
  5
285B5
330
7466
100
AcDbSymbolTableRecord
100
AcDbBlockTableRecord
  2
*D18
340
0
  0
BLOCK_RECORD
  5
285C1
330
7466
100
AcDbSymbolTableRecord
100
AcDbBlockTableRecord
  2
*D19
340
0
  0
BLOCK_RECORD
  5
285CC
330
7466
100
AcDbSymbolTableRecord
100
AcDbBlockTableRecord
  2
*D20
340
0
  0
BLOCK_RECORD
  5
285D8
330
7466
100
AcDbSymbolTableRecord
100
AcDbBlockTableRecord
  2
*D21
340
0
  0
BLOCK_RECORD
  5
285E5
330
7466
100
AcDbSymbolTableRecord
100
AcDbBlockTableRecord
  2
*D22
340
0
  0
BLOCK_RECORD
  5
285F1
330
7466
100
AcDbSymbolTableRecord
100
AcDbBlockTableRecord
  2
*D23
340
0
  0
BLOCK_RECORD
  5
285FD
330
7466
100
AcDbSymbolTableRecord
100
AcDbBlockTableRecord
  2
*D24
340
0
  0
BLOCK_RECORD
  5
2860A
330
7466
100
AcDbSymbolTableRecord
100
AcDbBlockTableRecord
  2
*D25
340
0
  0
BLOCK_RECORD
  5
28614
330
7466
100
AcDbSymbolTableRecord
100
AcDbBlockTableRecord
  2
*D26
340
0
  0
BLOCK_RECORD
  5
2862D
330
7466
100
AcDbSymbolTableRecord
100
AcDbBlockTableRecord
  2
*D27
340
0
  0
BLOCK_RECORD
  5
2863A
330
7466
100
AcDbSymbolTableRecord
100
AcDbBlockTableRecord
  2
*D28
340
0
  0
BLOCK_RECORD
  5
28646
330
7466
100
AcDbSymbolTableRecord
100
AcDbBlockTableRecord
  2
*D29
340
0
  0
BLOCK_RECORD
  5
28652
330
7466
100
AcDbSymbolTableRecord
100
AcDbBlockTableRecord
  2
*D30
340
0
  0
BLOCK_RECORD
  5
2865E
330
7466
100
AcDbSymbolTableRecord
100
AcDbBlockTableRecord
  2
*D31
340
0
  0
BLOCK_RECORD
  5
2866A
330
7466
100
AcDbSymbolTableRecord
100
AcDbBlockTableRecord
  2
*D32
340
0
  0
BLOCK_RECORD
  5
28675
330
7466
100
AcDbSymbolTableRecord
100
AcDbBlockTableRecord
  2
*D33
340
0
  0
BLOCK_RECORD
  5
28682
330
7466
100
AcDbSymbolTableRecord
100
AcDbBlockTableRecord
  2
*D34
340
0
  0
BLOCK_RECORD
  5
2A8B9
330
7466
100
AcDbSymbolTableRecord
100
AcDbBlockTableRecord
  2
*D35
340
0
  0
BLOCK_RECORD
  5
2AC00
330
7466
100
AcDbSymbolTableRecord
100
AcDbBlockTableRecord
  2
*D36
340
0
  0
BLOCK_RECORD
  5
2B1AE
330
7466
100
AcDbSymbolTableRecord
100
AcDbBlockTableRecord
  2
*D37
340
0
  0
BLOCK_RECORD
  5
2B1BA
330
7466
100
AcDbSymbolTableRecord
100
AcDbBlockTableRecord
  2
*D38
340
0
  0
BLOCK_RECORD
  5
2B1C6
330
7466
100
AcDbSymbolTableRecord
100
AcDbBlockTableRecord
  2
*D39
340
0
  0
BLOCK_RECORD
  5
2B1D1
330
7466
100
AcDbSymbolTableRecord
100
AcDbBlockTableRecord
  2
*D40
340
0
  0
BLOCK_RECORD
  5
2B1DF
330
7466
100
AcDbSymbolTableRecord
100
AcDbBlockTableRecord
  2
*D41
340
0
  0
BLOCK_RECORD
  5
2B1EB
330
7466
100
AcDbSymbolTableRecord
100
AcDbBlockTableRecord
  2
*D42
340
0
  0
ENDTAB
  0
ENDSEC
  0
SECTION
  2
BLOCKS
  0
BLOCK
  5
7489
330
747D
100
AcDbEntity
  8
0
100
AcDbBlockBegin
  2
*MODEL_SPACE
 70
     0
 10
0.0
 20
0.0
 30
0.0
  3
*MODEL_SPACE
  1

  0
ENDBLK
  5
748A
330
747D
100
AcDbEntity
  8
0
100
AcDbBlockEnd
  0
BLOCK
  5
7487
330
747A
100
AcDbEntity
 67
     1
  8
0
100
AcDbBlockBegin
  2
*PAPER_SPACE
 70
     0
 10
0.0
 20
0.0
 30
0.0
  3
*PAPER_SPACE
  1

  0
ENDBLK
  5
7488
330
747A
100
AcDbEntity
 67
     1
  8
0
100
AcDbBlockEnd
  0
BLOCK
  5
F771
330
F770
100
AcDbEntity
  8
0
 48
50.0
100
AcDbBlockBegin
  2
_DOTSMALL
 70
     0
 10
0.0
 20
0.0
 30
0.0
  3
_DOTSMALL
  1

  0
LWPOLYLINE
  5
F772
330
F770
100
AcDbEntity
  8
0
  6
ByBlock
 62
     0
 48
50.0
100
AcDbPolyline
 90
        2
 70
     1
 43
0.5
 10
-0.0625
 20
0.0
 42
1.0
 10
0.0625
 20
0.0
 42
1.0
  0
ENDBLK
  5
F776
330
F770
100
AcDbEntity
  8
0
 48
50.0
100
AcDbBlockEnd
  0
BLOCK
  5
265CE
330
265C5
100
AcDbEntity
  8
0
 48
50.0
100
AcDbBlockBegin
  2
*D1
 70
     1
 10
0.0
 20
0.0
 30
0.0
  3
*D1
  1

  0
LINE
  5
2B499
330
265C5
100
AcDbEntity
  8
寸法
 62
     0
 48
50.0
370
    -2
100
AcDbLine
 10
5621.6
 20
5562.813451093178
 30
0.0
 11
5621.6
 21
5037.968436750998
 31
0.0
  0
LINE
  5
2B49A
330
265C5
100
AcDbEntity
  8
寸法
 62
     0
 48
50.0
370
    -2
100
AcDbLine
 10
5168.600000000001
 20
5637.813451093188
 30
0.0
 11
5168.600000000001
 21
5037.968436750998
 31
0.0
  0
LINE
  5
2B49B
330
265C5
100
AcDbEntity
  8
寸法
 62
     0
 48
50.0
370
    -2
100
AcDbLine
 10
5621.6
 20
5097.968436750998
 30
0.0
 11
5168.600000000001
 21
5097.968436750998
 31
0.0
  0
INSERT
  5
2B49C
330
265C5
100
AcDbEntity
  8
寸法
 62
     0
 48
50.0
370
    -2
100
AcDbBlockReference
  2
_DOTSMALL
 10
5621.6
 20
5097.968436750998
 30
0.0
 41
100.0
 42
100.0
 43
100.0
  0
INSERT
  5
2B49D
330
265C5
100
AcDbEntity
  8
寸法
 62
     0
 48
50.0
370
    -2
100
AcDbBlockReference
  2
_DOTSMALL
 10
5168.600000000001
 20
5097.968436750998
 30
0.0
 41
100.0
 42
100.0
 43
100.0
 50
180.0
  0
MTEXT
  5
2B49E
330
265C5
100
AcDbEntity
  8
寸法
 62
     7
 48
50.0
100
AcDbMText
 10
5395.100000000001
 20
5197.968436750998
 30
0.0
 40
120.0
 41
0.0
 71
     5
 72
     1
  1
\A1;453
  7
STYLE1
 73
     1
 44
1.0
1001
ACAD
1000
MTEXTBEGIN
1070
    73
1070
     1
1070
    44
1040
1.0
1070
    74
1070
     0
1000
MTEXTEND
  0
POINT
  5
2B49F
330
265C5
100
AcDbEntity
  8
DEFPOINTS
 62
     0
 48
50.0
100
AcDbPoint
 10
5621.6
 20
5582.813451093177
 30
0.0
  0
POINT
  5
2B4A0
330
265C5
100
AcDbEntity
  8
DEFPOINTS
 62
     0
 48
50.0
100
AcDbPoint
 10
5168.600000000001
 20
5657.813451093189
 30
0.0
  0
POINT
  5
2B4A1
330
265C5
100
AcDbEntity
  8
DEFPOINTS
 62
     0
 48
50.0
100
AcDbPoint
 10
5168.600000000001
 20
5097.968436750998
 30
0.0
  0
ENDBLK
  5
265CF
330
265C5
100
AcDbEntity
  8
0
 48
50.0
100
AcDbBlockEnd
  0
BLOCK
  5
26F0D
330
26F01
100
AcDbEntity
  8
0
 48
50.0
100
AcDbBlockBegin
  2
*D2
 70
     1
 10
0.0
 20
0.0
 30
0.0
  3
*D2
  1

  0
LINE
  5
2B48E
330
26F01
100
AcDbEntity
  8
寸法
 62
     0
 48
50.0
370
    -2
100
AcDbLine
 10
7796.600000000001
 20
5582.813451093212
 30
0.0
 11
8103.202780124334
 21
5582.813451093212
 31
0.0
  0
LINE
  5
2B48F
330
26F01
100
AcDbEntity
  8
寸法
 62
     0
 48
50.0
370
    -2
100
AcDbLine
 10
7796.600000000009
 20
5657.813451093213
 30
0.0
 11
8103.202780124334
 21
5657.813451093213
 31
0.0
  0
LINE
  5
2B490
330
26F01
100
AcDbEntity
  8
寸法
 62
     0
 48
50.0
370
    -2
100
AcDbLine
 10
8043.202780124335
 20
5657.813451093213
 30
0.0
 11
8043.202780124335
 21
5757.813451093213
 31
0.0
  0
LINE
  5
2B491
330
26F01
100
AcDbEntity
  8
寸法
 62
     0
 48
50.0
370
    -2
100
AcDbLine
 10
8043.202780124335
 20
5582.813451093212
 30
0.0
 11
8043.202780124335
 21
4715.842888344734
 31
0.0
  0
LINE
  5
2B492
330
26F01
100
AcDbEntity
  8
寸法
 62
     0
 48
50.0
370
    -2
100
AcDbLine
 10
8043.202780124335
 20
5657.813451093213
 30
0.0
 11
8043.202780124335
 21
5582.813451093212
 31
0.0
  0
INSERT
  5
2B493
330
26F01
100
AcDbEntity
  8
寸法
 62
     0
 48
50.0
370
    -2
100
AcDbBlockReference
  2
_DOTSMALL
 10
8043.202780124335
 20
5657.813451093213
 30
0.0
 41
100.0
 42
100.0
 43
100.0
 50
270.0
  0
INSERT
  5
2B494
330
26F01
100
AcDbEntity
  8
寸法
 62
     0
 48
50.0
370
    -2
100
AcDbBlockReference
  2
_DOTSMALL
 10
8043.202780124335
 20
5582.813451093212
 30
0.0
 41
100.0
 42
100.0
 43
100.0
 50
90.0
  0
MTEXT
  5
2B495
330
26F01
100
AcDbEntity
  8
寸法
 62
     7
 48
50.0
100
AcDbMText
 10
7943.202780124334
 20
5049.328169718973
 30
0.0
 40
120.0
 41
0.0
 71
     5
 72
     1
  1
\A1;扉の出75
  7
STYLE1
 11
0.0000000000000001
 21
1.0
 31
0.0
 73
     1
 44
1.0
1001
ACAD
1000
MTEXTBEGIN
1070
    73
1070
     1
1070
    44
1040
1.0
1070
    74
1070
     0
1000
MTEXTEND
  0
POINT
  5
2B496
330
26F01
100
AcDbEntity
  8
DEFPOINTS
 62
     0
 48
50.0
100
AcDbPoint
 10
7776.600000000001
 20
5582.813451093212
 30
0.0
  0
POINT
  5
2B497
330
26F01
100
AcDbEntity
  8
DEFPOINTS
 62
     0
 48
50.0
100
AcDbPoint
 10
7776.600000000009
 20
5657.813451093213
 30
0.0
  0
POINT
  5
2B498
330
26F01
100
AcDbEntity
  8
DEFPOINTS
 62
     0
 48
50.0
100
AcDbPoint
 10
8043.202780124335
 20
5657.813451093213
 30
0.0
  0
ENDBLK
  5
26F0E
330
26F01
100
AcDbEntity
  8
0
 48
50.0
100
AcDbBlockEnd
  0
BLOCK
  5
26F27
330
26F1B
100
AcDbEntity
  8
0
 48
50.0
100
AcDbBlockBegin
  2
*D3
 70
     1
 10
0.0
 20
0.0
 30
0.0
  3
*D3
  1

  0
LINE
  5
2B483
330
26F1B
100
AcDbEntity
  8
寸法
 62
     0
 48
50.0
370
    -2
100
AcDbLine
 10
4652.657733986178
 20
8792.813451093193
 30
0.0
 11
4367.164931848213
 21
8792.813451093193
 31
0.0
  0
LINE
  5
2B484
330
26F1B
100
AcDbEntity
  8
寸法
 62
     0
 48
50.0
370
    -2
100
AcDbLine
 10
5148.600000000002
 20
8717.813451093189
 30
0.0
 11
4367.164931848213
 21
8717.813451093189
 31
0.0
  0
LINE
  5
2B485
330
26F1B
100
AcDbEntity
  8
寸法
 62
     0
 48
50.0
370
    -2
100
AcDbLine
 10
4427.164931848213
 20
8792.813451093193
 30
0.0
 11
4427.164931848213
 21
8892.813451093195
 31
0.0
  0
LINE
  5
2B486
330
26F1B
100
AcDbEntity
  8
寸法
 62
     0
 48
50.0
370
    -2
100
AcDbLine
 10
4427.164931848213
 20
8717.813451093189
 30
0.0
 11
4427.164931848213
 21
8617.813451093189
 31
0.0
  0
LINE
  5
2B487
330
26F1B
100
AcDbEntity
  8
寸法
 62
     0
 48
50.0
370
    -2
100
AcDbLine
 10
4427.164931848213
 20
8792.813451093193
 30
0.0
 11
4427.164931848213
 21
8717.813451093189
 31
0.0
  0
INSERT
  5
2B488
330
26F1B
100
AcDbEntity
  8
寸法
 62
     0
 48
50.0
370
    -2
100
AcDbBlockReference
  2
_DOTSMALL
 10
4427.164931848213
 20
8792.813451093193
 30
0.0
 41
100.0
 42
100.0
 43
100.0
 50
270.0
  0
INSERT
  5
2B489
330
26F1B
100
AcDbEntity
  8
寸法
 62
     0
 48
50.0
370
    -2
100
AcDbBlockReference
  2
_DOTSMALL
 10
4427.164931848213
 20
8717.813451093189
 30
0.0
 41
100.0
 42
100.0
 43
100.0
 50
90.0
  0
MTEXT
  5
2B48A
330
26F1B
100
AcDbEntity
  8
寸法
 62
     7
 48
50.0
100
AcDbMText
 10
4327.164931848212
 20
8755.313451093192
 30
0.0
 40
120.0
 41
0.0
 71
     5
 72
     1
  1
\A1;c
  7
STYLE1
 11
0.0000000000000001
 21
1.0
 31
0.0
 73
     1
 44
1.0
1001
ACAD
1000
MTEXTBEGIN
1070
    73
1070
     1
1070
    44
1040
1.0
1070
    74
1070
     0
1000
MTEXTEND
  0
POINT
  5
2B48B
330
26F1B
100
AcDbEntity
  8
DEFPOINTS
 62
     0
 48
50.0
100
AcDbPoint
 10
4672.657733986179
 20
8792.813451093193
 30
0.0
  0
POINT
  5
2B48C
330
26F1B
100
AcDbEntity
  8
DEFPOINTS
 62
     0
 48
50.0
100
AcDbPoint
 10
5168.600000000002
 20
8717.813451093189
 30
0.0
  0
POINT
  5
2B48D
330
26F1B
100
AcDbEntity
  8
DEFPOINTS
 62
     0
 48
50.0
100
AcDbPoint
 10
4427.164931848213
 20
8717.813451093189
 30
0.0
  0
ENDBLK
  5
26F28
330
26F1B
100
AcDbEntity
  8
0
 48
50.0
100
AcDbBlockEnd
  0
BLOCK
  5
26F4C
330
26F40
100
AcDbEntity
  8
0
 48
50.0
100
AcDbBlockBegin
  2
*D4
 70
     1
 10
0.0
 20
0.0
 30
0.0
  3
*D4
  1

  0
LINE
  5
2B478
330
26F40
100
AcDbEntity
  8
寸法
 62
     0
 48
50.0
370
    -2
100
AcDbLine
 10
5155.050294581425
 20
5657.813451093189
 30
0.0
 11
4367.16493184821
 21
5657.813451093189
 31
0.0
  0
LINE
  5
2B479
330
26F40
100
AcDbEntity
  8
寸法
 62
     0
 48
50.0
370
    -2
100
AcDbLine
 10
4652.657733986178
 20
5602.813451093211
 30
0.0
 11
4367.16493184821
 21
5602.813451093211
 31
0.0
  0
LINE
  5
2B47A
330
26F40
100
AcDbEntity
  8
寸法
 62
     0
 48
50.0
370
    -2
100
AcDbLine
 10
4427.16493184821
 20
5657.813451093189
 30
0.0
 11
4427.16493184821
 21
5757.813451093189
 31
0.0
  0
LINE
  5
2B47B
330
26F40
100
AcDbEntity
  8
寸法
 62
     0
 48
50.0
370
    -2
100
AcDbLine
 10
4427.16493184821
 20
5602.813451093211
 30
0.0
 11
4427.16493184821
 21
5502.81345109321
 31
0.0
  0
LINE
  5
2B47C
330
26F40
100
AcDbEntity
  8
寸法
 62
     0
 48
50.0
370
    -2
100
AcDbLine
 10
4427.16493184821
 20
5657.813451093189
 30
0.0
 11
4427.16493184821
 21
5602.813451093211
 31
0.0
  0
INSERT
  5
2B47D
330
26F40
100
AcDbEntity
  8
寸法
 62
     0
 48
50.0
370
    -2
100
AcDbBlockReference
  2
_DOTSMALL
 10
4427.16493184821
 20
5657.813451093189
 30
0.0
 41
100.0
 42
100.0
 43
100.0
 50
270.0
  0
INSERT
  5
2B47E
330
26F40
100
AcDbEntity
  8
寸法
 62
     0
 48
50.0
370
    -2
100
AcDbBlockReference
  2
_DOTSMALL
 10
4427.16493184821
 20
5602.813451093211
 30
0.0
 41
100.0
 42
100.0
 43
100.0
 50
90.0
  0
MTEXT
  5
2B47F
330
26F40
100
AcDbEntity
  8
寸法
 62
     7
 48
50.0
100
AcDbMText
 10
4327.164931848209
 20
5630.313451093201
 30
0.0
 40
120.0
 41
0.0
 71
     5
 72
     1
  1
\A1;b
  7
STYLE1
 11
0.0000000000000001
 21
1.0
 31
0.0
 73
     1
 44
1.0
1001
ACAD
1000
MTEXTBEGIN
1070
    73
1070
     1
1070
    44
1040
1.0
1070
    74
1070
     0
1000
MTEXTEND
  0
POINT
  5
2B480
330
26F40
100
AcDbEntity
  8
DEFPOINTS
 62
     0
 48
50.0
100
AcDbPoint
 10
5175.050294581424
 20
5657.813451093189
 30
0.0
  0
POINT
  5
2B481
330
26F40
100
AcDbEntity
  8
DEFPOINTS
 62
     0
 48
50.0
100
AcDbPoint
 10
4672.657733986179
 20
5602.813451093211
 30
0.0
  0
POINT
  5
2B482
330
26F40
100
AcDbEntity
  8
DEFPOINTS
 62
     0
 48
50.0
100
AcDbPoint
 10
4427.16493184821
 20
5602.813451093211
 30
0.0
  0
ENDBLK
  5
26F4D
330
26F40
100
AcDbEntity
  8
0
 48
50.0
100
AcDbBlockEnd
  0
BLOCK
  5
26F71
330
26F65
100
AcDbEntity
  8
0
 48
50.0
100
AcDbBlockBegin
  2
*D5
 70
     1
 10
0.0
 20
0.0
 30
0.0
  3
*D5
  1

  0
LINE
  5
2B46D
330
26F65
100
AcDbEntity
  8
寸法
 62
     0
 48
50.0
370
    -2
100
AcDbLine
 10
11278.6
 20
8737.813451093186
 30
0.0
 11
11278.6
 21
9736.033773152108
 31
0.0
  0
LINE
  5
2B46E
330
26F65
100
AcDbEntity
  8
寸法
 62
     0
 48
50.0
370
    -2
100
AcDbLine
 10
11323.6
 20
9483.57307763527
 30
0.0
 11
11323.6
 21
9736.033773152108
 31
0.0
  0
LINE
  5
2B46F
330
26F65
100
AcDbEntity
  8
寸法
 62
     0
 48
50.0
370
    -2
100
AcDbLine
 10
11278.6
 20
9676.033773152109
 30
0.0
 11
11178.6
 21
9676.033773152109
 31
0.0
  0
LINE
  5
2B470
330
26F65
100
AcDbEntity
  8
寸法
 62
     0
 48
50.0
370
    -2
100
AcDbLine
 10
11323.6
 20
9676.033773152109
 30
0.0
 11
11660.94924240491
 21
9676.033773152109
 31
0.0
  0
LINE
  5
2B471
330
26F65
100
AcDbEntity
  8
寸法
 62
     0
 48
50.0
370
    -2
100
AcDbLine
 10
11278.6
 20
9676.033773152109
 30
0.0
 11
11323.6
 21
9676.033773152109
 31
0.0
  0
INSERT
  5
2B472
330
26F65
100
AcDbEntity
  8
寸法
 62
     0
 48
50.0
370
    -2
100
AcDbBlockReference
  2
_DOTSMALL
 10
11278.6
 20
9676.033773152109
 30
0.0
 41
100.0
 42
100.0
 43
100.0
  0
INSERT
  5
2B473
330
26F65
100
AcDbEntity
  8
寸法
 62
     0
 48
50.0
370
    -2
100
AcDbBlockReference
  2
_DOTSMALL
 10
11323.6
 20
9676.033773152109
 30
0.0
 41
100.0
 42
100.0
 43
100.0
 50
180.0
  0
MTEXT
  5
2B474
330
26F65
100
AcDbEntity
  8
寸法
 62
     7
 48
50.0
100
AcDbMText
 10
11594.77462120245
 20
9776.033773152109
 30
0.0
 40
120.0
 41
0.0
 71
     5
 72
     1
  1
\A1;a
  7
STYLE1
 73
     1
 44
1.0
1001
ACAD
1000
MTEXTBEGIN
1070
    73
1070
     1
1070
    44
1040
1.0
1070
    74
1070
     0
1000
MTEXTEND
  0
POINT
  5
2B475
330
26F65
100
AcDbEntity
  8
DEFPOINTS
 62
     0
 48
50.0
100
AcDbPoint
 10
11278.6
 20
8717.813451093187
 30
0.0
  0
POINT
  5
2B476
330
26F65
100
AcDbEntity
  8
DEFPOINTS
 62
     0
 48
50.0
100
AcDbPoint
 10
11323.6
 20
9463.57307763527
 30
0.0
  0
POINT
  5
2B477
330
26F65
100
AcDbEntity
  8
DEFPOINTS
 62
     0
 48
50.0
100
AcDbPoint
 10
11323.6
 20
9676.033773152109
 30
0.0
  0
ENDBLK
  5
26F72
330
26F65
100
AcDbEntity
  8
0
 48
50.0
100
AcDbBlockEnd
  0
BLOCK
  5
26F8B
330
26F7F
100
AcDbEntity
  8
0
 48
50.0
100
AcDbBlockBegin
  2
*D6
 70
     1
 10
0.0
 20
0.0
 30
0.0
  3
*D6
  1

  0
LINE
  5
2B462
330
26F7F
100
AcDbEntity
  8
寸法
 62
     0
 48
50.0
370
    -2
100
AcDbLine
 10
5123.600000000006
 20
9483.57307763527
 30
0.0
 11
5123.600000000006
 21
9736.033773152108
 31
0.0
  0
LINE
  5
2B463
330
26F7F
100
AcDbEntity
  8
寸法
 62
     0
 48
50.0
370
    -2
100
AcDbLine
 10
5168.600000000001
 20
8737.813451093186
 30
0.0
 11
5168.600000000001
 21
9736.033773152108
 31
0.0
  0
LINE
  5
2B464
330
26F7F
100
AcDbEntity
  8
寸法
 62
     0
 48
50.0
370
    -2
100
AcDbLine
 10
5168.600000000001
 20
9676.033773152109
 30
0.0
 11
5268.600000000001
 21
9676.033773152109
 31
0.0
  0
LINE
  5
2B465
330
26F7F
100
AcDbEntity
  8
寸法
 62
     0
 48
50.0
370
    -2
100
AcDbLine
 10
5123.600000000006
 20
9676.033773152109
 30
0.0
 11
4786.250757595083
 21
9676.033773152109
 31
0.0
  0
LINE
  5
2B466
330
26F7F
100
AcDbEntity
  8
寸法
 62
     0
 48
50.0
370
    -2
100
AcDbLine
 10
5168.600000000001
 20
9676.033773152109
 30
0.0
 11
5123.600000000006
 21
9676.033773152109
 31
0.0
  0
INSERT
  5
2B467
330
26F7F
100
AcDbEntity
  8
寸法
 62
     0
 48
50.0
370
    -2
100
AcDbBlockReference
  2
_DOTSMALL
 10
5168.600000000001
 20
9676.033773152109
 30
0.0
 41
100.0
 42
100.0
 43
100.0
 50
180.0
  0
INSERT
  5
2B468
330
26F7F
100
AcDbEntity
  8
寸法
 62
     0
 48
50.0
370
    -2
100
AcDbBlockReference
  2
_DOTSMALL
 10
5123.600000000006
 20
9676.033773152109
 30
0.0
 41
100.0
 42
100.0
 43
100.0
  0
MTEXT
  5
2B469
330
26F7F
100
AcDbEntity
  8
寸法
 62
     7
 48
50.0
100
AcDbMText
 10
4852.425378797541
 20
9776.033773152109
 30
0.0
 40
120.0
 41
0.0
 71
     5
 72
     1
  1
\A1;a
  7
STYLE1
 73
     1
 44
1.0
1001
ACAD
1000
MTEXTBEGIN
1070
    73
1070
     1
1070
    44
1040
1.0
1070
    74
1070
     0
1000
MTEXTEND
  0
POINT
  5
2B46A
330
26F7F
100
AcDbEntity
  8
DEFPOINTS
 62
     0
 48
50.0
100
AcDbPoint
 10
5123.600000000006
 20
9463.57307763527
 30
0.0
  0
POINT
  5
2B46B
330
26F7F
100
AcDbEntity
  8
DEFPOINTS
 62
     0
 48
50.0
100
AcDbPoint
 10
5168.600000000001
 20
8717.813451093187
 30
0.0
  0
POINT
  5
2B46C
330
26F7F
100
AcDbEntity
  8
DEFPOINTS
 62
     0
 48
50.0
100
AcDbPoint
 10
5168.600000000001
 20
9676.033773152109
 30
0.0
  0
ENDBLK
  5
26F8C
330
26F7F
100
AcDbEntity
  8
0
 48
50.0
100
AcDbBlockEnd
  0
BLOCK
  5
2702B
330
2701F
100
AcDbEntity
  8
0
 48
50.0
100
AcDbBlockBegin
  2
*D7
 70
     1
 10
0.0
 20
0.0
 30
0.0
  3
*D7
  1

  0
LINE
  5
2B458
330
2701F
100
AcDbEntity
  8
寸法
 62
     0
 48
50.0
370
    -2
100
AcDbLine
 10
5641.6
 20
5582.813451093177
 30
0.0
 11
5949.18320630424
 21
5582.813451093177
 31
0.0
  0
LINE
  5
2B459
330
2701F
100
AcDbEntity
  8
寸法
 62
     0
 48
50.0
370
    -2
100
AcDbLine
 10
5641.6
 20
5777.813451093192
 30
0.0
 11
5949.18320630424
 21
5777.813451093192
 31
0.0
  0
LINE
  5
2B45A
330
2701F
100
AcDbEntity
  8
寸法
 62
     0
 48
50.0
370
    -2
100
AcDbLine
 10
5889.18320630424
 20
5777.813451093192
 30
0.0
 11
5889.18320630424
 21
5582.813451093177
 31
0.0
  0
LINE
  5
2B45B
330
2701F
100
AcDbEntity
  8
寸法
 62
     0
 48
50.0
370
    -2
100
AcDbLine
 10
5889.18320630424
 20
5582.813451093177
 30
0.0
 11
5889.18320630424
 21
5205.423568685387
 31
0.0
  0
INSERT
  5
2B45C
330
2701F
100
AcDbEntity
  8
寸法
 62
     0
 48
50.0
370
    -2
100
AcDbBlockReference
  2
_DOTSMALL
 10
5889.18320630424
 20
5777.813451093192
 30
0.0
 41
100.0
 42
100.0
 43
100.0
 50
90.0
  0
INSERT
  5
2B45D
330
2701F
100
AcDbEntity
  8
寸法
 62
     0
 48
50.0
370
    -2
100
AcDbBlockReference
  2
_DOTSMALL
 10
5889.18320630424
 20
5582.813451093177
 30
0.0
 41
100.0
 42
100.0
 43
100.0
 50
270.0
  0
MTEXT
  5
2B45E
330
2701F
100
AcDbEntity
  8
寸法
 62
     7
 48
50.0
100
AcDbMText
 10
5789.183206304239
 20
5344.118509889284
 30
0.0
 40
120.0
 41
0.0
 71
     5
 72
     1
  1
\A1;195
  7
STYLE1
 11
0.0000000000000001
 21
1.0
 31
0.0
 73
     1
 44
1.0
1001
ACAD
1000
MTEXTBEGIN
1070
    73
1070
     1
1070
    44
1040
1.0
1070
    74
1070
     0
1000
MTEXTEND
  0
POINT
  5
2B45F
330
2701F
100
AcDbEntity
  8
DEFPOINTS
 62
     0
 48
50.0
100
AcDbPoint
 10
5621.6
 20
5582.813451093177
 30
0.0
  0
POINT
  5
2B460
330
2701F
100
AcDbEntity
  8
DEFPOINTS
 62
     0
 48
50.0
100
AcDbPoint
 10
5621.6
 20
5777.813451093192
 30
0.0
  0
POINT
  5
2B461
330
2701F
100
AcDbEntity
  8
DEFPOINTS
 62
     0
 48
50.0
100
AcDbPoint
 10
5889.18320630424
 20
5777.813451093192
 30
0.0
  0
ENDBLK
  5
2702C
330
2701F
100
AcDbEntity
  8
0
 48
50.0
100
AcDbBlockEnd
  0
BLOCK
  5
284FF
330
284F6
100
AcDbEntity
  8
0
 48
50.0
100
AcDbBlockBegin
  2
*D8
 70
     1
 10
0.0
 20
0.0
 30
0.0
  3
*D8
  1

  0
LINE
  5
2B44F
330
284F6
100
AcDbEntity
  8
寸法
 62
     0
 48
50.0
370
    -2
100
AcDbLine
 10
11155.6
 20
8664.813451093191
 30
0.0
 11
11155.6
 21
9523.573077635273
 31
0.0
  0
LINE
  5
2B450
330
284F6
100
AcDbEntity
  8
寸法
 62
     0
 48
50.0
370
    -2
100
AcDbLine
 10
8105.6
 20
8664.813451093191
 30
0.0
 11
8105.6
 21
9523.573077635273
 31
0.0
  0
LINE
  5
2B451
330
284F6
100
AcDbEntity
  8
寸法
 62
     0
 48
50.0
370
    -2
100
AcDbLine
 10
11155.6
 20
9463.573077635272
 30
0.0
 11
8105.6
 21
9463.573077635272
 31
0.0
  0
INSERT
  5
2B452
330
284F6
100
AcDbEntity
  8
寸法
 62
     0
 48
50.0
370
    -2
100
AcDbBlockReference
  2
_DOTSMALL
 10
11155.6
 20
9463.573077635272
 30
0.0
 41
100.0
 42
100.0
 43
100.0
  0
INSERT
  5
2B453
330
284F6
100
AcDbEntity
  8
寸法
 62
     0
 48
50.0
370
    -2
100
AcDbBlockReference
  2
_DOTSMALL
 10
8105.6
 20
9463.573077635272
 30
0.0
 41
100.0
 42
100.0
 43
100.0
 50
180.0
  0
MTEXT
  5
2B454
330
284F6
100
AcDbEntity
  8
寸法
 62
     7
 48
50.0
100
AcDbMText
 10
9630.600000000001
 20
9563.573077635272
 30
0.0
 40
120.0
 41
0.0
 71
     5
 72
     1
  1
\A1;3050
  7
STYLE1
 73
     1
 44
1.0
1001
ACAD
1000
MTEXTBEGIN
1070
    73
1070
     1
1070
    44
1040
1.0
1070
    74
1070
     0
1000
MTEXTEND
  0
POINT
  5
2B455
330
284F6
100
AcDbEntity
  8
DEFPOINTS
 62
     0
 48
50.0
100
AcDbPoint
 10
11155.6
 20
8644.81345109319
 30
0.0
  0
POINT
  5
2B456
330
284F6
100
AcDbEntity
  8
DEFPOINTS
 62
     0
 48
50.0
100
AcDbPoint
 10
8105.6
 20
8644.81345109319
 30
0.0
  0
POINT
  5
2B457
330
284F6
100
AcDbEntity
  8
DEFPOINTS
 62
     0
 48
50.0
100
AcDbPoint
 10
8105.6
 20
9463.573077635272
 30
0.0
  0
ENDBLK
  5
28500
330
284F6
100
AcDbEntity
  8
0
 48
50.0
100
AcDbBlockEnd
  0
BLOCK
  5
2850C
330
28501
100
AcDbEntity
  8
0
 48
50.0
100
AcDbBlockBegin
  2
*D9
 70
     1
 10
0.0
 20
0.0
 30
0.0
  3
*D9
  1

  0
LINE
  5
2B445
330
28501
100
AcDbEntity
  8
寸法
 62
     0
 48
50.0
370
    -2
100
AcDbLine
 10
8255.600000000001
 20
5657.813451093216
 30
0.0
 11
8730.144386142111
 21
5657.813451093216
 31
0.0
  0
LINE
  5
2B446
330
28501
100
AcDbEntity
  8
寸法
 62
     0
 48
50.0
370
    -2
100
AcDbLine
 10
8255.600000000001
 20
5777.813451093198
 30
0.0
 11
8730.144386142111
 21
5777.813451093198
 31
0.0
  0
LINE
  5
2B447
330
28501
100
AcDbEntity
  8
寸法
 62
     0
 48
50.0
370
    -2
100
AcDbLine
 10
8670.14438614211
 20
5777.813451093198
 30
0.0
 11
8670.14438614211
 21
5657.813451093216
 31
0.0
  0
LINE
  5
2B448
330
28501
100
AcDbEntity
  8
寸法
 62
     0
 48
50.0
370
    -2
100
AcDbLine
 10
8670.14438614211
 20
5657.813451093216
 30
0.0
 11
8670.14438614211
 21
5198.934133655614
 31
0.0
  0
INSERT
  5
2B449
330
28501
100
AcDbEntity
  8
寸法
 62
     0
 48
50.0
370
    -2
100
AcDbBlockReference
  2
_DOTSMALL
 10
8670.14438614211
 20
5777.813451093198
 30
0.0
 41
100.0
 42
100.0
 43
100.0
 50
90.0
  0
INSERT
  5
2B44A
330
28501
100
AcDbEntity
  8
寸法
 62
     0
 48
50.0
370
    -2
100
AcDbBlockReference
  2
_DOTSMALL
 10
8670.14438614211
 20
5657.813451093216
 30
0.0
 41
100.0
 42
100.0
 43
100.0
 50
270.0
  0
MTEXT
  5
2B44B
330
28501
100
AcDbEntity
  8
寸法
 62
     7
 48
50.0
100
AcDbMText
 10
8570.132575118487
 20
5334.981377750104
 30
0.0
 40
120.0
 41
0.0
 71
     5
 72
     1
  1
\A1;120
  7
STYLE1
 11
0.0000000000000001
 21
1.0
 31
0.0
 73
     1
 44
1.0
1001
ACAD
1000
MTEXTBEGIN
1070
    73
1070
     1
1070
    44
1040
1.0
1070
    74
1070
     0
1000
MTEXTEND
  0
POINT
  5
2B44C
330
28501
100
AcDbEntity
  8
DEFPOINTS
 62
     0
 48
50.0
100
AcDbPoint
 10
8235.600000000001
 20
5657.813451093216
 30
0.0
  0
POINT
  5
2B44D
330
28501
100
AcDbEntity
  8
DEFPOINTS
 62
     0
 48
50.0
100
AcDbPoint
 10
8235.600000000001
 20
5777.813451093198
 30
0.0
  0
POINT
  5
2B44E
330
28501
100
AcDbEntity
  8
DEFPOINTS
 62
     0
 48
50.0
100
AcDbPoint
 10
8670.14438614211
 20
5777.813451093198
 30
0.0
  0
ENDBLK
  5
2850D
330
28501
100
AcDbEntity
  8
0
 48
50.0
100
AcDbBlockEnd
  0
BLOCK
  5
28519
330
2850E
100
AcDbEntity
  8
0
 48
50.0
100
AcDbBlockBegin
  2
*D10
 70
     1
 10
0.0
 20
0.0
 30
0.0
  3
*D10
  1

  0
LINE
  5
2B43B
330
2850E
100
AcDbEntity
  8
寸法
 62
     0
 48
50.0
370
    -2
100
AcDbLine
 10
8255.600000000001
 20
5777.813451093198
 30
0.0
 11
8730.144386142111
 21
5777.813451093198
 31
0.0
  0
LINE
  5
2B43C
330
2850E
100
AcDbEntity
  8
寸法
 62
     0
 48
50.0
370
    -2
100
AcDbLine
 10
8255.600000000001
 20
5887.813451093207
 30
0.0
 11
8730.144386142111
 21
5887.813451093207
 31
0.0
  0
LINE
  5
2B43D
330
2850E
100
AcDbEntity
  8
寸法
 62
     0
 48
50.0
370
    -2
100
AcDbLine
 10
8670.14438614211
 20
5777.813451093198
 30
0.0
 11
8670.14438614211
 21
5887.813451093207
 31
0.0
  0
LINE
  5
2B43E
330
2850E
100
AcDbEntity
  8
寸法
 62
     0
 48
50.0
370
    -2
100
AcDbLine
 10
8670.14438614211
 20
5887.813451093207
 30
0.0
 11
8670.14438614211
 21
6247.907939282183
 31
0.0
  0
INSERT
  5
2B43F
330
2850E
100
AcDbEntity
  8
寸法
 62
     0
 48
50.0
370
    -2
100
AcDbBlockReference
  2
_DOTSMALL
 10
8670.14438614211
 20
5777.813451093198
 30
0.0
 41
100.0
 42
100.0
 43
100.0
 50
270.0
  0
INSERT
  5
2B440
330
2850E
100
AcDbEntity
  8
寸法
 62
     0
 48
50.0
370
    -2
100
AcDbBlockReference
  2
_DOTSMALL
 10
8670.14438614211
 20
5887.813451093207
 30
0.0
 41
100.0
 42
100.0
 43
100.0
 50
90.0
  0
MTEXT
  5
2B441
330
2850E
100
AcDbEntity
  8
寸法
 62
     7
 48
50.0
100
AcDbMText
 10
8570.144386142109
 20
6123.860695187697
 30
0.0
 40
120.0
 41
0.0
 71
     5
 72
     1
  1
\A1;110
  7
STYLE1
 11
0.0000000000000001
 21
1.0
 31
0.0
 73
     1
 44
1.0
1001
ACAD
1000
MTEXTBEGIN
1070
    73
1070
     1
1070
    44
1040
1.0
1070
    74
1070
     0
1000
MTEXTEND
  0
POINT
  5
2B442
330
2850E
100
AcDbEntity
  8
DEFPOINTS
 62
     0
 48
50.0
100
AcDbPoint
 10
8235.600000000001
 20
5777.813451093198
 30
0.0
  0
POINT
  5
2B443
330
2850E
100
AcDbEntity
  8
DEFPOINTS
 62
     0
 48
50.0
100
AcDbPoint
 10
8235.600000000001
 20
5887.813451093207
 30
0.0
  0
POINT
  5
2B444
330
2850E
100
AcDbEntity
  8
DEFPOINTS
 62
     0
 48
50.0
100
AcDbPoint
 10
8670.14438614211
 20
5887.813451093207
 30
0.0
  0
ENDBLK
  5
2851A
330
2850E
100
AcDbEntity
  8
0
 48
50.0
100
AcDbBlockEnd
  0
BLOCK
  5
28524
330
2851B
100
AcDbEntity
  8
0
 48
50.0
100
AcDbBlockBegin
  2
*D11
 70
     1
 10
0.0
 20
0.0
 30
0.0
  3
*D11
  1

  0
LINE
  5
2B432
330
2851B
100
AcDbEntity
  8
寸法
 62
     0
 48
50.0
370
    -2
100
AcDbLine
 10
9021.600000000001
 20
8107.813451093189
 30
0.0
 11
9021.600000000001
 21
9304.723216741518
 31
0.0
  0
LINE
  5
2B433
330
2851B
100
AcDbEntity
  8
寸法
 62
     0
 48
50.0
370
    -2
100
AcDbLine
 10
8223.600000000001
 20
8107.813451093189
 30
0.0
 11
8223.600000000001
 21
9304.723216741518
 31
0.0
  0
LINE
  5
2B434
330
2851B
100
AcDbEntity
  8
寸法
 62
     0
 48
50.0
370
    -2
100
AcDbLine
 10
9021.600000000001
 20
9244.723216741517
 30
0.0
 11
8223.600000000001
 21
9244.723216741517
 31
0.0
  0
INSERT
  5
2B435
330
2851B
100
AcDbEntity
  8
寸法
 62
     0
 48
50.0
370
    -2
100
AcDbBlockReference
  2
_DOTSMALL
 10
9021.600000000001
 20
9244.723216741517
 30
0.0
 41
100.0
 42
100.0
 43
100.0
  0
INSERT
  5
2B436
330
2851B
100
AcDbEntity
  8
寸法
 62
     0
 48
50.0
370
    -2
100
AcDbBlockReference
  2
_DOTSMALL
 10
8223.600000000001
 20
9244.723216741517
 30
0.0
 41
100.0
 42
100.0
 43
100.0
 50
180.0
  0
MTEXT
  5
2B437
330
2851B
100
AcDbEntity
  8
寸法
 62
     7
 48
50.0
100
AcDbMText
 10
8622.6
 20
9344.723216741517
 30
0.0
 40
120.0
 41
0.0
 71
     5
 72
     1
  1
\A1;798
  7
STYLE1
 73
     1
 44
1.0
1001
ACAD
1000
MTEXTBEGIN
1070
    73
1070
     1
1070
    44
1040
1.0
1070
    74
1070
     0
1000
MTEXTEND
  0
POINT
  5
2B438
330
2851B
100
AcDbEntity
  8
DEFPOINTS
 62
     0
 48
50.0
100
AcDbPoint
 10
9021.600000000001
 20
8087.813451093188
 30
0.0
  0
POINT
  5
2B439
330
2851B
100
AcDbEntity
  8
DEFPOINTS
 62
     0
 48
50.0
100
AcDbPoint
 10
8223.600000000001
 20
8087.813451093188
 30
0.0
  0
POINT
  5
2B43A
330
2851B
100
AcDbEntity
  8
DEFPOINTS
 62
     0
 48
50.0
100
AcDbPoint
 10
8223.600000000001
 20
9244.723216741517
 30
0.0
  0
ENDBLK
  5
28525
330
2851B
100
AcDbEntity
  8
0
 48
50.0
100
AcDbBlockEnd
  0
BLOCK
  5
2852F
330
28526
100
AcDbEntity
  8
0
 48
50.0
100
AcDbBlockBegin
  2
*D12
 70
     1
 10
0.0
 20
0.0
 30
0.0
  3
*D12
  1

  0
LINE
  5
2B429
330
28526
100
AcDbEntity
  8
寸法
 62
     0
 48
50.0
370
    -2
100
AcDbLine
 10
5168.600000000001
 20
8737.813451093188
 30
0.0
 11
5168.600000000001
 21
9736.033773152108
 31
0.0
  0
LINE
  5
2B42A
330
28526
100
AcDbEntity
  8
寸法
 62
     0
 48
50.0
370
    -2
100
AcDbLine
 10
11278.6
 20
8737.813451093188
 30
0.0
 11
11278.6
 21
9736.033773152108
 31
0.0
  0
LINE
  5
2B42B
330
28526
100
AcDbEntity
  8
寸法
 62
     0
 48
50.0
370
    -2
100
AcDbLine
 10
5168.600000000001
 20
9676.033773152109
 30
0.0
 11
11278.6
 21
9676.033773152109
 31
0.0
  0
INSERT
  5
2B42C
330
28526
100
AcDbEntity
  8
寸法
 62
     0
 48
50.0
370
    -2
100
AcDbBlockReference
  2
_DOTSMALL
 10
5168.600000000001
 20
9676.033773152109
 30
0.0
 41
100.0
 42
100.0
 43
100.0
 50
180.0
  0
INSERT
  5
2B42D
330
28526
100
AcDbEntity
  8
寸法
 62
     0
 48
50.0
370
    -2
100
AcDbBlockReference
  2
_DOTSMALL
 10
11278.6
 20
9676.033773152109
 30
0.0
 41
100.0
 42
100.0
 43
100.0
  0
MTEXT
  5
2B42E
330
28526
100
AcDbEntity
  8
寸法
 62
     7
 48
50.0
100
AcDbMText
 10
8223.600000000001
 20
9776.033773152109
 30
0.0
 40
120.0
 41
0.0
 71
     5
 72
     1
  1
\A1;6110
  7
STYLE1
 73
     1
 44
1.0
1001
ACAD
1000
MTEXTBEGIN
1070
    73
1070
     1
1070
    44
1040
1.0
1070
    74
1070
     0
1000
MTEXTEND
  0
POINT
  5
2B42F
330
28526
100
AcDbEntity
  8
DEFPOINTS
 62
     0
 48
50.0
100
AcDbPoint
 10
5168.600000000001
 20
8717.813451093189
 30
0.0
  0
POINT
  5
2B430
330
28526
100
AcDbEntity
  8
DEFPOINTS
 62
     0
 48
50.0
100
AcDbPoint
 10
11278.6
 20
8717.813451093189
 30
0.0
  0
POINT
  5
2B431
330
28526
100
AcDbEntity
  8
DEFPOINTS
 62
     0
 48
50.0
100
AcDbPoint
 10
11278.6
 20
9676.033773152109
 30
0.0
  0
ENDBLK
  5
28530
330
28526
100
AcDbEntity
  8
0
 48
50.0
100
AcDbBlockEnd
  0
BLOCK
  5
2853C
330
28531
100
AcDbEntity
  8
0
 48
50.0
100
AcDbBlockBegin
  2
*D13
 70
     1
 10
0.0
 20
0.0
 30
0.0
  3
*D13
  1

  0
LINE
  5
2B41F
330
28531
100
AcDbEntity
  8
寸法
 62
     0
 48
50.0
370
    -2
100
AcDbLine
 10
5221.600000000008
 20
5780.813451093191
 30
0.0
 11
4612.657733986178
 21
5780.813451093191
 31
0.0
  0
LINE
  5
2B420
330
28531
100
AcDbEntity
  8
寸法
 62
     0
 48
50.0
370
    -2
100
AcDbLine
 10
5148.600000000001
 20
5657.813451093189
 30
0.0
 11
4612.657733986178
 21
5657.813451093189
 31
0.0
  0
LINE
  5
2B421
330
28531
100
AcDbEntity
  8
寸法
 62
     0
 48
50.0
370
    -2
100
AcDbLine
 10
4672.657733986177
 20
5780.813451093191
 30
0.0
 11
4672.657733986177
 21
5657.813451093189
 31
0.0
  0
LINE
  5
2B422
330
28531
100
AcDbEntity
  8
寸法
 62
     0
 48
50.0
370
    -2
100
AcDbLine
 10
4672.657733986177
 20
5657.813451093189
 30
0.0
 11
4672.657733986177
 21
5183.797220876357
 31
0.0
  0
INSERT
  5
2B423
330
28531
100
AcDbEntity
  8
寸法
 62
     0
 48
50.0
370
    -2
100
AcDbBlockReference
  2
_DOTSMALL
 10
4672.657733986177
 20
5780.813451093191
 30
0.0
 41
100.0
 42
100.0
 43
100.0
 50
90.0
  0
INSERT
  5
2B424
330
28531
100
AcDbEntity
  8
寸法
 62
     0
 48
50.0
370
    -2
100
AcDbBlockReference
  2
_DOTSMALL
 10
4672.657733986177
 20
5657.813451093189
 30
0.0
 41
100.0
 42
100.0
 43
100.0
 50
270.0
  0
MTEXT
  5
2B425
330
28531
100
AcDbEntity
  8
寸法
 62
     7
 48
50.0
100
AcDbMText
 10
4572.645922962555
 20
5322.282502250597
 30
0.0
 40
120.0
 41
0.0
 71
     5
 72
     1
  1
\A1;123
  7
STYLE1
 11
0.0000000000000001
 21
1.0
 31
0.0
 73
     1
 44
1.0
1001
ACAD
1000
MTEXTBEGIN
1070
    73
1070
     1
1070
    44
1040
1.0
1070
    74
1070
     0
1000
MTEXTEND
  0
POINT
  5
2B426
330
28531
100
AcDbEntity
  8
DEFPOINTS
 62
     0
 48
50.0
100
AcDbPoint
 10
5241.600000000008
 20
5780.813451093191
 30
0.0
  0
POINT
  5
2B427
330
28531
100
AcDbEntity
  8
DEFPOINTS
 62
     0
 48
50.0
100
AcDbPoint
 10
5168.600000000001
 20
5657.813451093189
 30
0.0
  0
POINT
  5
2B428
330
28531
100
AcDbEntity
  8
DEFPOINTS
 62
     0
 48
50.0
100
AcDbPoint
 10
4672.657733986177
 20
5657.813451093189
 30
0.0
  0
ENDBLK
  5
2853D
330
28531
100
AcDbEntity
  8
0
 48
50.0
100
AcDbBlockEnd
  0
BLOCK
  5
28547
330
2853E
100
AcDbEntity
  8
0
 48
50.0
100
AcDbBlockBegin
  2
*D14
 70
     1
 10
0.0
 20
0.0
 30
0.0
  3
*D14
  1

  0
LINE
  5
2B416
330
2853E
100
AcDbEntity
  8
寸法
 62
     0
 48
50.0
370
    -2
100
AcDbLine
 10
5148.600000000001
 20
8717.813451093189
 30
0.0
 11
4367.16493184821
 21
8717.813451093189
 31
0.0
  0
LINE
  5
2B417
330
2853E
100
AcDbEntity
  8
寸法
 62
     0
 48
50.0
370
    -2
100
AcDbLine
 10
5148.600000000001
 20
5657.813451093189
 30
0.0
 11
4367.164931848209
 21
5657.813451093189
 31
0.0
  0
LINE
  5
2B418
330
2853E
100
AcDbEntity
  8
寸法
 62
     0
 48
50.0
370
    -2
100
AcDbLine
 10
4427.16493184821
 20
8717.813451093189
 30
0.0
 11
4427.164931848209
 21
5657.813451093189
 31
0.0
  0
INSERT
  5
2B419
330
2853E
100
AcDbEntity
  8
寸法
 62
     0
 48
50.0
370
    -2
100
AcDbBlockReference
  2
_DOTSMALL
 10
4427.16493184821
 20
8717.813451093189
 30
0.0
 41
100.0
 42
100.0
 43
100.0
 50
90.0
  0
INSERT
  5
2B41A
330
2853E
100
AcDbEntity
  8
寸法
 62
     0
 48
50.0
370
    -2
100
AcDbBlockReference
  2
_DOTSMALL
 10
4427.164931848209
 20
5657.813451093189
 30
0.0
 41
100.0
 42
100.0
 43
100.0
 50
270.0
  0
MTEXT
  5
2B41B
330
2853E
100
AcDbEntity
  8
寸法
 62
     7
 48
50.0
100
AcDbMText
 10
4327.164931848209
 20
7187.81345109319
 30
0.0
 40
120.0
 41
0.0
 71
     5
 72
     1
  1
\A1;3060
  7
STYLE1
 11
0.0000000000000001
 21
1.0
 31
0.0
 73
     1
 44
1.0
1001
ACAD
1000
MTEXTBEGIN
1070
    73
1070
     1
1070
    44
1040
1.0
1070
    74
1070
     0
1000
MTEXTEND
  0
POINT
  5
2B41C
330
2853E
100
AcDbEntity
  8
DEFPOINTS
 62
     0
 48
50.0
100
AcDbPoint
 10
5168.600000000001
 20
8717.813451093189
 30
0.0
  0
POINT
  5
2B41D
330
2853E
100
AcDbEntity
  8
DEFPOINTS
 62
     0
 48
50.0
100
AcDbPoint
 10
5168.600000000001
 20
5657.813451093189
 30
0.0
  0
POINT
  5
2B41E
330
2853E
100
AcDbEntity
  8
DEFPOINTS
 62
     0
 48
50.0
100
AcDbPoint
 10
4427.164931848209
 20
5657.813451093189
 30
0.0
  0
ENDBLK
  5
28548
330
2853E
100
AcDbEntity
  8
0
 48
50.0
100
AcDbBlockEnd
  0
BLOCK
  5
28591
330
28586
100
AcDbEntity
  8
0
 48
50.0
100
AcDbBlockBegin
  2
*D15
 70
     1
 10
0.0
 20
0.0
 30
0.0
  3
*D15
  1

  0
LINE
  5
2B40C
330
28586
100
AcDbEntity
  8
寸法
 62
     0
 48
50.0
370
    -2
100
AcDbLine
 10
5291.6
 20
8664.813451093191
 30
0.0
 11
5291.6
 21
9523.573077635273
 31
0.0
  0
LINE
  5
2B40D
330
28586
100
AcDbEntity
  8
寸法
 62
     0
 48
50.0
370
    -2
100
AcDbLine
 10
5168.600000000001
 20
8737.813451093188
 30
0.0
 11
5168.600000000001
 21
9523.573077635273
 31
0.0
  0
LINE
  5
2B40E
330
28586
100
AcDbEntity
  8
寸法
 62
     0
 48
50.0
370
    -2
100
AcDbLine
 10
5291.6
 20
9463.573077635272
 30
0.0
 11
5168.600000000001
 21
9463.573077635272
 31
0.0
  0
LINE
  5
2B40F
330
28586
100
AcDbEntity
  8
寸法
 62
     0
 48
50.0
370
    -2
100
AcDbLine
 10
5168.600000000001
 20
9463.573077635272
 30
0.0
 11
4757.008116907962
 21
9463.573077635272
 31
0.0
  0
INSERT
  5
2B410
330
28586
100
AcDbEntity
  8
寸法
 62
     0
 48
50.0
370
    -2
100
AcDbBlockReference
  2
_DOTSMALL
 10
5291.6
 20
9463.573077635272
 30
0.0
 41
100.0
 42
100.0
 43
100.0
  0
INSERT
  5
2B411
330
28586
100
AcDbEntity
  8
寸法
 62
     0
 48
50.0
370
    -2
100
AcDbBlockReference
  2
_DOTSMALL
 10
5168.600000000001
 20
9463.573077635272
 30
0.0
 41
100.0
 42
100.0
 43
100.0
 50
180.0
  0
MTEXT
  5
2B412
330
28586
100
AcDbEntity
  8
寸法
 62
     7
 48
50.0
100
AcDbMText
 10
4895.493398282201
 20
9563.584888658894
 30
0.0
 40
120.0
 41
0.0
 71
     5
 72
     1
  1
\A1;123
  7
STYLE1
 73
     1
 44
1.0
1001
ACAD
1000
MTEXTBEGIN
1070
    73
1070
     1
1070
    44
1040
1.0
1070
    74
1070
     0
1000
MTEXTEND
  0
POINT
  5
2B413
330
28586
100
AcDbEntity
  8
DEFPOINTS
 62
     0
 48
50.0
100
AcDbPoint
 10
5291.6
 20
8644.81345109319
 30
0.0
  0
POINT
  5
2B414
330
28586
100
AcDbEntity
  8
DEFPOINTS
 62
     0
 48
50.0
100
AcDbPoint
 10
5168.600000000001
 20
8717.813451093189
 30
0.0
  0
POINT
  5
2B415
330
28586
100
AcDbEntity
  8
DEFPOINTS
 62
     0
 48
50.0
100
AcDbPoint
 10
5168.600000000001
 20
9463.573077635272
 30
0.0
  0
ENDBLK
  5
28592
330
28586
100
AcDbEntity
  8
0
 48
50.0
100
AcDbBlockEnd
  0
BLOCK
  5
285A8
330
2859D
100
AcDbEntity
  8
0
 48
50.0
100
AcDbBlockBegin
  2
*D16
 70
     1
 10
0.0
 20
0.0
 30
0.0
  3
*D16
  1

  0
LINE
  5
2B402
330
2859D
100
AcDbEntity
  8
寸法
 62
     0
 48
50.0
370
    -2
100
AcDbLine
 10
5148.600000000001
 20
8717.813451093189
 30
0.0
 11
4612.657733986178
 21
8717.813451093189
 31
0.0
  0
LINE
  5
2B403
330
2859D
100
AcDbEntity
  8
寸法
 62
     0
 48
50.0
370
    -2
100
AcDbLine
 10
5221.600000000001
 20
8594.813451093189
 30
0.0
 11
4612.657733986178
 21
8594.813451093189
 31
0.0
  0
LINE
  5
2B404
330
2859D
100
AcDbEntity
  8
寸法
 62
     0
 48
50.0
370
    -2
100
AcDbLine
 10
4672.657733986177
 20
8594.813451093189
 30
0.0
 11
4672.657733986177
 21
8717.813451093189
 31
0.0
  0
LINE
  5
2B405
330
2859D
100
AcDbEntity
  8
寸法
 62
     0
 48
50.0
370
    -2
100
AcDbLine
 10
4672.657733986177
 20
8717.813451093189
 30
0.0
 11
4672.657733986177
 21
9129.405334185227
 31
0.0
  0
INSERT
  5
2B406
330
2859D
100
AcDbEntity
  8
寸法
 62
     0
 48
50.0
370
    -2
100
AcDbBlockReference
  2
_DOTSMALL
 10
4672.657733986177
 20
8594.813451093189
 30
0.0
 41
100.0
 42
100.0
 43
100.0
 50
270.0
  0
INSERT
  5
2B407
330
2859D
100
AcDbEntity
  8
寸法
 62
     0
 48
50.0
370
    -2
100
AcDbBlockReference
  2
_DOTSMALL
 10
4672.657733986177
 20
8717.813451093189
 30
0.0
 41
100.0
 42
100.0
 43
100.0
 50
90.0
  0
MTEXT
  5
2B408
330
2859D
100
AcDbEntity
  8
寸法
 62
     7
 48
50.0
100
AcDbMText
 10
4572.645922962555
 20
8990.92005281099
 30
0.0
 40
120.0
 41
0.0
 71
     5
 72
     1
  1
\A1;123
  7
STYLE1
 11
0.0000000000000001
 21
1.0
 31
0.0
 73
     1
 44
1.0
1001
ACAD
1000
MTEXTBEGIN
1070
    73
1070
     1
1070
    44
1040
1.0
1070
    74
1070
     0
1000
MTEXTEND
  0
POINT
  5
2B409
330
2859D
100
AcDbEntity
  8
DEFPOINTS
 62
     0
 48
50.0
100
AcDbPoint
 10
5168.600000000001
 20
8717.813451093189
 30
0.0
  0
POINT
  5
2B40A
330
2859D
100
AcDbEntity
  8
DEFPOINTS
 62
     0
 48
50.0
100
AcDbPoint
 10
5241.6
 20
8594.813451093189
 30
0.0
  0
POINT
  5
2B40B
330
2859D
100
AcDbEntity
  8
DEFPOINTS
 62
     0
 48
50.0
100
AcDbPoint
 10
4672.657733986177
 20
8594.813451093189
 30
0.0
  0
ENDBLK
  5
285A9
330
2859D
100
AcDbEntity
  8
0
 48
50.0
100
AcDbBlockEnd
  0
BLOCK
  5
285B3
330
285AA
100
AcDbEntity
  8
0
 48
50.0
100
AcDbBlockBegin
  2
*D17
 70
     1
 10
0.0
 20
0.0
 30
0.0
  3
*D17
  1

  0
LINE
  5
2B3F9
330
285AA
100
AcDbEntity
  8
寸法
 62
     0
 48
50.0
370
    -2
100
AcDbLine
 10
5971.600000000002
 20
8107.813451093189
 30
0.0
 11
5971.600000000002
 21
9304.723216741518
 31
0.0
  0
LINE
  5
2B3FA
330
285AA
100
AcDbEntity
  8
寸法
 62
     0
 48
50.0
370
    -2
100
AcDbLine
 10
5168.600000000001
 20
8737.813451093188
 30
0.0
 11
5168.600000000001
 21
9304.723216741518
 31
0.0
  0
LINE
  5
2B3FB
330
285AA
100
AcDbEntity
  8
寸法
 62
     0
 48
50.0
370
    -2
100
AcDbLine
 10
5971.600000000002
 20
9244.723216741517
 30
0.0
 11
5168.600000000001
 21
9244.723216741517
 31
0.0
  0
INSERT
  5
2B3FC
330
285AA
100
AcDbEntity
  8
寸法
 62
     0
 48
50.0
370
    -2
100
AcDbBlockReference
  2
_DOTSMALL
 10
5971.600000000002
 20
9244.723216741517
 30
0.0
 41
100.0
 42
100.0
 43
100.0
  0
INSERT
  5
2B3FD
330
285AA
100
AcDbEntity
  8
寸法
 62
     0
 48
50.0
370
    -2
100
AcDbBlockReference
  2
_DOTSMALL
 10
5168.600000000001
 20
9244.723216741517
 30
0.0
 41
100.0
 42
100.0
 43
100.0
 50
180.0
  0
MTEXT
  5
2B3FE
330
285AA
100
AcDbEntity
  8
寸法
 62
     7
 48
50.0
100
AcDbMText
 10
5570.100000000001
 20
9344.723216741517
 30
0.0
 40
120.0
 41
0.0
 71
     5
 72
     1
  1
\A1;803
  7
STYLE1
 73
     1
 44
1.0
1001
ACAD
1000
MTEXTBEGIN
1070
    73
1070
     1
1070
    44
1040
1.0
1070
    74
1070
     0
1000
MTEXTEND
  0
POINT
  5
2B3FF
330
285AA
100
AcDbEntity
  8
DEFPOINTS
 62
     0
 48
50.0
100
AcDbPoint
 10
5971.600000000002
 20
8087.813451093188
 30
0.0
  0
POINT
  5
2B400
330
285AA
100
AcDbEntity
  8
DEFPOINTS
 62
     0
 48
50.0
100
AcDbPoint
 10
5168.600000000001
 20
8717.813451093189
 30
0.0
  0
POINT
  5
2B401
330
285AA
100
AcDbEntity
  8
DEFPOINTS
 62
     0
 48
50.0
100
AcDbPoint
 10
5168.600000000001
 20
9244.723216741517
 30
0.0
  0
ENDBLK
  5
285B4
330
285AA
100
AcDbEntity
  8
0
 48
50.0
100
AcDbBlockEnd
  0
BLOCK
  5
285BF
330
285B5
100
AcDbEntity
  8
0
 48
50.0
100
AcDbBlockBegin
  2
*D18
 70
     1
 10
0.0
 20
0.0
 30
0.0
  3
*D18
  1

  0
LINE
  5
2B3F0
330
285B5
100
AcDbEntity
  8
寸法
 62
     0
 48
50.0
370
    -2
100
AcDbLine
 10
5221.600000000001
 20
8594.813451093189
 30
0.0
 11
4612.657733986177
 21
8594.813451093189
 31
0.0
  0
LINE
  5
2B3F1
330
285B5
100
AcDbEntity
  8
寸法
 62
     0
 48
50.0
370
    -2
100
AcDbLine
 10
5221.600000000008
 20
5780.813451093191
 30
0.0
 11
4612.657733986176
 21
5780.813451093191
 31
0.0
  0
LINE
  5
2B3F2
330
285B5
100
AcDbEntity
  8
寸法
 62
     0
 48
50.0
370
    -2
100
AcDbLine
 10
4672.657733986176
 20
8594.813451093189
 30
0.0
 11
4672.657733986176
 21
5780.813451093191
 31
0.0
  0
INSERT
  5
2B3F3
330
285B5
100
AcDbEntity
  8
寸法
 62
     0
 48
50.0
370
    -2
100
AcDbBlockReference
  2
_DOTSMALL
 10
4672.657733986176
 20
8594.813451093189
 30
0.0
 41
100.0
 42
100.0
 43
100.0
 50
90.0
  0
INSERT
  5
2B3F4
330
285B5
100
AcDbEntity
  8
寸法
 62
     0
 48
50.0
370
    -2
100
AcDbBlockReference
  2
_DOTSMALL
 10
4672.657733986176
 20
5780.813451093191
 30
0.0
 41
100.0
 42
100.0
 43
100.0
 50
270.0
  0
MTEXT
  5
2B3F5
330
285B5
100
AcDbEntity
  8
寸法
 62
     7
 48
50.0
100
AcDbMText
 10
4572.645922962553
 20
7187.813451093191
 30
0.0
 40
120.0
 41
0.0
 71
     5
 72
     1
  1
\A1;2814
  7
STYLE1
 11
0.0000000000000001
 21
1.0
 31
0.0
 73
     1
 44
1.0
1001
ACAD
1000
MTEXTBEGIN
1070
    73
1070
     1
1070
    44
1040
1.0
1070
    74
1070
     0
1000
MTEXTEND
  0
POINT
  5
2B3F6
330
285B5
100
AcDbEntity
  8
DEFPOINTS
 62
     0
 48
50.0
100
AcDbPoint
 10
5241.6
 20
8594.813451093189
 30
0.0
  0
POINT
  5
2B3F7
330
285B5
100
AcDbEntity
  8
DEFPOINTS
 62
     0
 48
50.0
100
AcDbPoint
 10
5241.600000000008
 20
5780.813451093191
 30
0.0
  0
POINT
  5
2B3F8
330
285B5
100
AcDbEntity
  8
DEFPOINTS
 62
     0
 48
50.0
100
AcDbPoint
 10
4672.657733986176
 20
5780.813451093191
 30
0.0
  0
ENDBLK
  5
285C0
330
285B5
100
AcDbEntity
  8
0
 48
50.0
100
AcDbBlockEnd
  0
BLOCK
  5
285CA
330
285C1
100
AcDbEntity
  8
0
 48
50.0
100
AcDbBlockBegin
  2
*D19
 70
     1
 10
0.0
 20
0.0
 30
0.0
  3
*D19
  1

  0
LINE
  5
2B3E7
330
285C1
100
AcDbEntity
  8
寸法
 62
     0
 48
50.0
370
    -2
100
AcDbLine
 10
8223.600000000001
 20
8107.813451093189
 30
0.0
 11
8223.600000000001
 21
9304.723216741518
 31
0.0
  0
LINE
  5
2B3E8
330
285C1
100
AcDbEntity
  8
寸法
 62
     0
 48
50.0
370
    -2
100
AcDbLine
 10
7425.6
 20
8107.813451093189
 30
0.0
 11
7425.6
 21
9304.723216741518
 31
0.0
  0
LINE
  5
2B3E9
330
285C1
100
AcDbEntity
  8
寸法
 62
     0
 48
50.0
370
    -2
100
AcDbLine
 10
8223.600000000001
 20
9244.723216741517
 30
0.0
 11
7425.6
 21
9244.723216741517
 31
0.0
  0
INSERT
  5
2B3EA
330
285C1
100
AcDbEntity
  8
寸法
 62
     0
 48
50.0
370
    -2
100
AcDbBlockReference
  2
_DOTSMALL
 10
8223.600000000001
 20
9244.723216741517
 30
0.0
 41
100.0
 42
100.0
 43
100.0
  0
INSERT
  5
2B3EB
330
285C1
100
AcDbEntity
  8
寸法
 62
     0
 48
50.0
370
    -2
100
AcDbBlockReference
  2
_DOTSMALL
 10
7425.6
 20
9244.723216741517
 30
0.0
 41
100.0
 42
100.0
 43
100.0
 50
180.0
  0
MTEXT
  5
2B3EC
330
285C1
100
AcDbEntity
  8
寸法
 62
     7
 48
50.0
100
AcDbMText
 10
7824.600000000001
 20
9344.723216741517
 30
0.0
 40
120.0
 41
0.0
 71
     5
 72
     1
  1
\A1;798
  7
STYLE1
 73
     1
 44
1.0
1001
ACAD
1000
MTEXTBEGIN
1070
    73
1070
     1
1070
    44
1040
1.0
1070
    74
1070
     0
1000
MTEXTEND
  0
POINT
  5
2B3ED
330
285C1
100
AcDbEntity
  8
DEFPOINTS
 62
     0
 48
50.0
100
AcDbPoint
 10
8223.600000000001
 20
8087.813451093188
 30
0.0
  0
POINT
  5
2B3EE
330
285C1
100
AcDbEntity
  8
DEFPOINTS
 62
     0
 48
50.0
100
AcDbPoint
 10
7425.6
 20
8087.813451093188
 30
0.0
  0
POINT
  5
2B3EF
330
285C1
100
AcDbEntity
  8
DEFPOINTS
 62
     0
 48
50.0
100
AcDbPoint
 10
7425.6
 20
9244.723216741517
 30
0.0
  0
ENDBLK
  5
285CB
330
285C1
100
AcDbEntity
  8
0
 48
50.0
100
AcDbBlockEnd
  0
BLOCK
  5
285D6
330
285CC
100
AcDbEntity
  8
0
 48
50.0
100
AcDbBlockBegin
  2
*D20
 70
     1
 10
0.0
 20
0.0
 30
0.0
  3
*D20
  1

  0
LINE
  5
2B3DE
330
285CC
100
AcDbEntity
  8
寸法
 62
     0
 48
50.0
370
    -2
100
AcDbLine
 10
7425.6
 20
8107.813451093189
 30
0.0
 11
7425.6
 21
9304.723216741518
 31
0.0
  0
LINE
  5
2B3DF
330
285CC
100
AcDbEntity
  8
寸法
 62
     0
 48
50.0
370
    -2
100
AcDbLine
 10
6698.6
 20
8107.813451093189
 30
0.0
 11
6698.6
 21
9304.723216741518
 31
0.0
  0
LINE
  5
2B3E0
330
285CC
100
AcDbEntity
  8
寸法
 62
     0
 48
50.0
370
    -2
100
AcDbLine
 10
7425.6
 20
9244.723216741517
 30
0.0
 11
6698.6
 21
9244.723216741517
 31
0.0
  0
INSERT
  5
2B3E1
330
285CC
100
AcDbEntity
  8
寸法
 62
     0
 48
50.0
370
    -2
100
AcDbBlockReference
  2
_DOTSMALL
 10
7425.6
 20
9244.723216741517
 30
0.0
 41
100.0
 42
100.0
 43
100.0
  0
INSERT
  5
2B3E2
330
285CC
100
AcDbEntity
  8
寸法
 62
     0
 48
50.0
370
    -2
100
AcDbBlockReference
  2
_DOTSMALL
 10
6698.6
 20
9244.723216741517
 30
0.0
 41
100.0
 42
100.0
 43
100.0
 50
180.0
  0
MTEXT
  5
2B3E3
330
285CC
100
AcDbEntity
  8
寸法
 62
     7
 48
50.0
100
AcDbMText
 10
7062.1
 20
9344.735027765137
 30
0.0
 40
120.0
 41
0.0
 71
     5
 72
     1
  1
\A1;727
  7
STYLE1
 73
     1
 44
1.0
1001
ACAD
1000
MTEXTBEGIN
1070
    73
1070
     1
1070
    44
1040
1.0
1070
    74
1070
     0
1000
MTEXTEND
  0
POINT
  5
2B3E4
330
285CC
100
AcDbEntity
  8
DEFPOINTS
 62
     0
 48
50.0
100
AcDbPoint
 10
7425.6
 20
8087.813451093188
 30
0.0
  0
POINT
  5
2B3E5
330
285CC
100
AcDbEntity
  8
DEFPOINTS
 62
     0
 48
50.0
100
AcDbPoint
 10
6698.6
 20
8087.813451093188
 30
0.0
  0
POINT
  5
2B3E6
330
285CC
100
AcDbEntity
  8
DEFPOINTS
 62
     0
 48
50.0
100
AcDbPoint
 10
6698.6
 20
9244.723216741517
 30
0.0
  0
ENDBLK
  5
285D7
330
285CC
100
AcDbEntity
  8
0
 48
50.0
100
AcDbBlockEnd
  0
BLOCK
  5
285E3
330
285D8
100
AcDbEntity
  8
0
 48
50.0
100
AcDbBlockBegin
  2
*D21
 70
     1
 10
0.0
 20
0.0
 30
0.0
  3
*D21
  1

  0
LINE
  5
2B3D4
330
285D8
100
AcDbEntity
  8
寸法
 62
     0
 48
50.0
370
    -2
100
AcDbLine
 10
5418.600000000001
 20
8597.813451093186
 30
0.0
 11
5675.307249876098
 21
8597.813451093186
 31
0.0
  0
LINE
  5
2B3D5
330
285D8
100
AcDbEntity
  8
寸法
 62
     0
 48
50.0
370
    -2
100
AcDbLine
 10
5418.600000000002
 20
8717.813451093187
 30
0.0
 11
5675.307249876098
 21
8717.813451093187
 31
0.0
  0
LINE
  5
2B3D6
330
285D8
100
AcDbEntity
  8
寸法
 62
     0
 48
50.0
370
    -2
100
AcDbLine
 10
5615.307249876098
 20
8597.813451093186
 30
0.0
 11
5615.307249876098
 21
8717.813451093187
 31
0.0
  0
LINE
  5
2B3D7
330
285D8
100
AcDbEntity
  8
寸法
 62
     0
 48
50.0
370
    -2
100
AcDbLine
 10
5615.307249876098
 20
8717.813451093187
 30
0.0
 11
5615.307249876098
 21
9131.944238460562
 31
0.0
  0
INSERT
  5
2B3D8
330
285D8
100
AcDbEntity
  8
寸法
 62
     0
 48
50.0
370
    -2
100
AcDbBlockReference
  2
_DOTSMALL
 10
5615.307249876098
 20
8597.813451093186
 30
0.0
 41
100.0
 42
100.0
 43
100.0
 50
270.0
  0
INSERT
  5
2B3D9
330
285D8
100
AcDbEntity
  8
寸法
 62
     0
 48
50.0
370
    -2
100
AcDbBlockReference
  2
_DOTSMALL
 10
5615.307249876098
 20
8717.813451093187
 30
0.0
 41
100.0
 42
100.0
 43
100.0
 50
90.0
  0
MTEXT
  5
2B3DA
330
285D8
100
AcDbEntity
  8
寸法
 62
     7
 48
50.0
100
AcDbMText
 10
5515.295438852476
 20
8995.896994366075
 30
0.0
 40
120.0
 41
0.0
 71
     5
 72
     1
  1
\A1;120
  7
STYLE1
 11
0.0000000000000001
 21
1.0
 31
0.0
 73
     1
 44
1.0
1001
ACAD
1000
MTEXTBEGIN
1070
    73
1070
     1
1070
    44
1040
1.0
1070
    74
1070
     0
1000
MTEXTEND
  0
POINT
  5
2B3DB
330
285D8
100
AcDbEntity
  8
DEFPOINTS
 62
     0
 48
50.0
100
AcDbPoint
 10
5398.6
 20
8597.813451093186
 30
0.0
  0
POINT
  5
2B3DC
330
285D8
100
AcDbEntity
  8
DEFPOINTS
 62
     0
 48
50.0
100
AcDbPoint
 10
5398.600000000002
 20
8717.813451093187
 30
0.0
  0
POINT
  5
2B3DD
330
285D8
100
AcDbEntity
  8
DEFPOINTS
 62
     0
 48
50.0
100
AcDbPoint
 10
5615.307249876098
 20
8717.813451093187
 30
0.0
  0
ENDBLK
  5
285E4
330
285D8
100
AcDbEntity
  8
0
 48
50.0
100
AcDbBlockEnd
  0
BLOCK
  5
285EF
330
285E5
100
AcDbEntity
  8
0
 48
50.0
100
AcDbBlockBegin
  2
*D22
 70
     1
 10
0.0
 20
0.0
 30
0.0
  3
*D22
  1

  0
LINE
  5
2B3CB
330
285E5
100
AcDbEntity
  8
寸法
 62
     0
 48
50.0
370
    -2
100
AcDbLine
 10
8105.6
 20
8664.813451093191
 30
0.0
 11
8105.6
 21
9523.573077635273
 31
0.0
  0
LINE
  5
2B3CC
330
285E5
100
AcDbEntity
  8
寸法
 62
     0
 48
50.0
370
    -2
100
AcDbLine
 10
5291.6
 20
8664.813451093191
 30
0.0
 11
5291.6
 21
9523.573077635273
 31
0.0
  0
LINE
  5
2B3CD
330
285E5
100
AcDbEntity
  8
寸法
 62
     0
 48
50.0
370
    -2
100
AcDbLine
 10
8105.6
 20
9463.573077635272
 30
0.0
 11
5291.6
 21
9463.573077635272
 31
0.0
  0
INSERT
  5
2B3CE
330
285E5
100
AcDbEntity
  8
寸法
 62
     0
 48
50.0
370
    -2
100
AcDbBlockReference
  2
_DOTSMALL
 10
8105.6
 20
9463.573077635272
 30
0.0
 41
100.0
 42
100.0
 43
100.0
  0
INSERT
  5
2B3CF
330
285E5
100
AcDbEntity
  8
寸法
 62
     0
 48
50.0
370
    -2
100
AcDbBlockReference
  2
_DOTSMALL
 10
5291.6
 20
9463.573077635272
 30
0.0
 41
100.0
 42
100.0
 43
100.0
 50
180.0
  0
MTEXT
  5
2B3D0
330
285E5
100
AcDbEntity
  8
寸法
 62
     7
 48
50.0
100
AcDbMText
 10
6698.6
 20
9563.584888658894
 30
0.0
 40
120.0
 41
0.0
 71
     5
 72
     1
  1
\A1;2814
  7
STYLE1
 73
     1
 44
1.0
1001
ACAD
1000
MTEXTBEGIN
1070
    73
1070
     1
1070
    44
1040
1.0
1070
    74
1070
     0
1000
MTEXTEND
  0
POINT
  5
2B3D1
330
285E5
100
AcDbEntity
  8
DEFPOINTS
 62
     0
 48
50.0
100
AcDbPoint
 10
8105.6
 20
8644.81345109319
 30
0.0
  0
POINT
  5
2B3D2
330
285E5
100
AcDbEntity
  8
DEFPOINTS
 62
     0
 48
50.0
100
AcDbPoint
 10
5291.6
 20
8644.81345109319
 30
0.0
  0
POINT
  5
2B3D3
330
285E5
100
AcDbEntity
  8
DEFPOINTS
 62
     0
 48
50.0
100
AcDbPoint
 10
5291.6
 20
9463.573077635272
 30
0.0
  0
ENDBLK
  5
285F0
330
285E5
100
AcDbEntity
  8
0
 48
50.0
100
AcDbBlockEnd
  0
BLOCK
  5
285FB
330
285F1
100
AcDbEntity
  8
0
 48
50.0
100
AcDbBlockBegin
  2
*D23
 70
     1
 10
0.0
 20
0.0
 30
0.0
  3
*D23
  1

  0
LINE
  5
2B3C2
330
285F1
100
AcDbEntity
  8
寸法
 62
     0
 48
50.0
370
    -2
100
AcDbLine
 10
6698.6
 20
8107.813451093189
 30
0.0
 11
6698.6
 21
9304.723216741518
 31
0.0
  0
LINE
  5
2B3C3
330
285F1
100
AcDbEntity
  8
寸法
 62
     0
 48
50.0
370
    -2
100
AcDbLine
 10
5971.600000000002
 20
8107.813451093189
 30
0.0
 11
5971.600000000002
 21
9304.723216741518
 31
0.0
  0
LINE
  5
2B3C4
330
285F1
100
AcDbEntity
  8
寸法
 62
     0
 48
50.0
370
    -2
100
AcDbLine
 10
6698.6
 20
9244.723216741517
 30
0.0
 11
5971.600000000002
 21
9244.723216741517
 31
0.0
  0
INSERT
  5
2B3C5
330
285F1
100
AcDbEntity
  8
寸法
 62
     0
 48
50.0
370
    -2
100
AcDbBlockReference
  2
_DOTSMALL
 10
6698.6
 20
9244.723216741517
 30
0.0
 41
100.0
 42
100.0
 43
100.0
  0
INSERT
  5
2B3C6
330
285F1
100
AcDbEntity
  8
寸法
 62
     0
 48
50.0
370
    -2
100
AcDbBlockReference
  2
_DOTSMALL
 10
5971.600000000002
 20
9244.723216741517
 30
0.0
 41
100.0
 42
100.0
 43
100.0
 50
180.0
  0
MTEXT
  5
2B3C7
330
285F1
100
AcDbEntity
  8
寸法
 62
     7
 48
50.0
100
AcDbMText
 10
6335.1
 20
9344.735027765137
 30
0.0
 40
120.0
 41
0.0
 71
     5
 72
     1
  1
\A1;727
  7
STYLE1
 73
     1
 44
1.0
1001
ACAD
1000
MTEXTBEGIN
1070
    73
1070
     1
1070
    44
1040
1.0
1070
    74
1070
     0
1000
MTEXTEND
  0
POINT
  5
2B3C8
330
285F1
100
AcDbEntity
  8
DEFPOINTS
 62
     0
 48
50.0
100
AcDbPoint
 10
6698.6
 20
8087.813451093188
 30
0.0
  0
POINT
  5
2B3C9
330
285F1
100
AcDbEntity
  8
DEFPOINTS
 62
     0
 48
50.0
100
AcDbPoint
 10
5971.600000000002
 20
8087.813451093188
 30
0.0
  0
POINT
  5
2B3CA
330
285F1
100
AcDbEntity
  8
DEFPOINTS
 62
     0
 48
50.0
100
AcDbPoint
 10
5971.600000000002
 20
9244.723216741517
 30
0.0
  0
ENDBLK
  5
285FC
330
285F1
100
AcDbEntity
  8
0
 48
50.0
100
AcDbBlockEnd
  0
BLOCK
  5
28608
330
285FD
100
AcDbEntity
  8
0
 48
50.0
100
AcDbBlockBegin
  2
*D24
 70
     1
 10
0.0
 20
0.0
 30
0.0
  3
*D24
  1

  0
LINE
  5
2B3B8
330
285FD
100
AcDbEntity
  8
寸法
 62
     0
 48
50.0
370
    -2
100
AcDbLine
 10
5418.600000000001
 20
8597.813451093189
 30
0.0
 11
5675.307249876098
 21
8597.813451093189
 31
0.0
  0
LINE
  5
2B3B9
330
285FD
100
AcDbEntity
  8
寸法
 62
     0
 48
50.0
370
    -2
100
AcDbLine
 10
5418.600000000001
 20
8487.813451093186
 30
0.0
 11
5675.307249876098
 21
8487.813451093186
 31
0.0
  0
LINE
  5
2B3BA
330
285FD
100
AcDbEntity
  8
寸法
 62
     0
 48
50.0
370
    -2
100
AcDbLine
 10
5615.307249876098
 20
8597.813451093189
 30
0.0
 11
5615.307249876098
 21
8487.813451093186
 31
0.0
  0
LINE
  5
2B3BB
330
285FD
100
AcDbEntity
  8
寸法
 62
     0
 48
50.0
370
    -2
100
AcDbLine
 10
5615.307249876098
 20
8487.813451093186
 30
0.0
 11
5615.307249876098
 21
8023.707151880586
 31
0.0
  0
INSERT
  5
2B3BC
330
285FD
100
AcDbEntity
  8
寸法
 62
     0
 48
50.0
370
    -2
100
AcDbBlockReference
  2
_DOTSMALL
 10
5615.307249876098
 20
8597.813451093189
 30
0.0
 41
100.0
 42
100.0
 43
100.0
 50
90.0
  0
INSERT
  5
2B3BD
330
285FD
100
AcDbEntity
  8
寸法
 62
     0
 48
50.0
370
    -2
100
AcDbBlockReference
  2
_DOTSMALL
 10
5615.307249876098
 20
8487.813451093186
 30
0.0
 41
100.0
 42
100.0
 43
100.0
 50
270.0
  0
MTEXT
  5
2B3BE
330
285FD
100
AcDbEntity
  8
寸法
 62
     7
 48
50.0
100
AcDbMText
 10
5515.307249876098
 20
8147.754395975075
 30
0.0
 40
120.0
 41
0.0
 71
     5
 72
     1
  1
\A1;110
  7
STYLE1
 11
0.0000000000000001
 21
1.0
 31
0.0
 73
     1
 44
1.0
1001
ACAD
1000
MTEXTBEGIN
1070
    73
1070
     1
1070
    44
1040
1.0
1070
    74
1070
     0
1000
MTEXTEND
  0
POINT
  5
2B3BF
330
285FD
100
AcDbEntity
  8
DEFPOINTS
 62
     0
 48
50.0
100
AcDbPoint
 10
5398.6
 20
8597.813451093189
 30
0.0
  0
POINT
  5
2B3C0
330
285FD
100
AcDbEntity
  8
DEFPOINTS
 62
     0
 48
50.0
100
AcDbPoint
 10
5398.6
 20
8487.813451093186
 30
0.0
  0
POINT
  5
2B3C1
330
285FD
100
AcDbEntity
  8
DEFPOINTS
 62
     0
 48
50.0
100
AcDbPoint
 10
5615.307249876098
 20
8487.813451093186
 30
0.0
  0
ENDBLK
  5
28609
330
285FD
100
AcDbEntity
  8
0
 48
50.0
100
AcDbBlockEnd
  0
BLOCK
  5
28612
330
2860A
100
AcDbEntity
  8
0
 48
50.0
100
AcDbBlockBegin
  2
*D25
 70
     1
 10
0.0
 20
0.0
 30
0.0
  3
*D25
  1

  0
LINE
  5
2B3AF
330
2860A
100
AcDbEntity
  8
寸法
 62
     0
 48
50.0
370
    -2
100
AcDbLine
 10
8235.600000000001
 20
5907.813451093207
 30
0.0
 11
8235.600000000001
 21
6124.435076072772
 31
0.0
  0
LINE
  5
2B3B0
330
2860A
100
AcDbEntity
  8
寸法
 62
     0
 48
50.0
370
    -2
100
AcDbLine
 10
7975.6
 20
5907.813451093207
 30
0.0
 11
7975.6
 21
6124.435076072772
 31
0.0
  0
LINE
  5
2B3B1
330
2860A
100
AcDbEntity
  8
寸法
 62
     0
 48
50.0
370
    -2
100
AcDbLine
 10
8235.600000000001
 20
6064.435076072772
 30
0.0
 11
7975.6
 21
6064.435076072772
 31
0.0
  0
INSERT
  5
2B3B2
330
2860A
100
AcDbEntity
  8
寸法
 62
     0
 48
50.0
370
    -2
100
AcDbBlockReference
  2
_DOTSMALL
 10
8235.600000000001
 20
6064.435076072772
 30
0.0
 41
100.0
 42
100.0
 43
100.0
  0
INSERT
  5
2B3B3
330
2860A
100
AcDbEntity
  8
寸法
 62
     0
 48
50.0
370
    -2
100
AcDbBlockReference
  2
_DOTSMALL
 10
7975.6
 20
6064.435076072772
 30
0.0
 41
100.0
 42
100.0
 43
100.0
 50
180.0
  0
MTEXT
  5
2B3B4
330
2860A
100
AcDbEntity
  8
寸法
 62
     7
 48
50.0
100
AcDbMText
 10
8105.6
 20
6164.446887096394
 30
0.0
 40
120.0
 41
0.0
 71
     5
 72
     1
  1
\A1;260
  7
STYLE1
 73
     1
 44
1.0
1001
ACAD
1000
MTEXTBEGIN
1070
    73
1070
     1
1070
    44
1040
1.0
1070
    74
1070
     0
1000
MTEXTEND
  0
POINT
  5
2B3B5
330
2860A
100
AcDbEntity
  8
DEFPOINTS
 62
     0
 48
50.0
100
AcDbPoint
 10
8235.600000000001
 20
5887.813451093207
 30
0.0
  0
POINT
  5
2B3B6
330
2860A
100
AcDbEntity
  8
DEFPOINTS
 62
     0
 48
50.0
100
AcDbPoint
 10
7975.6
 20
5887.813451093207
 30
0.0
  0
POINT
  5
2B3B7
330
2860A
100
AcDbEntity
  8
DEFPOINTS
 62
     0
 48
50.0
100
AcDbPoint
 10
7975.6
 20
6064.435076072772
 30
0.0
  0
ENDBLK
  5
28613
330
2860A
100
AcDbEntity
  8
0
 48
50.0
100
AcDbBlockEnd
  0
BLOCK
  5
2861E
330
28614
100
AcDbEntity
  8
0
 48
50.0
100
AcDbBlockBegin
  2
*D26
 70
     1
 10
0.0
 20
0.0
 30
0.0
  3
*D26
  1

  0
LINE
  5
2B3A6
330
28614
100
AcDbEntity
  8
寸法
 62
     0
 48
50.0
370
    -2
100
AcDbLine
 10
9929.045939259561
 20
5657.813451093199
 30
0.0
 11
10223.85510029273
 21
5657.813451093199
 31
0.0
  0
LINE
  5
2B3A7
330
28614
100
AcDbEntity
  8
寸法
 62
     0
 48
50.0
370
    -2
100
AcDbLine
 10
10355.6
 20
6387.813451093178
 30
0.0
 11
10103.85510029273
 21
6387.813451093179
 31
0.0
  0
LINE
  5
2B3A8
330
28614
100
AcDbEntity
  8
寸法
 62
     0
 48
50.0
370
    -2
100
AcDbLine
 10
10163.85510029273
 20
5657.813451093199
 30
0.0
 11
10163.85510029273
 21
6387.813451093179
 31
0.0
  0
INSERT
  5
2B3A9
330
28614
100
AcDbEntity
  8
寸法
 62
     0
 48
50.0
370
    -2
100
AcDbBlockReference
  2
_DOTSMALL
 10
10163.85510029273
 20
5657.813451093199
 30
0.0
 41
100.0
 42
100.0
 43
100.0
 50
270.0
  0
INSERT
  5
2B3AA
330
28614
100
AcDbEntity
  8
寸法
 62
     0
 48
50.0
370
    -2
100
AcDbBlockReference
  2
_DOTSMALL
 10
10163.85510029273
 20
6387.813451093179
 30
0.0
 41
100.0
 42
100.0
 43
100.0
 50
90.0
  0
MTEXT
  5
2B3AB
330
28614
100
AcDbEntity
  8
寸法
 62
     7
 48
50.0
100
AcDbMText
 10
10063.85510029272
 20
6022.813451093189
 30
0.0
 40
120.0
 41
0.0
 71
     5
 72
     1
  1
\A1;730
  7
STYLE1
 11
0.0000000000000001
 21
1.0
 31
0.0
 73
     1
 44
1.0
1001
ACAD
1000
MTEXTBEGIN
1070
    73
1070
     1
1070
    44
1040
1.0
1070
    74
1070
     0
1000
MTEXTEND
  0
POINT
  5
2B3AC
330
28614
100
AcDbEntity
  8
DEFPOINTS
 62
     0
 48
50.0
100
AcDbPoint
 10
9909.045939259561
 20
5657.813451093199
 30
0.0
  0
POINT
  5
2B3AD
330
28614
100
AcDbEntity
  8
DEFPOINTS
 62
     0
 48
50.0
100
AcDbPoint
 10
10375.6
 20
6387.813451093178
 30
0.0
  0
POINT
  5
2B3AE
330
28614
100
AcDbEntity
  8
DEFPOINTS
 62
     0
 48
50.0
100
AcDbPoint
 10
10163.85510029273
 20
6387.813451093179
 30
0.0
  0
ENDBLK
  5
2861F
330
28614
100
AcDbEntity
  8
0
 48
50.0
100
AcDbBlockEnd
  0
BLOCK
  5
28638
330
2862D
100
AcDbEntity
  8
0
 48
50.0
100
AcDbBlockBegin
  2
*D27
 70
     1
 10
0.0
 20
0.0
 30
0.0
  3
*D27
  1

  0
LINE
  5
2B39C
330
2862D
100
AcDbEntity
  8
寸法
 62
     0
 48
50.0
370
    -2
100
AcDbLine
 10
11278.6
 20
8737.813451093188
 30
0.0
 11
11278.6
 21
9523.573077635273
 31
0.0
  0
LINE
  5
2B39D
330
2862D
100
AcDbEntity
  8
寸法
 62
     0
 48
50.0
370
    -2
100
AcDbLine
 10
11155.6
 20
8664.813451093191
 30
0.0
 11
11155.6
 21
9523.573077635273
 31
0.0
  0
LINE
  5
2B39E
330
2862D
100
AcDbEntity
  8
寸法
 62
     0
 48
50.0
370
    -2
100
AcDbLine
 10
11155.6
 20
9463.573077635272
 30
0.0
 11
11278.6
 21
9463.573077635272
 31
0.0
  0
LINE
  5
2B39F
330
2862D
100
AcDbEntity
  8
寸法
 62
     0
 48
50.0
370
    -2
100
AcDbLine
 10
11278.6
 20
9463.573077635272
 30
0.0
 11
11690.19188309204
 21
9463.573077635272
 31
0.0
  0
INSERT
  5
2B3A0
330
2862D
100
AcDbEntity
  8
寸法
 62
     0
 48
50.0
370
    -2
100
AcDbBlockReference
  2
_DOTSMALL
 10
11155.6
 20
9463.573077635272
 30
0.0
 41
100.0
 42
100.0
 43
100.0
 50
180.0
  0
INSERT
  5
2B3A1
330
2862D
100
AcDbEntity
  8
寸法
 62
     0
 48
50.0
370
    -2
100
AcDbBlockReference
  2
_DOTSMALL
 10
11278.6
 20
9463.573077635272
 30
0.0
 41
100.0
 42
100.0
 43
100.0
  0
MTEXT
  5
2B3A2
330
2862D
100
AcDbEntity
  8
寸法
 62
     7
 48
50.0
100
AcDbMText
 10
11551.7066017178
 20
9563.584888658894
 30
0.0
 40
120.0
 41
0.0
 71
     5
 72
     1
  1
\A1;123
  7
STYLE1
 73
     1
 44
1.0
1001
ACAD
1000
MTEXTBEGIN
1070
    73
1070
     1
1070
    44
1040
1.0
1070
    74
1070
     0
1000
MTEXTEND
  0
POINT
  5
2B3A3
330
2862D
100
AcDbEntity
  8
DEFPOINTS
 62
     0
 48
50.0
100
AcDbPoint
 10
11278.6
 20
8717.813451093189
 30
0.0
  0
POINT
  5
2B3A4
330
2862D
100
AcDbEntity
  8
DEFPOINTS
 62
     0
 48
50.0
100
AcDbPoint
 10
11155.6
 20
8644.81345109319
 30
0.0
  0
POINT
  5
2B3A5
330
2862D
100
AcDbEntity
  8
DEFPOINTS
 62
     0
 48
50.0
100
AcDbPoint
 10
11155.6
 20
9463.573077635272
 30
0.0
  0
ENDBLK
  5
28639
330
2862D
100
AcDbEntity
  8
0
 48
50.0
100
AcDbBlockEnd
  0
BLOCK
  5
28644
330
2863A
100
AcDbEntity
  8
0
 48
50.0
100
AcDbBlockBegin
  2
*D28
 70
     1
 10
0.0
 20
0.0
 30
0.0
  3
*D28
  1

  0
LINE
  5
2B393
330
2863A
100
AcDbEntity
  8
寸法
 62
     0
 48
50.0
370
    -2
100
AcDbLine
 10
10475.6
 20
8107.813451093189
 30
0.0
 11
10475.6
 21
9304.723216741518
 31
0.0
  0
LINE
  5
2B394
330
2863A
100
AcDbEntity
  8
寸法
 62
     0
 48
50.0
370
    -2
100
AcDbLine
 10
9748.600000000001
 20
8107.813451093189
 30
0.0
 11
9748.600000000001
 21
9304.723216741518
 31
0.0
  0
LINE
  5
2B395
330
2863A
100
AcDbEntity
  8
寸法
 62
     0
 48
50.0
370
    -2
100
AcDbLine
 10
10475.6
 20
9244.723216741517
 30
0.0
 11
9748.600000000001
 21
9244.723216741517
 31
0.0
  0
INSERT
  5
2B396
330
2863A
100
AcDbEntity
  8
寸法
 62
     0
 48
50.0
370
    -2
100
AcDbBlockReference
  2
_DOTSMALL
 10
10475.6
 20
9244.723216741517
 30
0.0
 41
100.0
 42
100.0
 43
100.0
  0
INSERT
  5
2B397
330
2863A
100
AcDbEntity
  8
寸法
 62
     0
 48
50.0
370
    -2
100
AcDbBlockReference
  2
_DOTSMALL
 10
9748.600000000001
 20
9244.723216741517
 30
0.0
 41
100.0
 42
100.0
 43
100.0
 50
180.0
  0
MTEXT
  5
2B398
330
2863A
100
AcDbEntity
  8
寸法
 62
     7
 48
50.0
100
AcDbMText
 10
10112.1
 20
9344.735027765137
 30
0.0
 40
120.0
 41
0.0
 71
     5
 72
     1
  1
\A1;727
  7
STYLE1
 73
     1
 44
1.0
1001
ACAD
1000
MTEXTBEGIN
1070
    73
1070
     1
1070
    44
1040
1.0
1070
    74
1070
     0
1000
MTEXTEND
  0
POINT
  5
2B399
330
2863A
100
AcDbEntity
  8
DEFPOINTS
 62
     0
 48
50.0
100
AcDbPoint
 10
10475.6
 20
8087.813451093188
 30
0.0
  0
POINT
  5
2B39A
330
2863A
100
AcDbEntity
  8
DEFPOINTS
 62
     0
 48
50.0
100
AcDbPoint
 10
9748.600000000001
 20
8087.813451093188
 30
0.0
  0
POINT
  5
2B39B
330
2863A
100
AcDbEntity
  8
DEFPOINTS
 62
     0
 48
50.0
100
AcDbPoint
 10
9748.600000000001
 20
9244.723216741517
 30
0.0
  0
ENDBLK
  5
28645
330
2863A
100
AcDbEntity
  8
0
 48
50.0
100
AcDbBlockEnd
  0
BLOCK
  5
28650
330
28646
100
AcDbEntity
  8
0
 48
50.0
100
AcDbBlockBegin
  2
*D29
 70
     1
 10
0.0
 20
0.0
 30
0.0
  3
*D29
  1

  0
LINE
  5
2B38A
330
28646
100
AcDbEntity
  8
寸法
 62
     0
 48
50.0
370
    -2
100
AcDbLine
 10
11278.6
 20
8737.813451093188
 30
0.0
 11
11278.6
 21
9304.723216741518
 31
0.0
  0
LINE
  5
2B38B
330
28646
100
AcDbEntity
  8
寸法
 62
     0
 48
50.0
370
    -2
100
AcDbLine
 10
10475.6
 20
8107.813451093189
 30
0.0
 11
10475.6
 21
9304.723216741518
 31
0.0
  0
LINE
  5
2B38C
330
28646
100
AcDbEntity
  8
寸法
 62
     0
 48
50.0
370
    -2
100
AcDbLine
 10
11278.6
 20
9244.723216741517
 30
0.0
 11
10475.6
 21
9244.723216741517
 31
0.0
  0
INSERT
  5
2B38D
330
28646
100
AcDbEntity
  8
寸法
 62
     0
 48
50.0
370
    -2
100
AcDbBlockReference
  2
_DOTSMALL
 10
11278.6
 20
9244.723216741517
 30
0.0
 41
100.0
 42
100.0
 43
100.0
  0
INSERT
  5
2B38E
330
28646
100
AcDbEntity
  8
寸法
 62
     0
 48
50.0
370
    -2
100
AcDbBlockReference
  2
_DOTSMALL
 10
10475.6
 20
9244.723216741517
 30
0.0
 41
100.0
 42
100.0
 43
100.0
 50
180.0
  0
MTEXT
  5
2B38F
330
28646
100
AcDbEntity
  8
寸法
 62
     7
 48
50.0
100
AcDbMText
 10
10877.1
 20
9344.723216741517
 30
0.0
 40
120.0
 41
0.0
 71
     5
 72
     1
  1
\A1;803
  7
STYLE1
 73
     1
 44
1.0
1001
ACAD
1000
MTEXTBEGIN
1070
    73
1070
     1
1070
    44
1040
1.0
1070
    74
1070
     0
1000
MTEXTEND
  0
POINT
  5
2B390
330
28646
100
AcDbEntity
  8
DEFPOINTS
 62
     0
 48
50.0
100
AcDbPoint
 10
11278.6
 20
8717.813451093189
 30
0.0
  0
POINT
  5
2B391
330
28646
100
AcDbEntity
  8
DEFPOINTS
 62
     0
 48
50.0
100
AcDbPoint
 10
10475.6
 20
8087.813451093188
 30
0.0
  0
POINT
  5
2B392
330
28646
100
AcDbEntity
  8
DEFPOINTS
 62
     0
 48
50.0
100
AcDbPoint
 10
10475.6
 20
9244.723216741517
 30
0.0
  0
ENDBLK
  5
28651
330
28646
100
AcDbEntity
  8
0
 48
50.0
100
AcDbBlockEnd
  0
BLOCK
  5
2865C
330
28652
100
AcDbEntity
  8
0
 48
50.0
100
AcDbBlockBegin
  2
*D30
 70
     1
 10
0.0
 20
0.0
 30
0.0
  3
*D30
  1

  0
LINE
  5
2B381
330
28652
100
AcDbEntity
  8
寸法
 62
     0
 48
50.0
370
    -2
100
AcDbLine
 10
9748.600000000001
 20
8107.813451093189
 30
0.0
 11
9748.600000000001
 21
9304.723216741518
 31
0.0
  0
LINE
  5
2B382
330
28652
100
AcDbEntity
  8
寸法
 62
     0
 48
50.0
370
    -2
100
AcDbLine
 10
9021.600000000001
 20
8107.813451093189
 30
0.0
 11
9021.600000000001
 21
9304.723216741518
 31
0.0
  0
LINE
  5
2B383
330
28652
100
AcDbEntity
  8
寸法
 62
     0
 48
50.0
370
    -2
100
AcDbLine
 10
9748.600000000001
 20
9244.723216741517
 30
0.0
 11
9021.600000000001
 21
9244.723216741517
 31
0.0
  0
INSERT
  5
2B384
330
28652
100
AcDbEntity
  8
寸法
 62
     0
 48
50.0
370
    -2
100
AcDbBlockReference
  2
_DOTSMALL
 10
9748.600000000001
 20
9244.723216741517
 30
0.0
 41
100.0
 42
100.0
 43
100.0
  0
INSERT
  5
2B385
330
28652
100
AcDbEntity
  8
寸法
 62
     0
 48
50.0
370
    -2
100
AcDbBlockReference
  2
_DOTSMALL
 10
9021.600000000001
 20
9244.723216741517
 30
0.0
 41
100.0
 42
100.0
 43
100.0
 50
180.0
  0
MTEXT
  5
2B386
330
28652
100
AcDbEntity
  8
寸法
 62
     7
 48
50.0
100
AcDbMText
 10
9385.099999999999
 20
9344.735027765137
 30
0.0
 40
120.0
 41
0.0
 71
     5
 72
     1
  1
\A1;727
  7
STYLE1
 73
     1
 44
1.0
1001
ACAD
1000
MTEXTBEGIN
1070
    73
1070
     1
1070
    44
1040
1.0
1070
    74
1070
     0
1000
MTEXTEND
  0
POINT
  5
2B387
330
28652
100
AcDbEntity
  8
DEFPOINTS
 62
     0
 48
50.0
100
AcDbPoint
 10
9748.600000000001
 20
8087.813451093188
 30
0.0
  0
POINT
  5
2B388
330
28652
100
AcDbEntity
  8
DEFPOINTS
 62
     0
 48
50.0
100
AcDbPoint
 10
9021.600000000001
 20
8087.813451093188
 30
0.0
  0
POINT
  5
2B389
330
28652
100
AcDbEntity
  8
DEFPOINTS
 62
     0
 48
50.0
100
AcDbPoint
 10
9021.600000000001
 20
9244.723216741517
 30
0.0
  0
ENDBLK
  5
2865D
330
28652
100
AcDbEntity
  8
0
 48
50.0
100
AcDbBlockEnd
  0
BLOCK
  5
28668
330
2865E
100
AcDbEntity
  8
0
 48
50.0
100
AcDbBlockBegin
  2
*D31
 70
     1
 10
0.0
 20
0.0
 30
0.0
  3
*D31
  1

  0
LINE
  5
2B378
330
2865E
100
AcDbEntity
  8
寸法
 62
     0
 48
50.0
370
    -2
100
AcDbLine
 10
10355.6
 20
7187.813451093187
 30
0.0
 11
10103.85510029273
 21
7187.813451093187
 31
0.0
  0
LINE
  5
2B379
330
2865E
100
AcDbEntity
  8
寸法
 62
     0
 48
50.0
370
    -2
100
AcDbLine
 10
10355.6
 20
7987.813451093187
 30
0.0
 11
10103.85510029273
 21
7987.813451093187
 31
0.0
  0
LINE
  5
2B37A
330
2865E
100
AcDbEntity
  8
寸法
 62
     0
 48
50.0
370
    -2
100
AcDbLine
 10
10163.85510029273
 20
7187.813451093187
 30
0.0
 11
10163.85510029273
 21
7987.813451093187
 31
0.0
  0
INSERT
  5
2B37B
330
2865E
100
AcDbEntity
  8
寸法
 62
     0
 48
50.0
370
    -2
100
AcDbBlockReference
  2
_DOTSMALL
 10
10163.85510029273
 20
7187.813451093187
 30
0.0
 41
100.0
 42
100.0
 43
100.0
 50
270.0
  0
INSERT
  5
2B37C
330
2865E
100
AcDbEntity
  8
寸法
 62
     0
 48
50.0
370
    -2
100
AcDbBlockReference
  2
_DOTSMALL
 10
10163.85510029273
 20
7987.813451093187
 30
0.0
 41
100.0
 42
100.0
 43
100.0
 50
90.0
  0
MTEXT
  5
2B37D
330
2865E
100
AcDbEntity
  8
寸法
 62
     7
 48
50.0
100
AcDbMText
 10
10063.85510029272
 20
7587.813451093189
 30
0.0
 40
120.0
 41
0.0
 71
     5
 72
     1
  1
\A1;800
  7
STYLE1
 11
0.0000000000000001
 21
1.0
 31
0.0
 73
     1
 44
1.0
1001
ACAD
1000
MTEXTBEGIN
1070
    73
1070
     1
1070
    44
1040
1.0
1070
    74
1070
     0
1000
MTEXTEND
  0
POINT
  5
2B37E
330
2865E
100
AcDbEntity
  8
DEFPOINTS
 62
     0
 48
50.0
100
AcDbPoint
 10
10375.6
 20
7187.813451093187
 30
0.0
  0
POINT
  5
2B37F
330
2865E
100
AcDbEntity
  8
DEFPOINTS
 62
     0
 48
50.0
100
AcDbPoint
 10
10375.6
 20
7987.813451093187
 30
0.0
  0
POINT
  5
2B380
330
2865E
100
AcDbEntity
  8
DEFPOINTS
 62
     0
 48
50.0
100
AcDbPoint
 10
10163.85510029273
 20
7987.813451093187
 30
0.0
  0
ENDBLK
  5
28669
330
2865E
100
AcDbEntity
  8
0
 48
50.0
100
AcDbBlockEnd
  0
BLOCK
  5
28673
330
2866A
100
AcDbEntity
  8
0
 48
50.0
100
AcDbBlockBegin
  2
*D32
 70
     1
 10
0.0
 20
0.0
 30
0.0
  3
*D32
  1

  0
LINE
  5
2B36F
330
2866A
100
AcDbEntity
  8
寸法
 62
     0
 48
50.0
370
    -2
100
AcDbLine
 10
10355.6
 20
7987.813451093187
 30
0.0
 11
10103.85510029273
 21
7987.813451093187
 31
0.0
  0
LINE
  5
2B370
330
2866A
100
AcDbEntity
  8
寸法
 62
     0
 48
50.0
370
    -2
100
AcDbLine
 10
9833.157431058356
 20
8717.813451093189
 30
0.0
 11
10223.85510029273
 21
8717.813451093189
 31
0.0
  0
LINE
  5
2B371
330
2866A
100
AcDbEntity
  8
寸法
 62
     0
 48
50.0
370
    -2
100
AcDbLine
 10
10163.85510029273
 20
7987.813451093187
 30
0.0
 11
10163.85510029273
 21
8717.813451093189
 31
0.0
  0
INSERT
  5
2B372
330
2866A
100
AcDbEntity
  8
寸法
 62
     0
 48
50.0
370
    -2
100
AcDbBlockReference
  2
_DOTSMALL
 10
10163.85510029273
 20
7987.813451093187
 30
0.0
 41
100.0
 42
100.0
 43
100.0
 50
270.0
  0
INSERT
  5
2B373
330
2866A
100
AcDbEntity
  8
寸法
 62
     0
 48
50.0
370
    -2
100
AcDbBlockReference
  2
_DOTSMALL
 10
10163.85510029273
 20
8717.813451093189
 30
0.0
 41
100.0
 42
100.0
 43
100.0
 50
90.0
  0
MTEXT
  5
2B374
330
2866A
100
AcDbEntity
  8
寸法
 62
     7
 48
50.0
100
AcDbMText
 10
10063.85510029272
 20
8352.81345109319
 30
0.0
 40
120.0
 41
0.0
 71
     5
 72
     1
  1
\A1;730
  7
STYLE1
 11
0.0000000000000001
 21
1.0
 31
0.0
 73
     1
 44
1.0
1001
ACAD
1000
MTEXTBEGIN
1070
    73
1070
     1
1070
    44
1040
1.0
1070
    74
1070
     0
1000
MTEXTEND
  0
POINT
  5
2B375
330
2866A
100
AcDbEntity
  8
DEFPOINTS
 62
     0
 48
50.0
100
AcDbPoint
 10
10375.6
 20
7987.813451093187
 30
0.0
  0
POINT
  5
2B376
330
2866A
100
AcDbEntity
  8
DEFPOINTS
 62
     0
 48
50.0
100
AcDbPoint
 10
9813.157431058357
 20
8717.813451093189
 30
0.0
  0
POINT
  5
2B377
330
2866A
100
AcDbEntity
  8
DEFPOINTS
 62
     0
 48
50.0
100
AcDbPoint
 10
10163.85510029273
 20
8717.813451093189
 30
0.0
  0
ENDBLK
  5
28674
330
2866A
100
AcDbEntity
  8
0
 48
50.0
100
AcDbBlockEnd
  0
BLOCK
  5
28680
330
28675
100
AcDbEntity
  8
0
 48
50.0
100
AcDbBlockBegin
  2
*D33
 70
     1
 10
0.0
 20
0.0
 30
0.0
  3
*D33
  1

  0
LINE
  5
2B365
330
28675
100
AcDbEntity
  8
寸法
 62
     0
 48
50.0
370
    -2
100
AcDbLine
 10
11158.6
 20
8467.813451093189
 30
0.0
 11
11158.6
 21
8200.104783592815
 31
0.0
  0
LINE
  5
2B366
330
28675
100
AcDbEntity
  8
寸法
 62
     0
 48
50.0
370
    -2
100
AcDbLine
 10
11048.6
 20
8467.813451093187
 30
0.0
 11
11048.6
 21
8200.104783592815
 31
0.0
  0
LINE
  5
2B367
330
28675
100
AcDbEntity
  8
寸法
 62
     0
 48
50.0
370
    -2
100
AcDbLine
 10
11158.6
 20
8260.104783592815
 30
0.0
 11
11048.6
 21
8260.104783592815
 31
0.0
  0
LINE
  5
2B368
330
28675
100
AcDbEntity
  8
寸法
 62
     0
 48
50.0
370
    -2
100
AcDbLine
 10
11048.6
 20
8260.104783592815
 30
0.0
 11
10654.4937007874
 21
8260.104783592815
 31
0.0
  0
INSERT
  5
2B369
330
28675
100
AcDbEntity
  8
寸法
 62
     0
 48
50.0
370
    -2
100
AcDbBlockReference
  2
_DOTSMALL
 10
11158.6
 20
8260.104783592815
 30
0.0
 41
100.0
 42
100.0
 43
100.0
  0
INSERT
  5
2B36A
330
28675
100
AcDbEntity
  8
寸法
 62
     0
 48
50.0
370
    -2
100
AcDbBlockReference
  2
_DOTSMALL
 10
11048.6
 20
8260.104783592815
 30
0.0
 41
100.0
 42
100.0
 43
100.0
 50
180.0
  0
MTEXT
  5
2B36B
330
28675
100
AcDbEntity
  8
寸法
 62
     7
 48
50.0
100
AcDbMText
 10
10778.54094488189
 20
8360.104783592815
 30
0.0
 40
120.0
 41
0.0
 71
     5
 72
     1
  1
\A1;110
  7
STYLE1
 73
     1
 44
1.0
1001
ACAD
1000
MTEXTBEGIN
1070
    73
1070
     1
1070
    44
1040
1.0
1070
    74
1070
     0
1000
MTEXTEND
  0
POINT
  5
2B36C
330
28675
100
AcDbEntity
  8
DEFPOINTS
 62
     0
 48
50.0
100
AcDbPoint
 10
11158.6
 20
8487.813451093188
 30
0.0
  0
POINT
  5
2B36D
330
28675
100
AcDbEntity
  8
DEFPOINTS
 62
     0
 48
50.0
100
AcDbPoint
 10
11048.6
 20
8487.813451093186
 30
0.0
  0
POINT
  5
2B36E
330
28675
100
AcDbEntity
  8
DEFPOINTS
 62
     0
 48
50.0
100
AcDbPoint
 10
11048.6
 20
8260.104783592815
 30
0.0
  0
ENDBLK
  5
28681
330
28675
100
AcDbEntity
  8
0
 48
50.0
100
AcDbBlockEnd
  0
BLOCK
  5
2868D
330
28682
100
AcDbEntity
  8
0
 48
50.0
100
AcDbBlockBegin
  2
*D34
 70
     1
 10
0.0
 20
0.0
 30
0.0
  3
*D34
  1

  0
LINE
  5
2B35B
330
28682
100
AcDbEntity
  8
寸法
 62
     0
 48
50.0
370
    -2
100
AcDbLine
 10
11278.6
 20
8257.098047631643
 30
0.0
 11
11278.6
 21
8200.104783592815
 31
0.0
  0
LINE
  5
2B35C
330
28682
100
AcDbEntity
  8
寸法
 62
     0
 48
50.0
370
    -2
100
AcDbLine
 10
11158.6
 20
8467.813451093189
 30
0.0
 11
11158.6
 21
8200.104783592815
 31
0.0
  0
LINE
  5
2B35D
330
28682
100
AcDbEntity
  8
寸法
 62
     0
 48
50.0
370
    -2
100
AcDbLine
 10
11158.6
 20
8260.104783592815
 30
0.0
 11
11278.6
 21
8260.104783592815
 31
0.0
  0
LINE
  5
2B35E
330
28682
100
AcDbEntity
  8
寸法
 62
     0
 48
50.0
370
    -2
100
AcDbLine
 10
11278.6
 20
8260.104783592815
 30
0.0
 11
11684.7062992126
 21
8260.104783592815
 31
0.0
  0
INSERT
  5
2B35F
330
28682
100
AcDbEntity
  8
寸法
 62
     0
 48
50.0
370
    -2
100
AcDbBlockReference
  2
_DOTSMALL
 10
11158.6
 20
8260.104783592815
 30
0.0
 41
100.0
 42
100.0
 43
100.0
 50
180.0
  0
INSERT
  5
2B360
330
28682
100
AcDbEntity
  8
寸法
 62
     0
 48
50.0
370
    -2
100
AcDbBlockReference
  2
_DOTSMALL
 10
11278.6
 20
8260.104783592815
 30
0.0
 41
100.0
 42
100.0
 43
100.0
  0
MTEXT
  5
2B361
330
28682
100
AcDbEntity
  8
寸法
 62
     7
 48
50.0
100
AcDbMText
 10
11548.65905511811
 20
8360.116594616437
 30
0.0
 40
120.0
 41
0.0
 71
     5
 72
     1
  1
\A1;120
  7
STYLE1
 73
     1
 44
1.0
1001
ACAD
1000
MTEXTBEGIN
1070
    73
1070
     1
1070
    44
1040
1.0
1070
    74
1070
     0
1000
MTEXTEND
  0
POINT
  5
2B362
330
28682
100
AcDbEntity
  8
DEFPOINTS
 62
     0
 48
50.0
100
AcDbPoint
 10
11278.6
 20
8277.098047631644
 30
0.0
  0
POINT
  5
2B363
330
28682
100
AcDbEntity
  8
DEFPOINTS
 62
     0
 48
50.0
100
AcDbPoint
 10
11158.6
 20
8487.813451093188
 30
0.0
  0
POINT
  5
2B364
330
28682
100
AcDbEntity
  8
DEFPOINTS
 62
     0
 48
50.0
100
AcDbPoint
 10
11158.6
 20
8260.104783592815
 30
0.0
  0
ENDBLK
  5
2868E
330
28682
100
AcDbEntity
  8
0
 48
50.0
100
AcDbBlockEnd
  0
BLOCK
  5
2A8C3
330
2A8B9
100
AcDbEntity
  8
0
 48
50.0
100
AcDbBlockBegin
  2
*D35
 70
     1
 10
0.0
 20
0.0
 30
0.0
  3
*D35
  1

  0
LINE
  5
2B352
330
2A8B9
100
AcDbEntity
  8
寸法
 62
     0
 48
50.0
370
    -2
100
AcDbLine
 10
10355.6
 20
6387.813451093187
 30
0.0
 11
10103.85510029273
 21
6387.813451093188
 31
0.0
  0
LINE
  5
2B353
330
2A8B9
100
AcDbEntity
  8
寸法
 62
     0
 48
50.0
370
    -2
100
AcDbLine
 10
10355.6
 20
7187.813451093187
 30
0.0
 11
10103.85510029273
 21
7187.813451093187
 31
0.0
  0
LINE
  5
2B354
330
2A8B9
100
AcDbEntity
  8
寸法
 62
     0
 48
50.0
370
    -2
100
AcDbLine
 10
10163.85510029273
 20
6387.813451093188
 30
0.0
 11
10163.85510029273
 21
7187.813451093187
 31
0.0
  0
INSERT
  5
2B355
330
2A8B9
100
AcDbEntity
  8
寸法
 62
     0
 48
50.0
370
    -2
100
AcDbBlockReference
  2
_DOTSMALL
 10
10163.85510029273
 20
6387.813451093188
 30
0.0
 41
100.0
 42
100.0
 43
100.0
 50
270.0
  0
INSERT
  5
2B356
330
2A8B9
100
AcDbEntity
  8
寸法
 62
     0
 48
50.0
370
    -2
100
AcDbBlockReference
  2
_DOTSMALL
 10
10163.85510029273
 20
7187.813451093187
 30
0.0
 41
100.0
 42
100.0
 43
100.0
 50
90.0
  0
MTEXT
  5
2B357
330
2A8B9
100
AcDbEntity
  8
寸法
 62
     7
 48
50.0
100
AcDbMText
 10
10063.85510029272
 20
6787.813451093189
 30
0.0
 40
120.0
 41
0.0
 71
     5
 72
     1
  1
\A1;800
  7
STYLE1
 11
0.0000000000000001
 21
1.0
 31
0.0
 73
     1
 44
1.0
1001
ACAD
1000
MTEXTBEGIN
1070
    73
1070
     1
1070
    44
1040
1.0
1070
    74
1070
     0
1000
MTEXTEND
  0
POINT
  5
2B358
330
2A8B9
100
AcDbEntity
  8
DEFPOINTS
 62
     0
 48
50.0
100
AcDbPoint
 10
10375.6
 20
6387.813451093187
 30
0.0
  0
POINT
  5
2B359
330
2A8B9
100
AcDbEntity
  8
DEFPOINTS
 62
     0
 48
50.0
100
AcDbPoint
 10
10375.6
 20
7187.813451093187
 30
0.0
  0
POINT
  5
2B35A
330
2A8B9
100
AcDbEntity
  8
DEFPOINTS
 62
     0
 48
50.0
100
AcDbPoint
 10
10163.85510029273
 20
7187.813451093187
 30
0.0
  0
ENDBLK
  5
2A8C4
330
2A8B9
100
AcDbEntity
  8
0
 48
50.0
100
AcDbBlockEnd
  0
BLOCK
  5
2AC0A
330
2AC00
100
AcDbEntity
  8
0
 48
50.0
100
AcDbBlockBegin
  2
*D36
 70
     1
 10
0.0
 20
0.0
 30
0.0
  3
*D36
  1

  0
LINE
  5
2B349
330
2AC00
100
AcDbEntity
  8
寸法
 62
     0
 48
50.0
370
    -2
100
AcDbLine
 10
7776.600000000001
 20
5562.813451093211
 30
0.0
 11
7776.600000000001
 21
5037.968436750998
 31
0.0
  0
LINE
  5
2B34A
330
2AC00
100
AcDbEntity
  8
寸法
 62
     0
 48
50.0
370
    -2
100
AcDbLine
 10
5621.6
 20
5562.813451093195
 30
0.0
 11
5621.6
 21
5037.968436750998
 31
0.0
  0
LINE
  5
2B34B
330
2AC00
100
AcDbEntity
  8
寸法
 62
     0
 48
50.0
370
    -2
100
AcDbLine
 10
7776.600000000001
 20
5097.968436750998
 30
0.0
 11
5621.6
 21
5097.968436750998
 31
0.0
  0
INSERT
  5
2B34C
330
2AC00
100
AcDbEntity
  8
寸法
 62
     0
 48
50.0
370
    -2
100
AcDbBlockReference
  2
_DOTSMALL
 10
7776.600000000001
 20
5097.968436750998
 30
0.0
 41
100.0
 42
100.0
 43
100.0
  0
INSERT
  5
2B34D
330
2AC00
100
AcDbEntity
  8
寸法
 62
     0
 48
50.0
370
    -2
100
AcDbBlockReference
  2
_DOTSMALL
 10
5621.6
 20
5097.968436750998
 30
0.0
 41
100.0
 42
100.0
 43
100.0
 50
180.0
  0
MTEXT
  5
2B34E
330
2AC00
100
AcDbEntity
  8
寸法
 62
     7
 48
50.0
100
AcDbMText
 10
6699.1
 20
5197.980247774619
 30
0.0
 40
120.0
 41
0.0
 71
     5
 72
     1
  1
\A1;扉の幅 2155
  7
STYLE1
 73
     1
 44
1.0
1001
ACAD
1000
MTEXTBEGIN
1070
    73
1070
     1
1070
    44
1040
1.0
1070
    74
1070
     0
1000
MTEXTEND
  0
POINT
  5
2B34F
330
2AC00
100
AcDbEntity
  8
DEFPOINTS
 62
     0
 48
50.0
100
AcDbPoint
 10
7776.600000000001
 20
5582.81345109321
 30
0.0
  0
POINT
  5
2B350
330
2AC00
100
AcDbEntity
  8
DEFPOINTS
 62
     0
 48
50.0
100
AcDbPoint
 10
5621.6
 20
5582.813451093195
 30
0.0
  0
POINT
  5
2B351
330
2AC00
100
AcDbEntity
  8
DEFPOINTS
 62
     0
 48
50.0
100
AcDbPoint
 10
5621.6
 20
5097.968436750998
 30
0.0
  0
ENDBLK
  5
2AC0B
330
2AC00
100
AcDbEntity
  8
0
 48
50.0
100
AcDbBlockEnd
  0
BLOCK
  5
2B1B8
330
2B1AE
100
AcDbEntity
  8
0
 48
50.0
100
AcDbBlockBegin
  2
*D37
 70
     1
 10
0.0
 20
0.0
 30
0.0
  3
*D37
  1

  0
LINE
  5
2B32E
330
2B1AE
100
AcDbEntity
  8
寸法
 62
     0
 48
50.0
370
    -2
100
AcDbLine
 10
4128.059756620436
 20
1929.75387452127
 30
0.0
 11
3327.414818584375
 21
1929.75387452127
 31
0.0
  0
LINE
  5
2B32F
330
2B1AE
100
AcDbEntity
  8
寸法
 62
     0
 48
50.0
370
    -2
100
AcDbLine
 10
3868.059756620442
 20
949.7538745212692
 30
0.0
 11
3327.414818584374
 21
949.7538745212695
 31
0.0
  0
LINE
  5
2B330
330
2B1AE
100
AcDbEntity
  8
寸法
 62
     0
 48
50.0
370
    -2
100
AcDbLine
 10
3387.414818584375
 20
1929.75387452127
 30
0.0
 11
3387.414818584374
 21
949.7538745212693
 31
0.0
  0
INSERT
  5
2B331
330
2B1AE
100
AcDbEntity
  8
寸法
 62
     0
 48
50.0
370
    -2
100
AcDbBlockReference
  2
_DOTSMALL
 10
3387.414818584375
 20
1929.75387452127
 30
0.0
 41
100.0
 42
100.0
 43
100.0
 50
90.0
  0
INSERT
  5
2B332
330
2B1AE
100
AcDbEntity
  8
寸法
 62
     0
 48
50.0
370
    -2
100
AcDbBlockReference
  2
_DOTSMALL
 10
3387.414818584374
 20
949.7538745212693
 30
0.0
 41
100.0
 42
100.0
 43
100.0
 50
270.0
  0
MTEXT
  5
2B333
330
2B1AE
100
AcDbEntity
  8
寸法
 62
     7
 48
50.0
100
AcDbMText
 10
3287.414818584374
 20
1439.75387452127
 30
0.0
 40
120.0
 41
0.0
 71
     5
 72
     1
  1
\A1;540
  7
STYLE1
 11
0.0000000000000001
 21
1.0
 31
0.0
 73
     1
 44
1.0
1001
ACAD
1000
MTEXTBEGIN
1070
    73
1070
     1
1070
    44
1040
1.0
1070
    74
1070
     0
1000
MTEXTEND
  0
POINT
  5
2B334
330
2B1AE
100
AcDbEntity
  8
DEFPOINTS
 62
     0
 48
50.0
100
AcDbPoint
 10
4148.059756620437
 20
1929.75387452127
 30
0.0
  0
POINT
  5
2B335
330
2B1AE
100
AcDbEntity
  8
DEFPOINTS
 62
     0
 48
50.0
100
AcDbPoint
 10
3888.059756620442
 20
949.7538745212692
 30
0.0
  0
POINT
  5
2B336
330
2B1AE
100
AcDbEntity
  8
DEFPOINTS
 62
     0
 48
50.0
100
AcDbPoint
 10
3387.414818584374
 20
949.7538745212693
 30
0.0
  0
ENDBLK
  5
2B1B9
330
2B1AE
100
AcDbEntity
  8
0
 48
50.0
100
AcDbBlockEnd
  0
BLOCK
  5
2B1C4
330
2B1BA
100
AcDbEntity
  8
0
 48
50.0
100
AcDbBlockBegin
  2
*D38
 70
     1
 10
0.0
 20
0.0
 30
0.0
  3
*D38
  1

  0
LINE
  5
2B325
330
2B1BA
100
AcDbEntity
  8
寸法
 62
     0
 48
50.0
370
    -2
100
AcDbLine
 10
3988.059756620437
 20
769.753874521269
 30
0.0
 11
3988.059756620437
 21
430.8017680653361
 31
0.0
  0
LINE
  5
2B326
330
2B1BA
100
AcDbEntity
  8
寸法
 62
     0
 48
50.0
370
    -2
100
AcDbLine
 10
4548.059756620438
 20
769.753874521269
 30
0.0
 11
4548.059756620438
 21
430.8017680653361
 31
0.0
  0
LINE
  5
2B327
330
2B1BA
100
AcDbEntity
  8
寸法
 62
     0
 48
50.0
370
    -2
100
AcDbLine
 10
3988.059756620437
 20
490.8017680653361
 30
0.0
 11
4548.059756620438
 21
490.8017680653361
 31
0.0
  0
INSERT
  5
2B328
330
2B1BA
100
AcDbEntity
  8
寸法
 62
     0
 48
50.0
370
    -2
100
AcDbBlockReference
  2
_DOTSMALL
 10
3988.059756620437
 20
490.8017680653361
 30
0.0
 41
100.0
 42
100.0
 43
100.0
 50
180.0
  0
INSERT
  5
2B329
330
2B1BA
100
AcDbEntity
  8
寸法
 62
     0
 48
50.0
370
    -2
100
AcDbBlockReference
  2
_DOTSMALL
 10
4548.059756620438
 20
490.8017680653361
 30
0.0
 41
100.0
 42
100.0
 43
100.0
  0
MTEXT
  5
2B32A
330
2B1BA
100
AcDbEntity
  8
寸法
 62
     7
 48
50.0
100
AcDbMText
 10
4268.059756620437
 20
590.8017680653361
 30
0.0
 40
120.0
 41
0.0
 71
     5
 72
     1
  1
\A1;300
  7
STYLE1
 73
     1
 44
1.0
1001
ACAD
1000
MTEXTBEGIN
1070
    73
1070
     1
1070
    44
1040
1.0
1070
    74
1070
     0
1000
MTEXTEND
  0
POINT
  5
2B32B
330
2B1BA
100
AcDbEntity
  8
DEFPOINTS
 62
     0
 48
50.0
100
AcDbPoint
 10
3988.059756620437
 20
789.753874521269
 30
0.0
  0
POINT
  5
2B32C
330
2B1BA
100
AcDbEntity
  8
DEFPOINTS
 62
     0
 48
50.0
100
AcDbPoint
 10
4548.059756620438
 20
789.753874521269
 30
0.0
  0
POINT
  5
2B32D
330
2B1BA
100
AcDbEntity
  8
DEFPOINTS
 62
     0
 48
50.0
100
AcDbPoint
 10
4548.059756620438
 20
490.8017680653361
 30
0.0
  0
ENDBLK
  5
2B1C5
330
2B1BA
100
AcDbEntity
  8
0
 48
50.0
100
AcDbBlockEnd
  0
BLOCK
  5
2B1CF
330
2B1C6
100
AcDbEntity
  8
0
 48
50.0
100
AcDbBlockBegin
  2
*D39
 70
     1
 10
0.0
 20
0.0
 30
0.0
  3
*D39
  1

  0
LINE
  5
2B31C
330
2B1C6
100
AcDbEntity
  8
寸法
 62
     0
 48
50.0
370
    -2
100
AcDbLine
 10
6810.608898091931
 20
1929.75387452127
 30
0.0
 11
7477.944647802985
 21
1929.75387452127
 31
0.0
  0
LINE
  5
2B31D
330
2B1C6
100
AcDbEntity
  8
寸法
 62
     0
 48
50.0
370
    -2
100
AcDbLine
 10
6810.608898091931
 20
1524.753874521268
 30
0.0
 11
7477.944647802985
 21
1524.753874521268
 31
0.0
  0
LINE
  5
2B31E
330
2B1C6
100
AcDbEntity
  8
寸法
 62
     0
 48
50.0
370
    -2
100
AcDbLine
 10
7417.944647802986
 20
1929.75387452127
 30
0.0
 11
7417.944647802986
 21
1524.753874521268
 31
0.0
  0
INSERT
  5
2B31F
330
2B1C6
100
AcDbEntity
  8
寸法
 62
     0
 48
50.0
370
    -2
100
AcDbBlockReference
  2
_DOTSMALL
 10
7417.944647802986
 20
1929.75387452127
 30
0.0
 41
100.0
 42
100.0
 43
100.0
 50
90.0
  0
INSERT
  5
2B320
330
2B1C6
100
AcDbEntity
  8
寸法
 62
     0
 48
50.0
370
    -2
100
AcDbBlockReference
  2
_DOTSMALL
 10
7417.944647802986
 20
1524.753874521268
 30
0.0
 41
100.0
 42
100.0
 43
100.0
 50
270.0
  0
MTEXT
  5
2B321
330
2B1C6
100
AcDbEntity
  8
寸法
 62
     7
 48
50.0
100
AcDbMText
 10
7317.944647802986
 20
1727.25387452127
 30
0.0
 40
120.0
 41
0.0
 71
     5
 72
     1
  1
\A1;180
  7
STYLE1
 11
0.0000000000000001
 21
1.0
 31
0.0
 73
     1
 44
1.0
1001
ACAD
1000
MTEXTBEGIN
1070
    73
1070
     1
1070
    44
1040
1.0
1070
    74
1070
     0
1000
MTEXTEND
  0
POINT
  5
2B322
330
2B1C6
100
AcDbEntity
  8
DEFPOINTS
 62
     0
 48
50.0
100
AcDbPoint
 10
6790.608898091931
 20
1929.75387452127
 30
0.0
  0
POINT
  5
2B323
330
2B1C6
100
AcDbEntity
  8
DEFPOINTS
 62
     0
 48
50.0
100
AcDbPoint
 10
6790.608898091931
 20
1524.753874521268
 30
0.0
  0
POINT
  5
2B324
330
2B1C6
100
AcDbEntity
  8
DEFPOINTS
 62
     0
 48
50.0
100
AcDbPoint
 10
7417.944647802986
 20
1524.753874521268
 30
0.0
  0
ENDBLK
  5
2B1D0
330
2B1C6
100
AcDbEntity
  8
0
 48
50.0
100
AcDbBlockEnd
  0
BLOCK
  5
2B1DD
330
2B1D1
100
AcDbEntity
  8
0
 48
50.0
100
AcDbBlockBegin
  2
*D40
 70
     1
 10
0.0
 20
0.0
 30
0.0
  3
*D40
  1

  0
LINE
  5
2B311
330
2B1D1
100
AcDbEntity
  8
寸法
 62
     0
 48
50.0
370
    -2
100
AcDbLine
 10
6576.60889809193
 20
1995.70387452127
 30
0.0
 11
7823.012980451768
 21
1995.703874521269
 31
0.0
  0
LINE
  5
2B312
330
2B1D1
100
AcDbEntity
  8
寸法
 62
     0
 48
50.0
370
    -2
100
AcDbLine
 10
6810.608898091931
 20
1929.75387452127
 30
0.0
 11
7823.012980451768
 21
1929.75387452127
 31
0.0
  0
LINE
  5
2B313
330
2B1D1
100
AcDbEntity
  8
寸法
 62
     0
 48
50.0
370
    -2
100
AcDbLine
 10
7763.012980451769
 20
1995.703874521269
 30
0.0
 11
7763.012980451771
 21
2095.703874521269
 31
0.0
  0
LINE
  5
2B314
330
2B1D1
100
AcDbEntity
  8
寸法
 62
     0
 48
50.0
370
    -2
100
AcDbLine
 10
7763.012980451769
 20
1929.75387452127
 30
0.0
 11
7763.012980451769
 21
1197.736067678304
 31
0.0
  0
LINE
  5
2B315
330
2B1D1
100
AcDbEntity
  8
寸法
 62
     0
 48
50.0
370
    -2
100
AcDbLine
 10
7763.012980451769
 20
1995.703874521269
 30
0.0
 11
7763.012980451769
 21
1929.75387452127
 31
0.0
  0
INSERT
  5
2B316
330
2B1D1
100
AcDbEntity
  8
寸法
 62
     0
 48
50.0
370
    -2
100
AcDbBlockReference
  2
_DOTSMALL
 10
7763.012980451769
 20
1995.703874521269
 30
0.0
 41
100.0
 42
100.0
 43
100.0
 50
270.0
  0
INSERT
  5
2B317
330
2B1D1
100
AcDbEntity
  8
寸法
 62
     0
 48
50.0
370
    -2
100
AcDbBlockReference
  2
_DOTSMALL
 10
7763.012980451769
 20
1929.75387452127
 30
0.0
 41
100.0
 42
100.0
 43
100.0
 50
90.0
  0
MTEXT
  5
2B318
330
2B1D1
100
AcDbEntity
  8
寸法
 62
     7
 48
50.0
100
AcDbMText
 10
7663.001169428148
 20
1463.744971099788
 30
0.0
 40
120.0
 41
0.0
 71
     5
 72
     1
  1
\A1;20～25
  7
STYLE1
 11
0.0000000000000001
 21
1.0
 31
0.0
 73
     1
 44
1.0
1001
ACAD
1000
MTEXTBEGIN
1070
    73
1070
     1
1070
    44
1040
1.0
1070
    74
1070
     0
1000
MTEXTEND
  0
POINT
  5
2B319
330
2B1D1
100
AcDbEntity
  8
DEFPOINTS
 62
     0
 48
50.0
100
AcDbPoint
 10
6556.60889809193
 20
1995.70387452127
 30
0.0
  0
POINT
  5
2B31A
330
2B1D1
100
AcDbEntity
  8
DEFPOINTS
 62
     0
 48
50.0
100
AcDbPoint
 10
6790.608898091931
 20
1929.75387452127
 30
0.0
  0
POINT
  5
2B31B
330
2B1D1
100
AcDbEntity
  8
DEFPOINTS
 62
     0
 48
50.0
100
AcDbPoint
 10
7763.012980451769
 20
1929.75387452127
 30
0.0
  0
ENDBLK
  5
2B1DE
330
2B1D1
100
AcDbEntity
  8
0
 48
50.0
100
AcDbBlockEnd
  0
BLOCK
  5
2B1E9
330
2B1DF
100
AcDbEntity
  8
0
 48
50.0
100
AcDbBlockBegin
  2
*D41
 70
     1
 10
0.0
 20
0.0
 30
0.0
  3
*D41
  1

  0
LINE
  5
2B340
330
2B1DF
100
AcDbEntity
  8
寸法
 62
     0
 48
50.0
370
    -2
100
AcDbLine
 10
4388.059756620437
 20
1949.75387452127
 30
0.0
 11
4388.059756620437
 21
2514.338634416746
 31
0.0
  0
LINE
  5
2B341
330
2B1DF
100
AcDbEntity
  8
寸法
 62
     0
 48
50.0
370
    -2
100
AcDbLine
 10
4148.059756620437
 20
1949.75387452127
 30
0.0
 11
4148.059756620437
 21
2514.338634416746
 31
0.0
  0
LINE
  5
2B342
330
2B1DF
100
AcDbEntity
  8
寸法
 62
     0
 48
50.0
370
    -2
100
AcDbLine
 10
4388.059756620437
 20
2454.338634416747
 30
0.0
 11
4148.059756620437
 21
2454.338634416747
 31
0.0
  0
INSERT
  5
2B343
330
2B1DF
100
AcDbEntity
  8
寸法
 62
     0
 48
50.0
370
    -2
100
AcDbBlockReference
  2
_DOTSMALL
 10
4388.059756620437
 20
2454.338634416747
 30
0.0
 41
100.0
 42
100.0
 43
100.0
  0
INSERT
  5
2B344
330
2B1DF
100
AcDbEntity
  8
寸法
 62
     0
 48
50.0
370
    -2
100
AcDbBlockReference
  2
_DOTSMALL
 10
4148.059756620437
 20
2454.338634416747
 30
0.0
 41
100.0
 42
100.0
 43
100.0
 50
180.0
  0
MTEXT
  5
2B345
330
2B1DF
100
AcDbEntity
  8
寸法
 62
     7
 48
50.0
100
AcDbMText
 10
4268.059756620437
 20
2660.37944698155
 30
0.0
 40
120.0
 41
0.0
 71
     5
 72
     1
  1
\A1;120\P(195)
  7
STYLE1
 73
     1
 44
1.0
1001
ACAD
1000
MTEXTBEGIN
1070
    73
1070
     1
1070
    44
1040
1.0
1070
    74
1070
     0
1000
MTEXTEND
  0
POINT
  5
2B346
330
2B1DF
100
AcDbEntity
  8
DEFPOINTS
 62
     0
 48
50.0
100
AcDbPoint
 10
4388.059756620437
 20
1929.75387452127
 30
0.0
  0
POINT
  5
2B347
330
2B1DF
100
AcDbEntity
  8
DEFPOINTS
 62
     0
 48
50.0
100
AcDbPoint
 10
4148.059756620437
 20
1929.75387452127
 30
0.0
  0
POINT
  5
2B348
330
2B1DF
100
AcDbEntity
  8
DEFPOINTS
 62
     0
 48
50.0
100
AcDbPoint
 10
4148.059756620437
 20
2454.338634416747
 30
0.0
  0
ENDBLK
  5
2B1EA
330
2B1DF
100
AcDbEntity
  8
0
 48
50.0
100
AcDbBlockEnd
  0
BLOCK
  5
2B1F5
330
2B1EB
100
AcDbEntity
  8
0
 48
50.0
100
AcDbBlockBegin
  2
*D42
 70
     1
 10
0.0
 20
0.0
 30
0.0
  3
*D42
  1

  0
LINE
  5
2B337
330
2B1EB
100
AcDbEntity
  8
寸法
 62
     0
 48
50.0
370
    -2
100
AcDbLine
 10
3968.059756620437
 20
1249.753874521269
 30
0.0
 11
3750.034364454864
 21
1249.753874521269
 31
0.0
  0
LINE
  5
2B338
330
2B1EB
100
AcDbEntity
  8
寸法
 62
     0
 48
50.0
370
    -2
100
AcDbLine
 10
3868.059756620442
 20
949.7538745212692
 30
0.0
 11
3750.034364454864
 21
949.7538745212693
 31
0.0
  0
LINE
  5
2B339
330
2B1EB
100
AcDbEntity
  8
寸法
 62
     0
 48
50.0
370
    -2
100
AcDbLine
 10
3810.034364454864
 20
1249.753874521269
 30
0.0
 11
3810.034364454864
 21
949.7538745212693
 31
0.0
  0
INSERT
  5
2B33A
330
2B1EB
100
AcDbEntity
  8
寸法
 62
     0
 48
50.0
370
    -2
100
AcDbBlockReference
  2
_DOTSMALL
 10
3810.034364454864
 20
1249.753874521269
 30
0.0
 41
100.0
 42
100.0
 43
100.0
 50
90.0
  0
INSERT
  5
2B33B
330
2B1EB
100
AcDbEntity
  8
寸法
 62
     0
 48
50.0
370
    -2
100
AcDbBlockReference
  2
_DOTSMALL
 10
3810.034364454864
 20
949.7538745212693
 30
0.0
 41
100.0
 42
100.0
 43
100.0
 50
270.0
  0
MTEXT
  5
2B33C
330
2B1EB
100
AcDbEntity
  8
寸法
 62
     7
 48
50.0
100
AcDbMText
 10
3710.034364454864
 20
1099.753874521269
 30
0.0
 40
120.0
 41
0.0
 71
     5
 72
     1
  1
\A1;150
  7
STYLE1
 11
0.0000000000000001
 21
1.0
 31
0.0
 73
     1
 44
1.0
1001
ACAD
1000
MTEXTBEGIN
1070
    73
1070
     1
1070
    44
1040
1.0
1070
    74
1070
     0
1000
MTEXTEND
  0
POINT
  5
2B33D
330
2B1EB
100
AcDbEntity
  8
DEFPOINTS
 62
     0
 48
50.0
100
AcDbPoint
 10
3988.059756620437
 20
1249.753874521269
 30
0.0
  0
POINT
  5
2B33E
330
2B1EB
100
AcDbEntity
  8
DEFPOINTS
 62
     0
 48
50.0
100
AcDbPoint
 10
3888.059756620442
 20
949.7538745212692
 30
0.0
  0
POINT
  5
2B33F
330
2B1EB
100
AcDbEntity
  8
DEFPOINTS
 62
     0
 48
50.0
100
AcDbPoint
 10
3810.034364454864
 20
949.7538745212693
 30
0.0
  0
ENDBLK
  5
2B1F6
330
2B1EB
100
AcDbEntity
  8
0
 48
50.0
100
AcDbBlockEnd
  0
ENDSEC
  0
SECTION
  2
ENTITIES
  0
MTEXT
  5
763F
330
747D
100
AcDbEntity
  8
0
100
AcDbMText
 10
302.846345836809
 20
280.1983726409901
 30
0.0
 40
3.5
 41
5.323721266742722
 71
     1
 72
     5
  1

  7
MSMINCHO
 73
     1
 44
1.0
1001
ACAD
1000
MTEXTBEGIN
1070
    73
1070
     1
1070
    44
1040
1.0
1070
    74
1070
     0
1000
MTEXTEND
  0
LINE
  5
10B57
330
747D
100
AcDbEntity
  8
補助
  6
PHANTOM
 62
   230
 48
50.0
100
AcDbLine
 10
139.9999999999995
 20
11409.6
 30
0.0
 11
16307.2
 21
11409.6
 31
0.0
  0
LINE
  5
10B59
330
747D
100
AcDbEntity
  8
仕様書枠
  6
Continuous
 48
50.0
100
AcDbLine
 10
13107.2
 20
1200.0
 30
0.0
 11
13107.2
 21
-0.0000000000000729
 31
0.0
  0
LINE
  5
10B5D
330
747D
100
AcDbEntity
  8
仕様書枠
 48
50.0
100
AcDbLine
 10
140.0
 20
0.0
 30
0.0
 11
16307.2
 21
-0.0000000000000909
 31
0.0
  0
LINE
  5
10B5E
330
747D
100
AcDbEntity
  8
補助
  6
PHANTOM
 62
   230
 48
50.0
100
AcDbLine
 10
16307.2
 20
11409.6
 30
0.0
 11
16307.2
 21
1200.0
 31
0.0
  0
LINE
  5
10B6C
330
747D
100
AcDbEntity
  8
仕様書枠
 48
50.0
100
AcDbLine
 10
13107.2
 20
1200.0
 30
0.0
 11
16307.2
 21
1200.0
 31
0.0
  0
TEXT
  5
10B73
330
747D
100
AcDbEntity
  8
文字
 62
     7
 48
50.0
100
AcDbText
 10
13162.9790565769
 20
895.0906074299405
 30
0.0
 40
200.0
  1
基 礎 図
  7
STYLE2
100
AcDbText
  0
LINE
  5
10B7B
330
747D
100
AcDbEntity
  8
仕様書枠
 48
50.0
100
AcDbLine
 10
13107.2
 20
800.0
 30
0.0
 11
14251.2
 21
800.0
 31
0.0
  0
LINE
  5
10B88
330
747D
100
AcDbEntity
  8
仕様書枠
  6
Continuous
 48
50.0
100
AcDbLine
 10
14251.2
 20
1200.0
 30
0.0
 11
14251.2
 21
800.0
 31
0.0
  0
LINE
  5
16462
330
747D
100
AcDbEntity
  8
仕様書枠
 48
50.0
100
AcDbLine
 10
16307.2
 20
1200.0
 30
0.0
 11
16307.2
 21
-0.0000000000000909
 31
0.0
  0
LINE
  5
1903B
330
747D
100
AcDbEntity
  8
補助
  6
PHANTOM
 62
   230
 48
50.0
100
AcDbLine
 10
140.0
 20
0.0
 30
0.0
 11
139.9999999999995
 21
11409.6
 31
0.0
  0
LEADER
  5
1AC27
330
747D
100
AcDbEntity
  8
寸法
 48
50.0
100
AcDbLeader
  3
INABA_S40G
 73
     0
 74
     0
 75
     1
 40
120.0
 41
720.0000000000001
 76
     3
 10
11278.695499615
 20
7202.015621675002
 30
0.0
 10
11445.46907400128
 20
6926.001708107171
 30
0.0
 10
11545.46907400128
 20
6926.001708107171
 30
0.0
340
1AC28
1001
ACAD
1000
DSTYLE
1002
{
1070
   341
1005
0
1002
}
  0
MTEXT
  5
1AC28
102
{ACAD_REACTORS
330
1AC27
102
}
330
747D
100
AcDbEntity
  8
部品1
 62
     7
 48
50.0
100
AcDbMText
 10
12305.46907400128
 20
7026.001708107171
 30
0.0
 40
120.0
 41
0.0
 71
     6
 72
     1
  1
\A1;床下換気口
  7
STYLE1
 73
     1
 44
1.0
1001
ACAD
1000
MTEXTBEGIN
1070
    73
1070
     1
1070
    44
1040
1.0
1070
    74
1070
     0
1000
MTEXTEND
  0
TEXT
  5
1AC29
330
747D
100
AcDbEntity
  8
部品1
 48
50.0
100
AcDbText
 10
11622.50116389398
 20
5382.722549756397
 30
0.0
 40
80.0
  1
(a=45,b=55,c=75)
  7
STYLE1
100
AcDbText
  0
TEXT
  5
1AC2A
330
747D
100
AcDbEntity
  8
部品1
 48
50.0
100
AcDbText
 10
11463.92215513968
 20
5489.567770625152
 30
0.0
 40
80.0
  1
※a,b,cは屋根の出幅です。
  7
STYLE1
100
AcDbText
  0
MTEXT
  5
1AC2B
102
{ACAD_REACTORS
330
1AC2C
102
}
330
747D
100
AcDbEntity
  8
部品1
 62
     7
 48
50.0
100
AcDbMText
 10
12261.70935112828
 20
5668.878457558228
 30
0.0
 40
120.0
 41
0.0
 71
     6
 72
     1
  1
\A1;屋根の外寸
  7
STYLE1
 73
     1
 44
1.0
1001
ACAD
1000
MTEXTBEGIN
1070
    73
1070
     1
1070
    44
1040
1.0
1070
    74
1070
     0
1000
MTEXTEND
  0
LEADER
  5
1AC2C
330
747D
100
AcDbEntity
  8
寸法
 48
50.0
100
AcDbLeader
  3
INABA_S40G
 73
     0
 74
     0
 75
     1
 40
120.0
 41
672.0
 76
     3
 10
11323.76933893624
 20
5842.767801021802
 30
0.0
 10
11449.70935112828
 20
5568.878457558227
 30
0.0
 10
11549.70935112828
 20
5568.878457558227
 30
0.0
340
1AC2B
1001
ACAD
1000
DSTYLE
1002
{
1070
   341
1005
0
1002
}
  0
TEXT
  5
1C7A1
330
747D
100
AcDbEntity
  8
文字
 62
     7
 48
50.0
100
AcDbText
 10
13188.16259899338
 20
79.80631269190417
 30
0.0
 40
80.0
  1
※布基礎には換気口を設けてください。
  7
STYLE2
100
AcDbText
  0
TEXT
  5
1C7E7
330
747D
100
AcDbEntity
  8
文字
 62
     7
 48
50.0
100
AcDbText
 10
13188.16259899338
 20
246.7109242801889
 30
0.0
 40
80.0
  1
※寒冷地等は地域の実情に合わせた基礎にして下さい。
  7
STYLE2
100
AcDbText
  0
TEXT
  5
1C7E8
330
747D
100
AcDbEntity
  8
文字
 62
     7
 48
50.0
100
AcDbText
 10
14380.98101305248
 20
499.5983841039506
 30
0.0
 40
160.0
  1
ＮＸＮ－１８８Ｈ
  7
STYLE2
100
AcDbText
  0
TEXT
  5
1C7E9
330
747D
100
AcDbEntity
  8
文字
 62
     7
 48
50.0
100
AcDbText
 10
14641.2525855784
 20
871.1744590657927
 30
0.0
 40
100.0
  1
～一般型・多雪地型～
  7
STYLE2
100
AcDbText
  0
TEXT
  5
1C7EC
330
747D
100
AcDbEntity
  8
文字
 62
     7
 48
50.0
100
AcDbText
 10
14524.131837222
 20
1031.557706291229
 30
0.0
 40
100.0
  1
      <縮尺> S=1/40
  7
STYLE2
100
AcDbText
  0
TEXT
  5
1C7ED
330
747D
100
AcDbEntity
  8
文字
 62
     7
 48
50.0
100
AcDbText
 10
13201.43669998441
 20
477.2740661031257
 30
0.0
 40
160.0
  1
機種名
  7
STYLE2
100
AcDbText
  0
LINE
  5
1C7EF
330
747D
100
AcDbEntity
  8
文字
 62
     7
 48
50.0
100
AcDbLine
 10
13187.2
 20
400.0
 30
0.0
 11
16227.2
 21
400.0
 31
0.0
  0
MTEXT
  5
1D2D5
102
{ACAD_REACTORS
330
1D2D6
102
}
330
747D
100
AcDbEntity
  8
部品1
 62
     7
 48
50.0
100
AcDbMText
 10
12473.99523070988
 20
9003.315073662973
 30
0.0
 40
120.0
 41
0.0
 71
     6
 72
     1
  1
アンカーボルト
  7
STYLE1
 73
     1
 44
1.0
1001
ACAD
1000
MTEXTBEGIN
1070
    73
1070
     1
1070
    44
1040
1.0
1070
    74
1070
     0
1000
MTEXTEND
  0
LEADER
  5
1D2D6
330
747D
100
AcDbEntity
  8
寸法
 48
50.0
100
AcDbLeader
  3
INABA_S40G
 73
     0
 74
     0
 75
     1
 40
120.0
 41
994.3492424049171
 76
     3
 10
11155.680085757
 20
8595.021295451898
 30
0.0
 10
11339.64598830496
 20
8903.315073662971
 30
0.0
 10
11439.64598830496
 20
8903.315073662971
 30
0.0
340
1D2D5
1001
ACAD
1000
DSTYLE
1002
{
1070
   341
1005
0
1002
}
  0
LINE
  5
20992
330
747D
100
AcDbEntity
  8
想像線
 48
10.0
100
AcDbLine
 10
11323.6
 20
5602.813451093207
 30
0.0
 11
11323.6
 21
8792.813451093188
 31
0.0
  0
DIMENSION
  5
26236
330
747D
100
AcDbEntity
  8
寸法
 48
50.0
100
AcDbDimension
  2
*D1
 10
5168.600000000001
 20
5097.968436750998
 30
0.0
 11
5395.100000000001
 21
5197.968436750998
 31
0.0
 70
    32
 71
     5
 42
452.9999999999991
  3
INABA_S40G
100
AcDbAlignedDimension
 13
5621.6
 23
5582.813451093177
 33
0.0
 14
5168.600000000001
 24
5657.813451093189
 34
0.0
100
AcDbRotatedDimension
1001
ACAD
1000
DSTYLE
1002
{
1070
   341
1005
0
1002
}
  0
DIMENSION
  5
26F00
330
747D
100
AcDbEntity
  8
寸法
 48
50.0
100
AcDbDimension
  2
*D2
 10
8043.202780124335
 20
5657.813451093213
 30
0.0
 11
8043.202780124333
 21
5049.328169718973
 31
0.0
 70
   160
  1
扉の出<>
 71
     5
 42
75.00000000000182
  3
INABA_S40G
100
AcDbAlignedDimension
 13
7776.600000000001
 23
5582.813451093212
 33
0.0
 14
7776.600000000009
 24
5657.813451093213
 34
0.0
 50
90.0
100
AcDbRotatedDimension
1001
ACAD
1000
DSTYLE
1002
{
1070
   341
1005
0
1002
}
  0
DIMENSION
  5
26F1A
330
747D
100
AcDbEntity
  8
寸法
 48
50.0
100
AcDbDimension
  2
*D3
 10
4427.164931848213
 20
8717.813451093189
 30
0.0
 11
4327.164931848212
 21
8755.313451093192
 31
0.0
 70
    32
  1
c
 71
     5
 42
75.00000000000546
  3
INABA_S40G
100
AcDbAlignedDimension
 13
4672.657733986179
 23
8792.813451093193
 33
0.0
 14
5168.600000000002
 24
8717.813451093189
 34
0.0
 50
90.0
100
AcDbRotatedDimension
1001
ACAD
1000
DSTYLE
1002
{
1070
   341
1005
0
1002
}
  0
DIMENSION
  5
26F3F
330
747D
100
AcDbEntity
  8
寸法
 48
50.0
100
AcDbDimension
  2
*D4
 10
4427.16493184821
 20
5602.813451093211
 30
0.0
 11
4327.164931848209
 21
5630.313451093201
 31
0.0
 70
    32
  1
b
 71
     5
 42
54.99999999997817
  3
INABA_S40G
100
AcDbAlignedDimension
 13
5175.050294581424
 23
5657.813451093189
 33
0.0
 14
4672.657733986179
 24
5602.813451093211
 34
0.0
 50
90.0
100
AcDbRotatedDimension
1001
ACAD
1000
DSTYLE
1002
{
1070
   341
1005
0
1002
}
  0
DIMENSION
  5
26F64
330
747D
100
AcDbEntity
  8
寸法
 48
50.0
100
AcDbDimension
  2
*D5
 10
11323.6
 20
9676.033773152109
 30
0.0
 11
11594.77462120245
 21
9676.033773152109
 31
0.0
 70
   160
  1
a
 71
     5
 42
45.0
  3
INABA_S40G
100
AcDbAlignedDimension
 13
11278.6
 23
8717.813451093187
 33
0.0
 14
11323.6
 24
9463.57307763527
 34
0.0
100
AcDbRotatedDimension
1001
ACAD
1000
DSTYLE
1002
{
1070
   341
1005
0
1002
}
  0
DIMENSION
  5
26F7E
330
747D
100
AcDbEntity
  8
寸法
 48
50.0
100
AcDbDimension
  2
*D6
 10
5168.600000000001
 20
9676.033773152109
 30
0.0
 11
4852.425378797541
 21
9676.033773152109
 31
0.0
 70
   160
  1
a
 71
     5
 42
44.99999999999454
  3
INABA_S40G
100
AcDbAlignedDimension
 13
5123.600000000006
 23
9463.57307763527
 33
0.0
 14
5168.600000000001
 24
8717.813451093187
 34
0.0
100
AcDbRotatedDimension
1001
ACAD
1000
DSTYLE
1002
{
1070
   341
1005
0
1002
}
  0
DIMENSION
  5
2701E
330
747D
100
AcDbEntity
  8
寸法
 48
50.0
100
AcDbDimension
  2
*D7
 10
5889.18320630424
 20
5777.813451093192
 30
0.0
 11
5889.183206304239
 21
5344.118509889284
 31
0.0
 70
   160
 71
     5
 42
195.0000000000145
  3
INABA_S40G
100
AcDbAlignedDimension
 13
5621.6
 23
5582.813451093177
 33
0.0
 14
5621.6
 24
5777.813451093192
 34
0.0
 50
90.0
100
AcDbRotatedDimension
1001
ACAD
1000
DSTYLE
1002
{
1070
   341
1005
0
1002
}
  0
LINE
  5
28230
102
{ACAD_REACTORS
330
2B2E8
102
}
330
747D
100
AcDbEntity
  8
部品1
 48
50.0
100
AcDbLine
 10
11048.6
 20
8597.813451093186
 30
0.0
 11
8235.600000000001
 21
8597.813451093189
 31
0.0
  0
DIMENSION
  5
28231
330
747D
100
AcDbEntity
  8
寸法
 48
50.0
100
AcDbDimension
  2
*D8
 10
8105.6
 20
9463.573077635272
 30
0.0
 11
9630.600000000001
 21
9563.573077635272
 31
0.0
 70
    32
 71
     5
 42
3050.0
  3
INABA_S40G
100
AcDbAlignedDimension
 13
11155.6
 23
8644.81345109319
 33
0.0
 14
8105.6
 24
8644.81345109319
 34
0.0
100
AcDbRotatedDimension
1001
ACAD
1000
DSTYLE
1002
{
1070
   341
1005
0
1002
}
  0
DIMENSION
  5
28232
330
747D
100
AcDbEntity
  8
寸法
 48
50.0
100
AcDbDimension
  2
*D9
 10
8670.14438614211
 20
5777.813451093198
 30
0.0
 11
8670.144386142109
 21
5334.981377750104
 31
0.0
 70
   160
 71
     5
 42
119.9999999999818
  3
INABA_S40G
100
AcDbAlignedDimension
 13
8235.600000000001
 23
5657.813451093216
 33
0.0
 14
8235.600000000001
 24
5777.813451093198
 34
0.0
 50
90.0
100
AcDbRotatedDimension
1001
ACAD
1000
DSTYLE
1002
{
1070
   341
1005
0
1002
}
  0
DIMENSION
  5
28233
330
747D
100
AcDbEntity
  8
寸法
 48
50.0
100
AcDbDimension
  2
*D10
 10
8670.14438614211
 20
5887.813451093207
 30
0.0
 11
8670.144386142109
 21
6123.860695187697
 31
0.0
 70
   160
 71
     5
 42
110.0000000000082
  3
INABA_S40G
100
AcDbAlignedDimension
 13
8235.600000000001
 23
5777.813451093198
 33
0.0
 14
8235.600000000001
 24
5887.813451093207
 34
0.0
 50
90.0
100
AcDbRotatedDimension
1001
ACAD
1000
DSTYLE
1002
{
1070
   341
1005
0
1002
}
  0
LINE
  5
28234
102
{ACAD_REACTORS
330
2B2E8
102
}
330
747D
100
AcDbEntity
  8
部品1
 48
50.0
100
AcDbLine
 10
11278.6
 20
5657.813451093207
 30
0.0
 11
7776.600000000001
 21
5657.813451093189
 31
0.0
  0
LINE
  5
28235
102
{ACAD_REACTORS
330
2B2E8
102
}
330
747D
100
AcDbEntity
  8
部品1
 48
50.0
100
AcDbLine
 10
11048.6
 20
5777.813451093206
 30
0.0
 11
8235.600000000001
 21
5777.8134510932
 31
0.0
  0
DIMENSION
  5
28236
330
747D
100
AcDbEntity
  8
寸法
 48
50.0
100
AcDbDimension
  2
*D11
 10
8223.600000000001
 20
9244.723216741517
 30
0.0
 11
8622.6
 21
9344.723216741517
 31
0.0
 70
    32
 71
     5
 42
798.0
  3
INABA_S40G
100
AcDbAlignedDimension
 13
9021.600000000001
 23
8087.813451093188
 33
0.0
 14
8223.600000000001
 24
8087.813451093188
 34
0.0
100
AcDbRotatedDimension
1001
ACAD
1000
DSTYLE
1002
{
1070
   341
1005
0
1002
}
  0
DIMENSION
  5
28237
330
747D
100
AcDbEntity
  8
寸法
 48
50.0
100
AcDbDimension
  2
*D12
 10
11278.6
 20
9676.033773152109
 30
0.0
 11
8223.600000000001
 21
9776.033773152109
 31
0.0
 70
    32
 71
     5
 42
6109.999999999999
  3
INABA_S40G
100
AcDbAlignedDimension
 13
5168.600000000001
 23
8717.813451093189
 33
0.0
 14
11278.6
 24
8717.813451093189
 34
0.0
100
AcDbRotatedDimension
1001
ACAD
1000
DSTYLE
1002
{
1070
   341
1005
0
1002
}
  0
LINE
  5
28238
102
{ACAD_REACTORS
330
2B2E8
102
}
330
747D
100
AcDbEntity
  8
部品1
 48
50.0
100
AcDbLine
 10
11278.6
 20
8717.813451093189
 30
0.0
 11
5168.600000000001
 21
8717.813451093189
 31
0.0
  0
LINE
  5
2823D
102
{ACAD_REACTORS
330
2B2E8
102
}
330
747D
100
AcDbEntity
  8
部品1
 48
50.0
100
AcDbLine
 10
6598.600000000002
 20
5777.813451093194
 30
0.0
 11
6598.600000000002
 21
5582.813451093185
 31
0.0
  0
LINE
  5
2823E
102
{ACAD_REACTORS
330
2B2E8
102
}
330
747D
100
AcDbEntity
  8
部品1
 48
50.0
100
AcDbLine
 10
6798.600000000002
 20
5777.813451093196
 30
0.0
 11
6798.600000000002
 21
5582.813451093185
 31
0.0
  0
DIMENSION
  5
2823F
330
747D
100
AcDbEntity
  8
寸法
 48
50.0
100
AcDbDimension
  2
*D13
 10
4672.657733986177
 20
5657.813451093189
 30
0.0
 11
4672.657733986176
 21
5322.282502250597
 31
0.0
 70
   160
 71
     5
 42
123.0000000000027
  3
INABA_S40G
100
AcDbAlignedDimension
 13
5241.600000000008
 23
5780.813451093191
 33
0.0
 14
5168.600000000001
 24
5657.813451093189
 34
0.0
 50
90.0
100
AcDbRotatedDimension
1001
ACAD
1000
DSTYLE
1002
{
1070
   341
1005
0
1002
}
  0
LINE
  5
28241
102
{ACAD_REACTORS
330
2B2E8
102
}
330
747D
100
AcDbEntity
  8
部品1
 48
50.0
100
AcDbLine
 10
5168.600000000001
 20
5657.813451093189
 30
0.0
 11
5168.600000000001
 21
8717.813451093189
 31
0.0
  0
DIMENSION
  5
28242
330
747D
100
AcDbEntity
  8
寸法
 48
50.0
100
AcDbDimension
  2
*D14
 10
4427.164931848209
 20
5657.813451093189
 30
0.0
 11
4327.164931848209
 21
7187.81345109319
 31
0.0
 70
    32
 71
     5
 42
3060.000000000001
  3
INABA_S40G
100
AcDbAlignedDimension
 13
5168.600000000001
 23
8717.813451093189
 33
0.0
 14
5168.600000000001
 24
5657.813451093189
 34
0.0
 50
90.0
100
AcDbRotatedDimension
1001
ACAD
1000
DSTYLE
1002
{
1070
   341
1005
0
1002
}
  0
LINE
  5
28247
102
{ACAD_REACTORS
330
2B2E8
102
}
330
747D
100
AcDbEntity
  8
部品1
 48
50.0
100
AcDbLine
 10
7776.600000000001
 20
5582.813451093192
 30
0.0
 11
5621.6
 21
5582.813451093177
 31
0.0
  0
LINE
  5
2824A
330
747D
100
AcDbEntity
  8
部品1
 48
50.0
100
AcDbLine
 10
5168.600000000001
 20
5657.813451093189
 30
0.0
 11
5621.6
 21
5657.813451093189
 31
0.0
  0
LINE
  5
28255
330
747D
100
AcDbEntity
  8
部品1
 48
50.0
100
AcDbLine
 10
5621.6
 20
5582.813451093195
 30
0.0
 11
5621.6
 21
5657.813451093177
 31
0.0
  0
LINE
  5
28422
330
747D
100
AcDbEntity
  8
部品1
 48
50.0
100
AcDbLine
 10
7776.600000000001
 20
5582.813451093195
 30
0.0
 11
7776.600000000001
 21
5657.81345109319
 31
0.0
  0
DIMENSION
  5
28454
330
747D
100
AcDbEntity
  8
寸法
 48
50.0
100
AcDbDimension
  2
*D15
 10
5168.600000000001
 20
9463.573077635272
 30
0.0
 11
4895.493398282201
 21
9463.573077635272
 31
0.0
 70
   160
 71
     5
 42
122.9999999999991
  3
INABA_S40G
100
AcDbAlignedDimension
 13
5291.6
 23
8644.81345109319
 33
0.0
 14
5168.600000000001
 24
8717.813451093189
 34
0.0
100
AcDbRotatedDimension
1001
ACAD
1000
DSTYLE
1002
{
1070
   341
1005
0
1002
}
  0
DIMENSION
  5
28456
330
747D
100
AcDbEntity
  8
寸法
 48
50.0
100
AcDbDimension
  2
*D16
 10
4672.657733986177
 20
8594.813451093189
 30
0.0
 11
4672.657733986176
 21
8990.92005281099
 31
0.0
 70
   160
 71
     5
 42
123.0
  3
INABA_S40G
100
AcDbAlignedDimension
 13
5168.600000000001
 23
8717.813451093189
 33
0.0
 14
5241.6
 24
8594.813451093189
 34
0.0
 50
90.0
100
AcDbRotatedDimension
1001
ACAD
1000
DSTYLE
1002
{
1070
   341
1005
0
1002
}
  0
DIMENSION
  5
28457
330
747D
100
AcDbEntity
  8
寸法
 48
50.0
100
AcDbDimension
  2
*D17
 10
5168.600000000001
 20
9244.723216741517
 30
0.0
 11
5570.100000000001
 21
9344.723216741517
 31
0.0
 70
    32
 71
     5
 42
803.0
  3
INABA_S40G
100
AcDbAlignedDimension
 13
5971.600000000002
 23
8087.813451093188
 33
0.0
 14
5168.600000000001
 24
8717.813451093189
 34
0.0
100
AcDbRotatedDimension
1001
ACAD
1000
DSTYLE
1002
{
1070
   341
1005
0
1002
}
  0
DIMENSION
  5
28458
330
747D
100
AcDbEntity
  8
寸法
 48
50.0
100
AcDbDimension
  2
*D18
 10
4672.657733986176
 20
5780.813451093191
 30
0.0
 11
4572.645922962553
 21
7187.813451093191
 31
0.0
 70
    32
 71
     5
 42
2813.999999999998
  3
INABA_S40G
100
AcDbAlignedDimension
 13
5241.6
 23
8594.813451093189
 33
0.0
 14
5241.600000000008
 24
5780.813451093191
 34
0.0
 50
90.0
100
AcDbRotatedDimension
1001
ACAD
1000
DSTYLE
1002
{
1070
   341
1005
0
1002
}
  0
DIMENSION
  5
28459
330
747D
100
AcDbEntity
  8
寸法
 48
50.0
100
AcDbDimension
  2
*D19
 10
7425.6
 20
9244.723216741517
 30
0.0
 11
7824.600000000001
 21
9344.723216741517
 31
0.0
 70
    32
 71
     5
 42
798.0
  3
INABA_S40G
100
AcDbAlignedDimension
 13
8223.600000000001
 23
8087.813451093188
 33
0.0
 14
7425.6
 24
8087.813451093188
 34
0.0
100
AcDbRotatedDimension
1001
ACAD
1000
DSTYLE
1002
{
1070
   341
1005
0
1002
}
  0
DIMENSION
  5
2845A
330
747D
100
AcDbEntity
  8
寸法
 48
50.0
100
AcDbDimension
  2
*D20
 10
6698.6
 20
9244.723216741517
 30
0.0
 11
7062.1
 21
9344.735027765137
 31
0.0
 70
    32
 71
     5
 42
727.0
  3
INABA_S40G
100
AcDbAlignedDimension
 13
7425.6
 23
8087.813451093188
 33
0.0
 14
6698.6
 24
8087.813451093188
 34
0.0
100
AcDbRotatedDimension
1001
ACAD
1000
DSTYLE
1002
{
1070
   341
1005
0
1002
}
  0
DIMENSION
  5
2845B
330
747D
100
AcDbEntity
  8
寸法
 48
50.0
100
AcDbDimension
  2
*D21
 10
5615.307249876098
 20
8717.813451093187
 30
0.0
 11
5615.307249876098
 21
8995.896994366075
 31
0.0
 70
   160
 71
     5
 42
120.0
  3
INABA_S40G
100
AcDbAlignedDimension
 13
5398.6
 23
8597.813451093186
 33
0.0
 14
5398.600000000002
 24
8717.813451093187
 34
0.0
 50
90.0
100
AcDbRotatedDimension
1001
ACAD
1000
DSTYLE
1002
{
1070
   341
1005
0
1002
}
  0
DIMENSION
  5
2845C
330
747D
100
AcDbEntity
  8
寸法
 48
50.0
100
AcDbDimension
  2
*D22
 10
5291.6
 20
9463.573077635272
 30
0.0
 11
6698.6
 21
9563.584888658894
 31
0.0
 70
    32
 71
     5
 42
2814.0
  3
INABA_S40G
100
AcDbAlignedDimension
 13
8105.6
 23
8644.81345109319
 33
0.0
 14
5291.6
 24
8644.81345109319
 34
0.0
100
AcDbRotatedDimension
1001
ACAD
1000
DSTYLE
1002
{
1070
   341
1005
0
1002
}
  0
DIMENSION
  5
2845D
330
747D
100
AcDbEntity
  8
寸法
 48
50.0
100
AcDbDimension
  2
*D23
 10
5971.600000000002
 20
9244.723216741517
 30
0.0
 11
6335.1
 21
9344.735027765137
 31
0.0
 70
    32
 71
     5
 42
726.999999999999
  3
INABA_S40G
100
AcDbAlignedDimension
 13
6698.6
 23
8087.813451093188
 33
0.0
 14
5971.600000000002
 24
8087.813451093188
 34
0.0
100
AcDbRotatedDimension
1001
ACAD
1000
DSTYLE
1002
{
1070
   341
1005
0
1002
}
  0
LINE
  5
2845E
102
{ACAD_REACTORS
330
2B2E8
102
}
330
747D
100
AcDbEntity
  8
部品1
 48
50.0
100
AcDbLine
 10
7975.6
 20
5777.813451093198
 30
0.0
 11
5398.6
 21
5777.813451093192
 31
0.0
  0
LINE
  5
2845F
102
{ACAD_REACTORS
330
2B2E8
102
}
330
747D
100
AcDbEntity
  8
部品1
 48
50.0
100
AcDbLine
 10
7975.6
 20
8597.813451093189
 30
0.0
 11
5398.6
 21
8597.813451093189
 31
0.0
  0
LINE
  5
28460
102
{ACAD_REACTORS
330
2B2E8
102
}
330
747D
100
AcDbEntity
  8
部品1
 48
50.0
100
AcDbLine
 10
5288.6
 20
5887.813451093189
 30
0.0
 11
5288.6
 21
8487.813451093186
 31
0.0
  0
LINE
  5
28467
330
747D
100
AcDbEntity
  8
部品1
 48
50.0
100
AcDbLine
 10
5398.6
 20
5887.813451093192
 30
0.0
 11
5288.6
 21
5887.813451093191
 31
0.0
  0
CIRCLE
  5
28468
330
747D
100
AcDbEntity
  8
部品1
 48
50.0
100
AcDbCircle
 10
5291.600000000006
 20
5780.813451093191
 30
0.0
 40
35.0
  0
LINE
  5
28469
330
747D
100
AcDbEntity
  8
センター
 48
2.0
100
AcDbLine
 10
5291.600000000006
 20
5830.813451093192
 30
0.0
 11
5291.600000000006
 21
5730.813451093189
 31
0.0
  0
LINE
  5
2846A
330
747D
100
AcDbEntity
  8
センター
 48
2.0
100
AcDbLine
 10
5241.600000000008
 20
5780.813451093191
 30
0.0
 11
5341.600000000006
 21
5780.813451093191
 31
0.0
  0
LINE
  5
2846B
330
747D
100
AcDbEntity
  8
部品1
 48
50.0
100
AcDbLine
 10
5398.6
 20
5777.813451093191
 30
0.0
 11
5398.6
 21
5887.813451093192
 31
0.0
  0
LINE
  5
2846C
102
{ACAD_REACTORS
330
2B2E8
102
}
330
747D
100
AcDbEntity
  8
部品1
 48
50.0
100
AcDbLine
 10
5288.6
 20
7287.813451093187
 30
0.0
 11
5168.599999999998
 21
7287.813451093187
 31
0.0
  0
LINE
  5
2846D
102
{ACAD_REACTORS
330
2B2E8
102
}
330
747D
100
AcDbEntity
  8
部品1
 48
50.0
100
AcDbLine
 10
5288.6
 20
7087.813451093187
 30
0.0
 11
5168.599999999998
 21
7087.813451093187
 31
0.0
  0
DIMENSION
  5
2847A
330
747D
100
AcDbEntity
  8
寸法
 48
50.0
100
AcDbDimension
  2
*D24
 10
5615.307249876098
 20
8487.813451093186
 30
0.0
 11
5615.307249876098
 21
8147.754395975075
 31
0.0
 70
   160
 71
     5
 42
110.0000000000018
  3
INABA_S40G
100
AcDbAlignedDimension
 13
5398.6
 23
8597.813451093189
 33
0.0
 14
5398.6
 24
8487.813451093186
 34
0.0
 50
90.0
100
AcDbRotatedDimension
1001
ACAD
1000
DSTYLE
1002
{
1070
   341
1005
0
1002
}
  0
LINE
  5
2847D
330
747D
100
AcDbEntity
  8
部品1
 48
50.0
100
AcDbLine
 10
5398.599999999999
 20
8487.813451093186
 30
0.0
 11
5398.6
 21
8597.813451093189
 31
0.0
  0
CIRCLE
  5
2847E
330
747D
100
AcDbEntity
  8
部品1
 48
50.0
100
AcDbCircle
 10
5291.6
 20
8594.813451093189
 30
0.0
 40
35.0
  0
LINE
  5
2847F
330
747D
100
AcDbEntity
  8
センター
 48
2.0
100
AcDbLine
 10
5291.6
 20
8644.81345109319
 30
0.0
 11
5291.6
 21
8544.813451093189
 31
0.0
  0
LINE
  5
28480
330
747D
100
AcDbEntity
  8
部品1
 48
50.0
100
AcDbLine
 10
5398.599999999999
 20
8487.813451093186
 30
0.0
 11
5288.6
 21
8487.813451093186
 31
0.0
  0
LINE
  5
28481
330
747D
100
AcDbEntity
  8
部品1
 48
50.0
100
AcDbLine
 10
5567.928907166848
 20
8717.813451093185
 30
0.0
 11
5168.600000000001
 21
8717.813451093189
 31
0.0
  0
LINE
  5
28482
330
747D
100
AcDbEntity
  8
センター
 48
2.0
100
AcDbLine
 10
5241.6
 20
8594.813451093189
 30
0.0
 11
5341.6
 21
8594.813451093189
 31
0.0
  0
LINE
  5
2848A
102
{ACAD_REACTORS
330
2B2E8
102
}
330
747D
100
AcDbEntity
  8
部品1
 48
50.0
100
AcDbLine
 10
6798.6
 20
8717.813451093189
 30
0.0
 11
6798.6
 21
8597.813451093191
 31
0.0
  0
LINE
  5
2848B
102
{ACAD_REACTORS
330
2B2E8
102
}
330
747D
100
AcDbEntity
  8
部品1
 48
50.0
100
AcDbLine
 10
6598.600000000002
 20
8717.813451093189
 30
0.0
 11
6598.600000000002
 21
8597.813451093191
 31
0.0
  0
DIMENSION
  5
28493
330
747D
100
AcDbEntity
  8
寸法
 48
50.0
100
AcDbDimension
  2
*D25
 10
7975.6
 20
6064.435076072772
 30
0.0
 11
8105.6
 21
6064.435076072772
 31
0.0
 70
   160
 71
     5
 42
260.0
  3
INABA_S40G
100
AcDbAlignedDimension
 13
8235.600000000001
 23
5887.813451093207
 33
0.0
 14
7975.6
 24
5887.813451093207
 34
0.0
100
AcDbRotatedDimension
1001
ACAD
1000
DSTYLE
1002
{
1070
   341
1005
0
1002
}
  0
LINE
  5
28494
330
747D
100
AcDbEntity
  8
部品1
 48
50.0
100
AcDbLine
 10
8235.600000000001
 20
5887.813451093207
 30
0.0
 11
7975.6
 21
5887.813451093207
 31
0.0
  0
LINE
  5
28495
330
747D
100
AcDbEntity
  8
部品1
 48
50.0
100
AcDbLine
 10
7975.6
 20
5777.813451093198
 30
0.0
 11
7975.6
 21
5887.813451093207
 31
0.0
  0
LINE
  5
28496
330
747D
100
AcDbEntity
  8
部品1
 48
50.0
100
AcDbLine
 10
8235.600000000001
 20
5777.813451093201
 30
0.0
 11
8235.600000000001
 21
5887.813451093207
 31
0.0
  0
LINE
  5
28497
330
747D
100
AcDbEntity
  8
センター
 48
2.0
100
AcDbLine
 10
8055.600000000008
 20
5780.813451093191
 30
0.0
 11
8155.600000000008
 21
5780.813451093191
 31
0.0
  0
CIRCLE
  5
28498
330
747D
100
AcDbEntity
  8
部品1
 48
50.0
100
AcDbCircle
 10
8105.600000000007
 20
5780.813451093191
 30
0.0
 40
35.0
  0
LINE
  5
28499
330
747D
100
AcDbEntity
  8
センター
 48
2.0
100
AcDbLine
 10
8105.600000000007
 20
5830.813451093192
 30
0.0
 11
8105.600000000007
 21
5730.813451093189
 31
0.0
  0
LINE
  5
284A6
330
747D
100
AcDbEntity
  8
部品1
 48
50.0
100
AcDbLine
 10
8235.600000000001
 20
8487.81345109317
 30
0.0
 11
7975.6
 21
8487.81345109317
 31
0.0
  0
LINE
  5
284A7
330
747D
100
AcDbEntity
  8
部品1
 48
50.0
100
AcDbLine
 10
7975.6
 20
8597.813451093189
 30
0.0
 11
7975.6
 21
8487.81345109317
 31
0.0
  0
LINE
  5
284A8
330
747D
100
AcDbEntity
  8
部品1
 48
50.0
100
AcDbLine
 10
8235.600000000001
 20
8597.813451093189
 30
0.0
 11
8235.600000000001
 21
8487.81345109317
 31
0.0
  0
CIRCLE
  5
284A9
330
747D
100
AcDbEntity
  8
部品1
 48
50.0
100
AcDbCircle
 10
8105.6
 20
8594.813451093189
 30
0.0
 40
35.0
  0
LINE
  5
284AA
330
747D
100
AcDbEntity
  8
センター
 48
2.0
100
AcDbLine
 10
8105.6
 20
8644.81345109319
 30
0.0
 11
8105.6
 21
8544.813451093189
 31
0.0
  0
LINE
  5
284AB
330
747D
100
AcDbEntity
  8
センター
 48
2.0
100
AcDbLine
 10
8055.600000000001
 20
8594.813451093189
 30
0.0
 11
8155.600000000001
 21
8594.813451093189
 31
0.0
  0
LINE
  5
284AD
102
{ACAD_REACTORS
330
2B2E8
102
}
330
747D
100
AcDbEntity
  8
部品1
 48
50.0
100
AcDbLine
 10
9648.600000000014
 20
5777.813451093201
 30
0.0
 11
9648.600000000014
 21
5657.8134510932
 31
0.0
  0
LINE
  5
284AE
102
{ACAD_REACTORS
330
2B2E8
102
}
330
747D
100
AcDbEntity
  8
部品1
 48
50.0
100
AcDbLine
 10
9848.600000000013
 20
5777.813451093202
 30
0.0
 11
9848.600000000013
 21
5657.8134510932
 31
0.0
  0
DIMENSION
  5
284AF
330
747D
100
AcDbEntity
  8
寸法
 48
50.0
100
AcDbDimension
  2
*D26
 10
10163.85510029273
 20
6387.813451093179
 30
0.0
 11
10063.85510029272
 21
6022.813451093189
 31
0.0
 70
    32
 71
     5
 42
729.9999999999799
  3
INABA_S40G
100
AcDbAlignedDimension
 13
9909.045939259561
 23
5657.813451093199
 33
0.0
 14
10375.6
 24
6387.813451093178
 34
0.0
 50
90.0
100
AcDbRotatedDimension
1001
ACAD
1000
DSTYLE
1002
{
1070
   341
1005
0
1002
}
  0
LINE
  5
284B1
102
{ACAD_REACTORS
330
2B2E8
102
}
330
747D
100
AcDbEntity
  8
部品1
 48
50.0
100
AcDbLine
 10
11278.6
 20
5657.813451093207
 30
0.0
 11
11278.6
 21
8717.813451093189
 31
0.0
  0
DIMENSION
  5
284B9
330
747D
100
AcDbEntity
  8
寸法
 48
50.0
100
AcDbDimension
  2
*D27
 10
11155.6
 20
9463.573077635272
 30
0.0
 11
11551.7066017178
 21
9463.573077635272
 31
0.0
 70
   160
 71
     5
 42
123.0
  3
INABA_S40G
100
AcDbAlignedDimension
 13
11278.6
 23
8717.813451093189
 33
0.0
 14
11155.6
 24
8644.81345109319
 34
0.0
100
AcDbRotatedDimension
1001
ACAD
1000
DSTYLE
1002
{
1070
   341
1005
0
1002
}
  0
DIMENSION
  5
284BA
330
747D
100
AcDbEntity
  8
寸法
 48
50.0
100
AcDbDimension
  2
*D28
 10
9748.600000000001
 20
9244.723216741517
 30
0.0
 11
10112.1
 21
9344.735027765137
 31
0.0
 70
    32
 71
     5
 42
727.0
  3
INABA_S40G
100
AcDbAlignedDimension
 13
10475.6
 23
8087.813451093188
 33
0.0
 14
9748.600000000001
 24
8087.813451093188
 34
0.0
100
AcDbRotatedDimension
1001
ACAD
1000
DSTYLE
1002
{
1070
   341
1005
0
1002
}
  0
DIMENSION
  5
284BB
330
747D
100
AcDbEntity
  8
寸法
 48
50.0
100
AcDbDimension
  2
*D29
 10
10475.6
 20
9244.723216741517
 30
0.0
 11
10877.1
 21
9344.723216741517
 31
0.0
 70
    32
 71
     5
 42
803.0
  3
INABA_S40G
100
AcDbAlignedDimension
 13
11278.6
 23
8717.813451093189
 33
0.0
 14
10475.6
 24
8087.813451093188
 34
0.0
100
AcDbRotatedDimension
1001
ACAD
1000
DSTYLE
1002
{
1070
   341
1005
0
1002
}
  0
DIMENSION
  5
284BC
330
747D
100
AcDbEntity
  8
寸法
 48
50.0
100
AcDbDimension
  2
*D30
 10
9021.600000000001
 20
9244.723216741517
 30
0.0
 11
9385.099999999999
 21
9344.735027765137
 31
0.0
 70
    32
 71
     5
 42
727.0
  3
INABA_S40G
100
AcDbAlignedDimension
 13
9748.600000000001
 23
8087.813451093188
 33
0.0
 14
9021.600000000001
 24
8087.813451093188
 34
0.0
100
AcDbRotatedDimension
1001
ACAD
1000
DSTYLE
1002
{
1070
   341
1005
0
1002
}
  0
DIMENSION
  5
284BD
330
747D
100
AcDbEntity
  8
寸法
 48
50.0
100
AcDbDimension
  2
*D31
 10
10163.85510029273
 20
7987.813451093187
 30
0.0
 11
10063.85510029272
 21
7587.813451093189
 31
0.0
 70
    32
 71
     5
 42
800.0
  3
INABA_S40G
100
AcDbAlignedDimension
 13
10375.6
 23
7187.813451093187
 33
0.0
 14
10375.6
 24
7987.813451093187
 34
0.0
 50
90.0
100
AcDbRotatedDimension
1001
ACAD
1000
DSTYLE
1002
{
1070
   341
1005
0
1002
}
  0
DIMENSION
  5
284BE
330
747D
100
AcDbEntity
  8
寸法
 48
50.0
100
AcDbDimension
  2
*D32
 10
10163.85510029273
 20
8717.813451093189
 30
0.0
 11
10063.85510029272
 21
8352.81345109319
 31
0.0
 70
    32
 71
     5
 42
730.0000000000009
  3
INABA_S40G
100
AcDbAlignedDimension
 13
10375.6
 23
7987.813451093187
 33
0.0
 14
9813.157431058357
 24
8717.813451093189
 34
0.0
 50
90.0
100
AcDbRotatedDimension
1001
ACAD
1000
DSTYLE
1002
{
1070
   341
1005
0
1002
}
  0
LINE
  5
284D8
102
{ACAD_REACTORS
330
2B2E8
102
}
330
747D
100
AcDbEntity
  8
部品1
 48
50.0
100
AcDbLine
 10
9648.600000000001
 20
8717.813451093187
 30
0.0
 11
9648.600000000001
 21
8597.813451093186
 31
0.0
  0
LINE
  5
284D9
102
{ACAD_REACTORS
330
2B2E8
102
}
330
747D
100
AcDbEntity
  8
部品1
 48
50.0
100
AcDbLine
 10
9848.600000000001
 20
8717.813451093187
 30
0.0
 11
9848.600000000001
 21
8597.813451093186
 31
0.0
  0
LINE
  5
284DA
102
{ACAD_REACTORS
330
2B2E8
102
}
330
747D
100
AcDbEntity
  8
部品1
 48
50.0
100
AcDbLine
 10
11158.6
 20
5887.813451093208
 30
0.0
 11
11158.6
 21
8487.813451093188
 31
0.0
  0
LINE
  5
284E1
330
747D
100
AcDbEntity
  8
センター
 48
2.0
100
AcDbLine
 10
11105.60000000001
 20
5780.813451093191
 30
0.0
 11
11205.60000000001
 21
5780.813451093191
 31
0.0
  0
LINE
  5
284E2
330
747D
100
AcDbEntity
  8
部品1
 48
50.0
100
AcDbLine
 10
11158.6
 20
5887.813451093207
 30
0.0
 11
11048.6
 21
5887.813451093207
 31
0.0
  0
LINE
  5
284E3
330
747D
100
AcDbEntity
  8
部品1
 48
50.0
100
AcDbLine
 10
11048.6
 20
5777.813451093206
 30
0.0
 11
11048.6
 21
5887.813451093207
 31
0.0
  0
LINE
  5
284E4
330
747D
100
AcDbEntity
  8
センター
 48
2.0
100
AcDbLine
 10
11155.6
 20
5830.813451093192
 30
0.0
 11
11155.6
 21
5730.813451093189
 31
0.0
  0
CIRCLE
  5
284E5
330
747D
100
AcDbEntity
  8
部品1
 48
50.0
100
AcDbCircle
 10
11155.6
 20
5780.813451093191
 30
0.0
 40
35.0
  0
LINE
  5
284E6
102
{ACAD_REACTORS
330
2B2E8
102
}
330
747D
100
AcDbEntity
  8
部品1
 48
50.0
100
AcDbLine
 10
11278.6
 20
7287.813451093187
 30
0.0
 11
11158.6
 21
7287.813451093187
 31
0.0
  0
LINE
  5
284E7
102
{ACAD_REACTORS
330
2B2E8
102
}
330
747D
100
AcDbEntity
  8
部品1
 48
50.0
100
AcDbLine
 10
11278.6
 20
7087.813451093187
 30
0.0
 11
11158.6
 21
7087.813451093187
 31
0.0
  0
DIMENSION
  5
284E9
330
747D
100
AcDbEntity
  8
寸法
 48
50.0
100
AcDbDimension
  2
*D33
 10
11048.6
 20
8260.104783592815
 30
0.0
 11
10778.54094488189
 21
8260.104783592815
 31
0.0
 70
   160
 71
     5
 42
110.0
  3
INABA_S40G
100
AcDbAlignedDimension
 13
11158.6
 23
8487.813451093188
 33
0.0
 14
11048.6
 24
8487.813451093186
 34
0.0
100
AcDbRotatedDimension
1001
ACAD
1000
DSTYLE
1002
{
1070
   341
1005
0
1002
}
  0
DIMENSION
  5
284F0
330
747D
100
AcDbEntity
  8
寸法
 48
50.0
100
AcDbDimension
  2
*D34
 10
11158.6
 20
8260.104783592815
 30
0.0
 11
11548.65905511811
 21
8260.104783592815
 31
0.0
 70
   160
 71
     5
 42
120.0
  3
INABA_S40G
100
AcDbAlignedDimension
 13
11278.6
 23
8277.098047631644
 33
0.0
 14
11158.6
 24
8487.813451093188
 34
0.0
100
AcDbRotatedDimension
1001
ACAD
1000
DSTYLE
1002
{
1070
   341
1005
0
1002
}
  0
LINE
  5
284F1
330
747D
100
AcDbEntity
  8
センター
 48
2.0
100
AcDbLine
 10
11155.6
 20
8644.81345109319
 30
0.0
 11
11155.6
 21
8544.813451093189
 31
0.0
  0
CIRCLE
  5
284F2
330
747D
100
AcDbEntity
  8
部品1
 48
50.0
100
AcDbCircle
 10
11155.6
 20
8594.813451093189
 30
0.0
 40
35.0
  0
LINE
  5
284F3
330
747D
100
AcDbEntity
  8
部品1
 48
50.0
100
AcDbLine
 10
11048.6
 20
8487.813451093186
 30
0.0
 11
11048.6
 21
8597.813451093186
 31
0.0
  0
LINE
  5
284F4
330
747D
100
AcDbEntity
  8
部品1
 48
50.0
100
AcDbLine
 10
11158.6
 20
8487.813451093188
 30
0.0
 11
11048.6
 21
8487.813451093186
 31
0.0
  0
LINE
  5
284F5
330
747D
100
AcDbEntity
  8
センター
 48
2.0
100
AcDbLine
 10
11105.6
 20
8594.813451093189
 30
0.0
 11
11205.6
 21
8594.813451093189
 31
0.0
  0
MTEXT
  5
29996
102
{ACAD_REACTORS
330
29997
102
}
330
747D
100
AcDbEntity
  8
部品1
 62
     7
 48
50.0
100
AcDbMText
 10
6373.440328953417
 20
6849.824214829661
 30
0.0
 40
120.0
 41
0.0
 71
     6
 72
     1
  1
CB
  7
STYLE1
 73
     1
 44
1.0
1001
ACAD
1000
MTEXTBEGIN
1070
    73
1070
     1
1070
    44
1040
1.0
1070
    74
1070
     0
1000
MTEXTEND
  0
LEADER
  5
29997
330
747D
100
AcDbEntity
  8
寸法
 48
50.0
100
AcDbLeader
  3
INABA_S40G
 73
     0
 74
     0
 75
     1
 40
120.0
 41
149.591883092037
 76
     3
 10
5946.565642998738
 20
7025.838128397494
 30
0.0
 10
6083.848445861381
 20
6749.824214829661
 30
0.0
 10
6183.84844586138
 20
6749.824214829661
 30
0.0
340
29996
1001
ACAD
1000
DSTYLE
1002
{
1070
   341
1005
0
1002
}
  0
LINE
  5
2A78F
330
747D
100
AcDbEntity
  8
部品1
 48
50.0
100
AcDbLine
 10
7525.6
 20
7387.813451093187
 30
0.0
 11
7325.6
 21
7387.813451093187
 31
0.0
  0
LINE
  5
2A790
330
747D
100
AcDbEntity
  8
センター
 48
2.0
100
AcDbLine
 10
7375.6
 20
7187.813451093187
 30
0.0
 11
7475.6
 21
7187.813451093187
 31
0.0
  0
LINE
  5
2A791
330
747D
100
AcDbEntity
  8
部品1
 48
50.0
100
AcDbLine
 10
7525.6
 20
6987.813451093185
 30
0.0
 11
7325.6
 21
6987.813451093185
 31
0.0
  0
LINE
  5
2A792
330
747D
100
AcDbEntity
  8
部品1
 48
50.0
100
AcDbLine
 10
7325.6
 20
6987.813451093187
 30
0.0
 11
7325.6
 21
7387.813451093187
 31
0.0
  0
LINE
  5
2A793
330
747D
100
AcDbEntity
  8
部品1
 48
50.0
100
AcDbLine
 10
7525.6
 20
6987.813451093185
 30
0.0
 11
7525.6
 21
7387.813451093187
 31
0.0
  0
LINE
  5
2A794
330
747D
100
AcDbEntity
  8
センター
 48
2.0
100
AcDbLine
 10
7425.6
 20
7237.813451093187
 30
0.0
 11
7425.6
 21
7137.813451093187
 31
0.0
  0
LINE
  5
2A795
330
747D
100
AcDbEntity
  8
センター
 48
2.0
100
AcDbLine
 10
7425.6
 20
6437.813451093187
 30
0.0
 11
7425.6
 21
6337.813451093187
 31
0.0
  0
LINE
  5
2A796
330
747D
100
AcDbEntity
  8
部品1
 48
50.0
100
AcDbLine
 10
7525.6
 20
6287.813451093185
 30
0.0
 11
7525.6
 21
6487.813451093187
 31
0.0
  0
LINE
  5
2A797
330
747D
100
AcDbEntity
  8
部品1
 48
50.0
100
AcDbLine
 10
7325.6
 20
6287.813451093187
 30
0.0
 11
7325.6
 21
6487.813451093187
 31
0.0
  0
LINE
  5
2A798
330
747D
100
AcDbEntity
  8
部品1
 48
50.0
100
AcDbLine
 10
7525.6
 20
6487.813451093187
 30
0.0
 11
7325.6
 21
6487.813451093187
 31
0.0
  0
LINE
  5
2A799
330
747D
100
AcDbEntity
  8
部品1
 48
50.0
100
AcDbLine
 10
7525.6
 20
6287.813451093185
 30
0.0
 11
7325.6
 21
6287.813451093185
 31
0.0
  0
LINE
  5
2A79A
330
747D
100
AcDbEntity
  8
センター
 48
2.0
100
AcDbLine
 10
7375.6
 20
6387.813451093187
 30
0.0
 11
7475.6
 21
6387.813451093187
 31
0.0
  0
LINE
  5
2A79B
330
747D
100
AcDbEntity
  8
部品1
 48
50.0
100
AcDbLine
 10
6798.6
 20
7387.813451093187
 30
0.0
 11
6598.600000000002
 21
7387.813451093187
 31
0.0
  0
LINE
  5
2A79C
330
747D
100
AcDbEntity
  8
センター
 48
2.0
100
AcDbLine
 10
6648.6
 20
7187.813451093187
 30
0.0
 11
6748.6
 21
7187.813451093187
 31
0.0
  0
LINE
  5
2A79D
330
747D
100
AcDbEntity
  8
部品1
 48
50.0
100
AcDbLine
 10
6798.6
 20
6987.813451093185
 30
0.0
 11
6598.600000000002
 21
6987.813451093185
 31
0.0
  0
LINE
  5
2A79E
330
747D
100
AcDbEntity
  8
部品1
 48
50.0
100
AcDbLine
 10
6798.6
 20
6987.813451093185
 30
0.0
 11
6798.6
 21
7387.813451093187
 31
0.0
  0
LINE
  5
2A79F
330
747D
100
AcDbEntity
  8
部品1
 48
50.0
100
AcDbLine
 10
6598.600000000002
 20
6987.813451093187
 30
0.0
 11
6598.600000000002
 21
7387.813451093187
 31
0.0
  0
LINE
  5
2A7A0
330
747D
100
AcDbEntity
  8
センター
 48
2.0
100
AcDbLine
 10
6698.6
 20
7237.813451093187
 30
0.0
 11
6698.6
 21
7137.813451093187
 31
0.0
  0
LINE
  5
2A7A1
330
747D
100
AcDbEntity
  8
部品1
 48
50.0
100
AcDbLine
 10
6071.6
 20
6987.813451093185
 30
0.0
 11
6071.6
 21
7387.813451093187
 31
0.0
  0
LINE
  5
2A7A2
330
747D
100
AcDbEntity
  8
部品1
 48
50.0
100
AcDbLine
 10
6798.6
 20
6487.813451093187
 30
0.0
 11
6598.600000000002
 21
6487.813451093187
 31
0.0
  0
LINE
  5
2A7A3
330
747D
100
AcDbEntity
  8
部品1
 48
50.0
100
AcDbLine
 10
6798.6
 20
6287.813451093185
 30
0.0
 11
6598.600000000002
 21
6287.813451093185
 31
0.0
  0
LINE
  5
2A7A4
330
747D
100
AcDbEntity
  8
センター
 48
2.0
100
AcDbLine
 10
6648.6
 20
6387.813451093187
 30
0.0
 11
6748.6
 21
6387.813451093187
 31
0.0
  0
LINE
  5
2A7A5
330
747D
100
AcDbEntity
  8
センター
 48
2.0
100
AcDbLine
 10
6698.6
 20
6437.813451093187
 30
0.0
 11
6698.6
 21
6337.813451093187
 31
0.0
  0
LINE
  5
2A7A6
330
747D
100
AcDbEntity
  8
部品1
 48
50.0
100
AcDbLine
 10
6598.600000000002
 20
6287.813451093187
 30
0.0
 11
6598.600000000002
 21
6487.813451093187
 31
0.0
  0
LINE
  5
2A7A7
330
747D
100
AcDbEntity
  8
部品1
 48
50.0
100
AcDbLine
 10
6798.6
 20
6287.813451093185
 30
0.0
 11
6798.6
 21
6487.813451093187
 31
0.0
  0
LINE
  5
2A7A8
330
747D
100
AcDbEntity
  8
部品1
 48
50.0
100
AcDbLine
 10
6071.6
 20
6287.813451093185
 30
0.0
 11
6071.6
 21
6487.813451093187
 31
0.0
  0
LINE
  5
2A7A9
330
747D
100
AcDbEntity
  8
部品1
 48
50.0
100
AcDbLine
 10
5871.6
 20
6987.813451093187
 30
0.0
 11
5871.6
 21
7387.813451093187
 31
0.0
  0
LINE
  5
2A7AA
330
747D
100
AcDbEntity
  8
センター
 48
2.0
100
AcDbLine
 10
5971.600000000002
 20
7237.813451093187
 30
0.0
 11
5971.600000000002
 21
7137.813451093187
 31
0.0
  0
LINE
  5
2A7AB
330
747D
100
AcDbEntity
  8
部品1
 48
50.0
100
AcDbLine
 10
5871.6
 20
6287.813451093187
 30
0.0
 11
5871.6
 21
6487.813451093187
 31
0.0
  0
LINE
  5
2A7AC
330
747D
100
AcDbEntity
  8
センター
 48
2.0
100
AcDbLine
 10
5971.600000000002
 20
6437.813451093187
 30
0.0
 11
5971.600000000002
 21
6337.813451093187
 31
0.0
  0
LINE
  5
2A7AD
330
747D
100
AcDbEntity
  8
部品1
 48
50.0
100
AcDbLine
 10
6071.6
 20
6487.813451093187
 30
0.0
 11
5871.6
 21
6487.813451093187
 31
0.0
  0
LINE
  5
2A7AE
330
747D
100
AcDbEntity
  8
センター
 48
2.0
100
AcDbLine
 10
5921.600000000001
 20
6387.813451093187
 30
0.0
 11
6021.600000000002
 21
6387.813451093187
 31
0.0
  0
LINE
  5
2A7AF
330
747D
100
AcDbEntity
  8
部品1
 48
50.0
100
AcDbLine
 10
6071.6
 20
6287.813451093185
 30
0.0
 11
5871.6
 21
6287.813451093185
 31
0.0
  0
LINE
  5
2A7B0
330
747D
100
AcDbEntity
  8
部品1
 48
50.0
100
AcDbLine
 10
6071.6
 20
6987.813451093185
 30
0.0
 11
5871.6
 21
6987.813451093185
 31
0.0
  0
LINE
  5
2A7B1
330
747D
100
AcDbEntity
  8
センター
 48
2.0
100
AcDbLine
 10
5921.600000000001
 20
7187.813451093187
 30
0.0
 11
6021.600000000002
 21
7187.813451093187
 31
0.0
  0
LINE
  5
2A7B2
330
747D
100
AcDbEntity
  8
部品1
 48
50.0
100
AcDbLine
 10
6071.6
 20
7387.813451093187
 30
0.0
 11
5871.6
 21
7387.813451093187
 31
0.0
  0
LINE
  5
2A7B3
330
747D
100
AcDbEntity
  8
部品1
 48
50.0
100
AcDbLine
 10
7525.6
 20
8087.813451093188
 30
0.0
 11
7325.6
 21
8087.813451093188
 31
0.0
  0
LINE
  5
2A7B4
330
747D
100
AcDbEntity
  8
部品1
 48
50.0
100
AcDbLine
 10
7525.6
 20
7887.813451093186
 30
0.0
 11
7325.6
 21
7887.813451093186
 31
0.0
  0
LINE
  5
2A7B5
330
747D
100
AcDbEntity
  8
センター
 48
2.0
100
AcDbLine
 10
7375.6
 20
7987.813451093187
 30
0.0
 11
7475.6
 21
7987.813451093187
 31
0.0
  0
LINE
  5
2A7B6
330
747D
100
AcDbEntity
  8
センター
 48
2.0
100
AcDbLine
 10
7425.6
 20
8037.813451093187
 30
0.0
 11
7425.6
 21
7937.813451093187
 31
0.0
  0
LINE
  5
2A7B7
330
747D
100
AcDbEntity
  8
部品1
 48
50.0
100
AcDbLine
 10
7325.6
 20
7887.813451093187
 30
0.0
 11
7325.6
 21
8087.813451093188
 31
0.0
  0
LINE
  5
2A7B8
330
747D
100
AcDbEntity
  8
部品1
 48
50.0
100
AcDbLine
 10
7525.6
 20
7887.813451093186
 30
0.0
 11
7525.6
 21
8087.813451093188
 31
0.0
  0
LINE
  5
2A7B9
330
747D
100
AcDbEntity
  8
部品1
 48
50.0
100
AcDbLine
 10
6798.6
 20
8087.813451093188
 30
0.0
 11
6598.600000000002
 21
8087.813451093188
 31
0.0
  0
LINE
  5
2A7BA
330
747D
100
AcDbEntity
  8
部品1
 48
50.0
100
AcDbLine
 10
6798.6
 20
7887.813451093186
 30
0.0
 11
6598.600000000002
 21
7887.813451093186
 31
0.0
  0
LINE
  5
2A7BB
330
747D
100
AcDbEntity
  8
センター
 48
2.0
100
AcDbLine
 10
6648.6
 20
7987.813451093187
 30
0.0
 11
6748.6
 21
7987.813451093187
 31
0.0
  0
LINE
  5
2A7BC
330
747D
100
AcDbEntity
  8
センター
 48
2.0
100
AcDbLine
 10
6698.6
 20
8037.813451093187
 30
0.0
 11
6698.6
 21
7937.813451093187
 31
0.0
  0
LINE
  5
2A7BD
330
747D
100
AcDbEntity
  8
部品1
 48
50.0
100
AcDbLine
 10
6598.600000000002
 20
7887.813451093187
 30
0.0
 11
6598.600000000002
 21
8087.813451093188
 31
0.0
  0
LINE
  5
2A7BE
330
747D
100
AcDbEntity
  8
部品1
 48
50.0
100
AcDbLine
 10
6798.6
 20
7887.813451093186
 30
0.0
 11
6798.6
 21
8087.813451093188
 31
0.0
  0
LINE
  5
2A7BF
330
747D
100
AcDbEntity
  8
部品1
 48
50.0
100
AcDbLine
 10
6071.6
 20
7887.813451093186
 30
0.0
 11
6071.6
 21
8087.813451093188
 31
0.0
  0
LINE
  5
2A7C0
330
747D
100
AcDbEntity
  8
センター
 48
2.0
100
AcDbLine
 10
5971.600000000002
 20
8037.813451093187
 30
0.0
 11
5971.600000000002
 21
7937.813451093187
 31
0.0
  0
LINE
  5
2A7C1
330
747D
100
AcDbEntity
  8
部品1
 48
50.0
100
AcDbLine
 10
5871.6
 20
7887.813451093187
 30
0.0
 11
5871.6
 21
8087.813451093188
 31
0.0
  0
LINE
  5
2A7C2
330
747D
100
AcDbEntity
  8
センター
 48
2.0
100
AcDbLine
 10
5921.600000000001
 20
7987.813451093187
 30
0.0
 11
6021.600000000002
 21
7987.813451093187
 31
0.0
  0
LINE
  5
2A7C3
330
747D
100
AcDbEntity
  8
部品1
 48
50.0
100
AcDbLine
 10
6071.6
 20
7887.813451093186
 30
0.0
 11
5871.6
 21
7887.813451093186
 31
0.0
  0
LINE
  5
2A7C4
330
747D
100
AcDbEntity
  8
部品1
 48
50.0
100
AcDbLine
 10
6071.6
 20
8087.813451093188
 30
0.0
 11
5871.6
 21
8087.813451093188
 31
0.0
  0
LINE
  5
2A7C5
330
747D
100
AcDbEntity
  8
部品1
 48
50.0
100
AcDbLine
 10
8323.6
 20
8087.813451093188
 30
0.0
 11
8123.600000000001
 21
8087.813451093188
 31
0.0
  0
LINE
  5
2A7C6
330
747D
100
AcDbEntity
  8
部品1
 48
50.0
100
AcDbLine
 10
8323.6
 20
7887.813451093186
 30
0.0
 11
8123.600000000001
 21
7887.813451093186
 31
0.0
  0
LINE
  5
2A7C7
330
747D
100
AcDbEntity
  8
センター
 48
2.0
100
AcDbLine
 10
8173.6
 20
7987.813451093187
 30
0.0
 11
8273.6
 21
7987.813451093187
 31
0.0
  0
LINE
  5
2A7C8
330
747D
100
AcDbEntity
  8
センター
 48
2.0
100
AcDbLine
 10
8223.600000000001
 20
8037.813451093187
 30
0.0
 11
8223.600000000001
 21
7937.813451093187
 31
0.0
  0
LINE
  5
2A7C9
330
747D
100
AcDbEntity
  8
部品1
 48
50.0
100
AcDbLine
 10
8323.6
 20
7887.813451093186
 30
0.0
 11
8323.6
 21
8087.813451093188
 31
0.0
  0
LINE
  5
2A7CA
330
747D
100
AcDbEntity
  8
部品1
 48
50.0
100
AcDbLine
 10
8123.600000000001
 20
7887.813451093187
 30
0.0
 11
8123.600000000001
 21
8087.813451093188
 31
0.0
  0
LINE
  5
2A7D1
330
747D
100
AcDbEntity
  8
部品1
 48
50.0
100
AcDbLine
 10
8323.6
 20
6287.813451093185
 30
0.0
 11
8323.6
 21
6487.813451093187
 31
0.0
  0
LINE
  5
2A7D2
330
747D
100
AcDbEntity
  8
部品1
 48
50.0
100
AcDbLine
 10
8123.600000000001
 20
6287.813451093187
 30
0.0
 11
8123.600000000001
 21
6487.813451093187
 31
0.0
  0
LINE
  5
2A7D3
330
747D
100
AcDbEntity
  8
センター
 48
2.0
100
AcDbLine
 10
8223.600000000001
 20
6437.813451093187
 30
0.0
 11
8223.600000000001
 21
6337.813451093187
 31
0.0
  0
LINE
  5
2A7D4
330
747D
100
AcDbEntity
  8
センター
 48
2.0
100
AcDbLine
 10
8173.6
 20
6387.813451093187
 30
0.0
 11
8273.6
 21
6387.813451093187
 31
0.0
  0
LINE
  5
2A7D5
330
747D
100
AcDbEntity
  8
部品1
 48
50.0
100
AcDbLine
 10
8323.6
 20
6287.813451093185
 30
0.0
 11
8123.600000000001
 21
6287.813451093185
 31
0.0
  0
LINE
  5
2A7D6
330
747D
100
AcDbEntity
  8
部品1
 48
50.0
100
AcDbLine
 10
8323.6
 20
6487.813451093187
 30
0.0
 11
8123.600000000001
 21
6487.813451093187
 31
0.0
  0
LINE
  5
2A7D7
330
747D
100
AcDbEntity
  8
部品1
 48
50.0
100
AcDbLine
 10
10575.6
 20
6987.813451093185
 30
0.0
 11
10575.6
 21
7387.813451093187
 31
0.0
  0
LINE
  5
2A7D8
330
747D
100
AcDbEntity
  8
部品1
 48
50.0
100
AcDbLine
 10
10375.6
 20
6987.813451093187
 30
0.0
 11
10375.6
 21
7387.813451093187
 31
0.0
  0
LINE
  5
2A7D9
330
747D
100
AcDbEntity
  8
センター
 48
2.0
100
AcDbLine
 10
10475.6
 20
7237.813451093187
 30
0.0
 11
10475.6
 21
7137.813451093187
 31
0.0
  0
LINE
  5
2A7DA
330
747D
100
AcDbEntity
  8
部品1
 48
50.0
100
AcDbLine
 10
10575.6
 20
6987.813451093185
 30
0.0
 11
10375.6
 21
6987.813451093185
 31
0.0
  0
LINE
  5
2A7DB
330
747D
100
AcDbEntity
  8
センター
 48
2.0
100
AcDbLine
 10
10425.6
 20
7187.813451093187
 30
0.0
 11
10525.6
 21
7187.813451093187
 31
0.0
  0
LINE
  5
2A7DC
330
747D
100
AcDbEntity
  8
部品1
 48
50.0
100
AcDbLine
 10
10575.6
 20
7387.813451093187
 30
0.0
 11
10375.6
 21
7387.813451093187
 31
0.0
  0
LINE
  5
2A7DD
330
747D
100
AcDbEntity
  8
センター
 48
2.0
100
AcDbLine
 10
9698.6
 20
7187.813451093187
 30
0.0
 11
9798.6
 21
7187.813451093187
 31
0.0
  0
LINE
  5
2A7DE
330
747D
100
AcDbEntity
  8
センター
 48
2.0
100
AcDbLine
 10
9748.600000000001
 20
7237.813451093187
 30
0.0
 11
9748.600000000001
 21
7137.813451093187
 31
0.0
  0
LINE
  5
2A7DF
330
747D
100
AcDbEntity
  8
部品1
 48
50.0
100
AcDbLine
 10
9848.600000000001
 20
6987.813451093185
 30
0.0
 11
9848.600000000001
 21
7387.813451093187
 31
0.0
  0
LINE
  5
2A7E0
330
747D
100
AcDbEntity
  8
部品1
 48
50.0
100
AcDbLine
 10
9648.600000000001
 20
6987.813451093187
 30
0.0
 11
9648.600000000001
 21
7387.813451093187
 31
0.0
  0
LINE
  5
2A7E1
330
747D
100
AcDbEntity
  8
部品1
 48
50.0
100
AcDbLine
 10
9848.600000000001
 20
7387.813451093187
 30
0.0
 11
9648.600000000001
 21
7387.813451093187
 31
0.0
  0
LINE
  5
2A7E2
330
747D
100
AcDbEntity
  8
部品1
 48
50.0
100
AcDbLine
 10
9848.600000000001
 20
6987.813451093185
 30
0.0
 11
9648.600000000001
 21
6987.813451093185
 31
0.0
  0
LINE
  5
2A7E3
330
747D
100
AcDbEntity
  8
センター
 48
2.0
100
AcDbLine
 10
8971.6
 20
7187.813451093187
 30
0.0
 11
9071.600000000001
 21
7187.813451093187
 31
0.0
  0
LINE
  5
2A7E4
330
747D
100
AcDbEntity
  8
部品1
 48
50.0
100
AcDbLine
 10
9121.6
 20
7387.813451093187
 30
0.0
 11
8921.600000000001
 21
7387.813451093187
 31
0.0
  0
LINE
  5
2A7E5
330
747D
100
AcDbEntity
  8
部品1
 48
50.0
100
AcDbLine
 10
9121.6
 20
6987.813451093185
 30
0.0
 11
8921.600000000001
 21
6987.813451093185
 31
0.0
  0
LINE
  5
2A7E6
330
747D
100
AcDbEntity
  8
部品1
 48
50.0
100
AcDbLine
 10
8921.600000000001
 20
6987.813451093187
 30
0.0
 11
8921.600000000001
 21
7387.813451093187
 31
0.0
  0
LINE
  5
2A7E7
330
747D
100
AcDbEntity
  8
部品1
 48
50.0
100
AcDbLine
 10
9121.6
 20
6987.813451093185
 30
0.0
 11
9121.6
 21
7387.813451093187
 31
0.0
  0
LINE
  5
2A7E8
330
747D
100
AcDbEntity
  8
センター
 48
2.0
100
AcDbLine
 10
9021.600000000001
 20
7237.813451093187
 30
0.0
 11
9021.600000000001
 21
7137.813451093187
 31
0.0
  0
LINE
  5
2A7E9
330
747D
100
AcDbEntity
  8
部品1
 48
50.0
100
AcDbLine
 10
10575.6
 20
8087.813451093188
 30
0.0
 11
10375.6
 21
8087.813451093188
 31
0.0
  0
LINE
  5
2A7EA
330
747D
100
AcDbEntity
  8
センター
 48
2.0
100
AcDbLine
 10
10425.6
 20
7987.813451093187
 30
0.0
 11
10525.6
 21
7987.813451093187
 31
0.0
  0
LINE
  5
2A7EB
330
747D
100
AcDbEntity
  8
部品1
 48
50.0
100
AcDbLine
 10
10575.6
 20
7887.813451093186
 30
0.0
 11
10375.6
 21
7887.813451093186
 31
0.0
  0
LINE
  5
2A7EC
330
747D
100
AcDbEntity
  8
センター
 48
2.0
100
AcDbLine
 10
10475.6
 20
8037.813451093187
 30
0.0
 11
10475.6
 21
7937.813451093187
 31
0.0
  0
LINE
  5
2A7ED
330
747D
100
AcDbEntity
  8
部品1
 48
50.0
100
AcDbLine
 10
10575.6
 20
7887.813451093186
 30
0.0
 11
10575.6
 21
8087.813451093188
 31
0.0
  0
LINE
  5
2A7EE
330
747D
100
AcDbEntity
  8
部品1
 48
50.0
100
AcDbLine
 10
10375.6
 20
7887.813451093187
 30
0.0
 11
10375.6
 21
8087.813451093188
 31
0.0
  0
LINE
  5
2A7EF
330
747D
100
AcDbEntity
  8
部品1
 48
50.0
100
AcDbLine
 10
9848.600000000001
 20
8087.813451093188
 30
0.0
 11
9648.600000000001
 21
8087.813451093188
 31
0.0
  0
LINE
  5
2A7F0
330
747D
100
AcDbEntity
  8
センター
 48
2.0
100
AcDbLine
 10
9698.6
 20
7987.813451093187
 30
0.0
 11
9798.6
 21
7987.813451093187
 31
0.0
  0
LINE
  5
2A7F1
330
747D
100
AcDbEntity
  8
部品1
 48
50.0
100
AcDbLine
 10
9848.600000000001
 20
7887.813451093186
 30
0.0
 11
9648.600000000001
 21
7887.813451093186
 31
0.0
  0
LINE
  5
2A7F2
330
747D
100
AcDbEntity
  8
センター
 48
2.0
100
AcDbLine
 10
9748.600000000001
 20
8037.813451093187
 30
0.0
 11
9748.600000000001
 21
7937.813451093187
 31
0.0
  0
LINE
  5
2A7F3
330
747D
100
AcDbEntity
  8
部品1
 48
50.0
100
AcDbLine
 10
9848.600000000001
 20
7887.813451093186
 30
0.0
 11
9848.600000000001
 21
8087.813451093188
 31
0.0
  0
LINE
  5
2A7F4
330
747D
100
AcDbEntity
  8
部品1
 48
50.0
100
AcDbLine
 10
9648.600000000001
 20
7887.813451093187
 30
0.0
 11
9648.600000000001
 21
8087.813451093188
 31
0.0
  0
LINE
  5
2A7F5
330
747D
100
AcDbEntity
  8
部品1
 48
50.0
100
AcDbLine
 10
9121.6
 20
8087.813451093188
 30
0.0
 11
8921.600000000001
 21
8087.813451093188
 31
0.0
  0
LINE
  5
2A7F6
330
747D
100
AcDbEntity
  8
センター
 48
2.0
100
AcDbLine
 10
8971.6
 20
7987.813451093187
 30
0.0
 11
9071.600000000001
 21
7987.813451093187
 31
0.0
  0
LINE
  5
2A7F7
330
747D
100
AcDbEntity
  8
部品1
 48
50.0
100
AcDbLine
 10
9121.6
 20
7887.813451093186
 30
0.0
 11
8921.600000000001
 21
7887.813451093186
 31
0.0
  0
LINE
  5
2A7F8
330
747D
100
AcDbEntity
  8
センター
 48
2.0
100
AcDbLine
 10
9021.600000000001
 20
8037.813451093187
 30
0.0
 11
9021.600000000001
 21
7937.813451093187
 31
0.0
  0
LINE
  5
2A7F9
330
747D
100
AcDbEntity
  8
部品1
 48
50.0
100
AcDbLine
 10
8921.600000000001
 20
7887.813451093187
 30
0.0
 11
8921.600000000001
 21
8087.813451093188
 31
0.0
  0
LINE
  5
2A7FA
330
747D
100
AcDbEntity
  8
部品1
 48
50.0
100
AcDbLine
 10
9121.6
 20
7887.813451093186
 30
0.0
 11
9121.6
 21
8087.813451093188
 31
0.0
  0
LINE
  5
2A7FB
330
747D
100
AcDbEntity
  8
部品1
 48
50.0
100
AcDbLine
 10
10575.6
 20
6287.813451093185
 30
0.0
 11
10575.6
 21
6487.813451093187
 31
0.0
  0
LINE
  5
2A7FC
330
747D
100
AcDbEntity
  8
部品1
 48
50.0
100
AcDbLine
 10
10375.6
 20
6287.813451093187
 30
0.0
 11
10375.6
 21
6487.813451093187
 31
0.0
  0
LINE
  5
2A7FD
330
747D
100
AcDbEntity
  8
センター
 48
2.0
100
AcDbLine
 10
10475.6
 20
6437.813451093187
 30
0.0
 11
10475.6
 21
6337.813451093187
 31
0.0
  0
LINE
  5
2A7FE
330
747D
100
AcDbEntity
  8
部品1
 48
50.0
100
AcDbLine
 10
10575.6
 20
6487.813451093187
 30
0.0
 11
10375.6
 21
6487.813451093187
 31
0.0
  0
LINE
  5
2A7FF
330
747D
100
AcDbEntity
  8
センター
 48
2.0
100
AcDbLine
 10
10425.6
 20
6387.813451093187
 30
0.0
 11
10525.6
 21
6387.813451093187
 31
0.0
  0
LINE
  5
2A800
330
747D
100
AcDbEntity
  8
部品1
 48
50.0
100
AcDbLine
 10
10575.6
 20
6287.813451093185
 30
0.0
 11
10375.6
 21
6287.813451093185
 31
0.0
  0
LINE
  5
2A801
330
747D
100
AcDbEntity
  8
センター
 48
2.0
100
AcDbLine
 10
9698.6
 20
6387.813451093187
 30
0.0
 11
9798.6
 21
6387.813451093187
 31
0.0
  0
LINE
  5
2A802
330
747D
100
AcDbEntity
  8
センター
 48
2.0
100
AcDbLine
 10
9748.600000000001
 20
6437.813451093187
 30
0.0
 11
9748.600000000001
 21
6337.813451093187
 31
0.0
  0
LINE
  5
2A803
330
747D
100
AcDbEntity
  8
部品1
 48
50.0
100
AcDbLine
 10
9848.600000000001
 20
6287.813451093185
 30
0.0
 11
9848.600000000001
 21
6487.813451093187
 31
0.0
  0
LINE
  5
2A804
330
747D
100
AcDbEntity
  8
部品1
 48
50.0
100
AcDbLine
 10
9648.600000000001
 20
6287.813451093187
 30
0.0
 11
9648.600000000001
 21
6487.813451093187
 31
0.0
  0
LINE
  5
2A805
330
747D
100
AcDbEntity
  8
部品1
 48
50.0
100
AcDbLine
 10
9848.600000000001
 20
6487.813451093187
 30
0.0
 11
9648.600000000001
 21
6487.813451093187
 31
0.0
  0
LINE
  5
2A806
330
747D
100
AcDbEntity
  8
部品1
 48
50.0
100
AcDbLine
 10
9848.600000000001
 20
6287.813451093185
 30
0.0
 11
9648.600000000001
 21
6287.813451093185
 31
0.0
  0
LINE
  5
2A807
330
747D
100
AcDbEntity
  8
部品1
 48
50.0
100
AcDbLine
 10
9121.6
 20
6287.813451093185
 30
0.0
 11
9121.6
 21
6487.813451093187
 31
0.0
  0
LINE
  5
2A808
330
747D
100
AcDbEntity
  8
部品1
 48
50.0
100
AcDbLine
 10
8921.600000000001
 20
6287.813451093187
 30
0.0
 11
8921.600000000001
 21
6487.813451093187
 31
0.0
  0
LINE
  5
2A809
330
747D
100
AcDbEntity
  8
センター
 48
2.0
100
AcDbLine
 10
9021.600000000001
 20
6437.813451093187
 30
0.0
 11
9021.600000000001
 21
6337.813451093187
 31
0.0
  0
LINE
  5
2A80A
330
747D
100
AcDbEntity
  8
部品1
 48
50.0
100
AcDbLine
 10
9121.6
 20
6487.813451093187
 30
0.0
 11
8921.600000000001
 21
6487.813451093187
 31
0.0
  0
LINE
  5
2A80B
330
747D
100
AcDbEntity
  8
部品1
 48
50.0
100
AcDbLine
 10
9121.6
 20
6287.813451093185
 30
0.0
 11
8921.600000000001
 21
6287.813451093185
 31
0.0
  0
LINE
  5
2A80C
330
747D
100
AcDbEntity
  8
センター
 48
2.0
100
AcDbLine
 10
8971.6
 20
6387.813451093187
 30
0.0
 11
9071.600000000001
 21
6387.813451093187
 31
0.0
  0
DIMENSION
  5
2A8B8
330
747D
100
AcDbEntity
  8
寸法
 48
50.0
100
AcDbDimension
  2
*D35
 10
10163.85510029273
 20
7187.813451093187
 30
0.0
 11
10063.85510029272
 21
6787.813451093189
 31
0.0
 70
    32
 71
     5
 42
800.0
  3
INABA_S40G
100
AcDbAlignedDimension
 13
10375.6
 23
6387.813451093187
 33
0.0
 14
10375.6
 24
7187.813451093187
 34
0.0
 50
90.0
100
AcDbRotatedDimension
1001
ACAD
1000
DSTYLE
1002
{
1070
   341
1005
0
1002
}
  0
LINE
  5
2A8F6
330
747D
100
AcDbEntity
  8
センター
 48
2.0
100
AcDbLine
 10
8223.600000000001
 20
7237.813451093187
 30
0.0
 11
8223.600000000001
 21
7137.813451093187
 31
0.0
  0
LINE
  5
2A8F7
330
747D
100
AcDbEntity
  8
部品1
 48
50.0
100
AcDbLine
 10
8323.6
 20
6987.813451093185
 30
0.0
 11
8323.6
 21
7387.813451093187
 31
0.0
  0
LINE
  5
2A8F8
330
747D
100
AcDbEntity
  8
部品1
 48
50.0
100
AcDbLine
 10
8123.600000000001
 20
6987.813451093187
 30
0.0
 11
8123.600000000001
 21
7387.813451093187
 31
0.0
  0
LINE
  5
2A8F9
330
747D
100
AcDbEntity
  8
部品1
 48
50.0
100
AcDbLine
 10
8323.6
 20
6987.813451093185
 30
0.0
 11
8123.600000000001
 21
6987.813451093185
 31
0.0
  0
LINE
  5
2A8FA
330
747D
100
AcDbEntity
  8
部品1
 48
50.0
100
AcDbLine
 10
8323.6
 20
7387.813451093187
 30
0.0
 11
8123.600000000001
 21
7387.813451093187
 31
0.0
  0
LINE
  5
2A8FB
330
747D
100
AcDbEntity
  8
センター
 48
2.0
100
AcDbLine
 10
8173.6
 20
7187.813451093187
 30
0.0
 11
8273.6
 21
7187.813451093187
 31
0.0
  0
LINE
  5
2AB57
330
747D
100
AcDbEntity
  8
想像線
 48
10.0
100
AcDbLine
 10
10098.18265186352
 20
5602.81345109321
 30
0.0
 11
11323.6
 21
5602.813451093207
 31
0.0
  0
LINE
  5
2AB58
330
747D
100
AcDbEntity
  8
想像線
 48
10.0
100
AcDbLine
 10
10098.18265186352
 20
8792.813451093191
 30
0.0
 11
11323.6
 21
8792.813451093188
 31
0.0
  0
DIMENSION
  5
2AB59
330
747D
100
AcDbEntity
  8
寸法
 48
50.0
100
AcDbDimension
  2
*D36
 10
5621.6
 20
5097.968436750998
 30
0.0
 11
6699.1
 21
5197.980247774619
 31
0.0
 70
    32
  1
扉の幅 <>
 71
     5
 42
2155.000000000001
  3
INABA_S40G
100
AcDbAlignedDimension
 13
7776.600000000001
 23
5582.81345109321
 33
0.0
 14
5621.6
 24
5582.813451093195
 34
0.0
100
AcDbRotatedDimension
1001
ACAD
1000
DSTYLE
1002
{
1070
   341
1005
0
1002
}
  0
TEXT
  5
2AB5A
330
747D
100
AcDbEntity
  8
寸法
 62
     7
100
AcDbText
 10
6020.461780647316
 20
4498.984938578301
 30
0.0
 40
120.0
  1
扉位置 (2155x75)
  7
STYLE1
100
AcDbText
  0
SOLID
  5
2AB5B
330
747D
100
AcDbEntity
  8
寸法
 48
50.0
100
AcDbTrace
 10
-6227.947080286948
 20
5457.222422188297
 30
0.0
 11
-6244.856285956934
 21
5582.813451093183
 31
0.0
 12
-6188.128865813471
 22
5469.495193157206
 32
0.0
 13
-6188.128865813471
 23
5469.495193157206
 33
0.0
210
0.0
220
0.0
230
-1.0
1001
ACAD
1000
DSTYLE
1002
{
1070
   341
1005
0
1070
    40
1040
1.0
1070
   343
1005
0
1070
   344
1005
0
1002
}
  0
LWPOLYLINE
  5
2AB5C
330
747D
100
AcDbEntity
  8
寸法
 48
50.0
100
AcDbPolyline
 90
        3
 70
     0
 43
0.0
 10
-6244.856285956934
 20
5582.813451093183
 10
-5903.845821454563
 20
4476.71699102998
 10
-8717.910234386208
 20
4476.71699102998
210
0.0
220
0.0
230
-1.0
1001
ACAD
1000
DSTYLE
1002
{
1070
   341
1005
0
1070
    40
1040
1.0
1070
   343
1005
0
1070
   344
1005
0
1002
}
  0
TEXT
  5
2AB5D
330
747D
100
AcDbEntity
  8
寸法
 62
     7
100
AcDbText
 10
6020.461780647316
 20
4327.381175694975
 30
0.0
 40
120.0
  1
扉の位置に合わせた基礎形状として下さい。
  7
STYLE1
100
AcDbText
  0
LINE
  5
2B079
330
747D
100
AcDbEntity
  8
細線
100
AcDbLine
 10
8828.514500443528
 20
1629.75387452127
 30
0.0
 11
8585.222833347547
 21
1873.045541617248
 31
0.0
  0
LINE
  5
2B07A
330
747D
100
AcDbEntity
  8
細線
100
AcDbLine
 10
8764.874890136736
 20
1629.75387452127
 30
0.0
 11
8585.222833347547
 21
1809.40593131046
 31
0.0
  0
LINE
  5
2B07B
330
747D
100
AcDbEntity
  8
部品1
100
AcDbLine
 10
8585.222833347547
 20
1929.75387452127
 30
0.0
 11
9185.222833347546
 21
1929.75387452127
 31
0.0
  0
LINE
  5
2B07C
330
747D
100
AcDbEntity
  8
細線
100
AcDbLine
 10
8576.518326471706
 20
1515.130229954582
 30
0.0
 11
8691.141971038398
 21
1629.753874521269
 31
0.0
  0
LWPOLYLINE
  5
2B07D
330
747D
100
AcDbEntity
  8
部品1
 48
50.0
100
AcDbPolyline
 90
        2
 70
     0
 43
15.0
 10
8104.458755722063
 20
1629.75387452127
 10
9605.824134636597
 20
1629.75387452127
  0
LINE
  5
2B07E
330
747D
100
AcDbEntity
  8
部品1
100
AcDbLine
 10
8435.222833347546
 20
1515.130229954582
 30
0.0
 11
9335.222833347547
 21
1515.130229954585
 31
0.0
  0
LINE
  5
2B07F
330
747D
100
AcDbEntity
  8
部品1
100
AcDbLine
 10
8435.222833347546
 20
1355.130229954578
 30
0.0
 11
9335.222833347547
 21
1355.130229954582
 31
0.0
  0
LINE
  5
2B080
330
747D
100
AcDbEntity
  8
部品1
100
AcDbLine
 10
3029.259065068655
 20
321.898899887638
 30
0.0
 11
9925.733761166689
 21
321.898899887638
 31
0.0
  0
LINE
  5
2B081
330
747D
100
AcDbEntity
  8
部品1
100
AcDbLine
 10
9925.733761166689
 20
3280.968399242325
 30
0.0
 11
3029.259065068655
 21
3280.968399242325
 31
0.0
  0
LINE
  5
2B082
330
747D
100
AcDbEntity
  8
部品1
100
AcDbLine
 10
9925.733761166689
 20
3580.968399242328
 30
0.0
 11
3029.259065068655
 21
3580.968399242325
 31
0.0
  0
LEADER
  5
2B083
330
747D
100
AcDbEntity
  8
寸法
 48
50.0
100
AcDbLeader
  3
INABA_S40G
 73
     0
 75
     1
 40
141.4772727272727
 41
760.7954545454546
 76
     3
 10
6510.779835764491
 20
1866.648466219119
 30
0.0
 10
6296.025049900308
 20
2922.122319164718
 30
0.0
 10
6196.025049900309
 20
2922.122319164718
 30
0.0
340
2B084
1001
ACAD
1000
DSTYLE
1002
{
1070
   341
1005
0
1002
}
  0
MTEXT
  5
2B084
102
{ACAD_REACTORS
330
2B083
102
}
330
747D
100
AcDbEntity
  8
寸法
 62
     7
 48
50.0
100
AcDbMText
 10
6156.025049900309
 20
3032.860955528354
 30
0.0
 40
100.0
 41
1.0
 71
     6
 72
     1
  1
\A1;φ70スリーブ
  7
STYLE2
 73
     1
 44
1.0
1001
ACAD
1000
MTEXTBEGIN
1070
    73
1070
     1
1070
    44
1040
1.0
1070
    74
1070
     0
1000
MTEXTEND
  0
LINE
  5
2B085
330
747D
100
AcDbEntity
  8
部品1
100
AcDbLine
 10
3029.259065068659
 20
3580.968399242325
 30
0.0
 11
3029.259065068659
 21
321.898899887638
 31
0.0
  0
DIMENSION
  5
2B086
330
747D
100
AcDbEntity
  8
寸法
 48
50.0
100
AcDbDimension
  2
*D41
 10
4148.059756620437
 20
2454.338634416747
 30
0.0
 11
4268.059756620437
 21
2454.338634416747
 31
0.0
 70
   160
  1
120\P(195)
 71
     5
 42
240.0
  3
INABA_S40G
100
AcDbAlignedDimension
 13
4388.059756620437
 23
1929.75387452127
 33
0.0
 14
4148.059756620437
 24
1929.75387452127
 34
0.0
100
AcDbRotatedDimension
1001
ACAD
1000
DSTYLE
1002
{
1070
   341
1005
0
1002
}
  0
LEADER
  5
2B087
330
747D
100
AcDbEntity
  8
寸法
 48
50.0
100
AcDbLeader
  3
INABA_S40G
 73
     0
 74
     0
 75
     1
 40
127.8409090909091
 41
1133.522727272727
 76
     3
 10
6599.85889809193
 20
2266.15798507662
 30
0.0
 10
6699.698386052981
 20
2701.452636334892
 30
0.0
 10
6799.69838605298
 20
2701.452636334892
 30
0.0
340
2B088
1001
ACAD
1000
DSTYLE
1002
{
1070
   341
1005
0
1002
}
  0
MTEXT
  5
2B088
102
{ACAD_REACTORS
330
2B087
102
}
330
747D
100
AcDbEntity
  8
部品1
 62
     7
 48
50.0
100
AcDbMText
 10
6839.698386052981
 20
2805.373090880346
 30
0.0
 40
100.0
 41
1.0
 71
     4
 72
     1
  1
\A1;ワッシャー(市販品)
  7
STYLE2
 73
     1
 44
1.0
1001
ACAD
1000
MTEXTBEGIN
1070
    73
1070
     1
1070
    44
1040
1.0
1070
    74
1070
     0
1000
MTEXTEND
  0
LEADER
  5
2B089
330
747D
100
AcDbEntity
  8
寸法
 48
50.0
100
AcDbLeader
  3
INABA_S40G
 73
     0
 74
     0
 75
     1
 40
127.8409090909091
 41
850.0
 76
     3
 10
6569.858898091931
 20
2428.347975907699
 30
0.0
 10
6660.301361983629
 20
2932.663989790876
 30
0.0
 10
6760.301361983628
 20
2932.663989790876
 30
0.0
340
2B08A
1001
ACAD
1000
DSTYLE
1002
{
1070
   341
1005
0
1002
}
  0
MTEXT
  5
2B08A
102
{ACAD_REACTORS
330
2B089
102
}
330
747D
100
AcDbEntity
  8
部品1
 62
     7
 48
50.0
100
AcDbMText
 10
6800.301361983628
 20
3036.584444336331
 30
0.0
 40
100.0
 41
1.0
 71
     4
 72
     1
  1
\A1;ナット(市販品)
  7
STYLE2
 73
     1
 44
1.0
1001
ACAD
1000
MTEXTBEGIN
1070
    73
1070
     1
1070
    44
1040
1.0
1070
    74
1070
     0
1000
MTEXTEND
  0
MTEXT
  5
2B08B
102
{ACAD_REACTORS
330
2B08C
102
}
330
747D
100
AcDbEntity
  8
寸法
 62
     7
 48
50.0
100
AcDbMText
 10
6189.328807660757
 20
2582.005615643959
 30
0.0
 40
100.0
 41
1.0
 71
     6
 72
     1
  1
\A1;アンカープレート L
  7
STYLE2
 73
     1
 44
1.0
1001
ACAD
1000
MTEXTBEGIN
1070
    73
1070
     1
1070
    44
1040
1.0
1070
    74
1070
     0
1000
MTEXTEND
  0
LEADER
  5
2B08C
330
747D
100
AcDbEntity
  8
寸法
 48
50.0
100
AcDbLeader
  3
INABA_S40G
 73
     0
 75
     1
 40
132.9545454545455
 41
1116.477272727273
 76
     3
 10
6437.358898091931
 20
2016.703874521271
 30
0.0
 10
6329.328807660757
 20
2475.528342916686
 30
0.0
 10
6229.328807660756
 20
2475.528342916686
 30
0.0
340
2B08B
1001
ACAD
1000
DSTYLE
1002
{
1070
   341
1005
0
1002
}
  0
TEXT
  5
2B08D
330
747D
100
AcDbEntity
  8
部品1
 48
50.0
100
AcDbText
 10
3630.384879329242
 20
1643.802614875339
 30
0.0
 40
100.0
  1
▽G.L
  7
STYLE2
100
AcDbText
  0
LWPOLYLINE
  5
2B08E
330
747D
100
AcDbEntity
  8
部品1
 48
50.0
100
AcDbPolyline
 90
        2
 70
     0
 43
10.0
 10
3630.384879329242
 20
1629.753874521272
 10
4148.059756620437
 20
1629.753874521272
  0
DIMENSION
  5
2B08F
330
747D
100
AcDbEntity
  8
寸法
 48
50.0
100
AcDbDimension
  2
*D42
 10
3810.034364454864
 20
949.7538745212693
 30
0.0
 11
3810.034364454864
 21
1099.753874521269
 31
0.0
 70
   160
  1
150
 71
     5
 42
299.9999999999999
  3
INABA_S40G
100
AcDbAlignedDimension
 13
3988.059756620437
 23
1249.753874521269
 33
0.0
 14
3888.059756620442
 24
949.7538745212692
 34
0.0
 50
90.0
100
AcDbRotatedDimension
1001
ACAD
1000
DSTYLE
1002
{
1070
   341
1005
0
1002
}
  0
DIMENSION
  5
2B090
330
747D
100
AcDbEntity
  8
寸法
 48
50.0
100
AcDbDimension
  2
*D37
 10
3387.414818584374
 20
949.7538745212693
 30
0.0
 11
3387.414818584374
 21
1439.75387452127
 31
0.0
 70
   160
  1
540
 71
     5
 42
980.0000000000006
  3
INABA_S40G
100
AcDbAlignedDimension
 13
4148.059756620437
 23
1929.75387452127
 33
0.0
 14
3888.059756620442
 24
949.7538745212692
 34
0.0
 50
90.0
100
AcDbRotatedDimension
1001
ACAD
1000
DSTYLE
1002
{
1070
   341
1005
0
1002
}
  0
MTEXT
  5
2B091
102
{ACAD_REACTORS
330
2B092
102
}
330
747D
100
AcDbEntity
  8
寸法
 62
     7
 48
50.0
100
AcDbMText
 10
4064.141756702155
 20
2195.399149523824
 30
0.0
 40
100.0
 41
1.0
 71
     6
 72
     1
  1
\A1;金コテ押エ
  7
STYLE2
 73
     1
 44
1.0
1001
ACAD
1000
MTEXTBEGIN
1070
    73
1070
     1
1070
    44
1040
1.0
1070
    74
1070
     0
1000
MTEXTEND
  0
LEADER
  5
2B092
330
747D
100
AcDbEntity
  8
寸法
 48
50.0
100
AcDbLeader
  3
INABA_S40G
 71
     0
 73
     0
 75
     1
 40
130.1136363636363
 41
651.1363636363636
 76
     3
 10
4248.059756620437
 20
1929.75387452127
 30
0.0
 10
4189.141756702155
 20
2105.342331342004
 30
0.0
 10
4089.141756702155
 20
2105.342331342004
 30
0.0
1001
ACAD
1000
DSTYLE
1002
{
1070
   341
1005
0
1002
}
  0
LEADER
  5
2B093
330
747D
100
AcDbEntity
  8
寸法
 48
50.0
100
AcDbLeader
  3
INABA_S40G
 71
     0
 73
     0
 75
     1
 40
100.0
 41
540.3409090909091
 76
     3
 10
4278.059756620438
 20
1627.412892892673
 30
0.0
 10
4149.331960959564
 20
1350.574982216669
 30
0.0
 10
4049.331960959564
 20
1350.574982216669
 30
0.0
213
-12.16522788236671
223
-5.804645826423211
233
0.0
1001
ACAD
1000
DSTYLE
1002
{
1070
   341
1005
0
1002
}
  0
MTEXT
  5
2B094
102
{ACAD_REACTORS
330
2B093
102
}
330
747D
100
AcDbEntity
  8
寸法
 62
     7
 48
50.0
100
AcDbMText
 10
4036.497188841931
 20
1431.37962804309
 30
0.0
 40
100.0
 41
1.0
 71
     6
 72
     1
  1
\A1;D10@300
  7
STYLE2
 73
     1
 44
1.0
1001
ACAD
1000
MTEXTBEGIN
1070
    73
1070
     1
1070
    44
1040
1.0
1070
    74
1070
     0
1000
MTEXTEND
  0
MTEXT
  5
2B095
102
{ACAD_REACTORS
330
2B096
102
}
330
747D
100
AcDbEntity
  8
寸法
 62
     7
 48
50.0
100
AcDbMText
 10
3809.54438332324
 20
619.9553168239202
 30
0.0
 40
100.0
 41
1.0
 71
     6
 72
     1
  1
D13
  7
STYLE2
 73
     1
 44
1.0
1001
ACAD
1000
MTEXTBEGIN
1070
    73
1070
     1
1070
    44
1040
1.0
1070
    74
1070
     0
1000
MTEXTEND
  0
LEADER
  5
2B096
330
747D
100
AcDbEntity
  8
寸法
 48
50.0
100
AcDbLeader
  3
INABA_S40G
 71
     0
 73
     0
 75
     1
 40
100.0
 41
222.7272727272727
 76
     3
 10
4268.059756620437
 20
1099.753874521269
 30
0.0
 10
3934.54438332324
 20
544.9553168239202
 30
0.0
 10
3834.544383323239
 20
544.9553168239202
 30
0.0
1001
ACAD
1000
DSTYLE
1002
{
1070
   341
1005
0
1002
}
  0
LEADER
  5
2B097
330
747D
100
AcDbEntity
  8
寸法
 48
50.0
100
AcDbLeader
  3
INABA_S40G
 71
     0
 73
     0
 75
     1
 40
100.0
 41
225.0
 76
     3
 10
4107.938447060615
 20
1099.753874521269
 30
0.0
 10
3899.390973876445
 20
770.3505074982245
 30
0.0
 10
3799.390973876445
 20
770.3505074982245
 30
0.0
1001
ACAD
1000
DSTYLE
1002
{
1070
   341
1005
0
1002
}
  0
MTEXT
  5
2B098
102
{ACAD_REACTORS
330
2B097
102
}
330
747D
100
AcDbEntity
  8
寸法
 62
     7
 48
50.0
100
AcDbMText
 10
3774.390973876445
 20
845.3505074982244
 30
0.0
 40
100.0
 41
1.0
 71
     6
 72
     1
  1
D10
  7
STYLE2
 73
     1
 44
1.0
1001
ACAD
1000
MTEXTBEGIN
1070
    73
1070
     1
1070
    44
1040
1.0
1070
    74
1070
     0
1000
MTEXTEND
  0
LINE
  5
2B099
330
747D
100
AcDbEntity
  8
部品1
 48
50.0
100
AcDbLine
 10
4388.059756620438
 20
1929.75387452127
 30
0.0
 11
4388.059756620438
 21
1249.753874521269
 31
0.0
  0
LINE
  5
2B09A
330
747D
100
AcDbEntity
  8
細線
 48
50.0
100
AcDbLine
 10
4148.059756620438
 20
1308.312306723983
 30
0.0
 11
4278.059756620445
 21
1438.312306723983
 31
0.0
  0
LINE
  5
2B09B
330
747D
100
AcDbEntity
  8
細線
 48
50.0
100
AcDbLine
 10
4148.059756620438
 20
1375.664227632002
 30
0.0
 11
4278.059756620438
 21
1505.664227632002
 31
0.0
  0
LINE
  5
2B09C
330
747D
100
AcDbEntity
  8
細線
 48
50.0
100
AcDbLine
 10
4148.059756620438
 20
1341.988267177992
 30
0.0
 11
4278.059756620445
 21
1471.988267177996
 31
0.0
  0
LINE
  5
2B09D
330
747D
100
AcDbEntity
  8
部品1
 48
50.0
100
AcDbLine
 10
4148.059756620438
 20
1249.753874521269
 30
0.0
 11
4148.059756620438
 21
1929.75387452127
 31
0.0
  0
LINE
  5
2B09E
330
747D
100
AcDbEntity
  8
部品1
 48
50.0
100
AcDbLine
 10
4278.059756620445
 20
1099.753874521269
 30
0.0
 11
4278.059756620431
 21
1755.071911264076
 31
0.0
  0
LINE
  5
2B09F
330
747D
100
AcDbEntity
  8
部品1
 48
50.0
100
AcDbLine
 10
4298.059756620445
 20
1099.753874521269
 30
0.0
 11
4298.059756620438
 21
1755.071911264076
 31
0.0
  0
LINE
  5
2B0A0
330
747D
100
AcDbEntity
  8
部品1
 48
50.0
100
AcDbLine
 10
4388.059756620438
 20
1249.753874521269
 30
0.0
 11
4548.059756620438
 21
1249.753874521269
 31
0.0
  0
LINE
  5
2B0A1
330
747D
100
AcDbEntity
  8
細線
 48
50.0
100
AcDbLine
 10
4434.640731227868
 20
1089.753874521269
 30
0.0
 11
4548.059756620438
 21
1203.172899913844
 31
0.0
  0
LINE
  5
2B0A2
330
747D
100
AcDbEntity
  8
細線
 48
50.0
100
AcDbLine
 10
4468.316691681873
 20
1089.753874521269
 30
0.0
 11
4548.059756620438
 21
1169.496939459834
 31
0.0
  0
LINE
  5
2B0A3
330
747D
100
AcDbEntity
  8
細線
 48
50.0
100
AcDbLine
 10
4400.964770773849
 20
1089.753874521269
 30
0.0
 11
4548.059756620438
 21
1236.848860367852
 31
0.0
  0
LEADER
  5
2B0A4
330
747D
100
AcDbEntity
  8
寸法
 48
50.0
100
AcDbLeader
  3
INABA_S40G
 71
     0
 73
     0
 74
     0
 75
     1
 40
100.0
 41
225.0
 76
     3
 10
4427.938447060618
 20
1099.753874521269
 30
0.0
 10
4552.219331378793
 20
980.5075383425544
 30
0.0
 10
4652.219331378794
 20
980.5075383425544
 30
0.0
1001
ACAD
1000
DSTYLE
1002
{
1070
   341
1005
0
1002
}
  0
DIMENSION
  5
2B0A5
330
747D
100
AcDbEntity
  8
寸法
 48
50.0
100
AcDbDimension
  2
*D38
 10
4548.059756620438
 20
490.8017680653361
 30
0.0
 11
4268.059756620437
 21
490.8017680653361
 31
0.0
 70
   160
  1
300
 71
     5
 42
560.0000000000009
  3
INABA_S40G
100
AcDbAlignedDimension
 13
3988.059756620437
 23
789.753874521269
 33
0.0
 14
4548.059756620438
 24
789.753874521269
 34
0.0
100
AcDbRotatedDimension
1001
ACAD
1000
DSTYLE
1002
{
1070
   341
1005
0
1002
}
  0
LEADER
  5
2B0A6
330
747D
100
AcDbEntity
  8
寸法
 48
50.0
100
AcDbLeader
  3
INABA_S40G
 71
     0
 73
     0
 74
     0
 75
     1
 40
100.0
 41
540.3409090909091
 76
     3
 10
4360.491217886905
 20
1078.828211504363
 30
0.0
 10
4565.232826447
 20
651.7896890107413
 30
0.0
 10
4665.232826447001
 20
651.7896890107413
 30
0.0
213
0.0
223
-1.277828345336728
233
0.0
1001
ACAD
1000
DSTYLE
1002
{
1070
   341
1005
0
1002
}
  0
LINE
  5
2B0A7
330
747D
100
AcDbEntity
  8
部品1
 48
50.0
100
AcDbLine
 10
4648.059756620441
 20
949.7538745212692
 30
0.0
 11
3888.059756620442
 21
949.7538745212692
 31
0.0
  0
LINE
  5
2B0A8
330
747D
100
AcDbEntity
  8
部品1
 48
50.0
100
AcDbLine
 10
4648.059756620441
 20
789.753874521269
 30
0.0
 11
3888.059756620442
 21
789.753874521269
 31
0.0
  0
LINE
  5
2B0A9
330
747D
100
AcDbEntity
  8
細線
 48
50.0
100
AcDbLine
 10
4441.758418358575
 20
789.7538745212683
 30
0.0
 11
4484.630289147554
 21
949.7538745212683
 31
0.0
  0
LINE
  5
2B0AA
330
747D
100
AcDbEntity
  8
細線
 48
50.0
100
AcDbLine
 10
4244.538305990456
 20
789.753874521269
 30
0.0
 11
4287.410176779434
 21
949.7538745212692
 31
0.0
  0
LINE
  5
2B0AB
330
747D
100
AcDbEntity
  8
部品1
 48
50.0
100
AcDbLine
 10
3888.059756620442
 20
789.753874521269
 30
0.0
 11
3888.059756620442
 21
949.7538745212692
 31
0.0
  0
LINE
  5
2B0AC
330
747D
100
AcDbEntity
  8
細線
 48
50.0
100
AcDbLine
 10
3948.708137438262
 20
789.7538745212683
 30
0.0
 11
3991.58000822724
 21
949.7538745212683
 31
0.0
  0
LINE
  5
2B0AD
330
747D
100
AcDbEntity
  8
細線
 48
50.0
100
AcDbLine
 10
4145.928249806391
 20
789.7538745212683
 30
0.0
 11
4188.800120595369
 21
949.7538745212683
 31
0.0
  0
LINE
  5
2B0AE
330
747D
100
AcDbEntity
  8
細線
 48
50.0
100
AcDbLine
 10
4047.318193622333
 20
789.753874521269
 30
0.0
 11
4090.190064411312
 21
949.7538745212692
 31
0.0
  0
LINE
  5
2B0AF
330
747D
100
AcDbEntity
  8
細線
 48
50.0
100
AcDbLine
 10
4343.148362174512
 20
789.753874521269
 30
0.0
 11
4386.020232963494
 21
949.7538745212683
 31
0.0
  0
LINE
  5
2B0B0
330
747D
100
AcDbEntity
  8
細線
 48
50.0
100
AcDbLine
 10
4055.356669395266
 20
819.7538745212691
 30
0.0
 11
4063.395145168199
 21
789.753874521269
 31
0.0
  0
LINE
  5
2B0B1
330
747D
100
AcDbEntity
  8
細線
 48
50.0
100
AcDbLine
 10
3956.746613211203
 20
819.7538745212691
 30
0.0
 11
3964.785088984136
 21
789.753874521269
 31
0.0
  0
LINE
  5
2B0B2
330
747D
100
AcDbEntity
  8
細線
 48
50.0
100
AcDbLine
 10
4252.576781763397
 20
819.7538745212691
 30
0.0
 11
4260.61525753633
 21
789.753874521269
 31
0.0
  0
LINE
  5
2B0B3
330
747D
100
AcDbEntity
  8
細線
 48
50.0
100
AcDbLine
 10
4153.966725579332
 20
819.7538745212691
 30
0.0
 11
4162.005201352265
 21
789.753874521269
 31
0.0
  0
LINE
  5
2B0B4
330
747D
100
AcDbEntity
  8
細線
 48
50.0
100
AcDbLine
 10
4449.796894131512
 20
819.7538745212691
 30
0.0
 11
4457.835369904445
 21
789.753874521269
 31
0.0
  0
LINE
  5
2B0B5
330
747D
100
AcDbEntity
  8
細線
 48
50.0
100
AcDbLine
 10
4351.186837947454
 20
819.7538745212691
 30
0.0
 11
4359.225313720388
 21
789.753874521269
 31
0.0
  0
LINE
  5
2B0B6
330
747D
100
AcDbEntity
  8
部品1
 48
50.0
100
AcDbLine
 10
3988.059756620439
 20
1249.753874521269
 30
0.0
 11
4148.059756620438
 21
1249.753874521269
 31
0.0
  0
LINE
  5
2B0B7
330
747D
100
AcDbEntity
  8
細線
 48
50.0
100
AcDbLine
 10
3991.557087141781
 20
949.7538745212692
 30
0.0
 11
4111.557087141779
 21
1069.753874521269
 31
0.0
  0
LINE
  5
2B0B8
330
747D
100
AcDbEntity
  8
細線
 48
50.0
100
AcDbLine
 10
4025.233047595793
 20
949.7538745212692
 30
0.0
 11
4145.233047595794
 21
1069.753874521269
 31
0.0
  0
CIRCLE
  5
2B0B9
330
747D
100
AcDbEntity
  8
部品1
 48
50.0
100
AcDbCircle
 10
4108.059756620438
 20
1099.753874521269
 30
0.0
 40
10.0
  0
LINE
  5
2B0BA
330
747D
100
AcDbEntity
  8
細線
 48
50.0
100
AcDbLine
 10
4058.909008049798
 20
949.7538745212692
 30
0.0
 11
4178.909008049799
 21
1069.753874521269
 31
0.0
  0
LINE
  5
2B0BB
330
747D
100
AcDbEntity
  8
部品1
 48
50.0
100
AcDbLine
 10
4058.059756620438
 20
1089.753874521269
 30
0.0
 11
4478.059756620438
 21
1089.753874521269
 31
0.0
  0
LINE
  5
2B0BC
330
747D
100
AcDbEntity
  8
部品1
 48
50.0
100
AcDbLine
 10
4058.059756620438
 20
1069.753874521269
 30
0.0
 11
4478.059756620438
 21
1069.753874521269
 31
0.0
  0
LINE
  5
2B0BD
330
747D
100
AcDbEntity
  8
部品1
 48
50.0
100
AcDbLine
 10
3988.059756620439
 20
949.7538745212692
 30
0.0
 11
3988.059756620439
 21
1249.753874521269
 31
0.0
  0
LINE
  5
2B0BE
330
747D
100
AcDbEntity
  8
細線
 48
50.0
100
AcDbLine
 10
3888.059756620439
 20
931.4287757284942
 30
0.0
 11
3892.969952043183
 21
949.7538745212692
 31
0.0
  0
LINE
  5
2B0BF
330
747D
100
AcDbEntity
  8
細線
 48
50.0
100
AcDbLine
 10
3983.541532454314
 20
919.7538745212703
 30
0.0
 11
3975.503056681379
 21
949.7538745212692
 31
0.0
  0
LINE
  5
2B0C0
330
747D
100
AcDbEntity
  8
細線
 48
50.0
100
AcDbLine
 10
4082.151588638378
 20
919.7538745212703
 30
0.0
 11
4074.113112865445
 21
949.7538745212692
 31
0.0
  0
LINE
  5
2B0C1
330
747D
100
AcDbEntity
  8
部品1
 48
50.0
100
AcDbLine
 10
4058.059756620438
 20
1089.753874521269
 30
0.0
 11
4058.059756620438
 21
1069.753874521269
 31
0.0
  0
LINE
  5
2B0C2
330
747D
100
AcDbEntity
  8
細線
 48
50.0
100
AcDbLine
 10
3988.059756620431
 20
1148.312306723983
 30
0.0
 11
4089.501324417724
 21
1249.753874521269
 31
0.0
  0
LINE
  5
2B0C3
330
747D
100
AcDbEntity
  8
細線
 48
50.0
100
AcDbLine
 10
3988.059756620431
 20
1215.664227632002
 30
0.0
 11
4022.149403509706
 21
1249.753874521269
 31
0.0
  0
LINE
  5
2B0C4
330
747D
100
AcDbEntity
  8
細線
 48
50.0
100
AcDbLine
 10
3988.059756620431
 20
1181.988267177989
 30
0.0
 11
4055.825363963719
 21
1249.753874521269
 31
0.0
  0
LINE
  5
2B0C5
330
747D
100
AcDbEntity
  8
部品1
 48
50.0
100
AcDbLine
 10
4258.059756620438
 20
1172.412892892673
 30
0.0
 11
4258.059756620438
 21
1099.753874521269
 31
0.0
  0
LINE
  5
2B0C6
330
747D
100
AcDbEntity
  8
細線
 48
50.0
100
AcDbLine
 10
4165.233047595792
 20
1089.753874521269
 30
0.0
 11
4238.059756620438
 21
1162.580583545918
 31
0.0
  0
LINE
  5
2B0C7
330
747D
100
AcDbEntity
  8
部品1
 48
50.0
100
AcDbLine
 10
4238.059756620438
 20
1172.412892892673
 30
0.0
 11
4238.059756620438
 21
1099.753874521269
 31
0.0
  0
LINE
  5
2B0C8
330
747D
100
AcDbEntity
  8
細線
 48
50.0
100
AcDbLine
 10
4198.909008049798
 20
1089.753874521269
 30
0.0
 11
4238.059756620438
 21
1128.904623091908
 31
0.0
  0
LINE
  5
2B0C9
330
747D
100
AcDbEntity
  8
細線
 48
50.0
100
AcDbLine
 10
4131.557087141779
 20
1089.753874521269
 30
0.0
 11
4278.059756620438
 21
1236.256543999928
 31
0.0
  0
LINE
  5
2B0CA
330
747D
100
AcDbEntity
  8
細線
 48
50.0
100
AcDbLine
 10
4260.964770773855
 20
949.7538745212692
 30
0.0
 11
4380.964770773855
 21
1069.753874521269
 31
0.0
  0
LINE
  5
2B0CB
330
747D
100
AcDbEntity
  8
細線
 48
50.0
100
AcDbLine
 10
4294.640731227867
 20
949.7538745212692
 30
0.0
 11
4414.640731227868
 21
1069.753874521269
 31
0.0
  0
CIRCLE
  5
2B0CC
330
747D
100
AcDbEntity
  8
部品1
 48
50.0
100
AcDbCircle
 10
4268.059756620437
 20
1099.753874521269
 30
0.0
 40
10.0
  0
LINE
  5
2B0CD
330
747D
100
AcDbEntity
  8
細線
 48
50.0
100
AcDbLine
 10
4180.761644822443
 20
919.7538745212703
 30
0.0
 11
4172.72316904951
 21
949.7538745212692
 31
0.0
  0
ARC
  5
2B0CE
330
747D
100
AcDbEntity
  8
部品1
 48
50.0
100
AcDbCircle
 10
4268.059756620437
 20
1099.753874521269
 30
0.0
 40
30.0
100
AcDbArc
 50
180.0
 51
199.471220634529
  0
LINE
  5
2B0CF
330
747D
100
AcDbEntity
  8
細線
 48
50.0
100
AcDbLine
 10
4279.371701006509
 20
919.7538745212703
 30
0.0
 11
4271.333225233575
 21
949.7538745212692
 31
0.0
  0
ARC
  5
2B0D0
330
747D
100
AcDbEntity
  8
部品1
 48
50.0
100
AcDbCircle
 10
4268.059756620437
 20
1099.753874521269
 30
0.0
 40
30.0
100
AcDbArc
 50
340.5287793654709
 51
0.0
  0
LINE
  5
2B0D1
330
747D
100
AcDbEntity
  8
細線
 48
50.0
100
AcDbLine
 10
4377.981757190566
 20
919.7538745212703
 30
0.0
 11
4369.943281417632
 21
949.7538745212692
 31
0.0
  0
CIRCLE
  5
2B0D2
330
747D
100
AcDbEntity
  8
部品1
 48
50.0
100
AcDbCircle
 10
4428.059756620437
 20
1099.753874521269
 30
0.0
 40
10.0
  0
LINE
  5
2B0D3
330
747D
100
AcDbEntity
  8
細線
 48
50.0
100
AcDbLine
 10
4476.591813374624
 20
919.7538745212703
 30
0.0
 11
4468.553337601689
 21
949.7538745212692
 31
0.0
  0
LINE
  5
2B0D4
330
747D
100
AcDbEntity
  8
部品1
 48
50.0
100
AcDbLine
 10
4478.059756620438
 20
1089.753874521269
 30
0.0
 11
4478.059756620438
 21
1069.753874521269
 31
0.0
  0
LINE
  5
2B0D5
330
747D
100
AcDbEntity
  8
細線
 48
50.0
100
AcDbLine
 10
4328.316691681872
 20
949.7538745212692
 30
0.0
 11
4448.317801488294
 21
1069.754984327694
 31
0.0
  0
LINE
  5
2B0D6
330
747D
100
AcDbEntity
  8
細線
 48
50.0
100
AcDbLine
 10
4298.059756620445
 20
1188.904623091908
 30
0.0
 11
4388.059756620431
 21
1278.904623091908
 31
0.0
  0
LINE
  5
2B0D7
330
747D
100
AcDbEntity
  8
細線
 48
50.0
100
AcDbLine
 10
4298.059756620445
 20
1256.256543999932
 30
0.0
 11
4388.059756620431
 21
1346.256543999927
 31
0.0
  0
LINE
  5
2B0D8
330
747D
100
AcDbEntity
  8
細線
 48
50.0
100
AcDbLine
 10
4298.059756620445
 20
1222.580583545922
 30
0.0
 11
4388.059756620431
 21
1312.580583545915
 31
0.0
  0
LINE
  5
2B0D9
330
747D
100
AcDbEntity
  8
細線
 48
50.0
100
AcDbLine
 10
4258.059756620438
 20
1148.904623091908
 30
0.0
 11
4278.059756620445
 21
1168.904623091908
 31
0.0
  0
LINE
  5
2B0DA
330
747D
100
AcDbEntity
  8
細線
 48
50.0
100
AcDbLine
 10
4247.892065967191
 20
1172.412892892673
 30
0.0
 11
4278.059756620445
 21
1202.580583545922
 31
0.0
  0
LINE
  5
2B0DB
330
747D
100
AcDbEntity
  8
部品1
 48
50.0
100
AcDbLine
 10
4258.059756620438
 20
1172.412892892673
 30
0.0
 11
4238.059756620438
 21
1172.412892892673
 31
0.0
  0
LINE
  5
2B0DC
330
747D
100
AcDbEntity
  8
細線
 48
50.0
100
AcDbLine
 10
4540.368474542629
 20
789.753874521269
 30
0.0
 11
4583.240345331611
 21
949.7538745212683
 31
0.0
  0
LINE
  5
2B0DD
330
747D
100
AcDbEntity
  8
部品1
 48
50.0
100
AcDbLine
 10
4648.059756620441
 20
949.7538745212692
 30
0.0
 11
4648.059756620441
 21
789.753874521269
 31
0.0
  0
MTEXT
  5
2B0DE
102
{ACAD_REACTORS
330
2B0A6
102
}
330
747D
100
AcDbEntity
  8
寸法
 62
     7
 48
50.0
100
AcDbMText
 10
4690.232826447
 20
728.067517356078
 30
0.0
 40
100.0
 41
1.0
 71
     4
 72
     1
  1
\A1;D10@300
  7
STYLE2
 73
     1
 44
1.0
1001
ACAD
1000
MTEXTBEGIN
1070
    73
1070
     1
1070
    44
1040
1.0
1070
    74
1070
     0
1000
MTEXTEND
  0
LINE
  5
2B0DF
330
747D
100
AcDbEntity
  8
細線
 48
50.0
100
AcDbLine
 10
4638.978530726691
 20
789.7538745212683
 30
0.0
 11
4648.059756620438
 21
823.6454709517552
 31
0.0
  0
LINE
  5
2B0E0
330
747D
100
AcDbEntity
  8
細線
 48
50.0
100
AcDbLine
 10
4647.017006499627
 20
819.7538745212691
 30
0.0
 11
4648.059756620438
 21
815.8622780908133
 31
0.0
  0
LINE
  5
2B0E1
330
747D
100
AcDbEntity
  8
細線
 48
50.0
100
AcDbLine
 10
4548.406950315569
 20
819.7538745212691
 30
0.0
 11
4556.445426088504
 21
789.753874521269
 31
0.0
  0
LINE
  5
2B0E2
330
747D
100
AcDbEntity
  8
部品1
 48
50.0
100
AcDbLine
 10
4548.059756620438
 20
1249.753874521269
 30
0.0
 11
4548.059756620438
 21
949.7538745212692
 31
0.0
  0
MTEXT
  5
2B0E3
102
{ACAD_REACTORS
330
2B0A4
102
}
330
747D
100
AcDbEntity
  8
寸法
 62
     7
 48
50.0
100
AcDbMText
 10
4677.219331378792
 20
1055.507538342553
 30
0.0
 40
100.0
 41
1.0
 71
     4
 72
     1
  1
D10
  7
STYLE2
 73
     1
 44
1.0
1001
ACAD
1000
MTEXTBEGIN
1070
    73
1070
     1
1070
    44
1040
1.0
1070
    74
1070
     0
1000
MTEXTEND
  0
LINE
  5
2B0E4
330
747D
100
AcDbEntity
  8
細線
 48
50.0
100
AcDbLine
 10
4530.37245440593
 20
949.7538745212692
 30
0.0
 11
4548.059756620438
 21
967.4411767357783
 31
0.0
  0
LINE
  5
2B0E5
330
747D
100
AcDbEntity
  8
細線
 48
50.0
100
AcDbLine
 10
4575.201869558683
 20
919.7538745212703
 30
0.0
 11
4567.163393785746
 21
949.7538745212692
 31
0.0
  0
MTEXT
  5
2B0E6
102
{ACAD_REACTORS
330
2B0E8
102
}
330
747D
100
AcDbEntity
  8
寸法
 62
     7
 48
50.0
100
AcDbMText
 10
4491.667177904679
 20
1756.338326144929
 30
0.0
 40
100.0
 41
1.0
 71
     4
 72
     1
  1
D13
  7
STYLE2
 73
     1
 44
1.0
1001
ACAD
1000
MTEXTBEGIN
1070
    73
1070
     1
1070
    44
1040
1.0
1070
    74
1070
     0
1000
MTEXTEND
  0
LWPOLYLINE
  5
2B0E7
330
747D
100
AcDbEntity
  8
部品1
 48
50.0
100
AcDbPolyline
 90
        2
 70
     0
 43
10.0
 10
4388.059756620437
 20
1629.753874521272
 10
4905.734633911635
 20
1629.753874521272
  0
LEADER
  5
2B0E8
330
747D
100
AcDbEntity
  8
寸法
 48
50.0
100
AcDbLeader
  3
INABA_S40G
 71
     0
 73
     0
 74
     0
 75
     1
 40
100.0
 41
222.7272727272727
 76
     3
 10
4268.059756620437
 20
1755.071911264076
 30
0.0
 10
4366.66717790468
 20
1681.338326144929
 30
0.0
 10
4466.667177904681
 20
1681.338326144929
 30
0.0
1001
ACAD
1000
DSTYLE
1002
{
1070
   341
1005
0
1002
}
  0
LINE
  5
2B0E9
330
747D
100
AcDbEntity
  8
部品1
 48
50.0
100
AcDbLine
 10
4258.059756620438
 20
1682.412892892673
 30
0.0
 11
4258.059756620438
 21
1755.071911264076
 31
0.0
  0
LINE
  5
2B0EA
330
747D
100
AcDbEntity
  8
部品1
 48
50.0
100
AcDbLine
 10
4238.059756620438
 20
1682.412892892677
 30
0.0
 11
4238.059756620438
 21
1755.071911264076
 31
0.0
  0
LINE
  5
2B0EB
330
747D
100
AcDbEntity
  8
細線
 48
50.0
100
AcDbLine
 10
4258.059756620438
 20
1687.719990356059
 30
0.0
 11
4278.059756620438
 21
1707.719990356058
 31
0.0
  0
LINE
  5
2B0EC
330
747D
100
AcDbEntity
  8
細線
 48
50.0
100
AcDbLine
 10
4148.059756620438
 20
1645.071911264076
 30
0.0
 11
4238.059756620438
 21
1735.071911264076
 31
0.0
  0
LINE
  5
2B0ED
330
747D
100
AcDbEntity
  8
細線
 48
50.0
100
AcDbLine
 10
4148.059756620438
 20
1611.395950810067
 30
0.0
 11
4238.059756620438
 21
1701.395950810067
 31
0.0
  0
LINE
  5
2B0EE
330
747D
100
AcDbEntity
  8
細線
 48
50.0
100
AcDbLine
 10
4298.059756620445
 20
1491.988267177996
 30
0.0
 11
4388.059756620431
 21
1581.988267177989
 31
0.0
  0
LINE
  5
2B0EF
330
747D
100
AcDbEntity
  8
細線
 48
50.0
100
AcDbLine
 10
4298.059756620438
 20
1525.664227632001
 30
0.0
 11
4388.059756620438
 21
1615.664227632002
 31
0.0
  0
LINE
  5
2B0F0
330
747D
100
AcDbEntity
  8
細線
 48
50.0
100
AcDbLine
 10
4298.059756620445
 20
1458.312306723983
 30
0.0
 11
4388.059756620431
 21
1548.312306723983
 31
0.0
  0
LINE
  5
2B0F1
330
747D
100
AcDbEntity
  8
部品1
 48
50.0
100
AcDbLine
 10
4258.059756620438
 20
1682.412892892673
 30
0.0
 11
4238.059756620438
 21
1682.412892892677
 31
0.0
  0
LINE
  5
2B0F2
330
747D
100
AcDbEntity
  8
細線
 48
50.0
100
AcDbLine
 10
4148.059756620438
 20
1577.719990356058
 30
0.0
 11
4252.752659157057
 21
1682.412892892673
 31
0.0
  0
LINE
  5
2B0F3
330
747D
100
AcDbEntity
  8
部品1
 48
50.0
100
AcDbLine
 10
4148.059756620438
 20
1929.75387452127
 30
0.0
 11
4388.059756620438
 21
1929.75387452127
 31
0.0
  0
LINE
  5
2B0F4
330
747D
100
AcDbEntity
  8
細線
 48
50.0
100
AcDbLine
 10
4283.675284748524
 20
1780.687439392165
 30
0.0
 11
4388.059756620438
 21
1885.071911264076
 31
0.0
  0
LINE
  5
2B0F5
330
747D
100
AcDbEntity
  8
細線
 48
50.0
100
AcDbLine
 10
4297.500640702921
 20
1760.836834892547
 30
0.0
 11
4388.059756620438
 21
1851.395950810067
 31
0.0
  0
LINE
  5
2B0F6
330
747D
100
AcDbEntity
  8
細線
 48
50.0
100
AcDbLine
 10
4298.059756620438
 20
1727.719990356057
 30
0.0
 11
4388.059756620438
 21
1817.719990356058
 31
0.0
  0
LINE
  5
2B0F7
330
747D
100
AcDbEntity
  8
細線
 48
50.0
100
AcDbLine
 10
4258.059756620438
 20
1721.395950810067
 30
0.0
 11
4278.059756620438
 21
1741.395950810067
 31
0.0
  0
CIRCLE
  5
2B0F8
330
747D
100
AcDbEntity
  8
部品1
 48
50.0
100
AcDbCircle
 10
4268.059756620437
 20
1755.071911264076
 30
0.0
 40
10.0
  0
ARC
  5
2B0F9
330
747D
100
AcDbEntity
  8
部品1
 48
50.0
100
AcDbCircle
 10
4268.059756620437
 20
1755.071911264076
 30
0.0
 40
30.0
100
AcDbArc
 50
0.0
 51
180.0
  0
LINE
  5
2B0FA
330
747D
100
AcDbEntity
  8
細線
 48
50.0
100
AcDbLine
 10
4148.059756620438
 20
1914.479594896151
 30
0.0
 11
4163.334036245555
 21
1929.75387452127
 31
0.0
  0
LINE
  5
2B0FB
330
747D
100
AcDbEntity
  8
細線
 48
50.0
100
AcDbLine
 10
4148.059756620438
 20
1847.127673988133
 30
0.0
 11
4230.685957153575
 21
1929.75387452127
 31
0.0
  0
LINE
  5
2B0FC
330
747D
100
AcDbEntity
  8
細線
 48
50.0
100
AcDbLine
 10
4148.059756620438
 20
1880.803634442142
 30
0.0
 11
4197.009996699569
 21
1929.75387452127
 31
0.0
  0
LEADER
  5
2B0FD
330
747D
100
AcDbEntity
  8
寸法
 48
50.0
100
AcDbLeader
  3
INABA_S40G
 73
     0
 74
     0
 75
     1
 40
100.0
 41
543.75
 76
     3
 10
6561.10889809193
 20
1991.20387452127
 30
0.0
 10
6661.789476116078
 20
2170.233032212808
 30
0.0
 10
6761.789476116078
 20
2170.233032212808
 30
0.0
340
2B0FE
1001
ACAD
1000
DSTYLE
1002
{
1070
   341
1005
0
1002
}
  0
MTEXT
  5
2B0FE
102
{ACAD_REACTORS
330
2B0FD
102
}
330
747D
100
AcDbEntity
  8
部品1
 62
     7
 48
50.0
100
AcDbMText
 10
6801.789476116079
 20
2260.233032212808
 30
0.0
 40
100.0
 41
1.0
 71
     4
 72
     1
  1
M10X160
  7
STYLE2
 73
     1
 44
1.0
1001
ACAD
1000
MTEXTBEGIN
1070
    73
1070
     1
1070
    44
1040
1.0
1070
    74
1070
     0
1000
MTEXTEND
  0
DIMENSION
  5
2B0FF
330
747D
100
AcDbEntity
  8
寸法
 48
50.0
100
AcDbDimension
  2
*D39
 10
7417.944647802986
 20
1524.753874521268
 30
0.0
 11
7317.944647802986
 21
1727.25387452127
 31
0.0
 70
    32
  1
180
 71
     5
 42
405.0000000000018
  3
INABA_S40G
100
AcDbAlignedDimension
 13
6790.608898091931
 23
1929.75387452127
 33
0.0
 14
6790.608898091931
 24
1524.753874521268
 34
0.0
 50
90.0
100
AcDbRotatedDimension
1001
ACAD
1000
DSTYLE
1002
{
1070
   341
1005
0
1002
}
  0
LWPOLYLINE
  5
2B100
330
747D
100
AcDbEntity
  8
部品1
 48
50.0
100
AcDbPolyline
 90
        2
 70
     0
 43
10.0
 10
6790.608898091931
 20
1629.753874521272
 10
7157.736977341162
 20
1629.753874521272
  0
LINE
  5
2B101
330
747D
100
AcDbEntity
  8
部品1
 48
50.0
100
AcDbLine
 10
7050.608898091934
 20
949.7538745212692
 30
0.0
 11
6013.108898091934
 21
949.7538745212692
 31
0.0
  0
LINE
  5
2B102
330
747D
100
AcDbEntity
  8
細線
 48
50.0
100
AcDbLine
 10
6969.286260339238
 20
819.7538745212684
 30
0.0
 11
6977.324736112172
 21
789.7538745212683
 31
0.0
  0
LINE
  5
2B103
330
747D
100
AcDbEntity
  8
部品1
 48
50.0
100
AcDbLine
 10
7050.608898091934
 20
789.753874521269
 30
0.0
 11
6013.108898091934
 21
789.753874521269
 31
0.0
  0
LINE
  5
2B104
330
747D
100
AcDbEntity
  8
細線
 48
50.0
100
AcDbLine
 10
6961.247784566298
 20
789.7538745212683
 30
0.0
 11
7004.119655355281
 21
949.7538745212663
 31
0.0
  0
DIMENSION
  5
2B105
330
747D
100
AcDbEntity
  8
寸法
 48
50.0
100
AcDbDimension
  2
*D40
 10
7763.012980451769
 20
1929.75387452127
 30
0.0
 11
7763.012980451769
 21
1463.744971099788
 31
0.0
 70
   160
  1
20～25
 71
     5
 42
65.94999999999981
  3
INABA_S40G
100
AcDbAlignedDimension
 13
6556.60889809193
 23
1995.70387452127
 33
0.0
 14
6790.608898091931
 24
1929.75387452127
 34
0.0
 50
90.0
100
AcDbRotatedDimension
1001
ACAD
1000
DSTYLE
1002
{
1070
   341
1005
0
1002
}
  0
TEXT
  5
2B106
330
747D
100
AcDbEntity
  8
部品1
 48
50.0
100
AcDbText
 10
6796.050878447466
 20
2374.60222547402
 30
0.0
 40
100.0
  1
基礎ボルト(市販品)
  7
STYLE2
100
AcDbText
  0
LINE
  5
2B107
330
747D
100
AcDbEntity
  8
細線
 48
50.0
100
AcDbLine
 10
6150.282189067284
 20
949.7538745212692
 30
0.0
 11
6790.608898091933
 21
1590.080583545913
 31
0.0
  0
LINE
  5
2B108
330
747D
100
AcDbEntity
  8
細線
 48
50.0
100
AcDbLine
 10
6183.958149521291
 20
949.7538745212692
 30
0.0
 11
6790.608898091931
 21
1556.404623091905
 31
0.0
  0
LINE
  5
2B109
330
747D
100
AcDbEntity
  8
細線
 48
50.0
100
AcDbLine
 10
6273.10889809193
 20
1375.664227632002
 30
0.0
 11
6471.108898091921
 21
1573.664227631995
 31
0.0
  0
LINE
  5
2B10A
330
747D
100
AcDbEntity
  8
細線
 48
50.0
100
AcDbLine
 10
6273.10889809193
 20
1308.312306723983
 30
0.0
 11
6489.550465889222
 21
1524.753874521268
 31
0.0
  0
LINE
  5
2B10B
330
747D
100
AcDbEntity
  8
細線
 48
50.0
100
AcDbLine
 10
6273.10889809193
 20
1341.988267177992
 30
0.0
 11
6471.108898091921
 21
1539.988267177978
 31
0.0
  0
LINE
  5
2B10C
330
747D
100
AcDbEntity
  8
部品1
 48
50.0
100
AcDbLine
 10
6273.10889809193
 20
1249.753874521269
 30
0.0
 11
6273.10889809193
 21
1929.75387452127
 31
0.0
  0
LINE
  5
2B10D
330
747D
100
AcDbEntity
  8
部品1
100
AcDbLine
 10
6790.608898091929
 20
1249.753874521269
 30
0.0
 11
6790.608898091931
 21
1929.75387452127
 31
0.0
  0
LINE
  5
2B10E
330
747D
100
AcDbEntity
  8
細線
 48
50.0
100
AcDbLine
 10
6116.606228613273
 20
949.7538745212692
 30
0.0
 11
6790.608898091929
 21
1623.756543999926
 31
0.0
  0
LINE
  5
2B10F
330
747D
100
AcDbEntity
  8
部品1
 48
50.0
100
AcDbLine
 10
6113.10889809193
 20
1249.753874521269
 30
0.0
 11
6273.10889809193
 21
1249.753874521269
 31
0.0
  0
LINE
  5
2B110
330
747D
100
AcDbEntity
  8
細線
 48
50.0
100
AcDbLine
 10
6113.108898091923
 20
1148.312306723983
 30
0.0
 11
6214.550465889217
 21
1249.753874521269
 31
0.0
  0
LINE
  5
2B111
330
747D
100
AcDbEntity
  8
細線
 48
50.0
100
AcDbLine
 10
6113.108898091923
 20
1181.988267177989
 30
0.0
 11
6180.874505435212
 21
1249.753874521269
 31
0.0
  0
LINE
  5
2B112
330
747D
100
AcDbEntity
  8
細線
 48
50.0
100
AcDbLine
 10
6073.757278909753
 20
789.7538745212683
 30
0.0
 11
6116.629149698733
 21
949.7538745212683
 31
0.0
  0
LINE
  5
2B113
330
747D
100
AcDbEntity
  8
部品1
 48
50.0
100
AcDbLine
 10
6013.108898091934
 20
789.753874521269
 30
0.0
 11
6013.108898091934
 21
949.7538745212692
 31
0.0
  0
LINE
  5
2B114
330
747D
100
AcDbEntity
  8
細線
 48
50.0
100
AcDbLine
 10
6081.795754682694
 20
819.7538745212691
 30
0.0
 11
6089.834230455627
 21
789.753874521269
 31
0.0
  0
LINE
  5
2B115
330
747D
100
AcDbEntity
  8
部品1
 48
50.0
100
AcDbLine
 10
6113.10889809193
 20
949.7538745212692
 30
0.0
 11
6113.10889809193
 21
1249.753874521269
 31
0.0
  0
LINE
  5
2B116
330
747D
100
AcDbEntity
  8
細線
 48
50.0
100
AcDbLine
 10
6108.590673925807
 20
919.7538745212703
 30
0.0
 11
6100.552198152874
 21
949.7538745212692
 31
0.0
  0
LINE
  5
2B117
330
747D
100
AcDbEntity
  8
細線
 48
50.0
100
AcDbLine
 10
6013.10889809193
 20
931.4287757284942
 30
0.0
 11
6018.019093514674
 21
949.7538745212692
 31
0.0
  0
LINE
  5
2B118
330
747D
100
AcDbEntity
  8
細線
 48
50.0
100
AcDbLine
 10
6113.108898091923
 20
1215.664227632002
 30
0.0
 11
6147.198544981197
 21
1249.753874521269
 31
0.0
  0
LINE
  5
2B119
330
747D
100
AcDbEntity
  8
細線
 48
50.0
100
AcDbLine
 10
6270.977391277882
 20
789.7538745212683
 30
0.0
 11
6313.849262066861
 21
949.7538745212683
 31
0.0
  0
LINE
  5
2B11A
330
747D
100
AcDbEntity
  8
細線
 48
50.0
100
AcDbLine
 10
6172.367335093826
 20
789.753874521269
 30
0.0
 11
6215.239205882806
 21
949.7538745212692
 31
0.0
  0
LINE
  5
2B11B
330
747D
100
AcDbEntity
  8
細線
 48
50.0
100
AcDbLine
 10
6665.417616014119
 20
789.753874521269
 30
0.0
 11
6708.289486803103
 21
949.7538745212683
 31
0.0
  0
LINE
  5
2B11C
330
747D
100
AcDbEntity
  8
細線
 48
50.0
100
AcDbLine
 10
6468.197503646006
 20
789.753874521269
 30
0.0
 11
6511.069374434987
 21
949.7538745212683
 31
0.0
  0
LINE
  5
2B11D
330
747D
100
AcDbEntity
  8
細線
 48
50.0
100
AcDbLine
 10
6369.587447461949
 20
789.753874521269
 30
0.0
 11
6412.459318250926
 21
949.7538745212692
 31
0.0
  0
LINE
  5
2B11E
330
747D
100
AcDbEntity
  8
細線
 48
50.0
100
AcDbLine
 10
6566.807559830067
 20
789.7538745212683
 30
0.0
 11
6609.679430619047
 21
949.7538745212683
 31
0.0
  0
LINE
  5
2B11F
330
747D
100
AcDbEntity
  8
細線
 48
50.0
100
AcDbLine
 10
6862.637728382242
 20
789.7538745212663
 30
0.0
 11
6905.509599171222
 21
949.7538745212663
 31
0.0
  0
LINE
  5
2B120
330
747D
100
AcDbEntity
  8
細線
 48
50.0
100
AcDbLine
 10
6764.027672198183
 20
789.7538745212683
 30
0.0
 11
6806.899542987149
 21
949.7538745212692
 31
0.0
  0
LINE
  5
2B121
330
747D
100
AcDbEntity
  8
細線
 48
50.0
100
AcDbLine
 10
6279.015867050826
 20
819.7538745212691
 30
0.0
 11
6287.054342823759
 21
789.753874521269
 31
0.0
  0
LINE
  5
2B122
330
747D
100
AcDbEntity
  8
細線
 48
50.0
100
AcDbLine
 10
6180.405810866758
 20
819.7538745212691
 30
0.0
 11
6188.444286639693
 21
789.753874521269
 31
0.0
  0
LINE
  5
2B123
330
747D
100
AcDbEntity
  8
細線
 48
50.0
100
AcDbLine
 10
6476.235979418946
 20
819.7538745212691
 30
0.0
 11
6484.274455191878
 21
789.753874521269
 31
0.0
  0
LINE
  5
2B124
330
747D
100
AcDbEntity
  8
細線
 48
50.0
100
AcDbLine
 10
6377.625923234889
 20
819.7538745212691
 30
0.0
 11
6385.664399007824
 21
789.753874521269
 31
0.0
  0
LINE
  5
2B125
330
747D
100
AcDbEntity
  8
細線
 48
50.0
100
AcDbLine
 10
6673.456091787064
 20
819.7538745212691
 30
0.0
 11
6681.494567559997
 21
789.753874521269
 31
0.0
  0
LINE
  5
2B126
330
747D
100
AcDbEntity
  8
細線
 48
50.0
100
AcDbLine
 10
6574.846035603002
 20
819.7538745212691
 30
0.0
 11
6582.884511375937
 21
789.753874521269
 31
0.0
  0
LINE
  5
2B127
330
747D
100
AcDbEntity
  8
細線
 48
50.0
100
AcDbLine
 10
6870.676204155181
 20
819.7538745212684
 30
0.0
 11
6878.714679928116
 21
789.7538745212683
 31
0.0
  0
LINE
  5
2B128
330
747D
100
AcDbEntity
  8
細線
 48
50.0
100
AcDbLine
 10
6772.066147971121
 20
819.7538745212691
 30
0.0
 11
6780.104623744067
 21
789.753874521269
 31
0.0
  0
LINE
  5
2B129
330
747D
100
AcDbEntity
  8
細線
 48
50.0
100
AcDbLine
 10
6453.365833153366
 20
949.7538745212692
 30
0.0
 11
6790.608898091931
 21
1286.996939459841
 31
0.0
  0
LINE
  5
2B12A
330
747D
100
AcDbEntity
  8
細線
 48
50.0
100
AcDbLine
 10
6419.689872699358
 20
949.7538745212692
 30
0.0
 11
6790.608898091931
 21
1320.672899913835
 31
0.0
  0
LINE
  5
2B12B
330
747D
100
AcDbEntity
  8
細線
 48
50.0
100
AcDbLine
 10
6386.013912245346
 20
949.7538745212692
 30
0.0
 11
6790.608898091929
 21
1354.348860367852
 31
0.0
  0
LINE
  5
2B12C
330
747D
100
AcDbEntity
  8
細線
 48
50.0
100
AcDbLine
 10
6305.810786293935
 20
919.7538745212703
 30
0.0
 11
6297.772310521002
 21
949.7538745212692
 31
0.0
  0
LINE
  5
2B12D
330
747D
100
AcDbEntity
  8
細線
 48
50.0
100
AcDbLine
 10
6207.20073010987
 20
919.7538745212703
 30
0.0
 11
6199.162254336939
 21
949.7538745212692
 31
0.0
  0
LINE
  5
2B12E
330
747D
100
AcDbEntity
  8
細線
 48
50.0
100
AcDbLine
 10
6503.030898662058
 20
919.7538745212703
 30
0.0
 11
6494.992422889125
 21
949.7538745212692
 31
0.0
  0
LINE
  5
2B12F
330
747D
100
AcDbEntity
  8
細線
 48
50.0
100
AcDbLine
 10
6404.420842478001
 20
919.7538745212703
 30
0.0
 11
6396.382366705069
 21
949.7538745212692
 31
0.0
  0
LINE
  5
2B130
330
747D
100
AcDbEntity
  8
部品1
 48
50.0
100
AcDbLine
 10
6950.60889809193
 20
1249.753874521269
 30
0.0
 11
6950.60889809193
 21
949.7538745212692
 31
0.0
  0
LINE
  5
2B131
330
747D
100
AcDbEntity
  8
細線
 48
50.0
100
AcDbLine
 10
6722.773516785441
 20
949.7538745212692
 30
0.0
 11
6950.60889809193
 21
1177.589255827765
 31
0.0
  0
LINE
  5
2B132
330
747D
100
AcDbEntity
  8
細線
 48
50.0
100
AcDbLine
 10
6689.097556331436
 20
949.7538745212692
 30
0.0
 11
6950.60889809193
 21
1211.265216281762
 31
0.0
  0
LINE
  5
2B133
330
747D
100
AcDbEntity
  8
細線
 48
50.0
100
AcDbLine
 10
6655.421595877422
 20
949.7538745212692
 30
0.0
 11
6950.60889809193
 21
1244.941176735779
 31
0.0
  0
LINE
  5
2B134
330
747D
100
AcDbEntity
  8
細線
 48
50.0
100
AcDbLine
 10
6700.251011030174
 20
919.7538745212703
 30
0.0
 11
6692.21253525724
 21
949.7538745212692
 31
0.0
  0
LINE
  5
2B135
330
747D
100
AcDbEntity
  8
細線
 48
50.0
100
AcDbLine
 10
6601.640954846114
 20
919.7538745212703
 30
0.0
 11
6593.602479073185
 21
949.7538745212692
 31
0.0
  0
LINE
  5
2B136
330
747D
100
AcDbEntity
  8
細線
 48
50.0
100
AcDbLine
 10
6897.471123398291
 20
919.7538745212684
 30
0.0
 11
6889.432647625359
 21
949.7538745212683
 31
0.0
  0
LINE
  5
2B137
330
747D
100
AcDbEntity
  8
細線
 48
50.0
100
AcDbLine
 10
6798.861067214217
 20
919.7538745212703
 30
0.0
 11
6790.822591441287
 21
949.7538745212692
 31
0.0
  0
LINE
  5
2B138
330
747D
100
AcDbEntity
  8
部品1
 48
50.0
100
AcDbLine
 10
6790.608898091931
 20
1249.753874521269
 30
0.0
 11
6950.60889809193
 21
1249.753874521269
 31
0.0
  0
LWPOLYLINE
  5
2B139
330
747D
100
AcDbEntity
  8
部品1
 48
50.0
100
AcDbPolyline
 90
        2
 70
     0
 43
10.0
 10
5755.434020800735
 20
1629.753874521272
 10
6273.10889809193
 20
1629.753874521272
  0
TEXT
  5
2B13A
330
747D
100
AcDbEntity
  8
部品1
 48
50.0
100
AcDbText
 10
5755.434020800733
 20
1643.802614875339
 30
0.0
 40
100.0
  1
▽G.L
  7
STYLE2
100
AcDbText
  0
LINE
  5
2B13B
330
747D
100
AcDbEntity
  8
部品1
100
AcDbLine
 10
6538.608898091931
 20
1648.50387452127
 30
0.0
 11
6538.608898091928
 21
1991.20387452127
 31
0.0
  0
LINE
  5
2B13C
330
747D
100
AcDbEntity
  8
部品1
100
AcDbLine
 10
6561.10889809193
 20
1648.50387452127
 30
0.0
 11
6561.108898091926
 21
1991.20387452127
 31
0.0
  0
LINE
  5
2B13D
330
747D
100
AcDbEntity
  8
部品1
100
AcDbLine
 10
6475.933898091932
 20
2013.328874521272
 30
0.0
 11
6475.933898091925
 21
1945.07887452127
 31
0.0
  0
LINE
  5
2B13E
330
747D
100
AcDbEntity
  8
部品1
100
AcDbLine
 10
6460.983898091931
 20
1998.37887452127
 30
0.0
 11
6460.983898091931
 21
1945.07887452127
 31
0.0
  0
LINE
  5
2B13F
330
747D
100
AcDbEntity
  8
細線
100
AcDbLine
 10
6543.108898091934
 20
1941.70387452127
 30
0.0
 11
6543.108898091928
 21
1995.70387452127
 31
0.0
  0
LINE
  5
2B140
330
747D
100
AcDbEntity
  8
細線
100
AcDbLine
 10
6556.60889809193
 20
1941.70387452127
 30
0.0
 11
6556.60889809193
 21
1995.70387452127
 31
0.0
  0
LINE
  5
2B141
330
747D
100
AcDbEntity
  8
部品1
100
AcDbLine
 10
6280.98389809193
 20
1945.07887452127
 30
0.0
 11
6280.98389809193
 21
2022.743754149655
 31
0.0
  0
LINE
  5
2B142
330
747D
100
AcDbEntity
  8
部品1
100
AcDbLine
 10
6561.10889809193
 20
1648.50387452127
 30
0.0
 11
6606.108898091931
 21
1648.50387452127
 31
0.0
  0
LINE
  5
2B143
330
747D
100
AcDbEntity
  8
部品1
100
AcDbLine
 10
6561.10889809193
 20
1626.003874521269
 30
0.0
 11
6606.108898091931
 21
1626.003874521269
 31
0.0
  0
LINE
  5
2B144
330
747D
100
AcDbEntity
  8
部品1
100
AcDbLine
 10
6479.308898091924
 20
1941.70387452127
 30
0.0
 11
6730.983898091924
 21
1941.70387452127
 31
0.0
  0
LINE
  5
2B145
330
747D
100
AcDbEntity
  8
部品1
 48
50.0
100
AcDbLine
 10
6273.10889809193
 20
1929.75387452127
 30
0.0
 11
6790.608898091933
 21
1929.75387452127
 31
0.0
  0
LINE
  5
2B146
330
747D
100
AcDbEntity
  8
部品1
100
AcDbLine
 10
6628.60889809193
 20
1524.753874521268
 30
0.0
 11
6471.108898091923
 21
1524.753874521268
 31
0.0
  0
LINE
  5
2B147
330
747D
100
AcDbEntity
  8
細線
 48
50.0
100
AcDbLine
 10
6273.10889809193
 20
1611.395950810067
 30
0.0
 11
6471.108898091927
 21
1809.395950810064
 31
0.0
  0
LINE
  5
2B148
330
747D
100
AcDbEntity
  8
細線
 48
50.0
100
AcDbLine
 10
6273.10889809193
 20
1645.071911264076
 30
0.0
 11
6471.108898091927
 21
1843.071911264074
 31
0.0
  0
LINE
  5
2B149
330
747D
100
AcDbEntity
  8
部品1
100
AcDbLine
 10
6471.108898091923
 20
1524.753874521269
 30
0.0
 11
6471.10889809193
 21
1929.75387452127
 31
0.0
  0
LINE
  5
2B14A
330
747D
100
AcDbEntity
  8
細線
 48
50.0
100
AcDbLine
 10
6273.10889809193
 20
1577.719990356058
 30
0.0
 11
6471.108898091927
 21
1775.719990356049
 31
0.0
  0
ARC
  5
2B14B
330
747D
100
AcDbEntity
  8
部品1
100
AcDbCircle
 10
6561.10889809193
 20
1648.50387452127
 30
0.0
 40
22.5
100
AcDbArc
 50
180.0
 51
270.0
  0
LINE
  5
2B14C
330
747D
100
AcDbEntity
  8
細線
 48
50.0
100
AcDbLine
 10
6273.10889809193
 20
1847.127673988133
 30
0.0
 11
6355.735098625069
 21
1929.75387452127
 31
0.0
  0
LINE
  5
2B14D
330
747D
100
AcDbEntity
  8
細線
 48
50.0
100
AcDbLine
 10
6273.10889809193
 20
1880.803634442142
 30
0.0
 11
6322.059138171062
 21
1929.75387452127
 31
0.0
  0
LINE
  5
2B14E
330
747D
100
AcDbEntity
  8
部品1
100
AcDbLine
 10
6284.35889809193
 20
1941.70387452127
 30
0.0
 11
6298.983898091923
 21
1941.70387452127
 31
0.0
  0
LINE
  5
2B14F
330
747D
100
AcDbEntity
  8
細線
 48
50.0
100
AcDbLine
 10
6273.10889809193
 20
1914.479594896151
 30
0.0
 11
6288.38317771705
 21
1929.75387452127
 31
0.0
  0
ARC
  5
2B150
330
747D
100
AcDbEntity
  8
部品1
100
AcDbCircle
 10
6284.35889809193
 20
1945.07887452127
 30
0.0
 40
3.375
100
AcDbArc
 50
180.0
 51
270.0
  0
ARC
  5
2B151
330
747D
100
AcDbEntity
  8
部品1
100
AcDbCircle
 10
6457.608898091931
 20
1945.07887452127
 30
0.0
 40
3.375
100
AcDbArc
 50
270.0
 51
0.0
  0
ARC
  5
2B152
330
747D
100
AcDbEntity
  8
部品1
100
AcDbCircle
 10
6479.308898091924
 20
1945.07887452127
 30
0.0
 40
3.375
100
AcDbArc
 50
180.0
 51
270.0
  0
LINE
  5
2B153
330
747D
100
AcDbEntity
  8
部品1
100
AcDbLine
 10
6442.98389809193
 20
1941.70387452127
 30
0.0
 11
6457.608898091931
 21
1941.70387452127
 31
0.0
  0
LINE
  5
2B154
330
747D
100
AcDbEntity
  8
細線
 48
50.0
100
AcDbLine
 10
6628.608898091932
 20
1663.812306723967
 30
0.0
 11
6790.608898091931
 21
1825.812306723957
 31
0.0
  0
LINE
  5
2B155
330
747D
100
AcDbEntity
  8
部品1
100
AcDbLine
 10
6628.60889809193
 20
1524.753874521269
 30
0.0
 11
6628.60889809193
 21
1929.75387452127
 31
0.0
  0
LINE
  5
2B156
330
747D
100
AcDbEntity
  8
部品1
100
AcDbLine
 10
6606.108898091931
 20
1626.003874521269
 30
0.0
 11
6606.108898091931
 21
1648.50387452127
 31
0.0
  0
LINE
  5
2B157
330
747D
100
AcDbEntity
  8
細線
 48
50.0
100
AcDbLine
 10
6628.608898091932
 20
1697.488267177984
 30
0.0
 11
6790.608898091931
 21
1859.488267177981
 31
0.0
  0
LINE
  5
2B158
330
747D
100
AcDbEntity
  8
細線
 48
50.0
100
AcDbLine
 10
6628.608898091932
 20
1731.164227632006
 30
0.0
 11
6790.608898091931
 21
1893.164227632004
 31
0.0
  0
LINE
  5
2B159
330
747D
100
AcDbEntity
  8
部品1
 48
50.0
100
AcDbLine
 10
6529.85889809193
 20
2408.347975907699
 30
0.0
 11
6569.858898091931
 21
2408.347975907699
 31
0.0
  0
LINE
  5
2B15A
330
747D
100
AcDbEntity
  8
部品1
 48
50.0
100
AcDbLine
 10
6529.85889809193
 20
2368.347975907699
 30
0.0
 11
6569.858898091931
 21
2368.347975907699
 31
0.0
  0
ELLIPSE
  5
2B15B
330
747D
100
AcDbEntity
  8
細線
 48
50.0
100
AcDbEllipse
 10
6549.858898091931
 20
2418.3479759077
 30
0.0
 11
18.45838483258558
 21
0.0
 31
0.0
210
0.0
220
0.0
230
1.0
 40
0.2071254069489396
 41
0.0
 42
6.283185307179584
  0
LINE
  5
2B15C
330
747D
100
AcDbEntity
  8
部品1
 48
50.0
100
AcDbLine
 10
6529.85889809193
 20
2428.347975907699
 30
0.0
 11
6569.858898091931
 21
2428.347975907699
 31
0.0
  0
ELLIPSE
  5
2B15D
330
747D
100
AcDbEntity
  8
部品1
 48
50.0
100
AcDbEllipse
 10
6549.858898091931
 20
2254.15798507661
 30
0.0
 11
50.0
 21
0.0
 31
0.0
210
0.0
220
0.0
230
1.0
 40
0.4
 41
3.141592653589792
 42
6.283185307179584
  0
ELLIPSE
  5
2B15E
330
747D
100
AcDbEntity
  8
部品1
 48
50.0
100
AcDbEllipse
 10
6549.858898091931
 20
2266.15798507661
 30
0.0
 11
50.0
 21
0.0
 31
0.0
210
0.0
220
0.0
230
1.0
 40
0.4
 41
0.0
 42
6.283185307179584
  0
ELLIPSE
  5
2B15F
330
747D
100
AcDbEntity
  8
部品1
 48
50.0
100
AcDbEllipse
 10
6549.858898091931
 20
2266.15798507661
 30
0.0
 11
23.0
 21
0.0
 31
0.0
210
0.0
220
0.0
230
1.0
 40
0.3478260869565217
 41
0.0
 42
6.283185307179584
  0
LINE
  5
2B160
330
747D
100
AcDbEntity
  8
部品1
100
AcDbLine
 10
6351.85889809193
 20
2069.25387452127
 30
0.0
 11
6404.73389809193
 21
2069.253874521267
 31
0.0
  0
LINE
  5
2B161
330
747D
100
AcDbEntity
  8
部品1
100
AcDbLine
 10
6297.858898091931
 20
2042.253874521271
 30
0.0
 11
6345.10889809193
 21
2042.253874521271
 31
0.0
  0
LINE
  5
2B162
330
747D
100
AcDbEntity
  8
部品1
100
AcDbLine
 10
6283.54034035743
 20
2026.017985087646
 30
0.0
 11
6294.483898091931
 21
2028.753874521271
 31
0.0
  0
ARC
  5
2B163
330
747D
100
AcDbEntity
  8
部品1
100
AcDbCircle
 10
6284.35889809193
 20
2022.743754149655
 30
0.0
 40
3.375
100
AcDbArc
 50
104.0362434679075
 51
180.0
  0
ARC
  5
2B164
330
747D
100
AcDbEntity
  8
部品1
100
AcDbCircle
 10
6297.858898091931
 20
2038.87887452127
 30
0.0
 40
3.375
100
AcDbArc
 50
90.0
 51
180.0
  0
LINE
  5
2B165
330
747D
100
AcDbEntity
  8
部品1
100
AcDbLine
 10
6294.483898091931
 20
2028.753874521271
 30
0.0
 11
6294.483898091931
 21
2038.87887452127
 31
0.0
  0
ARC
  5
2B166
330
747D
100
AcDbEntity
  8
部品1
100
AcDbCircle
 10
6348.483898091931
 20
2052.37887452127
 30
0.0
 40
3.375
100
AcDbArc
 50
90.0
 51
180.0
  0
LINE
  5
2B167
330
747D
100
AcDbEntity
  8
部品1
100
AcDbLine
 10
6345.10889809193
 20
2042.253874521271
 30
0.0
 11
6345.10889809193
 21
2052.37887452127
 31
0.0
  0
LINE
  5
2B168
330
747D
100
AcDbEntity
  8
部品1
100
AcDbLine
 10
6348.483898091931
 20
2055.753874521271
 30
0.0
 11
6348.483898091931
 21
2065.878874521271
 31
0.0
  0
LINE
  5
2B169
330
747D
100
AcDbEntity
  8
部品1
100
AcDbLine
 10
6348.483898091931
 20
2055.753874521271
 30
0.0
 11
6348.483898091931
 21
2055.753874521271
 31
0.0
  0
ARC
  5
2B16A
330
747D
100
AcDbEntity
  8
部品1
100
AcDbCircle
 10
6351.85889809193
 20
2065.878874521271
 30
0.0
 40
3.375
100
AcDbArc
 50
90.0
 51
180.0
  0
LINE
  5
2B16B
330
747D
100
AcDbEntity
  8
部品1
100
AcDbLine
 10
6433.983898091931
 20
2013.328874521272
 30
0.0
 11
6433.983898091931
 21
1991.95387452127
 31
0.0
  0
ARC
  5
2B16C
330
747D
100
AcDbEntity
  8
部品1
100
AcDbCircle
 10
6457.608898091931
 20
1998.37887452127
 30
0.0
 40
3.375
100
AcDbArc
 50
0.0
 51
90.0
  0
LINE
  5
2B16D
330
747D
100
AcDbEntity
  8
部品1
100
AcDbLine
 10
6543.108898091928
 20
1995.70387452127
 30
0.0
 11
6556.60889809193
 21
1995.70387452127
 31
0.0
  0
LINE
  5
2B16E
330
747D
100
AcDbEntity
  8
部品1
100
AcDbLine
 10
6538.608898091931
 20
1991.20387452127
 30
0.0
 11
6561.10889809193
 21
1991.20387452127
 31
0.0
  0
ARC
  5
2B16F
330
747D
100
AcDbEntity
  8
部品1
100
AcDbCircle
 10
6472.558898091932
 20
2013.328874521272
 30
0.0
 40
3.375
100
AcDbArc
 50
0.0
 51
90.0
  0
ARC
  5
2B170
330
747D
100
AcDbEntity
  8
部品1
100
AcDbCircle
 10
6437.358898091931
 20
2013.328874521272
 30
0.0
 40
3.375
100
AcDbArc
 50
90.0
 51
180.0
  0
LINE
  5
2B171
330
747D
100
AcDbEntity
  8
部品1
100
AcDbLine
 10
6437.358898091931
 20
2016.703874521271
 30
0.0
 11
6472.558898091932
 21
2016.703874521271
 31
0.0
  0
LINE
  5
2B172
330
747D
100
AcDbEntity
  8
部品1
 48
50.0
100
AcDbLine
 10
6499.858898091931
 20
2266.15798507661
 30
0.0
 11
6499.858898091931
 21
2254.15798507661
 31
0.0
  0
LINE
  5
2B173
330
747D
100
AcDbEntity
  8
部品1
100
AcDbLine
 10
6408.10889809193
 20
2065.878874521267
 30
0.0
 11
6408.10889809193
 21
2001.75387452127
 31
0.0
  0
ARC
  5
2B174
330
747D
100
AcDbEntity
  8
部品1
100
AcDbCircle
 10
6404.73389809193
 20
2065.878874521267
 30
0.0
 40
3.375
100
AcDbArc
 50
0.0
 51
90.0
  0
LINE
  5
2B175
330
747D
100
AcDbEntity
  8
部品1
100
AcDbLine
 10
6408.10889809193
 20
2001.75387452127
 30
0.0
 11
6457.608898091931
 21
2001.75387452127
 31
0.0
  0
LINE
  5
2B176
330
747D
100
AcDbEntity
  8
部品1
 48
50.0
100
AcDbLine
 10
6509.85889809193
 20
2418.3479759077
 30
0.0
 11
6529.85889809193
 21
2428.347975907699
 31
0.0
  0
LINE
  5
2B177
330
747D
100
AcDbEntity
  8
部品1
 48
50.0
100
AcDbLine
 10
6509.85889809193
 20
2378.347975907699
 30
0.0
 11
6529.85889809193
 21
2368.347975907699
 31
0.0
  0
LINE
  5
2B178
330
747D
100
AcDbEntity
  8
部品1
 48
50.0
100
AcDbLine
 10
6509.85889809193
 20
2418.3479759077
 30
0.0
 11
6529.85889809193
 21
2408.347975907699
 31
0.0
  0
LINE
  5
2B179
330
747D
100
AcDbEntity
  8
部品1
 48
50.0
100
AcDbLine
 10
6509.85889809193
 20
2378.347975907699
 30
0.0
 11
6509.85889809193
 21
2418.3479759077
 31
0.0
  0
LINE
  5
2B17A
330
747D
100
AcDbEntity
  8
細線
 48
50.0
100
AcDbLine
 10
6529.85889809193
 20
2368.347975907699
 30
0.0
 11
6529.85889809193
 21
2408.347975907699
 31
0.0
  0
LINE
  5
2B17B
330
747D
100
AcDbEntity
  8
部品1
 48
50.0
100
AcDbLine
 10
6599.85889809193
 20
2254.15798507661
 30
0.0
 11
6599.85889809193
 21
2266.15798507661
 31
0.0
  0
LINE
  5
2B17C
330
747D
100
AcDbEntity
  8
部品1
 48
50.0
100
AcDbLine
 10
6569.858898091931
 20
2428.347975907699
 30
0.0
 11
6589.85889809193
 21
2418.3479759077
 31
0.0
  0
LINE
  5
2B17D
330
747D
100
AcDbEntity
  8
部品1
 48
50.0
100
AcDbLine
 10
6589.85889809193
 20
2378.347975907699
 30
0.0
 11
6589.85889809193
 21
2418.3479759077
 31
0.0
  0
LINE
  5
2B17E
330
747D
100
AcDbEntity
  8
細線
 48
50.0
100
AcDbLine
 10
6569.858898091931
 20
2368.347975907699
 30
0.0
 11
6569.858898091931
 21
2408.347975907699
 31
0.0
  0
LINE
  5
2B17F
330
747D
100
AcDbEntity
  8
部品1
 48
50.0
100
AcDbLine
 10
6569.858898091931
 20
2408.347975907699
 30
0.0
 11
6589.85889809193
 21
2418.3479759077
 31
0.0
  0
LINE
  5
2B180
330
747D
100
AcDbEntity
  8
部品1
 48
50.0
100
AcDbLine
 10
6569.858898091931
 20
2368.347975907699
 30
0.0
 11
6589.85889809193
 21
2378.347975907699
 31
0.0
  0
LINE
  5
2B181
330
747D
100
AcDbEntity
  8
細線
 48
50.0
100
AcDbLine
 10
8555.591326533496
 20
1355.13022995458
 30
0.0
 11
8598.463197322477
 21
1515.13022995458
 31
0.0
  0
TEXT
  5
2B182
330
747D
100
AcDbEntity
  8
部品1
 48
50.0
100
AcDbText
 10
7959.881205022249
 20
1296.254198724633
 30
0.0
 40
100.0
  1
ボルトの出
 50
90.0
  7
STYLE2
100
AcDbText
  0
LINE
  5
2B183
330
747D
100
AcDbEntity
  8
部品1
100
AcDbLine
 10
8435.222833347546
 20
1355.130229954578
 30
0.0
 11
8435.222833347546
 21
1629.75387452127
 31
0.0
  0
LINE
  5
2B184
330
747D
100
AcDbEntity
  8
細線
 48
50.0
100
AcDbLine
 10
8456.981270349436
 20
1355.130229954582
 30
0.0
 11
8499.853141138416
 21
1515.130229954582
 31
0.0
  0
LINE
  5
2B185
330
747D
100
AcDbEntity
  8
部品1
 48
50.0
100
AcDbLine
 10
7050.608898091934
 20
949.7538745212692
 30
0.0
 11
7050.608898091934
 21
789.753874521269
 31
0.0
  0
LINE
  5
2B186
330
747D
100
AcDbEntity
  8
細線
 48
50.0
100
AcDbLine
 10
6996.08117958235
 20
919.7538745212684
 30
0.0
 11
6988.042703809418
 21
949.7538745212683
 31
0.0
  0
LINE
  5
2B187
330
747D
100
AcDbEntity
  8
細線
 48
50.0
100
AcDbLine
 10
8563.629802306435
 20
1385.130229954582
 30
0.0
 11
8571.668278079368
 21
1355.130229954582
 31
0.0
  0
LINE
  5
2B188
330
747D
100
AcDbEntity
  8
細線
 48
50.0
100
AcDbLine
 10
8465.019746122377
 20
1385.130229954582
 30
0.0
 11
8473.058221895305
 21
1355.130229954582
 31
0.0
  0
LINE
  5
2B189
330
747D
100
AcDbEntity
  8
部品1
100
AcDbLine
 10
8585.222833347547
 20
1629.75387452127
 30
0.0
 11
8585.222833347547
 21
1929.75387452127
 31
0.0
  0
LINE
  5
2B18A
330
747D
100
AcDbEntity
  8
細線
 48
50.0
100
AcDbLine
 10
8491.814665365486
 20
1485.130229954582
 30
0.0
 11
8483.776189592546
 21
1515.130229954582
 31
0.0
  0
LINE
  5
2B18B
330
747D
100
AcDbEntity
  8
細線
 48
50.0
100
AcDbLine
 10
8590.424721549547
 20
1485.130229954582
 30
0.0
 11
8582.386245776616
 21
1515.130229954582
 31
0.0
  0
TEXT
  5
2B18C
330
747D
100
AcDbEntity
  8
部品1
100
AcDbText
 10
6035.188173585301
 20
3356.528484303041
 30
0.0
 40
150.0
  1
基礎詳細
  7
STYLE2
100
AcDbText
  0
LINE
  5
2B18D
330
747D
100
AcDbEntity
  8
部品1
100
AcDbLine
 10
9925.733761166689
 20
321.8988964942369
 30
0.0
 11
9925.733761166689
 21
3580.968399242328
 31
0.0
  0
LINE
  5
2B18E
330
747D
100
AcDbEntity
  8
部品1
100
AcDbLine
 10
9335.222833347547
 20
1629.75387452127
 30
0.0
 11
9335.222833347547
 21
1355.130229954582
 31
0.0
  0
LINE
  5
2B18F
330
747D
100
AcDbEntity
  8
細線
 48
50.0
100
AcDbLine
 10
9147.251663637858
 20
1355.130229954578
 30
0.0
 11
9190.123534426836
 21
1515.130229954578
 31
0.0
  0
LINE
  5
2B190
330
747D
100
AcDbEntity
  8
細線
 48
50.0
100
AcDbLine
 10
9245.861719821908
 20
1355.13022995458
 30
0.0
 11
9288.733590610897
 21
1515.130229954578
 31
0.0
  0
LINE
  5
2B191
330
747D
100
AcDbEntity
  8
細線
 48
50.0
100
AcDbLine
 10
8950.031551269736
 20
1355.130229954582
 30
0.0
 11
8992.903422058716
 21
1515.13022995458
 31
0.0
  0
LINE
  5
2B192
330
747D
100
AcDbEntity
  8
細線
 48
50.0
100
AcDbLine
 10
9048.641607453795
 20
1355.13022995458
 30
0.0
 11
9091.513478242768
 21
1515.130229954582
 31
0.0
  0
LINE
  5
2B193
330
747D
100
AcDbEntity
  8
細線
 48
50.0
100
AcDbLine
 10
8752.811438901614
 20
1355.130229954582
 30
0.0
 11
8795.683309690598
 21
1515.13022995458
 31
0.0
  0
LINE
  5
2B194
330
747D
100
AcDbEntity
  8
細線
 48
50.0
100
AcDbLine
 10
8654.201382717564
 20
1355.130229954582
 30
0.0
 11
8697.073253506536
 21
1515.130229954582
 31
0.0
  0
LINE
  5
2B195
330
747D
100
AcDbEntity
  8
細線
 48
50.0
100
AcDbLine
 10
8851.421495085677
 20
1355.13022995458
 30
0.0
 11
8894.293365874656
 21
1515.13022995458
 31
0.0
  0
LINE
  5
2B196
330
747D
100
AcDbEntity
  8
細線
 48
50.0
100
AcDbLine
 10
8760.849914674556
 20
1385.130229954582
 30
0.0
 11
8768.888390447498
 21
1355.130229954582
 31
0.0
  0
LINE
  5
2B197
330
747D
100
AcDbEntity
  8
細線
 48
50.0
100
AcDbLine
 10
8662.239858490506
 20
1385.130229954582
 30
0.0
 11
8670.278334263436
 21
1355.130229954582
 31
0.0
  0
LINE
  5
2B198
330
747D
100
AcDbEntity
  8
細線
 48
50.0
100
AcDbLine
 10
8958.070027042678
 20
1385.130229954582
 30
0.0
 11
8966.108502815606
 21
1355.130229954582
 31
0.0
  0
LINE
  5
2B199
330
747D
100
AcDbEntity
  8
細線
 48
50.0
100
AcDbLine
 10
8859.459970858614
 20
1385.130229954582
 30
0.0
 11
8867.498446631548
 21
1355.130229954582
 31
0.0
  0
LINE
  5
2B19A
330
747D
100
AcDbEntity
  8
細線
 48
50.0
100
AcDbLine
 10
9155.290139410796
 20
1385.13022995458
 30
0.0
 11
9163.328615183726
 21
1355.13022995458
 31
0.0
  0
LINE
  5
2B19B
330
747D
100
AcDbEntity
  8
細線
 48
50.0
100
AcDbLine
 10
9056.680083226735
 20
1385.130229954582
 30
0.0
 11
9064.718558999677
 21
1355.130229954582
 31
0.0
  0
LINE
  5
2B19C
330
747D
100
AcDbEntity
  8
細線
 48
50.0
100
AcDbLine
 10
9253.900195594855
 20
1385.13022995458
 30
0.0
 11
9261.938671367785
 21
1355.13022995458
 31
0.0
  0
MTEXT
  5
2B19D
102
{ACAD_REACTORS
330
2B19E
102
}
330
747D
100
AcDbEntity
  8
寸法
 62
     7
 48
50.0
100
AcDbMText
 10
9327.551106159509
 20
2251.186775372692
 30
0.0
 40
150.0
 41
1.0
 71
     4
 72
     1
  1
\A1;C.B
  7
STYLE1
 73
     1
 44
1.0
1001
ACAD
1000
MTEXTBEGIN
1070
    73
1070
     1
1070
    44
1040
1.0
1070
    74
1070
     0
1000
MTEXTEND
  0
LEADER
  5
2B19E
330
747D
100
AcDbEntity
  8
寸法
 48
50.0
100
AcDbLeader
  3
INABA_S40G
 73
     0
 74
     0
 75
     1
 40
150.0
 41
231.9898538650463
 76
     3
 10
9098.628347867446
 20
1929.75387452127
 30
0.0
 10
9187.551106159508
 20
2136.186775372692
 30
0.0
 10
9287.551106159508
 20
2136.186775372692
 30
0.0
340
2B19D
1001
ACAD
1000
DSTYLE
1002
{
1070
   341
1005
0
1002
}
  0
LINE
  5
2B19F
330
747D
100
AcDbEntity
  8
細線
100
AcDbLine
 10
9167.925755413067
 20
1629.753874521272
 30
0.0
 11
8867.925755413079
 21
1929.75387452127
 31
0.0
  0
LINE
  5
2B1A0
330
747D
100
AcDbEntity
  8
細線
100
AcDbLine
 10
9104.286145106287
 20
1629.75387452127
 30
0.0
 11
8804.286145106287
 21
1929.75387452127
 31
0.0
  0
LINE
  5
2B1A1
330
747D
100
AcDbEntity
  8
細線
 48
50.0
100
AcDbLine
 10
8689.034777733615
 20
1485.130229954582
 30
0.0
 11
8680.996301960677
 21
1515.130229954582
 31
0.0
  0
LINE
  5
2B1A2
330
747D
100
AcDbEntity
  8
細線
 48
50.0
100
AcDbLine
 10
8787.644833917665
 20
1485.130229954582
 30
0.0
 11
8779.606358144736
 21
1515.130229954582
 31
0.0
  0
LINE
  5
2B1A3
330
747D
100
AcDbEntity
  8
細線
100
AcDbLine
 10
8661.371140214097
 20
1515.130229954583
 30
0.0
 11
8775.994784780776
 21
1629.75387452127
 31
0.0
  0
LINE
  5
2B1A4
330
747D
100
AcDbEntity
  8
細線
100
AcDbLine
 10
8618.944733342907
 20
1515.130229954583
 30
0.0
 11
8733.568377909588
 21
1629.75387452127
 31
0.0
  0
LINE
  5
2B1A5
330
747D
100
AcDbEntity
  8
細線
 48
50.0
100
AcDbLine
 10
8984.864946285787
 20
1485.130229954582
 30
0.0
 11
8976.826470512857
 21
1515.130229954582
 31
0.0
  0
LINE
  5
2B1A6
330
747D
100
AcDbEntity
  8
細線
 48
50.0
100
AcDbLine
 10
8886.254890101723
 20
1485.130229954582
 30
0.0
 11
8878.216414328795
 21
1515.130229954582
 31
0.0
  0
LINE
  5
2B1A7
330
747D
100
AcDbEntity
  8
部品1
100
AcDbLine
 10
9185.222833347546
 20
1929.75387452127
 30
0.0
 11
9185.222833347546
 21
1629.75387452127
 31
0.0
  0
LINE
  5
2B1A8
330
747D
100
AcDbEntity
  8
細線
 48
50.0
100
AcDbLine
 10
9182.085058653903
 20
1485.13022995458
 30
0.0
 11
9174.046582880968
 21
1515.13022995458
 31
0.0
  0
LINE
  5
2B1A9
330
747D
100
AcDbEntity
  8
細線
 48
50.0
100
AcDbLine
 10
9083.475002469837
 20
1485.130229954582
 30
0.0
 11
9075.436526696895
 21
1515.130229954582
 31
0.0
  0
LINE
  5
2B1AA
330
747D
100
AcDbEntity
  8
細線
100
AcDbLine
 10
9111.371140214096
 20
1515.130229954585
 30
0.0
 11
9225.994784780777
 21
1629.75387452127
 31
0.0
  0
LINE
  5
2B1AB
330
747D
100
AcDbEntity
  8
細線
100
AcDbLine
 10
9026.518326471716
 20
1515.130229954585
 30
0.0
 11
9141.141971038397
 21
1629.75387452127
 31
0.0
  0
LINE
  5
2B1AC
330
747D
100
AcDbEntity
  8
細線
100
AcDbLine
 10
9068.944733342908
 20
1515.130229954585
 30
0.0
 11
9183.568377909583
 21
1629.75387452127
 31
0.0
  0
LINE
  5
2B1AD
330
747D
100
AcDbEntity
  8
細線
 48
50.0
100
AcDbLine
 10
9280.695114837966
 20
1485.13022995458
 30
0.0
 11
9272.656639065026
 21
1515.13022995458
 31
0.0
  0
HATCH
  5
2B2E8
330
747D
100
AcDbEntity
  8
細線
 48
50.0
100
AcDbHatch
 10
0.0
 20
0.0
 30
0.0
210
0.0
220
0.0
230
1.0
  2
LINE
 70
     0
 71
     1
 91
        6
 92
        7
 72
     0
 73
     1
 93
        4
 10
6798.599999999999
 20
8717.813451093189
 10
6598.600000000002
 20
8717.813451093189
 10
6598.600000000002
 20
8597.813451093191
 10
6798.6
 20
8597.813451093191
 97
        4
330
28238
330
2848B
330
2845F
330
2848A
 92
        7
 72
     0
 73
     1
 93
        4
 10
5288.6
 20
7287.813451093192
 10
5168.600000000001
 20
7287.813451093187
 10
5168.600000000001
 20
7087.813451093187
 10
5288.6
 20
7087.813451093187
 97
        4
330
2846C
330
28241
330
2846D
330
28460
 92
        7
 72
     0
 73
     1
 93
        4
 10
6798.600000000002
 20
5777.813451093194
 10
6598.600000000002
 20
5777.813451093194
 10
6598.600000000002
 20
5582.813451093183
 10
6798.600000000002
 20
5582.813451093186
 97
        4
330
2845E
330
2823D
330
28247
330
2823E
 92
        7
 72
     0
 73
     1
 93
        4
 10
9848.600000000018
 20
5777.813451093203
 10
9648.600000000014
 20
5777.813451093203
 10
9648.600000000014
 20
5657.813451093199
 10
9848.600000000013
 20
5657.8134510932
 97
        4
330
28235
330
284AD
330
28234
330
284AE
 92
        7
 72
     0
 73
     1
 93
        4
 10
11278.6
 20
7287.813451093187
 10
11158.6
 20
7287.813451093187
 10
11158.6
 20
7087.813451093187
 10
11278.6
 20
7087.813451093187
 97
        4
330
284E6
330
284DA
330
284E7
330
284B1
 92
        7
 72
     0
 73
     1
 93
        4
 10
9848.600000000001
 20
8717.813451093189
 10
9648.600000000001
 20
8717.813451093189
 10
9648.600000000001
 20
8597.813451093189
 10
9848.600000000001
 20
8597.813451093189
 97
        4
330
28238
330
284D8
330
28230
330
284D9
 75
     0
 76
     1
 52
45.0
 41
10.0
 77
     0
 78
     1
 53
45.0
 43
0.0
 44
0.0
 45
-22.45064030267288
 46
22.45064030267288
 79
     0
 47
8.311355315652896
 98
        6
 10
6680.151982159543
 20
8658.578060904314
 10
5216.724131382856
 20
7195.779502176383
 10
6705.096767823111
 20
5674.801464995778
 10
9681.842190767305
 20
5724.669589383783
 10
11211.78952000142
 20
7204.090856241049
 10
9781.621333421602
 20
8658.578060904314
  0
ENDSEC
  0
SECTION
  2
OBJECTS
  0
DICTIONARY
  5
7471
330
0
100
AcDbDictionary
281
     1
  3
ACAD_COLOR
350
173D2
  3
ACAD_GROUP
350
7472
  3
ACAD_LAYOUT
350
173D3
  3
ACAD_MATERIAL
350
173D1
  3
ACAD_MLINESTYLE
350
7473
  3
ACAD_PLOTSETTINGS
350
173D4
  3
ACAD_PLOTSTYLENAME
350
173CF
  3
ACDBHEADERROUNDTRIPXREC
350
2B4C7
  3
AcDbVariableDictionary
350
2B2F3
  3
CONTENTDICTIONARY
350
E71C
  3
DRAWINGVARIABLESDICT
350
F3B9
  0
DICTIONARY
  5
1758F
330
7467
100
AcDbDictionary
280
     1
281
     1
  3
ACAD_LAYERSTATES
360
17590
  0
DICTIONARY
  5
173D2
102
{ACAD_REACTORS
330
7471
102
}
330
7471
100
AcDbDictionary
281
     1
  0
DICTIONARY
  5
7472
102
{ACAD_REACTORS
330
7471
102
}
330
7471
100
AcDbDictionary
281
     1
  3
*A1
350
1D2A9
  0
DICTIONARY
  5
173D3
102
{ACAD_REACTORS
330
7471
102
}
330
7471
100
AcDbDictionary
281
     1
  3
Model
350
173D5
  3
レイアウト1
350
173D6
  0
DICTIONARY
  5
173D1
102
{ACAD_REACTORS
330
7471
102
}
330
7471
100
AcDbDictionary
281
     1
  0
DICTIONARY
  5
7473
102
{ACAD_REACTORS
330
7471
102
}
330
7471
100
AcDbDictionary
281
     1
  3
STANDARD
350
7480
  0
DICTIONARY
  5
173D4
102
{ACAD_REACTORS
330
7471
102
}
330
7471
100
AcDbDictionary
281
     1
  0
ACDBDICTIONARYWDFLT
  5
173CF
102
{ACAD_REACTORS
330
7471
102
}
330
7471
100
AcDbDictionary
281
     1
  3
Normal
350
173D0
100
AcDbDictionaryWithDefault
340
173D0
  0
DICTIONARY
  5
2B4C7
102
{ACAD_REACTORS
330
7471
102
}
330
7471
100
AcDbDictionary
281
     1
  3
COLORDICT
350
2B4C9
  3
MATERIALDICT
350
2B4C8
  0
DICTIONARY
  5
2B2F3
102
{ACAD_REACTORS
330
7471
102
}
330
7471
100
AcDbDictionary
281
     1
  3
DIMASSOC
350
2B2F4
  3
PROJECTNAME
350
2B2F5
  0
DICTIONARY
  5
E71C
102
{ACAD_REACTORS
330
7471
102
}
330
7471
100
AcDbDictionary
281
     1
  0
DICTIONARY
  5
F3B9
102
{ACAD_REACTORS
330
7471
102
}
330
7471
100
AcDbDictionary
281
     1
1001
DRAWINGVARIABLESXDATA
1000
POLARMODE
1000
1
  0
DICTIONARY
  5
17590
102
{ACAD_REACTORS
330
1758F
102
}
330
1758F
100
AcDbDictionary
281
     1
  0
GROUP
  5
1D2A9
102
{ACAD_REACTORS
330
7472
102
}
330
7472
100
AcDbGroup
300

 70
     1
 71
     1
  0
LAYOUT
  5
173D5
102
{ACAD_XDICTIONARY
360
2B4CA
102
}
102
{ACAD_REACTORS
330
173D3
102
}
330
173D3
100
AcDbPlotSettings
  1

  2
クセロPDF
  4
A3
  6

 40
3.174999999999999
 41
3.174999999999999
 42
3.174987999999999
 43
3.174987999999999
 44
419.946655
 45
296.925995
 46
0.0
 47
0.0
 48
0.0
 49
0.0
140
0.0
141
0.0
142
1.0
143
40.88431155294937
 70
 11952
 72
     1
 73
     0
 74
     2
  7
inaba.ctb
 75
     0
147
0.0244592598484849
148
0.0
149
0.0
100
AcDbLayout
  1
Model
 70
     1
 71
     0
 10
0.0
 20
0.0
 11
12.0
 21
9.0
 12
0.0
 22
0.0
 32
0.0
 14
0.0
 24
0.0
 34
0.0
 15
0.0
 25
0.0
 35
0.0
146
0.0
 13
0.0
 23
0.0
 33
0.0
 16
1.0
 26
0.0
 36
0.0
 17
0.0
 27
1.0
 37
0.0
 76
     0
330
747D
  0
LAYOUT
  5
173D6
102
{ACAD_XDICTIONARY
360
2B4CC
102
}
102
{ACAD_REACTORS
330
173D3
102
}
330
173D3
100
AcDbPlotSettings
  1

  2
Microsoft Office Document Image Writer
  4

  6

 40
0.0
 41
0.0
 42
0.0
 43
0.0
 44
0.0
 45
0.0
 46
0.0
 47
0.0
 48
0.0
 49
0.0
140
0.0
141
0.0
142
1.0
143
1.0
 70
   688
 72
     0
 73
     0
 74
     5
  7

 75
    16
147
1.0
148
0.0
149
0.0
100
AcDbLayout
  1
レイアウト1
 70
     0
 71
     1
 10
0.0
 20
0.0
 11
420.0
 21
297.0
 12
0.0
 22
0.0
 32
0.0
 14
1.000000000000000E+20
 24
1.000000000000000E+20
 34
1.000000000000000E+20
 15
-1.000000000000000E+20
 25
-1.000000000000000E+20
 35
-1.000000000000000E+20
146
0.0
 13
0.0
 23
0.0
 33
0.0
 16
1.0
 26
0.0
 36
0.0
 17
0.0
 27
1.0
 37
0.0
 76
     0
330
747A
  0
MLINESTYLE
  5
7480
102
{ACAD_REACTORS
330
7473
102
}
330
7473
100
AcDbMlineStyle
  2
STANDARD
 70
     0
  3

 62
     0
 51
90.0
 52
90.0
 71
     2
 49
0.5
 62
   256
  6
BYLAYER
 49
-0.5
 62
   256
  6
BYLAYER
  0
ACDBPLACEHOLDER
  5
173D0
102
{ACAD_REACTORS
330
173CF
102
}
330
173CF
  0
XRECORD
  5
2B4C9
102
{ACAD_REACTORS
330
2B4C7
102
}
330
2B4C7
100
AcDbXrecord
280
     1
340
173D2
  0
XRECORD
  5
2B4C8
102
{ACAD_REACTORS
330
2B4C7
102
}
330
2B4C7
100
AcDbXrecord
280
     1
340
173D1
  0
DICTIONARYVAR
  5
2B2F4
102
{ACAD_REACTORS
330
2B2F3
102
}
330
2B2F3
100
DictionaryVariables
280
     0
  1
1
  0
DICTIONARYVAR
  5
2B2F5
102
{ACAD_REACTORS
330
2B2F3
102
}
330
2B2F3
100
DictionaryVariables
280
     0
  1

  0
DICTIONARY
  5
2B4CA
330
173D5
100
AcDbDictionary
280
     1
281
     1
  3
ACAD_XREC_ROUNDTRIP
360
2B4CB
  0
DICTIONARY
  5
2B4CC
330
173D6
100
AcDbDictionary
280
     1
281
     1
  3
ACAD_XREC_ROUNDTRIP
360
2B4CD
  0
XRECORD
  5
2B4CB
102
{ACAD_REACTORS
330
2B4CA
102
}
330
2B4CA
100
AcDbXrecord
280
     1
102
SHADEPLOT
 70
     1
102
SHADEPLOTRESLEVEL
 70
     2
102
SHADEPLOTCUSTOMDPI
 70
   300
  0
XRECORD
  5
2B4CD
102
{ACAD_REACTORS
330
2B4CC
102
}
330
2B4CC
100
AcDbXrecord
280
     1
102
SHADEPLOT
 70
     0
102
SHADEPLOTRESLEVEL
 70
     2
102
SHADEPLOTCUSTOMDPI
 70
   300
  0
ENDSEC
  0
EOF
