  0
SECTION
  2
HEADER
  9
$ACADVER
  1
AC1015
  9
$ACADMAINTVER
 70
    20
  9
$DWGCODEPAGE
  3
ANSI_932
  9
$INSBASE
 10
0.0
 20
0.0
 30
0.0
  9
$EXTMIN
 10
139.9999999999995
 20
-0.0000000000000909
 30
0.0
  9
$EXTMAX
 10
16307.2
 20
11409.6
 30
0.0
  9
$LIMMIN
 10
0.0
 20
0.0
  9
$LIMMAX
 10
16800.0
 20
11880.0
  9
$ORTHOMODE
 70
     0
  9
$REGENMODE
 70
     1
  9
$FILLMODE
 70
     1
  9
$QTEXTMODE
 70
     0
  9
$MIRRTEXT
 70
     1
  9
$LTSCALE
 40
20.0
  9
$ATTMODE
 70
     1
  9
$TEXTSIZE
 40
4.0
  9
$TRACEWID
 40
1.0
  9
$TEXTSTYLE
  7
STYLE1
  9
$CLAYER
  8
細線
  9
$CELTYPE
  6
BYLAYER
  9
$CECOLOR
 62
   256
  9
$CELTSCALE
 40
50.0
  9
$DISPSILH
 70
     0
  9
$DIMSCALE
 40
40.0
  9
$DIMASZ
 40
2.5
  9
$DIMEXO
 40
0.5
  9
$DIMDLI
 40
7.0
  9
$DIMRND
 40
0.0
  9
$DIMDLE
 40
0.0
  9
$DIMEXE
 40
1.5
  9
$DIMTP
 40
0.0
  9
$DIMTM
 40
0.0
  9
$DIMTXT
 40
3.0
  9
$DIMCEN
 40
0.0
  9
$DIMTSZ
 40
0.0
  9
$DIMTOL
 70
     0
  9
$DIMLIM
 70
     0
  9
$DIMTIH
 70
     0
  9
$DIMTOH
 70
     0
  9
$DIMSE1
 70
     0
  9
$DIMSE2
 70
     0
  9
$DIMTAD
 70
     3
  9
$DIMZIN
 70
     8
  9
$DIMBLK
  1

  9
$DIMASO
 70
     1
  9
$DIMSHO
 70
     1
  9
$DIMPOST
  1

  9
$DIMAPOST
  1

  9
$DIMALT
 70
     0
  9
$DIMALTD
 70
     2
  9
$DIMALTF
 40
0.0394
  9
$DIMLFAC
 40
1.0
  9
$DIMTOFL
 70
     1
  9
$DIMTVP
 40
0.0
  9
$DIMTIX
 70
     1
  9
$DIMSOXD
 70
     0
  9
$DIMSAH
 70
     1
  9
$DIMBLK1
  1
DOTSMALL
  9
$DIMBLK2
  1
DOTSMALL
  9
$DIMSTYLE
  2
INABA_S40G
  9
$DIMCLRD
 70
     0
  9
$DIMCLRE
 70
     0
  9
$DIMCLRT
 70
     7
  9
$DIMTFAC
 40
1.0
  9
$DIMGAP
 40
1.0
  9
$DIMJUST
 70
     0
  9
$DIMSD1
 70
     0
  9
$DIMSD2
 70
     0
  9
$DIMTOLJ
 70
     1
  9
$DIMTZIN
 70
     0
  9
$DIMALTZ
 70
     0
  9
$DIMALTTZ
 70
     0
  9
$DIMUPT
 70
     0
  9
$DIMDEC
 70
     1
  9
$DIMTDEC
 70
     4
  9
$DIMALTU
 70
     2
  9
$DIMALTTD
 70
     2
  9
$DIMTXSTY
  7
STYLE1
  9
$DIMAUNIT
 70
     0
  9
$DIMADEC
 70
     0
  9
$DIMALTRND
 40
0.0
  9
$DIMAZIN
 70
     0
  9
$DIMDSEP
 70
    46
  9
$DIMATFIT
 70
     3
  9
$DIMFRAC
 70
     0
  9
$DIMLDRBLK
  1

  9
$DIMLUNIT
 70
     2
  9
$DIMLWD
 70
    -2
  9
$DIMLWE
 70
    -2
  9
$DIMTMOVE
 70
     0
  9
$LUNITS
 70
     2
  9
$LUPREC
 70
     1
  9
$SKETCHINC
 40
1.0
  9
$FILLETRAD
 40
3.0
  9
$AUNITS
 70
     0
  9
$AUPREC
 70
     0
  9
$MENU
  1
acad
  9
$ELEVATION
 40
0.0
  9
$PELEVATION
 40
0.0
  9
$THICKNESS
 40
0.0
  9
$LIMCHECK
 70
     0
  9
$CHAMFERA
 40
0.0
  9
$CHAMFERB
 40
0.0
  9
$CHAMFERC
 40
0.0
  9
$CHAMFERD
 40
0.0
  9
$SKPOLY
 70
     0
  9
$TDCREATE
 40
2451368.612993866
  9
$TDUCREATE
 40
2451368.237993866
  9
$TDUPDATE
 40
2455827.764519086
  9
$TDUUPDATE
 40
2455827.389519086
  9
$TDINDWG
 40
0.9473879745
  9
$TDUSRTIMER
 40
0.9473863542
  9
$USRTIMER
 70
     1
  9
$ANGBASE
 50
0.0
  9
$ANGDIR
 70
     0
  9
$PDMODE
 70
     3
  9
$PDSIZE
 40
2.0
  9
$PLINEWID
 40
0.0
  9
$SPLFRAME
 70
     0
  9
$SPLINETYPE
 70
     6
  9
$SPLINESEGS
 70
     8
  9
$HANDSEED
  5
2B633
  9
$SURFTAB1
 70
     6
  9
$SURFTAB2
 70
     6
  9
$SURFTYPE
 70
     6
  9
$SURFU
 70
     6
  9
$SURFV
 70
     6
  9
$UCSBASE
  2

  9
$UCSNAME
  2

  9
$UCSORG
 10
0.0
 20
0.0
 30
0.0
  9
$UCSXDIR
 10
1.0
 20
0.0
 30
0.0
  9
$UCSYDIR
 10
0.0
 20
1.0
 30
0.0
  9
$UCSORTHOREF
  2

  9
$UCSORTHOVIEW
 70
     0
  9
$UCSORGTOP
 10
0.0
 20
0.0
 30
0.0
  9
$UCSORGBOTTOM
 10
0.0
 20
0.0
 30
0.0
  9
$UCSORGLEFT
 10
0.0
 20
0.0
 30
0.0
  9
$UCSORGRIGHT
 10
0.0
 20
0.0
 30
0.0
  9
$UCSORGFRONT
 10
0.0
 20
0.0
 30
0.0
  9
$UCSORGBACK
 10
0.0
 20
0.0
 30
0.0
  9
$PUCSBASE
  2

  9
$PUCSNAME
  2

  9
$PUCSORG
 10
0.0
 20
0.0
 30
0.0
  9
$PUCSXDIR
 10
1.0
 20
0.0
 30
0.0
  9
$PUCSYDIR
 10
0.0
 20
1.0
 30
0.0
  9
$PUCSORTHOREF
  2

  9
$PUCSORTHOVIEW
 70
     0
  9
$PUCSORGTOP
 10
0.0
 20
0.0
 30
0.0
  9
$PUCSORGBOTTOM
 10
0.0
 20
0.0
 30
0.0
  9
$PUCSORGLEFT
 10
0.0
 20
0.0
 30
0.0
  9
$PUCSORGRIGHT
 10
0.0
 20
0.0
 30
0.0
  9
$PUCSORGFRONT
 10
0.0
 20
0.0
 30
0.0
  9
$PUCSORGBACK
 10
0.0
 20
0.0
 30
0.0
  9
$USERI1
 70
     0
  9
$USERI2
 70
     0
  9
$USERI3
 70
     0
  9
$USERI4
 70
     0
  9
$USERI5
 70
     0
  9
$USERR1
 40
0.0
  9
$USERR2
 40
0.0
  9
$USERR3
 40
0.0
  9
$USERR4
 40
0.0
  9
$USERR5
 40
0.0
  9
$WORLDVIEW
 70
     1
  9
$SHADEDGE
 70
     3
  9
$SHADEDIF
 70
    70
  9
$TILEMODE
 70
     1
  9
$MAXACTVP
 70
    16
  9
$PINSBASE
 10
0.0
 20
0.0
 30
0.0
  9
$PLIMCHECK
 70
     0
  9
$PEXTMIN
 10
1.000000000000000E+20
 20
1.000000000000000E+20
 30
1.000000000000000E+20
  9
$PEXTMAX
 10
-1.000000000000000E+20
 20
-1.000000000000000E+20
 30
-1.000000000000000E+20
  9
$PLIMMIN
 10
0.0
 20
0.0
  9
$PLIMMAX
 10
420.0
 20
297.0
  9
$UNITMODE
 70
     0
  9
$VISRETAIN
 70
     0
  9
$PLINEGEN
 70
     0
  9
$PSLTSCALE
 70
     0
  9
$TREEDEPTH
 70
  3020
  9
$CMLSTYLE
  2
STANDARD
  9
$CMLJUST
 70
     0
  9
$CMLSCALE
 40
1.0
  9
$PROXYGRAPHICS
 70
     1
  9
$MEASUREMENT
 70
     1
  9
$CELWEIGHT
370
    -1
  9
$ENDCAPS
280
     0
  9
$JOINSTYLE
280
     0
  9
$LWDISPLAY
290
     0
  9
$INSUNITS
 70
     0
  9
$HYPERLINKBASE
  1

  9
$STYLESHEET
  1
inaba.ctb
  9
$XEDIT
290
     1
  9
$CEPSNTYPE
380
     0
  9
$PSTYLEMODE
290
     1
  9
$FINGERPRINTGUID
  2
{5EAC461A-2277-4BF8-9AB0-99C43BB394F0}
  9
$VERSIONGUID
  2
{A48EEC8D-C69A-4694-998D-26A246400001}
  9
$EXTNAMES
290
     1
  9
$PSVPSCALE
 40
0.0
  9
$OLESTARTUP
290
     0
  0
ENDSEC
  0
SECTION
  2
CLASSES
  0
CLASS
  1
ACDBDICTIONARYWDFLT
  2
AcDbDictionaryWithDefault
  3
ObjectDBX Classes
 90
        0
280
     0
281
     0
  0
CLASS
  1
DICTIONARYVAR
  2
AcDbDictionaryVar
  3
ObjectDBX Classes
 90
        0
280
     0
281
     0
  0
CLASS
  1
ACDBPLACEHOLDER
  2
AcDbPlaceHolder
  3
ObjectDBX Classes
 90
        0
280
     0
281
     0
  0
CLASS
  1
LAYOUT
  2
AcDbLayout
  3
ObjectDBX Classes
 90
        0
280
     0
281
     0
  0
ENDSEC
  0
SECTION
  2
TABLES
  0
TABLE
  2
VPORT
  5
746D
330
0
100
AcDbSymbolTable
 70
     2
  0
VPORT
  5
2B62B
330
746D
100
AcDbSymbolTableRecord
100
AcDbViewportTableRecord
  2
*Active
 70
     0
 10
0.0
 20
0.0
 11
1.0
 21
1.0
 12
9779.789351734969
 22
5704.608037261908
 13
0.0
 23
0.0
 14
10.0
 24
10.0
 15
10.0
 25
10.0
 16
0.0
 26
0.0
 36
1.0
 17
0.0
 27
0.0
 37
0.0
 40
11495.08541324274
 41
1.79295154185022
 42
50.0
 43
0.0
 44
0.0
 50
0.0
 51
0.0
 71
     0
 72
     0
 73
     1
 74
     0
 75
     0
 76
     0
 77
     0
 78
     0
281
     0
 65
     1
110
0.0
120
0.0
130
0.0
111
1.0
121
0.0
131
0.0
112
0.0
122
1.0
132
0.0
 79
     0
146
0.0
  0
ENDTAB
  0
TABLE
  2
LTYPE
  5
746A
330
0
100
AcDbSymbolTable
 70
     3
  0
LTYPE
  5
7477
330
746A
100
AcDbSymbolTableRecord
100
AcDbLinetypeTableRecord
  2
BYBLOCK
 70
     0
  3

 72
    65
 73
     0
 40
0.0
  0
LTYPE
  5
7478
330
746A
100
AcDbSymbolTableRecord
100
AcDbLinetypeTableRecord
  2
BYLAYER
 70
     0
  3

 72
    65
 73
     0
 40
0.0
  0
LTYPE
  5
7479
330
746A
100
AcDbSymbolTableRecord
100
AcDbLinetypeTableRecord
  2
CONTINUOUS
 70
     0
  3
Solid line
 72
    65
 73
     0
 40
0.0
  0
LTYPE
  5
7816
330
746A
100
AcDbSymbolTableRecord
100
AcDbLinetypeTableRecord
  2
CENTER
 70
     0
  3
____ _ ____ _ ____ _ ____ _ ____ _ ____ _ ____ 
 72
    65
 73
     4
 40
2.0
 49
1.25
 74
     0
 49
-0.25
 74
     0
 49
0.25
 74
     0
 49
-0.25
 74
     0
  0
LTYPE
  5
781B
330
746A
100
AcDbSymbolTableRecord
100
AcDbLinetypeTableRecord
  2
PHANTOM
 70
     0
  3
______  __  __  ______  __  __  ______  __  __ 
 72
    65
 73
     6
 40
2.5
 49
1.25
 74
     0
 49
-0.25
 74
     0
 49
0.25
 74
     0
 49
-0.25
 74
     0
 49
0.25
 74
     0
 49
-0.25
 74
     0
  0
ENDTAB
  0
TABLE
  2
LAYER
  5
7467
102
{ACAD_XDICTIONARY
360
1758F
102
}
330
0
100
AcDbSymbolTable
 70
    10
  0
LAYER
  5
7474
330
7467
100
AcDbSymbolTableRecord
100
AcDbLayerTableRecord
  2
0
 70
     0
 62
     7
  6
CONTINUOUS
370
    -3
390
173D0
  0
LAYER
  5
DEB2
330
7467
100
AcDbSymbolTableRecord
100
AcDbLayerTableRecord
  2
センター
 70
     0
 62
     3
  6
CENTER
370
    -3
390
173D0
  0
LAYER
  5
DEB3
330
7467
100
AcDbSymbolTableRecord
100
AcDbLayerTableRecord
  2
寸法
 70
     0
 62
     4
  6
CONTINUOUS
370
    -3
390
173D0
  0
LAYER
  5
DEB4
330
7467
100
AcDbSymbolTableRecord
100
AcDbLayerTableRecord
  2
部品1
 70
     0
 62
     7
  6
CONTINUOUS
370
    -3
390
173D0
  0
LAYER
  5
DEB5
330
7467
100
AcDbSymbolTableRecord
100
AcDbLayerTableRecord
  2
補助
 70
     0
 62
    -1
  6
CONTINUOUS
370
    -3
390
173D0
  0
LAYER
  5
DEB6
330
7467
100
AcDbSymbolTableRecord
100
AcDbLayerTableRecord
  2
文字
 70
     0
 62
     7
  6
CONTINUOUS
370
    -3
390
173D0
  0
LAYER
  5
F255
330
7467
100
AcDbSymbolTableRecord
100
AcDbLayerTableRecord
  2
DEFPOINTS
 70
     0
 62
     7
  6
CONTINUOUS
290
     0
370
    -3
390
173D0
  0
LAYER
  5
10B54
330
7467
100
AcDbSymbolTableRecord
100
AcDbLayerTableRecord
  2
仕様書枠
 70
     0
 62
   230
  6
CONTINUOUS
370
    -3
390
173D0
  0
LAYER
  5
1173F
330
7467
100
AcDbSymbolTableRecord
100
AcDbLayerTableRecord
  2
細線
 70
     0
 62
     5
  6
CONTINUOUS
370
    -3
390
173D0
  0
LAYER
  5
12CC4
330
7467
100
AcDbSymbolTableRecord
100
AcDbLayerTableRecord
  2
想像線
 70
     0
 62
     6
  6
PHANTOM
370
    -3
390
173D0
  0
ENDTAB
  0
TABLE
  2
STYLE
  5
7468
330
0
100
AcDbSymbolTable
 70
     4
  0
STYLE
  5
7475
330
7468
100
AcDbSymbolTableRecord
100
AcDbTextStyleTableRecord
  2
STANDARD
 70
     0
 40
0.0
 41
1.0
 50
0.0
 71
     0
 42
4.0
  3
txt
  4
C:\AutoCAD LT\bigfont.shx
  0
STYLE
  5
763C
330
7468
100
AcDbSymbolTableRecord
100
AcDbTextStyleTableRecord
  2
MSMINCHO
 70
     0
 40
0.0
 41
1.0
 50
0.0
 71
     0
 42
1.199999999999999
  3
C:\AutoCAD LT\msminch2.TTF
  4

  0
STYLE
  5
F706
330
7468
100
AcDbSymbolTableRecord
100
AcDbTextStyleTableRecord
  2
STYLE1
 70
     0
 40
0.0
 41
1.0
 50
0.0
 71
     0
 42
4.0
  3
isocp.shx
  4
bigfont.shx
  0
STYLE
  5
103BF
330
7468
100
AcDbSymbolTableRecord
100
AcDbTextStyleTableRecord
  2
STYLE2
 70
     0
 40
0.0
 41
1.0
 50
0.0
 71
     0
 42
100.0
  3
MS PGothic.ttf
  4

1001
ACAD
1000
MS PGothic
1071
    32818
  0
ENDTAB
  0
TABLE
  2
VIEW
  5
746B
330
0
100
AcDbSymbolTable
 70
     0
  0
ENDTAB
  0
TABLE
  2
UCS
  5
746C
330
0
100
AcDbSymbolTable
 70
     0
  0
ENDTAB
  0
TABLE
  2
APPID
  5
746E
330
0
100
AcDbSymbolTable
 70
     6
  0
APPID
  5
7476
330
746E
100
AcDbSymbolTableRecord
100
AcDbRegAppTableRecord
  2
ACAD
 70
     0
  0
APPID
  5
DEA9
330
746E
100
AcDbSymbolTableRecord
100
AcDbRegAppTableRecord
  2
CONTENTBLOCKICON
 70
     0
  0
APPID
  5
DEAA
330
746E
100
AcDbSymbolTableRecord
100
AcDbRegAppTableRecord
  2
CONTENTBLOCKDESCRIPTION
 70
     0
  0
APPID
  5
E71D
330
746E
100
AcDbSymbolTableRecord
100
AcDbRegAppTableRecord
  2
CONTENTTABDATA
 70
     0
  0
APPID
  5
E71E
330
746E
100
AcDbSymbolTableRecord
100
AcDbRegAppTableRecord
  2
CONTENTCURRENTTAB
 70
     0
  0
APPID
  5
F3BA
330
746E
100
AcDbSymbolTableRecord
100
AcDbRegAppTableRecord
  2
DRAWINGVARIABLESXDATA
 70
     0
  0
ENDTAB
  0
TABLE
  2
DIMSTYLE
  5
746F
330
0
100
AcDbSymbolTable
 70
     1
100
AcDbDimStyleTable
 71
     1
340
F71F
  0
DIMSTYLE
105
F71F
102
{ACAD_REACTORS
330
2B312
330
2B30F
330
2B30E
330
2B30C
330
2B309
330
2B306
330
2B305
330
2B303
330
2B302
330
2B2FF
330
2B2FE
330
2B2F1
330
2B2F0
330
2B2EF
330
2B2AD
330
2B298
330
2B296
330
2B290
330
2B1F7
330
2ACC7
330
29862
330
27D82
330
27D16
330
2701E
330
26F7E
330
26F64
330
26F3F
330
26F1A
330
26F00
330
26522
330
2651E
330
26519
330
2650D
330
2650C
330
26508
330
2647E
330
2646B
330
26467
330
26459
330
26458
330
26457
330
26454
330
26452
330
26450
330
26236
330
2622F
330
261CE
330
261CD
330
261C9
330
261B9
330
261B5
330
261B2
330
261B1
330
261B0
330
1D2D6
330
1AC2C
330
1AC27
102
}
330
746F
100
AcDbSymbolTableRecord
100
AcDbDimStyleTableRecord
  2
INABA_S40G
 70
     0
 40
40.0
 41
2.5
 42
0.5
 43
7.0
 44
1.5
 73
     0
 74
     0
 77
     3
 78
     8
140
3.0
141
0.0
143
0.0394
147
1.0
172
     1
173
     1
174
     1
178
     7
271
     1
340
F706
341
F770
343
F770
344
F770
  0
ENDTAB
  0
TABLE
  2
BLOCK_RECORD
  5
7466
330
0
100
AcDbSymbolTable
 70
    41
  0
BLOCK_RECORD
  5
747D
330
7466
100
AcDbSymbolTableRecord
100
AcDbBlockTableRecord
  2
*MODEL_SPACE
340
173D5
  0
BLOCK_RECORD
  5
747A
330
7466
100
AcDbSymbolTableRecord
100
AcDbBlockTableRecord
  2
*PAPER_SPACE
340
173D6
  0
BLOCK_RECORD
  5
F770
330
7466
100
AcDbSymbolTableRecord
100
AcDbBlockTableRecord
  2
_DOTSMALL
340
0
102
{BLKREFS
331
2B480
331
2B481
331
2B489
331
2B48A
331
2B492
331
2B493
331
2B49B
331
2B49C
331
2B4A4
331
2B4A5
331
2B4AF
331
2B4B0
331
2B4B8
331
2B4B9
331
2B4C1
331
2B4C2
331
2B4CA
331
2B4CB
331
2B4D4
331
2B4D5
331
2B4DF
331
2B4E0
331
2B4EA
331
2B4EB
331
2B4F5
331
2B4F6
331
2B500
331
2B501
331
2B50B
331
2B50C
331
2B515
331
2B516
331
2B51F
331
2B520
331
2B529
331
2B52A
331
2B532
331
2B533
331
2B53B
331
2B53C
331
2B544
331
2B545
331
2B54D
331
2B54E
331
2B556
331
2B557
331
2B560
331
2B561
331
2B56A
331
2B56B
331
2B573
331
2B574
331
2B57D
331
2B57E
331
2B586
331
2B587
331
2B58F
331
2B590
331
2B599
331
2B59A
331
2B5A2
331
2B5A3
331
2B5AC
331
2B5AD
331
2B5B5
331
2B5B6
331
2B5BE
331
2B5BF
331
2B5C7
331
2B5C8
331
2B5D0
331
2B5D1
331
2B5D9
331
2B5DA
331
2B5E3
331
2B5E4
331
2B5ED
331
2B5EE
331
2B5F6
331
2B5F7
102
}
  0
BLOCK_RECORD
  5
26523
330
7466
100
AcDbSymbolTableRecord
100
AcDbBlockTableRecord
  2
*D1
340
0
  0
BLOCK_RECORD
  5
2652E
330
7466
100
AcDbSymbolTableRecord
100
AcDbBlockTableRecord
  2
*D2
340
0
  0
BLOCK_RECORD
  5
2653B
330
7466
100
AcDbSymbolTableRecord
100
AcDbBlockTableRecord
  2
*D3
340
0
  0
BLOCK_RECORD
  5
26548
330
7466
100
AcDbSymbolTableRecord
100
AcDbBlockTableRecord
  2
*D4
340
0
  0
BLOCK_RECORD
  5
26553
330
7466
100
AcDbSymbolTableRecord
100
AcDbBlockTableRecord
  2
*D5
340
0
  0
BLOCK_RECORD
  5
2655E
330
7466
100
AcDbSymbolTableRecord
100
AcDbBlockTableRecord
  2
*D6
340
0
  0
BLOCK_RECORD
  5
26568
330
7466
100
AcDbSymbolTableRecord
100
AcDbBlockTableRecord
  2
*D7
340
0
  0
BLOCK_RECORD
  5
26573
330
7466
100
AcDbSymbolTableRecord
100
AcDbBlockTableRecord
  2
*D8
340
0
  0
BLOCK_RECORD
  5
2659F
330
7466
100
AcDbSymbolTableRecord
100
AcDbBlockTableRecord
  2
*D9
340
0
  0
BLOCK_RECORD
  5
265C5
330
7466
100
AcDbSymbolTableRecord
100
AcDbBlockTableRecord
  2
*D10
340
0
  0
BLOCK_RECORD
  5
265DA
330
7466
100
AcDbSymbolTableRecord
100
AcDbBlockTableRecord
  2
*D11
340
0
  0
BLOCK_RECORD
  5
265F4
330
7466
100
AcDbSymbolTableRecord
100
AcDbBlockTableRecord
  2
*D12
340
0
  0
BLOCK_RECORD
  5
26600
330
7466
100
AcDbSymbolTableRecord
100
AcDbBlockTableRecord
  2
*D13
340
0
  0
BLOCK_RECORD
  5
2660C
330
7466
100
AcDbSymbolTableRecord
100
AcDbBlockTableRecord
  2
*D14
340
0
  0
BLOCK_RECORD
  5
26619
330
7466
100
AcDbSymbolTableRecord
100
AcDbBlockTableRecord
  2
*D15
340
0
  0
BLOCK_RECORD
  5
26624
330
7466
100
AcDbSymbolTableRecord
100
AcDbBlockTableRecord
  2
*D16
340
0
  0
BLOCK_RECORD
  5
26631
330
7466
100
AcDbSymbolTableRecord
100
AcDbBlockTableRecord
  2
*D17
340
0
  0
BLOCK_RECORD
  5
2663E
330
7466
100
AcDbSymbolTableRecord
100
AcDbBlockTableRecord
  2
*D18
340
0
  0
BLOCK_RECORD
  5
26649
330
7466
100
AcDbSymbolTableRecord
100
AcDbBlockTableRecord
  2
*D19
340
0
  0
BLOCK_RECORD
  5
2667B
330
7466
100
AcDbSymbolTableRecord
100
AcDbBlockTableRecord
  2
*D20
340
0
  0
BLOCK_RECORD
  5
26687
330
7466
100
AcDbSymbolTableRecord
100
AcDbBlockTableRecord
  2
*D21
340
0
  0
BLOCK_RECORD
  5
26692
330
7466
100
AcDbSymbolTableRecord
100
AcDbBlockTableRecord
  2
*D22
340
0
  0
BLOCK_RECORD
  5
2669E
330
7466
100
AcDbSymbolTableRecord
100
AcDbBlockTableRecord
  2
*D23
340
0
  0
BLOCK_RECORD
  5
266AB
330
7466
100
AcDbSymbolTableRecord
100
AcDbBlockTableRecord
  2
*D24
340
0
  0
BLOCK_RECORD
  5
266B8
330
7466
100
AcDbSymbolTableRecord
100
AcDbBlockTableRecord
  2
*D25
340
0
  0
BLOCK_RECORD
  5
26F01
330
7466
100
AcDbSymbolTableRecord
100
AcDbBlockTableRecord
  2
*D26
340
0
  0
BLOCK_RECORD
  5
26F1B
330
7466
100
AcDbSymbolTableRecord
100
AcDbBlockTableRecord
  2
*D27
340
0
  0
BLOCK_RECORD
  5
26F40
330
7466
100
AcDbSymbolTableRecord
100
AcDbBlockTableRecord
  2
*D28
340
0
  0
BLOCK_RECORD
  5
26F65
330
7466
100
AcDbSymbolTableRecord
100
AcDbBlockTableRecord
  2
*D29
340
0
  0
BLOCK_RECORD
  5
26F7F
330
7466
100
AcDbSymbolTableRecord
100
AcDbBlockTableRecord
  2
*D30
340
0
  0
BLOCK_RECORD
  5
2701F
330
7466
100
AcDbSymbolTableRecord
100
AcDbBlockTableRecord
  2
*D31
340
0
  0
BLOCK_RECORD
  5
27D83
330
7466
100
AcDbSymbolTableRecord
100
AcDbBlockTableRecord
  2
*D32
340
0
  0
BLOCK_RECORD
  5
29863
330
7466
100
AcDbSymbolTableRecord
100
AcDbBlockTableRecord
  2
*D33
340
0
  0
BLOCK_RECORD
  5
2AD6E
330
7466
100
AcDbSymbolTableRecord
100
AcDbBlockTableRecord
  2
*D34
340
0
  0
BLOCK_RECORD
  5
2B31D
330
7466
100
AcDbSymbolTableRecord
100
AcDbBlockTableRecord
  2
*D35
340
0
  0
BLOCK_RECORD
  5
2B329
330
7466
100
AcDbSymbolTableRecord
100
AcDbBlockTableRecord
  2
*D36
340
0
  0
BLOCK_RECORD
  5
2B335
330
7466
100
AcDbSymbolTableRecord
100
AcDbBlockTableRecord
  2
*D37
340
0
  0
BLOCK_RECORD
  5
2B341
330
7466
100
AcDbSymbolTableRecord
100
AcDbBlockTableRecord
  2
*D38
340
0
  0
BLOCK_RECORD
  5
2B34D
330
7466
100
AcDbSymbolTableRecord
100
AcDbBlockTableRecord
  2
*D39
340
0
  0
BLOCK_RECORD
  5
2B35B
330
7466
100
AcDbSymbolTableRecord
100
AcDbBlockTableRecord
  2
*D40
340
0
  0
ENDTAB
  0
ENDSEC
  0
SECTION
  2
BLOCKS
  0
BLOCK
  5
7489
330
747D
100
AcDbEntity
  8
0
100
AcDbBlockBegin
  2
*MODEL_SPACE
 70
     0
 10
0.0
 20
0.0
 30
0.0
  3
*MODEL_SPACE
  1

  0
ENDBLK
  5
748A
330
747D
100
AcDbEntity
  8
0
100
AcDbBlockEnd
  0
BLOCK
  5
7487
330
747A
100
AcDbEntity
 67
     1
  8
0
100
AcDbBlockBegin
  2
*PAPER_SPACE
 70
     0
 10
0.0
 20
0.0
 30
0.0
  3
*PAPER_SPACE
  1

  0
ENDBLK
  5
7488
330
747A
100
AcDbEntity
 67
     1
  8
0
100
AcDbBlockEnd
  0
BLOCK
  5
F771
330
F770
100
AcDbEntity
  8
0
 48
50.0
100
AcDbBlockBegin
  2
_DOTSMALL
 70
     0
 10
0.0
 20
0.0
 30
0.0
  3
_DOTSMALL
  1

  0
LWPOLYLINE
  5
F772
330
F770
100
AcDbEntity
  8
0
  6
ByBlock
 62
     0
 48
50.0
100
AcDbPolyline
 90
        2
 70
     1
 43
0.5
 10
-0.0625
 20
0.0
 42
1.0
 10
0.0625
 20
0.0
 42
1.0
  0
ENDBLK
  5
F776
330
F770
100
AcDbEntity
  8
0
 48
50.0
100
AcDbBlockEnd
  0
BLOCK
  5
2652C
330
26523
100
AcDbEntity
  8
0
 48
50.0
100
AcDbBlockBegin
  2
*D1
 70
     1
 10
0.0
 20
0.0
 30
0.0
  3
*D1
  1

  0
LINE
  5
2B5F3
330
26523
100
AcDbEntity
  8
寸法
 62
     0
 48
50.0
370
    -2
100
AcDbLine
 10
10735.6
 20
8569.434385439139
 30
0.0
 11
10735.6
 21
9428.194011981224
 31
0.0
  0
LINE
  5
2B5F4
330
26523
100
AcDbEntity
  8
寸法
 62
     0
 48
50.0
370
    -2
100
AcDbLine
 10
8105.6
 20
8569.434385439139
 30
0.0
 11
8105.6
 21
9428.194011981224
 31
0.0
  0
LINE
  5
2B5F5
330
26523
100
AcDbEntity
  8
寸法
 62
     0
 48
50.0
370
    -2
100
AcDbLine
 10
10735.6
 20
9368.194011981222
 30
0.0
 11
8105.6
 21
9368.194011981222
 31
0.0
  0
INSERT
  5
2B5F6
330
26523
100
AcDbEntity
  8
寸法
 62
     0
 48
50.0
370
    -2
100
AcDbBlockReference
  2
_DOTSMALL
 10
10735.6
 20
9368.194011981222
 30
0.0
 41
100.0
 42
100.0
 43
100.0
  0
INSERT
  5
2B5F7
330
26523
100
AcDbEntity
  8
寸法
 62
     0
 48
50.0
370
    -2
100
AcDbBlockReference
  2
_DOTSMALL
 10
8105.6
 20
9368.194011981222
 30
0.0
 41
100.0
 42
100.0
 43
100.0
 50
180.0
  0
MTEXT
  5
2B5F8
330
26523
100
AcDbEntity
  8
寸法
 62
     7
 48
50.0
100
AcDbMText
 10
9420.6
 20
9468.205823004844
 30
0.0
 40
120.0
 41
0.0
 71
     5
 72
     1
  1
\A1;2630
  7
STYLE1
 73
     1
 44
1.0
1001
ACAD
1000
MTEXTBEGIN
1070
    73
1070
     1
1070
    44
1040
1.0
1070
    74
1070
     0
1000
MTEXTEND
  0
POINT
  5
2B5F9
330
26523
100
AcDbEntity
  8
DEFPOINTS
 62
     0
 48
50.0
100
AcDbPoint
 10
10735.6
 20
8549.434385439139
 30
0.0
  0
POINT
  5
2B5FA
330
26523
100
AcDbEntity
  8
DEFPOINTS
 62
     0
 48
50.0
100
AcDbPoint
 10
8105.6
 20
8549.434385439139
 30
0.0
  0
POINT
  5
2B5FB
330
26523
100
AcDbEntity
  8
DEFPOINTS
 62
     0
 48
50.0
100
AcDbPoint
 10
8105.6
 20
9368.194011981222
 30
0.0
  0
ENDBLK
  5
2652D
330
26523
100
AcDbEntity
  8
0
 48
50.0
100
AcDbBlockEnd
  0
BLOCK
  5
26539
330
2652E
100
AcDbEntity
  8
0
 48
50.0
100
AcDbBlockBegin
  2
*D2
 70
     1
 10
0.0
 20
0.0
 30
0.0
  3
*D2
  1

  0
LINE
  5
2B5E9
330
2652E
100
AcDbEntity
  8
寸法
 62
     0
 48
50.0
370
    -2
100
AcDbLine
 10
8762.599867447319
 20
5262.434385439149
 30
0.0
 11
8610.14438614211
 21
5262.434385439149
 31
0.0
  0
LINE
  5
2B5EA
330
2652E
100
AcDbEntity
  8
寸法
 62
     0
 48
50.0
370
    -2
100
AcDbLine
 10
8255.600000000001
 20
5372.434385439156
 30
0.0
 11
8730.144386142111
 21
5372.434385439156
 31
0.0
  0
LINE
  5
2B5EB
330
2652E
100
AcDbEntity
  8
寸法
 62
     0
 48
50.0
370
    -2
100
AcDbLine
 10
8670.14438614211
 20
5262.434385439149
 30
0.0
 11
8670.14438614211
 21
5372.434385439156
 31
0.0
  0
LINE
  5
2B5EC
330
2652E
100
AcDbEntity
  8
寸法
 62
     0
 48
50.0
370
    -2
100
AcDbLine
 10
8670.14438614211
 20
5372.434385439156
 30
0.0
 11
8670.14438614211
 21
5766.540684651769
 31
0.0
  0
INSERT
  5
2B5ED
330
2652E
100
AcDbEntity
  8
寸法
 62
     0
 48
50.0
370
    -2
100
AcDbBlockReference
  2
_DOTSMALL
 10
8670.14438614211
 20
5262.434385439149
 30
0.0
 41
100.0
 42
100.0
 43
100.0
 50
270.0
  0
INSERT
  5
2B5EE
330
2652E
100
AcDbEntity
  8
寸法
 62
     0
 48
50.0
370
    -2
100
AcDbBlockReference
  2
_DOTSMALL
 10
8670.14438614211
 20
5372.434385439156
 30
0.0
 41
100.0
 42
100.0
 43
100.0
 50
90.0
  0
MTEXT
  5
2B5EF
330
2652E
100
AcDbEntity
  8
寸法
 62
     7
 48
50.0
100
AcDbMText
 10
8570.144386142109
 20
5642.493440557281
 30
0.0
 40
120.0
 41
0.0
 71
     5
 72
     1
  1
\A1;110
  7
STYLE1
 11
0.0000000000000001
 21
1.0
 31
0.0
 73
     1
 44
1.0
1001
ACAD
1000
MTEXTBEGIN
1070
    73
1070
     1
1070
    44
1040
1.0
1070
    74
1070
     0
1000
MTEXTEND
  0
POINT
  5
2B5F0
330
2652E
100
AcDbEntity
  8
DEFPOINTS
 62
     0
 48
50.0
100
AcDbPoint
 10
8782.599867447318
 20
5262.434385439149
 30
0.0
  0
POINT
  5
2B5F1
330
2652E
100
AcDbEntity
  8
DEFPOINTS
 62
     0
 48
50.0
100
AcDbPoint
 10
8235.600000000001
 20
5372.434385439156
 30
0.0
  0
POINT
  5
2B5F2
330
2652E
100
AcDbEntity
  8
DEFPOINTS
 62
     0
 48
50.0
100
AcDbPoint
 10
8670.14438614211
 20
5372.434385439156
 30
0.0
  0
ENDBLK
  5
2653A
330
2652E
100
AcDbEntity
  8
0
 48
50.0
100
AcDbBlockEnd
  0
BLOCK
  5
26546
330
2653B
100
AcDbEntity
  8
0
 48
50.0
100
AcDbBlockBegin
  2
*D3
 70
     1
 10
0.0
 20
0.0
 30
0.0
  3
*D3
  1

  0
LINE
  5
2B5DF
330
2653B
100
AcDbEntity
  8
寸法
 62
     0
 48
50.0
370
    -2
100
AcDbLine
 10
8327.41918098816
 20
5142.434385439163
 30
0.0
 11
8730.144386142111
 21
5142.434385439163
 31
0.0
  0
LINE
  5
2B5E0
330
2653B
100
AcDbEntity
  8
寸法
 62
     0
 48
50.0
370
    -2
100
AcDbLine
 10
8762.599867447319
 20
5262.434385439149
 30
0.0
 11
8610.14438614211
 21
5262.434385439149
 31
0.0
  0
LINE
  5
2B5E1
330
2653B
100
AcDbEntity
  8
寸法
 62
     0
 48
50.0
370
    -2
100
AcDbLine
 10
8670.14438614211
 20
5262.434385439149
 30
0.0
 11
8670.14438614211
 21
5142.434385439163
 31
0.0
  0
LINE
  5
2B5E2
330
2653B
100
AcDbEntity
  8
寸法
 62
     0
 48
50.0
370
    -2
100
AcDbLine
 10
8670.14438614211
 20
5142.434385439163
 30
0.0
 11
8670.14438614211
 21
4670.098836376708
 31
0.0
  0
INSERT
  5
2B5E3
330
2653B
100
AcDbEntity
  8
寸法
 62
     0
 48
50.0
370
    -2
100
AcDbBlockReference
  2
_DOTSMALL
 10
8670.14438614211
 20
5262.434385439149
 30
0.0
 41
100.0
 42
100.0
 43
100.0
 50
90.0
  0
INSERT
  5
2B5E4
330
2653B
100
AcDbEntity
  8
寸法
 62
     0
 48
50.0
370
    -2
100
AcDbBlockReference
  2
_DOTSMALL
 10
8670.14438614211
 20
5142.434385439163
 30
0.0
 41
100.0
 42
100.0
 43
100.0
 50
270.0
  0
MTEXT
  5
2B5E5
330
2653B
100
AcDbEntity
  8
寸法
 62
     7
 48
50.0
100
AcDbMText
 10
8570.132575118487
 20
4806.146080471197
 30
0.0
 40
120.0
 41
0.0
 71
     5
 72
     1
  1
\A1;120
  7
STYLE1
 11
0.0000000000000001
 21
1.0
 31
0.0
 73
     1
 44
1.0
1001
ACAD
1000
MTEXTBEGIN
1070
    73
1070
     1
1070
    44
1040
1.0
1070
    74
1070
     0
1000
MTEXTEND
  0
POINT
  5
2B5E6
330
2653B
100
AcDbEntity
  8
DEFPOINTS
 62
     0
 48
50.0
100
AcDbPoint
 10
8307.41918098816
 20
5142.434385439163
 30
0.0
  0
POINT
  5
2B5E7
330
2653B
100
AcDbEntity
  8
DEFPOINTS
 62
     0
 48
50.0
100
AcDbPoint
 10
8782.599867447318
 20
5262.434385439149
 30
0.0
  0
POINT
  5
2B5E8
330
2653B
100
AcDbEntity
  8
DEFPOINTS
 62
     0
 48
50.0
100
AcDbPoint
 10
8670.14438614211
 20
5262.434385439149
 30
0.0
  0
ENDBLK
  5
26547
330
2653B
100
AcDbEntity
  8
0
 48
50.0
100
AcDbBlockEnd
  0
BLOCK
  5
26551
330
26548
100
AcDbEntity
  8
0
 48
50.0
100
AcDbBlockBegin
  2
*D4
 70
     1
 10
0.0
 20
0.0
 30
0.0
  3
*D4
  1

  0
LINE
  5
2B5D6
330
26548
100
AcDbEntity
  8
寸法
 62
     0
 48
50.0
370
    -2
100
AcDbLine
 10
9123.600000000001
 20
7957.434385439137
 30
0.0
 11
9123.600000000001
 21
9209.344151087469
 31
0.0
  0
LINE
  5
2B5D7
330
26548
100
AcDbEntity
  8
寸法
 62
     0
 48
50.0
370
    -2
100
AcDbLine
 10
8223.600000000001
 20
7857.434385439137
 30
0.0
 11
8223.600000000001
 21
9209.344151087469
 31
0.0
  0
LINE
  5
2B5D8
330
26548
100
AcDbEntity
  8
寸法
 62
     0
 48
50.0
370
    -2
100
AcDbLine
 10
9123.600000000001
 20
9149.344151087468
 30
0.0
 11
8223.600000000001
 21
9149.344151087468
 31
0.0
  0
INSERT
  5
2B5D9
330
26548
100
AcDbEntity
  8
寸法
 62
     0
 48
50.0
370
    -2
100
AcDbBlockReference
  2
_DOTSMALL
 10
9123.600000000001
 20
9149.344151087468
 30
0.0
 41
100.0
 42
100.0
 43
100.0
  0
INSERT
  5
2B5DA
330
26548
100
AcDbEntity
  8
寸法
 62
     0
 48
50.0
370
    -2
100
AcDbBlockReference
  2
_DOTSMALL
 10
8223.600000000001
 20
9149.344151087468
 30
0.0
 41
100.0
 42
100.0
 43
100.0
 50
180.0
  0
MTEXT
  5
2B5DB
330
26548
100
AcDbEntity
  8
寸法
 62
     7
 48
50.0
100
AcDbMText
 10
8673.6
 20
9249.344151087468
 30
0.0
 40
120.0
 41
0.0
 71
     5
 72
     1
  1
\A1;900
  7
STYLE1
 73
     1
 44
1.0
1001
ACAD
1000
MTEXTBEGIN
1070
    73
1070
     1
1070
    44
1040
1.0
1070
    74
1070
     0
1000
MTEXTEND
  0
POINT
  5
2B5DC
330
26548
100
AcDbEntity
  8
DEFPOINTS
 62
     0
 48
50.0
100
AcDbPoint
 10
9123.600000000001
 20
7937.434385439137
 30
0.0
  0
POINT
  5
2B5DD
330
26548
100
AcDbEntity
  8
DEFPOINTS
 62
     0
 48
50.0
100
AcDbPoint
 10
8223.600000000001
 20
7837.434385439137
 30
0.0
  0
POINT
  5
2B5DE
330
26548
100
AcDbEntity
  8
DEFPOINTS
 62
     0
 48
50.0
100
AcDbPoint
 10
8223.600000000001
 20
9149.344151087468
 30
0.0
  0
ENDBLK
  5
26552
330
26548
100
AcDbEntity
  8
0
 48
50.0
100
AcDbBlockEnd
  0
BLOCK
  5
2655C
330
26553
100
AcDbEntity
  8
0
 48
50.0
100
AcDbBlockBegin
  2
*D5
 70
     1
 10
0.0
 20
0.0
 30
0.0
  3
*D5
  1

  0
LINE
  5
2B5CD
330
26553
100
AcDbEntity
  8
寸法
 62
     0
 48
50.0
370
    -2
100
AcDbLine
 10
5588.6
 20
8642.434385439139
 30
0.0
 11
5588.6
 21
9640.654707498056
 31
0.0
  0
LINE
  5
2B5CE
330
26553
100
AcDbEntity
  8
寸法
 62
     0
 48
50.0
370
    -2
100
AcDbLine
 10
10858.6
 20
8642.434385439139
 30
0.0
 11
10858.6
 21
9640.654707498056
 31
0.0
  0
LINE
  5
2B5CF
330
26553
100
AcDbEntity
  8
寸法
 62
     0
 48
50.0
370
    -2
100
AcDbLine
 10
5588.6
 20
9580.654707498055
 30
0.0
 11
10858.6
 21
9580.654707498055
 31
0.0
  0
INSERT
  5
2B5D0
330
26553
100
AcDbEntity
  8
寸法
 62
     0
 48
50.0
370
    -2
100
AcDbBlockReference
  2
_DOTSMALL
 10
5588.6
 20
9580.654707498055
 30
0.0
 41
100.0
 42
100.0
 43
100.0
 50
180.0
  0
INSERT
  5
2B5D1
330
26553
100
AcDbEntity
  8
寸法
 62
     0
 48
50.0
370
    -2
100
AcDbBlockReference
  2
_DOTSMALL
 10
10858.6
 20
9580.654707498055
 30
0.0
 41
100.0
 42
100.0
 43
100.0
  0
MTEXT
  5
2B5D2
330
26553
100
AcDbEntity
  8
寸法
 62
     7
 48
50.0
100
AcDbMText
 10
8223.600000000001
 20
9680.666518521677
 30
0.0
 40
120.0
 41
0.0
 71
     5
 72
     1
  1
\A1;5270
  7
STYLE1
 73
     1
 44
1.0
1001
ACAD
1000
MTEXTBEGIN
1070
    73
1070
     1
1070
    44
1040
1.0
1070
    74
1070
     0
1000
MTEXTEND
  0
POINT
  5
2B5D3
330
26553
100
AcDbEntity
  8
DEFPOINTS
 62
     0
 48
50.0
100
AcDbPoint
 10
5588.6
 20
8622.43438543914
 30
0.0
  0
POINT
  5
2B5D4
330
26553
100
AcDbEntity
  8
DEFPOINTS
 62
     0
 48
50.0
100
AcDbPoint
 10
10858.6
 20
8622.43438543914
 30
0.0
  0
POINT
  5
2B5D5
330
26553
100
AcDbEntity
  8
DEFPOINTS
 62
     0
 48
50.0
100
AcDbPoint
 10
10858.6
 20
9580.654707498055
 30
0.0
  0
ENDBLK
  5
2655D
330
26553
100
AcDbEntity
  8
0
 48
50.0
100
AcDbBlockEnd
  0
BLOCK
  5
26566
330
2655E
100
AcDbEntity
  8
0
 48
50.0
100
AcDbBlockBegin
  2
*D6
 70
     1
 10
0.0
 20
0.0
 30
0.0
  3
*D6
  1

  0
LINE
  5
2B5C4
330
2655E
100
AcDbEntity
  8
寸法
 62
     0
 48
50.0
370
    -2
100
AcDbLine
 10
8235.600000000001
 20
5392.434385439155
 30
0.0
 11
8235.600000000001
 21
5627.281835942675
 31
0.0
  0
LINE
  5
2B5C5
330
2655E
100
AcDbEntity
  8
寸法
 62
     0
 48
50.0
370
    -2
100
AcDbLine
 10
7975.6
 20
5392.434385439155
 30
0.0
 11
7975.6
 21
5627.281835942675
 31
0.0
  0
LINE
  5
2B5C6
330
2655E
100
AcDbEntity
  8
寸法
 62
     0
 48
50.0
370
    -2
100
AcDbLine
 10
8235.600000000001
 20
5567.281835942675
 30
0.0
 11
7975.6
 21
5567.281835942675
 31
0.0
  0
INSERT
  5
2B5C7
330
2655E
100
AcDbEntity
  8
寸法
 62
     0
 48
50.0
370
    -2
100
AcDbBlockReference
  2
_DOTSMALL
 10
8235.600000000001
 20
5567.281835942675
 30
0.0
 41
100.0
 42
100.0
 43
100.0
  0
INSERT
  5
2B5C8
330
2655E
100
AcDbEntity
  8
寸法
 62
     0
 48
50.0
370
    -2
100
AcDbBlockReference
  2
_DOTSMALL
 10
7975.6
 20
5567.281835942675
 30
0.0
 41
100.0
 42
100.0
 43
100.0
 50
180.0
  0
MTEXT
  5
2B5C9
330
2655E
100
AcDbEntity
  8
寸法
 62
     7
 48
50.0
100
AcDbMText
 10
8105.6
 20
5667.293646966296
 30
0.0
 40
120.0
 41
0.0
 71
     5
 72
     1
  1
\A1;260
  7
STYLE1
 73
     1
 44
1.0
1001
ACAD
1000
MTEXTBEGIN
1070
    73
1070
     1
1070
    44
1040
1.0
1070
    74
1070
     0
1000
MTEXTEND
  0
POINT
  5
2B5CA
330
2655E
100
AcDbEntity
  8
DEFPOINTS
 62
     0
 48
50.0
100
AcDbPoint
 10
8235.600000000001
 20
5372.434385439156
 30
0.0
  0
POINT
  5
2B5CB
330
2655E
100
AcDbEntity
  8
DEFPOINTS
 62
     0
 48
50.0
100
AcDbPoint
 10
7975.6
 20
5372.434385439156
 30
0.0
  0
POINT
  5
2B5CC
330
2655E
100
AcDbEntity
  8
DEFPOINTS
 62
     0
 48
50.0
100
AcDbPoint
 10
7975.6
 20
5567.281835942675
 30
0.0
  0
ENDBLK
  5
26567
330
2655E
100
AcDbEntity
  8
0
 48
50.0
100
AcDbBlockEnd
  0
BLOCK
  5
26571
330
26568
100
AcDbEntity
  8
0
 48
50.0
100
AcDbBlockBegin
  2
*D7
 70
     1
 10
0.0
 20
0.0
 30
0.0
  3
*D7
  1

  0
LINE
  5
2B5BB
330
26568
100
AcDbEntity
  8
寸法
 62
     0
 48
50.0
370
    -2
100
AcDbLine
 10
5568.6
 20
8622.43438543914
 30
0.0
 11
4780.714637266785
 21
8622.43438543914
 31
0.0
  0
LINE
  5
2B5BC
330
26568
100
AcDbEntity
  8
寸法
 62
     0
 48
50.0
370
    -2
100
AcDbLine
 10
5568.6
 20
5142.434385439138
 30
0.0
 11
4780.714637266783
 21
5142.434385439138
 31
0.0
  0
LINE
  5
2B5BD
330
26568
100
AcDbEntity
  8
寸法
 62
     0
 48
50.0
370
    -2
100
AcDbLine
 10
4840.714637266785
 20
8622.43438543914
 30
0.0
 11
4840.714637266784
 21
5142.434385439138
 31
0.0
  0
INSERT
  5
2B5BE
330
26568
100
AcDbEntity
  8
寸法
 62
     0
 48
50.0
370
    -2
100
AcDbBlockReference
  2
_DOTSMALL
 10
4840.714637266785
 20
8622.43438543914
 30
0.0
 41
100.0
 42
100.0
 43
100.0
 50
90.0
  0
INSERT
  5
2B5BF
330
26568
100
AcDbEntity
  8
寸法
 62
     0
 48
50.0
370
    -2
100
AcDbBlockReference
  2
_DOTSMALL
 10
4840.714637266784
 20
5142.434385439138
 30
0.0
 41
100.0
 42
100.0
 43
100.0
 50
270.0
  0
MTEXT
  5
2B5C0
330
26568
100
AcDbEntity
  8
寸法
 62
     7
 48
50.0
100
AcDbMText
 10
4740.714637266782
 20
6882.434385439137
 30
0.0
 40
120.0
 41
0.0
 71
     5
 72
     1
  1
\A1;3480
  7
STYLE1
 11
0.0000000000000001
 21
1.0
 31
0.0
 73
     1
 44
1.0
1001
ACAD
1000
MTEXTBEGIN
1070
    73
1070
     1
1070
    44
1040
1.0
1070
    74
1070
     0
1000
MTEXTEND
  0
POINT
  5
2B5C1
330
26568
100
AcDbEntity
  8
DEFPOINTS
 62
     0
 48
50.0
100
AcDbPoint
 10
5588.6
 20
8622.43438543914
 30
0.0
  0
POINT
  5
2B5C2
330
26568
100
AcDbEntity
  8
DEFPOINTS
 62
     0
 48
50.0
100
AcDbPoint
 10
5588.6
 20
5142.434385439138
 30
0.0
  0
POINT
  5
2B5C3
330
26568
100
AcDbEntity
  8
DEFPOINTS
 62
     0
 48
50.0
100
AcDbPoint
 10
4840.714637266784
 20
5142.434385439138
 30
0.0
  0
ENDBLK
  5
26572
330
26568
100
AcDbEntity
  8
0
 48
50.0
100
AcDbBlockEnd
  0
BLOCK
  5
2657D
330
26573
100
AcDbEntity
  8
0
 48
50.0
100
AcDbBlockBegin
  2
*D8
 70
     1
 10
0.0
 20
0.0
 30
0.0
  3
*D8
  1

  0
LINE
  5
2B5B2
330
26573
100
AcDbEntity
  8
寸法
 62
     0
 48
50.0
370
    -2
100
AcDbLine
 10
5641.6
 20
8499.434385439137
 30
0.0
 11
5032.657733986184
 21
8499.434385439137
 31
0.0
  0
LINE
  5
2B5B3
330
26573
100
AcDbEntity
  8
寸法
 62
     0
 48
50.0
370
    -2
100
AcDbLine
 10
5641.600000000007
 20
5265.434385439139
 30
0.0
 11
5032.657733986184
 21
5265.434385439139
 31
0.0
  0
LINE
  5
2B5B4
330
26573
100
AcDbEntity
  8
寸法
 62
     0
 48
50.0
370
    -2
100
AcDbLine
 10
5092.657733986184
 20
8499.434385439137
 30
0.0
 11
5092.657733986183
 21
5265.434385439139
 31
0.0
  0
INSERT
  5
2B5B5
330
26573
100
AcDbEntity
  8
寸法
 62
     0
 48
50.0
370
    -2
100
AcDbBlockReference
  2
_DOTSMALL
 10
5092.657733986184
 20
8499.434385439137
 30
0.0
 41
100.0
 42
100.0
 43
100.0
 50
90.0
  0
INSERT
  5
2B5B6
330
26573
100
AcDbEntity
  8
寸法
 62
     0
 48
50.0
370
    -2
100
AcDbBlockReference
  2
_DOTSMALL
 10
5092.657733986183
 20
5265.434385439139
 30
0.0
 41
100.0
 42
100.0
 43
100.0
 50
270.0
  0
MTEXT
  5
2B5B7
330
26573
100
AcDbEntity
  8
寸法
 62
     7
 48
50.0
100
AcDbMText
 10
4992.645922962561
 20
6882.434385439139
 30
0.0
 40
120.0
 41
0.0
 71
     5
 72
     1
  1
\A1;3234
  7
STYLE1
 11
0.0000000000000001
 21
1.0
 31
0.0
 73
     1
 44
1.0
1001
ACAD
1000
MTEXTBEGIN
1070
    73
1070
     1
1070
    44
1040
1.0
1070
    74
1070
     0
1000
MTEXTEND
  0
POINT
  5
2B5B8
330
26573
100
AcDbEntity
  8
DEFPOINTS
 62
     0
 48
50.0
100
AcDbPoint
 10
5661.6
 20
8499.434385439137
 30
0.0
  0
POINT
  5
2B5B9
330
26573
100
AcDbEntity
  8
DEFPOINTS
 62
     0
 48
50.0
100
AcDbPoint
 10
5661.600000000007
 20
5265.434385439139
 30
0.0
  0
POINT
  5
2B5BA
330
26573
100
AcDbEntity
  8
DEFPOINTS
 62
     0
 48
50.0
100
AcDbPoint
 10
5092.657733986183
 20
5265.434385439139
 30
0.0
  0
ENDBLK
  5
2657E
330
26573
100
AcDbEntity
  8
0
 48
50.0
100
AcDbBlockEnd
  0
BLOCK
  5
265AA
330
2659F
100
AcDbEntity
  8
0
 48
50.0
100
AcDbBlockBegin
  2
*D9
 70
     1
 10
0.0
 20
0.0
 30
0.0
  3
*D9
  1

  0
LINE
  5
2B5A8
330
2659F
100
AcDbEntity
  8
寸法
 62
     0
 48
50.0
370
    -2
100
AcDbLine
 10
5641.600000000007
 20
5265.434385439139
 30
0.0
 11
5032.657733986178
 21
5265.434385439139
 31
0.0
  0
LINE
  5
2B5A9
330
2659F
100
AcDbEntity
  8
寸法
 62
     0
 48
50.0
370
    -2
100
AcDbLine
 10
5568.6
 20
5142.434385439138
 30
0.0
 11
5032.657733986178
 21
5142.434385439138
 31
0.0
  0
LINE
  5
2B5AA
330
2659F
100
AcDbEntity
  8
寸法
 62
     0
 48
50.0
370
    -2
100
AcDbLine
 10
5092.657733986179
 20
5265.434385439139
 30
0.0
 11
5092.657733986179
 21
5142.434385439138
 31
0.0
  0
LINE
  5
2B5AB
330
2659F
100
AcDbEntity
  8
寸法
 62
     0
 48
50.0
370
    -2
100
AcDbLine
 10
5092.657733986179
 20
5142.434385439138
 30
0.0
 11
5092.657733986179
 21
4668.418155222304
 31
0.0
  0
INSERT
  5
2B5AC
330
2659F
100
AcDbEntity
  8
寸法
 62
     0
 48
50.0
370
    -2
100
AcDbBlockReference
  2
_DOTSMALL
 10
5092.657733986179
 20
5265.434385439139
 30
0.0
 41
100.0
 42
100.0
 43
100.0
 50
90.0
  0
INSERT
  5
2B5AD
330
2659F
100
AcDbEntity
  8
寸法
 62
     0
 48
50.0
370
    -2
100
AcDbBlockReference
  2
_DOTSMALL
 10
5092.657733986179
 20
5142.434385439138
 30
0.0
 41
100.0
 42
100.0
 43
100.0
 50
270.0
  0
MTEXT
  5
2B5AE
330
2659F
100
AcDbEntity
  8
寸法
 62
     7
 48
50.0
100
AcDbMText
 10
4992.645922962556
 20
4806.903436596544
 30
0.0
 40
120.0
 41
0.0
 71
     5
 72
     1
  1
\A1;123
  7
STYLE1
 11
0.0000000000000001
 21
1.0
 31
0.0
 73
     1
 44
1.0
1001
ACAD
1000
MTEXTBEGIN
1070
    73
1070
     1
1070
    44
1040
1.0
1070
    74
1070
     0
1000
MTEXTEND
  0
POINT
  5
2B5AF
330
2659F
100
AcDbEntity
  8
DEFPOINTS
 62
     0
 48
50.0
100
AcDbPoint
 10
5661.600000000007
 20
5265.434385439139
 30
0.0
  0
POINT
  5
2B5B0
330
2659F
100
AcDbEntity
  8
DEFPOINTS
 62
     0
 48
50.0
100
AcDbPoint
 10
5588.6
 20
5142.434385439138
 30
0.0
  0
POINT
  5
2B5B1
330
2659F
100
AcDbEntity
  8
DEFPOINTS
 62
     0
 48
50.0
100
AcDbPoint
 10
5092.657733986179
 20
5142.434385439138
 30
0.0
  0
ENDBLK
  5
265AB
330
2659F
100
AcDbEntity
  8
0
 48
50.0
100
AcDbBlockEnd
  0
BLOCK
  5
265CE
330
265C5
100
AcDbEntity
  8
0
 48
50.0
100
AcDbBlockBegin
  2
*D10
 70
     1
 10
0.0
 20
0.0
 30
0.0
  3
*D10
  1

  0
LINE
  5
2B59F
330
265C5
100
AcDbEntity
  8
寸法
 62
     0
 48
50.0
370
    -2
100
AcDbLine
 10
6041.6
 20
5047.434385439127
 30
0.0
 11
6041.6
 21
4522.589371096946
 31
0.0
  0
LINE
  5
2B5A0
330
265C5
100
AcDbEntity
  8
寸法
 62
     0
 48
50.0
370
    -2
100
AcDbLine
 10
5588.6
 20
5122.434385439138
 30
0.0
 11
5588.6
 21
4522.589371096946
 31
0.0
  0
LINE
  5
2B5A1
330
265C5
100
AcDbEntity
  8
寸法
 62
     0
 48
50.0
370
    -2
100
AcDbLine
 10
6041.6
 20
4582.589371096946
 30
0.0
 11
5588.6
 21
4582.589371096946
 31
0.0
  0
INSERT
  5
2B5A2
330
265C5
100
AcDbEntity
  8
寸法
 62
     0
 48
50.0
370
    -2
100
AcDbBlockReference
  2
_DOTSMALL
 10
6041.6
 20
4582.589371096946
 30
0.0
 41
100.0
 42
100.0
 43
100.0
  0
INSERT
  5
2B5A3
330
265C5
100
AcDbEntity
  8
寸法
 62
     0
 48
50.0
370
    -2
100
AcDbBlockReference
  2
_DOTSMALL
 10
5588.6
 20
4582.589371096946
 30
0.0
 41
100.0
 42
100.0
 43
100.0
 50
180.0
  0
MTEXT
  5
2B5A4
330
265C5
100
AcDbEntity
  8
寸法
 62
     7
 48
50.0
100
AcDbMText
 10
5815.100000000001
 20
4682.589371096946
 30
0.0
 40
120.0
 41
0.0
 71
     5
 72
     1
  1
\A1;453
  7
STYLE1
 73
     1
 44
1.0
1001
ACAD
1000
MTEXTBEGIN
1070
    73
1070
     1
1070
    44
1040
1.0
1070
    74
1070
     0
1000
MTEXTEND
  0
POINT
  5
2B5A5
330
265C5
100
AcDbEntity
  8
DEFPOINTS
 62
     0
 48
50.0
100
AcDbPoint
 10
6041.6
 20
5067.434385439128
 30
0.0
  0
POINT
  5
2B5A6
330
265C5
100
AcDbEntity
  8
DEFPOINTS
 62
     0
 48
50.0
100
AcDbPoint
 10
5588.6
 20
5142.434385439138
 30
0.0
  0
POINT
  5
2B5A7
330
265C5
100
AcDbEntity
  8
DEFPOINTS
 62
     0
 48
50.0
100
AcDbPoint
 10
5588.6
 20
4582.589371096946
 30
0.0
  0
ENDBLK
  5
265CF
330
265C5
100
AcDbEntity
  8
0
 48
50.0
100
AcDbBlockEnd
  0
BLOCK
  5
265E5
330
265DA
100
AcDbEntity
  8
0
 48
50.0
100
AcDbBlockBegin
  2
*D11
 70
     1
 10
0.0
 20
0.0
 30
0.0
  3
*D11
  1

  0
LINE
  5
2B595
330
265DA
100
AcDbEntity
  8
寸法
 62
     0
 48
50.0
370
    -2
100
AcDbLine
 10
5568.6
 20
8622.43438543914
 30
0.0
 11
5032.657733986178
 21
8622.43438543914
 31
0.0
  0
LINE
  5
2B596
330
265DA
100
AcDbEntity
  8
寸法
 62
     0
 48
50.0
370
    -2
100
AcDbLine
 10
5641.6
 20
8499.434385439137
 30
0.0
 11
5032.657733986178
 21
8499.434385439137
 31
0.0
  0
LINE
  5
2B597
330
265DA
100
AcDbEntity
  8
寸法
 62
     0
 48
50.0
370
    -2
100
AcDbLine
 10
5092.657733986179
 20
8499.434385439137
 30
0.0
 11
5092.657733986179
 21
8622.43438543914
 31
0.0
  0
LINE
  5
2B598
330
265DA
100
AcDbEntity
  8
寸法
 62
     0
 48
50.0
370
    -2
100
AcDbLine
 10
5092.657733986179
 20
8622.43438543914
 30
0.0
 11
5092.657733986179
 21
9034.026268531174
 31
0.0
  0
INSERT
  5
2B599
330
265DA
100
AcDbEntity
  8
寸法
 62
     0
 48
50.0
370
    -2
100
AcDbBlockReference
  2
_DOTSMALL
 10
5092.657733986179
 20
8499.434385439137
 30
0.0
 41
100.0
 42
100.0
 43
100.0
 50
270.0
  0
INSERT
  5
2B59A
330
265DA
100
AcDbEntity
  8
寸法
 62
     0
 48
50.0
370
    -2
100
AcDbBlockReference
  2
_DOTSMALL
 10
5092.657733986179
 20
8622.43438543914
 30
0.0
 41
100.0
 42
100.0
 43
100.0
 50
90.0
  0
MTEXT
  5
2B59B
330
265DA
100
AcDbEntity
  8
寸法
 62
     7
 48
50.0
100
AcDbMText
 10
4992.645922962556
 20
8895.540987156937
 30
0.0
 40
120.0
 41
0.0
 71
     5
 72
     1
  1
\A1;123
  7
STYLE1
 11
0.0000000000000001
 21
1.0
 31
0.0
 73
     1
 44
1.0
1001
ACAD
1000
MTEXTBEGIN
1070
    73
1070
     1
1070
    44
1040
1.0
1070
    74
1070
     0
1000
MTEXTEND
  0
POINT
  5
2B59C
330
265DA
100
AcDbEntity
  8
DEFPOINTS
 62
     0
 48
50.0
100
AcDbPoint
 10
5588.6
 20
8622.43438543914
 30
0.0
  0
POINT
  5
2B59D
330
265DA
100
AcDbEntity
  8
DEFPOINTS
 62
     0
 48
50.0
100
AcDbPoint
 10
5661.6
 20
8499.434385439137
 30
0.0
  0
POINT
  5
2B59E
330
265DA
100
AcDbEntity
  8
DEFPOINTS
 62
     0
 48
50.0
100
AcDbPoint
 10
5092.657733986179
 20
8499.434385439137
 30
0.0
  0
ENDBLK
  5
265E6
330
265DA
100
AcDbEntity
  8
0
 48
50.0
100
AcDbBlockEnd
  0
BLOCK
  5
265FE
330
265F4
100
AcDbEntity
  8
0
 48
50.0
100
AcDbBlockBegin
  2
*D12
 70
     1
 10
0.0
 20
0.0
 30
0.0
  3
*D12
  1

  0
LINE
  5
2B58C
330
265F4
100
AcDbEntity
  8
寸法
 62
     0
 48
50.0
370
    -2
100
AcDbLine
 10
7323.6
 20
7957.434385439137
 30
0.0
 11
7323.6
 21
9209.344151087469
 31
0.0
  0
LINE
  5
2B58D
330
265F4
100
AcDbEntity
  8
寸法
 62
     0
 48
50.0
370
    -2
100
AcDbLine
 10
6493.6
 20
7957.434385439135
 30
0.0
 11
6493.6
 21
9209.344151087469
 31
0.0
  0
LINE
  5
2B58E
330
265F4
100
AcDbEntity
  8
寸法
 62
     0
 48
50.0
370
    -2
100
AcDbLine
 10
7323.6
 20
9149.344151087468
 30
0.0
 11
6493.6
 21
9149.344151087468
 31
0.0
  0
INSERT
  5
2B58F
330
265F4
100
AcDbEntity
  8
寸法
 62
     0
 48
50.0
370
    -2
100
AcDbBlockReference
  2
_DOTSMALL
 10
7323.6
 20
9149.344151087468
 30
0.0
 41
100.0
 42
100.0
 43
100.0
  0
INSERT
  5
2B590
330
265F4
100
AcDbEntity
  8
寸法
 62
     0
 48
50.0
370
    -2
100
AcDbBlockReference
  2
_DOTSMALL
 10
6493.6
 20
9149.344151087468
 30
0.0
 41
100.0
 42
100.0
 43
100.0
 50
180.0
  0
MTEXT
  5
2B591
330
265F4
100
AcDbEntity
  8
寸法
 62
     7
 48
50.0
100
AcDbMText
 10
6908.599999999999
 20
9249.344151087468
 30
0.0
 40
120.0
 41
0.0
 71
     5
 72
     1
  1
\A1;830
  7
STYLE1
 73
     1
 44
1.0
1001
ACAD
1000
MTEXTBEGIN
1070
    73
1070
     1
1070
    44
1040
1.0
1070
    74
1070
     0
1000
MTEXTEND
  0
POINT
  5
2B592
330
265F4
100
AcDbEntity
  8
DEFPOINTS
 62
     0
 48
50.0
100
AcDbPoint
 10
7323.6
 20
7937.434385439137
 30
0.0
  0
POINT
  5
2B593
330
265F4
100
AcDbEntity
  8
DEFPOINTS
 62
     0
 48
50.0
100
AcDbPoint
 10
6493.6
 20
7937.434385439136
 30
0.0
  0
POINT
  5
2B594
330
265F4
100
AcDbEntity
  8
DEFPOINTS
 62
     0
 48
50.0
100
AcDbPoint
 10
6493.6
 20
9149.344151087468
 30
0.0
  0
ENDBLK
  5
265FF
330
265F4
100
AcDbEntity
  8
0
 48
50.0
100
AcDbBlockEnd
  0
BLOCK
  5
2660A
330
26600
100
AcDbEntity
  8
0
 48
50.0
100
AcDbBlockBegin
  2
*D13
 70
     1
 10
0.0
 20
0.0
 30
0.0
  3
*D13
  1

  0
LINE
  5
2B583
330
26600
100
AcDbEntity
  8
寸法
 62
     0
 48
50.0
370
    -2
100
AcDbLine
 10
8105.6
 20
8569.434385439139
 30
0.0
 11
8105.6
 21
9428.194011981224
 31
0.0
  0
LINE
  5
2B584
330
26600
100
AcDbEntity
  8
寸法
 62
     0
 48
50.0
370
    -2
100
AcDbLine
 10
5711.6
 20
8569.434385439139
 30
0.0
 11
5711.6
 21
9428.194011981224
 31
0.0
  0
LINE
  5
2B585
330
26600
100
AcDbEntity
  8
寸法
 62
     0
 48
50.0
370
    -2
100
AcDbLine
 10
8105.6
 20
9368.194011981222
 30
0.0
 11
5711.6
 21
9368.194011981222
 31
0.0
  0
INSERT
  5
2B586
330
26600
100
AcDbEntity
  8
寸法
 62
     0
 48
50.0
370
    -2
100
AcDbBlockReference
  2
_DOTSMALL
 10
8105.6
 20
9368.194011981222
 30
0.0
 41
100.0
 42
100.0
 43
100.0
  0
INSERT
  5
2B587
330
26600
100
AcDbEntity
  8
寸法
 62
     0
 48
50.0
370
    -2
100
AcDbBlockReference
  2
_DOTSMALL
 10
5711.6
 20
9368.194011981222
 30
0.0
 41
100.0
 42
100.0
 43
100.0
 50
180.0
  0
MTEXT
  5
2B588
330
26600
100
AcDbEntity
  8
寸法
 62
     7
 48
50.0
100
AcDbMText
 10
6908.599999999999
 20
9468.205823004844
 30
0.0
 40
120.0
 41
0.0
 71
     5
 72
     1
  1
\A1;2394
  7
STYLE1
 73
     1
 44
1.0
1001
ACAD
1000
MTEXTBEGIN
1070
    73
1070
     1
1070
    44
1040
1.0
1070
    74
1070
     0
1000
MTEXTEND
  0
POINT
  5
2B589
330
26600
100
AcDbEntity
  8
DEFPOINTS
 62
     0
 48
50.0
100
AcDbPoint
 10
8105.6
 20
8549.434385439139
 30
0.0
  0
POINT
  5
2B58A
330
26600
100
AcDbEntity
  8
DEFPOINTS
 62
     0
 48
50.0
100
AcDbPoint
 10
5711.6
 20
8549.434385439139
 30
0.0
  0
POINT
  5
2B58B
330
26600
100
AcDbEntity
  8
DEFPOINTS
 62
     0
 48
50.0
100
AcDbPoint
 10
5711.6
 20
9368.194011981222
 30
0.0
  0
ENDBLK
  5
2660B
330
26600
100
AcDbEntity
  8
0
 48
50.0
100
AcDbBlockEnd
  0
BLOCK
  5
26617
330
2660C
100
AcDbEntity
  8
0
 48
50.0
100
AcDbBlockBegin
  2
*D14
 70
     1
 10
0.0
 20
0.0
 30
0.0
  3
*D14
  1

  0
LINE
  5
2B579
330
2660C
100
AcDbEntity
  8
寸法
 62
     0
 48
50.0
370
    -2
100
AcDbLine
 10
5838.6
 20
8502.434385439133
 30
0.0
 11
6095.307249876099
 21
8502.434385439133
 31
0.0
  0
LINE
  5
2B57A
330
2660C
100
AcDbEntity
  8
寸法
 62
     0
 48
50.0
370
    -2
100
AcDbLine
 10
5838.600000000003
 20
8622.434385439133
 30
0.0
 11
6095.307249876099
 21
8622.434385439133
 31
0.0
  0
LINE
  5
2B57B
330
2660C
100
AcDbEntity
  8
寸法
 62
     0
 48
50.0
370
    -2
100
AcDbLine
 10
6035.307249876098
 20
8502.434385439133
 30
0.0
 11
6035.307249876098
 21
8622.434385439133
 31
0.0
  0
LINE
  5
2B57C
330
2660C
100
AcDbEntity
  8
寸法
 62
     0
 48
50.0
370
    -2
100
AcDbLine
 10
6035.307249876098
 20
8622.434385439133
 30
0.0
 11
6035.307249876098
 21
9036.565172806509
 31
0.0
  0
INSERT
  5
2B57D
330
2660C
100
AcDbEntity
  8
寸法
 62
     0
 48
50.0
370
    -2
100
AcDbBlockReference
  2
_DOTSMALL
 10
6035.307249876098
 20
8502.434385439133
 30
0.0
 41
100.0
 42
100.0
 43
100.0
 50
270.0
  0
INSERT
  5
2B57E
330
2660C
100
AcDbEntity
  8
寸法
 62
     0
 48
50.0
370
    -2
100
AcDbBlockReference
  2
_DOTSMALL
 10
6035.307249876098
 20
8622.434385439133
 30
0.0
 41
100.0
 42
100.0
 43
100.0
 50
90.0
  0
MTEXT
  5
2B57F
330
2660C
100
AcDbEntity
  8
寸法
 62
     7
 48
50.0
100
AcDbMText
 10
5935.295438852476
 20
8900.517928712023
 30
0.0
 40
120.0
 41
0.0
 71
     5
 72
     1
  1
\A1;120
  7
STYLE1
 11
0.0000000000000001
 21
1.0
 31
0.0
 73
     1
 44
1.0
1001
ACAD
1000
MTEXTBEGIN
1070
    73
1070
     1
1070
    44
1040
1.0
1070
    74
1070
     0
1000
MTEXTEND
  0
POINT
  5
2B580
330
2660C
100
AcDbEntity
  8
DEFPOINTS
 62
     0
 48
50.0
100
AcDbPoint
 10
5818.6
 20
8502.434385439133
 30
0.0
  0
POINT
  5
2B581
330
2660C
100
AcDbEntity
  8
DEFPOINTS
 62
     0
 48
50.0
100
AcDbPoint
 10
5818.600000000002
 20
8622.434385439133
 30
0.0
  0
POINT
  5
2B582
330
2660C
100
AcDbEntity
  8
DEFPOINTS
 62
     0
 48
50.0
100
AcDbPoint
 10
6035.307249876098
 20
8622.434385439133
 30
0.0
  0
ENDBLK
  5
26618
330
2660C
100
AcDbEntity
  8
0
 48
50.0
100
AcDbBlockEnd
  0
BLOCK
  5
26622
330
26619
100
AcDbEntity
  8
0
 48
50.0
100
AcDbBlockBegin
  2
*D15
 70
     1
 10
0.0
 20
0.0
 30
0.0
  3
*D15
  1

  0
LINE
  5
2B570
330
26619
100
AcDbEntity
  8
寸法
 62
     0
 48
50.0
370
    -2
100
AcDbLine
 10
6493.6
 20
7957.434385439135
 30
0.0
 11
6493.6
 21
9209.344151087469
 31
0.0
  0
LINE
  5
2B571
330
26619
100
AcDbEntity
  8
寸法
 62
     0
 48
50.0
370
    -2
100
AcDbLine
 10
5588.6
 20
8642.434385439139
 30
0.0
 11
5588.6
 21
9209.344151087469
 31
0.0
  0
LINE
  5
2B572
330
26619
100
AcDbEntity
  8
寸法
 62
     0
 48
50.0
370
    -2
100
AcDbLine
 10
6493.6
 20
9149.344151087468
 30
0.0
 11
5588.6
 21
9149.344151087468
 31
0.0
  0
INSERT
  5
2B573
330
26619
100
AcDbEntity
  8
寸法
 62
     0
 48
50.0
370
    -2
100
AcDbBlockReference
  2
_DOTSMALL
 10
6493.6
 20
9149.344151087468
 30
0.0
 41
100.0
 42
100.0
 43
100.0
  0
INSERT
  5
2B574
330
26619
100
AcDbEntity
  8
寸法
 62
     0
 48
50.0
370
    -2
100
AcDbBlockReference
  2
_DOTSMALL
 10
5588.6
 20
9149.344151087468
 30
0.0
 41
100.0
 42
100.0
 43
100.0
 50
180.0
  0
MTEXT
  5
2B575
330
26619
100
AcDbEntity
  8
寸法
 62
     7
 48
50.0
100
AcDbMText
 10
6041.1
 20
9249.344151087468
 30
0.0
 40
120.0
 41
0.0
 71
     5
 72
     1
  1
\A1;905
  7
STYLE1
 73
     1
 44
1.0
1001
ACAD
1000
MTEXTBEGIN
1070
    73
1070
     1
1070
    44
1040
1.0
1070
    74
1070
     0
1000
MTEXTEND
  0
POINT
  5
2B576
330
26619
100
AcDbEntity
  8
DEFPOINTS
 62
     0
 48
50.0
100
AcDbPoint
 10
6493.6
 20
7937.434385439136
 30
0.0
  0
POINT
  5
2B577
330
26619
100
AcDbEntity
  8
DEFPOINTS
 62
     0
 48
50.0
100
AcDbPoint
 10
5588.6
 20
8622.43438543914
 30
0.0
  0
POINT
  5
2B578
330
26619
100
AcDbEntity
  8
DEFPOINTS
 62
     0
 48
50.0
100
AcDbPoint
 10
5588.6
 20
9149.344151087468
 30
0.0
  0
ENDBLK
  5
26623
330
26619
100
AcDbEntity
  8
0
 48
50.0
100
AcDbBlockEnd
  0
BLOCK
  5
2662F
330
26624
100
AcDbEntity
  8
0
 48
50.0
100
AcDbBlockBegin
  2
*D16
 70
     1
 10
0.0
 20
0.0
 30
0.0
  3
*D16
  1

  0
LINE
  5
2B566
330
26624
100
AcDbEntity
  8
寸法
 62
     0
 48
50.0
370
    -2
100
AcDbLine
 10
5838.6
 20
8502.434385439137
 30
0.0
 11
6095.307249876099
 21
8502.434385439137
 31
0.0
  0
LINE
  5
2B567
330
26624
100
AcDbEntity
  8
寸法
 62
     0
 48
50.0
370
    -2
100
AcDbLine
 10
5838.6
 20
8392.434385439134
 30
0.0
 11
6095.307249876099
 21
8392.434385439134
 31
0.0
  0
LINE
  5
2B568
330
26624
100
AcDbEntity
  8
寸法
 62
     0
 48
50.0
370
    -2
100
AcDbLine
 10
6035.307249876098
 20
8502.434385439137
 30
0.0
 11
6035.307249876098
 21
8392.434385439134
 31
0.0
  0
LINE
  5
2B569
330
26624
100
AcDbEntity
  8
寸法
 62
     0
 48
50.0
370
    -2
100
AcDbLine
 10
6035.307249876098
 20
8392.434385439134
 30
0.0
 11
6035.307249876098
 21
7928.328086226534
 31
0.0
  0
INSERT
  5
2B56A
330
26624
100
AcDbEntity
  8
寸法
 62
     0
 48
50.0
370
    -2
100
AcDbBlockReference
  2
_DOTSMALL
 10
6035.307249876098
 20
8502.434385439137
 30
0.0
 41
100.0
 42
100.0
 43
100.0
 50
90.0
  0
INSERT
  5
2B56B
330
26624
100
AcDbEntity
  8
寸法
 62
     0
 48
50.0
370
    -2
100
AcDbBlockReference
  2
_DOTSMALL
 10
6035.307249876098
 20
8392.434385439134
 30
0.0
 41
100.0
 42
100.0
 43
100.0
 50
270.0
  0
MTEXT
  5
2B56C
330
26624
100
AcDbEntity
  8
寸法
 62
     7
 48
50.0
100
AcDbMText
 10
5935.307249876098
 20
8052.375330321023
 30
0.0
 40
120.0
 41
0.0
 71
     5
 72
     1
  1
\A1;110
  7
STYLE1
 11
0.0000000000000001
 21
1.0
 31
0.0
 73
     1
 44
1.0
1001
ACAD
1000
MTEXTBEGIN
1070
    73
1070
     1
1070
    44
1040
1.0
1070
    74
1070
     0
1000
MTEXTEND
  0
POINT
  5
2B56D
330
26624
100
AcDbEntity
  8
DEFPOINTS
 62
     0
 48
50.0
100
AcDbPoint
 10
5818.6
 20
8502.434385439137
 30
0.0
  0
POINT
  5
2B56E
330
26624
100
AcDbEntity
  8
DEFPOINTS
 62
     0
 48
50.0
100
AcDbPoint
 10
5818.6
 20
8392.434385439134
 30
0.0
  0
POINT
  5
2B56F
330
26624
100
AcDbEntity
  8
DEFPOINTS
 62
     0
 48
50.0
100
AcDbPoint
 10
6035.307249876098
 20
8392.434385439134
 30
0.0
  0
ENDBLK
  5
26630
330
26624
100
AcDbEntity
  8
0
 48
50.0
100
AcDbBlockEnd
  0
BLOCK
  5
2663C
330
26631
100
AcDbEntity
  8
0
 48
50.0
100
AcDbBlockBegin
  2
*D17
 70
     1
 10
0.0
 20
0.0
 30
0.0
  3
*D17
  1

  0
LINE
  5
2B55C
330
26631
100
AcDbEntity
  8
寸法
 62
     0
 48
50.0
370
    -2
100
AcDbLine
 10
5711.6
 20
8569.434385439139
 30
0.0
 11
5711.6
 21
9428.194011981224
 31
0.0
  0
LINE
  5
2B55D
330
26631
100
AcDbEntity
  8
寸法
 62
     0
 48
50.0
370
    -2
100
AcDbLine
 10
5588.6
 20
8642.434385439139
 30
0.0
 11
5588.6
 21
9428.194011981224
 31
0.0
  0
LINE
  5
2B55E
330
26631
100
AcDbEntity
  8
寸法
 62
     0
 48
50.0
370
    -2
100
AcDbLine
 10
5711.6
 20
9368.194011981222
 30
0.0
 11
5588.6
 21
9368.194011981222
 31
0.0
  0
LINE
  5
2B55F
330
26631
100
AcDbEntity
  8
寸法
 62
     0
 48
50.0
370
    -2
100
AcDbLine
 10
5588.6
 20
9368.194011981222
 30
0.0
 11
5177.008116907963
 21
9368.194011981222
 31
0.0
  0
INSERT
  5
2B560
330
26631
100
AcDbEntity
  8
寸法
 62
     0
 48
50.0
370
    -2
100
AcDbBlockReference
  2
_DOTSMALL
 10
5711.6
 20
9368.194011981222
 30
0.0
 41
100.0
 42
100.0
 43
100.0
  0
INSERT
  5
2B561
330
26631
100
AcDbEntity
  8
寸法
 62
     0
 48
50.0
370
    -2
100
AcDbBlockReference
  2
_DOTSMALL
 10
5588.6
 20
9368.194011981222
 30
0.0
 41
100.0
 42
100.0
 43
100.0
 50
180.0
  0
MTEXT
  5
2B562
330
26631
100
AcDbEntity
  8
寸法
 62
     7
 48
50.0
100
AcDbMText
 10
5315.493398282202
 20
9468.205823004844
 30
0.0
 40
120.0
 41
0.0
 71
     5
 72
     1
  1
\A1;123
  7
STYLE1
 73
     1
 44
1.0
1001
ACAD
1000
MTEXTBEGIN
1070
    73
1070
     1
1070
    44
1040
1.0
1070
    74
1070
     0
1000
MTEXTEND
  0
POINT
  5
2B563
330
26631
100
AcDbEntity
  8
DEFPOINTS
 62
     0
 48
50.0
100
AcDbPoint
 10
5711.6
 20
8549.434385439139
 30
0.0
  0
POINT
  5
2B564
330
26631
100
AcDbEntity
  8
DEFPOINTS
 62
     0
 48
50.0
100
AcDbPoint
 10
5588.6
 20
8622.43438543914
 30
0.0
  0
POINT
  5
2B565
330
26631
100
AcDbEntity
  8
DEFPOINTS
 62
     0
 48
50.0
100
AcDbPoint
 10
5588.6
 20
9368.194011981222
 30
0.0
  0
ENDBLK
  5
2663D
330
26631
100
AcDbEntity
  8
0
 48
50.0
100
AcDbBlockEnd
  0
BLOCK
  5
26647
330
2663E
100
AcDbEntity
  8
0
 48
50.0
100
AcDbBlockBegin
  2
*D18
 70
     1
 10
0.0
 20
0.0
 30
0.0
  3
*D18
  1

  0
LINE
  5
2B553
330
2663E
100
AcDbEntity
  8
寸法
 62
     0
 48
50.0
370
    -2
100
AcDbLine
 10
8223.600000000001
 20
7857.434385439137
 30
0.0
 11
8223.600000000001
 21
9209.344151087469
 31
0.0
  0
LINE
  5
2B554
330
2663E
100
AcDbEntity
  8
寸法
 62
     0
 48
50.0
370
    -2
100
AcDbLine
 10
7323.6
 20
7957.434385439137
 30
0.0
 11
7323.6
 21
9209.344151087469
 31
0.0
  0
LINE
  5
2B555
330
2663E
100
AcDbEntity
  8
寸法
 62
     0
 48
50.0
370
    -2
100
AcDbLine
 10
8223.600000000001
 20
9149.344151087468
 30
0.0
 11
7323.6
 21
9149.344151087468
 31
0.0
  0
INSERT
  5
2B556
330
2663E
100
AcDbEntity
  8
寸法
 62
     0
 48
50.0
370
    -2
100
AcDbBlockReference
  2
_DOTSMALL
 10
8223.600000000001
 20
9149.344151087468
 30
0.0
 41
100.0
 42
100.0
 43
100.0
  0
INSERT
  5
2B557
330
2663E
100
AcDbEntity
  8
寸法
 62
     0
 48
50.0
370
    -2
100
AcDbBlockReference
  2
_DOTSMALL
 10
7323.6
 20
9149.344151087468
 30
0.0
 41
100.0
 42
100.0
 43
100.0
 50
180.0
  0
MTEXT
  5
2B558
330
2663E
100
AcDbEntity
  8
寸法
 62
     7
 48
50.0
100
AcDbMText
 10
7773.6
 20
9249.344151087468
 30
0.0
 40
120.0
 41
0.0
 71
     5
 72
     1
  1
\A1;900
  7
STYLE1
 73
     1
 44
1.0
1001
ACAD
1000
MTEXTBEGIN
1070
    73
1070
     1
1070
    44
1040
1.0
1070
    74
1070
     0
1000
MTEXTEND
  0
POINT
  5
2B559
330
2663E
100
AcDbEntity
  8
DEFPOINTS
 62
     0
 48
50.0
100
AcDbPoint
 10
8223.600000000001
 20
7837.434385439137
 30
0.0
  0
POINT
  5
2B55A
330
2663E
100
AcDbEntity
  8
DEFPOINTS
 62
     0
 48
50.0
100
AcDbPoint
 10
7323.6
 20
7937.434385439137
 30
0.0
  0
POINT
  5
2B55B
330
2663E
100
AcDbEntity
  8
DEFPOINTS
 62
     0
 48
50.0
100
AcDbPoint
 10
7323.6
 20
9149.344151087468
 30
0.0
  0
ENDBLK
  5
26648
330
2663E
100
AcDbEntity
  8
0
 48
50.0
100
AcDbBlockEnd
  0
BLOCK
  5
26653
330
26649
100
AcDbEntity
  8
0
 48
50.0
100
AcDbBlockBegin
  2
*D19
 70
     1
 10
0.0
 20
0.0
 30
0.0
  3
*D19
  1

  0
LINE
  5
2B54A
330
26649
100
AcDbEntity
  8
寸法
 62
     0
 48
50.0
370
    -2
100
AcDbLine
 10
9833.600000000002
 20
6882.434385439136
 30
0.0
 11
9528.531448609053
 21
6882.434385439136
 31
0.0
  0
LINE
  5
2B54B
330
26649
100
AcDbEntity
  8
寸法
 62
     0
 48
50.0
370
    -2
100
AcDbLine
 10
9833.600000000002
 20
7737.434385439136
 30
0.0
 11
9528.531448609053
 21
7737.434385439136
 31
0.0
  0
LINE
  5
2B54C
330
26649
100
AcDbEntity
  8
寸法
 62
     0
 48
50.0
370
    -2
100
AcDbLine
 10
9588.531448609051
 20
6882.434385439136
 30
0.0
 11
9588.531448609051
 21
7737.434385439136
 31
0.0
  0
INSERT
  5
2B54D
330
26649
100
AcDbEntity
  8
寸法
 62
     0
 48
50.0
370
    -2
100
AcDbBlockReference
  2
_DOTSMALL
 10
9588.531448609051
 20
6882.434385439136
 30
0.0
 41
100.0
 42
100.0
 43
100.0
 50
270.0
  0
INSERT
  5
2B54E
330
26649
100
AcDbEntity
  8
寸法
 62
     0
 48
50.0
370
    -2
100
AcDbBlockReference
  2
_DOTSMALL
 10
9588.531448609051
 20
7737.434385439136
 30
0.0
 41
100.0
 42
100.0
 43
100.0
 50
90.0
  0
MTEXT
  5
2B54F
330
26649
100
AcDbEntity
  8
寸法
 62
     7
 48
50.0
100
AcDbMText
 10
9488.53144860905
 20
7309.934385439136
 30
0.0
 40
120.0
 41
0.0
 71
     5
 72
     1
  1
\A1;855
  7
STYLE1
 11
0.0000000000000001
 21
1.0
 31
0.0
 73
     1
 44
1.0
1001
ACAD
1000
MTEXTBEGIN
1070
    73
1070
     1
1070
    44
1040
1.0
1070
    74
1070
     0
1000
MTEXTEND
  0
POINT
  5
2B550
330
26649
100
AcDbEntity
  8
DEFPOINTS
 62
     0
 48
50.0
100
AcDbPoint
 10
9853.6
 20
6882.434385439136
 30
0.0
  0
POINT
  5
2B551
330
26649
100
AcDbEntity
  8
DEFPOINTS
 62
     0
 48
50.0
100
AcDbPoint
 10
9853.6
 20
7737.434385439136
 30
0.0
  0
POINT
  5
2B552
330
26649
100
AcDbEntity
  8
DEFPOINTS
 62
     0
 48
50.0
100
AcDbPoint
 10
9588.531448609051
 20
7737.434385439136
 30
0.0
  0
ENDBLK
  5
26654
330
26649
100
AcDbEntity
  8
0
 48
50.0
100
AcDbBlockEnd
  0
BLOCK
  5
26685
330
2667B
100
AcDbEntity
  8
0
 48
50.0
100
AcDbBlockBegin
  2
*D20
 70
     1
 10
0.0
 20
0.0
 30
0.0
  3
*D20
  1

  0
LINE
  5
2B541
330
2667B
100
AcDbEntity
  8
寸法
 62
     0
 48
50.0
370
    -2
100
AcDbLine
 10
10858.6
 20
8642.434385439139
 30
0.0
 11
10858.6
 21
9209.344151087469
 31
0.0
  0
LINE
  5
2B542
330
2667B
100
AcDbEntity
  8
寸法
 62
     0
 48
50.0
370
    -2
100
AcDbLine
 10
9953.600000000001
 20
8012.434385439133
 30
0.0
 11
9953.600000000001
 21
9209.344151087469
 31
0.0
  0
LINE
  5
2B543
330
2667B
100
AcDbEntity
  8
寸法
 62
     0
 48
50.0
370
    -2
100
AcDbLine
 10
10858.6
 20
9149.344151087468
 30
0.0
 11
9953.600000000001
 21
9149.344151087468
 31
0.0
  0
INSERT
  5
2B544
330
2667B
100
AcDbEntity
  8
寸法
 62
     0
 48
50.0
370
    -2
100
AcDbBlockReference
  2
_DOTSMALL
 10
10858.6
 20
9149.344151087468
 30
0.0
 41
100.0
 42
100.0
 43
100.0
  0
INSERT
  5
2B545
330
2667B
100
AcDbEntity
  8
寸法
 62
     0
 48
50.0
370
    -2
100
AcDbBlockReference
  2
_DOTSMALL
 10
9953.600000000001
 20
9149.344151087468
 30
0.0
 41
100.0
 42
100.0
 43
100.0
 50
180.0
  0
MTEXT
  5
2B546
330
2667B
100
AcDbEntity
  8
寸法
 62
     7
 48
50.0
100
AcDbMText
 10
10406.1
 20
9249.344151087468
 30
0.0
 40
120.0
 41
0.0
 71
     5
 72
     1
  1
\A1;905
  7
STYLE1
 73
     1
 44
1.0
1001
ACAD
1000
MTEXTBEGIN
1070
    73
1070
     1
1070
    44
1040
1.0
1070
    74
1070
     0
1000
MTEXTEND
  0
POINT
  5
2B547
330
2667B
100
AcDbEntity
  8
DEFPOINTS
 62
     0
 48
50.0
100
AcDbPoint
 10
10858.6
 20
8622.43438543914
 30
0.0
  0
POINT
  5
2B548
330
2667B
100
AcDbEntity
  8
DEFPOINTS
 62
     0
 48
50.0
100
AcDbPoint
 10
9953.600000000001
 20
7992.434385439135
 30
0.0
  0
POINT
  5
2B549
330
2667B
100
AcDbEntity
  8
DEFPOINTS
 62
     0
 48
50.0
100
AcDbPoint
 10
9953.600000000001
 20
9149.344151087468
 30
0.0
  0
ENDBLK
  5
26686
330
2667B
100
AcDbEntity
  8
0
 48
50.0
100
AcDbBlockEnd
  0
BLOCK
  5
26690
330
26687
100
AcDbEntity
  8
0
 48
50.0
100
AcDbBlockBegin
  2
*D21
 70
     1
 10
0.0
 20
0.0
 30
0.0
  3
*D21
  1

  0
LINE
  5
2B538
330
26687
100
AcDbEntity
  8
寸法
 62
     0
 48
50.0
370
    -2
100
AcDbLine
 10
9833.600000000002
 20
7737.434385439136
 30
0.0
 11
9528.531448609053
 21
7737.434385439136
 31
0.0
  0
LINE
  5
2B539
330
26687
100
AcDbEntity
  8
寸法
 62
     0
 48
50.0
370
    -2
100
AcDbLine
 10
9552.099999999997
 20
8622.43438543914
 30
0.0
 11
9648.531448609052
 21
8622.43438543914
 31
0.0
  0
LINE
  5
2B53A
330
26687
100
AcDbEntity
  8
寸法
 62
     0
 48
50.0
370
    -2
100
AcDbLine
 10
9588.531448609051
 20
7737.434385439136
 30
0.0
 11
9588.531448609051
 21
8622.43438543914
 31
0.0
  0
INSERT
  5
2B53B
330
26687
100
AcDbEntity
  8
寸法
 62
     0
 48
50.0
370
    -2
100
AcDbBlockReference
  2
_DOTSMALL
 10
9588.531448609051
 20
7737.434385439136
 30
0.0
 41
100.0
 42
100.0
 43
100.0
 50
270.0
  0
INSERT
  5
2B53C
330
26687
100
AcDbEntity
  8
寸法
 62
     0
 48
50.0
370
    -2
100
AcDbBlockReference
  2
_DOTSMALL
 10
9588.531448609051
 20
8622.43438543914
 30
0.0
 41
100.0
 42
100.0
 43
100.0
 50
90.0
  0
MTEXT
  5
2B53D
330
26687
100
AcDbEntity
  8
寸法
 62
     7
 48
50.0
100
AcDbMText
 10
9488.53144860905
 20
8179.934385439137
 30
0.0
 40
120.0
 41
0.0
 71
     5
 72
     1
  1
\A1;885
  7
STYLE1
 11
0.0000000000000001
 21
1.0
 31
0.0
 73
     1
 44
1.0
1001
ACAD
1000
MTEXTBEGIN
1070
    73
1070
     1
1070
    44
1040
1.0
1070
    74
1070
     0
1000
MTEXTEND
  0
POINT
  5
2B53E
330
26687
100
AcDbEntity
  8
DEFPOINTS
 62
     0
 48
50.0
100
AcDbPoint
 10
9853.6
 20
7737.434385439136
 30
0.0
  0
POINT
  5
2B53F
330
26687
100
AcDbEntity
  8
DEFPOINTS
 62
     0
 48
50.0
100
AcDbPoint
 10
9532.099999999998
 20
8622.43438543914
 30
0.0
  0
POINT
  5
2B540
330
26687
100
AcDbEntity
  8
DEFPOINTS
 62
     0
 48
50.0
100
AcDbPoint
 10
9588.531448609051
 20
8622.43438543914
 30
0.0
  0
ENDBLK
  5
26691
330
26687
100
AcDbEntity
  8
0
 48
50.0
100
AcDbBlockEnd
  0
BLOCK
  5
2669C
330
26692
100
AcDbEntity
  8
0
 48
50.0
100
AcDbBlockBegin
  2
*D22
 70
     1
 10
0.0
 20
0.0
 30
0.0
  3
*D22
  1

  0
LINE
  5
2B52F
330
26692
100
AcDbEntity
  8
寸法
 62
     0
 48
50.0
370
    -2
100
AcDbLine
 10
9953.600000000001
 20
7957.434385439137
 30
0.0
 11
9953.600000000001
 21
9209.344151087469
 31
0.0
  0
LINE
  5
2B530
330
26692
100
AcDbEntity
  8
寸法
 62
     0
 48
50.0
370
    -2
100
AcDbLine
 10
9123.600000000001
 20
7957.434385439137
 30
0.0
 11
9123.600000000001
 21
9209.344151087469
 31
0.0
  0
LINE
  5
2B531
330
26692
100
AcDbEntity
  8
寸法
 62
     0
 48
50.0
370
    -2
100
AcDbLine
 10
9953.600000000001
 20
9149.344151087468
 30
0.0
 11
9123.600000000001
 21
9149.344151087468
 31
0.0
  0
INSERT
  5
2B532
330
26692
100
AcDbEntity
  8
寸法
 62
     0
 48
50.0
370
    -2
100
AcDbBlockReference
  2
_DOTSMALL
 10
9953.600000000001
 20
9149.344151087468
 30
0.0
 41
100.0
 42
100.0
 43
100.0
  0
INSERT
  5
2B533
330
26692
100
AcDbEntity
  8
寸法
 62
     0
 48
50.0
370
    -2
100
AcDbBlockReference
  2
_DOTSMALL
 10
9123.600000000001
 20
9149.344151087468
 30
0.0
 41
100.0
 42
100.0
 43
100.0
 50
180.0
  0
MTEXT
  5
2B534
330
26692
100
AcDbEntity
  8
寸法
 62
     7
 48
50.0
100
AcDbMText
 10
9538.6
 20
9249.344151087468
 30
0.0
 40
120.0
 41
0.0
 71
     5
 72
     1
  1
\A1;830
  7
STYLE1
 73
     1
 44
1.0
1001
ACAD
1000
MTEXTBEGIN
1070
    73
1070
     1
1070
    44
1040
1.0
1070
    74
1070
     0
1000
MTEXTEND
  0
POINT
  5
2B535
330
26692
100
AcDbEntity
  8
DEFPOINTS
 62
     0
 48
50.0
100
AcDbPoint
 10
9953.600000000001
 20
7937.434385439137
 30
0.0
  0
POINT
  5
2B536
330
26692
100
AcDbEntity
  8
DEFPOINTS
 62
     0
 48
50.0
100
AcDbPoint
 10
9123.600000000001
 20
7937.434385439137
 30
0.0
  0
POINT
  5
2B537
330
26692
100
AcDbEntity
  8
DEFPOINTS
 62
     0
 48
50.0
100
AcDbPoint
 10
9123.600000000001
 20
9149.344151087468
 30
0.0
  0
ENDBLK
  5
2669D
330
26692
100
AcDbEntity
  8
0
 48
50.0
100
AcDbBlockEnd
  0
BLOCK
  5
266A9
330
2669E
100
AcDbEntity
  8
0
 48
50.0
100
AcDbBlockBegin
  2
*D23
 70
     1
 10
0.0
 20
0.0
 30
0.0
  3
*D23
  1

  0
LINE
  5
2B525
330
2669E
100
AcDbEntity
  8
寸法
 62
     0
 48
50.0
370
    -2
100
AcDbLine
 10
10858.6
 20
8372.43438543914
 30
0.0
 11
10858.6
 21
8058.681400370559
 31
0.0
  0
LINE
  5
2B526
330
2669E
100
AcDbEntity
  8
寸法
 62
     0
 48
50.0
370
    -2
100
AcDbLine
 10
10738.59999999998
 20
8372.43438543914
 30
0.0
 11
10738.59999999998
 21
8058.681400370559
 31
0.0
  0
LINE
  5
2B527
330
2669E
100
AcDbEntity
  8
寸法
 62
     0
 48
50.0
370
    -2
100
AcDbLine
 10
10738.59999999998
 20
8118.68140037056
 30
0.0
 11
10858.6
 21
8118.68140037056
 31
0.0
  0
LINE
  5
2B528
330
2669E
100
AcDbEntity
  8
寸法
 62
     0
 48
50.0
370
    -2
100
AcDbLine
 10
10858.6
 20
8118.68140037056
 30
0.0
 11
11264.7062992126
 21
8118.68140037056
 31
0.0
  0
INSERT
  5
2B529
330
2669E
100
AcDbEntity
  8
寸法
 62
     0
 48
50.0
370
    -2
100
AcDbBlockReference
  2
_DOTSMALL
 10
10738.59999999998
 20
8118.68140037056
 30
0.0
 41
100.0
 42
100.0
 43
100.0
 50
180.0
  0
INSERT
  5
2B52A
330
2669E
100
AcDbEntity
  8
寸法
 62
     0
 48
50.0
370
    -2
100
AcDbBlockReference
  2
_DOTSMALL
 10
10858.6
 20
8118.68140037056
 30
0.0
 41
100.0
 42
100.0
 43
100.0
  0
MTEXT
  5
2B52B
330
2669E
100
AcDbEntity
  8
寸法
 62
     7
 48
50.0
100
AcDbMText
 10
11128.65905511811
 20
8218.693211394182
 30
0.0
 40
120.0
 41
0.0
 71
     5
 72
     1
  1
\A1;120
  7
STYLE1
 73
     1
 44
1.0
1001
ACAD
1000
MTEXTBEGIN
1070
    73
1070
     1
1070
    44
1040
1.0
1070
    74
1070
     0
1000
MTEXTEND
  0
POINT
  5
2B52C
330
2669E
100
AcDbEntity
  8
DEFPOINTS
 62
     0
 48
50.0
100
AcDbPoint
 10
10858.6
 20
8392.434385439139
 30
0.0
  0
POINT
  5
2B52D
330
2669E
100
AcDbEntity
  8
DEFPOINTS
 62
     0
 48
50.0
100
AcDbPoint
 10
10738.59999999998
 20
8392.434385439141
 30
0.0
  0
POINT
  5
2B52E
330
2669E
100
AcDbEntity
  8
DEFPOINTS
 62
     0
 48
50.0
100
AcDbPoint
 10
10738.59999999998
 20
8118.68140037056
 30
0.0
  0
ENDBLK
  5
266AA
330
2669E
100
AcDbEntity
  8
0
 48
50.0
100
AcDbBlockEnd
  0
BLOCK
  5
266B6
330
266AB
100
AcDbEntity
  8
0
 48
50.0
100
AcDbBlockBegin
  2
*D24
 70
     1
 10
0.0
 20
0.0
 30
0.0
  3
*D24
  1

  0
LINE
  5
2B51B
330
266AB
100
AcDbEntity
  8
寸法
 62
     0
 48
50.0
370
    -2
100
AcDbLine
 10
10738.6
 20
8372.43438543914
 30
0.0
 11
10738.6
 21
8058.681400370559
 31
0.0
  0
LINE
  5
2B51C
330
266AB
100
AcDbEntity
  8
寸法
 62
     0
 48
50.0
370
    -2
100
AcDbLine
 10
10628.6
 20
8372.434385439134
 30
0.0
 11
10628.6
 21
8058.681400370559
 31
0.0
  0
LINE
  5
2B51D
330
266AB
100
AcDbEntity
  8
寸法
 62
     0
 48
50.0
370
    -2
100
AcDbLine
 10
10738.6
 20
8118.68140037056
 30
0.0
 11
10628.6
 21
8118.68140037056
 31
0.0
  0
LINE
  5
2B51E
330
266AB
100
AcDbEntity
  8
寸法
 62
     0
 48
50.0
370
    -2
100
AcDbLine
 10
10628.6
 20
8118.68140037056
 30
0.0
 11
10268.50551181102
 21
8118.68140037056
 31
0.0
  0
INSERT
  5
2B51F
330
266AB
100
AcDbEntity
  8
寸法
 62
     0
 48
50.0
370
    -2
100
AcDbBlockReference
  2
_DOTSMALL
 10
10738.6
 20
8118.68140037056
 30
0.0
 41
100.0
 42
100.0
 43
100.0
  0
INSERT
  5
2B520
330
266AB
100
AcDbEntity
  8
寸法
 62
     0
 48
50.0
370
    -2
100
AcDbBlockReference
  2
_DOTSMALL
 10
10628.6
 20
8118.68140037056
 30
0.0
 41
100.0
 42
100.0
 43
100.0
 50
180.0
  0
MTEXT
  5
2B521
330
266AB
100
AcDbEntity
  8
寸法
 62
     7
 48
50.0
100
AcDbMText
 10
10392.55275590551
 20
8218.681400370559
 30
0.0
 40
120.0
 41
0.0
 71
     5
 72
     1
  1
\A1;110
  7
STYLE1
 73
     1
 44
1.0
1001
ACAD
1000
MTEXTBEGIN
1070
    73
1070
     1
1070
    44
1040
1.0
1070
    74
1070
     0
1000
MTEXTEND
  0
POINT
  5
2B522
330
266AB
100
AcDbEntity
  8
DEFPOINTS
 62
     0
 48
50.0
100
AcDbPoint
 10
10738.6
 20
8392.434385439139
 30
0.0
  0
POINT
  5
2B523
330
266AB
100
AcDbEntity
  8
DEFPOINTS
 62
     0
 48
50.0
100
AcDbPoint
 10
10628.6
 20
8392.434385439136
 30
0.0
  0
POINT
  5
2B524
330
266AB
100
AcDbEntity
  8
DEFPOINTS
 62
     0
 48
50.0
100
AcDbPoint
 10
10628.6
 20
8118.68140037056
 30
0.0
  0
ENDBLK
  5
266B7
330
266AB
100
AcDbEntity
  8
0
 48
50.0
100
AcDbBlockEnd
  0
BLOCK
  5
266C3
330
266B8
100
AcDbEntity
  8
0
 48
50.0
100
AcDbBlockBegin
  2
*D25
 70
     1
 10
0.0
 20
0.0
 30
0.0
  3
*D25
  1

  0
LINE
  5
2B511
330
266B8
100
AcDbEntity
  8
寸法
 62
     0
 48
50.0
370
    -2
100
AcDbLine
 10
10858.6
 20
8642.434385439139
 30
0.0
 11
10858.6
 21
9428.194011981224
 31
0.0
  0
LINE
  5
2B512
330
266B8
100
AcDbEntity
  8
寸法
 62
     0
 48
50.0
370
    -2
100
AcDbLine
 10
10735.6
 20
8569.434385439139
 30
0.0
 11
10735.6
 21
9428.194011981224
 31
0.0
  0
LINE
  5
2B513
330
266B8
100
AcDbEntity
  8
寸法
 62
     0
 48
50.0
370
    -2
100
AcDbLine
 10
10735.6
 20
9368.194011981222
 30
0.0
 11
10858.6
 21
9368.194011981222
 31
0.0
  0
LINE
  5
2B514
330
266B8
100
AcDbEntity
  8
寸法
 62
     0
 48
50.0
370
    -2
100
AcDbLine
 10
10858.6
 20
9368.194011981222
 30
0.0
 11
11270.19188309204
 21
9368.194011981222
 31
0.0
  0
INSERT
  5
2B515
330
266B8
100
AcDbEntity
  8
寸法
 62
     0
 48
50.0
370
    -2
100
AcDbBlockReference
  2
_DOTSMALL
 10
10735.6
 20
9368.194011981222
 30
0.0
 41
100.0
 42
100.0
 43
100.0
 50
180.0
  0
INSERT
  5
2B516
330
266B8
100
AcDbEntity
  8
寸法
 62
     0
 48
50.0
370
    -2
100
AcDbBlockReference
  2
_DOTSMALL
 10
10858.6
 20
9368.194011981222
 30
0.0
 41
100.0
 42
100.0
 43
100.0
  0
MTEXT
  5
2B517
330
266B8
100
AcDbEntity
  8
寸法
 62
     7
 48
50.0
100
AcDbMText
 10
11131.7066017178
 20
9468.205823004844
 30
0.0
 40
120.0
 41
0.0
 71
     5
 72
     1
  1
\A1;123
  7
STYLE1
 73
     1
 44
1.0
1001
ACAD
1000
MTEXTBEGIN
1070
    73
1070
     1
1070
    44
1040
1.0
1070
    74
1070
     0
1000
MTEXTEND
  0
POINT
  5
2B518
330
266B8
100
AcDbEntity
  8
DEFPOINTS
 62
     0
 48
50.0
100
AcDbPoint
 10
10858.6
 20
8622.43438543914
 30
0.0
  0
POINT
  5
2B519
330
266B8
100
AcDbEntity
  8
DEFPOINTS
 62
     0
 48
50.0
100
AcDbPoint
 10
10735.6
 20
8549.434385439139
 30
0.0
  0
POINT
  5
2B51A
330
266B8
100
AcDbEntity
  8
DEFPOINTS
 62
     0
 48
50.0
100
AcDbPoint
 10
10735.6
 20
9368.194011981222
 30
0.0
  0
ENDBLK
  5
266C4
330
266B8
100
AcDbEntity
  8
0
 48
50.0
100
AcDbBlockEnd
  0
BLOCK
  5
26F0D
330
26F01
100
AcDbEntity
  8
0
 48
50.0
100
AcDbBlockBegin
  2
*D26
 70
     1
 10
0.0
 20
0.0
 30
0.0
  3
*D26
  1

  0
LINE
  5
2B506
330
26F01
100
AcDbEntity
  8
寸法
 62
     0
 48
50.0
370
    -2
100
AcDbLine
 10
8216.600000000001
 20
5067.43438543916
 30
0.0
 11
8523.202780124334
 21
5067.43438543916
 31
0.0
  0
LINE
  5
2B507
330
26F01
100
AcDbEntity
  8
寸法
 62
     0
 48
50.0
370
    -2
100
AcDbLine
 10
8216.600000000008
 20
5142.43438543916
 30
0.0
 11
8523.202780124334
 21
5142.43438543916
 31
0.0
  0
LINE
  5
2B508
330
26F01
100
AcDbEntity
  8
寸法
 62
     0
 48
50.0
370
    -2
100
AcDbLine
 10
8463.202780124335
 20
5142.43438543916
 30
0.0
 11
8463.202780124335
 21
5242.43438543916
 31
0.0
  0
LINE
  5
2B509
330
26F01
100
AcDbEntity
  8
寸法
 62
     0
 48
50.0
370
    -2
100
AcDbLine
 10
8463.202780124335
 20
5067.43438543916
 30
0.0
 11
8463.202780124335
 21
4200.46382269068
 31
0.0
  0
LINE
  5
2B50A
330
26F01
100
AcDbEntity
  8
寸法
 62
     0
 48
50.0
370
    -2
100
AcDbLine
 10
8463.202780124335
 20
5142.43438543916
 30
0.0
 11
8463.202780124335
 21
5067.43438543916
 31
0.0
  0
INSERT
  5
2B50B
330
26F01
100
AcDbEntity
  8
寸法
 62
     0
 48
50.0
370
    -2
100
AcDbBlockReference
  2
_DOTSMALL
 10
8463.202780124335
 20
5142.43438543916
 30
0.0
 41
100.0
 42
100.0
 43
100.0
 50
270.0
  0
INSERT
  5
2B50C
330
26F01
100
AcDbEntity
  8
寸法
 62
     0
 48
50.0
370
    -2
100
AcDbBlockReference
  2
_DOTSMALL
 10
8463.202780124335
 20
5067.43438543916
 30
0.0
 41
100.0
 42
100.0
 43
100.0
 50
90.0
  0
MTEXT
  5
2B50D
330
26F01
100
AcDbEntity
  8
寸法
 62
     7
 48
50.0
100
AcDbMText
 10
8363.202780124332
 20
4533.94910406492
 30
0.0
 40
120.0
 41
0.0
 71
     5
 72
     1
  1
\A1;扉の出75
  7
STYLE1
 11
0.0000000000000001
 21
1.0
 31
0.0
 73
     1
 44
1.0
1001
ACAD
1000
MTEXTBEGIN
1070
    73
1070
     1
1070
    44
1040
1.0
1070
    74
1070
     0
1000
MTEXTEND
  0
POINT
  5
2B50E
330
26F01
100
AcDbEntity
  8
DEFPOINTS
 62
     0
 48
50.0
100
AcDbPoint
 10
8196.600000000001
 20
5067.43438543916
 30
0.0
  0
POINT
  5
2B50F
330
26F01
100
AcDbEntity
  8
DEFPOINTS
 62
     0
 48
50.0
100
AcDbPoint
 10
8196.600000000008
 20
5142.43438543916
 30
0.0
  0
POINT
  5
2B510
330
26F01
100
AcDbEntity
  8
DEFPOINTS
 62
     0
 48
50.0
100
AcDbPoint
 10
8463.202780124335
 20
5142.43438543916
 30
0.0
  0
ENDBLK
  5
26F0E
330
26F01
100
AcDbEntity
  8
0
 48
50.0
100
AcDbBlockEnd
  0
BLOCK
  5
26F27
330
26F1B
100
AcDbEntity
  8
0
 48
50.0
100
AcDbBlockBegin
  2
*D27
 70
     1
 10
0.0
 20
0.0
 30
0.0
  3
*D27
  1

  0
LINE
  5
2B4FB
330
26F1B
100
AcDbEntity
  8
寸法
 62
     0
 48
50.0
370
    -2
100
AcDbLine
 10
5072.657733986179
 20
8697.434385439141
 30
0.0
 11
4780.714637266788
 21
8697.434385439141
 31
0.0
  0
LINE
  5
2B4FC
330
26F1B
100
AcDbEntity
  8
寸法
 62
     0
 48
50.0
370
    -2
100
AcDbLine
 10
5568.6
 20
8622.43438543914
 30
0.0
 11
4780.714637266788
 21
8622.43438543914
 31
0.0
  0
LINE
  5
2B4FD
330
26F1B
100
AcDbEntity
  8
寸法
 62
     0
 48
50.0
370
    -2
100
AcDbLine
 10
4840.714637266787
 20
8697.434385439141
 30
0.0
 11
4840.714637266787
 21
8797.434385439141
 31
0.0
  0
LINE
  5
2B4FE
330
26F1B
100
AcDbEntity
  8
寸法
 62
     0
 48
50.0
370
    -2
100
AcDbLine
 10
4840.714637266787
 20
8622.43438543914
 30
0.0
 11
4840.714637266787
 21
8522.434385439138
 31
0.0
  0
LINE
  5
2B4FF
330
26F1B
100
AcDbEntity
  8
寸法
 62
     0
 48
50.0
370
    -2
100
AcDbLine
 10
4840.714637266787
 20
8697.434385439141
 30
0.0
 11
4840.714637266787
 21
8622.43438543914
 31
0.0
  0
INSERT
  5
2B500
330
26F1B
100
AcDbEntity
  8
寸法
 62
     0
 48
50.0
370
    -2
100
AcDbBlockReference
  2
_DOTSMALL
 10
4840.714637266787
 20
8697.434385439141
 30
0.0
 41
100.0
 42
100.0
 43
100.0
 50
270.0
  0
INSERT
  5
2B501
330
26F1B
100
AcDbEntity
  8
寸法
 62
     0
 48
50.0
370
    -2
100
AcDbBlockReference
  2
_DOTSMALL
 10
4840.714637266787
 20
8622.43438543914
 30
0.0
 41
100.0
 42
100.0
 43
100.0
 50
90.0
  0
MTEXT
  5
2B502
330
26F1B
100
AcDbEntity
  8
寸法
 62
     7
 48
50.0
100
AcDbMText
 10
4740.714637266786
 20
8659.934385439141
 30
0.0
 40
120.0
 41
0.0
 71
     5
 72
     1
  1
\A1;c
  7
STYLE1
 11
0.0000000000000001
 21
1.0
 31
0.0
 73
     1
 44
1.0
1001
ACAD
1000
MTEXTBEGIN
1070
    73
1070
     1
1070
    44
1040
1.0
1070
    74
1070
     0
1000
MTEXTEND
  0
POINT
  5
2B503
330
26F1B
100
AcDbEntity
  8
DEFPOINTS
 62
     0
 48
50.0
100
AcDbPoint
 10
5092.657733986179
 20
8697.434385439141
 30
0.0
  0
POINT
  5
2B504
330
26F1B
100
AcDbEntity
  8
DEFPOINTS
 62
     0
 48
50.0
100
AcDbPoint
 10
5588.6
 20
8622.43438543914
 30
0.0
  0
POINT
  5
2B505
330
26F1B
100
AcDbEntity
  8
DEFPOINTS
 62
     0
 48
50.0
100
AcDbPoint
 10
4840.714637266787
 20
8622.43438543914
 30
0.0
  0
ENDBLK
  5
26F28
330
26F1B
100
AcDbEntity
  8
0
 48
50.0
100
AcDbBlockEnd
  0
BLOCK
  5
26F4C
330
26F40
100
AcDbEntity
  8
0
 48
50.0
100
AcDbBlockBegin
  2
*D28
 70
     1
 10
0.0
 20
0.0
 30
0.0
  3
*D28
  1

  0
LINE
  5
2B4F0
330
26F40
100
AcDbEntity
  8
寸法
 62
     0
 48
50.0
370
    -2
100
AcDbLine
 10
5568.599999999997
 20
5142.434385439138
 30
0.0
 11
4780.714637266782
 21
5142.434385439138
 31
0.0
  0
LINE
  5
2B4F1
330
26F40
100
AcDbEntity
  8
寸法
 62
     0
 48
50.0
370
    -2
100
AcDbLine
 10
5072.657733986179
 20
5087.434385439159
 30
0.0
 11
4780.714637266782
 21
5087.434385439159
 31
0.0
  0
LINE
  5
2B4F2
330
26F40
100
AcDbEntity
  8
寸法
 62
     0
 48
50.0
370
    -2
100
AcDbLine
 10
4840.714637266781
 20
5142.434385439138
 30
0.0
 11
4840.714637266781
 21
5242.434385439138
 31
0.0
  0
LINE
  5
2B4F3
330
26F40
100
AcDbEntity
  8
寸法
 62
     0
 48
50.0
370
    -2
100
AcDbLine
 10
4840.714637266781
 20
5087.434385439159
 30
0.0
 11
4840.714637266781
 21
4987.434385439159
 31
0.0
  0
LINE
  5
2B4F4
330
26F40
100
AcDbEntity
  8
寸法
 62
     0
 48
50.0
370
    -2
100
AcDbLine
 10
4840.714637266781
 20
5142.434385439138
 30
0.0
 11
4840.714637266781
 21
5087.434385439159
 31
0.0
  0
INSERT
  5
2B4F5
330
26F40
100
AcDbEntity
  8
寸法
 62
     0
 48
50.0
370
    -2
100
AcDbBlockReference
  2
_DOTSMALL
 10
4840.714637266781
 20
5142.434385439138
 30
0.0
 41
100.0
 42
100.0
 43
100.0
 50
270.0
  0
INSERT
  5
2B4F6
330
26F40
100
AcDbEntity
  8
寸法
 62
     0
 48
50.0
370
    -2
100
AcDbBlockReference
  2
_DOTSMALL
 10
4840.714637266781
 20
5087.434385439159
 30
0.0
 41
100.0
 42
100.0
 43
100.0
 50
90.0
  0
MTEXT
  5
2B4F7
330
26F40
100
AcDbEntity
  8
寸法
 62
     7
 48
50.0
100
AcDbMText
 10
4740.71463726678
 20
5114.93438543915
 30
0.0
 40
120.0
 41
0.0
 71
     5
 72
     1
  1
\A1;b
  7
STYLE1
 11
0.0000000000000001
 21
1.0
 31
0.0
 73
     1
 44
1.0
1001
ACAD
1000
MTEXTBEGIN
1070
    73
1070
     1
1070
    44
1040
1.0
1070
    74
1070
     0
1000
MTEXTEND
  0
POINT
  5
2B4F8
330
26F40
100
AcDbEntity
  8
DEFPOINTS
 62
     0
 48
50.0
100
AcDbPoint
 10
5588.599999999996
 20
5142.434385439138
 30
0.0
  0
POINT
  5
2B4F9
330
26F40
100
AcDbEntity
  8
DEFPOINTS
 62
     0
 48
50.0
100
AcDbPoint
 10
5092.657733986179
 20
5087.434385439159
 30
0.0
  0
POINT
  5
2B4FA
330
26F40
100
AcDbEntity
  8
DEFPOINTS
 62
     0
 48
50.0
100
AcDbPoint
 10
4840.714637266781
 20
5087.434385439159
 30
0.0
  0
ENDBLK
  5
26F4D
330
26F40
100
AcDbEntity
  8
0
 48
50.0
100
AcDbBlockEnd
  0
BLOCK
  5
26F71
330
26F65
100
AcDbEntity
  8
0
 48
50.0
100
AcDbBlockBegin
  2
*D29
 70
     1
 10
0.0
 20
0.0
 30
0.0
  3
*D29
  1

  0
LINE
  5
2B4E5
330
26F65
100
AcDbEntity
  8
寸法
 62
     0
 48
50.0
370
    -2
100
AcDbLine
 10
10858.6
 20
8642.434385439134
 30
0.0
 11
10858.6
 21
9640.654707498056
 31
0.0
  0
LINE
  5
2B4E6
330
26F65
100
AcDbEntity
  8
寸法
 62
     0
 48
50.0
370
    -2
100
AcDbLine
 10
10903.6
 20
9388.194011981221
 30
0.0
 11
10903.6
 21
9640.654707498056
 31
0.0
  0
LINE
  5
2B4E7
330
26F65
100
AcDbEntity
  8
寸法
 62
     0
 48
50.0
370
    -2
100
AcDbLine
 10
10858.6
 20
9580.654707498055
 30
0.0
 11
10758.6
 21
9580.654707498055
 31
0.0
  0
LINE
  5
2B4E8
330
26F65
100
AcDbEntity
  8
寸法
 62
     0
 48
50.0
370
    -2
100
AcDbLine
 10
10903.6
 20
9580.654707498055
 30
0.0
 11
11240.94924240491
 21
9580.654707498055
 31
0.0
  0
LINE
  5
2B4E9
330
26F65
100
AcDbEntity
  8
寸法
 62
     0
 48
50.0
370
    -2
100
AcDbLine
 10
10858.6
 20
9580.654707498055
 30
0.0
 11
10903.6
 21
9580.654707498055
 31
0.0
  0
INSERT
  5
2B4EA
330
26F65
100
AcDbEntity
  8
寸法
 62
     0
 48
50.0
370
    -2
100
AcDbBlockReference
  2
_DOTSMALL
 10
10858.6
 20
9580.654707498055
 30
0.0
 41
100.0
 42
100.0
 43
100.0
  0
INSERT
  5
2B4EB
330
26F65
100
AcDbEntity
  8
寸法
 62
     0
 48
50.0
370
    -2
100
AcDbBlockReference
  2
_DOTSMALL
 10
10903.6
 20
9580.654707498055
 30
0.0
 41
100.0
 42
100.0
 43
100.0
 50
180.0
  0
MTEXT
  5
2B4EC
330
26F65
100
AcDbEntity
  8
寸法
 62
     7
 48
50.0
100
AcDbMText
 10
11174.77462120246
 20
9680.654707498057
 30
0.0
 40
120.0
 41
0.0
 71
     5
 72
     1
  1
\A1;a
  7
STYLE1
 73
     1
 44
1.0
1001
ACAD
1000
MTEXTBEGIN
1070
    73
1070
     1
1070
    44
1040
1.0
1070
    74
1070
     0
1000
MTEXTEND
  0
POINT
  5
2B4ED
330
26F65
100
AcDbEntity
  8
DEFPOINTS
 62
     0
 48
50.0
100
AcDbPoint
 10
10858.6
 20
8622.434385439133
 30
0.0
  0
POINT
  5
2B4EE
330
26F65
100
AcDbEntity
  8
DEFPOINTS
 62
     0
 48
50.0
100
AcDbPoint
 10
10903.6
 20
9368.194011981222
 30
0.0
  0
POINT
  5
2B4EF
330
26F65
100
AcDbEntity
  8
DEFPOINTS
 62
     0
 48
50.0
100
AcDbPoint
 10
10903.6
 20
9580.654707498055
 30
0.0
  0
ENDBLK
  5
26F72
330
26F65
100
AcDbEntity
  8
0
 48
50.0
100
AcDbBlockEnd
  0
BLOCK
  5
26F8B
330
26F7F
100
AcDbEntity
  8
0
 48
50.0
100
AcDbBlockBegin
  2
*D30
 70
     1
 10
0.0
 20
0.0
 30
0.0
  3
*D30
  1

  0
LINE
  5
2B4DA
330
26F7F
100
AcDbEntity
  8
寸法
 62
     0
 48
50.0
370
    -2
100
AcDbLine
 10
5543.600000000008
 20
9388.194011981221
 30
0.0
 11
5543.600000000008
 21
9640.654707498056
 31
0.0
  0
LINE
  5
2B4DB
330
26F7F
100
AcDbEntity
  8
寸法
 62
     0
 48
50.0
370
    -2
100
AcDbLine
 10
5588.6
 20
8642.434385439134
 30
0.0
 11
5588.6
 21
9640.654707498056
 31
0.0
  0
LINE
  5
2B4DC
330
26F7F
100
AcDbEntity
  8
寸法
 62
     0
 48
50.0
370
    -2
100
AcDbLine
 10
5588.6
 20
9580.654707498055
 30
0.0
 11
5688.6
 21
9580.654707498055
 31
0.0
  0
LINE
  5
2B4DD
330
26F7F
100
AcDbEntity
  8
寸法
 62
     0
 48
50.0
370
    -2
100
AcDbLine
 10
5543.600000000008
 20
9580.654707498055
 30
0.0
 11
5206.250757595083
 21
9580.654707498055
 31
0.0
  0
LINE
  5
2B4DE
330
26F7F
100
AcDbEntity
  8
寸法
 62
     0
 48
50.0
370
    -2
100
AcDbLine
 10
5588.6
 20
9580.654707498055
 30
0.0
 11
5543.600000000008
 21
9580.654707498055
 31
0.0
  0
INSERT
  5
2B4DF
330
26F7F
100
AcDbEntity
  8
寸法
 62
     0
 48
50.0
370
    -2
100
AcDbBlockReference
  2
_DOTSMALL
 10
5588.6
 20
9580.654707498055
 30
0.0
 41
100.0
 42
100.0
 43
100.0
 50
180.0
  0
INSERT
  5
2B4E0
330
26F7F
100
AcDbEntity
  8
寸法
 62
     0
 48
50.0
370
    -2
100
AcDbBlockReference
  2
_DOTSMALL
 10
5543.600000000008
 20
9580.654707498055
 30
0.0
 41
100.0
 42
100.0
 43
100.0
  0
MTEXT
  5
2B4E1
330
26F7F
100
AcDbEntity
  8
寸法
 62
     7
 48
50.0
100
AcDbMText
 10
5272.425378797541
 20
9680.654707498057
 30
0.0
 40
120.0
 41
0.0
 71
     5
 72
     1
  1
\A1;a
  7
STYLE1
 73
     1
 44
1.0
1001
ACAD
1000
MTEXTBEGIN
1070
    73
1070
     1
1070
    44
1040
1.0
1070
    74
1070
     0
1000
MTEXTEND
  0
POINT
  5
2B4E2
330
26F7F
100
AcDbEntity
  8
DEFPOINTS
 62
     0
 48
50.0
100
AcDbPoint
 10
5543.600000000008
 20
9368.194011981222
 30
0.0
  0
POINT
  5
2B4E3
330
26F7F
100
AcDbEntity
  8
DEFPOINTS
 62
     0
 48
50.0
100
AcDbPoint
 10
5588.6
 20
8622.434385439133
 30
0.0
  0
POINT
  5
2B4E4
330
26F7F
100
AcDbEntity
  8
DEFPOINTS
 62
     0
 48
50.0
100
AcDbPoint
 10
5588.6
 20
9580.654707498055
 30
0.0
  0
ENDBLK
  5
26F8C
330
26F7F
100
AcDbEntity
  8
0
 48
50.0
100
AcDbBlockEnd
  0
BLOCK
  5
2702B
330
2701F
100
AcDbEntity
  8
0
 48
50.0
100
AcDbBlockBegin
  2
*D31
 70
     1
 10
0.0
 20
0.0
 30
0.0
  3
*D31
  1

  0
LINE
  5
2B4D0
330
2701F
100
AcDbEntity
  8
寸法
 62
     0
 48
50.0
370
    -2
100
AcDbLine
 10
6061.600000000001
 20
5067.434385439128
 30
0.0
 11
6369.183206304239
 21
5067.434385439127
 31
0.0
  0
LINE
  5
2B4D1
330
2701F
100
AcDbEntity
  8
寸法
 62
     0
 48
50.0
370
    -2
100
AcDbLine
 10
6061.599999999998
 20
5262.434385439141
 30
0.0
 11
6369.183206304239
 21
5262.434385439139
 31
0.0
  0
LINE
  5
2B4D2
330
2701F
100
AcDbEntity
  8
寸法
 62
     0
 48
50.0
370
    -2
100
AcDbLine
 10
6309.18320630424
 20
5262.434385439139
 30
0.0
 11
6309.18320630424
 21
5067.434385439127
 31
0.0
  0
LINE
  5
2B4D3
330
2701F
100
AcDbEntity
  8
寸法
 62
     0
 48
50.0
370
    -2
100
AcDbLine
 10
6309.18320630424
 20
5067.434385439127
 30
0.0
 11
6309.18320630424
 21
4690.044503031334
 31
0.0
  0
INSERT
  5
2B4D4
330
2701F
100
AcDbEntity
  8
寸法
 62
     0
 48
50.0
370
    -2
100
AcDbBlockReference
  2
_DOTSMALL
 10
6309.18320630424
 20
5262.434385439139
 30
0.0
 41
100.0
 42
100.0
 43
100.0
 50
90.0
  0
INSERT
  5
2B4D5
330
2701F
100
AcDbEntity
  8
寸法
 62
     0
 48
50.0
370
    -2
100
AcDbBlockReference
  2
_DOTSMALL
 10
6309.18320630424
 20
5067.434385439127
 30
0.0
 41
100.0
 42
100.0
 43
100.0
 50
270.0
  0
MTEXT
  5
2B4D6
330
2701F
100
AcDbEntity
  8
寸法
 62
     7
 48
50.0
100
AcDbMText
 10
6209.183206304238
 20
4828.739444235232
 30
0.0
 40
120.0
 41
0.0
 71
     5
 72
     1
  1
\A1;195
  7
STYLE1
 11
0.0000000000000001
 21
1.0
 31
0.0
 73
     1
 44
1.0
1001
ACAD
1000
MTEXTBEGIN
1070
    73
1070
     1
1070
    44
1040
1.0
1070
    74
1070
     0
1000
MTEXTEND
  0
POINT
  5
2B4D7
330
2701F
100
AcDbEntity
  8
DEFPOINTS
 62
     0
 48
50.0
100
AcDbPoint
 10
6041.6
 20
5067.434385439128
 30
0.0
  0
POINT
  5
2B4D8
330
2701F
100
AcDbEntity
  8
DEFPOINTS
 62
     0
 48
50.0
100
AcDbPoint
 10
6041.599999999998
 20
5262.434385439141
 30
0.0
  0
POINT
  5
2B4D9
330
2701F
100
AcDbEntity
  8
DEFPOINTS
 62
     0
 48
50.0
100
AcDbPoint
 10
6309.18320630424
 20
5262.434385439139
 30
0.0
  0
ENDBLK
  5
2702C
330
2701F
100
AcDbEntity
  8
0
 48
50.0
100
AcDbBlockEnd
  0
BLOCK
  5
27D8D
330
27D83
100
AcDbEntity
  8
0
 48
50.0
100
AcDbBlockBegin
  2
*D32
 70
     1
 10
0.0
 20
0.0
 30
0.0
  3
*D32
  1

  0
LINE
  5
2B4C7
330
27D83
100
AcDbEntity
  8
寸法
 62
     0
 48
50.0
370
    -2
100
AcDbLine
 10
9833.600000000002
 20
5142.434385439138
 30
0.0
 11
9528.531448609053
 21
5142.434385439138
 31
0.0
  0
LINE
  5
2B4C8
330
27D83
100
AcDbEntity
  8
寸法
 62
     0
 48
50.0
370
    -2
100
AcDbLine
 10
9833.600000000002
 20
6027.434385439136
 30
0.0
 11
9528.531448609053
 21
6027.434385439136
 31
0.0
  0
LINE
  5
2B4C9
330
27D83
100
AcDbEntity
  8
寸法
 62
     0
 48
50.0
370
    -2
100
AcDbLine
 10
9588.531448609051
 20
5142.434385439138
 30
0.0
 11
9588.531448609051
 21
6027.434385439136
 31
0.0
  0
INSERT
  5
2B4CA
330
27D83
100
AcDbEntity
  8
寸法
 62
     0
 48
50.0
370
    -2
100
AcDbBlockReference
  2
_DOTSMALL
 10
9588.531448609051
 20
5142.434385439138
 30
0.0
 41
100.0
 42
100.0
 43
100.0
 50
270.0
  0
INSERT
  5
2B4CB
330
27D83
100
AcDbEntity
  8
寸法
 62
     0
 48
50.0
370
    -2
100
AcDbBlockReference
  2
_DOTSMALL
 10
9588.531448609051
 20
6027.434385439136
 30
0.0
 41
100.0
 42
100.0
 43
100.0
 50
90.0
  0
MTEXT
  5
2B4CC
330
27D83
100
AcDbEntity
  8
寸法
 62
     7
 48
50.0
100
AcDbMText
 10
9488.53144860905
 20
5584.934385439137
 30
0.0
 40
120.0
 41
0.0
 71
     5
 72
     1
  1
\A1;885
  7
STYLE1
 11
0.0000000000000001
 21
1.0
 31
0.0
 73
     1
 44
1.0
1001
ACAD
1000
MTEXTBEGIN
1070
    73
1070
     1
1070
    44
1040
1.0
1070
    74
1070
     0
1000
MTEXTEND
  0
POINT
  5
2B4CD
330
27D83
100
AcDbEntity
  8
DEFPOINTS
 62
     0
 48
50.0
100
AcDbPoint
 10
9853.6
 20
5142.434385439138
 30
0.0
  0
POINT
  5
2B4CE
330
27D83
100
AcDbEntity
  8
DEFPOINTS
 62
     0
 48
50.0
100
AcDbPoint
 10
9853.6
 20
6027.434385439136
 30
0.0
  0
POINT
  5
2B4CF
330
27D83
100
AcDbEntity
  8
DEFPOINTS
 62
     0
 48
50.0
100
AcDbPoint
 10
9588.531448609051
 20
6027.434385439136
 30
0.0
  0
ENDBLK
  5
27D8E
330
27D83
100
AcDbEntity
  8
0
 48
50.0
100
AcDbBlockEnd
  0
BLOCK
  5
2986D
330
29863
100
AcDbEntity
  8
0
 48
50.0
100
AcDbBlockBegin
  2
*D33
 70
     1
 10
0.0
 20
0.0
 30
0.0
  3
*D33
  1

  0
LINE
  5
2B4BE
330
29863
100
AcDbEntity
  8
寸法
 62
     0
 48
50.0
370
    -2
100
AcDbLine
 10
9833.600000000002
 20
6027.434385439136
 30
0.0
 11
9528.531448609053
 21
6027.434385439136
 31
0.0
  0
LINE
  5
2B4BF
330
29863
100
AcDbEntity
  8
寸法
 62
     0
 48
50.0
370
    -2
100
AcDbLine
 10
9833.600000000002
 20
6882.434385439136
 30
0.0
 11
9528.531448609053
 21
6882.434385439136
 31
0.0
  0
LINE
  5
2B4C0
330
29863
100
AcDbEntity
  8
寸法
 62
     0
 48
50.0
370
    -2
100
AcDbLine
 10
9588.531448609051
 20
6027.434385439136
 30
0.0
 11
9588.531448609051
 21
6882.434385439136
 31
0.0
  0
INSERT
  5
2B4C1
330
29863
100
AcDbEntity
  8
寸法
 62
     0
 48
50.0
370
    -2
100
AcDbBlockReference
  2
_DOTSMALL
 10
9588.531448609051
 20
6027.434385439136
 30
0.0
 41
100.0
 42
100.0
 43
100.0
 50
270.0
  0
INSERT
  5
2B4C2
330
29863
100
AcDbEntity
  8
寸法
 62
     0
 48
50.0
370
    -2
100
AcDbBlockReference
  2
_DOTSMALL
 10
9588.531448609051
 20
6882.434385439136
 30
0.0
 41
100.0
 42
100.0
 43
100.0
 50
90.0
  0
MTEXT
  5
2B4C3
330
29863
100
AcDbEntity
  8
寸法
 62
     7
 48
50.0
100
AcDbMText
 10
9488.53144860905
 20
6454.934385439137
 30
0.0
 40
120.0
 41
0.0
 71
     5
 72
     1
  1
\A1;855
  7
STYLE1
 11
0.0000000000000001
 21
1.0
 31
0.0
 73
     1
 44
1.0
1001
ACAD
1000
MTEXTBEGIN
1070
    73
1070
     1
1070
    44
1040
1.0
1070
    74
1070
     0
1000
MTEXTEND
  0
POINT
  5
2B4C4
330
29863
100
AcDbEntity
  8
DEFPOINTS
 62
     0
 48
50.0
100
AcDbPoint
 10
9853.6
 20
6027.434385439136
 30
0.0
  0
POINT
  5
2B4C5
330
29863
100
AcDbEntity
  8
DEFPOINTS
 62
     0
 48
50.0
100
AcDbPoint
 10
9853.6
 20
6882.434385439136
 30
0.0
  0
POINT
  5
2B4C6
330
29863
100
AcDbEntity
  8
DEFPOINTS
 62
     0
 48
50.0
100
AcDbPoint
 10
9588.531448609051
 20
6882.434385439136
 30
0.0
  0
ENDBLK
  5
2986E
330
29863
100
AcDbEntity
  8
0
 48
50.0
100
AcDbBlockEnd
  0
BLOCK
  5
2AD78
330
2AD6E
100
AcDbEntity
  8
0
 48
50.0
100
AcDbBlockBegin
  2
*D34
 70
     1
 10
0.0
 20
0.0
 30
0.0
  3
*D34
  1

  0
LINE
  5
2B4B5
330
2AD6E
100
AcDbEntity
  8
寸法
 62
     0
 48
50.0
370
    -2
100
AcDbLine
 10
8196.600000000001
 20
5047.43438543916
 30
0.0
 11
8196.600000000001
 21
4522.589371096946
 31
0.0
  0
LINE
  5
2B4B6
330
2AD6E
100
AcDbEntity
  8
寸法
 62
     0
 48
50.0
370
    -2
100
AcDbLine
 10
6041.6
 20
5047.434385439142
 30
0.0
 11
6041.6
 21
4522.589371096946
 31
0.0
  0
LINE
  5
2B4B7
330
2AD6E
100
AcDbEntity
  8
寸法
 62
     0
 48
50.0
370
    -2
100
AcDbLine
 10
8196.600000000001
 20
4582.589371096946
 30
0.0
 11
6041.6
 21
4582.589371096946
 31
0.0
  0
INSERT
  5
2B4B8
330
2AD6E
100
AcDbEntity
  8
寸法
 62
     0
 48
50.0
370
    -2
100
AcDbBlockReference
  2
_DOTSMALL
 10
8196.600000000001
 20
4582.589371096946
 30
0.0
 41
100.0
 42
100.0
 43
100.0
  0
INSERT
  5
2B4B9
330
2AD6E
100
AcDbEntity
  8
寸法
 62
     0
 48
50.0
370
    -2
100
AcDbBlockReference
  2
_DOTSMALL
 10
6041.6
 20
4582.589371096946
 30
0.0
 41
100.0
 42
100.0
 43
100.0
 50
180.0
  0
MTEXT
  5
2B4BA
330
2AD6E
100
AcDbEntity
  8
寸法
 62
     7
 48
50.0
100
AcDbMText
 10
7119.1
 20
4682.601182120567
 30
0.0
 40
120.0
 41
0.0
 71
     5
 72
     1
  1
\A1;扉の幅 2155
  7
STYLE1
 73
     1
 44
1.0
1001
ACAD
1000
MTEXTBEGIN
1070
    73
1070
     1
1070
    44
1040
1.0
1070
    74
1070
     0
1000
MTEXTEND
  0
POINT
  5
2B4BB
330
2AD6E
100
AcDbEntity
  8
DEFPOINTS
 62
     0
 48
50.0
100
AcDbPoint
 10
8196.600000000001
 20
5067.43438543916
 30
0.0
  0
POINT
  5
2B4BC
330
2AD6E
100
AcDbEntity
  8
DEFPOINTS
 62
     0
 48
50.0
100
AcDbPoint
 10
6041.6
 20
5067.434385439143
 30
0.0
  0
POINT
  5
2B4BD
330
2AD6E
100
AcDbEntity
  8
DEFPOINTS
 62
     0
 48
50.0
100
AcDbPoint
 10
6041.6
 20
4582.589371096946
 30
0.0
  0
ENDBLK
  5
2AD79
330
2AD6E
100
AcDbEntity
  8
0
 48
50.0
100
AcDbBlockEnd
  0
BLOCK
  5
2B327
330
2B31D
100
AcDbEntity
  8
0
 48
50.0
100
AcDbBlockBegin
  2
*D35
 70
     1
 10
0.0
 20
0.0
 30
0.0
  3
*D35
  1

  0
LINE
  5
2B498
330
2B31D
100
AcDbEntity
  8
寸法
 62
     0
 48
50.0
370
    -2
100
AcDbLine
 10
4629.412802302565
 20
628.9960620161505
 30
0.0
 11
4629.412802302565
 21
290.0439555602175
 31
0.0
  0
LINE
  5
2B499
330
2B31D
100
AcDbEntity
  8
寸法
 62
     0
 48
50.0
370
    -2
100
AcDbLine
 10
5189.412802302566
 20
628.9960620161505
 30
0.0
 11
5189.412802302566
 21
290.0439555602175
 31
0.0
  0
LINE
  5
2B49A
330
2B31D
100
AcDbEntity
  8
寸法
 62
     0
 48
50.0
370
    -2
100
AcDbLine
 10
4629.412802302565
 20
350.0439555602175
 30
0.0
 11
5189.412802302566
 21
350.0439555602175
 31
0.0
  0
INSERT
  5
2B49B
330
2B31D
100
AcDbEntity
  8
寸法
 62
     0
 48
50.0
370
    -2
100
AcDbBlockReference
  2
_DOTSMALL
 10
4629.412802302565
 20
350.0439555602175
 30
0.0
 41
100.0
 42
100.0
 43
100.0
 50
180.0
  0
INSERT
  5
2B49C
330
2B31D
100
AcDbEntity
  8
寸法
 62
     0
 48
50.0
370
    -2
100
AcDbBlockReference
  2
_DOTSMALL
 10
5189.412802302566
 20
350.0439555602175
 30
0.0
 41
100.0
 42
100.0
 43
100.0
  0
MTEXT
  5
2B49D
330
2B31D
100
AcDbEntity
  8
寸法
 62
     7
 48
50.0
100
AcDbMText
 10
4909.412802302565
 20
450.0439555602175
 30
0.0
 40
120.0
 41
0.0
 71
     5
 72
     1
  1
\A1;300
  7
STYLE1
 73
     1
 44
1.0
1001
ACAD
1000
MTEXTBEGIN
1070
    73
1070
     1
1070
    44
1040
1.0
1070
    74
1070
     0
1000
MTEXTEND
  0
POINT
  5
2B49E
330
2B31D
100
AcDbEntity
  8
DEFPOINTS
 62
     0
 48
50.0
100
AcDbPoint
 10
4629.412802302565
 20
648.9960620161505
 30
0.0
  0
POINT
  5
2B49F
330
2B31D
100
AcDbEntity
  8
DEFPOINTS
 62
     0
 48
50.0
100
AcDbPoint
 10
5189.412802302566
 20
648.9960620161505
 30
0.0
  0
POINT
  5
2B4A0
330
2B31D
100
AcDbEntity
  8
DEFPOINTS
 62
     0
 48
50.0
100
AcDbPoint
 10
5189.412802302566
 20
350.0439555602175
 30
0.0
  0
ENDBLK
  5
2B328
330
2B31D
100
AcDbEntity
  8
0
 48
50.0
100
AcDbBlockEnd
  0
BLOCK
  5
2B333
330
2B329
100
AcDbEntity
  8
0
 48
50.0
100
AcDbBlockBegin
  2
*D36
 70
     1
 10
0.0
 20
0.0
 30
0.0
  3
*D36
  1

  0
LINE
  5
2B48F
330
2B329
100
AcDbEntity
  8
寸法
 62
     0
 48
50.0
370
    -2
100
AcDbLine
 10
4769.412802302564
 20
1788.996062016152
 30
0.0
 11
3968.767864266501
 21
1788.996062016152
 31
0.0
  0
LINE
  5
2B490
330
2B329
100
AcDbEntity
  8
寸法
 62
     0
 48
50.0
370
    -2
100
AcDbLine
 10
4509.412802302569
 20
808.9960620161505
 30
0.0
 11
3968.767864266501
 21
808.9960620161505
 31
0.0
  0
LINE
  5
2B491
330
2B329
100
AcDbEntity
  8
寸法
 62
     0
 48
50.0
370
    -2
100
AcDbLine
 10
4028.767864266501
 20
1788.996062016152
 30
0.0
 11
4028.767864266501
 21
808.9960620161505
 31
0.0
  0
INSERT
  5
2B492
330
2B329
100
AcDbEntity
  8
寸法
 62
     0
 48
50.0
370
    -2
100
AcDbBlockReference
  2
_DOTSMALL
 10
4028.767864266501
 20
1788.996062016152
 30
0.0
 41
100.0
 42
100.0
 43
100.0
 50
90.0
  0
INSERT
  5
2B493
330
2B329
100
AcDbEntity
  8
寸法
 62
     0
 48
50.0
370
    -2
100
AcDbBlockReference
  2
_DOTSMALL
 10
4028.767864266501
 20
808.9960620161505
 30
0.0
 41
100.0
 42
100.0
 43
100.0
 50
270.0
  0
MTEXT
  5
2B494
330
2B329
100
AcDbEntity
  8
寸法
 62
     7
 48
50.0
100
AcDbMText
 10
3928.767864266501
 20
1298.996062016151
 30
0.0
 40
120.0
 41
0.0
 71
     5
 72
     1
  1
\A1;540
  7
STYLE1
 11
0.0000000000000001
 21
1.0
 31
0.0
 73
     1
 44
1.0
1001
ACAD
1000
MTEXTBEGIN
1070
    73
1070
     1
1070
    44
1040
1.0
1070
    74
1070
     0
1000
MTEXTEND
  0
POINT
  5
2B495
330
2B329
100
AcDbEntity
  8
DEFPOINTS
 62
     0
 48
50.0
100
AcDbPoint
 10
4789.412802302565
 20
1788.996062016152
 30
0.0
  0
POINT
  5
2B496
330
2B329
100
AcDbEntity
  8
DEFPOINTS
 62
     0
 48
50.0
100
AcDbPoint
 10
4529.412802302569
 20
808.9960620161505
 30
0.0
  0
POINT
  5
2B497
330
2B329
100
AcDbEntity
  8
DEFPOINTS
 62
     0
 48
50.0
100
AcDbPoint
 10
4028.767864266501
 20
808.9960620161505
 30
0.0
  0
ENDBLK
  5
2B334
330
2B329
100
AcDbEntity
  8
0
 48
50.0
100
AcDbBlockEnd
  0
BLOCK
  5
2B33F
330
2B335
100
AcDbEntity
  8
0
 48
50.0
100
AcDbBlockBegin
  2
*D37
 70
     1
 10
0.0
 20
0.0
 30
0.0
  3
*D37
  1

  0
LINE
  5
2B486
330
2B335
100
AcDbEntity
  8
寸法
 62
     0
 48
50.0
370
    -2
100
AcDbLine
 10
4609.412802302565
 20
1108.99606201615
 30
0.0
 11
4391.387410136991
 21
1108.99606201615
 31
0.0
  0
LINE
  5
2B487
330
2B335
100
AcDbEntity
  8
寸法
 62
     0
 48
50.0
370
    -2
100
AcDbLine
 10
4509.412802302569
 20
808.9960620161505
 30
0.0
 11
4391.387410136991
 21
808.9960620161505
 31
0.0
  0
LINE
  5
2B488
330
2B335
100
AcDbEntity
  8
寸法
 62
     0
 48
50.0
370
    -2
100
AcDbLine
 10
4451.387410136991
 20
1108.99606201615
 30
0.0
 11
4451.387410136991
 21
808.9960620161505
 31
0.0
  0
INSERT
  5
2B489
330
2B335
100
AcDbEntity
  8
寸法
 62
     0
 48
50.0
370
    -2
100
AcDbBlockReference
  2
_DOTSMALL
 10
4451.387410136991
 20
1108.99606201615
 30
0.0
 41
100.0
 42
100.0
 43
100.0
 50
90.0
  0
INSERT
  5
2B48A
330
2B335
100
AcDbEntity
  8
寸法
 62
     0
 48
50.0
370
    -2
100
AcDbBlockReference
  2
_DOTSMALL
 10
4451.387410136991
 20
808.9960620161505
 30
0.0
 41
100.0
 42
100.0
 43
100.0
 50
270.0
  0
MTEXT
  5
2B48B
330
2B335
100
AcDbEntity
  8
寸法
 62
     7
 48
50.0
100
AcDbMText
 10
4351.387410136991
 20
958.9960620161503
 30
0.0
 40
120.0
 41
0.0
 71
     5
 72
     1
  1
\A1;150
  7
STYLE1
 11
0.0000000000000001
 21
1.0
 31
0.0
 73
     1
 44
1.0
1001
ACAD
1000
MTEXTBEGIN
1070
    73
1070
     1
1070
    44
1040
1.0
1070
    74
1070
     0
1000
MTEXTEND
  0
POINT
  5
2B48C
330
2B335
100
AcDbEntity
  8
DEFPOINTS
 62
     0
 48
50.0
100
AcDbPoint
 10
4629.412802302565
 20
1108.99606201615
 30
0.0
  0
POINT
  5
2B48D
330
2B335
100
AcDbEntity
  8
DEFPOINTS
 62
     0
 48
50.0
100
AcDbPoint
 10
4529.412802302569
 20
808.9960620161505
 30
0.0
  0
POINT
  5
2B48E
330
2B335
100
AcDbEntity
  8
DEFPOINTS
 62
     0
 48
50.0
100
AcDbPoint
 10
4451.387410136991
 20
808.9960620161505
 30
0.0
  0
ENDBLK
  5
2B340
330
2B335
100
AcDbEntity
  8
0
 48
50.0
100
AcDbBlockEnd
  0
BLOCK
  5
2B34B
330
2B341
100
AcDbEntity
  8
0
 48
50.0
100
AcDbBlockBegin
  2
*D38
 70
     1
 10
0.0
 20
0.0
 30
0.0
  3
*D38
  1

  0
LINE
  5
2B47D
330
2B341
100
AcDbEntity
  8
寸法
 62
     0
 48
50.0
370
    -2
100
AcDbLine
 10
5029.412802302565
 20
1808.996062016152
 30
0.0
 11
5029.412802302565
 21
2373.580821911627
 31
0.0
  0
LINE
  5
2B47E
330
2B341
100
AcDbEntity
  8
寸法
 62
     0
 48
50.0
370
    -2
100
AcDbLine
 10
4789.412802302565
 20
1808.996062016152
 30
0.0
 11
4789.412802302565
 21
2373.580821911627
 31
0.0
  0
LINE
  5
2B47F
330
2B341
100
AcDbEntity
  8
寸法
 62
     0
 48
50.0
370
    -2
100
AcDbLine
 10
5029.412802302565
 20
2313.580821911627
 30
0.0
 11
4789.412802302565
 21
2313.580821911627
 31
0.0
  0
INSERT
  5
2B480
330
2B341
100
AcDbEntity
  8
寸法
 62
     0
 48
50.0
370
    -2
100
AcDbBlockReference
  2
_DOTSMALL
 10
5029.412802302565
 20
2313.580821911627
 30
0.0
 41
100.0
 42
100.0
 43
100.0
  0
INSERT
  5
2B481
330
2B341
100
AcDbEntity
  8
寸法
 62
     0
 48
50.0
370
    -2
100
AcDbBlockReference
  2
_DOTSMALL
 10
4789.412802302565
 20
2313.580821911627
 30
0.0
 41
100.0
 42
100.0
 43
100.0
 50
180.0
  0
MTEXT
  5
2B482
330
2B341
100
AcDbEntity
  8
寸法
 62
     7
 48
50.0
100
AcDbMText
 10
4909.412802302565
 20
2519.621634476431
 30
0.0
 40
120.0
 41
0.0
 71
     5
 72
     1
  1
\A1;120\P(195)
  7
STYLE1
 73
     1
 44
1.0
1001
ACAD
1000
MTEXTBEGIN
1070
    73
1070
     1
1070
    44
1040
1.0
1070
    74
1070
     0
1000
MTEXTEND
  0
POINT
  5
2B483
330
2B341
100
AcDbEntity
  8
DEFPOINTS
 62
     0
 48
50.0
100
AcDbPoint
 10
5029.412802302565
 20
1788.996062016152
 30
0.0
  0
POINT
  5
2B484
330
2B341
100
AcDbEntity
  8
DEFPOINTS
 62
     0
 48
50.0
100
AcDbPoint
 10
4789.412802302565
 20
1788.996062016152
 30
0.0
  0
POINT
  5
2B485
330
2B341
100
AcDbEntity
  8
DEFPOINTS
 62
     0
 48
50.0
100
AcDbPoint
 10
4789.412802302565
 20
2313.580821911627
 30
0.0
  0
ENDBLK
  5
2B34C
330
2B341
100
AcDbEntity
  8
0
 48
50.0
100
AcDbBlockEnd
  0
BLOCK
  5
2B359
330
2B34D
100
AcDbEntity
  8
0
 48
50.0
100
AcDbBlockBegin
  2
*D39
 70
     1
 10
0.0
 20
0.0
 30
0.0
  3
*D39
  1

  0
LINE
  5
2B4AA
330
2B34D
100
AcDbEntity
  8
寸法
 62
     0
 48
50.0
370
    -2
100
AcDbLine
 10
7217.961943774058
 20
1854.946062016152
 30
0.0
 11
8464.366026133898
 21
1854.946062016152
 31
0.0
  0
LINE
  5
2B4AB
330
2B34D
100
AcDbEntity
  8
寸法
 62
     0
 48
50.0
370
    -2
100
AcDbLine
 10
7451.961943774058
 20
1788.996062016152
 30
0.0
 11
8464.366026133898
 21
1788.996062016152
 31
0.0
  0
LINE
  5
2B4AC
330
2B34D
100
AcDbEntity
  8
寸法
 62
     0
 48
50.0
370
    -2
100
AcDbLine
 10
8404.366026133898
 20
1854.946062016152
 30
0.0
 11
8404.366026133898
 21
1954.946062016152
 31
0.0
  0
LINE
  5
2B4AD
330
2B34D
100
AcDbEntity
  8
寸法
 62
     0
 48
50.0
370
    -2
100
AcDbLine
 10
8404.366026133898
 20
1788.996062016152
 30
0.0
 11
8404.366026133898
 21
1056.978255173186
 31
0.0
  0
LINE
  5
2B4AE
330
2B34D
100
AcDbEntity
  8
寸法
 62
     0
 48
50.0
370
    -2
100
AcDbLine
 10
8404.366026133898
 20
1854.946062016152
 30
0.0
 11
8404.366026133898
 21
1788.996062016152
 31
0.0
  0
INSERT
  5
2B4AF
330
2B34D
100
AcDbEntity
  8
寸法
 62
     0
 48
50.0
370
    -2
100
AcDbBlockReference
  2
_DOTSMALL
 10
8404.366026133898
 20
1854.946062016152
 30
0.0
 41
100.0
 42
100.0
 43
100.0
 50
270.0
  0
INSERT
  5
2B4B0
330
2B34D
100
AcDbEntity
  8
寸法
 62
     0
 48
50.0
370
    -2
100
AcDbBlockReference
  2
_DOTSMALL
 10
8404.366026133898
 20
1788.996062016152
 30
0.0
 41
100.0
 42
100.0
 43
100.0
 50
90.0
  0
MTEXT
  5
2B4B1
330
2B34D
100
AcDbEntity
  8
寸法
 62
     7
 48
50.0
100
AcDbMText
 10
8304.354215110276
 20
1322.98715859467
 30
0.0
 40
120.0
 41
0.0
 71
     5
 72
     1
  1
\A1;20～25
  7
STYLE1
 11
0.0000000000000001
 21
1.0
 31
0.0
 73
     1
 44
1.0
1001
ACAD
1000
MTEXTBEGIN
1070
    73
1070
     1
1070
    44
1040
1.0
1070
    74
1070
     0
1000
MTEXTEND
  0
POINT
  5
2B4B2
330
2B34D
100
AcDbEntity
  8
DEFPOINTS
 62
     0
 48
50.0
100
AcDbPoint
 10
7197.961943774058
 20
1854.946062016152
 30
0.0
  0
POINT
  5
2B4B3
330
2B34D
100
AcDbEntity
  8
DEFPOINTS
 62
     0
 48
50.0
100
AcDbPoint
 10
7431.961943774059
 20
1788.996062016152
 30
0.0
  0
POINT
  5
2B4B4
330
2B34D
100
AcDbEntity
  8
DEFPOINTS
 62
     0
 48
50.0
100
AcDbPoint
 10
8404.366026133898
 20
1788.996062016152
 30
0.0
  0
ENDBLK
  5
2B35A
330
2B34D
100
AcDbEntity
  8
0
 48
50.0
100
AcDbBlockEnd
  0
BLOCK
  5
2B364
330
2B35B
100
AcDbEntity
  8
0
 48
50.0
100
AcDbBlockBegin
  2
*D40
 70
     1
 10
0.0
 20
0.0
 30
0.0
  3
*D40
  1

  0
LINE
  5
2B4A1
330
2B35B
100
AcDbEntity
  8
寸法
 62
     0
 48
50.0
370
    -2
100
AcDbLine
 10
7451.961943774058
 20
1788.996062016152
 30
0.0
 11
8119.297693485114
 21
1788.996062016152
 31
0.0
  0
LINE
  5
2B4A2
330
2B35B
100
AcDbEntity
  8
寸法
 62
     0
 48
50.0
370
    -2
100
AcDbLine
 10
7451.961943774058
 20
1383.99606201615
 30
0.0
 11
8119.297693485114
 21
1383.99606201615
 31
0.0
  0
LINE
  5
2B4A3
330
2B35B
100
AcDbEntity
  8
寸法
 62
     0
 48
50.0
370
    -2
100
AcDbLine
 10
8059.297693485113
 20
1788.996062016152
 30
0.0
 11
8059.297693485113
 21
1383.99606201615
 31
0.0
  0
INSERT
  5
2B4A4
330
2B35B
100
AcDbEntity
  8
寸法
 62
     0
 48
50.0
370
    -2
100
AcDbBlockReference
  2
_DOTSMALL
 10
8059.297693485113
 20
1788.996062016152
 30
0.0
 41
100.0
 42
100.0
 43
100.0
 50
90.0
  0
INSERT
  5
2B4A5
330
2B35B
100
AcDbEntity
  8
寸法
 62
     0
 48
50.0
370
    -2
100
AcDbBlockReference
  2
_DOTSMALL
 10
8059.297693485113
 20
1383.99606201615
 30
0.0
 41
100.0
 42
100.0
 43
100.0
 50
270.0
  0
MTEXT
  5
2B4A6
330
2B35B
100
AcDbEntity
  8
寸法
 62
     7
 48
50.0
100
AcDbMText
 10
7959.297693485114
 20
1586.496062016152
 30
0.0
 40
120.0
 41
0.0
 71
     5
 72
     1
  1
\A1;180
  7
STYLE1
 11
0.0000000000000001
 21
1.0
 31
0.0
 73
     1
 44
1.0
1001
ACAD
1000
MTEXTBEGIN
1070
    73
1070
     1
1070
    44
1040
1.0
1070
    74
1070
     0
1000
MTEXTEND
  0
POINT
  5
2B4A7
330
2B35B
100
AcDbEntity
  8
DEFPOINTS
 62
     0
 48
50.0
100
AcDbPoint
 10
7431.961943774059
 20
1788.996062016152
 30
0.0
  0
POINT
  5
2B4A8
330
2B35B
100
AcDbEntity
  8
DEFPOINTS
 62
     0
 48
50.0
100
AcDbPoint
 10
7431.961943774059
 20
1383.99606201615
 30
0.0
  0
POINT
  5
2B4A9
330
2B35B
100
AcDbEntity
  8
DEFPOINTS
 62
     0
 48
50.0
100
AcDbPoint
 10
8059.297693485113
 20
1383.99606201615
 30
0.0
  0
ENDBLK
  5
2B365
330
2B35B
100
AcDbEntity
  8
0
 48
50.0
100
AcDbBlockEnd
  0
ENDSEC
  0
SECTION
  2
ENTITIES
  0
MTEXT
  5
763F
330
747D
100
AcDbEntity
  8
0
100
AcDbMText
 10
302.846345836809
 20
280.1983726409901
 30
0.0
 40
3.5
 41
5.323721266742722
 71
     1
 72
     5
  1

  7
MSMINCHO
 73
     1
 44
1.0
1001
ACAD
1000
MTEXTBEGIN
1070
    73
1070
     1
1070
    44
1040
1.0
1070
    74
1070
     0
1000
MTEXTEND
  0
LINE
  5
10B57
330
747D
100
AcDbEntity
  8
補助
  6
PHANTOM
 62
   230
 48
50.0
100
AcDbLine
 10
139.9999999999995
 20
11409.6
 30
0.0
 11
16307.2
 21
11409.6
 31
0.0
  0
LINE
  5
10B59
330
747D
100
AcDbEntity
  8
仕様書枠
  6
Continuous
 48
50.0
100
AcDbLine
 10
13107.2
 20
1200.0
 30
0.0
 11
13107.2
 21
-0.0000000000000729
 31
0.0
  0
LINE
  5
10B5D
330
747D
100
AcDbEntity
  8
仕様書枠
 48
50.0
100
AcDbLine
 10
140.0
 20
0.0
 30
0.0
 11
16307.2
 21
-0.0000000000000909
 31
0.0
  0
LINE
  5
10B5E
330
747D
100
AcDbEntity
  8
補助
  6
PHANTOM
 62
   230
 48
50.0
100
AcDbLine
 10
16307.2
 20
11409.6
 30
0.0
 11
16307.2
 21
1200.0
 31
0.0
  0
LINE
  5
10B6C
330
747D
100
AcDbEntity
  8
仕様書枠
 48
50.0
100
AcDbLine
 10
13107.2
 20
1200.0
 30
0.0
 11
16307.2
 21
1200.0
 31
0.0
  0
TEXT
  5
10B73
330
747D
100
AcDbEntity
  8
文字
 62
     7
 48
50.0
100
AcDbText
 10
13162.9790565769
 20
895.0906074299405
 30
0.0
 40
200.0
  1
基 礎 図
  7
STYLE2
100
AcDbText
  0
LINE
  5
10B7B
330
747D
100
AcDbEntity
  8
仕様書枠
 48
50.0
100
AcDbLine
 10
13107.2
 20
800.0
 30
0.0
 11
14251.2
 21
800.0
 31
0.0
  0
LINE
  5
10B88
330
747D
100
AcDbEntity
  8
仕様書枠
  6
Continuous
 48
50.0
100
AcDbLine
 10
14251.2
 20
1200.0
 30
0.0
 11
14251.2
 21
800.0
 31
0.0
  0
LINE
  5
16462
330
747D
100
AcDbEntity
  8
仕様書枠
 48
50.0
100
AcDbLine
 10
16307.2
 20
1200.0
 30
0.0
 11
16307.2
 21
-0.0000000000000909
 31
0.0
  0
LINE
  5
1903B
330
747D
100
AcDbEntity
  8
補助
  6
PHANTOM
 62
   230
 48
50.0
100
AcDbLine
 10
140.0
 20
0.0
 30
0.0
 11
139.9999999999995
 21
11409.6
 31
0.0
  0
LEADER
  5
1AC27
330
747D
100
AcDbEntity
  8
寸法
 48
50.0
100
AcDbLeader
  3
INABA_S40G
 73
     0
 74
     0
 75
     1
 40
120.0
 41
720.0000000000001
 76
     3
 10
10858.69549961499
 20
6896.63655602095
 30
0.0
 10
11025.46907400128
 20
6620.622642453115
 30
0.0
 10
11125.46907400128
 20
6620.622642453115
 30
0.0
340
1AC28
1001
ACAD
1000
DSTYLE
1002
{
1070
   341
1005
0
1002
}
  0
MTEXT
  5
1AC28
102
{ACAD_REACTORS
330
1AC27
102
}
330
747D
100
AcDbEntity
  8
部品1
 62
     7
 48
50.0
100
AcDbMText
 10
11885.46907400128
 20
6720.622642453115
 30
0.0
 40
120.0
 41
0.0
 71
     6
 72
     1
  1
\A1;床下換気口
  7
STYLE1
 73
     1
 44
1.0
1001
ACAD
1000
MTEXTBEGIN
1070
    73
1070
     1
1070
    44
1040
1.0
1070
    74
1070
     0
1000
MTEXTEND
  0
TEXT
  5
1AC29
330
747D
100
AcDbEntity
  8
部品1
 48
50.0
100
AcDbText
 10
11202.50116389398
 20
4867.343484102346
 30
0.0
 40
80.0
  1
(a=45,b=55,c=75)
  7
STYLE1
100
AcDbText
  0
TEXT
  5
1AC2A
330
747D
100
AcDbEntity
  8
部品1
 48
50.0
100
AcDbText
 10
11043.92215513968
 20
4974.188704971099
 30
0.0
 40
80.0
  1
※a,b,cは屋根の出幅です。
  7
STYLE1
100
AcDbText
  0
MTEXT
  5
1AC2B
102
{ACAD_REACTORS
330
1AC2C
102
}
330
747D
100
AcDbEntity
  8
部品1
 62
     7
 48
50.0
100
AcDbMText
 10
11841.70935112828
 20
5153.499391904174
 30
0.0
 40
120.0
 41
0.0
 71
     6
 72
     1
  1
\A1;屋根の外寸
  7
STYLE1
 73
     1
 44
1.0
1001
ACAD
1000
MTEXTBEGIN
1070
    73
1070
     1
1070
    44
1040
1.0
1070
    74
1070
     0
1000
MTEXTEND
  0
LEADER
  5
1AC2C
330
747D
100
AcDbEntity
  8
寸法
 48
50.0
100
AcDbLeader
  3
INABA_S40G
 73
     0
 74
     0
 75
     1
 40
120.0
 41
672.0
 76
     3
 10
10903.76933893624
 20
5327.388735367751
 30
0.0
 10
11029.70935112828
 20
5053.499391904175
 30
0.0
 10
11129.70935112828
 20
5053.499391904175
 30
0.0
340
1AC2B
1001
ACAD
1000
DSTYLE
1002
{
1070
   341
1005
0
1002
}
  0
TEXT
  5
1C7A1
330
747D
100
AcDbEntity
  8
文字
 62
     7
 48
50.0
100
AcDbText
 10
13188.16259899338
 20
79.80631269190417
 30
0.0
 40
80.0
  1
※布基礎には換気口を設けてください。
  7
STYLE2
100
AcDbText
  0
TEXT
  5
1C7E7
330
747D
100
AcDbEntity
  8
文字
 62
     7
 48
50.0
100
AcDbText
 10
13188.16259899338
 20
246.7109242801889
 30
0.0
 40
80.0
  1
※寒冷地等は地域の実情に合わせた基礎にして下さい。
  7
STYLE2
100
AcDbText
  0
TEXT
  5
1C7E8
330
747D
100
AcDbEntity
  8
文字
 62
     7
 48
50.0
100
AcDbText
 10
14478.98566430227
 20
499.5983841039506
 30
0.0
 40
160.0
  1
ＮＸＮ－１８５Ｈ
  7
STYLE2
100
AcDbText
  0
TEXT
  5
1C7E9
330
747D
100
AcDbEntity
  8
文字
 62
     7
 48
50.0
100
AcDbText
 10
14899.46841326344
 20
871.1744590657927
 30
0.0
 40
100.0
  1
～一般型～
  7
STYLE2
100
AcDbText
  0
TEXT
  5
1C7EC
330
747D
100
AcDbEntity
  8
文字
 62
     7
 48
50.0
100
AcDbText
 10
14524.131837222
 20
1031.557706291229
 30
0.0
 40
100.0
  1
      <縮尺> S=1/40
  7
STYLE2
100
AcDbText
  0
TEXT
  5
1C7ED
330
747D
100
AcDbEntity
  8
文字
 62
     7
 48
50.0
100
AcDbText
 10
13201.43669998441
 20
477.2740661031257
 30
0.0
 40
160.0
  1
機種名
  7
STYLE2
100
AcDbText
  0
LINE
  5
1C7EF
330
747D
100
AcDbEntity
  8
文字
 62
     7
 48
50.0
100
AcDbLine
 10
13187.2
 20
400.0
 30
0.0
 11
16227.2
 21
400.0
 31
0.0
  0
MTEXT
  5
1D2D5
102
{ACAD_REACTORS
330
1D2D6
102
}
330
747D
100
AcDbEntity
  8
部品1
 62
     7
 48
50.0
100
AcDbMText
 10
12053.99523070988
 20
8967.193855400649
 30
0.0
 40
120.0
 41
0.0
 71
     6
 72
     1
  1
アンカーボルト
  7
STYLE1
 73
     1
 44
1.0
1001
ACAD
1000
MTEXTBEGIN
1070
    73
1070
     1
1070
    44
1040
1.0
1070
    74
1070
     0
1000
MTEXTEND
  0
LEADER
  5
1D2D6
330
747D
100
AcDbEntity
  8
寸法
 48
50.0
100
AcDbLeader
  3
INABA_S40G
 73
     0
 74
     0
 75
     1
 40
120.0
 41
994.3492424049171
 76
     3
 10
10735.680085757
 20
8499.642229797848
 30
0.0
 10
10919.64598830496
 20
8867.19385540065
 30
0.0
 10
11019.64598830496
 20
8867.19385540065
 30
0.0
340
1D2D5
1001
ACAD
1000
DSTYLE
1002
{
1070
   341
1005
0
1002
}
  0
LINE
  5
20992
330
747D
100
AcDbEntity
  8
想像線
 48
10.0
100
AcDbLine
 10
10903.6
 20
5087.434385439156
 30
0.0
 11
10903.6
 21
8697.434385439137
 31
0.0
  0
LINE
  5
261AF
102
{ACAD_REACTORS
330
2B41D
102
}
330
747D
100
AcDbEntity
  8
部品1
 48
50.0
100
AcDbLine
 10
10628.6
 20
8502.434385439133
 30
0.0
 11
8235.600000000001
 21
8502.434385439137
 31
0.0
  0
DIMENSION
  5
261B0
330
747D
100
AcDbEntity
  8
寸法
 48
50.0
100
AcDbDimension
  2
*D1
 10
8105.6
 20
9368.194011981222
 30
0.0
 11
9420.6
 21
9468.205823004844
 31
0.0
 70
    32
 71
     5
 42
2630.0
  3
INABA_S40G
100
AcDbAlignedDimension
 13
10735.6
 23
8549.434385439139
 33
0.0
 14
8105.6
 24
8549.434385439139
 34
0.0
100
AcDbRotatedDimension
1001
ACAD
1000
DSTYLE
1002
{
1070
   341
1005
0
1002
}
  0
DIMENSION
  5
261B1
330
747D
100
AcDbEntity
  8
寸法
 48
50.0
100
AcDbDimension
  2
*D2
 10
8670.14438614211
 20
5372.434385439156
 30
0.0
 11
8670.144386142109
 21
5642.493440557281
 31
0.0
 70
   160
 71
     5
 42
110.0000000000063
  3
INABA_S40G
100
AcDbAlignedDimension
 13
8782.599867447318
 23
5262.434385439149
 33
0.0
 14
8235.600000000001
 24
5372.434385439156
 34
0.0
 50
90.0
100
AcDbRotatedDimension
1001
ACAD
1000
DSTYLE
1002
{
1070
   341
1005
0
1002
}
  0
DIMENSION
  5
261B2
330
747D
100
AcDbEntity
  8
寸法
 48
50.0
100
AcDbDimension
  2
*D3
 10
8670.14438614211
 20
5262.434385439149
 30
0.0
 11
8670.144386142109
 21
4806.146080471197
 31
0.0
 70
   160
 71
     5
 42
119.9999999999854
  3
INABA_S40G
100
AcDbAlignedDimension
 13
8307.41918098816
 23
5142.434385439163
 33
0.0
 14
8782.599867447318
 24
5262.434385439149
 34
0.0
 50
90.0
100
AcDbRotatedDimension
1001
ACAD
1000
DSTYLE
1002
{
1070
   341
1005
0
1002
}
  0
LINE
  5
261B3
102
{ACAD_REACTORS
330
2B41D
102
}
330
747D
100
AcDbEntity
  8
部品1
 48
50.0
100
AcDbLine
 10
10858.6
 20
5142.434385439155
 30
0.0
 11
8196.600000000001
 21
5142.434385439138
 31
0.0
  0
LINE
  5
261B4
102
{ACAD_REACTORS
330
2B41D
102
}
330
747D
100
AcDbEntity
  8
部品1
 48
50.0
100
AcDbLine
 10
10628.6
 20
5262.434385439154
 30
0.0
 11
8235.600000000001
 21
5262.434385439148
 31
0.0
  0
DIMENSION
  5
261B5
330
747D
100
AcDbEntity
  8
寸法
 48
50.0
100
AcDbDimension
  2
*D4
 10
8223.600000000001
 20
9149.344151087468
 30
0.0
 11
8673.6
 21
9249.344151087468
 31
0.0
 70
    32
 71
     5
 42
900.0
  3
INABA_S40G
100
AcDbAlignedDimension
 13
9123.600000000001
 23
7937.434385439137
 33
0.0
 14
8223.600000000001
 24
7837.434385439137
 34
0.0
100
AcDbRotatedDimension
1001
ACAD
1000
DSTYLE
1002
{
1070
   341
1005
0
1002
}
  0
LINE
  5
261B8
102
{ACAD_REACTORS
330
2B41D
102
}
330
747D
100
AcDbEntity
  8
部品1
 48
50.0
100
AcDbLine
 10
10858.6
 20
8622.43438543914
 30
0.0
 11
5588.6
 21
8622.43438543914
 31
0.0
  0
DIMENSION
  5
261B9
330
747D
100
AcDbEntity
  8
寸法
 48
50.0
100
AcDbDimension
  2
*D5
 10
10858.6
 20
9580.654707498055
 30
0.0
 11
8223.600000000001
 21
9680.666518521677
 31
0.0
 70
    32
 71
     5
 42
5270.0
  3
INABA_S40G
100
AcDbAlignedDimension
 13
5588.6
 23
8622.43438543914
 33
0.0
 14
10858.6
 24
8622.43438543914
 34
0.0
100
AcDbRotatedDimension
1001
ACAD
1000
DSTYLE
1002
{
1070
   341
1005
0
1002
}
  0
DIMENSION
  5
261C9
330
747D
100
AcDbEntity
  8
寸法
 48
50.0
100
AcDbDimension
  2
*D6
 10
7975.6
 20
5567.281835942675
 30
0.0
 11
8105.6
 21
5567.281835942675
 31
0.0
 70
   160
 71
     5
 42
260.0
  3
INABA_S40G
100
AcDbAlignedDimension
 13
8235.600000000001
 23
5372.434385439156
 33
0.0
 14
7975.6
 24
5372.434385439156
 34
0.0
100
AcDbRotatedDimension
1001
ACAD
1000
DSTYLE
1002
{
1070
   341
1005
0
1002
}
  0
LINE
  5
261CB
102
{ACAD_REACTORS
330
2B41D
102
}
330
747D
100
AcDbEntity
  8
部品1
 48
50.0
100
AcDbLine
 10
5588.6
 20
5142.434385439138
 30
0.0
 11
5588.6
 21
8622.43438543914
 31
0.0
  0
LINE
  5
261CC
102
{ACAD_REACTORS
330
2B41D
102
}
330
747D
100
AcDbEntity
  8
部品1
 48
50.0
100
AcDbLine
 10
5708.6
 20
5372.434385439139
 30
0.0
 11
5708.6
 21
8392.434385439134
 31
0.0
  0
DIMENSION
  5
261CD
330
747D
100
AcDbEntity
  8
寸法
 48
50.0
100
AcDbDimension
  2
*D7
 10
4840.714637266784
 20
5142.434385439138
 30
0.0
 11
4840.714637266783
 21
6882.434385439137
 31
0.0
 70
   160
 71
     5
 42
3480.000000000002
  3
INABA_S40G
100
AcDbAlignedDimension
 13
5588.6
 23
8622.43438543914
 33
0.0
 14
5588.6
 24
5142.434385439138
 34
0.0
 50
90.0
100
AcDbRotatedDimension
1001
ACAD
1000
DSTYLE
1002
{
1070
   341
1005
0
1002
}
  0
DIMENSION
  5
261CE
330
747D
100
AcDbEntity
  8
寸法
 48
50.0
100
AcDbDimension
  2
*D8
 10
5092.657733986183
 20
5265.434385439139
 30
0.0
 11
5092.657733986182
 21
6882.434385439139
 31
0.0
 70
   160
 71
     5
 42
3233.999999999999
  3
INABA_S40G
100
AcDbAlignedDimension
 13
5661.6
 23
8499.434385439137
 33
0.0
 14
5661.600000000007
 24
5265.434385439139
 34
0.0
 50
90.0
100
AcDbRotatedDimension
1001
ACAD
1000
DSTYLE
1002
{
1070
   341
1005
0
1002
}
  0
DIMENSION
  5
2622F
330
747D
100
AcDbEntity
  8
寸法
 48
50.0
100
AcDbDimension
  2
*D9
 10
5092.657733986179
 20
5142.434385439138
 30
0.0
 11
5092.657733986178
 21
4806.903436596544
 31
0.0
 70
   160
 71
     5
 42
123.0000000000009
  3
INABA_S40G
100
AcDbAlignedDimension
 13
5661.600000000007
 23
5265.434385439139
 33
0.0
 14
5588.6
 24
5142.434385439138
 34
0.0
 50
90.0
100
AcDbRotatedDimension
1001
ACAD
1000
DSTYLE
1002
{
1070
   341
1005
0
1002
}
  0
LINE
  5
26231
102
{ACAD_REACTORS
330
2B41D
102
}
330
747D
100
AcDbEntity
  8
部品1
 48
50.0
100
AcDbLine
 10
8196.600000000001
 20
5067.434385439141
 30
0.0
 11
6041.6
 21
5067.434385439128
 31
0.0
  0
LINE
  5
26233
102
{ACAD_REACTORS
330
2B41D
102
}
330
747D
100
AcDbEntity
  8
部品1
 48
50.0
100
AcDbLine
 10
7975.6
 20
5262.434385439146
 30
0.0
 11
5818.6
 21
5262.434385439141
 31
0.0
  0
LINE
  5
26235
330
747D
100
AcDbEntity
  8
部品1
 48
50.0
100
AcDbLine
 10
5588.6
 20
5142.434385439138
 30
0.0
 11
6041.6
 21
5142.434385439138
 31
0.0
  0
DIMENSION
  5
26236
330
747D
100
AcDbEntity
  8
寸法
 48
50.0
100
AcDbDimension
  2
*D10
 10
5588.6
 20
4582.589371096946
 30
0.0
 11
5815.100000000001
 21
4682.589371096946
 31
0.0
 70
    32
 71
     5
 42
453.0
  3
INABA_S40G
100
AcDbAlignedDimension
 13
6041.6
 23
5067.434385439128
 33
0.0
 14
5588.6
 24
5142.434385439138
 34
0.0
100
AcDbRotatedDimension
1001
ACAD
1000
DSTYLE
1002
{
1070
   341
1005
0
1002
}
  0
LINE
  5
26237
330
747D
100
AcDbEntity
  8
部品1
 48
50.0
100
AcDbLine
 10
5818.6
 20
5372.434385439141
 30
0.0
 11
5708.600000000001
 21
5372.43438543914
 31
0.0
  0
CIRCLE
  5
26238
330
747D
100
AcDbEntity
  8
部品1
 48
50.0
100
AcDbCircle
 10
5711.600000000007
 20
5265.434385439139
 30
0.0
 40
35.0
  0
LINE
  5
26239
330
747D
100
AcDbEntity
  8
センター
 48
2.0
100
AcDbLine
 10
5661.600000000007
 20
5265.434385439139
 30
0.0
 11
5761.600000000008
 21
5265.434385439139
 31
0.0
  0
LINE
  5
2623A
330
747D
100
AcDbEntity
  8
センター
 48
2.0
100
AcDbLine
 10
5711.600000000007
 20
5315.434385439139
 30
0.0
 11
5711.600000000007
 21
5215.434385439139
 31
0.0
  0
LINE
  5
2623B
330
747D
100
AcDbEntity
  8
部品1
 48
50.0
100
AcDbLine
 10
5818.6
 20
5262.434385439141
 30
0.0
 11
5818.6
 21
5372.434385439141
 31
0.0
  0
LINE
  5
2623C
330
747D
100
AcDbEntity
  8
部品1
 48
50.0
100
AcDbLine
 10
6041.6
 20
5067.434385439143
 30
0.0
 11
6041.6
 21
5142.434385439127
 31
0.0
  0
LINE
  5
26322
102
{ACAD_REACTORS
330
2B41D
102
}
330
747D
100
AcDbEntity
  8
部品1
 48
50.0
100
AcDbLine
 10
6997.100000000009
 20
5262.434385439145
 30
0.0
 11
6997.100000000007
 21
5067.43438543913
 31
0.0
  0
LINE
  5
26324
102
{ACAD_REACTORS
330
2B41D
102
}
330
747D
100
AcDbEntity
  8
部品1
 48
50.0
100
AcDbLine
 10
6797.100000000007
 20
5262.434385439145
 30
0.0
 11
6797.100000000007
 21
5067.43438543913
 31
0.0
  0
LINE
  5
26387
330
747D
100
AcDbEntity
  8
部品1
 48
50.0
100
AcDbLine
 10
8196.600000000001
 20
5067.434385439143
 30
0.0
 11
8196.600000000001
 21
5142.434385439139
 31
0.0
  0
LINE
  5
263FC
330
747D
100
AcDbEntity
  8
部品1
 48
50.0
100
AcDbLine
 10
8235.600000000001
 20
5372.434385439156
 30
0.0
 11
7975.6
 21
5372.434385439156
 31
0.0
  0
LINE
  5
26431
330
747D
100
AcDbEntity
  8
部品1
 48
50.0
100
AcDbLine
 10
7975.600000000001
 20
5262.434385439146
 30
0.0
 11
7975.6
 21
5372.434385439156
 31
0.0
  0
LINE
  5
26432
330
747D
100
AcDbEntity
  8
センター
 48
2.0
100
AcDbLine
 10
8105.600000000007
 20
5315.434385439139
 30
0.0
 11
8105.600000000007
 21
5215.434385439139
 31
0.0
  0
CIRCLE
  5
26433
330
747D
100
AcDbEntity
  8
部品1
 48
50.0
100
AcDbCircle
 10
8105.600000000007
 20
5265.434385439139
 30
0.0
 40
35.0
  0
LINE
  5
26434
330
747D
100
AcDbEntity
  8
センター
 48
2.0
100
AcDbLine
 10
8055.600000000008
 20
5265.434385439139
 30
0.0
 11
8155.600000000008
 21
5265.434385439139
 31
0.0
  0
LINE
  5
2644E
330
747D
100
AcDbEntity
  8
部品1
 48
50.0
100
AcDbLine
 10
8235.600000000001
 20
5262.434385439148
 30
0.0
 11
8235.600000000001
 21
5372.434385439156
 31
0.0
  0
DIMENSION
  5
26450
330
747D
100
AcDbEntity
  8
寸法
 48
50.0
100
AcDbDimension
  2
*D11
 10
5092.657733986179
 20
8499.434385439137
 30
0.0
 11
5092.657733986178
 21
8895.540987156937
 31
0.0
 70
   160
 71
     5
 42
123.0000000000018
  3
INABA_S40G
100
AcDbAlignedDimension
 13
5588.6
 23
8622.43438543914
 33
0.0
 14
5661.6
 24
8499.434385439137
 34
0.0
 50
90.0
100
AcDbRotatedDimension
1001
ACAD
1000
DSTYLE
1002
{
1070
   341
1005
0
1002
}
  0
DIMENSION
  5
26452
330
747D
100
AcDbEntity
  8
寸法
 48
50.0
100
AcDbDimension
  2
*D12
 10
6493.6
 20
9149.344151087468
 30
0.0
 11
6908.599999999999
 21
9249.344151087468
 31
0.0
 70
    32
 71
     5
 42
830.0
  3
INABA_S40G
100
AcDbAlignedDimension
 13
7323.6
 23
7937.434385439137
 33
0.0
 14
6493.6
 24
7937.434385439136
 34
0.0
100
AcDbRotatedDimension
1001
ACAD
1000
DSTYLE
1002
{
1070
   341
1005
0
1002
}
  0
LINE
  5
26453
102
{ACAD_REACTORS
330
2B41D
102
}
330
747D
100
AcDbEntity
  8
部品1
 48
50.0
100
AcDbLine
 10
7975.6
 20
8502.434385439137
 30
0.0
 11
5818.6
 21
8502.434385439137
 31
0.0
  0
DIMENSION
  5
26454
330
747D
100
AcDbEntity
  8
寸法
 48
50.0
100
AcDbDimension
  2
*D13
 10
5711.6
 20
9368.194011981222
 30
0.0
 11
6908.599999999999
 21
9468.205823004844
 31
0.0
 70
    32
 71
     5
 42
2394.0
  3
INABA_S40G
100
AcDbAlignedDimension
 13
8105.6
 23
8549.434385439139
 33
0.0
 14
5711.6
 24
8549.434385439139
 34
0.0
100
AcDbRotatedDimension
1001
ACAD
1000
DSTYLE
1002
{
1070
   341
1005
0
1002
}
  0
CIRCLE
  5
26455
330
747D
100
AcDbEntity
  8
部品1
 48
50.0
100
AcDbCircle
 10
5711.6
 20
8499.434385439137
 30
0.0
 40
35.0
  0
LINE
  5
26456
330
747D
100
AcDbEntity
  8
センター
 48
2.0
100
AcDbLine
 10
5711.6
 20
8549.434385439139
 30
0.0
 11
5711.6
 21
8449.434385439138
 31
0.0
  0
DIMENSION
  5
26457
330
747D
100
AcDbEntity
  8
寸法
 48
50.0
100
AcDbDimension
  2
*D14
 10
6035.307249876098
 20
8622.434385439133
 30
0.0
 11
6035.307249876098
 21
8900.517928712023
 31
0.0
 70
   160
 71
     5
 42
120.0
  3
INABA_S40G
100
AcDbAlignedDimension
 13
5818.6
 23
8502.434385439133
 33
0.0
 14
5818.600000000002
 24
8622.434385439133
 34
0.0
 50
90.0
100
AcDbRotatedDimension
1001
ACAD
1000
DSTYLE
1002
{
1070
   341
1005
0
1002
}
  0
DIMENSION
  5
26458
330
747D
100
AcDbEntity
  8
寸法
 48
50.0
100
AcDbDimension
  2
*D15
 10
5588.6
 20
9149.344151087468
 30
0.0
 11
6041.1
 21
9249.344151087468
 31
0.0
 70
    32
 71
     5
 42
905.0
  3
INABA_S40G
100
AcDbAlignedDimension
 13
6493.6
 23
7937.434385439136
 33
0.0
 14
5588.6
 24
8622.43438543914
 34
0.0
100
AcDbRotatedDimension
1001
ACAD
1000
DSTYLE
1002
{
1070
   341
1005
0
1002
}
  0
DIMENSION
  5
26459
330
747D
100
AcDbEntity
  8
寸法
 48
50.0
100
AcDbDimension
  2
*D16
 10
6035.307249876098
 20
8392.434385439134
 30
0.0
 11
6035.307249876098
 21
8052.375330321023
 31
0.0
 70
   160
 71
     5
 42
110.0000000000036
  3
INABA_S40G
100
AcDbAlignedDimension
 13
5818.6
 23
8502.434385439137
 33
0.0
 14
5818.6
 24
8392.434385439134
 34
0.0
 50
90.0
100
AcDbRotatedDimension
1001
ACAD
1000
DSTYLE
1002
{
1070
   341
1005
0
1002
}
  0
LINE
  5
2645B
102
{ACAD_REACTORS
330
2B41D
102
}
330
747D
100
AcDbEntity
  8
部品1
 48
50.0
100
AcDbLine
 10
5708.6
 20
6782.434385439137
 30
0.0
 11
5588.600000000003
 21
6782.434385439138
 31
0.0
  0
LINE
  5
2645C
102
{ACAD_REACTORS
330
2B41D
102
}
330
747D
100
AcDbEntity
  8
部品1
 48
50.0
100
AcDbLine
 10
5708.6
 20
6982.434385439137
 30
0.0
 11
5588.600000000003
 21
6982.434385439138
 31
0.0
  0
LINE
  5
2645D
330
747D
100
AcDbEntity
  8
部品1
 48
50.0
100
AcDbLine
 10
5818.599999999999
 20
8392.434385439134
 30
0.0
 11
5708.6
 21
8392.434385439136
 31
0.0
  0
LINE
  5
2645E
330
747D
100
AcDbEntity
  8
センター
 48
2.0
100
AcDbLine
 10
5661.6
 20
8499.434385439137
 30
0.0
 11
5761.600000000001
 21
8499.434385439137
 31
0.0
  0
LINE
  5
2645F
330
747D
100
AcDbEntity
  8
部品1
 48
50.0
100
AcDbLine
 10
5818.599999999999
 20
8392.434385439134
 30
0.0
 11
5818.6
 21
8502.434385439137
 31
0.0
  0
LINE
  5
26466
330
747D
100
AcDbEntity
  8
部品1
 48
50.0
100
AcDbLine
 10
5987.928907166848
 20
8622.434385439133
 30
0.0
 11
5588.6
 21
8622.43438543914
 31
0.0
  0
DIMENSION
  5
26467
330
747D
100
AcDbEntity
  8
寸法
 48
50.0
100
AcDbDimension
  2
*D17
 10
5588.6
 20
9368.194011981222
 30
0.0
 11
5315.493398282202
 21
9368.194011981222
 31
0.0
 70
   160
 71
     5
 42
123.0
  3
INABA_S40G
100
AcDbAlignedDimension
 13
5711.6
 23
8549.434385439139
 33
0.0
 14
5588.6
 24
8622.43438543914
 34
0.0
100
AcDbRotatedDimension
1001
ACAD
1000
DSTYLE
1002
{
1070
   341
1005
0
1002
}
  0
LINE
  5
26468
330
747D
100
AcDbEntity
  8
センター
 48
2.0
100
AcDbLine
 10
8105.6
 20
8549.434385439139
 30
0.0
 11
8105.6
 21
8449.434385439138
 31
0.0
  0
CIRCLE
  5
26469
330
747D
100
AcDbEntity
  8
部品1
 48
50.0
100
AcDbCircle
 10
8105.6
 20
8499.434385439137
 30
0.0
 40
35.0
  0
LINE
  5
2646A
102
{ACAD_REACTORS
330
2B41D
102
}
330
747D
100
AcDbEntity
  8
部品1
 48
50.0
100
AcDbLine
 10
6997.099999999997
 20
8622.43438543914
 30
0.0
 11
6997.099999999997
 21
8502.434385439137
 31
0.0
  0
DIMENSION
  5
2646B
330
747D
100
AcDbEntity
  8
寸法
 48
50.0
100
AcDbDimension
  2
*D18
 10
7323.6
 20
9149.344151087468
 30
0.0
 11
7773.6
 21
9249.344151087468
 31
0.0
 70
    32
 71
     5
 42
900.0
  3
INABA_S40G
100
AcDbAlignedDimension
 13
8223.600000000001
 23
7837.434385439137
 33
0.0
 14
7323.6
 24
7937.434385439137
 34
0.0
100
AcDbRotatedDimension
1001
ACAD
1000
DSTYLE
1002
{
1070
   341
1005
0
1002
}
  0
LINE
  5
2646C
102
{ACAD_REACTORS
330
2B41D
102
}
330
747D
100
AcDbEntity
  8
部品1
 48
50.0
100
AcDbLine
 10
6797.099999999997
 20
8622.43438543914
 30
0.0
 11
6797.099999999997
 21
8502.434385439137
 31
0.0
  0
LINE
  5
2647A
330
747D
100
AcDbEntity
  8
部品1
 48
50.0
100
AcDbLine
 10
8235.600000000001
 20
8392.43438543912
 30
0.0
 11
7975.6
 21
8392.43438543912
 31
0.0
  0
LINE
  5
2647B
330
747D
100
AcDbEntity
  8
部品1
 48
50.0
100
AcDbLine
 10
7975.600000000001
 20
8502.434385439137
 30
0.0
 11
7975.6
 21
8392.43438543912
 31
0.0
  0
LINE
  5
2647C
330
747D
100
AcDbEntity
  8
センター
 48
2.0
100
AcDbLine
 10
8055.600000000001
 20
8499.434385439137
 30
0.0
 11
8155.600000000001
 21
8499.434385439137
 31
0.0
  0
LINE
  5
2647D
330
747D
100
AcDbEntity
  8
部品1
 48
50.0
100
AcDbLine
 10
8235.600000000001
 20
8502.434385439133
 30
0.0
 11
8235.600000000001
 21
8392.43438543912
 31
0.0
  0
DIMENSION
  5
2647E
330
747D
100
AcDbEntity
  8
寸法
 48
50.0
100
AcDbDimension
  2
*D19
 10
9588.531448609051
 20
7737.434385439136
 30
0.0
 11
9488.53144860905
 21
7309.934385439136
 31
0.0
 70
    32
 71
     5
 42
855.0
  3
INABA_S40G
100
AcDbAlignedDimension
 13
9853.6
 23
6882.434385439136
 33
0.0
 14
9853.6
 24
7737.434385439136
 34
0.0
 50
90.0
100
AcDbRotatedDimension
1001
ACAD
1000
DSTYLE
1002
{
1070
   341
1005
0
1002
}
  0
LINE
  5
26480
102
{ACAD_REACTORS
330
2B41D
102
}
330
747D
100
AcDbEntity
  8
部品1
 48
50.0
100
AcDbLine
 10
10858.6
 20
5142.434385439155
 30
0.0
 11
10858.6
 21
8622.43438543914
 31
0.0
  0
LINE
  5
26481
102
{ACAD_REACTORS
330
2B41D
102
}
330
747D
100
AcDbEntity
  8
部品1
 48
50.0
100
AcDbLine
 10
10738.6
 20
5372.434385439158
 30
0.0
 11
10738.6
 21
8392.434385439139
 31
0.0
  0
LINE
  5
264F4
102
{ACAD_REACTORS
330
2B41D
102
}
330
747D
100
AcDbEntity
  8
部品1
 48
50.0
100
AcDbLine
 10
9332.100000000018
 20
5262.434385439149
 30
0.0
 11
9332.100000000018
 21
5142.434385439145
 31
0.0
  0
LINE
  5
264F5
102
{ACAD_REACTORS
330
2B41D
102
}
330
747D
100
AcDbEntity
  8
部品1
 48
50.0
100
AcDbLine
 10
9532.100000000021
 20
5262.434385439151
 30
0.0
 11
9532.100000000021
 21
5142.434385439145
 31
0.0
  0
LINE
  5
264FA
330
747D
100
AcDbEntity
  8
部品1
 48
50.0
100
AcDbLine
 10
10738.6
 20
5372.434385439156
 30
0.0
 11
10628.6
 21
5372.434385439156
 31
0.0
  0
LINE
  5
264FB
330
747D
100
AcDbEntity
  8
部品1
 48
50.0
100
AcDbLine
 10
10628.6
 20
5262.434385439154
 30
0.0
 11
10628.6
 21
5372.434385439156
 31
0.0
  0
LINE
  5
264FC
330
747D
100
AcDbEntity
  8
センター
 48
2.0
100
AcDbLine
 10
10735.6
 20
5315.434385439139
 30
0.0
 11
10735.6
 21
5215.434385439139
 31
0.0
  0
CIRCLE
  5
264FD
330
747D
100
AcDbEntity
  8
部品1
 48
50.0
100
AcDbCircle
 10
10735.6
 20
5265.434385439139
 30
0.0
 40
35.0
  0
LINE
  5
264FE
330
747D
100
AcDbEntity
  8
センター
 48
2.0
100
AcDbLine
 10
10685.60000000001
 20
5265.434385439139
 30
0.0
 11
10785.60000000001
 21
5265.434385439139
 31
0.0
  0
DIMENSION
  5
26508
330
747D
100
AcDbEntity
  8
寸法
 48
50.0
100
AcDbDimension
  2
*D20
 10
9953.600000000001
 20
9149.344151087468
 30
0.0
 11
10406.1
 21
9249.344151087468
 31
0.0
 70
    32
 71
     5
 42
905.0
  3
INABA_S40G
100
AcDbAlignedDimension
 13
10858.6
 23
8622.43438543914
 33
0.0
 14
9953.600000000001
 24
7992.434385439135
 34
0.0
100
AcDbRotatedDimension
1001
ACAD
1000
DSTYLE
1002
{
1070
   341
1005
0
1002
}
  0
LINE
  5
26509
102
{ACAD_REACTORS
330
2B41D
102
}
330
747D
100
AcDbEntity
  8
部品1
 48
50.0
100
AcDbLine
 10
9532.099999999998
 20
8622.43438543914
 30
0.0
 11
9532.099999999998
 21
8502.434385439137
 31
0.0
  0
LINE
  5
2650A
102
{ACAD_REACTORS
330
2B41D
102
}
330
747D
100
AcDbEntity
  8
部品1
 48
50.0
100
AcDbLine
 10
9332.099999999996
 20
8622.43438543914
 30
0.0
 11
9332.099999999996
 21
8502.434385439137
 31
0.0
  0
DIMENSION
  5
2650C
330
747D
100
AcDbEntity
  8
寸法
 48
50.0
100
AcDbDimension
  2
*D21
 10
9588.531448609051
 20
8622.43438543914
 30
0.0
 11
9488.53144860905
 21
8179.934385439137
 31
0.0
 70
    32
 71
     5
 42
885.0000000000036
  3
INABA_S40G
100
AcDbAlignedDimension
 13
9853.6
 23
7737.434385439136
 33
0.0
 14
9532.099999999998
 24
8622.43438543914
 34
0.0
 50
90.0
100
AcDbRotatedDimension
1001
ACAD
1000
DSTYLE
1002
{
1070
   341
1005
0
1002
}
  0
DIMENSION
  5
2650D
330
747D
100
AcDbEntity
  8
寸法
 48
50.0
100
AcDbDimension
  2
*D22
 10
9123.600000000001
 20
9149.344151087468
 30
0.0
 11
9538.6
 21
9249.344151087468
 31
0.0
 70
    32
 71
     5
 42
830.0
  3
INABA_S40G
100
AcDbAlignedDimension
 13
9953.600000000001
 23
7937.434385439137
 33
0.0
 14
9123.600000000001
 24
7937.434385439137
 34
0.0
100
AcDbRotatedDimension
1001
ACAD
1000
DSTYLE
1002
{
1070
   341
1005
0
1002
}
  0
LINE
  5
26517
330
747D
100
AcDbEntity
  8
センター
 48
2.0
100
AcDbLine
 10
10735.6
 20
8549.434385439139
 30
0.0
 11
10735.6
 21
8449.434385439138
 31
0.0
  0
CIRCLE
  5
26518
330
747D
100
AcDbEntity
  8
部品1
 48
50.0
100
AcDbCircle
 10
10735.6
 20
8499.434385439137
 30
0.0
 40
35.0
  0
DIMENSION
  5
26519
330
747D
100
AcDbEntity
  8
寸法
 48
50.0
100
AcDbDimension
  2
*D23
 10
10738.59999999998
 20
8118.68140037056
 30
0.0
 11
11128.65905511811
 21
8118.68140037056
 31
0.0
 70
   160
 71
     5
 42
120.0000000000218
  3
INABA_S40G
100
AcDbAlignedDimension
 13
10858.6
 23
8392.434385439139
 33
0.0
 14
10738.59999999998
 24
8392.434385439141
 34
0.0
100
AcDbRotatedDimension
1001
ACAD
1000
DSTYLE
1002
{
1070
   341
1005
0
1002
}
  0
LINE
  5
2651C
102
{ACAD_REACTORS
330
2B41D
102
}
330
747D
100
AcDbEntity
  8
部品1
 48
50.0
100
AcDbLine
 10
10858.6
 20
6782.434385439138
 30
0.0
 11
10738.6
 21
6782.434385439137
 31
0.0
  0
LINE
  5
2651D
102
{ACAD_REACTORS
330
2B41D
102
}
330
747D
100
AcDbEntity
  8
部品1
 48
50.0
100
AcDbLine
 10
10858.6
 20
6982.434385439138
 30
0.0
 11
10738.6
 21
6982.434385439137
 31
0.0
  0
DIMENSION
  5
2651E
330
747D
100
AcDbEntity
  8
寸法
 48
50.0
100
AcDbDimension
  2
*D24
 10
10628.6
 20
8118.68140037056
 30
0.0
 11
10392.55275590551
 21
8118.68140037056
 31
0.0
 70
   160
 71
     5
 42
110.0
  3
INABA_S40G
100
AcDbAlignedDimension
 13
10738.6
 23
8392.434385439139
 33
0.0
 14
10628.6
 24
8392.434385439136
 34
0.0
100
AcDbRotatedDimension
1001
ACAD
1000
DSTYLE
1002
{
1070
   341
1005
0
1002
}
  0
LINE
  5
2651F
330
747D
100
AcDbEntity
  8
部品1
 48
50.0
100
AcDbLine
 10
10738.6
 20
8392.434385439139
 30
0.0
 11
10628.6
 21
8392.434385439136
 31
0.0
  0
LINE
  5
26520
330
747D
100
AcDbEntity
  8
部品1
 48
50.0
100
AcDbLine
 10
10628.6
 20
8392.434385439136
 30
0.0
 11
10628.6
 21
8502.434385439133
 31
0.0
  0
LINE
  5
26521
330
747D
100
AcDbEntity
  8
センター
 48
2.0
100
AcDbLine
 10
10685.6
 20
8499.434385439137
 30
0.0
 11
10785.6
 21
8499.434385439137
 31
0.0
  0
DIMENSION
  5
26522
330
747D
100
AcDbEntity
  8
寸法
 48
50.0
100
AcDbDimension
  2
*D25
 10
10735.6
 20
9368.194011981222
 30
0.0
 11
11131.7066017178
 21
9368.194011981222
 31
0.0
 70
   160
 71
     5
 42
123.0
  3
INABA_S40G
100
AcDbAlignedDimension
 13
10858.6
 23
8622.43438543914
 33
0.0
 14
10735.6
 24
8549.434385439139
 34
0.0
100
AcDbRotatedDimension
1001
ACAD
1000
DSTYLE
1002
{
1070
   341
1005
0
1002
}
  0
DIMENSION
  5
26F00
330
747D
100
AcDbEntity
  8
寸法
 48
50.0
100
AcDbDimension
  2
*D26
 10
8463.202780124335
 20
5142.43438543916
 30
0.0
 11
8463.202780124332
 21
4533.94910406492
 31
0.0
 70
   160
  1
扉の出<>
 71
     5
 42
75.0
  3
INABA_S40G
100
AcDbAlignedDimension
 13
8196.600000000001
 23
5067.43438543916
 33
0.0
 14
8196.600000000008
 24
5142.43438543916
 34
0.0
 50
90.0
100
AcDbRotatedDimension
1001
ACAD
1000
DSTYLE
1002
{
1070
   341
1005
0
1002
}
  0
DIMENSION
  5
26F1A
330
747D
100
AcDbEntity
  8
寸法
 48
50.0
100
AcDbDimension
  2
*D27
 10
4840.714637266787
 20
8622.43438543914
 30
0.0
 11
4740.714637266786
 21
8659.934385439141
 31
0.0
 70
    32
  1
c
 71
     5
 42
75.00000000000182
  3
INABA_S40G
100
AcDbAlignedDimension
 13
5092.657733986179
 23
8697.434385439141
 33
0.0
 14
5588.6
 24
8622.43438543914
 34
0.0
 50
90.0
100
AcDbRotatedDimension
1001
ACAD
1000
DSTYLE
1002
{
1070
   341
1005
0
1002
}
  0
DIMENSION
  5
26F3F
330
747D
100
AcDbEntity
  8
寸法
 48
50.0
100
AcDbDimension
  2
*D28
 10
4840.714637266781
 20
5087.434385439159
 30
0.0
 11
4740.71463726678
 21
5114.93438543915
 31
0.0
 70
    32
  1
b
 71
     5
 42
54.99999999997908
  3
INABA_S40G
100
AcDbAlignedDimension
 13
5588.599999999996
 23
5142.434385439138
 33
0.0
 14
5092.657733986179
 24
5087.434385439159
 34
0.0
 50
90.0
100
AcDbRotatedDimension
1001
ACAD
1000
DSTYLE
1002
{
1070
   341
1005
0
1002
}
  0
DIMENSION
  5
26F64
330
747D
100
AcDbEntity
  8
寸法
 48
50.0
100
AcDbDimension
  2
*D29
 10
10903.6
 20
9580.654707498055
 30
0.0
 11
11174.77462120246
 21
9580.654707498055
 31
0.0
 70
   160
  1
a
 71
     5
 42
45.0
  3
INABA_S40G
100
AcDbAlignedDimension
 13
10858.6
 23
8622.434385439133
 33
0.0
 14
10903.6
 24
9368.194011981222
 34
0.0
100
AcDbRotatedDimension
1001
ACAD
1000
DSTYLE
1002
{
1070
   341
1005
0
1002
}
  0
DIMENSION
  5
26F7E
330
747D
100
AcDbEntity
  8
寸法
 48
50.0
100
AcDbDimension
  2
*D30
 10
5588.6
 20
9580.654707498055
 30
0.0
 11
5272.425378797541
 21
9580.654707498055
 31
0.0
 70
   160
  1
a
 71
     5
 42
44.99999999999181
  3
INABA_S40G
100
AcDbAlignedDimension
 13
5543.600000000008
 23
9368.194011981222
 33
0.0
 14
5588.6
 24
8622.434385439133
 34
0.0
100
AcDbRotatedDimension
1001
ACAD
1000
DSTYLE
1002
{
1070
   341
1005
0
1002
}
  0
DIMENSION
  5
2701E
330
747D
100
AcDbEntity
  8
寸法
 48
50.0
100
AcDbDimension
  2
*D31
 10
6309.18320630424
 20
5262.434385439139
 30
0.0
 11
6309.183206304238
 21
4828.739444235232
 31
0.0
 70
   160
 71
     5
 42
195.0000000000136
  3
INABA_S40G
100
AcDbAlignedDimension
 13
6041.6
 23
5067.434385439128
 33
0.0
 14
6041.599999999998
 24
5262.434385439141
 34
0.0
 50
90.0
100
AcDbRotatedDimension
1001
ACAD
1000
DSTYLE
1002
{
1070
   341
1005
0
1002
}
  0
LEADER
  5
27D16
330
747D
100
AcDbEntity
  8
寸法
 48
50.0
100
AcDbLeader
  3
INABA_S40G
 73
     0
 74
     0
 75
     1
 40
120.0
 41
149.591883092037
 76
     3
 10
6468.565642998736
 20
6720.459062743441
 30
0.0
 10
6605.84844586138
 20
6444.445149175608
 30
0.0
 10
6705.848445861381
 20
6444.445149175608
 30
0.0
340
27D17
1001
ACAD
1000
DSTYLE
1002
{
1070
   341
1005
0
1002
}
  0
MTEXT
  5
27D17
102
{ACAD_REACTORS
330
27D16
102
}
330
747D
100
AcDbEntity
  8
部品1
 62
     7
 48
50.0
100
AcDbMText
 10
6895.440328953417
 20
6544.445149175608
 30
0.0
 40
120.0
 41
0.0
 71
     6
 72
     1
  1
CB
  7
STYLE1
 73
     1
 44
1.0
1001
ACAD
1000
MTEXTBEGIN
1070
    73
1070
     1
1070
    44
1040
1.0
1070
    74
1070
     0
1000
MTEXTEND
  0
DIMENSION
  5
27D82
330
747D
100
AcDbEntity
  8
寸法
 48
50.0
100
AcDbDimension
  2
*D32
 10
9588.531448609051
 20
6027.434385439136
 30
0.0
 11
9488.53144860905
 21
5584.934385439137
 31
0.0
 70
    32
 71
     5
 42
884.9999999999981
  3
INABA_S40G
100
AcDbAlignedDimension
 13
9853.6
 23
5142.434385439138
 33
0.0
 14
9853.6
 24
6027.434385439136
 34
0.0
 50
90.0
100
AcDbRotatedDimension
1001
ACAD
1000
DSTYLE
1002
{
1070
   341
1005
0
1002
}
  0
DIMENSION
  5
29862
330
747D
100
AcDbEntity
  8
寸法
 48
50.0
100
AcDbDimension
  2
*D33
 10
9588.531448609051
 20
6882.434385439136
 30
0.0
 11
9488.53144860905
 21
6454.934385439137
 31
0.0
 70
    32
 71
     5
 42
855.0
  3
INABA_S40G
100
AcDbAlignedDimension
 13
9853.6
 23
6027.434385439136
 33
0.0
 14
9853.6
 24
6882.434385439136
 34
0.0
 50
90.0
100
AcDbRotatedDimension
1001
ACAD
1000
DSTYLE
1002
{
1070
   341
1005
0
1002
}
  0
LINE
  5
2A817
330
747D
100
AcDbEntity
  8
センター
 48
2.0
100
AcDbLine
 10
6493.6
 20
7787.434385439134
 30
0.0
 11
6493.6
 21
7687.434385439136
 31
0.0
  0
LINE
  5
2A818
330
747D
100
AcDbEntity
  8
部品1
 48
50.0
100
AcDbLine
 10
6593.600000000001
 20
7937.434385439136
 30
0.0
 11
6393.600000000001
 21
7937.434385439136
 31
0.0
  0
LINE
  5
2A819
330
747D
100
AcDbEntity
  8
センター
 48
2.0
100
AcDbLine
 10
6443.6
 20
7737.434385439136
 30
0.0
 11
6543.600000000001
 21
7737.434385439136
 31
0.0
  0
LINE
  5
2A81A
330
747D
100
AcDbEntity
  8
部品1
 48
50.0
100
AcDbLine
 10
6593.600000000001
 20
7537.434385439134
 30
0.0
 11
6393.600000000001
 21
7537.434385439134
 31
0.0
  0
LINE
  5
2A81B
330
747D
100
AcDbEntity
  8
部品1
 48
50.0
100
AcDbLine
 10
6593.600000000001
 20
7537.434385439134
 30
0.0
 11
6593.600000000001
 21
7937.434385439136
 31
0.0
  0
LINE
  5
2A81C
330
747D
100
AcDbEntity
  8
部品1
 48
50.0
100
AcDbLine
 10
6393.600000000001
 20
7537.434385439134
 30
0.0
 11
6393.600000000001
 21
7937.434385439136
 31
0.0
  0
LINE
  5
2A81D
330
747D
100
AcDbEntity
  8
センター
 48
2.0
100
AcDbLine
 10
6493.6
 20
6932.434385439136
 30
0.0
 11
6493.6
 21
6832.434385439134
 31
0.0
  0
LINE
  5
2A81E
330
747D
100
AcDbEntity
  8
部品1
 48
50.0
100
AcDbLine
 10
6593.600000000001
 20
7082.434385439134
 30
0.0
 11
6393.600000000001
 21
7082.434385439134
 31
0.0
  0
LINE
  5
2A81F
330
747D
100
AcDbEntity
  8
センター
 48
2.0
100
AcDbLine
 10
6443.6
 20
6882.434385439136
 30
0.0
 11
6543.600000000001
 21
6882.434385439136
 31
0.0
  0
LINE
  5
2A820
330
747D
100
AcDbEntity
  8
部品1
 48
50.0
100
AcDbLine
 10
6593.600000000001
 20
6682.434385439134
 30
0.0
 11
6393.600000000001
 21
6682.434385439134
 31
0.0
  0
LINE
  5
2A821
330
747D
100
AcDbEntity
  8
部品1
 48
50.0
100
AcDbLine
 10
6593.600000000001
 20
6227.434385439135
 30
0.0
 11
6393.600000000001
 21
6227.434385439135
 31
0.0
  0
LINE
  5
2A822
330
747D
100
AcDbEntity
  8
センター
 48
2.0
100
AcDbLine
 10
6443.6
 20
6027.434385439136
 30
0.0
 11
6543.600000000001
 21
6027.434385439136
 31
0.0
  0
LINE
  5
2A823
330
747D
100
AcDbEntity
  8
センター
 48
2.0
100
AcDbLine
 10
6493.6
 20
6077.434385439135
 30
0.0
 11
6493.6
 21
5977.434385439135
 31
0.0
  0
LINE
  5
2A824
330
747D
100
AcDbEntity
  8
部品1
 48
50.0
100
AcDbLine
 10
6593.600000000001
 20
5827.434385439135
 30
0.0
 11
6393.600000000001
 21
5827.434385439135
 31
0.0
  0
LINE
  5
2A825
330
747D
100
AcDbEntity
  8
部品1
 48
50.0
100
AcDbLine
 10
6593.600000000001
 20
5827.434385439135
 30
0.0
 11
6593.600000000001
 21
6227.434385439135
 31
0.0
  0
LINE
  5
2A826
330
747D
100
AcDbEntity
  8
部品1
 48
50.0
100
AcDbLine
 10
6393.600000000001
 20
5827.434385439135
 30
0.0
 11
6393.600000000001
 21
6227.434385439135
 31
0.0
  0
LINE
  5
2A827
330
747D
100
AcDbEntity
  8
部品1
 48
50.0
100
AcDbLine
 10
6393.600000000001
 20
6682.434385439136
 30
0.0
 11
6393.600000000001
 21
7082.434385439134
 31
0.0
  0
LINE
  5
2A828
330
747D
100
AcDbEntity
  8
部品1
 48
50.0
100
AcDbLine
 10
6593.600000000001
 20
6682.434385439134
 30
0.0
 11
6593.600000000001
 21
7082.434385439134
 31
0.0
  0
LINE
  5
2A846
330
747D
100
AcDbEntity
  8
部品1
 48
50.0
100
AcDbLine
 10
7423.6
 20
6682.434385439134
 30
0.0
 11
7423.6
 21
7082.434385439134
 31
0.0
  0
LINE
  5
2A847
330
747D
100
AcDbEntity
  8
部品1
 48
50.0
100
AcDbLine
 10
7223.600000000002
 20
6682.434385439136
 30
0.0
 11
7223.600000000002
 21
7082.434385439134
 31
0.0
  0
LINE
  5
2A848
330
747D
100
AcDbEntity
  8
部品1
 48
50.0
100
AcDbLine
 10
7223.600000000002
 20
5827.434385439135
 30
0.0
 11
7223.600000000002
 21
6227.434385439135
 31
0.0
  0
LINE
  5
2A849
330
747D
100
AcDbEntity
  8
部品1
 48
50.0
100
AcDbLine
 10
7423.6
 20
5827.434385439135
 30
0.0
 11
7423.6
 21
6227.434385439135
 31
0.0
  0
LINE
  5
2A84A
330
747D
100
AcDbEntity
  8
部品1
 48
50.0
100
AcDbLine
 10
7423.6
 20
5827.434385439135
 30
0.0
 11
7223.600000000002
 21
5827.434385439135
 31
0.0
  0
LINE
  5
2A84B
330
747D
100
AcDbEntity
  8
センター
 48
2.0
100
AcDbLine
 10
7323.6
 20
6077.434385439135
 30
0.0
 11
7323.6
 21
5977.434385439135
 31
0.0
  0
LINE
  5
2A84C
330
747D
100
AcDbEntity
  8
センター
 48
2.0
100
AcDbLine
 10
7273.6
 20
6027.434385439136
 30
0.0
 11
7373.6
 21
6027.434385439136
 31
0.0
  0
LINE
  5
2A84D
330
747D
100
AcDbEntity
  8
部品1
 48
50.0
100
AcDbLine
 10
7423.6
 20
6227.434385439135
 30
0.0
 11
7223.600000000002
 21
6227.434385439135
 31
0.0
  0
LINE
  5
2A84E
330
747D
100
AcDbEntity
  8
部品1
 48
50.0
100
AcDbLine
 10
7423.6
 20
6682.434385439134
 30
0.0
 11
7223.600000000002
 21
6682.434385439134
 31
0.0
  0
LINE
  5
2A84F
330
747D
100
AcDbEntity
  8
センター
 48
2.0
100
AcDbLine
 10
7273.6
 20
6882.434385439136
 30
0.0
 11
7373.6
 21
6882.434385439136
 31
0.0
  0
LINE
  5
2A850
330
747D
100
AcDbEntity
  8
部品1
 48
50.0
100
AcDbLine
 10
7423.6
 20
7082.434385439134
 30
0.0
 11
7223.600000000002
 21
7082.434385439134
 31
0.0
  0
LINE
  5
2A851
330
747D
100
AcDbEntity
  8
センター
 48
2.0
100
AcDbLine
 10
7323.6
 20
6932.434385439136
 30
0.0
 11
7323.6
 21
6832.434385439134
 31
0.0
  0
LINE
  5
2A852
330
747D
100
AcDbEntity
  8
部品1
 48
50.0
100
AcDbLine
 10
7223.600000000002
 20
7537.434385439134
 30
0.0
 11
7223.600000000002
 21
7937.434385439136
 31
0.0
  0
LINE
  5
2A853
330
747D
100
AcDbEntity
  8
部品1
 48
50.0
100
AcDbLine
 10
7423.6
 20
7537.434385439134
 30
0.0
 11
7423.6
 21
7937.434385439136
 31
0.0
  0
LINE
  5
2A854
330
747D
100
AcDbEntity
  8
部品1
 48
50.0
100
AcDbLine
 10
7423.6
 20
7537.434385439134
 30
0.0
 11
7223.600000000002
 21
7537.434385439134
 31
0.0
  0
LINE
  5
2A855
330
747D
100
AcDbEntity
  8
センター
 48
2.0
100
AcDbLine
 10
7273.6
 20
7737.434385439136
 30
0.0
 11
7373.6
 21
7737.434385439136
 31
0.0
  0
LINE
  5
2A856
330
747D
100
AcDbEntity
  8
部品1
 48
50.0
100
AcDbLine
 10
7423.6
 20
7937.434385439136
 30
0.0
 11
7223.600000000002
 21
7937.434385439136
 31
0.0
  0
LINE
  5
2A857
330
747D
100
AcDbEntity
  8
センター
 48
2.0
100
AcDbLine
 10
7323.6
 20
7787.434385439134
 30
0.0
 11
7323.6
 21
7687.434385439136
 31
0.0
  0
LINE
  5
2A86A
330
747D
100
AcDbEntity
  8
センター
 48
2.0
100
AcDbLine
 10
8223.600000000001
 20
7787.434385439137
 30
0.0
 11
8223.600000000001
 21
7687.434385439137
 31
0.0
  0
LINE
  5
2A86B
330
747D
100
AcDbEntity
  8
センター
 48
2.0
100
AcDbLine
 10
8173.6
 20
7737.434385439136
 30
0.0
 11
8273.6
 21
7737.434385439136
 31
0.0
  0
LINE
  5
2A86C
330
747D
100
AcDbEntity
  8
部品1
 48
50.0
100
AcDbLine
 10
8323.6
 20
7837.434385439137
 30
0.0
 11
8123.600000000001
 21
7837.434385439137
 31
0.0
  0
LINE
  5
2A86D
330
747D
100
AcDbEntity
  8
部品1
 48
50.0
100
AcDbLine
 10
8323.6
 20
7637.434385439134
 30
0.0
 11
8123.600000000001
 21
7637.434385439134
 31
0.0
  0
LINE
  5
2A86E
330
747D
100
AcDbEntity
  8
部品1
 48
50.0
100
AcDbLine
 10
8323.6
 20
7637.434385439134
 30
0.0
 11
8323.6
 21
7837.434385439137
 31
0.0
  0
LINE
  5
2A86F
330
747D
100
AcDbEntity
  8
部品1
 48
50.0
100
AcDbLine
 10
8123.600000000001
 20
7637.434385439137
 30
0.0
 11
8123.600000000001
 21
7837.434385439137
 31
0.0
  0
LINE
  5
2A870
330
747D
100
AcDbEntity
  8
センター
 48
2.0
100
AcDbLine
 10
8223.600000000001
 20
6932.434385439137
 30
0.0
 11
8223.600000000001
 21
6832.434385439137
 31
0.0
  0
LINE
  5
2A871
330
747D
100
AcDbEntity
  8
部品1
 48
50.0
100
AcDbLine
 10
8323.6
 20
6982.434385439137
 30
0.0
 11
8123.600000000001
 21
6982.434385439137
 31
0.0
  0
LINE
  5
2A872
330
747D
100
AcDbEntity
  8
センター
 48
2.0
100
AcDbLine
 10
8173.6
 20
6882.434385439137
 30
0.0
 11
8273.6
 21
6882.434385439137
 31
0.0
  0
LINE
  5
2A873
330
747D
100
AcDbEntity
  8
部品1
 48
50.0
100
AcDbLine
 10
8323.6
 20
6782.434385439136
 30
0.0
 11
8123.600000000001
 21
6782.434385439136
 31
0.0
  0
LINE
  5
2A874
330
747D
100
AcDbEntity
  8
センター
 48
2.0
100
AcDbLine
 10
8223.600000000001
 20
6077.434385439137
 30
0.0
 11
8223.600000000001
 21
5977.434385439138
 31
0.0
  0
LINE
  5
2A875
330
747D
100
AcDbEntity
  8
センター
 48
2.0
100
AcDbLine
 10
8173.6
 20
6027.434385439137
 30
0.0
 11
8273.6
 21
6027.434385439137
 31
0.0
  0
LINE
  5
2A876
330
747D
100
AcDbEntity
  8
部品1
 48
50.0
100
AcDbLine
 10
8323.6
 20
6127.434385439137
 30
0.0
 11
8123.600000000001
 21
6127.434385439137
 31
0.0
  0
LINE
  5
2A877
330
747D
100
AcDbEntity
  8
部品1
 48
50.0
100
AcDbLine
 10
8323.6
 20
5927.434385439134
 30
0.0
 11
8123.600000000001
 21
5927.434385439134
 31
0.0
  0
LINE
  5
2A878
330
747D
100
AcDbEntity
  8
部品1
 48
50.0
100
AcDbLine
 10
8323.6
 20
5927.434385439134
 30
0.0
 11
8323.6
 21
6127.434385439137
 31
0.0
  0
LINE
  5
2A879
330
747D
100
AcDbEntity
  8
部品1
 48
50.0
100
AcDbLine
 10
8123.600000000001
 20
5927.434385439138
 30
0.0
 11
8123.600000000001
 21
6127.434385439137
 31
0.0
  0
LINE
  5
2A87A
330
747D
100
AcDbEntity
  8
部品1
 48
50.0
100
AcDbLine
 10
8323.6
 20
6782.434385439136
 30
0.0
 11
8323.6
 21
6982.434385439137
 31
0.0
  0
LINE
  5
2A87B
330
747D
100
AcDbEntity
  8
部品1
 48
50.0
100
AcDbLine
 10
8123.600000000001
 20
6782.434385439137
 30
0.0
 11
8123.600000000001
 21
6982.434385439137
 31
0.0
  0
LINE
  5
2A88E
330
747D
100
AcDbEntity
  8
センター
 48
2.0
100
AcDbLine
 10
9123.600000000001
 20
7787.434385439134
 30
0.0
 11
9123.600000000001
 21
7687.434385439136
 31
0.0
  0
LINE
  5
2A88F
330
747D
100
AcDbEntity
  8
部品1
 48
50.0
100
AcDbLine
 10
9223.600000000001
 20
7937.434385439136
 30
0.0
 11
9023.6
 21
7937.434385439136
 31
0.0
  0
LINE
  5
2A890
330
747D
100
AcDbEntity
  8
センター
 48
2.0
100
AcDbLine
 10
9073.6
 20
7737.434385439136
 30
0.0
 11
9173.6
 21
7737.434385439136
 31
0.0
  0
LINE
  5
2A891
330
747D
100
AcDbEntity
  8
部品1
 48
50.0
100
AcDbLine
 10
9223.600000000001
 20
7537.434385439134
 30
0.0
 11
9023.6
 21
7537.434385439134
 31
0.0
  0
LINE
  5
2A892
330
747D
100
AcDbEntity
  8
部品1
 48
50.0
100
AcDbLine
 10
9223.600000000001
 20
7537.434385439134
 30
0.0
 11
9223.600000000001
 21
7937.434385439136
 31
0.0
  0
LINE
  5
2A893
330
747D
100
AcDbEntity
  8
部品1
 48
50.0
100
AcDbLine
 10
9023.6
 20
7537.434385439134
 30
0.0
 11
9023.6
 21
7937.434385439136
 31
0.0
  0
LINE
  5
2A894
330
747D
100
AcDbEntity
  8
センター
 48
2.0
100
AcDbLine
 10
9123.600000000001
 20
6932.434385439136
 30
0.0
 11
9123.600000000001
 21
6832.434385439134
 31
0.0
  0
LINE
  5
2A895
330
747D
100
AcDbEntity
  8
部品1
 48
50.0
100
AcDbLine
 10
9223.600000000001
 20
7082.434385439134
 30
0.0
 11
9023.6
 21
7082.434385439134
 31
0.0
  0
LINE
  5
2A896
330
747D
100
AcDbEntity
  8
センター
 48
2.0
100
AcDbLine
 10
9073.6
 20
6882.434385439136
 30
0.0
 11
9173.6
 21
6882.434385439136
 31
0.0
  0
LINE
  5
2A897
330
747D
100
AcDbEntity
  8
部品1
 48
50.0
100
AcDbLine
 10
9223.600000000001
 20
6682.434385439134
 30
0.0
 11
9023.6
 21
6682.434385439134
 31
0.0
  0
LINE
  5
2A898
330
747D
100
AcDbEntity
  8
部品1
 48
50.0
100
AcDbLine
 10
9223.600000000001
 20
6227.434385439135
 30
0.0
 11
9023.6
 21
6227.434385439135
 31
0.0
  0
LINE
  5
2A899
330
747D
100
AcDbEntity
  8
センター
 48
2.0
100
AcDbLine
 10
9073.6
 20
6027.434385439136
 30
0.0
 11
9173.6
 21
6027.434385439136
 31
0.0
  0
LINE
  5
2A89A
330
747D
100
AcDbEntity
  8
センター
 48
2.0
100
AcDbLine
 10
9123.600000000001
 20
6077.434385439135
 30
0.0
 11
9123.600000000001
 21
5977.434385439135
 31
0.0
  0
LINE
  5
2A89B
330
747D
100
AcDbEntity
  8
部品1
 48
50.0
100
AcDbLine
 10
9223.600000000001
 20
5827.434385439135
 30
0.0
 11
9023.6
 21
5827.434385439135
 31
0.0
  0
LINE
  5
2A89C
330
747D
100
AcDbEntity
  8
部品1
 48
50.0
100
AcDbLine
 10
9223.600000000001
 20
5827.434385439135
 30
0.0
 11
9223.600000000001
 21
6227.434385439135
 31
0.0
  0
LINE
  5
2A89D
330
747D
100
AcDbEntity
  8
部品1
 48
50.0
100
AcDbLine
 10
9023.6
 20
5827.434385439135
 30
0.0
 11
9023.6
 21
6227.434385439135
 31
0.0
  0
LINE
  5
2A89E
330
747D
100
AcDbEntity
  8
部品1
 48
50.0
100
AcDbLine
 10
9023.6
 20
6682.434385439136
 30
0.0
 11
9023.6
 21
7082.434385439134
 31
0.0
  0
LINE
  5
2A89F
330
747D
100
AcDbEntity
  8
部品1
 48
50.0
100
AcDbLine
 10
9223.600000000001
 20
6682.434385439134
 30
0.0
 11
9223.600000000001
 21
7082.434385439134
 31
0.0
  0
LINE
  5
2A8A0
330
747D
100
AcDbEntity
  8
部品1
 48
50.0
100
AcDbLine
 10
10053.6
 20
6682.434385439134
 30
0.0
 11
10053.6
 21
7082.434385439134
 31
0.0
  0
LINE
  5
2A8A1
330
747D
100
AcDbEntity
  8
部品1
 48
50.0
100
AcDbLine
 10
9853.6
 20
6682.434385439136
 30
0.0
 11
9853.6
 21
7082.434385439134
 31
0.0
  0
LINE
  5
2A8A2
330
747D
100
AcDbEntity
  8
部品1
 48
50.0
100
AcDbLine
 10
9853.6
 20
5827.434385439135
 30
0.0
 11
9853.6
 21
6227.434385439135
 31
0.0
  0
LINE
  5
2A8A3
330
747D
100
AcDbEntity
  8
部品1
 48
50.0
100
AcDbLine
 10
10053.6
 20
5827.434385439135
 30
0.0
 11
10053.6
 21
6227.434385439135
 31
0.0
  0
LINE
  5
2A8A4
330
747D
100
AcDbEntity
  8
部品1
 48
50.0
100
AcDbLine
 10
10053.6
 20
5827.434385439135
 30
0.0
 11
9853.6
 21
5827.434385439135
 31
0.0
  0
LINE
  5
2A8A5
330
747D
100
AcDbEntity
  8
センター
 48
2.0
100
AcDbLine
 10
9953.600000000001
 20
6077.434385439135
 30
0.0
 11
9953.600000000001
 21
5977.434385439135
 31
0.0
  0
LINE
  5
2A8A6
330
747D
100
AcDbEntity
  8
センター
 48
2.0
100
AcDbLine
 10
9903.6
 20
6027.434385439136
 30
0.0
 11
10003.6
 21
6027.434385439136
 31
0.0
  0
LINE
  5
2A8A7
330
747D
100
AcDbEntity
  8
部品1
 48
50.0
100
AcDbLine
 10
10053.6
 20
6227.434385439135
 30
0.0
 11
9853.6
 21
6227.434385439135
 31
0.0
  0
LINE
  5
2A8A8
330
747D
100
AcDbEntity
  8
部品1
 48
50.0
100
AcDbLine
 10
10053.6
 20
6682.434385439134
 30
0.0
 11
9853.6
 21
6682.434385439134
 31
0.0
  0
LINE
  5
2A8A9
330
747D
100
AcDbEntity
  8
センター
 48
2.0
100
AcDbLine
 10
9903.6
 20
6882.434385439136
 30
0.0
 11
10003.6
 21
6882.434385439136
 31
0.0
  0
LINE
  5
2A8AA
330
747D
100
AcDbEntity
  8
部品1
 48
50.0
100
AcDbLine
 10
10053.6
 20
7082.434385439134
 30
0.0
 11
9853.6
 21
7082.434385439134
 31
0.0
  0
LINE
  5
2A8AB
330
747D
100
AcDbEntity
  8
センター
 48
2.0
100
AcDbLine
 10
9953.600000000001
 20
6932.434385439136
 30
0.0
 11
9953.600000000001
 21
6832.434385439134
 31
0.0
  0
LINE
  5
2A8AC
330
747D
100
AcDbEntity
  8
部品1
 48
50.0
100
AcDbLine
 10
9853.6
 20
7537.434385439134
 30
0.0
 11
9853.6
 21
7937.434385439136
 31
0.0
  0
LINE
  5
2A8AD
330
747D
100
AcDbEntity
  8
部品1
 48
50.0
100
AcDbLine
 10
10053.6
 20
7537.434385439134
 30
0.0
 11
10053.6
 21
7937.434385439136
 31
0.0
  0
LINE
  5
2A8AE
330
747D
100
AcDbEntity
  8
部品1
 48
50.0
100
AcDbLine
 10
10053.6
 20
7537.434385439134
 30
0.0
 11
9853.6
 21
7537.434385439134
 31
0.0
  0
LINE
  5
2A8AF
330
747D
100
AcDbEntity
  8
センター
 48
2.0
100
AcDbLine
 10
9903.6
 20
7737.434385439136
 30
0.0
 11
10003.6
 21
7737.434385439136
 31
0.0
  0
LINE
  5
2A8B0
330
747D
100
AcDbEntity
  8
部品1
 48
50.0
100
AcDbLine
 10
10053.6
 20
7937.434385439136
 30
0.0
 11
9853.6
 21
7937.434385439136
 31
0.0
  0
LINE
  5
2A8B1
330
747D
100
AcDbEntity
  8
センター
 48
2.0
100
AcDbLine
 10
9953.600000000001
 20
7787.434385439134
 30
0.0
 11
9953.600000000001
 21
7687.434385439136
 31
0.0
  0
LINE
  5
2ACC5
330
747D
100
AcDbEntity
  8
想像線
 48
10.0
100
AcDbLine
 10
9678.182651863522
 20
5087.434385439157
 30
0.0
 11
10903.6
 21
5087.434385439156
 31
0.0
  0
LINE
  5
2ACC6
330
747D
100
AcDbEntity
  8
想像線
 48
10.0
100
AcDbLine
 10
9678.182651863522
 20
8697.434385439139
 30
0.0
 11
10903.6
 21
8697.434385439137
 31
0.0
  0
DIMENSION
  5
2ACC7
330
747D
100
AcDbEntity
  8
寸法
 48
50.0
100
AcDbDimension
  2
*D34
 10
6041.6
 20
4582.589371096946
 30
0.0
 11
7119.1
 21
4682.601182120567
 31
0.0
 70
    32
  1
扉の幅 <>
 71
     5
 42
2155.0
  3
INABA_S40G
100
AcDbAlignedDimension
 13
8196.600000000001
 23
5067.43438543916
 33
0.0
 14
6041.6
 24
5067.434385439143
 34
0.0
100
AcDbRotatedDimension
1001
ACAD
1000
DSTYLE
1002
{
1070
   341
1005
0
1002
}
  0
TEXT
  5
2ACC8
330
747D
100
AcDbEntity
  8
寸法
 62
     7
100
AcDbText
 10
6414.250754363519
 20
3983.605872924249
 30
0.0
 40
120.0
  1
扉位置 (2155x75)
  7
STYLE1
100
AcDbText
  0
SOLID
  5
2ACC9
330
747D
100
AcDbEntity
  8
寸法
 48
50.0
100
AcDbTrace
 10
-6621.736054003149
 20
4941.843356534245
 30
0.0
 11
-6638.645259673137
 21
5067.434385439131
 31
0.0
 12
-6581.917839529673
 22
4954.116127503152
 32
0.0
 13
-6581.917839529673
 23
4954.116127503152
 33
0.0
210
0.0
220
0.0
230
-1.0
1001
ACAD
1000
DSTYLE
1002
{
1070
   341
1005
0
1070
    40
1040
1.0
1070
   343
1005
0
1070
   344
1005
0
1002
}
  0
LWPOLYLINE
  5
2ACCA
330
747D
100
AcDbEntity
  8
寸法
 48
50.0
100
AcDbPolyline
 90
        3
 70
     0
 43
0.0
 10
-6638.645259673137
 20
5067.434385439131
 10
-6297.634795170766
 20
3961.337925375929
 10
-9111.699208102409
 20
3961.337925375929
210
0.0
220
0.0
230
-1.0
1001
ACAD
1000
DSTYLE
1002
{
1070
   341
1005
0
1070
    40
1040
1.0
1070
   343
1005
0
1070
   344
1005
0
1002
}
  0
TEXT
  5
2ACCB
330
747D
100
AcDbEntity
  8
寸法
 62
     7
100
AcDbText
 10
6414.250754363519
 20
3812.002110040923
 30
0.0
 40
120.0
  1
扉の位置に合わせた基礎形状として下さい。
  7
STYLE1
100
AcDbText
  0
LINE
  5
2B1E8
330
747D
100
AcDbEntity
  8
細線
 48
50.0
100
AcDbLine
 10
9922.048160520098
 20
1344.372417449462
 30
0.0
 11
9914.009684747156
 21
1374.372417449462
 31
0.0
  0
LINE
  5
2B1E9
330
747D
100
AcDbEntity
  8
細線
100
AcDbLine
 10
9710.297779025035
 20
1374.372417449465
 30
0.0
 11
9824.921423591714
 21
1488.996062016151
 31
0.0
  0
LINE
  5
2B1EA
330
747D
100
AcDbEntity
  8
細線
100
AcDbLine
 10
9667.871372153845
 20
1374.372417449465
 30
0.0
 11
9782.495016720524
 21
1488.996062016151
 31
0.0
  0
LINE
  5
2B1EB
330
747D
100
AcDbEntity
  8
細線
100
AcDbLine
 10
9752.724185896225
 20
1374.372417449465
 30
0.0
 11
9867.347830462904
 21
1488.996062016151
 31
0.0
  0
LINE
  5
2B1EC
330
747D
100
AcDbEntity
  8
細線
 48
50.0
100
AcDbLine
 10
9724.828048151968
 20
1344.372417449464
 30
0.0
 11
9716.789572379028
 21
1374.372417449464
 31
0.0
  0
LINE
  5
2B1ED
330
747D
100
AcDbEntity
  8
細線
 48
50.0
100
AcDbLine
 10
9823.438104336034
 20
1344.372417449462
 30
0.0
 11
9815.399628563097
 21
1374.372417449462
 31
0.0
  0
LINE
  5
2B1EE
330
747D
100
AcDbEntity
  8
部品1
100
AcDbLine
 10
9826.575879029677
 20
1788.996062016152
 30
0.0
 11
9826.575879029677
 21
1488.996062016151
 31
0.0
  0
LINE
  5
2B1EF
330
747D
100
AcDbEntity
  8
細線
 48
50.0
100
AcDbLine
 10
9527.607935783851
 20
1344.372417449464
 30
0.0
 11
9519.569460010924
 21
1374.372417449464
 31
0.0
  0
LINE
  5
2B1F0
330
747D
100
AcDbEntity
  8
細線
 48
50.0
100
AcDbLine
 10
9626.217991967918
 20
1344.372417449464
 30
0.0
 11
9618.179516194985
 21
1374.372417449464
 31
0.0
  0
LINE
  5
2B1F1
330
747D
100
AcDbEntity
  8
細線
100
AcDbLine
 10
9260.297779025036
 20
1374.372417449464
 30
0.0
 11
9374.921423591713
 21
1488.996062016151
 31
0.0
  0
LINE
  5
2B1F2
330
747D
100
AcDbEntity
  8
細線
100
AcDbLine
 10
9302.724185896224
 20
1374.372417449464
 30
0.0
 11
9417.347830462905
 21
1488.996062016151
 31
0.0
  0
LINE
  5
2B1F3
330
747D
100
AcDbEntity
  8
細線
 48
50.0
100
AcDbLine
 10
9428.997879599794
 20
1344.372417449464
 30
0.0
 11
9420.959403826865
 21
1374.372417449464
 31
0.0
  0
LINE
  5
2B1F4
330
747D
100
AcDbEntity
  8
細線
 48
50.0
100
AcDbLine
 10
9330.387823415744
 20
1344.372417449464
 30
0.0
 11
9322.349347642804
 21
1374.372417449464
 31
0.0
  0
LINE
  5
2B1F5
330
747D
100
AcDbEntity
  8
細線
100
AcDbLine
 10
9745.639190788416
 20
1488.996062016151
 30
0.0
 11
9445.639190788416
 21
1788.996062016152
 31
0.0
  0
LINE
  5
2B1F6
330
747D
100
AcDbEntity
  8
細線
100
AcDbLine
 10
9809.278801095198
 20
1488.996062016153
 30
0.0
 11
9509.278801095204
 21
1788.996062016152
 31
0.0
  0
LEADER
  5
2B1F7
330
747D
100
AcDbEntity
  8
寸法
 48
50.0
100
AcDbLeader
  3
INABA_S40G
 73
     0
 74
     0
 75
     1
 40
150.0
 41
231.9898538650463
 76
     3
 10
9739.981393549577
 20
1788.996062016152
 30
0.0
 10
9828.904151841634
 20
1995.428962867574
 30
0.0
 10
9928.904151841635
 20
1995.428962867574
 30
0.0
340
2B1F8
1001
ACAD
1000
DSTYLE
1002
{
1070
   341
1005
0
1002
}
  0
MTEXT
  5
2B1F8
102
{ACAD_REACTORS
330
2B1F7
102
}
330
747D
100
AcDbEntity
  8
寸法
 62
     7
 48
50.0
100
AcDbMText
 10
9968.904151841634
 20
2110.428962867574
 30
0.0
 40
150.0
 41
1.0
 71
     4
 72
     1
  1
\A1;C.B
  7
STYLE1
 73
     1
 44
1.0
1001
ACAD
1000
MTEXTBEGIN
1070
    73
1070
     1
1070
    44
1040
1.0
1070
    74
1070
     0
1000
MTEXTEND
  0
LINE
  5
2B1F9
330
747D
100
AcDbEntity
  8
細線
 48
50.0
100
AcDbLine
 10
9895.253241276984
 20
1244.372417449462
 30
0.0
 11
9903.291717049912
 21
1214.372417449462
 31
0.0
  0
LINE
  5
2B1FA
330
747D
100
AcDbEntity
  8
細線
 48
50.0
100
AcDbLine
 10
9698.033128908868
 20
1244.372417449463
 30
0.0
 11
9706.071604681806
 21
1214.372417449463
 31
0.0
  0
LINE
  5
2B1FB
330
747D
100
AcDbEntity
  8
細線
 48
50.0
100
AcDbLine
 10
9796.643185092925
 20
1244.372417449462
 30
0.0
 11
9804.681660865854
 21
1214.372417449462
 31
0.0
  0
LINE
  5
2B1FC
330
747D
100
AcDbEntity
  8
細線
 48
50.0
100
AcDbLine
 10
9500.813016540744
 20
1244.372417449463
 30
0.0
 11
9508.851492313675
 21
1214.372417449463
 31
0.0
  0
LINE
  5
2B1FD
330
747D
100
AcDbEntity
  8
細線
 48
50.0
100
AcDbLine
 10
9599.423072724803
 20
1244.372417449463
 30
0.0
 11
9607.461548497736
 21
1214.372417449463
 31
0.0
  0
LINE
  5
2B1FE
330
747D
100
AcDbEntity
  8
細線
 48
50.0
100
AcDbLine
 10
9303.592904172637
 20
1244.372417449463
 30
0.0
 11
9311.631379945565
 21
1214.372417449463
 31
0.0
  0
LINE
  5
2B1FF
330
747D
100
AcDbEntity
  8
細線
 48
50.0
100
AcDbLine
 10
9402.202960356685
 20
1244.372417449463
 30
0.0
 11
9410.241436129624
 21
1214.372417449463
 31
0.0
  0
LINE
  5
2B200
330
747D
100
AcDbEntity
  8
細線
 48
50.0
100
AcDbLine
 10
9492.774540767802
 20
1214.372417449462
 30
0.0
 11
9535.646411556783
 21
1374.372417449462
 31
0.0
  0
LINE
  5
2B201
330
747D
100
AcDbEntity
  8
細線
 48
50.0
100
AcDbLine
 10
9295.554428399693
 20
1214.372417449463
 30
0.0
 11
9338.426299188665
 21
1374.372417449464
 31
0.0
  0
LINE
  5
2B202
330
747D
100
AcDbEntity
  8
細線
 48
50.0
100
AcDbLine
 10
9394.164484583745
 20
1214.372417449463
 30
0.0
 11
9437.036355372724
 21
1374.372417449462
 31
0.0
  0
LINE
  5
2B203
330
747D
100
AcDbEntity
  8
細線
 48
50.0
100
AcDbLine
 10
9689.994653135924
 20
1214.372417449462
 30
0.0
 11
9732.866523924897
 21
1374.372417449464
 31
0.0
  0
LINE
  5
2B204
330
747D
100
AcDbEntity
  8
細線
 48
50.0
100
AcDbLine
 10
9591.384596951865
 20
1214.372417449463
 30
0.0
 11
9634.256467740843
 21
1374.372417449462
 31
0.0
  0
LINE
  5
2B205
330
747D
100
AcDbEntity
  8
細線
 48
50.0
100
AcDbLine
 10
9887.214765504035
 20
1214.372417449462
 30
0.0
 11
9930.086636293026
 21
1374.37241744946
 31
0.0
  0
LINE
  5
2B206
330
747D
100
AcDbEntity
  8
細線
 48
50.0
100
AcDbLine
 10
9788.604709319985
 20
1214.37241744946
 30
0.0
 11
9831.476580108963
 21
1374.37241744946
 31
0.0
  0
LINE
  5
2B207
330
747D
100
AcDbEntity
  8
部品1
100
AcDbLine
 10
9976.575879029677
 20
1488.996062016151
 30
0.0
 11
9976.575879029677
 21
1214.372417449463
 31
0.0
  0
LINE
  5
2B208
330
747D
100
AcDbEntity
  8
部品1
100
AcDbLine
 10
10567.08680684881
 20
181.1410839891177
 30
0.0
 11
10567.08680684881
 21
3440.210586737209
 31
0.0
  0
TEXT
  5
2B209
330
747D
100
AcDbEntity
  8
部品1
100
AcDbText
 10
6676.541219267431
 20
3215.770671797922
 30
0.0
 40
150.0
  1
基礎詳細
  7
STYLE2
100
AcDbText
  0
LINE
  5
2B20A
330
747D
100
AcDbEntity
  8
細線
 48
50.0
100
AcDbLine
 10
9231.777767231674
 20
1344.372417449464
 30
0.0
 11
9223.739291458743
 21
1374.372417449464
 31
0.0
  0
LINE
  5
2B20B
330
747D
100
AcDbEntity
  8
細線
 48
50.0
100
AcDbLine
 10
9133.167711047612
 20
1344.372417449464
 30
0.0
 11
9125.129235274677
 21
1374.372417449464
 31
0.0
  0
LINE
  5
2B20C
330
747D
100
AcDbEntity
  8
部品1
100
AcDbLine
 10
9226.575879029677
 20
1488.996062016151
 30
0.0
 11
9226.575879029677
 21
1788.996062016152
 31
0.0
  0
LINE
  5
2B20D
330
747D
100
AcDbEntity
  8
細線
 48
50.0
100
AcDbLine
 10
9106.372791804504
 20
1244.372417449463
 30
0.0
 11
9114.411267577434
 21
1214.372417449463
 31
0.0
  0
LINE
  5
2B20E
330
747D
100
AcDbEntity
  8
細線
 48
50.0
100
AcDbLine
 10
9204.982847988564
 20
1244.372417449463
 30
0.0
 11
9213.021323761493
 21
1214.372417449463
 31
0.0
  0
LINE
  5
2B20F
330
747D
100
AcDbEntity
  8
細線
 48
50.0
100
AcDbLine
 10
7637.434225264478
 20
778.9960620161491
 30
0.0
 11
7629.395749491547
 21
808.9960620161491
 31
0.0
  0
LINE
  5
2B210
330
747D
100
AcDbEntity
  8
部品1
 48
50.0
100
AcDbLine
 10
7691.961943774062
 20
808.9960620161509
 30
0.0
 11
7691.961943774062
 21
648.9960620161508
 31
0.0
  0
LINE
  5
2B211
330
747D
100
AcDbEntity
  8
細線
 48
50.0
100
AcDbLine
 10
9098.334316031564
 20
1214.372417449463
 30
0.0
 11
9141.206186820545
 21
1374.372417449464
 31
0.0
  0
LINE
  5
2B212
330
747D
100
AcDbEntity
  8
部品1
100
AcDbLine
 10
9076.575879029677
 20
1214.37241744946
 30
0.0
 11
9076.575879029677
 21
1488.996062016151
 31
0.0
  0
TEXT
  5
2B213
330
747D
100
AcDbEntity
  8
部品1
 48
50.0
100
AcDbText
 10
8601.234250704376
 20
1155.496386219514
 30
0.0
 40
100.0
  1
ボルトの出
 50
90.0
  7
STYLE2
100
AcDbText
  0
LINE
  5
2B214
330
747D
100
AcDbEntity
  8
細線
 48
50.0
100
AcDbLine
 10
9196.944372215623
 20
1214.372417449462
 30
0.0
 11
9239.816243004606
 21
1374.372417449462
 31
0.0
  0
LINE
  5
2B215
330
747D
100
AcDbEntity
  8
部品1
 48
50.0
100
AcDbLine
 10
7211.211943774059
 20
2227.59016340258
 30
0.0
 11
7231.211943774059
 21
2237.590163402579
 31
0.0
  0
LINE
  5
2B216
330
747D
100
AcDbEntity
  8
部品1
 48
50.0
100
AcDbLine
 10
7211.211943774059
 20
2267.59016340258
 30
0.0
 11
7231.211943774059
 21
2277.590163402582
 31
0.0
  0
LINE
  5
2B217
330
747D
100
AcDbEntity
  8
細線
 48
50.0
100
AcDbLine
 10
7211.211943774059
 20
2227.59016340258
 30
0.0
 11
7211.211943774059
 21
2267.59016340258
 31
0.0
  0
LINE
  5
2B218
330
747D
100
AcDbEntity
  8
部品1
 48
50.0
100
AcDbLine
 10
7231.211943774059
 20
2237.590163402579
 30
0.0
 11
7231.211943774059
 21
2277.590163402582
 31
0.0
  0
LINE
  5
2B219
330
747D
100
AcDbEntity
  8
部品1
 48
50.0
100
AcDbLine
 10
7211.211943774059
 20
2287.59016340258
 30
0.0
 11
7231.211943774059
 21
2277.590163402582
 31
0.0
  0
LINE
  5
2B21A
330
747D
100
AcDbEntity
  8
部品1
 48
50.0
100
AcDbLine
 10
7241.211943774057
 20
2113.400172571492
 30
0.0
 11
7241.211943774057
 21
2125.400172571492
 31
0.0
  0
LINE
  5
2B21B
330
747D
100
AcDbEntity
  8
細線
 48
50.0
100
AcDbLine
 10
7171.211943774058
 20
2227.59016340258
 30
0.0
 11
7171.211943774058
 21
2267.59016340258
 31
0.0
  0
LINE
  5
2B21C
330
747D
100
AcDbEntity
  8
部品1
 48
50.0
100
AcDbLine
 10
7151.211943774057
 20
2237.590163402579
 30
0.0
 11
7151.211943774057
 21
2277.590163402582
 31
0.0
  0
LINE
  5
2B21D
330
747D
100
AcDbEntity
  8
部品1
 48
50.0
100
AcDbLine
 10
7151.211943774057
 20
2277.590163402582
 30
0.0
 11
7171.211943774058
 21
2267.59016340258
 31
0.0
  0
LINE
  5
2B21E
330
747D
100
AcDbEntity
  8
部品1
 48
50.0
100
AcDbLine
 10
7151.211943774057
 20
2237.590163402579
 30
0.0
 11
7171.211943774058
 21
2227.59016340258
 31
0.0
  0
LINE
  5
2B21F
330
747D
100
AcDbEntity
  8
部品1
 48
50.0
100
AcDbLine
 10
7151.211943774057
 20
2277.590163402582
 30
0.0
 11
7171.211943774058
 21
2287.59016340258
 31
0.0
  0
LINE
  5
2B220
330
747D
100
AcDbEntity
  8
部品1
100
AcDbLine
 10
7049.461943774058
 20
1860.996062016152
 30
0.0
 11
7098.961943774057
 21
1860.996062016152
 31
0.0
  0
ARC
  5
2B221
330
747D
100
AcDbEntity
  8
部品1
100
AcDbCircle
 10
7046.086943774058
 20
1925.121062016147
 30
0.0
 40
3.375
100
AcDbArc
 50
0.0
 51
90.0
  0
LINE
  5
2B222
330
747D
100
AcDbEntity
  8
部品1
100
AcDbLine
 10
7049.461943774058
 20
1925.121062016147
 30
0.0
 11
7049.461943774058
 21
1860.996062016152
 31
0.0
  0
LINE
  5
2B223
330
747D
100
AcDbEntity
  8
部品1
 48
50.0
100
AcDbLine
 10
7141.211943774059
 20
2125.400172571492
 30
0.0
 11
7141.211943774059
 21
2113.400172571492
 31
0.0
  0
LINE
  5
2B224
330
747D
100
AcDbEntity
  8
部品1
100
AcDbLine
 10
7078.711943774059
 20
1875.946062016151
 30
0.0
 11
7113.911943774063
 21
1875.946062016151
 31
0.0
  0
ARC
  5
2B225
330
747D
100
AcDbEntity
  8
部品1
100
AcDbCircle
 10
7078.711943774059
 20
1872.571062016153
 30
0.0
 40
3.375
100
AcDbArc
 50
90.0
 51
180.0
  0
ARC
  5
2B226
330
747D
100
AcDbEntity
  8
部品1
100
AcDbCircle
 10
7113.911943774063
 20
1872.571062016153
 30
0.0
 40
3.375
100
AcDbArc
 50
0.0
 51
90.0
  0
LINE
  5
2B227
330
747D
100
AcDbEntity
  8
部品1
100
AcDbLine
 10
7179.961943774059
 20
1850.446062016152
 30
0.0
 11
7202.461943774058
 21
1850.446062016152
 31
0.0
  0
LINE
  5
2B228
330
747D
100
AcDbEntity
  8
部品1
100
AcDbLine
 10
7184.461943774059
 20
1854.946062016152
 30
0.0
 11
7197.961943774058
 21
1854.946062016152
 31
0.0
  0
ARC
  5
2B229
330
747D
100
AcDbEntity
  8
部品1
100
AcDbCircle
 10
7098.961943774057
 20
1857.621062016152
 30
0.0
 40
3.375
100
AcDbArc
 50
0.0
 51
90.0
  0
LINE
  5
2B22A
330
747D
100
AcDbEntity
  8
部品1
100
AcDbLine
 10
7075.336943774058
 20
1872.571062016153
 30
0.0
 11
7075.336943774058
 21
1851.196062016152
 31
0.0
  0
ARC
  5
2B22B
330
747D
100
AcDbEntity
  8
部品1
100
AcDbCircle
 10
6993.211943774058
 20
1925.121062016152
 30
0.0
 40
3.375
100
AcDbArc
 50
90.0
 51
180.0
  0
LINE
  5
2B22C
330
747D
100
AcDbEntity
  8
部品1
100
AcDbLine
 10
6989.836943774058
 20
1914.996062016152
 30
0.0
 11
6989.836943774058
 21
1914.996062016152
 31
0.0
  0
LINE
  5
2B22D
330
747D
100
AcDbEntity
  8
部品1
100
AcDbLine
 10
6989.836943774058
 20
1914.996062016152
 30
0.0
 11
6989.836943774058
 21
1925.121062016152
 31
0.0
  0
LINE
  5
2B22E
330
747D
100
AcDbEntity
  8
部品1
100
AcDbLine
 10
6986.461943774059
 20
1901.496062016152
 30
0.0
 11
6986.461943774059
 21
1911.621062016152
 31
0.0
  0
ARC
  5
2B22F
330
747D
100
AcDbEntity
  8
部品1
100
AcDbCircle
 10
6989.836943774058
 20
1911.621062016152
 30
0.0
 40
3.375
100
AcDbArc
 50
90.0
 51
180.0
  0
LINE
  5
2B230
330
747D
100
AcDbEntity
  8
部品1
100
AcDbLine
 10
6935.836943774059
 20
1887.996062016152
 30
0.0
 11
6935.836943774059
 21
1898.121062016152
 31
0.0
  0
ARC
  5
2B231
330
747D
100
AcDbEntity
  8
部品1
100
AcDbCircle
 10
6939.211943774059
 20
1898.121062016152
 30
0.0
 40
3.375
100
AcDbArc
 50
90.0
 51
180.0
  0
ARC
  5
2B232
330
747D
100
AcDbEntity
  8
部品1
100
AcDbCircle
 10
6925.711943774057
 20
1881.985941644536
 30
0.0
 40
3.375
100
AcDbArc
 50
104.0362434679075
 51
180.0
  0
LINE
  5
2B233
330
747D
100
AcDbEntity
  8
部品1
100
AcDbLine
 10
6924.893386039561
 20
1885.260172582527
 30
0.0
 11
6935.836943774059
 21
1887.996062016152
 31
0.0
  0
LINE
  5
2B234
330
747D
100
AcDbEntity
  8
部品1
100
AcDbLine
 10
6939.211943774059
 20
1901.496062016152
 30
0.0
 11
6986.461943774059
 21
1901.496062016152
 31
0.0
  0
LINE
  5
2B235
330
747D
100
AcDbEntity
  8
部品1
100
AcDbLine
 10
6993.211943774058
 20
1928.496062016151
 30
0.0
 11
7046.086943774058
 21
1928.496062016147
 31
0.0
  0
ELLIPSE
  5
2B236
330
747D
100
AcDbEntity
  8
部品1
 48
50.0
100
AcDbEllipse
 10
7191.211943774057
 20
2125.400172571492
 30
0.0
 11
23.0
 21
0.0
 31
0.0
210
0.0
220
0.0
230
1.0
 40
0.3478260869565217
 41
0.0
 42
6.283185307179584
  0
ELLIPSE
  5
2B237
330
747D
100
AcDbEntity
  8
部品1
 48
50.0
100
AcDbEllipse
 10
7191.211943774057
 20
2125.400172571492
 30
0.0
 11
50.0
 21
0.0
 31
0.0
210
0.0
220
0.0
230
1.0
 40
0.4
 41
0.0
 42
6.283185307179584
  0
ELLIPSE
  5
2B238
330
747D
100
AcDbEntity
  8
部品1
 48
50.0
100
AcDbEllipse
 10
7191.211943774057
 20
2113.400172571492
 30
0.0
 11
50.0
 21
0.0
 31
0.0
210
0.0
220
0.0
230
1.0
 40
0.4
 41
3.141592653589792
 42
6.283185307179584
  0
LINE
  5
2B239
330
747D
100
AcDbEntity
  8
部品1
 48
50.0
100
AcDbLine
 10
7171.211943774058
 20
2287.59016340258
 30
0.0
 11
7211.211943774059
 21
2287.59016340258
 31
0.0
  0
ELLIPSE
  5
2B23A
330
747D
100
AcDbEntity
  8
細線
 48
50.0
100
AcDbEllipse
 10
7191.211943774057
 20
2277.590163402581
 30
0.0
 11
18.45838483258558
 21
0.0
 31
0.0
210
0.0
220
0.0
230
1.0
 40
0.2071254069489396
 41
0.0
 42
6.283185307179584
  0
LINE
  5
2B23B
330
747D
100
AcDbEntity
  8
部品1
 48
50.0
100
AcDbLine
 10
7171.211943774058
 20
2227.59016340258
 30
0.0
 11
7211.211943774059
 21
2227.59016340258
 31
0.0
  0
LINE
  5
2B23C
330
747D
100
AcDbEntity
  8
部品1
 48
50.0
100
AcDbLine
 10
7171.211943774058
 20
2267.59016340258
 30
0.0
 11
7211.211943774059
 21
2267.59016340258
 31
0.0
  0
LINE
  5
2B23D
330
747D
100
AcDbEntity
  8
細線
 48
50.0
100
AcDbLine
 10
7269.961943774061
 20
1590.406415126887
 30
0.0
 11
7431.961943774059
 21
1752.406415126886
 31
0.0
  0
LINE
  5
2B23E
330
747D
100
AcDbEntity
  8
細線
 48
50.0
100
AcDbLine
 10
7269.961943774061
 20
1556.730454672866
 30
0.0
 11
7431.961943774059
 21
1718.730454672862
 31
0.0
  0
LINE
  5
2B23F
330
747D
100
AcDbEntity
  8
部品1
100
AcDbLine
 10
7247.461943774059
 20
1485.246062016151
 30
0.0
 11
7247.461943774059
 21
1507.746062016151
 31
0.0
  0
LINE
  5
2B240
330
747D
100
AcDbEntity
  8
部品1
100
AcDbLine
 10
7269.961943774058
 20
1383.996062016151
 30
0.0
 11
7269.961943774058
 21
1788.996062016152
 31
0.0
  0
LINE
  5
2B241
330
747D
100
AcDbEntity
  8
細線
 48
50.0
100
AcDbLine
 10
7269.961943774061
 20
1523.054494218849
 30
0.0
 11
7431.961943774059
 21
1685.054494218839
 31
0.0
  0
LINE
  5
2B242
330
747D
100
AcDbEntity
  8
部品1
100
AcDbLine
 10
7084.336943774059
 20
1800.946062016151
 30
0.0
 11
7098.961943774057
 21
1800.946062016151
 31
0.0
  0
ARC
  5
2B243
330
747D
100
AcDbEntity
  8
部品1
100
AcDbCircle
 10
7120.661943774051
 20
1804.321062016152
 30
0.0
 40
3.375
100
AcDbArc
 50
180.0
 51
270.0
  0
ARC
  5
2B244
330
747D
100
AcDbEntity
  8
部品1
100
AcDbCircle
 10
7098.961943774057
 20
1804.321062016152
 30
0.0
 40
3.375
100
AcDbArc
 50
270.0
 51
0.0
  0
ARC
  5
2B245
330
747D
100
AcDbEntity
  8
部品1
100
AcDbCircle
 10
6925.711943774057
 20
1804.321062016152
 30
0.0
 40
3.375
100
AcDbArc
 50
180.0
 51
270.0
  0
LINE
  5
2B246
330
747D
100
AcDbEntity
  8
細線
 48
50.0
100
AcDbLine
 10
6914.461943774059
 20
1773.721782391032
 30
0.0
 11
6929.736223399178
 21
1788.996062016152
 31
0.0
  0
LINE
  5
2B247
330
747D
100
AcDbEntity
  8
部品1
100
AcDbLine
 10
6925.711943774057
 20
1800.946062016151
 30
0.0
 11
6940.336943774051
 21
1800.946062016151
 31
0.0
  0
LINE
  5
2B248
330
747D
100
AcDbEntity
  8
細線
 48
50.0
100
AcDbLine
 10
6914.461943774059
 20
1740.045821937024
 30
0.0
 11
6963.41218385319
 21
1788.996062016152
 31
0.0
  0
LINE
  5
2B249
330
747D
100
AcDbEntity
  8
細線
 48
50.0
100
AcDbLine
 10
6914.461943774059
 20
1706.369861483014
 30
0.0
 11
6997.088144307196
 21
1788.996062016152
 31
0.0
  0
ARC
  5
2B24A
330
747D
100
AcDbEntity
  8
部品1
100
AcDbCircle
 10
7202.461943774058
 20
1507.746062016151
 30
0.0
 40
22.5
100
AcDbArc
 50
180.0
 51
270.0
  0
LINE
  5
2B24B
330
747D
100
AcDbEntity
  8
細線
 48
50.0
100
AcDbLine
 10
6914.461943774059
 20
1436.96217785094
 30
0.0
 11
7112.461943774055
 21
1634.96217785093
 31
0.0
  0
LINE
  5
2B24C
330
747D
100
AcDbEntity
  8
部品1
100
AcDbLine
 10
7112.461943774052
 20
1383.996062016151
 30
0.0
 11
7112.461943774059
 21
1788.996062016152
 31
0.0
  0
LINE
  5
2B24D
330
747D
100
AcDbEntity
  8
細線
 48
50.0
100
AcDbLine
 10
6914.461943774059
 20
1504.314098758958
 30
0.0
 11
7112.461943774056
 21
1702.314098758955
 31
0.0
  0
LINE
  5
2B24E
330
747D
100
AcDbEntity
  8
細線
 48
50.0
100
AcDbLine
 10
6914.461943774059
 20
1470.638138304948
 30
0.0
 11
7112.461943774056
 21
1668.638138304945
 31
0.0
  0
LINE
  5
2B24F
330
747D
100
AcDbEntity
  8
部品1
100
AcDbLine
 10
7269.961943774058
 20
1383.996062016149
 30
0.0
 11
7112.461943774052
 21
1383.996062016149
 31
0.0
  0
LINE
  5
2B250
330
747D
100
AcDbEntity
  8
部品1
 48
50.0
100
AcDbLine
 10
6914.461943774059
 20
1788.996062016152
 30
0.0
 11
7431.961943774062
 21
1788.996062016152
 31
0.0
  0
LINE
  5
2B251
330
747D
100
AcDbEntity
  8
部品1
100
AcDbLine
 10
7120.661943774051
 20
1800.946062016151
 30
0.0
 11
7372.336943774051
 21
1800.946062016151
 31
0.0
  0
LINE
  5
2B252
330
747D
100
AcDbEntity
  8
部品1
100
AcDbLine
 10
7202.461943774058
 20
1485.246062016151
 30
0.0
 11
7247.461943774059
 21
1485.246062016151
 31
0.0
  0
LINE
  5
2B253
330
747D
100
AcDbEntity
  8
部品1
100
AcDbLine
 10
7202.461943774058
 20
1507.746062016151
 30
0.0
 11
7247.461943774059
 21
1507.746062016151
 31
0.0
  0
LINE
  5
2B254
330
747D
100
AcDbEntity
  8
部品1
100
AcDbLine
 10
6922.336943774059
 20
1804.321062016152
 30
0.0
 11
6922.336943774059
 21
1881.985941644536
 31
0.0
  0
LINE
  5
2B255
330
747D
100
AcDbEntity
  8
細線
100
AcDbLine
 10
7197.961943774058
 20
1800.946062016151
 30
0.0
 11
7197.961943774058
 21
1854.946062016152
 31
0.0
  0
LINE
  5
2B256
330
747D
100
AcDbEntity
  8
細線
100
AcDbLine
 10
7184.461943774062
 20
1800.946062016151
 30
0.0
 11
7184.461943774059
 21
1854.946062016152
 31
0.0
  0
LINE
  5
2B257
330
747D
100
AcDbEntity
  8
部品1
100
AcDbLine
 10
7102.336943774059
 20
1857.621062016152
 30
0.0
 11
7102.336943774059
 21
1804.321062016152
 31
0.0
  0
LINE
  5
2B258
330
747D
100
AcDbEntity
  8
部品1
100
AcDbLine
 10
7117.286943774061
 20
1872.571062016153
 30
0.0
 11
7117.286943774054
 21
1804.321062016152
 31
0.0
  0
LINE
  5
2B259
330
747D
100
AcDbEntity
  8
部品1
100
AcDbLine
 10
7202.461943774058
 20
1507.746062016151
 30
0.0
 11
7202.461943774055
 21
1850.446062016152
 31
0.0
  0
LINE
  5
2B25A
330
747D
100
AcDbEntity
  8
部品1
100
AcDbLine
 10
7179.961943774059
 20
1507.746062016151
 30
0.0
 11
7179.961943774054
 21
1850.446062016152
 31
0.0
  0
TEXT
  5
2B25B
330
747D
100
AcDbEntity
  8
部品1
 48
50.0
100
AcDbText
 10
6396.787066482862
 20
1503.044802370221
 30
0.0
 40
100.0
  1
▽G.L
  7
STYLE2
100
AcDbText
  0
LWPOLYLINE
  5
2B25C
330
747D
100
AcDbEntity
  8
部品1
 48
50.0
100
AcDbPolyline
 90
        2
 70
     0
 43
10.0
 10
6396.787066482864
 20
1488.996062016153
 10
6914.461943774059
 20
1488.996062016153
  0
LINE
  5
2B25D
330
747D
100
AcDbEntity
  8
部品1
 48
50.0
100
AcDbLine
 10
7431.961943774059
 20
1108.996062016151
 30
0.0
 11
7591.961943774059
 21
1108.996062016151
 31
0.0
  0
LINE
  5
2B25E
330
747D
100
AcDbEntity
  8
細線
 48
50.0
100
AcDbLine
 10
7440.214112896346
 20
778.9960620161519
 30
0.0
 11
7432.175637123416
 21
808.9960620161509
 31
0.0
  0
LINE
  5
2B25F
330
747D
100
AcDbEntity
  8
細線
 48
50.0
100
AcDbLine
 10
7538.824169080419
 20
778.9960620161491
 30
0.0
 11
7530.785693307485
 21
808.9960620161491
 31
0.0
  0
LINE
  5
2B260
330
747D
100
AcDbEntity
  8
細線
 48
50.0
100
AcDbLine
 10
7242.994000528245
 20
778.9960620161519
 30
0.0
 11
7234.955524755313
 21
808.9960620161509
 31
0.0
  0
LINE
  5
2B261
330
747D
100
AcDbEntity
  8
細線
 48
50.0
100
AcDbLine
 10
7341.604056712302
 20
778.9960620161519
 30
0.0
 11
7333.565580939367
 21
808.9960620161509
 31
0.0
  0
LINE
  5
2B262
330
747D
100
AcDbEntity
  8
細線
 48
50.0
100
AcDbLine
 10
7296.77464155955
 20
808.9960620161509
 30
0.0
 11
7591.961943774059
 21
1104.183364230661
 31
0.0
  0
LINE
  5
2B263
330
747D
100
AcDbEntity
  8
細線
 48
50.0
100
AcDbLine
 10
7330.450602013563
 20
808.9960620161509
 30
0.0
 11
7591.961943774059
 21
1070.507403776644
 31
0.0
  0
LINE
  5
2B264
330
747D
100
AcDbEntity
  8
細線
 48
50.0
100
AcDbLine
 10
7364.126562467571
 20
808.9960620161509
 30
0.0
 11
7591.961943774059
 21
1036.831443322646
 31
0.0
  0
LINE
  5
2B265
330
747D
100
AcDbEntity
  8
部品1
 48
50.0
100
AcDbLine
 10
7591.961943774059
 20
1108.996062016151
 30
0.0
 11
7591.961943774059
 21
808.9960620161509
 31
0.0
  0
LINE
  5
2B266
330
747D
100
AcDbEntity
  8
細線
 48
50.0
100
AcDbLine
 10
7045.773888160129
 20
778.9960620161519
 30
0.0
 11
7037.735412387198
 21
808.9960620161509
 31
0.0
  0
LINE
  5
2B267
330
747D
100
AcDbEntity
  8
細線
 48
50.0
100
AcDbLine
 10
7144.383944344188
 20
778.9960620161519
 30
0.0
 11
7136.345468571254
 21
808.9960620161509
 31
0.0
  0
LINE
  5
2B268
330
747D
100
AcDbEntity
  8
細線
 48
50.0
100
AcDbLine
 10
6848.553775792
 20
778.9960620161519
 30
0.0
 11
6840.515300019068
 21
808.9960620161509
 31
0.0
  0
LINE
  5
2B269
330
747D
100
AcDbEntity
  8
細線
 48
50.0
100
AcDbLine
 10
6947.163831976064
 20
778.9960620161519
 30
0.0
 11
6939.125356203131
 21
808.9960620161509
 31
0.0
  0
LINE
  5
2B26A
330
747D
100
AcDbEntity
  8
細線
 48
50.0
100
AcDbLine
 10
7027.366957927475
 20
808.9960620161509
 30
0.0
 11
7431.961943774057
 21
1213.591047862734
 31
0.0
  0
LINE
  5
2B26B
330
747D
100
AcDbEntity
  8
細線
 48
50.0
100
AcDbLine
 10
7061.042918381487
 20
808.9960620161509
 30
0.0
 11
7431.961943774059
 21
1179.915087408717
 31
0.0
  0
LINE
  5
2B26C
330
747D
100
AcDbEntity
  8
細線
 48
50.0
100
AcDbLine
 10
7094.718878835495
 20
808.9960620161509
 30
0.0
 11
7431.961943774059
 21
1146.239126954722
 31
0.0
  0
LINE
  5
2B26D
330
747D
100
AcDbEntity
  8
細線
 48
50.0
100
AcDbLine
 10
7413.419193653247
 20
678.9960620161508
 30
0.0
 11
7421.457669426196
 21
648.9960620161508
 31
0.0
  0
LINE
  5
2B26E
330
747D
100
AcDbEntity
  8
細線
 48
50.0
100
AcDbLine
 10
7512.029249837309
 20
678.9960620161491
 30
0.0
 11
7520.067725610243
 21
648.9960620161491
 31
0.0
  0
LINE
  5
2B26F
330
747D
100
AcDbEntity
  8
細線
 48
50.0
100
AcDbLine
 10
7216.199081285131
 20
678.9960620161508
 30
0.0
 11
7224.237557058066
 21
648.9960620161508
 31
0.0
  0
LINE
  5
2B270
330
747D
100
AcDbEntity
  8
細線
 48
50.0
100
AcDbLine
 10
7314.80913746919
 20
678.9960620161508
 30
0.0
 11
7322.847613242124
 21
648.9960620161508
 31
0.0
  0
LINE
  5
2B271
330
747D
100
AcDbEntity
  8
細線
 48
50.0
100
AcDbLine
 10
7018.978968917018
 20
678.9960620161508
 30
0.0
 11
7027.017444689953
 21
648.9960620161508
 31
0.0
  0
LINE
  5
2B272
330
747D
100
AcDbEntity
  8
細線
 48
50.0
100
AcDbLine
 10
7117.589025101075
 20
678.9960620161508
 30
0.0
 11
7125.627500874009
 21
648.9960620161508
 31
0.0
  0
LINE
  5
2B273
330
747D
100
AcDbEntity
  8
細線
 48
50.0
100
AcDbLine
 10
6821.758856548888
 20
678.9960620161508
 30
0.0
 11
6829.797332321821
 21
648.9960620161508
 31
0.0
  0
LINE
  5
2B274
330
747D
100
AcDbEntity
  8
細線
 48
50.0
100
AcDbLine
 10
6920.368912732953
 20
678.9960620161508
 30
0.0
 11
6928.407388505887
 21
648.9960620161508
 31
0.0
  0
LINE
  5
2B275
330
747D
100
AcDbEntity
  8
細線
 48
50.0
100
AcDbLine
 10
7405.380717880311
 20
648.9960620161491
 30
0.0
 11
7448.252588669278
 21
808.9960620161509
 31
0.0
  0
LINE
  5
2B276
330
747D
100
AcDbEntity
  8
細線
 48
50.0
100
AcDbLine
 10
7503.990774064373
 20
648.9960620161472
 30
0.0
 11
7546.862644853352
 21
808.9960620161473
 31
0.0
  0
LINE
  5
2B277
330
747D
100
AcDbEntity
  8
細線
 48
50.0
100
AcDbLine
 10
7208.160605512195
 20
648.9960620161491
 30
0.0
 11
7251.032476301176
 21
808.9960620161491
 31
0.0
  0
LINE
  5
2B278
330
747D
100
AcDbEntity
  8
細線
 48
50.0
100
AcDbLine
 10
7010.940493144076
 20
648.9960620161508
 30
0.0
 11
7053.812363933054
 21
808.9960620161509
 31
0.0
  0
LINE
  5
2B279
330
747D
100
AcDbEntity
  8
細線
 48
50.0
100
AcDbLine
 10
7109.550549328135
 20
648.9960620161508
 30
0.0
 11
7152.422420117115
 21
808.9960620161491
 31
0.0
  0
LINE
  5
2B27A
330
747D
100
AcDbEntity
  8
細線
 48
50.0
100
AcDbLine
 10
7306.770661696248
 20
648.9960620161508
 30
0.0
 11
7349.642532485233
 21
808.9960620161491
 31
0.0
  0
LINE
  5
2B27B
330
747D
100
AcDbEntity
  8
細線
 48
50.0
100
AcDbLine
 10
6813.720380775954
 20
648.9960620161508
 30
0.0
 11
6856.592251564933
 21
808.9960620161509
 31
0.0
  0
LINE
  5
2B27C
330
747D
100
AcDbEntity
  8
細線
 48
50.0
100
AcDbLine
 10
6912.330436960011
 20
648.9960620161491
 30
0.0
 11
6955.202307748989
 21
808.9960620161491
 31
0.0
  0
LINE
  5
2B27D
330
747D
100
AcDbEntity
  8
細線
 48
50.0
100
AcDbLine
 10
6754.46194377405
 20
1074.906415126883
 30
0.0
 11
6788.551590663326
 21
1108.996062016151
 31
0.0
  0
LINE
  5
2B27E
330
747D
100
AcDbEntity
  8
細線
 48
50.0
100
AcDbLine
 10
6654.461943774058
 20
790.670963223376
 30
0.0
 11
6659.372139196803
 21
808.9960620161509
 31
0.0
  0
LINE
  5
2B27F
330
747D
100
AcDbEntity
  8
細線
 48
50.0
100
AcDbLine
 10
6749.943719607934
 20
778.9960620161519
 30
0.0
 11
6741.905243835001
 21
808.9960620161509
 31
0.0
  0
LINE
  5
2B280
330
747D
100
AcDbEntity
  8
部品1
 48
50.0
100
AcDbLine
 10
6754.461943774058
 20
808.9960620161509
 30
0.0
 11
6754.461943774058
 21
1108.996062016151
 31
0.0
  0
LINE
  5
2B281
330
747D
100
AcDbEntity
  8
細線
 48
50.0
100
AcDbLine
 10
6723.148800364822
 20
678.9960620161508
 30
0.0
 11
6731.187276137756
 21
648.9960620161508
 31
0.0
  0
LINE
  5
2B282
330
747D
100
AcDbEntity
  8
部品1
 48
50.0
100
AcDbLine
 10
6654.461943774062
 20
648.9960620161508
 30
0.0
 11
6654.461943774062
 21
808.9960620161509
 31
0.0
  0
LINE
  5
2B283
330
747D
100
AcDbEntity
  8
細線
 48
50.0
100
AcDbLine
 10
6715.110324591882
 20
648.9960620161491
 30
0.0
 11
6757.98219538086
 21
808.9960620161491
 31
0.0
  0
LINE
  5
2B284
330
747D
100
AcDbEntity
  8
細線
 48
50.0
100
AcDbLine
 10
6754.46194377405
 20
1041.23045467287
 30
0.0
 11
6822.22755111734
 21
1108.996062016151
 31
0.0
  0
LINE
  5
2B285
330
747D
100
AcDbEntity
  8
細線
 48
50.0
100
AcDbLine
 10
6754.46194377405
 20
1007.554494218864
 30
0.0
 11
6855.903511571345
 21
1108.996062016151
 31
0.0
  0
LINE
  5
2B286
330
747D
100
AcDbEntity
  8
部品1
 48
50.0
100
AcDbLine
 10
6754.461943774058
 20
1108.996062016151
 30
0.0
 11
6914.461943774059
 21
1108.996062016151
 31
0.0
  0
LINE
  5
2B287
330
747D
100
AcDbEntity
  8
細線
 48
50.0
100
AcDbLine
 10
6757.959274295401
 20
808.9960620161509
 30
0.0
 11
7431.961943774057
 21
1482.998731494808
 31
0.0
  0
LINE
  5
2B288
330
747D
100
AcDbEntity
  8
部品1
100
AcDbLine
 10
7431.961943774057
 20
1108.996062016151
 30
0.0
 11
7431.961943774059
 21
1788.996062016152
 31
0.0
  0
LINE
  5
2B289
330
747D
100
AcDbEntity
  8
部品1
 48
50.0
100
AcDbLine
 10
6914.461943774059
 20
1108.996062016151
 30
0.0
 11
6914.461943774059
 21
1788.996062016152
 31
0.0
  0
LINE
  5
2B28A
330
747D
100
AcDbEntity
  8
細線
 48
50.0
100
AcDbLine
 10
6914.461943774059
 20
1201.230454672874
 30
0.0
 11
7112.461943774049
 21
1399.230454672859
 31
0.0
  0
LINE
  5
2B28B
330
747D
100
AcDbEntity
  8
細線
 48
50.0
100
AcDbLine
 10
6914.461943774059
 20
1167.554494218864
 30
0.0
 11
7130.903511571353
 21
1383.996062016149
 31
0.0
  0
LINE
  5
2B28C
330
747D
100
AcDbEntity
  8
細線
 48
50.0
100
AcDbLine
 10
6914.461943774059
 20
1234.906415126883
 30
0.0
 11
7112.461943774049
 21
1432.906415126877
 31
0.0
  0
LINE
  5
2B28D
330
747D
100
AcDbEntity
  8
細線
 48
50.0
100
AcDbLine
 10
6825.31119520342
 20
808.9960620161509
 30
0.0
 11
7431.961943774059
 21
1415.646810586786
 31
0.0
  0
LINE
  5
2B28E
330
747D
100
AcDbEntity
  8
細線
 48
50.0
100
AcDbLine
 10
6791.635234749413
 20
808.9960620161509
 30
0.0
 11
7431.961943774062
 21
1449.322771040795
 31
0.0
  0
TEXT
  5
2B28F
330
747D
100
AcDbEntity
  8
部品1
 48
50.0
100
AcDbText
 10
7437.403924129593
 20
2233.844412968902
 30
0.0
 40
100.0
  1
基礎ボルト(市販品)
  7
STYLE2
100
AcDbText
  0
DIMENSION
  5
2B290
330
747D
100
AcDbEntity
  8
寸法
 48
50.0
100
AcDbDimension
  2
*D39
 10
8404.366026133898
 20
1788.996062016152
 30
0.0
 11
8404.366026133898
 21
1322.98715859467
 31
0.0
 70
   160
  1
20～25
 71
     5
 42
65.94999999999981
  3
INABA_S40G
100
AcDbAlignedDimension
 13
7197.961943774058
 23
1854.946062016152
 33
0.0
 14
7431.961943774059
 24
1788.996062016152
 34
0.0
 50
90.0
100
AcDbRotatedDimension
1001
ACAD
1000
DSTYLE
1002
{
1070
   341
1005
0
1002
}
  0
LINE
  5
2B291
330
747D
100
AcDbEntity
  8
細線
 48
50.0
100
AcDbLine
 10
7602.600830248426
 20
648.9960620161491
 30
0.0
 11
7645.472701037409
 21
808.9960620161473
 31
0.0
  0
LINE
  5
2B292
330
747D
100
AcDbEntity
  8
部品1
 48
50.0
100
AcDbLine
 10
7691.961943774062
 20
648.9960620161508
 30
0.0
 11
6654.461943774062
 21
648.9960620161508
 31
0.0
  0
LINE
  5
2B293
330
747D
100
AcDbEntity
  8
細線
 48
50.0
100
AcDbLine
 10
7610.639306021369
 20
678.9960620161491
 30
0.0
 11
7618.677781794301
 21
648.9960620161491
 31
0.0
  0
LINE
  5
2B294
330
747D
100
AcDbEntity
  8
部品1
 48
50.0
100
AcDbLine
 10
7691.961943774062
 20
808.9960620161509
 30
0.0
 11
6654.461943774062
 21
808.9960620161509
 31
0.0
  0
LWPOLYLINE
  5
2B295
330
747D
100
AcDbEntity
  8
部品1
 48
50.0
100
AcDbPolyline
 90
        2
 70
     0
 43
10.0
 10
7431.961943774059
 20
1488.996062016153
 10
7799.090023023288
 20
1488.996062016153
  0
DIMENSION
  5
2B296
330
747D
100
AcDbEntity
  8
寸法
 48
50.0
100
AcDbDimension
  2
*D40
 10
8059.297693485113
 20
1383.99606201615
 30
0.0
 11
7959.297693485114
 21
1586.496062016152
 31
0.0
 70
    32
  1
180
 71
     5
 42
405.0000000000022
  3
INABA_S40G
100
AcDbAlignedDimension
 13
7431.961943774059
 23
1788.996062016152
 33
0.0
 14
7431.961943774059
 24
1383.99606201615
 34
0.0
 50
90.0
100
AcDbRotatedDimension
1001
ACAD
1000
DSTYLE
1002
{
1070
   341
1005
0
1002
}
  0
MTEXT
  5
2B297
102
{ACAD_REACTORS
330
2B298
102
}
330
747D
100
AcDbEntity
  8
部品1
 62
     7
 48
50.0
100
AcDbMText
 10
7443.142521798207
 20
2119.475219707689
 30
0.0
 40
100.0
 41
1.0
 71
     4
 72
     1
  1
M10X160
  7
STYLE2
 73
     1
 44
1.0
1001
ACAD
1000
MTEXTBEGIN
1070
    73
1070
     1
1070
    44
1040
1.0
1070
    74
1070
     0
1000
MTEXTEND
  0
LEADER
  5
2B298
330
747D
100
AcDbEntity
  8
寸法
 48
50.0
100
AcDbLeader
  3
INABA_S40G
 73
     0
 74
     0
 75
     1
 40
100.0
 41
543.75
 76
     3
 10
7202.461943774058
 20
1850.446062016152
 30
0.0
 10
7303.142521798207
 20
2029.475219707689
 30
0.0
 10
7403.142521798208
 20
2029.475219707689
 30
0.0
340
2B297
1001
ACAD
1000
DSTYLE
1002
{
1070
   341
1005
0
1002
}
  0
LINE
  5
2B299
330
747D
100
AcDbEntity
  8
細線
 48
50.0
100
AcDbLine
 10
4789.412802302566
 20
1740.045821937024
 30
0.0
 11
4838.363042381697
 21
1788.996062016152
 31
0.0
  0
LINE
  5
2B29A
330
747D
100
AcDbEntity
  8
細線
 48
50.0
100
AcDbLine
 10
4789.412802302566
 20
1706.369861483014
 30
0.0
 11
4872.039002835703
 21
1788.996062016152
 31
0.0
  0
LINE
  5
2B29B
330
747D
100
AcDbEntity
  8
細線
 48
50.0
100
AcDbLine
 10
4789.412802302566
 20
1773.721782391032
 30
0.0
 11
4804.687081927685
 21
1788.996062016152
 31
0.0
  0
ARC
  5
2B29C
330
747D
100
AcDbEntity
  8
部品1
 48
50.0
100
AcDbCircle
 10
4909.412802302566
 20
1614.314098758958
 30
0.0
 40
30.0
100
AcDbArc
 50
0.0
 51
180.0
  0
CIRCLE
  5
2B29D
330
747D
100
AcDbEntity
  8
部品1
 48
50.0
100
AcDbCircle
 10
4909.412802302566
 20
1614.314098758958
 30
0.0
 40
10.0
  0
LINE
  5
2B29E
330
747D
100
AcDbEntity
  8
細線
 48
50.0
100
AcDbLine
 10
4899.412802302566
 20
1580.638138304948
 30
0.0
 11
4919.412802302566
 21
1600.638138304948
 31
0.0
  0
LINE
  5
2B29F
330
747D
100
AcDbEntity
  8
細線
 48
50.0
100
AcDbLine
 10
4939.412802302566
 20
1586.962177850939
 30
0.0
 11
5029.412802302566
 21
1676.96217785094
 31
0.0
  0
LINE
  5
2B2A0
330
747D
100
AcDbEntity
  8
細線
 48
50.0
100
AcDbLine
 10
4938.85368638505
 20
1620.079022387428
 30
0.0
 11
5029.412802302566
 21
1710.638138304948
 31
0.0
  0
LINE
  5
2B2A1
330
747D
100
AcDbEntity
  8
細線
 48
50.0
100
AcDbLine
 10
4925.028330430654
 20
1639.929626887045
 30
0.0
 11
5029.412802302566
 21
1744.314098758957
 31
0.0
  0
LINE
  5
2B2A2
330
747D
100
AcDbEntity
  8
部品1
 48
50.0
100
AcDbLine
 10
4789.412802302566
 20
1788.996062016152
 30
0.0
 11
5029.412802302566
 21
1788.996062016152
 31
0.0
  0
LINE
  5
2B2A3
330
747D
100
AcDbEntity
  8
細線
 48
50.0
100
AcDbLine
 10
4789.412802302566
 20
1436.96217785094
 30
0.0
 11
4894.105704839184
 21
1541.655080387554
 31
0.0
  0
LINE
  5
2B2A4
330
747D
100
AcDbEntity
  8
部品1
 48
50.0
100
AcDbLine
 10
4899.412802302566
 20
1541.655080387554
 30
0.0
 11
4879.412802302566
 21
1541.655080387559
 31
0.0
  0
LINE
  5
2B2A5
330
747D
100
AcDbEntity
  8
細線
 48
50.0
100
AcDbLine
 10
4939.412802302573
 20
1317.554494218864
 30
0.0
 11
5029.41280230256
 21
1407.554494218864
 31
0.0
  0
LINE
  5
2B2A6
330
747D
100
AcDbEntity
  8
細線
 48
50.0
100
AcDbLine
 10
4939.412802302566
 20
1384.906415126883
 30
0.0
 11
5029.412802302566
 21
1474.906415126883
 31
0.0
  0
LINE
  5
2B2A7
330
747D
100
AcDbEntity
  8
細線
 48
50.0
100
AcDbLine
 10
4939.412802302573
 20
1351.230454672877
 30
0.0
 11
5029.41280230256
 21
1441.23045467287
 31
0.0
  0
LINE
  5
2B2A8
330
747D
100
AcDbEntity
  8
細線
 48
50.0
100
AcDbLine
 10
4789.412802302566
 20
1470.638138304948
 30
0.0
 11
4879.412802302566
 21
1560.638138304948
 31
0.0
  0
LINE
  5
2B2A9
330
747D
100
AcDbEntity
  8
細線
 48
50.0
100
AcDbLine
 10
4789.412802302566
 20
1504.314098758958
 30
0.0
 11
4879.412802302566
 21
1594.314098758958
 31
0.0
  0
LINE
  5
2B2AA
330
747D
100
AcDbEntity
  8
細線
 48
50.0
100
AcDbLine
 10
4899.412802302566
 20
1546.96217785094
 30
0.0
 11
4919.412802302566
 21
1566.96217785094
 31
0.0
  0
LINE
  5
2B2AB
330
747D
100
AcDbEntity
  8
部品1
 48
50.0
100
AcDbLine
 10
4879.412802302566
 20
1541.655080387559
 30
0.0
 11
4879.412802302566
 21
1614.314098758958
 31
0.0
  0
LINE
  5
2B2AC
330
747D
100
AcDbEntity
  8
部品1
 48
50.0
100
AcDbLine
 10
4899.412802302566
 20
1541.655080387554
 30
0.0
 11
4899.412802302566
 21
1614.314098758958
 31
0.0
  0
LEADER
  5
2B2AD
330
747D
100
AcDbEntity
  8
寸法
 48
50.0
100
AcDbLeader
  3
INABA_S40G
 71
     0
 73
     0
 74
     0
 75
     1
 40
100.0
 41
222.7272727272727
 76
     3
 10
4909.412802302565
 20
1614.314098758958
 30
0.0
 10
5008.020223586809
 20
1540.580513639811
 30
0.0
 10
5108.020223586809
 20
1540.580513639811
 30
0.0
1001
ACAD
1000
DSTYLE
1002
{
1070
   341
1005
0
1002
}
  0
LWPOLYLINE
  5
2B2AE
330
747D
100
AcDbEntity
  8
部品1
 48
50.0
100
AcDbPolyline
 90
        2
 70
     0
 43
10.0
 10
5029.412802302565
 20
1488.996062016153
 10
5547.087679593762
 20
1488.996062016153
  0
MTEXT
  5
2B2AF
102
{ACAD_REACTORS
330
2B2AD
102
}
330
747D
100
AcDbEntity
  8
寸法
 62
     7
 48
50.0
100
AcDbMText
 10
5133.020223586809
 20
1615.580513639811
 30
0.0
 40
100.0
 41
1.0
 71
     4
 72
     1
  1
D13
  7
STYLE2
 73
     1
 44
1.0
1001
ACAD
1000
MTEXTBEGIN
1070
    73
1070
     1
1070
    44
1040
1.0
1070
    74
1070
     0
1000
MTEXTEND
  0
LINE
  5
2B2B0
330
747D
100
AcDbEntity
  8
細線
 48
50.0
100
AcDbLine
 10
5216.554915240811
 20
778.9960620161519
 30
0.0
 11
5208.516439467876
 21
808.9960620161509
 31
0.0
  0
LINE
  5
2B2B1
330
747D
100
AcDbEntity
  8
細線
 48
50.0
100
AcDbLine
 10
5171.725500088058
 20
808.9960620161509
 30
0.0
 11
5189.412802302566
 21
826.6833642306592
 31
0.0
  0
MTEXT
  5
2B2B2
102
{ACAD_REACTORS
330
2B2F1
102
}
330
747D
100
AcDbEntity
  8
寸法
 62
     7
 48
50.0
100
AcDbMText
 10
5318.572377060922
 20
914.7497258374347
 30
0.0
 40
100.0
 41
1.0
 71
     4
 72
     1
  1
D10
  7
STYLE2
 73
     1
 44
1.0
1001
ACAD
1000
MTEXTBEGIN
1070
    73
1070
     1
1070
    44
1040
1.0
1070
    74
1070
     0
1000
MTEXTEND
  0
LINE
  5
2B2B3
330
747D
100
AcDbEntity
  8
部品1
 48
50.0
100
AcDbLine
 10
5189.412802302566
 20
1108.996062016151
 30
0.0
 11
5189.412802302566
 21
808.9960620161509
 31
0.0
  0
LINE
  5
2B2B4
330
747D
100
AcDbEntity
  8
細線
 48
50.0
100
AcDbLine
 10
5189.759995997698
 20
678.9960620161508
 30
0.0
 11
5197.798471770632
 21
648.9960620161508
 31
0.0
  0
LINE
  5
2B2B5
330
747D
100
AcDbEntity
  8
細線
 48
50.0
100
AcDbLine
 10
5288.370052181757
 20
678.9960620161508
 30
0.0
 11
5289.412802302566
 21
675.1044655856949
 31
0.0
  0
LINE
  5
2B2B6
330
747D
100
AcDbEntity
  8
細線
 48
50.0
100
AcDbLine
 10
5280.33157640882
 20
648.9960620161491
 30
0.0
 11
5289.412802302566
 21
682.8876584466361
 31
0.0
  0
MTEXT
  5
2B2B7
102
{ACAD_REACTORS
330
2B2EF
102
}
330
747D
100
AcDbEntity
  8
寸法
 62
     7
 48
50.0
100
AcDbMText
 10
5331.58587212913
 20
587.3097048509594
 30
0.0
 40
100.0
 41
1.0
 71
     4
 72
     1
  1
\A1;D10@300
  7
STYLE2
 73
     1
 44
1.0
1001
ACAD
1000
MTEXTBEGIN
1070
    73
1070
     1
1070
    44
1040
1.0
1070
    74
1070
     0
1000
MTEXTEND
  0
LINE
  5
2B2B8
330
747D
100
AcDbEntity
  8
部品1
 48
50.0
100
AcDbLine
 10
5289.412802302571
 20
808.9960620161509
 30
0.0
 11
5289.412802302571
 21
648.9960620161508
 31
0.0
  0
LINE
  5
2B2B9
330
747D
100
AcDbEntity
  8
細線
 48
50.0
100
AcDbLine
 10
5181.721520224757
 20
648.9960620161508
 30
0.0
 11
5224.59339101374
 21
808.9960620161491
 31
0.0
  0
LINE
  5
2B2BA
330
747D
100
AcDbEntity
  8
部品1
 48
50.0
100
AcDbLine
 10
4899.412802302566
 20
1031.655080387554
 30
0.0
 11
4879.412802302566
 21
1031.655080387554
 31
0.0
  0
LINE
  5
2B2BB
330
747D
100
AcDbEntity
  8
細線
 48
50.0
100
AcDbLine
 10
4889.245111649321
 20
1031.655080387554
 30
0.0
 11
4919.412802302574
 21
1061.822771040803
 31
0.0
  0
LINE
  5
2B2BC
330
747D
100
AcDbEntity
  8
細線
 48
50.0
100
AcDbLine
 10
4899.412802302566
 20
1008.14681058679
 30
0.0
 11
4919.412802302574
 21
1028.14681058679
 31
0.0
  0
LINE
  5
2B2BD
330
747D
100
AcDbEntity
  8
細線
 48
50.0
100
AcDbLine
 10
4939.412802302573
 20
1081.822771040803
 30
0.0
 11
5029.41280230256
 21
1171.822771040795
 31
0.0
  0
LINE
  5
2B2BE
330
747D
100
AcDbEntity
  8
細線
 48
50.0
100
AcDbLine
 10
4939.412802302573
 20
1115.498731494813
 30
0.0
 11
5029.41280230256
 21
1205.498731494808
 31
0.0
  0
LINE
  5
2B2BF
330
747D
100
AcDbEntity
  8
細線
 48
50.0
100
AcDbLine
 10
4939.412802302573
 20
1048.14681058679
 30
0.0
 11
5029.41280230256
 21
1138.14681058679
 31
0.0
  0
LINE
  5
2B2C0
330
747D
100
AcDbEntity
  8
細線
 48
50.0
100
AcDbLine
 10
4969.669737364002
 20
808.9960620161509
 30
0.0
 11
5089.670847170421
 21
928.9971718225752
 31
0.0
  0
LINE
  5
2B2C1
330
747D
100
AcDbEntity
  8
部品1
 48
50.0
100
AcDbLine
 10
5119.412802302566
 20
948.9960620161509
 30
0.0
 11
5119.412802302566
 21
928.996062016151
 31
0.0
  0
LINE
  5
2B2C2
330
747D
100
AcDbEntity
  8
細線
 48
50.0
100
AcDbLine
 10
5117.944859056752
 20
778.9960620161519
 30
0.0
 11
5109.906383283817
 21
808.9960620161509
 31
0.0
  0
CIRCLE
  5
2B2C3
330
747D
100
AcDbEntity
  8
部品1
 48
50.0
100
AcDbCircle
 10
5069.412802302566
 20
958.9960620161509
 30
0.0
 40
10.0
  0
LINE
  5
2B2C4
330
747D
100
AcDbEntity
  8
細線
 48
50.0
100
AcDbLine
 10
5019.334802872695
 20
778.9960620161519
 30
0.0
 11
5011.296327099761
 21
808.9960620161509
 31
0.0
  0
ARC
  5
2B2C5
330
747D
100
AcDbEntity
  8
部品1
 48
50.0
100
AcDbCircle
 10
4909.412802302566
 20
958.9960620161509
 30
0.0
 40
30.0
100
AcDbArc
 50
340.5287793654709
 51
0.0
  0
LINE
  5
2B2C6
330
747D
100
AcDbEntity
  8
細線
 48
50.0
100
AcDbLine
 10
4920.724746688637
 20
778.9960620161519
 30
0.0
 11
4912.686270915703
 21
808.9960620161509
 31
0.0
  0
ARC
  5
2B2C7
330
747D
100
AcDbEntity
  8
部品1
 48
50.0
100
AcDbCircle
 10
4909.412802302566
 20
958.9960620161509
 30
0.0
 40
30.0
100
AcDbArc
 50
180.0
 51
199.471220634529
  0
LINE
  5
2B2C8
330
747D
100
AcDbEntity
  8
細線
 48
50.0
100
AcDbLine
 10
4822.11469050457
 20
778.9960620161519
 30
0.0
 11
4814.076214731638
 21
808.9960620161509
 31
0.0
  0
CIRCLE
  5
2B2C9
330
747D
100
AcDbEntity
  8
部品1
 48
50.0
100
AcDbCircle
 10
4909.412802302566
 20
958.9960620161509
 30
0.0
 40
10.0
  0
LINE
  5
2B2CA
330
747D
100
AcDbEntity
  8
細線
 48
50.0
100
AcDbLine
 10
4935.993776909996
 20
808.9960620161509
 30
0.0
 11
5055.993776909996
 21
928.996062016151
 31
0.0
  0
LINE
  5
2B2CB
330
747D
100
AcDbEntity
  8
細線
 48
50.0
100
AcDbLine
 10
4902.317816455983
 20
808.9960620161509
 30
0.0
 11
5022.317816455983
 21
928.996062016151
 31
0.0
  0
LINE
  5
2B2CC
330
747D
100
AcDbEntity
  8
細線
 48
50.0
100
AcDbLine
 10
4772.910132823908
 20
948.9960620161509
 30
0.0
 11
4919.412802302566
 21
1095.498731494808
 31
0.0
  0
LINE
  5
2B2CD
330
747D
100
AcDbEntity
  8
細線
 48
50.0
100
AcDbLine
 10
4840.262053731927
 20
948.9960620161509
 30
0.0
 11
4879.412802302566
 21
988.1468105867895
 31
0.0
  0
LINE
  5
2B2CE
330
747D
100
AcDbEntity
  8
部品1
 48
50.0
100
AcDbLine
 10
4879.412802302566
 20
1031.655080387554
 30
0.0
 11
4879.412802302566
 21
958.9960620161509
 31
0.0
  0
LINE
  5
2B2CF
330
747D
100
AcDbEntity
  8
細線
 48
50.0
100
AcDbLine
 10
4806.586093277921
 20
948.9960620161509
 30
0.0
 11
4879.412802302566
 21
1021.822771040799
 31
0.0
  0
LINE
  5
2B2D0
330
747D
100
AcDbEntity
  8
部品1
 48
50.0
100
AcDbLine
 10
4899.412802302566
 20
1031.655080387554
 30
0.0
 11
4899.412802302566
 21
958.9960620161509
 31
0.0
  0
LINE
  5
2B2D1
330
747D
100
AcDbEntity
  8
細線
 48
50.0
100
AcDbLine
 10
4629.412802302558
 20
1041.23045467287
 30
0.0
 11
4697.178409645847
 21
1108.996062016151
 31
0.0
  0
LINE
  5
2B2D2
330
747D
100
AcDbEntity
  8
細線
 48
50.0
100
AcDbLine
 10
4629.412802302558
 20
1074.906415126883
 30
0.0
 11
4663.502449191834
 21
1108.996062016151
 31
0.0
  0
LINE
  5
2B2D3
330
747D
100
AcDbEntity
  8
細線
 48
50.0
100
AcDbLine
 10
4629.412802302558
 20
1007.554494218864
 30
0.0
 11
4730.854370099852
 21
1108.996062016151
 31
0.0
  0
LINE
  5
2B2D4
330
747D
100
AcDbEntity
  8
部品1
 48
50.0
100
AcDbLine
 10
4699.412802302566
 20
948.9960620161509
 30
0.0
 11
4699.412802302566
 21
928.996062016151
 31
0.0
  0
LINE
  5
2B2D5
330
747D
100
AcDbEntity
  8
細線
 48
50.0
100
AcDbLine
 10
4723.504634320508
 20
778.9960620161519
 30
0.0
 11
4715.466158547573
 21
808.9960620161509
 31
0.0
  0
LINE
  5
2B2D6
330
747D
100
AcDbEntity
  8
細線
 48
50.0
100
AcDbLine
 10
4624.894578136442
 20
778.9960620161519
 30
0.0
 11
4616.856102363509
 21
808.9960620161509
 31
0.0
  0
LINE
  5
2B2D7
330
747D
100
AcDbEntity
  8
細線
 48
50.0
100
AcDbLine
 10
4529.412802302566
 20
790.670963223376
 30
0.0
 11
4534.32299772531
 21
808.9960620161509
 31
0.0
  0
LINE
  5
2B2D8
330
747D
100
AcDbEntity
  8
部品1
 48
50.0
100
AcDbLine
 10
4629.412802302566
 20
808.9960620161509
 30
0.0
 11
4629.412802302566
 21
1108.996062016151
 31
0.0
  0
LINE
  5
2B2D9
330
747D
100
AcDbEntity
  8
部品1
 48
50.0
100
AcDbLine
 10
4699.412802302566
 20
928.996062016151
 30
0.0
 11
5119.412802302566
 21
928.996062016151
 31
0.0
  0
LINE
  5
2B2DA
330
747D
100
AcDbEntity
  8
部品1
 48
50.0
100
AcDbLine
 10
4699.412802302566
 20
948.9960620161509
 30
0.0
 11
5119.412802302566
 21
948.9960620161509
 31
0.0
  0
LINE
  5
2B2DB
330
747D
100
AcDbEntity
  8
細線
 48
50.0
100
AcDbLine
 10
4700.262053731927
 20
808.9960620161509
 30
0.0
 11
4820.262053731926
 21
928.996062016151
 31
0.0
  0
CIRCLE
  5
2B2DC
330
747D
100
AcDbEntity
  8
部品1
 48
50.0
100
AcDbCircle
 10
4749.412802302566
 20
958.9960620161509
 30
0.0
 40
10.0
  0
LINE
  5
2B2DD
330
747D
100
AcDbEntity
  8
細線
 48
50.0
100
AcDbLine
 10
4666.586093277921
 20
808.9960620161509
 30
0.0
 11
4786.586093277921
 21
928.996062016151
 31
0.0
  0
LINE
  5
2B2DE
330
747D
100
AcDbEntity
  8
細線
 48
50.0
100
AcDbLine
 10
4632.910132823908
 20
808.9960620161509
 30
0.0
 11
4752.910132823909
 21
928.996062016151
 31
0.0
  0
LINE
  5
2B2DF
330
747D
100
AcDbEntity
  8
部品1
 48
50.0
100
AcDbLine
 10
4629.412802302566
 20
1108.996062016151
 30
0.0
 11
4789.412802302566
 21
1108.996062016151
 31
0.0
  0
LINE
  5
2B2E0
330
747D
100
AcDbEntity
  8
細線
 48
50.0
100
AcDbLine
 10
4992.539883629582
 20
678.9960620161508
 30
0.0
 11
5000.578359402516
 21
648.9960620161508
 31
0.0
  0
LINE
  5
2B2E1
330
747D
100
AcDbEntity
  8
細線
 48
50.0
100
AcDbLine
 10
5091.14993981364
 20
678.9960620161508
 30
0.0
 11
5099.188415586574
 21
648.9960620161508
 31
0.0
  0
LINE
  5
2B2E2
330
747D
100
AcDbEntity
  8
細線
 48
50.0
100
AcDbLine
 10
4795.31977126146
 20
678.9960620161508
 30
0.0
 11
4803.358247034394
 21
648.9960620161508
 31
0.0
  0
LINE
  5
2B2E3
330
747D
100
AcDbEntity
  8
細線
 48
50.0
100
AcDbLine
 10
4893.929827445525
 20
678.9960620161508
 30
0.0
 11
4901.968303218459
 21
648.9960620161508
 31
0.0
  0
LINE
  5
2B2E4
330
747D
100
AcDbEntity
  8
細線
 48
50.0
100
AcDbLine
 10
4598.099658893329
 20
678.9960620161508
 30
0.0
 11
4606.138134666262
 21
648.9960620161508
 31
0.0
  0
LINE
  5
2B2E5
330
747D
100
AcDbEntity
  8
細線
 48
50.0
100
AcDbLine
 10
4696.709715077395
 20
678.9960620161508
 30
0.0
 11
4704.748190850327
 21
648.9960620161508
 31
0.0
  0
LINE
  5
2B2E6
330
747D
100
AcDbEntity
  8
細線
 48
50.0
100
AcDbLine
 10
4984.501407856642
 20
648.9960620161508
 30
0.0
 11
5027.373278645624
 21
808.9960620161491
 31
0.0
  0
LINE
  5
2B2E7
330
747D
100
AcDbEntity
  8
細線
 48
50.0
100
AcDbLine
 10
4688.67123930446
 20
648.9960620161508
 30
0.0
 11
4731.54311009344
 21
808.9960620161509
 31
0.0
  0
LINE
  5
2B2E8
330
747D
100
AcDbEntity
  8
細線
 48
50.0
100
AcDbLine
 10
4787.281295488519
 20
648.9960620161491
 30
0.0
 11
4830.153166277497
 21
808.9960620161491
 31
0.0
  0
LINE
  5
2B2E9
330
747D
100
AcDbEntity
  8
細線
 48
50.0
100
AcDbLine
 10
4590.061183120389
 20
648.9960620161491
 30
0.0
 11
4632.933053909368
 21
808.9960620161491
 31
0.0
  0
LINE
  5
2B2EA
330
747D
100
AcDbEntity
  8
部品1
 48
50.0
100
AcDbLine
 10
4529.412802302569
 20
648.9960620161508
 30
0.0
 11
4529.412802302569
 21
808.9960620161509
 31
0.0
  0
LINE
  5
2B2EB
330
747D
100
AcDbEntity
  8
細線
 48
50.0
100
AcDbLine
 10
4885.891351672584
 20
648.9960620161508
 30
0.0
 11
4928.763222461562
 21
808.9960620161509
 31
0.0
  0
LINE
  5
2B2EC
330
747D
100
AcDbEntity
  8
細線
 48
50.0
100
AcDbLine
 10
5083.111464040703
 20
648.9960620161491
 30
0.0
 11
5125.983334829681
 21
808.9960620161491
 31
0.0
  0
LINE
  5
2B2ED
330
747D
100
AcDbEntity
  8
部品1
 48
50.0
100
AcDbLine
 10
5289.412802302571
 20
648.9960620161508
 30
0.0
 11
4529.412802302569
 21
648.9960620161508
 31
0.0
  0
LINE
  5
2B2EE
330
747D
100
AcDbEntity
  8
部品1
 48
50.0
100
AcDbLine
 10
5289.412802302571
 20
808.9960620161509
 30
0.0
 11
4529.412802302569
 21
808.9960620161509
 31
0.0
  0
LEADER
  5
2B2EF
330
747D
100
AcDbEntity
  8
寸法
 48
50.0
100
AcDbLeader
  3
INABA_S40G
 71
     0
 73
     0
 74
     0
 75
     1
 40
100.0
 41
540.3409090909091
 76
     3
 10
5001.844263569033
 20
938.0703989992438
 30
0.0
 10
5206.585872129129
 20
511.0318765056226
 30
0.0
 10
5306.585872129129
 20
511.0318765056226
 30
0.0
213
0.0
223
-1.277828345336728
233
0.0
1001
ACAD
1000
DSTYLE
1002
{
1070
   341
1005
0
1002
}
  0
DIMENSION
  5
2B2F0
330
747D
100
AcDbEntity
  8
寸法
 48
50.0
100
AcDbDimension
  2
*D35
 10
5189.412802302566
 20
350.0439555602175
 30
0.0
 11
4909.412802302565
 21
350.0439555602175
 31
0.0
 70
   160
  1
300
 71
     5
 42
560.0000000000009
  3
INABA_S40G
100
AcDbAlignedDimension
 13
4629.412802302565
 23
648.9960620161505
 33
0.0
 14
5189.412802302566
 24
648.9960620161505
 34
0.0
100
AcDbRotatedDimension
1001
ACAD
1000
DSTYLE
1002
{
1070
   341
1005
0
1002
}
  0
LEADER
  5
2B2F1
330
747D
100
AcDbEntity
  8
寸法
 48
50.0
100
AcDbLeader
  3
INABA_S40G
 71
     0
 73
     0
 74
     0
 75
     1
 40
100.0
 41
225.0
 76
     3
 10
5069.291492742745
 20
958.9960620161503
 30
0.0
 10
5193.572377060922
 20
839.7497258374356
 30
0.0
 10
5293.572377060922
 20
839.7497258374356
 30
0.0
1001
ACAD
1000
DSTYLE
1002
{
1070
   341
1005
0
1002
}
  0
LINE
  5
2B2F2
330
747D
100
AcDbEntity
  8
細線
 48
50.0
100
AcDbLine
 10
5042.317816455976
 20
948.9960620161509
 30
0.0
 11
5189.412802302566
 21
1096.091047862734
 31
0.0
  0
LINE
  5
2B2F3
330
747D
100
AcDbEntity
  8
細線
 48
50.0
100
AcDbLine
 10
5109.669737364002
 20
948.9960620161509
 30
0.0
 11
5189.412802302566
 21
1028.739126954715
 31
0.0
  0
LINE
  5
2B2F4
330
747D
100
AcDbEntity
  8
細線
 48
50.0
100
AcDbLine
 10
5075.993776909996
 20
948.9960620161509
 30
0.0
 11
5189.412802302566
 21
1062.415087408724
 31
0.0
  0
LINE
  5
2B2F5
330
747D
100
AcDbEntity
  8
部品1
 48
50.0
100
AcDbLine
 10
5029.412802302566
 20
1108.996062016151
 30
0.0
 11
5189.412802302566
 21
1108.996062016151
 31
0.0
  0
LINE
  5
2B2F6
330
747D
100
AcDbEntity
  8
部品1
 48
50.0
100
AcDbLine
 10
4939.412802302573
 20
958.9960620161509
 30
0.0
 11
4939.412802302566
 21
1614.314098758958
 31
0.0
  0
LINE
  5
2B2F7
330
747D
100
AcDbEntity
  8
部品1
 48
50.0
100
AcDbLine
 10
4919.412802302574
 20
958.9960620161509
 30
0.0
 11
4919.412802302559
 21
1614.314098758958
 31
0.0
  0
LINE
  5
2B2F8
330
747D
100
AcDbEntity
  8
部品1
 48
50.0
100
AcDbLine
 10
4789.412802302566
 20
1108.996062016151
 30
0.0
 11
4789.412802302566
 21
1788.996062016152
 31
0.0
  0
LINE
  5
2B2F9
330
747D
100
AcDbEntity
  8
細線
 48
50.0
100
AcDbLine
 10
4789.412802302566
 20
1201.230454672874
 30
0.0
 11
4919.412802302574
 21
1331.230454672877
 31
0.0
  0
LINE
  5
2B2FA
330
747D
100
AcDbEntity
  8
細線
 48
50.0
100
AcDbLine
 10
4789.412802302566
 20
1234.906415126883
 30
0.0
 11
4919.412802302566
 21
1364.906415126883
 31
0.0
  0
LINE
  5
2B2FB
330
747D
100
AcDbEntity
  8
細線
 48
50.0
100
AcDbLine
 10
4789.412802302566
 20
1167.554494218864
 30
0.0
 11
4919.412802302574
 21
1297.554494218864
 31
0.0
  0
LINE
  5
2B2FC
330
747D
100
AcDbEntity
  8
部品1
 48
50.0
100
AcDbLine
 10
5029.412802302566
 20
1788.996062016152
 30
0.0
 11
5029.412802302566
 21
1108.996062016151
 31
0.0
  0
MTEXT
  5
2B2FD
102
{ACAD_REACTORS
330
2B2FE
102
}
330
747D
100
AcDbEntity
  8
寸法
 62
     7
 48
50.0
100
AcDbMText
 10
4415.744019558573
 20
704.5926949931057
 30
0.0
 40
100.0
 41
1.0
 71
     6
 72
     1
  1
D10
  7
STYLE2
 73
     1
 44
1.0
1001
ACAD
1000
MTEXTBEGIN
1070
    73
1070
     1
1070
    44
1040
1.0
1070
    74
1070
     0
1000
MTEXTEND
  0
LEADER
  5
2B2FE
330
747D
100
AcDbEntity
  8
寸法
 48
50.0
100
AcDbLeader
  3
INABA_S40G
 71
     0
 73
     0
 75
     1
 40
100.0
 41
225.0
 76
     3
 10
4749.291492742744
 20
958.9960620161503
 30
0.0
 10
4540.744019558571
 20
629.5926949931057
 30
0.0
 10
4440.744019558571
 20
629.5926949931057
 30
0.0
1001
ACAD
1000
DSTYLE
1002
{
1070
   341
1005
0
1002
}
  0
LEADER
  5
2B2FF
330
747D
100
AcDbEntity
  8
寸法
 48
50.0
100
AcDbLeader
  3
INABA_S40G
 71
     0
 73
     0
 75
     1
 40
100.0
 41
222.7272727272727
 76
     3
 10
4909.412802302565
 20
958.9960620161503
 30
0.0
 10
4575.897429005366
 20
404.1975043188016
 30
0.0
 10
4475.897429005367
 20
404.1975043188016
 30
0.0
1001
ACAD
1000
DSTYLE
1002
{
1070
   341
1005
0
1002
}
  0
MTEXT
  5
2B300
102
{ACAD_REACTORS
330
2B2FF
102
}
330
747D
100
AcDbEntity
  8
寸法
 62
     7
 48
50.0
100
AcDbMText
 10
4450.897429005366
 20
479.1975043188016
 30
0.0
 40
100.0
 41
1.0
 71
     6
 72
     1
  1
D13
  7
STYLE2
 73
     1
 44
1.0
1001
ACAD
1000
MTEXTBEGIN
1070
    73
1070
     1
1070
    44
1040
1.0
1070
    74
1070
     0
1000
MTEXTEND
  0
MTEXT
  5
2B301
102
{ACAD_REACTORS
330
2B302
102
}
330
747D
100
AcDbEntity
  8
寸法
 62
     7
 48
50.0
100
AcDbMText
 10
4677.85023452406
 20
1290.621815537971
 30
0.0
 40
100.0
 41
1.0
 71
     6
 72
     1
  1
\A1;D10@300
  7
STYLE2
 73
     1
 44
1.0
1001
ACAD
1000
MTEXTBEGIN
1070
    73
1070
     1
1070
    44
1040
1.0
1070
    74
1070
     0
1000
MTEXTEND
  0
LEADER
  5
2B302
330
747D
100
AcDbEntity
  8
寸法
 48
50.0
100
AcDbLeader
  3
INABA_S40G
 71
     0
 73
     0
 75
     1
 40
100.0
 41
540.3409090909091
 76
     3
 10
4919.412802302566
 20
1486.655080387555
 30
0.0
 10
4790.685006641693
 20
1209.81716971155
 30
0.0
 10
4690.685006641692
 20
1209.81716971155
 30
0.0
213
-12.16522788236671
223
-5.804645826423211
233
0.0
1001
ACAD
1000
DSTYLE
1002
{
1070
   341
1005
0
1002
}
  0
LEADER
  5
2B303
330
747D
100
AcDbEntity
  8
寸法
 48
50.0
100
AcDbLeader
  3
INABA_S40G
 71
     0
 73
     0
 75
     1
 40
130.1136363636363
 41
651.1363636363636
 76
     3
 10
4889.412802302565
 20
1788.996062016152
 30
0.0
 10
4830.494802384283
 20
1964.584518836886
 30
0.0
 10
4730.494802384282
 20
1964.584518836886
 30
0.0
1001
ACAD
1000
DSTYLE
1002
{
1070
   341
1005
0
1002
}
  0
MTEXT
  5
2B304
102
{ACAD_REACTORS
330
2B303
102
}
330
747D
100
AcDbEntity
  8
寸法
 62
     7
 48
50.0
100
AcDbMText
 10
4705.494802384282
 20
2054.641337018705
 30
0.0
 40
100.0
 41
1.0
 71
     6
 72
     1
  1
\A1;金コテ押エ
  7
STYLE2
 73
     1
 44
1.0
1001
ACAD
1000
MTEXTBEGIN
1070
    73
1070
     1
1070
    44
1040
1.0
1070
    74
1070
     0
1000
MTEXTEND
  0
DIMENSION
  5
2B305
330
747D
100
AcDbEntity
  8
寸法
 48
50.0
100
AcDbDimension
  2
*D36
 10
4028.767864266501
 20
808.9960620161505
 30
0.0
 11
4028.767864266501
 21
1298.996062016151
 31
0.0
 70
   160
  1
540
 71
     5
 42
980.0000000000016
  3
INABA_S40G
100
AcDbAlignedDimension
 13
4789.412802302565
 23
1788.996062016152
 33
0.0
 14
4529.412802302569
 24
808.9960620161505
 34
0.0
 50
90.0
100
AcDbRotatedDimension
1001
ACAD
1000
DSTYLE
1002
{
1070
   341
1005
0
1002
}
  0
DIMENSION
  5
2B306
330
747D
100
AcDbEntity
  8
寸法
 48
50.0
100
AcDbDimension
  2
*D37
 10
4451.387410136991
 20
808.9960620161505
 30
0.0
 11
4451.387410136991
 21
958.9960620161503
 31
0.0
 70
   160
  1
150
 71
     5
 42
299.9999999999996
  3
INABA_S40G
100
AcDbAlignedDimension
 13
4629.412802302565
 23
1108.99606201615
 33
0.0
 14
4529.412802302569
 24
808.9960620161505
 34
0.0
 50
90.0
100
AcDbRotatedDimension
1001
ACAD
1000
DSTYLE
1002
{
1070
   341
1005
0
1002
}
  0
LWPOLYLINE
  5
2B307
330
747D
100
AcDbEntity
  8
部品1
 48
50.0
100
AcDbPolyline
 90
        2
 70
     0
 43
10.0
 10
4271.73792501137
 20
1488.996062016153
 10
4789.412802302565
 20
1488.996062016153
  0
TEXT
  5
2B308
330
747D
100
AcDbEntity
  8
部品1
 48
50.0
100
AcDbText
 10
4271.73792501137
 20
1503.044802370221
 30
0.0
 40
100.0
  1
▽G.L
  7
STYLE2
100
AcDbText
  0
LEADER
  5
2B309
330
747D
100
AcDbEntity
  8
寸法
 48
50.0
100
AcDbLeader
  3
INABA_S40G
 73
     0
 75
     1
 40
132.9545454545455
 41
1116.477272727273
 76
     3
 10
7078.711943774059
 20
1875.946062016151
 30
0.0
 10
6970.681853342885
 20
2334.770530411567
 30
0.0
 10
6870.681853342884
 20
2334.770530411567
 30
0.0
340
2B30A
1001
ACAD
1000
DSTYLE
1002
{
1070
   341
1005
0
1002
}
  0
MTEXT
  5
2B30A
102
{ACAD_REACTORS
330
2B309
102
}
330
747D
100
AcDbEntity
  8
寸法
 62
     7
 48
50.0
100
AcDbMText
 10
6830.681853342884
 20
2441.24780313884
 30
0.0
 40
100.0
 41
1.0
 71
     6
 72
     1
  1
\A1;アンカープレート L
  7
STYLE2
 73
     1
 44
1.0
1001
ACAD
1000
MTEXTBEGIN
1070
    73
1070
     1
1070
    44
1040
1.0
1070
    74
1070
     0
1000
MTEXTEND
  0
MTEXT
  5
2B30B
102
{ACAD_REACTORS
330
2B30C
102
}
330
747D
100
AcDbEntity
  8
部品1
 62
     7
 48
50.0
100
AcDbMText
 10
7441.654407665756
 20
2895.826631831213
 30
0.0
 40
100.0
 41
1.0
 71
     4
 72
     1
  1
\A1;ナット(市販品)
  7
STYLE2
 73
     1
 44
1.0
1001
ACAD
1000
MTEXTBEGIN
1070
    73
1070
     1
1070
    44
1040
1.0
1070
    74
1070
     0
1000
MTEXTEND
  0
LEADER
  5
2B30C
330
747D
100
AcDbEntity
  8
寸法
 48
50.0
100
AcDbLeader
  3
INABA_S40G
 73
     0
 74
     0
 75
     1
 40
127.8409090909091
 41
850.0
 76
     3
 10
7211.211943774059
 20
2287.59016340258
 30
0.0
 10
7301.654407665755
 20
2791.906177285758
 30
0.0
 10
7401.654407665755
 20
2791.906177285758
 30
0.0
340
2B30B
1001
ACAD
1000
DSTYLE
1002
{
1070
   341
1005
0
1002
}
  0
MTEXT
  5
2B30D
102
{ACAD_REACTORS
330
2B30E
102
}
330
747D
100
AcDbEntity
  8
部品1
 62
     7
 48
50.0
100
AcDbMText
 10
7481.05143173511
 20
2664.615278375228
 30
0.0
 40
100.0
 41
1.0
 71
     4
 72
     1
  1
\A1;ワッシャー(市販品)
  7
STYLE2
 73
     1
 44
1.0
1001
ACAD
1000
MTEXTBEGIN
1070
    73
1070
     1
1070
    44
1040
1.0
1070
    74
1070
     0
1000
MTEXTEND
  0
LEADER
  5
2B30E
330
747D
100
AcDbEntity
  8
寸法
 48
50.0
100
AcDbLeader
  3
INABA_S40G
 73
     0
 74
     0
 75
     1
 40
127.8409090909091
 41
1133.522727272727
 76
     3
 10
7241.211943774057
 20
2125.400172571502
 30
0.0
 10
7341.05143173511
 20
2560.694823829773
 30
0.0
 10
7441.05143173511
 20
2560.694823829773
 30
0.0
340
2B30D
1001
ACAD
1000
DSTYLE
1002
{
1070
   341
1005
0
1002
}
  0
DIMENSION
  5
2B30F
330
747D
100
AcDbEntity
  8
寸法
 48
50.0
100
AcDbDimension
  2
*D38
 10
4789.412802302565
 20
2313.580821911627
 30
0.0
 11
4909.412802302565
 21
2313.580821911627
 31
0.0
 70
   160
  1
120\P(195)
 71
     5
 42
240.0
  3
INABA_S40G
100
AcDbAlignedDimension
 13
5029.412802302565
 23
1788.996062016152
 33
0.0
 14
4789.412802302565
 24
1788.996062016152
 34
0.0
100
AcDbRotatedDimension
1001
ACAD
1000
DSTYLE
1002
{
1070
   341
1005
0
1002
}
  0
LINE
  5
2B310
330
747D
100
AcDbEntity
  8
部品1
100
AcDbLine
 10
3670.612110750786
 20
3440.210586737207
 30
0.0
 11
3670.612110750786
 21
181.1410873825188
 31
0.0
  0
MTEXT
  5
2B311
102
{ACAD_REACTORS
330
2B312
102
}
330
747D
100
AcDbEntity
  8
寸法
 62
     7
 48
50.0
100
AcDbMText
 10
6797.378095582437
 20
2892.103143023235
 30
0.0
 40
100.0
 41
1.0
 71
     6
 72
     1
  1
\A1;φ70スリーブ
  7
STYLE2
 73
     1
 44
1.0
1001
ACAD
1000
MTEXTBEGIN
1070
    73
1070
     1
1070
    44
1040
1.0
1070
    74
1070
     0
1000
MTEXTEND
  0
LEADER
  5
2B312
330
747D
100
AcDbEntity
  8
寸法
 48
50.0
100
AcDbLeader
  3
INABA_S40G
 73
     0
 75
     1
 40
141.4772727272727
 41
760.7954545454546
 76
     3
 10
7152.13288144662
 20
1725.890653714
 30
0.0
 10
6937.378095582437
 20
2781.364506659598
 30
0.0
 10
6837.378095582437
 20
2781.364506659598
 30
0.0
340
2B311
1001
ACAD
1000
DSTYLE
1002
{
1070
   341
1005
0
1002
}
  0
LINE
  5
2B313
330
747D
100
AcDbEntity
  8
部品1
100
AcDbLine
 10
10567.08680684881
 20
3440.210586737209
 30
0.0
 11
3670.612110750783
 21
3440.210586737207
 31
0.0
  0
LINE
  5
2B314
330
747D
100
AcDbEntity
  8
部品1
100
AcDbLine
 10
10567.08680684881
 20
3140.210586737206
 30
0.0
 11
3670.612110750783
 21
3140.210586737206
 31
0.0
  0
LINE
  5
2B315
330
747D
100
AcDbEntity
  8
部品1
100
AcDbLine
 10
3670.612110750783
 20
181.1410873825188
 30
0.0
 11
10567.08680684881
 21
181.1410873825188
 31
0.0
  0
LINE
  5
2B316
330
747D
100
AcDbEntity
  8
部品1
100
AcDbLine
 10
9076.575879029677
 20
1214.37241744946
 30
0.0
 11
9976.575879029677
 21
1214.372417449463
 31
0.0
  0
LINE
  5
2B317
330
747D
100
AcDbEntity
  8
部品1
100
AcDbLine
 10
9076.575879029677
 20
1374.372417449464
 30
0.0
 11
9976.575879029677
 21
1374.372417449467
 31
0.0
  0
LWPOLYLINE
  5
2B318
330
747D
100
AcDbEntity
  8
部品1
 48
50.0
100
AcDbPolyline
 90
        2
 70
     0
 43
15.0
 10
8745.811801404192
 20
1488.996062016151
 10
10247.17718031872
 20
1488.996062016151
  0
LINE
  5
2B319
330
747D
100
AcDbEntity
  8
細線
100
AcDbLine
 10
9217.871372153835
 20
1374.372417449464
 30
0.0
 11
9332.495016720526
 21
1488.996062016151
 31
0.0
  0
LINE
  5
2B31A
330
747D
100
AcDbEntity
  8
部品1
100
AcDbLine
 10
9226.575879029677
 20
1788.996062016152
 30
0.0
 11
9826.575879029677
 21
1788.996062016152
 31
0.0
  0
LINE
  5
2B31B
330
747D
100
AcDbEntity
  8
細線
100
AcDbLine
 10
9406.227935818865
 20
1488.996062016151
 30
0.0
 11
9226.575879029677
 21
1668.648118805342
 31
0.0
  0
LINE
  5
2B31C
330
747D
100
AcDbEntity
  8
細線
100
AcDbLine
 10
9469.867546125655
 20
1488.996062016151
 30
0.0
 11
9226.575879029677
 21
1732.287729112129
 31
0.0
  0
HATCH
  5
2B41D
330
747D
100
AcDbEntity
  8
細線
 48
50.0
100
AcDbHatch
 10
0.0
 20
0.0
 30
0.0
210
0.0
220
0.0
230
1.0
  2
LINE
 70
     0
 71
     1
 91
        6
 92
        7
 72
     0
 73
     1
 93
        4
 10
6997.099999999997
 20
8622.434385439133
 10
6797.099999999997
 20
8622.43438543914
 10
6797.099999999997
 20
8502.434385439137
 10
6997.099999999997
 20
8502.434385439139
 97
        4
330
261B8
330
2646C
330
26453
330
2646A
 92
        7
 72
     0
 73
     1
 93
        4
 10
5708.6
 20
6982.434385439138
 10
5588.6
 20
6982.434385439138
 10
5588.6
 20
6782.434385439138
 10
5708.6
 20
6782.434385439137
 97
        4
330
2645C
330
261CB
330
2645B
330
261CC
 92
        7
 72
     0
 73
     1
 93
        4
 10
6997.10000000001
 20
5262.434385439145
 10
6797.100000000009
 20
5262.434385439145
 10
6797.100000000007
 20
5067.434385439131
 10
6997.100000000006
 20
5067.434385439134
 97
        4
330
26233
330
26324
330
26231
330
26322
 92
        7
 72
     0
 73
     1
 93
        4
 10
9532.100000000021
 20
5262.434385439152
 10
9332.100000000016
 20
5262.434385439151
 10
9332.100000000018
 20
5142.434385439145
 10
9532.100000000021
 20
5142.434385439146
 97
        4
330
261B4
330
264F4
330
261B3
330
264F5
 92
        7
 72
     0
 73
     1
 93
        4
 10
10858.6
 20
6982.434385439138
 10
10738.6
 20
6982.434385439138
 10
10738.6
 20
6782.434385439137
 10
10858.6
 20
6782.434385439138
 97
        4
330
2651D
330
26481
330
2651C
330
26480
 92
        7
 72
     0
 73
     1
 93
        4
 10
9532.099999999998
 20
8622.434385439133
 10
9332.099999999996
 20
8622.434385439133
 10
9332.099999999996
 20
8502.434385439137
 10
9532.099999999998
 20
8502.434385439137
 97
        4
330
261B8
330
2650A
330
261AF
330
26509
 75
     0
 76
     1
 52
45.0
 41
10.0
 77
     0
 78
     1
 53
45.0
 43
0.0
 44
0.0
 45
-22.45064030267288
 46
22.45064030267288
 79
     0
 47
15.39031959309016
 98
        6
 10
6894.314386935644
 20
8565.193124164398
 10
5647.162147401257
 20
6887.648305106202
 10
6863.520482457753
 20
5117.761532631725
 10
9450.206611258732
 20
5210.103444728156
 10
10758.94659604745
 20
6903.03862378894
 10
9434.809659019796
 20
8565.193124164398
  0
ENDSEC
  0
SECTION
  2
OBJECTS
  0
DICTIONARY
  5
7471
330
0
100
AcDbDictionary
281
     1
  3
ACAD_COLOR
350
173D2
  3
ACAD_GROUP
350
7472
  3
ACAD_LAYOUT
350
173D3
  3
ACAD_MATERIAL
350
173D1
  3
ACAD_MLINESTYLE
350
7473
  3
ACAD_PLOTSETTINGS
350
173D4
  3
ACAD_PLOTSTYLENAME
350
173CF
  3
ACDBHEADERROUNDTRIPXREC
350
2B62C
  3
AcDbVariableDictionary
350
2B45F
  3
CONTENTDICTIONARY
350
E71C
  3
DRAWINGVARIABLESDICT
350
F3B9
  0
DICTIONARY
  5
1758F
330
7467
100
AcDbDictionary
280
     1
281
     1
  3
ACAD_LAYERSTATES
360
17590
  0
DICTIONARY
  5
173D2
102
{ACAD_REACTORS
330
7471
102
}
330
7471
100
AcDbDictionary
281
     1
  0
DICTIONARY
  5
7472
102
{ACAD_REACTORS
330
7471
102
}
330
7471
100
AcDbDictionary
281
     1
  3
*A1
350
1D2A9
  0
DICTIONARY
  5
173D3
102
{ACAD_REACTORS
330
7471
102
}
330
7471
100
AcDbDictionary
281
     1
  3
Model
350
173D5
  3
レイアウト1
350
173D6
  0
DICTIONARY
  5
173D1
102
{ACAD_REACTORS
330
7471
102
}
330
7471
100
AcDbDictionary
281
     1
  0
DICTIONARY
  5
7473
102
{ACAD_REACTORS
330
7471
102
}
330
7471
100
AcDbDictionary
281
     1
  3
STANDARD
350
7480
  0
DICTIONARY
  5
173D4
102
{ACAD_REACTORS
330
7471
102
}
330
7471
100
AcDbDictionary
281
     1
  0
ACDBDICTIONARYWDFLT
  5
173CF
102
{ACAD_REACTORS
330
7471
102
}
330
7471
100
AcDbDictionary
281
     1
  3
Normal
350
173D0
100
AcDbDictionaryWithDefault
340
173D0
  0
DICTIONARY
  5
2B62C
102
{ACAD_REACTORS
330
7471
102
}
330
7471
100
AcDbDictionary
281
     1
  3
COLORDICT
350
2B62E
  3
MATERIALDICT
350
2B62D
  0
DICTIONARY
  5
2B45F
102
{ACAD_REACTORS
330
7471
102
}
330
7471
100
AcDbDictionary
281
     1
  3
DIMASSOC
350
2B460
  3
PROJECTNAME
350
2B461
  0
DICTIONARY
  5
E71C
102
{ACAD_REACTORS
330
7471
102
}
330
7471
100
AcDbDictionary
281
     1
  0
DICTIONARY
  5
F3B9
102
{ACAD_REACTORS
330
7471
102
}
330
7471
100
AcDbDictionary
281
     1
1001
DRAWINGVARIABLESXDATA
1000
POLARMODE
1000
1
  0
DICTIONARY
  5
17590
102
{ACAD_REACTORS
330
1758F
102
}
330
1758F
100
AcDbDictionary
281
     1
  0
GROUP
  5
1D2A9
102
{ACAD_REACTORS
330
7472
102
}
330
7472
100
AcDbGroup
300

 70
     1
 71
     1
  0
LAYOUT
  5
173D5
102
{ACAD_XDICTIONARY
360
2B62F
102
}
102
{ACAD_REACTORS
330
173D3
102
}
330
173D3
100
AcDbPlotSettings
  1

  2
クセロPDF
  4
A3
  6

 40
3.174999999999999
 41
3.174999999999999
 42
3.174987999999999
 43
3.174987999999999
 44
419.946655
 45
296.925995
 46
0.0
 47
0.0
 48
0.0
 49
0.0
140
0.0
141
0.0
142
1.0
143
40.88431155294937
 70
 11952
 72
     1
 73
     0
 74
     2
  7
inaba.ctb
 75
     0
147
0.0244592598484849
148
0.0
149
0.0
100
AcDbLayout
  1
Model
 70
     1
 71
     0
 10
0.0
 20
0.0
 11
12.0
 21
9.0
 12
0.0
 22
0.0
 32
0.0
 14
0.0
 24
0.0
 34
0.0
 15
0.0
 25
0.0
 35
0.0
146
0.0
 13
0.0
 23
0.0
 33
0.0
 16
1.0
 26
0.0
 36
0.0
 17
0.0
 27
1.0
 37
0.0
 76
     0
330
747D
  0
LAYOUT
  5
173D6
102
{ACAD_XDICTIONARY
360
2B631
102
}
102
{ACAD_REACTORS
330
173D3
102
}
330
173D3
100
AcDbPlotSettings
  1

  2
Microsoft Office Document Image Writer
  4

  6

 40
0.0
 41
0.0
 42
0.0
 43
0.0
 44
0.0
 45
0.0
 46
0.0
 47
0.0
 48
0.0
 49
0.0
140
0.0
141
0.0
142
1.0
143
1.0
 70
   688
 72
     0
 73
     0
 74
     5
  7

 75
    16
147
1.0
148
0.0
149
0.0
100
AcDbLayout
  1
レイアウト1
 70
     0
 71
     1
 10
0.0
 20
0.0
 11
420.0
 21
297.0
 12
0.0
 22
0.0
 32
0.0
 14
1.000000000000000E+20
 24
1.000000000000000E+20
 34
1.000000000000000E+20
 15
-1.000000000000000E+20
 25
-1.000000000000000E+20
 35
-1.000000000000000E+20
146
0.0
 13
0.0
 23
0.0
 33
0.0
 16
1.0
 26
0.0
 36
0.0
 17
0.0
 27
1.0
 37
0.0
 76
     0
330
747A
  0
MLINESTYLE
  5
7480
102
{ACAD_REACTORS
330
7473
102
}
330
7473
100
AcDbMlineStyle
  2
STANDARD
 70
     0
  3

 62
     0
 51
90.0
 52
90.0
 71
     2
 49
0.5
 62
   256
  6
BYLAYER
 49
-0.5
 62
   256
  6
BYLAYER
  0
ACDBPLACEHOLDER
  5
173D0
102
{ACAD_REACTORS
330
173CF
102
}
330
173CF
  0
XRECORD
  5
2B62E
102
{ACAD_REACTORS
330
2B62C
102
}
330
2B62C
100
AcDbXrecord
280
     1
340
173D2
  0
XRECORD
  5
2B62D
102
{ACAD_REACTORS
330
2B62C
102
}
330
2B62C
100
AcDbXrecord
280
     1
340
173D1
  0
DICTIONARYVAR
  5
2B460
102
{ACAD_REACTORS
330
2B45F
102
}
330
2B45F
100
DictionaryVariables
280
     0
  1
1
  0
DICTIONARYVAR
  5
2B461
102
{ACAD_REACTORS
330
2B45F
102
}
330
2B45F
100
DictionaryVariables
280
     0
  1

  0
DICTIONARY
  5
2B62F
330
173D5
100
AcDbDictionary
280
     1
281
     1
  3
ACAD_XREC_ROUNDTRIP
360
2B630
  0
DICTIONARY
  5
2B631
330
173D6
100
AcDbDictionary
280
     1
281
     1
  3
ACAD_XREC_ROUNDTRIP
360
2B632
  0
XRECORD
  5
2B630
102
{ACAD_REACTORS
330
2B62F
102
}
330
2B62F
100
AcDbXrecord
280
     1
102
SHADEPLOT
 70
     1
102
SHADEPLOTRESLEVEL
 70
     2
102
SHADEPLOTCUSTOMDPI
 70
   300
  0
XRECORD
  5
2B632
102
{ACAD_REACTORS
330
2B631
102
}
330
2B631
100
AcDbXrecord
280
     1
102
SHADEPLOT
 70
     0
102
SHADEPLOTRESLEVEL
 70
     2
102
SHADEPLOTCUSTOMDPI
 70
   300
  0
ENDSEC
  0
EOF
