  0
SECTION
  2
HEADER
  9
$ACADVER
  1
AC1015
  9
$ACADMAINTVER
 70
    20
  9
$DWGCODEPAGE
  3
ANSI_932
  9
$INSBASE
 10
0.0
 20
0.0
 30
0.0
  9
$EXTMIN
 10
139.9999999999995
 20
-0.0000000000000909
 30
0.0
  9
$EXTMAX
 10
16307.2
 20
11409.6
 30
0.0
  9
$LIMMIN
 10
0.0
 20
0.0
  9
$LIMMAX
 10
16800.0
 20
11880.0
  9
$ORTHOMODE
 70
     0
  9
$REGENMODE
 70
     1
  9
$FILLMODE
 70
     1
  9
$QTEXTMODE
 70
     0
  9
$MIRRTEXT
 70
     1
  9
$LTSCALE
 40
20.0
  9
$ATTMODE
 70
     1
  9
$TEXTSIZE
 40
4.0
  9
$TRACEWID
 40
1.0
  9
$TEXTSTYLE
  7
STYLE1
  9
$CLAYER
  8
細線
  9
$CELTYPE
  6
BYLAYER
  9
$CECOLOR
 62
   256
  9
$CELTSCALE
 40
50.0
  9
$DISPSILH
 70
     0
  9
$DIMSCALE
 40
40.0
  9
$DIMASZ
 40
2.5
  9
$DIMEXO
 40
0.5
  9
$DIMDLI
 40
7.0
  9
$DIMRND
 40
0.0
  9
$DIMDLE
 40
0.0
  9
$DIMEXE
 40
1.5
  9
$DIMTP
 40
0.0
  9
$DIMTM
 40
0.0
  9
$DIMTXT
 40
3.0
  9
$DIMCEN
 40
0.0
  9
$DIMTSZ
 40
0.0
  9
$DIMTOL
 70
     0
  9
$DIMLIM
 70
     0
  9
$DIMTIH
 70
     0
  9
$DIMTOH
 70
     0
  9
$DIMSE1
 70
     0
  9
$DIMSE2
 70
     0
  9
$DIMTAD
 70
     3
  9
$DIMZIN
 70
     8
  9
$DIMBLK
  1

  9
$DIMASO
 70
     1
  9
$DIMSHO
 70
     1
  9
$DIMPOST
  1

  9
$DIMAPOST
  1

  9
$DIMALT
 70
     0
  9
$DIMALTD
 70
     2
  9
$DIMALTF
 40
0.0394
  9
$DIMLFAC
 40
1.0
  9
$DIMTOFL
 70
     1
  9
$DIMTVP
 40
0.0
  9
$DIMTIX
 70
     1
  9
$DIMSOXD
 70
     0
  9
$DIMSAH
 70
     1
  9
$DIMBLK1
  1
DOTSMALL
  9
$DIMBLK2
  1
DOTSMALL
  9
$DIMSTYLE
  2
INABA_S40G
  9
$DIMCLRD
 70
     0
  9
$DIMCLRE
 70
     0
  9
$DIMCLRT
 70
     7
  9
$DIMTFAC
 40
1.0
  9
$DIMGAP
 40
1.0
  9
$DIMJUST
 70
     0
  9
$DIMSD1
 70
     0
  9
$DIMSD2
 70
     0
  9
$DIMTOLJ
 70
     1
  9
$DIMTZIN
 70
     0
  9
$DIMALTZ
 70
     0
  9
$DIMALTTZ
 70
     0
  9
$DIMUPT
 70
     0
  9
$DIMDEC
 70
     1
  9
$DIMTDEC
 70
     4
  9
$DIMALTU
 70
     2
  9
$DIMALTTD
 70
     2
  9
$DIMTXSTY
  7
STYLE1
  9
$DIMAUNIT
 70
     0
  9
$DIMADEC
 70
     0
  9
$DIMALTRND
 40
0.0
  9
$DIMAZIN
 70
     0
  9
$DIMDSEP
 70
    46
  9
$DIMATFIT
 70
     3
  9
$DIMFRAC
 70
     0
  9
$DIMLDRBLK
  1

  9
$DIMLUNIT
 70
     2
  9
$DIMLWD
 70
    -2
  9
$DIMLWE
 70
    -2
  9
$DIMTMOVE
 70
     0
  9
$LUNITS
 70
     2
  9
$LUPREC
 70
     1
  9
$SKETCHINC
 40
1.0
  9
$FILLETRAD
 40
3.0
  9
$AUNITS
 70
     0
  9
$AUPREC
 70
     0
  9
$MENU
  1
acad
  9
$ELEVATION
 40
0.0
  9
$PELEVATION
 40
0.0
  9
$THICKNESS
 40
0.0
  9
$LIMCHECK
 70
     0
  9
$CHAMFERA
 40
0.0
  9
$CHAMFERB
 40
0.0
  9
$CHAMFERC
 40
0.0
  9
$CHAMFERD
 40
0.0
  9
$SKPOLY
 70
     0
  9
$TDCREATE
 40
2451368.612993866
  9
$TDUCREATE
 40
2451368.237993866
  9
$TDUPDATE
 40
2455827.764457245
  9
$TDUUPDATE
 40
2455827.389457245
  9
$TDINDWG
 40
0.8938384838
  9
$TDUSRTIMER
 40
0.8938370370
  9
$USRTIMER
 70
     1
  9
$ANGBASE
 50
0.0
  9
$ANGDIR
 70
     0
  9
$PDMODE
 70
     3
  9
$PDSIZE
 40
2.0
  9
$PLINEWID
 40
0.0
  9
$SPLFRAME
 70
     0
  9
$SPLINETYPE
 70
     6
  9
$SPLINESEGS
 70
     8
  9
$HANDSEED
  5
2A7DE
  9
$SURFTAB1
 70
     6
  9
$SURFTAB2
 70
     6
  9
$SURFTYPE
 70
     6
  9
$SURFU
 70
     6
  9
$SURFV
 70
     6
  9
$UCSBASE
  2

  9
$UCSNAME
  2

  9
$UCSORG
 10
0.0
 20
0.0
 30
0.0
  9
$UCSXDIR
 10
1.0
 20
0.0
 30
0.0
  9
$UCSYDIR
 10
0.0
 20
1.0
 30
0.0
  9
$UCSORTHOREF
  2

  9
$UCSORTHOVIEW
 70
     0
  9
$UCSORGTOP
 10
0.0
 20
0.0
 30
0.0
  9
$UCSORGBOTTOM
 10
0.0
 20
0.0
 30
0.0
  9
$UCSORGLEFT
 10
0.0
 20
0.0
 30
0.0
  9
$UCSORGRIGHT
 10
0.0
 20
0.0
 30
0.0
  9
$UCSORGFRONT
 10
0.0
 20
0.0
 30
0.0
  9
$UCSORGBACK
 10
0.0
 20
0.0
 30
0.0
  9
$PUCSBASE
  2

  9
$PUCSNAME
  2

  9
$PUCSORG
 10
0.0
 20
0.0
 30
0.0
  9
$PUCSXDIR
 10
1.0
 20
0.0
 30
0.0
  9
$PUCSYDIR
 10
0.0
 20
1.0
 30
0.0
  9
$PUCSORTHOREF
  2

  9
$PUCSORTHOVIEW
 70
     0
  9
$PUCSORGTOP
 10
0.0
 20
0.0
 30
0.0
  9
$PUCSORGBOTTOM
 10
0.0
 20
0.0
 30
0.0
  9
$PUCSORGLEFT
 10
0.0
 20
0.0
 30
0.0
  9
$PUCSORGRIGHT
 10
0.0
 20
0.0
 30
0.0
  9
$PUCSORGFRONT
 10
0.0
 20
0.0
 30
0.0
  9
$PUCSORGBACK
 10
0.0
 20
0.0
 30
0.0
  9
$USERI1
 70
     0
  9
$USERI2
 70
     0
  9
$USERI3
 70
     0
  9
$USERI4
 70
     0
  9
$USERI5
 70
     0
  9
$USERR1
 40
0.0
  9
$USERR2
 40
0.0
  9
$USERR3
 40
0.0
  9
$USERR4
 40
0.0
  9
$USERR5
 40
0.0
  9
$WORLDVIEW
 70
     1
  9
$SHADEDGE
 70
     3
  9
$SHADEDIF
 70
    70
  9
$TILEMODE
 70
     1
  9
$MAXACTVP
 70
    16
  9
$PINSBASE
 10
0.0
 20
0.0
 30
0.0
  9
$PLIMCHECK
 70
     0
  9
$PEXTMIN
 10
1.000000000000000E+20
 20
1.000000000000000E+20
 30
1.000000000000000E+20
  9
$PEXTMAX
 10
-1.000000000000000E+20
 20
-1.000000000000000E+20
 30
-1.000000000000000E+20
  9
$PLIMMIN
 10
0.0
 20
0.0
  9
$PLIMMAX
 10
420.0
 20
297.0
  9
$UNITMODE
 70
     0
  9
$VISRETAIN
 70
     0
  9
$PLINEGEN
 70
     0
  9
$PSLTSCALE
 70
     0
  9
$TREEDEPTH
 70
  3020
  9
$CMLSTYLE
  2
STANDARD
  9
$CMLJUST
 70
     0
  9
$CMLSCALE
 40
1.0
  9
$PROXYGRAPHICS
 70
     1
  9
$MEASUREMENT
 70
     1
  9
$CELWEIGHT
370
    -1
  9
$ENDCAPS
280
     0
  9
$JOINSTYLE
280
     0
  9
$LWDISPLAY
290
     0
  9
$INSUNITS
 70
     0
  9
$HYPERLINKBASE
  1

  9
$STYLESHEET
  1
inaba.ctb
  9
$XEDIT
290
     1
  9
$CEPSNTYPE
380
     0
  9
$PSTYLEMODE
290
     1
  9
$FINGERPRINTGUID
  2
{5EAC461A-2277-4BF8-9AB0-99C43BB394F0}
  9
$VERSIONGUID
  2
{31874958-B23B-45B7-B2F8-26A7F4F48911}
  9
$EXTNAMES
290
     1
  9
$PSVPSCALE
 40
0.0
  9
$OLESTARTUP
290
     0
  0
ENDSEC
  0
SECTION
  2
CLASSES
  0
CLASS
  1
ACDBDICTIONARYWDFLT
  2
AcDbDictionaryWithDefault
  3
ObjectDBX Classes
 90
        0
280
     0
281
     0
  0
CLASS
  1
DICTIONARYVAR
  2
AcDbDictionaryVar
  3
ObjectDBX Classes
 90
        0
280
     0
281
     0
  0
CLASS
  1
ACDBPLACEHOLDER
  2
AcDbPlaceHolder
  3
ObjectDBX Classes
 90
        0
280
     0
281
     0
  0
CLASS
  1
LAYOUT
  2
AcDbLayout
  3
ObjectDBX Classes
 90
        0
280
     0
281
     0
  0
ENDSEC
  0
SECTION
  2
TABLES
  0
TABLE
  2
VPORT
  5
746D
330
0
100
AcDbSymbolTable
 70
     2
  0
VPORT
  5
2A7D6
330
746D
100
AcDbSymbolTableRecord
100
AcDbViewportTableRecord
  2
*Active
 70
     0
 10
0.0
 20
0.0
 11
1.0
 21
1.0
 12
9849.971689570535
 22
5755.737687086469
 13
0.0
 23
0.0
 14
10.0
 24
10.0
 15
10.0
 25
10.0
 16
0.0
 26
0.0
 36
1.0
 17
0.0
 27
0.0
 37
0.0
 40
11597.95597524073
 41
1.79295154185022
 42
50.0
 43
0.0
 44
0.0
 50
0.0
 51
0.0
 71
     0
 72
     0
 73
     1
 74
     0
 75
     0
 76
     0
 77
     0
 78
     0
281
     0
 65
     1
110
0.0
120
0.0
130
0.0
111
1.0
121
0.0
131
0.0
112
0.0
122
1.0
132
0.0
 79
     0
146
0.0
  0
ENDTAB
  0
TABLE
  2
LTYPE
  5
746A
330
0
100
AcDbSymbolTable
 70
     3
  0
LTYPE
  5
7477
330
746A
100
AcDbSymbolTableRecord
100
AcDbLinetypeTableRecord
  2
BYBLOCK
 70
     0
  3

 72
    65
 73
     0
 40
0.0
  0
LTYPE
  5
7478
330
746A
100
AcDbSymbolTableRecord
100
AcDbLinetypeTableRecord
  2
BYLAYER
 70
     0
  3

 72
    65
 73
     0
 40
0.0
  0
LTYPE
  5
7479
330
746A
100
AcDbSymbolTableRecord
100
AcDbLinetypeTableRecord
  2
CONTINUOUS
 70
     0
  3
Solid line
 72
    65
 73
     0
 40
0.0
  0
LTYPE
  5
7816
330
746A
100
AcDbSymbolTableRecord
100
AcDbLinetypeTableRecord
  2
CENTER
 70
     0
  3
____ _ ____ _ ____ _ ____ _ ____ _ ____ _ ____ 
 72
    65
 73
     4
 40
2.0
 49
1.25
 74
     0
 49
-0.25
 74
     0
 49
0.25
 74
     0
 49
-0.25
 74
     0
  0
LTYPE
  5
781B
330
746A
100
AcDbSymbolTableRecord
100
AcDbLinetypeTableRecord
  2
PHANTOM
 70
     0
  3
______  __  __  ______  __  __  ______  __  __ 
 72
    65
 73
     6
 40
2.5
 49
1.25
 74
     0
 49
-0.25
 74
     0
 49
0.25
 74
     0
 49
-0.25
 74
     0
 49
0.25
 74
     0
 49
-0.25
 74
     0
  0
ENDTAB
  0
TABLE
  2
LAYER
  5
7467
102
{ACAD_XDICTIONARY
360
1758F
102
}
330
0
100
AcDbSymbolTable
 70
    10
  0
LAYER
  5
7474
330
7467
100
AcDbSymbolTableRecord
100
AcDbLayerTableRecord
  2
0
 70
     0
 62
     7
  6
CONTINUOUS
370
    -3
390
173D0
  0
LAYER
  5
DEB2
330
7467
100
AcDbSymbolTableRecord
100
AcDbLayerTableRecord
  2
センター
 70
     0
 62
     3
  6
CENTER
370
    -3
390
173D0
  0
LAYER
  5
DEB3
330
7467
100
AcDbSymbolTableRecord
100
AcDbLayerTableRecord
  2
寸法
 70
     0
 62
     4
  6
CONTINUOUS
370
    -3
390
173D0
  0
LAYER
  5
DEB4
330
7467
100
AcDbSymbolTableRecord
100
AcDbLayerTableRecord
  2
部品1
 70
     0
 62
     7
  6
CONTINUOUS
370
    -3
390
173D0
  0
LAYER
  5
DEB5
330
7467
100
AcDbSymbolTableRecord
100
AcDbLayerTableRecord
  2
補助
 70
     0
 62
    -1
  6
CONTINUOUS
370
    -3
390
173D0
  0
LAYER
  5
DEB6
330
7467
100
AcDbSymbolTableRecord
100
AcDbLayerTableRecord
  2
文字
 70
     0
 62
     7
  6
CONTINUOUS
370
    -3
390
173D0
  0
LAYER
  5
F255
330
7467
100
AcDbSymbolTableRecord
100
AcDbLayerTableRecord
  2
DEFPOINTS
 70
     0
 62
     7
  6
CONTINUOUS
290
     0
370
    -3
390
173D0
  0
LAYER
  5
10B54
330
7467
100
AcDbSymbolTableRecord
100
AcDbLayerTableRecord
  2
仕様書枠
 70
     0
 62
   230
  6
CONTINUOUS
370
    -3
390
173D0
  0
LAYER
  5
1173F
330
7467
100
AcDbSymbolTableRecord
100
AcDbLayerTableRecord
  2
細線
 70
     0
 62
     5
  6
CONTINUOUS
370
    -3
390
173D0
  0
LAYER
  5
12CC4
330
7467
100
AcDbSymbolTableRecord
100
AcDbLayerTableRecord
  2
想像線
 70
     0
 62
     6
  6
PHANTOM
370
    -3
390
173D0
  0
ENDTAB
  0
TABLE
  2
STYLE
  5
7468
330
0
100
AcDbSymbolTable
 70
     4
  0
STYLE
  5
7475
330
7468
100
AcDbSymbolTableRecord
100
AcDbTextStyleTableRecord
  2
STANDARD
 70
     0
 40
0.0
 41
1.0
 50
0.0
 71
     0
 42
4.0
  3
txt
  4
C:\AutoCAD LT\bigfont.shx
  0
STYLE
  5
763C
330
7468
100
AcDbSymbolTableRecord
100
AcDbTextStyleTableRecord
  2
MSMINCHO
 70
     0
 40
0.0
 41
1.0
 50
0.0
 71
     0
 42
1.199999999999999
  3
C:\AutoCAD LT\msminch2.TTF
  4

  0
STYLE
  5
F706
330
7468
100
AcDbSymbolTableRecord
100
AcDbTextStyleTableRecord
  2
STYLE1
 70
     0
 40
0.0
 41
1.0
 50
0.0
 71
     0
 42
4.0
  3
isocp.shx
  4
bigfont.shx
  0
STYLE
  5
103BF
330
7468
100
AcDbSymbolTableRecord
100
AcDbTextStyleTableRecord
  2
STYLE2
 70
     0
 40
0.0
 41
1.0
 50
0.0
 71
     0
 42
100.0
  3
MS PGothic.ttf
  4

1001
ACAD
1000
MS PGothic
1071
    32818
  0
ENDTAB
  0
TABLE
  2
VIEW
  5
746B
330
0
100
AcDbSymbolTable
 70
     0
  0
ENDTAB
  0
TABLE
  2
UCS
  5
746C
330
0
100
AcDbSymbolTable
 70
     0
  0
ENDTAB
  0
TABLE
  2
APPID
  5
746E
330
0
100
AcDbSymbolTable
 70
     6
  0
APPID
  5
7476
330
746E
100
AcDbSymbolTableRecord
100
AcDbRegAppTableRecord
  2
ACAD
 70
     0
  0
APPID
  5
DEA9
330
746E
100
AcDbSymbolTableRecord
100
AcDbRegAppTableRecord
  2
CONTENTBLOCKICON
 70
     0
  0
APPID
  5
DEAA
330
746E
100
AcDbSymbolTableRecord
100
AcDbRegAppTableRecord
  2
CONTENTBLOCKDESCRIPTION
 70
     0
  0
APPID
  5
E71D
330
746E
100
AcDbSymbolTableRecord
100
AcDbRegAppTableRecord
  2
CONTENTTABDATA
 70
     0
  0
APPID
  5
E71E
330
746E
100
AcDbSymbolTableRecord
100
AcDbRegAppTableRecord
  2
CONTENTCURRENTTAB
 70
     0
  0
APPID
  5
F3BA
330
746E
100
AcDbSymbolTableRecord
100
AcDbRegAppTableRecord
  2
DRAWINGVARIABLESXDATA
 70
     0
  0
ENDTAB
  0
TABLE
  2
DIMSTYLE
  5
746F
330
0
100
AcDbSymbolTable
 70
     1
100
AcDbDimStyleTable
 71
     1
340
F71F
  0
DIMSTYLE
105
F71F
102
{ACAD_REACTORS
330
2A4C1
330
2A428
330
2A422
330
2A420
330
2A40B
330
2A3C9
330
2A3C8
330
2A3C7
330
2A3BA
330
2A3B9
330
2A3B6
330
2A3B5
330
2A3B3
330
2A3B2
330
2A3AF
330
2A3AC
330
2A3AA
330
2A3A9
330
2A3A6
330
29E7C
330
29997
330
284F0
330
284E9
330
284BE
330
284BD
330
284BC
330
284BB
330
284BA
330
284B9
330
284AF
330
28493
330
2847A
330
2845D
330
2845C
330
2845B
330
2845A
330
28459
330
28458
330
28457
330
28456
330
28454
330
28242
330
2823F
330
28237
330
28236
330
28233
330
28232
330
28231
330
2701E
330
26F7E
330
26F64
330
26F3F
330
26F1A
330
26F00
330
26236
330
1D2D6
330
1AC2C
330
1AC27
102
}
330
746F
100
AcDbSymbolTableRecord
100
AcDbDimStyleTableRecord
  2
INABA_S40G
 70
     0
 40
40.0
 41
2.5
 42
0.5
 43
7.0
 44
1.5
 73
     0
 74
     0
 77
     3
 78
     8
140
3.0
141
0.0
143
0.0394
147
1.0
172
     1
173
     1
174
     1
178
     7
271
     1
340
F706
341
F770
343
F770
344
F770
  0
ENDTAB
  0
TABLE
  2
BLOCK_RECORD
  5
7466
330
0
100
AcDbSymbolTable
 70
    42
  0
BLOCK_RECORD
  5
747D
330
7466
100
AcDbSymbolTableRecord
100
AcDbBlockTableRecord
  2
*MODEL_SPACE
340
173D5
  0
BLOCK_RECORD
  5
747A
330
7466
100
AcDbSymbolTableRecord
100
AcDbBlockTableRecord
  2
*PAPER_SPACE
340
173D6
  0
BLOCK_RECORD
  5
F770
330
7466
100
AcDbSymbolTableRecord
100
AcDbBlockTableRecord
  2
_DOTSMALL
340
0
102
{BLKREFS
331
2A637
331
2A638
331
2A640
331
2A641
331
2A649
331
2A64A
331
2A652
331
2A653
331
2A65B
331
2A65C
331
2A664
331
2A665
331
2A66D
331
2A66E
331
2A677
331
2A678
331
2A681
331
2A682
331
2A68A
331
2A68B
331
2A693
331
2A694
331
2A69C
331
2A69D
331
2A6A5
331
2A6A6
331
2A6AE
331
2A6AF
331
2A6B8
331
2A6B9
331
2A6C1
331
2A6C2
331
2A6CA
331
2A6CB
331
2A6D4
331
2A6D5
331
2A6DD
331
2A6DE
331
2A6E6
331
2A6E7
331
2A6F0
331
2A6F1
331
2A6F9
331
2A6FA
331
2A702
331
2A703
331
2A70B
331
2A70C
331
2A714
331
2A715
331
2A71E
331
2A71F
331
2A728
331
2A729
331
2A731
331
2A732
331
2A73B
331
2A73C
331
2A744
331
2A745
331
2A74D
331
2A74E
331
2A757
331
2A758
331
2A761
331
2A762
331
2A76A
331
2A76B
331
2A774
331
2A775
331
2A77F
331
2A780
331
2A78A
331
2A78B
331
2A795
331
2A796
331
2A7A0
331
2A7A1
331
2A7AB
331
2A7AC
331
2A7B4
331
2A7B5
102
}
  0
BLOCK_RECORD
  5
265C5
330
7466
100
AcDbSymbolTableRecord
100
AcDbBlockTableRecord
  2
*D1
340
0
  0
BLOCK_RECORD
  5
26F01
330
7466
100
AcDbSymbolTableRecord
100
AcDbBlockTableRecord
  2
*D2
340
0
  0
BLOCK_RECORD
  5
26F1B
330
7466
100
AcDbSymbolTableRecord
100
AcDbBlockTableRecord
  2
*D3
340
0
  0
BLOCK_RECORD
  5
26F40
330
7466
100
AcDbSymbolTableRecord
100
AcDbBlockTableRecord
  2
*D4
340
0
  0
BLOCK_RECORD
  5
26F65
330
7466
100
AcDbSymbolTableRecord
100
AcDbBlockTableRecord
  2
*D5
340
0
  0
BLOCK_RECORD
  5
26F7F
330
7466
100
AcDbSymbolTableRecord
100
AcDbBlockTableRecord
  2
*D6
340
0
  0
BLOCK_RECORD
  5
2701F
330
7466
100
AcDbSymbolTableRecord
100
AcDbBlockTableRecord
  2
*D7
340
0
  0
BLOCK_RECORD
  5
284F6
330
7466
100
AcDbSymbolTableRecord
100
AcDbBlockTableRecord
  2
*D8
340
0
  0
BLOCK_RECORD
  5
28501
330
7466
100
AcDbSymbolTableRecord
100
AcDbBlockTableRecord
  2
*D9
340
0
  0
BLOCK_RECORD
  5
2850E
330
7466
100
AcDbSymbolTableRecord
100
AcDbBlockTableRecord
  2
*D10
340
0
  0
BLOCK_RECORD
  5
2851B
330
7466
100
AcDbSymbolTableRecord
100
AcDbBlockTableRecord
  2
*D11
340
0
  0
BLOCK_RECORD
  5
28526
330
7466
100
AcDbSymbolTableRecord
100
AcDbBlockTableRecord
  2
*D12
340
0
  0
BLOCK_RECORD
  5
28531
330
7466
100
AcDbSymbolTableRecord
100
AcDbBlockTableRecord
  2
*D13
340
0
  0
BLOCK_RECORD
  5
2853E
330
7466
100
AcDbSymbolTableRecord
100
AcDbBlockTableRecord
  2
*D14
340
0
  0
BLOCK_RECORD
  5
28586
330
7466
100
AcDbSymbolTableRecord
100
AcDbBlockTableRecord
  2
*D15
340
0
  0
BLOCK_RECORD
  5
2859D
330
7466
100
AcDbSymbolTableRecord
100
AcDbBlockTableRecord
  2
*D16
340
0
  0
BLOCK_RECORD
  5
285AA
330
7466
100
AcDbSymbolTableRecord
100
AcDbBlockTableRecord
  2
*D17
340
0
  0
BLOCK_RECORD
  5
285B5
330
7466
100
AcDbSymbolTableRecord
100
AcDbBlockTableRecord
  2
*D18
340
0
  0
BLOCK_RECORD
  5
285C1
330
7466
100
AcDbSymbolTableRecord
100
AcDbBlockTableRecord
  2
*D19
340
0
  0
BLOCK_RECORD
  5
285CC
330
7466
100
AcDbSymbolTableRecord
100
AcDbBlockTableRecord
  2
*D20
340
0
  0
BLOCK_RECORD
  5
285D8
330
7466
100
AcDbSymbolTableRecord
100
AcDbBlockTableRecord
  2
*D21
340
0
  0
BLOCK_RECORD
  5
285E5
330
7466
100
AcDbSymbolTableRecord
100
AcDbBlockTableRecord
  2
*D22
340
0
  0
BLOCK_RECORD
  5
285F1
330
7466
100
AcDbSymbolTableRecord
100
AcDbBlockTableRecord
  2
*D23
340
0
  0
BLOCK_RECORD
  5
285FD
330
7466
100
AcDbSymbolTableRecord
100
AcDbBlockTableRecord
  2
*D24
340
0
  0
BLOCK_RECORD
  5
2860A
330
7466
100
AcDbSymbolTableRecord
100
AcDbBlockTableRecord
  2
*D25
340
0
  0
BLOCK_RECORD
  5
28614
330
7466
100
AcDbSymbolTableRecord
100
AcDbBlockTableRecord
  2
*D26
340
0
  0
BLOCK_RECORD
  5
2862D
330
7466
100
AcDbSymbolTableRecord
100
AcDbBlockTableRecord
  2
*D27
340
0
  0
BLOCK_RECORD
  5
2863A
330
7466
100
AcDbSymbolTableRecord
100
AcDbBlockTableRecord
  2
*D28
340
0
  0
BLOCK_RECORD
  5
28646
330
7466
100
AcDbSymbolTableRecord
100
AcDbBlockTableRecord
  2
*D29
340
0
  0
BLOCK_RECORD
  5
28652
330
7466
100
AcDbSymbolTableRecord
100
AcDbBlockTableRecord
  2
*D30
340
0
  0
BLOCK_RECORD
  5
2865E
330
7466
100
AcDbSymbolTableRecord
100
AcDbBlockTableRecord
  2
*D31
340
0
  0
BLOCK_RECORD
  5
2866A
330
7466
100
AcDbSymbolTableRecord
100
AcDbBlockTableRecord
  2
*D32
340
0
  0
BLOCK_RECORD
  5
28675
330
7466
100
AcDbSymbolTableRecord
100
AcDbBlockTableRecord
  2
*D33
340
0
  0
BLOCK_RECORD
  5
28682
330
7466
100
AcDbSymbolTableRecord
100
AcDbBlockTableRecord
  2
*D34
340
0
  0
BLOCK_RECORD
  5
29F23
330
7466
100
AcDbSymbolTableRecord
100
AcDbBlockTableRecord
  2
*D35
340
0
  0
BLOCK_RECORD
  5
2A4D1
330
7466
100
AcDbSymbolTableRecord
100
AcDbBlockTableRecord
  2
*D36
340
0
  0
BLOCK_RECORD
  5
2A4DD
330
7466
100
AcDbSymbolTableRecord
100
AcDbBlockTableRecord
  2
*D37
340
0
  0
BLOCK_RECORD
  5
2A4E9
330
7466
100
AcDbSymbolTableRecord
100
AcDbBlockTableRecord
  2
*D38
340
0
  0
BLOCK_RECORD
  5
2A4F5
330
7466
100
AcDbSymbolTableRecord
100
AcDbBlockTableRecord
  2
*D39
340
0
  0
BLOCK_RECORD
  5
2A501
330
7466
100
AcDbSymbolTableRecord
100
AcDbBlockTableRecord
  2
*D40
340
0
  0
BLOCK_RECORD
  5
2A50C
330
7466
100
AcDbSymbolTableRecord
100
AcDbBlockTableRecord
  2
*D41
340
0
  0
ENDTAB
  0
ENDSEC
  0
SECTION
  2
BLOCKS
  0
BLOCK
  5
7489
330
747D
100
AcDbEntity
  8
0
100
AcDbBlockBegin
  2
*MODEL_SPACE
 70
     0
 10
0.0
 20
0.0
 30
0.0
  3
*MODEL_SPACE
  1

  0
ENDBLK
  5
748A
330
747D
100
AcDbEntity
  8
0
100
AcDbBlockEnd
  0
BLOCK
  5
7487
330
747A
100
AcDbEntity
 67
     1
  8
0
100
AcDbBlockBegin
  2
*PAPER_SPACE
 70
     0
 10
0.0
 20
0.0
 30
0.0
  3
*PAPER_SPACE
  1

  0
ENDBLK
  5
7488
330
747A
100
AcDbEntity
 67
     1
  8
0
100
AcDbBlockEnd
  0
BLOCK
  5
F771
330
F770
100
AcDbEntity
  8
0
 48
50.0
100
AcDbBlockBegin
  2
_DOTSMALL
 70
     0
 10
0.0
 20
0.0
 30
0.0
  3
_DOTSMALL
  1

  0
LWPOLYLINE
  5
F772
330
F770
100
AcDbEntity
  8
0
  6
ByBlock
 62
     0
 48
50.0
100
AcDbPolyline
 90
        2
 70
     1
 43
0.5
 10
-0.0625
 20
0.0
 42
1.0
 10
0.0625
 20
0.0
 42
1.0
  0
ENDBLK
  5
F776
330
F770
100
AcDbEntity
  8
0
 48
50.0
100
AcDbBlockEnd
  0
BLOCK
  5
265CE
330
265C5
100
AcDbEntity
  8
0
 48
50.0
100
AcDbBlockBegin
  2
*D1
 70
     1
 10
0.0
 20
0.0
 30
0.0
  3
*D1
  1

  0
LINE
  5
2A7B1
330
265C5
100
AcDbEntity
  8
寸法
 62
     0
 48
50.0
370
    -2
100
AcDbLine
 10
5621.6
 20
5562.813451093178
 30
0.0
 11
5621.6
 21
5037.968436750998
 31
0.0
  0
LINE
  5
2A7B2
330
265C5
100
AcDbEntity
  8
寸法
 62
     0
 48
50.0
370
    -2
100
AcDbLine
 10
5168.600000000001
 20
5637.813451093188
 30
0.0
 11
5168.600000000001
 21
5037.968436750998
 31
0.0
  0
LINE
  5
2A7B3
330
265C5
100
AcDbEntity
  8
寸法
 62
     0
 48
50.0
370
    -2
100
AcDbLine
 10
5621.6
 20
5097.968436750998
 30
0.0
 11
5168.600000000001
 21
5097.968436750998
 31
0.0
  0
INSERT
  5
2A7B4
330
265C5
100
AcDbEntity
  8
寸法
 62
     0
 48
50.0
370
    -2
100
AcDbBlockReference
  2
_DOTSMALL
 10
5621.6
 20
5097.968436750998
 30
0.0
 41
100.0
 42
100.0
 43
100.0
  0
INSERT
  5
2A7B5
330
265C5
100
AcDbEntity
  8
寸法
 62
     0
 48
50.0
370
    -2
100
AcDbBlockReference
  2
_DOTSMALL
 10
5168.600000000001
 20
5097.968436750998
 30
0.0
 41
100.0
 42
100.0
 43
100.0
 50
180.0
  0
MTEXT
  5
2A7B6
330
265C5
100
AcDbEntity
  8
寸法
 62
     7
 48
50.0
100
AcDbMText
 10
5395.100000000001
 20
5197.968436750998
 30
0.0
 40
120.0
 41
0.0
 71
     5
 72
     1
  1
\A1;453
  7
STYLE1
 73
     1
 44
1.0
1001
ACAD
1000
MTEXTBEGIN
1070
    73
1070
     1
1070
    44
1040
1.0
1070
    74
1070
     0
1000
MTEXTEND
  0
POINT
  5
2A7B7
330
265C5
100
AcDbEntity
  8
DEFPOINTS
 62
     0
 48
50.0
100
AcDbPoint
 10
5621.6
 20
5582.813451093177
 30
0.0
  0
POINT
  5
2A7B8
330
265C5
100
AcDbEntity
  8
DEFPOINTS
 62
     0
 48
50.0
100
AcDbPoint
 10
5168.600000000001
 20
5657.813451093189
 30
0.0
  0
POINT
  5
2A7B9
330
265C5
100
AcDbEntity
  8
DEFPOINTS
 62
     0
 48
50.0
100
AcDbPoint
 10
5168.600000000001
 20
5097.968436750998
 30
0.0
  0
ENDBLK
  5
265CF
330
265C5
100
AcDbEntity
  8
0
 48
50.0
100
AcDbBlockEnd
  0
BLOCK
  5
26F0D
330
26F01
100
AcDbEntity
  8
0
 48
50.0
100
AcDbBlockBegin
  2
*D2
 70
     1
 10
0.0
 20
0.0
 30
0.0
  3
*D2
  1

  0
LINE
  5
2A7A6
330
26F01
100
AcDbEntity
  8
寸法
 62
     0
 48
50.0
370
    -2
100
AcDbLine
 10
7796.600000000001
 20
5582.813451093212
 30
0.0
 11
8103.202780124334
 21
5582.813451093212
 31
0.0
  0
LINE
  5
2A7A7
330
26F01
100
AcDbEntity
  8
寸法
 62
     0
 48
50.0
370
    -2
100
AcDbLine
 10
7796.600000000009
 20
5657.813451093213
 30
0.0
 11
8103.202780124334
 21
5657.813451093213
 31
0.0
  0
LINE
  5
2A7A8
330
26F01
100
AcDbEntity
  8
寸法
 62
     0
 48
50.0
370
    -2
100
AcDbLine
 10
8043.202780124335
 20
5657.813451093213
 30
0.0
 11
8043.202780124335
 21
5757.813451093213
 31
0.0
  0
LINE
  5
2A7A9
330
26F01
100
AcDbEntity
  8
寸法
 62
     0
 48
50.0
370
    -2
100
AcDbLine
 10
8043.202780124335
 20
5582.813451093212
 30
0.0
 11
8043.202780124335
 21
4715.842888344734
 31
0.0
  0
LINE
  5
2A7AA
330
26F01
100
AcDbEntity
  8
寸法
 62
     0
 48
50.0
370
    -2
100
AcDbLine
 10
8043.202780124335
 20
5657.813451093213
 30
0.0
 11
8043.202780124335
 21
5582.813451093212
 31
0.0
  0
INSERT
  5
2A7AB
330
26F01
100
AcDbEntity
  8
寸法
 62
     0
 48
50.0
370
    -2
100
AcDbBlockReference
  2
_DOTSMALL
 10
8043.202780124335
 20
5657.813451093213
 30
0.0
 41
100.0
 42
100.0
 43
100.0
 50
270.0
  0
INSERT
  5
2A7AC
330
26F01
100
AcDbEntity
  8
寸法
 62
     0
 48
50.0
370
    -2
100
AcDbBlockReference
  2
_DOTSMALL
 10
8043.202780124335
 20
5582.813451093212
 30
0.0
 41
100.0
 42
100.0
 43
100.0
 50
90.0
  0
MTEXT
  5
2A7AD
330
26F01
100
AcDbEntity
  8
寸法
 62
     7
 48
50.0
100
AcDbMText
 10
7943.202780124334
 20
5049.328169718973
 30
0.0
 40
120.0
 41
0.0
 71
     5
 72
     1
  1
\A1;扉の出75
  7
STYLE1
 11
0.0000000000000001
 21
1.0
 31
0.0
 73
     1
 44
1.0
1001
ACAD
1000
MTEXTBEGIN
1070
    73
1070
     1
1070
    44
1040
1.0
1070
    74
1070
     0
1000
MTEXTEND
  0
POINT
  5
2A7AE
330
26F01
100
AcDbEntity
  8
DEFPOINTS
 62
     0
 48
50.0
100
AcDbPoint
 10
7776.600000000001
 20
5582.813451093212
 30
0.0
  0
POINT
  5
2A7AF
330
26F01
100
AcDbEntity
  8
DEFPOINTS
 62
     0
 48
50.0
100
AcDbPoint
 10
7776.600000000009
 20
5657.813451093213
 30
0.0
  0
POINT
  5
2A7B0
330
26F01
100
AcDbEntity
  8
DEFPOINTS
 62
     0
 48
50.0
100
AcDbPoint
 10
8043.202780124335
 20
5657.813451093213
 30
0.0
  0
ENDBLK
  5
26F0E
330
26F01
100
AcDbEntity
  8
0
 48
50.0
100
AcDbBlockEnd
  0
BLOCK
  5
26F27
330
26F1B
100
AcDbEntity
  8
0
 48
50.0
100
AcDbBlockBegin
  2
*D3
 70
     1
 10
0.0
 20
0.0
 30
0.0
  3
*D3
  1

  0
LINE
  5
2A79B
330
26F1B
100
AcDbEntity
  8
寸法
 62
     0
 48
50.0
370
    -2
100
AcDbLine
 10
4652.657733986178
 20
8372.813451093191
 30
0.0
 11
4367.164931848213
 21
8372.813451093191
 31
0.0
  0
LINE
  5
2A79C
330
26F1B
100
AcDbEntity
  8
寸法
 62
     0
 48
50.0
370
    -2
100
AcDbLine
 10
5148.600000000002
 20
8297.813451093189
 30
0.0
 11
4367.164931848213
 21
8297.813451093189
 31
0.0
  0
LINE
  5
2A79D
330
26F1B
100
AcDbEntity
  8
寸法
 62
     0
 48
50.0
370
    -2
100
AcDbLine
 10
4427.164931848213
 20
8372.813451093191
 30
0.0
 11
4427.164931848213
 21
8472.813451093191
 31
0.0
  0
LINE
  5
2A79E
330
26F1B
100
AcDbEntity
  8
寸法
 62
     0
 48
50.0
370
    -2
100
AcDbLine
 10
4427.164931848213
 20
8297.813451093189
 30
0.0
 11
4427.164931848213
 21
8197.813451093189
 31
0.0
  0
LINE
  5
2A79F
330
26F1B
100
AcDbEntity
  8
寸法
 62
     0
 48
50.0
370
    -2
100
AcDbLine
 10
4427.164931848213
 20
8372.813451093191
 30
0.0
 11
4427.164931848213
 21
8297.813451093189
 31
0.0
  0
INSERT
  5
2A7A0
330
26F1B
100
AcDbEntity
  8
寸法
 62
     0
 48
50.0
370
    -2
100
AcDbBlockReference
  2
_DOTSMALL
 10
4427.164931848213
 20
8372.813451093191
 30
0.0
 41
100.0
 42
100.0
 43
100.0
 50
270.0
  0
INSERT
  5
2A7A1
330
26F1B
100
AcDbEntity
  8
寸法
 62
     0
 48
50.0
370
    -2
100
AcDbBlockReference
  2
_DOTSMALL
 10
4427.164931848213
 20
8297.813451093189
 30
0.0
 41
100.0
 42
100.0
 43
100.0
 50
90.0
  0
MTEXT
  5
2A7A2
330
26F1B
100
AcDbEntity
  8
寸法
 62
     7
 48
50.0
100
AcDbMText
 10
4327.164931848212
 20
8335.313451093192
 30
0.0
 40
120.0
 41
0.0
 71
     5
 72
     1
  1
\A1;c
  7
STYLE1
 11
0.0000000000000001
 21
1.0
 31
0.0
 73
     1
 44
1.0
1001
ACAD
1000
MTEXTBEGIN
1070
    73
1070
     1
1070
    44
1040
1.0
1070
    74
1070
     0
1000
MTEXTEND
  0
POINT
  5
2A7A3
330
26F1B
100
AcDbEntity
  8
DEFPOINTS
 62
     0
 48
50.0
100
AcDbPoint
 10
4672.657733986179
 20
8372.813451093191
 30
0.0
  0
POINT
  5
2A7A4
330
26F1B
100
AcDbEntity
  8
DEFPOINTS
 62
     0
 48
50.0
100
AcDbPoint
 10
5168.600000000002
 20
8297.813451093189
 30
0.0
  0
POINT
  5
2A7A5
330
26F1B
100
AcDbEntity
  8
DEFPOINTS
 62
     0
 48
50.0
100
AcDbPoint
 10
4427.164931848213
 20
8297.813451093189
 30
0.0
  0
ENDBLK
  5
26F28
330
26F1B
100
AcDbEntity
  8
0
 48
50.0
100
AcDbBlockEnd
  0
BLOCK
  5
26F4C
330
26F40
100
AcDbEntity
  8
0
 48
50.0
100
AcDbBlockBegin
  2
*D4
 70
     1
 10
0.0
 20
0.0
 30
0.0
  3
*D4
  1

  0
LINE
  5
2A790
330
26F40
100
AcDbEntity
  8
寸法
 62
     0
 48
50.0
370
    -2
100
AcDbLine
 10
5155.050294581425
 20
5657.813451093189
 30
0.0
 11
4367.16493184821
 21
5657.813451093189
 31
0.0
  0
LINE
  5
2A791
330
26F40
100
AcDbEntity
  8
寸法
 62
     0
 48
50.0
370
    -2
100
AcDbLine
 10
4652.657733986178
 20
5602.813451093211
 30
0.0
 11
4367.16493184821
 21
5602.813451093211
 31
0.0
  0
LINE
  5
2A792
330
26F40
100
AcDbEntity
  8
寸法
 62
     0
 48
50.0
370
    -2
100
AcDbLine
 10
4427.16493184821
 20
5657.813451093189
 30
0.0
 11
4427.16493184821
 21
5757.813451093189
 31
0.0
  0
LINE
  5
2A793
330
26F40
100
AcDbEntity
  8
寸法
 62
     0
 48
50.0
370
    -2
100
AcDbLine
 10
4427.16493184821
 20
5602.813451093211
 30
0.0
 11
4427.16493184821
 21
5502.81345109321
 31
0.0
  0
LINE
  5
2A794
330
26F40
100
AcDbEntity
  8
寸法
 62
     0
 48
50.0
370
    -2
100
AcDbLine
 10
4427.16493184821
 20
5657.813451093189
 30
0.0
 11
4427.16493184821
 21
5602.813451093211
 31
0.0
  0
INSERT
  5
2A795
330
26F40
100
AcDbEntity
  8
寸法
 62
     0
 48
50.0
370
    -2
100
AcDbBlockReference
  2
_DOTSMALL
 10
4427.16493184821
 20
5657.813451093189
 30
0.0
 41
100.0
 42
100.0
 43
100.0
 50
270.0
  0
INSERT
  5
2A796
330
26F40
100
AcDbEntity
  8
寸法
 62
     0
 48
50.0
370
    -2
100
AcDbBlockReference
  2
_DOTSMALL
 10
4427.16493184821
 20
5602.813451093211
 30
0.0
 41
100.0
 42
100.0
 43
100.0
 50
90.0
  0
MTEXT
  5
2A797
330
26F40
100
AcDbEntity
  8
寸法
 62
     7
 48
50.0
100
AcDbMText
 10
4327.164931848209
 20
5630.313451093201
 30
0.0
 40
120.0
 41
0.0
 71
     5
 72
     1
  1
\A1;b
  7
STYLE1
 11
0.0000000000000001
 21
1.0
 31
0.0
 73
     1
 44
1.0
1001
ACAD
1000
MTEXTBEGIN
1070
    73
1070
     1
1070
    44
1040
1.0
1070
    74
1070
     0
1000
MTEXTEND
  0
POINT
  5
2A798
330
26F40
100
AcDbEntity
  8
DEFPOINTS
 62
     0
 48
50.0
100
AcDbPoint
 10
5175.050294581424
 20
5657.813451093189
 30
0.0
  0
POINT
  5
2A799
330
26F40
100
AcDbEntity
  8
DEFPOINTS
 62
     0
 48
50.0
100
AcDbPoint
 10
4672.657733986179
 20
5602.813451093211
 30
0.0
  0
POINT
  5
2A79A
330
26F40
100
AcDbEntity
  8
DEFPOINTS
 62
     0
 48
50.0
100
AcDbPoint
 10
4427.16493184821
 20
5602.813451093211
 30
0.0
  0
ENDBLK
  5
26F4D
330
26F40
100
AcDbEntity
  8
0
 48
50.0
100
AcDbBlockEnd
  0
BLOCK
  5
26F71
330
26F65
100
AcDbEntity
  8
0
 48
50.0
100
AcDbBlockBegin
  2
*D5
 70
     1
 10
0.0
 20
0.0
 30
0.0
  3
*D5
  1

  0
LINE
  5
2A785
330
26F65
100
AcDbEntity
  8
寸法
 62
     0
 48
50.0
370
    -2
100
AcDbLine
 10
11278.6
 20
8317.813451093186
 30
0.0
 11
11278.6
 21
9316.033773152108
 31
0.0
  0
LINE
  5
2A786
330
26F65
100
AcDbEntity
  8
寸法
 62
     0
 48
50.0
370
    -2
100
AcDbLine
 10
11323.6
 20
9063.57307763527
 30
0.0
 11
11323.6
 21
9316.033773152108
 31
0.0
  0
LINE
  5
2A787
330
26F65
100
AcDbEntity
  8
寸法
 62
     0
 48
50.0
370
    -2
100
AcDbLine
 10
11278.6
 20
9256.033773152109
 30
0.0
 11
11178.6
 21
9256.033773152109
 31
0.0
  0
LINE
  5
2A788
330
26F65
100
AcDbEntity
  8
寸法
 62
     0
 48
50.0
370
    -2
100
AcDbLine
 10
11323.6
 20
9256.033773152109
 30
0.0
 11
11660.94924240491
 21
9256.033773152109
 31
0.0
  0
LINE
  5
2A789
330
26F65
100
AcDbEntity
  8
寸法
 62
     0
 48
50.0
370
    -2
100
AcDbLine
 10
11278.6
 20
9256.033773152109
 30
0.0
 11
11323.6
 21
9256.033773152109
 31
0.0
  0
INSERT
  5
2A78A
330
26F65
100
AcDbEntity
  8
寸法
 62
     0
 48
50.0
370
    -2
100
AcDbBlockReference
  2
_DOTSMALL
 10
11278.6
 20
9256.033773152109
 30
0.0
 41
100.0
 42
100.0
 43
100.0
  0
INSERT
  5
2A78B
330
26F65
100
AcDbEntity
  8
寸法
 62
     0
 48
50.0
370
    -2
100
AcDbBlockReference
  2
_DOTSMALL
 10
11323.6
 20
9256.033773152109
 30
0.0
 41
100.0
 42
100.0
 43
100.0
 50
180.0
  0
MTEXT
  5
2A78C
330
26F65
100
AcDbEntity
  8
寸法
 62
     7
 48
50.0
100
AcDbMText
 10
11594.77462120245
 20
9356.033773152109
 30
0.0
 40
120.0
 41
0.0
 71
     5
 72
     1
  1
\A1;a
  7
STYLE1
 73
     1
 44
1.0
1001
ACAD
1000
MTEXTBEGIN
1070
    73
1070
     1
1070
    44
1040
1.0
1070
    74
1070
     0
1000
MTEXTEND
  0
POINT
  5
2A78D
330
26F65
100
AcDbEntity
  8
DEFPOINTS
 62
     0
 48
50.0
100
AcDbPoint
 10
11278.6
 20
8297.813451093187
 30
0.0
  0
POINT
  5
2A78E
330
26F65
100
AcDbEntity
  8
DEFPOINTS
 62
     0
 48
50.0
100
AcDbPoint
 10
11323.6
 20
9043.57307763527
 30
0.0
  0
POINT
  5
2A78F
330
26F65
100
AcDbEntity
  8
DEFPOINTS
 62
     0
 48
50.0
100
AcDbPoint
 10
11323.6
 20
9256.033773152109
 30
0.0
  0
ENDBLK
  5
26F72
330
26F65
100
AcDbEntity
  8
0
 48
50.0
100
AcDbBlockEnd
  0
BLOCK
  5
26F8B
330
26F7F
100
AcDbEntity
  8
0
 48
50.0
100
AcDbBlockBegin
  2
*D6
 70
     1
 10
0.0
 20
0.0
 30
0.0
  3
*D6
  1

  0
LINE
  5
2A77A
330
26F7F
100
AcDbEntity
  8
寸法
 62
     0
 48
50.0
370
    -2
100
AcDbLine
 10
5123.600000000006
 20
9063.57307763527
 30
0.0
 11
5123.600000000006
 21
9316.033773152108
 31
0.0
  0
LINE
  5
2A77B
330
26F7F
100
AcDbEntity
  8
寸法
 62
     0
 48
50.0
370
    -2
100
AcDbLine
 10
5168.600000000001
 20
8317.813451093186
 30
0.0
 11
5168.600000000001
 21
9316.033773152108
 31
0.0
  0
LINE
  5
2A77C
330
26F7F
100
AcDbEntity
  8
寸法
 62
     0
 48
50.0
370
    -2
100
AcDbLine
 10
5168.600000000001
 20
9256.033773152109
 30
0.0
 11
5268.600000000001
 21
9256.033773152109
 31
0.0
  0
LINE
  5
2A77D
330
26F7F
100
AcDbEntity
  8
寸法
 62
     0
 48
50.0
370
    -2
100
AcDbLine
 10
5123.600000000006
 20
9256.033773152109
 30
0.0
 11
4786.250757595083
 21
9256.033773152109
 31
0.0
  0
LINE
  5
2A77E
330
26F7F
100
AcDbEntity
  8
寸法
 62
     0
 48
50.0
370
    -2
100
AcDbLine
 10
5168.600000000001
 20
9256.033773152109
 30
0.0
 11
5123.600000000006
 21
9256.033773152109
 31
0.0
  0
INSERT
  5
2A77F
330
26F7F
100
AcDbEntity
  8
寸法
 62
     0
 48
50.0
370
    -2
100
AcDbBlockReference
  2
_DOTSMALL
 10
5168.600000000001
 20
9256.033773152109
 30
0.0
 41
100.0
 42
100.0
 43
100.0
 50
180.0
  0
INSERT
  5
2A780
330
26F7F
100
AcDbEntity
  8
寸法
 62
     0
 48
50.0
370
    -2
100
AcDbBlockReference
  2
_DOTSMALL
 10
5123.600000000006
 20
9256.033773152109
 30
0.0
 41
100.0
 42
100.0
 43
100.0
  0
MTEXT
  5
2A781
330
26F7F
100
AcDbEntity
  8
寸法
 62
     7
 48
50.0
100
AcDbMText
 10
4852.425378797541
 20
9356.033773152109
 30
0.0
 40
120.0
 41
0.0
 71
     5
 72
     1
  1
\A1;a
  7
STYLE1
 73
     1
 44
1.0
1001
ACAD
1000
MTEXTBEGIN
1070
    73
1070
     1
1070
    44
1040
1.0
1070
    74
1070
     0
1000
MTEXTEND
  0
POINT
  5
2A782
330
26F7F
100
AcDbEntity
  8
DEFPOINTS
 62
     0
 48
50.0
100
AcDbPoint
 10
5123.600000000006
 20
9043.57307763527
 30
0.0
  0
POINT
  5
2A783
330
26F7F
100
AcDbEntity
  8
DEFPOINTS
 62
     0
 48
50.0
100
AcDbPoint
 10
5168.600000000001
 20
8297.813451093187
 30
0.0
  0
POINT
  5
2A784
330
26F7F
100
AcDbEntity
  8
DEFPOINTS
 62
     0
 48
50.0
100
AcDbPoint
 10
5168.600000000001
 20
9256.033773152109
 30
0.0
  0
ENDBLK
  5
26F8C
330
26F7F
100
AcDbEntity
  8
0
 48
50.0
100
AcDbBlockEnd
  0
BLOCK
  5
2702B
330
2701F
100
AcDbEntity
  8
0
 48
50.0
100
AcDbBlockBegin
  2
*D7
 70
     1
 10
0.0
 20
0.0
 30
0.0
  3
*D7
  1

  0
LINE
  5
2A770
330
2701F
100
AcDbEntity
  8
寸法
 62
     0
 48
50.0
370
    -2
100
AcDbLine
 10
5641.6
 20
5582.813451093177
 30
0.0
 11
5949.18320630424
 21
5582.813451093177
 31
0.0
  0
LINE
  5
2A771
330
2701F
100
AcDbEntity
  8
寸法
 62
     0
 48
50.0
370
    -2
100
AcDbLine
 10
5641.6
 20
5777.813451093192
 30
0.0
 11
5949.18320630424
 21
5777.813451093192
 31
0.0
  0
LINE
  5
2A772
330
2701F
100
AcDbEntity
  8
寸法
 62
     0
 48
50.0
370
    -2
100
AcDbLine
 10
5889.18320630424
 20
5777.813451093192
 30
0.0
 11
5889.18320630424
 21
5582.813451093177
 31
0.0
  0
LINE
  5
2A773
330
2701F
100
AcDbEntity
  8
寸法
 62
     0
 48
50.0
370
    -2
100
AcDbLine
 10
5889.18320630424
 20
5582.813451093177
 30
0.0
 11
5889.18320630424
 21
5205.423568685387
 31
0.0
  0
INSERT
  5
2A774
330
2701F
100
AcDbEntity
  8
寸法
 62
     0
 48
50.0
370
    -2
100
AcDbBlockReference
  2
_DOTSMALL
 10
5889.18320630424
 20
5777.813451093192
 30
0.0
 41
100.0
 42
100.0
 43
100.0
 50
90.0
  0
INSERT
  5
2A775
330
2701F
100
AcDbEntity
  8
寸法
 62
     0
 48
50.0
370
    -2
100
AcDbBlockReference
  2
_DOTSMALL
 10
5889.18320630424
 20
5582.813451093177
 30
0.0
 41
100.0
 42
100.0
 43
100.0
 50
270.0
  0
MTEXT
  5
2A776
330
2701F
100
AcDbEntity
  8
寸法
 62
     7
 48
50.0
100
AcDbMText
 10
5789.183206304239
 20
5344.118509889284
 30
0.0
 40
120.0
 41
0.0
 71
     5
 72
     1
  1
\A1;195
  7
STYLE1
 11
0.0000000000000001
 21
1.0
 31
0.0
 73
     1
 44
1.0
1001
ACAD
1000
MTEXTBEGIN
1070
    73
1070
     1
1070
    44
1040
1.0
1070
    74
1070
     0
1000
MTEXTEND
  0
POINT
  5
2A777
330
2701F
100
AcDbEntity
  8
DEFPOINTS
 62
     0
 48
50.0
100
AcDbPoint
 10
5621.6
 20
5582.813451093177
 30
0.0
  0
POINT
  5
2A778
330
2701F
100
AcDbEntity
  8
DEFPOINTS
 62
     0
 48
50.0
100
AcDbPoint
 10
5621.6
 20
5777.813451093192
 30
0.0
  0
POINT
  5
2A779
330
2701F
100
AcDbEntity
  8
DEFPOINTS
 62
     0
 48
50.0
100
AcDbPoint
 10
5889.18320630424
 20
5777.813451093192
 30
0.0
  0
ENDBLK
  5
2702C
330
2701F
100
AcDbEntity
  8
0
 48
50.0
100
AcDbBlockEnd
  0
BLOCK
  5
284FF
330
284F6
100
AcDbEntity
  8
0
 48
50.0
100
AcDbBlockBegin
  2
*D8
 70
     1
 10
0.0
 20
0.0
 30
0.0
  3
*D8
  1

  0
LINE
  5
2A767
330
284F6
100
AcDbEntity
  8
寸法
 62
     0
 48
50.0
370
    -2
100
AcDbLine
 10
11155.6
 20
8244.81345109319
 30
0.0
 11
11155.6
 21
9103.573077635273
 31
0.0
  0
LINE
  5
2A768
330
284F6
100
AcDbEntity
  8
寸法
 62
     0
 48
50.0
370
    -2
100
AcDbLine
 10
8105.6
 20
8244.81345109319
 30
0.0
 11
8105.6
 21
9103.573077635273
 31
0.0
  0
LINE
  5
2A769
330
284F6
100
AcDbEntity
  8
寸法
 62
     0
 48
50.0
370
    -2
100
AcDbLine
 10
11155.6
 20
9043.573077635272
 30
0.0
 11
8105.6
 21
9043.573077635272
 31
0.0
  0
INSERT
  5
2A76A
330
284F6
100
AcDbEntity
  8
寸法
 62
     0
 48
50.0
370
    -2
100
AcDbBlockReference
  2
_DOTSMALL
 10
11155.6
 20
9043.573077635272
 30
0.0
 41
100.0
 42
100.0
 43
100.0
  0
INSERT
  5
2A76B
330
284F6
100
AcDbEntity
  8
寸法
 62
     0
 48
50.0
370
    -2
100
AcDbBlockReference
  2
_DOTSMALL
 10
8105.6
 20
9043.573077635272
 30
0.0
 41
100.0
 42
100.0
 43
100.0
 50
180.0
  0
MTEXT
  5
2A76C
330
284F6
100
AcDbEntity
  8
寸法
 62
     7
 48
50.0
100
AcDbMText
 10
9630.600000000001
 20
9143.573077635272
 30
0.0
 40
120.0
 41
0.0
 71
     5
 72
     1
  1
\A1;3050
  7
STYLE1
 73
     1
 44
1.0
1001
ACAD
1000
MTEXTBEGIN
1070
    73
1070
     1
1070
    44
1040
1.0
1070
    74
1070
     0
1000
MTEXTEND
  0
POINT
  5
2A76D
330
284F6
100
AcDbEntity
  8
DEFPOINTS
 62
     0
 48
50.0
100
AcDbPoint
 10
11155.6
 20
8224.813451093188
 30
0.0
  0
POINT
  5
2A76E
330
284F6
100
AcDbEntity
  8
DEFPOINTS
 62
     0
 48
50.0
100
AcDbPoint
 10
8105.6
 20
8224.813451093188
 30
0.0
  0
POINT
  5
2A76F
330
284F6
100
AcDbEntity
  8
DEFPOINTS
 62
     0
 48
50.0
100
AcDbPoint
 10
8105.6
 20
9043.573077635272
 30
0.0
  0
ENDBLK
  5
28500
330
284F6
100
AcDbEntity
  8
0
 48
50.0
100
AcDbBlockEnd
  0
BLOCK
  5
2850C
330
28501
100
AcDbEntity
  8
0
 48
50.0
100
AcDbBlockBegin
  2
*D9
 70
     1
 10
0.0
 20
0.0
 30
0.0
  3
*D9
  1

  0
LINE
  5
2A75D
330
28501
100
AcDbEntity
  8
寸法
 62
     0
 48
50.0
370
    -2
100
AcDbLine
 10
8255.600000000001
 20
5657.813451093216
 30
0.0
 11
8730.144386142111
 21
5657.813451093216
 31
0.0
  0
LINE
  5
2A75E
330
28501
100
AcDbEntity
  8
寸法
 62
     0
 48
50.0
370
    -2
100
AcDbLine
 10
8255.600000000001
 20
5777.813451093198
 30
0.0
 11
8730.144386142111
 21
5777.813451093198
 31
0.0
  0
LINE
  5
2A75F
330
28501
100
AcDbEntity
  8
寸法
 62
     0
 48
50.0
370
    -2
100
AcDbLine
 10
8670.14438614211
 20
5777.813451093198
 30
0.0
 11
8670.14438614211
 21
5657.813451093216
 31
0.0
  0
LINE
  5
2A760
330
28501
100
AcDbEntity
  8
寸法
 62
     0
 48
50.0
370
    -2
100
AcDbLine
 10
8670.14438614211
 20
5657.813451093216
 30
0.0
 11
8670.14438614211
 21
5198.934133655614
 31
0.0
  0
INSERT
  5
2A761
330
28501
100
AcDbEntity
  8
寸法
 62
     0
 48
50.0
370
    -2
100
AcDbBlockReference
  2
_DOTSMALL
 10
8670.14438614211
 20
5777.813451093198
 30
0.0
 41
100.0
 42
100.0
 43
100.0
 50
90.0
  0
INSERT
  5
2A762
330
28501
100
AcDbEntity
  8
寸法
 62
     0
 48
50.0
370
    -2
100
AcDbBlockReference
  2
_DOTSMALL
 10
8670.14438614211
 20
5657.813451093216
 30
0.0
 41
100.0
 42
100.0
 43
100.0
 50
270.0
  0
MTEXT
  5
2A763
330
28501
100
AcDbEntity
  8
寸法
 62
     7
 48
50.0
100
AcDbMText
 10
8570.132575118487
 20
5334.981377750104
 30
0.0
 40
120.0
 41
0.0
 71
     5
 72
     1
  1
\A1;120
  7
STYLE1
 11
0.0000000000000001
 21
1.0
 31
0.0
 73
     1
 44
1.0
1001
ACAD
1000
MTEXTBEGIN
1070
    73
1070
     1
1070
    44
1040
1.0
1070
    74
1070
     0
1000
MTEXTEND
  0
POINT
  5
2A764
330
28501
100
AcDbEntity
  8
DEFPOINTS
 62
     0
 48
50.0
100
AcDbPoint
 10
8235.600000000001
 20
5657.813451093216
 30
0.0
  0
POINT
  5
2A765
330
28501
100
AcDbEntity
  8
DEFPOINTS
 62
     0
 48
50.0
100
AcDbPoint
 10
8235.600000000001
 20
5777.813451093198
 30
0.0
  0
POINT
  5
2A766
330
28501
100
AcDbEntity
  8
DEFPOINTS
 62
     0
 48
50.0
100
AcDbPoint
 10
8670.14438614211
 20
5777.813451093198
 30
0.0
  0
ENDBLK
  5
2850D
330
28501
100
AcDbEntity
  8
0
 48
50.0
100
AcDbBlockEnd
  0
BLOCK
  5
28519
330
2850E
100
AcDbEntity
  8
0
 48
50.0
100
AcDbBlockBegin
  2
*D10
 70
     1
 10
0.0
 20
0.0
 30
0.0
  3
*D10
  1

  0
LINE
  5
2A753
330
2850E
100
AcDbEntity
  8
寸法
 62
     0
 48
50.0
370
    -2
100
AcDbLine
 10
8255.600000000001
 20
5777.813451093198
 30
0.0
 11
8730.144386142111
 21
5777.813451093198
 31
0.0
  0
LINE
  5
2A754
330
2850E
100
AcDbEntity
  8
寸法
 62
     0
 48
50.0
370
    -2
100
AcDbLine
 10
8255.600000000001
 20
5887.813451093207
 30
0.0
 11
8730.144386142111
 21
5887.813451093207
 31
0.0
  0
LINE
  5
2A755
330
2850E
100
AcDbEntity
  8
寸法
 62
     0
 48
50.0
370
    -2
100
AcDbLine
 10
8670.14438614211
 20
5777.813451093198
 30
0.0
 11
8670.14438614211
 21
5887.813451093207
 31
0.0
  0
LINE
  5
2A756
330
2850E
100
AcDbEntity
  8
寸法
 62
     0
 48
50.0
370
    -2
100
AcDbLine
 10
8670.14438614211
 20
5887.813451093207
 30
0.0
 11
8670.14438614211
 21
6247.907939282183
 31
0.0
  0
INSERT
  5
2A757
330
2850E
100
AcDbEntity
  8
寸法
 62
     0
 48
50.0
370
    -2
100
AcDbBlockReference
  2
_DOTSMALL
 10
8670.14438614211
 20
5777.813451093198
 30
0.0
 41
100.0
 42
100.0
 43
100.0
 50
270.0
  0
INSERT
  5
2A758
330
2850E
100
AcDbEntity
  8
寸法
 62
     0
 48
50.0
370
    -2
100
AcDbBlockReference
  2
_DOTSMALL
 10
8670.14438614211
 20
5887.813451093207
 30
0.0
 41
100.0
 42
100.0
 43
100.0
 50
90.0
  0
MTEXT
  5
2A759
330
2850E
100
AcDbEntity
  8
寸法
 62
     7
 48
50.0
100
AcDbMText
 10
8570.144386142109
 20
6123.860695187697
 30
0.0
 40
120.0
 41
0.0
 71
     5
 72
     1
  1
\A1;110
  7
STYLE1
 11
0.0000000000000001
 21
1.0
 31
0.0
 73
     1
 44
1.0
1001
ACAD
1000
MTEXTBEGIN
1070
    73
1070
     1
1070
    44
1040
1.0
1070
    74
1070
     0
1000
MTEXTEND
  0
POINT
  5
2A75A
330
2850E
100
AcDbEntity
  8
DEFPOINTS
 62
     0
 48
50.0
100
AcDbPoint
 10
8235.600000000001
 20
5777.813451093198
 30
0.0
  0
POINT
  5
2A75B
330
2850E
100
AcDbEntity
  8
DEFPOINTS
 62
     0
 48
50.0
100
AcDbPoint
 10
8235.600000000001
 20
5887.813451093207
 30
0.0
  0
POINT
  5
2A75C
330
2850E
100
AcDbEntity
  8
DEFPOINTS
 62
     0
 48
50.0
100
AcDbPoint
 10
8670.14438614211
 20
5887.813451093207
 30
0.0
  0
ENDBLK
  5
2851A
330
2850E
100
AcDbEntity
  8
0
 48
50.0
100
AcDbBlockEnd
  0
BLOCK
  5
28524
330
2851B
100
AcDbEntity
  8
0
 48
50.0
100
AcDbBlockBegin
  2
*D11
 70
     1
 10
0.0
 20
0.0
 30
0.0
  3
*D11
  1

  0
LINE
  5
2A74A
330
2851B
100
AcDbEntity
  8
寸法
 62
     0
 48
50.0
370
    -2
100
AcDbLine
 10
9021.600000000001
 20
7642.813451093191
 30
0.0
 11
9021.600000000001
 21
8884.723216741516
 31
0.0
  0
LINE
  5
2A74B
330
2851B
100
AcDbEntity
  8
寸法
 62
     0
 48
50.0
370
    -2
100
AcDbLine
 10
8223.600000000001
 20
7642.813451093191
 30
0.0
 11
8223.600000000001
 21
8884.723216741516
 31
0.0
  0
LINE
  5
2A74C
330
2851B
100
AcDbEntity
  8
寸法
 62
     0
 48
50.0
370
    -2
100
AcDbLine
 10
9021.600000000001
 20
8824.723216741515
 30
0.0
 11
8223.600000000001
 21
8824.723216741515
 31
0.0
  0
INSERT
  5
2A74D
330
2851B
100
AcDbEntity
  8
寸法
 62
     0
 48
50.0
370
    -2
100
AcDbBlockReference
  2
_DOTSMALL
 10
9021.600000000001
 20
8824.723216741515
 30
0.0
 41
100.0
 42
100.0
 43
100.0
  0
INSERT
  5
2A74E
330
2851B
100
AcDbEntity
  8
寸法
 62
     0
 48
50.0
370
    -2
100
AcDbBlockReference
  2
_DOTSMALL
 10
8223.600000000001
 20
8824.723216741515
 30
0.0
 41
100.0
 42
100.0
 43
100.0
 50
180.0
  0
MTEXT
  5
2A74F
330
2851B
100
AcDbEntity
  8
寸法
 62
     7
 48
50.0
100
AcDbMText
 10
8622.6
 20
8924.723216741515
 30
0.0
 40
120.0
 41
0.0
 71
     5
 72
     1
  1
\A1;798
  7
STYLE1
 73
     1
 44
1.0
1001
ACAD
1000
MTEXTBEGIN
1070
    73
1070
     1
1070
    44
1040
1.0
1070
    74
1070
     0
1000
MTEXTEND
  0
POINT
  5
2A750
330
2851B
100
AcDbEntity
  8
DEFPOINTS
 62
     0
 48
50.0
100
AcDbPoint
 10
9021.600000000001
 20
7622.813451093191
 30
0.0
  0
POINT
  5
2A751
330
2851B
100
AcDbEntity
  8
DEFPOINTS
 62
     0
 48
50.0
100
AcDbPoint
 10
8223.600000000001
 20
7622.813451093191
 30
0.0
  0
POINT
  5
2A752
330
2851B
100
AcDbEntity
  8
DEFPOINTS
 62
     0
 48
50.0
100
AcDbPoint
 10
8223.600000000001
 20
8824.723216741515
 30
0.0
  0
ENDBLK
  5
28525
330
2851B
100
AcDbEntity
  8
0
 48
50.0
100
AcDbBlockEnd
  0
BLOCK
  5
2852F
330
28526
100
AcDbEntity
  8
0
 48
50.0
100
AcDbBlockBegin
  2
*D12
 70
     1
 10
0.0
 20
0.0
 30
0.0
  3
*D12
  1

  0
LINE
  5
2A741
330
28526
100
AcDbEntity
  8
寸法
 62
     0
 48
50.0
370
    -2
100
AcDbLine
 10
5168.600000000001
 20
8317.813451093188
 30
0.0
 11
5168.600000000001
 21
9316.033773152108
 31
0.0
  0
LINE
  5
2A742
330
28526
100
AcDbEntity
  8
寸法
 62
     0
 48
50.0
370
    -2
100
AcDbLine
 10
11278.6
 20
8317.813451093188
 30
0.0
 11
11278.6
 21
9316.033773152108
 31
0.0
  0
LINE
  5
2A743
330
28526
100
AcDbEntity
  8
寸法
 62
     0
 48
50.0
370
    -2
100
AcDbLine
 10
5168.600000000001
 20
9256.033773152109
 30
0.0
 11
11278.6
 21
9256.033773152109
 31
0.0
  0
INSERT
  5
2A744
330
28526
100
AcDbEntity
  8
寸法
 62
     0
 48
50.0
370
    -2
100
AcDbBlockReference
  2
_DOTSMALL
 10
5168.600000000001
 20
9256.033773152109
 30
0.0
 41
100.0
 42
100.0
 43
100.0
 50
180.0
  0
INSERT
  5
2A745
330
28526
100
AcDbEntity
  8
寸法
 62
     0
 48
50.0
370
    -2
100
AcDbBlockReference
  2
_DOTSMALL
 10
11278.6
 20
9256.033773152109
 30
0.0
 41
100.0
 42
100.0
 43
100.0
  0
MTEXT
  5
2A746
330
28526
100
AcDbEntity
  8
寸法
 62
     7
 48
50.0
100
AcDbMText
 10
8223.600000000001
 20
9356.033773152109
 30
0.0
 40
120.0
 41
0.0
 71
     5
 72
     1
  1
\A1;6110
  7
STYLE1
 73
     1
 44
1.0
1001
ACAD
1000
MTEXTBEGIN
1070
    73
1070
     1
1070
    44
1040
1.0
1070
    74
1070
     0
1000
MTEXTEND
  0
POINT
  5
2A747
330
28526
100
AcDbEntity
  8
DEFPOINTS
 62
     0
 48
50.0
100
AcDbPoint
 10
5168.600000000001
 20
8297.813451093189
 30
0.0
  0
POINT
  5
2A748
330
28526
100
AcDbEntity
  8
DEFPOINTS
 62
     0
 48
50.0
100
AcDbPoint
 10
11278.6
 20
8297.813451093189
 30
0.0
  0
POINT
  5
2A749
330
28526
100
AcDbEntity
  8
DEFPOINTS
 62
     0
 48
50.0
100
AcDbPoint
 10
11278.6
 20
9256.033773152109
 30
0.0
  0
ENDBLK
  5
28530
330
28526
100
AcDbEntity
  8
0
 48
50.0
100
AcDbBlockEnd
  0
BLOCK
  5
2853C
330
28531
100
AcDbEntity
  8
0
 48
50.0
100
AcDbBlockBegin
  2
*D13
 70
     1
 10
0.0
 20
0.0
 30
0.0
  3
*D13
  1

  0
LINE
  5
2A737
330
28531
100
AcDbEntity
  8
寸法
 62
     0
 48
50.0
370
    -2
100
AcDbLine
 10
5221.600000000008
 20
5780.813451093191
 30
0.0
 11
4612.657733986178
 21
5780.813451093191
 31
0.0
  0
LINE
  5
2A738
330
28531
100
AcDbEntity
  8
寸法
 62
     0
 48
50.0
370
    -2
100
AcDbLine
 10
5148.600000000001
 20
5657.813451093189
 30
0.0
 11
4612.657733986178
 21
5657.813451093189
 31
0.0
  0
LINE
  5
2A739
330
28531
100
AcDbEntity
  8
寸法
 62
     0
 48
50.0
370
    -2
100
AcDbLine
 10
4672.657733986177
 20
5780.813451093191
 30
0.0
 11
4672.657733986177
 21
5657.813451093189
 31
0.0
  0
LINE
  5
2A73A
330
28531
100
AcDbEntity
  8
寸法
 62
     0
 48
50.0
370
    -2
100
AcDbLine
 10
4672.657733986177
 20
5657.813451093189
 30
0.0
 11
4672.657733986177
 21
5183.797220876357
 31
0.0
  0
INSERT
  5
2A73B
330
28531
100
AcDbEntity
  8
寸法
 62
     0
 48
50.0
370
    -2
100
AcDbBlockReference
  2
_DOTSMALL
 10
4672.657733986177
 20
5780.813451093191
 30
0.0
 41
100.0
 42
100.0
 43
100.0
 50
90.0
  0
INSERT
  5
2A73C
330
28531
100
AcDbEntity
  8
寸法
 62
     0
 48
50.0
370
    -2
100
AcDbBlockReference
  2
_DOTSMALL
 10
4672.657733986177
 20
5657.813451093189
 30
0.0
 41
100.0
 42
100.0
 43
100.0
 50
270.0
  0
MTEXT
  5
2A73D
330
28531
100
AcDbEntity
  8
寸法
 62
     7
 48
50.0
100
AcDbMText
 10
4572.645922962555
 20
5322.282502250597
 30
0.0
 40
120.0
 41
0.0
 71
     5
 72
     1
  1
\A1;123
  7
STYLE1
 11
0.0000000000000001
 21
1.0
 31
0.0
 73
     1
 44
1.0
1001
ACAD
1000
MTEXTBEGIN
1070
    73
1070
     1
1070
    44
1040
1.0
1070
    74
1070
     0
1000
MTEXTEND
  0
POINT
  5
2A73E
330
28531
100
AcDbEntity
  8
DEFPOINTS
 62
     0
 48
50.0
100
AcDbPoint
 10
5241.600000000008
 20
5780.813451093191
 30
0.0
  0
POINT
  5
2A73F
330
28531
100
AcDbEntity
  8
DEFPOINTS
 62
     0
 48
50.0
100
AcDbPoint
 10
5168.600000000001
 20
5657.813451093189
 30
0.0
  0
POINT
  5
2A740
330
28531
100
AcDbEntity
  8
DEFPOINTS
 62
     0
 48
50.0
100
AcDbPoint
 10
4672.657733986177
 20
5657.813451093189
 30
0.0
  0
ENDBLK
  5
2853D
330
28531
100
AcDbEntity
  8
0
 48
50.0
100
AcDbBlockEnd
  0
BLOCK
  5
28547
330
2853E
100
AcDbEntity
  8
0
 48
50.0
100
AcDbBlockBegin
  2
*D14
 70
     1
 10
0.0
 20
0.0
 30
0.0
  3
*D14
  1

  0
LINE
  5
2A72E
330
2853E
100
AcDbEntity
  8
寸法
 62
     0
 48
50.0
370
    -2
100
AcDbLine
 10
5148.600000000001
 20
8297.813451093189
 30
0.0
 11
4367.16493184821
 21
8297.813451093189
 31
0.0
  0
LINE
  5
2A72F
330
2853E
100
AcDbEntity
  8
寸法
 62
     0
 48
50.0
370
    -2
100
AcDbLine
 10
5148.600000000001
 20
5657.813451093189
 30
0.0
 11
4367.164931848209
 21
5657.813451093189
 31
0.0
  0
LINE
  5
2A730
330
2853E
100
AcDbEntity
  8
寸法
 62
     0
 48
50.0
370
    -2
100
AcDbLine
 10
4427.16493184821
 20
8297.813451093189
 30
0.0
 11
4427.164931848209
 21
5657.813451093189
 31
0.0
  0
INSERT
  5
2A731
330
2853E
100
AcDbEntity
  8
寸法
 62
     0
 48
50.0
370
    -2
100
AcDbBlockReference
  2
_DOTSMALL
 10
4427.16493184821
 20
8297.813451093189
 30
0.0
 41
100.0
 42
100.0
 43
100.0
 50
90.0
  0
INSERT
  5
2A732
330
2853E
100
AcDbEntity
  8
寸法
 62
     0
 48
50.0
370
    -2
100
AcDbBlockReference
  2
_DOTSMALL
 10
4427.164931848209
 20
5657.813451093189
 30
0.0
 41
100.0
 42
100.0
 43
100.0
 50
270.0
  0
MTEXT
  5
2A733
330
2853E
100
AcDbEntity
  8
寸法
 62
     7
 48
50.0
100
AcDbMText
 10
4327.153120824586
 20
6977.81345109319
 30
0.0
 40
120.0
 41
0.0
 71
     5
 72
     1
  1
\A1;2640
  7
STYLE1
 11
0.0000000000000001
 21
1.0
 31
0.0
 73
     1
 44
1.0
1001
ACAD
1000
MTEXTBEGIN
1070
    73
1070
     1
1070
    44
1040
1.0
1070
    74
1070
     0
1000
MTEXTEND
  0
POINT
  5
2A734
330
2853E
100
AcDbEntity
  8
DEFPOINTS
 62
     0
 48
50.0
100
AcDbPoint
 10
5168.600000000001
 20
8297.813451093189
 30
0.0
  0
POINT
  5
2A735
330
2853E
100
AcDbEntity
  8
DEFPOINTS
 62
     0
 48
50.0
100
AcDbPoint
 10
5168.600000000001
 20
5657.813451093189
 30
0.0
  0
POINT
  5
2A736
330
2853E
100
AcDbEntity
  8
DEFPOINTS
 62
     0
 48
50.0
100
AcDbPoint
 10
4427.164931848209
 20
5657.813451093189
 30
0.0
  0
ENDBLK
  5
28548
330
2853E
100
AcDbEntity
  8
0
 48
50.0
100
AcDbBlockEnd
  0
BLOCK
  5
28591
330
28586
100
AcDbEntity
  8
0
 48
50.0
100
AcDbBlockBegin
  2
*D15
 70
     1
 10
0.0
 20
0.0
 30
0.0
  3
*D15
  1

  0
LINE
  5
2A724
330
28586
100
AcDbEntity
  8
寸法
 62
     0
 48
50.0
370
    -2
100
AcDbLine
 10
5291.6
 20
8244.81345109319
 30
0.0
 11
5291.6
 21
9103.573077635273
 31
0.0
  0
LINE
  5
2A725
330
28586
100
AcDbEntity
  8
寸法
 62
     0
 48
50.0
370
    -2
100
AcDbLine
 10
5168.600000000001
 20
8317.813451093188
 30
0.0
 11
5168.600000000001
 21
9103.573077635273
 31
0.0
  0
LINE
  5
2A726
330
28586
100
AcDbEntity
  8
寸法
 62
     0
 48
50.0
370
    -2
100
AcDbLine
 10
5291.6
 20
9043.573077635272
 30
0.0
 11
5168.600000000001
 21
9043.573077635272
 31
0.0
  0
LINE
  5
2A727
330
28586
100
AcDbEntity
  8
寸法
 62
     0
 48
50.0
370
    -2
100
AcDbLine
 10
5168.600000000001
 20
9043.573077635272
 30
0.0
 11
4757.008116907962
 21
9043.573077635272
 31
0.0
  0
INSERT
  5
2A728
330
28586
100
AcDbEntity
  8
寸法
 62
     0
 48
50.0
370
    -2
100
AcDbBlockReference
  2
_DOTSMALL
 10
5291.6
 20
9043.573077635272
 30
0.0
 41
100.0
 42
100.0
 43
100.0
  0
INSERT
  5
2A729
330
28586
100
AcDbEntity
  8
寸法
 62
     0
 48
50.0
370
    -2
100
AcDbBlockReference
  2
_DOTSMALL
 10
5168.600000000001
 20
9043.573077635272
 30
0.0
 41
100.0
 42
100.0
 43
100.0
 50
180.0
  0
MTEXT
  5
2A72A
330
28586
100
AcDbEntity
  8
寸法
 62
     7
 48
50.0
100
AcDbMText
 10
4895.493398282201
 20
9143.584888658894
 30
0.0
 40
120.0
 41
0.0
 71
     5
 72
     1
  1
\A1;123
  7
STYLE1
 73
     1
 44
1.0
1001
ACAD
1000
MTEXTBEGIN
1070
    73
1070
     1
1070
    44
1040
1.0
1070
    74
1070
     0
1000
MTEXTEND
  0
POINT
  5
2A72B
330
28586
100
AcDbEntity
  8
DEFPOINTS
 62
     0
 48
50.0
100
AcDbPoint
 10
5291.6
 20
8224.813451093188
 30
0.0
  0
POINT
  5
2A72C
330
28586
100
AcDbEntity
  8
DEFPOINTS
 62
     0
 48
50.0
100
AcDbPoint
 10
5168.600000000001
 20
8297.813451093189
 30
0.0
  0
POINT
  5
2A72D
330
28586
100
AcDbEntity
  8
DEFPOINTS
 62
     0
 48
50.0
100
AcDbPoint
 10
5168.600000000001
 20
9043.573077635272
 30
0.0
  0
ENDBLK
  5
28592
330
28586
100
AcDbEntity
  8
0
 48
50.0
100
AcDbBlockEnd
  0
BLOCK
  5
285A8
330
2859D
100
AcDbEntity
  8
0
 48
50.0
100
AcDbBlockBegin
  2
*D16
 70
     1
 10
0.0
 20
0.0
 30
0.0
  3
*D16
  1

  0
LINE
  5
2A71A
330
2859D
100
AcDbEntity
  8
寸法
 62
     0
 48
50.0
370
    -2
100
AcDbLine
 10
5148.600000000001
 20
8297.813451093189
 30
0.0
 11
4612.657733986178
 21
8297.813451093189
 31
0.0
  0
LINE
  5
2A71B
330
2859D
100
AcDbEntity
  8
寸法
 62
     0
 48
50.0
370
    -2
100
AcDbLine
 10
5221.600000000001
 20
8174.813451093189
 30
0.0
 11
4612.657733986178
 21
8174.813451093189
 31
0.0
  0
LINE
  5
2A71C
330
2859D
100
AcDbEntity
  8
寸法
 62
     0
 48
50.0
370
    -2
100
AcDbLine
 10
4672.657733986177
 20
8174.813451093189
 30
0.0
 11
4672.657733986177
 21
8297.813451093189
 31
0.0
  0
LINE
  5
2A71D
330
2859D
100
AcDbEntity
  8
寸法
 62
     0
 48
50.0
370
    -2
100
AcDbLine
 10
4672.657733986177
 20
8297.813451093189
 30
0.0
 11
4672.657733986177
 21
8709.405334185223
 31
0.0
  0
INSERT
  5
2A71E
330
2859D
100
AcDbEntity
  8
寸法
 62
     0
 48
50.0
370
    -2
100
AcDbBlockReference
  2
_DOTSMALL
 10
4672.657733986177
 20
8174.813451093189
 30
0.0
 41
100.0
 42
100.0
 43
100.0
 50
270.0
  0
INSERT
  5
2A71F
330
2859D
100
AcDbEntity
  8
寸法
 62
     0
 48
50.0
370
    -2
100
AcDbBlockReference
  2
_DOTSMALL
 10
4672.657733986177
 20
8297.813451093189
 30
0.0
 41
100.0
 42
100.0
 43
100.0
 50
90.0
  0
MTEXT
  5
2A720
330
2859D
100
AcDbEntity
  8
寸法
 62
     7
 48
50.0
100
AcDbMText
 10
4572.645922962555
 20
8570.920052810988
 30
0.0
 40
120.0
 41
0.0
 71
     5
 72
     1
  1
\A1;123
  7
STYLE1
 11
0.0000000000000001
 21
1.0
 31
0.0
 73
     1
 44
1.0
1001
ACAD
1000
MTEXTBEGIN
1070
    73
1070
     1
1070
    44
1040
1.0
1070
    74
1070
     0
1000
MTEXTEND
  0
POINT
  5
2A721
330
2859D
100
AcDbEntity
  8
DEFPOINTS
 62
     0
 48
50.0
100
AcDbPoint
 10
5168.600000000001
 20
8297.813451093189
 30
0.0
  0
POINT
  5
2A722
330
2859D
100
AcDbEntity
  8
DEFPOINTS
 62
     0
 48
50.0
100
AcDbPoint
 10
5241.6
 20
8174.813451093189
 30
0.0
  0
POINT
  5
2A723
330
2859D
100
AcDbEntity
  8
DEFPOINTS
 62
     0
 48
50.0
100
AcDbPoint
 10
4672.657733986177
 20
8174.813451093189
 30
0.0
  0
ENDBLK
  5
285A9
330
2859D
100
AcDbEntity
  8
0
 48
50.0
100
AcDbBlockEnd
  0
BLOCK
  5
285B3
330
285AA
100
AcDbEntity
  8
0
 48
50.0
100
AcDbBlockBegin
  2
*D17
 70
     1
 10
0.0
 20
0.0
 30
0.0
  3
*D17
  1

  0
LINE
  5
2A711
330
285AA
100
AcDbEntity
  8
寸法
 62
     0
 48
50.0
370
    -2
100
AcDbLine
 10
5971.600000000002
 20
7642.813451093191
 30
0.0
 11
5971.600000000002
 21
8884.723216741516
 31
0.0
  0
LINE
  5
2A712
330
285AA
100
AcDbEntity
  8
寸法
 62
     0
 48
50.0
370
    -2
100
AcDbLine
 10
5168.600000000001
 20
8317.813451093188
 30
0.0
 11
5168.600000000001
 21
8884.723216741516
 31
0.0
  0
LINE
  5
2A713
330
285AA
100
AcDbEntity
  8
寸法
 62
     0
 48
50.0
370
    -2
100
AcDbLine
 10
5971.600000000002
 20
8824.723216741515
 30
0.0
 11
5168.600000000001
 21
8824.723216741515
 31
0.0
  0
INSERT
  5
2A714
330
285AA
100
AcDbEntity
  8
寸法
 62
     0
 48
50.0
370
    -2
100
AcDbBlockReference
  2
_DOTSMALL
 10
5971.600000000002
 20
8824.723216741515
 30
0.0
 41
100.0
 42
100.0
 43
100.0
  0
INSERT
  5
2A715
330
285AA
100
AcDbEntity
  8
寸法
 62
     0
 48
50.0
370
    -2
100
AcDbBlockReference
  2
_DOTSMALL
 10
5168.600000000001
 20
8824.723216741515
 30
0.0
 41
100.0
 42
100.0
 43
100.0
 50
180.0
  0
MTEXT
  5
2A716
330
285AA
100
AcDbEntity
  8
寸法
 62
     7
 48
50.0
100
AcDbMText
 10
5570.100000000001
 20
8924.723216741515
 30
0.0
 40
120.0
 41
0.0
 71
     5
 72
     1
  1
\A1;803
  7
STYLE1
 73
     1
 44
1.0
1001
ACAD
1000
MTEXTBEGIN
1070
    73
1070
     1
1070
    44
1040
1.0
1070
    74
1070
     0
1000
MTEXTEND
  0
POINT
  5
2A717
330
285AA
100
AcDbEntity
  8
DEFPOINTS
 62
     0
 48
50.0
100
AcDbPoint
 10
5971.600000000002
 20
7622.813451093191
 30
0.0
  0
POINT
  5
2A718
330
285AA
100
AcDbEntity
  8
DEFPOINTS
 62
     0
 48
50.0
100
AcDbPoint
 10
5168.600000000001
 20
8297.813451093189
 30
0.0
  0
POINT
  5
2A719
330
285AA
100
AcDbEntity
  8
DEFPOINTS
 62
     0
 48
50.0
100
AcDbPoint
 10
5168.600000000001
 20
8824.723216741515
 30
0.0
  0
ENDBLK
  5
285B4
330
285AA
100
AcDbEntity
  8
0
 48
50.0
100
AcDbBlockEnd
  0
BLOCK
  5
285BF
330
285B5
100
AcDbEntity
  8
0
 48
50.0
100
AcDbBlockBegin
  2
*D18
 70
     1
 10
0.0
 20
0.0
 30
0.0
  3
*D18
  1

  0
LINE
  5
2A708
330
285B5
100
AcDbEntity
  8
寸法
 62
     0
 48
50.0
370
    -2
100
AcDbLine
 10
5221.600000000001
 20
8174.813451093189
 30
0.0
 11
4612.657733986177
 21
8174.813451093189
 31
0.0
  0
LINE
  5
2A709
330
285B5
100
AcDbEntity
  8
寸法
 62
     0
 48
50.0
370
    -2
100
AcDbLine
 10
5221.600000000008
 20
5780.813451093191
 30
0.0
 11
4612.657733986176
 21
5780.813451093191
 31
0.0
  0
LINE
  5
2A70A
330
285B5
100
AcDbEntity
  8
寸法
 62
     0
 48
50.0
370
    -2
100
AcDbLine
 10
4672.657733986176
 20
8174.813451093189
 30
0.0
 11
4672.657733986176
 21
5780.813451093191
 31
0.0
  0
INSERT
  5
2A70B
330
285B5
100
AcDbEntity
  8
寸法
 62
     0
 48
50.0
370
    -2
100
AcDbBlockReference
  2
_DOTSMALL
 10
4672.657733986176
 20
8174.813451093189
 30
0.0
 41
100.0
 42
100.0
 43
100.0
 50
90.0
  0
INSERT
  5
2A70C
330
285B5
100
AcDbEntity
  8
寸法
 62
     0
 48
50.0
370
    -2
100
AcDbBlockReference
  2
_DOTSMALL
 10
4672.657733986176
 20
5780.813451093191
 30
0.0
 41
100.0
 42
100.0
 43
100.0
 50
270.0
  0
MTEXT
  5
2A70D
330
285B5
100
AcDbEntity
  8
寸法
 62
     7
 48
50.0
100
AcDbMText
 10
4572.645922962553
 20
6977.81345109319
 30
0.0
 40
120.0
 41
0.0
 71
     5
 72
     1
  1
\A1;2394
  7
STYLE1
 11
0.0000000000000001
 21
1.0
 31
0.0
 73
     1
 44
1.0
1001
ACAD
1000
MTEXTBEGIN
1070
    73
1070
     1
1070
    44
1040
1.0
1070
    74
1070
     0
1000
MTEXTEND
  0
POINT
  5
2A70E
330
285B5
100
AcDbEntity
  8
DEFPOINTS
 62
     0
 48
50.0
100
AcDbPoint
 10
5241.6
 20
8174.813451093189
 30
0.0
  0
POINT
  5
2A70F
330
285B5
100
AcDbEntity
  8
DEFPOINTS
 62
     0
 48
50.0
100
AcDbPoint
 10
5241.600000000008
 20
5780.813451093191
 30
0.0
  0
POINT
  5
2A710
330
285B5
100
AcDbEntity
  8
DEFPOINTS
 62
     0
 48
50.0
100
AcDbPoint
 10
4672.657733986176
 20
5780.813451093191
 30
0.0
  0
ENDBLK
  5
285C0
330
285B5
100
AcDbEntity
  8
0
 48
50.0
100
AcDbBlockEnd
  0
BLOCK
  5
285CA
330
285C1
100
AcDbEntity
  8
0
 48
50.0
100
AcDbBlockBegin
  2
*D19
 70
     1
 10
0.0
 20
0.0
 30
0.0
  3
*D19
  1

  0
LINE
  5
2A6FF
330
285C1
100
AcDbEntity
  8
寸法
 62
     0
 48
50.0
370
    -2
100
AcDbLine
 10
8223.600000000001
 20
7642.813451093191
 30
0.0
 11
8223.600000000001
 21
8884.723216741516
 31
0.0
  0
LINE
  5
2A700
330
285C1
100
AcDbEntity
  8
寸法
 62
     0
 48
50.0
370
    -2
100
AcDbLine
 10
7425.6
 20
7642.813451093191
 30
0.0
 11
7425.6
 21
8884.723216741516
 31
0.0
  0
LINE
  5
2A701
330
285C1
100
AcDbEntity
  8
寸法
 62
     0
 48
50.0
370
    -2
100
AcDbLine
 10
8223.600000000001
 20
8824.723216741515
 30
0.0
 11
7425.6
 21
8824.723216741515
 31
0.0
  0
INSERT
  5
2A702
330
285C1
100
AcDbEntity
  8
寸法
 62
     0
 48
50.0
370
    -2
100
AcDbBlockReference
  2
_DOTSMALL
 10
8223.600000000001
 20
8824.723216741515
 30
0.0
 41
100.0
 42
100.0
 43
100.0
  0
INSERT
  5
2A703
330
285C1
100
AcDbEntity
  8
寸法
 62
     0
 48
50.0
370
    -2
100
AcDbBlockReference
  2
_DOTSMALL
 10
7425.6
 20
8824.723216741515
 30
0.0
 41
100.0
 42
100.0
 43
100.0
 50
180.0
  0
MTEXT
  5
2A704
330
285C1
100
AcDbEntity
  8
寸法
 62
     7
 48
50.0
100
AcDbMText
 10
7824.600000000001
 20
8924.723216741515
 30
0.0
 40
120.0
 41
0.0
 71
     5
 72
     1
  1
\A1;798
  7
STYLE1
 73
     1
 44
1.0
1001
ACAD
1000
MTEXTBEGIN
1070
    73
1070
     1
1070
    44
1040
1.0
1070
    74
1070
     0
1000
MTEXTEND
  0
POINT
  5
2A705
330
285C1
100
AcDbEntity
  8
DEFPOINTS
 62
     0
 48
50.0
100
AcDbPoint
 10
8223.600000000001
 20
7622.813451093191
 30
0.0
  0
POINT
  5
2A706
330
285C1
100
AcDbEntity
  8
DEFPOINTS
 62
     0
 48
50.0
100
AcDbPoint
 10
7425.6
 20
7622.813451093191
 30
0.0
  0
POINT
  5
2A707
330
285C1
100
AcDbEntity
  8
DEFPOINTS
 62
     0
 48
50.0
100
AcDbPoint
 10
7425.6
 20
8824.723216741515
 30
0.0
  0
ENDBLK
  5
285CB
330
285C1
100
AcDbEntity
  8
0
 48
50.0
100
AcDbBlockEnd
  0
BLOCK
  5
285D6
330
285CC
100
AcDbEntity
  8
0
 48
50.0
100
AcDbBlockBegin
  2
*D20
 70
     1
 10
0.0
 20
0.0
 30
0.0
  3
*D20
  1

  0
LINE
  5
2A6F6
330
285CC
100
AcDbEntity
  8
寸法
 62
     0
 48
50.0
370
    -2
100
AcDbLine
 10
7425.6
 20
7642.813451093191
 30
0.0
 11
7425.6
 21
8884.723216741516
 31
0.0
  0
LINE
  5
2A6F7
330
285CC
100
AcDbEntity
  8
寸法
 62
     0
 48
50.0
370
    -2
100
AcDbLine
 10
6698.6
 20
7642.813451093191
 30
0.0
 11
6698.6
 21
8884.723216741516
 31
0.0
  0
LINE
  5
2A6F8
330
285CC
100
AcDbEntity
  8
寸法
 62
     0
 48
50.0
370
    -2
100
AcDbLine
 10
7425.6
 20
8824.723216741515
 30
0.0
 11
6698.6
 21
8824.723216741515
 31
0.0
  0
INSERT
  5
2A6F9
330
285CC
100
AcDbEntity
  8
寸法
 62
     0
 48
50.0
370
    -2
100
AcDbBlockReference
  2
_DOTSMALL
 10
7425.6
 20
8824.723216741515
 30
0.0
 41
100.0
 42
100.0
 43
100.0
  0
INSERT
  5
2A6FA
330
285CC
100
AcDbEntity
  8
寸法
 62
     0
 48
50.0
370
    -2
100
AcDbBlockReference
  2
_DOTSMALL
 10
6698.6
 20
8824.723216741515
 30
0.0
 41
100.0
 42
100.0
 43
100.0
 50
180.0
  0
MTEXT
  5
2A6FB
330
285CC
100
AcDbEntity
  8
寸法
 62
     7
 48
50.0
100
AcDbMText
 10
7062.1
 20
8924.735027765136
 30
0.0
 40
120.0
 41
0.0
 71
     5
 72
     1
  1
\A1;727
  7
STYLE1
 73
     1
 44
1.0
1001
ACAD
1000
MTEXTBEGIN
1070
    73
1070
     1
1070
    44
1040
1.0
1070
    74
1070
     0
1000
MTEXTEND
  0
POINT
  5
2A6FC
330
285CC
100
AcDbEntity
  8
DEFPOINTS
 62
     0
 48
50.0
100
AcDbPoint
 10
7425.6
 20
7622.813451093191
 30
0.0
  0
POINT
  5
2A6FD
330
285CC
100
AcDbEntity
  8
DEFPOINTS
 62
     0
 48
50.0
100
AcDbPoint
 10
6698.6
 20
7622.813451093191
 30
0.0
  0
POINT
  5
2A6FE
330
285CC
100
AcDbEntity
  8
DEFPOINTS
 62
     0
 48
50.0
100
AcDbPoint
 10
6698.6
 20
8824.723216741515
 30
0.0
  0
ENDBLK
  5
285D7
330
285CC
100
AcDbEntity
  8
0
 48
50.0
100
AcDbBlockEnd
  0
BLOCK
  5
285E3
330
285D8
100
AcDbEntity
  8
0
 48
50.0
100
AcDbBlockBegin
  2
*D21
 70
     1
 10
0.0
 20
0.0
 30
0.0
  3
*D21
  1

  0
LINE
  5
2A6EC
330
285D8
100
AcDbEntity
  8
寸法
 62
     0
 48
50.0
370
    -2
100
AcDbLine
 10
5418.600000000001
 20
8177.813451093189
 30
0.0
 11
5675.307249876098
 21
8177.813451093189
 31
0.0
  0
LINE
  5
2A6ED
330
285D8
100
AcDbEntity
  8
寸法
 62
     0
 48
50.0
370
    -2
100
AcDbLine
 10
5418.600000000002
 20
8297.813451093187
 30
0.0
 11
5675.307249876098
 21
8297.813451093187
 31
0.0
  0
LINE
  5
2A6EE
330
285D8
100
AcDbEntity
  8
寸法
 62
     0
 48
50.0
370
    -2
100
AcDbLine
 10
5615.307249876098
 20
8177.813451093189
 30
0.0
 11
5615.307249876098
 21
8297.813451093187
 31
0.0
  0
LINE
  5
2A6EF
330
285D8
100
AcDbEntity
  8
寸法
 62
     0
 48
50.0
370
    -2
100
AcDbLine
 10
5615.307249876098
 20
8297.813451093187
 30
0.0
 11
5615.307249876098
 21
8711.94423846056
 31
0.0
  0
INSERT
  5
2A6F0
330
285D8
100
AcDbEntity
  8
寸法
 62
     0
 48
50.0
370
    -2
100
AcDbBlockReference
  2
_DOTSMALL
 10
5615.307249876098
 20
8177.813451093189
 30
0.0
 41
100.0
 42
100.0
 43
100.0
 50
270.0
  0
INSERT
  5
2A6F1
330
285D8
100
AcDbEntity
  8
寸法
 62
     0
 48
50.0
370
    -2
100
AcDbBlockReference
  2
_DOTSMALL
 10
5615.307249876098
 20
8297.813451093187
 30
0.0
 41
100.0
 42
100.0
 43
100.0
 50
90.0
  0
MTEXT
  5
2A6F2
330
285D8
100
AcDbEntity
  8
寸法
 62
     7
 48
50.0
100
AcDbMText
 10
5515.295438852476
 20
8575.896994366074
 30
0.0
 40
120.0
 41
0.0
 71
     5
 72
     1
  1
\A1;120
  7
STYLE1
 11
0.0000000000000001
 21
1.0
 31
0.0
 73
     1
 44
1.0
1001
ACAD
1000
MTEXTBEGIN
1070
    73
1070
     1
1070
    44
1040
1.0
1070
    74
1070
     0
1000
MTEXTEND
  0
POINT
  5
2A6F3
330
285D8
100
AcDbEntity
  8
DEFPOINTS
 62
     0
 48
50.0
100
AcDbPoint
 10
5398.6
 20
8177.813451093189
 30
0.0
  0
POINT
  5
2A6F4
330
285D8
100
AcDbEntity
  8
DEFPOINTS
 62
     0
 48
50.0
100
AcDbPoint
 10
5398.600000000002
 20
8297.813451093187
 30
0.0
  0
POINT
  5
2A6F5
330
285D8
100
AcDbEntity
  8
DEFPOINTS
 62
     0
 48
50.0
100
AcDbPoint
 10
5615.307249876098
 20
8297.813451093187
 30
0.0
  0
ENDBLK
  5
285E4
330
285D8
100
AcDbEntity
  8
0
 48
50.0
100
AcDbBlockEnd
  0
BLOCK
  5
285EF
330
285E5
100
AcDbEntity
  8
0
 48
50.0
100
AcDbBlockBegin
  2
*D22
 70
     1
 10
0.0
 20
0.0
 30
0.0
  3
*D22
  1

  0
LINE
  5
2A6E3
330
285E5
100
AcDbEntity
  8
寸法
 62
     0
 48
50.0
370
    -2
100
AcDbLine
 10
8105.6
 20
8244.81345109319
 30
0.0
 11
8105.6
 21
9103.573077635273
 31
0.0
  0
LINE
  5
2A6E4
330
285E5
100
AcDbEntity
  8
寸法
 62
     0
 48
50.0
370
    -2
100
AcDbLine
 10
5291.6
 20
8244.81345109319
 30
0.0
 11
5291.6
 21
9103.573077635273
 31
0.0
  0
LINE
  5
2A6E5
330
285E5
100
AcDbEntity
  8
寸法
 62
     0
 48
50.0
370
    -2
100
AcDbLine
 10
8105.6
 20
9043.573077635272
 30
0.0
 11
5291.6
 21
9043.573077635272
 31
0.0
  0
INSERT
  5
2A6E6
330
285E5
100
AcDbEntity
  8
寸法
 62
     0
 48
50.0
370
    -2
100
AcDbBlockReference
  2
_DOTSMALL
 10
8105.6
 20
9043.573077635272
 30
0.0
 41
100.0
 42
100.0
 43
100.0
  0
INSERT
  5
2A6E7
330
285E5
100
AcDbEntity
  8
寸法
 62
     0
 48
50.0
370
    -2
100
AcDbBlockReference
  2
_DOTSMALL
 10
5291.6
 20
9043.573077635272
 30
0.0
 41
100.0
 42
100.0
 43
100.0
 50
180.0
  0
MTEXT
  5
2A6E8
330
285E5
100
AcDbEntity
  8
寸法
 62
     7
 48
50.0
100
AcDbMText
 10
6698.6
 20
9143.584888658894
 30
0.0
 40
120.0
 41
0.0
 71
     5
 72
     1
  1
\A1;2814
  7
STYLE1
 73
     1
 44
1.0
1001
ACAD
1000
MTEXTBEGIN
1070
    73
1070
     1
1070
    44
1040
1.0
1070
    74
1070
     0
1000
MTEXTEND
  0
POINT
  5
2A6E9
330
285E5
100
AcDbEntity
  8
DEFPOINTS
 62
     0
 48
50.0
100
AcDbPoint
 10
8105.6
 20
8224.813451093188
 30
0.0
  0
POINT
  5
2A6EA
330
285E5
100
AcDbEntity
  8
DEFPOINTS
 62
     0
 48
50.0
100
AcDbPoint
 10
5291.6
 20
8224.813451093188
 30
0.0
  0
POINT
  5
2A6EB
330
285E5
100
AcDbEntity
  8
DEFPOINTS
 62
     0
 48
50.0
100
AcDbPoint
 10
5291.6
 20
9043.573077635272
 30
0.0
  0
ENDBLK
  5
285F0
330
285E5
100
AcDbEntity
  8
0
 48
50.0
100
AcDbBlockEnd
  0
BLOCK
  5
285FB
330
285F1
100
AcDbEntity
  8
0
 48
50.0
100
AcDbBlockBegin
  2
*D23
 70
     1
 10
0.0
 20
0.0
 30
0.0
  3
*D23
  1

  0
LINE
  5
2A6DA
330
285F1
100
AcDbEntity
  8
寸法
 62
     0
 48
50.0
370
    -2
100
AcDbLine
 10
6698.6
 20
7642.813451093191
 30
0.0
 11
6698.6
 21
8884.723216741516
 31
0.0
  0
LINE
  5
2A6DB
330
285F1
100
AcDbEntity
  8
寸法
 62
     0
 48
50.0
370
    -2
100
AcDbLine
 10
5971.600000000002
 20
7642.813451093191
 30
0.0
 11
5971.600000000002
 21
8884.723216741516
 31
0.0
  0
LINE
  5
2A6DC
330
285F1
100
AcDbEntity
  8
寸法
 62
     0
 48
50.0
370
    -2
100
AcDbLine
 10
6698.6
 20
8824.723216741515
 30
0.0
 11
5971.600000000002
 21
8824.723216741515
 31
0.0
  0
INSERT
  5
2A6DD
330
285F1
100
AcDbEntity
  8
寸法
 62
     0
 48
50.0
370
    -2
100
AcDbBlockReference
  2
_DOTSMALL
 10
6698.6
 20
8824.723216741515
 30
0.0
 41
100.0
 42
100.0
 43
100.0
  0
INSERT
  5
2A6DE
330
285F1
100
AcDbEntity
  8
寸法
 62
     0
 48
50.0
370
    -2
100
AcDbBlockReference
  2
_DOTSMALL
 10
5971.600000000002
 20
8824.723216741515
 30
0.0
 41
100.0
 42
100.0
 43
100.0
 50
180.0
  0
MTEXT
  5
2A6DF
330
285F1
100
AcDbEntity
  8
寸法
 62
     7
 48
50.0
100
AcDbMText
 10
6335.1
 20
8924.735027765136
 30
0.0
 40
120.0
 41
0.0
 71
     5
 72
     1
  1
\A1;727
  7
STYLE1
 73
     1
 44
1.0
1001
ACAD
1000
MTEXTBEGIN
1070
    73
1070
     1
1070
    44
1040
1.0
1070
    74
1070
     0
1000
MTEXTEND
  0
POINT
  5
2A6E0
330
285F1
100
AcDbEntity
  8
DEFPOINTS
 62
     0
 48
50.0
100
AcDbPoint
 10
6698.6
 20
7622.813451093191
 30
0.0
  0
POINT
  5
2A6E1
330
285F1
100
AcDbEntity
  8
DEFPOINTS
 62
     0
 48
50.0
100
AcDbPoint
 10
5971.600000000002
 20
7622.813451093191
 30
0.0
  0
POINT
  5
2A6E2
330
285F1
100
AcDbEntity
  8
DEFPOINTS
 62
     0
 48
50.0
100
AcDbPoint
 10
5971.600000000002
 20
8824.723216741515
 30
0.0
  0
ENDBLK
  5
285FC
330
285F1
100
AcDbEntity
  8
0
 48
50.0
100
AcDbBlockEnd
  0
BLOCK
  5
28608
330
285FD
100
AcDbEntity
  8
0
 48
50.0
100
AcDbBlockBegin
  2
*D24
 70
     1
 10
0.0
 20
0.0
 30
0.0
  3
*D24
  1

  0
LINE
  5
2A6D0
330
285FD
100
AcDbEntity
  8
寸法
 62
     0
 48
50.0
370
    -2
100
AcDbLine
 10
5418.600000000001
 20
8177.813451093189
 30
0.0
 11
5675.307249876098
 21
8177.813451093189
 31
0.0
  0
LINE
  5
2A6D1
330
285FD
100
AcDbEntity
  8
寸法
 62
     0
 48
50.0
370
    -2
100
AcDbLine
 10
5418.600000000001
 20
8067.813451093185
 30
0.0
 11
5675.307249876098
 21
8067.813451093185
 31
0.0
  0
LINE
  5
2A6D2
330
285FD
100
AcDbEntity
  8
寸法
 62
     0
 48
50.0
370
    -2
100
AcDbLine
 10
5615.307249876098
 20
8177.813451093189
 30
0.0
 11
5615.307249876098
 21
8067.813451093185
 31
0.0
  0
LINE
  5
2A6D3
330
285FD
100
AcDbEntity
  8
寸法
 62
     0
 48
50.0
370
    -2
100
AcDbLine
 10
5615.307249876098
 20
8067.813451093185
 30
0.0
 11
5615.307249876098
 21
7603.707151880586
 31
0.0
  0
INSERT
  5
2A6D4
330
285FD
100
AcDbEntity
  8
寸法
 62
     0
 48
50.0
370
    -2
100
AcDbBlockReference
  2
_DOTSMALL
 10
5615.307249876098
 20
8177.813451093189
 30
0.0
 41
100.0
 42
100.0
 43
100.0
 50
90.0
  0
INSERT
  5
2A6D5
330
285FD
100
AcDbEntity
  8
寸法
 62
     0
 48
50.0
370
    -2
100
AcDbBlockReference
  2
_DOTSMALL
 10
5615.307249876098
 20
8067.813451093185
 30
0.0
 41
100.0
 42
100.0
 43
100.0
 50
270.0
  0
MTEXT
  5
2A6D6
330
285FD
100
AcDbEntity
  8
寸法
 62
     7
 48
50.0
100
AcDbMText
 10
5515.307249876098
 20
7727.754395975074
 30
0.0
 40
120.0
 41
0.0
 71
     5
 72
     1
  1
\A1;110
  7
STYLE1
 11
0.0000000000000001
 21
1.0
 31
0.0
 73
     1
 44
1.0
1001
ACAD
1000
MTEXTBEGIN
1070
    73
1070
     1
1070
    44
1040
1.0
1070
    74
1070
     0
1000
MTEXTEND
  0
POINT
  5
2A6D7
330
285FD
100
AcDbEntity
  8
DEFPOINTS
 62
     0
 48
50.0
100
AcDbPoint
 10
5398.6
 20
8177.813451093189
 30
0.0
  0
POINT
  5
2A6D8
330
285FD
100
AcDbEntity
  8
DEFPOINTS
 62
     0
 48
50.0
100
AcDbPoint
 10
5398.6
 20
8067.813451093185
 30
0.0
  0
POINT
  5
2A6D9
330
285FD
100
AcDbEntity
  8
DEFPOINTS
 62
     0
 48
50.0
100
AcDbPoint
 10
5615.307249876098
 20
8067.813451093185
 30
0.0
  0
ENDBLK
  5
28609
330
285FD
100
AcDbEntity
  8
0
 48
50.0
100
AcDbBlockEnd
  0
BLOCK
  5
28612
330
2860A
100
AcDbEntity
  8
0
 48
50.0
100
AcDbBlockBegin
  2
*D25
 70
     1
 10
0.0
 20
0.0
 30
0.0
  3
*D25
  1

  0
LINE
  5
2A6C7
330
2860A
100
AcDbEntity
  8
寸法
 62
     0
 48
50.0
370
    -2
100
AcDbLine
 10
8235.600000000001
 20
5907.813451093207
 30
0.0
 11
8235.600000000001
 21
6174.847525473982
 31
0.0
  0
LINE
  5
2A6C8
330
2860A
100
AcDbEntity
  8
寸法
 62
     0
 48
50.0
370
    -2
100
AcDbLine
 10
7975.6
 20
5907.813451093207
 30
0.0
 11
7975.6
 21
6174.847525473982
 31
0.0
  0
LINE
  5
2A6C9
330
2860A
100
AcDbEntity
  8
寸法
 62
     0
 48
50.0
370
    -2
100
AcDbLine
 10
8235.600000000001
 20
6114.847525473982
 30
0.0
 11
7975.6
 21
6114.847525473982
 31
0.0
  0
INSERT
  5
2A6CA
330
2860A
100
AcDbEntity
  8
寸法
 62
     0
 48
50.0
370
    -2
100
AcDbBlockReference
  2
_DOTSMALL
 10
8235.600000000001
 20
6114.847525473982
 30
0.0
 41
100.0
 42
100.0
 43
100.0
  0
INSERT
  5
2A6CB
330
2860A
100
AcDbEntity
  8
寸法
 62
     0
 48
50.0
370
    -2
100
AcDbBlockReference
  2
_DOTSMALL
 10
7975.6
 20
6114.847525473982
 30
0.0
 41
100.0
 42
100.0
 43
100.0
 50
180.0
  0
MTEXT
  5
2A6CC
330
2860A
100
AcDbEntity
  8
寸法
 62
     7
 48
50.0
100
AcDbMText
 10
8105.6
 20
6214.859336497604
 30
0.0
 40
120.0
 41
0.0
 71
     5
 72
     1
  1
\A1;260
  7
STYLE1
 73
     1
 44
1.0
1001
ACAD
1000
MTEXTBEGIN
1070
    73
1070
     1
1070
    44
1040
1.0
1070
    74
1070
     0
1000
MTEXTEND
  0
POINT
  5
2A6CD
330
2860A
100
AcDbEntity
  8
DEFPOINTS
 62
     0
 48
50.0
100
AcDbPoint
 10
8235.600000000001
 20
5887.813451093207
 30
0.0
  0
POINT
  5
2A6CE
330
2860A
100
AcDbEntity
  8
DEFPOINTS
 62
     0
 48
50.0
100
AcDbPoint
 10
7975.6
 20
5887.813451093207
 30
0.0
  0
POINT
  5
2A6CF
330
2860A
100
AcDbEntity
  8
DEFPOINTS
 62
     0
 48
50.0
100
AcDbPoint
 10
7975.6
 20
6114.847525473982
 30
0.0
  0
ENDBLK
  5
28613
330
2860A
100
AcDbEntity
  8
0
 48
50.0
100
AcDbBlockEnd
  0
BLOCK
  5
2861E
330
28614
100
AcDbEntity
  8
0
 48
50.0
100
AcDbBlockBegin
  2
*D26
 70
     1
 10
0.0
 20
0.0
 30
0.0
  3
*D26
  1

  0
LINE
  5
2A6BE
330
28614
100
AcDbEntity
  8
寸法
 62
     0
 48
50.0
370
    -2
100
AcDbLine
 10
9929.045939259561
 20
5657.813451093199
 30
0.0
 11
10223.85510029273
 21
5657.813451093199
 31
0.0
  0
LINE
  5
2A6BF
330
28614
100
AcDbEntity
  8
寸法
 62
     0
 48
50.0
370
    -2
100
AcDbLine
 10
10355.6
 20
6532.813451093189
 30
0.0
 11
10103.85510029273
 21
6532.81345109319
 31
0.0
  0
LINE
  5
2A6C0
330
28614
100
AcDbEntity
  8
寸法
 62
     0
 48
50.0
370
    -2
100
AcDbLine
 10
10163.85510029273
 20
5657.813451093199
 30
0.0
 11
10163.85510029273
 21
6532.81345109319
 31
0.0
  0
INSERT
  5
2A6C1
330
28614
100
AcDbEntity
  8
寸法
 62
     0
 48
50.0
370
    -2
100
AcDbBlockReference
  2
_DOTSMALL
 10
10163.85510029273
 20
5657.813451093199
 30
0.0
 41
100.0
 42
100.0
 43
100.0
 50
270.0
  0
INSERT
  5
2A6C2
330
28614
100
AcDbEntity
  8
寸法
 62
     0
 48
50.0
370
    -2
100
AcDbBlockReference
  2
_DOTSMALL
 10
10163.85510029273
 20
6532.81345109319
 30
0.0
 41
100.0
 42
100.0
 43
100.0
 50
90.0
  0
MTEXT
  5
2A6C3
330
28614
100
AcDbEntity
  8
寸法
 62
     7
 48
50.0
100
AcDbMText
 10
10063.85510029272
 20
6095.313451093195
 30
0.0
 40
120.0
 41
0.0
 71
     5
 72
     1
  1
\A1;875
  7
STYLE1
 11
0.0000000000000001
 21
1.0
 31
0.0
 73
     1
 44
1.0
1001
ACAD
1000
MTEXTBEGIN
1070
    73
1070
     1
1070
    44
1040
1.0
1070
    74
1070
     0
1000
MTEXTEND
  0
POINT
  5
2A6C4
330
28614
100
AcDbEntity
  8
DEFPOINTS
 62
     0
 48
50.0
100
AcDbPoint
 10
9909.045939259561
 20
5657.813451093199
 30
0.0
  0
POINT
  5
2A6C5
330
28614
100
AcDbEntity
  8
DEFPOINTS
 62
     0
 48
50.0
100
AcDbPoint
 10
10375.6
 20
6532.813451093189
 30
0.0
  0
POINT
  5
2A6C6
330
28614
100
AcDbEntity
  8
DEFPOINTS
 62
     0
 48
50.0
100
AcDbPoint
 10
10163.85510029273
 20
6532.81345109319
 30
0.0
  0
ENDBLK
  5
2861F
330
28614
100
AcDbEntity
  8
0
 48
50.0
100
AcDbBlockEnd
  0
BLOCK
  5
28638
330
2862D
100
AcDbEntity
  8
0
 48
50.0
100
AcDbBlockBegin
  2
*D27
 70
     1
 10
0.0
 20
0.0
 30
0.0
  3
*D27
  1

  0
LINE
  5
2A6B4
330
2862D
100
AcDbEntity
  8
寸法
 62
     0
 48
50.0
370
    -2
100
AcDbLine
 10
11278.6
 20
8317.813451093188
 30
0.0
 11
11278.6
 21
9103.573077635273
 31
0.0
  0
LINE
  5
2A6B5
330
2862D
100
AcDbEntity
  8
寸法
 62
     0
 48
50.0
370
    -2
100
AcDbLine
 10
11155.6
 20
8244.81345109319
 30
0.0
 11
11155.6
 21
9103.573077635273
 31
0.0
  0
LINE
  5
2A6B6
330
2862D
100
AcDbEntity
  8
寸法
 62
     0
 48
50.0
370
    -2
100
AcDbLine
 10
11155.6
 20
9043.573077635272
 30
0.0
 11
11278.6
 21
9043.573077635272
 31
0.0
  0
LINE
  5
2A6B7
330
2862D
100
AcDbEntity
  8
寸法
 62
     0
 48
50.0
370
    -2
100
AcDbLine
 10
11278.6
 20
9043.573077635272
 30
0.0
 11
11690.19188309204
 21
9043.573077635272
 31
0.0
  0
INSERT
  5
2A6B8
330
2862D
100
AcDbEntity
  8
寸法
 62
     0
 48
50.0
370
    -2
100
AcDbBlockReference
  2
_DOTSMALL
 10
11155.6
 20
9043.573077635272
 30
0.0
 41
100.0
 42
100.0
 43
100.0
 50
180.0
  0
INSERT
  5
2A6B9
330
2862D
100
AcDbEntity
  8
寸法
 62
     0
 48
50.0
370
    -2
100
AcDbBlockReference
  2
_DOTSMALL
 10
11278.6
 20
9043.573077635272
 30
0.0
 41
100.0
 42
100.0
 43
100.0
  0
MTEXT
  5
2A6BA
330
2862D
100
AcDbEntity
  8
寸法
 62
     7
 48
50.0
100
AcDbMText
 10
11551.7066017178
 20
9143.584888658894
 30
0.0
 40
120.0
 41
0.0
 71
     5
 72
     1
  1
\A1;123
  7
STYLE1
 73
     1
 44
1.0
1001
ACAD
1000
MTEXTBEGIN
1070
    73
1070
     1
1070
    44
1040
1.0
1070
    74
1070
     0
1000
MTEXTEND
  0
POINT
  5
2A6BB
330
2862D
100
AcDbEntity
  8
DEFPOINTS
 62
     0
 48
50.0
100
AcDbPoint
 10
11278.6
 20
8297.813451093189
 30
0.0
  0
POINT
  5
2A6BC
330
2862D
100
AcDbEntity
  8
DEFPOINTS
 62
     0
 48
50.0
100
AcDbPoint
 10
11155.6
 20
8224.813451093188
 30
0.0
  0
POINT
  5
2A6BD
330
2862D
100
AcDbEntity
  8
DEFPOINTS
 62
     0
 48
50.0
100
AcDbPoint
 10
11155.6
 20
9043.573077635272
 30
0.0
  0
ENDBLK
  5
28639
330
2862D
100
AcDbEntity
  8
0
 48
50.0
100
AcDbBlockEnd
  0
BLOCK
  5
28644
330
2863A
100
AcDbEntity
  8
0
 48
50.0
100
AcDbBlockBegin
  2
*D28
 70
     1
 10
0.0
 20
0.0
 30
0.0
  3
*D28
  1

  0
LINE
  5
2A6AB
330
2863A
100
AcDbEntity
  8
寸法
 62
     0
 48
50.0
370
    -2
100
AcDbLine
 10
10475.6
 20
7642.813451093191
 30
0.0
 11
10475.6
 21
8884.723216741516
 31
0.0
  0
LINE
  5
2A6AC
330
2863A
100
AcDbEntity
  8
寸法
 62
     0
 48
50.0
370
    -2
100
AcDbLine
 10
9748.600000000001
 20
7642.813451093191
 30
0.0
 11
9748.600000000001
 21
8884.723216741516
 31
0.0
  0
LINE
  5
2A6AD
330
2863A
100
AcDbEntity
  8
寸法
 62
     0
 48
50.0
370
    -2
100
AcDbLine
 10
10475.6
 20
8824.723216741515
 30
0.0
 11
9748.600000000001
 21
8824.723216741515
 31
0.0
  0
INSERT
  5
2A6AE
330
2863A
100
AcDbEntity
  8
寸法
 62
     0
 48
50.0
370
    -2
100
AcDbBlockReference
  2
_DOTSMALL
 10
10475.6
 20
8824.723216741515
 30
0.0
 41
100.0
 42
100.0
 43
100.0
  0
INSERT
  5
2A6AF
330
2863A
100
AcDbEntity
  8
寸法
 62
     0
 48
50.0
370
    -2
100
AcDbBlockReference
  2
_DOTSMALL
 10
9748.600000000001
 20
8824.723216741515
 30
0.0
 41
100.0
 42
100.0
 43
100.0
 50
180.0
  0
MTEXT
  5
2A6B0
330
2863A
100
AcDbEntity
  8
寸法
 62
     7
 48
50.0
100
AcDbMText
 10
10112.1
 20
8924.735027765136
 30
0.0
 40
120.0
 41
0.0
 71
     5
 72
     1
  1
\A1;727
  7
STYLE1
 73
     1
 44
1.0
1001
ACAD
1000
MTEXTBEGIN
1070
    73
1070
     1
1070
    44
1040
1.0
1070
    74
1070
     0
1000
MTEXTEND
  0
POINT
  5
2A6B1
330
2863A
100
AcDbEntity
  8
DEFPOINTS
 62
     0
 48
50.0
100
AcDbPoint
 10
10475.6
 20
7622.813451093191
 30
0.0
  0
POINT
  5
2A6B2
330
2863A
100
AcDbEntity
  8
DEFPOINTS
 62
     0
 48
50.0
100
AcDbPoint
 10
9748.600000000001
 20
7622.813451093191
 30
0.0
  0
POINT
  5
2A6B3
330
2863A
100
AcDbEntity
  8
DEFPOINTS
 62
     0
 48
50.0
100
AcDbPoint
 10
9748.600000000001
 20
8824.723216741515
 30
0.0
  0
ENDBLK
  5
28645
330
2863A
100
AcDbEntity
  8
0
 48
50.0
100
AcDbBlockEnd
  0
BLOCK
  5
28650
330
28646
100
AcDbEntity
  8
0
 48
50.0
100
AcDbBlockBegin
  2
*D29
 70
     1
 10
0.0
 20
0.0
 30
0.0
  3
*D29
  1

  0
LINE
  5
2A6A2
330
28646
100
AcDbEntity
  8
寸法
 62
     0
 48
50.0
370
    -2
100
AcDbLine
 10
11278.6
 20
8317.813451093188
 30
0.0
 11
11278.6
 21
8884.723216741516
 31
0.0
  0
LINE
  5
2A6A3
330
28646
100
AcDbEntity
  8
寸法
 62
     0
 48
50.0
370
    -2
100
AcDbLine
 10
10475.6
 20
7642.813451093191
 30
0.0
 11
10475.6
 21
8884.723216741516
 31
0.0
  0
LINE
  5
2A6A4
330
28646
100
AcDbEntity
  8
寸法
 62
     0
 48
50.0
370
    -2
100
AcDbLine
 10
11278.6
 20
8824.723216741515
 30
0.0
 11
10475.6
 21
8824.723216741515
 31
0.0
  0
INSERT
  5
2A6A5
330
28646
100
AcDbEntity
  8
寸法
 62
     0
 48
50.0
370
    -2
100
AcDbBlockReference
  2
_DOTSMALL
 10
11278.6
 20
8824.723216741515
 30
0.0
 41
100.0
 42
100.0
 43
100.0
  0
INSERT
  5
2A6A6
330
28646
100
AcDbEntity
  8
寸法
 62
     0
 48
50.0
370
    -2
100
AcDbBlockReference
  2
_DOTSMALL
 10
10475.6
 20
8824.723216741515
 30
0.0
 41
100.0
 42
100.0
 43
100.0
 50
180.0
  0
MTEXT
  5
2A6A7
330
28646
100
AcDbEntity
  8
寸法
 62
     7
 48
50.0
100
AcDbMText
 10
10877.1
 20
8924.723216741515
 30
0.0
 40
120.0
 41
0.0
 71
     5
 72
     1
  1
\A1;803
  7
STYLE1
 73
     1
 44
1.0
1001
ACAD
1000
MTEXTBEGIN
1070
    73
1070
     1
1070
    44
1040
1.0
1070
    74
1070
     0
1000
MTEXTEND
  0
POINT
  5
2A6A8
330
28646
100
AcDbEntity
  8
DEFPOINTS
 62
     0
 48
50.0
100
AcDbPoint
 10
11278.6
 20
8297.813451093189
 30
0.0
  0
POINT
  5
2A6A9
330
28646
100
AcDbEntity
  8
DEFPOINTS
 62
     0
 48
50.0
100
AcDbPoint
 10
10475.6
 20
7622.813451093191
 30
0.0
  0
POINT
  5
2A6AA
330
28646
100
AcDbEntity
  8
DEFPOINTS
 62
     0
 48
50.0
100
AcDbPoint
 10
10475.6
 20
8824.723216741515
 30
0.0
  0
ENDBLK
  5
28651
330
28646
100
AcDbEntity
  8
0
 48
50.0
100
AcDbBlockEnd
  0
BLOCK
  5
2865C
330
28652
100
AcDbEntity
  8
0
 48
50.0
100
AcDbBlockBegin
  2
*D30
 70
     1
 10
0.0
 20
0.0
 30
0.0
  3
*D30
  1

  0
LINE
  5
2A699
330
28652
100
AcDbEntity
  8
寸法
 62
     0
 48
50.0
370
    -2
100
AcDbLine
 10
9748.600000000001
 20
7642.813451093191
 30
0.0
 11
9748.600000000001
 21
8884.723216741516
 31
0.0
  0
LINE
  5
2A69A
330
28652
100
AcDbEntity
  8
寸法
 62
     0
 48
50.0
370
    -2
100
AcDbLine
 10
9021.600000000001
 20
7642.813451093191
 30
0.0
 11
9021.600000000001
 21
8884.723216741516
 31
0.0
  0
LINE
  5
2A69B
330
28652
100
AcDbEntity
  8
寸法
 62
     0
 48
50.0
370
    -2
100
AcDbLine
 10
9748.600000000001
 20
8824.723216741515
 30
0.0
 11
9021.600000000001
 21
8824.723216741515
 31
0.0
  0
INSERT
  5
2A69C
330
28652
100
AcDbEntity
  8
寸法
 62
     0
 48
50.0
370
    -2
100
AcDbBlockReference
  2
_DOTSMALL
 10
9748.600000000001
 20
8824.723216741515
 30
0.0
 41
100.0
 42
100.0
 43
100.0
  0
INSERT
  5
2A69D
330
28652
100
AcDbEntity
  8
寸法
 62
     0
 48
50.0
370
    -2
100
AcDbBlockReference
  2
_DOTSMALL
 10
9021.600000000001
 20
8824.723216741515
 30
0.0
 41
100.0
 42
100.0
 43
100.0
 50
180.0
  0
MTEXT
  5
2A69E
330
28652
100
AcDbEntity
  8
寸法
 62
     7
 48
50.0
100
AcDbMText
 10
9385.099999999999
 20
8924.735027765136
 30
0.0
 40
120.0
 41
0.0
 71
     5
 72
     1
  1
\A1;727
  7
STYLE1
 73
     1
 44
1.0
1001
ACAD
1000
MTEXTBEGIN
1070
    73
1070
     1
1070
    44
1040
1.0
1070
    74
1070
     0
1000
MTEXTEND
  0
POINT
  5
2A69F
330
28652
100
AcDbEntity
  8
DEFPOINTS
 62
     0
 48
50.0
100
AcDbPoint
 10
9748.600000000001
 20
7622.813451093191
 30
0.0
  0
POINT
  5
2A6A0
330
28652
100
AcDbEntity
  8
DEFPOINTS
 62
     0
 48
50.0
100
AcDbPoint
 10
9021.600000000001
 20
7622.813451093191
 30
0.0
  0
POINT
  5
2A6A1
330
28652
100
AcDbEntity
  8
DEFPOINTS
 62
     0
 48
50.0
100
AcDbPoint
 10
9021.600000000001
 20
8824.723216741515
 30
0.0
  0
ENDBLK
  5
2865D
330
28652
100
AcDbEntity
  8
0
 48
50.0
100
AcDbBlockEnd
  0
BLOCK
  5
28668
330
2865E
100
AcDbEntity
  8
0
 48
50.0
100
AcDbBlockBegin
  2
*D31
 70
     1
 10
0.0
 20
0.0
 30
0.0
  3
*D31
  1

  0
LINE
  5
2A690
330
2865E
100
AcDbEntity
  8
寸法
 62
     0
 48
50.0
370
    -2
100
AcDbLine
 10
10355.6
 20
6532.813451093197
 30
0.0
 11
10103.85510029273
 21
6532.813451093197
 31
0.0
  0
LINE
  5
2A691
330
2865E
100
AcDbEntity
  8
寸法
 62
     0
 48
50.0
370
    -2
100
AcDbLine
 10
10355.6
 20
7422.81345109319
 30
0.0
 11
10103.85510029273
 21
7422.813451093192
 31
0.0
  0
LINE
  5
2A692
330
2865E
100
AcDbEntity
  8
寸法
 62
     0
 48
50.0
370
    -2
100
AcDbLine
 10
10163.85510029273
 20
6532.813451093197
 30
0.0
 11
10163.85510029273
 21
7422.813451093192
 31
0.0
  0
INSERT
  5
2A693
330
2865E
100
AcDbEntity
  8
寸法
 62
     0
 48
50.0
370
    -2
100
AcDbBlockReference
  2
_DOTSMALL
 10
10163.85510029273
 20
6532.813451093197
 30
0.0
 41
100.0
 42
100.0
 43
100.0
 50
270.0
  0
INSERT
  5
2A694
330
2865E
100
AcDbEntity
  8
寸法
 62
     0
 48
50.0
370
    -2
100
AcDbBlockReference
  2
_DOTSMALL
 10
10163.85510029273
 20
7422.813451093192
 30
0.0
 41
100.0
 42
100.0
 43
100.0
 50
90.0
  0
MTEXT
  5
2A695
330
2865E
100
AcDbEntity
  8
寸法
 62
     7
 48
50.0
100
AcDbMText
 10
10063.85510029272
 20
6977.813451093196
 30
0.0
 40
120.0
 41
0.0
 71
     5
 72
     1
  1
\A1;890
  7
STYLE1
 11
0.0000000000000001
 21
1.0
 31
0.0
 73
     1
 44
1.0
1001
ACAD
1000
MTEXTBEGIN
1070
    73
1070
     1
1070
    44
1040
1.0
1070
    74
1070
     0
1000
MTEXTEND
  0
POINT
  5
2A696
330
2865E
100
AcDbEntity
  8
DEFPOINTS
 62
     0
 48
50.0
100
AcDbPoint
 10
10375.6
 20
6532.813451093197
 30
0.0
  0
POINT
  5
2A697
330
2865E
100
AcDbEntity
  8
DEFPOINTS
 62
     0
 48
50.0
100
AcDbPoint
 10
10375.6
 20
7422.81345109319
 30
0.0
  0
POINT
  5
2A698
330
2865E
100
AcDbEntity
  8
DEFPOINTS
 62
     0
 48
50.0
100
AcDbPoint
 10
10163.85510029273
 20
7422.813451093192
 30
0.0
  0
ENDBLK
  5
28669
330
2865E
100
AcDbEntity
  8
0
 48
50.0
100
AcDbBlockEnd
  0
BLOCK
  5
28673
330
2866A
100
AcDbEntity
  8
0
 48
50.0
100
AcDbBlockBegin
  2
*D32
 70
     1
 10
0.0
 20
0.0
 30
0.0
  3
*D32
  1

  0
LINE
  5
2A687
330
2866A
100
AcDbEntity
  8
寸法
 62
     0
 48
50.0
370
    -2
100
AcDbLine
 10
10355.6
 20
7422.81345109319
 30
0.0
 11
10103.85510029273
 21
7422.813451093192
 31
0.0
  0
LINE
  5
2A688
330
2866A
100
AcDbEntity
  8
寸法
 62
     0
 48
50.0
370
    -2
100
AcDbLine
 10
9833.157431058356
 20
8297.813451093189
 30
0.0
 11
10223.85510029273
 21
8297.813451093189
 31
0.0
  0
LINE
  5
2A689
330
2866A
100
AcDbEntity
  8
寸法
 62
     0
 48
50.0
370
    -2
100
AcDbLine
 10
10163.85510029273
 20
7422.813451093192
 30
0.0
 11
10163.85510029273
 21
8297.813451093189
 31
0.0
  0
INSERT
  5
2A68A
330
2866A
100
AcDbEntity
  8
寸法
 62
     0
 48
50.0
370
    -2
100
AcDbBlockReference
  2
_DOTSMALL
 10
10163.85510029273
 20
7422.813451093192
 30
0.0
 41
100.0
 42
100.0
 43
100.0
 50
270.0
  0
INSERT
  5
2A68B
330
2866A
100
AcDbEntity
  8
寸法
 62
     0
 48
50.0
370
    -2
100
AcDbBlockReference
  2
_DOTSMALL
 10
10163.85510029273
 20
8297.813451093189
 30
0.0
 41
100.0
 42
100.0
 43
100.0
 50
90.0
  0
MTEXT
  5
2A68C
330
2866A
100
AcDbEntity
  8
寸法
 62
     7
 48
50.0
100
AcDbMText
 10
10063.85510029272
 20
7860.31345109319
 30
0.0
 40
120.0
 41
0.0
 71
     5
 72
     1
  1
\A1;875
  7
STYLE1
 11
0.0000000000000001
 21
1.0
 31
0.0
 73
     1
 44
1.0
1001
ACAD
1000
MTEXTBEGIN
1070
    73
1070
     1
1070
    44
1040
1.0
1070
    74
1070
     0
1000
MTEXTEND
  0
POINT
  5
2A68D
330
2866A
100
AcDbEntity
  8
DEFPOINTS
 62
     0
 48
50.0
100
AcDbPoint
 10
10375.6
 20
7422.81345109319
 30
0.0
  0
POINT
  5
2A68E
330
2866A
100
AcDbEntity
  8
DEFPOINTS
 62
     0
 48
50.0
100
AcDbPoint
 10
9813.157431058357
 20
8297.813451093189
 30
0.0
  0
POINT
  5
2A68F
330
2866A
100
AcDbEntity
  8
DEFPOINTS
 62
     0
 48
50.0
100
AcDbPoint
 10
10163.85510029273
 20
8297.813451093189
 30
0.0
  0
ENDBLK
  5
28674
330
2866A
100
AcDbEntity
  8
0
 48
50.0
100
AcDbBlockEnd
  0
BLOCK
  5
28680
330
28675
100
AcDbEntity
  8
0
 48
50.0
100
AcDbBlockBegin
  2
*D33
 70
     1
 10
0.0
 20
0.0
 30
0.0
  3
*D33
  1

  0
LINE
  5
2A67D
330
28675
100
AcDbEntity
  8
寸法
 62
     0
 48
50.0
370
    -2
100
AcDbLine
 10
11158.6
 20
8047.813451093189
 30
0.0
 11
11158.6
 21
7780.104783592815
 31
0.0
  0
LINE
  5
2A67E
330
28675
100
AcDbEntity
  8
寸法
 62
     0
 48
50.0
370
    -2
100
AcDbLine
 10
11048.6
 20
8047.813451093187
 30
0.0
 11
11048.6
 21
7780.104783592815
 31
0.0
  0
LINE
  5
2A67F
330
28675
100
AcDbEntity
  8
寸法
 62
     0
 48
50.0
370
    -2
100
AcDbLine
 10
11158.6
 20
7840.104783592815
 30
0.0
 11
11048.6
 21
7840.104783592815
 31
0.0
  0
LINE
  5
2A680
330
28675
100
AcDbEntity
  8
寸法
 62
     0
 48
50.0
370
    -2
100
AcDbLine
 10
11048.6
 20
7840.104783592815
 30
0.0
 11
10654.4937007874
 21
7840.104783592815
 31
0.0
  0
INSERT
  5
2A681
330
28675
100
AcDbEntity
  8
寸法
 62
     0
 48
50.0
370
    -2
100
AcDbBlockReference
  2
_DOTSMALL
 10
11158.6
 20
7840.104783592815
 30
0.0
 41
100.0
 42
100.0
 43
100.0
  0
INSERT
  5
2A682
330
28675
100
AcDbEntity
  8
寸法
 62
     0
 48
50.0
370
    -2
100
AcDbBlockReference
  2
_DOTSMALL
 10
11048.6
 20
7840.104783592815
 30
0.0
 41
100.0
 42
100.0
 43
100.0
 50
180.0
  0
MTEXT
  5
2A683
330
28675
100
AcDbEntity
  8
寸法
 62
     7
 48
50.0
100
AcDbMText
 10
10778.54094488189
 20
7940.104783592815
 30
0.0
 40
120.0
 41
0.0
 71
     5
 72
     1
  1
\A1;110
  7
STYLE1
 73
     1
 44
1.0
1001
ACAD
1000
MTEXTBEGIN
1070
    73
1070
     1
1070
    44
1040
1.0
1070
    74
1070
     0
1000
MTEXTEND
  0
POINT
  5
2A684
330
28675
100
AcDbEntity
  8
DEFPOINTS
 62
     0
 48
50.0
100
AcDbPoint
 10
11158.6
 20
8067.813451093188
 30
0.0
  0
POINT
  5
2A685
330
28675
100
AcDbEntity
  8
DEFPOINTS
 62
     0
 48
50.0
100
AcDbPoint
 10
11048.6
 20
8067.813451093185
 30
0.0
  0
POINT
  5
2A686
330
28675
100
AcDbEntity
  8
DEFPOINTS
 62
     0
 48
50.0
100
AcDbPoint
 10
11048.6
 20
7840.104783592815
 30
0.0
  0
ENDBLK
  5
28681
330
28675
100
AcDbEntity
  8
0
 48
50.0
100
AcDbBlockEnd
  0
BLOCK
  5
2868D
330
28682
100
AcDbEntity
  8
0
 48
50.0
100
AcDbBlockBegin
  2
*D34
 70
     1
 10
0.0
 20
0.0
 30
0.0
  3
*D34
  1

  0
LINE
  5
2A673
330
28682
100
AcDbEntity
  8
寸法
 62
     0
 48
50.0
370
    -2
100
AcDbLine
 10
11278.6
 20
7837.098047631645
 30
0.0
 11
11278.6
 21
7780.104783592815
 31
0.0
  0
LINE
  5
2A674
330
28682
100
AcDbEntity
  8
寸法
 62
     0
 48
50.0
370
    -2
100
AcDbLine
 10
11158.6
 20
8047.813451093189
 30
0.0
 11
11158.6
 21
7780.104783592815
 31
0.0
  0
LINE
  5
2A675
330
28682
100
AcDbEntity
  8
寸法
 62
     0
 48
50.0
370
    -2
100
AcDbLine
 10
11158.6
 20
7840.104783592815
 30
0.0
 11
11278.6
 21
7840.104783592815
 31
0.0
  0
LINE
  5
2A676
330
28682
100
AcDbEntity
  8
寸法
 62
     0
 48
50.0
370
    -2
100
AcDbLine
 10
11278.6
 20
7840.104783592815
 30
0.0
 11
11684.7062992126
 21
7840.104783592815
 31
0.0
  0
INSERT
  5
2A677
330
28682
100
AcDbEntity
  8
寸法
 62
     0
 48
50.0
370
    -2
100
AcDbBlockReference
  2
_DOTSMALL
 10
11158.6
 20
7840.104783592815
 30
0.0
 41
100.0
 42
100.0
 43
100.0
 50
180.0
  0
INSERT
  5
2A678
330
28682
100
AcDbEntity
  8
寸法
 62
     0
 48
50.0
370
    -2
100
AcDbBlockReference
  2
_DOTSMALL
 10
11278.6
 20
7840.104783592815
 30
0.0
 41
100.0
 42
100.0
 43
100.0
  0
MTEXT
  5
2A679
330
28682
100
AcDbEntity
  8
寸法
 62
     7
 48
50.0
100
AcDbMText
 10
11548.65905511811
 20
7940.116594616437
 30
0.0
 40
120.0
 41
0.0
 71
     5
 72
     1
  1
\A1;120
  7
STYLE1
 73
     1
 44
1.0
1001
ACAD
1000
MTEXTBEGIN
1070
    73
1070
     1
1070
    44
1040
1.0
1070
    74
1070
     0
1000
MTEXTEND
  0
POINT
  5
2A67A
330
28682
100
AcDbEntity
  8
DEFPOINTS
 62
     0
 48
50.0
100
AcDbPoint
 10
11278.6
 20
7857.098047631644
 30
0.0
  0
POINT
  5
2A67B
330
28682
100
AcDbEntity
  8
DEFPOINTS
 62
     0
 48
50.0
100
AcDbPoint
 10
11158.6
 20
8067.813451093188
 30
0.0
  0
POINT
  5
2A67C
330
28682
100
AcDbEntity
  8
DEFPOINTS
 62
     0
 48
50.0
100
AcDbPoint
 10
11158.6
 20
7840.104783592815
 30
0.0
  0
ENDBLK
  5
2868E
330
28682
100
AcDbEntity
  8
0
 48
50.0
100
AcDbBlockEnd
  0
BLOCK
  5
29F2D
330
29F23
100
AcDbEntity
  8
0
 48
50.0
100
AcDbBlockBegin
  2
*D35
 70
     1
 10
0.0
 20
0.0
 30
0.0
  3
*D35
  1

  0
LINE
  5
2A66A
330
29F23
100
AcDbEntity
  8
寸法
 62
     0
 48
50.0
370
    -2
100
AcDbLine
 10
7776.600000000001
 20
5562.813451093211
 30
0.0
 11
7776.600000000001
 21
5037.968436750998
 31
0.0
  0
LINE
  5
2A66B
330
29F23
100
AcDbEntity
  8
寸法
 62
     0
 48
50.0
370
    -2
100
AcDbLine
 10
5621.6
 20
5562.813451093195
 30
0.0
 11
5621.6
 21
5037.968436750998
 31
0.0
  0
LINE
  5
2A66C
330
29F23
100
AcDbEntity
  8
寸法
 62
     0
 48
50.0
370
    -2
100
AcDbLine
 10
7776.600000000001
 20
5097.968436750998
 30
0.0
 11
5621.6
 21
5097.968436750998
 31
0.0
  0
INSERT
  5
2A66D
330
29F23
100
AcDbEntity
  8
寸法
 62
     0
 48
50.0
370
    -2
100
AcDbBlockReference
  2
_DOTSMALL
 10
7776.600000000001
 20
5097.968436750998
 30
0.0
 41
100.0
 42
100.0
 43
100.0
  0
INSERT
  5
2A66E
330
29F23
100
AcDbEntity
  8
寸法
 62
     0
 48
50.0
370
    -2
100
AcDbBlockReference
  2
_DOTSMALL
 10
5621.6
 20
5097.968436750998
 30
0.0
 41
100.0
 42
100.0
 43
100.0
 50
180.0
  0
MTEXT
  5
2A66F
330
29F23
100
AcDbEntity
  8
寸法
 62
     7
 48
50.0
100
AcDbMText
 10
6699.1
 20
5197.980247774619
 30
0.0
 40
120.0
 41
0.0
 71
     5
 72
     1
  1
\A1;扉の幅 2155
  7
STYLE1
 73
     1
 44
1.0
1001
ACAD
1000
MTEXTBEGIN
1070
    73
1070
     1
1070
    44
1040
1.0
1070
    74
1070
     0
1000
MTEXTEND
  0
POINT
  5
2A670
330
29F23
100
AcDbEntity
  8
DEFPOINTS
 62
     0
 48
50.0
100
AcDbPoint
 10
7776.600000000001
 20
5582.81345109321
 30
0.0
  0
POINT
  5
2A671
330
29F23
100
AcDbEntity
  8
DEFPOINTS
 62
     0
 48
50.0
100
AcDbPoint
 10
5621.6
 20
5582.813451093195
 30
0.0
  0
POINT
  5
2A672
330
29F23
100
AcDbEntity
  8
DEFPOINTS
 62
     0
 48
50.0
100
AcDbPoint
 10
5621.6
 20
5097.968436750998
 30
0.0
  0
ENDBLK
  5
29F2E
330
29F23
100
AcDbEntity
  8
0
 48
50.0
100
AcDbBlockEnd
  0
BLOCK
  5
2A4DB
330
2A4D1
100
AcDbEntity
  8
0
 48
50.0
100
AcDbBlockBegin
  2
*D36
 70
     1
 10
0.0
 20
0.0
 30
0.0
  3
*D36
  1

  0
LINE
  5
2A661
330
2A4D1
100
AcDbEntity
  8
寸法
 62
     0
 48
50.0
370
    -2
100
AcDbLine
 10
4152.333292045153
 20
2065.965759184914
 30
0.0
 11
4152.333292045153
 21
2630.550519080389
 31
0.0
  0
LINE
  5
2A662
330
2A4D1
100
AcDbEntity
  8
寸法
 62
     0
 48
50.0
370
    -2
100
AcDbLine
 10
3912.333292045154
 20
2065.965759184914
 30
0.0
 11
3912.333292045154
 21
2630.550519080389
 31
0.0
  0
LINE
  5
2A663
330
2A4D1
100
AcDbEntity
  8
寸法
 62
     0
 48
50.0
370
    -2
100
AcDbLine
 10
4152.333292045153
 20
2570.55051908039
 30
0.0
 11
3912.333292045154
 21
2570.55051908039
 31
0.0
  0
INSERT
  5
2A664
330
2A4D1
100
AcDbEntity
  8
寸法
 62
     0
 48
50.0
370
    -2
100
AcDbBlockReference
  2
_DOTSMALL
 10
4152.333292045153
 20
2570.55051908039
 30
0.0
 41
100.0
 42
100.0
 43
100.0
  0
INSERT
  5
2A665
330
2A4D1
100
AcDbEntity
  8
寸法
 62
     0
 48
50.0
370
    -2
100
AcDbBlockReference
  2
_DOTSMALL
 10
3912.333292045154
 20
2570.55051908039
 30
0.0
 41
100.0
 42
100.0
 43
100.0
 50
180.0
  0
MTEXT
  5
2A666
330
2A4D1
100
AcDbEntity
  8
寸法
 62
     7
 48
50.0
100
AcDbMText
 10
4032.333292045153
 20
2776.591331645193
 30
0.0
 40
120.0
 41
0.0
 71
     5
 72
     1
  1
\A1;120\P(195)
  7
STYLE1
 73
     1
 44
1.0
1001
ACAD
1000
MTEXTBEGIN
1070
    73
1070
     1
1070
    44
1040
1.0
1070
    74
1070
     0
1000
MTEXTEND
  0
POINT
  5
2A667
330
2A4D1
100
AcDbEntity
  8
DEFPOINTS
 62
     0
 48
50.0
100
AcDbPoint
 10
4152.333292045153
 20
2045.965759184914
 30
0.0
  0
POINT
  5
2A668
330
2A4D1
100
AcDbEntity
  8
DEFPOINTS
 62
     0
 48
50.0
100
AcDbPoint
 10
3912.333292045154
 20
2045.965759184914
 30
0.0
  0
POINT
  5
2A669
330
2A4D1
100
AcDbEntity
  8
DEFPOINTS
 62
     0
 48
50.0
100
AcDbPoint
 10
3912.333292045154
 20
2570.55051908039
 30
0.0
  0
ENDBLK
  5
2A4DC
330
2A4D1
100
AcDbEntity
  8
0
 48
50.0
100
AcDbBlockEnd
  0
BLOCK
  5
2A4E7
330
2A4DD
100
AcDbEntity
  8
0
 48
50.0
100
AcDbBlockBegin
  2
*D37
 70
     1
 10
0.0
 20
0.0
 30
0.0
  3
*D37
  1

  0
LINE
  5
2A658
330
2A4DD
100
AcDbEntity
  8
寸法
 62
     0
 48
50.0
370
    -2
100
AcDbLine
 10
3732.333292045154
 20
1365.965759184912
 30
0.0
 11
3514.30789987958
 21
1365.965759184912
 31
0.0
  0
LINE
  5
2A659
330
2A4DD
100
AcDbEntity
  8
寸法
 62
     0
 48
50.0
370
    -2
100
AcDbLine
 10
3632.33329204516
 20
1065.965759184912
 30
0.0
 11
3514.30789987958
 21
1065.965759184912
 31
0.0
  0
LINE
  5
2A65A
330
2A4DD
100
AcDbEntity
  8
寸法
 62
     0
 48
50.0
370
    -2
100
AcDbLine
 10
3574.30789987958
 20
1365.965759184912
 30
0.0
 11
3574.30789987958
 21
1065.965759184912
 31
0.0
  0
INSERT
  5
2A65B
330
2A4DD
100
AcDbEntity
  8
寸法
 62
     0
 48
50.0
370
    -2
100
AcDbBlockReference
  2
_DOTSMALL
 10
3574.30789987958
 20
1365.965759184912
 30
0.0
 41
100.0
 42
100.0
 43
100.0
 50
90.0
  0
INSERT
  5
2A65C
330
2A4DD
100
AcDbEntity
  8
寸法
 62
     0
 48
50.0
370
    -2
100
AcDbBlockReference
  2
_DOTSMALL
 10
3574.30789987958
 20
1065.965759184912
 30
0.0
 41
100.0
 42
100.0
 43
100.0
 50
270.0
  0
MTEXT
  5
2A65D
330
2A4DD
100
AcDbEntity
  8
寸法
 62
     7
 48
50.0
100
AcDbMText
 10
3474.30789987958
 20
1215.965759184912
 30
0.0
 40
120.0
 41
0.0
 71
     5
 72
     1
  1
\A1;150
  7
STYLE1
 11
0.0000000000000001
 21
1.0
 31
0.0
 73
     1
 44
1.0
1001
ACAD
1000
MTEXTBEGIN
1070
    73
1070
     1
1070
    44
1040
1.0
1070
    74
1070
     0
1000
MTEXTEND
  0
POINT
  5
2A65E
330
2A4DD
100
AcDbEntity
  8
DEFPOINTS
 62
     0
 48
50.0
100
AcDbPoint
 10
3752.333292045154
 20
1365.965759184912
 30
0.0
  0
POINT
  5
2A65F
330
2A4DD
100
AcDbEntity
  8
DEFPOINTS
 62
     0
 48
50.0
100
AcDbPoint
 10
3652.33329204516
 20
1065.965759184912
 30
0.0
  0
POINT
  5
2A660
330
2A4DD
100
AcDbEntity
  8
DEFPOINTS
 62
     0
 48
50.0
100
AcDbPoint
 10
3574.30789987958
 20
1065.965759184912
 30
0.0
  0
ENDBLK
  5
2A4E8
330
2A4DD
100
AcDbEntity
  8
0
 48
50.0
100
AcDbBlockEnd
  0
BLOCK
  5
2A4F3
330
2A4E9
100
AcDbEntity
  8
0
 48
50.0
100
AcDbBlockBegin
  2
*D38
 70
     1
 10
0.0
 20
0.0
 30
0.0
  3
*D38
  1

  0
LINE
  5
2A64F
330
2A4E9
100
AcDbEntity
  8
寸法
 62
     0
 48
50.0
370
    -2
100
AcDbLine
 10
3892.333292045154
 20
2045.965759184914
 30
0.0
 11
3091.68835400909
 21
2045.965759184914
 31
0.0
  0
LINE
  5
2A650
330
2A4E9
100
AcDbEntity
  8
寸法
 62
     0
 48
50.0
370
    -2
100
AcDbLine
 10
3632.33329204516
 20
1065.965759184912
 30
0.0
 11
3091.68835400909
 21
1065.965759184912
 31
0.0
  0
LINE
  5
2A651
330
2A4E9
100
AcDbEntity
  8
寸法
 62
     0
 48
50.0
370
    -2
100
AcDbLine
 10
3151.68835400909
 20
2045.965759184914
 30
0.0
 11
3151.68835400909
 21
1065.965759184912
 31
0.0
  0
INSERT
  5
2A652
330
2A4E9
100
AcDbEntity
  8
寸法
 62
     0
 48
50.0
370
    -2
100
AcDbBlockReference
  2
_DOTSMALL
 10
3151.68835400909
 20
2045.965759184914
 30
0.0
 41
100.0
 42
100.0
 43
100.0
 50
90.0
  0
INSERT
  5
2A653
330
2A4E9
100
AcDbEntity
  8
寸法
 62
     0
 48
50.0
370
    -2
100
AcDbBlockReference
  2
_DOTSMALL
 10
3151.68835400909
 20
1065.965759184912
 30
0.0
 41
100.0
 42
100.0
 43
100.0
 50
270.0
  0
MTEXT
  5
2A654
330
2A4E9
100
AcDbEntity
  8
寸法
 62
     7
 48
50.0
100
AcDbMText
 10
3051.68835400909
 20
1555.965759184913
 30
0.0
 40
120.0
 41
0.0
 71
     5
 72
     1
  1
\A1;540
  7
STYLE1
 11
0.0000000000000001
 21
1.0
 31
0.0
 73
     1
 44
1.0
1001
ACAD
1000
MTEXTBEGIN
1070
    73
1070
     1
1070
    44
1040
1.0
1070
    74
1070
     0
1000
MTEXTEND
  0
POINT
  5
2A655
330
2A4E9
100
AcDbEntity
  8
DEFPOINTS
 62
     0
 48
50.0
100
AcDbPoint
 10
3912.333292045154
 20
2045.965759184914
 30
0.0
  0
POINT
  5
2A656
330
2A4E9
100
AcDbEntity
  8
DEFPOINTS
 62
     0
 48
50.0
100
AcDbPoint
 10
3652.33329204516
 20
1065.965759184912
 30
0.0
  0
POINT
  5
2A657
330
2A4E9
100
AcDbEntity
  8
DEFPOINTS
 62
     0
 48
50.0
100
AcDbPoint
 10
3151.68835400909
 20
1065.965759184912
 30
0.0
  0
ENDBLK
  5
2A4F4
330
2A4E9
100
AcDbEntity
  8
0
 48
50.0
100
AcDbBlockEnd
  0
BLOCK
  5
2A4FF
330
2A4F5
100
AcDbEntity
  8
0
 48
50.0
100
AcDbBlockBegin
  2
*D39
 70
     1
 10
0.0
 20
0.0
 30
0.0
  3
*D39
  1

  0
LINE
  5
2A646
330
2A4F5
100
AcDbEntity
  8
寸法
 62
     0
 48
50.0
370
    -2
100
AcDbLine
 10
3752.333292045154
 20
885.9657591849122
 30
0.0
 11
3752.333292045154
 21
547.0136527289793
 31
0.0
  0
LINE
  5
2A647
330
2A4F5
100
AcDbEntity
  8
寸法
 62
     0
 48
50.0
370
    -2
100
AcDbLine
 10
4312.333292045155
 20
885.9657591849122
 30
0.0
 11
4312.333292045155
 21
547.0136527289793
 31
0.0
  0
LINE
  5
2A648
330
2A4F5
100
AcDbEntity
  8
寸法
 62
     0
 48
50.0
370
    -2
100
AcDbLine
 10
3752.333292045154
 20
607.0136527289792
 30
0.0
 11
4312.333292045155
 21
607.0136527289792
 31
0.0
  0
INSERT
  5
2A649
330
2A4F5
100
AcDbEntity
  8
寸法
 62
     0
 48
50.0
370
    -2
100
AcDbBlockReference
  2
_DOTSMALL
 10
3752.333292045154
 20
607.0136527289792
 30
0.0
 41
100.0
 42
100.0
 43
100.0
 50
180.0
  0
INSERT
  5
2A64A
330
2A4F5
100
AcDbEntity
  8
寸法
 62
     0
 48
50.0
370
    -2
100
AcDbBlockReference
  2
_DOTSMALL
 10
4312.333292045155
 20
607.0136527289792
 30
0.0
 41
100.0
 42
100.0
 43
100.0
  0
MTEXT
  5
2A64B
330
2A4F5
100
AcDbEntity
  8
寸法
 62
     7
 48
50.0
100
AcDbMText
 10
4032.333292045154
 20
707.0136527289792
 30
0.0
 40
120.0
 41
0.0
 71
     5
 72
     1
  1
\A1;300
  7
STYLE1
 73
     1
 44
1.0
1001
ACAD
1000
MTEXTBEGIN
1070
    73
1070
     1
1070
    44
1040
1.0
1070
    74
1070
     0
1000
MTEXTEND
  0
POINT
  5
2A64C
330
2A4F5
100
AcDbEntity
  8
DEFPOINTS
 62
     0
 48
50.0
100
AcDbPoint
 10
3752.333292045154
 20
905.9657591849122
 30
0.0
  0
POINT
  5
2A64D
330
2A4F5
100
AcDbEntity
  8
DEFPOINTS
 62
     0
 48
50.0
100
AcDbPoint
 10
4312.333292045155
 20
905.9657591849122
 30
0.0
  0
POINT
  5
2A64E
330
2A4F5
100
AcDbEntity
  8
DEFPOINTS
 62
     0
 48
50.0
100
AcDbPoint
 10
4312.333292045155
 20
607.0136527289792
 30
0.0
  0
ENDBLK
  5
2A500
330
2A4F5
100
AcDbEntity
  8
0
 48
50.0
100
AcDbBlockEnd
  0
BLOCK
  5
2A50A
330
2A501
100
AcDbEntity
  8
0
 48
50.0
100
AcDbBlockBegin
  2
*D40
 70
     1
 10
0.0
 20
0.0
 30
0.0
  3
*D40
  1

  0
LINE
  5
2A63D
330
2A501
100
AcDbEntity
  8
寸法
 62
     0
 48
50.0
370
    -2
100
AcDbLine
 10
6574.882433516646
 20
2045.965759184914
 30
0.0
 11
7242.218183227703
 21
2045.965759184914
 31
0.0
  0
LINE
  5
2A63E
330
2A501
100
AcDbEntity
  8
寸法
 62
     0
 48
50.0
370
    -2
100
AcDbLine
 10
6574.882433516646
 20
1640.965759184911
 30
0.0
 11
7242.218183227703
 21
1640.965759184911
 31
0.0
  0
LINE
  5
2A63F
330
2A501
100
AcDbEntity
  8
寸法
 62
     0
 48
50.0
370
    -2
100
AcDbLine
 10
7182.218183227703
 20
2045.965759184914
 30
0.0
 11
7182.218183227703
 21
1640.965759184911
 31
0.0
  0
INSERT
  5
2A640
330
2A501
100
AcDbEntity
  8
寸法
 62
     0
 48
50.0
370
    -2
100
AcDbBlockReference
  2
_DOTSMALL
 10
7182.218183227703
 20
2045.965759184914
 30
0.0
 41
100.0
 42
100.0
 43
100.0
 50
90.0
  0
INSERT
  5
2A641
330
2A501
100
AcDbEntity
  8
寸法
 62
     0
 48
50.0
370
    -2
100
AcDbBlockReference
  2
_DOTSMALL
 10
7182.218183227703
 20
1640.965759184911
 30
0.0
 41
100.0
 42
100.0
 43
100.0
 50
270.0
  0
MTEXT
  5
2A642
330
2A501
100
AcDbEntity
  8
寸法
 62
     7
 48
50.0
100
AcDbMText
 10
7082.218183227702
 20
1843.465759184913
 30
0.0
 40
120.0
 41
0.0
 71
     5
 72
     1
  1
\A1;180
  7
STYLE1
 11
0.0000000000000001
 21
1.0
 31
0.0
 73
     1
 44
1.0
1001
ACAD
1000
MTEXTBEGIN
1070
    73
1070
     1
1070
    44
1040
1.0
1070
    74
1070
     0
1000
MTEXTEND
  0
POINT
  5
2A643
330
2A501
100
AcDbEntity
  8
DEFPOINTS
 62
     0
 48
50.0
100
AcDbPoint
 10
6554.882433516647
 20
2045.965759184914
 30
0.0
  0
POINT
  5
2A644
330
2A501
100
AcDbEntity
  8
DEFPOINTS
 62
     0
 48
50.0
100
AcDbPoint
 10
6554.882433516647
 20
1640.965759184911
 30
0.0
  0
POINT
  5
2A645
330
2A501
100
AcDbEntity
  8
DEFPOINTS
 62
     0
 48
50.0
100
AcDbPoint
 10
7182.218183227703
 20
1640.965759184911
 30
0.0
  0
ENDBLK
  5
2A50B
330
2A501
100
AcDbEntity
  8
0
 48
50.0
100
AcDbBlockEnd
  0
BLOCK
  5
2A518
330
2A50C
100
AcDbEntity
  8
0
 48
50.0
100
AcDbBlockBegin
  2
*D41
 70
     1
 10
0.0
 20
0.0
 30
0.0
  3
*D41
  1

  0
LINE
  5
2A632
330
2A50C
100
AcDbEntity
  8
寸法
 62
     0
 48
50.0
370
    -2
100
AcDbLine
 10
6340.882433516647
 20
2111.915759184913
 30
0.0
 11
7587.286515876487
 21
2111.915759184913
 31
0.0
  0
LINE
  5
2A633
330
2A50C
100
AcDbEntity
  8
寸法
 62
     0
 48
50.0
370
    -2
100
AcDbLine
 10
6574.882433516646
 20
2045.965759184914
 30
0.0
 11
7587.286515876485
 21
2045.965759184914
 31
0.0
  0
LINE
  5
2A634
330
2A50C
100
AcDbEntity
  8
寸法
 62
     0
 48
50.0
370
    -2
100
AcDbLine
 10
7527.286515876486
 20
2111.915759184913
 30
0.0
 11
7527.286515876486
 21
2211.915759184913
 31
0.0
  0
LINE
  5
2A635
330
2A50C
100
AcDbEntity
  8
寸法
 62
     0
 48
50.0
370
    -2
100
AcDbLine
 10
7527.286515876486
 20
2045.965759184914
 30
0.0
 11
7527.286515876486
 21
1313.947952341948
 31
0.0
  0
LINE
  5
2A636
330
2A50C
100
AcDbEntity
  8
寸法
 62
     0
 48
50.0
370
    -2
100
AcDbLine
 10
7527.286515876486
 20
2111.915759184913
 30
0.0
 11
7527.286515876486
 21
2045.965759184914
 31
0.0
  0
INSERT
  5
2A637
330
2A50C
100
AcDbEntity
  8
寸法
 62
     0
 48
50.0
370
    -2
100
AcDbBlockReference
  2
_DOTSMALL
 10
7527.286515876486
 20
2111.915759184913
 30
0.0
 41
100.0
 42
100.0
 43
100.0
 50
270.0
  0
INSERT
  5
2A638
330
2A50C
100
AcDbEntity
  8
寸法
 62
     0
 48
50.0
370
    -2
100
AcDbBlockReference
  2
_DOTSMALL
 10
7527.286515876486
 20
2045.965759184914
 30
0.0
 41
100.0
 42
100.0
 43
100.0
 50
90.0
  0
MTEXT
  5
2A639
330
2A50C
100
AcDbEntity
  8
寸法
 62
     7
 48
50.0
100
AcDbMText
 10
7427.274704852864
 20
1579.956855763432
 30
0.0
 40
120.0
 41
0.0
 71
     5
 72
     1
  1
\A1;20～25
  7
STYLE1
 11
0.0000000000000001
 21
1.0
 31
0.0
 73
     1
 44
1.0
1001
ACAD
1000
MTEXTBEGIN
1070
    73
1070
     1
1070
    44
1040
1.0
1070
    74
1070
     0
1000
MTEXTEND
  0
POINT
  5
2A63A
330
2A50C
100
AcDbEntity
  8
DEFPOINTS
 62
     0
 48
50.0
100
AcDbPoint
 10
6320.882433516647
 20
2111.915759184913
 30
0.0
  0
POINT
  5
2A63B
330
2A50C
100
AcDbEntity
  8
DEFPOINTS
 62
     0
 48
50.0
100
AcDbPoint
 10
6554.882433516647
 20
2045.965759184914
 30
0.0
  0
POINT
  5
2A63C
330
2A50C
100
AcDbEntity
  8
DEFPOINTS
 62
     0
 48
50.0
100
AcDbPoint
 10
7527.286515876486
 20
2045.965759184914
 30
0.0
  0
ENDBLK
  5
2A519
330
2A50C
100
AcDbEntity
  8
0
 48
50.0
100
AcDbBlockEnd
  0
ENDSEC
  0
SECTION
  2
ENTITIES
  0
MTEXT
  5
763F
330
747D
100
AcDbEntity
  8
0
100
AcDbMText
 10
302.846345836809
 20
280.1983726409901
 30
0.0
 40
3.5
 41
5.323721266742722
 71
     1
 72
     5
  1

  7
MSMINCHO
 73
     1
 44
1.0
1001
ACAD
1000
MTEXTBEGIN
1070
    73
1070
     1
1070
    44
1040
1.0
1070
    74
1070
     0
1000
MTEXTEND
  0
LINE
  5
10B57
330
747D
100
AcDbEntity
  8
補助
  6
PHANTOM
 62
   230
 48
50.0
100
AcDbLine
 10
139.9999999999995
 20
11409.6
 30
0.0
 11
16307.2
 21
11409.6
 31
0.0
  0
LINE
  5
10B59
330
747D
100
AcDbEntity
  8
仕様書枠
  6
Continuous
 48
50.0
100
AcDbLine
 10
13107.2
 20
1200.0
 30
0.0
 11
13107.2
 21
-0.0000000000000729
 31
0.0
  0
LINE
  5
10B5D
330
747D
100
AcDbEntity
  8
仕様書枠
 48
50.0
100
AcDbLine
 10
140.0
 20
0.0
 30
0.0
 11
16307.2
 21
-0.0000000000000909
 31
0.0
  0
LINE
  5
10B5E
330
747D
100
AcDbEntity
  8
補助
  6
PHANTOM
 62
   230
 48
50.0
100
AcDbLine
 10
16307.2
 20
11409.6
 30
0.0
 11
16307.2
 21
1200.0
 31
0.0
  0
LINE
  5
10B6C
330
747D
100
AcDbEntity
  8
仕様書枠
 48
50.0
100
AcDbLine
 10
13107.2
 20
1200.0
 30
0.0
 11
16307.2
 21
1200.0
 31
0.0
  0
TEXT
  5
10B73
330
747D
100
AcDbEntity
  8
文字
 62
     7
 48
50.0
100
AcDbText
 10
13162.9790565769
 20
895.0906074299405
 30
0.0
 40
200.0
  1
基 礎 図
  7
STYLE2
100
AcDbText
  0
LINE
  5
10B7B
330
747D
100
AcDbEntity
  8
仕様書枠
 48
50.0
100
AcDbLine
 10
13107.2
 20
800.0
 30
0.0
 11
14251.2
 21
800.0
 31
0.0
  0
LINE
  5
10B88
330
747D
100
AcDbEntity
  8
仕様書枠
  6
Continuous
 48
50.0
100
AcDbLine
 10
14251.2
 20
1200.0
 30
0.0
 11
14251.2
 21
800.0
 31
0.0
  0
LINE
  5
16462
330
747D
100
AcDbEntity
  8
仕様書枠
 48
50.0
100
AcDbLine
 10
16307.2
 20
1200.0
 30
0.0
 11
16307.2
 21
-0.0000000000000909
 31
0.0
  0
LINE
  5
1903B
330
747D
100
AcDbEntity
  8
補助
  6
PHANTOM
 62
   230
 48
50.0
100
AcDbLine
 10
140.0
 20
0.0
 30
0.0
 11
139.9999999999995
 21
11409.6
 31
0.0
  0
LEADER
  5
1AC27
330
747D
100
AcDbEntity
  8
寸法
 48
50.0
100
AcDbLeader
  3
INABA_S40G
 73
     0
 74
     0
 75
     1
 40
120.0
 41
720.0000000000001
 76
     3
 10
11278.695499615
 20
6992.015621675001
 30
0.0
 10
11445.46907400128
 20
6716.001708107168
 30
0.0
 10
11545.46907400128
 20
6716.001708107168
 30
0.0
340
1AC28
1001
ACAD
1000
DSTYLE
1002
{
1070
   341
1005
0
1002
}
  0
MTEXT
  5
1AC28
102
{ACAD_REACTORS
330
1AC27
102
}
330
747D
100
AcDbEntity
  8
部品1
 62
     7
 48
50.0
100
AcDbMText
 10
12305.46907400128
 20
6816.001708107169
 30
0.0
 40
120.0
 41
0.0
 71
     6
 72
     1
  1
\A1;床下換気口
  7
STYLE1
 73
     1
 44
1.0
1001
ACAD
1000
MTEXTBEGIN
1070
    73
1070
     1
1070
    44
1040
1.0
1070
    74
1070
     0
1000
MTEXTEND
  0
TEXT
  5
1AC29
330
747D
100
AcDbEntity
  8
部品1
 48
50.0
100
AcDbText
 10
11622.50116389398
 20
5382.722549756397
 30
0.0
 40
80.0
  1
(a=45,b=55,c=75)
  7
STYLE1
100
AcDbText
  0
TEXT
  5
1AC2A
330
747D
100
AcDbEntity
  8
部品1
 48
50.0
100
AcDbText
 10
11463.92215513968
 20
5489.567770625152
 30
0.0
 40
80.0
  1
※a,b,cは屋根の出幅です。
  7
STYLE1
100
AcDbText
  0
MTEXT
  5
1AC2B
102
{ACAD_REACTORS
330
1AC2C
102
}
330
747D
100
AcDbEntity
  8
部品1
 62
     7
 48
50.0
100
AcDbMText
 10
12261.70935112828
 20
5668.878457558228
 30
0.0
 40
120.0
 41
0.0
 71
     6
 72
     1
  1
\A1;屋根の外寸
  7
STYLE1
 73
     1
 44
1.0
1001
ACAD
1000
MTEXTBEGIN
1070
    73
1070
     1
1070
    44
1040
1.0
1070
    74
1070
     0
1000
MTEXTEND
  0
LEADER
  5
1AC2C
330
747D
100
AcDbEntity
  8
寸法
 48
50.0
100
AcDbLeader
  3
INABA_S40G
 73
     0
 74
     0
 75
     1
 40
120.0
 41
672.0
 76
     3
 10
11323.76933893624
 20
5842.767801021802
 30
0.0
 10
11449.70935112828
 20
5568.878457558227
 30
0.0
 10
11549.70935112828
 20
5568.878457558227
 30
0.0
340
1AC2B
1001
ACAD
1000
DSTYLE
1002
{
1070
   341
1005
0
1002
}
  0
TEXT
  5
1C7A1
330
747D
100
AcDbEntity
  8
文字
 62
     7
 48
50.0
100
AcDbText
 10
13188.16259899338
 20
79.80631269190417
 30
0.0
 40
80.0
  1
※布基礎には換気口を設けてください。
  7
STYLE2
100
AcDbText
  0
TEXT
  5
1C7E7
330
747D
100
AcDbEntity
  8
文字
 62
     7
 48
50.0
100
AcDbText
 10
13188.16259899338
 20
246.7109242801889
 30
0.0
 40
80.0
  1
※寒冷地等は地域の実情に合わせた基礎にして下さい。
  7
STYLE2
100
AcDbText
  0
TEXT
  5
1C7E8
330
747D
100
AcDbEntity
  8
文字
 62
     7
 48
50.0
100
AcDbText
 10
14478.98566430227
 20
499.5983841039506
 30
0.0
 40
160.0
  1
ＮＸＮ－１６２Ｈ
  7
STYLE2
100
AcDbText
  0
TEXT
  5
1C7E9
330
747D
100
AcDbEntity
  8
文字
 62
     7
 48
50.0
100
AcDbText
 10
14641.2525855784
 20
871.1744590657927
 30
0.0
 40
100.0
  1
～一般型・多雪地型～
  7
STYLE2
100
AcDbText
  0
TEXT
  5
1C7EC
330
747D
100
AcDbEntity
  8
文字
 62
     7
 48
50.0
100
AcDbText
 10
14524.131837222
 20
1031.557706291229
 30
0.0
 40
100.0
  1
      <縮尺> S=1/40
  7
STYLE2
100
AcDbText
  0
TEXT
  5
1C7ED
330
747D
100
AcDbEntity
  8
文字
 62
     7
 48
50.0
100
AcDbText
 10
13201.43669998441
 20
477.2740661031257
 30
0.0
 40
160.0
  1
機種名
  7
STYLE2
100
AcDbText
  0
LINE
  5
1C7EF
330
747D
100
AcDbEntity
  8
文字
 62
     7
 48
50.0
100
AcDbLine
 10
13187.2
 20
400.0
 30
0.0
 11
16227.2
 21
400.0
 31
0.0
  0
MTEXT
  5
1D2D5
102
{ACAD_REACTORS
330
1D2D6
102
}
330
747D
100
AcDbEntity
  8
部品1
 62
     7
 48
50.0
100
AcDbMText
 10
12473.99523070988
 20
8582.52936173107
 30
0.0
 40
120.0
 41
0.0
 71
     6
 72
     1
  1
アンカーボルト
  7
STYLE1
 73
     1
 44
1.0
1001
ACAD
1000
MTEXTBEGIN
1070
    73
1070
     1
1070
    44
1040
1.0
1070
    74
1070
     0
1000
MTEXTEND
  0
LEADER
  5
1D2D6
330
747D
100
AcDbEntity
  8
寸法
 48
50.0
100
AcDbLeader
  3
INABA_S40G
 73
     0
 74
     0
 75
     1
 40
120.0
 41
994.3492424049171
 76
     3
 10
11155.680085757
 20
8175.021295451896
 30
0.0
 10
11339.64598830496
 20
8482.529361731071
 30
0.0
 10
11439.64598830496
 20
8482.529361731071
 30
0.0
340
1D2D5
1001
ACAD
1000
DSTYLE
1002
{
1070
   341
1005
0
1002
}
  0
LINE
  5
20992
330
747D
100
AcDbEntity
  8
想像線
 48
10.0
100
AcDbLine
 10
11323.6
 20
5602.813451093207
 30
0.0
 11
11323.6
 21
8372.813451093191
 31
0.0
  0
DIMENSION
  5
26236
330
747D
100
AcDbEntity
  8
寸法
 48
50.0
100
AcDbDimension
  2
*D1
 10
5168.600000000001
 20
5097.968436750998
 30
0.0
 11
5395.100000000001
 21
5197.968436750998
 31
0.0
 70
    32
 71
     5
 42
452.9999999999991
  3
INABA_S40G
100
AcDbAlignedDimension
 13
5621.6
 23
5582.813451093177
 33
0.0
 14
5168.600000000001
 24
5657.813451093189
 34
0.0
100
AcDbRotatedDimension
1001
ACAD
1000
DSTYLE
1002
{
1070
   341
1005
0
1002
}
  0
DIMENSION
  5
26F00
330
747D
100
AcDbEntity
  8
寸法
 48
50.0
100
AcDbDimension
  2
*D2
 10
8043.202780124335
 20
5657.813451093213
 30
0.0
 11
8043.202780124333
 21
5049.328169718973
 31
0.0
 70
   160
  1
扉の出<>
 71
     5
 42
75.00000000000182
  3
INABA_S40G
100
AcDbAlignedDimension
 13
7776.600000000001
 23
5582.813451093212
 33
0.0
 14
7776.600000000009
 24
5657.813451093213
 34
0.0
 50
90.0
100
AcDbRotatedDimension
1001
ACAD
1000
DSTYLE
1002
{
1070
   341
1005
0
1002
}
  0
DIMENSION
  5
26F1A
330
747D
100
AcDbEntity
  8
寸法
 48
50.0
100
AcDbDimension
  2
*D3
 10
4427.164931848213
 20
8297.813451093189
 30
0.0
 11
4327.164931848212
 21
8335.313451093192
 31
0.0
 70
    32
  1
c
 71
     5
 42
75.00000000000182
  3
INABA_S40G
100
AcDbAlignedDimension
 13
4672.657733986179
 23
8372.813451093191
 33
0.0
 14
5168.600000000002
 24
8297.813451093189
 34
0.0
 50
90.0
100
AcDbRotatedDimension
1001
ACAD
1000
DSTYLE
1002
{
1070
   341
1005
0
1002
}
  0
DIMENSION
  5
26F3F
330
747D
100
AcDbEntity
  8
寸法
 48
50.0
100
AcDbDimension
  2
*D4
 10
4427.16493184821
 20
5602.813451093211
 30
0.0
 11
4327.164931848209
 21
5630.313451093201
 31
0.0
 70
    32
  1
b
 71
     5
 42
54.99999999997817
  3
INABA_S40G
100
AcDbAlignedDimension
 13
5175.050294581424
 23
5657.813451093189
 33
0.0
 14
4672.657733986179
 24
5602.813451093211
 34
0.0
 50
90.0
100
AcDbRotatedDimension
1001
ACAD
1000
DSTYLE
1002
{
1070
   341
1005
0
1002
}
  0
DIMENSION
  5
26F64
330
747D
100
AcDbEntity
  8
寸法
 48
50.0
100
AcDbDimension
  2
*D5
 10
11323.6
 20
9256.033773152109
 30
0.0
 11
11594.77462120245
 21
9256.033773152109
 31
0.0
 70
   160
  1
a
 71
     5
 42
45.0
  3
INABA_S40G
100
AcDbAlignedDimension
 13
11278.6
 23
8297.813451093187
 33
0.0
 14
11323.6
 24
9043.57307763527
 34
0.0
100
AcDbRotatedDimension
1001
ACAD
1000
DSTYLE
1002
{
1070
   341
1005
0
1002
}
  0
DIMENSION
  5
26F7E
330
747D
100
AcDbEntity
  8
寸法
 48
50.0
100
AcDbDimension
  2
*D6
 10
5168.600000000001
 20
9256.033773152109
 30
0.0
 11
4852.425378797541
 21
9256.033773152109
 31
0.0
 70
   160
  1
a
 71
     5
 42
44.99999999999454
  3
INABA_S40G
100
AcDbAlignedDimension
 13
5123.600000000006
 23
9043.57307763527
 33
0.0
 14
5168.600000000001
 24
8297.813451093187
 34
0.0
100
AcDbRotatedDimension
1001
ACAD
1000
DSTYLE
1002
{
1070
   341
1005
0
1002
}
  0
DIMENSION
  5
2701E
330
747D
100
AcDbEntity
  8
寸法
 48
50.0
100
AcDbDimension
  2
*D7
 10
5889.18320630424
 20
5777.813451093192
 30
0.0
 11
5889.183206304239
 21
5344.118509889284
 31
0.0
 70
   160
 71
     5
 42
195.0000000000145
  3
INABA_S40G
100
AcDbAlignedDimension
 13
5621.6
 23
5582.813451093177
 33
0.0
 14
5621.6
 24
5777.813451093192
 34
0.0
 50
90.0
100
AcDbRotatedDimension
1001
ACAD
1000
DSTYLE
1002
{
1070
   341
1005
0
1002
}
  0
LINE
  5
28230
102
{ACAD_REACTORS
330
2A609
102
}
330
747D
100
AcDbEntity
  8
部品1
 48
50.0
100
AcDbLine
 10
11048.6
 20
8177.813451093186
 30
0.0
 11
8235.600000000001
 21
8177.813451093189
 31
0.0
  0
DIMENSION
  5
28231
330
747D
100
AcDbEntity
  8
寸法
 48
50.0
100
AcDbDimension
  2
*D8
 10
8105.6
 20
9043.573077635272
 30
0.0
 11
9630.600000000001
 21
9143.573077635272
 31
0.0
 70
    32
 71
     5
 42
3050.0
  3
INABA_S40G
100
AcDbAlignedDimension
 13
11155.6
 23
8224.813451093188
 33
0.0
 14
8105.6
 24
8224.813451093188
 34
0.0
100
AcDbRotatedDimension
1001
ACAD
1000
DSTYLE
1002
{
1070
   341
1005
0
1002
}
  0
DIMENSION
  5
28232
330
747D
100
AcDbEntity
  8
寸法
 48
50.0
100
AcDbDimension
  2
*D9
 10
8670.14438614211
 20
5777.813451093198
 30
0.0
 11
8670.144386142109
 21
5334.981377750104
 31
0.0
 70
   160
 71
     5
 42
119.9999999999818
  3
INABA_S40G
100
AcDbAlignedDimension
 13
8235.600000000001
 23
5657.813451093216
 33
0.0
 14
8235.600000000001
 24
5777.813451093198
 34
0.0
 50
90.0
100
AcDbRotatedDimension
1001
ACAD
1000
DSTYLE
1002
{
1070
   341
1005
0
1002
}
  0
DIMENSION
  5
28233
330
747D
100
AcDbEntity
  8
寸法
 48
50.0
100
AcDbDimension
  2
*D10
 10
8670.14438614211
 20
5887.813451093207
 30
0.0
 11
8670.144386142109
 21
6123.860695187697
 31
0.0
 70
   160
 71
     5
 42
110.0000000000082
  3
INABA_S40G
100
AcDbAlignedDimension
 13
8235.600000000001
 23
5777.813451093198
 33
0.0
 14
8235.600000000001
 24
5887.813451093207
 34
0.0
 50
90.0
100
AcDbRotatedDimension
1001
ACAD
1000
DSTYLE
1002
{
1070
   341
1005
0
1002
}
  0
LINE
  5
28234
102
{ACAD_REACTORS
330
2A609
102
}
330
747D
100
AcDbEntity
  8
部品1
 48
50.0
100
AcDbLine
 10
11278.6
 20
5657.813451093207
 30
0.0
 11
7776.600000000001
 21
5657.813451093189
 31
0.0
  0
LINE
  5
28235
102
{ACAD_REACTORS
330
2A609
102
}
330
747D
100
AcDbEntity
  8
部品1
 48
50.0
100
AcDbLine
 10
11048.6
 20
5777.813451093206
 30
0.0
 11
8235.600000000001
 21
5777.8134510932
 31
0.0
  0
DIMENSION
  5
28236
330
747D
100
AcDbEntity
  8
寸法
 48
50.0
100
AcDbDimension
  2
*D11
 10
8223.600000000001
 20
8824.723216741515
 30
0.0
 11
8622.6
 21
8924.723216741515
 31
0.0
 70
    32
 71
     5
 42
798.0
  3
INABA_S40G
100
AcDbAlignedDimension
 13
9021.600000000001
 23
7622.813451093191
 33
0.0
 14
8223.600000000001
 24
7622.813451093191
 34
0.0
100
AcDbRotatedDimension
1001
ACAD
1000
DSTYLE
1002
{
1070
   341
1005
0
1002
}
  0
DIMENSION
  5
28237
330
747D
100
AcDbEntity
  8
寸法
 48
50.0
100
AcDbDimension
  2
*D12
 10
11278.6
 20
9256.033773152109
 30
0.0
 11
8223.600000000001
 21
9356.033773152109
 31
0.0
 70
    32
 71
     5
 42
6109.999999999999
  3
INABA_S40G
100
AcDbAlignedDimension
 13
5168.600000000001
 23
8297.813451093189
 33
0.0
 14
11278.6
 24
8297.813451093189
 34
0.0
100
AcDbRotatedDimension
1001
ACAD
1000
DSTYLE
1002
{
1070
   341
1005
0
1002
}
  0
LINE
  5
28238
102
{ACAD_REACTORS
330
2A609
102
}
330
747D
100
AcDbEntity
  8
部品1
 48
50.0
100
AcDbLine
 10
11278.6
 20
8297.813451093189
 30
0.0
 11
5168.600000000001
 21
8297.813451093189
 31
0.0
  0
LINE
  5
2823D
102
{ACAD_REACTORS
330
2A609
102
}
330
747D
100
AcDbEntity
  8
部品1
 48
50.0
100
AcDbLine
 10
6598.600000000002
 20
5777.813451093194
 30
0.0
 11
6598.600000000002
 21
5582.813451093185
 31
0.0
  0
LINE
  5
2823E
102
{ACAD_REACTORS
330
2A609
102
}
330
747D
100
AcDbEntity
  8
部品1
 48
50.0
100
AcDbLine
 10
6798.600000000002
 20
5777.813451093196
 30
0.0
 11
6798.600000000002
 21
5582.813451093185
 31
0.0
  0
DIMENSION
  5
2823F
330
747D
100
AcDbEntity
  8
寸法
 48
50.0
100
AcDbDimension
  2
*D13
 10
4672.657733986177
 20
5657.813451093189
 30
0.0
 11
4672.657733986176
 21
5322.282502250597
 31
0.0
 70
   160
 71
     5
 42
123.0000000000027
  3
INABA_S40G
100
AcDbAlignedDimension
 13
5241.600000000008
 23
5780.813451093191
 33
0.0
 14
5168.600000000001
 24
5657.813451093189
 34
0.0
 50
90.0
100
AcDbRotatedDimension
1001
ACAD
1000
DSTYLE
1002
{
1070
   341
1005
0
1002
}
  0
LINE
  5
28241
102
{ACAD_REACTORS
330
2A609
102
}
330
747D
100
AcDbEntity
  8
部品1
 48
50.0
100
AcDbLine
 10
5168.600000000001
 20
5657.813451093189
 30
0.0
 11
5168.600000000001
 21
8297.813451093189
 31
0.0
  0
DIMENSION
  5
28242
330
747D
100
AcDbEntity
  8
寸法
 48
50.0
100
AcDbDimension
  2
*D14
 10
4427.164931848209
 20
5657.813451093189
 30
0.0
 11
4327.153120824586
 21
6977.81345109319
 31
0.0
 70
    32
 71
     5
 42
2640.000000000001
  3
INABA_S40G
100
AcDbAlignedDimension
 13
5168.600000000001
 23
8297.813451093189
 33
0.0
 14
5168.600000000001
 24
5657.813451093189
 34
0.0
 50
90.0
100
AcDbRotatedDimension
1001
ACAD
1000
DSTYLE
1002
{
1070
   341
1005
0
1002
}
  0
LINE
  5
28247
102
{ACAD_REACTORS
330
2A609
102
}
330
747D
100
AcDbEntity
  8
部品1
 48
50.0
100
AcDbLine
 10
7776.600000000001
 20
5582.813451093192
 30
0.0
 11
5621.6
 21
5582.813451093177
 31
0.0
  0
LINE
  5
2824A
330
747D
100
AcDbEntity
  8
部品1
 48
50.0
100
AcDbLine
 10
5168.600000000001
 20
5657.813451093189
 30
0.0
 11
5621.6
 21
5657.813451093189
 31
0.0
  0
LINE
  5
28255
330
747D
100
AcDbEntity
  8
部品1
 48
50.0
100
AcDbLine
 10
5621.6
 20
5582.813451093195
 30
0.0
 11
5621.6
 21
5657.813451093177
 31
0.0
  0
LINE
  5
28422
330
747D
100
AcDbEntity
  8
部品1
 48
50.0
100
AcDbLine
 10
7776.600000000001
 20
5582.813451093195
 30
0.0
 11
7776.600000000001
 21
5657.81345109319
 31
0.0
  0
DIMENSION
  5
28454
330
747D
100
AcDbEntity
  8
寸法
 48
50.0
100
AcDbDimension
  2
*D15
 10
5168.600000000001
 20
9043.573077635272
 30
0.0
 11
4895.493398282201
 21
9043.573077635272
 31
0.0
 70
   160
 71
     5
 42
122.9999999999991
  3
INABA_S40G
100
AcDbAlignedDimension
 13
5291.6
 23
8224.813451093188
 33
0.0
 14
5168.600000000001
 24
8297.813451093189
 34
0.0
100
AcDbRotatedDimension
1001
ACAD
1000
DSTYLE
1002
{
1070
   341
1005
0
1002
}
  0
DIMENSION
  5
28456
330
747D
100
AcDbEntity
  8
寸法
 48
50.0
100
AcDbDimension
  2
*D16
 10
4672.657733986177
 20
8174.813451093189
 30
0.0
 11
4672.657733986176
 21
8570.920052810988
 31
0.0
 70
   160
 71
     5
 42
123.0000000000009
  3
INABA_S40G
100
AcDbAlignedDimension
 13
5168.600000000001
 23
8297.813451093189
 33
0.0
 14
5241.6
 24
8174.813451093189
 34
0.0
 50
90.0
100
AcDbRotatedDimension
1001
ACAD
1000
DSTYLE
1002
{
1070
   341
1005
0
1002
}
  0
DIMENSION
  5
28457
330
747D
100
AcDbEntity
  8
寸法
 48
50.0
100
AcDbDimension
  2
*D17
 10
5168.600000000001
 20
8824.723216741515
 30
0.0
 11
5570.100000000001
 21
8924.723216741515
 31
0.0
 70
    32
 71
     5
 42
803.0
  3
INABA_S40G
100
AcDbAlignedDimension
 13
5971.600000000002
 23
7622.813451093191
 33
0.0
 14
5168.600000000001
 24
8297.813451093189
 34
0.0
100
AcDbRotatedDimension
1001
ACAD
1000
DSTYLE
1002
{
1070
   341
1005
0
1002
}
  0
DIMENSION
  5
28458
330
747D
100
AcDbEntity
  8
寸法
 48
50.0
100
AcDbDimension
  2
*D18
 10
4672.657733986176
 20
5780.813451093191
 30
0.0
 11
4572.645922962553
 21
6977.81345109319
 31
0.0
 70
    32
 71
     5
 42
2393.999999999997
  3
INABA_S40G
100
AcDbAlignedDimension
 13
5241.6
 23
8174.813451093189
 33
0.0
 14
5241.600000000008
 24
5780.813451093191
 34
0.0
 50
90.0
100
AcDbRotatedDimension
1001
ACAD
1000
DSTYLE
1002
{
1070
   341
1005
0
1002
}
  0
DIMENSION
  5
28459
330
747D
100
AcDbEntity
  8
寸法
 48
50.0
100
AcDbDimension
  2
*D19
 10
7425.6
 20
8824.723216741515
 30
0.0
 11
7824.600000000001
 21
8924.723216741515
 31
0.0
 70
    32
 71
     5
 42
798.0
  3
INABA_S40G
100
AcDbAlignedDimension
 13
8223.600000000001
 23
7622.813451093191
 33
0.0
 14
7425.6
 24
7622.813451093191
 34
0.0
100
AcDbRotatedDimension
1001
ACAD
1000
DSTYLE
1002
{
1070
   341
1005
0
1002
}
  0
DIMENSION
  5
2845A
330
747D
100
AcDbEntity
  8
寸法
 48
50.0
100
AcDbDimension
  2
*D20
 10
6698.6
 20
8824.723216741515
 30
0.0
 11
7062.1
 21
8924.735027765136
 31
0.0
 70
    32
 71
     5
 42
727.0
  3
INABA_S40G
100
AcDbAlignedDimension
 13
7425.6
 23
7622.813451093191
 33
0.0
 14
6698.6
 24
7622.813451093191
 34
0.0
100
AcDbRotatedDimension
1001
ACAD
1000
DSTYLE
1002
{
1070
   341
1005
0
1002
}
  0
DIMENSION
  5
2845B
330
747D
100
AcDbEntity
  8
寸法
 48
50.0
100
AcDbDimension
  2
*D21
 10
5615.307249876098
 20
8297.813451093187
 30
0.0
 11
5615.307249876098
 21
8575.896994366074
 31
0.0
 70
   160
 71
     5
 42
119.9999999999991
  3
INABA_S40G
100
AcDbAlignedDimension
 13
5398.6
 23
8177.813451093189
 33
0.0
 14
5398.600000000002
 24
8297.813451093187
 34
0.0
 50
90.0
100
AcDbRotatedDimension
1001
ACAD
1000
DSTYLE
1002
{
1070
   341
1005
0
1002
}
  0
DIMENSION
  5
2845C
330
747D
100
AcDbEntity
  8
寸法
 48
50.0
100
AcDbDimension
  2
*D22
 10
5291.6
 20
9043.573077635272
 30
0.0
 11
6698.6
 21
9143.584888658894
 31
0.0
 70
    32
 71
     5
 42
2814.0
  3
INABA_S40G
100
AcDbAlignedDimension
 13
8105.6
 23
8224.813451093188
 33
0.0
 14
5291.6
 24
8224.813451093188
 34
0.0
100
AcDbRotatedDimension
1001
ACAD
1000
DSTYLE
1002
{
1070
   341
1005
0
1002
}
  0
DIMENSION
  5
2845D
330
747D
100
AcDbEntity
  8
寸法
 48
50.0
100
AcDbDimension
  2
*D23
 10
5971.600000000002
 20
8824.723216741515
 30
0.0
 11
6335.1
 21
8924.735027765136
 31
0.0
 70
    32
 71
     5
 42
726.999999999999
  3
INABA_S40G
100
AcDbAlignedDimension
 13
6698.6
 23
7622.813451093191
 33
0.0
 14
5971.600000000002
 24
7622.813451093191
 34
0.0
100
AcDbRotatedDimension
1001
ACAD
1000
DSTYLE
1002
{
1070
   341
1005
0
1002
}
  0
LINE
  5
2845E
102
{ACAD_REACTORS
330
2A609
102
}
330
747D
100
AcDbEntity
  8
部品1
 48
50.0
100
AcDbLine
 10
7975.6
 20
5777.813451093198
 30
0.0
 11
5398.6
 21
5777.813451093192
 31
0.0
  0
LINE
  5
2845F
102
{ACAD_REACTORS
330
2A609
102
}
330
747D
100
AcDbEntity
  8
部品1
 48
50.0
100
AcDbLine
 10
7975.6
 20
8177.813451093189
 30
0.0
 11
5398.6
 21
8177.813451093189
 31
0.0
  0
LINE
  5
28460
102
{ACAD_REACTORS
330
2A609
102
}
330
747D
100
AcDbEntity
  8
部品1
 48
50.0
100
AcDbLine
 10
5288.6
 20
5887.813451093189
 30
0.0
 11
5288.6
 21
8067.813451093185
 31
0.0
  0
LINE
  5
28463
330
747D
100
AcDbEntity
  8
部品1
 48
50.0
100
AcDbLine
 10
6071.6
 20
6732.813451093189
 30
0.0
 11
5871.6
 21
6732.813451093189
 31
0.0
  0
LINE
  5
28464
330
747D
100
AcDbEntity
  8
センター
 48
2.0
100
AcDbLine
 10
5921.600000000001
 20
6532.813451093189
 30
0.0
 11
6021.600000000002
 21
6532.813451093189
 31
0.0
  0
LINE
  5
28465
330
747D
100
AcDbEntity
  8
部品1
 48
50.0
100
AcDbLine
 10
6071.6
 20
6332.813451093187
 30
0.0
 11
5871.6
 21
6332.813451093187
 31
0.0
  0
LINE
  5
28466
330
747D
100
AcDbEntity
  8
部品1
 48
50.0
100
AcDbLine
 10
5871.6
 20
6332.813451093189
 30
0.0
 11
5871.6
 21
6732.813451093189
 31
0.0
  0
LINE
  5
28467
330
747D
100
AcDbEntity
  8
部品1
 48
50.0
100
AcDbLine
 10
5398.6
 20
5887.813451093192
 30
0.0
 11
5288.600000000002
 21
5887.813451093192
 31
0.0
  0
CIRCLE
  5
28468
330
747D
100
AcDbEntity
  8
部品1
 48
50.0
100
AcDbCircle
 10
5291.600000000006
 20
5780.813451093191
 30
0.0
 40
35.0
  0
LINE
  5
28469
330
747D
100
AcDbEntity
  8
センター
 48
2.0
100
AcDbLine
 10
5291.600000000006
 20
5830.813451093192
 30
0.0
 11
5291.600000000006
 21
5730.813451093189
 31
0.0
  0
LINE
  5
2846A
330
747D
100
AcDbEntity
  8
センター
 48
2.0
100
AcDbLine
 10
5241.600000000008
 20
5780.813451093191
 30
0.0
 11
5341.600000000006
 21
5780.813451093191
 31
0.0
  0
LINE
  5
2846B
330
747D
100
AcDbEntity
  8
部品1
 48
50.0
100
AcDbLine
 10
5398.6
 20
5777.813451093191
 30
0.0
 11
5398.6
 21
5887.813451093192
 31
0.0
  0
LINE
  5
2846C
102
{ACAD_REACTORS
330
2A609
102
}
330
747D
100
AcDbEntity
  8
部品1
 48
50.0
100
AcDbLine
 10
5288.6
 20
7077.813451093189
 30
0.0
 11
5168.600000000001
 21
7077.813451093189
 31
0.0
  0
LINE
  5
2846D
102
{ACAD_REACTORS
330
2A609
102
}
330
747D
100
AcDbEntity
  8
部品1
 48
50.0
100
AcDbLine
 10
5288.6
 20
6877.813451093189
 30
0.0
 11
5168.600000000001
 21
6877.813451093189
 31
0.0
  0
LINE
  5
2846F
330
747D
100
AcDbEntity
  8
センター
 48
2.0
100
AcDbLine
 10
5971.600000000002
 20
6582.813451093189
 30
0.0
 11
5971.600000000002
 21
6482.813451093189
 31
0.0
  0
LINE
  5
28470
330
747D
100
AcDbEntity
  8
部品1
 48
50.0
100
AcDbLine
 10
6598.600000000002
 20
6332.813451093189
 30
0.0
 11
6598.600000000002
 21
6732.813451093189
 31
0.0
  0
LINE
  5
28471
330
747D
100
AcDbEntity
  8
部品1
 48
50.0
100
AcDbLine
 10
6798.6
 20
6332.813451093187
 30
0.0
 11
6798.6
 21
6732.813451093189
 31
0.0
  0
LINE
  5
28472
330
747D
100
AcDbEntity
  8
部品1
 48
50.0
100
AcDbLine
 10
6071.6
 20
6332.813451093187
 30
0.0
 11
6071.6
 21
6732.813451093189
 31
0.0
  0
LINE
  5
28473
330
747D
100
AcDbEntity
  8
部品1
 48
50.0
100
AcDbLine
 10
6798.6
 20
6332.813451093187
 30
0.0
 11
6598.600000000002
 21
6332.813451093187
 31
0.0
  0
LINE
  5
28474
330
747D
100
AcDbEntity
  8
センター
 48
2.0
100
AcDbLine
 10
6648.6
 20
6532.813451093189
 30
0.0
 11
6748.6
 21
6532.813451093189
 31
0.0
  0
LINE
  5
28475
330
747D
100
AcDbEntity
  8
センター
 48
2.0
100
AcDbLine
 10
6698.6
 20
6582.813451093189
 30
0.0
 11
6698.6
 21
6482.813451093189
 31
0.0
  0
LINE
  5
28476
330
747D
100
AcDbEntity
  8
部品1
 48
50.0
100
AcDbLine
 10
6798.6
 20
6732.813451093189
 30
0.0
 11
6598.600000000002
 21
6732.813451093189
 31
0.0
  0
LINE
  5
28477
330
747D
100
AcDbEntity
  8
部品1
 48
50.0
100
AcDbLine
 10
6071.6
 20
7622.813451093191
 30
0.0
 11
5871.6
 21
7622.813451093191
 31
0.0
  0
LINE
  5
28478
330
747D
100
AcDbEntity
  8
部品1
 48
50.0
100
AcDbLine
 10
6071.6
 20
7222.813451093187
 30
0.0
 11
5871.6
 21
7222.813451093187
 31
0.0
  0
LINE
  5
28479
330
747D
100
AcDbEntity
  8
センター
 48
2.0
100
AcDbLine
 10
5921.600000000001
 20
7422.81345109319
 30
0.0
 11
6021.600000000002
 21
7422.81345109319
 31
0.0
  0
DIMENSION
  5
2847A
330
747D
100
AcDbEntity
  8
寸法
 48
50.0
100
AcDbDimension
  2
*D24
 10
5615.307249876098
 20
8067.813451093185
 30
0.0
 11
5615.307249876098
 21
7727.754395975074
 31
0.0
 70
   160
 71
     5
 42
110.0000000000036
  3
INABA_S40G
100
AcDbAlignedDimension
 13
5398.6
 23
8177.813451093189
 33
0.0
 14
5398.6
 24
8067.813451093185
 34
0.0
 50
90.0
100
AcDbRotatedDimension
1001
ACAD
1000
DSTYLE
1002
{
1070
   341
1005
0
1002
}
  0
LINE
  5
2847B
330
747D
100
AcDbEntity
  8
部品1
 48
50.0
100
AcDbLine
 10
5871.6
 20
7222.813451093189
 30
0.0
 11
5871.6
 21
7622.813451093191
 31
0.0
  0
LINE
  5
2847C
330
747D
100
AcDbEntity
  8
センター
 48
2.0
100
AcDbLine
 10
5971.600000000002
 20
7472.813451093189
 30
0.0
 11
5971.600000000002
 21
7372.813451093191
 31
0.0
  0
LINE
  5
2847D
330
747D
100
AcDbEntity
  8
部品1
 48
50.0
100
AcDbLine
 10
5398.599999999999
 20
8067.813451093185
 30
0.0
 11
5398.6
 21
8177.813451093189
 31
0.0
  0
CIRCLE
  5
2847E
330
747D
100
AcDbEntity
  8
部品1
 48
50.0
100
AcDbCircle
 10
5291.6
 20
8174.813451093189
 30
0.0
 40
35.0
  0
LINE
  5
2847F
330
747D
100
AcDbEntity
  8
センター
 48
2.0
100
AcDbLine
 10
5291.6
 20
8224.813451093188
 30
0.0
 11
5291.6
 21
8124.813451093189
 31
0.0
  0
LINE
  5
28480
330
747D
100
AcDbEntity
  8
部品1
 48
50.0
100
AcDbLine
 10
5398.599999999999
 20
8067.813451093185
 30
0.0
 11
5288.6
 21
8067.813451093185
 31
0.0
  0
LINE
  5
28481
330
747D
100
AcDbEntity
  8
部品1
 48
50.0
100
AcDbLine
 10
5567.928907166848
 20
8297.813451093185
 30
0.0
 11
5168.600000000001
 21
8297.813451093189
 31
0.0
  0
LINE
  5
28482
330
747D
100
AcDbEntity
  8
センター
 48
2.0
100
AcDbLine
 10
5241.6
 20
8174.813451093189
 30
0.0
 11
5341.6
 21
8174.813451093189
 31
0.0
  0
LINE
  5
28483
330
747D
100
AcDbEntity
  8
部品1
 48
50.0
100
AcDbLine
 10
6071.6
 20
7222.813451093187
 30
0.0
 11
6071.6
 21
7622.813451093191
 31
0.0
  0
LINE
  5
28484
330
747D
100
AcDbEntity
  8
部品1
 48
50.0
100
AcDbLine
 10
6598.600000000002
 20
7222.813451093189
 30
0.0
 11
6598.600000000002
 21
7622.813451093191
 31
0.0
  0
LINE
  5
28485
330
747D
100
AcDbEntity
  8
部品1
 48
50.0
100
AcDbLine
 10
6798.6
 20
7222.813451093187
 30
0.0
 11
6798.6
 21
7622.813451093191
 31
0.0
  0
LINE
  5
28486
330
747D
100
AcDbEntity
  8
センター
 48
2.0
100
AcDbLine
 10
6698.6
 20
7472.813451093189
 30
0.0
 11
6698.6
 21
7372.813451093191
 31
0.0
  0
LINE
  5
28487
330
747D
100
AcDbEntity
  8
センター
 48
2.0
100
AcDbLine
 10
6648.6
 20
7422.81345109319
 30
0.0
 11
6748.6
 21
7422.81345109319
 31
0.0
  0
LINE
  5
28488
330
747D
100
AcDbEntity
  8
部品1
 48
50.0
100
AcDbLine
 10
6798.6
 20
7222.813451093187
 30
0.0
 11
6598.600000000002
 21
7222.813451093187
 31
0.0
  0
LINE
  5
28489
330
747D
100
AcDbEntity
  8
部品1
 48
50.0
100
AcDbLine
 10
6798.6
 20
7622.813451093191
 30
0.0
 11
6598.600000000002
 21
7622.813451093191
 31
0.0
  0
LINE
  5
2848A
102
{ACAD_REACTORS
330
2A609
102
}
330
747D
100
AcDbEntity
  8
部品1
 48
50.0
100
AcDbLine
 10
6798.6
 20
8297.813451093189
 30
0.0
 11
6798.6
 21
8177.813451093189
 31
0.0
  0
LINE
  5
2848B
102
{ACAD_REACTORS
330
2A609
102
}
330
747D
100
AcDbEntity
  8
部品1
 48
50.0
100
AcDbLine
 10
6598.600000000002
 20
8297.813451093189
 30
0.0
 11
6598.600000000002
 21
8177.813451093189
 31
0.0
  0
LINE
  5
2848D
330
747D
100
AcDbEntity
  8
部品1
 48
50.0
100
AcDbLine
 10
7325.6
 20
6332.813451093189
 30
0.0
 11
7325.6
 21
6732.813451093189
 31
0.0
  0
LINE
  5
2848E
330
747D
100
AcDbEntity
  8
部品1
 48
50.0
100
AcDbLine
 10
7525.6
 20
6332.813451093187
 30
0.0
 11
7525.6
 21
6732.813451093189
 31
0.0
  0
LINE
  5
2848F
330
747D
100
AcDbEntity
  8
部品1
 48
50.0
100
AcDbLine
 10
7525.6
 20
6332.813451093187
 30
0.0
 11
7325.6
 21
6332.813451093187
 31
0.0
  0
LINE
  5
28490
330
747D
100
AcDbEntity
  8
センター
 48
2.0
100
AcDbLine
 10
7375.6
 20
6532.813451093189
 30
0.0
 11
7475.6
 21
6532.813451093189
 31
0.0
  0
LINE
  5
28491
330
747D
100
AcDbEntity
  8
センター
 48
2.0
100
AcDbLine
 10
7425.6
 20
6582.813451093189
 30
0.0
 11
7425.6
 21
6482.813451093189
 31
0.0
  0
LINE
  5
28492
330
747D
100
AcDbEntity
  8
部品1
 48
50.0
100
AcDbLine
 10
7525.6
 20
6732.813451093189
 30
0.0
 11
7325.6
 21
6732.813451093189
 31
0.0
  0
DIMENSION
  5
28493
330
747D
100
AcDbEntity
  8
寸法
 48
50.0
100
AcDbDimension
  2
*D25
 10
7975.6
 20
6114.847525473982
 30
0.0
 11
8105.6
 21
6114.847525473982
 31
0.0
 70
   160
 71
     5
 42
260.0
  3
INABA_S40G
100
AcDbAlignedDimension
 13
8235.600000000001
 23
5887.813451093207
 33
0.0
 14
7975.6
 24
5887.813451093207
 34
0.0
100
AcDbRotatedDimension
1001
ACAD
1000
DSTYLE
1002
{
1070
   341
1005
0
1002
}
  0
LINE
  5
28494
330
747D
100
AcDbEntity
  8
部品1
 48
50.0
100
AcDbLine
 10
8235.600000000001
 20
5887.813451093207
 30
0.0
 11
7975.6
 21
5887.813451093207
 31
0.0
  0
LINE
  5
28495
330
747D
100
AcDbEntity
  8
部品1
 48
50.0
100
AcDbLine
 10
7975.6
 20
5777.813451093198
 30
0.0
 11
7975.6
 21
5887.813451093207
 31
0.0
  0
LINE
  5
28496
330
747D
100
AcDbEntity
  8
部品1
 48
50.0
100
AcDbLine
 10
8235.600000000001
 20
5777.813451093201
 30
0.0
 11
8235.600000000001
 21
5887.813451093207
 31
0.0
  0
LINE
  5
28497
330
747D
100
AcDbEntity
  8
センター
 48
2.0
100
AcDbLine
 10
8055.600000000008
 20
5780.813451093191
 30
0.0
 11
8155.600000000008
 21
5780.813451093191
 31
0.0
  0
CIRCLE
  5
28498
330
747D
100
AcDbEntity
  8
部品1
 48
50.0
100
AcDbCircle
 10
8105.600000000007
 20
5780.813451093191
 30
0.0
 40
35.0
  0
LINE
  5
28499
330
747D
100
AcDbEntity
  8
センター
 48
2.0
100
AcDbLine
 10
8105.600000000007
 20
5830.813451093192
 30
0.0
 11
8105.600000000007
 21
5730.813451093189
 31
0.0
  0
LINE
  5
284A0
330
747D
100
AcDbEntity
  8
センター
 48
2.0
100
AcDbLine
 10
7425.6
 20
7472.813451093189
 30
0.0
 11
7425.6
 21
7372.813451093191
 31
0.0
  0
LINE
  5
284A1
330
747D
100
AcDbEntity
  8
部品1
 48
50.0
100
AcDbLine
 10
7525.6
 20
7222.813451093187
 30
0.0
 11
7525.6
 21
7622.813451093191
 31
0.0
  0
LINE
  5
284A2
330
747D
100
AcDbEntity
  8
部品1
 48
50.0
100
AcDbLine
 10
7325.6
 20
7222.813451093189
 30
0.0
 11
7325.6
 21
7622.813451093191
 31
0.0
  0
LINE
  5
284A3
330
747D
100
AcDbEntity
  8
部品1
 48
50.0
100
AcDbLine
 10
7525.6
 20
7222.813451093187
 30
0.0
 11
7325.6
 21
7222.813451093187
 31
0.0
  0
LINE
  5
284A4
330
747D
100
AcDbEntity
  8
センター
 48
2.0
100
AcDbLine
 10
7375.6
 20
7422.81345109319
 30
0.0
 11
7475.6
 21
7422.81345109319
 31
0.0
  0
LINE
  5
284A5
330
747D
100
AcDbEntity
  8
部品1
 48
50.0
100
AcDbLine
 10
7525.6
 20
7622.813451093191
 30
0.0
 11
7325.6
 21
7622.813451093191
 31
0.0
  0
LINE
  5
284A6
330
747D
100
AcDbEntity
  8
部品1
 48
50.0
100
AcDbLine
 10
8235.600000000001
 20
8067.81345109317
 30
0.0
 11
7975.6
 21
8067.81345109317
 31
0.0
  0
LINE
  5
284A7
330
747D
100
AcDbEntity
  8
部品1
 48
50.0
100
AcDbLine
 10
7975.6
 20
8177.813451093189
 30
0.0
 11
7975.6
 21
8067.81345109317
 31
0.0
  0
LINE
  5
284A8
330
747D
100
AcDbEntity
  8
部品1
 48
50.0
100
AcDbLine
 10
8235.600000000001
 20
8177.813451093189
 30
0.0
 11
8235.600000000001
 21
8067.81345109317
 31
0.0
  0
CIRCLE
  5
284A9
330
747D
100
AcDbEntity
  8
部品1
 48
50.0
100
AcDbCircle
 10
8105.6
 20
8174.813451093189
 30
0.0
 40
35.0
  0
LINE
  5
284AA
330
747D
100
AcDbEntity
  8
センター
 48
2.0
100
AcDbLine
 10
8105.6
 20
8224.813451093188
 30
0.0
 11
8105.6
 21
8124.813451093189
 31
0.0
  0
LINE
  5
284AB
330
747D
100
AcDbEntity
  8
センター
 48
2.0
100
AcDbLine
 10
8055.600000000001
 20
8174.813451093189
 30
0.0
 11
8155.600000000001
 21
8174.813451093189
 31
0.0
  0
LINE
  5
284AD
102
{ACAD_REACTORS
330
2A609
102
}
330
747D
100
AcDbEntity
  8
部品1
 48
50.0
100
AcDbLine
 10
9648.600000000014
 20
5777.813451093201
 30
0.0
 11
9648.600000000014
 21
5657.8134510932
 31
0.0
  0
LINE
  5
284AE
102
{ACAD_REACTORS
330
2A609
102
}
330
747D
100
AcDbEntity
  8
部品1
 48
50.0
100
AcDbLine
 10
9848.600000000013
 20
5777.813451093202
 30
0.0
 11
9848.600000000013
 21
5657.8134510932
 31
0.0
  0
DIMENSION
  5
284AF
330
747D
100
AcDbEntity
  8
寸法
 48
50.0
100
AcDbDimension
  2
*D26
 10
10163.85510029273
 20
6532.81345109319
 30
0.0
 11
10063.85510029272
 21
6095.313451093195
 31
0.0
 70
    32
 71
     5
 42
874.9999999999909
  3
INABA_S40G
100
AcDbAlignedDimension
 13
9909.045939259561
 23
5657.813451093199
 33
0.0
 14
10375.6
 24
6532.813451093189
 34
0.0
 50
90.0
100
AcDbRotatedDimension
1001
ACAD
1000
DSTYLE
1002
{
1070
   341
1005
0
1002
}
  0
LINE
  5
284B1
102
{ACAD_REACTORS
330
2A609
102
}
330
747D
100
AcDbEntity
  8
部品1
 48
50.0
100
AcDbLine
 10
11278.6
 20
5657.813451093207
 30
0.0
 11
11278.6
 21
8297.813451093189
 31
0.0
  0
DIMENSION
  5
284B9
330
747D
100
AcDbEntity
  8
寸法
 48
50.0
100
AcDbDimension
  2
*D27
 10
11155.6
 20
9043.573077635272
 30
0.0
 11
11551.7066017178
 21
9043.573077635272
 31
0.0
 70
   160
 71
     5
 42
123.0
  3
INABA_S40G
100
AcDbAlignedDimension
 13
11278.6
 23
8297.813451093189
 33
0.0
 14
11155.6
 24
8224.813451093188
 34
0.0
100
AcDbRotatedDimension
1001
ACAD
1000
DSTYLE
1002
{
1070
   341
1005
0
1002
}
  0
DIMENSION
  5
284BA
330
747D
100
AcDbEntity
  8
寸法
 48
50.0
100
AcDbDimension
  2
*D28
 10
9748.600000000001
 20
8824.723216741515
 30
0.0
 11
10112.1
 21
8924.735027765136
 31
0.0
 70
    32
 71
     5
 42
727.0
  3
INABA_S40G
100
AcDbAlignedDimension
 13
10475.6
 23
7622.813451093191
 33
0.0
 14
9748.600000000001
 24
7622.813451093191
 34
0.0
100
AcDbRotatedDimension
1001
ACAD
1000
DSTYLE
1002
{
1070
   341
1005
0
1002
}
  0
DIMENSION
  5
284BB
330
747D
100
AcDbEntity
  8
寸法
 48
50.0
100
AcDbDimension
  2
*D29
 10
10475.6
 20
8824.723216741515
 30
0.0
 11
10877.1
 21
8924.723216741515
 31
0.0
 70
    32
 71
     5
 42
803.0
  3
INABA_S40G
100
AcDbAlignedDimension
 13
11278.6
 23
8297.813451093189
 33
0.0
 14
10475.6
 24
7622.813451093191
 34
0.0
100
AcDbRotatedDimension
1001
ACAD
1000
DSTYLE
1002
{
1070
   341
1005
0
1002
}
  0
DIMENSION
  5
284BC
330
747D
100
AcDbEntity
  8
寸法
 48
50.0
100
AcDbDimension
  2
*D30
 10
9021.600000000001
 20
8824.723216741515
 30
0.0
 11
9385.099999999999
 21
8924.735027765136
 31
0.0
 70
    32
 71
     5
 42
727.0
  3
INABA_S40G
100
AcDbAlignedDimension
 13
9748.600000000001
 23
7622.813451093191
 33
0.0
 14
9021.600000000001
 24
7622.813451093191
 34
0.0
100
AcDbRotatedDimension
1001
ACAD
1000
DSTYLE
1002
{
1070
   341
1005
0
1002
}
  0
DIMENSION
  5
284BD
330
747D
100
AcDbEntity
  8
寸法
 48
50.0
100
AcDbDimension
  2
*D31
 10
10163.85510029273
 20
7422.813451093192
 30
0.0
 11
10063.85510029272
 21
6977.813451093196
 31
0.0
 70
    32
 71
     5
 42
889.9999999999945
  3
INABA_S40G
100
AcDbAlignedDimension
 13
10375.6
 23
6532.813451093197
 33
0.0
 14
10375.6
 24
7422.81345109319
 34
0.0
 50
90.0
100
AcDbRotatedDimension
1001
ACAD
1000
DSTYLE
1002
{
1070
   341
1005
0
1002
}
  0
DIMENSION
  5
284BE
330
747D
100
AcDbEntity
  8
寸法
 48
50.0
100
AcDbDimension
  2
*D32
 10
10163.85510029273
 20
8297.813451093189
 30
0.0
 11
10063.85510029272
 21
7860.31345109319
 31
0.0
 70
    32
 71
     5
 42
874.9999999999964
  3
INABA_S40G
100
AcDbAlignedDimension
 13
10375.6
 23
7422.81345109319
 33
0.0
 14
9813.157431058357
 24
8297.813451093189
 34
0.0
 50
90.0
100
AcDbRotatedDimension
1001
ACAD
1000
DSTYLE
1002
{
1070
   341
1005
0
1002
}
  0
LINE
  5
284BF
330
747D
100
AcDbEntity
  8
部品1
 48
50.0
100
AcDbLine
 10
8921.600000000001
 20
6332.813451093189
 30
0.0
 11
8921.600000000001
 21
6732.813451093189
 31
0.0
  0
LINE
  5
284C0
330
747D
100
AcDbEntity
  8
部品1
 48
50.0
100
AcDbLine
 10
9121.6
 20
6332.813451093187
 30
0.0
 11
9121.6
 21
6732.813451093189
 31
0.0
  0
LINE
  5
284C1
330
747D
100
AcDbEntity
  8
部品1
 48
50.0
100
AcDbLine
 10
9121.6
 20
6332.813451093187
 30
0.0
 11
8921.600000000001
 21
6332.813451093187
 31
0.0
  0
LINE
  5
284C2
330
747D
100
AcDbEntity
  8
センター
 48
2.0
100
AcDbLine
 10
8971.6
 20
6532.813451093189
 30
0.0
 11
9071.600000000001
 21
6532.813451093189
 31
0.0
  0
LINE
  5
284C3
330
747D
100
AcDbEntity
  8
センター
 48
2.0
100
AcDbLine
 10
9021.600000000001
 20
6582.813451093189
 30
0.0
 11
9021.600000000001
 21
6482.813451093189
 31
0.0
  0
LINE
  5
284C4
330
747D
100
AcDbEntity
  8
部品1
 48
50.0
100
AcDbLine
 10
9121.6
 20
6732.813451093189
 30
0.0
 11
8921.600000000001
 21
6732.813451093189
 31
0.0
  0
LINE
  5
284C5
330
747D
100
AcDbEntity
  8
部品1
 48
50.0
100
AcDbLine
 10
9848.600000000001
 20
6332.813451093187
 30
0.0
 11
9848.600000000001
 21
6732.813451093189
 31
0.0
  0
LINE
  5
284C6
330
747D
100
AcDbEntity
  8
部品1
 48
50.0
100
AcDbLine
 10
9648.600000000001
 20
6332.813451093189
 30
0.0
 11
9648.600000000001
 21
6732.813451093189
 31
0.0
  0
LINE
  5
284C7
330
747D
100
AcDbEntity
  8
部品1
 48
50.0
100
AcDbLine
 10
9848.600000000001
 20
6332.813451093187
 30
0.0
 11
9648.600000000001
 21
6332.813451093187
 31
0.0
  0
LINE
  5
284C8
330
747D
100
AcDbEntity
  8
部品1
 48
50.0
100
AcDbLine
 10
9848.600000000001
 20
6732.813451093189
 30
0.0
 11
9648.600000000001
 21
6732.813451093189
 31
0.0
  0
LINE
  5
284C9
330
747D
100
AcDbEntity
  8
センター
 48
2.0
100
AcDbLine
 10
9698.6
 20
6532.813451093189
 30
0.0
 11
9798.6
 21
6532.813451093189
 31
0.0
  0
LINE
  5
284CA
330
747D
100
AcDbEntity
  8
センター
 48
2.0
100
AcDbLine
 10
9748.600000000001
 20
6582.813451093189
 30
0.0
 11
9748.600000000001
 21
6482.813451093189
 31
0.0
  0
LINE
  5
284CB
330
747D
100
AcDbEntity
  8
部品1
 48
50.0
100
AcDbLine
 10
9121.6
 20
7222.813451093187
 30
0.0
 11
9121.6
 21
7622.813451093191
 31
0.0
  0
LINE
  5
284CC
330
747D
100
AcDbEntity
  8
部品1
 48
50.0
100
AcDbLine
 10
8921.600000000001
 20
7222.813451093189
 30
0.0
 11
8921.600000000001
 21
7622.813451093191
 31
0.0
  0
LINE
  5
284CD
330
747D
100
AcDbEntity
  8
センター
 48
2.0
100
AcDbLine
 10
9021.600000000001
 20
7472.813451093189
 30
0.0
 11
9021.600000000001
 21
7372.813451093191
 31
0.0
  0
LINE
  5
284CE
330
747D
100
AcDbEntity
  8
部品1
 48
50.0
100
AcDbLine
 10
9121.6
 20
7222.813451093187
 30
0.0
 11
8921.600000000001
 21
7222.813451093187
 31
0.0
  0
LINE
  5
284CF
330
747D
100
AcDbEntity
  8
センター
 48
2.0
100
AcDbLine
 10
8971.6
 20
7422.81345109319
 30
0.0
 11
9071.600000000001
 21
7422.81345109319
 31
0.0
  0
LINE
  5
284D0
330
747D
100
AcDbEntity
  8
部品1
 48
50.0
100
AcDbLine
 10
9121.6
 20
7622.813451093191
 30
0.0
 11
8921.600000000001
 21
7622.813451093191
 31
0.0
  0
LINE
  5
284D1
330
747D
100
AcDbEntity
  8
部品1
 48
50.0
100
AcDbLine
 10
9848.600000000001
 20
7622.813451093191
 30
0.0
 11
9648.600000000001
 21
7622.813451093191
 31
0.0
  0
LINE
  5
284D2
330
747D
100
AcDbEntity
  8
部品1
 48
50.0
100
AcDbLine
 10
9848.600000000001
 20
7222.813451093187
 30
0.0
 11
9648.600000000001
 21
7222.813451093187
 31
0.0
  0
LINE
  5
284D3
330
747D
100
AcDbEntity
  8
部品1
 48
50.0
100
AcDbLine
 10
9648.600000000001
 20
7222.813451093189
 30
0.0
 11
9648.600000000001
 21
7622.813451093191
 31
0.0
  0
LINE
  5
284D4
330
747D
100
AcDbEntity
  8
センター
 48
2.0
100
AcDbLine
 10
9748.600000000001
 20
7472.813451093189
 30
0.0
 11
9748.600000000001
 21
7372.813451093191
 31
0.0
  0
LINE
  5
284D5
330
747D
100
AcDbEntity
  8
部品1
 48
50.0
100
AcDbLine
 10
9848.600000000001
 20
7222.813451093187
 30
0.0
 11
9848.600000000001
 21
7622.813451093191
 31
0.0
  0
LINE
  5
284D6
330
747D
100
AcDbEntity
  8
センター
 48
2.0
100
AcDbLine
 10
9698.6
 20
7422.81345109319
 30
0.0
 11
9798.6
 21
7422.81345109319
 31
0.0
  0
LINE
  5
284D8
102
{ACAD_REACTORS
330
2A609
102
}
330
747D
100
AcDbEntity
  8
部品1
 48
50.0
100
AcDbLine
 10
9648.600000000001
 20
8297.813451093187
 30
0.0
 11
9648.600000000001
 21
8177.813451093186
 31
0.0
  0
LINE
  5
284D9
102
{ACAD_REACTORS
330
2A609
102
}
330
747D
100
AcDbEntity
  8
部品1
 48
50.0
100
AcDbLine
 10
9848.600000000001
 20
8297.813451093187
 30
0.0
 11
9848.600000000001
 21
8177.813451093186
 31
0.0
  0
LINE
  5
284DA
102
{ACAD_REACTORS
330
2A609
102
}
330
747D
100
AcDbEntity
  8
部品1
 48
50.0
100
AcDbLine
 10
11158.6
 20
5887.813451093208
 30
0.0
 11
11158.6
 21
8067.813451093188
 31
0.0
  0
LINE
  5
284DB
330
747D
100
AcDbEntity
  8
部品1
 48
50.0
100
AcDbLine
 10
10575.6
 20
6332.813451093187
 30
0.0
 11
10575.6
 21
6732.813451093189
 31
0.0
  0
LINE
  5
284DC
330
747D
100
AcDbEntity
  8
部品1
 48
50.0
100
AcDbLine
 10
10375.6
 20
6332.813451093189
 30
0.0
 11
10375.6
 21
6732.813451093189
 31
0.0
  0
LINE
  5
284DD
330
747D
100
AcDbEntity
  8
部品1
 48
50.0
100
AcDbLine
 10
10575.6
 20
6332.813451093187
 30
0.0
 11
10375.6
 21
6332.813451093187
 31
0.0
  0
LINE
  5
284DE
330
747D
100
AcDbEntity
  8
部品1
 48
50.0
100
AcDbLine
 10
10575.6
 20
6732.813451093189
 30
0.0
 11
10375.6
 21
6732.813451093189
 31
0.0
  0
LINE
  5
284DF
330
747D
100
AcDbEntity
  8
センター
 48
2.0
100
AcDbLine
 10
10425.6
 20
6532.813451093189
 30
0.0
 11
10525.6
 21
6532.813451093189
 31
0.0
  0
LINE
  5
284E0
330
747D
100
AcDbEntity
  8
センター
 48
2.0
100
AcDbLine
 10
10475.6
 20
6582.813451093189
 30
0.0
 11
10475.6
 21
6482.813451093189
 31
0.0
  0
LINE
  5
284E1
330
747D
100
AcDbEntity
  8
センター
 48
2.0
100
AcDbLine
 10
11105.60000000001
 20
5780.813451093191
 30
0.0
 11
11205.60000000001
 21
5780.813451093191
 31
0.0
  0
LINE
  5
284E2
330
747D
100
AcDbEntity
  8
部品1
 48
50.0
100
AcDbLine
 10
11158.6
 20
5887.813451093207
 30
0.0
 11
11048.6
 21
5887.813451093207
 31
0.0
  0
LINE
  5
284E3
330
747D
100
AcDbEntity
  8
部品1
 48
50.0
100
AcDbLine
 10
11048.6
 20
5777.813451093206
 30
0.0
 11
11048.6
 21
5887.813451093207
 31
0.0
  0
LINE
  5
284E4
330
747D
100
AcDbEntity
  8
センター
 48
2.0
100
AcDbLine
 10
11155.6
 20
5830.813451093192
 30
0.0
 11
11155.6
 21
5730.813451093189
 31
0.0
  0
CIRCLE
  5
284E5
330
747D
100
AcDbEntity
  8
部品1
 48
50.0
100
AcDbCircle
 10
11155.6
 20
5780.813451093191
 30
0.0
 40
35.0
  0
LINE
  5
284E6
102
{ACAD_REACTORS
330
2A609
102
}
330
747D
100
AcDbEntity
  8
部品1
 48
50.0
100
AcDbLine
 10
11278.6
 20
7077.813451093189
 30
0.0
 11
11158.6
 21
7077.813451093189
 31
0.0
  0
LINE
  5
284E7
102
{ACAD_REACTORS
330
2A609
102
}
330
747D
100
AcDbEntity
  8
部品1
 48
50.0
100
AcDbLine
 10
11278.6
 20
6877.813451093189
 30
0.0
 11
11158.6
 21
6877.813451093189
 31
0.0
  0
DIMENSION
  5
284E9
330
747D
100
AcDbEntity
  8
寸法
 48
50.0
100
AcDbDimension
  2
*D33
 10
11048.6
 20
7840.104783592815
 30
0.0
 11
10778.54094488189
 21
7840.104783592815
 31
0.0
 70
   160
 71
     5
 42
110.0
  3
INABA_S40G
100
AcDbAlignedDimension
 13
11158.6
 23
8067.813451093188
 33
0.0
 14
11048.6
 24
8067.813451093185
 34
0.0
100
AcDbRotatedDimension
1001
ACAD
1000
DSTYLE
1002
{
1070
   341
1005
0
1002
}
  0
LINE
  5
284EA
330
747D
100
AcDbEntity
  8
部品1
 48
50.0
100
AcDbLine
 10
10575.6
 20
7622.813451093191
 30
0.0
 11
10375.6
 21
7622.813451093191
 31
0.0
  0
LINE
  5
284EB
330
747D
100
AcDbEntity
  8
部品1
 48
50.0
100
AcDbLine
 10
10575.6
 20
7222.813451093187
 30
0.0
 11
10375.6
 21
7222.813451093187
 31
0.0
  0
LINE
  5
284EC
330
747D
100
AcDbEntity
  8
センター
 48
2.0
100
AcDbLine
 10
10425.6
 20
7422.81345109319
 30
0.0
 11
10525.6
 21
7422.81345109319
 31
0.0
  0
LINE
  5
284ED
330
747D
100
AcDbEntity
  8
部品1
 48
50.0
100
AcDbLine
 10
10375.6
 20
7222.813451093189
 30
0.0
 11
10375.6
 21
7622.813451093191
 31
0.0
  0
LINE
  5
284EE
330
747D
100
AcDbEntity
  8
センター
 48
2.0
100
AcDbLine
 10
10475.6
 20
7472.813451093189
 30
0.0
 11
10475.6
 21
7372.813451093191
 31
0.0
  0
LINE
  5
284EF
330
747D
100
AcDbEntity
  8
部品1
 48
50.0
100
AcDbLine
 10
10575.6
 20
7222.813451093187
 30
0.0
 11
10575.6
 21
7622.813451093191
 31
0.0
  0
DIMENSION
  5
284F0
330
747D
100
AcDbEntity
  8
寸法
 48
50.0
100
AcDbDimension
  2
*D34
 10
11158.6
 20
7840.104783592815
 30
0.0
 11
11548.65905511811
 21
7840.104783592815
 31
0.0
 70
   160
 71
     5
 42
120.0
  3
INABA_S40G
100
AcDbAlignedDimension
 13
11278.6
 23
7857.098047631644
 33
0.0
 14
11158.6
 24
8067.813451093188
 34
0.0
100
AcDbRotatedDimension
1001
ACAD
1000
DSTYLE
1002
{
1070
   341
1005
0
1002
}
  0
LINE
  5
284F1
330
747D
100
AcDbEntity
  8
センター
 48
2.0
100
AcDbLine
 10
11155.6
 20
8224.813451093188
 30
0.0
 11
11155.6
 21
8124.813451093189
 31
0.0
  0
CIRCLE
  5
284F2
330
747D
100
AcDbEntity
  8
部品1
 48
50.0
100
AcDbCircle
 10
11155.6
 20
8174.813451093189
 30
0.0
 40
35.0
  0
LINE
  5
284F3
330
747D
100
AcDbEntity
  8
部品1
 48
50.0
100
AcDbLine
 10
11048.6
 20
8067.813451093185
 30
0.0
 11
11048.6
 21
8177.813451093186
 31
0.0
  0
LINE
  5
284F4
330
747D
100
AcDbEntity
  8
部品1
 48
50.0
100
AcDbLine
 10
11158.6
 20
8067.813451093188
 30
0.0
 11
11048.6
 21
8067.813451093185
 31
0.0
  0
LINE
  5
284F5
330
747D
100
AcDbEntity
  8
センター
 48
2.0
100
AcDbLine
 10
11105.6
 20
8174.813451093189
 30
0.0
 11
11205.6
 21
8174.813451093189
 31
0.0
  0
MTEXT
  5
29996
102
{ACAD_REACTORS
330
29997
102
}
330
747D
100
AcDbEntity
  8
部品1
 62
     7
 48
50.0
100
AcDbMText
 10
6373.440328953417
 20
6194.824214829663
 30
0.0
 40
120.0
 41
0.0
 71
     6
 72
     1
  1
CB
  7
STYLE1
 73
     1
 44
1.0
1001
ACAD
1000
MTEXTBEGIN
1070
    73
1070
     1
1070
    44
1040
1.0
1070
    74
1070
     0
1000
MTEXTEND
  0
LEADER
  5
29997
330
747D
100
AcDbEntity
  8
寸法
 48
50.0
100
AcDbLeader
  3
INABA_S40G
 73
     0
 74
     0
 75
     1
 40
120.0
 41
149.591883092037
 76
     3
 10
5946.565642998738
 20
6370.838128397496
 30
0.0
 10
6083.848445861381
 20
6094.824214829663
 30
0.0
 10
6183.84844586138
 20
6094.824214829663
 30
0.0
340
29996
1001
ACAD
1000
DSTYLE
1002
{
1070
   341
1005
0
1002
}
  0
LINE
  5
29A99
330
747D
100
AcDbEntity
  8
部品1
 48
50.0
100
AcDbLine
 10
8323.6
 20
7622.813451093191
 30
0.0
 11
8123.600000000001
 21
7622.813451093191
 31
0.0
  0
LINE
  5
29A9A
330
747D
100
AcDbEntity
  8
センター
 48
2.0
100
AcDbLine
 10
8173.6
 20
7422.81345109319
 30
0.0
 11
8273.6
 21
7422.81345109319
 31
0.0
  0
LINE
  5
29A9B
330
747D
100
AcDbEntity
  8
部品1
 48
50.0
100
AcDbLine
 10
8323.6
 20
7222.813451093187
 30
0.0
 11
8123.600000000001
 21
7222.813451093187
 31
0.0
  0
LINE
  5
29A9C
330
747D
100
AcDbEntity
  8
センター
 48
2.0
100
AcDbLine
 10
8223.600000000001
 20
7472.813451093189
 30
0.0
 11
8223.600000000001
 21
7372.813451093191
 31
0.0
  0
LINE
  5
29A9D
330
747D
100
AcDbEntity
  8
部品1
 48
50.0
100
AcDbLine
 10
8123.600000000001
 20
7222.813451093189
 30
0.0
 11
8123.600000000001
 21
7622.813451093191
 31
0.0
  0
LINE
  5
29A9E
330
747D
100
AcDbEntity
  8
部品1
 48
50.0
100
AcDbLine
 10
8323.6
 20
7222.813451093187
 30
0.0
 11
8323.6
 21
7622.813451093191
 31
0.0
  0
LINE
  5
29A9F
330
747D
100
AcDbEntity
  8
部品1
 48
50.0
100
AcDbLine
 10
8323.6
 20
6732.813451093189
 30
0.0
 11
8123.600000000001
 21
6732.813451093189
 31
0.0
  0
LINE
  5
29AA0
330
747D
100
AcDbEntity
  8
センター
 48
2.0
100
AcDbLine
 10
8223.600000000001
 20
6582.813451093189
 30
0.0
 11
8223.600000000001
 21
6482.813451093189
 31
0.0
  0
LINE
  5
29AA1
330
747D
100
AcDbEntity
  8
センター
 48
2.0
100
AcDbLine
 10
8173.6
 20
6532.813451093189
 30
0.0
 11
8273.6
 21
6532.813451093189
 31
0.0
  0
LINE
  5
29AA2
330
747D
100
AcDbEntity
  8
部品1
 48
50.0
100
AcDbLine
 10
8323.6
 20
6332.813451093187
 30
0.0
 11
8123.600000000001
 21
6332.813451093187
 31
0.0
  0
LINE
  5
29AA3
330
747D
100
AcDbEntity
  8
部品1
 48
50.0
100
AcDbLine
 10
8323.6
 20
6332.813451093187
 30
0.0
 11
8323.6
 21
6732.813451093189
 31
0.0
  0
LINE
  5
29AA4
330
747D
100
AcDbEntity
  8
部品1
 48
50.0
100
AcDbLine
 10
8123.600000000001
 20
6332.813451093189
 30
0.0
 11
8123.600000000001
 21
6732.813451093189
 31
0.0
  0
LINE
  5
29E7A
330
747D
100
AcDbEntity
  8
想像線
 48
10.0
100
AcDbLine
 10
10098.18265186352
 20
5602.81345109321
 30
0.0
 11
11323.6
 21
5602.813451093207
 31
0.0
  0
LINE
  5
29E7B
330
747D
100
AcDbEntity
  8
想像線
 48
10.0
100
AcDbLine
 10
10098.18265186352
 20
8372.813451093191
 30
0.0
 11
11323.6
 21
8372.813451093191
 31
0.0
  0
DIMENSION
  5
29E7C
330
747D
100
AcDbEntity
  8
寸法
 48
50.0
100
AcDbDimension
  2
*D35
 10
5621.6
 20
5097.968436750998
 30
0.0
 11
6699.1
 21
5197.980247774619
 31
0.0
 70
    32
  1
扉の幅 <>
 71
     5
 42
2155.000000000001
  3
INABA_S40G
100
AcDbAlignedDimension
 13
7776.600000000001
 23
5582.81345109321
 33
0.0
 14
5621.6
 24
5582.813451093195
 34
0.0
100
AcDbRotatedDimension
1001
ACAD
1000
DSTYLE
1002
{
1070
   341
1005
0
1002
}
  0
TEXT
  5
29E7D
330
747D
100
AcDbEntity
  8
寸法
 62
     7
100
AcDbText
 10
6020.312405813943
 20
4498.984938578301
 30
0.0
 40
120.0
  1
扉位置 (2155x75)
  7
STYLE1
100
AcDbText
  0
SOLID
  5
29E7E
330
747D
100
AcDbEntity
  8
寸法
 48
50.0
100
AcDbTrace
 10
-6227.797705453574
 20
5457.222422188297
 30
0.0
 11
-6244.706911123561
 21
5582.813451093183
 31
0.0
 12
-6187.979490980097
 22
5469.495193157206
 32
0.0
 13
-6187.979490980097
 23
5469.495193157206
 33
0.0
210
0.0
220
0.0
230
-1.0
1001
ACAD
1000
DSTYLE
1002
{
1070
   341
1005
0
1070
    40
1040
1.0
1070
   343
1005
0
1070
   344
1005
0
1002
}
  0
LWPOLYLINE
  5
29E7F
330
747D
100
AcDbEntity
  8
寸法
 48
50.0
100
AcDbPolyline
 90
        3
 70
     0
 43
0.0
 10
-6244.706911123561
 20
5582.813451093183
 10
-5903.696446621188
 20
4476.71699102998
 10
-8717.76085955283
 20
4476.71699102998
210
0.0
220
0.0
230
-1.0
1001
ACAD
1000
DSTYLE
1002
{
1070
   341
1005
0
1070
    40
1040
1.0
1070
   343
1005
0
1070
   344
1005
0
1002
}
  0
TEXT
  5
29E80
330
747D
100
AcDbEntity
  8
寸法
 62
     7
100
AcDbText
 10
6020.312405813943
 20
4327.381175694975
 30
0.0
 40
120.0
  1
扉の位置に合わせた基礎形状として下さい。
  7
STYLE1
100
AcDbText
  0
LINE
  5
2A39C
330
747D
100
AcDbEntity
  8
細線
100
AcDbLine
 10
8592.788035868245
 20
1745.965759184913
 30
0.0
 11
8349.496368772262
 21
1989.257426280891
 31
0.0
  0
LINE
  5
2A39D
330
747D
100
AcDbEntity
  8
細線
100
AcDbLine
 10
8529.148425561452
 20
1745.965759184913
 30
0.0
 11
8349.496368772262
 21
1925.617815974104
 31
0.0
  0
LINE
  5
2A39E
330
747D
100
AcDbEntity
  8
部品1
100
AcDbLine
 10
8349.496368772262
 20
2045.965759184914
 30
0.0
 11
8949.496368772264
 21
2045.965759184914
 31
0.0
  0
LINE
  5
2A39F
330
747D
100
AcDbEntity
  8
細線
100
AcDbLine
 10
8340.791861896425
 20
1631.342114618225
 30
0.0
 11
8455.415506463117
 21
1745.965759184912
 31
0.0
  0
LWPOLYLINE
  5
2A3A0
330
747D
100
AcDbEntity
  8
部品1
 48
50.0
100
AcDbPolyline
 90
        2
 70
     0
 43
15.0
 10
7868.732291146781
 20
1745.965759184913
 10
9370.097670061314
 20
1745.965759184913
  0
LINE
  5
2A3A1
330
747D
100
AcDbEntity
  8
部品1
100
AcDbLine
 10
8199.496368772264
 20
1631.342114618225
 30
0.0
 11
9099.496368772262
 21
1631.342114618228
 31
0.0
  0
LINE
  5
2A3A2
330
747D
100
AcDbEntity
  8
部品1
100
AcDbLine
 10
8199.496368772264
 20
1471.342114618221
 30
0.0
 11
9099.496368772262
 21
1471.342114618225
 31
0.0
  0
LINE
  5
2A3A3
330
747D
100
AcDbEntity
  8
部品1
100
AcDbLine
 10
2793.532600493371
 20
438.110784551281
 30
0.0
 11
9690.007296591405
 21
438.110784551281
 31
0.0
  0
LINE
  5
2A3A4
330
747D
100
AcDbEntity
  8
部品1
100
AcDbLine
 10
9690.007296591405
 20
3397.180283905969
 30
0.0
 11
2793.532600493371
 21
3397.180283905969
 31
0.0
  0
LINE
  5
2A3A5
330
747D
100
AcDbEntity
  8
部品1
100
AcDbLine
 10
9690.007296591405
 20
3697.180283905971
 30
0.0
 11
2793.532600493371
 21
3697.180283905968
 31
0.0
  0
LEADER
  5
2A3A6
330
747D
100
AcDbEntity
  8
寸法
 48
50.0
100
AcDbLeader
  3
INABA_S40G
 73
     0
 75
     1
 40
141.4772727272727
 41
760.7954545454546
 76
     3
 10
6275.053371189208
 20
1982.860350882762
 30
0.0
 10
6060.298585325025
 20
3038.33420382836
 30
0.0
 10
5960.298585325024
 20
3038.33420382836
 30
0.0
340
2A3A7
1001
ACAD
1000
DSTYLE
1002
{
1070
   341
1005
0
1002
}
  0
MTEXT
  5
2A3A7
102
{ACAD_REACTORS
330
2A3A6
102
}
330
747D
100
AcDbEntity
  8
寸法
 62
     7
 48
50.0
100
AcDbMText
 10
5920.298585325024
 20
3149.072840191996
 30
0.0
 40
100.0
 41
1.0
 71
     6
 72
     1
  1
\A1;φ70スリーブ
  7
STYLE2
 73
     1
 44
1.0
1001
ACAD
1000
MTEXTBEGIN
1070
    73
1070
     1
1070
    44
1040
1.0
1070
    74
1070
     0
1000
MTEXTEND
  0
LINE
  5
2A3A8
330
747D
100
AcDbEntity
  8
部品1
100
AcDbLine
 10
2793.532600493376
 20
3697.180283905968
 30
0.0
 11
2793.532600493376
 21
438.110784551281
 31
0.0
  0
DIMENSION
  5
2A3A9
330
747D
100
AcDbEntity
  8
寸法
 48
50.0
100
AcDbDimension
  2
*D36
 10
3912.333292045154
 20
2570.55051908039
 30
0.0
 11
4032.333292045153
 21
2570.55051908039
 31
0.0
 70
   160
  1
120\P(195)
 71
     5
 42
239.9999999999991
  3
INABA_S40G
100
AcDbAlignedDimension
 13
4152.333292045153
 23
2045.965759184914
 33
0.0
 14
3912.333292045154
 24
2045.965759184914
 34
0.0
100
AcDbRotatedDimension
1001
ACAD
1000
DSTYLE
1002
{
1070
   341
1005
0
1002
}
  0
LEADER
  5
2A3AA
330
747D
100
AcDbEntity
  8
寸法
 48
50.0
100
AcDbLeader
  3
INABA_S40G
 73
     0
 74
     0
 75
     1
 40
127.8409090909091
 41
1133.522727272727
 76
     3
 10
6364.132433516648
 20
2382.369869740263
 30
0.0
 10
6463.971921477699
 20
2817.664520998535
 30
0.0
 10
6563.971921477699
 20
2817.664520998535
 30
0.0
340
2A3AB
1001
ACAD
1000
DSTYLE
1002
{
1070
   341
1005
0
1002
}
  0
MTEXT
  5
2A3AB
102
{ACAD_REACTORS
330
2A3AA
102
}
330
747D
100
AcDbEntity
  8
部品1
 62
     7
 48
50.0
100
AcDbMText
 10
6603.971921477699
 20
2921.58497554399
 30
0.0
 40
100.0
 41
1.0
 71
     4
 72
     1
  1
\A1;ワッシャー(市販品)
  7
STYLE2
 73
     1
 44
1.0
1001
ACAD
1000
MTEXTBEGIN
1070
    73
1070
     1
1070
    44
1040
1.0
1070
    74
1070
     0
1000
MTEXTEND
  0
LEADER
  5
2A3AC
330
747D
100
AcDbEntity
  8
寸法
 48
50.0
100
AcDbLeader
  3
INABA_S40G
 73
     0
 74
     0
 75
     1
 40
127.8409090909091
 41
850.0
 76
     3
 10
6334.132433516646
 20
2544.559860571342
 30
0.0
 10
6424.574897408344
 20
3048.87587445452
 30
0.0
 10
6524.574897408344
 20
3048.87587445452
 30
0.0
340
2A3AD
1001
ACAD
1000
DSTYLE
1002
{
1070
   341
1005
0
1002
}
  0
MTEXT
  5
2A3AD
102
{ACAD_REACTORS
330
2A3AC
102
}
330
747D
100
AcDbEntity
  8
部品1
 62
     7
 48
50.0
100
AcDbMText
 10
6564.574897408345
 20
3152.796328999974
 30
0.0
 40
100.0
 41
1.0
 71
     4
 72
     1
  1
\A1;ナット(市販品)
  7
STYLE2
 73
     1
 44
1.0
1001
ACAD
1000
MTEXTBEGIN
1070
    73
1070
     1
1070
    44
1040
1.0
1070
    74
1070
     0
1000
MTEXTEND
  0
MTEXT
  5
2A3AE
102
{ACAD_REACTORS
330
2A3AF
102
}
330
747D
100
AcDbEntity
  8
寸法
 62
     7
 48
50.0
100
AcDbMText
 10
5953.602343085474
 20
2698.217500307602
 30
0.0
 40
100.0
 41
1.0
 71
     6
 72
     1
  1
\A1;アンカープレート L
  7
STYLE2
 73
     1
 44
1.0
1001
ACAD
1000
MTEXTBEGIN
1070
    73
1070
     1
1070
    44
1040
1.0
1070
    74
1070
     0
1000
MTEXTEND
  0
LEADER
  5
2A3AF
330
747D
100
AcDbEntity
  8
寸法
 48
50.0
100
AcDbLeader
  3
INABA_S40G
 73
     0
 75
     1
 40
132.9545454545455
 41
1116.477272727273
 76
     3
 10
6201.632433516646
 20
2132.915759184914
 30
0.0
 10
6093.602343085474
 20
2591.740227580329
 30
0.0
 10
5993.602343085473
 20
2591.740227580329
 30
0.0
340
2A3AE
1001
ACAD
1000
DSTYLE
1002
{
1070
   341
1005
0
1002
}
  0
TEXT
  5
2A3B0
330
747D
100
AcDbEntity
  8
部品1
 48
50.0
100
AcDbText
 10
3394.658414753959
 20
1760.014499538982
 30
0.0
 40
100.0
  1
▽G.L
  7
STYLE2
100
AcDbText
  0
LWPOLYLINE
  5
2A3B1
330
747D
100
AcDbEntity
  8
部品1
 48
50.0
100
AcDbPolyline
 90
        2
 70
     0
 43
10.0
 10
3394.658414753959
 20
1745.965759184915
 10
3912.333292045154
 20
1745.965759184915
  0
DIMENSION
  5
2A3B2
330
747D
100
AcDbEntity
  8
寸法
 48
50.0
100
AcDbDimension
  2
*D37
 10
3574.30789987958
 20
1065.965759184912
 30
0.0
 11
3574.30789987958
 21
1215.965759184912
 31
0.0
 70
   160
  1
150
 71
     5
 42
300.0
  3
INABA_S40G
100
AcDbAlignedDimension
 13
3752.333292045154
 23
1365.965759184912
 33
0.0
 14
3652.33329204516
 24
1065.965759184912
 34
0.0
 50
90.0
100
AcDbRotatedDimension
1001
ACAD
1000
DSTYLE
1002
{
1070
   341
1005
0
1002
}
  0
DIMENSION
  5
2A3B3
330
747D
100
AcDbEntity
  8
寸法
 48
50.0
100
AcDbDimension
  2
*D38
 10
3151.68835400909
 20
1065.965759184912
 30
0.0
 11
3151.68835400909
 21
1555.965759184913
 31
0.0
 70
   160
  1
540
 71
     5
 42
980.0000000000018
  3
INABA_S40G
100
AcDbAlignedDimension
 13
3912.333292045154
 23
2045.965759184914
 33
0.0
 14
3652.33329204516
 24
1065.965759184912
 34
0.0
 50
90.0
100
AcDbRotatedDimension
1001
ACAD
1000
DSTYLE
1002
{
1070
   341
1005
0
1002
}
  0
MTEXT
  5
2A3B4
102
{ACAD_REACTORS
330
2A3B5
102
}
330
747D
100
AcDbEntity
  8
寸法
 62
     7
 48
50.0
100
AcDbMText
 10
3828.415292126873
 20
2311.611034187467
 30
0.0
 40
100.0
 41
1.0
 71
     6
 72
     1
  1
\A1;金コテ押エ
  7
STYLE2
 73
     1
 44
1.0
1001
ACAD
1000
MTEXTBEGIN
1070
    73
1070
     1
1070
    44
1040
1.0
1070
    74
1070
     0
1000
MTEXTEND
  0
LEADER
  5
2A3B5
330
747D
100
AcDbEntity
  8
寸法
 48
50.0
100
AcDbLeader
  3
INABA_S40G
 71
     0
 73
     0
 75
     1
 40
130.1136363636363
 41
651.1363636363636
 76
     3
 10
4012.333292045155
 20
2045.965759184914
 30
0.0
 10
3953.415292126873
 20
2221.554216005648
 30
0.0
 10
3853.415292126874
 20
2221.554216005648
 30
0.0
1001
ACAD
1000
DSTYLE
1002
{
1070
   341
1005
0
1002
}
  0
LEADER
  5
2A3B6
330
747D
100
AcDbEntity
  8
寸法
 48
50.0
100
AcDbLeader
  3
INABA_S40G
 71
     0
 73
     0
 75
     1
 40
100.0
 41
540.3409090909091
 76
     3
 10
4042.333292045155
 20
1743.624777556316
 30
0.0
 10
3913.605496384283
 20
1466.786866880311
 30
0.0
 10
3813.605496384282
 20
1466.786866880311
 30
0.0
213
-12.16522788236671
223
-5.804645826423211
233
0.0
1001
ACAD
1000
DSTYLE
1002
{
1070
   341
1005
0
1002
}
  0
MTEXT
  5
2A3B7
102
{ACAD_REACTORS
330
2A3B6
102
}
330
747D
100
AcDbEntity
  8
寸法
 62
     7
 48
50.0
100
AcDbMText
 10
3800.770724266648
 20
1547.591512706733
 30
0.0
 40
100.0
 41
1.0
 71
     6
 72
     1
  1
\A1;D10@300
  7
STYLE2
 73
     1
 44
1.0
1001
ACAD
1000
MTEXTBEGIN
1070
    73
1070
     1
1070
    44
1040
1.0
1070
    74
1070
     0
1000
MTEXTEND
  0
MTEXT
  5
2A3B8
102
{ACAD_REACTORS
330
2A3B9
102
}
330
747D
100
AcDbEntity
  8
寸法
 62
     7
 48
50.0
100
AcDbMText
 10
3573.817918747955
 20
736.1672014875635
 30
0.0
 40
100.0
 41
1.0
 71
     6
 72
     1
  1
D13
  7
STYLE2
 73
     1
 44
1.0
1001
ACAD
1000
MTEXTBEGIN
1070
    73
1070
     1
1070
    44
1040
1.0
1070
    74
1070
     0
1000
MTEXTEND
  0
LEADER
  5
2A3B9
330
747D
100
AcDbEntity
  8
寸法
 48
50.0
100
AcDbLeader
  3
INABA_S40G
 71
     0
 73
     0
 75
     1
 40
100.0
 41
222.7272727272727
 76
     3
 10
4032.333292045154
 20
1215.965759184912
 30
0.0
 10
3698.817918747955
 20
661.1672014875635
 30
0.0
 10
3598.817918747954
 20
661.1672014875635
 30
0.0
1001
ACAD
1000
DSTYLE
1002
{
1070
   341
1005
0
1002
}
  0
LEADER
  5
2A3BA
330
747D
100
AcDbEntity
  8
寸法
 48
50.0
100
AcDbLeader
  3
INABA_S40G
 71
     0
 73
     0
 75
     1
 40
100.0
 41
225.0
 76
     3
 10
3872.211982485334
 20
1215.965759184912
 30
0.0
 10
3663.664509301162
 20
886.5623921618675
 30
0.0
 10
3563.664509301162
 20
886.5623921618675
 30
0.0
1001
ACAD
1000
DSTYLE
1002
{
1070
   341
1005
0
1002
}
  0
MTEXT
  5
2A3BB
102
{ACAD_REACTORS
330
2A3BA
102
}
330
747D
100
AcDbEntity
  8
寸法
 62
     7
 48
50.0
100
AcDbMText
 10
3538.664509301162
 20
961.5623921618677
 30
0.0
 40
100.0
 41
1.0
 71
     6
 72
     1
  1
D10
  7
STYLE2
 73
     1
 44
1.0
1001
ACAD
1000
MTEXTBEGIN
1070
    73
1070
     1
1070
    44
1040
1.0
1070
    74
1070
     0
1000
MTEXTEND
  0
LINE
  5
2A3BC
330
747D
100
AcDbEntity
  8
部品1
 48
50.0
100
AcDbLine
 10
4152.333292045155
 20
2045.965759184914
 30
0.0
 11
4152.333292045155
 21
1365.965759184912
 31
0.0
  0
LINE
  5
2A3BD
330
747D
100
AcDbEntity
  8
細線
 48
50.0
100
AcDbLine
 10
3912.333292045155
 20
1424.524191387626
 30
0.0
 11
4042.333292045162
 21
1554.524191387626
 31
0.0
  0
LINE
  5
2A3BE
330
747D
100
AcDbEntity
  8
細線
 48
50.0
100
AcDbLine
 10
3912.333292045155
 20
1491.876112295645
 30
0.0
 11
4042.333292045155
 21
1621.876112295645
 31
0.0
  0
LINE
  5
2A3BF
330
747D
100
AcDbEntity
  8
細線
 48
50.0
100
AcDbLine
 10
3912.333292045155
 20
1458.200151841635
 30
0.0
 11
4042.333292045162
 21
1588.20015184164
 31
0.0
  0
LINE
  5
2A3C0
330
747D
100
AcDbEntity
  8
部品1
 48
50.0
100
AcDbLine
 10
3912.333292045155
 20
1365.965759184912
 30
0.0
 11
3912.333292045155
 21
2045.965759184914
 31
0.0
  0
LINE
  5
2A3C1
330
747D
100
AcDbEntity
  8
部品1
 48
50.0
100
AcDbLine
 10
4042.333292045162
 20
1215.965759184912
 30
0.0
 11
4042.333292045148
 21
1871.283795927719
 31
0.0
  0
LINE
  5
2A3C2
330
747D
100
AcDbEntity
  8
部品1
 48
50.0
100
AcDbLine
 10
4062.333292045162
 20
1215.965759184912
 30
0.0
 11
4062.333292045155
 21
1871.283795927719
 31
0.0
  0
LINE
  5
2A3C3
330
747D
100
AcDbEntity
  8
部品1
 48
50.0
100
AcDbLine
 10
4152.333292045155
 20
1365.965759184912
 30
0.0
 11
4312.333292045155
 21
1365.965759184912
 31
0.0
  0
LINE
  5
2A3C4
330
747D
100
AcDbEntity
  8
細線
 48
50.0
100
AcDbLine
 10
4198.914266652585
 20
1205.965759184912
 30
0.0
 11
4312.333292045155
 21
1319.384784577487
 31
0.0
  0
LINE
  5
2A3C5
330
747D
100
AcDbEntity
  8
細線
 48
50.0
100
AcDbLine
 10
4232.59022710659
 20
1205.965759184912
 30
0.0
 11
4312.333292045155
 21
1285.708824123477
 31
0.0
  0
LINE
  5
2A3C6
330
747D
100
AcDbEntity
  8
細線
 48
50.0
100
AcDbLine
 10
4165.238306198563
 20
1205.965759184912
 30
0.0
 11
4312.333292045155
 21
1353.060745031495
 31
0.0
  0
LEADER
  5
2A3C7
330
747D
100
AcDbEntity
  8
寸法
 48
50.0
100
AcDbLeader
  3
INABA_S40G
 71
     0
 73
     0
 74
     0
 75
     1
 40
100.0
 41
225.0
 76
     3
 10
4192.211982485333
 20
1215.965759184912
 30
0.0
 10
4316.49286680351
 20
1096.719423006197
 30
0.0
 10
4416.492866803511
 20
1096.719423006197
 30
0.0
1001
ACAD
1000
DSTYLE
1002
{
1070
   341
1005
0
1002
}
  0
DIMENSION
  5
2A3C8
330
747D
100
AcDbEntity
  8
寸法
 48
50.0
100
AcDbDimension
  2
*D39
 10
4312.333292045155
 20
607.0136527289792
 30
0.0
 11
4032.333292045154
 21
607.0136527289792
 31
0.0
 70
   160
  1
300
 71
     5
 42
560.0000000000009
  3
INABA_S40G
100
AcDbAlignedDimension
 13
3752.333292045154
 23
905.9657591849122
 33
0.0
 14
4312.333292045155
 24
905.9657591849122
 34
0.0
100
AcDbRotatedDimension
1001
ACAD
1000
DSTYLE
1002
{
1070
   341
1005
0
1002
}
  0
LEADER
  5
2A3C9
330
747D
100
AcDbEntity
  8
寸法
 48
50.0
100
AcDbLeader
  3
INABA_S40G
 71
     0
 73
     0
 74
     0
 75
     1
 40
100.0
 41
540.3409090909091
 76
     3
 10
4124.764753311621
 20
1195.040096168005
 30
0.0
 10
4329.506361871718
 20
768.0015736743842
 30
0.0
 10
4429.506361871719
 20
768.0015736743842
 30
0.0
213
0.0
223
-1.277828345336728
233
0.0
1001
ACAD
1000
DSTYLE
1002
{
1070
   341
1005
0
1002
}
  0
LINE
  5
2A3CA
330
747D
100
AcDbEntity
  8
部品1
 48
50.0
100
AcDbLine
 10
4412.333292045159
 20
1065.965759184912
 30
0.0
 11
3652.33329204516
 21
1065.965759184912
 31
0.0
  0
LINE
  5
2A3CB
330
747D
100
AcDbEntity
  8
部品1
 48
50.0
100
AcDbLine
 10
4412.333292045159
 20
905.9657591849122
 30
0.0
 11
3652.33329204516
 21
905.9657591849122
 31
0.0
  0
LINE
  5
2A3CC
330
747D
100
AcDbEntity
  8
細線
 48
50.0
100
AcDbLine
 10
4206.03195378329
 20
905.9657591849113
 30
0.0
 11
4248.90382457227
 21
1065.965759184911
 31
0.0
  0
LINE
  5
2A3CD
330
747D
100
AcDbEntity
  8
細線
 48
50.0
100
AcDbLine
 10
4008.811841415172
 20
905.9657591849122
 30
0.0
 11
4051.683712204151
 21
1065.965759184912
 31
0.0
  0
LINE
  5
2A3CE
330
747D
100
AcDbEntity
  8
部品1
 48
50.0
100
AcDbLine
 10
3652.33329204516
 20
905.9657591849122
 30
0.0
 11
3652.33329204516
 21
1065.965759184912
 31
0.0
  0
LINE
  5
2A3CF
330
747D
100
AcDbEntity
  8
細線
 48
50.0
100
AcDbLine
 10
3712.981672862979
 20
905.9657591849113
 30
0.0
 11
3755.853543651957
 21
1065.965759184911
 31
0.0
  0
LINE
  5
2A3D0
330
747D
100
AcDbEntity
  8
細線
 48
50.0
100
AcDbLine
 10
3910.201785231109
 20
905.9657591849113
 30
0.0
 11
3953.073656020086
 21
1065.965759184911
 31
0.0
  0
LINE
  5
2A3D1
330
747D
100
AcDbEntity
  8
細線
 48
50.0
100
AcDbLine
 10
3811.591729047051
 20
905.9657591849122
 30
0.0
 11
3854.463599836029
 21
1065.965759184912
 31
0.0
  0
LINE
  5
2A3D2
330
747D
100
AcDbEntity
  8
細線
 48
50.0
100
AcDbLine
 10
4107.42189759923
 20
905.9657591849122
 30
0.0
 11
4150.293768388213
 21
1065.965759184911
 31
0.0
  0
LINE
  5
2A3D3
330
747D
100
AcDbEntity
  8
細線
 48
50.0
100
AcDbLine
 10
3819.630204819984
 20
935.9657591849122
 30
0.0
 11
3827.668680592918
 21
905.9657591849122
 31
0.0
  0
LINE
  5
2A3D4
330
747D
100
AcDbEntity
  8
細線
 48
50.0
100
AcDbLine
 10
3721.020148635921
 20
935.9657591849122
 30
0.0
 11
3729.058624408853
 21
905.9657591849122
 31
0.0
  0
LINE
  5
2A3D5
330
747D
100
AcDbEntity
  8
細線
 48
50.0
100
AcDbLine
 10
4016.850317188114
 20
935.9657591849122
 30
0.0
 11
4024.888792961046
 21
905.9657591849122
 31
0.0
  0
LINE
  5
2A3D6
330
747D
100
AcDbEntity
  8
細線
 48
50.0
100
AcDbLine
 10
3918.240261004049
 20
935.9657591849122
 30
0.0
 11
3926.278736776982
 21
905.9657591849122
 31
0.0
  0
LINE
  5
2A3D7
330
747D
100
AcDbEntity
  8
細線
 48
50.0
100
AcDbLine
 10
4214.070429556229
 20
935.9657591849122
 30
0.0
 11
4222.108905329164
 21
905.9657591849122
 31
0.0
  0
LINE
  5
2A3D8
330
747D
100
AcDbEntity
  8
細線
 48
50.0
100
AcDbLine
 10
4115.460373372171
 20
935.9657591849122
 30
0.0
 11
4123.498849145105
 21
905.9657591849122
 31
0.0
  0
LINE
  5
2A3D9
330
747D
100
AcDbEntity
  8
部品1
 48
50.0
100
AcDbLine
 10
3752.333292045155
 20
1365.965759184912
 30
0.0
 11
3912.333292045155
 21
1365.965759184912
 31
0.0
  0
LINE
  5
2A3DA
330
747D
100
AcDbEntity
  8
細線
 48
50.0
100
AcDbLine
 10
3755.830622566497
 20
1065.965759184912
 30
0.0
 11
3875.830622566498
 21
1185.965759184912
 31
0.0
  0
LINE
  5
2A3DB
330
747D
100
AcDbEntity
  8
細線
 48
50.0
100
AcDbLine
 10
3789.506583020511
 20
1065.965759184912
 30
0.0
 11
3909.50658302051
 21
1185.965759184912
 31
0.0
  0
CIRCLE
  5
2A3DC
330
747D
100
AcDbEntity
  8
部品1
 48
50.0
100
AcDbCircle
 10
3872.333292045155
 20
1215.965759184912
 30
0.0
 40
10.0
  0
LINE
  5
2A3DD
330
747D
100
AcDbEntity
  8
細線
 48
50.0
100
AcDbLine
 10
3823.182543474516
 20
1065.965759184912
 30
0.0
 11
3943.182543474517
 21
1185.965759184912
 31
0.0
  0
LINE
  5
2A3DE
330
747D
100
AcDbEntity
  8
部品1
 48
50.0
100
AcDbLine
 10
3822.333292045155
 20
1205.965759184912
 30
0.0
 11
4242.333292045155
 21
1205.965759184912
 31
0.0
  0
LINE
  5
2A3DF
330
747D
100
AcDbEntity
  8
部品1
 48
50.0
100
AcDbLine
 10
3822.333292045155
 20
1185.965759184912
 30
0.0
 11
4242.333292045155
 21
1185.965759184912
 31
0.0
  0
LINE
  5
2A3E0
330
747D
100
AcDbEntity
  8
部品1
 48
50.0
100
AcDbLine
 10
3752.333292045155
 20
1065.965759184912
 30
0.0
 11
3752.333292045155
 21
1365.965759184912
 31
0.0
  0
LINE
  5
2A3E1
330
747D
100
AcDbEntity
  8
細線
 48
50.0
100
AcDbLine
 10
3652.333292045155
 20
1047.640660392137
 30
0.0
 11
3657.2434874679
 21
1065.965759184912
 31
0.0
  0
LINE
  5
2A3E2
330
747D
100
AcDbEntity
  8
細線
 48
50.0
100
AcDbLine
 10
3747.815067879031
 20
1035.965759184914
 30
0.0
 11
3739.776592106097
 21
1065.965759184912
 31
0.0
  0
LINE
  5
2A3E3
330
747D
100
AcDbEntity
  8
細線
 48
50.0
100
AcDbLine
 10
3846.425124063096
 20
1035.965759184914
 30
0.0
 11
3838.386648290163
 21
1065.965759184912
 31
0.0
  0
LINE
  5
2A3E4
330
747D
100
AcDbEntity
  8
部品1
 48
50.0
100
AcDbLine
 10
3822.333292045155
 20
1205.965759184912
 30
0.0
 11
3822.333292045155
 21
1185.965759184912
 31
0.0
  0
LINE
  5
2A3E5
330
747D
100
AcDbEntity
  8
細線
 48
50.0
100
AcDbLine
 10
3752.333292045147
 20
1264.524191387626
 30
0.0
 11
3853.774859842442
 21
1365.965759184912
 31
0.0
  0
LINE
  5
2A3E6
330
747D
100
AcDbEntity
  8
細線
 48
50.0
100
AcDbLine
 10
3752.333292045147
 20
1331.876112295645
 30
0.0
 11
3786.422938934423
 21
1365.965759184912
 31
0.0
  0
LINE
  5
2A3E7
330
747D
100
AcDbEntity
  8
細線
 48
50.0
100
AcDbLine
 10
3752.333292045147
 20
1298.200151841632
 30
0.0
 11
3820.098899388437
 21
1365.965759184912
 31
0.0
  0
LINE
  5
2A3E8
330
747D
100
AcDbEntity
  8
部品1
 48
50.0
100
AcDbLine
 10
4022.333292045153
 20
1288.624777556316
 30
0.0
 11
4022.333292045153
 21
1215.965759184912
 31
0.0
  0
LINE
  5
2A3E9
330
747D
100
AcDbEntity
  8
細線
 48
50.0
100
AcDbLine
 10
3929.50658302051
 20
1205.965759184912
 30
0.0
 11
4002.333292045155
 21
1278.792468209561
 31
0.0
  0
LINE
  5
2A3EA
330
747D
100
AcDbEntity
  8
部品1
 48
50.0
100
AcDbLine
 10
4002.333292045155
 20
1288.624777556316
 30
0.0
 11
4002.333292045155
 21
1215.965759184912
 31
0.0
  0
LINE
  5
2A3EB
330
747D
100
AcDbEntity
  8
細線
 48
50.0
100
AcDbLine
 10
3963.182543474516
 20
1205.965759184912
 30
0.0
 11
4002.333292045155
 21
1245.116507755551
 31
0.0
  0
LINE
  5
2A3EC
330
747D
100
AcDbEntity
  8
細線
 48
50.0
100
AcDbLine
 10
3895.830622566498
 20
1205.965759184912
 30
0.0
 11
4042.333292045155
 21
1352.46842866357
 31
0.0
  0
LINE
  5
2A3ED
330
747D
100
AcDbEntity
  8
細線
 48
50.0
100
AcDbLine
 10
4025.238306198572
 20
1065.965759184912
 30
0.0
 11
4145.238306198572
 21
1185.965759184912
 31
0.0
  0
LINE
  5
2A3EE
330
747D
100
AcDbEntity
  8
細線
 48
50.0
100
AcDbLine
 10
4058.914266652585
 20
1065.965759184912
 30
0.0
 11
4178.914266652585
 21
1185.965759184912
 31
0.0
  0
CIRCLE
  5
2A3EF
330
747D
100
AcDbEntity
  8
部品1
 48
50.0
100
AcDbCircle
 10
4032.333292045154
 20
1215.965759184912
 30
0.0
 40
10.0
  0
LINE
  5
2A3F0
330
747D
100
AcDbEntity
  8
細線
 48
50.0
100
AcDbLine
 10
3945.035180247162
 20
1035.965759184914
 30
0.0
 11
3936.996704474228
 21
1065.965759184912
 31
0.0
  0
ARC
  5
2A3F1
330
747D
100
AcDbEntity
  8
部品1
 48
50.0
100
AcDbCircle
 10
4032.333292045154
 20
1215.965759184912
 30
0.0
 40
30.0
100
AcDbArc
 50
180.0
 51
199.471220634529
  0
LINE
  5
2A3F2
330
747D
100
AcDbEntity
  8
細線
 48
50.0
100
AcDbLine
 10
4043.645236431225
 20
1035.965759184914
 30
0.0
 11
4035.606760658292
 21
1065.965759184912
 31
0.0
  0
ARC
  5
2A3F3
330
747D
100
AcDbEntity
  8
部品1
 48
50.0
100
AcDbCircle
 10
4032.333292045154
 20
1215.965759184912
 30
0.0
 40
30.0
100
AcDbArc
 50
340.5287793654709
 51
0.0
  0
LINE
  5
2A3F4
330
747D
100
AcDbEntity
  8
細線
 48
50.0
100
AcDbLine
 10
4142.255292615283
 20
1035.965759184914
 30
0.0
 11
4134.216816842349
 21
1065.965759184912
 31
0.0
  0
CIRCLE
  5
2A3F5
330
747D
100
AcDbEntity
  8
部品1
 48
50.0
100
AcDbCircle
 10
4192.333292045154
 20
1215.965759184912
 30
0.0
 40
10.0
  0
LINE
  5
2A3F6
330
747D
100
AcDbEntity
  8
細線
 48
50.0
100
AcDbLine
 10
4240.865348799339
 20
1035.965759184914
 30
0.0
 11
4232.826873026406
 21
1065.965759184912
 31
0.0
  0
LINE
  5
2A3F7
330
747D
100
AcDbEntity
  8
部品1
 48
50.0
100
AcDbLine
 10
4242.333292045155
 20
1205.965759184912
 30
0.0
 11
4242.333292045155
 21
1185.965759184912
 31
0.0
  0
LINE
  5
2A3F8
330
747D
100
AcDbEntity
  8
細線
 48
50.0
100
AcDbLine
 10
4092.590227106589
 20
1065.965759184912
 30
0.0
 11
4212.591336913011
 21
1185.966868991337
 31
0.0
  0
LINE
  5
2A3F9
330
747D
100
AcDbEntity
  8
細線
 48
50.0
100
AcDbLine
 10
4062.333292045162
 20
1305.116507755551
 30
0.0
 11
4152.333292045146
 21
1395.116507755551
 31
0.0
  0
LINE
  5
2A3FA
330
747D
100
AcDbEntity
  8
細線
 48
50.0
100
AcDbLine
 10
4062.333292045162
 20
1372.468428663575
 30
0.0
 11
4152.333292045146
 21
1462.46842866357
 31
0.0
  0
LINE
  5
2A3FB
330
747D
100
AcDbEntity
  8
細線
 48
50.0
100
AcDbLine
 10
4062.333292045162
 20
1338.792468209565
 30
0.0
 11
4152.333292045146
 21
1428.792468209558
 31
0.0
  0
LINE
  5
2A3FC
330
747D
100
AcDbEntity
  8
細線
 48
50.0
100
AcDbLine
 10
4022.333292045153
 20
1265.116507755551
 30
0.0
 11
4042.333292045162
 21
1285.116507755551
 31
0.0
  0
LINE
  5
2A3FD
330
747D
100
AcDbEntity
  8
細線
 48
50.0
100
AcDbLine
 10
4012.16560139191
 20
1288.624777556316
 30
0.0
 11
4042.333292045162
 21
1318.792468209565
 31
0.0
  0
LINE
  5
2A3FE
330
747D
100
AcDbEntity
  8
部品1
 48
50.0
100
AcDbLine
 10
4022.333292045153
 20
1288.624777556316
 30
0.0
 11
4002.333292045155
 21
1288.624777556316
 31
0.0
  0
LINE
  5
2A3FF
330
747D
100
AcDbEntity
  8
細線
 48
50.0
100
AcDbLine
 10
4304.642009967346
 20
905.9657591849122
 30
0.0
 11
4347.513880756328
 21
1065.965759184911
 31
0.0
  0
LINE
  5
2A400
330
747D
100
AcDbEntity
  8
部品1
 48
50.0
100
AcDbLine
 10
4412.333292045159
 20
1065.965759184912
 30
0.0
 11
4412.333292045159
 21
905.9657591849122
 31
0.0
  0
MTEXT
  5
2A401
102
{ACAD_REACTORS
330
2A3C9
102
}
330
747D
100
AcDbEntity
  8
寸法
 62
     7
 48
50.0
100
AcDbMText
 10
4454.506361871718
 20
844.2794020197212
 30
0.0
 40
100.0
 41
1.0
 71
     4
 72
     1
  1
\A1;D10@300
  7
STYLE2
 73
     1
 44
1.0
1001
ACAD
1000
MTEXTBEGIN
1070
    73
1070
     1
1070
    44
1040
1.0
1070
    74
1070
     0
1000
MTEXTEND
  0
LINE
  5
2A402
330
747D
100
AcDbEntity
  8
細線
 48
50.0
100
AcDbLine
 10
4403.252066151408
 20
905.9657591849113
 30
0.0
 11
4412.333292045155
 21
939.8573556153984
 31
0.0
  0
LINE
  5
2A403
330
747D
100
AcDbEntity
  8
細線
 48
50.0
100
AcDbLine
 10
4411.290541924344
 20
935.9657591849122
 30
0.0
 11
4412.333292045155
 21
932.0741627544567
 31
0.0
  0
LINE
  5
2A404
330
747D
100
AcDbEntity
  8
細線
 48
50.0
100
AcDbLine
 10
4312.680485740286
 20
935.9657591849122
 30
0.0
 11
4320.71896151322
 21
905.9657591849122
 31
0.0
  0
LINE
  5
2A405
330
747D
100
AcDbEntity
  8
部品1
 48
50.0
100
AcDbLine
 10
4312.333292045155
 20
1365.965759184912
 30
0.0
 11
4312.333292045155
 21
1065.965759184912
 31
0.0
  0
MTEXT
  5
2A406
102
{ACAD_REACTORS
330
2A3C7
102
}
330
747D
100
AcDbEntity
  8
寸法
 62
     7
 48
50.0
100
AcDbMText
 10
4441.49286680351
 20
1171.719423006196
 30
0.0
 40
100.0
 41
1.0
 71
     4
 72
     1
  1
D10
  7
STYLE2
 73
     1
 44
1.0
1001
ACAD
1000
MTEXTBEGIN
1070
    73
1070
     1
1070
    44
1040
1.0
1070
    74
1070
     0
1000
MTEXTEND
  0
LINE
  5
2A407
330
747D
100
AcDbEntity
  8
細線
 48
50.0
100
AcDbLine
 10
4294.645989830645
 20
1065.965759184912
 30
0.0
 11
4312.333292045155
 21
1083.653061399421
 31
0.0
  0
LINE
  5
2A408
330
747D
100
AcDbEntity
  8
細線
 48
50.0
100
AcDbLine
 10
4339.475404983399
 20
1035.965759184914
 30
0.0
 11
4331.436929210465
 21
1065.965759184912
 31
0.0
  0
MTEXT
  5
2A409
102
{ACAD_REACTORS
330
2A40B
102
}
330
747D
100
AcDbEntity
  8
寸法
 62
     7
 48
50.0
100
AcDbMText
 10
4255.940713329398
 20
1872.550210808572
 30
0.0
 40
100.0
 41
1.0
 71
     4
 72
     1
  1
D13
  7
STYLE2
 73
     1
 44
1.0
1001
ACAD
1000
MTEXTBEGIN
1070
    73
1070
     1
1070
    44
1040
1.0
1070
    74
1070
     0
1000
MTEXTEND
  0
LWPOLYLINE
  5
2A40A
330
747D
100
AcDbEntity
  8
部品1
 48
50.0
100
AcDbPolyline
 90
        2
 70
     0
 43
10.0
 10
4152.333292045153
 20
1745.965759184915
 10
4670.008169336352
 20
1745.965759184915
  0
LEADER
  5
2A40B
330
747D
100
AcDbEntity
  8
寸法
 48
50.0
100
AcDbLeader
  3
INABA_S40G
 71
     0
 73
     0
 74
     0
 75
     1
 40
100.0
 41
222.7272727272727
 76
     3
 10
4032.333292045154
 20
1871.283795927719
 30
0.0
 10
4130.940713329398
 20
1797.550210808572
 30
0.0
 10
4230.940713329398
 20
1797.550210808572
 30
0.0
1001
ACAD
1000
DSTYLE
1002
{
1070
   341
1005
0
1002
}
  0
LINE
  5
2A40C
330
747D
100
AcDbEntity
  8
部品1
 48
50.0
100
AcDbLine
 10
4022.333292045153
 20
1798.624777556316
 30
0.0
 11
4022.333292045153
 21
1871.283795927719
 31
0.0
  0
LINE
  5
2A40D
330
747D
100
AcDbEntity
  8
部品1
 48
50.0
100
AcDbLine
 10
4002.333292045155
 20
1798.624777556321
 30
0.0
 11
4002.333292045155
 21
1871.283795927719
 31
0.0
  0
LINE
  5
2A40E
330
747D
100
AcDbEntity
  8
細線
 48
50.0
100
AcDbLine
 10
4022.333292045153
 20
1803.931875019702
 30
0.0
 11
4042.333292045155
 21
1823.931875019702
 31
0.0
  0
LINE
  5
2A40F
330
747D
100
AcDbEntity
  8
細線
 48
50.0
100
AcDbLine
 10
3912.333292045155
 20
1761.283795927719
 30
0.0
 11
4002.333292045155
 21
1851.283795927719
 31
0.0
  0
LINE
  5
2A410
330
747D
100
AcDbEntity
  8
細線
 48
50.0
100
AcDbLine
 10
3912.333292045155
 20
1727.60783547371
 30
0.0
 11
4002.333292045155
 21
1817.607835473711
 31
0.0
  0
LINE
  5
2A411
330
747D
100
AcDbEntity
  8
細線
 48
50.0
100
AcDbLine
 10
4062.333292045162
 20
1608.200151841639
 30
0.0
 11
4152.333292045146
 21
1698.200151841632
 31
0.0
  0
LINE
  5
2A412
330
747D
100
AcDbEntity
  8
細線
 48
50.0
100
AcDbLine
 10
4062.333292045155
 20
1641.876112295644
 30
0.0
 11
4152.333292045155
 21
1731.876112295645
 31
0.0
  0
LINE
  5
2A413
330
747D
100
AcDbEntity
  8
細線
 48
50.0
100
AcDbLine
 10
4062.333292045162
 20
1574.524191387627
 30
0.0
 11
4152.333292045146
 21
1664.524191387626
 31
0.0
  0
LINE
  5
2A414
330
747D
100
AcDbEntity
  8
部品1
 48
50.0
100
AcDbLine
 10
4022.333292045153
 20
1798.624777556316
 30
0.0
 11
4002.333292045155
 21
1798.624777556321
 31
0.0
  0
LINE
  5
2A415
330
747D
100
AcDbEntity
  8
細線
 48
50.0
100
AcDbLine
 10
3912.333292045155
 20
1693.931875019702
 30
0.0
 11
4017.026194581773
 21
1798.624777556316
 31
0.0
  0
LINE
  5
2A416
330
747D
100
AcDbEntity
  8
部品1
 48
50.0
100
AcDbLine
 10
3912.333292045155
 20
2045.965759184914
 30
0.0
 11
4152.333292045155
 21
2045.965759184914
 31
0.0
  0
LINE
  5
2A417
330
747D
100
AcDbEntity
  8
細線
 48
50.0
100
AcDbLine
 10
4047.948820173242
 20
1896.899324055808
 30
0.0
 11
4152.333292045155
 21
2001.28379592772
 31
0.0
  0
LINE
  5
2A418
330
747D
100
AcDbEntity
  8
細線
 48
50.0
100
AcDbLine
 10
4061.774176127637
 20
1877.04871955619
 30
0.0
 11
4152.333292045155
 21
1967.60783547371
 31
0.0
  0
LINE
  5
2A419
330
747D
100
AcDbEntity
  8
細線
 48
50.0
100
AcDbLine
 10
4062.333292045155
 20
1843.9318750197
 30
0.0
 11
4152.333292045155
 21
1933.931875019701
 31
0.0
  0
LINE
  5
2A41A
330
747D
100
AcDbEntity
  8
細線
 48
50.0
100
AcDbLine
 10
4022.333292045153
 20
1837.607835473711
 30
0.0
 11
4042.333292045155
 21
1857.60783547371
 31
0.0
  0
CIRCLE
  5
2A41B
330
747D
100
AcDbEntity
  8
部品1
 48
50.0
100
AcDbCircle
 10
4032.333292045154
 20
1871.283795927719
 30
0.0
 40
10.0
  0
ARC
  5
2A41C
330
747D
100
AcDbEntity
  8
部品1
 48
50.0
100
AcDbCircle
 10
4032.333292045154
 20
1871.283795927719
 30
0.0
 40
30.0
100
AcDbArc
 50
0.0
 51
180.0
  0
LINE
  5
2A41D
330
747D
100
AcDbEntity
  8
細線
 48
50.0
100
AcDbLine
 10
3912.333292045155
 20
2030.691479559795
 30
0.0
 11
3927.607571670274
 21
2045.965759184914
 31
0.0
  0
LINE
  5
2A41E
330
747D
100
AcDbEntity
  8
細線
 48
50.0
100
AcDbLine
 10
3912.333292045155
 20
1963.339558651776
 30
0.0
 11
3994.959492578292
 21
2045.965759184914
 31
0.0
  0
LINE
  5
2A41F
330
747D
100
AcDbEntity
  8
細線
 48
50.0
100
AcDbLine
 10
3912.333292045155
 20
1997.015519105785
 30
0.0
 11
3961.283532124286
 21
2045.965759184914
 31
0.0
  0
LEADER
  5
2A420
330
747D
100
AcDbEntity
  8
寸法
 48
50.0
100
AcDbLeader
  3
INABA_S40G
 73
     0
 74
     0
 75
     1
 40
100.0
 41
543.75
 76
     3
 10
6325.382433516646
 20
2107.415759184914
 30
0.0
 10
6426.063011540795
 20
2286.444916876451
 30
0.0
 10
6526.063011540795
 20
2286.444916876451
 30
0.0
340
2A421
1001
ACAD
1000
DSTYLE
1002
{
1070
   341
1005
0
1002
}
  0
MTEXT
  5
2A421
102
{ACAD_REACTORS
330
2A420
102
}
330
747D
100
AcDbEntity
  8
部品1
 62
     7
 48
50.0
100
AcDbMText
 10
6566.063011540795
 20
2376.444916876451
 30
0.0
 40
100.0
 41
1.0
 71
     4
 72
     1
  1
M10X160
  7
STYLE2
 73
     1
 44
1.0
1001
ACAD
1000
MTEXTBEGIN
1070
    73
1070
     1
1070
    44
1040
1.0
1070
    74
1070
     0
1000
MTEXTEND
  0
DIMENSION
  5
2A422
330
747D
100
AcDbEntity
  8
寸法
 48
50.0
100
AcDbDimension
  2
*D40
 10
7182.218183227703
 20
1640.965759184911
 30
0.0
 11
7082.218183227702
 21
1843.465759184913
 31
0.0
 70
    32
  1
180
 71
     5
 42
405.000000000003
  3
INABA_S40G
100
AcDbAlignedDimension
 13
6554.882433516647
 23
2045.965759184914
 33
0.0
 14
6554.882433516647
 24
1640.965759184911
 34
0.0
 50
90.0
100
AcDbRotatedDimension
1001
ACAD
1000
DSTYLE
1002
{
1070
   341
1005
0
1002
}
  0
LWPOLYLINE
  5
2A423
330
747D
100
AcDbEntity
  8
部品1
 48
50.0
100
AcDbPolyline
 90
        2
 70
     0
 43
10.0
 10
6554.882433516647
 20
1745.965759184915
 10
6922.010512765878
 20
1745.965759184915
  0
LINE
  5
2A424
330
747D
100
AcDbEntity
  8
部品1
 48
50.0
100
AcDbLine
 10
6814.88243351665
 20
1065.965759184912
 30
0.0
 11
5777.38243351665
 21
1065.965759184912
 31
0.0
  0
LINE
  5
2A425
330
747D
100
AcDbEntity
  8
細線
 48
50.0
100
AcDbLine
 10
6733.559795763956
 20
935.9657591849114
 30
0.0
 11
6741.59827153689
 21
905.9657591849113
 31
0.0
  0
LINE
  5
2A426
330
747D
100
AcDbEntity
  8
部品1
 48
50.0
100
AcDbLine
 10
6814.88243351665
 20
905.9657591849122
 30
0.0
 11
5777.38243351665
 21
905.9657591849122
 31
0.0
  0
LINE
  5
2A427
330
747D
100
AcDbEntity
  8
細線
 48
50.0
100
AcDbLine
 10
6725.521319991014
 20
905.9657591849113
 30
0.0
 11
6768.393190779997
 21
1065.965759184909
 31
0.0
  0
DIMENSION
  5
2A428
330
747D
100
AcDbEntity
  8
寸法
 48
50.0
100
AcDbDimension
  2
*D41
 10
7527.286515876486
 20
2045.965759184914
 30
0.0
 11
7527.286515876486
 21
1579.956855763432
 31
0.0
 70
   160
  1
20～25
 71
     5
 42
65.94999999999913
  3
INABA_S40G
100
AcDbAlignedDimension
 13
6320.882433516647
 23
2111.915759184913
 33
0.0
 14
6554.882433516647
 24
2045.965759184914
 34
0.0
 50
90.0
100
AcDbRotatedDimension
1001
ACAD
1000
DSTYLE
1002
{
1070
   341
1005
0
1002
}
  0
TEXT
  5
2A429
330
747D
100
AcDbEntity
  8
部品1
 48
50.0
100
AcDbText
 10
6560.324413872184
 20
2490.814110137663
 30
0.0
 40
100.0
  1
基礎ボルト(市販品)
  7
STYLE2
100
AcDbText
  0
LINE
  5
2A42A
330
747D
100
AcDbEntity
  8
細線
 48
50.0
100
AcDbLine
 10
5914.555724492001
 20
1065.965759184912
 30
0.0
 11
6554.882433516652
 21
1706.292468209556
 31
0.0
  0
LINE
  5
2A42B
330
747D
100
AcDbEntity
  8
細線
 48
50.0
100
AcDbLine
 10
5948.231684946009
 20
1065.965759184912
 30
0.0
 11
6554.882433516647
 21
1672.616507755548
 31
0.0
  0
LINE
  5
2A42C
330
747D
100
AcDbEntity
  8
細線
 48
50.0
100
AcDbLine
 10
6037.382433516647
 20
1491.876112295645
 30
0.0
 11
6235.382433516639
 21
1689.876112295638
 31
0.0
  0
LINE
  5
2A42D
330
747D
100
AcDbEntity
  8
細線
 48
50.0
100
AcDbLine
 10
6037.382433516647
 20
1424.524191387626
 30
0.0
 11
6253.82400131394
 21
1640.965759184911
 31
0.0
  0
LINE
  5
2A42E
330
747D
100
AcDbEntity
  8
細線
 48
50.0
100
AcDbLine
 10
6037.382433516647
 20
1458.200151841635
 30
0.0
 11
6235.382433516639
 21
1656.200151841621
 31
0.0
  0
LINE
  5
2A42F
330
747D
100
AcDbEntity
  8
部品1
 48
50.0
100
AcDbLine
 10
6037.382433516647
 20
1365.965759184912
 30
0.0
 11
6037.382433516647
 21
2045.965759184914
 31
0.0
  0
LINE
  5
2A430
330
747D
100
AcDbEntity
  8
部品1
100
AcDbLine
 10
6554.882433516645
 20
1365.965759184912
 30
0.0
 11
6554.882433516647
 21
2045.965759184914
 31
0.0
  0
LINE
  5
2A431
330
747D
100
AcDbEntity
  8
細線
 48
50.0
100
AcDbLine
 10
5880.87976403799
 20
1065.965759184912
 30
0.0
 11
6554.882433516645
 21
1739.968428663569
 31
0.0
  0
LINE
  5
2A432
330
747D
100
AcDbEntity
  8
部品1
 48
50.0
100
AcDbLine
 10
5877.382433516647
 20
1365.965759184912
 30
0.0
 11
6037.382433516647
 21
1365.965759184912
 31
0.0
  0
LINE
  5
2A433
330
747D
100
AcDbEntity
  8
細線
 48
50.0
100
AcDbLine
 10
5877.38243351664
 20
1264.524191387626
 30
0.0
 11
5978.824001313934
 21
1365.965759184912
 31
0.0
  0
LINE
  5
2A434
330
747D
100
AcDbEntity
  8
細線
 48
50.0
100
AcDbLine
 10
5877.38243351664
 20
1298.200151841632
 30
0.0
 11
5945.148040859928
 21
1365.965759184912
 31
0.0
  0
LINE
  5
2A435
330
747D
100
AcDbEntity
  8
細線
 48
50.0
100
AcDbLine
 10
5838.030814334472
 20
905.9657591849113
 30
0.0
 11
5880.902685123448
 21
1065.965759184911
 31
0.0
  0
LINE
  5
2A436
330
747D
100
AcDbEntity
  8
部品1
 48
50.0
100
AcDbLine
 10
5777.38243351665
 20
905.9657591849122
 30
0.0
 11
5777.38243351665
 21
1065.965759184912
 31
0.0
  0
LINE
  5
2A437
330
747D
100
AcDbEntity
  8
細線
 48
50.0
100
AcDbLine
 10
5846.069290107411
 20
935.9657591849122
 30
0.0
 11
5854.107765880345
 21
905.9657591849122
 31
0.0
  0
LINE
  5
2A438
330
747D
100
AcDbEntity
  8
部品1
 48
50.0
100
AcDbLine
 10
5877.382433516647
 20
1065.965759184912
 30
0.0
 11
5877.382433516647
 21
1365.965759184912
 31
0.0
  0
LINE
  5
2A439
330
747D
100
AcDbEntity
  8
細線
 48
50.0
100
AcDbLine
 10
5872.864209350524
 20
1035.965759184914
 30
0.0
 11
5864.825733577589
 21
1065.965759184912
 31
0.0
  0
LINE
  5
2A43A
330
747D
100
AcDbEntity
  8
細線
 48
50.0
100
AcDbLine
 10
5777.382433516646
 20
1047.640660392137
 30
0.0
 11
5782.292628939392
 21
1065.965759184912
 31
0.0
  0
LINE
  5
2A43B
330
747D
100
AcDbEntity
  8
細線
 48
50.0
100
AcDbLine
 10
5877.38243351664
 20
1331.876112295645
 30
0.0
 11
5911.472080405915
 21
1365.965759184912
 31
0.0
  0
LINE
  5
2A43C
330
747D
100
AcDbEntity
  8
細線
 48
50.0
100
AcDbLine
 10
6035.250926702599
 20
905.9657591849113
 30
0.0
 11
6078.122797491579
 21
1065.965759184911
 31
0.0
  0
LINE
  5
2A43D
330
747D
100
AcDbEntity
  8
細線
 48
50.0
100
AcDbLine
 10
5936.640870518544
 20
905.9657591849122
 30
0.0
 11
5979.51274130752
 21
1065.965759184912
 31
0.0
  0
LINE
  5
2A43E
330
747D
100
AcDbEntity
  8
細線
 48
50.0
100
AcDbLine
 10
6429.691151438837
 20
905.9657591849122
 30
0.0
 11
6472.563022227821
 21
1065.965759184911
 31
0.0
  0
LINE
  5
2A43F
330
747D
100
AcDbEntity
  8
細線
 48
50.0
100
AcDbLine
 10
6232.471039070722
 20
905.9657591849122
 30
0.0
 11
6275.342909859705
 21
1065.965759184911
 31
0.0
  0
LINE
  5
2A440
330
747D
100
AcDbEntity
  8
細線
 48
50.0
100
AcDbLine
 10
6133.860982886666
 20
905.9657591849122
 30
0.0
 11
6176.732853675645
 21
1065.965759184912
 31
0.0
  0
LINE
  5
2A441
330
747D
100
AcDbEntity
  8
細線
 48
50.0
100
AcDbLine
 10
6331.081095254784
 20
905.9657591849113
 30
0.0
 11
6373.952966043765
 21
1065.965759184911
 31
0.0
  0
LINE
  5
2A442
330
747D
100
AcDbEntity
  8
細線
 48
50.0
100
AcDbLine
 10
6626.91126380696
 20
905.9657591849097
 30
0.0
 11
6669.78313459594
 21
1065.965759184909
 31
0.0
  0
LINE
  5
2A443
330
747D
100
AcDbEntity
  8
細線
 48
50.0
100
AcDbLine
 10
6528.301207622901
 20
905.9657591849113
 30
0.0
 11
6571.173078411866
 21
1065.965759184912
 31
0.0
  0
LINE
  5
2A444
330
747D
100
AcDbEntity
  8
細線
 48
50.0
100
AcDbLine
 10
6043.28940247554
 20
935.9657591849122
 30
0.0
 11
6051.327878248477
 21
905.9657591849122
 31
0.0
  0
LINE
  5
2A445
330
747D
100
AcDbEntity
  8
細線
 48
50.0
100
AcDbLine
 10
5944.679346291477
 20
935.9657591849122
 30
0.0
 11
5952.717822064411
 21
905.9657591849122
 31
0.0
  0
LINE
  5
2A446
330
747D
100
AcDbEntity
  8
細線
 48
50.0
100
AcDbLine
 10
6240.509514843665
 20
935.9657591849122
 30
0.0
 11
6248.547990616597
 21
905.9657591849122
 31
0.0
  0
LINE
  5
2A447
330
747D
100
AcDbEntity
  8
細線
 48
50.0
100
AcDbLine
 10
6141.899458659605
 20
935.9657591849122
 30
0.0
 11
6149.937934432539
 21
905.9657591849122
 31
0.0
  0
LINE
  5
2A448
330
747D
100
AcDbEntity
  8
細線
 48
50.0
100
AcDbLine
 10
6437.729627211779
 20
935.9657591849122
 30
0.0
 11
6445.768102984712
 21
905.9657591849122
 31
0.0
  0
LINE
  5
2A449
330
747D
100
AcDbEntity
  8
細線
 48
50.0
100
AcDbLine
 10
6339.11957102772
 20
935.9657591849122
 30
0.0
 11
6347.158046800656
 21
905.9657591849122
 31
0.0
  0
LINE
  5
2A44A
330
747D
100
AcDbEntity
  8
細線
 48
50.0
100
AcDbLine
 10
6634.949739579898
 20
935.9657591849114
 30
0.0
 11
6642.988215352831
 21
905.9657591849113
 31
0.0
  0
LINE
  5
2A44B
330
747D
100
AcDbEntity
  8
細線
 48
50.0
100
AcDbLine
 10
6536.339683395837
 20
935.9657591849122
 30
0.0
 11
6544.378159168785
 21
905.9657591849122
 31
0.0
  0
LINE
  5
2A44C
330
747D
100
AcDbEntity
  8
細線
 48
50.0
100
AcDbLine
 10
6217.639368578083
 20
1065.965759184912
 30
0.0
 11
6554.882433516647
 21
1403.208824123485
 31
0.0
  0
LINE
  5
2A44D
330
747D
100
AcDbEntity
  8
細線
 48
50.0
100
AcDbLine
 10
6183.963408124076
 20
1065.965759184912
 30
0.0
 11
6554.882433516647
 21
1436.884784577478
 31
0.0
  0
LINE
  5
2A44E
330
747D
100
AcDbEntity
  8
細線
 48
50.0
100
AcDbLine
 10
6150.287447670065
 20
1065.965759184912
 30
0.0
 11
6554.882433516645
 21
1470.560745031495
 31
0.0
  0
LINE
  5
2A44F
330
747D
100
AcDbEntity
  8
細線
 48
50.0
100
AcDbLine
 10
6070.084321718653
 20
1035.965759184914
 30
0.0
 11
6062.04584594572
 21
1065.965759184912
 31
0.0
  0
LINE
  5
2A450
330
747D
100
AcDbEntity
  8
細線
 48
50.0
100
AcDbLine
 10
5971.474265534587
 20
1035.965759184914
 30
0.0
 11
5963.435789761653
 21
1065.965759184912
 31
0.0
  0
LINE
  5
2A451
330
747D
100
AcDbEntity
  8
細線
 48
50.0
100
AcDbLine
 10
6267.304434086774
 20
1035.965759184914
 30
0.0
 11
6259.265958313841
 21
1065.965759184912
 31
0.0
  0
LINE
  5
2A452
330
747D
100
AcDbEntity
  8
細線
 48
50.0
100
AcDbLine
 10
6168.694377902719
 20
1035.965759184914
 30
0.0
 11
6160.655902129786
 21
1065.965759184912
 31
0.0
  0
LINE
  5
2A453
330
747D
100
AcDbEntity
  8
部品1
 48
50.0
100
AcDbLine
 10
6714.882433516648
 20
1365.965759184912
 30
0.0
 11
6714.882433516648
 21
1065.965759184912
 31
0.0
  0
LINE
  5
2A454
330
747D
100
AcDbEntity
  8
細線
 48
50.0
100
AcDbLine
 10
6487.047052210158
 20
1065.965759184912
 30
0.0
 11
6714.882433516648
 21
1293.801140491408
 31
0.0
  0
LINE
  5
2A455
330
747D
100
AcDbEntity
  8
細線
 48
50.0
100
AcDbLine
 10
6453.371091756152
 20
1065.965759184912
 30
0.0
 11
6714.882433516648
 21
1327.477100945406
 31
0.0
  0
LINE
  5
2A456
330
747D
100
AcDbEntity
  8
細線
 48
50.0
100
AcDbLine
 10
6419.695131302137
 20
1065.965759184912
 30
0.0
 11
6714.882433516648
 21
1361.153061399422
 31
0.0
  0
LINE
  5
2A457
330
747D
100
AcDbEntity
  8
細線
 48
50.0
100
AcDbLine
 10
6464.524546454892
 20
1035.965759184914
 30
0.0
 11
6456.486070681958
 21
1065.965759184912
 31
0.0
  0
LINE
  5
2A458
330
747D
100
AcDbEntity
  8
細線
 48
50.0
100
AcDbLine
 10
6365.914490270832
 20
1035.965759184914
 30
0.0
 11
6357.8760144979
 21
1065.965759184912
 31
0.0
  0
LINE
  5
2A459
330
747D
100
AcDbEntity
  8
細線
 48
50.0
100
AcDbLine
 10
6661.744658823008
 20
1035.965759184911
 30
0.0
 11
6653.706183050076
 21
1065.965759184911
 31
0.0
  0
LINE
  5
2A45A
330
747D
100
AcDbEntity
  8
細線
 48
50.0
100
AcDbLine
 10
6563.134602638935
 20
1035.965759184914
 30
0.0
 11
6555.096126866003
 21
1065.965759184912
 31
0.0
  0
LINE
  5
2A45B
330
747D
100
AcDbEntity
  8
部品1
 48
50.0
100
AcDbLine
 10
6554.882433516647
 20
1365.965759184912
 30
0.0
 11
6714.882433516648
 21
1365.965759184912
 31
0.0
  0
LWPOLYLINE
  5
2A45C
330
747D
100
AcDbEntity
  8
部品1
 48
50.0
100
AcDbPolyline
 90
        2
 70
     0
 43
10.0
 10
5519.707556225451
 20
1745.965759184915
 10
6037.382433516647
 20
1745.965759184915
  0
TEXT
  5
2A45D
330
747D
100
AcDbEntity
  8
部品1
 48
50.0
100
AcDbText
 10
5519.70755622545
 20
1760.014499538982
 30
0.0
 40
100.0
  1
▽G.L
  7
STYLE2
100
AcDbText
  0
LINE
  5
2A45E
330
747D
100
AcDbEntity
  8
部品1
100
AcDbLine
 10
6302.882433516646
 20
1764.715759184913
 30
0.0
 11
6302.882433516645
 21
2107.415759184914
 31
0.0
  0
LINE
  5
2A45F
330
747D
100
AcDbEntity
  8
部品1
100
AcDbLine
 10
6325.382433516646
 20
1764.715759184913
 30
0.0
 11
6325.382433516645
 21
2107.415759184914
 31
0.0
  0
LINE
  5
2A460
330
747D
100
AcDbEntity
  8
部品1
100
AcDbLine
 10
6240.207433516651
 20
2129.540759184915
 30
0.0
 11
6240.207433516641
 21
2061.290759184913
 31
0.0
  0
LINE
  5
2A461
330
747D
100
AcDbEntity
  8
部品1
100
AcDbLine
 10
6225.257433516646
 20
2114.590759184914
 30
0.0
 11
6225.257433516646
 21
2061.290759184913
 31
0.0
  0
LINE
  5
2A462
330
747D
100
AcDbEntity
  8
細線
100
AcDbLine
 10
6307.38243351665
 20
2057.915759184913
 30
0.0
 11
6307.382433516647
 21
2111.915759184913
 31
0.0
  0
LINE
  5
2A463
330
747D
100
AcDbEntity
  8
細線
100
AcDbLine
 10
6320.882433516647
 20
2057.915759184913
 30
0.0
 11
6320.882433516647
 21
2111.915759184913
 31
0.0
  0
LINE
  5
2A464
330
747D
100
AcDbEntity
  8
部品1
100
AcDbLine
 10
6045.257433516646
 20
2061.290759184913
 30
0.0
 11
6045.257433516646
 21
2138.955638813298
 31
0.0
  0
LINE
  5
2A465
330
747D
100
AcDbEntity
  8
部品1
100
AcDbLine
 10
6325.382433516646
 20
1764.715759184913
 30
0.0
 11
6370.382433516646
 21
1764.715759184913
 31
0.0
  0
LINE
  5
2A466
330
747D
100
AcDbEntity
  8
部品1
100
AcDbLine
 10
6325.382433516646
 20
1742.215759184912
 30
0.0
 11
6370.382433516646
 21
1742.215759184912
 31
0.0
  0
LINE
  5
2A467
330
747D
100
AcDbEntity
  8
部品1
100
AcDbLine
 10
6243.582433516641
 20
2057.915759184913
 30
0.0
 11
6495.257433516639
 21
2057.915759184913
 31
0.0
  0
LINE
  5
2A468
330
747D
100
AcDbEntity
  8
部品1
 48
50.0
100
AcDbLine
 10
6037.382433516647
 20
2045.965759184914
 30
0.0
 11
6554.882433516652
 21
2045.965759184914
 31
0.0
  0
LINE
  5
2A469
330
747D
100
AcDbEntity
  8
部品1
100
AcDbLine
 10
6392.882433516646
 20
1640.965759184911
 30
0.0
 11
6235.382433516639
 21
1640.965759184911
 31
0.0
  0
LINE
  5
2A46A
330
747D
100
AcDbEntity
  8
細線
 48
50.0
100
AcDbLine
 10
6037.382433516647
 20
1727.60783547371
 30
0.0
 11
6235.382433516646
 21
1925.607835473707
 31
0.0
  0
LINE
  5
2A46B
330
747D
100
AcDbEntity
  8
細線
 48
50.0
100
AcDbLine
 10
6037.382433516647
 20
1761.283795927719
 30
0.0
 11
6235.382433516646
 21
1959.283795927717
 31
0.0
  0
LINE
  5
2A46C
330
747D
100
AcDbEntity
  8
部品1
100
AcDbLine
 10
6235.382433516639
 20
1640.965759184912
 30
0.0
 11
6235.382433516647
 21
2045.965759184914
 31
0.0
  0
LINE
  5
2A46D
330
747D
100
AcDbEntity
  8
細線
 48
50.0
100
AcDbLine
 10
6037.382433516647
 20
1693.931875019702
 30
0.0
 11
6235.382433516645
 21
1891.931875019692
 31
0.0
  0
ARC
  5
2A46E
330
747D
100
AcDbEntity
  8
部品1
100
AcDbCircle
 10
6325.382433516646
 20
1764.715759184913
 30
0.0
 40
22.5
100
AcDbArc
 50
180.0
 51
270.0
  0
LINE
  5
2A46F
330
747D
100
AcDbEntity
  8
細線
 48
50.0
100
AcDbLine
 10
6037.382433516647
 20
1963.339558651776
 30
0.0
 11
6120.008634049785
 21
2045.965759184914
 31
0.0
  0
LINE
  5
2A470
330
747D
100
AcDbEntity
  8
細線
 48
50.0
100
AcDbLine
 10
6037.382433516647
 20
1997.015519105785
 30
0.0
 11
6086.332673595779
 21
2045.965759184914
 31
0.0
  0
LINE
  5
2A471
330
747D
100
AcDbEntity
  8
部品1
100
AcDbLine
 10
6048.632433516647
 20
2057.915759184913
 30
0.0
 11
6063.257433516639
 21
2057.915759184913
 31
0.0
  0
LINE
  5
2A472
330
747D
100
AcDbEntity
  8
細線
 48
50.0
100
AcDbLine
 10
6037.382433516647
 20
2030.691479559795
 30
0.0
 11
6052.656713141766
 21
2045.965759184914
 31
0.0
  0
ARC
  5
2A473
330
747D
100
AcDbEntity
  8
部品1
100
AcDbCircle
 10
6048.632433516647
 20
2061.290759184913
 30
0.0
 40
3.375
100
AcDbArc
 50
180.0
 51
270.0
  0
ARC
  5
2A474
330
747D
100
AcDbEntity
  8
部品1
100
AcDbCircle
 10
6221.882433516647
 20
2061.290759184913
 30
0.0
 40
3.375
100
AcDbArc
 50
270.0
 51
0.0
  0
ARC
  5
2A475
330
747D
100
AcDbEntity
  8
部品1
100
AcDbCircle
 10
6243.582433516641
 20
2061.290759184913
 30
0.0
 40
3.375
100
AcDbArc
 50
180.0
 51
270.0
  0
LINE
  5
2A476
330
747D
100
AcDbEntity
  8
部品1
100
AcDbLine
 10
6207.257433516646
 20
2057.915759184913
 30
0.0
 11
6221.882433516647
 21
2057.915759184913
 31
0.0
  0
LINE
  5
2A477
330
747D
100
AcDbEntity
  8
細線
 48
50.0
100
AcDbLine
 10
6392.88243351665
 20
1780.02419138761
 30
0.0
 11
6554.882433516647
 21
1942.0241913876
 31
0.0
  0
LINE
  5
2A478
330
747D
100
AcDbEntity
  8
部品1
100
AcDbLine
 10
6392.882433516646
 20
1640.965759184912
 30
0.0
 11
6392.882433516646
 21
2045.965759184914
 31
0.0
  0
LINE
  5
2A479
330
747D
100
AcDbEntity
  8
部品1
100
AcDbLine
 10
6370.382433516646
 20
1742.215759184912
 30
0.0
 11
6370.382433516646
 21
1764.715759184913
 31
0.0
  0
LINE
  5
2A47A
330
747D
100
AcDbEntity
  8
細線
 48
50.0
100
AcDbLine
 10
6392.88243351665
 20
1813.700151841628
 30
0.0
 11
6554.882433516647
 21
1975.700151841624
 31
0.0
  0
LINE
  5
2A47B
330
747D
100
AcDbEntity
  8
細線
 48
50.0
100
AcDbLine
 10
6392.88243351665
 20
1847.376112295649
 30
0.0
 11
6554.882433516647
 21
2009.376112295647
 31
0.0
  0
LINE
  5
2A47C
330
747D
100
AcDbEntity
  8
部品1
 48
50.0
100
AcDbLine
 10
6294.132433516646
 20
2524.559860571342
 30
0.0
 11
6334.132433516646
 21
2524.559860571342
 31
0.0
  0
LINE
  5
2A47D
330
747D
100
AcDbEntity
  8
部品1
 48
50.0
100
AcDbLine
 10
6294.132433516646
 20
2484.559860571342
 30
0.0
 11
6334.132433516646
 21
2484.559860571342
 31
0.0
  0
ELLIPSE
  5
2A47E
330
747D
100
AcDbEntity
  8
細線
 48
50.0
100
AcDbEllipse
 10
6314.132433516647
 20
2534.559860571343
 30
0.0
 11
18.45838483258558
 21
0.0
 31
0.0
210
0.0
220
0.0
230
1.0
 40
0.2071254069489396
 41
0.0
 42
6.283185307179584
  0
LINE
  5
2A47F
330
747D
100
AcDbEntity
  8
部品1
 48
50.0
100
AcDbLine
 10
6294.132433516646
 20
2544.559860571342
 30
0.0
 11
6334.132433516646
 21
2544.559860571342
 31
0.0
  0
ELLIPSE
  5
2A480
330
747D
100
AcDbEntity
  8
部品1
 48
50.0
100
AcDbEllipse
 10
6314.132433516647
 20
2370.369869740253
 30
0.0
 11
50.0
 21
0.0
 31
0.0
210
0.0
220
0.0
230
1.0
 40
0.4
 41
3.141592653589792
 42
6.283185307179584
  0
ELLIPSE
  5
2A481
330
747D
100
AcDbEntity
  8
部品1
 48
50.0
100
AcDbEllipse
 10
6314.132433516647
 20
2382.369869740253
 30
0.0
 11
50.0
 21
0.0
 31
0.0
210
0.0
220
0.0
230
1.0
 40
0.4
 41
0.0
 42
6.283185307179584
  0
ELLIPSE
  5
2A482
330
747D
100
AcDbEntity
  8
部品1
 48
50.0
100
AcDbEllipse
 10
6314.132433516647
 20
2382.369869740253
 30
0.0
 11
23.0
 21
0.0
 31
0.0
210
0.0
220
0.0
230
1.0
 40
0.3478260869565217
 41
0.0
 42
6.283185307179584
  0
LINE
  5
2A483
330
747D
100
AcDbEntity
  8
部品1
100
AcDbLine
 10
6116.132433516646
 20
2185.465759184913
 30
0.0
 11
6169.007433516647
 21
2185.465759184911
 31
0.0
  0
LINE
  5
2A484
330
747D
100
AcDbEntity
  8
部品1
100
AcDbLine
 10
6062.132433516648
 20
2158.465759184914
 30
0.0
 11
6109.382433516646
 21
2158.465759184914
 31
0.0
  0
LINE
  5
2A485
330
747D
100
AcDbEntity
  8
部品1
100
AcDbLine
 10
6047.813875782148
 20
2142.22986975129
 30
0.0
 11
6058.757433516646
 21
2144.965759184914
 31
0.0
  0
ARC
  5
2A486
330
747D
100
AcDbEntity
  8
部品1
100
AcDbCircle
 10
6048.632433516647
 20
2138.955638813298
 30
0.0
 40
3.375
100
AcDbArc
 50
104.0362434679075
 51
180.0
  0
ARC
  5
2A487
330
747D
100
AcDbEntity
  8
部品1
100
AcDbCircle
 10
6062.132433516648
 20
2155.090759184913
 30
0.0
 40
3.375
100
AcDbArc
 50
90.0
 51
180.0
  0
LINE
  5
2A488
330
747D
100
AcDbEntity
  8
部品1
100
AcDbLine
 10
6058.757433516646
 20
2144.965759184914
 30
0.0
 11
6058.757433516646
 21
2155.090759184913
 31
0.0
  0
ARC
  5
2A489
330
747D
100
AcDbEntity
  8
部品1
100
AcDbCircle
 10
6112.757433516646
 20
2168.590759184914
 30
0.0
 40
3.375
100
AcDbArc
 50
90.0
 51
180.0
  0
LINE
  5
2A48A
330
747D
100
AcDbEntity
  8
部品1
100
AcDbLine
 10
6109.382433516646
 20
2158.465759184914
 30
0.0
 11
6109.382433516646
 21
2168.590759184914
 31
0.0
  0
LINE
  5
2A48B
330
747D
100
AcDbEntity
  8
部品1
100
AcDbLine
 10
6112.757433516646
 20
2171.965759184914
 30
0.0
 11
6112.757433516646
 21
2182.090759184914
 31
0.0
  0
LINE
  5
2A48C
330
747D
100
AcDbEntity
  8
部品1
100
AcDbLine
 10
6112.757433516646
 20
2171.965759184914
 30
0.0
 11
6112.757433516646
 21
2171.965759184914
 31
0.0
  0
ARC
  5
2A48D
330
747D
100
AcDbEntity
  8
部品1
100
AcDbCircle
 10
6116.132433516646
 20
2182.090759184914
 30
0.0
 40
3.375
100
AcDbArc
 50
90.0
 51
180.0
  0
LINE
  5
2A48E
330
747D
100
AcDbEntity
  8
部品1
100
AcDbLine
 10
6198.257433516648
 20
2129.540759184915
 30
0.0
 11
6198.257433516648
 21
2108.165759184913
 31
0.0
  0
ARC
  5
2A48F
330
747D
100
AcDbEntity
  8
部品1
100
AcDbCircle
 10
6221.882433516647
 20
2114.590759184914
 30
0.0
 40
3.375
100
AcDbArc
 50
0.0
 51
90.0
  0
LINE
  5
2A490
330
747D
100
AcDbEntity
  8
部品1
100
AcDbLine
 10
6307.382433516647
 20
2111.915759184913
 30
0.0
 11
6320.882433516647
 21
2111.915759184913
 31
0.0
  0
LINE
  5
2A491
330
747D
100
AcDbEntity
  8
部品1
100
AcDbLine
 10
6302.882433516646
 20
2107.415759184914
 30
0.0
 11
6325.382433516646
 21
2107.415759184914
 31
0.0
  0
ARC
  5
2A492
330
747D
100
AcDbEntity
  8
部品1
100
AcDbCircle
 10
6236.832433516649
 20
2129.540759184915
 30
0.0
 40
3.375
100
AcDbArc
 50
0.0
 51
90.0
  0
ARC
  5
2A493
330
747D
100
AcDbEntity
  8
部品1
100
AcDbCircle
 10
6201.632433516646
 20
2129.540759184915
 30
0.0
 40
3.375
100
AcDbArc
 50
90.0
 51
180.0
  0
LINE
  5
2A494
330
747D
100
AcDbEntity
  8
部品1
100
AcDbLine
 10
6201.632433516646
 20
2132.915759184914
 30
0.0
 11
6236.832433516649
 21
2132.915759184914
 31
0.0
  0
LINE
  5
2A495
330
747D
100
AcDbEntity
  8
部品1
 48
50.0
100
AcDbLine
 10
6264.132433516646
 20
2382.369869740253
 30
0.0
 11
6264.132433516646
 21
2370.369869740253
 31
0.0
  0
LINE
  5
2A496
330
747D
100
AcDbEntity
  8
部品1
100
AcDbLine
 10
6172.382433516649
 20
2182.090759184911
 30
0.0
 11
6172.382433516649
 21
2117.965759184913
 31
0.0
  0
ARC
  5
2A497
330
747D
100
AcDbEntity
  8
部品1
100
AcDbCircle
 10
6169.007433516647
 20
2182.090759184911
 30
0.0
 40
3.375
100
AcDbArc
 50
0.0
 51
90.0
  0
LINE
  5
2A498
330
747D
100
AcDbEntity
  8
部品1
100
AcDbLine
 10
6172.382433516649
 20
2117.965759184913
 30
0.0
 11
6221.882433516647
 21
2117.965759184913
 31
0.0
  0
LINE
  5
2A499
330
747D
100
AcDbEntity
  8
部品1
 48
50.0
100
AcDbLine
 10
6274.132433516648
 20
2534.559860571343
 30
0.0
 11
6294.132433516646
 21
2544.559860571342
 31
0.0
  0
LINE
  5
2A49A
330
747D
100
AcDbEntity
  8
部品1
 48
50.0
100
AcDbLine
 10
6274.132433516648
 20
2494.559860571342
 30
0.0
 11
6294.132433516646
 21
2484.559860571342
 31
0.0
  0
LINE
  5
2A49B
330
747D
100
AcDbEntity
  8
部品1
 48
50.0
100
AcDbLine
 10
6274.132433516648
 20
2534.559860571343
 30
0.0
 11
6294.132433516646
 21
2524.559860571342
 31
0.0
  0
LINE
  5
2A49C
330
747D
100
AcDbEntity
  8
部品1
 48
50.0
100
AcDbLine
 10
6274.132433516648
 20
2494.559860571342
 30
0.0
 11
6274.132433516648
 21
2534.559860571343
 31
0.0
  0
LINE
  5
2A49D
330
747D
100
AcDbEntity
  8
細線
 48
50.0
100
AcDbLine
 10
6294.132433516646
 20
2484.559860571342
 30
0.0
 11
6294.132433516646
 21
2524.559860571342
 31
0.0
  0
LINE
  5
2A49E
330
747D
100
AcDbEntity
  8
部品1
 48
50.0
100
AcDbLine
 10
6364.132433516648
 20
2370.369869740253
 30
0.0
 11
6364.132433516648
 21
2382.369869740253
 31
0.0
  0
LINE
  5
2A49F
330
747D
100
AcDbEntity
  8
部品1
 48
50.0
100
AcDbLine
 10
6334.132433516646
 20
2544.559860571342
 30
0.0
 11
6354.132433516646
 21
2534.559860571343
 31
0.0
  0
LINE
  5
2A4A0
330
747D
100
AcDbEntity
  8
部品1
 48
50.0
100
AcDbLine
 10
6354.132433516646
 20
2494.559860571342
 30
0.0
 11
6354.132433516646
 21
2534.559860571343
 31
0.0
  0
LINE
  5
2A4A1
330
747D
100
AcDbEntity
  8
細線
 48
50.0
100
AcDbLine
 10
6334.132433516646
 20
2484.559860571342
 30
0.0
 11
6334.132433516646
 21
2524.559860571342
 31
0.0
  0
LINE
  5
2A4A2
330
747D
100
AcDbEntity
  8
部品1
 48
50.0
100
AcDbLine
 10
6334.132433516646
 20
2524.559860571342
 30
0.0
 11
6354.132433516646
 21
2534.559860571343
 31
0.0
  0
LINE
  5
2A4A3
330
747D
100
AcDbEntity
  8
部品1
 48
50.0
100
AcDbLine
 10
6334.132433516646
 20
2484.559860571342
 30
0.0
 11
6354.132433516646
 21
2494.559860571342
 31
0.0
  0
LINE
  5
2A4A4
330
747D
100
AcDbEntity
  8
細線
 48
50.0
100
AcDbLine
 10
8319.864861958214
 20
1471.342114618223
 30
0.0
 11
8362.736732747192
 21
1631.342114618223
 31
0.0
  0
TEXT
  5
2A4A5
330
747D
100
AcDbEntity
  8
部品1
 48
50.0
100
AcDbText
 10
7724.154740446964
 20
1412.466083388277
 30
0.0
 40
100.0
  1
ボルトの出
 50
90.0
  7
STYLE2
100
AcDbText
  0
LINE
  5
2A4A6
330
747D
100
AcDbEntity
  8
部品1
100
AcDbLine
 10
8199.496368772264
 20
1471.342114618221
 30
0.0
 11
8199.496368772264
 21
1745.965759184913
 31
0.0
  0
LINE
  5
2A4A7
330
747D
100
AcDbEntity
  8
細線
 48
50.0
100
AcDbLine
 10
8221.254805774149
 20
1471.342114618225
 30
0.0
 11
8264.126676563135
 21
1631.342114618225
 31
0.0
  0
LINE
  5
2A4A8
330
747D
100
AcDbEntity
  8
部品1
 48
50.0
100
AcDbLine
 10
6814.88243351665
 20
1065.965759184912
 30
0.0
 11
6814.88243351665
 21
905.9657591849122
 31
0.0
  0
LINE
  5
2A4A9
330
747D
100
AcDbEntity
  8
細線
 48
50.0
100
AcDbLine
 10
6760.354715007067
 20
1035.965759184911
 30
0.0
 11
6752.316239234136
 21
1065.965759184911
 31
0.0
  0
LINE
  5
2A4AA
330
747D
100
AcDbEntity
  8
細線
 48
50.0
100
AcDbLine
 10
8327.903337731154
 20
1501.342114618225
 30
0.0
 11
8335.941813504083
 21
1471.342114618225
 31
0.0
  0
LINE
  5
2A4AB
330
747D
100
AcDbEntity
  8
細線
 48
50.0
100
AcDbLine
 10
8229.293281547091
 20
1501.342114618225
 30
0.0
 11
8237.331757320022
 21
1471.342114618225
 31
0.0
  0
LINE
  5
2A4AC
330
747D
100
AcDbEntity
  8
部品1
100
AcDbLine
 10
8349.496368772262
 20
1745.965759184913
 30
0.0
 11
8349.496368772262
 21
2045.965759184914
 31
0.0
  0
LINE
  5
2A4AD
330
747D
100
AcDbEntity
  8
細線
 48
50.0
100
AcDbLine
 10
8256.088200790204
 20
1601.342114618225
 30
0.0
 11
8248.049725017263
 21
1631.342114618225
 31
0.0
  0
LINE
  5
2A4AE
330
747D
100
AcDbEntity
  8
細線
 48
50.0
100
AcDbLine
 10
8354.698256974264
 20
1601.342114618225
 30
0.0
 11
8346.65978120133
 21
1631.342114618225
 31
0.0
  0
TEXT
  5
2A4AF
330
747D
100
AcDbEntity
  8
部品1
100
AcDbText
 10
5799.461709010019
 20
3472.740368966685
 30
0.0
 40
150.0
  1
基礎詳細
  7
STYLE2
100
AcDbText
  0
LINE
  5
2A4B0
330
747D
100
AcDbEntity
  8
部品1
100
AcDbLine
 10
9690.007296591405
 20
438.1107811578798
 30
0.0
 11
9690.007296591405
 21
3697.180283905971
 31
0.0
  0
LINE
  5
2A4B1
330
747D
100
AcDbEntity
  8
部品1
100
AcDbLine
 10
9099.496368772262
 20
1745.965759184913
 30
0.0
 11
9099.496368772262
 21
1471.342114618225
 31
0.0
  0
LINE
  5
2A4B2
330
747D
100
AcDbEntity
  8
細線
 48
50.0
100
AcDbLine
 10
8911.525199062573
 20
1471.342114618221
 30
0.0
 11
8954.39706985155
 21
1631.342114618221
 31
0.0
  0
LINE
  5
2A4B3
330
747D
100
AcDbEntity
  8
細線
 48
50.0
100
AcDbLine
 10
9010.135255246623
 20
1471.342114618223
 30
0.0
 11
9053.007126035611
 21
1631.342114618221
 31
0.0
  0
LINE
  5
2A4B4
330
747D
100
AcDbEntity
  8
細線
 48
50.0
100
AcDbLine
 10
8714.305086694457
 20
1471.342114618225
 30
0.0
 11
8757.17695748343
 21
1631.342114618223
 31
0.0
  0
LINE
  5
2A4B5
330
747D
100
AcDbEntity
  8
細線
 48
50.0
100
AcDbLine
 10
8812.915142878512
 20
1471.342114618223
 30
0.0
 11
8855.787013667486
 21
1631.342114618225
 31
0.0
  0
LINE
  5
2A4B6
330
747D
100
AcDbEntity
  8
細線
 48
50.0
100
AcDbLine
 10
8517.084974326332
 20
1471.342114618225
 30
0.0
 11
8559.956845115314
 21
1631.342114618223
 31
0.0
  0
LINE
  5
2A4B7
330
747D
100
AcDbEntity
  8
細線
 48
50.0
100
AcDbLine
 10
8418.474918142281
 20
1471.342114618225
 30
0.0
 11
8461.346788931253
 21
1631.342114618225
 31
0.0
  0
LINE
  5
2A4B8
330
747D
100
AcDbEntity
  8
細線
 48
50.0
100
AcDbLine
 10
8615.695030510391
 20
1471.342114618223
 30
0.0
 11
8658.566901299371
 21
1631.342114618223
 31
0.0
  0
LINE
  5
2A4B9
330
747D
100
AcDbEntity
  8
細線
 48
50.0
100
AcDbLine
 10
8525.123450099272
 20
1501.342114618225
 30
0.0
 11
8533.161925872212
 21
1471.342114618225
 31
0.0
  0
LINE
  5
2A4BA
330
747D
100
AcDbEntity
  8
細線
 48
50.0
100
AcDbLine
 10
8426.513393915222
 20
1501.342114618225
 30
0.0
 11
8434.551869688149
 21
1471.342114618225
 31
0.0
  0
LINE
  5
2A4BB
330
747D
100
AcDbEntity
  8
細線
 48
50.0
100
AcDbLine
 10
8722.343562467395
 20
1501.342114618225
 30
0.0
 11
8730.382038240325
 21
1471.342114618225
 31
0.0
  0
LINE
  5
2A4BC
330
747D
100
AcDbEntity
  8
細線
 48
50.0
100
AcDbLine
 10
8623.733506283334
 20
1501.342114618225
 30
0.0
 11
8631.771982056262
 21
1471.342114618225
 31
0.0
  0
LINE
  5
2A4BD
330
747D
100
AcDbEntity
  8
細線
 48
50.0
100
AcDbLine
 10
8919.563674835512
 20
1501.342114618223
 30
0.0
 11
8927.602150608443
 21
1471.342114618223
 31
0.0
  0
LINE
  5
2A4BE
330
747D
100
AcDbEntity
  8
細線
 48
50.0
100
AcDbLine
 10
8820.953618651451
 20
1501.342114618225
 30
0.0
 11
8828.992094424393
 21
1471.342114618225
 31
0.0
  0
LINE
  5
2A4BF
330
747D
100
AcDbEntity
  8
細線
 48
50.0
100
AcDbLine
 10
9018.173731019571
 20
1501.342114618223
 30
0.0
 11
9026.212206792498
 21
1471.342114618223
 31
0.0
  0
MTEXT
  5
2A4C0
102
{ACAD_REACTORS
330
2A4C1
102
}
330
747D
100
AcDbEntity
  8
寸法
 62
     7
 48
50.0
100
AcDbMText
 10
9091.824641584222
 20
2367.398660036336
 30
0.0
 40
150.0
 41
1.0
 71
     4
 72
     1
  1
\A1;C.B
  7
STYLE1
 73
     1
 44
1.0
1001
ACAD
1000
MTEXTBEGIN
1070
    73
1070
     1
1070
    44
1040
1.0
1070
    74
1070
     0
1000
MTEXTEND
  0
LEADER
  5
2A4C1
330
747D
100
AcDbEntity
  8
寸法
 48
50.0
100
AcDbLeader
  3
INABA_S40G
 73
     0
 74
     0
 75
     1
 40
150.0
 41
231.9898538650463
 76
     3
 10
8862.901883292165
 20
2045.965759184914
 30
0.0
 10
8951.824641584222
 20
2252.398660036336
 30
0.0
 10
9051.824641584223
 20
2252.398660036336
 30
0.0
340
2A4C0
1001
ACAD
1000
DSTYLE
1002
{
1070
   341
1005
0
1002
}
  0
LINE
  5
2A4C2
330
747D
100
AcDbEntity
  8
細線
100
AcDbLine
 10
8932.199290837784
 20
1745.965759184915
 30
0.0
 11
8632.199290837794
 21
2045.965759184914
 31
0.0
  0
LINE
  5
2A4C3
330
747D
100
AcDbEntity
  8
細線
100
AcDbLine
 10
8868.559680531005
 20
1745.965759184913
 30
0.0
 11
8568.559680531006
 21
2045.965759184914
 31
0.0
  0
LINE
  5
2A4C4
330
747D
100
AcDbEntity
  8
細線
 48
50.0
100
AcDbLine
 10
8453.308313158334
 20
1601.342114618225
 30
0.0
 11
8445.269837385394
 21
1631.342114618225
 31
0.0
  0
LINE
  5
2A4C5
330
747D
100
AcDbEntity
  8
細線
 48
50.0
100
AcDbLine
 10
8551.918369342384
 20
1601.342114618225
 30
0.0
 11
8543.879893569453
 21
1631.342114618225
 31
0.0
  0
LINE
  5
2A4C6
330
747D
100
AcDbEntity
  8
細線
100
AcDbLine
 10
8425.644675638814
 20
1631.342114618226
 30
0.0
 11
8540.268320205496
 21
1745.965759184913
 31
0.0
  0
LINE
  5
2A4C7
330
747D
100
AcDbEntity
  8
細線
100
AcDbLine
 10
8383.218268767626
 20
1631.342114618226
 30
0.0
 11
8497.841913334301
 21
1745.965759184913
 31
0.0
  0
LINE
  5
2A4C8
330
747D
100
AcDbEntity
  8
細線
 48
50.0
100
AcDbLine
 10
8749.138481710501
 20
1601.342114618225
 30
0.0
 11
8741.100005937573
 21
1631.342114618225
 31
0.0
  0
LINE
  5
2A4C9
330
747D
100
AcDbEntity
  8
細線
 48
50.0
100
AcDbLine
 10
8650.528425526442
 20
1601.342114618225
 30
0.0
 11
8642.489949753512
 21
1631.342114618225
 31
0.0
  0
LINE
  5
2A4CA
330
747D
100
AcDbEntity
  8
部品1
100
AcDbLine
 10
8949.496368772264
 20
2045.965759184914
 30
0.0
 11
8949.496368772264
 21
1745.965759184913
 31
0.0
  0
LINE
  5
2A4CB
330
747D
100
AcDbEntity
  8
細線
 48
50.0
100
AcDbLine
 10
8946.358594078622
 20
1601.342114618223
 30
0.0
 11
8938.320118305684
 21
1631.342114618223
 31
0.0
  0
LINE
  5
2A4CC
330
747D
100
AcDbEntity
  8
細線
 48
50.0
100
AcDbLine
 10
8847.748537894553
 20
1601.342114618225
 30
0.0
 11
8839.710062121612
 21
1631.342114618225
 31
0.0
  0
LINE
  5
2A4CD
330
747D
100
AcDbEntity
  8
細線
100
AcDbLine
 10
8875.644675638815
 20
1631.342114618228
 30
0.0
 11
8990.268320205494
 21
1745.965759184913
 31
0.0
  0
LINE
  5
2A4CE
330
747D
100
AcDbEntity
  8
細線
100
AcDbLine
 10
8790.791861896433
 20
1631.342114618228
 30
0.0
 11
8905.415506463112
 21
1745.965759184913
 31
0.0
  0
LINE
  5
2A4CF
330
747D
100
AcDbEntity
  8
細線
100
AcDbLine
 10
8833.218268767625
 20
1631.342114618228
 30
0.0
 11
8947.841913334301
 21
1745.965759184913
 31
0.0
  0
LINE
  5
2A4D0
330
747D
100
AcDbEntity
  8
細線
 48
50.0
100
AcDbLine
 10
9044.968650262685
 20
1601.342114618223
 30
0.0
 11
9036.930174489745
 21
1631.342114618223
 31
0.0
  0
HATCH
  5
2A609
330
747D
100
AcDbEntity
  8
細線
 48
50.0
100
AcDbHatch
 10
0.0
 20
0.0
 30
0.0
210
0.0
220
0.0
230
1.0
  2
LINE
 70
     0
 71
     1
 91
        6
 92
        7
 72
     0
 73
     1
 93
        4
 10
6798.600000000002
 20
8297.813451093189
 10
6598.600000000002
 20
8297.813451093189
 10
6598.599999999999
 20
8177.813451093189
 10
6798.599999999999
 20
8177.813451093186
 97
        4
330
28238
330
2848B
330
2845F
330
2848A
 92
        7
 72
     0
 73
     1
 93
        4
 10
5288.599999999998
 20
7077.813451093189
 10
5168.600000000001
 20
7077.813451093186
 10
5168.600000000001
 20
6877.813451093189
 10
5288.6
 20
6877.813451093189
 97
        4
330
2846C
330
28241
330
2846D
330
28460
 92
        7
 72
     0
 73
     1
 93
        4
 10
6798.600000000002
 20
5777.813451093194
 10
6598.600000000002
 20
5777.813451093194
 10
6598.600000000002
 20
5582.813451093183
 10
6798.600000000002
 20
5582.813451093186
 97
        4
330
2845E
330
2823D
330
28247
330
2823E
 92
        7
 72
     0
 73
     1
 93
        4
 10
9848.600000000013
 20
5777.813451093202
 10
9648.600000000017
 20
5777.813451093203
 10
9648.600000000014
 20
5657.813451093199
 10
9848.600000000013
 20
5657.8134510932
 97
        4
330
28235
330
284AD
330
28234
330
284AE
 92
        7
 72
     0
 73
     1
 93
        4
 10
11278.6
 20
7077.813451093186
 10
11158.6
 20
7077.813451093189
 10
11158.6
 20
6877.813451093189
 10
11278.6
 20
6877.813451093189
 97
        4
330
284E6
330
284DA
330
284E7
330
284B1
 92
        7
 72
     0
 73
     1
 93
        4
 10
9848.600000000002
 20
8297.813451093189
 10
9648.600000000001
 20
8297.81345109319
 10
9648.600000000001
 20
8177.813451093189
 10
9848.600000000001
 20
8177.813451093186
 97
        4
330
28238
330
284D8
330
28230
330
284D9
 75
     0
 76
     1
 52
45.0
 41
10.0
 77
     0
 78
     1
 53
45.0
 43
0.0
 44
0.0
 45
-22.45064030267288
 46
22.45064030267288
 79
     0
 47
7.766673588617115
 98
        6
 10
6666.685574022974
 20
8230.314797113974
 10
5268.082873579754
 20
6964.347006929151
 10
6705.535642440001
 20
5682.845845768286
 10
9751.381564296012
 20
5713.912549218133
 10
11188.83439251383
 20
6925.513637242388
 10
9790.231632713032
 20
8222.548130877068
  0
ENDSEC
  0
SECTION
  2
OBJECTS
  0
DICTIONARY
  5
7471
330
0
100
AcDbDictionary
281
     1
  3
ACAD_COLOR
350
173D2
  3
ACAD_GROUP
350
7472
  3
ACAD_LAYOUT
350
173D3
  3
ACAD_MATERIAL
350
173D1
  3
ACAD_MLINESTYLE
350
7473
  3
ACAD_PLOTSETTINGS
350
173D4
  3
ACAD_PLOTSTYLENAME
350
173CF
  3
ACDBHEADERROUNDTRIPXREC
350
2A7D7
  3
AcDbVariableDictionary
350
2A614
  3
CONTENTDICTIONARY
350
E71C
  3
DRAWINGVARIABLESDICT
350
F3B9
  0
DICTIONARY
  5
1758F
330
7467
100
AcDbDictionary
280
     1
281
     1
  3
ACAD_LAYERSTATES
360
17590
  0
DICTIONARY
  5
173D2
102
{ACAD_REACTORS
330
7471
102
}
330
7471
100
AcDbDictionary
281
     1
  0
DICTIONARY
  5
7472
102
{ACAD_REACTORS
330
7471
102
}
330
7471
100
AcDbDictionary
281
     1
  3
*A1
350
1D2A9
  0
DICTIONARY
  5
173D3
102
{ACAD_REACTORS
330
7471
102
}
330
7471
100
AcDbDictionary
281
     1
  3
Model
350
173D5
  3
レイアウト1
350
173D6
  0
DICTIONARY
  5
173D1
102
{ACAD_REACTORS
330
7471
102
}
330
7471
100
AcDbDictionary
281
     1
  0
DICTIONARY
  5
7473
102
{ACAD_REACTORS
330
7471
102
}
330
7471
100
AcDbDictionary
281
     1
  3
STANDARD
350
7480
  0
DICTIONARY
  5
173D4
102
{ACAD_REACTORS
330
7471
102
}
330
7471
100
AcDbDictionary
281
     1
  0
ACDBDICTIONARYWDFLT
  5
173CF
102
{ACAD_REACTORS
330
7471
102
}
330
7471
100
AcDbDictionary
281
     1
  3
Normal
350
173D0
100
AcDbDictionaryWithDefault
340
173D0
  0
DICTIONARY
  5
2A7D7
102
{ACAD_REACTORS
330
7471
102
}
330
7471
100
AcDbDictionary
281
     1
  3
COLORDICT
350
2A7D9
  3
MATERIALDICT
350
2A7D8
  0
DICTIONARY
  5
2A614
102
{ACAD_REACTORS
330
7471
102
}
330
7471
100
AcDbDictionary
281
     1
  3
DIMASSOC
350
2A615
  3
PROJECTNAME
350
2A616
  0
DICTIONARY
  5
E71C
102
{ACAD_REACTORS
330
7471
102
}
330
7471
100
AcDbDictionary
281
     1
  0
DICTIONARY
  5
F3B9
102
{ACAD_REACTORS
330
7471
102
}
330
7471
100
AcDbDictionary
281
     1
1001
DRAWINGVARIABLESXDATA
1000
POLARMODE
1000
1
  0
DICTIONARY
  5
17590
102
{ACAD_REACTORS
330
1758F
102
}
330
1758F
100
AcDbDictionary
281
     1
  0
GROUP
  5
1D2A9
102
{ACAD_REACTORS
330
7472
102
}
330
7472
100
AcDbGroup
300

 70
     1
 71
     1
  0
LAYOUT
  5
173D5
102
{ACAD_XDICTIONARY
360
2A7DA
102
}
102
{ACAD_REACTORS
330
173D3
102
}
330
173D3
100
AcDbPlotSettings
  1

  2
クセロPDF
  4
A3
  6

 40
3.174999999999999
 41
3.174999999999999
 42
3.174987999999999
 43
3.174987999999999
 44
419.946655
 45
296.925995
 46
0.0
 47
0.0
 48
0.0
 49
0.0
140
0.0
141
0.0
142
1.0
143
40.88431155294937
 70
 11952
 72
     1
 73
     0
 74
     2
  7
inaba.ctb
 75
     0
147
0.0244592598484849
148
0.0
149
0.0
100
AcDbLayout
  1
Model
 70
     1
 71
     0
 10
0.0
 20
0.0
 11
12.0
 21
9.0
 12
0.0
 22
0.0
 32
0.0
 14
0.0
 24
0.0
 34
0.0
 15
0.0
 25
0.0
 35
0.0
146
0.0
 13
0.0
 23
0.0
 33
0.0
 16
1.0
 26
0.0
 36
0.0
 17
0.0
 27
1.0
 37
0.0
 76
     0
330
747D
  0
LAYOUT
  5
173D6
102
{ACAD_XDICTIONARY
360
2A7DC
102
}
102
{ACAD_REACTORS
330
173D3
102
}
330
173D3
100
AcDbPlotSettings
  1

  2
Microsoft Office Document Image Writer
  4

  6

 40
0.0
 41
0.0
 42
0.0
 43
0.0
 44
0.0
 45
0.0
 46
0.0
 47
0.0
 48
0.0
 49
0.0
140
0.0
141
0.0
142
1.0
143
1.0
 70
   688
 72
     0
 73
     0
 74
     5
  7

 75
    16
147
1.0
148
0.0
149
0.0
100
AcDbLayout
  1
レイアウト1
 70
     0
 71
     1
 10
0.0
 20
0.0
 11
420.0
 21
297.0
 12
0.0
 22
0.0
 32
0.0
 14
1.000000000000000E+20
 24
1.000000000000000E+20
 34
1.000000000000000E+20
 15
-1.000000000000000E+20
 25
-1.000000000000000E+20
 35
-1.000000000000000E+20
146
0.0
 13
0.0
 23
0.0
 33
0.0
 16
1.0
 26
0.0
 36
0.0
 17
0.0
 27
1.0
 37
0.0
 76
     0
330
747A
  0
MLINESTYLE
  5
7480
102
{ACAD_REACTORS
330
7473
102
}
330
7473
100
AcDbMlineStyle
  2
STANDARD
 70
     0
  3

 62
     0
 51
90.0
 52
90.0
 71
     2
 49
0.5
 62
   256
  6
BYLAYER
 49
-0.5
 62
   256
  6
BYLAYER
  0
ACDBPLACEHOLDER
  5
173D0
102
{ACAD_REACTORS
330
173CF
102
}
330
173CF
  0
XRECORD
  5
2A7D9
102
{ACAD_REACTORS
330
2A7D7
102
}
330
2A7D7
100
AcDbXrecord
280
     1
340
173D2
  0
XRECORD
  5
2A7D8
102
{ACAD_REACTORS
330
2A7D7
102
}
330
2A7D7
100
AcDbXrecord
280
     1
340
173D1
  0
DICTIONARYVAR
  5
2A615
102
{ACAD_REACTORS
330
2A614
102
}
330
2A614
100
DictionaryVariables
280
     0
  1
1
  0
DICTIONARYVAR
  5
2A616
102
{ACAD_REACTORS
330
2A614
102
}
330
2A614
100
DictionaryVariables
280
     0
  1

  0
DICTIONARY
  5
2A7DA
330
173D5
100
AcDbDictionary
280
     1
281
     1
  3
ACAD_XREC_ROUNDTRIP
360
2A7DB
  0
DICTIONARY
  5
2A7DC
330
173D6
100
AcDbDictionary
280
     1
281
     1
  3
ACAD_XREC_ROUNDTRIP
360
2A7DD
  0
XRECORD
  5
2A7DB
102
{ACAD_REACTORS
330
2A7DA
102
}
330
2A7DA
100
AcDbXrecord
280
     1
102
SHADEPLOT
 70
     1
102
SHADEPLOTRESLEVEL
 70
     2
102
SHADEPLOTCUSTOMDPI
 70
   300
  0
XRECORD
  5
2A7DD
102
{ACAD_REACTORS
330
2A7DC
102
}
330
2A7DC
100
AcDbXrecord
280
     1
102
SHADEPLOT
 70
     0
102
SHADEPLOTRESLEVEL
 70
     2
102
SHADEPLOTCUSTOMDPI
 70
   300
  0
ENDSEC
  0
EOF
