  0
SECTION
  2
HEADER
  9
$ACADVER
  1
AC1015
  9
$ACADMAINTVER
 70
    20
  9
$DWGCODEPAGE
  3
ANSI_932
  9
$INSBASE
 10
0.0
 20
0.0
 30
0.0
  9
$EXTMIN
 10
139.9999999999995
 20
-0.0000000000000909
 30
0.0
  9
$EXTMAX
 10
16307.2
 20
11409.6
 30
0.0
  9
$LIMMIN
 10
0.0
 20
0.0
  9
$LIMMAX
 10
16800.0
 20
11880.0
  9
$ORTHOMODE
 70
     0
  9
$REGENMODE
 70
     1
  9
$FILLMODE
 70
     1
  9
$QTEXTMODE
 70
     0
  9
$MIRRTEXT
 70
     1
  9
$LTSCALE
 40
20.0
  9
$ATTMODE
 70
     1
  9
$TEXTSIZE
 40
4.0
  9
$TRACEWID
 40
1.0
  9
$TEXTSTYLE
  7
STYLE1
  9
$CLAYER
  8
細線
  9
$CELTYPE
  6
BYLAYER
  9
$CECOLOR
 62
   256
  9
$CELTSCALE
 40
50.0
  9
$DISPSILH
 70
     0
  9
$DIMSCALE
 40
40.0
  9
$DIMASZ
 40
2.5
  9
$DIMEXO
 40
0.5
  9
$DIMDLI
 40
7.0
  9
$DIMRND
 40
0.0
  9
$DIMDLE
 40
0.0
  9
$DIMEXE
 40
1.5
  9
$DIMTP
 40
0.0
  9
$DIMTM
 40
0.0
  9
$DIMTXT
 40
3.0
  9
$DIMCEN
 40
0.0
  9
$DIMTSZ
 40
0.0
  9
$DIMTOL
 70
     0
  9
$DIMLIM
 70
     0
  9
$DIMTIH
 70
     0
  9
$DIMTOH
 70
     0
  9
$DIMSE1
 70
     0
  9
$DIMSE2
 70
     0
  9
$DIMTAD
 70
     3
  9
$DIMZIN
 70
     8
  9
$DIMBLK
  1

  9
$DIMASO
 70
     1
  9
$DIMSHO
 70
     1
  9
$DIMPOST
  1

  9
$DIMAPOST
  1

  9
$DIMALT
 70
     0
  9
$DIMALTD
 70
     2
  9
$DIMALTF
 40
0.0394
  9
$DIMLFAC
 40
1.0
  9
$DIMTOFL
 70
     1
  9
$DIMTVP
 40
0.0
  9
$DIMTIX
 70
     1
  9
$DIMSOXD
 70
     0
  9
$DIMSAH
 70
     1
  9
$DIMBLK1
  1
DOTSMALL
  9
$DIMBLK2
  1
DOTSMALL
  9
$DIMSTYLE
  2
INABA_S40G
  9
$DIMCLRD
 70
     0
  9
$DIMCLRE
 70
     0
  9
$DIMCLRT
 70
     7
  9
$DIMTFAC
 40
1.0
  9
$DIMGAP
 40
1.0
  9
$DIMJUST
 70
     0
  9
$DIMSD1
 70
     0
  9
$DIMSD2
 70
     0
  9
$DIMTOLJ
 70
     1
  9
$DIMTZIN
 70
     0
  9
$DIMALTZ
 70
     0
  9
$DIMALTTZ
 70
     0
  9
$DIMUPT
 70
     0
  9
$DIMDEC
 70
     1
  9
$DIMTDEC
 70
     4
  9
$DIMALTU
 70
     2
  9
$DIMALTTD
 70
     2
  9
$DIMTXSTY
  7
STYLE1
  9
$DIMAUNIT
 70
     0
  9
$DIMADEC
 70
     0
  9
$DIMALTRND
 40
0.0
  9
$DIMAZIN
 70
     0
  9
$DIMDSEP
 70
    46
  9
$DIMATFIT
 70
     3
  9
$DIMFRAC
 70
     0
  9
$DIMLDRBLK
  1

  9
$DIMLUNIT
 70
     2
  9
$DIMLWD
 70
    -2
  9
$DIMLWE
 70
    -2
  9
$DIMTMOVE
 70
     0
  9
$LUNITS
 70
     2
  9
$LUPREC
 70
     1
  9
$SKETCHINC
 40
1.0
  9
$FILLETRAD
 40
3.0
  9
$AUNITS
 70
     0
  9
$AUPREC
 70
     0
  9
$MENU
  1
acad
  9
$ELEVATION
 40
0.0
  9
$PELEVATION
 40
0.0
  9
$THICKNESS
 40
0.0
  9
$LIMCHECK
 70
     0
  9
$CHAMFERA
 40
0.0
  9
$CHAMFERB
 40
0.0
  9
$CHAMFERC
 40
0.0
  9
$CHAMFERD
 40
0.0
  9
$SKPOLY
 70
     0
  9
$TDCREATE
 40
2451368.612993866
  9
$TDUCREATE
 40
2451368.237993866
  9
$TDUPDATE
 40
2455827.764365011
  9
$TDUUPDATE
 40
2455827.389365011
  9
$TDINDWG
 40
0.8898763889
  9
$TDUSRTIMER
 40
0.8898756713
  9
$USRTIMER
 70
     1
  9
$ANGBASE
 50
0.0
  9
$ANGDIR
 70
     0
  9
$PDMODE
 70
     3
  9
$PDSIZE
 40
2.0
  9
$PLINEWID
 40
0.0
  9
$SPLFRAME
 70
     0
  9
$SPLINETYPE
 70
     6
  9
$SPLINESEGS
 70
     8
  9
$HANDSEED
  5
29852
  9
$SURFTAB1
 70
     6
  9
$SURFTAB2
 70
     6
  9
$SURFTYPE
 70
     6
  9
$SURFU
 70
     6
  9
$SURFV
 70
     6
  9
$UCSBASE
  2

  9
$UCSNAME
  2

  9
$UCSORG
 10
0.0
 20
0.0
 30
0.0
  9
$UCSXDIR
 10
1.0
 20
0.0
 30
0.0
  9
$UCSYDIR
 10
0.0
 20
1.0
 30
0.0
  9
$UCSORTHOREF
  2

  9
$UCSORTHOVIEW
 70
     0
  9
$UCSORGTOP
 10
0.0
 20
0.0
 30
0.0
  9
$UCSORGBOTTOM
 10
0.0
 20
0.0
 30
0.0
  9
$UCSORGLEFT
 10
0.0
 20
0.0
 30
0.0
  9
$UCSORGRIGHT
 10
0.0
 20
0.0
 30
0.0
  9
$UCSORGFRONT
 10
0.0
 20
0.0
 30
0.0
  9
$UCSORGBACK
 10
0.0
 20
0.0
 30
0.0
  9
$PUCSBASE
  2

  9
$PUCSNAME
  2

  9
$PUCSORG
 10
0.0
 20
0.0
 30
0.0
  9
$PUCSXDIR
 10
1.0
 20
0.0
 30
0.0
  9
$PUCSYDIR
 10
0.0
 20
1.0
 30
0.0
  9
$PUCSORTHOREF
  2

  9
$PUCSORTHOVIEW
 70
     0
  9
$PUCSORGTOP
 10
0.0
 20
0.0
 30
0.0
  9
$PUCSORGBOTTOM
 10
0.0
 20
0.0
 30
0.0
  9
$PUCSORGLEFT
 10
0.0
 20
0.0
 30
0.0
  9
$PUCSORGRIGHT
 10
0.0
 20
0.0
 30
0.0
  9
$PUCSORGFRONT
 10
0.0
 20
0.0
 30
0.0
  9
$PUCSORGBACK
 10
0.0
 20
0.0
 30
0.0
  9
$USERI1
 70
     0
  9
$USERI2
 70
     0
  9
$USERI3
 70
     0
  9
$USERI4
 70
     0
  9
$USERI5
 70
     0
  9
$USERR1
 40
0.0
  9
$USERR2
 40
0.0
  9
$USERR3
 40
0.0
  9
$USERR4
 40
0.0
  9
$USERR5
 40
0.0
  9
$WORLDVIEW
 70
     1
  9
$SHADEDGE
 70
     3
  9
$SHADEDIF
 70
    70
  9
$TILEMODE
 70
     1
  9
$MAXACTVP
 70
    16
  9
$PINSBASE
 10
0.0
 20
0.0
 30
0.0
  9
$PLIMCHECK
 70
     0
  9
$PEXTMIN
 10
1.000000000000000E+20
 20
1.000000000000000E+20
 30
1.000000000000000E+20
  9
$PEXTMAX
 10
-1.000000000000000E+20
 20
-1.000000000000000E+20
 30
-1.000000000000000E+20
  9
$PLIMMIN
 10
0.0
 20
0.0
  9
$PLIMMAX
 10
420.0
 20
297.0
  9
$UNITMODE
 70
     0
  9
$VISRETAIN
 70
     0
  9
$PLINEGEN
 70
     0
  9
$PSLTSCALE
 70
     0
  9
$TREEDEPTH
 70
  3020
  9
$CMLSTYLE
  2
STANDARD
  9
$CMLJUST
 70
     0
  9
$CMLSCALE
 40
1.0
  9
$PROXYGRAPHICS
 70
     1
  9
$MEASUREMENT
 70
     1
  9
$CELWEIGHT
370
    -1
  9
$ENDCAPS
280
     0
  9
$JOINSTYLE
280
     0
  9
$LWDISPLAY
290
     0
  9
$INSUNITS
 70
     0
  9
$HYPERLINKBASE
  1

  9
$STYLESHEET
  1
inaba.ctb
  9
$XEDIT
290
     1
  9
$CEPSNTYPE
380
     0
  9
$PSTYLEMODE
290
     1
  9
$FINGERPRINTGUID
  2
{5EAC461A-2277-4BF8-9AB0-99C43BB394F0}
  9
$VERSIONGUID
  2
{69A5C265-A2DC-4554-B642-CFCE0ECF2127}
  9
$EXTNAMES
290
     1
  9
$PSVPSCALE
 40
0.0
  9
$OLESTARTUP
290
     0
  0
ENDSEC
  0
SECTION
  2
CLASSES
  0
CLASS
  1
ACDBDICTIONARYWDFLT
  2
AcDbDictionaryWithDefault
  3
ObjectDBX Classes
 90
        0
280
     0
281
     0
  0
CLASS
  1
DICTIONARYVAR
  2
AcDbDictionaryVar
  3
ObjectDBX Classes
 90
        0
280
     0
281
     0
  0
CLASS
  1
ACDBPLACEHOLDER
  2
AcDbPlaceHolder
  3
ObjectDBX Classes
 90
        0
280
     0
281
     0
  0
CLASS
  1
LAYOUT
  2
AcDbLayout
  3
ObjectDBX Classes
 90
        0
280
     0
281
     0
  0
ENDSEC
  0
SECTION
  2
TABLES
  0
TABLE
  2
VPORT
  5
746D
330
0
100
AcDbSymbolTable
 70
     2
  0
VPORT
  5
2984A
330
746D
100
AcDbSymbolTableRecord
100
AcDbViewportTableRecord
  2
*Active
 70
     0
 10
0.0
 20
0.0
 11
1.0
 21
1.0
 12
9779.741870590704
 22
5704.796475140369
 13
0.0
 23
0.0
 14
10.0
 24
10.0
 15
10.0
 25
10.0
 16
0.0
 26
0.0
 36
1.0
 17
0.0
 27
0.0
 37
0.0
 40
11494.73464854293
 41
1.79295154185022
 42
50.0
 43
0.0
 44
0.0
 50
0.0
 51
0.0
 71
     0
 72
     0
 73
     1
 74
     0
 75
     0
 76
     0
 77
     0
 78
     0
281
     0
 65
     1
110
0.0
120
0.0
130
0.0
111
1.0
121
0.0
131
0.0
112
0.0
122
1.0
132
0.0
 79
     0
146
0.0
  0
ENDTAB
  0
TABLE
  2
LTYPE
  5
746A
330
0
100
AcDbSymbolTable
 70
     3
  0
LTYPE
  5
7477
330
746A
100
AcDbSymbolTableRecord
100
AcDbLinetypeTableRecord
  2
BYBLOCK
 70
     0
  3

 72
    65
 73
     0
 40
0.0
  0
LTYPE
  5
7478
330
746A
100
AcDbSymbolTableRecord
100
AcDbLinetypeTableRecord
  2
BYLAYER
 70
     0
  3

 72
    65
 73
     0
 40
0.0
  0
LTYPE
  5
7479
330
746A
100
AcDbSymbolTableRecord
100
AcDbLinetypeTableRecord
  2
CONTINUOUS
 70
     0
  3
Solid line
 72
    65
 73
     0
 40
0.0
  0
LTYPE
  5
7816
330
746A
100
AcDbSymbolTableRecord
100
AcDbLinetypeTableRecord
  2
CENTER
 70
     0
  3
____ _ ____ _ ____ _ ____ _ ____ _ ____ _ ____ 
 72
    65
 73
     4
 40
2.0
 49
1.25
 74
     0
 49
-0.25
 74
     0
 49
0.25
 74
     0
 49
-0.25
 74
     0
  0
LTYPE
  5
781B
330
746A
100
AcDbSymbolTableRecord
100
AcDbLinetypeTableRecord
  2
PHANTOM
 70
     0
  3
______  __  __  ______  __  __  ______  __  __ 
 72
    65
 73
     6
 40
2.5
 49
1.25
 74
     0
 49
-0.25
 74
     0
 49
0.25
 74
     0
 49
-0.25
 74
     0
 49
0.25
 74
     0
 49
-0.25
 74
     0
  0
ENDTAB
  0
TABLE
  2
LAYER
  5
7467
102
{ACAD_XDICTIONARY
360
1758F
102
}
330
0
100
AcDbSymbolTable
 70
    10
  0
LAYER
  5
7474
330
7467
100
AcDbSymbolTableRecord
100
AcDbLayerTableRecord
  2
0
 70
     0
 62
     7
  6
CONTINUOUS
370
    -3
390
173D0
  0
LAYER
  5
DEB2
330
7467
100
AcDbSymbolTableRecord
100
AcDbLayerTableRecord
  2
センター
 70
     0
 62
     3
  6
CENTER
370
    -3
390
173D0
  0
LAYER
  5
DEB3
330
7467
100
AcDbSymbolTableRecord
100
AcDbLayerTableRecord
  2
寸法
 70
     0
 62
     4
  6
CONTINUOUS
370
    -3
390
173D0
  0
LAYER
  5
DEB4
330
7467
100
AcDbSymbolTableRecord
100
AcDbLayerTableRecord
  2
部品1
 70
     0
 62
     7
  6
CONTINUOUS
370
    -3
390
173D0
  0
LAYER
  5
DEB5
330
7467
100
AcDbSymbolTableRecord
100
AcDbLayerTableRecord
  2
補助
 70
     0
 62
    -1
  6
CONTINUOUS
370
    -3
390
173D0
  0
LAYER
  5
DEB6
330
7467
100
AcDbSymbolTableRecord
100
AcDbLayerTableRecord
  2
文字
 70
     0
 62
     7
  6
CONTINUOUS
370
    -3
390
173D0
  0
LAYER
  5
F255
330
7467
100
AcDbSymbolTableRecord
100
AcDbLayerTableRecord
  2
DEFPOINTS
 70
     0
 62
     7
  6
CONTINUOUS
290
     0
370
    -3
390
173D0
  0
LAYER
  5
10B54
330
7467
100
AcDbSymbolTableRecord
100
AcDbLayerTableRecord
  2
仕様書枠
 70
     0
 62
   230
  6
CONTINUOUS
370
    -3
390
173D0
  0
LAYER
  5
1173F
330
7467
100
AcDbSymbolTableRecord
100
AcDbLayerTableRecord
  2
細線
 70
     0
 62
     5
  6
CONTINUOUS
370
    -3
390
173D0
  0
LAYER
  5
12CC4
330
7467
100
AcDbSymbolTableRecord
100
AcDbLayerTableRecord
  2
想像線
 70
     0
 62
     6
  6
PHANTOM
370
    -3
390
173D0
  0
ENDTAB
  0
TABLE
  2
STYLE
  5
7468
330
0
100
AcDbSymbolTable
 70
     4
  0
STYLE
  5
7475
330
7468
100
AcDbSymbolTableRecord
100
AcDbTextStyleTableRecord
  2
STANDARD
 70
     0
 40
0.0
 41
1.0
 50
0.0
 71
     0
 42
4.0
  3
txt
  4
C:\AutoCAD LT\bigfont.shx
  0
STYLE
  5
763C
330
7468
100
AcDbSymbolTableRecord
100
AcDbTextStyleTableRecord
  2
MSMINCHO
 70
     0
 40
0.0
 41
1.0
 50
0.0
 71
     0
 42
1.199999999999999
  3
C:\AutoCAD LT\msminch2.TTF
  4

  0
STYLE
  5
F706
330
7468
100
AcDbSymbolTableRecord
100
AcDbTextStyleTableRecord
  2
STYLE1
 70
     0
 40
0.0
 41
1.0
 50
0.0
 71
     0
 42
4.0
  3
isocp.shx
  4
bigfont.shx
  0
STYLE
  5
103BF
330
7468
100
AcDbSymbolTableRecord
100
AcDbTextStyleTableRecord
  2
STYLE2
 70
     0
 40
0.0
 41
1.0
 50
0.0
 71
     0
 42
100.0
  3
MS PGothic.ttf
  4

1001
ACAD
1000
MS PGothic
1071
    32818
  0
ENDTAB
  0
TABLE
  2
VIEW
  5
746B
330
0
100
AcDbSymbolTable
 70
     0
  0
ENDTAB
  0
TABLE
  2
UCS
  5
746C
330
0
100
AcDbSymbolTable
 70
     0
  0
ENDTAB
  0
TABLE
  2
APPID
  5
746E
330
0
100
AcDbSymbolTable
 70
     6
  0
APPID
  5
7476
330
746E
100
AcDbSymbolTableRecord
100
AcDbRegAppTableRecord
  2
ACAD
 70
     0
  0
APPID
  5
DEA9
330
746E
100
AcDbSymbolTableRecord
100
AcDbRegAppTableRecord
  2
CONTENTBLOCKICON
 70
     0
  0
APPID
  5
DEAA
330
746E
100
AcDbSymbolTableRecord
100
AcDbRegAppTableRecord
  2
CONTENTBLOCKDESCRIPTION
 70
     0
  0
APPID
  5
E71D
330
746E
100
AcDbSymbolTableRecord
100
AcDbRegAppTableRecord
  2
CONTENTTABDATA
 70
     0
  0
APPID
  5
E71E
330
746E
100
AcDbSymbolTableRecord
100
AcDbRegAppTableRecord
  2
CONTENTCURRENTTAB
 70
     0
  0
APPID
  5
F3BA
330
746E
100
AcDbSymbolTableRecord
100
AcDbRegAppTableRecord
  2
DRAWINGVARIABLESXDATA
 70
     0
  0
ENDTAB
  0
TABLE
  2
DIMSTYLE
  5
746F
330
0
100
AcDbSymbolTable
 70
     1
100
AcDbDimStyleTable
 71
     1
340
F71F
  0
DIMSTYLE
105
F71F
102
{ACAD_REACTORS
330
2954E
330
2954B
330
2954A
330
29548
330
29545
330
29542
330
29541
330
2953F
330
2953E
330
2953B
330
2953A
330
2952D
330
2952C
330
2952B
330
294E9
330
294D4
330
294D2
330
294CC
330
29433
330
28F02
330
27D82
330
27D16
330
2701E
330
26F7E
330
26F64
330
26F3F
330
26F1A
330
26F00
330
26522
330
2651E
330
26519
330
2650D
330
2650C
330
26508
330
2647E
330
2646B
330
26467
330
26459
330
26458
330
26457
330
26454
330
26452
330
26450
330
26236
330
2622F
330
261CE
330
261CD
330
261C9
330
261B9
330
261B5
330
261B2
330
261B1
330
261B0
330
1D2D6
330
1AC2C
330
1AC27
102
}
330
746F
100
AcDbSymbolTableRecord
100
AcDbDimStyleTableRecord
  2
INABA_S40G
 70
     0
 40
40.0
 41
2.5
 42
0.5
 43
7.0
 44
1.5
 73
     0
 74
     0
 77
     3
 78
     8
140
3.0
141
0.0
143
0.0394
147
1.0
172
     1
173
     1
174
     1
178
     7
271
     1
340
F706
341
F770
343
F770
344
F770
  0
ENDTAB
  0
TABLE
  2
BLOCK_RECORD
  5
7466
330
0
100
AcDbSymbolTable
 70
    40
  0
BLOCK_RECORD
  5
747D
330
7466
100
AcDbSymbolTableRecord
100
AcDbBlockTableRecord
  2
*MODEL_SPACE
340
173D5
  0
BLOCK_RECORD
  5
747A
330
7466
100
AcDbSymbolTableRecord
100
AcDbBlockTableRecord
  2
*PAPER_SPACE
340
173D6
  0
BLOCK_RECORD
  5
F770
330
7466
100
AcDbSymbolTableRecord
100
AcDbBlockTableRecord
  2
_DOTSMALL
340
0
102
{BLKREFS
331
296BC
331
296BD
331
296C5
331
296C6
331
296CE
331
296CF
331
296D7
331
296D8
331
296E0
331
296E1
331
296EB
331
296EC
331
296F4
331
296F5
331
296FD
331
296FE
331
29707
331
29708
331
29712
331
29713
331
2971D
331
2971E
331
29728
331
29729
331
29733
331
29734
331
2973E
331
2973F
331
29748
331
29749
331
29752
331
29753
331
2975C
331
2975D
331
29765
331
29766
331
2976E
331
2976F
331
29777
331
29778
331
29780
331
29781
331
29789
331
2978A
331
29793
331
29794
331
2979D
331
2979E
331
297A6
331
297A7
331
297B0
331
297B1
331
297B9
331
297BA
331
297C2
331
297C3
331
297CC
331
297CD
331
297D5
331
297D6
331
297DF
331
297E0
331
297E8
331
297E9
331
297F1
331
297F2
331
297FA
331
297FB
331
29803
331
29804
331
2980C
331
2980D
331
29816
331
29817
331
29820
331
29821
331
29829
331
2982A
102
}
  0
BLOCK_RECORD
  5
26523
330
7466
100
AcDbSymbolTableRecord
100
AcDbBlockTableRecord
  2
*D1
340
0
  0
BLOCK_RECORD
  5
2652E
330
7466
100
AcDbSymbolTableRecord
100
AcDbBlockTableRecord
  2
*D2
340
0
  0
BLOCK_RECORD
  5
2653B
330
7466
100
AcDbSymbolTableRecord
100
AcDbBlockTableRecord
  2
*D3
340
0
  0
BLOCK_RECORD
  5
26548
330
7466
100
AcDbSymbolTableRecord
100
AcDbBlockTableRecord
  2
*D4
340
0
  0
BLOCK_RECORD
  5
26553
330
7466
100
AcDbSymbolTableRecord
100
AcDbBlockTableRecord
  2
*D5
340
0
  0
BLOCK_RECORD
  5
2655E
330
7466
100
AcDbSymbolTableRecord
100
AcDbBlockTableRecord
  2
*D6
340
0
  0
BLOCK_RECORD
  5
26568
330
7466
100
AcDbSymbolTableRecord
100
AcDbBlockTableRecord
  2
*D7
340
0
  0
BLOCK_RECORD
  5
26573
330
7466
100
AcDbSymbolTableRecord
100
AcDbBlockTableRecord
  2
*D8
340
0
  0
BLOCK_RECORD
  5
2659F
330
7466
100
AcDbSymbolTableRecord
100
AcDbBlockTableRecord
  2
*D9
340
0
  0
BLOCK_RECORD
  5
265C5
330
7466
100
AcDbSymbolTableRecord
100
AcDbBlockTableRecord
  2
*D10
340
0
  0
BLOCK_RECORD
  5
265DA
330
7466
100
AcDbSymbolTableRecord
100
AcDbBlockTableRecord
  2
*D11
340
0
  0
BLOCK_RECORD
  5
265F4
330
7466
100
AcDbSymbolTableRecord
100
AcDbBlockTableRecord
  2
*D12
340
0
  0
BLOCK_RECORD
  5
26600
330
7466
100
AcDbSymbolTableRecord
100
AcDbBlockTableRecord
  2
*D13
340
0
  0
BLOCK_RECORD
  5
2660C
330
7466
100
AcDbSymbolTableRecord
100
AcDbBlockTableRecord
  2
*D14
340
0
  0
BLOCK_RECORD
  5
26619
330
7466
100
AcDbSymbolTableRecord
100
AcDbBlockTableRecord
  2
*D15
340
0
  0
BLOCK_RECORD
  5
26624
330
7466
100
AcDbSymbolTableRecord
100
AcDbBlockTableRecord
  2
*D16
340
0
  0
BLOCK_RECORD
  5
26631
330
7466
100
AcDbSymbolTableRecord
100
AcDbBlockTableRecord
  2
*D17
340
0
  0
BLOCK_RECORD
  5
2663E
330
7466
100
AcDbSymbolTableRecord
100
AcDbBlockTableRecord
  2
*D18
340
0
  0
BLOCK_RECORD
  5
26649
330
7466
100
AcDbSymbolTableRecord
100
AcDbBlockTableRecord
  2
*D19
340
0
  0
BLOCK_RECORD
  5
2667B
330
7466
100
AcDbSymbolTableRecord
100
AcDbBlockTableRecord
  2
*D20
340
0
  0
BLOCK_RECORD
  5
26687
330
7466
100
AcDbSymbolTableRecord
100
AcDbBlockTableRecord
  2
*D21
340
0
  0
BLOCK_RECORD
  5
26692
330
7466
100
AcDbSymbolTableRecord
100
AcDbBlockTableRecord
  2
*D22
340
0
  0
BLOCK_RECORD
  5
2669E
330
7466
100
AcDbSymbolTableRecord
100
AcDbBlockTableRecord
  2
*D23
340
0
  0
BLOCK_RECORD
  5
266AB
330
7466
100
AcDbSymbolTableRecord
100
AcDbBlockTableRecord
  2
*D24
340
0
  0
BLOCK_RECORD
  5
266B8
330
7466
100
AcDbSymbolTableRecord
100
AcDbBlockTableRecord
  2
*D25
340
0
  0
BLOCK_RECORD
  5
26F01
330
7466
100
AcDbSymbolTableRecord
100
AcDbBlockTableRecord
  2
*D26
340
0
  0
BLOCK_RECORD
  5
26F1B
330
7466
100
AcDbSymbolTableRecord
100
AcDbBlockTableRecord
  2
*D27
340
0
  0
BLOCK_RECORD
  5
26F40
330
7466
100
AcDbSymbolTableRecord
100
AcDbBlockTableRecord
  2
*D28
340
0
  0
BLOCK_RECORD
  5
26F65
330
7466
100
AcDbSymbolTableRecord
100
AcDbBlockTableRecord
  2
*D29
340
0
  0
BLOCK_RECORD
  5
26F7F
330
7466
100
AcDbSymbolTableRecord
100
AcDbBlockTableRecord
  2
*D30
340
0
  0
BLOCK_RECORD
  5
2701F
330
7466
100
AcDbSymbolTableRecord
100
AcDbBlockTableRecord
  2
*D31
340
0
  0
BLOCK_RECORD
  5
27D83
330
7466
100
AcDbSymbolTableRecord
100
AcDbBlockTableRecord
  2
*D32
340
0
  0
BLOCK_RECORD
  5
28FA9
330
7466
100
AcDbSymbolTableRecord
100
AcDbBlockTableRecord
  2
*D33
340
0
  0
BLOCK_RECORD
  5
29559
330
7466
100
AcDbSymbolTableRecord
100
AcDbBlockTableRecord
  2
*D34
340
0
  0
BLOCK_RECORD
  5
29565
330
7466
100
AcDbSymbolTableRecord
100
AcDbBlockTableRecord
  2
*D35
340
0
  0
BLOCK_RECORD
  5
29571
330
7466
100
AcDbSymbolTableRecord
100
AcDbBlockTableRecord
  2
*D36
340
0
  0
BLOCK_RECORD
  5
2957D
330
7466
100
AcDbSymbolTableRecord
100
AcDbBlockTableRecord
  2
*D37
340
0
  0
BLOCK_RECORD
  5
29589
330
7466
100
AcDbSymbolTableRecord
100
AcDbBlockTableRecord
  2
*D38
340
0
  0
BLOCK_RECORD
  5
29597
330
7466
100
AcDbSymbolTableRecord
100
AcDbBlockTableRecord
  2
*D39
340
0
  0
ENDTAB
  0
ENDSEC
  0
SECTION
  2
BLOCKS
  0
BLOCK
  5
7489
330
747D
100
AcDbEntity
  8
0
100
AcDbBlockBegin
  2
*MODEL_SPACE
 70
     0
 10
0.0
 20
0.0
 30
0.0
  3
*MODEL_SPACE
  1

  0
ENDBLK
  5
748A
330
747D
100
AcDbEntity
  8
0
100
AcDbBlockEnd
  0
BLOCK
  5
7487
330
747A
100
AcDbEntity
 67
     1
  8
0
100
AcDbBlockBegin
  2
*PAPER_SPACE
 70
     0
 10
0.0
 20
0.0
 30
0.0
  3
*PAPER_SPACE
  1

  0
ENDBLK
  5
7488
330
747A
100
AcDbEntity
 67
     1
  8
0
100
AcDbBlockEnd
  0
BLOCK
  5
F771
330
F770
100
AcDbEntity
  8
0
 48
50.0
100
AcDbBlockBegin
  2
_DOTSMALL
 70
     0
 10
0.0
 20
0.0
 30
0.0
  3
_DOTSMALL
  1

  0
LWPOLYLINE
  5
F772
330
F770
100
AcDbEntity
  8
0
  6
ByBlock
 62
     0
 48
50.0
100
AcDbPolyline
 90
        2
 70
     1
 43
0.5
 10
-0.0625
 20
0.0
 42
1.0
 10
0.0625
 20
0.0
 42
1.0
  0
ENDBLK
  5
F776
330
F770
100
AcDbEntity
  8
0
 48
50.0
100
AcDbBlockEnd
  0
BLOCK
  5
2652C
330
26523
100
AcDbEntity
  8
0
 48
50.0
100
AcDbBlockBegin
  2
*D1
 70
     1
 10
0.0
 20
0.0
 30
0.0
  3
*D1
  1

  0
LINE
  5
29826
330
26523
100
AcDbEntity
  8
寸法
 62
     0
 48
50.0
370
    -2
100
AcDbLine
 10
10735.6
 20
8344.513207084728
 30
0.0
 11
10735.6
 21
9203.272833626812
 31
0.0
  0
LINE
  5
29827
330
26523
100
AcDbEntity
  8
寸法
 62
     0
 48
50.0
370
    -2
100
AcDbLine
 10
8105.6
 20
8344.513207084728
 30
0.0
 11
8105.6
 21
9203.272833626812
 31
0.0
  0
LINE
  5
29828
330
26523
100
AcDbEntity
  8
寸法
 62
     0
 48
50.0
370
    -2
100
AcDbLine
 10
10735.6
 20
9143.272833626813
 30
0.0
 11
8105.6
 21
9143.272833626813
 31
0.0
  0
INSERT
  5
29829
330
26523
100
AcDbEntity
  8
寸法
 62
     0
 48
50.0
370
    -2
100
AcDbBlockReference
  2
_DOTSMALL
 10
10735.6
 20
9143.272833626813
 30
0.0
 41
100.0
 42
100.0
 43
100.0
  0
INSERT
  5
2982A
330
26523
100
AcDbEntity
  8
寸法
 62
     0
 48
50.0
370
    -2
100
AcDbBlockReference
  2
_DOTSMALL
 10
8105.6
 20
9143.272833626813
 30
0.0
 41
100.0
 42
100.0
 43
100.0
 50
180.0
  0
MTEXT
  5
2982B
330
26523
100
AcDbEntity
  8
寸法
 62
     7
 48
50.0
100
AcDbMText
 10
9420.6
 20
9243.284644650435
 30
0.0
 40
120.0
 41
0.0
 71
     5
 72
     1
  1
\A1;2630
  7
STYLE1
 73
     1
 44
1.0
1001
ACAD
1000
MTEXTBEGIN
1070
    73
1070
     1
1070
    44
1040
1.0
1070
    74
1070
     0
1000
MTEXTEND
  0
POINT
  5
2982C
330
26523
100
AcDbEntity
  8
DEFPOINTS
 62
     0
 48
50.0
100
AcDbPoint
 10
10735.6
 20
8324.513207084729
 30
0.0
  0
POINT
  5
2982D
330
26523
100
AcDbEntity
  8
DEFPOINTS
 62
     0
 48
50.0
100
AcDbPoint
 10
8105.6
 20
8324.513207084729
 30
0.0
  0
POINT
  5
2982E
330
26523
100
AcDbEntity
  8
DEFPOINTS
 62
     0
 48
50.0
100
AcDbPoint
 10
8105.6
 20
9143.272833626813
 30
0.0
  0
ENDBLK
  5
2652D
330
26523
100
AcDbEntity
  8
0
 48
50.0
100
AcDbBlockEnd
  0
BLOCK
  5
26539
330
2652E
100
AcDbEntity
  8
0
 48
50.0
100
AcDbBlockBegin
  2
*D2
 70
     1
 10
0.0
 20
0.0
 30
0.0
  3
*D2
  1

  0
LINE
  5
2981C
330
2652E
100
AcDbEntity
  8
寸法
 62
     0
 48
50.0
370
    -2
100
AcDbLine
 10
8762.599867447319
 20
5877.513207084741
 30
0.0
 11
8610.14438614211
 21
5877.513207084741
 31
0.0
  0
LINE
  5
2981D
330
2652E
100
AcDbEntity
  8
寸法
 62
     0
 48
50.0
370
    -2
100
AcDbLine
 10
8255.600000000001
 20
5987.513207084748
 30
0.0
 11
8730.144386142111
 21
5987.513207084748
 31
0.0
  0
LINE
  5
2981E
330
2652E
100
AcDbEntity
  8
寸法
 62
     0
 48
50.0
370
    -2
100
AcDbLine
 10
8670.14438614211
 20
5877.513207084741
 30
0.0
 11
8670.14438614211
 21
5987.513207084748
 31
0.0
  0
LINE
  5
2981F
330
2652E
100
AcDbEntity
  8
寸法
 62
     0
 48
50.0
370
    -2
100
AcDbLine
 10
8670.14438614211
 20
5987.513207084748
 30
0.0
 11
8670.14438614211
 21
6381.619506297358
 31
0.0
  0
INSERT
  5
29820
330
2652E
100
AcDbEntity
  8
寸法
 62
     0
 48
50.0
370
    -2
100
AcDbBlockReference
  2
_DOTSMALL
 10
8670.14438614211
 20
5877.513207084741
 30
0.0
 41
100.0
 42
100.0
 43
100.0
 50
270.0
  0
INSERT
  5
29821
330
2652E
100
AcDbEntity
  8
寸法
 62
     0
 48
50.0
370
    -2
100
AcDbBlockReference
  2
_DOTSMALL
 10
8670.14438614211
 20
5987.513207084748
 30
0.0
 41
100.0
 42
100.0
 43
100.0
 50
90.0
  0
MTEXT
  5
29822
330
2652E
100
AcDbEntity
  8
寸法
 62
     7
 48
50.0
100
AcDbMText
 10
8570.144386142109
 20
6257.57226220287
 30
0.0
 40
120.0
 41
0.0
 71
     5
 72
     1
  1
\A1;110
  7
STYLE1
 11
0.0000000000000001
 21
1.0
 31
0.0
 73
     1
 44
1.0
1001
ACAD
1000
MTEXTBEGIN
1070
    73
1070
     1
1070
    44
1040
1.0
1070
    74
1070
     0
1000
MTEXTEND
  0
POINT
  5
29823
330
2652E
100
AcDbEntity
  8
DEFPOINTS
 62
     0
 48
50.0
100
AcDbPoint
 10
8782.599867447318
 20
5877.513207084741
 30
0.0
  0
POINT
  5
29824
330
2652E
100
AcDbEntity
  8
DEFPOINTS
 62
     0
 48
50.0
100
AcDbPoint
 10
8235.600000000001
 20
5987.513207084748
 30
0.0
  0
POINT
  5
29825
330
2652E
100
AcDbEntity
  8
DEFPOINTS
 62
     0
 48
50.0
100
AcDbPoint
 10
8670.14438614211
 20
5987.513207084748
 30
0.0
  0
ENDBLK
  5
2653A
330
2652E
100
AcDbEntity
  8
0
 48
50.0
100
AcDbBlockEnd
  0
BLOCK
  5
26546
330
2653B
100
AcDbEntity
  8
0
 48
50.0
100
AcDbBlockBegin
  2
*D3
 70
     1
 10
0.0
 20
0.0
 30
0.0
  3
*D3
  1

  0
LINE
  5
29812
330
2653B
100
AcDbEntity
  8
寸法
 62
     0
 48
50.0
370
    -2
100
AcDbLine
 10
8327.41918098816
 20
5757.513207084755
 30
0.0
 11
8730.144386142111
 21
5757.513207084755
 31
0.0
  0
LINE
  5
29813
330
2653B
100
AcDbEntity
  8
寸法
 62
     0
 48
50.0
370
    -2
100
AcDbLine
 10
8762.599867447319
 20
5877.513207084741
 30
0.0
 11
8610.14438614211
 21
5877.513207084741
 31
0.0
  0
LINE
  5
29814
330
2653B
100
AcDbEntity
  8
寸法
 62
     0
 48
50.0
370
    -2
100
AcDbLine
 10
8670.14438614211
 20
5877.513207084741
 30
0.0
 11
8670.14438614211
 21
5757.513207084755
 31
0.0
  0
LINE
  5
29815
330
2653B
100
AcDbEntity
  8
寸法
 62
     0
 48
50.0
370
    -2
100
AcDbLine
 10
8670.14438614211
 20
5757.513207084755
 30
0.0
 11
8670.14438614211
 21
5285.177658022299
 31
0.0
  0
INSERT
  5
29816
330
2653B
100
AcDbEntity
  8
寸法
 62
     0
 48
50.0
370
    -2
100
AcDbBlockReference
  2
_DOTSMALL
 10
8670.14438614211
 20
5877.513207084741
 30
0.0
 41
100.0
 42
100.0
 43
100.0
 50
90.0
  0
INSERT
  5
29817
330
2653B
100
AcDbEntity
  8
寸法
 62
     0
 48
50.0
370
    -2
100
AcDbBlockReference
  2
_DOTSMALL
 10
8670.14438614211
 20
5757.513207084755
 30
0.0
 41
100.0
 42
100.0
 43
100.0
 50
270.0
  0
MTEXT
  5
29818
330
2653B
100
AcDbEntity
  8
寸法
 62
     7
 48
50.0
100
AcDbMText
 10
8570.132575118487
 20
5421.224902116788
 30
0.0
 40
120.0
 41
0.0
 71
     5
 72
     1
  1
\A1;120
  7
STYLE1
 11
0.0000000000000001
 21
1.0
 31
0.0
 73
     1
 44
1.0
1001
ACAD
1000
MTEXTBEGIN
1070
    73
1070
     1
1070
    44
1040
1.0
1070
    74
1070
     0
1000
MTEXTEND
  0
POINT
  5
29819
330
2653B
100
AcDbEntity
  8
DEFPOINTS
 62
     0
 48
50.0
100
AcDbPoint
 10
8307.41918098816
 20
5757.513207084755
 30
0.0
  0
POINT
  5
2981A
330
2653B
100
AcDbEntity
  8
DEFPOINTS
 62
     0
 48
50.0
100
AcDbPoint
 10
8782.599867447318
 20
5877.513207084741
 30
0.0
  0
POINT
  5
2981B
330
2653B
100
AcDbEntity
  8
DEFPOINTS
 62
     0
 48
50.0
100
AcDbPoint
 10
8670.14438614211
 20
5877.513207084741
 30
0.0
  0
ENDBLK
  5
26547
330
2653B
100
AcDbEntity
  8
0
 48
50.0
100
AcDbBlockEnd
  0
BLOCK
  5
26551
330
26548
100
AcDbEntity
  8
0
 48
50.0
100
AcDbBlockBegin
  2
*D4
 70
     1
 10
0.0
 20
0.0
 30
0.0
  3
*D4
  1

  0
LINE
  5
29809
330
26548
100
AcDbEntity
  8
寸法
 62
     0
 48
50.0
370
    -2
100
AcDbLine
 10
9123.600000000001
 20
7742.513207084728
 30
0.0
 11
9123.600000000001
 21
8984.422972733055
 31
0.0
  0
LINE
  5
2980A
330
26548
100
AcDbEntity
  8
寸法
 62
     0
 48
50.0
370
    -2
100
AcDbLine
 10
8223.600000000001
 20
7742.513207084728
 30
0.0
 11
8223.600000000001
 21
8984.422972733055
 31
0.0
  0
LINE
  5
2980B
330
26548
100
AcDbEntity
  8
寸法
 62
     0
 48
50.0
370
    -2
100
AcDbLine
 10
9123.600000000001
 20
8924.422972733054
 30
0.0
 11
8223.600000000001
 21
8924.422972733054
 31
0.0
  0
INSERT
  5
2980C
330
26548
100
AcDbEntity
  8
寸法
 62
     0
 48
50.0
370
    -2
100
AcDbBlockReference
  2
_DOTSMALL
 10
9123.600000000001
 20
8924.422972733054
 30
0.0
 41
100.0
 42
100.0
 43
100.0
  0
INSERT
  5
2980D
330
26548
100
AcDbEntity
  8
寸法
 62
     0
 48
50.0
370
    -2
100
AcDbBlockReference
  2
_DOTSMALL
 10
8223.600000000001
 20
8924.422972733054
 30
0.0
 41
100.0
 42
100.0
 43
100.0
 50
180.0
  0
MTEXT
  5
2980E
330
26548
100
AcDbEntity
  8
寸法
 62
     7
 48
50.0
100
AcDbMText
 10
8673.6
 20
9024.422972733054
 30
0.0
 40
120.0
 41
0.0
 71
     5
 72
     1
  1
\A1;900
  7
STYLE1
 73
     1
 44
1.0
1001
ACAD
1000
MTEXTBEGIN
1070
    73
1070
     1
1070
    44
1040
1.0
1070
    74
1070
     0
1000
MTEXTEND
  0
POINT
  5
2980F
330
26548
100
AcDbEntity
  8
DEFPOINTS
 62
     0
 48
50.0
100
AcDbPoint
 10
9123.600000000001
 20
7722.513207084728
 30
0.0
  0
POINT
  5
29810
330
26548
100
AcDbEntity
  8
DEFPOINTS
 62
     0
 48
50.0
100
AcDbPoint
 10
8223.600000000001
 20
7722.513207084728
 30
0.0
  0
POINT
  5
29811
330
26548
100
AcDbEntity
  8
DEFPOINTS
 62
     0
 48
50.0
100
AcDbPoint
 10
8223.600000000001
 20
8924.422972733054
 30
0.0
  0
ENDBLK
  5
26552
330
26548
100
AcDbEntity
  8
0
 48
50.0
100
AcDbBlockEnd
  0
BLOCK
  5
2655C
330
26553
100
AcDbEntity
  8
0
 48
50.0
100
AcDbBlockBegin
  2
*D5
 70
     1
 10
0.0
 20
0.0
 30
0.0
  3
*D5
  1

  0
LINE
  5
29800
330
26553
100
AcDbEntity
  8
寸法
 62
     0
 48
50.0
370
    -2
100
AcDbLine
 10
5588.6
 20
8417.513207084729
 30
0.0
 11
5588.6
 21
9415.733529143647
 31
0.0
  0
LINE
  5
29801
330
26553
100
AcDbEntity
  8
寸法
 62
     0
 48
50.0
370
    -2
100
AcDbLine
 10
10858.6
 20
8417.513207084729
 30
0.0
 11
10858.6
 21
9415.733529143647
 31
0.0
  0
LINE
  5
29802
330
26553
100
AcDbEntity
  8
寸法
 62
     0
 48
50.0
370
    -2
100
AcDbLine
 10
5588.6
 20
9355.733529143646
 30
0.0
 11
10858.6
 21
9355.733529143646
 31
0.0
  0
INSERT
  5
29803
330
26553
100
AcDbEntity
  8
寸法
 62
     0
 48
50.0
370
    -2
100
AcDbBlockReference
  2
_DOTSMALL
 10
5588.6
 20
9355.733529143646
 30
0.0
 41
100.0
 42
100.0
 43
100.0
 50
180.0
  0
INSERT
  5
29804
330
26553
100
AcDbEntity
  8
寸法
 62
     0
 48
50.0
370
    -2
100
AcDbBlockReference
  2
_DOTSMALL
 10
10858.6
 20
9355.733529143646
 30
0.0
 41
100.0
 42
100.0
 43
100.0
  0
MTEXT
  5
29805
330
26553
100
AcDbEntity
  8
寸法
 62
     7
 48
50.0
100
AcDbMText
 10
8223.600000000001
 20
9455.745340167268
 30
0.0
 40
120.0
 41
0.0
 71
     5
 72
     1
  1
\A1;5270
  7
STYLE1
 73
     1
 44
1.0
1001
ACAD
1000
MTEXTBEGIN
1070
    73
1070
     1
1070
    44
1040
1.0
1070
    74
1070
     0
1000
MTEXTEND
  0
POINT
  5
29806
330
26553
100
AcDbEntity
  8
DEFPOINTS
 62
     0
 48
50.0
100
AcDbPoint
 10
5588.6
 20
8397.513207084728
 30
0.0
  0
POINT
  5
29807
330
26553
100
AcDbEntity
  8
DEFPOINTS
 62
     0
 48
50.0
100
AcDbPoint
 10
10858.6
 20
8397.513207084728
 30
0.0
  0
POINT
  5
29808
330
26553
100
AcDbEntity
  8
DEFPOINTS
 62
     0
 48
50.0
100
AcDbPoint
 10
10858.6
 20
9355.733529143646
 30
0.0
  0
ENDBLK
  5
2655D
330
26553
100
AcDbEntity
  8
0
 48
50.0
100
AcDbBlockEnd
  0
BLOCK
  5
26566
330
2655E
100
AcDbEntity
  8
0
 48
50.0
100
AcDbBlockBegin
  2
*D6
 70
     1
 10
0.0
 20
0.0
 30
0.0
  3
*D6
  1

  0
LINE
  5
297F7
330
2655E
100
AcDbEntity
  8
寸法
 62
     0
 48
50.0
370
    -2
100
AcDbLine
 10
8235.600000000001
 20
6007.513207084747
 30
0.0
 11
8235.600000000001
 21
6242.360657588265
 31
0.0
  0
LINE
  5
297F8
330
2655E
100
AcDbEntity
  8
寸法
 62
     0
 48
50.0
370
    -2
100
AcDbLine
 10
7975.6
 20
6007.513207084747
 30
0.0
 11
7975.6
 21
6242.360657588265
 31
0.0
  0
LINE
  5
297F9
330
2655E
100
AcDbEntity
  8
寸法
 62
     0
 48
50.0
370
    -2
100
AcDbLine
 10
8235.600000000001
 20
6182.360657588265
 30
0.0
 11
7975.6
 21
6182.360657588265
 31
0.0
  0
INSERT
  5
297FA
330
2655E
100
AcDbEntity
  8
寸法
 62
     0
 48
50.0
370
    -2
100
AcDbBlockReference
  2
_DOTSMALL
 10
8235.600000000001
 20
6182.360657588265
 30
0.0
 41
100.0
 42
100.0
 43
100.0
  0
INSERT
  5
297FB
330
2655E
100
AcDbEntity
  8
寸法
 62
     0
 48
50.0
370
    -2
100
AcDbBlockReference
  2
_DOTSMALL
 10
7975.6
 20
6182.360657588265
 30
0.0
 41
100.0
 42
100.0
 43
100.0
 50
180.0
  0
MTEXT
  5
297FC
330
2655E
100
AcDbEntity
  8
寸法
 62
     7
 48
50.0
100
AcDbMText
 10
8105.6
 20
6282.372468611886
 30
0.0
 40
120.0
 41
0.0
 71
     5
 72
     1
  1
\A1;260
  7
STYLE1
 73
     1
 44
1.0
1001
ACAD
1000
MTEXTBEGIN
1070
    73
1070
     1
1070
    44
1040
1.0
1070
    74
1070
     0
1000
MTEXTEND
  0
POINT
  5
297FD
330
2655E
100
AcDbEntity
  8
DEFPOINTS
 62
     0
 48
50.0
100
AcDbPoint
 10
8235.600000000001
 20
5987.513207084748
 30
0.0
  0
POINT
  5
297FE
330
2655E
100
AcDbEntity
  8
DEFPOINTS
 62
     0
 48
50.0
100
AcDbPoint
 10
7975.6
 20
5987.513207084748
 30
0.0
  0
POINT
  5
297FF
330
2655E
100
AcDbEntity
  8
DEFPOINTS
 62
     0
 48
50.0
100
AcDbPoint
 10
7975.6
 20
6182.360657588265
 30
0.0
  0
ENDBLK
  5
26567
330
2655E
100
AcDbEntity
  8
0
 48
50.0
100
AcDbBlockEnd
  0
BLOCK
  5
26571
330
26568
100
AcDbEntity
  8
0
 48
50.0
100
AcDbBlockBegin
  2
*D7
 70
     1
 10
0.0
 20
0.0
 30
0.0
  3
*D7
  1

  0
LINE
  5
297EE
330
26568
100
AcDbEntity
  8
寸法
 62
     0
 48
50.0
370
    -2
100
AcDbLine
 10
5568.6
 20
8397.513207084728
 30
0.0
 11
4780.714637266785
 21
8397.513207084728
 31
0.0
  0
LINE
  5
297EF
330
26568
100
AcDbEntity
  8
寸法
 62
     0
 48
50.0
370
    -2
100
AcDbLine
 10
5568.6
 20
5757.51320708473
 30
0.0
 11
4780.714637266783
 21
5757.51320708473
 31
0.0
  0
LINE
  5
297F0
330
26568
100
AcDbEntity
  8
寸法
 62
     0
 48
50.0
370
    -2
100
AcDbLine
 10
4840.714637266785
 20
8397.513207084728
 30
0.0
 11
4840.714637266784
 21
5757.51320708473
 31
0.0
  0
INSERT
  5
297F1
330
26568
100
AcDbEntity
  8
寸法
 62
     0
 48
50.0
370
    -2
100
AcDbBlockReference
  2
_DOTSMALL
 10
4840.714637266785
 20
8397.513207084728
 30
0.0
 41
100.0
 42
100.0
 43
100.0
 50
90.0
  0
INSERT
  5
297F2
330
26568
100
AcDbEntity
  8
寸法
 62
     0
 48
50.0
370
    -2
100
AcDbBlockReference
  2
_DOTSMALL
 10
4840.714637266784
 20
5757.51320708473
 30
0.0
 41
100.0
 42
100.0
 43
100.0
 50
270.0
  0
MTEXT
  5
297F3
330
26568
100
AcDbEntity
  8
寸法
 62
     7
 48
50.0
100
AcDbMText
 10
4740.702826243161
 20
7077.513207084729
 30
0.0
 40
120.0
 41
0.0
 71
     5
 72
     1
  1
\A1;2640
  7
STYLE1
 11
0.0000000000000001
 21
1.0
 31
0.0
 73
     1
 44
1.0
1001
ACAD
1000
MTEXTBEGIN
1070
    73
1070
     1
1070
    44
1040
1.0
1070
    74
1070
     0
1000
MTEXTEND
  0
POINT
  5
297F4
330
26568
100
AcDbEntity
  8
DEFPOINTS
 62
     0
 48
50.0
100
AcDbPoint
 10
5588.6
 20
8397.513207084728
 30
0.0
  0
POINT
  5
297F5
330
26568
100
AcDbEntity
  8
DEFPOINTS
 62
     0
 48
50.0
100
AcDbPoint
 10
5588.6
 20
5757.51320708473
 30
0.0
  0
POINT
  5
297F6
330
26568
100
AcDbEntity
  8
DEFPOINTS
 62
     0
 48
50.0
100
AcDbPoint
 10
4840.714637266784
 20
5757.51320708473
 30
0.0
  0
ENDBLK
  5
26572
330
26568
100
AcDbEntity
  8
0
 48
50.0
100
AcDbBlockEnd
  0
BLOCK
  5
2657D
330
26573
100
AcDbEntity
  8
0
 48
50.0
100
AcDbBlockBegin
  2
*D8
 70
     1
 10
0.0
 20
0.0
 30
0.0
  3
*D8
  1

  0
LINE
  5
297E5
330
26573
100
AcDbEntity
  8
寸法
 62
     0
 48
50.0
370
    -2
100
AcDbLine
 10
5641.6
 20
8274.513207084728
 30
0.0
 11
5032.657733986184
 21
8274.513207084728
 31
0.0
  0
LINE
  5
297E6
330
26573
100
AcDbEntity
  8
寸法
 62
     0
 48
50.0
370
    -2
100
AcDbLine
 10
5641.600000000007
 20
5880.513207084732
 30
0.0
 11
5032.657733986184
 21
5880.513207084732
 31
0.0
  0
LINE
  5
297E7
330
26573
100
AcDbEntity
  8
寸法
 62
     0
 48
50.0
370
    -2
100
AcDbLine
 10
5092.657733986184
 20
8274.513207084728
 30
0.0
 11
5092.657733986183
 21
5880.513207084732
 31
0.0
  0
INSERT
  5
297E8
330
26573
100
AcDbEntity
  8
寸法
 62
     0
 48
50.0
370
    -2
100
AcDbBlockReference
  2
_DOTSMALL
 10
5092.657733986184
 20
8274.513207084728
 30
0.0
 41
100.0
 42
100.0
 43
100.0
 50
90.0
  0
INSERT
  5
297E9
330
26573
100
AcDbEntity
  8
寸法
 62
     0
 48
50.0
370
    -2
100
AcDbBlockReference
  2
_DOTSMALL
 10
5092.657733986183
 20
5880.513207084732
 30
0.0
 41
100.0
 42
100.0
 43
100.0
 50
270.0
  0
MTEXT
  5
297EA
330
26573
100
AcDbEntity
  8
寸法
 62
     7
 48
50.0
100
AcDbMText
 10
4992.645922962561
 20
7077.513207084729
 30
0.0
 40
120.0
 41
0.0
 71
     5
 72
     1
  1
\A1;2394
  7
STYLE1
 11
0.0000000000000001
 21
1.0
 31
0.0
 73
     1
 44
1.0
1001
ACAD
1000
MTEXTBEGIN
1070
    73
1070
     1
1070
    44
1040
1.0
1070
    74
1070
     0
1000
MTEXTEND
  0
POINT
  5
297EB
330
26573
100
AcDbEntity
  8
DEFPOINTS
 62
     0
 48
50.0
100
AcDbPoint
 10
5661.6
 20
8274.513207084728
 30
0.0
  0
POINT
  5
297EC
330
26573
100
AcDbEntity
  8
DEFPOINTS
 62
     0
 48
50.0
100
AcDbPoint
 10
5661.600000000007
 20
5880.513207084732
 30
0.0
  0
POINT
  5
297ED
330
26573
100
AcDbEntity
  8
DEFPOINTS
 62
     0
 48
50.0
100
AcDbPoint
 10
5092.657733986183
 20
5880.513207084732
 30
0.0
  0
ENDBLK
  5
2657E
330
26573
100
AcDbEntity
  8
0
 48
50.0
100
AcDbBlockEnd
  0
BLOCK
  5
265AA
330
2659F
100
AcDbEntity
  8
0
 48
50.0
100
AcDbBlockBegin
  2
*D9
 70
     1
 10
0.0
 20
0.0
 30
0.0
  3
*D9
  1

  0
LINE
  5
297DB
330
2659F
100
AcDbEntity
  8
寸法
 62
     0
 48
50.0
370
    -2
100
AcDbLine
 10
5641.600000000007
 20
5880.513207084732
 30
0.0
 11
5032.657733986178
 21
5880.513207084732
 31
0.0
  0
LINE
  5
297DC
330
2659F
100
AcDbEntity
  8
寸法
 62
     0
 48
50.0
370
    -2
100
AcDbLine
 10
5568.6
 20
5757.51320708473
 30
0.0
 11
5032.657733986178
 21
5757.51320708473
 31
0.0
  0
LINE
  5
297DD
330
2659F
100
AcDbEntity
  8
寸法
 62
     0
 48
50.0
370
    -2
100
AcDbLine
 10
5092.657733986179
 20
5880.513207084732
 30
0.0
 11
5092.657733986179
 21
5757.51320708473
 31
0.0
  0
LINE
  5
297DE
330
2659F
100
AcDbEntity
  8
寸法
 62
     0
 48
50.0
370
    -2
100
AcDbLine
 10
5092.657733986179
 20
5757.51320708473
 30
0.0
 11
5092.657733986179
 21
5283.496976867897
 31
0.0
  0
INSERT
  5
297DF
330
2659F
100
AcDbEntity
  8
寸法
 62
     0
 48
50.0
370
    -2
100
AcDbBlockReference
  2
_DOTSMALL
 10
5092.657733986179
 20
5880.513207084732
 30
0.0
 41
100.0
 42
100.0
 43
100.0
 50
90.0
  0
INSERT
  5
297E0
330
2659F
100
AcDbEntity
  8
寸法
 62
     0
 48
50.0
370
    -2
100
AcDbBlockReference
  2
_DOTSMALL
 10
5092.657733986179
 20
5757.51320708473
 30
0.0
 41
100.0
 42
100.0
 43
100.0
 50
270.0
  0
MTEXT
  5
297E1
330
2659F
100
AcDbEntity
  8
寸法
 62
     7
 48
50.0
100
AcDbMText
 10
4992.645922962556
 20
5421.982258242136
 30
0.0
 40
120.0
 41
0.0
 71
     5
 72
     1
  1
\A1;123
  7
STYLE1
 11
0.0000000000000001
 21
1.0
 31
0.0
 73
     1
 44
1.0
1001
ACAD
1000
MTEXTBEGIN
1070
    73
1070
     1
1070
    44
1040
1.0
1070
    74
1070
     0
1000
MTEXTEND
  0
POINT
  5
297E2
330
2659F
100
AcDbEntity
  8
DEFPOINTS
 62
     0
 48
50.0
100
AcDbPoint
 10
5661.600000000007
 20
5880.513207084732
 30
0.0
  0
POINT
  5
297E3
330
2659F
100
AcDbEntity
  8
DEFPOINTS
 62
     0
 48
50.0
100
AcDbPoint
 10
5588.6
 20
5757.51320708473
 30
0.0
  0
POINT
  5
297E4
330
2659F
100
AcDbEntity
  8
DEFPOINTS
 62
     0
 48
50.0
100
AcDbPoint
 10
5092.657733986179
 20
5757.51320708473
 30
0.0
  0
ENDBLK
  5
265AB
330
2659F
100
AcDbEntity
  8
0
 48
50.0
100
AcDbBlockEnd
  0
BLOCK
  5
265CE
330
265C5
100
AcDbEntity
  8
0
 48
50.0
100
AcDbBlockBegin
  2
*D10
 70
     1
 10
0.0
 20
0.0
 30
0.0
  3
*D10
  1

  0
LINE
  5
297D2
330
265C5
100
AcDbEntity
  8
寸法
 62
     0
 48
50.0
370
    -2
100
AcDbLine
 10
6041.6
 20
5662.513207084717
 30
0.0
 11
6041.6
 21
5137.668192742538
 31
0.0
  0
LINE
  5
297D3
330
265C5
100
AcDbEntity
  8
寸法
 62
     0
 48
50.0
370
    -2
100
AcDbLine
 10
5588.6
 20
5737.513207084729
 30
0.0
 11
5588.6
 21
5137.668192742538
 31
0.0
  0
LINE
  5
297D4
330
265C5
100
AcDbEntity
  8
寸法
 62
     0
 48
50.0
370
    -2
100
AcDbLine
 10
6041.6
 20
5197.668192742538
 30
0.0
 11
5588.6
 21
5197.668192742538
 31
0.0
  0
INSERT
  5
297D5
330
265C5
100
AcDbEntity
  8
寸法
 62
     0
 48
50.0
370
    -2
100
AcDbBlockReference
  2
_DOTSMALL
 10
6041.6
 20
5197.668192742538
 30
0.0
 41
100.0
 42
100.0
 43
100.0
  0
INSERT
  5
297D6
330
265C5
100
AcDbEntity
  8
寸法
 62
     0
 48
50.0
370
    -2
100
AcDbBlockReference
  2
_DOTSMALL
 10
5588.6
 20
5197.668192742538
 30
0.0
 41
100.0
 42
100.0
 43
100.0
 50
180.0
  0
MTEXT
  5
297D7
330
265C5
100
AcDbEntity
  8
寸法
 62
     7
 48
50.0
100
AcDbMText
 10
5815.100000000001
 20
5297.668192742538
 30
0.0
 40
120.0
 41
0.0
 71
     5
 72
     1
  1
\A1;453
  7
STYLE1
 73
     1
 44
1.0
1001
ACAD
1000
MTEXTBEGIN
1070
    73
1070
     1
1070
    44
1040
1.0
1070
    74
1070
     0
1000
MTEXTEND
  0
POINT
  5
297D8
330
265C5
100
AcDbEntity
  8
DEFPOINTS
 62
     0
 48
50.0
100
AcDbPoint
 10
6041.6
 20
5682.513207084717
 30
0.0
  0
POINT
  5
297D9
330
265C5
100
AcDbEntity
  8
DEFPOINTS
 62
     0
 48
50.0
100
AcDbPoint
 10
5588.6
 20
5757.51320708473
 30
0.0
  0
POINT
  5
297DA
330
265C5
100
AcDbEntity
  8
DEFPOINTS
 62
     0
 48
50.0
100
AcDbPoint
 10
5588.6
 20
5197.668192742538
 30
0.0
  0
ENDBLK
  5
265CF
330
265C5
100
AcDbEntity
  8
0
 48
50.0
100
AcDbBlockEnd
  0
BLOCK
  5
265E5
330
265DA
100
AcDbEntity
  8
0
 48
50.0
100
AcDbBlockBegin
  2
*D11
 70
     1
 10
0.0
 20
0.0
 30
0.0
  3
*D11
  1

  0
LINE
  5
297C8
330
265DA
100
AcDbEntity
  8
寸法
 62
     0
 48
50.0
370
    -2
100
AcDbLine
 10
5568.6
 20
8397.513207084728
 30
0.0
 11
5032.657733986178
 21
8397.513207084728
 31
0.0
  0
LINE
  5
297C9
330
265DA
100
AcDbEntity
  8
寸法
 62
     0
 48
50.0
370
    -2
100
AcDbLine
 10
5641.6
 20
8274.513207084728
 30
0.0
 11
5032.657733986178
 21
8274.513207084728
 31
0.0
  0
LINE
  5
297CA
330
265DA
100
AcDbEntity
  8
寸法
 62
     0
 48
50.0
370
    -2
100
AcDbLine
 10
5092.657733986179
 20
8274.513207084728
 30
0.0
 11
5092.657733986179
 21
8397.513207084728
 31
0.0
  0
LINE
  5
297CB
330
265DA
100
AcDbEntity
  8
寸法
 62
     0
 48
50.0
370
    -2
100
AcDbLine
 10
5092.657733986179
 20
8397.513207084728
 30
0.0
 11
5092.657733986179
 21
8809.105090176764
 31
0.0
  0
INSERT
  5
297CC
330
265DA
100
AcDbEntity
  8
寸法
 62
     0
 48
50.0
370
    -2
100
AcDbBlockReference
  2
_DOTSMALL
 10
5092.657733986179
 20
8274.513207084728
 30
0.0
 41
100.0
 42
100.0
 43
100.0
 50
270.0
  0
INSERT
  5
297CD
330
265DA
100
AcDbEntity
  8
寸法
 62
     0
 48
50.0
370
    -2
100
AcDbBlockReference
  2
_DOTSMALL
 10
5092.657733986179
 20
8397.513207084728
 30
0.0
 41
100.0
 42
100.0
 43
100.0
 50
90.0
  0
MTEXT
  5
297CE
330
265DA
100
AcDbEntity
  8
寸法
 62
     7
 48
50.0
100
AcDbMText
 10
4992.645922962556
 20
8670.619808802529
 30
0.0
 40
120.0
 41
0.0
 71
     5
 72
     1
  1
\A1;123
  7
STYLE1
 11
0.0000000000000001
 21
1.0
 31
0.0
 73
     1
 44
1.0
1001
ACAD
1000
MTEXTBEGIN
1070
    73
1070
     1
1070
    44
1040
1.0
1070
    74
1070
     0
1000
MTEXTEND
  0
POINT
  5
297CF
330
265DA
100
AcDbEntity
  8
DEFPOINTS
 62
     0
 48
50.0
100
AcDbPoint
 10
5588.6
 20
8397.513207084728
 30
0.0
  0
POINT
  5
297D0
330
265DA
100
AcDbEntity
  8
DEFPOINTS
 62
     0
 48
50.0
100
AcDbPoint
 10
5661.6
 20
8274.513207084728
 30
0.0
  0
POINT
  5
297D1
330
265DA
100
AcDbEntity
  8
DEFPOINTS
 62
     0
 48
50.0
100
AcDbPoint
 10
5092.657733986179
 20
8274.513207084728
 30
0.0
  0
ENDBLK
  5
265E6
330
265DA
100
AcDbEntity
  8
0
 48
50.0
100
AcDbBlockEnd
  0
BLOCK
  5
265FE
330
265F4
100
AcDbEntity
  8
0
 48
50.0
100
AcDbBlockBegin
  2
*D12
 70
     1
 10
0.0
 20
0.0
 30
0.0
  3
*D12
  1

  0
LINE
  5
297BF
330
265F4
100
AcDbEntity
  8
寸法
 62
     0
 48
50.0
370
    -2
100
AcDbLine
 10
7323.6
 20
7742.513207084728
 30
0.0
 11
7323.6
 21
8984.422972733055
 31
0.0
  0
LINE
  5
297C0
330
265F4
100
AcDbEntity
  8
寸法
 62
     0
 48
50.0
370
    -2
100
AcDbLine
 10
6493.6
 20
7742.513207084728
 30
0.0
 11
6493.6
 21
8984.422972733055
 31
0.0
  0
LINE
  5
297C1
330
265F4
100
AcDbEntity
  8
寸法
 62
     0
 48
50.0
370
    -2
100
AcDbLine
 10
7323.6
 20
8924.422972733054
 30
0.0
 11
6493.6
 21
8924.422972733054
 31
0.0
  0
INSERT
  5
297C2
330
265F4
100
AcDbEntity
  8
寸法
 62
     0
 48
50.0
370
    -2
100
AcDbBlockReference
  2
_DOTSMALL
 10
7323.6
 20
8924.422972733054
 30
0.0
 41
100.0
 42
100.0
 43
100.0
  0
INSERT
  5
297C3
330
265F4
100
AcDbEntity
  8
寸法
 62
     0
 48
50.0
370
    -2
100
AcDbBlockReference
  2
_DOTSMALL
 10
6493.6
 20
8924.422972733054
 30
0.0
 41
100.0
 42
100.0
 43
100.0
 50
180.0
  0
MTEXT
  5
297C4
330
265F4
100
AcDbEntity
  8
寸法
 62
     7
 48
50.0
100
AcDbMText
 10
6908.599999999999
 20
9024.422972733054
 30
0.0
 40
120.0
 41
0.0
 71
     5
 72
     1
  1
\A1;830
  7
STYLE1
 73
     1
 44
1.0
1001
ACAD
1000
MTEXTBEGIN
1070
    73
1070
     1
1070
    44
1040
1.0
1070
    74
1070
     0
1000
MTEXTEND
  0
POINT
  5
297C5
330
265F4
100
AcDbEntity
  8
DEFPOINTS
 62
     0
 48
50.0
100
AcDbPoint
 10
7323.6
 20
7722.513207084728
 30
0.0
  0
POINT
  5
297C6
330
265F4
100
AcDbEntity
  8
DEFPOINTS
 62
     0
 48
50.0
100
AcDbPoint
 10
6493.6
 20
7722.513207084728
 30
0.0
  0
POINT
  5
297C7
330
265F4
100
AcDbEntity
  8
DEFPOINTS
 62
     0
 48
50.0
100
AcDbPoint
 10
6493.6
 20
8924.422972733054
 30
0.0
  0
ENDBLK
  5
265FF
330
265F4
100
AcDbEntity
  8
0
 48
50.0
100
AcDbBlockEnd
  0
BLOCK
  5
2660A
330
26600
100
AcDbEntity
  8
0
 48
50.0
100
AcDbBlockBegin
  2
*D13
 70
     1
 10
0.0
 20
0.0
 30
0.0
  3
*D13
  1

  0
LINE
  5
297B6
330
26600
100
AcDbEntity
  8
寸法
 62
     0
 48
50.0
370
    -2
100
AcDbLine
 10
8105.6
 20
8344.513207084728
 30
0.0
 11
8105.6
 21
9203.272833626812
 31
0.0
  0
LINE
  5
297B7
330
26600
100
AcDbEntity
  8
寸法
 62
     0
 48
50.0
370
    -2
100
AcDbLine
 10
5711.6
 20
8344.513207084728
 30
0.0
 11
5711.6
 21
9203.272833626812
 31
0.0
  0
LINE
  5
297B8
330
26600
100
AcDbEntity
  8
寸法
 62
     0
 48
50.0
370
    -2
100
AcDbLine
 10
8105.6
 20
9143.272833626813
 30
0.0
 11
5711.6
 21
9143.272833626813
 31
0.0
  0
INSERT
  5
297B9
330
26600
100
AcDbEntity
  8
寸法
 62
     0
 48
50.0
370
    -2
100
AcDbBlockReference
  2
_DOTSMALL
 10
8105.6
 20
9143.272833626813
 30
0.0
 41
100.0
 42
100.0
 43
100.0
  0
INSERT
  5
297BA
330
26600
100
AcDbEntity
  8
寸法
 62
     0
 48
50.0
370
    -2
100
AcDbBlockReference
  2
_DOTSMALL
 10
5711.6
 20
9143.272833626813
 30
0.0
 41
100.0
 42
100.0
 43
100.0
 50
180.0
  0
MTEXT
  5
297BB
330
26600
100
AcDbEntity
  8
寸法
 62
     7
 48
50.0
100
AcDbMText
 10
6908.599999999999
 20
9243.284644650435
 30
0.0
 40
120.0
 41
0.0
 71
     5
 72
     1
  1
\A1;2394
  7
STYLE1
 73
     1
 44
1.0
1001
ACAD
1000
MTEXTBEGIN
1070
    73
1070
     1
1070
    44
1040
1.0
1070
    74
1070
     0
1000
MTEXTEND
  0
POINT
  5
297BC
330
26600
100
AcDbEntity
  8
DEFPOINTS
 62
     0
 48
50.0
100
AcDbPoint
 10
8105.6
 20
8324.513207084729
 30
0.0
  0
POINT
  5
297BD
330
26600
100
AcDbEntity
  8
DEFPOINTS
 62
     0
 48
50.0
100
AcDbPoint
 10
5711.6
 20
8324.513207084729
 30
0.0
  0
POINT
  5
297BE
330
26600
100
AcDbEntity
  8
DEFPOINTS
 62
     0
 48
50.0
100
AcDbPoint
 10
5711.6
 20
9143.272833626813
 30
0.0
  0
ENDBLK
  5
2660B
330
26600
100
AcDbEntity
  8
0
 48
50.0
100
AcDbBlockEnd
  0
BLOCK
  5
26617
330
2660C
100
AcDbEntity
  8
0
 48
50.0
100
AcDbBlockBegin
  2
*D14
 70
     1
 10
0.0
 20
0.0
 30
0.0
  3
*D14
  1

  0
LINE
  5
297AC
330
2660C
100
AcDbEntity
  8
寸法
 62
     0
 48
50.0
370
    -2
100
AcDbLine
 10
5838.599999999999
 20
8277.513207084727
 30
0.0
 11
6095.307249876099
 21
8277.513207084727
 31
0.0
  0
LINE
  5
297AD
330
2660C
100
AcDbEntity
  8
寸法
 62
     0
 48
50.0
370
    -2
100
AcDbLine
 10
5838.600000000003
 20
8397.513207084726
 30
0.0
 11
6095.307249876099
 21
8397.513207084726
 31
0.0
  0
LINE
  5
297AE
330
2660C
100
AcDbEntity
  8
寸法
 62
     0
 48
50.0
370
    -2
100
AcDbLine
 10
6035.307249876098
 20
8277.513207084727
 30
0.0
 11
6035.307249876098
 21
8397.513207084726
 31
0.0
  0
LINE
  5
297AF
330
2660C
100
AcDbEntity
  8
寸法
 62
     0
 48
50.0
370
    -2
100
AcDbLine
 10
6035.307249876098
 20
8397.513207084726
 30
0.0
 11
6035.307249876098
 21
8811.643994452101
 31
0.0
  0
INSERT
  5
297B0
330
2660C
100
AcDbEntity
  8
寸法
 62
     0
 48
50.0
370
    -2
100
AcDbBlockReference
  2
_DOTSMALL
 10
6035.307249876098
 20
8277.513207084727
 30
0.0
 41
100.0
 42
100.0
 43
100.0
 50
270.0
  0
INSERT
  5
297B1
330
2660C
100
AcDbEntity
  8
寸法
 62
     0
 48
50.0
370
    -2
100
AcDbBlockReference
  2
_DOTSMALL
 10
6035.307249876098
 20
8397.513207084726
 30
0.0
 41
100.0
 42
100.0
 43
100.0
 50
90.0
  0
MTEXT
  5
297B2
330
2660C
100
AcDbEntity
  8
寸法
 62
     7
 48
50.0
100
AcDbMText
 10
5935.295438852476
 20
8675.596750357614
 30
0.0
 40
120.0
 41
0.0
 71
     5
 72
     1
  1
\A1;120
  7
STYLE1
 11
0.0000000000000001
 21
1.0
 31
0.0
 73
     1
 44
1.0
1001
ACAD
1000
MTEXTBEGIN
1070
    73
1070
     1
1070
    44
1040
1.0
1070
    74
1070
     0
1000
MTEXTEND
  0
POINT
  5
297B3
330
2660C
100
AcDbEntity
  8
DEFPOINTS
 62
     0
 48
50.0
100
AcDbPoint
 10
5818.599999999999
 20
8277.513207084727
 30
0.0
  0
POINT
  5
297B4
330
2660C
100
AcDbEntity
  8
DEFPOINTS
 62
     0
 48
50.0
100
AcDbPoint
 10
5818.600000000002
 20
8397.513207084726
 30
0.0
  0
POINT
  5
297B5
330
2660C
100
AcDbEntity
  8
DEFPOINTS
 62
     0
 48
50.0
100
AcDbPoint
 10
6035.307249876098
 20
8397.513207084726
 30
0.0
  0
ENDBLK
  5
26618
330
2660C
100
AcDbEntity
  8
0
 48
50.0
100
AcDbBlockEnd
  0
BLOCK
  5
26622
330
26619
100
AcDbEntity
  8
0
 48
50.0
100
AcDbBlockBegin
  2
*D15
 70
     1
 10
0.0
 20
0.0
 30
0.0
  3
*D15
  1

  0
LINE
  5
297A3
330
26619
100
AcDbEntity
  8
寸法
 62
     0
 48
50.0
370
    -2
100
AcDbLine
 10
6493.6
 20
7742.513207084728
 30
0.0
 11
6493.6
 21
8984.422972733055
 31
0.0
  0
LINE
  5
297A4
330
26619
100
AcDbEntity
  8
寸法
 62
     0
 48
50.0
370
    -2
100
AcDbLine
 10
5588.6
 20
8417.513207084729
 30
0.0
 11
5588.6
 21
8984.422972733055
 31
0.0
  0
LINE
  5
297A5
330
26619
100
AcDbEntity
  8
寸法
 62
     0
 48
50.0
370
    -2
100
AcDbLine
 10
6493.6
 20
8924.422972733054
 30
0.0
 11
5588.6
 21
8924.422972733054
 31
0.0
  0
INSERT
  5
297A6
330
26619
100
AcDbEntity
  8
寸法
 62
     0
 48
50.0
370
    -2
100
AcDbBlockReference
  2
_DOTSMALL
 10
6493.6
 20
8924.422972733054
 30
0.0
 41
100.0
 42
100.0
 43
100.0
  0
INSERT
  5
297A7
330
26619
100
AcDbEntity
  8
寸法
 62
     0
 48
50.0
370
    -2
100
AcDbBlockReference
  2
_DOTSMALL
 10
5588.6
 20
8924.422972733054
 30
0.0
 41
100.0
 42
100.0
 43
100.0
 50
180.0
  0
MTEXT
  5
297A8
330
26619
100
AcDbEntity
  8
寸法
 62
     7
 48
50.0
100
AcDbMText
 10
6041.1
 20
9024.422972733054
 30
0.0
 40
120.0
 41
0.0
 71
     5
 72
     1
  1
\A1;905
  7
STYLE1
 73
     1
 44
1.0
1001
ACAD
1000
MTEXTBEGIN
1070
    73
1070
     1
1070
    44
1040
1.0
1070
    74
1070
     0
1000
MTEXTEND
  0
POINT
  5
297A9
330
26619
100
AcDbEntity
  8
DEFPOINTS
 62
     0
 48
50.0
100
AcDbPoint
 10
6493.6
 20
7722.513207084728
 30
0.0
  0
POINT
  5
297AA
330
26619
100
AcDbEntity
  8
DEFPOINTS
 62
     0
 48
50.0
100
AcDbPoint
 10
5588.6
 20
8397.513207084728
 30
0.0
  0
POINT
  5
297AB
330
26619
100
AcDbEntity
  8
DEFPOINTS
 62
     0
 48
50.0
100
AcDbPoint
 10
5588.6
 20
8924.422972733054
 30
0.0
  0
ENDBLK
  5
26623
330
26619
100
AcDbEntity
  8
0
 48
50.0
100
AcDbBlockEnd
  0
BLOCK
  5
2662F
330
26624
100
AcDbEntity
  8
0
 48
50.0
100
AcDbBlockBegin
  2
*D16
 70
     1
 10
0.0
 20
0.0
 30
0.0
  3
*D16
  1

  0
LINE
  5
29799
330
26624
100
AcDbEntity
  8
寸法
 62
     0
 48
50.0
370
    -2
100
AcDbLine
 10
5838.599999999999
 20
8277.513207084728
 30
0.0
 11
6095.307249876099
 21
8277.513207084728
 31
0.0
  0
LINE
  5
2979A
330
26624
100
AcDbEntity
  8
寸法
 62
     0
 48
50.0
370
    -2
100
AcDbLine
 10
5838.6
 20
8167.513207084725
 30
0.0
 11
6095.307249876099
 21
8167.513207084725
 31
0.0
  0
LINE
  5
2979B
330
26624
100
AcDbEntity
  8
寸法
 62
     0
 48
50.0
370
    -2
100
AcDbLine
 10
6035.307249876098
 20
8277.513207084728
 30
0.0
 11
6035.307249876098
 21
8167.513207084725
 31
0.0
  0
LINE
  5
2979C
330
26624
100
AcDbEntity
  8
寸法
 62
     0
 48
50.0
370
    -2
100
AcDbLine
 10
6035.307249876098
 20
8167.513207084725
 30
0.0
 11
6035.307249876098
 21
7703.406907872125
 31
0.0
  0
INSERT
  5
2979D
330
26624
100
AcDbEntity
  8
寸法
 62
     0
 48
50.0
370
    -2
100
AcDbBlockReference
  2
_DOTSMALL
 10
6035.307249876098
 20
8277.513207084728
 30
0.0
 41
100.0
 42
100.0
 43
100.0
 50
90.0
  0
INSERT
  5
2979E
330
26624
100
AcDbEntity
  8
寸法
 62
     0
 48
50.0
370
    -2
100
AcDbBlockReference
  2
_DOTSMALL
 10
6035.307249876098
 20
8167.513207084725
 30
0.0
 41
100.0
 42
100.0
 43
100.0
 50
270.0
  0
MTEXT
  5
2979F
330
26624
100
AcDbEntity
  8
寸法
 62
     7
 48
50.0
100
AcDbMText
 10
5935.307249876098
 20
7827.454151966614
 30
0.0
 40
120.0
 41
0.0
 71
     5
 72
     1
  1
\A1;110
  7
STYLE1
 11
0.0000000000000001
 21
1.0
 31
0.0
 73
     1
 44
1.0
1001
ACAD
1000
MTEXTBEGIN
1070
    73
1070
     1
1070
    44
1040
1.0
1070
    74
1070
     0
1000
MTEXTEND
  0
POINT
  5
297A0
330
26624
100
AcDbEntity
  8
DEFPOINTS
 62
     0
 48
50.0
100
AcDbPoint
 10
5818.599999999999
 20
8277.513207084728
 30
0.0
  0
POINT
  5
297A1
330
26624
100
AcDbEntity
  8
DEFPOINTS
 62
     0
 48
50.0
100
AcDbPoint
 10
5818.6
 20
8167.513207084725
 30
0.0
  0
POINT
  5
297A2
330
26624
100
AcDbEntity
  8
DEFPOINTS
 62
     0
 48
50.0
100
AcDbPoint
 10
6035.307249876098
 20
8167.513207084725
 30
0.0
  0
ENDBLK
  5
26630
330
26624
100
AcDbEntity
  8
0
 48
50.0
100
AcDbBlockEnd
  0
BLOCK
  5
2663C
330
26631
100
AcDbEntity
  8
0
 48
50.0
100
AcDbBlockBegin
  2
*D17
 70
     1
 10
0.0
 20
0.0
 30
0.0
  3
*D17
  1

  0
LINE
  5
2978F
330
26631
100
AcDbEntity
  8
寸法
 62
     0
 48
50.0
370
    -2
100
AcDbLine
 10
5711.6
 20
8344.513207084728
 30
0.0
 11
5711.6
 21
9203.272833626812
 31
0.0
  0
LINE
  5
29790
330
26631
100
AcDbEntity
  8
寸法
 62
     0
 48
50.0
370
    -2
100
AcDbLine
 10
5588.6
 20
8417.513207084729
 30
0.0
 11
5588.6
 21
9203.272833626812
 31
0.0
  0
LINE
  5
29791
330
26631
100
AcDbEntity
  8
寸法
 62
     0
 48
50.0
370
    -2
100
AcDbLine
 10
5711.6
 20
9143.272833626813
 30
0.0
 11
5588.6
 21
9143.272833626813
 31
0.0
  0
LINE
  5
29792
330
26631
100
AcDbEntity
  8
寸法
 62
     0
 48
50.0
370
    -2
100
AcDbLine
 10
5588.6
 20
9143.272833626813
 30
0.0
 11
5177.008116907963
 21
9143.272833626813
 31
0.0
  0
INSERT
  5
29793
330
26631
100
AcDbEntity
  8
寸法
 62
     0
 48
50.0
370
    -2
100
AcDbBlockReference
  2
_DOTSMALL
 10
5711.6
 20
9143.272833626813
 30
0.0
 41
100.0
 42
100.0
 43
100.0
  0
INSERT
  5
29794
330
26631
100
AcDbEntity
  8
寸法
 62
     0
 48
50.0
370
    -2
100
AcDbBlockReference
  2
_DOTSMALL
 10
5588.6
 20
9143.272833626813
 30
0.0
 41
100.0
 42
100.0
 43
100.0
 50
180.0
  0
MTEXT
  5
29795
330
26631
100
AcDbEntity
  8
寸法
 62
     7
 48
50.0
100
AcDbMText
 10
5315.493398282202
 20
9243.284644650435
 30
0.0
 40
120.0
 41
0.0
 71
     5
 72
     1
  1
\A1;123
  7
STYLE1
 73
     1
 44
1.0
1001
ACAD
1000
MTEXTBEGIN
1070
    73
1070
     1
1070
    44
1040
1.0
1070
    74
1070
     0
1000
MTEXTEND
  0
POINT
  5
29796
330
26631
100
AcDbEntity
  8
DEFPOINTS
 62
     0
 48
50.0
100
AcDbPoint
 10
5711.6
 20
8324.513207084729
 30
0.0
  0
POINT
  5
29797
330
26631
100
AcDbEntity
  8
DEFPOINTS
 62
     0
 48
50.0
100
AcDbPoint
 10
5588.6
 20
8397.513207084728
 30
0.0
  0
POINT
  5
29798
330
26631
100
AcDbEntity
  8
DEFPOINTS
 62
     0
 48
50.0
100
AcDbPoint
 10
5588.6
 20
9143.272833626813
 30
0.0
  0
ENDBLK
  5
2663D
330
26631
100
AcDbEntity
  8
0
 48
50.0
100
AcDbBlockEnd
  0
BLOCK
  5
26647
330
2663E
100
AcDbEntity
  8
0
 48
50.0
100
AcDbBlockBegin
  2
*D18
 70
     1
 10
0.0
 20
0.0
 30
0.0
  3
*D18
  1

  0
LINE
  5
29786
330
2663E
100
AcDbEntity
  8
寸法
 62
     0
 48
50.0
370
    -2
100
AcDbLine
 10
8223.600000000001
 20
7742.513207084728
 30
0.0
 11
8223.600000000001
 21
8984.422972733055
 31
0.0
  0
LINE
  5
29787
330
2663E
100
AcDbEntity
  8
寸法
 62
     0
 48
50.0
370
    -2
100
AcDbLine
 10
7323.6
 20
7742.513207084728
 30
0.0
 11
7323.6
 21
8984.422972733055
 31
0.0
  0
LINE
  5
29788
330
2663E
100
AcDbEntity
  8
寸法
 62
     0
 48
50.0
370
    -2
100
AcDbLine
 10
8223.600000000001
 20
8924.422972733054
 30
0.0
 11
7323.6
 21
8924.422972733054
 31
0.0
  0
INSERT
  5
29789
330
2663E
100
AcDbEntity
  8
寸法
 62
     0
 48
50.0
370
    -2
100
AcDbBlockReference
  2
_DOTSMALL
 10
8223.600000000001
 20
8924.422972733054
 30
0.0
 41
100.0
 42
100.0
 43
100.0
  0
INSERT
  5
2978A
330
2663E
100
AcDbEntity
  8
寸法
 62
     0
 48
50.0
370
    -2
100
AcDbBlockReference
  2
_DOTSMALL
 10
7323.6
 20
8924.422972733054
 30
0.0
 41
100.0
 42
100.0
 43
100.0
 50
180.0
  0
MTEXT
  5
2978B
330
2663E
100
AcDbEntity
  8
寸法
 62
     7
 48
50.0
100
AcDbMText
 10
7773.6
 20
9024.422972733054
 30
0.0
 40
120.0
 41
0.0
 71
     5
 72
     1
  1
\A1;900
  7
STYLE1
 73
     1
 44
1.0
1001
ACAD
1000
MTEXTBEGIN
1070
    73
1070
     1
1070
    44
1040
1.0
1070
    74
1070
     0
1000
MTEXTEND
  0
POINT
  5
2978C
330
2663E
100
AcDbEntity
  8
DEFPOINTS
 62
     0
 48
50.0
100
AcDbPoint
 10
8223.600000000001
 20
7722.513207084728
 30
0.0
  0
POINT
  5
2978D
330
2663E
100
AcDbEntity
  8
DEFPOINTS
 62
     0
 48
50.0
100
AcDbPoint
 10
7323.6
 20
7722.513207084728
 30
0.0
  0
POINT
  5
2978E
330
2663E
100
AcDbEntity
  8
DEFPOINTS
 62
     0
 48
50.0
100
AcDbPoint
 10
7323.6
 20
8924.422972733054
 30
0.0
  0
ENDBLK
  5
26648
330
2663E
100
AcDbEntity
  8
0
 48
50.0
100
AcDbBlockEnd
  0
BLOCK
  5
26653
330
26649
100
AcDbEntity
  8
0
 48
50.0
100
AcDbBlockBegin
  2
*D19
 70
     1
 10
0.0
 20
0.0
 30
0.0
  3
*D19
  1

  0
LINE
  5
2977D
330
26649
100
AcDbEntity
  8
寸法
 62
     0
 48
50.0
370
    -2
100
AcDbLine
 10
9833.600000000002
 20
6632.513207084729
 30
0.0
 11
9528.531448609053
 21
6632.513207084729
 31
0.0
  0
LINE
  5
2977E
330
26649
100
AcDbEntity
  8
寸法
 62
     0
 48
50.0
370
    -2
100
AcDbLine
 10
9833.600000000002
 20
7522.513207084728
 30
0.0
 11
9528.531448609053
 21
7522.513207084728
 31
0.0
  0
LINE
  5
2977F
330
26649
100
AcDbEntity
  8
寸法
 62
     0
 48
50.0
370
    -2
100
AcDbLine
 10
9588.531448609051
 20
6632.513207084729
 30
0.0
 11
9588.531448609051
 21
7522.513207084728
 31
0.0
  0
INSERT
  5
29780
330
26649
100
AcDbEntity
  8
寸法
 62
     0
 48
50.0
370
    -2
100
AcDbBlockReference
  2
_DOTSMALL
 10
9588.531448609051
 20
6632.513207084729
 30
0.0
 41
100.0
 42
100.0
 43
100.0
 50
270.0
  0
INSERT
  5
29781
330
26649
100
AcDbEntity
  8
寸法
 62
     0
 48
50.0
370
    -2
100
AcDbBlockReference
  2
_DOTSMALL
 10
9588.531448609051
 20
7522.513207084728
 30
0.0
 41
100.0
 42
100.0
 43
100.0
 50
90.0
  0
MTEXT
  5
29782
330
26649
100
AcDbEntity
  8
寸法
 62
     7
 48
50.0
100
AcDbMText
 10
9488.53144860905
 20
7077.513207084729
 30
0.0
 40
120.0
 41
0.0
 71
     5
 72
     1
  1
\A1;890
  7
STYLE1
 11
0.0000000000000001
 21
1.0
 31
0.0
 73
     1
 44
1.0
1001
ACAD
1000
MTEXTBEGIN
1070
    73
1070
     1
1070
    44
1040
1.0
1070
    74
1070
     0
1000
MTEXTEND
  0
POINT
  5
29783
330
26649
100
AcDbEntity
  8
DEFPOINTS
 62
     0
 48
50.0
100
AcDbPoint
 10
9853.6
 20
6632.513207084729
 30
0.0
  0
POINT
  5
29784
330
26649
100
AcDbEntity
  8
DEFPOINTS
 62
     0
 48
50.0
100
AcDbPoint
 10
9853.6
 20
7522.513207084728
 30
0.0
  0
POINT
  5
29785
330
26649
100
AcDbEntity
  8
DEFPOINTS
 62
     0
 48
50.0
100
AcDbPoint
 10
9588.531448609051
 20
7522.513207084728
 30
0.0
  0
ENDBLK
  5
26654
330
26649
100
AcDbEntity
  8
0
 48
50.0
100
AcDbBlockEnd
  0
BLOCK
  5
26685
330
2667B
100
AcDbEntity
  8
0
 48
50.0
100
AcDbBlockBegin
  2
*D20
 70
     1
 10
0.0
 20
0.0
 30
0.0
  3
*D20
  1

  0
LINE
  5
29774
330
2667B
100
AcDbEntity
  8
寸法
 62
     0
 48
50.0
370
    -2
100
AcDbLine
 10
10858.6
 20
8417.513207084729
 30
0.0
 11
10858.6
 21
8984.422972733055
 31
0.0
  0
LINE
  5
29775
330
2667B
100
AcDbEntity
  8
寸法
 62
     0
 48
50.0
370
    -2
100
AcDbLine
 10
9953.600000000001
 20
7742.513207084728
 30
0.0
 11
9953.600000000001
 21
8984.422972733055
 31
0.0
  0
LINE
  5
29776
330
2667B
100
AcDbEntity
  8
寸法
 62
     0
 48
50.0
370
    -2
100
AcDbLine
 10
10858.6
 20
8924.422972733054
 30
0.0
 11
9953.600000000001
 21
8924.422972733054
 31
0.0
  0
INSERT
  5
29777
330
2667B
100
AcDbEntity
  8
寸法
 62
     0
 48
50.0
370
    -2
100
AcDbBlockReference
  2
_DOTSMALL
 10
10858.6
 20
8924.422972733054
 30
0.0
 41
100.0
 42
100.0
 43
100.0
  0
INSERT
  5
29778
330
2667B
100
AcDbEntity
  8
寸法
 62
     0
 48
50.0
370
    -2
100
AcDbBlockReference
  2
_DOTSMALL
 10
9953.600000000001
 20
8924.422972733054
 30
0.0
 41
100.0
 42
100.0
 43
100.0
 50
180.0
  0
MTEXT
  5
29779
330
2667B
100
AcDbEntity
  8
寸法
 62
     7
 48
50.0
100
AcDbMText
 10
10406.1
 20
9024.422972733054
 30
0.0
 40
120.0
 41
0.0
 71
     5
 72
     1
  1
\A1;905
  7
STYLE1
 73
     1
 44
1.0
1001
ACAD
1000
MTEXTBEGIN
1070
    73
1070
     1
1070
    44
1040
1.0
1070
    74
1070
     0
1000
MTEXTEND
  0
POINT
  5
2977A
330
2667B
100
AcDbEntity
  8
DEFPOINTS
 62
     0
 48
50.0
100
AcDbPoint
 10
10858.6
 20
8397.513207084728
 30
0.0
  0
POINT
  5
2977B
330
2667B
100
AcDbEntity
  8
DEFPOINTS
 62
     0
 48
50.0
100
AcDbPoint
 10
9953.600000000001
 20
7722.513207084728
 30
0.0
  0
POINT
  5
2977C
330
2667B
100
AcDbEntity
  8
DEFPOINTS
 62
     0
 48
50.0
100
AcDbPoint
 10
9953.600000000001
 20
8924.422972733054
 30
0.0
  0
ENDBLK
  5
26686
330
2667B
100
AcDbEntity
  8
0
 48
50.0
100
AcDbBlockEnd
  0
BLOCK
  5
26690
330
26687
100
AcDbEntity
  8
0
 48
50.0
100
AcDbBlockBegin
  2
*D21
 70
     1
 10
0.0
 20
0.0
 30
0.0
  3
*D21
  1

  0
LINE
  5
2976B
330
26687
100
AcDbEntity
  8
寸法
 62
     0
 48
50.0
370
    -2
100
AcDbLine
 10
9833.600000000002
 20
7522.513207084728
 30
0.0
 11
9528.531448609053
 21
7522.513207084728
 31
0.0
  0
LINE
  5
2976C
330
26687
100
AcDbEntity
  8
寸法
 62
     0
 48
50.0
370
    -2
100
AcDbLine
 10
9552.099999999997
 20
8397.513207084728
 30
0.0
 11
9648.531448609052
 21
8397.513207084728
 31
0.0
  0
LINE
  5
2976D
330
26687
100
AcDbEntity
  8
寸法
 62
     0
 48
50.0
370
    -2
100
AcDbLine
 10
9588.531448609051
 20
7522.513207084728
 30
0.0
 11
9588.531448609051
 21
8397.513207084728
 31
0.0
  0
INSERT
  5
2976E
330
26687
100
AcDbEntity
  8
寸法
 62
     0
 48
50.0
370
    -2
100
AcDbBlockReference
  2
_DOTSMALL
 10
9588.531448609051
 20
7522.513207084728
 30
0.0
 41
100.0
 42
100.0
 43
100.0
 50
270.0
  0
INSERT
  5
2976F
330
26687
100
AcDbEntity
  8
寸法
 62
     0
 48
50.0
370
    -2
100
AcDbBlockReference
  2
_DOTSMALL
 10
9588.531448609051
 20
8397.513207084728
 30
0.0
 41
100.0
 42
100.0
 43
100.0
 50
90.0
  0
MTEXT
  5
29770
330
26687
100
AcDbEntity
  8
寸法
 62
     7
 48
50.0
100
AcDbMText
 10
9488.53144860905
 20
7960.013207084729
 30
0.0
 40
120.0
 41
0.0
 71
     5
 72
     1
  1
\A1;875
  7
STYLE1
 11
0.0000000000000001
 21
1.0
 31
0.0
 73
     1
 44
1.0
1001
ACAD
1000
MTEXTBEGIN
1070
    73
1070
     1
1070
    44
1040
1.0
1070
    74
1070
     0
1000
MTEXTEND
  0
POINT
  5
29771
330
26687
100
AcDbEntity
  8
DEFPOINTS
 62
     0
 48
50.0
100
AcDbPoint
 10
9853.6
 20
7522.513207084728
 30
0.0
  0
POINT
  5
29772
330
26687
100
AcDbEntity
  8
DEFPOINTS
 62
     0
 48
50.0
100
AcDbPoint
 10
9532.099999999998
 20
8397.513207084728
 30
0.0
  0
POINT
  5
29773
330
26687
100
AcDbEntity
  8
DEFPOINTS
 62
     0
 48
50.0
100
AcDbPoint
 10
9588.531448609051
 20
8397.513207084728
 30
0.0
  0
ENDBLK
  5
26691
330
26687
100
AcDbEntity
  8
0
 48
50.0
100
AcDbBlockEnd
  0
BLOCK
  5
2669C
330
26692
100
AcDbEntity
  8
0
 48
50.0
100
AcDbBlockBegin
  2
*D22
 70
     1
 10
0.0
 20
0.0
 30
0.0
  3
*D22
  1

  0
LINE
  5
29762
330
26692
100
AcDbEntity
  8
寸法
 62
     0
 48
50.0
370
    -2
100
AcDbLine
 10
9953.600000000001
 20
7742.513207084728
 30
0.0
 11
9953.600000000001
 21
8984.422972733055
 31
0.0
  0
LINE
  5
29763
330
26692
100
AcDbEntity
  8
寸法
 62
     0
 48
50.0
370
    -2
100
AcDbLine
 10
9123.600000000001
 20
7742.513207084728
 30
0.0
 11
9123.600000000001
 21
8984.422972733055
 31
0.0
  0
LINE
  5
29764
330
26692
100
AcDbEntity
  8
寸法
 62
     0
 48
50.0
370
    -2
100
AcDbLine
 10
9953.600000000001
 20
8924.422972733054
 30
0.0
 11
9123.600000000001
 21
8924.422972733054
 31
0.0
  0
INSERT
  5
29765
330
26692
100
AcDbEntity
  8
寸法
 62
     0
 48
50.0
370
    -2
100
AcDbBlockReference
  2
_DOTSMALL
 10
9953.600000000001
 20
8924.422972733054
 30
0.0
 41
100.0
 42
100.0
 43
100.0
  0
INSERT
  5
29766
330
26692
100
AcDbEntity
  8
寸法
 62
     0
 48
50.0
370
    -2
100
AcDbBlockReference
  2
_DOTSMALL
 10
9123.600000000001
 20
8924.422972733054
 30
0.0
 41
100.0
 42
100.0
 43
100.0
 50
180.0
  0
MTEXT
  5
29767
330
26692
100
AcDbEntity
  8
寸法
 62
     7
 48
50.0
100
AcDbMText
 10
9538.6
 20
9024.422972733054
 30
0.0
 40
120.0
 41
0.0
 71
     5
 72
     1
  1
\A1;830
  7
STYLE1
 73
     1
 44
1.0
1001
ACAD
1000
MTEXTBEGIN
1070
    73
1070
     1
1070
    44
1040
1.0
1070
    74
1070
     0
1000
MTEXTEND
  0
POINT
  5
29768
330
26692
100
AcDbEntity
  8
DEFPOINTS
 62
     0
 48
50.0
100
AcDbPoint
 10
9953.600000000001
 20
7722.513207084728
 30
0.0
  0
POINT
  5
29769
330
26692
100
AcDbEntity
  8
DEFPOINTS
 62
     0
 48
50.0
100
AcDbPoint
 10
9123.600000000001
 20
7722.513207084728
 30
0.0
  0
POINT
  5
2976A
330
26692
100
AcDbEntity
  8
DEFPOINTS
 62
     0
 48
50.0
100
AcDbPoint
 10
9123.600000000001
 20
8924.422972733054
 30
0.0
  0
ENDBLK
  5
2669D
330
26692
100
AcDbEntity
  8
0
 48
50.0
100
AcDbBlockEnd
  0
BLOCK
  5
266A9
330
2669E
100
AcDbEntity
  8
0
 48
50.0
100
AcDbBlockBegin
  2
*D23
 70
     1
 10
0.0
 20
0.0
 30
0.0
  3
*D23
  1

  0
LINE
  5
29758
330
2669E
100
AcDbEntity
  8
寸法
 62
     0
 48
50.0
370
    -2
100
AcDbLine
 10
10858.6
 20
8147.513207084729
 30
0.0
 11
10858.6
 21
7833.760222016149
 31
0.0
  0
LINE
  5
29759
330
2669E
100
AcDbEntity
  8
寸法
 62
     0
 48
50.0
370
    -2
100
AcDbLine
 10
10738.59999999998
 20
8147.513207084729
 30
0.0
 11
10738.59999999998
 21
7833.760222016149
 31
0.0
  0
LINE
  5
2975A
330
2669E
100
AcDbEntity
  8
寸法
 62
     0
 48
50.0
370
    -2
100
AcDbLine
 10
10738.59999999998
 20
7893.760222016149
 30
0.0
 11
10858.6
 21
7893.760222016149
 31
0.0
  0
LINE
  5
2975B
330
2669E
100
AcDbEntity
  8
寸法
 62
     0
 48
50.0
370
    -2
100
AcDbLine
 10
10858.6
 20
7893.760222016149
 30
0.0
 11
11264.7062992126
 21
7893.760222016149
 31
0.0
  0
INSERT
  5
2975C
330
2669E
100
AcDbEntity
  8
寸法
 62
     0
 48
50.0
370
    -2
100
AcDbBlockReference
  2
_DOTSMALL
 10
10738.59999999998
 20
7893.760222016149
 30
0.0
 41
100.0
 42
100.0
 43
100.0
 50
180.0
  0
INSERT
  5
2975D
330
2669E
100
AcDbEntity
  8
寸法
 62
     0
 48
50.0
370
    -2
100
AcDbBlockReference
  2
_DOTSMALL
 10
10858.6
 20
7893.760222016149
 30
0.0
 41
100.0
 42
100.0
 43
100.0
  0
MTEXT
  5
2975E
330
2669E
100
AcDbEntity
  8
寸法
 62
     7
 48
50.0
100
AcDbMText
 10
11128.65905511811
 20
7993.772033039771
 30
0.0
 40
120.0
 41
0.0
 71
     5
 72
     1
  1
\A1;120
  7
STYLE1
 73
     1
 44
1.0
1001
ACAD
1000
MTEXTBEGIN
1070
    73
1070
     1
1070
    44
1040
1.0
1070
    74
1070
     0
1000
MTEXTEND
  0
POINT
  5
2975F
330
2669E
100
AcDbEntity
  8
DEFPOINTS
 62
     0
 48
50.0
100
AcDbPoint
 10
10858.6
 20
8167.513207084729
 30
0.0
  0
POINT
  5
29760
330
2669E
100
AcDbEntity
  8
DEFPOINTS
 62
     0
 48
50.0
100
AcDbPoint
 10
10738.59999999998
 20
8167.513207084729
 30
0.0
  0
POINT
  5
29761
330
2669E
100
AcDbEntity
  8
DEFPOINTS
 62
     0
 48
50.0
100
AcDbPoint
 10
10738.59999999998
 20
7893.760222016149
 30
0.0
  0
ENDBLK
  5
266AA
330
2669E
100
AcDbEntity
  8
0
 48
50.0
100
AcDbBlockEnd
  0
BLOCK
  5
266B6
330
266AB
100
AcDbEntity
  8
0
 48
50.0
100
AcDbBlockBegin
  2
*D24
 70
     1
 10
0.0
 20
0.0
 30
0.0
  3
*D24
  1

  0
LINE
  5
2974E
330
266AB
100
AcDbEntity
  8
寸法
 62
     0
 48
50.0
370
    -2
100
AcDbLine
 10
10738.6
 20
8147.513207084729
 30
0.0
 11
10738.6
 21
7833.760222016149
 31
0.0
  0
LINE
  5
2974F
330
266AB
100
AcDbEntity
  8
寸法
 62
     0
 48
50.0
370
    -2
100
AcDbLine
 10
10628.6
 20
8147.513207084726
 30
0.0
 11
10628.6
 21
7833.760222016149
 31
0.0
  0
LINE
  5
29750
330
266AB
100
AcDbEntity
  8
寸法
 62
     0
 48
50.0
370
    -2
100
AcDbLine
 10
10738.6
 20
7893.760222016149
 30
0.0
 11
10628.6
 21
7893.760222016149
 31
0.0
  0
LINE
  5
29751
330
266AB
100
AcDbEntity
  8
寸法
 62
     0
 48
50.0
370
    -2
100
AcDbLine
 10
10628.6
 20
7893.760222016149
 30
0.0
 11
10268.50551181102
 21
7893.760222016149
 31
0.0
  0
INSERT
  5
29752
330
266AB
100
AcDbEntity
  8
寸法
 62
     0
 48
50.0
370
    -2
100
AcDbBlockReference
  2
_DOTSMALL
 10
10738.6
 20
7893.760222016149
 30
0.0
 41
100.0
 42
100.0
 43
100.0
  0
INSERT
  5
29753
330
266AB
100
AcDbEntity
  8
寸法
 62
     0
 48
50.0
370
    -2
100
AcDbBlockReference
  2
_DOTSMALL
 10
10628.6
 20
7893.760222016149
 30
0.0
 41
100.0
 42
100.0
 43
100.0
 50
180.0
  0
MTEXT
  5
29754
330
266AB
100
AcDbEntity
  8
寸法
 62
     7
 48
50.0
100
AcDbMText
 10
10392.55275590551
 20
7993.760222016149
 30
0.0
 40
120.0
 41
0.0
 71
     5
 72
     1
  1
\A1;110
  7
STYLE1
 73
     1
 44
1.0
1001
ACAD
1000
MTEXTBEGIN
1070
    73
1070
     1
1070
    44
1040
1.0
1070
    74
1070
     0
1000
MTEXTEND
  0
POINT
  5
29755
330
266AB
100
AcDbEntity
  8
DEFPOINTS
 62
     0
 48
50.0
100
AcDbPoint
 10
10738.6
 20
8167.513207084729
 30
0.0
  0
POINT
  5
29756
330
266AB
100
AcDbEntity
  8
DEFPOINTS
 62
     0
 48
50.0
100
AcDbPoint
 10
10628.6
 20
8167.513207084727
 30
0.0
  0
POINT
  5
29757
330
266AB
100
AcDbEntity
  8
DEFPOINTS
 62
     0
 48
50.0
100
AcDbPoint
 10
10628.6
 20
7893.760222016149
 30
0.0
  0
ENDBLK
  5
266B7
330
266AB
100
AcDbEntity
  8
0
 48
50.0
100
AcDbBlockEnd
  0
BLOCK
  5
266C3
330
266B8
100
AcDbEntity
  8
0
 48
50.0
100
AcDbBlockBegin
  2
*D25
 70
     1
 10
0.0
 20
0.0
 30
0.0
  3
*D25
  1

  0
LINE
  5
29744
330
266B8
100
AcDbEntity
  8
寸法
 62
     0
 48
50.0
370
    -2
100
AcDbLine
 10
10858.6
 20
8417.513207084729
 30
0.0
 11
10858.6
 21
9203.272833626812
 31
0.0
  0
LINE
  5
29745
330
266B8
100
AcDbEntity
  8
寸法
 62
     0
 48
50.0
370
    -2
100
AcDbLine
 10
10735.6
 20
8344.513207084728
 30
0.0
 11
10735.6
 21
9203.272833626812
 31
0.0
  0
LINE
  5
29746
330
266B8
100
AcDbEntity
  8
寸法
 62
     0
 48
50.0
370
    -2
100
AcDbLine
 10
10735.6
 20
9143.272833626813
 30
0.0
 11
10858.6
 21
9143.272833626813
 31
0.0
  0
LINE
  5
29747
330
266B8
100
AcDbEntity
  8
寸法
 62
     0
 48
50.0
370
    -2
100
AcDbLine
 10
10858.6
 20
9143.272833626813
 30
0.0
 11
11270.19188309204
 21
9143.272833626813
 31
0.0
  0
INSERT
  5
29748
330
266B8
100
AcDbEntity
  8
寸法
 62
     0
 48
50.0
370
    -2
100
AcDbBlockReference
  2
_DOTSMALL
 10
10735.6
 20
9143.272833626813
 30
0.0
 41
100.0
 42
100.0
 43
100.0
 50
180.0
  0
INSERT
  5
29749
330
266B8
100
AcDbEntity
  8
寸法
 62
     0
 48
50.0
370
    -2
100
AcDbBlockReference
  2
_DOTSMALL
 10
10858.6
 20
9143.272833626813
 30
0.0
 41
100.0
 42
100.0
 43
100.0
  0
MTEXT
  5
2974A
330
266B8
100
AcDbEntity
  8
寸法
 62
     7
 48
50.0
100
AcDbMText
 10
11131.7066017178
 20
9243.284644650435
 30
0.0
 40
120.0
 41
0.0
 71
     5
 72
     1
  1
\A1;123
  7
STYLE1
 73
     1
 44
1.0
1001
ACAD
1000
MTEXTBEGIN
1070
    73
1070
     1
1070
    44
1040
1.0
1070
    74
1070
     0
1000
MTEXTEND
  0
POINT
  5
2974B
330
266B8
100
AcDbEntity
  8
DEFPOINTS
 62
     0
 48
50.0
100
AcDbPoint
 10
10858.6
 20
8397.513207084728
 30
0.0
  0
POINT
  5
2974C
330
266B8
100
AcDbEntity
  8
DEFPOINTS
 62
     0
 48
50.0
100
AcDbPoint
 10
10735.6
 20
8324.513207084729
 30
0.0
  0
POINT
  5
2974D
330
266B8
100
AcDbEntity
  8
DEFPOINTS
 62
     0
 48
50.0
100
AcDbPoint
 10
10735.6
 20
9143.272833626813
 30
0.0
  0
ENDBLK
  5
266C4
330
266B8
100
AcDbEntity
  8
0
 48
50.0
100
AcDbBlockEnd
  0
BLOCK
  5
26F0D
330
26F01
100
AcDbEntity
  8
0
 48
50.0
100
AcDbBlockBegin
  2
*D26
 70
     1
 10
0.0
 20
0.0
 30
0.0
  3
*D26
  1

  0
LINE
  5
29739
330
26F01
100
AcDbEntity
  8
寸法
 62
     0
 48
50.0
370
    -2
100
AcDbLine
 10
8216.600000000001
 20
5682.513207084749
 30
0.0
 11
8523.202780124334
 21
5682.513207084749
 31
0.0
  0
LINE
  5
2973A
330
26F01
100
AcDbEntity
  8
寸法
 62
     0
 48
50.0
370
    -2
100
AcDbLine
 10
8216.600000000008
 20
5757.513207084752
 30
0.0
 11
8523.202780124334
 21
5757.513207084752
 31
0.0
  0
LINE
  5
2973B
330
26F01
100
AcDbEntity
  8
寸法
 62
     0
 48
50.0
370
    -2
100
AcDbLine
 10
8463.202780124335
 20
5757.513207084752
 30
0.0
 11
8463.202780124335
 21
5857.513207084752
 31
0.0
  0
LINE
  5
2973C
330
26F01
100
AcDbEntity
  8
寸法
 62
     0
 48
50.0
370
    -2
100
AcDbLine
 10
8463.202780124335
 20
5682.513207084749
 30
0.0
 11
8463.202780124335
 21
4815.542644336272
 31
0.0
  0
LINE
  5
2973D
330
26F01
100
AcDbEntity
  8
寸法
 62
     0
 48
50.0
370
    -2
100
AcDbLine
 10
8463.202780124335
 20
5757.513207084752
 30
0.0
 11
8463.202780124335
 21
5682.513207084749
 31
0.0
  0
INSERT
  5
2973E
330
26F01
100
AcDbEntity
  8
寸法
 62
     0
 48
50.0
370
    -2
100
AcDbBlockReference
  2
_DOTSMALL
 10
8463.202780124335
 20
5757.513207084752
 30
0.0
 41
100.0
 42
100.0
 43
100.0
 50
270.0
  0
INSERT
  5
2973F
330
26F01
100
AcDbEntity
  8
寸法
 62
     0
 48
50.0
370
    -2
100
AcDbBlockReference
  2
_DOTSMALL
 10
8463.202780124335
 20
5682.513207084749
 30
0.0
 41
100.0
 42
100.0
 43
100.0
 50
90.0
  0
MTEXT
  5
29740
330
26F01
100
AcDbEntity
  8
寸法
 62
     7
 48
50.0
100
AcDbMText
 10
8363.202780124332
 20
5149.027925710512
 30
0.0
 40
120.0
 41
0.0
 71
     5
 72
     1
  1
\A1;扉の出75
  7
STYLE1
 11
0.0000000000000001
 21
1.0
 31
0.0
 73
     1
 44
1.0
1001
ACAD
1000
MTEXTBEGIN
1070
    73
1070
     1
1070
    44
1040
1.0
1070
    74
1070
     0
1000
MTEXTEND
  0
POINT
  5
29741
330
26F01
100
AcDbEntity
  8
DEFPOINTS
 62
     0
 48
50.0
100
AcDbPoint
 10
8196.600000000001
 20
5682.513207084749
 30
0.0
  0
POINT
  5
29742
330
26F01
100
AcDbEntity
  8
DEFPOINTS
 62
     0
 48
50.0
100
AcDbPoint
 10
8196.600000000008
 20
5757.513207084752
 30
0.0
  0
POINT
  5
29743
330
26F01
100
AcDbEntity
  8
DEFPOINTS
 62
     0
 48
50.0
100
AcDbPoint
 10
8463.202780124335
 20
5757.513207084752
 30
0.0
  0
ENDBLK
  5
26F0E
330
26F01
100
AcDbEntity
  8
0
 48
50.0
100
AcDbBlockEnd
  0
BLOCK
  5
26F27
330
26F1B
100
AcDbEntity
  8
0
 48
50.0
100
AcDbBlockBegin
  2
*D27
 70
     1
 10
0.0
 20
0.0
 30
0.0
  3
*D27
  1

  0
LINE
  5
2972E
330
26F1B
100
AcDbEntity
  8
寸法
 62
     0
 48
50.0
370
    -2
100
AcDbLine
 10
5072.657733986179
 20
8472.513207084732
 30
0.0
 11
4780.714637266788
 21
8472.513207084732
 31
0.0
  0
LINE
  5
2972F
330
26F1B
100
AcDbEntity
  8
寸法
 62
     0
 48
50.0
370
    -2
100
AcDbLine
 10
5562.149705418577
 20
8397.513207084728
 30
0.0
 11
4780.714637266788
 21
8397.513207084728
 31
0.0
  0
LINE
  5
29730
330
26F1B
100
AcDbEntity
  8
寸法
 62
     0
 48
50.0
370
    -2
100
AcDbLine
 10
4840.714637266787
 20
8472.513207084732
 30
0.0
 11
4840.714637266787
 21
8572.513207084732
 31
0.0
  0
LINE
  5
29731
330
26F1B
100
AcDbEntity
  8
寸法
 62
     0
 48
50.0
370
    -2
100
AcDbLine
 10
4840.714637266787
 20
8397.513207084728
 30
0.0
 11
4840.714637266787
 21
8297.513207084728
 31
0.0
  0
LINE
  5
29732
330
26F1B
100
AcDbEntity
  8
寸法
 62
     0
 48
50.0
370
    -2
100
AcDbLine
 10
4840.714637266787
 20
8472.513207084732
 30
0.0
 11
4840.714637266787
 21
8397.513207084728
 31
0.0
  0
INSERT
  5
29733
330
26F1B
100
AcDbEntity
  8
寸法
 62
     0
 48
50.0
370
    -2
100
AcDbBlockReference
  2
_DOTSMALL
 10
4840.714637266787
 20
8472.513207084732
 30
0.0
 41
100.0
 42
100.0
 43
100.0
 50
270.0
  0
INSERT
  5
29734
330
26F1B
100
AcDbEntity
  8
寸法
 62
     0
 48
50.0
370
    -2
100
AcDbBlockReference
  2
_DOTSMALL
 10
4840.714637266787
 20
8397.513207084728
 30
0.0
 41
100.0
 42
100.0
 43
100.0
 50
90.0
  0
MTEXT
  5
29735
330
26F1B
100
AcDbEntity
  8
寸法
 62
     7
 48
50.0
100
AcDbMText
 10
4740.714637266786
 20
8435.013207084733
 30
0.0
 40
120.0
 41
0.0
 71
     5
 72
     1
  1
\A1;c
  7
STYLE1
 11
0.0000000000000001
 21
1.0
 31
0.0
 73
     1
 44
1.0
1001
ACAD
1000
MTEXTBEGIN
1070
    73
1070
     1
1070
    44
1040
1.0
1070
    74
1070
     0
1000
MTEXTEND
  0
POINT
  5
29736
330
26F1B
100
AcDbEntity
  8
DEFPOINTS
 62
     0
 48
50.0
100
AcDbPoint
 10
5092.657733986179
 20
8472.513207084732
 30
0.0
  0
POINT
  5
29737
330
26F1B
100
AcDbEntity
  8
DEFPOINTS
 62
     0
 48
50.0
100
AcDbPoint
 10
5582.149705418578
 20
8397.513207084728
 30
0.0
  0
POINT
  5
29738
330
26F1B
100
AcDbEntity
  8
DEFPOINTS
 62
     0
 48
50.0
100
AcDbPoint
 10
4840.714637266787
 20
8397.513207084728
 30
0.0
  0
ENDBLK
  5
26F28
330
26F1B
100
AcDbEntity
  8
0
 48
50.0
100
AcDbBlockEnd
  0
BLOCK
  5
26F4C
330
26F40
100
AcDbEntity
  8
0
 48
50.0
100
AcDbBlockBegin
  2
*D28
 70
     1
 10
0.0
 20
0.0
 30
0.0
  3
*D28
  1

  0
LINE
  5
29723
330
26F40
100
AcDbEntity
  8
寸法
 62
     0
 48
50.0
370
    -2
100
AcDbLine
 10
5568.599999999997
 20
5757.51320708473
 30
0.0
 11
4780.714637266782
 21
5757.51320708473
 31
0.0
  0
LINE
  5
29724
330
26F40
100
AcDbEntity
  8
寸法
 62
     0
 48
50.0
370
    -2
100
AcDbLine
 10
5072.657733986179
 20
5702.513207084749
 30
0.0
 11
4780.714637266782
 21
5702.513207084749
 31
0.0
  0
LINE
  5
29725
330
26F40
100
AcDbEntity
  8
寸法
 62
     0
 48
50.0
370
    -2
100
AcDbLine
 10
4840.714637266781
 20
5757.51320708473
 30
0.0
 11
4840.714637266781
 21
5857.513207084729
 31
0.0
  0
LINE
  5
29726
330
26F40
100
AcDbEntity
  8
寸法
 62
     0
 48
50.0
370
    -2
100
AcDbLine
 10
4840.714637266781
 20
5702.513207084749
 30
0.0
 11
4840.714637266781
 21
5602.51320708475
 31
0.0
  0
LINE
  5
29727
330
26F40
100
AcDbEntity
  8
寸法
 62
     0
 48
50.0
370
    -2
100
AcDbLine
 10
4840.714637266781
 20
5757.51320708473
 30
0.0
 11
4840.714637266781
 21
5702.513207084749
 31
0.0
  0
INSERT
  5
29728
330
26F40
100
AcDbEntity
  8
寸法
 62
     0
 48
50.0
370
    -2
100
AcDbBlockReference
  2
_DOTSMALL
 10
4840.714637266781
 20
5757.51320708473
 30
0.0
 41
100.0
 42
100.0
 43
100.0
 50
270.0
  0
INSERT
  5
29729
330
26F40
100
AcDbEntity
  8
寸法
 62
     0
 48
50.0
370
    -2
100
AcDbBlockReference
  2
_DOTSMALL
 10
4840.714637266781
 20
5702.513207084749
 30
0.0
 41
100.0
 42
100.0
 43
100.0
 50
90.0
  0
MTEXT
  5
2972A
330
26F40
100
AcDbEntity
  8
寸法
 62
     7
 48
50.0
100
AcDbMText
 10
4740.71463726678
 20
5730.01320708474
 30
0.0
 40
120.0
 41
0.0
 71
     5
 72
     1
  1
\A1;b
  7
STYLE1
 11
0.0000000000000001
 21
1.0
 31
0.0
 73
     1
 44
1.0
1001
ACAD
1000
MTEXTBEGIN
1070
    73
1070
     1
1070
    44
1040
1.0
1070
    74
1070
     0
1000
MTEXTEND
  0
POINT
  5
2972B
330
26F40
100
AcDbEntity
  8
DEFPOINTS
 62
     0
 48
50.0
100
AcDbPoint
 10
5588.599999999996
 20
5757.51320708473
 30
0.0
  0
POINT
  5
2972C
330
26F40
100
AcDbEntity
  8
DEFPOINTS
 62
     0
 48
50.0
100
AcDbPoint
 10
5092.657733986179
 20
5702.513207084749
 30
0.0
  0
POINT
  5
2972D
330
26F40
100
AcDbEntity
  8
DEFPOINTS
 62
     0
 48
50.0
100
AcDbPoint
 10
4840.714637266781
 20
5702.513207084749
 30
0.0
  0
ENDBLK
  5
26F4D
330
26F40
100
AcDbEntity
  8
0
 48
50.0
100
AcDbBlockEnd
  0
BLOCK
  5
26F71
330
26F65
100
AcDbEntity
  8
0
 48
50.0
100
AcDbBlockBegin
  2
*D29
 70
     1
 10
0.0
 20
0.0
 30
0.0
  3
*D29
  1

  0
LINE
  5
29718
330
26F65
100
AcDbEntity
  8
寸法
 62
     0
 48
50.0
370
    -2
100
AcDbLine
 10
10858.6
 20
8417.513207084727
 30
0.0
 11
10858.6
 21
9415.733529143647
 31
0.0
  0
LINE
  5
29719
330
26F65
100
AcDbEntity
  8
寸法
 62
     0
 48
50.0
370
    -2
100
AcDbLine
 10
10903.6
 20
9163.272833626809
 30
0.0
 11
10903.6
 21
9415.733529143647
 31
0.0
  0
LINE
  5
2971A
330
26F65
100
AcDbEntity
  8
寸法
 62
     0
 48
50.0
370
    -2
100
AcDbLine
 10
10858.6
 20
9355.733529143646
 30
0.0
 11
10758.6
 21
9355.733529143646
 31
0.0
  0
LINE
  5
2971B
330
26F65
100
AcDbEntity
  8
寸法
 62
     0
 48
50.0
370
    -2
100
AcDbLine
 10
10903.6
 20
9355.733529143646
 30
0.0
 11
11240.94924240491
 21
9355.733529143646
 31
0.0
  0
LINE
  5
2971C
330
26F65
100
AcDbEntity
  8
寸法
 62
     0
 48
50.0
370
    -2
100
AcDbLine
 10
10858.6
 20
9355.733529143646
 30
0.0
 11
10903.6
 21
9355.733529143646
 31
0.0
  0
INSERT
  5
2971D
330
26F65
100
AcDbEntity
  8
寸法
 62
     0
 48
50.0
370
    -2
100
AcDbBlockReference
  2
_DOTSMALL
 10
10858.6
 20
9355.733529143646
 30
0.0
 41
100.0
 42
100.0
 43
100.0
  0
INSERT
  5
2971E
330
26F65
100
AcDbEntity
  8
寸法
 62
     0
 48
50.0
370
    -2
100
AcDbBlockReference
  2
_DOTSMALL
 10
10903.6
 20
9355.733529143646
 30
0.0
 41
100.0
 42
100.0
 43
100.0
 50
180.0
  0
MTEXT
  5
2971F
330
26F65
100
AcDbEntity
  8
寸法
 62
     7
 48
50.0
100
AcDbMText
 10
11174.77462120246
 20
9455.733529143648
 30
0.0
 40
120.0
 41
0.0
 71
     5
 72
     1
  1
\A1;a
  7
STYLE1
 73
     1
 44
1.0
1001
ACAD
1000
MTEXTBEGIN
1070
    73
1070
     1
1070
    44
1040
1.0
1070
    74
1070
     0
1000
MTEXTEND
  0
POINT
  5
29720
330
26F65
100
AcDbEntity
  8
DEFPOINTS
 62
     0
 48
50.0
100
AcDbPoint
 10
10858.6
 20
8397.513207084726
 30
0.0
  0
POINT
  5
29721
330
26F65
100
AcDbEntity
  8
DEFPOINTS
 62
     0
 48
50.0
100
AcDbPoint
 10
10903.6
 20
9143.272833626808
 30
0.0
  0
POINT
  5
29722
330
26F65
100
AcDbEntity
  8
DEFPOINTS
 62
     0
 48
50.0
100
AcDbPoint
 10
10903.6
 20
9355.733529143646
 30
0.0
  0
ENDBLK
  5
26F72
330
26F65
100
AcDbEntity
  8
0
 48
50.0
100
AcDbBlockEnd
  0
BLOCK
  5
26F8B
330
26F7F
100
AcDbEntity
  8
0
 48
50.0
100
AcDbBlockBegin
  2
*D30
 70
     1
 10
0.0
 20
0.0
 30
0.0
  3
*D30
  1

  0
LINE
  5
2970D
330
26F7F
100
AcDbEntity
  8
寸法
 62
     0
 48
50.0
370
    -2
100
AcDbLine
 10
5543.600000000008
 20
9163.272833626809
 30
0.0
 11
5543.600000000008
 21
9415.733529143647
 31
0.0
  0
LINE
  5
2970E
330
26F7F
100
AcDbEntity
  8
寸法
 62
     0
 48
50.0
370
    -2
100
AcDbLine
 10
5588.6
 20
8417.513207084727
 30
0.0
 11
5588.6
 21
9415.733529143647
 31
0.0
  0
LINE
  5
2970F
330
26F7F
100
AcDbEntity
  8
寸法
 62
     0
 48
50.0
370
    -2
100
AcDbLine
 10
5588.6
 20
9355.733529143646
 30
0.0
 11
5688.6
 21
9355.733529143646
 31
0.0
  0
LINE
  5
29710
330
26F7F
100
AcDbEntity
  8
寸法
 62
     0
 48
50.0
370
    -2
100
AcDbLine
 10
5543.600000000008
 20
9355.733529143646
 30
0.0
 11
5206.250757595083
 21
9355.733529143646
 31
0.0
  0
LINE
  5
29711
330
26F7F
100
AcDbEntity
  8
寸法
 62
     0
 48
50.0
370
    -2
100
AcDbLine
 10
5588.6
 20
9355.733529143646
 30
0.0
 11
5543.600000000008
 21
9355.733529143646
 31
0.0
  0
INSERT
  5
29712
330
26F7F
100
AcDbEntity
  8
寸法
 62
     0
 48
50.0
370
    -2
100
AcDbBlockReference
  2
_DOTSMALL
 10
5588.6
 20
9355.733529143646
 30
0.0
 41
100.0
 42
100.0
 43
100.0
 50
180.0
  0
INSERT
  5
29713
330
26F7F
100
AcDbEntity
  8
寸法
 62
     0
 48
50.0
370
    -2
100
AcDbBlockReference
  2
_DOTSMALL
 10
5543.600000000008
 20
9355.733529143646
 30
0.0
 41
100.0
 42
100.0
 43
100.0
  0
MTEXT
  5
29714
330
26F7F
100
AcDbEntity
  8
寸法
 62
     7
 48
50.0
100
AcDbMText
 10
5272.425378797541
 20
9455.733529143648
 30
0.0
 40
120.0
 41
0.0
 71
     5
 72
     1
  1
\A1;a
  7
STYLE1
 73
     1
 44
1.0
1001
ACAD
1000
MTEXTBEGIN
1070
    73
1070
     1
1070
    44
1040
1.0
1070
    74
1070
     0
1000
MTEXTEND
  0
POINT
  5
29715
330
26F7F
100
AcDbEntity
  8
DEFPOINTS
 62
     0
 48
50.0
100
AcDbPoint
 10
5543.600000000008
 20
9143.272833626808
 30
0.0
  0
POINT
  5
29716
330
26F7F
100
AcDbEntity
  8
DEFPOINTS
 62
     0
 48
50.0
100
AcDbPoint
 10
5588.6
 20
8397.513207084726
 30
0.0
  0
POINT
  5
29717
330
26F7F
100
AcDbEntity
  8
DEFPOINTS
 62
     0
 48
50.0
100
AcDbPoint
 10
5588.6
 20
9355.733529143646
 30
0.0
  0
ENDBLK
  5
26F8C
330
26F7F
100
AcDbEntity
  8
0
 48
50.0
100
AcDbBlockEnd
  0
BLOCK
  5
2702B
330
2701F
100
AcDbEntity
  8
0
 48
50.0
100
AcDbBlockBegin
  2
*D31
 70
     1
 10
0.0
 20
0.0
 30
0.0
  3
*D31
  1

  0
LINE
  5
29703
330
2701F
100
AcDbEntity
  8
寸法
 62
     0
 48
50.0
370
    -2
100
AcDbLine
 10
6061.600000000001
 20
5682.513207084717
 30
0.0
 11
6369.183206304239
 21
5682.513207084716
 31
0.0
  0
LINE
  5
29704
330
2701F
100
AcDbEntity
  8
寸法
 62
     0
 48
50.0
370
    -2
100
AcDbLine
 10
6061.599999999998
 20
5877.513207084732
 30
0.0
 11
6369.183206304239
 21
5877.513207084731
 31
0.0
  0
LINE
  5
29705
330
2701F
100
AcDbEntity
  8
寸法
 62
     0
 48
50.0
370
    -2
100
AcDbLine
 10
6309.18320630424
 20
5877.513207084731
 30
0.0
 11
6309.18320630424
 21
5682.513207084716
 31
0.0
  0
LINE
  5
29706
330
2701F
100
AcDbEntity
  8
寸法
 62
     0
 48
50.0
370
    -2
100
AcDbLine
 10
6309.18320630424
 20
5682.513207084716
 30
0.0
 11
6309.18320630424
 21
5305.123324676925
 31
0.0
  0
INSERT
  5
29707
330
2701F
100
AcDbEntity
  8
寸法
 62
     0
 48
50.0
370
    -2
100
AcDbBlockReference
  2
_DOTSMALL
 10
6309.18320630424
 20
5877.513207084731
 30
0.0
 41
100.0
 42
100.0
 43
100.0
 50
90.0
  0
INSERT
  5
29708
330
2701F
100
AcDbEntity
  8
寸法
 62
     0
 48
50.0
370
    -2
100
AcDbBlockReference
  2
_DOTSMALL
 10
6309.18320630424
 20
5682.513207084716
 30
0.0
 41
100.0
 42
100.0
 43
100.0
 50
270.0
  0
MTEXT
  5
29709
330
2701F
100
AcDbEntity
  8
寸法
 62
     7
 48
50.0
100
AcDbMText
 10
6209.183206304238
 20
5443.818265880823
 30
0.0
 40
120.0
 41
0.0
 71
     5
 72
     1
  1
\A1;195
  7
STYLE1
 11
0.0000000000000001
 21
1.0
 31
0.0
 73
     1
 44
1.0
1001
ACAD
1000
MTEXTBEGIN
1070
    73
1070
     1
1070
    44
1040
1.0
1070
    74
1070
     0
1000
MTEXTEND
  0
POINT
  5
2970A
330
2701F
100
AcDbEntity
  8
DEFPOINTS
 62
     0
 48
50.0
100
AcDbPoint
 10
6041.6
 20
5682.513207084717
 30
0.0
  0
POINT
  5
2970B
330
2701F
100
AcDbEntity
  8
DEFPOINTS
 62
     0
 48
50.0
100
AcDbPoint
 10
6041.599999999998
 20
5877.513207084732
 30
0.0
  0
POINT
  5
2970C
330
2701F
100
AcDbEntity
  8
DEFPOINTS
 62
     0
 48
50.0
100
AcDbPoint
 10
6309.18320630424
 20
5877.513207084731
 30
0.0
  0
ENDBLK
  5
2702C
330
2701F
100
AcDbEntity
  8
0
 48
50.0
100
AcDbBlockEnd
  0
BLOCK
  5
27D8D
330
27D83
100
AcDbEntity
  8
0
 48
50.0
100
AcDbBlockBegin
  2
*D32
 70
     1
 10
0.0
 20
0.0
 30
0.0
  3
*D32
  1

  0
LINE
  5
296FA
330
27D83
100
AcDbEntity
  8
寸法
 62
     0
 48
50.0
370
    -2
100
AcDbLine
 10
9833.600000000002
 20
5757.513207084727
 30
0.0
 11
9528.531448609053
 21
5757.513207084727
 31
0.0
  0
LINE
  5
296FB
330
27D83
100
AcDbEntity
  8
寸法
 62
     0
 48
50.0
370
    -2
100
AcDbLine
 10
9833.600000000002
 20
6632.513207084729
 30
0.0
 11
9528.531448609053
 21
6632.513207084729
 31
0.0
  0
LINE
  5
296FC
330
27D83
100
AcDbEntity
  8
寸法
 62
     0
 48
50.0
370
    -2
100
AcDbLine
 10
9588.531448609051
 20
5757.513207084727
 30
0.0
 11
9588.531448609051
 21
6632.513207084729
 31
0.0
  0
INSERT
  5
296FD
330
27D83
100
AcDbEntity
  8
寸法
 62
     0
 48
50.0
370
    -2
100
AcDbBlockReference
  2
_DOTSMALL
 10
9588.531448609051
 20
5757.513207084727
 30
0.0
 41
100.0
 42
100.0
 43
100.0
 50
270.0
  0
INSERT
  5
296FE
330
27D83
100
AcDbEntity
  8
寸法
 62
     0
 48
50.0
370
    -2
100
AcDbBlockReference
  2
_DOTSMALL
 10
9588.531448609051
 20
6632.513207084729
 30
0.0
 41
100.0
 42
100.0
 43
100.0
 50
90.0
  0
MTEXT
  5
296FF
330
27D83
100
AcDbEntity
  8
寸法
 62
     7
 48
50.0
100
AcDbMText
 10
9488.53144860905
 20
6195.01320708473
 30
0.0
 40
120.0
 41
0.0
 71
     5
 72
     1
  1
\A1;875
  7
STYLE1
 11
0.0000000000000001
 21
1.0
 31
0.0
 73
     1
 44
1.0
1001
ACAD
1000
MTEXTBEGIN
1070
    73
1070
     1
1070
    44
1040
1.0
1070
    74
1070
     0
1000
MTEXTEND
  0
POINT
  5
29700
330
27D83
100
AcDbEntity
  8
DEFPOINTS
 62
     0
 48
50.0
100
AcDbPoint
 10
9853.6
 20
5757.513207084727
 30
0.0
  0
POINT
  5
29701
330
27D83
100
AcDbEntity
  8
DEFPOINTS
 62
     0
 48
50.0
100
AcDbPoint
 10
9853.6
 20
6632.513207084729
 30
0.0
  0
POINT
  5
29702
330
27D83
100
AcDbEntity
  8
DEFPOINTS
 62
     0
 48
50.0
100
AcDbPoint
 10
9588.531448609051
 20
6632.513207084729
 30
0.0
  0
ENDBLK
  5
27D8E
330
27D83
100
AcDbEntity
  8
0
 48
50.0
100
AcDbBlockEnd
  0
BLOCK
  5
28FB3
330
28FA9
100
AcDbEntity
  8
0
 48
50.0
100
AcDbBlockBegin
  2
*D33
 70
     1
 10
0.0
 20
0.0
 30
0.0
  3
*D33
  1

  0
LINE
  5
296F1
330
28FA9
100
AcDbEntity
  8
寸法
 62
     0
 48
50.0
370
    -2
100
AcDbLine
 10
8196.600000000001
 20
5662.513207084749
 30
0.0
 11
8196.600000000001
 21
5137.668192742538
 31
0.0
  0
LINE
  5
296F2
330
28FA9
100
AcDbEntity
  8
寸法
 62
     0
 48
50.0
370
    -2
100
AcDbLine
 10
6041.6
 20
5662.513207084734
 30
0.0
 11
6041.6
 21
5137.668192742538
 31
0.0
  0
LINE
  5
296F3
330
28FA9
100
AcDbEntity
  8
寸法
 62
     0
 48
50.0
370
    -2
100
AcDbLine
 10
8196.600000000001
 20
5197.668192742538
 30
0.0
 11
6041.6
 21
5197.668192742538
 31
0.0
  0
INSERT
  5
296F4
330
28FA9
100
AcDbEntity
  8
寸法
 62
     0
 48
50.0
370
    -2
100
AcDbBlockReference
  2
_DOTSMALL
 10
8196.600000000001
 20
5197.668192742538
 30
0.0
 41
100.0
 42
100.0
 43
100.0
  0
INSERT
  5
296F5
330
28FA9
100
AcDbEntity
  8
寸法
 62
     0
 48
50.0
370
    -2
100
AcDbBlockReference
  2
_DOTSMALL
 10
6041.6
 20
5197.668192742538
 30
0.0
 41
100.0
 42
100.0
 43
100.0
 50
180.0
  0
MTEXT
  5
296F6
330
28FA9
100
AcDbEntity
  8
寸法
 62
     7
 48
50.0
100
AcDbMText
 10
7119.1
 20
5297.68000376616
 30
0.0
 40
120.0
 41
0.0
 71
     5
 72
     1
  1
\A1;扉の幅 2155
  7
STYLE1
 73
     1
 44
1.0
1001
ACAD
1000
MTEXTBEGIN
1070
    73
1070
     1
1070
    44
1040
1.0
1070
    74
1070
     0
1000
MTEXTEND
  0
POINT
  5
296F7
330
28FA9
100
AcDbEntity
  8
DEFPOINTS
 62
     0
 48
50.0
100
AcDbPoint
 10
8196.600000000001
 20
5682.513207084749
 30
0.0
  0
POINT
  5
296F8
330
28FA9
100
AcDbEntity
  8
DEFPOINTS
 62
     0
 48
50.0
100
AcDbPoint
 10
6041.6
 20
5682.513207084734
 30
0.0
  0
POINT
  5
296F9
330
28FA9
100
AcDbEntity
  8
DEFPOINTS
 62
     0
 48
50.0
100
AcDbPoint
 10
6041.6
 20
5197.668192742538
 30
0.0
  0
ENDBLK
  5
28FB4
330
28FA9
100
AcDbEntity
  8
0
 48
50.0
100
AcDbBlockEnd
  0
BLOCK
  5
29563
330
29559
100
AcDbEntity
  8
0
 48
50.0
100
AcDbBlockBegin
  2
*D34
 70
     1
 10
0.0
 20
0.0
 30
0.0
  3
*D34
  1

  0
LINE
  5
296D4
330
29559
100
AcDbEntity
  8
寸法
 62
     0
 48
50.0
370
    -2
100
AcDbLine
 10
4722.697227890193
 20
710.0921725336256
 30
0.0
 11
4722.697227890193
 21
371.1400660776927
 31
0.0
  0
LINE
  5
296D5
330
29559
100
AcDbEntity
  8
寸法
 62
     0
 48
50.0
370
    -2
100
AcDbLine
 10
5282.697227890194
 20
710.0921725336256
 30
0.0
 11
5282.697227890194
 21
371.1400660776927
 31
0.0
  0
LINE
  5
296D6
330
29559
100
AcDbEntity
  8
寸法
 62
     0
 48
50.0
370
    -2
100
AcDbLine
 10
4722.697227890193
 20
431.1400660776926
 30
0.0
 11
5282.697227890194
 21
431.1400660776926
 31
0.0
  0
INSERT
  5
296D7
330
29559
100
AcDbEntity
  8
寸法
 62
     0
 48
50.0
370
    -2
100
AcDbBlockReference
  2
_DOTSMALL
 10
4722.697227890193
 20
431.1400660776926
 30
0.0
 41
100.0
 42
100.0
 43
100.0
 50
180.0
  0
INSERT
  5
296D8
330
29559
100
AcDbEntity
  8
寸法
 62
     0
 48
50.0
370
    -2
100
AcDbBlockReference
  2
_DOTSMALL
 10
5282.697227890194
 20
431.1400660776926
 30
0.0
 41
100.0
 42
100.0
 43
100.0
  0
MTEXT
  5
296D9
330
29559
100
AcDbEntity
  8
寸法
 62
     7
 48
50.0
100
AcDbMText
 10
5002.697227890193
 20
531.1400660776926
 30
0.0
 40
120.0
 41
0.0
 71
     5
 72
     1
  1
\A1;300
  7
STYLE1
 73
     1
 44
1.0
1001
ACAD
1000
MTEXTBEGIN
1070
    73
1070
     1
1070
    44
1040
1.0
1070
    74
1070
     0
1000
MTEXTEND
  0
POINT
  5
296DA
330
29559
100
AcDbEntity
  8
DEFPOINTS
 62
     0
 48
50.0
100
AcDbPoint
 10
4722.697227890193
 20
730.0921725336256
 30
0.0
  0
POINT
  5
296DB
330
29559
100
AcDbEntity
  8
DEFPOINTS
 62
     0
 48
50.0
100
AcDbPoint
 10
5282.697227890194
 20
730.0921725336256
 30
0.0
  0
POINT
  5
296DC
330
29559
100
AcDbEntity
  8
DEFPOINTS
 62
     0
 48
50.0
100
AcDbPoint
 10
5282.697227890194
 20
431.1400660776926
 30
0.0
  0
ENDBLK
  5
29564
330
29559
100
AcDbEntity
  8
0
 48
50.0
100
AcDbBlockEnd
  0
BLOCK
  5
2956F
330
29565
100
AcDbEntity
  8
0
 48
50.0
100
AcDbBlockBegin
  2
*D35
 70
     1
 10
0.0
 20
0.0
 30
0.0
  3
*D35
  1

  0
LINE
  5
296CB
330
29565
100
AcDbEntity
  8
寸法
 62
     0
 48
50.0
370
    -2
100
AcDbLine
 10
4862.697227890194
 20
1870.092172533627
 30
0.0
 11
4062.05228985413
 21
1870.092172533627
 31
0.0
  0
LINE
  5
296CC
330
29565
100
AcDbEntity
  8
寸法
 62
     0
 48
50.0
370
    -2
100
AcDbLine
 10
4602.697227890196
 20
890.0921725336258
 30
0.0
 11
4062.052289854129
 21
890.0921725336258
 31
0.0
  0
LINE
  5
296CD
330
29565
100
AcDbEntity
  8
寸法
 62
     0
 48
50.0
370
    -2
100
AcDbLine
 10
4122.05228985413
 20
1870.092172533627
 30
0.0
 11
4122.05228985413
 21
890.0921725336258
 31
0.0
  0
INSERT
  5
296CE
330
29565
100
AcDbEntity
  8
寸法
 62
     0
 48
50.0
370
    -2
100
AcDbBlockReference
  2
_DOTSMALL
 10
4122.05228985413
 20
1870.092172533627
 30
0.0
 41
100.0
 42
100.0
 43
100.0
 50
90.0
  0
INSERT
  5
296CF
330
29565
100
AcDbEntity
  8
寸法
 62
     0
 48
50.0
370
    -2
100
AcDbBlockReference
  2
_DOTSMALL
 10
4122.05228985413
 20
890.0921725336258
 30
0.0
 41
100.0
 42
100.0
 43
100.0
 50
270.0
  0
MTEXT
  5
296D0
330
29565
100
AcDbEntity
  8
寸法
 62
     7
 48
50.0
100
AcDbMText
 10
4022.052289854129
 20
1380.092172533627
 30
0.0
 40
120.0
 41
0.0
 71
     5
 72
     1
  1
\A1;540
  7
STYLE1
 11
0.0000000000000001
 21
1.0
 31
0.0
 73
     1
 44
1.0
1001
ACAD
1000
MTEXTBEGIN
1070
    73
1070
     1
1070
    44
1040
1.0
1070
    74
1070
     0
1000
MTEXTEND
  0
POINT
  5
296D1
330
29565
100
AcDbEntity
  8
DEFPOINTS
 62
     0
 48
50.0
100
AcDbPoint
 10
4882.697227890194
 20
1870.092172533627
 30
0.0
  0
POINT
  5
296D2
330
29565
100
AcDbEntity
  8
DEFPOINTS
 62
     0
 48
50.0
100
AcDbPoint
 10
4622.697227890196
 20
890.0921725336258
 30
0.0
  0
POINT
  5
296D3
330
29565
100
AcDbEntity
  8
DEFPOINTS
 62
     0
 48
50.0
100
AcDbPoint
 10
4122.05228985413
 20
890.0921725336258
 30
0.0
  0
ENDBLK
  5
29570
330
29565
100
AcDbEntity
  8
0
 48
50.0
100
AcDbBlockEnd
  0
BLOCK
  5
2957B
330
29571
100
AcDbEntity
  8
0
 48
50.0
100
AcDbBlockBegin
  2
*D36
 70
     1
 10
0.0
 20
0.0
 30
0.0
  3
*D36
  1

  0
LINE
  5
296C2
330
29571
100
AcDbEntity
  8
寸法
 62
     0
 48
50.0
370
    -2
100
AcDbLine
 10
4702.697227890193
 20
1190.092172533625
 30
0.0
 11
4484.671835724618
 21
1190.092172533625
 31
0.0
  0
LINE
  5
296C3
330
29571
100
AcDbEntity
  8
寸法
 62
     0
 48
50.0
370
    -2
100
AcDbLine
 10
4602.697227890196
 20
890.0921725336258
 30
0.0
 11
4484.671835724618
 21
890.0921725336258
 31
0.0
  0
LINE
  5
296C4
330
29571
100
AcDbEntity
  8
寸法
 62
     0
 48
50.0
370
    -2
100
AcDbLine
 10
4544.671835724619
 20
1190.092172533625
 30
0.0
 11
4544.671835724619
 21
890.0921725336258
 31
0.0
  0
INSERT
  5
296C5
330
29571
100
AcDbEntity
  8
寸法
 62
     0
 48
50.0
370
    -2
100
AcDbBlockReference
  2
_DOTSMALL
 10
4544.671835724619
 20
1190.092172533625
 30
0.0
 41
100.0
 42
100.0
 43
100.0
 50
90.0
  0
INSERT
  5
296C6
330
29571
100
AcDbEntity
  8
寸法
 62
     0
 48
50.0
370
    -2
100
AcDbBlockReference
  2
_DOTSMALL
 10
4544.671835724619
 20
890.0921725336258
 30
0.0
 41
100.0
 42
100.0
 43
100.0
 50
270.0
  0
MTEXT
  5
296C7
330
29571
100
AcDbEntity
  8
寸法
 62
     7
 48
50.0
100
AcDbMText
 10
4444.671835724618
 20
1040.092172533626
 30
0.0
 40
120.0
 41
0.0
 71
     5
 72
     1
  1
\A1;150
  7
STYLE1
 11
0.0000000000000001
 21
1.0
 31
0.0
 73
     1
 44
1.0
1001
ACAD
1000
MTEXTBEGIN
1070
    73
1070
     1
1070
    44
1040
1.0
1070
    74
1070
     0
1000
MTEXTEND
  0
POINT
  5
296C8
330
29571
100
AcDbEntity
  8
DEFPOINTS
 62
     0
 48
50.0
100
AcDbPoint
 10
4722.697227890193
 20
1190.092172533625
 30
0.0
  0
POINT
  5
296C9
330
29571
100
AcDbEntity
  8
DEFPOINTS
 62
     0
 48
50.0
100
AcDbPoint
 10
4622.697227890196
 20
890.0921725336258
 30
0.0
  0
POINT
  5
296CA
330
29571
100
AcDbEntity
  8
DEFPOINTS
 62
     0
 48
50.0
100
AcDbPoint
 10
4544.671835724619
 20
890.0921725336258
 30
0.0
  0
ENDBLK
  5
2957C
330
29571
100
AcDbEntity
  8
0
 48
50.0
100
AcDbBlockEnd
  0
BLOCK
  5
29587
330
2957D
100
AcDbEntity
  8
0
 48
50.0
100
AcDbBlockBegin
  2
*D37
 70
     1
 10
0.0
 20
0.0
 30
0.0
  3
*D37
  1

  0
LINE
  5
296B9
330
2957D
100
AcDbEntity
  8
寸法
 62
     0
 48
50.0
370
    -2
100
AcDbLine
 10
5122.697227890193
 20
1890.092172533627
 30
0.0
 11
5122.697227890193
 21
2454.676932429102
 31
0.0
  0
LINE
  5
296BA
330
2957D
100
AcDbEntity
  8
寸法
 62
     0
 48
50.0
370
    -2
100
AcDbLine
 10
4882.697227890194
 20
1890.092172533627
 30
0.0
 11
4882.697227890194
 21
2454.676932429102
 31
0.0
  0
LINE
  5
296BB
330
2957D
100
AcDbEntity
  8
寸法
 62
     0
 48
50.0
370
    -2
100
AcDbLine
 10
5122.697227890193
 20
2394.676932429102
 30
0.0
 11
4882.697227890194
 21
2394.676932429102
 31
0.0
  0
INSERT
  5
296BC
330
2957D
100
AcDbEntity
  8
寸法
 62
     0
 48
50.0
370
    -2
100
AcDbBlockReference
  2
_DOTSMALL
 10
5122.697227890193
 20
2394.676932429102
 30
0.0
 41
100.0
 42
100.0
 43
100.0
  0
INSERT
  5
296BD
330
2957D
100
AcDbEntity
  8
寸法
 62
     0
 48
50.0
370
    -2
100
AcDbBlockReference
  2
_DOTSMALL
 10
4882.697227890194
 20
2394.676932429102
 30
0.0
 41
100.0
 42
100.0
 43
100.0
 50
180.0
  0
MTEXT
  5
296BE
330
2957D
100
AcDbEntity
  8
寸法
 62
     7
 48
50.0
100
AcDbMText
 10
5002.697227890195
 20
2600.717744993906
 30
0.0
 40
120.0
 41
0.0
 71
     5
 72
     1
  1
\A1;120\P(195)
  7
STYLE1
 73
     1
 44
1.0
1001
ACAD
1000
MTEXTBEGIN
1070
    73
1070
     1
1070
    44
1040
1.0
1070
    74
1070
     0
1000
MTEXTEND
  0
POINT
  5
296BF
330
2957D
100
AcDbEntity
  8
DEFPOINTS
 62
     0
 48
50.0
100
AcDbPoint
 10
5122.697227890193
 20
1870.092172533627
 30
0.0
  0
POINT
  5
296C0
330
2957D
100
AcDbEntity
  8
DEFPOINTS
 62
     0
 48
50.0
100
AcDbPoint
 10
4882.697227890194
 20
1870.092172533627
 30
0.0
  0
POINT
  5
296C1
330
2957D
100
AcDbEntity
  8
DEFPOINTS
 62
     0
 48
50.0
100
AcDbPoint
 10
4882.697227890194
 20
2394.676932429102
 30
0.0
  0
ENDBLK
  5
29588
330
2957D
100
AcDbEntity
  8
0
 48
50.0
100
AcDbBlockEnd
  0
BLOCK
  5
29595
330
29589
100
AcDbEntity
  8
0
 48
50.0
100
AcDbBlockBegin
  2
*D38
 70
     1
 10
0.0
 20
0.0
 30
0.0
  3
*D38
  1

  0
LINE
  5
296E6
330
29589
100
AcDbEntity
  8
寸法
 62
     0
 48
50.0
370
    -2
100
AcDbLine
 10
7311.246369361687
 20
1936.042172533627
 30
0.0
 11
8557.650451721526
 21
1936.042172533627
 31
0.0
  0
LINE
  5
296E7
330
29589
100
AcDbEntity
  8
寸法
 62
     0
 48
50.0
370
    -2
100
AcDbLine
 10
7545.246369361686
 20
1870.092172533627
 30
0.0
 11
8557.650451721526
 21
1870.092172533627
 31
0.0
  0
LINE
  5
296E8
330
29589
100
AcDbEntity
  8
寸法
 62
     0
 48
50.0
370
    -2
100
AcDbLine
 10
8497.650451721526
 20
1936.042172533627
 30
0.0
 11
8497.650451721526
 21
2036.042172533627
 31
0.0
  0
LINE
  5
296E9
330
29589
100
AcDbEntity
  8
寸法
 62
     0
 48
50.0
370
    -2
100
AcDbLine
 10
8497.650451721526
 20
1870.092172533627
 30
0.0
 11
8497.650451721526
 21
1138.074365690661
 31
0.0
  0
LINE
  5
296EA
330
29589
100
AcDbEntity
  8
寸法
 62
     0
 48
50.0
370
    -2
100
AcDbLine
 10
8497.650451721526
 20
1936.042172533627
 30
0.0
 11
8497.650451721526
 21
1870.092172533627
 31
0.0
  0
INSERT
  5
296EB
330
29589
100
AcDbEntity
  8
寸法
 62
     0
 48
50.0
370
    -2
100
AcDbBlockReference
  2
_DOTSMALL
 10
8497.650451721526
 20
1936.042172533627
 30
0.0
 41
100.0
 42
100.0
 43
100.0
 50
270.0
  0
INSERT
  5
296EC
330
29589
100
AcDbEntity
  8
寸法
 62
     0
 48
50.0
370
    -2
100
AcDbBlockReference
  2
_DOTSMALL
 10
8497.650451721526
 20
1870.092172533627
 30
0.0
 41
100.0
 42
100.0
 43
100.0
 50
90.0
  0
MTEXT
  5
296ED
330
29589
100
AcDbEntity
  8
寸法
 62
     7
 48
50.0
100
AcDbMText
 10
8397.638640697904
 20
1404.083269112145
 30
0.0
 40
120.0
 41
0.0
 71
     5
 72
     1
  1
\A1;20～25
  7
STYLE1
 11
0.0000000000000001
 21
1.0
 31
0.0
 73
     1
 44
1.0
1001
ACAD
1000
MTEXTBEGIN
1070
    73
1070
     1
1070
    44
1040
1.0
1070
    74
1070
     0
1000
MTEXTEND
  0
POINT
  5
296EE
330
29589
100
AcDbEntity
  8
DEFPOINTS
 62
     0
 48
50.0
100
AcDbPoint
 10
7291.246369361687
 20
1936.042172533627
 30
0.0
  0
POINT
  5
296EF
330
29589
100
AcDbEntity
  8
DEFPOINTS
 62
     0
 48
50.0
100
AcDbPoint
 10
7525.246369361686
 20
1870.092172533627
 30
0.0
  0
POINT
  5
296F0
330
29589
100
AcDbEntity
  8
DEFPOINTS
 62
     0
 48
50.0
100
AcDbPoint
 10
8497.650451721526
 20
1870.092172533627
 30
0.0
  0
ENDBLK
  5
29596
330
29589
100
AcDbEntity
  8
0
 48
50.0
100
AcDbBlockEnd
  0
BLOCK
  5
295A0
330
29597
100
AcDbEntity
  8
0
 48
50.0
100
AcDbBlockBegin
  2
*D39
 70
     1
 10
0.0
 20
0.0
 30
0.0
  3
*D39
  1

  0
LINE
  5
296DD
330
29597
100
AcDbEntity
  8
寸法
 62
     0
 48
50.0
370
    -2
100
AcDbLine
 10
7545.246369361686
 20
1870.092172533627
 30
0.0
 11
8212.582119072743
 21
1870.092172533627
 31
0.0
  0
LINE
  5
296DE
330
29597
100
AcDbEntity
  8
寸法
 62
     0
 48
50.0
370
    -2
100
AcDbLine
 10
7545.246369361686
 20
1465.092172533625
 30
0.0
 11
8212.582119072743
 21
1465.092172533625
 31
0.0
  0
LINE
  5
296DF
330
29597
100
AcDbEntity
  8
寸法
 62
     0
 48
50.0
370
    -2
100
AcDbLine
 10
8152.582119072743
 20
1870.092172533627
 30
0.0
 11
8152.582119072743
 21
1465.092172533625
 31
0.0
  0
INSERT
  5
296E0
330
29597
100
AcDbEntity
  8
寸法
 62
     0
 48
50.0
370
    -2
100
AcDbBlockReference
  2
_DOTSMALL
 10
8152.582119072743
 20
1870.092172533627
 30
0.0
 41
100.0
 42
100.0
 43
100.0
 50
90.0
  0
INSERT
  5
296E1
330
29597
100
AcDbEntity
  8
寸法
 62
     0
 48
50.0
370
    -2
100
AcDbBlockReference
  2
_DOTSMALL
 10
8152.582119072743
 20
1465.092172533625
 30
0.0
 41
100.0
 42
100.0
 43
100.0
 50
270.0
  0
MTEXT
  5
296E2
330
29597
100
AcDbEntity
  8
寸法
 62
     7
 48
50.0
100
AcDbMText
 10
8052.582119072743
 20
1667.592172533627
 30
0.0
 40
120.0
 41
0.0
 71
     5
 72
     1
  1
\A1;180
  7
STYLE1
 11
0.0000000000000001
 21
1.0
 31
0.0
 73
     1
 44
1.0
1001
ACAD
1000
MTEXTBEGIN
1070
    73
1070
     1
1070
    44
1040
1.0
1070
    74
1070
     0
1000
MTEXTEND
  0
POINT
  5
296E3
330
29597
100
AcDbEntity
  8
DEFPOINTS
 62
     0
 48
50.0
100
AcDbPoint
 10
7525.246369361686
 20
1870.092172533627
 30
0.0
  0
POINT
  5
296E4
330
29597
100
AcDbEntity
  8
DEFPOINTS
 62
     0
 48
50.0
100
AcDbPoint
 10
7525.246369361686
 20
1465.092172533625
 30
0.0
  0
POINT
  5
296E5
330
29597
100
AcDbEntity
  8
DEFPOINTS
 62
     0
 48
50.0
100
AcDbPoint
 10
8152.582119072743
 20
1465.092172533625
 30
0.0
  0
ENDBLK
  5
295A1
330
29597
100
AcDbEntity
  8
0
 48
50.0
100
AcDbBlockEnd
  0
ENDSEC
  0
SECTION
  2
ENTITIES
  0
MTEXT
  5
763F
330
747D
100
AcDbEntity
  8
0
100
AcDbMText
 10
302.846345836809
 20
280.1983726409901
 30
0.0
 40
3.5
 41
5.323721266742722
 71
     1
 72
     5
  1

  7
MSMINCHO
 73
     1
 44
1.0
1001
ACAD
1000
MTEXTBEGIN
1070
    73
1070
     1
1070
    44
1040
1.0
1070
    74
1070
     0
1000
MTEXTEND
  0
LINE
  5
10B57
330
747D
100
AcDbEntity
  8
補助
  6
PHANTOM
 62
   230
 48
50.0
100
AcDbLine
 10
139.9999999999995
 20
11409.6
 30
0.0
 11
16307.2
 21
11409.6
 31
0.0
  0
LINE
  5
10B59
330
747D
100
AcDbEntity
  8
仕様書枠
  6
Continuous
 48
50.0
100
AcDbLine
 10
13107.2
 20
1200.0
 30
0.0
 11
13107.2
 21
-0.0000000000000729
 31
0.0
  0
LINE
  5
10B5D
330
747D
100
AcDbEntity
  8
仕様書枠
 48
50.0
100
AcDbLine
 10
140.0
 20
0.0
 30
0.0
 11
16307.2
 21
-0.0000000000000909
 31
0.0
  0
LINE
  5
10B5E
330
747D
100
AcDbEntity
  8
補助
  6
PHANTOM
 62
   230
 48
50.0
100
AcDbLine
 10
16307.2
 20
11409.6
 30
0.0
 11
16307.2
 21
1200.0
 31
0.0
  0
LINE
  5
10B6C
330
747D
100
AcDbEntity
  8
仕様書枠
 48
50.0
100
AcDbLine
 10
13107.2
 20
1200.0
 30
0.0
 11
16307.2
 21
1200.0
 31
0.0
  0
TEXT
  5
10B73
330
747D
100
AcDbEntity
  8
文字
 62
     7
 48
50.0
100
AcDbText
 10
13162.9790565769
 20
895.0906074299405
 30
0.0
 40
200.0
  1
基 礎 図
  7
STYLE2
100
AcDbText
  0
LINE
  5
10B7B
330
747D
100
AcDbEntity
  8
仕様書枠
 48
50.0
100
AcDbLine
 10
13107.2
 20
800.0
 30
0.0
 11
14251.2
 21
800.0
 31
0.0
  0
LINE
  5
10B88
330
747D
100
AcDbEntity
  8
仕様書枠
  6
Continuous
 48
50.0
100
AcDbLine
 10
14251.2
 20
1200.0
 30
0.0
 11
14251.2
 21
800.0
 31
0.0
  0
LINE
  5
16462
330
747D
100
AcDbEntity
  8
仕様書枠
 48
50.0
100
AcDbLine
 10
16307.2
 20
1200.0
 30
0.0
 11
16307.2
 21
-0.0000000000000909
 31
0.0
  0
LINE
  5
1903B
330
747D
100
AcDbEntity
  8
補助
  6
PHANTOM
 62
   230
 48
50.0
100
AcDbLine
 10
140.0
 20
0.0
 30
0.0
 11
139.9999999999995
 21
11409.6
 31
0.0
  0
LEADER
  5
1AC27
330
747D
100
AcDbEntity
  8
寸法
 48
50.0
100
AcDbLeader
  3
INABA_S40G
 73
     0
 74
     0
 75
     1
 40
120.0
 41
720.0000000000001
 76
     3
 10
10858.69549961499
 20
7091.715377666537
 30
0.0
 10
11025.46907400128
 20
6815.701464098705
 30
0.0
 10
11125.46907400128
 20
6815.701464098705
 30
0.0
340
1AC28
1001
ACAD
1000
DSTYLE
1002
{
1070
   341
1005
0
1002
}
  0
MTEXT
  5
1AC28
102
{ACAD_REACTORS
330
1AC27
102
}
330
747D
100
AcDbEntity
  8
部品1
 62
     7
 48
50.0
100
AcDbMText
 10
11885.46907400128
 20
6915.701464098704
 30
0.0
 40
120.0
 41
0.0
 71
     6
 72
     1
  1
\A1;床下換気口
  7
STYLE1
 73
     1
 44
1.0
1001
ACAD
1000
MTEXTBEGIN
1070
    73
1070
     1
1070
    44
1040
1.0
1070
    74
1070
     0
1000
MTEXTEND
  0
TEXT
  5
1AC29
330
747D
100
AcDbEntity
  8
部品1
 48
50.0
100
AcDbText
 10
11202.50116389398
 20
5482.422305747938
 30
0.0
 40
80.0
  1
(a=45,b=55,c=75)
  7
STYLE1
100
AcDbText
  0
TEXT
  5
1AC2A
330
747D
100
AcDbEntity
  8
部品1
 48
50.0
100
AcDbText
 10
11043.92215513968
 20
5589.267526616692
 30
0.0
 40
80.0
  1
※a,b,cは屋根の出幅です。
  7
STYLE1
100
AcDbText
  0
MTEXT
  5
1AC2B
102
{ACAD_REACTORS
330
1AC2C
102
}
330
747D
100
AcDbEntity
  8
部品1
 62
     7
 48
50.0
100
AcDbMText
 10
11841.70935112828
 20
5768.578213549766
 30
0.0
 40
120.0
 41
0.0
 71
     6
 72
     1
  1
\A1;屋根の外寸
  7
STYLE1
 73
     1
 44
1.0
1001
ACAD
1000
MTEXTBEGIN
1070
    73
1070
     1
1070
    44
1040
1.0
1070
    74
1070
     0
1000
MTEXTEND
  0
LEADER
  5
1AC2C
330
747D
100
AcDbEntity
  8
寸法
 48
50.0
100
AcDbLeader
  3
INABA_S40G
 73
     0
 74
     0
 75
     1
 40
120.0
 41
672.0
 76
     3
 10
10903.76933893624
 20
5942.467557013342
 30
0.0
 10
11029.70935112828
 20
5668.578213549766
 30
0.0
 10
11129.70935112828
 20
5668.578213549766
 30
0.0
340
1AC2B
1001
ACAD
1000
DSTYLE
1002
{
1070
   341
1005
0
1002
}
  0
TEXT
  5
1C7A1
330
747D
100
AcDbEntity
  8
文字
 62
     7
 48
50.0
100
AcDbText
 10
13188.16259899338
 20
79.80631269190417
 30
0.0
 40
80.0
  1
※布基礎には換気口を設けてください。
  7
STYLE2
100
AcDbText
  0
TEXT
  5
1C7E7
330
747D
100
AcDbEntity
  8
文字
 62
     7
 48
50.0
100
AcDbText
 10
13188.16259899338
 20
246.7109242801889
 30
0.0
 40
80.0
  1
※寒冷地等は地域の実情に合わせた基礎にして下さい。
  7
STYLE2
100
AcDbText
  0
TEXT
  5
1C7E8
330
747D
100
AcDbEntity
  8
文字
 62
     7
 48
50.0
100
AcDbText
 10
14478.98566430227
 20
499.5983841039506
 30
0.0
 40
160.0
  1
ＮＸＮ－１４０Ｈ
  7
STYLE2
100
AcDbText
  0
TEXT
  5
1C7E9
330
747D
100
AcDbEntity
  8
文字
 62
     7
 48
50.0
100
AcDbText
 10
14641.2525855784
 20
871.1744590657927
 30
0.0
 40
100.0
  1
～一般型・多雪地型～
  7
STYLE2
100
AcDbText
  0
TEXT
  5
1C7EC
330
747D
100
AcDbEntity
  8
文字
 62
     7
 48
50.0
100
AcDbText
 10
14524.131837222
 20
1031.557706291229
 30
0.0
 40
100.0
  1
      <縮尺> S=1/40
  7
STYLE2
100
AcDbText
  0
TEXT
  5
1C7ED
330
747D
100
AcDbEntity
  8
文字
 62
     7
 48
50.0
100
AcDbText
 10
13201.43669998441
 20
477.2740661031257
 30
0.0
 40
160.0
  1
機種名
  7
STYLE2
100
AcDbText
  0
LINE
  5
1C7EF
330
747D
100
AcDbEntity
  8
文字
 62
     7
 48
50.0
100
AcDbLine
 10
13187.2
 20
400.0
 30
0.0
 11
16227.2
 21
400.0
 31
0.0
  0
MTEXT
  5
1D2D5
102
{ACAD_REACTORS
330
1D2D6
102
}
330
747D
100
AcDbEntity
  8
部品1
 62
     7
 48
50.0
100
AcDbMText
 10
12053.99523070988
 20
8705.062963006767
 30
0.0
 40
120.0
 41
0.0
 71
     6
 72
     1
  1
アンカーボルト
  7
STYLE1
 73
     1
 44
1.0
1001
ACAD
1000
MTEXTBEGIN
1070
    73
1070
     1
1070
    44
1040
1.0
1070
    74
1070
     0
1000
MTEXTEND
  0
LEADER
  5
1D2D6
330
747D
100
AcDbEntity
  8
寸法
 48
50.0
100
AcDbLeader
  3
INABA_S40G
 73
     0
 74
     0
 75
     1
 40
120.0
 41
994.3492424049171
 76
     3
 10
10735.680085757
 20
8274.721051443437
 30
0.0
 10
10919.64598830496
 20
8605.062963006767
 30
0.0
 10
11019.64598830496
 20
8605.062963006767
 30
0.0
340
1D2D5
1001
ACAD
1000
DSTYLE
1002
{
1070
   341
1005
0
1002
}
  0
LINE
  5
20992
330
747D
100
AcDbEntity
  8
想像線
 48
10.0
100
AcDbLine
 10
10903.6
 20
5702.513207084748
 30
0.0
 11
10903.6
 21
8472.513207084729
 31
0.0
  0
LINE
  5
261AF
102
{ACAD_REACTORS
330
2968F
102
}
330
747D
100
AcDbEntity
  8
部品1
 48
50.0
100
AcDbLine
 10
10628.6
 20
8277.513207084727
 30
0.0
 11
8235.600000000001
 21
8277.513207084728
 31
0.0
  0
DIMENSION
  5
261B0
330
747D
100
AcDbEntity
  8
寸法
 48
50.0
100
AcDbDimension
  2
*D1
 10
8105.6
 20
9143.272833626813
 30
0.0
 11
9420.6
 21
9243.284644650435
 31
0.0
 70
    32
 71
     5
 42
2630.0
  3
INABA_S40G
100
AcDbAlignedDimension
 13
10735.6
 23
8324.513207084729
 33
0.0
 14
8105.6
 24
8324.513207084729
 34
0.0
100
AcDbRotatedDimension
1001
ACAD
1000
DSTYLE
1002
{
1070
   341
1005
0
1002
}
  0
DIMENSION
  5
261B1
330
747D
100
AcDbEntity
  8
寸法
 48
50.0
100
AcDbDimension
  2
*D2
 10
8670.14438614211
 20
5987.513207084748
 30
0.0
 11
8670.144386142109
 21
6257.57226220287
 31
0.0
 70
   160
 71
     5
 42
110.0000000000063
  3
INABA_S40G
100
AcDbAlignedDimension
 13
8782.599867447318
 23
5877.513207084741
 33
0.0
 14
8235.600000000001
 24
5987.513207084748
 34
0.0
 50
90.0
100
AcDbRotatedDimension
1001
ACAD
1000
DSTYLE
1002
{
1070
   341
1005
0
1002
}
  0
DIMENSION
  5
261B2
330
747D
100
AcDbEntity
  8
寸法
 48
50.0
100
AcDbDimension
  2
*D3
 10
8670.14438614211
 20
5877.513207084741
 30
0.0
 11
8670.144386142109
 21
5421.224902116788
 31
0.0
 70
   160
 71
     5
 42
119.9999999999863
  3
INABA_S40G
100
AcDbAlignedDimension
 13
8307.41918098816
 23
5757.513207084755
 33
0.0
 14
8782.599867447318
 24
5877.513207084741
 34
0.0
 50
90.0
100
AcDbRotatedDimension
1001
ACAD
1000
DSTYLE
1002
{
1070
   341
1005
0
1002
}
  0
LINE
  5
261B3
102
{ACAD_REACTORS
330
2968F
102
}
330
747D
100
AcDbEntity
  8
部品1
 48
50.0
100
AcDbLine
 10
10858.6
 20
5757.513207084747
 30
0.0
 11
8196.600000000001
 21
5757.51320708473
 31
0.0
  0
LINE
  5
261B4
102
{ACAD_REACTORS
330
2968F
102
}
330
747D
100
AcDbEntity
  8
部品1
 48
50.0
100
AcDbLine
 10
10628.6
 20
5877.513207084745
 30
0.0
 11
8235.600000000001
 21
5877.51320708474
 31
0.0
  0
DIMENSION
  5
261B5
330
747D
100
AcDbEntity
  8
寸法
 48
50.0
100
AcDbDimension
  2
*D4
 10
8223.600000000001
 20
8924.422972733054
 30
0.0
 11
8673.6
 21
9024.422972733054
 31
0.0
 70
    32
 71
     5
 42
900.0
  3
INABA_S40G
100
AcDbAlignedDimension
 13
9123.600000000001
 23
7722.513207084728
 33
0.0
 14
8223.600000000001
 24
7722.513207084728
 34
0.0
100
AcDbRotatedDimension
1001
ACAD
1000
DSTYLE
1002
{
1070
   341
1005
0
1002
}
  0
LINE
  5
261B8
102
{ACAD_REACTORS
330
2968F
102
}
330
747D
100
AcDbEntity
  8
部品1
 48
50.0
100
AcDbLine
 10
10858.6
 20
8397.513207084728
 30
0.0
 11
5588.6
 21
8397.513207084728
 31
0.0
  0
DIMENSION
  5
261B9
330
747D
100
AcDbEntity
  8
寸法
 48
50.0
100
AcDbDimension
  2
*D5
 10
10858.6
 20
9355.733529143646
 30
0.0
 11
8223.600000000001
 21
9455.745340167268
 31
0.0
 70
    32
 71
     5
 42
5270.0
  3
INABA_S40G
100
AcDbAlignedDimension
 13
5588.6
 23
8397.513207084728
 33
0.0
 14
10858.6
 24
8397.513207084728
 34
0.0
100
AcDbRotatedDimension
1001
ACAD
1000
DSTYLE
1002
{
1070
   341
1005
0
1002
}
  0
DIMENSION
  5
261C9
330
747D
100
AcDbEntity
  8
寸法
 48
50.0
100
AcDbDimension
  2
*D6
 10
7975.6
 20
6182.360657588265
 30
0.0
 11
8105.6
 21
6182.360657588265
 31
0.0
 70
   160
 71
     5
 42
260.0
  3
INABA_S40G
100
AcDbAlignedDimension
 13
8235.600000000001
 23
5987.513207084748
 33
0.0
 14
7975.6
 24
5987.513207084748
 34
0.0
100
AcDbRotatedDimension
1001
ACAD
1000
DSTYLE
1002
{
1070
   341
1005
0
1002
}
  0
LINE
  5
261CB
102
{ACAD_REACTORS
330
2968F
102
}
330
747D
100
AcDbEntity
  8
部品1
 48
50.0
100
AcDbLine
 10
5588.6
 20
5757.51320708473
 30
0.0
 11
5588.6
 21
8397.513207084728
 31
0.0
  0
LINE
  5
261CC
102
{ACAD_REACTORS
330
2968F
102
}
330
747D
100
AcDbEntity
  8
部品1
 48
50.0
100
AcDbLine
 10
5708.6
 20
5987.513207084731
 30
0.0
 11
5708.6
 21
8167.513207084725
 31
0.0
  0
DIMENSION
  5
261CD
330
747D
100
AcDbEntity
  8
寸法
 48
50.0
100
AcDbDimension
  2
*D7
 10
4840.714637266784
 20
5757.51320708473
 30
0.0
 11
4840.714637266783
 21
7077.513207084729
 31
0.0
 70
   160
 71
     5
 42
2640.0
  3
INABA_S40G
100
AcDbAlignedDimension
 13
5588.6
 23
8397.513207084728
 33
0.0
 14
5588.6
 24
5757.51320708473
 34
0.0
 50
90.0
100
AcDbRotatedDimension
1001
ACAD
1000
DSTYLE
1002
{
1070
   341
1005
0
1002
}
  0
DIMENSION
  5
261CE
330
747D
100
AcDbEntity
  8
寸法
 48
50.0
100
AcDbDimension
  2
*D8
 10
5092.657733986183
 20
5880.513207084732
 30
0.0
 11
5092.657733986182
 21
7077.513207084729
 31
0.0
 70
   160
 71
     5
 42
2393.999999999998
  3
INABA_S40G
100
AcDbAlignedDimension
 13
5661.6
 23
8274.513207084728
 33
0.0
 14
5661.600000000007
 24
5880.513207084732
 34
0.0
 50
90.0
100
AcDbRotatedDimension
1001
ACAD
1000
DSTYLE
1002
{
1070
   341
1005
0
1002
}
  0
DIMENSION
  5
2622F
330
747D
100
AcDbEntity
  8
寸法
 48
50.0
100
AcDbDimension
  2
*D9
 10
5092.657733986179
 20
5757.51320708473
 30
0.0
 11
5092.657733986178
 21
5421.982258242136
 31
0.0
 70
   160
 71
     5
 42
123.0000000000018
  3
INABA_S40G
100
AcDbAlignedDimension
 13
5661.600000000007
 23
5880.513207084732
 33
0.0
 14
5588.6
 24
5757.51320708473
 34
0.0
 50
90.0
100
AcDbRotatedDimension
1001
ACAD
1000
DSTYLE
1002
{
1070
   341
1005
0
1002
}
  0
LINE
  5
26231
102
{ACAD_REACTORS
330
2968F
102
}
330
747D
100
AcDbEntity
  8
部品1
 48
50.0
100
AcDbLine
 10
8196.600000000001
 20
5682.513207084731
 30
0.0
 11
6041.6
 21
5682.513207084717
 31
0.0
  0
LINE
  5
26233
102
{ACAD_REACTORS
330
2968F
102
}
330
747D
100
AcDbEntity
  8
部品1
 48
50.0
100
AcDbLine
 10
7975.6
 20
5877.513207084738
 30
0.0
 11
5818.6
 21
5877.513207084732
 31
0.0
  0
LINE
  5
26235
330
747D
100
AcDbEntity
  8
部品1
 48
50.0
100
AcDbLine
 10
5588.6
 20
5757.51320708473
 30
0.0
 11
6041.6
 21
5757.51320708473
 31
0.0
  0
DIMENSION
  5
26236
330
747D
100
AcDbEntity
  8
寸法
 48
50.0
100
AcDbDimension
  2
*D10
 10
5588.6
 20
5197.668192742538
 30
0.0
 11
5815.100000000001
 21
5297.668192742538
 31
0.0
 70
    32
 71
     5
 42
453.0
  3
INABA_S40G
100
AcDbAlignedDimension
 13
6041.6
 23
5682.513207084717
 33
0.0
 14
5588.6
 24
5757.51320708473
 34
0.0
100
AcDbRotatedDimension
1001
ACAD
1000
DSTYLE
1002
{
1070
   341
1005
0
1002
}
  0
LINE
  5
26237
330
747D
100
AcDbEntity
  8
部品1
 48
50.0
100
AcDbLine
 10
5818.6
 20
5987.513207084731
 30
0.0
 11
5708.600000000001
 21
5987.513207084731
 31
0.0
  0
CIRCLE
  5
26238
330
747D
100
AcDbEntity
  8
部品1
 48
50.0
100
AcDbCircle
 10
5711.600000000007
 20
5880.513207084732
 30
0.0
 40
35.0
  0
LINE
  5
26239
330
747D
100
AcDbEntity
  8
センター
 48
2.0
100
AcDbLine
 10
5661.600000000007
 20
5880.513207084732
 30
0.0
 11
5761.600000000008
 21
5880.513207084732
 31
0.0
  0
LINE
  5
2623A
330
747D
100
AcDbEntity
  8
センター
 48
2.0
100
AcDbLine
 10
5711.600000000007
 20
5930.513207084731
 30
0.0
 11
5711.600000000007
 21
5830.513207084731
 31
0.0
  0
LINE
  5
2623B
330
747D
100
AcDbEntity
  8
部品1
 48
50.0
100
AcDbLine
 10
5818.6
 20
5877.513207084732
 30
0.0
 11
5818.6
 21
5987.513207084731
 31
0.0
  0
LINE
  5
2623C
330
747D
100
AcDbEntity
  8
部品1
 48
50.0
100
AcDbLine
 10
6041.6
 20
5682.513207084734
 30
0.0
 11
6041.6
 21
5757.513207084716
 31
0.0
  0
LINE
  5
26322
102
{ACAD_REACTORS
330
2968F
102
}
330
747D
100
AcDbEntity
  8
部品1
 48
50.0
100
AcDbLine
 10
6997.100000000009
 20
5877.513207084735
 30
0.0
 11
6997.100000000007
 21
5682.513207084721
 31
0.0
  0
LINE
  5
26324
102
{ACAD_REACTORS
330
2968F
102
}
330
747D
100
AcDbEntity
  8
部品1
 48
50.0
100
AcDbLine
 10
6797.100000000007
 20
5877.513207084735
 30
0.0
 11
6797.100000000007
 21
5682.513207084721
 31
0.0
  0
LINE
  5
26387
330
747D
100
AcDbEntity
  8
部品1
 48
50.0
100
AcDbLine
 10
8196.600000000001
 20
5682.513207084734
 30
0.0
 11
8196.600000000001
 21
5757.513207084731
 31
0.0
  0
LINE
  5
263FC
330
747D
100
AcDbEntity
  8
部品1
 48
50.0
100
AcDbLine
 10
8235.600000000001
 20
5987.513207084748
 30
0.0
 11
7975.6
 21
5987.513207084748
 31
0.0
  0
LINE
  5
26431
330
747D
100
AcDbEntity
  8
部品1
 48
50.0
100
AcDbLine
 10
7975.600000000001
 20
5877.513207084739
 30
0.0
 11
7975.6
 21
5987.513207084748
 31
0.0
  0
LINE
  5
26432
330
747D
100
AcDbEntity
  8
センター
 48
2.0
100
AcDbLine
 10
8105.600000000007
 20
5930.513207084731
 30
0.0
 11
8105.600000000007
 21
5830.513207084731
 31
0.0
  0
CIRCLE
  5
26433
330
747D
100
AcDbEntity
  8
部品1
 48
50.0
100
AcDbCircle
 10
8105.600000000007
 20
5880.513207084732
 30
0.0
 40
35.0
  0
LINE
  5
26434
330
747D
100
AcDbEntity
  8
センター
 48
2.0
100
AcDbLine
 10
8055.600000000008
 20
5880.513207084732
 30
0.0
 11
8155.600000000008
 21
5880.513207084732
 31
0.0
  0
LINE
  5
2644E
330
747D
100
AcDbEntity
  8
部品1
 48
50.0
100
AcDbLine
 10
8235.600000000001
 20
5877.51320708474
 30
0.0
 11
8235.600000000001
 21
5987.513207084748
 31
0.0
  0
DIMENSION
  5
26450
330
747D
100
AcDbEntity
  8
寸法
 48
50.0
100
AcDbDimension
  2
*D11
 10
5092.657733986179
 20
8274.513207084728
 30
0.0
 11
5092.657733986178
 21
8670.619808802529
 31
0.0
 70
   160
 71
     5
 42
123.0
  3
INABA_S40G
100
AcDbAlignedDimension
 13
5588.6
 23
8397.513207084728
 33
0.0
 14
5661.6
 24
8274.513207084728
 34
0.0
 50
90.0
100
AcDbRotatedDimension
1001
ACAD
1000
DSTYLE
1002
{
1070
   341
1005
0
1002
}
  0
DIMENSION
  5
26452
330
747D
100
AcDbEntity
  8
寸法
 48
50.0
100
AcDbDimension
  2
*D12
 10
6493.6
 20
8924.422972733054
 30
0.0
 11
6908.599999999999
 21
9024.422972733054
 31
0.0
 70
    32
 71
     5
 42
830.0
  3
INABA_S40G
100
AcDbAlignedDimension
 13
7323.6
 23
7722.513207084728
 33
0.0
 14
6493.6
 24
7722.513207084728
 34
0.0
100
AcDbRotatedDimension
1001
ACAD
1000
DSTYLE
1002
{
1070
   341
1005
0
1002
}
  0
LINE
  5
26453
102
{ACAD_REACTORS
330
2968F
102
}
330
747D
100
AcDbEntity
  8
部品1
 48
50.0
100
AcDbLine
 10
7975.6
 20
8277.513207084728
 30
0.0
 11
5818.6
 21
8277.513207084728
 31
0.0
  0
DIMENSION
  5
26454
330
747D
100
AcDbEntity
  8
寸法
 48
50.0
100
AcDbDimension
  2
*D13
 10
5711.6
 20
9143.272833626813
 30
0.0
 11
6908.599999999999
 21
9243.284644650435
 31
0.0
 70
    32
 71
     5
 42
2394.0
  3
INABA_S40G
100
AcDbAlignedDimension
 13
8105.6
 23
8324.513207084729
 33
0.0
 14
5711.6
 24
8324.513207084729
 34
0.0
100
AcDbRotatedDimension
1001
ACAD
1000
DSTYLE
1002
{
1070
   341
1005
0
1002
}
  0
CIRCLE
  5
26455
330
747D
100
AcDbEntity
  8
部品1
 48
50.0
100
AcDbCircle
 10
5711.6
 20
8274.513207084728
 30
0.0
 40
35.0
  0
LINE
  5
26456
330
747D
100
AcDbEntity
  8
センター
 48
2.0
100
AcDbLine
 10
5711.6
 20
8324.513207084729
 30
0.0
 11
5711.6
 21
8224.513207084729
 31
0.0
  0
DIMENSION
  5
26457
330
747D
100
AcDbEntity
  8
寸法
 48
50.0
100
AcDbDimension
  2
*D14
 10
6035.307249876098
 20
8397.513207084726
 30
0.0
 11
6035.307249876098
 21
8675.596750357614
 31
0.0
 70
   160
 71
     5
 42
120.0
  3
INABA_S40G
100
AcDbAlignedDimension
 13
5818.599999999999
 23
8277.513207084727
 33
0.0
 14
5818.600000000002
 24
8397.513207084726
 34
0.0
 50
90.0
100
AcDbRotatedDimension
1001
ACAD
1000
DSTYLE
1002
{
1070
   341
1005
0
1002
}
  0
DIMENSION
  5
26458
330
747D
100
AcDbEntity
  8
寸法
 48
50.0
100
AcDbDimension
  2
*D15
 10
5588.6
 20
8924.422972733054
 30
0.0
 11
6041.1
 21
9024.422972733054
 31
0.0
 70
    32
 71
     5
 42
905.0
  3
INABA_S40G
100
AcDbAlignedDimension
 13
6493.6
 23
7722.513207084728
 33
0.0
 14
5588.6
 24
8397.513207084728
 34
0.0
100
AcDbRotatedDimension
1001
ACAD
1000
DSTYLE
1002
{
1070
   341
1005
0
1002
}
  0
DIMENSION
  5
26459
330
747D
100
AcDbEntity
  8
寸法
 48
50.0
100
AcDbDimension
  2
*D16
 10
6035.307249876098
 20
8167.513207084725
 30
0.0
 11
6035.307249876098
 21
7827.454151966614
 31
0.0
 70
   160
 71
     5
 42
110.0000000000036
  3
INABA_S40G
100
AcDbAlignedDimension
 13
5818.599999999999
 23
8277.513207084728
 33
0.0
 14
5818.6
 24
8167.513207084725
 34
0.0
 50
90.0
100
AcDbRotatedDimension
1001
ACAD
1000
DSTYLE
1002
{
1070
   341
1005
0
1002
}
  0
LINE
  5
2645B
102
{ACAD_REACTORS
330
2968F
102
}
330
747D
100
AcDbEntity
  8
部品1
 48
50.0
100
AcDbLine
 10
5708.600000000001
 20
6977.513207084728
 30
0.0
 11
5588.600000000003
 21
6977.513207084728
 31
0.0
  0
LINE
  5
2645C
102
{ACAD_REACTORS
330
2968F
102
}
330
747D
100
AcDbEntity
  8
部品1
 48
50.0
100
AcDbLine
 10
5708.600000000001
 20
7177.513207084728
 30
0.0
 11
5588.600000000003
 21
7177.513207084728
 31
0.0
  0
LINE
  5
2645D
330
747D
100
AcDbEntity
  8
部品1
 48
50.0
100
AcDbLine
 10
5818.599999999999
 20
8167.513207084725
 30
0.0
 11
5708.6
 21
8167.513207084727
 31
0.0
  0
LINE
  5
2645E
330
747D
100
AcDbEntity
  8
センター
 48
2.0
100
AcDbLine
 10
5661.6
 20
8274.513207084728
 30
0.0
 11
5761.600000000001
 21
8274.513207084728
 31
0.0
  0
LINE
  5
2645F
330
747D
100
AcDbEntity
  8
部品1
 48
50.0
100
AcDbLine
 10
5818.599999999999
 20
8167.513207084725
 30
0.0
 11
5818.599999999999
 21
8277.513207084728
 31
0.0
  0
LINE
  5
26460
330
747D
100
AcDbEntity
  8
部品1
 48
50.0
100
AcDbLine
 10
6593.600000000001
 20
7322.513207084726
 30
0.0
 11
6593.600000000001
 21
7722.513207084728
 31
0.0
  0
LINE
  5
26461
330
747D
100
AcDbEntity
  8
部品1
 48
50.0
100
AcDbLine
 10
6393.600000000001
 20
7322.513207084728
 30
0.0
 11
6393.600000000001
 21
7722.513207084728
 31
0.0
  0
LINE
  5
26462
330
747D
100
AcDbEntity
  8
部品1
 48
50.0
100
AcDbLine
 10
6593.600000000001
 20
7322.513207084726
 30
0.0
 11
6393.600000000001
 21
7322.513207084726
 31
0.0
  0
LINE
  5
26463
330
747D
100
AcDbEntity
  8
部品1
 48
50.0
100
AcDbLine
 10
6593.600000000001
 20
7722.513207084728
 30
0.0
 11
6393.600000000001
 21
7722.513207084728
 31
0.0
  0
LINE
  5
26464
330
747D
100
AcDbEntity
  8
センター
 48
2.0
100
AcDbLine
 10
6493.6
 20
7572.513207084728
 30
0.0
 11
6493.6
 21
7472.513207084728
 31
0.0
  0
LINE
  5
26465
330
747D
100
AcDbEntity
  8
センター
 48
2.0
100
AcDbLine
 10
6443.6
 20
7522.513207084728
 30
0.0
 11
6543.600000000001
 21
7522.513207084728
 31
0.0
  0
LINE
  5
26466
330
747D
100
AcDbEntity
  8
部品1
 48
50.0
100
AcDbLine
 10
5987.928907166848
 20
8397.513207084726
 30
0.0
 11
5588.6
 21
8397.513207084728
 31
0.0
  0
DIMENSION
  5
26467
330
747D
100
AcDbEntity
  8
寸法
 48
50.0
100
AcDbDimension
  2
*D17
 10
5588.6
 20
9143.272833626813
 30
0.0
 11
5315.493398282202
 21
9143.272833626813
 31
0.0
 70
   160
 71
     5
 42
123.0
  3
INABA_S40G
100
AcDbAlignedDimension
 13
5711.6
 23
8324.513207084729
 33
0.0
 14
5588.6
 24
8397.513207084728
 34
0.0
100
AcDbRotatedDimension
1001
ACAD
1000
DSTYLE
1002
{
1070
   341
1005
0
1002
}
  0
LINE
  5
26468
330
747D
100
AcDbEntity
  8
センター
 48
2.0
100
AcDbLine
 10
8105.6
 20
8324.513207084729
 30
0.0
 11
8105.6
 21
8224.513207084729
 31
0.0
  0
CIRCLE
  5
26469
330
747D
100
AcDbEntity
  8
部品1
 48
50.0
100
AcDbCircle
 10
8105.6
 20
8274.513207084728
 30
0.0
 40
35.0
  0
LINE
  5
2646A
102
{ACAD_REACTORS
330
2968F
102
}
330
747D
100
AcDbEntity
  8
部品1
 48
50.0
100
AcDbLine
 10
6997.099999999997
 20
8397.513207084728
 30
0.0
 11
6997.099999999997
 21
8277.513207084728
 31
0.0
  0
DIMENSION
  5
2646B
330
747D
100
AcDbEntity
  8
寸法
 48
50.0
100
AcDbDimension
  2
*D18
 10
7323.6
 20
8924.422972733054
 30
0.0
 11
7773.6
 21
9024.422972733054
 31
0.0
 70
    32
 71
     5
 42
900.0
  3
INABA_S40G
100
AcDbAlignedDimension
 13
8223.600000000001
 23
7722.513207084728
 33
0.0
 14
7323.6
 24
7722.513207084728
 34
0.0
100
AcDbRotatedDimension
1001
ACAD
1000
DSTYLE
1002
{
1070
   341
1005
0
1002
}
  0
LINE
  5
2646C
102
{ACAD_REACTORS
330
2968F
102
}
330
747D
100
AcDbEntity
  8
部品1
 48
50.0
100
AcDbLine
 10
6797.099999999997
 20
8397.513207084728
 30
0.0
 11
6797.099999999997
 21
8277.513207084728
 31
0.0
  0
LINE
  5
2646E
330
747D
100
AcDbEntity
  8
部品1
 48
50.0
100
AcDbLine
 10
7223.600000000002
 20
7322.513207084728
 30
0.0
 11
7223.600000000002
 21
7722.513207084728
 31
0.0
  0
LINE
  5
2646F
330
747D
100
AcDbEntity
  8
部品1
 48
50.0
100
AcDbLine
 10
7423.6
 20
7322.513207084726
 30
0.0
 11
7423.6
 21
7722.513207084728
 31
0.0
  0
LINE
  5
26470
330
747D
100
AcDbEntity
  8
部品1
 48
50.0
100
AcDbLine
 10
7423.6
 20
7322.513207084726
 30
0.0
 11
7223.600000000002
 21
7322.513207084726
 31
0.0
  0
LINE
  5
26471
330
747D
100
AcDbEntity
  8
部品1
 48
50.0
100
AcDbLine
 10
7423.6
 20
7722.513207084728
 30
0.0
 11
7223.600000000002
 21
7722.513207084728
 31
0.0
  0
LINE
  5
26472
330
747D
100
AcDbEntity
  8
センター
 48
2.0
100
AcDbLine
 10
7323.6
 20
7572.513207084728
 30
0.0
 11
7323.6
 21
7472.513207084728
 31
0.0
  0
LINE
  5
26473
330
747D
100
AcDbEntity
  8
センター
 48
2.0
100
AcDbLine
 10
7273.6
 20
7522.513207084728
 30
0.0
 11
7373.6
 21
7522.513207084728
 31
0.0
  0
LINE
  5
2647A
330
747D
100
AcDbEntity
  8
部品1
 48
50.0
100
AcDbLine
 10
8235.600000000001
 20
8167.513207084709
 30
0.0
 11
7975.6
 21
8167.513207084709
 31
0.0
  0
LINE
  5
2647B
330
747D
100
AcDbEntity
  8
部品1
 48
50.0
100
AcDbLine
 10
7975.600000000001
 20
8277.513207084728
 30
0.0
 11
7975.6
 21
8167.513207084709
 31
0.0
  0
LINE
  5
2647C
330
747D
100
AcDbEntity
  8
センター
 48
2.0
100
AcDbLine
 10
8055.600000000001
 20
8274.513207084728
 30
0.0
 11
8155.600000000001
 21
8274.513207084728
 31
0.0
  0
LINE
  5
2647D
330
747D
100
AcDbEntity
  8
部品1
 48
50.0
100
AcDbLine
 10
8235.600000000001
 20
8277.513207084728
 30
0.0
 11
8235.600000000001
 21
8167.513207084709
 31
0.0
  0
DIMENSION
  5
2647E
330
747D
100
AcDbEntity
  8
寸法
 48
50.0
100
AcDbDimension
  2
*D19
 10
9588.531448609051
 20
7522.513207084728
 30
0.0
 11
9488.53144860905
 21
7077.513207084729
 31
0.0
 70
    32
 71
     5
 42
889.9999999999982
  3
INABA_S40G
100
AcDbAlignedDimension
 13
9853.6
 23
6632.513207084729
 33
0.0
 14
9853.6
 24
7522.513207084728
 34
0.0
 50
90.0
100
AcDbRotatedDimension
1001
ACAD
1000
DSTYLE
1002
{
1070
   341
1005
0
1002
}
  0
LINE
  5
26480
102
{ACAD_REACTORS
330
2968F
102
}
330
747D
100
AcDbEntity
  8
部品1
 48
50.0
100
AcDbLine
 10
10858.6
 20
5757.513207084747
 30
0.0
 11
10858.6
 21
8397.513207084728
 31
0.0
  0
LINE
  5
26481
102
{ACAD_REACTORS
330
2968F
102
}
330
747D
100
AcDbEntity
  8
部品1
 48
50.0
100
AcDbLine
 10
10738.6
 20
5987.513207084749
 30
0.0
 11
10738.6
 21
8167.513207084729
 31
0.0
  0
LINE
  5
264F4
102
{ACAD_REACTORS
330
2968F
102
}
330
747D
100
AcDbEntity
  8
部品1
 48
50.0
100
AcDbLine
 10
9332.100000000018
 20
5877.513207084742
 30
0.0
 11
9332.100000000018
 21
5757.513207084737
 31
0.0
  0
LINE
  5
264F5
102
{ACAD_REACTORS
330
2968F
102
}
330
747D
100
AcDbEntity
  8
部品1
 48
50.0
100
AcDbLine
 10
9532.100000000021
 20
5877.513207084742
 30
0.0
 11
9532.100000000021
 21
5757.513207084737
 31
0.0
  0
LINE
  5
264FA
330
747D
100
AcDbEntity
  8
部品1
 48
50.0
100
AcDbLine
 10
10738.6
 20
5987.513207084748
 30
0.0
 11
10628.6
 21
5987.513207084748
 31
0.0
  0
LINE
  5
264FB
330
747D
100
AcDbEntity
  8
部品1
 48
50.0
100
AcDbLine
 10
10628.6
 20
5877.513207084745
 30
0.0
 11
10628.6
 21
5987.513207084748
 31
0.0
  0
LINE
  5
264FC
330
747D
100
AcDbEntity
  8
センター
 48
2.0
100
AcDbLine
 10
10735.6
 20
5930.513207084731
 30
0.0
 11
10735.6
 21
5830.513207084731
 31
0.0
  0
CIRCLE
  5
264FD
330
747D
100
AcDbEntity
  8
部品1
 48
50.0
100
AcDbCircle
 10
10735.6
 20
5880.513207084732
 30
0.0
 40
35.0
  0
LINE
  5
264FE
330
747D
100
AcDbEntity
  8
センター
 48
2.0
100
AcDbLine
 10
10685.60000000001
 20
5880.513207084732
 30
0.0
 11
10785.60000000001
 21
5880.513207084732
 31
0.0
  0
LINE
  5
26506
330
747D
100
AcDbEntity
  8
部品1
 48
50.0
100
AcDbLine
 10
10053.6
 20
7722.513207084728
 30
0.0
 11
9853.6
 21
7722.513207084728
 31
0.0
  0
LINE
  5
26507
330
747D
100
AcDbEntity
  8
部品1
 48
50.0
100
AcDbLine
 10
10053.6
 20
7322.513207084726
 30
0.0
 11
9853.6
 21
7322.513207084726
 31
0.0
  0
DIMENSION
  5
26508
330
747D
100
AcDbEntity
  8
寸法
 48
50.0
100
AcDbDimension
  2
*D20
 10
9953.600000000001
 20
8924.422972733054
 30
0.0
 11
10406.1
 21
9024.422972733054
 31
0.0
 70
    32
 71
     5
 42
905.0
  3
INABA_S40G
100
AcDbAlignedDimension
 13
10858.6
 23
8397.513207084728
 33
0.0
 14
9953.600000000001
 24
7722.513207084728
 34
0.0
100
AcDbRotatedDimension
1001
ACAD
1000
DSTYLE
1002
{
1070
   341
1005
0
1002
}
  0
LINE
  5
26509
102
{ACAD_REACTORS
330
2968F
102
}
330
747D
100
AcDbEntity
  8
部品1
 48
50.0
100
AcDbLine
 10
9532.099999999998
 20
8397.513207084728
 30
0.0
 11
9532.099999999998
 21
8277.513207084728
 31
0.0
  0
LINE
  5
2650A
102
{ACAD_REACTORS
330
2968F
102
}
330
747D
100
AcDbEntity
  8
部品1
 48
50.0
100
AcDbLine
 10
9332.099999999996
 20
8397.513207084728
 30
0.0
 11
9332.099999999996
 21
8277.513207084728
 31
0.0
  0
DIMENSION
  5
2650C
330
747D
100
AcDbEntity
  8
寸法
 48
50.0
100
AcDbDimension
  2
*D21
 10
9588.531448609051
 20
8397.513207084728
 30
0.0
 11
9488.53144860905
 21
7960.013207084729
 31
0.0
 70
    32
 71
     5
 42
875.0000000000008
  3
INABA_S40G
100
AcDbAlignedDimension
 13
9853.6
 23
7522.513207084728
 33
0.0
 14
9532.099999999998
 24
8397.513207084728
 34
0.0
 50
90.0
100
AcDbRotatedDimension
1001
ACAD
1000
DSTYLE
1002
{
1070
   341
1005
0
1002
}
  0
DIMENSION
  5
2650D
330
747D
100
AcDbEntity
  8
寸法
 48
50.0
100
AcDbDimension
  2
*D22
 10
9123.600000000001
 20
8924.422972733054
 30
0.0
 11
9538.6
 21
9024.422972733054
 31
0.0
 70
    32
 71
     5
 42
830.0
  3
INABA_S40G
100
AcDbAlignedDimension
 13
9953.600000000001
 23
7722.513207084728
 33
0.0
 14
9123.600000000001
 24
7722.513207084728
 34
0.0
100
AcDbRotatedDimension
1001
ACAD
1000
DSTYLE
1002
{
1070
   341
1005
0
1002
}
  0
LINE
  5
2650E
330
747D
100
AcDbEntity
  8
部品1
 48
50.0
100
AcDbLine
 10
9223.600000000001
 20
7722.513207084728
 30
0.0
 11
9023.6
 21
7722.513207084728
 31
0.0
  0
LINE
  5
2650F
330
747D
100
AcDbEntity
  8
部品1
 48
50.0
100
AcDbLine
 10
9223.600000000001
 20
7322.513207084726
 30
0.0
 11
9023.6
 21
7322.513207084726
 31
0.0
  0
LINE
  5
26510
330
747D
100
AcDbEntity
  8
部品1
 48
50.0
100
AcDbLine
 10
9023.6
 20
7322.513207084728
 30
0.0
 11
9023.6
 21
7722.513207084728
 31
0.0
  0
LINE
  5
26511
330
747D
100
AcDbEntity
  8
センター
 48
2.0
100
AcDbLine
 10
9073.6
 20
7522.513207084728
 30
0.0
 11
9173.6
 21
7522.513207084728
 31
0.0
  0
LINE
  5
26512
330
747D
100
AcDbEntity
  8
センター
 48
2.0
100
AcDbLine
 10
9123.600000000001
 20
7572.513207084728
 30
0.0
 11
9123.600000000001
 21
7472.513207084728
 31
0.0
  0
LINE
  5
26513
330
747D
100
AcDbEntity
  8
部品1
 48
50.0
100
AcDbLine
 10
9223.600000000001
 20
7322.513207084726
 30
0.0
 11
9223.600000000001
 21
7722.513207084728
 31
0.0
  0
LINE
  5
26514
330
747D
100
AcDbEntity
  8
部品1
 48
50.0
100
AcDbLine
 10
9853.6
 20
7322.513207084728
 30
0.0
 11
9853.6
 21
7722.513207084728
 31
0.0
  0
LINE
  5
26515
330
747D
100
AcDbEntity
  8
センター
 48
2.0
100
AcDbLine
 10
9903.6
 20
7522.513207084728
 30
0.0
 11
10003.6
 21
7522.513207084728
 31
0.0
  0
LINE
  5
26516
330
747D
100
AcDbEntity
  8
センター
 48
2.0
100
AcDbLine
 10
9953.600000000001
 20
7572.513207084728
 30
0.0
 11
9953.600000000001
 21
7472.513207084728
 31
0.0
  0
LINE
  5
26517
330
747D
100
AcDbEntity
  8
センター
 48
2.0
100
AcDbLine
 10
10735.6
 20
8324.513207084729
 30
0.0
 11
10735.6
 21
8224.513207084729
 31
0.0
  0
CIRCLE
  5
26518
330
747D
100
AcDbEntity
  8
部品1
 48
50.0
100
AcDbCircle
 10
10735.6
 20
8274.513207084728
 30
0.0
 40
35.0
  0
DIMENSION
  5
26519
330
747D
100
AcDbEntity
  8
寸法
 48
50.0
100
AcDbDimension
  2
*D23
 10
10738.59999999998
 20
7893.760222016149
 30
0.0
 11
11128.65905511811
 21
7893.760222016149
 31
0.0
 70
   160
 71
     5
 42
120.0000000000218
  3
INABA_S40G
100
AcDbAlignedDimension
 13
10858.6
 23
8167.513207084729
 33
0.0
 14
10738.59999999998
 24
8167.513207084729
 34
0.0
100
AcDbRotatedDimension
1001
ACAD
1000
DSTYLE
1002
{
1070
   341
1005
0
1002
}
  0
LINE
  5
2651A
330
747D
100
AcDbEntity
  8
部品1
 48
50.0
100
AcDbLine
 10
10053.6
 20
7322.513207084726
 30
0.0
 11
10053.6
 21
7722.513207084728
 31
0.0
  0
LINE
  5
2651C
102
{ACAD_REACTORS
330
2968F
102
}
330
747D
100
AcDbEntity
  8
部品1
 48
50.0
100
AcDbLine
 10
10858.6
 20
6977.513207084728
 30
0.0
 11
10738.6
 21
6977.513207084728
 31
0.0
  0
LINE
  5
2651D
102
{ACAD_REACTORS
330
2968F
102
}
330
747D
100
AcDbEntity
  8
部品1
 48
50.0
100
AcDbLine
 10
10858.6
 20
7177.513207084728
 30
0.0
 11
10738.6
 21
7177.513207084726
 31
0.0
  0
DIMENSION
  5
2651E
330
747D
100
AcDbEntity
  8
寸法
 48
50.0
100
AcDbDimension
  2
*D24
 10
10628.6
 20
7893.760222016149
 30
0.0
 11
10392.55275590551
 21
7893.760222016149
 31
0.0
 70
   160
 71
     5
 42
110.0
  3
INABA_S40G
100
AcDbAlignedDimension
 13
10738.6
 23
8167.513207084729
 33
0.0
 14
10628.6
 24
8167.513207084727
 34
0.0
100
AcDbRotatedDimension
1001
ACAD
1000
DSTYLE
1002
{
1070
   341
1005
0
1002
}
  0
LINE
  5
2651F
330
747D
100
AcDbEntity
  8
部品1
 48
50.0
100
AcDbLine
 10
10738.6
 20
8167.513207084731
 30
0.0
 11
10628.6
 21
8167.513207084727
 31
0.0
  0
LINE
  5
26520
330
747D
100
AcDbEntity
  8
部品1
 48
50.0
100
AcDbLine
 10
10628.6
 20
8167.513207084727
 30
0.0
 11
10628.6
 21
8277.513207084727
 31
0.0
  0
LINE
  5
26521
330
747D
100
AcDbEntity
  8
センター
 48
2.0
100
AcDbLine
 10
10685.6
 20
8274.513207084728
 30
0.0
 11
10785.6
 21
8274.513207084728
 31
0.0
  0
DIMENSION
  5
26522
330
747D
100
AcDbEntity
  8
寸法
 48
50.0
100
AcDbDimension
  2
*D25
 10
10735.6
 20
9143.272833626813
 30
0.0
 11
11131.7066017178
 21
9143.272833626813
 31
0.0
 70
   160
 71
     5
 42
123.0
  3
INABA_S40G
100
AcDbAlignedDimension
 13
10858.6
 23
8397.513207084728
 33
0.0
 14
10735.6
 24
8324.513207084729
 34
0.0
100
AcDbRotatedDimension
1001
ACAD
1000
DSTYLE
1002
{
1070
   341
1005
0
1002
}
  0
DIMENSION
  5
26F00
330
747D
100
AcDbEntity
  8
寸法
 48
50.0
100
AcDbDimension
  2
*D26
 10
8463.202780124335
 20
5757.513207084752
 30
0.0
 11
8463.202780124332
 21
5149.027925710512
 31
0.0
 70
   160
  1
扉の出<>
 71
     5
 42
75.00000000000273
  3
INABA_S40G
100
AcDbAlignedDimension
 13
8196.600000000001
 23
5682.513207084749
 33
0.0
 14
8196.600000000008
 24
5757.513207084752
 34
0.0
 50
90.0
100
AcDbRotatedDimension
1001
ACAD
1000
DSTYLE
1002
{
1070
   341
1005
0
1002
}
  0
DIMENSION
  5
26F1A
330
747D
100
AcDbEntity
  8
寸法
 48
50.0
100
AcDbDimension
  2
*D27
 10
4840.714637266787
 20
8397.513207084728
 30
0.0
 11
4740.714637266786
 21
8435.013207084733
 31
0.0
 70
    32
  1
c
 71
     5
 42
75.00000000000364
  3
INABA_S40G
100
AcDbAlignedDimension
 13
5092.657733986179
 23
8472.513207084732
 33
0.0
 14
5582.149705418578
 24
8397.513207084728
 34
0.0
 50
90.0
100
AcDbRotatedDimension
1001
ACAD
1000
DSTYLE
1002
{
1070
   341
1005
0
1002
}
  0
DIMENSION
  5
26F3F
330
747D
100
AcDbEntity
  8
寸法
 48
50.0
100
AcDbDimension
  2
*D28
 10
4840.714637266781
 20
5702.513207084749
 30
0.0
 11
4740.71463726678
 21
5730.01320708474
 31
0.0
 70
    32
  1
b
 71
     5
 42
54.99999999997999
  3
INABA_S40G
100
AcDbAlignedDimension
 13
5588.599999999996
 23
5757.51320708473
 33
0.0
 14
5092.657733986179
 24
5702.513207084749
 34
0.0
 50
90.0
100
AcDbRotatedDimension
1001
ACAD
1000
DSTYLE
1002
{
1070
   341
1005
0
1002
}
  0
DIMENSION
  5
26F64
330
747D
100
AcDbEntity
  8
寸法
 48
50.0
100
AcDbDimension
  2
*D29
 10
10903.6
 20
9355.733529143646
 30
0.0
 11
11174.77462120246
 21
9355.733529143646
 31
0.0
 70
   160
  1
a
 71
     5
 42
45.0
  3
INABA_S40G
100
AcDbAlignedDimension
 13
10858.6
 23
8397.513207084726
 33
0.0
 14
10903.6
 24
9143.272833626808
 34
0.0
100
AcDbRotatedDimension
1001
ACAD
1000
DSTYLE
1002
{
1070
   341
1005
0
1002
}
  0
DIMENSION
  5
26F7E
330
747D
100
AcDbEntity
  8
寸法
 48
50.0
100
AcDbDimension
  2
*D30
 10
5588.6
 20
9355.733529143646
 30
0.0
 11
5272.425378797541
 21
9355.733529143646
 31
0.0
 70
   160
  1
a
 71
     5
 42
44.99999999999181
  3
INABA_S40G
100
AcDbAlignedDimension
 13
5543.600000000008
 23
9143.272833626808
 33
0.0
 14
5588.6
 24
8397.513207084726
 34
0.0
100
AcDbRotatedDimension
1001
ACAD
1000
DSTYLE
1002
{
1070
   341
1005
0
1002
}
  0
DIMENSION
  5
2701E
330
747D
100
AcDbEntity
  8
寸法
 48
50.0
100
AcDbDimension
  2
*D31
 10
6309.18320630424
 20
5877.513207084731
 30
0.0
 11
6309.183206304238
 21
5443.818265880823
 31
0.0
 70
   160
 71
     5
 42
195.0000000000145
  3
INABA_S40G
100
AcDbAlignedDimension
 13
6041.6
 23
5682.513207084717
 33
0.0
 14
6041.599999999998
 24
5877.513207084732
 34
0.0
 50
90.0
100
AcDbRotatedDimension
1001
ACAD
1000
DSTYLE
1002
{
1070
   341
1005
0
1002
}
  0
LEADER
  5
27D16
330
747D
100
AcDbEntity
  8
寸法
 48
50.0
100
AcDbLeader
  3
INABA_S40G
 73
     0
 74
     0
 75
     1
 40
120.0
 41
149.591883092037
 76
     3
 10
6468.565642998736
 20
6470.537884389035
 30
0.0
 10
6605.84844586138
 20
6194.523970821201
 30
0.0
 10
6705.848445861381
 20
6194.523970821201
 30
0.0
340
27D17
1001
ACAD
1000
DSTYLE
1002
{
1070
   341
1005
0
1002
}
  0
MTEXT
  5
27D17
102
{ACAD_REACTORS
330
27D16
102
}
330
747D
100
AcDbEntity
  8
部品1
 62
     7
 48
50.0
100
AcDbMText
 10
6895.440328953417
 20
6294.523970821201
 30
0.0
 40
120.0
 41
0.0
 71
     6
 72
     1
  1
CB
  7
STYLE1
 73
     1
 44
1.0
1001
ACAD
1000
MTEXTBEGIN
1070
    73
1070
     1
1070
    44
1040
1.0
1070
    74
1070
     0
1000
MTEXTEND
  0
LINE
  5
27D61
330
747D
100
AcDbEntity
  8
部品1
 48
50.0
100
AcDbLine
 10
10053.6
 20
6432.513207084728
 30
0.0
 11
10053.6
 21
6832.513207084729
 31
0.0
  0
LINE
  5
27D62
330
747D
100
AcDbEntity
  8
センター
 48
2.0
100
AcDbLine
 10
9953.600000000001
 20
6682.513207084729
 30
0.0
 11
9953.600000000001
 21
6582.513207084729
 31
0.0
  0
LINE
  5
27D63
330
747D
100
AcDbEntity
  8
センター
 48
2.0
100
AcDbLine
 10
9903.6
 20
6632.513207084729
 30
0.0
 11
10003.6
 21
6632.513207084729
 31
0.0
  0
LINE
  5
27D64
330
747D
100
AcDbEntity
  8
部品1
 48
50.0
100
AcDbLine
 10
9853.6
 20
6432.513207084729
 30
0.0
 11
9853.6
 21
6832.513207084729
 31
0.0
  0
LINE
  5
27D65
330
747D
100
AcDbEntity
  8
部品1
 48
50.0
100
AcDbLine
 10
9223.600000000001
 20
6432.513207084728
 30
0.0
 11
9223.600000000001
 21
6832.513207084729
 31
0.0
  0
LINE
  5
27D66
330
747D
100
AcDbEntity
  8
センター
 48
2.0
100
AcDbLine
 10
9123.600000000001
 20
6682.513207084729
 30
0.0
 11
9123.600000000001
 21
6582.513207084729
 31
0.0
  0
LINE
  5
27D67
330
747D
100
AcDbEntity
  8
センター
 48
2.0
100
AcDbLine
 10
9073.6
 20
6632.513207084729
 30
0.0
 11
9173.6
 21
6632.513207084729
 31
0.0
  0
LINE
  5
27D68
330
747D
100
AcDbEntity
  8
部品1
 48
50.0
100
AcDbLine
 10
9023.6
 20
6432.513207084729
 30
0.0
 11
9023.6
 21
6832.513207084729
 31
0.0
  0
LINE
  5
27D69
330
747D
100
AcDbEntity
  8
部品1
 48
50.0
100
AcDbLine
 10
9223.600000000001
 20
6432.513207084728
 30
0.0
 11
9023.6
 21
6432.513207084728
 31
0.0
  0
LINE
  5
27D6A
330
747D
100
AcDbEntity
  8
部品1
 48
50.0
100
AcDbLine
 10
9223.600000000001
 20
6832.513207084729
 30
0.0
 11
9023.6
 21
6832.513207084729
 31
0.0
  0
LINE
  5
27D6B
330
747D
100
AcDbEntity
  8
部品1
 48
50.0
100
AcDbLine
 10
10053.6
 20
6432.513207084728
 30
0.0
 11
9853.6
 21
6432.513207084728
 31
0.0
  0
LINE
  5
27D6C
330
747D
100
AcDbEntity
  8
部品1
 48
50.0
100
AcDbLine
 10
10053.6
 20
6832.513207084729
 30
0.0
 11
9853.6
 21
6832.513207084729
 31
0.0
  0
LINE
  5
27D6D
330
747D
100
AcDbEntity
  8
センター
 48
2.0
100
AcDbLine
 10
7273.6
 20
6632.513207084729
 30
0.0
 11
7373.6
 21
6632.513207084729
 31
0.0
  0
LINE
  5
27D6E
330
747D
100
AcDbEntity
  8
センター
 48
2.0
100
AcDbLine
 10
7323.6
 20
6682.513207084729
 30
0.0
 11
7323.6
 21
6582.513207084729
 31
0.0
  0
LINE
  5
27D6F
330
747D
100
AcDbEntity
  8
部品1
 48
50.0
100
AcDbLine
 10
7423.6
 20
6832.513207084729
 30
0.0
 11
7223.600000000002
 21
6832.513207084729
 31
0.0
  0
LINE
  5
27D70
330
747D
100
AcDbEntity
  8
部品1
 48
50.0
100
AcDbLine
 10
7423.6
 20
6432.513207084728
 30
0.0
 11
7223.600000000002
 21
6432.513207084728
 31
0.0
  0
LINE
  5
27D71
330
747D
100
AcDbEntity
  8
部品1
 48
50.0
100
AcDbLine
 10
7423.6
 20
6432.513207084728
 30
0.0
 11
7423.6
 21
6832.513207084729
 31
0.0
  0
LINE
  5
27D72
330
747D
100
AcDbEntity
  8
部品1
 48
50.0
100
AcDbLine
 10
7223.600000000002
 20
6432.513207084729
 30
0.0
 11
7223.600000000002
 21
6832.513207084729
 31
0.0
  0
LINE
  5
27D73
330
747D
100
AcDbEntity
  8
センター
 48
2.0
100
AcDbLine
 10
6443.6
 20
6632.513207084729
 30
0.0
 11
6543.600000000001
 21
6632.513207084729
 31
0.0
  0
LINE
  5
27D74
330
747D
100
AcDbEntity
  8
センター
 48
2.0
100
AcDbLine
 10
6493.6
 20
6682.513207084729
 30
0.0
 11
6493.6
 21
6582.513207084729
 31
0.0
  0
LINE
  5
27D75
330
747D
100
AcDbEntity
  8
部品1
 48
50.0
100
AcDbLine
 10
6593.600000000001
 20
6832.513207084729
 30
0.0
 11
6393.600000000001
 21
6832.513207084729
 31
0.0
  0
LINE
  5
27D76
330
747D
100
AcDbEntity
  8
部品1
 48
50.0
100
AcDbLine
 10
6593.600000000001
 20
6432.513207084728
 30
0.0
 11
6393.600000000001
 21
6432.513207084728
 31
0.0
  0
LINE
  5
27D77
330
747D
100
AcDbEntity
  8
部品1
 48
50.0
100
AcDbLine
 10
6393.600000000001
 20
6432.513207084729
 30
0.0
 11
6393.600000000001
 21
6832.513207084729
 31
0.0
  0
LINE
  5
27D78
330
747D
100
AcDbEntity
  8
部品1
 48
50.0
100
AcDbLine
 10
6593.600000000001
 20
6432.513207084728
 30
0.0
 11
6593.600000000001
 21
6832.513207084729
 31
0.0
  0
DIMENSION
  5
27D82
330
747D
100
AcDbEntity
  8
寸法
 48
50.0
100
AcDbDimension
  2
*D32
 10
9588.531448609051
 20
6632.513207084729
 30
0.0
 11
9488.53144860905
 21
6195.01320708473
 31
0.0
 70
    32
 71
     5
 42
875.0000000000026
  3
INABA_S40G
100
AcDbAlignedDimension
 13
9853.6
 23
5757.513207084727
 33
0.0
 14
9853.6
 24
6632.513207084729
 34
0.0
 50
90.0
100
AcDbRotatedDimension
1001
ACAD
1000
DSTYLE
1002
{
1070
   341
1005
0
1002
}
  0
LINE
  5
28C67
330
747D
100
AcDbEntity
  8
部品1
 48
50.0
100
AcDbLine
 10
8323.6
 20
6832.513207084729
 30
0.0
 11
8123.600000000001
 21
6832.513207084729
 31
0.0
  0
LINE
  5
28C68
330
747D
100
AcDbEntity
  8
部品1
 48
50.0
100
AcDbLine
 10
8323.6
 20
6432.513207084728
 30
0.0
 11
8123.600000000001
 21
6432.513207084728
 31
0.0
  0
LINE
  5
28C69
330
747D
100
AcDbEntity
  8
部品1
 48
50.0
100
AcDbLine
 10
8123.600000000001
 20
6432.513207084729
 30
0.0
 11
8123.600000000001
 21
6832.513207084729
 31
0.0
  0
LINE
  5
28C6A
330
747D
100
AcDbEntity
  8
センター
 48
2.0
100
AcDbLine
 10
8173.6
 20
6632.513207084729
 30
0.0
 11
8273.6
 21
6632.513207084729
 31
0.0
  0
LINE
  5
28C6B
330
747D
100
AcDbEntity
  8
センター
 48
2.0
100
AcDbLine
 10
8223.600000000001
 20
6682.513207084729
 30
0.0
 11
8223.600000000001
 21
6582.513207084729
 31
0.0
  0
LINE
  5
28C6C
330
747D
100
AcDbEntity
  8
部品1
 48
50.0
100
AcDbLine
 10
8323.6
 20
6432.513207084728
 30
0.0
 11
8323.6
 21
6832.513207084729
 31
0.0
  0
LINE
  5
28C6D
330
747D
100
AcDbEntity
  8
部品1
 48
50.0
100
AcDbLine
 10
8323.6
 20
7322.513207084726
 30
0.0
 11
8323.6
 21
7722.513207084728
 31
0.0
  0
LINE
  5
28C6E
330
747D
100
AcDbEntity
  8
センター
 48
2.0
100
AcDbLine
 10
8223.600000000001
 20
7572.513207084728
 30
0.0
 11
8223.600000000001
 21
7472.513207084728
 31
0.0
  0
LINE
  5
28C6F
330
747D
100
AcDbEntity
  8
センター
 48
2.0
100
AcDbLine
 10
8173.6
 20
7522.513207084728
 30
0.0
 11
8273.6
 21
7522.513207084728
 31
0.0
  0
LINE
  5
28C70
330
747D
100
AcDbEntity
  8
部品1
 48
50.0
100
AcDbLine
 10
8123.600000000001
 20
7322.513207084728
 30
0.0
 11
8123.600000000001
 21
7722.513207084728
 31
0.0
  0
LINE
  5
28C71
330
747D
100
AcDbEntity
  8
部品1
 48
50.0
100
AcDbLine
 10
8323.6
 20
7322.513207084726
 30
0.0
 11
8123.600000000001
 21
7322.513207084726
 31
0.0
  0
LINE
  5
28C72
330
747D
100
AcDbEntity
  8
部品1
 48
50.0
100
AcDbLine
 10
8323.6
 20
7722.513207084728
 30
0.0
 11
8123.600000000001
 21
7722.513207084728
 31
0.0
  0
DIMENSION
  5
28F02
330
747D
100
AcDbEntity
  8
寸法
 48
50.0
100
AcDbDimension
  2
*D33
 10
6041.6
 20
5197.668192742538
 30
0.0
 11
7119.1
 21
5297.68000376616
 31
0.0
 70
    32
  1
扉の幅 <>
 71
     5
 42
2155.0
  3
INABA_S40G
100
AcDbAlignedDimension
 13
8196.600000000001
 23
5682.513207084749
 33
0.0
 14
6041.6
 24
5682.513207084734
 34
0.0
100
AcDbRotatedDimension
1001
ACAD
1000
DSTYLE
1002
{
1070
   341
1005
0
1002
}
  0
TEXT
  5
28F03
330
747D
100
AcDbEntity
  8
寸法
 62
     7
100
AcDbText
 10
6414.250754363519
 20
4598.684694569839
 30
0.0
 40
120.0
  1
扉位置 (2155x75)
  7
STYLE1
100
AcDbText
  0
SOLID
  5
28F04
330
747D
100
AcDbEntity
  8
寸法
 48
50.0
100
AcDbTrace
 10
-6621.736054003149
 20
5556.922178179836
 30
0.0
 11
-6638.645259673137
 21
5682.513207084722
 31
0.0
 12
-6581.917839529673
 22
5569.194949148744
 32
0.0
 13
-6581.917839529673
 23
5569.194949148744
 33
0.0
210
0.0
220
0.0
230
-1.0
1001
ACAD
1000
DSTYLE
1002
{
1070
   341
1005
0
1070
    40
1040
1.0
1070
   343
1005
0
1070
   344
1005
0
1002
}
  0
LWPOLYLINE
  5
28F05
330
747D
100
AcDbEntity
  8
寸法
 48
50.0
100
AcDbPolyline
 90
        3
 70
     0
 43
0.0
 10
-6638.645259673137
 20
5682.513207084722
 10
-6297.634795170766
 20
4576.416747021521
 10
-9111.699208102409
 20
4576.416747021521
210
0.0
220
0.0
230
-1.0
1001
ACAD
1000
DSTYLE
1002
{
1070
   341
1005
0
1070
    40
1040
1.0
1070
   343
1005
0
1070
   344
1005
0
1002
}
  0
TEXT
  5
28F06
330
747D
100
AcDbEntity
  8
寸法
 62
     7
100
AcDbText
 10
6414.250754363519
 20
4427.080931686514
 30
0.0
 40
120.0
  1
扉の位置に合わせた基礎形状として下さい。
  7
STYLE1
100
AcDbText
  0
LINE
  5
2928C
330
747D
100
AcDbEntity
  8
想像線
 48
10.0
100
AcDbLine
 10
9678.182651863522
 20
8472.51320708473
 30
0.0
 11
10903.6
 21
8472.513207084729
 31
0.0
  0
LINE
  5
2928D
330
747D
100
AcDbEntity
  8
想像線
 48
10.0
100
AcDbLine
 10
9678.182651863522
 20
5702.513207084749
 30
0.0
 11
10903.6
 21
5702.513207084748
 31
0.0
  0
LINE
  5
29424
330
747D
100
AcDbEntity
  8
細線
 48
50.0
100
AcDbLine
 10
10015.33258610772
 20
1425.468527966936
 30
0.0
 11
10007.29411033478
 21
1455.468527966936
 31
0.0
  0
LINE
  5
29425
330
747D
100
AcDbEntity
  8
細線
100
AcDbLine
 10
9803.582204612665
 20
1455.468527966941
 30
0.0
 11
9918.205849179342
 21
1570.092172533627
 31
0.0
  0
LINE
  5
29426
330
747D
100
AcDbEntity
  8
細線
100
AcDbLine
 10
9761.155797741473
 20
1455.468527966941
 30
0.0
 11
9875.779442308152
 21
1570.092172533627
 31
0.0
  0
LINE
  5
29427
330
747D
100
AcDbEntity
  8
細線
100
AcDbLine
 10
9846.008611483853
 20
1455.468527966941
 30
0.0
 11
9960.632256050532
 21
1570.092172533627
 31
0.0
  0
LINE
  5
29428
330
747D
100
AcDbEntity
  8
細線
 48
50.0
100
AcDbLine
 10
9818.112473739594
 20
1425.468527966939
 30
0.0
 11
9810.073997966654
 21
1455.468527966939
 31
0.0
  0
LINE
  5
29429
330
747D
100
AcDbEntity
  8
細線
 48
50.0
100
AcDbLine
 10
9916.722529923662
 20
1425.468527966936
 30
0.0
 11
9908.684054150725
 21
1455.468527966936
 31
0.0
  0
LINE
  5
2942A
330
747D
100
AcDbEntity
  8
部品1
100
AcDbLine
 10
9919.860304617303
 20
1870.092172533627
 30
0.0
 11
9919.860304617303
 21
1570.092172533627
 31
0.0
  0
LINE
  5
2942B
330
747D
100
AcDbEntity
  8
細線
 48
50.0
100
AcDbLine
 10
9620.892361371481
 20
1425.468527966939
 30
0.0
 11
9612.853885598553
 21
1455.468527966939
 31
0.0
  0
LINE
  5
2942C
330
747D
100
AcDbEntity
  8
細線
 48
50.0
100
AcDbLine
 10
9719.502417555546
 20
1425.468527966939
 30
0.0
 11
9711.463941782612
 21
1455.468527966939
 31
0.0
  0
LINE
  5
2942D
330
747D
100
AcDbEntity
  8
細線
100
AcDbLine
 10
9353.582204612663
 20
1455.46852796694
 30
0.0
 11
9468.205849179339
 21
1570.092172533627
 31
0.0
  0
LINE
  5
2942E
330
747D
100
AcDbEntity
  8
細線
100
AcDbLine
 10
9396.008611483852
 20
1455.46852796694
 30
0.0
 11
9510.632256050532
 21
1570.092172533627
 31
0.0
  0
LINE
  5
2942F
330
747D
100
AcDbEntity
  8
細線
 48
50.0
100
AcDbLine
 10
9522.282305187422
 20
1425.468527966939
 30
0.0
 11
9514.243829414493
 21
1455.468527966939
 31
0.0
  0
LINE
  5
29430
330
747D
100
AcDbEntity
  8
細線
 48
50.0
100
AcDbLine
 10
9423.672249003372
 20
1425.468527966939
 30
0.0
 11
9415.633773230432
 21
1455.468527966939
 31
0.0
  0
LINE
  5
29431
330
747D
100
AcDbEntity
  8
細線
100
AcDbLine
 10
9838.923616376042
 20
1570.092172533627
 30
0.0
 11
9538.923616376044
 21
1870.092172533627
 31
0.0
  0
LINE
  5
29432
330
747D
100
AcDbEntity
  8
細線
100
AcDbLine
 10
9902.563226682824
 20
1570.092172533628
 30
0.0
 11
9602.563226682832
 21
1870.092172533627
 31
0.0
  0
LEADER
  5
29433
330
747D
100
AcDbEntity
  8
寸法
 48
50.0
100
AcDbLeader
  3
INABA_S40G
 73
     0
 74
     0
 75
     1
 40
150.0
 41
231.9898538650463
 76
     3
 10
9833.265819137205
 20
1870.092172533627
 30
0.0
 10
9922.18857742926
 20
2076.525073385049
 30
0.0
 10
10022.18857742926
 20
2076.525073385049
 30
0.0
340
29434
1001
ACAD
1000
DSTYLE
1002
{
1070
   341
1005
0
1002
}
  0
MTEXT
  5
29434
102
{ACAD_REACTORS
330
29433
102
}
330
747D
100
AcDbEntity
  8
寸法
 62
     7
 48
50.0
100
AcDbMText
 10
10062.18857742926
 20
2191.525073385049
 30
0.0
 40
150.0
 41
1.0
 71
     4
 72
     1
  1
\A1;C.B
  7
STYLE1
 73
     1
 44
1.0
1001
ACAD
1000
MTEXTBEGIN
1070
    73
1070
     1
1070
    44
1040
1.0
1070
    74
1070
     0
1000
MTEXTEND
  0
LINE
  5
29435
330
747D
100
AcDbEntity
  8
細線
 48
50.0
100
AcDbLine
 10
9988.537666864612
 20
1325.468527966936
 30
0.0
 11
9996.576142637541
 21
1295.468527966936
 31
0.0
  0
LINE
  5
29436
330
747D
100
AcDbEntity
  8
細線
 48
50.0
100
AcDbLine
 10
9791.317554496494
 20
1325.468527966939
 30
0.0
 11
9799.356030269434
 21
1295.468527966939
 31
0.0
  0
LINE
  5
29437
330
747D
100
AcDbEntity
  8
細線
 48
50.0
100
AcDbLine
 10
9889.927610680551
 20
1325.468527966936
 30
0.0
 11
9897.966086453482
 21
1295.468527966936
 31
0.0
  0
LINE
  5
29438
330
747D
100
AcDbEntity
  8
細線
 48
50.0
100
AcDbLine
 10
9594.097442128372
 20
1325.468527966939
 30
0.0
 11
9602.135917901303
 21
1295.468527966939
 31
0.0
  0
LINE
  5
29439
330
747D
100
AcDbEntity
  8
細線
 48
50.0
100
AcDbLine
 10
9692.707498312431
 20
1325.468527966939
 30
0.0
 11
9700.745974085364
 21
1295.468527966939
 31
0.0
  0
LINE
  5
2943A
330
747D
100
AcDbEntity
  8
細線
 48
50.0
100
AcDbLine
 10
9396.877329760263
 20
1325.468527966939
 30
0.0
 11
9404.915805533191
 21
1295.468527966939
 31
0.0
  0
LINE
  5
2943B
330
747D
100
AcDbEntity
  8
細線
 48
50.0
100
AcDbLine
 10
9495.487385944313
 20
1325.468527966939
 30
0.0
 11
9503.525861717253
 21
1295.468527966939
 31
0.0
  0
LINE
  5
2943C
330
747D
100
AcDbEntity
  8
細線
 48
50.0
100
AcDbLine
 10
9586.058966355436
 20
1295.468527966936
 30
0.0
 11
9628.930837144412
 21
1455.468527966936
 31
0.0
  0
LINE
  5
2943D
330
747D
100
AcDbEntity
  8
細線
 48
50.0
100
AcDbLine
 10
9388.838853987321
 20
1295.468527966939
 30
0.0
 11
9431.710724776293
 21
1455.468527966939
 31
0.0
  0
LINE
  5
2943E
330
747D
100
AcDbEntity
  8
細線
 48
50.0
100
AcDbLine
 10
9487.448910171371
 20
1295.468527966939
 30
0.0
 11
9530.320780960352
 21
1455.468527966936
 31
0.0
  0
LINE
  5
2943F
330
747D
100
AcDbEntity
  8
細線
 48
50.0
100
AcDbLine
 10
9783.279078723552
 20
1295.468527966936
 30
0.0
 11
9826.150949512525
 21
1455.468527966939
 31
0.0
  0
LINE
  5
29440
330
747D
100
AcDbEntity
  8
細線
 48
50.0
100
AcDbLine
 10
9684.669022539493
 20
1295.468527966939
 30
0.0
 11
9727.540893328473
 21
1455.468527966936
 31
0.0
  0
LINE
  5
29441
330
747D
100
AcDbEntity
  8
細線
 48
50.0
100
AcDbLine
 10
9980.499191091665
 20
1295.468527966936
 30
0.0
 11
10023.37106188065
 21
1455.468527966934
 31
0.0
  0
LINE
  5
29442
330
747D
100
AcDbEntity
  8
細線
 48
50.0
100
AcDbLine
 10
9881.889134907613
 20
1295.468527966935
 30
0.0
 11
9924.761005696591
 21
1455.468527966934
 31
0.0
  0
LINE
  5
29443
330
747D
100
AcDbEntity
  8
部品1
100
AcDbLine
 10
10069.8603046173
 20
1570.092172533627
 30
0.0
 11
10069.8603046173
 21
1295.468527966939
 31
0.0
  0
LINE
  5
29444
330
747D
100
AcDbEntity
  8
部品1
100
AcDbLine
 10
10660.37123243644
 20
262.2371945065934
 30
0.0
 11
10660.37123243644
 21
3521.306697254683
 31
0.0
  0
TEXT
  5
29445
330
747D
100
AcDbEntity
  8
部品1
100
AcDbText
 10
6769.825644855058
 20
3296.866782315397
 30
0.0
 40
150.0
  1
基礎詳細
  7
STYLE2
100
AcDbText
  0
LINE
  5
29446
330
747D
100
AcDbEntity
  8
細線
 48
50.0
100
AcDbLine
 10
9325.0621928193
 20
1425.468527966939
 30
0.0
 11
9317.023717046373
 21
1455.468527966939
 31
0.0
  0
LINE
  5
29447
330
747D
100
AcDbEntity
  8
細線
 48
50.0
100
AcDbLine
 10
9226.452136635243
 20
1425.468527966939
 30
0.0
 11
9218.413660862303
 21
1455.468527966939
 31
0.0
  0
LINE
  5
29448
330
747D
100
AcDbEntity
  8
部品1
100
AcDbLine
 10
9319.860304617304
 20
1570.092172533627
 30
0.0
 11
9319.860304617304
 21
1870.092172533627
 31
0.0
  0
LINE
  5
29449
330
747D
100
AcDbEntity
  8
細線
 48
50.0
100
AcDbLine
 10
9199.657217392132
 20
1325.468527966939
 30
0.0
 11
9207.695693165062
 21
1295.468527966939
 31
0.0
  0
LINE
  5
2944A
330
747D
100
AcDbEntity
  8
細線
 48
50.0
100
AcDbLine
 10
9298.267273576191
 20
1325.468527966939
 30
0.0
 11
9306.305749349119
 21
1295.468527966939
 31
0.0
  0
LINE
  5
2944B
330
747D
100
AcDbEntity
  8
細線
 48
50.0
100
AcDbLine
 10
7730.718650852107
 20
860.0921725336247
 30
0.0
 11
7722.680175079175
 21
890.0921725336248
 31
0.0
  0
LINE
  5
2944C
330
747D
100
AcDbEntity
  8
部品1
 48
50.0
100
AcDbLine
 10
7785.246369361691
 20
890.0921725336258
 30
0.0
 11
7785.246369361691
 21
730.0921725336256
 31
0.0
  0
LINE
  5
2944D
330
747D
100
AcDbEntity
  8
細線
 48
50.0
100
AcDbLine
 10
9191.618741619192
 20
1295.468527966939
 30
0.0
 11
9234.490612408171
 21
1455.468527966939
 31
0.0
  0
LINE
  5
2944E
330
747D
100
AcDbEntity
  8
部品1
100
AcDbLine
 10
9169.860304617303
 20
1295.468527966935
 30
0.0
 11
9169.860304617303
 21
1570.092172533627
 31
0.0
  0
TEXT
  5
2944F
330
747D
100
AcDbEntity
  8
部品1
 48
50.0
100
AcDbText
 10
8694.518676292004
 20
1236.59249673699
 30
0.0
 40
100.0
  1
ボルトの出
 50
90.0
  7
STYLE2
100
AcDbText
  0
LINE
  5
29450
330
747D
100
AcDbEntity
  8
細線
 48
50.0
100
AcDbLine
 10
9290.228797803253
 20
1295.468527966936
 30
0.0
 11
9333.100668592232
 21
1455.468527966936
 31
0.0
  0
LINE
  5
29451
330
747D
100
AcDbEntity
  8
部品1
 48
50.0
100
AcDbLine
 10
7304.496369361685
 20
2308.686273920055
 30
0.0
 11
7324.496369361686
 21
2318.686273920055
 31
0.0
  0
LINE
  5
29452
330
747D
100
AcDbEntity
  8
部品1
 48
50.0
100
AcDbLine
 10
7304.496369361685
 20
2348.686273920055
 30
0.0
 11
7324.496369361686
 21
2358.686273920056
 31
0.0
  0
LINE
  5
29453
330
747D
100
AcDbEntity
  8
細線
 48
50.0
100
AcDbLine
 10
7304.496369361685
 20
2308.686273920055
 30
0.0
 11
7304.496369361685
 21
2348.686273920055
 31
0.0
  0
LINE
  5
29454
330
747D
100
AcDbEntity
  8
部品1
 48
50.0
100
AcDbLine
 10
7324.496369361686
 20
2318.686273920055
 30
0.0
 11
7324.496369361686
 21
2358.686273920056
 31
0.0
  0
LINE
  5
29455
330
747D
100
AcDbEntity
  8
部品1
 48
50.0
100
AcDbLine
 10
7304.496369361685
 20
2368.686273920054
 30
0.0
 11
7324.496369361686
 21
2358.686273920056
 31
0.0
  0
LINE
  5
29456
330
747D
100
AcDbEntity
  8
部品1
 48
50.0
100
AcDbLine
 10
7334.496369361686
 20
2194.496283088967
 30
0.0
 11
7334.496369361686
 21
2206.496283088966
 31
0.0
  0
LINE
  5
29457
330
747D
100
AcDbEntity
  8
細線
 48
50.0
100
AcDbLine
 10
7264.496369361687
 20
2308.686273920055
 30
0.0
 11
7264.496369361687
 21
2348.686273920055
 31
0.0
  0
LINE
  5
29458
330
747D
100
AcDbEntity
  8
部品1
 48
50.0
100
AcDbLine
 10
7244.496369361687
 20
2318.686273920055
 30
0.0
 11
7244.496369361687
 21
2358.686273920056
 31
0.0
  0
LINE
  5
29459
330
747D
100
AcDbEntity
  8
部品1
 48
50.0
100
AcDbLine
 10
7244.496369361687
 20
2358.686273920056
 30
0.0
 11
7264.496369361687
 21
2348.686273920055
 31
0.0
  0
LINE
  5
2945A
330
747D
100
AcDbEntity
  8
部品1
 48
50.0
100
AcDbLine
 10
7244.496369361687
 20
2318.686273920055
 30
0.0
 11
7264.496369361687
 21
2308.686273920055
 31
0.0
  0
LINE
  5
2945B
330
747D
100
AcDbEntity
  8
部品1
 48
50.0
100
AcDbLine
 10
7244.496369361687
 20
2358.686273920056
 30
0.0
 11
7264.496369361687
 21
2368.686273920054
 31
0.0
  0
LINE
  5
2945C
330
747D
100
AcDbEntity
  8
部品1
100
AcDbLine
 10
7142.746369361687
 20
1942.092172533627
 30
0.0
 11
7192.246369361686
 21
1942.092172533627
 31
0.0
  0
ARC
  5
2945D
330
747D
100
AcDbEntity
  8
部品1
100
AcDbCircle
 10
7139.371369361686
 20
2006.217172533623
 30
0.0
 40
3.375
100
AcDbArc
 50
0.0
 51
90.0
  0
LINE
  5
2945E
330
747D
100
AcDbEntity
  8
部品1
100
AcDbLine
 10
7142.746369361687
 20
2006.217172533623
 30
0.0
 11
7142.746369361687
 21
1942.092172533627
 31
0.0
  0
LINE
  5
2945F
330
747D
100
AcDbEntity
  8
部品1
 48
50.0
100
AcDbLine
 10
7234.496369361686
 20
2206.496283088966
 30
0.0
 11
7234.496369361686
 21
2194.496283088967
 31
0.0
  0
LINE
  5
29460
330
747D
100
AcDbEntity
  8
部品1
100
AcDbLine
 10
7171.996369361686
 20
1957.042172533627
 30
0.0
 11
7207.196369361689
 21
1957.042172533627
 31
0.0
  0
ARC
  5
29461
330
747D
100
AcDbEntity
  8
部品1
100
AcDbCircle
 10
7171.996369361686
 20
1953.667172533628
 30
0.0
 40
3.375
100
AcDbArc
 50
90.0
 51
180.0
  0
ARC
  5
29462
330
747D
100
AcDbEntity
  8
部品1
100
AcDbCircle
 10
7207.196369361689
 20
1953.667172533628
 30
0.0
 40
3.375
100
AcDbArc
 50
0.0
 51
90.0
  0
LINE
  5
29463
330
747D
100
AcDbEntity
  8
部品1
100
AcDbLine
 10
7273.246369361685
 20
1931.542172533626
 30
0.0
 11
7295.746369361687
 21
1931.542172533626
 31
0.0
  0
LINE
  5
29464
330
747D
100
AcDbEntity
  8
部品1
100
AcDbLine
 10
7277.746369361685
 20
1936.042172533627
 30
0.0
 11
7291.246369361687
 21
1936.042172533627
 31
0.0
  0
ARC
  5
29465
330
747D
100
AcDbEntity
  8
部品1
100
AcDbCircle
 10
7192.246369361686
 20
1938.717172533627
 30
0.0
 40
3.375
100
AcDbArc
 50
0.0
 51
90.0
  0
LINE
  5
29466
330
747D
100
AcDbEntity
  8
部品1
100
AcDbLine
 10
7168.621369361686
 20
1953.667172533628
 30
0.0
 11
7168.621369361686
 21
1932.292172533627
 31
0.0
  0
ARC
  5
29467
330
747D
100
AcDbEntity
  8
部品1
100
AcDbCircle
 10
7086.496369361687
 20
2006.217172533627
 30
0.0
 40
3.375
100
AcDbArc
 50
90.0
 51
180.0
  0
LINE
  5
29468
330
747D
100
AcDbEntity
  8
部品1
100
AcDbLine
 10
7083.121369361686
 20
1996.092172533627
 30
0.0
 11
7083.121369361686
 21
1996.092172533627
 31
0.0
  0
LINE
  5
29469
330
747D
100
AcDbEntity
  8
部品1
100
AcDbLine
 10
7083.121369361686
 20
1996.092172533627
 30
0.0
 11
7083.121369361686
 21
2006.217172533627
 31
0.0
  0
LINE
  5
2946A
330
747D
100
AcDbEntity
  8
部品1
100
AcDbLine
 10
7079.746369361686
 20
1982.592172533627
 30
0.0
 11
7079.746369361686
 21
1992.717172533627
 31
0.0
  0
ARC
  5
2946B
330
747D
100
AcDbEntity
  8
部品1
100
AcDbCircle
 10
7083.121369361686
 20
1992.717172533627
 30
0.0
 40
3.375
100
AcDbArc
 50
90.0
 51
180.0
  0
LINE
  5
2946C
330
747D
100
AcDbEntity
  8
部品1
100
AcDbLine
 10
7029.121369361686
 20
1969.092172533627
 30
0.0
 11
7029.121369361686
 21
1979.217172533627
 31
0.0
  0
ARC
  5
2946D
330
747D
100
AcDbEntity
  8
部品1
100
AcDbCircle
 10
7032.496369361687
 20
1979.217172533627
 30
0.0
 40
3.375
100
AcDbArc
 50
90.0
 51
180.0
  0
ARC
  5
2946E
330
747D
100
AcDbEntity
  8
部品1
100
AcDbCircle
 10
7018.996369361686
 20
1963.082052162011
 30
0.0
 40
3.375
100
AcDbArc
 50
104.0362434679075
 51
180.0
  0
LINE
  5
2946F
330
747D
100
AcDbEntity
  8
部品1
100
AcDbLine
 10
7018.177811627187
 20
1966.356283100002
 30
0.0
 11
7029.121369361686
 21
1969.092172533627
 31
0.0
  0
LINE
  5
29470
330
747D
100
AcDbEntity
  8
部品1
100
AcDbLine
 10
7032.496369361687
 20
1982.592172533627
 30
0.0
 11
7079.746369361686
 21
1982.592172533627
 31
0.0
  0
LINE
  5
29471
330
747D
100
AcDbEntity
  8
部品1
100
AcDbLine
 10
7086.496369361687
 20
2009.592172533626
 30
0.0
 11
7139.371369361686
 21
2009.592172533623
 31
0.0
  0
ELLIPSE
  5
29472
330
747D
100
AcDbEntity
  8
部品1
 48
50.0
100
AcDbEllipse
 10
7284.496369361686
 20
2206.496283088966
 30
0.0
 11
23.0
 21
0.0
 31
0.0
210
0.0
220
0.0
230
1.0
 40
0.3478260869565217
 41
0.0
 42
6.283185307179584
  0
ELLIPSE
  5
29473
330
747D
100
AcDbEntity
  8
部品1
 48
50.0
100
AcDbEllipse
 10
7284.496369361686
 20
2206.496283088966
 30
0.0
 11
50.0
 21
0.0
 31
0.0
210
0.0
220
0.0
230
1.0
 40
0.4
 41
0.0
 42
6.283185307179584
  0
ELLIPSE
  5
29474
330
747D
100
AcDbEntity
  8
部品1
 48
50.0
100
AcDbEllipse
 10
7284.496369361686
 20
2194.496283088967
 30
0.0
 11
50.0
 21
0.0
 31
0.0
210
0.0
220
0.0
230
1.0
 40
0.4
 41
3.141592653589792
 42
6.283185307179584
  0
LINE
  5
29475
330
747D
100
AcDbEntity
  8
部品1
 48
50.0
100
AcDbLine
 10
7264.496369361687
 20
2368.686273920054
 30
0.0
 11
7304.496369361685
 21
2368.686273920054
 31
0.0
  0
ELLIPSE
  5
29476
330
747D
100
AcDbEntity
  8
細線
 48
50.0
100
AcDbEllipse
 10
7284.496369361686
 20
2358.686273920056
 30
0.0
 11
18.45838483258558
 21
0.0
 31
0.0
210
0.0
220
0.0
230
1.0
 40
0.2071254069489396
 41
0.0
 42
6.283185307179584
  0
LINE
  5
29477
330
747D
100
AcDbEntity
  8
部品1
 48
50.0
100
AcDbLine
 10
7264.496369361687
 20
2308.686273920055
 30
0.0
 11
7304.496369361685
 21
2308.686273920055
 31
0.0
  0
LINE
  5
29478
330
747D
100
AcDbEntity
  8
部品1
 48
50.0
100
AcDbLine
 10
7264.496369361687
 20
2348.686273920055
 30
0.0
 11
7304.496369361685
 21
2348.686273920055
 31
0.0
  0
LINE
  5
29479
330
747D
100
AcDbEntity
  8
細線
 48
50.0
100
AcDbLine
 10
7363.246369361688
 20
1671.502525644362
 30
0.0
 11
7525.246369361686
 21
1833.502525644361
 31
0.0
  0
LINE
  5
2947A
330
747D
100
AcDbEntity
  8
細線
 48
50.0
100
AcDbLine
 10
7363.246369361688
 20
1637.826565190341
 30
0.0
 11
7525.246369361686
 21
1799.826565190337
 31
0.0
  0
LINE
  5
2947B
330
747D
100
AcDbEntity
  8
部品1
100
AcDbLine
 10
7340.746369361686
 20
1566.342172533625
 30
0.0
 11
7340.746369361686
 21
1588.842172533627
 31
0.0
  0
LINE
  5
2947C
330
747D
100
AcDbEntity
  8
部品1
100
AcDbLine
 10
7363.246369361687
 20
1465.092172533626
 30
0.0
 11
7363.246369361687
 21
1870.092172533627
 31
0.0
  0
LINE
  5
2947D
330
747D
100
AcDbEntity
  8
細線
 48
50.0
100
AcDbLine
 10
7363.246369361688
 20
1604.150604736324
 30
0.0
 11
7525.246369361686
 21
1766.150604736314
 31
0.0
  0
LINE
  5
2947E
330
747D
100
AcDbEntity
  8
部品1
100
AcDbLine
 10
7177.621369361688
 20
1882.042172533627
 30
0.0
 11
7192.246369361686
 21
1882.042172533627
 31
0.0
  0
ARC
  5
2947F
330
747D
100
AcDbEntity
  8
部品1
100
AcDbCircle
 10
7213.94636936168
 20
1885.417172533627
 30
0.0
 40
3.375
100
AcDbArc
 50
180.0
 51
270.0
  0
ARC
  5
29480
330
747D
100
AcDbEntity
  8
部品1
100
AcDbCircle
 10
7192.246369361686
 20
1885.417172533627
 30
0.0
 40
3.375
100
AcDbArc
 50
270.0
 51
0.0
  0
ARC
  5
29481
330
747D
100
AcDbEntity
  8
部品1
100
AcDbCircle
 10
7018.996369361686
 20
1885.417172533627
 30
0.0
 40
3.375
100
AcDbArc
 50
180.0
 51
270.0
  0
LINE
  5
29482
330
747D
100
AcDbEntity
  8
細線
 48
50.0
100
AcDbLine
 10
7007.746369361687
 20
1854.817892908508
 30
0.0
 11
7023.020648986805
 21
1870.092172533627
 31
0.0
  0
LINE
  5
29483
330
747D
100
AcDbEntity
  8
部品1
100
AcDbLine
 10
7018.996369361686
 20
1882.042172533627
 30
0.0
 11
7033.62136936168
 21
1882.042172533627
 31
0.0
  0
LINE
  5
29484
330
747D
100
AcDbEntity
  8
細線
 48
50.0
100
AcDbLine
 10
7007.746369361687
 20
1821.141932454499
 30
0.0
 11
7056.696609440819
 21
1870.092172533627
 31
0.0
  0
LINE
  5
29485
330
747D
100
AcDbEntity
  8
細線
 48
50.0
100
AcDbLine
 10
7007.746369361687
 20
1787.465972000489
 30
0.0
 11
7090.372569894825
 21
1870.092172533627
 31
0.0
  0
ARC
  5
29486
330
747D
100
AcDbEntity
  8
部品1
100
AcDbCircle
 10
7295.746369361687
 20
1588.842172533627
 30
0.0
 40
22.5
100
AcDbArc
 50
180.0
 51
270.0
  0
LINE
  5
29487
330
747D
100
AcDbEntity
  8
細線
 48
50.0
100
AcDbLine
 10
7007.746369361687
 20
1518.058288368415
 30
0.0
 11
7205.746369361683
 21
1716.058288368405
 31
0.0
  0
LINE
  5
29488
330
747D
100
AcDbEntity
  8
部品1
100
AcDbLine
 10
7205.74636936168
 20
1465.092172533626
 30
0.0
 11
7205.746369361688
 21
1870.092172533627
 31
0.0
  0
LINE
  5
29489
330
747D
100
AcDbEntity
  8
細線
 48
50.0
100
AcDbLine
 10
7007.746369361687
 20
1585.410209276433
 30
0.0
 11
7205.746369361685
 21
1783.41020927643
 31
0.0
  0
LINE
  5
2948A
330
747D
100
AcDbEntity
  8
細線
 48
50.0
100
AcDbLine
 10
7007.746369361687
 20
1551.734248822424
 30
0.0
 11
7205.746369361685
 21
1749.734248822421
 31
0.0
  0
LINE
  5
2948B
330
747D
100
AcDbEntity
  8
部品1
100
AcDbLine
 10
7363.246369361687
 20
1465.092172533625
 30
0.0
 11
7205.74636936168
 21
1465.092172533625
 31
0.0
  0
LINE
  5
2948C
330
747D
100
AcDbEntity
  8
部品1
 48
50.0
100
AcDbLine
 10
7007.746369361687
 20
1870.092172533627
 30
0.0
 11
7525.246369361692
 21
1870.092172533627
 31
0.0
  0
LINE
  5
2948D
330
747D
100
AcDbEntity
  8
部品1
100
AcDbLine
 10
7213.94636936168
 20
1882.042172533627
 30
0.0
 11
7465.621369361677
 21
1882.042172533627
 31
0.0
  0
LINE
  5
2948E
330
747D
100
AcDbEntity
  8
部品1
100
AcDbLine
 10
7295.746369361687
 20
1566.342172533625
 30
0.0
 11
7340.746369361686
 21
1566.342172533625
 31
0.0
  0
LINE
  5
2948F
330
747D
100
AcDbEntity
  8
部品1
100
AcDbLine
 10
7295.746369361687
 20
1588.842172533627
 30
0.0
 11
7340.746369361686
 21
1588.842172533627
 31
0.0
  0
LINE
  5
29490
330
747D
100
AcDbEntity
  8
部品1
100
AcDbLine
 10
7015.621369361686
 20
1885.417172533627
 30
0.0
 11
7015.621369361686
 21
1963.082052162011
 31
0.0
  0
LINE
  5
29491
330
747D
100
AcDbEntity
  8
細線
100
AcDbLine
 10
7291.246369361687
 20
1882.042172533627
 30
0.0
 11
7291.246369361687
 21
1936.042172533627
 31
0.0
  0
LINE
  5
29492
330
747D
100
AcDbEntity
  8
細線
100
AcDbLine
 10
7277.746369361691
 20
1882.042172533627
 30
0.0
 11
7277.746369361685
 21
1936.042172533627
 31
0.0
  0
LINE
  5
29493
330
747D
100
AcDbEntity
  8
部品1
100
AcDbLine
 10
7195.621369361686
 20
1938.717172533627
 30
0.0
 11
7195.621369361686
 21
1885.417172533627
 31
0.0
  0
LINE
  5
29494
330
747D
100
AcDbEntity
  8
部品1
100
AcDbLine
 10
7210.571369361691
 20
1953.667172533628
 30
0.0
 11
7210.571369361682
 21
1885.417172533627
 31
0.0
  0
LINE
  5
29495
330
747D
100
AcDbEntity
  8
部品1
100
AcDbLine
 10
7295.746369361687
 20
1588.842172533627
 30
0.0
 11
7295.746369361684
 21
1931.542172533626
 31
0.0
  0
LINE
  5
29496
330
747D
100
AcDbEntity
  8
部品1
100
AcDbLine
 10
7273.246369361685
 20
1588.842172533627
 30
0.0
 11
7273.246369361683
 21
1931.542172533626
 31
0.0
  0
TEXT
  5
29497
330
747D
100
AcDbEntity
  8
部品1
 48
50.0
100
AcDbText
 10
6490.07149207049
 20
1584.140912887695
 30
0.0
 40
100.0
  1
▽G.L
  7
STYLE2
100
AcDbText
  0
LWPOLYLINE
  5
29498
330
747D
100
AcDbEntity
  8
部品1
 48
50.0
100
AcDbPolyline
 90
        2
 70
     0
 43
10.0
 10
6490.07149207049
 20
1570.092172533628
 10
7007.746369361687
 20
1570.092172533628
  0
LINE
  5
29499
330
747D
100
AcDbEntity
  8
部品1
 48
50.0
100
AcDbLine
 10
7525.246369361686
 20
1190.092172533625
 30
0.0
 11
7685.246369361687
 21
1190.092172533625
 31
0.0
  0
LINE
  5
2949A
330
747D
100
AcDbEntity
  8
細線
 48
50.0
100
AcDbLine
 10
7533.498538483975
 20
860.092172533627
 30
0.0
 11
7525.460062711044
 21
890.0921725336258
 31
0.0
  0
LINE
  5
2949B
330
747D
100
AcDbEntity
  8
細線
 48
50.0
100
AcDbLine
 10
7632.108594668046
 20
860.0921725336247
 30
0.0
 11
7624.070118895115
 21
890.0921725336248
 31
0.0
  0
LINE
  5
2949C
330
747D
100
AcDbEntity
  8
細線
 48
50.0
100
AcDbLine
 10
7336.278426115871
 20
860.092172533627
 30
0.0
 11
7328.23995034294
 21
890.0921725336258
 31
0.0
  0
LINE
  5
2949D
330
747D
100
AcDbEntity
  8
細線
 48
50.0
100
AcDbLine
 10
7434.888482299929
 20
860.092172533627
 30
0.0
 11
7426.850006526996
 21
890.0921725336258
 31
0.0
  0
LINE
  5
2949E
330
747D
100
AcDbEntity
  8
細線
 48
50.0
100
AcDbLine
 10
7390.059067147179
 20
890.0921725336258
 30
0.0
 11
7685.246369361687
 21
1185.279474748136
 31
0.0
  0
LINE
  5
2949F
330
747D
100
AcDbEntity
  8
細線
 48
50.0
100
AcDbLine
 10
7423.735027601191
 20
890.0921725336258
 30
0.0
 11
7685.246369361687
 21
1151.603514294119
 31
0.0
  0
LINE
  5
294A0
330
747D
100
AcDbEntity
  8
細線
 48
50.0
100
AcDbLine
 10
7457.410988055197
 20
890.0921725336258
 30
0.0
 11
7685.246369361687
 21
1117.927553840121
 31
0.0
  0
LINE
  5
294A1
330
747D
100
AcDbEntity
  8
部品1
 48
50.0
100
AcDbLine
 10
7685.246369361687
 20
1190.092172533625
 30
0.0
 11
7685.246369361687
 21
890.0921725336258
 31
0.0
  0
LINE
  5
294A2
330
747D
100
AcDbEntity
  8
細線
 48
50.0
100
AcDbLine
 10
7139.058313747757
 20
860.092172533627
 30
0.0
 11
7131.019837974825
 21
890.0921725336258
 31
0.0
  0
LINE
  5
294A3
330
747D
100
AcDbEntity
  8
細線
 48
50.0
100
AcDbLine
 10
7237.668369931815
 20
860.092172533627
 30
0.0
 11
7229.629894158882
 21
890.0921725336258
 31
0.0
  0
LINE
  5
294A4
330
747D
100
AcDbEntity
  8
細線
 48
50.0
100
AcDbLine
 10
6941.838201379629
 20
860.092172533627
 30
0.0
 11
6933.799725606694
 21
890.0921725336258
 31
0.0
  0
LINE
  5
294A5
330
747D
100
AcDbEntity
  8
細線
 48
50.0
100
AcDbLine
 10
7040.448257563692
 20
860.092172533627
 30
0.0
 11
7032.409781790758
 21
890.0921725336258
 31
0.0
  0
LINE
  5
294A6
330
747D
100
AcDbEntity
  8
細線
 48
50.0
100
AcDbLine
 10
7120.651383515104
 20
890.0921725336258
 30
0.0
 11
7525.246369361685
 21
1294.687158380209
 31
0.0
  0
LINE
  5
294A7
330
747D
100
AcDbEntity
  8
細線
 48
50.0
100
AcDbLine
 10
7154.327343969113
 20
890.0921725336258
 30
0.0
 11
7525.246369361686
 21
1261.011197926192
 31
0.0
  0
LINE
  5
294A8
330
747D
100
AcDbEntity
  8
細線
 48
50.0
100
AcDbLine
 10
7188.003304423123
 20
890.0921725336258
 30
0.0
 11
7525.246369361686
 21
1227.335237472198
 31
0.0
  0
LINE
  5
294A9
330
747D
100
AcDbEntity
  8
細線
 48
50.0
100
AcDbLine
 10
7506.703619240877
 20
760.0921725336256
 30
0.0
 11
7514.742095013826
 21
730.0921725336256
 31
0.0
  0
LINE
  5
294AA
330
747D
100
AcDbEntity
  8
細線
 48
50.0
100
AcDbLine
 10
7605.313675424937
 20
760.0921725336247
 30
0.0
 11
7613.352151197871
 21
730.0921725336247
 31
0.0
  0
LINE
  5
294AB
330
747D
100
AcDbEntity
  8
細線
 48
50.0
100
AcDbLine
 10
7309.483506872759
 20
760.0921725336256
 30
0.0
 11
7317.521982645693
 21
730.0921725336256
 31
0.0
  0
LINE
  5
294AC
330
747D
100
AcDbEntity
  8
細線
 48
50.0
100
AcDbLine
 10
7408.093563056819
 20
760.0921725336256
 30
0.0
 11
7416.132038829752
 21
730.0921725336256
 31
0.0
  0
LINE
  5
294AD
330
747D
100
AcDbEntity
  8
細線
 48
50.0
100
AcDbLine
 10
7112.263394504646
 20
760.0921725336256
 30
0.0
 11
7120.301870277579
 21
730.0921725336256
 31
0.0
  0
LINE
  5
294AE
330
747D
100
AcDbEntity
  8
細線
 48
50.0
100
AcDbLine
 10
7210.873450688701
 20
760.0921725336256
 30
0.0
 11
7218.911926461635
 21
730.0921725336256
 31
0.0
  0
LINE
  5
294AF
330
747D
100
AcDbEntity
  8
細線
 48
50.0
100
AcDbLine
 10
6915.043282136514
 20
760.0921725336256
 30
0.0
 11
6923.081757909449
 21
730.0921725336256
 31
0.0
  0
LINE
  5
294B0
330
747D
100
AcDbEntity
  8
細線
 48
50.0
100
AcDbLine
 10
7013.65333832058
 20
760.0921725336256
 30
0.0
 11
7021.691814093516
 21
730.0921725336256
 31
0.0
  0
LINE
  5
294B1
330
747D
100
AcDbEntity
  8
細線
 48
50.0
100
AcDbLine
 10
7498.665143467938
 20
730.0921725336247
 30
0.0
 11
7541.537014256906
 21
890.0921725336258
 31
0.0
  0
LINE
  5
294B2
330
747D
100
AcDbEntity
  8
細線
 48
50.0
100
AcDbLine
 10
7597.275199651999
 20
730.0921725336229
 30
0.0
 11
7640.147070440979
 21
890.092172533623
 31
0.0
  0
LINE
  5
294B3
330
747D
100
AcDbEntity
  8
細線
 48
50.0
100
AcDbLine
 10
7301.445031099824
 20
730.0921725336247
 30
0.0
 11
7344.316901888804
 21
890.0921725336248
 31
0.0
  0
LINE
  5
294B4
330
747D
100
AcDbEntity
  8
細線
 48
50.0
100
AcDbLine
 10
7104.224918731707
 20
730.0921725336256
 30
0.0
 11
7147.096789520684
 21
890.0921725336258
 31
0.0
  0
LINE
  5
294B5
330
747D
100
AcDbEntity
  8
細線
 48
50.0
100
AcDbLine
 10
7202.834974915764
 20
730.0921725336256
 30
0.0
 11
7245.706845704744
 21
890.0921725336248
 31
0.0
  0
LINE
  5
294B6
330
747D
100
AcDbEntity
  8
細線
 48
50.0
100
AcDbLine
 10
7400.055087283876
 20
730.0921725336256
 30
0.0
 11
7442.926958072859
 21
890.0921725336248
 31
0.0
  0
LINE
  5
294B7
330
747D
100
AcDbEntity
  8
細線
 48
50.0
100
AcDbLine
 10
6907.00480636358
 20
730.0921725336256
 30
0.0
 11
6949.876677152561
 21
890.0921725336258
 31
0.0
  0
LINE
  5
294B8
330
747D
100
AcDbEntity
  8
細線
 48
50.0
100
AcDbLine
 10
7005.614862547638
 20
730.0921725336247
 30
0.0
 11
7048.486733336618
 21
890.0921725336248
 31
0.0
  0
LINE
  5
294B9
330
747D
100
AcDbEntity
  8
細線
 48
50.0
100
AcDbLine
 10
6847.746369361678
 20
1156.002525644359
 30
0.0
 11
6881.836016250955
 21
1190.092172533625
 31
0.0
  0
LINE
  5
294BA
330
747D
100
AcDbEntity
  8
細線
 48
50.0
100
AcDbLine
 10
6747.746369361687
 20
871.7670737408507
 30
0.0
 11
6752.65656478443
 21
890.0921725336258
 31
0.0
  0
LINE
  5
294BB
330
747D
100
AcDbEntity
  8
細線
 48
50.0
100
AcDbLine
 10
6843.228145195563
 20
860.092172533627
 30
0.0
 11
6835.189669422629
 21
890.0921725336258
 31
0.0
  0
LINE
  5
294BC
330
747D
100
AcDbEntity
  8
部品1
 48
50.0
100
AcDbLine
 10
6847.746369361686
 20
890.0921725336258
 30
0.0
 11
6847.746369361686
 21
1190.092172533625
 31
0.0
  0
LINE
  5
294BD
330
747D
100
AcDbEntity
  8
細線
 48
50.0
100
AcDbLine
 10
6816.433225952451
 20
760.0921725336256
 30
0.0
 11
6824.471701725385
 21
730.0921725336256
 31
0.0
  0
LINE
  5
294BE
330
747D
100
AcDbEntity
  8
部品1
 48
50.0
100
AcDbLine
 10
6747.746369361689
 20
730.0921725336256
 30
0.0
 11
6747.746369361689
 21
890.0921725336258
 31
0.0
  0
LINE
  5
294BF
330
747D
100
AcDbEntity
  8
細線
 48
50.0
100
AcDbLine
 10
6808.394750179511
 20
730.0921725336247
 30
0.0
 11
6851.266620968488
 21
890.0921725336248
 31
0.0
  0
LINE
  5
294C0
330
747D
100
AcDbEntity
  8
細線
 48
50.0
100
AcDbLine
 10
6847.746369361678
 20
1122.326565190346
 30
0.0
 11
6915.511976704967
 21
1190.092172533625
 31
0.0
  0
LINE
  5
294C1
330
747D
100
AcDbEntity
  8
細線
 48
50.0
100
AcDbLine
 10
6847.746369361678
 20
1088.65060473634
 30
0.0
 11
6949.187937158973
 21
1190.092172533625
 31
0.0
  0
LINE
  5
294C2
330
747D
100
AcDbEntity
  8
部品1
 48
50.0
100
AcDbLine
 10
6847.746369361686
 20
1190.092172533625
 30
0.0
 11
7007.746369361687
 21
1190.092172533625
 31
0.0
  0
LINE
  5
294C3
330
747D
100
AcDbEntity
  8
細線
 48
50.0
100
AcDbLine
 10
6851.243699883029
 20
890.0921725336258
 30
0.0
 11
7525.246369361685
 21
1564.094842012283
 31
0.0
  0
LINE
  5
294C4
330
747D
100
AcDbEntity
  8
部品1
100
AcDbLine
 10
7525.246369361685
 20
1190.092172533625
 30
0.0
 11
7525.246369361686
 21
1870.092172533627
 31
0.0
  0
LINE
  5
294C5
330
747D
100
AcDbEntity
  8
部品1
 48
50.0
100
AcDbLine
 10
7007.746369361687
 20
1190.092172533625
 30
0.0
 11
7007.746369361687
 21
1870.092172533627
 31
0.0
  0
LINE
  5
294C6
330
747D
100
AcDbEntity
  8
細線
 48
50.0
100
AcDbLine
 10
7007.746369361687
 20
1282.326565190349
 30
0.0
 11
7205.746369361678
 21
1480.326565190335
 31
0.0
  0
LINE
  5
294C7
330
747D
100
AcDbEntity
  8
細線
 48
50.0
100
AcDbLine
 10
7007.746369361687
 20
1248.65060473634
 30
0.0
 11
7224.187937158979
 21
1465.092172533625
 31
0.0
  0
LINE
  5
294C8
330
747D
100
AcDbEntity
  8
細線
 48
50.0
100
AcDbLine
 10
7007.746369361687
 20
1316.002525644359
 30
0.0
 11
7205.746369361678
 21
1514.002525644352
 31
0.0
  0
LINE
  5
294C9
330
747D
100
AcDbEntity
  8
細線
 48
50.0
100
AcDbLine
 10
6918.595620791049
 20
890.0921725336258
 30
0.0
 11
7525.246369361686
 21
1496.742921104261
 31
0.0
  0
LINE
  5
294CA
330
747D
100
AcDbEntity
  8
細線
 48
50.0
100
AcDbLine
 10
6884.91966033704
 20
890.0921725336258
 30
0.0
 11
7525.246369361692
 21
1530.41888155827
 31
0.0
  0
TEXT
  5
294CB
330
747D
100
AcDbEntity
  8
部品1
 48
50.0
100
AcDbText
 10
7530.688349717222
 20
2314.940523486377
 30
0.0
 40
100.0
  1
基礎ボルト(市販品)
  7
STYLE2
100
AcDbText
  0
DIMENSION
  5
294CC
330
747D
100
AcDbEntity
  8
寸法
 48
50.0
100
AcDbDimension
  2
*D38
 10
8497.650451721526
 20
1870.092172533627
 30
0.0
 11
8497.650451721526
 21
1404.083269112145
 31
0.0
 70
   160
  1
20～25
 71
     5
 42
65.95000000000005
  3
INABA_S40G
100
AcDbAlignedDimension
 13
7291.246369361687
 23
1936.042172533627
 33
0.0
 14
7525.246369361686
 24
1870.092172533627
 34
0.0
 50
90.0
100
AcDbRotatedDimension
1001
ACAD
1000
DSTYLE
1002
{
1070
   341
1005
0
1002
}
  0
LINE
  5
294CD
330
747D
100
AcDbEntity
  8
細線
 48
50.0
100
AcDbLine
 10
7695.885255836055
 20
730.0921725336247
 30
0.0
 11
7738.757126625035
 21
890.092172533623
 31
0.0
  0
LINE
  5
294CE
330
747D
100
AcDbEntity
  8
部品1
 48
50.0
100
AcDbLine
 10
7785.246369361691
 20
730.0921725336256
 30
0.0
 11
6747.746369361689
 21
730.0921725336256
 31
0.0
  0
LINE
  5
294CF
330
747D
100
AcDbEntity
  8
細線
 48
50.0
100
AcDbLine
 10
7703.923731608995
 20
760.0921725336247
 30
0.0
 11
7711.962207381929
 21
730.0921725336247
 31
0.0
  0
LINE
  5
294D0
330
747D
100
AcDbEntity
  8
部品1
 48
50.0
100
AcDbLine
 10
7785.246369361691
 20
890.0921725336258
 30
0.0
 11
6747.746369361689
 21
890.0921725336258
 31
0.0
  0
LWPOLYLINE
  5
294D1
330
747D
100
AcDbEntity
  8
部品1
 48
50.0
100
AcDbPolyline
 90
        2
 70
     0
 43
10.0
 10
7525.246369361686
 20
1570.092172533628
 10
7892.374448610917
 20
1570.092172533628
  0
DIMENSION
  5
294D2
330
747D
100
AcDbEntity
  8
寸法
 48
50.0
100
AcDbDimension
  2
*D39
 10
8152.582119072743
 20
1465.092172533625
 30
0.0
 11
8052.582119072743
 21
1667.592172533627
 31
0.0
 70
    32
  1
180
 71
     5
 42
405.000000000002
  3
INABA_S40G
100
AcDbAlignedDimension
 13
7525.246369361686
 23
1870.092172533627
 33
0.0
 14
7525.246369361686
 24
1465.092172533625
 34
0.0
 50
90.0
100
AcDbRotatedDimension
1001
ACAD
1000
DSTYLE
1002
{
1070
   341
1005
0
1002
}
  0
MTEXT
  5
294D3
102
{ACAD_REACTORS
330
294D4
102
}
330
747D
100
AcDbEntity
  8
部品1
 62
     7
 48
50.0
100
AcDbMText
 10
7536.426947385836
 20
2200.571330225165
 30
0.0
 40
100.0
 41
1.0
 71
     4
 72
     1
  1
M10X160
  7
STYLE2
 73
     1
 44
1.0
1001
ACAD
1000
MTEXTBEGIN
1070
    73
1070
     1
1070
    44
1040
1.0
1070
    74
1070
     0
1000
MTEXTEND
  0
LEADER
  5
294D4
330
747D
100
AcDbEntity
  8
寸法
 48
50.0
100
AcDbLeader
  3
INABA_S40G
 73
     0
 74
     0
 75
     1
 40
100.0
 41
543.75
 76
     3
 10
7295.746369361687
 20
1931.542172533626
 30
0.0
 10
7396.426947385837
 20
2110.571330225165
 30
0.0
 10
7496.426947385836
 20
2110.571330225165
 30
0.0
340
294D3
1001
ACAD
1000
DSTYLE
1002
{
1070
   341
1005
0
1002
}
  0
LINE
  5
294D5
330
747D
100
AcDbEntity
  8
細線
 48
50.0
100
AcDbLine
 10
4882.697227890194
 20
1821.141932454499
 30
0.0
 11
4931.647467969327
 21
1870.092172533627
 31
0.0
  0
LINE
  5
294D6
330
747D
100
AcDbEntity
  8
細線
 48
50.0
100
AcDbLine
 10
4882.697227890194
 20
1787.465972000489
 30
0.0
 11
4965.323428423332
 21
1870.092172533627
 31
0.0
  0
LINE
  5
294D7
330
747D
100
AcDbEntity
  8
細線
 48
50.0
100
AcDbLine
 10
4882.697227890194
 20
1854.817892908508
 30
0.0
 11
4897.971507515314
 21
1870.092172533627
 31
0.0
  0
ARC
  5
294D8
330
747D
100
AcDbEntity
  8
部品1
 48
50.0
100
AcDbCircle
 10
5002.697227890195
 20
1695.410209276433
 30
0.0
 40
30.0
100
AcDbArc
 50
0.0
 51
180.0
  0
CIRCLE
  5
294D9
330
747D
100
AcDbEntity
  8
部品1
 48
50.0
100
AcDbCircle
 10
5002.697227890195
 20
1695.410209276433
 30
0.0
 40
10.0
  0
LINE
  5
294DA
330
747D
100
AcDbEntity
  8
細線
 48
50.0
100
AcDbLine
 10
4992.697227890194
 20
1661.734248822424
 30
0.0
 11
5012.697227890194
 21
1681.734248822424
 31
0.0
  0
LINE
  5
294DB
330
747D
100
AcDbEntity
  8
細線
 48
50.0
100
AcDbLine
 10
5032.697227890194
 20
1668.058288368414
 30
0.0
 11
5122.697227890194
 21
1758.058288368415
 31
0.0
  0
LINE
  5
294DC
330
747D
100
AcDbEntity
  8
細線
 48
50.0
100
AcDbLine
 10
5032.138111972678
 20
1701.175132904904
 30
0.0
 11
5122.697227890194
 21
1791.734248822424
 31
0.0
  0
LINE
  5
294DD
330
747D
100
AcDbEntity
  8
細線
 48
50.0
100
AcDbLine
 10
5018.312756018282
 20
1721.025737404521
 30
0.0
 11
5122.697227890194
 21
1825.410209276433
 31
0.0
  0
LINE
  5
294DE
330
747D
100
AcDbEntity
  8
部品1
 48
50.0
100
AcDbLine
 10
4882.697227890194
 20
1870.092172533627
 30
0.0
 11
5122.697227890194
 21
1870.092172533627
 31
0.0
  0
LINE
  5
294DF
330
747D
100
AcDbEntity
  8
細線
 48
50.0
100
AcDbLine
 10
4882.697227890194
 20
1518.058288368415
 30
0.0
 11
4987.390130426813
 21
1622.75119090503
 31
0.0
  0
LINE
  5
294E0
330
747D
100
AcDbEntity
  8
部品1
 48
50.0
100
AcDbLine
 10
4992.697227890194
 20
1622.75119090503
 30
0.0
 11
4972.697227890193
 21
1622.751190905034
 31
0.0
  0
LINE
  5
294E1
330
747D
100
AcDbEntity
  8
細線
 48
50.0
100
AcDbLine
 10
5032.697227890201
 20
1398.65060473634
 30
0.0
 11
5122.697227890187
 21
1488.65060473634
 31
0.0
  0
LINE
  5
294E2
330
747D
100
AcDbEntity
  8
細線
 48
50.0
100
AcDbLine
 10
5032.697227890194
 20
1466.002525644358
 30
0.0
 11
5122.697227890194
 21
1556.002525644359
 31
0.0
  0
LINE
  5
294E3
330
747D
100
AcDbEntity
  8
細線
 48
50.0
100
AcDbLine
 10
5032.697227890201
 20
1432.326565190353
 30
0.0
 11
5122.697227890187
 21
1522.326565190344
 31
0.0
  0
LINE
  5
294E4
330
747D
100
AcDbEntity
  8
細線
 48
50.0
100
AcDbLine
 10
4882.697227890194
 20
1551.734248822424
 30
0.0
 11
4972.697227890193
 21
1641.734248822424
 31
0.0
  0
LINE
  5
294E5
330
747D
100
AcDbEntity
  8
細線
 48
50.0
100
AcDbLine
 10
4882.697227890194
 20
1585.410209276433
 30
0.0
 11
4972.697227890193
 21
1675.410209276433
 31
0.0
  0
LINE
  5
294E6
330
747D
100
AcDbEntity
  8
細線
 48
50.0
100
AcDbLine
 10
4992.697227890194
 20
1628.058288368415
 30
0.0
 11
5012.697227890194
 21
1648.058288368415
 31
0.0
  0
LINE
  5
294E7
330
747D
100
AcDbEntity
  8
部品1
 48
50.0
100
AcDbLine
 10
4972.697227890193
 20
1622.751190905034
 30
0.0
 11
4972.697227890193
 21
1695.410209276433
 31
0.0
  0
LINE
  5
294E8
330
747D
100
AcDbEntity
  8
部品1
 48
50.0
100
AcDbLine
 10
4992.697227890194
 20
1622.75119090503
 30
0.0
 11
4992.697227890194
 21
1695.410209276433
 31
0.0
  0
LEADER
  5
294E9
330
747D
100
AcDbEntity
  8
寸法
 48
50.0
100
AcDbLeader
  3
INABA_S40G
 71
     0
 73
     0
 74
     0
 75
     1
 40
100.0
 41
222.7272727272727
 76
     3
 10
5002.697227890193
 20
1695.410209276433
 30
0.0
 10
5101.304649174438
 20
1621.676624157286
 30
0.0
 10
5201.304649174439
 20
1621.676624157286
 30
0.0
1001
ACAD
1000
DSTYLE
1002
{
1070
   341
1005
0
1002
}
  0
LWPOLYLINE
  5
294EA
330
747D
100
AcDbEntity
  8
部品1
 48
50.0
100
AcDbPolyline
 90
        2
 70
     0
 43
10.0
 10
5122.697227890193
 20
1570.092172533628
 10
5640.372105181391
 20
1570.092172533628
  0
MTEXT
  5
294EB
102
{ACAD_REACTORS
330
294E9
102
}
330
747D
100
AcDbEntity
  8
寸法
 62
     7
 48
50.0
100
AcDbMText
 10
5226.304649174437
 20
1696.676624157286
 30
0.0
 40
100.0
 41
1.0
 71
     4
 72
     1
  1
D13
  7
STYLE2
 73
     1
 44
1.0
1001
ACAD
1000
MTEXTBEGIN
1070
    73
1070
     1
1070
    44
1040
1.0
1070
    74
1070
     0
1000
MTEXTEND
  0
LINE
  5
294EC
330
747D
100
AcDbEntity
  8
細線
 48
50.0
100
AcDbLine
 10
5309.839340828439
 20
860.092172533627
 30
0.0
 11
5301.800865055504
 21
890.0921725336258
 31
0.0
  0
LINE
  5
294ED
330
747D
100
AcDbEntity
  8
細線
 48
50.0
100
AcDbLine
 10
5265.009925675686
 20
890.0921725336258
 30
0.0
 11
5282.697227890194
 21
907.7794747481348
 31
0.0
  0
MTEXT
  5
294EE
102
{ACAD_REACTORS
330
2952D
102
}
330
747D
100
AcDbEntity
  8
寸法
 62
     7
 48
50.0
100
AcDbMText
 10
5411.85680264855
 20
995.8458363549098
 30
0.0
 40
100.0
 41
1.0
 71
     4
 72
     1
  1
D10
  7
STYLE2
 73
     1
 44
1.0
1001
ACAD
1000
MTEXTBEGIN
1070
    73
1070
     1
1070
    44
1040
1.0
1070
    74
1070
     0
1000
MTEXTEND
  0
LINE
  5
294EF
330
747D
100
AcDbEntity
  8
部品1
 48
50.0
100
AcDbLine
 10
5282.697227890194
 20
1190.092172533625
 30
0.0
 11
5282.697227890194
 21
890.0921725336258
 31
0.0
  0
LINE
  5
294F0
330
747D
100
AcDbEntity
  8
細線
 48
50.0
100
AcDbLine
 10
5283.044421585326
 20
760.0921725336256
 30
0.0
 11
5291.082897358259
 21
730.0921725336256
 31
0.0
  0
LINE
  5
294F1
330
747D
100
AcDbEntity
  8
細線
 48
50.0
100
AcDbLine
 10
5381.654477769384
 20
760.0921725336256
 30
0.0
 11
5382.697227890194
 21
756.2005761031699
 31
0.0
  0
LINE
  5
294F2
330
747D
100
AcDbEntity
  8
細線
 48
50.0
100
AcDbLine
 10
5373.616001996448
 20
730.0921725336247
 30
0.0
 11
5382.697227890194
 21
763.9837689641117
 31
0.0
  0
MTEXT
  5
294F3
102
{ACAD_REACTORS
330
2952B
102
}
330
747D
100
AcDbEntity
  8
寸法
 62
     7
 48
50.0
100
AcDbMText
 10
5424.870297716758
 20
668.4058153684345
 30
0.0
 40
100.0
 41
1.0
 71
     4
 72
     1
  1
\A1;D10@300
  7
STYLE2
 73
     1
 44
1.0
1001
ACAD
1000
MTEXTBEGIN
1070
    73
1070
     1
1070
    44
1040
1.0
1070
    74
1070
     0
1000
MTEXTEND
  0
LINE
  5
294F4
330
747D
100
AcDbEntity
  8
部品1
 48
50.0
100
AcDbLine
 10
5382.697227890197
 20
890.0921725336258
 30
0.0
 11
5382.697227890197
 21
730.0921725336256
 31
0.0
  0
LINE
  5
294F5
330
747D
100
AcDbEntity
  8
細線
 48
50.0
100
AcDbLine
 10
5275.005945812385
 20
730.0921725336256
 30
0.0
 11
5317.877816601367
 21
890.0921725336248
 31
0.0
  0
LINE
  5
294F6
330
747D
100
AcDbEntity
  8
部品1
 48
50.0
100
AcDbLine
 10
4992.697227890194
 20
1112.75119090503
 30
0.0
 11
4972.697227890193
 21
1112.75119090503
 31
0.0
  0
LINE
  5
294F7
330
747D
100
AcDbEntity
  8
細線
 48
50.0
100
AcDbLine
 10
4982.529537236949
 20
1112.75119090503
 30
0.0
 11
5012.697227890202
 21
1142.918881558278
 31
0.0
  0
LINE
  5
294F8
330
747D
100
AcDbEntity
  8
細線
 48
50.0
100
AcDbLine
 10
4992.697227890194
 20
1089.242921104265
 30
0.0
 11
5012.697227890202
 21
1109.242921104265
 31
0.0
  0
LINE
  5
294F9
330
747D
100
AcDbEntity
  8
細線
 48
50.0
100
AcDbLine
 10
5032.697227890201
 20
1162.918881558278
 30
0.0
 11
5122.697227890187
 21
1252.918881558271
 31
0.0
  0
LINE
  5
294FA
330
747D
100
AcDbEntity
  8
細線
 48
50.0
100
AcDbLine
 10
5032.697227890201
 20
1196.594842012288
 30
0.0
 11
5122.697227890187
 21
1286.594842012284
 31
0.0
  0
LINE
  5
294FB
330
747D
100
AcDbEntity
  8
細線
 48
50.0
100
AcDbLine
 10
5032.697227890201
 20
1129.242921104265
 30
0.0
 11
5122.697227890187
 21
1219.242921104265
 31
0.0
  0
LINE
  5
294FC
330
747D
100
AcDbEntity
  8
細線
 48
50.0
100
AcDbLine
 10
5062.95416295163
 20
890.0921725336258
 30
0.0
 11
5182.95527275805
 21
1010.093282340051
 31
0.0
  0
LINE
  5
294FD
330
747D
100
AcDbEntity
  8
部品1
 48
50.0
100
AcDbLine
 10
5212.697227890194
 20
1030.092172533626
 30
0.0
 11
5212.697227890194
 21
1010.092172533625
 31
0.0
  0
LINE
  5
294FE
330
747D
100
AcDbEntity
  8
細線
 48
50.0
100
AcDbLine
 10
5211.22928464438
 20
860.092172533627
 30
0.0
 11
5203.190808871447
 21
890.0921725336258
 31
0.0
  0
CIRCLE
  5
294FF
330
747D
100
AcDbEntity
  8
部品1
 48
50.0
100
AcDbCircle
 10
5162.697227890194
 20
1040.092172533626
 30
0.0
 40
10.0
  0
LINE
  5
29500
330
747D
100
AcDbEntity
  8
細線
 48
50.0
100
AcDbLine
 10
5112.619228460322
 20
860.092172533627
 30
0.0
 11
5104.580752687389
 21
890.0921725336258
 31
0.0
  0
ARC
  5
29501
330
747D
100
AcDbEntity
  8
部品1
 48
50.0
100
AcDbCircle
 10
5002.697227890195
 20
1040.092172533626
 30
0.0
 40
30.0
100
AcDbArc
 50
340.5287793654709
 51
0.0
  0
LINE
  5
29502
330
747D
100
AcDbEntity
  8
細線
 48
50.0
100
AcDbLine
 10
5014.009172276264
 20
860.092172533627
 30
0.0
 11
5005.970696503331
 21
890.0921725336258
 31
0.0
  0
ARC
  5
29503
330
747D
100
AcDbEntity
  8
部品1
 48
50.0
100
AcDbCircle
 10
5002.697227890195
 20
1040.092172533626
 30
0.0
 40
30.0
100
AcDbArc
 50
180.0
 51
199.471220634529
  0
LINE
  5
29504
330
747D
100
AcDbEntity
  8
細線
 48
50.0
100
AcDbLine
 10
4915.399116092199
 20
860.092172533627
 30
0.0
 11
4907.360640319266
 21
890.0921725336258
 31
0.0
  0
CIRCLE
  5
29505
330
747D
100
AcDbEntity
  8
部品1
 48
50.0
100
AcDbCircle
 10
5002.697227890195
 20
1040.092172533626
 30
0.0
 40
10.0
  0
LINE
  5
29506
330
747D
100
AcDbEntity
  8
細線
 48
50.0
100
AcDbLine
 10
5029.278202497624
 20
890.0921725336258
 30
0.0
 11
5149.278202497624
 21
1010.092172533625
 31
0.0
  0
LINE
  5
29507
330
747D
100
AcDbEntity
  8
細線
 48
50.0
100
AcDbLine
 10
4995.602242043611
 20
890.0921725336258
 30
0.0
 11
5115.60224204361
 21
1010.092172533625
 31
0.0
  0
LINE
  5
29508
330
747D
100
AcDbEntity
  8
細線
 48
50.0
100
AcDbLine
 10
4866.194558411536
 20
1030.092172533626
 30
0.0
 11
5012.697227890194
 21
1176.594842012284
 31
0.0
  0
LINE
  5
29509
330
747D
100
AcDbEntity
  8
細線
 48
50.0
100
AcDbLine
 10
4933.546479319556
 20
1030.092172533626
 30
0.0
 11
4972.697227890193
 21
1069.242921104265
 31
0.0
  0
LINE
  5
2950A
330
747D
100
AcDbEntity
  8
部品1
 48
50.0
100
AcDbLine
 10
4972.697227890193
 20
1112.75119090503
 30
0.0
 11
4972.697227890193
 21
1040.092172533626
 31
0.0
  0
LINE
  5
2950B
330
747D
100
AcDbEntity
  8
細線
 48
50.0
100
AcDbLine
 10
4899.870518865548
 20
1030.092172533626
 30
0.0
 11
4972.697227890193
 21
1102.918881558275
 31
0.0
  0
LINE
  5
2950C
330
747D
100
AcDbEntity
  8
部品1
 48
50.0
100
AcDbLine
 10
4992.697227890194
 20
1112.75119090503
 30
0.0
 11
4992.697227890194
 21
1040.092172533626
 31
0.0
  0
LINE
  5
2950D
330
747D
100
AcDbEntity
  8
細線
 48
50.0
100
AcDbLine
 10
4722.697227890185
 20
1122.326565190346
 30
0.0
 11
4790.462835233475
 21
1190.092172533625
 31
0.0
  0
LINE
  5
2950E
330
747D
100
AcDbEntity
  8
細線
 48
50.0
100
AcDbLine
 10
4722.697227890185
 20
1156.002525644359
 30
0.0
 11
4756.786874779462
 21
1190.092172533625
 31
0.0
  0
LINE
  5
2950F
330
747D
100
AcDbEntity
  8
細線
 48
50.0
100
AcDbLine
 10
4722.697227890185
 20
1088.65060473634
 30
0.0
 11
4824.138795687479
 21
1190.092172533625
 31
0.0
  0
LINE
  5
29510
330
747D
100
AcDbEntity
  8
部品1
 48
50.0
100
AcDbLine
 10
4792.697227890194
 20
1030.092172533626
 30
0.0
 11
4792.697227890194
 21
1010.092172533625
 31
0.0
  0
LINE
  5
29511
330
747D
100
AcDbEntity
  8
細線
 48
50.0
100
AcDbLine
 10
4816.789059908135
 20
860.092172533627
 30
0.0
 11
4808.7505841352
 21
890.0921725336258
 31
0.0
  0
LINE
  5
29512
330
747D
100
AcDbEntity
  8
細線
 48
50.0
100
AcDbLine
 10
4718.17900372407
 20
860.092172533627
 30
0.0
 11
4710.140527951135
 21
890.0921725336258
 31
0.0
  0
LINE
  5
29513
330
747D
100
AcDbEntity
  8
細線
 48
50.0
100
AcDbLine
 10
4622.697227890194
 20
871.7670737408507
 30
0.0
 11
4627.607423312938
 21
890.0921725336258
 31
0.0
  0
LINE
  5
29514
330
747D
100
AcDbEntity
  8
部品1
 48
50.0
100
AcDbLine
 10
4722.697227890193
 20
890.0921725336258
 30
0.0
 11
4722.697227890193
 21
1190.092172533625
 31
0.0
  0
LINE
  5
29515
330
747D
100
AcDbEntity
  8
部品1
 48
50.0
100
AcDbLine
 10
4792.697227890194
 20
1010.092172533625
 30
0.0
 11
5212.697227890194
 21
1010.092172533625
 31
0.0
  0
LINE
  5
29516
330
747D
100
AcDbEntity
  8
部品1
 48
50.0
100
AcDbLine
 10
4792.697227890194
 20
1030.092172533626
 30
0.0
 11
5212.697227890194
 21
1030.092172533626
 31
0.0
  0
LINE
  5
29517
330
747D
100
AcDbEntity
  8
細線
 48
50.0
100
AcDbLine
 10
4793.546479319554
 20
890.0921725336258
 30
0.0
 11
4913.546479319555
 21
1010.092172533625
 31
0.0
  0
CIRCLE
  5
29518
330
747D
100
AcDbEntity
  8
部品1
 48
50.0
100
AcDbCircle
 10
4842.697227890194
 20
1040.092172533626
 30
0.0
 40
10.0
  0
LINE
  5
29519
330
747D
100
AcDbEntity
  8
細線
 48
50.0
100
AcDbLine
 10
4759.870518865549
 20
890.0921725336258
 30
0.0
 11
4879.87051886555
 21
1010.092172533625
 31
0.0
  0
LINE
  5
2951A
330
747D
100
AcDbEntity
  8
細線
 48
50.0
100
AcDbLine
 10
4726.194558411537
 20
890.0921725336258
 30
0.0
 11
4846.194558411537
 21
1010.092172533625
 31
0.0
  0
LINE
  5
2951B
330
747D
100
AcDbEntity
  8
部品1
 48
50.0
100
AcDbLine
 10
4722.697227890193
 20
1190.092172533625
 30
0.0
 11
4882.697227890194
 21
1190.092172533625
 31
0.0
  0
LINE
  5
2951C
330
747D
100
AcDbEntity
  8
細線
 48
50.0
100
AcDbLine
 10
5085.824309217212
 20
760.0921725336256
 30
0.0
 11
5093.862784990144
 21
730.0921725336256
 31
0.0
  0
LINE
  5
2951D
330
747D
100
AcDbEntity
  8
細線
 48
50.0
100
AcDbLine
 10
5184.434365401267
 20
760.0921725336256
 30
0.0
 11
5192.4728411742
 21
730.0921725336256
 31
0.0
  0
LINE
  5
2951E
330
747D
100
AcDbEntity
  8
細線
 48
50.0
100
AcDbLine
 10
4888.604196849088
 20
760.0921725336256
 30
0.0
 11
4896.642672622022
 21
730.0921725336256
 31
0.0
  0
LINE
  5
2951F
330
747D
100
AcDbEntity
  8
細線
 48
50.0
100
AcDbLine
 10
4987.214253033153
 20
760.0921725336256
 30
0.0
 11
4995.252728806086
 21
730.0921725336256
 31
0.0
  0
LINE
  5
29520
330
747D
100
AcDbEntity
  8
細線
 48
50.0
100
AcDbLine
 10
4691.384084480958
 20
760.0921725336256
 30
0.0
 11
4699.422560253892
 21
730.0921725336256
 31
0.0
  0
LINE
  5
29521
330
747D
100
AcDbEntity
  8
細線
 48
50.0
100
AcDbLine
 10
4789.994140665023
 20
760.0921725336256
 30
0.0
 11
4798.032616437956
 21
730.0921725336256
 31
0.0
  0
LINE
  5
29522
330
747D
100
AcDbEntity
  8
細線
 48
50.0
100
AcDbLine
 10
5077.78583344427
 20
730.0921725336256
 30
0.0
 11
5120.657704233252
 21
890.0921725336248
 31
0.0
  0
LINE
  5
29523
330
747D
100
AcDbEntity
  8
細線
 48
50.0
100
AcDbLine
 10
4781.95566489209
 20
730.0921725336256
 30
0.0
 11
4824.827535681068
 21
890.0921725336258
 31
0.0
  0
LINE
  5
29524
330
747D
100
AcDbEntity
  8
細線
 48
50.0
100
AcDbLine
 10
4880.565721076147
 20
730.0921725336247
 30
0.0
 11
4923.437591865126
 21
890.0921725336248
 31
0.0
  0
LINE
  5
29525
330
747D
100
AcDbEntity
  8
細線
 48
50.0
100
AcDbLine
 10
4683.345608708019
 20
730.0921725336247
 30
0.0
 11
4726.217479496995
 21
890.0921725336248
 31
0.0
  0
LINE
  5
29526
330
747D
100
AcDbEntity
  8
部品1
 48
50.0
100
AcDbLine
 10
4622.697227890196
 20
730.0921725336256
 30
0.0
 11
4622.697227890196
 21
890.0921725336258
 31
0.0
  0
LINE
  5
29527
330
747D
100
AcDbEntity
  8
細線
 48
50.0
100
AcDbLine
 10
4979.175777260213
 20
730.0921725336256
 30
0.0
 11
5022.047648049191
 21
890.0921725336258
 31
0.0
  0
LINE
  5
29528
330
747D
100
AcDbEntity
  8
細線
 48
50.0
100
AcDbLine
 10
5176.395889628331
 20
730.0921725336247
 30
0.0
 11
5219.267760417308
 21
890.0921725336248
 31
0.0
  0
LINE
  5
29529
330
747D
100
AcDbEntity
  8
部品1
 48
50.0
100
AcDbLine
 10
5382.697227890197
 20
730.0921725336256
 30
0.0
 11
4622.697227890196
 21
730.0921725336256
 31
0.0
  0
LINE
  5
2952A
330
747D
100
AcDbEntity
  8
部品1
 48
50.0
100
AcDbLine
 10
5382.697227890197
 20
890.0921725336258
 30
0.0
 11
4622.697227890196
 21
890.0921725336258
 31
0.0
  0
LEADER
  5
2952B
330
747D
100
AcDbEntity
  8
寸法
 48
50.0
100
AcDbLeader
  3
INABA_S40G
 71
     0
 73
     0
 74
     0
 75
     1
 40
100.0
 41
540.3409090909091
 76
     3
 10
5095.128689156663
 20
1019.166509516719
 30
0.0
 10
5299.870297716757
 20
592.1279870230977
 30
0.0
 10
5399.870297716756
 20
592.1279870230977
 30
0.0
213
0.0
223
-1.277828345336728
233
0.0
1001
ACAD
1000
DSTYLE
1002
{
1070
   341
1005
0
1002
}
  0
DIMENSION
  5
2952C
330
747D
100
AcDbEntity
  8
寸法
 48
50.0
100
AcDbDimension
  2
*D34
 10
5282.697227890194
 20
431.1400660776926
 30
0.0
 11
5002.697227890193
 21
431.1400660776926
 31
0.0
 70
   160
  1
300
 71
     5
 42
560.0000000000009
  3
INABA_S40G
100
AcDbAlignedDimension
 13
4722.697227890193
 23
730.0921725336256
 33
0.0
 14
5282.697227890194
 24
730.0921725336256
 34
0.0
100
AcDbRotatedDimension
1001
ACAD
1000
DSTYLE
1002
{
1070
   341
1005
0
1002
}
  0
LEADER
  5
2952D
330
747D
100
AcDbEntity
  8
寸法
 48
50.0
100
AcDbLeader
  3
INABA_S40G
 71
     0
 73
     0
 74
     0
 75
     1
 40
100.0
 41
225.0
 76
     3
 10
5162.575918330372
 20
1040.092172533626
 30
0.0
 10
5286.85680264855
 20
920.8458363549107
 30
0.0
 10
5386.85680264855
 20
920.8458363549107
 30
0.0
1001
ACAD
1000
DSTYLE
1002
{
1070
   341
1005
0
1002
}
  0
LINE
  5
2952E
330
747D
100
AcDbEntity
  8
細線
 48
50.0
100
AcDbLine
 10
5135.602242043604
 20
1030.092172533626
 30
0.0
 11
5282.697227890194
 21
1177.187158380209
 31
0.0
  0
LINE
  5
2952F
330
747D
100
AcDbEntity
  8
細線
 48
50.0
100
AcDbLine
 10
5202.95416295163
 20
1030.092172533626
 30
0.0
 11
5282.697227890194
 21
1109.835237472191
 31
0.0
  0
LINE
  5
29530
330
747D
100
AcDbEntity
  8
細線
 48
50.0
100
AcDbLine
 10
5169.278202497624
 20
1030.092172533626
 30
0.0
 11
5282.697227890194
 21
1143.5111979262
 31
0.0
  0
LINE
  5
29531
330
747D
100
AcDbEntity
  8
部品1
 48
50.0
100
AcDbLine
 10
5122.697227890194
 20
1190.092172533625
 30
0.0
 11
5282.697227890194
 21
1190.092172533625
 31
0.0
  0
LINE
  5
29532
330
747D
100
AcDbEntity
  8
部品1
 48
50.0
100
AcDbLine
 10
5032.697227890201
 20
1040.092172533626
 30
0.0
 11
5032.697227890194
 21
1695.410209276433
 31
0.0
  0
LINE
  5
29533
330
747D
100
AcDbEntity
  8
部品1
 48
50.0
100
AcDbLine
 10
5012.697227890202
 20
1040.092172533626
 30
0.0
 11
5012.697227890186
 21
1695.410209276433
 31
0.0
  0
LINE
  5
29534
330
747D
100
AcDbEntity
  8
部品1
 48
50.0
100
AcDbLine
 10
4882.697227890194
 20
1190.092172533625
 30
0.0
 11
4882.697227890194
 21
1870.092172533627
 31
0.0
  0
LINE
  5
29535
330
747D
100
AcDbEntity
  8
細線
 48
50.0
100
AcDbLine
 10
4882.697227890194
 20
1282.326565190349
 30
0.0
 11
5012.697227890202
 21
1412.326565190353
 31
0.0
  0
LINE
  5
29536
330
747D
100
AcDbEntity
  8
細線
 48
50.0
100
AcDbLine
 10
4882.697227890194
 20
1316.002525644359
 30
0.0
 11
5012.697227890194
 21
1446.002525644358
 31
0.0
  0
LINE
  5
29537
330
747D
100
AcDbEntity
  8
細線
 48
50.0
100
AcDbLine
 10
4882.697227890194
 20
1248.65060473634
 30
0.0
 11
5012.697227890202
 21
1378.65060473634
 31
0.0
  0
LINE
  5
29538
330
747D
100
AcDbEntity
  8
部品1
 48
50.0
100
AcDbLine
 10
5122.697227890194
 20
1870.092172533627
 30
0.0
 11
5122.697227890194
 21
1190.092172533625
 31
0.0
  0
MTEXT
  5
29539
102
{ACAD_REACTORS
330
2953A
102
}
330
747D
100
AcDbEntity
  8
寸法
 62
     7
 48
50.0
100
AcDbMText
 10
4509.028445146201
 20
785.688805510581
 30
0.0
 40
100.0
 41
1.0
 71
     6
 72
     1
  1
D10
  7
STYLE2
 73
     1
 44
1.0
1001
ACAD
1000
MTEXTBEGIN
1070
    73
1070
     1
1070
    44
1040
1.0
1070
    74
1070
     0
1000
MTEXTEND
  0
LEADER
  5
2953A
330
747D
100
AcDbEntity
  8
寸法
 48
50.0
100
AcDbLeader
  3
INABA_S40G
 71
     0
 73
     0
 75
     1
 40
100.0
 41
225.0
 76
     3
 10
4842.575918330371
 20
1040.092172533626
 30
0.0
 10
4634.0284451462
 20
710.688805510581
 30
0.0
 10
4534.0284451462
 20
710.688805510581
 30
0.0
1001
ACAD
1000
DSTYLE
1002
{
1070
   341
1005
0
1002
}
  0
LEADER
  5
2953B
330
747D
100
AcDbEntity
  8
寸法
 48
50.0
100
AcDbLeader
  3
INABA_S40G
 71
     0
 73
     0
 75
     1
 40
100.0
 41
222.7272727272727
 76
     3
 10
5002.697227890193
 20
1040.092172533626
 30
0.0
 10
4669.181854592994
 20
485.2936148362767
 30
0.0
 10
4569.181854592994
 20
485.2936148362767
 30
0.0
1001
ACAD
1000
DSTYLE
1002
{
1070
   341
1005
0
1002
}
  0
MTEXT
  5
2953C
102
{ACAD_REACTORS
330
2953B
102
}
330
747D
100
AcDbEntity
  8
寸法
 62
     7
 48
50.0
100
AcDbMText
 10
4544.181854592994
 20
560.2936148362767
 30
0.0
 40
100.0
 41
1.0
 71
     6
 72
     1
  1
D13
  7
STYLE2
 73
     1
 44
1.0
1001
ACAD
1000
MTEXTBEGIN
1070
    73
1070
     1
1070
    44
1040
1.0
1070
    74
1070
     0
1000
MTEXTEND
  0
MTEXT
  5
2953D
102
{ACAD_REACTORS
330
2953E
102
}
330
747D
100
AcDbEntity
  8
寸法
 62
     7
 48
50.0
100
AcDbMText
 10
4771.134660111687
 20
1371.717926055447
 30
0.0
 40
100.0
 41
1.0
 71
     6
 72
     1
  1
\A1;D10@300
  7
STYLE2
 73
     1
 44
1.0
1001
ACAD
1000
MTEXTBEGIN
1070
    73
1070
     1
1070
    44
1040
1.0
1070
    74
1070
     0
1000
MTEXTEND
  0
LEADER
  5
2953E
330
747D
100
AcDbEntity
  8
寸法
 48
50.0
100
AcDbLeader
  3
INABA_S40G
 71
     0
 73
     0
 75
     1
 40
100.0
 41
540.3409090909091
 76
     3
 10
5012.697227890194
 20
1567.75119090503
 30
0.0
 10
4883.969432229322
 20
1290.913280229025
 30
0.0
 10
4783.969432229322
 20
1290.913280229025
 30
0.0
213
-12.16522788236671
223
-5.804645826423211
233
0.0
1001
ACAD
1000
DSTYLE
1002
{
1070
   341
1005
0
1002
}
  0
LEADER
  5
2953F
330
747D
100
AcDbEntity
  8
寸法
 48
50.0
100
AcDbLeader
  3
INABA_S40G
 71
     0
 73
     0
 75
     1
 40
130.1136363636363
 41
651.1363636363636
 76
     3
 10
4982.697227890194
 20
1870.092172533627
 30
0.0
 10
4923.779227971911
 20
2045.680629354361
 30
0.0
 10
4823.779227971911
 20
2045.680629354361
 30
0.0
1001
ACAD
1000
DSTYLE
1002
{
1070
   341
1005
0
1002
}
  0
MTEXT
  5
29540
102
{ACAD_REACTORS
330
2953F
102
}
330
747D
100
AcDbEntity
  8
寸法
 62
     7
 48
50.0
100
AcDbMText
 10
4798.779227971912
 20
2135.737447536181
 30
0.0
 40
100.0
 41
1.0
 71
     6
 72
     1
  1
\A1;金コテ押エ
  7
STYLE2
 73
     1
 44
1.0
1001
ACAD
1000
MTEXTBEGIN
1070
    73
1070
     1
1070
    44
1040
1.0
1070
    74
1070
     0
1000
MTEXTEND
  0
DIMENSION
  5
29541
330
747D
100
AcDbEntity
  8
寸法
 48
50.0
100
AcDbDimension
  2
*D35
 10
4122.05228985413
 20
890.0921725336258
 30
0.0
 11
4122.05228985413
 21
1380.092172533627
 31
0.0
 70
   160
  1
540
 71
     5
 42
980.0000000000013
  3
INABA_S40G
100
AcDbAlignedDimension
 13
4882.697227890194
 23
1870.092172533627
 33
0.0
 14
4622.697227890196
 24
890.0921725336258
 34
0.0
 50
90.0
100
AcDbRotatedDimension
1001
ACAD
1000
DSTYLE
1002
{
1070
   341
1005
0
1002
}
  0
DIMENSION
  5
29542
330
747D
100
AcDbEntity
  8
寸法
 48
50.0
100
AcDbDimension
  2
*D36
 10
4544.671835724619
 20
890.0921725336258
 30
0.0
 11
4544.671835724619
 21
1040.092172533626
 31
0.0
 70
   160
  1
150
 71
     5
 42
299.9999999999993
  3
INABA_S40G
100
AcDbAlignedDimension
 13
4722.697227890193
 23
1190.092172533625
 33
0.0
 14
4622.697227890196
 24
890.0921725336258
 34
0.0
 50
90.0
100
AcDbRotatedDimension
1001
ACAD
1000
DSTYLE
1002
{
1070
   341
1005
0
1002
}
  0
LWPOLYLINE
  5
29543
330
747D
100
AcDbEntity
  8
部品1
 48
50.0
100
AcDbPolyline
 90
        2
 70
     0
 43
10.0
 10
4365.022350598997
 20
1570.092172533628
 10
4882.697227890194
 20
1570.092172533628
  0
TEXT
  5
29544
330
747D
100
AcDbEntity
  8
部品1
 48
50.0
100
AcDbText
 10
4365.022350598997
 20
1584.140912887695
 30
0.0
 40
100.0
  1
▽G.L
  7
STYLE2
100
AcDbText
  0
LEADER
  5
29545
330
747D
100
AcDbEntity
  8
寸法
 48
50.0
100
AcDbLeader
  3
INABA_S40G
 73
     0
 75
     1
 40
132.9545454545455
 41
1116.477272727273
 76
     3
 10
7171.996369361686
 20
1957.042172533627
 30
0.0
 10
7063.966278930513
 20
2415.866640929043
 30
0.0
 10
6963.966278930513
 20
2415.866640929043
 30
0.0
340
29546
1001
ACAD
1000
DSTYLE
1002
{
1070
   341
1005
0
1002
}
  0
MTEXT
  5
29546
102
{ACAD_REACTORS
330
29545
102
}
330
747D
100
AcDbEntity
  8
寸法
 62
     7
 48
50.0
100
AcDbMText
 10
6923.966278930513
 20
2522.343913656315
 30
0.0
 40
100.0
 41
1.0
 71
     6
 72
     1
  1
\A1;アンカープレート L
  7
STYLE2
 73
     1
 44
1.0
1001
ACAD
1000
MTEXTBEGIN
1070
    73
1070
     1
1070
    44
1040
1.0
1070
    74
1070
     0
1000
MTEXTEND
  0
MTEXT
  5
29547
102
{ACAD_REACTORS
330
29548
102
}
330
747D
100
AcDbEntity
  8
部品1
 62
     7
 48
50.0
100
AcDbMText
 10
7534.938833253383
 20
2976.922742348687
 30
0.0
 40
100.0
 41
1.0
 71
     4
 72
     1
  1
\A1;ナット(市販品)
  7
STYLE2
 73
     1
 44
1.0
1001
ACAD
1000
MTEXTBEGIN
1070
    73
1070
     1
1070
    44
1040
1.0
1070
    74
1070
     0
1000
MTEXTEND
  0
LEADER
  5
29548
330
747D
100
AcDbEntity
  8
寸法
 48
50.0
100
AcDbLeader
  3
INABA_S40G
 73
     0
 74
     0
 75
     1
 40
127.8409090909091
 41
850.0
 76
     3
 10
7304.496369361685
 20
2368.686273920055
 30
0.0
 10
7394.938833253383
 20
2873.002287803233
 30
0.0
 10
7494.938833253383
 20
2873.002287803233
 30
0.0
340
29547
1001
ACAD
1000
DSTYLE
1002
{
1070
   341
1005
0
1002
}
  0
MTEXT
  5
29549
102
{ACAD_REACTORS
330
2954A
102
}
330
747D
100
AcDbEntity
  8
部品1
 62
     7
 48
50.0
100
AcDbMText
 10
7574.335857322738
 20
2745.711388892702
 30
0.0
 40
100.0
 41
1.0
 71
     4
 72
     1
  1
\A1;ワッシャー(市販品)
  7
STYLE2
 73
     1
 44
1.0
1001
ACAD
1000
MTEXTBEGIN
1070
    73
1070
     1
1070
    44
1040
1.0
1070
    74
1070
     0
1000
MTEXTEND
  0
LEADER
  5
2954A
330
747D
100
AcDbEntity
  8
寸法
 48
50.0
100
AcDbLeader
  3
INABA_S40G
 73
     0
 74
     0
 75
     1
 40
127.8409090909091
 41
1133.522727272727
 76
     3
 10
7334.496369361686
 20
2206.496283088977
 30
0.0
 10
7434.335857322738
 20
2641.790934347247
 30
0.0
 10
7534.335857322737
 20
2641.790934347247
 30
0.0
340
29549
1001
ACAD
1000
DSTYLE
1002
{
1070
   341
1005
0
1002
}
  0
DIMENSION
  5
2954B
330
747D
100
AcDbEntity
  8
寸法
 48
50.0
100
AcDbDimension
  2
*D37
 10
4882.697227890194
 20
2394.676932429102
 30
0.0
 11
5002.697227890195
 21
2394.676932429102
 31
0.0
 70
   160
  1
120\P(195)
 71
     5
 42
239.9999999999991
  3
INABA_S40G
100
AcDbAlignedDimension
 13
5122.697227890193
 23
1870.092172533627
 33
0.0
 14
4882.697227890194
 24
1870.092172533627
 34
0.0
100
AcDbRotatedDimension
1001
ACAD
1000
DSTYLE
1002
{
1070
   341
1005
0
1002
}
  0
LINE
  5
2954C
330
747D
100
AcDbEntity
  8
部品1
100
AcDbLine
 10
3763.896536338414
 20
3521.306697254682
 30
0.0
 11
3763.896536338414
 21
262.2371978999945
 31
0.0
  0
MTEXT
  5
2954D
102
{ACAD_REACTORS
330
2954E
102
}
330
747D
100
AcDbEntity
  8
寸法
 62
     7
 48
50.0
100
AcDbMText
 10
6890.662521170064
 20
2973.199253540709
 30
0.0
 40
100.0
 41
1.0
 71
     6
 72
     1
  1
\A1;φ70スリーブ
  7
STYLE2
 73
     1
 44
1.0
1001
ACAD
1000
MTEXTBEGIN
1070
    73
1070
     1
1070
    44
1040
1.0
1070
    74
1070
     0
1000
MTEXTEND
  0
LEADER
  5
2954E
330
747D
100
AcDbEntity
  8
寸法
 48
50.0
100
AcDbLeader
  3
INABA_S40G
 73
     0
 75
     1
 40
141.4772727272727
 41
760.7954545454546
 76
     3
 10
7245.417307034248
 20
1806.986764231474
 30
0.0
 10
7030.662521170063
 20
2862.460617177073
 30
0.0
 10
6930.662521170063
 20
2862.460617177073
 30
0.0
340
2954D
1001
ACAD
1000
DSTYLE
1002
{
1070
   341
1005
0
1002
}
  0
LINE
  5
2954F
330
747D
100
AcDbEntity
  8
部品1
100
AcDbLine
 10
10660.37123243644
 20
3521.306697254683
 30
0.0
 11
3763.89653633841
 21
3521.306697254682
 31
0.0
  0
LINE
  5
29550
330
747D
100
AcDbEntity
  8
部品1
100
AcDbLine
 10
10660.37123243644
 20
3221.306697254682
 30
0.0
 11
3763.89653633841
 21
3221.306697254682
 31
0.0
  0
LINE
  5
29551
330
747D
100
AcDbEntity
  8
部品1
100
AcDbLine
 10
3763.89653633841
 20
262.2371978999945
 30
0.0
 11
10660.37123243644
 21
262.2371978999945
 31
0.0
  0
LINE
  5
29552
330
747D
100
AcDbEntity
  8
部品1
100
AcDbLine
 10
9169.860304617303
 20
1295.468527966935
 30
0.0
 11
10069.8603046173
 21
1295.468527966939
 31
0.0
  0
LINE
  5
29553
330
747D
100
AcDbEntity
  8
部品1
100
AcDbLine
 10
9169.860304617303
 20
1455.468527966939
 30
0.0
 11
10069.8603046173
 21
1455.468527966942
 31
0.0
  0
LWPOLYLINE
  5
29554
330
747D
100
AcDbEntity
  8
部品1
 48
50.0
100
AcDbPolyline
 90
        2
 70
     0
 43
15.0
 10
8839.09622699182
 20
1570.092172533627
 10
10340.46160590635
 20
1570.092172533627
  0
LINE
  5
29555
330
747D
100
AcDbEntity
  8
細線
100
AcDbLine
 10
9311.155797741463
 20
1455.468527966939
 30
0.0
 11
9425.779442308154
 21
1570.092172533626
 31
0.0
  0
LINE
  5
29556
330
747D
100
AcDbEntity
  8
部品1
100
AcDbLine
 10
9319.860304617304
 20
1870.092172533627
 30
0.0
 11
9919.860304617303
 21
1870.092172533627
 31
0.0
  0
LINE
  5
29557
330
747D
100
AcDbEntity
  8
細線
100
AcDbLine
 10
9499.512361406493
 20
1570.092172533627
 30
0.0
 11
9319.860304617304
 21
1749.744229322817
 31
0.0
  0
LINE
  5
29558
330
747D
100
AcDbEntity
  8
細線
100
AcDbLine
 10
9563.151971713283
 20
1570.092172533627
 30
0.0
 11
9319.860304617304
 21
1813.383839629605
 31
0.0
  0
HATCH
  5
2968F
330
747D
100
AcDbEntity
  8
細線
 48
50.0
100
AcDbHatch
 10
0.0
 20
0.0
 30
0.0
210
0.0
220
0.0
230
1.0
  2
LINE
 70
     0
 71
     1
 91
        6
 92
        7
 72
     0
 73
     1
 93
        4
 10
6997.099999999997
 20
8397.513207084728
 10
6797.099999999997
 20
8397.513207084728
 10
6797.099999999997
 20
8277.513207084728
 10
6997.099999999997
 20
8277.513207084728
 97
        4
330
261B8
330
2646C
330
26453
330
2646A
 92
        7
 72
     0
 73
     1
 93
        4
 10
5708.6
 20
7177.513207084726
 10
5588.600000000003
 20
7177.513207084729
 10
5588.6
 20
6977.513207084728
 10
5708.6
 20
6977.513207084729
 97
        4
330
2645C
330
261CB
330
2645B
330
261CC
 92
        7
 72
     0
 73
     1
 93
        4
 10
6997.100000000007
 20
5877.513207084734
 10
6797.100000000009
 20
5877.513207084733
 10
6797.100000000007
 20
5682.513207084721
 10
6997.100000000006
 20
5682.513207084721
 97
        4
330
26233
330
26324
330
26231
330
26322
 92
        7
 72
     0
 73
     1
 93
        4
 10
9532.100000000021
 20
5877.513207084742
 10
9332.100000000018
 20
5877.513207084741
 10
9332.100000000016
 20
5757.513207084735
 10
9532.100000000017
 20
5757.513207084737
 97
        4
330
261B4
330
264F4
330
261B3
330
264F5
 92
        7
 72
     0
 73
     1
 93
        4
 10
10858.6
 20
7177.513207084729
 10
10738.6
 20
7177.513207084726
 10
10738.6
 20
6977.513207084726
 10
10858.6
 20
6977.513207084726
 97
        4
330
2651D
330
26481
330
2651C
330
26480
 92
        7
 72
     0
 73
     1
 93
        4
 10
9532.099999999998
 20
8397.513207084726
 10
9332.099999999996
 20
8397.513207084728
 10
9332.099999999996
 20
8277.513207084728
 10
9532.099999999998
 20
8277.513207084727
 97
        4
330
261B8
330
2650A
330
261AF
330
26509
 75
     0
 76
     1
 52
45.0
 41
10.0
 77
     0
 78
     1
 53
45.0
 43
0.0
 44
0.0
 45
-22.45064030267288
 46
22.45064030267288
 79
     0
 47
7.100417612169596
 98
        6
 10
6980.738177379746
 20
8294.373837280902
 10
5645.285339825043
 20
7066.001576357135
 10
6895.496495955502
 20
5780.825981386442
 10
9459.850112140884
 20
5802.127254819605
 10
10766.8890558875
 20
7030.499478678466
 10
9388.815349049815
 20
8308.574661526407
  0
ENDSEC
  0
SECTION
  2
OBJECTS
  0
DICTIONARY
  5
7471
330
0
100
AcDbDictionary
281
     1
  3
ACAD_COLOR
350
173D2
  3
ACAD_GROUP
350
7472
  3
ACAD_LAYOUT
350
173D3
  3
ACAD_MATERIAL
350
173D1
  3
ACAD_MLINESTYLE
350
7473
  3
ACAD_PLOTSETTINGS
350
173D4
  3
ACAD_PLOTSTYLENAME
350
173CF
  3
ACDBHEADERROUNDTRIPXREC
350
2984B
  3
AcDbVariableDictionary
350
2969B
  3
CONTENTDICTIONARY
350
E71C
  3
DRAWINGVARIABLESDICT
350
F3B9
  0
DICTIONARY
  5
1758F
330
7467
100
AcDbDictionary
280
     1
281
     1
  3
ACAD_LAYERSTATES
360
17590
  0
DICTIONARY
  5
173D2
102
{ACAD_REACTORS
330
7471
102
}
330
7471
100
AcDbDictionary
281
     1
  0
DICTIONARY
  5
7472
102
{ACAD_REACTORS
330
7471
102
}
330
7471
100
AcDbDictionary
281
     1
  3
*A1
350
1D2A9
  0
DICTIONARY
  5
173D3
102
{ACAD_REACTORS
330
7471
102
}
330
7471
100
AcDbDictionary
281
     1
  3
Model
350
173D5
  3
レイアウト1
350
173D6
  0
DICTIONARY
  5
173D1
102
{ACAD_REACTORS
330
7471
102
}
330
7471
100
AcDbDictionary
281
     1
  0
DICTIONARY
  5
7473
102
{ACAD_REACTORS
330
7471
102
}
330
7471
100
AcDbDictionary
281
     1
  3
STANDARD
350
7480
  0
DICTIONARY
  5
173D4
102
{ACAD_REACTORS
330
7471
102
}
330
7471
100
AcDbDictionary
281
     1
  0
ACDBDICTIONARYWDFLT
  5
173CF
102
{ACAD_REACTORS
330
7471
102
}
330
7471
100
AcDbDictionary
281
     1
  3
Normal
350
173D0
100
AcDbDictionaryWithDefault
340
173D0
  0
DICTIONARY
  5
2984B
102
{ACAD_REACTORS
330
7471
102
}
330
7471
100
AcDbDictionary
281
     1
  3
COLORDICT
350
2984D
  3
MATERIALDICT
350
2984C
  0
DICTIONARY
  5
2969B
102
{ACAD_REACTORS
330
7471
102
}
330
7471
100
AcDbDictionary
281
     1
  3
DIMASSOC
350
2969C
  3
PROJECTNAME
350
2969D
  0
DICTIONARY
  5
E71C
102
{ACAD_REACTORS
330
7471
102
}
330
7471
100
AcDbDictionary
281
     1
  0
DICTIONARY
  5
F3B9
102
{ACAD_REACTORS
330
7471
102
}
330
7471
100
AcDbDictionary
281
     1
1001
DRAWINGVARIABLESXDATA
1000
POLARMODE
1000
1
  0
DICTIONARY
  5
17590
102
{ACAD_REACTORS
330
1758F
102
}
330
1758F
100
AcDbDictionary
281
     1
  0
GROUP
  5
1D2A9
102
{ACAD_REACTORS
330
7472
102
}
330
7472
100
AcDbGroup
300

 70
     1
 71
     1
  0
LAYOUT
  5
173D5
102
{ACAD_XDICTIONARY
360
2984E
102
}
102
{ACAD_REACTORS
330
173D3
102
}
330
173D3
100
AcDbPlotSettings
  1

  2
クセロPDF
  4
A3
  6

 40
3.174999999999999
 41
3.174999999999999
 42
3.174987999999999
 43
3.174987999999999
 44
419.946655
 45
296.925995
 46
0.0
 47
0.0
 48
0.0
 49
0.0
140
0.0
141
0.0
142
1.0
143
40.88431155294937
 70
 11952
 72
     1
 73
     0
 74
     2
  7
inaba.ctb
 75
     0
147
0.0244592598484849
148
0.0
149
0.0
100
AcDbLayout
  1
Model
 70
     1
 71
     0
 10
0.0
 20
0.0
 11
12.0
 21
9.0
 12
0.0
 22
0.0
 32
0.0
 14
0.0
 24
0.0
 34
0.0
 15
0.0
 25
0.0
 35
0.0
146
0.0
 13
0.0
 23
0.0
 33
0.0
 16
1.0
 26
0.0
 36
0.0
 17
0.0
 27
1.0
 37
0.0
 76
     0
330
747D
  0
LAYOUT
  5
173D6
102
{ACAD_XDICTIONARY
360
29850
102
}
102
{ACAD_REACTORS
330
173D3
102
}
330
173D3
100
AcDbPlotSettings
  1

  2
Microsoft Office Document Image Writer
  4

  6

 40
0.0
 41
0.0
 42
0.0
 43
0.0
 44
0.0
 45
0.0
 46
0.0
 47
0.0
 48
0.0
 49
0.0
140
0.0
141
0.0
142
1.0
143
1.0
 70
   688
 72
     0
 73
     0
 74
     5
  7

 75
    16
147
1.0
148
0.0
149
0.0
100
AcDbLayout
  1
レイアウト1
 70
     0
 71
     1
 10
0.0
 20
0.0
 11
420.0
 21
297.0
 12
0.0
 22
0.0
 32
0.0
 14
1.000000000000000E+20
 24
1.000000000000000E+20
 34
1.000000000000000E+20
 15
-1.000000000000000E+20
 25
-1.000000000000000E+20
 35
-1.000000000000000E+20
146
0.0
 13
0.0
 23
0.0
 33
0.0
 16
1.0
 26
0.0
 36
0.0
 17
0.0
 27
1.0
 37
0.0
 76
     0
330
747A
  0
MLINESTYLE
  5
7480
102
{ACAD_REACTORS
330
7473
102
}
330
7473
100
AcDbMlineStyle
  2
STANDARD
 70
     0
  3

 62
     0
 51
90.0
 52
90.0
 71
     2
 49
0.5
 62
   256
  6
BYLAYER
 49
-0.5
 62
   256
  6
BYLAYER
  0
ACDBPLACEHOLDER
  5
173D0
102
{ACAD_REACTORS
330
173CF
102
}
330
173CF
  0
XRECORD
  5
2984D
102
{ACAD_REACTORS
330
2984B
102
}
330
2984B
100
AcDbXrecord
280
     1
340
173D2
  0
XRECORD
  5
2984C
102
{ACAD_REACTORS
330
2984B
102
}
330
2984B
100
AcDbXrecord
280
     1
340
173D1
  0
DICTIONARYVAR
  5
2969C
102
{ACAD_REACTORS
330
2969B
102
}
330
2969B
100
DictionaryVariables
280
     0
  1
1
  0
DICTIONARYVAR
  5
2969D
102
{ACAD_REACTORS
330
2969B
102
}
330
2969B
100
DictionaryVariables
280
     0
  1

  0
DICTIONARY
  5
2984E
330
173D5
100
AcDbDictionary
280
     1
281
     1
  3
ACAD_XREC_ROUNDTRIP
360
2984F
  0
DICTIONARY
  5
29850
330
173D6
100
AcDbDictionary
280
     1
281
     1
  3
ACAD_XREC_ROUNDTRIP
360
29851
  0
XRECORD
  5
2984F
102
{ACAD_REACTORS
330
2984E
102
}
330
2984E
100
AcDbXrecord
280
     1
102
SHADEPLOT
 70
     1
102
SHADEPLOTRESLEVEL
 70
     2
102
SHADEPLOTCUSTOMDPI
 70
   300
  0
XRECORD
  5
29851
102
{ACAD_REACTORS
330
29850
102
}
330
29850
100
AcDbXrecord
280
     1
102
SHADEPLOT
 70
     0
102
SHADEPLOTRESLEVEL
 70
     2
102
SHADEPLOTCUSTOMDPI
 70
   300
  0
ENDSEC
  0
EOF
