  0
SECTION
  2
HEADER
  9
$ACADVER
  1
AC1015
  9
$ACADMAINTVER
 70
    20
  9
$DWGCODEPAGE
  3
ANSI_932
  9
$INSBASE
 10
0.0
 20
0.0
 30
0.0
  9
$EXTMIN
 10
138.7576680119819
 20
-0.8753733669473149
 30
-0.000000000000013
  9
$EXTMAX
 10
16309.63789403094
 20
11409.65024325627
 30
0.0000000000000023
  9
$LIMMIN
 10
-27.08462732551562
 20
-160.8668443177158
  9
$LIMMAX
 10
16490.60250669627
 20
11515.30158149674
  9
$ORTHOMODE
 70
     0
  9
$REGENMODE
 70
     1
  9
$FILLMODE
 70
     1
  9
$QTEXTMODE
 70
     0
  9
$MIRRTEXT
 70
     1
  9
$LTSCALE
 40
20.0
  9
$ATTMODE
 70
     1
  9
$TEXTSIZE
 40
4.0
  9
$TRACEWID
 40
1.0
  9
$TEXTSTYLE
  7
STYLE1
  9
$CLAYER
  8
寸法
  9
$CELTYPE
  6
BYLAYER
  9
$CECOLOR
 62
   256
  9
$CELTSCALE
 40
50.0
  9
$DISPSILH
 70
     0
  9
$DIMSCALE
 40
40.0
  9
$DIMASZ
 40
2.5
  9
$DIMEXO
 40
0.5
  9
$DIMDLI
 40
7.0
  9
$DIMRND
 40
0.0
  9
$DIMDLE
 40
0.0
  9
$DIMEXE
 40
1.5
  9
$DIMTP
 40
0.0
  9
$DIMTM
 40
0.0
  9
$DIMTXT
 40
3.0
  9
$DIMCEN
 40
0.0
  9
$DIMTSZ
 40
0.0
  9
$DIMTOL
 70
     0
  9
$DIMLIM
 70
     0
  9
$DIMTIH
 70
     0
  9
$DIMTOH
 70
     0
  9
$DIMSE1
 70
     0
  9
$DIMSE2
 70
     0
  9
$DIMTAD
 70
     3
  9
$DIMZIN
 70
     8
  9
$DIMBLK
  1

  9
$DIMASO
 70
     1
  9
$DIMSHO
 70
     1
  9
$DIMPOST
  1

  9
$DIMAPOST
  1

  9
$DIMALT
 70
     0
  9
$DIMALTD
 70
     2
  9
$DIMALTF
 40
0.0394
  9
$DIMLFAC
 40
1.0
  9
$DIMTOFL
 70
     1
  9
$DIMTVP
 40
0.0
  9
$DIMTIX
 70
     1
  9
$DIMSOXD
 70
     0
  9
$DIMSAH
 70
     1
  9
$DIMBLK1
  1
DOTSMALL
  9
$DIMBLK2
  1
DOTSMALL
  9
$DIMSTYLE
  2
INABA_S40G
  9
$DIMCLRD
 70
     0
  9
$DIMCLRE
 70
     0
  9
$DIMCLRT
 70
     7
  9
$DIMTFAC
 40
1.0
  9
$DIMGAP
 40
1.0
  9
$DIMJUST
 70
     0
  9
$DIMSD1
 70
     0
  9
$DIMSD2
 70
     0
  9
$DIMTOLJ
 70
     1
  9
$DIMTZIN
 70
     0
  9
$DIMALTZ
 70
     0
  9
$DIMALTTZ
 70
     0
  9
$DIMUPT
 70
     0
  9
$DIMDEC
 70
     1
  9
$DIMTDEC
 70
     4
  9
$DIMALTU
 70
     2
  9
$DIMALTTD
 70
     2
  9
$DIMTXSTY
  7
STYLE1
  9
$DIMAUNIT
 70
     0
  9
$DIMADEC
 70
     0
  9
$DIMALTRND
 40
0.0
  9
$DIMAZIN
 70
     0
  9
$DIMDSEP
 70
    46
  9
$DIMATFIT
 70
     3
  9
$DIMFRAC
 70
     0
  9
$DIMLDRBLK
  1

  9
$DIMLUNIT
 70
     2
  9
$DIMLWD
 70
    -2
  9
$DIMLWE
 70
    -2
  9
$DIMTMOVE
 70
     0
  9
$LUNITS
 70
     2
  9
$LUPREC
 70
     1
  9
$SKETCHINC
 40
1.0
  9
$FILLETRAD
 40
3.0
  9
$AUNITS
 70
     0
  9
$AUPREC
 70
     0
  9
$MENU
  1
acad
  9
$ELEVATION
 40
0.0
  9
$PELEVATION
 40
0.0
  9
$THICKNESS
 40
0.0
  9
$LIMCHECK
 70
     0
  9
$CHAMFERA
 40
0.0
  9
$CHAMFERB
 40
0.0
  9
$CHAMFERC
 40
0.0
  9
$CHAMFERD
 40
0.0
  9
$SKPOLY
 70
     0
  9
$TDCREATE
 40
2451368.612993866
  9
$TDUCREATE
 40
2451368.237993866
  9
$TDUPDATE
 40
2455855.408779595
  9
$TDUUPDATE
 40
2455855.033779595
  9
$TDINDWG
 40
0.7846763310
  9
$TDUSRTIMER
 40
0.7846763310
  9
$USRTIMER
 70
     1
  9
$ANGBASE
 50
0.0
  9
$ANGDIR
 70
     0
  9
$PDMODE
 70
     3
  9
$PDSIZE
 40
2.0
  9
$PLINEWID
 40
0.0
  9
$SPLFRAME
 70
     0
  9
$SPLINETYPE
 70
     6
  9
$SPLINESEGS
 70
     8
  9
$HANDSEED
  5
222EC
  9
$SURFTAB1
 70
     6
  9
$SURFTAB2
 70
     6
  9
$SURFTYPE
 70
     6
  9
$SURFU
 70
     6
  9
$SURFV
 70
     6
  9
$UCSBASE
  2

  9
$UCSNAME
  2

  9
$UCSORG
 10
0.0
 20
0.0
 30
0.0
  9
$UCSXDIR
 10
1.0
 20
0.0
 30
0.0
  9
$UCSYDIR
 10
0.0
 20
1.0
 30
0.0
  9
$UCSORTHOREF
  2

  9
$UCSORTHOVIEW
 70
     0
  9
$UCSORGTOP
 10
0.0
 20
0.0
 30
0.0
  9
$UCSORGBOTTOM
 10
0.0
 20
0.0
 30
0.0
  9
$UCSORGLEFT
 10
0.0
 20
0.0
 30
0.0
  9
$UCSORGRIGHT
 10
0.0
 20
0.0
 30
0.0
  9
$UCSORGFRONT
 10
0.0
 20
0.0
 30
0.0
  9
$UCSORGBACK
 10
0.0
 20
0.0
 30
0.0
  9
$PUCSBASE
  2

  9
$PUCSNAME
  2

  9
$PUCSORG
 10
0.0
 20
0.0
 30
0.0
  9
$PUCSXDIR
 10
1.0
 20
0.0
 30
0.0
  9
$PUCSYDIR
 10
0.0
 20
1.0
 30
0.0
  9
$PUCSORTHOREF
  2

  9
$PUCSORTHOVIEW
 70
     0
  9
$PUCSORGTOP
 10
0.0
 20
0.0
 30
0.0
  9
$PUCSORGBOTTOM
 10
0.0
 20
0.0
 30
0.0
  9
$PUCSORGLEFT
 10
0.0
 20
0.0
 30
0.0
  9
$PUCSORGRIGHT
 10
0.0
 20
0.0
 30
0.0
  9
$PUCSORGFRONT
 10
0.0
 20
0.0
 30
0.0
  9
$PUCSORGBACK
 10
0.0
 20
0.0
 30
0.0
  9
$USERI1
 70
     0
  9
$USERI2
 70
     0
  9
$USERI3
 70
     0
  9
$USERI4
 70
     0
  9
$USERI5
 70
     0
  9
$USERR1
 40
0.0
  9
$USERR2
 40
0.0
  9
$USERR3
 40
0.0
  9
$USERR4
 40
0.0
  9
$USERR5
 40
0.0
  9
$WORLDVIEW
 70
     1
  9
$SHADEDGE
 70
     3
  9
$SHADEDIF
 70
    70
  9
$TILEMODE
 70
     1
  9
$MAXACTVP
 70
    16
  9
$PINSBASE
 10
0.0
 20
0.0
 30
0.0
  9
$PLIMCHECK
 70
     0
  9
$PEXTMIN
 10
1.000000000000000E+20
 20
1.000000000000000E+20
 30
1.000000000000000E+20
  9
$PEXTMAX
 10
-1.000000000000000E+20
 20
-1.000000000000000E+20
 30
-1.000000000000000E+20
  9
$PLIMMIN
 10
0.0
 20
0.0
  9
$PLIMMAX
 10
420.0
 20
297.0
  9
$UNITMODE
 70
     0
  9
$VISRETAIN
 70
     0
  9
$PLINEGEN
 70
     0
  9
$PSLTSCALE
 70
     0
  9
$TREEDEPTH
 70
  3020
  9
$CMLSTYLE
  2
STANDARD
  9
$CMLJUST
 70
     0
  9
$CMLSCALE
 40
1.0
  9
$PROXYGRAPHICS
 70
     1
  9
$MEASUREMENT
 70
     1
  9
$CELWEIGHT
370
    -1
  9
$ENDCAPS
280
     0
  9
$JOINSTYLE
280
     0
  9
$LWDISPLAY
290
     0
  9
$INSUNITS
 70
     0
  9
$HYPERLINKBASE
  1

  9
$STYLESHEET
  1
inaba.ctb
  9
$XEDIT
290
     1
  9
$CEPSNTYPE
380
     0
  9
$PSTYLEMODE
290
     1
  9
$FINGERPRINTGUID
  2
{5EAC461A-2277-4BF8-9AB0-99C43BB394F0}
  9
$VERSIONGUID
  2
{C2DC12AE-F73F-49D8-BD0F-6600FF2FCDD0}
  9
$EXTNAMES
290
     1
  9
$PSVPSCALE
 40
0.0
  9
$OLESTARTUP
290
     0
  0
ENDSEC
  0
SECTION
  2
CLASSES
  0
CLASS
  1
ACDBDICTIONARYWDFLT
  2
AcDbDictionaryWithDefault
  3
ObjectDBX Classes
 90
        0
280
     0
281
     0
  0
CLASS
  1
DICTIONARYVAR
  2
AcDbDictionaryVar
  3
ObjectDBX Classes
 90
        0
280
     0
281
     0
  0
CLASS
  1
ACDBPLACEHOLDER
  2
AcDbPlaceHolder
  3
ObjectDBX Classes
 90
        0
280
     0
281
     0
  0
CLASS
  1
LAYOUT
  2
AcDbLayout
  3
ObjectDBX Classes
 90
        0
280
     0
281
     0
  0
ENDSEC
  0
SECTION
  2
TABLES
  0
TABLE
  2
VPORT
  5
746D
330
0
100
AcDbSymbolTable
 70
     3
  0
VPORT
  5
222E4
330
746D
100
AcDbSymbolTableRecord
100
AcDbViewportTableRecord
  2
*Active
 70
     0
 10
0.0
 20
0.0
 11
1.0
 21
1.0
 12
8224.197781021461
 22
5704.387434944665
 13
0.0
 23
0.0
 14
10.0
 24
10.0
 15
10.0
 25
10.0
 16
0.0
 26
0.0
 36
1.0
 17
0.0
 27
0.0
 37
0.0
 40
11494.9438086081
 41
1.522222222222221
 42
50.0
 43
0.0
 44
0.0
 50
0.0
 51
0.0
 71
     0
 72
     0
 73
     1
 74
     0
 75
     0
 76
     0
 77
     0
 78
     0
281
     0
 65
     1
110
0.0
120
0.0
130
0.0
111
1.0
121
0.0
131
0.0
112
0.0
122
1.0
132
0.0
 79
     0
146
0.0
  0
ENDTAB
  0
TABLE
  2
LTYPE
  5
746A
330
0
100
AcDbSymbolTable
 70
     5
  0
LTYPE
  5
7477
330
746A
100
AcDbSymbolTableRecord
100
AcDbLinetypeTableRecord
  2
BYBLOCK
 70
     0
  3

 72
    65
 73
     0
 40
0.0
  0
LTYPE
  5
7478
330
746A
100
AcDbSymbolTableRecord
100
AcDbLinetypeTableRecord
  2
BYLAYER
 70
     0
  3

 72
    65
 73
     0
 40
0.0
  0
LTYPE
  5
7479
330
746A
100
AcDbSymbolTableRecord
100
AcDbLinetypeTableRecord
  2
CONTINUOUS
 70
     0
  3
Solid line
 72
    65
 73
     0
 40
0.0
  0
LTYPE
  5
7816
330
746A
100
AcDbSymbolTableRecord
100
AcDbLinetypeTableRecord
  2
CENTER
 70
     0
  3
____ _ ____ _ ____ _ ____ _ ____ _ ____ _ ____ 
 72
    65
 73
     4
 40
2.0
 49
1.25
 74
     0
 49
-0.25
 74
     0
 49
0.25
 74
     0
 49
-0.25
 74
     0
  0
LTYPE
  5
781A
330
746A
100
AcDbSymbolTableRecord
100
AcDbLinetypeTableRecord
  2
HIDDEN
 70
     0
  3
__ __ __ __ __ __ __ __ __ __ __ __ __ __ __ __
 72
    65
 73
     2
 40
0.375
 49
0.25
 74
     0
 49
-0.125
 74
     0
  0
LTYPE
  5
781B
330
746A
100
AcDbSymbolTableRecord
100
AcDbLinetypeTableRecord
  2
PHANTOM
 70
     0
  3
______  __  __  ______  __  __  ______  __  __ 
 72
    65
 73
     6
 40
2.5
 49
1.25
 74
     0
 49
-0.25
 74
     0
 49
0.25
 74
     0
 49
-0.25
 74
     0
 49
0.25
 74
     0
 49
-0.25
 74
     0
  0
LTYPE
  5
12CC3
330
746A
100
AcDbSymbolTableRecord
100
AcDbLinetypeTableRecord
  2
HIDDENX2
 70
     0
  3
Hidden (2x) ____ ____ ____ ____ ____ ____ ____
 72
    65
 73
     2
 40
19.05
 49
12.7
 74
     0
 49
-6.349999999999999
 74
     0
  0
ENDTAB
  0
TABLE
  2
LAYER
  5
7467
102
{ACAD_XDICTIONARY
360
1758F
102
}
330
0
100
AcDbSymbolTable
 70
    12
  0
LAYER
  5
7474
330
7467
100
AcDbSymbolTableRecord
100
AcDbLayerTableRecord
  2
0
 70
     0
 62
     7
  6
CONTINUOUS
370
    -3
390
173D0
  0
LAYER
  5
DEB2
330
7467
100
AcDbSymbolTableRecord
100
AcDbLayerTableRecord
  2
センター
 70
     0
 62
     3
  6
CENTER
370
    -3
390
173D0
  0
LAYER
  5
DEB3
330
7467
100
AcDbSymbolTableRecord
100
AcDbLayerTableRecord
  2
寸法
 70
     0
 62
     4
  6
CONTINUOUS
370
    -3
390
173D0
  0
LAYER
  5
DEB4
330
7467
100
AcDbSymbolTableRecord
100
AcDbLayerTableRecord
  2
部品1
 70
     0
 62
     7
  6
CONTINUOUS
370
    -3
390
173D0
  0
LAYER
  5
DEB5
330
7467
100
AcDbSymbolTableRecord
100
AcDbLayerTableRecord
  2
補助
 70
     0
 62
    -1
  6
CONTINUOUS
370
    -3
390
173D0
  0
LAYER
  5
DEB6
330
7467
100
AcDbSymbolTableRecord
100
AcDbLayerTableRecord
  2
文字
 70
     0
 62
     7
  6
CONTINUOUS
370
    -3
390
173D0
  0
LAYER
  5
F255
330
7467
100
AcDbSymbolTableRecord
100
AcDbLayerTableRecord
  2
DEFPOINTS
 70
     0
 62
     7
  6
CONTINUOUS
290
     0
370
    -3
390
173D0
  0
LAYER
  5
10B54
330
7467
100
AcDbSymbolTableRecord
100
AcDbLayerTableRecord
  2
仕様書枠
 70
     0
 62
   230
  6
CONTINUOUS
370
    -3
390
173D0
  0
LAYER
  5
11729
330
7467
100
AcDbSymbolTableRecord
100
AcDbLayerTableRecord
  2
Ｇ．Ｌ
 70
     0
 62
    30
  6
CONTINUOUS
370
    -3
390
173D0
  0
LAYER
  5
1173F
330
7467
100
AcDbSymbolTableRecord
100
AcDbLayerTableRecord
  2
細線
 70
     0
 62
     5
  6
CONTINUOUS
370
    -3
390
173D0
  0
LAYER
  5
12CC4
330
7467
100
AcDbSymbolTableRecord
100
AcDbLayerTableRecord
  2
想像線
 70
     0
 62
     6
  6
PHANTOM
370
    -3
390
173D0
  0
LAYER
  5
142E2
330
7467
100
AcDbSymbolTableRecord
100
AcDbLayerTableRecord
  2
破線
 70
     0
 62
     2
  6
HIDDEN
370
    -3
390
173D0
  0
ENDTAB
  0
TABLE
  2
STYLE
  5
7468
330
0
100
AcDbSymbolTable
 70
     7
  0
STYLE
  5
7475
330
7468
100
AcDbSymbolTableRecord
100
AcDbTextStyleTableRecord
  2
STANDARD
 70
     0
 40
0.0
 41
1.0
 50
0.0
 71
     0
 42
4.0
  3
txt
  4
C:\AutoCAD LT\bigfont.shx
  0
STYLE
  5
763C
330
7468
100
AcDbSymbolTableRecord
100
AcDbTextStyleTableRecord
  2
MSMINCHO
 70
     0
 40
0.0
 41
1.0
 50
0.0
 71
     0
 42
1.199999999999999
  3
C:\AutoCAD LT\msminch2.TTF
  4

  0
STYLE
  5
F706
330
7468
100
AcDbSymbolTableRecord
100
AcDbTextStyleTableRecord
  2
STYLE1
 70
     0
 40
0.0
 41
1.0
 50
0.0
 71
     0
 42
4.0
  3
isocp.shx
  4
bigfont.shx
  0
STYLE
  5
103BF
330
7468
100
AcDbSymbolTableRecord
100
AcDbTextStyleTableRecord
  2
STYLE2
 70
     0
 40
0.0
 41
1.0
 50
0.0
 71
     0
 42
100.0
  3
MS PGothic.ttf
  4

1001
ACAD
1000
MS PGothic
1071
    32818
  0
STYLE
  5
10BAA
330
7468
100
AcDbSymbolTableRecord
100
AcDbTextStyleTableRecord
  2
STYLE3
 70
     0
 40
0.0
 41
1.0
 50
0.0
 71
     0
 42
100.0
  3
DFPGothic-EB.ttf
  4

1001
ACAD
1000
DFPGothic-EB
1071
    32818
  0
STYLE
  5
11A15
330
7468
100
AcDbSymbolTableRecord
100
AcDbTextStyleTableRecord
  2
MSGOTHIC
 70
     0
 40
0.0
 41
1.0
 50
0.0
 71
     0
 42
3.5
  3
msgothi2.ttf
  4

  0
STYLE
  5
13E96
330
7468
100
AcDbSymbolTableRecord
100
AcDbTextStyleTableRecord
  2
MSPゴシック
 70
     0
 40
0.0
 41
1.0
 50
0.0
 71
     0
 42
4.0
  3
MS PGothic.ttf
  4

1001
ACAD
1000
MS PGothic
1071
    32818
  0
ENDTAB
  0
TABLE
  2
VIEW
  5
746B
330
0
100
AcDbSymbolTable
 70
     0
  0
ENDTAB
  0
TABLE
  2
UCS
  5
746C
330
0
100
AcDbSymbolTable
 70
     0
  0
ENDTAB
  0
TABLE
  2
APPID
  5
746E
330
0
100
AcDbSymbolTable
 70
     6
  0
APPID
  5
7476
330
746E
100
AcDbSymbolTableRecord
100
AcDbRegAppTableRecord
  2
ACAD
 70
     0
  0
APPID
  5
DEA9
330
746E
100
AcDbSymbolTableRecord
100
AcDbRegAppTableRecord
  2
CONTENTBLOCKICON
 70
     0
  0
APPID
  5
DEAA
330
746E
100
AcDbSymbolTableRecord
100
AcDbRegAppTableRecord
  2
CONTENTBLOCKDESCRIPTION
 70
     0
  0
APPID
  5
E71D
330
746E
100
AcDbSymbolTableRecord
100
AcDbRegAppTableRecord
  2
CONTENTTABDATA
 70
     0
  0
APPID
  5
E71E
330
746E
100
AcDbSymbolTableRecord
100
AcDbRegAppTableRecord
  2
CONTENTCURRENTTAB
 70
     0
  0
APPID
  5
F3BA
330
746E
100
AcDbSymbolTableRecord
100
AcDbRegAppTableRecord
  2
DRAWINGVARIABLESXDATA
 70
     0
  0
ENDTAB
  0
TABLE
  2
DIMSTYLE
  5
746F
330
0
100
AcDbSymbolTable
 70
     7
100
AcDbDimStyleTable
 71
     1
340
F71F
  0
DIMSTYLE
105
7484
330
746F
100
AcDbSymbolTableRecord
100
AcDbDimStyleTableRecord
  2
JIS
 70
     0
 41
2.5
 42
1.0
 43
7.0
 44
1.0
 73
     0
 74
     0
 77
     1
 78
     8
140
2.5
141
0.0
143
0.0394
147
0.0
172
     1
174
     1
175
     1
340
7475
  0
DIMSTYLE
105
F236
330
746F
100
AcDbSymbolTableRecord
100
AcDbDimStyleTableRecord
  2
INABA_S40
 70
     0
 40
40.0
 41
2.5
 42
0.5
 43
7.0
 44
1.5
 73
     0
 74
     0
 77
     3
 78
     8
140
3.0
141
0.0
143
0.0394
147
1.0
172
     1
173
     1
174
     1
175
     1
178
     7
289
     0
340
7475
341
DEAC
343
DEAC
344
DEAC
  0
DIMSTYLE
105
F71F
102
{ACAD_REACTORS
330
20674
330
20673
330
2045D
330
20450
330
2044F
330
2044B
330
20449
330
20447
330
20446
330
20443
330
203C2
330
203C1
330
20448
330
203DD
330
203D5
330
203D4
330
203CA
330
203C7
330
203C9
330
203C3
330
203C4
330
203C5
330
203BA
330
203F0
330
203E1
330
203D1
330
203BB
330
203F7
330
203F5
330
20465
330
2045E
330
21BFC
330
21BFD
102
}
330
746F
100
AcDbSymbolTableRecord
100
AcDbDimStyleTableRecord
  2
INABA_S40G
 70
     0
 40
40.0
 41
2.5
 42
0.5
 43
7.0
 44
1.5
 73
     0
 74
     0
 77
     3
 78
     8
140
3.0
141
0.0
143
0.0394
147
1.0
172
     1
173
     1
174
     1
178
     7
271
     1
340
F706
341
F770
343
F770
344
F770
  0
DIMSTYLE
105
142E3
330
746F
100
AcDbSymbolTableRecord
100
AcDbDimStyleTableRecord
  2
INABA_S1
 70
     0
 40
0.0
 41
2.5
 42
0.5
 43
7.0
 44
1.5
 73
     0
 74
     0
 77
     3
 78
     8
140
3.0
141
0.0
143
0.0394
146
0.5
147
0.5
172
     1
173
     1
176
   256
177
   256
178
     7
271
     2
272
     2
284
     8
288
     1
340
7475
341
DEAC
343
DEAC
344
DEAC
  0
DIMSTYLE
105
14463
330
746F
100
AcDbSymbolTableRecord
100
AcDbDimStyleTableRecord
  2
INABA_S30G
 70
     0
 40
30.0
 41
2.5
 42
0.5
 43
7.0
 44
1.5
 73
     0
 74
     0
 77
     3
 78
     8
140
3.0
141
0.0
143
0.0394
147
1.0
172
     1
173
     1
174
     1
175
     1
178
     7
271
     1
340
F706
341
F770
343
F770
344
F770
  0
DIMSTYLE
105
1758E
330
746F
100
AcDbSymbolTableRecord
100
AcDbDimStyleTableRecord
  2
INABA_S50G
 70
     0
 41
125.0
 42
25.0
 43
7.0
 44
75.0
 73
     0
 74
     0
 77
     3
 78
     8
140
150.0
141
0.0
143
0.0394
147
25.0
172
     1
173
     1
174
     1
175
     1
178
     7
271
     1
340
F706
341
F770
343
F770
344
F770
  0
DIMSTYLE
105
2199C
102
{ACAD_REACTORS
330
21B08
330
21B0F
330
21B10
330
21B21
102
}
330
746F
100
AcDbSymbolTableRecord
100
AcDbDimStyleTableRecord
  2
INABA_S50GUP
 70
     0
 41
125.0
 42
25.0
 43
7.0
 44
75.0
 73
     0
 74
     0
 77
     3
 78
     8
140
150.0
141
0.0
143
0.0394
147
25.0
172
     1
173
     1
174
     1
178
     7
271
     1
340
F706
341
F770
343
F770
344
F770
  0
ENDTAB
  0
TABLE
  2
BLOCK_RECORD
  5
7466
330
0
100
AcDbSymbolTable
 70
    71
  0
BLOCK_RECORD
  5
747D
330
7466
100
AcDbSymbolTableRecord
100
AcDbBlockTableRecord
  2
*MODEL_SPACE
340
173D5
  0
BLOCK_RECORD
  5
747A
330
7466
100
AcDbSymbolTableRecord
100
AcDbBlockTableRecord
  2
*PAPER_SPACE
340
173D6
  0
BLOCK_RECORD
  5
DEAC
330
7466
100
AcDbSymbolTableRecord
100
AcDbBlockTableRecord
  2
_OPEN
340
0
  0
BLOCK_RECORD
  5
F770
330
7466
100
AcDbSymbolTableRecord
100
AcDbBlockTableRecord
  2
_DOTSMALL
340
0
102
{BLKREFS
331
18C65
331
18C66
331
18C59
331
18C5A
331
18C4D
331
18C4E
331
18C41
331
18C42
331
18C35
331
18C36
331
18C29
331
18C2A
331
18C1D
331
18C1E
331
18C0F
331
18C10
331
18C03
331
18C04
331
18BF5
331
18BF6
331
18BE7
331
18BE8
331
18BD9
331
18BDA
331
18BCD
331
18BCE
331
20E9C
331
20E9D
331
20EA6
331
20EA7
331
20EBC
331
20EBD
331
20EC5
331
20EC6
331
20ED9
331
20EDA
331
20EE3
331
20EE4
331
20EEE
331
20EEF
331
20EF7
331
20EF8
331
20F00
331
20F01
331
20F09
331
20F0A
331
20F14
331
20F15
331
20F28
331
20F29
331
20F33
331
20F34
331
20F3C
331
20F3D
331
20F45
331
20F46
331
20F62
331
20F63
331
20F7D
331
20F7E
331
20F86
331
20F87
331
20F8F
331
20F90
331
20FB6
331
20FB7
331
20FD3
331
20FD4
331
218D3
331
218D4
331
218DC
331
218DD
331
21CC1
331
21CC2
331
21CCB
331
21CCC
331
21CD5
331
21CD6
331
21CE0
331
21CE1
331
21CF6
331
21CF7
331
21CFF
331
21D00
331
21D08
331
21D09
331
21D1A
331
21D1B
331
21D7E
331
21D7F
331
21DA3
331
21DA4
331
21D97
331
21D98
331
21D8A
331
21D8B
331
21DAF
331
21DB0
331
21DC7
331
21DC8
331
21DBB
331
21DBC
331
22222
331
22223
331
2222B
331
2222C
331
22235
331
22236
331
2223E
331
2223F
331
22247
331
22248
331
22250
331
22251
331
22259
331
2225A
331
222AF
331
222B0
331
222B9
331
222BA
331
222C2
331
222C3
331
222CB
331
222CC
331
222D4
331
222D5
331
222DD
331
222DE
102
}
  0
BLOCK_RECORD
  5
164B4
330
7466
100
AcDbSymbolTableRecord
100
AcDbBlockTableRecord
  2
_DOT
340
0
102
{BLKREFS
331
18C73
331
18C74
102
}
  0
BLOCK_RECORD
  5
18BC8
330
7466
100
AcDbSymbolTableRecord
100
AcDbBlockTableRecord
  2
*D3
340
0
  0
BLOCK_RECORD
  5
18BD4
330
7466
100
AcDbSymbolTableRecord
100
AcDbBlockTableRecord
  2
*D4
340
0
  0
BLOCK_RECORD
  5
18BE0
330
7466
100
AcDbSymbolTableRecord
100
AcDbBlockTableRecord
  2
*D5
340
0
  0
BLOCK_RECORD
  5
18BEE
330
7466
100
AcDbSymbolTableRecord
100
AcDbBlockTableRecord
  2
*D6
340
0
  0
BLOCK_RECORD
  5
18BFC
330
7466
100
AcDbSymbolTableRecord
100
AcDbBlockTableRecord
  2
*D7
340
0
  0
BLOCK_RECORD
  5
18C0A
330
7466
100
AcDbSymbolTableRecord
100
AcDbBlockTableRecord
  2
*D8
340
0
  0
BLOCK_RECORD
  5
18C16
330
7466
100
AcDbSymbolTableRecord
100
AcDbBlockTableRecord
  2
*D9
340
0
  0
BLOCK_RECORD
  5
18C24
330
7466
100
AcDbSymbolTableRecord
100
AcDbBlockTableRecord
  2
*D10
340
0
  0
BLOCK_RECORD
  5
18C30
330
7466
100
AcDbSymbolTableRecord
100
AcDbBlockTableRecord
  2
*D11
340
0
  0
BLOCK_RECORD
  5
18C3C
330
7466
100
AcDbSymbolTableRecord
100
AcDbBlockTableRecord
  2
*D12
340
0
  0
BLOCK_RECORD
  5
18C48
330
7466
100
AcDbSymbolTableRecord
100
AcDbBlockTableRecord
  2
*D13
340
0
  0
BLOCK_RECORD
  5
18C54
330
7466
100
AcDbSymbolTableRecord
100
AcDbBlockTableRecord
  2
*D14
340
0
  0
BLOCK_RECORD
  5
18C60
330
7466
100
AcDbSymbolTableRecord
100
AcDbBlockTableRecord
  2
*D15
340
0
  0
BLOCK_RECORD
  5
18C6C
330
7466
100
AcDbSymbolTableRecord
100
AcDbBlockTableRecord
  2
*D16
340
0
  0
BLOCK_RECORD
  5
18C7A
330
7466
100
AcDbSymbolTableRecord
100
AcDbBlockTableRecord
  2
A$C3B1A506B
340
0
  0
BLOCK_RECORD
  5
1C4CA
330
7466
100
AcDbSymbolTableRecord
100
AcDbBlockTableRecord
  2
_NONE
340
0
  0
BLOCK_RECORD
  5
20677
330
7466
100
AcDbSymbolTableRecord
100
AcDbBlockTableRecord
  2
*D19
340
0
  0
BLOCK_RECORD
  5
20682
330
7466
100
AcDbSymbolTableRecord
100
AcDbBlockTableRecord
  2
*D20
340
0
  0
BLOCK_RECORD
  5
2068F
330
7466
100
AcDbSymbolTableRecord
100
AcDbBlockTableRecord
  2
*D21
340
0
  0
BLOCK_RECORD
  5
2069A
330
7466
100
AcDbSymbolTableRecord
100
AcDbBlockTableRecord
  2
*D22
340
0
  0
BLOCK_RECORD
  5
206A5
330
7466
100
AcDbSymbolTableRecord
100
AcDbBlockTableRecord
  2
*D23
340
0
  0
BLOCK_RECORD
  5
206B3
330
7466
100
AcDbSymbolTableRecord
100
AcDbBlockTableRecord
  2
*D24
340
0
  0
BLOCK_RECORD
  5
206BE
330
7466
100
AcDbSymbolTableRecord
100
AcDbBlockTableRecord
  2
*D25
340
0
  0
BLOCK_RECORD
  5
206CA
330
7466
100
AcDbSymbolTableRecord
100
AcDbBlockTableRecord
  2
*D26
340
0
  0
BLOCK_RECORD
  5
206D6
330
7466
100
AcDbSymbolTableRecord
100
AcDbBlockTableRecord
  2
*D27
340
0
  0
BLOCK_RECORD
  5
206E1
330
7466
100
AcDbSymbolTableRecord
100
AcDbBlockTableRecord
  2
*D28
340
0
  0
BLOCK_RECORD
  5
206EC
330
7466
100
AcDbSymbolTableRecord
100
AcDbBlockTableRecord
  2
*D29
340
0
  0
BLOCK_RECORD
  5
206F8
330
7466
100
AcDbSymbolTableRecord
100
AcDbBlockTableRecord
  2
*D30
340
0
  0
BLOCK_RECORD
  5
20702
330
7466
100
AcDbSymbolTableRecord
100
AcDbBlockTableRecord
  2
*D31
340
0
  0
BLOCK_RECORD
  5
2070F
330
7466
100
AcDbSymbolTableRecord
100
AcDbBlockTableRecord
  2
*D32
340
0
  0
BLOCK_RECORD
  5
2071C
330
7466
100
AcDbSymbolTableRecord
100
AcDbBlockTableRecord
  2
*D33
340
0
  0
BLOCK_RECORD
  5
20728
330
7466
100
AcDbSymbolTableRecord
100
AcDbBlockTableRecord
  2
*D34
340
0
  0
BLOCK_RECORD
  5
20734
330
7466
100
AcDbSymbolTableRecord
100
AcDbBlockTableRecord
  2
*D35
340
0
  0
BLOCK_RECORD
  5
20742
330
7466
100
AcDbSymbolTableRecord
100
AcDbBlockTableRecord
  2
*D36
340
0
  0
BLOCK_RECORD
  5
20750
330
7466
100
AcDbSymbolTableRecord
100
AcDbBlockTableRecord
  2
*D37
340
0
  0
BLOCK_RECORD
  5
2075C
330
7466
100
AcDbSymbolTableRecord
100
AcDbBlockTableRecord
  2
*D38
340
0
  0
BLOCK_RECORD
  5
2076A
330
7466
100
AcDbSymbolTableRecord
100
AcDbBlockTableRecord
  2
*D39
340
0
  0
BLOCK_RECORD
  5
20777
330
7466
100
AcDbSymbolTableRecord
100
AcDbBlockTableRecord
  2
*D40
340
0
  0
BLOCK_RECORD
  5
20781
330
7466
100
AcDbSymbolTableRecord
100
AcDbBlockTableRecord
  2
*D41
340
0
  0
BLOCK_RECORD
  5
2078E
330
7466
100
AcDbSymbolTableRecord
100
AcDbBlockTableRecord
  2
*D42
340
0
  0
BLOCK_RECORD
  5
2079B
330
7466
100
AcDbSymbolTableRecord
100
AcDbBlockTableRecord
  2
*D43
340
0
  0
BLOCK_RECORD
  5
207A7
330
7466
100
AcDbSymbolTableRecord
100
AcDbBlockTableRecord
  2
*D44
340
0
  0
BLOCK_RECORD
  5
207B5
330
7466
100
AcDbSymbolTableRecord
100
AcDbBlockTableRecord
  2
*D45
340
0
  0
BLOCK_RECORD
  5
207C2
330
7466
100
AcDbSymbolTableRecord
100
AcDbBlockTableRecord
  2
*D46
340
0
  0
BLOCK_RECORD
  5
207CD
330
7466
100
AcDbSymbolTableRecord
100
AcDbBlockTableRecord
  2
*D47
340
0
  0
BLOCK_RECORD
  5
207D9
330
7466
100
AcDbSymbolTableRecord
100
AcDbBlockTableRecord
  2
*D48
340
0
  0
BLOCK_RECORD
  5
207E6
330
7466
100
AcDbSymbolTableRecord
100
AcDbBlockTableRecord
  2
*D49
340
0
  0
BLOCK_RECORD
  5
21BFF
330
7466
100
AcDbSymbolTableRecord
100
AcDbBlockTableRecord
  2
*D50
340
0
  0
BLOCK_RECORD
  5
21C0C
330
7466
100
AcDbSymbolTableRecord
100
AcDbBlockTableRecord
  2
*D51
340
0
  0
BLOCK_RECORD
  5
21C1A
330
7466
100
AcDbSymbolTableRecord
100
AcDbBlockTableRecord
  2
*D52
340
0
  0
BLOCK_RECORD
  5
21C26
330
7466
100
AcDbSymbolTableRecord
100
AcDbBlockTableRecord
  2
*D53
340
0
  0
BLOCK_RECORD
  5
21C32
330
7466
100
AcDbSymbolTableRecord
100
AcDbBlockTableRecord
  2
*D54
340
0
  0
BLOCK_RECORD
  5
21C3E
330
7466
100
AcDbSymbolTableRecord
100
AcDbBlockTableRecord
  2
*D55
340
0
  0
BLOCK_RECORD
  5
21D78
330
7466
100
AcDbSymbolTableRecord
100
AcDbBlockTableRecord
  2
*D56
340
0
  0
BLOCK_RECORD
  5
21D85
330
7466
100
AcDbSymbolTableRecord
100
AcDbBlockTableRecord
  2
*D57
340
0
  0
BLOCK_RECORD
  5
21D91
330
7466
100
AcDbSymbolTableRecord
100
AcDbBlockTableRecord
  2
*D58
340
0
  0
BLOCK_RECORD
  5
21D9E
330
7466
100
AcDbSymbolTableRecord
100
AcDbBlockTableRecord
  2
*D59
340
0
  0
BLOCK_RECORD
  5
21DAA
330
7466
100
AcDbSymbolTableRecord
100
AcDbBlockTableRecord
  2
*D60
340
0
  0
BLOCK_RECORD
  5
21DB6
330
7466
100
AcDbSymbolTableRecord
100
AcDbBlockTableRecord
  2
*D61
340
0
  0
BLOCK_RECORD
  5
21DC2
330
7466
100
AcDbSymbolTableRecord
100
AcDbBlockTableRecord
  2
*D62
340
0
  0
BLOCK_RECORD
  5
221C8
330
7466
100
AcDbSymbolTableRecord
100
AcDbBlockTableRecord
  2
*D64
340
0
  0
BLOCK_RECORD
  5
221D5
330
7466
100
AcDbSymbolTableRecord
100
AcDbBlockTableRecord
  2
*D65
340
0
  0
BLOCK_RECORD
  5
221E1
330
7466
100
AcDbSymbolTableRecord
100
AcDbBlockTableRecord
  2
*D66
340
0
  0
BLOCK_RECORD
  5
221EE
330
7466
100
AcDbSymbolTableRecord
100
AcDbBlockTableRecord
  2
*D67
340
0
  0
BLOCK_RECORD
  5
221FA
330
7466
100
AcDbSymbolTableRecord
100
AcDbBlockTableRecord
  2
*D68
340
0
  0
BLOCK_RECORD
  5
22206
330
7466
100
AcDbSymbolTableRecord
100
AcDbBlockTableRecord
  2
*D69
340
0
  0
BLOCK_RECORD
  5
22212
330
7466
100
AcDbSymbolTableRecord
100
AcDbBlockTableRecord
  2
*D70
340
0
  0
ENDTAB
  0
ENDSEC
  0
SECTION
  2
BLOCKS
  0
BLOCK
  5
7489
330
747D
100
AcDbEntity
  8
0
100
AcDbBlockBegin
  2
*MODEL_SPACE
 70
     0
 10
0.0
 20
0.0
 30
0.0
  3
*MODEL_SPACE
  1

  0
ENDBLK
  5
748A
330
747D
100
AcDbEntity
  8
0
100
AcDbBlockEnd
  0
BLOCK
  5
7487
330
747A
100
AcDbEntity
 67
     1
  8
0
100
AcDbBlockBegin
  2
*PAPER_SPACE
 70
     0
 10
0.0
 20
0.0
 30
0.0
  3
*PAPER_SPACE
  1

  0
ENDBLK
  5
7488
330
747A
100
AcDbEntity
 67
     1
  8
0
100
AcDbBlockEnd
  0
BLOCK
  5
DEAD
330
DEAC
100
AcDbEntity
  8
0
100
AcDbBlockBegin
  2
_OPEN
 70
     0
 10
0.0
 20
0.0
 30
0.0
  3
_OPEN
  1

  0
LINE
  5
DEAE
330
DEAC
100
AcDbEntity
  8
0
  6
ByBlock
 62
     0
100
AcDbLine
 10
-1.0
 20
0.1666666666666666
 30
0.0
 11
0.0
 21
0.0
 31
0.0
  0
LINE
  5
DEAF
330
DEAC
100
AcDbEntity
  8
0
  6
ByBlock
 62
     0
100
AcDbLine
 10
0.0
 20
0.0
 30
0.0
 11
-1.0
 21
-0.1666666666666666
 31
0.0
  0
LINE
  5
DEB0
330
DEAC
100
AcDbEntity
  8
0
  6
ByBlock
 62
     0
100
AcDbLine
 10
0.0
 20
0.0
 30
0.0
 11
-1.0
 21
0.0
 31
0.0
  0
ENDBLK
  5
DEB1
330
DEAC
100
AcDbEntity
  8
0
100
AcDbBlockEnd
  0
BLOCK
  5
F771
330
F770
100
AcDbEntity
  8
0
 48
50.0
100
AcDbBlockBegin
  2
_DOTSMALL
 70
     0
 10
0.0
 20
0.0
 30
0.0
  3
_DOTSMALL
  1

  0
LWPOLYLINE
  5
F772
330
F770
100
AcDbEntity
  8
0
  6
ByBlock
 62
     0
 48
50.0
100
AcDbPolyline
 90
        2
 70
     1
 43
0.5
 10
-0.0625
 20
0.0
 42
1.0
 10
0.0625
 20
0.0
 42
1.0
  0
ENDBLK
  5
F776
330
F770
100
AcDbEntity
  8
0
 48
50.0
100
AcDbBlockEnd
  0
BLOCK
  5
164BA
330
164B4
100
AcDbEntity
  8
0
 48
50.0
100
AcDbBlockBegin
  2
_DOT
 70
     0
 10
0.0
 20
0.0
 30
0.0
  3
_DOT
  1

  0
LWPOLYLINE
  5
164B5
330
164B4
100
AcDbEntity
  8
0
  6
ByBlock
 62
     0
 48
50.0
100
AcDbPolyline
 90
        2
 70
     1
 43
0.5
 10
-0.25
 20
0.0
 42
1.0
 10
0.25
 20
0.0
 42
1.0
  0
LINE
  5
164B9
330
164B4
100
AcDbEntity
  8
0
  6
ByBlock
 62
     0
 48
50.0
100
AcDbLine
 10
-0.5
 20
0.0
 30
0.0
 11
-1.0
 21
0.0
 31
0.0
  0
ENDBLK
  5
164BB
330
164B4
100
AcDbEntity
  8
0
 48
50.0
100
AcDbBlockEnd
  0
BLOCK
  5
18BC9
330
18BC8
100
AcDbEntity
  8
0
 48
50.0
100
AcDbBlockBegin
  2
*D3
 70
     1
 10
0.0
 20
0.0
 30
0.0
  3
*D3
  1

  0
LINE
  5
18BCA
330
18BC8
100
AcDbEntity
  8
寸法
 62
     0
 48
50.0
370
    -2
100
AcDbLine
 10
7649.896575106999
 20
9636.123139034717
 30
0.0
 11
8702.429862581047
 21
9636.123139034717
 31
0.0
  0
LINE
  5
18BCB
330
18BC8
100
AcDbEntity
  8
寸法
 62
     0
 48
50.0
370
    -2
100
AcDbLine
 10
7649.896575106973
 20
7846.123139034709
 30
0.0
 11
8702.429862581047
 21
7846.123139034709
 31
0.0
  0
LINE
  5
18BCC
330
18BC8
100
AcDbEntity
  8
寸法
 62
     0
 48
50.0
370
    -2
100
AcDbLine
 10
8642.429862581046
 20
9636.123139034717
 30
0.0
 11
8642.429862581046
 21
7846.123139034709
 31
0.0
  0
INSERT
  5
18BCD
330
18BC8
100
AcDbEntity
  8
寸法
 62
     0
 48
50.0
370
    -2
100
AcDbBlockReference
  2
_DOTSMALL
 10
8642.429862581046
 20
9636.123139034717
 30
0.0
 41
100.0
 42
100.0
 43
100.0
 50
90.0
  0
INSERT
  5
18BCE
330
18BC8
100
AcDbEntity
  8
寸法
 62
     0
 48
50.0
370
    -2
100
AcDbBlockReference
  2
_DOTSMALL
 10
8642.429862581046
 20
7846.123139034709
 30
0.0
 41
100.0
 42
100.0
 43
100.0
 50
270.0
  0
MTEXT
  5
18BCF
330
18BC8
100
AcDbEntity
  8
寸法
 62
     7
 48
50.0
100
AcDbMText
 10
8542.429862581045
 20
8741.123139034712
 30
0.0
 40
120.0
 41
0.0
 71
     5
 72
     1
  1
\A1;1790
  7
STYLE1
 11
0.0000000000000001
 21
1.0
 31
0.0
 73
     1
 44
1.0
1001
ACAD
1000
MTEXTBEGIN
1070
    73
1070
     1
1070
    44
1040
1.0
1070
    74
1070
     0
1000
MTEXTEND
  0
POINT
  5
18BD0
330
18BC8
100
AcDbEntity
  8
DEFPOINTS
 62
     0
 48
50.0
100
AcDbPoint
 10
7629.896575106998
 20
9636.123139034717
 30
0.0
  0
POINT
  5
18BD1
330
18BC8
100
AcDbEntity
  8
DEFPOINTS
 62
     0
 48
50.0
100
AcDbPoint
 10
7629.896575106974
 20
7846.123139034709
 30
0.0
  0
POINT
  5
18BD2
330
18BC8
100
AcDbEntity
  8
DEFPOINTS
 62
     0
 48
50.0
100
AcDbPoint
 10
8642.429862581046
 20
7846.123139034709
 30
0.0
  0
ENDBLK
  5
18BD3
330
18BC8
100
AcDbEntity
  8
0
 48
50.0
100
AcDbBlockEnd
  0
BLOCK
  5
18BD5
330
18BD4
100
AcDbEntity
  8
0
 48
50.0
100
AcDbBlockBegin
  2
*D4
 70
     1
 10
0.0
 20
0.0
 30
0.0
  3
*D4
  1

  0
LINE
  5
18BD6
330
18BD4
100
AcDbEntity
  8
寸法
 62
     0
 48
50.0
370
    -2
100
AcDbLine
 10
4214.896575106998
 20
9656.123139034622
 30
0.0
 11
4214.896575106998
 21
10211.93135865972
 31
0.0
  0
LINE
  5
18BD7
330
18BD4
100
AcDbEntity
  8
寸法
 62
     0
 48
50.0
370
    -2
100
AcDbLine
 10
7574.896575106999
 20
9656.123139034718
 30
0.0
 11
7574.896575106999
 21
10211.93135865972
 31
0.0
  0
LINE
  5
18BD8
330
18BD4
100
AcDbEntity
  8
寸法
 62
     0
 48
50.0
370
    -2
100
AcDbLine
 10
4214.896575106998
 20
10151.93135865972
 30
0.0
 11
7574.896575106999
 21
10151.93135865972
 31
0.0
  0
INSERT
  5
18BD9
330
18BD4
100
AcDbEntity
  8
寸法
 62
     0
 48
50.0
370
    -2
100
AcDbBlockReference
  2
_DOTSMALL
 10
4214.896575106998
 20
10151.93135865972
 30
0.0
 41
100.0
 42
100.0
 43
100.0
 50
180.0
  0
INSERT
  5
18BDA
330
18BD4
100
AcDbEntity
  8
寸法
 62
     0
 48
50.0
370
    -2
100
AcDbBlockReference
  2
_DOTSMALL
 10
7574.896575106999
 20
10151.93135865972
 30
0.0
 41
100.0
 42
100.0
 43
100.0
  0
MTEXT
  5
18BDB
330
18BD4
100
AcDbEntity
  8
寸法
 62
     7
 48
50.0
100
AcDbMText
 10
5894.896575106997
 20
10251.94316968334
 30
0.0
 40
120.0
 41
0.0
 71
     5
 72
     1
  1
\A1;8X420=3360
  7
STYLE1
 73
     1
 44
1.0
1001
ACAD
1000
MTEXTBEGIN
1070
    73
1070
     1
1070
    44
1040
1.0
1070
    74
1070
     0
1000
MTEXTEND
  0
POINT
  5
18BDC
330
18BD4
100
AcDbEntity
  8
DEFPOINTS
 62
     0
 48
50.0
100
AcDbPoint
 10
4214.896575106998
 20
9636.123139034623
 30
0.0
  0
POINT
  5
18BDD
330
18BD4
100
AcDbEntity
  8
DEFPOINTS
 62
     0
 48
50.0
100
AcDbPoint
 10
7574.896575106999
 20
9636.123139034717
 30
0.0
  0
POINT
  5
18BDE
330
18BD4
100
AcDbEntity
  8
DEFPOINTS
 62
     0
 48
50.0
100
AcDbPoint
 10
7574.896575106999
 20
10151.93135865972
 30
0.0
  0
ENDBLK
  5
18BDF
330
18BD4
100
AcDbEntity
  8
0
 48
50.0
100
AcDbBlockEnd
  0
BLOCK
  5
18BE1
330
18BE0
100
AcDbEntity
  8
0
 48
50.0
100
AcDbBlockBegin
  2
*D5
 70
     1
 10
0.0
 20
0.0
 30
0.0
  3
*D5
  1

  0
LINE
  5
18BE2
330
18BE0
100
AcDbEntity
  8
寸法
 62
     0
 48
50.0
370
    -2
100
AcDbLine
 10
7574.896575106999
 20
9656.123139034718
 30
0.0
 11
7574.896575106999
 21
10211.9313586597
 31
0.0
  0
LINE
  5
18BE3
330
18BE0
100
AcDbEntity
  8
寸法
 62
     0
 48
50.0
370
    -2
100
AcDbLine
 10
7629.896575106998
 20
9656.123139034718
 30
0.0
 11
7629.896575106998
 21
10211.9313586597
 31
0.0
  0
LINE
  5
18BE4
330
18BE0
100
AcDbEntity
  8
寸法
 62
     0
 48
50.0
370
    -2
100
AcDbLine
 10
7574.896575106999
 20
10151.9313586597
 30
0.0
 11
7474.896575106999
 21
10151.9313586597
 31
0.0
  0
LINE
  5
18BE5
330
18BE0
100
AcDbEntity
  8
寸法
 62
     0
 48
50.0
370
    -2
100
AcDbLine
 10
7629.896575106998
 20
10151.9313586597
 30
0.0
 11
8046.867137855477
 21
10151.9313586597
 31
0.0
  0
LINE
  5
18BE6
330
18BE0
100
AcDbEntity
  8
寸法
 62
     0
 48
50.0
370
    -2
100
AcDbLine
 10
7574.896575106999
 20
10151.9313586597
 30
0.0
 11
7629.896575106998
 21
10151.9313586597
 31
0.0
  0
INSERT
  5
18BE7
330
18BE0
100
AcDbEntity
  8
寸法
 62
     0
 48
50.0
370
    -2
100
AcDbBlockReference
  2
_DOTSMALL
 10
7574.896575106999
 20
10151.9313586597
 30
0.0
 41
100.0
 42
100.0
 43
100.0
  0
INSERT
  5
18BE8
330
18BE0
100
AcDbEntity
  8
寸法
 62
     0
 48
50.0
370
    -2
100
AcDbBlockReference
  2
_DOTSMALL
 10
7629.896575106998
 20
10151.9313586597
 30
0.0
 41
100.0
 42
100.0
 43
100.0
 50
180.0
  0
MTEXT
  5
18BE9
330
18BE0
100
AcDbEntity
  8
寸法
 62
     7
 48
50.0
100
AcDbMText
 10
7938.381856481237
 20
10251.9313586597
 30
0.0
 40
120.0
 41
0.0
 71
     5
 72
     1
  1
\A1;55
  7
STYLE1
 73
     1
 44
1.0
1001
ACAD
1000
MTEXTBEGIN
1070
    73
1070
     1
1070
    44
1040
1.0
1070
    74
1070
     0
1000
MTEXTEND
  0
POINT
  5
18BEA
330
18BE0
100
AcDbEntity
  8
DEFPOINTS
 62
     0
 48
50.0
100
AcDbPoint
 10
7574.896575106999
 20
9636.123139034717
 30
0.0
  0
POINT
  5
18BEB
330
18BE0
100
AcDbEntity
  8
DEFPOINTS
 62
     0
 48
50.0
100
AcDbPoint
 10
7629.896575106998
 20
9636.123139034717
 30
0.0
  0
POINT
  5
18BEC
330
18BE0
100
AcDbEntity
  8
DEFPOINTS
 62
     0
 48
50.0
100
AcDbPoint
 10
7629.896575106998
 20
10151.9313586597
 30
0.0
  0
ENDBLK
  5
18BED
330
18BE0
100
AcDbEntity
  8
0
 48
50.0
100
AcDbBlockEnd
  0
BLOCK
  5
18BEF
330
18BEE
100
AcDbEntity
  8
0
 48
50.0
100
AcDbBlockBegin
  2
*D6
 70
     1
 10
0.0
 20
0.0
 30
0.0
  3
*D6
  1

  0
LINE
  5
18BF0
330
18BEE
100
AcDbEntity
  8
寸法
 62
     0
 48
50.0
370
    -2
100
AcDbLine
 10
7649.896575106999
 20
9636.123139034717
 30
0.0
 11
8337.32292084141
 21
9636.123139034717
 31
0.0
  0
LINE
  5
18BF1
330
18BEE
100
AcDbEntity
  8
寸法
 62
     0
 48
50.0
370
    -2
100
AcDbLine
 10
7649.896575106999
 20
9581.123139034721
 30
0.0
 11
8337.32292084141
 21
9581.123139034721
 31
0.0
  0
LINE
  5
18BF2
330
18BEE
100
AcDbEntity
  8
寸法
 62
     0
 48
50.0
370
    -2
100
AcDbLine
 10
8277.322920841411
 20
9581.123139034721
 30
0.0
 11
8277.322920841411
 21
9481.123139034719
 31
0.0
  0
LINE
  5
18BF3
330
18BEE
100
AcDbEntity
  8
寸法
 62
     0
 48
50.0
370
    -2
100
AcDbLine
 10
8277.322920841411
 20
9636.123139034717
 30
0.0
 11
8277.322920841411
 21
10053.09370178319
 31
0.0
  0
LINE
  5
18BF4
330
18BEE
100
AcDbEntity
  8
寸法
 62
     0
 48
50.0
370
    -2
100
AcDbLine
 10
8277.322920841411
 20
9581.123139034721
 30
0.0
 11
8277.322920841411
 21
9636.123139034717
 31
0.0
  0
INSERT
  5
18BF5
330
18BEE
100
AcDbEntity
  8
寸法
 62
     0
 48
50.0
370
    -2
100
AcDbBlockReference
  2
_DOTSMALL
 10
8277.322920841411
 20
9581.123139034721
 30
0.0
 41
100.0
 42
100.0
 43
100.0
 50
90.0
  0
INSERT
  5
18BF6
330
18BEE
100
AcDbEntity
  8
寸法
 62
     0
 48
50.0
370
    -2
100
AcDbBlockReference
  2
_DOTSMALL
 10
8277.322920841411
 20
9636.123139034717
 30
0.0
 41
100.0
 42
100.0
 43
100.0
 50
270.0
  0
MTEXT
  5
18BF7
330
18BEE
100
AcDbEntity
  8
寸法
 62
     7
 48
50.0
100
AcDbMText
 10
8177.32292084141
 20
9944.608420408957
 30
0.0
 40
120.0
 41
0.0
 71
     5
 72
     1
  1
\A1;55
  7
STYLE1
 11
0.0000000000000001
 21
1.0
 31
0.0
 73
     1
 44
1.0
1001
ACAD
1000
MTEXTBEGIN
1070
    73
1070
     1
1070
    44
1040
1.0
1070
    74
1070
     0
1000
MTEXTEND
  0
POINT
  5
18BF8
330
18BEE
100
AcDbEntity
  8
DEFPOINTS
 62
     0
 48
50.0
100
AcDbPoint
 10
7629.896575106998
 20
9636.123139034717
 30
0.0
  0
POINT
  5
18BF9
330
18BEE
100
AcDbEntity
  8
DEFPOINTS
 62
     0
 48
50.0
100
AcDbPoint
 10
7629.896575106998
 20
9581.123139034721
 30
0.0
  0
POINT
  5
18BFA
330
18BEE
100
AcDbEntity
  8
DEFPOINTS
 62
     0
 48
50.0
100
AcDbPoint
 10
8277.322920841411
 20
9581.123139034721
 30
0.0
  0
ENDBLK
  5
18BFB
330
18BEE
100
AcDbEntity
  8
0
 48
50.0
100
AcDbBlockEnd
  0
BLOCK
  5
18BFD
330
18BFC
100
AcDbEntity
  8
0
 48
50.0
100
AcDbBlockBegin
  2
*D7
 70
     1
 10
0.0
 20
0.0
 30
0.0
  3
*D7
  1

  0
LINE
  5
18BFE
330
18BFC
100
AcDbEntity
  8
寸法
 62
     0
 48
50.0
370
    -2
100
AcDbLine
 10
4159.896575106963
 20
9656.123139034622
 30
0.0
 11
4159.896575106963
 21
10211.9313586596
 31
0.0
  0
LINE
  5
18BFF
330
18BFC
100
AcDbEntity
  8
寸法
 62
     0
 48
50.0
370
    -2
100
AcDbLine
 10
4214.896575106998
 20
9656.123139034622
 30
0.0
 11
4214.896575106998
 21
10211.9313586596
 31
0.0
  0
LINE
  5
18C00
330
18BFC
100
AcDbEntity
  8
寸法
 62
     0
 48
50.0
370
    -2
100
AcDbLine
 10
4214.896575106998
 20
10151.9313586596
 30
0.0
 11
4314.896575106998
 21
10151.9313586596
 31
0.0
  0
LINE
  5
18C01
330
18BFC
100
AcDbEntity
  8
寸法
 62
     0
 48
50.0
370
    -2
100
AcDbLine
 10
4159.896575106963
 20
10151.9313586596
 30
0.0
 11
3742.926012358486
 21
10151.9313586596
 31
0.0
  0
LINE
  5
18C02
330
18BFC
100
AcDbEntity
  8
寸法
 62
     0
 48
50.0
370
    -2
100
AcDbLine
 10
4214.896575106998
 20
10151.9313586596
 30
0.0
 11
4159.896575106963
 21
10151.9313586596
 31
0.0
  0
INSERT
  5
18C03
330
18BFC
100
AcDbEntity
  8
寸法
 62
     0
 48
50.0
370
    -2
100
AcDbBlockReference
  2
_DOTSMALL
 10
4214.896575106998
 20
10151.9313586596
 30
0.0
 41
100.0
 42
100.0
 43
100.0
 50
180.0
  0
INSERT
  5
18C04
330
18BFC
100
AcDbEntity
  8
寸法
 62
     0
 48
50.0
370
    -2
100
AcDbBlockReference
  2
_DOTSMALL
 10
4159.896575106963
 20
10151.9313586596
 30
0.0
 41
100.0
 42
100.0
 43
100.0
  0
MTEXT
  5
18C05
330
18BFC
100
AcDbEntity
  8
寸法
 62
     7
 48
50.0
100
AcDbMText
 10
3851.411293732725
 20
10251.9313586596
 30
0.0
 40
120.0
 41
0.0
 71
     5
 72
     1
  1
\A1;55
  7
STYLE1
 73
     1
 44
1.0
1001
ACAD
1000
MTEXTBEGIN
1070
    73
1070
     1
1070
    44
1040
1.0
1070
    74
1070
     0
1000
MTEXTEND
  0
POINT
  5
18C06
330
18BFC
100
AcDbEntity
  8
DEFPOINTS
 62
     0
 48
50.0
100
AcDbPoint
 10
4159.896575106963
 20
9636.123139034623
 30
0.0
  0
POINT
  5
18C07
330
18BFC
100
AcDbEntity
  8
DEFPOINTS
 62
     0
 48
50.0
100
AcDbPoint
 10
4214.896575106998
 20
9636.123139034623
 30
0.0
  0
POINT
  5
18C08
330
18BFC
100
AcDbEntity
  8
DEFPOINTS
 62
     0
 48
50.0
100
AcDbPoint
 10
4214.896575106998
 20
10151.9313586596
 30
0.0
  0
ENDBLK
  5
18C09
330
18BFC
100
AcDbEntity
  8
0
 48
50.0
100
AcDbBlockEnd
  0
BLOCK
  5
18C0B
330
18C0A
100
AcDbEntity
  8
0
 48
50.0
100
AcDbBlockBegin
  2
*D8
 70
     1
 10
0.0
 20
0.0
 30
0.0
  3
*D8
  1

  0
LINE
  5
18C0C
330
18C0A
100
AcDbEntity
  8
寸法
 62
     0
 48
50.0
370
    -2
100
AcDbLine
 10
4159.896575106992
 20
7826.123139034546
 30
0.0
 11
4159.896575106992
 21
6804.372203245664
 31
0.0
  0
LINE
  5
18C0D
330
18C0A
100
AcDbEntity
  8
寸法
 62
     0
 48
50.0
370
    -2
100
AcDbLine
 10
7629.896575106974
 20
7826.123139034674
 30
0.0
 11
7629.896575106974
 21
6804.372203245664
 31
0.0
  0
LINE
  5
18C0E
330
18C0A
100
AcDbEntity
  8
寸法
 62
     0
 48
50.0
370
    -2
100
AcDbLine
 10
4159.896575106992
 20
6864.372203245665
 30
0.0
 11
7629.896575106974
 21
6864.372203245665
 31
0.0
  0
INSERT
  5
18C0F
330
18C0A
100
AcDbEntity
  8
寸法
 62
     0
 48
50.0
370
    -2
100
AcDbBlockReference
  2
_DOTSMALL
 10
4159.896575106992
 20
6864.372203245665
 30
0.0
 41
100.0
 42
100.0
 43
100.0
 50
180.0
  0
INSERT
  5
18C10
330
18C0A
100
AcDbEntity
  8
寸法
 62
     0
 48
50.0
370
    -2
100
AcDbBlockReference
  2
_DOTSMALL
 10
7629.896575106974
 20
6864.372203245665
 30
0.0
 41
100.0
 42
100.0
 43
100.0
  0
MTEXT
  5
18C11
330
18C0A
100
AcDbEntity
  8
寸法
 62
     7
 48
50.0
100
AcDbMText
 10
5911.12376113973
 20
6964.372203245665
 30
0.0
 40
120.0
 41
0.0
 71
     5
 72
     1
  1
\A1;3470
  7
STYLE1
 73
     1
 44
1.0
1001
ACAD
1000
MTEXTBEGIN
1070
    73
1070
     1
1070
    44
1040
1.0
1070
    74
1070
     0
1000
MTEXTEND
  0
POINT
  5
18C12
330
18C0A
100
AcDbEntity
  8
DEFPOINTS
 62
     0
 48
50.0
100
AcDbPoint
 10
4159.896575106992
 20
7846.123139034546
 30
0.0
  0
POINT
  5
18C13
330
18C0A
100
AcDbEntity
  8
DEFPOINTS
 62
     0
 48
50.0
100
AcDbPoint
 10
7629.896575106974
 20
7846.123139034673
 30
0.0
  0
POINT
  5
18C14
330
18C0A
100
AcDbEntity
  8
DEFPOINTS
 62
     0
 48
50.0
100
AcDbPoint
 10
7629.896575106974
 20
6864.372203245665
 30
0.0
  0
ENDBLK
  5
18C15
330
18C0A
100
AcDbEntity
  8
0
 48
50.0
100
AcDbBlockEnd
  0
BLOCK
  5
18C17
330
18C16
100
AcDbEntity
  8
0
 48
50.0
100
AcDbBlockBegin
  2
*D9
 70
     1
 10
0.0
 20
0.0
 30
0.0
  3
*D9
  1

  0
LINE
  5
18C18
330
18C16
100
AcDbEntity
  8
寸法
 62
     0
 48
50.0
370
    -2
100
AcDbLine
 10
7649.896575106973
 20
7901.123139034706
 30
0.0
 11
8337.322920841385
 21
7901.123139034706
 31
0.0
  0
LINE
  5
18C19
330
18C16
100
AcDbEntity
  8
寸法
 62
     0
 48
50.0
370
    -2
100
AcDbLine
 10
7649.896575106973
 20
7846.123139034709
 30
0.0
 11
8337.322920841385
 21
7846.123139034709
 31
0.0
  0
LINE
  5
18C1A
330
18C16
100
AcDbEntity
  8
寸法
 62
     0
 48
50.0
370
    -2
100
AcDbLine
 10
8277.322920841385
 20
7901.123139034706
 30
0.0
 11
8277.322920841385
 21
8001.123139034707
 31
0.0
  0
LINE
  5
18C1B
330
18C16
100
AcDbEntity
  8
寸法
 62
     0
 48
50.0
370
    -2
100
AcDbLine
 10
8277.322920841385
 20
7846.123139034709
 30
0.0
 11
8277.322920841385
 21
7429.152576286229
 31
0.0
  0
LINE
  5
18C1C
330
18C16
100
AcDbEntity
  8
寸法
 62
     0
 48
50.0
370
    -2
100
AcDbLine
 10
8277.322920841385
 20
7901.123139034706
 30
0.0
 11
8277.322920841385
 21
7846.123139034709
 31
0.0
  0
INSERT
  5
18C1D
330
18C16
100
AcDbEntity
  8
寸法
 62
     0
 48
50.0
370
    -2
100
AcDbBlockReference
  2
_DOTSMALL
 10
8277.322920841385
 20
7901.123139034706
 30
0.0
 41
100.0
 42
100.0
 43
100.0
 50
270.0
  0
INSERT
  5
18C1E
330
18C16
100
AcDbEntity
  8
寸法
 62
     0
 48
50.0
370
    -2
100
AcDbBlockReference
  2
_DOTSMALL
 10
8277.322920841385
 20
7846.123139034709
 30
0.0
 41
100.0
 42
100.0
 43
100.0
 50
90.0
  0
MTEXT
  5
18C1F
330
18C16
100
AcDbEntity
  8
寸法
 62
     7
 48
50.0
100
AcDbMText
 10
8177.322920841383
 20
7537.637857660469
 30
0.0
 40
120.0
 41
0.0
 71
     5
 72
     1
  1
\A1;55
  7
STYLE1
 11
0.0000000000000001
 21
1.0
 31
0.0
 73
     1
 44
1.0
1001
ACAD
1000
MTEXTBEGIN
1070
    73
1070
     1
1070
    44
1040
1.0
1070
    74
1070
     0
1000
MTEXTEND
  0
POINT
  5
18C20
330
18C16
100
AcDbEntity
  8
DEFPOINTS
 62
     0
 48
50.0
100
AcDbPoint
 10
7629.896575106974
 20
7901.123139034706
 30
0.0
  0
POINT
  5
18C21
330
18C16
100
AcDbEntity
  8
DEFPOINTS
 62
     0
 48
50.0
100
AcDbPoint
 10
7629.896575106974
 20
7846.123139034709
 30
0.0
  0
POINT
  5
18C22
330
18C16
100
AcDbEntity
  8
DEFPOINTS
 62
     0
 48
50.0
100
AcDbPoint
 10
8277.322920841385
 20
7846.123139034709
 30
0.0
  0
ENDBLK
  5
18C23
330
18C16
100
AcDbEntity
  8
0
 48
50.0
100
AcDbBlockEnd
  0
BLOCK
  5
18C25
330
18C24
100
AcDbEntity
  8
0
 48
50.0
100
AcDbBlockBegin
  2
*D10
 70
     1
 10
0.0
 20
0.0
 30
0.0
  3
*D10
  1

  0
LINE
  5
18C26
330
18C24
100
AcDbEntity
  8
寸法
 62
     0
 48
50.0
370
    -2
100
AcDbLine
 10
6533.037591258376
 20
9136.123139034728
 30
0.0
 11
6465.083950562664
 21
8882.516699399049
 31
0.0
  0
LINE
  5
18C27
330
18C24
100
AcDbEntity
  8
寸法
 62
     0
 48
50.0
370
    -2
100
AcDbLine
 10
7596.037591258388
 20
9136.123139034721
 30
0.0
 11
7528.083950562677
 21
8882.516699399049
 31
0.0
  0
LINE
  5
18C28
330
18C24
100
AcDbEntity
  8
寸法
 62
     0
 48
50.0
370
    -2
100
AcDbLine
 10
6481.160902108531
 20
8942.51669939905
 30
0.0
 11
7544.160902108544
 21
8942.51669939905
 31
0.0
  0
INSERT
  5
18C29
330
18C24
100
AcDbEntity
  8
寸法
 62
     0
 48
50.0
370
    -2
100
AcDbBlockReference
  2
_DOTSMALL
 10
6481.160902108531
 20
8942.51669939905
 30
0.0
 41
100.0
 42
100.0
 43
100.0
 50
180.0
  0
INSERT
  5
18C2A
330
18C24
100
AcDbEntity
  8
寸法
 62
     0
 48
50.0
370
    -2
100
AcDbBlockReference
  2
_DOTSMALL
 10
7544.160902108544
 20
8942.51669939905
 30
0.0
 41
100.0
 42
100.0
 43
100.0
  0
MTEXT
  5
18C2B
330
18C24
100
AcDbEntity
  8
寸法
 62
     7
 48
50.0
100
AcDbMText
 10
7061.28653022935
 20
9042.516699399049
 30
0.0
 40
120.0
 41
0.0
 71
     5
 72
     1
  1
\A1;1063
  7
STYLE1
 73
     1
 44
1.0
1001
ACAD
1000
MTEXTBEGIN
1070
    73
1070
     1
1070
    44
1040
1.0
1070
    74
1070
     0
1000
MTEXTEND
  0
POINT
  5
18C2C
330
18C24
100
AcDbEntity
  8
DEFPOINTS
 62
     0
 48
50.0
100
AcDbPoint
 10
6538.396575106998
 20
9156.123139034727
 30
0.0
  0
POINT
  5
18C2D
330
18C24
100
AcDbEntity
  8
DEFPOINTS
 62
     0
 48
50.0
100
AcDbPoint
 10
7601.39657510701
 20
9156.12313903472
 30
0.0
  0
POINT
  5
18C2E
330
18C24
100
AcDbEntity
  8
DEFPOINTS
 62
     0
 48
50.0
100
AcDbPoint
 10
7544.160902108544
 20
8942.51669939905
 30
0.0
  0
ENDBLK
  5
18C2F
330
18C24
100
AcDbEntity
  8
0
 48
50.0
100
AcDbBlockEnd
  0
BLOCK
  5
18C31
330
18C30
100
AcDbEntity
  8
0
 48
50.0
100
AcDbBlockBegin
  2
*D11
 70
     1
 10
0.0
 20
0.0
 30
0.0
  3
*D11
  1

  0
LINE
  5
18C32
330
18C30
100
AcDbEntity
  8
寸法
 62
     0
 48
50.0
370
    -2
100
AcDbLine
 10
7621.396575106999
 20
9600.764155186094
 30
0.0
 11
8016.754300969024
 21
9494.828371819961
 31
0.0
  0
LINE
  5
18C33
330
18C30
100
AcDbEntity
  8
寸法
 62
     0
 48
50.0
370
    -2
100
AcDbLine
 10
7621.396575106999
 20
9150.764155186099
 30
0.0
 11
8016.754300969024
 21
9044.828371819964
 31
0.0
  0
LINE
  5
18C34
330
18C30
100
AcDbEntity
  8
寸法
 62
     0
 48
50.0
370
    -2
100
AcDbLine
 10
7956.754300969024
 20
9510.905323365827
 30
0.0
 11
7956.754300969024
 21
9060.90532336583
 31
0.0
  0
INSERT
  5
18C35
330
18C30
100
AcDbEntity
  8
寸法
 62
     0
 48
50.0
370
    -2
100
AcDbBlockReference
  2
_DOTSMALL
 10
7956.754300969024
 20
9510.905323365827
 30
0.0
 41
100.0
 42
100.0
 43
100.0
 50
90.0
  0
INSERT
  5
18C36
330
18C30
100
AcDbEntity
  8
寸法
 62
     0
 48
50.0
370
    -2
100
AcDbBlockReference
  2
_DOTSMALL
 10
7956.754300969024
 20
9060.90532336583
 30
0.0
 41
100.0
 42
100.0
 43
100.0
 50
270.0
  0
MTEXT
  5
18C37
330
18C30
100
AcDbEntity
  8
寸法
 62
     7
 48
50.0
100
AcDbMText
 10
7856.754300969022
 20
9285.905323365829
 30
0.0
 40
120.0
 41
0.0
 71
     5
 72
     1
  1
\A1;450
  7
STYLE1
 11
0.0000000000000001
 21
1.0
 31
0.0
 73
     1
 44
1.0
1001
ACAD
1000
MTEXTBEGIN
1070
    73
1070
     1
1070
    44
1040
1.0
1070
    74
1070
     0
1000
MTEXTEND
  0
POINT
  5
18C38
330
18C30
100
AcDbEntity
  8
DEFPOINTS
 62
     0
 48
50.0
100
AcDbPoint
 10
7601.396575106999
 20
9606.123139034718
 30
0.0
  0
POINT
  5
18C39
330
18C30
100
AcDbEntity
  8
DEFPOINTS
 62
     0
 48
50.0
100
AcDbPoint
 10
7601.396575106999
 20
9156.12313903472
 30
0.0
  0
POINT
  5
18C3A
330
18C30
100
AcDbEntity
  8
DEFPOINTS
 62
     0
 48
50.0
100
AcDbPoint
 10
7956.754300969024
 20
9060.90532336583
 30
0.0
  0
ENDBLK
  5
18C3B
330
18C30
100
AcDbEntity
  8
0
 48
50.0
100
AcDbBlockEnd
  0
BLOCK
  5
18C3D
330
18C3C
100
AcDbEntity
  8
0
 48
50.0
100
AcDbBlockBegin
  2
*D12
 70
     1
 10
0.0
 20
0.0
 30
0.0
  3
*D12
  1

  0
LINE
  5
18C3E
330
18C3C
100
AcDbEntity
  8
寸法
 62
     0
 48
50.0
370
    -2
100
AcDbLine
 10
7649.896575106999
 20
9581.123139034721
 30
0.0
 11
8337.32292084141
 21
9581.123139034721
 31
0.0
  0
LINE
  5
18C3F
330
18C3C
100
AcDbEntity
  8
寸法
 62
     0
 48
50.0
370
    -2
100
AcDbLine
 10
7649.896575106973
 20
7901.123139034706
 30
0.0
 11
8337.32292084141
 21
7901.123139034706
 31
0.0
  0
LINE
  5
18C40
330
18C3C
100
AcDbEntity
  8
寸法
 62
     0
 48
50.0
370
    -2
100
AcDbLine
 10
8277.322920841411
 20
9581.123139034721
 30
0.0
 11
8277.322920841411
 21
7901.123139034706
 31
0.0
  0
INSERT
  5
18C41
330
18C3C
100
AcDbEntity
  8
寸法
 62
     0
 48
50.0
370
    -2
100
AcDbBlockReference
  2
_DOTSMALL
 10
8277.322920841411
 20
9581.123139034721
 30
0.0
 41
100.0
 42
100.0
 43
100.0
 50
90.0
  0
INSERT
  5
18C42
330
18C3C
100
AcDbEntity
  8
寸法
 62
     0
 48
50.0
370
    -2
100
AcDbBlockReference
  2
_DOTSMALL
 10
8277.322920841411
 20
7901.123139034706
 30
0.0
 41
100.0
 42
100.0
 43
100.0
 50
270.0
  0
MTEXT
  5
18C43
330
18C3C
100
AcDbEntity
  8
寸法
 62
     7
 48
50.0
100
AcDbMText
 10
8177.311109817788
 20
8741.123139034712
 30
0.0
 40
120.0
 41
0.0
 71
     5
 72
     1
  1
\A1;4X420=1680
  7
STYLE1
 11
0.0000000000000001
 21
1.0
 31
0.0
 73
     1
 44
1.0
1001
ACAD
1000
MTEXTBEGIN
1070
    73
1070
     1
1070
    44
1040
1.0
1070
    74
1070
     0
1000
MTEXTEND
  0
POINT
  5
18C44
330
18C3C
100
AcDbEntity
  8
DEFPOINTS
 62
     0
 48
50.0
100
AcDbPoint
 10
7629.896575106998
 20
9581.123139034721
 30
0.0
  0
POINT
  5
18C45
330
18C3C
100
AcDbEntity
  8
DEFPOINTS
 62
     0
 48
50.0
100
AcDbPoint
 10
7629.896575106974
 20
7901.123139034706
 30
0.0
  0
POINT
  5
18C46
330
18C3C
100
AcDbEntity
  8
DEFPOINTS
 62
     0
 48
50.0
100
AcDbPoint
 10
8277.322920841411
 20
7901.123139034706
 30
0.0
  0
ENDBLK
  5
18C47
330
18C3C
100
AcDbEntity
  8
0
 48
50.0
100
AcDbBlockEnd
  0
BLOCK
  5
18C49
330
18C48
100
AcDbEntity
  8
0
 48
50.0
100
AcDbBlockBegin
  2
*D13
 70
     1
 10
0.0
 20
0.0
 30
0.0
  3
*D13
  1

  0
LINE
  5
18C4A
330
18C48
100
AcDbEntity
  8
寸法
 62
     0
 48
50.0
370
    -2
100
AcDbLine
 10
4183.037591258377
 20
9136.123139034619
 30
0.0
 11
4115.083950562663
 21
8882.516699398941
 31
0.0
  0
LINE
  5
18C4B
330
18C48
100
AcDbEntity
  8
寸法
 62
     0
 48
50.0
370
    -2
100
AcDbLine
 10
5246.037591258307
 20
9136.123139034671
 30
0.0
 11
5178.08395056258
 21
8882.516699398941
 31
0.0
  0
LINE
  5
18C4C
330
18C48
100
AcDbEntity
  8
寸法
 62
     0
 48
50.0
370
    -2
100
AcDbLine
 10
4131.160902108532
 20
8942.516699398941
 30
0.0
 11
5194.160902108448
 21
8942.516699398941
 31
0.0
  0
INSERT
  5
18C4D
330
18C48
100
AcDbEntity
  8
寸法
 62
     0
 48
50.0
370
    -2
100
AcDbBlockReference
  2
_DOTSMALL
 10
4131.160902108532
 20
8942.516699398941
 30
0.0
 41
100.0
 42
100.0
 43
100.0
 50
180.0
  0
INSERT
  5
18C4E
330
18C48
100
AcDbEntity
  8
寸法
 62
     0
 48
50.0
370
    -2
100
AcDbBlockReference
  2
_DOTSMALL
 10
5194.160902108448
 20
8942.516699398941
 30
0.0
 41
100.0
 42
100.0
 43
100.0
  0
MTEXT
  5
18C4F
330
18C48
100
AcDbEntity
  8
寸法
 62
     7
 48
50.0
100
AcDbMText
 10
4658.986452655306
 20
9042.516699398941
 30
0.0
 40
120.0
 41
0.0
 71
     5
 72
     1
  1
\A1;1063
  7
STYLE1
 73
     1
 44
1.0
1001
ACAD
1000
MTEXTBEGIN
1070
    73
1070
     1
1070
    44
1040
1.0
1070
    74
1070
     0
1000
MTEXTEND
  0
POINT
  5
18C50
330
18C48
100
AcDbEntity
  8
DEFPOINTS
 62
     0
 48
50.0
100
AcDbPoint
 10
4188.396575106999
 20
9156.123139034617
 30
0.0
  0
POINT
  5
18C51
330
18C48
100
AcDbEntity
  8
DEFPOINTS
 62
     0
 48
50.0
100
AcDbPoint
 10
5251.396575106929
 20
9156.123139034672
 30
0.0
  0
POINT
  5
18C52
330
18C48
100
AcDbEntity
  8
DEFPOINTS
 62
     0
 48
50.0
100
AcDbPoint
 10
5194.160902108448
 20
8942.516699398941
 30
0.0
  0
ENDBLK
  5
18C53
330
18C48
100
AcDbEntity
  8
0
 48
50.0
100
AcDbBlockEnd
  0
BLOCK
  5
18C55
330
18C54
100
AcDbEntity
  8
0
 48
50.0
100
AcDbBlockBegin
  2
*D14
 70
     1
 10
0.0
 20
0.0
 30
0.0
  3
*D14
  1

  0
LINE
  5
18C56
330
18C54
100
AcDbEntity
  8
寸法
 62
     0
 48
50.0
370
    -2
100
AcDbLine
 10
5274.037591258307
 20
9136.123139034669
 30
0.0
 11
5206.08395056258
 21
8882.516699398941
 31
0.0
  0
LINE
  5
18C57
330
18C54
100
AcDbEntity
  8
寸法
 62
     0
 48
50.0
370
    -2
100
AcDbLine
 10
6505.037591258377
 20
9136.123139034662
 30
0.0
 11
6437.083950562653
 21
8882.516699398941
 31
0.0
  0
LINE
  5
18C58
330
18C54
100
AcDbEntity
  8
寸法
 62
     0
 48
50.0
370
    -2
100
AcDbLine
 10
5222.160902108448
 20
8942.516699398941
 30
0.0
 11
6453.16090210852
 21
8942.516699398941
 31
0.0
  0
INSERT
  5
18C59
330
18C54
100
AcDbEntity
  8
寸法
 62
     0
 48
50.0
370
    -2
100
AcDbBlockReference
  2
_DOTSMALL
 10
5222.160902108448
 20
8942.516699398941
 30
0.0
 41
100.0
 42
100.0
 43
100.0
 50
180.0
  0
INSERT
  5
18C5A
330
18C54
100
AcDbEntity
  8
寸法
 62
     0
 48
50.0
370
    -2
100
AcDbBlockReference
  2
_DOTSMALL
 10
6453.16090210852
 20
8942.516699398941
 30
0.0
 41
100.0
 42
100.0
 43
100.0
  0
MTEXT
  5
18C5B
330
18C54
100
AcDbEntity
  8
寸法
 62
     7
 48
50.0
100
AcDbMText
 10
6081.244808320626
 20
9042.528510422561
 30
0.0
 40
120.0
 41
0.0
 71
     5
 72
     1
  1
\A1;1231
  7
STYLE1
 73
     1
 44
1.0
1001
ACAD
1000
MTEXTBEGIN
1070
    73
1070
     1
1070
    44
1040
1.0
1070
    74
1070
     0
1000
MTEXTEND
  0
POINT
  5
18C5C
330
18C54
100
AcDbEntity
  8
DEFPOINTS
 62
     0
 48
50.0
100
AcDbPoint
 10
5279.396575106929
 20
9156.123139034669
 30
0.0
  0
POINT
  5
18C5D
330
18C54
100
AcDbEntity
  8
DEFPOINTS
 62
     0
 48
50.0
100
AcDbPoint
 10
6510.396575106999
 20
9156.123139034662
 30
0.0
  0
POINT
  5
18C5E
330
18C54
100
AcDbEntity
  8
DEFPOINTS
 62
     0
 48
50.0
100
AcDbPoint
 10
6453.16090210852
 20
8942.516699398941
 30
0.0
  0
ENDBLK
  5
18C5F
330
18C54
100
AcDbEntity
  8
0
 48
50.0
100
AcDbBlockEnd
  0
BLOCK
  5
18C61
330
18C60
100
AcDbEntity
  8
0
 48
50.0
100
AcDbBlockBegin
  2
*D15
 70
     1
 10
0.0
 20
0.0
 30
0.0
  3
*D15
  1

  0
LINE
  5
18C62
330
18C60
100
AcDbEntity
  8
寸法
 62
     0
 48
50.0
370
    -2
100
AcDbLine
 10
5065.896575106966
 20
7749.123139034579
 30
0.0
 11
5065.896575106966
 21
7099.952920982538
 31
0.0
  0
LINE
  5
18C63
330
18C60
100
AcDbEntity
  8
寸法
 62
     0
 48
50.0
370
    -2
100
AcDbLine
 10
6331.896575106966
 20
7749.123139034579
 30
0.0
 11
6331.896575106966
 21
7099.952920982538
 31
0.0
  0
LINE
  5
18C64
330
18C60
100
AcDbEntity
  8
寸法
 62
     0
 48
50.0
370
    -2
100
AcDbLine
 10
5065.896575106966
 20
7159.952920982537
 30
0.0
 11
6331.896575106966
 21
7159.952920982537
 31
0.0
  0
INSERT
  5
18C65
330
18C60
100
AcDbEntity
  8
寸法
 62
     0
 48
50.0
370
    -2
100
AcDbBlockReference
  2
_DOTSMALL
 10
5065.896575106966
 20
7159.952920982537
 30
0.0
 41
100.0
 42
100.0
 43
100.0
 50
180.0
  0
INSERT
  5
18C66
330
18C60
100
AcDbEntity
  8
寸法
 62
     0
 48
50.0
370
    -2
100
AcDbBlockReference
  2
_DOTSMALL
 10
6331.896575106966
 20
7159.952920982537
 30
0.0
 41
100.0
 42
100.0
 43
100.0
  0
MTEXT
  5
18C67
330
18C60
100
AcDbEntity
  8
寸法
 62
     7
 48
50.0
100
AcDbMText
 10
5711.986008735934
 20
7359.964732006159
 30
0.0
 40
120.0
 41
0.0
 71
     5
 72
     1
  1
\A1;有効開口部間口\P1266
  7
STYLE1
 73
     1
 44
1.0
1001
ACAD
1000
MTEXTBEGIN
1070
    73
1070
     1
1070
    44
1040
1.0
1070
    74
1070
     0
1000
MTEXTEND
  0
POINT
  5
18C68
330
18C60
100
AcDbEntity
  8
DEFPOINTS
 62
     0
 48
50.0
100
AcDbPoint
 10
5065.896575106966
 20
7769.123139034579
 30
0.0
  0
POINT
  5
18C69
330
18C60
100
AcDbEntity
  8
DEFPOINTS
 62
     0
 48
50.0
100
AcDbPoint
 10
6331.896575106966
 20
7769.123139034579
 30
0.0
  0
POINT
  5
18C6A
330
18C60
100
AcDbEntity
  8
DEFPOINTS
 62
     0
 48
50.0
100
AcDbPoint
 10
6331.896575106966
 20
7159.952920982537
 30
0.0
  0
ENDBLK
  5
18C6B
330
18C60
100
AcDbEntity
  8
0
 48
50.0
100
AcDbBlockEnd
  0
BLOCK
  5
18C6D
330
18C6C
100
AcDbEntity
  8
0
 48
50.0
100
AcDbBlockBegin
  2
*D16
 70
     1
 10
0.0
 20
0.0
 30
0.0
  3
*D16
  1

  0
LINE
  5
18C6E
330
18C6C
100
AcDbEntity
  8
寸法
 62
     0
 48
50.0
370
    -2
100
AcDbLine
 10
7200.896575106966
 20
7846.123139034578
 30
0.0
 11
7457.192158500191
 21
7846.123139034578
 31
0.0
  0
LINE
  5
18C6F
330
18C6C
100
AcDbEntity
  8
寸法
 62
     0
 48
50.0
370
    -2
100
AcDbLine
 10
7199.896575106966
 20
7769.123139034579
 30
0.0
 11
7457.192158500191
 21
7769.123139034579
 31
0.0
  0
LINE
  5
18C70
330
18C6C
100
AcDbEntity
  8
寸法
 62
     0
 48
50.0
370
    -2
100
AcDbLine
 10
7417.192158500192
 20
7866.123139034579
 30
0.0
 11
7417.192158500192
 21
7886.123139034578
 31
0.0
  0
LINE
  5
18C71
330
18C6C
100
AcDbEntity
  8
寸法
 62
     0
 48
50.0
370
    -2
100
AcDbLine
 10
7417.192158500192
 20
7749.123139034579
 30
0.0
 11
7417.192158500192
 21
7533.123139034573
 31
0.0
  0
LINE
  5
18C72
330
18C6C
100
AcDbEntity
  8
寸法
 62
     0
 48
50.0
370
    -2
100
AcDbLine
 10
7417.192158500192
 20
7846.123139034578
 30
0.0
 11
7417.192158500192
 21
7769.123139034579
 31
0.0
  0
INSERT
  5
18C73
330
18C6C
100
AcDbEntity
  8
寸法
 62
     0
 48
50.0
370
    -2
100
AcDbBlockReference
  2
_DOT
 10
7417.192158500192
 20
7846.123139034578
 30
0.0
 41
20.0
 42
20.0
 43
20.0
 50
270.0
  0
INSERT
  5
18C74
330
18C6C
100
AcDbEntity
  8
寸法
 62
     0
 48
50.0
370
    -2
100
AcDbBlockReference
  2
_DOT
 10
7417.192158500192
 20
7769.123139034579
 30
0.0
 41
20.0
 42
20.0
 43
20.0
 50
90.0
  0
MTEXT
  5
18C75
330
18C6C
100
AcDbEntity
  8
寸法
 62
     7
 48
50.0
100
AcDbMText
 10
7325.192158500191
 20
7631.123139034575
 30
0.0
 40
120.0
 41
0.0
 71
     5
 72
     1
  1
\A1;77
  7
STYLE1
 11
0.0000000000000001
 21
1.0
 31
0.0
 73
     1
 44
1.0
1001
ACAD
1000
MTEXTBEGIN
1070
    73
1070
     1
1070
    44
1040
1.0
1070
    74
1070
     0
1000
MTEXTEND
  0
POINT
  5
18C76
330
18C6C
100
AcDbEntity
  8
DEFPOINTS
 62
     0
 48
50.0
100
AcDbPoint
 10
7180.896575106967
 20
7846.123139034578
 30
0.0
  0
POINT
  5
18C77
330
18C6C
100
AcDbEntity
  8
DEFPOINTS
 62
     0
 48
50.0
100
AcDbPoint
 10
7179.896575106965
 20
7769.123139034579
 30
0.0
  0
POINT
  5
18C78
330
18C6C
100
AcDbEntity
  8
DEFPOINTS
 62
     0
 48
50.0
100
AcDbPoint
 10
7417.192158500192
 20
7769.123139034579
 30
0.0
  0
ENDBLK
  5
18C79
330
18C6C
100
AcDbEntity
  8
0
 48
50.0
100
AcDbBlockEnd
  0
BLOCK
  5
18DA0
330
18C7A
100
AcDbEntity
  8
0
 48
50.0
100
AcDbBlockBegin
  2
A$C3B1A506B
 70
     0
 10
0.0
 20
0.0
 30
0.0
  3
A$C3B1A506B
  1

  0
MTEXT
  5
18C7B
330
18C7A
100
AcDbEntity
  8
寸法
 62
     7
 48
50.0
100
AcDbMText
 10
3342.250386887194
 20
2778.329429134012
 30
0.0
 40
96.0
 41
0.0
 71
     5
 72
     1
  1
棚 2段
  7
STYLE1
 73
     1
 44
1.0
1001
ACAD
1000
MTEXTBEGIN
1070
    73
1070
     1
1070
    44
1040
1.0
1070
    74
1070
     0
1000
MTEXTEND
  0
MTEXT
  5
18C7C
330
18C7A
100
AcDbEntity
  8
寸法
 62
     7
 48
50.0
100
AcDbMText
 10
2167.25038688716
 20
2778.329429133986
 30
0.0
 40
96.0
 41
0.0
 71
     5
 72
     1
  1
棚 2段
  7
STYLE1
 73
     1
 44
1.0
1001
ACAD
1000
MTEXTBEGIN
1070
    73
1070
     1
1070
    44
1040
1.0
1070
    74
1070
     0
1000
MTEXTEND
  0
MTEXT
  5
18C7D
330
18C7A
100
AcDbEntity
  8
寸法
 62
     7
 48
50.0
100
AcDbMText
 10
992.2503868871608
 20
2778.329429133935
 30
0.0
 40
96.0
 41
0.0
 71
     5
 72
     1
  1
棚 2段
  7
STYLE1
 73
     1
 44
1.0
1001
ACAD
1000
MTEXTBEGIN
1070
    73
1070
     1
1070
    44
1040
1.0
1070
    74
1070
     0
1000
MTEXTEND
  0
LINE
  5
18C7E
330
18C7A
100
AcDbEntity
  8
細線
 48
50.0
100
AcDbLine
 10
2771.970589276527
 20
1368.994384123192
 30
0.0
 11
3398.970589276523
 21
1368.994384123192
 31
0.0
  0
LINE
  5
18C7F
330
18C7A
100
AcDbEntity
  8
細線
 48
50.0
100
AcDbLine
 10
2117.970593930113
 20
1335.285615569113
 30
0.0
 11
3398.970589276523
 21
1335.285615569113
 31
0.0
  0
LINE
  5
18C80
330
18C7A
100
AcDbEntity
  8
細線
 48
50.0
100
AcDbLine
 10
2076.970593930115
 20
1364.690523565368
 30
0.0
 11
1322.970589276523
 21
1364.690523565367
 31
0.0
  0
LINE
  5
18C81
330
18C7A
100
AcDbEntity
  8
細線
100
AcDbLine
 10
3170.720579860066
 20
1388.494284088199
 30
0.0
 11
3173.052119381877
 21
1393.494286728162
 31
0.0
  0
LINE
  5
18C82
330
18C7A
100
AcDbEntity
  8
細線
100
AcDbLine
 10
3240.720589276525
 20
1388.494269174465
 30
0.0
 11
3238.389042800336
 21
1393.494286728144
 31
0.0
  0
LINE
  5
18C83
330
18C7A
100
AcDbEntity
  8
細線
100
AcDbLine
 10
3238.389042800336
 20
1393.494286728144
 30
0.0
 11
3173.052119381862
 21
1393.494286728133
 31
0.0
  0
LINE
  5
18C84
330
18C7A
100
AcDbEntity
  8
細線
100
AcDbLine
 10
3098.389042800336
 20
1393.494286728144
 30
0.0
 11
3033.052119381862
 21
1393.494286728133
 31
0.0
  0
LINE
  5
18C85
330
18C7A
100
AcDbEntity
  8
細線
100
AcDbLine
 10
3100.720589276523
 20
1388.494269174465
 30
0.0
 11
3098.389042800336
 21
1393.494286728144
 31
0.0
  0
LINE
  5
18C86
330
18C7A
100
AcDbEntity
  8
細線
100
AcDbLine
 10
3030.720579860066
 20
1388.494284088199
 30
0.0
 11
3033.052119381875
 21
1393.494286728162
 31
0.0
  0
LINE
  5
18C87
330
18C7A
100
AcDbEntity
  8
細線
100
AcDbLine
 10
2890.720589276525
 20
1388.494269174465
 30
0.0
 11
2893.052128798336
 21
1393.494271814428
 31
0.0
  0
LINE
  5
18C88
330
18C7A
100
AcDbEntity
  8
細線
100
AcDbLine
 10
2960.720598692984
 20
1388.494254260731
 30
0.0
 11
2958.389052216793
 21
1393.49427181441
 31
0.0
  0
LINE
  5
18C89
330
18C7A
100
AcDbEntity
  8
細線
100
AcDbLine
 10
2958.389052216795
 20
1393.49427181441
 30
0.0
 11
2893.052128798321
 21
1393.494271814399
 31
0.0
  0
LINE
  5
18C8A
330
18C7A
100
AcDbEntity
  8
細線
100
AcDbLine
 10
2667.139038146739
 20
1359.494298590735
 30
0.0
 11
2601.802114728263
 21
1359.494298590724
 31
0.0
  0
LINE
  5
18C8B
330
18C7A
100
AcDbEntity
  8
細線
100
AcDbLine
 10
2669.470584622926
 20
1354.494281037055
 30
0.0
 11
2667.139038146737
 21
1359.494298590735
 31
0.0
  0
LINE
  5
18C8C
330
18C7A
100
AcDbEntity
  8
細線
100
AcDbLine
 10
2599.470575206469
 20
1354.49429595079
 30
0.0
 11
2601.802114728278
 21
1359.494298590752
 31
0.0
  0
LINE
  5
18C8D
330
18C7A
100
AcDbEntity
  8
細線
 48
50.0
100
AcDbLine
 10
2440.853968524536
 20
1372.765132327548
 30
0.0
 11
2446.609486107205
 21
1354.494281037057
 31
0.0
  0
LINE
  5
18C8E
330
18C7A
100
AcDbEntity
  8
細線
 48
50.0
100
AcDbLine
 10
2429.925520044106
 20
1372.765132327546
 30
0.0
 11
2440.853968524536
 21
1372.765132327548
 31
0.0
  0
ARC
  5
18C8F
330
18C7A
100
AcDbEntity
  8
細線
 48
50.0
100
AcDbCircle
 10
2424.471163986787
 20
1374.265132327546
 30
0.0
 40
5.0
100
AcDbArc
 50
204.6243183520723
 51
335.3756816479278
  0
ARC
  5
18C90
330
18C7A
100
AcDbEntity
  8
細線
 48
50.0
100
AcDbCircle
 10
2429.925520044106
 20
1371.765132327546
 30
0.0
 40
1.0
100
AcDbArc
 50
90.0
 51
155.3756816479277
  0
ARC
  5
18C91
330
18C7A
100
AcDbEntity
  8
細線
 48
50.0
100
AcDbCircle
 10
2419.016807929469
 20
1371.765132327546
 30
0.0
 40
1.0
100
AcDbArc
 50
24.62431835207225
 51
90.0
  0
LINE
  5
18C92
330
18C7A
100
AcDbEntity
  8
細線
 48
50.0
100
AcDbLine
 10
2408.088359449037
 20
1372.765132327548
 30
0.0
 11
2419.016807929469
 21
1372.765132327546
 31
0.0
  0
LINE
  5
18C93
330
18C7A
100
AcDbEntity
  8
細線
 48
50.0
100
AcDbLine
 10
2402.33284186637
 20
1354.494281037054
 30
0.0
 11
2408.088359449037
 21
1372.765132327548
 31
0.0
  0
LINE
  5
18C94
330
18C7A
100
AcDbEntity
  8
細線
100
AcDbLine
 10
2458.070304175992
 20
1354.494278397076
 30
0.0
 11
2460.401843697802
 21
1359.494281037039
 31
0.0
  0
LINE
  5
18C95
330
18C7A
100
AcDbEntity
  8
細線
100
AcDbLine
 10
2528.070313592451
 20
1354.494263483342
 30
0.0
 11
2525.738767116262
 21
1359.494281037021
 31
0.0
  0
LINE
  5
18C96
330
18C7A
100
AcDbEntity
  8
細線
100
AcDbLine
 10
2525.738767116262
 20
1359.494281037021
 30
0.0
 11
2460.40184369779
 21
1359.49428103701
 31
0.0
  0
LINE
  5
18C97
330
18C7A
100
AcDbEntity
  8
細線
100
AcDbLine
 10
2387.139046332155
 20
1359.494281037021
 30
0.0
 11
2321.80212291368
 21
1359.49428103701
 31
0.0
  0
LINE
  5
18C98
330
18C7A
100
AcDbEntity
  8
細線
100
AcDbLine
 10
2389.470592808342
 20
1354.494263483342
 30
0.0
 11
2387.139046332153
 21
1359.494281037021
 31
0.0
  0
LINE
  5
18C99
330
18C7A
100
AcDbEntity
  8
細線
100
AcDbLine
 10
2319.470584622926
 20
1354.494281037054
 30
0.0
 11
2321.802122913694
 21
1359.494281037039
 31
0.0
  0
LINE
  5
18C9A
330
18C7A
100
AcDbEntity
  8
細線
100
AcDbLine
 10
2179.47061994182
 20
1354.494289224422
 30
0.0
 11
2181.802158232587
 21
1359.494289224407
 31
0.0
  0
LINE
  5
18C9B
330
18C7A
100
AcDbEntity
  8
細線
100
AcDbLine
 10
2249.470628127236
 20
1354.49427167071
 30
0.0
 11
2247.139081651047
 21
1359.494289224389
 31
0.0
  0
LINE
  5
18C9C
330
18C7A
100
AcDbEntity
  8
細線
100
AcDbLine
 10
2247.139081651047
 20
1359.494289224389
 30
0.0
 11
2181.802158232573
 21
1359.494289224378
 31
0.0
  0
LINE
  5
18C9D
330
18C7A
100
AcDbEntity
  8
細線
100
AcDbLine
 10
1807.970585744697
 20
1320.494460905133
 30
0.0
 11
1810.302124035464
 21
1325.494460905118
 31
0.0
  0
LINE
  5
18C9E
330
18C7A
100
AcDbEntity
  8
細線
100
AcDbLine
 10
1877.970593930113
 20
1320.494443351421
 30
0.0
 11
1875.639047453926
 21
1325.4944609051
 31
0.0
  0
LINE
  5
18C9F
330
18C7A
100
AcDbEntity
  8
細線
100
AcDbLine
 10
1875.639047453926
 20
1325.4944609051
 30
0.0
 11
1810.302124035452
 21
1325.494460905089
 31
0.0
  0
LINE
  5
18CA0
330
18C7A
100
AcDbEntity
  8
細線
100
AcDbLine
 10
2015.639047453926
 20
1325.4944609051
 30
0.0
 11
1950.302124035452
 21
1325.494460905089
 31
0.0
  0
LINE
  5
18CA1
330
18C7A
100
AcDbEntity
  8
細線
100
AcDbLine
 10
2017.970593930113
 20
1320.494443351421
 30
0.0
 11
2015.639047453924
 21
1325.4944609051
 31
0.0
  0
LINE
  5
18CA2
330
18C7A
100
AcDbEntity
  8
細線
100
AcDbLine
 10
1947.970585744697
 20
1320.494460905133
 30
0.0
 11
1950.302124035465
 21
1325.494460905118
 31
0.0
  0
LINE
  5
18CA3
330
18C7A
100
AcDbEntity
  8
細線
100
AcDbLine
 10
1735.639047453926
 20
1325.494460905098
 30
0.0
 11
1670.302124035454
 21
1325.494460905087
 31
0.0
  0
LINE
  5
18CA4
330
18C7A
100
AcDbEntity
  8
細線
100
AcDbLine
 10
1737.970593930113
 20
1320.494443351419
 30
0.0
 11
1735.639047453926
 21
1325.494460905098
 31
0.0
  0
LINE
  5
18CA5
330
18C7A
100
AcDbEntity
  8
細線
100
AcDbLine
 10
1667.970585744697
 20
1320.494460905131
 30
0.0
 11
1670.302124035465
 21
1325.494460905116
 31
0.0
  0
LINE
  5
18CA6
330
18C7A
100
AcDbEntity
  8
細線
100
AcDbLine
 10
1527.970593930113
 20
1320.494460905133
 30
0.0
 11
1530.302132220881
 21
1325.494460905118
 31
0.0
  0
LINE
  5
18CA7
330
18C7A
100
AcDbEntity
  8
細線
100
AcDbLine
 10
1597.970602115529
 20
1320.494443351421
 30
0.0
 11
1595.639055639342
 21
1325.4944609051
 31
0.0
  0
LINE
  5
18CA8
330
18C7A
100
AcDbEntity
  8
細線
100
AcDbLine
 10
1595.639055639342
 20
1325.4944609051
 30
0.0
 11
1530.302132220869
 21
1325.494460905089
 31
0.0
  0
ARC
  5
18CA9
330
18C7A
100
AcDbEntity
  8
部品1
 48
0.01
100
AcDbCircle
 10
1483.470482677778
 20
1319.493338720063
 30
0.0
 40
0.5
100
AcDbArc
 50
270.0
 51
0.0
  0
LINE
  5
18CAA
330
18C7A
100
AcDbEntity
  8
部品1
 48
0.01
100
AcDbLine
 10
1483.970482677778
 20
1320.493338720063
 30
0.0
 11
1483.970482677778
 21
1319.493338720063
 31
0.0
  0
LINE
  5
18CAB
330
18C7A
100
AcDbEntity
  8
部品1
 48
0.01
100
AcDbLine
 10
1483.970482677778
 20
1320.493338720063
 30
0.0
 11
1483.970482677778
 21
1319.493338720063
 31
0.0
  0
LINE
  5
18CAC
330
18C7A
100
AcDbEntity
  8
部品1
 48
0.01
100
AcDbLine
 10
1483.470482677778
 20
1318.993338720063
 30
0.0
 11
1476.857977247713
 21
1318.993338720062
 31
0.0
  0
ARC
  5
18CAD
330
18C7A
100
AcDbEntity
  8
部品1
100
AcDbCircle
 10
1476.926326800494
 20
1319.993338720062
 30
0.0
 40
1.0
100
AcDbArc
 50
160.5287793655865
 51
270.0
  0
ARC
  5
18CAE
330
18C7A
100
AcDbEntity
  8
部品1
100
AcDbCircle
 10
1451.470482677778
 20
1328.993338720062
 30
0.0
 40
26.0
100
AcDbArc
 50
340.5287793655865
 51
0.0
  0
LINE
  5
18CAF
330
18C7A
100
AcDbEntity
  8
部品1
100
AcDbLine
 10
1477.470482677778
 20
1328.993338720062
 30
0.0
 11
1477.470482677778
 21
1333.993338720061
 31
0.0
  0
ARC
  5
18CB0
330
18C7A
100
AcDbEntity
  8
部品1
 48
0.01
100
AcDbCircle
 10
1475.470482677778
 20
1333.993338720061
 30
0.0
 40
2.0
100
AcDbArc
 50
0.0
 51
90.0
  0
ARC
  5
18CB1
330
18C7A
100
AcDbEntity
  8
部品1
100
AcDbCircle
 10
1473.862091052968
 20
1332.993338720062
 30
0.0
 40
3.0
100
AcDbArc
 50
90.0
 51
141.6069559808035
  0
LINE
  5
18CB2
330
18C7A
100
AcDbEntity
  8
部品1
 48
0.01
100
AcDbLine
 10
1475.470482677778
 20
1335.993338720062
 30
0.0
 11
1473.862091052968
 21
1335.993338720062
 31
0.0
  0
ARC
  5
18CB3
330
18C7A
100
AcDbEntity
  8
部品1
100
AcDbCircle
 10
1455.399768463507
 20
1332.293338720065
 30
0.0
 40
3.0
100
AcDbArc
 50
254.0576313943215
 51
270.0
  0
ARC
  5
18CB4
330
18C7A
100
AcDbEntity
  8
部品1
100
AcDbCircle
 10
1462.541196892049
 20
1332.293338720065
 30
0.0
 40
3.0
100
AcDbArc
 50
270.0
 51
285.9423686056786
  0
LINE
  5
18CB5
330
18C7A
100
AcDbEntity
  8
部品1
100
AcDbLine
 10
1462.541196892049
 20
1329.293338720064
 30
0.0
 11
1455.399768463507
 21
1329.293338720064
 31
0.0
  0
ARC
  5
18CB6
330
18C7A
100
AcDbEntity
  8
部品1
100
AcDbCircle
 10
1458.970482677778
 20
1344.793338720065
 30
0.0
 40
16.0
100
AcDbArc
 50
285.9423686056786
 51
321.6069559808035
  0
LINE
  5
18CB7
330
18C7A
100
AcDbEntity
  8
部品1
 48
0.01
100
AcDbLine
 10
1442.470482677778
 20
1335.993338720062
 30
0.0
 11
1444.078874302588
 21
1335.993338720062
 31
0.0
  0
ARC
  5
18CB8
330
18C7A
100
AcDbEntity
  8
部品1
100
AcDbCircle
 10
1444.078874302588
 20
1332.993338720062
 30
0.0
 40
3.0
100
AcDbArc
 50
38.39304401919648
 51
90.0
  0
ARC
  5
18CB9
330
18C7A
100
AcDbEntity
  8
部品1
100
AcDbCircle
 10
1458.970482677778
 20
1344.793338720065
 30
0.0
 40
16.0
100
AcDbArc
 50
218.3930440191965
 51
254.0576313943215
  0
LINE
  5
18CBA
330
18C7A
100
AcDbEntity
  8
部品1
100
AcDbLine
 10
1440.470482677778
 20
1328.993338720062
 30
0.0
 11
1440.470482677778
 21
1333.993338720061
 31
0.0
  0
ARC
  5
18CBB
330
18C7A
100
AcDbEntity
  8
部品1
 48
0.01
100
AcDbCircle
 10
1442.470482677778
 20
1333.993338720061
 30
0.0
 40
2.0
100
AcDbArc
 50
90.0
 51
180.0
  0
ARC
  5
18CBC
330
18C7A
100
AcDbEntity
  8
部品1
100
AcDbCircle
 10
1466.470482677778
 20
1328.993338720062
 30
0.0
 40
26.0
100
AcDbArc
 50
180.0
 51
199.4712206344134
  0
ARC
  5
18CBD
330
18C7A
100
AcDbEntity
  8
部品1
 48
0.01
100
AcDbCircle
 10
1434.470482677778
 20
1319.493338720063
 30
0.0
 40
0.5
100
AcDbArc
 50
180.0
 51
270.0
  0
LINE
  5
18CBE
330
18C7A
100
AcDbEntity
  8
部品1
 48
0.01
100
AcDbLine
 10
1434.470482677778
 20
1318.993338720063
 30
0.0
 11
1441.014638555061
 21
1318.993338720062
 31
0.0
  0
LINE
  5
18CBF
330
18C7A
100
AcDbEntity
  8
部品1
 48
0.01
100
AcDbLine
 10
1433.970482677778
 20
1320.493338720063
 30
0.0
 11
1433.970482677778
 21
1319.493338720063
 31
0.0
  0
ARC
  5
18CC0
330
18C7A
100
AcDbEntity
  8
部品1
100
AcDbCircle
 10
1441.014638555061
 20
1319.993338720062
 30
0.0
 40
1.0
100
AcDbArc
 50
270.0
 51
19.47122063441346
  0
LINE
  5
18CC1
330
18C7A
100
AcDbEntity
  8
細線
100
AcDbLine
 10
1479.470482677785
 20
1338.493338720065
 30
0.0
 11
1438.470482677785
 21
1338.493338720058
 31
0.0
  0
LINE
  5
18CC2
330
18C7A
100
AcDbEntity
  8
細線
100
AcDbLine
 10
1438.470482677785
 20
1338.493338720058
 30
0.0
 11
1438.470482677785
 21
1320.49333872004
 31
0.0
  0
LINE
  5
18CC3
330
18C7A
100
AcDbEntity
  8
細線
100
AcDbLine
 10
1479.470482677785
 20
1338.493338720065
 30
0.0
 11
1479.470482677785
 21
1320.49333872004
 31
0.0
  0
LINE
  5
18CC4
330
18C7A
100
AcDbEntity
  8
細線
100
AcDbLine
 10
1322.970589276523
 20
1324.494269174465
 30
0.0
 11
1322.970589276523
 21
1320.494269174513
 31
0.0
  0
LINE
  5
18CC5
330
18C7A
100
AcDbEntity
  8
寸法
 48
50.0
100
AcDbLine
 10
1746.17359555837
 20
1170.531020743327
 30
0.0
 11
1694.767587648266
 21
1170.531020743327
 31
0.0
  0
LINE
  5
18CC6
330
18C7A
100
AcDbEntity
  8
寸法
 48
50.0
100
AcDbLine
 10
1694.767587648266
 20
1170.531020743327
 30
0.0
 11
1694.767587648266
 21
1201.841179395494
 31
0.0
  0
LINE
  5
18CC7
330
18C7A
100
AcDbEntity
  8
寸法
 48
50.0
100
AcDbLine
 10
1694.767587648266
 20
1201.841179395494
 30
0.0
 11
1665.006255656843
 21
1201.841179395494
 31
0.0
  0
LINE
  5
18CC8
330
18C7A
100
AcDbEntity
  8
寸法
 48
50.0
100
AcDbLine
 10
1665.006255656843
 20
1201.841179395494
 30
0.0
 11
1720.470591603318
 21
1239.420630324105
 31
0.0
  0
LINE
  5
18CC9
330
18C7A
100
AcDbEntity
  8
寸法
 48
50.0
100
AcDbLine
 10
1775.934927549793
 20
1201.841179395494
 30
0.0
 11
1720.470591603318
 21
1239.420630324105
 31
0.0
  0
LINE
  5
18CCA
330
18C7A
100
AcDbEntity
  8
寸法
 48
50.0
100
AcDbLine
 10
1746.17359555837
 20
1201.841179395494
 30
0.0
 11
1775.934927549793
 21
1201.841179395494
 31
0.0
  0
LINE
  5
18CCB
330
18C7A
100
AcDbEntity
  8
寸法
 48
50.0
100
AcDbLine
 10
1746.17359555837
 20
1170.531020743327
 30
0.0
 11
1746.17359555837
 21
1201.841179395494
 31
0.0
  0
LINE
  5
18CCC
330
18C7A
100
AcDbEntity
  8
寸法
 48
50.0
100
AcDbLine
 10
1694.767587648266
 20
1170.531020743327
 30
0.0
 11
1746.17359555837
 21
1170.531020743327
 31
0.0
  0
LINE
  5
18CCD
330
18C7A
100
AcDbEntity
  8
寸法
 48
50.0
100
AcDbLine
 10
2025.339129835225
 20
1227.676611498152
 30
0.0
 11
2025.339129835225
 21
1174.01297691636
 31
0.0
  0
LINE
  5
18CCE
330
18C7A
100
AcDbEntity
  8
寸法
 48
50.0
100
AcDbLine
 10
2114.623348430647
 20
1203.752977228664
 30
0.0
 11
2025.339129835225
 21
1227.676611498152
 31
0.0
  0
LINE
  5
18CCF
330
18C7A
100
AcDbEntity
  8
寸法
 48
50.0
100
AcDbLine
 10
1895.471408254923
 20
1203.752977228664
 30
0.0
 11
2114.623348430647
 21
1203.752977228664
 31
0.0
  0
DIMENSION
  5
18CD0
330
18C7A
100
AcDbEntity
  8
寸法
 48
50.0
100
AcDbDimension
  2
*D15
 10
2588.970589276523
 20
706.3240511224249
 30
0.0
 11
1969.060022905491
 21
706.3240511224249
 31
0.0
 12
-3742.925985830444
 22
-6453.628869860112
 32
0.0
 70
   128
  1
有効開口部間口\P<>
 71
     5
 42
1266.0
  3
INABA_S40G
100
AcDbAlignedDimension
 13
1322.970589276523
 23
1315.494269174465
 33
0.0
 14
2588.970589276523
 24
1315.494269174465
 34
0.0
100
AcDbRotatedDimension
1001
ACAD
1000
DSTYLE
1002
{
1070
   341
1005
0
1002
}
  0
LINE
  5
18CD1
330
18C7A
100
AcDbEntity
  8
部品1
100
AcDbLine
 10
3409.970589276524
 20
1392.494269174465
 30
0.0
 11
3437.970589276523
 21
1392.494269174465
 31
0.0
  0
DIMENSION
  5
18CD2
330
18C7A
100
AcDbEntity
  8
寸法
100
AcDbDimension
  2
*D16
 10
3674.266172669749
 20
1315.494269174465
 30
0.0
 11
3674.266172669748
 21
1177.494269174462
 31
0.0
 12
-3742.925985830444
 22
-6453.628869860112
 32
0.0
 70
   128
 71
     5
 42
77.0
  3
INABA_S40
100
AcDbAlignedDimension
 13
3437.970589276523
 23
1392.494269174465
 33
0.0
 14
3436.970589276523
 24
1315.494269174465
 34
0.0
 50
90.0
100
AcDbRotatedDimension
1001
ACAD
1000
DSTYLE
1002
{
1070
    41
1040
0.5
1070
    44
1040
1.0
1070
   147
1040
0.8
1070
   271
1070
     2
1070
   272
1070
     2
1070
   289
1070
     3
1070
   340
1005
F706
1070
   343
1005
164B4
1070
   344
1005
164B4
1002
}
  0
LINE
  5
18CD3
330
18C7A
100
AcDbEntity
  8
部品1
100
AcDbLine
 10
3437.970589276523
 20
1315.494269174465
 30
0.0
 11
3437.970589276523
 21
1392.494269174465
 31
0.0
  0
LINE
  5
18CD4
330
18C7A
100
AcDbEntity
  8
部品1
100
AcDbLine
 10
3398.970589276523
 20
1388.494269174465
 30
0.0
 11
3409.970589276524
 21
1388.494269174465
 31
0.0
  0
LINE
  5
18CD5
330
18C7A
100
AcDbEntity
  8
部品1
100
AcDbLine
 10
3407.970589276523
 20
1324.494269174465
 30
0.0
 11
3407.970589276523
 21
1315.494269174465
 31
0.0
  0
LINE
  5
18CD6
330
18C7A
100
AcDbEntity
  8
部品1
100
AcDbLine
 10
3398.970589276523
 20
1324.494269174465
 30
0.0
 11
3407.970589276523
 21
1324.494269174465
 31
0.0
  0
LINE
  5
18CD7
330
18C7A
100
AcDbEntity
  8
部品1
100
AcDbLine
 10
3398.970589276523
 20
1388.494269174465
 30
0.0
 11
3398.970589276523
 21
1324.494269174465
 31
0.0
  0
LINE
  5
18CD8
330
18C7A
100
AcDbEntity
  8
部品1
100
AcDbLine
 10
3409.970589276524
 20
1419.494269174465
 30
0.0
 11
3409.970589276524
 21
1388.494269174465
 31
0.0
  0
LINE
  5
18CD9
330
18C7A
100
AcDbEntity
  8
部品1
100
AcDbLine
 10
1322.970589276523
 20
1388.494269174465
 30
0.0
 11
1311.970589276523
 21
1388.494269174465
 31
0.0
  0
LINE
  5
18CDA
330
18C7A
100
AcDbEntity
  8
部品1
100
AcDbLine
 10
1283.970589276523
 20
1392.494269174465
 30
0.0
 11
1311.970589276523
 21
1392.494269174465
 31
0.0
  0
LINE
  5
18CDB
330
18C7A
100
AcDbEntity
  8
部品1
100
AcDbLine
 10
1313.970589276523
 20
1324.494269174465
 30
0.0
 11
1313.970589276523
 21
1315.494269174465
 31
0.0
  0
LINE
  5
18CDC
330
18C7A
100
AcDbEntity
  8
部品1
100
AcDbLine
 10
1322.970589276523
 20
1324.494269174465
 30
0.0
 11
1313.970589276523
 21
1324.494269174465
 31
0.0
  0
LINE
  5
18CDD
330
18C7A
100
AcDbEntity
  8
部品1
100
AcDbLine
 10
1313.970589276523
 20
1315.494269174465
 30
0.0
 11
1283.970589276523
 21
1315.494269174465
 31
0.0
  0
LINE
  5
18CDE
330
18C7A
100
AcDbEntity
  8
部品1
100
AcDbLine
 10
1283.970589276523
 20
1315.494269174465
 30
0.0
 11
1283.970589276523
 21
1392.494269174465
 31
0.0
  0
LINE
  5
18CDF
330
18C7A
100
AcDbEntity
  8
部品1
100
AcDbLine
 10
1322.970589276523
 20
1388.494269174465
 30
0.0
 11
1322.970589276523
 21
1324.494269174465
 31
0.0
  0
LINE
  5
18CE0
330
18C7A
100
AcDbEntity
  8
部品1
100
AcDbLine
 10
1311.970589276523
 20
1419.494269174462
 30
0.0
 11
1311.970589276523
 21
1388.494269174465
 31
0.0
  0
LINE
  5
18CE1
330
18C7A
100
AcDbEntity
  8
部品1
100
AcDbLine
 10
1311.970589276523
 20
1419.494269174462
 30
0.0
 11
3409.970589276524
 21
1419.494269174465
 31
0.0
  0
LINE
  5
18CE2
330
18C7A
100
AcDbEntity
  8
部品1
100
AcDbLine
 10
3407.970589276523
 20
1315.494269174465
 30
0.0
 11
3437.970589276523
 21
1315.494269174465
 31
0.0
  0
LINE
  5
18CE3
330
18C7A
100
AcDbEntity
  8
部品1
100
AcDbLine
 10
1313.970589276523
 20
1315.494269174465
 30
0.0
 11
3410.970589276523
 21
1315.494269174465
 31
0.0
  0
LINE
  5
18CE4
330
18C7A
100
AcDbEntity
  8
細線
  6
Continuous
 62
     5
100
AcDbLine
 10
2689.970589276527
 20
1354.494269174462
 30
0.0
 11
2689.970589276527
 21
1354.494269174462
 31
0.0
  0
LINE
  5
18CE5
330
18C7A
100
AcDbEntity
  8
細線
  6
Continuous
 62
     5
100
AcDbLine
 10
2682.470589276527
 20
1354.494269174462
 30
0.0
 11
2682.470589276527
 21
1354.494269174462
 31
0.0
  0
LINE
  5
18CE6
330
18C7A
100
AcDbEntity
  8
細線
  6
Continuous
 62
     5
100
AcDbLine
 10
2676.470589276527
 20
1354.494269174462
 30
0.0
 11
2676.470589276527
 21
1354.494269174462
 31
0.0
  0
LINE
  5
18CE7
330
18C7A
100
AcDbEntity
  8
細線
  6
Continuous
 62
     5
100
AcDbLine
 10
2743.970589276527
 20
1373.494269174462
 30
0.0
 11
2743.970589276527
 21
1373.494269174462
 31
0.0
  0
LINE
  5
18CE8
330
18C7A
100
AcDbEntity
  8
細線
 48
50.0
100
AcDbLine
 10
1336.970593930116
 20
1341.094443351418
 30
0.0
 11
1336.970593930113
 21
1349.490593759059
 31
0.0
  0
LINE
  5
18CE9
330
18C7A
100
AcDbEntity
  8
細線
 48
50.0
100
AcDbLine
 10
1336.970593930113
 20
1349.490593759059
 30
0.0
 11
1322.970589276523
 21
1349.490593759057
 31
0.0
  0
LINE
  5
18CEA
330
18C7A
100
AcDbEntity
  8
細線
 48
50.0
100
AcDbLine
 10
2087.970593930113
 20
1337.644443351419
 30
0.0
 11
2087.970593930113
 21
1342.494443351421
 31
0.0
  0
LINE
  5
18CEB
330
18C7A
100
AcDbEntity
  8
細線
 48
50.0
100
AcDbLine
 10
2087.970593930113
 20
1342.494443351421
 30
0.0
 11
2102.970593930113
 21
1342.494443351421
 31
0.0
  0
LINE
  5
18CEC
330
18C7A
100
AcDbEntity
  8
細線
 48
50.0
100
AcDbLine
 10
2102.970593930113
 20
1342.494443351421
 30
0.0
 11
2102.970593930115
 21
1349.494443351419
 31
0.0
  0
LINE
  5
18CED
330
18C7A
100
AcDbEntity
  8
細線
 48
50.0
100
AcDbLine
 10
2102.970593930115
 20
1349.494443351419
 30
0.0
 11
2117.970593930113
 21
1349.494443351419
 31
0.0
  0
LINE
  5
18CEE
330
18C7A
100
AcDbEntity
  8
細線
 48
50.0
100
AcDbLine
 10
2117.970593930113
 20
1349.494443351419
 30
0.0
 11
2117.970593930113
 21
1320.494443351421
 31
0.0
  0
LINE
  5
18CEF
330
18C7A
100
AcDbEntity
  8
細線
 48
50.0
100
AcDbLine
 10
1313.970589276523
 20
1320.491777694889
 30
0.0
 11
1527.970593930113
 21
1320.494460905133
 31
0.0
  0
LINE
  5
18CF0
330
18C7A
100
AcDbEntity
  8
細線
 48
50.0
100
AcDbLine
 10
2017.970593930113
 20
1320.494443351421
 30
0.0
 11
2117.970593930113
 21
1320.494443351421
 31
0.0
  0
LINE
  5
18CF1
330
18C7A
100
AcDbEntity
  8
細線
 48
50.0
100
AcDbLine
 10
1737.970593930113
 20
1320.494443351419
 30
0.0
 11
1807.970593930113
 21
1320.494443351423
 31
0.0
  0
LINE
  5
18CF2
330
18C7A
100
AcDbEntity
  8
細線
 48
50.0
100
AcDbLine
 10
1750.832558942642
 20
1320.494443351419
 30
0.0
 11
1756.588076525309
 21
1338.765294641913
 31
0.0
  0
LINE
  5
18CF3
330
18C7A
100
AcDbEntity
  8
細線
 48
50.0
100
AcDbLine
 10
1756.588076525309
 20
1338.765294641913
 30
0.0
 11
1767.516525005743
 21
1338.765294641911
 31
0.0
  0
ARC
  5
18CF4
330
18C7A
100
AcDbEntity
  8
細線
 48
50.0
100
AcDbCircle
 10
1767.516525005743
 20
1337.765294641911
 30
0.0
 40
1.0
100
AcDbArc
 50
24.62431835207225
 51
90.0
  0
ARC
  5
18CF5
330
18C7A
100
AcDbEntity
  8
細線
 48
50.0
100
AcDbCircle
 10
1778.425237120377
 20
1337.765294641911
 30
0.0
 40
1.0
100
AcDbArc
 50
90.0
 51
155.3756816479277
  0
ARC
  5
18CF6
330
18C7A
100
AcDbEntity
  8
細線
 48
50.0
100
AcDbCircle
 10
1772.970881063058
 20
1340.265294641911
 30
0.0
 40
5.0
100
AcDbArc
 50
204.6243183520723
 51
335.3756816479278
  0
LINE
  5
18CF7
330
18C7A
100
AcDbEntity
  8
細線
 48
50.0
100
AcDbLine
 10
1778.425237120377
 20
1338.765294641911
 30
0.0
 11
1789.35368560081
 21
1338.765294641913
 31
0.0
  0
LINE
  5
18CF8
330
18C7A
100
AcDbEntity
  8
細線
 48
50.0
100
AcDbLine
 10
1789.35368560081
 20
1338.765294641913
 30
0.0
 11
1795.109203183478
 21
1320.494443351423
 31
0.0
  0
LINE
  5
18CF9
330
18C7A
100
AcDbEntity
  8
細線
 48
50.0
100
AcDbLine
 10
2087.970593930113
 20
1341.094443351419
 30
0.0
 11
1336.970593930116
 21
1341.094443351418
 31
0.0
  0
LINE
  5
18CFA
330
18C7A
100
AcDbEntity
  8
細線
 48
50.0
100
AcDbLine
 10
1947.970593930113
 20
1320.494443351421
 30
0.0
 11
1877.970593930113
 21
1320.494443351421
 31
0.0
  0
LINE
  5
18CFB
330
18C7A
100
AcDbEntity
  8
細線
100
AcDbLine
 10
1667.970593930113
 20
1320.494443351421
 30
0.0
 11
1597.970602115529
 21
1320.494443351421
 31
0.0
  0
LINE
  5
18CFC
330
18C7A
100
AcDbEntity
  8
細線
 48
50.0
100
AcDbLine
 10
2741.970584622936
 20
1375.094487209288
 30
0.0
 11
2106.970593930113
 21
1375.094487209284
 31
0.0
  0
LINE
  5
18CFD
330
18C7A
100
AcDbEntity
  8
細線
 48
50.0
100
AcDbLine
 10
2106.970593930113
 20
1371.990637616925
 30
0.0
 11
2106.970593930113
 21
1376.490637616925
 31
0.0
  0
LINE
  5
18CFE
330
18C7A
100
AcDbEntity
  8
細線
 48
50.0
100
AcDbLine
 10
2106.970593930113
 20
1376.490637616925
 30
0.0
 11
2091.970593930113
 21
1376.490637616925
 31
0.0
  0
LINE
  5
18CFF
330
18C7A
100
AcDbEntity
  8
細線
 48
50.0
100
AcDbLine
 10
2091.970593930113
 20
1376.490637616925
 30
0.0
 11
2091.970593930113
 21
1383.490637616927
 31
0.0
  0
LINE
  5
18D00
330
18C7A
100
AcDbEntity
  8
細線
 48
50.0
100
AcDbLine
 10
2091.970593930113
 20
1383.490637616927
 30
0.0
 11
2076.970593930115
 21
1383.490637616924
 31
0.0
  0
LINE
  5
18D01
330
18C7A
100
AcDbEntity
  8
細線
 48
50.0
100
AcDbLine
 10
2076.970593930115
 20
1383.490637616924
 30
0.0
 11
2076.970593930115
 21
1345.890409513813
 31
0.0
  0
LINE
  5
18D02
330
18C7A
100
AcDbEntity
  8
細線
 48
50.0
100
AcDbLine
 10
2076.970593930115
 20
1345.890409513813
 30
0.0
 11
2096.970601231289
 21
1345.890451063353
 31
0.0
  0
LINE
  5
18D03
330
18C7A
100
AcDbEntity
  8
細線
 48
50.0
100
AcDbLine
 10
2096.970556362348
 20
1354.493912699161
 30
0.0
 11
2096.970601231289
 21
1345.890451063353
 31
0.0
  0
LINE
  5
18D04
330
18C7A
100
AcDbEntity
  8
細線
 48
50.0
100
AcDbLine
 10
2741.970584622936
 20
1371.644487209287
 30
0.0
 11
2741.970584622936
 21
1376.494487209284
 31
0.0
  0
LINE
  5
18D05
330
18C7A
100
AcDbEntity
  8
細線
 48
50.0
100
AcDbLine
 10
2741.970584622936
 20
1376.494487209284
 30
0.0
 11
2756.970584622934
 21
1376.494487209285
 31
0.0
  0
LINE
  5
18D06
330
18C7A
100
AcDbEntity
  8
細線
 48
50.0
100
AcDbLine
 10
2756.970584622934
 20
1376.494487209285
 30
0.0
 11
2756.970596256909
 21
1383.494487209331
 31
0.0
  0
LINE
  5
18D07
330
18C7A
100
AcDbEntity
  8
細線
 48
50.0
100
AcDbLine
 10
2756.970596256909
 20
1383.494487209331
 30
0.0
 11
2771.970594427439
 21
1383.494487209329
 31
0.0
  0
LINE
  5
18D08
330
18C7A
100
AcDbEntity
  8
細線
 48
50.0
100
AcDbLine
 10
2771.970594427439
 20
1383.494487209329
 30
0.0
 11
2771.970584125617
 21
1354.494281037055
 31
0.0
  0
LINE
  5
18D09
330
18C7A
100
AcDbEntity
  8
細線
 48
50.0
100
AcDbLine
 10
2458.070304175992
 20
1354.494278397076
 30
0.0
 11
2389.470863838818
 21
1354.494283787084
 31
0.0
  0
LINE
  5
18D0A
330
18C7A
100
AcDbEntity
  8
細線
 48
50.0
100
AcDbLine
 10
2096.970556362348
 20
1354.493912699161
 30
0.0
 11
2108.203245717057
 21
1354.494095652309
 31
0.0
  0
ARC
  5
18D0B
330
18C7A
100
AcDbEntity
  8
細線
 48
50.0
100
AcDbCircle
 10
2114.785538024393
 20
1353.294259565922
 30
0.0
 40
1.8
100
AcDbArc
 50
270.0006665777295
 51
345.000555481349
  0
LINE
  5
18D0C
330
18C7A
100
AcDbEntity
  8
細線
 48
50.0
100
AcDbLine
 10
2116.771971470473
 20
1353.753100023201
 30
0.0
 11
2116.524209028273
 21
1352.828402141094
 31
0.0
  0
LINE
  5
18D0D
330
18C7A
100
AcDbEntity
  8
細線
 48
50.0
100
AcDbLine
 10
2114.785558965548
 20
1351.494259566043
 30
0.0
 11
2111.155631546781
 21
1351.494217335563
 31
0.0
  0
ARC
  5
18D0E
330
18C7A
100
AcDbEntity
  8
細線
 48
50.0
100
AcDbCircle
 10
2111.155610605627
 20
1353.29421733544
 30
0.0
 40
1.8
100
AcDbArc
 50
195.0010443049965
 51
270.0006665777295
  0
LINE
  5
18D0F
330
18C7A
100
AcDbEntity
  8
細線
 48
50.0
100
AcDbLine
 10
2109.169183113368
 20
1353.752932303007
 30
0.0
 11
2109.416952609882
 21
1352.828311364425
 31
0.0
  0
ARC
  5
18D10
330
18C7A
100
AcDbEntity
  8
細線
 48
50.0
100
AcDbCircle
 10
2108.203262004622
 20
1353.494095652444
 30
0.0
 40
1.0
100
AcDbArc
 50
15.00104430499651
 51
90.00093320877969
  0
LINE
  5
18D11
330
18C7A
100
AcDbEntity
  8
細線
 48
50.0
100
AcDbLine
 10
2117.737892825577
 20
1354.494290342714
 30
0.0
 11
2118.679652976481
 21
1354.494296916564
 31
0.0
  0
ARC
  5
18D12
330
18C7A
100
AcDbEntity
  8
細線
 48
50.0
100
AcDbCircle
 10
2117.737899805961
 20
1353.49429034274
 30
0.0
 40
1.0
100
AcDbArc
 50
90.0003999466794
 51
165.000555481349
  0
LINE
  5
18D13
330
18C7A
100
AcDbEntity
  8
細線
 48
50.0
100
AcDbLine
 10
2669.470584622926
 20
1354.494281037055
 30
0.0
 11
2771.970584125617
 21
1354.494281037055
 31
0.0
  0
LINE
  5
18D14
330
18C7A
100
AcDbEntity
  8
細線
 48
50.0
100
AcDbLine
 10
2179.47061994182
 20
1354.494289224422
 30
0.0
 11
2118.370558714898
 21
1354.494296916564
 31
0.0
  0
LINE
  5
18D15
330
18C7A
100
AcDbEntity
  8
細線
 48
50.0
100
AcDbLine
 10
2599.470584622926
 20
1354.494281037057
 30
0.0
 11
2529.470584622926
 21
1354.494281037055
 31
0.0
  0
LINE
  5
18D16
330
18C7A
100
AcDbEntity
  8
細線
 48
50.0
100
AcDbLine
 10
2319.470584622926
 20
1354.494281037054
 30
0.0
 11
2249.470567335051
 21
1354.494281037057
 31
0.0
  0
ARC
  5
18D17
330
18C7A
100
AcDbEntity
  8
細線
 48
50.0
100
AcDbCircle
 10
2756.170589276533
 20
1387.694269174466
 30
0.0
 40
0.8
100
AcDbArc
 50
359.9997333689499
 51
89.99986668437072
  0
ARC
  5
18D18
330
18C7A
100
AcDbEntity
  8
細線
 48
50.0
100
AcDbCircle
 10
2763.770596101631
 20
1387.694280343081
 30
0.0
 40
0.8
100
AcDbArc
 50
90.00014387753465
 51
179.9997333689498
  0
LINE
  5
18D19
330
18C7A
100
AcDbEntity
  8
細線
 48
50.0
100
AcDbLine
 10
2756.170591137969
 20
1388.494269174465
 30
0.0
 11
2750.970589276525
 21
1388.494269174465
 31
0.0
  0
ARC
  5
18D1A
330
18C7A
100
AcDbEntity
  8
細線
 48
50.0
100
AcDbCircle
 10
2757.670589276524
 20
1386.194269174464
 30
0.0
 40
0.7
100
AcDbArc
 50
180.0
 51
270.0
  0
ARC
  5
18D1B
330
18C7A
100
AcDbEntity
  8
細線
 48
50.0
100
AcDbCircle
 10
2762.270589276524
 20
1386.194269174464
 30
0.0
 40
0.7
100
AcDbArc
 50
270.0
 51
0.0
  0
LINE
  5
18D1C
330
18C7A
100
AcDbEntity
  8
細線
 48
50.0
100
AcDbLine
 10
2762.970589276525
 20
1386.194269174464
 30
0.0
 11
2762.970596101639
 21
1387.694284065954
 31
0.0
  0
LINE
  5
18D1D
330
18C7A
100
AcDbEntity
  8
細線
 48
50.0
100
AcDbLine
 10
2757.670589276524
 20
1385.494269174465
 30
0.0
 11
2762.270589276524
 21
1385.494269174465
 31
0.0
  0
LINE
  5
18D1E
330
18C7A
100
AcDbEntity
  8
細線
 48
50.0
100
AcDbLine
 10
2756.970589276525
 20
1387.694269174466
 30
0.0
 11
2756.970589276525
 21
1386.194269174464
 31
0.0
  0
LINE
  5
18D1F
330
18C7A
100
AcDbEntity
  8
細線
 48
50.0
100
AcDbLine
 10
3382.570589276527
 20
1418.494269174465
 30
0.0
 11
2745.970589276525
 21
1418.494269174463
 31
0.0
  0
LINE
  5
18D20
330
18C7A
100
AcDbEntity
  8
細線
 48
50.0
100
AcDbLine
 10
3408.470589276525
 20
1413.494269174467
 30
0.0
 11
3392.570589276527
 21
1413.494269174465
 31
0.0
  0
LINE
  5
18D21
330
18C7A
100
AcDbEntity
  8
細線
 48
50.0
100
AcDbLine
 10
3392.570589276526
 20
1413.494269174465
 30
0.0
 11
3382.570589276527
 21
1418.494269174465
 31
0.0
  0
LINE
  5
18D22
330
18C7A
100
AcDbEntity
  8
細線
100
AcDbLine
 10
2993.470589276525
 20
1388.494269174465
 30
0.0
 11
2993.470589276525
 21
1417.794269174464
 31
0.0
  0
LINE
  5
18D23
330
18C7A
100
AcDbEntity
  8
細線
100
AcDbLine
 10
2993.470589276525
 20
1417.794269174464
 30
0.0
 11
3013.470589276525
 21
1417.794269174464
 31
0.0
  0
LINE
  5
18D24
330
18C7A
100
AcDbEntity
  8
細線
100
AcDbLine
 10
3013.470589276525
 20
1388.494269174465
 30
0.0
 11
3013.470589276525
 21
1417.794269174464
 31
0.0
  0
LINE
  5
18D25
330
18C7A
100
AcDbEntity
  8
細線
100
AcDbLine
 10
3170.720589276524
 20
1388.494269174465
 30
0.0
 11
3100.720589276523
 21
1388.494269174465
 31
0.0
  0
LINE
  5
18D26
330
18C7A
100
AcDbEntity
  8
細線
 48
50.0
100
AcDbLine
 10
2890.720589276525
 20
1388.494269174465
 30
0.0
 11
2763.766368849365
 21
1388.494269174465
 31
0.0
  0
LINE
  5
18D27
330
18C7A
100
AcDbEntity
  8
細線
100
AcDbLine
 10
3030.720589276525
 20
1388.494269174465
 30
0.0
 11
2960.720589276525
 21
1388.494269174465
 31
0.0
  0
LINE
  5
18D28
330
18C7A
100
AcDbEntity
  8
細線
 48
50.0
100
AcDbLine
 10
2750.970589276525
 20
1380.494269174465
 30
0.0
 11
2750.970589276525
 21
1388.494269174465
 31
0.0
  0
LINE
  5
18D29
330
18C7A
100
AcDbEntity
  8
細線
 48
50.0
100
AcDbLine
 10
2730.970589276524
 20
1380.494269174467
 30
0.0
 11
2750.970589276525
 21
1380.494269174465
 31
0.0
  0
LINE
  5
18D2A
330
18C7A
100
AcDbEntity
  8
細線
 48
50.0
100
AcDbLine
 10
2745.970589276525
 20
1418.494269174465
 30
0.0
 11
2745.970589276525
 21
1413.494269174465
 31
0.0
  0
LINE
  5
18D2B
330
18C7A
100
AcDbEntity
  8
細線
 48
50.0
100
AcDbLine
 10
2730.970589276525
 20
1418.494269174463
 30
0.0
 11
2745.970589276525
 21
1418.494269174465
 31
0.0
  0
LINE
  5
18D2C
330
18C7A
100
AcDbEntity
  8
細線
 48
50.0
100
AcDbLine
 10
2730.970589276524
 20
1380.494269174467
 30
0.0
 11
2730.970589276525
 21
1418.494269174463
 31
0.0
  0
LINE
  5
18D2D
330
18C7A
100
AcDbEntity
  8
細線
100
AcDbLine
 10
3398.970589276523
 20
1388.494269174465
 30
0.0
 11
3240.720589276525
 21
1388.494269174465
 31
0.0
  0
LINE
  5
18D2E
330
18C7A
100
AcDbEntity
  8
細線
 48
50.0
100
AcDbLine
 10
3408.470589276525
 20
1413.494269174467
 30
0.0
 11
3408.470589276524
 21
1388.494269174465
 31
0.0
  0
TEXT
  5
18D2F
330
18C7A
100
AcDbEntity
  8
部品1
100
AcDbText
 10
1860.154865991392
 20
46.99880823813145
 30
0.0
 40
135.0
  1
平面図
  7
STYLE2
100
AcDbText
  0
LWPOLYLINE
  5
18D30
330
18C7A
100
AcDbEntity
  8
部品1
100
AcDbPolyline
 90
        4
 70
     1
 43
0.0
 10
1770.23525616235
 20
239.8923374566548
 10
1770.23525616235
 20
0.0000159111223184
 10
2533.705922390791
 20
0.0000159111223184
 10
2533.705922390791
 20
239.8923374566548
  0
LINE
  5
18D31
330
18C7A
100
AcDbEntity
  8
部品1
100
AcDbLine
 10
1534.470589276487
 20
3154.494269174626
 30
0.0
 11
2769.470589276552
 21
3154.494269174626
 31
0.0
  0
LINE
  5
18D32
330
18C7A
100
AcDbEntity
  8
部品1
 48
50.0
100
AcDbLine
 10
1311.970589276523
 20
1420.494269174462
 30
0.0
 11
3411.970589276523
 21
1420.494269174465
 31
0.0
  0
LINE
  5
18D33
330
18C7A
100
AcDbEntity
  8
部品1
 48
50.0
100
AcDbLine
 10
471.9705892765232
 20
1392.494269174465
 30
0.0
 11
1311.970589276523
 21
1392.494269174465
 31
0.0
  0
DIMENSION
  5
18D34
330
18C7A
100
AcDbEntity
  8
寸法
100
AcDbDimension
  2
*D14
 10
2710.234916278077
 20
2488.887829538828
 30
0.0
 11
2338.318822490183
 21
2488.887829538828
 31
0.0
 12
-3742.925985830444
 22
-6453.628869860112
 32
0.0
 70
   128
 71
     5
 42
1231.00000000007
  3
INABA_S40G
100
AcDbAlignedDimension
 13
1536.470589276486
 23
2702.494269174557
 33
0.0
 14
2767.470589276556
 24
2702.494269174549
 34
0.0
100
AcDbRotatedDimension
1001
ACAD
1000
DSTYLE
1002
{
1002
}
  0
LINE
  5
18D35
330
18C7A
100
AcDbEntity
  8
部品1
100
AcDbLine
 10
1536.470589276487
 20
2702.494269174557
 30
0.0
 11
2767.470589276554
 21
2702.494269174615
 31
0.0
  0
LINE
  5
18D36
330
18C7A
100
AcDbEntity
  8
部品1
100
AcDbLine
 10
1536.470589276487
 20
3152.494269174557
 30
0.0
 11
2767.470589276556
 21
3152.494269174615
 31
0.0
  0
LINE
  5
18D37
330
18C7A
100
AcDbEntity
  8
細線
 48
50.0
100
AcDbLine
 10
1508.470589276487
 20
3152.494269174558
 30
0.0
 11
445.4705892765559
 21
2702.494269174509
 31
0.0
  0
LINE
  5
18D38
330
18C7A
100
AcDbEntity
  8
細線
 48
50.0
100
AcDbLine
 10
1508.470589276487
 20
2702.494269174558
 30
0.0
 11
445.4705892765542
 21
3152.494269174509
 31
0.0
  0
LINE
  5
18D39
330
18C7A
100
AcDbEntity
  8
部品1
100
AcDbLine
 10
1556.970589276487
 20
3172.494269174611
 30
0.0
 11
1556.970589276487
 21
3154.494269174611
 31
0.0
  0
LINE
  5
18D3A
330
18C7A
100
AcDbEntity
  8
部品1
100
AcDbLine
 10
1556.970589276487
 20
3172.494269174611
 30
0.0
 11
1550.970589276487
 21
3172.494269174611
 31
0.0
  0
LINE
  5
18D3B
330
18C7A
100
AcDbEntity
  8
部品1
100
AcDbLine
 10
1534.470589276487
 20
3146.494269174608
 30
0.0
 11
1509.470589276487
 21
3146.494269174611
 31
0.0
  0
LINE
  5
18D3C
330
18C7A
100
AcDbEntity
  8
部品1
100
AcDbLine
 10
1486.970589276487
 20
3172.494269174611
 30
0.0
 11
1486.970589276487
 21
3154.494269174611
 31
0.0
  0
LINE
  5
18D3D
330
18C7A
100
AcDbEntity
  8
部品1
100
AcDbLine
 10
1492.970589276487
 20
3172.494269174611
 30
0.0
 11
1486.970589276487
 21
3172.494269174611
 31
0.0
  0
LINE
  5
18D3E
330
18C7A
100
AcDbEntity
  8
部品1
100
AcDbLine
 10
1534.470589276487
 20
2702.494269174615
 30
0.0
 11
1509.470589276487
 21
2702.494269174615
 31
0.0
  0
LINE
  5
18D3F
330
18C7A
100
AcDbEntity
  8
部品1
 48
50.0
100
AcDbLine
 10
1536.470589276487
 20
3152.494269174611
 30
0.0
 11
1536.470589276487
 21
2702.494269174615
 31
0.0
  0
LINE
  5
18D40
330
18C7A
100
AcDbEntity
  8
部品1
 48
50.0
100
AcDbLine
 10
1508.470589276487
 20
3152.494269174607
 30
0.0
 11
1508.470589276487
 21
2702.494269174615
 31
0.0
  0
LINE
  5
18D41
330
18C7A
100
AcDbEntity
  8
部品1
 48
50.0
100
AcDbLine
 10
1534.470589276487
 20
3154.494269174618
 30
0.0
 11
1534.470589276487
 21
2702.494269174615
 31
0.0
  0
LINE
  5
18D42
330
18C7A
100
AcDbEntity
  8
部品1
 48
50.0
100
AcDbLine
 10
1509.470589276487
 20
3154.494269174615
 30
0.0
 11
1509.470589276487
 21
2702.494269174615
 31
0.0
  0
LINE
  5
18D43
330
18C7A
100
AcDbEntity
  8
部品1
100
AcDbLine
 10
3411.970589276556
 20
1392.494269174582
 30
0.0
 11
3411.970589276556
 21
1420.494269174596
 31
0.0
  0
LINE
  5
18D44
330
18C7A
100
AcDbEntity
  8
部品1
100
AcDbLine
 10
1311.970589276523
 20
1392.494269174596
 30
0.0
 11
1311.970589276523
 21
1420.494269174596
 31
0.0
  0
LINE
  5
18D45
330
18C7A
100
AcDbEntity
  8
部品1
100
AcDbLine
 10
891.9705892765232
 20
1392.494269174596
 30
0.0
 11
891.9705892765232
 21
1420.494269174596
 31
0.0
  0
LINE
  5
18D46
330
18C7A
100
AcDbEntity
  8
部品1
100
AcDbLine
 10
3411.97058927652
 20
3182.494269174477
 30
0.0
 11
3411.970589276523
 21
3154.494269174477
 31
0.0
  0
LINE
  5
18D47
330
18C7A
100
AcDbEntity
  8
部品1
100
AcDbLine
 10
2571.97058927652
 20
3182.494269174477
 30
0.0
 11
2571.970589276523
 21
3154.494269174477
 31
0.0
  0
LINE
  5
18D48
330
18C7A
100
AcDbEntity
  8
部品1
100
AcDbLine
 10
2991.97058927652
 20
3182.494269174477
 30
0.0
 11
2991.970589276523
 21
3154.494269174477
 31
0.0
  0
LINE
  5
18D49
330
18C7A
100
AcDbEntity
  8
部品1
100
AcDbLine
 10
2151.970589276519
 20
3182.494269174477
 30
0.0
 11
2151.970589276523
 21
3154.494269174477
 31
0.0
  0
LINE
  5
18D4A
330
18C7A
100
AcDbEntity
  8
部品1
100
AcDbLine
 10
1731.970589276519
 20
3182.494269174477
 30
0.0
 11
1731.970589276523
 21
3154.494269174477
 31
0.0
  0
LINE
  5
18D4B
330
18C7A
100
AcDbEntity
  8
部品1
100
AcDbLine
 10
1311.970589276519
 20
3182.494269174477
 30
0.0
 11
1311.970589276523
 21
3154.494269174477
 31
0.0
  0
LINE
  5
18D4C
330
18C7A
100
AcDbEntity
  8
部品1
100
AcDbLine
 10
891.9705892765195
 20
3182.494269174477
 30
0.0
 11
891.9705892765232
 21
3154.494269174477
 31
0.0
  0
LINE
  5
18D4D
330
18C7A
100
AcDbEntity
  8
部品1
100
AcDbLine
 10
471.9705892765232
 20
1392.494269174596
 30
0.0
 11
471.9705892765232
 21
1420.494269174596
 31
0.0
  0
LINE
  5
18D4E
330
18C7A
100
AcDbEntity
  8
部品1
100
AcDbLine
 10
444.9705892765305
 20
1420.494269174558
 30
0.0
 11
3858.970589276556
 21
1420.494269174596
 31
0.0
  0
LINE
  5
18D4F
330
18C7A
100
AcDbEntity
  8
部品1
100
AcDbLine
 10
3831.970589276556
 20
1392.494269174596
 30
0.0
 11
3831.970589276556
 21
1420.494269174596
 31
0.0
  0
LINE
  5
18D50
330
18C7A
100
AcDbEntity
  8
部品1
100
AcDbLine
 10
3858.970589276556
 20
1447.494269174593
 30
0.0
 11
3886.970589276556
 21
1447.494269174593
 31
0.0
  0
LINE
  5
18D51
330
18C7A
100
AcDbEntity
  8
部品1
100
AcDbLine
 10
3858.970589276556
 20
1867.494269174607
 30
0.0
 11
3886.970589276556
 21
1867.494269174607
 31
0.0
  0
LINE
  5
18D52
330
18C7A
100
AcDbEntity
  8
部品1
100
AcDbLine
 10
444.9705892765305
 20
1867.49426917448
 30
0.0
 11
416.9705892765305
 21
1867.49426917448
 31
0.0
  0
LINE
  5
18D53
330
18C7A
100
AcDbEntity
  8
部品1
100
AcDbLine
 10
3830.470589276541
 20
1867.49426917458
 30
0.0
 11
473.4705892765396
 21
1867.49426917448
 31
0.0
  0
LINE
  5
18D54
330
18C7A
100
AcDbEntity
  8
部品1
100
AcDbLine
 10
3830.470589276541
 20
2287.49426917458
 30
0.0
 11
473.4705892765396
 21
2287.49426917448
 31
0.0
  0
LINE
  5
18D55
330
18C7A
100
AcDbEntity
  8
部品1
100
AcDbLine
 10
444.9705892765305
 20
2287.49426917448
 30
0.0
 11
416.9705892765305
 21
2287.49426917448
 31
0.0
  0
LINE
  5
18D56
330
18C7A
100
AcDbEntity
  8
部品1
100
AcDbLine
 10
3858.970589276556
 20
2287.494269174608
 30
0.0
 11
3886.970589276556
 21
2287.494269174608
 31
0.0
  0
LINE
  5
18D57
330
18C7A
100
AcDbEntity
  8
部品1
 48
50.0
100
AcDbLine
 10
2151.970589276551
 20
2702.494269174586
 30
0.0
 11
2151.970589276581
 21
1448.994269174494
 31
0.0
  0
LINE
  5
18D58
330
18C7A
100
AcDbEntity
  8
破線
 48
10.0
100
AcDbLine
 10
2959.470589276535
 20
1472.494269174522
 30
0.0
 11
2176.970589276532
 21
1472.494269174505
 31
0.0
  0
LINE
  5
18D59
330
18C7A
100
AcDbEntity
  8
破線
 48
10.0
100
AcDbLine
 10
3009.47058927653
 20
1448.994269174509
 30
0.0
 11
3009.47058927653
 21
2702.494269174615
 31
0.0
  0
LINE
  5
18D5A
330
18C7A
100
AcDbEntity
  8
破線
 48
10.0
100
AcDbLine
 10
2959.470589276535
 20
1448.994269174505
 30
0.0
 11
2959.470589276531
 21
2702.494269174615
 31
0.0
  0
LINE
  5
18D5B
330
18C7A
100
AcDbEntity
  8
破線
 48
10.0
100
AcDbLine
 10
1344.47058927653
 20
1448.994269174509
 30
0.0
 11
1344.47058927653
 21
2702.494269174615
 31
0.0
  0
LINE
  5
18D5C
330
18C7A
100
AcDbEntity
  8
破線
 48
10.0
100
AcDbLine
 10
1294.470589276534
 20
1448.994269174505
 30
0.0
 11
1294.47058927653
 21
2702.494269174615
 31
0.0
  0
DIMENSION
  5
18D5D
330
18C7A
100
AcDbEntity
  8
寸法
100
AcDbDimension
  2
*D13
 10
1451.234916278005
 20
2488.887829538828
 30
0.0
 11
916.0604668248634
 21
2488.887829538828
 31
0.0
 12
-3742.925985830444
 22
-6453.628869860112
 32
0.0
 70
   128
 71
     5
 42
1062.99999999993
  3
INABA_S40G
100
AcDbAlignedDimension
 13
445.4705892765559
 23
2702.494269174505
 33
0.0
 14
1508.470589276486
 24
2702.494269174558
 34
0.0
100
AcDbRotatedDimension
1001
ACAD
1000
DSTYLE
1002
{
1002
}
  0
LINE
  5
18D5E
330
18C7A
100
AcDbEntity
  8
破線
 48
10.0
100
AcDbLine
 10
1294.470589276534
 20
1472.494269174469
 30
0.0
 11
496.9705892765414
 21
1472.494269174476
 31
0.0
  0
LINE
  5
18D5F
330
18C7A
100
AcDbEntity
  8
部品1
100
AcDbLine
 10
3831.970589276556
 20
3182.494269174604
 30
0.0
 11
3831.970589276556
 21
3154.494269174604
 31
0.0
  0
LINE
  5
18D60
330
18C7A
100
AcDbEntity
  8
部品1
100
AcDbLine
 10
3831.970589276556
 20
3182.494269174626
 30
0.0
 11
3831.970589276556
 21
3154.494269174626
 31
0.0
  0
LINE
  5
18D61
330
18C7A
100
AcDbEntity
  8
部品1
100
AcDbLine
 10
3858.970589276556
 20
3127.494269174607
 30
0.0
 11
3886.970589276556
 21
3127.494269174607
 31
0.0
  0
LINE
  5
18D62
330
18C7A
100
AcDbEntity
  8
部品1
100
AcDbLine
 10
3858.970589276556
 20
2707.494269174608
 30
0.0
 11
3886.970589276556
 21
2707.494269174608
 31
0.0
  0
LINE
  5
18D63
330
18C7A
100
AcDbEntity
  8
部品1
100
AcDbLine
 10
3858.470589276556
 20
3152.494269174604
 30
0.0
 11
3858.470589276556
 21
2702.494269174608
 31
0.0
  0
LINE
  5
18D64
330
18C7A
100
AcDbEntity
  8
部品1
100
AcDbLine
 10
3886.970589276533
 20
1447.494269174593
 30
0.0
 11
3886.970589276531
 21
1392.494269174596
 31
0.0
  0
LINE
  5
18D65
330
18C7A
100
AcDbEntity
  8
部品1
 48
50.0
100
AcDbLine
 10
3830.470589276556
 20
1448.994269174596
 30
0.0
 11
3858.970589276554
 21
1420.494269174596
 31
0.0
  0
LINE
  5
18D66
330
18C7A
100
AcDbEntity
  8
部品1
100
AcDbLine
 10
3886.970589276531
 20
1392.494269174596
 30
0.0
 11
3835.970589276531
 21
1392.494269174596
 31
0.0
  0
LINE
  5
18D67
330
18C7A
100
AcDbEntity
  8
部品1
100
AcDbLine
 10
3858.970589276533
 20
1447.494269174593
 30
0.0
 11
3886.970589276531
 21
1447.494269174593
 31
0.0
  0
LINE
  5
18D68
330
18C7A
100
AcDbEntity
  8
部品1
100
AcDbLine
 10
3886.970589276556
 20
3182.494269174604
 30
0.0
 11
3886.970589276531
 21
1392.494269174596
 31
0.0
  0
DIMENSION
  5
18D69
330
18C7A
100
AcDbEntity
  8
寸法
100
AcDbDimension
  2
*D12
 10
4534.396935010967
 20
1447.494269174593
 30
0.0
 11
4534.396935010965
 21
2287.4942691746
 31
0.0
 12
-3742.925985830444
 22
-6453.628869860112
 32
0.0
 70
   128
  1
4X420=<>
 71
     5
 42
1680.000000000014
  3
INABA_S40G
100
AcDbAlignedDimension
 13
3886.970589276556
 23
3127.494269174607
 33
0.0
 14
3886.970589276531
 24
1447.494269174593
 34
0.0
 50
90.0
100
AcDbRotatedDimension
1001
ACAD
1000
DSTYLE
1002
{
1002
}
  0
LINE
  5
18D6A
330
18C7A
100
AcDbEntity
  8
部品1
100
AcDbLine
 10
3858.970589276556
 20
3154.494269174604
 30
0.0
 11
3858.970589276534
 21
1420.494269174596
 31
0.0
  0
DIMENSION
  5
18D6B
330
18C7A
100
AcDbEntity
  8
寸法
100
AcDbDimension
  2
*D11
 10
4213.82831513858
 20
2607.276453505718
 30
0.0
 11
4113.828315138579
 21
2832.276453505718
 31
0.0
 12
-3742.925985830444
 22
-6453.628869860112
 32
0.0
 71
     5
 42
449.9999999999963
  3
INABA_S40G
100
AcDbAlignedDimension
 13
3858.470589276556
 23
3152.494269174604
 33
0.0
 14
3858.470589276556
 24
2702.494269174608
 34
0.0
 50
90.0
100
AcDbRotatedDimension
1001
ACAD
1000
DSTYLE
1002
{
1002
}
  0
LINE
  5
18D6C
330
18C7A
100
AcDbEntity
  8
部品1
100
AcDbLine
 10
3830.470589276547
 20
2702.494269174608
 30
0.0
 11
3830.470589276556
 21
1448.994269174596
 31
0.0
  0
LINE
  5
18D6D
330
18C7A
100
AcDbEntity
  8
破線
 48
10.0
100
AcDbLine
 10
3806.970589276549
 20
2702.494269174608
 30
0.0
 11
3806.970589276558
 21
1472.494269174593
 31
0.0
  0
LINE
  5
18D6E
330
18C7A
100
AcDbEntity
  8
部品1
100
AcDbLine
 10
2769.470589276556
 20
3146.494269174608
 30
0.0
 11
2794.470589276556
 21
3146.494269174611
 31
0.0
  0
LINE
  5
18D6F
330
18C7A
100
AcDbEntity
  8
部品1
100
AcDbLine
 10
2810.970589276556
 20
3172.494269174611
 30
0.0
 11
2816.970589276556
 21
3172.494269174611
 31
0.0
  0
LINE
  5
18D70
330
18C7A
100
AcDbEntity
  8
部品1
100
AcDbLine
 10
2816.970589276556
 20
3172.494269174611
 30
0.0
 11
2816.970589276556
 21
3154.494269174611
 31
0.0
  0
LINE
  5
18D71
330
18C7A
100
AcDbEntity
  8
部品1
100
AcDbLine
 10
2746.970589276556
 20
3172.494269174611
 30
0.0
 11
2752.970589276556
 21
3172.494269174611
 31
0.0
  0
LINE
  5
18D72
330
18C7A
100
AcDbEntity
  8
部品1
100
AcDbLine
 10
2746.970589276556
 20
3172.494269174611
 30
0.0
 11
2746.970589276556
 21
3154.494269174611
 31
0.0
  0
LINE
  5
18D73
330
18C7A
100
AcDbEntity
  8
部品1
100
AcDbLine
 10
2769.470589276556
 20
2702.494269174615
 30
0.0
 11
2794.470589276556
 21
2702.494269174615
 31
0.0
  0
LINE
  5
18D74
330
18C7A
100
AcDbEntity
  8
部品1
 48
50.0
100
AcDbLine
 10
2794.470589276556
 20
3154.494269174615
 30
0.0
 11
2794.470589276556
 21
2702.494269174615
 31
0.0
  0
LINE
  5
18D75
330
18C7A
100
AcDbEntity
  8
部品1
 48
50.0
100
AcDbLine
 10
2769.470589276554
 20
3154.494269174618
 30
0.0
 11
2769.470589276556
 21
2702.494269174615
 31
0.0
  0
LINE
  5
18D76
330
18C7A
100
AcDbEntity
  8
部品1
 48
50.0
100
AcDbLine
 10
2795.470589276556
 20
3152.494269174607
 30
0.0
 11
2795.470589276556
 21
2702.494269174615
 31
0.0
  0
LINE
  5
18D77
330
18C7A
100
AcDbEntity
  8
部品1
 48
50.0
100
AcDbLine
 10
2767.470589276556
 20
3152.494269174611
 30
0.0
 11
2767.470589276556
 21
2702.494269174615
 31
0.0
  0
LINE
  5
18D78
330
18C7A
100
AcDbEntity
  8
破線
 48
10.0
100
AcDbLine
 10
2176.97058927653
 20
1448.994269174509
 30
0.0
 11
2176.97058927653
 21
2702.494269174588
 31
0.0
  0
LINE
  5
18D79
330
18C7A
100
AcDbEntity
  8
破線
 48
10.0
100
AcDbLine
 10
2126.970589276534
 20
1448.994269174505
 30
0.0
 11
2126.970589276531
 21
2702.494269174586
 31
0.0
  0
LINE
  5
18D7A
330
18C7A
100
AcDbEntity
  8
部品1
100
AcDbLine
 10
2794.470589276556
 20
3154.494269174622
 30
0.0
 11
3858.970589276556
 21
3154.494269174604
 31
0.0
  0
LINE
  5
18D7B
330
18C7A
100
AcDbEntity
  8
細線
 48
50.0
100
AcDbLine
 10
3858.470589276556
 20
2702.494269174608
 30
0.0
 11
2795.470589276556
 21
3152.494269174607
 31
0.0
  0
LINE
  5
18D7C
330
18C7A
100
AcDbEntity
  8
部品1
100
AcDbLine
 10
2795.470589276555
 20
2702.494269174615
 30
0.0
 11
3858.470589276556
 21
2702.494269174608
 31
0.0
  0
LINE
  5
18D7D
330
18C7A
100
AcDbEntity
  8
部品1
100
AcDbLine
 10
2795.470589276556
 20
3152.494269174611
 30
0.0
 11
3858.470589276556
 21
3152.494269174604
 31
0.0
  0
LINE
  5
18D7E
330
18C7A
100
AcDbEntity
  8
細線
 48
50.0
100
AcDbLine
 10
3858.470589276556
 20
3152.494269174604
 30
0.0
 11
2795.470589276555
 21
2702.494269174615
 31
0.0
  0
DIMENSION
  5
18D7F
330
18C7A
100
AcDbEntity
  8
寸法
100
AcDbDimension
  2
*D10
 10
3801.234916278101
 20
2488.887829538937
 30
0.0
 11
3318.360544398907
 21
2488.887829538937
 31
0.0
 12
-3742.925985830444
 22
-6453.628869860112
 32
0.0
 70
   128
 71
     5
 42
1063.000000000012
  3
INABA_S40G
100
AcDbAlignedDimension
 13
2795.470589276555
 23
2702.494269174615
 33
0.0
 14
3858.470589276567
 24
2702.494269174608
 34
0.0
100
AcDbRotatedDimension
1001
ACAD
1000
DSTYLE
1002
{
1002
}
  0
LINE
  5
18D80
330
18C7A
100
AcDbEntity
  8
破線
 48
10.0
100
AcDbLine
 10
3806.970589276556
 20
1472.494269174594
 30
0.0
 11
3009.47058927653
 21
1472.494269174523
 31
0.0
  0
DIMENSION
  5
18D81
330
18C7A
100
AcDbEntity
  8
寸法
100
AcDbDimension
  2
*D9
 10
4534.396935010941
 20
1392.494269174596
 30
0.0
 11
4534.39693501094
 21
1084.008987800356
 31
0.0
 12
-3742.925985830444
 22
-6453.628869860112
 32
0.0
 70
   128
 71
     5
 42
54.99999999999636
  3
INABA_S40G
100
AcDbAlignedDimension
 13
3886.970589276531
 23
1447.494269174593
 33
0.0
 14
3886.970589276531
 24
1392.494269174596
 34
0.0
 50
90.0
100
AcDbRotatedDimension
1001
ACAD
1000
DSTYLE
1002
{
1002
}
  0
LINE
  5
18D82
330
18C7A
100
AcDbEntity
  8
部品1
100
AcDbLine
 10
471.9705892765196
 20
3182.494269174477
 30
0.0
 11
471.9705892765232
 21
3154.494269174477
 31
0.0
  0
LINE
  5
18D83
330
18C7A
100
AcDbEntity
  8
部品1
100
AcDbLine
 10
471.9705892765559
 20
3182.494269174509
 30
0.0
 11
471.9705892765559
 21
3154.494269174509
 31
0.0
  0
LINE
  5
18D84
330
18C7A
100
AcDbEntity
  8
部品1
100
AcDbLine
 10
444.9705892765232
 20
3127.49426917448
 30
0.0
 11
416.9705892765232
 21
3127.49426917448
 31
0.0
  0
LINE
  5
18D85
330
18C7A
100
AcDbEntity
  8
部品1
100
AcDbLine
 10
444.9705892765305
 20
2707.49426917448
 30
0.0
 11
416.9705892765305
 21
2707.49426917448
 31
0.0
  0
LINE
  5
18D86
330
18C7A
100
AcDbEntity
  8
部品1
 48
50.0
100
AcDbLine
 10
445.4705892765542
 20
3152.494269174506
 30
0.0
 11
445.4705892765559
 21
2702.494269174505
 31
0.0
  0
LINE
  5
18D87
330
18C7A
100
AcDbEntity
  8
部品1
 48
50.0
100
AcDbLine
 10
473.470589276545
 20
1448.994269174573
 30
0.0
 11
444.970589276545
 21
1420.494269174574
 31
0.0
  0
LINE
  5
18D88
330
18C7A
100
AcDbEntity
  8
部品1
100
AcDbLine
 10
471.9705892765232
 20
1392.494269174465
 30
0.0
 11
416.9705892765486
 21
1392.494269174465
 31
0.0
  0
LINE
  5
18D89
330
18C7A
100
AcDbEntity
  8
部品1
100
AcDbLine
 10
444.9705892765305
 20
1447.494269174429
 30
0.0
 11
416.9705892765469
 21
1447.494269174429
 31
0.0
  0
LINE
  5
18D8A
330
18C7A
100
AcDbEntity
  8
部品1
100
AcDbLine
 10
444.9705892765305
 20
1447.494269174465
 30
0.0
 11
416.9705892765469
 21
1447.494269174465
 31
0.0
  0
LINE
  5
18D8B
330
18C7A
100
AcDbEntity
  8
部品1
100
AcDbLine
 10
444.9705892765469
 20
1447.49426917448
 30
0.0
 11
416.9705892765469
 21
1447.49426917448
 31
0.0
  0
LINE
  5
18D8C
330
18C7A
100
AcDbEntity
  8
部品1
100
AcDbLine
 10
416.9705892765469
 20
1447.494269174429
 30
0.0
 11
416.9705892765486
 21
1392.494269174433
 31
0.0
  0
LINE
  5
18D8D
330
18C7A
100
AcDbEntity
  8
部品1
100
AcDbLine
 10
416.9705892765196
 20
3182.494269174477
 30
0.0
 11
416.9705892765486
 21
1392.494269174465
 31
0.0
  0
LINE
  5
18D8E
330
18C7A
100
AcDbEntity
  8
部品1
100
AcDbLine
 10
444.9705892765305
 20
1420.494269174556
 30
0.0
 11
444.9705892765559
 21
3154.494269174509
 31
0.0
  0
LINE
  5
18D8F
330
18C7A
100
AcDbEntity
  8
部品1
100
AcDbLine
 10
473.4705892765323
 20
2702.494269174608
 30
0.0
 11
473.470589276545
 21
1448.994269174571
 31
0.0
  0
LINE
  5
18D90
330
18C7A
100
AcDbEntity
  8
破線
 48
10.0
100
AcDbLine
 10
496.9705892765305
 20
2702.494269174608
 30
0.0
 11
496.9705892765451
 21
1472.494269174476
 31
0.0
  0
DIMENSION
  5
18D91
330
18C7A
100
AcDbEntity
  8
寸法
100
AcDbDimension
  2
*D8
 10
3886.970589276531
 20
410.7433333855515
 30
0.0
 11
2168.197775309287
 21
410.7433333855515
 31
0.0
 12
-3742.925985830444
 22
-6453.628869860112
 32
0.0
 70
   128
 71
     5
 42
3469.999999999982
  3
INABA_S40G
100
AcDbAlignedDimension
 13
416.9705892765486
 23
1392.494269174433
 33
0.0
 14
3886.970589276531
 24
1392.49426917456
 34
0.0
100
AcDbRotatedDimension
1001
ACAD
1000
DSTYLE
1002
{
1070
   341
1005
0
1002
}
  0
LINE
  5
18D92
330
18C7A
100
AcDbEntity
  8
部品1
100
AcDbLine
 10
444.9705892765559
 20
3154.494269174624
 30
0.0
 11
1509.470589276487
 21
3154.494269174626
 31
0.0
  0
LINE
  5
18D93
330
18C7A
100
AcDbEntity
  8
部品1
100
AcDbLine
 10
3886.970589276531
 20
1392.494269174596
 30
0.0
 11
3411.970589276556
 21
1392.494269174582
 31
0.0
  0
LINE
  5
18D94
330
18C7A
100
AcDbEntity
  8
部品1
100
AcDbLine
 10
416.9705892765559
 20
3182.494269174509
 30
0.0
 11
3886.970589276556
 21
3182.494269174604
 31
0.0
  0
LINE
  5
18D95
330
18C7A
100
AcDbEntity
  8
部品1
100
AcDbLine
 10
445.4705892765559
 20
2702.494269174509
 30
0.0
 11
1508.470589276487
 21
2702.494269174558
 31
0.0
  0
LINE
  5
18D96
330
18C7A
100
AcDbEntity
  8
細線
 48
50.0
100
AcDbLine
 10
2767.470589276556
 20
3152.494269174611
 30
0.0
 11
1536.470589276487
 21
2702.494269174558
 31
0.0
  0
LINE
  5
18D97
330
18C7A
100
AcDbEntity
  8
部品1
100
AcDbLine
 10
445.4705892765542
 20
3152.494269174509
 30
0.0
 11
1508.470589276485
 21
3152.494269174558
 31
0.0
  0
LINE
  5
18D98
330
18C7A
100
AcDbEntity
  8
細線
 48
50.0
100
AcDbLine
 10
2767.470589276554
 20
2702.494269174615
 30
0.0
 11
1536.470589276485
 21
3152.494269174558
 31
0.0
  0
LINE
  5
18D99
330
18C7A
100
AcDbEntity
  8
破線
 48
10.0
100
AcDbLine
 10
2126.970589276534
 20
1472.494269174502
 30
0.0
 11
1344.47058927653
 21
1472.494269174473
 31
0.0
  0
LINE
  5
18D9A
330
18C7A
100
AcDbEntity
  8
部品1
100
AcDbLine
 10
3830.470589276556
 20
1448.994269174596
 30
0.0
 11
473.4705892764487
 21
1448.994269174476
 31
0.0
  0
DIMENSION
  5
18D9B
330
18C7A
100
AcDbEntity
  8
寸法
100
AcDbDimension
  2
*D7
 10
471.970589276555
 20
3698.302488799491
 30
0.0
 11
108.4853079022819
 21
3698.302488799491
 31
0.0
 12
-3742.925985830444
 22
-6453.628869860112
 32
0.0
 70
   128
 71
     5
 42
55.00000000003456
  3
INABA_S40G
100
AcDbAlignedDimension
 13
416.9705892765205
 23
3182.494269174509
 33
0.0
 14
471.970589276555
 24
3182.494269174509
 34
0.0
100
AcDbRotatedDimension
1001
ACAD
1000
DSTYLE
1002
{
1002
}
  0
DIMENSION
  5
18D9C
330
18C7A
100
AcDbEntity
  8
寸法
100
AcDbDimension
  2
*D6
 10
4534.396935010967
 20
3127.494269174607
 30
0.0
 11
4534.396935010965
 21
3490.979550548844
 31
0.0
 12
-3742.925985830444
 22
-6453.628869860112
 32
0.0
 70
   128
 71
     5
 42
54.99999999999636
  3
INABA_S40G
100
AcDbAlignedDimension
 13
3886.970589276556
 23
3182.494269174604
 33
0.0
 14
3886.970589276556
 24
3127.494269174607
 34
0.0
 50
90.0
100
AcDbRotatedDimension
1001
ACAD
1000
DSTYLE
1002
{
1002
}
  0
DIMENSION
  5
18D9D
330
18C7A
100
AcDbEntity
  8
寸法
100
AcDbDimension
  2
*D5
 10
3886.970589276556
 20
3698.302488799589
 30
0.0
 11
4195.455870650794
 21
3698.302488799589
 31
0.0
 12
-3742.925985830444
 22
-6453.628869860112
 32
0.0
 70
   128
 71
     5
 42
55.0
  3
INABA_S40G
100
AcDbAlignedDimension
 13
3831.970589276556
 23
3182.494269174604
 33
0.0
 14
3886.970589276556
 24
3182.494269174604
 34
0.0
100
AcDbRotatedDimension
1001
ACAD
1000
DSTYLE
1002
{
1002
}
  0
DIMENSION
  5
18D9E
330
18C7A
100
AcDbEntity
  8
寸法
100
AcDbDimension
  2
*D4
 10
3831.970589276556
 20
3698.302488799607
 30
0.0
 11
2151.970589276555
 21
3698.302488799607
 31
0.0
 12
-3742.925985830444
 22
-6453.628869860112
 32
0.0
 70
   128
  1
8X420=<>
 71
     5
 42
3360.000000000001
  3
INABA_S40G
100
AcDbAlignedDimension
 13
471.970589276555
 23
3182.494269174509
 33
0.0
 14
3831.970589276556
 24
3182.494269174604
 34
0.0
100
AcDbRotatedDimension
1001
ACAD
1000
DSTYLE
1002
{
1002
}
  0
DIMENSION
  5
18D9F
330
18C7A
100
AcDbEntity
  8
寸法
100
AcDbDimension
  2
*D3
 10
4899.503876750603
 20
1392.494269174596
 30
0.0
 11
4899.503876750601
 21
2287.4942691746
 31
0.0
 12
-3742.925985830444
 22
-6453.628869860112
 32
0.0
 70
   128
 71
     5
 42
1790.000000000007
  3
INABA_S40G
100
AcDbAlignedDimension
 13
3886.970589276556
 23
3182.494269174604
 33
0.0
 14
3886.970589276531
 24
1392.494269174596
 34
0.0
 50
90.0
100
AcDbRotatedDimension
1001
ACAD
1000
DSTYLE
1002
{
1002
}
  0
ENDBLK
  5
18DA1
330
18C7A
100
AcDbEntity
  8
0
 48
50.0
100
AcDbBlockEnd
  0
BLOCK
  5
1C4CB
330
1C4CA
100
AcDbEntity
  8
0
 48
50.0
100
AcDbBlockBegin
  2
_NONE
 70
     0
 10
0.0
 20
0.0
 30
0.0
  3
_NONE
  1

  0
CIRCLE
  5
1C4CC
330
1C4CA
100
AcDbEntity
  8
0
  6
ByBlock
 62
     0
 48
50.0
100
AcDbCircle
 10
0.0
 20
0.0
 30
0.0
 40
0.25
  0
ENDBLK
  5
1C4CD
330
1C4CA
100
AcDbEntity
  8
0
 48
50.0
100
AcDbBlockEnd
  0
BLOCK
  5
20680
330
20677
100
AcDbEntity
  8
0
 48
50.0
100
AcDbBlockBegin
  2
*D19
 70
     1
 10
0.0
 20
0.0
 30
0.0
  3
*D19
  1

  0
LINE
  5
21D17
330
20677
100
AcDbEntity
  8
寸法
 62
     0
 48
50.0
370
    -2
100
AcDbLine
 10
9128.6
 20
7632.739547495261
 30
0.0
 11
9128.6
 21
7801.395149689573
 31
0.0
  0
LINE
  5
21D18
330
20677
100
AcDbEntity
  8
寸法
 62
     0
 48
50.0
370
    -2
100
AcDbLine
 10
11018.6
 20
7582.739547495261
 30
0.0
 11
11018.6
 21
7801.395149689573
 31
0.0
  0
LINE
  5
21D19
330
20677
100
AcDbEntity
  8
寸法
 62
     0
 48
50.0
370
    -2
100
AcDbLine
 10
9128.6
 20
7741.395149689573
 30
0.0
 11
11018.6
 21
7741.395149689573
 31
0.0
  0
INSERT
  5
21D1A
330
20677
100
AcDbEntity
  8
寸法
 62
     0
 48
50.0
370
    -2
100
AcDbBlockReference
  2
_DOTSMALL
 10
9128.6
 20
7741.395149689573
 30
0.0
 41
100.0
 42
100.0
 43
100.0
 50
180.0
  0
INSERT
  5
21D1B
330
20677
100
AcDbEntity
  8
寸法
 62
     0
 48
50.0
370
    -2
100
AcDbBlockReference
  2
_DOTSMALL
 10
11018.6
 20
7741.395149689573
 30
0.0
 41
100.0
 42
100.0
 43
100.0
  0
MTEXT
  5
21D1C
330
20677
100
AcDbEntity
  8
寸法
 62
     7
 48
50.0
100
AcDbMText
 10
10073.6
 20
7841.395149689573
 30
0.0
 40
120.0
 41
0.0
 71
     5
 72
     1
  1
\A1;1890
  7
STYLE1
 73
     1
 44
1.0
1001
ACAD
1000
MTEXTBEGIN
1070
    73
1070
     1
1070
    44
1040
1.0
1070
    74
1070
     0
1000
MTEXTEND
  0
POINT
  5
21D1D
330
20677
100
AcDbEntity
  8
DEFPOINTS
 62
     0
 48
50.0
100
AcDbPoint
 10
9128.6
 20
7612.739547495261
 30
0.0
  0
POINT
  5
21D1E
330
20677
100
AcDbEntity
  8
DEFPOINTS
 62
     0
 48
50.0
100
AcDbPoint
 10
11018.6
 20
7562.739547495261
 30
0.0
  0
POINT
  5
21D1F
330
20677
100
AcDbEntity
  8
DEFPOINTS
 62
     0
 48
50.0
100
AcDbPoint
 10
11018.6
 20
7741.395149689573
 30
0.0
  0
ENDBLK
  5
20681
330
20677
100
AcDbEntity
  8
0
 48
50.0
100
AcDbBlockEnd
  0
BLOCK
  5
2068D
330
20682
100
AcDbEntity
  8
0
 48
50.0
100
AcDbBlockBegin
  2
*D20
 70
     1
 10
0.0
 20
0.0
 30
0.0
  3
*D20
  1

  0
LINE
  5
21CD1
330
20682
100
AcDbEntity
  8
寸法
 62
     0
 48
50.0
370
    -2
100
AcDbLine
 10
10153.60000000003
 20
5238.739547495263
 30
0.0
 11
10410.3072498761
 21
5238.739547495262
 31
0.0
  0
LINE
  5
21CD2
330
20682
100
AcDbEntity
  8
寸法
 62
     0
 48
50.0
370
    -2
100
AcDbLine
 10
10153.60000000003
 20
5358.739547495279
 30
0.0
 11
10410.3072498761
 21
5358.739547495277
 31
0.0
  0
LINE
  5
21CD3
330
20682
100
AcDbEntity
  8
寸法
 62
     0
 48
50.0
370
    -2
100
AcDbLine
 10
10350.3072498761
 20
5358.739547495277
 30
0.0
 11
10350.3072498761
 21
5238.739547495262
 31
0.0
  0
LINE
  5
21CD4
330
20682
100
AcDbEntity
  8
寸法
 62
     0
 48
50.0
370
    -2
100
AcDbLine
 10
10350.3072498761
 20
5238.739547495262
 30
0.0
 11
10350.3072498761
 21
4766.403998432831
 31
0.0
  0
INSERT
  5
21CD5
330
20682
100
AcDbEntity
  8
寸法
 62
     0
 48
50.0
370
    -2
100
AcDbBlockReference
  2
_DOTSMALL
 10
10350.3072498761
 20
5358.739547495277
 30
0.0
 41
100.0
 42
100.0
 43
100.0
 50
90.0
  0
INSERT
  5
21CD6
330
20682
100
AcDbEntity
  8
寸法
 62
     0
 48
50.0
370
    -2
100
AcDbBlockReference
  2
_DOTSMALL
 10
10350.3072498761
 20
5238.739547495262
 30
0.0
 41
100.0
 42
100.0
 43
100.0
 50
270.0
  0
MTEXT
  5
21CD7
330
20682
100
AcDbEntity
  8
寸法
 62
     7
 48
50.0
100
AcDbMText
 10
10250.29543885247
 20
4902.451242527321
 30
0.0
 40
120.0
 41
0.0
 71
     5
 72
     1
  1
\A1;120
  7
STYLE1
 11
0.0000000000000001
 21
1.0
 31
0.0
 73
     1
 44
1.0
1001
ACAD
1000
MTEXTBEGIN
1070
    73
1070
     1
1070
    44
1040
1.0
1070
    74
1070
     0
1000
MTEXTEND
  0
POINT
  5
21CD8
330
20682
100
AcDbEntity
  8
DEFPOINTS
 62
     0
 48
50.0
100
AcDbPoint
 10
10133.60000000003
 20
5238.739547495263
 30
0.0
  0
POINT
  5
21CD9
330
20682
100
AcDbEntity
  8
DEFPOINTS
 62
     0
 48
50.0
100
AcDbPoint
 10
10133.60000000003
 20
5358.739547495279
 30
0.0
  0
POINT
  5
21CDA
330
20682
100
AcDbEntity
  8
DEFPOINTS
 62
     0
 48
50.0
100
AcDbPoint
 10
10350.3072498761
 20
5358.739547495277
 30
0.0
  0
ENDBLK
  5
2068E
330
20682
100
AcDbEntity
  8
0
 48
50.0
100
AcDbBlockEnd
  0
BLOCK
  5
20698
330
2068F
100
AcDbEntity
  8
0
 48
50.0
100
AcDbBlockBegin
  2
*D21
 70
     1
 10
0.0
 20
0.0
 30
0.0
  3
*D21
  1

  0
LINE
  5
20F06
330
2068F
100
AcDbEntity
  8
寸法
 62
     0
 48
50.0
370
    -2
100
AcDbLine
 10
5503.6
 20
8338.739547495261
 30
0.0
 11
5503.6
 21
9336.959869554181
 31
0.0
  0
LINE
  5
20F07
330
2068F
100
AcDbEntity
  8
寸法
 62
     0
 48
50.0
370
    -2
100
AcDbLine
 10
10943.6
 20
8338.739547495261
 30
0.0
 11
10943.6
 21
9336.959869554181
 31
0.0
  0
LINE
  5
20F08
330
2068F
100
AcDbEntity
  8
寸法
 62
     0
 48
50.0
370
    -2
100
AcDbLine
 10
5503.6
 20
9276.959869554181
 30
0.0
 11
10943.6
 21
9276.959869554181
 31
0.0
  0
INSERT
  5
20F09
330
2068F
100
AcDbEntity
  8
寸法
 62
     0
 48
50.0
370
    -2
100
AcDbBlockReference
  2
_DOTSMALL
 10
5503.6
 20
9276.959869554181
 30
0.0
 41
100.0
 42
100.0
 43
100.0
 50
180.0
  0
INSERT
  5
20F0A
330
2068F
100
AcDbEntity
  8
寸法
 62
     0
 48
50.0
370
    -2
100
AcDbBlockReference
  2
_DOTSMALL
 10
10943.6
 20
9276.959869554181
 30
0.0
 41
100.0
 42
100.0
 43
100.0
  0
MTEXT
  5
20F0B
330
2068F
100
AcDbEntity
  8
寸法
 62
     7
 48
50.0
100
AcDbMText
 10
8223.600000000001
 20
9376.959869554182
 30
0.0
 40
120.0
 41
0.0
 71
     5
 72
     1
  1
\A1;5440
  7
STYLE1
 73
     1
 44
1.0
1001
ACAD
1000
MTEXTBEGIN
1070
    73
1070
     1
1070
    44
1040
1.0
1070
    74
1070
     0
1000
MTEXTEND
  0
POINT
  5
20F0C
330
2068F
100
AcDbEntity
  8
DEFPOINTS
 62
     0
 48
50.0
100
AcDbPoint
 10
5503.6
 20
8318.73954749526
 30
0.0
  0
POINT
  5
20F0D
330
2068F
100
AcDbEntity
  8
DEFPOINTS
 62
     0
 48
50.0
100
AcDbPoint
 10
10943.6
 20
8318.73954749526
 30
0.0
  0
POINT
  5
20F0E
330
2068F
100
AcDbEntity
  8
DEFPOINTS
 62
     0
 48
50.0
100
AcDbPoint
 10
10943.6
 20
9276.959869554181
 30
0.0
  0
ENDBLK
  5
20699
330
2068F
100
AcDbEntity
  8
0
 48
50.0
100
AcDbBlockEnd
  0
BLOCK
  5
206A3
330
2069A
100
AcDbEntity
  8
0
 48
50.0
100
AcDbBlockBegin
  2
*D22
 70
     1
 10
0.0
 20
0.0
 30
0.0
  3
*D22
  1

  0
LINE
  5
20EFD
330
2069A
100
AcDbEntity
  8
寸法
 62
     0
 48
50.0
370
    -2
100
AcDbLine
 10
10898.6
 20
8288.739547495261
 30
0.0
 11
10898.6
 21
9124.499174037344
 31
0.0
  0
LINE
  5
20EFE
330
2069A
100
AcDbEntity
  8
寸法
 62
     0
 48
50.0
370
    -2
100
AcDbLine
 10
9045.6
 20
8343.73954749526
 30
0.0
 11
9045.6
 21
9124.499174037344
 31
0.0
  0
LINE
  5
20EFF
330
2069A
100
AcDbEntity
  8
寸法
 62
     0
 48
50.0
370
    -2
100
AcDbLine
 10
10898.6
 20
9064.499174037344
 30
0.0
 11
9045.6
 21
9064.499174037344
 31
0.0
  0
INSERT
  5
20F00
330
2069A
100
AcDbEntity
  8
寸法
 62
     0
 48
50.0
370
    -2
100
AcDbBlockReference
  2
_DOTSMALL
 10
10898.6
 20
9064.499174037344
 30
0.0
 41
100.0
 42
100.0
 43
100.0
  0
INSERT
  5
20F01
330
2069A
100
AcDbEntity
  8
寸法
 62
     0
 48
50.0
370
    -2
100
AcDbBlockReference
  2
_DOTSMALL
 10
9045.6
 20
9064.499174037344
 30
0.0
 41
100.0
 42
100.0
 43
100.0
 50
180.0
  0
MTEXT
  5
20F02
330
2069A
100
AcDbEntity
  8
寸法
 62
     7
 48
50.0
100
AcDbMText
 10
9972.100000000001
 20
9164.499174037343
 30
0.0
 40
120.0
 41
0.0
 71
     5
 72
     1
  1
\A1;1853
  7
STYLE1
 73
     1
 44
1.0
1001
ACAD
1000
MTEXTBEGIN
1070
    73
1070
     1
1070
    44
1040
1.0
1070
    74
1070
     0
1000
MTEXTEND
  0
POINT
  5
20F03
330
2069A
100
AcDbEntity
  8
DEFPOINTS
 62
     0
 48
50.0
100
AcDbPoint
 10
10898.6
 20
8268.739547495261
 30
0.0
  0
POINT
  5
20F04
330
2069A
100
AcDbEntity
  8
DEFPOINTS
 62
     0
 48
50.0
100
AcDbPoint
 10
9045.6
 20
8323.739547495261
 30
0.0
  0
POINT
  5
20F05
330
2069A
100
AcDbEntity
  8
DEFPOINTS
 62
     0
 48
50.0
100
AcDbPoint
 10
9045.6
 20
9064.499174037344
 30
0.0
  0
ENDBLK
  5
206A4
330
2069A
100
AcDbEntity
  8
0
 48
50.0
100
AcDbBlockEnd
  0
BLOCK
  5
206B1
330
206A5
100
AcDbEntity
  8
0
 48
50.0
100
AcDbBlockBegin
  2
*D23
 70
     1
 10
0.0
 20
0.0
 30
0.0
  3
*D23
  1

  0
LINE
  5
21CF1
330
206A5
100
AcDbEntity
  8
寸法
 62
     0
 48
50.0
370
    -2
100
AcDbLine
 10
7305.600000000001
 20
8273.73954749526
 30
0.0
 11
7744.046686947115
 21
8273.73954749526
 31
0.0
  0
LINE
  5
21CF2
330
206A5
100
AcDbEntity
  8
寸法
 62
     0
 48
50.0
370
    -2
100
AcDbLine
 10
7305.600000000001
 20
8198.739547495263
 30
0.0
 11
7744.046686947115
 21
8198.739547495263
 31
0.0
  0
LINE
  5
21CF3
330
206A5
100
AcDbEntity
  8
寸法
 62
     0
 48
50.0
370
    -2
100
AcDbLine
 10
7684.046686947116
 20
8273.73954749526
 30
0.0
 11
7684.046686947116
 21
8373.73954749526
 31
0.0
  0
LINE
  5
21CF4
330
206A5
100
AcDbEntity
  8
寸法
 62
     0
 48
50.0
370
    -2
100
AcDbLine
 10
7684.046686947116
 20
8198.739547495263
 30
0.0
 11
7684.046686947116
 21
7781.768984746786
 31
0.0
  0
LINE
  5
21CF5
330
206A5
100
AcDbEntity
  8
寸法
 62
     0
 48
50.0
370
    -2
100
AcDbLine
 10
7684.046686947116
 20
8273.73954749526
 30
0.0
 11
7684.046686947116
 21
8198.739547495263
 31
0.0
  0
INSERT
  5
21CF6
330
206A5
100
AcDbEntity
  8
寸法
 62
     0
 48
50.0
370
    -2
100
AcDbBlockReference
  2
_DOTSMALL
 10
7684.046686947116
 20
8273.73954749526
 30
0.0
 41
100.0
 42
100.0
 43
100.0
 50
270.0
  0
INSERT
  5
21CF7
330
206A5
100
AcDbEntity
  8
寸法
 62
     0
 48
50.0
370
    -2
100
AcDbBlockReference
  2
_DOTSMALL
 10
7684.046686947116
 20
8198.739547495263
 30
0.0
 41
100.0
 42
100.0
 43
100.0
 50
90.0
  0
MTEXT
  5
21CF8
330
206A5
100
AcDbEntity
  8
寸法
 62
     7
 48
50.0
100
AcDbMText
 10
7584.046686947115
 20
7890.254266121026
 30
0.0
 40
120.0
 41
0.0
 71
     5
 72
     1
  1
\A1;75
  7
STYLE1
 11
0.0000000000000001
 21
1.0
 31
0.0
 73
     1
 44
1.0
1001
ACAD
1000
MTEXTBEGIN
1070
    73
1070
     1
1070
    44
1040
1.0
1070
    74
1070
     0
1000
MTEXTEND
  0
POINT
  5
21CF9
330
206A5
100
AcDbEntity
  8
DEFPOINTS
 62
     0
 48
50.0
100
AcDbPoint
 10
7285.600000000001
 20
8273.73954749526
 30
0.0
  0
POINT
  5
21CFA
330
206A5
100
AcDbEntity
  8
DEFPOINTS
 62
     0
 48
50.0
100
AcDbPoint
 10
7285.600000000001
 20
8198.739547495263
 30
0.0
  0
POINT
  5
21CFB
330
206A5
100
AcDbEntity
  8
DEFPOINTS
 62
     0
 48
50.0
100
AcDbPoint
 10
7684.046686947116
 20
8198.739547495263
 30
0.0
  0
ENDBLK
  5
206B2
330
206A5
100
AcDbEntity
  8
0
 48
50.0
100
AcDbBlockEnd
  0
BLOCK
  5
206BC
330
206B3
100
AcDbEntity
  8
0
 48
50.0
100
AcDbBlockBegin
  2
*D24
 70
     1
 10
0.0
 20
0.0
 30
0.0
  3
*D24
  1

  0
LINE
  5
20F5F
330
206B3
100
AcDbEntity
  8
寸法
 62
     0
 48
50.0
370
    -2
100
AcDbLine
 10
7098.600000000001
 20
7512.739547495261
 30
0.0
 11
6794.221505729652
 21
7512.739547495261
 31
0.0
  0
LINE
  5
20F60
330
206B3
100
AcDbEntity
  8
寸法
 62
     0
 48
50.0
370
    -2
100
AcDbLine
 10
6678.157431058355
 20
8318.73954749526
 30
0.0
 11
6914.221505729653
 21
8318.73954749526
 31
0.0
  0
LINE
  5
20F61
330
206B3
100
AcDbEntity
  8
寸法
 62
     0
 48
50.0
370
    -2
100
AcDbLine
 10
6854.221505729651
 20
7512.739547495261
 30
0.0
 11
6854.221505729651
 21
8318.73954749526
 31
0.0
  0
INSERT
  5
20F62
330
206B3
100
AcDbEntity
  8
寸法
 62
     0
 48
50.0
370
    -2
100
AcDbBlockReference
  2
_DOTSMALL
 10
6854.221505729651
 20
7512.739547495261
 30
0.0
 41
100.0
 42
100.0
 43
100.0
 50
270.0
  0
INSERT
  5
20F63
330
206B3
100
AcDbEntity
  8
寸法
 62
     0
 48
50.0
370
    -2
100
AcDbBlockReference
  2
_DOTSMALL
 10
6854.221505729651
 20
8318.73954749526
 30
0.0
 41
100.0
 42
100.0
 43
100.0
 50
90.0
  0
MTEXT
  5
20F64
330
206B3
100
AcDbEntity
  8
寸法
 62
     7
 48
50.0
100
AcDbMText
 10
6754.22150572965
 20
8015.466276693958
 30
0.0
 40
120.0
 41
0.0
 71
     5
 72
     1
  1
\A1;806
  7
STYLE1
 11
0.0000000000000001
 21
1.0
 31
0.0
 73
     1
 44
1.0
1001
ACAD
1000
MTEXTBEGIN
1070
    73
1070
     1
1070
    44
1040
1.0
1070
    74
1070
     0
1000
MTEXTEND
  0
POINT
  5
20F65
330
206B3
100
AcDbEntity
  8
DEFPOINTS
 62
     0
 48
50.0
100
AcDbPoint
 10
7118.6
 20
7512.739547495261
 30
0.0
  0
POINT
  5
20F66
330
206B3
100
AcDbEntity
  8
DEFPOINTS
 62
     0
 48
50.0
100
AcDbPoint
 10
6658.157431058355
 20
8318.73954749526
 30
0.0
  0
POINT
  5
20F67
330
206B3
100
AcDbEntity
  8
DEFPOINTS
 62
     0
 48
50.0
100
AcDbPoint
 10
6854.221505729651
 20
8318.73954749526
 30
0.0
  0
ENDBLK
  5
206BD
330
206B3
100
AcDbEntity
  8
0
 48
50.0
100
AcDbBlockEnd
  0
BLOCK
  5
206C8
330
206BE
100
AcDbEntity
  8
0
 48
50.0
100
AcDbBlockBegin
  2
*D25
 70
     1
 10
0.0
 20
0.0
 30
0.0
  3
*D25
  1

  0
LINE
  5
21D05
330
206BE
100
AcDbEntity
  8
寸法
 62
     0
 48
50.0
370
    -2
100
AcDbLine
 10
5503.6
 20
7730.557561361187
 30
0.0
 11
5503.6
 21
7801.395149689573
 31
0.0
  0
LINE
  5
21D06
330
206BE
100
AcDbEntity
  8
寸法
 62
     0
 48
50.0
370
    -2
100
AcDbLine
 10
7318.6
 20
7632.739547495261
 30
0.0
 11
7318.6
 21
7801.395149689573
 31
0.0
  0
LINE
  5
21D07
330
206BE
100
AcDbEntity
  8
寸法
 62
     0
 48
50.0
370
    -2
100
AcDbLine
 10
5503.6
 20
7741.395149689573
 30
0.0
 11
7318.6
 21
7741.395149689573
 31
0.0
  0
INSERT
  5
21D08
330
206BE
100
AcDbEntity
  8
寸法
 62
     0
 48
50.0
370
    -2
100
AcDbBlockReference
  2
_DOTSMALL
 10
5503.6
 20
7741.395149689573
 30
0.0
 41
100.0
 42
100.0
 43
100.0
 50
180.0
  0
INSERT
  5
21D09
330
206BE
100
AcDbEntity
  8
寸法
 62
     0
 48
50.0
370
    -2
100
AcDbBlockReference
  2
_DOTSMALL
 10
7318.6
 20
7741.395149689573
 30
0.0
 41
100.0
 42
100.0
 43
100.0
  0
MTEXT
  5
21D0A
330
206BE
100
AcDbEntity
  8
寸法
 62
     7
 48
50.0
100
AcDbMText
 10
6411.100000000001
 20
7841.395149689573
 30
0.0
 40
120.0
 41
0.0
 71
     5
 72
     1
  1
\A1;1815
  7
STYLE1
 73
     1
 44
1.0
1001
ACAD
1000
MTEXTBEGIN
1070
    73
1070
     1
1070
    44
1040
1.0
1070
    74
1070
     0
1000
MTEXTEND
  0
POINT
  5
21D0B
330
206BE
100
AcDbEntity
  8
DEFPOINTS
 62
     0
 48
50.0
100
AcDbPoint
 10
5503.6
 20
7710.557561361188
 30
0.0
  0
POINT
  5
21D0C
330
206BE
100
AcDbEntity
  8
DEFPOINTS
 62
     0
 48
50.0
100
AcDbPoint
 10
7318.6
 20
7612.739547495261
 30
0.0
  0
POINT
  5
21D0D
330
206BE
100
AcDbEntity
  8
DEFPOINTS
 62
     0
 48
50.0
100
AcDbPoint
 10
7318.6
 20
7741.395149689573
 30
0.0
  0
ENDBLK
  5
206C9
330
206BE
100
AcDbEntity
  8
0
 48
50.0
100
AcDbBlockEnd
  0
BLOCK
  5
206D4
330
206CA
100
AcDbEntity
  8
0
 48
50.0
100
AcDbBlockBegin
  2
*D26
 70
     1
 10
0.0
 20
0.0
 30
0.0
  3
*D26
  1

  0
LINE
  5
20F42
330
206CA
100
AcDbEntity
  8
寸法
 62
     0
 48
50.0
370
    -2
100
AcDbLine
 10
5478.6
 20
8218.73954749526
 30
0.0
 11
4947.657733986179
 21
8218.73954749526
 31
0.0
  0
LINE
  5
20F43
330
206CA
100
AcDbEntity
  8
寸法
 62
     0
 48
50.0
370
    -2
100
AcDbLine
 10
5478.6
 20
5338.739547495262
 30
0.0
 11
4947.657733986178
 21
5338.739547495262
 31
0.0
  0
LINE
  5
20F44
330
206CA
100
AcDbEntity
  8
寸法
 62
     0
 48
50.0
370
    -2
100
AcDbLine
 10
5007.657733986178
 20
8218.73954749526
 30
0.0
 11
5007.657733986178
 21
5338.739547495262
 31
0.0
  0
INSERT
  5
20F45
330
206CA
100
AcDbEntity
  8
寸法
 62
     0
 48
50.0
370
    -2
100
AcDbBlockReference
  2
_DOTSMALL
 10
5007.657733986178
 20
8218.73954749526
 30
0.0
 41
100.0
 42
100.0
 43
100.0
 50
90.0
  0
INSERT
  5
20F46
330
206CA
100
AcDbEntity
  8
寸法
 62
     0
 48
50.0
370
    -2
100
AcDbBlockReference
  2
_DOTSMALL
 10
5007.657733986178
 20
5338.739547495262
 30
0.0
 41
100.0
 42
100.0
 43
100.0
 50
270.0
  0
MTEXT
  5
20F47
330
206CA
100
AcDbEntity
  8
寸法
 62
     7
 48
50.0
100
AcDbMText
 10
4907.645922962555
 20
6778.739547495263
 30
0.0
 40
120.0
 41
0.0
 71
     5
 72
     1
  1
\A1;2880
  7
STYLE1
 11
0.0000000000000001
 21
1.0
 31
0.0
 73
     1
 44
1.0
1001
ACAD
1000
MTEXTBEGIN
1070
    73
1070
     1
1070
    44
1040
1.0
1070
    74
1070
     0
1000
MTEXTEND
  0
POINT
  5
20F48
330
206CA
100
AcDbEntity
  8
DEFPOINTS
 62
     0
 48
50.0
100
AcDbPoint
 10
5498.6
 20
8218.73954749526
 30
0.0
  0
POINT
  5
20F49
330
206CA
100
AcDbEntity
  8
DEFPOINTS
 62
     0
 48
50.0
100
AcDbPoint
 10
5498.6
 20
5338.739547495262
 30
0.0
  0
POINT
  5
20F4A
330
206CA
100
AcDbEntity
  8
DEFPOINTS
 62
     0
 48
50.0
100
AcDbPoint
 10
5007.657733986178
 20
5338.739547495262
 30
0.0
  0
ENDBLK
  5
206D5
330
206CA
100
AcDbEntity
  8
0
 48
50.0
100
AcDbBlockEnd
  0
BLOCK
  5
206DF
330
206D6
100
AcDbEntity
  8
0
 48
50.0
100
AcDbBlockBegin
  2
*D27
 70
     1
 10
0.0
 20
0.0
 30
0.0
  3
*D27
  1

  0
LINE
  5
21CFC
330
206D6
100
AcDbEntity
  8
寸法
 62
     0
 48
50.0
370
    -2
100
AcDbLine
 10
7318.6
 20
7632.739547495261
 30
0.0
 11
7318.6
 21
7801.395149689573
 31
0.0
  0
LINE
  5
21CFD
330
206D6
100
AcDbEntity
  8
寸法
 62
     0
 48
50.0
370
    -2
100
AcDbLine
 10
9128.6
 20
7632.739547495261
 30
0.0
 11
9128.6
 21
7801.395149689573
 31
0.0
  0
LINE
  5
21CFE
330
206D6
100
AcDbEntity
  8
寸法
 62
     0
 48
50.0
370
    -2
100
AcDbLine
 10
7318.6
 20
7741.395149689573
 30
0.0
 11
9128.6
 21
7741.395149689573
 31
0.0
  0
INSERT
  5
21CFF
330
206D6
100
AcDbEntity
  8
寸法
 62
     0
 48
50.0
370
    -2
100
AcDbBlockReference
  2
_DOTSMALL
 10
7318.6
 20
7741.395149689573
 30
0.0
 41
100.0
 42
100.0
 43
100.0
 50
180.0
  0
INSERT
  5
21D00
330
206D6
100
AcDbEntity
  8
寸法
 62
     0
 48
50.0
370
    -2
100
AcDbBlockReference
  2
_DOTSMALL
 10
9128.6
 20
7741.395149689573
 30
0.0
 41
100.0
 42
100.0
 43
100.0
  0
MTEXT
  5
21D01
330
206D6
100
AcDbEntity
  8
寸法
 62
     7
 48
50.0
100
AcDbMText
 10
8223.600000000001
 20
7841.395149689573
 30
0.0
 40
120.0
 41
0.0
 71
     5
 72
     1
  1
\A1;1810
  7
STYLE1
 73
     1
 44
1.0
1001
ACAD
1000
MTEXTBEGIN
1070
    73
1070
     1
1070
    44
1040
1.0
1070
    74
1070
     0
1000
MTEXTEND
  0
POINT
  5
21D02
330
206D6
100
AcDbEntity
  8
DEFPOINTS
 62
     0
 48
50.0
100
AcDbPoint
 10
7318.6
 20
7612.739547495261
 30
0.0
  0
POINT
  5
21D03
330
206D6
100
AcDbEntity
  8
DEFPOINTS
 62
     0
 48
50.0
100
AcDbPoint
 10
9128.6
 20
7612.739547495261
 30
0.0
  0
POINT
  5
21D04
330
206D6
100
AcDbEntity
  8
DEFPOINTS
 62
     0
 48
50.0
100
AcDbPoint
 10
9128.6
 20
7741.395149689573
 30
0.0
  0
ENDBLK
  5
206E0
330
206D6
100
AcDbEntity
  8
0
 48
50.0
100
AcDbBlockEnd
  0
BLOCK
  5
206EA
330
206E1
100
AcDbEntity
  8
0
 48
50.0
100
AcDbBlockBegin
  2
*D28
 70
     1
 10
0.0
 20
0.0
 30
0.0
  3
*D28
  1

  0
LINE
  5
20F39
330
206E1
100
AcDbEntity
  8
寸法
 62
     0
 48
50.0
370
    -2
100
AcDbLine
 10
5483.6
 20
8318.73954749526
 30
0.0
 11
4702.164931848211
 21
8318.73954749526
 31
0.0
  0
LINE
  5
20F3A
330
206E1
100
AcDbEntity
  8
寸法
 62
     0
 48
50.0
370
    -2
100
AcDbLine
 10
5483.6
 20
5238.739547495261
 30
0.0
 11
4702.16493184821
 21
5238.739547495261
 31
0.0
  0
LINE
  5
20F3B
330
206E1
100
AcDbEntity
  8
寸法
 62
     0
 48
50.0
370
    -2
100
AcDbLine
 10
4762.164931848211
 20
8318.73954749526
 30
0.0
 11
4762.16493184821
 21
5238.739547495261
 31
0.0
  0
INSERT
  5
20F3C
330
206E1
100
AcDbEntity
  8
寸法
 62
     0
 48
50.0
370
    -2
100
AcDbBlockReference
  2
_DOTSMALL
 10
4762.164931848211
 20
8318.73954749526
 30
0.0
 41
100.0
 42
100.0
 43
100.0
 50
90.0
  0
INSERT
  5
20F3D
330
206E1
100
AcDbEntity
  8
寸法
 62
     0
 48
50.0
370
    -2
100
AcDbBlockReference
  2
_DOTSMALL
 10
4762.16493184821
 20
5238.739547495261
 30
0.0
 41
100.0
 42
100.0
 43
100.0
 50
270.0
  0
MTEXT
  5
20F3E
330
206E1
100
AcDbEntity
  8
寸法
 62
     7
 48
50.0
100
AcDbMText
 10
4662.164931848209
 20
6778.739547495263
 30
0.0
 40
120.0
 41
0.0
 71
     5
 72
     1
  1
\A1;3080
  7
STYLE1
 11
0.0000000000000001
 21
1.0
 31
0.0
 73
     1
 44
1.0
1001
ACAD
1000
MTEXTBEGIN
1070
    73
1070
     1
1070
    44
1040
1.0
1070
    74
1070
     0
1000
MTEXTEND
  0
POINT
  5
20F3F
330
206E1
100
AcDbEntity
  8
DEFPOINTS
 62
     0
 48
50.0
100
AcDbPoint
 10
5503.6
 20
8318.73954749526
 30
0.0
  0
POINT
  5
20F40
330
206E1
100
AcDbEntity
  8
DEFPOINTS
 62
     0
 48
50.0
100
AcDbPoint
 10
5503.6
 20
5238.739547495261
 30
0.0
  0
POINT
  5
20F41
330
206E1
100
AcDbEntity
  8
DEFPOINTS
 62
     0
 48
50.0
100
AcDbPoint
 10
4762.16493184821
 20
5238.739547495261
 30
0.0
  0
ENDBLK
  5
206EB
330
206E1
100
AcDbEntity
  8
0
 48
50.0
100
AcDbBlockEnd
  0
BLOCK
  5
206F6
330
206EC
100
AcDbEntity
  8
0
 48
50.0
100
AcDbBlockBegin
  2
*D29
 70
     1
 10
0.0
 20
0.0
 30
0.0
  3
*D29
  1

  0
LINE
  5
20F8C
330
206EC
100
AcDbEntity
  8
寸法
 62
     0
 48
50.0
370
    -2
100
AcDbLine
 10
6774.045939259561
 20
5238.739547495271
 30
0.0
 11
6913.531448609052
 21
5238.739547495271
 31
0.0
  0
LINE
  5
20F8D
330
206EC
100
AcDbEntity
  8
寸法
 62
     0
 48
50.0
370
    -2
100
AcDbLine
 10
7098.600000000001
 20
6044.739547495261
 30
0.0
 11
6793.531448609051
 21
6044.739547495261
 31
0.0
  0
LINE
  5
20F8E
330
206EC
100
AcDbEntity
  8
寸法
 62
     0
 48
50.0
370
    -2
100
AcDbLine
 10
6853.531448609053
 20
5238.739547495271
 30
0.0
 11
6853.531448609053
 21
6044.739547495261
 31
0.0
  0
INSERT
  5
20F8F
330
206EC
100
AcDbEntity
  8
寸法
 62
     0
 48
50.0
370
    -2
100
AcDbBlockReference
  2
_DOTSMALL
 10
6853.531448609053
 20
5238.739547495271
 30
0.0
 41
100.0
 42
100.0
 43
100.0
 50
270.0
  0
INSERT
  5
20F90
330
206EC
100
AcDbEntity
  8
寸法
 62
     0
 48
50.0
370
    -2
100
AcDbBlockReference
  2
_DOTSMALL
 10
6853.531448609053
 20
6044.739547495261
 30
0.0
 41
100.0
 42
100.0
 43
100.0
 50
90.0
  0
MTEXT
  5
20F91
330
206EC
100
AcDbEntity
  8
寸法
 62
     7
 48
50.0
100
AcDbMText
 10
6753.531448609051
 20
5641.739547495268
 30
0.0
 40
120.0
 41
0.0
 71
     5
 72
     1
  1
\A1;806
  7
STYLE1
 11
0.0000000000000001
 21
1.0
 31
0.0
 73
     1
 44
1.0
1001
ACAD
1000
MTEXTBEGIN
1070
    73
1070
     1
1070
    44
1040
1.0
1070
    74
1070
     0
1000
MTEXTEND
  0
POINT
  5
20F92
330
206EC
100
AcDbEntity
  8
DEFPOINTS
 62
     0
 48
50.0
100
AcDbPoint
 10
6754.045939259561
 20
5238.739547495271
 30
0.0
  0
POINT
  5
20F93
330
206EC
100
AcDbEntity
  8
DEFPOINTS
 62
     0
 48
50.0
100
AcDbPoint
 10
7118.6
 20
6044.739547495261
 30
0.0
  0
POINT
  5
20F94
330
206EC
100
AcDbEntity
  8
DEFPOINTS
 62
     0
 48
50.0
100
AcDbPoint
 10
6853.531448609053
 20
6044.739547495261
 30
0.0
  0
ENDBLK
  5
206F7
330
206EC
100
AcDbEntity
  8
0
 48
50.0
100
AcDbBlockEnd
  0
BLOCK
  5
20700
330
206F8
100
AcDbEntity
  8
0
 48
50.0
100
AcDbBlockBegin
  2
*D30
 70
     1
 10
0.0
 20
0.0
 30
0.0
  3
*D30
  1

  0
LINE
  5
20F2E
330
206F8
100
AcDbEntity
  8
寸法
 62
     0
 48
50.0
370
    -2
100
AcDbLine
 10
5483.6
 20
5238.739547495261
 30
0.0
 11
4702.16493184821
 21
5238.739547495261
 31
0.0
  0
LINE
  5
20F2F
330
206F8
100
AcDbEntity
  8
寸法
 62
     0
 48
50.0
370
    -2
100
AcDbLine
 10
4987.657733986178
 20
5138.739547495261
 30
0.0
 11
4702.16493184821
 21
5138.739547495261
 31
0.0
  0
LINE
  5
20F30
330
206F8
100
AcDbEntity
  8
寸法
 62
     0
 48
50.0
370
    -2
100
AcDbLine
 10
4762.16493184821
 20
5238.739547495261
 30
0.0
 11
4762.16493184821
 21
5338.739547495261
 31
0.0
  0
LINE
  5
20F31
330
206F8
100
AcDbEntity
  8
寸法
 62
     0
 48
50.0
370
    -2
100
AcDbLine
 10
4762.16493184821
 20
5138.739547495261
 30
0.0
 11
4762.16493184821
 21
5038.739547495261
 31
0.0
  0
LINE
  5
20F32
330
206F8
100
AcDbEntity
  8
寸法
 62
     0
 48
50.0
370
    -2
100
AcDbLine
 10
4762.16493184821
 20
5238.739547495261
 30
0.0
 11
4762.16493184821
 21
5138.739547495261
 31
0.0
  0
INSERT
  5
20F33
330
206F8
100
AcDbEntity
  8
寸法
 62
     0
 48
50.0
370
    -2
100
AcDbBlockReference
  2
_DOTSMALL
 10
4762.16493184821
 20
5238.739547495261
 30
0.0
 41
100.0
 42
100.0
 43
100.0
 50
270.0
  0
INSERT
  5
20F34
330
206F8
100
AcDbEntity
  8
寸法
 62
     0
 48
50.0
370
    -2
100
AcDbBlockReference
  2
_DOTSMALL
 10
4762.16493184821
 20
5138.739547495261
 30
0.0
 41
100.0
 42
100.0
 43
100.0
 50
90.0
  0
MTEXT
  5
20F35
330
206F8
100
AcDbEntity
  8
寸法
 62
     7
 48
50.0
100
AcDbMText
 10
4662.164931848209
 20
5188.739547495262
 30
0.0
 40
120.0
 41
0.0
 71
     5
 72
     1
  1
\A1;a
  7
STYLE1
 11
0.0000000000000001
 21
1.0
 31
0.0
 73
     1
 44
1.0
1001
ACAD
1000
MTEXTBEGIN
1070
    73
1070
     1
1070
    44
1040
1.0
1070
    74
1070
     0
1000
MTEXTEND
  0
POINT
  5
20F36
330
206F8
100
AcDbEntity
  8
DEFPOINTS
 62
     0
 48
50.0
100
AcDbPoint
 10
5503.6
 20
5238.739547495261
 30
0.0
  0
POINT
  5
20F37
330
206F8
100
AcDbEntity
  8
DEFPOINTS
 62
     0
 48
50.0
100
AcDbPoint
 10
5007.657733986178
 20
5138.739547495261
 30
0.0
  0
POINT
  5
20F38
330
206F8
100
AcDbEntity
  8
DEFPOINTS
 62
     0
 48
50.0
100
AcDbPoint
 10
4762.16493184821
 20
5138.739547495261
 30
0.0
  0
ENDBLK
  5
20701
330
206F8
100
AcDbEntity
  8
0
 48
50.0
100
AcDbBlockEnd
  0
BLOCK
  5
2070D
330
20702
100
AcDbEntity
  8
0
 48
50.0
100
AcDbBlockBegin
  2
*D31
 70
     1
 10
0.0
 20
0.0
 30
0.0
  3
*D31
  1

  0
LINE
  5
20F24
330
20702
100
AcDbEntity
  8
寸法
 62
     0
 48
50.0
370
    -2
100
AcDbLine
 10
5478.6
 20
5338.739547495262
 30
0.0
 11
4947.657733986179
 21
5338.739547495262
 31
0.0
  0
LINE
  5
20F25
330
20702
100
AcDbEntity
  8
寸法
 62
     0
 48
50.0
370
    -2
100
AcDbLine
 10
5483.6
 20
5238.739547495261
 30
0.0
 11
4947.657733986179
 21
5238.739547495261
 31
0.0
  0
LINE
  5
20F26
330
20702
100
AcDbEntity
  8
寸法
 62
     0
 48
50.0
370
    -2
100
AcDbLine
 10
5007.657733986178
 20
5338.739547495262
 30
0.0
 11
5007.657733986178
 21
5238.739547495261
 31
0.0
  0
LINE
  5
20F27
330
20702
100
AcDbEntity
  8
寸法
 62
     0
 48
50.0
370
    -2
100
AcDbLine
 10
5007.657733986178
 20
5238.739547495261
 30
0.0
 11
5007.657733986178
 21
4737.633248282661
 31
0.0
  0
INSERT
  5
20F28
330
20702
100
AcDbEntity
  8
寸法
 62
     0
 48
50.0
370
    -2
100
AcDbBlockReference
  2
_DOTSMALL
 10
5007.657733986178
 20
5338.739547495262
 30
0.0
 41
100.0
 42
100.0
 43
100.0
 50
90.0
  0
INSERT
  5
20F29
330
20702
100
AcDbEntity
  8
寸法
 62
     0
 48
50.0
370
    -2
100
AcDbBlockReference
  2
_DOTSMALL
 10
5007.657733986178
 20
5238.739547495261
 30
0.0
 41
100.0
 42
100.0
 43
100.0
 50
270.0
  0
MTEXT
  5
20F2A
330
20702
100
AcDbEntity
  8
寸法
 62
     7
 48
50.0
100
AcDbMText
 10
4907.657733986177
 20
4873.68049237715
 30
0.0
 40
120.0
 41
0.0
 71
     5
 72
     1
  1
\A1;100
  7
STYLE1
 11
0.0000000000000001
 21
1.0
 31
0.0
 73
     1
 44
1.0
1001
ACAD
1000
MTEXTBEGIN
1070
    73
1070
     1
1070
    44
1040
1.0
1070
    74
1070
     0
1000
MTEXTEND
  0
POINT
  5
20F2B
330
20702
100
AcDbEntity
  8
DEFPOINTS
 62
     0
 48
50.0
100
AcDbPoint
 10
5498.6
 20
5338.739547495262
 30
0.0
  0
POINT
  5
20F2C
330
20702
100
AcDbEntity
  8
DEFPOINTS
 62
     0
 48
50.0
100
AcDbPoint
 10
5503.6
 20
5238.739547495261
 30
0.0
  0
POINT
  5
20F2D
330
20702
100
AcDbEntity
  8
DEFPOINTS
 62
     0
 48
50.0
100
AcDbPoint
 10
5007.657733986178
 20
5238.739547495261
 30
0.0
  0
ENDBLK
  5
2070E
330
20702
100
AcDbEntity
  8
0
 48
50.0
100
AcDbBlockEnd
  0
BLOCK
  5
2071A
330
2070F
100
AcDbEntity
  8
0
 48
50.0
100
AcDbBlockBegin
  2
*D32
 70
     1
 10
0.0
 20
0.0
 30
0.0
  3
*D32
  1

  0
LINE
  5
21CBD
330
2070F
100
AcDbEntity
  8
寸法
 62
     0
 48
50.0
370
    -2
100
AcDbLine
 10
5623.600000000001
 20
6898.739547495265
 30
0.0
 11
5623.600000000001
 21
7192.063737966456
 31
0.0
  0
LINE
  5
21CBE
330
2070F
100
AcDbEntity
  8
寸法
 62
     0
 48
50.0
370
    -2
100
AcDbLine
 10
5503.600000000002
 20
6898.739547495265
 30
0.0
 11
5503.600000000002
 21
7192.063737966456
 31
0.0
  0
LINE
  5
21CBF
330
2070F
100
AcDbEntity
  8
寸法
 62
     0
 48
50.0
370
    -2
100
AcDbLine
 10
5623.600000000001
 20
7132.063737966454
 30
0.0
 11
5503.600000000002
 21
7132.063737966454
 31
0.0
  0
LINE
  5
21CC0
330
2070F
100
AcDbEntity
  8
寸法
 62
     0
 48
50.0
370
    -2
100
AcDbLine
 10
5503.600000000002
 20
7132.063737966454
 30
0.0
 11
5131.505511811025
 21
7132.063737966454
 31
0.0
  0
INSERT
  5
21CC1
330
2070F
100
AcDbEntity
  8
寸法
 62
     0
 48
50.0
370
    -2
100
AcDbBlockReference
  2
_DOTSMALL
 10
5623.600000000001
 20
7132.063737966454
 30
0.0
 41
100.0
 42
100.0
 43
100.0
  0
INSERT
  5
21CC2
330
2070F
100
AcDbEntity
  8
寸法
 62
     0
 48
50.0
370
    -2
100
AcDbBlockReference
  2
_DOTSMALL
 10
5503.600000000002
 20
7132.063737966454
 30
0.0
 41
100.0
 42
100.0
 43
100.0
 50
180.0
  0
MTEXT
  5
21CC3
330
2070F
100
AcDbEntity
  8
寸法
 62
     7
 48
50.0
100
AcDbMText
 10
5267.552755905512
 20
7232.075548990076
 30
0.0
 40
120.0
 41
0.0
 71
     5
 72
     1
  1
\A1;120
  7
STYLE1
 73
     1
 44
1.0
1001
ACAD
1000
MTEXTBEGIN
1070
    73
1070
     1
1070
    44
1040
1.0
1070
    74
1070
     0
1000
MTEXTEND
  0
POINT
  5
21CC4
330
2070F
100
AcDbEntity
  8
DEFPOINTS
 62
     0
 48
50.0
100
AcDbPoint
 10
5623.600000000001
 20
6878.739547495264
 30
0.0
  0
POINT
  5
21CC5
330
2070F
100
AcDbEntity
  8
DEFPOINTS
 62
     0
 48
50.0
100
AcDbPoint
 10
5503.600000000002
 20
6878.739547495264
 30
0.0
  0
POINT
  5
21CC6
330
2070F
100
AcDbEntity
  8
DEFPOINTS
 62
     0
 48
50.0
100
AcDbPoint
 10
5503.600000000002
 20
7132.063737966454
 30
0.0
  0
ENDBLK
  5
2071B
330
2070F
100
AcDbEntity
  8
0
 48
50.0
100
AcDbBlockEnd
  0
BLOCK
  5
20726
330
2071C
100
AcDbEntity
  8
0
 48
50.0
100
AcDbBlockBegin
  2
*D33
 70
     1
 10
0.0
 20
0.0
 30
0.0
  3
*D33
  1

  0
LINE
  5
20F83
330
2071C
100
AcDbEntity
  8
寸法
 62
     0
 48
50.0
370
    -2
100
AcDbLine
 10
7098.600000000001
 20
6044.73954749527
 30
0.0
 11
6793.531448609051
 21
6044.73954749527
 31
0.0
  0
LINE
  5
20F84
330
2071C
100
AcDbEntity
  8
寸法
 62
     0
 48
50.0
370
    -2
100
AcDbLine
 10
7098.600000000001
 20
6778.73954749526
 30
0.0
 11
6793.531448609051
 21
6778.73954749526
 31
0.0
  0
LINE
  5
20F85
330
2071C
100
AcDbEntity
  8
寸法
 62
     0
 48
50.0
370
    -2
100
AcDbLine
 10
6853.531448609051
 20
6044.73954749527
 30
0.0
 11
6853.531448609053
 21
6778.73954749526
 31
0.0
  0
INSERT
  5
20F86
330
2071C
100
AcDbEntity
  8
寸法
 62
     0
 48
50.0
370
    -2
100
AcDbBlockReference
  2
_DOTSMALL
 10
6853.531448609051
 20
6044.73954749527
 30
0.0
 41
100.0
 42
100.0
 43
100.0
 50
270.0
  0
INSERT
  5
20F87
330
2071C
100
AcDbEntity
  8
寸法
 62
     0
 48
50.0
370
    -2
100
AcDbBlockReference
  2
_DOTSMALL
 10
6853.531448609053
 20
6778.73954749526
 30
0.0
 41
100.0
 42
100.0
 43
100.0
 50
90.0
  0
MTEXT
  5
20F88
330
2071C
100
AcDbEntity
  8
寸法
 62
     7
 48
50.0
100
AcDbMText
 10
6753.53144860905
 20
6411.739547495267
 30
0.0
 40
120.0
 41
0.0
 71
     5
 72
     1
  1
\A1;734
  7
STYLE1
 11
0.0000000000000001
 21
1.0
 31
0.0
 73
     1
 44
1.0
1001
ACAD
1000
MTEXTBEGIN
1070
    73
1070
     1
1070
    44
1040
1.0
1070
    74
1070
     0
1000
MTEXTEND
  0
POINT
  5
20F89
330
2071C
100
AcDbEntity
  8
DEFPOINTS
 62
     0
 48
50.0
100
AcDbPoint
 10
7118.6
 20
6044.73954749527
 30
0.0
  0
POINT
  5
20F8A
330
2071C
100
AcDbEntity
  8
DEFPOINTS
 62
     0
 48
50.0
100
AcDbPoint
 10
7118.6
 20
6778.73954749526
 30
0.0
  0
POINT
  5
20F8B
330
2071C
100
AcDbEntity
  8
DEFPOINTS
 62
     0
 48
50.0
100
AcDbPoint
 10
6853.531448609053
 20
6778.73954749526
 30
0.0
  0
ENDBLK
  5
20727
330
2071C
100
AcDbEntity
  8
0
 48
50.0
100
AcDbBlockEnd
  0
BLOCK
  5
20732
330
20728
100
AcDbEntity
  8
0
 48
50.0
100
AcDbBlockBegin
  2
*D34
 70
     1
 10
0.0
 20
0.0
 30
0.0
  3
*D34
  1

  0
LINE
  5
20F7A
330
20728
100
AcDbEntity
  8
寸法
 62
     0
 48
50.0
370
    -2
100
AcDbLine
 10
7098.600000000001
 20
6778.73954749527
 30
0.0
 11
6793.531448609051
 21
6778.73954749527
 31
0.0
  0
LINE
  5
20F7B
330
20728
100
AcDbEntity
  8
寸法
 62
     0
 48
50.0
370
    -2
100
AcDbLine
 10
7098.600000000001
 20
7512.739547495261
 30
0.0
 11
6793.531448609051
 21
7512.739547495261
 31
0.0
  0
LINE
  5
20F7C
330
20728
100
AcDbEntity
  8
寸法
 62
     0
 48
50.0
370
    -2
100
AcDbLine
 10
6853.531448609053
 20
6778.73954749527
 30
0.0
 11
6853.531448609053
 21
7512.739547495261
 31
0.0
  0
INSERT
  5
20F7D
330
20728
100
AcDbEntity
  8
寸法
 62
     0
 48
50.0
370
    -2
100
AcDbBlockReference
  2
_DOTSMALL
 10
6853.531448609053
 20
6778.73954749527
 30
0.0
 41
100.0
 42
100.0
 43
100.0
 50
270.0
  0
INSERT
  5
20F7E
330
20728
100
AcDbEntity
  8
寸法
 62
     0
 48
50.0
370
    -2
100
AcDbBlockReference
  2
_DOTSMALL
 10
6853.531448609053
 20
7512.739547495261
 30
0.0
 41
100.0
 42
100.0
 43
100.0
 50
90.0
  0
MTEXT
  5
20F7F
330
20728
100
AcDbEntity
  8
寸法
 62
     7
 48
50.0
100
AcDbMText
 10
6753.53144860905
 20
7145.739547495267
 30
0.0
 40
120.0
 41
0.0
 71
     5
 72
     1
  1
\A1;734
  7
STYLE1
 11
0.0000000000000001
 21
1.0
 31
0.0
 73
     1
 44
1.0
1001
ACAD
1000
MTEXTBEGIN
1070
    73
1070
     1
1070
    44
1040
1.0
1070
    74
1070
     0
1000
MTEXTEND
  0
POINT
  5
20F80
330
20728
100
AcDbEntity
  8
DEFPOINTS
 62
     0
 48
50.0
100
AcDbPoint
 10
7118.6
 20
6778.73954749527
 30
0.0
  0
POINT
  5
20F81
330
20728
100
AcDbEntity
  8
DEFPOINTS
 62
     0
 48
50.0
100
AcDbPoint
 10
7118.6
 20
7512.739547495261
 30
0.0
  0
POINT
  5
20F82
330
20728
100
AcDbEntity
  8
DEFPOINTS
 62
     0
 48
50.0
100
AcDbPoint
 10
6853.531448609053
 20
7512.739547495261
 30
0.0
  0
ENDBLK
  5
20733
330
20728
100
AcDbEntity
  8
0
 48
50.0
100
AcDbBlockEnd
  0
BLOCK
  5
20740
330
20734
100
AcDbEntity
  8
0
 48
50.0
100
AcDbBlockBegin
  2
*D35
 70
     1
 10
0.0
 20
0.0
 30
0.0
  3
*D35
  1

  0
LINE
  5
21CDB
330
20734
100
AcDbEntity
  8
寸法
 62
     0
 48
50.0
370
    -2
100
AcDbLine
 10
7305.600000000008
 20
5283.739547495263
 30
0.0
 11
7744.046686947124
 21
5283.739547495263
 31
0.0
  0
LINE
  5
21CDC
330
20734
100
AcDbEntity
  8
寸法
 62
     0
 48
50.0
370
    -2
100
AcDbLine
 10
7305.600000000008
 20
5358.73954749527
 30
0.0
 11
7744.046686947124
 21
5358.73954749527
 31
0.0
  0
LINE
  5
21CDD
330
20734
100
AcDbEntity
  8
寸法
 62
     0
 48
50.0
370
    -2
100
AcDbLine
 10
7684.046686947123
 20
5283.739547495263
 30
0.0
 11
7684.046686947123
 21
5183.739547495263
 31
0.0
  0
LINE
  5
21CDE
330
20734
100
AcDbEntity
  8
寸法
 62
     0
 48
50.0
370
    -2
100
AcDbLine
 10
7684.046686947123
 20
5358.73954749527
 30
0.0
 11
7684.046686947123
 21
5775.710110243747
 31
0.0
  0
LINE
  5
21CDF
330
20734
100
AcDbEntity
  8
寸法
 62
     0
 48
50.0
370
    -2
100
AcDbLine
 10
7684.046686947123
 20
5283.739547495263
 30
0.0
 11
7684.046686947123
 21
5358.73954749527
 31
0.0
  0
INSERT
  5
21CE0
330
20734
100
AcDbEntity
  8
寸法
 62
     0
 48
50.0
370
    -2
100
AcDbBlockReference
  2
_DOTSMALL
 10
7684.046686947123
 20
5283.739547495263
 30
0.0
 41
100.0
 42
100.0
 43
100.0
 50
90.0
  0
INSERT
  5
21CE1
330
20734
100
AcDbEntity
  8
寸法
 62
     0
 48
50.0
370
    -2
100
AcDbBlockReference
  2
_DOTSMALL
 10
7684.046686947123
 20
5358.73954749527
 30
0.0
 41
100.0
 42
100.0
 43
100.0
 50
270.0
  0
MTEXT
  5
21CE2
330
20734
100
AcDbEntity
  8
寸法
 62
     7
 48
50.0
100
AcDbMText
 10
7584.046686947123
 20
5667.224828869509
 30
0.0
 40
120.0
 41
0.0
 71
     5
 72
     1
  1
\A1;75
  7
STYLE1
 11
0.0000000000000001
 21
1.0
 31
0.0
 73
     1
 44
1.0
1001
ACAD
1000
MTEXTBEGIN
1070
    73
1070
     1
1070
    44
1040
1.0
1070
    74
1070
     0
1000
MTEXTEND
  0
POINT
  5
21CE3
330
20734
100
AcDbEntity
  8
DEFPOINTS
 62
     0
 48
50.0
100
AcDbPoint
 10
7285.600000000008
 20
5283.739547495263
 30
0.0
  0
POINT
  5
21CE4
330
20734
100
AcDbEntity
  8
DEFPOINTS
 62
     0
 48
50.0
100
AcDbPoint
 10
7285.600000000008
 20
5358.73954749527
 30
0.0
  0
POINT
  5
21CE5
330
20734
100
AcDbEntity
  8
DEFPOINTS
 62
     0
 48
50.0
100
AcDbPoint
 10
7684.046686947123
 20
5358.73954749527
 30
0.0
  0
ENDBLK
  5
20741
330
20734
100
AcDbEntity
  8
0
 48
50.0
100
AcDbBlockEnd
  0
BLOCK
  5
2074E
330
20742
100
AcDbEntity
  8
0
 48
50.0
100
AcDbBlockBegin
  2
*D36
 70
     1
 10
0.0
 20
0.0
 30
0.0
  3
*D36
  1

  0
LINE
  5
20FB1
330
20742
100
AcDbEntity
  8
寸法
 62
     0
 48
50.0
370
    -2
100
AcDbLine
 10
7305.600000000008
 20
5283.739547495263
 30
0.0
 11
7744.046686947124
 21
5283.739547495263
 31
0.0
  0
LINE
  5
20FB2
330
20742
100
AcDbEntity
  8
寸法
 62
     0
 48
50.0
370
    -2
100
AcDbLine
 10
7305.600000000008
 20
5238.739547495261
 30
0.0
 11
7744.046686947124
 21
5238.739547495261
 31
0.0
  0
LINE
  5
20FB3
330
20742
100
AcDbEntity
  8
寸法
 62
     0
 48
50.0
370
    -2
100
AcDbLine
 10
7684.046686947123
 20
5283.739547495263
 30
0.0
 11
7684.046686947123
 21
5383.739547495263
 31
0.0
  0
LINE
  5
20FB4
330
20742
100
AcDbEntity
  8
寸法
 62
     0
 48
50.0
370
    -2
100
AcDbLine
 10
7684.046686947123
 20
5238.739547495261
 30
0.0
 11
7684.046686947123
 21
4809.768984746784
 31
0.0
  0
LINE
  5
20FB5
330
20742
100
AcDbEntity
  8
寸法
 62
     0
 48
50.0
370
    -2
100
AcDbLine
 10
7684.046686947123
 20
5283.739547495263
 30
0.0
 11
7684.046686947123
 21
5238.739547495261
 31
0.0
  0
INSERT
  5
20FB6
330
20742
100
AcDbEntity
  8
寸法
 62
     0
 48
50.0
370
    -2
100
AcDbBlockReference
  2
_DOTSMALL
 10
7684.046686947123
 20
5283.739547495263
 30
0.0
 41
100.0
 42
100.0
 43
100.0
 50
270.0
  0
INSERT
  5
20FB7
330
20742
100
AcDbEntity
  8
寸法
 62
     0
 48
50.0
370
    -2
100
AcDbBlockReference
  2
_DOTSMALL
 10
7684.046686947123
 20
5238.739547495261
 30
0.0
 41
100.0
 42
100.0
 43
100.0
 50
90.0
  0
MTEXT
  5
20FB8
330
20742
100
AcDbEntity
  8
寸法
 62
     7
 48
50.0
100
AcDbMText
 10
7584.046686947123
 20
4924.254266121024
 30
0.0
 40
120.0
 41
0.0
 71
     5
 72
     1
  1
\A1;45
  7
STYLE1
 11
0.0000000000000001
 21
1.0
 31
0.0
 73
     1
 44
1.0
1001
ACAD
1000
MTEXTBEGIN
1070
    73
1070
     1
1070
    44
1040
1.0
1070
    74
1070
     0
1000
MTEXTEND
  0
POINT
  5
20FB9
330
20742
100
AcDbEntity
  8
DEFPOINTS
 62
     0
 48
50.0
100
AcDbPoint
 10
7285.600000000008
 20
5283.739547495263
 30
0.0
  0
POINT
  5
20FBA
330
20742
100
AcDbEntity
  8
DEFPOINTS
 62
     0
 48
50.0
100
AcDbPoint
 10
7285.600000000008
 20
5238.739547495261
 30
0.0
  0
POINT
  5
20FBB
330
20742
100
AcDbEntity
  8
DEFPOINTS
 62
     0
 48
50.0
100
AcDbPoint
 10
7684.046686947123
 20
5238.739547495261
 30
0.0
  0
ENDBLK
  5
2074F
330
20742
100
AcDbEntity
  8
0
 48
50.0
100
AcDbBlockEnd
  0
BLOCK
  5
2075A
330
20750
100
AcDbEntity
  8
0
 48
50.0
100
AcDbBlockBegin
  2
*D37
 70
     1
 10
0.0
 20
0.0
 30
0.0
  3
*D37
  1

  0
LINE
  5
20EF4
330
20750
100
AcDbEntity
  8
寸法
 62
     0
 48
50.0
370
    -2
100
AcDbLine
 10
7235.600000000001
 20
8343.73954749526
 30
0.0
 11
7235.600000000001
 21
9124.499174037344
 31
0.0
  0
LINE
  5
20EF5
330
20750
100
AcDbEntity
  8
寸法
 62
     0
 48
50.0
370
    -2
100
AcDbLine
 10
5548.6
 20
8288.739547495261
 30
0.0
 11
5548.6
 21
9124.499174037344
 31
0.0
  0
LINE
  5
20EF6
330
20750
100
AcDbEntity
  8
寸法
 62
     0
 48
50.0
370
    -2
100
AcDbLine
 10
7235.600000000001
 20
9064.499174037344
 30
0.0
 11
5548.6
 21
9064.499174037344
 31
0.0
  0
INSERT
  5
20EF7
330
20750
100
AcDbEntity
  8
寸法
 62
     0
 48
50.0
370
    -2
100
AcDbBlockReference
  2
_DOTSMALL
 10
7235.600000000001
 20
9064.499174037344
 30
0.0
 41
100.0
 42
100.0
 43
100.0
  0
INSERT
  5
20EF8
330
20750
100
AcDbEntity
  8
寸法
 62
     0
 48
50.0
370
    -2
100
AcDbBlockReference
  2
_DOTSMALL
 10
5548.6
 20
9064.499174037344
 30
0.0
 41
100.0
 42
100.0
 43
100.0
 50
180.0
  0
MTEXT
  5
20EF9
330
20750
100
AcDbEntity
  8
寸法
 62
     7
 48
50.0
100
AcDbMText
 10
6392.100000000001
 20
9164.499174037343
 30
0.0
 40
120.0
 41
0.0
 71
     5
 72
     1
  1
\A1;1687
  7
STYLE1
 73
     1
 44
1.0
1001
ACAD
1000
MTEXTBEGIN
1070
    73
1070
     1
1070
    44
1040
1.0
1070
    74
1070
     0
1000
MTEXTEND
  0
POINT
  5
20EFA
330
20750
100
AcDbEntity
  8
DEFPOINTS
 62
     0
 48
50.0
100
AcDbPoint
 10
7235.600000000001
 20
8323.739547495261
 30
0.0
  0
POINT
  5
20EFB
330
20750
100
AcDbEntity
  8
DEFPOINTS
 62
     0
 48
50.0
100
AcDbPoint
 10
5548.6
 20
8268.739547495261
 30
0.0
  0
POINT
  5
20EFC
330
20750
100
AcDbEntity
  8
DEFPOINTS
 62
     0
 48
50.0
100
AcDbPoint
 10
5548.6
 20
9064.499174037344
 30
0.0
  0
ENDBLK
  5
2075B
330
20750
100
AcDbEntity
  8
0
 48
50.0
100
AcDbBlockEnd
  0
BLOCK
  5
20768
330
2075C
100
AcDbEntity
  8
0
 48
50.0
100
AcDbBlockBegin
  2
*D38
 70
     1
 10
0.0
 20
0.0
 30
0.0
  3
*D38
  1

  0
LINE
  5
20EE9
330
2075C
100
AcDbEntity
  8
寸法
 62
     0
 48
50.0
370
    -2
100
AcDbLine
 10
5548.6
 20
8288.739547495261
 30
0.0
 11
5548.6
 21
9124.499174037344
 31
0.0
  0
LINE
  5
20EEA
330
2075C
100
AcDbEntity
  8
寸法
 62
     0
 48
50.0
370
    -2
100
AcDbLine
 10
5503.6
 20
8338.739547495261
 30
0.0
 11
5503.6
 21
9124.499174037344
 31
0.0
  0
LINE
  5
20EEB
330
2075C
100
AcDbEntity
  8
寸法
 62
     0
 48
50.0
370
    -2
100
AcDbLine
 10
5548.6
 20
9064.499174037344
 30
0.0
 11
5648.6
 21
9064.499174037344
 31
0.0
  0
LINE
  5
20EEC
330
2075C
100
AcDbEntity
  8
寸法
 62
     0
 48
50.0
370
    -2
100
AcDbLine
 10
5503.6
 20
9064.499174037344
 30
0.0
 11
5021.008116907963
 21
9064.499174037344
 31
0.0
  0
LINE
  5
20EED
330
2075C
100
AcDbEntity
  8
寸法
 62
     0
 48
50.0
370
    -2
100
AcDbLine
 10
5548.6
 20
9064.499174037344
 30
0.0
 11
5503.6
 21
9064.499174037344
 31
0.0
  0
INSERT
  5
20EEE
330
2075C
100
AcDbEntity
  8
寸法
 62
     0
 48
50.0
370
    -2
100
AcDbBlockReference
  2
_DOTSMALL
 10
5548.6
 20
9064.499174037344
 30
0.0
 41
100.0
 42
100.0
 43
100.0
 50
180.0
  0
INSERT
  5
20EEF
330
2075C
100
AcDbEntity
  8
寸法
 62
     0
 48
50.0
370
    -2
100
AcDbBlockReference
  2
_DOTSMALL
 10
5503.6
 20
9064.499174037344
 30
0.0
 41
100.0
 42
100.0
 43
100.0
  0
MTEXT
  5
20EF0
330
2075C
100
AcDbEntity
  8
寸法
 62
     7
 48
50.0
100
AcDbMText
 10
5135.493398282203
 20
9164.499174037343
 30
0.0
 40
120.0
 41
0.0
 71
     5
 72
     1
  1
\A1;45
  7
STYLE1
 73
     1
 44
1.0
1001
ACAD
1000
MTEXTBEGIN
1070
    73
1070
     1
1070
    44
1040
1.0
1070
    74
1070
     0
1000
MTEXTEND
  0
POINT
  5
20EF1
330
2075C
100
AcDbEntity
  8
DEFPOINTS
 62
     0
 48
50.0
100
AcDbPoint
 10
5548.6
 20
8268.739547495261
 30
0.0
  0
POINT
  5
20EF2
330
2075C
100
AcDbEntity
  8
DEFPOINTS
 62
     0
 48
50.0
100
AcDbPoint
 10
5503.6
 20
8318.73954749526
 30
0.0
  0
POINT
  5
20EF3
330
2075C
100
AcDbEntity
  8
DEFPOINTS
 62
     0
 48
50.0
100
AcDbPoint
 10
5503.6
 20
9064.499174037344
 30
0.0
  0
ENDBLK
  5
20769
330
2075C
100
AcDbEntity
  8
0
 48
50.0
100
AcDbBlockEnd
  0
BLOCK
  5
20775
330
2076A
100
AcDbEntity
  8
0
 48
50.0
100
AcDbBlockBegin
  2
*D39
 70
     1
 10
0.0
 20
0.0
 30
0.0
  3
*D39
  1

  0
LINE
  5
20EDF
330
2076A
100
AcDbEntity
  8
寸法
 62
     0
 48
50.0
370
    -2
100
AcDbLine
 10
5408.6
 20
9084.49917403734
 30
0.0
 11
5408.6
 21
9336.959869554183
 31
0.0
  0
LINE
  5
20EE0
330
2076A
100
AcDbEntity
  8
寸法
 62
     0
 48
50.0
370
    -2
100
AcDbLine
 10
5503.6
 20
8338.739547495261
 30
0.0
 11
5503.6
 21
9336.959869554183
 31
0.0
  0
LINE
  5
20EE1
330
2076A
100
AcDbEntity
  8
寸法
 62
     0
 48
50.0
370
    -2
100
AcDbLine
 10
5503.6
 20
9276.959869554183
 30
0.0
 11
5408.6
 21
9276.959869554183
 31
0.0
  0
LINE
  5
20EE2
330
2076A
100
AcDbEntity
  8
寸法
 62
     0
 48
50.0
370
    -2
100
AcDbLine
 10
5408.6
 20
9276.959869554183
 30
0.0
 11
5159.707102294468
 21
9276.959869554183
 31
0.0
  0
INSERT
  5
20EE3
330
2076A
100
AcDbEntity
  8
寸法
 62
     0
 48
50.0
370
    -2
100
AcDbBlockReference
  2
_DOTSMALL
 10
5503.6
 20
9276.959869554183
 30
0.0
 41
100.0
 42
100.0
 43
100.0
  0
INSERT
  5
20EE4
330
2076A
100
AcDbEntity
  8
寸法
 62
     0
 48
50.0
370
    -2
100
AcDbBlockReference
  2
_DOTSMALL
 10
5408.6
 20
9276.959869554183
 30
0.0
 41
100.0
 42
100.0
 43
100.0
 50
180.0
  0
MTEXT
  5
20EE5
330
2076A
100
AcDbEntity
  8
寸法
 62
     7
 48
50.0
100
AcDbMText
 10
5225.881723496926
 20
9376.959869554182
 30
0.0
 40
120.0
 41
0.0
 71
     5
 72
     1
  1
\A1;b
  7
STYLE1
 73
     1
 44
1.0
1001
ACAD
1000
MTEXTBEGIN
1070
    73
1070
     1
1070
    44
1040
1.0
1070
    74
1070
     0
1000
MTEXTEND
  0
POINT
  5
20EE6
330
2076A
100
AcDbEntity
  8
DEFPOINTS
 62
     0
 48
50.0
100
AcDbPoint
 10
5408.6
 20
9064.499174037342
 30
0.0
  0
POINT
  5
20EE7
330
2076A
100
AcDbEntity
  8
DEFPOINTS
 62
     0
 48
50.0
100
AcDbPoint
 10
5503.6
 20
8318.73954749526
 30
0.0
  0
POINT
  5
20EE8
330
2076A
100
AcDbEntity
  8
DEFPOINTS
 62
     0
 48
50.0
100
AcDbPoint
 10
5503.6
 20
9276.959869554183
 30
0.0
  0
ENDBLK
  5
20776
330
2076A
100
AcDbEntity
  8
0
 48
50.0
100
AcDbBlockEnd
  0
BLOCK
  5
2077F
330
20777
100
AcDbEntity
  8
0
 48
50.0
100
AcDbBlockBegin
  2
*D40
 70
     1
 10
0.0
 20
0.0
 30
0.0
  3
*D40
  1

  0
LINE
  5
20F0F
330
20777
100
AcDbEntity
  8
寸法
 62
     0
 48
50.0
370
    -2
100
AcDbLine
 10
4987.657733986178
 20
8418.739547495258
 30
0.0
 11
4702.16493184821
 21
8418.739547495258
 31
0.0
  0
LINE
  5
20F10
330
20777
100
AcDbEntity
  8
寸法
 62
     0
 48
50.0
370
    -2
100
AcDbLine
 10
5483.6
 20
8318.73954749526
 30
0.0
 11
4702.16493184821
 21
8318.73954749526
 31
0.0
  0
LINE
  5
20F11
330
20777
100
AcDbEntity
  8
寸法
 62
     0
 48
50.0
370
    -2
100
AcDbLine
 10
4762.16493184821
 20
8418.739547495258
 30
0.0
 11
4762.16493184821
 21
8518.739547495258
 31
0.0
  0
LINE
  5
20F12
330
20777
100
AcDbEntity
  8
寸法
 62
     0
 48
50.0
370
    -2
100
AcDbLine
 10
4762.16493184821
 20
8318.73954749526
 30
0.0
 11
4762.16493184821
 21
8218.73954749526
 31
0.0
  0
LINE
  5
20F13
330
20777
100
AcDbEntity
  8
寸法
 62
     0
 48
50.0
370
    -2
100
AcDbLine
 10
4762.16493184821
 20
8418.739547495258
 30
0.0
 11
4762.16493184821
 21
8318.73954749526
 31
0.0
  0
INSERT
  5
20F14
330
20777
100
AcDbEntity
  8
寸法
 62
     0
 48
50.0
370
    -2
100
AcDbBlockReference
  2
_DOTSMALL
 10
4762.16493184821
 20
8418.739547495258
 30
0.0
 41
100.0
 42
100.0
 43
100.0
 50
270.0
  0
INSERT
  5
20F15
330
20777
100
AcDbEntity
  8
寸法
 62
     0
 48
50.0
370
    -2
100
AcDbBlockReference
  2
_DOTSMALL
 10
4762.16493184821
 20
8318.73954749526
 30
0.0
 41
100.0
 42
100.0
 43
100.0
 50
90.0
  0
MTEXT
  5
20F16
330
20777
100
AcDbEntity
  8
寸法
 62
     7
 48
50.0
100
AcDbMText
 10
4662.164931848209
 20
8368.739547495261
 30
0.0
 40
120.0
 41
0.0
 71
     5
 72
     1
  1
\A1;a
  7
STYLE1
 11
0.0000000000000001
 21
1.0
 31
0.0
 73
     1
 44
1.0
1001
ACAD
1000
MTEXTBEGIN
1070
    73
1070
     1
1070
    44
1040
1.0
1070
    74
1070
     0
1000
MTEXTEND
  0
POINT
  5
20F17
330
20777
100
AcDbEntity
  8
DEFPOINTS
 62
     0
 48
50.0
100
AcDbPoint
 10
5007.657733986178
 20
8418.739547495258
 30
0.0
  0
POINT
  5
20F18
330
20777
100
AcDbEntity
  8
DEFPOINTS
 62
     0
 48
50.0
100
AcDbPoint
 10
5503.6
 20
8318.73954749526
 30
0.0
  0
POINT
  5
20F19
330
20777
100
AcDbEntity
  8
DEFPOINTS
 62
     0
 48
50.0
100
AcDbPoint
 10
4762.16493184821
 20
8318.73954749526
 30
0.0
  0
ENDBLK
  5
20780
330
20777
100
AcDbEntity
  8
0
 48
50.0
100
AcDbBlockEnd
  0
BLOCK
  5
2078C
330
20781
100
AcDbEntity
  8
0
 48
50.0
100
AcDbBlockBegin
  2
*D41
 70
     1
 10
0.0
 20
0.0
 30
0.0
  3
*D41
  1

  0
LINE
  5
20ED5
330
20781
100
AcDbEntity
  8
寸法
 62
     0
 48
50.0
370
    -2
100
AcDbLine
 10
5483.6
 20
8318.73954749526
 30
0.0
 11
4947.657733986179
 21
8318.73954749526
 31
0.0
  0
LINE
  5
20ED6
330
20781
100
AcDbEntity
  8
寸法
 62
     0
 48
50.0
370
    -2
100
AcDbLine
 10
5478.6
 20
8218.73954749526
 30
0.0
 11
4947.657733986179
 21
8218.73954749526
 31
0.0
  0
LINE
  5
20ED7
330
20781
100
AcDbEntity
  8
寸法
 62
     0
 48
50.0
370
    -2
100
AcDbLine
 10
5007.657733986178
 20
8218.73954749526
 30
0.0
 11
5007.657733986178
 21
8318.73954749526
 31
0.0
  0
LINE
  5
20ED8
330
20781
100
AcDbEntity
  8
寸法
 62
     0
 48
50.0
370
    -2
100
AcDbLine
 10
5007.657733986178
 20
8318.73954749526
 30
0.0
 11
5007.657733986178
 21
8819.845846707858
 31
0.0
  0
INSERT
  5
20ED9
330
20781
100
AcDbEntity
  8
寸法
 62
     0
 48
50.0
370
    -2
100
AcDbBlockReference
  2
_DOTSMALL
 10
5007.657733986178
 20
8218.73954749526
 30
0.0
 41
100.0
 42
100.0
 43
100.0
 50
270.0
  0
INSERT
  5
20EDA
330
20781
100
AcDbEntity
  8
寸法
 62
     0
 48
50.0
370
    -2
100
AcDbBlockReference
  2
_DOTSMALL
 10
5007.657733986178
 20
8318.73954749526
 30
0.0
 41
100.0
 42
100.0
 43
100.0
 50
90.0
  0
MTEXT
  5
20EDB
330
20781
100
AcDbEntity
  8
寸法
 62
     7
 48
50.0
100
AcDbMText
 10
4907.657733986177
 20
8683.798602613371
 30
0.0
 40
120.0
 41
0.0
 71
     5
 72
     1
  1
\A1;100
  7
STYLE1
 11
0.0000000000000001
 21
1.0
 31
0.0
 73
     1
 44
1.0
1001
ACAD
1000
MTEXTBEGIN
1070
    73
1070
     1
1070
    44
1040
1.0
1070
    74
1070
     0
1000
MTEXTEND
  0
POINT
  5
20EDC
330
20781
100
AcDbEntity
  8
DEFPOINTS
 62
     0
 48
50.0
100
AcDbPoint
 10
5503.6
 20
8318.73954749526
 30
0.0
  0
POINT
  5
20EDD
330
20781
100
AcDbEntity
  8
DEFPOINTS
 62
     0
 48
50.0
100
AcDbPoint
 10
5498.6
 20
8218.73954749526
 30
0.0
  0
POINT
  5
20EDE
330
20781
100
AcDbEntity
  8
DEFPOINTS
 62
     0
 48
50.0
100
AcDbPoint
 10
5007.657733986178
 20
8218.73954749526
 30
0.0
  0
ENDBLK
  5
2078D
330
20781
100
AcDbEntity
  8
0
 48
50.0
100
AcDbBlockEnd
  0
BLOCK
  5
20799
330
2078E
100
AcDbEntity
  8
0
 48
50.0
100
AcDbBlockBegin
  2
*D42
 70
     1
 10
0.0
 20
0.0
 30
0.0
  3
*D42
  1

  0
LINE
  5
21CC7
330
2078E
100
AcDbEntity
  8
寸法
 62
     0
 48
50.0
370
    -2
100
AcDbLine
 10
10153.6
 20
8198.739547495259
 30
0.0
 11
10410.3072498761
 21
8198.739547495259
 31
0.0
  0
LINE
  5
21CC8
330
2078E
100
AcDbEntity
  8
寸法
 62
     0
 48
50.0
370
    -2
100
AcDbLine
 10
10153.6
 20
8318.73954749526
 30
0.0
 11
10410.3072498761
 21
8318.73954749526
 31
0.0
  0
LINE
  5
21CC9
330
2078E
100
AcDbEntity
  8
寸法
 62
     0
 48
50.0
370
    -2
100
AcDbLine
 10
10350.3072498761
 20
8198.739547495259
 30
0.0
 11
10350.3072498761
 21
8318.73954749526
 31
0.0
  0
LINE
  5
21CCA
330
2078E
100
AcDbEntity
  8
寸法
 62
     0
 48
50.0
370
    -2
100
AcDbLine
 10
10350.3072498761
 20
8318.73954749526
 30
0.0
 11
10350.3072498761
 21
8732.870334862635
 31
0.0
  0
INSERT
  5
21CCB
330
2078E
100
AcDbEntity
  8
寸法
 62
     0
 48
50.0
370
    -2
100
AcDbBlockReference
  2
_DOTSMALL
 10
10350.3072498761
 20
8198.739547495259
 30
0.0
 41
100.0
 42
100.0
 43
100.0
 50
270.0
  0
INSERT
  5
21CCC
330
2078E
100
AcDbEntity
  8
寸法
 62
     0
 48
50.0
370
    -2
100
AcDbBlockReference
  2
_DOTSMALL
 10
10350.3072498761
 20
8318.73954749526
 30
0.0
 41
100.0
 42
100.0
 43
100.0
 50
90.0
  0
MTEXT
  5
21CCD
330
2078E
100
AcDbEntity
  8
寸法
 62
     7
 48
50.0
100
AcDbMText
 10
10250.29543885247
 20
8596.823090768149
 30
0.0
 40
120.0
 41
0.0
 71
     5
 72
     1
  1
\A1;120
  7
STYLE1
 11
0.0000000000000001
 21
1.0
 31
0.0
 73
     1
 44
1.0
1001
ACAD
1000
MTEXTBEGIN
1070
    73
1070
     1
1070
    44
1040
1.0
1070
    74
1070
     0
1000
MTEXTEND
  0
POINT
  5
21CCE
330
2078E
100
AcDbEntity
  8
DEFPOINTS
 62
     0
 48
50.0
100
AcDbPoint
 10
10133.6
 20
8198.739547495259
 30
0.0
  0
POINT
  5
21CCF
330
2078E
100
AcDbEntity
  8
DEFPOINTS
 62
     0
 48
50.0
100
AcDbPoint
 10
10133.6
 20
8318.73954749526
 30
0.0
  0
POINT
  5
21CD0
330
2078E
100
AcDbEntity
  8
DEFPOINTS
 62
     0
 48
50.0
100
AcDbPoint
 10
10350.3072498761
 20
8318.73954749526
 30
0.0
  0
ENDBLK
  5
2079A
330
2078E
100
AcDbEntity
  8
0
 48
50.0
100
AcDbBlockEnd
  0
BLOCK
  5
207A5
330
2079B
100
AcDbEntity
  8
0
 48
50.0
100
AcDbBlockBegin
  2
*D43
 70
     1
 10
0.0
 20
0.0
 30
0.0
  3
*D43
  1

  0
LINE
  5
20EC2
330
2079B
100
AcDbEntity
  8
寸法
 62
     0
 48
50.0
370
    -2
100
AcDbLine
 10
7235.600000000001
 20
8343.73954749526
 30
0.0
 11
7235.600000000001
 21
9124.499174037344
 31
0.0
  0
LINE
  5
20EC3
330
2079B
100
AcDbEntity
  8
寸法
 62
     0
 48
50.0
370
    -2
100
AcDbLine
 10
9045.6
 20
8343.73954749526
 30
0.0
 11
9045.6
 21
9124.499174037344
 31
0.0
  0
LINE
  5
20EC4
330
2079B
100
AcDbEntity
  8
寸法
 62
     0
 48
50.0
370
    -2
100
AcDbLine
 10
7235.600000000001
 20
9064.499174037344
 30
0.0
 11
9045.6
 21
9064.499174037344
 31
0.0
  0
INSERT
  5
20EC5
330
2079B
100
AcDbEntity
  8
寸法
 62
     0
 48
50.0
370
    -2
100
AcDbBlockReference
  2
_DOTSMALL
 10
7235.600000000001
 20
9064.499174037344
 30
0.0
 41
100.0
 42
100.0
 43
100.0
 50
180.0
  0
INSERT
  5
20EC6
330
2079B
100
AcDbEntity
  8
寸法
 62
     0
 48
50.0
370
    -2
100
AcDbBlockReference
  2
_DOTSMALL
 10
9045.6
 20
9064.499174037344
 30
0.0
 41
100.0
 42
100.0
 43
100.0
  0
MTEXT
  5
20EC7
330
2079B
100
AcDbEntity
  8
寸法
 62
     7
 48
50.0
100
AcDbMText
 10
8140.6
 20
9164.499174037343
 30
0.0
 40
120.0
 41
0.0
 71
     5
 72
     1
  1
\A1;1810
  7
STYLE1
 73
     1
 44
1.0
1001
ACAD
1000
MTEXTBEGIN
1070
    73
1070
     1
1070
    44
1040
1.0
1070
    74
1070
     0
1000
MTEXTEND
  0
POINT
  5
20EC8
330
2079B
100
AcDbEntity
  8
DEFPOINTS
 62
     0
 48
50.0
100
AcDbPoint
 10
7235.600000000001
 20
8323.739547495261
 30
0.0
  0
POINT
  5
20EC9
330
2079B
100
AcDbEntity
  8
DEFPOINTS
 62
     0
 48
50.0
100
AcDbPoint
 10
9045.6
 20
8323.739547495261
 30
0.0
  0
POINT
  5
20ECA
330
2079B
100
AcDbEntity
  8
DEFPOINTS
 62
     0
 48
50.0
100
AcDbPoint
 10
9045.6
 20
9064.499174037344
 30
0.0
  0
ENDBLK
  5
207A6
330
2079B
100
AcDbEntity
  8
0
 48
50.0
100
AcDbBlockEnd
  0
BLOCK
  5
207B3
330
207A7
100
AcDbEntity
  8
0
 48
50.0
100
AcDbBlockBegin
  2
*D44
 70
     1
 10
0.0
 20
0.0
 30
0.0
  3
*D44
  1

  0
LINE
  5
20EB7
330
207A7
100
AcDbEntity
  8
寸法
 62
     0
 48
50.0
370
    -2
100
AcDbLine
 10
7305.600000000001
 20
8273.73954749526
 30
0.0
 11
7744.046686947115
 21
8273.73954749526
 31
0.0
  0
LINE
  5
20EB8
330
207A7
100
AcDbEntity
  8
寸法
 62
     0
 48
50.0
370
    -2
100
AcDbLine
 10
7305.600000000001
 20
8318.73954749526
 30
0.0
 11
7744.046686947115
 21
8318.73954749526
 31
0.0
  0
LINE
  5
20EB9
330
207A7
100
AcDbEntity
  8
寸法
 62
     0
 48
50.0
370
    -2
100
AcDbLine
 10
7684.046686947116
 20
8273.73954749526
 30
0.0
 11
7684.046686947116
 21
8173.73954749526
 31
0.0
  0
LINE
  5
20EBA
330
207A7
100
AcDbEntity
  8
寸法
 62
     0
 48
50.0
370
    -2
100
AcDbLine
 10
7684.046686947116
 20
8318.73954749526
 30
0.0
 11
7684.046686947116
 21
8747.710110243737
 31
0.0
  0
LINE
  5
20EBB
330
207A7
100
AcDbEntity
  8
寸法
 62
     0
 48
50.0
370
    -2
100
AcDbLine
 10
7684.046686947116
 20
8273.73954749526
 30
0.0
 11
7684.046686947116
 21
8318.73954749526
 31
0.0
  0
INSERT
  5
20EBC
330
207A7
100
AcDbEntity
  8
寸法
 62
     0
 48
50.0
370
    -2
100
AcDbBlockReference
  2
_DOTSMALL
 10
7684.046686947116
 20
8273.73954749526
 30
0.0
 41
100.0
 42
100.0
 43
100.0
 50
90.0
  0
INSERT
  5
20EBD
330
207A7
100
AcDbEntity
  8
寸法
 62
     0
 48
50.0
370
    -2
100
AcDbBlockReference
  2
_DOTSMALL
 10
7684.046686947116
 20
8318.73954749526
 30
0.0
 41
100.0
 42
100.0
 43
100.0
 50
270.0
  0
MTEXT
  5
20EBE
330
207A7
100
AcDbEntity
  8
寸法
 62
     7
 48
50.0
100
AcDbMText
 10
7584.046686947115
 20
8633.224828869501
 30
0.0
 40
120.0
 41
0.0
 71
     5
 72
     1
  1
\A1;45
  7
STYLE1
 11
0.0000000000000001
 21
1.0
 31
0.0
 73
     1
 44
1.0
1001
ACAD
1000
MTEXTBEGIN
1070
    73
1070
     1
1070
    44
1040
1.0
1070
    74
1070
     0
1000
MTEXTEND
  0
POINT
  5
20EBF
330
207A7
100
AcDbEntity
  8
DEFPOINTS
 62
     0
 48
50.0
100
AcDbPoint
 10
7285.600000000001
 20
8273.73954749526
 30
0.0
  0
POINT
  5
20EC0
330
207A7
100
AcDbEntity
  8
DEFPOINTS
 62
     0
 48
50.0
100
AcDbPoint
 10
7285.600000000001
 20
8318.73954749526
 30
0.0
  0
POINT
  5
20EC1
330
207A7
100
AcDbEntity
  8
DEFPOINTS
 62
     0
 48
50.0
100
AcDbPoint
 10
7684.046686947116
 20
8318.73954749526
 30
0.0
  0
ENDBLK
  5
207B4
330
207A7
100
AcDbEntity
  8
0
 48
50.0
100
AcDbBlockEnd
  0
BLOCK
  5
207C0
330
207B5
100
AcDbEntity
  8
0
 48
50.0
100
AcDbBlockBegin
  2
*D45
 70
     1
 10
0.0
 20
0.0
 30
0.0
  3
*D45
  1

  0
LINE
  5
218CE
330
207B5
100
AcDbEntity
  8
寸法
 62
     0
 48
50.0
370
    -2
100
AcDbLine
 10
11018.59999999999
 20
7876.739547495261
 30
0.0
 11
11018.59999999999
 21
8113.11740411193
 31
0.0
  0
LINE
  5
218CF
330
207B5
100
AcDbEntity
  8
寸法
 62
     0
 48
50.0
370
    -2
100
AcDbLine
 10
10943.59999999999
 20
7876.739547495261
 30
0.0
 11
10943.59999999999
 21
8113.11740411193
 31
0.0
  0
LINE
  5
218D0
330
207B5
100
AcDbEntity
  8
寸法
 62
     0
 48
50.0
370
    -2
100
AcDbLine
 10
10943.59999999999
 20
8053.117404111929
 30
0.0
 11
10843.59999999999
 21
8053.117404111929
 31
0.0
  0
LINE
  5
218D1
330
207B5
100
AcDbEntity
  8
寸法
 62
     0
 48
50.0
370
    -2
100
AcDbLine
 10
11018.59999999999
 20
8053.117404111929
 30
0.0
 11
11885.57056274847
 21
8053.117404111929
 31
0.0
  0
LINE
  5
218D2
330
207B5
100
AcDbEntity
  8
寸法
 62
     0
 48
50.0
370
    -2
100
AcDbLine
 10
10943.59999999999
 20
8053.117404111929
 30
0.0
 11
11018.59999999999
 21
8053.117404111929
 31
0.0
  0
INSERT
  5
218D3
330
207B5
100
AcDbEntity
  8
寸法
 62
     0
 48
50.0
370
    -2
100
AcDbBlockReference
  2
_DOTSMALL
 10
10943.59999999999
 20
8053.117404111929
 30
0.0
 41
100.0
 42
100.0
 43
100.0
  0
INSERT
  5
218D4
330
207B5
100
AcDbEntity
  8
寸法
 62
     0
 48
50.0
370
    -2
100
AcDbBlockReference
  2
_DOTSMALL
 10
11018.59999999999
 20
8053.117404111929
 30
0.0
 41
100.0
 42
100.0
 43
100.0
 50
180.0
  0
MTEXT
  5
218D5
330
207B5
100
AcDbEntity
  8
寸法
 62
     7
 48
50.0
100
AcDbMText
 10
11552.08528137423
 20
8153.117404111929
 30
0.0
 40
120.0
 41
0.0
 71
     5
 72
     1
  1
\A1;扉の出75
  7
STYLE1
 73
     1
 44
1.0
1001
ACAD
1000
MTEXTBEGIN
1070
    73
1070
     1
1070
    44
1040
1.0
1070
    74
1070
     0
1000
MTEXTEND
  0
POINT
  5
218D6
330
207B5
100
AcDbEntity
  8
DEFPOINTS
 62
     0
 48
50.0
100
AcDbPoint
 10
11018.59999999999
 20
7856.73954749526
 30
0.0
  0
POINT
  5
218D7
330
207B5
100
AcDbEntity
  8
DEFPOINTS
 62
     0
 48
50.0
100
AcDbPoint
 10
10943.59999999999
 20
7856.73954749526
 30
0.0
  0
POINT
  5
218D8
330
207B5
100
AcDbEntity
  8
DEFPOINTS
 62
     0
 48
50.0
100
AcDbPoint
 10
10943.59999999999
 20
8053.117404111929
 30
0.0
  0
ENDBLK
  5
207C1
330
207B5
100
AcDbEntity
  8
0
 48
50.0
100
AcDbBlockEnd
  0
BLOCK
  5
207CB
330
207C2
100
AcDbEntity
  8
0
 48
50.0
100
AcDbBlockBegin
  2
*D46
 70
     1
 10
0.0
 20
0.0
 30
0.0
  3
*D46
  1

  0
LINE
  5
20FD0
330
207C2
100
AcDbEntity
  8
寸法
 62
     0
 48
50.0
370
    -2
100
AcDbLine
 10
11038.60000000001
 20
5701.739547495261
 30
0.0
 11
11422.60638965472
 21
5701.739547495261
 31
0.0
  0
LINE
  5
20FD1
330
207C2
100
AcDbEntity
  8
寸法
 62
     0
 48
50.0
370
    -2
100
AcDbLine
 10
10963.6
 20
5238.739547495279
 30
0.0
 11
11422.60638965472
 21
5238.739547495279
 31
0.0
  0
LINE
  5
20FD2
330
207C2
100
AcDbEntity
  8
寸法
 62
     0
 48
50.0
370
    -2
100
AcDbLine
 10
11362.60638965472
 20
5701.739547495261
 30
0.0
 11
11362.60638965472
 21
5238.739547495279
 31
0.0
  0
INSERT
  5
20FD3
330
207C2
100
AcDbEntity
  8
寸法
 62
     0
 48
50.0
370
    -2
100
AcDbBlockReference
  2
_DOTSMALL
 10
11362.60638965472
 20
5701.739547495261
 30
0.0
 41
100.0
 42
100.0
 43
100.0
 50
90.0
  0
INSERT
  5
20FD4
330
207C2
100
AcDbEntity
  8
寸法
 62
     0
 48
50.0
370
    -2
100
AcDbBlockReference
  2
_DOTSMALL
 10
11362.60638965472
 20
5238.739547495279
 30
0.0
 41
100.0
 42
100.0
 43
100.0
 50
270.0
  0
MTEXT
  5
20FD5
330
207C2
100
AcDbEntity
  8
寸法
 62
     7
 48
50.0
100
AcDbMText
 10
11262.60638965472
 20
5470.239547495271
 30
0.0
 40
120.0
 41
0.0
 71
     5
 72
     1
  1
\A1;463
  7
STYLE1
 11
0.0000000000000001
 21
1.0
 31
0.0
 73
     1
 44
1.0
1001
ACAD
1000
MTEXTBEGIN
1070
    73
1070
     1
1070
    44
1040
1.0
1070
    74
1070
     0
1000
MTEXTEND
  0
POINT
  5
20FD6
330
207C2
100
AcDbEntity
  8
DEFPOINTS
 62
     0
 48
50.0
100
AcDbPoint
 10
11018.60000000001
 20
5701.739547495261
 30
0.0
  0
POINT
  5
20FD7
330
207C2
100
AcDbEntity
  8
DEFPOINTS
 62
     0
 48
50.0
100
AcDbPoint
 10
10943.6
 20
5238.739547495279
 30
0.0
  0
POINT
  5
20FD8
330
207C2
100
AcDbEntity
  8
DEFPOINTS
 62
     0
 48
50.0
100
AcDbPoint
 10
11362.60638965472
 20
5238.739547495279
 30
0.0
  0
ENDBLK
  5
207CC
330
207C2
100
AcDbEntity
  8
0
 48
50.0
100
AcDbBlockEnd
  0
BLOCK
  5
207D7
330
207CD
100
AcDbEntity
  8
0
 48
50.0
100
AcDbBlockBegin
  2
*D47
 70
     1
 10
0.0
 20
0.0
 30
0.0
  3
*D47
  1

  0
LINE
  5
218D9
330
207CD
100
AcDbEntity
  8
寸法
 62
     0
 48
50.0
370
    -2
100
AcDbLine
 10
11038.59999999999
 20
7856.73954749526
 30
0.0
 11
11422.60638965472
 21
7856.73954749526
 31
0.0
  0
LINE
  5
218DA
330
207CD
100
AcDbEntity
  8
寸法
 62
     0
 48
50.0
370
    -2
100
AcDbLine
 10
11038.60000000001
 20
5701.739547495261
 30
0.0
 11
11422.60638965472
 21
5701.739547495261
 31
0.0
  0
LINE
  5
218DB
330
207CD
100
AcDbEntity
  8
寸法
 62
     0
 48
50.0
370
    -2
100
AcDbLine
 10
11362.60638965472
 20
7856.73954749526
 30
0.0
 11
11362.60638965472
 21
5701.739547495261
 31
0.0
  0
INSERT
  5
218DC
330
207CD
100
AcDbEntity
  8
寸法
 62
     0
 48
50.0
370
    -2
100
AcDbBlockReference
  2
_DOTSMALL
 10
11362.60638965472
 20
7856.73954749526
 30
0.0
 41
100.0
 42
100.0
 43
100.0
 50
90.0
  0
INSERT
  5
218DD
330
207CD
100
AcDbEntity
  8
寸法
 62
     0
 48
50.0
370
    -2
100
AcDbBlockReference
  2
_DOTSMALL
 10
11362.60638965472
 20
5701.739547495261
 30
0.0
 41
100.0
 42
100.0
 43
100.0
 50
270.0
  0
MTEXT
  5
218DE
330
207CD
100
AcDbEntity
  8
寸法
 62
     7
 48
50.0
100
AcDbMText
 10
11262.5945786311
 20
6779.239547495262
 30
0.0
 40
120.0
 41
0.0
 71
     5
 72
     1
  1
\A1;扉の幅 2155
  7
STYLE1
 11
0.0000000000000001
 21
1.0
 31
0.0
 73
     1
 44
1.0
1001
ACAD
1000
MTEXTBEGIN
1070
    73
1070
     1
1070
    44
1040
1.0
1070
    74
1070
     0
1000
MTEXTEND
  0
POINT
  5
218DF
330
207CD
100
AcDbEntity
  8
DEFPOINTS
 62
     0
 48
50.0
100
AcDbPoint
 10
11018.59999999999
 20
7856.73954749526
 30
0.0
  0
POINT
  5
218E0
330
207CD
100
AcDbEntity
  8
DEFPOINTS
 62
     0
 48
50.0
100
AcDbPoint
 10
11018.60000000001
 20
5701.739547495261
 30
0.0
  0
POINT
  5
218E1
330
207CD
100
AcDbEntity
  8
DEFPOINTS
 62
     0
 48
50.0
100
AcDbPoint
 10
11362.60638965472
 20
5701.739547495261
 30
0.0
  0
ENDBLK
  5
207D8
330
207CD
100
AcDbEntity
  8
0
 48
50.0
100
AcDbBlockEnd
  0
BLOCK
  5
207E4
330
207D9
100
AcDbEntity
  8
0
 48
50.0
100
AcDbBlockBegin
  2
*D48
 70
     1
 10
0.0
 20
0.0
 30
0.0
  3
*D48
  1

  0
LINE
  5
20EA2
330
207D9
100
AcDbEntity
  8
寸法
 62
     0
 48
50.0
370
    -2
100
AcDbLine
 10
10943.6
 20
8338.739547495261
 30
0.0
 11
10943.6
 21
9336.959869554183
 31
0.0
  0
LINE
  5
20EA3
330
207D9
100
AcDbEntity
  8
寸法
 62
     0
 48
50.0
370
    -2
100
AcDbLine
 10
11038.6
 20
9084.499174037345
 30
0.0
 11
11038.6
 21
9336.959869554183
 31
0.0
  0
LINE
  5
20EA4
330
207D9
100
AcDbEntity
  8
寸法
 62
     0
 48
50.0
370
    -2
100
AcDbLine
 10
10943.6
 20
9276.959869554183
 30
0.0
 11
11038.6
 21
9276.959869554183
 31
0.0
  0
LINE
  5
20EA5
330
207D9
100
AcDbEntity
  8
寸法
 62
     0
 48
50.0
370
    -2
100
AcDbLine
 10
11038.6
 20
9276.959869554183
 30
0.0
 11
11287.49289770553
 21
9276.959869554183
 31
0.0
  0
INSERT
  5
20EA6
330
207D9
100
AcDbEntity
  8
寸法
 62
     0
 48
50.0
370
    -2
100
AcDbBlockReference
  2
_DOTSMALL
 10
10943.6
 20
9276.959869554183
 30
0.0
 41
100.0
 42
100.0
 43
100.0
 50
180.0
  0
INSERT
  5
20EA7
330
207D9
100
AcDbEntity
  8
寸法
 62
     0
 48
50.0
370
    -2
100
AcDbBlockReference
  2
_DOTSMALL
 10
11038.6
 20
9276.959869554183
 30
0.0
 41
100.0
 42
100.0
 43
100.0
  0
MTEXT
  5
20EA8
330
207D9
100
AcDbEntity
  8
寸法
 62
     7
 48
50.0
100
AcDbMText
 10
11221.31827650307
 20
9376.959869554182
 30
0.0
 40
120.0
 41
0.0
 71
     5
 72
     1
  1
\A1;b
  7
STYLE1
 73
     1
 44
1.0
1001
ACAD
1000
MTEXTBEGIN
1070
    73
1070
     1
1070
    44
1040
1.0
1070
    74
1070
     0
1000
MTEXTEND
  0
POINT
  5
20EA9
330
207D9
100
AcDbEntity
  8
DEFPOINTS
 62
     0
 48
50.0
100
AcDbPoint
 10
10943.6
 20
8318.73954749526
 30
0.0
  0
POINT
  5
20EAA
330
207D9
100
AcDbEntity
  8
DEFPOINTS
 62
     0
 48
50.0
100
AcDbPoint
 10
11038.6
 20
9064.499174037347
 30
0.0
  0
POINT
  5
20EAB
330
207D9
100
AcDbEntity
  8
DEFPOINTS
 62
     0
 48
50.0
100
AcDbPoint
 10
11038.6
 20
9276.959869554183
 30
0.0
  0
ENDBLK
  5
207E5
330
207D9
100
AcDbEntity
  8
0
 48
50.0
100
AcDbBlockEnd
  0
BLOCK
  5
207F2
330
207E6
100
AcDbEntity
  8
0
 48
50.0
100
AcDbBlockBegin
  2
*D49
 70
     1
 10
0.0
 20
0.0
 30
0.0
  3
*D49
  1

  0
LINE
  5
20E97
330
207E6
100
AcDbEntity
  8
寸法
 62
     0
 48
50.0
370
    -2
100
AcDbLine
 10
10943.6
 20
8338.739547495261
 30
0.0
 11
10943.6
 21
9124.499174037344
 31
0.0
  0
LINE
  5
20E98
330
207E6
100
AcDbEntity
  8
寸法
 62
     0
 48
50.0
370
    -2
100
AcDbLine
 10
10898.6
 20
8288.739547495261
 30
0.0
 11
10898.6
 21
9124.499174037344
 31
0.0
  0
LINE
  5
20E99
330
207E6
100
AcDbEntity
  8
寸法
 62
     0
 48
50.0
370
    -2
100
AcDbLine
 10
10898.6
 20
9064.499174037344
 30
0.0
 11
10798.6
 21
9064.499174037344
 31
0.0
  0
LINE
  5
20E9A
330
207E6
100
AcDbEntity
  8
寸法
 62
     0
 48
50.0
370
    -2
100
AcDbLine
 10
10943.6
 20
9064.499174037344
 30
0.0
 11
11426.19188309204
 21
9064.499174037344
 31
0.0
  0
LINE
  5
20E9B
330
207E6
100
AcDbEntity
  8
寸法
 62
     0
 48
50.0
370
    -2
100
AcDbLine
 10
10898.6
 20
9064.499174037344
 30
0.0
 11
10943.6
 21
9064.499174037344
 31
0.0
  0
INSERT
  5
20E9C
330
207E6
100
AcDbEntity
  8
寸法
 62
     0
 48
50.0
370
    -2
100
AcDbBlockReference
  2
_DOTSMALL
 10
10898.6
 20
9064.499174037344
 30
0.0
 41
100.0
 42
100.0
 43
100.0
  0
INSERT
  5
20E9D
330
207E6
100
AcDbEntity
  8
寸法
 62
     0
 48
50.0
370
    -2
100
AcDbBlockReference
  2
_DOTSMALL
 10
10943.6
 20
9064.499174037344
 30
0.0
 41
100.0
 42
100.0
 43
100.0
 50
180.0
  0
MTEXT
  5
20E9E
330
207E6
100
AcDbEntity
  8
寸法
 62
     7
 48
50.0
100
AcDbMText
 10
11311.7066017178
 20
9164.499174037343
 30
0.0
 40
120.0
 41
0.0
 71
     5
 72
     1
  1
\A1;45
  7
STYLE1
 73
     1
 44
1.0
1001
ACAD
1000
MTEXTBEGIN
1070
    73
1070
     1
1070
    44
1040
1.0
1070
    74
1070
     0
1000
MTEXTEND
  0
POINT
  5
20E9F
330
207E6
100
AcDbEntity
  8
DEFPOINTS
 62
     0
 48
50.0
100
AcDbPoint
 10
10943.6
 20
8318.73954749526
 30
0.0
  0
POINT
  5
20EA0
330
207E6
100
AcDbEntity
  8
DEFPOINTS
 62
     0
 48
50.0
100
AcDbPoint
 10
10898.6
 20
8268.739547495261
 30
0.0
  0
POINT
  5
20EA1
330
207E6
100
AcDbEntity
  8
DEFPOINTS
 62
     0
 48
50.0
100
AcDbPoint
 10
10898.6
 20
9064.499174037344
 30
0.0
  0
ENDBLK
  5
207F3
330
207E6
100
AcDbEntity
  8
0
 48
50.0
100
AcDbBlockEnd
  0
BLOCK
  5
21C0A
330
21BFF
100
AcDbEntity
  8
0
 48
50.0
100
AcDbBlockBegin
  2
*D50
 70
     1
 10
0.0
 20
0.0
 30
0.0
  3
*D50
  1

  0
LINE
  5
222B5
330
21BFF
100
AcDbEntity
  8
寸法
 62
     0
 48
50.0
370
    -2
100
AcDbLine
 10
5850.794969903727
 20
2628.352619445893
 30
0.0
 11
5850.794969903727
 21
3029.042164423632
 31
0.0
  0
LINE
  5
222B6
330
21BFF
100
AcDbEntity
  8
寸法
 62
     0
 48
50.0
370
    -2
100
AcDbLine
 10
5947.294969903727
 20
2688.660311753584
 30
0.0
 11
5947.294969903727
 21
3029.042164423632
 31
0.0
  0
LINE
  5
222B7
330
21BFF
100
AcDbEntity
  8
寸法
 62
     0
 48
50.0
370
    -2
100
AcDbLine
 10
5947.294969903727
 20
2969.042164423632
 30
0.0
 11
5850.794969903727
 21
2969.042164423632
 31
0.0
  0
LINE
  5
222B8
330
21BFF
100
AcDbEntity
  8
寸法
 62
     0
 48
50.0
370
    -2
100
AcDbLine
 10
5850.794969903727
 20
2969.042164423632
 30
0.0
 11
5521.82440715525
 21
2969.042164423632
 31
0.0
  0
INSERT
  5
222B9
330
21BFF
100
AcDbEntity
  8
寸法
 62
     0
 48
50.0
370
    -2
100
AcDbBlockReference
  2
_DOTSMALL
 10
5947.294969903727
 20
2969.042164423632
 30
0.0
 41
100.0
 42
100.0
 43
100.0
  0
INSERT
  5
222BA
330
21BFF
100
AcDbEntity
  8
寸法
 62
     0
 48
50.0
370
    -2
100
AcDbBlockReference
  2
_DOTSMALL
 10
5850.794969903727
 20
2969.042164423632
 30
0.0
 41
100.0
 42
100.0
 43
100.0
 50
180.0
  0
MTEXT
  5
222BB
330
21BFF
100
AcDbEntity
  8
寸法
 62
     7
 48
50.0
100
AcDbMText
 10
5636.30968852949
 20
3069.042164423632
 30
0.0
 40
120.0
 41
0.0
 71
     5
 72
     1
  1
\A1;45
  7
STYLE1
 73
     1
 44
1.0
1001
ACAD
1000
MTEXTBEGIN
1070
    73
1070
     1
1070
    44
1040
1.0
1070
    74
1070
     0
1000
MTEXTEND
  0
POINT
  5
222BC
330
21BFF
100
AcDbEntity
  8
DEFPOINTS
 62
     0
 48
50.0
100
AcDbPoint
 10
5850.794969903727
 20
2608.352619445893
 30
0.0
  0
POINT
  5
222BD
330
21BFF
100
AcDbEntity
  8
DEFPOINTS
 62
     0
 48
50.0
100
AcDbPoint
 10
5947.294969903727
 20
2668.660311753584
 30
0.0
  0
POINT
  5
222BE
330
21BFF
100
AcDbEntity
  8
DEFPOINTS
 62
     0
 48
50.0
100
AcDbPoint
 10
5947.294969903727
 20
2969.042164423632
 30
0.0
  0
ENDBLK
  5
21C0B
330
21BFF
100
AcDbEntity
  8
0
 48
50.0
100
AcDbBlockEnd
  0
BLOCK
  5
21C18
330
21C0C
100
AcDbEntity
  8
0
 48
50.0
100
AcDbBlockBegin
  2
*D51
 70
     1
 10
0.0
 20
0.0
 30
0.0
  3
*D51
  1

  0
LINE
  5
222AA
330
21C0C
100
AcDbEntity
  8
寸法
 62
     0
 48
50.0
370
    -2
100
AcDbLine
 10
5980.794969903727
 20
2668.660311753584
 30
0.0
 11
6679.061003075164
 21
2668.660311753584
 31
0.0
  0
LINE
  5
222AB
330
21C0C
100
AcDbEntity
  8
寸法
 62
     0
 48
50.0
370
    -2
100
AcDbLine
 10
6110.794969903727
 20
2608.352619445893
 30
0.0
 11
6679.061003075164
 21
2608.352619445893
 31
0.0
  0
LINE
  5
222AC
330
21C0C
100
AcDbEntity
  8
寸法
 62
     0
 48
50.0
370
    -2
100
AcDbLine
 10
6619.061003075164
 20
2668.660311753584
 30
0.0
 11
6619.061003075164
 21
2768.660311753584
 31
0.0
  0
LINE
  5
222AD
330
21C0C
100
AcDbEntity
  8
寸法
 62
     0
 48
50.0
370
    -2
100
AcDbLine
 10
6619.061003075164
 20
2608.352619445893
 30
0.0
 11
6619.061003075163
 21
1879.382056697412
 31
0.0
  0
LINE
  5
222AE
330
21C0C
100
AcDbEntity
  8
寸法
 62
     0
 48
50.0
370
    -2
100
AcDbLine
 10
6619.061003075164
 20
2668.660311753584
 30
0.0
 11
6619.061003075164
 21
2608.352619445893
 31
0.0
  0
INSERT
  5
222AF
330
21C0C
100
AcDbEntity
  8
寸法
 62
     0
 48
50.0
370
    -2
100
AcDbBlockReference
  2
_DOTSMALL
 10
6619.061003075164
 20
2668.660311753584
 30
0.0
 41
100.0
 42
100.0
 43
100.0
 50
270.0
  0
INSERT
  5
222B0
330
21C0C
100
AcDbEntity
  8
寸法
 62
     0
 48
50.0
370
    -2
100
AcDbBlockReference
  2
_DOTSMALL
 10
6619.061003075164
 20
2608.352619445893
 30
0.0
 41
100.0
 42
100.0
 43
100.0
 50
90.0
  0
MTEXT
  5
222B1
330
21C0C
100
AcDbEntity
  8
寸法
 62
     7
 48
50.0
100
AcDbMText
 10
6519.061003075163
 20
2143.867338071652
 30
0.0
 40
120.0
 41
0.0
 71
     5
 72
     1
  1
\A1;30～35
  7
STYLE1
 11
0.0000000000000001
 21
1.0
 31
0.0
 73
     1
 44
1.0
1001
ACAD
1000
MTEXTBEGIN
1070
    73
1070
     1
1070
    44
1040
1.0
1070
    74
1070
     0
1000
MTEXTEND
  0
POINT
  5
222B2
330
21C0C
100
AcDbEntity
  8
DEFPOINTS
 62
     0
 48
50.0
100
AcDbPoint
 10
5960.794969903727
 20
2668.660311753584
 30
0.0
  0
POINT
  5
222B3
330
21C0C
100
AcDbEntity
  8
DEFPOINTS
 62
     0
 48
50.0
100
AcDbPoint
 10
6090.794969903727
 20
2608.352619445893
 30
0.0
  0
POINT
  5
222B4
330
21C0C
100
AcDbEntity
  8
DEFPOINTS
 62
     0
 48
50.0
100
AcDbPoint
 10
6619.061003075164
 20
2608.352619445893
 30
0.0
  0
ENDBLK
  5
21C19
330
21C0C
100
AcDbEntity
  8
0
 48
50.0
100
AcDbBlockEnd
  0
BLOCK
  5
21C24
330
21C1A
100
AcDbEntity
  8
0
 48
50.0
100
AcDbBlockBegin
  2
*D52
 70
     1
 10
0.0
 20
0.0
 30
0.0
  3
*D52
  1

  0
LINE
  5
222DA
330
21C1A
100
AcDbEntity
  8
寸法
 62
     0
 48
50.0
370
    -2
100
AcDbLine
 10
8584.336653102823
 20
2633.352619445893
 30
0.0
 11
8584.336653102823
 21
3083.352619445893
 31
0.0
  0
LINE
  5
222DB
330
21C1A
100
AcDbEntity
  8
寸法
 62
     0
 48
50.0
370
    -2
100
AcDbLine
 10
8344.336653102825
 20
2633.352619445893
 30
0.0
 11
8344.336653102825
 21
3083.352619445893
 31
0.0
  0
LINE
  5
222DC
330
21C1A
100
AcDbEntity
  8
寸法
 62
     0
 48
50.0
370
    -2
100
AcDbLine
 10
8584.336653102823
 20
3008.352619445893
 30
0.0
 11
8344.336653102825
 21
3008.352619445893
 31
0.0
  0
INSERT
  5
222DD
330
21C1A
100
AcDbEntity
  8
寸法
 62
     0
 48
50.0
370
    -2
100
AcDbBlockReference
  2
_DOTSMALL
 10
8584.336653102823
 20
3008.352619445893
 30
0.0
 41
125.0
 42
125.0
 43
125.0
  0
INSERT
  5
222DE
330
21C1A
100
AcDbEntity
  8
寸法
 62
     0
 48
50.0
370
    -2
100
AcDbBlockReference
  2
_DOTSMALL
 10
8344.336653102825
 20
3008.352619445893
 30
0.0
 41
125.0
 42
125.0
 43
125.0
 50
180.0
  0
MTEXT
  5
222DF
330
21C1A
100
AcDbEntity
  8
寸法
 62
     7
 48
50.0
100
AcDbMText
 10
8464.336653102824
 20
3166.695795298911
 30
0.0
 40
100.0
 41
0.0
 71
     5
 72
     1
  1
\A1;120\P195
  7
STYLE1
 73
     1
 44
1.0
1001
ACAD
1000
MTEXTBEGIN
1070
    73
1070
     1
1070
    44
1040
1.0
1070
    74
1070
     0
1000
MTEXTEND
  0
POINT
  5
222E0
330
21C1A
100
AcDbEntity
  8
DEFPOINTS
 62
     0
 48
50.0
100
AcDbPoint
 10
8584.336653102823
 20
2608.352619445893
 30
0.0
  0
POINT
  5
222E1
330
21C1A
100
AcDbEntity
  8
DEFPOINTS
 62
     0
 48
50.0
100
AcDbPoint
 10
8344.336653102825
 20
2608.352619445893
 30
0.0
  0
POINT
  5
222E2
330
21C1A
100
AcDbEntity
  8
DEFPOINTS
 62
     0
 48
50.0
100
AcDbPoint
 10
8344.336653102825
 20
3008.352619445893
 30
0.0
  0
ENDBLK
  5
21C25
330
21C1A
100
AcDbEntity
  8
0
 48
50.0
100
AcDbBlockEnd
  0
BLOCK
  5
21C30
330
21C26
100
AcDbEntity
  8
0
 48
50.0
100
AcDbBlockBegin
  2
*D53
 70
     1
 10
0.0
 20
0.0
 30
0.0
  3
*D53
  1

  0
LINE
  5
222D1
330
21C26
100
AcDbEntity
  8
寸法
 62
     0
 48
50.0
370
    -2
100
AcDbLine
 10
8319.336653102824
 20
2608.352619445893
 30
0.0
 11
7583.69171506676
 21
2608.352619445893
 31
0.0
  0
LINE
  5
222D2
330
21C26
100
AcDbEntity
  8
寸法
 62
     0
 48
50.0
370
    -2
100
AcDbLine
 10
8059.336653102823
 20
1628.352619445892
 30
0.0
 11
7583.69171506676
 21
1628.352619445893
 31
0.0
  0
LINE
  5
222D3
330
21C26
100
AcDbEntity
  8
寸法
 62
     0
 48
50.0
370
    -2
100
AcDbLine
 10
7658.69171506676
 20
2608.352619445893
 30
0.0
 11
7658.69171506676
 21
1628.352619445893
 31
0.0
  0
INSERT
  5
222D4
330
21C26
100
AcDbEntity
  8
寸法
 62
     0
 48
50.0
370
    -2
100
AcDbBlockReference
  2
_DOTSMALL
 10
7658.69171506676
 20
2608.352619445893
 30
0.0
 41
125.0
 42
125.0
 43
125.0
 50
90.0
  0
INSERT
  5
222D5
330
21C26
100
AcDbEntity
  8
寸法
 62
     0
 48
50.0
370
    -2
100
AcDbBlockReference
  2
_DOTSMALL
 10
7658.69171506676
 20
1628.352619445893
 30
0.0
 41
125.0
 42
125.0
 43
125.0
 50
270.0
  0
MTEXT
  5
222D6
330
21C26
100
AcDbEntity
  8
寸法
 62
     7
 48
50.0
100
AcDbMText
 10
7583.69171506676
 20
2118.352619445893
 30
0.0
 40
100.0
 41
0.0
 71
     5
 72
     1
  1
\A1;540
  7
STYLE1
 11
0.0000000000000001
 21
1.0
 31
0.0
 73
     1
 44
1.0
1001
ACAD
1000
MTEXTBEGIN
1070
    73
1070
     1
1070
    44
1040
1.0
1070
    74
1070
     0
1000
MTEXTEND
  0
POINT
  5
222D7
330
21C26
100
AcDbEntity
  8
DEFPOINTS
 62
     0
 48
50.0
100
AcDbPoint
 10
8344.336653102825
 20
2608.352619445893
 30
0.0
  0
POINT
  5
222D8
330
21C26
100
AcDbEntity
  8
DEFPOINTS
 62
     0
 48
50.0
100
AcDbPoint
 10
8084.336653102823
 20
1628.352619445892
 30
0.0
  0
POINT
  5
222D9
330
21C26
100
AcDbEntity
  8
DEFPOINTS
 62
     0
 48
50.0
100
AcDbPoint
 10
7658.69171506676
 20
1628.352619445893
 30
0.0
  0
ENDBLK
  5
21C31
330
21C26
100
AcDbEntity
  8
0
 48
50.0
100
AcDbBlockEnd
  0
BLOCK
  5
21C3C
330
21C32
100
AcDbEntity
  8
0
 48
50.0
100
AcDbBlockBegin
  2
*D54
 70
     1
 10
0.0
 20
0.0
 30
0.0
  3
*D54
  1

  0
LINE
  5
222C8
330
21C32
100
AcDbEntity
  8
寸法
 62
     0
 48
50.0
370
    -2
100
AcDbLine
 10
8159.336653102824
 20
1928.352619445892
 30
0.0
 11
7856.31126093725
 21
1928.352619445892
 31
0.0
  0
LINE
  5
222C9
330
21C32
100
AcDbEntity
  8
寸法
 62
     0
 48
50.0
370
    -2
100
AcDbLine
 10
8059.336653102823
 20
1628.352619445892
 30
0.0
 11
7856.31126093725
 21
1628.352619445892
 31
0.0
  0
LINE
  5
222CA
330
21C32
100
AcDbEntity
  8
寸法
 62
     0
 48
50.0
370
    -2
100
AcDbLine
 10
7931.311260937249
 20
1928.352619445892
 30
0.0
 11
7931.311260937249
 21
1628.352619445892
 31
0.0
  0
INSERT
  5
222CB
330
21C32
100
AcDbEntity
  8
寸法
 62
     0
 48
50.0
370
    -2
100
AcDbBlockReference
  2
_DOTSMALL
 10
7931.311260937249
 20
1928.352619445892
 30
0.0
 41
125.0
 42
125.0
 43
125.0
 50
90.0
  0
INSERT
  5
222CC
330
21C32
100
AcDbEntity
  8
寸法
 62
     0
 48
50.0
370
    -2
100
AcDbBlockReference
  2
_DOTSMALL
 10
7931.311260937249
 20
1628.352619445892
 30
0.0
 41
125.0
 42
125.0
 43
125.0
 50
270.0
  0
MTEXT
  5
222CD
330
21C32
100
AcDbEntity
  8
寸法
 62
     7
 48
50.0
100
AcDbMText
 10
7856.31126093725
 20
1778.352619445892
 30
0.0
 40
100.0
 41
0.0
 71
     5
 72
     1
  1
\A1;150
  7
STYLE1
 11
0.0000000000000001
 21
1.0
 31
0.0
 73
     1
 44
1.0
1001
ACAD
1000
MTEXTBEGIN
1070
    73
1070
     1
1070
    44
1040
1.0
1070
    74
1070
     0
1000
MTEXTEND
  0
POINT
  5
222CE
330
21C32
100
AcDbEntity
  8
DEFPOINTS
 62
     0
 48
50.0
100
AcDbPoint
 10
8184.336653102823
 20
1928.352619445892
 30
0.0
  0
POINT
  5
222CF
330
21C32
100
AcDbEntity
  8
DEFPOINTS
 62
     0
 48
50.0
100
AcDbPoint
 10
8084.336653102823
 20
1628.352619445892
 30
0.0
  0
POINT
  5
222D0
330
21C32
100
AcDbEntity
  8
DEFPOINTS
 62
     0
 48
50.0
100
AcDbPoint
 10
7931.311260937249
 20
1628.352619445892
 30
0.0
  0
ENDBLK
  5
21C3D
330
21C32
100
AcDbEntity
  8
0
 48
50.0
100
AcDbBlockEnd
  0
BLOCK
  5
21C48
330
21C3E
100
AcDbEntity
  8
0
 48
50.0
100
AcDbBlockBegin
  2
*D55
 70
     1
 10
0.0
 20
0.0
 30
0.0
  3
*D55
  1

  0
LINE
  5
222BF
330
21C3E
100
AcDbEntity
  8
寸法
 62
     0
 48
50.0
370
    -2
100
AcDbLine
 10
8184.336653102823
 20
1443.352619445892
 30
0.0
 11
8184.336653102823
 21
1094.400512989958
 31
0.0
  0
LINE
  5
222C0
330
21C3E
100
AcDbEntity
  8
寸法
 62
     0
 48
50.0
370
    -2
100
AcDbLine
 10
8744.336653102825
 20
1443.352619445892
 30
0.0
 11
8744.336653102825
 21
1094.400512989958
 31
0.0
  0
LINE
  5
222C1
330
21C3E
100
AcDbEntity
  8
寸法
 62
     0
 48
50.0
370
    -2
100
AcDbLine
 10
8184.336653102823
 20
1169.400512989958
 30
0.0
 11
8744.336653102825
 21
1169.400512989958
 31
0.0
  0
INSERT
  5
222C2
330
21C3E
100
AcDbEntity
  8
寸法
 62
     0
 48
50.0
370
    -2
100
AcDbBlockReference
  2
_DOTSMALL
 10
8184.336653102823
 20
1169.400512989958
 30
0.0
 41
125.0
 42
125.0
 43
125.0
 50
180.0
  0
INSERT
  5
222C3
330
21C3E
100
AcDbEntity
  8
寸法
 62
     0
 48
50.0
370
    -2
100
AcDbBlockReference
  2
_DOTSMALL
 10
8744.336653102825
 20
1169.400512989958
 30
0.0
 41
125.0
 42
125.0
 43
125.0
  0
MTEXT
  5
222C4
330
21C3E
100
AcDbEntity
  8
寸法
 62
     7
 48
50.0
100
AcDbMText
 10
8464.336653102824
 20
1244.400512989958
 30
0.0
 40
100.0
 41
0.0
 71
     5
 72
     1
  1
\A1;300
  7
STYLE1
 73
     1
 44
1.0
1001
ACAD
1000
MTEXTBEGIN
1070
    73
1070
     1
1070
    44
1040
1.0
1070
    74
1070
     0
1000
MTEXTEND
  0
POINT
  5
222C5
330
21C3E
100
AcDbEntity
  8
DEFPOINTS
 62
     0
 48
50.0
100
AcDbPoint
 10
8184.336653102823
 20
1468.352619445892
 30
0.0
  0
POINT
  5
222C6
330
21C3E
100
AcDbEntity
  8
DEFPOINTS
 62
     0
 48
50.0
100
AcDbPoint
 10
8744.336653102825
 20
1468.352619445892
 30
0.0
  0
POINT
  5
222C7
330
21C3E
100
AcDbEntity
  8
DEFPOINTS
 62
     0
 48
50.0
100
AcDbPoint
 10
8744.336653102825
 20
1169.400512989958
 30
0.0
  0
ENDBLK
  5
21C49
330
21C3E
100
AcDbEntity
  8
0
 48
50.0
100
AcDbBlockEnd
  0
BLOCK
  5
21D79
330
21D78
100
AcDbEntity
  8
0
 48
50.0
100
AcDbBlockBegin
  2
*D56
 70
     1
 10
0.0
 20
0.0
 30
0.0
  3
*D56
  1

  0
LINE
  5
21D7A
330
21D78
100
AcDbEntity
  8
寸法
 62
     0
 48
50.0
370
    -2
100
AcDbLine
 10
9850.494285221992
 20
2615.662879184638
 30
0.0
 11
9850.494285221992
 21
2909.396221082585
 31
0.0
  0
LINE
  5
21D7B
330
21D78
100
AcDbEntity
  8
寸法
 62
     0
 48
50.0
370
    -2
100
AcDbLine
 10
9993.994285221994
 20
2675.970571492329
 30
0.0
 11
9993.994285221994
 21
2909.396221082585
 31
0.0
  0
LINE
  5
21D7C
330
21D78
100
AcDbEntity
  8
寸法
 62
     0
 48
50.0
370
    -2
100
AcDbLine
 10
9993.994285221994
 20
2834.396221082585
 30
0.0
 11
9850.494285221992
 21
2834.396221082585
 31
0.0
  0
LINE
  5
21D7D
330
21D78
100
AcDbEntity
  8
寸法
 62
     0
 48
50.0
370
    -2
100
AcDbLine
 10
9850.494285221992
 20
2834.396221082585
 30
0.0
 11
9555.367897629757
 21
2834.396221082585
 31
0.0
  0
INSERT
  5
21D7E
330
21D78
100
AcDbEntity
  8
寸法
 62
     0
 48
50.0
370
    -2
100
AcDbBlockReference
  2
_DOTSMALL
 10
9993.994285221994
 20
2834.396221082585
 30
0.0
 41
125.0
 42
125.0
 43
125.0
  0
INSERT
  5
21D7F
330
21D78
100
AcDbEntity
  8
寸法
 62
     0
 48
50.0
370
    -2
100
AcDbBlockReference
  2
_DOTSMALL
 10
9850.494285221992
 20
2834.396221082585
 30
0.0
 41
125.0
 42
125.0
 43
125.0
 50
180.0
  0
MTEXT
  5
21D80
330
21D78
100
AcDbEntity
  8
寸法
 62
     7
 48
50.0
100
AcDbMText
 10
9640.431091425876
 20
2909.396221082585
 30
0.0
 40
100.0
 41
0.0
 71
     5
 72
     1
  1
\A1;65
  7
STYLE1
 73
     1
 44
1.0
1001
ACAD
1000
MTEXTBEGIN
1070
    73
1070
     1
1070
    44
1040
1.0
1070
    74
1070
     0
1000
MTEXTEND
  0
POINT
  5
21D81
330
21D78
100
AcDbEntity
  8
DEFPOINTS
 62
     0
 48
50.0
100
AcDbPoint
 10
9850.494285221992
 20
2590.662879184638
 30
0.0
  0
POINT
  5
21D82
330
21D78
100
AcDbEntity
  8
DEFPOINTS
 62
     0
 48
50.0
100
AcDbPoint
 10
9993.994285221994
 20
2650.970571492329
 30
0.0
  0
POINT
  5
21D83
330
21D78
100
AcDbEntity
  8
DEFPOINTS
 62
     0
 48
50.0
100
AcDbPoint
 10
9993.994285221994
 20
2834.396221082585
 30
0.0
  0
ENDBLK
  5
21D84
330
21D78
100
AcDbEntity
  8
0
 48
50.0
100
AcDbBlockEnd
  0
BLOCK
  5
21D86
330
21D85
100
AcDbEntity
  8
0
 48
50.0
100
AcDbBlockBegin
  2
*D57
 70
     1
 10
0.0
 20
0.0
 30
0.0
  3
*D57
  1

  0
LINE
  5
21D87
330
21D85
100
AcDbEntity
  8
寸法
 62
     0
 48
50.0
370
    -2
100
AcDbLine
 10
9861.263515991224
 20
2721.201340723099
 30
0.0
 11
9861.263515991224
 21
3130.97513913456
 31
0.0
  0
LINE
  5
21D88
330
21D85
100
AcDbEntity
  8
寸法
 62
     0
 48
50.0
370
    -2
100
AcDbLine
 10
10051.87890060661
 20
2722.278263800023
 30
0.0
 11
10051.87890060661
 21
3130.97513913456
 31
0.0
  0
LINE
  5
21D89
330
21D85
100
AcDbEntity
  8
寸法
 62
     0
 48
50.0
370
    -2
100
AcDbLine
 10
9861.263515991224
 20
3055.97513913456
 30
0.0
 11
10051.87890060661
 21
3055.97513913456
 31
0.0
  0
INSERT
  5
21D8A
330
21D85
100
AcDbEntity
  8
寸法
 62
     0
 48
50.0
370
    -2
100
AcDbBlockReference
  2
_DOTSMALL
 10
9861.263515991224
 20
3055.97513913456
 30
0.0
 41
125.0
 42
125.0
 43
125.0
 50
180.0
  0
INSERT
  5
21D8B
330
21D85
100
AcDbEntity
  8
寸法
 62
     0
 48
50.0
370
    -2
100
AcDbBlockReference
  2
_DOTSMALL
 10
10051.87890060661
 20
3055.97513913456
 30
0.0
 41
125.0
 42
125.0
 43
125.0
  0
MTEXT
  5
21D8C
330
21D85
100
AcDbEntity
  8
寸法
 62
     7
 48
50.0
100
AcDbMText
 10
9956.571208298917
 20
3130.97513913456
 30
0.0
 40
100.0
 41
0.0
 71
     5
 72
     1
  1
\A1;88.5
  7
STYLE1
 73
     1
 44
1.0
1001
ACAD
1000
MTEXTBEGIN
1070
    73
1070
     1
1070
    44
1040
1.0
1070
    74
1070
     0
1000
MTEXTEND
  0
POINT
  5
21D8D
330
21D85
100
AcDbEntity
  8
DEFPOINTS
 62
     0
 48
50.0
100
AcDbPoint
 10
9861.263515991224
 20
2696.201340723099
 30
0.0
  0
POINT
  5
21D8E
330
21D85
100
AcDbEntity
  8
DEFPOINTS
 62
     0
 48
50.0
100
AcDbPoint
 10
10051.87890060661
 20
2697.278263800023
 30
0.0
  0
POINT
  5
21D8F
330
21D85
100
AcDbEntity
  8
DEFPOINTS
 62
     0
 48
50.0
100
AcDbPoint
 10
10051.87890060661
 20
3055.97513913456
 30
0.0
  0
ENDBLK
  5
21D90
330
21D85
100
AcDbEntity
  8
0
 48
50.0
100
AcDbBlockEnd
  0
BLOCK
  5
21D92
330
21D91
100
AcDbEntity
  8
0
 48
50.0
100
AcDbBlockBegin
  2
*D58
 70
     1
 10
0.0
 20
0.0
 30
0.0
  3
*D58
  1

  0
LINE
  5
21D93
330
21D91
100
AcDbEntity
  8
寸法
 62
     0
 48
50.0
370
    -2
100
AcDbLine
 10
9955.494285221988
 20
2650.970571492329
 30
0.0
 11
9234.10898730132
 21
2650.970571492329
 31
0.0
  0
LINE
  5
21D94
330
21D91
100
AcDbEntity
  8
寸法
 62
     0
 48
50.0
370
    -2
100
AcDbLine
 10
9825.494285221992
 20
2590.662879184638
 30
0.0
 11
9234.10898730132
 21
2590.662879184638
 31
0.0
  0
LINE
  5
21D95
330
21D91
100
AcDbEntity
  8
寸法
 62
     0
 48
50.0
370
    -2
100
AcDbLine
 10
9309.108987301319
 20
2590.662879184638
 30
0.0
 11
9309.108987301319
 21
2650.970571492329
 31
0.0
  0
LINE
  5
21D96
330
21D91
100
AcDbEntity
  8
寸法
 62
     0
 48
50.0
370
    -2
100
AcDbLine
 10
9309.108987301319
 20
2650.970571492329
 30
0.0
 11
9309.108987301319
 21
3064.382644983144
 31
0.0
  0
INSERT
  5
21D97
330
21D91
100
AcDbEntity
  8
寸法
 62
     0
 48
50.0
370
    -2
100
AcDbBlockReference
  2
_DOTSMALL
 10
9309.108987301319
 20
2590.662879184638
 30
0.0
 41
125.0
 42
125.0
 43
125.0
 50
270.0
  0
INSERT
  5
21D98
330
21D91
100
AcDbEntity
  8
寸法
 62
     0
 48
50.0
370
    -2
100
AcDbBlockReference
  2
_DOTSMALL
 10
9309.108987301319
 20
2650.970571492329
 30
0.0
 41
125.0
 42
125.0
 43
125.0
 50
90.0
  0
MTEXT
  5
21D99
330
21D91
100
AcDbEntity
  8
寸法
 62
     7
 48
50.0
100
AcDbMText
 10
9234.10898730132
 20
2920.176608237739
 30
0.0
 40
100.0
 41
0.0
 71
     5
 72
     1
  1
\A1;出30
  7
STYLE1
 11
0.0000000000000001
 21
1.0
 31
0.0
 73
     1
 44
1.0
1001
ACAD
1000
MTEXTBEGIN
1070
    73
1070
     1
1070
    44
1040
1.0
1070
    74
1070
     0
1000
MTEXTEND
  0
POINT
  5
21D9A
330
21D91
100
AcDbEntity
  8
DEFPOINTS
 62
     0
 48
50.0
100
AcDbPoint
 10
9980.494285221988
 20
2650.970571492329
 30
0.0
  0
POINT
  5
21D9B
330
21D91
100
AcDbEntity
  8
DEFPOINTS
 62
     0
 48
50.0
100
AcDbPoint
 10
9850.494285221992
 20
2590.662879184638
 30
0.0
  0
POINT
  5
21D9C
330
21D91
100
AcDbEntity
  8
DEFPOINTS
 62
     0
 48
50.0
100
AcDbPoint
 10
9309.108987301319
 20
2590.662879184638
 30
0.0
  0
ENDBLK
  5
21D9D
330
21D91
100
AcDbEntity
  8
0
 48
50.0
100
AcDbBlockEnd
  0
BLOCK
  5
21D9F
330
21D9E
100
AcDbEntity
  8
0
 48
50.0
100
AcDbBlockBegin
  2
*D59
 70
     1
 10
0.0
 20
0.0
 30
0.0
  3
*D59
  1

  0
LINE
  5
21DA0
330
21D9E
100
AcDbEntity
  8
寸法
 62
     0
 48
50.0
370
    -2
100
AcDbLine
 10
7043.070381697582
 20
2540.133159419849
 30
0.0
 11
7043.070381697582
 21
2990.133159419849
 31
0.0
  0
LINE
  5
21DA1
330
21D9E
100
AcDbEntity
  8
寸法
 62
     0
 48
50.0
370
    -2
100
AcDbLine
 10
6803.070381697581
 20
2540.133159419849
 30
0.0
 11
6803.070381697581
 21
2990.133159419849
 31
0.0
  0
LINE
  5
21DA2
330
21D9E
100
AcDbEntity
  8
寸法
 62
     0
 48
50.0
370
    -2
100
AcDbLine
 10
7043.070381697582
 20
2915.133159419849
 30
0.0
 11
6803.070381697581
 21
2915.133159419849
 31
0.0
  0
INSERT
  5
21DA3
330
21D9E
100
AcDbEntity
  8
寸法
 62
     0
 48
50.0
370
    -2
100
AcDbBlockReference
  2
_DOTSMALL
 10
7043.070381697582
 20
2915.133159419849
 30
0.0
 41
125.0
 42
125.0
 43
125.0
  0
INSERT
  5
21DA4
330
21D9E
100
AcDbEntity
  8
寸法
 62
     0
 48
50.0
370
    -2
100
AcDbBlockReference
  2
_DOTSMALL
 10
6803.070381697581
 20
2915.133159419849
 30
0.0
 41
125.0
 42
125.0
 43
125.0
 50
180.0
  0
MTEXT
  5
21DA5
330
21D9E
100
AcDbEntity
  8
寸法
 62
     7
 48
50.0
100
AcDbMText
 10
6923.070381697582
 20
3073.476335272868
 30
0.0
 40
100.0
 41
0.0
 71
     5
 72
     1
  1
\A1;120\P185
  7
STYLE1
 73
     1
 44
1.0
1001
ACAD
1000
MTEXTBEGIN
1070
    73
1070
     1
1070
    44
1040
1.0
1070
    74
1070
     0
1000
MTEXTEND
  0
POINT
  5
21DA6
330
21D9E
100
AcDbEntity
  8
DEFPOINTS
 62
     0
 48
50.0
100
AcDbPoint
 10
7043.070381697582
 20
2515.133159419849
 30
0.0
  0
POINT
  5
21DA7
330
21D9E
100
AcDbEntity
  8
DEFPOINTS
 62
     0
 48
50.0
100
AcDbPoint
 10
6803.070381697581
 20
2515.133159419849
 30
0.0
  0
POINT
  5
21DA8
330
21D9E
100
AcDbEntity
  8
DEFPOINTS
 62
     0
 48
50.0
100
AcDbPoint
 10
6803.070381697581
 20
2915.133159419849
 30
0.0
  0
ENDBLK
  5
21DA9
330
21D9E
100
AcDbEntity
  8
0
 48
50.0
100
AcDbBlockEnd
  0
BLOCK
  5
21DAB
330
21DAA
100
AcDbEntity
  8
0
 48
50.0
100
AcDbBlockBegin
  2
*D60
 70
     1
 10
0.0
 20
0.0
 30
0.0
  3
*D60
  1

  0
LINE
  5
21DAC
330
21DAA
100
AcDbEntity
  8
寸法
 62
     0
 48
50.0
370
    -2
100
AcDbLine
 10
6623.070381697582
 20
1250.133159419849
 30
0.0
 11
6623.070381697582
 21
901.181052963915
 31
0.0
  0
LINE
  5
21DAD
330
21DAA
100
AcDbEntity
  8
寸法
 62
     0
 48
50.0
370
    -2
100
AcDbLine
 10
7223.070381697581
 20
1250.133159419849
 30
0.0
 11
7223.070381697581
 21
901.181052963915
 31
0.0
  0
LINE
  5
21DAE
330
21DAA
100
AcDbEntity
  8
寸法
 62
     0
 48
50.0
370
    -2
100
AcDbLine
 10
6623.070381697582
 20
976.181052963915
 30
0.0
 11
7223.070381697581
 21
976.181052963915
 31
0.0
  0
INSERT
  5
21DAF
330
21DAA
100
AcDbEntity
  8
寸法
 62
     0
 48
50.0
370
    -2
100
AcDbBlockReference
  2
_DOTSMALL
 10
6623.070381697582
 20
976.181052963915
 30
0.0
 41
125.0
 42
125.0
 43
125.0
 50
180.0
  0
INSERT
  5
21DB0
330
21DAA
100
AcDbEntity
  8
寸法
 62
     0
 48
50.0
370
    -2
100
AcDbBlockReference
  2
_DOTSMALL
 10
7223.070381697581
 20
976.181052963915
 30
0.0
 41
125.0
 42
125.0
 43
125.0
  0
MTEXT
  5
21DB1
330
21DAA
100
AcDbEntity
  8
寸法
 62
     7
 48
50.0
100
AcDbMText
 10
6923.070381697582
 20
1051.181052963915
 30
0.0
 40
100.0
 41
0.0
 71
     5
 72
     1
  1
\A1;300
  7
STYLE1
 73
     1
 44
1.0
1001
ACAD
1000
MTEXTBEGIN
1070
    73
1070
     1
1070
    44
1040
1.0
1070
    74
1070
     0
1000
MTEXTEND
  0
POINT
  5
21DB2
330
21DAA
100
AcDbEntity
  8
DEFPOINTS
 62
     0
 48
50.0
100
AcDbPoint
 10
6623.070381697582
 20
1275.133159419849
 30
0.0
  0
POINT
  5
21DB3
330
21DAA
100
AcDbEntity
  8
DEFPOINTS
 62
     0
 48
50.0
100
AcDbPoint
 10
7223.070381697581
 20
1275.133159419849
 30
0.0
  0
POINT
  5
21DB4
330
21DAA
100
AcDbEntity
  8
DEFPOINTS
 62
     0
 48
50.0
100
AcDbPoint
 10
7223.070381697581
 20
976.181052963915
 30
0.0
  0
ENDBLK
  5
21DB5
330
21DAA
100
AcDbEntity
  8
0
 48
50.0
100
AcDbBlockEnd
  0
BLOCK
  5
21DB7
330
21DB6
100
AcDbEntity
  8
0
 48
50.0
100
AcDbBlockBegin
  2
*D61
 70
     1
 10
0.0
 20
0.0
 30
0.0
  3
*D61
  1

  0
LINE
  5
21DB8
330
21DB6
100
AcDbEntity
  8
寸法
 62
     0
 48
50.0
370
    -2
100
AcDbLine
 10
6778.070381697581
 20
2515.133159419849
 30
0.0
 11
5873.601013898428
 21
2515.133159419849
 31
0.0
  0
LINE
  5
21DB9
330
21DB6
100
AcDbEntity
  8
寸法
 62
     0
 48
50.0
370
    -2
100
AcDbLine
 10
6518.070381697583
 20
1435.133159419849
 30
0.0
 11
5873.601013898427
 21
1435.133159419849
 31
0.0
  0
LINE
  5
21DBA
330
21DB6
100
AcDbEntity
  8
寸法
 62
     0
 48
50.0
370
    -2
100
AcDbLine
 10
5948.601013898428
 20
2515.133159419849
 30
0.0
 11
5948.601013898427
 21
1435.133159419849
 31
0.0
  0
INSERT
  5
21DBB
330
21DB6
100
AcDbEntity
  8
寸法
 62
     0
 48
50.0
370
    -2
100
AcDbBlockReference
  2
_DOTSMALL
 10
5948.601013898428
 20
2515.133159419849
 30
0.0
 41
125.0
 42
125.0
 43
125.0
 50
90.0
  0
INSERT
  5
21DBC
330
21DB6
100
AcDbEntity
  8
寸法
 62
     0
 48
50.0
370
    -2
100
AcDbBlockReference
  2
_DOTSMALL
 10
5948.601013898427
 20
1435.133159419849
 30
0.0
 41
125.0
 42
125.0
 43
125.0
 50
270.0
  0
MTEXT
  5
21DBD
330
21DB6
100
AcDbEntity
  8
寸法
 62
     7
 48
50.0
100
AcDbMText
 10
5873.601013898427
 20
2011.928096017559
 30
0.0
 40
100.0
 41
0.0
 71
     5
 72
     1
  1
\A1;540
  7
STYLE1
 11
0.0000000000000001
 21
1.0
 31
0.0
 73
     1
 44
1.0
1001
ACAD
1000
MTEXTBEGIN
1070
    73
1070
     1
1070
    44
1040
1.0
1070
    74
1070
     0
1000
MTEXTEND
  0
POINT
  5
21DBE
330
21DB6
100
AcDbEntity
  8
DEFPOINTS
 62
     0
 48
50.0
100
AcDbPoint
 10
6803.070381697581
 20
2515.133159419849
 30
0.0
  0
POINT
  5
21DBF
330
21DB6
100
AcDbEntity
  8
DEFPOINTS
 62
     0
 48
50.0
100
AcDbPoint
 10
6543.070381697583
 20
1435.133159419849
 30
0.0
  0
POINT
  5
21DC0
330
21DB6
100
AcDbEntity
  8
DEFPOINTS
 62
     0
 48
50.0
100
AcDbPoint
 10
5948.601013898427
 20
1435.133159419849
 30
0.0
  0
ENDBLK
  5
21DC1
330
21DB6
100
AcDbEntity
  8
0
 48
50.0
100
AcDbBlockEnd
  0
BLOCK
  5
21DC3
330
21DC2
100
AcDbEntity
  8
0
 48
50.0
100
AcDbBlockBegin
  2
*D62
 70
     1
 10
0.0
 20
0.0
 30
0.0
  3
*D62
  1

  0
LINE
  5
21DC4
330
21DC2
100
AcDbEntity
  8
寸法
 62
     0
 48
50.0
370
    -2
100
AcDbLine
 10
6618.070381697582
 20
1735.133159419849
 30
0.0
 11
6104.800037365973
 21
1735.133159419849
 31
0.0
  0
LINE
  5
21DC5
330
21DC2
100
AcDbEntity
  8
寸法
 62
     0
 48
50.0
370
    -2
100
AcDbLine
 10
6518.070381697583
 20
1435.133159419849
 30
0.0
 11
6104.800037365973
 21
1435.133159419849
 31
0.0
  0
LINE
  5
21DC6
330
21DC2
100
AcDbEntity
  8
寸法
 62
     0
 48
50.0
370
    -2
100
AcDbLine
 10
6179.800037365973
 20
1735.133159419849
 30
0.0
 11
6179.800037365973
 21
1435.133159419849
 31
0.0
  0
INSERT
  5
21DC7
330
21DC2
100
AcDbEntity
  8
寸法
 62
     0
 48
50.0
370
    -2
100
AcDbBlockReference
  2
_DOTSMALL
 10
6179.800037365973
 20
1735.133159419849
 30
0.0
 41
125.0
 42
125.0
 43
125.0
 50
90.0
  0
INSERT
  5
21DC8
330
21DC2
100
AcDbEntity
  8
寸法
 62
     0
 48
50.0
370
    -2
100
AcDbBlockReference
  2
_DOTSMALL
 10
6179.800037365973
 20
1435.133159419849
 30
0.0
 41
125.0
 42
125.0
 43
125.0
 50
270.0
  0
MTEXT
  5
21DC9
330
21DC2
100
AcDbEntity
  8
寸法
 62
     7
 48
50.0
100
AcDbMText
 10
6104.800037365973
 20
1609.459753811992
 30
0.0
 40
100.0
 41
0.0
 71
     5
 72
     1
  1
\A1;150
  7
STYLE1
 11
0.0000000000000001
 21
1.0
 31
0.0
 73
     1
 44
1.0
1001
ACAD
1000
MTEXTBEGIN
1070
    73
1070
     1
1070
    44
1040
1.0
1070
    74
1070
     0
1000
MTEXTEND
  0
POINT
  5
21DCA
330
21DC2
100
AcDbEntity
  8
DEFPOINTS
 62
     0
 48
50.0
100
AcDbPoint
 10
6643.070381697582
 20
1735.133159419849
 30
0.0
  0
POINT
  5
21DCB
330
21DC2
100
AcDbEntity
  8
DEFPOINTS
 62
     0
 48
50.0
100
AcDbPoint
 10
6543.070381697583
 20
1435.133159419849
 30
0.0
  0
POINT
  5
21DCC
330
21DC2
100
AcDbEntity
  8
DEFPOINTS
 62
     0
 48
50.0
100
AcDbPoint
 10
6179.800037365973
 20
1435.133159419849
 30
0.0
  0
ENDBLK
  5
21DCD
330
21DC2
100
AcDbEntity
  8
0
 48
50.0
100
AcDbBlockEnd
  0
BLOCK
  5
221D3
330
221C8
100
AcDbEntity
  8
0
 48
50.0
100
AcDbBlockBegin
  2
*D64
 70
     1
 10
0.0
 20
0.0
 30
0.0
  3
*D64
  1

  0
LINE
  5
2221E
330
221C8
100
AcDbEntity
  8
寸法
 62
     0
 48
50.0
370
    -2
100
AcDbLine
 10
8207.514521468999
 20
-1361.176210168065
 30
0.0
 11
8207.514521468999
 21
-1067.442868270118
 31
0.0
  0
LINE
  5
2221F
330
221C8
100
AcDbEntity
  8
寸法
 62
     0
 48
50.0
370
    -2
100
AcDbLine
 10
8351.014521469
 20
-1300.868517860374
 30
0.0
 11
8351.014521469
 21
-1067.442868270118
 31
0.0
  0
LINE
  5
22220
330
221C8
100
AcDbEntity
  8
寸法
 62
     0
 48
50.0
370
    -2
100
AcDbLine
 10
8351.014521469
 20
-1142.442868270118
 30
0.0
 11
8207.514521468999
 21
-1142.442868270118
 31
0.0
  0
LINE
  5
22221
330
221C8
100
AcDbEntity
  8
寸法
 62
     0
 48
50.0
370
    -2
100
AcDbLine
 10
8207.514521468999
 20
-1142.442868270118
 30
0.0
 11
7912.388133876764
 21
-1142.442868270118
 31
0.0
  0
INSERT
  5
22222
330
221C8
100
AcDbEntity
  8
寸法
 62
     0
 48
50.0
370
    -2
100
AcDbBlockReference
  2
_DOTSMALL
 10
8351.014521469
 20
-1142.442868270118
 30
0.0
 41
125.0
 42
125.0
 43
125.0
  0
INSERT
  5
22223
330
221C8
100
AcDbEntity
  8
寸法
 62
     0
 48
50.0
370
    -2
100
AcDbBlockReference
  2
_DOTSMALL
 10
8207.514521468999
 20
-1142.442868270118
 30
0.0
 41
125.0
 42
125.0
 43
125.0
 50
180.0
  0
MTEXT
  5
22224
330
221C8
100
AcDbEntity
  8
寸法
 62
     7
 48
50.0
100
AcDbMText
 10
7997.451327672883
 20
-1067.442868270118
 30
0.0
 40
100.0
 41
0.0
 71
     5
 72
     1
  1
\A1;65
  7
STYLE1
 73
     1
 44
1.0
1001
ACAD
1000
MTEXTBEGIN
1070
    73
1070
     1
1070
    44
1040
1.0
1070
    74
1070
     0
1000
MTEXTEND
  0
POINT
  5
22225
330
221C8
100
AcDbEntity
  8
DEFPOINTS
 62
     0
 48
50.0
100
AcDbPoint
 10
8207.514521468999
 20
-1386.176210168065
 30
0.0
  0
POINT
  5
22226
330
221C8
100
AcDbEntity
  8
DEFPOINTS
 62
     0
 48
50.0
100
AcDbPoint
 10
8351.014521469
 20
-1325.868517860374
 30
0.0
  0
POINT
  5
22227
330
221C8
100
AcDbEntity
  8
DEFPOINTS
 62
     0
 48
50.0
100
AcDbPoint
 10
8351.014521469
 20
-1142.442868270118
 30
0.0
  0
ENDBLK
  5
221D4
330
221C8
100
AcDbEntity
  8
0
 48
50.0
100
AcDbBlockEnd
  0
BLOCK
  5
221DF
330
221D5
100
AcDbEntity
  8
0
 48
50.0
100
AcDbBlockBegin
  2
*D65
 70
     1
 10
0.0
 20
0.0
 30
0.0
  3
*D65
  1

  0
LINE
  5
22228
330
221D5
100
AcDbEntity
  8
寸法
 62
     0
 48
50.0
370
    -2
100
AcDbLine
 10
5400.090617944591
 20
-1436.705929932854
 30
0.0
 11
5400.090617944591
 21
-986.7059299328539
 31
0.0
  0
LINE
  5
22229
330
221D5
100
AcDbEntity
  8
寸法
 62
     0
 48
50.0
370
    -2
100
AcDbLine
 10
5160.09061794459
 20
-1436.705929932854
 30
0.0
 11
5160.09061794459
 21
-986.7059299328539
 31
0.0
  0
LINE
  5
2222A
330
221D5
100
AcDbEntity
  8
寸法
 62
     0
 48
50.0
370
    -2
100
AcDbLine
 10
5400.090617944591
 20
-1061.705929932854
 30
0.0
 11
5160.09061794459
 21
-1061.705929932854
 31
0.0
  0
INSERT
  5
2222B
330
221D5
100
AcDbEntity
  8
寸法
 62
     0
 48
50.0
370
    -2
100
AcDbBlockReference
  2
_DOTSMALL
 10
5400.090617944591
 20
-1061.705929932854
 30
0.0
 41
125.0
 42
125.0
 43
125.0
  0
INSERT
  5
2222C
330
221D5
100
AcDbEntity
  8
寸法
 62
     0
 48
50.0
370
    -2
100
AcDbBlockReference
  2
_DOTSMALL
 10
5160.09061794459
 20
-1061.705929932854
 30
0.0
 41
125.0
 42
125.0
 43
125.0
 50
180.0
  0
MTEXT
  5
2222D
330
221D5
100
AcDbEntity
  8
寸法
 62
     7
 48
50.0
100
AcDbMText
 10
5280.090617944591
 20
-903.3627540798356
 30
0.0
 40
100.0
 41
0.0
 71
     5
 72
     1
  1
\A1;120\P185
  7
STYLE1
 73
     1
 44
1.0
1001
ACAD
1000
MTEXTBEGIN
1070
    73
1070
     1
1070
    44
1040
1.0
1070
    74
1070
     0
1000
MTEXTEND
  0
POINT
  5
2222E
330
221D5
100
AcDbEntity
  8
DEFPOINTS
 62
     0
 48
50.0
100
AcDbPoint
 10
5400.090617944591
 20
-1461.705929932854
 30
0.0
  0
POINT
  5
2222F
330
221D5
100
AcDbEntity
  8
DEFPOINTS
 62
     0
 48
50.0
100
AcDbPoint
 10
5160.09061794459
 20
-1461.705929932854
 30
0.0
  0
POINT
  5
22230
330
221D5
100
AcDbEntity
  8
DEFPOINTS
 62
     0
 48
50.0
100
AcDbPoint
 10
5160.09061794459
 20
-1061.705929932854
 30
0.0
  0
ENDBLK
  5
221E0
330
221D5
100
AcDbEntity
  8
0
 48
50.0
100
AcDbBlockEnd
  0
BLOCK
  5
221EC
330
221E1
100
AcDbEntity
  8
0
 48
50.0
100
AcDbBlockBegin
  2
*D66
 70
     1
 10
0.0
 20
0.0
 30
0.0
  3
*D66
  1

  0
LINE
  5
22231
330
221E1
100
AcDbEntity
  8
寸法
 62
     0
 48
50.0
370
    -2
100
AcDbLine
 10
8312.514521468996
 20
-1325.868517860374
 30
0.0
 11
7591.129223548328
 21
-1325.868517860373
 31
0.0
  0
LINE
  5
22232
330
221E1
100
AcDbEntity
  8
寸法
 62
     0
 48
50.0
370
    -2
100
AcDbLine
 10
8182.514521469
 20
-1386.176210168065
 30
0.0
 11
7591.129223548328
 21
-1386.176210168065
 31
0.0
  0
LINE
  5
22233
330
221E1
100
AcDbEntity
  8
寸法
 62
     0
 48
50.0
370
    -2
100
AcDbLine
 10
7666.129223548328
 20
-1386.176210168065
 30
0.0
 11
7666.129223548328
 21
-1325.868517860373
 31
0.0
  0
LINE
  5
22234
330
221E1
100
AcDbEntity
  8
寸法
 62
     0
 48
50.0
370
    -2
100
AcDbLine
 10
7666.129223548328
 20
-1325.868517860373
 30
0.0
 11
7666.129223548328
 21
-912.4564443695584
 31
0.0
  0
INSERT
  5
22235
330
221E1
100
AcDbEntity
  8
寸法
 62
     0
 48
50.0
370
    -2
100
AcDbBlockReference
  2
_DOTSMALL
 10
7666.129223548328
 20
-1386.176210168065
 30
0.0
 41
125.0
 42
125.0
 43
125.0
 50
270.0
  0
INSERT
  5
22236
330
221E1
100
AcDbEntity
  8
寸法
 62
     0
 48
50.0
370
    -2
100
AcDbBlockReference
  2
_DOTSMALL
 10
7666.129223548328
 20
-1325.868517860373
 30
0.0
 41
125.0
 42
125.0
 43
125.0
 50
90.0
  0
MTEXT
  5
22237
330
221E1
100
AcDbEntity
  8
寸法
 62
     7
 48
50.0
100
AcDbMText
 10
7591.129223548328
 20
-1056.662481114964
 30
0.0
 40
100.0
 41
0.0
 71
     5
 72
     1
  1
\A1;出30
  7
STYLE1
 11
0.0000000000000001
 21
1.0
 31
0.0
 73
     1
 44
1.0
1001
ACAD
1000
MTEXTBEGIN
1070
    73
1070
     1
1070
    44
1040
1.0
1070
    74
1070
     0
1000
MTEXTEND
  0
POINT
  5
22238
330
221E1
100
AcDbEntity
  8
DEFPOINTS
 62
     0
 48
50.0
100
AcDbPoint
 10
8337.514521468996
 20
-1325.868517860374
 30
0.0
  0
POINT
  5
22239
330
221E1
100
AcDbEntity
  8
DEFPOINTS
 62
     0
 48
50.0
100
AcDbPoint
 10
8207.514521468999
 20
-1386.176210168065
 30
0.0
  0
POINT
  5
2223A
330
221E1
100
AcDbEntity
  8
DEFPOINTS
 62
     0
 48
50.0
100
AcDbPoint
 10
7666.129223548328
 20
-1386.176210168065
 30
0.0
  0
ENDBLK
  5
221ED
330
221E1
100
AcDbEntity
  8
0
 48
50.0
100
AcDbBlockEnd
  0
BLOCK
  5
221F8
330
221EE
100
AcDbEntity
  8
0
 48
50.0
100
AcDbBlockBegin
  2
*D67
 70
     1
 10
0.0
 20
0.0
 30
0.0
  3
*D67
  1

  0
LINE
  5
2223B
330
221EE
100
AcDbEntity
  8
寸法
 62
     0
 48
50.0
370
    -2
100
AcDbLine
 10
8218.283752238232
 20
-1255.637748629604
 30
0.0
 11
8218.283752238232
 21
-845.8639502181432
 31
0.0
  0
LINE
  5
2223C
330
221EE
100
AcDbEntity
  8
寸法
 62
     0
 48
50.0
370
    -2
100
AcDbLine
 10
8408.899136853616
 20
-1254.56082555268
 30
0.0
 11
8408.899136853616
 21
-845.8639502181432
 31
0.0
  0
LINE
  5
2223D
330
221EE
100
AcDbEntity
  8
寸法
 62
     0
 48
50.0
370
    -2
100
AcDbLine
 10
8218.283752238232
 20
-920.8639502181432
 30
0.0
 11
8408.899136853616
 21
-920.8639502181432
 31
0.0
  0
INSERT
  5
2223E
330
221EE
100
AcDbEntity
  8
寸法
 62
     0
 48
50.0
370
    -2
100
AcDbBlockReference
  2
_DOTSMALL
 10
8218.283752238232
 20
-920.8639502181432
 30
0.0
 41
125.0
 42
125.0
 43
125.0
 50
180.0
  0
INSERT
  5
2223F
330
221EE
100
AcDbEntity
  8
寸法
 62
     0
 48
50.0
370
    -2
100
AcDbBlockReference
  2
_DOTSMALL
 10
8408.899136853616
 20
-920.8639502181432
 30
0.0
 41
125.0
 42
125.0
 43
125.0
  0
MTEXT
  5
22240
330
221EE
100
AcDbEntity
  8
寸法
 62
     7
 48
50.0
100
AcDbMText
 10
8313.591444545924
 20
-845.8639502181432
 30
0.0
 40
100.0
 41
0.0
 71
     5
 72
     1
  1
\A1;88.5
  7
STYLE1
 73
     1
 44
1.0
1001
ACAD
1000
MTEXTBEGIN
1070
    73
1070
     1
1070
    44
1040
1.0
1070
    74
1070
     0
1000
MTEXTEND
  0
POINT
  5
22241
330
221EE
100
AcDbEntity
  8
DEFPOINTS
 62
     0
 48
50.0
100
AcDbPoint
 10
8218.283752238232
 20
-1280.637748629604
 30
0.0
  0
POINT
  5
22242
330
221EE
100
AcDbEntity
  8
DEFPOINTS
 62
     0
 48
50.0
100
AcDbPoint
 10
8408.899136853616
 20
-1279.56082555268
 30
0.0
  0
POINT
  5
22243
330
221EE
100
AcDbEntity
  8
DEFPOINTS
 62
     0
 48
50.0
100
AcDbPoint
 10
8408.899136853616
 20
-920.8639502181432
 30
0.0
  0
ENDBLK
  5
221F9
330
221EE
100
AcDbEntity
  8
0
 48
50.0
100
AcDbBlockEnd
  0
BLOCK
  5
22204
330
221FA
100
AcDbEntity
  8
0
 48
50.0
100
AcDbBlockBegin
  2
*D68
 70
     1
 10
0.0
 20
0.0
 30
0.0
  3
*D68
  1

  0
LINE
  5
22244
330
221FA
100
AcDbEntity
  8
寸法
 62
     0
 48
50.0
370
    -2
100
AcDbLine
 10
4980.09061794459
 20
-2726.705929932854
 30
0.0
 11
4980.09061794459
 21
-3075.658036388788
 31
0.0
  0
LINE
  5
22245
330
221FA
100
AcDbEntity
  8
寸法
 62
     0
 48
50.0
370
    -2
100
AcDbLine
 10
5580.09061794459
 20
-2726.705929932854
 30
0.0
 11
5580.09061794459
 21
-3075.658036388788
 31
0.0
  0
LINE
  5
22246
330
221FA
100
AcDbEntity
  8
寸法
 62
     0
 48
50.0
370
    -2
100
AcDbLine
 10
4980.09061794459
 20
-3000.658036388788
 30
0.0
 11
5580.09061794459
 21
-3000.658036388788
 31
0.0
  0
INSERT
  5
22247
330
221FA
100
AcDbEntity
  8
寸法
 62
     0
 48
50.0
370
    -2
100
AcDbBlockReference
  2
_DOTSMALL
 10
4980.09061794459
 20
-3000.658036388788
 30
0.0
 41
125.0
 42
125.0
 43
125.0
 50
180.0
  0
INSERT
  5
22248
330
221FA
100
AcDbEntity
  8
寸法
 62
     0
 48
50.0
370
    -2
100
AcDbBlockReference
  2
_DOTSMALL
 10
5580.09061794459
 20
-3000.658036388788
 30
0.0
 41
125.0
 42
125.0
 43
125.0
  0
MTEXT
  5
22249
330
221FA
100
AcDbEntity
  8
寸法
 62
     7
 48
50.0
100
AcDbMText
 10
5280.090617944591
 20
-2925.658036388788
 30
0.0
 40
100.0
 41
0.0
 71
     5
 72
     1
  1
\A1;300
  7
STYLE1
 73
     1
 44
1.0
1001
ACAD
1000
MTEXTBEGIN
1070
    73
1070
     1
1070
    44
1040
1.0
1070
    74
1070
     0
1000
MTEXTEND
  0
POINT
  5
2224A
330
221FA
100
AcDbEntity
  8
DEFPOINTS
 62
     0
 48
50.0
100
AcDbPoint
 10
4980.09061794459
 20
-2701.705929932854
 30
0.0
  0
POINT
  5
2224B
330
221FA
100
AcDbEntity
  8
DEFPOINTS
 62
     0
 48
50.0
100
AcDbPoint
 10
5580.09061794459
 20
-2701.705929932854
 30
0.0
  0
POINT
  5
2224C
330
221FA
100
AcDbEntity
  8
DEFPOINTS
 62
     0
 48
50.0
100
AcDbPoint
 10
5580.09061794459
 20
-3000.658036388788
 30
0.0
  0
ENDBLK
  5
22205
330
221FA
100
AcDbEntity
  8
0
 48
50.0
100
AcDbBlockEnd
  0
BLOCK
  5
22210
330
22206
100
AcDbEntity
  8
0
 48
50.0
100
AcDbBlockBegin
  2
*D69
 70
     1
 10
0.0
 20
0.0
 30
0.0
  3
*D69
  1

  0
LINE
  5
2224D
330
22206
100
AcDbEntity
  8
寸法
 62
     0
 48
50.0
370
    -2
100
AcDbLine
 10
4975.090617944591
 20
-2241.705929932854
 30
0.0
 11
4461.820273612981
 21
-2241.705929932854
 31
0.0
  0
LINE
  5
2224E
330
22206
100
AcDbEntity
  8
寸法
 62
     0
 48
50.0
370
    -2
100
AcDbLine
 10
4875.090617944591
 20
-2541.705929932854
 30
0.0
 11
4461.820273612981
 21
-2541.705929932854
 31
0.0
  0
LINE
  5
2224F
330
22206
100
AcDbEntity
  8
寸法
 62
     0
 48
50.0
370
    -2
100
AcDbLine
 10
4536.82027361298
 20
-2241.705929932854
 30
0.0
 11
4536.82027361298
 21
-2541.705929932854
 31
0.0
  0
INSERT
  5
22250
330
22206
100
AcDbEntity
  8
寸法
 62
     0
 48
50.0
370
    -2
100
AcDbBlockReference
  2
_DOTSMALL
 10
4536.82027361298
 20
-2241.705929932854
 30
0.0
 41
125.0
 42
125.0
 43
125.0
 50
90.0
  0
INSERT
  5
22251
330
22206
100
AcDbEntity
  8
寸法
 62
     0
 48
50.0
370
    -2
100
AcDbBlockReference
  2
_DOTSMALL
 10
4536.82027361298
 20
-2541.705929932854
 30
0.0
 41
125.0
 42
125.0
 43
125.0
 50
270.0
  0
MTEXT
  5
22252
330
22206
100
AcDbEntity
  8
寸法
 62
     7
 48
50.0
100
AcDbMText
 10
4461.820273612981
 20
-2367.379335540711
 30
0.0
 40
100.0
 41
0.0
 71
     5
 72
     1
  1
\A1;150
  7
STYLE1
 11
0.0000000000000001
 21
1.0
 31
0.0
 73
     1
 44
1.0
1001
ACAD
1000
MTEXTBEGIN
1070
    73
1070
     1
1070
    44
1040
1.0
1070
    74
1070
     0
1000
MTEXTEND
  0
POINT
  5
22253
330
22206
100
AcDbEntity
  8
DEFPOINTS
 62
     0
 48
50.0
100
AcDbPoint
 10
5000.09061794459
 20
-2241.705929932854
 30
0.0
  0
POINT
  5
22254
330
22206
100
AcDbEntity
  8
DEFPOINTS
 62
     0
 48
50.0
100
AcDbPoint
 10
4900.090617944591
 20
-2541.705929932854
 30
0.0
  0
POINT
  5
22255
330
22206
100
AcDbEntity
  8
DEFPOINTS
 62
     0
 48
50.0
100
AcDbPoint
 10
4536.82027361298
 20
-2541.705929932854
 30
0.0
  0
ENDBLK
  5
22211
330
22206
100
AcDbEntity
  8
0
 48
50.0
100
AcDbBlockEnd
  0
BLOCK
  5
2221C
330
22212
100
AcDbEntity
  8
0
 48
50.0
100
AcDbBlockBegin
  2
*D70
 70
     1
 10
0.0
 20
0.0
 30
0.0
  3
*D70
  1

  0
LINE
  5
22256
330
22212
100
AcDbEntity
  8
寸法
 62
     0
 48
50.0
370
    -2
100
AcDbLine
 10
5135.09061794459
 20
-1461.705929932854
 30
0.0
 11
4230.621250145435
 21
-1461.705929932853
 31
0.0
  0
LINE
  5
22257
330
22212
100
AcDbEntity
  8
寸法
 62
     0
 48
50.0
370
    -2
100
AcDbLine
 10
4875.090617944591
 20
-2541.705929932854
 30
0.0
 11
4230.621250145434
 21
-2541.705929932854
 31
0.0
  0
LINE
  5
22258
330
22212
100
AcDbEntity
  8
寸法
 62
     0
 48
50.0
370
    -2
100
AcDbLine
 10
4305.621250145434
 20
-1461.705929932853
 30
0.0
 11
4305.621250145434
 21
-2541.705929932854
 31
0.0
  0
INSERT
  5
22259
330
22212
100
AcDbEntity
  8
寸法
 62
     0
 48
50.0
370
    -2
100
AcDbBlockReference
  2
_DOTSMALL
 10
4305.621250145434
 20
-1461.705929932853
 30
0.0
 41
125.0
 42
125.0
 43
125.0
 50
90.0
  0
INSERT
  5
2225A
330
22212
100
AcDbEntity
  8
寸法
 62
     0
 48
50.0
370
    -2
100
AcDbBlockReference
  2
_DOTSMALL
 10
4305.621250145434
 20
-2541.705929932854
 30
0.0
 41
125.0
 42
125.0
 43
125.0
 50
270.0
  0
MTEXT
  5
2225B
330
22212
100
AcDbEntity
  8
寸法
 62
     7
 48
50.0
100
AcDbMText
 10
4230.621250145435
 20
-1964.910993335143
 30
0.0
 40
100.0
 41
0.0
 71
     5
 72
     1
  1
\A1;540
  7
STYLE1
 11
0.0000000000000001
 21
1.0
 31
0.0
 73
     1
 44
1.0
1001
ACAD
1000
MTEXTBEGIN
1070
    73
1070
     1
1070
    44
1040
1.0
1070
    74
1070
     0
1000
MTEXTEND
  0
POINT
  5
2225C
330
22212
100
AcDbEntity
  8
DEFPOINTS
 62
     0
 48
50.0
100
AcDbPoint
 10
5160.09061794459
 20
-1461.705929932854
 30
0.0
  0
POINT
  5
2225D
330
22212
100
AcDbEntity
  8
DEFPOINTS
 62
     0
 48
50.0
100
AcDbPoint
 10
4900.090617944591
 20
-2541.705929932854
 30
0.0
  0
POINT
  5
2225E
330
22212
100
AcDbEntity
  8
DEFPOINTS
 62
     0
 48
50.0
100
AcDbPoint
 10
4305.621250145434
 20
-2541.705929932854
 30
0.0
  0
ENDBLK
  5
2221D
330
22212
100
AcDbEntity
  8
0
 48
50.0
100
AcDbBlockEnd
  0
ENDSEC
  0
SECTION
  2
ENTITIES
  0
MTEXT
  5
763F
330
747D
100
AcDbEntity
  8
0
100
AcDbMText
 10
302.846345836809
 20
280.1983726409901
 30
0.0
 40
3.5
 41
5.323721266742722
 71
     1
 72
     5
  1

  7
MSMINCHO
 73
     1
 44
1.0
1001
ACAD
1000
MTEXTBEGIN
1070
    73
1070
     1
1070
    44
1040
1.0
1070
    74
1070
     0
1000
MTEXTEND
  0
LINE
  5
10B57
330
747D
100
AcDbEntity
  8
補助
  6
PHANTOM
 62
   230
 48
50.0
100
AcDbLine
 10
139.9999999999995
 20
11409.6
 30
0.0
 11
16307.2
 21
11409.6
 31
0.0
  0
LINE
  5
10B59
330
747D
100
AcDbEntity
  8
仕様書枠
  6
Continuous
 48
50.0
100
AcDbLine
 10
13107.2
 20
1200.0
 30
0.0
 11
13107.2
 21
-0.0000000000000729
 31
0.0
  0
LINE
  5
10B5D
330
747D
100
AcDbEntity
  8
仕様書枠
 48
50.0
100
AcDbLine
 10
140.0
 20
0.0
 30
0.0
 11
16307.2
 21
-0.0000000000000909
 31
0.0
  0
LINE
  5
10B5E
330
747D
100
AcDbEntity
  8
補助
  6
PHANTOM
 62
   230
 48
50.0
100
AcDbLine
 10
16307.2
 20
11409.6
 30
0.0
 11
16307.2
 21
1200.0
 31
0.0
  0
LINE
  5
10B6C
330
747D
100
AcDbEntity
  8
仕様書枠
 48
50.0
100
AcDbLine
 10
13107.2
 20
1200.0
 30
0.0
 11
16307.2
 21
1200.0
 31
0.0
  0
TEXT
  5
10B73
330
747D
100
AcDbEntity
  8
文字
 62
     7
 48
50.0
100
AcDbText
 10
13162.9790565769
 20
895.0906074299405
 30
0.0
 40
200.0
  1
基 礎 図
  7
STYLE2
100
AcDbText
  0
LINE
  5
10B7B
330
747D
100
AcDbEntity
  8
仕様書枠
 48
50.0
100
AcDbLine
 10
13107.2
 20
800.0
 30
0.0
 11
14251.2
 21
800.0
 31
0.0
  0
LINE
  5
10B88
330
747D
100
AcDbEntity
  8
仕様書枠
  6
Continuous
 48
50.0
100
AcDbLine
 10
14251.2
 20
1200.0
 30
0.0
 11
14251.2
 21
800.0
 31
0.0
  0
LINE
  5
16462
330
747D
100
AcDbEntity
  8
仕様書枠
 48
50.0
100
AcDbLine
 10
16307.2
 20
1200.0
 30
0.0
 11
16307.2
 21
-0.0000000000000909
 31
0.0
  0
LINE
  5
1903B
330
747D
100
AcDbEntity
  8
補助
  6
PHANTOM
 62
   230
 48
50.0
100
AcDbLine
 10
140.0
 20
0.0
 30
0.0
 11
139.9999999999995
 21
11409.6
 31
0.0
  0
LEADER
  5
1AC27
330
747D
100
AcDbEntity
  8
寸法
 48
50.0
100
AcDbLeader
  3
INABA_S50G
 73
     0
 75
     1
 40
120.0
 41
720.0000000000001
 76
     3
 10
6408.258246013183
 20
5238.733612386302
 30
0.0
 10
6189.203903467527
 20
4827.867759874298
 30
0.0
 10
6064.203903467527
 20
4827.867759874298
 30
0.0
340
1AC28
1001
ACAD
1000
DSTYLE
1002
{
1070
   341
1005
0
1070
    40
1040
1.0
1070
   343
1005
0
1070
   344
1005
0
1002
}
  0
MTEXT
  5
1AC28
102
{ACAD_REACTORS
330
1AC27
102
}
330
747D
100
AcDbEntity
  8
部品1
 62
     7
 48
50.0
100
AcDbMText
 10
6039.203903467527
 20
4912.867759874297
 30
0.0
 40
120.0
 41
0.0
 71
     6
 72
     1
  1
\A1;床下換気口
  7
STYLE1
 73
     1
 44
1.0
1001
ACAD
1000
MTEXTBEGIN
1070
    73
1070
     1
1070
    44
1040
1.0
1070
    74
1070
     0
1000
MTEXTEND
  0
TEXT
  5
1AC29
330
747D
100
AcDbEntity
  8
部品1
 48
50.0
100
AcDbText
 10
11077.4012852709
 20
4678.520975771137
 30
0.0
 40
80.0
  1
(a=100,b=95)
  7
STYLE1
100
AcDbText
  0
TEXT
  5
1AC2A
330
747D
100
AcDbEntity
  8
部品1
 48
50.0
100
AcDbText
 10
10918.8222765166
 20
4785.366196639892
 30
0.0
 40
80.0
  1
※a,bは屋根の出幅です。
  7
STYLE1
100
AcDbText
  0
MTEXT
  5
1AC2B
102
{ACAD_REACTORS
330
1AC2C
102
}
330
747D
100
AcDbEntity
  8
部品1
 62
     7
 48
50.0
100
AcDbMText
 10
11716.60947250521
 20
4964.676883572967
 30
0.0
 40
120.0
 41
0.0
 71
     6
 72
     1
  1
\A1;屋根の外寸
  7
STYLE1
 73
     1
 44
1.0
1001
ACAD
1000
MTEXTBEGIN
1070
    73
1070
     1
1070
    44
1040
1.0
1070
    74
1070
     0
1000
MTEXTEND
  0
LEADER
  5
1AC2C
330
747D
100
AcDbEntity
  8
寸法
 48
50.0
100
AcDbLeader
  3
INABA_S50G
 73
     0
 74
     0
 75
     1
 40
120.0
 41
672.0
 76
     3
 10
10778.66946031317
 20
5138.566227036543
 30
0.0
 10
10894.60947250521
 20
4879.676883572967
 30
0.0
 10
11019.60947250521
 20
4879.676883572967
 30
0.0
340
1AC2B
1001
ACAD
1000
DSTYLE
1002
{
1070
   341
1005
0
1070
    40
1040
1.0
1070
   343
1005
0
1070
   344
1005
0
1002
}
  0
TEXT
  5
1C7A1
330
747D
100
AcDbEntity
  8
文字
 62
     7
 48
50.0
100
AcDbText
 10
13188.16259899338
 20
79.80631269190417
 30
0.0
 40
80.0
  1
※布基礎には換気口を設けてください。
  7
STYLE2
100
AcDbText
  0
TEXT
  5
1C7E7
330
747D
100
AcDbEntity
  8
文字
 62
     7
 48
50.0
100
AcDbText
 10
13188.16259899338
 20
246.7109242801889
 30
0.0
 40
80.0
  1
※寒冷地等は地域の実情に合わせた基礎にして下さい。
  7
STYLE2
100
AcDbText
  0
TEXT
  5
1C7E8
330
747D
100
AcDbEntity
  8
文字
 62
     7
 48
50.0
100
AcDbText
 10
14357.01990014988
 20
499.5983841039505
 30
0.0
 40
160.0
  1
ＫＸＮ－１７１Ｈ・Ｊ
  7
STYLE2
100
AcDbText
  0
TEXT
  5
1C7E9
330
747D
100
AcDbEntity
  8
文字
 62
     7
 48
50.0
100
AcDbText
 10
14641.2525855784
 20
871.1744590657927
 30
0.0
 40
100.0
  1
～一般型・多雪地型～
  7
STYLE2
100
AcDbText
  0
TEXT
  5
1C7EC
330
747D
100
AcDbEntity
  8
文字
 62
     7
 48
50.0
100
AcDbText
 10
14748.06014358962
 20
1031.557706291229
 30
0.0
 40
100.0
  1
 <縮尺> S=1/40
  7
STYLE2
100
AcDbText
  0
TEXT
  5
1C7ED
330
747D
100
AcDbEntity
  8
文字
 62
     7
 48
50.0
100
AcDbText
 10
13201.43669998441
 20
477.2740661031257
 30
0.0
 40
160.0
  1
機種名
  7
STYLE2
100
AcDbText
  0
LINE
  5
1C7EF
330
747D
100
AcDbEntity
  8
文字
 62
     7
 48
50.0
100
AcDbLine
 10
13187.2
 20
400.0
 30
0.0
 11
16227.2
 21
400.0
 31
0.0
  0
MTEXT
  5
1D2D5
102
{ACAD_REACTORS
330
1D2D6
102
}
330
747D
100
AcDbEntity
  8
部品1
 62
     7
 48
50.0
100
AcDbMText
 10
4787.561841546923
 20
9152.31997089152
 30
0.0
 40
120.0
 41
0.0
 71
     6
 72
     1
  1
アンカーボルト
  7
STYLE1
 73
     1
 44
1.0
1001
ACAD
1000
MTEXTBEGIN
1070
    73
1070
     1
1070
    44
1040
1.0
1070
    74
1070
     0
1000
MTEXTEND
  0
LEADER
  5
1D2D6
330
747D
100
AcDbEntity
  8
寸法
 48
50.0
100
AcDbLeader
  3
INABA_S50G
 73
     0
 75
     1
 40
120.0
 41
994.3492424049171
 76
     3
 10
5548.285857662604
 20
8218.907326718566
 30
0.0
 10
4937.561841546923
 20
9067.319970891521
 30
0.0
 10
4812.561841546923
 20
9067.319970891521
 30
0.0
340
1D2D5
1001
ACAD
1000
DSTYLE
1002
{
1070
   341
1005
0
1070
    40
1040
1.0
1070
   343
1005
0
1070
   344
1005
0
1002
}
  0
MTEXT
  5
1D332
102
{ACAD_REACTORS
330
1D333
102
}
330
747D
100
AcDbEntity
  8
部品1
 62
     7
 48
50.0
100
AcDbMText
 10
9673.522552346748
 20
7264.935391627168
 30
0.0
 40
120.0
 41
0.0
 71
     6
 72
     1
  1
CB
  7
STYLE1
 73
     1
 44
1.0
1001
ACAD
1000
MTEXTBEGIN
1070
    73
1070
     1
1070
    44
1040
1.0
1070
    74
1070
     0
1000
MTEXTEND
  0
LEADER
  5
1D333
330
747D
100
AcDbEntity
  8
寸法
 48
50.0
100
AcDbLeader
  3
INABA_S50G
 73
     0
 74
     0
 75
     1
 40
120.0
 41
149.591883092037
 76
     3
 10
9233.37144119017
 20
7440.949305195001
 30
0.0
 10
9373.930669254709
 20
7179.935391627167
 30
0.0
 10
9498.930669254709
 20
7179.935391627167
 30
0.0
340
1D332
1001
ACAD
1000
DSTYLE
1002
{
1070
   341
1005
0
1070
    40
1040
1.0
1070
   343
1005
0
1070
   344
1005
0
1002
}
  0
DIMENSION
  5
203BA
330
747D
100
AcDbEntity
  8
寸法
 48
50.0
100
AcDbDimension
  2
*D19
 10
11018.6
 20
7741.395149689573
 30
0.0
 11
10073.6
 21
7841.395149689573
 31
0.0
 70
    32
 71
     5
 42
1889.999999999998
  3
INABA_S40G
100
AcDbAlignedDimension
 13
9128.6
 23
7612.739547495261
 33
0.0
 14
11018.6
 24
7562.739547495261
 34
0.0
100
AcDbRotatedDimension
1001
ACAD
1000
DSTYLE
1002
{
1070
   341
1005
0
1002
}
  0
DIMENSION
  5
203BB
330
747D
100
AcDbEntity
  8
寸法
 48
50.0
100
AcDbDimension
  2
*D20
 10
10350.3072498761
 20
5358.739547495277
 30
0.0
 11
10350.3072498761
 21
4902.451242527321
 31
0.0
 70
   160
 71
     5
 42
120.0000000000154
  3
INABA_S40G
100
AcDbAlignedDimension
 13
10133.60000000003
 23
5238.739547495263
 33
0.0
 14
10133.60000000003
 24
5358.739547495279
 34
0.0
 50
90.0
100
AcDbRotatedDimension
1001
ACAD
1000
DSTYLE
1002
{
1070
   341
1005
0
1002
}
  0
LINE
  5
203BC
330
747D
100
AcDbEntity
  8
想像線
 48
10.0
100
AcDbLine
 10
11038.6
 20
5138.739547495258
 30
0.0
 11
5408.6
 21
5138.739547495261
 31
0.0
  0
LINE
  5
203BD
330
747D
100
AcDbEntity
  8
部品1
 48
50.0
100
AcDbLine
 10
10823.6
 20
8198.739547495259
 30
0.0
 11
5623.600000000003
 21
8198.739547495264
 31
0.0
  0
LINE
  5
203BE
330
747D
100
AcDbEntity
  8
部品1
 48
50.0
100
AcDbLine
 10
10823.6
 20
5358.73954749528
 30
0.0
 11
5623.600000000001
 21
5358.739547495265
 31
0.0
  0
LINE
  5
203BF
330
747D
100
AcDbEntity
  8
部品1
 48
50.0
100
AcDbLine
 10
10943.6
 20
5238.739547495279
 30
0.0
 11
5503.599999999998
 21
5238.739547495242
 31
0.0
  0
LINE
  5
203C0
330
747D
100
AcDbEntity
  8
部品1
 48
50.0
100
AcDbLine
 10
10943.6
 20
8318.73954749526
 30
0.0
 11
5503.6
 21
8318.73954749526
 31
0.0
  0
DIMENSION
  5
203C1
330
747D
100
AcDbEntity
  8
寸法
 48
50.0
100
AcDbDimension
  2
*D21
 10
10943.6
 20
9276.959869554181
 30
0.0
 11
8223.600000000001
 21
9376.959869554182
 31
0.0
 70
    32
 71
     5
 42
5440.0
  3
INABA_S40G
100
AcDbAlignedDimension
 13
5503.6
 23
8318.73954749526
 33
0.0
 14
10943.6
 24
8318.73954749526
 34
0.0
100
AcDbRotatedDimension
1001
ACAD
1000
DSTYLE
1002
{
1070
   341
1005
0
1002
}
  0
DIMENSION
  5
203C2
330
747D
100
AcDbEntity
  8
寸法
 48
50.0
100
AcDbDimension
  2
*D22
 10
9045.6
 20
9064.499174037344
 30
0.0
 11
9972.100000000001
 21
9164.499174037343
 31
0.0
 70
    32
 71
     5
 42
1853.0
  3
INABA_S40G
100
AcDbAlignedDimension
 13
10898.6
 23
8268.739547495261
 33
0.0
 14
9045.6
 24
8323.739547495261
 34
0.0
100
AcDbRotatedDimension
1001
ACAD
1000
DSTYLE
1002
{
1070
   341
1005
0
1002
}
  0
DIMENSION
  5
203C3
330
747D
100
AcDbEntity
  8
寸法
 48
50.0
100
AcDbDimension
  2
*D23
 10
7684.046686947116
 20
8198.739547495263
 30
0.0
 11
7684.046686947114
 21
7890.254266121026
 31
0.0
 70
   160
 71
     5
 42
74.99999999999818
  3
INABA_S40G
100
AcDbAlignedDimension
 13
7285.600000000001
 23
8273.73954749526
 33
0.0
 14
7285.600000000001
 24
8198.739547495263
 34
0.0
 50
90.0
100
AcDbRotatedDimension
1001
ACAD
1000
DSTYLE
1002
{
1070
   341
1005
0
1002
}
  0
DIMENSION
  5
203C4
330
747D
100
AcDbEntity
  8
寸法
 48
50.0
100
AcDbDimension
  2
*D24
 10
6854.221505729651
 20
8318.73954749526
 30
0.0
 11
6854.22150572965
 21
8015.466276693958
 31
0.0
 70
   160
 71
     5
 42
806.0
  3
INABA_S40G
100
AcDbAlignedDimension
 13
7118.6
 23
7512.739547495261
 33
0.0
 14
6658.157431058355
 24
8318.73954749526
 34
0.0
 50
90.0
100
AcDbRotatedDimension
1001
ACAD
1000
DSTYLE
1002
{
1070
   341
1005
0
1002
}
  0
DIMENSION
  5
203C5
330
747D
100
AcDbEntity
  8
寸法
 48
50.0
100
AcDbDimension
  2
*D25
 10
7318.6
 20
7741.395149689573
 30
0.0
 11
6411.100000000001
 21
7841.395149689573
 31
0.0
 70
    32
 71
     5
 42
1815.0
  3
INABA_S40G
100
AcDbAlignedDimension
 13
5503.6
 23
7710.557561361188
 33
0.0
 14
7318.6
 24
7612.739547495261
 34
0.0
100
AcDbRotatedDimension
1001
ACAD
1000
DSTYLE
1002
{
1070
   341
1005
0
1002
}
  0
LINE
  5
203C6
330
747D
100
AcDbEntity
  8
部品1
 48
50.0
100
AcDbLine
 10
5503.6
 20
5238.739547495261
 30
0.0
 11
5503.6
 21
8318.73954749526
 31
0.0
  0
DIMENSION
  5
203C7
330
747D
100
AcDbEntity
  8
寸法
 48
50.0
100
AcDbDimension
  2
*D26
 10
5007.657733986178
 20
5338.739547495262
 30
0.0
 11
4907.645922962555
 21
6778.739547495263
 31
0.0
 70
    32
 71
     5
 42
2879.999999999999
  3
INABA_S40G
100
AcDbAlignedDimension
 13
5498.6
 23
8218.73954749526
 33
0.0
 14
5498.6
 24
5338.739547495262
 34
0.0
 50
90.0
100
AcDbRotatedDimension
1001
ACAD
1000
DSTYLE
1002
{
1070
   341
1005
0
1002
}
  0
LINE
  5
203C8
330
747D
100
AcDbEntity
  8
部品1
 48
50.0
100
AcDbLine
 10
5623.6
 20
5358.739547495264
 30
0.0
 11
5623.600000000003
 21
8198.739547495264
 31
0.0
  0
DIMENSION
  5
203C9
330
747D
100
AcDbEntity
  8
寸法
 48
50.0
100
AcDbDimension
  2
*D27
 10
9128.6
 20
7741.395149689573
 30
0.0
 11
8223.600000000001
 21
7841.395149689573
 31
0.0
 70
    32
 71
     5
 42
1810.0
  3
INABA_S40G
100
AcDbAlignedDimension
 13
7318.6
 23
7612.739547495261
 33
0.0
 14
9128.6
 24
7612.739547495261
 34
0.0
100
AcDbRotatedDimension
1001
ACAD
1000
DSTYLE
1002
{
1070
   341
1005
0
1002
}
  0
DIMENSION
  5
203CA
330
747D
100
AcDbEntity
  8
寸法
 48
50.0
100
AcDbDimension
  2
*D28
 10
4762.16493184821
 20
5238.739547495261
 30
0.0
 11
4662.164931848209
 21
6778.739547495263
 31
0.0
 70
    32
 71
     5
 42
3080.000000000001
  3
INABA_S40G
100
AcDbAlignedDimension
 13
5503.6
 23
8318.73954749526
 33
0.0
 14
5503.6
 24
5238.739547495261
 34
0.0
 50
90.0
100
AcDbRotatedDimension
1001
ACAD
1000
DSTYLE
1002
{
1070
   341
1005
0
1002
}
  0
LINE
  5
203CB
330
747D
100
AcDbEntity
  8
部品1
 48
50.0
100
AcDbLine
 10
7518.600000000001
 20
7612.739547495261
 30
0.0
 11
7118.6
 21
7612.739547495261
 31
0.0
  0
LINE
  5
203CC
330
747D
100
AcDbEntity
  8
部品1
 48
50.0
100
AcDbLine
 10
7518.600000000001
 20
7412.739547495259
 30
0.0
 11
7118.6
 21
7412.739547495259
 31
0.0
  0
LINE
  5
203CD
330
747D
100
AcDbEntity
  8
部品1
 48
50.0
100
AcDbLine
 10
7518.600000000001
 20
6678.739547495259
 30
0.0
 11
7118.6
 21
6678.739547495259
 31
0.0
  0
LINE
  5
203CE
330
747D
100
AcDbEntity
  8
部品1
 48
50.0
100
AcDbLine
 10
7518.600000000001
 20
6878.739547495261
 30
0.0
 11
7118.6
 21
6878.739547495261
 31
0.0
  0
LINE
  5
203CF
330
747D
100
AcDbEntity
  8
部品1
 48
50.0
100
AcDbLine
 10
7518.600000000001
 20
5944.73954749526
 30
0.0
 11
7118.6
 21
5944.73954749526
 31
0.0
  0
LINE
  5
203D0
330
747D
100
AcDbEntity
  8
部品1
 48
50.0
100
AcDbLine
 10
7518.600000000001
 20
6144.739547495261
 30
0.0
 11
7118.6
 21
6144.739547495261
 31
0.0
  0
DIMENSION
  5
203D1
330
747D
100
AcDbEntity
  8
寸法
 48
50.0
100
AcDbDimension
  2
*D29
 10
6853.531448609053
 20
6044.739547495261
 30
0.0
 11
6753.531448609051
 21
5641.739547495268
 31
0.0
 70
    32
 71
     5
 42
805.9999999999909
  3
INABA_S40G
100
AcDbAlignedDimension
 13
6754.045939259561
 23
5238.739547495271
 33
0.0
 14
7118.6
 24
6044.739547495261
 34
0.0
 50
90.0
100
AcDbRotatedDimension
1001
ACAD
1000
DSTYLE
1002
{
1070
   341
1005
0
1002
}
  0
LINE
  5
203D2
330
747D
100
AcDbEntity
  8
想像線
 48
10.0
100
AcDbLine
 10
5408.6
 20
5138.739547495261
 30
0.0
 11
5408.6
 21
8418.739547495254
 31
0.0
  0
LINE
  5
203D3
330
747D
100
AcDbEntity
  8
センター
 48
2.0
100
AcDbLine
 10
5498.6
 20
5338.739547495262
 30
0.0
 11
5598.600000000001
 21
5338.739547495262
 31
0.0
  0
DIMENSION
  5
203D4
330
747D
100
AcDbEntity
  8
寸法
 48
50.0
100
AcDbDimension
  2
*D30
 10
4762.16493184821
 20
5138.739547495261
 30
0.0
 11
4662.164931848209
 21
5188.739547495262
 31
0.0
 70
    32
  1
a
 71
     5
 42
100.0
  3
INABA_S40G
100
AcDbAlignedDimension
 13
5503.6
 23
5238.739547495261
 33
0.0
 14
5007.657733986178
 24
5138.739547495261
 34
0.0
 50
90.0
100
AcDbRotatedDimension
1001
ACAD
1000
DSTYLE
1002
{
1070
   341
1005
0
1002
}
  0
DIMENSION
  5
203D5
330
747D
100
AcDbEntity
  8
寸法
 48
50.0
100
AcDbDimension
  2
*D31
 10
5007.657733986178
 20
5238.739547495261
 30
0.0
 11
5007.657733986178
 21
4873.68049237715
 31
0.0
 70
   160
 71
     5
 42
100.0000000000018
  3
INABA_S40G
100
AcDbAlignedDimension
 13
5498.6
 23
5338.739547495262
 33
0.0
 14
5503.6
 24
5238.739547495261
 34
0.0
 50
90.0
100
AcDbRotatedDimension
1001
ACAD
1000
DSTYLE
1002
{
1070
   341
1005
0
1002
}
  0
LINE
  5
203D7
330
747D
100
AcDbEntity
  8
センター
 48
2.0
100
AcDbLine
 10
5548.6
 20
5388.739547495262
 30
0.0
 11
5548.6
 21
5288.739547495262
 31
0.0
  0
LINE
  5
203D8
330
747D
100
AcDbEntity
  8
部品1
 48
50.0
100
AcDbLine
 10
6313.600000000028
 20
5358.739547495267
 30
0.0
 11
6313.600000000029
 21
5238.739547495263
 31
0.0
  0
LINE
  5
203D9
330
747D
100
AcDbEntity
  8
部品1
 48
50.0
100
AcDbLine
 10
6513.600000000028
 20
5358.739547495268
 30
0.0
 11
6513.600000000029
 21
5238.739547495263
 31
0.0
  0
LINE
  5
203DA
330
747D
100
AcDbEntity
  8
部品1
 48
50.0
100
AcDbLine
 10
5623.600000000001
 20
6878.739547495264
 30
0.0
 11
5503.599999999996
 21
6878.739547495264
 31
0.0
  0
LINE
  5
203DC
330
747D
100
AcDbEntity
  8
部品1
 48
50.0
100
AcDbLine
 10
5623.600000000001
 20
6678.739547495266
 30
0.0
 11
5503.599999999996
 21
6678.739547495265
 31
0.0
  0
DIMENSION
  5
203DD
330
747D
100
AcDbEntity
  8
寸法
 48
50.0
100
AcDbDimension
  2
*D32
 10
5503.600000000002
 20
7132.063737966454
 30
0.0
 11
5267.552755905512
 21
7132.063737966454
 31
0.0
 70
   160
 71
     5
 42
120.0
  3
INABA_S40G
100
AcDbAlignedDimension
 13
5623.600000000001
 23
6878.739547495264
 33
0.0
 14
5503.600000000002
 24
6878.739547495264
 34
0.0
100
AcDbRotatedDimension
1001
ACAD
1000
DSTYLE
1002
{
1070
   341
1005
0
1002
}
  0
LINE
  5
203DE
330
747D
100
AcDbEntity
  8
部品1
 48
50.0
100
AcDbLine
 10
7118.6
 20
6678.73954749526
 30
0.0
 11
7118.6
 21
6878.739547495261
 31
0.0
  0
LINE
  5
203DF
330
747D
100
AcDbEntity
  8
部品1
 48
50.0
100
AcDbLine
 10
6260.6
 20
6678.73954749526
 30
0.0
 11
6260.6
 21
6878.739547495261
 31
0.0
  0
LINE
  5
203E0
330
747D
100
AcDbEntity
  8
部品1
 48
50.0
100
AcDbLine
 10
6460.600000000001
 20
6678.739547495259
 30
0.0
 11
6460.600000000001
 21
6878.739547495261
 31
0.0
  0
DIMENSION
  5
203E1
330
747D
100
AcDbEntity
  8
寸法
 48
50.0
100
AcDbDimension
  2
*D33
 10
6853.531448609053
 20
6778.73954749526
 30
0.0
 11
6753.53144860905
 21
6411.739547495267
 31
0.0
 70
    32
 71
     5
 42
733.9999999999909
  3
INABA_S40G
100
AcDbAlignedDimension
 13
7118.6
 23
6044.73954749527
 33
0.0
 14
7118.6
 24
6778.73954749526
 34
0.0
 50
90.0
100
AcDbRotatedDimension
1001
ACAD
1000
DSTYLE
1002
{
1070
   341
1005
0
1002
}
  0
LINE
  5
203E2
330
747D
100
AcDbEntity
  8
部品1
 48
50.0
100
AcDbLine
 10
6460.600000000001
 20
6678.739547495259
 30
0.0
 11
6260.6
 21
6678.739547495259
 31
0.0
  0
LINE
  5
203E3
330
747D
100
AcDbEntity
  8
センター
 48
2.0
100
AcDbLine
 10
6310.6
 20
6044.739547495261
 30
0.0
 11
6410.600000000001
 21
6044.739547495261
 31
0.0
  0
LINE
  5
203E4
330
747D
100
AcDbEntity
  8
部品1
 48
50.0
100
AcDbLine
 10
6460.600000000001
 20
5944.73954749526
 30
0.0
 11
6260.6
 21
5944.73954749526
 31
0.0
  0
LINE
  5
203E5
330
747D
100
AcDbEntity
  8
部品1
 48
50.0
100
AcDbLine
 10
6460.600000000001
 20
6144.739547495261
 30
0.0
 11
6260.6
 21
6144.739547495261
 31
0.0
  0
LINE
  5
203E6
330
747D
100
AcDbEntity
  8
部品1
 48
50.0
100
AcDbLine
 10
6260.6
 20
5944.73954749526
 30
0.0
 11
6260.6
 21
6144.739547495261
 31
0.0
  0
LINE
  5
203E7
330
747D
100
AcDbEntity
  8
部品1
 48
50.0
100
AcDbLine
 10
7118.6
 20
5944.73954749526
 30
0.0
 11
7118.6
 21
6144.739547495261
 31
0.0
  0
LINE
  5
203E8
330
747D
100
AcDbEntity
  8
部品1
 48
50.0
100
AcDbLine
 10
6460.600000000001
 20
5944.73954749526
 30
0.0
 11
6460.600000000001
 21
6144.739547495261
 31
0.0
  0
LINE
  5
203E9
330
747D
100
AcDbEntity
  8
センター
 48
2.0
100
AcDbLine
 10
6360.6
 20
6094.739547495261
 30
0.0
 11
6360.6
 21
5994.73954749526
 31
0.0
  0
LINE
  5
203EA
330
747D
100
AcDbEntity
  8
センター
 48
2.0
100
AcDbLine
 10
6310.6
 20
7512.739547495261
 30
0.0
 11
6410.600000000001
 21
7512.739547495261
 31
0.0
  0
LINE
  5
203EB
330
747D
100
AcDbEntity
  8
部品1
 48
50.0
100
AcDbLine
 10
6460.600000000001
 20
7612.739547495261
 30
0.0
 11
6260.6
 21
7612.739547495261
 31
0.0
  0
LINE
  5
203EC
330
747D
100
AcDbEntity
  8
部品1
 48
50.0
100
AcDbLine
 10
6460.600000000001
 20
7412.739547495259
 30
0.0
 11
6260.6
 21
7412.739547495259
 31
0.0
  0
LINE
  5
203ED
330
747D
100
AcDbEntity
  8
部品1
 48
50.0
100
AcDbLine
 10
6460.600000000001
 20
6878.739547495261
 30
0.0
 11
6260.6
 21
6878.739547495261
 31
0.0
  0
LINE
  5
203EE
330
747D
100
AcDbEntity
  8
センター
 48
2.0
100
AcDbLine
 10
6310.6
 20
6778.73954749526
 30
0.0
 11
6410.600000000001
 21
6778.73954749526
 31
0.0
  0
LINE
  5
203EF
330
747D
100
AcDbEntity
  8
部品1
 48
50.0
100
AcDbLine
 10
6260.6
 20
7412.73954749526
 30
0.0
 11
6260.6
 21
7612.739547495261
 31
0.0
  0
DIMENSION
  5
203F0
330
747D
100
AcDbEntity
  8
寸法
 48
50.0
100
AcDbDimension
  2
*D34
 10
6853.531448609053
 20
7512.739547495261
 30
0.0
 11
6753.53144860905
 21
7145.739547495267
 31
0.0
 70
    32
 71
     5
 42
733.9999999999909
  3
INABA_S40G
100
AcDbAlignedDimension
 13
7118.6
 23
6778.73954749527
 33
0.0
 14
7118.6
 24
7512.739547495261
 34
0.0
 50
90.0
100
AcDbRotatedDimension
1001
ACAD
1000
DSTYLE
1002
{
1070
   341
1005
0
1002
}
  0
LINE
  5
203F1
330
747D
100
AcDbEntity
  8
センター
 48
2.0
100
AcDbLine
 10
6360.6
 20
6828.739547495262
 30
0.0
 11
6360.6
 21
6728.73954749526
 31
0.0
  0
LINE
  5
203F2
330
747D
100
AcDbEntity
  8
部品1
 48
50.0
100
AcDbLine
 10
6460.600000000001
 20
7412.739547495259
 30
0.0
 11
6460.600000000001
 21
7612.739547495261
 31
0.0
  0
LINE
  5
203F3
330
747D
100
AcDbEntity
  8
センター
 48
2.0
100
AcDbLine
 10
6360.6
 20
7562.739547495261
 30
0.0
 11
6360.6
 21
7462.73954749526
 31
0.0
  0
LINE
  5
203F4
330
747D
100
AcDbEntity
  8
部品1
 48
50.0
100
AcDbLine
 10
7118.6
 20
7412.73954749526
 30
0.0
 11
7118.6
 21
7612.739547495261
 31
0.0
  0
DIMENSION
  5
203F5
330
747D
100
AcDbEntity
  8
寸法
 48
50.0
100
AcDbDimension
  2
*D35
 10
7684.046686947123
 20
5358.73954749527
 30
0.0
 11
7684.046686947123
 21
5667.224828869509
 31
0.0
 70
   160
 71
     5
 42
75.00000000000728
  3
INABA_S40G
100
AcDbAlignedDimension
 13
7285.600000000008
 23
5283.739547495263
 33
0.0
 14
7285.600000000008
 24
5358.73954749527
 34
0.0
 50
90.0
100
AcDbRotatedDimension
1001
ACAD
1000
DSTYLE
1002
{
1070
   341
1005
0
1002
}
  0
DIMENSION
  5
203F7
330
747D
100
AcDbEntity
  8
寸法
 48
50.0
100
AcDbDimension
  2
*D36
 10
7684.046686947123
 20
5238.739547495261
 30
0.0
 11
7684.046686947123
 21
4924.254266121024
 31
0.0
 70
   160
 71
     5
 42
45.00000000000182
  3
INABA_S40G
100
AcDbAlignedDimension
 13
7285.600000000008
 23
5283.739547495263
 33
0.0
 14
7285.600000000008
 24
5238.739547495261
 34
0.0
 50
90.0
100
AcDbRotatedDimension
1001
ACAD
1000
DSTYLE
1002
{
1070
   341
1005
0
1002
}
  0
LINE
  5
203F8
330
747D
100
AcDbEntity
  8
センター
 48
2.0
100
AcDbLine
 10
7235.600000000008
 20
5333.739547495262
 30
0.0
 11
7235.600000000008
 21
5233.739547495263
 31
0.0
  0
LINE
  5
203F9
330
747D
100
AcDbEntity
  8
センター
 48
2.0
100
AcDbLine
 10
7185.600000000007
 20
5283.739547495263
 30
0.0
 11
7285.600000000008
 21
5283.739547495263
 31
0.0
  0
LINE
  5
203FA
330
747D
100
AcDbEntity
  8
部品1
 48
50.0
100
AcDbLine
 10
8323.600000000027
 20
5358.739547495273
 30
0.0
 11
8323.60000000003
 21
5238.739547495263
 31
0.0
  0
LINE
  5
203FB
330
747D
100
AcDbEntity
  8
部品1
 48
50.0
100
AcDbLine
 10
8123.600000000028
 20
5358.739547495273
 30
0.0
 11
8123.600000000029
 21
5238.739547495263
 31
0.0
  0
LINE
  5
203FD
330
747D
100
AcDbEntity
  8
センター
 48
2.0
100
AcDbLine
 10
9045.600000000007
 20
5333.739547495262
 30
0.0
 11
9045.600000000007
 21
5233.739547495263
 31
0.0
  0
LINE
  5
203FE
330
747D
100
AcDbEntity
  8
センター
 48
2.0
100
AcDbLine
 10
8995.600000000008
 20
5283.739547495263
 30
0.0
 11
9095.600000000008
 21
5283.739547495263
 31
0.0
  0
LINE
  5
20400
330
747D
100
AcDbEntity
  8
部品1
 48
50.0
100
AcDbLine
 10
9933.60000000003
 20
5358.739547495277
 30
0.0
 11
9933.60000000003
 21
5238.739547495263
 31
0.0
  0
LINE
  5
20401
330
747D
100
AcDbEntity
  8
部品1
 48
50.0
100
AcDbLine
 10
10133.60000000003
 20
5358.739547495279
 30
0.0
 11
10133.60000000003
 21
5238.739547495263
 31
0.0
  0
LINE
  5
20402
330
747D
100
AcDbEntity
  8
部品1
 48
50.0
100
AcDbLine
 10
7518.600000000001
 20
6678.739547495259
 30
0.0
 11
7518.600000000001
 21
6878.739547495261
 31
0.0
  0
LINE
  5
20403
330
747D
100
AcDbEntity
  8
部品1
 48
50.0
100
AcDbLine
 10
8323.6
 20
6678.739547495259
 30
0.0
 11
8323.6
 21
6878.739547495261
 31
0.0
  0
LINE
  5
20404
330
747D
100
AcDbEntity
  8
部品1
 48
50.0
100
AcDbLine
 10
8123.600000000001
 20
6678.73954749526
 30
0.0
 11
8123.600000000001
 21
6878.739547495261
 31
0.0
  0
LINE
  5
20405
330
747D
100
AcDbEntity
  8
部品1
 48
50.0
100
AcDbLine
 10
7518.600000000001
 20
5944.73954749526
 30
0.0
 11
7518.600000000001
 21
6144.739547495261
 31
0.0
  0
LINE
  5
20406
330
747D
100
AcDbEntity
  8
センター
 48
2.0
100
AcDbLine
 10
7268.600000000001
 20
6044.739547495261
 30
0.0
 11
7368.6
 21
6044.739547495261
 31
0.0
  0
LINE
  5
20407
330
747D
100
AcDbEntity
  8
センター
 48
2.0
100
AcDbLine
 10
7318.6
 20
6094.739547495261
 30
0.0
 11
7318.6
 21
5994.73954749526
 31
0.0
  0
LINE
  5
20408
330
747D
100
AcDbEntity
  8
部品1
 48
50.0
100
AcDbLine
 10
8323.6
 20
5944.73954749526
 30
0.0
 11
8323.6
 21
6144.739547495261
 31
0.0
  0
LINE
  5
20409
330
747D
100
AcDbEntity
  8
部品1
 48
50.0
100
AcDbLine
 10
8123.600000000001
 20
5944.73954749526
 30
0.0
 11
8123.600000000001
 21
6144.739547495261
 31
0.0
  0
LINE
  5
2040A
330
747D
100
AcDbEntity
  8
センター
 48
2.0
100
AcDbLine
 10
8173.6
 20
6044.739547495261
 30
0.0
 11
8273.6
 21
6044.739547495261
 31
0.0
  0
LINE
  5
2040B
330
747D
100
AcDbEntity
  8
部品1
 48
50.0
100
AcDbLine
 10
8323.6
 20
5944.73954749526
 30
0.0
 11
8123.600000000001
 21
5944.73954749526
 31
0.0
  0
LINE
  5
2040C
330
747D
100
AcDbEntity
  8
センター
 48
2.0
100
AcDbLine
 10
8223.600000000001
 20
6094.739547495261
 30
0.0
 11
8223.600000000001
 21
5994.73954749526
 31
0.0
  0
LINE
  5
2040D
330
747D
100
AcDbEntity
  8
部品1
 48
50.0
100
AcDbLine
 10
8323.6
 20
6144.739547495261
 30
0.0
 11
8123.600000000001
 21
6144.739547495261
 31
0.0
  0
LINE
  5
2040E
330
747D
100
AcDbEntity
  8
部品1
 48
50.0
100
AcDbLine
 10
8323.6
 20
6678.739547495259
 30
0.0
 11
8123.600000000001
 21
6678.739547495259
 31
0.0
  0
LINE
  5
2040F
330
747D
100
AcDbEntity
  8
センター
 48
2.0
100
AcDbLine
 10
7268.600000000001
 20
6778.73954749526
 30
0.0
 11
7368.6
 21
6778.73954749526
 31
0.0
  0
LINE
  5
20410
330
747D
100
AcDbEntity
  8
センター
 48
2.0
100
AcDbLine
 10
7318.6
 20
6828.739547495262
 30
0.0
 11
7318.6
 21
6728.73954749526
 31
0.0
  0
LINE
  5
20411
330
747D
100
AcDbEntity
  8
部品1
 48
50.0
100
AcDbLine
 10
7518.600000000001
 20
7412.739547495259
 30
0.0
 11
7518.600000000001
 21
7612.739547495261
 31
0.0
  0
LINE
  5
20412
330
747D
100
AcDbEntity
  8
センター
 48
2.0
100
AcDbLine
 10
7268.600000000001
 20
7512.739547495261
 30
0.0
 11
7368.6
 21
7512.739547495261
 31
0.0
  0
LINE
  5
20413
330
747D
100
AcDbEntity
  8
センター
 48
2.0
100
AcDbLine
 10
7318.6
 20
7562.739547495261
 30
0.0
 11
7318.6
 21
7462.73954749526
 31
0.0
  0
LINE
  5
20416
330
747D
100
AcDbEntity
  8
部品1
 48
50.0
100
AcDbLine
 10
8323.6
 20
6878.739547495261
 30
0.0
 11
8123.600000000001
 21
6878.739547495261
 31
0.0
  0
LINE
  5
20417
330
747D
100
AcDbEntity
  8
センター
 48
2.0
100
AcDbLine
 10
8173.6
 20
6778.73954749526
 30
0.0
 11
8273.6
 21
6778.73954749526
 31
0.0
  0
LINE
  5
20418
330
747D
100
AcDbEntity
  8
センター
 48
2.0
100
AcDbLine
 10
8223.600000000001
 20
6828.739547495262
 30
0.0
 11
8223.600000000001
 21
6728.73954749526
 31
0.0
  0
LINE
  5
20419
330
747D
100
AcDbEntity
  8
部品1
 48
50.0
100
AcDbLine
 10
8323.6
 20
7412.739547495259
 30
0.0
 11
8323.6
 21
7612.739547495261
 31
0.0
  0
LINE
  5
2041A
330
747D
100
AcDbEntity
  8
部品1
 48
50.0
100
AcDbLine
 10
8123.600000000001
 20
7412.73954749526
 30
0.0
 11
8123.600000000001
 21
7612.739547495261
 31
0.0
  0
LINE
  5
2041B
330
747D
100
AcDbEntity
  8
センター
 48
2.0
100
AcDbLine
 10
8173.6
 20
7512.739547495261
 30
0.0
 11
8273.6
 21
7512.739547495261
 31
0.0
  0
LINE
  5
2041C
330
747D
100
AcDbEntity
  8
部品1
 48
50.0
100
AcDbLine
 10
8323.6
 20
7412.739547495259
 30
0.0
 11
8123.600000000001
 21
7412.739547495259
 31
0.0
  0
LINE
  5
2041D
330
747D
100
AcDbEntity
  8
センター
 48
2.0
100
AcDbLine
 10
8223.600000000001
 20
7562.739547495261
 30
0.0
 11
8223.600000000001
 21
7462.73954749526
 31
0.0
  0
LINE
  5
2041E
330
747D
100
AcDbEntity
  8
部品1
 48
50.0
100
AcDbLine
 10
8323.6
 20
7612.739547495261
 30
0.0
 11
8123.600000000001
 21
7612.739547495261
 31
0.0
  0
LINE
  5
2041F
330
747D
100
AcDbEntity
  8
部品1
 48
50.0
100
AcDbLine
 10
10186.6
 20
6678.73954749526
 30
0.0
 11
10186.6
 21
6878.739547495261
 31
0.0
  0
LINE
  5
20420
330
747D
100
AcDbEntity
  8
部品1
 48
50.0
100
AcDbLine
 10
9328.599999999999
 20
6678.739547495259
 30
0.0
 11
9328.599999999999
 21
6878.739547495261
 31
0.0
  0
LINE
  5
20421
330
747D
100
AcDbEntity
  8
部品1
 48
50.0
100
AcDbLine
 10
9986.600000000001
 20
6678.739547495259
 30
0.0
 11
9986.600000000001
 21
6878.739547495261
 31
0.0
  0
LINE
  5
20422
330
747D
100
AcDbEntity
  8
部品1
 48
50.0
100
AcDbLine
 10
8928.600000000001
 20
6678.73954749526
 30
0.0
 11
8928.600000000001
 21
6878.739547495261
 31
0.0
  0
LINE
  5
20423
330
747D
100
AcDbEntity
  8
部品1
 48
50.0
100
AcDbLine
 10
9328.599999999999
 20
5944.73954749526
 30
0.0
 11
9328.599999999999
 21
6144.739547495261
 31
0.0
  0
LINE
  5
20424
330
747D
100
AcDbEntity
  8
部品1
 48
50.0
100
AcDbLine
 10
8928.600000000001
 20
5944.73954749526
 30
0.0
 11
8928.600000000001
 21
6144.739547495261
 31
0.0
  0
LINE
  5
20425
330
747D
100
AcDbEntity
  8
部品1
 48
50.0
100
AcDbLine
 10
9328.599999999999
 20
5944.73954749526
 30
0.0
 11
8928.600000000001
 21
5944.73954749526
 31
0.0
  0
LINE
  5
20426
330
747D
100
AcDbEntity
  8
センター
 48
2.0
100
AcDbLine
 10
9128.6
 20
6094.739547495261
 30
0.0
 11
9128.6
 21
5994.73954749526
 31
0.0
  0
LINE
  5
20427
330
747D
100
AcDbEntity
  8
センター
 48
2.0
100
AcDbLine
 10
9078.599999999999
 20
6044.739547495261
 30
0.0
 11
9178.600000000001
 21
6044.739547495261
 31
0.0
  0
LINE
  5
20428
330
747D
100
AcDbEntity
  8
部品1
 48
50.0
100
AcDbLine
 10
9328.599999999999
 20
6678.739547495259
 30
0.0
 11
8928.600000000001
 21
6678.739547495259
 31
0.0
  0
LINE
  5
20429
330
747D
100
AcDbEntity
  8
部品1
 48
50.0
100
AcDbLine
 10
9328.599999999999
 20
6144.739547495261
 30
0.0
 11
8928.600000000001
 21
6144.739547495261
 31
0.0
  0
LINE
  5
2042A
330
747D
100
AcDbEntity
  8
部品1
 48
50.0
100
AcDbLine
 10
10186.6
 20
5944.73954749526
 30
0.0
 11
10186.6
 21
6144.739547495261
 31
0.0
  0
LINE
  5
2042B
330
747D
100
AcDbEntity
  8
部品1
 48
50.0
100
AcDbLine
 10
9986.600000000001
 20
5944.73954749526
 30
0.0
 11
9986.600000000001
 21
6144.739547495261
 31
0.0
  0
LINE
  5
2042C
330
747D
100
AcDbEntity
  8
センター
 48
2.0
100
AcDbLine
 10
10136.6
 20
6044.739547495261
 30
0.0
 11
10036.6
 21
6044.739547495261
 31
0.0
  0
LINE
  5
2042D
330
747D
100
AcDbEntity
  8
部品1
 48
50.0
100
AcDbLine
 10
9986.600000000001
 20
5944.73954749526
 30
0.0
 11
10186.6
 21
5944.73954749526
 31
0.0
  0
LINE
  5
2042E
330
747D
100
AcDbEntity
  8
センター
 48
2.0
100
AcDbLine
 10
10086.6
 20
6094.739547495261
 30
0.0
 11
10086.6
 21
5994.73954749526
 31
0.0
  0
LINE
  5
2042F
330
747D
100
AcDbEntity
  8
部品1
 48
50.0
100
AcDbLine
 10
9986.600000000001
 20
6678.739547495259
 30
0.0
 11
10186.6
 21
6678.739547495259
 31
0.0
  0
LINE
  5
20430
330
747D
100
AcDbEntity
  8
部品1
 48
50.0
100
AcDbLine
 10
9986.600000000001
 20
6144.739547495261
 30
0.0
 11
10186.6
 21
6144.739547495261
 31
0.0
  0
LINE
  5
20431
330
747D
100
AcDbEntity
  8
部品1
 48
50.0
100
AcDbLine
 10
9328.599999999999
 20
6878.739547495261
 30
0.0
 11
8928.600000000001
 21
6878.739547495261
 31
0.0
  0
LINE
  5
20432
330
747D
100
AcDbEntity
  8
センター
 48
2.0
100
AcDbLine
 10
9078.599999999999
 20
6778.73954749526
 30
0.0
 11
9178.600000000001
 21
6778.73954749526
 31
0.0
  0
LINE
  5
20433
330
747D
100
AcDbEntity
  8
センター
 48
2.0
100
AcDbLine
 10
9128.6
 20
6828.739547495262
 30
0.0
 11
9128.6
 21
6728.73954749526
 31
0.0
  0
LINE
  5
20434
330
747D
100
AcDbEntity
  8
部品1
 48
50.0
100
AcDbLine
 10
9328.599999999999
 20
7412.739547495259
 30
0.0
 11
8928.600000000001
 21
7412.739547495259
 31
0.0
  0
LINE
  5
20435
330
747D
100
AcDbEntity
  8
部品1
 48
50.0
100
AcDbLine
 10
9328.599999999999
 20
7612.739547495261
 30
0.0
 11
8928.600000000001
 21
7612.739547495261
 31
0.0
  0
LINE
  5
20436
330
747D
100
AcDbEntity
  8
部品1
 48
50.0
100
AcDbLine
 10
8928.600000000001
 20
7412.73954749526
 30
0.0
 11
8928.600000000001
 21
7612.739547495261
 31
0.0
  0
LINE
  5
20437
330
747D
100
AcDbEntity
  8
センター
 48
2.0
100
AcDbLine
 10
9128.6
 20
7562.739547495261
 30
0.0
 11
9128.6
 21
7462.73954749526
 31
0.0
  0
LINE
  5
20438
330
747D
100
AcDbEntity
  8
センター
 48
2.0
100
AcDbLine
 10
9078.599999999999
 20
7512.739547495261
 30
0.0
 11
9178.600000000001
 21
7512.739547495261
 31
0.0
  0
LINE
  5
20439
330
747D
100
AcDbEntity
  8
部品1
 48
50.0
100
AcDbLine
 10
9328.599999999999
 20
7412.739547495259
 30
0.0
 11
9328.599999999999
 21
7612.739547495261
 31
0.0
  0
LINE
  5
2043A
330
747D
100
AcDbEntity
  8
センター
 48
2.0
100
AcDbLine
 10
10136.6
 20
6778.73954749526
 30
0.0
 11
10036.6
 21
6778.73954749526
 31
0.0
  0
LINE
  5
2043B
330
747D
100
AcDbEntity
  8
部品1
 48
50.0
100
AcDbLine
 10
9986.600000000001
 20
6878.739547495261
 30
0.0
 11
10186.6
 21
6878.739547495261
 31
0.0
  0
LINE
  5
2043C
330
747D
100
AcDbEntity
  8
センター
 48
2.0
100
AcDbLine
 10
10086.6
 20
6828.739547495262
 30
0.0
 11
10086.6
 21
6728.73954749526
 31
0.0
  0
LINE
  5
2043D
330
747D
100
AcDbEntity
  8
センター
 48
2.0
100
AcDbLine
 10
10136.6
 20
7512.739547495261
 30
0.0
 11
10036.6
 21
7512.739547495261
 31
0.0
  0
LINE
  5
2043E
330
747D
100
AcDbEntity
  8
部品1
 48
50.0
100
AcDbLine
 10
9986.600000000001
 20
7412.739547495259
 30
0.0
 11
10186.6
 21
7412.739547495259
 31
0.0
  0
LINE
  5
2043F
330
747D
100
AcDbEntity
  8
部品1
 48
50.0
100
AcDbLine
 10
9986.600000000001
 20
7612.739547495261
 30
0.0
 11
10186.6
 21
7612.739547495261
 31
0.0
  0
LINE
  5
20440
330
747D
100
AcDbEntity
  8
部品1
 48
50.0
100
AcDbLine
 10
9986.600000000001
 20
7412.739547495259
 30
0.0
 11
9986.600000000001
 21
7612.739547495261
 31
0.0
  0
LINE
  5
20441
330
747D
100
AcDbEntity
  8
部品1
 48
50.0
100
AcDbLine
 10
10186.6
 20
7412.73954749526
 30
0.0
 11
10186.6
 21
7612.739547495261
 31
0.0
  0
LINE
  5
20442
330
747D
100
AcDbEntity
  8
センター
 48
2.0
100
AcDbLine
 10
10086.6
 20
7562.739547495261
 30
0.0
 11
10086.6
 21
7462.73954749526
 31
0.0
  0
DIMENSION
  5
20443
330
747D
100
AcDbEntity
  8
寸法
 48
50.0
100
AcDbDimension
  2
*D37
 10
5548.6
 20
9064.499174037344
 30
0.0
 11
6392.100000000001
 21
9164.499174037343
 31
0.0
 70
    32
 71
     5
 42
1687.0
  3
INABA_S40G
100
AcDbAlignedDimension
 13
7235.600000000001
 23
8323.739547495261
 33
0.0
 14
5548.6
 24
8268.739547495261
 34
0.0
100
AcDbRotatedDimension
1001
ACAD
1000
DSTYLE
1002
{
1070
   341
1005
0
1002
}
  0
LINE
  5
20444
330
747D
100
AcDbEntity
  8
センター
 48
2.0
100
AcDbLine
 10
5498.6
 20
8218.73954749526
 30
0.0
 11
5598.600000000001
 21
8218.73954749526
 31
0.0
  0
LINE
  5
20445
330
747D
100
AcDbEntity
  8
部品1
 48
50.0
100
AcDbLine
 10
5902.928907166848
 20
8318.739547495258
 30
0.0
 11
5503.6
 21
8318.73954749526
 31
0.0
  0
DIMENSION
  5
20446
330
747D
100
AcDbEntity
  8
寸法
 48
50.0
100
AcDbDimension
  2
*D38
 10
5503.6
 20
9064.499174037344
 30
0.0
 11
5135.493398282203
 21
9064.499174037344
 31
0.0
 70
   160
 71
     5
 42
45.0
  3
INABA_S40G
100
AcDbAlignedDimension
 13
5548.6
 23
8268.739547495261
 33
0.0
 14
5503.6
 24
8318.73954749526
 34
0.0
100
AcDbRotatedDimension
1001
ACAD
1000
DSTYLE
1002
{
1070
   341
1005
0
1002
}
  0
DIMENSION
  5
20447
330
747D
100
AcDbEntity
  8
寸法
 48
50.0
100
AcDbDimension
  2
*D39
 10
5503.6
 20
9276.959869554183
 30
0.0
 11
5225.881723496926
 21
9276.959869554183
 31
0.0
 70
   160
  1
b
 71
     5
 42
95.0
  3
INABA_S40G
100
AcDbAlignedDimension
 13
5408.6
 23
9064.499174037342
 33
0.0
 14
5503.6
 24
8318.73954749526
 34
0.0
100
AcDbRotatedDimension
1001
ACAD
1000
DSTYLE
1002
{
1070
   341
1005
0
1002
}
  0
DIMENSION
  5
20448
330
747D
100
AcDbEntity
  8
寸法
 48
50.0
100
AcDbDimension
  2
*D40
 10
4762.16493184821
 20
8318.73954749526
 30
0.0
 11
4662.164931848209
 21
8368.739547495261
 31
0.0
 70
    32
  1
a
 71
     5
 42
99.99999999999637
  3
INABA_S40G
100
AcDbAlignedDimension
 13
5007.657733986178
 23
8418.739547495258
 33
0.0
 14
5503.6
 24
8318.73954749526
 34
0.0
 50
90.0
100
AcDbRotatedDimension
1001
ACAD
1000
DSTYLE
1002
{
1070
   341
1005
0
1002
}
  0
DIMENSION
  5
20449
330
747D
100
AcDbEntity
  8
寸法
 48
50.0
100
AcDbDimension
  2
*D41
 10
5007.657733986178
 20
8218.73954749526
 30
0.0
 11
5007.657733986178
 21
8683.798602613371
 31
0.0
 70
   160
 71
     5
 42
100.0
  3
INABA_S40G
100
AcDbAlignedDimension
 13
5503.6
 23
8318.73954749526
 33
0.0
 14
5498.6
 24
8218.73954749526
 34
0.0
 50
90.0
100
AcDbRotatedDimension
1001
ACAD
1000
DSTYLE
1002
{
1070
   341
1005
0
1002
}
  0
DIMENSION
  5
2044B
330
747D
100
AcDbEntity
  8
寸法
 48
50.0
100
AcDbDimension
  2
*D42
 10
10350.3072498761
 20
8318.73954749526
 30
0.0
 11
10350.30724987609
 21
8596.823090768149
 31
0.0
 70
   160
 71
     5
 42
120.0000000000018
  3
INABA_S40G
100
AcDbAlignedDimension
 13
10133.6
 23
8198.739547495259
 33
0.0
 14
10133.6
 24
8318.73954749526
 34
0.0
 50
90.0
100
AcDbRotatedDimension
1001
ACAD
1000
DSTYLE
1002
{
1070
   341
1005
0
1002
}
  0
LINE
  5
2044C
330
747D
100
AcDbEntity
  8
センター
 48
2.0
100
AcDbLine
 10
5548.6
 20
8268.739547495261
 30
0.0
 11
5548.6
 21
8168.739547495261
 31
0.0
  0
LINE
  5
2044D
330
747D
100
AcDbEntity
  8
部品1
 48
50.0
100
AcDbLine
 10
6313.6
 20
8318.73954749526
 30
0.0
 11
6313.600000000002
 21
8198.739547495264
 31
0.0
  0
LINE
  5
2044E
330
747D
100
AcDbEntity
  8
部品1
 48
50.0
100
AcDbLine
 10
6513.600000000001
 20
8318.73954749526
 30
0.0
 11
6513.600000000002
 21
8198.739547495264
 31
0.0
  0
DIMENSION
  5
2044F
330
747D
100
AcDbEntity
  8
寸法
 48
50.0
100
AcDbDimension
  2
*D43
 10
9045.6
 20
9064.499174037344
 30
0.0
 11
8140.6
 21
9164.499174037343
 31
0.0
 70
    32
 71
     5
 42
1810.0
  3
INABA_S40G
100
AcDbAlignedDimension
 13
7235.600000000001
 23
8323.739547495261
 33
0.0
 14
9045.6
 24
8323.739547495261
 34
0.0
100
AcDbRotatedDimension
1001
ACAD
1000
DSTYLE
1002
{
1070
   341
1005
0
1002
}
  0
DIMENSION
  5
20450
330
747D
100
AcDbEntity
  8
寸法
 48
50.0
100
AcDbDimension
  2
*D44
 10
7684.046686947116
 20
8318.73954749526
 30
0.0
 11
7684.046686947114
 21
8633.224828869501
 31
0.0
 70
   160
 71
     5
 42
45.0
  3
INABA_S40G
100
AcDbAlignedDimension
 13
7285.600000000001
 23
8273.73954749526
 33
0.0
 14
7285.600000000001
 24
8318.73954749526
 34
0.0
 50
90.0
100
AcDbRotatedDimension
1001
ACAD
1000
DSTYLE
1002
{
1070
   341
1005
0
1002
}
  0
LINE
  5
20451
330
747D
100
AcDbEntity
  8
センター
 48
2.0
100
AcDbLine
 10
7185.6
 20
8273.73954749526
 30
0.0
 11
7285.600000000001
 21
8273.73954749526
 31
0.0
  0
LINE
  5
20452
330
747D
100
AcDbEntity
  8
センター
 48
2.0
100
AcDbLine
 10
7235.600000000001
 20
8323.739547495261
 30
0.0
 11
7235.600000000001
 21
8223.739547495261
 31
0.0
  0
LINE
  5
20454
330
747D
100
AcDbEntity
  8
部品1
 48
50.0
100
AcDbLine
 10
8123.600000000001
 20
8318.73954749526
 30
0.0
 11
8123.600000000003
 21
8198.739547495263
 31
0.0
  0
LINE
  5
20455
330
747D
100
AcDbEntity
  8
部品1
 48
50.0
100
AcDbLine
 10
8323.6
 20
8318.73954749526
 30
0.0
 11
8323.600000000004
 21
8198.739547495261
 31
0.0
  0
LINE
  5
20456
330
747D
100
AcDbEntity
  8
センター
 48
2.0
100
AcDbLine
 10
8995.600000000001
 20
8273.73954749526
 30
0.0
 11
9095.600000000001
 21
8273.73954749526
 31
0.0
  0
LINE
  5
20457
330
747D
100
AcDbEntity
  8
センター
 48
2.0
100
AcDbLine
 10
9045.6
 20
8323.739547495261
 30
0.0
 11
9045.6
 21
8223.739547495261
 31
0.0
  0
LINE
  5
20459
330
747D
100
AcDbEntity
  8
部品1
 48
50.0
100
AcDbLine
 10
9933.600000000001
 20
8318.73954749526
 30
0.0
 11
9933.600000000001
 21
8198.739547495261
 31
0.0
  0
LINE
  5
2045A
330
747D
100
AcDbEntity
  8
部品1
 48
50.0
100
AcDbLine
 10
10133.6
 20
8318.73954749526
 30
0.0
 11
10133.6
 21
8198.739547495259
 31
0.0
  0
LINE
  5
2045B
330
747D
100
AcDbEntity
  8
部品1
 48
50.0
100
AcDbLine
 10
10943.59999999999
 20
7856.73954749526
 30
0.0
 11
10943.6
 21
8318.73954749526
 31
0.0
  0
LINE
  5
2045C
330
747D
100
AcDbEntity
  8
部品1
 48
50.0
100
AcDbLine
 10
10823.6
 20
5358.739547495279
 30
0.0
 11
10823.6
 21
8198.739547495257
 31
0.0
  0
DIMENSION
  5
2045D
330
747D
100
AcDbEntity
  8
寸法
 48
50.0
100
AcDbDimension
  2
*D45
 10
10943.59999999999
 20
8053.117404111929
 30
0.0
 11
11552.08528137423
 21
8053.117404111929
 31
0.0
 70
   160
  1
扉の出<>
 71
     5
 42
75.0
  3
INABA_S40G
100
AcDbAlignedDimension
 13
11018.59999999999
 23
7856.73954749526
 33
0.0
 14
10943.59999999999
 24
7856.73954749526
 34
0.0
 50
180.0
100
AcDbRotatedDimension
1001
ACAD
1000
DSTYLE
1002
{
1070
   341
1005
0
1002
}
  0
DIMENSION
  5
2045E
330
747D
100
AcDbEntity
  8
寸法
 48
50.0
100
AcDbDimension
  2
*D46
 10
11362.60638965472
 20
5238.739547495279
 30
0.0
 11
11262.60638965472
 21
5470.239547495271
 31
0.0
 70
    32
 71
     5
 42
462.9999999999817
  3
INABA_S40G
100
AcDbAlignedDimension
 13
11018.60000000001
 23
5701.739547495261
 33
0.0
 14
10943.6
 24
5238.739547495279
 34
0.0
 50
90.0
100
AcDbRotatedDimension
1001
ACAD
1000
DSTYLE
1002
{
1070
   341
1005
0
1002
}
  0
LINE
  5
2045F
330
747D
100
AcDbEntity
  8
部品1
 48
50.0
100
AcDbLine
 10
10943.6
 20
5238.739547495279
 30
0.0
 11
10943.6
 21
5701.739547495261
 31
0.0
  0
LINE
  5
20460
330
747D
100
AcDbEntity
  8
想像線
 48
10.0
100
AcDbLine
 10
11038.6
 20
8418.739547495253
 30
0.0
 11
11038.6
 21
5138.739547495261
 31
0.0
  0
LINE
  5
20461
330
747D
100
AcDbEntity
  8
センター
 48
2.0
100
AcDbLine
 10
10848.60000000001
 20
5338.739547495262
 30
0.0
 11
10948.60000000001
 21
5338.739547495262
 31
0.0
  0
LINE
  5
20462
330
747D
100
AcDbEntity
  8
センター
 48
2.0
100
AcDbLine
 10
10898.6
 20
5388.739547495262
 30
0.0
 11
10898.6
 21
5288.739547495262
 31
0.0
  0
LINE
  5
20464
330
747D
100
AcDbEntity
  8
部品1
 48
50.0
100
AcDbLine
 10
11018.59999999999
 20
7856.73954749526
 30
0.0
 11
11018.60000000001
 21
5701.739547495261
 31
0.0
  0
DIMENSION
  5
20465
330
747D
100
AcDbEntity
  8
寸法
 48
50.0
100
AcDbDimension
  2
*D47
 10
11362.60638965472
 20
5701.739547495261
 30
0.0
 11
11262.5945786311
 21
6779.239547495262
 31
0.0
 70
    32
  1
扉の幅 <>
 71
     5
 42
2155.0
  3
INABA_S40G
100
AcDbAlignedDimension
 13
11018.59999999999
 23
7856.73954749526
 33
0.0
 14
11018.60000000001
 24
5701.739547495261
 34
0.0
 50
90.0
100
AcDbRotatedDimension
1001
ACAD
1000
DSTYLE
1002
{
1070
   341
1005
0
1002
}
  0
LINE
  5
20497
330
747D
100
AcDbEntity
  8
部品1
 48
50.0
100
AcDbLine
 10
11018.59999999999
 20
5701.739547495261
 30
0.0
 11
10943.60000000001
 21
5701.739547495261
 31
0.0
  0
LINE
  5
204F2
330
747D
100
AcDbEntity
  8
部品1
 48
50.0
100
AcDbLine
 10
11018.6
 20
6678.73954749527
 30
0.0
 11
10823.6
 21
6678.739547495268
 31
0.0
  0
LINE
  5
2053D
330
747D
100
AcDbEntity
  8
部品1
 48
50.0
100
AcDbLine
 10
11018.6
 20
6878.73954749527
 30
0.0
 11
10823.6
 21
6878.73954749527
 31
0.0
  0
LINE
  5
20672
330
747D
100
AcDbEntity
  8
部品1
 48
50.0
100
AcDbLine
 10
11018.59999999999
 20
7856.73954749526
 30
0.0
 11
10943.6
 21
7856.73954749526
 31
0.0
  0
DIMENSION
  5
20673
330
747D
100
AcDbEntity
  8
寸法
 48
50.0
100
AcDbDimension
  2
*D48
 10
11038.6
 20
9276.959869554183
 30
0.0
 11
11221.31827650307
 21
9276.959869554183
 31
0.0
 70
   160
  1
b
 71
     5
 42
95.0
  3
INABA_S40G
100
AcDbAlignedDimension
 13
10943.6
 23
8318.73954749526
 33
0.0
 14
11038.6
 24
9064.499174037347
 34
0.0
100
AcDbRotatedDimension
1001
ACAD
1000
DSTYLE
1002
{
1070
   341
1005
0
1002
}
  0
DIMENSION
  5
20674
330
747D
100
AcDbEntity
  8
寸法
 48
50.0
100
AcDbDimension
  2
*D49
 10
10898.6
 20
9064.499174037344
 30
0.0
 11
11311.7066017178
 21
9064.499174037344
 31
0.0
 70
   160
 71
     5
 42
45.0
  3
INABA_S40G
100
AcDbAlignedDimension
 13
10943.6
 23
8318.73954749526
 33
0.0
 14
10898.6
 24
8268.739547495261
 34
0.0
100
AcDbRotatedDimension
1001
ACAD
1000
DSTYLE
1002
{
1070
   341
1005
0
1002
}
  0
LINE
  5
20675
330
747D
100
AcDbEntity
  8
センター
 48
2.0
100
AcDbLine
 10
10848.6
 20
8218.73954749526
 30
0.0
 11
10948.6
 21
8218.73954749526
 31
0.0
  0
LINE
  5
20676
330
747D
100
AcDbEntity
  8
センター
 48
2.0
100
AcDbLine
 10
10898.6
 20
8268.739547495261
 30
0.0
 11
10898.6
 21
8168.739547495261
 31
0.0
  0
LINE
  5
21006
330
747D
100
AcDbEntity
  8
センター
 48
10.0
100
AcDbLine
 10
9045.600000000007
 20
5343.739547495272
 30
0.0
 11
9045.600000000007
 21
5583.739547495262
 31
0.0
  0
LINE
  5
21007
330
747D
100
AcDbEntity
  8
寸法
 48
50.0
100
AcDbLine
 10
8890.488873943368
 20
5622.562404260641
 30
0.0
 11
8890.488873943368
 21
5522.562404260641
 31
0.0
  0
LINE
  5
21008
330
747D
100
AcDbEntity
  8
寸法
 48
50.0
100
AcDbLine
 10
8745.600000000008
 20
5583.739547495262
 30
0.0
 11
8890.488873943368
 21
5622.562404260641
 31
0.0
  0
LINE
  5
21009
330
747D
100
AcDbEntity
  8
寸法
 48
50.0
100
AcDbLine
 10
9045.600000000007
 20
5583.739547495262
 30
0.0
 11
8745.600000000008
 21
5583.739547495262
 31
0.0
  0
MTEXT
  5
2100A
330
747D
100
AcDbEntity
  8
部品1
 62
     7
 48
50.0
100
AcDbMText
 10
8719.375829299391
 20
5585.103492741428
 30
0.0
 40
120.0
 41
0.0
 71
     6
 72
     1
  1
A'
  7
STYLE1
 73
     1
 44
1.0
1001
ACAD
1000
MTEXTBEGIN
1070
    73
1070
     1
1070
    44
1040
1.0
1070
    74
1070
     0
1000
MTEXTEND
  0
LINE
  5
2100B
330
747D
100
AcDbEntity
  8
寸法
 48
50.0
100
AcDbLine
 10
8890.488873943375
 20
5042.562404260647
 30
0.0
 11
8890.488873943375
 21
4942.562404260647
 31
0.0
  0
LINE
  5
2100C
330
747D
100
AcDbEntity
  8
寸法
 48
50.0
100
AcDbLine
 10
8745.600000000015
 20
5003.73954749527
 30
0.0
 11
8890.488873943375
 21
5042.562404260647
 31
0.0
  0
LINE
  5
2100D
330
747D
100
AcDbEntity
  8
寸法
 48
50.0
100
AcDbLine
 10
9045.600000000014
 20
5003.73954749527
 30
0.0
 11
8745.600000000015
 21
5003.73954749527
 31
0.0
  0
MTEXT
  5
2100E
330
747D
100
AcDbEntity
  8
部品1
 62
     7
 48
50.0
100
AcDbMText
 10
8676.32499178911
 20
5004.089782403367
 30
0.0
 40
120.0
 41
0.0
 71
     6
 72
     1
  1
A
  7
STYLE1
 73
     1
 44
1.0
1001
ACAD
1000
MTEXTBEGIN
1070
    73
1070
     1
1070
    44
1040
1.0
1070
    74
1070
     0
1000
MTEXTEND
  0
LINE
  5
2100F
330
747D
100
AcDbEntity
  8
センター
 48
10.0
100
AcDbLine
 10
9045.600000000014
 20
5003.73954749527
 30
0.0
 11
9045.600000000014
 21
5243.739547495261
 31
0.0
  0
LINE
  5
21010
330
747D
100
AcDbEntity
  8
想像線
 48
10.0
100
AcDbLine
 10
11038.6
 20
8418.739547495253
 30
0.0
 11
5408.6
 21
8418.739547495254
 31
0.0
  0
LINE
  5
21375
330
747D
100
AcDbEntity
  8
寸法
 48
50.0
100
AcDbLine
 10
11578.02970136043
 20
5790.799060656018
 30
0.0
 11
14392.09411429208
 21
5790.799060656018
 31
0.0
210
0.0
220
0.0
230
-1.0
1001
ACAD
1000
DSTYLE
1002
{
1070
   341
1005
0
1070
    40
1040
1.0
1070
   343
1005
0
1070
   344
1005
0
1002
}
  0
LINE
  5
21376
330
747D
100
AcDbEntity
  8
寸法
 48
50.0
100
AcDbLine
 10
11018.6
 20
6327.793208248804
 30
0.0
 11
11578.02970136043
 21
5790.799060656018
 31
0.0
210
0.0
220
0.0
230
-1.0
1001
ACAD
1000
DSTYLE
1002
{
1070
   341
1005
0
1070
    40
1040
1.0
1070
   343
1005
0
1070
   344
1005
0
1002
}
  0
TEXT
  5
21377
330
747D
100
AcDbEntity
  8
寸法
 62
     7
100
AcDbText
 10
11694.64566055319
 20
5813.067008204338
 30
0.0
 40
120.0
  1
扉位置 (2155x75)
  7
STYLE1
100
AcDbText
  0
SOLID
  5
21378
330
747D
100
AcDbEntity
  8
寸法
 48
50.0
100
AcDbTrace
 10
-11123.7689167164
 20
6257.092948458057
 30
0.0
 11
-11018.60000000001
 21
6327.793208248806
 31
0.0
 12
-11095.15429642121
 22
6226.805746268457
 32
0.0
 13
-11095.15429642121
 23
6226.805746268457
 33
0.0
210
0.0
220
0.0
230
-1.0
1001
ACAD
1000
DSTYLE
1002
{
1070
   341
1005
0
1070
    40
1040
1.0
1070
   343
1005
0
1070
   344
1005
0
1002
}
  0
TEXT
  5
21379
330
747D
100
AcDbEntity
  8
寸法
 62
     7
100
AcDbText
 10
11694.64566055319
 20
5641.463245321013
 30
0.0
 40
120.0
  1
扉の位置に合わせた基礎形状として下さい。
  7
STYLE1
100
AcDbText
  0
LINE
  5
21AD0
330
747D
100
AcDbEntity
  8
細線
 48
50.0
100
AcDbLine
 10
5984.303239704493
 20
1851.011637817296
 30
0.0
 11
6090.79496990372
 21
1957.503368016529
 31
0.0
  0
LINE
  5
21AD1
330
747D
100
AcDbEntity
  8
部品1
 48
50.0
100
AcDbLine
 10
9652.309513432621
 20
977.5912928081572
 30
0.0
 11
9012.309513432622
 21
977.5912928081572
 31
0.0
  0
LINE
  5
21AD2
330
747D
100
AcDbEntity
  8
部品1
 48
50.0
100
AcDbLine
 10
9652.309513432621
 20
817.5912928081572
 30
0.0
 11
9012.309513432622
 21
817.5912928081572
 31
0.0
  0
TEXT
  5
21AD3
330
747D
100
AcDbEntity
  8
部品1
 48
50.0
100
AcDbText
 10
9054.500014776838
 20
848.7990790128289
 30
0.0
 40
96.0
  1
基礎断面
  7
STYLE2
100
AcDbText
  0
LINE
  5
21AD4
330
747D
100
AcDbEntity
  8
部品1
 48
50.0
100
AcDbLine
 10
9012.309513432622
 20
977.5912928081572
 30
0.0
 11
9012.309513432622
 21
817.5912928081572
 31
0.0
  0
LINE
  5
21AD5
330
747D
100
AcDbEntity
  8
部品1
 48
50.0
100
AcDbLine
 10
9652.309513432621
 20
977.5912928081572
 30
0.0
 11
9652.309513432621
 21
817.5912928081572
 31
0.0
  0
LINE
  5
21AD6
330
747D
100
AcDbEntity
  8
部品1
 48
50.0
100
AcDbLine
 10
6369.179366360778
 20
1215.094973910983
 30
0.0
 11
5569.17936636078
 21
1215.094973910983
 31
0.0
  0
LINE
  5
21AD7
330
747D
100
AcDbEntity
  8
部品1
 48
50.0
100
AcDbLine
 10
6369.179366360778
 20
1055.094973910983
 30
0.0
 11
5569.17936636078
 21
1055.094973910983
 31
0.0
  0
TEXT
  5
21AD8
330
747D
100
AcDbEntity
  8
部品1
 48
50.0
100
AcDbText
 10
5630.781801499022
 20
1089.087265643479
 30
0.0
 40
96.0
  1
Ａ－Ａ’断面
  7
STYLE2
100
AcDbText
  0
LINE
  5
21AD9
330
747D
100
AcDbEntity
  8
部品1
 48
50.0
100
AcDbLine
 10
5569.17936636078
 20
1215.094973910983
 30
0.0
 11
5569.17936636078
 21
1055.094973910983
 31
0.0
  0
LINE
  5
21ADA
330
747D
100
AcDbEntity
  8
部品1
 48
50.0
100
AcDbLine
 10
6369.179366360778
 20
1215.094973910983
 30
0.0
 11
6369.179366360778
 21
1055.094973910983
 31
0.0
  0
TEXT
  5
21ADB
330
747D
100
AcDbEntity
  8
部品1
100
AcDbText
 10
7805.688057400776
 20
3482.67745892293
 30
0.0
 40
120.0
  1
基礎詳細
  7
STYLE2
 72
     1
 11
8154.778966491686
 21
3458.132004377475
 31
0.0
100
AcDbText
 73
     1
  0
LINE
  5
21ADC
330
747D
100
AcDbEntity
  8
部品1
100
AcDbLine
 10
4538.941973470825
 20
3671.138025735734
 30
0.0
 11
4538.941973470825
 21
637.0206279648839
 31
0.0
  0
LINE
  5
21ADD
330
747D
100
AcDbEntity
  8
部品1
100
AcDbLine
 10
11770.61595951255
 20
3671.138025735733
 30
0.0
 11
4538.941973470825
 21
3671.138025735734
 31
0.0
  0
LINE
  5
21ADE
330
747D
100
AcDbEntity
  8
部品1
100
AcDbLine
 10
11770.61595951255
 20
3431.138025735734
 30
0.0
 11
4538.941973470817
 21
3431.138025735734
 31
0.0
  0
LINE
  5
21ADF
330
747D
100
AcDbEntity
  8
部品1
100
AcDbLine
 10
4538.941973470825
 20
637.0206279648839
 30
0.0
 11
11770.61595951255
 21
637.0206279648839
 31
0.0
  0
LINE
  5
21B06
330
747D
100
AcDbEntity
  8
部品1
100
AcDbLine
 10
11770.61595951254
 20
3671.138025735733
 30
0.0
 11
11770.61595951254
 21
637.0206279648835
 31
0.0
  0
LINE
  5
21B07
330
747D
100
AcDbEntity
  8
Ｇ．Ｌ
 48
50.0
100
AcDbLine
 10
8584.336653102823
 20
2308.352619445894
 30
0.0
 11
9150.642899266262
 21
2308.352619445894
 31
0.0
  0
DIMENSION
  5
21B08
330
747D
100
AcDbEntity
  8
寸法
 48
50.0
100
AcDbDimension
  2
*D52
 10
8344.336653102825
 20
3008.352619445893
 30
0.0
 11
8464.336653102824
 21
3008.352619445893
 31
0.0
 70
   160
  1
120\P195
 71
     5
 42
240.0
  3
INABA_S50GUP
100
AcDbAlignedDimension
 13
8584.336653102823
 23
2608.352619445893
 33
0.0
 14
8344.336653102825
 24
2608.352619445893
 34
0.0
100
AcDbRotatedDimension
1001
ACAD
1000
DSTYLE
1002
{
1070
   140
1040
100.0
1002
}
  0
MTEXT
  5
21B09
102
{ACAD_REACTORS
330
21B0A
102
}
330
747D
100
AcDbEntity
  8
寸法
 62
     7
 48
50.0
100
AcDbMText
 10
8261.949396705832
 20
2873.997894448446
 30
0.0
 40
100.0
 41
0.0
 71
     6
 72
     1
  1
\A1;金コテ押エ
  7
STYLE1
 73
     1
 44
1.0
1001
ACAD
1000
MTEXTBEGIN
1070
    73
1070
     1
1070
    44
1040
1.0
1070
    74
1070
     0
1000
MTEXTEND
  0
LEADER
  5
21B0A
330
747D
100
AcDbEntity
  8
寸法
 48
50.0
100
AcDbLeader
  3
INABA_S50G
 71
     0
 73
     0
 75
     1
 40
100.0
 41
585.0000000000001
 76
     3
 10
8444.336653102824
 20
2608.352619445893
 30
0.0
 10
8411.949396705832
 20
2798.997894448446
 30
0.0
 10
8286.949396705832
 20
2798.997894448446
 30
0.0
340
21B09
  0
MTEXT
  5
21B0B
102
{ACAD_REACTORS
330
21B0C
102
}
330
747D
100
AcDbEntity
  8
寸法
 62
     7
 48
50.0
100
AcDbMText
 10
8141.601389559159
 20
2428.052412229858
 30
0.0
 40
100.0
 41
0.0
 71
     6
 72
     1
  1
D13
  7
STYLE1
 73
     1
 44
1.0
1001
ACAD
1000
MTEXTBEGIN
1070
    73
1070
     1
1070
    44
1040
1.0
1070
    74
1070
     0
1000
MTEXTEND
  0
LEADER
  5
21B0C
330
747D
100
AcDbEntity
  8
寸法
 48
50.0
100
AcDbLeader
  3
INABA_S50G
 71
     0
 73
     0
 75
     1
 40
101.39087296526
 41
174.1421356237309
 76
     3
 10
8464.336653102824
 20
2433.6706561887
 30
0.0
 10
8291.60138955916
 20
2352.356975747229
 30
0.0
 10
8166.60138955916
 20
2352.356975747229
 30
0.0
340
21B0B
  0
TEXT
  5
21B0D
330
747D
100
AcDbEntity
  8
部品1
 48
50.0
100
AcDbText
 10
7975.010042386005
 20
2141.554553486523
 30
0.0
 40
100.0
  1
G.L
  7
STYLE1
100
AcDbText
  0
LINE
  5
21B0E
330
747D
100
AcDbEntity
  8
Ｇ．Ｌ
 48
50.0
100
AcDbLine
 10
7826.661775811628
 20
2132.188726583811
 30
0.0
 11
8344.336653102825
 21
2132.188726583811
 31
0.0
  0
DIMENSION
  5
21B0F
330
747D
100
AcDbEntity
  8
寸法
 48
50.0
100
AcDbDimension
  2
*D53
 10
7658.69171506676
 20
1628.352619445893
 30
0.0
 11
7658.69171506676
 21
2118.352619445893
 31
0.0
 70
   160
  1
540
 71
     5
 42
980.0000000000002
  3
INABA_S50GUP
100
AcDbAlignedDimension
 13
8344.336653102825
 23
2608.352619445893
 33
0.0
 14
8084.336653102823
 24
1628.352619445892
 34
0.0
 50
90.0
100
AcDbRotatedDimension
1001
ACAD
1000
DSTYLE
1002
{
1070
   140
1040
100.0
1002
}
  0
DIMENSION
  5
21B10
330
747D
100
AcDbEntity
  8
寸法
 48
50.0
100
AcDbDimension
  2
*D54
 10
7931.311260937249
 20
1628.352619445892
 30
0.0
 11
7931.311260937249
 21
1778.352619445892
 31
0.0
 70
   160
  1
150
 71
     5
 42
300.0
  3
INABA_S50GUP
100
AcDbAlignedDimension
 13
8184.336653102823
 23
1928.352619445892
 33
0.0
 14
8084.336653102823
 24
1628.352619445892
 34
0.0
 50
90.0
100
AcDbRotatedDimension
1001
ACAD
1000
DSTYLE
1002
{
1070
   140
1040
100.0
1002
}
  0
LEADER
  5
21B11
330
747D
100
AcDbEntity
  8
寸法
 48
50.0
100
AcDbLeader
  3
INABA_S50G
 71
     0
 73
     0
 75
     1
 40
101.39087296526
 41
170.0787401574803
 76
     3
 10
8304.082277250259
 20
1778.352619445892
 30
0.0
 10
8138.043345080266
 20
1433.378929659127
 30
0.0
 10
8013.043345080266
 20
1433.378929659127
 30
0.0
340
21B12
  0
MTEXT
  5
21B12
102
{ACAD_REACTORS
330
21B11
102
}
330
747D
100
AcDbEntity
  8
寸法
 62
     7
 48
50.0
100
AcDbMText
 10
7988.043345080265
 20
1509.074366141757
 30
0.0
 40
100.0
 41
0.0
 71
     6
 72
     1
  1
D10
  7
STYLE1
 73
     1
 44
1.0
1001
ACAD
1000
MTEXTBEGIN
1070
    73
1070
     1
1070
    44
1040
1.0
1070
    74
1070
     0
1000
MTEXTEND
  0
LINE
  5
21B13
330
747D
100
AcDbEntity
  8
部品1
 48
50.0
100
AcDbLine
 10
7972.918687016006
 20
2215.658851432235
 30
0.0
 11
7924.727187965479
 21
2132.188726583811
 31
0.0
  0
LINE
  5
21B14
330
747D
100
AcDbEntity
  8
部品1
 48
50.0
100
AcDbLine
 10
7876.53568891495
 20
2215.658851432235
 30
0.0
 11
7972.918687016006
 21
2215.658851432235
 31
0.0
  0
LINE
  5
21B15
330
747D
100
AcDbEntity
  8
部品1
 48
50.0
100
AcDbLine
 10
7876.53568891495
 20
2215.658851432235
 30
0.0
 11
7924.727187965479
 21
2132.188726583811
 31
0.0
  0
LINE
  5
21B16
330
747D
100
AcDbEntity
  8
部品1
 48
50.0
100
AcDbLine
 10
8744.336653102825
 20
1928.352619445892
 30
0.0
 11
8744.336653102825
 21
1628.352619445892
 31
0.0
  0
LINE
  5
21B17
330
747D
100
AcDbEntity
  8
部品1
 48
50.0
100
AcDbLine
 10
8184.336653102823
 20
1628.352619445892
 30
0.0
 11
8184.336653102823
 21
1928.352619445892
 31
0.0
  0
LINE
  5
21B18
330
747D
100
AcDbEntity
  8
細線
 48
50.0
100
AcDbLine
 10
8255.185904532185
 20
1628.352619445892
 30
0.0
 11
8375.185904532186
 21
1748.352619445892
 31
0.0
  0
LINE
  5
21B19
330
747D
100
AcDbEntity
  8
細線
 48
50.0
100
AcDbLine
 10
8187.833983624166
 20
1628.352619445892
 30
0.0
 11
8307.833983624167
 21
1748.352619445892
 31
0.0
  0
LINE
  5
21B1A
330
747D
100
AcDbEntity
  8
細線
 48
50.0
100
AcDbLine
 10
8221.50994407818
 20
1628.352619445892
 30
0.0
 11
8341.509944078181
 21
1748.352619445892
 31
0.0
  0
LINE
  5
21B1B
330
747D
100
AcDbEntity
  8
細線
 48
50.0
100
AcDbLine
 10
8524.593588164259
 20
1628.352619445892
 30
0.0
 11
8644.594697970687
 21
1748.353729252317
 31
0.0
  0
LINE
  5
21B1C
330
747D
100
AcDbEntity
  8
細線
 48
50.0
100
AcDbLine
 10
8457.241667256241
 20
1628.352619445892
 30
0.0
 11
8577.241667256242
 21
1748.352619445892
 31
0.0
  0
LINE
  5
21B1D
330
747D
100
AcDbEntity
  8
細線
 48
50.0
100
AcDbLine
 10
8490.917627710254
 20
1628.352619445892
 30
0.0
 11
8610.917627710255
 21
1748.352619445892
 31
0.0
  0
LINE
  5
21B1E
330
747D
100
AcDbEntity
  8
寸法
 48
50.0
100
AcDbLine
 10
8138.043345080266
 20
1433.378929659126
 30
0.0
 11
8624.336653102824
 21
1778.352619445892
 31
0.0
  0
MTEXT
  5
21B1F
102
{ACAD_REACTORS
330
21B20
102
}
330
747D
100
AcDbEntity
  8
寸法
 62
     7
 48
50.0
100
AcDbMText
 10
8970.490665381182
 20
1649.89256783401
 30
0.0
 40
100.0
 41
0.0
 71
     4
 72
     1
  1
\A1;D10@300
  7
STYLE1
 73
     1
 44
1.0
1001
ACAD
1000
MTEXTBEGIN
1070
    73
1070
     1
1070
    44
1040
1.0
1070
    74
1070
     0
1000
MTEXTEND
  0
LEADER
  5
21B20
330
747D
100
AcDbEntity
  8
寸法
 48
50.0
100
AcDbLeader
  3
INABA_S50G
 71
     0
 73
     0
 74
     0
 75
     1
 40
132.9441738241594
 41
490.0787401574802
 76
     3
 10
8643.758036989487
 20
1755.669443632507
 30
0.0
 10
8820.490665381184
 20
1558.42048092193
 30
0.0
 10
8945.490665381184
 20
1558.42048092193
 30
0.0
340
21B1F
  0
DIMENSION
  5
21B21
330
747D
100
AcDbEntity
  8
寸法
 48
50.0
100
AcDbDimension
  2
*D55
 10
8744.336653102825
 20
1169.400512989958
 30
0.0
 11
8464.336653102824
 21
1169.400512989958
 31
0.0
 70
   160
  1
300
 71
     5
 42
560.0
  3
INABA_S50GUP
100
AcDbAlignedDimension
 13
8184.336653102823
 23
1468.352619445892
 33
0.0
 14
8744.336653102825
 24
1468.352619445892
 34
0.0
100
AcDbRotatedDimension
1001
ACAD
1000
DSTYLE
1002
{
1070
   140
1040
100.0
1002
}
  0
LINE
  5
21B22
330
747D
100
AcDbEntity
  8
細線
 48
50.0
100
AcDbLine
 10
8440.815202472846
 20
1468.352619445892
 30
0.0
 11
8483.687073261824
 21
1628.352619445892
 31
0.0
  0
LINE
  5
21B23
330
747D
100
AcDbEntity
  8
部品1
 48
50.0
100
AcDbLine
 10
8844.336653102825
 20
1468.352619445892
 30
0.0
 11
8084.336653102823
 21
1468.352619445892
 31
0.0
  0
LINE
  5
21B24
330
747D
100
AcDbEntity
  8
部品1
 48
50.0
100
AcDbLine
 10
8837.992337212275
 20
1628.352619445892
 30
0.0
 11
8084.336653102823
 21
1628.352619445892
 31
0.0
  0
LINE
  5
21B25
330
747D
100
AcDbEntity
  8
細線
 48
50.0
100
AcDbLine
 10
8278.428485120773
 20
1598.352619445892
 30
0.0
 11
8270.39000934784
 21
1628.352619445892
 31
0.0
  0
LINE
  5
21B26
330
747D
100
AcDbEntity
  8
細線
 48
50.0
100
AcDbLine
 10
8243.595090104724
 20
1468.352619445892
 30
0.0
 11
8286.466960893706
 21
1628.352619445892
 31
0.0
  0
LINE
  5
21B27
330
747D
100
AcDbEntity
  8
部品1
 48
50.0
100
AcDbLine
 10
8084.336653102823
 20
1468.352619445892
 30
0.0
 11
8084.336653102823
 21
1628.352619445892
 31
0.0
  0
LINE
  5
21B28
330
747D
100
AcDbEntity
  8
細線
 48
50.0
100
AcDbLine
 10
8251.633565877661
 20
1498.352619445892
 30
0.0
 11
8259.672041650594
 21
1468.352619445892
 31
0.0
  0
LINE
  5
21B29
330
747D
100
AcDbEntity
  8
細線
 48
50.0
100
AcDbLine
 10
8144.985033920645
 20
1468.352619445892
 30
0.0
 11
8187.856904709645
 21
1628.352619445892
 31
0.0
  0
LINE
  5
21B2A
330
747D
100
AcDbEntity
  8
細線
 48
50.0
100
AcDbLine
 10
8179.818428936693
 20
1598.352619445892
 30
0.0
 11
8171.77995316376
 21
1628.352619445892
 31
0.0
  0
LINE
  5
21B2B
330
747D
100
AcDbEntity
  8
細線
 48
50.0
100
AcDbLine
 10
8153.02350969358
 20
1498.352619445892
 30
0.0
 11
8161.061985466515
 21
1468.352619445892
 31
0.0
  0
LINE
  5
21B2C
330
747D
100
AcDbEntity
  8
細線
 48
50.0
100
AcDbLine
 10
8342.205146288785
 20
1468.352619445892
 30
0.0
 11
8385.077017077763
 21
1628.352619445892
 31
0.0
  0
LINE
  5
21B2D
330
747D
100
AcDbEntity
  8
細線
 48
50.0
100
AcDbLine
 10
8350.243622061718
 20
1498.352619445892
 30
0.0
 11
8358.282097834651
 21
1468.352619445892
 31
0.0
  0
LINE
  5
21B2E
330
747D
100
AcDbEntity
  8
細線
 48
50.0
100
AcDbLine
 10
8448.853678245782
 20
1498.352619445892
 30
0.0
 11
8456.892154018715
 21
1468.352619445892
 31
0.0
  0
LINE
  5
21B2F
330
747D
100
AcDbEntity
  8
細線
 48
50.0
100
AcDbLine
 10
8377.03854130483
 20
1598.352619445892
 30
0.0
 11
8369.000065531897
 21
1628.352619445892
 31
0.0
  0
LINE
  5
21B30
330
747D
100
AcDbEntity
  8
細線
 48
50.0
100
AcDbLine
 10
8475.648597488895
 20
1598.352619445892
 30
0.0
 11
8467.610121715962
 21
1628.352619445892
 31
0.0
  0
LINE
  5
21B31
330
747D
100
AcDbEntity
  8
細線
 48
50.0
100
AcDbLine
 10
8539.425258656908
 20
1468.352619445892
 30
0.0
 11
8582.297129445885
 21
1628.352619445892
 31
0.0
  0
LINE
  5
21B32
330
747D
100
AcDbEntity
  8
細線
 48
50.0
100
AcDbLine
 10
8547.463734429841
 20
1498.352619445892
 30
0.0
 11
8555.502210202774
 21
1468.352619445892
 31
0.0
  0
LINE
  5
21B33
330
747D
100
AcDbEntity
  8
細線
 48
50.0
100
AcDbLine
 10
8646.073790613899
 20
1498.352619445892
 30
0.0
 11
8654.112266386832
 21
1468.352619445892
 31
0.0
  0
LINE
  5
21B34
330
747D
100
AcDbEntity
  8
細線
 48
50.0
100
AcDbLine
 10
8574.258653672952
 20
1598.352619445892
 30
0.0
 11
8566.220177900019
 21
1628.352619445892
 31
0.0
  0
LINE
  5
21B35
330
747D
100
AcDbEntity
  8
細線
 48
50.0
100
AcDbLine
 10
8672.868709857018
 20
1598.352619445892
 30
0.0
 11
8664.830234084083
 21
1628.352619445892
 31
0.0
  0
LINE
  5
21B36
330
747D
100
AcDbEntity
  8
細線
 48
50.0
100
AcDbLine
 10
8638.035314840966
 20
1468.352619445892
 30
0.0
 11
8680.907185629946
 21
1628.352619445892
 31
0.0
  0
LINE
  5
21B37
330
747D
100
AcDbEntity
  8
部品1
 48
50.0
100
AcDbLine
 10
8844.336653102825
 20
1628.352619445892
 30
0.0
 11
8844.336653102825
 21
1468.352619445892
 31
0.0
  0
LINE
  5
21B38
330
747D
100
AcDbEntity
  8
細線
 48
50.0
100
AcDbLine
 10
8736.645371025026
 20
1468.352619445892
 30
0.0
 11
8779.51724181401
 21
1628.352619445892
 31
0.0
  0
LINE
  5
21B39
330
747D
100
AcDbEntity
  8
細線
 48
50.0
100
AcDbLine
 10
8726.649350888315
 20
1628.352619445892
 30
0.0
 11
8744.336653102825
 21
1646.039921660399
 31
0.0
  0
LINE
  5
21B3A
330
747D
100
AcDbEntity
  8
細線
 48
50.0
100
AcDbLine
 10
8771.478766041079
 20
1598.352619445891
 30
0.0
 11
8763.440290268146
 21
1628.352619445891
 31
0.0
  0
LINE
  5
21B3B
330
747D
100
AcDbEntity
  8
細線
 48
50.0
100
AcDbLine
 10
8744.683846797959
 20
1498.352619445891
 30
0.0
 11
8752.722322570894
 21
1468.352619445892
 31
0.0
  0
MTEXT
  5
21B3C
102
{ACAD_REACTORS
330
21B3D
102
}
330
747D
100
AcDbEntity
  8
寸法
 62
     7
 48
50.0
100
AcDbMText
 10
8817.266181154719
 20
2518.925822409069
 30
0.0
 40
100.0
 41
0.0
 71
     4
 72
     1
  1
\A1;D10@300
  7
STYLE1
 73
     1
 44
1.0
1001
ACAD
1000
MTEXTBEGIN
1070
    73
1070
     1
1070
    44
1040
1.0
1070
    74
1070
     0
1000
MTEXTEND
  0
LEADER
  5
21B3D
330
747D
100
AcDbEntity
  8
寸法
 48
50.0
100
AcDbLeader
  3
INABA_S50G
 71
     0
 73
     0
 74
     0
 75
     1
 40
132.9441738241594
 41
490.0787401574802
 76
     3
 10
8482.894448640834
 20
2306.011637817296
 30
0.0
 10
8667.266181154721
 20
2427.453735496989
 30
0.0
 10
8792.266181154721
 20
2427.453735496989
 30
0.0
340
21B3C
  0
LINE
  5
21B3E
330
747D
100
AcDbEntity
  8
部品1
 48
50.0
100
AcDbLine
 10
8344.336653102825
 20
1928.352619445892
 30
0.0
 11
8344.336653102825
 21
2608.352619445893
 31
0.0
  0
LINE
  5
21B3F
330
747D
100
AcDbEntity
  8
部品1
 48
50.0
100
AcDbLine
 10
8584.336653102823
 20
2608.352619445893
 30
0.0
 11
8584.336653102823
 21
1928.352619445892
 31
0.0
  0
LINE
  5
21B40
330
747D
100
AcDbEntity
  8
部品1
 48
50.0
100
AcDbLine
 10
8494.336653102832
 20
1778.352619445892
 30
0.0
 11
8494.336653102825
 21
2433.6706561887
 31
0.0
  0
LINE
  5
21B41
330
747D
100
AcDbEntity
  8
部品1
 48
50.0
100
AcDbLine
 10
8474.336653102831
 20
1778.352619445892
 30
0.0
 11
8474.336653102824
 21
2433.6706561887
 31
0.0
  0
LINE
  5
21B42
330
747D
100
AcDbEntity
  8
細線
 48
50.0
100
AcDbLine
 10
8494.336653102825
 20
2204.262972556625
 30
0.0
 11
8584.336653102823
 21
2294.262972556623
 31
0.0
  0
LINE
  5
21B43
330
747D
100
AcDbEntity
  8
細線
 48
50.0
100
AcDbLine
 10
8494.336653102832
 20
2170.587012102617
 30
0.0
 11
8584.336653102823
 21
2260.587012102614
 31
0.0
  0
LINE
  5
21B44
330
747D
100
AcDbEntity
  8
寸法
 48
50.0
100
AcDbLine
 10
8291.60138955916
 20
2352.356975747229
 30
0.0
 11
8464.336653102824
 21
1778.352619445892
 31
0.0
  0
LINE
  5
21B45
330
747D
100
AcDbEntity
  8
部品1
 48
50.0
100
AcDbLine
 10
8254.336653102823
 20
1748.352619445892
 30
0.0
 11
8674.336653102825
 21
1748.352619445892
 31
0.0
  0
LINE
  5
21B46
330
747D
100
AcDbEntity
  8
部品1
 48
50.0
100
AcDbLine
 10
8254.336653102823
 20
1768.352619445892
 30
0.0
 11
8674.336653102825
 21
1768.352619445892
 31
0.0
  0
LINE
  5
21B47
330
747D
100
AcDbEntity
  8
細線
 48
50.0
100
AcDbLine
 10
8184.336653102823
 20
1826.911051648604
 30
0.0
 11
8285.778220900111
 21
1928.352619445892
 31
0.0
  0
LINE
  5
21B48
330
747D
100
AcDbEntity
  8
部品1
 48
50.0
100
AcDbLine
 10
8184.336653102823
 20
1928.352619445892
 30
0.0
 11
8344.336653102825
 21
1928.352619445892
 31
0.0
  0
LINE
  5
21B49
330
747D
100
AcDbEntity
  8
部品1
 48
50.0
100
AcDbLine
 10
8254.336653102823
 20
1748.352619445892
 30
0.0
 11
8254.336653102823
 21
1768.352619445892
 31
0.0
  0
LINE
  5
21B4A
330
747D
100
AcDbEntity
  8
細線
 48
50.0
100
AcDbLine
 10
8184.336653102823
 20
1894.262972556623
 30
0.0
 11
8218.426299992092
 21
1928.352619445892
 31
0.0
  0
LINE
  5
21B4B
330
747D
100
AcDbEntity
  8
細線
 48
50.0
100
AcDbLine
 10
8184.336653102823
 20
1860.587012102613
 30
0.0
 11
8252.102260446106
 21
1928.352619445892
 31
0.0
  0
LINE
  5
21B4C
330
747D
100
AcDbEntity
  8
細線
 48
50.0
100
AcDbLine
 10
8361.50994407818
 20
1768.352619445892
 30
0.0
 11
8434.336653102823
 21
1841.179328470541
 31
0.0
  0
LINE
  5
21B4D
330
747D
100
AcDbEntity
  8
細線
 48
50.0
100
AcDbLine
 10
8327.833983624167
 20
1768.352619445892
 30
0.0
 11
8474.336653102824
 21
1914.855288924552
 31
0.0
  0
LINE
  5
21B4E
330
747D
100
AcDbEntity
  8
細線
 48
50.0
100
AcDbLine
 10
8395.185904532185
 20
1768.352619445892
 30
0.0
 11
8434.336653102823
 21
1807.503368016529
 31
0.0
  0
CIRCLE
  5
21B4F
330
747D
100
AcDbEntity
  8
部品1
 48
50.0
100
AcDbCircle
 10
8304.336653102824
 20
1778.352619445892
 30
0.0
 40
10.0
  0
CIRCLE
  5
21B50
330
747D
100
AcDbEntity
  8
部品1
 48
50.0
100
AcDbCircle
 10
8464.336653102824
 20
1778.352619445892
 30
0.0
 40
10.0
  0
ARC
  5
21B51
330
747D
100
AcDbEntity
  8
部品1
 48
50.0
100
AcDbCircle
 10
8464.336653102824
 20
1778.352619445892
 30
0.0
 40
30.0
100
AcDbArc
 50
180.0
 51
199.4712206344713
  0
LINE
  5
21B52
330
747D
100
AcDbEntity
  8
部品1
 48
50.0
100
AcDbLine
 10
8454.336653102824
 20
1851.011637817296
 30
0.0
 11
8454.336653102824
 21
1778.352619445892
 31
0.0
  0
LINE
  5
21B53
330
747D
100
AcDbEntity
  8
細線
 48
50.0
100
AcDbLine
 10
8454.336653102828
 20
1827.503368016531
 30
0.0
 11
8474.336653102831
 21
1847.503368016533
 31
0.0
  0
LINE
  5
21B54
330
747D
100
AcDbEntity
  8
部品1
 48
50.0
100
AcDbLine
 10
8434.336653102823
 20
1851.011637817296
 30
0.0
 11
8434.336653102823
 21
1778.352619445892
 31
0.0
  0
LINE
  5
21B55
330
747D
100
AcDbEntity
  8
部品1
 48
50.0
100
AcDbLine
 10
8454.336653102824
 20
1851.011637817296
 30
0.0
 11
8434.336653102823
 21
1851.011637817296
 31
0.0
  0
LINE
  5
21B56
330
747D
100
AcDbEntity
  8
細線
 48
50.0
100
AcDbLine
 10
8444.168962449584
 20
1851.011637817296
 30
0.0
 11
8474.336653102831
 21
1881.179328470542
 31
0.0
  0
LINE
  5
21B57
330
747D
100
AcDbEntity
  8
細線
 48
50.0
100
AcDbLine
 10
8344.336653102825
 20
2054.262972556625
 30
0.0
 11
8474.336653102824
 21
2184.262972556625
 31
0.0
  0
LINE
  5
21B58
330
747D
100
AcDbEntity
  8
細線
 48
50.0
100
AcDbLine
 10
8344.336653102825
 20
1986.911051648606
 30
0.0
 11
8474.336653102829
 21
2116.911051648606
 31
0.0
  0
LINE
  5
21B59
330
747D
100
AcDbEntity
  8
細線
 48
50.0
100
AcDbLine
 10
8344.336653102825
 20
2020.587012102615
 30
0.0
 11
8474.336653102831
 21
2150.587012102617
 31
0.0
  0
LINE
  5
21B5A
330
747D
100
AcDbEntity
  8
細線
 48
50.0
100
AcDbLine
 10
8494.336653102832
 20
1934.855288924553
 30
0.0
 11
8584.336653102823
 21
2024.855288924548
 31
0.0
  0
LINE
  5
21B5B
330
747D
100
AcDbEntity
  8
細線
 48
50.0
100
AcDbLine
 10
8494.336653102832
 20
1901.179328470544
 30
0.0
 11
8584.336653102823
 21
1991.179328470539
 31
0.0
  0
LINE
  5
21B5C
330
747D
100
AcDbEntity
  8
細線
 48
50.0
100
AcDbLine
 10
8630.917627710253
 20
1768.352619445892
 30
0.0
 11
8744.336653102825
 21
1881.771644838466
 31
0.0
  0
LINE
  5
21B5D
330
747D
100
AcDbEntity
  8
細線
 48
50.0
100
AcDbLine
 10
8597.241667256238
 20
1768.352619445892
 30
0.0
 11
8744.336653102825
 21
1915.447605292475
 31
0.0
  0
LINE
  5
21B5E
330
747D
100
AcDbEntity
  8
細線
 48
50.0
100
AcDbLine
 10
8664.593588164263
 20
1768.352619445892
 30
0.0
 11
8744.336653102825
 21
1848.095684384455
 31
0.0
  0
LINE
  5
21B5F
330
747D
100
AcDbEntity
  8
部品1
 48
50.0
100
AcDbLine
 10
8584.336653102823
 20
1928.352619445892
 30
0.0
 11
8744.336653102825
 21
1928.352619445892
 31
0.0
  0
ARC
  5
21B60
330
747D
100
AcDbEntity
  8
部品1
 48
50.0
100
AcDbCircle
 10
8464.336653102824
 20
1778.352619445892
 30
0.0
 40
30.0
100
AcDbArc
 50
340.5287793655287
 51
0.0
  0
CIRCLE
  5
21B61
330
747D
100
AcDbEntity
  8
部品1
 48
50.0
100
AcDbCircle
 10
8624.336653102824
 20
1778.352619445892
 30
0.0
 40
10.0
  0
LINE
  5
21B62
330
747D
100
AcDbEntity
  8
部品1
 48
50.0
100
AcDbLine
 10
8674.336653102825
 20
1748.352619445892
 30
0.0
 11
8674.336653102825
 21
1768.352619445892
 31
0.0
  0
LINE
  5
21B63
330
747D
100
AcDbEntity
  8
細線
 48
50.0
100
AcDbLine
 10
8494.336653102832
 20
1867.503368016533
 30
0.0
 11
8584.336653102823
 21
1957.503368016529
 31
0.0
  0
LINE
  5
21B64
330
747D
100
AcDbEntity
  8
細線
 48
50.0
100
AcDbLine
 10
8494.336653102832
 20
2136.911051648608
 30
0.0
 11
8584.336653102823
 21
2226.911051648604
 31
0.0
  0
LINE
  5
21B65
330
747D
100
AcDbEntity
  8
部品1
 48
50.0
100
AcDbLine
 10
8344.336653102825
 20
2608.352619445893
 30
0.0
 11
8584.336653102823
 21
2608.352619445893
 31
0.0
  0
LINE
  5
21B66
330
747D
100
AcDbEntity
  8
細線
100
AcDbLine
 10
8458.913505655599
 20
2574.704568458797
 30
0.0
 11
8514.643494294034
 21
2576.342313156186
 31
0.0
  0
ARC
  5
21B67
330
747D
100
AcDbEntity
  8
部品1
 48
50.0
100
AcDbCircle
 10
8464.336653102824
 20
2433.6706561887
 30
0.0
 40
30.0
100
AcDbArc
 50
0.0
 51
180.0
  0
LINE
  5
21B68
330
747D
100
AcDbEntity
  8
細線
 48
50.0
100
AcDbLine
 10
8344.336653102825
 20
2525.726418912756
 30
0.0
 11
8386.763994150252
 21
2568.153759960181
 31
0.0
  0
LINE
  5
21B69
330
747D
100
AcDbEntity
  8
細線
 48
50.0
100
AcDbLine
 10
8344.336653102825
 20
2323.670656188699
 30
0.0
 11
8434.336653102823
 21
2413.6706561887
 31
0.0
  0
LINE
  5
21B6A
330
747D
100
AcDbEntity
  8
細線
 48
50.0
100
AcDbLine
 10
8344.336653102825
 20
2289.99469573469
 30
0.0
 11
8434.336653102823
 21
2379.99469573469
 31
0.0
  0
CIRCLE
  5
21B6B
330
747D
100
AcDbEntity
  8
部品1
 48
50.0
100
AcDbCircle
 10
8464.336653102824
 20
2433.6706561887
 30
0.0
 40
10.0
  0
LINE
  5
21B6C
330
747D
100
AcDbEntity
  8
部品1
 48
50.0
100
AcDbLine
 10
8454.336653102824
 20
2361.011637817296
 30
0.0
 11
8454.336653102824
 21
2433.6706561887
 31
0.0
  0
LINE
  5
21B6D
330
747D
100
AcDbEntity
  8
細線
 48
50.0
100
AcDbLine
 10
8454.336653102824
 20
2399.99469573469
 30
0.0
 11
8474.336653102824
 21
2419.99469573469
 31
0.0
  0
LINE
  5
21B6E
330
747D
100
AcDbEntity
  8
部品1
 48
50.0
100
AcDbLine
 10
8434.336653102823
 20
2361.011637817298
 30
0.0
 11
8434.336653102823
 21
2433.670656188701
 31
0.0
  0
LINE
  5
21B6F
330
747D
100
AcDbEntity
  8
部品1
 48
50.0
100
AcDbLine
 10
8454.336653102824
 20
2361.011637817296
 30
0.0
 11
8434.336653102823
 21
2361.011637817298
 31
0.0
  0
LINE
  5
21B70
330
747D
100
AcDbEntity
  8
細線
 48
50.0
100
AcDbLine
 10
8454.336653102828
 20
2366.318735280681
 30
0.0
 11
8474.336653102824
 21
2386.318735280681
 31
0.0
  0
LINE
  5
21B71
330
747D
100
AcDbEntity
  8
細線
 48
50.0
100
AcDbLine
 10
8344.336653102825
 20
2256.318735280681
 30
0.0
 11
8449.029555639443
 21
2361.011637817296
 31
0.0
  0
LINE
  5
21B72
330
747D
100
AcDbEntity
  8
細線
100
AcDbLine
 10
8344.336653102825
 20
2577.980001089932
 30
0.0
 11
8381.874976608854
 21
2568.153759960181
 31
0.0
  0
LINE
  5
21B73
330
747D
100
AcDbEntity
  8
細線
 48
50.0
100
AcDbLine
 10
8344.336653102825
 20
2559.402379366765
 30
0.0
 11
8359.060165914135
 21
2574.125892178071
 31
0.0
  0
LINE
  5
21B74
330
747D
100
AcDbEntity
  8
細線
100
AcDbLine
 10
8381.874976608854
 20
2568.153759960181
 30
0.0
 11
8417.935551356286
 21
2568.153759960181
 31
0.0
  0
LINE
  5
21B75
330
747D
100
AcDbEntity
  8
細線
100
AcDbLine
 10
8417.935551356286
 20
2568.153759960181
 30
0.0
 11
8458.913505655599
 21
2574.704568458797
 31
0.0
  0
LINE
  5
21B76
330
747D
100
AcDbEntity
  8
細線
 48
50.0
100
AcDbLine
 10
8479.952181230919
 20
2459.286184316788
 30
0.0
 11
8584.336653102823
 21
2563.6706561887
 31
0.0
  0
LINE
  5
21B77
330
747D
100
AcDbEntity
  8
細線
 48
50.0
100
AcDbLine
 10
8494.336653102825
 20
2406.318735280681
 30
0.0
 11
8584.336653102823
 21
2496.318735280681
 31
0.0
  0
LINE
  5
21B78
330
747D
100
AcDbEntity
  8
細線
 48
50.0
100
AcDbLine
 10
8493.777537185307
 20
2439.435579817168
 30
0.0
 11
8584.336653102823
 21
2529.99469573469
 31
0.0
  0
LINE
  5
21B79
330
747D
100
AcDbEntity
  8
細線
100
AcDbLine
 10
8544.147562972261
 20
2574.704568458797
 30
0.0
 11
8584.336653102823
 21
2566.516015262794
 31
0.0
  0
LINE
  5
21B7A
330
747D
100
AcDbEntity
  8
細線
100
AcDbLine
 10
8514.643494294034
 20
2576.342313156186
 30
0.0
 11
8544.147562972261
 21
2574.704568458797
 31
0.0
  0
LINE
  5
21B7B
330
747D
100
AcDbEntity
  8
部品1
 48
50.0
100
AcDbLine
 10
5394.491518542694
 20
2215.658851432235
 30
0.0
 11
5490.874516643751
 21
2215.658851432235
 31
0.0
  0
LINE
  5
21B7C
330
747D
100
AcDbEntity
  8
部品1
 48
50.0
100
AcDbLine
 10
5490.874516643751
 20
2215.658851432235
 30
0.0
 11
5442.683017593223
 21
2132.188726583811
 31
0.0
  0
LINE
  5
21B7D
330
747D
100
AcDbEntity
  8
Ｇ．Ｌ
 48
50.0
100
AcDbLine
 10
5333.120092612531
 20
2132.188726583815
 30
0.0
 11
5850.794969903727
 21
2132.188726583815
 31
0.0
  0
LINE
  5
21B7E
330
747D
100
AcDbEntity
  8
部品1
 48
50.0
100
AcDbLine
 10
5394.491518542694
 20
2215.658851432235
 30
0.0
 11
5442.683017593223
 21
2132.188726583811
 31
0.0
  0
LINE
  5
21B7F
330
747D
100
AcDbEntity
  8
細線
 48
50.0
100
AcDbLine
 10
6031.051904965163
 20
1628.352619445892
 30
0.0
 11
6151.053014771584
 21
1748.353729252317
 31
0.0
  0
LINE
  5
21B80
330
747D
100
AcDbEntity
  8
部品1
 48
50.0
100
AcDbLine
 10
6250.794969903727
 20
1928.352619445892
 30
0.0
 11
6250.794969903727
 21
1628.352619445892
 31
0.0
  0
LINE
  5
21B81
330
747D
100
AcDbEntity
  8
部品1
 48
50.0
100
AcDbLine
 10
5690.794969903727
 20
1628.352619445892
 30
0.0
 11
5690.794969903727
 21
1928.352619445892
 31
0.0
  0
LINE
  5
21B82
330
747D
100
AcDbEntity
  8
細線
 48
50.0
100
AcDbLine
 10
5727.968260879076
 20
1628.352619445892
 30
0.0
 11
5847.968260879075
 21
1748.352619445892
 31
0.0
  0
LINE
  5
21B83
330
747D
100
AcDbEntity
  8
細線
 48
50.0
100
AcDbLine
 10
5761.644221333089
 20
1628.352619445892
 30
0.0
 11
5881.644221333089
 21
1748.352619445892
 31
0.0
  0
LINE
  5
21B84
330
747D
100
AcDbEntity
  8
細線
 48
50.0
100
AcDbLine
 10
5694.29230042507
 20
1628.352619445892
 30
0.0
 11
5814.292300425069
 21
1748.352619445892
 31
0.0
  0
LINE
  5
21B85
330
747D
100
AcDbEntity
  8
細線
 48
50.0
100
AcDbLine
 10
5963.699984057144
 20
1628.352619445892
 30
0.0
 11
6083.699984057144
 21
1748.352619445892
 31
0.0
  0
LINE
  5
21B86
330
747D
100
AcDbEntity
  8
細線
 48
50.0
100
AcDbLine
 10
5997.37594451115
 20
1628.352619445892
 30
0.0
 11
6117.37594451115
 21
1748.352619445892
 31
0.0
  0
LINE
  5
21B87
330
747D
100
AcDbEntity
  8
部品1
 48
50.0
100
AcDbLine
 10
6350.794969903726
 20
1628.352619445892
 30
0.0
 11
5590.794969903727
 21
1628.352619445892
 31
0.0
  0
LINE
  5
21B88
330
747D
100
AcDbEntity
  8
部品1
 48
50.0
100
AcDbLine
 10
6350.794969903726
 20
1468.352619445892
 30
0.0
 11
5590.794969903727
 21
1468.352619445892
 31
0.0
  0
LINE
  5
21B89
330
747D
100
AcDbEntity
  8
細線
 48
50.0
100
AcDbLine
 10
5651.44335072155
 20
1468.352619445892
 30
0.0
 11
5694.315221510544
 21
1628.352619445892
 31
0.0
  0
LINE
  5
21B8A
330
747D
100
AcDbEntity
  8
細線
 48
50.0
100
AcDbLine
 10
5686.276745737596
 20
1598.352619445892
 30
0.0
 11
5678.238269964662
 21
1628.352619445892
 31
0.0
  0
LINE
  5
21B8B
330
747D
100
AcDbEntity
  8
細線
 48
50.0
100
AcDbLine
 10
5659.481826494484
 20
1498.352619445892
 30
0.0
 11
5667.520302267417
 21
1468.352619445892
 31
0.0
  0
LINE
  5
21B8C
330
747D
100
AcDbEntity
  8
部品1
 48
50.0
100
AcDbLine
 10
5590.794969903727
 20
1468.352619445892
 30
0.0
 11
5590.794969903727
 21
1628.352619445892
 31
0.0
  0
LINE
  5
21B8D
330
747D
100
AcDbEntity
  8
細線
 48
50.0
100
AcDbLine
 10
5750.053406905623
 20
1468.352619445892
 30
0.0
 11
5792.925277694601
 21
1628.352619445892
 31
0.0
  0
LINE
  5
21B8E
330
747D
100
AcDbEntity
  8
細線
 48
50.0
100
AcDbLine
 10
5758.091882678556
 20
1498.352619445892
 30
0.0
 11
5766.13035845149
 21
1468.352619445892
 31
0.0
  0
LINE
  5
21B8F
330
747D
100
AcDbEntity
  8
細線
 48
50.0
100
AcDbLine
 10
5784.886801921668
 20
1598.352619445892
 30
0.0
 11
5776.848326148734
 21
1628.352619445892
 31
0.0
  0
LINE
  5
21B90
330
747D
100
AcDbEntity
  8
細線
 48
50.0
100
AcDbLine
 10
5848.663463089684
 20
1468.352619445892
 30
0.0
 11
5891.535333878667
 21
1628.352619445892
 31
0.0
  0
LINE
  5
21B91
330
747D
100
AcDbEntity
  8
細線
 48
50.0
100
AcDbLine
 10
5856.701938862621
 20
1498.352619445892
 30
0.0
 11
5864.740414635555
 21
1468.352619445892
 31
0.0
  0
LINE
  5
21B92
330
747D
100
AcDbEntity
  8
細線
 48
50.0
100
AcDbLine
 10
5883.496858105733
 20
1598.352619445892
 30
0.0
 11
5875.4583823328
 21
1628.352619445892
 31
0.0
  0
LINE
  5
21B93
330
747D
100
AcDbEntity
  8
細線
 48
50.0
100
AcDbLine
 10
6045.883575457807
 20
1468.352619445892
 30
0.0
 11
6088.755446246786
 21
1628.352619445892
 31
0.0
  0
LINE
  5
21B94
330
747D
100
AcDbEntity
  8
細線
 48
50.0
100
AcDbLine
 10
6053.922051230737
 20
1498.352619445892
 30
0.0
 11
6061.96052700367
 21
1468.352619445892
 31
0.0
  0
LINE
  5
21B95
330
747D
100
AcDbEntity
  8
細線
 48
50.0
100
AcDbLine
 10
6080.716970473855
 20
1598.352619445892
 30
0.0
 11
6072.678494700922
 21
1628.352619445892
 31
0.0
  0
LINE
  5
21B96
330
747D
100
AcDbEntity
  8
細線
 48
50.0
100
AcDbLine
 10
5947.273519273745
 20
1468.352619445892
 30
0.0
 11
5990.145390062724
 21
1628.352619445892
 31
0.0
  0
LINE
  5
21B97
330
747D
100
AcDbEntity
  8
細線
 48
50.0
100
AcDbLine
 10
5955.311995046679
 20
1498.352619445892
 30
0.0
 11
5963.350470819612
 21
1468.352619445892
 31
0.0
  0
LINE
  5
21B98
330
747D
100
AcDbEntity
  8
細線
 48
50.0
100
AcDbLine
 10
5982.10691428979
 20
1598.352619445892
 30
0.0
 11
5974.068438516857
 21
1628.352619445892
 31
0.0
  0
LINE
  5
21B99
330
747D
100
AcDbEntity
  8
細線
 48
50.0
100
AcDbLine
 10
6144.493631641868
 20
1468.352619445892
 30
0.0
 11
6187.365502430846
 21
1628.352619445892
 31
0.0
  0
LINE
  5
21B9A
330
747D
100
AcDbEntity
  8
細線
 48
50.0
100
AcDbLine
 10
6152.532107414802
 20
1498.352619445892
 30
0.0
 11
6160.570583187735
 21
1468.352619445892
 31
0.0
  0
LINE
  5
21B9B
330
747D
100
AcDbEntity
  8
細線
 48
50.0
100
AcDbLine
 10
6179.327026657913
 20
1598.352619445892
 30
0.0
 11
6171.288550884979
 21
1628.352619445892
 31
0.0
  0
LINE
  5
21B9C
330
747D
100
AcDbEntity
  8
細線
 48
50.0
100
AcDbLine
 10
6243.103687825925
 20
1468.352619445892
 30
0.0
 11
6285.975558614904
 21
1628.352619445892
 31
0.0
  0
LINE
  5
21B9D
330
747D
100
AcDbEntity
  8
細線
 48
50.0
100
AcDbLine
 10
6233.107667689218
 20
1628.352619445892
 30
0.0
 11
6250.794969903727
 21
1646.039921660399
 31
0.0
  0
LINE
  5
21B9E
330
747D
100
AcDbEntity
  8
細線
 48
50.0
100
AcDbLine
 10
6277.937082841971
 20
1598.352619445892
 30
0.0
 11
6269.898607069038
 21
1628.352619445892
 31
0.0
  0
LINE
  5
21B9F
330
747D
100
AcDbEntity
  8
細線
 48
50.0
100
AcDbLine
 10
6251.142163598859
 20
1498.352619445892
 30
0.0
 11
6259.180639371792
 21
1468.352619445892
 31
0.0
  0
LINE
  5
21BA0
330
747D
100
AcDbEntity
  8
部品1
 48
50.0
100
AcDbLine
 10
6350.794969903726
 20
1628.352619445892
 30
0.0
 11
6350.794969903726
 21
1468.352619445892
 31
0.0
  0
LINE
  5
21BA1
330
747D
100
AcDbEntity
  8
Ｇ．Ｌ
 48
50.0
100
AcDbLine
 10
6090.794969903727
 20
2308.352619445892
 30
0.0
 11
6443.30027646549
 21
2308.352619445892
 31
0.0
  0
LINE
  5
21BA2
330
747D
100
AcDbEntity
  8
部品1
 48
50.0
100
AcDbLine
 10
6090.794969903727
 20
2608.352619445893
 30
0.0
 11
6090.794969903727
 21
1928.352619445892
 31
0.0
  0
LINE
  5
21BA3
330
747D
100
AcDbEntity
  8
部品1
 48
50.0
100
AcDbLine
 10
5850.794969903727
 20
1928.352619445892
 30
0.0
 11
5850.794969903727
 21
2608.352619445893
 31
0.0
  0
LINE
  5
21BA4
330
747D
100
AcDbEntity
  8
部品1
 48
50.0
100
AcDbLine
 10
5940.794969903727
 20
1778.352619445892
 30
0.0
 11
5940.794969903727
 21
2336.696211618187
 31
0.0
  0
LINE
  5
21BA5
330
747D
100
AcDbEntity
  8
部品1
 48
50.0
100
AcDbLine
 10
5960.794969903727
 20
1778.352619445892
 30
0.0
 11
5960.794969903727
 21
2322.72959318478
 31
0.0
  0
LINE
  5
21BA6
330
747D
100
AcDbEntity
  8
細線
 48
50.0
100
AcDbLine
 10
5960.794969903727
 20
2130.587012102616
 30
0.0
 11
6090.79496990372
 21
2260.587012102614
 31
0.0
  0
LINE
  5
21BA7
330
747D
100
AcDbEntity
  8
細線
 48
50.0
100
AcDbLine
 10
5960.794969903727
 20
2164.262972556626
 30
0.0
 11
6090.794969903727
 21
2294.262972556623
 31
0.0
  0
LINE
  5
21BA8
330
747D
100
AcDbEntity
  8
細線
 48
50.0
100
AcDbLine
 10
5850.794969903727
 20
2054.262972556625
 30
0.0
 11
5940.794969903727
 21
2144.262972556625
 31
0.0
  0
LINE
  5
21BA9
330
747D
100
AcDbEntity
  8
細線
 48
50.0
100
AcDbLine
 10
5850.794969903727
 20
1986.911051648606
 30
0.0
 11
5940.794969903727
 21
2076.911051648608
 31
0.0
  0
LINE
  5
21BAA
330
747D
100
AcDbEntity
  8
細線
 48
50.0
100
AcDbLine
 10
5850.794969903727
 20
2020.587012102615
 30
0.0
 11
5940.794969903727
 21
2110.587012102616
 31
0.0
  0
LINE
  5
21BAB
330
747D
100
AcDbEntity
  8
細線
 48
50.0
100
AcDbLine
 10
5834.29230042507
 20
1768.352619445892
 30
0.0
 11
5940.794969903727
 21
1874.85528892455
 31
0.0
  0
LINE
  5
21BAC
330
747D
100
AcDbEntity
  8
細線
 48
50.0
100
AcDbLine
 10
5867.968260879075
 20
1768.352619445892
 30
0.0
 11
5940.794969903723
 21
1841.179328470541
 31
0.0
  0
LINE
  5
21BAD
330
747D
100
AcDbEntity
  8
部品1
 48
50.0
100
AcDbLine
 10
5760.794969903727
 20
1768.352619445892
 30
0.0
 11
6180.794969903727
 21
1768.352619445892
 31
0.0
  0
LINE
  5
21BAE
330
747D
100
AcDbEntity
  8
部品1
 48
50.0
100
AcDbLine
 10
5760.794969903727
 20
1748.352619445892
 30
0.0
 11
6180.794969903727
 21
1748.352619445892
 31
0.0
  0
LINE
  5
21BAF
330
747D
100
AcDbEntity
  8
細線
 48
50.0
100
AcDbLine
 10
5690.79496990372
 20
1826.911051648604
 30
0.0
 11
5792.236537701014
 21
1928.352619445892
 31
0.0
  0
LINE
  5
21BB0
330
747D
100
AcDbEntity
  8
部品1
 48
50.0
100
AcDbLine
 10
5690.794969903727
 20
1928.352619445892
 30
0.0
 11
5850.794969903727
 21
1928.352619445892
 31
0.0
  0
LINE
  5
21BB1
330
747D
100
AcDbEntity
  8
細線
 48
50.0
100
AcDbLine
 10
5690.79496990372
 20
1860.587012102613
 30
0.0
 11
5758.560577247001
 21
1928.352619445892
 31
0.0
  0
LINE
  5
21BB2
330
747D
100
AcDbEntity
  8
細線
 48
50.0
100
AcDbLine
 10
5690.79496990372
 20
1894.262972556623
 30
0.0
 11
5724.884616792995
 21
1928.352619445892
 31
0.0
  0
CIRCLE
  5
21BB3
330
747D
100
AcDbEntity
  8
部品1
 48
50.0
100
AcDbCircle
 10
5810.794969903727
 20
1778.352619445892
 30
0.0
 40
10.0
  0
LINE
  5
21BB4
330
747D
100
AcDbEntity
  8
部品1
 48
50.0
100
AcDbLine
 10
5760.794969903727
 20
1748.352619445892
 30
0.0
 11
5760.794969903727
 21
1768.352619445892
 31
0.0
  0
TEXT
  5
21BB5
330
747D
100
AcDbEntity
  8
部品1
 48
50.0
100
AcDbText
 10
5492.965872013749
 20
2141.554553486523
 30
0.0
 40
100.0
  1
G.L
  7
STYLE1
100
AcDbText
  0
LINE
  5
21BB6
330
747D
100
AcDbEntity
  8
細線
 48
50.0
100
AcDbLine
 10
5960.794969903727
 20
1894.855288924553
 30
0.0
 11
6090.79496990372
 21
2024.855288924548
 31
0.0
  0
LINE
  5
21BB7
330
747D
100
AcDbEntity
  8
細線
 48
50.0
100
AcDbLine
 10
5960.794969903727
 20
1861.179328470542
 30
0.0
 11
6090.79496990372
 21
1991.179328470539
 31
0.0
  0
LINE
  5
21BB8
330
747D
100
AcDbEntity
  8
部品1
 48
50.0
100
AcDbLine
 10
6090.794969903727
 20
1928.352619445892
 30
0.0
 11
6250.794969903727
 21
1928.352619445892
 31
0.0
  0
LINE
  5
21BB9
330
747D
100
AcDbEntity
  8
細線
 48
50.0
100
AcDbLine
 10
6103.699984057136
 20
1768.352619445892
 30
0.0
 11
6250.794969903727
 21
1915.447605292475
 31
0.0
  0
CIRCLE
  5
21BBA
330
747D
100
AcDbEntity
  8
部品1
 48
50.0
100
AcDbCircle
 10
5970.794969903727
 20
1778.352619445892
 30
0.0
 40
10.0
  0
LINE
  5
21BBB
330
747D
100
AcDbEntity
  8
細線
 48
50.0
100
AcDbLine
 10
5901.644221333088
 20
1768.352619445892
 30
0.0
 11
5940.794969903727
 21
1807.503368016529
 31
0.0
  0
ARC
  5
21BBC
330
747D
100
AcDbEntity
  8
部品1
 48
50.0
100
AcDbCircle
 10
5970.794969903727
 20
1778.352619445892
 30
0.0
 40
30.0
100
AcDbArc
 50
340.5287793655287
 51
0.0
  0
ARC
  5
21BBD
330
747D
100
AcDbEntity
  8
部品1
 48
50.0
100
AcDbCircle
 10
5970.794969903727
 20
1778.352619445892
 30
0.0
 40
30.0
100
AcDbArc
 50
180.0
 51
199.4712206344713
  0
LINE
  5
21BBE
330
747D
100
AcDbEntity
  8
部品1
 48
50.0
100
AcDbLine
 10
5980.794969903727
 20
1851.011637817296
 30
0.0
 11
5980.794969903727
 21
1778.352619445892
 31
0.0
  0
LINE
  5
21BBF
330
747D
100
AcDbEntity
  8
部品1
 48
50.0
100
AcDbLine
 10
6000.794969903727
 20
1851.011637817296
 30
0.0
 11
6000.794969903727
 21
1778.352619445892
 31
0.0
  0
LINE
  5
21BC0
330
747D
100
AcDbEntity
  8
部品1
 48
50.0
100
AcDbLine
 10
5980.794969903727
 20
1851.011637817296
 30
0.0
 11
6000.794969903727
 21
1851.011637817296
 31
0.0
  0
LINE
  5
21BC1
330
747D
100
AcDbEntity
  8
細線
 48
50.0
100
AcDbLine
 10
5960.794969903727
 20
1827.50336801653
 30
0.0
 11
5980.794969903727
 21
1847.50336801653
 31
0.0
  0
LINE
  5
21BC2
330
747D
100
AcDbEntity
  8
細線
 48
50.0
100
AcDbLine
 10
6171.051904965163
 20
1768.352619445892
 30
0.0
 11
6250.794969903727
 21
1848.095684384455
 31
0.0
  0
LINE
  5
21BC3
330
747D
100
AcDbEntity
  8
細線
 48
50.0
100
AcDbLine
 10
6137.375944511154
 20
1768.352619445892
 30
0.0
 11
6250.794969903727
 21
1881.771644838466
 31
0.0
  0
CIRCLE
  5
21BC4
330
747D
100
AcDbEntity
  8
部品1
 48
50.0
100
AcDbCircle
 10
6130.794969903727
 20
1778.352619445892
 30
0.0
 40
10.0
  0
LINE
  5
21BC5
330
747D
100
AcDbEntity
  8
部品1
 48
50.0
100
AcDbLine
 10
6180.794969903727
 20
1748.352619445892
 30
0.0
 11
6180.794969903727
 21
1768.352619445892
 31
0.0
  0
LINE
  5
21BC6
330
747D
100
AcDbEntity
  8
細線
 48
50.0
100
AcDbLine
 10
5960.794969903727
 20
2096.911051648607
 30
0.0
 11
6090.79496990372
 21
2226.911051648604
 31
0.0
  0
LINE
  5
21BC7
330
747D
100
AcDbEntity
  8
細線
100
AcDbLine
 10
5888.333293409749
 20
2568.153759960181
 30
0.0
 11
5924.393868157189
 21
2568.153759960181
 31
0.0
  0
LINE
  5
21BC8
330
747D
100
AcDbEntity
  8
細線
 48
50.0
100
AcDbLine
 10
5850.794969903727
 20
2323.670656188699
 30
0.0
 11
5933.794969903729
 21
2406.6706561887
 31
0.0
  0
LINE
  5
21BC9
330
747D
100
AcDbEntity
  8
細線
 48
50.0
100
AcDbLine
 10
5850.794969903727
 20
2289.99469573469
 30
0.0
 11
5933.794969903728
 21
2372.994695734691
 31
0.0
  0
LINE
  5
21BCA
330
747D
100
AcDbEntity
  8
細線
 48
50.0
100
AcDbLine
 10
5850.794969903727
 20
2256.318735280681
 30
0.0
 11
5937.239474776061
 21
2342.763240153014
 31
0.0
  0
LINE
  5
21BCB
330
747D
100
AcDbEntity
  8
部品1
 48
50.0
100
AcDbLine
 10
5850.794969903727
 20
2608.352619445893
 30
0.0
 11
6090.794969903727
 21
2608.352619445893
 31
0.0
  0
LINE
  5
21BCC
330
747D
100
AcDbEntity
  8
細線
 48
50.0
100
AcDbLine
 10
5850.794969903727
 20
2525.726418912756
 30
0.0
 11
5893.222310951154
 21
2568.153759960182
 31
0.0
  0
LINE
  5
21BCD
330
747D
100
AcDbEntity
  8
細線
 48
50.0
100
AcDbLine
 10
5850.794969903727
 20
2559.402379366765
 30
0.0
 11
5865.518482715033
 21
2574.125892178071
 31
0.0
  0
LINE
  5
21BCE
330
747D
100
AcDbEntity
  8
細線
100
AcDbLine
 10
5850.794969903727
 20
2577.980001089932
 30
0.0
 11
5888.333293409749
 21
2568.153759960181
 31
0.0
  0
LINE
  5
21BCF
330
747D
100
AcDbEntity
  8
部品1
 48
50.0
100
AcDbLine
 10
5960.794969903727
 20
2358.352619445893
 30
0.0
 11
5960.794969903727
 21
2608.352619445893
 31
0.0
  0
LINE
  5
21BD0
330
747D
100
AcDbEntity
  8
部品1
 48
50.0
100
AcDbLine
 10
5933.794969903727
 20
2358.352619445893
 30
0.0
 11
5933.794969903731
 21
2608.352619445893
 31
0.0
  0
LINE
  5
21BD1
330
747D
100
AcDbEntity
  8
細線
 48
50.0
100
AcDbLine
 10
5986.410498031818
 20
2459.286184316786
 30
0.0
 11
6090.794969903727
 21
2563.6706561887
 31
0.0
  0
ARC
  5
21BD2
330
747D
100
AcDbEntity
  8
部品1
 48
50.0
100
AcDbCircle
 10
5970.794969903727
 20
2358.352619445893
 30
0.0
 40
10.0
100
AcDbArc
 50
180.0
 51
270.0
  0
ARC
  5
21BD3
330
747D
100
AcDbEntity
  8
部品1
 48
50.0
100
AcDbCircle
 10
5970.794969903727
 20
2358.352619445893
 30
0.0
 40
37.0
100
AcDbArc
 50
180.0
 51
270.0
  0
LINE
  5
21BD4
330
747D
100
AcDbEntity
  8
部品1
 48
50.0
100
AcDbLine
 10
5970.794969903727
 20
2348.352619445893
 30
0.0
 11
6020.794969903727
 21
2348.352619445893
 31
0.0
  0
LINE
  5
21BD5
330
747D
100
AcDbEntity
  8
部品1
 48
50.0
100
AcDbLine
 10
5970.794969903727
 20
2321.352619445893
 30
0.0
 11
6020.794969903727
 21
2321.352619445893
 31
0.0
  0
LINE
  5
21BD6
330
747D
100
AcDbEntity
  8
部品1
 48
50.0
100
AcDbLine
 10
6020.794969903727
 20
2321.352619445893
 30
0.0
 11
6020.794969903727
 21
2348.352619445893
 31
0.0
  0
CIRCLE
  5
21BD7
330
747D
100
AcDbEntity
  8
部品1
 48
50.0
100
AcDbCircle
 10
5970.794969903727
 20
2433.6706561887
 30
0.0
 40
10.0
  0
ARC
  5
21BD8
330
747D
100
AcDbEntity
  8
部品1
 48
50.0
100
AcDbCircle
 10
5970.794969903727
 20
2433.6706561887
 30
0.0
 40
29.99999999999979
100
AcDbArc
 50
0.0
 51
109.4712206345291
  0
LINE
  5
21BD9
330
747D
100
AcDbEntity
  8
細線
 48
50.0
100
AcDbLine
 10
5960.794969903727
 20
2399.99469573469
 30
0.0
 11
5980.794969903727
 21
2419.99469573469
 31
0.0
  0
LINE
  5
21BDA
330
747D
100
AcDbEntity
  8
部品1
 48
50.0
100
AcDbLine
 10
5980.794969903727
 20
2361.011637817296
 30
0.0
 11
5980.794969903727
 21
2433.6706561887
 31
0.0
  0
LINE
  5
21BDB
330
747D
100
AcDbEntity
  8
部品1
 48
50.0
100
AcDbLine
 10
5980.794969903727
 20
2361.011637817296
 30
0.0
 11
6000.794969903727
 21
2361.011637817296
 31
0.0
  0
LINE
  5
21BDC
330
747D
100
AcDbEntity
  8
部品1
 48
50.0
100
AcDbLine
 10
5980.794969903727
 20
2361.011637817296
 30
0.0
 11
5980.794969903727
 21
2433.6706561887
 31
0.0
  0
LINE
  5
21BDD
330
747D
100
AcDbEntity
  8
部品1
 48
50.0
100
AcDbLine
 10
6000.794969903727
 20
2361.011637817296
 30
0.0
 11
6000.794969903727
 21
2433.6706561887
 31
0.0
  0
LINE
  5
21BDE
330
747D
100
AcDbEntity
  8
細線
 48
50.0
100
AcDbLine
 10
5960.794969903727
 20
2366.318735280679
 30
0.0
 11
5980.794969903727
 21
2386.318735280681
 31
0.0
  0
LINE
  5
21BDF
330
747D
100
AcDbEntity
  8
細線
 48
50.0
100
AcDbLine
 10
6000.794969903726
 20
2406.318735280682
 30
0.0
 11
6090.794969903727
 21
2496.318735280681
 31
0.0
  0
LINE
  5
21BE0
330
747D
100
AcDbEntity
  8
細線
 48
50.0
100
AcDbLine
 10
6000.235853986205
 20
2439.435579817168
 30
0.0
 11
6090.794969903727
 21
2529.99469573469
 31
0.0
  0
LINE
  5
21BE1
330
747D
100
AcDbEntity
  8
細線
100
AcDbLine
 10
6021.101811094929
 20
2576.342313156186
 30
0.0
 11
6050.60587977316
 21
2574.704568458797
 31
0.0
  0
LINE
  5
21BE2
330
747D
100
AcDbEntity
  8
部品1
100
AcDbLine
 10
5923.602662211422
 20
2630.968004061279
 30
0.0
 11
5923.602662211422
 21
2612.660311753585
 31
0.0
  0
LINE
  5
21BE3
330
747D
100
AcDbEntity
  8
部品1
100
AcDbLine
 10
5919.294969903727
 20
2612.660311753585
 30
0.0
 11
5919.294969903727
 21
2608.352619445893
 31
0.0
  0
LINE
  5
21BE4
330
747D
100
AcDbEntity
  8
細線
100
AcDbLine
 10
6050.60587977316
 20
2574.704568458797
 30
0.0
 11
6090.794969903727
 21
2566.516015262794
 31
0.0
  0
LINE
  5
21BE5
330
747D
100
AcDbEntity
  8
細線
 48
50.0
100
AcDbLine
 10
5964.794969903727
 20
2651.732108523312
 30
0.0
 11
5929.59496990373
 21
2642.300296949735
 31
0.0
  0
LINE
  5
21BE6
330
747D
100
AcDbEntity
  8
部品1
 48
50.0
100
AcDbLine
 10
5933.794969903731
 20
2634.198773292047
 30
0.0
 11
5933.794969903731
 21
2668.660311753584
 31
0.0
  0
LINE
  5
21BE7
330
747D
100
AcDbEntity
  8
部品1
 48
50.0
100
AcDbLine
 10
5960.79496990373
 20
2634.198773292047
 30
0.0
 11
5960.794969903735
 21
2668.660311753584
 31
0.0
  0
LINE
  5
21BE8
330
747D
100
AcDbEntity
  8
部品1
100
AcDbLine
 10
5967.756508365266
 20
2634.198773292047
 30
0.0
 11
5926.833431442188
 21
2634.198773292047
 31
0.0
  0
ARC
  5
21BE9
330
747D
100
AcDbEntity
  8
部品1
100
AcDbCircle
 10
5947.294969903727
 20
2598.349863744
 30
0.0
 40
35.0848827120379
100
AcDbArc
 50
68.38687878203654
 51
111.6131212179634
  0
LINE
  5
21BEA
330
747D
100
AcDbEntity
  8
細線
 48
50.0
100
AcDbLine
 10
5964.794969903727
 20
2639.732108523308
 30
0.0
 11
5944.144281685352
 21
2634.198773292047
 31
0.0
  0
ARC
  5
21BEB
330
747D
100
AcDbEntity
  8
部品1
100
AcDbCircle
 10
5965.602662211423
 20
2625.912706150268
 30
0.0
 40
7.3858052918609
100
AcDbArc
 50
43.19325636891249
 51
136.8067436310875
  0
LINE
  5
21BEC
330
747D
100
AcDbEntity
  8
部品1
100
AcDbLine
 10
5970.987277596039
 20
2630.968004061278
 30
0.0
 11
5970.987277596039
 21
2612.660311753585
 31
0.0
  0
LINE
  5
21BED
330
747D
100
AcDbEntity
  8
部品1
100
AcDbLine
 10
5970.987277596039
 20
2630.968004061278
 30
0.0
 11
5967.756508365266
 21
2634.198773292047
 31
0.0
  0
LINE
  5
21BEE
330
747D
100
AcDbEntity
  8
部品1
100
AcDbLine
 10
5960.218046826805
 20
2630.968004061279
 30
0.0
 11
5960.218046826805
 21
2612.660311753585
 31
0.0
  0
LINE
  5
21BEF
330
747D
100
AcDbEntity
  8
細線
100
AcDbLine
 10
5924.393868157189
 20
2568.153759960181
 30
0.0
 11
5933.794969903731
 21
2569.656636769691
 31
0.0
  0
LINE
  5
21BF0
330
747D
100
AcDbEntity
  8
部品1
100
AcDbLine
 10
5975.294969903727
 20
2612.660311753585
 30
0.0
 11
5975.294969903727
 21
2608.352619445893
 31
0.0
  0
LINE
  5
21BF1
330
747D
100
AcDbEntity
  8
部品1
100
AcDbLine
 10
5934.371892980657
 20
2630.968004061278
 30
0.0
 11
5934.371892980657
 21
2612.660311753585
 31
0.0
  0
LINE
  5
21BF2
330
747D
100
AcDbEntity
  8
部品1
 48
50.0
100
AcDbLine
 10
5933.794969903727
 20
2668.660311753584
 30
0.0
 11
5960.794969903727
 21
2668.660311753584
 31
0.0
  0
LINE
  5
21BF3
330
747D
100
AcDbEntity
  8
細線
 48
50.0
100
AcDbLine
 10
5964.794969903727
 20
2663.732108523308
 30
0.0
 11
5929.59496990373
 21
2654.300296949733
 31
0.0
  0
LINE
  5
21BF4
330
747D
100
AcDbEntity
  8
部品1
100
AcDbLine
 10
5975.294969903727
 20
2612.660311753585
 30
0.0
 11
5919.294969903727
 21
2612.660311753585
 31
0.0
  0
LINE
  5
21BF5
330
747D
100
AcDbEntity
  8
部品1
100
AcDbLine
 10
5970.987277596039
 20
2630.968004061279
 30
0.0
 11
5923.602662211418
 21
2630.968004061276
 31
0.0
  0
LINE
  5
21BF6
330
747D
100
AcDbEntity
  8
細線
100
AcDbLine
 10
5960.794969903727
 20
2574.570067875142
 30
0.0
 11
6021.101811094929
 21
2576.342313156186
 31
0.0
  0
ARC
  5
21BF7
330
747D
100
AcDbEntity
  8
部品1
100
AcDbCircle
 10
5928.987277596039
 20
2625.912706150268
 30
0.0
 40
7.3858052918609
100
AcDbArc
 50
43.19325636891249
 51
136.8067436310875
  0
LINE
  5
21BF8
330
747D
100
AcDbEntity
  8
部品1
100
AcDbLine
 10
5926.833431442188
 20
2634.198773292047
 30
0.0
 11
5923.602662211422
 21
2630.968004061279
 31
0.0
  0
MTEXT
  5
21BF9
102
{ACAD_REACTORS
330
21BFA
102
}
330
747D
100
AcDbEntity
  8
部品1
 62
     7
 48
50.0
100
AcDbMText
 10
6142.981994162225
 20
2872.735945599123
 30
0.0
 40
80.0
 41
0.8
 71
     4
 72
     1
  1
M10X160
  7
STYLE2
 73
     1
 44
1.0
1001
ACAD
1000
MTEXTBEGIN
1070
    73
1070
     1
1070
    44
1040
1.0
1070
    74
1070
     0
1000
MTEXTEND
  0
LEADER
  5
21BFA
330
747D
100
AcDbEntity
  8
寸法
 48
50.0
100
AcDbLeader
  3
INABA_S50G
 73
     0
 74
     0
 75
     1
 40
80.0
 41
435.0
 76
     3
 10
5950.437531742906
 20
2657.512619445894
 30
0.0
 10
5992.981994162224
 20
2807.735945599123
 30
0.0
 10
6117.981994162224
 20
2807.735945599123
 30
0.0
340
21BF9
1001
ACAD
1000
DSTYLE
1002
{
1070
   341
1005
0
1070
    40
1040
1.0
1070
   343
1005
0
1070
   344
1005
0
1002
}
  0
TEXT
  5
21BFB
330
747D
100
AcDbEntity
  8
部品1
 48
50.0
100
AcDbText
 10
6138.391116027335
 20
2964.231300208093
 30
0.0
 40
80.0
  1
基礎ボルト
  7
STYLE2
100
AcDbText
  0
DIMENSION
  5
21BFC
330
747D
100
AcDbEntity
  8
寸法
 48
50.0
100
AcDbDimension
  2
*D50
 10
5947.294969903727
 20
2969.042164423632
 30
0.0
 11
5636.30968852949
 21
2969.042164423632
 31
0.0
 70
   160
  1
45
 71
     5
 42
96.5
  3
INABA_S40G
100
AcDbAlignedDimension
 13
5850.794969903727
 23
2608.352619445893
 33
0.0
 14
5947.294969903727
 24
2668.660311753584
 34
0.0
100
AcDbRotatedDimension
1001
ACAD
1000
DSTYLE
1002
{
1070
   341
1005
0
1002
}
  0
DIMENSION
  5
21BFD
330
747D
100
AcDbEntity
  8
寸法
 48
50.0
100
AcDbDimension
  2
*D51
 10
6619.061003075164
 20
2608.352619445893
 30
0.0
 11
6619.061003075163
 21
2143.867338071652
 31
0.0
 70
   160
  1
30～35
 71
     5
 42
60.30769230769147
  3
INABA_S40G
100
AcDbAlignedDimension
 13
5960.794969903727
 23
2668.660311753584
 33
0.0
 14
6090.794969903727
 24
2608.352619445893
 34
0.0
 50
90.0
100
AcDbRotatedDimension
1001
ACAD
1000
DSTYLE
1002
{
1070
   341
1005
0
1002
}
  0
TEXT
  5
21BFE
330
747D
100
AcDbEntity
  8
部品1
 48
50.0
100
AcDbText
 10
6776.555582731548
 20
2013.459563742696
 30
0.0
 40
80.0
  1
ボルトの出
 50
90.0
  7
STYLE2
100
AcDbText
  0
LINE
  5
21C84
330
747D
100
AcDbEntity
  8
細線
 48
50.0
100
AcDbLine
 10
6313.6
 20
8300.565917074449
 30
0.0
 11
6331.773630420816
 21
8318.739547495262
 31
0.0
  0
LINE
  5
21C85
330
747D
100
AcDbEntity
  8
細線
 48
50.0
100
AcDbLine
 10
6313.600000000001
 20
8255.664636469104
 30
0.0
 11
6376.67491102616
 21
8318.73954749526
 31
0.0
  0
LINE
  5
21C86
330
747D
100
AcDbEntity
  8
細線
 48
50.0
100
AcDbLine
 10
6313.600000000003
 20
8210.763355863761
 30
0.0
 11
6421.576191631506
 21
8318.739547495262
 31
0.0
  0
LINE
  5
21C87
330
747D
100
AcDbEntity
  8
細線
 48
50.0
100
AcDbLine
 10
6346.477472236855
 20
8198.739547495263
 30
0.0
 11
6466.47747223685
 21
8318.739547495262
 31
0.0
  0
LINE
  5
21C88
330
747D
100
AcDbEntity
  8
細線
 48
50.0
100
AcDbLine
 10
6391.3787528422
 20
8198.739547495264
 30
0.0
 11
6511.378752842197
 21
8318.73954749526
 31
0.0
  0
LINE
  5
21C89
330
747D
100
AcDbEntity
  8
細線
 48
50.0
100
AcDbLine
 10
6436.280033447541
 20
8198.739547495263
 30
0.0
 11
6513.600000000001
 21
8276.059514047721
 31
0.0
  0
LINE
  5
21C8A
330
747D
100
AcDbEntity
  8
細線
 48
50.0
100
AcDbLine
 10
6481.181314052895
 20
8198.739547495264
 30
0.0
 11
6513.600000000001
 21
8231.158233442375
 31
0.0
  0
LINE
  5
21C8B
330
747D
100
AcDbEntity
  8
細線
 48
50.0
100
AcDbLine
 10
8123.600000000001
 20
8300.565917074449
 30
0.0
 11
8141.773630420818
 21
8318.739547495265
 31
0.0
  0
LINE
  5
21C8C
330
747D
100
AcDbEntity
  8
細線
 48
50.0
100
AcDbLine
 10
8123.599999999999
 20
8255.6646364691
 30
0.0
 11
8186.674911026162
 21
8318.739547495265
 31
0.0
  0
LINE
  5
21C8D
330
747D
100
AcDbEntity
  8
細線
 48
50.0
100
AcDbLine
 10
8123.600000000001
 20
8210.763355863759
 30
0.0
 11
8231.576191631505
 21
8318.739547495262
 31
0.0
  0
LINE
  5
21C8E
330
747D
100
AcDbEntity
  8
細線
 48
50.0
100
AcDbLine
 10
8156.477472236852
 20
8198.739547495261
 30
0.0
 11
8276.477472236852
 21
8318.739547495262
 31
0.0
  0
LINE
  5
21C8F
330
747D
100
AcDbEntity
  8
細線
 48
50.0
100
AcDbLine
 10
8201.378752842199
 20
8198.739547495263
 30
0.0
 11
8321.378752842196
 21
8318.73954749526
 31
0.0
  0
LINE
  5
21C90
330
747D
100
AcDbEntity
  8
細線
 48
50.0
100
AcDbLine
 10
8246.28003344754
 20
8198.739547495263
 30
0.0
 11
8323.6
 21
8276.059514047721
 31
0.0
  0
LINE
  5
21C91
330
747D
100
AcDbEntity
  8
細線
 48
50.0
100
AcDbLine
 10
8291.181314052892
 20
8198.739547495263
 30
0.0
 11
8323.6
 21
8231.158233442375
 31
0.0
  0
LINE
  5
21C92
330
747D
100
AcDbEntity
  8
細線
 48
50.0
100
AcDbLine
 10
5503.599999999995
 20
6855.664636469085
 30
0.0
 11
5526.674911026174
 21
6878.739547495264
 31
0.0
  0
LINE
  5
21C93
330
747D
100
AcDbEntity
  8
細線
 48
50.0
100
AcDbLine
 10
5503.599999999996
 20
6810.76335586374
 30
0.0
 11
5571.576191631518
 21
6878.739547495263
 31
0.0
  0
LINE
  5
21C94
330
747D
100
AcDbEntity
  8
細線
 48
50.0
100
AcDbLine
 10
5503.599999999995
 20
6765.862075258394
 30
0.0
 11
5616.477472236867
 21
6878.739547495264
 31
0.0
  0
LINE
  5
21C95
330
747D
100
AcDbEntity
  8
細線
 48
50.0
100
AcDbLine
 10
5503.599999999995
 20
6720.960794653048
 30
0.0
 11
5623.6
 21
6840.960794653054
 31
0.0
  0
LINE
  5
21C96
330
747D
100
AcDbEntity
  8
細線
 48
50.0
100
AcDbLine
 10
5506.280033447557
 20
6678.739547495265
 30
0.0
 11
5623.600000000003
 21
6796.059514047709
 31
0.0
  0
LINE
  5
21C97
330
747D
100
AcDbEntity
  8
細線
 48
50.0
100
AcDbLine
 10
5551.181314052903
 20
6678.739547495265
 30
0.0
 11
5623.6
 21
6751.15823344236
 31
0.0
  0
LINE
  5
21C98
330
747D
100
AcDbEntity
  8
細線
 48
50.0
100
AcDbLine
 10
5596.082594658245
 20
6678.739547495261
 30
0.0
 11
5623.600000000001
 21
6706.256952837017
 31
0.0
  0
LINE
  5
21C99
330
747D
100
AcDbEntity
  8
細線
 48
50.0
100
AcDbLine
 10
6313.600000000028
 20
5320.565917074508
 30
0.0
 11
6351.773630420783
 21
5358.739547495266
 31
0.0
  0
LINE
  5
21C9A
330
747D
100
AcDbEntity
  8
細線
 48
50.0
100
AcDbLine
 10
6313.600000000029
 20
5275.664636469166
 30
0.0
 11
6396.674911026132
 21
5358.739547495268
 31
0.0
  0
LINE
  5
21C9B
330
747D
100
AcDbEntity
  8
細線
 48
50.0
100
AcDbLine
 10
6321.576191631457
 20
5238.739547495248
 30
0.0
 11
6441.576191631479
 21
5358.739547495267
 31
0.0
  0
LINE
  5
21C9C
330
747D
100
AcDbEntity
  8
細線
 48
50.0
100
AcDbLine
 10
6366.477472236805
 20
5238.739547495249
 30
0.0
 11
6486.477472236825
 21
5358.739547495267
 31
0.0
  0
LINE
  5
21C9D
330
747D
100
AcDbEntity
  8
細線
 48
50.0
100
AcDbLine
 10
6411.378752842151
 20
5238.739547495249
 30
0.0
 11
6513.600000000028
 21
5340.960794653129
 31
0.0
  0
LINE
  5
21C9E
330
747D
100
AcDbEntity
  8
細線
 48
50.0
100
AcDbLine
 10
6456.2800334475
 20
5238.739547495252
 30
0.0
 11
6513.600000000028
 21
5296.059514047779
 31
0.0
  0
LINE
  5
21C9F
330
747D
100
AcDbEntity
  8
細線
 48
50.0
100
AcDbLine
 10
6501.181314052849
 20
5238.739547495255
 30
0.0
 11
6513.600000000028
 21
5251.158233442436
 31
0.0
  0
LINE
  5
21CA0
330
747D
100
AcDbEntity
  8
細線
 48
50.0
100
AcDbLine
 10
8123.600000000028
 20
5320.565917074508
 30
0.0
 11
8161.773630420787
 21
5358.739547495272
 31
0.0
  0
LINE
  5
21CA1
330
747D
100
AcDbEntity
  8
細線
 48
50.0
100
AcDbLine
 10
8123.600000000029
 20
5275.664636469166
 30
0.0
 11
8206.674911026139
 21
5358.739547495273
 31
0.0
  0
LINE
  5
21CA2
330
747D
100
AcDbEntity
  8
細線
 48
50.0
100
AcDbLine
 10
8131.576191631458
 20
5238.739547495248
 30
0.0
 11
8251.576191631484
 21
5358.739547495273
 31
0.0
  0
LINE
  5
21CA3
330
747D
100
AcDbEntity
  8
細線
 48
50.0
100
AcDbLine
 10
8176.477472236806
 20
5238.739547495249
 30
0.0
 11
8296.477472236828
 21
5358.739547495273
 31
0.0
  0
LINE
  5
21CA4
330
747D
100
AcDbEntity
  8
細線
 48
50.0
100
AcDbLine
 10
8221.378752842154
 20
5238.739547495252
 30
0.0
 11
8323.600000000027
 21
5340.960794653127
 31
0.0
  0
LINE
  5
21CA5
330
747D
100
AcDbEntity
  8
細線
 48
50.0
100
AcDbLine
 10
8266.280033447499
 20
5238.739547495252
 30
0.0
 11
8323.600000000027
 21
5296.059514047779
 31
0.0
  0
LINE
  5
21CA6
330
747D
100
AcDbEntity
  8
細線
 48
50.0
100
AcDbLine
 10
8311.181314052848
 20
5238.739547495255
 30
0.0
 11
8323.600000000027
 21
5251.158233442436
 31
0.0
  0
LINE
  5
21CA7
330
747D
100
AcDbEntity
  8
細線
 48
50.0
100
AcDbLine
 10
9933.60000000003
 20
5320.56591707451
 30
0.0
 11
9971.773630420797
 21
5358.739547495276
 31
0.0
  0
LINE
  5
21CA8
330
747D
100
AcDbEntity
  8
細線
 48
50.0
100
AcDbLine
 10
9933.600000000032
 20
5275.664636469166
 30
0.0
 11
10016.67491102614
 21
5358.739547495279
 31
0.0
  0
LINE
  5
21CA9
330
747D
100
AcDbEntity
  8
細線
 48
50.0
100
AcDbLine
 10
9941.576191631456
 20
5238.739547495246
 30
0.0
 11
10061.57619163148
 21
5358.739547495279
 31
0.0
  0
LINE
  5
21CAA
330
747D
100
AcDbEntity
  8
細線
 48
50.0
100
AcDbLine
 10
9986.477472236806
 20
5238.739547495249
 30
0.0
 11
10106.47747223683
 21
5358.739547495277
 31
0.0
  0
LINE
  5
21CAB
330
747D
100
AcDbEntity
  8
細線
 48
50.0
100
AcDbLine
 10
10031.37875284215
 20
5238.739547495252
 30
0.0
 11
10133.60000000003
 21
5340.960794653129
 31
0.0
  0
LINE
  5
21CAC
330
747D
100
AcDbEntity
  8
細線
 48
50.0
100
AcDbLine
 10
10076.2800334475
 20
5238.739547495252
 30
0.0
 11
10133.60000000003
 21
5296.059514047782
 31
0.0
  0
LINE
  5
21CAD
330
747D
100
AcDbEntity
  8
細線
 48
50.0
100
AcDbLine
 10
10121.18131405285
 20
5238.739547495256
 30
0.0
 11
10133.60000000003
 21
5251.158233442436
 31
0.0
  0
LINE
  5
21CAE
330
747D
100
AcDbEntity
  8
細線
 48
50.0
100
AcDbLine
 10
10823.59999999999
 20
6831.326997955023
 30
0.0
 11
10871.01254954024
 21
6878.739547495269
 31
0.0
  0
LINE
  5
21CAF
330
747D
100
AcDbEntity
  8
細線
 48
50.0
100
AcDbLine
 10
10823.6
 20
6786.425717349676
 30
0.0
 11
10915.91383014559
 21
6878.739547495269
 31
0.0
  0
LINE
  5
21CB0
330
747D
100
AcDbEntity
  8
細線
 48
50.0
100
AcDbLine
 10
10823.6
 20
6741.524436744334
 30
0.0
 11
10960.81511075093
 21
6878.73954749527
 31
0.0
  0
LINE
  5
21CB1
330
747D
100
AcDbEntity
  8
細線
 48
50.0
100
AcDbLine
 10
10823.6
 20
6696.623156138989
 30
0.0
 11
11005.71639135628
 21
6878.739547495269
 31
0.0
  0
LINE
  5
21CB2
330
747D
100
AcDbEntity
  8
細線
 48
50.0
100
AcDbLine
 10
10850.61767196162
 20
6678.739547495272
 30
0.0
 11
11018.6
 21
6846.721875533646
 31
0.0
  0
LINE
  5
21CB3
330
747D
100
AcDbEntity
  8
細線
 48
50.0
100
AcDbLine
 10
10895.51895256697
 20
6678.739547495268
 30
0.0
 11
11018.6
 21
6801.820594928301
 31
0.0
  0
LINE
  5
21CB4
330
747D
100
AcDbEntity
  8
細線
 48
50.0
100
AcDbLine
 10
10940.42023317232
 20
6678.739547495268
 30
0.0
 11
11018.6
 21
6756.919314322956
 31
0.0
  0
LINE
  5
21CB5
330
747D
100
AcDbEntity
  8
細線
 48
50.0
100
AcDbLine
 10
10985.32151377766
 20
6678.739547495268
 30
0.0
 11
11018.6
 21
6712.018033717609
 31
0.0
  0
LINE
  5
21CB6
330
747D
100
AcDbEntity
  8
細線
 48
50.0
100
AcDbLine
 10
9933.600000000001
 20
8300.565917074449
 30
0.0
 11
9951.773630420817
 21
8318.739547495265
 31
0.0
  0
LINE
  5
21CB7
330
747D
100
AcDbEntity
  8
細線
 48
50.0
100
AcDbLine
 10
9933.600000000003
 20
8255.664636469104
 30
0.0
 11
9996.674911026159
 21
8318.73954749526
 31
0.0
  0
LINE
  5
21CB8
330
747D
100
AcDbEntity
  8
細線
 48
50.0
100
AcDbLine
 10
9933.599999999998
 20
8210.763355863756
 30
0.0
 11
10041.5761916315
 21
8318.73954749526
 31
0.0
  0
LINE
  5
21CB9
330
747D
100
AcDbEntity
  8
細線
 48
50.0
100
AcDbLine
 10
9966.477472236849
 20
8198.739547495259
 30
0.0
 11
10086.47747223685
 21
8318.73954749526
 31
0.0
  0
LINE
  5
21CBA
330
747D
100
AcDbEntity
  8
細線
 48
50.0
100
AcDbLine
 10
10011.37875284219
 20
8198.739547495261
 30
0.0
 11
10131.37875284219
 21
8318.73954749526
 31
0.0
  0
LINE
  5
21CBB
330
747D
100
AcDbEntity
  8
細線
 48
50.0
100
AcDbLine
 10
10056.28003344754
 20
8198.739547495261
 30
0.0
 11
10133.6
 21
8276.059514047721
 31
0.0
  0
LINE
  5
21CBC
330
747D
100
AcDbEntity
  8
細線
 48
50.0
100
AcDbLine
 10
10101.18131405288
 20
8198.739547495261
 30
0.0
 11
10133.6
 21
8231.158233442375
 31
0.0
  0
TEXT
  5
21D20
330
747D
100
AcDbEntity
  8
文字
 62
     7
 48
50.0
100
AcDbText
 10
16307.2
 20
0.0
 30
0.0
 40
1.0
  1
KK
  7
STYLE2
100
AcDbText
  0
LINE
  5
22260
330
747D
100
AcDbEntity
  8
部品1
100
AcDbLine
 10
11288.47853269706
 20
2158.352619445894
 30
0.0
 11
11288.47853269706
 21
1998.352619445897
 31
0.0
  0
LINE
  5
22261
330
747D
100
AcDbEntity
  8
細線
100
AcDbLine
 10
11188.47853269706
 20
2299.393397595901
 30
0.0
 11
11179.51931084706
 21
2308.352619445894
 31
0.0
  0
LINE
  5
22262
330
747D
100
AcDbEntity
  8
細線
100
AcDbLine
 10
10947.59118069965
 20
2308.352619445894
 30
0.0
 11
11042.77858637823
 21
2403.540025124466
 31
0.0
  0
LINE
  5
22263
330
747D
100
AcDbEntity
  8
細線
100
AcDbLine
 10
10987.59118069965
 20
2308.352619445894
 30
0.0
 11
11042.77858637823
 21
2363.540025124471
 31
0.0
  0
LINE
  5
22264
330
747D
100
AcDbEntity
  8
部品1
 48
50.0
100
AcDbLine
 10
11042.77858637823
 20
2308.352619445894
 30
0.0
 11
11042.77858637823
 21
2608.352619445893
 31
0.0
  0
LEADER
  5
22265
330
747D
100
AcDbEntity
  8
寸法
 48
50.0
100
AcDbLeader
  3
INABA_S50G
 71
     0
 73
     0
 74
     0
 75
     1
 40
100.0
 41
154.6599025766975
 76
     3
 10
10705.59754828924
 20
2543.660350032293
 30
0.0
 10
10759.87909877336
 20
2767.700238142028
 30
0.0
 10
10884.87909877336
 20
2767.700238142028
 30
0.0
340
222A6
  0
LINE
  5
22266
330
747D
100
AcDbEntity
  8
細線
100
AcDbLine
 10
10627.59118069965
 20
2308.352619445894
 30
0.0
 11
10927.59118069965
 21
2608.352619445893
 31
0.0
  0
LINE
  5
22267
330
747D
100
AcDbEntity
  8
細線
100
AcDbLine
 10
10667.59118069965
 20
2308.352619445894
 30
0.0
 11
10967.59118069965
 21
2608.352619445893
 31
0.0
  0
LINE
  5
22268
330
747D
100
AcDbEntity
  8
細線
 48
50.0
100
AcDbLine
 10
11152.58051263928
 20
2128.352619445894
 30
0.0
 11
11144.54203686634
 21
2158.352619445894
 31
0.0
  0
LINE
  5
22269
330
747D
100
AcDbEntity
  8
細線
 48
50.0
100
AcDbLine
 10
11251.19056882334
 20
2128.352619445894
 30
0.0
 11
11243.15209305041
 21
2158.352619445894
 31
0.0
  0
LINE
  5
2226A
330
747D
100
AcDbEntity
  8
細線
 48
50.0
100
AcDbLine
 10
10955.36040027115
 20
2128.352619445894
 30
0.0
 11
10947.32192449822
 21
2158.352619445894
 31
0.0
  0
LINE
  5
2226B
330
747D
100
AcDbEntity
  8
細線
 48
50.0
100
AcDbLine
 10
10856.75034408709
 20
2128.352619445894
 30
0.0
 11
10848.71186831416
 21
2158.352619445894
 31
0.0
  0
LINE
  5
2226C
330
747D
100
AcDbEntity
  8
細線
 48
50.0
100
AcDbLine
 10
11053.97045645521
 20
2128.352619445894
 30
0.0
 11
11045.93198068228
 21
2158.352619445894
 31
0.0
  0
LINE
  5
2226D
330
747D
100
AcDbEntity
  8
細線
 48
50.0
100
AcDbLine
 10
11027.1755372121
 20
2028.352619445894
 30
0.0
 11
11035.21401298503
 21
1998.352619445893
 31
0.0
  0
LINE
  5
2226E
330
747D
100
AcDbEntity
  8
細線
 48
50.0
100
AcDbLine
 10
11019.13706143917
 20
1998.352619445893
 30
0.0
 11
11062.00893222815
 21
2158.352619445894
 31
0.0
  0
LINE
  5
2226F
330
747D
100
AcDbEntity
  8
細線
 48
50.0
100
AcDbLine
 10
10928.56548102804
 20
2028.352619445894
 30
0.0
 11
10936.60395680098
 21
1998.352619445893
 31
0.0
  0
LINE
  5
22270
330
747D
100
AcDbEntity
  8
細線
 48
50.0
100
AcDbLine
 10
10920.5270052551
 20
1998.352619445893
 30
0.0
 11
10963.39887604408
 21
2158.352619445894
 31
0.0
  0
LINE
  5
22271
330
747D
100
AcDbEntity
  8
細線
 48
50.0
100
AcDbLine
 10
11224.39564958022
 20
2028.352619445894
 30
0.0
 11
11232.43412535316
 21
1998.352619445893
 31
0.0
  0
LINE
  5
22272
330
747D
100
AcDbEntity
  8
細線
 48
50.0
100
AcDbLine
 10
11125.78559339616
 20
2028.352619445894
 30
0.0
 11
11133.8240691691
 21
1998.352619445893
 31
0.0
  0
LINE
  5
22273
330
747D
100
AcDbEntity
  8
細線
 48
50.0
100
AcDbLine
 10
11117.74711762323
 20
1998.352619445893
 30
0.0
 11
11160.61898841221
 21
2158.352619445894
 31
0.0
  0
LINE
  5
22274
330
747D
100
AcDbEntity
  8
細線
 48
50.0
100
AcDbLine
 10
10659.53023171897
 20
2128.352619445894
 30
0.0
 11
10651.49175594604
 21
2158.352619445894
 31
0.0
  0
LINE
  5
22275
330
747D
100
AcDbEntity
  8
細線
 48
50.0
100
AcDbLine
 10
10758.14028790303
 20
2128.352619445894
 30
0.0
 11
10750.1018121301
 21
2158.352619445894
 31
0.0
  0
LINE
  5
22276
330
747D
100
AcDbEntity
  8
細線
 48
50.0
100
AcDbLine
 10
10462.31011935085
 20
2128.352619445894
 30
0.0
 11
10454.27164357792
 21
2158.352619445894
 31
0.0
  0
LINE
  5
22277
330
747D
100
AcDbEntity
  8
細線
 48
50.0
100
AcDbLine
 10
10560.92017553491
 20
2128.352619445894
 30
0.0
 11
10552.88169976198
 21
2158.352619445894
 31
0.0
  0
LINE
  5
22278
330
747D
100
AcDbEntity
  8
細線
 48
50.0
100
AcDbLine
 10
10534.1252562918
 20
2028.352619445894
 30
0.0
 11
10542.16373206473
 21
1998.352619445893
 31
0.0
  0
LINE
  5
22279
330
747D
100
AcDbEntity
  8
細線
 48
50.0
100
AcDbLine
 10
10526.08678051887
 20
1998.352619445893
 30
0.0
 11
10568.95865130785
 21
2158.352619445894
 31
0.0
  0
LINE
  5
2227A
330
747D
100
AcDbEntity
  8
細線
 48
50.0
100
AcDbLine
 10
10731.34536865992
 20
2028.352619445894
 30
0.0
 11
10739.38384443285
 21
1998.352619445893
 31
0.0
  0
LINE
  5
2227B
330
747D
100
AcDbEntity
  8
細線
 48
50.0
100
AcDbLine
 10
10723.30689288699
 20
1998.352619445893
 30
0.0
 11
10766.17876367597
 21
2158.352619445894
 31
0.0
  0
LINE
  5
2227C
330
747D
100
AcDbEntity
  8
細線
 48
50.0
100
AcDbLine
 10
10632.73531247586
 20
2028.352619445894
 30
0.0
 11
10640.77378824879
 21
1998.352619445893
 31
0.0
  0
LINE
  5
2227D
330
747D
100
AcDbEntity
  8
細線
 48
50.0
100
AcDbLine
 10
10624.69683670292
 20
1998.352619445893
 30
0.0
 11
10667.5687074919
 21
2158.352619445894
 31
0.0
  0
LINE
  5
2227E
330
747D
100
AcDbEntity
  8
細線
 48
50.0
100
AcDbLine
 10
10829.95542484398
 20
2028.352619445894
 30
0.0
 11
10837.99390061692
 21
1998.352619445893
 31
0.0
  0
LINE
  5
2227F
330
747D
100
AcDbEntity
  8
細線
 48
50.0
100
AcDbLine
 10
10821.91694907105
 20
1998.352619445893
 30
0.0
 11
10864.78881986003
 21
2158.352619445894
 31
0.0
  0
LINE
  5
22280
330
747D
100
AcDbEntity
  8
細線
100
AcDbLine
 10
10649.51931084706
 20
2158.352619445894
 30
0.0
 11
10499.51931084705
 21
2308.352619445894
 31
0.0
  0
LINE
  5
22281
330
747D
100
AcDbEntity
  8
細線
100
AcDbLine
 10
10689.51931084706
 20
2158.352619445894
 30
0.0
 11
10539.51931084705
 21
2308.352619445894
 31
0.0
  0
LINE
  5
22282
330
747D
100
AcDbEntity
  8
細線
100
AcDbLine
 10
10609.51931084705
 20
2158.352619445894
 30
0.0
 11
10459.51931084705
 21
2308.352619445894
 31
0.0
  0
LINE
  5
22283
330
747D
100
AcDbEntity
  8
細線
100
AcDbLine
 10
11009.51931084706
 20
2158.352619445894
 30
0.0
 11
10859.51931084706
 21
2308.352619445894
 31
0.0
  0
LINE
  5
22284
330
747D
100
AcDbEntity
  8
細線
100
AcDbLine
 10
10969.51931084706
 20
2158.352619445894
 30
0.0
 11
10819.51931084705
 21
2308.352619445894
 31
0.0
  0
LINE
  5
22285
330
747D
100
AcDbEntity
  8
細線
100
AcDbLine
 10
10929.51931084704
 20
2158.352619445894
 30
0.0
 11
10779.51931084705
 21
2308.352619445894
 31
0.0
  0
LINE
  5
22286
330
747D
100
AcDbEntity
  8
部品1
100
AcDbLine
 10
11188.47853269706
 20
2308.352619445894
 30
0.0
 11
11188.47853269706
 21
2158.352619445894
 31
0.0
  0
LINE
  5
22287
330
747D
100
AcDbEntity
  8
細線
100
AcDbLine
 10
11188.47853269706
 20
2259.393397595891
 30
0.0
 11
11139.51931084705
 21
2308.352619445894
 31
0.0
  0
LINE
  5
22288
330
747D
100
AcDbEntity
  8
細線
100
AcDbLine
 10
11188.47853269706
 20
2219.393397595881
 30
0.0
 11
11099.51931084705
 21
2308.352619445894
 31
0.0
  0
LINE
  5
22289
330
747D
100
AcDbEntity
  8
部品1
 48
50.0
100
AcDbLine
 10
10262.77858637823
 20
2608.352619445893
 30
0.0
 11
10262.77858637823
 21
2308.352619445894
 31
0.0
  0
LINE
  5
2228A
330
747D
100
AcDbEntity
  8
細線
100
AcDbLine
 10
10262.77858637823
 20
2583.540025124469
 30
0.0
 11
10287.59118069965
 21
2608.352619445893
 31
0.0
  0
LINE
  5
2228B
330
747D
100
AcDbEntity
  8
細線
100
AcDbLine
 10
10262.77858637823
 20
2543.540025124469
 30
0.0
 11
10327.59118069965
 21
2608.352619445893
 31
0.0
  0
LINE
  5
2228C
330
747D
100
AcDbEntity
  8
細線
 48
50.0
100
AcDbLine
 10
10265.09000698273
 20
2128.352619445894
 30
0.0
 11
10257.0515312098
 21
2158.352619445894
 31
0.0
  0
LINE
  5
2228D
330
747D
100
AcDbEntity
  8
細線
 48
50.0
100
AcDbLine
 10
10363.70006316679
 20
2128.352619445894
 30
0.0
 11
10355.66158739386
 21
2158.352619445894
 31
0.0
  0
LINE
  5
2228E
330
747D
100
AcDbEntity
  8
細線
 48
50.0
100
AcDbLine
 10
10067.86989461461
 20
2128.352619445894
 30
0.0
 11
10059.83141884168
 21
2158.352619445894
 31
0.0
  0
LINE
  5
2228F
330
747D
100
AcDbEntity
  8
細線
 48
50.0
100
AcDbLine
 10
10166.47995079867
 20
2128.352619445894
 30
0.0
 11
10158.44147502573
 21
2158.352619445894
 31
0.0
  0
LINE
  5
22290
330
747D
100
AcDbEntity
  8
細線
 48
50.0
100
AcDbLine
 10
10033.03649959857
 20
1998.352619445893
 30
0.0
 11
10075.90837038754
 21
2158.352619445894
 31
0.0
  0
LINE
  5
22291
330
747D
100
AcDbEntity
  8
細線
 48
50.0
100
AcDbLine
 10
10041.0749753715
 20
2028.352619445894
 30
0.0
 11
10049.11345114443
 21
1998.352619445893
 31
0.0
  0
LINE
  5
22292
330
747D
100
AcDbEntity
  8
細線
 48
50.0
100
AcDbLine
 10
10131.64655578262
 20
1998.352619445893
 30
0.0
 11
10174.5184265716
 21
2158.352619445894
 31
0.0
  0
LINE
  5
22293
330
747D
100
AcDbEntity
  8
細線
 48
50.0
100
AcDbLine
 10
10139.68503155556
 20
2028.352619445894
 30
0.0
 11
10147.72350732849
 21
1998.352619445893
 31
0.0
  0
LINE
  5
22294
330
747D
100
AcDbEntity
  8
細線
 48
50.0
100
AcDbLine
 10
10238.29508773962
 20
2028.352619445894
 30
0.0
 11
10246.33356351255
 21
1998.352619445893
 31
0.0
  0
LINE
  5
22295
330
747D
100
AcDbEntity
  8
細線
 48
50.0
100
AcDbLine
 10
10336.90514392368
 20
2028.352619445894
 30
0.0
 11
10344.94361969661
 21
1998.352619445893
 31
0.0
  0
LINE
  5
22296
330
747D
100
AcDbEntity
  8
細線
 48
50.0
100
AcDbLine
 10
10328.86666815075
 20
1998.352619445893
 30
0.0
 11
10371.73853893973
 21
2158.352619445894
 31
0.0
  0
LINE
  5
22297
330
747D
100
AcDbEntity
  8
細線
 48
50.0
100
AcDbLine
 10
10230.25661196669
 20
1998.352619445893
 30
0.0
 11
10273.12848275567
 21
2158.352619445894
 31
0.0
  0
LINE
  5
22298
330
747D
100
AcDbEntity
  8
部品1
100
AcDbLine
 10
10017.0786400594
 20
2158.352619445894
 30
0.0
 11
10017.0786400594
 21
1998.352619445897
 31
0.0
  0
LINE
  5
22299
330
747D
100
AcDbEntity
  8
細線
100
AcDbLine
 10
10289.51931084705
 20
2158.352619445894
 30
0.0
 11
10139.51931084704
 21
2308.352619445894
 31
0.0
  0
LINE
  5
2229A
330
747D
100
AcDbEntity
  8
細線
100
AcDbLine
 10
10329.51931084706
 20
2158.352619445894
 30
0.0
 11
10179.51931084706
 21
2308.352619445894
 31
0.0
  0
LINE
  5
2229B
330
747D
100
AcDbEntity
  8
部品1
100
AcDbLine
 10
10117.0786400594
 20
2308.352619445894
 30
0.0
 11
10117.0786400594
 21
2158.352619445894
 31
0.0
  0
LINE
  5
2229C
330
747D
100
AcDbEntity
  8
細線
100
AcDbLine
 10
10369.51931084707
 20
2158.352619445894
 30
0.0
 11
10219.51931084706
 21
2308.352619445892
 31
0.0
  0
LINE
  5
2229D
330
747D
100
AcDbEntity
  8
部品1
 48
50.0
100
AcDbLine
 10
11042.77858637823
 20
2608.352619445893
 30
0.0
 11
10262.77858637823
 21
2608.352619445893
 31
0.0
  0
LINE
  5
2229E
330
747D
100
AcDbEntity
  8
細線
100
AcDbLine
 10
10307.59118069965
 20
2308.352619445892
 30
0.0
 11
10607.59118069965
 21
2608.352619445893
 31
0.0
  0
LINE
  5
2229F
330
747D
100
AcDbEntity
  8
細線
100
AcDbLine
 10
10347.59118069965
 20
2308.352619445894
 30
0.0
 11
10647.59118069965
 21
2608.352619445893
 31
0.0
  0
LINE
  5
222A0
330
747D
100
AcDbEntity
  8
細線
 48
50.0
100
AcDbLine
 10
10435.51520010774
 20
2028.352619445894
 30
0.0
 11
10443.55367588068
 21
1998.352619445893
 31
0.0
  0
LINE
  5
222A1
330
747D
100
AcDbEntity
  8
細線
 48
50.0
100
AcDbLine
 10
10427.47672433481
 20
1998.352619445893
 30
0.0
 11
10470.34859512379
 21
2158.352619445894
 31
0.0
  0
LINE
  5
222A2
330
747D
100
AcDbEntity
  8
部品1
100
AcDbLine
 10
10017.0786400594
 20
2158.352619445894
 30
0.0
 11
11288.47853269706
 21
2158.352619445894
 31
0.0
  0
LINE
  5
222A3
330
747D
100
AcDbEntity
  8
部品1
100
AcDbLine
 10
10017.0786400594
 20
1998.352619445897
 30
0.0
 11
11288.47853269706
 21
1998.352619445897
 31
0.0
  0
LINE
  5
222A4
330
747D
100
AcDbEntity
  8
細線
 48
50.0
100
AcDbLine
 10
11216.35717380729
 20
1998.352619445893
 30
0.0
 11
11259.22904459627
 21
2158.352619445894
 31
0.0
  0
LINE
  5
222A5
330
747D
100
AcDbEntity
  8
Ｇ．Ｌ
 48
50.0
100
AcDbLine
 10
9734.682836287504
 20
2308.352619445892
 30
0.0
 11
11469.01892679249
 21
2308.352619445894
 31
0.0
  0
MTEXT
  5
222A6
102
{ACAD_REACTORS
330
22265
102
}
330
747D
100
AcDbEntity
  8
寸法
 62
     7
 48
50.0
100
AcDbMText
 10
10909.87909877336
 20
2842.700238142028
 30
0.0
 40
100.0
 41
0.0
 71
     4
 72
     1
  1
C.B
  7
STYLE1
 73
     1
 44
1.0
1001
ACAD
1000
MTEXTBEGIN
1070
    73
1070
     1
1070
    44
1040
1.0
1070
    74
1070
     0
1000
MTEXTEND
  0
ENDSEC
  0
SECTION
  2
OBJECTS
  0
DICTIONARY
  5
7471
330
0
100
AcDbDictionary
281
     1
  3
ACAD_COLOR
350
173D2
  3
ACAD_GROUP
350
7472
  3
ACAD_LAYOUT
350
173D3
  3
ACAD_MATERIAL
350
173D1
  3
ACAD_MLINESTYLE
350
7473
  3
ACAD_PLOTSETTINGS
350
173D4
  3
ACAD_PLOTSTYLENAME
350
173CF
  3
ACDBHEADERROUNDTRIPXREC
350
222E5
  3
AcDbVariableDictionary
350
218FA
  3
CONTENTDICTIONARY
350
E71C
  3
DRAWINGVARIABLESDICT
350
F3B9
  0
DICTIONARY
  5
1758F
330
7467
100
AcDbDictionary
280
     1
281
     1
  3
ACAD_LAYERSTATES
360
17590
  0
DICTIONARY
  5
173D2
102
{ACAD_REACTORS
330
7471
102
}
330
7471
100
AcDbDictionary
281
     1
  0
DICTIONARY
  5
7472
102
{ACAD_REACTORS
330
7471
102
}
330
7471
100
AcDbDictionary
281
     1
  3
*A1
350
1D2A9
  0
DICTIONARY
  5
173D3
102
{ACAD_REACTORS
330
7471
102
}
330
7471
100
AcDbDictionary
281
     1
  3
Model
350
173D5
  3
レイアウト1
350
173D6
  0
DICTIONARY
  5
173D1
102
{ACAD_REACTORS
330
7471
102
}
330
7471
100
AcDbDictionary
281
     1
  0
DICTIONARY
  5
7473
102
{ACAD_REACTORS
330
7471
102
}
330
7471
100
AcDbDictionary
281
     1
  3
STANDARD
350
7480
  0
DICTIONARY
  5
173D4
102
{ACAD_REACTORS
330
7471
102
}
330
7471
100
AcDbDictionary
281
     1
  0
ACDBDICTIONARYWDFLT
  5
173CF
102
{ACAD_REACTORS
330
7471
102
}
330
7471
100
AcDbDictionary
281
     1
  3
Normal
350
173D0
100
AcDbDictionaryWithDefault
340
173D0
  0
DICTIONARY
  5
222E5
102
{ACAD_REACTORS
330
7471
102
}
330
7471
100
AcDbDictionary
281
     1
  3
COLORDICT
350
222E7
  3
MATERIALDICT
350
222E6
  0
DICTIONARY
  5
218FA
102
{ACAD_REACTORS
330
7471
102
}
330
7471
100
AcDbDictionary
281
     1
  3
DIMASSOC
350
218FB
  3
PROJECTNAME
350
218FC
  0
DICTIONARY
  5
E71C
102
{ACAD_REACTORS
330
7471
102
}
330
7471
100
AcDbDictionary
281
     1
  0
DICTIONARY
  5
F3B9
102
{ACAD_REACTORS
330
7471
102
}
330
7471
100
AcDbDictionary
281
     1
1001
DRAWINGVARIABLESXDATA
1000
POLARMODE
1000
1
  0
DICTIONARY
  5
17590
102
{ACAD_REACTORS
330
1758F
102
}
330
1758F
100
AcDbDictionary
281
     1
  0
GROUP
  5
1D2A9
102
{ACAD_REACTORS
330
7472
102
}
330
7472
100
AcDbGroup
300

 70
     1
 71
     1
  0
LAYOUT
  5
173D5
102
{ACAD_XDICTIONARY
360
222E8
102
}
102
{ACAD_REACTORS
330
173D3
102
}
330
173D3
100
AcDbPlotSettings
  1

  2
クセロPDF
  4
A3
  6

 40
3.174999999999999
 41
3.174999999999999
 42
3.174987999999999
 43
3.174987999999999
 44
419.946655
 45
296.925995
 46
0.0
 47
0.0
 48
0.0
 49
0.0
140
0.0
141
0.0
142
1.0
143
40.0
 70
 11952
 72
     1
 73
     0
 74
     2
  7
inaba.ctb
 75
    24
147
0.025
148
27.08462732551562
149
160.8668443177158
100
AcDbLayout
  1
Model
 70
     1
 71
     0
 10
0.0
 20
0.0
 11
12.0
 21
9.0
 12
0.0
 22
0.0
 32
0.0
 14
0.0
 24
0.0
 34
0.0
 15
0.0
 25
0.0
 35
0.0
146
0.0
 13
0.0
 23
0.0
 33
0.0
 16
1.0
 26
0.0
 36
0.0
 17
0.0
 27
1.0
 37
0.0
 76
     0
330
747D
  0
LAYOUT
  5
173D6
102
{ACAD_XDICTIONARY
360
222EA
102
}
102
{ACAD_REACTORS
330
173D3
102
}
330
173D3
100
AcDbPlotSettings
  1

  2
Microsoft Office Document Image Writer
  4

  6

 40
0.0
 41
0.0
 42
0.0
 43
0.0
 44
0.0
 45
0.0
 46
0.0
 47
0.0
 48
0.0
 49
0.0
140
0.0
141
0.0
142
1.0
143
1.0
 70
   688
 72
     0
 73
     0
 74
     5
  7

 75
    16
147
1.0
148
0.0
149
0.0
100
AcDbLayout
  1
レイアウト1
 70
     0
 71
     1
 10
0.0
 20
0.0
 11
420.0
 21
297.0
 12
0.0
 22
0.0
 32
0.0
 14
1.000000000000000E+20
 24
1.000000000000000E+20
 34
1.000000000000000E+20
 15
-1.000000000000000E+20
 25
-1.000000000000000E+20
 35
-1.000000000000000E+20
146
0.0
 13
0.0
 23
0.0
 33
0.0
 16
1.0
 26
0.0
 36
0.0
 17
0.0
 27
1.0
 37
0.0
 76
     0
330
747A
  0
MLINESTYLE
  5
7480
102
{ACAD_REACTORS
330
7473
102
}
330
7473
100
AcDbMlineStyle
  2
STANDARD
 70
     0
  3

 62
     0
 51
90.0
 52
90.0
 71
     2
 49
0.5
 62
   256
  6
BYLAYER
 49
-0.5
 62
   256
  6
BYLAYER
  0
ACDBPLACEHOLDER
  5
173D0
102
{ACAD_REACTORS
330
173CF
102
}
330
173CF
  0
XRECORD
  5
222E7
102
{ACAD_REACTORS
330
222E5
102
}
330
222E5
100
AcDbXrecord
280
     1
340
173D2
  0
XRECORD
  5
222E6
102
{ACAD_REACTORS
330
222E5
102
}
330
222E5
100
AcDbXrecord
280
     1
340
173D1
  0
DICTIONARYVAR
  5
218FB
102
{ACAD_REACTORS
330
218FA
102
}
330
218FA
100
DictionaryVariables
280
     0
  1
1
  0
DICTIONARYVAR
  5
218FC
102
{ACAD_REACTORS
330
218FA
102
}
330
218FA
100
DictionaryVariables
280
     0
  1

  0
DICTIONARY
  5
222E8
330
173D5
100
AcDbDictionary
280
     1
281
     1
  3
ACAD_XREC_ROUNDTRIP
360
222E9
  0
DICTIONARY
  5
222EA
330
173D6
100
AcDbDictionary
280
     1
281
     1
  3
ACAD_XREC_ROUNDTRIP
360
222EB
  0
XRECORD
  5
222E9
102
{ACAD_REACTORS
330
222E8
102
}
330
222E8
100
AcDbXrecord
280
     1
102
SHADEPLOT
 70
     1
102
SHADEPLOTRESLEVEL
 70
     2
102
SHADEPLOTCUSTOMDPI
 70
   300
  0
XRECORD
  5
222EB
102
{ACAD_REACTORS
330
222EA
102
}
330
222EA
100
AcDbXrecord
280
     1
102
SHADEPLOT
 70
     0
102
SHADEPLOTRESLEVEL
 70
     2
102
SHADEPLOTCUSTOMDPI
 70
   300
  0
ENDSEC
  0
EOF
