  0
SECTION
  2
HEADER
  9
$ACADVER
  1
AC1015
  9
$ACADMAINTVER
 70
    20
  9
$DWGCODEPAGE
  3
ANSI_932
  9
$INSBASE
 10
0.0
 20
0.0
 30
0.0
  9
$EXTMIN
 10
138.7576680119819
 20
-0.8753733669473149
 30
-0.000000000000013
  9
$EXTMAX
 10
16308.37769451058
 20
11409.65024325627
 30
0.0000000000000023
  9
$LIMMIN
 10
-27.08462732551562
 20
-160.8668443177158
  9
$LIMMAX
 10
16490.60250669627
 20
11515.30158149674
  9
$ORTHOMODE
 70
     0
  9
$REGENMODE
 70
     1
  9
$FILLMODE
 70
     1
  9
$QTEXTMODE
 70
     0
  9
$MIRRTEXT
 70
     1
  9
$LTSCALE
 40
20.0
  9
$ATTMODE
 70
     1
  9
$TEXTSIZE
 40
4.0
  9
$TRACEWID
 40
1.0
  9
$TEXTSTYLE
  7
STYLE1
  9
$CLAYER
  8
細線
  9
$CELTYPE
  6
BYLAYER
  9
$CECOLOR
 62
   256
  9
$CELTSCALE
 40
50.0
  9
$DISPSILH
 70
     0
  9
$DIMSCALE
 40
40.0
  9
$DIMASZ
 40
2.5
  9
$DIMEXO
 40
0.5
  9
$DIMDLI
 40
7.0
  9
$DIMRND
 40
0.0
  9
$DIMDLE
 40
0.0
  9
$DIMEXE
 40
1.5
  9
$DIMTP
 40
0.0
  9
$DIMTM
 40
0.0
  9
$DIMTXT
 40
3.0
  9
$DIMCEN
 40
0.0
  9
$DIMTSZ
 40
0.0
  9
$DIMTOL
 70
     0
  9
$DIMLIM
 70
     0
  9
$DIMTIH
 70
     0
  9
$DIMTOH
 70
     0
  9
$DIMSE1
 70
     0
  9
$DIMSE2
 70
     0
  9
$DIMTAD
 70
     3
  9
$DIMZIN
 70
     8
  9
$DIMBLK
  1

  9
$DIMASO
 70
     1
  9
$DIMSHO
 70
     1
  9
$DIMPOST
  1

  9
$DIMAPOST
  1

  9
$DIMALT
 70
     0
  9
$DIMALTD
 70
     2
  9
$DIMALTF
 40
0.0394
  9
$DIMLFAC
 40
1.0
  9
$DIMTOFL
 70
     1
  9
$DIMTVP
 40
0.0
  9
$DIMTIX
 70
     1
  9
$DIMSOXD
 70
     0
  9
$DIMSAH
 70
     1
  9
$DIMBLK1
  1
DOTSMALL
  9
$DIMBLK2
  1
DOTSMALL
  9
$DIMSTYLE
  2
INABA_S40G
  9
$DIMCLRD
 70
     0
  9
$DIMCLRE
 70
     0
  9
$DIMCLRT
 70
     7
  9
$DIMTFAC
 40
1.0
  9
$DIMGAP
 40
1.0
  9
$DIMJUST
 70
     0
  9
$DIMSD1
 70
     0
  9
$DIMSD2
 70
     0
  9
$DIMTOLJ
 70
     1
  9
$DIMTZIN
 70
     0
  9
$DIMALTZ
 70
     0
  9
$DIMALTTZ
 70
     0
  9
$DIMUPT
 70
     0
  9
$DIMDEC
 70
     1
  9
$DIMTDEC
 70
     4
  9
$DIMALTU
 70
     2
  9
$DIMALTTD
 70
     2
  9
$DIMTXSTY
  7
STYLE1
  9
$DIMAUNIT
 70
     0
  9
$DIMADEC
 70
     0
  9
$DIMALTRND
 40
0.0
  9
$DIMAZIN
 70
     0
  9
$DIMDSEP
 70
    46
  9
$DIMATFIT
 70
     3
  9
$DIMFRAC
 70
     0
  9
$DIMLDRBLK
  1

  9
$DIMLUNIT
 70
     2
  9
$DIMLWD
 70
    -2
  9
$DIMLWE
 70
    -2
  9
$DIMTMOVE
 70
     0
  9
$LUNITS
 70
     2
  9
$LUPREC
 70
     1
  9
$SKETCHINC
 40
1.0
  9
$FILLETRAD
 40
3.0
  9
$AUNITS
 70
     0
  9
$AUPREC
 70
     0
  9
$MENU
  1
acad
  9
$ELEVATION
 40
0.0
  9
$PELEVATION
 40
0.0
  9
$THICKNESS
 40
0.0
  9
$LIMCHECK
 70
     0
  9
$CHAMFERA
 40
0.0
  9
$CHAMFERB
 40
0.0
  9
$CHAMFERC
 40
0.0
  9
$CHAMFERD
 40
0.0
  9
$SKPOLY
 70
     0
  9
$TDCREATE
 40
2451368.612993866
  9
$TDUCREATE
 40
2451368.237993866
  9
$TDUPDATE
 40
2455855.409346181
  9
$TDUUPDATE
 40
2455855.034346181
  9
$TDINDWG
 40
0.7229805787
  9
$TDUSRTIMER
 40
0.7229805787
  9
$USRTIMER
 70
     1
  9
$ANGBASE
 50
0.0
  9
$ANGDIR
 70
     0
  9
$PDMODE
 70
     3
  9
$PDSIZE
 40
2.0
  9
$PLINEWID
 40
0.0
  9
$SPLFRAME
 70
     0
  9
$SPLINETYPE
 70
     6
  9
$SPLINESEGS
 70
     8
  9
$HANDSEED
  5
20E8A
  9
$SURFTAB1
 70
     6
  9
$SURFTAB2
 70
     6
  9
$SURFTYPE
 70
     6
  9
$SURFU
 70
     6
  9
$SURFV
 70
     6
  9
$UCSBASE
  2

  9
$UCSNAME
  2

  9
$UCSORG
 10
0.0
 20
0.0
 30
0.0
  9
$UCSXDIR
 10
1.0
 20
0.0
 30
0.0
  9
$UCSYDIR
 10
0.0
 20
1.0
 30
0.0
  9
$UCSORTHOREF
  2

  9
$UCSORTHOVIEW
 70
     0
  9
$UCSORGTOP
 10
0.0
 20
0.0
 30
0.0
  9
$UCSORGBOTTOM
 10
0.0
 20
0.0
 30
0.0
  9
$UCSORGLEFT
 10
0.0
 20
0.0
 30
0.0
  9
$UCSORGRIGHT
 10
0.0
 20
0.0
 30
0.0
  9
$UCSORGFRONT
 10
0.0
 20
0.0
 30
0.0
  9
$UCSORGBACK
 10
0.0
 20
0.0
 30
0.0
  9
$PUCSBASE
  2

  9
$PUCSNAME
  2

  9
$PUCSORG
 10
0.0
 20
0.0
 30
0.0
  9
$PUCSXDIR
 10
1.0
 20
0.0
 30
0.0
  9
$PUCSYDIR
 10
0.0
 20
1.0
 30
0.0
  9
$PUCSORTHOREF
  2

  9
$PUCSORTHOVIEW
 70
     0
  9
$PUCSORGTOP
 10
0.0
 20
0.0
 30
0.0
  9
$PUCSORGBOTTOM
 10
0.0
 20
0.0
 30
0.0
  9
$PUCSORGLEFT
 10
0.0
 20
0.0
 30
0.0
  9
$PUCSORGRIGHT
 10
0.0
 20
0.0
 30
0.0
  9
$PUCSORGFRONT
 10
0.0
 20
0.0
 30
0.0
  9
$PUCSORGBACK
 10
0.0
 20
0.0
 30
0.0
  9
$USERI1
 70
     0
  9
$USERI2
 70
     0
  9
$USERI3
 70
     0
  9
$USERI4
 70
     0
  9
$USERI5
 70
     0
  9
$USERR1
 40
0.0
  9
$USERR2
 40
0.0
  9
$USERR3
 40
0.0
  9
$USERR4
 40
0.0
  9
$USERR5
 40
0.0
  9
$WORLDVIEW
 70
     1
  9
$SHADEDGE
 70
     3
  9
$SHADEDIF
 70
    70
  9
$TILEMODE
 70
     1
  9
$MAXACTVP
 70
    16
  9
$PINSBASE
 10
0.0
 20
0.0
 30
0.0
  9
$PLIMCHECK
 70
     0
  9
$PEXTMIN
 10
1.000000000000000E+20
 20
1.000000000000000E+20
 30
1.000000000000000E+20
  9
$PEXTMAX
 10
-1.000000000000000E+20
 20
-1.000000000000000E+20
 30
-1.000000000000000E+20
  9
$PLIMMIN
 10
0.0
 20
0.0
  9
$PLIMMAX
 10
420.0
 20
297.0
  9
$UNITMODE
 70
     0
  9
$VISRETAIN
 70
     0
  9
$PLINEGEN
 70
     0
  9
$PSLTSCALE
 70
     0
  9
$TREEDEPTH
 70
  3020
  9
$CMLSTYLE
  2
STANDARD
  9
$CMLJUST
 70
     0
  9
$CMLSCALE
 40
1.0
  9
$PROXYGRAPHICS
 70
     1
  9
$MEASUREMENT
 70
     1
  9
$CELWEIGHT
370
    -1
  9
$ENDCAPS
280
     0
  9
$JOINSTYLE
280
     0
  9
$LWDISPLAY
290
     0
  9
$INSUNITS
 70
     0
  9
$HYPERLINKBASE
  1

  9
$STYLESHEET
  1
inaba.ctb
  9
$XEDIT
290
     1
  9
$CEPSNTYPE
380
     0
  9
$PSTYLEMODE
290
     1
  9
$FINGERPRINTGUID
  2
{5EAC461A-2277-4BF8-9AB0-99C43BB394F0}
  9
$VERSIONGUID
  2
{997818E7-91D1-46C4-A5F7-1FC1926985B8}
  9
$EXTNAMES
290
     1
  9
$PSVPSCALE
 40
0.0
  9
$OLESTARTUP
290
     0
  0
ENDSEC
  0
SECTION
  2
CLASSES
  0
CLASS
  1
ACDBDICTIONARYWDFLT
  2
AcDbDictionaryWithDefault
  3
ObjectDBX Classes
 90
        0
280
     0
281
     0
  0
CLASS
  1
DICTIONARYVAR
  2
AcDbDictionaryVar
  3
ObjectDBX Classes
 90
        0
280
     0
281
     0
  0
CLASS
  1
ACDBPLACEHOLDER
  2
AcDbPlaceHolder
  3
ObjectDBX Classes
 90
        0
280
     0
281
     0
  0
CLASS
  1
LAYOUT
  2
AcDbLayout
  3
ObjectDBX Classes
 90
        0
280
     0
281
     0
  0
ENDSEC
  0
SECTION
  2
TABLES
  0
TABLE
  2
VPORT
  5
746D
330
0
100
AcDbSymbolTable
 70
     3
  0
VPORT
  5
20E82
330
746D
100
AcDbSymbolTableRecord
100
AcDbViewportTableRecord
  2
*Active
 70
     0
 10
0.0
 20
0.0
 11
1.0
 21
1.0
 12
8223.567681261283
 22
5704.387434944665
 13
0.0
 23
0.0
 14
10.0
 24
10.0
 15
10.0
 25
10.0
 16
0.0
 26
0.0
 36
1.0
 17
0.0
 27
0.0
 37
0.0
 40
11494.9438086081
 41
1.522222222222221
 42
50.0
 43
0.0
 44
0.0
 50
0.0
 51
0.0
 71
     0
 72
     0
 73
     1
 74
     0
 75
     0
 76
     0
 77
     0
 78
     0
281
     0
 65
     1
110
0.0
120
0.0
130
0.0
111
1.0
121
0.0
131
0.0
112
0.0
122
1.0
132
0.0
 79
     0
146
0.0
  0
ENDTAB
  0
TABLE
  2
LTYPE
  5
746A
330
0
100
AcDbSymbolTable
 70
     5
  0
LTYPE
  5
7477
330
746A
100
AcDbSymbolTableRecord
100
AcDbLinetypeTableRecord
  2
BYBLOCK
 70
     0
  3

 72
    65
 73
     0
 40
0.0
  0
LTYPE
  5
7478
330
746A
100
AcDbSymbolTableRecord
100
AcDbLinetypeTableRecord
  2
BYLAYER
 70
     0
  3

 72
    65
 73
     0
 40
0.0
  0
LTYPE
  5
7479
330
746A
100
AcDbSymbolTableRecord
100
AcDbLinetypeTableRecord
  2
CONTINUOUS
 70
     0
  3
Solid line
 72
    65
 73
     0
 40
0.0
  0
LTYPE
  5
7816
330
746A
100
AcDbSymbolTableRecord
100
AcDbLinetypeTableRecord
  2
CENTER
 70
     0
  3
____ _ ____ _ ____ _ ____ _ ____ _ ____ _ ____ 
 72
    65
 73
     4
 40
2.0
 49
1.25
 74
     0
 49
-0.25
 74
     0
 49
0.25
 74
     0
 49
-0.25
 74
     0
  0
LTYPE
  5
781A
330
746A
100
AcDbSymbolTableRecord
100
AcDbLinetypeTableRecord
  2
HIDDEN
 70
     0
  3
__ __ __ __ __ __ __ __ __ __ __ __ __ __ __ __
 72
    65
 73
     2
 40
0.375
 49
0.25
 74
     0
 49
-0.125
 74
     0
  0
LTYPE
  5
781B
330
746A
100
AcDbSymbolTableRecord
100
AcDbLinetypeTableRecord
  2
PHANTOM
 70
     0
  3
______  __  __  ______  __  __  ______  __  __ 
 72
    65
 73
     6
 40
2.5
 49
1.25
 74
     0
 49
-0.25
 74
     0
 49
0.25
 74
     0
 49
-0.25
 74
     0
 49
0.25
 74
     0
 49
-0.25
 74
     0
  0
LTYPE
  5
12CC3
330
746A
100
AcDbSymbolTableRecord
100
AcDbLinetypeTableRecord
  2
HIDDENX2
 70
     0
  3
Hidden (2x) ____ ____ ____ ____ ____ ____ ____
 72
    65
 73
     2
 40
19.05
 49
12.7
 74
     0
 49
-6.349999999999999
 74
     0
  0
ENDTAB
  0
TABLE
  2
LAYER
  5
7467
102
{ACAD_XDICTIONARY
360
1758F
102
}
330
0
100
AcDbSymbolTable
 70
    12
  0
LAYER
  5
7474
330
7467
100
AcDbSymbolTableRecord
100
AcDbLayerTableRecord
  2
0
 70
     0
 62
     7
  6
CONTINUOUS
370
    -3
390
173D0
  0
LAYER
  5
DEB2
330
7467
100
AcDbSymbolTableRecord
100
AcDbLayerTableRecord
  2
センター
 70
     0
 62
     3
  6
CENTER
370
    -3
390
173D0
  0
LAYER
  5
DEB3
330
7467
100
AcDbSymbolTableRecord
100
AcDbLayerTableRecord
  2
寸法
 70
     0
 62
     4
  6
CONTINUOUS
370
    -3
390
173D0
  0
LAYER
  5
DEB4
330
7467
100
AcDbSymbolTableRecord
100
AcDbLayerTableRecord
  2
部品1
 70
     0
 62
     7
  6
CONTINUOUS
370
    -3
390
173D0
  0
LAYER
  5
DEB5
330
7467
100
AcDbSymbolTableRecord
100
AcDbLayerTableRecord
  2
補助
 70
     0
 62
    -1
  6
CONTINUOUS
370
    -3
390
173D0
  0
LAYER
  5
DEB6
330
7467
100
AcDbSymbolTableRecord
100
AcDbLayerTableRecord
  2
文字
 70
     0
 62
     7
  6
CONTINUOUS
370
    -3
390
173D0
  0
LAYER
  5
F255
330
7467
100
AcDbSymbolTableRecord
100
AcDbLayerTableRecord
  2
DEFPOINTS
 70
     0
 62
     7
  6
CONTINUOUS
290
     0
370
    -3
390
173D0
  0
LAYER
  5
10B54
330
7467
100
AcDbSymbolTableRecord
100
AcDbLayerTableRecord
  2
仕様書枠
 70
     0
 62
   230
  6
CONTINUOUS
370
    -3
390
173D0
  0
LAYER
  5
11729
330
7467
100
AcDbSymbolTableRecord
100
AcDbLayerTableRecord
  2
Ｇ．Ｌ
 70
     0
 62
    30
  6
CONTINUOUS
370
    -3
390
173D0
  0
LAYER
  5
1173F
330
7467
100
AcDbSymbolTableRecord
100
AcDbLayerTableRecord
  2
細線
 70
     0
 62
     5
  6
CONTINUOUS
370
    -3
390
173D0
  0
LAYER
  5
12CC4
330
7467
100
AcDbSymbolTableRecord
100
AcDbLayerTableRecord
  2
想像線
 70
     0
 62
     6
  6
PHANTOM
370
    -3
390
173D0
  0
LAYER
  5
142E2
330
7467
100
AcDbSymbolTableRecord
100
AcDbLayerTableRecord
  2
破線
 70
     0
 62
     2
  6
HIDDEN
370
    -3
390
173D0
  0
ENDTAB
  0
TABLE
  2
STYLE
  5
7468
330
0
100
AcDbSymbolTable
 70
     6
  0
STYLE
  5
7475
330
7468
100
AcDbSymbolTableRecord
100
AcDbTextStyleTableRecord
  2
STANDARD
 70
     0
 40
0.0
 41
1.0
 50
0.0
 71
     0
 42
4.0
  3
txt
  4
C:\AutoCAD LT\bigfont.shx
  0
STYLE
  5
763C
330
7468
100
AcDbSymbolTableRecord
100
AcDbTextStyleTableRecord
  2
MSMINCHO
 70
     0
 40
0.0
 41
1.0
 50
0.0
 71
     0
 42
1.199999999999999
  3
C:\AutoCAD LT\msminch2.TTF
  4

  0
STYLE
  5
F706
330
7468
100
AcDbSymbolTableRecord
100
AcDbTextStyleTableRecord
  2
STYLE1
 70
     0
 40
0.0
 41
1.0
 50
0.0
 71
     0
 42
4.0
  3
isocp.shx
  4
bigfont.shx
  0
STYLE
  5
103BF
330
7468
100
AcDbSymbolTableRecord
100
AcDbTextStyleTableRecord
  2
STYLE2
 70
     0
 40
0.0
 41
1.0
 50
0.0
 71
     0
 42
100.0
  3
MS PGothic.ttf
  4

1001
ACAD
1000
MS PGothic
1071
    32818
  0
STYLE
  5
11A15
330
7468
100
AcDbSymbolTableRecord
100
AcDbTextStyleTableRecord
  2
MSGOTHIC
 70
     0
 40
0.0
 41
1.0
 50
0.0
 71
     0
 42
3.5
  3
msgothi2.ttf
  4

  0
STYLE
  5
13E96
330
7468
100
AcDbSymbolTableRecord
100
AcDbTextStyleTableRecord
  2
MSPゴシック
 70
     0
 40
0.0
 41
1.0
 50
0.0
 71
     0
 42
4.0
  3
MS PGothic.ttf
  4

1001
ACAD
1000
MS PGothic
1071
    32818
  0
ENDTAB
  0
TABLE
  2
VIEW
  5
746B
330
0
100
AcDbSymbolTable
 70
     0
  0
ENDTAB
  0
TABLE
  2
UCS
  5
746C
330
0
100
AcDbSymbolTable
 70
     0
  0
ENDTAB
  0
TABLE
  2
APPID
  5
746E
330
0
100
AcDbSymbolTable
 70
     6
  0
APPID
  5
7476
330
746E
100
AcDbSymbolTableRecord
100
AcDbRegAppTableRecord
  2
ACAD
 70
     0
  0
APPID
  5
DEA9
330
746E
100
AcDbSymbolTableRecord
100
AcDbRegAppTableRecord
  2
CONTENTBLOCKICON
 70
     0
  0
APPID
  5
DEAA
330
746E
100
AcDbSymbolTableRecord
100
AcDbRegAppTableRecord
  2
CONTENTBLOCKDESCRIPTION
 70
     0
  0
APPID
  5
E71D
330
746E
100
AcDbSymbolTableRecord
100
AcDbRegAppTableRecord
  2
CONTENTTABDATA
 70
     0
  0
APPID
  5
E71E
330
746E
100
AcDbSymbolTableRecord
100
AcDbRegAppTableRecord
  2
CONTENTCURRENTTAB
 70
     0
  0
APPID
  5
F3BA
330
746E
100
AcDbSymbolTableRecord
100
AcDbRegAppTableRecord
  2
DRAWINGVARIABLESXDATA
 70
     0
  0
ENDTAB
  0
TABLE
  2
DIMSTYLE
  5
746F
330
0
100
AcDbSymbolTable
 70
     7
100
AcDbDimStyleTable
 71
     1
340
F71F
  0
DIMSTYLE
105
7484
330
746F
100
AcDbSymbolTableRecord
100
AcDbDimStyleTableRecord
  2
JIS
 70
     0
 41
2.5
 42
1.0
 43
7.0
 44
1.0
 73
     0
 74
     0
 77
     1
 78
     8
140
2.5
141
0.0
143
0.0394
147
0.0
172
     1
174
     1
175
     1
340
7475
  0
DIMSTYLE
105
F236
330
746F
100
AcDbSymbolTableRecord
100
AcDbDimStyleTableRecord
  2
INABA_S40
 70
     0
 40
40.0
 41
2.5
 42
0.5
 43
7.0
 44
1.5
 73
     0
 74
     0
 77
     3
 78
     8
140
3.0
141
0.0
143
0.0394
147
1.0
172
     1
173
     1
174
     1
175
     1
178
     7
289
     0
340
7475
341
DEAC
343
DEAC
344
DEAC
  0
DIMSTYLE
105
F71F
102
{ACAD_REACTORS
330
1E238
330
1E237
330
1E235
330
1E232
330
1E05F
330
1E05C
330
1E05B
330
1E038
330
1E035
330
1E034
330
1E058
330
1E055
330
1E047
330
1E044
330
1E04A
330
1E048
330
1E06B
330
1E07C
330
1E06D
330
1E074
330
1E042
330
1E062
330
1E04E
330
1E04B
330
1E046
330
20239
330
20289
330
202BF
330
20CF5
330
20CF6
102
}
330
746F
100
AcDbSymbolTableRecord
100
AcDbDimStyleTableRecord
  2
INABA_S40G
 70
     0
 40
40.0
 41
2.5
 42
0.5
 43
7.0
 44
1.5
 73
     0
 74
     0
 77
     3
 78
     8
140
3.0
141
0.0
143
0.0394
147
1.0
172
     1
173
     1
174
     1
178
     7
271
     1
340
F706
341
F770
343
F770
344
F770
  0
DIMSTYLE
105
142E3
330
746F
100
AcDbSymbolTableRecord
100
AcDbDimStyleTableRecord
  2
INABA_S1
 70
     0
 40
0.0
 41
2.5
 42
0.5
 43
7.0
 44
1.5
 73
     0
 74
     0
 77
     3
 78
     8
140
3.0
141
0.0
143
0.0394
146
0.5
147
0.5
172
     1
173
     1
176
   256
177
   256
178
     7
271
     2
272
     2
284
     8
288
     1
340
7475
341
DEAC
343
DEAC
344
DEAC
  0
DIMSTYLE
105
14463
330
746F
100
AcDbSymbolTableRecord
100
AcDbDimStyleTableRecord
  2
INABA_S30G
 70
     0
 40
30.0
 41
2.5
 42
0.5
 43
7.0
 44
1.5
 73
     0
 74
     0
 77
     3
 78
     8
140
3.0
141
0.0
143
0.0394
147
1.0
172
     1
173
     1
174
     1
175
     1
178
     7
271
     1
340
F706
341
F770
343
F770
344
F770
  0
DIMSTYLE
105
1758E
330
746F
100
AcDbSymbolTableRecord
100
AcDbDimStyleTableRecord
  2
INABA_S50G
 70
     0
 41
125.0
 42
25.0
 43
7.0
 44
75.0
 73
     0
 74
     0
 77
     3
 78
     8
140
150.0
141
0.0
143
0.0394
147
25.0
172
     1
173
     1
174
     1
175
     1
178
     7
271
     1
340
F706
341
F770
343
F770
344
F770
  0
DIMSTYLE
105
207B6
102
{ACAD_REACTORS
330
20DD1
330
20DE2
330
20DE3
330
20DEA
102
}
330
746F
100
AcDbSymbolTableRecord
100
AcDbDimStyleTableRecord
  2
INABA_S50GUP
 70
     0
 41
125.0
 42
25.0
 43
7.0
 44
75.0
 73
     0
 74
     0
 77
     3
 78
     8
140
150.0
141
0.0
143
0.0394
147
25.0
172
     1
173
     1
174
     1
178
     7
271
     1
340
F706
341
F770
343
F770
344
F770
  0
ENDTAB
  0
TABLE
  2
BLOCK_RECORD
  5
7466
330
0
100
AcDbSymbolTable
 70
    66
  0
BLOCK_RECORD
  5
747D
330
7466
100
AcDbSymbolTableRecord
100
AcDbBlockTableRecord
  2
*MODEL_SPACE
340
173D5
  0
BLOCK_RECORD
  5
747A
330
7466
100
AcDbSymbolTableRecord
100
AcDbBlockTableRecord
  2
*PAPER_SPACE
340
173D6
  0
BLOCK_RECORD
  5
DEAC
330
7466
100
AcDbSymbolTableRecord
100
AcDbBlockTableRecord
  2
_OPEN
340
0
  0
BLOCK_RECORD
  5
F770
330
7466
100
AcDbSymbolTableRecord
100
AcDbBlockTableRecord
  2
_DOTSMALL
340
0
102
{BLKREFS
331
18C65
331
18C66
331
18C59
331
18C5A
331
18C4D
331
18C4E
331
18C41
331
18C42
331
18C35
331
18C36
331
18C29
331
18C2A
331
18C1D
331
18C1E
331
18C0F
331
18C10
331
18C03
331
18C04
331
18BF5
331
18BF6
331
18BE7
331
18BE8
331
18BD9
331
18BDA
331
18BCD
331
18BCE
331
1FE63
331
1FE64
331
1FE6D
331
1FE6E
331
1FE78
331
1FE79
331
1FE81
331
1FE82
331
1FEB5
331
1FEB6
331
1FED3
331
1FED4
331
1FEDE
331
1FEDF
331
1FEE8
331
1FEE9
331
1FEF3
331
1FEF4
331
1FF1A
331
1FF1B
331
1FF24
331
1FF25
331
1FF2D
331
1FF2E
331
1FF3F
331
1FF40
331
1FF49
331
1FF4A
331
1FF51
331
1FF52
331
1FF5A
331
1FF5B
331
20662
331
20663
331
20677
331
20678
331
20680
331
20681
331
206F0
331
206F1
331
20706
331
20707
331
20710
331
20711
331
2071A
331
2071B
331
20724
331
20725
331
20756
331
20757
331
20AA9
331
20AAA
331
20AB2
331
20AB3
331
20ABB
331
20ABC
331
20AD0
331
20AD1
331
20ADA
331
20ADB
331
20AE3
331
20AE4
331
20AEC
331
20AED
331
20AF5
331
20AF6
331
20AFE
331
20AFF
331
20B22
331
20B23
331
20B14
331
20B15
331
20B52
331
20B53
331
20B46
331
20B47
331
20B3A
331
20B3B
331
20B2E
331
20B2F
331
20E4D
331
20E4E
331
20E57
331
20E58
331
20E60
331
20E61
331
20E69
331
20E6A
331
20E72
331
20E73
331
20E7B
331
20E7C
102
}
  0
BLOCK_RECORD
  5
164B4
330
7466
100
AcDbSymbolTableRecord
100
AcDbBlockTableRecord
  2
_DOT
340
0
102
{BLKREFS
331
18C73
331
18C74
102
}
  0
BLOCK_RECORD
  5
18BC8
330
7466
100
AcDbSymbolTableRecord
100
AcDbBlockTableRecord
  2
*D3
340
0
  0
BLOCK_RECORD
  5
18BD4
330
7466
100
AcDbSymbolTableRecord
100
AcDbBlockTableRecord
  2
*D4
340
0
  0
BLOCK_RECORD
  5
18BE0
330
7466
100
AcDbSymbolTableRecord
100
AcDbBlockTableRecord
  2
*D5
340
0
  0
BLOCK_RECORD
  5
18BEE
330
7466
100
AcDbSymbolTableRecord
100
AcDbBlockTableRecord
  2
*D6
340
0
  0
BLOCK_RECORD
  5
18BFC
330
7466
100
AcDbSymbolTableRecord
100
AcDbBlockTableRecord
  2
*D7
340
0
  0
BLOCK_RECORD
  5
18C0A
330
7466
100
AcDbSymbolTableRecord
100
AcDbBlockTableRecord
  2
*D8
340
0
  0
BLOCK_RECORD
  5
18C16
330
7466
100
AcDbSymbolTableRecord
100
AcDbBlockTableRecord
  2
*D9
340
0
  0
BLOCK_RECORD
  5
18C24
330
7466
100
AcDbSymbolTableRecord
100
AcDbBlockTableRecord
  2
*D10
340
0
  0
BLOCK_RECORD
  5
18C30
330
7466
100
AcDbSymbolTableRecord
100
AcDbBlockTableRecord
  2
*D11
340
0
  0
BLOCK_RECORD
  5
18C3C
330
7466
100
AcDbSymbolTableRecord
100
AcDbBlockTableRecord
  2
*D12
340
0
  0
BLOCK_RECORD
  5
18C48
330
7466
100
AcDbSymbolTableRecord
100
AcDbBlockTableRecord
  2
*D13
340
0
  0
BLOCK_RECORD
  5
18C54
330
7466
100
AcDbSymbolTableRecord
100
AcDbBlockTableRecord
  2
*D14
340
0
  0
BLOCK_RECORD
  5
18C60
330
7466
100
AcDbSymbolTableRecord
100
AcDbBlockTableRecord
  2
*D15
340
0
  0
BLOCK_RECORD
  5
18C6C
330
7466
100
AcDbSymbolTableRecord
100
AcDbBlockTableRecord
  2
*D16
340
0
  0
BLOCK_RECORD
  5
18C7A
330
7466
100
AcDbSymbolTableRecord
100
AcDbBlockTableRecord
  2
A$C3B1A506B
340
0
  0
BLOCK_RECORD
  5
1C4CA
330
7466
100
AcDbSymbolTableRecord
100
AcDbBlockTableRecord
  2
_NONE
340
0
  0
BLOCK_RECORD
  5
1E35F
330
7466
100
AcDbSymbolTableRecord
100
AcDbBlockTableRecord
  2
*D19
340
0
  0
BLOCK_RECORD
  5
1E36C
330
7466
100
AcDbSymbolTableRecord
100
AcDbBlockTableRecord
  2
*D20
340
0
  0
BLOCK_RECORD
  5
1E378
330
7466
100
AcDbSymbolTableRecord
100
AcDbBlockTableRecord
  2
*D21
340
0
  0
BLOCK_RECORD
  5
1E383
330
7466
100
AcDbSymbolTableRecord
100
AcDbBlockTableRecord
  2
*D22
340
0
  0
BLOCK_RECORD
  5
1E38F
330
7466
100
AcDbSymbolTableRecord
100
AcDbBlockTableRecord
  2
*D23
340
0
  0
BLOCK_RECORD
  5
1E39B
330
7466
100
AcDbSymbolTableRecord
100
AcDbBlockTableRecord
  2
*D24
340
0
  0
BLOCK_RECORD
  5
1E3A7
330
7466
100
AcDbSymbolTableRecord
100
AcDbBlockTableRecord
  2
*D25
340
0
  0
BLOCK_RECORD
  5
1E3B2
330
7466
100
AcDbSymbolTableRecord
100
AcDbBlockTableRecord
  2
*D26
340
0
  0
BLOCK_RECORD
  5
1E3BF
330
7466
100
AcDbSymbolTableRecord
100
AcDbBlockTableRecord
  2
*D27
340
0
  0
BLOCK_RECORD
  5
1E3C9
330
7466
100
AcDbSymbolTableRecord
100
AcDbBlockTableRecord
  2
*D28
340
0
  0
BLOCK_RECORD
  5
1E3D5
330
7466
100
AcDbSymbolTableRecord
100
AcDbBlockTableRecord
  2
*D29
340
0
  0
BLOCK_RECORD
  5
1E3E1
330
7466
100
AcDbSymbolTableRecord
100
AcDbBlockTableRecord
  2
*D30
340
0
  0
BLOCK_RECORD
  5
1E3EE
330
7466
100
AcDbSymbolTableRecord
100
AcDbBlockTableRecord
  2
*D31
340
0
  0
BLOCK_RECORD
  5
1E3F8
330
7466
100
AcDbSymbolTableRecord
100
AcDbBlockTableRecord
  2
*D32
340
0
  0
BLOCK_RECORD
  5
1E405
330
7466
100
AcDbSymbolTableRecord
100
AcDbBlockTableRecord
  2
*D33
340
0
  0
BLOCK_RECORD
  5
1E413
330
7466
100
AcDbSymbolTableRecord
100
AcDbBlockTableRecord
  2
*D34
340
0
  0
BLOCK_RECORD
  5
1E420
330
7466
100
AcDbSymbolTableRecord
100
AcDbBlockTableRecord
  2
*D35
340
0
  0
BLOCK_RECORD
  5
1E43A
330
7466
100
AcDbSymbolTableRecord
100
AcDbBlockTableRecord
  2
*D36
340
0
  0
BLOCK_RECORD
  5
1E448
330
7466
100
AcDbSymbolTableRecord
100
AcDbBlockTableRecord
  2
*D37
340
0
  0
BLOCK_RECORD
  5
1E455
330
7466
100
AcDbSymbolTableRecord
100
AcDbBlockTableRecord
  2
*D38
340
0
  0
BLOCK_RECORD
  5
1E460
330
7466
100
AcDbSymbolTableRecord
100
AcDbBlockTableRecord
  2
*D39
340
0
  0
BLOCK_RECORD
  5
1E47B
330
7466
100
AcDbSymbolTableRecord
100
AcDbBlockTableRecord
  2
*D40
340
0
  0
BLOCK_RECORD
  5
1E486
330
7466
100
AcDbSymbolTableRecord
100
AcDbBlockTableRecord
  2
*D41
340
0
  0
BLOCK_RECORD
  5
1E494
330
7466
100
AcDbSymbolTableRecord
100
AcDbBlockTableRecord
  2
*D42
340
0
  0
BLOCK_RECORD
  5
1E4A1
330
7466
100
AcDbSymbolTableRecord
100
AcDbBlockTableRecord
  2
*D43
340
0
  0
BLOCK_RECORD
  5
2035D
330
7466
100
AcDbSymbolTableRecord
100
AcDbBlockTableRecord
  2
*D44
340
0
  0
BLOCK_RECORD
  5
203BA
330
7466
100
AcDbSymbolTableRecord
100
AcDbBlockTableRecord
  2
*D45
340
0
  0
BLOCK_RECORD
  5
203FD
330
7466
100
AcDbSymbolTableRecord
100
AcDbBlockTableRecord
  2
*D46
340
0
  0
BLOCK_RECORD
  5
20A19
330
7466
100
AcDbSymbolTableRecord
100
AcDbBlockTableRecord
  2
*D47
340
0
  0
BLOCK_RECORD
  5
20A25
330
7466
100
AcDbSymbolTableRecord
100
AcDbBlockTableRecord
  2
*D48
340
0
  0
BLOCK_RECORD
  5
20A31
330
7466
100
AcDbSymbolTableRecord
100
AcDbBlockTableRecord
  2
*D49
340
0
  0
BLOCK_RECORD
  5
20A3D
330
7466
100
AcDbSymbolTableRecord
100
AcDbBlockTableRecord
  2
*D50
340
0
  0
BLOCK_RECORD
  5
20A49
330
7466
100
AcDbSymbolTableRecord
100
AcDbBlockTableRecord
  2
*D51
340
0
  0
BLOCK_RECORD
  5
20A56
330
7466
100
AcDbSymbolTableRecord
100
AcDbBlockTableRecord
  2
*D52
340
0
  0
BLOCK_RECORD
  5
20B0E
330
7466
100
AcDbSymbolTableRecord
100
AcDbBlockTableRecord
  2
*D53
340
0
  0
BLOCK_RECORD
  5
20B1B
330
7466
100
AcDbSymbolTableRecord
100
AcDbBlockTableRecord
  2
*D54
340
0
  0
BLOCK_RECORD
  5
20B29
330
7466
100
AcDbSymbolTableRecord
100
AcDbBlockTableRecord
  2
*D55
340
0
  0
BLOCK_RECORD
  5
20B35
330
7466
100
AcDbSymbolTableRecord
100
AcDbBlockTableRecord
  2
*D56
340
0
  0
BLOCK_RECORD
  5
20B41
330
7466
100
AcDbSymbolTableRecord
100
AcDbBlockTableRecord
  2
*D57
340
0
  0
BLOCK_RECORD
  5
20B4D
330
7466
100
AcDbSymbolTableRecord
100
AcDbBlockTableRecord
  2
*D58
340
0
  0
BLOCK_RECORD
  5
20DFD
330
7466
100
AcDbSymbolTableRecord
100
AcDbBlockTableRecord
  2
*D60
340
0
  0
BLOCK_RECORD
  5
20E0B
330
7466
100
AcDbSymbolTableRecord
100
AcDbBlockTableRecord
  2
*D61
340
0
  0
BLOCK_RECORD
  5
20E18
330
7466
100
AcDbSymbolTableRecord
100
AcDbBlockTableRecord
  2
*D62
340
0
  0
BLOCK_RECORD
  5
20E24
330
7466
100
AcDbSymbolTableRecord
100
AcDbBlockTableRecord
  2
*D63
340
0
  0
BLOCK_RECORD
  5
20E30
330
7466
100
AcDbSymbolTableRecord
100
AcDbBlockTableRecord
  2
*D64
340
0
  0
BLOCK_RECORD
  5
20E3C
330
7466
100
AcDbSymbolTableRecord
100
AcDbBlockTableRecord
  2
*D65
340
0
  0
ENDTAB
  0
ENDSEC
  0
SECTION
  2
BLOCKS
  0
BLOCK
  5
7489
330
747D
100
AcDbEntity
  8
0
100
AcDbBlockBegin
  2
*MODEL_SPACE
 70
     0
 10
0.0
 20
0.0
 30
0.0
  3
*MODEL_SPACE
  1

  0
ENDBLK
  5
748A
330
747D
100
AcDbEntity
  8
0
100
AcDbBlockEnd
  0
BLOCK
  5
7487
330
747A
100
AcDbEntity
 67
     1
  8
0
100
AcDbBlockBegin
  2
*PAPER_SPACE
 70
     0
 10
0.0
 20
0.0
 30
0.0
  3
*PAPER_SPACE
  1

  0
ENDBLK
  5
7488
330
747A
100
AcDbEntity
 67
     1
  8
0
100
AcDbBlockEnd
  0
BLOCK
  5
DEAD
330
DEAC
100
AcDbEntity
  8
0
100
AcDbBlockBegin
  2
_OPEN
 70
     0
 10
0.0
 20
0.0
 30
0.0
  3
_OPEN
  1

  0
LINE
  5
DEAE
330
DEAC
100
AcDbEntity
  8
0
  6
ByBlock
 62
     0
100
AcDbLine
 10
-1.0
 20
0.1666666666666666
 30
0.0
 11
0.0
 21
0.0
 31
0.0
  0
LINE
  5
DEAF
330
DEAC
100
AcDbEntity
  8
0
  6
ByBlock
 62
     0
100
AcDbLine
 10
0.0
 20
0.0
 30
0.0
 11
-1.0
 21
-0.1666666666666666
 31
0.0
  0
LINE
  5
DEB0
330
DEAC
100
AcDbEntity
  8
0
  6
ByBlock
 62
     0
100
AcDbLine
 10
0.0
 20
0.0
 30
0.0
 11
-1.0
 21
0.0
 31
0.0
  0
ENDBLK
  5
DEB1
330
DEAC
100
AcDbEntity
  8
0
100
AcDbBlockEnd
  0
BLOCK
  5
F771
330
F770
100
AcDbEntity
  8
0
 48
50.0
100
AcDbBlockBegin
  2
_DOTSMALL
 70
     0
 10
0.0
 20
0.0
 30
0.0
  3
_DOTSMALL
  1

  0
LWPOLYLINE
  5
F772
330
F770
100
AcDbEntity
  8
0
  6
ByBlock
 62
     0
 48
50.0
100
AcDbPolyline
 90
        2
 70
     1
 43
0.5
 10
-0.0625
 20
0.0
 42
1.0
 10
0.0625
 20
0.0
 42
1.0
  0
ENDBLK
  5
F776
330
F770
100
AcDbEntity
  8
0
 48
50.0
100
AcDbBlockEnd
  0
BLOCK
  5
164BA
330
164B4
100
AcDbEntity
  8
0
 48
50.0
100
AcDbBlockBegin
  2
_DOT
 70
     0
 10
0.0
 20
0.0
 30
0.0
  3
_DOT
  1

  0
LWPOLYLINE
  5
164B5
330
164B4
100
AcDbEntity
  8
0
  6
ByBlock
 62
     0
 48
50.0
100
AcDbPolyline
 90
        2
 70
     1
 43
0.5
 10
-0.25
 20
0.0
 42
1.0
 10
0.25
 20
0.0
 42
1.0
  0
LINE
  5
164B9
330
164B4
100
AcDbEntity
  8
0
  6
ByBlock
 62
     0
 48
50.0
100
AcDbLine
 10
-0.5
 20
0.0
 30
0.0
 11
-1.0
 21
0.0
 31
0.0
  0
ENDBLK
  5
164BB
330
164B4
100
AcDbEntity
  8
0
 48
50.0
100
AcDbBlockEnd
  0
BLOCK
  5
18BC9
330
18BC8
100
AcDbEntity
  8
0
 48
50.0
100
AcDbBlockBegin
  2
*D3
 70
     1
 10
0.0
 20
0.0
 30
0.0
  3
*D3
  1

  0
LINE
  5
18BCA
330
18BC8
100
AcDbEntity
  8
寸法
 62
     0
 48
50.0
370
    -2
100
AcDbLine
 10
7649.896575106999
 20
9636.123139034717
 30
0.0
 11
8702.429862581047
 21
9636.123139034717
 31
0.0
  0
LINE
  5
18BCB
330
18BC8
100
AcDbEntity
  8
寸法
 62
     0
 48
50.0
370
    -2
100
AcDbLine
 10
7649.896575106973
 20
7846.123139034709
 30
0.0
 11
8702.429862581047
 21
7846.123139034709
 31
0.0
  0
LINE
  5
18BCC
330
18BC8
100
AcDbEntity
  8
寸法
 62
     0
 48
50.0
370
    -2
100
AcDbLine
 10
8642.429862581046
 20
9636.123139034717
 30
0.0
 11
8642.429862581046
 21
7846.123139034709
 31
0.0
  0
INSERT
  5
18BCD
330
18BC8
100
AcDbEntity
  8
寸法
 62
     0
 48
50.0
370
    -2
100
AcDbBlockReference
  2
_DOTSMALL
 10
8642.429862581046
 20
9636.123139034717
 30
0.0
 41
100.0
 42
100.0
 43
100.0
 50
90.0
  0
INSERT
  5
18BCE
330
18BC8
100
AcDbEntity
  8
寸法
 62
     0
 48
50.0
370
    -2
100
AcDbBlockReference
  2
_DOTSMALL
 10
8642.429862581046
 20
7846.123139034709
 30
0.0
 41
100.0
 42
100.0
 43
100.0
 50
270.0
  0
MTEXT
  5
18BCF
330
18BC8
100
AcDbEntity
  8
寸法
 62
     7
 48
50.0
100
AcDbMText
 10
8542.429862581045
 20
8741.123139034712
 30
0.0
 40
120.0
 41
0.0
 71
     5
 72
     1
  1
\A1;1790
  7
STYLE1
 11
0.0000000000000001
 21
1.0
 31
0.0
 73
     1
 44
1.0
1001
ACAD
1000
MTEXTBEGIN
1070
    73
1070
     1
1070
    44
1040
1.0
1070
    74
1070
     0
1000
MTEXTEND
  0
POINT
  5
18BD0
330
18BC8
100
AcDbEntity
  8
DEFPOINTS
 62
     0
 48
50.0
100
AcDbPoint
 10
7629.896575106998
 20
9636.123139034717
 30
0.0
  0
POINT
  5
18BD1
330
18BC8
100
AcDbEntity
  8
DEFPOINTS
 62
     0
 48
50.0
100
AcDbPoint
 10
7629.896575106974
 20
7846.123139034709
 30
0.0
  0
POINT
  5
18BD2
330
18BC8
100
AcDbEntity
  8
DEFPOINTS
 62
     0
 48
50.0
100
AcDbPoint
 10
8642.429862581046
 20
7846.123139034709
 30
0.0
  0
ENDBLK
  5
18BD3
330
18BC8
100
AcDbEntity
  8
0
 48
50.0
100
AcDbBlockEnd
  0
BLOCK
  5
18BD5
330
18BD4
100
AcDbEntity
  8
0
 48
50.0
100
AcDbBlockBegin
  2
*D4
 70
     1
 10
0.0
 20
0.0
 30
0.0
  3
*D4
  1

  0
LINE
  5
18BD6
330
18BD4
100
AcDbEntity
  8
寸法
 62
     0
 48
50.0
370
    -2
100
AcDbLine
 10
4214.896575106998
 20
9656.123139034622
 30
0.0
 11
4214.896575106998
 21
10211.93135865972
 31
0.0
  0
LINE
  5
18BD7
330
18BD4
100
AcDbEntity
  8
寸法
 62
     0
 48
50.0
370
    -2
100
AcDbLine
 10
7574.896575106999
 20
9656.123139034718
 30
0.0
 11
7574.896575106999
 21
10211.93135865972
 31
0.0
  0
LINE
  5
18BD8
330
18BD4
100
AcDbEntity
  8
寸法
 62
     0
 48
50.0
370
    -2
100
AcDbLine
 10
4214.896575106998
 20
10151.93135865972
 30
0.0
 11
7574.896575106999
 21
10151.93135865972
 31
0.0
  0
INSERT
  5
18BD9
330
18BD4
100
AcDbEntity
  8
寸法
 62
     0
 48
50.0
370
    -2
100
AcDbBlockReference
  2
_DOTSMALL
 10
4214.896575106998
 20
10151.93135865972
 30
0.0
 41
100.0
 42
100.0
 43
100.0
 50
180.0
  0
INSERT
  5
18BDA
330
18BD4
100
AcDbEntity
  8
寸法
 62
     0
 48
50.0
370
    -2
100
AcDbBlockReference
  2
_DOTSMALL
 10
7574.896575106999
 20
10151.93135865972
 30
0.0
 41
100.0
 42
100.0
 43
100.0
  0
MTEXT
  5
18BDB
330
18BD4
100
AcDbEntity
  8
寸法
 62
     7
 48
50.0
100
AcDbMText
 10
5894.896575106997
 20
10251.94316968334
 30
0.0
 40
120.0
 41
0.0
 71
     5
 72
     1
  1
\A1;8X420=3360
  7
STYLE1
 73
     1
 44
1.0
1001
ACAD
1000
MTEXTBEGIN
1070
    73
1070
     1
1070
    44
1040
1.0
1070
    74
1070
     0
1000
MTEXTEND
  0
POINT
  5
18BDC
330
18BD4
100
AcDbEntity
  8
DEFPOINTS
 62
     0
 48
50.0
100
AcDbPoint
 10
4214.896575106998
 20
9636.123139034623
 30
0.0
  0
POINT
  5
18BDD
330
18BD4
100
AcDbEntity
  8
DEFPOINTS
 62
     0
 48
50.0
100
AcDbPoint
 10
7574.896575106999
 20
9636.123139034717
 30
0.0
  0
POINT
  5
18BDE
330
18BD4
100
AcDbEntity
  8
DEFPOINTS
 62
     0
 48
50.0
100
AcDbPoint
 10
7574.896575106999
 20
10151.93135865972
 30
0.0
  0
ENDBLK
  5
18BDF
330
18BD4
100
AcDbEntity
  8
0
 48
50.0
100
AcDbBlockEnd
  0
BLOCK
  5
18BE1
330
18BE0
100
AcDbEntity
  8
0
 48
50.0
100
AcDbBlockBegin
  2
*D5
 70
     1
 10
0.0
 20
0.0
 30
0.0
  3
*D5
  1

  0
LINE
  5
18BE2
330
18BE0
100
AcDbEntity
  8
寸法
 62
     0
 48
50.0
370
    -2
100
AcDbLine
 10
7574.896575106999
 20
9656.123139034718
 30
0.0
 11
7574.896575106999
 21
10211.9313586597
 31
0.0
  0
LINE
  5
18BE3
330
18BE0
100
AcDbEntity
  8
寸法
 62
     0
 48
50.0
370
    -2
100
AcDbLine
 10
7629.896575106998
 20
9656.123139034718
 30
0.0
 11
7629.896575106998
 21
10211.9313586597
 31
0.0
  0
LINE
  5
18BE4
330
18BE0
100
AcDbEntity
  8
寸法
 62
     0
 48
50.0
370
    -2
100
AcDbLine
 10
7574.896575106999
 20
10151.9313586597
 30
0.0
 11
7474.896575106999
 21
10151.9313586597
 31
0.0
  0
LINE
  5
18BE5
330
18BE0
100
AcDbEntity
  8
寸法
 62
     0
 48
50.0
370
    -2
100
AcDbLine
 10
7629.896575106998
 20
10151.9313586597
 30
0.0
 11
8046.867137855477
 21
10151.9313586597
 31
0.0
  0
LINE
  5
18BE6
330
18BE0
100
AcDbEntity
  8
寸法
 62
     0
 48
50.0
370
    -2
100
AcDbLine
 10
7574.896575106999
 20
10151.9313586597
 30
0.0
 11
7629.896575106998
 21
10151.9313586597
 31
0.0
  0
INSERT
  5
18BE7
330
18BE0
100
AcDbEntity
  8
寸法
 62
     0
 48
50.0
370
    -2
100
AcDbBlockReference
  2
_DOTSMALL
 10
7574.896575106999
 20
10151.9313586597
 30
0.0
 41
100.0
 42
100.0
 43
100.0
  0
INSERT
  5
18BE8
330
18BE0
100
AcDbEntity
  8
寸法
 62
     0
 48
50.0
370
    -2
100
AcDbBlockReference
  2
_DOTSMALL
 10
7629.896575106998
 20
10151.9313586597
 30
0.0
 41
100.0
 42
100.0
 43
100.0
 50
180.0
  0
MTEXT
  5
18BE9
330
18BE0
100
AcDbEntity
  8
寸法
 62
     7
 48
50.0
100
AcDbMText
 10
7938.381856481237
 20
10251.9313586597
 30
0.0
 40
120.0
 41
0.0
 71
     5
 72
     1
  1
\A1;55
  7
STYLE1
 73
     1
 44
1.0
1001
ACAD
1000
MTEXTBEGIN
1070
    73
1070
     1
1070
    44
1040
1.0
1070
    74
1070
     0
1000
MTEXTEND
  0
POINT
  5
18BEA
330
18BE0
100
AcDbEntity
  8
DEFPOINTS
 62
     0
 48
50.0
100
AcDbPoint
 10
7574.896575106999
 20
9636.123139034717
 30
0.0
  0
POINT
  5
18BEB
330
18BE0
100
AcDbEntity
  8
DEFPOINTS
 62
     0
 48
50.0
100
AcDbPoint
 10
7629.896575106998
 20
9636.123139034717
 30
0.0
  0
POINT
  5
18BEC
330
18BE0
100
AcDbEntity
  8
DEFPOINTS
 62
     0
 48
50.0
100
AcDbPoint
 10
7629.896575106998
 20
10151.9313586597
 30
0.0
  0
ENDBLK
  5
18BED
330
18BE0
100
AcDbEntity
  8
0
 48
50.0
100
AcDbBlockEnd
  0
BLOCK
  5
18BEF
330
18BEE
100
AcDbEntity
  8
0
 48
50.0
100
AcDbBlockBegin
  2
*D6
 70
     1
 10
0.0
 20
0.0
 30
0.0
  3
*D6
  1

  0
LINE
  5
18BF0
330
18BEE
100
AcDbEntity
  8
寸法
 62
     0
 48
50.0
370
    -2
100
AcDbLine
 10
7649.896575106999
 20
9636.123139034717
 30
0.0
 11
8337.32292084141
 21
9636.123139034717
 31
0.0
  0
LINE
  5
18BF1
330
18BEE
100
AcDbEntity
  8
寸法
 62
     0
 48
50.0
370
    -2
100
AcDbLine
 10
7649.896575106999
 20
9581.123139034721
 30
0.0
 11
8337.32292084141
 21
9581.123139034721
 31
0.0
  0
LINE
  5
18BF2
330
18BEE
100
AcDbEntity
  8
寸法
 62
     0
 48
50.0
370
    -2
100
AcDbLine
 10
8277.322920841411
 20
9581.123139034721
 30
0.0
 11
8277.322920841411
 21
9481.123139034719
 31
0.0
  0
LINE
  5
18BF3
330
18BEE
100
AcDbEntity
  8
寸法
 62
     0
 48
50.0
370
    -2
100
AcDbLine
 10
8277.322920841411
 20
9636.123139034717
 30
0.0
 11
8277.322920841411
 21
10053.09370178319
 31
0.0
  0
LINE
  5
18BF4
330
18BEE
100
AcDbEntity
  8
寸法
 62
     0
 48
50.0
370
    -2
100
AcDbLine
 10
8277.322920841411
 20
9581.123139034721
 30
0.0
 11
8277.322920841411
 21
9636.123139034717
 31
0.0
  0
INSERT
  5
18BF5
330
18BEE
100
AcDbEntity
  8
寸法
 62
     0
 48
50.0
370
    -2
100
AcDbBlockReference
  2
_DOTSMALL
 10
8277.322920841411
 20
9581.123139034721
 30
0.0
 41
100.0
 42
100.0
 43
100.0
 50
90.0
  0
INSERT
  5
18BF6
330
18BEE
100
AcDbEntity
  8
寸法
 62
     0
 48
50.0
370
    -2
100
AcDbBlockReference
  2
_DOTSMALL
 10
8277.322920841411
 20
9636.123139034717
 30
0.0
 41
100.0
 42
100.0
 43
100.0
 50
270.0
  0
MTEXT
  5
18BF7
330
18BEE
100
AcDbEntity
  8
寸法
 62
     7
 48
50.0
100
AcDbMText
 10
8177.32292084141
 20
9944.608420408957
 30
0.0
 40
120.0
 41
0.0
 71
     5
 72
     1
  1
\A1;55
  7
STYLE1
 11
0.0000000000000001
 21
1.0
 31
0.0
 73
     1
 44
1.0
1001
ACAD
1000
MTEXTBEGIN
1070
    73
1070
     1
1070
    44
1040
1.0
1070
    74
1070
     0
1000
MTEXTEND
  0
POINT
  5
18BF8
330
18BEE
100
AcDbEntity
  8
DEFPOINTS
 62
     0
 48
50.0
100
AcDbPoint
 10
7629.896575106998
 20
9636.123139034717
 30
0.0
  0
POINT
  5
18BF9
330
18BEE
100
AcDbEntity
  8
DEFPOINTS
 62
     0
 48
50.0
100
AcDbPoint
 10
7629.896575106998
 20
9581.123139034721
 30
0.0
  0
POINT
  5
18BFA
330
18BEE
100
AcDbEntity
  8
DEFPOINTS
 62
     0
 48
50.0
100
AcDbPoint
 10
8277.322920841411
 20
9581.123139034721
 30
0.0
  0
ENDBLK
  5
18BFB
330
18BEE
100
AcDbEntity
  8
0
 48
50.0
100
AcDbBlockEnd
  0
BLOCK
  5
18BFD
330
18BFC
100
AcDbEntity
  8
0
 48
50.0
100
AcDbBlockBegin
  2
*D7
 70
     1
 10
0.0
 20
0.0
 30
0.0
  3
*D7
  1

  0
LINE
  5
18BFE
330
18BFC
100
AcDbEntity
  8
寸法
 62
     0
 48
50.0
370
    -2
100
AcDbLine
 10
4159.896575106963
 20
9656.123139034622
 30
0.0
 11
4159.896575106963
 21
10211.9313586596
 31
0.0
  0
LINE
  5
18BFF
330
18BFC
100
AcDbEntity
  8
寸法
 62
     0
 48
50.0
370
    -2
100
AcDbLine
 10
4214.896575106998
 20
9656.123139034622
 30
0.0
 11
4214.896575106998
 21
10211.9313586596
 31
0.0
  0
LINE
  5
18C00
330
18BFC
100
AcDbEntity
  8
寸法
 62
     0
 48
50.0
370
    -2
100
AcDbLine
 10
4214.896575106998
 20
10151.9313586596
 30
0.0
 11
4314.896575106998
 21
10151.9313586596
 31
0.0
  0
LINE
  5
18C01
330
18BFC
100
AcDbEntity
  8
寸法
 62
     0
 48
50.0
370
    -2
100
AcDbLine
 10
4159.896575106963
 20
10151.9313586596
 30
0.0
 11
3742.926012358486
 21
10151.9313586596
 31
0.0
  0
LINE
  5
18C02
330
18BFC
100
AcDbEntity
  8
寸法
 62
     0
 48
50.0
370
    -2
100
AcDbLine
 10
4214.896575106998
 20
10151.9313586596
 30
0.0
 11
4159.896575106963
 21
10151.9313586596
 31
0.0
  0
INSERT
  5
18C03
330
18BFC
100
AcDbEntity
  8
寸法
 62
     0
 48
50.0
370
    -2
100
AcDbBlockReference
  2
_DOTSMALL
 10
4214.896575106998
 20
10151.9313586596
 30
0.0
 41
100.0
 42
100.0
 43
100.0
 50
180.0
  0
INSERT
  5
18C04
330
18BFC
100
AcDbEntity
  8
寸法
 62
     0
 48
50.0
370
    -2
100
AcDbBlockReference
  2
_DOTSMALL
 10
4159.896575106963
 20
10151.9313586596
 30
0.0
 41
100.0
 42
100.0
 43
100.0
  0
MTEXT
  5
18C05
330
18BFC
100
AcDbEntity
  8
寸法
 62
     7
 48
50.0
100
AcDbMText
 10
3851.411293732725
 20
10251.9313586596
 30
0.0
 40
120.0
 41
0.0
 71
     5
 72
     1
  1
\A1;55
  7
STYLE1
 73
     1
 44
1.0
1001
ACAD
1000
MTEXTBEGIN
1070
    73
1070
     1
1070
    44
1040
1.0
1070
    74
1070
     0
1000
MTEXTEND
  0
POINT
  5
18C06
330
18BFC
100
AcDbEntity
  8
DEFPOINTS
 62
     0
 48
50.0
100
AcDbPoint
 10
4159.896575106963
 20
9636.123139034623
 30
0.0
  0
POINT
  5
18C07
330
18BFC
100
AcDbEntity
  8
DEFPOINTS
 62
     0
 48
50.0
100
AcDbPoint
 10
4214.896575106998
 20
9636.123139034623
 30
0.0
  0
POINT
  5
18C08
330
18BFC
100
AcDbEntity
  8
DEFPOINTS
 62
     0
 48
50.0
100
AcDbPoint
 10
4214.896575106998
 20
10151.9313586596
 30
0.0
  0
ENDBLK
  5
18C09
330
18BFC
100
AcDbEntity
  8
0
 48
50.0
100
AcDbBlockEnd
  0
BLOCK
  5
18C0B
330
18C0A
100
AcDbEntity
  8
0
 48
50.0
100
AcDbBlockBegin
  2
*D8
 70
     1
 10
0.0
 20
0.0
 30
0.0
  3
*D8
  1

  0
LINE
  5
18C0C
330
18C0A
100
AcDbEntity
  8
寸法
 62
     0
 48
50.0
370
    -2
100
AcDbLine
 10
4159.896575106992
 20
7826.123139034546
 30
0.0
 11
4159.896575106992
 21
6804.372203245664
 31
0.0
  0
LINE
  5
18C0D
330
18C0A
100
AcDbEntity
  8
寸法
 62
     0
 48
50.0
370
    -2
100
AcDbLine
 10
7629.896575106974
 20
7826.123139034674
 30
0.0
 11
7629.896575106974
 21
6804.372203245664
 31
0.0
  0
LINE
  5
18C0E
330
18C0A
100
AcDbEntity
  8
寸法
 62
     0
 48
50.0
370
    -2
100
AcDbLine
 10
4159.896575106992
 20
6864.372203245665
 30
0.0
 11
7629.896575106974
 21
6864.372203245665
 31
0.0
  0
INSERT
  5
18C0F
330
18C0A
100
AcDbEntity
  8
寸法
 62
     0
 48
50.0
370
    -2
100
AcDbBlockReference
  2
_DOTSMALL
 10
4159.896575106992
 20
6864.372203245665
 30
0.0
 41
100.0
 42
100.0
 43
100.0
 50
180.0
  0
INSERT
  5
18C10
330
18C0A
100
AcDbEntity
  8
寸法
 62
     0
 48
50.0
370
    -2
100
AcDbBlockReference
  2
_DOTSMALL
 10
7629.896575106974
 20
6864.372203245665
 30
0.0
 41
100.0
 42
100.0
 43
100.0
  0
MTEXT
  5
18C11
330
18C0A
100
AcDbEntity
  8
寸法
 62
     7
 48
50.0
100
AcDbMText
 10
5911.12376113973
 20
6964.372203245665
 30
0.0
 40
120.0
 41
0.0
 71
     5
 72
     1
  1
\A1;3470
  7
STYLE1
 73
     1
 44
1.0
1001
ACAD
1000
MTEXTBEGIN
1070
    73
1070
     1
1070
    44
1040
1.0
1070
    74
1070
     0
1000
MTEXTEND
  0
POINT
  5
18C12
330
18C0A
100
AcDbEntity
  8
DEFPOINTS
 62
     0
 48
50.0
100
AcDbPoint
 10
4159.896575106992
 20
7846.123139034546
 30
0.0
  0
POINT
  5
18C13
330
18C0A
100
AcDbEntity
  8
DEFPOINTS
 62
     0
 48
50.0
100
AcDbPoint
 10
7629.896575106974
 20
7846.123139034673
 30
0.0
  0
POINT
  5
18C14
330
18C0A
100
AcDbEntity
  8
DEFPOINTS
 62
     0
 48
50.0
100
AcDbPoint
 10
7629.896575106974
 20
6864.372203245665
 30
0.0
  0
ENDBLK
  5
18C15
330
18C0A
100
AcDbEntity
  8
0
 48
50.0
100
AcDbBlockEnd
  0
BLOCK
  5
18C17
330
18C16
100
AcDbEntity
  8
0
 48
50.0
100
AcDbBlockBegin
  2
*D9
 70
     1
 10
0.0
 20
0.0
 30
0.0
  3
*D9
  1

  0
LINE
  5
18C18
330
18C16
100
AcDbEntity
  8
寸法
 62
     0
 48
50.0
370
    -2
100
AcDbLine
 10
7649.896575106973
 20
7901.123139034706
 30
0.0
 11
8337.322920841385
 21
7901.123139034706
 31
0.0
  0
LINE
  5
18C19
330
18C16
100
AcDbEntity
  8
寸法
 62
     0
 48
50.0
370
    -2
100
AcDbLine
 10
7649.896575106973
 20
7846.123139034709
 30
0.0
 11
8337.322920841385
 21
7846.123139034709
 31
0.0
  0
LINE
  5
18C1A
330
18C16
100
AcDbEntity
  8
寸法
 62
     0
 48
50.0
370
    -2
100
AcDbLine
 10
8277.322920841385
 20
7901.123139034706
 30
0.0
 11
8277.322920841385
 21
8001.123139034707
 31
0.0
  0
LINE
  5
18C1B
330
18C16
100
AcDbEntity
  8
寸法
 62
     0
 48
50.0
370
    -2
100
AcDbLine
 10
8277.322920841385
 20
7846.123139034709
 30
0.0
 11
8277.322920841385
 21
7429.152576286229
 31
0.0
  0
LINE
  5
18C1C
330
18C16
100
AcDbEntity
  8
寸法
 62
     0
 48
50.0
370
    -2
100
AcDbLine
 10
8277.322920841385
 20
7901.123139034706
 30
0.0
 11
8277.322920841385
 21
7846.123139034709
 31
0.0
  0
INSERT
  5
18C1D
330
18C16
100
AcDbEntity
  8
寸法
 62
     0
 48
50.0
370
    -2
100
AcDbBlockReference
  2
_DOTSMALL
 10
8277.322920841385
 20
7901.123139034706
 30
0.0
 41
100.0
 42
100.0
 43
100.0
 50
270.0
  0
INSERT
  5
18C1E
330
18C16
100
AcDbEntity
  8
寸法
 62
     0
 48
50.0
370
    -2
100
AcDbBlockReference
  2
_DOTSMALL
 10
8277.322920841385
 20
7846.123139034709
 30
0.0
 41
100.0
 42
100.0
 43
100.0
 50
90.0
  0
MTEXT
  5
18C1F
330
18C16
100
AcDbEntity
  8
寸法
 62
     7
 48
50.0
100
AcDbMText
 10
8177.322920841383
 20
7537.637857660469
 30
0.0
 40
120.0
 41
0.0
 71
     5
 72
     1
  1
\A1;55
  7
STYLE1
 11
0.0000000000000001
 21
1.0
 31
0.0
 73
     1
 44
1.0
1001
ACAD
1000
MTEXTBEGIN
1070
    73
1070
     1
1070
    44
1040
1.0
1070
    74
1070
     0
1000
MTEXTEND
  0
POINT
  5
18C20
330
18C16
100
AcDbEntity
  8
DEFPOINTS
 62
     0
 48
50.0
100
AcDbPoint
 10
7629.896575106974
 20
7901.123139034706
 30
0.0
  0
POINT
  5
18C21
330
18C16
100
AcDbEntity
  8
DEFPOINTS
 62
     0
 48
50.0
100
AcDbPoint
 10
7629.896575106974
 20
7846.123139034709
 30
0.0
  0
POINT
  5
18C22
330
18C16
100
AcDbEntity
  8
DEFPOINTS
 62
     0
 48
50.0
100
AcDbPoint
 10
8277.322920841385
 20
7846.123139034709
 30
0.0
  0
ENDBLK
  5
18C23
330
18C16
100
AcDbEntity
  8
0
 48
50.0
100
AcDbBlockEnd
  0
BLOCK
  5
18C25
330
18C24
100
AcDbEntity
  8
0
 48
50.0
100
AcDbBlockBegin
  2
*D10
 70
     1
 10
0.0
 20
0.0
 30
0.0
  3
*D10
  1

  0
LINE
  5
18C26
330
18C24
100
AcDbEntity
  8
寸法
 62
     0
 48
50.0
370
    -2
100
AcDbLine
 10
6533.037591258376
 20
9136.123139034728
 30
0.0
 11
6465.083950562664
 21
8882.516699399049
 31
0.0
  0
LINE
  5
18C27
330
18C24
100
AcDbEntity
  8
寸法
 62
     0
 48
50.0
370
    -2
100
AcDbLine
 10
7596.037591258388
 20
9136.123139034721
 30
0.0
 11
7528.083950562677
 21
8882.516699399049
 31
0.0
  0
LINE
  5
18C28
330
18C24
100
AcDbEntity
  8
寸法
 62
     0
 48
50.0
370
    -2
100
AcDbLine
 10
6481.160902108531
 20
8942.51669939905
 30
0.0
 11
7544.160902108544
 21
8942.51669939905
 31
0.0
  0
INSERT
  5
18C29
330
18C24
100
AcDbEntity
  8
寸法
 62
     0
 48
50.0
370
    -2
100
AcDbBlockReference
  2
_DOTSMALL
 10
6481.160902108531
 20
8942.51669939905
 30
0.0
 41
100.0
 42
100.0
 43
100.0
 50
180.0
  0
INSERT
  5
18C2A
330
18C24
100
AcDbEntity
  8
寸法
 62
     0
 48
50.0
370
    -2
100
AcDbBlockReference
  2
_DOTSMALL
 10
7544.160902108544
 20
8942.51669939905
 30
0.0
 41
100.0
 42
100.0
 43
100.0
  0
MTEXT
  5
18C2B
330
18C24
100
AcDbEntity
  8
寸法
 62
     7
 48
50.0
100
AcDbMText
 10
7061.28653022935
 20
9042.516699399049
 30
0.0
 40
120.0
 41
0.0
 71
     5
 72
     1
  1
\A1;1063
  7
STYLE1
 73
     1
 44
1.0
1001
ACAD
1000
MTEXTBEGIN
1070
    73
1070
     1
1070
    44
1040
1.0
1070
    74
1070
     0
1000
MTEXTEND
  0
POINT
  5
18C2C
330
18C24
100
AcDbEntity
  8
DEFPOINTS
 62
     0
 48
50.0
100
AcDbPoint
 10
6538.396575106998
 20
9156.123139034727
 30
0.0
  0
POINT
  5
18C2D
330
18C24
100
AcDbEntity
  8
DEFPOINTS
 62
     0
 48
50.0
100
AcDbPoint
 10
7601.39657510701
 20
9156.12313903472
 30
0.0
  0
POINT
  5
18C2E
330
18C24
100
AcDbEntity
  8
DEFPOINTS
 62
     0
 48
50.0
100
AcDbPoint
 10
7544.160902108544
 20
8942.51669939905
 30
0.0
  0
ENDBLK
  5
18C2F
330
18C24
100
AcDbEntity
  8
0
 48
50.0
100
AcDbBlockEnd
  0
BLOCK
  5
18C31
330
18C30
100
AcDbEntity
  8
0
 48
50.0
100
AcDbBlockBegin
  2
*D11
 70
     1
 10
0.0
 20
0.0
 30
0.0
  3
*D11
  1

  0
LINE
  5
18C32
330
18C30
100
AcDbEntity
  8
寸法
 62
     0
 48
50.0
370
    -2
100
AcDbLine
 10
7621.396575106999
 20
9600.764155186094
 30
0.0
 11
8016.754300969024
 21
9494.828371819961
 31
0.0
  0
LINE
  5
18C33
330
18C30
100
AcDbEntity
  8
寸法
 62
     0
 48
50.0
370
    -2
100
AcDbLine
 10
7621.396575106999
 20
9150.764155186099
 30
0.0
 11
8016.754300969024
 21
9044.828371819964
 31
0.0
  0
LINE
  5
18C34
330
18C30
100
AcDbEntity
  8
寸法
 62
     0
 48
50.0
370
    -2
100
AcDbLine
 10
7956.754300969024
 20
9510.905323365827
 30
0.0
 11
7956.754300969024
 21
9060.90532336583
 31
0.0
  0
INSERT
  5
18C35
330
18C30
100
AcDbEntity
  8
寸法
 62
     0
 48
50.0
370
    -2
100
AcDbBlockReference
  2
_DOTSMALL
 10
7956.754300969024
 20
9510.905323365827
 30
0.0
 41
100.0
 42
100.0
 43
100.0
 50
90.0
  0
INSERT
  5
18C36
330
18C30
100
AcDbEntity
  8
寸法
 62
     0
 48
50.0
370
    -2
100
AcDbBlockReference
  2
_DOTSMALL
 10
7956.754300969024
 20
9060.90532336583
 30
0.0
 41
100.0
 42
100.0
 43
100.0
 50
270.0
  0
MTEXT
  5
18C37
330
18C30
100
AcDbEntity
  8
寸法
 62
     7
 48
50.0
100
AcDbMText
 10
7856.754300969022
 20
9285.905323365829
 30
0.0
 40
120.0
 41
0.0
 71
     5
 72
     1
  1
\A1;450
  7
STYLE1
 11
0.0000000000000001
 21
1.0
 31
0.0
 73
     1
 44
1.0
1001
ACAD
1000
MTEXTBEGIN
1070
    73
1070
     1
1070
    44
1040
1.0
1070
    74
1070
     0
1000
MTEXTEND
  0
POINT
  5
18C38
330
18C30
100
AcDbEntity
  8
DEFPOINTS
 62
     0
 48
50.0
100
AcDbPoint
 10
7601.396575106999
 20
9606.123139034718
 30
0.0
  0
POINT
  5
18C39
330
18C30
100
AcDbEntity
  8
DEFPOINTS
 62
     0
 48
50.0
100
AcDbPoint
 10
7601.396575106999
 20
9156.12313903472
 30
0.0
  0
POINT
  5
18C3A
330
18C30
100
AcDbEntity
  8
DEFPOINTS
 62
     0
 48
50.0
100
AcDbPoint
 10
7956.754300969024
 20
9060.90532336583
 30
0.0
  0
ENDBLK
  5
18C3B
330
18C30
100
AcDbEntity
  8
0
 48
50.0
100
AcDbBlockEnd
  0
BLOCK
  5
18C3D
330
18C3C
100
AcDbEntity
  8
0
 48
50.0
100
AcDbBlockBegin
  2
*D12
 70
     1
 10
0.0
 20
0.0
 30
0.0
  3
*D12
  1

  0
LINE
  5
18C3E
330
18C3C
100
AcDbEntity
  8
寸法
 62
     0
 48
50.0
370
    -2
100
AcDbLine
 10
7649.896575106999
 20
9581.123139034721
 30
0.0
 11
8337.32292084141
 21
9581.123139034721
 31
0.0
  0
LINE
  5
18C3F
330
18C3C
100
AcDbEntity
  8
寸法
 62
     0
 48
50.0
370
    -2
100
AcDbLine
 10
7649.896575106973
 20
7901.123139034706
 30
0.0
 11
8337.32292084141
 21
7901.123139034706
 31
0.0
  0
LINE
  5
18C40
330
18C3C
100
AcDbEntity
  8
寸法
 62
     0
 48
50.0
370
    -2
100
AcDbLine
 10
8277.322920841411
 20
9581.123139034721
 30
0.0
 11
8277.322920841411
 21
7901.123139034706
 31
0.0
  0
INSERT
  5
18C41
330
18C3C
100
AcDbEntity
  8
寸法
 62
     0
 48
50.0
370
    -2
100
AcDbBlockReference
  2
_DOTSMALL
 10
8277.322920841411
 20
9581.123139034721
 30
0.0
 41
100.0
 42
100.0
 43
100.0
 50
90.0
  0
INSERT
  5
18C42
330
18C3C
100
AcDbEntity
  8
寸法
 62
     0
 48
50.0
370
    -2
100
AcDbBlockReference
  2
_DOTSMALL
 10
8277.322920841411
 20
7901.123139034706
 30
0.0
 41
100.0
 42
100.0
 43
100.0
 50
270.0
  0
MTEXT
  5
18C43
330
18C3C
100
AcDbEntity
  8
寸法
 62
     7
 48
50.0
100
AcDbMText
 10
8177.311109817788
 20
8741.123139034712
 30
0.0
 40
120.0
 41
0.0
 71
     5
 72
     1
  1
\A1;4X420=1680
  7
STYLE1
 11
0.0000000000000001
 21
1.0
 31
0.0
 73
     1
 44
1.0
1001
ACAD
1000
MTEXTBEGIN
1070
    73
1070
     1
1070
    44
1040
1.0
1070
    74
1070
     0
1000
MTEXTEND
  0
POINT
  5
18C44
330
18C3C
100
AcDbEntity
  8
DEFPOINTS
 62
     0
 48
50.0
100
AcDbPoint
 10
7629.896575106998
 20
9581.123139034721
 30
0.0
  0
POINT
  5
18C45
330
18C3C
100
AcDbEntity
  8
DEFPOINTS
 62
     0
 48
50.0
100
AcDbPoint
 10
7629.896575106974
 20
7901.123139034706
 30
0.0
  0
POINT
  5
18C46
330
18C3C
100
AcDbEntity
  8
DEFPOINTS
 62
     0
 48
50.0
100
AcDbPoint
 10
8277.322920841411
 20
7901.123139034706
 30
0.0
  0
ENDBLK
  5
18C47
330
18C3C
100
AcDbEntity
  8
0
 48
50.0
100
AcDbBlockEnd
  0
BLOCK
  5
18C49
330
18C48
100
AcDbEntity
  8
0
 48
50.0
100
AcDbBlockBegin
  2
*D13
 70
     1
 10
0.0
 20
0.0
 30
0.0
  3
*D13
  1

  0
LINE
  5
18C4A
330
18C48
100
AcDbEntity
  8
寸法
 62
     0
 48
50.0
370
    -2
100
AcDbLine
 10
4183.037591258377
 20
9136.123139034619
 30
0.0
 11
4115.083950562663
 21
8882.516699398941
 31
0.0
  0
LINE
  5
18C4B
330
18C48
100
AcDbEntity
  8
寸法
 62
     0
 48
50.0
370
    -2
100
AcDbLine
 10
5246.037591258307
 20
9136.123139034671
 30
0.0
 11
5178.08395056258
 21
8882.516699398941
 31
0.0
  0
LINE
  5
18C4C
330
18C48
100
AcDbEntity
  8
寸法
 62
     0
 48
50.0
370
    -2
100
AcDbLine
 10
4131.160902108532
 20
8942.516699398941
 30
0.0
 11
5194.160902108448
 21
8942.516699398941
 31
0.0
  0
INSERT
  5
18C4D
330
18C48
100
AcDbEntity
  8
寸法
 62
     0
 48
50.0
370
    -2
100
AcDbBlockReference
  2
_DOTSMALL
 10
4131.160902108532
 20
8942.516699398941
 30
0.0
 41
100.0
 42
100.0
 43
100.0
 50
180.0
  0
INSERT
  5
18C4E
330
18C48
100
AcDbEntity
  8
寸法
 62
     0
 48
50.0
370
    -2
100
AcDbBlockReference
  2
_DOTSMALL
 10
5194.160902108448
 20
8942.516699398941
 30
0.0
 41
100.0
 42
100.0
 43
100.0
  0
MTEXT
  5
18C4F
330
18C48
100
AcDbEntity
  8
寸法
 62
     7
 48
50.0
100
AcDbMText
 10
4658.986452655306
 20
9042.516699398941
 30
0.0
 40
120.0
 41
0.0
 71
     5
 72
     1
  1
\A1;1063
  7
STYLE1
 73
     1
 44
1.0
1001
ACAD
1000
MTEXTBEGIN
1070
    73
1070
     1
1070
    44
1040
1.0
1070
    74
1070
     0
1000
MTEXTEND
  0
POINT
  5
18C50
330
18C48
100
AcDbEntity
  8
DEFPOINTS
 62
     0
 48
50.0
100
AcDbPoint
 10
4188.396575106999
 20
9156.123139034617
 30
0.0
  0
POINT
  5
18C51
330
18C48
100
AcDbEntity
  8
DEFPOINTS
 62
     0
 48
50.0
100
AcDbPoint
 10
5251.396575106929
 20
9156.123139034672
 30
0.0
  0
POINT
  5
18C52
330
18C48
100
AcDbEntity
  8
DEFPOINTS
 62
     0
 48
50.0
100
AcDbPoint
 10
5194.160902108448
 20
8942.516699398941
 30
0.0
  0
ENDBLK
  5
18C53
330
18C48
100
AcDbEntity
  8
0
 48
50.0
100
AcDbBlockEnd
  0
BLOCK
  5
18C55
330
18C54
100
AcDbEntity
  8
0
 48
50.0
100
AcDbBlockBegin
  2
*D14
 70
     1
 10
0.0
 20
0.0
 30
0.0
  3
*D14
  1

  0
LINE
  5
18C56
330
18C54
100
AcDbEntity
  8
寸法
 62
     0
 48
50.0
370
    -2
100
AcDbLine
 10
5274.037591258307
 20
9136.123139034669
 30
0.0
 11
5206.08395056258
 21
8882.516699398941
 31
0.0
  0
LINE
  5
18C57
330
18C54
100
AcDbEntity
  8
寸法
 62
     0
 48
50.0
370
    -2
100
AcDbLine
 10
6505.037591258377
 20
9136.123139034662
 30
0.0
 11
6437.083950562653
 21
8882.516699398941
 31
0.0
  0
LINE
  5
18C58
330
18C54
100
AcDbEntity
  8
寸法
 62
     0
 48
50.0
370
    -2
100
AcDbLine
 10
5222.160902108448
 20
8942.516699398941
 30
0.0
 11
6453.16090210852
 21
8942.516699398941
 31
0.0
  0
INSERT
  5
18C59
330
18C54
100
AcDbEntity
  8
寸法
 62
     0
 48
50.0
370
    -2
100
AcDbBlockReference
  2
_DOTSMALL
 10
5222.160902108448
 20
8942.516699398941
 30
0.0
 41
100.0
 42
100.0
 43
100.0
 50
180.0
  0
INSERT
  5
18C5A
330
18C54
100
AcDbEntity
  8
寸法
 62
     0
 48
50.0
370
    -2
100
AcDbBlockReference
  2
_DOTSMALL
 10
6453.16090210852
 20
8942.516699398941
 30
0.0
 41
100.0
 42
100.0
 43
100.0
  0
MTEXT
  5
18C5B
330
18C54
100
AcDbEntity
  8
寸法
 62
     7
 48
50.0
100
AcDbMText
 10
6081.244808320626
 20
9042.528510422561
 30
0.0
 40
120.0
 41
0.0
 71
     5
 72
     1
  1
\A1;1231
  7
STYLE1
 73
     1
 44
1.0
1001
ACAD
1000
MTEXTBEGIN
1070
    73
1070
     1
1070
    44
1040
1.0
1070
    74
1070
     0
1000
MTEXTEND
  0
POINT
  5
18C5C
330
18C54
100
AcDbEntity
  8
DEFPOINTS
 62
     0
 48
50.0
100
AcDbPoint
 10
5279.396575106929
 20
9156.123139034669
 30
0.0
  0
POINT
  5
18C5D
330
18C54
100
AcDbEntity
  8
DEFPOINTS
 62
     0
 48
50.0
100
AcDbPoint
 10
6510.396575106999
 20
9156.123139034662
 30
0.0
  0
POINT
  5
18C5E
330
18C54
100
AcDbEntity
  8
DEFPOINTS
 62
     0
 48
50.0
100
AcDbPoint
 10
6453.16090210852
 20
8942.516699398941
 30
0.0
  0
ENDBLK
  5
18C5F
330
18C54
100
AcDbEntity
  8
0
 48
50.0
100
AcDbBlockEnd
  0
BLOCK
  5
18C61
330
18C60
100
AcDbEntity
  8
0
 48
50.0
100
AcDbBlockBegin
  2
*D15
 70
     1
 10
0.0
 20
0.0
 30
0.0
  3
*D15
  1

  0
LINE
  5
18C62
330
18C60
100
AcDbEntity
  8
寸法
 62
     0
 48
50.0
370
    -2
100
AcDbLine
 10
5065.896575106966
 20
7749.123139034579
 30
0.0
 11
5065.896575106966
 21
7099.952920982538
 31
0.0
  0
LINE
  5
18C63
330
18C60
100
AcDbEntity
  8
寸法
 62
     0
 48
50.0
370
    -2
100
AcDbLine
 10
6331.896575106966
 20
7749.123139034579
 30
0.0
 11
6331.896575106966
 21
7099.952920982538
 31
0.0
  0
LINE
  5
18C64
330
18C60
100
AcDbEntity
  8
寸法
 62
     0
 48
50.0
370
    -2
100
AcDbLine
 10
5065.896575106966
 20
7159.952920982537
 30
0.0
 11
6331.896575106966
 21
7159.952920982537
 31
0.0
  0
INSERT
  5
18C65
330
18C60
100
AcDbEntity
  8
寸法
 62
     0
 48
50.0
370
    -2
100
AcDbBlockReference
  2
_DOTSMALL
 10
5065.896575106966
 20
7159.952920982537
 30
0.0
 41
100.0
 42
100.0
 43
100.0
 50
180.0
  0
INSERT
  5
18C66
330
18C60
100
AcDbEntity
  8
寸法
 62
     0
 48
50.0
370
    -2
100
AcDbBlockReference
  2
_DOTSMALL
 10
6331.896575106966
 20
7159.952920982537
 30
0.0
 41
100.0
 42
100.0
 43
100.0
  0
MTEXT
  5
18C67
330
18C60
100
AcDbEntity
  8
寸法
 62
     7
 48
50.0
100
AcDbMText
 10
5711.986008735934
 20
7359.964732006159
 30
0.0
 40
120.0
 41
0.0
 71
     5
 72
     1
  1
\A1;有効開口部間口\P1266
  7
STYLE1
 73
     1
 44
1.0
1001
ACAD
1000
MTEXTBEGIN
1070
    73
1070
     1
1070
    44
1040
1.0
1070
    74
1070
     0
1000
MTEXTEND
  0
POINT
  5
18C68
330
18C60
100
AcDbEntity
  8
DEFPOINTS
 62
     0
 48
50.0
100
AcDbPoint
 10
5065.896575106966
 20
7769.123139034579
 30
0.0
  0
POINT
  5
18C69
330
18C60
100
AcDbEntity
  8
DEFPOINTS
 62
     0
 48
50.0
100
AcDbPoint
 10
6331.896575106966
 20
7769.123139034579
 30
0.0
  0
POINT
  5
18C6A
330
18C60
100
AcDbEntity
  8
DEFPOINTS
 62
     0
 48
50.0
100
AcDbPoint
 10
6331.896575106966
 20
7159.952920982537
 30
0.0
  0
ENDBLK
  5
18C6B
330
18C60
100
AcDbEntity
  8
0
 48
50.0
100
AcDbBlockEnd
  0
BLOCK
  5
18C6D
330
18C6C
100
AcDbEntity
  8
0
 48
50.0
100
AcDbBlockBegin
  2
*D16
 70
     1
 10
0.0
 20
0.0
 30
0.0
  3
*D16
  1

  0
LINE
  5
18C6E
330
18C6C
100
AcDbEntity
  8
寸法
 62
     0
 48
50.0
370
    -2
100
AcDbLine
 10
7200.896575106966
 20
7846.123139034578
 30
0.0
 11
7457.192158500191
 21
7846.123139034578
 31
0.0
  0
LINE
  5
18C6F
330
18C6C
100
AcDbEntity
  8
寸法
 62
     0
 48
50.0
370
    -2
100
AcDbLine
 10
7199.896575106966
 20
7769.123139034579
 30
0.0
 11
7457.192158500191
 21
7769.123139034579
 31
0.0
  0
LINE
  5
18C70
330
18C6C
100
AcDbEntity
  8
寸法
 62
     0
 48
50.0
370
    -2
100
AcDbLine
 10
7417.192158500192
 20
7866.123139034579
 30
0.0
 11
7417.192158500192
 21
7886.123139034578
 31
0.0
  0
LINE
  5
18C71
330
18C6C
100
AcDbEntity
  8
寸法
 62
     0
 48
50.0
370
    -2
100
AcDbLine
 10
7417.192158500192
 20
7749.123139034579
 30
0.0
 11
7417.192158500192
 21
7533.123139034573
 31
0.0
  0
LINE
  5
18C72
330
18C6C
100
AcDbEntity
  8
寸法
 62
     0
 48
50.0
370
    -2
100
AcDbLine
 10
7417.192158500192
 20
7846.123139034578
 30
0.0
 11
7417.192158500192
 21
7769.123139034579
 31
0.0
  0
INSERT
  5
18C73
330
18C6C
100
AcDbEntity
  8
寸法
 62
     0
 48
50.0
370
    -2
100
AcDbBlockReference
  2
_DOT
 10
7417.192158500192
 20
7846.123139034578
 30
0.0
 41
20.0
 42
20.0
 43
20.0
 50
270.0
  0
INSERT
  5
18C74
330
18C6C
100
AcDbEntity
  8
寸法
 62
     0
 48
50.0
370
    -2
100
AcDbBlockReference
  2
_DOT
 10
7417.192158500192
 20
7769.123139034579
 30
0.0
 41
20.0
 42
20.0
 43
20.0
 50
90.0
  0
MTEXT
  5
18C75
330
18C6C
100
AcDbEntity
  8
寸法
 62
     7
 48
50.0
100
AcDbMText
 10
7325.192158500191
 20
7631.123139034575
 30
0.0
 40
120.0
 41
0.0
 71
     5
 72
     1
  1
\A1;77
  7
STYLE1
 11
0.0000000000000001
 21
1.0
 31
0.0
 73
     1
 44
1.0
1001
ACAD
1000
MTEXTBEGIN
1070
    73
1070
     1
1070
    44
1040
1.0
1070
    74
1070
     0
1000
MTEXTEND
  0
POINT
  5
18C76
330
18C6C
100
AcDbEntity
  8
DEFPOINTS
 62
     0
 48
50.0
100
AcDbPoint
 10
7180.896575106967
 20
7846.123139034578
 30
0.0
  0
POINT
  5
18C77
330
18C6C
100
AcDbEntity
  8
DEFPOINTS
 62
     0
 48
50.0
100
AcDbPoint
 10
7179.896575106965
 20
7769.123139034579
 30
0.0
  0
POINT
  5
18C78
330
18C6C
100
AcDbEntity
  8
DEFPOINTS
 62
     0
 48
50.0
100
AcDbPoint
 10
7417.192158500192
 20
7769.123139034579
 30
0.0
  0
ENDBLK
  5
18C79
330
18C6C
100
AcDbEntity
  8
0
 48
50.0
100
AcDbBlockEnd
  0
BLOCK
  5
18DA0
330
18C7A
100
AcDbEntity
  8
0
 48
50.0
100
AcDbBlockBegin
  2
A$C3B1A506B
 70
     0
 10
0.0
 20
0.0
 30
0.0
  3
A$C3B1A506B
  1

  0
MTEXT
  5
18C7B
330
18C7A
100
AcDbEntity
  8
寸法
 62
     7
 48
50.0
100
AcDbMText
 10
3342.250386887194
 20
2778.329429134012
 30
0.0
 40
96.0
 41
0.0
 71
     5
 72
     1
  1
棚 2段
  7
STYLE1
 73
     1
 44
1.0
1001
ACAD
1000
MTEXTBEGIN
1070
    73
1070
     1
1070
    44
1040
1.0
1070
    74
1070
     0
1000
MTEXTEND
  0
MTEXT
  5
18C7C
330
18C7A
100
AcDbEntity
  8
寸法
 62
     7
 48
50.0
100
AcDbMText
 10
2167.25038688716
 20
2778.329429133986
 30
0.0
 40
96.0
 41
0.0
 71
     5
 72
     1
  1
棚 2段
  7
STYLE1
 73
     1
 44
1.0
1001
ACAD
1000
MTEXTBEGIN
1070
    73
1070
     1
1070
    44
1040
1.0
1070
    74
1070
     0
1000
MTEXTEND
  0
MTEXT
  5
18C7D
330
18C7A
100
AcDbEntity
  8
寸法
 62
     7
 48
50.0
100
AcDbMText
 10
992.2503868871608
 20
2778.329429133935
 30
0.0
 40
96.0
 41
0.0
 71
     5
 72
     1
  1
棚 2段
  7
STYLE1
 73
     1
 44
1.0
1001
ACAD
1000
MTEXTBEGIN
1070
    73
1070
     1
1070
    44
1040
1.0
1070
    74
1070
     0
1000
MTEXTEND
  0
LINE
  5
18C7E
330
18C7A
100
AcDbEntity
  8
細線
 48
50.0
100
AcDbLine
 10
2771.970589276527
 20
1368.994384123192
 30
0.0
 11
3398.970589276523
 21
1368.994384123192
 31
0.0
  0
LINE
  5
18C7F
330
18C7A
100
AcDbEntity
  8
細線
 48
50.0
100
AcDbLine
 10
2117.970593930113
 20
1335.285615569113
 30
0.0
 11
3398.970589276523
 21
1335.285615569113
 31
0.0
  0
LINE
  5
18C80
330
18C7A
100
AcDbEntity
  8
細線
 48
50.0
100
AcDbLine
 10
2076.970593930115
 20
1364.690523565368
 30
0.0
 11
1322.970589276523
 21
1364.690523565367
 31
0.0
  0
LINE
  5
18C81
330
18C7A
100
AcDbEntity
  8
細線
100
AcDbLine
 10
3170.720579860066
 20
1388.494284088199
 30
0.0
 11
3173.052119381877
 21
1393.494286728162
 31
0.0
  0
LINE
  5
18C82
330
18C7A
100
AcDbEntity
  8
細線
100
AcDbLine
 10
3240.720589276525
 20
1388.494269174465
 30
0.0
 11
3238.389042800336
 21
1393.494286728144
 31
0.0
  0
LINE
  5
18C83
330
18C7A
100
AcDbEntity
  8
細線
100
AcDbLine
 10
3238.389042800336
 20
1393.494286728144
 30
0.0
 11
3173.052119381862
 21
1393.494286728133
 31
0.0
  0
LINE
  5
18C84
330
18C7A
100
AcDbEntity
  8
細線
100
AcDbLine
 10
3098.389042800336
 20
1393.494286728144
 30
0.0
 11
3033.052119381862
 21
1393.494286728133
 31
0.0
  0
LINE
  5
18C85
330
18C7A
100
AcDbEntity
  8
細線
100
AcDbLine
 10
3100.720589276523
 20
1388.494269174465
 30
0.0
 11
3098.389042800336
 21
1393.494286728144
 31
0.0
  0
LINE
  5
18C86
330
18C7A
100
AcDbEntity
  8
細線
100
AcDbLine
 10
3030.720579860066
 20
1388.494284088199
 30
0.0
 11
3033.052119381875
 21
1393.494286728162
 31
0.0
  0
LINE
  5
18C87
330
18C7A
100
AcDbEntity
  8
細線
100
AcDbLine
 10
2890.720589276525
 20
1388.494269174465
 30
0.0
 11
2893.052128798336
 21
1393.494271814428
 31
0.0
  0
LINE
  5
18C88
330
18C7A
100
AcDbEntity
  8
細線
100
AcDbLine
 10
2960.720598692984
 20
1388.494254260731
 30
0.0
 11
2958.389052216793
 21
1393.49427181441
 31
0.0
  0
LINE
  5
18C89
330
18C7A
100
AcDbEntity
  8
細線
100
AcDbLine
 10
2958.389052216795
 20
1393.49427181441
 30
0.0
 11
2893.052128798321
 21
1393.494271814399
 31
0.0
  0
LINE
  5
18C8A
330
18C7A
100
AcDbEntity
  8
細線
100
AcDbLine
 10
2667.139038146739
 20
1359.494298590735
 30
0.0
 11
2601.802114728263
 21
1359.494298590724
 31
0.0
  0
LINE
  5
18C8B
330
18C7A
100
AcDbEntity
  8
細線
100
AcDbLine
 10
2669.470584622926
 20
1354.494281037055
 30
0.0
 11
2667.139038146737
 21
1359.494298590735
 31
0.0
  0
LINE
  5
18C8C
330
18C7A
100
AcDbEntity
  8
細線
100
AcDbLine
 10
2599.470575206469
 20
1354.49429595079
 30
0.0
 11
2601.802114728278
 21
1359.494298590752
 31
0.0
  0
LINE
  5
18C8D
330
18C7A
100
AcDbEntity
  8
細線
 48
50.0
100
AcDbLine
 10
2440.853968524536
 20
1372.765132327548
 30
0.0
 11
2446.609486107205
 21
1354.494281037057
 31
0.0
  0
LINE
  5
18C8E
330
18C7A
100
AcDbEntity
  8
細線
 48
50.0
100
AcDbLine
 10
2429.925520044106
 20
1372.765132327546
 30
0.0
 11
2440.853968524536
 21
1372.765132327548
 31
0.0
  0
ARC
  5
18C8F
330
18C7A
100
AcDbEntity
  8
細線
 48
50.0
100
AcDbCircle
 10
2424.471163986787
 20
1374.265132327546
 30
0.0
 40
5.0
100
AcDbArc
 50
204.6243183520723
 51
335.3756816479278
  0
ARC
  5
18C90
330
18C7A
100
AcDbEntity
  8
細線
 48
50.0
100
AcDbCircle
 10
2429.925520044106
 20
1371.765132327546
 30
0.0
 40
1.0
100
AcDbArc
 50
90.0
 51
155.3756816479277
  0
ARC
  5
18C91
330
18C7A
100
AcDbEntity
  8
細線
 48
50.0
100
AcDbCircle
 10
2419.016807929469
 20
1371.765132327546
 30
0.0
 40
1.0
100
AcDbArc
 50
24.62431835207225
 51
90.0
  0
LINE
  5
18C92
330
18C7A
100
AcDbEntity
  8
細線
 48
50.0
100
AcDbLine
 10
2408.088359449037
 20
1372.765132327548
 30
0.0
 11
2419.016807929469
 21
1372.765132327546
 31
0.0
  0
LINE
  5
18C93
330
18C7A
100
AcDbEntity
  8
細線
 48
50.0
100
AcDbLine
 10
2402.33284186637
 20
1354.494281037054
 30
0.0
 11
2408.088359449037
 21
1372.765132327548
 31
0.0
  0
LINE
  5
18C94
330
18C7A
100
AcDbEntity
  8
細線
100
AcDbLine
 10
2458.070304175992
 20
1354.494278397076
 30
0.0
 11
2460.401843697802
 21
1359.494281037039
 31
0.0
  0
LINE
  5
18C95
330
18C7A
100
AcDbEntity
  8
細線
100
AcDbLine
 10
2528.070313592451
 20
1354.494263483342
 30
0.0
 11
2525.738767116262
 21
1359.494281037021
 31
0.0
  0
LINE
  5
18C96
330
18C7A
100
AcDbEntity
  8
細線
100
AcDbLine
 10
2525.738767116262
 20
1359.494281037021
 30
0.0
 11
2460.40184369779
 21
1359.49428103701
 31
0.0
  0
LINE
  5
18C97
330
18C7A
100
AcDbEntity
  8
細線
100
AcDbLine
 10
2387.139046332155
 20
1359.494281037021
 30
0.0
 11
2321.80212291368
 21
1359.49428103701
 31
0.0
  0
LINE
  5
18C98
330
18C7A
100
AcDbEntity
  8
細線
100
AcDbLine
 10
2389.470592808342
 20
1354.494263483342
 30
0.0
 11
2387.139046332153
 21
1359.494281037021
 31
0.0
  0
LINE
  5
18C99
330
18C7A
100
AcDbEntity
  8
細線
100
AcDbLine
 10
2319.470584622926
 20
1354.494281037054
 30
0.0
 11
2321.802122913694
 21
1359.494281037039
 31
0.0
  0
LINE
  5
18C9A
330
18C7A
100
AcDbEntity
  8
細線
100
AcDbLine
 10
2179.47061994182
 20
1354.494289224422
 30
0.0
 11
2181.802158232587
 21
1359.494289224407
 31
0.0
  0
LINE
  5
18C9B
330
18C7A
100
AcDbEntity
  8
細線
100
AcDbLine
 10
2249.470628127236
 20
1354.49427167071
 30
0.0
 11
2247.139081651047
 21
1359.494289224389
 31
0.0
  0
LINE
  5
18C9C
330
18C7A
100
AcDbEntity
  8
細線
100
AcDbLine
 10
2247.139081651047
 20
1359.494289224389
 30
0.0
 11
2181.802158232573
 21
1359.494289224378
 31
0.0
  0
LINE
  5
18C9D
330
18C7A
100
AcDbEntity
  8
細線
100
AcDbLine
 10
1807.970585744697
 20
1320.494460905133
 30
0.0
 11
1810.302124035464
 21
1325.494460905118
 31
0.0
  0
LINE
  5
18C9E
330
18C7A
100
AcDbEntity
  8
細線
100
AcDbLine
 10
1877.970593930113
 20
1320.494443351421
 30
0.0
 11
1875.639047453926
 21
1325.4944609051
 31
0.0
  0
LINE
  5
18C9F
330
18C7A
100
AcDbEntity
  8
細線
100
AcDbLine
 10
1875.639047453926
 20
1325.4944609051
 30
0.0
 11
1810.302124035452
 21
1325.494460905089
 31
0.0
  0
LINE
  5
18CA0
330
18C7A
100
AcDbEntity
  8
細線
100
AcDbLine
 10
2015.639047453926
 20
1325.4944609051
 30
0.0
 11
1950.302124035452
 21
1325.494460905089
 31
0.0
  0
LINE
  5
18CA1
330
18C7A
100
AcDbEntity
  8
細線
100
AcDbLine
 10
2017.970593930113
 20
1320.494443351421
 30
0.0
 11
2015.639047453924
 21
1325.4944609051
 31
0.0
  0
LINE
  5
18CA2
330
18C7A
100
AcDbEntity
  8
細線
100
AcDbLine
 10
1947.970585744697
 20
1320.494460905133
 30
0.0
 11
1950.302124035465
 21
1325.494460905118
 31
0.0
  0
LINE
  5
18CA3
330
18C7A
100
AcDbEntity
  8
細線
100
AcDbLine
 10
1735.639047453926
 20
1325.494460905098
 30
0.0
 11
1670.302124035454
 21
1325.494460905087
 31
0.0
  0
LINE
  5
18CA4
330
18C7A
100
AcDbEntity
  8
細線
100
AcDbLine
 10
1737.970593930113
 20
1320.494443351419
 30
0.0
 11
1735.639047453926
 21
1325.494460905098
 31
0.0
  0
LINE
  5
18CA5
330
18C7A
100
AcDbEntity
  8
細線
100
AcDbLine
 10
1667.970585744697
 20
1320.494460905131
 30
0.0
 11
1670.302124035465
 21
1325.494460905116
 31
0.0
  0
LINE
  5
18CA6
330
18C7A
100
AcDbEntity
  8
細線
100
AcDbLine
 10
1527.970593930113
 20
1320.494460905133
 30
0.0
 11
1530.302132220881
 21
1325.494460905118
 31
0.0
  0
LINE
  5
18CA7
330
18C7A
100
AcDbEntity
  8
細線
100
AcDbLine
 10
1597.970602115529
 20
1320.494443351421
 30
0.0
 11
1595.639055639342
 21
1325.4944609051
 31
0.0
  0
LINE
  5
18CA8
330
18C7A
100
AcDbEntity
  8
細線
100
AcDbLine
 10
1595.639055639342
 20
1325.4944609051
 30
0.0
 11
1530.302132220869
 21
1325.494460905089
 31
0.0
  0
ARC
  5
18CA9
330
18C7A
100
AcDbEntity
  8
部品1
 48
0.01
100
AcDbCircle
 10
1483.470482677778
 20
1319.493338720063
 30
0.0
 40
0.5
100
AcDbArc
 50
270.0
 51
0.0
  0
LINE
  5
18CAA
330
18C7A
100
AcDbEntity
  8
部品1
 48
0.01
100
AcDbLine
 10
1483.970482677778
 20
1320.493338720063
 30
0.0
 11
1483.970482677778
 21
1319.493338720063
 31
0.0
  0
LINE
  5
18CAB
330
18C7A
100
AcDbEntity
  8
部品1
 48
0.01
100
AcDbLine
 10
1483.970482677778
 20
1320.493338720063
 30
0.0
 11
1483.970482677778
 21
1319.493338720063
 31
0.0
  0
LINE
  5
18CAC
330
18C7A
100
AcDbEntity
  8
部品1
 48
0.01
100
AcDbLine
 10
1483.470482677778
 20
1318.993338720063
 30
0.0
 11
1476.857977247713
 21
1318.993338720062
 31
0.0
  0
ARC
  5
18CAD
330
18C7A
100
AcDbEntity
  8
部品1
100
AcDbCircle
 10
1476.926326800494
 20
1319.993338720062
 30
0.0
 40
1.0
100
AcDbArc
 50
160.5287793655865
 51
270.0
  0
ARC
  5
18CAE
330
18C7A
100
AcDbEntity
  8
部品1
100
AcDbCircle
 10
1451.470482677778
 20
1328.993338720062
 30
0.0
 40
26.0
100
AcDbArc
 50
340.5287793655865
 51
0.0
  0
LINE
  5
18CAF
330
18C7A
100
AcDbEntity
  8
部品1
100
AcDbLine
 10
1477.470482677778
 20
1328.993338720062
 30
0.0
 11
1477.470482677778
 21
1333.993338720061
 31
0.0
  0
ARC
  5
18CB0
330
18C7A
100
AcDbEntity
  8
部品1
 48
0.01
100
AcDbCircle
 10
1475.470482677778
 20
1333.993338720061
 30
0.0
 40
2.0
100
AcDbArc
 50
0.0
 51
90.0
  0
ARC
  5
18CB1
330
18C7A
100
AcDbEntity
  8
部品1
100
AcDbCircle
 10
1473.862091052968
 20
1332.993338720062
 30
0.0
 40
3.0
100
AcDbArc
 50
90.0
 51
141.6069559808035
  0
LINE
  5
18CB2
330
18C7A
100
AcDbEntity
  8
部品1
 48
0.01
100
AcDbLine
 10
1475.470482677778
 20
1335.993338720062
 30
0.0
 11
1473.862091052968
 21
1335.993338720062
 31
0.0
  0
ARC
  5
18CB3
330
18C7A
100
AcDbEntity
  8
部品1
100
AcDbCircle
 10
1455.399768463507
 20
1332.293338720065
 30
0.0
 40
3.0
100
AcDbArc
 50
254.0576313943215
 51
270.0
  0
ARC
  5
18CB4
330
18C7A
100
AcDbEntity
  8
部品1
100
AcDbCircle
 10
1462.541196892049
 20
1332.293338720065
 30
0.0
 40
3.0
100
AcDbArc
 50
270.0
 51
285.9423686056786
  0
LINE
  5
18CB5
330
18C7A
100
AcDbEntity
  8
部品1
100
AcDbLine
 10
1462.541196892049
 20
1329.293338720064
 30
0.0
 11
1455.399768463507
 21
1329.293338720064
 31
0.0
  0
ARC
  5
18CB6
330
18C7A
100
AcDbEntity
  8
部品1
100
AcDbCircle
 10
1458.970482677778
 20
1344.793338720065
 30
0.0
 40
16.0
100
AcDbArc
 50
285.9423686056786
 51
321.6069559808035
  0
LINE
  5
18CB7
330
18C7A
100
AcDbEntity
  8
部品1
 48
0.01
100
AcDbLine
 10
1442.470482677778
 20
1335.993338720062
 30
0.0
 11
1444.078874302588
 21
1335.993338720062
 31
0.0
  0
ARC
  5
18CB8
330
18C7A
100
AcDbEntity
  8
部品1
100
AcDbCircle
 10
1444.078874302588
 20
1332.993338720062
 30
0.0
 40
3.0
100
AcDbArc
 50
38.39304401919648
 51
90.0
  0
ARC
  5
18CB9
330
18C7A
100
AcDbEntity
  8
部品1
100
AcDbCircle
 10
1458.970482677778
 20
1344.793338720065
 30
0.0
 40
16.0
100
AcDbArc
 50
218.3930440191965
 51
254.0576313943215
  0
LINE
  5
18CBA
330
18C7A
100
AcDbEntity
  8
部品1
100
AcDbLine
 10
1440.470482677778
 20
1328.993338720062
 30
0.0
 11
1440.470482677778
 21
1333.993338720061
 31
0.0
  0
ARC
  5
18CBB
330
18C7A
100
AcDbEntity
  8
部品1
 48
0.01
100
AcDbCircle
 10
1442.470482677778
 20
1333.993338720061
 30
0.0
 40
2.0
100
AcDbArc
 50
90.0
 51
180.0
  0
ARC
  5
18CBC
330
18C7A
100
AcDbEntity
  8
部品1
100
AcDbCircle
 10
1466.470482677778
 20
1328.993338720062
 30
0.0
 40
26.0
100
AcDbArc
 50
180.0
 51
199.4712206344134
  0
ARC
  5
18CBD
330
18C7A
100
AcDbEntity
  8
部品1
 48
0.01
100
AcDbCircle
 10
1434.470482677778
 20
1319.493338720063
 30
0.0
 40
0.5
100
AcDbArc
 50
180.0
 51
270.0
  0
LINE
  5
18CBE
330
18C7A
100
AcDbEntity
  8
部品1
 48
0.01
100
AcDbLine
 10
1434.470482677778
 20
1318.993338720063
 30
0.0
 11
1441.014638555061
 21
1318.993338720062
 31
0.0
  0
LINE
  5
18CBF
330
18C7A
100
AcDbEntity
  8
部品1
 48
0.01
100
AcDbLine
 10
1433.970482677778
 20
1320.493338720063
 30
0.0
 11
1433.970482677778
 21
1319.493338720063
 31
0.0
  0
ARC
  5
18CC0
330
18C7A
100
AcDbEntity
  8
部品1
100
AcDbCircle
 10
1441.014638555061
 20
1319.993338720062
 30
0.0
 40
1.0
100
AcDbArc
 50
270.0
 51
19.47122063441346
  0
LINE
  5
18CC1
330
18C7A
100
AcDbEntity
  8
細線
100
AcDbLine
 10
1479.470482677785
 20
1338.493338720065
 30
0.0
 11
1438.470482677785
 21
1338.493338720058
 31
0.0
  0
LINE
  5
18CC2
330
18C7A
100
AcDbEntity
  8
細線
100
AcDbLine
 10
1438.470482677785
 20
1338.493338720058
 30
0.0
 11
1438.470482677785
 21
1320.49333872004
 31
0.0
  0
LINE
  5
18CC3
330
18C7A
100
AcDbEntity
  8
細線
100
AcDbLine
 10
1479.470482677785
 20
1338.493338720065
 30
0.0
 11
1479.470482677785
 21
1320.49333872004
 31
0.0
  0
LINE
  5
18CC4
330
18C7A
100
AcDbEntity
  8
細線
100
AcDbLine
 10
1322.970589276523
 20
1324.494269174465
 30
0.0
 11
1322.970589276523
 21
1320.494269174513
 31
0.0
  0
LINE
  5
18CC5
330
18C7A
100
AcDbEntity
  8
寸法
 48
50.0
100
AcDbLine
 10
1746.17359555837
 20
1170.531020743327
 30
0.0
 11
1694.767587648266
 21
1170.531020743327
 31
0.0
  0
LINE
  5
18CC6
330
18C7A
100
AcDbEntity
  8
寸法
 48
50.0
100
AcDbLine
 10
1694.767587648266
 20
1170.531020743327
 30
0.0
 11
1694.767587648266
 21
1201.841179395494
 31
0.0
  0
LINE
  5
18CC7
330
18C7A
100
AcDbEntity
  8
寸法
 48
50.0
100
AcDbLine
 10
1694.767587648266
 20
1201.841179395494
 30
0.0
 11
1665.006255656843
 21
1201.841179395494
 31
0.0
  0
LINE
  5
18CC8
330
18C7A
100
AcDbEntity
  8
寸法
 48
50.0
100
AcDbLine
 10
1665.006255656843
 20
1201.841179395494
 30
0.0
 11
1720.470591603318
 21
1239.420630324105
 31
0.0
  0
LINE
  5
18CC9
330
18C7A
100
AcDbEntity
  8
寸法
 48
50.0
100
AcDbLine
 10
1775.934927549793
 20
1201.841179395494
 30
0.0
 11
1720.470591603318
 21
1239.420630324105
 31
0.0
  0
LINE
  5
18CCA
330
18C7A
100
AcDbEntity
  8
寸法
 48
50.0
100
AcDbLine
 10
1746.17359555837
 20
1201.841179395494
 30
0.0
 11
1775.934927549793
 21
1201.841179395494
 31
0.0
  0
LINE
  5
18CCB
330
18C7A
100
AcDbEntity
  8
寸法
 48
50.0
100
AcDbLine
 10
1746.17359555837
 20
1170.531020743327
 30
0.0
 11
1746.17359555837
 21
1201.841179395494
 31
0.0
  0
LINE
  5
18CCC
330
18C7A
100
AcDbEntity
  8
寸法
 48
50.0
100
AcDbLine
 10
1694.767587648266
 20
1170.531020743327
 30
0.0
 11
1746.17359555837
 21
1170.531020743327
 31
0.0
  0
LINE
  5
18CCD
330
18C7A
100
AcDbEntity
  8
寸法
 48
50.0
100
AcDbLine
 10
2025.339129835225
 20
1227.676611498152
 30
0.0
 11
2025.339129835225
 21
1174.01297691636
 31
0.0
  0
LINE
  5
18CCE
330
18C7A
100
AcDbEntity
  8
寸法
 48
50.0
100
AcDbLine
 10
2114.623348430647
 20
1203.752977228664
 30
0.0
 11
2025.339129835225
 21
1227.676611498152
 31
0.0
  0
LINE
  5
18CCF
330
18C7A
100
AcDbEntity
  8
寸法
 48
50.0
100
AcDbLine
 10
1895.471408254923
 20
1203.752977228664
 30
0.0
 11
2114.623348430647
 21
1203.752977228664
 31
0.0
  0
DIMENSION
  5
18CD0
330
18C7A
100
AcDbEntity
  8
寸法
 48
50.0
100
AcDbDimension
  2
*D15
 10
2588.970589276523
 20
706.3240511224249
 30
0.0
 11
1969.060022905491
 21
706.3240511224249
 31
0.0
 12
-3742.925985830444
 22
-6453.628869860112
 32
0.0
 70
   128
  1
有効開口部間口\P<>
 71
     5
 42
1266.0
  3
INABA_S40G
100
AcDbAlignedDimension
 13
1322.970589276523
 23
1315.494269174465
 33
0.0
 14
2588.970589276523
 24
1315.494269174465
 34
0.0
100
AcDbRotatedDimension
1001
ACAD
1000
DSTYLE
1002
{
1070
   341
1005
0
1002
}
  0
LINE
  5
18CD1
330
18C7A
100
AcDbEntity
  8
部品1
100
AcDbLine
 10
3409.970589276524
 20
1392.494269174465
 30
0.0
 11
3437.970589276523
 21
1392.494269174465
 31
0.0
  0
DIMENSION
  5
18CD2
330
18C7A
100
AcDbEntity
  8
寸法
100
AcDbDimension
  2
*D16
 10
3674.266172669749
 20
1315.494269174465
 30
0.0
 11
3674.266172669748
 21
1177.494269174462
 31
0.0
 12
-3742.925985830444
 22
-6453.628869860112
 32
0.0
 70
   128
 71
     5
 42
77.0
  3
INABA_S40
100
AcDbAlignedDimension
 13
3437.970589276523
 23
1392.494269174465
 33
0.0
 14
3436.970589276523
 24
1315.494269174465
 34
0.0
 50
90.0
100
AcDbRotatedDimension
1001
ACAD
1000
DSTYLE
1002
{
1070
    41
1040
0.5
1070
    44
1040
1.0
1070
   147
1040
0.8
1070
   271
1070
     2
1070
   272
1070
     2
1070
   289
1070
     3
1070
   340
1005
F706
1070
   343
1005
164B4
1070
   344
1005
164B4
1002
}
  0
LINE
  5
18CD3
330
18C7A
100
AcDbEntity
  8
部品1
100
AcDbLine
 10
3437.970589276523
 20
1315.494269174465
 30
0.0
 11
3437.970589276523
 21
1392.494269174465
 31
0.0
  0
LINE
  5
18CD4
330
18C7A
100
AcDbEntity
  8
部品1
100
AcDbLine
 10
3398.970589276523
 20
1388.494269174465
 30
0.0
 11
3409.970589276524
 21
1388.494269174465
 31
0.0
  0
LINE
  5
18CD5
330
18C7A
100
AcDbEntity
  8
部品1
100
AcDbLine
 10
3407.970589276523
 20
1324.494269174465
 30
0.0
 11
3407.970589276523
 21
1315.494269174465
 31
0.0
  0
LINE
  5
18CD6
330
18C7A
100
AcDbEntity
  8
部品1
100
AcDbLine
 10
3398.970589276523
 20
1324.494269174465
 30
0.0
 11
3407.970589276523
 21
1324.494269174465
 31
0.0
  0
LINE
  5
18CD7
330
18C7A
100
AcDbEntity
  8
部品1
100
AcDbLine
 10
3398.970589276523
 20
1388.494269174465
 30
0.0
 11
3398.970589276523
 21
1324.494269174465
 31
0.0
  0
LINE
  5
18CD8
330
18C7A
100
AcDbEntity
  8
部品1
100
AcDbLine
 10
3409.970589276524
 20
1419.494269174465
 30
0.0
 11
3409.970589276524
 21
1388.494269174465
 31
0.0
  0
LINE
  5
18CD9
330
18C7A
100
AcDbEntity
  8
部品1
100
AcDbLine
 10
1322.970589276523
 20
1388.494269174465
 30
0.0
 11
1311.970589276523
 21
1388.494269174465
 31
0.0
  0
LINE
  5
18CDA
330
18C7A
100
AcDbEntity
  8
部品1
100
AcDbLine
 10
1283.970589276523
 20
1392.494269174465
 30
0.0
 11
1311.970589276523
 21
1392.494269174465
 31
0.0
  0
LINE
  5
18CDB
330
18C7A
100
AcDbEntity
  8
部品1
100
AcDbLine
 10
1313.970589276523
 20
1324.494269174465
 30
0.0
 11
1313.970589276523
 21
1315.494269174465
 31
0.0
  0
LINE
  5
18CDC
330
18C7A
100
AcDbEntity
  8
部品1
100
AcDbLine
 10
1322.970589276523
 20
1324.494269174465
 30
0.0
 11
1313.970589276523
 21
1324.494269174465
 31
0.0
  0
LINE
  5
18CDD
330
18C7A
100
AcDbEntity
  8
部品1
100
AcDbLine
 10
1313.970589276523
 20
1315.494269174465
 30
0.0
 11
1283.970589276523
 21
1315.494269174465
 31
0.0
  0
LINE
  5
18CDE
330
18C7A
100
AcDbEntity
  8
部品1
100
AcDbLine
 10
1283.970589276523
 20
1315.494269174465
 30
0.0
 11
1283.970589276523
 21
1392.494269174465
 31
0.0
  0
LINE
  5
18CDF
330
18C7A
100
AcDbEntity
  8
部品1
100
AcDbLine
 10
1322.970589276523
 20
1388.494269174465
 30
0.0
 11
1322.970589276523
 21
1324.494269174465
 31
0.0
  0
LINE
  5
18CE0
330
18C7A
100
AcDbEntity
  8
部品1
100
AcDbLine
 10
1311.970589276523
 20
1419.494269174462
 30
0.0
 11
1311.970589276523
 21
1388.494269174465
 31
0.0
  0
LINE
  5
18CE1
330
18C7A
100
AcDbEntity
  8
部品1
100
AcDbLine
 10
1311.970589276523
 20
1419.494269174462
 30
0.0
 11
3409.970589276524
 21
1419.494269174465
 31
0.0
  0
LINE
  5
18CE2
330
18C7A
100
AcDbEntity
  8
部品1
100
AcDbLine
 10
3407.970589276523
 20
1315.494269174465
 30
0.0
 11
3437.970589276523
 21
1315.494269174465
 31
0.0
  0
LINE
  5
18CE3
330
18C7A
100
AcDbEntity
  8
部品1
100
AcDbLine
 10
1313.970589276523
 20
1315.494269174465
 30
0.0
 11
3410.970589276523
 21
1315.494269174465
 31
0.0
  0
LINE
  5
18CE4
330
18C7A
100
AcDbEntity
  8
細線
  6
Continuous
 62
     5
100
AcDbLine
 10
2689.970589276527
 20
1354.494269174462
 30
0.0
 11
2689.970589276527
 21
1354.494269174462
 31
0.0
  0
LINE
  5
18CE5
330
18C7A
100
AcDbEntity
  8
細線
  6
Continuous
 62
     5
100
AcDbLine
 10
2682.470589276527
 20
1354.494269174462
 30
0.0
 11
2682.470589276527
 21
1354.494269174462
 31
0.0
  0
LINE
  5
18CE6
330
18C7A
100
AcDbEntity
  8
細線
  6
Continuous
 62
     5
100
AcDbLine
 10
2676.470589276527
 20
1354.494269174462
 30
0.0
 11
2676.470589276527
 21
1354.494269174462
 31
0.0
  0
LINE
  5
18CE7
330
18C7A
100
AcDbEntity
  8
細線
  6
Continuous
 62
     5
100
AcDbLine
 10
2743.970589276527
 20
1373.494269174462
 30
0.0
 11
2743.970589276527
 21
1373.494269174462
 31
0.0
  0
LINE
  5
18CE8
330
18C7A
100
AcDbEntity
  8
細線
 48
50.0
100
AcDbLine
 10
1336.970593930116
 20
1341.094443351418
 30
0.0
 11
1336.970593930113
 21
1349.490593759059
 31
0.0
  0
LINE
  5
18CE9
330
18C7A
100
AcDbEntity
  8
細線
 48
50.0
100
AcDbLine
 10
1336.970593930113
 20
1349.490593759059
 30
0.0
 11
1322.970589276523
 21
1349.490593759057
 31
0.0
  0
LINE
  5
18CEA
330
18C7A
100
AcDbEntity
  8
細線
 48
50.0
100
AcDbLine
 10
2087.970593930113
 20
1337.644443351419
 30
0.0
 11
2087.970593930113
 21
1342.494443351421
 31
0.0
  0
LINE
  5
18CEB
330
18C7A
100
AcDbEntity
  8
細線
 48
50.0
100
AcDbLine
 10
2087.970593930113
 20
1342.494443351421
 30
0.0
 11
2102.970593930113
 21
1342.494443351421
 31
0.0
  0
LINE
  5
18CEC
330
18C7A
100
AcDbEntity
  8
細線
 48
50.0
100
AcDbLine
 10
2102.970593930113
 20
1342.494443351421
 30
0.0
 11
2102.970593930115
 21
1349.494443351419
 31
0.0
  0
LINE
  5
18CED
330
18C7A
100
AcDbEntity
  8
細線
 48
50.0
100
AcDbLine
 10
2102.970593930115
 20
1349.494443351419
 30
0.0
 11
2117.970593930113
 21
1349.494443351419
 31
0.0
  0
LINE
  5
18CEE
330
18C7A
100
AcDbEntity
  8
細線
 48
50.0
100
AcDbLine
 10
2117.970593930113
 20
1349.494443351419
 30
0.0
 11
2117.970593930113
 21
1320.494443351421
 31
0.0
  0
LINE
  5
18CEF
330
18C7A
100
AcDbEntity
  8
細線
 48
50.0
100
AcDbLine
 10
1313.970589276523
 20
1320.491777694889
 30
0.0
 11
1527.970593930113
 21
1320.494460905133
 31
0.0
  0
LINE
  5
18CF0
330
18C7A
100
AcDbEntity
  8
細線
 48
50.0
100
AcDbLine
 10
2017.970593930113
 20
1320.494443351421
 30
0.0
 11
2117.970593930113
 21
1320.494443351421
 31
0.0
  0
LINE
  5
18CF1
330
18C7A
100
AcDbEntity
  8
細線
 48
50.0
100
AcDbLine
 10
1737.970593930113
 20
1320.494443351419
 30
0.0
 11
1807.970593930113
 21
1320.494443351423
 31
0.0
  0
LINE
  5
18CF2
330
18C7A
100
AcDbEntity
  8
細線
 48
50.0
100
AcDbLine
 10
1750.832558942642
 20
1320.494443351419
 30
0.0
 11
1756.588076525309
 21
1338.765294641913
 31
0.0
  0
LINE
  5
18CF3
330
18C7A
100
AcDbEntity
  8
細線
 48
50.0
100
AcDbLine
 10
1756.588076525309
 20
1338.765294641913
 30
0.0
 11
1767.516525005743
 21
1338.765294641911
 31
0.0
  0
ARC
  5
18CF4
330
18C7A
100
AcDbEntity
  8
細線
 48
50.0
100
AcDbCircle
 10
1767.516525005743
 20
1337.765294641911
 30
0.0
 40
1.0
100
AcDbArc
 50
24.62431835207225
 51
90.0
  0
ARC
  5
18CF5
330
18C7A
100
AcDbEntity
  8
細線
 48
50.0
100
AcDbCircle
 10
1778.425237120377
 20
1337.765294641911
 30
0.0
 40
1.0
100
AcDbArc
 50
90.0
 51
155.3756816479277
  0
ARC
  5
18CF6
330
18C7A
100
AcDbEntity
  8
細線
 48
50.0
100
AcDbCircle
 10
1772.970881063058
 20
1340.265294641911
 30
0.0
 40
5.0
100
AcDbArc
 50
204.6243183520723
 51
335.3756816479278
  0
LINE
  5
18CF7
330
18C7A
100
AcDbEntity
  8
細線
 48
50.0
100
AcDbLine
 10
1778.425237120377
 20
1338.765294641911
 30
0.0
 11
1789.35368560081
 21
1338.765294641913
 31
0.0
  0
LINE
  5
18CF8
330
18C7A
100
AcDbEntity
  8
細線
 48
50.0
100
AcDbLine
 10
1789.35368560081
 20
1338.765294641913
 30
0.0
 11
1795.109203183478
 21
1320.494443351423
 31
0.0
  0
LINE
  5
18CF9
330
18C7A
100
AcDbEntity
  8
細線
 48
50.0
100
AcDbLine
 10
2087.970593930113
 20
1341.094443351419
 30
0.0
 11
1336.970593930116
 21
1341.094443351418
 31
0.0
  0
LINE
  5
18CFA
330
18C7A
100
AcDbEntity
  8
細線
 48
50.0
100
AcDbLine
 10
1947.970593930113
 20
1320.494443351421
 30
0.0
 11
1877.970593930113
 21
1320.494443351421
 31
0.0
  0
LINE
  5
18CFB
330
18C7A
100
AcDbEntity
  8
細線
100
AcDbLine
 10
1667.970593930113
 20
1320.494443351421
 30
0.0
 11
1597.970602115529
 21
1320.494443351421
 31
0.0
  0
LINE
  5
18CFC
330
18C7A
100
AcDbEntity
  8
細線
 48
50.0
100
AcDbLine
 10
2741.970584622936
 20
1375.094487209288
 30
0.0
 11
2106.970593930113
 21
1375.094487209284
 31
0.0
  0
LINE
  5
18CFD
330
18C7A
100
AcDbEntity
  8
細線
 48
50.0
100
AcDbLine
 10
2106.970593930113
 20
1371.990637616925
 30
0.0
 11
2106.970593930113
 21
1376.490637616925
 31
0.0
  0
LINE
  5
18CFE
330
18C7A
100
AcDbEntity
  8
細線
 48
50.0
100
AcDbLine
 10
2106.970593930113
 20
1376.490637616925
 30
0.0
 11
2091.970593930113
 21
1376.490637616925
 31
0.0
  0
LINE
  5
18CFF
330
18C7A
100
AcDbEntity
  8
細線
 48
50.0
100
AcDbLine
 10
2091.970593930113
 20
1376.490637616925
 30
0.0
 11
2091.970593930113
 21
1383.490637616927
 31
0.0
  0
LINE
  5
18D00
330
18C7A
100
AcDbEntity
  8
細線
 48
50.0
100
AcDbLine
 10
2091.970593930113
 20
1383.490637616927
 30
0.0
 11
2076.970593930115
 21
1383.490637616924
 31
0.0
  0
LINE
  5
18D01
330
18C7A
100
AcDbEntity
  8
細線
 48
50.0
100
AcDbLine
 10
2076.970593930115
 20
1383.490637616924
 30
0.0
 11
2076.970593930115
 21
1345.890409513813
 31
0.0
  0
LINE
  5
18D02
330
18C7A
100
AcDbEntity
  8
細線
 48
50.0
100
AcDbLine
 10
2076.970593930115
 20
1345.890409513813
 30
0.0
 11
2096.970601231289
 21
1345.890451063353
 31
0.0
  0
LINE
  5
18D03
330
18C7A
100
AcDbEntity
  8
細線
 48
50.0
100
AcDbLine
 10
2096.970556362348
 20
1354.493912699161
 30
0.0
 11
2096.970601231289
 21
1345.890451063353
 31
0.0
  0
LINE
  5
18D04
330
18C7A
100
AcDbEntity
  8
細線
 48
50.0
100
AcDbLine
 10
2741.970584622936
 20
1371.644487209287
 30
0.0
 11
2741.970584622936
 21
1376.494487209284
 31
0.0
  0
LINE
  5
18D05
330
18C7A
100
AcDbEntity
  8
細線
 48
50.0
100
AcDbLine
 10
2741.970584622936
 20
1376.494487209284
 30
0.0
 11
2756.970584622934
 21
1376.494487209285
 31
0.0
  0
LINE
  5
18D06
330
18C7A
100
AcDbEntity
  8
細線
 48
50.0
100
AcDbLine
 10
2756.970584622934
 20
1376.494487209285
 30
0.0
 11
2756.970596256909
 21
1383.494487209331
 31
0.0
  0
LINE
  5
18D07
330
18C7A
100
AcDbEntity
  8
細線
 48
50.0
100
AcDbLine
 10
2756.970596256909
 20
1383.494487209331
 30
0.0
 11
2771.970594427439
 21
1383.494487209329
 31
0.0
  0
LINE
  5
18D08
330
18C7A
100
AcDbEntity
  8
細線
 48
50.0
100
AcDbLine
 10
2771.970594427439
 20
1383.494487209329
 30
0.0
 11
2771.970584125617
 21
1354.494281037055
 31
0.0
  0
LINE
  5
18D09
330
18C7A
100
AcDbEntity
  8
細線
 48
50.0
100
AcDbLine
 10
2458.070304175992
 20
1354.494278397076
 30
0.0
 11
2389.470863838818
 21
1354.494283787084
 31
0.0
  0
LINE
  5
18D0A
330
18C7A
100
AcDbEntity
  8
細線
 48
50.0
100
AcDbLine
 10
2096.970556362348
 20
1354.493912699161
 30
0.0
 11
2108.203245717057
 21
1354.494095652309
 31
0.0
  0
ARC
  5
18D0B
330
18C7A
100
AcDbEntity
  8
細線
 48
50.0
100
AcDbCircle
 10
2114.785538024393
 20
1353.294259565922
 30
0.0
 40
1.8
100
AcDbArc
 50
270.0006665777295
 51
345.000555481349
  0
LINE
  5
18D0C
330
18C7A
100
AcDbEntity
  8
細線
 48
50.0
100
AcDbLine
 10
2116.771971470473
 20
1353.753100023201
 30
0.0
 11
2116.524209028273
 21
1352.828402141094
 31
0.0
  0
LINE
  5
18D0D
330
18C7A
100
AcDbEntity
  8
細線
 48
50.0
100
AcDbLine
 10
2114.785558965548
 20
1351.494259566043
 30
0.0
 11
2111.155631546781
 21
1351.494217335563
 31
0.0
  0
ARC
  5
18D0E
330
18C7A
100
AcDbEntity
  8
細線
 48
50.0
100
AcDbCircle
 10
2111.155610605627
 20
1353.29421733544
 30
0.0
 40
1.8
100
AcDbArc
 50
195.0010443049965
 51
270.0006665777295
  0
LINE
  5
18D0F
330
18C7A
100
AcDbEntity
  8
細線
 48
50.0
100
AcDbLine
 10
2109.169183113368
 20
1353.752932303007
 30
0.0
 11
2109.416952609882
 21
1352.828311364425
 31
0.0
  0
ARC
  5
18D10
330
18C7A
100
AcDbEntity
  8
細線
 48
50.0
100
AcDbCircle
 10
2108.203262004622
 20
1353.494095652444
 30
0.0
 40
1.0
100
AcDbArc
 50
15.00104430499651
 51
90.00093320877969
  0
LINE
  5
18D11
330
18C7A
100
AcDbEntity
  8
細線
 48
50.0
100
AcDbLine
 10
2117.737892825577
 20
1354.494290342714
 30
0.0
 11
2118.679652976481
 21
1354.494296916564
 31
0.0
  0
ARC
  5
18D12
330
18C7A
100
AcDbEntity
  8
細線
 48
50.0
100
AcDbCircle
 10
2117.737899805961
 20
1353.49429034274
 30
0.0
 40
1.0
100
AcDbArc
 50
90.0003999466794
 51
165.000555481349
  0
LINE
  5
18D13
330
18C7A
100
AcDbEntity
  8
細線
 48
50.0
100
AcDbLine
 10
2669.470584622926
 20
1354.494281037055
 30
0.0
 11
2771.970584125617
 21
1354.494281037055
 31
0.0
  0
LINE
  5
18D14
330
18C7A
100
AcDbEntity
  8
細線
 48
50.0
100
AcDbLine
 10
2179.47061994182
 20
1354.494289224422
 30
0.0
 11
2118.370558714898
 21
1354.494296916564
 31
0.0
  0
LINE
  5
18D15
330
18C7A
100
AcDbEntity
  8
細線
 48
50.0
100
AcDbLine
 10
2599.470584622926
 20
1354.494281037057
 30
0.0
 11
2529.470584622926
 21
1354.494281037055
 31
0.0
  0
LINE
  5
18D16
330
18C7A
100
AcDbEntity
  8
細線
 48
50.0
100
AcDbLine
 10
2319.470584622926
 20
1354.494281037054
 30
0.0
 11
2249.470567335051
 21
1354.494281037057
 31
0.0
  0
ARC
  5
18D17
330
18C7A
100
AcDbEntity
  8
細線
 48
50.0
100
AcDbCircle
 10
2756.170589276533
 20
1387.694269174466
 30
0.0
 40
0.8
100
AcDbArc
 50
359.9997333689499
 51
89.99986668437072
  0
ARC
  5
18D18
330
18C7A
100
AcDbEntity
  8
細線
 48
50.0
100
AcDbCircle
 10
2763.770596101631
 20
1387.694280343081
 30
0.0
 40
0.8
100
AcDbArc
 50
90.00014387753465
 51
179.9997333689498
  0
LINE
  5
18D19
330
18C7A
100
AcDbEntity
  8
細線
 48
50.0
100
AcDbLine
 10
2756.170591137969
 20
1388.494269174465
 30
0.0
 11
2750.970589276525
 21
1388.494269174465
 31
0.0
  0
ARC
  5
18D1A
330
18C7A
100
AcDbEntity
  8
細線
 48
50.0
100
AcDbCircle
 10
2757.670589276524
 20
1386.194269174464
 30
0.0
 40
0.7
100
AcDbArc
 50
180.0
 51
270.0
  0
ARC
  5
18D1B
330
18C7A
100
AcDbEntity
  8
細線
 48
50.0
100
AcDbCircle
 10
2762.270589276524
 20
1386.194269174464
 30
0.0
 40
0.7
100
AcDbArc
 50
270.0
 51
0.0
  0
LINE
  5
18D1C
330
18C7A
100
AcDbEntity
  8
細線
 48
50.0
100
AcDbLine
 10
2762.970589276525
 20
1386.194269174464
 30
0.0
 11
2762.970596101639
 21
1387.694284065954
 31
0.0
  0
LINE
  5
18D1D
330
18C7A
100
AcDbEntity
  8
細線
 48
50.0
100
AcDbLine
 10
2757.670589276524
 20
1385.494269174465
 30
0.0
 11
2762.270589276524
 21
1385.494269174465
 31
0.0
  0
LINE
  5
18D1E
330
18C7A
100
AcDbEntity
  8
細線
 48
50.0
100
AcDbLine
 10
2756.970589276525
 20
1387.694269174466
 30
0.0
 11
2756.970589276525
 21
1386.194269174464
 31
0.0
  0
LINE
  5
18D1F
330
18C7A
100
AcDbEntity
  8
細線
 48
50.0
100
AcDbLine
 10
3382.570589276527
 20
1418.494269174465
 30
0.0
 11
2745.970589276525
 21
1418.494269174463
 31
0.0
  0
LINE
  5
18D20
330
18C7A
100
AcDbEntity
  8
細線
 48
50.0
100
AcDbLine
 10
3408.470589276525
 20
1413.494269174467
 30
0.0
 11
3392.570589276527
 21
1413.494269174465
 31
0.0
  0
LINE
  5
18D21
330
18C7A
100
AcDbEntity
  8
細線
 48
50.0
100
AcDbLine
 10
3392.570589276526
 20
1413.494269174465
 30
0.0
 11
3382.570589276527
 21
1418.494269174465
 31
0.0
  0
LINE
  5
18D22
330
18C7A
100
AcDbEntity
  8
細線
100
AcDbLine
 10
2993.470589276525
 20
1388.494269174465
 30
0.0
 11
2993.470589276525
 21
1417.794269174464
 31
0.0
  0
LINE
  5
18D23
330
18C7A
100
AcDbEntity
  8
細線
100
AcDbLine
 10
2993.470589276525
 20
1417.794269174464
 30
0.0
 11
3013.470589276525
 21
1417.794269174464
 31
0.0
  0
LINE
  5
18D24
330
18C7A
100
AcDbEntity
  8
細線
100
AcDbLine
 10
3013.470589276525
 20
1388.494269174465
 30
0.0
 11
3013.470589276525
 21
1417.794269174464
 31
0.0
  0
LINE
  5
18D25
330
18C7A
100
AcDbEntity
  8
細線
100
AcDbLine
 10
3170.720589276524
 20
1388.494269174465
 30
0.0
 11
3100.720589276523
 21
1388.494269174465
 31
0.0
  0
LINE
  5
18D26
330
18C7A
100
AcDbEntity
  8
細線
 48
50.0
100
AcDbLine
 10
2890.720589276525
 20
1388.494269174465
 30
0.0
 11
2763.766368849365
 21
1388.494269174465
 31
0.0
  0
LINE
  5
18D27
330
18C7A
100
AcDbEntity
  8
細線
100
AcDbLine
 10
3030.720589276525
 20
1388.494269174465
 30
0.0
 11
2960.720589276525
 21
1388.494269174465
 31
0.0
  0
LINE
  5
18D28
330
18C7A
100
AcDbEntity
  8
細線
 48
50.0
100
AcDbLine
 10
2750.970589276525
 20
1380.494269174465
 30
0.0
 11
2750.970589276525
 21
1388.494269174465
 31
0.0
  0
LINE
  5
18D29
330
18C7A
100
AcDbEntity
  8
細線
 48
50.0
100
AcDbLine
 10
2730.970589276524
 20
1380.494269174467
 30
0.0
 11
2750.970589276525
 21
1380.494269174465
 31
0.0
  0
LINE
  5
18D2A
330
18C7A
100
AcDbEntity
  8
細線
 48
50.0
100
AcDbLine
 10
2745.970589276525
 20
1418.494269174465
 30
0.0
 11
2745.970589276525
 21
1413.494269174465
 31
0.0
  0
LINE
  5
18D2B
330
18C7A
100
AcDbEntity
  8
細線
 48
50.0
100
AcDbLine
 10
2730.970589276525
 20
1418.494269174463
 30
0.0
 11
2745.970589276525
 21
1418.494269174465
 31
0.0
  0
LINE
  5
18D2C
330
18C7A
100
AcDbEntity
  8
細線
 48
50.0
100
AcDbLine
 10
2730.970589276524
 20
1380.494269174467
 30
0.0
 11
2730.970589276525
 21
1418.494269174463
 31
0.0
  0
LINE
  5
18D2D
330
18C7A
100
AcDbEntity
  8
細線
100
AcDbLine
 10
3398.970589276523
 20
1388.494269174465
 30
0.0
 11
3240.720589276525
 21
1388.494269174465
 31
0.0
  0
LINE
  5
18D2E
330
18C7A
100
AcDbEntity
  8
細線
 48
50.0
100
AcDbLine
 10
3408.470589276525
 20
1413.494269174467
 30
0.0
 11
3408.470589276524
 21
1388.494269174465
 31
0.0
  0
TEXT
  5
18D2F
330
18C7A
100
AcDbEntity
  8
部品1
100
AcDbText
 10
1860.154865991392
 20
46.99880823813145
 30
0.0
 40
135.0
  1
平面図
  7
STYLE2
100
AcDbText
  0
LWPOLYLINE
  5
18D30
330
18C7A
100
AcDbEntity
  8
部品1
100
AcDbPolyline
 90
        4
 70
     1
 43
0.0
 10
1770.23525616235
 20
239.8923374566548
 10
1770.23525616235
 20
0.0000159111223184
 10
2533.705922390791
 20
0.0000159111223184
 10
2533.705922390791
 20
239.8923374566548
  0
LINE
  5
18D31
330
18C7A
100
AcDbEntity
  8
部品1
100
AcDbLine
 10
1534.470589276487
 20
3154.494269174626
 30
0.0
 11
2769.470589276552
 21
3154.494269174626
 31
0.0
  0
LINE
  5
18D32
330
18C7A
100
AcDbEntity
  8
部品1
 48
50.0
100
AcDbLine
 10
1311.970589276523
 20
1420.494269174462
 30
0.0
 11
3411.970589276523
 21
1420.494269174465
 31
0.0
  0
LINE
  5
18D33
330
18C7A
100
AcDbEntity
  8
部品1
 48
50.0
100
AcDbLine
 10
471.9705892765232
 20
1392.494269174465
 30
0.0
 11
1311.970589276523
 21
1392.494269174465
 31
0.0
  0
DIMENSION
  5
18D34
330
18C7A
100
AcDbEntity
  8
寸法
100
AcDbDimension
  2
*D14
 10
2710.234916278077
 20
2488.887829538828
 30
0.0
 11
2338.318822490183
 21
2488.887829538828
 31
0.0
 12
-3742.925985830444
 22
-6453.628869860112
 32
0.0
 70
   128
 71
     5
 42
1231.00000000007
  3
INABA_S40G
100
AcDbAlignedDimension
 13
1536.470589276486
 23
2702.494269174557
 33
0.0
 14
2767.470589276556
 24
2702.494269174549
 34
0.0
100
AcDbRotatedDimension
1001
ACAD
1000
DSTYLE
1002
{
1002
}
  0
LINE
  5
18D35
330
18C7A
100
AcDbEntity
  8
部品1
100
AcDbLine
 10
1536.470589276487
 20
2702.494269174557
 30
0.0
 11
2767.470589276554
 21
2702.494269174615
 31
0.0
  0
LINE
  5
18D36
330
18C7A
100
AcDbEntity
  8
部品1
100
AcDbLine
 10
1536.470589276487
 20
3152.494269174557
 30
0.0
 11
2767.470589276556
 21
3152.494269174615
 31
0.0
  0
LINE
  5
18D37
330
18C7A
100
AcDbEntity
  8
細線
 48
50.0
100
AcDbLine
 10
1508.470589276487
 20
3152.494269174558
 30
0.0
 11
445.4705892765559
 21
2702.494269174509
 31
0.0
  0
LINE
  5
18D38
330
18C7A
100
AcDbEntity
  8
細線
 48
50.0
100
AcDbLine
 10
1508.470589276487
 20
2702.494269174558
 30
0.0
 11
445.4705892765542
 21
3152.494269174509
 31
0.0
  0
LINE
  5
18D39
330
18C7A
100
AcDbEntity
  8
部品1
100
AcDbLine
 10
1556.970589276487
 20
3172.494269174611
 30
0.0
 11
1556.970589276487
 21
3154.494269174611
 31
0.0
  0
LINE
  5
18D3A
330
18C7A
100
AcDbEntity
  8
部品1
100
AcDbLine
 10
1556.970589276487
 20
3172.494269174611
 30
0.0
 11
1550.970589276487
 21
3172.494269174611
 31
0.0
  0
LINE
  5
18D3B
330
18C7A
100
AcDbEntity
  8
部品1
100
AcDbLine
 10
1534.470589276487
 20
3146.494269174608
 30
0.0
 11
1509.470589276487
 21
3146.494269174611
 31
0.0
  0
LINE
  5
18D3C
330
18C7A
100
AcDbEntity
  8
部品1
100
AcDbLine
 10
1486.970589276487
 20
3172.494269174611
 30
0.0
 11
1486.970589276487
 21
3154.494269174611
 31
0.0
  0
LINE
  5
18D3D
330
18C7A
100
AcDbEntity
  8
部品1
100
AcDbLine
 10
1492.970589276487
 20
3172.494269174611
 30
0.0
 11
1486.970589276487
 21
3172.494269174611
 31
0.0
  0
LINE
  5
18D3E
330
18C7A
100
AcDbEntity
  8
部品1
100
AcDbLine
 10
1534.470589276487
 20
2702.494269174615
 30
0.0
 11
1509.470589276487
 21
2702.494269174615
 31
0.0
  0
LINE
  5
18D3F
330
18C7A
100
AcDbEntity
  8
部品1
 48
50.0
100
AcDbLine
 10
1536.470589276487
 20
3152.494269174611
 30
0.0
 11
1536.470589276487
 21
2702.494269174615
 31
0.0
  0
LINE
  5
18D40
330
18C7A
100
AcDbEntity
  8
部品1
 48
50.0
100
AcDbLine
 10
1508.470589276487
 20
3152.494269174607
 30
0.0
 11
1508.470589276487
 21
2702.494269174615
 31
0.0
  0
LINE
  5
18D41
330
18C7A
100
AcDbEntity
  8
部品1
 48
50.0
100
AcDbLine
 10
1534.470589276487
 20
3154.494269174618
 30
0.0
 11
1534.470589276487
 21
2702.494269174615
 31
0.0
  0
LINE
  5
18D42
330
18C7A
100
AcDbEntity
  8
部品1
 48
50.0
100
AcDbLine
 10
1509.470589276487
 20
3154.494269174615
 30
0.0
 11
1509.470589276487
 21
2702.494269174615
 31
0.0
  0
LINE
  5
18D43
330
18C7A
100
AcDbEntity
  8
部品1
100
AcDbLine
 10
3411.970589276556
 20
1392.494269174582
 30
0.0
 11
3411.970589276556
 21
1420.494269174596
 31
0.0
  0
LINE
  5
18D44
330
18C7A
100
AcDbEntity
  8
部品1
100
AcDbLine
 10
1311.970589276523
 20
1392.494269174596
 30
0.0
 11
1311.970589276523
 21
1420.494269174596
 31
0.0
  0
LINE
  5
18D45
330
18C7A
100
AcDbEntity
  8
部品1
100
AcDbLine
 10
891.9705892765232
 20
1392.494269174596
 30
0.0
 11
891.9705892765232
 21
1420.494269174596
 31
0.0
  0
LINE
  5
18D46
330
18C7A
100
AcDbEntity
  8
部品1
100
AcDbLine
 10
3411.97058927652
 20
3182.494269174477
 30
0.0
 11
3411.970589276523
 21
3154.494269174477
 31
0.0
  0
LINE
  5
18D47
330
18C7A
100
AcDbEntity
  8
部品1
100
AcDbLine
 10
2571.97058927652
 20
3182.494269174477
 30
0.0
 11
2571.970589276523
 21
3154.494269174477
 31
0.0
  0
LINE
  5
18D48
330
18C7A
100
AcDbEntity
  8
部品1
100
AcDbLine
 10
2991.97058927652
 20
3182.494269174477
 30
0.0
 11
2991.970589276523
 21
3154.494269174477
 31
0.0
  0
LINE
  5
18D49
330
18C7A
100
AcDbEntity
  8
部品1
100
AcDbLine
 10
2151.970589276519
 20
3182.494269174477
 30
0.0
 11
2151.970589276523
 21
3154.494269174477
 31
0.0
  0
LINE
  5
18D4A
330
18C7A
100
AcDbEntity
  8
部品1
100
AcDbLine
 10
1731.970589276519
 20
3182.494269174477
 30
0.0
 11
1731.970589276523
 21
3154.494269174477
 31
0.0
  0
LINE
  5
18D4B
330
18C7A
100
AcDbEntity
  8
部品1
100
AcDbLine
 10
1311.970589276519
 20
3182.494269174477
 30
0.0
 11
1311.970589276523
 21
3154.494269174477
 31
0.0
  0
LINE
  5
18D4C
330
18C7A
100
AcDbEntity
  8
部品1
100
AcDbLine
 10
891.9705892765195
 20
3182.494269174477
 30
0.0
 11
891.9705892765232
 21
3154.494269174477
 31
0.0
  0
LINE
  5
18D4D
330
18C7A
100
AcDbEntity
  8
部品1
100
AcDbLine
 10
471.9705892765232
 20
1392.494269174596
 30
0.0
 11
471.9705892765232
 21
1420.494269174596
 31
0.0
  0
LINE
  5
18D4E
330
18C7A
100
AcDbEntity
  8
部品1
100
AcDbLine
 10
444.9705892765305
 20
1420.494269174558
 30
0.0
 11
3858.970589276556
 21
1420.494269174596
 31
0.0
  0
LINE
  5
18D4F
330
18C7A
100
AcDbEntity
  8
部品1
100
AcDbLine
 10
3831.970589276556
 20
1392.494269174596
 30
0.0
 11
3831.970589276556
 21
1420.494269174596
 31
0.0
  0
LINE
  5
18D50
330
18C7A
100
AcDbEntity
  8
部品1
100
AcDbLine
 10
3858.970589276556
 20
1447.494269174593
 30
0.0
 11
3886.970589276556
 21
1447.494269174593
 31
0.0
  0
LINE
  5
18D51
330
18C7A
100
AcDbEntity
  8
部品1
100
AcDbLine
 10
3858.970589276556
 20
1867.494269174607
 30
0.0
 11
3886.970589276556
 21
1867.494269174607
 31
0.0
  0
LINE
  5
18D52
330
18C7A
100
AcDbEntity
  8
部品1
100
AcDbLine
 10
444.9705892765305
 20
1867.49426917448
 30
0.0
 11
416.9705892765305
 21
1867.49426917448
 31
0.0
  0
LINE
  5
18D53
330
18C7A
100
AcDbEntity
  8
部品1
100
AcDbLine
 10
3830.470589276541
 20
1867.49426917458
 30
0.0
 11
473.4705892765396
 21
1867.49426917448
 31
0.0
  0
LINE
  5
18D54
330
18C7A
100
AcDbEntity
  8
部品1
100
AcDbLine
 10
3830.470589276541
 20
2287.49426917458
 30
0.0
 11
473.4705892765396
 21
2287.49426917448
 31
0.0
  0
LINE
  5
18D55
330
18C7A
100
AcDbEntity
  8
部品1
100
AcDbLine
 10
444.9705892765305
 20
2287.49426917448
 30
0.0
 11
416.9705892765305
 21
2287.49426917448
 31
0.0
  0
LINE
  5
18D56
330
18C7A
100
AcDbEntity
  8
部品1
100
AcDbLine
 10
3858.970589276556
 20
2287.494269174608
 30
0.0
 11
3886.970589276556
 21
2287.494269174608
 31
0.0
  0
LINE
  5
18D57
330
18C7A
100
AcDbEntity
  8
部品1
 48
50.0
100
AcDbLine
 10
2151.970589276551
 20
2702.494269174586
 30
0.0
 11
2151.970589276581
 21
1448.994269174494
 31
0.0
  0
LINE
  5
18D58
330
18C7A
100
AcDbEntity
  8
破線
 48
10.0
100
AcDbLine
 10
2959.470589276535
 20
1472.494269174522
 30
0.0
 11
2176.970589276532
 21
1472.494269174505
 31
0.0
  0
LINE
  5
18D59
330
18C7A
100
AcDbEntity
  8
破線
 48
10.0
100
AcDbLine
 10
3009.47058927653
 20
1448.994269174509
 30
0.0
 11
3009.47058927653
 21
2702.494269174615
 31
0.0
  0
LINE
  5
18D5A
330
18C7A
100
AcDbEntity
  8
破線
 48
10.0
100
AcDbLine
 10
2959.470589276535
 20
1448.994269174505
 30
0.0
 11
2959.470589276531
 21
2702.494269174615
 31
0.0
  0
LINE
  5
18D5B
330
18C7A
100
AcDbEntity
  8
破線
 48
10.0
100
AcDbLine
 10
1344.47058927653
 20
1448.994269174509
 30
0.0
 11
1344.47058927653
 21
2702.494269174615
 31
0.0
  0
LINE
  5
18D5C
330
18C7A
100
AcDbEntity
  8
破線
 48
10.0
100
AcDbLine
 10
1294.470589276534
 20
1448.994269174505
 30
0.0
 11
1294.47058927653
 21
2702.494269174615
 31
0.0
  0
DIMENSION
  5
18D5D
330
18C7A
100
AcDbEntity
  8
寸法
100
AcDbDimension
  2
*D13
 10
1451.234916278005
 20
2488.887829538828
 30
0.0
 11
916.0604668248634
 21
2488.887829538828
 31
0.0
 12
-3742.925985830444
 22
-6453.628869860112
 32
0.0
 70
   128
 71
     5
 42
1062.99999999993
  3
INABA_S40G
100
AcDbAlignedDimension
 13
445.4705892765559
 23
2702.494269174505
 33
0.0
 14
1508.470589276486
 24
2702.494269174558
 34
0.0
100
AcDbRotatedDimension
1001
ACAD
1000
DSTYLE
1002
{
1002
}
  0
LINE
  5
18D5E
330
18C7A
100
AcDbEntity
  8
破線
 48
10.0
100
AcDbLine
 10
1294.470589276534
 20
1472.494269174469
 30
0.0
 11
496.9705892765414
 21
1472.494269174476
 31
0.0
  0
LINE
  5
18D5F
330
18C7A
100
AcDbEntity
  8
部品1
100
AcDbLine
 10
3831.970589276556
 20
3182.494269174604
 30
0.0
 11
3831.970589276556
 21
3154.494269174604
 31
0.0
  0
LINE
  5
18D60
330
18C7A
100
AcDbEntity
  8
部品1
100
AcDbLine
 10
3831.970589276556
 20
3182.494269174626
 30
0.0
 11
3831.970589276556
 21
3154.494269174626
 31
0.0
  0
LINE
  5
18D61
330
18C7A
100
AcDbEntity
  8
部品1
100
AcDbLine
 10
3858.970589276556
 20
3127.494269174607
 30
0.0
 11
3886.970589276556
 21
3127.494269174607
 31
0.0
  0
LINE
  5
18D62
330
18C7A
100
AcDbEntity
  8
部品1
100
AcDbLine
 10
3858.970589276556
 20
2707.494269174608
 30
0.0
 11
3886.970589276556
 21
2707.494269174608
 31
0.0
  0
LINE
  5
18D63
330
18C7A
100
AcDbEntity
  8
部品1
100
AcDbLine
 10
3858.470589276556
 20
3152.494269174604
 30
0.0
 11
3858.470589276556
 21
2702.494269174608
 31
0.0
  0
LINE
  5
18D64
330
18C7A
100
AcDbEntity
  8
部品1
100
AcDbLine
 10
3886.970589276533
 20
1447.494269174593
 30
0.0
 11
3886.970589276531
 21
1392.494269174596
 31
0.0
  0
LINE
  5
18D65
330
18C7A
100
AcDbEntity
  8
部品1
 48
50.0
100
AcDbLine
 10
3830.470589276556
 20
1448.994269174596
 30
0.0
 11
3858.970589276554
 21
1420.494269174596
 31
0.0
  0
LINE
  5
18D66
330
18C7A
100
AcDbEntity
  8
部品1
100
AcDbLine
 10
3886.970589276531
 20
1392.494269174596
 30
0.0
 11
3835.970589276531
 21
1392.494269174596
 31
0.0
  0
LINE
  5
18D67
330
18C7A
100
AcDbEntity
  8
部品1
100
AcDbLine
 10
3858.970589276533
 20
1447.494269174593
 30
0.0
 11
3886.970589276531
 21
1447.494269174593
 31
0.0
  0
LINE
  5
18D68
330
18C7A
100
AcDbEntity
  8
部品1
100
AcDbLine
 10
3886.970589276556
 20
3182.494269174604
 30
0.0
 11
3886.970589276531
 21
1392.494269174596
 31
0.0
  0
DIMENSION
  5
18D69
330
18C7A
100
AcDbEntity
  8
寸法
100
AcDbDimension
  2
*D12
 10
4534.396935010967
 20
1447.494269174593
 30
0.0
 11
4534.396935010965
 21
2287.4942691746
 31
0.0
 12
-3742.925985830444
 22
-6453.628869860112
 32
0.0
 70
   128
  1
4X420=<>
 71
     5
 42
1680.000000000014
  3
INABA_S40G
100
AcDbAlignedDimension
 13
3886.970589276556
 23
3127.494269174607
 33
0.0
 14
3886.970589276531
 24
1447.494269174593
 34
0.0
 50
90.0
100
AcDbRotatedDimension
1001
ACAD
1000
DSTYLE
1002
{
1002
}
  0
LINE
  5
18D6A
330
18C7A
100
AcDbEntity
  8
部品1
100
AcDbLine
 10
3858.970589276556
 20
3154.494269174604
 30
0.0
 11
3858.970589276534
 21
1420.494269174596
 31
0.0
  0
DIMENSION
  5
18D6B
330
18C7A
100
AcDbEntity
  8
寸法
100
AcDbDimension
  2
*D11
 10
4213.82831513858
 20
2607.276453505718
 30
0.0
 11
4113.828315138579
 21
2832.276453505718
 31
0.0
 12
-3742.925985830444
 22
-6453.628869860112
 32
0.0
 71
     5
 42
449.9999999999963
  3
INABA_S40G
100
AcDbAlignedDimension
 13
3858.470589276556
 23
3152.494269174604
 33
0.0
 14
3858.470589276556
 24
2702.494269174608
 34
0.0
 50
90.0
100
AcDbRotatedDimension
1001
ACAD
1000
DSTYLE
1002
{
1002
}
  0
LINE
  5
18D6C
330
18C7A
100
AcDbEntity
  8
部品1
100
AcDbLine
 10
3830.470589276547
 20
2702.494269174608
 30
0.0
 11
3830.470589276556
 21
1448.994269174596
 31
0.0
  0
LINE
  5
18D6D
330
18C7A
100
AcDbEntity
  8
破線
 48
10.0
100
AcDbLine
 10
3806.970589276549
 20
2702.494269174608
 30
0.0
 11
3806.970589276558
 21
1472.494269174593
 31
0.0
  0
LINE
  5
18D6E
330
18C7A
100
AcDbEntity
  8
部品1
100
AcDbLine
 10
2769.470589276556
 20
3146.494269174608
 30
0.0
 11
2794.470589276556
 21
3146.494269174611
 31
0.0
  0
LINE
  5
18D6F
330
18C7A
100
AcDbEntity
  8
部品1
100
AcDbLine
 10
2810.970589276556
 20
3172.494269174611
 30
0.0
 11
2816.970589276556
 21
3172.494269174611
 31
0.0
  0
LINE
  5
18D70
330
18C7A
100
AcDbEntity
  8
部品1
100
AcDbLine
 10
2816.970589276556
 20
3172.494269174611
 30
0.0
 11
2816.970589276556
 21
3154.494269174611
 31
0.0
  0
LINE
  5
18D71
330
18C7A
100
AcDbEntity
  8
部品1
100
AcDbLine
 10
2746.970589276556
 20
3172.494269174611
 30
0.0
 11
2752.970589276556
 21
3172.494269174611
 31
0.0
  0
LINE
  5
18D72
330
18C7A
100
AcDbEntity
  8
部品1
100
AcDbLine
 10
2746.970589276556
 20
3172.494269174611
 30
0.0
 11
2746.970589276556
 21
3154.494269174611
 31
0.0
  0
LINE
  5
18D73
330
18C7A
100
AcDbEntity
  8
部品1
100
AcDbLine
 10
2769.470589276556
 20
2702.494269174615
 30
0.0
 11
2794.470589276556
 21
2702.494269174615
 31
0.0
  0
LINE
  5
18D74
330
18C7A
100
AcDbEntity
  8
部品1
 48
50.0
100
AcDbLine
 10
2794.470589276556
 20
3154.494269174615
 30
0.0
 11
2794.470589276556
 21
2702.494269174615
 31
0.0
  0
LINE
  5
18D75
330
18C7A
100
AcDbEntity
  8
部品1
 48
50.0
100
AcDbLine
 10
2769.470589276554
 20
3154.494269174618
 30
0.0
 11
2769.470589276556
 21
2702.494269174615
 31
0.0
  0
LINE
  5
18D76
330
18C7A
100
AcDbEntity
  8
部品1
 48
50.0
100
AcDbLine
 10
2795.470589276556
 20
3152.494269174607
 30
0.0
 11
2795.470589276556
 21
2702.494269174615
 31
0.0
  0
LINE
  5
18D77
330
18C7A
100
AcDbEntity
  8
部品1
 48
50.0
100
AcDbLine
 10
2767.470589276556
 20
3152.494269174611
 30
0.0
 11
2767.470589276556
 21
2702.494269174615
 31
0.0
  0
LINE
  5
18D78
330
18C7A
100
AcDbEntity
  8
破線
 48
10.0
100
AcDbLine
 10
2176.97058927653
 20
1448.994269174509
 30
0.0
 11
2176.97058927653
 21
2702.494269174588
 31
0.0
  0
LINE
  5
18D79
330
18C7A
100
AcDbEntity
  8
破線
 48
10.0
100
AcDbLine
 10
2126.970589276534
 20
1448.994269174505
 30
0.0
 11
2126.970589276531
 21
2702.494269174586
 31
0.0
  0
LINE
  5
18D7A
330
18C7A
100
AcDbEntity
  8
部品1
100
AcDbLine
 10
2794.470589276556
 20
3154.494269174622
 30
0.0
 11
3858.970589276556
 21
3154.494269174604
 31
0.0
  0
LINE
  5
18D7B
330
18C7A
100
AcDbEntity
  8
細線
 48
50.0
100
AcDbLine
 10
3858.470589276556
 20
2702.494269174608
 30
0.0
 11
2795.470589276556
 21
3152.494269174607
 31
0.0
  0
LINE
  5
18D7C
330
18C7A
100
AcDbEntity
  8
部品1
100
AcDbLine
 10
2795.470589276555
 20
2702.494269174615
 30
0.0
 11
3858.470589276556
 21
2702.494269174608
 31
0.0
  0
LINE
  5
18D7D
330
18C7A
100
AcDbEntity
  8
部品1
100
AcDbLine
 10
2795.470589276556
 20
3152.494269174611
 30
0.0
 11
3858.470589276556
 21
3152.494269174604
 31
0.0
  0
LINE
  5
18D7E
330
18C7A
100
AcDbEntity
  8
細線
 48
50.0
100
AcDbLine
 10
3858.470589276556
 20
3152.494269174604
 30
0.0
 11
2795.470589276555
 21
2702.494269174615
 31
0.0
  0
DIMENSION
  5
18D7F
330
18C7A
100
AcDbEntity
  8
寸法
100
AcDbDimension
  2
*D10
 10
3801.234916278101
 20
2488.887829538937
 30
0.0
 11
3318.360544398907
 21
2488.887829538937
 31
0.0
 12
-3742.925985830444
 22
-6453.628869860112
 32
0.0
 70
   128
 71
     5
 42
1063.000000000012
  3
INABA_S40G
100
AcDbAlignedDimension
 13
2795.470589276555
 23
2702.494269174615
 33
0.0
 14
3858.470589276567
 24
2702.494269174608
 34
0.0
100
AcDbRotatedDimension
1001
ACAD
1000
DSTYLE
1002
{
1002
}
  0
LINE
  5
18D80
330
18C7A
100
AcDbEntity
  8
破線
 48
10.0
100
AcDbLine
 10
3806.970589276556
 20
1472.494269174594
 30
0.0
 11
3009.47058927653
 21
1472.494269174523
 31
0.0
  0
DIMENSION
  5
18D81
330
18C7A
100
AcDbEntity
  8
寸法
100
AcDbDimension
  2
*D9
 10
4534.396935010941
 20
1392.494269174596
 30
0.0
 11
4534.39693501094
 21
1084.008987800356
 31
0.0
 12
-3742.925985830444
 22
-6453.628869860112
 32
0.0
 70
   128
 71
     5
 42
54.99999999999636
  3
INABA_S40G
100
AcDbAlignedDimension
 13
3886.970589276531
 23
1447.494269174593
 33
0.0
 14
3886.970589276531
 24
1392.494269174596
 34
0.0
 50
90.0
100
AcDbRotatedDimension
1001
ACAD
1000
DSTYLE
1002
{
1002
}
  0
LINE
  5
18D82
330
18C7A
100
AcDbEntity
  8
部品1
100
AcDbLine
 10
471.9705892765196
 20
3182.494269174477
 30
0.0
 11
471.9705892765232
 21
3154.494269174477
 31
0.0
  0
LINE
  5
18D83
330
18C7A
100
AcDbEntity
  8
部品1
100
AcDbLine
 10
471.9705892765559
 20
3182.494269174509
 30
0.0
 11
471.9705892765559
 21
3154.494269174509
 31
0.0
  0
LINE
  5
18D84
330
18C7A
100
AcDbEntity
  8
部品1
100
AcDbLine
 10
444.9705892765232
 20
3127.49426917448
 30
0.0
 11
416.9705892765232
 21
3127.49426917448
 31
0.0
  0
LINE
  5
18D85
330
18C7A
100
AcDbEntity
  8
部品1
100
AcDbLine
 10
444.9705892765305
 20
2707.49426917448
 30
0.0
 11
416.9705892765305
 21
2707.49426917448
 31
0.0
  0
LINE
  5
18D86
330
18C7A
100
AcDbEntity
  8
部品1
 48
50.0
100
AcDbLine
 10
445.4705892765542
 20
3152.494269174506
 30
0.0
 11
445.4705892765559
 21
2702.494269174505
 31
0.0
  0
LINE
  5
18D87
330
18C7A
100
AcDbEntity
  8
部品1
 48
50.0
100
AcDbLine
 10
473.470589276545
 20
1448.994269174573
 30
0.0
 11
444.970589276545
 21
1420.494269174574
 31
0.0
  0
LINE
  5
18D88
330
18C7A
100
AcDbEntity
  8
部品1
100
AcDbLine
 10
471.9705892765232
 20
1392.494269174465
 30
0.0
 11
416.9705892765486
 21
1392.494269174465
 31
0.0
  0
LINE
  5
18D89
330
18C7A
100
AcDbEntity
  8
部品1
100
AcDbLine
 10
444.9705892765305
 20
1447.494269174429
 30
0.0
 11
416.9705892765469
 21
1447.494269174429
 31
0.0
  0
LINE
  5
18D8A
330
18C7A
100
AcDbEntity
  8
部品1
100
AcDbLine
 10
444.9705892765305
 20
1447.494269174465
 30
0.0
 11
416.9705892765469
 21
1447.494269174465
 31
0.0
  0
LINE
  5
18D8B
330
18C7A
100
AcDbEntity
  8
部品1
100
AcDbLine
 10
444.9705892765469
 20
1447.49426917448
 30
0.0
 11
416.9705892765469
 21
1447.49426917448
 31
0.0
  0
LINE
  5
18D8C
330
18C7A
100
AcDbEntity
  8
部品1
100
AcDbLine
 10
416.9705892765469
 20
1447.494269174429
 30
0.0
 11
416.9705892765486
 21
1392.494269174433
 31
0.0
  0
LINE
  5
18D8D
330
18C7A
100
AcDbEntity
  8
部品1
100
AcDbLine
 10
416.9705892765196
 20
3182.494269174477
 30
0.0
 11
416.9705892765486
 21
1392.494269174465
 31
0.0
  0
LINE
  5
18D8E
330
18C7A
100
AcDbEntity
  8
部品1
100
AcDbLine
 10
444.9705892765305
 20
1420.494269174556
 30
0.0
 11
444.9705892765559
 21
3154.494269174509
 31
0.0
  0
LINE
  5
18D8F
330
18C7A
100
AcDbEntity
  8
部品1
100
AcDbLine
 10
473.4705892765323
 20
2702.494269174608
 30
0.0
 11
473.470589276545
 21
1448.994269174571
 31
0.0
  0
LINE
  5
18D90
330
18C7A
100
AcDbEntity
  8
破線
 48
10.0
100
AcDbLine
 10
496.9705892765305
 20
2702.494269174608
 30
0.0
 11
496.9705892765451
 21
1472.494269174476
 31
0.0
  0
DIMENSION
  5
18D91
330
18C7A
100
AcDbEntity
  8
寸法
100
AcDbDimension
  2
*D8
 10
3886.970589276531
 20
410.7433333855515
 30
0.0
 11
2168.197775309287
 21
410.7433333855515
 31
0.0
 12
-3742.925985830444
 22
-6453.628869860112
 32
0.0
 70
   128
 71
     5
 42
3469.999999999982
  3
INABA_S40G
100
AcDbAlignedDimension
 13
416.9705892765486
 23
1392.494269174433
 33
0.0
 14
3886.970589276531
 24
1392.49426917456
 34
0.0
100
AcDbRotatedDimension
1001
ACAD
1000
DSTYLE
1002
{
1070
   341
1005
0
1002
}
  0
LINE
  5
18D92
330
18C7A
100
AcDbEntity
  8
部品1
100
AcDbLine
 10
444.9705892765559
 20
3154.494269174624
 30
0.0
 11
1509.470589276487
 21
3154.494269174626
 31
0.0
  0
LINE
  5
18D93
330
18C7A
100
AcDbEntity
  8
部品1
100
AcDbLine
 10
3886.970589276531
 20
1392.494269174596
 30
0.0
 11
3411.970589276556
 21
1392.494269174582
 31
0.0
  0
LINE
  5
18D94
330
18C7A
100
AcDbEntity
  8
部品1
100
AcDbLine
 10
416.9705892765559
 20
3182.494269174509
 30
0.0
 11
3886.970589276556
 21
3182.494269174604
 31
0.0
  0
LINE
  5
18D95
330
18C7A
100
AcDbEntity
  8
部品1
100
AcDbLine
 10
445.4705892765559
 20
2702.494269174509
 30
0.0
 11
1508.470589276487
 21
2702.494269174558
 31
0.0
  0
LINE
  5
18D96
330
18C7A
100
AcDbEntity
  8
細線
 48
50.0
100
AcDbLine
 10
2767.470589276556
 20
3152.494269174611
 30
0.0
 11
1536.470589276487
 21
2702.494269174558
 31
0.0
  0
LINE
  5
18D97
330
18C7A
100
AcDbEntity
  8
部品1
100
AcDbLine
 10
445.4705892765542
 20
3152.494269174509
 30
0.0
 11
1508.470589276485
 21
3152.494269174558
 31
0.0
  0
LINE
  5
18D98
330
18C7A
100
AcDbEntity
  8
細線
 48
50.0
100
AcDbLine
 10
2767.470589276554
 20
2702.494269174615
 30
0.0
 11
1536.470589276485
 21
3152.494269174558
 31
0.0
  0
LINE
  5
18D99
330
18C7A
100
AcDbEntity
  8
破線
 48
10.0
100
AcDbLine
 10
2126.970589276534
 20
1472.494269174502
 30
0.0
 11
1344.47058927653
 21
1472.494269174473
 31
0.0
  0
LINE
  5
18D9A
330
18C7A
100
AcDbEntity
  8
部品1
100
AcDbLine
 10
3830.470589276556
 20
1448.994269174596
 30
0.0
 11
473.4705892764487
 21
1448.994269174476
 31
0.0
  0
DIMENSION
  5
18D9B
330
18C7A
100
AcDbEntity
  8
寸法
100
AcDbDimension
  2
*D7
 10
471.970589276555
 20
3698.302488799491
 30
0.0
 11
108.4853079022819
 21
3698.302488799491
 31
0.0
 12
-3742.925985830444
 22
-6453.628869860112
 32
0.0
 70
   128
 71
     5
 42
55.00000000003456
  3
INABA_S40G
100
AcDbAlignedDimension
 13
416.9705892765205
 23
3182.494269174509
 33
0.0
 14
471.970589276555
 24
3182.494269174509
 34
0.0
100
AcDbRotatedDimension
1001
ACAD
1000
DSTYLE
1002
{
1002
}
  0
DIMENSION
  5
18D9C
330
18C7A
100
AcDbEntity
  8
寸法
100
AcDbDimension
  2
*D6
 10
4534.396935010967
 20
3127.494269174607
 30
0.0
 11
4534.396935010965
 21
3490.979550548844
 31
0.0
 12
-3742.925985830444
 22
-6453.628869860112
 32
0.0
 70
   128
 71
     5
 42
54.99999999999636
  3
INABA_S40G
100
AcDbAlignedDimension
 13
3886.970589276556
 23
3182.494269174604
 33
0.0
 14
3886.970589276556
 24
3127.494269174607
 34
0.0
 50
90.0
100
AcDbRotatedDimension
1001
ACAD
1000
DSTYLE
1002
{
1002
}
  0
DIMENSION
  5
18D9D
330
18C7A
100
AcDbEntity
  8
寸法
100
AcDbDimension
  2
*D5
 10
3886.970589276556
 20
3698.302488799589
 30
0.0
 11
4195.455870650794
 21
3698.302488799589
 31
0.0
 12
-3742.925985830444
 22
-6453.628869860112
 32
0.0
 70
   128
 71
     5
 42
55.0
  3
INABA_S40G
100
AcDbAlignedDimension
 13
3831.970589276556
 23
3182.494269174604
 33
0.0
 14
3886.970589276556
 24
3182.494269174604
 34
0.0
100
AcDbRotatedDimension
1001
ACAD
1000
DSTYLE
1002
{
1002
}
  0
DIMENSION
  5
18D9E
330
18C7A
100
AcDbEntity
  8
寸法
100
AcDbDimension
  2
*D4
 10
3831.970589276556
 20
3698.302488799607
 30
0.0
 11
2151.970589276555
 21
3698.302488799607
 31
0.0
 12
-3742.925985830444
 22
-6453.628869860112
 32
0.0
 70
   128
  1
8X420=<>
 71
     5
 42
3360.000000000001
  3
INABA_S40G
100
AcDbAlignedDimension
 13
471.970589276555
 23
3182.494269174509
 33
0.0
 14
3831.970589276556
 24
3182.494269174604
 34
0.0
100
AcDbRotatedDimension
1001
ACAD
1000
DSTYLE
1002
{
1002
}
  0
DIMENSION
  5
18D9F
330
18C7A
100
AcDbEntity
  8
寸法
100
AcDbDimension
  2
*D3
 10
4899.503876750603
 20
1392.494269174596
 30
0.0
 11
4899.503876750601
 21
2287.4942691746
 31
0.0
 12
-3742.925985830444
 22
-6453.628869860112
 32
0.0
 70
   128
 71
     5
 42
1790.000000000007
  3
INABA_S40G
100
AcDbAlignedDimension
 13
3886.970589276556
 23
3182.494269174604
 33
0.0
 14
3886.970589276531
 24
1392.494269174596
 34
0.0
 50
90.0
100
AcDbRotatedDimension
1001
ACAD
1000
DSTYLE
1002
{
1002
}
  0
ENDBLK
  5
18DA1
330
18C7A
100
AcDbEntity
  8
0
 48
50.0
100
AcDbBlockEnd
  0
BLOCK
  5
1C4CB
330
1C4CA
100
AcDbEntity
  8
0
 48
50.0
100
AcDbBlockBegin
  2
_NONE
 70
     0
 10
0.0
 20
0.0
 30
0.0
  3
_NONE
  1

  0
CIRCLE
  5
1C4CC
330
1C4CA
100
AcDbEntity
  8
0
  6
ByBlock
 62
     0
 48
50.0
100
AcDbCircle
 10
0.0
 20
0.0
 30
0.0
 40
0.25
  0
ENDBLK
  5
1C4CD
330
1C4CA
100
AcDbEntity
  8
0
 48
50.0
100
AcDbBlockEnd
  0
BLOCK
  5
1E36A
330
1E35F
100
AcDbEntity
  8
0
 48
50.0
100
AcDbBlockBegin
  2
*D19
 70
     1
 10
0.0
 20
0.0
 30
0.0
  3
*D19
  1

  0
LINE
  5
206EC
330
1E35F
100
AcDbEntity
  8
寸法
 62
     0
 48
50.0
370
    -2
100
AcDbLine
 10
9671.100000000002
 20
7957.898251426236
 30
0.0
 11
10003.22543569062
 21
7957.898251426236
 31
0.0
  0
LINE
  5
206ED
330
1E35F
100
AcDbEntity
  8
寸法
 62
     0
 48
50.0
370
    -2
100
AcDbLine
 10
9671.100000000002
 20
8077.898251426235
 30
0.0
 11
10003.22543569062
 21
8077.898251426235
 31
0.0
  0
LINE
  5
206EE
330
1E35F
100
AcDbEntity
  8
寸法
 62
     0
 48
50.0
370
    -2
100
AcDbLine
 10
9943.225435690621
 20
7957.898251426236
 30
0.0
 11
9943.225435690621
 21
8077.898251426235
 31
0.0
  0
LINE
  5
206EF
330
1E35F
100
AcDbEntity
  8
寸法
 62
     0
 48
50.0
370
    -2
100
AcDbLine
 10
9943.225435690621
 20
8077.898251426235
 30
0.0
 11
9943.225435690621
 21
8473.571699678689
 31
0.0
  0
INSERT
  5
206F0
330
1E35F
100
AcDbEntity
  8
寸法
 62
     0
 48
50.0
370
    -2
100
AcDbBlockReference
  2
_DOTSMALL
 10
9943.225435690621
 20
7957.898251426236
 30
0.0
 41
100.0
 42
100.0
 43
100.0
 50
270.0
  0
INSERT
  5
206F1
330
1E35F
100
AcDbEntity
  8
寸法
 62
     0
 48
50.0
370
    -2
100
AcDbBlockReference
  2
_DOTSMALL
 10
9943.225435690621
 20
8077.898251426235
 30
0.0
 41
100.0
 42
100.0
 43
100.0
 50
90.0
  0
MTEXT
  5
206F2
330
1E35F
100
AcDbEntity
  8
寸法
 62
     7
 48
50.0
100
AcDbMText
 10
9843.213624666999
 20
8337.524455584201
 30
0.0
 40
120.0
 41
0.0
 71
     5
 72
     1
  1
\A1;120
  7
STYLE1
 11
0.0000000000000001
 21
1.0
 31
0.0
 73
     1
 44
1.0
1001
ACAD
1000
MTEXTBEGIN
1070
    73
1070
     1
1070
    44
1040
1.0
1070
    74
1070
     0
1000
MTEXTEND
  0
POINT
  5
206F3
330
1E35F
100
AcDbEntity
  8
DEFPOINTS
 62
     0
 48
50.0
100
AcDbPoint
 10
9651.100000000003
 20
7957.898251426236
 30
0.0
  0
POINT
  5
206F4
330
1E35F
100
AcDbEntity
  8
DEFPOINTS
 62
     0
 48
50.0
100
AcDbPoint
 10
9651.100000000001
 20
8077.898251426235
 30
0.0
  0
POINT
  5
206F5
330
1E35F
100
AcDbEntity
  8
DEFPOINTS
 62
     0
 48
50.0
100
AcDbPoint
 10
9943.225435690621
 20
8077.898251426235
 30
0.0
  0
ENDBLK
  5
1E36B
330
1E35F
100
AcDbEntity
  8
0
 48
50.0
100
AcDbBlockEnd
  0
BLOCK
  5
1E376
330
1E36C
100
AcDbEntity
  8
0
 48
50.0
100
AcDbBlockBegin
  2
*D20
 70
     1
 10
0.0
 20
0.0
 30
0.0
  3
*D20
  1

  0
LINE
  5
1FF57
330
1E36C
100
AcDbEntity
  8
寸法
 62
     0
 48
50.0
370
    -2
100
AcDbLine
 10
8140.6
 20
8102.898251426235
 30
0.0
 11
8140.6
 21
8883.657877968319
 31
0.0
  0
LINE
  5
1FF58
330
1E36C
100
AcDbEntity
  8
寸法
 62
     0
 48
50.0
370
    -2
100
AcDbLine
 10
6033.6
 20
8047.898251426236
 30
0.0
 11
6033.6
 21
8883.657877968319
 31
0.0
  0
LINE
  5
1FF59
330
1E36C
100
AcDbEntity
  8
寸法
 62
     0
 48
50.0
370
    -2
100
AcDbLine
 10
8140.6
 20
8823.657877968319
 30
0.0
 11
6033.6
 21
8823.657877968319
 31
0.0
  0
INSERT
  5
1FF5A
330
1E36C
100
AcDbEntity
  8
寸法
 62
     0
 48
50.0
370
    -2
100
AcDbBlockReference
  2
_DOTSMALL
 10
8140.6
 20
8823.657877968319
 30
0.0
 41
100.0
 42
100.0
 43
100.0
  0
INSERT
  5
1FF5B
330
1E36C
100
AcDbEntity
  8
寸法
 62
     0
 48
50.0
370
    -2
100
AcDbBlockReference
  2
_DOTSMALL
 10
6033.6
 20
8823.657877968319
 30
0.0
 41
100.0
 42
100.0
 43
100.0
 50
180.0
  0
MTEXT
  5
1FF5C
330
1E36C
100
AcDbEntity
  8
寸法
 62
     7
 48
50.0
100
AcDbMText
 10
7087.100000000001
 20
8923.669688991941
 30
0.0
 40
120.0
 41
0.0
 71
     5
 72
     1
  1
\A1;2107
  7
STYLE1
 73
     1
 44
1.0
1001
ACAD
1000
MTEXTBEGIN
1070
    73
1070
     1
1070
    44
1040
1.0
1070
    74
1070
     0
1000
MTEXTEND
  0
POINT
  5
1FF5D
330
1E36C
100
AcDbEntity
  8
DEFPOINTS
 62
     0
 48
50.0
100
AcDbPoint
 10
8140.6
 20
8082.898251426234
 30
0.0
  0
POINT
  5
1FF5E
330
1E36C
100
AcDbEntity
  8
DEFPOINTS
 62
     0
 48
50.0
100
AcDbPoint
 10
6033.6
 20
8027.898251426234
 30
0.0
  0
POINT
  5
1FF5F
330
1E36C
100
AcDbEntity
  8
DEFPOINTS
 62
     0
 48
50.0
100
AcDbPoint
 10
6033.6
 20
8823.657877968319
 30
0.0
  0
ENDBLK
  5
1E377
330
1E36C
100
AcDbEntity
  8
0
 48
50.0
100
AcDbBlockEnd
  0
BLOCK
  5
1E381
330
1E378
100
AcDbEntity
  8
0
 48
50.0
100
AcDbBlockBegin
  2
*D21
 70
     1
 10
0.0
 20
0.0
 30
0.0
  3
*D21
  1

  0
LINE
  5
1FF4E
330
1E378
100
AcDbEntity
  8
寸法
 62
     0
 48
50.0
370
    -2
100
AcDbLine
 10
5988.6
 20
8097.898251426235
 30
0.0
 11
5988.6
 21
9096.118573485155
 31
0.0
  0
LINE
  5
1FF4F
330
1E378
100
AcDbEntity
  8
寸法
 62
     0
 48
50.0
370
    -2
100
AcDbLine
 10
10458.6
 20
8097.898251426235
 30
0.0
 11
10458.6
 21
9096.118573485155
 31
0.0
  0
LINE
  5
1FF50
330
1E378
100
AcDbEntity
  8
寸法
 62
     0
 48
50.0
370
    -2
100
AcDbLine
 10
5988.6
 20
9036.118573485156
 30
0.0
 11
10458.6
 21
9036.118573485156
 31
0.0
  0
INSERT
  5
1FF51
330
1E378
100
AcDbEntity
  8
寸法
 62
     0
 48
50.0
370
    -2
100
AcDbBlockReference
  2
_DOTSMALL
 10
5988.6
 20
9036.118573485156
 30
0.0
 41
100.0
 42
100.0
 43
100.0
 50
180.0
  0
INSERT
  5
1FF52
330
1E378
100
AcDbEntity
  8
寸法
 62
     0
 48
50.0
370
    -2
100
AcDbBlockReference
  2
_DOTSMALL
 10
10458.6
 20
9036.118573485156
 30
0.0
 41
100.0
 42
100.0
 43
100.0
  0
MTEXT
  5
1FF53
330
1E378
100
AcDbEntity
  8
寸法
 62
     7
 48
50.0
100
AcDbMText
 10
8223.600000000001
 20
9136.118573485155
 30
0.0
 40
120.0
 41
0.0
 71
     5
 72
     1
  1
\A1;4470
  7
STYLE1
 73
     1
 44
1.0
1001
ACAD
1000
MTEXTBEGIN
1070
    73
1070
     1
1070
    44
1040
1.0
1070
    74
1070
     0
1000
MTEXTEND
  0
POINT
  5
1FF54
330
1E378
100
AcDbEntity
  8
DEFPOINTS
 62
     0
 48
50.0
100
AcDbPoint
 10
5988.6
 20
8077.898251426235
 30
0.0
  0
POINT
  5
1FF55
330
1E378
100
AcDbEntity
  8
DEFPOINTS
 62
     0
 48
50.0
100
AcDbPoint
 10
10458.6
 20
8077.898251426235
 30
0.0
  0
POINT
  5
1FF56
330
1E378
100
AcDbEntity
  8
DEFPOINTS
 62
     0
 48
50.0
100
AcDbPoint
 10
10458.6
 20
9036.118573485156
 30
0.0
  0
ENDBLK
  5
1E382
330
1E378
100
AcDbEntity
  8
0
 48
50.0
100
AcDbBlockEnd
  0
BLOCK
  5
1E38D
330
1E383
100
AcDbEntity
  8
0
 48
50.0
100
AcDbBlockBegin
  2
*D22
 70
     1
 10
0.0
 20
0.0
 30
0.0
  3
*D22
  1

  0
LINE
  5
1FF45
330
1E383
100
AcDbEntity
  8
寸法
 62
     0
 48
50.0
370
    -2
100
AcDbLine
 10
5988.6
 20
7435.716265292161
 30
0.0
 11
5988.6
 21
7555.20945581486
 31
0.0
  0
LINE
  5
1FF46
330
1E383
100
AcDbEntity
  8
寸法
 62
     0
 48
50.0
370
    -2
100
AcDbLine
 10
8223.600000000001
 20
7287.898251426234
 30
0.0
 11
8223.600000000001
 21
7555.20945581486
 31
0.0
  0
LINE
  5
1FF47
330
1E383
100
AcDbEntity
  8
寸法
 62
     0
 48
50.0
370
    -2
100
AcDbLine
 10
5988.6
 20
7495.20945581486
 30
0.0
 11
8223.600000000001
 21
7495.20945581486
 31
0.0
  0
MTEXT
  5
1FF48
330
1E383
100
AcDbEntity
  8
寸法
 62
     7
 48
50.0
100
AcDbMText
 10
7306.864159737161
 20
7626.468497592941
 30
0.0
 40
120.0
 41
0.0
 71
     5
 72
     1
  1
\A1;2235
  7
STYLE1
 73
     1
 44
1.0
1001
ACAD
1000
MTEXTBEGIN
1070
    73
1070
     1
1070
    44
1040
1.0
1070
    74
1070
     0
1000
MTEXTEND
  0
INSERT
  5
1FF49
330
1E383
100
AcDbEntity
  8
寸法
 62
     0
 48
50.0
370
    -2
100
AcDbBlockReference
  2
_DOTSMALL
 10
5988.6
 20
7495.20945581486
 30
0.0
 41
100.0
 42
100.0
 43
100.0
 50
180.0
  0
INSERT
  5
1FF4A
330
1E383
100
AcDbEntity
  8
寸法
 62
     0
 48
50.0
370
    -2
100
AcDbBlockReference
  2
_DOTSMALL
 10
8223.600000000001
 20
7495.20945581486
 30
0.0
 41
100.0
 42
100.0
 43
100.0
  0
POINT
  5
1FF4B
330
1E383
100
AcDbEntity
  8
DEFPOINTS
 62
     0
 48
50.0
100
AcDbPoint
 10
5988.6
 20
7415.716265292161
 30
0.0
  0
POINT
  5
1FF4C
330
1E383
100
AcDbEntity
  8
DEFPOINTS
 62
     0
 48
50.0
100
AcDbPoint
 10
8223.600000000001
 20
7267.898251426236
 30
0.0
  0
POINT
  5
1FF4D
330
1E383
100
AcDbEntity
  8
DEFPOINTS
 62
     0
 48
50.0
100
AcDbPoint
 10
8223.600000000001
 20
7495.20945581486
 30
0.0
  0
ENDBLK
  5
1E38E
330
1E383
100
AcDbEntity
  8
0
 48
50.0
100
AcDbBlockEnd
  0
BLOCK
  5
1E399
330
1E38F
100
AcDbEntity
  8
0
 48
50.0
100
AcDbBlockBegin
  2
*D23
 70
     1
 10
0.0
 20
0.0
 30
0.0
  3
*D23
  1

  0
LINE
  5
1FF3C
330
1E38F
100
AcDbEntity
  8
寸法
 62
     0
 48
50.0
370
    -2
100
AcDbLine
 10
5963.6
 20
7977.898251426235
 30
0.0
 11
5432.657733986179
 21
7977.898251426235
 31
0.0
  0
LINE
  5
1FF3D
330
1E38F
100
AcDbEntity
  8
寸法
 62
     0
 48
50.0
370
    -2
100
AcDbLine
 10
5963.6
 20
5517.898251426237
 30
0.0
 11
5432.657733986178
 21
5517.898251426237
 31
0.0
  0
LINE
  5
1FF3E
330
1E38F
100
AcDbEntity
  8
寸法
 62
     0
 48
50.0
370
    -2
100
AcDbLine
 10
5492.657733986178
 20
7977.898251426235
 30
0.0
 11
5492.657733986177
 21
5517.898251426237
 31
0.0
  0
INSERT
  5
1FF3F
330
1E38F
100
AcDbEntity
  8
寸法
 62
     0
 48
50.0
370
    -2
100
AcDbBlockReference
  2
_DOTSMALL
 10
5492.657733986178
 20
7977.898251426235
 30
0.0
 41
100.0
 42
100.0
 43
100.0
 50
90.0
  0
INSERT
  5
1FF40
330
1E38F
100
AcDbEntity
  8
寸法
 62
     0
 48
50.0
370
    -2
100
AcDbBlockReference
  2
_DOTSMALL
 10
5492.657733986177
 20
5517.898251426237
 30
0.0
 41
100.0
 42
100.0
 43
100.0
 50
270.0
  0
MTEXT
  5
1FF41
330
1E38F
100
AcDbEntity
  8
寸法
 62
     7
 48
50.0
100
AcDbMText
 10
5392.645922962555
 20
6747.898251426237
 30
0.0
 40
120.0
 41
0.0
 71
     5
 72
     1
  1
\A1;2460
  7
STYLE1
 11
0.0000000000000001
 21
1.0
 31
0.0
 73
     1
 44
1.0
1001
ACAD
1000
MTEXTBEGIN
1070
    73
1070
     1
1070
    44
1040
1.0
1070
    74
1070
     0
1000
MTEXTEND
  0
POINT
  5
1FF42
330
1E38F
100
AcDbEntity
  8
DEFPOINTS
 62
     0
 48
50.0
100
AcDbPoint
 10
5983.6
 20
7977.898251426235
 30
0.0
  0
POINT
  5
1FF43
330
1E38F
100
AcDbEntity
  8
DEFPOINTS
 62
     0
 48
50.0
100
AcDbPoint
 10
5983.6
 20
5517.898251426237
 30
0.0
  0
POINT
  5
1FF44
330
1E38F
100
AcDbEntity
  8
DEFPOINTS
 62
     0
 48
50.0
100
AcDbPoint
 10
5492.657733986177
 20
5517.898251426237
 30
0.0
  0
ENDBLK
  5
1E39A
330
1E38F
100
AcDbEntity
  8
0
 48
50.0
100
AcDbBlockEnd
  0
BLOCK
  5
1E3A5
330
1E39B
100
AcDbEntity
  8
0
 48
50.0
100
AcDbBlockBegin
  2
*D24
 70
     1
 10
0.0
 20
0.0
 30
0.0
  3
*D24
  1

  0
LINE
  5
20AAF
330
1E39B
100
AcDbEntity
  8
寸法
 62
     0
 48
50.0
370
    -2
100
AcDbLine
 10
6480.600000000001
 20
7167.898251426229
 30
0.0
 11
6284.332862152265
 21
7167.898251426229
 31
0.0
  0
LINE
  5
20AB0
330
1E39B
100
AcDbEntity
  8
寸法
 62
     0
 48
50.0
370
    -2
100
AcDbLine
 10
6631.1
 20
8077.898251426228
 30
0.0
 11
6284.332862152265
 21
8077.898251426228
 31
0.0
  0
LINE
  5
20AB1
330
1E39B
100
AcDbEntity
  8
寸法
 62
     0
 48
50.0
370
    -2
100
AcDbLine
 10
6344.332862152264
 20
7167.898251426229
 30
0.0
 11
6344.332862152264
 21
8077.898251426228
 31
0.0
  0
INSERT
  5
20AB2
330
1E39B
100
AcDbEntity
  8
寸法
 62
     0
 48
50.0
370
    -2
100
AcDbBlockReference
  2
_DOTSMALL
 10
6344.332862152264
 20
7167.898251426229
 30
0.0
 41
100.0
 42
100.0
 43
100.0
 50
270.0
  0
INSERT
  5
20AB3
330
1E39B
100
AcDbEntity
  8
寸法
 62
     0
 48
50.0
370
    -2
100
AcDbBlockReference
  2
_DOTSMALL
 10
6344.332862152264
 20
8077.898251426228
 30
0.0
 41
100.0
 42
100.0
 43
100.0
 50
90.0
  0
MTEXT
  5
20AB4
330
1E39B
100
AcDbEntity
  8
寸法
 62
     7
 48
50.0
100
AcDbMText
 10
6244.332862152263
 20
7622.898251426228
 30
0.0
 40
120.0
 41
0.0
 71
     5
 72
     1
  1
\A1;910
  7
STYLE1
 11
0.0000000000000001
 21
1.0
 31
0.0
 73
     1
 44
1.0
1001
ACAD
1000
MTEXTBEGIN
1070
    73
1070
     1
1070
    44
1040
1.0
1070
    74
1070
     0
1000
MTEXTEND
  0
POINT
  5
20AB5
330
1E39B
100
AcDbEntity
  8
DEFPOINTS
 62
     0
 48
50.0
100
AcDbPoint
 10
6500.6
 20
7167.898251426229
 30
0.0
  0
POINT
  5
20AB6
330
1E39B
100
AcDbEntity
  8
DEFPOINTS
 62
     0
 48
50.0
100
AcDbPoint
 10
6651.100000000001
 20
8077.898251426228
 30
0.0
  0
POINT
  5
20AB7
330
1E39B
100
AcDbEntity
  8
DEFPOINTS
 62
     0
 48
50.0
100
AcDbPoint
 10
6344.332862152264
 20
8077.898251426228
 30
0.0
  0
ENDBLK
  5
1E3A6
330
1E39B
100
AcDbEntity
  8
0
 48
50.0
100
AcDbBlockEnd
  0
BLOCK
  5
1E3B0
330
1E3A7
100
AcDbEntity
  8
0
 48
50.0
100
AcDbBlockBegin
  2
*D25
 70
     1
 10
0.0
 20
0.0
 30
0.0
  3
*D25
  1

  0
LINE
  5
1FF2A
330
1E3A7
100
AcDbEntity
  8
寸法
 62
     0
 48
50.0
370
    -2
100
AcDbLine
 10
5968.600000000001
 20
8077.898251426235
 30
0.0
 11
5187.164931848212
 21
8077.898251426235
 31
0.0
  0
LINE
  5
1FF2B
330
1E3A7
100
AcDbEntity
  8
寸法
 62
     0
 48
50.0
370
    -2
100
AcDbLine
 10
5968.600000000001
 20
5417.898251426235
 30
0.0
 11
5187.164931848211
 21
5417.898251426235
 31
0.0
  0
LINE
  5
1FF2C
330
1E3A7
100
AcDbEntity
  8
寸法
 62
     0
 48
50.0
370
    -2
100
AcDbLine
 10
5247.164931848211
 20
8077.898251426235
 30
0.0
 11
5247.16493184821
 21
5417.898251426235
 31
0.0
  0
INSERT
  5
1FF2D
330
1E3A7
100
AcDbEntity
  8
寸法
 62
     0
 48
50.0
370
    -2
100
AcDbBlockReference
  2
_DOTSMALL
 10
5247.164931848211
 20
8077.898251426235
 30
0.0
 41
100.0
 42
100.0
 43
100.0
 50
90.0
  0
INSERT
  5
1FF2E
330
1E3A7
100
AcDbEntity
  8
寸法
 62
     0
 48
50.0
370
    -2
100
AcDbBlockReference
  2
_DOTSMALL
 10
5247.16493184821
 20
5417.898251426235
 30
0.0
 41
100.0
 42
100.0
 43
100.0
 50
270.0
  0
MTEXT
  5
1FF2F
330
1E3A7
100
AcDbEntity
  8
寸法
 62
     7
 48
50.0
100
AcDbMText
 10
5147.153120824587
 20
6747.898251426235
 30
0.0
 40
120.0
 41
0.0
 71
     5
 72
     1
  1
\A1;2660
  7
STYLE1
 11
0.0000000000000001
 21
1.0
 31
0.0
 73
     1
 44
1.0
1001
ACAD
1000
MTEXTBEGIN
1070
    73
1070
     1
1070
    44
1040
1.0
1070
    74
1070
     0
1000
MTEXTEND
  0
POINT
  5
1FF30
330
1E3A7
100
AcDbEntity
  8
DEFPOINTS
 62
     0
 48
50.0
100
AcDbPoint
 10
5988.6
 20
8077.898251426235
 30
0.0
  0
POINT
  5
1FF31
330
1E3A7
100
AcDbEntity
  8
DEFPOINTS
 62
     0
 48
50.0
100
AcDbPoint
 10
5988.6
 20
5417.898251426235
 30
0.0
  0
POINT
  5
1FF32
330
1E3A7
100
AcDbEntity
  8
DEFPOINTS
 62
     0
 48
50.0
100
AcDbPoint
 10
5247.16493184821
 20
5417.898251426235
 30
0.0
  0
ENDBLK
  5
1E3B1
330
1E3A7
100
AcDbEntity
  8
0
 48
50.0
100
AcDbBlockEnd
  0
BLOCK
  5
1E3BD
330
1E3B2
100
AcDbEntity
  8
0
 48
50.0
100
AcDbBlockBegin
  2
*D26
 70
     1
 10
0.0
 20
0.0
 30
0.0
  3
*D26
  1

  0
LINE
  5
1FF20
330
1E3B2
100
AcDbEntity
  8
寸法
 62
     0
 48
50.0
370
    -2
100
AcDbLine
 10
5963.6
 20
5517.898251426237
 30
0.0
 11
5432.657733986179
 21
5517.898251426237
 31
0.0
  0
LINE
  5
1FF21
330
1E3B2
100
AcDbEntity
  8
寸法
 62
     0
 48
50.0
370
    -2
100
AcDbLine
 10
5968.600000000001
 20
5417.898251426235
 30
0.0
 11
5432.657733986179
 21
5417.898251426235
 31
0.0
  0
LINE
  5
1FF22
330
1E3B2
100
AcDbEntity
  8
寸法
 62
     0
 48
50.0
370
    -2
100
AcDbLine
 10
5492.657733986178
 20
5517.898251426237
 30
0.0
 11
5492.657733986178
 21
5417.898251426235
 31
0.0
  0
LINE
  5
1FF23
330
1E3B2
100
AcDbEntity
  8
寸法
 62
     0
 48
50.0
370
    -2
100
AcDbLine
 10
5492.657733986178
 20
5417.898251426235
 30
0.0
 11
5492.657733986178
 21
4916.791952213636
 31
0.0
  0
INSERT
  5
1FF24
330
1E3B2
100
AcDbEntity
  8
寸法
 62
     0
 48
50.0
370
    -2
100
AcDbBlockReference
  2
_DOTSMALL
 10
5492.657733986178
 20
5517.898251426237
 30
0.0
 41
100.0
 42
100.0
 43
100.0
 50
90.0
  0
INSERT
  5
1FF25
330
1E3B2
100
AcDbEntity
  8
寸法
 62
     0
 48
50.0
370
    -2
100
AcDbBlockReference
  2
_DOTSMALL
 10
5492.657733986178
 20
5417.898251426235
 30
0.0
 41
100.0
 42
100.0
 43
100.0
 50
270.0
  0
MTEXT
  5
1FF26
330
1E3B2
100
AcDbEntity
  8
寸法
 62
     7
 48
50.0
100
AcDbMText
 10
5392.657733986178
 20
5052.839196308124
 30
0.0
 40
120.0
 41
0.0
 71
     5
 72
     1
  1
\A1;100
  7
STYLE1
 11
0.0000000000000001
 21
1.0
 31
0.0
 73
     1
 44
1.0
1001
ACAD
1000
MTEXTBEGIN
1070
    73
1070
     1
1070
    44
1040
1.0
1070
    74
1070
     0
1000
MTEXTEND
  0
POINT
  5
1FF27
330
1E3B2
100
AcDbEntity
  8
DEFPOINTS
 62
     0
 48
50.0
100
AcDbPoint
 10
5983.6
 20
5517.898251426237
 30
0.0
  0
POINT
  5
1FF28
330
1E3B2
100
AcDbEntity
  8
DEFPOINTS
 62
     0
 48
50.0
100
AcDbPoint
 10
5988.6
 20
5417.898251426235
 30
0.0
  0
POINT
  5
1FF29
330
1E3B2
100
AcDbEntity
  8
DEFPOINTS
 62
     0
 48
50.0
100
AcDbPoint
 10
5492.657733986178
 20
5417.898251426235
 30
0.0
  0
ENDBLK
  5
1E3BE
330
1E3B2
100
AcDbEntity
  8
0
 48
50.0
100
AcDbBlockEnd
  0
BLOCK
  5
1E3C7
330
1E3BF
100
AcDbEntity
  8
0
 48
50.0
100
AcDbBlockBegin
  2
*D27
 70
     1
 10
0.0
 20
0.0
 30
0.0
  3
*D27
  1

  0
LINE
  5
1FF15
330
1E3BF
100
AcDbEntity
  8
寸法
 62
     0
 48
50.0
370
    -2
100
AcDbLine
 10
5968.600000000001
 20
5417.898251426235
 30
0.0
 11
5187.164931848211
 21
5417.898251426235
 31
0.0
  0
LINE
  5
1FF16
330
1E3BF
100
AcDbEntity
  8
寸法
 62
     0
 48
50.0
370
    -2
100
AcDbLine
 10
5472.657733986178
 20
5317.898251426235
 30
0.0
 11
5187.164931848211
 21
5317.898251426235
 31
0.0
  0
LINE
  5
1FF17
330
1E3BF
100
AcDbEntity
  8
寸法
 62
     0
 48
50.0
370
    -2
100
AcDbLine
 10
5247.16493184821
 20
5417.898251426235
 30
0.0
 11
5247.16493184821
 21
5517.898251426235
 31
0.0
  0
LINE
  5
1FF18
330
1E3BF
100
AcDbEntity
  8
寸法
 62
     0
 48
50.0
370
    -2
100
AcDbLine
 10
5247.16493184821
 20
5317.898251426235
 30
0.0
 11
5247.16493184821
 21
5217.898251426235
 31
0.0
  0
LINE
  5
1FF19
330
1E3BF
100
AcDbEntity
  8
寸法
 62
     0
 48
50.0
370
    -2
100
AcDbLine
 10
5247.16493184821
 20
5417.898251426235
 30
0.0
 11
5247.16493184821
 21
5317.898251426235
 31
0.0
  0
INSERT
  5
1FF1A
330
1E3BF
100
AcDbEntity
  8
寸法
 62
     0
 48
50.0
370
    -2
100
AcDbBlockReference
  2
_DOTSMALL
 10
5247.16493184821
 20
5417.898251426235
 30
0.0
 41
100.0
 42
100.0
 43
100.0
 50
270.0
  0
INSERT
  5
1FF1B
330
1E3BF
100
AcDbEntity
  8
寸法
 62
     0
 48
50.0
370
    -2
100
AcDbBlockReference
  2
_DOTSMALL
 10
5247.16493184821
 20
5317.898251426235
 30
0.0
 41
100.0
 42
100.0
 43
100.0
 50
90.0
  0
MTEXT
  5
1FF1C
330
1E3BF
100
AcDbEntity
  8
寸法
 62
     7
 48
50.0
100
AcDbMText
 10
5147.164931848209
 20
5367.898251426236
 30
0.0
 40
120.0
 41
0.0
 71
     5
 72
     1
  1
\A1;a
  7
STYLE1
 11
0.0000000000000001
 21
1.0
 31
0.0
 73
     1
 44
1.0
1001
ACAD
1000
MTEXTBEGIN
1070
    73
1070
     1
1070
    44
1040
1.0
1070
    74
1070
     0
1000
MTEXTEND
  0
POINT
  5
1FF1D
330
1E3BF
100
AcDbEntity
  8
DEFPOINTS
 62
     0
 48
50.0
100
AcDbPoint
 10
5988.6
 20
5417.898251426235
 30
0.0
  0
POINT
  5
1FF1E
330
1E3BF
100
AcDbEntity
  8
DEFPOINTS
 62
     0
 48
50.0
100
AcDbPoint
 10
5492.657733986177
 20
5317.898251426235
 30
0.0
  0
POINT
  5
1FF1F
330
1E3BF
100
AcDbEntity
  8
DEFPOINTS
 62
     0
 48
50.0
100
AcDbPoint
 10
5247.16493184821
 20
5317.898251426235
 30
0.0
  0
ENDBLK
  5
1E3C8
330
1E3BF
100
AcDbEntity
  8
0
 48
50.0
100
AcDbBlockEnd
  0
BLOCK
  5
1E3D3
330
1E3C9
100
AcDbEntity
  8
0
 48
50.0
100
AcDbBlockBegin
  2
*D28
 70
     1
 10
0.0
 20
0.0
 30
0.0
  3
*D28
  1

  0
LINE
  5
20AA6
330
1E3C9
100
AcDbEntity
  8
寸法
 62
     0
 48
50.0
370
    -2
100
AcDbLine
 10
6480.600000000001
 20
6327.898251426237
 30
0.0
 11
6284.332862152264
 21
6327.898251426237
 31
0.0
  0
LINE
  5
20AA7
330
1E3C9
100
AcDbEntity
  8
寸法
 62
     0
 48
50.0
370
    -2
100
AcDbLine
 10
6480.600000000001
 20
7167.898251426229
 30
0.0
 11
6284.332862152264
 21
7167.898251426229
 31
0.0
  0
LINE
  5
20AA8
330
1E3C9
100
AcDbEntity
  8
寸法
 62
     0
 48
50.0
370
    -2
100
AcDbLine
 10
6344.332862152263
 20
6327.898251426237
 30
0.0
 11
6344.332862152263
 21
7167.898251426229
 31
0.0
  0
INSERT
  5
20AA9
330
1E3C9
100
AcDbEntity
  8
寸法
 62
     0
 48
50.0
370
    -2
100
AcDbBlockReference
  2
_DOTSMALL
 10
6344.332862152263
 20
6327.898251426237
 30
0.0
 41
100.0
 42
100.0
 43
100.0
 50
270.0
  0
INSERT
  5
20AAA
330
1E3C9
100
AcDbEntity
  8
寸法
 62
     0
 48
50.0
370
    -2
100
AcDbBlockReference
  2
_DOTSMALL
 10
6344.332862152263
 20
7167.898251426229
 30
0.0
 41
100.0
 42
100.0
 43
100.0
 50
90.0
  0
MTEXT
  5
20AAB
330
1E3C9
100
AcDbEntity
  8
寸法
 62
     7
 48
50.0
100
AcDbMText
 10
6244.332862152262
 20
6747.898251426234
 30
0.0
 40
120.0
 41
0.0
 71
     5
 72
     1
  1
\A1;840
  7
STYLE1
 11
0.0000000000000001
 21
1.0
 31
0.0
 73
     1
 44
1.0
1001
ACAD
1000
MTEXTBEGIN
1070
    73
1070
     1
1070
    44
1040
1.0
1070
    74
1070
     0
1000
MTEXTEND
  0
POINT
  5
20AAC
330
1E3C9
100
AcDbEntity
  8
DEFPOINTS
 62
     0
 48
50.0
100
AcDbPoint
 10
6500.6
 20
6327.898251426237
 30
0.0
  0
POINT
  5
20AAD
330
1E3C9
100
AcDbEntity
  8
DEFPOINTS
 62
     0
 48
50.0
100
AcDbPoint
 10
6500.6
 20
7167.898251426229
 30
0.0
  0
POINT
  5
20AAE
330
1E3C9
100
AcDbEntity
  8
DEFPOINTS
 62
     0
 48
50.0
100
AcDbPoint
 10
6344.332862152263
 20
7167.898251426229
 30
0.0
  0
ENDBLK
  5
1E3D4
330
1E3C9
100
AcDbEntity
  8
0
 48
50.0
100
AcDbBlockEnd
  0
BLOCK
  5
1E3DF
330
1E3D5
100
AcDbEntity
  8
0
 48
50.0
100
AcDbBlockBegin
  2
*D29
 70
     1
 10
0.0
 20
0.0
 30
0.0
  3
*D29
  1

  0
LINE
  5
20AB8
330
1E3D5
100
AcDbEntity
  8
寸法
 62
     0
 48
50.0
370
    -2
100
AcDbLine
 10
6631.100000000028
 20
5417.898251426168
 30
0.0
 11
6284.332862152262
 21
5417.898251426168
 31
0.0
  0
LINE
  5
20AB9
330
1E3D5
100
AcDbEntity
  8
寸法
 62
     0
 48
50.0
370
    -2
100
AcDbLine
 10
6480.600000000001
 20
6327.898251426237
 30
0.0
 11
6284.332862152264
 21
6327.898251426237
 31
0.0
  0
LINE
  5
20ABA
330
1E3D5
100
AcDbEntity
  8
寸法
 62
     0
 48
50.0
370
    -2
100
AcDbLine
 10
6344.332862152262
 20
5417.898251426168
 30
0.0
 11
6344.332862152263
 21
6327.898251426237
 31
0.0
  0
INSERT
  5
20ABB
330
1E3D5
100
AcDbEntity
  8
寸法
 62
     0
 48
50.0
370
    -2
100
AcDbBlockReference
  2
_DOTSMALL
 10
6344.332862152262
 20
5417.898251426168
 30
0.0
 41
100.0
 42
100.0
 43
100.0
 50
270.0
  0
INSERT
  5
20ABC
330
1E3D5
100
AcDbEntity
  8
寸法
 62
     0
 48
50.0
370
    -2
100
AcDbBlockReference
  2
_DOTSMALL
 10
6344.332862152263
 20
6327.898251426237
 30
0.0
 41
100.0
 42
100.0
 43
100.0
 50
90.0
  0
MTEXT
  5
20ABD
330
1E3D5
100
AcDbEntity
  8
寸法
 62
     7
 48
50.0
100
AcDbMText
 10
6244.332862152262
 20
5872.898251426204
 30
0.0
 40
120.0
 41
0.0
 71
     5
 72
     1
  1
\A1;910
  7
STYLE1
 11
0.0000000000000001
 21
1.0
 31
0.0
 73
     1
 44
1.0
1001
ACAD
1000
MTEXTBEGIN
1070
    73
1070
     1
1070
    44
1040
1.0
1070
    74
1070
     0
1000
MTEXTEND
  0
POINT
  5
20ABE
330
1E3D5
100
AcDbEntity
  8
DEFPOINTS
 62
     0
 48
50.0
100
AcDbPoint
 10
6651.100000000027
 20
5417.898251426168
 30
0.0
  0
POINT
  5
20ABF
330
1E3D5
100
AcDbEntity
  8
DEFPOINTS
 62
     0
 48
50.0
100
AcDbPoint
 10
6500.6
 20
6327.898251426237
 30
0.0
  0
POINT
  5
20AC0
330
1E3D5
100
AcDbEntity
  8
DEFPOINTS
 62
     0
 48
50.0
100
AcDbPoint
 10
6344.332862152263
 20
6327.898251426237
 30
0.0
  0
ENDBLK
  5
1E3E0
330
1E3D5
100
AcDbEntity
  8
0
 48
50.0
100
AcDbBlockEnd
  0
BLOCK
  5
1E3EC
330
1E3E1
100
AcDbEntity
  8
0
 48
50.0
100
AcDbBlockBegin
  2
*D30
 70
     1
 10
0.0
 20
0.0
 30
0.0
  3
*D30
  1

  0
LINE
  5
2070C
330
1E3E1
100
AcDbEntity
  8
寸法
 62
     0
 48
50.0
370
    -2
100
AcDbLine
 10
6108.600000000002
 20
6867.898251426236
 30
0.0
 11
6108.600000000002
 21
7115.063980868312
 31
0.0
  0
LINE
  5
2070D
330
1E3E1
100
AcDbEntity
  8
寸法
 62
     0
 48
50.0
370
    -2
100
AcDbLine
 10
5988.599999999999
 20
6867.898251426236
 30
0.0
 11
5988.599999999999
 21
7115.063980868312
 31
0.0
  0
LINE
  5
2070E
330
1E3E1
100
AcDbEntity
  8
寸法
 62
     0
 48
50.0
370
    -2
100
AcDbLine
 10
6108.600000000002
 20
7055.063980868311
 30
0.0
 11
5988.599999999999
 21
7055.063980868311
 31
0.0
  0
LINE
  5
2070F
330
1E3E1
100
AcDbEntity
  8
寸法
 62
     0
 48
50.0
370
    -2
100
AcDbLine
 10
5988.599999999999
 20
7055.063980868311
 30
0.0
 11
5616.505511811022
 21
7055.063980868311
 31
0.0
  0
INSERT
  5
20710
330
1E3E1
100
AcDbEntity
  8
寸法
 62
     0
 48
50.0
370
    -2
100
AcDbBlockReference
  2
_DOTSMALL
 10
6108.600000000002
 20
7055.063980868311
 30
0.0
 41
100.0
 42
100.0
 43
100.0
  0
INSERT
  5
20711
330
1E3E1
100
AcDbEntity
  8
寸法
 62
     0
 48
50.0
370
    -2
100
AcDbBlockReference
  2
_DOTSMALL
 10
5988.599999999999
 20
7055.063980868311
 30
0.0
 41
100.0
 42
100.0
 43
100.0
 50
180.0
  0
MTEXT
  5
20712
330
1E3E1
100
AcDbEntity
  8
寸法
 62
     7
 48
50.0
100
AcDbMText
 10
5752.55275590551
 20
7155.075791891933
 30
0.0
 40
120.0
 41
0.0
 71
     5
 72
     1
  1
\A1;120
  7
STYLE1
 73
     1
 44
1.0
1001
ACAD
1000
MTEXTBEGIN
1070
    73
1070
     1
1070
    44
1040
1.0
1070
    74
1070
     0
1000
MTEXTEND
  0
POINT
  5
20713
330
1E3E1
100
AcDbEntity
  8
DEFPOINTS
 62
     0
 48
50.0
100
AcDbPoint
 10
6108.600000000002
 20
6847.898251426236
 30
0.0
  0
POINT
  5
20714
330
1E3E1
100
AcDbEntity
  8
DEFPOINTS
 62
     0
 48
50.0
100
AcDbPoint
 10
5988.599999999999
 20
6847.898251426236
 30
0.0
  0
POINT
  5
20715
330
1E3E1
100
AcDbEntity
  8
DEFPOINTS
 62
     0
 48
50.0
100
AcDbPoint
 10
5988.599999999999
 20
7055.063980868311
 30
0.0
  0
ENDBLK
  5
1E3ED
330
1E3E1
100
AcDbEntity
  8
0
 48
50.0
100
AcDbBlockEnd
  0
BLOCK
  5
1E3F6
330
1E3EE
100
AcDbEntity
  8
0
 48
50.0
100
AcDbBlockBegin
  2
*D31
 70
     1
 10
0.0
 20
0.0
 30
0.0
  3
*D31
  1

  0
LINE
  5
1FEEE
330
1E3EE
100
AcDbEntity
  8
寸法
 62
     0
 48
50.0
370
    -2
100
AcDbLine
 10
5472.657733986178
 20
8177.898251426233
 30
0.0
 11
5187.164931848211
 21
8177.898251426233
 31
0.0
  0
LINE
  5
1FEEF
330
1E3EE
100
AcDbEntity
  8
寸法
 62
     0
 48
50.0
370
    -2
100
AcDbLine
 10
5968.600000000001
 20
8077.898251426235
 30
0.0
 11
5187.164931848211
 21
8077.898251426235
 31
0.0
  0
LINE
  5
1FEF0
330
1E3EE
100
AcDbEntity
  8
寸法
 62
     0
 48
50.0
370
    -2
100
AcDbLine
 10
5247.16493184821
 20
8177.898251426233
 30
0.0
 11
5247.16493184821
 21
8277.898251426229
 31
0.0
  0
LINE
  5
1FEF1
330
1E3EE
100
AcDbEntity
  8
寸法
 62
     0
 48
50.0
370
    -2
100
AcDbLine
 10
5247.16493184821
 20
8077.898251426235
 30
0.0
 11
5247.16493184821
 21
7977.898251426235
 31
0.0
  0
LINE
  5
1FEF2
330
1E3EE
100
AcDbEntity
  8
寸法
 62
     0
 48
50.0
370
    -2
100
AcDbLine
 10
5247.16493184821
 20
8177.898251426233
 30
0.0
 11
5247.16493184821
 21
8077.898251426235
 31
0.0
  0
INSERT
  5
1FEF3
330
1E3EE
100
AcDbEntity
  8
寸法
 62
     0
 48
50.0
370
    -2
100
AcDbBlockReference
  2
_DOTSMALL
 10
5247.16493184821
 20
8177.898251426233
 30
0.0
 41
100.0
 42
100.0
 43
100.0
 50
270.0
  0
INSERT
  5
1FEF4
330
1E3EE
100
AcDbEntity
  8
寸法
 62
     0
 48
50.0
370
    -2
100
AcDbBlockReference
  2
_DOTSMALL
 10
5247.16493184821
 20
8077.898251426235
 30
0.0
 41
100.0
 42
100.0
 43
100.0
 50
90.0
  0
MTEXT
  5
1FEF5
330
1E3EE
100
AcDbEntity
  8
寸法
 62
     7
 48
50.0
100
AcDbMText
 10
5147.164931848209
 20
8127.898251426234
 30
0.0
 40
120.0
 41
0.0
 71
     5
 72
     1
  1
\A1;a
  7
STYLE1
 11
0.0000000000000001
 21
1.0
 31
0.0
 73
     1
 44
1.0
1001
ACAD
1000
MTEXTBEGIN
1070
    73
1070
     1
1070
    44
1040
1.0
1070
    74
1070
     0
1000
MTEXTEND
  0
POINT
  5
1FEF6
330
1E3EE
100
AcDbEntity
  8
DEFPOINTS
 62
     0
 48
50.0
100
AcDbPoint
 10
5492.657733986177
 20
8177.898251426233
 30
0.0
  0
POINT
  5
1FEF7
330
1E3EE
100
AcDbEntity
  8
DEFPOINTS
 62
     0
 48
50.0
100
AcDbPoint
 10
5988.6
 20
8077.898251426235
 30
0.0
  0
POINT
  5
1FEF8
330
1E3EE
100
AcDbEntity
  8
DEFPOINTS
 62
     0
 48
50.0
100
AcDbPoint
 10
5247.16493184821
 20
8077.898251426235
 30
0.0
  0
ENDBLK
  5
1E3F7
330
1E3EE
100
AcDbEntity
  8
0
 48
50.0
100
AcDbBlockEnd
  0
BLOCK
  5
1E403
330
1E3F8
100
AcDbEntity
  8
0
 48
50.0
100
AcDbBlockBegin
  2
*D32
 70
     1
 10
0.0
 20
0.0
 30
0.0
  3
*D32
  1

  0
LINE
  5
1FEE4
330
1E3F8
100
AcDbEntity
  8
寸法
 62
     0
 48
50.0
370
    -2
100
AcDbLine
 10
5893.600000000001
 20
8843.657877968315
 30
0.0
 11
5893.600000000001
 21
9096.118573485156
 31
0.0
  0
LINE
  5
1FEE5
330
1E3F8
100
AcDbEntity
  8
寸法
 62
     0
 48
50.0
370
    -2
100
AcDbLine
 10
5988.6
 20
8097.898251426235
 30
0.0
 11
5988.6
 21
9096.118573485156
 31
0.0
  0
LINE
  5
1FEE6
330
1E3F8
100
AcDbEntity
  8
寸法
 62
     0
 48
50.0
370
    -2
100
AcDbLine
 10
5988.6
 20
9036.118573485158
 30
0.0
 11
5893.600000000001
 21
9036.118573485158
 31
0.0
  0
LINE
  5
1FEE7
330
1E3F8
100
AcDbEntity
  8
寸法
 62
     0
 48
50.0
370
    -2
100
AcDbLine
 10
5893.600000000001
 20
9036.118573485158
 30
0.0
 11
5644.707102294468
 21
9036.118573485158
 31
0.0
  0
INSERT
  5
1FEE8
330
1E3F8
100
AcDbEntity
  8
寸法
 62
     0
 48
50.0
370
    -2
100
AcDbBlockReference
  2
_DOTSMALL
 10
5988.6
 20
9036.118573485158
 30
0.0
 41
100.0
 42
100.0
 43
100.0
  0
INSERT
  5
1FEE9
330
1E3F8
100
AcDbEntity
  8
寸法
 62
     0
 48
50.0
370
    -2
100
AcDbBlockReference
  2
_DOTSMALL
 10
5893.600000000001
 20
9036.118573485158
 30
0.0
 41
100.0
 42
100.0
 43
100.0
 50
180.0
  0
MTEXT
  5
1FEEA
330
1E3F8
100
AcDbEntity
  8
寸法
 62
     7
 48
50.0
100
AcDbMText
 10
5710.881723496926
 20
9136.118573485157
 30
0.0
 40
120.0
 41
0.0
 71
     5
 72
     1
  1
\A1;b
  7
STYLE1
 73
     1
 44
1.0
1001
ACAD
1000
MTEXTBEGIN
1070
    73
1070
     1
1070
    44
1040
1.0
1070
    74
1070
     0
1000
MTEXTEND
  0
POINT
  5
1FEEB
330
1E3F8
100
AcDbEntity
  8
DEFPOINTS
 62
     0
 48
50.0
100
AcDbPoint
 10
5893.600000000001
 20
8823.657877968315
 30
0.0
  0
POINT
  5
1FEEC
330
1E3F8
100
AcDbEntity
  8
DEFPOINTS
 62
     0
 48
50.0
100
AcDbPoint
 10
5988.6
 20
8077.898251426235
 30
0.0
  0
POINT
  5
1FEED
330
1E3F8
100
AcDbEntity
  8
DEFPOINTS
 62
     0
 48
50.0
100
AcDbPoint
 10
5988.6
 20
9036.118573485158
 30
0.0
  0
ENDBLK
  5
1E404
330
1E3F8
100
AcDbEntity
  8
0
 48
50.0
100
AcDbBlockEnd
  0
BLOCK
  5
1E411
330
1E405
100
AcDbEntity
  8
0
 48
50.0
100
AcDbBlockBegin
  2
*D33
 70
     1
 10
0.0
 20
0.0
 30
0.0
  3
*D33
  1

  0
LINE
  5
1FED9
330
1E405
100
AcDbEntity
  8
寸法
 62
     0
 48
50.0
370
    -2
100
AcDbLine
 10
6033.6
 20
8047.898251426236
 30
0.0
 11
6033.6
 21
8883.657877968319
 31
0.0
  0
LINE
  5
1FEDA
330
1E405
100
AcDbEntity
  8
寸法
 62
     0
 48
50.0
370
    -2
100
AcDbLine
 10
5988.6
 20
8097.898251426235
 30
0.0
 11
5988.6
 21
8883.657877968319
 31
0.0
  0
LINE
  5
1FEDB
330
1E405
100
AcDbEntity
  8
寸法
 62
     0
 48
50.0
370
    -2
100
AcDbLine
 10
6033.6
 20
8823.657877968319
 30
0.0
 11
6133.600000000001
 21
8823.657877968319
 31
0.0
  0
LINE
  5
1FEDC
330
1E405
100
AcDbEntity
  8
寸法
 62
     0
 48
50.0
370
    -2
100
AcDbLine
 10
5988.6
 20
8823.657877968319
 30
0.0
 11
5506.008116907963
 21
8823.657877968319
 31
0.0
  0
LINE
  5
1FEDD
330
1E405
100
AcDbEntity
  8
寸法
 62
     0
 48
50.0
370
    -2
100
AcDbLine
 10
6033.6
 20
8823.657877968319
 30
0.0
 11
5988.6
 21
8823.657877968319
 31
0.0
  0
INSERT
  5
1FEDE
330
1E405
100
AcDbEntity
  8
寸法
 62
     0
 48
50.0
370
    -2
100
AcDbBlockReference
  2
_DOTSMALL
 10
6033.6
 20
8823.657877968319
 30
0.0
 41
100.0
 42
100.0
 43
100.0
 50
180.0
  0
INSERT
  5
1FEDF
330
1E405
100
AcDbEntity
  8
寸法
 62
     0
 48
50.0
370
    -2
100
AcDbBlockReference
  2
_DOTSMALL
 10
5988.6
 20
8823.657877968319
 30
0.0
 41
100.0
 42
100.0
 43
100.0
  0
MTEXT
  5
1FEE0
330
1E405
100
AcDbEntity
  8
寸法
 62
     7
 48
50.0
100
AcDbMText
 10
5620.493398282202
 20
8923.657877968318
 30
0.0
 40
120.0
 41
0.0
 71
     5
 72
     1
  1
\A1;45
  7
STYLE1
 73
     1
 44
1.0
1001
ACAD
1000
MTEXTBEGIN
1070
    73
1070
     1
1070
    44
1040
1.0
1070
    74
1070
     0
1000
MTEXTEND
  0
POINT
  5
1FEE1
330
1E405
100
AcDbEntity
  8
DEFPOINTS
 62
     0
 48
50.0
100
AcDbPoint
 10
6033.6
 20
8027.898251426234
 30
0.0
  0
POINT
  5
1FEE2
330
1E405
100
AcDbEntity
  8
DEFPOINTS
 62
     0
 48
50.0
100
AcDbPoint
 10
5988.6
 20
8077.898251426235
 30
0.0
  0
POINT
  5
1FEE3
330
1E405
100
AcDbEntity
  8
DEFPOINTS
 62
     0
 48
50.0
100
AcDbPoint
 10
5988.6
 20
8823.657877968319
 30
0.0
  0
ENDBLK
  5
1E412
330
1E405
100
AcDbEntity
  8
0
 48
50.0
100
AcDbBlockEnd
  0
BLOCK
  5
1E41E
330
1E413
100
AcDbEntity
  8
0
 48
50.0
100
AcDbBlockBegin
  2
*D34
 70
     1
 10
0.0
 20
0.0
 30
0.0
  3
*D34
  1

  0
LINE
  5
1FECF
330
1E413
100
AcDbEntity
  8
寸法
 62
     0
 48
50.0
370
    -2
100
AcDbLine
 10
5968.600000000001
 20
8077.898251426235
 30
0.0
 11
5432.657733986179
 21
8077.898251426235
 31
0.0
  0
LINE
  5
1FED0
330
1E413
100
AcDbEntity
  8
寸法
 62
     0
 48
50.0
370
    -2
100
AcDbLine
 10
5963.6
 20
7977.898251426235
 30
0.0
 11
5432.657733986179
 21
7977.898251426235
 31
0.0
  0
LINE
  5
1FED1
330
1E413
100
AcDbEntity
  8
寸法
 62
     0
 48
50.0
370
    -2
100
AcDbLine
 10
5492.657733986178
 20
7977.898251426235
 30
0.0
 11
5492.657733986178
 21
8077.898251426235
 31
0.0
  0
LINE
  5
1FED2
330
1E413
100
AcDbEntity
  8
寸法
 62
     0
 48
50.0
370
    -2
100
AcDbLine
 10
5492.657733986178
 20
8077.898251426235
 30
0.0
 11
5492.657733986178
 21
8579.004550638833
 31
0.0
  0
INSERT
  5
1FED3
330
1E413
100
AcDbEntity
  8
寸法
 62
     0
 48
50.0
370
    -2
100
AcDbBlockReference
  2
_DOTSMALL
 10
5492.657733986178
 20
7977.898251426235
 30
0.0
 41
100.0
 42
100.0
 43
100.0
 50
270.0
  0
INSERT
  5
1FED4
330
1E413
100
AcDbEntity
  8
寸法
 62
     0
 48
50.0
370
    -2
100
AcDbBlockReference
  2
_DOTSMALL
 10
5492.657733986178
 20
8077.898251426235
 30
0.0
 41
100.0
 42
100.0
 43
100.0
 50
90.0
  0
MTEXT
  5
1FED5
330
1E413
100
AcDbEntity
  8
寸法
 62
     7
 48
50.0
100
AcDbMText
 10
5392.657733986178
 20
8442.957306544347
 30
0.0
 40
120.0
 41
0.0
 71
     5
 72
     1
  1
\A1;100
  7
STYLE1
 11
0.0000000000000001
 21
1.0
 31
0.0
 73
     1
 44
1.0
1001
ACAD
1000
MTEXTBEGIN
1070
    73
1070
     1
1070
    44
1040
1.0
1070
    74
1070
     0
1000
MTEXTEND
  0
POINT
  5
1FED6
330
1E413
100
AcDbEntity
  8
DEFPOINTS
 62
     0
 48
50.0
100
AcDbPoint
 10
5988.6
 20
8077.898251426235
 30
0.0
  0
POINT
  5
1FED7
330
1E413
100
AcDbEntity
  8
DEFPOINTS
 62
     0
 48
50.0
100
AcDbPoint
 10
5983.6
 20
7977.898251426235
 30
0.0
  0
POINT
  5
1FED8
330
1E413
100
AcDbEntity
  8
DEFPOINTS
 62
     0
 48
50.0
100
AcDbPoint
 10
5492.657733986178
 20
7977.898251426235
 30
0.0
  0
ENDBLK
  5
1E41F
330
1E413
100
AcDbEntity
  8
0
 48
50.0
100
AcDbBlockEnd
  0
BLOCK
  5
1E42C
330
1E420
100
AcDbEntity
  8
0
 48
50.0
100
AcDbBlockBegin
  2
*D35
 70
     1
 10
0.0
 20
0.0
 30
0.0
  3
*D35
  1

  0
LINE
  5
20701
330
1E420
100
AcDbEntity
  8
寸法
 62
     0
 48
50.0
370
    -2
100
AcDbLine
 10
8210.600000000008
 20
8032.898251426235
 30
0.0
 11
8649.046686947123
 21
8032.898251426235
 31
0.0
  0
LINE
  5
20702
330
1E420
100
AcDbEntity
  8
寸法
 62
     0
 48
50.0
370
    -2
100
AcDbLine
 10
8210.600000000008
 20
7957.898251426238
 30
0.0
 11
8649.046686947123
 21
7957.898251426238
 31
0.0
  0
LINE
  5
20703
330
1E420
100
AcDbEntity
  8
寸法
 62
     0
 48
50.0
370
    -2
100
AcDbLine
 10
8589.046686947124
 20
8032.898251426235
 30
0.0
 11
8589.046686947124
 21
8132.898251426235
 31
0.0
  0
LINE
  5
20704
330
1E420
100
AcDbEntity
  8
寸法
 62
     0
 48
50.0
370
    -2
100
AcDbLine
 10
8589.046686947124
 20
7957.898251426238
 30
0.0
 11
8589.046686947124
 21
7540.92768867776
 31
0.0
  0
LINE
  5
20705
330
1E420
100
AcDbEntity
  8
寸法
 62
     0
 48
50.0
370
    -2
100
AcDbLine
 10
8589.046686947124
 20
8032.898251426235
 30
0.0
 11
8589.046686947124
 21
7957.898251426238
 31
0.0
  0
INSERT
  5
20706
330
1E420
100
AcDbEntity
  8
寸法
 62
     0
 48
50.0
370
    -2
100
AcDbBlockReference
  2
_DOTSMALL
 10
8589.046686947124
 20
8032.898251426235
 30
0.0
 41
100.0
 42
100.0
 43
100.0
 50
270.0
  0
INSERT
  5
20707
330
1E420
100
AcDbEntity
  8
寸法
 62
     0
 48
50.0
370
    -2
100
AcDbBlockReference
  2
_DOTSMALL
 10
8589.046686947124
 20
7957.898251426238
 30
0.0
 41
100.0
 42
100.0
 43
100.0
 50
90.0
  0
MTEXT
  5
20708
330
1E420
100
AcDbEntity
  8
寸法
 62
     7
 48
50.0
100
AcDbMText
 10
8489.046686947123
 20
7649.412970052001
 30
0.0
 40
120.0
 41
0.0
 71
     5
 72
     1
  1
\A1;75
  7
STYLE1
 11
0.0000000000000001
 21
1.0
 31
0.0
 73
     1
 44
1.0
1001
ACAD
1000
MTEXTBEGIN
1070
    73
1070
     1
1070
    44
1040
1.0
1070
    74
1070
     0
1000
MTEXTEND
  0
POINT
  5
20709
330
1E420
100
AcDbEntity
  8
DEFPOINTS
 62
     0
 48
50.0
100
AcDbPoint
 10
8190.600000000008
 20
8032.898251426235
 30
0.0
  0
POINT
  5
2070A
330
1E420
100
AcDbEntity
  8
DEFPOINTS
 62
     0
 48
50.0
100
AcDbPoint
 10
8190.600000000008
 20
7957.898251426238
 30
0.0
  0
POINT
  5
2070B
330
1E420
100
AcDbEntity
  8
DEFPOINTS
 62
     0
 48
50.0
100
AcDbPoint
 10
8589.046686947124
 20
7957.898251426238
 30
0.0
  0
ENDBLK
  5
1E42D
330
1E420
100
AcDbEntity
  8
0
 48
50.0
100
AcDbBlockEnd
  0
BLOCK
  5
1E446
330
1E43A
100
AcDbEntity
  8
0
 48
50.0
100
AcDbBlockBegin
  2
*D36
 70
     1
 10
0.0
 20
0.0
 30
0.0
  3
*D36
  1

  0
LINE
  5
1FEB0
330
1E43A
100
AcDbEntity
  8
寸法
 62
     0
 48
50.0
370
    -2
100
AcDbLine
 10
8210.600000000008
 20
5462.898251426237
 30
0.0
 11
8649.046686947123
 21
5462.898251426237
 31
0.0
  0
LINE
  5
1FEB1
330
1E43A
100
AcDbEntity
  8
寸法
 62
     0
 48
50.0
370
    -2
100
AcDbLine
 10
8210.600000000008
 20
5417.898251426235
 30
0.0
 11
8649.046686947123
 21
5417.898251426235
 31
0.0
  0
LINE
  5
1FEB2
330
1E43A
100
AcDbEntity
  8
寸法
 62
     0
 48
50.0
370
    -2
100
AcDbLine
 10
8589.046686947124
 20
5462.898251426237
 30
0.0
 11
8589.046686947124
 21
5562.898251426236
 31
0.0
  0
LINE
  5
1FEB3
330
1E43A
100
AcDbEntity
  8
寸法
 62
     0
 48
50.0
370
    -2
100
AcDbLine
 10
8589.046686947124
 20
5417.898251426235
 30
0.0
 11
8589.046686947124
 21
4988.927688677758
 31
0.0
  0
LINE
  5
1FEB4
330
1E43A
100
AcDbEntity
  8
寸法
 62
     0
 48
50.0
370
    -2
100
AcDbLine
 10
8589.046686947124
 20
5462.898251426237
 30
0.0
 11
8589.046686947124
 21
5417.898251426235
 31
0.0
  0
INSERT
  5
1FEB5
330
1E43A
100
AcDbEntity
  8
寸法
 62
     0
 48
50.0
370
    -2
100
AcDbBlockReference
  2
_DOTSMALL
 10
8589.046686947124
 20
5462.898251426237
 30
0.0
 41
100.0
 42
100.0
 43
100.0
 50
270.0
  0
INSERT
  5
1FEB6
330
1E43A
100
AcDbEntity
  8
寸法
 62
     0
 48
50.0
370
    -2
100
AcDbBlockReference
  2
_DOTSMALL
 10
8589.046686947124
 20
5417.898251426235
 30
0.0
 41
100.0
 42
100.0
 43
100.0
 50
90.0
  0
MTEXT
  5
1FEB7
330
1E43A
100
AcDbEntity
  8
寸法
 62
     7
 48
50.0
100
AcDbMText
 10
8489.046686947123
 20
5103.412970051998
 30
0.0
 40
120.0
 41
0.0
 71
     5
 72
     1
  1
\A1;45
  7
STYLE1
 11
0.0000000000000001
 21
1.0
 31
0.0
 73
     1
 44
1.0
1001
ACAD
1000
MTEXTBEGIN
1070
    73
1070
     1
1070
    44
1040
1.0
1070
    74
1070
     0
1000
MTEXTEND
  0
POINT
  5
1FEB8
330
1E43A
100
AcDbEntity
  8
DEFPOINTS
 62
     0
 48
50.0
100
AcDbPoint
 10
8190.600000000008
 20
5462.898251426237
 30
0.0
  0
POINT
  5
1FEB9
330
1E43A
100
AcDbEntity
  8
DEFPOINTS
 62
     0
 48
50.0
100
AcDbPoint
 10
8190.600000000008
 20
5417.898251426235
 30
0.0
  0
POINT
  5
1FEBA
330
1E43A
100
AcDbEntity
  8
DEFPOINTS
 62
     0
 48
50.0
100
AcDbPoint
 10
8589.046686947124
 20
5417.898251426235
 30
0.0
  0
ENDBLK
  5
1E447
330
1E43A
100
AcDbEntity
  8
0
 48
50.0
100
AcDbBlockEnd
  0
BLOCK
  5
1E453
330
1E448
100
AcDbEntity
  8
0
 48
50.0
100
AcDbBlockBegin
  2
*D37
 70
     1
 10
0.0
 20
0.0
 30
0.0
  3
*D37
  1

  0
LINE
  5
20716
330
1E448
100
AcDbEntity
  8
寸法
 62
     0
 48
50.0
370
    -2
100
AcDbLine
 10
9671.100000000029
 20
5417.898251426175
 30
0.0
 11
9996.494056711407
 21
5417.898251426175
 31
0.0
  0
LINE
  5
20717
330
1E448
100
AcDbEntity
  8
寸法
 62
     0
 48
50.0
370
    -2
100
AcDbLine
 10
9671.100000000024
 20
5537.898251426251
 30
0.0
 11
9996.494056711407
 21
5537.898251426251
 31
0.0
  0
LINE
  5
20718
330
1E448
100
AcDbEntity
  8
寸法
 62
     0
 48
50.0
370
    -2
100
AcDbLine
 10
9936.494056711406
 20
5537.898251426251
 30
0.0
 11
9936.494056711406
 21
5417.898251426175
 31
0.0
  0
LINE
  5
20719
330
1E448
100
AcDbEntity
  8
寸法
 62
     0
 48
50.0
370
    -2
100
AcDbLine
 10
9936.494056711406
 20
5417.898251426175
 30
0.0
 11
9936.494056711406
 21
4945.562702363806
 31
0.0
  0
INSERT
  5
2071A
330
1E448
100
AcDbEntity
  8
寸法
 62
     0
 48
50.0
370
    -2
100
AcDbBlockReference
  2
_DOTSMALL
 10
9936.494056711406
 20
5537.898251426251
 30
0.0
 41
100.0
 42
100.0
 43
100.0
 50
90.0
  0
INSERT
  5
2071B
330
1E448
100
AcDbEntity
  8
寸法
 62
     0
 48
50.0
370
    -2
100
AcDbBlockReference
  2
_DOTSMALL
 10
9936.494056711406
 20
5417.898251426175
 30
0.0
 41
100.0
 42
100.0
 43
100.0
 50
270.0
  0
MTEXT
  5
2071C
330
1E448
100
AcDbEntity
  8
寸法
 62
     7
 48
50.0
100
AcDbMText
 10
9836.482245687783
 20
5081.609946458295
 30
0.0
 40
120.0
 41
0.0
 71
     5
 72
     1
  1
\A1;120
  7
STYLE1
 11
0.0000000000000001
 21
1.0
 31
0.0
 73
     1
 44
1.0
1001
ACAD
1000
MTEXTBEGIN
1070
    73
1070
     1
1070
    44
1040
1.0
1070
    74
1070
     0
1000
MTEXTEND
  0
POINT
  5
2071D
330
1E448
100
AcDbEntity
  8
DEFPOINTS
 62
     0
 48
50.0
100
AcDbPoint
 10
9651.100000000027
 20
5417.898251426175
 30
0.0
  0
POINT
  5
2071E
330
1E448
100
AcDbEntity
  8
DEFPOINTS
 62
     0
 48
50.0
100
AcDbPoint
 10
9651.100000000024
 20
5537.898251426251
 30
0.0
  0
POINT
  5
2071F
330
1E448
100
AcDbEntity
  8
DEFPOINTS
 62
     0
 48
50.0
100
AcDbPoint
 10
9936.494056711406
 20
5537.898251426251
 30
0.0
  0
ENDBLK
  5
1E454
330
1E448
100
AcDbEntity
  8
0
 48
50.0
100
AcDbBlockEnd
  0
BLOCK
  5
1E45E
330
1E455
100
AcDbEntity
  8
0
 48
50.0
100
AcDbBlockBegin
  2
*D38
 70
     1
 10
0.0
 20
0.0
 30
0.0
  3
*D38
  1

  0
LINE
  5
2067D
330
1E455
100
AcDbEntity
  8
寸法
 62
     0
 48
50.0
370
    -2
100
AcDbLine
 10
8223.600000000001
 20
7287.898251426234
 30
0.0
 11
8223.600000000001
 21
7555.20945581486
 31
0.0
  0
LINE
  5
2067E
330
1E455
100
AcDbEntity
  8
寸法
 62
     0
 48
50.0
370
    -2
100
AcDbLine
 10
10533.6
 20
7287.898251426234
 30
0.0
 11
10533.6
 21
7555.20945581486
 31
0.0
  0
LINE
  5
2067F
330
1E455
100
AcDbEntity
  8
寸法
 62
     0
 48
50.0
370
    -2
100
AcDbLine
 10
8223.600000000001
 20
7495.20945581486
 30
0.0
 11
10533.6
 21
7495.20945581486
 31
0.0
  0
INSERT
  5
20680
330
1E455
100
AcDbEntity
  8
寸法
 62
     0
 48
50.0
370
    -2
100
AcDbBlockReference
  2
_DOTSMALL
 10
8223.600000000001
 20
7495.20945581486
 30
0.0
 41
100.0
 42
100.0
 43
100.0
 50
180.0
  0
INSERT
  5
20681
330
1E455
100
AcDbEntity
  8
寸法
 62
     0
 48
50.0
370
    -2
100
AcDbBlockReference
  2
_DOTSMALL
 10
10533.6
 20
7495.20945581486
 30
0.0
 41
100.0
 42
100.0
 43
100.0
  0
MTEXT
  5
20682
330
1E455
100
AcDbEntity
  8
寸法
 62
     7
 48
50.0
100
AcDbMText
 10
9378.600000000004
 20
7595.221266838482
 30
0.0
 40
120.0
 41
0.0
 71
     5
 72
     1
  1
\A1;2310
  7
STYLE1
 73
     1
 44
1.0
1001
ACAD
1000
MTEXTBEGIN
1070
    73
1070
     1
1070
    44
1040
1.0
1070
    74
1070
     0
1000
MTEXTEND
  0
POINT
  5
20683
330
1E455
100
AcDbEntity
  8
DEFPOINTS
 62
     0
 48
50.0
100
AcDbPoint
 10
8223.600000000001
 20
7267.898251426236
 30
0.0
  0
POINT
  5
20684
330
1E455
100
AcDbEntity
  8
DEFPOINTS
 62
     0
 48
50.0
100
AcDbPoint
 10
10533.6
 20
7267.898251426235
 30
0.0
  0
POINT
  5
20685
330
1E455
100
AcDbEntity
  8
DEFPOINTS
 62
     0
 48
50.0
100
AcDbPoint
 10
10533.6
 20
7495.20945581486
 30
0.0
  0
ENDBLK
  5
1E45F
330
1E455
100
AcDbEntity
  8
0
 48
50.0
100
AcDbBlockEnd
  0
BLOCK
  5
1E46C
330
1E460
100
AcDbEntity
  8
0
 48
50.0
100
AcDbBlockBegin
  2
*D39
 70
     1
 10
0.0
 20
0.0
 30
0.0
  3
*D39
  1

  0
LINE
  5
20751
330
1E460
100
AcDbEntity
  8
寸法
 62
     0
 48
50.0
370
    -2
100
AcDbLine
 10
8210.600000000008
 20
5462.898251426237
 30
0.0
 11
8649.046686947123
 21
5462.898251426237
 31
0.0
  0
LINE
  5
20752
330
1E460
100
AcDbEntity
  8
寸法
 62
     0
 48
50.0
370
    -2
100
AcDbLine
 10
8210.600000000008
 20
5537.898251426245
 30
0.0
 11
8649.046686947123
 21
5537.898251426245
 31
0.0
  0
LINE
  5
20753
330
1E460
100
AcDbEntity
  8
寸法
 62
     0
 48
50.0
370
    -2
100
AcDbLine
 10
8589.046686947124
 20
5462.898251426237
 30
0.0
 11
8589.046686947124
 21
5362.898251426237
 31
0.0
  0
LINE
  5
20754
330
1E460
100
AcDbEntity
  8
寸法
 62
     0
 48
50.0
370
    -2
100
AcDbLine
 10
8589.046686947124
 20
5537.898251426245
 30
0.0
 11
8589.046686947124
 21
5954.868814174723
 31
0.0
  0
LINE
  5
20755
330
1E460
100
AcDbEntity
  8
寸法
 62
     0
 48
50.0
370
    -2
100
AcDbLine
 10
8589.046686947124
 20
5462.898251426237
 30
0.0
 11
8589.046686947124
 21
5537.898251426245
 31
0.0
  0
INSERT
  5
20756
330
1E460
100
AcDbEntity
  8
寸法
 62
     0
 48
50.0
370
    -2
100
AcDbBlockReference
  2
_DOTSMALL
 10
8589.046686947124
 20
5462.898251426237
 30
0.0
 41
100.0
 42
100.0
 43
100.0
 50
90.0
  0
INSERT
  5
20757
330
1E460
100
AcDbEntity
  8
寸法
 62
     0
 48
50.0
370
    -2
100
AcDbBlockReference
  2
_DOTSMALL
 10
8589.046686947124
 20
5537.898251426245
 30
0.0
 41
100.0
 42
100.0
 43
100.0
 50
270.0
  0
MTEXT
  5
20758
330
1E460
100
AcDbEntity
  8
寸法
 62
     7
 48
50.0
100
AcDbMText
 10
8489.046686947123
 20
5846.383532800484
 30
0.0
 40
120.0
 41
0.0
 71
     5
 72
     1
  1
\A1;75
  7
STYLE1
 11
0.0000000000000001
 21
1.0
 31
0.0
 73
     1
 44
1.0
1001
ACAD
1000
MTEXTBEGIN
1070
    73
1070
     1
1070
    44
1040
1.0
1070
    74
1070
     0
1000
MTEXTEND
  0
POINT
  5
20759
330
1E460
100
AcDbEntity
  8
DEFPOINTS
 62
     0
 48
50.0
100
AcDbPoint
 10
8190.600000000008
 20
5462.898251426237
 30
0.0
  0
POINT
  5
2075A
330
1E460
100
AcDbEntity
  8
DEFPOINTS
 62
     0
 48
50.0
100
AcDbPoint
 10
8190.600000000006
 20
5537.898251426245
 30
0.0
  0
POINT
  5
2075B
330
1E460
100
AcDbEntity
  8
DEFPOINTS
 62
     0
 48
50.0
100
AcDbPoint
 10
8589.046686947124
 20
5537.898251426245
 30
0.0
  0
ENDBLK
  5
1E46D
330
1E460
100
AcDbEntity
  8
0
 48
50.0
100
AcDbBlockEnd
  0
BLOCK
  5
1E484
330
1E47B
100
AcDbEntity
  8
0
 48
50.0
100
AcDbBlockBegin
  2
*D40
 70
     1
 10
0.0
 20
0.0
 30
0.0
  3
*D40
  1

  0
LINE
  5
1FE7E
330
1E47B
100
AcDbEntity
  8
寸法
 62
     0
 48
50.0
370
    -2
100
AcDbLine
 10
10413.6
 20
8047.898251426236
 30
0.0
 11
10413.6
 21
8883.657877968319
 31
0.0
  0
LINE
  5
1FE7F
330
1E47B
100
AcDbEntity
  8
寸法
 62
     0
 48
50.0
370
    -2
100
AcDbLine
 10
8140.6
 20
8102.898251426235
 30
0.0
 11
8140.6
 21
8883.657877968319
 31
0.0
  0
LINE
  5
1FE80
330
1E47B
100
AcDbEntity
  8
寸法
 62
     0
 48
50.0
370
    -2
100
AcDbLine
 10
10413.6
 20
8823.657877968319
 30
0.0
 11
8140.6
 21
8823.657877968319
 31
0.0
  0
INSERT
  5
1FE81
330
1E47B
100
AcDbEntity
  8
寸法
 62
     0
 48
50.0
370
    -2
100
AcDbBlockReference
  2
_DOTSMALL
 10
10413.6
 20
8823.657877968319
 30
0.0
 41
100.0
 42
100.0
 43
100.0
  0
INSERT
  5
1FE82
330
1E47B
100
AcDbEntity
  8
寸法
 62
     0
 48
50.0
370
    -2
100
AcDbBlockReference
  2
_DOTSMALL
 10
8140.6
 20
8823.657877968319
 30
0.0
 41
100.0
 42
100.0
 43
100.0
 50
180.0
  0
MTEXT
  5
1FE83
330
1E47B
100
AcDbEntity
  8
寸法
 62
     7
 48
50.0
100
AcDbMText
 10
9277.1
 20
8923.669688991941
 30
0.0
 40
120.0
 41
0.0
 71
     5
 72
     1
  1
\A1;2273
  7
STYLE1
 73
     1
 44
1.0
1001
ACAD
1000
MTEXTBEGIN
1070
    73
1070
     1
1070
    44
1040
1.0
1070
    74
1070
     0
1000
MTEXTEND
  0
POINT
  5
1FE84
330
1E47B
100
AcDbEntity
  8
DEFPOINTS
 62
     0
 48
50.0
100
AcDbPoint
 10
10413.6
 20
8027.898251426234
 30
0.0
  0
POINT
  5
1FE85
330
1E47B
100
AcDbEntity
  8
DEFPOINTS
 62
     0
 48
50.0
100
AcDbPoint
 10
8140.6
 20
8082.898251426234
 30
0.0
  0
POINT
  5
1FE86
330
1E47B
100
AcDbEntity
  8
DEFPOINTS
 62
     0
 48
50.0
100
AcDbPoint
 10
8140.6
 20
8823.657877968319
 30
0.0
  0
ENDBLK
  5
1E485
330
1E47B
100
AcDbEntity
  8
0
 48
50.0
100
AcDbBlockEnd
  0
BLOCK
  5
1E492
330
1E486
100
AcDbEntity
  8
0
 48
50.0
100
AcDbBlockBegin
  2
*D41
 70
     1
 10
0.0
 20
0.0
 30
0.0
  3
*D41
  1

  0
LINE
  5
1FE73
330
1E486
100
AcDbEntity
  8
寸法
 62
     0
 48
50.0
370
    -2
100
AcDbLine
 10
8210.600000000008
 20
8032.898251426235
 30
0.0
 11
8649.046686947123
 21
8032.898251426235
 31
0.0
  0
LINE
  5
1FE74
330
1E486
100
AcDbEntity
  8
寸法
 62
     0
 48
50.0
370
    -2
100
AcDbLine
 10
8210.600000000008
 20
8077.898251426235
 30
0.0
 11
8649.046686947123
 21
8077.898251426235
 31
0.0
  0
LINE
  5
1FE75
330
1E486
100
AcDbEntity
  8
寸法
 62
     0
 48
50.0
370
    -2
100
AcDbLine
 10
8589.046686947124
 20
8032.898251426235
 30
0.0
 11
8589.046686947124
 21
7932.898251426235
 31
0.0
  0
LINE
  5
1FE76
330
1E486
100
AcDbEntity
  8
寸法
 62
     0
 48
50.0
370
    -2
100
AcDbLine
 10
8589.046686947124
 20
8077.898251426235
 30
0.0
 11
8589.046686947124
 21
8506.868814174712
 31
0.0
  0
LINE
  5
1FE77
330
1E486
100
AcDbEntity
  8
寸法
 62
     0
 48
50.0
370
    -2
100
AcDbLine
 10
8589.046686947124
 20
8032.898251426235
 30
0.0
 11
8589.046686947124
 21
8077.898251426235
 31
0.0
  0
INSERT
  5
1FE78
330
1E486
100
AcDbEntity
  8
寸法
 62
     0
 48
50.0
370
    -2
100
AcDbBlockReference
  2
_DOTSMALL
 10
8589.046686947124
 20
8032.898251426235
 30
0.0
 41
100.0
 42
100.0
 43
100.0
 50
90.0
  0
INSERT
  5
1FE79
330
1E486
100
AcDbEntity
  8
寸法
 62
     0
 48
50.0
370
    -2
100
AcDbBlockReference
  2
_DOTSMALL
 10
8589.046686947124
 20
8077.898251426235
 30
0.0
 41
100.0
 42
100.0
 43
100.0
 50
270.0
  0
MTEXT
  5
1FE7A
330
1E486
100
AcDbEntity
  8
寸法
 62
     7
 48
50.0
100
AcDbMText
 10
8489.046686947123
 20
8392.383532800476
 30
0.0
 40
120.0
 41
0.0
 71
     5
 72
     1
  1
\A1;45
  7
STYLE1
 11
0.0000000000000001
 21
1.0
 31
0.0
 73
     1
 44
1.0
1001
ACAD
1000
MTEXTBEGIN
1070
    73
1070
     1
1070
    44
1040
1.0
1070
    74
1070
     0
1000
MTEXTEND
  0
POINT
  5
1FE7B
330
1E486
100
AcDbEntity
  8
DEFPOINTS
 62
     0
 48
50.0
100
AcDbPoint
 10
8190.600000000008
 20
8032.898251426235
 30
0.0
  0
POINT
  5
1FE7C
330
1E486
100
AcDbEntity
  8
DEFPOINTS
 62
     0
 48
50.0
100
AcDbPoint
 10
8190.600000000008
 20
8077.898251426235
 30
0.0
  0
POINT
  5
1FE7D
330
1E486
100
AcDbEntity
  8
DEFPOINTS
 62
     0
 48
50.0
100
AcDbPoint
 10
8589.046686947124
 20
8077.898251426235
 30
0.0
  0
ENDBLK
  5
1E493
330
1E486
100
AcDbEntity
  8
0
 48
50.0
100
AcDbBlockEnd
  0
BLOCK
  5
1E49F
330
1E494
100
AcDbEntity
  8
0
 48
50.0
100
AcDbBlockBegin
  2
*D42
 70
     1
 10
0.0
 20
0.0
 30
0.0
  3
*D42
  1

  0
LINE
  5
1FE69
330
1E494
100
AcDbEntity
  8
寸法
 62
     0
 48
50.0
370
    -2
100
AcDbLine
 10
10458.6
 20
8097.898251426235
 30
0.0
 11
10458.6
 21
9096.118573485156
 31
0.0
  0
LINE
  5
1FE6A
330
1E494
100
AcDbEntity
  8
寸法
 62
     0
 48
50.0
370
    -2
100
AcDbLine
 10
10553.6
 20
8843.65787796832
 30
0.0
 11
10553.6
 21
9096.118573485156
 31
0.0
  0
LINE
  5
1FE6B
330
1E494
100
AcDbEntity
  8
寸法
 62
     0
 48
50.0
370
    -2
100
AcDbLine
 10
10458.6
 20
9036.118573485158
 30
0.0
 11
10553.6
 21
9036.118573485158
 31
0.0
  0
LINE
  5
1FE6C
330
1E494
100
AcDbEntity
  8
寸法
 62
     0
 48
50.0
370
    -2
100
AcDbLine
 10
10553.6
 20
9036.118573485158
 30
0.0
 11
10802.49289770553
 21
9036.118573485158
 31
0.0
  0
INSERT
  5
1FE6D
330
1E494
100
AcDbEntity
  8
寸法
 62
     0
 48
50.0
370
    -2
100
AcDbBlockReference
  2
_DOTSMALL
 10
10458.6
 20
9036.118573485158
 30
0.0
 41
100.0
 42
100.0
 43
100.0
 50
180.0
  0
INSERT
  5
1FE6E
330
1E494
100
AcDbEntity
  8
寸法
 62
     0
 48
50.0
370
    -2
100
AcDbBlockReference
  2
_DOTSMALL
 10
10553.6
 20
9036.118573485158
 30
0.0
 41
100.0
 42
100.0
 43
100.0
  0
MTEXT
  5
1FE6F
330
1E494
100
AcDbEntity
  8
寸法
 62
     7
 48
50.0
100
AcDbMText
 10
10736.31827650307
 20
9136.118573485157
 30
0.0
 40
120.0
 41
0.0
 71
     5
 72
     1
  1
\A1;b
  7
STYLE1
 73
     1
 44
1.0
1001
ACAD
1000
MTEXTBEGIN
1070
    73
1070
     1
1070
    44
1040
1.0
1070
    74
1070
     0
1000
MTEXTEND
  0
POINT
  5
1FE70
330
1E494
100
AcDbEntity
  8
DEFPOINTS
 62
     0
 48
50.0
100
AcDbPoint
 10
10458.6
 20
8077.898251426235
 30
0.0
  0
POINT
  5
1FE71
330
1E494
100
AcDbEntity
  8
DEFPOINTS
 62
     0
 48
50.0
100
AcDbPoint
 10
10553.6
 20
8823.657877968321
 30
0.0
  0
POINT
  5
1FE72
330
1E494
100
AcDbEntity
  8
DEFPOINTS
 62
     0
 48
50.0
100
AcDbPoint
 10
10553.6
 20
9036.118573485158
 30
0.0
  0
ENDBLK
  5
1E4A0
330
1E494
100
AcDbEntity
  8
0
 48
50.0
100
AcDbBlockEnd
  0
BLOCK
  5
1E4AD
330
1E4A1
100
AcDbEntity
  8
0
 48
50.0
100
AcDbBlockBegin
  2
*D43
 70
     1
 10
0.0
 20
0.0
 30
0.0
  3
*D43
  1

  0
LINE
  5
1FE5E
330
1E4A1
100
AcDbEntity
  8
寸法
 62
     0
 48
50.0
370
    -2
100
AcDbLine
 10
10458.6
 20
8097.898251426235
 30
0.0
 11
10458.6
 21
8883.657877968319
 31
0.0
  0
LINE
  5
1FE5F
330
1E4A1
100
AcDbEntity
  8
寸法
 62
     0
 48
50.0
370
    -2
100
AcDbLine
 10
10413.6
 20
8047.898251426236
 30
0.0
 11
10413.6
 21
8883.657877968319
 31
0.0
  0
LINE
  5
1FE60
330
1E4A1
100
AcDbEntity
  8
寸法
 62
     0
 48
50.0
370
    -2
100
AcDbLine
 10
10413.6
 20
8823.657877968319
 30
0.0
 11
10313.6
 21
8823.657877968319
 31
0.0
  0
LINE
  5
1FE61
330
1E4A1
100
AcDbEntity
  8
寸法
 62
     0
 48
50.0
370
    -2
100
AcDbLine
 10
10458.6
 20
8823.657877968319
 30
0.0
 11
10941.19188309203
 21
8823.657877968319
 31
0.0
  0
LINE
  5
1FE62
330
1E4A1
100
AcDbEntity
  8
寸法
 62
     0
 48
50.0
370
    -2
100
AcDbLine
 10
10413.6
 20
8823.657877968319
 30
0.0
 11
10458.6
 21
8823.657877968319
 31
0.0
  0
INSERT
  5
1FE63
330
1E4A1
100
AcDbEntity
  8
寸法
 62
     0
 48
50.0
370
    -2
100
AcDbBlockReference
  2
_DOTSMALL
 10
10413.6
 20
8823.657877968319
 30
0.0
 41
100.0
 42
100.0
 43
100.0
  0
INSERT
  5
1FE64
330
1E4A1
100
AcDbEntity
  8
寸法
 62
     0
 48
50.0
370
    -2
100
AcDbBlockReference
  2
_DOTSMALL
 10
10458.6
 20
8823.657877968319
 30
0.0
 41
100.0
 42
100.0
 43
100.0
 50
180.0
  0
MTEXT
  5
1FE65
330
1E4A1
100
AcDbEntity
  8
寸法
 62
     7
 48
50.0
100
AcDbMText
 10
10826.7066017178
 20
8923.657877968318
 30
0.0
 40
120.0
 41
0.0
 71
     5
 72
     1
  1
\A1;45
  7
STYLE1
 73
     1
 44
1.0
1001
ACAD
1000
MTEXTBEGIN
1070
    73
1070
     1
1070
    44
1040
1.0
1070
    74
1070
     0
1000
MTEXTEND
  0
POINT
  5
1FE66
330
1E4A1
100
AcDbEntity
  8
DEFPOINTS
 62
     0
 48
50.0
100
AcDbPoint
 10
10458.6
 20
8077.898251426235
 30
0.0
  0
POINT
  5
1FE67
330
1E4A1
100
AcDbEntity
  8
DEFPOINTS
 62
     0
 48
50.0
100
AcDbPoint
 10
10413.6
 20
8027.898251426234
 30
0.0
  0
POINT
  5
1FE68
330
1E4A1
100
AcDbEntity
  8
DEFPOINTS
 62
     0
 48
50.0
100
AcDbPoint
 10
10413.6
 20
8823.657877968319
 30
0.0
  0
ENDBLK
  5
1E4AE
330
1E4A1
100
AcDbEntity
  8
0
 48
50.0
100
AcDbBlockEnd
  0
BLOCK
  5
20368
330
2035D
100
AcDbEntity
  8
0
 48
50.0
100
AcDbBlockBegin
  2
*D44
 70
     1
 10
0.0
 20
0.0
 30
0.0
  3
*D44
  1

  0
LINE
  5
20720
330
2035D
100
AcDbEntity
  8
寸法
 62
     0
 48
50.0
370
    -2
100
AcDbLine
 10
10338.6
 20
7928.911394771198
 30
0.0
 11
10338.6
 21
7656.814496982436
 31
0.0
  0
LINE
  5
20721
330
2035D
100
AcDbEntity
  8
寸法
 62
     0
 48
50.0
370
    -2
100
AcDbLine
 10
10533.6
 20
7928.911394771199
 30
0.0
 11
10533.6
 21
7656.814496982436
 31
0.0
  0
LINE
  5
20722
330
2035D
100
AcDbEntity
  8
寸法
 62
     0
 48
50.0
370
    -2
100
AcDbLine
 10
10338.6
 20
7716.814496982435
 30
0.0
 11
10533.6
 21
7716.814496982435
 31
0.0
  0
LINE
  5
20723
330
2035D
100
AcDbEntity
  8
寸法
 62
     0
 48
50.0
370
    -2
100
AcDbLine
 10
10533.6
 20
7716.814496982435
 30
0.0
 11
10910.98988240779
 21
7716.814496982435
 31
0.0
  0
INSERT
  5
20724
330
2035D
100
AcDbEntity
  8
寸法
 62
     0
 48
50.0
370
    -2
100
AcDbBlockReference
  2
_DOTSMALL
 10
10338.6
 20
7716.814496982435
 30
0.0
 41
100.0
 42
100.0
 43
100.0
 50
180.0
  0
INSERT
  5
20725
330
2035D
100
AcDbEntity
  8
寸法
 62
     0
 48
50.0
370
    -2
100
AcDbBlockReference
  2
_DOTSMALL
 10
10533.6
 20
7716.814496982435
 30
0.0
 41
100.0
 42
100.0
 43
100.0
  0
MTEXT
  5
20726
330
2035D
100
AcDbEntity
  8
寸法
 62
     7
 48
50.0
100
AcDbMText
 10
10772.2949412039
 20
7816.814496982435
 30
0.0
 40
120.0
 41
0.0
 71
     5
 72
     1
  1
\A1;195
  7
STYLE1
 73
     1
 44
1.0
1001
ACAD
1000
MTEXTBEGIN
1070
    73
1070
     1
1070
    44
1040
1.0
1070
    74
1070
     0
1000
MTEXTEND
  0
POINT
  5
20727
330
2035D
100
AcDbEntity
  8
DEFPOINTS
 62
     0
 48
50.0
100
AcDbPoint
 10
10338.6
 20
7948.911394771198
 30
0.0
  0
POINT
  5
20728
330
2035D
100
AcDbEntity
  8
DEFPOINTS
 62
     0
 48
50.0
100
AcDbPoint
 10
10533.6
 20
7948.9113947712
 30
0.0
  0
POINT
  5
20729
330
2035D
100
AcDbEntity
  8
DEFPOINTS
 62
     0
 48
50.0
100
AcDbPoint
 10
10533.6
 20
7716.814496982435
 30
0.0
  0
ENDBLK
  5
20369
330
2035D
100
AcDbEntity
  8
0
 48
50.0
100
AcDbBlockEnd
  0
BLOCK
  5
203C6
330
203BA
100
AcDbEntity
  8
0
 48
50.0
100
AcDbBlockBegin
  2
*D45
 70
     1
 10
0.0
 20
0.0
 30
0.0
  3
*D45
  1

  0
LINE
  5
20672
330
203BA
100
AcDbEntity
  8
寸法
 62
     0
 48
50.0
370
    -2
100
AcDbLine
 10
10533.60000000001
 20
5859.898251426235
 30
0.0
 11
10533.60000000001
 21
5595.341490330735
 31
0.0
  0
LINE
  5
20673
330
203BA
100
AcDbEntity
  8
寸法
 62
     0
 48
50.0
370
    -2
100
AcDbLine
 10
10458.60000000001
 20
5859.898251426235
 30
0.0
 11
10458.60000000001
 21
5595.341490330735
 31
0.0
  0
LINE
  5
20674
330
203BA
100
AcDbEntity
  8
寸法
 62
     0
 48
50.0
370
    -2
100
AcDbLine
 10
10458.60000000001
 20
5655.341490330735
 30
0.0
 11
10358.60000000001
 21
5655.341490330735
 31
0.0
  0
LINE
  5
20675
330
203BA
100
AcDbEntity
  8
寸法
 62
     0
 48
50.0
370
    -2
100
AcDbLine
 10
10533.60000000001
 20
5655.341490330735
 30
0.0
 11
11400.57056274849
 21
5655.341490330735
 31
0.0
  0
LINE
  5
20676
330
203BA
100
AcDbEntity
  8
寸法
 62
     0
 48
50.0
370
    -2
100
AcDbLine
 10
10458.60000000001
 20
5655.341490330735
 30
0.0
 11
10533.60000000001
 21
5655.341490330735
 31
0.0
  0
INSERT
  5
20677
330
203BA
100
AcDbEntity
  8
寸法
 62
     0
 48
50.0
370
    -2
100
AcDbBlockReference
  2
_DOTSMALL
 10
10458.60000000001
 20
5655.341490330735
 30
0.0
 41
100.0
 42
100.0
 43
100.0
  0
INSERT
  5
20678
330
203BA
100
AcDbEntity
  8
寸法
 62
     0
 48
50.0
370
    -2
100
AcDbBlockReference
  2
_DOTSMALL
 10
10533.60000000001
 20
5655.341490330735
 30
0.0
 41
100.0
 42
100.0
 43
100.0
 50
180.0
  0
MTEXT
  5
20679
330
203BA
100
AcDbEntity
  8
寸法
 62
     7
 48
50.0
100
AcDbMText
 10
11067.08528137425
 20
5755.341490330735
 30
0.0
 40
120.0
 41
0.0
 71
     5
 72
     1
  1
\A1;扉の出75
  7
STYLE1
 73
     1
 44
1.0
1001
ACAD
1000
MTEXTBEGIN
1070
    73
1070
     1
1070
    44
1040
1.0
1070
    74
1070
     0
1000
MTEXTEND
  0
POINT
  5
2067A
330
203BA
100
AcDbEntity
  8
DEFPOINTS
 62
     0
 48
50.0
100
AcDbPoint
 10
10533.60000000001
 20
5879.898251426236
 30
0.0
  0
POINT
  5
2067B
330
203BA
100
AcDbEntity
  8
DEFPOINTS
 62
     0
 48
50.0
100
AcDbPoint
 10
10458.60000000001
 20
5879.898251426236
 30
0.0
  0
POINT
  5
2067C
330
203BA
100
AcDbEntity
  8
DEFPOINTS
 62
     0
 48
50.0
100
AcDbPoint
 10
10458.60000000001
 20
5655.341490330735
 30
0.0
  0
ENDBLK
  5
203C7
330
203BA
100
AcDbEntity
  8
0
 48
50.0
100
AcDbBlockEnd
  0
BLOCK
  5
20407
330
203FD
100
AcDbEntity
  8
0
 48
50.0
100
AcDbBlockBegin
  2
*D46
 70
     1
 10
0.0
 20
0.0
 30
0.0
  3
*D46
  1

  0
LINE
  5
2065F
330
203FD
100
AcDbEntity
  8
寸法
 62
     0
 48
50.0
370
    -2
100
AcDbLine
 10
10553.59999999999
 20
8077.898251426235
 30
0.0
 11
11029.05368375799
 21
8077.898251426235
 31
0.0
  0
LINE
  5
20660
330
203FD
100
AcDbEntity
  8
寸法
 62
     0
 48
50.0
370
    -2
100
AcDbLine
 10
10553.60000000001
 20
5879.898251426236
 30
0.0
 11
11029.05368375799
 21
5879.898251426236
 31
0.0
  0
LINE
  5
20661
330
203FD
100
AcDbEntity
  8
寸法
 62
     0
 48
50.0
370
    -2
100
AcDbLine
 10
10969.05368375798
 20
8077.898251426235
 30
0.0
 11
10969.05368375798
 21
5879.898251426236
 31
0.0
  0
INSERT
  5
20662
330
203FD
100
AcDbEntity
  8
寸法
 62
     0
 48
50.0
370
    -2
100
AcDbBlockReference
  2
_DOTSMALL
 10
10969.05368375798
 20
8077.898251426235
 30
0.0
 41
100.0
 42
100.0
 43
100.0
 50
90.0
  0
INSERT
  5
20663
330
203FD
100
AcDbEntity
  8
寸法
 62
     0
 48
50.0
370
    -2
100
AcDbBlockReference
  2
_DOTSMALL
 10
10969.05368375798
 20
5879.898251426236
 30
0.0
 41
100.0
 42
100.0
 43
100.0
 50
270.0
  0
MTEXT
  5
20664
330
203FD
100
AcDbEntity
  8
寸法
 62
     7
 48
50.0
100
AcDbMText
 10
10869.04187273436
 20
6978.81416614313
 30
0.0
 40
120.0
 41
0.0
 71
     5
 72
     1
  1
\A1;扉の幅 2198
  7
STYLE1
 11
0.0000000000000001
 21
1.0
 31
0.0
 73
     1
 44
1.0
1001
ACAD
1000
MTEXTBEGIN
1070
    73
1070
     1
1070
    44
1040
1.0
1070
    74
1070
     0
1000
MTEXTEND
  0
POINT
  5
20665
330
203FD
100
AcDbEntity
  8
DEFPOINTS
 62
     0
 48
50.0
100
AcDbPoint
 10
10533.59999999999
 20
8077.898251426235
 30
0.0
  0
POINT
  5
20666
330
203FD
100
AcDbEntity
  8
DEFPOINTS
 62
     0
 48
50.0
100
AcDbPoint
 10
10533.60000000001
 20
5879.898251426236
 30
0.0
  0
POINT
  5
20667
330
203FD
100
AcDbEntity
  8
DEFPOINTS
 62
     0
 48
50.0
100
AcDbPoint
 10
10969.05368375798
 20
5879.898251426236
 30
0.0
  0
ENDBLK
  5
20408
330
203FD
100
AcDbEntity
  8
0
 48
50.0
100
AcDbBlockEnd
  0
BLOCK
  5
20A23
330
20A19
100
AcDbEntity
  8
0
 48
50.0
100
AcDbBlockBegin
  2
*D47
 70
     1
 10
0.0
 20
0.0
 30
0.0
  3
*D47
  1

  0
LINE
  5
20AFB
330
20A19
100
AcDbEntity
  8
寸法
 62
     0
 48
50.0
370
    -2
100
AcDbLine
 10
8569.057775884926
 20
2603.26646374854
 30
0.0
 11
8569.057775884926
 21
3053.266463748539
 31
0.0
  0
LINE
  5
20AFC
330
20A19
100
AcDbEntity
  8
寸法
 62
     0
 48
50.0
370
    -2
100
AcDbLine
 10
8329.057775884926
 20
2603.26646374854
 30
0.0
 11
8329.057775884926
 21
3053.266463748539
 31
0.0
  0
LINE
  5
20AFD
330
20A19
100
AcDbEntity
  8
寸法
 62
     0
 48
50.0
370
    -2
100
AcDbLine
 10
8569.057775884926
 20
2978.26646374854
 30
0.0
 11
8329.057775884926
 21
2978.26646374854
 31
0.0
  0
INSERT
  5
20AFE
330
20A19
100
AcDbEntity
  8
寸法
 62
     0
 48
50.0
370
    -2
100
AcDbBlockReference
  2
_DOTSMALL
 10
8569.057775884926
 20
2978.26646374854
 30
0.0
 41
125.0
 42
125.0
 43
125.0
  0
INSERT
  5
20AFF
330
20A19
100
AcDbEntity
  8
寸法
 62
     0
 48
50.0
370
    -2
100
AcDbBlockReference
  2
_DOTSMALL
 10
8329.057775884926
 20
2978.26646374854
 30
0.0
 41
125.0
 42
125.0
 43
125.0
 50
180.0
  0
MTEXT
  5
20B00
330
20A19
100
AcDbEntity
  8
寸法
 62
     7
 48
50.0
100
AcDbMText
 10
8449.057775884927
 20
3136.609639601557
 30
0.0
 40
100.0
 41
0.0
 71
     5
 72
     1
  1
\A1;120\P195
  7
STYLE1
 73
     1
 44
1.0
1001
ACAD
1000
MTEXTBEGIN
1070
    73
1070
     1
1070
    44
1040
1.0
1070
    74
1070
     0
1000
MTEXTEND
  0
POINT
  5
20B01
330
20A19
100
AcDbEntity
  8
DEFPOINTS
 62
     0
 48
50.0
100
AcDbPoint
 10
8569.057775884926
 20
2578.266463748539
 30
0.0
  0
POINT
  5
20B02
330
20A19
100
AcDbEntity
  8
DEFPOINTS
 62
     0
 48
50.0
100
AcDbPoint
 10
8329.057775884926
 20
2578.266463748539
 30
0.0
  0
POINT
  5
20B03
330
20A19
100
AcDbEntity
  8
DEFPOINTS
 62
     0
 48
50.0
100
AcDbPoint
 10
8329.057775884926
 20
2978.26646374854
 30
0.0
  0
ENDBLK
  5
20A24
330
20A19
100
AcDbEntity
  8
0
 48
50.0
100
AcDbBlockEnd
  0
BLOCK
  5
20A2F
330
20A25
100
AcDbEntity
  8
0
 48
50.0
100
AcDbBlockBegin
  2
*D48
 70
     1
 10
0.0
 20
0.0
 30
0.0
  3
*D48
  1

  0
LINE
  5
20AF2
330
20A25
100
AcDbEntity
  8
寸法
 62
     0
 48
50.0
370
    -2
100
AcDbLine
 10
8304.057775884926
 20
2578.266463748539
 30
0.0
 11
7568.412837848864
 21
2578.266463748539
 31
0.0
  0
LINE
  5
20AF3
330
20A25
100
AcDbEntity
  8
寸法
 62
     0
 48
50.0
370
    -2
100
AcDbLine
 10
8044.057775884928
 20
1598.266463748539
 30
0.0
 11
7568.412837848862
 21
1598.266463748539
 31
0.0
  0
LINE
  5
20AF4
330
20A25
100
AcDbEntity
  8
寸法
 62
     0
 48
50.0
370
    -2
100
AcDbLine
 10
7643.412837848863
 20
2578.266463748539
 30
0.0
 11
7643.412837848862
 21
1598.266463748539
 31
0.0
  0
INSERT
  5
20AF5
330
20A25
100
AcDbEntity
  8
寸法
 62
     0
 48
50.0
370
    -2
100
AcDbBlockReference
  2
_DOTSMALL
 10
7643.412837848863
 20
2578.266463748539
 30
0.0
 41
125.0
 42
125.0
 43
125.0
 50
90.0
  0
INSERT
  5
20AF6
330
20A25
100
AcDbEntity
  8
寸法
 62
     0
 48
50.0
370
    -2
100
AcDbBlockReference
  2
_DOTSMALL
 10
7643.412837848862
 20
1598.266463748539
 30
0.0
 41
125.0
 42
125.0
 43
125.0
 50
270.0
  0
MTEXT
  5
20AF7
330
20A25
100
AcDbEntity
  8
寸法
 62
     7
 48
50.0
100
AcDbMText
 10
7568.412837848862
 20
2088.266463748539
 30
0.0
 40
100.0
 41
0.0
 71
     5
 72
     1
  1
\A1;540
  7
STYLE1
 11
0.0000000000000001
 21
1.0
 31
0.0
 73
     1
 44
1.0
1001
ACAD
1000
MTEXTBEGIN
1070
    73
1070
     1
1070
    44
1040
1.0
1070
    74
1070
     0
1000
MTEXTEND
  0
POINT
  5
20AF8
330
20A25
100
AcDbEntity
  8
DEFPOINTS
 62
     0
 48
50.0
100
AcDbPoint
 10
8329.057775884926
 20
2578.266463748539
 30
0.0
  0
POINT
  5
20AF9
330
20A25
100
AcDbEntity
  8
DEFPOINTS
 62
     0
 48
50.0
100
AcDbPoint
 10
8069.057775884926
 20
1598.266463748539
 30
0.0
  0
POINT
  5
20AFA
330
20A25
100
AcDbEntity
  8
DEFPOINTS
 62
     0
 48
50.0
100
AcDbPoint
 10
7643.412837848862
 20
1598.266463748539
 30
0.0
  0
ENDBLK
  5
20A30
330
20A25
100
AcDbEntity
  8
0
 48
50.0
100
AcDbBlockEnd
  0
BLOCK
  5
20A3B
330
20A31
100
AcDbEntity
  8
0
 48
50.0
100
AcDbBlockBegin
  2
*D49
 70
     1
 10
0.0
 20
0.0
 30
0.0
  3
*D49
  1

  0
LINE
  5
20AE9
330
20A31
100
AcDbEntity
  8
寸法
 62
     0
 48
50.0
370
    -2
100
AcDbLine
 10
8144.057775884927
 20
1898.266463748539
 30
0.0
 11
7841.032383719351
 21
1898.266463748539
 31
0.0
  0
LINE
  5
20AEA
330
20A31
100
AcDbEntity
  8
寸法
 62
     0
 48
50.0
370
    -2
100
AcDbLine
 10
8044.057775884928
 20
1598.266463748539
 30
0.0
 11
7841.032383719351
 21
1598.266463748539
 31
0.0
  0
LINE
  5
20AEB
330
20A31
100
AcDbEntity
  8
寸法
 62
     0
 48
50.0
370
    -2
100
AcDbLine
 10
7916.032383719351
 20
1898.266463748539
 30
0.0
 11
7916.032383719351
 21
1598.266463748539
 31
0.0
  0
INSERT
  5
20AEC
330
20A31
100
AcDbEntity
  8
寸法
 62
     0
 48
50.0
370
    -2
100
AcDbBlockReference
  2
_DOTSMALL
 10
7916.032383719351
 20
1898.266463748539
 30
0.0
 41
125.0
 42
125.0
 43
125.0
 50
90.0
  0
INSERT
  5
20AED
330
20A31
100
AcDbEntity
  8
寸法
 62
     0
 48
50.0
370
    -2
100
AcDbBlockReference
  2
_DOTSMALL
 10
7916.032383719351
 20
1598.266463748539
 30
0.0
 41
125.0
 42
125.0
 43
125.0
 50
270.0
  0
MTEXT
  5
20AEE
330
20A31
100
AcDbEntity
  8
寸法
 62
     7
 48
50.0
100
AcDbMText
 10
7841.032383719351
 20
1748.266463748539
 30
0.0
 40
100.0
 41
0.0
 71
     5
 72
     1
  1
\A1;150
  7
STYLE1
 11
0.0000000000000001
 21
1.0
 31
0.0
 73
     1
 44
1.0
1001
ACAD
1000
MTEXTBEGIN
1070
    73
1070
     1
1070
    44
1040
1.0
1070
    74
1070
     0
1000
MTEXTEND
  0
POINT
  5
20AEF
330
20A31
100
AcDbEntity
  8
DEFPOINTS
 62
     0
 48
50.0
100
AcDbPoint
 10
8169.057775884928
 20
1898.266463748539
 30
0.0
  0
POINT
  5
20AF0
330
20A31
100
AcDbEntity
  8
DEFPOINTS
 62
     0
 48
50.0
100
AcDbPoint
 10
8069.057775884926
 20
1598.266463748539
 30
0.0
  0
POINT
  5
20AF1
330
20A31
100
AcDbEntity
  8
DEFPOINTS
 62
     0
 48
50.0
100
AcDbPoint
 10
7916.032383719351
 20
1598.266463748539
 30
0.0
  0
ENDBLK
  5
20A3C
330
20A31
100
AcDbEntity
  8
0
 48
50.0
100
AcDbBlockEnd
  0
BLOCK
  5
20A47
330
20A3D
100
AcDbEntity
  8
0
 48
50.0
100
AcDbBlockBegin
  2
*D50
 70
     1
 10
0.0
 20
0.0
 30
0.0
  3
*D50
  1

  0
LINE
  5
20AE0
330
20A3D
100
AcDbEntity
  8
寸法
 62
     0
 48
50.0
370
    -2
100
AcDbLine
 10
8169.057775884928
 20
1413.266463748539
 30
0.0
 11
8169.057775884928
 21
1064.314357292605
 31
0.0
  0
LINE
  5
20AE1
330
20A3D
100
AcDbEntity
  8
寸法
 62
     0
 48
50.0
370
    -2
100
AcDbLine
 10
8729.057775884927
 20
1413.266463748539
 30
0.0
 11
8729.057775884927
 21
1064.314357292605
 31
0.0
  0
LINE
  5
20AE2
330
20A3D
100
AcDbEntity
  8
寸法
 62
     0
 48
50.0
370
    -2
100
AcDbLine
 10
8169.057775884928
 20
1139.314357292605
 30
0.0
 11
8729.057775884927
 21
1139.314357292605
 31
0.0
  0
INSERT
  5
20AE3
330
20A3D
100
AcDbEntity
  8
寸法
 62
     0
 48
50.0
370
    -2
100
AcDbBlockReference
  2
_DOTSMALL
 10
8169.057775884928
 20
1139.314357292605
 30
0.0
 41
125.0
 42
125.0
 43
125.0
 50
180.0
  0
INSERT
  5
20AE4
330
20A3D
100
AcDbEntity
  8
寸法
 62
     0
 48
50.0
370
    -2
100
AcDbBlockReference
  2
_DOTSMALL
 10
8729.057775884927
 20
1139.314357292605
 30
0.0
 41
125.0
 42
125.0
 43
125.0
  0
MTEXT
  5
20AE5
330
20A3D
100
AcDbEntity
  8
寸法
 62
     7
 48
50.0
100
AcDbMText
 10
8449.057775884927
 20
1214.314357292605
 30
0.0
 40
100.0
 41
0.0
 71
     5
 72
     1
  1
\A1;300
  7
STYLE1
 73
     1
 44
1.0
1001
ACAD
1000
MTEXTBEGIN
1070
    73
1070
     1
1070
    44
1040
1.0
1070
    74
1070
     0
1000
MTEXTEND
  0
POINT
  5
20AE6
330
20A3D
100
AcDbEntity
  8
DEFPOINTS
 62
     0
 48
50.0
100
AcDbPoint
 10
8169.057775884928
 20
1438.266463748539
 30
0.0
  0
POINT
  5
20AE7
330
20A3D
100
AcDbEntity
  8
DEFPOINTS
 62
     0
 48
50.0
100
AcDbPoint
 10
8729.057775884927
 20
1438.266463748539
 30
0.0
  0
POINT
  5
20AE8
330
20A3D
100
AcDbEntity
  8
DEFPOINTS
 62
     0
 48
50.0
100
AcDbPoint
 10
8729.057775884927
 20
1139.314357292605
 30
0.0
  0
ENDBLK
  5
20A48
330
20A3D
100
AcDbEntity
  8
0
 48
50.0
100
AcDbBlockEnd
  0
BLOCK
  5
20A54
330
20A49
100
AcDbEntity
  8
0
 48
50.0
100
AcDbBlockBegin
  2
*D51
 70
     1
 10
0.0
 20
0.0
 30
0.0
  3
*D51
  1

  0
LINE
  5
20AD6
330
20A49
100
AcDbEntity
  8
寸法
 62
     0
 48
50.0
370
    -2
100
AcDbLine
 10
5835.516092685829
 20
2598.266463748539
 30
0.0
 11
5835.516092685829
 21
2998.956008726278
 31
0.0
  0
LINE
  5
20AD7
330
20A49
100
AcDbEntity
  8
寸法
 62
     0
 48
50.0
370
    -2
100
AcDbLine
 10
5932.01609268583
 20
2658.574156056231
 30
0.0
 11
5932.01609268583
 21
2998.956008726278
 31
0.0
  0
LINE
  5
20AD8
330
20A49
100
AcDbEntity
  8
寸法
 62
     0
 48
50.0
370
    -2
100
AcDbLine
 10
5932.01609268583
 20
2938.956008726279
 30
0.0
 11
5835.516092685829
 21
2938.956008726279
 31
0.0
  0
LINE
  5
20AD9
330
20A49
100
AcDbEntity
  8
寸法
 62
     0
 48
50.0
370
    -2
100
AcDbLine
 10
5835.516092685829
 20
2938.956008726279
 30
0.0
 11
5506.545529937352
 21
2938.956008726279
 31
0.0
  0
INSERT
  5
20ADA
330
20A49
100
AcDbEntity
  8
寸法
 62
     0
 48
50.0
370
    -2
100
AcDbBlockReference
  2
_DOTSMALL
 10
5932.01609268583
 20
2938.956008726279
 30
0.0
 41
100.0
 42
100.0
 43
100.0
  0
INSERT
  5
20ADB
330
20A49
100
AcDbEntity
  8
寸法
 62
     0
 48
50.0
370
    -2
100
AcDbBlockReference
  2
_DOTSMALL
 10
5835.516092685829
 20
2938.956008726279
 30
0.0
 41
100.0
 42
100.0
 43
100.0
 50
180.0
  0
MTEXT
  5
20ADC
330
20A49
100
AcDbEntity
  8
寸法
 62
     7
 48
50.0
100
AcDbMText
 10
5621.030811311591
 20
3038.956008726279
 30
0.0
 40
120.0
 41
0.0
 71
     5
 72
     1
  1
\A1;45
  7
STYLE1
 73
     1
 44
1.0
1001
ACAD
1000
MTEXTBEGIN
1070
    73
1070
     1
1070
    44
1040
1.0
1070
    74
1070
     0
1000
MTEXTEND
  0
POINT
  5
20ADD
330
20A49
100
AcDbEntity
  8
DEFPOINTS
 62
     0
 48
50.0
100
AcDbPoint
 10
5835.516092685829
 20
2578.266463748539
 30
0.0
  0
POINT
  5
20ADE
330
20A49
100
AcDbEntity
  8
DEFPOINTS
 62
     0
 48
50.0
100
AcDbPoint
 10
5932.01609268583
 20
2638.574156056231
 30
0.0
  0
POINT
  5
20ADF
330
20A49
100
AcDbEntity
  8
DEFPOINTS
 62
     0
 48
50.0
100
AcDbPoint
 10
5932.01609268583
 20
2938.956008726279
 30
0.0
  0
ENDBLK
  5
20A55
330
20A49
100
AcDbEntity
  8
0
 48
50.0
100
AcDbBlockEnd
  0
BLOCK
  5
20A62
330
20A56
100
AcDbEntity
  8
0
 48
50.0
100
AcDbBlockBegin
  2
*D52
 70
     1
 10
0.0
 20
0.0
 30
0.0
  3
*D52
  1

  0
LINE
  5
20ACB
330
20A56
100
AcDbEntity
  8
寸法
 62
     0
 48
50.0
370
    -2
100
AcDbLine
 10
5965.51609268583
 20
2638.574156056231
 30
0.0
 11
6663.782125857267
 21
2638.574156056231
 31
0.0
  0
LINE
  5
20ACC
330
20A56
100
AcDbEntity
  8
寸法
 62
     0
 48
50.0
370
    -2
100
AcDbLine
 10
6095.51609268583
 20
2578.266463748539
 30
0.0
 11
6663.782125857267
 21
2578.266463748539
 31
0.0
  0
LINE
  5
20ACD
330
20A56
100
AcDbEntity
  8
寸法
 62
     0
 48
50.0
370
    -2
100
AcDbLine
 10
6603.782125857266
 20
2638.574156056231
 30
0.0
 11
6603.782125857266
 21
2738.574156056231
 31
0.0
  0
LINE
  5
20ACE
330
20A56
100
AcDbEntity
  8
寸法
 62
     0
 48
50.0
370
    -2
100
AcDbLine
 10
6603.782125857266
 20
2578.266463748539
 30
0.0
 11
6603.782125857266
 21
1849.295901000059
 31
0.0
  0
LINE
  5
20ACF
330
20A56
100
AcDbEntity
  8
寸法
 62
     0
 48
50.0
370
    -2
100
AcDbLine
 10
6603.782125857266
 20
2638.574156056231
 30
0.0
 11
6603.782125857266
 21
2578.266463748539
 31
0.0
  0
INSERT
  5
20AD0
330
20A56
100
AcDbEntity
  8
寸法
 62
     0
 48
50.0
370
    -2
100
AcDbBlockReference
  2
_DOTSMALL
 10
6603.782125857266
 20
2638.574156056231
 30
0.0
 41
100.0
 42
100.0
 43
100.0
 50
270.0
  0
INSERT
  5
20AD1
330
20A56
100
AcDbEntity
  8
寸法
 62
     0
 48
50.0
370
    -2
100
AcDbBlockReference
  2
_DOTSMALL
 10
6603.782125857266
 20
2578.266463748539
 30
0.0
 41
100.0
 42
100.0
 43
100.0
 50
90.0
  0
MTEXT
  5
20AD2
330
20A56
100
AcDbEntity
  8
寸法
 62
     7
 48
50.0
100
AcDbMText
 10
6503.782125857267
 20
2113.781182374299
 30
0.0
 40
120.0
 41
0.0
 71
     5
 72
     1
  1
\A1;30～35
  7
STYLE1
 11
0.0000000000000001
 21
1.0
 31
0.0
 73
     1
 44
1.0
1001
ACAD
1000
MTEXTBEGIN
1070
    73
1070
     1
1070
    44
1040
1.0
1070
    74
1070
     0
1000
MTEXTEND
  0
POINT
  5
20AD3
330
20A56
100
AcDbEntity
  8
DEFPOINTS
 62
     0
 48
50.0
100
AcDbPoint
 10
5945.51609268583
 20
2638.574156056231
 30
0.0
  0
POINT
  5
20AD4
330
20A56
100
AcDbEntity
  8
DEFPOINTS
 62
     0
 48
50.0
100
AcDbPoint
 10
6075.51609268583
 20
2578.266463748539
 30
0.0
  0
POINT
  5
20AD5
330
20A56
100
AcDbEntity
  8
DEFPOINTS
 62
     0
 48
50.0
100
AcDbPoint
 10
6603.782125857266
 20
2578.266463748539
 30
0.0
  0
ENDBLK
  5
20A63
330
20A56
100
AcDbEntity
  8
0
 48
50.0
100
AcDbBlockEnd
  0
BLOCK
  5
20B0F
330
20B0E
100
AcDbEntity
  8
0
 48
50.0
100
AcDbBlockBegin
  2
*D53
 70
     1
 10
0.0
 20
0.0
 30
0.0
  3
*D53
  1

  0
LINE
  5
20B10
330
20B0E
100
AcDbEntity
  8
寸法
 62
     0
 48
50.0
370
    -2
100
AcDbLine
 10
5850.794969903727
 20
2628.352619445893
 30
0.0
 11
5850.794969903727
 21
3029.042164423632
 31
0.0
  0
LINE
  5
20B11
330
20B0E
100
AcDbEntity
  8
寸法
 62
     0
 48
50.0
370
    -2
100
AcDbLine
 10
5947.294969903727
 20
2688.660311753584
 30
0.0
 11
5947.294969903727
 21
3029.042164423632
 31
0.0
  0
LINE
  5
20B12
330
20B0E
100
AcDbEntity
  8
寸法
 62
     0
 48
50.0
370
    -2
100
AcDbLine
 10
5947.294969903727
 20
2969.042164423632
 30
0.0
 11
5850.794969903727
 21
2969.042164423632
 31
0.0
  0
LINE
  5
20B13
330
20B0E
100
AcDbEntity
  8
寸法
 62
     0
 48
50.0
370
    -2
100
AcDbLine
 10
5850.794969903727
 20
2969.042164423632
 30
0.0
 11
5521.82440715525
 21
2969.042164423632
 31
0.0
  0
INSERT
  5
20B14
330
20B0E
100
AcDbEntity
  8
寸法
 62
     0
 48
50.0
370
    -2
100
AcDbBlockReference
  2
_DOTSMALL
 10
5947.294969903727
 20
2969.042164423632
 30
0.0
 41
100.0
 42
100.0
 43
100.0
  0
INSERT
  5
20B15
330
20B0E
100
AcDbEntity
  8
寸法
 62
     0
 48
50.0
370
    -2
100
AcDbBlockReference
  2
_DOTSMALL
 10
5850.794969903727
 20
2969.042164423632
 30
0.0
 41
100.0
 42
100.0
 43
100.0
 50
180.0
  0
MTEXT
  5
20B16
330
20B0E
100
AcDbEntity
  8
寸法
 62
     7
 48
50.0
100
AcDbMText
 10
5636.30968852949
 20
3069.042164423632
 30
0.0
 40
120.0
 41
0.0
 71
     5
 72
     1
  1
\A1;45
  7
STYLE1
 73
     1
 44
1.0
1001
ACAD
1000
MTEXTBEGIN
1070
    73
1070
     1
1070
    44
1040
1.0
1070
    74
1070
     0
1000
MTEXTEND
  0
POINT
  5
20B17
330
20B0E
100
AcDbEntity
  8
DEFPOINTS
 62
     0
 48
50.0
100
AcDbPoint
 10
5850.794969903727
 20
2608.352619445893
 30
0.0
  0
POINT
  5
20B18
330
20B0E
100
AcDbEntity
  8
DEFPOINTS
 62
     0
 48
50.0
100
AcDbPoint
 10
5947.294969903727
 20
2668.660311753584
 30
0.0
  0
POINT
  5
20B19
330
20B0E
100
AcDbEntity
  8
DEFPOINTS
 62
     0
 48
50.0
100
AcDbPoint
 10
5947.294969903727
 20
2969.042164423632
 30
0.0
  0
ENDBLK
  5
20B1A
330
20B0E
100
AcDbEntity
  8
0
 48
50.0
100
AcDbBlockEnd
  0
BLOCK
  5
20B1C
330
20B1B
100
AcDbEntity
  8
0
 48
50.0
100
AcDbBlockBegin
  2
*D54
 70
     1
 10
0.0
 20
0.0
 30
0.0
  3
*D54
  1

  0
LINE
  5
20B1D
330
20B1B
100
AcDbEntity
  8
寸法
 62
     0
 48
50.0
370
    -2
100
AcDbLine
 10
5980.794969903727
 20
2668.660311753584
 30
0.0
 11
6679.061003075164
 21
2668.660311753584
 31
0.0
  0
LINE
  5
20B1E
330
20B1B
100
AcDbEntity
  8
寸法
 62
     0
 48
50.0
370
    -2
100
AcDbLine
 10
6110.794969903727
 20
2608.352619445893
 30
0.0
 11
6679.061003075164
 21
2608.352619445893
 31
0.0
  0
LINE
  5
20B1F
330
20B1B
100
AcDbEntity
  8
寸法
 62
     0
 48
50.0
370
    -2
100
AcDbLine
 10
6619.061003075164
 20
2668.660311753584
 30
0.0
 11
6619.061003075164
 21
2768.660311753584
 31
0.0
  0
LINE
  5
20B20
330
20B1B
100
AcDbEntity
  8
寸法
 62
     0
 48
50.0
370
    -2
100
AcDbLine
 10
6619.061003075164
 20
2608.352619445893
 30
0.0
 11
6619.061003075163
 21
1879.382056697412
 31
0.0
  0
LINE
  5
20B21
330
20B1B
100
AcDbEntity
  8
寸法
 62
     0
 48
50.0
370
    -2
100
AcDbLine
 10
6619.061003075164
 20
2668.660311753584
 30
0.0
 11
6619.061003075164
 21
2608.352619445893
 31
0.0
  0
INSERT
  5
20B22
330
20B1B
100
AcDbEntity
  8
寸法
 62
     0
 48
50.0
370
    -2
100
AcDbBlockReference
  2
_DOTSMALL
 10
6619.061003075164
 20
2668.660311753584
 30
0.0
 41
100.0
 42
100.0
 43
100.0
 50
270.0
  0
INSERT
  5
20B23
330
20B1B
100
AcDbEntity
  8
寸法
 62
     0
 48
50.0
370
    -2
100
AcDbBlockReference
  2
_DOTSMALL
 10
6619.061003075164
 20
2608.352619445893
 30
0.0
 41
100.0
 42
100.0
 43
100.0
 50
90.0
  0
MTEXT
  5
20B24
330
20B1B
100
AcDbEntity
  8
寸法
 62
     7
 48
50.0
100
AcDbMText
 10
6519.061003075163
 20
2143.867338071652
 30
0.0
 40
120.0
 41
0.0
 71
     5
 72
     1
  1
\A1;30～35
  7
STYLE1
 11
0.0000000000000001
 21
1.0
 31
0.0
 73
     1
 44
1.0
1001
ACAD
1000
MTEXTBEGIN
1070
    73
1070
     1
1070
    44
1040
1.0
1070
    74
1070
     0
1000
MTEXTEND
  0
POINT
  5
20B25
330
20B1B
100
AcDbEntity
  8
DEFPOINTS
 62
     0
 48
50.0
100
AcDbPoint
 10
5960.794969903727
 20
2668.660311753584
 30
0.0
  0
POINT
  5
20B26
330
20B1B
100
AcDbEntity
  8
DEFPOINTS
 62
     0
 48
50.0
100
AcDbPoint
 10
6090.794969903727
 20
2608.352619445893
 30
0.0
  0
POINT
  5
20B27
330
20B1B
100
AcDbEntity
  8
DEFPOINTS
 62
     0
 48
50.0
100
AcDbPoint
 10
6619.061003075164
 20
2608.352619445893
 30
0.0
  0
ENDBLK
  5
20B28
330
20B1B
100
AcDbEntity
  8
0
 48
50.0
100
AcDbBlockEnd
  0
BLOCK
  5
20B2A
330
20B29
100
AcDbEntity
  8
0
 48
50.0
100
AcDbBlockBegin
  2
*D55
 70
     1
 10
0.0
 20
0.0
 30
0.0
  3
*D55
  1

  0
LINE
  5
20B2B
330
20B29
100
AcDbEntity
  8
寸法
 62
     0
 48
50.0
370
    -2
100
AcDbLine
 10
8584.336653102823
 20
2633.352619445893
 30
0.0
 11
8584.336653102823
 21
3083.352619445893
 31
0.0
  0
LINE
  5
20B2C
330
20B29
100
AcDbEntity
  8
寸法
 62
     0
 48
50.0
370
    -2
100
AcDbLine
 10
8344.336653102825
 20
2633.352619445893
 30
0.0
 11
8344.336653102825
 21
3083.352619445893
 31
0.0
  0
LINE
  5
20B2D
330
20B29
100
AcDbEntity
  8
寸法
 62
     0
 48
50.0
370
    -2
100
AcDbLine
 10
8584.336653102823
 20
3008.352619445893
 30
0.0
 11
8344.336653102825
 21
3008.352619445893
 31
0.0
  0
INSERT
  5
20B2E
330
20B29
100
AcDbEntity
  8
寸法
 62
     0
 48
50.0
370
    -2
100
AcDbBlockReference
  2
_DOTSMALL
 10
8584.336653102823
 20
3008.352619445893
 30
0.0
 41
125.0
 42
125.0
 43
125.0
  0
INSERT
  5
20B2F
330
20B29
100
AcDbEntity
  8
寸法
 62
     0
 48
50.0
370
    -2
100
AcDbBlockReference
  2
_DOTSMALL
 10
8344.336653102825
 20
3008.352619445893
 30
0.0
 41
125.0
 42
125.0
 43
125.0
 50
180.0
  0
MTEXT
  5
20B30
330
20B29
100
AcDbEntity
  8
寸法
 62
     7
 48
50.0
100
AcDbMText
 10
8464.336653102824
 20
3166.695795298911
 30
0.0
 40
100.0
 41
0.0
 71
     5
 72
     1
  1
\A1;120\P195
  7
STYLE1
 73
     1
 44
1.0
1001
ACAD
1000
MTEXTBEGIN
1070
    73
1070
     1
1070
    44
1040
1.0
1070
    74
1070
     0
1000
MTEXTEND
  0
POINT
  5
20B31
330
20B29
100
AcDbEntity
  8
DEFPOINTS
 62
     0
 48
50.0
100
AcDbPoint
 10
8584.336653102823
 20
2608.352619445893
 30
0.0
  0
POINT
  5
20B32
330
20B29
100
AcDbEntity
  8
DEFPOINTS
 62
     0
 48
50.0
100
AcDbPoint
 10
8344.336653102825
 20
2608.352619445893
 30
0.0
  0
POINT
  5
20B33
330
20B29
100
AcDbEntity
  8
DEFPOINTS
 62
     0
 48
50.0
100
AcDbPoint
 10
8344.336653102825
 20
3008.352619445893
 30
0.0
  0
ENDBLK
  5
20B34
330
20B29
100
AcDbEntity
  8
0
 48
50.0
100
AcDbBlockEnd
  0
BLOCK
  5
20B36
330
20B35
100
AcDbEntity
  8
0
 48
50.0
100
AcDbBlockBegin
  2
*D56
 70
     1
 10
0.0
 20
0.0
 30
0.0
  3
*D56
  1

  0
LINE
  5
20B37
330
20B35
100
AcDbEntity
  8
寸法
 62
     0
 48
50.0
370
    -2
100
AcDbLine
 10
8319.336653102824
 20
2608.352619445893
 30
0.0
 11
7583.69171506676
 21
2608.352619445893
 31
0.0
  0
LINE
  5
20B38
330
20B35
100
AcDbEntity
  8
寸法
 62
     0
 48
50.0
370
    -2
100
AcDbLine
 10
8059.336653102823
 20
1628.352619445892
 30
0.0
 11
7583.69171506676
 21
1628.352619445893
 31
0.0
  0
LINE
  5
20B39
330
20B35
100
AcDbEntity
  8
寸法
 62
     0
 48
50.0
370
    -2
100
AcDbLine
 10
7658.69171506676
 20
2608.352619445893
 30
0.0
 11
7658.69171506676
 21
1628.352619445893
 31
0.0
  0
INSERT
  5
20B3A
330
20B35
100
AcDbEntity
  8
寸法
 62
     0
 48
50.0
370
    -2
100
AcDbBlockReference
  2
_DOTSMALL
 10
7658.69171506676
 20
2608.352619445893
 30
0.0
 41
125.0
 42
125.0
 43
125.0
 50
90.0
  0
INSERT
  5
20B3B
330
20B35
100
AcDbEntity
  8
寸法
 62
     0
 48
50.0
370
    -2
100
AcDbBlockReference
  2
_DOTSMALL
 10
7658.69171506676
 20
1628.352619445893
 30
0.0
 41
125.0
 42
125.0
 43
125.0
 50
270.0
  0
MTEXT
  5
20B3C
330
20B35
100
AcDbEntity
  8
寸法
 62
     7
 48
50.0
100
AcDbMText
 10
7583.69171506676
 20
2118.352619445893
 30
0.0
 40
100.0
 41
0.0
 71
     5
 72
     1
  1
\A1;540
  7
STYLE1
 11
0.0000000000000001
 21
1.0
 31
0.0
 73
     1
 44
1.0
1001
ACAD
1000
MTEXTBEGIN
1070
    73
1070
     1
1070
    44
1040
1.0
1070
    74
1070
     0
1000
MTEXTEND
  0
POINT
  5
20B3D
330
20B35
100
AcDbEntity
  8
DEFPOINTS
 62
     0
 48
50.0
100
AcDbPoint
 10
8344.336653102825
 20
2608.352619445893
 30
0.0
  0
POINT
  5
20B3E
330
20B35
100
AcDbEntity
  8
DEFPOINTS
 62
     0
 48
50.0
100
AcDbPoint
 10
8084.336653102823
 20
1628.352619445892
 30
0.0
  0
POINT
  5
20B3F
330
20B35
100
AcDbEntity
  8
DEFPOINTS
 62
     0
 48
50.0
100
AcDbPoint
 10
7658.69171506676
 20
1628.352619445893
 30
0.0
  0
ENDBLK
  5
20B40
330
20B35
100
AcDbEntity
  8
0
 48
50.0
100
AcDbBlockEnd
  0
BLOCK
  5
20B42
330
20B41
100
AcDbEntity
  8
0
 48
50.0
100
AcDbBlockBegin
  2
*D57
 70
     1
 10
0.0
 20
0.0
 30
0.0
  3
*D57
  1

  0
LINE
  5
20B43
330
20B41
100
AcDbEntity
  8
寸法
 62
     0
 48
50.0
370
    -2
100
AcDbLine
 10
8159.336653102824
 20
1928.352619445892
 30
0.0
 11
7856.31126093725
 21
1928.352619445892
 31
0.0
  0
LINE
  5
20B44
330
20B41
100
AcDbEntity
  8
寸法
 62
     0
 48
50.0
370
    -2
100
AcDbLine
 10
8059.336653102823
 20
1628.352619445892
 30
0.0
 11
7856.31126093725
 21
1628.352619445892
 31
0.0
  0
LINE
  5
20B45
330
20B41
100
AcDbEntity
  8
寸法
 62
     0
 48
50.0
370
    -2
100
AcDbLine
 10
7931.311260937249
 20
1928.352619445892
 30
0.0
 11
7931.311260937249
 21
1628.352619445892
 31
0.0
  0
INSERT
  5
20B46
330
20B41
100
AcDbEntity
  8
寸法
 62
     0
 48
50.0
370
    -2
100
AcDbBlockReference
  2
_DOTSMALL
 10
7931.311260937249
 20
1928.352619445892
 30
0.0
 41
125.0
 42
125.0
 43
125.0
 50
90.0
  0
INSERT
  5
20B47
330
20B41
100
AcDbEntity
  8
寸法
 62
     0
 48
50.0
370
    -2
100
AcDbBlockReference
  2
_DOTSMALL
 10
7931.311260937249
 20
1628.352619445892
 30
0.0
 41
125.0
 42
125.0
 43
125.0
 50
270.0
  0
MTEXT
  5
20B48
330
20B41
100
AcDbEntity
  8
寸法
 62
     7
 48
50.0
100
AcDbMText
 10
7856.31126093725
 20
1778.352619445892
 30
0.0
 40
100.0
 41
0.0
 71
     5
 72
     1
  1
\A1;150
  7
STYLE1
 11
0.0000000000000001
 21
1.0
 31
0.0
 73
     1
 44
1.0
1001
ACAD
1000
MTEXTBEGIN
1070
    73
1070
     1
1070
    44
1040
1.0
1070
    74
1070
     0
1000
MTEXTEND
  0
POINT
  5
20B49
330
20B41
100
AcDbEntity
  8
DEFPOINTS
 62
     0
 48
50.0
100
AcDbPoint
 10
8184.336653102823
 20
1928.352619445892
 30
0.0
  0
POINT
  5
20B4A
330
20B41
100
AcDbEntity
  8
DEFPOINTS
 62
     0
 48
50.0
100
AcDbPoint
 10
8084.336653102823
 20
1628.352619445892
 30
0.0
  0
POINT
  5
20B4B
330
20B41
100
AcDbEntity
  8
DEFPOINTS
 62
     0
 48
50.0
100
AcDbPoint
 10
7931.311260937249
 20
1628.352619445892
 30
0.0
  0
ENDBLK
  5
20B4C
330
20B41
100
AcDbEntity
  8
0
 48
50.0
100
AcDbBlockEnd
  0
BLOCK
  5
20B4E
330
20B4D
100
AcDbEntity
  8
0
 48
50.0
100
AcDbBlockBegin
  2
*D58
 70
     1
 10
0.0
 20
0.0
 30
0.0
  3
*D58
  1

  0
LINE
  5
20B4F
330
20B4D
100
AcDbEntity
  8
寸法
 62
     0
 48
50.0
370
    -2
100
AcDbLine
 10
8184.336653102823
 20
1443.352619445892
 30
0.0
 11
8184.336653102823
 21
1094.400512989958
 31
0.0
  0
LINE
  5
20B50
330
20B4D
100
AcDbEntity
  8
寸法
 62
     0
 48
50.0
370
    -2
100
AcDbLine
 10
8744.336653102825
 20
1443.352619445892
 30
0.0
 11
8744.336653102825
 21
1094.400512989958
 31
0.0
  0
LINE
  5
20B51
330
20B4D
100
AcDbEntity
  8
寸法
 62
     0
 48
50.0
370
    -2
100
AcDbLine
 10
8184.336653102823
 20
1169.400512989958
 30
0.0
 11
8744.336653102825
 21
1169.400512989958
 31
0.0
  0
INSERT
  5
20B52
330
20B4D
100
AcDbEntity
  8
寸法
 62
     0
 48
50.0
370
    -2
100
AcDbBlockReference
  2
_DOTSMALL
 10
8184.336653102823
 20
1169.400512989958
 30
0.0
 41
125.0
 42
125.0
 43
125.0
 50
180.0
  0
INSERT
  5
20B53
330
20B4D
100
AcDbEntity
  8
寸法
 62
     0
 48
50.0
370
    -2
100
AcDbBlockReference
  2
_DOTSMALL
 10
8744.336653102825
 20
1169.400512989958
 30
0.0
 41
125.0
 42
125.0
 43
125.0
  0
MTEXT
  5
20B54
330
20B4D
100
AcDbEntity
  8
寸法
 62
     7
 48
50.0
100
AcDbMText
 10
8464.336653102824
 20
1244.400512989958
 30
0.0
 40
100.0
 41
0.0
 71
     5
 72
     1
  1
\A1;300
  7
STYLE1
 73
     1
 44
1.0
1001
ACAD
1000
MTEXTBEGIN
1070
    73
1070
     1
1070
    44
1040
1.0
1070
    74
1070
     0
1000
MTEXTEND
  0
POINT
  5
20B55
330
20B4D
100
AcDbEntity
  8
DEFPOINTS
 62
     0
 48
50.0
100
AcDbPoint
 10
8184.336653102823
 20
1468.352619445892
 30
0.0
  0
POINT
  5
20B56
330
20B4D
100
AcDbEntity
  8
DEFPOINTS
 62
     0
 48
50.0
100
AcDbPoint
 10
8744.336653102825
 20
1468.352619445892
 30
0.0
  0
POINT
  5
20B57
330
20B4D
100
AcDbEntity
  8
DEFPOINTS
 62
     0
 48
50.0
100
AcDbPoint
 10
8744.336653102825
 20
1169.400512989958
 30
0.0
  0
ENDBLK
  5
20B58
330
20B4D
100
AcDbEntity
  8
0
 48
50.0
100
AcDbBlockEnd
  0
BLOCK
  5
20E09
330
20DFD
100
AcDbEntity
  8
0
 48
50.0
100
AcDbBlockBegin
  2
*D60
 70
     1
 10
0.0
 20
0.0
 30
0.0
  3
*D60
  1

  0
LINE
  5
20E48
330
20DFD
100
AcDbEntity
  8
寸法
 62
     0
 48
50.0
370
    -2
100
AcDbLine
 10
5729.095734225448
 20
2771.893695615773
 30
0.0
 11
6427.361767396885
 21
2771.893695615773
 31
0.0
  0
LINE
  5
20E49
330
20DFD
100
AcDbEntity
  8
寸法
 62
     0
 48
50.0
370
    -2
100
AcDbLine
 10
5859.095734225448
 20
2711.586003308082
 30
0.0
 11
6427.361767396885
 21
2711.586003308082
 31
0.0
  0
LINE
  5
20E4A
330
20DFD
100
AcDbEntity
  8
寸法
 62
     0
 48
50.0
370
    -2
100
AcDbLine
 10
6367.361767396885
 20
2771.893695615773
 30
0.0
 11
6367.361767396885
 21
2871.893695615773
 31
0.0
  0
LINE
  5
20E4B
330
20DFD
100
AcDbEntity
  8
寸法
 62
     0
 48
50.0
370
    -2
100
AcDbLine
 10
6367.361767396885
 20
2711.586003308082
 30
0.0
 11
6367.361767396884
 21
1982.615440559601
 31
0.0
  0
LINE
  5
20E4C
330
20DFD
100
AcDbEntity
  8
寸法
 62
     0
 48
50.0
370
    -2
100
AcDbLine
 10
6367.361767396885
 20
2771.893695615773
 30
0.0
 11
6367.361767396885
 21
2711.586003308082
 31
0.0
  0
INSERT
  5
20E4D
330
20DFD
100
AcDbEntity
  8
寸法
 62
     0
 48
50.0
370
    -2
100
AcDbBlockReference
  2
_DOTSMALL
 10
6367.361767396885
 20
2771.893695615773
 30
0.0
 41
100.0
 42
100.0
 43
100.0
 50
270.0
  0
INSERT
  5
20E4E
330
20DFD
100
AcDbEntity
  8
寸法
 62
     0
 48
50.0
370
    -2
100
AcDbBlockReference
  2
_DOTSMALL
 10
6367.361767396885
 20
2711.586003308082
 30
0.0
 41
100.0
 42
100.0
 43
100.0
 50
90.0
  0
MTEXT
  5
20E4F
330
20DFD
100
AcDbEntity
  8
寸法
 62
     7
 48
50.0
100
AcDbMText
 10
6267.361767396884
 20
2247.100721933841
 30
0.0
 40
120.0
 41
0.0
 71
     5
 72
     1
  1
\A1;30～35
  7
STYLE1
 11
0.0000000000000001
 21
1.0
 31
0.0
 73
     1
 44
1.0
1001
ACAD
1000
MTEXTBEGIN
1070
    73
1070
     1
1070
    44
1040
1.0
1070
    74
1070
     0
1000
MTEXTEND
  0
POINT
  5
20E50
330
20DFD
100
AcDbEntity
  8
DEFPOINTS
 62
     0
 48
50.0
100
AcDbPoint
 10
5709.095734225448
 20
2771.893695615773
 30
0.0
  0
POINT
  5
20E51
330
20DFD
100
AcDbEntity
  8
DEFPOINTS
 62
     0
 48
50.0
100
AcDbPoint
 10
5839.095734225448
 20
2711.586003308082
 30
0.0
  0
POINT
  5
20E52
330
20DFD
100
AcDbEntity
  8
DEFPOINTS
 62
     0
 48
50.0
100
AcDbPoint
 10
6367.361767396885
 20
2711.586003308082
 30
0.0
  0
ENDBLK
  5
20E0A
330
20DFD
100
AcDbEntity
  8
0
 48
50.0
100
AcDbBlockEnd
  0
BLOCK
  5
20E16
330
20E0B
100
AcDbEntity
  8
0
 48
50.0
100
AcDbBlockBegin
  2
*D61
 70
     1
 10
0.0
 20
0.0
 30
0.0
  3
*D61
  1

  0
LINE
  5
20E53
330
20E0B
100
AcDbEntity
  8
寸法
 62
     0
 48
50.0
370
    -2
100
AcDbLine
 10
5599.095734225448
 20
2731.586003308082
 30
0.0
 11
5599.095734225448
 21
3132.275548285821
 31
0.0
  0
LINE
  5
20E54
330
20E0B
100
AcDbEntity
  8
寸法
 62
     0
 48
50.0
370
    -2
100
AcDbLine
 10
5695.595734225448
 20
2791.893695615773
 30
0.0
 11
5695.595734225448
 21
3132.275548285821
 31
0.0
  0
LINE
  5
20E55
330
20E0B
100
AcDbEntity
  8
寸法
 62
     0
 48
50.0
370
    -2
100
AcDbLine
 10
5695.595734225448
 20
3072.275548285821
 30
0.0
 11
5599.095734225448
 21
3072.275548285821
 31
0.0
  0
LINE
  5
20E56
330
20E0B
100
AcDbEntity
  8
寸法
 62
     0
 48
50.0
370
    -2
100
AcDbLine
 10
5599.095734225448
 20
3072.275548285821
 30
0.0
 11
5270.12517147697
 21
3072.275548285821
 31
0.0
  0
INSERT
  5
20E57
330
20E0B
100
AcDbEntity
  8
寸法
 62
     0
 48
50.0
370
    -2
100
AcDbBlockReference
  2
_DOTSMALL
 10
5695.595734225448
 20
3072.275548285821
 30
0.0
 41
100.0
 42
100.0
 43
100.0
  0
INSERT
  5
20E58
330
20E0B
100
AcDbEntity
  8
寸法
 62
     0
 48
50.0
370
    -2
100
AcDbBlockReference
  2
_DOTSMALL
 10
5599.095734225448
 20
3072.275548285821
 30
0.0
 41
100.0
 42
100.0
 43
100.0
 50
180.0
  0
MTEXT
  5
20E59
330
20E0B
100
AcDbEntity
  8
寸法
 62
     7
 48
50.0
100
AcDbMText
 10
5384.61045285121
 20
3172.275548285821
 30
0.0
 40
120.0
 41
0.0
 71
     5
 72
     1
  1
\A1;45
  7
STYLE1
 73
     1
 44
1.0
1001
ACAD
1000
MTEXTBEGIN
1070
    73
1070
     1
1070
    44
1040
1.0
1070
    74
1070
     0
1000
MTEXTEND
  0
POINT
  5
20E5A
330
20E0B
100
AcDbEntity
  8
DEFPOINTS
 62
     0
 48
50.0
100
AcDbPoint
 10
5599.095734225448
 20
2711.586003308082
 30
0.0
  0
POINT
  5
20E5B
330
20E0B
100
AcDbEntity
  8
DEFPOINTS
 62
     0
 48
50.0
100
AcDbPoint
 10
5695.595734225448
 20
2771.893695615773
 30
0.0
  0
POINT
  5
20E5C
330
20E0B
100
AcDbEntity
  8
DEFPOINTS
 62
     0
 48
50.0
100
AcDbPoint
 10
5695.595734225448
 20
3072.275548285821
 30
0.0
  0
ENDBLK
  5
20E17
330
20E0B
100
AcDbEntity
  8
0
 48
50.0
100
AcDbBlockEnd
  0
BLOCK
  5
20E22
330
20E18
100
AcDbEntity
  8
0
 48
50.0
100
AcDbBlockBegin
  2
*D62
 70
     1
 10
0.0
 20
0.0
 30
0.0
  3
*D62
  1

  0
LINE
  5
20E5D
330
20E18
100
AcDbEntity
  8
寸法
 62
     0
 48
50.0
370
    -2
100
AcDbLine
 10
7932.637417424544
 20
1546.586003308081
 30
0.0
 11
7932.637417424544
 21
1197.633896852147
 31
0.0
  0
LINE
  5
20E5E
330
20E18
100
AcDbEntity
  8
寸法
 62
     0
 48
50.0
370
    -2
100
AcDbLine
 10
8492.637417424544
 20
1546.586003308081
 30
0.0
 11
8492.637417424544
 21
1197.633896852147
 31
0.0
  0
LINE
  5
20E5F
330
20E18
100
AcDbEntity
  8
寸法
 62
     0
 48
50.0
370
    -2
100
AcDbLine
 10
7932.637417424544
 20
1272.633896852147
 30
0.0
 11
8492.637417424544
 21
1272.633896852147
 31
0.0
  0
INSERT
  5
20E60
330
20E18
100
AcDbEntity
  8
寸法
 62
     0
 48
50.0
370
    -2
100
AcDbBlockReference
  2
_DOTSMALL
 10
7932.637417424544
 20
1272.633896852147
 30
0.0
 41
125.0
 42
125.0
 43
125.0
 50
180.0
  0
INSERT
  5
20E61
330
20E18
100
AcDbEntity
  8
寸法
 62
     0
 48
50.0
370
    -2
100
AcDbBlockReference
  2
_DOTSMALL
 10
8492.637417424544
 20
1272.633896852147
 30
0.0
 41
125.0
 42
125.0
 43
125.0
  0
MTEXT
  5
20E62
330
20E18
100
AcDbEntity
  8
寸法
 62
     7
 48
50.0
100
AcDbMText
 10
8212.637417424545
 20
1347.633896852147
 30
0.0
 40
100.0
 41
0.0
 71
     5
 72
     1
  1
\A1;300
  7
STYLE1
 73
     1
 44
1.0
1001
ACAD
1000
MTEXTBEGIN
1070
    73
1070
     1
1070
    44
1040
1.0
1070
    74
1070
     0
1000
MTEXTEND
  0
POINT
  5
20E63
330
20E18
100
AcDbEntity
  8
DEFPOINTS
 62
     0
 48
50.0
100
AcDbPoint
 10
7932.637417424544
 20
1571.586003308081
 30
0.0
  0
POINT
  5
20E64
330
20E18
100
AcDbEntity
  8
DEFPOINTS
 62
     0
 48
50.0
100
AcDbPoint
 10
8492.637417424544
 20
1571.586003308081
 30
0.0
  0
POINT
  5
20E65
330
20E18
100
AcDbEntity
  8
DEFPOINTS
 62
     0
 48
50.0
100
AcDbPoint
 10
8492.637417424544
 20
1272.633896852147
 30
0.0
  0
ENDBLK
  5
20E23
330
20E18
100
AcDbEntity
  8
0
 48
50.0
100
AcDbBlockEnd
  0
BLOCK
  5
20E2E
330
20E24
100
AcDbEntity
  8
0
 48
50.0
100
AcDbBlockBegin
  2
*D63
 70
     1
 10
0.0
 20
0.0
 30
0.0
  3
*D63
  1

  0
LINE
  5
20E66
330
20E24
100
AcDbEntity
  8
寸法
 62
     0
 48
50.0
370
    -2
100
AcDbLine
 10
7907.637417424544
 20
2031.586003308081
 30
0.0
 11
7604.61202525897
 21
2031.586003308082
 31
0.0
  0
LINE
  5
20E67
330
20E24
100
AcDbEntity
  8
寸法
 62
     0
 48
50.0
370
    -2
100
AcDbLine
 10
7807.637417424544
 20
1731.586003308081
 30
0.0
 11
7604.61202525897
 21
1731.586003308082
 31
0.0
  0
LINE
  5
20E68
330
20E24
100
AcDbEntity
  8
寸法
 62
     0
 48
50.0
370
    -2
100
AcDbLine
 10
7679.61202525897
 20
2031.586003308082
 30
0.0
 11
7679.61202525897
 21
1731.586003308082
 31
0.0
  0
INSERT
  5
20E69
330
20E24
100
AcDbEntity
  8
寸法
 62
     0
 48
50.0
370
    -2
100
AcDbBlockReference
  2
_DOTSMALL
 10
7679.61202525897
 20
2031.586003308082
 30
0.0
 41
125.0
 42
125.0
 43
125.0
 50
90.0
  0
INSERT
  5
20E6A
330
20E24
100
AcDbEntity
  8
寸法
 62
     0
 48
50.0
370
    -2
100
AcDbBlockReference
  2
_DOTSMALL
 10
7679.61202525897
 20
1731.586003308082
 30
0.0
 41
125.0
 42
125.0
 43
125.0
 50
270.0
  0
MTEXT
  5
20E6B
330
20E24
100
AcDbEntity
  8
寸法
 62
     7
 48
50.0
100
AcDbMText
 10
7604.61202525897
 20
1881.586003308081
 30
0.0
 40
100.0
 41
0.0
 71
     5
 72
     1
  1
\A1;150
  7
STYLE1
 11
0.0000000000000001
 21
1.0
 31
0.0
 73
     1
 44
1.0
1001
ACAD
1000
MTEXTBEGIN
1070
    73
1070
     1
1070
    44
1040
1.0
1070
    74
1070
     0
1000
MTEXTEND
  0
POINT
  5
20E6C
330
20E24
100
AcDbEntity
  8
DEFPOINTS
 62
     0
 48
50.0
100
AcDbPoint
 10
7932.637417424544
 20
2031.586003308081
 30
0.0
  0
POINT
  5
20E6D
330
20E24
100
AcDbEntity
  8
DEFPOINTS
 62
     0
 48
50.0
100
AcDbPoint
 10
7832.637417424544
 20
1731.586003308081
 30
0.0
  0
POINT
  5
20E6E
330
20E24
100
AcDbEntity
  8
DEFPOINTS
 62
     0
 48
50.0
100
AcDbPoint
 10
7679.61202525897
 20
1731.586003308082
 30
0.0
  0
ENDBLK
  5
20E2F
330
20E24
100
AcDbEntity
  8
0
 48
50.0
100
AcDbBlockEnd
  0
BLOCK
  5
20E3A
330
20E30
100
AcDbEntity
  8
0
 48
50.0
100
AcDbBlockBegin
  2
*D64
 70
     1
 10
0.0
 20
0.0
 30
0.0
  3
*D64
  1

  0
LINE
  5
20E6F
330
20E30
100
AcDbEntity
  8
寸法
 62
     0
 48
50.0
370
    -2
100
AcDbLine
 10
8067.637417424545
 20
2711.586003308082
 30
0.0
 11
7331.992479388481
 21
2711.586003308082
 31
0.0
  0
LINE
  5
20E70
330
20E30
100
AcDbEntity
  8
寸法
 62
     0
 48
50.0
370
    -2
100
AcDbLine
 10
7807.637417424544
 20
1731.586003308081
 30
0.0
 11
7331.992479388481
 21
1731.586003308082
 31
0.0
  0
LINE
  5
20E71
330
20E30
100
AcDbEntity
  8
寸法
 62
     0
 48
50.0
370
    -2
100
AcDbLine
 10
7406.992479388481
 20
2711.586003308082
 30
0.0
 11
7406.992479388481
 21
1731.586003308082
 31
0.0
  0
INSERT
  5
20E72
330
20E30
100
AcDbEntity
  8
寸法
 62
     0
 48
50.0
370
    -2
100
AcDbBlockReference
  2
_DOTSMALL
 10
7406.992479388481
 20
2711.586003308082
 30
0.0
 41
125.0
 42
125.0
 43
125.0
 50
90.0
  0
INSERT
  5
20E73
330
20E30
100
AcDbEntity
  8
寸法
 62
     0
 48
50.0
370
    -2
100
AcDbBlockReference
  2
_DOTSMALL
 10
7406.992479388481
 20
1731.586003308082
 30
0.0
 41
125.0
 42
125.0
 43
125.0
 50
270.0
  0
MTEXT
  5
20E74
330
20E30
100
AcDbEntity
  8
寸法
 62
     7
 48
50.0
100
AcDbMText
 10
7331.992479388481
 20
2221.586003308082
 30
0.0
 40
100.0
 41
0.0
 71
     5
 72
     1
  1
\A1;540
  7
STYLE1
 11
0.0000000000000001
 21
1.0
 31
0.0
 73
     1
 44
1.0
1001
ACAD
1000
MTEXTBEGIN
1070
    73
1070
     1
1070
    44
1040
1.0
1070
    74
1070
     0
1000
MTEXTEND
  0
POINT
  5
20E75
330
20E30
100
AcDbEntity
  8
DEFPOINTS
 62
     0
 48
50.0
100
AcDbPoint
 10
8092.637417424546
 20
2711.586003308082
 30
0.0
  0
POINT
  5
20E76
330
20E30
100
AcDbEntity
  8
DEFPOINTS
 62
     0
 48
50.0
100
AcDbPoint
 10
7832.637417424544
 20
1731.586003308081
 30
0.0
  0
POINT
  5
20E77
330
20E30
100
AcDbEntity
  8
DEFPOINTS
 62
     0
 48
50.0
100
AcDbPoint
 10
7406.992479388481
 20
1731.586003308082
 30
0.0
  0
ENDBLK
  5
20E3B
330
20E30
100
AcDbEntity
  8
0
 48
50.0
100
AcDbBlockEnd
  0
BLOCK
  5
20E46
330
20E3C
100
AcDbEntity
  8
0
 48
50.0
100
AcDbBlockBegin
  2
*D65
 70
     1
 10
0.0
 20
0.0
 30
0.0
  3
*D65
  1

  0
LINE
  5
20E78
330
20E3C
100
AcDbEntity
  8
寸法
 62
     0
 48
50.0
370
    -2
100
AcDbLine
 10
8332.637417424544
 20
2736.586003308082
 30
0.0
 11
8332.637417424544
 21
3186.586003308082
 31
0.0
  0
LINE
  5
20E79
330
20E3C
100
AcDbEntity
  8
寸法
 62
     0
 48
50.0
370
    -2
100
AcDbLine
 10
8092.637417424546
 20
2736.586003308082
 30
0.0
 11
8092.637417424546
 21
3186.586003308082
 31
0.0
  0
LINE
  5
20E7A
330
20E3C
100
AcDbEntity
  8
寸法
 62
     0
 48
50.0
370
    -2
100
AcDbLine
 10
8332.637417424544
 20
3111.586003308082
 30
0.0
 11
8092.637417424546
 21
3111.586003308082
 31
0.0
  0
INSERT
  5
20E7B
330
20E3C
100
AcDbEntity
  8
寸法
 62
     0
 48
50.0
370
    -2
100
AcDbBlockReference
  2
_DOTSMALL
 10
8332.637417424544
 20
3111.586003308082
 30
0.0
 41
125.0
 42
125.0
 43
125.0
  0
INSERT
  5
20E7C
330
20E3C
100
AcDbEntity
  8
寸法
 62
     0
 48
50.0
370
    -2
100
AcDbBlockReference
  2
_DOTSMALL
 10
8092.637417424546
 20
3111.586003308082
 30
0.0
 41
125.0
 42
125.0
 43
125.0
 50
180.0
  0
MTEXT
  5
20E7D
330
20E3C
100
AcDbEntity
  8
寸法
 62
     7
 48
50.0
100
AcDbMText
 10
8212.637417424545
 20
3269.9291791611
 30
0.0
 40
100.0
 41
0.0
 71
     5
 72
     1
  1
\A1;120\P195
  7
STYLE1
 73
     1
 44
1.0
1001
ACAD
1000
MTEXTBEGIN
1070
    73
1070
     1
1070
    44
1040
1.0
1070
    74
1070
     0
1000
MTEXTEND
  0
POINT
  5
20E7E
330
20E3C
100
AcDbEntity
  8
DEFPOINTS
 62
     0
 48
50.0
100
AcDbPoint
 10
8332.637417424544
 20
2711.586003308082
 30
0.0
  0
POINT
  5
20E7F
330
20E3C
100
AcDbEntity
  8
DEFPOINTS
 62
     0
 48
50.0
100
AcDbPoint
 10
8092.637417424546
 20
2711.586003308082
 30
0.0
  0
POINT
  5
20E80
330
20E3C
100
AcDbEntity
  8
DEFPOINTS
 62
     0
 48
50.0
100
AcDbPoint
 10
8092.637417424546
 20
3111.586003308082
 30
0.0
  0
ENDBLK
  5
20E47
330
20E3C
100
AcDbEntity
  8
0
 48
50.0
100
AcDbBlockEnd
  0
ENDSEC
  0
SECTION
  2
ENTITIES
  0
MTEXT
  5
763F
330
747D
100
AcDbEntity
  8
0
100
AcDbMText
 10
302.846345836809
 20
280.1983726409901
 30
0.0
 40
3.5
 41
5.323721266742722
 71
     1
 72
     5
  1

  7
MSMINCHO
 73
     1
 44
1.0
1001
ACAD
1000
MTEXTBEGIN
1070
    73
1070
     1
1070
    44
1040
1.0
1070
    74
1070
     0
1000
MTEXTEND
  0
LINE
  5
10B57
330
747D
100
AcDbEntity
  8
補助
  6
PHANTOM
 62
   230
 48
50.0
100
AcDbLine
 10
139.9999999999995
 20
11409.6
 30
0.0
 11
16307.2
 21
11409.6
 31
0.0
  0
LINE
  5
10B59
330
747D
100
AcDbEntity
  8
仕様書枠
  6
Continuous
 48
50.0
100
AcDbLine
 10
13107.2
 20
1200.0
 30
0.0
 11
13107.2
 21
-0.0000000000000729
 31
0.0
  0
LINE
  5
10B5D
330
747D
100
AcDbEntity
  8
仕様書枠
 48
50.0
100
AcDbLine
 10
140.0
 20
0.0
 30
0.0
 11
16307.2
 21
-0.0000000000000909
 31
0.0
  0
LINE
  5
10B5E
330
747D
100
AcDbEntity
  8
補助
  6
PHANTOM
 62
   230
 48
50.0
100
AcDbLine
 10
16307.2
 20
11409.6
 30
0.0
 11
16307.2
 21
1200.0
 31
0.0
  0
LINE
  5
10B6C
330
747D
100
AcDbEntity
  8
仕様書枠
 48
50.0
100
AcDbLine
 10
13107.2
 20
1200.0
 30
0.0
 11
16307.2
 21
1200.0
 31
0.0
  0
TEXT
  5
10B73
330
747D
100
AcDbEntity
  8
文字
 62
     7
 48
50.0
100
AcDbText
 10
13162.9790565769
 20
895.0906074299405
 30
0.0
 40
200.0
  1
基 礎 図
  7
STYLE2
100
AcDbText
  0
LINE
  5
10B7B
330
747D
100
AcDbEntity
  8
仕様書枠
 48
50.0
100
AcDbLine
 10
13107.2
 20
800.0
 30
0.0
 11
14251.2
 21
800.0
 31
0.0
  0
LINE
  5
10B88
330
747D
100
AcDbEntity
  8
仕様書枠
  6
Continuous
 48
50.0
100
AcDbLine
 10
14251.2
 20
1200.0
 30
0.0
 11
14251.2
 21
800.0
 31
0.0
  0
LINE
  5
16462
330
747D
100
AcDbEntity
  8
仕様書枠
 48
50.0
100
AcDbLine
 10
16307.2
 20
1200.0
 30
0.0
 11
16307.2
 21
-0.0000000000000909
 31
0.0
  0
LINE
  5
1903B
330
747D
100
AcDbEntity
  8
補助
  6
PHANTOM
 62
   230
 48
50.0
100
AcDbLine
 10
140.0
 20
0.0
 30
0.0
 11
139.9999999999995
 21
11409.6
 31
0.0
  0
LEADER
  5
1AC27
330
747D
100
AcDbEntity
  8
寸法
 48
50.0
100
AcDbLeader
  3
INABA_S50G
 73
     0
 75
     1
 40
120.0
 41
720.0000000000001
 76
     3
 10
7100.758246013182
 20
5417.89231631728
 30
0.0
 10
6881.703903467526
 20
5007.026463805274
 30
0.0
 10
6756.703903467526
 20
5007.026463805274
 30
0.0
340
1AC28
1001
ACAD
1000
DSTYLE
1002
{
1070
   341
1005
0
1070
    40
1040
1.0
1070
   343
1005
0
1070
   344
1005
0
1002
}
  0
MTEXT
  5
1AC28
102
{ACAD_REACTORS
330
1AC27
102
}
330
747D
100
AcDbEntity
  8
部品1
 62
     7
 48
50.0
100
AcDbMText
 10
6731.703903467526
 20
5092.026463805275
 30
0.0
 40
120.0
 41
0.0
 71
     6
 72
     1
  1
\A1;床下換気口
  7
STYLE1
 73
     1
 44
1.0
1001
ACAD
1000
MTEXTBEGIN
1070
    73
1070
     1
1070
    44
1040
1.0
1070
    74
1070
     0
1000
MTEXTEND
  0
TEXT
  5
1AC29
330
747D
100
AcDbEntity
  8
部品1
 48
50.0
100
AcDbText
 10
10626.72523547413
 20
4857.679679702112
 30
0.0
 40
80.0
  1
(a=100,b=95)
  7
STYLE1
100
AcDbText
  0
TEXT
  5
1AC2A
330
747D
100
AcDbEntity
  8
部品1
 48
50.0
100
AcDbText
 10
10468.14622671982
 20
4964.524900570866
 30
0.0
 40
80.0
  1
※a,bは屋根の出幅です。
  7
STYLE1
100
AcDbText
  0
MTEXT
  5
1AC2B
102
{ACAD_REACTORS
330
1AC2C
102
}
330
747D
100
AcDbEntity
  8
部品1
 62
     7
 48
50.0
100
AcDbMText
 10
11265.93342270843
 20
5143.835587503941
 30
0.0
 40
120.0
 41
0.0
 71
     6
 72
     1
  1
\A1;屋根の外寸
  7
STYLE1
 73
     1
 44
1.0
1001
ACAD
1000
MTEXTBEGIN
1070
    73
1070
     1
1070
    44
1040
1.0
1070
    74
1070
     0
1000
MTEXTEND
  0
LEADER
  5
1AC2C
330
747D
100
AcDbEntity
  8
寸法
 48
50.0
100
AcDbLeader
  3
INABA_S50G
 73
     0
 74
     0
 75
     1
 40
120.0
 41
672.0
 76
     3
 10
10327.99341051639
 20
5317.724930967518
 30
0.0
 10
10443.93342270843
 20
5058.835587503942
 30
0.0
 10
10568.93342270843
 20
5058.835587503942
 30
0.0
340
1AC2B
1001
ACAD
1000
DSTYLE
1002
{
1070
   341
1005
0
1070
    40
1040
1.0
1070
   343
1005
0
1070
   344
1005
0
1002
}
  0
TEXT
  5
1C7A1
330
747D
100
AcDbEntity
  8
文字
 62
     7
 48
50.0
100
AcDbText
 10
13188.16259899338
 20
79.80631269190417
 30
0.0
 40
80.0
  1
※布基礎には換気口を設けてください。
  7
STYLE2
100
AcDbText
  0
TEXT
  5
1C7E7
330
747D
100
AcDbEntity
  8
文字
 62
     7
 48
50.0
100
AcDbText
 10
13188.16259899338
 20
246.7109242801889
 30
0.0
 40
80.0
  1
※寒冷地等は地域の実情に合わせた基礎にして下さい。
  7
STYLE2
100
AcDbText
  0
TEXT
  5
1C7E8
330
747D
100
AcDbEntity
  8
文字
 62
     7
 48
50.0
100
AcDbText
 10
14478.98566430227
 20
499.5983841039506
 30
0.0
 40
160.0
  1
ＫＸＮ－１２１Ｈ
  7
STYLE2
100
AcDbText
  0
TEXT
  5
1C7E9
330
747D
100
AcDbEntity
  8
文字
 62
     7
 48
50.0
100
AcDbText
 10
14641.2525855784
 20
871.1744590657927
 30
0.0
 40
100.0
  1
～一般型・多雪地型～
  7
STYLE2
100
AcDbText
  0
TEXT
  5
1C7EC
330
747D
100
AcDbEntity
  8
文字
 62
     7
 48
50.0
100
AcDbText
 10
14921.49787333448
 20
1031.557706291229
 30
0.0
 40
100.0
  1
<縮尺> S=1/40
  7
STYLE2
100
AcDbText
  0
TEXT
  5
1C7ED
330
747D
100
AcDbEntity
  8
文字
 62
     7
 48
50.0
100
AcDbText
 10
13201.43669998441
 20
477.2740661031257
 30
0.0
 40
160.0
  1
機種名
  7
STYLE2
100
AcDbText
  0
LINE
  5
1C7EF
330
747D
100
AcDbEntity
  8
文字
 62
     7
 48
50.0
100
AcDbLine
 10
13187.2
 20
400.0
 30
0.0
 11
16227.2
 21
400.0
 31
0.0
  0
MTEXT
  5
1D2D5
102
{ACAD_REACTORS
330
1D2D6
102
}
330
747D
100
AcDbEntity
  8
部品1
 62
     7
 48
50.0
100
AcDbMText
 10
5272.561841546922
 20
8911.478674822495
 30
0.0
 40
120.0
 41
0.0
 71
     6
 72
     1
  1
アンカーボルト
  7
STYLE1
 73
     1
 44
1.0
1001
ACAD
1000
MTEXTBEGIN
1070
    73
1070
     1
1070
    44
1040
1.0
1070
    74
1070
     0
1000
MTEXTEND
  0
LEADER
  5
1D2D6
330
747D
100
AcDbEntity
  8
寸法
 48
50.0
100
AcDbLeader
  3
INABA_S50G
 73
     0
 75
     1
 40
120.0
 41
994.3492424049171
 76
     3
 10
6033.285857662602
 20
7978.06603064954
 30
0.0
 10
5422.561841546922
 20
8826.478674822494
 30
0.0
 10
5297.561841546922
 20
8826.478674822494
 30
0.0
340
1D2D5
1001
ACAD
1000
DSTYLE
1002
{
1070
   341
1005
0
1070
    40
1040
1.0
1070
   343
1005
0
1070
   344
1005
0
1002
}
  0
MTEXT
  5
1D332
102
{ACAD_REACTORS
330
1D333
102
}
330
747D
100
AcDbEntity
  8
部品1
 62
     7
 48
50.0
100
AcDbMText
 10
9480.522552346746
 20
6920.094095558141
 30
0.0
 40
120.0
 41
0.0
 71
     6
 72
     1
  1
CB
  7
STYLE1
 73
     1
 44
1.0
1001
ACAD
1000
MTEXTBEGIN
1070
    73
1070
     1
1070
    44
1040
1.0
1070
    74
1070
     0
1000
MTEXTEND
  0
LEADER
  5
1D333
330
747D
100
AcDbEntity
  8
寸法
 48
50.0
100
AcDbLeader
  3
INABA_S50G
 73
     0
 74
     0
 75
     1
 40
120.0
 41
149.591883092037
 76
     3
 10
9040.371441190169
 20
7096.108009125974
 30
0.0
 10
9180.930669254712
 20
6835.094095558142
 30
0.0
 10
9305.930669254712
 20
6835.094095558142
 30
0.0
340
1D332
1001
ACAD
1000
DSTYLE
1002
{
1070
   341
1005
0
1070
    40
1040
1.0
1070
   343
1005
0
1070
   344
1005
0
1002
}
  0
DIMENSION
  5
1E034
330
747D
100
AcDbEntity
  8
寸法
 48
50.0
100
AcDbDimension
  2
*D19
 10
9943.225435690621
 20
8077.898251426235
 30
0.0
 11
9943.225435690621
 21
8337.524455584201
 31
0.0
 70
   160
 71
     5
 42
119.9999999999991
  3
INABA_S40G
100
AcDbAlignedDimension
 13
9651.100000000003
 23
7957.898251426236
 33
0.0
 14
9651.100000000001
 24
8077.898251426235
 34
0.0
 50
90.0
100
AcDbRotatedDimension
1001
ACAD
1000
DSTYLE
1002
{
1070
   341
1005
0
1002
}
  0
DIMENSION
  5
1E035
330
747D
100
AcDbEntity
  8
寸法
 48
50.0
100
AcDbDimension
  2
*D20
 10
6033.6
 20
8823.657877968319
 30
0.0
 11
7087.100000000001
 21
8923.669688991941
 31
0.0
 70
    32
 71
     5
 42
2107.0
  3
INABA_S40G
100
AcDbAlignedDimension
 13
8140.6
 23
8082.898251426234
 33
0.0
 14
6033.6
 24
8027.898251426234
 34
0.0
100
AcDbRotatedDimension
1001
ACAD
1000
DSTYLE
1002
{
1070
   341
1005
0
1002
}
  0
LINE
  5
1E036
102
{ACAD_REACTORS
330
20735
330
2073C
102
}
330
747D
100
AcDbEntity
  8
部品1
 48
50.0
100
AcDbLine
 10
10338.6
 20
7957.898251426233
 30
0.0
 11
6108.600000000003
 21
7957.898251426239
 31
0.0
  0
LINE
  5
1E037
102
{ACAD_REACTORS
330
20735
330
2073C
102
}
330
747D
100
AcDbEntity
  8
部品1
 48
50.0
100
AcDbLine
 10
10458.6
 20
8077.898251426235
 30
0.0
 11
5988.6
 21
8077.898251426235
 31
0.0
  0
DIMENSION
  5
1E038
330
747D
100
AcDbEntity
  8
寸法
 48
50.0
100
AcDbDimension
  2
*D21
 10
10458.6
 20
9036.118573485156
 30
0.0
 11
8223.600000000001
 21
9036.118573485156
 31
0.0
 70
   160
 71
     5
 42
4470.0
  3
INABA_S40G
100
AcDbAlignedDimension
 13
5988.6
 23
8077.898251426235
 33
0.0
 14
10458.6
 24
8077.898251426235
 34
0.0
100
AcDbRotatedDimension
1001
ACAD
1000
DSTYLE
1002
{
1070
   341
1005
0
1002
}
  0
LINE
  5
1E03F
330
747D
100
AcDbEntity
  8
想像線
 48
10.0
100
AcDbLine
 10
10553.6
 20
5317.898251426232
 30
0.0
 11
5893.600000000001
 21
5317.898251426235
 31
0.0
  0
LINE
  5
1E040
102
{ACAD_REACTORS
330
20750
330
20763
102
}
330
747D
100
AcDbEntity
  8
部品1
 48
50.0
100
AcDbLine
 10
10338.6
 20
5537.898251426253
 30
0.0
 11
6108.6
 21
5537.898251426239
 31
0.0
  0
LINE
  5
1E041
102
{ACAD_REACTORS
330
20750
330
20763
102
}
330
747D
100
AcDbEntity
  8
部品1
 48
50.0
100
AcDbLine
 10
10458.6
 20
5417.898251426254
 30
0.0
 11
5988.599999999999
 21
5417.898251426217
 31
0.0
  0
DIMENSION
  5
1E042
330
747D
100
AcDbEntity
  8
寸法
 48
50.0
100
AcDbDimension
  2
*D22
 10
8223.600000000001
 20
7495.20945581486
 30
0.0
 11
7306.864159737161
 21
7626.468497592941
 31
0.0
 70
   160
 71
     5
 42
2235.0
  3
INABA_S40G
100
AcDbAlignedDimension
 13
5988.6
 23
7415.716265292161
 33
0.0
 14
8223.600000000001
 24
7267.898251426236
 34
0.0
100
AcDbRotatedDimension
1001
ACAD
1000
DSTYLE
1002
{
1070
   279
1070
     2
1070
   341
1005
0
1002
}
  0
LINE
  5
1E043
102
{ACAD_REACTORS
330
20747
102
}
330
747D
100
AcDbEntity
  8
部品1
 48
50.0
100
AcDbLine
 10
6108.6
 20
5537.898251426239
 30
0.0
 11
6108.600000000003
 21
7957.898251426239
 31
0.0
  0
DIMENSION
  5
1E044
330
747D
100
AcDbEntity
  8
寸法
 48
50.0
100
AcDbDimension
  2
*D23
 10
5492.657733986177
 20
5517.898251426237
 30
0.0
 11
5392.645922962555
 21
6747.898251426237
 31
0.0
 70
    32
 71
     5
 42
2459.999999999999
  3
INABA_S40G
100
AcDbAlignedDimension
 13
5983.6
 23
7977.898251426235
 33
0.0
 14
5983.6
 24
5517.898251426237
 34
0.0
 50
90.0
100
AcDbRotatedDimension
1001
ACAD
1000
DSTYLE
1002
{
1070
   341
1005
0
1002
}
  0
LINE
  5
1E045
102
{ACAD_REACTORS
330
20747
102
}
330
747D
100
AcDbEntity
  8
部品1
 48
50.0
100
AcDbLine
 10
5988.6
 20
5417.898251426235
 30
0.0
 11
5988.6
 21
8077.898251426235
 31
0.0
  0
DIMENSION
  5
1E046
330
747D
100
AcDbEntity
  8
寸法
 48
50.0
100
AcDbDimension
  2
*D24
 10
6344.332862152264
 20
8077.898251426228
 30
0.0
 11
6344.332862152263
 21
7622.898251426228
 31
0.0
 70
   160
 71
     5
 42
910.0
  3
INABA_S40G
100
AcDbAlignedDimension
 13
6500.6
 23
7167.898251426229
 33
0.0
 14
6651.100000000001
 24
8077.898251426228
 34
0.0
 50
90.0
100
AcDbRotatedDimension
1001
ACAD
1000
DSTYLE
1002
{
1070
   341
1005
0
1002
}
  0
DIMENSION
  5
1E047
330
747D
100
AcDbEntity
  8
寸法
 48
50.0
100
AcDbDimension
  2
*D25
 10
5247.16493184821
 20
5417.898251426235
 30
0.0
 11
5147.153120824587
 21
6747.898251426235
 31
0.0
 70
    32
 71
     5
 42
2660.0
  3
INABA_S40G
100
AcDbAlignedDimension
 13
5988.6
 23
8077.898251426235
 33
0.0
 14
5988.6
 24
5417.898251426235
 34
0.0
 50
90.0
100
AcDbRotatedDimension
1001
ACAD
1000
DSTYLE
1002
{
1070
   341
1005
0
1002
}
  0
DIMENSION
  5
1E048
330
747D
100
AcDbEntity
  8
寸法
 48
50.0
100
AcDbDimension
  2
*D26
 10
5492.657733986178
 20
5417.898251426235
 30
0.0
 11
5492.657733986177
 21
5052.839196308124
 31
0.0
 70
   160
 71
     5
 42
100.0000000000018
  3
INABA_S40G
100
AcDbAlignedDimension
 13
5983.6
 23
5517.898251426237
 33
0.0
 14
5988.6
 24
5417.898251426235
 34
0.0
 50
90.0
100
AcDbRotatedDimension
1001
ACAD
1000
DSTYLE
1002
{
1070
   341
1005
0
1002
}
  0
LINE
  5
1E049
330
747D
100
AcDbEntity
  8
想像線
 48
10.0
100
AcDbLine
 10
5893.600000000001
 20
5317.898251426235
 30
0.0
 11
5893.600000000001
 21
8177.898251426233
 31
0.0
  0
DIMENSION
  5
1E04A
330
747D
100
AcDbEntity
  8
寸法
 48
50.0
100
AcDbDimension
  2
*D27
 10
5247.16493184821
 20
5317.898251426235
 30
0.0
 11
5147.164931848209
 21
5367.898251426236
 31
0.0
 70
    32
  1
a
 71
     5
 42
100.0
  3
INABA_S40G
100
AcDbAlignedDimension
 13
5988.6
 23
5417.898251426235
 33
0.0
 14
5492.657733986177
 24
5317.898251426235
 34
0.0
 50
90.0
100
AcDbRotatedDimension
1001
ACAD
1000
DSTYLE
1002
{
1070
   341
1005
0
1002
}
  0
DIMENSION
  5
1E04B
330
747D
100
AcDbEntity
  8
寸法
 48
50.0
100
AcDbDimension
  2
*D28
 10
6344.332862152263
 20
7167.898251426229
 30
0.0
 11
6244.332862152262
 21
6747.898251426234
 31
0.0
 70
    32
 71
     5
 42
839.9999999999909
  3
INABA_S40G
100
AcDbAlignedDimension
 13
6500.6
 23
6327.898251426237
 33
0.0
 14
6500.6
 24
7167.898251426229
 34
0.0
 50
90.0
100
AcDbRotatedDimension
1001
ACAD
1000
DSTYLE
1002
{
1070
   341
1005
0
1002
}
  0
LINE
  5
1E04C
330
747D
100
AcDbEntity
  8
センター
 48
2.0
100
AcDbLine
 10
5983.6
 20
5517.898251426237
 30
0.0
 11
6083.6
 21
5517.898251426237
 31
0.0
  0
LINE
  5
1E04D
330
747D
100
AcDbEntity
  8
センター
 48
2.0
100
AcDbLine
 10
6033.6
 20
5567.898251426237
 30
0.0
 11
6033.6
 21
5467.898251426237
 31
0.0
  0
DIMENSION
  5
1E04E
330
747D
100
AcDbEntity
  8
寸法
 48
50.0
100
AcDbDimension
  2
*D29
 10
6344.332862152263
 20
6327.898251426237
 30
0.0
 11
6244.332862152262
 21
5872.898251426204
 31
0.0
 70
    32
 71
     5
 42
910.000000000069
  3
INABA_S40G
100
AcDbAlignedDimension
 13
6651.100000000027
 23
5417.898251426168
 33
0.0
 14
6500.6
 24
6327.898251426237
 34
0.0
 50
90.0
100
AcDbRotatedDimension
1001
ACAD
1000
DSTYLE
1002
{
1070
   341
1005
0
1002
}
  0
LINE
  5
1E04F
102
{ACAD_REACTORS
330
20750
102
}
330
747D
100
AcDbEntity
  8
部品1
 48
50.0
100
AcDbLine
 10
7006.100000000026
 20
5537.898251426241
 30
0.0
 11
7006.100000000028
 21
5417.898251426175
 31
0.0
  0
LINE
  5
1E052
102
{ACAD_REACTORS
330
20747
102
}
330
747D
100
AcDbEntity
  8
部品1
 48
50.0
100
AcDbLine
 10
6108.600000000002
 20
6647.898251426235
 30
0.0
 11
5988.6
 21
6647.898251426235
 31
0.0
  0
LINE
  5
1E054
102
{ACAD_REACTORS
330
20747
102
}
330
747D
100
AcDbEntity
  8
部品1
 48
50.0
100
AcDbLine
 10
6108.600000000002
 20
6847.898251426236
 30
0.0
 11
5988.6
 21
6847.898251426236
 31
0.0
  0
DIMENSION
  5
1E055
330
747D
100
AcDbEntity
  8
寸法
 48
50.0
100
AcDbDimension
  2
*D30
 10
5988.599999999999
 20
7055.063980868311
 30
0.0
 11
5752.55275590551
 21
7055.063980868311
 31
0.0
 70
   160
 71
     5
 42
120.0000000000036
  3
INABA_S40G
100
AcDbAlignedDimension
 13
6108.600000000002
 23
6847.898251426236
 33
0.0
 14
5988.599999999999
 24
6847.898251426236
 34
0.0
100
AcDbRotatedDimension
1001
ACAD
1000
DSTYLE
1002
{
1070
   341
1005
0
1002
}
  0
DIMENSION
  5
1E058
330
747D
100
AcDbEntity
  8
寸法
 48
50.0
100
AcDbDimension
  2
*D31
 10
5247.16493184821
 20
8077.898251426235
 30
0.0
 11
5147.164931848209
 21
8127.898251426234
 31
0.0
 70
    32
  1
a
 71
     5
 42
99.99999999999637
  3
INABA_S40G
100
AcDbAlignedDimension
 13
5492.657733986177
 23
8177.898251426233
 33
0.0
 14
5988.6
 24
8077.898251426235
 34
0.0
 50
90.0
100
AcDbRotatedDimension
1001
ACAD
1000
DSTYLE
1002
{
1070
   341
1005
0
1002
}
  0
DIMENSION
  5
1E05B
330
747D
100
AcDbEntity
  8
寸法
 48
50.0
100
AcDbDimension
  2
*D32
 10
5988.6
 20
9036.118573485158
 30
0.0
 11
5710.881723496926
 21
9036.118573485158
 31
0.0
 70
   160
  1
b
 71
     5
 42
95.0
  3
INABA_S40G
100
AcDbAlignedDimension
 13
5893.600000000001
 23
8823.657877968315
 33
0.0
 14
5988.6
 24
8077.898251426235
 34
0.0
100
AcDbRotatedDimension
1001
ACAD
1000
DSTYLE
1002
{
1070
   341
1005
0
1002
}
  0
DIMENSION
  5
1E05C
330
747D
100
AcDbEntity
  8
寸法
 48
50.0
100
AcDbDimension
  2
*D33
 10
5988.6
 20
8823.657877968319
 30
0.0
 11
5620.493398282202
 21
8823.657877968319
 31
0.0
 70
   160
 71
     5
 42
45.0
  3
INABA_S40G
100
AcDbAlignedDimension
 13
6033.6
 23
8027.898251426234
 33
0.0
 14
5988.6
 24
8077.898251426235
 34
0.0
100
AcDbRotatedDimension
1001
ACAD
1000
DSTYLE
1002
{
1070
   341
1005
0
1002
}
  0
LINE
  5
1E05D
330
747D
100
AcDbEntity
  8
センター
 48
2.0
100
AcDbLine
 10
5983.6
 20
7977.898251426235
 30
0.0
 11
6083.6
 21
7977.898251426235
 31
0.0
  0
LINE
  5
1E05E
330
747D
100
AcDbEntity
  8
部品1
 48
50.0
100
AcDbLine
 10
6387.928907166848
 20
8077.898251426232
 30
0.0
 11
5988.6
 21
8077.898251426235
 31
0.0
  0
DIMENSION
  5
1E05F
330
747D
100
AcDbEntity
  8
寸法
 48
50.0
100
AcDbDimension
  2
*D34
 10
5492.657733986178
 20
7977.898251426235
 30
0.0
 11
5492.657733986177
 21
8442.957306544347
 31
0.0
 70
   160
 71
     5
 42
100.0
  3
INABA_S40G
100
AcDbAlignedDimension
 13
5988.6
 23
8077.898251426235
 33
0.0
 14
5983.6
 24
7977.898251426235
 34
0.0
 50
90.0
100
AcDbRotatedDimension
1001
ACAD
1000
DSTYLE
1002
{
1070
   341
1005
0
1002
}
  0
LINE
  5
1E060
330
747D
100
AcDbEntity
  8
センター
 48
2.0
100
AcDbLine
 10
6033.6
 20
8027.898251426234
 30
0.0
 11
6033.6
 21
7927.898251426235
 31
0.0
  0
LINE
  5
1E061
102
{ACAD_REACTORS
330
2073C
102
}
330
747D
100
AcDbEntity
  8
部品1
 48
50.0
100
AcDbLine
 10
7006.1
 20
8077.898251426235
 30
0.0
 11
7006.100000000003
 21
7957.898251426239
 31
0.0
  0
DIMENSION
  5
1E062
330
747D
100
AcDbEntity
  8
寸法
 48
50.0
100
AcDbDimension
  2
*D35
 10
8589.046686947124
 20
7957.898251426238
 30
0.0
 11
8589.046686947122
 21
7649.412970052001
 31
0.0
 70
   160
 71
     5
 42
74.99999999999727
  3
INABA_S40G
100
AcDbAlignedDimension
 13
8190.600000000008
 23
8032.898251426235
 33
0.0
 14
8190.600000000008
 24
7957.898251426238
 34
0.0
 50
90.0
100
AcDbRotatedDimension
1001
ACAD
1000
DSTYLE
1002
{
1070
   341
1005
0
1002
}
  0
LINE
  5
1E064
102
{ACAD_REACTORS
330
2076A
102
}
330
747D
100
AcDbEntity
  8
部品1
 48
50.0
100
AcDbLine
 10
10533.59999999999
 20
8077.898251426235
 30
0.0
 11
10533.60000000001
 21
5879.898251426236
 31
0.0
  0
LINE
  5
1E066
102
{ACAD_REACTORS
330
2076A
102
}
330
747D
100
AcDbEntity
  8
部品1
 48
50.0
100
AcDbLine
 10
10338.6
 20
5537.898251426253
 30
0.0
 11
10338.6
 21
7957.898251426233
 31
0.0
  0
DIMENSION
  5
1E06B
330
747D
100
AcDbEntity
  8
寸法
 48
50.0
100
AcDbDimension
  2
*D36
 10
8589.046686947124
 20
5417.898251426235
 30
0.0
 11
8589.046686947122
 21
5103.412970051998
 31
0.0
 70
   160
 71
     5
 42
45.00000000000182
  3
INABA_S40G
100
AcDbAlignedDimension
 13
8190.600000000008
 23
5462.898251426237
 33
0.0
 14
8190.600000000008
 24
5417.898251426235
 34
0.0
 50
90.0
100
AcDbRotatedDimension
1001
ACAD
1000
DSTYLE
1002
{
1070
   341
1005
0
1002
}
  0
LINE
  5
1E06C
330
747D
100
AcDbEntity
  8
センター
 48
10.0
100
AcDbLine
 10
8140.600000000011
 20
5182.898251426244
 30
0.0
 11
8140.600000000011
 21
5422.898251426236
 31
0.0
  0
DIMENSION
  5
1E06D
330
747D
100
AcDbEntity
  8
寸法
 48
50.0
100
AcDbDimension
  2
*D37
 10
9936.494056711406
 20
5537.898251426251
 30
0.0
 11
9936.494056711405
 21
5081.609946458295
 31
0.0
 70
   160
 71
     5
 42
120.0000000000755
  3
INABA_S40G
100
AcDbAlignedDimension
 13
9651.100000000027
 23
5417.898251426175
 33
0.0
 14
9651.100000000024
 24
5537.898251426251
 34
0.0
 50
90.0
100
AcDbRotatedDimension
1001
ACAD
1000
DSTYLE
1002
{
1070
   341
1005
0
1002
}
  0
LINE
  5
1E06E
330
747D
100
AcDbEntity
  8
想像線
 48
10.0
100
AcDbLine
 10
10553.6
 20
8177.898251426228
 30
0.0
 11
10553.6
 21
5317.898251426235
 31
0.0
  0
LINE
  5
1E06F
330
747D
100
AcDbEntity
  8
寸法
 48
50.0
100
AcDbLine
 10
8140.600000000011
 20
5182.898251426244
 30
0.0
 11
7840.600000000012
 21
5182.898251426244
 31
0.0
  0
LINE
  5
1E072
330
747D
100
AcDbEntity
  8
寸法
 48
50.0
100
AcDbLine
 10
7840.600000000012
 20
5182.898251426244
 30
0.0
 11
7985.488873943372
 21
5221.721108191621
 31
0.0
  0
LINE
  5
1E073
330
747D
100
AcDbEntity
  8
寸法
 48
50.0
100
AcDbLine
 10
7985.488873943372
 20
5221.721108191621
 30
0.0
 11
7985.488873943372
 21
5121.721108191621
 31
0.0
  0
DIMENSION
  5
1E074
330
747D
100
AcDbEntity
  8
寸法
 48
50.0
100
AcDbDimension
  2
*D38
 10
10533.6
 20
7495.20945581486
 30
0.0
 11
9378.600000000004
 21
7595.221266838482
 31
0.0
 70
    32
 71
     5
 42
2310.000000000002
  3
INABA_S40G
100
AcDbAlignedDimension
 13
8223.600000000001
 23
7267.898251426236
 33
0.0
 14
10533.6
 24
7267.898251426235
 34
0.0
100
AcDbRotatedDimension
1001
ACAD
1000
DSTYLE
1002
{
1070
   341
1005
0
1002
}
  0
LINE
  5
1E075
330
747D
100
AcDbEntity
  8
寸法
 48
50.0
100
AcDbLine
 10
8140.600000000008
 20
5762.898251426237
 30
0.0
 11
7840.600000000008
 21
5762.898251426237
 31
0.0
  0
LINE
  5
1E076
330
747D
100
AcDbEntity
  8
センター
 48
2.0
100
AcDbLine
 10
8090.600000000007
 20
5462.898251426237
 30
0.0
 11
8190.600000000008
 21
5462.898251426237
 31
0.0
  0
LINE
  5
1E078
102
{ACAD_REACTORS
330
20750
102
}
330
747D
100
AcDbEntity
  8
部品1
 48
50.0
100
AcDbLine
 10
7206.100000000026
 20
5537.898251426242
 30
0.0
 11
7206.100000000027
 21
5417.898251426175
 31
0.0
  0
LINE
  5
1E079
330
747D
100
AcDbEntity
  8
寸法
 48
50.0
100
AcDbLine
 10
7840.600000000008
 20
5762.898251426237
 30
0.0
 11
7985.488873943369
 21
5801.721108191616
 31
0.0
  0
LINE
  5
1E07A
330
747D
100
AcDbEntity
  8
寸法
 48
50.0
100
AcDbLine
 10
7985.488873943369
 20
5801.721108191616
 30
0.0
 11
7985.488873943369
 21
5701.721108191616
 31
0.0
  0
DIMENSION
  5
1E07C
330
747D
100
AcDbEntity
  8
寸法
 48
50.0
100
AcDbDimension
  2
*D39
 10
8589.046686947124
 20
5537.898251426245
 30
0.0
 11
8589.046686947122
 21
5846.383532800484
 31
0.0
 70
   160
 71
     5
 42
75.00000000000818
  3
INABA_S40G
100
AcDbAlignedDimension
 13
8190.600000000008
 23
5462.898251426237
 33
0.0
 14
8190.600000000006
 24
5537.898251426245
 34
0.0
 50
90.0
100
AcDbRotatedDimension
1001
ACAD
1000
DSTYLE
1002
{
1070
   341
1005
0
1002
}
  0
LINE
  5
1E07D
330
747D
100
AcDbEntity
  8
センター
 48
10.0
100
AcDbLine
 10
8140.600000000008
 20
5522.898251426246
 30
0.0
 11
8140.600000000008
 21
5762.898251426237
 31
0.0
  0
LINE
  5
1E07E
330
747D
100
AcDbEntity
  8
センター
 48
2.0
100
AcDbLine
 10
8140.600000000008
 20
5512.898251426237
 30
0.0
 11
8140.600000000008
 21
5412.898251426237
 31
0.0
  0
LINE
  5
1E07F
330
747D
100
AcDbEntity
  8
部品1
 48
50.0
100
AcDbLine
 10
8323.6
 20
6427.898251426235
 30
0.0
 11
8123.600000000001
 21
6427.898251426235
 31
0.0
  0
LINE
  5
1E080
330
747D
100
AcDbEntity
  8
センター
 48
2.0
100
AcDbLine
 10
8223.600000000001
 20
6377.898251426235
 30
0.0
 11
8223.600000000001
 21
6277.898251426235
 31
0.0
  0
LINE
  5
1E081
330
747D
100
AcDbEntity
  8
部品1
 48
50.0
100
AcDbLine
 10
8323.6
 20
6227.898251426234
 30
0.0
 11
8123.600000000001
 21
6227.898251426234
 31
0.0
  0
LINE
  5
1E082
330
747D
100
AcDbEntity
  8
センター
 48
2.0
100
AcDbLine
 10
8173.6
 20
6327.898251426235
 30
0.0
 11
8273.6
 21
6327.898251426235
 31
0.0
  0
LINE
  5
1E083
330
747D
100
AcDbEntity
  8
部品1
 48
50.0
100
AcDbLine
 10
8123.600000000001
 20
6227.898251426235
 30
0.0
 11
8123.600000000001
 21
6427.898251426235
 31
0.0
  0
LINE
  5
1E084
330
747D
100
AcDbEntity
  8
部品1
 48
50.0
100
AcDbLine
 10
8323.6
 20
6227.898251426234
 30
0.0
 11
8323.6
 21
6427.898251426235
 31
0.0
  0
LINE
  5
1E086
330
747D
100
AcDbEntity
  8
センター
 48
2.0
100
AcDbLine
 10
8223.600000000001
 20
7217.898251426236
 30
0.0
 11
8223.600000000001
 21
7117.898251426236
 31
0.0
  0
LINE
  5
1E087
330
747D
100
AcDbEntity
  8
部品1
 48
50.0
100
AcDbLine
 10
8323.6
 20
7267.898251426236
 30
0.0
 11
8123.600000000001
 21
7267.898251426236
 31
0.0
  0
LINE
  5
1E088
330
747D
100
AcDbEntity
  8
センター
 48
2.0
100
AcDbLine
 10
8173.6
 20
7167.898251426236
 30
0.0
 11
8273.6
 21
7167.898251426236
 31
0.0
  0
LINE
  5
1E089
330
747D
100
AcDbEntity
  8
部品1
 48
50.0
100
AcDbLine
 10
8323.6
 20
7067.898251426233
 30
0.0
 11
8123.600000000001
 21
7067.898251426233
 31
0.0
  0
LINE
  5
1E08A
330
747D
100
AcDbEntity
  8
部品1
 48
50.0
100
AcDbLine
 10
8323.6
 20
7067.898251426233
 30
0.0
 11
8323.6
 21
7267.898251426236
 31
0.0
  0
LINE
  5
1E08B
330
747D
100
AcDbEntity
  8
部品1
 48
50.0
100
AcDbLine
 10
8123.600000000001
 20
7067.898251426235
 30
0.0
 11
8123.600000000001
 21
7267.898251426236
 31
0.0
  0
LINE
  5
1E08E
102
{ACAD_REACTORS
330
20763
102
}
330
747D
100
AcDbEntity
  8
部品1
 48
50.0
100
AcDbLine
 10
9241.100000000026
 20
5537.898251426248
 30
0.0
 11
9241.100000000027
 21
5417.898251426175
 31
0.0
  0
LINE
  5
1E08F
102
{ACAD_REACTORS
330
20763
102
}
330
747D
100
AcDbEntity
  8
部品1
 48
50.0
100
AcDbLine
 10
9441.100000000025
 20
5537.898251426249
 30
0.0
 11
9441.100000000027
 21
5417.898251426175
 31
0.0
  0
LINE
  5
1E096
330
747D
100
AcDbEntity
  8
部品1
 48
50.0
100
AcDbLine
 10
10458.6
 20
5417.898251426254
 30
0.0
 11
10458.6
 21
5879.898251426236
 31
0.0
  0
LINE
  5
1E097
330
747D
100
AcDbEntity
  8
センター
 48
2.0
100
AcDbLine
 10
10363.60000000001
 20
5517.898251426237
 30
0.0
 11
10463.60000000001
 21
5517.898251426237
 31
0.0
  0
LINE
  5
1E098
330
747D
100
AcDbEntity
  8
センター
 48
2.0
100
AcDbLine
 10
10413.6
 20
5567.898251426237
 30
0.0
 11
10413.6
 21
5467.898251426237
 31
0.0
  0
LINE
  5
1E09E
330
747D
100
AcDbEntity
  8
部品1
 48
50.0
100
AcDbLine
 10
10533.59999999999
 20
5879.898251426236
 30
0.0
 11
10458.60000000001
 21
5879.898251426236
 31
0.0
  0
LINE
  5
1E160
102
{ACAD_REACTORS
330
2076A
102
}
330
747D
100
AcDbEntity
  8
部品1
 48
50.0
100
AcDbLine
 10
10533.6
 20
6647.898251426235
 30
0.0
 11
10338.6
 21
6647.898251426235
 31
0.0
  0
LINE
  5
1E198
102
{ACAD_REACTORS
330
2076A
102
}
330
747D
100
AcDbEntity
  8
部品1
 48
50.0
100
AcDbLine
 10
10533.6
 20
6847.898251426236
 30
0.0
 11
10338.6
 21
6847.898251426234
 31
0.0
  0
DIMENSION
  5
1E232
330
747D
100
AcDbEntity
  8
寸法
 48
50.0
100
AcDbDimension
  2
*D40
 10
8140.6
 20
8823.657877968319
 30
0.0
 11
9277.1
 21
8923.669688991941
 31
0.0
 70
    32
 71
     5
 42
2273.0
  3
INABA_S40G
100
AcDbAlignedDimension
 13
10413.6
 23
8027.898251426234
 33
0.0
 14
8140.6
 24
8082.898251426234
 34
0.0
100
AcDbRotatedDimension
1001
ACAD
1000
DSTYLE
1002
{
1070
   341
1005
0
1002
}
  0
LINE
  5
1E233
330
747D
100
AcDbEntity
  8
センター
 48
2.0
100
AcDbLine
 10
8090.6
 20
8032.898251426235
 30
0.0
 11
8190.600000000001
 21
8032.898251426235
 31
0.0
  0
LINE
  5
1E234
102
{ACAD_REACTORS
330
2073C
102
}
330
747D
100
AcDbEntity
  8
部品1
 48
50.0
100
AcDbLine
 10
7206.100000000001
 20
8077.898251426235
 30
0.0
 11
7206.100000000003
 21
7957.898251426238
 31
0.0
  0
DIMENSION
  5
1E235
330
747D
100
AcDbEntity
  8
寸法
 48
50.0
100
AcDbDimension
  2
*D41
 10
8589.046686947124
 20
8077.898251426235
 30
0.0
 11
8589.046686947122
 21
8392.383532800476
 31
0.0
 70
   160
 71
     5
 42
45.0
  3
INABA_S40G
100
AcDbAlignedDimension
 13
8190.600000000008
 23
8032.898251426235
 33
0.0
 14
8190.600000000008
 24
8077.898251426235
 34
0.0
 50
90.0
100
AcDbRotatedDimension
1001
ACAD
1000
DSTYLE
1002
{
1070
   341
1005
0
1002
}
  0
LINE
  5
1E236
330
747D
100
AcDbEntity
  8
センター
 48
2.0
100
AcDbLine
 10
8140.6
 20
8082.898251426234
 30
0.0
 11
8140.6
 21
7982.898251426234
 31
0.0
  0
DIMENSION
  5
1E237
330
747D
100
AcDbEntity
  8
寸法
 48
50.0
100
AcDbDimension
  2
*D42
 10
10553.6
 20
9036.118573485158
 30
0.0
 11
10736.31827650307
 21
9036.118573485158
 31
0.0
 70
   160
  1
b
 71
     5
 42
95.0
  3
INABA_S40G
100
AcDbAlignedDimension
 13
10458.6
 23
8077.898251426235
 33
0.0
 14
10553.6
 24
8823.657877968321
 34
0.0
100
AcDbRotatedDimension
1001
ACAD
1000
DSTYLE
1002
{
1070
   341
1005
0
1002
}
  0
DIMENSION
  5
1E238
330
747D
100
AcDbEntity
  8
寸法
 48
50.0
100
AcDbDimension
  2
*D43
 10
10413.6
 20
8823.657877968319
 30
0.0
 11
10826.7066017178
 21
8823.657877968319
 31
0.0
 70
   160
 71
     5
 42
45.0
  3
INABA_S40G
100
AcDbAlignedDimension
 13
10458.6
 23
8077.898251426235
 33
0.0
 14
10413.6
 24
8027.898251426234
 34
0.0
100
AcDbRotatedDimension
1001
ACAD
1000
DSTYLE
1002
{
1070
   341
1005
0
1002
}
  0
LINE
  5
1E23A
102
{ACAD_REACTORS
330
20735
102
}
330
747D
100
AcDbEntity
  8
部品1
 48
50.0
100
AcDbLine
 10
9241.100000000001
 20
8077.898251426235
 30
0.0
 11
9241.100000000002
 21
7957.898251426236
 31
0.0
  0
LINE
  5
1E23B
102
{ACAD_REACTORS
330
20735
102
}
330
747D
100
AcDbEntity
  8
部品1
 48
50.0
100
AcDbLine
 10
9441.1
 20
8077.898251426235
 30
0.0
 11
9441.100000000004
 21
7957.898251426236
 31
0.0
  0
LINE
  5
1E23C
330
747D
100
AcDbEntity
  8
センター
 48
2.0
100
AcDbLine
 10
10413.6
 20
8027.898251426234
 30
0.0
 11
10413.6
 21
7927.898251426235
 31
0.0
  0
LINE
  5
1E297
330
747D
100
AcDbEntity
  8
センター
 48
2.0
100
AcDbLine
 10
10363.6
 20
7977.898251426235
 30
0.0
 11
10463.6
 21
7977.898251426235
 31
0.0
  0
LINE
  5
1E2C8
330
747D
100
AcDbEntity
  8
部品1
 48
50.0
100
AcDbLine
 10
10533.59999999999
 20
8077.898251426235
 30
0.0
 11
10458.6
 21
8077.898251426235
 31
0.0
  0
MTEXT
  5
1EFF2
330
747D
100
AcDbEntity
  8
部品1
 62
     7
 48
50.0
100
AcDbMText
 10
7771.324991789107
 20
5183.248486334342
 30
0.0
 40
120.0
 41
0.0
 71
     6
 72
     1
  1
A
  7
STYLE1
 73
     1
 44
1.0
1001
ACAD
1000
MTEXTBEGIN
1070
    73
1070
     1
1070
    44
1040
1.0
1070
    74
1070
     0
1000
MTEXTEND
  0
MTEXT
  5
1EFF4
330
747D
100
AcDbEntity
  8
部品1
 62
     7
 48
50.0
100
AcDbMText
 10
7814.375829299388
 20
5764.262196672403
 30
0.0
 40
120.0
 41
0.0
 71
     6
 72
     1
  1
A'
  7
STYLE1
 73
     1
 44
1.0
1001
ACAD
1000
MTEXTBEGIN
1070
    73
1070
     1
1070
    44
1040
1.0
1070
    74
1070
     0
1000
MTEXTEND
  0
LINE
  5
1F0AE
330
747D
100
AcDbEntity
  8
想像線
 48
10.0
100
AcDbLine
 10
10553.6
 20
8177.898251426228
 30
0.0
 11
5893.600000000001
 21
8177.898251426233
 31
0.0
  0
LINE
  5
1FC6B
330
747D
100
AcDbEntity
  8
センター
 48
2.0
100
AcDbLine
 10
7461.6
 20
7167.898251426236
 30
0.0
 11
7561.6
 21
7167.898251426236
 31
0.0
  0
LINE
  5
1FC6C
330
747D
100
AcDbEntity
  8
部品1
 48
50.0
100
AcDbLine
 10
7711.6
 20
7267.898251426236
 30
0.0
 11
7311.6
 21
7267.898251426236
 31
0.0
  0
LINE
  5
1FC6D
330
747D
100
AcDbEntity
  8
部品1
 48
50.0
100
AcDbLine
 10
7711.6
 20
6227.898251426234
 30
0.0
 11
7711.6
 21
6427.898251426235
 31
0.0
  0
LINE
  5
1FC6E
330
747D
100
AcDbEntity
  8
センター
 48
2.0
100
AcDbLine
 10
7461.6
 20
6327.898251426235
 30
0.0
 11
7561.6
 21
6327.898251426235
 31
0.0
  0
LINE
  5
1FC6F
330
747D
100
AcDbEntity
  8
部品1
 48
50.0
100
AcDbLine
 10
7311.6
 20
6227.898251426235
 30
0.0
 11
7311.6
 21
6427.898251426235
 31
0.0
  0
LINE
  5
1FC70
330
747D
100
AcDbEntity
  8
センター
 48
2.0
100
AcDbLine
 10
7511.6
 20
6377.898251426235
 30
0.0
 11
7511.6
 21
6277.898251426235
 31
0.0
  0
LINE
  5
1FC71
330
747D
100
AcDbEntity
  8
部品1
 48
50.0
100
AcDbLine
 10
6900.6
 20
6227.898251426234
 30
0.0
 11
6900.6
 21
6427.898251426235
 31
0.0
  0
LINE
  5
1FC72
330
747D
100
AcDbEntity
  8
部品1
 48
50.0
100
AcDbLine
 10
7711.6
 20
6227.898251426234
 30
0.0
 11
7311.6
 21
6227.898251426234
 31
0.0
  0
LINE
  5
1FC73
330
747D
100
AcDbEntity
  8
部品1
 48
50.0
100
AcDbLine
 10
7711.6
 20
6427.898251426235
 30
0.0
 11
7311.6
 21
6427.898251426235
 31
0.0
  0
LINE
  5
1FC74
330
747D
100
AcDbEntity
  8
部品1
 48
50.0
100
AcDbLine
 10
7711.6
 20
7067.898251426233
 30
0.0
 11
7311.6
 21
7067.898251426233
 31
0.0
  0
LINE
  5
1FC75
330
747D
100
AcDbEntity
  8
部品1
 48
50.0
100
AcDbLine
 10
6900.6
 20
7067.898251426233
 30
0.0
 11
6900.6
 21
7267.898251426236
 31
0.0
  0
LINE
  5
1FC76
330
747D
100
AcDbEntity
  8
部品1
 48
50.0
100
AcDbLine
 10
7711.6
 20
7067.898251426233
 30
0.0
 11
7711.6
 21
7267.898251426236
 31
0.0
  0
LINE
  5
1FC77
330
747D
100
AcDbEntity
  8
部品1
 48
50.0
100
AcDbLine
 10
7311.6
 20
7067.898251426235
 30
0.0
 11
7311.6
 21
7267.898251426236
 31
0.0
  0
LINE
  5
1FC78
330
747D
100
AcDbEntity
  8
センター
 48
2.0
100
AcDbLine
 10
7511.6
 20
7217.898251426236
 30
0.0
 11
7511.6
 21
7117.898251426236
 31
0.0
  0
LINE
  5
1FC79
330
747D
100
AcDbEntity
  8
センター
 48
2.0
100
AcDbLine
 10
6650.6
 20
7167.898251426236
 30
0.0
 11
6750.6
 21
7167.898251426236
 31
0.0
  0
LINE
  5
1FC7A
330
747D
100
AcDbEntity
  8
センター
 48
2.0
100
AcDbLine
 10
6650.6
 20
6327.898251426235
 30
0.0
 11
6750.6
 21
6327.898251426235
 31
0.0
  0
LINE
  5
1FC7B
330
747D
100
AcDbEntity
  8
部品1
 48
50.0
100
AcDbLine
 10
6500.6
 20
6227.898251426235
 30
0.0
 11
6500.6
 21
6427.898251426235
 31
0.0
  0
LINE
  5
1FC7C
330
747D
100
AcDbEntity
  8
センター
 48
2.0
100
AcDbLine
 10
6700.6
 20
6377.898251426235
 30
0.0
 11
6700.6
 21
6277.898251426235
 31
0.0
  0
LINE
  5
1FC7D
330
747D
100
AcDbEntity
  8
部品1
 48
50.0
100
AcDbLine
 10
6500.6
 20
7067.898251426235
 30
0.0
 11
6500.6
 21
7267.898251426236
 31
0.0
  0
LINE
  5
1FC7E
330
747D
100
AcDbEntity
  8
センター
 48
2.0
100
AcDbLine
 10
6700.6
 20
7217.898251426236
 30
0.0
 11
6700.6
 21
7117.898251426236
 31
0.0
  0
LINE
  5
1FC7F
330
747D
100
AcDbEntity
  8
部品1
 48
50.0
100
AcDbLine
 10
6900.6
 20
6227.898251426234
 30
0.0
 11
6500.6
 21
6227.898251426234
 31
0.0
  0
LINE
  5
1FC80
330
747D
100
AcDbEntity
  8
部品1
 48
50.0
100
AcDbLine
 10
6900.6
 20
6427.898251426235
 30
0.0
 11
6500.6
 21
6427.898251426235
 31
0.0
  0
LINE
  5
1FC81
330
747D
100
AcDbEntity
  8
部品1
 48
50.0
100
AcDbLine
 10
6900.6
 20
7067.898251426233
 30
0.0
 11
6500.6
 21
7067.898251426233
 31
0.0
  0
LINE
  5
1FC82
330
747D
100
AcDbEntity
  8
部品1
 48
50.0
100
AcDbLine
 10
6900.6
 20
7267.898251426236
 30
0.0
 11
6500.6
 21
7267.898251426236
 31
0.0
  0
LINE
  5
1FC83
330
747D
100
AcDbEntity
  8
部品1
 48
50.0
100
AcDbLine
 10
9946.600000000001
 20
7267.898251426236
 30
0.0
 11
9546.600000000001
 21
7267.898251426236
 31
0.0
  0
LINE
  5
1FC84
330
747D
100
AcDbEntity
  8
センター
 48
2.0
100
AcDbLine
 10
9796.600000000001
 20
7167.898251426236
 30
0.0
 11
9696.600000000001
 21
7167.898251426236
 31
0.0
  0
LINE
  5
1FC85
330
747D
100
AcDbEntity
  8
部品1
 48
50.0
100
AcDbLine
 10
9946.600000000001
 20
7067.898251426233
 30
0.0
 11
9546.600000000001
 21
7067.898251426233
 31
0.0
  0
LINE
  5
1FC86
330
747D
100
AcDbEntity
  8
部品1
 48
50.0
100
AcDbLine
 10
9946.600000000001
 20
6227.898251426234
 30
0.0
 11
9946.600000000001
 21
6427.898251426235
 31
0.0
  0
LINE
  5
1FC87
330
747D
100
AcDbEntity
  8
部品1
 48
50.0
100
AcDbLine
 10
9546.600000000001
 20
6227.898251426235
 30
0.0
 11
9546.600000000001
 21
6427.898251426235
 31
0.0
  0
LINE
  5
1FC88
330
747D
100
AcDbEntity
  8
センター
 48
2.0
100
AcDbLine
 10
9746.6
 20
6377.898251426235
 30
0.0
 11
9746.6
 21
6277.898251426235
 31
0.0
  0
LINE
  5
1FC89
330
747D
100
AcDbEntity
  8
部品1
 48
50.0
100
AcDbLine
 10
9946.600000000001
 20
6427.898251426235
 30
0.0
 11
9546.600000000001
 21
6427.898251426235
 31
0.0
  0
LINE
  5
1FC8A
330
747D
100
AcDbEntity
  8
部品1
 48
50.0
100
AcDbLine
 10
9946.600000000001
 20
6227.898251426234
 30
0.0
 11
9546.600000000001
 21
6227.898251426234
 31
0.0
  0
LINE
  5
1FC8B
330
747D
100
AcDbEntity
  8
センター
 48
2.0
100
AcDbLine
 10
9796.600000000001
 20
6327.898251426235
 30
0.0
 11
9696.600000000001
 21
6327.898251426235
 31
0.0
  0
LINE
  5
1FC8C
330
747D
100
AcDbEntity
  8
部品1
 48
50.0
100
AcDbLine
 10
9546.600000000001
 20
7067.898251426235
 30
0.0
 11
9546.600000000001
 21
7267.898251426236
 31
0.0
  0
LINE
  5
1FC8D
330
747D
100
AcDbEntity
  8
センター
 48
2.0
100
AcDbLine
 10
9746.6
 20
7217.898251426236
 30
0.0
 11
9746.6
 21
7117.898251426236
 31
0.0
  0
LINE
  5
1FC8E
330
747D
100
AcDbEntity
  8
部品1
 48
50.0
100
AcDbLine
 10
9946.600000000001
 20
7067.898251426233
 30
0.0
 11
9946.600000000001
 21
7267.898251426236
 31
0.0
  0
LINE
  5
1FC8F
330
747D
100
AcDbEntity
  8
センター
 48
2.0
100
AcDbLine
 10
8935.6
 20
6377.898251426235
 30
0.0
 11
8935.6
 21
6277.898251426235
 31
0.0
  0
LINE
  5
1FC90
330
747D
100
AcDbEntity
  8
部品1
 48
50.0
100
AcDbLine
 10
9135.600000000001
 20
6227.898251426234
 30
0.0
 11
9135.600000000001
 21
6427.898251426235
 31
0.0
  0
LINE
  5
1FC91
330
747D
100
AcDbEntity
  8
部品1
 48
50.0
100
AcDbLine
 10
8735.600000000001
 20
6227.898251426235
 30
0.0
 11
8735.600000000001
 21
6427.898251426235
 31
0.0
  0
LINE
  5
1FC92
330
747D
100
AcDbEntity
  8
部品1
 48
50.0
100
AcDbLine
 10
9135.600000000001
 20
6227.898251426234
 30
0.0
 11
8735.600000000001
 21
6227.898251426234
 31
0.0
  0
LINE
  5
1FC93
330
747D
100
AcDbEntity
  8
部品1
 48
50.0
100
AcDbLine
 10
9135.600000000001
 20
6427.898251426235
 30
0.0
 11
8735.600000000001
 21
6427.898251426235
 31
0.0
  0
LINE
  5
1FC94
330
747D
100
AcDbEntity
  8
センター
 48
2.0
100
AcDbLine
 10
8985.600000000001
 20
6327.898251426235
 30
0.0
 11
8885.600000000001
 21
6327.898251426235
 31
0.0
  0
LINE
  5
1FC95
330
747D
100
AcDbEntity
  8
部品1
 48
50.0
100
AcDbLine
 10
9135.600000000001
 20
7267.898251426236
 30
0.0
 11
8735.600000000001
 21
7267.898251426236
 31
0.0
  0
LINE
  5
1FC96
330
747D
100
AcDbEntity
  8
センター
 48
2.0
100
AcDbLine
 10
8985.600000000001
 20
7167.898251426236
 30
0.0
 11
8885.600000000001
 21
7167.898251426236
 31
0.0
  0
LINE
  5
1FC97
330
747D
100
AcDbEntity
  8
部品1
 48
50.0
100
AcDbLine
 10
9135.600000000001
 20
7067.898251426233
 30
0.0
 11
8735.600000000001
 21
7067.898251426233
 31
0.0
  0
LINE
  5
1FC98
330
747D
100
AcDbEntity
  8
部品1
 48
50.0
100
AcDbLine
 10
8735.600000000001
 20
7067.898251426235
 30
0.0
 11
8735.600000000001
 21
7267.898251426236
 31
0.0
  0
LINE
  5
1FC99
330
747D
100
AcDbEntity
  8
部品1
 48
50.0
100
AcDbLine
 10
9135.600000000001
 20
7067.898251426233
 30
0.0
 11
9135.600000000001
 21
7267.898251426236
 31
0.0
  0
LINE
  5
1FC9A
330
747D
100
AcDbEntity
  8
センター
 48
2.0
100
AcDbLine
 10
8935.6
 20
7217.898251426236
 30
0.0
 11
8935.6
 21
7117.898251426236
 31
0.0
  0
DIMENSION
  5
20239
330
747D
100
AcDbEntity
  8
寸法
 48
50.0
100
AcDbDimension
  2
*D44
 10
10533.6
 20
7716.814496982435
 30
0.0
 11
10772.2949412039
 21
7716.814496982435
 31
0.0
 70
   160
 71
     5
 42
195.0000000000018
  3
INABA_S40G
100
AcDbAlignedDimension
 13
10338.6
 23
7948.911394771198
 33
0.0
 14
10533.6
 24
7948.9113947712
 34
0.0
100
AcDbRotatedDimension
1001
ACAD
1000
DSTYLE
1002
{
1070
   341
1005
0
1002
}
  0
LINE
  5
2023A
330
747D
100
AcDbEntity
  8
寸法
 48
50.0
100
AcDbLine
 10
11093.02970136043
 20
6063.435431172827
 30
0.0
 11
13907.09411429208
 21
6063.435431172827
 31
0.0
210
0.0
220
0.0
230
-1.0
1001
ACAD
1000
DSTYLE
1002
{
1070
   341
1005
0
1070
    40
1040
1.0
1070
   343
1005
0
1070
   344
1005
0
1002
}
  0
LINE
  5
2023B
330
747D
100
AcDbEntity
  8
寸法
 48
50.0
100
AcDbLine
 10
10533.6
 20
6600.429578765613
 30
0.0
 11
11093.02970136043
 21
6063.435431172827
 31
0.0
210
0.0
220
0.0
230
-1.0
1001
ACAD
1000
DSTYLE
1002
{
1070
   341
1005
0
1070
    40
1040
1.0
1070
   343
1005
0
1070
   344
1005
0
1002
}
  0
TEXT
  5
2023C
330
747D
100
AcDbEntity
  8
寸法
 62
     7
100
AcDbText
 10
11209.64566055319
 20
6085.703378721148
 30
0.0
 40
120.0
  1
扉位置 (2198x75)
  7
STYLE1
100
AcDbText
  0
SOLID
  5
2023D
330
747D
100
AcDbEntity
  8
寸法
 48
50.0
100
AcDbTrace
 10
-10638.7689167164
 20
6529.729318974865
 30
0.0
 11
-10533.60000000001
 21
6600.429578765616
 31
0.0
 12
-10610.15429642121
 22
6499.442116785266
 32
0.0
 13
-10610.15429642121
 23
6499.442116785266
 33
0.0
210
0.0
220
0.0
230
-1.0
1001
ACAD
1000
DSTYLE
1002
{
1070
   341
1005
0
1070
    40
1040
1.0
1070
   343
1005
0
1070
   344
1005
0
1002
}
  0
TEXT
  5
2023E
330
747D
100
AcDbEntity
  8
寸法
 62
     7
100
AcDbText
 10
11209.64566055319
 20
5914.099615837822
 30
0.0
 40
120.0
  1
扉の位置に合わせた基礎形状として下さい。
  7
STYLE1
100
AcDbText
  0
DIMENSION
  5
20289
330
747D
100
AcDbEntity
  8
寸法
 48
50.0
100
AcDbDimension
  2
*D45
 10
10458.60000000001
 20
5655.341490330735
 30
0.0
 11
11067.08528137425
 21
5655.341490330735
 31
0.0
 70
   160
  1
扉の出<>
 71
     5
 42
74.99999999999636
  3
INABA_S40G
100
AcDbAlignedDimension
 13
10533.60000000001
 23
5879.898251426236
 33
0.0
 14
10458.60000000001
 24
5879.898251426236
 34
0.0
 50
180.0
100
AcDbRotatedDimension
1001
ACAD
1000
DSTYLE
1002
{
1070
   341
1005
0
1002
}
  0
DIMENSION
  5
202BF
330
747D
100
AcDbEntity
  8
寸法
 48
50.0
100
AcDbDimension
  2
*D46
 10
10969.05368375798
 20
5879.898251426236
 30
0.0
 11
10969.05368375798
 21
6978.81416614313
 31
0.0
 70
   160
  1
扉の幅 <>
 71
     5
 42
2198.0
  3
INABA_S40G
100
AcDbAlignedDimension
 13
10533.59999999999
 23
8077.898251426235
 33
0.0
 14
10533.60000000001
 24
5879.898251426236
 34
0.0
 50
90.0
100
AcDbRotatedDimension
1001
ACAD
1000
DSTYLE
1002
{
1070
   341
1005
0
1002
}
  0
HATCH
  5
20735
330
747D
100
AcDbEntity
  8
細線
 48
50.0
100
AcDbHatch
 10
0.0
 20
0.0
 30
0.0
210
0.0
220
0.0
230
1.0
  2
LINE
 70
     0
 71
     1
 91
        1
 92
        7
 72
     0
 73
     1
 93
        4
 10
9241.100000000001
 20
8077.898251426235
 10
9241.100000000002
 20
7957.898251426238
 10
9441.100000000004
 20
7957.898251426238
 10
9441.099999999998
 20
8077.898251426237
 97
        4
330
1E037
330
1E23A
330
1E036
330
1E23B
 75
     0
 76
     1
 52
45.0
 41
10.0
 77
     0
 78
     1
 53
45.0
 43
0.0
 44
0.0
 45
-22.45064030267288
 46
22.45064030267288
 79
     0
 47
1.643810868982605
 98
        1
 10
9312.43568981046
 20
8029.239546713572
  0
HATCH
  5
2073C
330
747D
100
AcDbEntity
  8
細線
 48
50.0
100
AcDbHatch
 10
0.0
 20
0.0
 30
0.0
210
0.0
220
0.0
230
1.0
  2
LINE
 70
     0
 71
     1
 91
        1
 92
        7
 72
     0
 73
     1
 93
        4
 10
7206.100000000002
 20
8077.898251426237
 10
7006.1
 20
8077.898251426235
 10
7006.100000000003
 20
7957.898251426239
 10
7206.100000000002
 20
7957.898251426239
 97
        4
330
1E037
330
1E061
330
1E036
330
1E234
 75
     0
 76
     1
 52
45.0
 41
10.0
 77
     0
 78
     1
 53
45.0
 43
0.0
 44
0.0
 45
-22.45064030267288
 46
22.45064030267288
 79
     0
 47
1.643810868982605
 98
        1
 10
7052.895535292228
 20
8034.282094392864
  0
HATCH
  5
20747
330
747D
100
AcDbEntity
  8
細線
 48
50.0
100
AcDbHatch
 10
0.0
 20
0.0
 30
0.0
210
0.0
220
0.0
230
1.0
  2
LINE
 70
     0
 71
     1
 91
        1
 92
        7
 72
     0
 73
     1
 93
        4
 10
6108.600000000001
 20
6847.898251426236
 10
5988.6
 20
6847.898251426234
 10
5988.599999999999
 20
6647.898251426235
 10
6108.600000000001
 20
6647.898251426235
 97
        4
330
1E054
330
1E045
330
1E052
330
1E043
 75
     0
 76
     1
 52
45.0
 41
10.0
 77
     0
 78
     1
 53
45.0
 43
0.0
 44
0.0
 45
-22.45064030267288
 46
22.45064030267288
 79
     0
 47
1.643810868982605
 98
        1
 10
6076.585448634476
 20
6776.594805886755
  0
HATCH
  5
20750
330
747D
100
AcDbEntity
  8
細線
 48
50.0
100
AcDbHatch
 10
0.0
 20
0.0
 30
0.0
210
0.0
220
0.0
230
1.0
  2
LINE
 70
     0
 71
     1
 91
        1
 92
        7
 72
     0
 73
     1
 93
        4
 10
7206.100000000026
 20
5537.898251426245
 10
7006.100000000026
 20
5537.898251426243
 10
7006.100000000029
 20
5417.898251426225
 10
7206.100000000029
 20
5417.898251426227
 97
        4
330
1E040
330
1E04F
330
1E041
330
1E078
 75
     0
 76
     1
 52
45.0
 41
10.0
 77
     0
 78
     1
 53
45.0
 43
0.0
 44
0.0
 45
-22.45064030267288
 46
22.45064030267288
 79
     0
 47
1.15318367116379
 98
        1
 10
7071.836283462485
 20
5486.048096187511
  0
HATCH
  5
20763
330
747D
100
AcDbEntity
  8
細線
 48
50.0
100
AcDbHatch
 10
0.0
 20
0.0
 30
0.0
210
0.0
220
0.0
230
1.0
  2
LINE
 70
     0
 71
     1
 91
        1
 92
        7
 72
     0
 73
     1
 93
        4
 10
9441.100000000025
 20
5537.898251426251
 10
9241.100000000026
 20
5537.898251426249
 10
9241.100000000027
 20
5417.898251426244
 10
9441.100000000027
 20
5417.898251426247
 97
        4
330
1E040
330
1E08E
330
1E041
330
1E08F
 75
     0
 76
     1
 52
45.0
 41
10.0
 77
     0
 78
     1
 53
45.0
 43
0.0
 44
0.0
 45
-22.45064030267288
 46
22.45064030267288
 79
     0
 47
1.844710736427837
 98
        1
 10
9300.305555023937
 20
5504.001373029627
  0
HATCH
  5
2076A
330
747D
100
AcDbEntity
  8
細線
 48
50.0
100
AcDbHatch
 10
0.0
 20
0.0
 30
0.0
210
0.0
220
0.0
230
1.0
  2
LINE
 70
     0
 71
     1
 91
        1
 92
        7
 72
     0
 73
     1
 93
        4
 10
10533.6
 20
6847.898251426236
 10
10338.6
 20
6847.898251426234
 10
10338.6
 20
6647.898251426234
 10
10533.6
 20
6647.898251426235
 97
        4
330
1E198
330
1E066
330
1E160
330
1E064
 75
     0
 76
     1
 52
45.0
 41
10.0
 77
     0
 78
     1
 53
45.0
 43
0.0
 44
0.0
 45
-22.45064030267288
 46
22.45064030267288
 79
     0
 47
1.844710736427838
 98
        1
 10
10460.33968642937
 20
6745.369298822919
  0
MTEXT
  5
20CAD
102
{ACAD_REACTORS
330
20CEE
102
}
330
747D
100
AcDbEntity
  8
寸法
 62
     7
 48
50.0
100
AcDbMText
 10
10658.17986309508
 20
2945.933622004217
 30
0.0
 40
100.0
 41
0.0
 71
     4
 72
     1
  1
C.B
  7
STYLE1
 73
     1
 44
1.0
1001
ACAD
1000
MTEXTBEGIN
1070
    73
1070
     1
1070
    44
1040
1.0
1070
    74
1070
     0
1000
MTEXTEND
  0
LINE
  5
20CAE
330
747D
100
AcDbEntity
  8
Ｇ．Ｌ
 48
50.0
100
AcDbLine
 10
9482.983600609223
 20
2411.586003308081
 30
0.0
 11
11217.31969111422
 21
2411.586003308082
 31
0.0
  0
LINE
  5
20CAF
330
747D
100
AcDbEntity
  8
細線
 48
50.0
100
AcDbLine
 10
10964.65793812901
 20
2101.586003308083
 30
0.0
 11
11007.52980891799
 21
2261.586003308083
 31
0.0
  0
LINE
  5
20CB0
330
747D
100
AcDbEntity
  8
部品1
100
AcDbLine
 10
9765.379404381121
 20
2101.586003308086
 30
0.0
 11
11036.77929701878
 21
2101.586003308086
 31
0.0
  0
LINE
  5
20CB1
330
747D
100
AcDbEntity
  8
部品1
100
AcDbLine
 10
9765.379404381121
 20
2261.586003308083
 30
0.0
 11
11036.77929701878
 21
2261.586003308083
 31
0.0
  0
LINE
  5
20CB2
330
747D
100
AcDbEntity
  8
細線
 48
50.0
100
AcDbLine
 10
10175.77748865653
 20
2101.586003308083
 30
0.0
 11
10218.64935944551
 21
2261.586003308083
 31
0.0
  0
LINE
  5
20CB3
330
747D
100
AcDbEntity
  8
細線
 48
50.0
100
AcDbLine
 10
10183.81596442947
 20
2131.586003308083
 30
0.0
 11
10191.8544402024
 21
2101.586003308083
 31
0.0
  0
LINE
  5
20CB4
330
747D
100
AcDbEntity
  8
細線
100
AcDbLine
 10
10095.89194502137
 20
2411.586003308082
 30
0.0
 11
10395.89194502137
 21
2711.586003308082
 31
0.0
  0
LINE
  5
20CB5
330
747D
100
AcDbEntity
  8
細線
100
AcDbLine
 10
10055.89194502137
 20
2411.586003308082
 30
0.0
 11
10355.89194502137
 21
2711.586003308082
 31
0.0
  0
LINE
  5
20CB6
330
747D
100
AcDbEntity
  8
部品1
 48
50.0
100
AcDbLine
 10
10791.07935069995
 20
2711.586003308082
 30
0.0
 11
10011.07935069995
 21
2711.586003308082
 31
0.0
  0
LINE
  5
20CB7
330
747D
100
AcDbEntity
  8
細線
100
AcDbLine
 10
10117.82007516879
 20
2261.586003308083
 30
0.0
 11
9967.820075168779
 21
2411.586003308082
 31
0.0
  0
LINE
  5
20CB8
330
747D
100
AcDbEntity
  8
部品1
100
AcDbLine
 10
9865.379404381121
 20
2411.586003308082
 30
0.0
 11
9865.379404381123
 21
2261.586003308083
 31
0.0
  0
LINE
  5
20CB9
330
747D
100
AcDbEntity
  8
細線
100
AcDbLine
 10
10077.82007516878
 20
2261.586003308083
 30
0.0
 11
9927.820075168783
 21
2411.586003308082
 31
0.0
  0
LINE
  5
20CBA
330
747D
100
AcDbEntity
  8
細線
100
AcDbLine
 10
10037.82007516877
 20
2261.586003308083
 30
0.0
 11
9887.820075168765
 21
2411.586003308082
 31
0.0
  0
LINE
  5
20CBB
330
747D
100
AcDbEntity
  8
部品1
100
AcDbLine
 10
9765.379404381121
 20
2261.586003308083
 30
0.0
 11
9765.379404381121
 21
2101.586003308086
 31
0.0
  0
LINE
  5
20CBC
330
747D
100
AcDbEntity
  8
細線
 48
50.0
100
AcDbLine
 10
9978.557376288412
 20
2101.586003308083
 30
0.0
 11
10021.42924707739
 21
2261.586003308083
 31
0.0
  0
LINE
  5
20CBD
330
747D
100
AcDbEntity
  8
細線
 48
50.0
100
AcDbLine
 10
10077.16743247247
 20
2101.586003308083
 30
0.0
 11
10120.03930326145
 21
2261.586003308083
 31
0.0
  0
LINE
  5
20CBE
330
747D
100
AcDbEntity
  8
細線
 48
50.0
100
AcDbLine
 10
10085.2059082454
 20
2131.586003308083
 30
0.0
 11
10093.24438401833
 21
2101.586003308083
 31
0.0
  0
LINE
  5
20CBF
330
747D
100
AcDbEntity
  8
細線
 48
50.0
100
AcDbLine
 10
9986.595852061345
 20
2131.586003308083
 30
0.0
 11
9994.634327834278
 21
2101.586003308083
 31
0.0
  0
LINE
  5
20CC0
330
747D
100
AcDbEntity
  8
細線
 48
50.0
100
AcDbLine
 10
9887.985795877279
 20
2131.586003308083
 30
0.0
 11
9896.024271650212
 21
2101.586003308083
 31
0.0
  0
LINE
  5
20CC1
330
747D
100
AcDbEntity
  8
細線
 48
50.0
100
AcDbLine
 10
9879.947320104346
 20
2101.586003308083
 30
0.0
 11
9922.819190893324
 21
2261.586003308083
 31
0.0
  0
LINE
  5
20CC2
330
747D
100
AcDbEntity
  8
細線
 48
50.0
100
AcDbLine
 10
9789.375739693221
 20
2131.586003308083
 30
0.0
 11
9797.414215466154
 21
2101.586003308083
 31
0.0
  0
LINE
  5
20CC3
330
747D
100
AcDbEntity
  8
細線
 48
50.0
100
AcDbLine
 10
9781.337263920288
 20
2101.586003308083
 30
0.0
 11
9824.209134709267
 21
2261.586003308083
 31
0.0
  0
LINE
  5
20CC4
330
747D
100
AcDbEntity
  8
細線
 48
50.0
100
AcDbLine
 10
9914.780715120391
 20
2231.586003308083
 30
0.0
 11
9906.742239347458
 21
2261.586003308083
 31
0.0
  0
LINE
  5
20CC5
330
747D
100
AcDbEntity
  8
細線
 48
50.0
100
AcDbLine
 10
9816.170658936334
 20
2231.586003308083
 30
0.0
 11
9808.132183163401
 21
2261.586003308083
 31
0.0
  0
LINE
  5
20CC6
330
747D
100
AcDbEntity
  8
細線
 48
50.0
100
AcDbLine
 10
10112.00082748851
 20
2231.586003308083
 30
0.0
 11
10103.96235171558
 21
2261.586003308083
 31
0.0
  0
LINE
  5
20CC7
330
747D
100
AcDbEntity
  8
細線
 48
50.0
100
AcDbLine
 10
10013.39077130445
 20
2231.586003308083
 30
0.0
 11
10005.35229553152
 21
2261.586003308083
 31
0.0
  0
LINE
  5
20CC8
330
747D
100
AcDbEntity
  8
細線
100
AcDbLine
 10
10011.07935069995
 20
2646.773408986658
 30
0.0
 11
10075.89194502137
 21
2711.586003308082
 31
0.0
  0
LINE
  5
20CC9
330
747D
100
AcDbEntity
  8
細線
100
AcDbLine
 10
10011.07935069995
 20
2686.773408986658
 30
0.0
 11
10035.89194502137
 21
2711.586003308082
 31
0.0
  0
LINE
  5
20CCA
330
747D
100
AcDbEntity
  8
部品1
 48
50.0
100
AcDbLine
 10
10011.07935069995
 20
2711.586003308082
 30
0.0
 11
10011.07935069995
 21
2411.586003308082
 31
0.0
  0
LINE
  5
20CCB
330
747D
100
AcDbEntity
  8
細線
100
AcDbLine
 10
10936.77929701878
 20
2322.62678145807
 30
0.0
 11
10847.82007516877
 21
2411.586003308082
 31
0.0
  0
LINE
  5
20CCC
330
747D
100
AcDbEntity
  8
細線
100
AcDbLine
 10
10936.77929701878
 20
2362.62678145808
 30
0.0
 11
10887.82007516877
 21
2411.586003308082
 31
0.0
  0
LINE
  5
20CCD
330
747D
100
AcDbEntity
  8
部品1
100
AcDbLine
 10
10936.77929701878
 20
2411.586003308082
 30
0.0
 11
10936.77929701878
 21
2261.586003308083
 31
0.0
  0
LINE
  5
20CCE
330
747D
100
AcDbEntity
  8
細線
100
AcDbLine
 10
10677.82007516876
 20
2261.586003308083
 30
0.0
 11
10527.82007516877
 21
2411.586003308082
 31
0.0
  0
LINE
  5
20CCF
330
747D
100
AcDbEntity
  8
細線
100
AcDbLine
 10
10717.82007516878
 20
2261.586003308083
 30
0.0
 11
10567.82007516877
 21
2411.586003308082
 31
0.0
  0
LINE
  5
20CD0
330
747D
100
AcDbEntity
  8
細線
100
AcDbLine
 10
10757.82007516878
 20
2261.586003308083
 30
0.0
 11
10607.82007516879
 21
2411.586003308082
 31
0.0
  0
LINE
  5
20CD1
330
747D
100
AcDbEntity
  8
細線
100
AcDbLine
 10
10357.82007516877
 20
2261.586003308083
 30
0.0
 11
10207.82007516877
 21
2411.586003308082
 31
0.0
  0
LINE
  5
20CD2
330
747D
100
AcDbEntity
  8
細線
100
AcDbLine
 10
10437.82007516879
 20
2261.586003308083
 30
0.0
 11
10287.82007516877
 21
2411.586003308082
 31
0.0
  0
LINE
  5
20CD3
330
747D
100
AcDbEntity
  8
細線
100
AcDbLine
 10
10397.82007516878
 20
2261.586003308083
 30
0.0
 11
10247.82007516877
 21
2411.586003308082
 31
0.0
  0
LINE
  5
20CD4
330
747D
100
AcDbEntity
  8
細線
 48
50.0
100
AcDbLine
 10
10570.21771339277
 20
2101.586003308083
 30
0.0
 11
10613.08958418175
 21
2261.586003308083
 31
0.0
  0
LINE
  5
20CD5
330
747D
100
AcDbEntity
  8
細線
 48
50.0
100
AcDbLine
 10
10578.2561891657
 20
2131.586003308083
 30
0.0
 11
10586.29466493864
 21
2101.586003308083
 31
0.0
  0
LINE
  5
20CD6
330
747D
100
AcDbEntity
  8
細線
 48
50.0
100
AcDbLine
 10
10372.99760102465
 20
2101.586003308083
 30
0.0
 11
10415.86947181363
 21
2261.586003308083
 31
0.0
  0
LINE
  5
20CD7
330
747D
100
AcDbEntity
  8
細線
 48
50.0
100
AcDbLine
 10
10381.03607679758
 20
2131.586003308083
 30
0.0
 11
10389.07455257051
 21
2101.586003308083
 31
0.0
  0
LINE
  5
20CD8
330
747D
100
AcDbEntity
  8
細線
 48
50.0
100
AcDbLine
 10
10471.60765720871
 20
2101.586003308083
 30
0.0
 11
10514.47952799769
 21
2261.586003308083
 31
0.0
  0
LINE
  5
20CD9
330
747D
100
AcDbEntity
  8
細線
 48
50.0
100
AcDbLine
 10
10479.64613298164
 20
2131.586003308083
 30
0.0
 11
10487.68460875457
 21
2101.586003308083
 31
0.0
  0
LINE
  5
20CDA
330
747D
100
AcDbEntity
  8
細線
 48
50.0
100
AcDbLine
 10
10274.38754484059
 20
2101.586003308083
 30
0.0
 11
10317.25941562957
 21
2261.586003308083
 31
0.0
  0
LINE
  5
20CDB
330
747D
100
AcDbEntity
  8
細線
 48
50.0
100
AcDbLine
 10
10282.42602061352
 20
2131.586003308083
 30
0.0
 11
10290.46449638645
 21
2101.586003308083
 31
0.0
  0
LINE
  5
20CDC
330
747D
100
AcDbEntity
  8
細線
 48
50.0
100
AcDbLine
 10
10309.22093985663
 20
2231.586003308083
 30
0.0
 11
10301.1824640837
 21
2261.586003308083
 31
0.0
  0
LINE
  5
20CDD
330
747D
100
AcDbEntity
  8
細線
 48
50.0
100
AcDbLine
 10
10210.61088367258
 20
2231.586003308083
 30
0.0
 11
10202.57240789964
 21
2261.586003308083
 31
0.0
  0
LINE
  5
20CDE
330
747D
100
AcDbEntity
  8
細線
 48
50.0
100
AcDbLine
 10
10506.44105222475
 20
2231.586003308083
 30
0.0
 11
10498.40257645182
 21
2261.586003308083
 31
0.0
  0
LINE
  5
20CDF
330
747D
100
AcDbEntity
  8
細線
 48
50.0
100
AcDbLine
 10
10407.83099604069
 20
2231.586003308083
 30
0.0
 11
10399.79252026776
 21
2261.586003308083
 31
0.0
  0
LINE
  5
20CE0
330
747D
100
AcDbEntity
  8
細線
 48
50.0
100
AcDbLine
 10
10866.04788194495
 20
2101.586003308083
 30
0.0
 11
10908.91975273393
 21
2261.586003308083
 31
0.0
  0
LINE
  5
20CE1
330
747D
100
AcDbEntity
  8
細線
 48
50.0
100
AcDbLine
 10
10874.08635771788
 20
2131.586003308083
 30
0.0
 11
10882.12483349082
 21
2101.586003308083
 31
0.0
  0
LINE
  5
20CE2
330
747D
100
AcDbEntity
  8
細線
 48
50.0
100
AcDbLine
 10
10972.69641390194
 20
2131.586003308083
 30
0.0
 11
10980.73488967488
 21
2101.586003308083
 31
0.0
  0
LINE
  5
20CE3
330
747D
100
AcDbEntity
  8
細線
 48
50.0
100
AcDbLine
 10
10668.82776957683
 20
2101.586003308083
 30
0.0
 11
10711.69964036581
 21
2261.586003308083
 31
0.0
  0
LINE
  5
20CE4
330
747D
100
AcDbEntity
  8
細線
 48
50.0
100
AcDbLine
 10
10676.86624534976
 20
2131.586003308083
 30
0.0
 11
10684.9047211227
 21
2101.586003308083
 31
0.0
  0
LINE
  5
20CE5
330
747D
100
AcDbEntity
  8
細線
 48
50.0
100
AcDbLine
 10
10767.43782576089
 20
2101.586003308083
 30
0.0
 11
10810.30969654987
 21
2261.586003308083
 31
0.0
  0
LINE
  5
20CE6
330
747D
100
AcDbEntity
  8
細線
 48
50.0
100
AcDbLine
 10
10775.47630153382
 20
2131.586003308083
 30
0.0
 11
10783.51477730675
 21
2101.586003308083
 31
0.0
  0
LINE
  5
20CE7
330
747D
100
AcDbEntity
  8
細線
 48
50.0
100
AcDbLine
 10
10802.27122077694
 20
2231.586003308083
 30
0.0
 11
10794.232745004
 21
2261.586003308083
 31
0.0
  0
LINE
  5
20CE8
330
747D
100
AcDbEntity
  8
細線
 48
50.0
100
AcDbLine
 10
10605.05110840881
 20
2231.586003308083
 30
0.0
 11
10597.01263263588
 21
2261.586003308083
 31
0.0
  0
LINE
  5
20CE9
330
747D
100
AcDbEntity
  8
細線
 48
50.0
100
AcDbLine
 10
10703.66116459287
 20
2231.586003308083
 30
0.0
 11
10695.62268881994
 21
2261.586003308083
 31
0.0
  0
LINE
  5
20CEA
330
747D
100
AcDbEntity
  8
細線
 48
50.0
100
AcDbLine
 10
10999.49133314506
 20
2231.586003308083
 30
0.0
 11
10991.45285737213
 21
2261.586003308083
 31
0.0
  0
LINE
  5
20CEB
330
747D
100
AcDbEntity
  8
細線
 48
50.0
100
AcDbLine
 10
10900.881276961
 20
2231.586003308083
 30
0.0
 11
10892.84280118806
 21
2261.586003308083
 31
0.0
  0
LINE
  5
20CEC
330
747D
100
AcDbEntity
  8
細線
100
AcDbLine
 10
10415.89194502137
 20
2411.586003308082
 30
0.0
 11
10715.89194502137
 21
2711.586003308082
 31
0.0
  0
LINE
  5
20CED
330
747D
100
AcDbEntity
  8
細線
100
AcDbLine
 10
10375.89194502137
 20
2411.586003308082
 30
0.0
 11
10675.89194502137
 21
2711.586003308082
 31
0.0
  0
LEADER
  5
20CEE
330
747D
100
AcDbEntity
  8
寸法
 48
50.0
100
AcDbLeader
  3
INABA_S50G
 71
     0
 73
     0
 74
     0
 75
     1
 40
100.0
 41
154.6599025766975
 76
     3
 10
10453.89831261096
 20
2646.893733894482
 30
0.0
 10
10508.17986309508
 20
2870.933622004217
 30
0.0
 10
10633.17986309508
 20
2870.933622004217
 30
0.0
340
20CAD
  0
LINE
  5
20CEF
330
747D
100
AcDbEntity
  8
部品1
 48
50.0
100
AcDbLine
 10
10791.07935069995
 20
2411.586003308082
 30
0.0
 11
10791.07935069995
 21
2711.586003308082
 31
0.0
  0
LINE
  5
20CF0
330
747D
100
AcDbEntity
  8
細線
100
AcDbLine
 10
10735.89194502137
 20
2411.586003308082
 30
0.0
 11
10791.07935069995
 21
2466.77340898666
 31
0.0
  0
LINE
  5
20CF1
330
747D
100
AcDbEntity
  8
細線
100
AcDbLine
 10
10695.89194502137
 20
2411.586003308082
 30
0.0
 11
10791.07935069995
 21
2506.773408986655
 31
0.0
  0
LINE
  5
20CF2
330
747D
100
AcDbEntity
  8
細線
100
AcDbLine
 10
10936.77929701878
 20
2402.62678145809
 30
0.0
 11
10927.82007516878
 21
2411.586003308082
 31
0.0
  0
LINE
  5
20CF3
330
747D
100
AcDbEntity
  8
部品1
100
AcDbLine
 10
11036.77929701878
 20
2261.586003308083
 30
0.0
 11
11036.77929701878
 21
2101.586003308086
 31
0.0
  0
TEXT
  5
20CF4
330
747D
100
AcDbEntity
  8
部品1
 48
50.0
100
AcDbText
 10
6524.856347053269
 20
2116.692947604885
 30
0.0
 40
80.0
  1
ボルトの出
 50
90.0
  7
STYLE2
100
AcDbText
  0
DIMENSION
  5
20CF5
330
747D
100
AcDbEntity
  8
寸法
 48
50.0
100
AcDbDimension
  2
*D60
 10
6367.361767396885
 20
2711.586003308082
 30
0.0
 11
6367.361767396884
 21
2247.100721933841
 31
0.0
 70
   160
  1
30～35
 71
     5
 42
60.30769230769147
  3
INABA_S40G
100
AcDbAlignedDimension
 13
5709.095734225448
 23
2771.893695615773
 33
0.0
 14
5839.095734225448
 24
2711.586003308082
 34
0.0
 50
90.0
100
AcDbRotatedDimension
1001
ACAD
1000
DSTYLE
1002
{
1070
   341
1005
0
1002
}
  0
DIMENSION
  5
20CF6
330
747D
100
AcDbEntity
  8
寸法
 48
50.0
100
AcDbDimension
  2
*D61
 10
5695.595734225448
 20
3072.275548285821
 30
0.0
 11
5384.61045285121
 21
3072.275548285821
 31
0.0
 70
   160
  1
45
 71
     5
 42
96.5
  3
INABA_S40G
100
AcDbAlignedDimension
 13
5599.095734225448
 23
2711.586003308082
 33
0.0
 14
5695.595734225448
 24
2771.893695615773
 34
0.0
100
AcDbRotatedDimension
1001
ACAD
1000
DSTYLE
1002
{
1070
   341
1005
0
1002
}
  0
TEXT
  5
20CF7
330
747D
100
AcDbEntity
  8
部品1
 48
50.0
100
AcDbText
 10
5886.691880349055
 20
3067.464684070282
 30
0.0
 40
80.0
  1
基礎ボルト
  7
STYLE2
100
AcDbText
  0
LEADER
  5
20CF8
330
747D
100
AcDbEntity
  8
寸法
 48
50.0
100
AcDbLeader
  3
INABA_S50G
 73
     0
 74
     0
 75
     1
 40
80.0
 41
435.0
 76
     3
 10
5698.738296064626
 20
2760.746003308083
 30
0.0
 10
5741.282758483945
 20
2910.969329461312
 30
0.0
 10
5866.282758483945
 20
2910.969329461312
 30
0.0
340
20CF9
1001
ACAD
1000
DSTYLE
1002
{
1070
   341
1005
0
1070
    40
1040
1.0
1070
   343
1005
0
1070
   344
1005
0
1002
}
  0
MTEXT
  5
20CF9
102
{ACAD_REACTORS
330
20CF8
102
}
330
747D
100
AcDbEntity
  8
部品1
 62
     7
 48
50.0
100
AcDbMText
 10
5891.282758483946
 20
2975.969329461312
 30
0.0
 40
80.0
 41
0.8
 71
     4
 72
     1
  1
M10X160
  7
STYLE2
 73
     1
 44
1.0
1001
ACAD
1000
MTEXTBEGIN
1070
    73
1070
     1
1070
    44
1040
1.0
1070
    74
1070
     0
1000
MTEXTEND
  0
LINE
  5
20CFA
330
747D
100
AcDbEntity
  8
部品1
100
AcDbLine
 10
5675.134195763909
 20
2737.432157154236
 30
0.0
 11
5671.903426533143
 21
2734.201387923469
 31
0.0
  0
ARC
  5
20CFB
330
747D
100
AcDbEntity
  8
部品1
100
AcDbCircle
 10
5677.28804191776
 20
2729.146090012458
 30
0.0
 40
7.3858052918609
100
AcDbArc
 50
43.1932563688935
 51
136.8067436311065
  0
LINE
  5
20CFC
330
747D
100
AcDbEntity
  8
細線
100
AcDbLine
 10
5709.095734225448
 20
2677.803451737331
 30
0.0
 11
5769.40257541665
 21
2679.575697018375
 31
0.0
  0
LINE
  5
20CFD
330
747D
100
AcDbEntity
  8
部品1
100
AcDbLine
 10
5719.28804191776
 20
2734.201387923469
 30
0.0
 11
5671.903426533139
 21
2734.201387923465
 31
0.0
  0
LINE
  5
20CFE
330
747D
100
AcDbEntity
  8
部品1
100
AcDbLine
 10
5723.595734225447
 20
2715.893695615773
 30
0.0
 11
5667.595734225447
 21
2715.893695615773
 31
0.0
  0
LINE
  5
20CFF
330
747D
100
AcDbEntity
  8
細線
 48
50.0
100
AcDbLine
 10
5713.095734225447
 20
2766.965492385497
 30
0.0
 11
5677.895734225451
 21
2757.533680811922
 31
0.0
  0
LINE
  5
20D00
330
747D
100
AcDbEntity
  8
部品1
 48
50.0
100
AcDbLine
 10
5682.095734225448
 20
2771.893695615773
 30
0.0
 11
5709.095734225448
 21
2771.893695615773
 31
0.0
  0
LINE
  5
20D01
330
747D
100
AcDbEntity
  8
部品1
100
AcDbLine
 10
5682.672657302377
 20
2734.201387923466
 30
0.0
 11
5682.672657302377
 21
2715.893695615773
 31
0.0
  0
LINE
  5
20D02
330
747D
100
AcDbEntity
  8
部品1
100
AcDbLine
 10
5723.595734225447
 20
2715.893695615773
 30
0.0
 11
5723.595734225447
 21
2711.586003308082
 31
0.0
  0
LINE
  5
20D03
330
747D
100
AcDbEntity
  8
細線
100
AcDbLine
 10
5672.69463247891
 20
2671.38714382237
 30
0.0
 11
5682.095734225452
 21
2672.890020631879
 31
0.0
  0
LINE
  5
20D04
330
747D
100
AcDbEntity
  8
部品1
100
AcDbLine
 10
5708.518811148525
 20
2734.201387923469
 30
0.0
 11
5708.518811148525
 21
2715.893695615773
 31
0.0
  0
LINE
  5
20D05
330
747D
100
AcDbEntity
  8
部品1
100
AcDbLine
 10
5719.28804191776
 20
2734.201387923466
 30
0.0
 11
5716.057272686987
 21
2737.432157154236
 31
0.0
  0
LINE
  5
20D06
330
747D
100
AcDbEntity
  8
部品1
100
AcDbLine
 10
5719.28804191776
 20
2734.201387923466
 30
0.0
 11
5719.28804191776
 21
2715.893695615773
 31
0.0
  0
ARC
  5
20D07
330
747D
100
AcDbEntity
  8
部品1
100
AcDbCircle
 10
5713.903426533143
 20
2729.146090012458
 30
0.0
 40
7.3858052918609
100
AcDbArc
 50
43.1932563688935
 51
136.8067436311065
  0
LINE
  5
20D08
330
747D
100
AcDbEntity
  8
細線
 48
50.0
100
AcDbLine
 10
5713.095734225447
 20
2742.965492385497
 30
0.0
 11
5692.445046007073
 21
2737.432157154236
 31
0.0
  0
ARC
  5
20D09
330
747D
100
AcDbEntity
  8
部品1
100
AcDbCircle
 10
5695.595734225448
 20
2701.583247606189
 30
0.0
 40
35.0848827120379
100
AcDbArc
 50
68.38687878203174
 51
111.6131212179682
  0
LINE
  5
20D0A
330
747D
100
AcDbEntity
  8
部品1
100
AcDbLine
 10
5716.057272686987
 20
2737.432157154236
 30
0.0
 11
5675.134195763909
 21
2737.432157154236
 31
0.0
  0
LINE
  5
20D0B
330
747D
100
AcDbEntity
  8
部品1
 48
50.0
100
AcDbLine
 10
5709.095734225451
 20
2737.432157154236
 30
0.0
 11
5709.095734225456
 21
2771.893695615773
 31
0.0
  0
LINE
  5
20D0C
330
747D
100
AcDbEntity
  8
部品1
 48
50.0
100
AcDbLine
 10
5682.095734225452
 20
2737.432157154236
 30
0.0
 11
5682.095734225452
 21
2771.893695615773
 31
0.0
  0
LINE
  5
20D0D
330
747D
100
AcDbEntity
  8
細線
 48
50.0
100
AcDbLine
 10
5713.095734225447
 20
2754.965492385501
 30
0.0
 11
5677.895734225451
 21
2745.533680811924
 31
0.0
  0
LINE
  5
20D0E
330
747D
100
AcDbEntity
  8
細線
100
AcDbLine
 10
5798.906644094881
 20
2677.937952320986
 30
0.0
 11
5839.095734225448
 21
2669.749399124982
 31
0.0
  0
LINE
  5
20D0F
330
747D
100
AcDbEntity
  8
部品1
100
AcDbLine
 10
5667.595734225447
 20
2715.893695615773
 30
0.0
 11
5667.595734225447
 21
2711.586003308082
 31
0.0
  0
LINE
  5
20D10
330
747D
100
AcDbEntity
  8
部品1
100
AcDbLine
 10
5671.903426533143
 20
2734.201387923469
 30
0.0
 11
5671.903426533143
 21
2715.893695615773
 31
0.0
  0
LINE
  5
20D11
330
747D
100
AcDbEntity
  8
細線
100
AcDbLine
 10
5769.40257541665
 20
2679.575697018375
 30
0.0
 11
5798.906644094881
 21
2677.937952320986
 31
0.0
  0
LINE
  5
20D12
330
747D
100
AcDbEntity
  8
細線
 48
50.0
100
AcDbLine
 10
5748.536618307926
 20
2542.668963679358
 30
0.0
 11
5839.095734225448
 21
2633.228079596879
 31
0.0
  0
LINE
  5
20D13
330
747D
100
AcDbEntity
  8
細線
 48
50.0
100
AcDbLine
 10
5749.095734225447
 20
2509.552119142871
 30
0.0
 11
5839.095734225448
 21
2599.55211914287
 31
0.0
  0
LINE
  5
20D14
330
747D
100
AcDbEntity
  8
細線
 48
50.0
100
AcDbLine
 10
5709.095734225448
 20
2469.552119142868
 30
0.0
 11
5729.095734225448
 21
2489.55211914287
 31
0.0
  0
LINE
  5
20D15
330
747D
100
AcDbEntity
  8
部品1
 48
50.0
100
AcDbLine
 10
5749.095734225448
 20
2464.245021679485
 30
0.0
 11
5749.095734225448
 21
2536.904040050889
 31
0.0
  0
LINE
  5
20D16
330
747D
100
AcDbEntity
  8
部品1
 48
50.0
100
AcDbLine
 10
5729.095734225448
 20
2464.245021679485
 30
0.0
 11
5729.095734225448
 21
2536.904040050889
 31
0.0
  0
LINE
  5
20D17
330
747D
100
AcDbEntity
  8
部品1
 48
50.0
100
AcDbLine
 10
5729.095734225448
 20
2464.245021679485
 30
0.0
 11
5749.095734225448
 21
2464.245021679485
 31
0.0
  0
LINE
  5
20D18
330
747D
100
AcDbEntity
  8
部品1
 48
50.0
100
AcDbLine
 10
5729.095734225448
 20
2464.245021679485
 30
0.0
 11
5729.095734225448
 21
2536.904040050889
 31
0.0
  0
LINE
  5
20D19
330
747D
100
AcDbEntity
  8
細線
 48
50.0
100
AcDbLine
 10
5709.095734225448
 20
2503.228079596879
 30
0.0
 11
5729.095734225448
 21
2523.228079596879
 31
0.0
  0
ARC
  5
20D1A
330
747D
100
AcDbEntity
  8
部品1
 48
50.0
100
AcDbCircle
 10
5719.095734225447
 20
2536.904040050889
 30
0.0
 40
29.99999999999979
100
AcDbArc
 50
0.0
 51
109.4712206345269
  0
CIRCLE
  5
20D1B
330
747D
100
AcDbEntity
  8
部品1
 48
50.0
100
AcDbCircle
 10
5719.095734225447
 20
2536.904040050889
 30
0.0
 40
10.0
  0
LINE
  5
20D1C
330
747D
100
AcDbEntity
  8
部品1
 48
50.0
100
AcDbLine
 10
5769.095734225448
 20
2424.586003308082
 30
0.0
 11
5769.095734225448
 21
2451.586003308082
 31
0.0
  0
LINE
  5
20D1D
330
747D
100
AcDbEntity
  8
部品1
 48
50.0
100
AcDbLine
 10
5719.095734225447
 20
2424.586003308082
 30
0.0
 11
5769.095734225448
 21
2424.586003308082
 31
0.0
  0
LINE
  5
20D1E
330
747D
100
AcDbEntity
  8
部品1
 48
50.0
100
AcDbLine
 10
5719.095734225447
 20
2451.586003308082
 30
0.0
 11
5769.095734225448
 21
2451.586003308082
 31
0.0
  0
ARC
  5
20D1F
330
747D
100
AcDbEntity
  8
部品1
 48
50.0
100
AcDbCircle
 10
5719.095734225447
 20
2461.586003308082
 30
0.0
 40
37.0
100
AcDbArc
 50
180.0
 51
270.0
  0
ARC
  5
20D20
330
747D
100
AcDbEntity
  8
部品1
 48
50.0
100
AcDbCircle
 10
5719.095734225447
 20
2461.586003308082
 30
0.0
 40
10.0
100
AcDbArc
 50
180.0
 51
270.0
  0
LINE
  5
20D21
330
747D
100
AcDbEntity
  8
細線
 48
50.0
100
AcDbLine
 10
5734.711262353538
 20
2562.519568178975
 30
0.0
 11
5839.095734225448
 21
2666.904040050888
 31
0.0
  0
LINE
  5
20D22
330
747D
100
AcDbEntity
  8
部品1
 48
50.0
100
AcDbLine
 10
5682.095734225448
 20
2461.586003308082
 30
0.0
 11
5682.095734225452
 21
2711.586003308082
 31
0.0
  0
LINE
  5
20D23
330
747D
100
AcDbEntity
  8
部品1
 48
50.0
100
AcDbLine
 10
5709.095734225448
 20
2461.586003308082
 30
0.0
 11
5709.095734225448
 21
2711.586003308082
 31
0.0
  0
LINE
  5
20D24
330
747D
100
AcDbEntity
  8
細線
100
AcDbLine
 10
5599.095734225448
 20
2681.213384952121
 30
0.0
 11
5636.63405773147
 21
2671.38714382237
 31
0.0
  0
LINE
  5
20D25
330
747D
100
AcDbEntity
  8
細線
 48
50.0
100
AcDbLine
 10
5599.095734225448
 20
2662.635763228954
 30
0.0
 11
5613.819247036754
 21
2677.35927604026
 31
0.0
  0
LINE
  5
20D26
330
747D
100
AcDbEntity
  8
細線
 48
50.0
100
AcDbLine
 10
5599.095734225448
 20
2628.959802774945
 30
0.0
 11
5641.523075272875
 21
2671.387143822372
 31
0.0
  0
LINE
  5
20D27
330
747D
100
AcDbEntity
  8
部品1
 48
50.0
100
AcDbLine
 10
5599.095734225448
 20
2711.586003308082
 30
0.0
 11
5839.095734225448
 21
2711.586003308082
 31
0.0
  0
LINE
  5
20D28
330
747D
100
AcDbEntity
  8
細線
 48
50.0
100
AcDbLine
 10
5599.095734225448
 20
2359.55211914287
 30
0.0
 11
5685.540239097782
 21
2445.996624015203
 31
0.0
  0
LINE
  5
20D29
330
747D
100
AcDbEntity
  8
細線
 48
50.0
100
AcDbLine
 10
5599.095734225448
 20
2393.228079596879
 30
0.0
 11
5682.095734225448
 21
2476.22807959688
 31
0.0
  0
LINE
  5
20D2A
330
747D
100
AcDbEntity
  8
細線
 48
50.0
100
AcDbLine
 10
5599.095734225448
 20
2426.904040050889
 30
0.0
 11
5682.095734225449
 21
2509.904040050889
 31
0.0
  0
LINE
  5
20D2B
330
747D
100
AcDbEntity
  8
細線
100
AcDbLine
 10
5636.63405773147
 20
2671.38714382237
 30
0.0
 11
5672.69463247891
 21
2671.38714382237
 31
0.0
  0
LINE
  5
20D2C
330
747D
100
AcDbEntity
  8
細線
 48
50.0
100
AcDbLine
 10
5709.095734225448
 20
2200.144435510796
 30
0.0
 11
5839.095734225441
 21
2330.144435510793
 31
0.0
  0
LINE
  5
20D2D
330
747D
100
AcDbEntity
  8
部品1
 48
50.0
100
AcDbLine
 10
5929.095734225448
 20
1851.586003308081
 30
0.0
 11
5929.095734225448
 21
1871.586003308081
 31
0.0
  0
CIRCLE
  5
20D2E
330
747D
100
AcDbEntity
  8
部品1
 48
50.0
100
AcDbCircle
 10
5879.095734225447
 20
1881.586003308081
 30
0.0
 40
10.0
  0
LINE
  5
20D2F
330
747D
100
AcDbEntity
  8
細線
 48
50.0
100
AcDbLine
 10
5885.676708832875
 20
1871.586003308081
 30
0.0
 11
5999.095734225448
 21
1985.005028700655
 31
0.0
  0
LINE
  5
20D30
330
747D
100
AcDbEntity
  8
細線
 48
50.0
100
AcDbLine
 10
5919.352669286883
 20
1871.586003308081
 30
0.0
 11
5999.095734225448
 21
1951.329068246644
 31
0.0
  0
LINE
  5
20D31
330
747D
100
AcDbEntity
  8
細線
 48
50.0
100
AcDbLine
 10
5709.095734225448
 20
1930.736751878718
 30
0.0
 11
5729.095734225448
 21
1950.736751878719
 31
0.0
  0
LINE
  5
20D32
330
747D
100
AcDbEntity
  8
部品1
 48
50.0
100
AcDbLine
 10
5729.095734225448
 20
1954.245021679485
 30
0.0
 11
5749.095734225448
 21
1954.245021679485
 31
0.0
  0
LINE
  5
20D33
330
747D
100
AcDbEntity
  8
部品1
 48
50.0
100
AcDbLine
 10
5749.095734225448
 20
1954.245021679485
 30
0.0
 11
5749.095734225448
 21
1881.586003308081
 31
0.0
  0
LINE
  5
20D34
330
747D
100
AcDbEntity
  8
部品1
 48
50.0
100
AcDbLine
 10
5729.095734225448
 20
1954.245021679485
 30
0.0
 11
5729.095734225448
 21
1881.586003308081
 31
0.0
  0
ARC
  5
20D35
330
747D
100
AcDbEntity
  8
部品1
 48
50.0
100
AcDbCircle
 10
5719.095734225447
 20
1881.586003308081
 30
0.0
 40
30.0
100
AcDbArc
 50
180.0
 51
199.4712206344713
  0
ARC
  5
20D36
330
747D
100
AcDbEntity
  8
部品1
 48
50.0
100
AcDbCircle
 10
5719.095734225447
 20
1881.586003308081
 30
0.0
 40
30.0
100
AcDbArc
 50
340.5287793655287
 51
0.0
  0
LINE
  5
20D37
330
747D
100
AcDbEntity
  8
細線
 48
50.0
100
AcDbLine
 10
5649.944985654808
 20
1871.586003308081
 30
0.0
 11
5689.095734225448
 21
1910.736751878718
 31
0.0
  0
CIRCLE
  5
20D38
330
747D
100
AcDbEntity
  8
部品1
 48
50.0
100
AcDbCircle
 10
5719.095734225447
 20
1881.586003308081
 30
0.0
 40
10.0
  0
LINE
  5
20D39
330
747D
100
AcDbEntity
  8
細線
 48
50.0
100
AcDbLine
 10
5852.000748378857
 20
1871.586003308081
 30
0.0
 11
5999.095734225448
 21
2018.680989154665
 31
0.0
  0
LINE
  5
20D3A
330
747D
100
AcDbEntity
  8
部品1
 48
50.0
100
AcDbLine
 10
5839.095734225448
 20
2031.586003308081
 30
0.0
 11
5999.095734225448
 21
2031.586003308081
 31
0.0
  0
LINE
  5
20D3B
330
747D
100
AcDbEntity
  8
細線
 48
50.0
100
AcDbLine
 10
5709.095734225448
 20
1964.412712332731
 30
0.0
 11
5839.095734225441
 21
2094.412712332728
 31
0.0
  0
LINE
  5
20D3C
330
747D
100
AcDbEntity
  8
細線
 48
50.0
100
AcDbLine
 10
5709.095734225448
 20
1998.088672786742
 30
0.0
 11
5839.095734225441
 21
2128.088672786737
 31
0.0
  0
TEXT
  5
20D3D
330
747D
100
AcDbEntity
  8
部品1
 48
50.0
100
AcDbText
 10
5241.26663633547
 20
2244.787937348711
 30
0.0
 40
100.0
  1
G.L
  7
STYLE1
100
AcDbText
  0
LINE
  5
20D3E
330
747D
100
AcDbEntity
  8
部品1
 48
50.0
100
AcDbLine
 10
5509.095734225447
 20
1851.586003308081
 30
0.0
 11
5509.095734225447
 21
1871.586003308081
 31
0.0
  0
CIRCLE
  5
20D3F
330
747D
100
AcDbEntity
  8
部品1
 48
50.0
100
AcDbCircle
 10
5559.095734225447
 20
1881.586003308081
 30
0.0
 40
10.0
  0
LINE
  5
20D40
330
747D
100
AcDbEntity
  8
細線
 48
50.0
100
AcDbLine
 10
5439.095734225441
 20
1997.496356418812
 30
0.0
 11
5473.185381114716
 21
2031.586003308081
 31
0.0
  0
LINE
  5
20D41
330
747D
100
AcDbEntity
  8
細線
 48
50.0
100
AcDbLine
 10
5439.095734225441
 20
1963.820395964802
 30
0.0
 11
5506.861341568722
 21
2031.586003308081
 31
0.0
  0
LINE
  5
20D42
330
747D
100
AcDbEntity
  8
部品1
 48
50.0
100
AcDbLine
 10
5439.095734225448
 20
2031.586003308081
 30
0.0
 11
5599.095734225448
 21
2031.586003308081
 31
0.0
  0
LINE
  5
20D43
330
747D
100
AcDbEntity
  8
細線
 48
50.0
100
AcDbLine
 10
5439.095734225441
 20
1930.144435510793
 30
0.0
 11
5540.537302022734
 21
2031.586003308081
 31
0.0
  0
LINE
  5
20D44
330
747D
100
AcDbEntity
  8
部品1
 48
50.0
100
AcDbLine
 10
5509.095734225447
 20
1851.586003308081
 30
0.0
 11
5929.095734225448
 21
1851.586003308081
 31
0.0
  0
LINE
  5
20D45
330
747D
100
AcDbEntity
  8
部品1
 48
50.0
100
AcDbLine
 10
5509.095734225447
 20
1871.586003308081
 30
0.0
 11
5929.095734225448
 21
1871.586003308081
 31
0.0
  0
LINE
  5
20D46
330
747D
100
AcDbEntity
  8
細線
 48
50.0
100
AcDbLine
 10
5616.269025200796
 20
1871.586003308081
 30
0.0
 11
5689.095734225444
 21
1944.412712332729
 31
0.0
  0
LINE
  5
20D47
330
747D
100
AcDbEntity
  8
細線
 48
50.0
100
AcDbLine
 10
5582.593064746791
 20
1871.586003308081
 30
0.0
 11
5689.095734225448
 21
1978.088672786739
 31
0.0
  0
LINE
  5
20D48
330
747D
100
AcDbEntity
  8
細線
 48
50.0
100
AcDbLine
 10
5599.095734225448
 20
2123.820395964804
 30
0.0
 11
5689.095734225448
 21
2213.820395964805
 31
0.0
  0
LINE
  5
20D49
330
747D
100
AcDbEntity
  8
細線
 48
50.0
100
AcDbLine
 10
5599.095734225448
 20
2090.144435510795
 30
0.0
 11
5689.095734225448
 21
2180.144435510796
 31
0.0
  0
LINE
  5
20D4A
330
747D
100
AcDbEntity
  8
細線
 48
50.0
100
AcDbLine
 10
5599.095734225448
 20
2157.496356418814
 30
0.0
 11
5689.095734225448
 21
2247.496356418814
 31
0.0
  0
LINE
  5
20D4B
330
747D
100
AcDbEntity
  8
細線
 48
50.0
100
AcDbLine
 10
5709.095734225448
 20
2267.496356418815
 30
0.0
 11
5839.095734225448
 21
2397.496356418812
 31
0.0
  0
LINE
  5
20D4C
330
747D
100
AcDbEntity
  8
細線
 48
50.0
100
AcDbLine
 10
5709.095734225448
 20
2233.820395964805
 30
0.0
 11
5839.095734225441
 21
2363.820395964803
 31
0.0
  0
LINE
  5
20D4D
330
747D
100
AcDbEntity
  8
部品1
 48
50.0
100
AcDbLine
 10
5709.095734225448
 20
1881.586003308081
 30
0.0
 11
5709.095734225448
 21
2425.962977046968
 31
0.0
  0
LINE
  5
20D4E
330
747D
100
AcDbEntity
  8
部品1
 48
50.0
100
AcDbLine
 10
5689.095734225448
 20
1881.586003308081
 30
0.0
 11
5689.095734225448
 21
2439.929595480376
 31
0.0
  0
LINE
  5
20D4F
330
747D
100
AcDbEntity
  8
部品1
 48
50.0
100
AcDbLine
 10
5599.095734225448
 20
2031.586003308081
 30
0.0
 11
5599.095734225448
 21
2711.586003308082
 31
0.0
  0
LINE
  5
20D50
330
747D
100
AcDbEntity
  8
部品1
 48
50.0
100
AcDbLine
 10
5839.095734225448
 20
2711.586003308082
 30
0.0
 11
5839.095734225448
 21
2031.586003308081
 31
0.0
  0
LINE
  5
20D51
330
747D
100
AcDbEntity
  8
Ｇ．Ｌ
 48
50.0
100
AcDbLine
 10
5839.095734225448
 20
2411.586003308082
 30
0.0
 11
6191.601040787211
 21
2411.586003308082
 31
0.0
  0
LINE
  5
20D52
330
747D
100
AcDbEntity
  8
部品1
 48
50.0
100
AcDbLine
 10
6099.095734225446
 20
1731.586003308081
 30
0.0
 11
6099.095734225446
 21
1571.586003308081
 31
0.0
  0
LINE
  5
20D53
330
747D
100
AcDbEntity
  8
細線
 48
50.0
100
AcDbLine
 10
5999.442927920579
 20
1601.586003308081
 30
0.0
 11
6007.481403693513
 21
1571.586003308081
 31
0.0
  0
LINE
  5
20D54
330
747D
100
AcDbEntity
  8
細線
 48
50.0
100
AcDbLine
 10
6026.237847163692
 20
1701.586003308081
 30
0.0
 11
6018.199371390758
 21
1731.586003308081
 31
0.0
  0
LINE
  5
20D55
330
747D
100
AcDbEntity
  8
細線
 48
50.0
100
AcDbLine
 10
5981.408432010939
 20
1731.586003308081
 30
0.0
 11
5999.095734225448
 21
1749.273305522588
 31
0.0
  0
LINE
  5
20D56
330
747D
100
AcDbEntity
  8
細線
 48
50.0
100
AcDbLine
 10
5991.404452147646
 20
1571.586003308081
 30
0.0
 11
6034.276322936625
 21
1731.586003308081
 31
0.0
  0
LINE
  5
20D57
330
747D
100
AcDbEntity
  8
細線
 48
50.0
100
AcDbLine
 10
5927.627790979633
 20
1701.586003308081
 30
0.0
 11
5919.5893152067
 21
1731.586003308081
 31
0.0
  0
LINE
  5
20D58
330
747D
100
AcDbEntity
  8
細線
 48
50.0
100
AcDbLine
 10
5900.832871736522
 20
1601.586003308081
 30
0.0
 11
5908.871347509456
 21
1571.586003308081
 31
0.0
  0
LINE
  5
20D59
330
747D
100
AcDbEntity
  8
細線
 48
50.0
100
AcDbLine
 10
5892.794395963589
 20
1571.586003308081
 30
0.0
 11
5935.666266752567
 21
1731.586003308081
 31
0.0
  0
LINE
  5
20D5A
330
747D
100
AcDbEntity
  8
細線
 48
50.0
100
AcDbLine
 10
5730.407678611511
 20
1701.586003308081
 30
0.0
 11
5722.369202838578
 21
1731.586003308081
 31
0.0
  0
LINE
  5
20D5B
330
747D
100
AcDbEntity
  8
細線
 48
50.0
100
AcDbLine
 10
5703.6127593684
 20
1601.586003308081
 30
0.0
 11
5711.651235141333
 21
1571.586003308081
 31
0.0
  0
LINE
  5
20D5C
330
747D
100
AcDbEntity
  8
細線
 48
50.0
100
AcDbLine
 10
5695.574283595465
 20
1571.586003308081
 30
0.0
 11
5738.446154384444
 21
1731.586003308081
 31
0.0
  0
LINE
  5
20D5D
330
747D
100
AcDbEntity
  8
細線
 48
50.0
100
AcDbLine
 10
5829.017734795576
 20
1701.586003308081
 30
0.0
 11
5820.979259022642
 21
1731.586003308081
 31
0.0
  0
LINE
  5
20D5E
330
747D
100
AcDbEntity
  8
細線
 48
50.0
100
AcDbLine
 10
5802.222815552458
 20
1601.586003308081
 30
0.0
 11
5810.261291325391
 21
1571.586003308081
 31
0.0
  0
LINE
  5
20D5F
330
747D
100
AcDbEntity
  8
細線
 48
50.0
100
AcDbLine
 10
5794.184339779527
 20
1571.586003308081
 30
0.0
 11
5837.056210568506
 21
1731.586003308081
 31
0.0
  0
LINE
  5
20D60
330
747D
100
AcDbEntity
  8
細線
 48
50.0
100
AcDbLine
 10
5631.797622427454
 20
1701.586003308081
 30
0.0
 11
5623.759146654521
 21
1731.586003308081
 31
0.0
  0
LINE
  5
20D61
330
747D
100
AcDbEntity
  8
細線
 48
50.0
100
AcDbLine
 10
5605.002703184342
 20
1601.586003308081
 30
0.0
 11
5613.041178957275
 21
1571.586003308081
 31
0.0
  0
LINE
  5
20D62
330
747D
100
AcDbEntity
  8
細線
 48
50.0
100
AcDbLine
 10
5596.964227411405
 20
1571.586003308081
 30
0.0
 11
5639.836098200387
 21
1731.586003308081
 31
0.0
  0
LINE
  5
20D63
330
747D
100
AcDbEntity
  8
細線
 48
50.0
100
AcDbLine
 10
5533.187566243388
 20
1701.586003308081
 30
0.0
 11
5525.149090470455
 21
1731.586003308081
 31
0.0
  0
LINE
  5
20D64
330
747D
100
AcDbEntity
  8
細線
 48
50.0
100
AcDbLine
 10
5506.392647000277
 20
1601.586003308081
 30
0.0
 11
5514.43112277321
 21
1571.586003308081
 31
0.0
  0
LINE
  5
20D65
330
747D
100
AcDbEntity
  8
細線
 48
50.0
100
AcDbLine
 10
5498.354171227344
 20
1571.586003308081
 30
0.0
 11
5541.226042016322
 21
1731.586003308081
 31
0.0
  0
LINE
  5
20D66
330
747D
100
AcDbEntity
  8
部品1
 48
50.0
100
AcDbLine
 10
5339.095734225448
 20
1571.586003308081
 30
0.0
 11
5339.095734225448
 21
1731.586003308081
 31
0.0
  0
LINE
  5
20D67
330
747D
100
AcDbEntity
  8
細線
 48
50.0
100
AcDbLine
 10
5407.782590816204
 20
1601.586003308081
 30
0.0
 11
5415.821066589138
 21
1571.586003308081
 31
0.0
  0
LINE
  5
20D68
330
747D
100
AcDbEntity
  8
細線
 48
50.0
100
AcDbLine
 10
5434.577510059316
 20
1701.586003308081
 30
0.0
 11
5426.539034286383
 21
1731.586003308081
 31
0.0
  0
LINE
  5
20D69
330
747D
100
AcDbEntity
  8
細線
 48
50.0
100
AcDbLine
 10
5399.744115043271
 20
1571.586003308081
 30
0.0
 11
5442.615985832265
 21
1731.586003308081
 31
0.0
  0
LINE
  5
20D6A
330
747D
100
AcDbEntity
  8
部品1
 48
50.0
100
AcDbLine
 10
6099.095734225446
 20
1571.586003308081
 30
0.0
 11
5339.095734225448
 21
1571.586003308081
 31
0.0
  0
LINE
  5
20D6B
330
747D
100
AcDbEntity
  8
部品1
 48
50.0
100
AcDbLine
 10
6099.095734225446
 20
1731.586003308081
 30
0.0
 11
5339.095734225448
 21
1731.586003308081
 31
0.0
  0
LINE
  5
20D6C
330
747D
100
AcDbEntity
  8
細線
 48
50.0
100
AcDbLine
 10
5745.676708832871
 20
1731.586003308081
 30
0.0
 11
5865.676708832871
 21
1851.586003308081
 31
0.0
  0
LINE
  5
20D6D
330
747D
100
AcDbEntity
  8
細線
 48
50.0
100
AcDbLine
 10
5712.000748378865
 20
1731.586003308081
 30
0.0
 11
5832.000748378865
 21
1851.586003308081
 31
0.0
  0
LINE
  5
20D6E
330
747D
100
AcDbEntity
  8
細線
 48
50.0
100
AcDbLine
 10
5442.593064746791
 20
1731.586003308081
 30
0.0
 11
5562.59306474679
 21
1851.586003308081
 31
0.0
  0
LINE
  5
20D6F
330
747D
100
AcDbEntity
  8
細線
 48
50.0
100
AcDbLine
 10
5509.944985654809
 20
1731.586003308081
 30
0.0
 11
5629.944985654809
 21
1851.586003308081
 31
0.0
  0
LINE
  5
20D70
330
747D
100
AcDbEntity
  8
細線
 48
50.0
100
AcDbLine
 10
5476.269025200796
 20
1731.586003308081
 30
0.0
 11
5596.269025200796
 21
1851.586003308081
 31
0.0
  0
LINE
  5
20D71
330
747D
100
AcDbEntity
  8
部品1
 48
50.0
100
AcDbLine
 10
5439.095734225448
 20
1731.586003308081
 30
0.0
 11
5439.095734225448
 21
2031.586003308081
 31
0.0
  0
LINE
  5
20D72
330
747D
100
AcDbEntity
  8
部品1
 48
50.0
100
AcDbLine
 10
5999.095734225448
 20
2031.586003308081
 30
0.0
 11
5999.095734225448
 21
1731.586003308081
 31
0.0
  0
LINE
  5
20D73
330
747D
100
AcDbEntity
  8
細線
 48
50.0
100
AcDbLine
 10
5779.352669286883
 20
1731.586003308081
 30
0.0
 11
5899.353779093304
 21
1851.587113114506
 31
0.0
  0
LINE
  5
20D74
330
747D
100
AcDbEntity
  8
部品1
 48
50.0
100
AcDbLine
 10
5142.792282864415
 20
2318.892235294424
 30
0.0
 11
5190.983781914944
 21
2235.422110446
 31
0.0
  0
LINE
  5
20D75
330
747D
100
AcDbEntity
  8
Ｇ．Ｌ
 48
50.0
100
AcDbLine
 10
5081.420856934252
 20
2235.422110446004
 30
0.0
 11
5599.095734225448
 21
2235.422110446004
 31
0.0
  0
LINE
  5
20D76
330
747D
100
AcDbEntity
  8
部品1
 48
50.0
100
AcDbLine
 10
5239.175280965472
 20
2318.892235294424
 30
0.0
 11
5190.983781914944
 21
2235.422110446
 31
0.0
  0
LINE
  5
20D77
330
747D
100
AcDbEntity
  8
部品1
 48
50.0
100
AcDbLine
 10
5142.792282864415
 20
2318.892235294424
 30
0.0
 11
5239.175280965472
 21
2318.892235294424
 31
0.0
  0
LINE
  5
20D78
330
747D
100
AcDbEntity
  8
細線
100
AcDbLine
 10
8262.944258615755
 20
2679.575697018375
 30
0.0
 11
8292.44832729398
 21
2677.937952320986
 31
0.0
  0
LINE
  5
20D79
330
747D
100
AcDbEntity
  8
細線
100
AcDbLine
 10
8292.44832729398
 20
2677.937952320986
 30
0.0
 11
8332.637417424544
 21
2669.749399124982
 31
0.0
  0
LINE
  5
20D7A
330
747D
100
AcDbEntity
  8
細線
 48
50.0
100
AcDbLine
 10
8242.078301507028
 20
2542.668963679358
 30
0.0
 11
8332.637417424544
 21
2633.228079596879
 31
0.0
  0
LINE
  5
20D7B
330
747D
100
AcDbEntity
  8
細線
 48
50.0
100
AcDbLine
 10
8242.637417424544
 20
2509.55211914287
 30
0.0
 11
8332.637417424544
 21
2599.55211914287
 31
0.0
  0
LINE
  5
20D7C
330
747D
100
AcDbEntity
  8
細線
 48
50.0
100
AcDbLine
 10
8228.25294555264
 20
2562.519568178977
 30
0.0
 11
8332.637417424544
 21
2666.904040050888
 31
0.0
  0
LINE
  5
20D7D
330
747D
100
AcDbEntity
  8
細線
100
AcDbLine
 10
8166.236315678007
 20
2671.38714382237
 30
0.0
 11
8207.214269977319
 21
2677.937952320986
 31
0.0
  0
LINE
  5
20D7E
330
747D
100
AcDbEntity
  8
細線
100
AcDbLine
 10
8130.175740930573
 20
2671.38714382237
 30
0.0
 11
8166.236315678007
 21
2671.38714382237
 31
0.0
  0
LINE
  5
20D7F
330
747D
100
AcDbEntity
  8
細線
 48
50.0
100
AcDbLine
 10
8092.637417424546
 20
2662.635763228954
 30
0.0
 11
8107.360930235854
 21
2677.35927604026
 31
0.0
  0
LINE
  5
20D80
330
747D
100
AcDbEntity
  8
細線
100
AcDbLine
 10
8092.637417424546
 20
2681.213384952121
 30
0.0
 11
8130.175740930573
 21
2671.38714382237
 31
0.0
  0
LINE
  5
20D81
330
747D
100
AcDbEntity
  8
細線
 48
50.0
100
AcDbLine
 10
8092.637417424546
 20
2359.55211914287
 30
0.0
 11
8197.330319961164
 21
2464.245021679485
 31
0.0
  0
LINE
  5
20D82
330
747D
100
AcDbEntity
  8
細線
 48
50.0
100
AcDbLine
 10
8202.637417424549
 20
2469.55211914287
 30
0.0
 11
8222.637417424545
 21
2489.55211914287
 31
0.0
  0
LINE
  5
20D83
330
747D
100
AcDbEntity
  8
部品1
 48
50.0
100
AcDbLine
 10
8202.637417424545
 20
2464.245021679485
 30
0.0
 11
8182.637417424544
 21
2464.245021679487
 31
0.0
  0
LINE
  5
20D84
330
747D
100
AcDbEntity
  8
部品1
 48
50.0
100
AcDbLine
 10
8182.637417424544
 20
2464.245021679487
 30
0.0
 11
8182.637417424544
 21
2536.90404005089
 31
0.0
  0
LINE
  5
20D85
330
747D
100
AcDbEntity
  8
細線
 48
50.0
100
AcDbLine
 10
8202.637417424545
 20
2503.228079596879
 30
0.0
 11
8222.637417424545
 21
2523.228079596879
 31
0.0
  0
LINE
  5
20D86
330
747D
100
AcDbEntity
  8
部品1
 48
50.0
100
AcDbLine
 10
8202.637417424545
 20
2464.245021679485
 30
0.0
 11
8202.637417424545
 21
2536.904040050889
 31
0.0
  0
CIRCLE
  5
20D87
330
747D
100
AcDbEntity
  8
部品1
 48
50.0
100
AcDbCircle
 10
8212.637417424545
 20
2536.904040050889
 30
0.0
 40
10.0
  0
LINE
  5
20D88
330
747D
100
AcDbEntity
  8
細線
 48
50.0
100
AcDbLine
 10
8092.637417424546
 20
2393.228079596879
 30
0.0
 11
8182.637417424544
 21
2483.228079596879
 31
0.0
  0
LINE
  5
20D89
330
747D
100
AcDbEntity
  8
細線
 48
50.0
100
AcDbLine
 10
8092.637417424546
 20
2426.904040050889
 30
0.0
 11
8182.637417424544
 21
2516.904040050889
 31
0.0
  0
LINE
  5
20D8A
330
747D
100
AcDbEntity
  8
細線
 48
50.0
100
AcDbLine
 10
8092.637417424546
 20
2628.959802774945
 30
0.0
 11
8135.064758471973
 21
2671.38714382237
 31
0.0
  0
ARC
  5
20D8B
330
747D
100
AcDbEntity
  8
部品1
 48
50.0
100
AcDbCircle
 10
8212.637417424545
 20
2536.904040050889
 30
0.0
 40
30.0
100
AcDbArc
 50
0.0
 51
180.0
  0
LINE
  5
20D8C
330
747D
100
AcDbEntity
  8
細線
100
AcDbLine
 10
8207.214269977319
 20
2677.937952320986
 30
0.0
 11
8262.944258615755
 21
2679.575697018375
 31
0.0
  0
LINE
  5
20D8D
330
747D
100
AcDbEntity
  8
部品1
 48
50.0
100
AcDbLine
 10
8092.637417424546
 20
2711.586003308082
 30
0.0
 11
8332.637417424544
 21
2711.586003308082
 31
0.0
  0
LINE
  5
20D8E
330
747D
100
AcDbEntity
  8
細線
 48
50.0
100
AcDbLine
 10
8242.637417424552
 20
2240.144435510797
 30
0.0
 11
8332.637417424544
 21
2330.144435510793
 31
0.0
  0
LINE
  5
20D8F
330
747D
100
AcDbEntity
  8
細線
 48
50.0
100
AcDbLine
 10
8242.637417424552
 20
1970.736751878722
 30
0.0
 11
8332.637417424544
 21
2060.736751878719
 31
0.0
  0
LINE
  5
20D90
330
747D
100
AcDbEntity
  8
部品1
 48
50.0
100
AcDbLine
 10
8422.637417424544
 20
1851.586003308081
 30
0.0
 11
8422.637417424544
 21
1871.586003308081
 31
0.0
  0
CIRCLE
  5
20D91
330
747D
100
AcDbEntity
  8
部品1
 48
50.0
100
AcDbCircle
 10
8372.637417424545
 20
1881.586003308081
 30
0.0
 40
10.0
  0
ARC
  5
20D92
330
747D
100
AcDbEntity
  8
部品1
 48
50.0
100
AcDbCircle
 10
8212.637417424545
 20
1881.586003308081
 30
0.0
 40
30.0
100
AcDbArc
 50
340.5287793655287
 51
0.0
  0
LINE
  5
20D93
330
747D
100
AcDbEntity
  8
部品1
 48
50.0
100
AcDbLine
 10
8332.637417424544
 20
2031.586003308081
 30
0.0
 11
8492.637417424544
 21
2031.586003308081
 31
0.0
  0
LINE
  5
20D94
330
747D
100
AcDbEntity
  8
細線
 48
50.0
100
AcDbLine
 10
8412.894352485984
 20
1871.586003308081
 30
0.0
 11
8492.637417424544
 21
1951.329068246644
 31
0.0
  0
LINE
  5
20D95
330
747D
100
AcDbEntity
  8
細線
 48
50.0
100
AcDbLine
 10
8345.542431577959
 20
1871.586003308081
 30
0.0
 11
8492.637417424544
 21
2018.680989154665
 31
0.0
  0
LINE
  5
20D96
330
747D
100
AcDbEntity
  8
細線
 48
50.0
100
AcDbLine
 10
8379.218392031974
 20
1871.586003308081
 30
0.0
 11
8492.637417424544
 21
1985.005028700655
 31
0.0
  0
LINE
  5
20D97
330
747D
100
AcDbEntity
  8
細線
 48
50.0
100
AcDbLine
 10
8242.637417424552
 20
2004.412712332733
 30
0.0
 11
8332.637417424544
 21
2094.412712332728
 31
0.0
  0
LINE
  5
20D98
330
747D
100
AcDbEntity
  8
細線
 48
50.0
100
AcDbLine
 10
8242.637417424552
 20
2038.088672786743
 30
0.0
 11
8332.637417424544
 21
2128.088672786737
 31
0.0
  0
LINE
  5
20D99
330
747D
100
AcDbEntity
  8
細線
 48
50.0
100
AcDbLine
 10
8092.637417424546
 20
2123.820395964804
 30
0.0
 11
8222.637417424552
 21
2253.820395964806
 31
0.0
  0
LINE
  5
20D9A
330
747D
100
AcDbEntity
  8
細線
 48
50.0
100
AcDbLine
 10
8092.637417424546
 20
2090.144435510795
 30
0.0
 11
8222.637417424548
 21
2220.144435510795
 31
0.0
  0
LINE
  5
20D9B
330
747D
100
AcDbEntity
  8
細線
 48
50.0
100
AcDbLine
 10
8092.637417424546
 20
2157.496356418814
 30
0.0
 11
8222.637417424545
 21
2287.496356418814
 31
0.0
  0
LINE
  5
20D9C
330
747D
100
AcDbEntity
  8
細線
 48
50.0
100
AcDbLine
 10
8192.469726771305
 20
1954.245021679485
 30
0.0
 11
8222.637417424552
 21
1984.412712332731
 31
0.0
  0
LINE
  5
20D9D
330
747D
100
AcDbEntity
  8
部品1
 48
50.0
100
AcDbLine
 10
8202.637417424545
 20
1954.245021679485
 30
0.0
 11
8182.637417424544
 21
1954.245021679485
 31
0.0
  0
LINE
  5
20D9E
330
747D
100
AcDbEntity
  8
部品1
 48
50.0
100
AcDbLine
 10
8182.637417424544
 20
1954.245021679485
 30
0.0
 11
8182.637417424544
 21
1881.586003308081
 31
0.0
  0
LINE
  5
20D9F
330
747D
100
AcDbEntity
  8
細線
 48
50.0
100
AcDbLine
 10
8202.637417424549
 20
1930.73675187872
 30
0.0
 11
8222.637417424552
 21
1950.736751878722
 31
0.0
  0
LINE
  5
20DA0
330
747D
100
AcDbEntity
  8
部品1
 48
50.0
100
AcDbLine
 10
8202.637417424545
 20
1954.245021679485
 30
0.0
 11
8202.637417424545
 21
1881.586003308081
 31
0.0
  0
ARC
  5
20DA1
330
747D
100
AcDbEntity
  8
部品1
 48
50.0
100
AcDbCircle
 10
8212.637417424545
 20
1881.586003308081
 30
0.0
 40
30.0
100
AcDbArc
 50
180.0
 51
199.4712206344713
  0
CIRCLE
  5
20DA2
330
747D
100
AcDbEntity
  8
部品1
 48
50.0
100
AcDbCircle
 10
8212.637417424545
 20
1881.586003308081
 30
0.0
 40
10.0
  0
CIRCLE
  5
20DA3
330
747D
100
AcDbEntity
  8
部品1
 48
50.0
100
AcDbCircle
 10
8052.637417424545
 20
1881.586003308081
 30
0.0
 40
10.0
  0
LINE
  5
20DA4
330
747D
100
AcDbEntity
  8
細線
 48
50.0
100
AcDbLine
 10
8143.486668853906
 20
1871.586003308081
 30
0.0
 11
8182.637417424544
 21
1910.736751878718
 31
0.0
  0
LINE
  5
20DA5
330
747D
100
AcDbEntity
  8
細線
 48
50.0
100
AcDbLine
 10
8076.134747945888
 20
1871.586003308081
 30
0.0
 11
8222.637417424545
 21
2018.088672786741
 31
0.0
  0
LINE
  5
20DA6
330
747D
100
AcDbEntity
  8
細線
 48
50.0
100
AcDbLine
 10
8109.810708399901
 20
1871.586003308081
 30
0.0
 11
8182.637417424544
 21
1944.412712332729
 31
0.0
  0
LINE
  5
20DA7
330
747D
100
AcDbEntity
  8
細線
 48
50.0
100
AcDbLine
 10
7932.637417424544
 20
1963.820395964802
 30
0.0
 11
8000.403024767825
 21
2031.586003308081
 31
0.0
  0
LINE
  5
20DA8
330
747D
100
AcDbEntity
  8
細線
 48
50.0
100
AcDbLine
 10
7932.637417424544
 20
1997.496356418812
 30
0.0
 11
7966.727064313812
 21
2031.586003308081
 31
0.0
  0
LINE
  5
20DA9
330
747D
100
AcDbEntity
  8
部品1
 48
50.0
100
AcDbLine
 10
8002.637417424544
 20
1851.586003308081
 30
0.0
 11
8002.637417424544
 21
1871.586003308081
 31
0.0
  0
LINE
  5
20DAA
330
747D
100
AcDbEntity
  8
部品1
 48
50.0
100
AcDbLine
 10
7932.637417424544
 20
2031.586003308081
 30
0.0
 11
8092.637417424546
 21
2031.586003308081
 31
0.0
  0
LINE
  5
20DAB
330
747D
100
AcDbEntity
  8
細線
 48
50.0
100
AcDbLine
 10
7932.637417424544
 20
1930.144435510793
 30
0.0
 11
8034.078985221832
 21
2031.586003308081
 31
0.0
  0
LINE
  5
20DAC
330
747D
100
AcDbEntity
  8
部品1
 48
50.0
100
AcDbLine
 10
8002.637417424544
 20
1871.586003308081
 30
0.0
 11
8422.637417424544
 21
1871.586003308081
 31
0.0
  0
LINE
  5
20DAD
330
747D
100
AcDbEntity
  8
部品1
 48
50.0
100
AcDbLine
 10
8002.637417424544
 20
1851.586003308081
 30
0.0
 11
8422.637417424544
 21
1851.586003308081
 31
0.0
  0
LINE
  5
20DAE
330
747D
100
AcDbEntity
  8
寸法
 48
50.0
100
AcDbLine
 10
8039.902153880879
 20
2455.590359609418
 30
0.0
 11
8212.637417424545
 21
1881.586003308081
 31
0.0
  0
LINE
  5
20DAF
330
747D
100
AcDbEntity
  8
細線
 48
50.0
100
AcDbLine
 10
8242.637417424552
 20
2273.820395964806
 30
0.0
 11
8332.637417424544
 21
2363.820395964803
 31
0.0
  0
LINE
  5
20DB0
330
747D
100
AcDbEntity
  8
細線
 48
50.0
100
AcDbLine
 10
8242.637417424544
 20
2307.496356418814
 30
0.0
 11
8332.637417424544
 21
2397.496356418812
 31
0.0
  0
LINE
  5
20DB1
330
747D
100
AcDbEntity
  8
部品1
 48
50.0
100
AcDbLine
 10
8222.637417424552
 20
1881.586003308081
 30
0.0
 11
8222.637417424545
 21
2536.904040050889
 31
0.0
  0
LINE
  5
20DB2
330
747D
100
AcDbEntity
  8
部品1
 48
50.0
100
AcDbLine
 10
8242.637417424552
 20
1881.586003308081
 30
0.0
 11
8242.637417424544
 21
2536.904040050889
 31
0.0
  0
LINE
  5
20DB3
330
747D
100
AcDbEntity
  8
部品1
 48
50.0
100
AcDbLine
 10
8332.637417424544
 20
2711.586003308082
 30
0.0
 11
8332.637417424544
 21
2031.586003308081
 31
0.0
  0
LINE
  5
20DB4
330
747D
100
AcDbEntity
  8
部品1
 48
50.0
100
AcDbLine
 10
8092.637417424546
 20
2031.586003308081
 30
0.0
 11
8092.637417424546
 21
2711.586003308082
 31
0.0
  0
LEADER
  5
20DB5
330
747D
100
AcDbEntity
  8
寸法
 48
50.0
100
AcDbLeader
  3
INABA_S50G
 71
     0
 73
     0
 74
     0
 75
     1
 40
132.9441738241594
 41
490.0787401574802
 76
     3
 10
8231.195212962555
 20
2409.245021679485
 30
0.0
 10
8415.56694547644
 20
2530.687119359178
 30
0.0
 10
8540.56694547644
 20
2530.687119359178
 30
0.0
340
20DB6
  0
MTEXT
  5
20DB6
102
{ACAD_REACTORS
330
20DB5
102
}
330
747D
100
AcDbEntity
  8
寸法
 62
     7
 48
50.0
100
AcDbMText
 10
8565.56694547644
 20
2622.159206271258
 30
0.0
 40
100.0
 41
0.0
 71
     4
 72
     1
  1
\A1;D10@300
  7
STYLE1
 73
     1
 44
1.0
1001
ACAD
1000
MTEXTBEGIN
1070
    73
1070
     1
1070
    44
1040
1.0
1070
    74
1070
     0
1000
MTEXTEND
  0
LINE
  5
20DB7
330
747D
100
AcDbEntity
  8
細線
 48
50.0
100
AcDbLine
 10
8492.98461111968
 20
1601.58600330808
 30
0.0
 11
8501.023086892613
 21
1571.58600330808
 31
0.0
  0
LINE
  5
20DB8
330
747D
100
AcDbEntity
  8
細線
 48
50.0
100
AcDbLine
 10
8519.7795303628
 20
1701.58600330808
 30
0.0
 11
8511.741054589867
 21
1731.58600330808
 31
0.0
  0
LINE
  5
20DB9
330
747D
100
AcDbEntity
  8
細線
 48
50.0
100
AcDbLine
 10
8474.950115210036
 20
1731.586003308081
 30
0.0
 11
8492.637417424544
 21
1749.273305522588
 31
0.0
  0
LINE
  5
20DBA
330
747D
100
AcDbEntity
  8
細線
 48
50.0
100
AcDbLine
 10
8484.946135346747
 20
1571.586003308081
 30
0.0
 11
8527.81800613573
 21
1731.586003308081
 31
0.0
  0
LINE
  5
20DBB
330
747D
100
AcDbEntity
  8
部品1
 48
50.0
100
AcDbLine
 10
8592.637417424546
 20
1731.586003308081
 30
0.0
 11
8592.637417424546
 21
1571.586003308081
 31
0.0
  0
LINE
  5
20DBC
330
747D
100
AcDbEntity
  8
細線
 48
50.0
100
AcDbLine
 10
8386.336079162687
 20
1571.586003308081
 30
0.0
 11
8429.207949951667
 21
1731.586003308081
 31
0.0
  0
LINE
  5
20DBD
330
747D
100
AcDbEntity
  8
細線
 48
50.0
100
AcDbLine
 10
8421.169474178737
 20
1701.586003308081
 30
0.0
 11
8413.130998405804
 21
1731.586003308081
 31
0.0
  0
LINE
  5
20DBE
330
747D
100
AcDbEntity
  8
細線
 48
50.0
100
AcDbLine
 10
8322.559417994673
 20
1701.586003308081
 30
0.0
 11
8314.520942221738
 21
1731.586003308081
 31
0.0
  0
LINE
  5
20DBF
330
747D
100
AcDbEntity
  8
細線
 48
50.0
100
AcDbLine
 10
8394.37455493562
 20
1601.586003308081
 30
0.0
 11
8402.413030708553
 21
1571.586003308081
 31
0.0
  0
LINE
  5
20DC0
330
747D
100
AcDbEntity
  8
細線
 48
50.0
100
AcDbLine
 10
8295.764498751562
 20
1601.586003308081
 30
0.0
 11
8303.802974524495
 21
1571.586003308081
 31
0.0
  0
LINE
  5
20DC1
330
747D
100
AcDbEntity
  8
細線
 48
50.0
100
AcDbLine
 10
8287.726022978629
 20
1571.586003308081
 30
0.0
 11
8330.597893767606
 21
1731.586003308081
 31
0.0
  0
LINE
  5
20DC2
330
747D
100
AcDbEntity
  8
細線
 48
50.0
100
AcDbLine
 10
8223.949361810616
 20
1701.586003308081
 30
0.0
 11
8215.910886037681
 21
1731.586003308081
 31
0.0
  0
LINE
  5
20DC3
330
747D
100
AcDbEntity
  8
細線
 48
50.0
100
AcDbLine
 10
8125.339305626551
 20
1701.586003308081
 30
0.0
 11
8117.300829853617
 21
1731.586003308081
 31
0.0
  0
LINE
  5
20DC4
330
747D
100
AcDbEntity
  8
細線
 48
50.0
100
AcDbLine
 10
8197.154442567503
 20
1601.586003308081
 30
0.0
 11
8205.192918340436
 21
1571.586003308081
 31
0.0
  0
LINE
  5
20DC5
330
747D
100
AcDbEntity
  8
細線
 48
50.0
100
AcDbLine
 10
8098.544386383439
 20
1601.586003308081
 30
0.0
 11
8106.582862156372
 21
1571.586003308081
 31
0.0
  0
LINE
  5
20DC6
330
747D
100
AcDbEntity
  8
細線
 48
50.0
100
AcDbLine
 10
8090.505910610506
 20
1571.586003308081
 30
0.0
 11
8133.377781399484
 21
1731.586003308081
 31
0.0
  0
LINE
  5
20DC7
330
747D
100
AcDbEntity
  8
細線
 48
50.0
100
AcDbLine
 10
7901.324274015301
 20
1601.586003308081
 30
0.0
 11
7909.362749788235
 21
1571.586003308081
 31
0.0
  0
LINE
  5
20DC8
330
747D
100
AcDbEntity
  8
細線
 48
50.0
100
AcDbLine
 10
7928.119193258414
 20
1701.586003308081
 30
0.0
 11
7920.08071748548
 21
1731.586003308081
 31
0.0
  0
LINE
  5
20DC9
330
747D
100
AcDbEntity
  8
細線
 48
50.0
100
AcDbLine
 10
7893.285798242366
 20
1571.586003308081
 30
0.0
 11
7936.157669031365
 21
1731.586003308081
 31
0.0
  0
LINE
  5
20DCA
330
747D
100
AcDbEntity
  8
細線
 48
50.0
100
AcDbLine
 10
7999.934330199382
 20
1601.586003308081
 30
0.0
 11
8007.972805972315
 21
1571.586003308081
 31
0.0
  0
LINE
  5
20DCB
330
747D
100
AcDbEntity
  8
部品1
 48
50.0
100
AcDbLine
 10
7832.637417424544
 20
1571.586003308081
 30
0.0
 11
7832.637417424544
 21
1731.586003308081
 31
0.0
  0
LINE
  5
20DCC
330
747D
100
AcDbEntity
  8
細線
 48
50.0
100
AcDbLine
 10
7991.895854426444
 20
1571.586003308081
 30
0.0
 11
8034.767725215427
 21
1731.586003308081
 31
0.0
  0
LINE
  5
20DCD
330
747D
100
AcDbEntity
  8
細線
 48
50.0
100
AcDbLine
 10
8026.729249442494
 20
1701.586003308081
 30
0.0
 11
8018.690773669559
 21
1731.586003308081
 31
0.0
  0
LINE
  5
20DCE
330
747D
100
AcDbEntity
  8
部品1
 48
50.0
100
AcDbLine
 10
8586.293101533994
 20
1731.586003308081
 30
0.0
 11
7832.637417424544
 21
1731.586003308081
 31
0.0
  0
LINE
  5
20DCF
330
747D
100
AcDbEntity
  8
部品1
 48
50.0
100
AcDbLine
 10
8592.637417424546
 20
1571.586003308081
 30
0.0
 11
7832.637417424544
 21
1571.586003308081
 31
0.0
  0
LINE
  5
20DD0
330
747D
100
AcDbEntity
  8
細線
 48
50.0
100
AcDbLine
 10
8189.115966794567
 20
1571.586003308081
 30
0.0
 11
8231.987837583545
 21
1731.586003308081
 31
0.0
  0
DIMENSION
  5
20DD1
330
747D
100
AcDbEntity
  8
寸法
 48
50.0
100
AcDbDimension
  2
*D62
 10
8492.637417424544
 20
1272.633896852147
 30
0.0
 11
8212.637417424545
 21
1272.633896852147
 31
0.0
 70
   160
  1
300
 71
     5
 42
560.0
  3
INABA_S50GUP
100
AcDbAlignedDimension
 13
7932.637417424544
 23
1571.586003308081
 33
0.0
 14
8492.637417424544
 24
1571.586003308081
 34
0.0
100
AcDbRotatedDimension
1001
ACAD
1000
DSTYLE
1002
{
1070
   140
1040
100.0
1002
}
  0
LEADER
  5
20DD2
330
747D
100
AcDbEntity
  8
寸法
 48
50.0
100
AcDbLeader
  3
INABA_S50G
 71
     0
 73
     0
 74
     0
 75
     1
 40
132.9441738241594
 41
490.0787401574802
 76
     3
 10
8392.058801311208
 20
1858.902827494696
 30
0.0
 10
8568.791429702903
 20
1661.653864784119
 30
0.0
 10
8693.791429702903
 20
1661.653864784119
 30
0.0
340
20DD3
  0
MTEXT
  5
20DD3
102
{ACAD_REACTORS
330
20DD2
102
}
330
747D
100
AcDbEntity
  8
寸法
 62
     7
 48
50.0
100
AcDbMText
 10
8718.791429702903
 20
1753.125951696199
 30
0.0
 40
100.0
 41
0.0
 71
     4
 72
     1
  1
\A1;D10@300
  7
STYLE1
 73
     1
 44
1.0
1001
ACAD
1000
MTEXTBEGIN
1070
    73
1070
     1
1070
    44
1040
1.0
1070
    74
1070
     0
1000
MTEXTEND
  0
LINE
  5
20DD4
330
747D
100
AcDbEntity
  8
寸法
 48
50.0
100
AcDbLine
 10
7886.344109401986
 20
1536.612313521315
 30
0.0
 11
8372.637417424545
 21
1881.586003308081
 31
0.0
  0
LINE
  5
20DD5
330
747D
100
AcDbEntity
  8
細線
 48
50.0
100
AcDbLine
 10
8239.218392031975
 20
1731.586003308081
 30
0.0
 11
8359.218392031975
 21
1851.586003308081
 31
0.0
  0
LINE
  5
20DD6
330
747D
100
AcDbEntity
  8
細線
 48
50.0
100
AcDbLine
 10
8205.542431577962
 20
1731.586003308081
 30
0.0
 11
8325.542431577963
 21
1851.586003308081
 31
0.0
  0
LINE
  5
20DD7
330
747D
100
AcDbEntity
  8
細線
 48
50.0
100
AcDbLine
 10
8272.89435248598
 20
1731.586003308081
 30
0.0
 11
8392.895462292408
 21
1851.587113114506
 31
0.0
  0
LINE
  5
20DD8
330
747D
100
AcDbEntity
  8
細線
 48
50.0
100
AcDbLine
 10
7969.810708399901
 20
1731.586003308081
 30
0.0
 11
8089.8107083999
 21
1851.586003308081
 31
0.0
  0
LINE
  5
20DD9
330
747D
100
AcDbEntity
  8
細線
 48
50.0
100
AcDbLine
 10
7936.134747945887
 20
1731.586003308081
 30
0.0
 11
8056.134747945888
 21
1851.586003308081
 31
0.0
  0
LINE
  5
20DDA
330
747D
100
AcDbEntity
  8
細線
 48
50.0
100
AcDbLine
 10
8003.486668853906
 20
1731.586003308081
 30
0.0
 11
8123.486668853905
 21
1851.586003308081
 31
0.0
  0
LINE
  5
20DDB
330
747D
100
AcDbEntity
  8
部品1
 48
50.0
100
AcDbLine
 10
7932.637417424544
 20
1731.586003308081
 30
0.0
 11
7932.637417424544
 21
2031.586003308081
 31
0.0
  0
LINE
  5
20DDC
330
747D
100
AcDbEntity
  8
部品1
 48
50.0
100
AcDbLine
 10
8492.637417424544
 20
2031.586003308081
 30
0.0
 11
8492.637417424544
 21
1731.586003308081
 31
0.0
  0
LINE
  5
20DDD
330
747D
100
AcDbEntity
  8
部品1
 48
50.0
100
AcDbLine
 10
7624.836453236671
 20
2318.892235294424
 30
0.0
 11
7673.027952287199
 21
2235.422110446
 31
0.0
  0
LINE
  5
20DDE
330
747D
100
AcDbEntity
  8
部品1
 48
50.0
100
AcDbLine
 10
7624.836453236671
 20
2318.892235294424
 30
0.0
 11
7721.219451337727
 21
2318.892235294424
 31
0.0
  0
LINE
  5
20DDF
330
747D
100
AcDbEntity
  8
部品1
 48
50.0
100
AcDbLine
 10
7721.219451337727
 20
2318.892235294424
 30
0.0
 11
7673.027952287199
 21
2235.422110446
 31
0.0
  0
MTEXT
  5
20DE0
102
{ACAD_REACTORS
330
20DE1
102
}
330
747D
100
AcDbEntity
  8
寸法
 62
     7
 48
50.0
100
AcDbMText
 10
7736.344109401986
 20
1612.307750003946
 30
0.0
 40
100.0
 41
0.0
 71
     6
 72
     1
  1
D10
  7
STYLE1
 73
     1
 44
1.0
1001
ACAD
1000
MTEXTBEGIN
1070
    73
1070
     1
1070
    44
1040
1.0
1070
    74
1070
     0
1000
MTEXTEND
  0
LEADER
  5
20DE1
330
747D
100
AcDbEntity
  8
寸法
 48
50.0
100
AcDbLeader
  3
INABA_S50G
 71
     0
 73
     0
 75
     1
 40
101.39087296526
 41
170.0787401574803
 76
     3
 10
8052.38304157198
 20
1881.586003308081
 30
0.0
 10
7886.344109401986
 20
1536.612313521316
 30
0.0
 10
7761.344109401986
 20
1536.612313521316
 30
0.0
340
20DE0
  0
DIMENSION
  5
20DE2
330
747D
100
AcDbEntity
  8
寸法
 48
50.0
100
AcDbDimension
  2
*D63
 10
7679.61202525897
 20
1731.586003308082
 30
0.0
 11
7679.61202525897
 21
1881.586003308081
 31
0.0
 70
   160
  1
150
 71
     5
 42
300.0
  3
INABA_S50GUP
100
AcDbAlignedDimension
 13
7932.637417424544
 23
2031.586003308081
 33
0.0
 14
7832.637417424544
 24
1731.586003308081
 34
0.0
 50
90.0
100
AcDbRotatedDimension
1001
ACAD
1000
DSTYLE
1002
{
1070
   140
1040
100.0
1002
}
  0
DIMENSION
  5
20DE3
330
747D
100
AcDbEntity
  8
寸法
 48
50.0
100
AcDbDimension
  2
*D64
 10
7406.992479388481
 20
1731.586003308082
 30
0.0
 11
7406.992479388481
 21
2221.586003308082
 31
0.0
 70
   160
  1
540
 71
     5
 42
980.0000000000002
  3
INABA_S50GUP
100
AcDbAlignedDimension
 13
8092.637417424546
 23
2711.586003308082
 33
0.0
 14
7832.637417424544
 24
1731.586003308081
 34
0.0
 50
90.0
100
AcDbRotatedDimension
1001
ACAD
1000
DSTYLE
1002
{
1070
   140
1040
100.0
1002
}
  0
LINE
  5
20DE4
330
747D
100
AcDbEntity
  8
Ｇ．Ｌ
 48
50.0
100
AcDbLine
 10
7574.962540133348
 20
2235.422110446
 30
0.0
 11
8092.637417424546
 21
2235.422110446
 31
0.0
  0
TEXT
  5
20DE5
330
747D
100
AcDbEntity
  8
部品1
 48
50.0
100
AcDbText
 10
7723.310806707726
 20
2244.787937348711
 30
0.0
 40
100.0
  1
G.L
  7
STYLE1
100
AcDbText
  0
LEADER
  5
20DE6
330
747D
100
AcDbEntity
  8
寸法
 48
50.0
100
AcDbLeader
  3
INABA_S50G
 71
     0
 73
     0
 75
     1
 40
101.39087296526
 41
174.1421356237309
 76
     3
 10
8212.637417424545
 20
2536.904040050889
 30
0.0
 10
8039.902153880879
 20
2455.590359609418
 30
0.0
 10
7914.90215388088
 20
2455.590359609418
 30
0.0
340
20DE7
  0
MTEXT
  5
20DE7
102
{ACAD_REACTORS
330
20DE6
102
}
330
747D
100
AcDbEntity
  8
寸法
 62
     7
 48
50.0
100
AcDbMText
 10
7889.902153880879
 20
2531.285796092048
 30
0.0
 40
100.0
 41
0.0
 71
     6
 72
     1
  1
D13
  7
STYLE1
 73
     1
 44
1.0
1001
ACAD
1000
MTEXTBEGIN
1070
    73
1070
     1
1070
    44
1040
1.0
1070
    74
1070
     0
1000
MTEXTEND
  0
LEADER
  5
20DE8
330
747D
100
AcDbEntity
  8
寸法
 48
50.0
100
AcDbLeader
  3
INABA_S50G
 71
     0
 73
     0
 75
     1
 40
100.0
 41
585.0000000000001
 76
     3
 10
8192.637417424545
 20
2711.586003308082
 30
0.0
 10
8160.250161027553
 20
2902.231278310635
 30
0.0
 10
8035.250161027553
 20
2902.231278310635
 30
0.0
340
20DE9
  0
MTEXT
  5
20DE9
102
{ACAD_REACTORS
330
20DE8
102
}
330
747D
100
AcDbEntity
  8
寸法
 62
     7
 48
50.0
100
AcDbMText
 10
8010.250161027553
 20
2977.231278310635
 30
0.0
 40
100.0
 41
0.0
 71
     6
 72
     1
  1
\A1;金コテ押エ
  7
STYLE1
 73
     1
 44
1.0
1001
ACAD
1000
MTEXTBEGIN
1070
    73
1070
     1
1070
    44
1040
1.0
1070
    74
1070
     0
1000
MTEXTEND
  0
DIMENSION
  5
20DEA
330
747D
100
AcDbEntity
  8
寸法
 48
50.0
100
AcDbDimension
  2
*D65
 10
8092.637417424546
 20
3111.586003308082
 30
0.0
 11
8212.637417424545
 21
3111.586003308082
 31
0.0
 70
   160
  1
120\P195
 71
     5
 42
240.0
  3
INABA_S50GUP
100
AcDbAlignedDimension
 13
8332.637417424544
 23
2711.586003308082
 33
0.0
 14
8092.637417424546
 24
2711.586003308082
 34
0.0
100
AcDbRotatedDimension
1001
ACAD
1000
DSTYLE
1002
{
1070
   140
1040
100.0
1002
}
  0
LINE
  5
20DEB
330
747D
100
AcDbEntity
  8
Ｇ．Ｌ
 48
50.0
100
AcDbLine
 10
8332.637417424544
 20
2411.586003308082
 30
0.0
 11
8898.943663587983
 21
2411.586003308082
 31
0.0
  0
LINE
  5
20DEC
330
747D
100
AcDbEntity
  8
部品1
100
AcDbLine
 10
11518.91672383426
 20
3774.371409597922
 30
0.0
 11
11518.91672383426
 21
740.2540118270724
 31
0.0
  0
LINE
  5
20DED
330
747D
100
AcDbEntity
  8
部品1
100
AcDbLine
 10
4287.242737792545
 20
740.2540118270728
 30
0.0
 11
11518.91672383427
 21
740.2540118270728
 31
0.0
  0
LINE
  5
20DEE
330
747D
100
AcDbEntity
  8
部品1
100
AcDbLine
 10
11518.91672383427
 20
3534.371409597922
 30
0.0
 11
4287.242737792538
 21
3534.371409597922
 31
0.0
  0
LINE
  5
20DEF
330
747D
100
AcDbEntity
  8
部品1
100
AcDbLine
 10
11518.91672383427
 20
3774.371409597922
 30
0.0
 11
4287.242737792545
 21
3774.371409597922
 31
0.0
  0
LINE
  5
20DF0
330
747D
100
AcDbEntity
  8
部品1
100
AcDbLine
 10
4287.242737792545
 20
3774.371409597922
 30
0.0
 11
4287.242737792545
 21
740.2540118270728
 31
0.0
  0
TEXT
  5
20DF1
330
747D
100
AcDbEntity
  8
部品1
100
AcDbText
 10
7553.988821722497
 20
3585.910842785118
 30
0.0
 40
120.0
  1
基礎詳細
  7
STYLE2
 72
     1
 11
7903.079730813407
 21
3561.365388239664
 31
0.0
100
AcDbText
 73
     1
  0
LINE
  5
20DF2
330
747D
100
AcDbEntity
  8
部品1
 48
50.0
100
AcDbLine
 10
6117.480130682499
 20
1318.328357773172
 30
0.0
 11
6117.480130682499
 21
1158.328357773172
 31
0.0
  0
LINE
  5
20DF3
330
747D
100
AcDbEntity
  8
部品1
 48
50.0
100
AcDbLine
 10
5317.480130682501
 20
1318.328357773172
 30
0.0
 11
5317.480130682501
 21
1158.328357773172
 31
0.0
  0
TEXT
  5
20DF4
330
747D
100
AcDbEntity
  8
部品1
 48
50.0
100
AcDbText
 10
5379.082565820743
 20
1192.320649505668
 30
0.0
 40
96.0
  1
Ａ－Ａ’断面
  7
STYLE2
100
AcDbText
  0
LINE
  5
20DF5
330
747D
100
AcDbEntity
  8
部品1
 48
50.0
100
AcDbLine
 10
6117.480130682499
 20
1158.328357773172
 30
0.0
 11
5317.480130682501
 21
1158.328357773172
 31
0.0
  0
LINE
  5
20DF6
330
747D
100
AcDbEntity
  8
部品1
 48
50.0
100
AcDbLine
 10
6117.480130682499
 20
1318.328357773172
 30
0.0
 11
5317.480130682501
 21
1318.328357773172
 31
0.0
  0
LINE
  5
20DF7
330
747D
100
AcDbEntity
  8
部品1
 48
50.0
100
AcDbLine
 10
9400.610277754342
 20
1080.824676670346
 30
0.0
 11
9400.610277754342
 21
920.8246766703462
 31
0.0
  0
LINE
  5
20DF8
330
747D
100
AcDbEntity
  8
部品1
 48
50.0
100
AcDbLine
 10
8760.610277754343
 20
1080.824676670346
 30
0.0
 11
8760.610277754343
 21
920.8246766703462
 31
0.0
  0
TEXT
  5
20DF9
330
747D
100
AcDbEntity
  8
部品1
 48
50.0
100
AcDbText
 10
8802.800779098559
 20
952.0324628750179
 30
0.0
 40
96.0
  1
基礎断面
  7
STYLE2
100
AcDbText
  0
LINE
  5
20DFA
330
747D
100
AcDbEntity
  8
部品1
 48
50.0
100
AcDbLine
 10
9400.610277754342
 20
920.8246766703462
 30
0.0
 11
8760.610277754343
 21
920.8246766703462
 31
0.0
  0
LINE
  5
20DFB
330
747D
100
AcDbEntity
  8
部品1
 48
50.0
100
AcDbLine
 10
9400.610277754342
 20
1080.824676670346
 30
0.0
 11
8760.610277754343
 21
1080.824676670346
 31
0.0
  0
LINE
  5
20DFC
330
747D
100
AcDbEntity
  8
細線
 48
50.0
100
AcDbLine
 10
5732.604004026214
 20
1954.245021679485
 30
0.0
 11
5839.095734225441
 21
2060.736751878719
 31
0.0
  0
ENDSEC
  0
SECTION
  2
OBJECTS
  0
DICTIONARY
  5
7471
330
0
100
AcDbDictionary
281
     1
  3
ACAD_COLOR
350
173D2
  3
ACAD_GROUP
350
7472
  3
ACAD_LAYOUT
350
173D3
  3
ACAD_MATERIAL
350
173D1
  3
ACAD_MLINESTYLE
350
7473
  3
ACAD_PLOTSETTINGS
350
173D4
  3
ACAD_PLOTSTYLENAME
350
173CF
  3
ACDBHEADERROUNDTRIPXREC
350
20E83
  3
AcDbVariableDictionary
350
206A7
  3
CONTENTDICTIONARY
350
E71C
  3
DRAWINGVARIABLESDICT
350
F3B9
  0
DICTIONARY
  5
1758F
330
7467
100
AcDbDictionary
280
     1
281
     1
  3
ACAD_LAYERSTATES
360
17590
  0
DICTIONARY
  5
173D2
102
{ACAD_REACTORS
330
7471
102
}
330
7471
100
AcDbDictionary
281
     1
  0
DICTIONARY
  5
7472
102
{ACAD_REACTORS
330
7471
102
}
330
7471
100
AcDbDictionary
281
     1
  3
*A1
350
1D2A9
  0
DICTIONARY
  5
173D3
102
{ACAD_REACTORS
330
7471
102
}
330
7471
100
AcDbDictionary
281
     1
  3
Model
350
173D5
  3
レイアウト1
350
173D6
  0
DICTIONARY
  5
173D1
102
{ACAD_REACTORS
330
7471
102
}
330
7471
100
AcDbDictionary
281
     1
  0
DICTIONARY
  5
7473
102
{ACAD_REACTORS
330
7471
102
}
330
7471
100
AcDbDictionary
281
     1
  3
STANDARD
350
7480
  0
DICTIONARY
  5
173D4
102
{ACAD_REACTORS
330
7471
102
}
330
7471
100
AcDbDictionary
281
     1
  0
ACDBDICTIONARYWDFLT
  5
173CF
102
{ACAD_REACTORS
330
7471
102
}
330
7471
100
AcDbDictionary
281
     1
  3
Normal
350
173D0
100
AcDbDictionaryWithDefault
340
173D0
  0
DICTIONARY
  5
20E83
102
{ACAD_REACTORS
330
7471
102
}
330
7471
100
AcDbDictionary
281
     1
  3
COLORDICT
350
20E85
  3
MATERIALDICT
350
20E84
  0
DICTIONARY
  5
206A7
102
{ACAD_REACTORS
330
7471
102
}
330
7471
100
AcDbDictionary
281
     1
  3
DIMASSOC
350
206A8
  3
PROJECTNAME
350
206A9
  0
DICTIONARY
  5
E71C
102
{ACAD_REACTORS
330
7471
102
}
330
7471
100
AcDbDictionary
281
     1
  0
DICTIONARY
  5
F3B9
102
{ACAD_REACTORS
330
7471
102
}
330
7471
100
AcDbDictionary
281
     1
1001
DRAWINGVARIABLESXDATA
1000
POLARMODE
1000
1
  0
DICTIONARY
  5
17590
102
{ACAD_REACTORS
330
1758F
102
}
330
1758F
100
AcDbDictionary
281
     1
  0
GROUP
  5
1D2A9
102
{ACAD_REACTORS
330
7472
102
}
330
7472
100
AcDbGroup
300

 70
     1
 71
     1
  0
LAYOUT
  5
173D5
102
{ACAD_XDICTIONARY
360
20E86
102
}
102
{ACAD_REACTORS
330
173D3
102
}
330
173D3
100
AcDbPlotSettings
  1

  2
クセロPDF
  4
A3
  6

 40
3.174999999999999
 41
3.174999999999999
 42
3.174987999999999
 43
3.174987999999999
 44
419.946655
 45
296.925995
 46
0.0
 47
0.0
 48
0.0
 49
0.0
140
0.0
141
0.0
142
1.0
143
40.18283734559838
 70
 11952
 72
     1
 73
     0
 74
     2
  7
inaba.ctb
 75
     0
147
0.0248862466181607
148
27.08462732551562
149
160.8668443177158
100
AcDbLayout
  1
Model
 70
     1
 71
     0
 10
0.0
 20
0.0
 11
12.0
 21
9.0
 12
0.0
 22
0.0
 32
0.0
 14
0.0
 24
0.0
 34
0.0
 15
0.0
 25
0.0
 35
0.0
146
0.0
 13
0.0
 23
0.0
 33
0.0
 16
1.0
 26
0.0
 36
0.0
 17
0.0
 27
1.0
 37
0.0
 76
     0
330
747D
  0
LAYOUT
  5
173D6
102
{ACAD_XDICTIONARY
360
20E88
102
}
102
{ACAD_REACTORS
330
173D3
102
}
330
173D3
100
AcDbPlotSettings
  1

  2
Microsoft Office Document Image Writer
  4

  6

 40
0.0
 41
0.0
 42
0.0
 43
0.0
 44
0.0
 45
0.0
 46
0.0
 47
0.0
 48
0.0
 49
0.0
140
0.0
141
0.0
142
1.0
143
1.0
 70
   688
 72
     0
 73
     0
 74
     5
  7

 75
    16
147
1.0
148
0.0
149
0.0
100
AcDbLayout
  1
レイアウト1
 70
     0
 71
     1
 10
0.0
 20
0.0
 11
420.0
 21
297.0
 12
0.0
 22
0.0
 32
0.0
 14
1.000000000000000E+20
 24
1.000000000000000E+20
 34
1.000000000000000E+20
 15
-1.000000000000000E+20
 25
-1.000000000000000E+20
 35
-1.000000000000000E+20
146
0.0
 13
0.0
 23
0.0
 33
0.0
 16
1.0
 26
0.0
 36
0.0
 17
0.0
 27
1.0
 37
0.0
 76
     0
330
747A
  0
MLINESTYLE
  5
7480
102
{ACAD_REACTORS
330
7473
102
}
330
7473
100
AcDbMlineStyle
  2
STANDARD
 70
     0
  3

 62
     0
 51
90.0
 52
90.0
 71
     2
 49
0.5
 62
   256
  6
BYLAYER
 49
-0.5
 62
   256
  6
BYLAYER
  0
ACDBPLACEHOLDER
  5
173D0
102
{ACAD_REACTORS
330
173CF
102
}
330
173CF
  0
XRECORD
  5
20E85
102
{ACAD_REACTORS
330
20E83
102
}
330
20E83
100
AcDbXrecord
280
     1
340
173D2
  0
XRECORD
  5
20E84
102
{ACAD_REACTORS
330
20E83
102
}
330
20E83
100
AcDbXrecord
280
     1
340
173D1
  0
DICTIONARYVAR
  5
206A8
102
{ACAD_REACTORS
330
206A7
102
}
330
206A7
100
DictionaryVariables
280
     0
  1
1
  0
DICTIONARYVAR
  5
206A9
102
{ACAD_REACTORS
330
206A7
102
}
330
206A7
100
DictionaryVariables
280
     0
  1

  0
DICTIONARY
  5
20E86
330
173D5
100
AcDbDictionary
280
     1
281
     1
  3
ACAD_XREC_ROUNDTRIP
360
20E87
  0
DICTIONARY
  5
20E88
330
173D6
100
AcDbDictionary
280
     1
281
     1
  3
ACAD_XREC_ROUNDTRIP
360
20E89
  0
XRECORD
  5
20E87
102
{ACAD_REACTORS
330
20E86
102
}
330
20E86
100
AcDbXrecord
280
     1
102
SHADEPLOT
 70
     1
102
SHADEPLOTRESLEVEL
 70
     2
102
SHADEPLOTCUSTOMDPI
 70
   300
  0
XRECORD
  5
20E89
102
{ACAD_REACTORS
330
20E88
102
}
330
20E88
100
AcDbXrecord
280
     1
102
SHADEPLOT
 70
     0
102
SHADEPLOTRESLEVEL
 70
     2
102
SHADEPLOTCUSTOMDPI
 70
   300
  0
ENDSEC
  0
EOF
