  0
SECTION
  2
HEADER
  9
$ACADVER
  1
AC1015
  9
$ACADMAINTVER
 70
    20
  9
$DWGCODEPAGE
  3
ANSI_932
  9
$INSBASE
 10
0.0
 20
0.0
 30
0.0
  9
$EXTMIN
 10
139.196816621341
 20
-0.1811693038616795
 30
-0.0000000000112498
  9
$EXTMAX
 10
16308.32523385566
 20
11409.92678395885
 30
0.0000000000002956
  9
$LIMMIN
 10
0.0
 20
0.0
  9
$LIMMAX
 10
16800.0
 20
11880.0
  9
$ORTHOMODE
 70
     0
  9
$REGENMODE
 70
     1
  9
$FILLMODE
 70
     1
  9
$QTEXTMODE
 70
     0
  9
$MIRRTEXT
 70
     1
  9
$LTSCALE
 40
20.0
  9
$ATTMODE
 70
     1
  9
$TEXTSIZE
 40
4.0
  9
$TRACEWID
 40
1.0
  9
$TEXTSTYLE
  7
STYLE1
  9
$CLAYER
  8
細線
  9
$CELTYPE
  6
BYLAYER
  9
$CECOLOR
 62
   256
  9
$CELTSCALE
 40
50.0
  9
$DISPSILH
 70
     0
  9
$DIMSCALE
 40
40.0
  9
$DIMASZ
 40
2.5
  9
$DIMEXO
 40
0.5
  9
$DIMDLI
 40
7.0
  9
$DIMRND
 40
0.0
  9
$DIMDLE
 40
0.0
  9
$DIMEXE
 40
1.5
  9
$DIMTP
 40
0.0
  9
$DIMTM
 40
0.0
  9
$DIMTXT
 40
3.0
  9
$DIMCEN
 40
0.0
  9
$DIMTSZ
 40
0.0
  9
$DIMTOL
 70
     0
  9
$DIMLIM
 70
     0
  9
$DIMTIH
 70
     0
  9
$DIMTOH
 70
     0
  9
$DIMSE1
 70
     0
  9
$DIMSE2
 70
     0
  9
$DIMTAD
 70
     3
  9
$DIMZIN
 70
     8
  9
$DIMBLK
  1

  9
$DIMASO
 70
     1
  9
$DIMSHO
 70
     1
  9
$DIMPOST
  1

  9
$DIMAPOST
  1

  9
$DIMALT
 70
     0
  9
$DIMALTD
 70
     2
  9
$DIMALTF
 40
0.0394
  9
$DIMLFAC
 40
1.0
  9
$DIMTOFL
 70
     1
  9
$DIMTVP
 40
0.0
  9
$DIMTIX
 70
     1
  9
$DIMSOXD
 70
     0
  9
$DIMSAH
 70
     1
  9
$DIMBLK1
  1
DOTSMALL
  9
$DIMBLK2
  1
DOTSMALL
  9
$DIMSTYLE
  2
INABA_S40G
  9
$DIMCLRD
 70
     0
  9
$DIMCLRE
 70
     0
  9
$DIMCLRT
 70
     7
  9
$DIMTFAC
 40
1.0
  9
$DIMGAP
 40
1.0
  9
$DIMJUST
 70
     0
  9
$DIMSD1
 70
     0
  9
$DIMSD2
 70
     0
  9
$DIMTOLJ
 70
     1
  9
$DIMTZIN
 70
     0
  9
$DIMALTZ
 70
     0
  9
$DIMALTTZ
 70
     0
  9
$DIMUPT
 70
     0
  9
$DIMDEC
 70
     1
  9
$DIMTDEC
 70
     4
  9
$DIMALTU
 70
     2
  9
$DIMALTTD
 70
     2
  9
$DIMTXSTY
  7
STYLE1
  9
$DIMAUNIT
 70
     0
  9
$DIMADEC
 70
     0
  9
$DIMALTRND
 40
0.0
  9
$DIMAZIN
 70
     0
  9
$DIMDSEP
 70
    46
  9
$DIMATFIT
 70
     3
  9
$DIMFRAC
 70
     0
  9
$DIMLDRBLK
  1

  9
$DIMLUNIT
 70
     2
  9
$DIMLWD
 70
    -2
  9
$DIMLWE
 70
    -2
  9
$DIMTMOVE
 70
     0
  9
$LUNITS
 70
     2
  9
$LUPREC
 70
     1
  9
$SKETCHINC
 40
1.0
  9
$FILLETRAD
 40
3.0
  9
$AUNITS
 70
     0
  9
$AUPREC
 70
     0
  9
$MENU
  1
acad
  9
$ELEVATION
 40
0.0
  9
$PELEVATION
 40
0.0
  9
$THICKNESS
 40
0.0
  9
$LIMCHECK
 70
     0
  9
$CHAMFERA
 40
0.0
  9
$CHAMFERB
 40
0.0
  9
$CHAMFERC
 40
0.0
  9
$CHAMFERD
 40
0.0
  9
$SKPOLY
 70
     0
  9
$TDCREATE
 40
2451368.612993866
  9
$TDUCREATE
 40
2451368.237993866
  9
$TDUPDATE
 40
2455855.409801192
  9
$TDUUPDATE
 40
2455855.034801192
  9
$TDINDWG
 40
0.7099068634
  9
$TDUSRTIMER
 40
0.7099068634
  9
$USRTIMER
 70
     1
  9
$ANGBASE
 50
0.0
  9
$ANGDIR
 70
     0
  9
$PDMODE
 70
     3
  9
$PDSIZE
 40
2.0
  9
$PLINEWID
 40
0.0
  9
$SPLFRAME
 70
     0
  9
$SPLINETYPE
 70
     6
  9
$SPLINESEGS
 70
     8
  9
$HANDSEED
  5
1FEAF
  9
$SURFTAB1
 70
     6
  9
$SURFTAB2
 70
     6
  9
$SURFTYPE
 70
     6
  9
$SURFU
 70
     6
  9
$SURFV
 70
     6
  9
$UCSBASE
  2

  9
$UCSNAME
  2

  9
$UCSORG
 10
0.0
 20
0.0
 30
0.0
  9
$UCSXDIR
 10
1.0
 20
0.0
 30
0.0
  9
$UCSYDIR
 10
0.0
 20
1.0
 30
0.0
  9
$UCSORTHOREF
  2

  9
$UCSORTHOVIEW
 70
     0
  9
$UCSORGTOP
 10
0.0
 20
0.0
 30
0.0
  9
$UCSORGBOTTOM
 10
0.0
 20
0.0
 30
0.0
  9
$UCSORGLEFT
 10
0.0
 20
0.0
 30
0.0
  9
$UCSORGRIGHT
 10
0.0
 20
0.0
 30
0.0
  9
$UCSORGFRONT
 10
0.0
 20
0.0
 30
0.0
  9
$UCSORGBACK
 10
0.0
 20
0.0
 30
0.0
  9
$PUCSBASE
  2

  9
$PUCSNAME
  2

  9
$PUCSORG
 10
0.0
 20
0.0
 30
0.0
  9
$PUCSXDIR
 10
1.0
 20
0.0
 30
0.0
  9
$PUCSYDIR
 10
0.0
 20
1.0
 30
0.0
  9
$PUCSORTHOREF
  2

  9
$PUCSORTHOVIEW
 70
     0
  9
$PUCSORGTOP
 10
0.0
 20
0.0
 30
0.0
  9
$PUCSORGBOTTOM
 10
0.0
 20
0.0
 30
0.0
  9
$PUCSORGLEFT
 10
0.0
 20
0.0
 30
0.0
  9
$PUCSORGRIGHT
 10
0.0
 20
0.0
 30
0.0
  9
$PUCSORGFRONT
 10
0.0
 20
0.0
 30
0.0
  9
$PUCSORGBACK
 10
0.0
 20
0.0
 30
0.0
  9
$USERI1
 70
     0
  9
$USERI2
 70
     0
  9
$USERI3
 70
     0
  9
$USERI4
 70
     0
  9
$USERI5
 70
     0
  9
$USERR1
 40
0.0
  9
$USERR2
 40
0.0
  9
$USERR3
 40
0.0
  9
$USERR4
 40
0.0
  9
$USERR5
 40
0.0
  9
$WORLDVIEW
 70
     1
  9
$SHADEDGE
 70
     3
  9
$SHADEDIF
 70
    70
  9
$TILEMODE
 70
     1
  9
$MAXACTVP
 70
    16
  9
$PINSBASE
 10
0.0
 20
0.0
 30
0.0
  9
$PLIMCHECK
 70
     0
  9
$PEXTMIN
 10
26.66999878883363
 20
20.31999878883363
 30
0.0
  9
$PEXTMAX
 10
240.0299890995026
 20
182.8799890995025
 30
0.0
  9
$PLIMMIN
 10
-6.350006103515625
 20
-6.349999904632568
  9
$PLIMMAX
 10
273.0499877929688
 20
209.5499939918518
  9
$UNITMODE
 70
     0
  9
$VISRETAIN
 70
     0
  9
$PLINEGEN
 70
     0
  9
$PSLTSCALE
 70
     0
  9
$TREEDEPTH
 70
  3020
  9
$CMLSTYLE
  2
STANDARD
  9
$CMLJUST
 70
     0
  9
$CMLSCALE
 40
1.0
  9
$PROXYGRAPHICS
 70
     1
  9
$MEASUREMENT
 70
     1
  9
$CELWEIGHT
370
    -1
  9
$ENDCAPS
280
     0
  9
$JOINSTYLE
280
     0
  9
$LWDISPLAY
290
     0
  9
$INSUNITS
 70
     0
  9
$HYPERLINKBASE
  1

  9
$STYLESHEET
  1
inaba.ctb
  9
$XEDIT
290
     1
  9
$CEPSNTYPE
380
     0
  9
$PSTYLEMODE
290
     1
  9
$FINGERPRINTGUID
  2
{5EAC461A-2277-4BF8-9AB0-99C43BB394F0}
  9
$VERSIONGUID
  2
{C776A560-6111-49BC-847D-0E86E0587EC2}
  9
$EXTNAMES
290
     1
  9
$PSVPSCALE
 40
0.0
  9
$OLESTARTUP
290
     0
  0
ENDSEC
  0
SECTION
  2
CLASSES
  0
CLASS
  1
ACDBDICTIONARYWDFLT
  2
AcDbDictionaryWithDefault
  3
ObjectDBX Classes
 90
        0
280
     0
281
     0
  0
CLASS
  1
DICTIONARYVAR
  2
AcDbDictionaryVar
  3
ObjectDBX Classes
 90
        0
280
     0
281
     0
  0
CLASS
  1
ACDBPLACEHOLDER
  2
AcDbPlaceHolder
  3
ObjectDBX Classes
 90
        0
280
     0
281
     0
  0
CLASS
  1
LAYOUT
  2
AcDbLayout
  3
ObjectDBX Classes
 90
        0
280
     0
281
     0
  0
ENDSEC
  0
SECTION
  2
TABLES
  0
TABLE
  2
VPORT
  5
746D
330
0
100
AcDbSymbolTable
 70
     4
  0
VPORT
  5
1FEA3
330
746D
100
AcDbSymbolTableRecord
100
AcDbViewportTableRecord
  2
*Active
 70
     0
 10
0.0
 20
0.0
 11
1.0
 21
1.0
 12
8223.761025238502
 22
5704.608037261908
 13
0.0
 23
0.0
 14
10.0
 24
10.0
 15
10.0
 25
10.0
 16
0.0
 26
0.0
 36
1.0
 17
0.0
 27
0.0
 37
0.0
 40
11498.80545938683
 41
1.522222222222222
 42
50.0
 43
0.0
 44
0.0
 50
0.0
 51
0.0
 71
     0
 72
     0
 73
     1
 74
     0
 75
     0
 76
     0
 77
     0
 78
     0
281
     0
 65
     1
110
0.0
120
0.0
130
0.0
111
1.0
121
0.0
131
0.0
112
0.0
122
1.0
132
0.0
 79
     0
146
0.0
  0
ENDTAB
  0
TABLE
  2
LTYPE
  5
746A
330
0
100
AcDbSymbolTable
 70
     5
  0
LTYPE
  5
7477
330
746A
100
AcDbSymbolTableRecord
100
AcDbLinetypeTableRecord
  2
BYBLOCK
 70
     0
  3

 72
    65
 73
     0
 40
0.0
  0
LTYPE
  5
7478
330
746A
100
AcDbSymbolTableRecord
100
AcDbLinetypeTableRecord
  2
BYLAYER
 70
     0
  3

 72
    65
 73
     0
 40
0.0
  0
LTYPE
  5
7479
330
746A
100
AcDbSymbolTableRecord
100
AcDbLinetypeTableRecord
  2
CONTINUOUS
 70
     0
  3
Solid line
 72
    65
 73
     0
 40
0.0
  0
LTYPE
  5
7816
330
746A
100
AcDbSymbolTableRecord
100
AcDbLinetypeTableRecord
  2
CENTER
 70
     0
  3
____ _ ____ _ ____ _ ____ _ ____ _ ____ _ ____ 
 72
    65
 73
     4
 40
2.0
 49
1.25
 74
     0
 49
-0.25
 74
     0
 49
0.25
 74
     0
 49
-0.25
 74
     0
  0
LTYPE
  5
781A
330
746A
100
AcDbSymbolTableRecord
100
AcDbLinetypeTableRecord
  2
HIDDEN
 70
     0
  3
__ __ __ __ __ __ __ __ __ __ __ __ __ __ __ __
 72
    65
 73
     2
 40
0.375
 49
0.25
 74
     0
 49
-0.125
 74
     0
  0
LTYPE
  5
781B
330
746A
100
AcDbSymbolTableRecord
100
AcDbLinetypeTableRecord
  2
PHANTOM
 70
     0
  3
______  __  __  ______  __  __  ______  __  __ 
 72
    65
 73
     6
 40
2.5
 49
1.25
 74
     0
 49
-0.25
 74
     0
 49
0.25
 74
     0
 49
-0.25
 74
     0
 49
0.25
 74
     0
 49
-0.25
 74
     0
  0
LTYPE
  5
12CC3
330
746A
100
AcDbSymbolTableRecord
100
AcDbLinetypeTableRecord
  2
HIDDENX2
 70
     0
  3
Hidden (2x) ____ ____ ____ ____ ____ ____ ____
 72
    65
 73
     2
 40
19.05
 49
12.7
 74
     0
 49
-6.349999999999999
 74
     0
  0
ENDTAB
  0
TABLE
  2
LAYER
  5
7467
102
{ACAD_XDICTIONARY
360
1758F
102
}
330
0
100
AcDbSymbolTable
 70
    12
  0
LAYER
  5
7474
330
7467
100
AcDbSymbolTableRecord
100
AcDbLayerTableRecord
  2
0
 70
     0
 62
     7
  6
CONTINUOUS
370
    -3
390
173D0
  0
LAYER
  5
DEB2
330
7467
100
AcDbSymbolTableRecord
100
AcDbLayerTableRecord
  2
センター
 70
     0
 62
     3
  6
CENTER
370
    -3
390
173D0
  0
LAYER
  5
DEB3
330
7467
100
AcDbSymbolTableRecord
100
AcDbLayerTableRecord
  2
寸法
 70
     0
 62
     4
  6
CONTINUOUS
370
    -3
390
173D0
  0
LAYER
  5
DEB4
330
7467
100
AcDbSymbolTableRecord
100
AcDbLayerTableRecord
  2
部品1
 70
     0
 62
     7
  6
CONTINUOUS
370
    -3
390
173D0
  0
LAYER
  5
DEB5
330
7467
100
AcDbSymbolTableRecord
100
AcDbLayerTableRecord
  2
補助
 70
     0
 62
    -1
  6
CONTINUOUS
370
    -3
390
173D0
  0
LAYER
  5
DEB6
330
7467
100
AcDbSymbolTableRecord
100
AcDbLayerTableRecord
  2
文字
 70
     0
 62
     7
  6
CONTINUOUS
370
    -3
390
173D0
  0
LAYER
  5
F255
330
7467
100
AcDbSymbolTableRecord
100
AcDbLayerTableRecord
  2
DEFPOINTS
 70
     0
 62
     7
  6
CONTINUOUS
290
     0
370
    -3
390
173D0
  0
LAYER
  5
10B54
330
7467
100
AcDbSymbolTableRecord
100
AcDbLayerTableRecord
  2
仕様書枠
 70
     0
 62
   230
  6
CONTINUOUS
370
    -3
390
173D0
  0
LAYER
  5
11729
330
7467
100
AcDbSymbolTableRecord
100
AcDbLayerTableRecord
  2
Ｇ．Ｌ
 70
     0
 62
    30
  6
CONTINUOUS
370
    -3
390
173D0
  0
LAYER
  5
1173F
330
7467
100
AcDbSymbolTableRecord
100
AcDbLayerTableRecord
  2
細線
 70
     0
 62
     5
  6
CONTINUOUS
370
    -3
390
173D0
  0
LAYER
  5
12CC4
330
7467
100
AcDbSymbolTableRecord
100
AcDbLayerTableRecord
  2
想像線
 70
     0
 62
     6
  6
PHANTOM
370
    -3
390
173D0
  0
LAYER
  5
142E2
330
7467
100
AcDbSymbolTableRecord
100
AcDbLayerTableRecord
  2
破線
 70
     0
 62
     2
  6
HIDDEN
370
    -3
390
173D0
  0
ENDTAB
  0
TABLE
  2
STYLE
  5
7468
330
0
100
AcDbSymbolTable
 70
     6
  0
STYLE
  5
7475
330
7468
100
AcDbSymbolTableRecord
100
AcDbTextStyleTableRecord
  2
STANDARD
 70
     0
 40
0.0
 41
1.0
 50
0.0
 71
     0
 42
4.0
  3
txt
  4
C:\AutoCAD LT\bigfont.shx
  0
STYLE
  5
763C
330
7468
100
AcDbSymbolTableRecord
100
AcDbTextStyleTableRecord
  2
MSMINCHO
 70
     0
 40
0.0
 41
1.0
 50
0.0
 71
     0
 42
1.199999999999999
  3
C:\AutoCAD LT\msminch2.TTF
  4

  0
STYLE
  5
F706
330
7468
100
AcDbSymbolTableRecord
100
AcDbTextStyleTableRecord
  2
STYLE1
 70
     0
 40
0.0
 41
1.0
 50
0.0
 71
     0
 42
4.0
  3
isocp.shx
  4
bigfont.shx
  0
STYLE
  5
103BF
330
7468
100
AcDbSymbolTableRecord
100
AcDbTextStyleTableRecord
  2
STYLE2
 70
     0
 40
0.0
 41
1.0
 50
0.0
 71
     0
 42
100.0
  3
MS PGothic.ttf
  4

1001
ACAD
1000
MS PGothic
1071
    32818
  0
STYLE
  5
11A15
330
7468
100
AcDbSymbolTableRecord
100
AcDbTextStyleTableRecord
  2
MSGOTHIC
 70
     0
 40
0.0
 41
1.0
 50
0.0
 71
     0
 42
3.5
  3
msgothi2.ttf
  4

  0
STYLE
  5
13E96
330
7468
100
AcDbSymbolTableRecord
100
AcDbTextStyleTableRecord
  2
MSPゴシック
 70
     0
 40
0.0
 41
1.0
 50
0.0
 71
     0
 42
4.0
  3
MS PGothic.ttf
  4

1001
ACAD
1000
MS PGothic
1071
    32818
  0
ENDTAB
  0
TABLE
  2
VIEW
  5
746B
330
0
100
AcDbSymbolTable
 70
     0
  0
ENDTAB
  0
TABLE
  2
UCS
  5
746C
330
0
100
AcDbSymbolTable
 70
     0
  0
ENDTAB
  0
TABLE
  2
APPID
  5
746E
330
0
100
AcDbSymbolTable
 70
     6
  0
APPID
  5
7476
330
746E
100
AcDbSymbolTableRecord
100
AcDbRegAppTableRecord
  2
ACAD
 70
     0
  0
APPID
  5
DEA9
330
746E
100
AcDbSymbolTableRecord
100
AcDbRegAppTableRecord
  2
CONTENTBLOCKICON
 70
     0
  0
APPID
  5
DEAA
330
746E
100
AcDbSymbolTableRecord
100
AcDbRegAppTableRecord
  2
CONTENTBLOCKDESCRIPTION
 70
     0
  0
APPID
  5
E71D
330
746E
100
AcDbSymbolTableRecord
100
AcDbRegAppTableRecord
  2
CONTENTTABDATA
 70
     0
  0
APPID
  5
E71E
330
746E
100
AcDbSymbolTableRecord
100
AcDbRegAppTableRecord
  2
CONTENTCURRENTTAB
 70
     0
  0
APPID
  5
F3BA
330
746E
100
AcDbSymbolTableRecord
100
AcDbRegAppTableRecord
  2
DRAWINGVARIABLESXDATA
 70
     0
  0
ENDTAB
  0
TABLE
  2
DIMSTYLE
  5
746F
330
0
100
AcDbSymbolTable
 70
     7
100
AcDbDimStyleTable
 71
     1
340
F71F
  0
DIMSTYLE
105
7484
330
746F
100
AcDbSymbolTableRecord
100
AcDbDimStyleTableRecord
  2
JIS
 70
     0
 41
2.5
 42
1.0
 43
7.0
 44
1.0
 73
     0
 74
     0
 77
     1
 78
     8
140
2.5
141
0.0
143
0.0394
147
0.0
172
     1
174
     1
175
     1
340
7475
  0
DIMSTYLE
105
F236
330
746F
100
AcDbSymbolTableRecord
100
AcDbDimStyleTableRecord
  2
INABA_S40
 70
     0
 40
40.0
 41
2.5
 42
0.5
 43
7.0
 44
1.5
 73
     0
 74
     0
 77
     3
 78
     8
140
3.0
141
0.0
143
0.0394
147
1.0
172
     1
173
     1
174
     1
175
     1
178
     7
289
     0
340
7475
341
DEAC
343
DEAC
344
DEAC
  0
DIMSTYLE
105
F71F
102
{ACAD_REACTORS
330
1E238
330
1E237
330
1E235
330
1E232
330
1E05F
330
1E05C
330
1E05B
330
1E038
330
1E035
330
1E034
330
1E058
330
1E055
330
1E047
330
1E044
330
1E04A
330
1E048
330
1E06B
330
1E07C
330
1E065
330
1E06D
330
1E074
330
1E042
330
1E062
330
1E04E
330
1E04B
330
1E046
330
1F5E0
330
1E231
330
1FD0A
330
1FD0B
102
}
330
746F
100
AcDbSymbolTableRecord
100
AcDbDimStyleTableRecord
  2
INABA_S40G
 70
     0
 40
40.0
 41
2.5
 42
0.5
 43
7.0
 44
1.5
 73
     0
 74
     0
 77
     3
 78
     8
140
3.0
141
0.0
143
0.0394
147
1.0
172
     1
173
     1
174
     1
178
     7
271
     1
340
F706
341
F770
343
F770
344
F770
  0
DIMSTYLE
105
142E3
330
746F
100
AcDbSymbolTableRecord
100
AcDbDimStyleTableRecord
  2
INABA_S1
 70
     0
 40
0.0
 41
2.5
 42
0.5
 43
7.0
 44
1.5
 73
     0
 74
     0
 77
     3
 78
     8
140
3.0
141
0.0
143
0.0394
146
0.5
147
0.5
172
     1
173
     1
176
   256
177
   256
178
     7
271
     2
272
     2
284
     8
288
     1
340
7475
341
DEAC
343
DEAC
344
DEAC
  0
DIMSTYLE
105
14463
330
746F
100
AcDbSymbolTableRecord
100
AcDbDimStyleTableRecord
  2
INABA_S30G
 70
     0
 40
30.0
 41
2.5
 42
0.5
 43
7.0
 44
1.5
 73
     0
 74
     0
 77
     3
 78
     8
140
3.0
141
0.0
143
0.0394
147
1.0
172
     1
173
     1
174
     1
175
     1
178
     7
271
     1
340
F706
341
F770
343
F770
344
F770
  0
DIMSTYLE
105
1758E
330
746F
100
AcDbSymbolTableRecord
100
AcDbDimStyleTableRecord
  2
INABA_S50G
 70
     0
 41
125.0
 42
25.0
 43
7.0
 44
75.0
 73
     0
 74
     0
 77
     3
 78
     8
140
150.0
141
0.0
143
0.0394
147
25.0
172
     1
173
     1
174
     1
175
     1
178
     7
271
     1
340
F706
341
F770
343
F770
344
F770
  0
DIMSTYLE
105
1F7D0
102
{ACAD_REACTORS
330
1FDE6
330
1FDF7
330
1FDF8
330
1FDFF
102
}
330
746F
100
AcDbSymbolTableRecord
100
AcDbDimStyleTableRecord
  2
INABA_S50GUP
 70
     0
 41
125.0
 42
25.0
 43
7.0
 44
75.0
 73
     0
 74
     0
 77
     3
 78
     8
140
150.0
141
0.0
143
0.0394
147
25.0
172
     1
173
     1
174
     1
178
     7
271
     1
340
F706
341
F770
343
F770
344
F770
  0
ENDTAB
  0
TABLE
  2
BLOCK_RECORD
  5
7466
330
0
100
AcDbSymbolTable
 70
    66
  0
BLOCK_RECORD
  5
747D
330
7466
100
AcDbSymbolTableRecord
100
AcDbBlockTableRecord
  2
*MODEL_SPACE
340
173D5
  0
BLOCK_RECORD
  5
747A
330
7466
100
AcDbSymbolTableRecord
100
AcDbBlockTableRecord
  2
*PAPER_SPACE
340
173D6
  0
BLOCK_RECORD
  5
DEAC
330
7466
100
AcDbSymbolTableRecord
100
AcDbBlockTableRecord
  2
_OPEN
340
0
  0
BLOCK_RECORD
  5
F770
330
7466
100
AcDbSymbolTableRecord
100
AcDbBlockTableRecord
  2
_DOTSMALL
340
0
102
{BLKREFS
331
18C65
331
18C66
331
18C59
331
18C5A
331
18C4D
331
18C4E
331
18C41
331
18C42
331
18C35
331
18C36
331
18C29
331
18C2A
331
18C1D
331
18C1E
331
18C0F
331
18C10
331
18C03
331
18C04
331
18BF5
331
18BF6
331
18BE7
331
18BE8
331
18BD9
331
18BDA
331
18BCD
331
18BCE
331
1EEEA
331
1EEEB
331
1EEF4
331
1EEF5
331
1EEFF
331
1EF00
331
1EF08
331
1EF09
331
1EF1D
331
1EF1E
331
1EF28
331
1EF29
331
1EF32
331
1EF33
331
1EF3B
331
1EF3C
331
1EF44
331
1EF45
331
1EF59
331
1EF5A
331
1EF6C
331
1EF6D
331
1EF75
331
1EF76
331
1EF80
331
1EF81
331
1EF8A
331
1EF8B
331
1EF95
331
1EF96
331
1EFE2
331
1EFE3
331
1F0A7
331
1F0A8
331
1F0EC
331
1F0ED
331
1F0F5
331
1F0F6
331
1F5D8
331
1F5D9
331
1F640
331
1F641
331
1F677
331
1F678
331
1F71D
331
1F71E
331
1F727
331
1F728
331
1F731
331
1F732
331
1F73B
331
1F73C
331
1F746
331
1F747
331
1FAC2
331
1FAC3
331
1FAE2
331
1FAE3
331
1FAEC
331
1FAED
331
1FAF5
331
1FAF6
331
1FAFE
331
1FAFF
331
1FB07
331
1FB08
331
1FB10
331
1FB11
331
1FB37
331
1FB38
331
1FB29
331
1FB2A
331
1FB67
331
1FB68
331
1FB5B
331
1FB5C
331
1FB4F
331
1FB50
331
1FB43
331
1FB44
331
1FE60
331
1FE61
331
1FE69
331
1FE6A
331
1FE72
331
1FE73
331
1FE7B
331
1FE7C
331
1FE86
331
1FE87
331
1FE90
331
1FE91
102
}
  0
BLOCK_RECORD
  5
164B4
330
7466
100
AcDbSymbolTableRecord
100
AcDbBlockTableRecord
  2
_DOT
340
0
102
{BLKREFS
331
18C73
331
18C74
102
}
  0
BLOCK_RECORD
  5
18BC8
330
7466
100
AcDbSymbolTableRecord
100
AcDbBlockTableRecord
  2
*D3
340
0
  0
BLOCK_RECORD
  5
18BD4
330
7466
100
AcDbSymbolTableRecord
100
AcDbBlockTableRecord
  2
*D4
340
0
  0
BLOCK_RECORD
  5
18BE0
330
7466
100
AcDbSymbolTableRecord
100
AcDbBlockTableRecord
  2
*D5
340
0
  0
BLOCK_RECORD
  5
18BEE
330
7466
100
AcDbSymbolTableRecord
100
AcDbBlockTableRecord
  2
*D6
340
0
  0
BLOCK_RECORD
  5
18BFC
330
7466
100
AcDbSymbolTableRecord
100
AcDbBlockTableRecord
  2
*D7
340
0
  0
BLOCK_RECORD
  5
18C0A
330
7466
100
AcDbSymbolTableRecord
100
AcDbBlockTableRecord
  2
*D8
340
0
  0
BLOCK_RECORD
  5
18C16
330
7466
100
AcDbSymbolTableRecord
100
AcDbBlockTableRecord
  2
*D9
340
0
  0
BLOCK_RECORD
  5
18C24
330
7466
100
AcDbSymbolTableRecord
100
AcDbBlockTableRecord
  2
*D10
340
0
  0
BLOCK_RECORD
  5
18C30
330
7466
100
AcDbSymbolTableRecord
100
AcDbBlockTableRecord
  2
*D11
340
0
  0
BLOCK_RECORD
  5
18C3C
330
7466
100
AcDbSymbolTableRecord
100
AcDbBlockTableRecord
  2
*D12
340
0
  0
BLOCK_RECORD
  5
18C48
330
7466
100
AcDbSymbolTableRecord
100
AcDbBlockTableRecord
  2
*D13
340
0
  0
BLOCK_RECORD
  5
18C54
330
7466
100
AcDbSymbolTableRecord
100
AcDbBlockTableRecord
  2
*D14
340
0
  0
BLOCK_RECORD
  5
18C60
330
7466
100
AcDbSymbolTableRecord
100
AcDbBlockTableRecord
  2
*D15
340
0
  0
BLOCK_RECORD
  5
18C6C
330
7466
100
AcDbSymbolTableRecord
100
AcDbBlockTableRecord
  2
*D16
340
0
  0
BLOCK_RECORD
  5
18C7A
330
7466
100
AcDbSymbolTableRecord
100
AcDbBlockTableRecord
  2
A$C3B1A506B
340
0
  0
BLOCK_RECORD
  5
1C4CA
330
7466
100
AcDbSymbolTableRecord
100
AcDbBlockTableRecord
  2
_NONE
340
0
  0
BLOCK_RECORD
  5
1E35F
330
7466
100
AcDbSymbolTableRecord
100
AcDbBlockTableRecord
  2
*D19
340
0
  0
BLOCK_RECORD
  5
1E36C
330
7466
100
AcDbSymbolTableRecord
100
AcDbBlockTableRecord
  2
*D20
340
0
  0
BLOCK_RECORD
  5
1E378
330
7466
100
AcDbSymbolTableRecord
100
AcDbBlockTableRecord
  2
*D21
340
0
  0
BLOCK_RECORD
  5
1E383
330
7466
100
AcDbSymbolTableRecord
100
AcDbBlockTableRecord
  2
*D22
340
0
  0
BLOCK_RECORD
  5
1E38F
330
7466
100
AcDbSymbolTableRecord
100
AcDbBlockTableRecord
  2
*D23
340
0
  0
BLOCK_RECORD
  5
1E39B
330
7466
100
AcDbSymbolTableRecord
100
AcDbBlockTableRecord
  2
*D24
340
0
  0
BLOCK_RECORD
  5
1E3A7
330
7466
100
AcDbSymbolTableRecord
100
AcDbBlockTableRecord
  2
*D25
340
0
  0
BLOCK_RECORD
  5
1E3B2
330
7466
100
AcDbSymbolTableRecord
100
AcDbBlockTableRecord
  2
*D26
340
0
  0
BLOCK_RECORD
  5
1E3BF
330
7466
100
AcDbSymbolTableRecord
100
AcDbBlockTableRecord
  2
*D27
340
0
  0
BLOCK_RECORD
  5
1E3C9
330
7466
100
AcDbSymbolTableRecord
100
AcDbBlockTableRecord
  2
*D28
340
0
  0
BLOCK_RECORD
  5
1E3D5
330
7466
100
AcDbSymbolTableRecord
100
AcDbBlockTableRecord
  2
*D29
340
0
  0
BLOCK_RECORD
  5
1E3E1
330
7466
100
AcDbSymbolTableRecord
100
AcDbBlockTableRecord
  2
*D30
340
0
  0
BLOCK_RECORD
  5
1E3EE
330
7466
100
AcDbSymbolTableRecord
100
AcDbBlockTableRecord
  2
*D31
340
0
  0
BLOCK_RECORD
  5
1E3F8
330
7466
100
AcDbSymbolTableRecord
100
AcDbBlockTableRecord
  2
*D32
340
0
  0
BLOCK_RECORD
  5
1E405
330
7466
100
AcDbSymbolTableRecord
100
AcDbBlockTableRecord
  2
*D33
340
0
  0
BLOCK_RECORD
  5
1E413
330
7466
100
AcDbSymbolTableRecord
100
AcDbBlockTableRecord
  2
*D34
340
0
  0
BLOCK_RECORD
  5
1E420
330
7466
100
AcDbSymbolTableRecord
100
AcDbBlockTableRecord
  2
*D35
340
0
  0
BLOCK_RECORD
  5
1E42E
330
7466
100
AcDbSymbolTableRecord
100
AcDbBlockTableRecord
  2
*D36
340
0
  0
BLOCK_RECORD
  5
1E43A
330
7466
100
AcDbSymbolTableRecord
100
AcDbBlockTableRecord
  2
*D37
340
0
  0
BLOCK_RECORD
  5
1E448
330
7466
100
AcDbSymbolTableRecord
100
AcDbBlockTableRecord
  2
*D38
340
0
  0
BLOCK_RECORD
  5
1E455
330
7466
100
AcDbSymbolTableRecord
100
AcDbBlockTableRecord
  2
*D39
340
0
  0
BLOCK_RECORD
  5
1E460
330
7466
100
AcDbSymbolTableRecord
100
AcDbBlockTableRecord
  2
*D40
340
0
  0
BLOCK_RECORD
  5
1E46E
330
7466
100
AcDbSymbolTableRecord
100
AcDbBlockTableRecord
  2
*D41
340
0
  0
BLOCK_RECORD
  5
1E47B
330
7466
100
AcDbSymbolTableRecord
100
AcDbBlockTableRecord
  2
*D42
340
0
  0
BLOCK_RECORD
  5
1E486
330
7466
100
AcDbSymbolTableRecord
100
AcDbBlockTableRecord
  2
*D43
340
0
  0
BLOCK_RECORD
  5
1E494
330
7466
100
AcDbSymbolTableRecord
100
AcDbBlockTableRecord
  2
*D44
340
0
  0
BLOCK_RECORD
  5
1E4A1
330
7466
100
AcDbSymbolTableRecord
100
AcDbBlockTableRecord
  2
*D45
340
0
  0
BLOCK_RECORD
  5
1F5E1
330
7466
100
AcDbSymbolTableRecord
100
AcDbBlockTableRecord
  2
*D46
340
0
  0
BLOCK_RECORD
  5
1FA33
330
7466
100
AcDbSymbolTableRecord
100
AcDbBlockTableRecord
  2
*D47
340
0
  0
BLOCK_RECORD
  5
1FA40
330
7466
100
AcDbSymbolTableRecord
100
AcDbBlockTableRecord
  2
*D48
340
0
  0
BLOCK_RECORD
  5
1FA4E
330
7466
100
AcDbSymbolTableRecord
100
AcDbBlockTableRecord
  2
*D49
340
0
  0
BLOCK_RECORD
  5
1FA5A
330
7466
100
AcDbSymbolTableRecord
100
AcDbBlockTableRecord
  2
*D50
340
0
  0
BLOCK_RECORD
  5
1FA66
330
7466
100
AcDbSymbolTableRecord
100
AcDbBlockTableRecord
  2
*D51
340
0
  0
BLOCK_RECORD
  5
1FA72
330
7466
100
AcDbSymbolTableRecord
100
AcDbBlockTableRecord
  2
*D52
340
0
  0
BLOCK_RECORD
  5
1FB23
330
7466
100
AcDbSymbolTableRecord
100
AcDbBlockTableRecord
  2
*D53
340
0
  0
BLOCK_RECORD
  5
1FB30
330
7466
100
AcDbSymbolTableRecord
100
AcDbBlockTableRecord
  2
*D54
340
0
  0
BLOCK_RECORD
  5
1FB3E
330
7466
100
AcDbSymbolTableRecord
100
AcDbBlockTableRecord
  2
*D55
340
0
  0
BLOCK_RECORD
  5
1FB4A
330
7466
100
AcDbSymbolTableRecord
100
AcDbBlockTableRecord
  2
*D56
340
0
  0
BLOCK_RECORD
  5
1FB56
330
7466
100
AcDbSymbolTableRecord
100
AcDbBlockTableRecord
  2
*D57
340
0
  0
BLOCK_RECORD
  5
1FB62
330
7466
100
AcDbSymbolTableRecord
100
AcDbBlockTableRecord
  2
*D58
340
0
  0
BLOCK_RECORD
  5
1FE12
330
7466
100
AcDbSymbolTableRecord
100
AcDbBlockTableRecord
  2
*D60
340
0
  0
BLOCK_RECORD
  5
1FE1E
330
7466
100
AcDbSymbolTableRecord
100
AcDbBlockTableRecord
  2
*D61
340
0
  0
BLOCK_RECORD
  5
1FE2A
330
7466
100
AcDbSymbolTableRecord
100
AcDbBlockTableRecord
  2
*D62
340
0
  0
BLOCK_RECORD
  5
1FE36
330
7466
100
AcDbSymbolTableRecord
100
AcDbBlockTableRecord
  2
*D63
340
0
  0
BLOCK_RECORD
  5
1FE42
330
7466
100
AcDbSymbolTableRecord
100
AcDbBlockTableRecord
  2
*D64
340
0
  0
BLOCK_RECORD
  5
1FE50
330
7466
100
AcDbSymbolTableRecord
100
AcDbBlockTableRecord
  2
*D65
340
0
  0
ENDTAB
  0
ENDSEC
  0
SECTION
  2
BLOCKS
  0
BLOCK
  5
7489
330
747D
100
AcDbEntity
  8
0
100
AcDbBlockBegin
  2
*MODEL_SPACE
 70
     0
 10
0.0
 20
0.0
 30
0.0
  3
*MODEL_SPACE
  1

  0
ENDBLK
  5
748A
330
747D
100
AcDbEntity
  8
0
100
AcDbBlockEnd
  0
BLOCK
  5
7487
330
747A
100
AcDbEntity
 67
     1
  8
0
100
AcDbBlockBegin
  2
*PAPER_SPACE
 70
     0
 10
0.0
 20
0.0
 30
0.0
  3
*PAPER_SPACE
  1

  0
ENDBLK
  5
7488
330
747A
100
AcDbEntity
 67
     1
  8
0
100
AcDbBlockEnd
  0
BLOCK
  5
DEAD
330
DEAC
100
AcDbEntity
  8
0
100
AcDbBlockBegin
  2
_OPEN
 70
     0
 10
0.0
 20
0.0
 30
0.0
  3
_OPEN
  1

  0
LINE
  5
DEAE
330
DEAC
100
AcDbEntity
  8
0
  6
ByBlock
 62
     0
100
AcDbLine
 10
-1.0
 20
0.1666666666666666
 30
0.0
 11
0.0
 21
0.0
 31
0.0
  0
LINE
  5
DEAF
330
DEAC
100
AcDbEntity
  8
0
  6
ByBlock
 62
     0
100
AcDbLine
 10
0.0
 20
0.0
 30
0.0
 11
-1.0
 21
-0.1666666666666666
 31
0.0
  0
LINE
  5
DEB0
330
DEAC
100
AcDbEntity
  8
0
  6
ByBlock
 62
     0
100
AcDbLine
 10
0.0
 20
0.0
 30
0.0
 11
-1.0
 21
0.0
 31
0.0
  0
ENDBLK
  5
DEB1
330
DEAC
100
AcDbEntity
  8
0
100
AcDbBlockEnd
  0
BLOCK
  5
F771
330
F770
100
AcDbEntity
  8
0
 48
50.0
100
AcDbBlockBegin
  2
_DOTSMALL
 70
     0
 10
0.0
 20
0.0
 30
0.0
  3
_DOTSMALL
  1

  0
LWPOLYLINE
  5
F772
330
F770
100
AcDbEntity
  8
0
  6
ByBlock
 62
     0
 48
50.0
100
AcDbPolyline
 90
        2
 70
     1
 43
0.5
 10
-0.0625
 20
0.0
 42
1.0
 10
0.0625
 20
0.0
 42
1.0
  0
ENDBLK
  5
F776
330
F770
100
AcDbEntity
  8
0
 48
50.0
100
AcDbBlockEnd
  0
BLOCK
  5
164BA
330
164B4
100
AcDbEntity
  8
0
 48
50.0
100
AcDbBlockBegin
  2
_DOT
 70
     0
 10
0.0
 20
0.0
 30
0.0
  3
_DOT
  1

  0
LWPOLYLINE
  5
164B5
330
164B4
100
AcDbEntity
  8
0
  6
ByBlock
 62
     0
 48
50.0
100
AcDbPolyline
 90
        2
 70
     1
 43
0.5
 10
-0.25
 20
0.0
 42
1.0
 10
0.25
 20
0.0
 42
1.0
  0
LINE
  5
164B9
330
164B4
100
AcDbEntity
  8
0
  6
ByBlock
 62
     0
 48
50.0
100
AcDbLine
 10
-0.5
 20
0.0
 30
0.0
 11
-1.0
 21
0.0
 31
0.0
  0
ENDBLK
  5
164BB
330
164B4
100
AcDbEntity
  8
0
 48
50.0
100
AcDbBlockEnd
  0
BLOCK
  5
18BC9
330
18BC8
100
AcDbEntity
  8
0
 48
50.0
100
AcDbBlockBegin
  2
*D3
 70
     1
 10
0.0
 20
0.0
 30
0.0
  3
*D3
  1

  0
LINE
  5
18BCA
330
18BC8
100
AcDbEntity
  8
寸法
 62
     0
 48
50.0
370
    -2
100
AcDbLine
 10
7649.896575106999
 20
9636.123139034717
 30
0.0
 11
8702.429862581047
 21
9636.123139034717
 31
0.0
  0
LINE
  5
18BCB
330
18BC8
100
AcDbEntity
  8
寸法
 62
     0
 48
50.0
370
    -2
100
AcDbLine
 10
7649.896575106973
 20
7846.123139034709
 30
0.0
 11
8702.429862581047
 21
7846.123139034709
 31
0.0
  0
LINE
  5
18BCC
330
18BC8
100
AcDbEntity
  8
寸法
 62
     0
 48
50.0
370
    -2
100
AcDbLine
 10
8642.429862581046
 20
9636.123139034717
 30
0.0
 11
8642.429862581046
 21
7846.123139034709
 31
0.0
  0
INSERT
  5
18BCD
330
18BC8
100
AcDbEntity
  8
寸法
 62
     0
 48
50.0
370
    -2
100
AcDbBlockReference
  2
_DOTSMALL
 10
8642.429862581046
 20
9636.123139034717
 30
0.0
 41
100.0
 42
100.0
 43
100.0
 50
90.0
  0
INSERT
  5
18BCE
330
18BC8
100
AcDbEntity
  8
寸法
 62
     0
 48
50.0
370
    -2
100
AcDbBlockReference
  2
_DOTSMALL
 10
8642.429862581046
 20
7846.123139034709
 30
0.0
 41
100.0
 42
100.0
 43
100.0
 50
270.0
  0
MTEXT
  5
18BCF
330
18BC8
100
AcDbEntity
  8
寸法
 62
     7
 48
50.0
100
AcDbMText
 10
8542.429862581045
 20
8741.123139034712
 30
0.0
 40
120.0
 41
0.0
 71
     5
 72
     1
  1
\A1;1790
  7
STYLE1
 11
0.0000000000000001
 21
1.0
 31
0.0
 73
     1
 44
1.0
1001
ACAD
1000
MTEXTBEGIN
1070
    73
1070
     1
1070
    44
1040
1.0
1070
    74
1070
     0
1000
MTEXTEND
  0
POINT
  5
18BD0
330
18BC8
100
AcDbEntity
  8
DEFPOINTS
 62
     0
 48
50.0
100
AcDbPoint
 10
7629.896575106998
 20
9636.123139034717
 30
0.0
  0
POINT
  5
18BD1
330
18BC8
100
AcDbEntity
  8
DEFPOINTS
 62
     0
 48
50.0
100
AcDbPoint
 10
7629.896575106974
 20
7846.123139034709
 30
0.0
  0
POINT
  5
18BD2
330
18BC8
100
AcDbEntity
  8
DEFPOINTS
 62
     0
 48
50.0
100
AcDbPoint
 10
8642.429862581046
 20
7846.123139034709
 30
0.0
  0
ENDBLK
  5
18BD3
330
18BC8
100
AcDbEntity
  8
0
 48
50.0
100
AcDbBlockEnd
  0
BLOCK
  5
18BD5
330
18BD4
100
AcDbEntity
  8
0
 48
50.0
100
AcDbBlockBegin
  2
*D4
 70
     1
 10
0.0
 20
0.0
 30
0.0
  3
*D4
  1

  0
LINE
  5
18BD6
330
18BD4
100
AcDbEntity
  8
寸法
 62
     0
 48
50.0
370
    -2
100
AcDbLine
 10
4214.896575106998
 20
9656.123139034622
 30
0.0
 11
4214.896575106998
 21
10211.93135865972
 31
0.0
  0
LINE
  5
18BD7
330
18BD4
100
AcDbEntity
  8
寸法
 62
     0
 48
50.0
370
    -2
100
AcDbLine
 10
7574.896575106999
 20
9656.123139034718
 30
0.0
 11
7574.896575106999
 21
10211.93135865972
 31
0.0
  0
LINE
  5
18BD8
330
18BD4
100
AcDbEntity
  8
寸法
 62
     0
 48
50.0
370
    -2
100
AcDbLine
 10
4214.896575106998
 20
10151.93135865972
 30
0.0
 11
7574.896575106999
 21
10151.93135865972
 31
0.0
  0
INSERT
  5
18BD9
330
18BD4
100
AcDbEntity
  8
寸法
 62
     0
 48
50.0
370
    -2
100
AcDbBlockReference
  2
_DOTSMALL
 10
4214.896575106998
 20
10151.93135865972
 30
0.0
 41
100.0
 42
100.0
 43
100.0
 50
180.0
  0
INSERT
  5
18BDA
330
18BD4
100
AcDbEntity
  8
寸法
 62
     0
 48
50.0
370
    -2
100
AcDbBlockReference
  2
_DOTSMALL
 10
7574.896575106999
 20
10151.93135865972
 30
0.0
 41
100.0
 42
100.0
 43
100.0
  0
MTEXT
  5
18BDB
330
18BD4
100
AcDbEntity
  8
寸法
 62
     7
 48
50.0
100
AcDbMText
 10
5894.896575106997
 20
10251.94316968334
 30
0.0
 40
120.0
 41
0.0
 71
     5
 72
     1
  1
\A1;8X420=3360
  7
STYLE1
 73
     1
 44
1.0
1001
ACAD
1000
MTEXTBEGIN
1070
    73
1070
     1
1070
    44
1040
1.0
1070
    74
1070
     0
1000
MTEXTEND
  0
POINT
  5
18BDC
330
18BD4
100
AcDbEntity
  8
DEFPOINTS
 62
     0
 48
50.0
100
AcDbPoint
 10
4214.896575106998
 20
9636.123139034623
 30
0.0
  0
POINT
  5
18BDD
330
18BD4
100
AcDbEntity
  8
DEFPOINTS
 62
     0
 48
50.0
100
AcDbPoint
 10
7574.896575106999
 20
9636.123139034717
 30
0.0
  0
POINT
  5
18BDE
330
18BD4
100
AcDbEntity
  8
DEFPOINTS
 62
     0
 48
50.0
100
AcDbPoint
 10
7574.896575106999
 20
10151.93135865972
 30
0.0
  0
ENDBLK
  5
18BDF
330
18BD4
100
AcDbEntity
  8
0
 48
50.0
100
AcDbBlockEnd
  0
BLOCK
  5
18BE1
330
18BE0
100
AcDbEntity
  8
0
 48
50.0
100
AcDbBlockBegin
  2
*D5
 70
     1
 10
0.0
 20
0.0
 30
0.0
  3
*D5
  1

  0
LINE
  5
18BE2
330
18BE0
100
AcDbEntity
  8
寸法
 62
     0
 48
50.0
370
    -2
100
AcDbLine
 10
7574.896575106999
 20
9656.123139034718
 30
0.0
 11
7574.896575106999
 21
10211.9313586597
 31
0.0
  0
LINE
  5
18BE3
330
18BE0
100
AcDbEntity
  8
寸法
 62
     0
 48
50.0
370
    -2
100
AcDbLine
 10
7629.896575106998
 20
9656.123139034718
 30
0.0
 11
7629.896575106998
 21
10211.9313586597
 31
0.0
  0
LINE
  5
18BE4
330
18BE0
100
AcDbEntity
  8
寸法
 62
     0
 48
50.0
370
    -2
100
AcDbLine
 10
7574.896575106999
 20
10151.9313586597
 30
0.0
 11
7474.896575106999
 21
10151.9313586597
 31
0.0
  0
LINE
  5
18BE5
330
18BE0
100
AcDbEntity
  8
寸法
 62
     0
 48
50.0
370
    -2
100
AcDbLine
 10
7629.896575106998
 20
10151.9313586597
 30
0.0
 11
8046.867137855477
 21
10151.9313586597
 31
0.0
  0
LINE
  5
18BE6
330
18BE0
100
AcDbEntity
  8
寸法
 62
     0
 48
50.0
370
    -2
100
AcDbLine
 10
7574.896575106999
 20
10151.9313586597
 30
0.0
 11
7629.896575106998
 21
10151.9313586597
 31
0.0
  0
INSERT
  5
18BE7
330
18BE0
100
AcDbEntity
  8
寸法
 62
     0
 48
50.0
370
    -2
100
AcDbBlockReference
  2
_DOTSMALL
 10
7574.896575106999
 20
10151.9313586597
 30
0.0
 41
100.0
 42
100.0
 43
100.0
  0
INSERT
  5
18BE8
330
18BE0
100
AcDbEntity
  8
寸法
 62
     0
 48
50.0
370
    -2
100
AcDbBlockReference
  2
_DOTSMALL
 10
7629.896575106998
 20
10151.9313586597
 30
0.0
 41
100.0
 42
100.0
 43
100.0
 50
180.0
  0
MTEXT
  5
18BE9
330
18BE0
100
AcDbEntity
  8
寸法
 62
     7
 48
50.0
100
AcDbMText
 10
7938.381856481237
 20
10251.9313586597
 30
0.0
 40
120.0
 41
0.0
 71
     5
 72
     1
  1
\A1;55
  7
STYLE1
 73
     1
 44
1.0
1001
ACAD
1000
MTEXTBEGIN
1070
    73
1070
     1
1070
    44
1040
1.0
1070
    74
1070
     0
1000
MTEXTEND
  0
POINT
  5
18BEA
330
18BE0
100
AcDbEntity
  8
DEFPOINTS
 62
     0
 48
50.0
100
AcDbPoint
 10
7574.896575106999
 20
9636.123139034717
 30
0.0
  0
POINT
  5
18BEB
330
18BE0
100
AcDbEntity
  8
DEFPOINTS
 62
     0
 48
50.0
100
AcDbPoint
 10
7629.896575106998
 20
9636.123139034717
 30
0.0
  0
POINT
  5
18BEC
330
18BE0
100
AcDbEntity
  8
DEFPOINTS
 62
     0
 48
50.0
100
AcDbPoint
 10
7629.896575106998
 20
10151.9313586597
 30
0.0
  0
ENDBLK
  5
18BED
330
18BE0
100
AcDbEntity
  8
0
 48
50.0
100
AcDbBlockEnd
  0
BLOCK
  5
18BEF
330
18BEE
100
AcDbEntity
  8
0
 48
50.0
100
AcDbBlockBegin
  2
*D6
 70
     1
 10
0.0
 20
0.0
 30
0.0
  3
*D6
  1

  0
LINE
  5
18BF0
330
18BEE
100
AcDbEntity
  8
寸法
 62
     0
 48
50.0
370
    -2
100
AcDbLine
 10
7649.896575106999
 20
9636.123139034717
 30
0.0
 11
8337.32292084141
 21
9636.123139034717
 31
0.0
  0
LINE
  5
18BF1
330
18BEE
100
AcDbEntity
  8
寸法
 62
     0
 48
50.0
370
    -2
100
AcDbLine
 10
7649.896575106999
 20
9581.123139034721
 30
0.0
 11
8337.32292084141
 21
9581.123139034721
 31
0.0
  0
LINE
  5
18BF2
330
18BEE
100
AcDbEntity
  8
寸法
 62
     0
 48
50.0
370
    -2
100
AcDbLine
 10
8277.322920841411
 20
9581.123139034721
 30
0.0
 11
8277.322920841411
 21
9481.123139034719
 31
0.0
  0
LINE
  5
18BF3
330
18BEE
100
AcDbEntity
  8
寸法
 62
     0
 48
50.0
370
    -2
100
AcDbLine
 10
8277.322920841411
 20
9636.123139034717
 30
0.0
 11
8277.322920841411
 21
10053.09370178319
 31
0.0
  0
LINE
  5
18BF4
330
18BEE
100
AcDbEntity
  8
寸法
 62
     0
 48
50.0
370
    -2
100
AcDbLine
 10
8277.322920841411
 20
9581.123139034721
 30
0.0
 11
8277.322920841411
 21
9636.123139034717
 31
0.0
  0
INSERT
  5
18BF5
330
18BEE
100
AcDbEntity
  8
寸法
 62
     0
 48
50.0
370
    -2
100
AcDbBlockReference
  2
_DOTSMALL
 10
8277.322920841411
 20
9581.123139034721
 30
0.0
 41
100.0
 42
100.0
 43
100.0
 50
90.0
  0
INSERT
  5
18BF6
330
18BEE
100
AcDbEntity
  8
寸法
 62
     0
 48
50.0
370
    -2
100
AcDbBlockReference
  2
_DOTSMALL
 10
8277.322920841411
 20
9636.123139034717
 30
0.0
 41
100.0
 42
100.0
 43
100.0
 50
270.0
  0
MTEXT
  5
18BF7
330
18BEE
100
AcDbEntity
  8
寸法
 62
     7
 48
50.0
100
AcDbMText
 10
8177.32292084141
 20
9944.608420408957
 30
0.0
 40
120.0
 41
0.0
 71
     5
 72
     1
  1
\A1;55
  7
STYLE1
 11
0.0000000000000001
 21
1.0
 31
0.0
 73
     1
 44
1.0
1001
ACAD
1000
MTEXTBEGIN
1070
    73
1070
     1
1070
    44
1040
1.0
1070
    74
1070
     0
1000
MTEXTEND
  0
POINT
  5
18BF8
330
18BEE
100
AcDbEntity
  8
DEFPOINTS
 62
     0
 48
50.0
100
AcDbPoint
 10
7629.896575106998
 20
9636.123139034717
 30
0.0
  0
POINT
  5
18BF9
330
18BEE
100
AcDbEntity
  8
DEFPOINTS
 62
     0
 48
50.0
100
AcDbPoint
 10
7629.896575106998
 20
9581.123139034721
 30
0.0
  0
POINT
  5
18BFA
330
18BEE
100
AcDbEntity
  8
DEFPOINTS
 62
     0
 48
50.0
100
AcDbPoint
 10
8277.322920841411
 20
9581.123139034721
 30
0.0
  0
ENDBLK
  5
18BFB
330
18BEE
100
AcDbEntity
  8
0
 48
50.0
100
AcDbBlockEnd
  0
BLOCK
  5
18BFD
330
18BFC
100
AcDbEntity
  8
0
 48
50.0
100
AcDbBlockBegin
  2
*D7
 70
     1
 10
0.0
 20
0.0
 30
0.0
  3
*D7
  1

  0
LINE
  5
18BFE
330
18BFC
100
AcDbEntity
  8
寸法
 62
     0
 48
50.0
370
    -2
100
AcDbLine
 10
4159.896575106963
 20
9656.123139034622
 30
0.0
 11
4159.896575106963
 21
10211.9313586596
 31
0.0
  0
LINE
  5
18BFF
330
18BFC
100
AcDbEntity
  8
寸法
 62
     0
 48
50.0
370
    -2
100
AcDbLine
 10
4214.896575106998
 20
9656.123139034622
 30
0.0
 11
4214.896575106998
 21
10211.9313586596
 31
0.0
  0
LINE
  5
18C00
330
18BFC
100
AcDbEntity
  8
寸法
 62
     0
 48
50.0
370
    -2
100
AcDbLine
 10
4214.896575106998
 20
10151.9313586596
 30
0.0
 11
4314.896575106998
 21
10151.9313586596
 31
0.0
  0
LINE
  5
18C01
330
18BFC
100
AcDbEntity
  8
寸法
 62
     0
 48
50.0
370
    -2
100
AcDbLine
 10
4159.896575106963
 20
10151.9313586596
 30
0.0
 11
3742.926012358486
 21
10151.9313586596
 31
0.0
  0
LINE
  5
18C02
330
18BFC
100
AcDbEntity
  8
寸法
 62
     0
 48
50.0
370
    -2
100
AcDbLine
 10
4214.896575106998
 20
10151.9313586596
 30
0.0
 11
4159.896575106963
 21
10151.9313586596
 31
0.0
  0
INSERT
  5
18C03
330
18BFC
100
AcDbEntity
  8
寸法
 62
     0
 48
50.0
370
    -2
100
AcDbBlockReference
  2
_DOTSMALL
 10
4214.896575106998
 20
10151.9313586596
 30
0.0
 41
100.0
 42
100.0
 43
100.0
 50
180.0
  0
INSERT
  5
18C04
330
18BFC
100
AcDbEntity
  8
寸法
 62
     0
 48
50.0
370
    -2
100
AcDbBlockReference
  2
_DOTSMALL
 10
4159.896575106963
 20
10151.9313586596
 30
0.0
 41
100.0
 42
100.0
 43
100.0
  0
MTEXT
  5
18C05
330
18BFC
100
AcDbEntity
  8
寸法
 62
     7
 48
50.0
100
AcDbMText
 10
3851.411293732725
 20
10251.9313586596
 30
0.0
 40
120.0
 41
0.0
 71
     5
 72
     1
  1
\A1;55
  7
STYLE1
 73
     1
 44
1.0
1001
ACAD
1000
MTEXTBEGIN
1070
    73
1070
     1
1070
    44
1040
1.0
1070
    74
1070
     0
1000
MTEXTEND
  0
POINT
  5
18C06
330
18BFC
100
AcDbEntity
  8
DEFPOINTS
 62
     0
 48
50.0
100
AcDbPoint
 10
4159.896575106963
 20
9636.123139034623
 30
0.0
  0
POINT
  5
18C07
330
18BFC
100
AcDbEntity
  8
DEFPOINTS
 62
     0
 48
50.0
100
AcDbPoint
 10
4214.896575106998
 20
9636.123139034623
 30
0.0
  0
POINT
  5
18C08
330
18BFC
100
AcDbEntity
  8
DEFPOINTS
 62
     0
 48
50.0
100
AcDbPoint
 10
4214.896575106998
 20
10151.9313586596
 30
0.0
  0
ENDBLK
  5
18C09
330
18BFC
100
AcDbEntity
  8
0
 48
50.0
100
AcDbBlockEnd
  0
BLOCK
  5
18C0B
330
18C0A
100
AcDbEntity
  8
0
 48
50.0
100
AcDbBlockBegin
  2
*D8
 70
     1
 10
0.0
 20
0.0
 30
0.0
  3
*D8
  1

  0
LINE
  5
18C0C
330
18C0A
100
AcDbEntity
  8
寸法
 62
     0
 48
50.0
370
    -2
100
AcDbLine
 10
4159.896575106992
 20
7826.123139034546
 30
0.0
 11
4159.896575106992
 21
6804.372203245664
 31
0.0
  0
LINE
  5
18C0D
330
18C0A
100
AcDbEntity
  8
寸法
 62
     0
 48
50.0
370
    -2
100
AcDbLine
 10
7629.896575106974
 20
7826.123139034674
 30
0.0
 11
7629.896575106974
 21
6804.372203245664
 31
0.0
  0
LINE
  5
18C0E
330
18C0A
100
AcDbEntity
  8
寸法
 62
     0
 48
50.0
370
    -2
100
AcDbLine
 10
4159.896575106992
 20
6864.372203245665
 30
0.0
 11
7629.896575106974
 21
6864.372203245665
 31
0.0
  0
INSERT
  5
18C0F
330
18C0A
100
AcDbEntity
  8
寸法
 62
     0
 48
50.0
370
    -2
100
AcDbBlockReference
  2
_DOTSMALL
 10
4159.896575106992
 20
6864.372203245665
 30
0.0
 41
100.0
 42
100.0
 43
100.0
 50
180.0
  0
INSERT
  5
18C10
330
18C0A
100
AcDbEntity
  8
寸法
 62
     0
 48
50.0
370
    -2
100
AcDbBlockReference
  2
_DOTSMALL
 10
7629.896575106974
 20
6864.372203245665
 30
0.0
 41
100.0
 42
100.0
 43
100.0
  0
MTEXT
  5
18C11
330
18C0A
100
AcDbEntity
  8
寸法
 62
     7
 48
50.0
100
AcDbMText
 10
5911.12376113973
 20
6964.372203245665
 30
0.0
 40
120.0
 41
0.0
 71
     5
 72
     1
  1
\A1;3470
  7
STYLE1
 73
     1
 44
1.0
1001
ACAD
1000
MTEXTBEGIN
1070
    73
1070
     1
1070
    44
1040
1.0
1070
    74
1070
     0
1000
MTEXTEND
  0
POINT
  5
18C12
330
18C0A
100
AcDbEntity
  8
DEFPOINTS
 62
     0
 48
50.0
100
AcDbPoint
 10
4159.896575106992
 20
7846.123139034546
 30
0.0
  0
POINT
  5
18C13
330
18C0A
100
AcDbEntity
  8
DEFPOINTS
 62
     0
 48
50.0
100
AcDbPoint
 10
7629.896575106974
 20
7846.123139034673
 30
0.0
  0
POINT
  5
18C14
330
18C0A
100
AcDbEntity
  8
DEFPOINTS
 62
     0
 48
50.0
100
AcDbPoint
 10
7629.896575106974
 20
6864.372203245665
 30
0.0
  0
ENDBLK
  5
18C15
330
18C0A
100
AcDbEntity
  8
0
 48
50.0
100
AcDbBlockEnd
  0
BLOCK
  5
18C17
330
18C16
100
AcDbEntity
  8
0
 48
50.0
100
AcDbBlockBegin
  2
*D9
 70
     1
 10
0.0
 20
0.0
 30
0.0
  3
*D9
  1

  0
LINE
  5
18C18
330
18C16
100
AcDbEntity
  8
寸法
 62
     0
 48
50.0
370
    -2
100
AcDbLine
 10
7649.896575106973
 20
7901.123139034706
 30
0.0
 11
8337.322920841385
 21
7901.123139034706
 31
0.0
  0
LINE
  5
18C19
330
18C16
100
AcDbEntity
  8
寸法
 62
     0
 48
50.0
370
    -2
100
AcDbLine
 10
7649.896575106973
 20
7846.123139034709
 30
0.0
 11
8337.322920841385
 21
7846.123139034709
 31
0.0
  0
LINE
  5
18C1A
330
18C16
100
AcDbEntity
  8
寸法
 62
     0
 48
50.0
370
    -2
100
AcDbLine
 10
8277.322920841385
 20
7901.123139034706
 30
0.0
 11
8277.322920841385
 21
8001.123139034707
 31
0.0
  0
LINE
  5
18C1B
330
18C16
100
AcDbEntity
  8
寸法
 62
     0
 48
50.0
370
    -2
100
AcDbLine
 10
8277.322920841385
 20
7846.123139034709
 30
0.0
 11
8277.322920841385
 21
7429.152576286229
 31
0.0
  0
LINE
  5
18C1C
330
18C16
100
AcDbEntity
  8
寸法
 62
     0
 48
50.0
370
    -2
100
AcDbLine
 10
8277.322920841385
 20
7901.123139034706
 30
0.0
 11
8277.322920841385
 21
7846.123139034709
 31
0.0
  0
INSERT
  5
18C1D
330
18C16
100
AcDbEntity
  8
寸法
 62
     0
 48
50.0
370
    -2
100
AcDbBlockReference
  2
_DOTSMALL
 10
8277.322920841385
 20
7901.123139034706
 30
0.0
 41
100.0
 42
100.0
 43
100.0
 50
270.0
  0
INSERT
  5
18C1E
330
18C16
100
AcDbEntity
  8
寸法
 62
     0
 48
50.0
370
    -2
100
AcDbBlockReference
  2
_DOTSMALL
 10
8277.322920841385
 20
7846.123139034709
 30
0.0
 41
100.0
 42
100.0
 43
100.0
 50
90.0
  0
MTEXT
  5
18C1F
330
18C16
100
AcDbEntity
  8
寸法
 62
     7
 48
50.0
100
AcDbMText
 10
8177.322920841383
 20
7537.637857660469
 30
0.0
 40
120.0
 41
0.0
 71
     5
 72
     1
  1
\A1;55
  7
STYLE1
 11
0.0000000000000001
 21
1.0
 31
0.0
 73
     1
 44
1.0
1001
ACAD
1000
MTEXTBEGIN
1070
    73
1070
     1
1070
    44
1040
1.0
1070
    74
1070
     0
1000
MTEXTEND
  0
POINT
  5
18C20
330
18C16
100
AcDbEntity
  8
DEFPOINTS
 62
     0
 48
50.0
100
AcDbPoint
 10
7629.896575106974
 20
7901.123139034706
 30
0.0
  0
POINT
  5
18C21
330
18C16
100
AcDbEntity
  8
DEFPOINTS
 62
     0
 48
50.0
100
AcDbPoint
 10
7629.896575106974
 20
7846.123139034709
 30
0.0
  0
POINT
  5
18C22
330
18C16
100
AcDbEntity
  8
DEFPOINTS
 62
     0
 48
50.0
100
AcDbPoint
 10
8277.322920841385
 20
7846.123139034709
 30
0.0
  0
ENDBLK
  5
18C23
330
18C16
100
AcDbEntity
  8
0
 48
50.0
100
AcDbBlockEnd
  0
BLOCK
  5
18C25
330
18C24
100
AcDbEntity
  8
0
 48
50.0
100
AcDbBlockBegin
  2
*D10
 70
     1
 10
0.0
 20
0.0
 30
0.0
  3
*D10
  1

  0
LINE
  5
18C26
330
18C24
100
AcDbEntity
  8
寸法
 62
     0
 48
50.0
370
    -2
100
AcDbLine
 10
6533.037591258376
 20
9136.123139034728
 30
0.0
 11
6465.083950562664
 21
8882.516699399049
 31
0.0
  0
LINE
  5
18C27
330
18C24
100
AcDbEntity
  8
寸法
 62
     0
 48
50.0
370
    -2
100
AcDbLine
 10
7596.037591258388
 20
9136.123139034721
 30
0.0
 11
7528.083950562677
 21
8882.516699399049
 31
0.0
  0
LINE
  5
18C28
330
18C24
100
AcDbEntity
  8
寸法
 62
     0
 48
50.0
370
    -2
100
AcDbLine
 10
6481.160902108531
 20
8942.51669939905
 30
0.0
 11
7544.160902108544
 21
8942.51669939905
 31
0.0
  0
INSERT
  5
18C29
330
18C24
100
AcDbEntity
  8
寸法
 62
     0
 48
50.0
370
    -2
100
AcDbBlockReference
  2
_DOTSMALL
 10
6481.160902108531
 20
8942.51669939905
 30
0.0
 41
100.0
 42
100.0
 43
100.0
 50
180.0
  0
INSERT
  5
18C2A
330
18C24
100
AcDbEntity
  8
寸法
 62
     0
 48
50.0
370
    -2
100
AcDbBlockReference
  2
_DOTSMALL
 10
7544.160902108544
 20
8942.51669939905
 30
0.0
 41
100.0
 42
100.0
 43
100.0
  0
MTEXT
  5
18C2B
330
18C24
100
AcDbEntity
  8
寸法
 62
     7
 48
50.0
100
AcDbMText
 10
7061.28653022935
 20
9042.516699399049
 30
0.0
 40
120.0
 41
0.0
 71
     5
 72
     1
  1
\A1;1063
  7
STYLE1
 73
     1
 44
1.0
1001
ACAD
1000
MTEXTBEGIN
1070
    73
1070
     1
1070
    44
1040
1.0
1070
    74
1070
     0
1000
MTEXTEND
  0
POINT
  5
18C2C
330
18C24
100
AcDbEntity
  8
DEFPOINTS
 62
     0
 48
50.0
100
AcDbPoint
 10
6538.396575106998
 20
9156.123139034727
 30
0.0
  0
POINT
  5
18C2D
330
18C24
100
AcDbEntity
  8
DEFPOINTS
 62
     0
 48
50.0
100
AcDbPoint
 10
7601.39657510701
 20
9156.12313903472
 30
0.0
  0
POINT
  5
18C2E
330
18C24
100
AcDbEntity
  8
DEFPOINTS
 62
     0
 48
50.0
100
AcDbPoint
 10
7544.160902108544
 20
8942.51669939905
 30
0.0
  0
ENDBLK
  5
18C2F
330
18C24
100
AcDbEntity
  8
0
 48
50.0
100
AcDbBlockEnd
  0
BLOCK
  5
18C31
330
18C30
100
AcDbEntity
  8
0
 48
50.0
100
AcDbBlockBegin
  2
*D11
 70
     1
 10
0.0
 20
0.0
 30
0.0
  3
*D11
  1

  0
LINE
  5
18C32
330
18C30
100
AcDbEntity
  8
寸法
 62
     0
 48
50.0
370
    -2
100
AcDbLine
 10
7621.396575106999
 20
9600.764155186094
 30
0.0
 11
8016.754300969024
 21
9494.828371819961
 31
0.0
  0
LINE
  5
18C33
330
18C30
100
AcDbEntity
  8
寸法
 62
     0
 48
50.0
370
    -2
100
AcDbLine
 10
7621.396575106999
 20
9150.764155186099
 30
0.0
 11
8016.754300969024
 21
9044.828371819964
 31
0.0
  0
LINE
  5
18C34
330
18C30
100
AcDbEntity
  8
寸法
 62
     0
 48
50.0
370
    -2
100
AcDbLine
 10
7956.754300969024
 20
9510.905323365827
 30
0.0
 11
7956.754300969024
 21
9060.90532336583
 31
0.0
  0
INSERT
  5
18C35
330
18C30
100
AcDbEntity
  8
寸法
 62
     0
 48
50.0
370
    -2
100
AcDbBlockReference
  2
_DOTSMALL
 10
7956.754300969024
 20
9510.905323365827
 30
0.0
 41
100.0
 42
100.0
 43
100.0
 50
90.0
  0
INSERT
  5
18C36
330
18C30
100
AcDbEntity
  8
寸法
 62
     0
 48
50.0
370
    -2
100
AcDbBlockReference
  2
_DOTSMALL
 10
7956.754300969024
 20
9060.90532336583
 30
0.0
 41
100.0
 42
100.0
 43
100.0
 50
270.0
  0
MTEXT
  5
18C37
330
18C30
100
AcDbEntity
  8
寸法
 62
     7
 48
50.0
100
AcDbMText
 10
7856.754300969022
 20
9285.905323365829
 30
0.0
 40
120.0
 41
0.0
 71
     5
 72
     1
  1
\A1;450
  7
STYLE1
 11
0.0000000000000001
 21
1.0
 31
0.0
 73
     1
 44
1.0
1001
ACAD
1000
MTEXTBEGIN
1070
    73
1070
     1
1070
    44
1040
1.0
1070
    74
1070
     0
1000
MTEXTEND
  0
POINT
  5
18C38
330
18C30
100
AcDbEntity
  8
DEFPOINTS
 62
     0
 48
50.0
100
AcDbPoint
 10
7601.396575106999
 20
9606.123139034718
 30
0.0
  0
POINT
  5
18C39
330
18C30
100
AcDbEntity
  8
DEFPOINTS
 62
     0
 48
50.0
100
AcDbPoint
 10
7601.396575106999
 20
9156.12313903472
 30
0.0
  0
POINT
  5
18C3A
330
18C30
100
AcDbEntity
  8
DEFPOINTS
 62
     0
 48
50.0
100
AcDbPoint
 10
7956.754300969024
 20
9060.90532336583
 30
0.0
  0
ENDBLK
  5
18C3B
330
18C30
100
AcDbEntity
  8
0
 48
50.0
100
AcDbBlockEnd
  0
BLOCK
  5
18C3D
330
18C3C
100
AcDbEntity
  8
0
 48
50.0
100
AcDbBlockBegin
  2
*D12
 70
     1
 10
0.0
 20
0.0
 30
0.0
  3
*D12
  1

  0
LINE
  5
18C3E
330
18C3C
100
AcDbEntity
  8
寸法
 62
     0
 48
50.0
370
    -2
100
AcDbLine
 10
7649.896575106999
 20
9581.123139034721
 30
0.0
 11
8337.32292084141
 21
9581.123139034721
 31
0.0
  0
LINE
  5
18C3F
330
18C3C
100
AcDbEntity
  8
寸法
 62
     0
 48
50.0
370
    -2
100
AcDbLine
 10
7649.896575106973
 20
7901.123139034706
 30
0.0
 11
8337.32292084141
 21
7901.123139034706
 31
0.0
  0
LINE
  5
18C40
330
18C3C
100
AcDbEntity
  8
寸法
 62
     0
 48
50.0
370
    -2
100
AcDbLine
 10
8277.322920841411
 20
9581.123139034721
 30
0.0
 11
8277.322920841411
 21
7901.123139034706
 31
0.0
  0
INSERT
  5
18C41
330
18C3C
100
AcDbEntity
  8
寸法
 62
     0
 48
50.0
370
    -2
100
AcDbBlockReference
  2
_DOTSMALL
 10
8277.322920841411
 20
9581.123139034721
 30
0.0
 41
100.0
 42
100.0
 43
100.0
 50
90.0
  0
INSERT
  5
18C42
330
18C3C
100
AcDbEntity
  8
寸法
 62
     0
 48
50.0
370
    -2
100
AcDbBlockReference
  2
_DOTSMALL
 10
8277.322920841411
 20
7901.123139034706
 30
0.0
 41
100.0
 42
100.0
 43
100.0
 50
270.0
  0
MTEXT
  5
18C43
330
18C3C
100
AcDbEntity
  8
寸法
 62
     7
 48
50.0
100
AcDbMText
 10
8177.311109817788
 20
8741.123139034712
 30
0.0
 40
120.0
 41
0.0
 71
     5
 72
     1
  1
\A1;4X420=1680
  7
STYLE1
 11
0.0000000000000001
 21
1.0
 31
0.0
 73
     1
 44
1.0
1001
ACAD
1000
MTEXTBEGIN
1070
    73
1070
     1
1070
    44
1040
1.0
1070
    74
1070
     0
1000
MTEXTEND
  0
POINT
  5
18C44
330
18C3C
100
AcDbEntity
  8
DEFPOINTS
 62
     0
 48
50.0
100
AcDbPoint
 10
7629.896575106998
 20
9581.123139034721
 30
0.0
  0
POINT
  5
18C45
330
18C3C
100
AcDbEntity
  8
DEFPOINTS
 62
     0
 48
50.0
100
AcDbPoint
 10
7629.896575106974
 20
7901.123139034706
 30
0.0
  0
POINT
  5
18C46
330
18C3C
100
AcDbEntity
  8
DEFPOINTS
 62
     0
 48
50.0
100
AcDbPoint
 10
8277.322920841411
 20
7901.123139034706
 30
0.0
  0
ENDBLK
  5
18C47
330
18C3C
100
AcDbEntity
  8
0
 48
50.0
100
AcDbBlockEnd
  0
BLOCK
  5
18C49
330
18C48
100
AcDbEntity
  8
0
 48
50.0
100
AcDbBlockBegin
  2
*D13
 70
     1
 10
0.0
 20
0.0
 30
0.0
  3
*D13
  1

  0
LINE
  5
18C4A
330
18C48
100
AcDbEntity
  8
寸法
 62
     0
 48
50.0
370
    -2
100
AcDbLine
 10
4183.037591258377
 20
9136.123139034619
 30
0.0
 11
4115.083950562663
 21
8882.516699398941
 31
0.0
  0
LINE
  5
18C4B
330
18C48
100
AcDbEntity
  8
寸法
 62
     0
 48
50.0
370
    -2
100
AcDbLine
 10
5246.037591258307
 20
9136.123139034671
 30
0.0
 11
5178.08395056258
 21
8882.516699398941
 31
0.0
  0
LINE
  5
18C4C
330
18C48
100
AcDbEntity
  8
寸法
 62
     0
 48
50.0
370
    -2
100
AcDbLine
 10
4131.160902108532
 20
8942.516699398941
 30
0.0
 11
5194.160902108448
 21
8942.516699398941
 31
0.0
  0
INSERT
  5
18C4D
330
18C48
100
AcDbEntity
  8
寸法
 62
     0
 48
50.0
370
    -2
100
AcDbBlockReference
  2
_DOTSMALL
 10
4131.160902108532
 20
8942.516699398941
 30
0.0
 41
100.0
 42
100.0
 43
100.0
 50
180.0
  0
INSERT
  5
18C4E
330
18C48
100
AcDbEntity
  8
寸法
 62
     0
 48
50.0
370
    -2
100
AcDbBlockReference
  2
_DOTSMALL
 10
5194.160902108448
 20
8942.516699398941
 30
0.0
 41
100.0
 42
100.0
 43
100.0
  0
MTEXT
  5
18C4F
330
18C48
100
AcDbEntity
  8
寸法
 62
     7
 48
50.0
100
AcDbMText
 10
4658.986452655306
 20
9042.516699398941
 30
0.0
 40
120.0
 41
0.0
 71
     5
 72
     1
  1
\A1;1063
  7
STYLE1
 73
     1
 44
1.0
1001
ACAD
1000
MTEXTBEGIN
1070
    73
1070
     1
1070
    44
1040
1.0
1070
    74
1070
     0
1000
MTEXTEND
  0
POINT
  5
18C50
330
18C48
100
AcDbEntity
  8
DEFPOINTS
 62
     0
 48
50.0
100
AcDbPoint
 10
4188.396575106999
 20
9156.123139034617
 30
0.0
  0
POINT
  5
18C51
330
18C48
100
AcDbEntity
  8
DEFPOINTS
 62
     0
 48
50.0
100
AcDbPoint
 10
5251.396575106929
 20
9156.123139034672
 30
0.0
  0
POINT
  5
18C52
330
18C48
100
AcDbEntity
  8
DEFPOINTS
 62
     0
 48
50.0
100
AcDbPoint
 10
5194.160902108448
 20
8942.516699398941
 30
0.0
  0
ENDBLK
  5
18C53
330
18C48
100
AcDbEntity
  8
0
 48
50.0
100
AcDbBlockEnd
  0
BLOCK
  5
18C55
330
18C54
100
AcDbEntity
  8
0
 48
50.0
100
AcDbBlockBegin
  2
*D14
 70
     1
 10
0.0
 20
0.0
 30
0.0
  3
*D14
  1

  0
LINE
  5
18C56
330
18C54
100
AcDbEntity
  8
寸法
 62
     0
 48
50.0
370
    -2
100
AcDbLine
 10
5274.037591258307
 20
9136.123139034669
 30
0.0
 11
5206.08395056258
 21
8882.516699398941
 31
0.0
  0
LINE
  5
18C57
330
18C54
100
AcDbEntity
  8
寸法
 62
     0
 48
50.0
370
    -2
100
AcDbLine
 10
6505.037591258377
 20
9136.123139034662
 30
0.0
 11
6437.083950562653
 21
8882.516699398941
 31
0.0
  0
LINE
  5
18C58
330
18C54
100
AcDbEntity
  8
寸法
 62
     0
 48
50.0
370
    -2
100
AcDbLine
 10
5222.160902108448
 20
8942.516699398941
 30
0.0
 11
6453.16090210852
 21
8942.516699398941
 31
0.0
  0
INSERT
  5
18C59
330
18C54
100
AcDbEntity
  8
寸法
 62
     0
 48
50.0
370
    -2
100
AcDbBlockReference
  2
_DOTSMALL
 10
5222.160902108448
 20
8942.516699398941
 30
0.0
 41
100.0
 42
100.0
 43
100.0
 50
180.0
  0
INSERT
  5
18C5A
330
18C54
100
AcDbEntity
  8
寸法
 62
     0
 48
50.0
370
    -2
100
AcDbBlockReference
  2
_DOTSMALL
 10
6453.16090210852
 20
8942.516699398941
 30
0.0
 41
100.0
 42
100.0
 43
100.0
  0
MTEXT
  5
18C5B
330
18C54
100
AcDbEntity
  8
寸法
 62
     7
 48
50.0
100
AcDbMText
 10
6081.244808320626
 20
9042.528510422561
 30
0.0
 40
120.0
 41
0.0
 71
     5
 72
     1
  1
\A1;1231
  7
STYLE1
 73
     1
 44
1.0
1001
ACAD
1000
MTEXTBEGIN
1070
    73
1070
     1
1070
    44
1040
1.0
1070
    74
1070
     0
1000
MTEXTEND
  0
POINT
  5
18C5C
330
18C54
100
AcDbEntity
  8
DEFPOINTS
 62
     0
 48
50.0
100
AcDbPoint
 10
5279.396575106929
 20
9156.123139034669
 30
0.0
  0
POINT
  5
18C5D
330
18C54
100
AcDbEntity
  8
DEFPOINTS
 62
     0
 48
50.0
100
AcDbPoint
 10
6510.396575106999
 20
9156.123139034662
 30
0.0
  0
POINT
  5
18C5E
330
18C54
100
AcDbEntity
  8
DEFPOINTS
 62
     0
 48
50.0
100
AcDbPoint
 10
6453.16090210852
 20
8942.516699398941
 30
0.0
  0
ENDBLK
  5
18C5F
330
18C54
100
AcDbEntity
  8
0
 48
50.0
100
AcDbBlockEnd
  0
BLOCK
  5
18C61
330
18C60
100
AcDbEntity
  8
0
 48
50.0
100
AcDbBlockBegin
  2
*D15
 70
     1
 10
0.0
 20
0.0
 30
0.0
  3
*D15
  1

  0
LINE
  5
18C62
330
18C60
100
AcDbEntity
  8
寸法
 62
     0
 48
50.0
370
    -2
100
AcDbLine
 10
5065.896575106966
 20
7749.123139034579
 30
0.0
 11
5065.896575106966
 21
7099.952920982538
 31
0.0
  0
LINE
  5
18C63
330
18C60
100
AcDbEntity
  8
寸法
 62
     0
 48
50.0
370
    -2
100
AcDbLine
 10
6331.896575106966
 20
7749.123139034579
 30
0.0
 11
6331.896575106966
 21
7099.952920982538
 31
0.0
  0
LINE
  5
18C64
330
18C60
100
AcDbEntity
  8
寸法
 62
     0
 48
50.0
370
    -2
100
AcDbLine
 10
5065.896575106966
 20
7159.952920982537
 30
0.0
 11
6331.896575106966
 21
7159.952920982537
 31
0.0
  0
INSERT
  5
18C65
330
18C60
100
AcDbEntity
  8
寸法
 62
     0
 48
50.0
370
    -2
100
AcDbBlockReference
  2
_DOTSMALL
 10
5065.896575106966
 20
7159.952920982537
 30
0.0
 41
100.0
 42
100.0
 43
100.0
 50
180.0
  0
INSERT
  5
18C66
330
18C60
100
AcDbEntity
  8
寸法
 62
     0
 48
50.0
370
    -2
100
AcDbBlockReference
  2
_DOTSMALL
 10
6331.896575106966
 20
7159.952920982537
 30
0.0
 41
100.0
 42
100.0
 43
100.0
  0
MTEXT
  5
18C67
330
18C60
100
AcDbEntity
  8
寸法
 62
     7
 48
50.0
100
AcDbMText
 10
5711.986008735934
 20
7359.964732006159
 30
0.0
 40
120.0
 41
0.0
 71
     5
 72
     1
  1
\A1;有効開口部間口\P1266
  7
STYLE1
 73
     1
 44
1.0
1001
ACAD
1000
MTEXTBEGIN
1070
    73
1070
     1
1070
    44
1040
1.0
1070
    74
1070
     0
1000
MTEXTEND
  0
POINT
  5
18C68
330
18C60
100
AcDbEntity
  8
DEFPOINTS
 62
     0
 48
50.0
100
AcDbPoint
 10
5065.896575106966
 20
7769.123139034579
 30
0.0
  0
POINT
  5
18C69
330
18C60
100
AcDbEntity
  8
DEFPOINTS
 62
     0
 48
50.0
100
AcDbPoint
 10
6331.896575106966
 20
7769.123139034579
 30
0.0
  0
POINT
  5
18C6A
330
18C60
100
AcDbEntity
  8
DEFPOINTS
 62
     0
 48
50.0
100
AcDbPoint
 10
6331.896575106966
 20
7159.952920982537
 30
0.0
  0
ENDBLK
  5
18C6B
330
18C60
100
AcDbEntity
  8
0
 48
50.0
100
AcDbBlockEnd
  0
BLOCK
  5
18C6D
330
18C6C
100
AcDbEntity
  8
0
 48
50.0
100
AcDbBlockBegin
  2
*D16
 70
     1
 10
0.0
 20
0.0
 30
0.0
  3
*D16
  1

  0
LINE
  5
18C6E
330
18C6C
100
AcDbEntity
  8
寸法
 62
     0
 48
50.0
370
    -2
100
AcDbLine
 10
7200.896575106966
 20
7846.123139034578
 30
0.0
 11
7457.192158500191
 21
7846.123139034578
 31
0.0
  0
LINE
  5
18C6F
330
18C6C
100
AcDbEntity
  8
寸法
 62
     0
 48
50.0
370
    -2
100
AcDbLine
 10
7199.896575106966
 20
7769.123139034579
 30
0.0
 11
7457.192158500191
 21
7769.123139034579
 31
0.0
  0
LINE
  5
18C70
330
18C6C
100
AcDbEntity
  8
寸法
 62
     0
 48
50.0
370
    -2
100
AcDbLine
 10
7417.192158500192
 20
7866.123139034579
 30
0.0
 11
7417.192158500192
 21
7886.123139034578
 31
0.0
  0
LINE
  5
18C71
330
18C6C
100
AcDbEntity
  8
寸法
 62
     0
 48
50.0
370
    -2
100
AcDbLine
 10
7417.192158500192
 20
7749.123139034579
 30
0.0
 11
7417.192158500192
 21
7533.123139034573
 31
0.0
  0
LINE
  5
18C72
330
18C6C
100
AcDbEntity
  8
寸法
 62
     0
 48
50.0
370
    -2
100
AcDbLine
 10
7417.192158500192
 20
7846.123139034578
 30
0.0
 11
7417.192158500192
 21
7769.123139034579
 31
0.0
  0
INSERT
  5
18C73
330
18C6C
100
AcDbEntity
  8
寸法
 62
     0
 48
50.0
370
    -2
100
AcDbBlockReference
  2
_DOT
 10
7417.192158500192
 20
7846.123139034578
 30
0.0
 41
20.0
 42
20.0
 43
20.0
 50
270.0
  0
INSERT
  5
18C74
330
18C6C
100
AcDbEntity
  8
寸法
 62
     0
 48
50.0
370
    -2
100
AcDbBlockReference
  2
_DOT
 10
7417.192158500192
 20
7769.123139034579
 30
0.0
 41
20.0
 42
20.0
 43
20.0
 50
90.0
  0
MTEXT
  5
18C75
330
18C6C
100
AcDbEntity
  8
寸法
 62
     7
 48
50.0
100
AcDbMText
 10
7325.192158500191
 20
7631.123139034575
 30
0.0
 40
120.0
 41
0.0
 71
     5
 72
     1
  1
\A1;77
  7
STYLE1
 11
0.0000000000000001
 21
1.0
 31
0.0
 73
     1
 44
1.0
1001
ACAD
1000
MTEXTBEGIN
1070
    73
1070
     1
1070
    44
1040
1.0
1070
    74
1070
     0
1000
MTEXTEND
  0
POINT
  5
18C76
330
18C6C
100
AcDbEntity
  8
DEFPOINTS
 62
     0
 48
50.0
100
AcDbPoint
 10
7180.896575106967
 20
7846.123139034578
 30
0.0
  0
POINT
  5
18C77
330
18C6C
100
AcDbEntity
  8
DEFPOINTS
 62
     0
 48
50.0
100
AcDbPoint
 10
7179.896575106965
 20
7769.123139034579
 30
0.0
  0
POINT
  5
18C78
330
18C6C
100
AcDbEntity
  8
DEFPOINTS
 62
     0
 48
50.0
100
AcDbPoint
 10
7417.192158500192
 20
7769.123139034579
 30
0.0
  0
ENDBLK
  5
18C79
330
18C6C
100
AcDbEntity
  8
0
 48
50.0
100
AcDbBlockEnd
  0
BLOCK
  5
18DA0
330
18C7A
100
AcDbEntity
  8
0
 48
50.0
100
AcDbBlockBegin
  2
A$C3B1A506B
 70
     0
 10
0.0
 20
0.0
 30
0.0
  3
A$C3B1A506B
  1

  0
MTEXT
  5
18C7B
330
18C7A
100
AcDbEntity
  8
寸法
 62
     7
 48
50.0
100
AcDbMText
 10
3342.250386887194
 20
2778.329429134012
 30
0.0
 40
96.0
 41
0.0
 71
     5
 72
     1
  1
棚 2段
  7
STYLE1
 73
     1
 44
1.0
1001
ACAD
1000
MTEXTBEGIN
1070
    73
1070
     1
1070
    44
1040
1.0
1070
    74
1070
     0
1000
MTEXTEND
  0
MTEXT
  5
18C7C
330
18C7A
100
AcDbEntity
  8
寸法
 62
     7
 48
50.0
100
AcDbMText
 10
2167.25038688716
 20
2778.329429133986
 30
0.0
 40
96.0
 41
0.0
 71
     5
 72
     1
  1
棚 2段
  7
STYLE1
 73
     1
 44
1.0
1001
ACAD
1000
MTEXTBEGIN
1070
    73
1070
     1
1070
    44
1040
1.0
1070
    74
1070
     0
1000
MTEXTEND
  0
MTEXT
  5
18C7D
330
18C7A
100
AcDbEntity
  8
寸法
 62
     7
 48
50.0
100
AcDbMText
 10
992.2503868871608
 20
2778.329429133935
 30
0.0
 40
96.0
 41
0.0
 71
     5
 72
     1
  1
棚 2段
  7
STYLE1
 73
     1
 44
1.0
1001
ACAD
1000
MTEXTBEGIN
1070
    73
1070
     1
1070
    44
1040
1.0
1070
    74
1070
     0
1000
MTEXTEND
  0
LINE
  5
18C7E
330
18C7A
100
AcDbEntity
  8
細線
 48
50.0
100
AcDbLine
 10
2771.970589276527
 20
1368.994384123192
 30
0.0
 11
3398.970589276523
 21
1368.994384123192
 31
0.0
  0
LINE
  5
18C7F
330
18C7A
100
AcDbEntity
  8
細線
 48
50.0
100
AcDbLine
 10
2117.970593930113
 20
1335.285615569113
 30
0.0
 11
3398.970589276523
 21
1335.285615569113
 31
0.0
  0
LINE
  5
18C80
330
18C7A
100
AcDbEntity
  8
細線
 48
50.0
100
AcDbLine
 10
2076.970593930115
 20
1364.690523565368
 30
0.0
 11
1322.970589276523
 21
1364.690523565367
 31
0.0
  0
LINE
  5
18C81
330
18C7A
100
AcDbEntity
  8
細線
100
AcDbLine
 10
3170.720579860066
 20
1388.494284088199
 30
0.0
 11
3173.052119381877
 21
1393.494286728162
 31
0.0
  0
LINE
  5
18C82
330
18C7A
100
AcDbEntity
  8
細線
100
AcDbLine
 10
3240.720589276525
 20
1388.494269174465
 30
0.0
 11
3238.389042800336
 21
1393.494286728144
 31
0.0
  0
LINE
  5
18C83
330
18C7A
100
AcDbEntity
  8
細線
100
AcDbLine
 10
3238.389042800336
 20
1393.494286728144
 30
0.0
 11
3173.052119381862
 21
1393.494286728133
 31
0.0
  0
LINE
  5
18C84
330
18C7A
100
AcDbEntity
  8
細線
100
AcDbLine
 10
3098.389042800336
 20
1393.494286728144
 30
0.0
 11
3033.052119381862
 21
1393.494286728133
 31
0.0
  0
LINE
  5
18C85
330
18C7A
100
AcDbEntity
  8
細線
100
AcDbLine
 10
3100.720589276523
 20
1388.494269174465
 30
0.0
 11
3098.389042800336
 21
1393.494286728144
 31
0.0
  0
LINE
  5
18C86
330
18C7A
100
AcDbEntity
  8
細線
100
AcDbLine
 10
3030.720579860066
 20
1388.494284088199
 30
0.0
 11
3033.052119381875
 21
1393.494286728162
 31
0.0
  0
LINE
  5
18C87
330
18C7A
100
AcDbEntity
  8
細線
100
AcDbLine
 10
2890.720589276525
 20
1388.494269174465
 30
0.0
 11
2893.052128798336
 21
1393.494271814428
 31
0.0
  0
LINE
  5
18C88
330
18C7A
100
AcDbEntity
  8
細線
100
AcDbLine
 10
2960.720598692984
 20
1388.494254260731
 30
0.0
 11
2958.389052216793
 21
1393.49427181441
 31
0.0
  0
LINE
  5
18C89
330
18C7A
100
AcDbEntity
  8
細線
100
AcDbLine
 10
2958.389052216795
 20
1393.49427181441
 30
0.0
 11
2893.052128798321
 21
1393.494271814399
 31
0.0
  0
LINE
  5
18C8A
330
18C7A
100
AcDbEntity
  8
細線
100
AcDbLine
 10
2667.139038146739
 20
1359.494298590735
 30
0.0
 11
2601.802114728263
 21
1359.494298590724
 31
0.0
  0
LINE
  5
18C8B
330
18C7A
100
AcDbEntity
  8
細線
100
AcDbLine
 10
2669.470584622926
 20
1354.494281037055
 30
0.0
 11
2667.139038146737
 21
1359.494298590735
 31
0.0
  0
LINE
  5
18C8C
330
18C7A
100
AcDbEntity
  8
細線
100
AcDbLine
 10
2599.470575206469
 20
1354.49429595079
 30
0.0
 11
2601.802114728278
 21
1359.494298590752
 31
0.0
  0
LINE
  5
18C8D
330
18C7A
100
AcDbEntity
  8
細線
 48
50.0
100
AcDbLine
 10
2440.853968524536
 20
1372.765132327548
 30
0.0
 11
2446.609486107205
 21
1354.494281037057
 31
0.0
  0
LINE
  5
18C8E
330
18C7A
100
AcDbEntity
  8
細線
 48
50.0
100
AcDbLine
 10
2429.925520044106
 20
1372.765132327546
 30
0.0
 11
2440.853968524536
 21
1372.765132327548
 31
0.0
  0
ARC
  5
18C8F
330
18C7A
100
AcDbEntity
  8
細線
 48
50.0
100
AcDbCircle
 10
2424.471163986787
 20
1374.265132327546
 30
0.0
 40
5.0
100
AcDbArc
 50
204.6243183520723
 51
335.3756816479278
  0
ARC
  5
18C90
330
18C7A
100
AcDbEntity
  8
細線
 48
50.0
100
AcDbCircle
 10
2429.925520044106
 20
1371.765132327546
 30
0.0
 40
1.0
100
AcDbArc
 50
90.0
 51
155.3756816479277
  0
ARC
  5
18C91
330
18C7A
100
AcDbEntity
  8
細線
 48
50.0
100
AcDbCircle
 10
2419.016807929469
 20
1371.765132327546
 30
0.0
 40
1.0
100
AcDbArc
 50
24.62431835207225
 51
90.0
  0
LINE
  5
18C92
330
18C7A
100
AcDbEntity
  8
細線
 48
50.0
100
AcDbLine
 10
2408.088359449037
 20
1372.765132327548
 30
0.0
 11
2419.016807929469
 21
1372.765132327546
 31
0.0
  0
LINE
  5
18C93
330
18C7A
100
AcDbEntity
  8
細線
 48
50.0
100
AcDbLine
 10
2402.33284186637
 20
1354.494281037054
 30
0.0
 11
2408.088359449037
 21
1372.765132327548
 31
0.0
  0
LINE
  5
18C94
330
18C7A
100
AcDbEntity
  8
細線
100
AcDbLine
 10
2458.070304175992
 20
1354.494278397076
 30
0.0
 11
2460.401843697802
 21
1359.494281037039
 31
0.0
  0
LINE
  5
18C95
330
18C7A
100
AcDbEntity
  8
細線
100
AcDbLine
 10
2528.070313592451
 20
1354.494263483342
 30
0.0
 11
2525.738767116262
 21
1359.494281037021
 31
0.0
  0
LINE
  5
18C96
330
18C7A
100
AcDbEntity
  8
細線
100
AcDbLine
 10
2525.738767116262
 20
1359.494281037021
 30
0.0
 11
2460.40184369779
 21
1359.49428103701
 31
0.0
  0
LINE
  5
18C97
330
18C7A
100
AcDbEntity
  8
細線
100
AcDbLine
 10
2387.139046332155
 20
1359.494281037021
 30
0.0
 11
2321.80212291368
 21
1359.49428103701
 31
0.0
  0
LINE
  5
18C98
330
18C7A
100
AcDbEntity
  8
細線
100
AcDbLine
 10
2389.470592808342
 20
1354.494263483342
 30
0.0
 11
2387.139046332153
 21
1359.494281037021
 31
0.0
  0
LINE
  5
18C99
330
18C7A
100
AcDbEntity
  8
細線
100
AcDbLine
 10
2319.470584622926
 20
1354.494281037054
 30
0.0
 11
2321.802122913694
 21
1359.494281037039
 31
0.0
  0
LINE
  5
18C9A
330
18C7A
100
AcDbEntity
  8
細線
100
AcDbLine
 10
2179.47061994182
 20
1354.494289224422
 30
0.0
 11
2181.802158232587
 21
1359.494289224407
 31
0.0
  0
LINE
  5
18C9B
330
18C7A
100
AcDbEntity
  8
細線
100
AcDbLine
 10
2249.470628127236
 20
1354.49427167071
 30
0.0
 11
2247.139081651047
 21
1359.494289224389
 31
0.0
  0
LINE
  5
18C9C
330
18C7A
100
AcDbEntity
  8
細線
100
AcDbLine
 10
2247.139081651047
 20
1359.494289224389
 30
0.0
 11
2181.802158232573
 21
1359.494289224378
 31
0.0
  0
LINE
  5
18C9D
330
18C7A
100
AcDbEntity
  8
細線
100
AcDbLine
 10
1807.970585744697
 20
1320.494460905133
 30
0.0
 11
1810.302124035464
 21
1325.494460905118
 31
0.0
  0
LINE
  5
18C9E
330
18C7A
100
AcDbEntity
  8
細線
100
AcDbLine
 10
1877.970593930113
 20
1320.494443351421
 30
0.0
 11
1875.639047453926
 21
1325.4944609051
 31
0.0
  0
LINE
  5
18C9F
330
18C7A
100
AcDbEntity
  8
細線
100
AcDbLine
 10
1875.639047453926
 20
1325.4944609051
 30
0.0
 11
1810.302124035452
 21
1325.494460905089
 31
0.0
  0
LINE
  5
18CA0
330
18C7A
100
AcDbEntity
  8
細線
100
AcDbLine
 10
2015.639047453926
 20
1325.4944609051
 30
0.0
 11
1950.302124035452
 21
1325.494460905089
 31
0.0
  0
LINE
  5
18CA1
330
18C7A
100
AcDbEntity
  8
細線
100
AcDbLine
 10
2017.970593930113
 20
1320.494443351421
 30
0.0
 11
2015.639047453924
 21
1325.4944609051
 31
0.0
  0
LINE
  5
18CA2
330
18C7A
100
AcDbEntity
  8
細線
100
AcDbLine
 10
1947.970585744697
 20
1320.494460905133
 30
0.0
 11
1950.302124035465
 21
1325.494460905118
 31
0.0
  0
LINE
  5
18CA3
330
18C7A
100
AcDbEntity
  8
細線
100
AcDbLine
 10
1735.639047453926
 20
1325.494460905098
 30
0.0
 11
1670.302124035454
 21
1325.494460905087
 31
0.0
  0
LINE
  5
18CA4
330
18C7A
100
AcDbEntity
  8
細線
100
AcDbLine
 10
1737.970593930113
 20
1320.494443351419
 30
0.0
 11
1735.639047453926
 21
1325.494460905098
 31
0.0
  0
LINE
  5
18CA5
330
18C7A
100
AcDbEntity
  8
細線
100
AcDbLine
 10
1667.970585744697
 20
1320.494460905131
 30
0.0
 11
1670.302124035465
 21
1325.494460905116
 31
0.0
  0
LINE
  5
18CA6
330
18C7A
100
AcDbEntity
  8
細線
100
AcDbLine
 10
1527.970593930113
 20
1320.494460905133
 30
0.0
 11
1530.302132220881
 21
1325.494460905118
 31
0.0
  0
LINE
  5
18CA7
330
18C7A
100
AcDbEntity
  8
細線
100
AcDbLine
 10
1597.970602115529
 20
1320.494443351421
 30
0.0
 11
1595.639055639342
 21
1325.4944609051
 31
0.0
  0
LINE
  5
18CA8
330
18C7A
100
AcDbEntity
  8
細線
100
AcDbLine
 10
1595.639055639342
 20
1325.4944609051
 30
0.0
 11
1530.302132220869
 21
1325.494460905089
 31
0.0
  0
ARC
  5
18CA9
330
18C7A
100
AcDbEntity
  8
部品1
 48
0.01
100
AcDbCircle
 10
1483.470482677778
 20
1319.493338720063
 30
0.0
 40
0.5
100
AcDbArc
 50
270.0
 51
0.0
  0
LINE
  5
18CAA
330
18C7A
100
AcDbEntity
  8
部品1
 48
0.01
100
AcDbLine
 10
1483.970482677778
 20
1320.493338720063
 30
0.0
 11
1483.970482677778
 21
1319.493338720063
 31
0.0
  0
LINE
  5
18CAB
330
18C7A
100
AcDbEntity
  8
部品1
 48
0.01
100
AcDbLine
 10
1483.970482677778
 20
1320.493338720063
 30
0.0
 11
1483.970482677778
 21
1319.493338720063
 31
0.0
  0
LINE
  5
18CAC
330
18C7A
100
AcDbEntity
  8
部品1
 48
0.01
100
AcDbLine
 10
1483.470482677778
 20
1318.993338720063
 30
0.0
 11
1476.857977247713
 21
1318.993338720062
 31
0.0
  0
ARC
  5
18CAD
330
18C7A
100
AcDbEntity
  8
部品1
100
AcDbCircle
 10
1476.926326800494
 20
1319.993338720062
 30
0.0
 40
1.0
100
AcDbArc
 50
160.5287793655865
 51
270.0
  0
ARC
  5
18CAE
330
18C7A
100
AcDbEntity
  8
部品1
100
AcDbCircle
 10
1451.470482677778
 20
1328.993338720062
 30
0.0
 40
26.0
100
AcDbArc
 50
340.5287793655865
 51
0.0
  0
LINE
  5
18CAF
330
18C7A
100
AcDbEntity
  8
部品1
100
AcDbLine
 10
1477.470482677778
 20
1328.993338720062
 30
0.0
 11
1477.470482677778
 21
1333.993338720061
 31
0.0
  0
ARC
  5
18CB0
330
18C7A
100
AcDbEntity
  8
部品1
 48
0.01
100
AcDbCircle
 10
1475.470482677778
 20
1333.993338720061
 30
0.0
 40
2.0
100
AcDbArc
 50
0.0
 51
90.0
  0
ARC
  5
18CB1
330
18C7A
100
AcDbEntity
  8
部品1
100
AcDbCircle
 10
1473.862091052968
 20
1332.993338720062
 30
0.0
 40
3.0
100
AcDbArc
 50
90.0
 51
141.6069559808035
  0
LINE
  5
18CB2
330
18C7A
100
AcDbEntity
  8
部品1
 48
0.01
100
AcDbLine
 10
1475.470482677778
 20
1335.993338720062
 30
0.0
 11
1473.862091052968
 21
1335.993338720062
 31
0.0
  0
ARC
  5
18CB3
330
18C7A
100
AcDbEntity
  8
部品1
100
AcDbCircle
 10
1455.399768463507
 20
1332.293338720065
 30
0.0
 40
3.0
100
AcDbArc
 50
254.0576313943215
 51
270.0
  0
ARC
  5
18CB4
330
18C7A
100
AcDbEntity
  8
部品1
100
AcDbCircle
 10
1462.541196892049
 20
1332.293338720065
 30
0.0
 40
3.0
100
AcDbArc
 50
270.0
 51
285.9423686056786
  0
LINE
  5
18CB5
330
18C7A
100
AcDbEntity
  8
部品1
100
AcDbLine
 10
1462.541196892049
 20
1329.293338720064
 30
0.0
 11
1455.399768463507
 21
1329.293338720064
 31
0.0
  0
ARC
  5
18CB6
330
18C7A
100
AcDbEntity
  8
部品1
100
AcDbCircle
 10
1458.970482677778
 20
1344.793338720065
 30
0.0
 40
16.0
100
AcDbArc
 50
285.9423686056786
 51
321.6069559808035
  0
LINE
  5
18CB7
330
18C7A
100
AcDbEntity
  8
部品1
 48
0.01
100
AcDbLine
 10
1442.470482677778
 20
1335.993338720062
 30
0.0
 11
1444.078874302588
 21
1335.993338720062
 31
0.0
  0
ARC
  5
18CB8
330
18C7A
100
AcDbEntity
  8
部品1
100
AcDbCircle
 10
1444.078874302588
 20
1332.993338720062
 30
0.0
 40
3.0
100
AcDbArc
 50
38.39304401919648
 51
90.0
  0
ARC
  5
18CB9
330
18C7A
100
AcDbEntity
  8
部品1
100
AcDbCircle
 10
1458.970482677778
 20
1344.793338720065
 30
0.0
 40
16.0
100
AcDbArc
 50
218.3930440191965
 51
254.0576313943215
  0
LINE
  5
18CBA
330
18C7A
100
AcDbEntity
  8
部品1
100
AcDbLine
 10
1440.470482677778
 20
1328.993338720062
 30
0.0
 11
1440.470482677778
 21
1333.993338720061
 31
0.0
  0
ARC
  5
18CBB
330
18C7A
100
AcDbEntity
  8
部品1
 48
0.01
100
AcDbCircle
 10
1442.470482677778
 20
1333.993338720061
 30
0.0
 40
2.0
100
AcDbArc
 50
90.0
 51
180.0
  0
ARC
  5
18CBC
330
18C7A
100
AcDbEntity
  8
部品1
100
AcDbCircle
 10
1466.470482677778
 20
1328.993338720062
 30
0.0
 40
26.0
100
AcDbArc
 50
180.0
 51
199.4712206344134
  0
ARC
  5
18CBD
330
18C7A
100
AcDbEntity
  8
部品1
 48
0.01
100
AcDbCircle
 10
1434.470482677778
 20
1319.493338720063
 30
0.0
 40
0.5
100
AcDbArc
 50
180.0
 51
270.0
  0
LINE
  5
18CBE
330
18C7A
100
AcDbEntity
  8
部品1
 48
0.01
100
AcDbLine
 10
1434.470482677778
 20
1318.993338720063
 30
0.0
 11
1441.014638555061
 21
1318.993338720062
 31
0.0
  0
LINE
  5
18CBF
330
18C7A
100
AcDbEntity
  8
部品1
 48
0.01
100
AcDbLine
 10
1433.970482677778
 20
1320.493338720063
 30
0.0
 11
1433.970482677778
 21
1319.493338720063
 31
0.0
  0
ARC
  5
18CC0
330
18C7A
100
AcDbEntity
  8
部品1
100
AcDbCircle
 10
1441.014638555061
 20
1319.993338720062
 30
0.0
 40
1.0
100
AcDbArc
 50
270.0
 51
19.47122063441346
  0
LINE
  5
18CC1
330
18C7A
100
AcDbEntity
  8
細線
100
AcDbLine
 10
1479.470482677785
 20
1338.493338720065
 30
0.0
 11
1438.470482677785
 21
1338.493338720058
 31
0.0
  0
LINE
  5
18CC2
330
18C7A
100
AcDbEntity
  8
細線
100
AcDbLine
 10
1438.470482677785
 20
1338.493338720058
 30
0.0
 11
1438.470482677785
 21
1320.49333872004
 31
0.0
  0
LINE
  5
18CC3
330
18C7A
100
AcDbEntity
  8
細線
100
AcDbLine
 10
1479.470482677785
 20
1338.493338720065
 30
0.0
 11
1479.470482677785
 21
1320.49333872004
 31
0.0
  0
LINE
  5
18CC4
330
18C7A
100
AcDbEntity
  8
細線
100
AcDbLine
 10
1322.970589276523
 20
1324.494269174465
 30
0.0
 11
1322.970589276523
 21
1320.494269174513
 31
0.0
  0
LINE
  5
18CC5
330
18C7A
100
AcDbEntity
  8
寸法
 48
50.0
100
AcDbLine
 10
1746.17359555837
 20
1170.531020743327
 30
0.0
 11
1694.767587648266
 21
1170.531020743327
 31
0.0
  0
LINE
  5
18CC6
330
18C7A
100
AcDbEntity
  8
寸法
 48
50.0
100
AcDbLine
 10
1694.767587648266
 20
1170.531020743327
 30
0.0
 11
1694.767587648266
 21
1201.841179395494
 31
0.0
  0
LINE
  5
18CC7
330
18C7A
100
AcDbEntity
  8
寸法
 48
50.0
100
AcDbLine
 10
1694.767587648266
 20
1201.841179395494
 30
0.0
 11
1665.006255656843
 21
1201.841179395494
 31
0.0
  0
LINE
  5
18CC8
330
18C7A
100
AcDbEntity
  8
寸法
 48
50.0
100
AcDbLine
 10
1665.006255656843
 20
1201.841179395494
 30
0.0
 11
1720.470591603318
 21
1239.420630324105
 31
0.0
  0
LINE
  5
18CC9
330
18C7A
100
AcDbEntity
  8
寸法
 48
50.0
100
AcDbLine
 10
1775.934927549793
 20
1201.841179395494
 30
0.0
 11
1720.470591603318
 21
1239.420630324105
 31
0.0
  0
LINE
  5
18CCA
330
18C7A
100
AcDbEntity
  8
寸法
 48
50.0
100
AcDbLine
 10
1746.17359555837
 20
1201.841179395494
 30
0.0
 11
1775.934927549793
 21
1201.841179395494
 31
0.0
  0
LINE
  5
18CCB
330
18C7A
100
AcDbEntity
  8
寸法
 48
50.0
100
AcDbLine
 10
1746.17359555837
 20
1170.531020743327
 30
0.0
 11
1746.17359555837
 21
1201.841179395494
 31
0.0
  0
LINE
  5
18CCC
330
18C7A
100
AcDbEntity
  8
寸法
 48
50.0
100
AcDbLine
 10
1694.767587648266
 20
1170.531020743327
 30
0.0
 11
1746.17359555837
 21
1170.531020743327
 31
0.0
  0
LINE
  5
18CCD
330
18C7A
100
AcDbEntity
  8
寸法
 48
50.0
100
AcDbLine
 10
2025.339129835225
 20
1227.676611498152
 30
0.0
 11
2025.339129835225
 21
1174.01297691636
 31
0.0
  0
LINE
  5
18CCE
330
18C7A
100
AcDbEntity
  8
寸法
 48
50.0
100
AcDbLine
 10
2114.623348430647
 20
1203.752977228664
 30
0.0
 11
2025.339129835225
 21
1227.676611498152
 31
0.0
  0
LINE
  5
18CCF
330
18C7A
100
AcDbEntity
  8
寸法
 48
50.0
100
AcDbLine
 10
1895.471408254923
 20
1203.752977228664
 30
0.0
 11
2114.623348430647
 21
1203.752977228664
 31
0.0
  0
DIMENSION
  5
18CD0
330
18C7A
100
AcDbEntity
  8
寸法
 48
50.0
100
AcDbDimension
  2
*D15
 10
2588.970589276523
 20
706.3240511224249
 30
0.0
 11
1969.060022905491
 21
706.3240511224249
 31
0.0
 12
-3742.925985830444
 22
-6453.628869860112
 32
0.0
 70
   128
  1
有効開口部間口\P<>
 71
     5
 42
1266.0
  3
INABA_S40G
100
AcDbAlignedDimension
 13
1322.970589276523
 23
1315.494269174465
 33
0.0
 14
2588.970589276523
 24
1315.494269174465
 34
0.0
100
AcDbRotatedDimension
1001
ACAD
1000
DSTYLE
1002
{
1070
   341
1005
0
1002
}
  0
LINE
  5
18CD1
330
18C7A
100
AcDbEntity
  8
部品1
100
AcDbLine
 10
3409.970589276524
 20
1392.494269174465
 30
0.0
 11
3437.970589276523
 21
1392.494269174465
 31
0.0
  0
DIMENSION
  5
18CD2
330
18C7A
100
AcDbEntity
  8
寸法
100
AcDbDimension
  2
*D16
 10
3674.266172669749
 20
1315.494269174465
 30
0.0
 11
3674.266172669748
 21
1177.494269174462
 31
0.0
 12
-3742.925985830444
 22
-6453.628869860112
 32
0.0
 70
   128
 71
     5
 42
77.0
  3
INABA_S40
100
AcDbAlignedDimension
 13
3437.970589276523
 23
1392.494269174465
 33
0.0
 14
3436.970589276523
 24
1315.494269174465
 34
0.0
 50
90.0
100
AcDbRotatedDimension
1001
ACAD
1000
DSTYLE
1002
{
1070
    41
1040
0.5
1070
    44
1040
1.0
1070
   147
1040
0.8
1070
   271
1070
     2
1070
   272
1070
     2
1070
   289
1070
     3
1070
   340
1005
F706
1070
   343
1005
164B4
1070
   344
1005
164B4
1002
}
  0
LINE
  5
18CD3
330
18C7A
100
AcDbEntity
  8
部品1
100
AcDbLine
 10
3437.970589276523
 20
1315.494269174465
 30
0.0
 11
3437.970589276523
 21
1392.494269174465
 31
0.0
  0
LINE
  5
18CD4
330
18C7A
100
AcDbEntity
  8
部品1
100
AcDbLine
 10
3398.970589276523
 20
1388.494269174465
 30
0.0
 11
3409.970589276524
 21
1388.494269174465
 31
0.0
  0
LINE
  5
18CD5
330
18C7A
100
AcDbEntity
  8
部品1
100
AcDbLine
 10
3407.970589276523
 20
1324.494269174465
 30
0.0
 11
3407.970589276523
 21
1315.494269174465
 31
0.0
  0
LINE
  5
18CD6
330
18C7A
100
AcDbEntity
  8
部品1
100
AcDbLine
 10
3398.970589276523
 20
1324.494269174465
 30
0.0
 11
3407.970589276523
 21
1324.494269174465
 31
0.0
  0
LINE
  5
18CD7
330
18C7A
100
AcDbEntity
  8
部品1
100
AcDbLine
 10
3398.970589276523
 20
1388.494269174465
 30
0.0
 11
3398.970589276523
 21
1324.494269174465
 31
0.0
  0
LINE
  5
18CD8
330
18C7A
100
AcDbEntity
  8
部品1
100
AcDbLine
 10
3409.970589276524
 20
1419.494269174465
 30
0.0
 11
3409.970589276524
 21
1388.494269174465
 31
0.0
  0
LINE
  5
18CD9
330
18C7A
100
AcDbEntity
  8
部品1
100
AcDbLine
 10
1322.970589276523
 20
1388.494269174465
 30
0.0
 11
1311.970589276523
 21
1388.494269174465
 31
0.0
  0
LINE
  5
18CDA
330
18C7A
100
AcDbEntity
  8
部品1
100
AcDbLine
 10
1283.970589276523
 20
1392.494269174465
 30
0.0
 11
1311.970589276523
 21
1392.494269174465
 31
0.0
  0
LINE
  5
18CDB
330
18C7A
100
AcDbEntity
  8
部品1
100
AcDbLine
 10
1313.970589276523
 20
1324.494269174465
 30
0.0
 11
1313.970589276523
 21
1315.494269174465
 31
0.0
  0
LINE
  5
18CDC
330
18C7A
100
AcDbEntity
  8
部品1
100
AcDbLine
 10
1322.970589276523
 20
1324.494269174465
 30
0.0
 11
1313.970589276523
 21
1324.494269174465
 31
0.0
  0
LINE
  5
18CDD
330
18C7A
100
AcDbEntity
  8
部品1
100
AcDbLine
 10
1313.970589276523
 20
1315.494269174465
 30
0.0
 11
1283.970589276523
 21
1315.494269174465
 31
0.0
  0
LINE
  5
18CDE
330
18C7A
100
AcDbEntity
  8
部品1
100
AcDbLine
 10
1283.970589276523
 20
1315.494269174465
 30
0.0
 11
1283.970589276523
 21
1392.494269174465
 31
0.0
  0
LINE
  5
18CDF
330
18C7A
100
AcDbEntity
  8
部品1
100
AcDbLine
 10
1322.970589276523
 20
1388.494269174465
 30
0.0
 11
1322.970589276523
 21
1324.494269174465
 31
0.0
  0
LINE
  5
18CE0
330
18C7A
100
AcDbEntity
  8
部品1
100
AcDbLine
 10
1311.970589276523
 20
1419.494269174462
 30
0.0
 11
1311.970589276523
 21
1388.494269174465
 31
0.0
  0
LINE
  5
18CE1
330
18C7A
100
AcDbEntity
  8
部品1
100
AcDbLine
 10
1311.970589276523
 20
1419.494269174462
 30
0.0
 11
3409.970589276524
 21
1419.494269174465
 31
0.0
  0
LINE
  5
18CE2
330
18C7A
100
AcDbEntity
  8
部品1
100
AcDbLine
 10
3407.970589276523
 20
1315.494269174465
 30
0.0
 11
3437.970589276523
 21
1315.494269174465
 31
0.0
  0
LINE
  5
18CE3
330
18C7A
100
AcDbEntity
  8
部品1
100
AcDbLine
 10
1313.970589276523
 20
1315.494269174465
 30
0.0
 11
3410.970589276523
 21
1315.494269174465
 31
0.0
  0
LINE
  5
18CE4
330
18C7A
100
AcDbEntity
  8
細線
  6
Continuous
 62
     5
100
AcDbLine
 10
2689.970589276527
 20
1354.494269174462
 30
0.0
 11
2689.970589276527
 21
1354.494269174462
 31
0.0
  0
LINE
  5
18CE5
330
18C7A
100
AcDbEntity
  8
細線
  6
Continuous
 62
     5
100
AcDbLine
 10
2682.470589276527
 20
1354.494269174462
 30
0.0
 11
2682.470589276527
 21
1354.494269174462
 31
0.0
  0
LINE
  5
18CE6
330
18C7A
100
AcDbEntity
  8
細線
  6
Continuous
 62
     5
100
AcDbLine
 10
2676.470589276527
 20
1354.494269174462
 30
0.0
 11
2676.470589276527
 21
1354.494269174462
 31
0.0
  0
LINE
  5
18CE7
330
18C7A
100
AcDbEntity
  8
細線
  6
Continuous
 62
     5
100
AcDbLine
 10
2743.970589276527
 20
1373.494269174462
 30
0.0
 11
2743.970589276527
 21
1373.494269174462
 31
0.0
  0
LINE
  5
18CE8
330
18C7A
100
AcDbEntity
  8
細線
 48
50.0
100
AcDbLine
 10
1336.970593930116
 20
1341.094443351418
 30
0.0
 11
1336.970593930113
 21
1349.490593759059
 31
0.0
  0
LINE
  5
18CE9
330
18C7A
100
AcDbEntity
  8
細線
 48
50.0
100
AcDbLine
 10
1336.970593930113
 20
1349.490593759059
 30
0.0
 11
1322.970589276523
 21
1349.490593759057
 31
0.0
  0
LINE
  5
18CEA
330
18C7A
100
AcDbEntity
  8
細線
 48
50.0
100
AcDbLine
 10
2087.970593930113
 20
1337.644443351419
 30
0.0
 11
2087.970593930113
 21
1342.494443351421
 31
0.0
  0
LINE
  5
18CEB
330
18C7A
100
AcDbEntity
  8
細線
 48
50.0
100
AcDbLine
 10
2087.970593930113
 20
1342.494443351421
 30
0.0
 11
2102.970593930113
 21
1342.494443351421
 31
0.0
  0
LINE
  5
18CEC
330
18C7A
100
AcDbEntity
  8
細線
 48
50.0
100
AcDbLine
 10
2102.970593930113
 20
1342.494443351421
 30
0.0
 11
2102.970593930115
 21
1349.494443351419
 31
0.0
  0
LINE
  5
18CED
330
18C7A
100
AcDbEntity
  8
細線
 48
50.0
100
AcDbLine
 10
2102.970593930115
 20
1349.494443351419
 30
0.0
 11
2117.970593930113
 21
1349.494443351419
 31
0.0
  0
LINE
  5
18CEE
330
18C7A
100
AcDbEntity
  8
細線
 48
50.0
100
AcDbLine
 10
2117.970593930113
 20
1349.494443351419
 30
0.0
 11
2117.970593930113
 21
1320.494443351421
 31
0.0
  0
LINE
  5
18CEF
330
18C7A
100
AcDbEntity
  8
細線
 48
50.0
100
AcDbLine
 10
1313.970589276523
 20
1320.491777694889
 30
0.0
 11
1527.970593930113
 21
1320.494460905133
 31
0.0
  0
LINE
  5
18CF0
330
18C7A
100
AcDbEntity
  8
細線
 48
50.0
100
AcDbLine
 10
2017.970593930113
 20
1320.494443351421
 30
0.0
 11
2117.970593930113
 21
1320.494443351421
 31
0.0
  0
LINE
  5
18CF1
330
18C7A
100
AcDbEntity
  8
細線
 48
50.0
100
AcDbLine
 10
1737.970593930113
 20
1320.494443351419
 30
0.0
 11
1807.970593930113
 21
1320.494443351423
 31
0.0
  0
LINE
  5
18CF2
330
18C7A
100
AcDbEntity
  8
細線
 48
50.0
100
AcDbLine
 10
1750.832558942642
 20
1320.494443351419
 30
0.0
 11
1756.588076525309
 21
1338.765294641913
 31
0.0
  0
LINE
  5
18CF3
330
18C7A
100
AcDbEntity
  8
細線
 48
50.0
100
AcDbLine
 10
1756.588076525309
 20
1338.765294641913
 30
0.0
 11
1767.516525005743
 21
1338.765294641911
 31
0.0
  0
ARC
  5
18CF4
330
18C7A
100
AcDbEntity
  8
細線
 48
50.0
100
AcDbCircle
 10
1767.516525005743
 20
1337.765294641911
 30
0.0
 40
1.0
100
AcDbArc
 50
24.62431835207225
 51
90.0
  0
ARC
  5
18CF5
330
18C7A
100
AcDbEntity
  8
細線
 48
50.0
100
AcDbCircle
 10
1778.425237120377
 20
1337.765294641911
 30
0.0
 40
1.0
100
AcDbArc
 50
90.0
 51
155.3756816479277
  0
ARC
  5
18CF6
330
18C7A
100
AcDbEntity
  8
細線
 48
50.0
100
AcDbCircle
 10
1772.970881063058
 20
1340.265294641911
 30
0.0
 40
5.0
100
AcDbArc
 50
204.6243183520723
 51
335.3756816479278
  0
LINE
  5
18CF7
330
18C7A
100
AcDbEntity
  8
細線
 48
50.0
100
AcDbLine
 10
1778.425237120377
 20
1338.765294641911
 30
0.0
 11
1789.35368560081
 21
1338.765294641913
 31
0.0
  0
LINE
  5
18CF8
330
18C7A
100
AcDbEntity
  8
細線
 48
50.0
100
AcDbLine
 10
1789.35368560081
 20
1338.765294641913
 30
0.0
 11
1795.109203183478
 21
1320.494443351423
 31
0.0
  0
LINE
  5
18CF9
330
18C7A
100
AcDbEntity
  8
細線
 48
50.0
100
AcDbLine
 10
2087.970593930113
 20
1341.094443351419
 30
0.0
 11
1336.970593930116
 21
1341.094443351418
 31
0.0
  0
LINE
  5
18CFA
330
18C7A
100
AcDbEntity
  8
細線
 48
50.0
100
AcDbLine
 10
1947.970593930113
 20
1320.494443351421
 30
0.0
 11
1877.970593930113
 21
1320.494443351421
 31
0.0
  0
LINE
  5
18CFB
330
18C7A
100
AcDbEntity
  8
細線
100
AcDbLine
 10
1667.970593930113
 20
1320.494443351421
 30
0.0
 11
1597.970602115529
 21
1320.494443351421
 31
0.0
  0
LINE
  5
18CFC
330
18C7A
100
AcDbEntity
  8
細線
 48
50.0
100
AcDbLine
 10
2741.970584622936
 20
1375.094487209288
 30
0.0
 11
2106.970593930113
 21
1375.094487209284
 31
0.0
  0
LINE
  5
18CFD
330
18C7A
100
AcDbEntity
  8
細線
 48
50.0
100
AcDbLine
 10
2106.970593930113
 20
1371.990637616925
 30
0.0
 11
2106.970593930113
 21
1376.490637616925
 31
0.0
  0
LINE
  5
18CFE
330
18C7A
100
AcDbEntity
  8
細線
 48
50.0
100
AcDbLine
 10
2106.970593930113
 20
1376.490637616925
 30
0.0
 11
2091.970593930113
 21
1376.490637616925
 31
0.0
  0
LINE
  5
18CFF
330
18C7A
100
AcDbEntity
  8
細線
 48
50.0
100
AcDbLine
 10
2091.970593930113
 20
1376.490637616925
 30
0.0
 11
2091.970593930113
 21
1383.490637616927
 31
0.0
  0
LINE
  5
18D00
330
18C7A
100
AcDbEntity
  8
細線
 48
50.0
100
AcDbLine
 10
2091.970593930113
 20
1383.490637616927
 30
0.0
 11
2076.970593930115
 21
1383.490637616924
 31
0.0
  0
LINE
  5
18D01
330
18C7A
100
AcDbEntity
  8
細線
 48
50.0
100
AcDbLine
 10
2076.970593930115
 20
1383.490637616924
 30
0.0
 11
2076.970593930115
 21
1345.890409513813
 31
0.0
  0
LINE
  5
18D02
330
18C7A
100
AcDbEntity
  8
細線
 48
50.0
100
AcDbLine
 10
2076.970593930115
 20
1345.890409513813
 30
0.0
 11
2096.970601231289
 21
1345.890451063353
 31
0.0
  0
LINE
  5
18D03
330
18C7A
100
AcDbEntity
  8
細線
 48
50.0
100
AcDbLine
 10
2096.970556362348
 20
1354.493912699161
 30
0.0
 11
2096.970601231289
 21
1345.890451063353
 31
0.0
  0
LINE
  5
18D04
330
18C7A
100
AcDbEntity
  8
細線
 48
50.0
100
AcDbLine
 10
2741.970584622936
 20
1371.644487209287
 30
0.0
 11
2741.970584622936
 21
1376.494487209284
 31
0.0
  0
LINE
  5
18D05
330
18C7A
100
AcDbEntity
  8
細線
 48
50.0
100
AcDbLine
 10
2741.970584622936
 20
1376.494487209284
 30
0.0
 11
2756.970584622934
 21
1376.494487209285
 31
0.0
  0
LINE
  5
18D06
330
18C7A
100
AcDbEntity
  8
細線
 48
50.0
100
AcDbLine
 10
2756.970584622934
 20
1376.494487209285
 30
0.0
 11
2756.970596256909
 21
1383.494487209331
 31
0.0
  0
LINE
  5
18D07
330
18C7A
100
AcDbEntity
  8
細線
 48
50.0
100
AcDbLine
 10
2756.970596256909
 20
1383.494487209331
 30
0.0
 11
2771.970594427439
 21
1383.494487209329
 31
0.0
  0
LINE
  5
18D08
330
18C7A
100
AcDbEntity
  8
細線
 48
50.0
100
AcDbLine
 10
2771.970594427439
 20
1383.494487209329
 30
0.0
 11
2771.970584125617
 21
1354.494281037055
 31
0.0
  0
LINE
  5
18D09
330
18C7A
100
AcDbEntity
  8
細線
 48
50.0
100
AcDbLine
 10
2458.070304175992
 20
1354.494278397076
 30
0.0
 11
2389.470863838818
 21
1354.494283787084
 31
0.0
  0
LINE
  5
18D0A
330
18C7A
100
AcDbEntity
  8
細線
 48
50.0
100
AcDbLine
 10
2096.970556362348
 20
1354.493912699161
 30
0.0
 11
2108.203245717057
 21
1354.494095652309
 31
0.0
  0
ARC
  5
18D0B
330
18C7A
100
AcDbEntity
  8
細線
 48
50.0
100
AcDbCircle
 10
2114.785538024393
 20
1353.294259565922
 30
0.0
 40
1.8
100
AcDbArc
 50
270.0006665777295
 51
345.000555481349
  0
LINE
  5
18D0C
330
18C7A
100
AcDbEntity
  8
細線
 48
50.0
100
AcDbLine
 10
2116.771971470473
 20
1353.753100023201
 30
0.0
 11
2116.524209028273
 21
1352.828402141094
 31
0.0
  0
LINE
  5
18D0D
330
18C7A
100
AcDbEntity
  8
細線
 48
50.0
100
AcDbLine
 10
2114.785558965548
 20
1351.494259566043
 30
0.0
 11
2111.155631546781
 21
1351.494217335563
 31
0.0
  0
ARC
  5
18D0E
330
18C7A
100
AcDbEntity
  8
細線
 48
50.0
100
AcDbCircle
 10
2111.155610605627
 20
1353.29421733544
 30
0.0
 40
1.8
100
AcDbArc
 50
195.0010443049965
 51
270.0006665777295
  0
LINE
  5
18D0F
330
18C7A
100
AcDbEntity
  8
細線
 48
50.0
100
AcDbLine
 10
2109.169183113368
 20
1353.752932303007
 30
0.0
 11
2109.416952609882
 21
1352.828311364425
 31
0.0
  0
ARC
  5
18D10
330
18C7A
100
AcDbEntity
  8
細線
 48
50.0
100
AcDbCircle
 10
2108.203262004622
 20
1353.494095652444
 30
0.0
 40
1.0
100
AcDbArc
 50
15.00104430499651
 51
90.00093320877969
  0
LINE
  5
18D11
330
18C7A
100
AcDbEntity
  8
細線
 48
50.0
100
AcDbLine
 10
2117.737892825577
 20
1354.494290342714
 30
0.0
 11
2118.679652976481
 21
1354.494296916564
 31
0.0
  0
ARC
  5
18D12
330
18C7A
100
AcDbEntity
  8
細線
 48
50.0
100
AcDbCircle
 10
2117.737899805961
 20
1353.49429034274
 30
0.0
 40
1.0
100
AcDbArc
 50
90.0003999466794
 51
165.000555481349
  0
LINE
  5
18D13
330
18C7A
100
AcDbEntity
  8
細線
 48
50.0
100
AcDbLine
 10
2669.470584622926
 20
1354.494281037055
 30
0.0
 11
2771.970584125617
 21
1354.494281037055
 31
0.0
  0
LINE
  5
18D14
330
18C7A
100
AcDbEntity
  8
細線
 48
50.0
100
AcDbLine
 10
2179.47061994182
 20
1354.494289224422
 30
0.0
 11
2118.370558714898
 21
1354.494296916564
 31
0.0
  0
LINE
  5
18D15
330
18C7A
100
AcDbEntity
  8
細線
 48
50.0
100
AcDbLine
 10
2599.470584622926
 20
1354.494281037057
 30
0.0
 11
2529.470584622926
 21
1354.494281037055
 31
0.0
  0
LINE
  5
18D16
330
18C7A
100
AcDbEntity
  8
細線
 48
50.0
100
AcDbLine
 10
2319.470584622926
 20
1354.494281037054
 30
0.0
 11
2249.470567335051
 21
1354.494281037057
 31
0.0
  0
ARC
  5
18D17
330
18C7A
100
AcDbEntity
  8
細線
 48
50.0
100
AcDbCircle
 10
2756.170589276533
 20
1387.694269174466
 30
0.0
 40
0.8
100
AcDbArc
 50
359.9997333689499
 51
89.99986668437072
  0
ARC
  5
18D18
330
18C7A
100
AcDbEntity
  8
細線
 48
50.0
100
AcDbCircle
 10
2763.770596101631
 20
1387.694280343081
 30
0.0
 40
0.8
100
AcDbArc
 50
90.00014387753465
 51
179.9997333689498
  0
LINE
  5
18D19
330
18C7A
100
AcDbEntity
  8
細線
 48
50.0
100
AcDbLine
 10
2756.170591137969
 20
1388.494269174465
 30
0.0
 11
2750.970589276525
 21
1388.494269174465
 31
0.0
  0
ARC
  5
18D1A
330
18C7A
100
AcDbEntity
  8
細線
 48
50.0
100
AcDbCircle
 10
2757.670589276524
 20
1386.194269174464
 30
0.0
 40
0.7
100
AcDbArc
 50
180.0
 51
270.0
  0
ARC
  5
18D1B
330
18C7A
100
AcDbEntity
  8
細線
 48
50.0
100
AcDbCircle
 10
2762.270589276524
 20
1386.194269174464
 30
0.0
 40
0.7
100
AcDbArc
 50
270.0
 51
0.0
  0
LINE
  5
18D1C
330
18C7A
100
AcDbEntity
  8
細線
 48
50.0
100
AcDbLine
 10
2762.970589276525
 20
1386.194269174464
 30
0.0
 11
2762.970596101639
 21
1387.694284065954
 31
0.0
  0
LINE
  5
18D1D
330
18C7A
100
AcDbEntity
  8
細線
 48
50.0
100
AcDbLine
 10
2757.670589276524
 20
1385.494269174465
 30
0.0
 11
2762.270589276524
 21
1385.494269174465
 31
0.0
  0
LINE
  5
18D1E
330
18C7A
100
AcDbEntity
  8
細線
 48
50.0
100
AcDbLine
 10
2756.970589276525
 20
1387.694269174466
 30
0.0
 11
2756.970589276525
 21
1386.194269174464
 31
0.0
  0
LINE
  5
18D1F
330
18C7A
100
AcDbEntity
  8
細線
 48
50.0
100
AcDbLine
 10
3382.570589276527
 20
1418.494269174465
 30
0.0
 11
2745.970589276525
 21
1418.494269174463
 31
0.0
  0
LINE
  5
18D20
330
18C7A
100
AcDbEntity
  8
細線
 48
50.0
100
AcDbLine
 10
3408.470589276525
 20
1413.494269174467
 30
0.0
 11
3392.570589276527
 21
1413.494269174465
 31
0.0
  0
LINE
  5
18D21
330
18C7A
100
AcDbEntity
  8
細線
 48
50.0
100
AcDbLine
 10
3392.570589276526
 20
1413.494269174465
 30
0.0
 11
3382.570589276527
 21
1418.494269174465
 31
0.0
  0
LINE
  5
18D22
330
18C7A
100
AcDbEntity
  8
細線
100
AcDbLine
 10
2993.470589276525
 20
1388.494269174465
 30
0.0
 11
2993.470589276525
 21
1417.794269174464
 31
0.0
  0
LINE
  5
18D23
330
18C7A
100
AcDbEntity
  8
細線
100
AcDbLine
 10
2993.470589276525
 20
1417.794269174464
 30
0.0
 11
3013.470589276525
 21
1417.794269174464
 31
0.0
  0
LINE
  5
18D24
330
18C7A
100
AcDbEntity
  8
細線
100
AcDbLine
 10
3013.470589276525
 20
1388.494269174465
 30
0.0
 11
3013.470589276525
 21
1417.794269174464
 31
0.0
  0
LINE
  5
18D25
330
18C7A
100
AcDbEntity
  8
細線
100
AcDbLine
 10
3170.720589276524
 20
1388.494269174465
 30
0.0
 11
3100.720589276523
 21
1388.494269174465
 31
0.0
  0
LINE
  5
18D26
330
18C7A
100
AcDbEntity
  8
細線
 48
50.0
100
AcDbLine
 10
2890.720589276525
 20
1388.494269174465
 30
0.0
 11
2763.766368849365
 21
1388.494269174465
 31
0.0
  0
LINE
  5
18D27
330
18C7A
100
AcDbEntity
  8
細線
100
AcDbLine
 10
3030.720589276525
 20
1388.494269174465
 30
0.0
 11
2960.720589276525
 21
1388.494269174465
 31
0.0
  0
LINE
  5
18D28
330
18C7A
100
AcDbEntity
  8
細線
 48
50.0
100
AcDbLine
 10
2750.970589276525
 20
1380.494269174465
 30
0.0
 11
2750.970589276525
 21
1388.494269174465
 31
0.0
  0
LINE
  5
18D29
330
18C7A
100
AcDbEntity
  8
細線
 48
50.0
100
AcDbLine
 10
2730.970589276524
 20
1380.494269174467
 30
0.0
 11
2750.970589276525
 21
1380.494269174465
 31
0.0
  0
LINE
  5
18D2A
330
18C7A
100
AcDbEntity
  8
細線
 48
50.0
100
AcDbLine
 10
2745.970589276525
 20
1418.494269174465
 30
0.0
 11
2745.970589276525
 21
1413.494269174465
 31
0.0
  0
LINE
  5
18D2B
330
18C7A
100
AcDbEntity
  8
細線
 48
50.0
100
AcDbLine
 10
2730.970589276525
 20
1418.494269174463
 30
0.0
 11
2745.970589276525
 21
1418.494269174465
 31
0.0
  0
LINE
  5
18D2C
330
18C7A
100
AcDbEntity
  8
細線
 48
50.0
100
AcDbLine
 10
2730.970589276524
 20
1380.494269174467
 30
0.0
 11
2730.970589276525
 21
1418.494269174463
 31
0.0
  0
LINE
  5
18D2D
330
18C7A
100
AcDbEntity
  8
細線
100
AcDbLine
 10
3398.970589276523
 20
1388.494269174465
 30
0.0
 11
3240.720589276525
 21
1388.494269174465
 31
0.0
  0
LINE
  5
18D2E
330
18C7A
100
AcDbEntity
  8
細線
 48
50.0
100
AcDbLine
 10
3408.470589276525
 20
1413.494269174467
 30
0.0
 11
3408.470589276524
 21
1388.494269174465
 31
0.0
  0
TEXT
  5
18D2F
330
18C7A
100
AcDbEntity
  8
部品1
100
AcDbText
 10
1860.154865991392
 20
46.99880823813145
 30
0.0
 40
135.0
  1
平面図
  7
STYLE2
100
AcDbText
  0
LWPOLYLINE
  5
18D30
330
18C7A
100
AcDbEntity
  8
部品1
100
AcDbPolyline
 90
        4
 70
     1
 43
0.0
 10
1770.23525616235
 20
239.8923374566548
 10
1770.23525616235
 20
0.0000159111223184
 10
2533.705922390791
 20
0.0000159111223184
 10
2533.705922390791
 20
239.8923374566548
  0
LINE
  5
18D31
330
18C7A
100
AcDbEntity
  8
部品1
100
AcDbLine
 10
1534.470589276487
 20
3154.494269174626
 30
0.0
 11
2769.470589276552
 21
3154.494269174626
 31
0.0
  0
LINE
  5
18D32
330
18C7A
100
AcDbEntity
  8
部品1
 48
50.0
100
AcDbLine
 10
1311.970589276523
 20
1420.494269174462
 30
0.0
 11
3411.970589276523
 21
1420.494269174465
 31
0.0
  0
LINE
  5
18D33
330
18C7A
100
AcDbEntity
  8
部品1
 48
50.0
100
AcDbLine
 10
471.9705892765232
 20
1392.494269174465
 30
0.0
 11
1311.970589276523
 21
1392.494269174465
 31
0.0
  0
DIMENSION
  5
18D34
330
18C7A
100
AcDbEntity
  8
寸法
100
AcDbDimension
  2
*D14
 10
2710.234916278077
 20
2488.887829538828
 30
0.0
 11
2338.318822490183
 21
2488.887829538828
 31
0.0
 12
-3742.925985830444
 22
-6453.628869860112
 32
0.0
 70
   128
 71
     5
 42
1231.00000000007
  3
INABA_S40G
100
AcDbAlignedDimension
 13
1536.470589276486
 23
2702.494269174557
 33
0.0
 14
2767.470589276556
 24
2702.494269174549
 34
0.0
100
AcDbRotatedDimension
1001
ACAD
1000
DSTYLE
1002
{
1002
}
  0
LINE
  5
18D35
330
18C7A
100
AcDbEntity
  8
部品1
100
AcDbLine
 10
1536.470589276487
 20
2702.494269174557
 30
0.0
 11
2767.470589276554
 21
2702.494269174615
 31
0.0
  0
LINE
  5
18D36
330
18C7A
100
AcDbEntity
  8
部品1
100
AcDbLine
 10
1536.470589276487
 20
3152.494269174557
 30
0.0
 11
2767.470589276556
 21
3152.494269174615
 31
0.0
  0
LINE
  5
18D37
330
18C7A
100
AcDbEntity
  8
細線
 48
50.0
100
AcDbLine
 10
1508.470589276487
 20
3152.494269174558
 30
0.0
 11
445.4705892765559
 21
2702.494269174509
 31
0.0
  0
LINE
  5
18D38
330
18C7A
100
AcDbEntity
  8
細線
 48
50.0
100
AcDbLine
 10
1508.470589276487
 20
2702.494269174558
 30
0.0
 11
445.4705892765542
 21
3152.494269174509
 31
0.0
  0
LINE
  5
18D39
330
18C7A
100
AcDbEntity
  8
部品1
100
AcDbLine
 10
1556.970589276487
 20
3172.494269174611
 30
0.0
 11
1556.970589276487
 21
3154.494269174611
 31
0.0
  0
LINE
  5
18D3A
330
18C7A
100
AcDbEntity
  8
部品1
100
AcDbLine
 10
1556.970589276487
 20
3172.494269174611
 30
0.0
 11
1550.970589276487
 21
3172.494269174611
 31
0.0
  0
LINE
  5
18D3B
330
18C7A
100
AcDbEntity
  8
部品1
100
AcDbLine
 10
1534.470589276487
 20
3146.494269174608
 30
0.0
 11
1509.470589276487
 21
3146.494269174611
 31
0.0
  0
LINE
  5
18D3C
330
18C7A
100
AcDbEntity
  8
部品1
100
AcDbLine
 10
1486.970589276487
 20
3172.494269174611
 30
0.0
 11
1486.970589276487
 21
3154.494269174611
 31
0.0
  0
LINE
  5
18D3D
330
18C7A
100
AcDbEntity
  8
部品1
100
AcDbLine
 10
1492.970589276487
 20
3172.494269174611
 30
0.0
 11
1486.970589276487
 21
3172.494269174611
 31
0.0
  0
LINE
  5
18D3E
330
18C7A
100
AcDbEntity
  8
部品1
100
AcDbLine
 10
1534.470589276487
 20
2702.494269174615
 30
0.0
 11
1509.470589276487
 21
2702.494269174615
 31
0.0
  0
LINE
  5
18D3F
330
18C7A
100
AcDbEntity
  8
部品1
 48
50.0
100
AcDbLine
 10
1536.470589276487
 20
3152.494269174611
 30
0.0
 11
1536.470589276487
 21
2702.494269174615
 31
0.0
  0
LINE
  5
18D40
330
18C7A
100
AcDbEntity
  8
部品1
 48
50.0
100
AcDbLine
 10
1508.470589276487
 20
3152.494269174607
 30
0.0
 11
1508.470589276487
 21
2702.494269174615
 31
0.0
  0
LINE
  5
18D41
330
18C7A
100
AcDbEntity
  8
部品1
 48
50.0
100
AcDbLine
 10
1534.470589276487
 20
3154.494269174618
 30
0.0
 11
1534.470589276487
 21
2702.494269174615
 31
0.0
  0
LINE
  5
18D42
330
18C7A
100
AcDbEntity
  8
部品1
 48
50.0
100
AcDbLine
 10
1509.470589276487
 20
3154.494269174615
 30
0.0
 11
1509.470589276487
 21
2702.494269174615
 31
0.0
  0
LINE
  5
18D43
330
18C7A
100
AcDbEntity
  8
部品1
100
AcDbLine
 10
3411.970589276556
 20
1392.494269174582
 30
0.0
 11
3411.970589276556
 21
1420.494269174596
 31
0.0
  0
LINE
  5
18D44
330
18C7A
100
AcDbEntity
  8
部品1
100
AcDbLine
 10
1311.970589276523
 20
1392.494269174596
 30
0.0
 11
1311.970589276523
 21
1420.494269174596
 31
0.0
  0
LINE
  5
18D45
330
18C7A
100
AcDbEntity
  8
部品1
100
AcDbLine
 10
891.9705892765232
 20
1392.494269174596
 30
0.0
 11
891.9705892765232
 21
1420.494269174596
 31
0.0
  0
LINE
  5
18D46
330
18C7A
100
AcDbEntity
  8
部品1
100
AcDbLine
 10
3411.97058927652
 20
3182.494269174477
 30
0.0
 11
3411.970589276523
 21
3154.494269174477
 31
0.0
  0
LINE
  5
18D47
330
18C7A
100
AcDbEntity
  8
部品1
100
AcDbLine
 10
2571.97058927652
 20
3182.494269174477
 30
0.0
 11
2571.970589276523
 21
3154.494269174477
 31
0.0
  0
LINE
  5
18D48
330
18C7A
100
AcDbEntity
  8
部品1
100
AcDbLine
 10
2991.97058927652
 20
3182.494269174477
 30
0.0
 11
2991.970589276523
 21
3154.494269174477
 31
0.0
  0
LINE
  5
18D49
330
18C7A
100
AcDbEntity
  8
部品1
100
AcDbLine
 10
2151.970589276519
 20
3182.494269174477
 30
0.0
 11
2151.970589276523
 21
3154.494269174477
 31
0.0
  0
LINE
  5
18D4A
330
18C7A
100
AcDbEntity
  8
部品1
100
AcDbLine
 10
1731.970589276519
 20
3182.494269174477
 30
0.0
 11
1731.970589276523
 21
3154.494269174477
 31
0.0
  0
LINE
  5
18D4B
330
18C7A
100
AcDbEntity
  8
部品1
100
AcDbLine
 10
1311.970589276519
 20
3182.494269174477
 30
0.0
 11
1311.970589276523
 21
3154.494269174477
 31
0.0
  0
LINE
  5
18D4C
330
18C7A
100
AcDbEntity
  8
部品1
100
AcDbLine
 10
891.9705892765195
 20
3182.494269174477
 30
0.0
 11
891.9705892765232
 21
3154.494269174477
 31
0.0
  0
LINE
  5
18D4D
330
18C7A
100
AcDbEntity
  8
部品1
100
AcDbLine
 10
471.9705892765232
 20
1392.494269174596
 30
0.0
 11
471.9705892765232
 21
1420.494269174596
 31
0.0
  0
LINE
  5
18D4E
330
18C7A
100
AcDbEntity
  8
部品1
100
AcDbLine
 10
444.9705892765305
 20
1420.494269174558
 30
0.0
 11
3858.970589276556
 21
1420.494269174596
 31
0.0
  0
LINE
  5
18D4F
330
18C7A
100
AcDbEntity
  8
部品1
100
AcDbLine
 10
3831.970589276556
 20
1392.494269174596
 30
0.0
 11
3831.970589276556
 21
1420.494269174596
 31
0.0
  0
LINE
  5
18D50
330
18C7A
100
AcDbEntity
  8
部品1
100
AcDbLine
 10
3858.970589276556
 20
1447.494269174593
 30
0.0
 11
3886.970589276556
 21
1447.494269174593
 31
0.0
  0
LINE
  5
18D51
330
18C7A
100
AcDbEntity
  8
部品1
100
AcDbLine
 10
3858.970589276556
 20
1867.494269174607
 30
0.0
 11
3886.970589276556
 21
1867.494269174607
 31
0.0
  0
LINE
  5
18D52
330
18C7A
100
AcDbEntity
  8
部品1
100
AcDbLine
 10
444.9705892765305
 20
1867.49426917448
 30
0.0
 11
416.9705892765305
 21
1867.49426917448
 31
0.0
  0
LINE
  5
18D53
330
18C7A
100
AcDbEntity
  8
部品1
100
AcDbLine
 10
3830.470589276541
 20
1867.49426917458
 30
0.0
 11
473.4705892765396
 21
1867.49426917448
 31
0.0
  0
LINE
  5
18D54
330
18C7A
100
AcDbEntity
  8
部品1
100
AcDbLine
 10
3830.470589276541
 20
2287.49426917458
 30
0.0
 11
473.4705892765396
 21
2287.49426917448
 31
0.0
  0
LINE
  5
18D55
330
18C7A
100
AcDbEntity
  8
部品1
100
AcDbLine
 10
444.9705892765305
 20
2287.49426917448
 30
0.0
 11
416.9705892765305
 21
2287.49426917448
 31
0.0
  0
LINE
  5
18D56
330
18C7A
100
AcDbEntity
  8
部品1
100
AcDbLine
 10
3858.970589276556
 20
2287.494269174608
 30
0.0
 11
3886.970589276556
 21
2287.494269174608
 31
0.0
  0
LINE
  5
18D57
330
18C7A
100
AcDbEntity
  8
部品1
 48
50.0
100
AcDbLine
 10
2151.970589276551
 20
2702.494269174586
 30
0.0
 11
2151.970589276581
 21
1448.994269174494
 31
0.0
  0
LINE
  5
18D58
330
18C7A
100
AcDbEntity
  8
破線
 48
10.0
100
AcDbLine
 10
2959.470589276535
 20
1472.494269174522
 30
0.0
 11
2176.970589276532
 21
1472.494269174505
 31
0.0
  0
LINE
  5
18D59
330
18C7A
100
AcDbEntity
  8
破線
 48
10.0
100
AcDbLine
 10
3009.47058927653
 20
1448.994269174509
 30
0.0
 11
3009.47058927653
 21
2702.494269174615
 31
0.0
  0
LINE
  5
18D5A
330
18C7A
100
AcDbEntity
  8
破線
 48
10.0
100
AcDbLine
 10
2959.470589276535
 20
1448.994269174505
 30
0.0
 11
2959.470589276531
 21
2702.494269174615
 31
0.0
  0
LINE
  5
18D5B
330
18C7A
100
AcDbEntity
  8
破線
 48
10.0
100
AcDbLine
 10
1344.47058927653
 20
1448.994269174509
 30
0.0
 11
1344.47058927653
 21
2702.494269174615
 31
0.0
  0
LINE
  5
18D5C
330
18C7A
100
AcDbEntity
  8
破線
 48
10.0
100
AcDbLine
 10
1294.470589276534
 20
1448.994269174505
 30
0.0
 11
1294.47058927653
 21
2702.494269174615
 31
0.0
  0
DIMENSION
  5
18D5D
330
18C7A
100
AcDbEntity
  8
寸法
100
AcDbDimension
  2
*D13
 10
1451.234916278005
 20
2488.887829538828
 30
0.0
 11
916.0604668248634
 21
2488.887829538828
 31
0.0
 12
-3742.925985830444
 22
-6453.628869860112
 32
0.0
 70
   128
 71
     5
 42
1062.99999999993
  3
INABA_S40G
100
AcDbAlignedDimension
 13
445.4705892765559
 23
2702.494269174505
 33
0.0
 14
1508.470589276486
 24
2702.494269174558
 34
0.0
100
AcDbRotatedDimension
1001
ACAD
1000
DSTYLE
1002
{
1002
}
  0
LINE
  5
18D5E
330
18C7A
100
AcDbEntity
  8
破線
 48
10.0
100
AcDbLine
 10
1294.470589276534
 20
1472.494269174469
 30
0.0
 11
496.9705892765414
 21
1472.494269174476
 31
0.0
  0
LINE
  5
18D5F
330
18C7A
100
AcDbEntity
  8
部品1
100
AcDbLine
 10
3831.970589276556
 20
3182.494269174604
 30
0.0
 11
3831.970589276556
 21
3154.494269174604
 31
0.0
  0
LINE
  5
18D60
330
18C7A
100
AcDbEntity
  8
部品1
100
AcDbLine
 10
3831.970589276556
 20
3182.494269174626
 30
0.0
 11
3831.970589276556
 21
3154.494269174626
 31
0.0
  0
LINE
  5
18D61
330
18C7A
100
AcDbEntity
  8
部品1
100
AcDbLine
 10
3858.970589276556
 20
3127.494269174607
 30
0.0
 11
3886.970589276556
 21
3127.494269174607
 31
0.0
  0
LINE
  5
18D62
330
18C7A
100
AcDbEntity
  8
部品1
100
AcDbLine
 10
3858.970589276556
 20
2707.494269174608
 30
0.0
 11
3886.970589276556
 21
2707.494269174608
 31
0.0
  0
LINE
  5
18D63
330
18C7A
100
AcDbEntity
  8
部品1
100
AcDbLine
 10
3858.470589276556
 20
3152.494269174604
 30
0.0
 11
3858.470589276556
 21
2702.494269174608
 31
0.0
  0
LINE
  5
18D64
330
18C7A
100
AcDbEntity
  8
部品1
100
AcDbLine
 10
3886.970589276533
 20
1447.494269174593
 30
0.0
 11
3886.970589276531
 21
1392.494269174596
 31
0.0
  0
LINE
  5
18D65
330
18C7A
100
AcDbEntity
  8
部品1
 48
50.0
100
AcDbLine
 10
3830.470589276556
 20
1448.994269174596
 30
0.0
 11
3858.970589276554
 21
1420.494269174596
 31
0.0
  0
LINE
  5
18D66
330
18C7A
100
AcDbEntity
  8
部品1
100
AcDbLine
 10
3886.970589276531
 20
1392.494269174596
 30
0.0
 11
3835.970589276531
 21
1392.494269174596
 31
0.0
  0
LINE
  5
18D67
330
18C7A
100
AcDbEntity
  8
部品1
100
AcDbLine
 10
3858.970589276533
 20
1447.494269174593
 30
0.0
 11
3886.970589276531
 21
1447.494269174593
 31
0.0
  0
LINE
  5
18D68
330
18C7A
100
AcDbEntity
  8
部品1
100
AcDbLine
 10
3886.970589276556
 20
3182.494269174604
 30
0.0
 11
3886.970589276531
 21
1392.494269174596
 31
0.0
  0
DIMENSION
  5
18D69
330
18C7A
100
AcDbEntity
  8
寸法
100
AcDbDimension
  2
*D12
 10
4534.396935010967
 20
1447.494269174593
 30
0.0
 11
4534.396935010965
 21
2287.4942691746
 31
0.0
 12
-3742.925985830444
 22
-6453.628869860112
 32
0.0
 70
   128
  1
4X420=<>
 71
     5
 42
1680.000000000014
  3
INABA_S40G
100
AcDbAlignedDimension
 13
3886.970589276556
 23
3127.494269174607
 33
0.0
 14
3886.970589276531
 24
1447.494269174593
 34
0.0
 50
90.0
100
AcDbRotatedDimension
1001
ACAD
1000
DSTYLE
1002
{
1002
}
  0
LINE
  5
18D6A
330
18C7A
100
AcDbEntity
  8
部品1
100
AcDbLine
 10
3858.970589276556
 20
3154.494269174604
 30
0.0
 11
3858.970589276534
 21
1420.494269174596
 31
0.0
  0
DIMENSION
  5
18D6B
330
18C7A
100
AcDbEntity
  8
寸法
100
AcDbDimension
  2
*D11
 10
4213.82831513858
 20
2607.276453505718
 30
0.0
 11
4113.828315138579
 21
2832.276453505718
 31
0.0
 12
-3742.925985830444
 22
-6453.628869860112
 32
0.0
 71
     5
 42
449.9999999999963
  3
INABA_S40G
100
AcDbAlignedDimension
 13
3858.470589276556
 23
3152.494269174604
 33
0.0
 14
3858.470589276556
 24
2702.494269174608
 34
0.0
 50
90.0
100
AcDbRotatedDimension
1001
ACAD
1000
DSTYLE
1002
{
1002
}
  0
LINE
  5
18D6C
330
18C7A
100
AcDbEntity
  8
部品1
100
AcDbLine
 10
3830.470589276547
 20
2702.494269174608
 30
0.0
 11
3830.470589276556
 21
1448.994269174596
 31
0.0
  0
LINE
  5
18D6D
330
18C7A
100
AcDbEntity
  8
破線
 48
10.0
100
AcDbLine
 10
3806.970589276549
 20
2702.494269174608
 30
0.0
 11
3806.970589276558
 21
1472.494269174593
 31
0.0
  0
LINE
  5
18D6E
330
18C7A
100
AcDbEntity
  8
部品1
100
AcDbLine
 10
2769.470589276556
 20
3146.494269174608
 30
0.0
 11
2794.470589276556
 21
3146.494269174611
 31
0.0
  0
LINE
  5
18D6F
330
18C7A
100
AcDbEntity
  8
部品1
100
AcDbLine
 10
2810.970589276556
 20
3172.494269174611
 30
0.0
 11
2816.970589276556
 21
3172.494269174611
 31
0.0
  0
LINE
  5
18D70
330
18C7A
100
AcDbEntity
  8
部品1
100
AcDbLine
 10
2816.970589276556
 20
3172.494269174611
 30
0.0
 11
2816.970589276556
 21
3154.494269174611
 31
0.0
  0
LINE
  5
18D71
330
18C7A
100
AcDbEntity
  8
部品1
100
AcDbLine
 10
2746.970589276556
 20
3172.494269174611
 30
0.0
 11
2752.970589276556
 21
3172.494269174611
 31
0.0
  0
LINE
  5
18D72
330
18C7A
100
AcDbEntity
  8
部品1
100
AcDbLine
 10
2746.970589276556
 20
3172.494269174611
 30
0.0
 11
2746.970589276556
 21
3154.494269174611
 31
0.0
  0
LINE
  5
18D73
330
18C7A
100
AcDbEntity
  8
部品1
100
AcDbLine
 10
2769.470589276556
 20
2702.494269174615
 30
0.0
 11
2794.470589276556
 21
2702.494269174615
 31
0.0
  0
LINE
  5
18D74
330
18C7A
100
AcDbEntity
  8
部品1
 48
50.0
100
AcDbLine
 10
2794.470589276556
 20
3154.494269174615
 30
0.0
 11
2794.470589276556
 21
2702.494269174615
 31
0.0
  0
LINE
  5
18D75
330
18C7A
100
AcDbEntity
  8
部品1
 48
50.0
100
AcDbLine
 10
2769.470589276554
 20
3154.494269174618
 30
0.0
 11
2769.470589276556
 21
2702.494269174615
 31
0.0
  0
LINE
  5
18D76
330
18C7A
100
AcDbEntity
  8
部品1
 48
50.0
100
AcDbLine
 10
2795.470589276556
 20
3152.494269174607
 30
0.0
 11
2795.470589276556
 21
2702.494269174615
 31
0.0
  0
LINE
  5
18D77
330
18C7A
100
AcDbEntity
  8
部品1
 48
50.0
100
AcDbLine
 10
2767.470589276556
 20
3152.494269174611
 30
0.0
 11
2767.470589276556
 21
2702.494269174615
 31
0.0
  0
LINE
  5
18D78
330
18C7A
100
AcDbEntity
  8
破線
 48
10.0
100
AcDbLine
 10
2176.97058927653
 20
1448.994269174509
 30
0.0
 11
2176.97058927653
 21
2702.494269174588
 31
0.0
  0
LINE
  5
18D79
330
18C7A
100
AcDbEntity
  8
破線
 48
10.0
100
AcDbLine
 10
2126.970589276534
 20
1448.994269174505
 30
0.0
 11
2126.970589276531
 21
2702.494269174586
 31
0.0
  0
LINE
  5
18D7A
330
18C7A
100
AcDbEntity
  8
部品1
100
AcDbLine
 10
2794.470589276556
 20
3154.494269174622
 30
0.0
 11
3858.970589276556
 21
3154.494269174604
 31
0.0
  0
LINE
  5
18D7B
330
18C7A
100
AcDbEntity
  8
細線
 48
50.0
100
AcDbLine
 10
3858.470589276556
 20
2702.494269174608
 30
0.0
 11
2795.470589276556
 21
3152.494269174607
 31
0.0
  0
LINE
  5
18D7C
330
18C7A
100
AcDbEntity
  8
部品1
100
AcDbLine
 10
2795.470589276555
 20
2702.494269174615
 30
0.0
 11
3858.470589276556
 21
2702.494269174608
 31
0.0
  0
LINE
  5
18D7D
330
18C7A
100
AcDbEntity
  8
部品1
100
AcDbLine
 10
2795.470589276556
 20
3152.494269174611
 30
0.0
 11
3858.470589276556
 21
3152.494269174604
 31
0.0
  0
LINE
  5
18D7E
330
18C7A
100
AcDbEntity
  8
細線
 48
50.0
100
AcDbLine
 10
3858.470589276556
 20
3152.494269174604
 30
0.0
 11
2795.470589276555
 21
2702.494269174615
 31
0.0
  0
DIMENSION
  5
18D7F
330
18C7A
100
AcDbEntity
  8
寸法
100
AcDbDimension
  2
*D10
 10
3801.234916278101
 20
2488.887829538937
 30
0.0
 11
3318.360544398907
 21
2488.887829538937
 31
0.0
 12
-3742.925985830444
 22
-6453.628869860112
 32
0.0
 70
   128
 71
     5
 42
1063.000000000012
  3
INABA_S40G
100
AcDbAlignedDimension
 13
2795.470589276555
 23
2702.494269174615
 33
0.0
 14
3858.470589276567
 24
2702.494269174608
 34
0.0
100
AcDbRotatedDimension
1001
ACAD
1000
DSTYLE
1002
{
1002
}
  0
LINE
  5
18D80
330
18C7A
100
AcDbEntity
  8
破線
 48
10.0
100
AcDbLine
 10
3806.970589276556
 20
1472.494269174594
 30
0.0
 11
3009.47058927653
 21
1472.494269174523
 31
0.0
  0
DIMENSION
  5
18D81
330
18C7A
100
AcDbEntity
  8
寸法
100
AcDbDimension
  2
*D9
 10
4534.396935010941
 20
1392.494269174596
 30
0.0
 11
4534.39693501094
 21
1084.008987800356
 31
0.0
 12
-3742.925985830444
 22
-6453.628869860112
 32
0.0
 70
   128
 71
     5
 42
54.99999999999636
  3
INABA_S40G
100
AcDbAlignedDimension
 13
3886.970589276531
 23
1447.494269174593
 33
0.0
 14
3886.970589276531
 24
1392.494269174596
 34
0.0
 50
90.0
100
AcDbRotatedDimension
1001
ACAD
1000
DSTYLE
1002
{
1002
}
  0
LINE
  5
18D82
330
18C7A
100
AcDbEntity
  8
部品1
100
AcDbLine
 10
471.9705892765196
 20
3182.494269174477
 30
0.0
 11
471.9705892765232
 21
3154.494269174477
 31
0.0
  0
LINE
  5
18D83
330
18C7A
100
AcDbEntity
  8
部品1
100
AcDbLine
 10
471.9705892765559
 20
3182.494269174509
 30
0.0
 11
471.9705892765559
 21
3154.494269174509
 31
0.0
  0
LINE
  5
18D84
330
18C7A
100
AcDbEntity
  8
部品1
100
AcDbLine
 10
444.9705892765232
 20
3127.49426917448
 30
0.0
 11
416.9705892765232
 21
3127.49426917448
 31
0.0
  0
LINE
  5
18D85
330
18C7A
100
AcDbEntity
  8
部品1
100
AcDbLine
 10
444.9705892765305
 20
2707.49426917448
 30
0.0
 11
416.9705892765305
 21
2707.49426917448
 31
0.0
  0
LINE
  5
18D86
330
18C7A
100
AcDbEntity
  8
部品1
 48
50.0
100
AcDbLine
 10
445.4705892765542
 20
3152.494269174506
 30
0.0
 11
445.4705892765559
 21
2702.494269174505
 31
0.0
  0
LINE
  5
18D87
330
18C7A
100
AcDbEntity
  8
部品1
 48
50.0
100
AcDbLine
 10
473.470589276545
 20
1448.994269174573
 30
0.0
 11
444.970589276545
 21
1420.494269174574
 31
0.0
  0
LINE
  5
18D88
330
18C7A
100
AcDbEntity
  8
部品1
100
AcDbLine
 10
471.9705892765232
 20
1392.494269174465
 30
0.0
 11
416.9705892765486
 21
1392.494269174465
 31
0.0
  0
LINE
  5
18D89
330
18C7A
100
AcDbEntity
  8
部品1
100
AcDbLine
 10
444.9705892765305
 20
1447.494269174429
 30
0.0
 11
416.9705892765469
 21
1447.494269174429
 31
0.0
  0
LINE
  5
18D8A
330
18C7A
100
AcDbEntity
  8
部品1
100
AcDbLine
 10
444.9705892765305
 20
1447.494269174465
 30
0.0
 11
416.9705892765469
 21
1447.494269174465
 31
0.0
  0
LINE
  5
18D8B
330
18C7A
100
AcDbEntity
  8
部品1
100
AcDbLine
 10
444.9705892765469
 20
1447.49426917448
 30
0.0
 11
416.9705892765469
 21
1447.49426917448
 31
0.0
  0
LINE
  5
18D8C
330
18C7A
100
AcDbEntity
  8
部品1
100
AcDbLine
 10
416.9705892765469
 20
1447.494269174429
 30
0.0
 11
416.9705892765486
 21
1392.494269174433
 31
0.0
  0
LINE
  5
18D8D
330
18C7A
100
AcDbEntity
  8
部品1
100
AcDbLine
 10
416.9705892765196
 20
3182.494269174477
 30
0.0
 11
416.9705892765486
 21
1392.494269174465
 31
0.0
  0
LINE
  5
18D8E
330
18C7A
100
AcDbEntity
  8
部品1
100
AcDbLine
 10
444.9705892765305
 20
1420.494269174556
 30
0.0
 11
444.9705892765559
 21
3154.494269174509
 31
0.0
  0
LINE
  5
18D8F
330
18C7A
100
AcDbEntity
  8
部品1
100
AcDbLine
 10
473.4705892765323
 20
2702.494269174608
 30
0.0
 11
473.470589276545
 21
1448.994269174571
 31
0.0
  0
LINE
  5
18D90
330
18C7A
100
AcDbEntity
  8
破線
 48
10.0
100
AcDbLine
 10
496.9705892765305
 20
2702.494269174608
 30
0.0
 11
496.9705892765451
 21
1472.494269174476
 31
0.0
  0
DIMENSION
  5
18D91
330
18C7A
100
AcDbEntity
  8
寸法
100
AcDbDimension
  2
*D8
 10
3886.970589276531
 20
410.7433333855515
 30
0.0
 11
2168.197775309287
 21
410.7433333855515
 31
0.0
 12
-3742.925985830444
 22
-6453.628869860112
 32
0.0
 70
   128
 71
     5
 42
3469.999999999982
  3
INABA_S40G
100
AcDbAlignedDimension
 13
416.9705892765486
 23
1392.494269174433
 33
0.0
 14
3886.970589276531
 24
1392.49426917456
 34
0.0
100
AcDbRotatedDimension
1001
ACAD
1000
DSTYLE
1002
{
1070
   341
1005
0
1002
}
  0
LINE
  5
18D92
330
18C7A
100
AcDbEntity
  8
部品1
100
AcDbLine
 10
444.9705892765559
 20
3154.494269174624
 30
0.0
 11
1509.470589276487
 21
3154.494269174626
 31
0.0
  0
LINE
  5
18D93
330
18C7A
100
AcDbEntity
  8
部品1
100
AcDbLine
 10
3886.970589276531
 20
1392.494269174596
 30
0.0
 11
3411.970589276556
 21
1392.494269174582
 31
0.0
  0
LINE
  5
18D94
330
18C7A
100
AcDbEntity
  8
部品1
100
AcDbLine
 10
416.9705892765559
 20
3182.494269174509
 30
0.0
 11
3886.970589276556
 21
3182.494269174604
 31
0.0
  0
LINE
  5
18D95
330
18C7A
100
AcDbEntity
  8
部品1
100
AcDbLine
 10
445.4705892765559
 20
2702.494269174509
 30
0.0
 11
1508.470589276487
 21
2702.494269174558
 31
0.0
  0
LINE
  5
18D96
330
18C7A
100
AcDbEntity
  8
細線
 48
50.0
100
AcDbLine
 10
2767.470589276556
 20
3152.494269174611
 30
0.0
 11
1536.470589276487
 21
2702.494269174558
 31
0.0
  0
LINE
  5
18D97
330
18C7A
100
AcDbEntity
  8
部品1
100
AcDbLine
 10
445.4705892765542
 20
3152.494269174509
 30
0.0
 11
1508.470589276485
 21
3152.494269174558
 31
0.0
  0
LINE
  5
18D98
330
18C7A
100
AcDbEntity
  8
細線
 48
50.0
100
AcDbLine
 10
2767.470589276554
 20
2702.494269174615
 30
0.0
 11
1536.470589276485
 21
3152.494269174558
 31
0.0
  0
LINE
  5
18D99
330
18C7A
100
AcDbEntity
  8
破線
 48
10.0
100
AcDbLine
 10
2126.970589276534
 20
1472.494269174502
 30
0.0
 11
1344.47058927653
 21
1472.494269174473
 31
0.0
  0
LINE
  5
18D9A
330
18C7A
100
AcDbEntity
  8
部品1
100
AcDbLine
 10
3830.470589276556
 20
1448.994269174596
 30
0.0
 11
473.4705892764487
 21
1448.994269174476
 31
0.0
  0
DIMENSION
  5
18D9B
330
18C7A
100
AcDbEntity
  8
寸法
100
AcDbDimension
  2
*D7
 10
471.970589276555
 20
3698.302488799491
 30
0.0
 11
108.4853079022819
 21
3698.302488799491
 31
0.0
 12
-3742.925985830444
 22
-6453.628869860112
 32
0.0
 70
   128
 71
     5
 42
55.00000000003456
  3
INABA_S40G
100
AcDbAlignedDimension
 13
416.9705892765205
 23
3182.494269174509
 33
0.0
 14
471.970589276555
 24
3182.494269174509
 34
0.0
100
AcDbRotatedDimension
1001
ACAD
1000
DSTYLE
1002
{
1002
}
  0
DIMENSION
  5
18D9C
330
18C7A
100
AcDbEntity
  8
寸法
100
AcDbDimension
  2
*D6
 10
4534.396935010967
 20
3127.494269174607
 30
0.0
 11
4534.396935010965
 21
3490.979550548844
 31
0.0
 12
-3742.925985830444
 22
-6453.628869860112
 32
0.0
 70
   128
 71
     5
 42
54.99999999999636
  3
INABA_S40G
100
AcDbAlignedDimension
 13
3886.970589276556
 23
3182.494269174604
 33
0.0
 14
3886.970589276556
 24
3127.494269174607
 34
0.0
 50
90.0
100
AcDbRotatedDimension
1001
ACAD
1000
DSTYLE
1002
{
1002
}
  0
DIMENSION
  5
18D9D
330
18C7A
100
AcDbEntity
  8
寸法
100
AcDbDimension
  2
*D5
 10
3886.970589276556
 20
3698.302488799589
 30
0.0
 11
4195.455870650794
 21
3698.302488799589
 31
0.0
 12
-3742.925985830444
 22
-6453.628869860112
 32
0.0
 70
   128
 71
     5
 42
55.0
  3
INABA_S40G
100
AcDbAlignedDimension
 13
3831.970589276556
 23
3182.494269174604
 33
0.0
 14
3886.970589276556
 24
3182.494269174604
 34
0.0
100
AcDbRotatedDimension
1001
ACAD
1000
DSTYLE
1002
{
1002
}
  0
DIMENSION
  5
18D9E
330
18C7A
100
AcDbEntity
  8
寸法
100
AcDbDimension
  2
*D4
 10
3831.970589276556
 20
3698.302488799607
 30
0.0
 11
2151.970589276555
 21
3698.302488799607
 31
0.0
 12
-3742.925985830444
 22
-6453.628869860112
 32
0.0
 70
   128
  1
8X420=<>
 71
     5
 42
3360.000000000001
  3
INABA_S40G
100
AcDbAlignedDimension
 13
471.970589276555
 23
3182.494269174509
 33
0.0
 14
3831.970589276556
 24
3182.494269174604
 34
0.0
100
AcDbRotatedDimension
1001
ACAD
1000
DSTYLE
1002
{
1002
}
  0
DIMENSION
  5
18D9F
330
18C7A
100
AcDbEntity
  8
寸法
100
AcDbDimension
  2
*D3
 10
4899.503876750603
 20
1392.494269174596
 30
0.0
 11
4899.503876750601
 21
2287.4942691746
 31
0.0
 12
-3742.925985830444
 22
-6453.628869860112
 32
0.0
 70
   128
 71
     5
 42
1790.000000000007
  3
INABA_S40G
100
AcDbAlignedDimension
 13
3886.970589276556
 23
3182.494269174604
 33
0.0
 14
3886.970589276531
 24
1392.494269174596
 34
0.0
 50
90.0
100
AcDbRotatedDimension
1001
ACAD
1000
DSTYLE
1002
{
1002
}
  0
ENDBLK
  5
18DA1
330
18C7A
100
AcDbEntity
  8
0
 48
50.0
100
AcDbBlockEnd
  0
BLOCK
  5
1C4CB
330
1C4CA
100
AcDbEntity
  8
0
 48
50.0
100
AcDbBlockBegin
  2
_NONE
 70
     0
 10
0.0
 20
0.0
 30
0.0
  3
_NONE
  1

  0
CIRCLE
  5
1C4CC
330
1C4CA
100
AcDbEntity
  8
0
  6
ByBlock
 62
     0
 48
50.0
100
AcDbCircle
 10
0.0
 20
0.0
 30
0.0
 40
0.25
  0
ENDBLK
  5
1C4CD
330
1C4CA
100
AcDbEntity
  8
0
 48
50.0
100
AcDbBlockEnd
  0
BLOCK
  5
1E36A
330
1E35F
100
AcDbEntity
  8
0
 48
50.0
100
AcDbBlockBegin
  2
*D19
 70
     1
 10
0.0
 20
0.0
 30
0.0
  3
*D19
  1

  0
LINE
  5
1F723
330
1E35F
100
AcDbEntity
  8
寸法
 62
     0
 48
50.0
370
    -2
100
AcDbLine
 10
9251.100000000002
 20
8210.515881902614
 30
0.0
 11
9583.225435690621
 21
8210.515881902614
 31
0.0
  0
LINE
  5
1F724
330
1E35F
100
AcDbEntity
  8
寸法
 62
     0
 48
50.0
370
    -2
100
AcDbLine
 10
9251.1
 20
8330.515881902615
 30
0.0
 11
9583.225435690621
 21
8330.515881902615
 31
0.0
  0
LINE
  5
1F725
330
1E35F
100
AcDbEntity
  8
寸法
 62
     0
 48
50.0
370
    -2
100
AcDbLine
 10
9523.225435690621
 20
8210.515881902614
 30
0.0
 11
9523.225435690621
 21
8330.515881902615
 31
0.0
  0
LINE
  5
1F726
330
1E35F
100
AcDbEntity
  8
寸法
 62
     0
 48
50.0
370
    -2
100
AcDbLine
 10
9523.225435690621
 20
8330.515881902615
 30
0.0
 11
9523.225435690621
 21
8702.610370091592
 31
0.0
  0
INSERT
  5
1F727
330
1E35F
100
AcDbEntity
  8
寸法
 62
     0
 48
50.0
370
    -2
100
AcDbBlockReference
  2
_DOTSMALL
 10
9523.225435690621
 20
8210.515881902614
 30
0.0
 41
100.0
 42
100.0
 43
100.0
 50
270.0
  0
INSERT
  5
1F728
330
1E35F
100
AcDbEntity
  8
寸法
 62
     0
 48
50.0
370
    -2
100
AcDbBlockReference
  2
_DOTSMALL
 10
9523.225435690621
 20
8330.515881902615
 30
0.0
 41
100.0
 42
100.0
 43
100.0
 50
90.0
  0
MTEXT
  5
1F729
330
1E35F
100
AcDbEntity
  8
寸法
 62
     7
 48
50.0
100
AcDbMText
 10
9423.213624666997
 20
8566.563125997104
 30
0.0
 40
120.0
 41
0.0
 71
     5
 72
     1
  1
\A1;120
  7
STYLE1
 11
0.0000000000000001
 21
1.0
 31
0.0
 73
     1
 44
1.0
1001
ACAD
1000
MTEXTBEGIN
1070
    73
1070
     1
1070
    44
1040
1.0
1070
    74
1070
     0
1000
MTEXTEND
  0
POINT
  5
1F72A
330
1E35F
100
AcDbEntity
  8
DEFPOINTS
 62
     0
 48
50.0
100
AcDbPoint
 10
9231.100000000003
 20
8210.515881902614
 30
0.0
  0
POINT
  5
1F72B
330
1E35F
100
AcDbEntity
  8
DEFPOINTS
 62
     0
 48
50.0
100
AcDbPoint
 10
9231.100000000001
 20
8330.515881902615
 30
0.0
  0
POINT
  5
1F72C
330
1E35F
100
AcDbEntity
  8
DEFPOINTS
 62
     0
 48
50.0
100
AcDbPoint
 10
9523.225435690621
 20
8330.515881902615
 30
0.0
  0
ENDBLK
  5
1E36B
330
1E35F
100
AcDbEntity
  8
0
 48
50.0
100
AcDbBlockEnd
  0
BLOCK
  5
1E376
330
1E36C
100
AcDbEntity
  8
0
 48
50.0
100
AcDbBlockBegin
  2
*D20
 70
     1
 10
0.0
 20
0.0
 30
0.0
  3
*D20
  1

  0
LINE
  5
1EF41
330
1E36C
100
AcDbEntity
  8
寸法
 62
     0
 48
50.0
370
    -2
100
AcDbLine
 10
8140.6
 20
8355.515881902615
 30
0.0
 11
8140.6
 21
9136.275508444699
 31
0.0
  0
LINE
  5
1EF42
330
1E36C
100
AcDbEntity
  8
寸法
 62
     0
 48
50.0
370
    -2
100
AcDbLine
 10
6453.6
 20
8300.515881902615
 30
0.0
 11
6453.6
 21
9136.275508444699
 31
0.0
  0
LINE
  5
1EF43
330
1E36C
100
AcDbEntity
  8
寸法
 62
     0
 48
50.0
370
    -2
100
AcDbLine
 10
8140.6
 20
9076.275508444698
 30
0.0
 11
6453.6
 21
9076.275508444698
 31
0.0
  0
INSERT
  5
1EF44
330
1E36C
100
AcDbEntity
  8
寸法
 62
     0
 48
50.0
370
    -2
100
AcDbBlockReference
  2
_DOTSMALL
 10
8140.6
 20
9076.275508444698
 30
0.0
 41
100.0
 42
100.0
 43
100.0
  0
INSERT
  5
1EF45
330
1E36C
100
AcDbEntity
  8
寸法
 62
     0
 48
50.0
370
    -2
100
AcDbBlockReference
  2
_DOTSMALL
 10
6453.6
 20
9076.275508444698
 30
0.0
 41
100.0
 42
100.0
 43
100.0
 50
180.0
  0
MTEXT
  5
1EF46
330
1E36C
100
AcDbEntity
  8
寸法
 62
     7
 48
50.0
100
AcDbMText
 10
7297.1
 20
9176.275508444698
 30
0.0
 40
120.0
 41
0.0
 71
     5
 72
     1
  1
\A1;1687
  7
STYLE1
 73
     1
 44
1.0
1001
ACAD
1000
MTEXTBEGIN
1070
    73
1070
     1
1070
    44
1040
1.0
1070
    74
1070
     0
1000
MTEXTEND
  0
POINT
  5
1EF47
330
1E36C
100
AcDbEntity
  8
DEFPOINTS
 62
     0
 48
50.0
100
AcDbPoint
 10
8140.6
 20
8335.515881902614
 30
0.0
  0
POINT
  5
1EF48
330
1E36C
100
AcDbEntity
  8
DEFPOINTS
 62
     0
 48
50.0
100
AcDbPoint
 10
6453.6
 20
8280.515881902614
 30
0.0
  0
POINT
  5
1EF49
330
1E36C
100
AcDbEntity
  8
DEFPOINTS
 62
     0
 48
50.0
100
AcDbPoint
 10
6453.6
 20
9076.275508444698
 30
0.0
  0
ENDBLK
  5
1E377
330
1E36C
100
AcDbEntity
  8
0
 48
50.0
100
AcDbBlockEnd
  0
BLOCK
  5
1E381
330
1E378
100
AcDbEntity
  8
0
 48
50.0
100
AcDbBlockBegin
  2
*D21
 70
     1
 10
0.0
 20
0.0
 30
0.0
  3
*D21
  1

  0
LINE
  5
1EF38
330
1E378
100
AcDbEntity
  8
寸法
 62
     0
 48
50.0
370
    -2
100
AcDbLine
 10
6408.599999999999
 20
8350.515881902614
 30
0.0
 11
6408.599999999999
 21
9348.736203961534
 31
0.0
  0
LINE
  5
1EF39
330
1E378
100
AcDbEntity
  8
寸法
 62
     0
 48
50.0
370
    -2
100
AcDbLine
 10
10038.6
 20
8350.515881902614
 30
0.0
 11
10038.6
 21
9348.736203961534
 31
0.0
  0
LINE
  5
1EF3A
330
1E378
100
AcDbEntity
  8
寸法
 62
     0
 48
50.0
370
    -2
100
AcDbLine
 10
6408.599999999999
 20
9288.736203961535
 30
0.0
 11
10038.6
 21
9288.736203961535
 31
0.0
  0
INSERT
  5
1EF3B
330
1E378
100
AcDbEntity
  8
寸法
 62
     0
 48
50.0
370
    -2
100
AcDbBlockReference
  2
_DOTSMALL
 10
6408.599999999999
 20
9288.736203961535
 30
0.0
 41
100.0
 42
100.0
 43
100.0
 50
180.0
  0
INSERT
  5
1EF3C
330
1E378
100
AcDbEntity
  8
寸法
 62
     0
 48
50.0
370
    -2
100
AcDbBlockReference
  2
_DOTSMALL
 10
10038.6
 20
9288.736203961535
 30
0.0
 41
100.0
 42
100.0
 43
100.0
  0
MTEXT
  5
1EF3D
330
1E378
100
AcDbEntity
  8
寸法
 62
     7
 48
50.0
100
AcDbMText
 10
8223.600000000001
 20
9388.736203961535
 30
0.0
 40
120.0
 41
0.0
 71
     5
 72
     1
  1
\A1;3630
  7
STYLE1
 73
     1
 44
1.0
1001
ACAD
1000
MTEXTBEGIN
1070
    73
1070
     1
1070
    44
1040
1.0
1070
    74
1070
     0
1000
MTEXTEND
  0
POINT
  5
1EF3E
330
1E378
100
AcDbEntity
  8
DEFPOINTS
 62
     0
 48
50.0
100
AcDbPoint
 10
6408.599999999999
 20
8330.515881902615
 30
0.0
  0
POINT
  5
1EF3F
330
1E378
100
AcDbEntity
  8
DEFPOINTS
 62
     0
 48
50.0
100
AcDbPoint
 10
10038.6
 20
8330.515881902615
 30
0.0
  0
POINT
  5
1EF40
330
1E378
100
AcDbEntity
  8
DEFPOINTS
 62
     0
 48
50.0
100
AcDbPoint
 10
10038.6
 20
9288.736203961535
 30
0.0
  0
ENDBLK
  5
1E382
330
1E378
100
AcDbEntity
  8
0
 48
50.0
100
AcDbBlockEnd
  0
BLOCK
  5
1E38D
330
1E383
100
AcDbEntity
  8
0
 48
50.0
100
AcDbBlockBegin
  2
*D22
 70
     1
 10
0.0
 20
0.0
 30
0.0
  3
*D22
  1

  0
LINE
  5
1F0A4
330
1E383
100
AcDbEntity
  8
寸法
 62
     0
 48
50.0
370
    -2
100
AcDbLine
 10
6408.599999999999
 20
7688.333895768541
 30
0.0
 11
6408.599999999999
 21
7807.827086291239
 31
0.0
  0
LINE
  5
1F0A5
330
1E383
100
AcDbEntity
  8
寸法
 62
     0
 48
50.0
370
    -2
100
AcDbLine
 10
8223.600000000001
 20
7540.515881902614
 30
0.0
 11
8223.600000000001
 21
7807.827086291239
 31
0.0
  0
LINE
  5
1F0A6
330
1E383
100
AcDbEntity
  8
寸法
 62
     0
 48
50.0
370
    -2
100
AcDbLine
 10
6408.599999999999
 20
7747.827086291239
 30
0.0
 11
8223.600000000001
 21
7747.827086291239
 31
0.0
  0
INSERT
  5
1F0A7
330
1E383
100
AcDbEntity
  8
寸法
 62
     0
 48
50.0
370
    -2
100
AcDbBlockReference
  2
_DOTSMALL
 10
6408.599999999999
 20
7747.827086291239
 30
0.0
 41
100.0
 42
100.0
 43
100.0
 50
180.0
  0
INSERT
  5
1F0A8
330
1E383
100
AcDbEntity
  8
寸法
 62
     0
 48
50.0
370
    -2
100
AcDbBlockReference
  2
_DOTSMALL
 10
8223.600000000001
 20
7747.827086291239
 30
0.0
 41
100.0
 42
100.0
 43
100.0
  0
MTEXT
  5
1F0A9
330
1E383
100
AcDbEntity
  8
寸法
 62
     7
 48
50.0
100
AcDbMText
 10
7316.1
 20
7847.827086291239
 30
0.0
 40
120.0
 41
0.0
 71
     5
 72
     1
  1
\A1;1815
  7
STYLE1
 73
     1
 44
1.0
1001
ACAD
1000
MTEXTBEGIN
1070
    73
1070
     1
1070
    44
1040
1.0
1070
    74
1070
     0
1000
MTEXTEND
  0
POINT
  5
1F0AA
330
1E383
100
AcDbEntity
  8
DEFPOINTS
 62
     0
 48
50.0
100
AcDbPoint
 10
6408.599999999999
 20
7668.33389576854
 30
0.0
  0
POINT
  5
1F0AB
330
1E383
100
AcDbEntity
  8
DEFPOINTS
 62
     0
 48
50.0
100
AcDbPoint
 10
8223.600000000001
 20
7520.515881902615
 30
0.0
  0
POINT
  5
1F0AC
330
1E383
100
AcDbEntity
  8
DEFPOINTS
 62
     0
 48
50.0
100
AcDbPoint
 10
8223.600000000001
 20
7747.827086291239
 30
0.0
  0
ENDBLK
  5
1E38E
330
1E383
100
AcDbEntity
  8
0
 48
50.0
100
AcDbBlockEnd
  0
BLOCK
  5
1E399
330
1E38F
100
AcDbEntity
  8
0
 48
50.0
100
AcDbBlockBegin
  2
*D23
 70
     1
 10
0.0
 20
0.0
 30
0.0
  3
*D23
  1

  0
LINE
  5
1EF72
330
1E38F
100
AcDbEntity
  8
寸法
 62
     0
 48
50.0
370
    -2
100
AcDbLine
 10
6383.600000000001
 20
8230.515881902615
 30
0.0
 11
5852.657733986179
 21
8230.515881902615
 31
0.0
  0
LINE
  5
1EF73
330
1E38F
100
AcDbEntity
  8
寸法
 62
     0
 48
50.0
370
    -2
100
AcDbLine
 10
6383.600000000001
 20
5770.515881902617
 30
0.0
 11
5852.657733986178
 21
5770.515881902618
 31
0.0
  0
LINE
  5
1EF74
330
1E38F
100
AcDbEntity
  8
寸法
 62
     0
 48
50.0
370
    -2
100
AcDbLine
 10
5912.657733986179
 20
8230.515881902615
 30
0.0
 11
5912.657733986178
 21
5770.515881902618
 31
0.0
  0
INSERT
  5
1EF75
330
1E38F
100
AcDbEntity
  8
寸法
 62
     0
 48
50.0
370
    -2
100
AcDbBlockReference
  2
_DOTSMALL
 10
5912.657733986179
 20
8230.515881902615
 30
0.0
 41
100.0
 42
100.0
 43
100.0
 50
90.0
  0
INSERT
  5
1EF76
330
1E38F
100
AcDbEntity
  8
寸法
 62
     0
 48
50.0
370
    -2
100
AcDbBlockReference
  2
_DOTSMALL
 10
5912.657733986178
 20
5770.515881902618
 30
0.0
 41
100.0
 42
100.0
 43
100.0
 50
270.0
  0
MTEXT
  5
1EF77
330
1E38F
100
AcDbEntity
  8
寸法
 62
     7
 48
50.0
100
AcDbMText
 10
5812.645922962555
 20
7000.515881902618
 30
0.0
 40
120.0
 41
0.0
 71
     5
 72
     1
  1
\A1;2460
  7
STYLE1
 11
0.0000000000000001
 21
1.0
 31
0.0
 73
     1
 44
1.0
1001
ACAD
1000
MTEXTBEGIN
1070
    73
1070
     1
1070
    44
1040
1.0
1070
    74
1070
     0
1000
MTEXTEND
  0
POINT
  5
1EF78
330
1E38F
100
AcDbEntity
  8
DEFPOINTS
 62
     0
 48
50.0
100
AcDbPoint
 10
6403.6
 20
8230.515881902615
 30
0.0
  0
POINT
  5
1EF79
330
1E38F
100
AcDbEntity
  8
DEFPOINTS
 62
     0
 48
50.0
100
AcDbPoint
 10
6403.6
 20
5770.515881902617
 30
0.0
  0
POINT
  5
1EF7A
330
1E38F
100
AcDbEntity
  8
DEFPOINTS
 62
     0
 48
50.0
100
AcDbPoint
 10
5912.657733986178
 20
5770.515881902618
 30
0.0
  0
ENDBLK
  5
1E39A
330
1E38F
100
AcDbEntity
  8
0
 48
50.0
100
AcDbBlockEnd
  0
BLOCK
  5
1E3A5
330
1E39B
100
AcDbEntity
  8
0
 48
50.0
100
AcDbBlockBegin
  2
*D24
 70
     1
 10
0.0
 20
0.0
 30
0.0
  3
*D24
  1

  0
LINE
  5
1F0F2
330
1E39B
100
AcDbEntity
  8
寸法
 62
     0
 48
50.0
370
    -2
100
AcDbLine
 10
7045.6
 20
7420.515881902615
 30
0.0
 11
6773.065724304527
 21
7420.515881902615
 31
0.0
  0
LINE
  5
1F0F3
330
1E39B
100
AcDbEntity
  8
寸法
 62
     0
 48
50.0
370
    -2
100
AcDbLine
 10
7196.1
 20
8330.515881902615
 30
0.0
 11
6773.065724304527
 21
8330.515881902615
 31
0.0
  0
LINE
  5
1F0F4
330
1E39B
100
AcDbEntity
  8
寸法
 62
     0
 48
50.0
370
    -2
100
AcDbLine
 10
6833.065724304526
 20
7420.515881902615
 30
0.0
 11
6833.065724304526
 21
8330.515881902615
 31
0.0
  0
INSERT
  5
1F0F5
330
1E39B
100
AcDbEntity
  8
寸法
 62
     0
 48
50.0
370
    -2
100
AcDbBlockReference
  2
_DOTSMALL
 10
6833.065724304526
 20
7420.515881902615
 30
0.0
 41
100.0
 42
100.0
 43
100.0
 50
270.0
  0
INSERT
  5
1F0F6
330
1E39B
100
AcDbEntity
  8
寸法
 62
     0
 48
50.0
370
    -2
100
AcDbBlockReference
  2
_DOTSMALL
 10
6833.065724304526
 20
8330.515881902615
 30
0.0
 41
100.0
 42
100.0
 43
100.0
 50
90.0
  0
MTEXT
  5
1F0F7
330
1E39B
100
AcDbEntity
  8
寸法
 62
     7
 48
50.0
100
AcDbMText
 10
6733.065724304527
 20
7875.515881902614
 30
0.0
 40
120.0
 41
0.0
 71
     5
 72
     1
  1
\A1;910
  7
STYLE1
 11
0.0000000000000001
 21
1.0
 31
0.0
 73
     1
 44
1.0
1001
ACAD
1000
MTEXTBEGIN
1070
    73
1070
     1
1070
    44
1040
1.0
1070
    74
1070
     0
1000
MTEXTEND
  0
POINT
  5
1F0F8
330
1E39B
100
AcDbEntity
  8
DEFPOINTS
 62
     0
 48
50.0
100
AcDbPoint
 10
7065.6
 20
7420.515881902615
 30
0.0
  0
POINT
  5
1F0F9
330
1E39B
100
AcDbEntity
  8
DEFPOINTS
 62
     0
 48
50.0
100
AcDbPoint
 10
7216.1
 20
8330.515881902615
 30
0.0
  0
POINT
  5
1F0FA
330
1E39B
100
AcDbEntity
  8
DEFPOINTS
 62
     0
 48
50.0
100
AcDbPoint
 10
6833.065724304526
 20
8330.515881902615
 30
0.0
  0
ENDBLK
  5
1E3A6
330
1E39B
100
AcDbEntity
  8
0
 48
50.0
100
AcDbBlockEnd
  0
BLOCK
  5
1E3B0
330
1E3A7
100
AcDbEntity
  8
0
 48
50.0
100
AcDbBlockBegin
  2
*D25
 70
     1
 10
0.0
 20
0.0
 30
0.0
  3
*D25
  1

  0
LINE
  5
1EF69
330
1E3A7
100
AcDbEntity
  8
寸法
 62
     0
 48
50.0
370
    -2
100
AcDbLine
 10
6388.6
 20
8330.515881902615
 30
0.0
 11
5607.164931848211
 21
8330.515881902615
 31
0.0
  0
LINE
  5
1EF6A
330
1E3A7
100
AcDbEntity
  8
寸法
 62
     0
 48
50.0
370
    -2
100
AcDbLine
 10
6388.6
 20
5670.515881902614
 30
0.0
 11
5607.164931848211
 21
5670.515881902616
 31
0.0
  0
LINE
  5
1EF6B
330
1E3A7
100
AcDbEntity
  8
寸法
 62
     0
 48
50.0
370
    -2
100
AcDbLine
 10
5667.164931848212
 20
8330.515881902615
 30
0.0
 11
5667.16493184821
 21
5670.515881902616
 31
0.0
  0
INSERT
  5
1EF6C
330
1E3A7
100
AcDbEntity
  8
寸法
 62
     0
 48
50.0
370
    -2
100
AcDbBlockReference
  2
_DOTSMALL
 10
5667.164931848212
 20
8330.515881902615
 30
0.0
 41
100.0
 42
100.0
 43
100.0
 50
90.0
  0
INSERT
  5
1EF6D
330
1E3A7
100
AcDbEntity
  8
寸法
 62
     0
 48
50.0
370
    -2
100
AcDbBlockReference
  2
_DOTSMALL
 10
5667.16493184821
 20
5670.515881902616
 30
0.0
 41
100.0
 42
100.0
 43
100.0
 50
270.0
  0
MTEXT
  5
1EF6E
330
1E3A7
100
AcDbEntity
  8
寸法
 62
     7
 48
50.0
100
AcDbMText
 10
5567.153120824588
 20
7000.515881902616
 30
0.0
 40
120.0
 41
0.0
 71
     5
 72
     1
  1
\A1;2660
  7
STYLE1
 11
0.0000000000000001
 21
1.0
 31
0.0
 73
     1
 44
1.0
1001
ACAD
1000
MTEXTBEGIN
1070
    73
1070
     1
1070
    44
1040
1.0
1070
    74
1070
     0
1000
MTEXTEND
  0
POINT
  5
1EF6F
330
1E3A7
100
AcDbEntity
  8
DEFPOINTS
 62
     0
 48
50.0
100
AcDbPoint
 10
6408.599999999999
 20
8330.515881902615
 30
0.0
  0
POINT
  5
1EF70
330
1E3A7
100
AcDbEntity
  8
DEFPOINTS
 62
     0
 48
50.0
100
AcDbPoint
 10
6408.599999999999
 20
5670.515881902614
 30
0.0
  0
POINT
  5
1EF71
330
1E3A7
100
AcDbEntity
  8
DEFPOINTS
 62
     0
 48
50.0
100
AcDbPoint
 10
5667.16493184821
 20
5670.515881902616
 30
0.0
  0
ENDBLK
  5
1E3B1
330
1E3A7
100
AcDbEntity
  8
0
 48
50.0
100
AcDbBlockEnd
  0
BLOCK
  5
1E3BD
330
1E3B2
100
AcDbEntity
  8
0
 48
50.0
100
AcDbBlockBegin
  2
*D26
 70
     1
 10
0.0
 20
0.0
 30
0.0
  3
*D26
  1

  0
LINE
  5
1EF86
330
1E3B2
100
AcDbEntity
  8
寸法
 62
     0
 48
50.0
370
    -2
100
AcDbLine
 10
6383.600000000001
 20
5770.515881902617
 30
0.0
 11
5852.657733986179
 21
5770.515881902618
 31
0.0
  0
LINE
  5
1EF87
330
1E3B2
100
AcDbEntity
  8
寸法
 62
     0
 48
50.0
370
    -2
100
AcDbLine
 10
6388.6
 20
5670.515881902614
 30
0.0
 11
5852.657733986179
 21
5670.515881902616
 31
0.0
  0
LINE
  5
1EF88
330
1E3B2
100
AcDbEntity
  8
寸法
 62
     0
 48
50.0
370
    -2
100
AcDbLine
 10
5912.657733986179
 20
5770.515881902618
 30
0.0
 11
5912.657733986179
 21
5670.515881902616
 31
0.0
  0
LINE
  5
1EF89
330
1E3B2
100
AcDbEntity
  8
寸法
 62
     0
 48
50.0
370
    -2
100
AcDbLine
 10
5912.657733986179
 20
5670.515881902616
 30
0.0
 11
5912.657733986179
 21
5169.409582690016
 31
0.0
  0
INSERT
  5
1EF8A
330
1E3B2
100
AcDbEntity
  8
寸法
 62
     0
 48
50.0
370
    -2
100
AcDbBlockReference
  2
_DOTSMALL
 10
5912.657733986179
 20
5770.515881902618
 30
0.0
 41
100.0
 42
100.0
 43
100.0
 50
90.0
  0
INSERT
  5
1EF8B
330
1E3B2
100
AcDbEntity
  8
寸法
 62
     0
 48
50.0
370
    -2
100
AcDbBlockReference
  2
_DOTSMALL
 10
5912.657733986179
 20
5670.515881902616
 30
0.0
 41
100.0
 42
100.0
 43
100.0
 50
270.0
  0
MTEXT
  5
1EF8C
330
1E3B2
100
AcDbEntity
  8
寸法
 62
     7
 48
50.0
100
AcDbMText
 10
5812.657733986178
 20
5305.456826784504
 30
0.0
 40
120.0
 41
0.0
 71
     5
 72
     1
  1
\A1;100
  7
STYLE1
 11
0.0000000000000001
 21
1.0
 31
0.0
 73
     1
 44
1.0
1001
ACAD
1000
MTEXTBEGIN
1070
    73
1070
     1
1070
    44
1040
1.0
1070
    74
1070
     0
1000
MTEXTEND
  0
POINT
  5
1EF8D
330
1E3B2
100
AcDbEntity
  8
DEFPOINTS
 62
     0
 48
50.0
100
AcDbPoint
 10
6403.6
 20
5770.515881902617
 30
0.0
  0
POINT
  5
1EF8E
330
1E3B2
100
AcDbEntity
  8
DEFPOINTS
 62
     0
 48
50.0
100
AcDbPoint
 10
6408.599999999999
 20
5670.515881902614
 30
0.0
  0
POINT
  5
1EF8F
330
1E3B2
100
AcDbEntity
  8
DEFPOINTS
 62
     0
 48
50.0
100
AcDbPoint
 10
5912.657733986179
 20
5670.515881902616
 30
0.0
  0
ENDBLK
  5
1E3BE
330
1E3B2
100
AcDbEntity
  8
0
 48
50.0
100
AcDbBlockEnd
  0
BLOCK
  5
1E3C7
330
1E3BF
100
AcDbEntity
  8
0
 48
50.0
100
AcDbBlockBegin
  2
*D27
 70
     1
 10
0.0
 20
0.0
 30
0.0
  3
*D27
  1

  0
LINE
  5
1EF7B
330
1E3BF
100
AcDbEntity
  8
寸法
 62
     0
 48
50.0
370
    -2
100
AcDbLine
 10
6388.6
 20
5670.515881902614
 30
0.0
 11
5607.164931848211
 21
5670.515881902616
 31
0.0
  0
LINE
  5
1EF7C
330
1E3BF
100
AcDbEntity
  8
寸法
 62
     0
 48
50.0
370
    -2
100
AcDbLine
 10
5892.657733986178
 20
5570.515881902615
 30
0.0
 11
5607.164931848211
 21
5570.515881902615
 31
0.0
  0
LINE
  5
1EF7D
330
1E3BF
100
AcDbEntity
  8
寸法
 62
     0
 48
50.0
370
    -2
100
AcDbLine
 10
5667.16493184821
 20
5670.515881902616
 30
0.0
 11
5667.16493184821
 21
5770.515881902616
 31
0.0
  0
LINE
  5
1EF7E
330
1E3BF
100
AcDbEntity
  8
寸法
 62
     0
 48
50.0
370
    -2
100
AcDbLine
 10
5667.16493184821
 20
5570.515881902615
 30
0.0
 11
5667.16493184821
 21
5470.515881902614
 31
0.0
  0
LINE
  5
1EF7F
330
1E3BF
100
AcDbEntity
  8
寸法
 62
     0
 48
50.0
370
    -2
100
AcDbLine
 10
5667.16493184821
 20
5670.515881902616
 30
0.0
 11
5667.16493184821
 21
5570.515881902615
 31
0.0
  0
INSERT
  5
1EF80
330
1E3BF
100
AcDbEntity
  8
寸法
 62
     0
 48
50.0
370
    -2
100
AcDbBlockReference
  2
_DOTSMALL
 10
5667.16493184821
 20
5670.515881902616
 30
0.0
 41
100.0
 42
100.0
 43
100.0
 50
270.0
  0
INSERT
  5
1EF81
330
1E3BF
100
AcDbEntity
  8
寸法
 62
     0
 48
50.0
370
    -2
100
AcDbBlockReference
  2
_DOTSMALL
 10
5667.16493184821
 20
5570.515881902615
 30
0.0
 41
100.0
 42
100.0
 43
100.0
 50
90.0
  0
MTEXT
  5
1EF82
330
1E3BF
100
AcDbEntity
  8
寸法
 62
     7
 48
50.0
100
AcDbMText
 10
5567.16493184821
 20
5620.515881902616
 30
0.0
 40
120.0
 41
0.0
 71
     5
 72
     1
  1
\A1;a
  7
STYLE1
 11
0.0000000000000001
 21
1.0
 31
0.0
 73
     1
 44
1.0
1001
ACAD
1000
MTEXTBEGIN
1070
    73
1070
     1
1070
    44
1040
1.0
1070
    74
1070
     0
1000
MTEXTEND
  0
POINT
  5
1EF83
330
1E3BF
100
AcDbEntity
  8
DEFPOINTS
 62
     0
 48
50.0
100
AcDbPoint
 10
6408.599999999999
 20
5670.515881902614
 30
0.0
  0
POINT
  5
1EF84
330
1E3BF
100
AcDbEntity
  8
DEFPOINTS
 62
     0
 48
50.0
100
AcDbPoint
 10
5912.657733986178
 20
5570.515881902615
 30
0.0
  0
POINT
  5
1EF85
330
1E3BF
100
AcDbEntity
  8
DEFPOINTS
 62
     0
 48
50.0
100
AcDbPoint
 10
5667.16493184821
 20
5570.515881902615
 30
0.0
  0
ENDBLK
  5
1E3C8
330
1E3BF
100
AcDbEntity
  8
0
 48
50.0
100
AcDbBlockEnd
  0
BLOCK
  5
1E3D3
330
1E3C9
100
AcDbEntity
  8
0
 48
50.0
100
AcDbBlockBegin
  2
*D28
 70
     1
 10
0.0
 20
0.0
 30
0.0
  3
*D28
  1

  0
LINE
  5
1EFDF
330
1E3C9
100
AcDbEntity
  8
寸法
 62
     0
 48
50.0
370
    -2
100
AcDbLine
 10
7045.6
 20
6580.515881902623
 30
0.0
 11
6773.065724304526
 21
6580.515881902623
 31
0.0
  0
LINE
  5
1EFE0
330
1E3C9
100
AcDbEntity
  8
寸法
 62
     0
 48
50.0
370
    -2
100
AcDbLine
 10
7045.6
 20
7420.515881902615
 30
0.0
 11
6773.065724304526
 21
7420.515881902615
 31
0.0
  0
LINE
  5
1EFE1
330
1E3C9
100
AcDbEntity
  8
寸法
 62
     0
 48
50.0
370
    -2
100
AcDbLine
 10
6833.065724304526
 20
6580.515881902623
 30
0.0
 11
6833.065724304526
 21
7420.515881902615
 31
0.0
  0
INSERT
  5
1EFE2
330
1E3C9
100
AcDbEntity
  8
寸法
 62
     0
 48
50.0
370
    -2
100
AcDbBlockReference
  2
_DOTSMALL
 10
6833.065724304526
 20
6580.515881902623
 30
0.0
 41
100.0
 42
100.0
 43
100.0
 50
270.0
  0
INSERT
  5
1EFE3
330
1E3C9
100
AcDbEntity
  8
寸法
 62
     0
 48
50.0
370
    -2
100
AcDbBlockReference
  2
_DOTSMALL
 10
6833.065724304526
 20
7420.515881902615
 30
0.0
 41
100.0
 42
100.0
 43
100.0
 50
90.0
  0
MTEXT
  5
1EFE4
330
1E3C9
100
AcDbEntity
  8
寸法
 62
     7
 48
50.0
100
AcDbMText
 10
6733.065724304523
 20
7000.515881902621
 30
0.0
 40
120.0
 41
0.0
 71
     5
 72
     1
  1
\A1;840
  7
STYLE1
 11
0.0000000000000001
 21
1.0
 31
0.0
 73
     1
 44
1.0
1001
ACAD
1000
MTEXTBEGIN
1070
    73
1070
     1
1070
    44
1040
1.0
1070
    74
1070
     0
1000
MTEXTEND
  0
POINT
  5
1EFE5
330
1E3C9
100
AcDbEntity
  8
DEFPOINTS
 62
     0
 48
50.0
100
AcDbPoint
 10
7065.6
 20
6580.515881902623
 30
0.0
  0
POINT
  5
1EFE6
330
1E3C9
100
AcDbEntity
  8
DEFPOINTS
 62
     0
 48
50.0
100
AcDbPoint
 10
7065.6
 20
7420.515881902615
 30
0.0
  0
POINT
  5
1EFE7
330
1E3C9
100
AcDbEntity
  8
DEFPOINTS
 62
     0
 48
50.0
100
AcDbPoint
 10
6833.065724304526
 20
7420.515881902615
 30
0.0
  0
ENDBLK
  5
1E3D4
330
1E3C9
100
AcDbEntity
  8
0
 48
50.0
100
AcDbBlockEnd
  0
BLOCK
  5
1E3DF
330
1E3D5
100
AcDbEntity
  8
0
 48
50.0
100
AcDbBlockBegin
  2
*D29
 70
     1
 10
0.0
 20
0.0
 30
0.0
  3
*D29
  1

  0
LINE
  5
1F0E9
330
1E3D5
100
AcDbEntity
  8
寸法
 62
     0
 48
50.0
370
    -2
100
AcDbLine
 10
7196.100000000028
 20
5670.515881902555
 30
0.0
 11
6773.065724304526
 21
5670.515881902555
 31
0.0
  0
LINE
  5
1F0EA
330
1E3D5
100
AcDbEntity
  8
寸法
 62
     0
 48
50.0
370
    -2
100
AcDbLine
 10
7045.6
 20
6580.515881902623
 30
0.0
 11
6773.065724304526
 21
6580.515881902623
 31
0.0
  0
LINE
  5
1F0EB
330
1E3D5
100
AcDbEntity
  8
寸法
 62
     0
 48
50.0
370
    -2
100
AcDbLine
 10
6833.065724304525
 20
5670.515881902555
 30
0.0
 11
6833.065724304526
 21
6580.515881902623
 31
0.0
  0
INSERT
  5
1F0EC
330
1E3D5
100
AcDbEntity
  8
寸法
 62
     0
 48
50.0
370
    -2
100
AcDbBlockReference
  2
_DOTSMALL
 10
6833.065724304525
 20
5670.515881902555
 30
0.0
 41
100.0
 42
100.0
 43
100.0
 50
270.0
  0
INSERT
  5
1F0ED
330
1E3D5
100
AcDbEntity
  8
寸法
 62
     0
 48
50.0
370
    -2
100
AcDbBlockReference
  2
_DOTSMALL
 10
6833.065724304526
 20
6580.515881902623
 30
0.0
 41
100.0
 42
100.0
 43
100.0
 50
90.0
  0
MTEXT
  5
1F0EE
330
1E3D5
100
AcDbEntity
  8
寸法
 62
     7
 48
50.0
100
AcDbMText
 10
6733.065724304523
 20
6125.51588190259
 30
0.0
 40
120.0
 41
0.0
 71
     5
 72
     1
  1
\A1;910
  7
STYLE1
 11
0.0000000000000001
 21
1.0
 31
0.0
 73
     1
 44
1.0
1001
ACAD
1000
MTEXTBEGIN
1070
    73
1070
     1
1070
    44
1040
1.0
1070
    74
1070
     0
1000
MTEXTEND
  0
POINT
  5
1F0EF
330
1E3D5
100
AcDbEntity
  8
DEFPOINTS
 62
     0
 48
50.0
100
AcDbPoint
 10
7216.100000000027
 20
5670.515881902555
 30
0.0
  0
POINT
  5
1F0F0
330
1E3D5
100
AcDbEntity
  8
DEFPOINTS
 62
     0
 48
50.0
100
AcDbPoint
 10
7065.6
 20
6580.515881902623
 30
0.0
  0
POINT
  5
1F0F1
330
1E3D5
100
AcDbEntity
  8
DEFPOINTS
 62
     0
 48
50.0
100
AcDbPoint
 10
6833.065724304526
 20
6580.515881902623
 30
0.0
  0
ENDBLK
  5
1E3E0
330
1E3D5
100
AcDbEntity
  8
0
 48
50.0
100
AcDbBlockEnd
  0
BLOCK
  5
1E3EC
330
1E3E1
100
AcDbEntity
  8
0
 48
50.0
100
AcDbBlockBegin
  2
*D30
 70
     1
 10
0.0
 20
0.0
 30
0.0
  3
*D30
  1

  0
LINE
  5
1F72D
330
1E3E1
100
AcDbEntity
  8
寸法
 62
     0
 48
50.0
370
    -2
100
AcDbLine
 10
6528.600000000001
 20
7120.515881902615
 30
0.0
 11
6528.600000000001
 21
7367.681611344692
 31
0.0
  0
LINE
  5
1F72E
330
1E3E1
100
AcDbEntity
  8
寸法
 62
     0
 48
50.0
370
    -2
100
AcDbLine
 10
6408.599999999998
 20
7120.515881902615
 30
0.0
 11
6408.599999999998
 21
7367.681611344692
 31
0.0
  0
LINE
  5
1F72F
330
1E3E1
100
AcDbEntity
  8
寸法
 62
     0
 48
50.0
370
    -2
100
AcDbLine
 10
6528.600000000001
 20
7307.68161134469
 30
0.0
 11
6408.599999999998
 21
7307.68161134469
 31
0.0
  0
LINE
  5
1F730
330
1E3E1
100
AcDbEntity
  8
寸法
 62
     0
 48
50.0
370
    -2
100
AcDbLine
 10
6408.599999999998
 20
7307.68161134469
 30
0.0
 11
6036.505511811022
 21
7307.68161134469
 31
0.0
  0
INSERT
  5
1F731
330
1E3E1
100
AcDbEntity
  8
寸法
 62
     0
 48
50.0
370
    -2
100
AcDbBlockReference
  2
_DOTSMALL
 10
6528.600000000001
 20
7307.68161134469
 30
0.0
 41
100.0
 42
100.0
 43
100.0
  0
INSERT
  5
1F732
330
1E3E1
100
AcDbEntity
  8
寸法
 62
     0
 48
50.0
370
    -2
100
AcDbBlockReference
  2
_DOTSMALL
 10
6408.599999999998
 20
7307.68161134469
 30
0.0
 41
100.0
 42
100.0
 43
100.0
 50
180.0
  0
MTEXT
  5
1F733
330
1E3E1
100
AcDbEntity
  8
寸法
 62
     7
 48
50.0
100
AcDbMText
 10
6172.55275590551
 20
7407.693422368312
 30
0.0
 40
120.0
 41
0.0
 71
     5
 72
     1
  1
\A1;120
  7
STYLE1
 73
     1
 44
1.0
1001
ACAD
1000
MTEXTBEGIN
1070
    73
1070
     1
1070
    44
1040
1.0
1070
    74
1070
     0
1000
MTEXTEND
  0
POINT
  5
1F734
330
1E3E1
100
AcDbEntity
  8
DEFPOINTS
 62
     0
 48
50.0
100
AcDbPoint
 10
6528.600000000001
 20
7100.515881902615
 30
0.0
  0
POINT
  5
1F735
330
1E3E1
100
AcDbEntity
  8
DEFPOINTS
 62
     0
 48
50.0
100
AcDbPoint
 10
6408.599999999998
 20
7100.515881902615
 30
0.0
  0
POINT
  5
1F736
330
1E3E1
100
AcDbEntity
  8
DEFPOINTS
 62
     0
 48
50.0
100
AcDbPoint
 10
6408.599999999998
 20
7307.68161134469
 30
0.0
  0
ENDBLK
  5
1E3ED
330
1E3E1
100
AcDbEntity
  8
0
 48
50.0
100
AcDbBlockEnd
  0
BLOCK
  5
1E3F6
330
1E3EE
100
AcDbEntity
  8
0
 48
50.0
100
AcDbBlockBegin
  2
*D31
 70
     1
 10
0.0
 20
0.0
 30
0.0
  3
*D31
  1

  0
LINE
  5
1EF54
330
1E3EE
100
AcDbEntity
  8
寸法
 62
     0
 48
50.0
370
    -2
100
AcDbLine
 10
5892.657733986178
 20
8430.515881902612
 30
0.0
 11
5607.164931848211
 21
8430.515881902612
 31
0.0
  0
LINE
  5
1EF55
330
1E3EE
100
AcDbEntity
  8
寸法
 62
     0
 48
50.0
370
    -2
100
AcDbLine
 10
6388.6
 20
8330.515881902615
 30
0.0
 11
5607.164931848211
 21
8330.515881902615
 31
0.0
  0
LINE
  5
1EF56
330
1E3EE
100
AcDbEntity
  8
寸法
 62
     0
 48
50.0
370
    -2
100
AcDbLine
 10
5667.16493184821
 20
8430.515881902612
 30
0.0
 11
5667.16493184821
 21
8530.515881902612
 31
0.0
  0
LINE
  5
1EF57
330
1E3EE
100
AcDbEntity
  8
寸法
 62
     0
 48
50.0
370
    -2
100
AcDbLine
 10
5667.16493184821
 20
8330.515881902615
 30
0.0
 11
5667.16493184821
 21
8230.515881902615
 31
0.0
  0
LINE
  5
1EF58
330
1E3EE
100
AcDbEntity
  8
寸法
 62
     0
 48
50.0
370
    -2
100
AcDbLine
 10
5667.16493184821
 20
8430.515881902612
 30
0.0
 11
5667.16493184821
 21
8330.515881902615
 31
0.0
  0
INSERT
  5
1EF59
330
1E3EE
100
AcDbEntity
  8
寸法
 62
     0
 48
50.0
370
    -2
100
AcDbBlockReference
  2
_DOTSMALL
 10
5667.16493184821
 20
8430.515881902612
 30
0.0
 41
100.0
 42
100.0
 43
100.0
 50
270.0
  0
INSERT
  5
1EF5A
330
1E3EE
100
AcDbEntity
  8
寸法
 62
     0
 48
50.0
370
    -2
100
AcDbBlockReference
  2
_DOTSMALL
 10
5667.16493184821
 20
8330.515881902615
 30
0.0
 41
100.0
 42
100.0
 43
100.0
 50
90.0
  0
MTEXT
  5
1EF5B
330
1E3EE
100
AcDbEntity
  8
寸法
 62
     7
 48
50.0
100
AcDbMText
 10
5567.16493184821
 20
8380.515881902615
 30
0.0
 40
120.0
 41
0.0
 71
     5
 72
     1
  1
\A1;a
  7
STYLE1
 11
0.0000000000000001
 21
1.0
 31
0.0
 73
     1
 44
1.0
1001
ACAD
1000
MTEXTBEGIN
1070
    73
1070
     1
1070
    44
1040
1.0
1070
    74
1070
     0
1000
MTEXTEND
  0
POINT
  5
1EF5C
330
1E3EE
100
AcDbEntity
  8
DEFPOINTS
 62
     0
 48
50.0
100
AcDbPoint
 10
5912.657733986178
 20
8430.515881902612
 30
0.0
  0
POINT
  5
1EF5D
330
1E3EE
100
AcDbEntity
  8
DEFPOINTS
 62
     0
 48
50.0
100
AcDbPoint
 10
6408.599999999999
 20
8330.515881902615
 30
0.0
  0
POINT
  5
1EF5E
330
1E3EE
100
AcDbEntity
  8
DEFPOINTS
 62
     0
 48
50.0
100
AcDbPoint
 10
5667.16493184821
 20
8330.515881902615
 30
0.0
  0
ENDBLK
  5
1E3F7
330
1E3EE
100
AcDbEntity
  8
0
 48
50.0
100
AcDbBlockEnd
  0
BLOCK
  5
1E403
330
1E3F8
100
AcDbEntity
  8
0
 48
50.0
100
AcDbBlockBegin
  2
*D32
 70
     1
 10
0.0
 20
0.0
 30
0.0
  3
*D32
  1

  0
LINE
  5
1EF2E
330
1E3F8
100
AcDbEntity
  8
寸法
 62
     0
 48
50.0
370
    -2
100
AcDbLine
 10
6313.6
 20
9096.275508444694
 30
0.0
 11
6313.6
 21
9348.736203961536
 31
0.0
  0
LINE
  5
1EF2F
330
1E3F8
100
AcDbEntity
  8
寸法
 62
     0
 48
50.0
370
    -2
100
AcDbLine
 10
6408.599999999999
 20
8350.515881902614
 30
0.0
 11
6408.599999999999
 21
9348.736203961536
 31
0.0
  0
LINE
  5
1EF30
330
1E3F8
100
AcDbEntity
  8
寸法
 62
     0
 48
50.0
370
    -2
100
AcDbLine
 10
6408.599999999999
 20
9288.736203961537
 30
0.0
 11
6313.6
 21
9288.736203961537
 31
0.0
  0
LINE
  5
1EF31
330
1E3F8
100
AcDbEntity
  8
寸法
 62
     0
 48
50.0
370
    -2
100
AcDbLine
 10
6313.6
 20
9288.736203961537
 30
0.0
 11
6064.707102294469
 21
9288.736203961537
 31
0.0
  0
INSERT
  5
1EF32
330
1E3F8
100
AcDbEntity
  8
寸法
 62
     0
 48
50.0
370
    -2
100
AcDbBlockReference
  2
_DOTSMALL
 10
6408.599999999999
 20
9288.736203961537
 30
0.0
 41
100.0
 42
100.0
 43
100.0
  0
INSERT
  5
1EF33
330
1E3F8
100
AcDbEntity
  8
寸法
 62
     0
 48
50.0
370
    -2
100
AcDbBlockReference
  2
_DOTSMALL
 10
6313.6
 20
9288.736203961537
 30
0.0
 41
100.0
 42
100.0
 43
100.0
 50
180.0
  0
MTEXT
  5
1EF34
330
1E3F8
100
AcDbEntity
  8
寸法
 62
     7
 48
50.0
100
AcDbMText
 10
6130.881723496926
 20
9388.736203961537
 30
0.0
 40
120.0
 41
0.0
 71
     5
 72
     1
  1
\A1;b
  7
STYLE1
 73
     1
 44
1.0
1001
ACAD
1000
MTEXTBEGIN
1070
    73
1070
     1
1070
    44
1040
1.0
1070
    74
1070
     0
1000
MTEXTEND
  0
POINT
  5
1EF35
330
1E3F8
100
AcDbEntity
  8
DEFPOINTS
 62
     0
 48
50.0
100
AcDbPoint
 10
6313.6
 20
9076.275508444695
 30
0.0
  0
POINT
  5
1EF36
330
1E3F8
100
AcDbEntity
  8
DEFPOINTS
 62
     0
 48
50.0
100
AcDbPoint
 10
6408.599999999999
 20
8330.515881902615
 30
0.0
  0
POINT
  5
1EF37
330
1E3F8
100
AcDbEntity
  8
DEFPOINTS
 62
     0
 48
50.0
100
AcDbPoint
 10
6408.599999999999
 20
9288.736203961537
 30
0.0
  0
ENDBLK
  5
1E404
330
1E3F8
100
AcDbEntity
  8
0
 48
50.0
100
AcDbBlockEnd
  0
BLOCK
  5
1E411
330
1E405
100
AcDbEntity
  8
0
 48
50.0
100
AcDbBlockBegin
  2
*D33
 70
     1
 10
0.0
 20
0.0
 30
0.0
  3
*D33
  1

  0
LINE
  5
1EF23
330
1E405
100
AcDbEntity
  8
寸法
 62
     0
 48
50.0
370
    -2
100
AcDbLine
 10
6453.6
 20
8300.515881902615
 30
0.0
 11
6453.6
 21
9136.275508444699
 31
0.0
  0
LINE
  5
1EF24
330
1E405
100
AcDbEntity
  8
寸法
 62
     0
 48
50.0
370
    -2
100
AcDbLine
 10
6408.599999999999
 20
8350.515881902614
 30
0.0
 11
6408.599999999999
 21
9136.275508444699
 31
0.0
  0
LINE
  5
1EF25
330
1E405
100
AcDbEntity
  8
寸法
 62
     0
 48
50.0
370
    -2
100
AcDbLine
 10
6453.6
 20
9076.275508444698
 30
0.0
 11
6553.6
 21
9076.275508444698
 31
0.0
  0
LINE
  5
1EF26
330
1E405
100
AcDbEntity
  8
寸法
 62
     0
 48
50.0
370
    -2
100
AcDbLine
 10
6408.599999999999
 20
9076.275508444698
 30
0.0
 11
5926.008116907963
 21
9076.275508444698
 31
0.0
  0
LINE
  5
1EF27
330
1E405
100
AcDbEntity
  8
寸法
 62
     0
 48
50.0
370
    -2
100
AcDbLine
 10
6453.6
 20
9076.275508444698
 30
0.0
 11
6408.599999999999
 21
9076.275508444698
 31
0.0
  0
INSERT
  5
1EF28
330
1E405
100
AcDbEntity
  8
寸法
 62
     0
 48
50.0
370
    -2
100
AcDbBlockReference
  2
_DOTSMALL
 10
6453.6
 20
9076.275508444698
 30
0.0
 41
100.0
 42
100.0
 43
100.0
 50
180.0
  0
INSERT
  5
1EF29
330
1E405
100
AcDbEntity
  8
寸法
 62
     0
 48
50.0
370
    -2
100
AcDbBlockReference
  2
_DOTSMALL
 10
6408.599999999999
 20
9076.275508444698
 30
0.0
 41
100.0
 42
100.0
 43
100.0
  0
MTEXT
  5
1EF2A
330
1E405
100
AcDbEntity
  8
寸法
 62
     7
 48
50.0
100
AcDbMText
 10
6040.493398282202
 20
9176.275508444698
 30
0.0
 40
120.0
 41
0.0
 71
     5
 72
     1
  1
\A1;45
  7
STYLE1
 73
     1
 44
1.0
1001
ACAD
1000
MTEXTBEGIN
1070
    73
1070
     1
1070
    44
1040
1.0
1070
    74
1070
     0
1000
MTEXTEND
  0
POINT
  5
1EF2B
330
1E405
100
AcDbEntity
  8
DEFPOINTS
 62
     0
 48
50.0
100
AcDbPoint
 10
6453.6
 20
8280.515881902614
 30
0.0
  0
POINT
  5
1EF2C
330
1E405
100
AcDbEntity
  8
DEFPOINTS
 62
     0
 48
50.0
100
AcDbPoint
 10
6408.599999999999
 20
8330.515881902615
 30
0.0
  0
POINT
  5
1EF2D
330
1E405
100
AcDbEntity
  8
DEFPOINTS
 62
     0
 48
50.0
100
AcDbPoint
 10
6408.599999999999
 20
9076.275508444698
 30
0.0
  0
ENDBLK
  5
1E412
330
1E405
100
AcDbEntity
  8
0
 48
50.0
100
AcDbBlockEnd
  0
BLOCK
  5
1E41E
330
1E413
100
AcDbEntity
  8
0
 48
50.0
100
AcDbBlockBegin
  2
*D34
 70
     1
 10
0.0
 20
0.0
 30
0.0
  3
*D34
  1

  0
LINE
  5
1EF19
330
1E413
100
AcDbEntity
  8
寸法
 62
     0
 48
50.0
370
    -2
100
AcDbLine
 10
6388.6
 20
8330.515881902615
 30
0.0
 11
5852.657733986179
 21
8330.515881902615
 31
0.0
  0
LINE
  5
1EF1A
330
1E413
100
AcDbEntity
  8
寸法
 62
     0
 48
50.0
370
    -2
100
AcDbLine
 10
6383.600000000001
 20
8230.515881902615
 30
0.0
 11
5852.657733986179
 21
8230.515881902615
 31
0.0
  0
LINE
  5
1EF1B
330
1E413
100
AcDbEntity
  8
寸法
 62
     0
 48
50.0
370
    -2
100
AcDbLine
 10
5912.657733986179
 20
8230.515881902615
 30
0.0
 11
5912.657733986179
 21
8330.515881902615
 31
0.0
  0
LINE
  5
1EF1C
330
1E413
100
AcDbEntity
  8
寸法
 62
     0
 48
50.0
370
    -2
100
AcDbLine
 10
5912.657733986179
 20
8330.515881902615
 30
0.0
 11
5912.657733986179
 21
8831.622181115212
 31
0.0
  0
INSERT
  5
1EF1D
330
1E413
100
AcDbEntity
  8
寸法
 62
     0
 48
50.0
370
    -2
100
AcDbBlockReference
  2
_DOTSMALL
 10
5912.657733986179
 20
8230.515881902615
 30
0.0
 41
100.0
 42
100.0
 43
100.0
 50
270.0
  0
INSERT
  5
1EF1E
330
1E413
100
AcDbEntity
  8
寸法
 62
     0
 48
50.0
370
    -2
100
AcDbBlockReference
  2
_DOTSMALL
 10
5912.657733986179
 20
8330.515881902615
 30
0.0
 41
100.0
 42
100.0
 43
100.0
 50
90.0
  0
MTEXT
  5
1EF1F
330
1E413
100
AcDbEntity
  8
寸法
 62
     7
 48
50.0
100
AcDbMText
 10
5812.657733986178
 20
8695.574937020726
 30
0.0
 40
120.0
 41
0.0
 71
     5
 72
     1
  1
\A1;100
  7
STYLE1
 11
0.0000000000000001
 21
1.0
 31
0.0
 73
     1
 44
1.0
1001
ACAD
1000
MTEXTBEGIN
1070
    73
1070
     1
1070
    44
1040
1.0
1070
    74
1070
     0
1000
MTEXTEND
  0
POINT
  5
1EF20
330
1E413
100
AcDbEntity
  8
DEFPOINTS
 62
     0
 48
50.0
100
AcDbPoint
 10
6408.599999999999
 20
8330.515881902615
 30
0.0
  0
POINT
  5
1EF21
330
1E413
100
AcDbEntity
  8
DEFPOINTS
 62
     0
 48
50.0
100
AcDbPoint
 10
6403.6
 20
8230.515881902615
 30
0.0
  0
POINT
  5
1EF22
330
1E413
100
AcDbEntity
  8
DEFPOINTS
 62
     0
 48
50.0
100
AcDbPoint
 10
5912.657733986179
 20
8230.515881902615
 30
0.0
  0
ENDBLK
  5
1E41F
330
1E413
100
AcDbEntity
  8
0
 48
50.0
100
AcDbBlockEnd
  0
BLOCK
  5
1E42C
330
1E420
100
AcDbEntity
  8
0
 48
50.0
100
AcDbBlockBegin
  2
*D35
 70
     1
 10
0.0
 20
0.0
 30
0.0
  3
*D35
  1

  0
LINE
  5
1F718
330
1E420
100
AcDbEntity
  8
寸法
 62
     0
 48
50.0
370
    -2
100
AcDbLine
 10
8210.600000000008
 20
8285.515881902615
 30
0.0
 11
8649.046686947123
 21
8285.515881902615
 31
0.0
  0
LINE
  5
1F719
330
1E420
100
AcDbEntity
  8
寸法
 62
     0
 48
50.0
370
    -2
100
AcDbLine
 10
8210.600000000008
 20
8210.515881902614
 30
0.0
 11
8649.046686947123
 21
8210.515881902614
 31
0.0
  0
LINE
  5
1F71A
330
1E420
100
AcDbEntity
  8
寸法
 62
     0
 48
50.0
370
    -2
100
AcDbLine
 10
8589.046686947124
 20
8285.515881902615
 30
0.0
 11
8589.046686947124
 21
8385.515881902614
 31
0.0
  0
LINE
  5
1F71B
330
1E420
100
AcDbEntity
  8
寸法
 62
     0
 48
50.0
370
    -2
100
AcDbLine
 10
8589.046686947124
 20
8210.515881902614
 30
0.0
 11
8589.046686947124
 21
7773.545319154138
 31
0.0
  0
LINE
  5
1F71C
330
1E420
100
AcDbEntity
  8
寸法
 62
     0
 48
50.0
370
    -2
100
AcDbLine
 10
8589.046686947124
 20
8285.515881902615
 30
0.0
 11
8589.046686947124
 21
8210.515881902614
 31
0.0
  0
INSERT
  5
1F71D
330
1E420
100
AcDbEntity
  8
寸法
 62
     0
 48
50.0
370
    -2
100
AcDbBlockReference
  2
_DOTSMALL
 10
8589.046686947124
 20
8285.515881902615
 30
0.0
 41
100.0
 42
100.0
 43
100.0
 50
270.0
  0
INSERT
  5
1F71E
330
1E420
100
AcDbEntity
  8
寸法
 62
     0
 48
50.0
370
    -2
100
AcDbBlockReference
  2
_DOTSMALL
 10
8589.046686947124
 20
8210.515881902614
 30
0.0
 41
100.0
 42
100.0
 43
100.0
 50
90.0
  0
MTEXT
  5
1F71F
330
1E420
100
AcDbEntity
  8
寸法
 62
     7
 48
50.0
100
AcDbMText
 10
8489.046686947123
 20
7882.030600528377
 30
0.0
 40
120.0
 41
0.0
 71
     5
 72
     1
  1
\A1;75
  7
STYLE1
 11
0.0000000000000001
 21
1.0
 31
0.0
 73
     1
 44
1.0
1001
ACAD
1000
MTEXTBEGIN
1070
    73
1070
     1
1070
    44
1040
1.0
1070
    74
1070
     0
1000
MTEXTEND
  0
POINT
  5
1F720
330
1E420
100
AcDbEntity
  8
DEFPOINTS
 62
     0
 48
50.0
100
AcDbPoint
 10
8190.600000000008
 20
8285.515881902615
 30
0.0
  0
POINT
  5
1F721
330
1E420
100
AcDbEntity
  8
DEFPOINTS
 62
     0
 48
50.0
100
AcDbPoint
 10
8190.600000000008
 20
8210.515881902614
 30
0.0
  0
POINT
  5
1F722
330
1E420
100
AcDbEntity
  8
DEFPOINTS
 62
     0
 48
50.0
100
AcDbPoint
 10
8589.046686947124
 20
8210.515881902614
 30
0.0
  0
ENDBLK
  5
1E42D
330
1E420
100
AcDbEntity
  8
0
 48
50.0
100
AcDbBlockEnd
  0
BLOCK
  5
1E438
330
1E42E
100
AcDbEntity
  8
0
 48
50.0
100
AcDbBlockBegin
  2
*D36
 70
     1
 10
0.0
 20
0.0
 30
0.0
  3
*D36
  1

  0
LINE
  5
1F5D5
330
1E42E
100
AcDbEntity
  8
寸法
 62
     0
 48
50.0
370
    -2
100
AcDbLine
 10
10133.6
 20
8330.515881902615
 30
0.0
 11
10609.05368375798
 21
8330.515881902615
 31
0.0
  0
LINE
  5
1F5D6
330
1E42E
100
AcDbEntity
  8
寸法
 62
     0
 48
50.0
370
    -2
100
AcDbLine
 10
10133.60000000001
 20
6132.515881902615
 30
0.0
 11
10609.05368375798
 21
6132.515881902613
 31
0.0
  0
LINE
  5
1F5D7
330
1E42E
100
AcDbEntity
  8
寸法
 62
     0
 48
50.0
370
    -2
100
AcDbLine
 10
10549.05368375798
 20
8330.515881902615
 30
0.0
 11
10549.05368375798
 21
6132.515881902613
 31
0.0
  0
INSERT
  5
1F5D8
330
1E42E
100
AcDbEntity
  8
寸法
 62
     0
 48
50.0
370
    -2
100
AcDbBlockReference
  2
_DOTSMALL
 10
10549.05368375798
 20
8330.515881902615
 30
0.0
 41
100.0
 42
100.0
 43
100.0
 50
90.0
  0
INSERT
  5
1F5D9
330
1E42E
100
AcDbEntity
  8
寸法
 62
     0
 48
50.0
370
    -2
100
AcDbBlockReference
  2
_DOTSMALL
 10
10549.05368375798
 20
6132.515881902613
 30
0.0
 41
100.0
 42
100.0
 43
100.0
 50
270.0
  0
MTEXT
  5
1F5DA
330
1E42E
100
AcDbEntity
  8
寸法
 62
     7
 48
50.0
100
AcDbMText
 10
10449.04187273436
 20
7231.431796619509
 30
0.0
 40
120.0
 41
0.0
 71
     5
 72
     1
  1
\A1;扉の幅 2198
  7
STYLE1
 11
0.0000000000000001
 21
1.0
 31
0.0
 73
     1
 44
1.0
1001
ACAD
1000
MTEXTBEGIN
1070
    73
1070
     1
1070
    44
1040
1.0
1070
    74
1070
     0
1000
MTEXTEND
  0
POINT
  5
1F5DB
330
1E42E
100
AcDbEntity
  8
DEFPOINTS
 62
     0
 48
50.0
100
AcDbPoint
 10
10113.6
 20
8330.515881902615
 30
0.0
  0
POINT
  5
1F5DC
330
1E42E
100
AcDbEntity
  8
DEFPOINTS
 62
     0
 48
50.0
100
AcDbPoint
 10
10113.60000000001
 20
6132.515881902615
 30
0.0
  0
POINT
  5
1F5DD
330
1E42E
100
AcDbEntity
  8
DEFPOINTS
 62
     0
 48
50.0
100
AcDbPoint
 10
10549.05368375798
 20
6132.515881902613
 30
0.0
  0
ENDBLK
  5
1E439
330
1E42E
100
AcDbEntity
  8
0
 48
50.0
100
AcDbBlockEnd
  0
BLOCK
  5
1E446
330
1E43A
100
AcDbEntity
  8
0
 48
50.0
100
AcDbBlockBegin
  2
*D37
 70
     1
 10
0.0
 20
0.0
 30
0.0
  3
*D37
  1

  0
LINE
  5
1EF90
330
1E43A
100
AcDbEntity
  8
寸法
 62
     0
 48
50.0
370
    -2
100
AcDbLine
 10
8210.600000000008
 20
5715.515881902616
 30
0.0
 11
8649.046686947123
 21
5715.515881902616
 31
0.0
  0
LINE
  5
1EF91
330
1E43A
100
AcDbEntity
  8
寸法
 62
     0
 48
50.0
370
    -2
100
AcDbLine
 10
8210.600000000008
 20
5670.515881902614
 30
0.0
 11
8649.046686947123
 21
5670.515881902614
 31
0.0
  0
LINE
  5
1EF92
330
1E43A
100
AcDbEntity
  8
寸法
 62
     0
 48
50.0
370
    -2
100
AcDbLine
 10
8589.046686947124
 20
5715.515881902616
 30
0.0
 11
8589.046686947124
 21
5815.515881902616
 31
0.0
  0
LINE
  5
1EF93
330
1E43A
100
AcDbEntity
  8
寸法
 62
     0
 48
50.0
370
    -2
100
AcDbLine
 10
8589.046686947124
 20
5670.515881902614
 30
0.0
 11
8589.046686947124
 21
5241.545319154138
 31
0.0
  0
LINE
  5
1EF94
330
1E43A
100
AcDbEntity
  8
寸法
 62
     0
 48
50.0
370
    -2
100
AcDbLine
 10
8589.046686947124
 20
5715.515881902616
 30
0.0
 11
8589.046686947124
 21
5670.515881902614
 31
0.0
  0
INSERT
  5
1EF95
330
1E43A
100
AcDbEntity
  8
寸法
 62
     0
 48
50.0
370
    -2
100
AcDbBlockReference
  2
_DOTSMALL
 10
8589.046686947124
 20
5715.515881902616
 30
0.0
 41
100.0
 42
100.0
 43
100.0
 50
270.0
  0
INSERT
  5
1EF96
330
1E43A
100
AcDbEntity
  8
寸法
 62
     0
 48
50.0
370
    -2
100
AcDbBlockReference
  2
_DOTSMALL
 10
8589.046686947124
 20
5670.515881902614
 30
0.0
 41
100.0
 42
100.0
 43
100.0
 50
90.0
  0
MTEXT
  5
1EF97
330
1E43A
100
AcDbEntity
  8
寸法
 62
     7
 48
50.0
100
AcDbMText
 10
8489.046686947123
 20
5356.030600528377
 30
0.0
 40
120.0
 41
0.0
 71
     5
 72
     1
  1
\A1;45
  7
STYLE1
 11
0.0000000000000001
 21
1.0
 31
0.0
 73
     1
 44
1.0
1001
ACAD
1000
MTEXTBEGIN
1070
    73
1070
     1
1070
    44
1040
1.0
1070
    74
1070
     0
1000
MTEXTEND
  0
POINT
  5
1EF98
330
1E43A
100
AcDbEntity
  8
DEFPOINTS
 62
     0
 48
50.0
100
AcDbPoint
 10
8190.600000000008
 20
5715.515881902616
 30
0.0
  0
POINT
  5
1EF99
330
1E43A
100
AcDbEntity
  8
DEFPOINTS
 62
     0
 48
50.0
100
AcDbPoint
 10
8190.600000000008
 20
5670.515881902614
 30
0.0
  0
POINT
  5
1EF9A
330
1E43A
100
AcDbEntity
  8
DEFPOINTS
 62
     0
 48
50.0
100
AcDbPoint
 10
8589.046686947124
 20
5670.515881902614
 30
0.0
  0
ENDBLK
  5
1E447
330
1E43A
100
AcDbEntity
  8
0
 48
50.0
100
AcDbBlockEnd
  0
BLOCK
  5
1E453
330
1E448
100
AcDbEntity
  8
0
 48
50.0
100
AcDbBlockBegin
  2
*D38
 70
     1
 10
0.0
 20
0.0
 30
0.0
  3
*D38
  1

  0
LINE
  5
1F737
330
1E448
100
AcDbEntity
  8
寸法
 62
     0
 48
50.0
370
    -2
100
AcDbLine
 10
9251.100000000027
 20
5670.515881902555
 30
0.0
 11
9576.494056711407
 21
5670.515881902555
 31
0.0
  0
LINE
  5
1F738
330
1E448
100
AcDbEntity
  8
寸法
 62
     0
 48
50.0
370
    -2
100
AcDbLine
 10
9251.100000000022
 20
5790.515881902629
 30
0.0
 11
9576.494056711407
 21
5790.515881902629
 31
0.0
  0
LINE
  5
1F739
330
1E448
100
AcDbEntity
  8
寸法
 62
     0
 48
50.0
370
    -2
100
AcDbLine
 10
9516.494056711406
 20
5790.515881902629
 30
0.0
 11
9516.494056711406
 21
5670.515881902555
 31
0.0
  0
LINE
  5
1F73A
330
1E448
100
AcDbEntity
  8
寸法
 62
     0
 48
50.0
370
    -2
100
AcDbLine
 10
9516.494056711406
 20
5670.515881902555
 30
0.0
 11
9516.494056711406
 21
5198.180332840186
 31
0.0
  0
INSERT
  5
1F73B
330
1E448
100
AcDbEntity
  8
寸法
 62
     0
 48
50.0
370
    -2
100
AcDbBlockReference
  2
_DOTSMALL
 10
9516.494056711406
 20
5790.515881902629
 30
0.0
 41
100.0
 42
100.0
 43
100.0
 50
90.0
  0
INSERT
  5
1F73C
330
1E448
100
AcDbEntity
  8
寸法
 62
     0
 48
50.0
370
    -2
100
AcDbBlockReference
  2
_DOTSMALL
 10
9516.494056711406
 20
5670.515881902555
 30
0.0
 41
100.0
 42
100.0
 43
100.0
 50
270.0
  0
MTEXT
  5
1F73D
330
1E448
100
AcDbEntity
  8
寸法
 62
     7
 48
50.0
100
AcDbMText
 10
9416.482245687783
 20
5334.227576934674
 30
0.0
 40
120.0
 41
0.0
 71
     5
 72
     1
  1
\A1;120
  7
STYLE1
 11
0.0000000000000001
 21
1.0
 31
0.0
 73
     1
 44
1.0
1001
ACAD
1000
MTEXTBEGIN
1070
    73
1070
     1
1070
    44
1040
1.0
1070
    74
1070
     0
1000
MTEXTEND
  0
POINT
  5
1F73E
330
1E448
100
AcDbEntity
  8
DEFPOINTS
 62
     0
 48
50.0
100
AcDbPoint
 10
9231.100000000028
 20
5670.515881902555
 30
0.0
  0
POINT
  5
1F73F
330
1E448
100
AcDbEntity
  8
DEFPOINTS
 62
     0
 48
50.0
100
AcDbPoint
 10
9231.100000000022
 20
5790.515881902629
 30
0.0
  0
POINT
  5
1F740
330
1E448
100
AcDbEntity
  8
DEFPOINTS
 62
     0
 48
50.0
100
AcDbPoint
 10
9516.494056711406
 20
5790.515881902629
 30
0.0
  0
ENDBLK
  5
1E454
330
1E448
100
AcDbEntity
  8
0
 48
50.0
100
AcDbBlockEnd
  0
BLOCK
  5
1E45E
330
1E455
100
AcDbEntity
  8
0
 48
50.0
100
AcDbBlockBegin
  2
*D39
 70
     1
 10
0.0
 20
0.0
 30
0.0
  3
*D39
  1

  0
LINE
  5
1F63D
330
1E455
100
AcDbEntity
  8
寸法
 62
     0
 48
50.0
370
    -2
100
AcDbLine
 10
8223.600000000001
 20
7540.515881902614
 30
0.0
 11
8223.600000000001
 21
7807.827086291239
 31
0.0
  0
LINE
  5
1F63E
330
1E455
100
AcDbEntity
  8
寸法
 62
     0
 48
50.0
370
    -2
100
AcDbLine
 10
10113.6
 20
7540.515881902614
 30
0.0
 11
10113.6
 21
7807.827086291239
 31
0.0
  0
LINE
  5
1F63F
330
1E455
100
AcDbEntity
  8
寸法
 62
     0
 48
50.0
370
    -2
100
AcDbLine
 10
8223.600000000001
 20
7747.827086291239
 30
0.0
 11
10113.6
 21
7747.827086291239
 31
0.0
  0
INSERT
  5
1F640
330
1E455
100
AcDbEntity
  8
寸法
 62
     0
 48
50.0
370
    -2
100
AcDbBlockReference
  2
_DOTSMALL
 10
8223.600000000001
 20
7747.827086291239
 30
0.0
 41
100.0
 42
100.0
 43
100.0
 50
180.0
  0
INSERT
  5
1F641
330
1E455
100
AcDbEntity
  8
寸法
 62
     0
 48
50.0
370
    -2
100
AcDbBlockReference
  2
_DOTSMALL
 10
10113.6
 20
7747.827086291239
 30
0.0
 41
100.0
 42
100.0
 43
100.0
  0
MTEXT
  5
1F642
330
1E455
100
AcDbEntity
  8
寸法
 62
     7
 48
50.0
100
AcDbMText
 10
9168.600000000003
 20
7847.827086291239
 30
0.0
 40
120.0
 41
0.0
 71
     5
 72
     1
  1
\A1;1890
  7
STYLE1
 73
     1
 44
1.0
1001
ACAD
1000
MTEXTBEGIN
1070
    73
1070
     1
1070
    44
1040
1.0
1070
    74
1070
     0
1000
MTEXTEND
  0
POINT
  5
1F643
330
1E455
100
AcDbEntity
  8
DEFPOINTS
 62
     0
 48
50.0
100
AcDbPoint
 10
8223.600000000001
 20
7520.515881902615
 30
0.0
  0
POINT
  5
1F644
330
1E455
100
AcDbEntity
  8
DEFPOINTS
 62
     0
 48
50.0
100
AcDbPoint
 10
10113.6
 20
7520.515881902615
 30
0.0
  0
POINT
  5
1F645
330
1E455
100
AcDbEntity
  8
DEFPOINTS
 62
     0
 48
50.0
100
AcDbPoint
 10
10113.6
 20
7747.827086291239
 30
0.0
  0
ENDBLK
  5
1E45F
330
1E455
100
AcDbEntity
  8
0
 48
50.0
100
AcDbBlockEnd
  0
BLOCK
  5
1E46C
330
1E460
100
AcDbEntity
  8
0
 48
50.0
100
AcDbBlockBegin
  2
*D40
 70
     1
 10
0.0
 20
0.0
 30
0.0
  3
*D40
  1

  0
LINE
  5
1F741
330
1E460
100
AcDbEntity
  8
寸法
 62
     0
 48
50.0
370
    -2
100
AcDbLine
 10
8210.600000000008
 20
5715.515881902616
 30
0.0
 11
8649.046686947123
 21
5715.515881902616
 31
0.0
  0
LINE
  5
1F742
330
1E460
100
AcDbEntity
  8
寸法
 62
     0
 48
50.0
370
    -2
100
AcDbLine
 10
8210.600000000008
 20
5790.515881902625
 30
0.0
 11
8649.046686947123
 21
5790.515881902625
 31
0.0
  0
LINE
  5
1F743
330
1E460
100
AcDbEntity
  8
寸法
 62
     0
 48
50.0
370
    -2
100
AcDbLine
 10
8589.046686947124
 20
5715.515881902616
 30
0.0
 11
8589.046686947124
 21
5615.515881902616
 31
0.0
  0
LINE
  5
1F744
330
1E460
100
AcDbEntity
  8
寸法
 62
     0
 48
50.0
370
    -2
100
AcDbLine
 10
8589.046686947124
 20
5790.515881902625
 30
0.0
 11
8589.046686947124
 21
6207.486444651102
 31
0.0
  0
LINE
  5
1F745
330
1E460
100
AcDbEntity
  8
寸法
 62
     0
 48
50.0
370
    -2
100
AcDbLine
 10
8589.046686947124
 20
5715.515881902616
 30
0.0
 11
8589.046686947124
 21
5790.515881902625
 31
0.0
  0
INSERT
  5
1F746
330
1E460
100
AcDbEntity
  8
寸法
 62
     0
 48
50.0
370
    -2
100
AcDbBlockReference
  2
_DOTSMALL
 10
8589.046686947124
 20
5715.515881902616
 30
0.0
 41
100.0
 42
100.0
 43
100.0
 50
90.0
  0
INSERT
  5
1F747
330
1E460
100
AcDbEntity
  8
寸法
 62
     0
 48
50.0
370
    -2
100
AcDbBlockReference
  2
_DOTSMALL
 10
8589.046686947124
 20
5790.515881902625
 30
0.0
 41
100.0
 42
100.0
 43
100.0
 50
270.0
  0
MTEXT
  5
1F748
330
1E460
100
AcDbEntity
  8
寸法
 62
     7
 48
50.0
100
AcDbMText
 10
8489.046686947123
 20
6099.001163276865
 30
0.0
 40
120.0
 41
0.0
 71
     5
 72
     1
  1
\A1;75
  7
STYLE1
 11
0.0000000000000001
 21
1.0
 31
0.0
 73
     1
 44
1.0
1001
ACAD
1000
MTEXTBEGIN
1070
    73
1070
     1
1070
    44
1040
1.0
1070
    74
1070
     0
1000
MTEXTEND
  0
POINT
  5
1F749
330
1E460
100
AcDbEntity
  8
DEFPOINTS
 62
     0
 48
50.0
100
AcDbPoint
 10
8190.600000000008
 20
5715.515881902616
 30
0.0
  0
POINT
  5
1F74A
330
1E460
100
AcDbEntity
  8
DEFPOINTS
 62
     0
 48
50.0
100
AcDbPoint
 10
8190.600000000008
 20
5790.515881902625
 30
0.0
  0
POINT
  5
1F74B
330
1E460
100
AcDbEntity
  8
DEFPOINTS
 62
     0
 48
50.0
100
AcDbPoint
 10
8589.046686947124
 20
5790.515881902625
 30
0.0
  0
ENDBLK
  5
1E46D
330
1E460
100
AcDbEntity
  8
0
 48
50.0
100
AcDbBlockEnd
  0
BLOCK
  5
1E479
330
1E46E
100
AcDbEntity
  8
0
 48
50.0
100
AcDbBlockBegin
  2
*D41
 70
     1
 10
0.0
 20
0.0
 30
0.0
  3
*D41
  1

  0
LINE
  5
1F672
330
1E46E
100
AcDbEntity
  8
寸法
 62
     0
 48
50.0
370
    -2
100
AcDbLine
 10
10113.60000000001
 20
6112.515881902615
 30
0.0
 11
10113.60000000001
 21
5847.959120807114
 31
0.0
  0
LINE
  5
1F673
330
1E46E
100
AcDbEntity
  8
寸法
 62
     0
 48
50.0
370
    -2
100
AcDbLine
 10
10038.60000000001
 20
6112.515881902615
 30
0.0
 11
10038.60000000001
 21
5847.959120807114
 31
0.0
  0
LINE
  5
1F674
330
1E46E
100
AcDbEntity
  8
寸法
 62
     0
 48
50.0
370
    -2
100
AcDbLine
 10
10038.60000000001
 20
5907.959120807114
 30
0.0
 11
9938.600000000015
 21
5907.959120807114
 31
0.0
  0
LINE
  5
1F675
330
1E46E
100
AcDbEntity
  8
寸法
 62
     0
 48
50.0
370
    -2
100
AcDbLine
 10
10113.60000000001
 20
5907.959120807114
 30
0.0
 11
10980.57056274849
 21
5907.959120807114
 31
0.0
  0
LINE
  5
1F676
330
1E46E
100
AcDbEntity
  8
寸法
 62
     0
 48
50.0
370
    -2
100
AcDbLine
 10
10038.60000000001
 20
5907.959120807114
 30
0.0
 11
10113.60000000001
 21
5907.959120807114
 31
0.0
  0
INSERT
  5
1F677
330
1E46E
100
AcDbEntity
  8
寸法
 62
     0
 48
50.0
370
    -2
100
AcDbBlockReference
  2
_DOTSMALL
 10
10038.60000000001
 20
5907.959120807114
 30
0.0
 41
100.0
 42
100.0
 43
100.0
  0
INSERT
  5
1F678
330
1E46E
100
AcDbEntity
  8
寸法
 62
     0
 48
50.0
370
    -2
100
AcDbBlockReference
  2
_DOTSMALL
 10
10113.60000000001
 20
5907.959120807114
 30
0.0
 41
100.0
 42
100.0
 43
100.0
 50
180.0
  0
MTEXT
  5
1F679
330
1E46E
100
AcDbEntity
  8
寸法
 62
     7
 48
50.0
100
AcDbMText
 10
10647.08528137425
 20
6007.959120807115
 30
0.0
 40
120.0
 41
0.0
 71
     5
 72
     1
  1
\A1;扉の出75
  7
STYLE1
 73
     1
 44
1.0
1001
ACAD
1000
MTEXTBEGIN
1070
    73
1070
     1
1070
    44
1040
1.0
1070
    74
1070
     0
1000
MTEXTEND
  0
POINT
  5
1F67A
330
1E46E
100
AcDbEntity
  8
DEFPOINTS
 62
     0
 48
50.0
100
AcDbPoint
 10
10113.60000000001
 20
6132.515881902615
 30
0.0
  0
POINT
  5
1F67B
330
1E46E
100
AcDbEntity
  8
DEFPOINTS
 62
     0
 48
50.0
100
AcDbPoint
 10
10038.60000000001
 20
6132.515881902615
 30
0.0
  0
POINT
  5
1F67C
330
1E46E
100
AcDbEntity
  8
DEFPOINTS
 62
     0
 48
50.0
100
AcDbPoint
 10
10038.60000000001
 20
5907.959120807114
 30
0.0
  0
ENDBLK
  5
1E47A
330
1E46E
100
AcDbEntity
  8
0
 48
50.0
100
AcDbBlockEnd
  0
BLOCK
  5
1E484
330
1E47B
100
AcDbEntity
  8
0
 48
50.0
100
AcDbBlockBegin
  2
*D42
 70
     1
 10
0.0
 20
0.0
 30
0.0
  3
*D42
  1

  0
LINE
  5
1EF05
330
1E47B
100
AcDbEntity
  8
寸法
 62
     0
 48
50.0
370
    -2
100
AcDbLine
 10
9993.6
 20
8300.515881902615
 30
0.0
 11
9993.6
 21
9136.275508444699
 31
0.0
  0
LINE
  5
1EF06
330
1E47B
100
AcDbEntity
  8
寸法
 62
     0
 48
50.0
370
    -2
100
AcDbLine
 10
8140.6
 20
8355.515881902615
 30
0.0
 11
8140.6
 21
9136.275508444699
 31
0.0
  0
LINE
  5
1EF07
330
1E47B
100
AcDbEntity
  8
寸法
 62
     0
 48
50.0
370
    -2
100
AcDbLine
 10
9993.6
 20
9076.275508444698
 30
0.0
 11
8140.6
 21
9076.275508444698
 31
0.0
  0
INSERT
  5
1EF08
330
1E47B
100
AcDbEntity
  8
寸法
 62
     0
 48
50.0
370
    -2
100
AcDbBlockReference
  2
_DOTSMALL
 10
9993.6
 20
9076.275508444698
 30
0.0
 41
100.0
 42
100.0
 43
100.0
  0
INSERT
  5
1EF09
330
1E47B
100
AcDbEntity
  8
寸法
 62
     0
 48
50.0
370
    -2
100
AcDbBlockReference
  2
_DOTSMALL
 10
8140.6
 20
9076.275508444698
 30
0.0
 41
100.0
 42
100.0
 43
100.0
 50
180.0
  0
MTEXT
  5
1EF0A
330
1E47B
100
AcDbEntity
  8
寸法
 62
     7
 48
50.0
100
AcDbMText
 10
9067.100000000001
 20
9176.275508444698
 30
0.0
 40
120.0
 41
0.0
 71
     5
 72
     1
  1
\A1;1853
  7
STYLE1
 73
     1
 44
1.0
1001
ACAD
1000
MTEXTBEGIN
1070
    73
1070
     1
1070
    44
1040
1.0
1070
    74
1070
     0
1000
MTEXTEND
  0
POINT
  5
1EF0B
330
1E47B
100
AcDbEntity
  8
DEFPOINTS
 62
     0
 48
50.0
100
AcDbPoint
 10
9993.6
 20
8280.515881902614
 30
0.0
  0
POINT
  5
1EF0C
330
1E47B
100
AcDbEntity
  8
DEFPOINTS
 62
     0
 48
50.0
100
AcDbPoint
 10
8140.6
 20
8335.515881902614
 30
0.0
  0
POINT
  5
1EF0D
330
1E47B
100
AcDbEntity
  8
DEFPOINTS
 62
     0
 48
50.0
100
AcDbPoint
 10
8140.6
 20
9076.275508444698
 30
0.0
  0
ENDBLK
  5
1E485
330
1E47B
100
AcDbEntity
  8
0
 48
50.0
100
AcDbBlockEnd
  0
BLOCK
  5
1E492
330
1E486
100
AcDbEntity
  8
0
 48
50.0
100
AcDbBlockBegin
  2
*D43
 70
     1
 10
0.0
 20
0.0
 30
0.0
  3
*D43
  1

  0
LINE
  5
1EEFA
330
1E486
100
AcDbEntity
  8
寸法
 62
     0
 48
50.0
370
    -2
100
AcDbLine
 10
8210.600000000008
 20
8285.515881902615
 30
0.0
 11
8649.046686947123
 21
8285.515881902615
 31
0.0
  0
LINE
  5
1EEFB
330
1E486
100
AcDbEntity
  8
寸法
 62
     0
 48
50.0
370
    -2
100
AcDbLine
 10
8210.600000000008
 20
8330.515881902615
 30
0.0
 11
8649.046686947123
 21
8330.515881902615
 31
0.0
  0
LINE
  5
1EEFC
330
1E486
100
AcDbEntity
  8
寸法
 62
     0
 48
50.0
370
    -2
100
AcDbLine
 10
8589.046686947124
 20
8285.515881902615
 30
0.0
 11
8589.046686947124
 21
8185.515881902615
 31
0.0
  0
LINE
  5
1EEFD
330
1E486
100
AcDbEntity
  8
寸法
 62
     0
 48
50.0
370
    -2
100
AcDbLine
 10
8589.046686947124
 20
8330.515881902615
 30
0.0
 11
8589.046686947124
 21
8759.486444651091
 31
0.0
  0
LINE
  5
1EEFE
330
1E486
100
AcDbEntity
  8
寸法
 62
     0
 48
50.0
370
    -2
100
AcDbLine
 10
8589.046686947124
 20
8285.515881902615
 30
0.0
 11
8589.046686947124
 21
8330.515881902615
 31
0.0
  0
INSERT
  5
1EEFF
330
1E486
100
AcDbEntity
  8
寸法
 62
     0
 48
50.0
370
    -2
100
AcDbBlockReference
  2
_DOTSMALL
 10
8589.046686947124
 20
8285.515881902615
 30
0.0
 41
100.0
 42
100.0
 43
100.0
 50
90.0
  0
INSERT
  5
1EF00
330
1E486
100
AcDbEntity
  8
寸法
 62
     0
 48
50.0
370
    -2
100
AcDbBlockReference
  2
_DOTSMALL
 10
8589.046686947124
 20
8330.515881902615
 30
0.0
 41
100.0
 42
100.0
 43
100.0
 50
270.0
  0
MTEXT
  5
1EF01
330
1E486
100
AcDbEntity
  8
寸法
 62
     7
 48
50.0
100
AcDbMText
 10
8489.046686947123
 20
8645.001163276855
 30
0.0
 40
120.0
 41
0.0
 71
     5
 72
     1
  1
\A1;45
  7
STYLE1
 11
0.0000000000000001
 21
1.0
 31
0.0
 73
     1
 44
1.0
1001
ACAD
1000
MTEXTBEGIN
1070
    73
1070
     1
1070
    44
1040
1.0
1070
    74
1070
     0
1000
MTEXTEND
  0
POINT
  5
1EF02
330
1E486
100
AcDbEntity
  8
DEFPOINTS
 62
     0
 48
50.0
100
AcDbPoint
 10
8190.600000000008
 20
8285.515881902615
 30
0.0
  0
POINT
  5
1EF03
330
1E486
100
AcDbEntity
  8
DEFPOINTS
 62
     0
 48
50.0
100
AcDbPoint
 10
8190.600000000008
 20
8330.515881902615
 30
0.0
  0
POINT
  5
1EF04
330
1E486
100
AcDbEntity
  8
DEFPOINTS
 62
     0
 48
50.0
100
AcDbPoint
 10
8589.046686947124
 20
8330.515881902615
 30
0.0
  0
ENDBLK
  5
1E493
330
1E486
100
AcDbEntity
  8
0
 48
50.0
100
AcDbBlockEnd
  0
BLOCK
  5
1E49F
330
1E494
100
AcDbEntity
  8
0
 48
50.0
100
AcDbBlockBegin
  2
*D44
 70
     1
 10
0.0
 20
0.0
 30
0.0
  3
*D44
  1

  0
LINE
  5
1EEF0
330
1E494
100
AcDbEntity
  8
寸法
 62
     0
 48
50.0
370
    -2
100
AcDbLine
 10
10038.6
 20
8350.515881902614
 30
0.0
 11
10038.6
 21
9348.736203961536
 31
0.0
  0
LINE
  5
1EEF1
330
1E494
100
AcDbEntity
  8
寸法
 62
     0
 48
50.0
370
    -2
100
AcDbLine
 10
10133.6
 20
9096.2755084447
 30
0.0
 11
10133.6
 21
9348.736203961536
 31
0.0
  0
LINE
  5
1EEF2
330
1E494
100
AcDbEntity
  8
寸法
 62
     0
 48
50.0
370
    -2
100
AcDbLine
 10
10038.6
 20
9288.736203961537
 30
0.0
 11
10133.6
 21
9288.736203961537
 31
0.0
  0
LINE
  5
1EEF3
330
1E494
100
AcDbEntity
  8
寸法
 62
     0
 48
50.0
370
    -2
100
AcDbLine
 10
10133.6
 20
9288.736203961537
 30
0.0
 11
10382.49289770553
 21
9288.736203961537
 31
0.0
  0
INSERT
  5
1EEF4
330
1E494
100
AcDbEntity
  8
寸法
 62
     0
 48
50.0
370
    -2
100
AcDbBlockReference
  2
_DOTSMALL
 10
10038.6
 20
9288.736203961537
 30
0.0
 41
100.0
 42
100.0
 43
100.0
 50
180.0
  0
INSERT
  5
1EEF5
330
1E494
100
AcDbEntity
  8
寸法
 62
     0
 48
50.0
370
    -2
100
AcDbBlockReference
  2
_DOTSMALL
 10
10133.6
 20
9288.736203961537
 30
0.0
 41
100.0
 42
100.0
 43
100.0
  0
MTEXT
  5
1EEF6
330
1E494
100
AcDbEntity
  8
寸法
 62
     7
 48
50.0
100
AcDbMText
 10
10316.31827650307
 20
9388.736203961537
 30
0.0
 40
120.0
 41
0.0
 71
     5
 72
     1
  1
\A1;b
  7
STYLE1
 73
     1
 44
1.0
1001
ACAD
1000
MTEXTBEGIN
1070
    73
1070
     1
1070
    44
1040
1.0
1070
    74
1070
     0
1000
MTEXTEND
  0
POINT
  5
1EEF7
330
1E494
100
AcDbEntity
  8
DEFPOINTS
 62
     0
 48
50.0
100
AcDbPoint
 10
10038.6
 20
8330.515881902615
 30
0.0
  0
POINT
  5
1EEF8
330
1E494
100
AcDbEntity
  8
DEFPOINTS
 62
     0
 48
50.0
100
AcDbPoint
 10
10133.6
 20
9076.2755084447
 30
0.0
  0
POINT
  5
1EEF9
330
1E494
100
AcDbEntity
  8
DEFPOINTS
 62
     0
 48
50.0
100
AcDbPoint
 10
10133.6
 20
9288.736203961537
 30
0.0
  0
ENDBLK
  5
1E4A0
330
1E494
100
AcDbEntity
  8
0
 48
50.0
100
AcDbBlockEnd
  0
BLOCK
  5
1E4AD
330
1E4A1
100
AcDbEntity
  8
0
 48
50.0
100
AcDbBlockBegin
  2
*D45
 70
     1
 10
0.0
 20
0.0
 30
0.0
  3
*D45
  1

  0
LINE
  5
1EEE5
330
1E4A1
100
AcDbEntity
  8
寸法
 62
     0
 48
50.0
370
    -2
100
AcDbLine
 10
10038.6
 20
8350.515881902614
 30
0.0
 11
10038.6
 21
9136.275508444699
 31
0.0
  0
LINE
  5
1EEE6
330
1E4A1
100
AcDbEntity
  8
寸法
 62
     0
 48
50.0
370
    -2
100
AcDbLine
 10
9993.6
 20
8300.515881902615
 30
0.0
 11
9993.6
 21
9136.275508444699
 31
0.0
  0
LINE
  5
1EEE7
330
1E4A1
100
AcDbEntity
  8
寸法
 62
     0
 48
50.0
370
    -2
100
AcDbLine
 10
9993.6
 20
9076.275508444698
 30
0.0
 11
9893.600000000001
 21
9076.275508444698
 31
0.0
  0
LINE
  5
1EEE8
330
1E4A1
100
AcDbEntity
  8
寸法
 62
     0
 48
50.0
370
    -2
100
AcDbLine
 10
10038.6
 20
9076.275508444698
 30
0.0
 11
10521.19188309204
 21
9076.275508444698
 31
0.0
  0
LINE
  5
1EEE9
330
1E4A1
100
AcDbEntity
  8
寸法
 62
     0
 48
50.0
370
    -2
100
AcDbLine
 10
9993.6
 20
9076.275508444698
 30
0.0
 11
10038.6
 21
9076.275508444698
 31
0.0
  0
INSERT
  5
1EEEA
330
1E4A1
100
AcDbEntity
  8
寸法
 62
     0
 48
50.0
370
    -2
100
AcDbBlockReference
  2
_DOTSMALL
 10
9993.6
 20
9076.275508444698
 30
0.0
 41
100.0
 42
100.0
 43
100.0
  0
INSERT
  5
1EEEB
330
1E4A1
100
AcDbEntity
  8
寸法
 62
     0
 48
50.0
370
    -2
100
AcDbBlockReference
  2
_DOTSMALL
 10
10038.6
 20
9076.275508444698
 30
0.0
 41
100.0
 42
100.0
 43
100.0
 50
180.0
  0
MTEXT
  5
1EEEC
330
1E4A1
100
AcDbEntity
  8
寸法
 62
     7
 48
50.0
100
AcDbMText
 10
10406.7066017178
 20
9176.275508444698
 30
0.0
 40
120.0
 41
0.0
 71
     5
 72
     1
  1
\A1;45
  7
STYLE1
 73
     1
 44
1.0
1001
ACAD
1000
MTEXTBEGIN
1070
    73
1070
     1
1070
    44
1040
1.0
1070
    74
1070
     0
1000
MTEXTEND
  0
POINT
  5
1EEED
330
1E4A1
100
AcDbEntity
  8
DEFPOINTS
 62
     0
 48
50.0
100
AcDbPoint
 10
10038.6
 20
8330.515881902615
 30
0.0
  0
POINT
  5
1EEEE
330
1E4A1
100
AcDbEntity
  8
DEFPOINTS
 62
     0
 48
50.0
100
AcDbPoint
 10
9993.6
 20
8280.515881902614
 30
0.0
  0
POINT
  5
1EEEF
330
1E4A1
100
AcDbEntity
  8
DEFPOINTS
 62
     0
 48
50.0
100
AcDbPoint
 10
9993.6
 20
9076.275508444698
 30
0.0
  0
ENDBLK
  5
1E4AE
330
1E4A1
100
AcDbEntity
  8
0
 48
50.0
100
AcDbBlockEnd
  0
BLOCK
  5
1F5ED
330
1F5E1
100
AcDbEntity
  8
0
 48
50.0
100
AcDbBlockBegin
  2
*D46
 70
     1
 10
0.0
 20
0.0
 30
0.0
  3
*D46
  1

  0
LINE
  5
1FABE
330
1F5E1
100
AcDbEntity
  8
寸法
 62
     0
 48
50.0
370
    -2
100
AcDbLine
 10
9918.599999999999
 20
8181.529025247579
 30
0.0
 11
9918.599999999999
 21
7909.432127458815
 31
0.0
  0
LINE
  5
1FABF
330
1F5E1
100
AcDbEntity
  8
寸法
 62
     0
 48
50.0
370
    -2
100
AcDbLine
 10
10113.6
 20
8181.529025247579
 30
0.0
 11
10113.6
 21
7909.432127458815
 31
0.0
  0
LINE
  5
1FAC0
330
1F5E1
100
AcDbEntity
  8
寸法
 62
     0
 48
50.0
370
    -2
100
AcDbLine
 10
9918.599999999999
 20
7969.432127458815
 30
0.0
 11
10113.6
 21
7969.432127458815
 31
0.0
  0
LINE
  5
1FAC1
330
1F5E1
100
AcDbEntity
  8
寸法
 62
     0
 48
50.0
370
    -2
100
AcDbLine
 10
10113.6
 20
7969.432127458815
 30
0.0
 11
10490.98988240779
 21
7969.432127458815
 31
0.0
  0
INSERT
  5
1FAC2
330
1F5E1
100
AcDbEntity
  8
寸法
 62
     0
 48
50.0
370
    -2
100
AcDbBlockReference
  2
_DOTSMALL
 10
9918.599999999999
 20
7969.432127458815
 30
0.0
 41
100.0
 42
100.0
 43
100.0
 50
180.0
  0
INSERT
  5
1FAC3
330
1F5E1
100
AcDbEntity
  8
寸法
 62
     0
 48
50.0
370
    -2
100
AcDbBlockReference
  2
_DOTSMALL
 10
10113.6
 20
7969.432127458815
 30
0.0
 41
100.0
 42
100.0
 43
100.0
  0
MTEXT
  5
1FAC4
330
1F5E1
100
AcDbEntity
  8
寸法
 62
     7
 48
50.0
100
AcDbMText
 10
10352.2949412039
 20
8069.432127458815
 30
0.0
 40
120.0
 41
0.0
 71
     5
 72
     1
  1
\A1;195
  7
STYLE1
 73
     1
 44
1.0
1001
ACAD
1000
MTEXTBEGIN
1070
    73
1070
     1
1070
    44
1040
1.0
1070
    74
1070
     0
1000
MTEXTEND
  0
POINT
  5
1FAC5
330
1F5E1
100
AcDbEntity
  8
DEFPOINTS
 62
     0
 48
50.0
100
AcDbPoint
 10
9918.599999999999
 20
8201.529025247578
 30
0.0
  0
POINT
  5
1FAC6
330
1F5E1
100
AcDbEntity
  8
DEFPOINTS
 62
     0
 48
50.0
100
AcDbPoint
 10
10113.6
 20
8201.529025247578
 30
0.0
  0
POINT
  5
1FAC7
330
1F5E1
100
AcDbEntity
  8
DEFPOINTS
 62
     0
 48
50.0
100
AcDbPoint
 10
10113.6
 20
7969.432127458815
 30
0.0
  0
ENDBLK
  5
1F5EE
330
1F5E1
100
AcDbEntity
  8
0
 48
50.0
100
AcDbBlockEnd
  0
BLOCK
  5
1FA3E
330
1FA33
100
AcDbEntity
  8
0
 48
50.0
100
AcDbBlockBegin
  2
*D47
 70
     1
 10
0.0
 20
0.0
 30
0.0
  3
*D47
  1

  0
LINE
  5
1FAE8
330
1FA33
100
AcDbEntity
  8
寸法
 62
     0
 48
50.0
370
    -2
100
AcDbLine
 10
5112.583531720513
 20
2758.296607627377
 30
0.0
 11
5112.583531720513
 21
3158.986152605116
 31
0.0
  0
LINE
  5
1FAE9
330
1FA33
100
AcDbEntity
  8
寸法
 62
     0
 48
50.0
370
    -2
100
AcDbLine
 10
5209.083531720512
 20
2818.604299935068
 30
0.0
 11
5209.083531720512
 21
3158.986152605116
 31
0.0
  0
LINE
  5
1FAEA
330
1FA33
100
AcDbEntity
  8
寸法
 62
     0
 48
50.0
370
    -2
100
AcDbLine
 10
5209.083531720512
 20
3098.986152605116
 30
0.0
 11
5112.583531720513
 21
3098.986152605116
 31
0.0
  0
LINE
  5
1FAEB
330
1FA33
100
AcDbEntity
  8
寸法
 62
     0
 48
50.0
370
    -2
100
AcDbLine
 10
5112.583531720513
 20
3098.986152605116
 30
0.0
 11
4783.612968972035
 21
3098.986152605116
 31
0.0
  0
INSERT
  5
1FAEC
330
1FA33
100
AcDbEntity
  8
寸法
 62
     0
 48
50.0
370
    -2
100
AcDbBlockReference
  2
_DOTSMALL
 10
5209.083531720512
 20
3098.986152605116
 30
0.0
 41
100.0
 42
100.0
 43
100.0
  0
INSERT
  5
1FAED
330
1FA33
100
AcDbEntity
  8
寸法
 62
     0
 48
50.0
370
    -2
100
AcDbBlockReference
  2
_DOTSMALL
 10
5112.583531720513
 20
3098.986152605116
 30
0.0
 41
100.0
 42
100.0
 43
100.0
 50
180.0
  0
MTEXT
  5
1FAEE
330
1FA33
100
AcDbEntity
  8
寸法
 62
     7
 48
50.0
100
AcDbMText
 10
4898.098250346275
 20
3198.986152605116
 30
0.0
 40
120.0
 41
0.0
 71
     5
 72
     1
  1
\A1;45
  7
STYLE1
 73
     1
 44
1.0
1001
ACAD
1000
MTEXTBEGIN
1070
    73
1070
     1
1070
    44
1040
1.0
1070
    74
1070
     0
1000
MTEXTEND
  0
POINT
  5
1FAEF
330
1FA33
100
AcDbEntity
  8
DEFPOINTS
 62
     0
 48
50.0
100
AcDbPoint
 10
5112.583531720513
 20
2738.296607627376
 30
0.0
  0
POINT
  5
1FAF0
330
1FA33
100
AcDbEntity
  8
DEFPOINTS
 62
     0
 48
50.0
100
AcDbPoint
 10
5209.083531720512
 20
2798.604299935068
 30
0.0
  0
POINT
  5
1FAF1
330
1FA33
100
AcDbEntity
  8
DEFPOINTS
 62
     0
 48
50.0
100
AcDbPoint
 10
5209.083531720512
 20
3098.986152605116
 30
0.0
  0
ENDBLK
  5
1FA3F
330
1FA33
100
AcDbEntity
  8
0
 48
50.0
100
AcDbBlockEnd
  0
BLOCK
  5
1FA4C
330
1FA40
100
AcDbEntity
  8
0
 48
50.0
100
AcDbBlockBegin
  2
*D48
 70
     1
 10
0.0
 20
0.0
 30
0.0
  3
*D48
  1

  0
LINE
  5
1FADD
330
1FA40
100
AcDbEntity
  8
寸法
 62
     0
 48
50.0
370
    -2
100
AcDbLine
 10
5242.583531720512
 20
2798.604299935068
 30
0.0
 11
5940.84956489195
 21
2798.604299935068
 31
0.0
  0
LINE
  5
1FADE
330
1FA40
100
AcDbEntity
  8
寸法
 62
     0
 48
50.0
370
    -2
100
AcDbLine
 10
5372.583531720513
 20
2738.296607627376
 30
0.0
 11
5940.84956489195
 21
2738.296607627376
 31
0.0
  0
LINE
  5
1FADF
330
1FA40
100
AcDbEntity
  8
寸法
 62
     0
 48
50.0
370
    -2
100
AcDbLine
 10
5880.849564891949
 20
2798.604299935068
 30
0.0
 11
5880.849564891949
 21
2898.604299935068
 31
0.0
  0
LINE
  5
1FAE0
330
1FA40
100
AcDbEntity
  8
寸法
 62
     0
 48
50.0
370
    -2
100
AcDbLine
 10
5880.849564891949
 20
2738.296607627376
 30
0.0
 11
5880.849564891949
 21
2009.326044878896
 31
0.0
  0
LINE
  5
1FAE1
330
1FA40
100
AcDbEntity
  8
寸法
 62
     0
 48
50.0
370
    -2
100
AcDbLine
 10
5880.849564891949
 20
2798.604299935068
 30
0.0
 11
5880.849564891949
 21
2738.296607627376
 31
0.0
  0
INSERT
  5
1FAE2
330
1FA40
100
AcDbEntity
  8
寸法
 62
     0
 48
50.0
370
    -2
100
AcDbBlockReference
  2
_DOTSMALL
 10
5880.849564891949
 20
2798.604299935068
 30
0.0
 41
100.0
 42
100.0
 43
100.0
 50
270.0
  0
INSERT
  5
1FAE3
330
1FA40
100
AcDbEntity
  8
寸法
 62
     0
 48
50.0
370
    -2
100
AcDbBlockReference
  2
_DOTSMALL
 10
5880.849564891949
 20
2738.296607627376
 30
0.0
 41
100.0
 42
100.0
 43
100.0
 50
90.0
  0
MTEXT
  5
1FAE4
330
1FA40
100
AcDbEntity
  8
寸法
 62
     7
 48
50.0
100
AcDbMText
 10
5780.849564891949
 20
2273.811326253136
 30
0.0
 40
120.0
 41
0.0
 71
     5
 72
     1
  1
\A1;30～35
  7
STYLE1
 11
0.0000000000000001
 21
1.0
 31
0.0
 73
     1
 44
1.0
1001
ACAD
1000
MTEXTBEGIN
1070
    73
1070
     1
1070
    44
1040
1.0
1070
    74
1070
     0
1000
MTEXTEND
  0
POINT
  5
1FAE5
330
1FA40
100
AcDbEntity
  8
DEFPOINTS
 62
     0
 48
50.0
100
AcDbPoint
 10
5222.583531720513
 20
2798.604299935068
 30
0.0
  0
POINT
  5
1FAE6
330
1FA40
100
AcDbEntity
  8
DEFPOINTS
 62
     0
 48
50.0
100
AcDbPoint
 10
5352.583531720513
 20
2738.296607627376
 30
0.0
  0
POINT
  5
1FAE7
330
1FA40
100
AcDbEntity
  8
DEFPOINTS
 62
     0
 48
50.0
100
AcDbPoint
 10
5880.849564891949
 20
2738.296607627376
 30
0.0
  0
ENDBLK
  5
1FA4D
330
1FA40
100
AcDbEntity
  8
0
 48
50.0
100
AcDbBlockEnd
  0
BLOCK
  5
1FA58
330
1FA4E
100
AcDbEntity
  8
0
 48
50.0
100
AcDbBlockBegin
  2
*D49
 70
     1
 10
0.0
 20
0.0
 30
0.0
  3
*D49
  1

  0
LINE
  5
1FB0D
330
1FA4E
100
AcDbEntity
  8
寸法
 62
     0
 48
50.0
370
    -2
100
AcDbLine
 10
7846.125214919609
 20
2763.296607627376
 30
0.0
 11
7846.125214919609
 21
3213.296607627377
 31
0.0
  0
LINE
  5
1FB0E
330
1FA4E
100
AcDbEntity
  8
寸法
 62
     0
 48
50.0
370
    -2
100
AcDbLine
 10
7606.125214919609
 20
2763.296607627376
 30
0.0
 11
7606.125214919609
 21
3213.296607627377
 31
0.0
  0
LINE
  5
1FB0F
330
1FA4E
100
AcDbEntity
  8
寸法
 62
     0
 48
50.0
370
    -2
100
AcDbLine
 10
7846.125214919609
 20
3138.296607627376
 30
0.0
 11
7606.125214919609
 21
3138.296607627376
 31
0.0
  0
INSERT
  5
1FB10
330
1FA4E
100
AcDbEntity
  8
寸法
 62
     0
 48
50.0
370
    -2
100
AcDbBlockReference
  2
_DOTSMALL
 10
7846.125214919609
 20
3138.296607627376
 30
0.0
 41
125.0
 42
125.0
 43
125.0
  0
INSERT
  5
1FB11
330
1FA4E
100
AcDbEntity
  8
寸法
 62
     0
 48
50.0
370
    -2
100
AcDbBlockReference
  2
_DOTSMALL
 10
7606.125214919609
 20
3138.296607627376
 30
0.0
 41
125.0
 42
125.0
 43
125.0
 50
180.0
  0
MTEXT
  5
1FB12
330
1FA4E
100
AcDbEntity
  8
寸法
 62
     7
 48
50.0
100
AcDbMText
 10
7726.125214919609
 20
3296.639783480395
 30
0.0
 40
100.0
 41
0.0
 71
     5
 72
     1
  1
\A1;120\P195
  7
STYLE1
 73
     1
 44
1.0
1001
ACAD
1000
MTEXTBEGIN
1070
    73
1070
     1
1070
    44
1040
1.0
1070
    74
1070
     0
1000
MTEXTEND
  0
POINT
  5
1FB13
330
1FA4E
100
AcDbEntity
  8
DEFPOINTS
 62
     0
 48
50.0
100
AcDbPoint
 10
7846.125214919609
 20
2738.296607627376
 30
0.0
  0
POINT
  5
1FB14
330
1FA4E
100
AcDbEntity
  8
DEFPOINTS
 62
     0
 48
50.0
100
AcDbPoint
 10
7606.125214919609
 20
2738.296607627376
 30
0.0
  0
POINT
  5
1FB15
330
1FA4E
100
AcDbEntity
  8
DEFPOINTS
 62
     0
 48
50.0
100
AcDbPoint
 10
7606.125214919609
 20
3138.296607627376
 30
0.0
  0
ENDBLK
  5
1FA59
330
1FA4E
100
AcDbEntity
  8
0
 48
50.0
100
AcDbBlockEnd
  0
BLOCK
  5
1FA64
330
1FA5A
100
AcDbEntity
  8
0
 48
50.0
100
AcDbBlockBegin
  2
*D50
 70
     1
 10
0.0
 20
0.0
 30
0.0
  3
*D50
  1

  0
LINE
  5
1FB04
330
1FA5A
100
AcDbEntity
  8
寸法
 62
     0
 48
50.0
370
    -2
100
AcDbLine
 10
7581.125214919609
 20
2738.296607627376
 30
0.0
 11
6845.480276883546
 21
2738.296607627377
 31
0.0
  0
LINE
  5
1FB05
330
1FA5A
100
AcDbEntity
  8
寸法
 62
     0
 48
50.0
370
    -2
100
AcDbLine
 10
7321.12521491961
 20
1758.296607627376
 30
0.0
 11
6845.480276883545
 21
1758.296607627376
 31
0.0
  0
LINE
  5
1FB06
330
1FA5A
100
AcDbEntity
  8
寸法
 62
     0
 48
50.0
370
    -2
100
AcDbLine
 10
6920.480276883546
 20
2738.296607627377
 30
0.0
 11
6920.480276883544
 21
1758.296607627376
 31
0.0
  0
INSERT
  5
1FB07
330
1FA5A
100
AcDbEntity
  8
寸法
 62
     0
 48
50.0
370
    -2
100
AcDbBlockReference
  2
_DOTSMALL
 10
6920.480276883546
 20
2738.296607627377
 30
0.0
 41
125.0
 42
125.0
 43
125.0
 50
90.0
  0
INSERT
  5
1FB08
330
1FA5A
100
AcDbEntity
  8
寸法
 62
     0
 48
50.0
370
    -2
100
AcDbBlockReference
  2
_DOTSMALL
 10
6920.480276883544
 20
1758.296607627376
 30
0.0
 41
125.0
 42
125.0
 43
125.0
 50
270.0
  0
MTEXT
  5
1FB09
330
1FA5A
100
AcDbEntity
  8
寸法
 62
     7
 48
50.0
100
AcDbMText
 10
6845.480276883545
 20
2248.296607627377
 30
0.0
 40
100.0
 41
0.0
 71
     5
 72
     1
  1
\A1;540
  7
STYLE1
 11
0.0000000000000001
 21
1.0
 31
0.0
 73
     1
 44
1.0
1001
ACAD
1000
MTEXTBEGIN
1070
    73
1070
     1
1070
    44
1040
1.0
1070
    74
1070
     0
1000
MTEXTEND
  0
POINT
  5
1FB0A
330
1FA5A
100
AcDbEntity
  8
DEFPOINTS
 62
     0
 48
50.0
100
AcDbPoint
 10
7606.125214919609
 20
2738.296607627376
 30
0.0
  0
POINT
  5
1FB0B
330
1FA5A
100
AcDbEntity
  8
DEFPOINTS
 62
     0
 48
50.0
100
AcDbPoint
 10
7346.125214919609
 20
1758.296607627376
 30
0.0
  0
POINT
  5
1FB0C
330
1FA5A
100
AcDbEntity
  8
DEFPOINTS
 62
     0
 48
50.0
100
AcDbPoint
 10
6920.480276883544
 20
1758.296607627376
 30
0.0
  0
ENDBLK
  5
1FA65
330
1FA5A
100
AcDbEntity
  8
0
 48
50.0
100
AcDbBlockEnd
  0
BLOCK
  5
1FA70
330
1FA66
100
AcDbEntity
  8
0
 48
50.0
100
AcDbBlockBegin
  2
*D51
 70
     1
 10
0.0
 20
0.0
 30
0.0
  3
*D51
  1

  0
LINE
  5
1FAFB
330
1FA66
100
AcDbEntity
  8
寸法
 62
     0
 48
50.0
370
    -2
100
AcDbLine
 10
7421.12521491961
 20
2058.296607627377
 30
0.0
 11
7118.099822754036
 21
2058.296607627377
 31
0.0
  0
LINE
  5
1FAFC
330
1FA66
100
AcDbEntity
  8
寸法
 62
     0
 48
50.0
370
    -2
100
AcDbLine
 10
7321.12521491961
 20
1758.296607627376
 30
0.0
 11
7118.099822754036
 21
1758.296607627376
 31
0.0
  0
LINE
  5
1FAFD
330
1FA66
100
AcDbEntity
  8
寸法
 62
     0
 48
50.0
370
    -2
100
AcDbLine
 10
7193.099822754035
 20
2058.296607627377
 30
0.0
 11
7193.099822754035
 21
1758.296607627376
 31
0.0
  0
INSERT
  5
1FAFE
330
1FA66
100
AcDbEntity
  8
寸法
 62
     0
 48
50.0
370
    -2
100
AcDbBlockReference
  2
_DOTSMALL
 10
7193.099822754035
 20
2058.296607627377
 30
0.0
 41
125.0
 42
125.0
 43
125.0
 50
90.0
  0
INSERT
  5
1FAFF
330
1FA66
100
AcDbEntity
  8
寸法
 62
     0
 48
50.0
370
    -2
100
AcDbBlockReference
  2
_DOTSMALL
 10
7193.099822754035
 20
1758.296607627376
 30
0.0
 41
125.0
 42
125.0
 43
125.0
 50
270.0
  0
MTEXT
  5
1FB00
330
1FA66
100
AcDbEntity
  8
寸法
 62
     7
 48
50.0
100
AcDbMText
 10
7118.099822754036
 20
1908.296607627377
 30
0.0
 40
100.0
 41
0.0
 71
     5
 72
     1
  1
\A1;150
  7
STYLE1
 11
0.0000000000000001
 21
1.0
 31
0.0
 73
     1
 44
1.0
1001
ACAD
1000
MTEXTBEGIN
1070
    73
1070
     1
1070
    44
1040
1.0
1070
    74
1070
     0
1000
MTEXTEND
  0
POINT
  5
1FB01
330
1FA66
100
AcDbEntity
  8
DEFPOINTS
 62
     0
 48
50.0
100
AcDbPoint
 10
7446.12521491961
 20
2058.296607627377
 30
0.0
  0
POINT
  5
1FB02
330
1FA66
100
AcDbEntity
  8
DEFPOINTS
 62
     0
 48
50.0
100
AcDbPoint
 10
7346.125214919609
 20
1758.296607627376
 30
0.0
  0
POINT
  5
1FB03
330
1FA66
100
AcDbEntity
  8
DEFPOINTS
 62
     0
 48
50.0
100
AcDbPoint
 10
7193.099822754035
 20
1758.296607627376
 30
0.0
  0
ENDBLK
  5
1FA71
330
1FA66
100
AcDbEntity
  8
0
 48
50.0
100
AcDbBlockEnd
  0
BLOCK
  5
1FA7C
330
1FA72
100
AcDbEntity
  8
0
 48
50.0
100
AcDbBlockBegin
  2
*D52
 70
     1
 10
0.0
 20
0.0
 30
0.0
  3
*D52
  1

  0
LINE
  5
1FAF2
330
1FA72
100
AcDbEntity
  8
寸法
 62
     0
 48
50.0
370
    -2
100
AcDbLine
 10
7446.12521491961
 20
1573.296607627376
 30
0.0
 11
7446.12521491961
 21
1224.344501171442
 31
0.0
  0
LINE
  5
1FAF3
330
1FA72
100
AcDbEntity
  8
寸法
 62
     0
 48
50.0
370
    -2
100
AcDbLine
 10
8006.12521491961
 20
1573.296607627376
 30
0.0
 11
8006.12521491961
 21
1224.344501171442
 31
0.0
  0
LINE
  5
1FAF4
330
1FA72
100
AcDbEntity
  8
寸法
 62
     0
 48
50.0
370
    -2
100
AcDbLine
 10
7446.12521491961
 20
1299.344501171442
 30
0.0
 11
8006.12521491961
 21
1299.344501171442
 31
0.0
  0
INSERT
  5
1FAF5
330
1FA72
100
AcDbEntity
  8
寸法
 62
     0
 48
50.0
370
    -2
100
AcDbBlockReference
  2
_DOTSMALL
 10
7446.12521491961
 20
1299.344501171442
 30
0.0
 41
125.0
 42
125.0
 43
125.0
 50
180.0
  0
INSERT
  5
1FAF6
330
1FA72
100
AcDbEntity
  8
寸法
 62
     0
 48
50.0
370
    -2
100
AcDbBlockReference
  2
_DOTSMALL
 10
8006.12521491961
 20
1299.344501171442
 30
0.0
 41
125.0
 42
125.0
 43
125.0
  0
MTEXT
  5
1FAF7
330
1FA72
100
AcDbEntity
  8
寸法
 62
     7
 48
50.0
100
AcDbMText
 10
7726.125214919609
 20
1374.344501171443
 30
0.0
 40
100.0
 41
0.0
 71
     5
 72
     1
  1
\A1;300
  7
STYLE1
 73
     1
 44
1.0
1001
ACAD
1000
MTEXTBEGIN
1070
    73
1070
     1
1070
    44
1040
1.0
1070
    74
1070
     0
1000
MTEXTEND
  0
POINT
  5
1FAF8
330
1FA72
100
AcDbEntity
  8
DEFPOINTS
 62
     0
 48
50.0
100
AcDbPoint
 10
7446.12521491961
 20
1598.296607627376
 30
0.0
  0
POINT
  5
1FAF9
330
1FA72
100
AcDbEntity
  8
DEFPOINTS
 62
     0
 48
50.0
100
AcDbPoint
 10
8006.12521491961
 20
1598.296607627376
 30
0.0
  0
POINT
  5
1FAFA
330
1FA72
100
AcDbEntity
  8
DEFPOINTS
 62
     0
 48
50.0
100
AcDbPoint
 10
8006.12521491961
 20
1299.344501171442
 30
0.0
  0
ENDBLK
  5
1FA7D
330
1FA72
100
AcDbEntity
  8
0
 48
50.0
100
AcDbBlockEnd
  0
BLOCK
  5
1FB24
330
1FB23
100
AcDbEntity
  8
0
 48
50.0
100
AcDbBlockBegin
  2
*D53
 70
     1
 10
0.0
 20
0.0
 30
0.0
  3
*D53
  1

  0
LINE
  5
1FB25
330
1FB23
100
AcDbEntity
  8
寸法
 62
     0
 48
50.0
370
    -2
100
AcDbLine
 10
5850.794969903727
 20
2628.352619445893
 30
0.0
 11
5850.794969903727
 21
3029.042164423632
 31
0.0
  0
LINE
  5
1FB26
330
1FB23
100
AcDbEntity
  8
寸法
 62
     0
 48
50.0
370
    -2
100
AcDbLine
 10
5947.294969903727
 20
2688.660311753584
 30
0.0
 11
5947.294969903727
 21
3029.042164423632
 31
0.0
  0
LINE
  5
1FB27
330
1FB23
100
AcDbEntity
  8
寸法
 62
     0
 48
50.0
370
    -2
100
AcDbLine
 10
5947.294969903727
 20
2969.042164423632
 30
0.0
 11
5850.794969903727
 21
2969.042164423632
 31
0.0
  0
LINE
  5
1FB28
330
1FB23
100
AcDbEntity
  8
寸法
 62
     0
 48
50.0
370
    -2
100
AcDbLine
 10
5850.794969903727
 20
2969.042164423632
 30
0.0
 11
5521.82440715525
 21
2969.042164423632
 31
0.0
  0
INSERT
  5
1FB29
330
1FB23
100
AcDbEntity
  8
寸法
 62
     0
 48
50.0
370
    -2
100
AcDbBlockReference
  2
_DOTSMALL
 10
5947.294969903727
 20
2969.042164423632
 30
0.0
 41
100.0
 42
100.0
 43
100.0
  0
INSERT
  5
1FB2A
330
1FB23
100
AcDbEntity
  8
寸法
 62
     0
 48
50.0
370
    -2
100
AcDbBlockReference
  2
_DOTSMALL
 10
5850.794969903727
 20
2969.042164423632
 30
0.0
 41
100.0
 42
100.0
 43
100.0
 50
180.0
  0
MTEXT
  5
1FB2B
330
1FB23
100
AcDbEntity
  8
寸法
 62
     7
 48
50.0
100
AcDbMText
 10
5636.30968852949
 20
3069.042164423632
 30
0.0
 40
120.0
 41
0.0
 71
     5
 72
     1
  1
\A1;45
  7
STYLE1
 73
     1
 44
1.0
1001
ACAD
1000
MTEXTBEGIN
1070
    73
1070
     1
1070
    44
1040
1.0
1070
    74
1070
     0
1000
MTEXTEND
  0
POINT
  5
1FB2C
330
1FB23
100
AcDbEntity
  8
DEFPOINTS
 62
     0
 48
50.0
100
AcDbPoint
 10
5850.794969903727
 20
2608.352619445893
 30
0.0
  0
POINT
  5
1FB2D
330
1FB23
100
AcDbEntity
  8
DEFPOINTS
 62
     0
 48
50.0
100
AcDbPoint
 10
5947.294969903727
 20
2668.660311753584
 30
0.0
  0
POINT
  5
1FB2E
330
1FB23
100
AcDbEntity
  8
DEFPOINTS
 62
     0
 48
50.0
100
AcDbPoint
 10
5947.294969903727
 20
2969.042164423632
 30
0.0
  0
ENDBLK
  5
1FB2F
330
1FB23
100
AcDbEntity
  8
0
 48
50.0
100
AcDbBlockEnd
  0
BLOCK
  5
1FB31
330
1FB30
100
AcDbEntity
  8
0
 48
50.0
100
AcDbBlockBegin
  2
*D54
 70
     1
 10
0.0
 20
0.0
 30
0.0
  3
*D54
  1

  0
LINE
  5
1FB32
330
1FB30
100
AcDbEntity
  8
寸法
 62
     0
 48
50.0
370
    -2
100
AcDbLine
 10
5980.794969903727
 20
2668.660311753584
 30
0.0
 11
6679.061003075164
 21
2668.660311753584
 31
0.0
  0
LINE
  5
1FB33
330
1FB30
100
AcDbEntity
  8
寸法
 62
     0
 48
50.0
370
    -2
100
AcDbLine
 10
6110.794969903727
 20
2608.352619445893
 30
0.0
 11
6679.061003075164
 21
2608.352619445893
 31
0.0
  0
LINE
  5
1FB34
330
1FB30
100
AcDbEntity
  8
寸法
 62
     0
 48
50.0
370
    -2
100
AcDbLine
 10
6619.061003075164
 20
2668.660311753584
 30
0.0
 11
6619.061003075164
 21
2768.660311753584
 31
0.0
  0
LINE
  5
1FB35
330
1FB30
100
AcDbEntity
  8
寸法
 62
     0
 48
50.0
370
    -2
100
AcDbLine
 10
6619.061003075164
 20
2608.352619445893
 30
0.0
 11
6619.061003075163
 21
1879.382056697412
 31
0.0
  0
LINE
  5
1FB36
330
1FB30
100
AcDbEntity
  8
寸法
 62
     0
 48
50.0
370
    -2
100
AcDbLine
 10
6619.061003075164
 20
2668.660311753584
 30
0.0
 11
6619.061003075164
 21
2608.352619445893
 31
0.0
  0
INSERT
  5
1FB37
330
1FB30
100
AcDbEntity
  8
寸法
 62
     0
 48
50.0
370
    -2
100
AcDbBlockReference
  2
_DOTSMALL
 10
6619.061003075164
 20
2668.660311753584
 30
0.0
 41
100.0
 42
100.0
 43
100.0
 50
270.0
  0
INSERT
  5
1FB38
330
1FB30
100
AcDbEntity
  8
寸法
 62
     0
 48
50.0
370
    -2
100
AcDbBlockReference
  2
_DOTSMALL
 10
6619.061003075164
 20
2608.352619445893
 30
0.0
 41
100.0
 42
100.0
 43
100.0
 50
90.0
  0
MTEXT
  5
1FB39
330
1FB30
100
AcDbEntity
  8
寸法
 62
     7
 48
50.0
100
AcDbMText
 10
6519.061003075163
 20
2143.867338071652
 30
0.0
 40
120.0
 41
0.0
 71
     5
 72
     1
  1
\A1;30～35
  7
STYLE1
 11
0.0000000000000001
 21
1.0
 31
0.0
 73
     1
 44
1.0
1001
ACAD
1000
MTEXTBEGIN
1070
    73
1070
     1
1070
    44
1040
1.0
1070
    74
1070
     0
1000
MTEXTEND
  0
POINT
  5
1FB3A
330
1FB30
100
AcDbEntity
  8
DEFPOINTS
 62
     0
 48
50.0
100
AcDbPoint
 10
5960.794969903727
 20
2668.660311753584
 30
0.0
  0
POINT
  5
1FB3B
330
1FB30
100
AcDbEntity
  8
DEFPOINTS
 62
     0
 48
50.0
100
AcDbPoint
 10
6090.794969903727
 20
2608.352619445893
 30
0.0
  0
POINT
  5
1FB3C
330
1FB30
100
AcDbEntity
  8
DEFPOINTS
 62
     0
 48
50.0
100
AcDbPoint
 10
6619.061003075164
 20
2608.352619445893
 30
0.0
  0
ENDBLK
  5
1FB3D
330
1FB30
100
AcDbEntity
  8
0
 48
50.0
100
AcDbBlockEnd
  0
BLOCK
  5
1FB3F
330
1FB3E
100
AcDbEntity
  8
0
 48
50.0
100
AcDbBlockBegin
  2
*D55
 70
     1
 10
0.0
 20
0.0
 30
0.0
  3
*D55
  1

  0
LINE
  5
1FB40
330
1FB3E
100
AcDbEntity
  8
寸法
 62
     0
 48
50.0
370
    -2
100
AcDbLine
 10
8584.336653102823
 20
2633.352619445893
 30
0.0
 11
8584.336653102823
 21
3083.352619445893
 31
0.0
  0
LINE
  5
1FB41
330
1FB3E
100
AcDbEntity
  8
寸法
 62
     0
 48
50.0
370
    -2
100
AcDbLine
 10
8344.336653102825
 20
2633.352619445893
 30
0.0
 11
8344.336653102825
 21
3083.352619445893
 31
0.0
  0
LINE
  5
1FB42
330
1FB3E
100
AcDbEntity
  8
寸法
 62
     0
 48
50.0
370
    -2
100
AcDbLine
 10
8584.336653102823
 20
3008.352619445893
 30
0.0
 11
8344.336653102825
 21
3008.352619445893
 31
0.0
  0
INSERT
  5
1FB43
330
1FB3E
100
AcDbEntity
  8
寸法
 62
     0
 48
50.0
370
    -2
100
AcDbBlockReference
  2
_DOTSMALL
 10
8584.336653102823
 20
3008.352619445893
 30
0.0
 41
125.0
 42
125.0
 43
125.0
  0
INSERT
  5
1FB44
330
1FB3E
100
AcDbEntity
  8
寸法
 62
     0
 48
50.0
370
    -2
100
AcDbBlockReference
  2
_DOTSMALL
 10
8344.336653102825
 20
3008.352619445893
 30
0.0
 41
125.0
 42
125.0
 43
125.0
 50
180.0
  0
MTEXT
  5
1FB45
330
1FB3E
100
AcDbEntity
  8
寸法
 62
     7
 48
50.0
100
AcDbMText
 10
8464.336653102824
 20
3166.695795298911
 30
0.0
 40
100.0
 41
0.0
 71
     5
 72
     1
  1
\A1;120\P195
  7
STYLE1
 73
     1
 44
1.0
1001
ACAD
1000
MTEXTBEGIN
1070
    73
1070
     1
1070
    44
1040
1.0
1070
    74
1070
     0
1000
MTEXTEND
  0
POINT
  5
1FB46
330
1FB3E
100
AcDbEntity
  8
DEFPOINTS
 62
     0
 48
50.0
100
AcDbPoint
 10
8584.336653102823
 20
2608.352619445893
 30
0.0
  0
POINT
  5
1FB47
330
1FB3E
100
AcDbEntity
  8
DEFPOINTS
 62
     0
 48
50.0
100
AcDbPoint
 10
8344.336653102825
 20
2608.352619445893
 30
0.0
  0
POINT
  5
1FB48
330
1FB3E
100
AcDbEntity
  8
DEFPOINTS
 62
     0
 48
50.0
100
AcDbPoint
 10
8344.336653102825
 20
3008.352619445893
 30
0.0
  0
ENDBLK
  5
1FB49
330
1FB3E
100
AcDbEntity
  8
0
 48
50.0
100
AcDbBlockEnd
  0
BLOCK
  5
1FB4B
330
1FB4A
100
AcDbEntity
  8
0
 48
50.0
100
AcDbBlockBegin
  2
*D56
 70
     1
 10
0.0
 20
0.0
 30
0.0
  3
*D56
  1

  0
LINE
  5
1FB4C
330
1FB4A
100
AcDbEntity
  8
寸法
 62
     0
 48
50.0
370
    -2
100
AcDbLine
 10
8319.336653102824
 20
2608.352619445893
 30
0.0
 11
7583.69171506676
 21
2608.352619445893
 31
0.0
  0
LINE
  5
1FB4D
330
1FB4A
100
AcDbEntity
  8
寸法
 62
     0
 48
50.0
370
    -2
100
AcDbLine
 10
8059.336653102823
 20
1628.352619445892
 30
0.0
 11
7583.69171506676
 21
1628.352619445893
 31
0.0
  0
LINE
  5
1FB4E
330
1FB4A
100
AcDbEntity
  8
寸法
 62
     0
 48
50.0
370
    -2
100
AcDbLine
 10
7658.69171506676
 20
2608.352619445893
 30
0.0
 11
7658.69171506676
 21
1628.352619445893
 31
0.0
  0
INSERT
  5
1FB4F
330
1FB4A
100
AcDbEntity
  8
寸法
 62
     0
 48
50.0
370
    -2
100
AcDbBlockReference
  2
_DOTSMALL
 10
7658.69171506676
 20
2608.352619445893
 30
0.0
 41
125.0
 42
125.0
 43
125.0
 50
90.0
  0
INSERT
  5
1FB50
330
1FB4A
100
AcDbEntity
  8
寸法
 62
     0
 48
50.0
370
    -2
100
AcDbBlockReference
  2
_DOTSMALL
 10
7658.69171506676
 20
1628.352619445893
 30
0.0
 41
125.0
 42
125.0
 43
125.0
 50
270.0
  0
MTEXT
  5
1FB51
330
1FB4A
100
AcDbEntity
  8
寸法
 62
     7
 48
50.0
100
AcDbMText
 10
7583.69171506676
 20
2118.352619445893
 30
0.0
 40
100.0
 41
0.0
 71
     5
 72
     1
  1
\A1;540
  7
STYLE1
 11
0.0000000000000001
 21
1.0
 31
0.0
 73
     1
 44
1.0
1001
ACAD
1000
MTEXTBEGIN
1070
    73
1070
     1
1070
    44
1040
1.0
1070
    74
1070
     0
1000
MTEXTEND
  0
POINT
  5
1FB52
330
1FB4A
100
AcDbEntity
  8
DEFPOINTS
 62
     0
 48
50.0
100
AcDbPoint
 10
8344.336653102825
 20
2608.352619445893
 30
0.0
  0
POINT
  5
1FB53
330
1FB4A
100
AcDbEntity
  8
DEFPOINTS
 62
     0
 48
50.0
100
AcDbPoint
 10
8084.336653102823
 20
1628.352619445892
 30
0.0
  0
POINT
  5
1FB54
330
1FB4A
100
AcDbEntity
  8
DEFPOINTS
 62
     0
 48
50.0
100
AcDbPoint
 10
7658.69171506676
 20
1628.352619445893
 30
0.0
  0
ENDBLK
  5
1FB55
330
1FB4A
100
AcDbEntity
  8
0
 48
50.0
100
AcDbBlockEnd
  0
BLOCK
  5
1FB57
330
1FB56
100
AcDbEntity
  8
0
 48
50.0
100
AcDbBlockBegin
  2
*D57
 70
     1
 10
0.0
 20
0.0
 30
0.0
  3
*D57
  1

  0
LINE
  5
1FB58
330
1FB56
100
AcDbEntity
  8
寸法
 62
     0
 48
50.0
370
    -2
100
AcDbLine
 10
8159.336653102824
 20
1928.352619445892
 30
0.0
 11
7856.31126093725
 21
1928.352619445892
 31
0.0
  0
LINE
  5
1FB59
330
1FB56
100
AcDbEntity
  8
寸法
 62
     0
 48
50.0
370
    -2
100
AcDbLine
 10
8059.336653102823
 20
1628.352619445892
 30
0.0
 11
7856.31126093725
 21
1628.352619445892
 31
0.0
  0
LINE
  5
1FB5A
330
1FB56
100
AcDbEntity
  8
寸法
 62
     0
 48
50.0
370
    -2
100
AcDbLine
 10
7931.311260937249
 20
1928.352619445892
 30
0.0
 11
7931.311260937249
 21
1628.352619445892
 31
0.0
  0
INSERT
  5
1FB5B
330
1FB56
100
AcDbEntity
  8
寸法
 62
     0
 48
50.0
370
    -2
100
AcDbBlockReference
  2
_DOTSMALL
 10
7931.311260937249
 20
1928.352619445892
 30
0.0
 41
125.0
 42
125.0
 43
125.0
 50
90.0
  0
INSERT
  5
1FB5C
330
1FB56
100
AcDbEntity
  8
寸法
 62
     0
 48
50.0
370
    -2
100
AcDbBlockReference
  2
_DOTSMALL
 10
7931.311260937249
 20
1628.352619445892
 30
0.0
 41
125.0
 42
125.0
 43
125.0
 50
270.0
  0
MTEXT
  5
1FB5D
330
1FB56
100
AcDbEntity
  8
寸法
 62
     7
 48
50.0
100
AcDbMText
 10
7856.31126093725
 20
1778.352619445892
 30
0.0
 40
100.0
 41
0.0
 71
     5
 72
     1
  1
\A1;150
  7
STYLE1
 11
0.0000000000000001
 21
1.0
 31
0.0
 73
     1
 44
1.0
1001
ACAD
1000
MTEXTBEGIN
1070
    73
1070
     1
1070
    44
1040
1.0
1070
    74
1070
     0
1000
MTEXTEND
  0
POINT
  5
1FB5E
330
1FB56
100
AcDbEntity
  8
DEFPOINTS
 62
     0
 48
50.0
100
AcDbPoint
 10
8184.336653102823
 20
1928.352619445892
 30
0.0
  0
POINT
  5
1FB5F
330
1FB56
100
AcDbEntity
  8
DEFPOINTS
 62
     0
 48
50.0
100
AcDbPoint
 10
8084.336653102823
 20
1628.352619445892
 30
0.0
  0
POINT
  5
1FB60
330
1FB56
100
AcDbEntity
  8
DEFPOINTS
 62
     0
 48
50.0
100
AcDbPoint
 10
7931.311260937249
 20
1628.352619445892
 30
0.0
  0
ENDBLK
  5
1FB61
330
1FB56
100
AcDbEntity
  8
0
 48
50.0
100
AcDbBlockEnd
  0
BLOCK
  5
1FB63
330
1FB62
100
AcDbEntity
  8
0
 48
50.0
100
AcDbBlockBegin
  2
*D58
 70
     1
 10
0.0
 20
0.0
 30
0.0
  3
*D58
  1

  0
LINE
  5
1FB64
330
1FB62
100
AcDbEntity
  8
寸法
 62
     0
 48
50.0
370
    -2
100
AcDbLine
 10
8184.336653102823
 20
1443.352619445892
 30
0.0
 11
8184.336653102823
 21
1094.400512989958
 31
0.0
  0
LINE
  5
1FB65
330
1FB62
100
AcDbEntity
  8
寸法
 62
     0
 48
50.0
370
    -2
100
AcDbLine
 10
8744.336653102825
 20
1443.352619445892
 30
0.0
 11
8744.336653102825
 21
1094.400512989958
 31
0.0
  0
LINE
  5
1FB66
330
1FB62
100
AcDbEntity
  8
寸法
 62
     0
 48
50.0
370
    -2
100
AcDbLine
 10
8184.336653102823
 20
1169.400512989958
 30
0.0
 11
8744.336653102825
 21
1169.400512989958
 31
0.0
  0
INSERT
  5
1FB67
330
1FB62
100
AcDbEntity
  8
寸法
 62
     0
 48
50.0
370
    -2
100
AcDbBlockReference
  2
_DOTSMALL
 10
8184.336653102823
 20
1169.400512989958
 30
0.0
 41
125.0
 42
125.0
 43
125.0
 50
180.0
  0
INSERT
  5
1FB68
330
1FB62
100
AcDbEntity
  8
寸法
 62
     0
 48
50.0
370
    -2
100
AcDbBlockReference
  2
_DOTSMALL
 10
8744.336653102825
 20
1169.400512989958
 30
0.0
 41
125.0
 42
125.0
 43
125.0
  0
MTEXT
  5
1FB69
330
1FB62
100
AcDbEntity
  8
寸法
 62
     7
 48
50.0
100
AcDbMText
 10
8464.336653102824
 20
1244.400512989958
 30
0.0
 40
100.0
 41
0.0
 71
     5
 72
     1
  1
\A1;300
  7
STYLE1
 73
     1
 44
1.0
1001
ACAD
1000
MTEXTBEGIN
1070
    73
1070
     1
1070
    44
1040
1.0
1070
    74
1070
     0
1000
MTEXTEND
  0
POINT
  5
1FB6A
330
1FB62
100
AcDbEntity
  8
DEFPOINTS
 62
     0
 48
50.0
100
AcDbPoint
 10
8184.336653102823
 20
1468.352619445892
 30
0.0
  0
POINT
  5
1FB6B
330
1FB62
100
AcDbEntity
  8
DEFPOINTS
 62
     0
 48
50.0
100
AcDbPoint
 10
8744.336653102825
 20
1468.352619445892
 30
0.0
  0
POINT
  5
1FB6C
330
1FB62
100
AcDbEntity
  8
DEFPOINTS
 62
     0
 48
50.0
100
AcDbPoint
 10
8744.336653102825
 20
1169.400512989958
 30
0.0
  0
ENDBLK
  5
1FB6D
330
1FB62
100
AcDbEntity
  8
0
 48
50.0
100
AcDbBlockEnd
  0
BLOCK
  5
1FE1C
330
1FE12
100
AcDbEntity
  8
0
 48
50.0
100
AcDbBlockBegin
  2
*D60
 70
     1
 10
0.0
 20
0.0
 30
0.0
  3
*D60
  1

  0
LINE
  5
1FE5D
330
1FE12
100
AcDbEntity
  8
寸法
 62
     0
 48
50.0
370
    -2
100
AcDbLine
 10
8131.526261758082
 20
1803.660828985957
 30
0.0
 11
8131.526261758082
 21
1454.708722530023
 31
0.0
  0
LINE
  5
1FE5E
330
1FE12
100
AcDbEntity
  8
寸法
 62
     0
 48
50.0
370
    -2
100
AcDbLine
 10
8691.526261758083
 20
1803.660828985957
 30
0.0
 11
8691.526261758083
 21
1454.708722530023
 31
0.0
  0
LINE
  5
1FE5F
330
1FE12
100
AcDbEntity
  8
寸法
 62
     0
 48
50.0
370
    -2
100
AcDbLine
 10
8131.526261758082
 20
1529.708722530022
 30
0.0
 11
8691.526261758083
 21
1529.708722530022
 31
0.0
  0
INSERT
  5
1FE60
330
1FE12
100
AcDbEntity
  8
寸法
 62
     0
 48
50.0
370
    -2
100
AcDbBlockReference
  2
_DOTSMALL
 10
8131.526261758082
 20
1529.708722530022
 30
0.0
 41
125.0
 42
125.0
 43
125.0
 50
180.0
  0
INSERT
  5
1FE61
330
1FE12
100
AcDbEntity
  8
寸法
 62
     0
 48
50.0
370
    -2
100
AcDbBlockReference
  2
_DOTSMALL
 10
8691.526261758083
 20
1529.708722530022
 30
0.0
 41
125.0
 42
125.0
 43
125.0
  0
MTEXT
  5
1FE62
330
1FE12
100
AcDbEntity
  8
寸法
 62
     7
 48
50.0
100
AcDbMText
 10
8411.526261758082
 20
1604.708722530023
 30
0.0
 40
100.0
 41
0.0
 71
     5
 72
     1
  1
\A1;300
  7
STYLE1
 73
     1
 44
1.0
1001
ACAD
1000
MTEXTBEGIN
1070
    73
1070
     1
1070
    44
1040
1.0
1070
    74
1070
     0
1000
MTEXTEND
  0
POINT
  5
1FE63
330
1FE12
100
AcDbEntity
  8
DEFPOINTS
 62
     0
 48
50.0
100
AcDbPoint
 10
8131.526261758082
 20
1828.660828985957
 30
0.0
  0
POINT
  5
1FE64
330
1FE12
100
AcDbEntity
  8
DEFPOINTS
 62
     0
 48
50.0
100
AcDbPoint
 10
8691.526261758083
 20
1828.660828985957
 30
0.0
  0
POINT
  5
1FE65
330
1FE12
100
AcDbEntity
  8
DEFPOINTS
 62
     0
 48
50.0
100
AcDbPoint
 10
8691.526261758083
 20
1529.708722530022
 30
0.0
  0
ENDBLK
  5
1FE1D
330
1FE12
100
AcDbEntity
  8
0
 48
50.0
100
AcDbBlockEnd
  0
BLOCK
  5
1FE28
330
1FE1E
100
AcDbEntity
  8
0
 48
50.0
100
AcDbBlockBegin
  2
*D61
 70
     1
 10
0.0
 20
0.0
 30
0.0
  3
*D61
  1

  0
LINE
  5
1FE66
330
1FE1E
100
AcDbEntity
  8
寸法
 62
     0
 48
50.0
370
    -2
100
AcDbLine
 10
8106.526261758082
 20
2288.660828985957
 30
0.0
 11
7803.500869592508
 21
2288.660828985957
 31
0.0
  0
LINE
  5
1FE67
330
1FE1E
100
AcDbEntity
  8
寸法
 62
     0
 48
50.0
370
    -2
100
AcDbLine
 10
8006.526261758082
 20
1988.660828985956
 30
0.0
 11
7803.500869592508
 21
1988.660828985956
 31
0.0
  0
LINE
  5
1FE68
330
1FE1E
100
AcDbEntity
  8
寸法
 62
     0
 48
50.0
370
    -2
100
AcDbLine
 10
7878.500869592508
 20
2288.660828985957
 30
0.0
 11
7878.500869592508
 21
1988.660828985956
 31
0.0
  0
INSERT
  5
1FE69
330
1FE1E
100
AcDbEntity
  8
寸法
 62
     0
 48
50.0
370
    -2
100
AcDbBlockReference
  2
_DOTSMALL
 10
7878.500869592508
 20
2288.660828985957
 30
0.0
 41
125.0
 42
125.0
 43
125.0
 50
90.0
  0
INSERT
  5
1FE6A
330
1FE1E
100
AcDbEntity
  8
寸法
 62
     0
 48
50.0
370
    -2
100
AcDbBlockReference
  2
_DOTSMALL
 10
7878.500869592508
 20
1988.660828985956
 30
0.0
 41
125.0
 42
125.0
 43
125.0
 50
270.0
  0
MTEXT
  5
1FE6B
330
1FE1E
100
AcDbEntity
  8
寸法
 62
     7
 48
50.0
100
AcDbMText
 10
7803.500869592508
 20
2138.660828985957
 30
0.0
 40
100.0
 41
0.0
 71
     5
 72
     1
  1
\A1;150
  7
STYLE1
 11
0.0000000000000001
 21
1.0
 31
0.0
 73
     1
 44
1.0
1001
ACAD
1000
MTEXTBEGIN
1070
    73
1070
     1
1070
    44
1040
1.0
1070
    74
1070
     0
1000
MTEXTEND
  0
POINT
  5
1FE6C
330
1FE1E
100
AcDbEntity
  8
DEFPOINTS
 62
     0
 48
50.0
100
AcDbPoint
 10
8131.526261758082
 20
2288.660828985957
 30
0.0
  0
POINT
  5
1FE6D
330
1FE1E
100
AcDbEntity
  8
DEFPOINTS
 62
     0
 48
50.0
100
AcDbPoint
 10
8031.526261758083
 20
1988.660828985956
 30
0.0
  0
POINT
  5
1FE6E
330
1FE1E
100
AcDbEntity
  8
DEFPOINTS
 62
     0
 48
50.0
100
AcDbPoint
 10
7878.500869592508
 20
1988.660828985956
 30
0.0
  0
ENDBLK
  5
1FE29
330
1FE1E
100
AcDbEntity
  8
0
 48
50.0
100
AcDbBlockEnd
  0
BLOCK
  5
1FE34
330
1FE2A
100
AcDbEntity
  8
0
 48
50.0
100
AcDbBlockBegin
  2
*D62
 70
     1
 10
0.0
 20
0.0
 30
0.0
  3
*D62
  1

  0
LINE
  5
1FE6F
330
1FE2A
100
AcDbEntity
  8
寸法
 62
     0
 48
50.0
370
    -2
100
AcDbLine
 10
8266.526261758084
 20
2968.660828985957
 30
0.0
 11
7530.881323722019
 21
2968.660828985957
 31
0.0
  0
LINE
  5
1FE70
330
1FE2A
100
AcDbEntity
  8
寸法
 62
     0
 48
50.0
370
    -2
100
AcDbLine
 10
8006.526261758082
 20
1988.660828985956
 30
0.0
 11
7530.881323722018
 21
1988.660828985957
 31
0.0
  0
LINE
  5
1FE71
330
1FE2A
100
AcDbEntity
  8
寸法
 62
     0
 48
50.0
370
    -2
100
AcDbLine
 10
7605.881323722019
 20
2968.660828985957
 30
0.0
 11
7605.881323722018
 21
1988.660828985957
 31
0.0
  0
INSERT
  5
1FE72
330
1FE2A
100
AcDbEntity
  8
寸法
 62
     0
 48
50.0
370
    -2
100
AcDbBlockReference
  2
_DOTSMALL
 10
7605.881323722019
 20
2968.660828985957
 30
0.0
 41
125.0
 42
125.0
 43
125.0
 50
90.0
  0
INSERT
  5
1FE73
330
1FE2A
100
AcDbEntity
  8
寸法
 62
     0
 48
50.0
370
    -2
100
AcDbBlockReference
  2
_DOTSMALL
 10
7605.881323722018
 20
1988.660828985957
 30
0.0
 41
125.0
 42
125.0
 43
125.0
 50
270.0
  0
MTEXT
  5
1FE74
330
1FE2A
100
AcDbEntity
  8
寸法
 62
     7
 48
50.0
100
AcDbMText
 10
7530.881323722018
 20
2478.660828985957
 30
0.0
 40
100.0
 41
0.0
 71
     5
 72
     1
  1
\A1;540
  7
STYLE1
 11
0.0000000000000001
 21
1.0
 31
0.0
 73
     1
 44
1.0
1001
ACAD
1000
MTEXTBEGIN
1070
    73
1070
     1
1070
    44
1040
1.0
1070
    74
1070
     0
1000
MTEXTEND
  0
POINT
  5
1FE75
330
1FE2A
100
AcDbEntity
  8
DEFPOINTS
 62
     0
 48
50.0
100
AcDbPoint
 10
8291.526261758084
 20
2968.660828985957
 30
0.0
  0
POINT
  5
1FE76
330
1FE2A
100
AcDbEntity
  8
DEFPOINTS
 62
     0
 48
50.0
100
AcDbPoint
 10
8031.526261758083
 20
1988.660828985956
 30
0.0
  0
POINT
  5
1FE77
330
1FE2A
100
AcDbEntity
  8
DEFPOINTS
 62
     0
 48
50.0
100
AcDbPoint
 10
7605.881323722018
 20
1988.660828985957
 30
0.0
  0
ENDBLK
  5
1FE35
330
1FE2A
100
AcDbEntity
  8
0
 48
50.0
100
AcDbBlockEnd
  0
BLOCK
  5
1FE40
330
1FE36
100
AcDbEntity
  8
0
 48
50.0
100
AcDbBlockBegin
  2
*D63
 70
     1
 10
0.0
 20
0.0
 30
0.0
  3
*D63
  1

  0
LINE
  5
1FE78
330
1FE36
100
AcDbEntity
  8
寸法
 62
     0
 48
50.0
370
    -2
100
AcDbLine
 10
8531.526261758083
 20
2993.660828985957
 30
0.0
 11
8531.526261758083
 21
3443.660828985957
 31
0.0
  0
LINE
  5
1FE79
330
1FE36
100
AcDbEntity
  8
寸法
 62
     0
 48
50.0
370
    -2
100
AcDbLine
 10
8291.526261758084
 20
2993.660828985957
 30
0.0
 11
8291.526261758084
 21
3443.660828985957
 31
0.0
  0
LINE
  5
1FE7A
330
1FE36
100
AcDbEntity
  8
寸法
 62
     0
 48
50.0
370
    -2
100
AcDbLine
 10
8531.526261758083
 20
3368.660828985957
 30
0.0
 11
8291.526261758084
 21
3368.660828985957
 31
0.0
  0
INSERT
  5
1FE7B
330
1FE36
100
AcDbEntity
  8
寸法
 62
     0
 48
50.0
370
    -2
100
AcDbBlockReference
  2
_DOTSMALL
 10
8531.526261758083
 20
3368.660828985957
 30
0.0
 41
125.0
 42
125.0
 43
125.0
  0
INSERT
  5
1FE7C
330
1FE36
100
AcDbEntity
  8
寸法
 62
     0
 48
50.0
370
    -2
100
AcDbBlockReference
  2
_DOTSMALL
 10
8291.526261758084
 20
3368.660828985957
 30
0.0
 41
125.0
 42
125.0
 43
125.0
 50
180.0
  0
MTEXT
  5
1FE7D
330
1FE36
100
AcDbEntity
  8
寸法
 62
     7
 48
50.0
100
AcDbMText
 10
8411.526261758082
 20
3527.004004838975
 30
0.0
 40
100.0
 41
0.0
 71
     5
 72
     1
  1
\A1;120\P195
  7
STYLE1
 73
     1
 44
1.0
1001
ACAD
1000
MTEXTBEGIN
1070
    73
1070
     1
1070
    44
1040
1.0
1070
    74
1070
     0
1000
MTEXTEND
  0
POINT
  5
1FE7E
330
1FE36
100
AcDbEntity
  8
DEFPOINTS
 62
     0
 48
50.0
100
AcDbPoint
 10
8531.526261758083
 20
2968.660828985957
 30
0.0
  0
POINT
  5
1FE7F
330
1FE36
100
AcDbEntity
  8
DEFPOINTS
 62
     0
 48
50.0
100
AcDbPoint
 10
8291.526261758084
 20
2968.660828985957
 30
0.0
  0
POINT
  5
1FE80
330
1FE36
100
AcDbEntity
  8
DEFPOINTS
 62
     0
 48
50.0
100
AcDbPoint
 10
8291.526261758084
 20
3368.660828985957
 30
0.0
  0
ENDBLK
  5
1FE41
330
1FE36
100
AcDbEntity
  8
0
 48
50.0
100
AcDbBlockEnd
  0
BLOCK
  5
1FE4E
330
1FE42
100
AcDbEntity
  8
0
 48
50.0
100
AcDbBlockBegin
  2
*D64
 70
     1
 10
0.0
 20
0.0
 30
0.0
  3
*D64
  1

  0
LINE
  5
1FE81
330
1FE42
100
AcDbEntity
  8
寸法
 62
     0
 48
50.0
370
    -2
100
AcDbLine
 10
5927.984578558986
 20
3028.968521293649
 30
0.0
 11
6626.250611730423
 21
3028.968521293649
 31
0.0
  0
LINE
  5
1FE82
330
1FE42
100
AcDbEntity
  8
寸法
 62
     0
 48
50.0
370
    -2
100
AcDbLine
 10
6057.984578558986
 20
2968.660828985957
 30
0.0
 11
6626.250611730423
 21
2968.660828985957
 31
0.0
  0
LINE
  5
1FE83
330
1FE42
100
AcDbEntity
  8
寸法
 62
     0
 48
50.0
370
    -2
100
AcDbLine
 10
6566.250611730423
 20
3028.968521293649
 30
0.0
 11
6566.250611730423
 21
3128.968521293649
 31
0.0
  0
LINE
  5
1FE84
330
1FE42
100
AcDbEntity
  8
寸法
 62
     0
 48
50.0
370
    -2
100
AcDbLine
 10
6566.250611730423
 20
2968.660828985957
 30
0.0
 11
6566.250611730423
 21
2239.690266237476
 31
0.0
  0
LINE
  5
1FE85
330
1FE42
100
AcDbEntity
  8
寸法
 62
     0
 48
50.0
370
    -2
100
AcDbLine
 10
6566.250611730423
 20
3028.968521293649
 30
0.0
 11
6566.250611730423
 21
2968.660828985957
 31
0.0
  0
INSERT
  5
1FE86
330
1FE42
100
AcDbEntity
  8
寸法
 62
     0
 48
50.0
370
    -2
100
AcDbBlockReference
  2
_DOTSMALL
 10
6566.250611730423
 20
3028.968521293649
 30
0.0
 41
100.0
 42
100.0
 43
100.0
 50
270.0
  0
INSERT
  5
1FE87
330
1FE42
100
AcDbEntity
  8
寸法
 62
     0
 48
50.0
370
    -2
100
AcDbBlockReference
  2
_DOTSMALL
 10
6566.250611730423
 20
2968.660828985957
 30
0.0
 41
100.0
 42
100.0
 43
100.0
 50
90.0
  0
MTEXT
  5
1FE88
330
1FE42
100
AcDbEntity
  8
寸法
 62
     7
 48
50.0
100
AcDbMText
 10
6466.250611730422
 20
2504.175547611716
 30
0.0
 40
120.0
 41
0.0
 71
     5
 72
     1
  1
\A1;30～35
  7
STYLE1
 11
0.0000000000000001
 21
1.0
 31
0.0
 73
     1
 44
1.0
1001
ACAD
1000
MTEXTBEGIN
1070
    73
1070
     1
1070
    44
1040
1.0
1070
    74
1070
     0
1000
MTEXTEND
  0
POINT
  5
1FE89
330
1FE42
100
AcDbEntity
  8
DEFPOINTS
 62
     0
 48
50.0
100
AcDbPoint
 10
5907.984578558986
 20
3028.968521293649
 30
0.0
  0
POINT
  5
1FE8A
330
1FE42
100
AcDbEntity
  8
DEFPOINTS
 62
     0
 48
50.0
100
AcDbPoint
 10
6037.984578558986
 20
2968.660828985957
 30
0.0
  0
POINT
  5
1FE8B
330
1FE42
100
AcDbEntity
  8
DEFPOINTS
 62
     0
 48
50.0
100
AcDbPoint
 10
6566.250611730423
 20
2968.660828985957
 30
0.0
  0
ENDBLK
  5
1FE4F
330
1FE42
100
AcDbEntity
  8
0
 48
50.0
100
AcDbBlockEnd
  0
BLOCK
  5
1FE5B
330
1FE50
100
AcDbEntity
  8
0
 48
50.0
100
AcDbBlockBegin
  2
*D65
 70
     1
 10
0.0
 20
0.0
 30
0.0
  3
*D65
  1

  0
LINE
  5
1FE8C
330
1FE50
100
AcDbEntity
  8
寸法
 62
     0
 48
50.0
370
    -2
100
AcDbLine
 10
5797.984578558986
 20
2988.660828985957
 30
0.0
 11
5797.984578558986
 21
3389.350373963696
 31
0.0
  0
LINE
  5
1FE8D
330
1FE50
100
AcDbEntity
  8
寸法
 62
     0
 48
50.0
370
    -2
100
AcDbLine
 10
5894.484578558986
 20
3048.968521293649
 30
0.0
 11
5894.484578558986
 21
3389.350373963696
 31
0.0
  0
LINE
  5
1FE8E
330
1FE50
100
AcDbEntity
  8
寸法
 62
     0
 48
50.0
370
    -2
100
AcDbLine
 10
5894.484578558986
 20
3329.350373963696
 30
0.0
 11
5797.984578558986
 21
3329.350373963696
 31
0.0
  0
LINE
  5
1FE8F
330
1FE50
100
AcDbEntity
  8
寸法
 62
     0
 48
50.0
370
    -2
100
AcDbLine
 10
5797.984578558986
 20
3329.350373963696
 30
0.0
 11
5469.014015810508
 21
3329.350373963696
 31
0.0
  0
INSERT
  5
1FE90
330
1FE50
100
AcDbEntity
  8
寸法
 62
     0
 48
50.0
370
    -2
100
AcDbBlockReference
  2
_DOTSMALL
 10
5894.484578558986
 20
3329.350373963696
 30
0.0
 41
100.0
 42
100.0
 43
100.0
  0
INSERT
  5
1FE91
330
1FE50
100
AcDbEntity
  8
寸法
 62
     0
 48
50.0
370
    -2
100
AcDbBlockReference
  2
_DOTSMALL
 10
5797.984578558986
 20
3329.350373963696
 30
0.0
 41
100.0
 42
100.0
 43
100.0
 50
180.0
  0
MTEXT
  5
1FE92
330
1FE50
100
AcDbEntity
  8
寸法
 62
     7
 48
50.0
100
AcDbMText
 10
5583.499297184747
 20
3429.350373963696
 30
0.0
 40
120.0
 41
0.0
 71
     5
 72
     1
  1
\A1;45
  7
STYLE1
 73
     1
 44
1.0
1001
ACAD
1000
MTEXTBEGIN
1070
    73
1070
     1
1070
    44
1040
1.0
1070
    74
1070
     0
1000
MTEXTEND
  0
POINT
  5
1FE93
330
1FE50
100
AcDbEntity
  8
DEFPOINTS
 62
     0
 48
50.0
100
AcDbPoint
 10
5797.984578558986
 20
2968.660828985957
 30
0.0
  0
POINT
  5
1FE94
330
1FE50
100
AcDbEntity
  8
DEFPOINTS
 62
     0
 48
50.0
100
AcDbPoint
 10
5894.484578558986
 20
3028.968521293649
 30
0.0
  0
POINT
  5
1FE95
330
1FE50
100
AcDbEntity
  8
DEFPOINTS
 62
     0
 48
50.0
100
AcDbPoint
 10
5894.484578558986
 20
3329.350373963696
 30
0.0
  0
ENDBLK
  5
1FE5C
330
1FE50
100
AcDbEntity
  8
0
 48
50.0
100
AcDbBlockEnd
  0
ENDSEC
  0
SECTION
  2
ENTITIES
  0
MTEXT
  5
763F
330
747D
100
AcDbEntity
  8
0
100
AcDbMText
 10
302.846345836809
 20
280.1983726409901
 30
0.0
 40
3.5
 41
5.323721266742722
 71
     1
 72
     5
  1

  7
MSMINCHO
 73
     1
 44
1.0
1001
ACAD
1000
MTEXTBEGIN
1070
    73
1070
     1
1070
    44
1040
1.0
1070
    74
1070
     0
1000
MTEXTEND
  0
LINE
  5
10B57
330
747D
100
AcDbEntity
  8
補助
  6
PHANTOM
 62
   230
 48
50.0
100
AcDbLine
 10
139.9999999999995
 20
11409.6
 30
0.0
 11
16307.2
 21
11409.6
 31
0.0
  0
LINE
  5
10B59
330
747D
100
AcDbEntity
  8
仕様書枠
  6
Continuous
 48
50.0
100
AcDbLine
 10
13107.2
 20
1200.0
 30
0.0
 11
13107.2
 21
-0.0000000000000729
 31
0.0
  0
LINE
  5
10B5D
330
747D
100
AcDbEntity
  8
仕様書枠
 48
50.0
100
AcDbLine
 10
140.0
 20
0.0
 30
0.0
 11
16307.2
 21
-0.0000000000000909
 31
0.0
  0
LINE
  5
10B5E
330
747D
100
AcDbEntity
  8
補助
  6
PHANTOM
 62
   230
 48
50.0
100
AcDbLine
 10
16307.2
 20
11409.6
 30
0.0
 11
16307.2
 21
1200.0
 31
0.0
  0
LINE
  5
10B6C
330
747D
100
AcDbEntity
  8
仕様書枠
 48
50.0
100
AcDbLine
 10
13107.2
 20
1200.0
 30
0.0
 11
16307.2
 21
1200.0
 31
0.0
  0
TEXT
  5
10B73
330
747D
100
AcDbEntity
  8
文字
 62
     7
 48
50.0
100
AcDbText
 10
13162.9790565769
 20
895.0906074299405
 30
0.0
 40
200.0
  1
基 礎 図
  7
STYLE2
100
AcDbText
  0
LINE
  5
10B7B
330
747D
100
AcDbEntity
  8
仕様書枠
 48
50.0
100
AcDbLine
 10
13107.2
 20
800.0
 30
0.0
 11
14251.2
 21
800.0
 31
0.0
  0
LINE
  5
10B88
330
747D
100
AcDbEntity
  8
仕様書枠
  6
Continuous
 48
50.0
100
AcDbLine
 10
14251.2
 20
1200.0
 30
0.0
 11
14251.2
 21
800.0
 31
0.0
  0
LINE
  5
16462
330
747D
100
AcDbEntity
  8
仕様書枠
 48
50.0
100
AcDbLine
 10
16307.2
 20
1200.0
 30
0.0
 11
16307.2
 21
-0.0000000000000909
 31
0.0
  0
LINE
  5
1903B
330
747D
100
AcDbEntity
  8
補助
  6
PHANTOM
 62
   230
 48
50.0
100
AcDbLine
 10
140.0
 20
0.0
 30
0.0
 11
139.9999999999995
 21
11409.6
 31
0.0
  0
LEADER
  5
1AC27
330
747D
100
AcDbEntity
  8
寸法
 48
50.0
100
AcDbLeader
  3
INABA_S50G
 73
     0
 75
     1
 40
120.0
 41
720.0000000000001
 76
     3
 10
7310.758246013183
 20
5670.50994679366
 30
0.0
 10
7091.703903467525
 20
5259.644094281654
 30
0.0
 10
6966.703903467525
 20
5259.644094281654
 30
0.0
340
1AC28
1001
ACAD
1000
DSTYLE
1002
{
1070
   341
1005
0
1070
    40
1040
1.0
1070
   343
1005
0
1070
   344
1005
0
1002
}
  0
MTEXT
  5
1AC28
102
{ACAD_REACTORS
330
1AC27
102
}
330
747D
100
AcDbEntity
  8
部品1
 62
     7
 48
50.0
100
AcDbMText
 10
6941.703903467526
 20
5344.644094281655
 30
0.0
 40
120.0
 41
0.0
 71
     6
 72
     1
  1
\A1;床下換気口
  7
STYLE1
 73
     1
 44
1.0
1001
ACAD
1000
MTEXTBEGIN
1070
    73
1070
     1
1070
    44
1040
1.0
1070
    74
1070
     0
1000
MTEXTEND
  0
TEXT
  5
1AC29
330
747D
100
AcDbEntity
  8
部品1
 48
50.0
100
AcDbText
 10
10206.72523547413
 20
5110.297310178491
 30
0.0
 40
80.0
  1
(a=100,b=95)
  7
STYLE1
100
AcDbText
  0
TEXT
  5
1AC2A
330
747D
100
AcDbEntity
  8
部品1
 48
50.0
100
AcDbText
 10
10048.14622671982
 20
5217.142531047246
 30
0.0
 40
80.0
  1
※a,bは屋根の出幅です。
  7
STYLE1
100
AcDbText
  0
MTEXT
  5
1AC2B
102
{ACAD_REACTORS
330
1AC2C
102
}
330
747D
100
AcDbEntity
  8
部品1
 62
     7
 48
50.0
100
AcDbMText
 10
10845.93342270843
 20
5396.453217980321
 30
0.0
 40
120.0
 41
0.0
 71
     6
 72
     1
  1
\A1;屋根の外寸
  7
STYLE1
 73
     1
 44
1.0
1001
ACAD
1000
MTEXTBEGIN
1070
    73
1070
     1
1070
    44
1040
1.0
1070
    74
1070
     0
1000
MTEXTEND
  0
LEADER
  5
1AC2C
330
747D
100
AcDbEntity
  8
寸法
 48
50.0
100
AcDbLeader
  3
INABA_S50G
 73
     0
 74
     0
 75
     1
 40
120.0
 41
672.0
 76
     3
 10
9907.993410516393
 20
5570.342561443897
 30
0.0
 10
10023.93342270843
 20
5311.453217980321
 30
0.0
 10
10148.93342270843
 20
5311.453217980321
 30
0.0
340
1AC2B
1001
ACAD
1000
DSTYLE
1002
{
1070
   341
1005
0
1070
    40
1040
1.0
1070
   343
1005
0
1070
   344
1005
0
1002
}
  0
TEXT
  5
1C7A1
330
747D
100
AcDbEntity
  8
文字
 62
     7
 48
50.0
100
AcDbText
 10
13188.16259899338
 20
79.80631269190417
 30
0.0
 40
80.0
  1
※布基礎には換気口を設けてください。
  7
STYLE2
100
AcDbText
  0
TEXT
  5
1C7E7
330
747D
100
AcDbEntity
  8
文字
 62
     7
 48
50.0
100
AcDbText
 10
13188.16259899338
 20
246.7109242801889
 30
0.0
 40
80.0
  1
※寒冷地等は地域の実情に合わせた基礎にして下さい。
  7
STYLE2
100
AcDbText
  0
TEXT
  5
1C7E8
330
747D
100
AcDbEntity
  8
文字
 62
     7
 48
50.0
100
AcDbText
 10
14478.98566430227
 20
499.5983841039506
 30
0.0
 40
160.0
  1
ＫＸＮ－１０１Ｈ
  7
STYLE2
100
AcDbText
  0
TEXT
  5
1C7E9
330
747D
100
AcDbEntity
  8
文字
 62
     7
 48
50.0
100
AcDbText
 10
14641.2525855784
 20
871.1744590657927
 30
0.0
 40
100.0
  1
～一般型・多雪地型～
  7
STYLE2
100
AcDbText
  0
TEXT
  5
1C7EC
330
747D
100
AcDbEntity
  8
文字
 62
     7
 48
50.0
100
AcDbText
 10
14830.43440758849
 20
1031.557706291229
 30
0.0
 40
100.0
  1
 <縮尺> S=1/40
  7
STYLE2
100
AcDbText
  0
TEXT
  5
1C7ED
330
747D
100
AcDbEntity
  8
文字
 62
     7
 48
50.0
100
AcDbText
 10
13201.43669998441
 20
477.2740661031257
 30
0.0
 40
160.0
  1
機種名
  7
STYLE2
100
AcDbText
  0
LINE
  5
1C7EF
330
747D
100
AcDbEntity
  8
文字
 62
     7
 48
50.0
100
AcDbLine
 10
13187.2
 20
400.0
 30
0.0
 11
16227.2
 21
400.0
 31
0.0
  0
MTEXT
  5
1D2D5
102
{ACAD_REACTORS
330
1D2D6
102
}
330
747D
100
AcDbEntity
  8
部品1
 62
     7
 48
50.0
100
AcDbMText
 10
5692.561841546922
 20
9164.096305298874
 30
0.0
 40
120.0
 41
0.0
 71
     6
 72
     1
  1
アンカーボルト
  7
STYLE1
 73
     1
 44
1.0
1001
ACAD
1000
MTEXTBEGIN
1070
    73
1070
     1
1070
    44
1040
1.0
1070
    74
1070
     0
1000
MTEXTEND
  0
LEADER
  5
1D2D6
330
747D
100
AcDbEntity
  8
寸法
 48
50.0
100
AcDbLeader
  3
INABA_S50G
 73
     0
 75
     1
 40
120.0
 41
994.3492424049171
 76
     3
 10
6453.285857662603
 20
8230.683661125921
 30
0.0
 10
5842.561841546921
 20
9079.096305298874
 30
0.0
 10
5717.561841546921
 20
9079.096305298874
 30
0.0
340
1D2D5
1001
ACAD
1000
DSTYLE
1002
{
1070
   341
1005
0
1070
    40
1040
1.0
1070
   343
1005
0
1070
   344
1005
0
1002
}
  0
MTEXT
  5
1D332
102
{ACAD_REACTORS
330
1D333
102
}
330
747D
100
AcDbEntity
  8
部品1
 62
     7
 48
50.0
100
AcDbMText
 10
9496.716754155315
 20
7172.711726034521
 30
0.0
 40
120.0
 41
0.0
 71
     6
 72
     1
  1
CB
  7
STYLE1
 73
     1
 44
1.0
1001
ACAD
1000
MTEXTBEGIN
1070
    73
1070
     1
1070
    44
1040
1.0
1070
    74
1070
     0
1000
MTEXTEND
  0
LEADER
  5
1D333
330
747D
100
AcDbEntity
  8
寸法
 48
50.0
100
AcDbLeader
  3
INABA_S50G
 73
     0
 74
     0
 75
     1
 40
120.0
 41
149.591883092037
 76
     3
 10
9056.565642998737
 20
7348.725639602354
 30
0.0
 10
9197.124871063278
 20
7087.711726034521
 30
0.0
 10
9322.124871063278
 20
7087.711726034521
 30
0.0
340
1D332
1001
ACAD
1000
DSTYLE
1002
{
1070
   341
1005
0
1070
    40
1040
1.0
1070
   343
1005
0
1070
   344
1005
0
1002
}
  0
DIMENSION
  5
1E034
330
747D
100
AcDbEntity
  8
寸法
 48
50.0
100
AcDbDimension
  2
*D19
 10
9523.225435690621
 20
8330.515881902615
 30
0.0
 11
9523.225435690619
 21
8566.563125997104
 31
0.0
 70
   160
 71
     5
 42
120.0
  3
INABA_S40G
100
AcDbAlignedDimension
 13
9231.100000000003
 23
8210.515881902614
 33
0.0
 14
9231.100000000001
 24
8330.515881902615
 34
0.0
 50
90.0
100
AcDbRotatedDimension
1001
ACAD
1000
DSTYLE
1002
{
1070
   341
1005
0
1002
}
  0
DIMENSION
  5
1E035
330
747D
100
AcDbEntity
  8
寸法
 48
50.0
100
AcDbDimension
  2
*D20
 10
6453.6
 20
9076.275508444698
 30
0.0
 11
7297.1
 21
9176.275508444698
 31
0.0
 70
    32
 71
     5
 42
1687.0
  3
INABA_S40G
100
AcDbAlignedDimension
 13
8140.6
 23
8335.515881902614
 33
0.0
 14
6453.6
 24
8280.515881902614
 34
0.0
100
AcDbRotatedDimension
1001
ACAD
1000
DSTYLE
1002
{
1070
   341
1005
0
1002
}
  0
LINE
  5
1E036
102
{ACAD_REACTORS
330
1F764
330
1F76B
102
}
330
747D
100
AcDbEntity
  8
部品1
 48
50.0
100
AcDbLine
 10
9918.599999999999
 20
8210.515881902614
 30
0.0
 11
6528.600000000003
 21
8210.515881902617
 31
0.0
  0
LINE
  5
1E037
102
{ACAD_REACTORS
330
1F764
330
1F76B
102
}
330
747D
100
AcDbEntity
  8
部品1
 48
50.0
100
AcDbLine
 10
10038.6
 20
8330.515881902615
 30
0.0
 11
6408.599999999999
 21
8330.515881902615
 31
0.0
  0
DIMENSION
  5
1E038
330
747D
100
AcDbEntity
  8
寸法
 48
50.0
100
AcDbDimension
  2
*D21
 10
10038.6
 20
9288.736203961535
 30
0.0
 11
8223.600000000001
 21
9388.736203961535
 31
0.0
 70
    32
 71
     5
 42
3630.0
  3
INABA_S40G
100
AcDbAlignedDimension
 13
6408.599999999999
 23
8330.515881902615
 33
0.0
 14
10038.6
 24
8330.515881902615
 34
0.0
100
AcDbRotatedDimension
1001
ACAD
1000
DSTYLE
1002
{
1070
   341
1005
0
1002
}
  0
LINE
  5
1E039
330
747D
100
AcDbEntity
  8
センター
 48
2.0
100
AcDbLine
 10
7215.600000000001
 20
7420.515881902615
 30
0.0
 11
7315.6
 21
7420.515881902615
 31
0.0
  0
LINE
  5
1E03A
330
747D
100
AcDbEntity
  8
部品1
 48
50.0
100
AcDbLine
 10
7465.600000000001
 20
7520.515881902615
 30
0.0
 11
7065.6
 21
7520.515881902615
 31
0.0
  0
LINE
  5
1E03B
330
747D
100
AcDbEntity
  8
部品1
 48
50.0
100
AcDbLine
 10
7465.600000000001
 20
6680.515881902614
 30
0.0
 11
7065.6
 21
6680.515881902614
 31
0.0
  0
LINE
  5
1E03C
330
747D
100
AcDbEntity
  8
部品1
 48
50.0
100
AcDbLine
 10
7465.600000000001
 20
7320.515881902612
 30
0.0
 11
7065.6
 21
7320.515881902612
 31
0.0
  0
LINE
  5
1E03D
330
747D
100
AcDbEntity
  8
センター
 48
2.0
100
AcDbLine
 10
7215.600000000001
 20
6580.515881902615
 30
0.0
 11
7315.6
 21
6580.515881902615
 31
0.0
  0
LINE
  5
1E03E
330
747D
100
AcDbEntity
  8
部品1
 48
50.0
100
AcDbLine
 10
7465.600000000001
 20
6480.515881902613
 30
0.0
 11
7065.6
 21
6480.515881902613
 31
0.0
  0
LINE
  5
1E03F
330
747D
100
AcDbEntity
  8
想像線
 48
10.0
100
AcDbLine
 10
10133.6
 20
5570.515881902611
 30
0.0
 11
6313.6
 21
5570.515881902615
 31
0.0
  0
LINE
  5
1E040
102
{ACAD_REACTORS
330
1F77C
330
1F784
102
}
330
747D
100
AcDbEntity
  8
部品1
 48
50.0
100
AcDbLine
 10
9918.600000000001
 20
5790.515881902632
 30
0.0
 11
6528.6
 21
5790.515881902619
 31
0.0
  0
LINE
  5
1E041
102
{ACAD_REACTORS
330
1F77C
330
1F784
102
}
330
747D
100
AcDbEntity
  8
部品1
 48
50.0
100
AcDbLine
 10
10038.6
 20
5670.515881902633
 30
0.0
 11
6408.599999999998
 21
5670.515881902597
 31
0.0
  0
DIMENSION
  5
1E042
330
747D
100
AcDbEntity
  8
寸法
 48
50.0
100
AcDbDimension
  2
*D22
 10
8223.600000000001
 20
7747.827086291239
 30
0.0
 11
7316.1
 21
7847.827086291239
 31
0.0
 70
    32
 71
     5
 42
1815.0
  3
INABA_S40G
100
AcDbAlignedDimension
 13
6408.599999999999
 23
7668.33389576854
 33
0.0
 14
8223.600000000001
 24
7520.515881902615
 34
0.0
100
AcDbRotatedDimension
1001
ACAD
1000
DSTYLE
1002
{
1070
   341
1005
0
1002
}
  0
LINE
  5
1E043
102
{ACAD_REACTORS
330
1F776
102
}
330
747D
100
AcDbEntity
  8
部品1
 48
50.0
100
AcDbLine
 10
6528.6
 20
5790.515881902619
 30
0.0
 11
6528.600000000003
 21
8210.515881902617
 31
0.0
  0
DIMENSION
  5
1E044
330
747D
100
AcDbEntity
  8
寸法
 48
50.0
100
AcDbDimension
  2
*D23
 10
5912.657733986178
 20
5770.515881902618
 30
0.0
 11
5812.645922962555
 21
7000.515881902618
 31
0.0
 70
    32
 71
     5
 42
2459.999999999999
  3
INABA_S40G
100
AcDbAlignedDimension
 13
6403.6
 23
8230.515881902615
 33
0.0
 14
6403.6
 24
5770.515881902617
 34
0.0
 50
90.0
100
AcDbRotatedDimension
1001
ACAD
1000
DSTYLE
1002
{
1070
   341
1005
0
1002
}
  0
LINE
  5
1E045
102
{ACAD_REACTORS
330
1F776
102
}
330
747D
100
AcDbEntity
  8
部品1
 48
50.0
100
AcDbLine
 10
6408.599999999999
 20
5670.515881902614
 30
0.0
 11
6408.599999999999
 21
8330.515881902615
 31
0.0
  0
DIMENSION
  5
1E046
330
747D
100
AcDbEntity
  8
寸法
 48
50.0
100
AcDbDimension
  2
*D24
 10
6833.065724304526
 20
8330.515881902615
 30
0.0
 11
6833.065724304526
 21
7875.515881902614
 31
0.0
 70
   160
 71
     5
 42
910.0
  3
INABA_S40G
100
AcDbAlignedDimension
 13
7065.6
 23
7420.515881902615
 33
0.0
 14
7216.1
 24
8330.515881902615
 34
0.0
 50
90.0
100
AcDbRotatedDimension
1001
ACAD
1000
DSTYLE
1002
{
1070
   341
1005
0
1002
}
  0
DIMENSION
  5
1E047
330
747D
100
AcDbEntity
  8
寸法
 48
50.0
100
AcDbDimension
  2
*D25
 10
5667.16493184821
 20
5670.515881902616
 30
0.0
 11
5567.153120824588
 21
7000.515881902616
 31
0.0
 70
    32
 71
     5
 42
2660.0
  3
INABA_S40G
100
AcDbAlignedDimension
 13
6408.599999999999
 23
8330.515881902615
 33
0.0
 14
6408.599999999999
 24
5670.515881902614
 34
0.0
 50
90.0
100
AcDbRotatedDimension
1001
ACAD
1000
DSTYLE
1002
{
1070
   341
1005
0
1002
}
  0
DIMENSION
  5
1E048
330
747D
100
AcDbEntity
  8
寸法
 48
50.0
100
AcDbDimension
  2
*D26
 10
5912.657733986179
 20
5670.515881902616
 30
0.0
 11
5912.657733986178
 21
5305.456826784504
 31
0.0
 70
   160
 71
     5
 42
100.0000000000018
  3
INABA_S40G
100
AcDbAlignedDimension
 13
6403.6
 23
5770.515881902617
 33
0.0
 14
6408.599999999999
 24
5670.515881902614
 34
0.0
 50
90.0
100
AcDbRotatedDimension
1001
ACAD
1000
DSTYLE
1002
{
1070
   341
1005
0
1002
}
  0
LINE
  5
1E049
330
747D
100
AcDbEntity
  8
想像線
 48
10.0
100
AcDbLine
 10
6313.6
 20
5570.515881902615
 30
0.0
 11
6313.6
 21
8430.515881902612
 31
0.0
  0
DIMENSION
  5
1E04A
330
747D
100
AcDbEntity
  8
寸法
 48
50.0
100
AcDbDimension
  2
*D27
 10
5667.16493184821
 20
5570.515881902615
 30
0.0
 11
5567.16493184821
 21
5620.515881902616
 31
0.0
 70
    32
  1
a
 71
     5
 42
100.0000000000009
  3
INABA_S40G
100
AcDbAlignedDimension
 13
6408.599999999999
 23
5670.515881902614
 33
0.0
 14
5912.657733986178
 24
5570.515881902615
 34
0.0
 50
90.0
100
AcDbRotatedDimension
1001
ACAD
1000
DSTYLE
1002
{
1070
   341
1005
0
1002
}
  0
DIMENSION
  5
1E04B
330
747D
100
AcDbEntity
  8
寸法
 48
50.0
100
AcDbDimension
  2
*D28
 10
6833.065724304526
 20
7420.515881902615
 30
0.0
 11
6733.065724304523
 21
7000.515881902621
 31
0.0
 70
    32
 71
     5
 42
839.9999999999909
  3
INABA_S40G
100
AcDbAlignedDimension
 13
7065.6
 23
6580.515881902623
 33
0.0
 14
7065.6
 24
7420.515881902615
 34
0.0
 50
90.0
100
AcDbRotatedDimension
1001
ACAD
1000
DSTYLE
1002
{
1070
   341
1005
0
1002
}
  0
LINE
  5
1E04C
330
747D
100
AcDbEntity
  8
センター
 48
2.0
100
AcDbLine
 10
6403.6
 20
5770.515881902617
 30
0.0
 11
6503.6
 21
5770.515881902617
 31
0.0
  0
LINE
  5
1E04D
330
747D
100
AcDbEntity
  8
センター
 48
2.0
100
AcDbLine
 10
6453.6
 20
5820.515881902617
 30
0.0
 11
6453.6
 21
5720.515881902617
 31
0.0
  0
DIMENSION
  5
1E04E
330
747D
100
AcDbEntity
  8
寸法
 48
50.0
100
AcDbDimension
  2
*D29
 10
6833.065724304526
 20
6580.515881902623
 30
0.0
 11
6733.065724304523
 21
6125.51588190259
 31
0.0
 70
    32
 71
     5
 42
910.000000000069
  3
INABA_S40G
100
AcDbAlignedDimension
 13
7216.100000000027
 23
5670.515881902555
 33
0.0
 14
7065.6
 24
6580.515881902623
 34
0.0
 50
90.0
100
AcDbRotatedDimension
1001
ACAD
1000
DSTYLE
1002
{
1070
   341
1005
0
1002
}
  0
LINE
  5
1E04F
102
{ACAD_REACTORS
330
1F77C
102
}
330
747D
100
AcDbEntity
  8
部品1
 48
50.0
100
AcDbLine
 10
7216.100000000025
 20
5790.515881902621
 30
0.0
 11
7216.100000000027
 21
5670.515881902555
 31
0.0
  0
LINE
  5
1E050
330
747D
100
AcDbEntity
  8
部品1
 48
50.0
100
AcDbLine
 10
7065.6
 20
6480.515881902615
 30
0.0
 11
7065.6
 21
6680.515881902614
 31
0.0
  0
LINE
  5
1E051
330
747D
100
AcDbEntity
  8
センター
 48
2.0
100
AcDbLine
 10
7265.6
 20
6630.515881902614
 30
0.0
 11
7265.6
 21
6530.515881902615
 31
0.0
  0
LINE
  5
1E052
102
{ACAD_REACTORS
330
1F776
102
}
330
747D
100
AcDbEntity
  8
部品1
 48
50.0
100
AcDbLine
 10
6528.600000000001
 20
6900.515881902615
 30
0.0
 11
6408.599999999999
 21
6900.515881902615
 31
0.0
  0
LINE
  5
1E054
102
{ACAD_REACTORS
330
1F776
102
}
330
747D
100
AcDbEntity
  8
部品1
 48
50.0
100
AcDbLine
 10
6528.600000000001
 20
7100.515881902615
 30
0.0
 11
6408.599999999999
 21
7100.515881902615
 31
0.0
  0
DIMENSION
  5
1E055
330
747D
100
AcDbEntity
  8
寸法
 48
50.0
100
AcDbDimension
  2
*D30
 10
6408.599999999998
 20
7307.68161134469
 30
0.0
 11
6172.55275590551
 21
7307.68161134469
 31
0.0
 70
   160
 71
     5
 42
120.0000000000027
  3
INABA_S40G
100
AcDbAlignedDimension
 13
6528.600000000001
 23
7100.515881902615
 33
0.0
 14
6408.599999999998
 24
7100.515881902615
 34
0.0
100
AcDbRotatedDimension
1001
ACAD
1000
DSTYLE
1002
{
1070
   341
1005
0
1002
}
  0
LINE
  5
1E056
330
747D
100
AcDbEntity
  8
部品1
 48
50.0
100
AcDbLine
 10
7065.6
 20
7320.515881902615
 30
0.0
 11
7065.6
 21
7520.515881902615
 31
0.0
  0
LINE
  5
1E057
330
747D
100
AcDbEntity
  8
センター
 48
2.0
100
AcDbLine
 10
7265.6
 20
7470.515881902615
 30
0.0
 11
7265.6
 21
7370.515881902615
 31
0.0
  0
DIMENSION
  5
1E058
330
747D
100
AcDbEntity
  8
寸法
 48
50.0
100
AcDbDimension
  2
*D31
 10
5667.16493184821
 20
8330.515881902615
 30
0.0
 11
5567.16493184821
 21
8380.515881902615
 31
0.0
 70
    32
  1
a
 71
     5
 42
99.99999999999637
  3
INABA_S40G
100
AcDbAlignedDimension
 13
5912.657733986178
 23
8430.515881902612
 33
0.0
 14
6408.599999999999
 24
8330.515881902615
 34
0.0
 50
90.0
100
AcDbRotatedDimension
1001
ACAD
1000
DSTYLE
1002
{
1070
   341
1005
0
1002
}
  0
DIMENSION
  5
1E05B
330
747D
100
AcDbEntity
  8
寸法
 48
50.0
100
AcDbDimension
  2
*D32
 10
6408.599999999999
 20
9288.736203961537
 30
0.0
 11
6130.881723496926
 21
9288.736203961537
 31
0.0
 70
   160
  1
b
 71
     5
 42
95.0
  3
INABA_S40G
100
AcDbAlignedDimension
 13
6313.6
 23
9076.275508444695
 33
0.0
 14
6408.599999999999
 24
8330.515881902615
 34
0.0
100
AcDbRotatedDimension
1001
ACAD
1000
DSTYLE
1002
{
1070
   341
1005
0
1002
}
  0
DIMENSION
  5
1E05C
330
747D
100
AcDbEntity
  8
寸法
 48
50.0
100
AcDbDimension
  2
*D33
 10
6408.599999999999
 20
9076.275508444698
 30
0.0
 11
6040.493398282202
 21
9076.275508444698
 31
0.0
 70
   160
 71
     5
 42
45.0
  3
INABA_S40G
100
AcDbAlignedDimension
 13
6453.6
 23
8280.515881902614
 33
0.0
 14
6408.599999999999
 24
8330.515881902615
 34
0.0
100
AcDbRotatedDimension
1001
ACAD
1000
DSTYLE
1002
{
1070
   341
1005
0
1002
}
  0
LINE
  5
1E05D
330
747D
100
AcDbEntity
  8
センター
 48
2.0
100
AcDbLine
 10
6403.6
 20
8230.515881902615
 30
0.0
 11
6503.6
 21
8230.515881902615
 31
0.0
  0
LINE
  5
1E05E
330
747D
100
AcDbEntity
  8
部品1
 48
50.0
100
AcDbLine
 10
6807.928907166848
 20
8330.515881902611
 30
0.0
 11
6408.599999999999
 21
8330.515881902615
 31
0.0
  0
DIMENSION
  5
1E05F
330
747D
100
AcDbEntity
  8
寸法
 48
50.0
100
AcDbDimension
  2
*D34
 10
5912.657733986179
 20
8230.515881902615
 30
0.0
 11
5912.657733986178
 21
8695.574937020726
 31
0.0
 70
   160
 71
     5
 42
100.0
  3
INABA_S40G
100
AcDbAlignedDimension
 13
6408.599999999999
 23
8330.515881902615
 33
0.0
 14
6403.6
 24
8230.515881902615
 34
0.0
 50
90.0
100
AcDbRotatedDimension
1001
ACAD
1000
DSTYLE
1002
{
1070
   341
1005
0
1002
}
  0
LINE
  5
1E060
330
747D
100
AcDbEntity
  8
センター
 48
2.0
100
AcDbLine
 10
6453.6
 20
8280.515881902614
 30
0.0
 11
6453.6
 21
8180.515881902614
 31
0.0
  0
LINE
  5
1E061
102
{ACAD_REACTORS
330
1F76B
102
}
330
747D
100
AcDbEntity
  8
部品1
 48
50.0
100
AcDbLine
 10
7216.1
 20
8330.515881902615
 30
0.0
 11
7216.100000000003
 21
8210.515881902617
 31
0.0
  0
DIMENSION
  5
1E062
330
747D
100
AcDbEntity
  8
寸法
 48
50.0
100
AcDbDimension
  2
*D35
 10
8589.046686947124
 20
8210.515881902614
 30
0.0
 11
8589.046686947122
 21
7882.030600528377
 31
0.0
 70
   160
 71
     5
 42
75.0
  3
INABA_S40G
100
AcDbAlignedDimension
 13
8190.600000000008
 23
8285.515881902615
 33
0.0
 14
8190.600000000008
 24
8210.515881902614
 34
0.0
 50
90.0
100
AcDbRotatedDimension
1001
ACAD
1000
DSTYLE
1002
{
1070
   341
1005
0
1002
}
  0
LINE
  5
1E064
102
{ACAD_REACTORS
330
1FACD
102
}
330
747D
100
AcDbEntity
  8
部品1
 48
50.0
100
AcDbLine
 10
10113.6
 20
8330.515881902615
 30
0.0
 11
10113.60000000001
 21
6132.515881902615
 31
0.0
  0
DIMENSION
  5
1E065
330
747D
100
AcDbEntity
  8
寸法
 48
50.0
100
AcDbDimension
  2
*D36
 10
10549.05368375798
 20
6132.515881902613
 30
0.0
 11
10549.05368375798
 21
7231.431796619509
 31
0.0
 70
   160
  1
扉の幅 <>
 71
     5
 42
2198.0
  3
INABA_S40G
100
AcDbAlignedDimension
 13
10113.6
 23
8330.515881902615
 33
0.0
 14
10113.60000000001
 24
6132.515881902615
 34
0.0
 50
90.0
100
AcDbRotatedDimension
1001
ACAD
1000
DSTYLE
1002
{
1070
   341
1005
0
1002
}
  0
LINE
  5
1E066
102
{ACAD_REACTORS
330
1FACD
102
}
330
747D
100
AcDbEntity
  8
部品1
 48
50.0
100
AcDbLine
 10
9918.600000000001
 20
5790.515881902632
 30
0.0
 11
9918.599999999999
 21
8210.515881902614
 31
0.0
  0
DIMENSION
  5
1E06B
330
747D
100
AcDbEntity
  8
寸法
 48
50.0
100
AcDbDimension
  2
*D37
 10
8589.046686947124
 20
5670.515881902614
 30
0.0
 11
8589.046686947122
 21
5356.030600528377
 31
0.0
 70
   160
 71
     5
 42
45.00000000000182
  3
INABA_S40G
100
AcDbAlignedDimension
 13
8190.600000000008
 23
5715.515881902616
 33
0.0
 14
8190.600000000008
 24
5670.515881902614
 34
0.0
 50
90.0
100
AcDbRotatedDimension
1001
ACAD
1000
DSTYLE
1002
{
1070
   341
1005
0
1002
}
  0
LINE
  5
1E06C
330
747D
100
AcDbEntity
  8
センター
 48
10.0
100
AcDbLine
 10
8140.600000000011
 20
5435.515881902624
 30
0.0
 11
8140.600000000011
 21
5675.515881902615
 31
0.0
  0
DIMENSION
  5
1E06D
330
747D
100
AcDbEntity
  8
寸法
 48
50.0
100
AcDbDimension
  2
*D38
 10
9516.494056711406
 20
5790.515881902629
 30
0.0
 11
9516.494056711405
 21
5334.227576934674
 31
0.0
 70
   160
 71
     5
 42
120.0000000000746
  3
INABA_S40G
100
AcDbAlignedDimension
 13
9231.100000000028
 23
5670.515881902555
 33
0.0
 14
9231.100000000022
 24
5790.515881902629
 34
0.0
 50
90.0
100
AcDbRotatedDimension
1001
ACAD
1000
DSTYLE
1002
{
1070
   341
1005
0
1002
}
  0
LINE
  5
1E06E
330
747D
100
AcDbEntity
  8
想像線
 48
10.0
100
AcDbLine
 10
10133.6
 20
8430.515881902607
 30
0.0
 11
10133.6
 21
5570.515881902615
 31
0.0
  0
LINE
  5
1E06F
330
747D
100
AcDbEntity
  8
寸法
 48
50.0
100
AcDbLine
 10
8140.600000000011
 20
5435.515881902624
 30
0.0
 11
7840.600000000012
 21
5435.515881902624
 31
0.0
  0
LINE
  5
1E072
330
747D
100
AcDbEntity
  8
寸法
 48
50.0
100
AcDbLine
 10
7840.600000000012
 20
5435.515881902624
 30
0.0
 11
7985.488873943372
 21
5474.338738668
 31
0.0
  0
LINE
  5
1E073
330
747D
100
AcDbEntity
  8
寸法
 48
50.0
100
AcDbLine
 10
7985.488873943372
 20
5474.338738668
 30
0.0
 11
7985.488873943372
 21
5374.338738668001
 31
0.0
  0
DIMENSION
  5
1E074
330
747D
100
AcDbEntity
  8
寸法
 48
50.0
100
AcDbDimension
  2
*D39
 10
10113.6
 20
7747.827086291239
 30
0.0
 11
9168.600000000003
 21
7847.827086291239
 31
0.0
 70
    32
 71
     5
 42
1890.000000000002
  3
INABA_S40G
100
AcDbAlignedDimension
 13
8223.600000000001
 23
7520.515881902615
 33
0.0
 14
10113.6
 24
7520.515881902615
 34
0.0
100
AcDbRotatedDimension
1001
ACAD
1000
DSTYLE
1002
{
1070
   341
1005
0
1002
}
  0
LINE
  5
1E075
330
747D
100
AcDbEntity
  8
寸法
 48
50.0
100
AcDbLine
 10
8140.600000000008
 20
6015.515881902616
 30
0.0
 11
7840.600000000008
 21
6015.515881902616
 31
0.0
  0
LINE
  5
1E076
330
747D
100
AcDbEntity
  8
センター
 48
2.0
100
AcDbLine
 10
8090.600000000007
 20
5715.515881902616
 30
0.0
 11
8190.600000000008
 21
5715.515881902616
 31
0.0
  0
LINE
  5
1E078
102
{ACAD_REACTORS
330
1F77C
102
}
330
747D
100
AcDbEntity
  8
部品1
 48
50.0
100
AcDbLine
 10
7416.100000000025
 20
5790.515881902622
 30
0.0
 11
7416.100000000027
 21
5670.515881902555
 31
0.0
  0
LINE
  5
1E079
330
747D
100
AcDbEntity
  8
寸法
 48
50.0
100
AcDbLine
 10
7840.600000000008
 20
6015.515881902616
 30
0.0
 11
7985.488873943369
 21
6054.338738667995
 31
0.0
  0
LINE
  5
1E07A
330
747D
100
AcDbEntity
  8
寸法
 48
50.0
100
AcDbLine
 10
7985.488873943369
 20
6054.338738667995
 30
0.0
 11
7985.488873943369
 21
5954.338738667996
 31
0.0
  0
LINE
  5
1E07B
330
747D
100
AcDbEntity
  8
部品1
 48
50.0
100
AcDbLine
 10
7465.600000000001
 20
6480.515881902613
 30
0.0
 11
7465.600000000001
 21
6680.515881902614
 31
0.0
  0
DIMENSION
  5
1E07C
330
747D
100
AcDbEntity
  8
寸法
 48
50.0
100
AcDbDimension
  2
*D40
 10
8589.046686947124
 20
5790.515881902625
 30
0.0
 11
8589.046686947122
 21
6099.001163276865
 31
0.0
 70
   160
 71
     5
 42
75.00000000000909
  3
INABA_S40G
100
AcDbAlignedDimension
 13
8190.600000000008
 23
5715.515881902616
 33
0.0
 14
8190.600000000008
 24
5790.515881902625
 34
0.0
 50
90.0
100
AcDbRotatedDimension
1001
ACAD
1000
DSTYLE
1002
{
1070
   341
1005
0
1002
}
  0
LINE
  5
1E07D
330
747D
100
AcDbEntity
  8
センター
 48
10.0
100
AcDbLine
 10
8140.600000000008
 20
5775.515881902625
 30
0.0
 11
8140.600000000008
 21
6015.515881902616
 31
0.0
  0
LINE
  5
1E07E
330
747D
100
AcDbEntity
  8
センター
 48
2.0
100
AcDbLine
 10
8140.600000000008
 20
5765.515881902616
 30
0.0
 11
8140.600000000008
 21
5665.515881902616
 31
0.0
  0
LINE
  5
1E07F
330
747D
100
AcDbEntity
  8
部品1
 48
50.0
100
AcDbLine
 10
8323.6
 20
6680.515881902614
 30
0.0
 11
8123.600000000001
 21
6680.515881902614
 31
0.0
  0
LINE
  5
1E080
330
747D
100
AcDbEntity
  8
センター
 48
2.0
100
AcDbLine
 10
8223.600000000001
 20
6630.515881902614
 30
0.0
 11
8223.600000000001
 21
6530.515881902615
 31
0.0
  0
LINE
  5
1E081
330
747D
100
AcDbEntity
  8
部品1
 48
50.0
100
AcDbLine
 10
8323.6
 20
6480.515881902613
 30
0.0
 11
8123.600000000001
 21
6480.515881902613
 31
0.0
  0
LINE
  5
1E082
330
747D
100
AcDbEntity
  8
センター
 48
2.0
100
AcDbLine
 10
8173.6
 20
6580.515881902615
 30
0.0
 11
8273.6
 21
6580.515881902615
 31
0.0
  0
LINE
  5
1E083
330
747D
100
AcDbEntity
  8
部品1
 48
50.0
100
AcDbLine
 10
8123.600000000001
 20
6480.515881902615
 30
0.0
 11
8123.600000000001
 21
6680.515881902614
 31
0.0
  0
LINE
  5
1E084
330
747D
100
AcDbEntity
  8
部品1
 48
50.0
100
AcDbLine
 10
8323.6
 20
6480.515881902613
 30
0.0
 11
8323.6
 21
6680.515881902614
 31
0.0
  0
LINE
  5
1E085
330
747D
100
AcDbEntity
  8
部品1
 48
50.0
100
AcDbLine
 10
7465.600000000001
 20
7320.515881902612
 30
0.0
 11
7465.600000000001
 21
7520.515881902615
 31
0.0
  0
LINE
  5
1E086
330
747D
100
AcDbEntity
  8
センター
 48
2.0
100
AcDbLine
 10
8223.600000000001
 20
7470.515881902615
 30
0.0
 11
8223.600000000001
 21
7370.515881902615
 31
0.0
  0
LINE
  5
1E087
330
747D
100
AcDbEntity
  8
部品1
 48
50.0
100
AcDbLine
 10
8323.6
 20
7520.515881902615
 30
0.0
 11
8123.600000000001
 21
7520.515881902615
 31
0.0
  0
LINE
  5
1E088
330
747D
100
AcDbEntity
  8
センター
 48
2.0
100
AcDbLine
 10
8173.6
 20
7420.515881902615
 30
0.0
 11
8273.6
 21
7420.515881902615
 31
0.0
  0
LINE
  5
1E089
330
747D
100
AcDbEntity
  8
部品1
 48
50.0
100
AcDbLine
 10
8323.6
 20
7320.515881902612
 30
0.0
 11
8123.600000000001
 21
7320.515881902612
 31
0.0
  0
LINE
  5
1E08A
330
747D
100
AcDbEntity
  8
部品1
 48
50.0
100
AcDbLine
 10
8323.6
 20
7320.515881902612
 30
0.0
 11
8323.6
 21
7520.515881902615
 31
0.0
  0
LINE
  5
1E08B
330
747D
100
AcDbEntity
  8
部品1
 48
50.0
100
AcDbLine
 10
8123.600000000001
 20
7320.515881902615
 30
0.0
 11
8123.600000000001
 21
7520.515881902615
 31
0.0
  0
LINE
  5
1E08E
102
{ACAD_REACTORS
330
1F784
102
}
330
747D
100
AcDbEntity
  8
部品1
 48
50.0
100
AcDbLine
 10
9031.100000000026
 20
5790.515881902628
 30
0.0
 11
9031.100000000028
 21
5670.515881902555
 31
0.0
  0
LINE
  5
1E08F
102
{ACAD_REACTORS
330
1F784
102
}
330
747D
100
AcDbEntity
  8
部品1
 48
50.0
100
AcDbLine
 10
9231.100000000026
 20
5790.515881902629
 30
0.0
 11
9231.100000000028
 21
5670.515881902555
 31
0.0
  0
LINE
  5
1E090
330
747D
100
AcDbEntity
  8
部品1
 48
50.0
100
AcDbLine
 10
9381.6
 20
6480.515881902613
 30
0.0
 11
8981.6
 21
6480.515881902613
 31
0.0
  0
LINE
  5
1E091
330
747D
100
AcDbEntity
  8
部品1
 48
50.0
100
AcDbLine
 10
9381.6
 20
6680.515881902614
 30
0.0
 11
8981.6
 21
6680.515881902614
 31
0.0
  0
LINE
  5
1E092
330
747D
100
AcDbEntity
  8
センター
 48
2.0
100
AcDbLine
 10
9231.6
 20
6580.515881902615
 30
0.0
 11
9131.6
 21
6580.515881902615
 31
0.0
  0
LINE
  5
1E093
330
747D
100
AcDbEntity
  8
部品1
 48
50.0
100
AcDbLine
 10
8981.6
 20
6480.515881902615
 30
0.0
 11
8981.6
 21
6680.515881902614
 31
0.0
  0
LINE
  5
1E094
330
747D
100
AcDbEntity
  8
センター
 48
2.0
100
AcDbLine
 10
9181.600000000001
 20
6630.515881902614
 30
0.0
 11
9181.600000000001
 21
6530.515881902615
 31
0.0
  0
LINE
  5
1E095
330
747D
100
AcDbEntity
  8
部品1
 48
50.0
100
AcDbLine
 10
9381.6
 20
6480.515881902613
 30
0.0
 11
9381.6
 21
6680.515881902614
 31
0.0
  0
LINE
  5
1E096
330
747D
100
AcDbEntity
  8
部品1
 48
50.0
100
AcDbLine
 10
10038.6
 20
5670.515881902633
 30
0.0
 11
10038.6
 21
6132.515881902615
 31
0.0
  0
LINE
  5
1E097
330
747D
100
AcDbEntity
  8
センター
 48
2.0
100
AcDbLine
 10
9943.600000000008
 20
5770.515881902617
 30
0.0
 11
10043.60000000001
 21
5770.515881902617
 31
0.0
  0
LINE
  5
1E098
330
747D
100
AcDbEntity
  8
センター
 48
2.0
100
AcDbLine
 10
9993.600000000007
 20
5820.515881902617
 30
0.0
 11
9993.600000000007
 21
5720.515881902617
 31
0.0
  0
LINE
  5
1E09E
330
747D
100
AcDbEntity
  8
部品1
 48
50.0
100
AcDbLine
 10
10113.6
 20
6132.515881902615
 30
0.0
 11
10038.60000000001
 21
6132.515881902615
 31
0.0
  0
LINE
  5
1E158
330
747D
100
AcDbEntity
  8
部品1
 48
50.0
100
AcDbLine
 10
9381.6
 20
7320.515881902612
 30
0.0
 11
8981.6
 21
7320.515881902612
 31
0.0
  0
LINE
  5
1E159
330
747D
100
AcDbEntity
  8
部品1
 48
50.0
100
AcDbLine
 10
9381.6
 20
7520.515881902615
 30
0.0
 11
8981.6
 21
7520.515881902615
 31
0.0
  0
LINE
  5
1E15A
330
747D
100
AcDbEntity
  8
センター
 48
2.0
100
AcDbLine
 10
9231.6
 20
7420.515881902615
 30
0.0
 11
9131.6
 21
7420.515881902615
 31
0.0
  0
LINE
  5
1E15B
330
747D
100
AcDbEntity
  8
部品1
 48
50.0
100
AcDbLine
 10
8981.6
 20
7320.515881902615
 30
0.0
 11
8981.6
 21
7520.515881902615
 31
0.0
  0
LINE
  5
1E15C
330
747D
100
AcDbEntity
  8
センター
 48
2.0
100
AcDbLine
 10
9181.600000000001
 20
7470.515881902615
 30
0.0
 11
9181.600000000001
 21
7370.515881902615
 31
0.0
  0
LINE
  5
1E15D
330
747D
100
AcDbEntity
  8
部品1
 48
50.0
100
AcDbLine
 10
9381.6
 20
7320.515881902612
 30
0.0
 11
9381.6
 21
7520.515881902615
 31
0.0
  0
LINE
  5
1E160
102
{ACAD_REACTORS
330
1FACD
102
}
330
747D
100
AcDbEntity
  8
部品1
 48
50.0
100
AcDbLine
 10
10113.6
 20
6900.515881902615
 30
0.0
 11
9918.599999999999
 21
6900.515881902615
 31
0.0
  0
LINE
  5
1E198
102
{ACAD_REACTORS
330
1FACD
102
}
330
747D
100
AcDbEntity
  8
部品1
 48
50.0
100
AcDbLine
 10
10113.6
 20
7100.515881902615
 30
0.0
 11
9918.599999999999
 21
7100.515881902613
 31
0.0
  0
DIMENSION
  5
1E231
330
747D
100
AcDbEntity
  8
寸法
 48
50.0
100
AcDbDimension
  2
*D41
 10
10038.60000000001
 20
5907.959120807114
 30
0.0
 11
10647.08528137425
 21
5907.959120807114
 31
0.0
 70
   160
  1
扉の出<>
 71
     5
 42
74.99999999999636
  3
INABA_S40G
100
AcDbAlignedDimension
 13
10113.60000000001
 23
6132.515881902615
 33
0.0
 14
10038.60000000001
 24
6132.515881902615
 34
0.0
 50
180.0
100
AcDbRotatedDimension
1001
ACAD
1000
DSTYLE
1002
{
1070
   341
1005
0
1002
}
  0
DIMENSION
  5
1E232
330
747D
100
AcDbEntity
  8
寸法
 48
50.0
100
AcDbDimension
  2
*D42
 10
8140.6
 20
9076.275508444698
 30
0.0
 11
9067.100000000001
 21
9176.275508444698
 31
0.0
 70
    32
 71
     5
 42
1853.0
  3
INABA_S40G
100
AcDbAlignedDimension
 13
9993.6
 23
8280.515881902614
 33
0.0
 14
8140.6
 24
8335.515881902614
 34
0.0
100
AcDbRotatedDimension
1001
ACAD
1000
DSTYLE
1002
{
1070
   341
1005
0
1002
}
  0
LINE
  5
1E233
330
747D
100
AcDbEntity
  8
センター
 48
2.0
100
AcDbLine
 10
8090.6
 20
8285.515881902615
 30
0.0
 11
8190.600000000001
 21
8285.515881902615
 31
0.0
  0
LINE
  5
1E234
102
{ACAD_REACTORS
330
1F76B
102
}
330
747D
100
AcDbEntity
  8
部品1
 48
50.0
100
AcDbLine
 10
7416.1
 20
8330.515881902615
 30
0.0
 11
7416.100000000003
 21
8210.515881902617
 31
0.0
  0
DIMENSION
  5
1E235
330
747D
100
AcDbEntity
  8
寸法
 48
50.0
100
AcDbDimension
  2
*D43
 10
8589.046686947124
 20
8330.515881902615
 30
0.0
 11
8589.046686947122
 21
8645.001163276855
 31
0.0
 70
   160
 71
     5
 42
45.0
  3
INABA_S40G
100
AcDbAlignedDimension
 13
8190.600000000008
 23
8285.515881902615
 33
0.0
 14
8190.600000000008
 24
8330.515881902615
 34
0.0
 50
90.0
100
AcDbRotatedDimension
1001
ACAD
1000
DSTYLE
1002
{
1070
   341
1005
0
1002
}
  0
LINE
  5
1E236
330
747D
100
AcDbEntity
  8
センター
 48
2.0
100
AcDbLine
 10
8140.6
 20
8335.515881902614
 30
0.0
 11
8140.6
 21
8235.515881902614
 31
0.0
  0
DIMENSION
  5
1E237
330
747D
100
AcDbEntity
  8
寸法
 48
50.0
100
AcDbDimension
  2
*D44
 10
10133.6
 20
9288.736203961537
 30
0.0
 11
10316.31827650307
 21
9288.736203961537
 31
0.0
 70
   160
  1
b
 71
     5
 42
95.0
  3
INABA_S40G
100
AcDbAlignedDimension
 13
10038.6
 23
8330.515881902615
 33
0.0
 14
10133.6
 24
9076.2755084447
 34
0.0
100
AcDbRotatedDimension
1001
ACAD
1000
DSTYLE
1002
{
1070
   341
1005
0
1002
}
  0
DIMENSION
  5
1E238
330
747D
100
AcDbEntity
  8
寸法
 48
50.0
100
AcDbDimension
  2
*D45
 10
9993.6
 20
9076.275508444698
 30
0.0
 11
10406.7066017178
 21
9076.275508444698
 31
0.0
 70
   160
 71
     5
 42
45.0
  3
INABA_S40G
100
AcDbAlignedDimension
 13
10038.6
 23
8330.515881902615
 33
0.0
 14
9993.6
 24
8280.515881902614
 34
0.0
100
AcDbRotatedDimension
1001
ACAD
1000
DSTYLE
1002
{
1070
   341
1005
0
1002
}
  0
LINE
  5
1E23A
102
{ACAD_REACTORS
330
1F764
102
}
330
747D
100
AcDbEntity
  8
部品1
 48
50.0
100
AcDbLine
 10
9031.1
 20
8330.515881902615
 30
0.0
 11
9031.100000000002
 21
8210.515881902614
 31
0.0
  0
LINE
  5
1E23B
102
{ACAD_REACTORS
330
1F764
102
}
330
747D
100
AcDbEntity
  8
部品1
 48
50.0
100
AcDbLine
 10
9231.100000000001
 20
8330.515881902615
 30
0.0
 11
9231.100000000003
 21
8210.515881902614
 31
0.0
  0
LINE
  5
1E23C
330
747D
100
AcDbEntity
  8
センター
 48
2.0
100
AcDbLine
 10
9993.6
 20
8280.515881902614
 30
0.0
 11
9993.6
 21
8180.515881902614
 31
0.0
  0
LINE
  5
1E297
330
747D
100
AcDbEntity
  8
センター
 48
2.0
100
AcDbLine
 10
9943.600000000001
 20
8230.515881902615
 30
0.0
 11
10043.6
 21
8230.515881902615
 31
0.0
  0
LINE
  5
1E2C8
330
747D
100
AcDbEntity
  8
部品1
 48
50.0
100
AcDbLine
 10
10113.6
 20
8330.515881902615
 30
0.0
 11
10038.6
 21
8330.515881902615
 31
0.0
  0
MTEXT
  5
1EFF2
330
747D
100
AcDbEntity
  8
部品1
 62
     7
 48
50.0
100
AcDbMText
 10
7771.324991789107
 20
5435.866116810721
 30
0.0
 40
120.0
 41
0.0
 71
     6
 72
     1
  1
A
  7
STYLE1
 73
     1
 44
1.0
1001
ACAD
1000
MTEXTBEGIN
1070
    73
1070
     1
1070
    44
1040
1.0
1070
    74
1070
     0
1000
MTEXTEND
  0
MTEXT
  5
1EFF4
330
747D
100
AcDbEntity
  8
部品1
 62
     7
 48
50.0
100
AcDbMText
 10
7814.375829299388
 20
6016.879827148782
 30
0.0
 40
120.0
 41
0.0
 71
     6
 72
     1
  1
A'
  7
STYLE1
 73
     1
 44
1.0
1001
ACAD
1000
MTEXTBEGIN
1070
    73
1070
     1
1070
    44
1040
1.0
1070
    74
1070
     0
1000
MTEXTEND
  0
LINE
  5
1F0AE
330
747D
100
AcDbEntity
  8
想像線
 48
10.0
100
AcDbLine
 10
10133.6
 20
8430.515881902607
 30
0.0
 11
6313.6
 21
8430.515881902612
 31
0.0
  0
TEXT
  5
1F2EE
330
747D
100
AcDbEntity
  8
寸法
 62
     7
100
AcDbText
 10
10789.64566055319
 20
6166.717246314202
 30
0.0
 40
120.0
  1
扉の位置に合わせた基礎形状として下さい。
  7
STYLE1
100
AcDbText
  0
SOLID
  5
1F2F0
330
747D
100
AcDbEntity
  8
寸法
 48
50.0
100
AcDbTrace
 10
-10218.7689167164
 20
6782.346949451245
 30
0.0
 11
-10113.60000000001
 21
6853.047209241996
 31
0.0
 12
-10190.15429642121
 22
6752.059747261646
 32
0.0
 13
-10190.15429642121
 23
6752.059747261646
 33
0.0
210
0.0
220
0.0
230
-1.0
1001
ACAD
1000
DSTYLE
1002
{
1070
   341
1005
0
1070
    40
1040
1.0
1070
   343
1005
0
1070
   344
1005
0
1002
}
  0
TEXT
  5
1F2F1
330
747D
100
AcDbEntity
  8
寸法
 62
     7
100
AcDbText
 10
10789.64566055319
 20
6338.321009197527
 30
0.0
 40
120.0
  1
扉位置 (2198x75)
  7
STYLE1
100
AcDbText
  0
LINE
  5
1F5DE
330
747D
100
AcDbEntity
  8
寸法
 48
50.0
100
AcDbLine
 10
10113.6
 20
6853.047209241992
 30
0.0
 11
10673.02970136043
 21
6316.053061649206
 31
0.0
210
0.0
220
0.0
230
-1.0
1001
ACAD
1000
DSTYLE
1002
{
1070
   341
1005
0
1070
    40
1040
1.0
1070
   343
1005
0
1070
   344
1005
0
1002
}
  0
LINE
  5
1F5DF
330
747D
100
AcDbEntity
  8
寸法
 48
50.0
100
AcDbLine
 10
10673.02970136043
 20
6316.053061649206
 30
0.0
 11
13487.09411429208
 21
6316.053061649206
 31
0.0
210
0.0
220
0.0
230
-1.0
1001
ACAD
1000
DSTYLE
1002
{
1070
   341
1005
0
1070
    40
1040
1.0
1070
   343
1005
0
1070
   344
1005
0
1002
}
  0
DIMENSION
  5
1F5E0
330
747D
100
AcDbEntity
  8
寸法
 48
50.0
100
AcDbDimension
  2
*D46
 10
10113.6
 20
7969.432127458815
 30
0.0
 11
10352.2949412039
 21
7969.432127458815
 31
0.0
 70
   160
 71
     5
 42
195.0000000000073
  3
INABA_S40G
100
AcDbAlignedDimension
 13
9918.599999999999
 23
8201.529025247578
 33
0.0
 14
10113.6
 24
8201.529025247578
 34
0.0
100
AcDbRotatedDimension
1001
ACAD
1000
DSTYLE
1002
{
1070
   341
1005
0
1002
}
  0
HATCH
  5
1F764
330
747D
100
AcDbEntity
  8
細線
 48
50.0
100
AcDbHatch
 10
0.0
 20
0.0
 30
0.0
210
0.0
220
0.0
230
1.0
  2
LINE
 70
     0
 71
     1
 91
        1
 92
        7
 72
     0
 73
     1
 93
        4
 10
9231.100000000003
 20
8210.515881902614
 10
9231.100000000001
 20
8330.515881902616
 10
9031.1
 20
8330.515881902616
 10
9031.100000000003
 20
8210.515881902614
 97
        4
330
1E037
330
1E23A
330
1E036
330
1E23B
 75
     0
 76
     1
 52
45.0
 41
10.0
 77
     0
 78
     1
 53
45.0
 43
0.0
 44
0.0
 45
-22.45064030267288
 46
22.45064030267288
 79
     0
 47
0.7619171071142635
 98
        1
 10
9117.725519097154
 20
8269.792535177977
  0
HATCH
  5
1F76B
330
747D
100
AcDbEntity
  8
細線
 48
50.0
100
AcDbHatch
 10
0.0
 20
0.0
 30
0.0
210
0.0
220
0.0
230
1.0
  2
LINE
 70
     0
 71
     1
 91
        1
 92
        7
 72
     0
 73
     1
 93
        4
 10
7416.1
 20
8330.515881902615
 10
7216.100000000001
 20
8330.515881902615
 10
7216.100000000003
 20
8210.515881902614
 10
7416.1
 20
8210.515881902617
 97
        4
330
1E037
330
1E061
330
1E036
330
1E234
 75
     0
 76
     1
 52
45.0
 41
10.0
 77
     0
 78
     1
 53
45.0
 43
0.0
 44
0.0
 45
-22.45064030267288
 46
22.45064030267288
 79
     0
 47
0.7554115601482305
 98
        1
 10
7371.488408549274
 20
8280.980376184677
  0
HATCH
  5
1F776
330
747D
100
AcDbEntity
  8
細線
 48
50.0
100
AcDbHatch
 10
0.0
 20
0.0
 30
0.0
210
0.0
220
0.0
230
1.0
  2
LINE
 70
     0
 71
     1
 91
        1
 92
        7
 72
     0
 73
     1
 93
        4
 10
6528.600000000003
 20
7100.515881902613
 10
6408.599999999999
 20
7100.515881902615
 10
6408.599999999999
 20
6900.515881902613
 10
6528.6
 20
6900.515881902617
 97
        4
330
1E054
330
1E045
330
1E052
330
1E043
 75
     0
 76
     1
 52
45.0
 41
10.0
 77
     0
 78
     1
 53
45.0
 43
0.0
 44
0.0
 45
-22.45064030267288
 46
22.45064030267288
 79
     0
 47
1.933050540615654
 98
        1
 10
6505.003302169855
 20
6968.179916723991
  0
HATCH
  5
1F77C
330
747D
100
AcDbEntity
  8
細線
 48
50.0
100
AcDbHatch
 10
0.0
 20
0.0
 30
0.0
210
0.0
220
0.0
230
1.0
  2
LINE
 70
     0
 71
     1
 91
        1
 92
        7
 72
     0
 73
     1
 93
        4
 10
7416.100000000027
 20
5670.515881902606
 10
7416.100000000027
 20
5790.515881902624
 10
7216.100000000024
 20
5790.515881902624
 10
7216.100000000029
 20
5670.515881902604
 97
        4
330
1E040
330
1E04F
330
1E041
330
1E078
 75
     0
 76
     1
 52
45.0
 41
10.0
 77
     0
 78
     1
 53
45.0
 43
0.0
 44
0.0
 45
-22.45064030267288
 46
22.45064030267288
 79
     0
 47
1.198089636664163
 98
        1
 10
7337.720335302059
 20
5715.847466035469
  0
HATCH
  5
1F784
330
747D
100
AcDbEntity
  8
細線
 48
50.0
100
AcDbHatch
 10
0.0
 20
0.0
 30
0.0
210
0.0
220
0.0
230
1.0
  2
LINE
 70
     0
 71
     1
 91
        1
 92
        7
 72
     0
 73
     1
 93
        4
 10
9031.100000000026
 20
5790.515881902631
 10
9031.100000000028
 20
5670.515881902623
 10
9231.100000000028
 20
5670.515881902626
 10
9231.100000000024
 20
5790.515881902631
 97
        4
330
1E040
330
1E08E
330
1E041
330
1E08F
 75
     0
 76
     1
 52
45.0
 41
10.0
 77
     0
 78
     1
 53
45.0
 43
0.0
 44
0.0
 45
-22.45064030267288
 46
22.45064030267288
 79
     0
 47
1.198089636664163
 98
        1
 10
9161.084575464382
 20
5742.077041947348
  0
HATCH
  5
1FACD
330
747D
100
AcDbEntity
  8
細線
 48
50.0
100
AcDbHatch
 10
0.0
 20
0.0
 30
0.0
210
0.0
220
0.0
230
1.0
  2
LINE
 70
     0
 71
     1
 91
        1
 92
        7
 72
     0
 73
     1
 93
        4
 10
10113.6
 20
7100.515881902613
 10
9918.600000000001
 20
7100.515881902615
 10
9918.600000000001
 20
6900.515881902615
 10
10113.6
 20
6900.515881902617
 97
        4
330
1E198
330
1E066
330
1E160
330
1E064
 75
     0
 76
     1
 52
45.0
 41
10.0
 77
     0
 78
     1
 53
45.0
 43
0.0
 44
0.0
 45
-22.45064030267288
 46
22.45064030267288
 79
     0
 47
0.8583155945132855
 98
        1
 10
10034.15950642996
 20
7007.956607505272
  0
MTEXT
  5
1FCC2
102
{ACAD_REACTORS
330
1FD03
102
}
330
747D
100
AcDbEntity
  8
寸法
 62
     7
 48
50.0
100
AcDbMText
 10
10857.06870742862
 20
3203.008447682093
 30
0.0
 40
100.0
 41
0.0
 71
     4
 72
     1
  1
C.B
  7
STYLE1
 73
     1
 44
1.0
1001
ACAD
1000
MTEXTBEGIN
1070
    73
1070
     1
1070
    44
1040
1.0
1070
    74
1070
     0
1000
MTEXTEND
  0
LINE
  5
1FCC3
330
747D
100
AcDbEntity
  8
Ｇ．Ｌ
 48
50.0
100
AcDbLine
 10
9681.872444942762
 20
2668.660828985956
 30
0.0
 11
11416.20853544775
 21
2668.660828985958
 31
0.0
  0
LINE
  5
1FCC4
330
747D
100
AcDbEntity
  8
細線
 48
50.0
100
AcDbLine
 10
11163.54678246255
 20
2358.660828985958
 30
0.0
 11
11206.41865325153
 21
2518.660828985958
 31
0.0
  0
LINE
  5
1FCC5
330
747D
100
AcDbEntity
  8
部品1
100
AcDbLine
 10
9964.268248714658
 20
2358.660828985962
 30
0.0
 11
11235.66814135231
 21
2358.660828985962
 31
0.0
  0
LINE
  5
1FCC6
330
747D
100
AcDbEntity
  8
部品1
100
AcDbLine
 10
9964.268248714658
 20
2518.660828985958
 30
0.0
 11
11235.66814135231
 21
2518.660828985958
 31
0.0
  0
LINE
  5
1FCC7
330
747D
100
AcDbEntity
  8
細線
 48
50.0
100
AcDbLine
 10
10374.66633299007
 20
2358.660828985958
 30
0.0
 11
10417.53820377905
 21
2518.660828985958
 31
0.0
  0
LINE
  5
1FCC8
330
747D
100
AcDbEntity
  8
細線
 48
50.0
100
AcDbLine
 10
10382.704808763
 20
2388.660828985958
 30
0.0
 11
10390.74328453594
 21
2358.660828985958
 31
0.0
  0
LINE
  5
1FCC9
330
747D
100
AcDbEntity
  8
細線
100
AcDbLine
 10
10294.78078935491
 20
2668.660828985958
 30
0.0
 11
10594.78078935491
 21
2968.660828985957
 31
0.0
  0
LINE
  5
1FCCA
330
747D
100
AcDbEntity
  8
細線
100
AcDbLine
 10
10254.78078935491
 20
2668.660828985957
 30
0.0
 11
10554.78078935491
 21
2968.660828985957
 31
0.0
  0
LINE
  5
1FCCB
330
747D
100
AcDbEntity
  8
部品1
 48
50.0
100
AcDbLine
 10
10989.96819503349
 20
2968.660828985957
 30
0.0
 11
10209.96819503348
 21
2968.660828985957
 31
0.0
  0
LINE
  5
1FCCC
330
747D
100
AcDbEntity
  8
細線
100
AcDbLine
 10
10316.70891950233
 20
2518.660828985958
 30
0.0
 11
10166.70891950231
 21
2668.660828985957
 31
0.0
  0
LINE
  5
1FCCD
330
747D
100
AcDbEntity
  8
部品1
100
AcDbLine
 10
10064.26824871466
 20
2668.660828985958
 30
0.0
 11
10064.26824871466
 21
2518.660828985958
 31
0.0
  0
LINE
  5
1FCCE
330
747D
100
AcDbEntity
  8
細線
100
AcDbLine
 10
10276.70891950232
 20
2518.660828985958
 30
0.0
 11
10126.70891950232
 21
2668.660828985958
 31
0.0
  0
LINE
  5
1FCCF
330
747D
100
AcDbEntity
  8
細線
100
AcDbLine
 10
10236.70891950231
 20
2518.660828985958
 30
0.0
 11
10086.7089195023
 21
2668.660828985958
 31
0.0
  0
LINE
  5
1FCD0
330
747D
100
AcDbEntity
  8
部品1
100
AcDbLine
 10
9964.268248714658
 20
2518.660828985958
 30
0.0
 11
9964.268248714658
 21
2358.660828985962
 31
0.0
  0
LINE
  5
1FCD1
330
747D
100
AcDbEntity
  8
細線
 48
50.0
100
AcDbLine
 10
10177.44622062195
 20
2358.660828985958
 30
0.0
 11
10220.31809141092
 21
2518.660828985958
 31
0.0
  0
LINE
  5
1FCD2
330
747D
100
AcDbEntity
  8
細線
 48
50.0
100
AcDbLine
 10
10276.056276806
 20
2358.660828985958
 30
0.0
 11
10318.92814759499
 21
2518.660828985958
 31
0.0
  0
LINE
  5
1FCD3
330
747D
100
AcDbEntity
  8
細線
 48
50.0
100
AcDbLine
 10
10284.09475257894
 20
2388.660828985958
 30
0.0
 11
10292.13322835187
 21
2358.660828985958
 31
0.0
  0
LINE
  5
1FCD4
330
747D
100
AcDbEntity
  8
細線
 48
50.0
100
AcDbLine
 10
10185.48469639488
 20
2388.660828985958
 30
0.0
 11
10193.52317216781
 21
2358.660828985958
 31
0.0
  0
LINE
  5
1FCD5
330
747D
100
AcDbEntity
  8
細線
 48
50.0
100
AcDbLine
 10
10086.87464021081
 20
2388.660828985958
 30
0.0
 11
10094.91311598375
 21
2358.660828985958
 31
0.0
  0
LINE
  5
1FCD6
330
747D
100
AcDbEntity
  8
細線
 48
50.0
100
AcDbLine
 10
10078.83616443788
 20
2358.660828985958
 30
0.0
 11
10121.70803522686
 21
2518.660828985958
 31
0.0
  0
LINE
  5
1FCD7
330
747D
100
AcDbEntity
  8
細線
 48
50.0
100
AcDbLine
 10
9988.26458402676
 20
2388.660828985958
 30
0.0
 11
9996.303059799693
 21
2358.660828985958
 31
0.0
  0
LINE
  5
1FCD8
330
747D
100
AcDbEntity
  8
細線
 48
50.0
100
AcDbLine
 10
9980.226108253827
 20
2358.660828985958
 30
0.0
 11
10023.0979790428
 21
2518.660828985958
 31
0.0
  0
LINE
  5
1FCD9
330
747D
100
AcDbEntity
  8
細線
 48
50.0
100
AcDbLine
 10
10113.66955945393
 20
2488.660828985958
 30
0.0
 11
10105.63108368099
 21
2518.660828985958
 31
0.0
  0
LINE
  5
1FCDA
330
747D
100
AcDbEntity
  8
細線
 48
50.0
100
AcDbLine
 10
10015.05950326987
 20
2488.660828985958
 30
0.0
 11
10007.02102749694
 21
2518.660828985958
 31
0.0
  0
LINE
  5
1FCDB
330
747D
100
AcDbEntity
  8
細線
 48
50.0
100
AcDbLine
 10
10310.88967182205
 20
2488.660828985958
 30
0.0
 11
10302.85119604912
 21
2518.660828985958
 31
0.0
  0
LINE
  5
1FCDC
330
747D
100
AcDbEntity
  8
細線
 48
50.0
100
AcDbLine
 10
10212.27961563799
 20
2488.660828985958
 30
0.0
 11
10204.24113986506
 21
2518.660828985958
 31
0.0
  0
LINE
  5
1FCDD
330
747D
100
AcDbEntity
  8
細線
100
AcDbLine
 10
10209.96819503348
 20
2903.848234664534
 30
0.0
 11
10274.78078935491
 21
2968.660828985957
 31
0.0
  0
LINE
  5
1FCDE
330
747D
100
AcDbEntity
  8
細線
100
AcDbLine
 10
10209.96819503348
 20
2943.848234664534
 30
0.0
 11
10234.78078935491
 21
2968.660828985957
 31
0.0
  0
LINE
  5
1FCDF
330
747D
100
AcDbEntity
  8
部品1
 48
50.0
100
AcDbLine
 10
10209.96819503348
 20
2968.660828985957
 30
0.0
 11
10209.96819503348
 21
2668.660828985958
 31
0.0
  0
LINE
  5
1FCE0
330
747D
100
AcDbEntity
  8
細線
100
AcDbLine
 10
11135.66814135232
 20
2579.701607135945
 30
0.0
 11
11046.70891950231
 21
2668.660828985958
 31
0.0
  0
LINE
  5
1FCE1
330
747D
100
AcDbEntity
  8
細線
100
AcDbLine
 10
11135.66814135231
 20
2619.701607135955
 30
0.0
 11
11086.70891950231
 21
2668.660828985958
 31
0.0
  0
LINE
  5
1FCE2
330
747D
100
AcDbEntity
  8
部品1
100
AcDbLine
 10
11135.66814135231
 20
2668.660828985958
 30
0.0
 11
11135.66814135231
 21
2518.660828985958
 31
0.0
  0
LINE
  5
1FCE3
330
747D
100
AcDbEntity
  8
細線
100
AcDbLine
 10
10876.7089195023
 20
2518.660828985958
 30
0.0
 11
10726.70891950231
 21
2668.660828985958
 31
0.0
  0
LINE
  5
1FCE4
330
747D
100
AcDbEntity
  8
細線
100
AcDbLine
 10
10916.70891950232
 20
2518.660828985958
 30
0.0
 11
10766.70891950231
 21
2668.660828985958
 31
0.0
  0
LINE
  5
1FCE5
330
747D
100
AcDbEntity
  8
細線
100
AcDbLine
 10
10956.70891950232
 20
2518.660828985958
 30
0.0
 11
10806.70891950232
 21
2668.660828985958
 31
0.0
  0
LINE
  5
1FCE6
330
747D
100
AcDbEntity
  8
細線
100
AcDbLine
 10
10556.70891950231
 20
2518.660828985958
 30
0.0
 11
10406.70891950231
 21
2668.660828985958
 31
0.0
  0
LINE
  5
1FCE7
330
747D
100
AcDbEntity
  8
細線
100
AcDbLine
 10
10636.70891950232
 20
2518.660828985958
 30
0.0
 11
10486.70891950231
 21
2668.660828985958
 31
0.0
  0
LINE
  5
1FCE8
330
747D
100
AcDbEntity
  8
細線
100
AcDbLine
 10
10596.70891950232
 20
2518.660828985958
 30
0.0
 11
10446.70891950231
 21
2668.660828985958
 31
0.0
  0
LINE
  5
1FCE9
330
747D
100
AcDbEntity
  8
細線
 48
50.0
100
AcDbLine
 10
10769.10655772631
 20
2358.660828985958
 30
0.0
 11
10811.97842851528
 21
2518.660828985958
 31
0.0
  0
LINE
  5
1FCEA
330
747D
100
AcDbEntity
  8
細線
 48
50.0
100
AcDbLine
 10
10777.14503349924
 20
2388.660828985958
 30
0.0
 11
10785.18350927217
 21
2358.660828985958
 31
0.0
  0
LINE
  5
1FCEB
330
747D
100
AcDbEntity
  8
細線
 48
50.0
100
AcDbLine
 10
10571.88644535818
 20
2358.660828985958
 30
0.0
 11
10614.75831614716
 21
2518.660828985958
 31
0.0
  0
LINE
  5
1FCEC
330
747D
100
AcDbEntity
  8
細線
 48
50.0
100
AcDbLine
 10
10579.92492113112
 20
2388.660828985958
 30
0.0
 11
10587.96339690405
 21
2358.660828985958
 31
0.0
  0
LINE
  5
1FCED
330
747D
100
AcDbEntity
  8
細線
 48
50.0
100
AcDbLine
 10
10670.49650154225
 20
2358.660828985958
 30
0.0
 11
10713.36837233123
 21
2518.660828985958
 31
0.0
  0
LINE
  5
1FCEE
330
747D
100
AcDbEntity
  8
細線
 48
50.0
100
AcDbLine
 10
10678.53497731518
 20
2388.660828985958
 30
0.0
 11
10686.57345308811
 21
2358.660828985958
 31
0.0
  0
LINE
  5
1FCEF
330
747D
100
AcDbEntity
  8
細線
 48
50.0
100
AcDbLine
 10
10473.27638917413
 20
2358.660828985958
 30
0.0
 11
10516.1482599631
 21
2518.660828985958
 31
0.0
  0
LINE
  5
1FCF0
330
747D
100
AcDbEntity
  8
細線
 48
50.0
100
AcDbLine
 10
10481.31486494706
 20
2388.660828985958
 30
0.0
 11
10489.35334071999
 21
2358.660828985958
 31
0.0
  0
LINE
  5
1FCF1
330
747D
100
AcDbEntity
  8
細線
 48
50.0
100
AcDbLine
 10
10508.10978419017
 20
2488.660828985958
 30
0.0
 11
10500.07130841724
 21
2518.660828985958
 31
0.0
  0
LINE
  5
1FCF2
330
747D
100
AcDbEntity
  8
細線
 48
50.0
100
AcDbLine
 10
10409.49972800611
 20
2488.660828985958
 30
0.0
 11
10401.46125223318
 21
2518.660828985958
 31
0.0
  0
LINE
  5
1FCF3
330
747D
100
AcDbEntity
  8
細線
 48
50.0
100
AcDbLine
 10
10705.32989655829
 20
2488.660828985958
 30
0.0
 11
10697.29142078536
 21
2518.660828985958
 31
0.0
  0
LINE
  5
1FCF4
330
747D
100
AcDbEntity
  8
細線
 48
50.0
100
AcDbLine
 10
10606.71984037423
 20
2488.660828985958
 30
0.0
 11
10598.6813646013
 21
2518.660828985958
 31
0.0
  0
LINE
  5
1FCF5
330
747D
100
AcDbEntity
  8
細線
 48
50.0
100
AcDbLine
 10
11064.93672627849
 20
2358.660828985958
 30
0.0
 11
11107.80859706747
 21
2518.660828985958
 31
0.0
  0
LINE
  5
1FCF6
330
747D
100
AcDbEntity
  8
細線
 48
50.0
100
AcDbLine
 10
11072.97520205142
 20
2388.660828985958
 30
0.0
 11
11081.01367782435
 21
2358.660828985958
 31
0.0
  0
LINE
  5
1FCF7
330
747D
100
AcDbEntity
  8
細線
 48
50.0
100
AcDbLine
 10
11171.58525823548
 20
2388.660828985958
 30
0.0
 11
11179.62373400841
 21
2358.660828985958
 31
0.0
  0
LINE
  5
1FCF8
330
747D
100
AcDbEntity
  8
細線
 48
50.0
100
AcDbLine
 10
10867.71661391036
 20
2358.660828985958
 30
0.0
 11
10910.58848469934
 21
2518.660828985958
 31
0.0
  0
LINE
  5
1FCF9
330
747D
100
AcDbEntity
  8
細線
 48
50.0
100
AcDbLine
 10
10875.7550896833
 20
2388.660828985958
 30
0.0
 11
10883.79356545623
 21
2358.660828985958
 31
0.0
  0
LINE
  5
1FCFA
330
747D
100
AcDbEntity
  8
細線
 48
50.0
100
AcDbLine
 10
10966.32667009443
 20
2358.660828985958
 30
0.0
 11
11009.1985408834
 21
2518.660828985958
 31
0.0
  0
LINE
  5
1FCFB
330
747D
100
AcDbEntity
  8
細線
 48
50.0
100
AcDbLine
 10
10974.36514586736
 20
2388.660828985958
 30
0.0
 11
10982.40362164029
 21
2358.660828985958
 31
0.0
  0
LINE
  5
1FCFC
330
747D
100
AcDbEntity
  8
細線
 48
50.0
100
AcDbLine
 10
11001.16006511048
 20
2488.660828985958
 30
0.0
 11
10993.12158933754
 21
2518.660828985958
 31
0.0
  0
LINE
  5
1FCFD
330
747D
100
AcDbEntity
  8
細線
 48
50.0
100
AcDbLine
 10
10803.93995274235
 20
2488.660828985958
 30
0.0
 11
10795.90147696942
 21
2518.660828985958
 31
0.0
  0
LINE
  5
1FCFE
330
747D
100
AcDbEntity
  8
細線
 48
50.0
100
AcDbLine
 10
10902.55000892641
 20
2488.660828985958
 30
0.0
 11
10894.51153315348
 21
2518.660828985958
 31
0.0
  0
LINE
  5
1FCFF
330
747D
100
AcDbEntity
  8
細線
 48
50.0
100
AcDbLine
 10
11198.3801774786
 20
2488.660828985958
 30
0.0
 11
11190.34170170566
 21
2518.660828985958
 31
0.0
  0
LINE
  5
1FD00
330
747D
100
AcDbEntity
  8
細線
 48
50.0
100
AcDbLine
 10
11099.77012129454
 20
2488.660828985958
 30
0.0
 11
11091.7316455216
 21
2518.660828985958
 31
0.0
  0
LINE
  5
1FD01
330
747D
100
AcDbEntity
  8
細線
100
AcDbLine
 10
10614.78078935491
 20
2668.660828985958
 30
0.0
 11
10914.78078935491
 21
2968.660828985957
 31
0.0
  0
LINE
  5
1FD02
330
747D
100
AcDbEntity
  8
細線
100
AcDbLine
 10
10574.78078935491
 20
2668.660828985958
 30
0.0
 11
10874.78078935491
 21
2968.660828985957
 31
0.0
  0
LEADER
  5
1FD03
330
747D
100
AcDbEntity
  8
寸法
 48
50.0
100
AcDbLeader
  3
INABA_S50G
 71
     0
 73
     0
 74
     0
 75
     1
 40
100.0
 41
154.6599025766975
 76
     3
 10
10652.7871569445
 20
2903.968559572357
 30
0.0
 10
10707.06870742862
 20
3128.008447682092
 30
0.0
 10
10832.06870742862
 20
3128.008447682092
 30
0.0
340
1FCC2
  0
LINE
  5
1FD04
330
747D
100
AcDbEntity
  8
部品1
 48
50.0
100
AcDbLine
 10
10989.96819503349
 20
2668.660828985958
 30
0.0
 11
10989.96819503349
 21
2968.660828985957
 31
0.0
  0
LINE
  5
1FD05
330
747D
100
AcDbEntity
  8
細線
100
AcDbLine
 10
10934.78078935491
 20
2668.660828985958
 30
0.0
 11
10989.96819503349
 21
2723.848234664535
 31
0.0
  0
LINE
  5
1FD06
330
747D
100
AcDbEntity
  8
細線
100
AcDbLine
 10
10894.78078935491
 20
2668.660828985958
 30
0.0
 11
10989.96819503349
 21
2763.84823466453
 31
0.0
  0
LINE
  5
1FD07
330
747D
100
AcDbEntity
  8
細線
100
AcDbLine
 10
11135.66814135231
 20
2659.701607135965
 30
0.0
 11
11126.70891950232
 21
2668.660828985958
 31
0.0
  0
LINE
  5
1FD08
330
747D
100
AcDbEntity
  8
部品1
100
AcDbLine
 10
11235.66814135231
 20
2518.660828985958
 30
0.0
 11
11235.66814135231
 21
2358.660828985962
 31
0.0
  0
TEXT
  5
1FD09
330
747D
100
AcDbEntity
  8
部品1
 48
50.0
100
AcDbText
 10
6723.745191386806
 20
2373.76777328276
 30
0.0
 40
80.0
  1
ボルトの出
 50
90.0
  7
STYLE2
100
AcDbText
  0
DIMENSION
  5
1FD0A
330
747D
100
AcDbEntity
  8
寸法
 48
50.0
100
AcDbDimension
  2
*D64
 10
6566.250611730423
 20
2968.660828985957
 30
0.0
 11
6566.250611730422
 21
2504.175547611716
 31
0.0
 70
   160
  1
30～35
 71
     5
 42
60.30769230769147
  3
INABA_S40G
100
AcDbAlignedDimension
 13
5907.984578558986
 23
3028.968521293649
 33
0.0
 14
6037.984578558986
 24
2968.660828985957
 34
0.0
 50
90.0
100
AcDbRotatedDimension
1001
ACAD
1000
DSTYLE
1002
{
1070
   341
1005
0
1002
}
  0
DIMENSION
  5
1FD0B
330
747D
100
AcDbEntity
  8
寸法
 48
50.0
100
AcDbDimension
  2
*D65
 10
5894.484578558986
 20
3329.350373963696
 30
0.0
 11
5583.499297184747
 21
3329.350373963696
 31
0.0
 70
   160
  1
45
 71
     5
 42
96.5
  3
INABA_S40G
100
AcDbAlignedDimension
 13
5797.984578558986
 23
2968.660828985957
 33
0.0
 14
5894.484578558986
 24
3028.968521293649
 34
0.0
100
AcDbRotatedDimension
1001
ACAD
1000
DSTYLE
1002
{
1070
   341
1005
0
1002
}
  0
TEXT
  5
1FD0C
330
747D
100
AcDbEntity
  8
部品1
 48
50.0
100
AcDbText
 10
6085.580724682593
 20
3324.539509748157
 30
0.0
 40
80.0
  1
基礎ボルト
  7
STYLE2
100
AcDbText
  0
LEADER
  5
1FD0D
330
747D
100
AcDbEntity
  8
寸法
 48
50.0
100
AcDbLeader
  3
INABA_S50G
 73
     0
 74
     0
 75
     1
 40
80.0
 41
435.0
 76
     3
 10
5897.627140398165
 20
3017.820828985958
 30
0.0
 10
5940.171602817483
 20
3168.044155139187
 30
0.0
 10
6065.171602817483
 20
3168.044155139187
 30
0.0
340
1FD0E
1001
ACAD
1000
DSTYLE
1002
{
1070
   341
1005
0
1070
    40
1040
1.0
1070
   343
1005
0
1070
   344
1005
0
1002
}
  0
MTEXT
  5
1FD0E
102
{ACAD_REACTORS
330
1FD0D
102
}
330
747D
100
AcDbEntity
  8
部品1
 62
     7
 48
50.0
100
AcDbMText
 10
6090.171602817483
 20
3233.044155139187
 30
0.0
 40
80.0
 41
0.8
 71
     4
 72
     1
  1
M10X160
  7
STYLE2
 73
     1
 44
1.0
1001
ACAD
1000
MTEXTBEGIN
1070
    73
1070
     1
1070
    44
1040
1.0
1070
    74
1070
     0
1000
MTEXTEND
  0
LINE
  5
1FD0F
330
747D
100
AcDbEntity
  8
部品1
100
AcDbLine
 10
5874.023040097447
 20
2994.506982832112
 30
0.0
 11
5870.792270866681
 21
2991.276213601344
 31
0.0
  0
ARC
  5
1FD10
330
747D
100
AcDbEntity
  8
部品1
100
AcDbCircle
 10
5876.176886251298
 20
2986.220915690333
 30
0.0
 40
7.3858052918609
100
AcDbArc
 50
43.1932563688935
 51
136.8067436311065
  0
LINE
  5
1FD11
330
747D
100
AcDbEntity
  8
細線
100
AcDbLine
 10
5907.984578558986
 20
2934.878277415206
 30
0.0
 11
5968.291419750189
 21
2936.65052269625
 31
0.0
  0
LINE
  5
1FD12
330
747D
100
AcDbEntity
  8
部品1
100
AcDbLine
 10
5918.176886251298
 20
2991.276213601344
 30
0.0
 11
5870.792270866678
 21
2991.27621360134
 31
0.0
  0
LINE
  5
1FD13
330
747D
100
AcDbEntity
  8
部品1
100
AcDbLine
 10
5922.484578558986
 20
2972.968521293648
 30
0.0
 11
5866.484578558986
 21
2972.968521293648
 31
0.0
  0
LINE
  5
1FD14
330
747D
100
AcDbEntity
  8
細線
 48
50.0
100
AcDbLine
 10
5911.984578558985
 20
3024.040318063372
 30
0.0
 11
5876.784578558989
 21
3014.608506489797
 31
0.0
  0
LINE
  5
1FD15
330
747D
100
AcDbEntity
  8
部品1
 48
50.0
100
AcDbLine
 10
5880.984578558986
 20
3028.968521293649
 30
0.0
 11
5907.984578558986
 21
3028.968521293649
 31
0.0
  0
LINE
  5
1FD16
330
747D
100
AcDbEntity
  8
部品1
100
AcDbLine
 10
5881.561501635915
 20
2991.276213601342
 30
0.0
 11
5881.561501635915
 21
2972.968521293648
 31
0.0
  0
LINE
  5
1FD17
330
747D
100
AcDbEntity
  8
部品1
100
AcDbLine
 10
5922.484578558986
 20
2972.968521293648
 30
0.0
 11
5922.484578558986
 21
2968.660828985957
 31
0.0
  0
LINE
  5
1FD18
330
747D
100
AcDbEntity
  8
細線
100
AcDbLine
 10
5871.583476812448
 20
2928.461969500245
 30
0.0
 11
5880.98457855899
 21
2929.964846309755
 31
0.0
  0
LINE
  5
1FD19
330
747D
100
AcDbEntity
  8
部品1
100
AcDbLine
 10
5907.407655482064
 20
2991.276213601344
 30
0.0
 11
5907.407655482064
 21
2972.968521293648
 31
0.0
  0
LINE
  5
1FD1A
330
747D
100
AcDbEntity
  8
部品1
100
AcDbLine
 10
5918.176886251298
 20
2991.276213601342
 30
0.0
 11
5914.946117020525
 21
2994.506982832112
 31
0.0
  0
LINE
  5
1FD1B
330
747D
100
AcDbEntity
  8
部品1
100
AcDbLine
 10
5918.176886251298
 20
2991.276213601342
 30
0.0
 11
5918.176886251298
 21
2972.968521293648
 31
0.0
  0
ARC
  5
1FD1C
330
747D
100
AcDbEntity
  8
部品1
100
AcDbCircle
 10
5912.792270866681
 20
2986.220915690333
 30
0.0
 40
7.3858052918609
100
AcDbArc
 50
43.1932563688935
 51
136.8067436311065
  0
LINE
  5
1FD1D
330
747D
100
AcDbEntity
  8
細線
 48
50.0
100
AcDbLine
 10
5911.984578558985
 20
3000.040318063372
 30
0.0
 11
5891.333890340611
 21
2994.506982832112
 31
0.0
  0
ARC
  5
1FD1E
330
747D
100
AcDbEntity
  8
部品1
100
AcDbCircle
 10
5894.484578558986
 20
2958.658073284064
 30
0.0
 40
35.0848827120379
100
AcDbArc
 50
68.38687878203174
 51
111.6131212179682
  0
LINE
  5
1FD1F
330
747D
100
AcDbEntity
  8
部品1
100
AcDbLine
 10
5914.946117020525
 20
2994.506982832112
 30
0.0
 11
5874.023040097447
 21
2994.506982832112
 31
0.0
  0
LINE
  5
1FD20
330
747D
100
AcDbEntity
  8
部品1
 48
50.0
100
AcDbLine
 10
5907.984578558989
 20
2994.506982832112
 30
0.0
 11
5907.984578558993
 21
3028.968521293649
 31
0.0
  0
LINE
  5
1FD21
330
747D
100
AcDbEntity
  8
部品1
 48
50.0
100
AcDbLine
 10
5880.98457855899
 20
2994.506982832112
 30
0.0
 11
5880.98457855899
 21
3028.968521293649
 31
0.0
  0
LINE
  5
1FD22
330
747D
100
AcDbEntity
  8
細線
 48
50.0
100
AcDbLine
 10
5911.984578558985
 20
3012.040318063376
 30
0.0
 11
5876.784578558989
 21
3002.608506489799
 31
0.0
  0
LINE
  5
1FD23
330
747D
100
AcDbEntity
  8
細線
100
AcDbLine
 10
5997.795488428419
 20
2935.012777998861
 30
0.0
 11
6037.984578558986
 21
2926.824224802857
 31
0.0
  0
LINE
  5
1FD24
330
747D
100
AcDbEntity
  8
部品1
100
AcDbLine
 10
5866.484578558986
 20
2972.968521293648
 30
0.0
 11
5866.484578558986
 21
2968.660828985957
 31
0.0
  0
LINE
  5
1FD25
330
747D
100
AcDbEntity
  8
部品1
100
AcDbLine
 10
5870.792270866681
 20
2991.276213601344
 30
0.0
 11
5870.792270866681
 21
2972.968521293648
 31
0.0
  0
LINE
  5
1FD26
330
747D
100
AcDbEntity
  8
細線
100
AcDbLine
 10
5968.291419750189
 20
2936.65052269625
 30
0.0
 11
5997.795488428419
 21
2935.012777998861
 31
0.0
  0
LINE
  5
1FD27
330
747D
100
AcDbEntity
  8
細線
 48
50.0
100
AcDbLine
 10
5947.425462641464
 20
2799.743789357233
 30
0.0
 11
6037.984578558986
 21
2890.302905274754
 31
0.0
  0
LINE
  5
1FD28
330
747D
100
AcDbEntity
  8
細線
 48
50.0
100
AcDbLine
 10
5947.984578558985
 20
2766.626944820746
 30
0.0
 11
6037.984578558986
 21
2856.626944820745
 31
0.0
  0
LINE
  5
1FD29
330
747D
100
AcDbEntity
  8
細線
 48
50.0
100
AcDbLine
 10
5907.984578558986
 20
2726.626944820743
 30
0.0
 11
5927.984578558986
 21
2746.626944820745
 31
0.0
  0
LINE
  5
1FD2A
330
747D
100
AcDbEntity
  8
部品1
 48
50.0
100
AcDbLine
 10
5947.984578558986
 20
2721.31984735736
 30
0.0
 11
5947.984578558986
 21
2793.978865728764
 31
0.0
  0
LINE
  5
1FD2B
330
747D
100
AcDbEntity
  8
部品1
 48
50.0
100
AcDbLine
 10
5927.984578558986
 20
2721.31984735736
 30
0.0
 11
5927.984578558986
 21
2793.978865728764
 31
0.0
  0
LINE
  5
1FD2C
330
747D
100
AcDbEntity
  8
部品1
 48
50.0
100
AcDbLine
 10
5927.984578558986
 20
2721.31984735736
 30
0.0
 11
5947.984578558986
 21
2721.31984735736
 31
0.0
  0
LINE
  5
1FD2D
330
747D
100
AcDbEntity
  8
部品1
 48
50.0
100
AcDbLine
 10
5927.984578558986
 20
2721.31984735736
 30
0.0
 11
5927.984578558986
 21
2793.978865728764
 31
0.0
  0
LINE
  5
1FD2E
330
747D
100
AcDbEntity
  8
細線
 48
50.0
100
AcDbLine
 10
5907.984578558986
 20
2760.302905274754
 30
0.0
 11
5927.984578558986
 21
2780.302905274754
 31
0.0
  0
ARC
  5
1FD2F
330
747D
100
AcDbEntity
  8
部品1
 48
50.0
100
AcDbCircle
 10
5917.984578558986
 20
2793.978865728764
 30
0.0
 40
29.99999999999979
100
AcDbArc
 50
0.0
 51
109.4712206345269
  0
CIRCLE
  5
1FD30
330
747D
100
AcDbEntity
  8
部品1
 48
50.0
100
AcDbCircle
 10
5917.984578558986
 20
2793.978865728764
 30
0.0
 40
10.0
  0
LINE
  5
1FD31
330
747D
100
AcDbEntity
  8
部品1
 48
50.0
100
AcDbLine
 10
5967.984578558986
 20
2681.660828985957
 30
0.0
 11
5967.984578558986
 21
2708.660828985957
 31
0.0
  0
LINE
  5
1FD32
330
747D
100
AcDbEntity
  8
部品1
 48
50.0
100
AcDbLine
 10
5917.984578558986
 20
2681.660828985957
 30
0.0
 11
5967.984578558986
 21
2681.660828985957
 31
0.0
  0
LINE
  5
1FD33
330
747D
100
AcDbEntity
  8
部品1
 48
50.0
100
AcDbLine
 10
5917.984578558986
 20
2708.660828985957
 30
0.0
 11
5967.984578558986
 21
2708.660828985957
 31
0.0
  0
ARC
  5
1FD34
330
747D
100
AcDbEntity
  8
部品1
 48
50.0
100
AcDbCircle
 10
5917.984578558986
 20
2718.660828985957
 30
0.0
 40
37.0
100
AcDbArc
 50
180.0
 51
270.0
  0
ARC
  5
1FD35
330
747D
100
AcDbEntity
  8
部品1
 48
50.0
100
AcDbCircle
 10
5917.984578558986
 20
2718.660828985957
 30
0.0
 40
10.0
100
AcDbArc
 50
180.0
 51
270.0
  0
LINE
  5
1FD36
330
747D
100
AcDbEntity
  8
細線
 48
50.0
100
AcDbLine
 10
5933.600106687077
 20
2819.59439385685
 30
0.0
 11
6037.984578558986
 21
2923.978865728764
 31
0.0
  0
LINE
  5
1FD37
330
747D
100
AcDbEntity
  8
部品1
 48
50.0
100
AcDbLine
 10
5880.984578558986
 20
2718.660828985957
 30
0.0
 11
5880.98457855899
 21
2968.660828985957
 31
0.0
  0
LINE
  5
1FD38
330
747D
100
AcDbEntity
  8
部品1
 48
50.0
100
AcDbLine
 10
5907.984578558986
 20
2718.660828985957
 30
0.0
 11
5907.984578558986
 21
2968.660828985957
 31
0.0
  0
LINE
  5
1FD39
330
747D
100
AcDbEntity
  8
細線
100
AcDbLine
 10
5797.984578558986
 20
2938.288210629996
 30
0.0
 11
5835.522902065008
 21
2928.461969500245
 31
0.0
  0
LINE
  5
1FD3A
330
747D
100
AcDbEntity
  8
細線
 48
50.0
100
AcDbLine
 10
5797.984578558986
 20
2919.710588906829
 30
0.0
 11
5812.708091370292
 21
2934.434101718135
 31
0.0
  0
LINE
  5
1FD3B
330
747D
100
AcDbEntity
  8
細線
 48
50.0
100
AcDbLine
 10
5797.984578558986
 20
2886.034628452819
 30
0.0
 11
5840.411919606413
 21
2928.461969500247
 31
0.0
  0
LINE
  5
1FD3C
330
747D
100
AcDbEntity
  8
部品1
 48
50.0
100
AcDbLine
 10
5797.984578558986
 20
2968.660828985957
 30
0.0
 11
6037.984578558986
 21
2968.660828985957
 31
0.0
  0
LINE
  5
1FD3D
330
747D
100
AcDbEntity
  8
細線
 48
50.0
100
AcDbLine
 10
5797.984578558986
 20
2616.626944820745
 30
0.0
 11
5884.429083431321
 21
2703.071449693078
 31
0.0
  0
LINE
  5
1FD3E
330
747D
100
AcDbEntity
  8
細線
 48
50.0
100
AcDbLine
 10
5797.984578558986
 20
2650.302905274755
 30
0.0
 11
5880.984578558987
 21
2733.302905274755
 31
0.0
  0
LINE
  5
1FD3F
330
747D
100
AcDbEntity
  8
細線
 48
50.0
100
AcDbLine
 10
5797.984578558986
 20
2683.978865728764
 30
0.0
 11
5880.984578558988
 21
2766.978865728765
 31
0.0
  0
LINE
  5
1FD40
330
747D
100
AcDbEntity
  8
細線
100
AcDbLine
 10
5835.522902065008
 20
2928.461969500245
 30
0.0
 11
5871.583476812448
 21
2928.461969500245
 31
0.0
  0
LINE
  5
1FD41
330
747D
100
AcDbEntity
  8
細線
 48
50.0
100
AcDbLine
 10
5907.984578558986
 20
2457.219261188671
 30
0.0
 11
6037.984578558979
 21
2587.219261188669
 31
0.0
  0
LINE
  5
1FD42
330
747D
100
AcDbEntity
  8
部品1
 48
50.0
100
AcDbLine
 10
6127.984578558987
 20
2108.660828985957
 30
0.0
 11
6127.984578558987
 21
2128.660828985957
 31
0.0
  0
CIRCLE
  5
1FD43
330
747D
100
AcDbEntity
  8
部品1
 48
50.0
100
AcDbCircle
 10
6077.984578558986
 20
2138.660828985957
 30
0.0
 40
10.0
  0
LINE
  5
1FD44
330
747D
100
AcDbEntity
  8
細線
 48
50.0
100
AcDbLine
 10
6084.565553166413
 20
2128.660828985957
 30
0.0
 11
6197.984578558986
 21
2242.07985437853
 31
0.0
  0
LINE
  5
1FD45
330
747D
100
AcDbEntity
  8
細線
 48
50.0
100
AcDbLine
 10
6118.241513620422
 20
2128.660828985957
 30
0.0
 11
6197.984578558986
 21
2208.403893924519
 31
0.0
  0
LINE
  5
1FD46
330
747D
100
AcDbEntity
  8
細線
 48
50.0
100
AcDbLine
 10
5907.984578558986
 20
2187.811577556594
 30
0.0
 11
5927.984578558986
 21
2207.811577556595
 31
0.0
  0
LINE
  5
1FD47
330
747D
100
AcDbEntity
  8
部品1
 48
50.0
100
AcDbLine
 10
5927.984578558986
 20
2211.31984735736
 30
0.0
 11
5947.984578558986
 21
2211.31984735736
 31
0.0
  0
LINE
  5
1FD48
330
747D
100
AcDbEntity
  8
部品1
 48
50.0
100
AcDbLine
 10
5947.984578558986
 20
2211.31984735736
 30
0.0
 11
5947.984578558986
 21
2138.660828985957
 31
0.0
  0
LINE
  5
1FD49
330
747D
100
AcDbEntity
  8
部品1
 48
50.0
100
AcDbLine
 10
5927.984578558986
 20
2211.31984735736
 30
0.0
 11
5927.984578558986
 21
2138.660828985957
 31
0.0
  0
ARC
  5
1FD4A
330
747D
100
AcDbEntity
  8
部品1
 48
50.0
100
AcDbCircle
 10
5917.984578558986
 20
2138.660828985957
 30
0.0
 40
30.0
100
AcDbArc
 50
180.0
 51
199.4712206344713
  0
ARC
  5
1FD4B
330
747D
100
AcDbEntity
  8
部品1
 48
50.0
100
AcDbCircle
 10
5917.984578558986
 20
2138.660828985957
 30
0.0
 40
30.0
100
AcDbArc
 50
340.5287793655287
 51
0.0
  0
LINE
  5
1FD4C
330
747D
100
AcDbEntity
  8
細線
 48
50.0
100
AcDbLine
 10
5848.833829988347
 20
2128.660828985957
 30
0.0
 11
5887.984578558985
 21
2167.811577556594
 31
0.0
  0
CIRCLE
  5
1FD4D
330
747D
100
AcDbEntity
  8
部品1
 48
50.0
100
AcDbCircle
 10
5917.984578558986
 20
2138.660828985957
 30
0.0
 40
10.0
  0
LINE
  5
1FD4E
330
747D
100
AcDbEntity
  8
細線
 48
50.0
100
AcDbLine
 10
6050.889592712396
 20
2128.660828985957
 30
0.0
 11
6197.984578558986
 21
2275.75581483254
 31
0.0
  0
LINE
  5
1FD4F
330
747D
100
AcDbEntity
  8
部品1
 48
50.0
100
AcDbLine
 10
6037.984578558986
 20
2288.660828985957
 30
0.0
 11
6197.984578558986
 21
2288.660828985957
 31
0.0
  0
LINE
  5
1FD50
330
747D
100
AcDbEntity
  8
細線
 48
50.0
100
AcDbLine
 10
5907.984578558986
 20
2221.487538010607
 30
0.0
 11
6037.984578558979
 21
2351.487538010603
 31
0.0
  0
LINE
  5
1FD51
330
747D
100
AcDbEntity
  8
細線
 48
50.0
100
AcDbLine
 10
5907.984578558986
 20
2255.163498464617
 30
0.0
 11
6037.984578558979
 21
2385.163498464613
 31
0.0
  0
TEXT
  5
1FD52
330
747D
100
AcDbEntity
  8
部品1
 48
50.0
100
AcDbText
 10
5440.155480669007
 20
2501.862763026587
 30
0.0
 40
100.0
  1
G.L
  7
STYLE1
100
AcDbText
  0
LINE
  5
1FD53
330
747D
100
AcDbEntity
  8
部品1
 48
50.0
100
AcDbLine
 10
5707.984578558986
 20
2108.660828985957
 30
0.0
 11
5707.984578558986
 21
2128.660828985957
 31
0.0
  0
CIRCLE
  5
1FD54
330
747D
100
AcDbEntity
  8
部品1
 48
50.0
100
AcDbCircle
 10
5757.984578558986
 20
2138.660828985957
 30
0.0
 40
10.0
  0
LINE
  5
1FD55
330
747D
100
AcDbEntity
  8
細線
 48
50.0
100
AcDbLine
 10
5637.984578558978
 20
2254.571182096687
 30
0.0
 11
5672.074225448254
 21
2288.660828985957
 31
0.0
  0
LINE
  5
1FD56
330
747D
100
AcDbEntity
  8
細線
 48
50.0
100
AcDbLine
 10
5637.984578558978
 20
2220.895221642678
 30
0.0
 11
5705.750185902259
 21
2288.660828985957
 31
0.0
  0
LINE
  5
1FD57
330
747D
100
AcDbEntity
  8
部品1
 48
50.0
100
AcDbLine
 10
5637.984578558985
 20
2288.660828985957
 30
0.0
 11
5797.984578558986
 21
2288.660828985957
 31
0.0
  0
LINE
  5
1FD58
330
747D
100
AcDbEntity
  8
細線
 48
50.0
100
AcDbLine
 10
5637.984578558978
 20
2187.219261188669
 30
0.0
 11
5739.426146356272
 21
2288.660828985957
 31
0.0
  0
LINE
  5
1FD59
330
747D
100
AcDbEntity
  8
部品1
 48
50.0
100
AcDbLine
 10
5707.984578558986
 20
2108.660828985957
 30
0.0
 11
6127.984578558987
 21
2108.660828985957
 31
0.0
  0
LINE
  5
1FD5A
330
747D
100
AcDbEntity
  8
部品1
 48
50.0
100
AcDbLine
 10
5707.984578558986
 20
2128.660828985957
 30
0.0
 11
6127.984578558987
 21
2128.660828985957
 31
0.0
  0
LINE
  5
1FD5B
330
747D
100
AcDbEntity
  8
細線
 48
50.0
100
AcDbLine
 10
5815.157869534335
 20
2128.660828985957
 30
0.0
 11
5887.984578558982
 21
2201.487538010605
 31
0.0
  0
LINE
  5
1FD5C
330
747D
100
AcDbEntity
  8
細線
 48
50.0
100
AcDbLine
 10
5781.481909080328
 20
2128.660828985957
 30
0.0
 11
5887.984578558985
 21
2235.163498464614
 31
0.0
  0
LINE
  5
1FD5D
330
747D
100
AcDbEntity
  8
細線
 48
50.0
100
AcDbLine
 10
5797.984578558986
 20
2380.895221642679
 30
0.0
 11
5887.984578558985
 21
2470.895221642681
 31
0.0
  0
LINE
  5
1FD5E
330
747D
100
AcDbEntity
  8
細線
 48
50.0
100
AcDbLine
 10
5797.984578558986
 20
2347.219261188671
 30
0.0
 11
5887.984578558985
 21
2437.219261188671
 31
0.0
  0
LINE
  5
1FD5F
330
747D
100
AcDbEntity
  8
細線
 48
50.0
100
AcDbLine
 10
5797.984578558986
 20
2414.571182096689
 30
0.0
 11
5887.984578558985
 21
2504.571182096689
 31
0.0
  0
LINE
  5
1FD60
330
747D
100
AcDbEntity
  8
細線
 48
50.0
100
AcDbLine
 10
5907.984578558986
 20
2524.57118209669
 30
0.0
 11
6037.984578558986
 21
2654.571182096687
 31
0.0
  0
LINE
  5
1FD61
330
747D
100
AcDbEntity
  8
細線
 48
50.0
100
AcDbLine
 10
5907.984578558986
 20
2490.895221642681
 30
0.0
 11
6037.984578558979
 21
2620.895221642678
 31
0.0
  0
LINE
  5
1FD62
330
747D
100
AcDbEntity
  8
部品1
 48
50.0
100
AcDbLine
 10
5907.984578558986
 20
2138.660828985957
 30
0.0
 11
5907.984578558986
 21
2683.037802724844
 31
0.0
  0
LINE
  5
1FD63
330
747D
100
AcDbEntity
  8
部品1
 48
50.0
100
AcDbLine
 10
5887.984578558985
 20
2138.660828985957
 30
0.0
 11
5887.984578558985
 21
2697.004421158251
 31
0.0
  0
LINE
  5
1FD64
330
747D
100
AcDbEntity
  8
部品1
 48
50.0
100
AcDbLine
 10
5797.984578558986
 20
2288.660828985957
 30
0.0
 11
5797.984578558986
 21
2968.660828985957
 31
0.0
  0
LINE
  5
1FD65
330
747D
100
AcDbEntity
  8
部品1
 48
50.0
100
AcDbLine
 10
6037.984578558986
 20
2968.660828985957
 30
0.0
 11
6037.984578558986
 21
2288.660828985957
 31
0.0
  0
LINE
  5
1FD66
330
747D
100
AcDbEntity
  8
Ｇ．Ｌ
 48
50.0
100
AcDbLine
 10
6037.984578558986
 20
2668.660828985957
 30
0.0
 11
6390.489885120749
 21
2668.660828985957
 31
0.0
  0
LINE
  5
1FD67
330
747D
100
AcDbEntity
  8
部品1
 48
50.0
100
AcDbLine
 10
6297.984578558985
 20
1988.660828985956
 30
0.0
 11
6297.984578558985
 21
1828.660828985957
 31
0.0
  0
LINE
  5
1FD68
330
747D
100
AcDbEntity
  8
細線
 48
50.0
100
AcDbLine
 10
6198.331772254118
 20
1858.660828985956
 30
0.0
 11
6206.370248027051
 21
1828.660828985957
 31
0.0
  0
LINE
  5
1FD69
330
747D
100
AcDbEntity
  8
細線
 48
50.0
100
AcDbLine
 10
6225.12669149723
 20
1958.660828985956
 30
0.0
 11
6217.088215724295
 21
1988.660828985956
 31
0.0
  0
LINE
  5
1FD6A
330
747D
100
AcDbEntity
  8
細線
 48
50.0
100
AcDbLine
 10
6180.297276344478
 20
1988.660828985956
 30
0.0
 11
6197.984578558986
 21
2006.348131200463
 31
0.0
  0
LINE
  5
1FD6B
330
747D
100
AcDbEntity
  8
細線
 48
50.0
100
AcDbLine
 10
6190.293296481184
 20
1828.660828985957
 30
0.0
 11
6233.165167270163
 21
1988.660828985956
 31
0.0
  0
LINE
  5
1FD6C
330
747D
100
AcDbEntity
  8
細線
 48
50.0
100
AcDbLine
 10
6126.516635313172
 20
1958.660828985956
 30
0.0
 11
6118.478159540238
 21
1988.660828985956
 31
0.0
  0
LINE
  5
1FD6D
330
747D
100
AcDbEntity
  8
細線
 48
50.0
100
AcDbLine
 10
6099.72171607006
 20
1858.660828985956
 30
0.0
 11
6107.760191842993
 21
1828.660828985957
 31
0.0
  0
LINE
  5
1FD6E
330
747D
100
AcDbEntity
  8
細線
 48
50.0
100
AcDbLine
 10
6091.683240297126
 20
1828.660828985957
 30
0.0
 11
6134.555111086105
 21
1988.660828985956
 31
0.0
  0
LINE
  5
1FD6F
330
747D
100
AcDbEntity
  8
細線
 48
50.0
100
AcDbLine
 10
5929.296522945049
 20
1958.660828985956
 30
0.0
 11
5921.258047172116
 21
1988.660828985956
 31
0.0
  0
LINE
  5
1FD70
330
747D
100
AcDbEntity
  8
細線
 48
50.0
100
AcDbLine
 10
5902.501603701938
 20
1858.660828985956
 30
0.0
 11
5910.540079474871
 21
1828.660828985957
 31
0.0
  0
LINE
  5
1FD71
330
747D
100
AcDbEntity
  8
細線
 48
50.0
100
AcDbLine
 10
5894.463127929004
 20
1828.660828985957
 30
0.0
 11
5937.334998717982
 21
1988.660828985956
 31
0.0
  0
LINE
  5
1FD72
330
747D
100
AcDbEntity
  8
細線
 48
50.0
100
AcDbLine
 10
6027.906579129115
 20
1958.660828985956
 30
0.0
 11
6019.868103356181
 21
1988.660828985956
 31
0.0
  0
LINE
  5
1FD73
330
747D
100
AcDbEntity
  8
細線
 48
50.0
100
AcDbLine
 10
6001.111659885996
 20
1858.660828985956
 30
0.0
 11
6009.150135658929
 21
1828.660828985957
 31
0.0
  0
LINE
  5
1FD74
330
747D
100
AcDbEntity
  8
細線
 48
50.0
100
AcDbLine
 10
5993.073184113065
 20
1828.660828985957
 30
0.0
 11
6035.945054902043
 21
1988.660828985956
 31
0.0
  0
LINE
  5
1FD75
330
747D
100
AcDbEntity
  8
細線
 48
50.0
100
AcDbLine
 10
5830.686466760991
 20
1958.660828985956
 30
0.0
 11
5822.647990988058
 21
1988.660828985956
 31
0.0
  0
LINE
  5
1FD76
330
747D
100
AcDbEntity
  8
細線
 48
50.0
100
AcDbLine
 10
5803.89154751788
 20
1858.660828985956
 30
0.0
 11
5811.930023290813
 21
1828.660828985957
 31
0.0
  0
LINE
  5
1FD77
330
747D
100
AcDbEntity
  8
細線
 48
50.0
100
AcDbLine
 10
5795.853071744943
 20
1828.660828985957
 30
0.0
 11
5838.724942533925
 21
1988.660828985956
 31
0.0
  0
LINE
  5
1FD78
330
747D
100
AcDbEntity
  8
細線
 48
50.0
100
AcDbLine
 10
5732.076410576927
 20
1958.660828985956
 30
0.0
 11
5724.037934803994
 21
1988.660828985956
 31
0.0
  0
LINE
  5
1FD79
330
747D
100
AcDbEntity
  8
細線
 48
50.0
100
AcDbLine
 10
5705.281491333815
 20
1858.660828985956
 30
0.0
 11
5713.319967106748
 21
1828.660828985957
 31
0.0
  0
LINE
  5
1FD7A
330
747D
100
AcDbEntity
  8
細線
 48
50.0
100
AcDbLine
 10
5697.243015560882
 20
1828.660828985957
 30
0.0
 11
5740.114886349861
 21
1988.660828985956
 31
0.0
  0
LINE
  5
1FD7B
330
747D
100
AcDbEntity
  8
部品1
 48
50.0
100
AcDbLine
 10
5537.984578558986
 20
1828.660828985957
 30
0.0
 11
5537.984578558986
 21
1988.660828985956
 31
0.0
  0
LINE
  5
1FD7C
330
747D
100
AcDbEntity
  8
細線
 48
50.0
100
AcDbLine
 10
5606.671435149743
 20
1858.660828985956
 30
0.0
 11
5614.709910922677
 21
1828.660828985957
 31
0.0
  0
LINE
  5
1FD7D
330
747D
100
AcDbEntity
  8
細線
 48
50.0
100
AcDbLine
 10
5633.466354392854
 20
1958.660828985956
 30
0.0
 11
5625.427878619921
 21
1988.660828985956
 31
0.0
  0
LINE
  5
1FD7E
330
747D
100
AcDbEntity
  8
細線
 48
50.0
100
AcDbLine
 10
5598.63295937681
 20
1828.660828985957
 30
0.0
 11
5641.504830165803
 21
1988.660828985956
 31
0.0
  0
LINE
  5
1FD7F
330
747D
100
AcDbEntity
  8
部品1
 48
50.0
100
AcDbLine
 10
6297.984578558985
 20
1828.660828985957
 30
0.0
 11
5537.984578558986
 21
1828.660828985957
 31
0.0
  0
LINE
  5
1FD80
330
747D
100
AcDbEntity
  8
部品1
 48
50.0
100
AcDbLine
 10
6297.984578558985
 20
1988.660828985956
 30
0.0
 11
5537.984578558986
 21
1988.660828985956
 31
0.0
  0
LINE
  5
1FD81
330
747D
100
AcDbEntity
  8
細線
 48
50.0
100
AcDbLine
 10
5944.565553166409
 20
1988.660828985956
 30
0.0
 11
6064.565553166409
 21
2108.660828985957
 31
0.0
  0
LINE
  5
1FD82
330
747D
100
AcDbEntity
  8
細線
 48
50.0
100
AcDbLine
 10
5910.889592712403
 20
1988.660828985956
 30
0.0
 11
6030.889592712403
 21
2108.660828985957
 31
0.0
  0
LINE
  5
1FD83
330
747D
100
AcDbEntity
  8
細線
 48
50.0
100
AcDbLine
 10
5641.481909080328
 20
1988.660828985956
 30
0.0
 11
5761.481909080329
 21
2108.660828985957
 31
0.0
  0
LINE
  5
1FD84
330
747D
100
AcDbEntity
  8
細線
 48
50.0
100
AcDbLine
 10
5708.833829988347
 20
1988.660828985956
 30
0.0
 11
5828.833829988347
 21
2108.660828985957
 31
0.0
  0
LINE
  5
1FD85
330
747D
100
AcDbEntity
  8
細線
 48
50.0
100
AcDbLine
 10
5675.157869534334
 20
1988.660828985956
 30
0.0
 11
5795.157869534334
 21
2108.660828985957
 31
0.0
  0
LINE
  5
1FD86
330
747D
100
AcDbEntity
  8
部品1
 48
50.0
100
AcDbLine
 10
5637.984578558985
 20
1988.660828985956
 30
0.0
 11
5637.984578558985
 21
2288.660828985957
 31
0.0
  0
LINE
  5
1FD87
330
747D
100
AcDbEntity
  8
部品1
 48
50.0
100
AcDbLine
 10
6197.984578558986
 20
2288.660828985957
 30
0.0
 11
6197.984578558986
 21
1988.660828985956
 31
0.0
  0
LINE
  5
1FD88
330
747D
100
AcDbEntity
  8
細線
 48
50.0
100
AcDbLine
 10
5978.241513620422
 20
1988.660828985956
 30
0.0
 11
6098.242623426842
 21
2108.661938792381
 31
0.0
  0
LINE
  5
1FD89
330
747D
100
AcDbEntity
  8
部品1
 48
50.0
100
AcDbLine
 10
5341.681127197953
 20
2575.967060972299
 30
0.0
 11
5389.872626248481
 21
2492.496936123876
 31
0.0
  0
LINE
  5
1FD8A
330
747D
100
AcDbEntity
  8
Ｇ．Ｌ
 48
50.0
100
AcDbLine
 10
5280.30970126779
 20
2492.496936123879
 30
0.0
 11
5797.984578558986
 21
2492.496936123879
 31
0.0
  0
LINE
  5
1FD8B
330
747D
100
AcDbEntity
  8
部品1
 48
50.0
100
AcDbLine
 10
5438.06412529901
 20
2575.967060972299
 30
0.0
 11
5389.872626248481
 21
2492.496936123876
 31
0.0
  0
LINE
  5
1FD8C
330
747D
100
AcDbEntity
  8
部品1
 48
50.0
100
AcDbLine
 10
5341.681127197953
 20
2575.967060972299
 30
0.0
 11
5438.06412529901
 21
2575.967060972299
 31
0.0
  0
LINE
  5
1FD8D
330
747D
100
AcDbEntity
  8
細線
100
AcDbLine
 10
8461.833102949293
 20
2936.65052269625
 30
0.0
 11
8491.337171627518
 21
2935.012777998861
 31
0.0
  0
LINE
  5
1FD8E
330
747D
100
AcDbEntity
  8
細線
100
AcDbLine
 10
8491.337171627518
 20
2935.012777998861
 30
0.0
 11
8531.526261758083
 21
2926.824224802857
 31
0.0
  0
LINE
  5
1FD8F
330
747D
100
AcDbEntity
  8
細線
 48
50.0
100
AcDbLine
 10
8440.967145840566
 20
2799.743789357233
 30
0.0
 11
8531.526261758083
 21
2890.302905274754
 31
0.0
  0
LINE
  5
1FD90
330
747D
100
AcDbEntity
  8
細線
 48
50.0
100
AcDbLine
 10
8441.526261758083
 20
2766.626944820745
 30
0.0
 11
8531.526261758083
 21
2856.626944820745
 31
0.0
  0
LINE
  5
1FD91
330
747D
100
AcDbEntity
  8
細線
 48
50.0
100
AcDbLine
 10
8427.141789886178
 20
2819.594393856852
 30
0.0
 11
8531.526261758083
 21
2923.978865728764
 31
0.0
  0
LINE
  5
1FD92
330
747D
100
AcDbEntity
  8
細線
100
AcDbLine
 10
8365.125160011544
 20
2928.461969500245
 30
0.0
 11
8406.103114310857
 21
2935.012777998861
 31
0.0
  0
LINE
  5
1FD93
330
747D
100
AcDbEntity
  8
細線
100
AcDbLine
 10
8329.064585264111
 20
2928.461969500245
 30
0.0
 11
8365.125160011544
 21
2928.461969500245
 31
0.0
  0
LINE
  5
1FD94
330
747D
100
AcDbEntity
  8
細線
 48
50.0
100
AcDbLine
 10
8291.526261758084
 20
2919.710588906829
 30
0.0
 11
8306.249774569392
 21
2934.434101718135
 31
0.0
  0
LINE
  5
1FD95
330
747D
100
AcDbEntity
  8
細線
100
AcDbLine
 10
8291.526261758084
 20
2938.288210629996
 30
0.0
 11
8329.064585264111
 21
2928.461969500245
 31
0.0
  0
LINE
  5
1FD96
330
747D
100
AcDbEntity
  8
細線
 48
50.0
100
AcDbLine
 10
8291.526261758084
 20
2616.626944820745
 30
0.0
 11
8396.219164294702
 21
2721.31984735736
 31
0.0
  0
LINE
  5
1FD97
330
747D
100
AcDbEntity
  8
細線
 48
50.0
100
AcDbLine
 10
8401.526261758087
 20
2726.626944820745
 30
0.0
 11
8421.526261758083
 21
2746.626944820745
 31
0.0
  0
LINE
  5
1FD98
330
747D
100
AcDbEntity
  8
部品1
 48
50.0
100
AcDbLine
 10
8401.526261758084
 20
2721.31984735736
 30
0.0
 11
8381.526261758082
 21
2721.319847357362
 31
0.0
  0
LINE
  5
1FD99
330
747D
100
AcDbEntity
  8
部品1
 48
50.0
100
AcDbLine
 10
8381.526261758082
 20
2721.319847357362
 30
0.0
 11
8381.526261758082
 21
2793.978865728766
 31
0.0
  0
LINE
  5
1FD9A
330
747D
100
AcDbEntity
  8
細線
 48
50.0
100
AcDbLine
 10
8401.526261758084
 20
2760.302905274754
 30
0.0
 11
8421.526261758083
 21
2780.302905274754
 31
0.0
  0
LINE
  5
1FD9B
330
747D
100
AcDbEntity
  8
部品1
 48
50.0
100
AcDbLine
 10
8401.526261758084
 20
2721.31984735736
 30
0.0
 11
8401.526261758084
 21
2793.978865728764
 31
0.0
  0
CIRCLE
  5
1FD9C
330
747D
100
AcDbEntity
  8
部品1
 48
50.0
100
AcDbCircle
 10
8411.526261758082
 20
2793.978865728764
 30
0.0
 40
10.0
  0
LINE
  5
1FD9D
330
747D
100
AcDbEntity
  8
細線
 48
50.0
100
AcDbLine
 10
8291.526261758084
 20
2650.302905274755
 30
0.0
 11
8381.526261758082
 21
2740.302905274754
 31
0.0
  0
LINE
  5
1FD9E
330
747D
100
AcDbEntity
  8
細線
 48
50.0
100
AcDbLine
 10
8291.526261758084
 20
2683.978865728764
 30
0.0
 11
8381.526261758082
 21
2773.978865728764
 31
0.0
  0
LINE
  5
1FD9F
330
747D
100
AcDbEntity
  8
細線
 48
50.0
100
AcDbLine
 10
8291.526261758084
 20
2886.034628452819
 30
0.0
 11
8333.953602805511
 21
2928.461969500245
 31
0.0
  0
ARC
  5
1FDA0
330
747D
100
AcDbEntity
  8
部品1
 48
50.0
100
AcDbCircle
 10
8411.526261758082
 20
2793.978865728764
 30
0.0
 40
30.0
100
AcDbArc
 50
0.0
 51
180.0
  0
LINE
  5
1FDA1
330
747D
100
AcDbEntity
  8
細線
100
AcDbLine
 10
8406.103114310857
 20
2935.012777998861
 30
0.0
 11
8461.833102949293
 21
2936.65052269625
 31
0.0
  0
LINE
  5
1FDA2
330
747D
100
AcDbEntity
  8
部品1
 48
50.0
100
AcDbLine
 10
8291.526261758084
 20
2968.660828985957
 30
0.0
 11
8531.526261758083
 21
2968.660828985957
 31
0.0
  0
LINE
  5
1FDA3
330
747D
100
AcDbEntity
  8
細線
 48
50.0
100
AcDbLine
 10
8441.52626175809
 20
2497.219261188672
 30
0.0
 11
8531.526261758083
 21
2587.219261188669
 31
0.0
  0
LINE
  5
1FDA4
330
747D
100
AcDbEntity
  8
細線
 48
50.0
100
AcDbLine
 10
8441.52626175809
 20
2227.811577556598
 30
0.0
 11
8531.526261758083
 21
2317.811577556594
 31
0.0
  0
LINE
  5
1FDA5
330
747D
100
AcDbEntity
  8
部品1
 48
50.0
100
AcDbLine
 10
8621.526261758083
 20
2108.660828985957
 30
0.0
 11
8621.526261758083
 21
2128.660828985957
 31
0.0
  0
CIRCLE
  5
1FDA6
330
747D
100
AcDbEntity
  8
部品1
 48
50.0
100
AcDbCircle
 10
8571.526261758084
 20
2138.660828985957
 30
0.0
 40
10.0
  0
ARC
  5
1FDA7
330
747D
100
AcDbEntity
  8
部品1
 48
50.0
100
AcDbCircle
 10
8411.526261758082
 20
2138.660828985957
 30
0.0
 40
30.0
100
AcDbArc
 50
340.5287793655287
 51
0.0
  0
LINE
  5
1FDA8
330
747D
100
AcDbEntity
  8
部品1
 48
50.0
100
AcDbLine
 10
8531.526261758083
 20
2288.660828985957
 30
0.0
 11
8691.526261758083
 21
2288.660828985957
 31
0.0
  0
LINE
  5
1FDA9
330
747D
100
AcDbEntity
  8
細線
 48
50.0
100
AcDbLine
 10
8611.783196819521
 20
2128.660828985957
 30
0.0
 11
8691.526261758083
 21
2208.403893924519
 31
0.0
  0
LINE
  5
1FDAA
330
747D
100
AcDbEntity
  8
細線
 48
50.0
100
AcDbLine
 10
8544.431275911497
 20
2128.660828985957
 30
0.0
 11
8691.526261758083
 21
2275.75581483254
 31
0.0
  0
LINE
  5
1FDAB
330
747D
100
AcDbEntity
  8
細線
 48
50.0
100
AcDbLine
 10
8578.107236365513
 20
2128.660828985957
 30
0.0
 11
8691.526261758083
 21
2242.07985437853
 31
0.0
  0
LINE
  5
1FDAC
330
747D
100
AcDbEntity
  8
細線
 48
50.0
100
AcDbLine
 10
8441.52626175809
 20
2261.487538010609
 30
0.0
 11
8531.526261758083
 21
2351.487538010603
 31
0.0
  0
LINE
  5
1FDAD
330
747D
100
AcDbEntity
  8
細線
 48
50.0
100
AcDbLine
 10
8441.52626175809
 20
2295.163498464618
 30
0.0
 11
8531.526261758083
 21
2385.163498464613
 31
0.0
  0
LINE
  5
1FDAE
330
747D
100
AcDbEntity
  8
細線
 48
50.0
100
AcDbLine
 10
8291.526261758084
 20
2380.895221642679
 30
0.0
 11
8421.52626175809
 21
2510.895221642682
 31
0.0
  0
LINE
  5
1FDAF
330
747D
100
AcDbEntity
  8
細線
 48
50.0
100
AcDbLine
 10
8291.526261758084
 20
2347.219261188671
 30
0.0
 11
8421.526261758087
 21
2477.21926118867
 31
0.0
  0
LINE
  5
1FDB0
330
747D
100
AcDbEntity
  8
細線
 48
50.0
100
AcDbLine
 10
8291.526261758084
 20
2414.571182096689
 30
0.0
 11
8421.526261758083
 21
2544.571182096689
 31
0.0
  0
LINE
  5
1FDB1
330
747D
100
AcDbEntity
  8
細線
 48
50.0
100
AcDbLine
 10
8391.358571104841
 20
2211.31984735736
 30
0.0
 11
8421.52626175809
 21
2241.487538010607
 31
0.0
  0
LINE
  5
1FDB2
330
747D
100
AcDbEntity
  8
部品1
 48
50.0
100
AcDbLine
 10
8401.526261758084
 20
2211.31984735736
 30
0.0
 11
8381.526261758082
 21
2211.31984735736
 31
0.0
  0
LINE
  5
1FDB3
330
747D
100
AcDbEntity
  8
部品1
 48
50.0
100
AcDbLine
 10
8381.526261758082
 20
2211.31984735736
 30
0.0
 11
8381.526261758082
 21
2138.660828985957
 31
0.0
  0
LINE
  5
1FDB4
330
747D
100
AcDbEntity
  8
細線
 48
50.0
100
AcDbLine
 10
8401.526261758087
 20
2187.811577556596
 30
0.0
 11
8421.52626175809
 21
2207.811577556598
 31
0.0
  0
LINE
  5
1FDB5
330
747D
100
AcDbEntity
  8
部品1
 48
50.0
100
AcDbLine
 10
8401.526261758084
 20
2211.31984735736
 30
0.0
 11
8401.526261758084
 21
2138.660828985957
 31
0.0
  0
ARC
  5
1FDB6
330
747D
100
AcDbEntity
  8
部品1
 48
50.0
100
AcDbCircle
 10
8411.526261758082
 20
2138.660828985957
 30
0.0
 40
30.0
100
AcDbArc
 50
180.0
 51
199.4712206344713
  0
CIRCLE
  5
1FDB7
330
747D
100
AcDbEntity
  8
部品1
 48
50.0
100
AcDbCircle
 10
8411.526261758082
 20
2138.660828985957
 30
0.0
 40
10.0
  0
CIRCLE
  5
1FDB8
330
747D
100
AcDbEntity
  8
部品1
 48
50.0
100
AcDbCircle
 10
8251.526261758083
 20
2138.660828985957
 30
0.0
 40
10.0
  0
LINE
  5
1FDB9
330
747D
100
AcDbEntity
  8
細線
 48
50.0
100
AcDbLine
 10
8342.375513187445
 20
2128.660828985957
 30
0.0
 11
8381.526261758082
 21
2167.811577556594
 31
0.0
  0
LINE
  5
1FDBA
330
747D
100
AcDbEntity
  8
細線
 48
50.0
100
AcDbLine
 10
8275.023592279426
 20
2128.660828985957
 30
0.0
 11
8421.526261758083
 21
2275.163498464616
 31
0.0
  0
LINE
  5
1FDBB
330
747D
100
AcDbEntity
  8
細線
 48
50.0
100
AcDbLine
 10
8308.699552733438
 20
2128.660828985957
 30
0.0
 11
8381.526261758082
 21
2201.487538010605
 31
0.0
  0
LINE
  5
1FDBC
330
747D
100
AcDbEntity
  8
細線
 48
50.0
100
AcDbLine
 10
8131.526261758082
 20
2220.895221642678
 30
0.0
 11
8199.291869101363
 21
2288.660828985957
 31
0.0
  0
LINE
  5
1FDBD
330
747D
100
AcDbEntity
  8
細線
 48
50.0
100
AcDbLine
 10
8131.526261758082
 20
2254.571182096687
 30
0.0
 11
8165.615908647351
 21
2288.660828985957
 31
0.0
  0
LINE
  5
1FDBE
330
747D
100
AcDbEntity
  8
部品1
 48
50.0
100
AcDbLine
 10
8201.526261758083
 20
2108.660828985957
 30
0.0
 11
8201.526261758083
 21
2128.660828985957
 31
0.0
  0
LINE
  5
1FDBF
330
747D
100
AcDbEntity
  8
部品1
 48
50.0
100
AcDbLine
 10
8131.526261758082
 20
2288.660828985957
 30
0.0
 11
8291.526261758084
 21
2288.660828985957
 31
0.0
  0
LINE
  5
1FDC0
330
747D
100
AcDbEntity
  8
細線
 48
50.0
100
AcDbLine
 10
8131.526261758082
 20
2187.219261188669
 30
0.0
 11
8232.967829555368
 21
2288.660828985957
 31
0.0
  0
LINE
  5
1FDC1
330
747D
100
AcDbEntity
  8
部品1
 48
50.0
100
AcDbLine
 10
8201.526261758083
 20
2128.660828985957
 30
0.0
 11
8621.526261758083
 21
2128.660828985957
 31
0.0
  0
LINE
  5
1FDC2
330
747D
100
AcDbEntity
  8
部品1
 48
50.0
100
AcDbLine
 10
8201.526261758083
 20
2108.660828985957
 30
0.0
 11
8621.526261758083
 21
2108.660828985957
 31
0.0
  0
LINE
  5
1FDC3
330
747D
100
AcDbEntity
  8
寸法
 48
50.0
100
AcDbLine
 10
8238.790998214417
 20
2712.665185287293
 30
0.0
 11
8411.526261758082
 21
2138.660828985957
 31
0.0
  0
LINE
  5
1FDC4
330
747D
100
AcDbEntity
  8
細線
 48
50.0
100
AcDbLine
 10
8441.52626175809
 20
2530.895221642682
 30
0.0
 11
8531.526261758083
 21
2620.895221642678
 31
0.0
  0
LINE
  5
1FDC5
330
747D
100
AcDbEntity
  8
細線
 48
50.0
100
AcDbLine
 10
8441.526261758083
 20
2564.571182096689
 30
0.0
 11
8531.526261758083
 21
2654.571182096687
 31
0.0
  0
LINE
  5
1FDC6
330
747D
100
AcDbEntity
  8
部品1
 48
50.0
100
AcDbLine
 10
8421.52626175809
 20
2138.660828985957
 30
0.0
 11
8421.526261758083
 21
2793.978865728764
 31
0.0
  0
LINE
  5
1FDC7
330
747D
100
AcDbEntity
  8
部品1
 48
50.0
100
AcDbLine
 10
8441.52626175809
 20
2138.660828985957
 30
0.0
 11
8441.526261758083
 21
2793.978865728764
 31
0.0
  0
LINE
  5
1FDC8
330
747D
100
AcDbEntity
  8
部品1
 48
50.0
100
AcDbLine
 10
8531.526261758083
 20
2968.660828985957
 30
0.0
 11
8531.526261758083
 21
2288.660828985957
 31
0.0
  0
LINE
  5
1FDC9
330
747D
100
AcDbEntity
  8
部品1
 48
50.0
100
AcDbLine
 10
8291.526261758084
 20
2288.660828985957
 30
0.0
 11
8291.526261758084
 21
2968.660828985957
 31
0.0
  0
LEADER
  5
1FDCA
330
747D
100
AcDbEntity
  8
寸法
 48
50.0
100
AcDbLeader
  3
INABA_S50G
 71
     0
 73
     0
 74
     0
 75
     1
 40
132.9441738241594
 41
490.0787401574802
 76
     3
 10
8430.084057296094
 20
2666.31984735736
 30
0.0
 10
8614.455789809978
 20
2787.761945037054
 30
0.0
 10
8739.455789809978
 20
2787.761945037054
 30
0.0
340
1FDCB
  0
MTEXT
  5
1FDCB
102
{ACAD_REACTORS
330
1FDCA
102
}
330
747D
100
AcDbEntity
  8
寸法
 62
     7
 48
50.0
100
AcDbMText
 10
8764.455789809979
 20
2879.234031949133
 30
0.0
 40
100.0
 41
0.0
 71
     4
 72
     1
  1
\A1;D10@300
  7
STYLE1
 73
     1
 44
1.0
1001
ACAD
1000
MTEXTBEGIN
1070
    73
1070
     1
1070
    44
1040
1.0
1070
    74
1070
     0
1000
MTEXTEND
  0
LINE
  5
1FDCC
330
747D
100
AcDbEntity
  8
細線
 48
50.0
100
AcDbLine
 10
8691.873455453217
 20
1858.660828985956
 30
0.0
 11
8699.911931226152
 21
1828.660828985956
 31
0.0
  0
LINE
  5
1FDCD
330
747D
100
AcDbEntity
  8
細線
 48
50.0
100
AcDbLine
 10
8718.668374696337
 20
1958.660828985956
 30
0.0
 11
8710.629898923404
 21
1988.660828985956
 31
0.0
  0
LINE
  5
1FDCE
330
747D
100
AcDbEntity
  8
細線
 48
50.0
100
AcDbLine
 10
8673.838959543575
 20
1988.660828985956
 30
0.0
 11
8691.526261758083
 21
2006.348131200463
 31
0.0
  0
LINE
  5
1FDCF
330
747D
100
AcDbEntity
  8
細線
 48
50.0
100
AcDbLine
 10
8683.834979680284
 20
1828.660828985957
 30
0.0
 11
8726.706850469268
 21
1988.660828985956
 31
0.0
  0
LINE
  5
1FDD0
330
747D
100
AcDbEntity
  8
部品1
 48
50.0
100
AcDbLine
 10
8791.526261758084
 20
1988.660828985956
 30
0.0
 11
8791.526261758084
 21
1828.660828985957
 31
0.0
  0
LINE
  5
1FDD1
330
747D
100
AcDbEntity
  8
細線
 48
50.0
100
AcDbLine
 10
8585.224923496225
 20
1828.660828985957
 30
0.0
 11
8628.096794285205
 21
1988.660828985956
 31
0.0
  0
LINE
  5
1FDD2
330
747D
100
AcDbEntity
  8
細線
 48
50.0
100
AcDbLine
 10
8620.058318512276
 20
1958.660828985956
 30
0.0
 11
8612.019842739343
 21
1988.660828985956
 31
0.0
  0
LINE
  5
1FDD3
330
747D
100
AcDbEntity
  8
細線
 48
50.0
100
AcDbLine
 10
8521.448262328211
 20
1958.660828985956
 30
0.0
 11
8513.409786555277
 21
1988.660828985956
 31
0.0
  0
LINE
  5
1FDD4
330
747D
100
AcDbEntity
  8
細線
 48
50.0
100
AcDbLine
 10
8593.263399269158
 20
1858.660828985956
 30
0.0
 11
8601.301875042091
 21
1828.660828985957
 31
0.0
  0
LINE
  5
1FDD5
330
747D
100
AcDbEntity
  8
細線
 48
50.0
100
AcDbLine
 10
8494.653343085099
 20
1858.660828985956
 30
0.0
 11
8502.691818858032
 21
1828.660828985957
 31
0.0
  0
LINE
  5
1FDD6
330
747D
100
AcDbEntity
  8
細線
 48
50.0
100
AcDbLine
 10
8486.614867312166
 20
1828.660828985957
 30
0.0
 11
8529.486738101144
 21
1988.660828985956
 31
0.0
  0
LINE
  5
1FDD7
330
747D
100
AcDbEntity
  8
細線
 48
50.0
100
AcDbLine
 10
8422.838206144154
 20
1958.660828985956
 30
0.0
 11
8414.799730371219
 21
1988.660828985956
 31
0.0
  0
LINE
  5
1FDD8
330
747D
100
AcDbEntity
  8
細線
 48
50.0
100
AcDbLine
 10
8324.22814996009
 20
1958.660828985956
 30
0.0
 11
8316.189674187155
 21
1988.660828985956
 31
0.0
  0
LINE
  5
1FDD9
330
747D
100
AcDbEntity
  8
細線
 48
50.0
100
AcDbLine
 10
8396.043286901042
 20
1858.660828985956
 30
0.0
 11
8404.081762673975
 21
1828.660828985957
 31
0.0
  0
LINE
  5
1FDDA
330
747D
100
AcDbEntity
  8
細線
 48
50.0
100
AcDbLine
 10
8297.433230716977
 20
1858.660828985956
 30
0.0
 11
8305.47170648991
 21
1828.660828985957
 31
0.0
  0
LINE
  5
1FDDB
330
747D
100
AcDbEntity
  8
細線
 48
50.0
100
AcDbLine
 10
8289.394754944044
 20
1828.660828985957
 30
0.0
 11
8332.266625733023
 21
1988.660828985956
 31
0.0
  0
LINE
  5
1FDDC
330
747D
100
AcDbEntity
  8
細線
 48
50.0
100
AcDbLine
 10
8100.21311834884
 20
1858.660828985956
 30
0.0
 11
8108.251594121773
 21
1828.660828985957
 31
0.0
  0
LINE
  5
1FDDD
330
747D
100
AcDbEntity
  8
細線
 48
50.0
100
AcDbLine
 10
8127.008037591952
 20
1958.660828985956
 30
0.0
 11
8118.969561819019
 21
1988.660828985956
 31
0.0
  0
LINE
  5
1FDDE
330
747D
100
AcDbEntity
  8
細線
 48
50.0
100
AcDbLine
 10
8092.174642575903
 20
1828.660828985957
 30
0.0
 11
8135.046513364903
 21
1988.660828985956
 31
0.0
  0
LINE
  5
1FDDF
330
747D
100
AcDbEntity
  8
細線
 48
50.0
100
AcDbLine
 10
8198.82317453292
 20
1858.660828985956
 30
0.0
 11
8206.861650305853
 21
1828.660828985957
 31
0.0
  0
LINE
  5
1FDE0
330
747D
100
AcDbEntity
  8
部品1
 48
50.0
100
AcDbLine
 10
8031.526261758083
 20
1828.660828985957
 30
0.0
 11
8031.526261758083
 21
1988.660828985956
 31
0.0
  0
LINE
  5
1FDE1
330
747D
100
AcDbEntity
  8
細線
 48
50.0
100
AcDbLine
 10
8190.784698759982
 20
1828.660828985957
 30
0.0
 11
8233.656569548964
 21
1988.660828985956
 31
0.0
  0
LINE
  5
1FDE2
330
747D
100
AcDbEntity
  8
細線
 48
50.0
100
AcDbLine
 10
8225.618093776031
 20
1958.660828985956
 30
0.0
 11
8217.579618003098
 21
1988.660828985956
 31
0.0
  0
LINE
  5
1FDE3
330
747D
100
AcDbEntity
  8
部品1
 48
50.0
100
AcDbLine
 10
8785.181945867533
 20
1988.660828985956
 30
0.0
 11
8031.526261758083
 21
1988.660828985956
 31
0.0
  0
LINE
  5
1FDE4
330
747D
100
AcDbEntity
  8
部品1
 48
50.0
100
AcDbLine
 10
8791.526261758084
 20
1828.660828985957
 30
0.0
 11
8031.526261758083
 21
1828.660828985957
 31
0.0
  0
LINE
  5
1FDE5
330
747D
100
AcDbEntity
  8
細線
 48
50.0
100
AcDbLine
 10
8388.004811128105
 20
1828.660828985957
 30
0.0
 11
8430.876681917082
 21
1988.660828985956
 31
0.0
  0
DIMENSION
  5
1FDE6
330
747D
100
AcDbEntity
  8
寸法
 48
50.0
100
AcDbDimension
  2
*D60
 10
8691.526261758083
 20
1529.708722530022
 30
0.0
 11
8411.526261758082
 21
1529.708722530022
 31
0.0
 70
   160
  1
300
 71
     5
 42
560.0
  3
INABA_S50GUP
100
AcDbAlignedDimension
 13
8131.526261758082
 23
1828.660828985957
 33
0.0
 14
8691.526261758083
 24
1828.660828985957
 34
0.0
100
AcDbRotatedDimension
1001
ACAD
1000
DSTYLE
1002
{
1070
   140
1040
100.0
1002
}
  0
LEADER
  5
1FDE7
330
747D
100
AcDbEntity
  8
寸法
 48
50.0
100
AcDbLeader
  3
INABA_S50G
 71
     0
 73
     0
 74
     0
 75
     1
 40
132.9441738241594
 41
490.0787401574802
 76
     3
 10
8590.947645644746
 20
2115.977653172572
 30
0.0
 10
8767.680274036441
 20
1918.728690461994
 30
0.0
 10
8892.680274036441
 20
1918.728690461994
 30
0.0
340
1FDE8
  0
MTEXT
  5
1FDE8
102
{ACAD_REACTORS
330
1FDE7
102
}
330
747D
100
AcDbEntity
  8
寸法
 62
     7
 48
50.0
100
AcDbMText
 10
8917.680274036442
 20
2010.200777374074
 30
0.0
 40
100.0
 41
0.0
 71
     4
 72
     1
  1
\A1;D10@300
  7
STYLE1
 73
     1
 44
1.0
1001
ACAD
1000
MTEXTBEGIN
1070
    73
1070
     1
1070
    44
1040
1.0
1070
    74
1070
     0
1000
MTEXTEND
  0
LINE
  5
1FDE9
330
747D
100
AcDbEntity
  8
寸法
 48
50.0
100
AcDbLine
 10
8085.232953735523
 20
1793.687139199191
 30
0.0
 11
8571.526261758084
 21
2138.660828985957
 31
0.0
  0
LINE
  5
1FDEA
330
747D
100
AcDbEntity
  8
細線
 48
50.0
100
AcDbLine
 10
8438.107236365514
 20
1988.660828985956
 30
0.0
 11
8558.107236365513
 21
2108.660828985957
 31
0.0
  0
LINE
  5
1FDEB
330
747D
100
AcDbEntity
  8
細線
 48
50.0
100
AcDbLine
 10
8404.4312759115
 20
1988.660828985956
 30
0.0
 11
8524.431275911501
 21
2108.660828985957
 31
0.0
  0
LINE
  5
1FDEC
330
747D
100
AcDbEntity
  8
細線
 48
50.0
100
AcDbLine
 10
8471.783196819519
 20
1988.660828985956
 30
0.0
 11
8591.784306625946
 21
2108.661938792381
 31
0.0
  0
LINE
  5
1FDED
330
747D
100
AcDbEntity
  8
細線
 48
50.0
100
AcDbLine
 10
8168.699552733439
 20
1988.660828985956
 30
0.0
 11
8288.699552733438
 21
2108.660828985957
 31
0.0
  0
LINE
  5
1FDEE
330
747D
100
AcDbEntity
  8
細線
 48
50.0
100
AcDbLine
 10
8135.023592279425
 20
1988.660828985956
 30
0.0
 11
8255.023592279426
 21
2108.660828985957
 31
0.0
  0
LINE
  5
1FDEF
330
747D
100
AcDbEntity
  8
細線
 48
50.0
100
AcDbLine
 10
8202.375513187444
 20
1988.660828985956
 30
0.0
 11
8322.375513187443
 21
2108.660828985957
 31
0.0
  0
LINE
  5
1FDF0
330
747D
100
AcDbEntity
  8
部品1
 48
50.0
100
AcDbLine
 10
8131.526261758082
 20
1988.660828985956
 30
0.0
 11
8131.526261758082
 21
2288.660828985957
 31
0.0
  0
LINE
  5
1FDF1
330
747D
100
AcDbEntity
  8
部品1
 48
50.0
100
AcDbLine
 10
8691.526261758083
 20
2288.660828985957
 30
0.0
 11
8691.526261758083
 21
1988.660828985956
 31
0.0
  0
LINE
  5
1FDF2
330
747D
100
AcDbEntity
  8
部品1
 48
50.0
100
AcDbLine
 10
7823.725297570209
 20
2575.967060972299
 30
0.0
 11
7871.916796620737
 21
2492.496936123876
 31
0.0
  0
LINE
  5
1FDF3
330
747D
100
AcDbEntity
  8
部品1
 48
50.0
100
AcDbLine
 10
7823.725297570209
 20
2575.967060972299
 30
0.0
 11
7920.108295671266
 21
2575.967060972299
 31
0.0
  0
LINE
  5
1FDF4
330
747D
100
AcDbEntity
  8
部品1
 48
50.0
100
AcDbLine
 10
7920.108295671266
 20
2575.967060972299
 30
0.0
 11
7871.916796620737
 21
2492.496936123876
 31
0.0
  0
MTEXT
  5
1FDF5
102
{ACAD_REACTORS
330
1FDF6
102
}
330
747D
100
AcDbEntity
  8
寸法
 62
     7
 48
50.0
100
AcDbMText
 10
7935.232953735523
 20
1869.382575681821
 30
0.0
 40
100.0
 41
0.0
 71
     6
 72
     1
  1
D10
  7
STYLE1
 73
     1
 44
1.0
1001
ACAD
1000
MTEXTBEGIN
1070
    73
1070
     1
1070
    44
1040
1.0
1070
    74
1070
     0
1000
MTEXTEND
  0
LEADER
  5
1FDF6
330
747D
100
AcDbEntity
  8
寸法
 48
50.0
100
AcDbLeader
  3
INABA_S50G
 71
     0
 73
     0
 75
     1
 40
101.39087296526
 41
170.0787401574803
 76
     3
 10
8251.271885905518
 20
2138.660828985957
 30
0.0
 10
8085.232953735523
 20
1793.687139199191
 30
0.0
 10
7960.232953735523
 20
1793.687139199191
 30
0.0
340
1FDF5
  0
DIMENSION
  5
1FDF7
330
747D
100
AcDbEntity
  8
寸法
 48
50.0
100
AcDbDimension
  2
*D61
 10
7878.500869592508
 20
1988.660828985956
 30
0.0
 11
7878.500869592508
 21
2138.660828985957
 31
0.0
 70
   160
  1
150
 71
     5
 42
300.0000000000002
  3
INABA_S50GUP
100
AcDbAlignedDimension
 13
8131.526261758082
 23
2288.660828985957
 33
0.0
 14
8031.526261758083
 24
1988.660828985956
 34
0.0
 50
90.0
100
AcDbRotatedDimension
1001
ACAD
1000
DSTYLE
1002
{
1070
   140
1040
100.0
1002
}
  0
DIMENSION
  5
1FDF8
330
747D
100
AcDbEntity
  8
寸法
 48
50.0
100
AcDbDimension
  2
*D62
 10
7605.881323722018
 20
1988.660828985957
 30
0.0
 11
7605.881323722018
 21
2478.660828985957
 31
0.0
 70
   160
  1
540
 71
     5
 42
980.0000000000002
  3
INABA_S50GUP
100
AcDbAlignedDimension
 13
8291.526261758084
 23
2968.660828985957
 33
0.0
 14
8031.526261758083
 24
1988.660828985956
 34
0.0
 50
90.0
100
AcDbRotatedDimension
1001
ACAD
1000
DSTYLE
1002
{
1070
   140
1040
100.0
1002
}
  0
LINE
  5
1FDF9
330
747D
100
AcDbEntity
  8
Ｇ．Ｌ
 48
50.0
100
AcDbLine
 10
7773.851384466887
 20
2492.496936123876
 30
0.0
 11
8291.526261758084
 21
2492.496936123876
 31
0.0
  0
TEXT
  5
1FDFA
330
747D
100
AcDbEntity
  8
部品1
 48
50.0
100
AcDbText
 10
7922.199651041262
 20
2501.862763026587
 30
0.0
 40
100.0
  1
G.L
  7
STYLE1
100
AcDbText
  0
LEADER
  5
1FDFB
330
747D
100
AcDbEntity
  8
寸法
 48
50.0
100
AcDbLeader
  3
INABA_S50G
 71
     0
 73
     0
 75
     1
 40
101.39087296526
 41
174.1421356237309
 76
     3
 10
8411.526261758082
 20
2793.978865728764
 30
0.0
 10
8238.790998214417
 20
2712.665185287293
 30
0.0
 10
8113.790998214417
 20
2712.665185287293
 30
0.0
340
1FDFC
  0
MTEXT
  5
1FDFC
102
{ACAD_REACTORS
330
1FDFB
102
}
330
747D
100
AcDbEntity
  8
寸法
 62
     7
 48
50.0
100
AcDbMText
 10
8088.790998214419
 20
2788.360621769923
 30
0.0
 40
100.0
 41
0.0
 71
     6
 72
     1
  1
D13
  7
STYLE1
 73
     1
 44
1.0
1001
ACAD
1000
MTEXTBEGIN
1070
    73
1070
     1
1070
    44
1040
1.0
1070
    74
1070
     0
1000
MTEXTEND
  0
LEADER
  5
1FDFD
330
747D
100
AcDbEntity
  8
寸法
 48
50.0
100
AcDbLeader
  3
INABA_S50G
 71
     0
 73
     0
 75
     1
 40
100.0
 41
585.0000000000001
 76
     3
 10
8391.526261758084
 20
2968.660828985957
 30
0.0
 10
8359.139005361091
 20
3159.30610398851
 30
0.0
 10
8234.139005361091
 20
3159.30610398851
 30
0.0
340
1FDFE
  0
MTEXT
  5
1FDFE
102
{ACAD_REACTORS
330
1FDFD
102
}
330
747D
100
AcDbEntity
  8
寸法
 62
     7
 48
50.0
100
AcDbMText
 10
8209.139005361091
 20
3234.30610398851
 30
0.0
 40
100.0
 41
0.0
 71
     6
 72
     1
  1
\A1;金コテ押エ
  7
STYLE1
 73
     1
 44
1.0
1001
ACAD
1000
MTEXTBEGIN
1070
    73
1070
     1
1070
    44
1040
1.0
1070
    74
1070
     0
1000
MTEXTEND
  0
DIMENSION
  5
1FDFF
330
747D
100
AcDbEntity
  8
寸法
 48
50.0
100
AcDbDimension
  2
*D63
 10
8291.526261758084
 20
3368.660828985957
 30
0.0
 11
8411.526261758082
 21
3368.660828985957
 31
0.0
 70
   160
  1
120\P195
 71
     5
 42
240.0
  3
INABA_S50GUP
100
AcDbAlignedDimension
 13
8531.526261758083
 23
2968.660828985957
 33
0.0
 14
8291.526261758084
 24
2968.660828985957
 34
0.0
100
AcDbRotatedDimension
1001
ACAD
1000
DSTYLE
1002
{
1070
   140
1040
100.0
1002
}
  0
LINE
  5
1FE00
330
747D
100
AcDbEntity
  8
Ｇ．Ｌ
 48
50.0
100
AcDbLine
 10
8531.526261758083
 20
2668.660828985958
 30
0.0
 11
9097.832507921522
 21
2668.660828985958
 31
0.0
  0
LINE
  5
1FE01
330
747D
100
AcDbEntity
  8
部品1
100
AcDbLine
 10
11717.8055681678
 20
4031.446235275796
 30
0.0
 11
11717.8055681678
 21
997.3288375049476
 31
0.0
  0
LINE
  5
1FE02
330
747D
100
AcDbEntity
  8
部品1
100
AcDbLine
 10
4486.131582126083
 20
997.3288375049481
 30
0.0
 11
11717.8055681678
 21
997.3288375049481
 31
0.0
  0
LINE
  5
1FE03
330
747D
100
AcDbEntity
  8
部品1
100
AcDbLine
 10
11717.8055681678
 20
3791.446235275798
 30
0.0
 11
4486.131582126076
 21
3791.446235275798
 31
0.0
  0
LINE
  5
1FE04
330
747D
100
AcDbEntity
  8
部品1
100
AcDbLine
 10
11717.8055681678
 20
4031.446235275796
 30
0.0
 11
4486.131582126083
 21
4031.446235275796
 31
0.0
  0
LINE
  5
1FE05
330
747D
100
AcDbEntity
  8
部品1
100
AcDbLine
 10
4486.131582126083
 20
4031.446235275796
 30
0.0
 11
4486.131582126083
 21
997.3288375049481
 31
0.0
  0
TEXT
  5
1FE06
330
747D
100
AcDbEntity
  8
部品1
100
AcDbText
 10
7752.877666056035
 20
3842.985668462994
 30
0.0
 40
120.0
  1
基礎詳細
  7
STYLE2
 72
     1
 11
8101.968575146944
 21
3818.440213917539
 31
0.0
100
AcDbText
 73
     1
  0
LINE
  5
1FE07
330
747D
100
AcDbEntity
  8
部品1
 48
50.0
100
AcDbLine
 10
6316.368975016037
 20
1575.403183451047
 30
0.0
 11
6316.368975016037
 21
1415.403183451047
 31
0.0
  0
LINE
  5
1FE08
330
747D
100
AcDbEntity
  8
部品1
 48
50.0
100
AcDbLine
 10
5516.368975016039
 20
1575.403183451047
 30
0.0
 11
5516.368975016039
 21
1415.403183451047
 31
0.0
  0
TEXT
  5
1FE09
330
747D
100
AcDbEntity
  8
部品1
 48
50.0
100
AcDbText
 10
5577.971410154281
 20
1449.395475183544
 30
0.0
 40
96.0
  1
Ａ－Ａ’断面
  7
STYLE2
100
AcDbText
  0
LINE
  5
1FE0A
330
747D
100
AcDbEntity
  8
部品1
 48
50.0
100
AcDbLine
 10
6316.368975016037
 20
1415.403183451047
 30
0.0
 11
5516.368975016039
 21
1415.403183451047
 31
0.0
  0
LINE
  5
1FE0B
330
747D
100
AcDbEntity
  8
部品1
 48
50.0
100
AcDbLine
 10
6316.368975016037
 20
1575.403183451047
 30
0.0
 11
5516.368975016039
 21
1575.403183451047
 31
0.0
  0
LINE
  5
1FE0C
330
747D
100
AcDbEntity
  8
部品1
 48
50.0
100
AcDbLine
 10
9599.49912208788
 20
1337.899502348221
 30
0.0
 11
9599.49912208788
 21
1177.899502348221
 31
0.0
  0
LINE
  5
1FE0D
330
747D
100
AcDbEntity
  8
部品1
 48
50.0
100
AcDbLine
 10
8959.49912208788
 20
1337.899502348221
 30
0.0
 11
8959.49912208788
 21
1177.899502348221
 31
0.0
  0
TEXT
  5
1FE0E
330
747D
100
AcDbEntity
  8
部品1
 48
50.0
100
AcDbText
 10
9001.689623432095
 20
1209.107288552893
 30
0.0
 40
96.0
  1
基礎断面
  7
STYLE2
100
AcDbText
  0
LINE
  5
1FE0F
330
747D
100
AcDbEntity
  8
部品1
 48
50.0
100
AcDbLine
 10
9599.49912208788
 20
1177.899502348221
 30
0.0
 11
8959.49912208788
 21
1177.899502348221
 31
0.0
  0
LINE
  5
1FE10
330
747D
100
AcDbEntity
  8
部品1
 48
50.0
100
AcDbLine
 10
9599.49912208788
 20
1337.899502348221
 30
0.0
 11
8959.49912208788
 21
1337.899502348221
 31
0.0
  0
LINE
  5
1FE11
330
747D
100
AcDbEntity
  8
細線
 48
50.0
100
AcDbLine
 10
5931.492848359751
 20
2211.31984735736
 30
0.0
 11
6037.984578558979
 21
2317.811577556594
 31
0.0
  0
VIEWPORT
  5
1FABA
102
{ACAD_XDICTIONARY
360
1FEAB
102
}
330
747A
100
AcDbEntity
 67
     1
  8
0
 48
50.0
100
AcDbViewport
 10
146.2632539370883
 20
82.9532874105061
 30
0.0
 40
246.0907831694288
 41
160.2451611335815
 68
     1
 69
     1
 12
146.2632539370883
 22
82.9532874105061
 13
0.0
 23
0.0
 14
10.0
 24
10.0
 15
10.0
 25
10.0
 16
0.0
 26
0.0
 36
1.0
 17
0.0
 27
0.0
 37
0.0
 42
50.0
 43
0.0
 44
0.0
 45
160.2451611335815
 50
0.0
 51
0.0
 72
     0
 90
    32800
  1

281
     0
 71
     1
 74
     0
110
0.0
120
0.0
130
0.0
111
1.0
121
0.0
131
0.0
112
0.0
122
1.0
132
0.0
 79
     0
146
0.0
  0
VIEWPORT
  5
1FABC
102
{ACAD_XDICTIONARY
360
1FEAD
102
}
330
747A
100
AcDbEntity
 67
     1
  8
細線
 48
50.0
100
AcDbViewport
 10
133.3499939441681
 20
101.5999939441681
 30
0.0
 40
213.3599903106689
 41
162.5599903106689
 68
     2
 69
     2
 12
8223.600000000001
 22
5704.8
 13
0.0
 23
0.0
 14
10.0
 24
10.0
 15
10.0
 25
10.0
 16
0.0
 26
0.0
 36
1.0
 17
0.0
 27
0.0
 37
0.0
 42
50.0
 43
0.0
 44
0.0
 45
12418.97073118788
 50
0.0
 51
0.0
 72
     0
 90
    32768
  1

281
     0
 71
     1
 74
     0
110
0.0
120
0.0
130
0.0
111
1.0
121
0.0
131
0.0
112
0.0
122
1.0
132
0.0
 79
     0
146
0.0
  0
ENDSEC
  0
SECTION
  2
OBJECTS
  0
DICTIONARY
  5
7471
330
0
100
AcDbDictionary
281
     1
  3
ACAD_COLOR
350
173D2
  3
ACAD_GROUP
350
7472
  3
ACAD_LAYOUT
350
173D3
  3
ACAD_MATERIAL
350
173D1
  3
ACAD_MLINESTYLE
350
7473
  3
ACAD_PLOTSETTINGS
350
173D4
  3
ACAD_PLOTSTYLENAME
350
173CF
  3
ACDBHEADERROUNDTRIPXREC
350
1FEA4
  3
AcDbVariableDictionary
350
1F6A9
  3
CONTENTDICTIONARY
350
E71C
  3
DRAWINGVARIABLESDICT
350
F3B9
  0
DICTIONARY
  5
1758F
330
7467
100
AcDbDictionary
280
     1
281
     1
  3
ACAD_LAYERSTATES
360
17590
  0
DICTIONARY
  5
1FEAB
330
1FABA
100
AcDbDictionary
280
     1
281
     1
  3
ACAD_XREC_ROUNDTRIP
360
1FEAC
  0
DICTIONARY
  5
1FEAD
330
1FABC
100
AcDbDictionary
280
     1
281
     1
  3
ACAD_XREC_ROUNDTRIP
360
1FEAE
  0
DICTIONARY
  5
173D2
102
{ACAD_REACTORS
330
7471
102
}
330
7471
100
AcDbDictionary
281
     1
  0
DICTIONARY
  5
7472
102
{ACAD_REACTORS
330
7471
102
}
330
7471
100
AcDbDictionary
281
     1
  3
*A1
350
1D2A9
  0
DICTIONARY
  5
173D3
102
{ACAD_REACTORS
330
7471
102
}
330
7471
100
AcDbDictionary
281
     1
  3
Model
350
173D5
  3
レイアウト1
350
173D6
  0
DICTIONARY
  5
173D1
102
{ACAD_REACTORS
330
7471
102
}
330
7471
100
AcDbDictionary
281
     1
  0
DICTIONARY
  5
7473
102
{ACAD_REACTORS
330
7471
102
}
330
7471
100
AcDbDictionary
281
     1
  3
STANDARD
350
7480
  0
DICTIONARY
  5
173D4
102
{ACAD_REACTORS
330
7471
102
}
330
7471
100
AcDbDictionary
281
     1
  0
ACDBDICTIONARYWDFLT
  5
173CF
102
{ACAD_REACTORS
330
7471
102
}
330
7471
100
AcDbDictionary
281
     1
  3
Normal
350
173D0
100
AcDbDictionaryWithDefault
340
173D0
  0
DICTIONARY
  5
1FEA4
102
{ACAD_REACTORS
330
7471
102
}
330
7471
100
AcDbDictionary
281
     1
  3
COLORDICT
350
1FEA6
  3
MATERIALDICT
350
1FEA5
  0
DICTIONARY
  5
1F6A9
102
{ACAD_REACTORS
330
7471
102
}
330
7471
100
AcDbDictionary
281
     1
  3
DIMASSOC
350
1F6AA
  3
PROJECTNAME
350
1F6AB
  0
DICTIONARY
  5
E71C
102
{ACAD_REACTORS
330
7471
102
}
330
7471
100
AcDbDictionary
281
     1
  0
DICTIONARY
  5
F3B9
102
{ACAD_REACTORS
330
7471
102
}
330
7471
100
AcDbDictionary
281
     1
1001
DRAWINGVARIABLESXDATA
1000
POLARMODE
1000
1
  0
DICTIONARY
  5
17590
102
{ACAD_REACTORS
330
1758F
102
}
330
1758F
100
AcDbDictionary
281
     1
  0
XRECORD
  5
1FEAC
102
{ACAD_REACTORS
330
1FEAB
102
}
330
1FEAB
100
AcDbXrecord
280
     1
102
SHADEPLOT
 70
     0
  0
XRECORD
  5
1FEAE
102
{ACAD_REACTORS
330
1FEAD
102
}
330
1FEAD
100
AcDbXrecord
280
     1
102
SHADEPLOT
 70
     0
  0
GROUP
  5
1D2A9
102
{ACAD_REACTORS
330
7472
102
}
330
7472
100
AcDbGroup
300

 70
     1
 71
     1
  0
LAYOUT
  5
173D5
102
{ACAD_XDICTIONARY
360
1FEA7
102
}
102
{ACAD_REACTORS
330
173D3
102
}
330
173D3
100
AcDbPlotSettings
  1

  2
クセロPDF
  4
A3
  6

 40
3.174999999999999
 41
3.174999999999999
 42
3.174987999999999
 43
3.174987999999999
 44
419.946655
 45
296.925995
 46
0.0
 47
0.0
 48
0.0
 49
0.0
140
0.0
141
0.0
142
1.0
143
40.88431155294937
 70
 11952
 72
     1
 73
     0
 74
     2
  7
inaba.ctb
 75
     0
147
0.0244592598484849
148
0.0
149
0.0
100
AcDbLayout
  1
Model
 70
     1
 71
     0
 10
0.0
 20
0.0
 11
12.0
 21
9.0
 12
0.0
 22
0.0
 32
0.0
 14
0.0
 24
0.0
 34
0.0
 15
0.0
 25
0.0
 35
0.0
146
0.0
 13
0.0
 23
0.0
 33
0.0
 16
1.0
 26
0.0
 36
0.0
 17
0.0
 27
1.0
 37
0.0
 76
     0
330
747D
  0
LAYOUT
  5
173D6
102
{ACAD_XDICTIONARY
360
1FEA9
102
}
102
{ACAD_REACTORS
330
173D3
102
}
330
173D3
100
AcDbPlotSettings
  1

  2
none_device
  4
Letter_(8.50_x_11.00_Inches)
  6

 40
6.349999904632568
 41
6.349999904632568
 42
6.350006103515625
 43
6.350006103515625
 44
215.8999938964844
 45
279.3999938964844
 46
0.0
 47
0.0
 48
0.0
 49
0.0
140
0.0
141
0.0
142
1.0
143
1.0
 70
   688
 72
     1
 73
     1
 74
     5
  7

 75
    16
147
1.0
148
0.0
149
0.0
100
AcDbLayout
  1
レイアウト1
 70
     0
 71
     1
 10
-6.350006103515625
 20
-6.349999904632568
 11
273.0499877929688
 21
209.5499939918518
 12
0.0
 22
0.0
 32
0.0
 14
26.66999878883363
 24
20.31999878883363
 34
0.0
 15
240.0299890995026
 25
182.8799890995025
 35
0.0
146
0.0
 13
0.0
 23
0.0
 33
0.0
 16
1.0
 26
0.0
 36
0.0
 17
0.0
 27
1.0
 37
0.0
 76
     0
330
747A
331
1FABA
  0
MLINESTYLE
  5
7480
102
{ACAD_REACTORS
330
7473
102
}
330
7473
100
AcDbMlineStyle
  2
STANDARD
 70
     0
  3

 62
     0
 51
90.0
 52
90.0
 71
     2
 49
0.5
 62
   256
  6
BYLAYER
 49
-0.5
 62
   256
  6
BYLAYER
  0
ACDBPLACEHOLDER
  5
173D0
102
{ACAD_REACTORS
330
173CF
102
}
330
173CF
  0
XRECORD
  5
1FEA6
102
{ACAD_REACTORS
330
1FEA4
102
}
330
1FEA4
100
AcDbXrecord
280
     1
340
173D2
  0
XRECORD
  5
1FEA5
102
{ACAD_REACTORS
330
1FEA4
102
}
330
1FEA4
100
AcDbXrecord
280
     1
340
173D1
  0
DICTIONARYVAR
  5
1F6AA
102
{ACAD_REACTORS
330
1F6A9
102
}
330
1F6A9
100
DictionaryVariables
280
     0
  1
1
  0
DICTIONARYVAR
  5
1F6AB
102
{ACAD_REACTORS
330
1F6A9
102
}
330
1F6A9
100
DictionaryVariables
280
     0
  1

  0
DICTIONARY
  5
1FEA7
330
173D5
100
AcDbDictionary
280
     1
281
     1
  3
ACAD_XREC_ROUNDTRIP
360
1FEA8
  0
DICTIONARY
  5
1FEA9
330
173D6
100
AcDbDictionary
280
     1
281
     1
  3
ACAD_XREC_ROUNDTRIP
360
1FEAA
  0
XRECORD
  5
1FEA8
102
{ACAD_REACTORS
330
1FEA7
102
}
330
1FEA7
100
AcDbXrecord
280
     1
102
SHADEPLOT
 70
     1
102
SHADEPLOTRESLEVEL
 70
     2
102
SHADEPLOTCUSTOMDPI
 70
   300
  0
XRECORD
  5
1FEAA
102
{ACAD_REACTORS
330
1FEA9
102
}
330
1FEA9
100
AcDbXrecord
280
     1
102
SHADEPLOT
 70
     0
102
SHADEPLOTRESLEVEL
 70
     2
102
SHADEPLOTCUSTOMDPI
 70
   300
  0
ENDSEC
  0
EOF
