  0
SECTION
  2
HEADER
  9
$ACADVER
  1
AC1015
  9
$ACADMAINTVER
 70
    20
  9
$DWGCODEPAGE
  3
ANSI_932
  9
$INSBASE
 10
0.0
 20
0.0
 30
0.0
  9
$EXTMIN
 10
139.9999999999995
 20
-0.0000000000000909
 30
0.0
  9
$EXTMAX
 10
16307.2
 20
11409.6
 30
0.0
  9
$LIMMIN
 10
0.0
 20
0.0
  9
$LIMMAX
 10
16800.0
 20
11880.0
  9
$ORTHOMODE
 70
     1
  9
$REGENMODE
 70
     1
  9
$FILLMODE
 70
     1
  9
$QTEXTMODE
 70
     0
  9
$MIRRTEXT
 70
     1
  9
$LTSCALE
 40
20.0
  9
$ATTMODE
 70
     1
  9
$TEXTSIZE
 40
100.0
  9
$TRACEWID
 40
1.0
  9
$TEXTSTYLE
  7
STYLE2
  9
$CLAYER
  8
寸法
  9
$CELTYPE
  6
BYLAYER
  9
$CECOLOR
 62
   256
  9
$CELTSCALE
 40
50.0
  9
$DISPSILH
 70
     0
  9
$DIMSCALE
 40
40.0
  9
$DIMASZ
 40
2.5
  9
$DIMEXO
 40
0.5
  9
$DIMDLI
 40
7.0
  9
$DIMRND
 40
0.0
  9
$DIMDLE
 40
0.0
  9
$DIMEXE
 40
1.5
  9
$DIMTP
 40
0.0
  9
$DIMTM
 40
0.0
  9
$DIMTXT
 40
3.0
  9
$DIMCEN
 40
0.0
  9
$DIMTSZ
 40
0.0
  9
$DIMTOL
 70
     0
  9
$DIMLIM
 70
     0
  9
$DIMTIH
 70
     0
  9
$DIMTOH
 70
     0
  9
$DIMSE1
 70
     0
  9
$DIMSE2
 70
     0
  9
$DIMTAD
 70
     3
  9
$DIMZIN
 70
     8
  9
$DIMBLK
  1

  9
$DIMASO
 70
     1
  9
$DIMSHO
 70
     1
  9
$DIMPOST
  1

  9
$DIMAPOST
  1

  9
$DIMALT
 70
     0
  9
$DIMALTD
 70
     2
  9
$DIMALTF
 40
0.0394
  9
$DIMLFAC
 40
1.0
  9
$DIMTOFL
 70
     1
  9
$DIMTVP
 40
0.0
  9
$DIMTIX
 70
     1
  9
$DIMSOXD
 70
     0
  9
$DIMSAH
 70
     1
  9
$DIMBLK1
  1
DOTSMALL
  9
$DIMBLK2
  1
DOTSMALL
  9
$DIMSTYLE
  2
INABA_S40G
  9
$DIMCLRD
 70
     0
  9
$DIMCLRE
 70
     0
  9
$DIMCLRT
 70
     7
  9
$DIMTFAC
 40
1.0
  9
$DIMGAP
 40
1.0
  9
$DIMJUST
 70
     0
  9
$DIMSD1
 70
     0
  9
$DIMSD2
 70
     0
  9
$DIMTOLJ
 70
     1
  9
$DIMTZIN
 70
     0
  9
$DIMALTZ
 70
     0
  9
$DIMALTTZ
 70
     0
  9
$DIMUPT
 70
     0
  9
$DIMDEC
 70
     1
  9
$DIMTDEC
 70
     4
  9
$DIMALTU
 70
     2
  9
$DIMALTTD
 70
     2
  9
$DIMTXSTY
  7
STYLE1
  9
$DIMAUNIT
 70
     0
  9
$DIMADEC
 70
     0
  9
$DIMALTRND
 40
0.0
  9
$DIMAZIN
 70
     0
  9
$DIMDSEP
 70
    46
  9
$DIMATFIT
 70
     3
  9
$DIMFRAC
 70
     0
  9
$DIMLDRBLK
  1

  9
$DIMLUNIT
 70
     2
  9
$DIMLWD
 70
    -2
  9
$DIMLWE
 70
    -2
  9
$DIMTMOVE
 70
     0
  9
$LUNITS
 70
     2
  9
$LUPREC
 70
     1
  9
$SKETCHINC
 40
1.0
  9
$FILLETRAD
 40
3.0
  9
$AUNITS
 70
     0
  9
$AUPREC
 70
     0
  9
$MENU
  1
acad
  9
$ELEVATION
 40
0.0
  9
$PELEVATION
 40
0.0
  9
$THICKNESS
 40
0.0
  9
$LIMCHECK
 70
     0
  9
$CHAMFERA
 40
0.0
  9
$CHAMFERB
 40
0.0
  9
$CHAMFERC
 40
0.0
  9
$CHAMFERD
 40
0.0
  9
$SKPOLY
 70
     0
  9
$TDCREATE
 40
2451368.612993866
  9
$TDUCREATE
 40
2451368.237993866
  9
$TDUPDATE
 40
2455574.742705440
  9
$TDUUPDATE
 40
2455574.367705440
  9
$TDINDWG
 40
0.6955652199
  9
$TDUSRTIMER
 40
0.6955652199
  9
$USRTIMER
 70
     1
  9
$ANGBASE
 50
0.0
  9
$ANGDIR
 70
     0
  9
$PDMODE
 70
     3
  9
$PDSIZE
 40
2.0
  9
$PLINEWID
 40
0.0
  9
$SPLFRAME
 70
     0
  9
$SPLINETYPE
 70
     6
  9
$SPLINESEGS
 70
     8
  9
$HANDSEED
  5
2048E
  9
$SURFTAB1
 70
     6
  9
$SURFTAB2
 70
     6
  9
$SURFTYPE
 70
     6
  9
$SURFU
 70
     6
  9
$SURFV
 70
     6
  9
$UCSBASE
  2

  9
$UCSNAME
  2

  9
$UCSORG
 10
0.0
 20
0.0
 30
0.0
  9
$UCSXDIR
 10
1.0
 20
0.0
 30
0.0
  9
$UCSYDIR
 10
0.0
 20
1.0
 30
0.0
  9
$UCSORTHOREF
  2

  9
$UCSORTHOVIEW
 70
     0
  9
$UCSORGTOP
 10
0.0
 20
0.0
 30
0.0
  9
$UCSORGBOTTOM
 10
0.0
 20
0.0
 30
0.0
  9
$UCSORGLEFT
 10
0.0
 20
0.0
 30
0.0
  9
$UCSORGRIGHT
 10
0.0
 20
0.0
 30
0.0
  9
$UCSORGFRONT
 10
0.0
 20
0.0
 30
0.0
  9
$UCSORGBACK
 10
0.0
 20
0.0
 30
0.0
  9
$PUCSBASE
  2

  9
$PUCSNAME
  2

  9
$PUCSORG
 10
0.0
 20
0.0
 30
0.0
  9
$PUCSXDIR
 10
1.0
 20
0.0
 30
0.0
  9
$PUCSYDIR
 10
0.0
 20
1.0
 30
0.0
  9
$PUCSORTHOREF
  2

  9
$PUCSORTHOVIEW
 70
     0
  9
$PUCSORGTOP
 10
0.0
 20
0.0
 30
0.0
  9
$PUCSORGBOTTOM
 10
0.0
 20
0.0
 30
0.0
  9
$PUCSORGLEFT
 10
0.0
 20
0.0
 30
0.0
  9
$PUCSORGRIGHT
 10
0.0
 20
0.0
 30
0.0
  9
$PUCSORGFRONT
 10
0.0
 20
0.0
 30
0.0
  9
$PUCSORGBACK
 10
0.0
 20
0.0
 30
0.0
  9
$USERI1
 70
     0
  9
$USERI2
 70
     0
  9
$USERI3
 70
     0
  9
$USERI4
 70
     0
  9
$USERI5
 70
     0
  9
$USERR1
 40
0.0
  9
$USERR2
 40
0.0
  9
$USERR3
 40
0.0
  9
$USERR4
 40
0.0
  9
$USERR5
 40
0.0
  9
$WORLDVIEW
 70
     1
  9
$SHADEDGE
 70
     3
  9
$SHADEDIF
 70
    70
  9
$TILEMODE
 70
     1
  9
$MAXACTVP
 70
    16
  9
$PINSBASE
 10
0.0
 20
0.0
 30
0.0
  9
$PLIMCHECK
 70
     0
  9
$PEXTMIN
 10
1.000000000000000E+20
 20
1.000000000000000E+20
 30
1.000000000000000E+20
  9
$PEXTMAX
 10
-1.000000000000000E+20
 20
-1.000000000000000E+20
 30
-1.000000000000000E+20
  9
$PLIMMIN
 10
0.0
 20
0.0
  9
$PLIMMAX
 10
420.0
 20
297.0
  9
$UNITMODE
 70
     0
  9
$VISRETAIN
 70
     0
  9
$PLINEGEN
 70
     0
  9
$PSLTSCALE
 70
     0
  9
$TREEDEPTH
 70
  3020
  9
$CMLSTYLE
  2
STANDARD
  9
$CMLJUST
 70
     0
  9
$CMLSCALE
 40
1.0
  9
$PROXYGRAPHICS
 70
     1
  9
$MEASUREMENT
 70
     1
  9
$CELWEIGHT
370
    -1
  9
$ENDCAPS
280
     0
  9
$JOINSTYLE
280
     0
  9
$LWDISPLAY
290
     0
  9
$INSUNITS
 70
     0
  9
$HYPERLINKBASE
  1

  9
$STYLESHEET
  1

  9
$XEDIT
290
     1
  9
$CEPSNTYPE
380
     0
  9
$PSTYLEMODE
290
     1
  9
$FINGERPRINTGUID
  2
{5EAC461A-2277-4BF8-9AB0-99C43BB394F0}
  9
$VERSIONGUID
  2
{E912383B-85D8-433D-ABEC-C513DB5E75FE}
  9
$EXTNAMES
290
     1
  9
$PSVPSCALE
 40
0.0
  9
$OLESTARTUP
290
     0
  0
ENDSEC
  0
SECTION
  2
CLASSES
  0
CLASS
  1
ACDBDICTIONARYWDFLT
  2
AcDbDictionaryWithDefault
  3
ObjectDBX Classes
 90
        0
280
     0
281
     0
  0
CLASS
  1
DICTIONARYVAR
  2
AcDbDictionaryVar
  3
ObjectDBX Classes
 90
        0
280
     0
281
     0
  0
CLASS
  1
ACDBPLACEHOLDER
  2
AcDbPlaceHolder
  3
ObjectDBX Classes
 90
        0
280
     0
281
     0
  0
CLASS
  1
LAYOUT
  2
AcDbLayout
  3
ObjectDBX Classes
 90
        0
280
     0
281
     0
  0
ENDSEC
  0
SECTION
  2
TABLES
  0
TABLE
  2
VPORT
  5
746D
330
0
100
AcDbSymbolTable
 70
     2
  0
VPORT
  5
20486
330
746D
100
AcDbSymbolTableRecord
100
AcDbViewportTableRecord
  2
*Active
 70
     0
 10
0.0
 20
0.0
 11
1.0
 21
1.0
 12
8561.081195484659
 22
5704.608037261908
 13
0.0
 23
0.0
 14
10.0
 24
10.0
 15
10.0
 25
10.0
 16
0.0
 26
0.0
 36
1.0
 17
0.0
 27
0.0
 37
0.0
 40
11495.08541324274
 41
1.584615384615384
 42
50.0
 43
0.0
 44
0.0
 50
0.0
 51
0.0
 71
     0
 72
     0
 73
     1
 74
     0
 75
     0
 76
     0
 77
     0
 78
     0
281
     0
 65
     1
110
0.0
120
0.0
130
0.0
111
1.0
121
0.0
131
0.0
112
0.0
122
1.0
132
0.0
 79
     0
146
0.0
  0
ENDTAB
  0
TABLE
  2
LTYPE
  5
746A
330
0
100
AcDbSymbolTable
 70
     5
  0
LTYPE
  5
7477
330
746A
100
AcDbSymbolTableRecord
100
AcDbLinetypeTableRecord
  2
BYBLOCK
 70
     0
  3

 72
    65
 73
     0
 40
0.0
  0
LTYPE
  5
7478
330
746A
100
AcDbSymbolTableRecord
100
AcDbLinetypeTableRecord
  2
BYLAYER
 70
     0
  3

 72
    65
 73
     0
 40
0.0
  0
LTYPE
  5
7479
330
746A
100
AcDbSymbolTableRecord
100
AcDbLinetypeTableRecord
  2
CONTINUOUS
 70
     0
  3
Solid line
 72
    65
 73
     0
 40
0.0
  0
LTYPE
  5
7816
330
746A
100
AcDbSymbolTableRecord
100
AcDbLinetypeTableRecord
  2
CENTER
 70
     0
  3
____ _ ____ _ ____ _ ____ _ ____ _ ____ _ ____ 
 72
    65
 73
     4
 40
2.0
 49
1.25
 74
     0
 49
-0.25
 74
     0
 49
0.25
 74
     0
 49
-0.25
 74
     0
  0
LTYPE
  5
781A
330
746A
100
AcDbSymbolTableRecord
100
AcDbLinetypeTableRecord
  2
HIDDEN
 70
     0
  3
__ __ __ __ __ __ __ __ __ __ __ __ __ __ __ __
 72
    65
 73
     2
 40
0.375
 49
0.25
 74
     0
 49
-0.125
 74
     0
  0
LTYPE
  5
781B
330
746A
100
AcDbSymbolTableRecord
100
AcDbLinetypeTableRecord
  2
PHANTOM
 70
     0
  3
______  __  __  ______  __  __  ______  __  __ 
 72
    65
 73
     6
 40
2.5
 49
1.25
 74
     0
 49
-0.25
 74
     0
 49
0.25
 74
     0
 49
-0.25
 74
     0
 49
0.25
 74
     0
 49
-0.25
 74
     0
  0
LTYPE
  5
12CC3
330
746A
100
AcDbSymbolTableRecord
100
AcDbLinetypeTableRecord
  2
HIDDENX2
 70
     0
  3
Hidden (2x) ____ ____ ____ ____ ____ ____ ____
 72
    65
 73
     2
 40
19.05
 49
12.7
 74
     0
 49
-6.349999999999999
 74
     0
  0
ENDTAB
  0
TABLE
  2
LAYER
  5
7467
102
{ACAD_XDICTIONARY
360
1758F
102
}
330
0
100
AcDbSymbolTable
 70
    13
  0
LAYER
  5
7474
330
7467
100
AcDbSymbolTableRecord
100
AcDbLayerTableRecord
  2
0
 70
     0
 62
     7
  6
CONTINUOUS
370
    -3
390
173D0
  0
LAYER
  5
DEB2
330
7467
100
AcDbSymbolTableRecord
100
AcDbLayerTableRecord
  2
センター
 70
     0
 62
     3
  6
CENTER
370
    -3
390
173D0
  0
LAYER
  5
DEB3
330
7467
100
AcDbSymbolTableRecord
100
AcDbLayerTableRecord
  2
寸法
 70
     0
 62
     4
  6
CONTINUOUS
370
    -3
390
173D0
  0
LAYER
  5
DEB4
330
7467
100
AcDbSymbolTableRecord
100
AcDbLayerTableRecord
  2
部品1
 70
     0
 62
     7
  6
CONTINUOUS
370
    -3
390
173D0
  0
LAYER
  5
DEB5
330
7467
100
AcDbSymbolTableRecord
100
AcDbLayerTableRecord
  2
補助
 70
     0
 62
    -1
  6
CONTINUOUS
370
    -3
390
173D0
  0
LAYER
  5
DEB6
330
7467
100
AcDbSymbolTableRecord
100
AcDbLayerTableRecord
  2
文字
 70
     0
 62
     7
  6
CONTINUOUS
370
    -3
390
173D0
  0
LAYER
  5
F255
330
7467
100
AcDbSymbolTableRecord
100
AcDbLayerTableRecord
  2
DEFPOINTS
 70
     0
 62
     7
  6
CONTINUOUS
290
     0
370
    -3
390
173D0
  0
LAYER
  5
10B54
330
7467
100
AcDbSymbolTableRecord
100
AcDbLayerTableRecord
  2
仕様書枠
 70
     0
 62
   230
  6
CONTINUOUS
370
    -3
390
173D0
  0
LAYER
  5
11729
330
7467
100
AcDbSymbolTableRecord
100
AcDbLayerTableRecord
  2
Ｇ．Ｌ
 70
     0
 62
    30
  6
CONTINUOUS
370
    -3
390
173D0
  0
LAYER
  5
1173F
330
7467
100
AcDbSymbolTableRecord
100
AcDbLayerTableRecord
  2
細線
 70
     0
 62
     5
  6
CONTINUOUS
370
    -3
390
173D0
  0
LAYER
  5
12CC4
330
7467
100
AcDbSymbolTableRecord
100
AcDbLayerTableRecord
  2
想像線
 70
     0
 62
     6
  6
PHANTOM
370
    -3
390
173D0
  0
LAYER
  5
142E2
330
7467
100
AcDbSymbolTableRecord
100
AcDbLayerTableRecord
  2
破線
 70
     0
 62
     2
  6
HIDDEN
370
    -3
390
173D0
  0
LAYER
  5
1F1F6
330
7467
100
AcDbSymbolTableRecord
100
AcDbLayerTableRecord
  2
点線
 70
     0
 62
     2
  6
HIDDEN
370
    -3
390
173D0
  0
ENDTAB
  0
TABLE
  2
STYLE
  5
7468
330
0
100
AcDbSymbolTable
 70
     6
  0
STYLE
  5
7475
330
7468
100
AcDbSymbolTableRecord
100
AcDbTextStyleTableRecord
  2
STANDARD
 70
     0
 40
0.0
 41
1.0
 50
0.0
 71
     0
 42
4.0
  3
txt
  4
C:\AutoCAD LT\bigfont.shx
  0
STYLE
  5
763C
330
7468
100
AcDbSymbolTableRecord
100
AcDbTextStyleTableRecord
  2
MSMINCHO
 70
     0
 40
0.0
 41
1.0
 50
0.0
 71
     0
 42
1.199999999999999
  3
C:\AutoCAD LT\msminch2.TTF
  4

  0
STYLE
  5
F706
330
7468
100
AcDbSymbolTableRecord
100
AcDbTextStyleTableRecord
  2
STYLE1
 70
     0
 40
0.0
 41
1.0
 50
0.0
 71
     0
 42
4.0
  3
isocp.shx
  4
bigfont.shx
  0
STYLE
  5
103BF
330
7468
100
AcDbSymbolTableRecord
100
AcDbTextStyleTableRecord
  2
STYLE2
 70
     0
 40
0.0
 41
1.0
 50
0.0
 71
     0
 42
100.0
  3
MS PGothic.ttf
  4

1001
ACAD
1000
MS PGothic
1071
    32818
  0
STYLE
  5
11A15
330
7468
100
AcDbSymbolTableRecord
100
AcDbTextStyleTableRecord
  2
MSGOTHIC
 70
     0
 40
0.0
 41
1.0
 50
0.0
 71
     0
 42
3.5
  3
msgothi2.ttf
  4

  0
STYLE
  5
13E96
330
7468
100
AcDbSymbolTableRecord
100
AcDbTextStyleTableRecord
  2
MSPゴシック
 70
     0
 40
0.0
 41
1.0
 50
0.0
 71
     0
 42
4.0
  3
MS PGothic.ttf
  4

1001
ACAD
1000
MS PGothic
1071
    32818
  0
ENDTAB
  0
TABLE
  2
VIEW
  5
746B
330
0
100
AcDbSymbolTable
 70
     0
  0
ENDTAB
  0
TABLE
  2
UCS
  5
746C
330
0
100
AcDbSymbolTable
 70
     0
  0
ENDTAB
  0
TABLE
  2
APPID
  5
746E
330
0
100
AcDbSymbolTable
 70
     6
  0
APPID
  5
7476
330
746E
100
AcDbSymbolTableRecord
100
AcDbRegAppTableRecord
  2
ACAD
 70
     0
  0
APPID
  5
DEA9
330
746E
100
AcDbSymbolTableRecord
100
AcDbRegAppTableRecord
  2
CONTENTBLOCKICON
 70
     0
  0
APPID
  5
DEAA
330
746E
100
AcDbSymbolTableRecord
100
AcDbRegAppTableRecord
  2
CONTENTBLOCKDESCRIPTION
 70
     0
  0
APPID
  5
E71D
330
746E
100
AcDbSymbolTableRecord
100
AcDbRegAppTableRecord
  2
CONTENTTABDATA
 70
     0
  0
APPID
  5
E71E
330
746E
100
AcDbSymbolTableRecord
100
AcDbRegAppTableRecord
  2
CONTENTCURRENTTAB
 70
     0
  0
APPID
  5
F3BA
330
746E
100
AcDbSymbolTableRecord
100
AcDbRegAppTableRecord
  2
DRAWINGVARIABLESXDATA
 70
     0
  0
ENDTAB
  0
TABLE
  2
DIMSTYLE
  5
746F
330
0
100
AcDbSymbolTable
 70
     6
100
AcDbDimStyleTable
 71
     1
340
F71F
  0
DIMSTYLE
105
7484
330
746F
100
AcDbSymbolTableRecord
100
AcDbDimStyleTableRecord
  2
JIS
 70
     0
 41
2.5
 42
1.0
 43
7.0
 44
1.0
 73
     0
 74
     0
 77
     1
 78
     8
140
2.5
141
0.0
143
0.0394
147
0.0
172
     1
174
     1
175
     1
340
7475
  0
DIMSTYLE
105
F236
330
746F
100
AcDbSymbolTableRecord
100
AcDbDimStyleTableRecord
  2
INABA_S40
 70
     0
 40
40.0
 41
2.5
 42
0.5
 43
7.0
 44
1.5
 73
     0
 74
     0
 77
     3
 78
     8
140
3.0
141
0.0
143
0.0394
147
1.0
172
     1
173
     1
174
     1
175
     1
178
     7
289
     0
340
7475
341
DEAC
343
DEAC
344
DEAC
  0
DIMSTYLE
105
F71F
102
{ACAD_REACTORS
330
1F51E
330
1F668
330
1F5F4
330
1F4DA
330
1F4CA
330
1F4BF
330
1F4BC
330
1F472
330
1F44B
330
1F44A
330
1F471
330
1F45B
330
1F45A
330
1F459
330
1F458
330
1F457
330
1F47F
330
1F484
330
1F485
102
}
330
746F
100
AcDbSymbolTableRecord
100
AcDbDimStyleTableRecord
  2
INABA_S40G
 70
     0
 40
40.0
 41
2.5
 42
0.5
 43
7.0
 44
1.5
 73
     0
 74
     0
 77
     3
 78
     8
140
3.0
141
0.0
143
0.0394
147
1.0
172
     1
173
     1
174
     1
178
     7
271
     1
340
F706
341
F770
343
F770
344
F770
  0
DIMSTYLE
105
142E3
330
746F
100
AcDbSymbolTableRecord
100
AcDbDimStyleTableRecord
  2
INABA_S1
 70
     0
 40
0.0
 41
2.5
 42
0.5
 43
7.0
 44
1.5
 73
     0
 74
     0
 77
     3
 78
     8
140
3.0
141
0.0
143
0.0394
146
0.5
147
0.5
172
     1
173
     1
176
   256
177
   256
178
     7
271
     2
272
     2
284
     8
288
     1
340
7475
341
DEAC
343
DEAC
344
DEAC
  0
DIMSTYLE
105
14463
330
746F
100
AcDbSymbolTableRecord
100
AcDbDimStyleTableRecord
  2
INABA_S30G
 70
     0
 40
30.0
 41
2.5
 42
0.5
 43
7.0
 44
1.5
 73
     0
 74
     0
 77
     3
 78
     8
140
3.0
141
0.0
143
0.0394
147
1.0
172
     1
173
     1
174
     1
175
     1
178
     7
271
     1
340
F706
341
F770
343
F770
344
F770
  0
DIMSTYLE
105
1758E
102
{ACAD_REACTORS
330
1FC8F
330
1FC94
102
}
330
746F
100
AcDbSymbolTableRecord
100
AcDbDimStyleTableRecord
  2
INABA_S50G
 70
     0
 41
125.0
 42
25.0
 43
7.0
 44
75.0
 73
     0
 74
     0
 77
     3
 78
     8
140
150.0
141
0.0
143
0.0394
147
25.0
172
     1
173
     1
174
     1
175
     1
178
     7
271
     1
340
F706
341
F770
343
F770
344
F770
  0
ENDTAB
  0
TABLE
  2
BLOCK_RECORD
  5
7466
330
0
100
AcDbSymbolTable
 70
    39
  0
BLOCK_RECORD
  5
747D
330
7466
100
AcDbSymbolTableRecord
100
AcDbBlockTableRecord
  2
*MODEL_SPACE
340
173D5
  0
BLOCK_RECORD
  5
747A
330
7466
100
AcDbSymbolTableRecord
100
AcDbBlockTableRecord
  2
*PAPER_SPACE
340
173D6
  0
BLOCK_RECORD
  5
DEAC
330
7466
100
AcDbSymbolTableRecord
100
AcDbBlockTableRecord
  2
_OPEN
340
0
  0
BLOCK_RECORD
  5
F770
330
7466
100
AcDbSymbolTableRecord
100
AcDbBlockTableRecord
  2
_DOTSMALL
340
0
102
{BLKREFS
331
18C65
331
18C66
331
18C59
331
18C5A
331
18C4D
331
18C4E
331
18C41
331
18C42
331
18C35
331
18C36
331
18C29
331
18C2A
331
18C1D
331
18C1E
331
18C0F
331
18C10
331
18C03
331
18C04
331
18BF5
331
18BF6
331
18BE7
331
18BE8
331
18BD9
331
18BDA
331
18BCD
331
18BCE
331
1FFCA
331
1FFCB
331
1FFD3
331
1FFD4
331
1FFDC
331
1FFDD
331
1FFE5
331
1FFE6
331
203C5
331
203C6
331
203CE
331
203CF
331
203D9
331
203DA
331
203E3
331
203E4
331
203EC
331
203ED
331
203F4
331
203F5
331
203FE
331
203FF
331
20409
331
2040A
331
20412
331
20413
331
2041B
331
2041C
331
20426
331
20427
331
2042F
331
20430
331
20438
331
20439
331
20441
331
20442
331
2044A
331
2044B
102
}
  0
BLOCK_RECORD
  5
164B4
330
7466
100
AcDbSymbolTableRecord
100
AcDbBlockTableRecord
  2
_DOT
340
0
102
{BLKREFS
331
18C73
331
18C74
102
}
  0
BLOCK_RECORD
  5
18BC8
330
7466
100
AcDbSymbolTableRecord
100
AcDbBlockTableRecord
  2
*D3
340
0
  0
BLOCK_RECORD
  5
18BD4
330
7466
100
AcDbSymbolTableRecord
100
AcDbBlockTableRecord
  2
*D4
340
0
  0
BLOCK_RECORD
  5
18BE0
330
7466
100
AcDbSymbolTableRecord
100
AcDbBlockTableRecord
  2
*D5
340
0
  0
BLOCK_RECORD
  5
18BEE
330
7466
100
AcDbSymbolTableRecord
100
AcDbBlockTableRecord
  2
*D6
340
0
  0
BLOCK_RECORD
  5
18BFC
330
7466
100
AcDbSymbolTableRecord
100
AcDbBlockTableRecord
  2
*D7
340
0
  0
BLOCK_RECORD
  5
18C0A
330
7466
100
AcDbSymbolTableRecord
100
AcDbBlockTableRecord
  2
*D8
340
0
  0
BLOCK_RECORD
  5
18C16
330
7466
100
AcDbSymbolTableRecord
100
AcDbBlockTableRecord
  2
*D9
340
0
  0
BLOCK_RECORD
  5
18C24
330
7466
100
AcDbSymbolTableRecord
100
AcDbBlockTableRecord
  2
*D10
340
0
  0
BLOCK_RECORD
  5
18C30
330
7466
100
AcDbSymbolTableRecord
100
AcDbBlockTableRecord
  2
*D11
340
0
  0
BLOCK_RECORD
  5
18C3C
330
7466
100
AcDbSymbolTableRecord
100
AcDbBlockTableRecord
  2
*D12
340
0
  0
BLOCK_RECORD
  5
18C48
330
7466
100
AcDbSymbolTableRecord
100
AcDbBlockTableRecord
  2
*D13
340
0
  0
BLOCK_RECORD
  5
18C54
330
7466
100
AcDbSymbolTableRecord
100
AcDbBlockTableRecord
  2
*D14
340
0
  0
BLOCK_RECORD
  5
18C60
330
7466
100
AcDbSymbolTableRecord
100
AcDbBlockTableRecord
  2
*D15
340
0
  0
BLOCK_RECORD
  5
18C6C
330
7466
100
AcDbSymbolTableRecord
100
AcDbBlockTableRecord
  2
*D16
340
0
  0
BLOCK_RECORD
  5
18C7A
330
7466
100
AcDbSymbolTableRecord
100
AcDbBlockTableRecord
  2
A$C3B1A506B
340
0
  0
BLOCK_RECORD
  5
1C4CA
330
7466
100
AcDbSymbolTableRecord
100
AcDbBlockTableRecord
  2
_NONE
340
0
  0
BLOCK_RECORD
  5
1F695
330
7466
100
AcDbSymbolTableRecord
100
AcDbBlockTableRecord
  2
*D19
340
0
  0
BLOCK_RECORD
  5
1F6A1
330
7466
100
AcDbSymbolTableRecord
100
AcDbBlockTableRecord
  2
*D20
340
0
  0
BLOCK_RECORD
  5
1F6AD
330
7466
100
AcDbSymbolTableRecord
100
AcDbBlockTableRecord
  2
*D21
340
0
  0
BLOCK_RECORD
  5
1F6B9
330
7466
100
AcDbSymbolTableRecord
100
AcDbBlockTableRecord
  2
*D22
340
0
  0
BLOCK_RECORD
  5
1F6C4
330
7466
100
AcDbSymbolTableRecord
100
AcDbBlockTableRecord
  2
*D23
340
0
  0
BLOCK_RECORD
  5
1F6CE
330
7466
100
AcDbSymbolTableRecord
100
AcDbBlockTableRecord
  2
*D24
340
0
  0
BLOCK_RECORD
  5
1F6DA
330
7466
100
AcDbSymbolTableRecord
100
AcDbBlockTableRecord
  2
*D25
340
0
  0
BLOCK_RECORD
  5
1F6E5
330
7466
100
AcDbSymbolTableRecord
100
AcDbBlockTableRecord
  2
*D26
340
0
  0
BLOCK_RECORD
  5
1F6EF
330
7466
100
AcDbSymbolTableRecord
100
AcDbBlockTableRecord
  2
*D27
340
0
  0
BLOCK_RECORD
  5
1F6FA
330
7466
100
AcDbSymbolTableRecord
100
AcDbBlockTableRecord
  2
*D28
340
0
  0
BLOCK_RECORD
  5
1F705
330
7466
100
AcDbSymbolTableRecord
100
AcDbBlockTableRecord
  2
*D29
340
0
  0
BLOCK_RECORD
  5
1F70F
330
7466
100
AcDbSymbolTableRecord
100
AcDbBlockTableRecord
  2
*D30
340
0
  0
BLOCK_RECORD
  5
1F71C
330
7466
100
AcDbSymbolTableRecord
100
AcDbBlockTableRecord
  2
*D31
340
0
  0
BLOCK_RECORD
  5
1F728
330
7466
100
AcDbSymbolTableRecord
100
AcDbBlockTableRecord
  2
*D32
340
0
  0
BLOCK_RECORD
  5
1F734
330
7466
100
AcDbSymbolTableRecord
100
AcDbBlockTableRecord
  2
*D33
340
0
  0
BLOCK_RECORD
  5
1F741
330
7466
100
AcDbSymbolTableRecord
100
AcDbBlockTableRecord
  2
*D34
340
0
  0
BLOCK_RECORD
  5
1F74E
330
7466
100
AcDbSymbolTableRecord
100
AcDbBlockTableRecord
  2
*D35
340
0
  0
BLOCK_RECORD
  5
1F75A
330
7466
100
AcDbSymbolTableRecord
100
AcDbBlockTableRecord
  2
*D36
340
0
  0
BLOCK_RECORD
  5
1F767
330
7466
100
AcDbSymbolTableRecord
100
AcDbBlockTableRecord
  2
*D37
340
0
  0
BLOCK_RECORD
  5
2029E
330
7466
100
AcDbSymbolTableRecord
100
AcDbBlockTableRecord
  2
_DatumFilled
340
0
  0
ENDTAB
  0
ENDSEC
  0
SECTION
  2
BLOCKS
  0
BLOCK
  5
7489
330
747D
100
AcDbEntity
  8
0
100
AcDbBlockBegin
  2
*MODEL_SPACE
 70
     0
 10
0.0
 20
0.0
 30
0.0
  3
*MODEL_SPACE
  1

  0
ENDBLK
  5
748A
330
747D
100
AcDbEntity
  8
0
100
AcDbBlockEnd
  0
BLOCK
  5
7487
330
747A
100
AcDbEntity
 67
     1
  8
0
100
AcDbBlockBegin
  2
*PAPER_SPACE
 70
     0
 10
0.0
 20
0.0
 30
0.0
  3
*PAPER_SPACE
  1

  0
ENDBLK
  5
7488
330
747A
100
AcDbEntity
 67
     1
  8
0
100
AcDbBlockEnd
  0
BLOCK
  5
DEAD
330
DEAC
100
AcDbEntity
  8
0
100
AcDbBlockBegin
  2
_OPEN
 70
     0
 10
0.0
 20
0.0
 30
0.0
  3
_OPEN
  1

  0
LINE
  5
DEAE
330
DEAC
100
AcDbEntity
  8
0
  6
ByBlock
 62
     0
100
AcDbLine
 10
-1.0
 20
0.1666666666666666
 30
0.0
 11
0.0
 21
0.0
 31
0.0
  0
LINE
  5
DEAF
330
DEAC
100
AcDbEntity
  8
0
  6
ByBlock
 62
     0
100
AcDbLine
 10
0.0
 20
0.0
 30
0.0
 11
-1.0
 21
-0.1666666666666666
 31
0.0
  0
LINE
  5
DEB0
330
DEAC
100
AcDbEntity
  8
0
  6
ByBlock
 62
     0
100
AcDbLine
 10
0.0
 20
0.0
 30
0.0
 11
-1.0
 21
0.0
 31
0.0
  0
ENDBLK
  5
DEB1
330
DEAC
100
AcDbEntity
  8
0
100
AcDbBlockEnd
  0
BLOCK
  5
F771
330
F770
100
AcDbEntity
  8
0
 48
50.0
100
AcDbBlockBegin
  2
_DOTSMALL
 70
     0
 10
0.0
 20
0.0
 30
0.0
  3
_DOTSMALL
  1

  0
LWPOLYLINE
  5
F772
330
F770
100
AcDbEntity
  8
0
  6
ByBlock
 62
     0
 48
50.0
100
AcDbPolyline
 90
        2
 70
     1
 43
0.5
 10
-0.0625
 20
0.0
 42
1.0
 10
0.0625
 20
0.0
 42
1.0
  0
ENDBLK
  5
F776
330
F770
100
AcDbEntity
  8
0
 48
50.0
100
AcDbBlockEnd
  0
BLOCK
  5
164BA
330
164B4
100
AcDbEntity
  8
0
 48
50.0
100
AcDbBlockBegin
  2
_DOT
 70
     0
 10
0.0
 20
0.0
 30
0.0
  3
_DOT
  1

  0
LWPOLYLINE
  5
164B5
330
164B4
100
AcDbEntity
  8
0
  6
ByBlock
 62
     0
 48
50.0
100
AcDbPolyline
 90
        2
 70
     1
 43
0.5
 10
-0.25
 20
0.0
 42
1.0
 10
0.25
 20
0.0
 42
1.0
  0
LINE
  5
164B9
330
164B4
100
AcDbEntity
  8
0
  6
ByBlock
 62
     0
 48
50.0
100
AcDbLine
 10
-0.5
 20
0.0
 30
0.0
 11
-1.0
 21
0.0
 31
0.0
  0
ENDBLK
  5
164BB
330
164B4
100
AcDbEntity
  8
0
 48
50.0
100
AcDbBlockEnd
  0
BLOCK
  5
18BC9
330
18BC8
100
AcDbEntity
  8
0
 48
50.0
100
AcDbBlockBegin
  2
*D3
 70
     1
 10
0.0
 20
0.0
 30
0.0
  3
*D3
  1

  0
LINE
  5
18BCA
330
18BC8
100
AcDbEntity
  8
寸法
 62
     0
 48
50.0
370
    -2
100
AcDbLine
 10
7649.896575106999
 20
9636.123139034717
 30
0.0
 11
8702.429862581047
 21
9636.123139034717
 31
0.0
  0
LINE
  5
18BCB
330
18BC8
100
AcDbEntity
  8
寸法
 62
     0
 48
50.0
370
    -2
100
AcDbLine
 10
7649.896575106973
 20
7846.123139034709
 30
0.0
 11
8702.429862581047
 21
7846.123139034709
 31
0.0
  0
LINE
  5
18BCC
330
18BC8
100
AcDbEntity
  8
寸法
 62
     0
 48
50.0
370
    -2
100
AcDbLine
 10
8642.429862581046
 20
9636.123139034717
 30
0.0
 11
8642.429862581046
 21
7846.123139034709
 31
0.0
  0
INSERT
  5
18BCD
330
18BC8
100
AcDbEntity
  8
寸法
 62
     0
 48
50.0
370
    -2
100
AcDbBlockReference
  2
_DOTSMALL
 10
8642.429862581046
 20
9636.123139034717
 30
0.0
 41
100.0
 42
100.0
 43
100.0
 50
90.0
  0
INSERT
  5
18BCE
330
18BC8
100
AcDbEntity
  8
寸法
 62
     0
 48
50.0
370
    -2
100
AcDbBlockReference
  2
_DOTSMALL
 10
8642.429862581046
 20
7846.123139034709
 30
0.0
 41
100.0
 42
100.0
 43
100.0
 50
270.0
  0
MTEXT
  5
18BCF
330
18BC8
100
AcDbEntity
  8
寸法
 62
     7
 48
50.0
100
AcDbMText
 10
8542.429862581045
 20
8741.123139034712
 30
0.0
 40
120.0
 41
0.0
 71
     5
 72
     1
  1
\A1;1790
  7
STYLE1
 11
0.0000000000000001
 21
1.0
 31
0.0
 73
     1
 44
1.0
1001
ACAD
1000
MTEXTBEGIN
1070
    73
1070
     1
1070
    44
1040
1.0
1070
    74
1070
     0
1000
MTEXTEND
  0
POINT
  5
18BD0
330
18BC8
100
AcDbEntity
  8
DEFPOINTS
 62
     0
 48
50.0
100
AcDbPoint
 10
7629.896575106998
 20
9636.123139034717
 30
0.0
  0
POINT
  5
18BD1
330
18BC8
100
AcDbEntity
  8
DEFPOINTS
 62
     0
 48
50.0
100
AcDbPoint
 10
7629.896575106974
 20
7846.123139034709
 30
0.0
  0
POINT
  5
18BD2
330
18BC8
100
AcDbEntity
  8
DEFPOINTS
 62
     0
 48
50.0
100
AcDbPoint
 10
8642.429862581046
 20
7846.123139034709
 30
0.0
  0
ENDBLK
  5
18BD3
330
18BC8
100
AcDbEntity
  8
0
 48
50.0
100
AcDbBlockEnd
  0
BLOCK
  5
18BD5
330
18BD4
100
AcDbEntity
  8
0
 48
50.0
100
AcDbBlockBegin
  2
*D4
 70
     1
 10
0.0
 20
0.0
 30
0.0
  3
*D4
  1

  0
LINE
  5
18BD6
330
18BD4
100
AcDbEntity
  8
寸法
 62
     0
 48
50.0
370
    -2
100
AcDbLine
 10
4214.896575106998
 20
9656.123139034622
 30
0.0
 11
4214.896575106998
 21
10211.93135865972
 31
0.0
  0
LINE
  5
18BD7
330
18BD4
100
AcDbEntity
  8
寸法
 62
     0
 48
50.0
370
    -2
100
AcDbLine
 10
7574.896575106999
 20
9656.123139034718
 30
0.0
 11
7574.896575106999
 21
10211.93135865972
 31
0.0
  0
LINE
  5
18BD8
330
18BD4
100
AcDbEntity
  8
寸法
 62
     0
 48
50.0
370
    -2
100
AcDbLine
 10
4214.896575106998
 20
10151.93135865972
 30
0.0
 11
7574.896575106999
 21
10151.93135865972
 31
0.0
  0
INSERT
  5
18BD9
330
18BD4
100
AcDbEntity
  8
寸法
 62
     0
 48
50.0
370
    -2
100
AcDbBlockReference
  2
_DOTSMALL
 10
4214.896575106998
 20
10151.93135865972
 30
0.0
 41
100.0
 42
100.0
 43
100.0
 50
180.0
  0
INSERT
  5
18BDA
330
18BD4
100
AcDbEntity
  8
寸法
 62
     0
 48
50.0
370
    -2
100
AcDbBlockReference
  2
_DOTSMALL
 10
7574.896575106999
 20
10151.93135865972
 30
0.0
 41
100.0
 42
100.0
 43
100.0
  0
MTEXT
  5
18BDB
330
18BD4
100
AcDbEntity
  8
寸法
 62
     7
 48
50.0
100
AcDbMText
 10
5894.896575106997
 20
10251.94316968334
 30
0.0
 40
120.0
 41
0.0
 71
     5
 72
     1
  1
\A1;8X420=3360
  7
STYLE1
 73
     1
 44
1.0
1001
ACAD
1000
MTEXTBEGIN
1070
    73
1070
     1
1070
    44
1040
1.0
1070
    74
1070
     0
1000
MTEXTEND
  0
POINT
  5
18BDC
330
18BD4
100
AcDbEntity
  8
DEFPOINTS
 62
     0
 48
50.0
100
AcDbPoint
 10
4214.896575106998
 20
9636.123139034623
 30
0.0
  0
POINT
  5
18BDD
330
18BD4
100
AcDbEntity
  8
DEFPOINTS
 62
     0
 48
50.0
100
AcDbPoint
 10
7574.896575106999
 20
9636.123139034717
 30
0.0
  0
POINT
  5
18BDE
330
18BD4
100
AcDbEntity
  8
DEFPOINTS
 62
     0
 48
50.0
100
AcDbPoint
 10
7574.896575106999
 20
10151.93135865972
 30
0.0
  0
ENDBLK
  5
18BDF
330
18BD4
100
AcDbEntity
  8
0
 48
50.0
100
AcDbBlockEnd
  0
BLOCK
  5
18BE1
330
18BE0
100
AcDbEntity
  8
0
 48
50.0
100
AcDbBlockBegin
  2
*D5
 70
     1
 10
0.0
 20
0.0
 30
0.0
  3
*D5
  1

  0
LINE
  5
18BE2
330
18BE0
100
AcDbEntity
  8
寸法
 62
     0
 48
50.0
370
    -2
100
AcDbLine
 10
7574.896575106999
 20
9656.123139034718
 30
0.0
 11
7574.896575106999
 21
10211.9313586597
 31
0.0
  0
LINE
  5
18BE3
330
18BE0
100
AcDbEntity
  8
寸法
 62
     0
 48
50.0
370
    -2
100
AcDbLine
 10
7629.896575106998
 20
9656.123139034718
 30
0.0
 11
7629.896575106998
 21
10211.9313586597
 31
0.0
  0
LINE
  5
18BE4
330
18BE0
100
AcDbEntity
  8
寸法
 62
     0
 48
50.0
370
    -2
100
AcDbLine
 10
7574.896575106999
 20
10151.9313586597
 30
0.0
 11
7474.896575106999
 21
10151.9313586597
 31
0.0
  0
LINE
  5
18BE5
330
18BE0
100
AcDbEntity
  8
寸法
 62
     0
 48
50.0
370
    -2
100
AcDbLine
 10
7629.896575106998
 20
10151.9313586597
 30
0.0
 11
8046.867137855477
 21
10151.9313586597
 31
0.0
  0
LINE
  5
18BE6
330
18BE0
100
AcDbEntity
  8
寸法
 62
     0
 48
50.0
370
    -2
100
AcDbLine
 10
7574.896575106999
 20
10151.9313586597
 30
0.0
 11
7629.896575106998
 21
10151.9313586597
 31
0.0
  0
INSERT
  5
18BE7
330
18BE0
100
AcDbEntity
  8
寸法
 62
     0
 48
50.0
370
    -2
100
AcDbBlockReference
  2
_DOTSMALL
 10
7574.896575106999
 20
10151.9313586597
 30
0.0
 41
100.0
 42
100.0
 43
100.0
  0
INSERT
  5
18BE8
330
18BE0
100
AcDbEntity
  8
寸法
 62
     0
 48
50.0
370
    -2
100
AcDbBlockReference
  2
_DOTSMALL
 10
7629.896575106998
 20
10151.9313586597
 30
0.0
 41
100.0
 42
100.0
 43
100.0
 50
180.0
  0
MTEXT
  5
18BE9
330
18BE0
100
AcDbEntity
  8
寸法
 62
     7
 48
50.0
100
AcDbMText
 10
7938.381856481237
 20
10251.9313586597
 30
0.0
 40
120.0
 41
0.0
 71
     5
 72
     1
  1
\A1;55
  7
STYLE1
 73
     1
 44
1.0
1001
ACAD
1000
MTEXTBEGIN
1070
    73
1070
     1
1070
    44
1040
1.0
1070
    74
1070
     0
1000
MTEXTEND
  0
POINT
  5
18BEA
330
18BE0
100
AcDbEntity
  8
DEFPOINTS
 62
     0
 48
50.0
100
AcDbPoint
 10
7574.896575106999
 20
9636.123139034717
 30
0.0
  0
POINT
  5
18BEB
330
18BE0
100
AcDbEntity
  8
DEFPOINTS
 62
     0
 48
50.0
100
AcDbPoint
 10
7629.896575106998
 20
9636.123139034717
 30
0.0
  0
POINT
  5
18BEC
330
18BE0
100
AcDbEntity
  8
DEFPOINTS
 62
     0
 48
50.0
100
AcDbPoint
 10
7629.896575106998
 20
10151.9313586597
 30
0.0
  0
ENDBLK
  5
18BED
330
18BE0
100
AcDbEntity
  8
0
 48
50.0
100
AcDbBlockEnd
  0
BLOCK
  5
18BEF
330
18BEE
100
AcDbEntity
  8
0
 48
50.0
100
AcDbBlockBegin
  2
*D6
 70
     1
 10
0.0
 20
0.0
 30
0.0
  3
*D6
  1

  0
LINE
  5
18BF0
330
18BEE
100
AcDbEntity
  8
寸法
 62
     0
 48
50.0
370
    -2
100
AcDbLine
 10
7649.896575106999
 20
9636.123139034717
 30
0.0
 11
8337.32292084141
 21
9636.123139034717
 31
0.0
  0
LINE
  5
18BF1
330
18BEE
100
AcDbEntity
  8
寸法
 62
     0
 48
50.0
370
    -2
100
AcDbLine
 10
7649.896575106999
 20
9581.123139034721
 30
0.0
 11
8337.32292084141
 21
9581.123139034721
 31
0.0
  0
LINE
  5
18BF2
330
18BEE
100
AcDbEntity
  8
寸法
 62
     0
 48
50.0
370
    -2
100
AcDbLine
 10
8277.322920841411
 20
9581.123139034721
 30
0.0
 11
8277.322920841411
 21
9481.123139034719
 31
0.0
  0
LINE
  5
18BF3
330
18BEE
100
AcDbEntity
  8
寸法
 62
     0
 48
50.0
370
    -2
100
AcDbLine
 10
8277.322920841411
 20
9636.123139034717
 30
0.0
 11
8277.322920841411
 21
10053.09370178319
 31
0.0
  0
LINE
  5
18BF4
330
18BEE
100
AcDbEntity
  8
寸法
 62
     0
 48
50.0
370
    -2
100
AcDbLine
 10
8277.322920841411
 20
9581.123139034721
 30
0.0
 11
8277.322920841411
 21
9636.123139034717
 31
0.0
  0
INSERT
  5
18BF5
330
18BEE
100
AcDbEntity
  8
寸法
 62
     0
 48
50.0
370
    -2
100
AcDbBlockReference
  2
_DOTSMALL
 10
8277.322920841411
 20
9581.123139034721
 30
0.0
 41
100.0
 42
100.0
 43
100.0
 50
90.0
  0
INSERT
  5
18BF6
330
18BEE
100
AcDbEntity
  8
寸法
 62
     0
 48
50.0
370
    -2
100
AcDbBlockReference
  2
_DOTSMALL
 10
8277.322920841411
 20
9636.123139034717
 30
0.0
 41
100.0
 42
100.0
 43
100.0
 50
270.0
  0
MTEXT
  5
18BF7
330
18BEE
100
AcDbEntity
  8
寸法
 62
     7
 48
50.0
100
AcDbMText
 10
8177.32292084141
 20
9944.608420408957
 30
0.0
 40
120.0
 41
0.0
 71
     5
 72
     1
  1
\A1;55
  7
STYLE1
 11
0.0000000000000001
 21
1.0
 31
0.0
 73
     1
 44
1.0
1001
ACAD
1000
MTEXTBEGIN
1070
    73
1070
     1
1070
    44
1040
1.0
1070
    74
1070
     0
1000
MTEXTEND
  0
POINT
  5
18BF8
330
18BEE
100
AcDbEntity
  8
DEFPOINTS
 62
     0
 48
50.0
100
AcDbPoint
 10
7629.896575106998
 20
9636.123139034717
 30
0.0
  0
POINT
  5
18BF9
330
18BEE
100
AcDbEntity
  8
DEFPOINTS
 62
     0
 48
50.0
100
AcDbPoint
 10
7629.896575106998
 20
9581.123139034721
 30
0.0
  0
POINT
  5
18BFA
330
18BEE
100
AcDbEntity
  8
DEFPOINTS
 62
     0
 48
50.0
100
AcDbPoint
 10
8277.322920841411
 20
9581.123139034721
 30
0.0
  0
ENDBLK
  5
18BFB
330
18BEE
100
AcDbEntity
  8
0
 48
50.0
100
AcDbBlockEnd
  0
BLOCK
  5
18BFD
330
18BFC
100
AcDbEntity
  8
0
 48
50.0
100
AcDbBlockBegin
  2
*D7
 70
     1
 10
0.0
 20
0.0
 30
0.0
  3
*D7
  1

  0
LINE
  5
18BFE
330
18BFC
100
AcDbEntity
  8
寸法
 62
     0
 48
50.0
370
    -2
100
AcDbLine
 10
4159.896575106963
 20
9656.123139034622
 30
0.0
 11
4159.896575106963
 21
10211.9313586596
 31
0.0
  0
LINE
  5
18BFF
330
18BFC
100
AcDbEntity
  8
寸法
 62
     0
 48
50.0
370
    -2
100
AcDbLine
 10
4214.896575106998
 20
9656.123139034622
 30
0.0
 11
4214.896575106998
 21
10211.9313586596
 31
0.0
  0
LINE
  5
18C00
330
18BFC
100
AcDbEntity
  8
寸法
 62
     0
 48
50.0
370
    -2
100
AcDbLine
 10
4214.896575106998
 20
10151.9313586596
 30
0.0
 11
4314.896575106998
 21
10151.9313586596
 31
0.0
  0
LINE
  5
18C01
330
18BFC
100
AcDbEntity
  8
寸法
 62
     0
 48
50.0
370
    -2
100
AcDbLine
 10
4159.896575106963
 20
10151.9313586596
 30
0.0
 11
3742.926012358486
 21
10151.9313586596
 31
0.0
  0
LINE
  5
18C02
330
18BFC
100
AcDbEntity
  8
寸法
 62
     0
 48
50.0
370
    -2
100
AcDbLine
 10
4214.896575106998
 20
10151.9313586596
 30
0.0
 11
4159.896575106963
 21
10151.9313586596
 31
0.0
  0
INSERT
  5
18C03
330
18BFC
100
AcDbEntity
  8
寸法
 62
     0
 48
50.0
370
    -2
100
AcDbBlockReference
  2
_DOTSMALL
 10
4214.896575106998
 20
10151.9313586596
 30
0.0
 41
100.0
 42
100.0
 43
100.0
 50
180.0
  0
INSERT
  5
18C04
330
18BFC
100
AcDbEntity
  8
寸法
 62
     0
 48
50.0
370
    -2
100
AcDbBlockReference
  2
_DOTSMALL
 10
4159.896575106963
 20
10151.9313586596
 30
0.0
 41
100.0
 42
100.0
 43
100.0
  0
MTEXT
  5
18C05
330
18BFC
100
AcDbEntity
  8
寸法
 62
     7
 48
50.0
100
AcDbMText
 10
3851.411293732725
 20
10251.9313586596
 30
0.0
 40
120.0
 41
0.0
 71
     5
 72
     1
  1
\A1;55
  7
STYLE1
 73
     1
 44
1.0
1001
ACAD
1000
MTEXTBEGIN
1070
    73
1070
     1
1070
    44
1040
1.0
1070
    74
1070
     0
1000
MTEXTEND
  0
POINT
  5
18C06
330
18BFC
100
AcDbEntity
  8
DEFPOINTS
 62
     0
 48
50.0
100
AcDbPoint
 10
4159.896575106963
 20
9636.123139034623
 30
0.0
  0
POINT
  5
18C07
330
18BFC
100
AcDbEntity
  8
DEFPOINTS
 62
     0
 48
50.0
100
AcDbPoint
 10
4214.896575106998
 20
9636.123139034623
 30
0.0
  0
POINT
  5
18C08
330
18BFC
100
AcDbEntity
  8
DEFPOINTS
 62
     0
 48
50.0
100
AcDbPoint
 10
4214.896575106998
 20
10151.9313586596
 30
0.0
  0
ENDBLK
  5
18C09
330
18BFC
100
AcDbEntity
  8
0
 48
50.0
100
AcDbBlockEnd
  0
BLOCK
  5
18C0B
330
18C0A
100
AcDbEntity
  8
0
 48
50.0
100
AcDbBlockBegin
  2
*D8
 70
     1
 10
0.0
 20
0.0
 30
0.0
  3
*D8
  1

  0
LINE
  5
18C0C
330
18C0A
100
AcDbEntity
  8
寸法
 62
     0
 48
50.0
370
    -2
100
AcDbLine
 10
4159.896575106992
 20
7826.123139034546
 30
0.0
 11
4159.896575106992
 21
6804.372203245664
 31
0.0
  0
LINE
  5
18C0D
330
18C0A
100
AcDbEntity
  8
寸法
 62
     0
 48
50.0
370
    -2
100
AcDbLine
 10
7629.896575106974
 20
7826.123139034674
 30
0.0
 11
7629.896575106974
 21
6804.372203245664
 31
0.0
  0
LINE
  5
18C0E
330
18C0A
100
AcDbEntity
  8
寸法
 62
     0
 48
50.0
370
    -2
100
AcDbLine
 10
4159.896575106992
 20
6864.372203245665
 30
0.0
 11
7629.896575106974
 21
6864.372203245665
 31
0.0
  0
INSERT
  5
18C0F
330
18C0A
100
AcDbEntity
  8
寸法
 62
     0
 48
50.0
370
    -2
100
AcDbBlockReference
  2
_DOTSMALL
 10
4159.896575106992
 20
6864.372203245665
 30
0.0
 41
100.0
 42
100.0
 43
100.0
 50
180.0
  0
INSERT
  5
18C10
330
18C0A
100
AcDbEntity
  8
寸法
 62
     0
 48
50.0
370
    -2
100
AcDbBlockReference
  2
_DOTSMALL
 10
7629.896575106974
 20
6864.372203245665
 30
0.0
 41
100.0
 42
100.0
 43
100.0
  0
MTEXT
  5
18C11
330
18C0A
100
AcDbEntity
  8
寸法
 62
     7
 48
50.0
100
AcDbMText
 10
5911.12376113973
 20
6964.372203245665
 30
0.0
 40
120.0
 41
0.0
 71
     5
 72
     1
  1
\A1;3470
  7
STYLE1
 73
     1
 44
1.0
1001
ACAD
1000
MTEXTBEGIN
1070
    73
1070
     1
1070
    44
1040
1.0
1070
    74
1070
     0
1000
MTEXTEND
  0
POINT
  5
18C12
330
18C0A
100
AcDbEntity
  8
DEFPOINTS
 62
     0
 48
50.0
100
AcDbPoint
 10
4159.896575106992
 20
7846.123139034546
 30
0.0
  0
POINT
  5
18C13
330
18C0A
100
AcDbEntity
  8
DEFPOINTS
 62
     0
 48
50.0
100
AcDbPoint
 10
7629.896575106974
 20
7846.123139034673
 30
0.0
  0
POINT
  5
18C14
330
18C0A
100
AcDbEntity
  8
DEFPOINTS
 62
     0
 48
50.0
100
AcDbPoint
 10
7629.896575106974
 20
6864.372203245665
 30
0.0
  0
ENDBLK
  5
18C15
330
18C0A
100
AcDbEntity
  8
0
 48
50.0
100
AcDbBlockEnd
  0
BLOCK
  5
18C17
330
18C16
100
AcDbEntity
  8
0
 48
50.0
100
AcDbBlockBegin
  2
*D9
 70
     1
 10
0.0
 20
0.0
 30
0.0
  3
*D9
  1

  0
LINE
  5
18C18
330
18C16
100
AcDbEntity
  8
寸法
 62
     0
 48
50.0
370
    -2
100
AcDbLine
 10
7649.896575106973
 20
7901.123139034706
 30
0.0
 11
8337.322920841385
 21
7901.123139034706
 31
0.0
  0
LINE
  5
18C19
330
18C16
100
AcDbEntity
  8
寸法
 62
     0
 48
50.0
370
    -2
100
AcDbLine
 10
7649.896575106973
 20
7846.123139034709
 30
0.0
 11
8337.322920841385
 21
7846.123139034709
 31
0.0
  0
LINE
  5
18C1A
330
18C16
100
AcDbEntity
  8
寸法
 62
     0
 48
50.0
370
    -2
100
AcDbLine
 10
8277.322920841385
 20
7901.123139034706
 30
0.0
 11
8277.322920841385
 21
8001.123139034707
 31
0.0
  0
LINE
  5
18C1B
330
18C16
100
AcDbEntity
  8
寸法
 62
     0
 48
50.0
370
    -2
100
AcDbLine
 10
8277.322920841385
 20
7846.123139034709
 30
0.0
 11
8277.322920841385
 21
7429.152576286229
 31
0.0
  0
LINE
  5
18C1C
330
18C16
100
AcDbEntity
  8
寸法
 62
     0
 48
50.0
370
    -2
100
AcDbLine
 10
8277.322920841385
 20
7901.123139034706
 30
0.0
 11
8277.322920841385
 21
7846.123139034709
 31
0.0
  0
INSERT
  5
18C1D
330
18C16
100
AcDbEntity
  8
寸法
 62
     0
 48
50.0
370
    -2
100
AcDbBlockReference
  2
_DOTSMALL
 10
8277.322920841385
 20
7901.123139034706
 30
0.0
 41
100.0
 42
100.0
 43
100.0
 50
270.0
  0
INSERT
  5
18C1E
330
18C16
100
AcDbEntity
  8
寸法
 62
     0
 48
50.0
370
    -2
100
AcDbBlockReference
  2
_DOTSMALL
 10
8277.322920841385
 20
7846.123139034709
 30
0.0
 41
100.0
 42
100.0
 43
100.0
 50
90.0
  0
MTEXT
  5
18C1F
330
18C16
100
AcDbEntity
  8
寸法
 62
     7
 48
50.0
100
AcDbMText
 10
8177.322920841383
 20
7537.637857660469
 30
0.0
 40
120.0
 41
0.0
 71
     5
 72
     1
  1
\A1;55
  7
STYLE1
 11
0.0000000000000001
 21
1.0
 31
0.0
 73
     1
 44
1.0
1001
ACAD
1000
MTEXTBEGIN
1070
    73
1070
     1
1070
    44
1040
1.0
1070
    74
1070
     0
1000
MTEXTEND
  0
POINT
  5
18C20
330
18C16
100
AcDbEntity
  8
DEFPOINTS
 62
     0
 48
50.0
100
AcDbPoint
 10
7629.896575106974
 20
7901.123139034706
 30
0.0
  0
POINT
  5
18C21
330
18C16
100
AcDbEntity
  8
DEFPOINTS
 62
     0
 48
50.0
100
AcDbPoint
 10
7629.896575106974
 20
7846.123139034709
 30
0.0
  0
POINT
  5
18C22
330
18C16
100
AcDbEntity
  8
DEFPOINTS
 62
     0
 48
50.0
100
AcDbPoint
 10
8277.322920841385
 20
7846.123139034709
 30
0.0
  0
ENDBLK
  5
18C23
330
18C16
100
AcDbEntity
  8
0
 48
50.0
100
AcDbBlockEnd
  0
BLOCK
  5
18C25
330
18C24
100
AcDbEntity
  8
0
 48
50.0
100
AcDbBlockBegin
  2
*D10
 70
     1
 10
0.0
 20
0.0
 30
0.0
  3
*D10
  1

  0
LINE
  5
18C26
330
18C24
100
AcDbEntity
  8
寸法
 62
     0
 48
50.0
370
    -2
100
AcDbLine
 10
6533.037591258376
 20
9136.123139034728
 30
0.0
 11
6465.083950562664
 21
8882.516699399049
 31
0.0
  0
LINE
  5
18C27
330
18C24
100
AcDbEntity
  8
寸法
 62
     0
 48
50.0
370
    -2
100
AcDbLine
 10
7596.037591258388
 20
9136.123139034721
 30
0.0
 11
7528.083950562677
 21
8882.516699399049
 31
0.0
  0
LINE
  5
18C28
330
18C24
100
AcDbEntity
  8
寸法
 62
     0
 48
50.0
370
    -2
100
AcDbLine
 10
6481.160902108531
 20
8942.51669939905
 30
0.0
 11
7544.160902108544
 21
8942.51669939905
 31
0.0
  0
INSERT
  5
18C29
330
18C24
100
AcDbEntity
  8
寸法
 62
     0
 48
50.0
370
    -2
100
AcDbBlockReference
  2
_DOTSMALL
 10
6481.160902108531
 20
8942.51669939905
 30
0.0
 41
100.0
 42
100.0
 43
100.0
 50
180.0
  0
INSERT
  5
18C2A
330
18C24
100
AcDbEntity
  8
寸法
 62
     0
 48
50.0
370
    -2
100
AcDbBlockReference
  2
_DOTSMALL
 10
7544.160902108544
 20
8942.51669939905
 30
0.0
 41
100.0
 42
100.0
 43
100.0
  0
MTEXT
  5
18C2B
330
18C24
100
AcDbEntity
  8
寸法
 62
     7
 48
50.0
100
AcDbMText
 10
7061.28653022935
 20
9042.516699399049
 30
0.0
 40
120.0
 41
0.0
 71
     5
 72
     1
  1
\A1;1063
  7
STYLE1
 73
     1
 44
1.0
1001
ACAD
1000
MTEXTBEGIN
1070
    73
1070
     1
1070
    44
1040
1.0
1070
    74
1070
     0
1000
MTEXTEND
  0
POINT
  5
18C2C
330
18C24
100
AcDbEntity
  8
DEFPOINTS
 62
     0
 48
50.0
100
AcDbPoint
 10
6538.396575106998
 20
9156.123139034727
 30
0.0
  0
POINT
  5
18C2D
330
18C24
100
AcDbEntity
  8
DEFPOINTS
 62
     0
 48
50.0
100
AcDbPoint
 10
7601.39657510701
 20
9156.12313903472
 30
0.0
  0
POINT
  5
18C2E
330
18C24
100
AcDbEntity
  8
DEFPOINTS
 62
     0
 48
50.0
100
AcDbPoint
 10
7544.160902108544
 20
8942.51669939905
 30
0.0
  0
ENDBLK
  5
18C2F
330
18C24
100
AcDbEntity
  8
0
 48
50.0
100
AcDbBlockEnd
  0
BLOCK
  5
18C31
330
18C30
100
AcDbEntity
  8
0
 48
50.0
100
AcDbBlockBegin
  2
*D11
 70
     1
 10
0.0
 20
0.0
 30
0.0
  3
*D11
  1

  0
LINE
  5
18C32
330
18C30
100
AcDbEntity
  8
寸法
 62
     0
 48
50.0
370
    -2
100
AcDbLine
 10
7621.396575106999
 20
9600.764155186094
 30
0.0
 11
8016.754300969024
 21
9494.828371819961
 31
0.0
  0
LINE
  5
18C33
330
18C30
100
AcDbEntity
  8
寸法
 62
     0
 48
50.0
370
    -2
100
AcDbLine
 10
7621.396575106999
 20
9150.764155186099
 30
0.0
 11
8016.754300969024
 21
9044.828371819964
 31
0.0
  0
LINE
  5
18C34
330
18C30
100
AcDbEntity
  8
寸法
 62
     0
 48
50.0
370
    -2
100
AcDbLine
 10
7956.754300969024
 20
9510.905323365827
 30
0.0
 11
7956.754300969024
 21
9060.90532336583
 31
0.0
  0
INSERT
  5
18C35
330
18C30
100
AcDbEntity
  8
寸法
 62
     0
 48
50.0
370
    -2
100
AcDbBlockReference
  2
_DOTSMALL
 10
7956.754300969024
 20
9510.905323365827
 30
0.0
 41
100.0
 42
100.0
 43
100.0
 50
90.0
  0
INSERT
  5
18C36
330
18C30
100
AcDbEntity
  8
寸法
 62
     0
 48
50.0
370
    -2
100
AcDbBlockReference
  2
_DOTSMALL
 10
7956.754300969024
 20
9060.90532336583
 30
0.0
 41
100.0
 42
100.0
 43
100.0
 50
270.0
  0
MTEXT
  5
18C37
330
18C30
100
AcDbEntity
  8
寸法
 62
     7
 48
50.0
100
AcDbMText
 10
7856.754300969022
 20
9285.905323365829
 30
0.0
 40
120.0
 41
0.0
 71
     5
 72
     1
  1
\A1;450
  7
STYLE1
 11
0.0000000000000001
 21
1.0
 31
0.0
 73
     1
 44
1.0
1001
ACAD
1000
MTEXTBEGIN
1070
    73
1070
     1
1070
    44
1040
1.0
1070
    74
1070
     0
1000
MTEXTEND
  0
POINT
  5
18C38
330
18C30
100
AcDbEntity
  8
DEFPOINTS
 62
     0
 48
50.0
100
AcDbPoint
 10
7601.396575106999
 20
9606.123139034718
 30
0.0
  0
POINT
  5
18C39
330
18C30
100
AcDbEntity
  8
DEFPOINTS
 62
     0
 48
50.0
100
AcDbPoint
 10
7601.396575106999
 20
9156.12313903472
 30
0.0
  0
POINT
  5
18C3A
330
18C30
100
AcDbEntity
  8
DEFPOINTS
 62
     0
 48
50.0
100
AcDbPoint
 10
7956.754300969024
 20
9060.90532336583
 30
0.0
  0
ENDBLK
  5
18C3B
330
18C30
100
AcDbEntity
  8
0
 48
50.0
100
AcDbBlockEnd
  0
BLOCK
  5
18C3D
330
18C3C
100
AcDbEntity
  8
0
 48
50.0
100
AcDbBlockBegin
  2
*D12
 70
     1
 10
0.0
 20
0.0
 30
0.0
  3
*D12
  1

  0
LINE
  5
18C3E
330
18C3C
100
AcDbEntity
  8
寸法
 62
     0
 48
50.0
370
    -2
100
AcDbLine
 10
7649.896575106999
 20
9581.123139034721
 30
0.0
 11
8337.32292084141
 21
9581.123139034721
 31
0.0
  0
LINE
  5
18C3F
330
18C3C
100
AcDbEntity
  8
寸法
 62
     0
 48
50.0
370
    -2
100
AcDbLine
 10
7649.896575106973
 20
7901.123139034706
 30
0.0
 11
8337.32292084141
 21
7901.123139034706
 31
0.0
  0
LINE
  5
18C40
330
18C3C
100
AcDbEntity
  8
寸法
 62
     0
 48
50.0
370
    -2
100
AcDbLine
 10
8277.322920841411
 20
9581.123139034721
 30
0.0
 11
8277.322920841411
 21
7901.123139034706
 31
0.0
  0
INSERT
  5
18C41
330
18C3C
100
AcDbEntity
  8
寸法
 62
     0
 48
50.0
370
    -2
100
AcDbBlockReference
  2
_DOTSMALL
 10
8277.322920841411
 20
9581.123139034721
 30
0.0
 41
100.0
 42
100.0
 43
100.0
 50
90.0
  0
INSERT
  5
18C42
330
18C3C
100
AcDbEntity
  8
寸法
 62
     0
 48
50.0
370
    -2
100
AcDbBlockReference
  2
_DOTSMALL
 10
8277.322920841411
 20
7901.123139034706
 30
0.0
 41
100.0
 42
100.0
 43
100.0
 50
270.0
  0
MTEXT
  5
18C43
330
18C3C
100
AcDbEntity
  8
寸法
 62
     7
 48
50.0
100
AcDbMText
 10
8177.311109817788
 20
8741.123139034712
 30
0.0
 40
120.0
 41
0.0
 71
     5
 72
     1
  1
\A1;4X420=1680
  7
STYLE1
 11
0.0000000000000001
 21
1.0
 31
0.0
 73
     1
 44
1.0
1001
ACAD
1000
MTEXTBEGIN
1070
    73
1070
     1
1070
    44
1040
1.0
1070
    74
1070
     0
1000
MTEXTEND
  0
POINT
  5
18C44
330
18C3C
100
AcDbEntity
  8
DEFPOINTS
 62
     0
 48
50.0
100
AcDbPoint
 10
7629.896575106998
 20
9581.123139034721
 30
0.0
  0
POINT
  5
18C45
330
18C3C
100
AcDbEntity
  8
DEFPOINTS
 62
     0
 48
50.0
100
AcDbPoint
 10
7629.896575106974
 20
7901.123139034706
 30
0.0
  0
POINT
  5
18C46
330
18C3C
100
AcDbEntity
  8
DEFPOINTS
 62
     0
 48
50.0
100
AcDbPoint
 10
8277.322920841411
 20
7901.123139034706
 30
0.0
  0
ENDBLK
  5
18C47
330
18C3C
100
AcDbEntity
  8
0
 48
50.0
100
AcDbBlockEnd
  0
BLOCK
  5
18C49
330
18C48
100
AcDbEntity
  8
0
 48
50.0
100
AcDbBlockBegin
  2
*D13
 70
     1
 10
0.0
 20
0.0
 30
0.0
  3
*D13
  1

  0
LINE
  5
18C4A
330
18C48
100
AcDbEntity
  8
寸法
 62
     0
 48
50.0
370
    -2
100
AcDbLine
 10
4183.037591258377
 20
9136.123139034619
 30
0.0
 11
4115.083950562663
 21
8882.516699398941
 31
0.0
  0
LINE
  5
18C4B
330
18C48
100
AcDbEntity
  8
寸法
 62
     0
 48
50.0
370
    -2
100
AcDbLine
 10
5246.037591258307
 20
9136.123139034671
 30
0.0
 11
5178.08395056258
 21
8882.516699398941
 31
0.0
  0
LINE
  5
18C4C
330
18C48
100
AcDbEntity
  8
寸法
 62
     0
 48
50.0
370
    -2
100
AcDbLine
 10
4131.160902108532
 20
8942.516699398941
 30
0.0
 11
5194.160902108448
 21
8942.516699398941
 31
0.0
  0
INSERT
  5
18C4D
330
18C48
100
AcDbEntity
  8
寸法
 62
     0
 48
50.0
370
    -2
100
AcDbBlockReference
  2
_DOTSMALL
 10
4131.160902108532
 20
8942.516699398941
 30
0.0
 41
100.0
 42
100.0
 43
100.0
 50
180.0
  0
INSERT
  5
18C4E
330
18C48
100
AcDbEntity
  8
寸法
 62
     0
 48
50.0
370
    -2
100
AcDbBlockReference
  2
_DOTSMALL
 10
5194.160902108448
 20
8942.516699398941
 30
0.0
 41
100.0
 42
100.0
 43
100.0
  0
MTEXT
  5
18C4F
330
18C48
100
AcDbEntity
  8
寸法
 62
     7
 48
50.0
100
AcDbMText
 10
4658.986452655306
 20
9042.516699398941
 30
0.0
 40
120.0
 41
0.0
 71
     5
 72
     1
  1
\A1;1063
  7
STYLE1
 73
     1
 44
1.0
1001
ACAD
1000
MTEXTBEGIN
1070
    73
1070
     1
1070
    44
1040
1.0
1070
    74
1070
     0
1000
MTEXTEND
  0
POINT
  5
18C50
330
18C48
100
AcDbEntity
  8
DEFPOINTS
 62
     0
 48
50.0
100
AcDbPoint
 10
4188.396575106999
 20
9156.123139034617
 30
0.0
  0
POINT
  5
18C51
330
18C48
100
AcDbEntity
  8
DEFPOINTS
 62
     0
 48
50.0
100
AcDbPoint
 10
5251.396575106929
 20
9156.123139034672
 30
0.0
  0
POINT
  5
18C52
330
18C48
100
AcDbEntity
  8
DEFPOINTS
 62
     0
 48
50.0
100
AcDbPoint
 10
5194.160902108448
 20
8942.516699398941
 30
0.0
  0
ENDBLK
  5
18C53
330
18C48
100
AcDbEntity
  8
0
 48
50.0
100
AcDbBlockEnd
  0
BLOCK
  5
18C55
330
18C54
100
AcDbEntity
  8
0
 48
50.0
100
AcDbBlockBegin
  2
*D14
 70
     1
 10
0.0
 20
0.0
 30
0.0
  3
*D14
  1

  0
LINE
  5
18C56
330
18C54
100
AcDbEntity
  8
寸法
 62
     0
 48
50.0
370
    -2
100
AcDbLine
 10
5274.037591258307
 20
9136.123139034669
 30
0.0
 11
5206.08395056258
 21
8882.516699398941
 31
0.0
  0
LINE
  5
18C57
330
18C54
100
AcDbEntity
  8
寸法
 62
     0
 48
50.0
370
    -2
100
AcDbLine
 10
6505.037591258377
 20
9136.123139034662
 30
0.0
 11
6437.083950562653
 21
8882.516699398941
 31
0.0
  0
LINE
  5
18C58
330
18C54
100
AcDbEntity
  8
寸法
 62
     0
 48
50.0
370
    -2
100
AcDbLine
 10
5222.160902108448
 20
8942.516699398941
 30
0.0
 11
6453.16090210852
 21
8942.516699398941
 31
0.0
  0
INSERT
  5
18C59
330
18C54
100
AcDbEntity
  8
寸法
 62
     0
 48
50.0
370
    -2
100
AcDbBlockReference
  2
_DOTSMALL
 10
5222.160902108448
 20
8942.516699398941
 30
0.0
 41
100.0
 42
100.0
 43
100.0
 50
180.0
  0
INSERT
  5
18C5A
330
18C54
100
AcDbEntity
  8
寸法
 62
     0
 48
50.0
370
    -2
100
AcDbBlockReference
  2
_DOTSMALL
 10
6453.16090210852
 20
8942.516699398941
 30
0.0
 41
100.0
 42
100.0
 43
100.0
  0
MTEXT
  5
18C5B
330
18C54
100
AcDbEntity
  8
寸法
 62
     7
 48
50.0
100
AcDbMText
 10
6081.244808320626
 20
9042.528510422561
 30
0.0
 40
120.0
 41
0.0
 71
     5
 72
     1
  1
\A1;1231
  7
STYLE1
 73
     1
 44
1.0
1001
ACAD
1000
MTEXTBEGIN
1070
    73
1070
     1
1070
    44
1040
1.0
1070
    74
1070
     0
1000
MTEXTEND
  0
POINT
  5
18C5C
330
18C54
100
AcDbEntity
  8
DEFPOINTS
 62
     0
 48
50.0
100
AcDbPoint
 10
5279.396575106929
 20
9156.123139034669
 30
0.0
  0
POINT
  5
18C5D
330
18C54
100
AcDbEntity
  8
DEFPOINTS
 62
     0
 48
50.0
100
AcDbPoint
 10
6510.396575106999
 20
9156.123139034662
 30
0.0
  0
POINT
  5
18C5E
330
18C54
100
AcDbEntity
  8
DEFPOINTS
 62
     0
 48
50.0
100
AcDbPoint
 10
6453.16090210852
 20
8942.516699398941
 30
0.0
  0
ENDBLK
  5
18C5F
330
18C54
100
AcDbEntity
  8
0
 48
50.0
100
AcDbBlockEnd
  0
BLOCK
  5
18C61
330
18C60
100
AcDbEntity
  8
0
 48
50.0
100
AcDbBlockBegin
  2
*D15
 70
     1
 10
0.0
 20
0.0
 30
0.0
  3
*D15
  1

  0
LINE
  5
18C62
330
18C60
100
AcDbEntity
  8
寸法
 62
     0
 48
50.0
370
    -2
100
AcDbLine
 10
5065.896575106966
 20
7749.123139034579
 30
0.0
 11
5065.896575106966
 21
7099.952920982538
 31
0.0
  0
LINE
  5
18C63
330
18C60
100
AcDbEntity
  8
寸法
 62
     0
 48
50.0
370
    -2
100
AcDbLine
 10
6331.896575106966
 20
7749.123139034579
 30
0.0
 11
6331.896575106966
 21
7099.952920982538
 31
0.0
  0
LINE
  5
18C64
330
18C60
100
AcDbEntity
  8
寸法
 62
     0
 48
50.0
370
    -2
100
AcDbLine
 10
5065.896575106966
 20
7159.952920982537
 30
0.0
 11
6331.896575106966
 21
7159.952920982537
 31
0.0
  0
INSERT
  5
18C65
330
18C60
100
AcDbEntity
  8
寸法
 62
     0
 48
50.0
370
    -2
100
AcDbBlockReference
  2
_DOTSMALL
 10
5065.896575106966
 20
7159.952920982537
 30
0.0
 41
100.0
 42
100.0
 43
100.0
 50
180.0
  0
INSERT
  5
18C66
330
18C60
100
AcDbEntity
  8
寸法
 62
     0
 48
50.0
370
    -2
100
AcDbBlockReference
  2
_DOTSMALL
 10
6331.896575106966
 20
7159.952920982537
 30
0.0
 41
100.0
 42
100.0
 43
100.0
  0
MTEXT
  5
18C67
330
18C60
100
AcDbEntity
  8
寸法
 62
     7
 48
50.0
100
AcDbMText
 10
5711.986008735934
 20
7359.964732006159
 30
0.0
 40
120.0
 41
0.0
 71
     5
 72
     1
  1
\A1;有効開口部間口\P1266
  7
STYLE1
 73
     1
 44
1.0
1001
ACAD
1000
MTEXTBEGIN
1070
    73
1070
     1
1070
    44
1040
1.0
1070
    74
1070
     0
1000
MTEXTEND
  0
POINT
  5
18C68
330
18C60
100
AcDbEntity
  8
DEFPOINTS
 62
     0
 48
50.0
100
AcDbPoint
 10
5065.896575106966
 20
7769.123139034579
 30
0.0
  0
POINT
  5
18C69
330
18C60
100
AcDbEntity
  8
DEFPOINTS
 62
     0
 48
50.0
100
AcDbPoint
 10
6331.896575106966
 20
7769.123139034579
 30
0.0
  0
POINT
  5
18C6A
330
18C60
100
AcDbEntity
  8
DEFPOINTS
 62
     0
 48
50.0
100
AcDbPoint
 10
6331.896575106966
 20
7159.952920982537
 30
0.0
  0
ENDBLK
  5
18C6B
330
18C60
100
AcDbEntity
  8
0
 48
50.0
100
AcDbBlockEnd
  0
BLOCK
  5
18C6D
330
18C6C
100
AcDbEntity
  8
0
 48
50.0
100
AcDbBlockBegin
  2
*D16
 70
     1
 10
0.0
 20
0.0
 30
0.0
  3
*D16
  1

  0
LINE
  5
18C6E
330
18C6C
100
AcDbEntity
  8
寸法
 62
     0
 48
50.0
370
    -2
100
AcDbLine
 10
7200.896575106966
 20
7846.123139034578
 30
0.0
 11
7457.192158500191
 21
7846.123139034578
 31
0.0
  0
LINE
  5
18C6F
330
18C6C
100
AcDbEntity
  8
寸法
 62
     0
 48
50.0
370
    -2
100
AcDbLine
 10
7199.896575106966
 20
7769.123139034579
 30
0.0
 11
7457.192158500191
 21
7769.123139034579
 31
0.0
  0
LINE
  5
18C70
330
18C6C
100
AcDbEntity
  8
寸法
 62
     0
 48
50.0
370
    -2
100
AcDbLine
 10
7417.192158500192
 20
7866.123139034579
 30
0.0
 11
7417.192158500192
 21
7886.123139034578
 31
0.0
  0
LINE
  5
18C71
330
18C6C
100
AcDbEntity
  8
寸法
 62
     0
 48
50.0
370
    -2
100
AcDbLine
 10
7417.192158500192
 20
7749.123139034579
 30
0.0
 11
7417.192158500192
 21
7533.123139034573
 31
0.0
  0
LINE
  5
18C72
330
18C6C
100
AcDbEntity
  8
寸法
 62
     0
 48
50.0
370
    -2
100
AcDbLine
 10
7417.192158500192
 20
7846.123139034578
 30
0.0
 11
7417.192158500192
 21
7769.123139034579
 31
0.0
  0
INSERT
  5
18C73
330
18C6C
100
AcDbEntity
  8
寸法
 62
     0
 48
50.0
370
    -2
100
AcDbBlockReference
  2
_DOT
 10
7417.192158500192
 20
7846.123139034578
 30
0.0
 41
20.0
 42
20.0
 43
20.0
 50
270.0
  0
INSERT
  5
18C74
330
18C6C
100
AcDbEntity
  8
寸法
 62
     0
 48
50.0
370
    -2
100
AcDbBlockReference
  2
_DOT
 10
7417.192158500192
 20
7769.123139034579
 30
0.0
 41
20.0
 42
20.0
 43
20.0
 50
90.0
  0
MTEXT
  5
18C75
330
18C6C
100
AcDbEntity
  8
寸法
 62
     7
 48
50.0
100
AcDbMText
 10
7325.192158500191
 20
7631.123139034575
 30
0.0
 40
120.0
 41
0.0
 71
     5
 72
     1
  1
\A1;77
  7
STYLE1
 11
0.0000000000000001
 21
1.0
 31
0.0
 73
     1
 44
1.0
1001
ACAD
1000
MTEXTBEGIN
1070
    73
1070
     1
1070
    44
1040
1.0
1070
    74
1070
     0
1000
MTEXTEND
  0
POINT
  5
18C76
330
18C6C
100
AcDbEntity
  8
DEFPOINTS
 62
     0
 48
50.0
100
AcDbPoint
 10
7180.896575106967
 20
7846.123139034578
 30
0.0
  0
POINT
  5
18C77
330
18C6C
100
AcDbEntity
  8
DEFPOINTS
 62
     0
 48
50.0
100
AcDbPoint
 10
7179.896575106965
 20
7769.123139034579
 30
0.0
  0
POINT
  5
18C78
330
18C6C
100
AcDbEntity
  8
DEFPOINTS
 62
     0
 48
50.0
100
AcDbPoint
 10
7417.192158500192
 20
7769.123139034579
 30
0.0
  0
ENDBLK
  5
18C79
330
18C6C
100
AcDbEntity
  8
0
 48
50.0
100
AcDbBlockEnd
  0
BLOCK
  5
18DA0
330
18C7A
100
AcDbEntity
  8
0
 48
50.0
100
AcDbBlockBegin
  2
A$C3B1A506B
 70
     0
 10
0.0
 20
0.0
 30
0.0
  3
A$C3B1A506B
  1

  0
MTEXT
  5
18C7B
330
18C7A
100
AcDbEntity
  8
寸法
 62
     7
 48
50.0
100
AcDbMText
 10
3342.250386887194
 20
2778.329429134012
 30
0.0
 40
96.0
 41
0.0
 71
     5
 72
     1
  1
棚 2段
  7
STYLE1
 73
     1
 44
1.0
1001
ACAD
1000
MTEXTBEGIN
1070
    73
1070
     1
1070
    44
1040
1.0
1070
    74
1070
     0
1000
MTEXTEND
  0
MTEXT
  5
18C7C
330
18C7A
100
AcDbEntity
  8
寸法
 62
     7
 48
50.0
100
AcDbMText
 10
2167.25038688716
 20
2778.329429133986
 30
0.0
 40
96.0
 41
0.0
 71
     5
 72
     1
  1
棚 2段
  7
STYLE1
 73
     1
 44
1.0
1001
ACAD
1000
MTEXTBEGIN
1070
    73
1070
     1
1070
    44
1040
1.0
1070
    74
1070
     0
1000
MTEXTEND
  0
MTEXT
  5
18C7D
330
18C7A
100
AcDbEntity
  8
寸法
 62
     7
 48
50.0
100
AcDbMText
 10
992.2503868871608
 20
2778.329429133935
 30
0.0
 40
96.0
 41
0.0
 71
     5
 72
     1
  1
棚 2段
  7
STYLE1
 73
     1
 44
1.0
1001
ACAD
1000
MTEXTBEGIN
1070
    73
1070
     1
1070
    44
1040
1.0
1070
    74
1070
     0
1000
MTEXTEND
  0
LINE
  5
18C7E
330
18C7A
100
AcDbEntity
  8
細線
 48
50.0
100
AcDbLine
 10
2771.970589276527
 20
1368.994384123192
 30
0.0
 11
3398.970589276523
 21
1368.994384123192
 31
0.0
  0
LINE
  5
18C7F
330
18C7A
100
AcDbEntity
  8
細線
 48
50.0
100
AcDbLine
 10
2117.970593930113
 20
1335.285615569113
 30
0.0
 11
3398.970589276523
 21
1335.285615569113
 31
0.0
  0
LINE
  5
18C80
330
18C7A
100
AcDbEntity
  8
細線
 48
50.0
100
AcDbLine
 10
2076.970593930115
 20
1364.690523565368
 30
0.0
 11
1322.970589276523
 21
1364.690523565367
 31
0.0
  0
LINE
  5
18C81
330
18C7A
100
AcDbEntity
  8
細線
100
AcDbLine
 10
3170.720579860066
 20
1388.494284088199
 30
0.0
 11
3173.052119381877
 21
1393.494286728162
 31
0.0
  0
LINE
  5
18C82
330
18C7A
100
AcDbEntity
  8
細線
100
AcDbLine
 10
3240.720589276525
 20
1388.494269174465
 30
0.0
 11
3238.389042800336
 21
1393.494286728144
 31
0.0
  0
LINE
  5
18C83
330
18C7A
100
AcDbEntity
  8
細線
100
AcDbLine
 10
3238.389042800336
 20
1393.494286728144
 30
0.0
 11
3173.052119381862
 21
1393.494286728133
 31
0.0
  0
LINE
  5
18C84
330
18C7A
100
AcDbEntity
  8
細線
100
AcDbLine
 10
3098.389042800336
 20
1393.494286728144
 30
0.0
 11
3033.052119381862
 21
1393.494286728133
 31
0.0
  0
LINE
  5
18C85
330
18C7A
100
AcDbEntity
  8
細線
100
AcDbLine
 10
3100.720589276523
 20
1388.494269174465
 30
0.0
 11
3098.389042800336
 21
1393.494286728144
 31
0.0
  0
LINE
  5
18C86
330
18C7A
100
AcDbEntity
  8
細線
100
AcDbLine
 10
3030.720579860066
 20
1388.494284088199
 30
0.0
 11
3033.052119381875
 21
1393.494286728162
 31
0.0
  0
LINE
  5
18C87
330
18C7A
100
AcDbEntity
  8
細線
100
AcDbLine
 10
2890.720589276525
 20
1388.494269174465
 30
0.0
 11
2893.052128798336
 21
1393.494271814428
 31
0.0
  0
LINE
  5
18C88
330
18C7A
100
AcDbEntity
  8
細線
100
AcDbLine
 10
2960.720598692984
 20
1388.494254260731
 30
0.0
 11
2958.389052216793
 21
1393.49427181441
 31
0.0
  0
LINE
  5
18C89
330
18C7A
100
AcDbEntity
  8
細線
100
AcDbLine
 10
2958.389052216795
 20
1393.49427181441
 30
0.0
 11
2893.052128798321
 21
1393.494271814399
 31
0.0
  0
LINE
  5
18C8A
330
18C7A
100
AcDbEntity
  8
細線
100
AcDbLine
 10
2667.139038146739
 20
1359.494298590735
 30
0.0
 11
2601.802114728263
 21
1359.494298590724
 31
0.0
  0
LINE
  5
18C8B
330
18C7A
100
AcDbEntity
  8
細線
100
AcDbLine
 10
2669.470584622926
 20
1354.494281037055
 30
0.0
 11
2667.139038146737
 21
1359.494298590735
 31
0.0
  0
LINE
  5
18C8C
330
18C7A
100
AcDbEntity
  8
細線
100
AcDbLine
 10
2599.470575206469
 20
1354.49429595079
 30
0.0
 11
2601.802114728278
 21
1359.494298590752
 31
0.0
  0
LINE
  5
18C8D
330
18C7A
100
AcDbEntity
  8
細線
 48
50.0
100
AcDbLine
 10
2440.853968524536
 20
1372.765132327548
 30
0.0
 11
2446.609486107205
 21
1354.494281037057
 31
0.0
  0
LINE
  5
18C8E
330
18C7A
100
AcDbEntity
  8
細線
 48
50.0
100
AcDbLine
 10
2429.925520044106
 20
1372.765132327546
 30
0.0
 11
2440.853968524536
 21
1372.765132327548
 31
0.0
  0
ARC
  5
18C8F
330
18C7A
100
AcDbEntity
  8
細線
 48
50.0
100
AcDbCircle
 10
2424.471163986787
 20
1374.265132327546
 30
0.0
 40
5.0
100
AcDbArc
 50
204.6243183520723
 51
335.3756816479278
  0
ARC
  5
18C90
330
18C7A
100
AcDbEntity
  8
細線
 48
50.0
100
AcDbCircle
 10
2429.925520044106
 20
1371.765132327546
 30
0.0
 40
1.0
100
AcDbArc
 50
90.0
 51
155.3756816479277
  0
ARC
  5
18C91
330
18C7A
100
AcDbEntity
  8
細線
 48
50.0
100
AcDbCircle
 10
2419.016807929469
 20
1371.765132327546
 30
0.0
 40
1.0
100
AcDbArc
 50
24.62431835207225
 51
90.0
  0
LINE
  5
18C92
330
18C7A
100
AcDbEntity
  8
細線
 48
50.0
100
AcDbLine
 10
2408.088359449037
 20
1372.765132327548
 30
0.0
 11
2419.016807929469
 21
1372.765132327546
 31
0.0
  0
LINE
  5
18C93
330
18C7A
100
AcDbEntity
  8
細線
 48
50.0
100
AcDbLine
 10
2402.33284186637
 20
1354.494281037054
 30
0.0
 11
2408.088359449037
 21
1372.765132327548
 31
0.0
  0
LINE
  5
18C94
330
18C7A
100
AcDbEntity
  8
細線
100
AcDbLine
 10
2458.070304175992
 20
1354.494278397076
 30
0.0
 11
2460.401843697802
 21
1359.494281037039
 31
0.0
  0
LINE
  5
18C95
330
18C7A
100
AcDbEntity
  8
細線
100
AcDbLine
 10
2528.070313592451
 20
1354.494263483342
 30
0.0
 11
2525.738767116262
 21
1359.494281037021
 31
0.0
  0
LINE
  5
18C96
330
18C7A
100
AcDbEntity
  8
細線
100
AcDbLine
 10
2525.738767116262
 20
1359.494281037021
 30
0.0
 11
2460.40184369779
 21
1359.49428103701
 31
0.0
  0
LINE
  5
18C97
330
18C7A
100
AcDbEntity
  8
細線
100
AcDbLine
 10
2387.139046332155
 20
1359.494281037021
 30
0.0
 11
2321.80212291368
 21
1359.49428103701
 31
0.0
  0
LINE
  5
18C98
330
18C7A
100
AcDbEntity
  8
細線
100
AcDbLine
 10
2389.470592808342
 20
1354.494263483342
 30
0.0
 11
2387.139046332153
 21
1359.494281037021
 31
0.0
  0
LINE
  5
18C99
330
18C7A
100
AcDbEntity
  8
細線
100
AcDbLine
 10
2319.470584622926
 20
1354.494281037054
 30
0.0
 11
2321.802122913694
 21
1359.494281037039
 31
0.0
  0
LINE
  5
18C9A
330
18C7A
100
AcDbEntity
  8
細線
100
AcDbLine
 10
2179.47061994182
 20
1354.494289224422
 30
0.0
 11
2181.802158232587
 21
1359.494289224407
 31
0.0
  0
LINE
  5
18C9B
330
18C7A
100
AcDbEntity
  8
細線
100
AcDbLine
 10
2249.470628127236
 20
1354.49427167071
 30
0.0
 11
2247.139081651047
 21
1359.494289224389
 31
0.0
  0
LINE
  5
18C9C
330
18C7A
100
AcDbEntity
  8
細線
100
AcDbLine
 10
2247.139081651047
 20
1359.494289224389
 30
0.0
 11
2181.802158232573
 21
1359.494289224378
 31
0.0
  0
LINE
  5
18C9D
330
18C7A
100
AcDbEntity
  8
細線
100
AcDbLine
 10
1807.970585744697
 20
1320.494460905133
 30
0.0
 11
1810.302124035464
 21
1325.494460905118
 31
0.0
  0
LINE
  5
18C9E
330
18C7A
100
AcDbEntity
  8
細線
100
AcDbLine
 10
1877.970593930113
 20
1320.494443351421
 30
0.0
 11
1875.639047453926
 21
1325.4944609051
 31
0.0
  0
LINE
  5
18C9F
330
18C7A
100
AcDbEntity
  8
細線
100
AcDbLine
 10
1875.639047453926
 20
1325.4944609051
 30
0.0
 11
1810.302124035452
 21
1325.494460905089
 31
0.0
  0
LINE
  5
18CA0
330
18C7A
100
AcDbEntity
  8
細線
100
AcDbLine
 10
2015.639047453926
 20
1325.4944609051
 30
0.0
 11
1950.302124035452
 21
1325.494460905089
 31
0.0
  0
LINE
  5
18CA1
330
18C7A
100
AcDbEntity
  8
細線
100
AcDbLine
 10
2017.970593930113
 20
1320.494443351421
 30
0.0
 11
2015.639047453924
 21
1325.4944609051
 31
0.0
  0
LINE
  5
18CA2
330
18C7A
100
AcDbEntity
  8
細線
100
AcDbLine
 10
1947.970585744697
 20
1320.494460905133
 30
0.0
 11
1950.302124035465
 21
1325.494460905118
 31
0.0
  0
LINE
  5
18CA3
330
18C7A
100
AcDbEntity
  8
細線
100
AcDbLine
 10
1735.639047453926
 20
1325.494460905098
 30
0.0
 11
1670.302124035454
 21
1325.494460905087
 31
0.0
  0
LINE
  5
18CA4
330
18C7A
100
AcDbEntity
  8
細線
100
AcDbLine
 10
1737.970593930113
 20
1320.494443351419
 30
0.0
 11
1735.639047453926
 21
1325.494460905098
 31
0.0
  0
LINE
  5
18CA5
330
18C7A
100
AcDbEntity
  8
細線
100
AcDbLine
 10
1667.970585744697
 20
1320.494460905131
 30
0.0
 11
1670.302124035465
 21
1325.494460905116
 31
0.0
  0
LINE
  5
18CA6
330
18C7A
100
AcDbEntity
  8
細線
100
AcDbLine
 10
1527.970593930113
 20
1320.494460905133
 30
0.0
 11
1530.302132220881
 21
1325.494460905118
 31
0.0
  0
LINE
  5
18CA7
330
18C7A
100
AcDbEntity
  8
細線
100
AcDbLine
 10
1597.970602115529
 20
1320.494443351421
 30
0.0
 11
1595.639055639342
 21
1325.4944609051
 31
0.0
  0
LINE
  5
18CA8
330
18C7A
100
AcDbEntity
  8
細線
100
AcDbLine
 10
1595.639055639342
 20
1325.4944609051
 30
0.0
 11
1530.302132220869
 21
1325.494460905089
 31
0.0
  0
ARC
  5
18CA9
330
18C7A
100
AcDbEntity
  8
部品1
 48
0.01
100
AcDbCircle
 10
1483.470482677778
 20
1319.493338720063
 30
0.0
 40
0.5
100
AcDbArc
 50
270.0
 51
0.0
  0
LINE
  5
18CAA
330
18C7A
100
AcDbEntity
  8
部品1
 48
0.01
100
AcDbLine
 10
1483.970482677778
 20
1320.493338720063
 30
0.0
 11
1483.970482677778
 21
1319.493338720063
 31
0.0
  0
LINE
  5
18CAB
330
18C7A
100
AcDbEntity
  8
部品1
 48
0.01
100
AcDbLine
 10
1483.970482677778
 20
1320.493338720063
 30
0.0
 11
1483.970482677778
 21
1319.493338720063
 31
0.0
  0
LINE
  5
18CAC
330
18C7A
100
AcDbEntity
  8
部品1
 48
0.01
100
AcDbLine
 10
1483.470482677778
 20
1318.993338720063
 30
0.0
 11
1476.857977247713
 21
1318.993338720062
 31
0.0
  0
ARC
  5
18CAD
330
18C7A
100
AcDbEntity
  8
部品1
100
AcDbCircle
 10
1476.926326800494
 20
1319.993338720062
 30
0.0
 40
1.0
100
AcDbArc
 50
160.5287793655865
 51
270.0
  0
ARC
  5
18CAE
330
18C7A
100
AcDbEntity
  8
部品1
100
AcDbCircle
 10
1451.470482677778
 20
1328.993338720062
 30
0.0
 40
26.0
100
AcDbArc
 50
340.5287793655865
 51
0.0
  0
LINE
  5
18CAF
330
18C7A
100
AcDbEntity
  8
部品1
100
AcDbLine
 10
1477.470482677778
 20
1328.993338720062
 30
0.0
 11
1477.470482677778
 21
1333.993338720061
 31
0.0
  0
ARC
  5
18CB0
330
18C7A
100
AcDbEntity
  8
部品1
 48
0.01
100
AcDbCircle
 10
1475.470482677778
 20
1333.993338720061
 30
0.0
 40
2.0
100
AcDbArc
 50
0.0
 51
90.0
  0
ARC
  5
18CB1
330
18C7A
100
AcDbEntity
  8
部品1
100
AcDbCircle
 10
1473.862091052968
 20
1332.993338720062
 30
0.0
 40
3.0
100
AcDbArc
 50
90.0
 51
141.6069559808035
  0
LINE
  5
18CB2
330
18C7A
100
AcDbEntity
  8
部品1
 48
0.01
100
AcDbLine
 10
1475.470482677778
 20
1335.993338720062
 30
0.0
 11
1473.862091052968
 21
1335.993338720062
 31
0.0
  0
ARC
  5
18CB3
330
18C7A
100
AcDbEntity
  8
部品1
100
AcDbCircle
 10
1455.399768463507
 20
1332.293338720065
 30
0.0
 40
3.0
100
AcDbArc
 50
254.0576313943215
 51
270.0
  0
ARC
  5
18CB4
330
18C7A
100
AcDbEntity
  8
部品1
100
AcDbCircle
 10
1462.541196892049
 20
1332.293338720065
 30
0.0
 40
3.0
100
AcDbArc
 50
270.0
 51
285.9423686056786
  0
LINE
  5
18CB5
330
18C7A
100
AcDbEntity
  8
部品1
100
AcDbLine
 10
1462.541196892049
 20
1329.293338720064
 30
0.0
 11
1455.399768463507
 21
1329.293338720064
 31
0.0
  0
ARC
  5
18CB6
330
18C7A
100
AcDbEntity
  8
部品1
100
AcDbCircle
 10
1458.970482677778
 20
1344.793338720065
 30
0.0
 40
16.0
100
AcDbArc
 50
285.9423686056786
 51
321.6069559808035
  0
LINE
  5
18CB7
330
18C7A
100
AcDbEntity
  8
部品1
 48
0.01
100
AcDbLine
 10
1442.470482677778
 20
1335.993338720062
 30
0.0
 11
1444.078874302588
 21
1335.993338720062
 31
0.0
  0
ARC
  5
18CB8
330
18C7A
100
AcDbEntity
  8
部品1
100
AcDbCircle
 10
1444.078874302588
 20
1332.993338720062
 30
0.0
 40
3.0
100
AcDbArc
 50
38.39304401919648
 51
90.0
  0
ARC
  5
18CB9
330
18C7A
100
AcDbEntity
  8
部品1
100
AcDbCircle
 10
1458.970482677778
 20
1344.793338720065
 30
0.0
 40
16.0
100
AcDbArc
 50
218.3930440191965
 51
254.0576313943215
  0
LINE
  5
18CBA
330
18C7A
100
AcDbEntity
  8
部品1
100
AcDbLine
 10
1440.470482677778
 20
1328.993338720062
 30
0.0
 11
1440.470482677778
 21
1333.993338720061
 31
0.0
  0
ARC
  5
18CBB
330
18C7A
100
AcDbEntity
  8
部品1
 48
0.01
100
AcDbCircle
 10
1442.470482677778
 20
1333.993338720061
 30
0.0
 40
2.0
100
AcDbArc
 50
90.0
 51
180.0
  0
ARC
  5
18CBC
330
18C7A
100
AcDbEntity
  8
部品1
100
AcDbCircle
 10
1466.470482677778
 20
1328.993338720062
 30
0.0
 40
26.0
100
AcDbArc
 50
180.0
 51
199.4712206344134
  0
ARC
  5
18CBD
330
18C7A
100
AcDbEntity
  8
部品1
 48
0.01
100
AcDbCircle
 10
1434.470482677778
 20
1319.493338720063
 30
0.0
 40
0.5
100
AcDbArc
 50
180.0
 51
270.0
  0
LINE
  5
18CBE
330
18C7A
100
AcDbEntity
  8
部品1
 48
0.01
100
AcDbLine
 10
1434.470482677778
 20
1318.993338720063
 30
0.0
 11
1441.014638555061
 21
1318.993338720062
 31
0.0
  0
LINE
  5
18CBF
330
18C7A
100
AcDbEntity
  8
部品1
 48
0.01
100
AcDbLine
 10
1433.970482677778
 20
1320.493338720063
 30
0.0
 11
1433.970482677778
 21
1319.493338720063
 31
0.0
  0
ARC
  5
18CC0
330
18C7A
100
AcDbEntity
  8
部品1
100
AcDbCircle
 10
1441.014638555061
 20
1319.993338720062
 30
0.0
 40
1.0
100
AcDbArc
 50
270.0
 51
19.47122063441346
  0
LINE
  5
18CC1
330
18C7A
100
AcDbEntity
  8
細線
100
AcDbLine
 10
1479.470482677785
 20
1338.493338720065
 30
0.0
 11
1438.470482677785
 21
1338.493338720058
 31
0.0
  0
LINE
  5
18CC2
330
18C7A
100
AcDbEntity
  8
細線
100
AcDbLine
 10
1438.470482677785
 20
1338.493338720058
 30
0.0
 11
1438.470482677785
 21
1320.49333872004
 31
0.0
  0
LINE
  5
18CC3
330
18C7A
100
AcDbEntity
  8
細線
100
AcDbLine
 10
1479.470482677785
 20
1338.493338720065
 30
0.0
 11
1479.470482677785
 21
1320.49333872004
 31
0.0
  0
LINE
  5
18CC4
330
18C7A
100
AcDbEntity
  8
細線
100
AcDbLine
 10
1322.970589276523
 20
1324.494269174465
 30
0.0
 11
1322.970589276523
 21
1320.494269174513
 31
0.0
  0
LINE
  5
18CC5
330
18C7A
100
AcDbEntity
  8
寸法
 48
50.0
100
AcDbLine
 10
1746.17359555837
 20
1170.531020743327
 30
0.0
 11
1694.767587648266
 21
1170.531020743327
 31
0.0
  0
LINE
  5
18CC6
330
18C7A
100
AcDbEntity
  8
寸法
 48
50.0
100
AcDbLine
 10
1694.767587648266
 20
1170.531020743327
 30
0.0
 11
1694.767587648266
 21
1201.841179395494
 31
0.0
  0
LINE
  5
18CC7
330
18C7A
100
AcDbEntity
  8
寸法
 48
50.0
100
AcDbLine
 10
1694.767587648266
 20
1201.841179395494
 30
0.0
 11
1665.006255656843
 21
1201.841179395494
 31
0.0
  0
LINE
  5
18CC8
330
18C7A
100
AcDbEntity
  8
寸法
 48
50.0
100
AcDbLine
 10
1665.006255656843
 20
1201.841179395494
 30
0.0
 11
1720.470591603318
 21
1239.420630324105
 31
0.0
  0
LINE
  5
18CC9
330
18C7A
100
AcDbEntity
  8
寸法
 48
50.0
100
AcDbLine
 10
1775.934927549793
 20
1201.841179395494
 30
0.0
 11
1720.470591603318
 21
1239.420630324105
 31
0.0
  0
LINE
  5
18CCA
330
18C7A
100
AcDbEntity
  8
寸法
 48
50.0
100
AcDbLine
 10
1746.17359555837
 20
1201.841179395494
 30
0.0
 11
1775.934927549793
 21
1201.841179395494
 31
0.0
  0
LINE
  5
18CCB
330
18C7A
100
AcDbEntity
  8
寸法
 48
50.0
100
AcDbLine
 10
1746.17359555837
 20
1170.531020743327
 30
0.0
 11
1746.17359555837
 21
1201.841179395494
 31
0.0
  0
LINE
  5
18CCC
330
18C7A
100
AcDbEntity
  8
寸法
 48
50.0
100
AcDbLine
 10
1694.767587648266
 20
1170.531020743327
 30
0.0
 11
1746.17359555837
 21
1170.531020743327
 31
0.0
  0
LINE
  5
18CCD
330
18C7A
100
AcDbEntity
  8
寸法
 48
50.0
100
AcDbLine
 10
2025.339129835225
 20
1227.676611498152
 30
0.0
 11
2025.339129835225
 21
1174.01297691636
 31
0.0
  0
LINE
  5
18CCE
330
18C7A
100
AcDbEntity
  8
寸法
 48
50.0
100
AcDbLine
 10
2114.623348430647
 20
1203.752977228664
 30
0.0
 11
2025.339129835225
 21
1227.676611498152
 31
0.0
  0
LINE
  5
18CCF
330
18C7A
100
AcDbEntity
  8
寸法
 48
50.0
100
AcDbLine
 10
1895.471408254923
 20
1203.752977228664
 30
0.0
 11
2114.623348430647
 21
1203.752977228664
 31
0.0
  0
DIMENSION
  5
18CD0
330
18C7A
100
AcDbEntity
  8
寸法
 48
50.0
100
AcDbDimension
  2
*D15
 10
2588.970589276523
 20
706.3240511224249
 30
0.0
 11
1969.060022905491
 21
706.3240511224249
 31
0.0
 12
-3742.925985830444
 22
-6453.628869860112
 32
0.0
 70
   128
  1
有効開口部間口\P<>
 71
     5
 42
1266.0
  3
INABA_S40G
100
AcDbAlignedDimension
 13
1322.970589276523
 23
1315.494269174465
 33
0.0
 14
2588.970589276523
 24
1315.494269174465
 34
0.0
100
AcDbRotatedDimension
1001
ACAD
1000
DSTYLE
1002
{
1070
   341
1005
0
1002
}
  0
LINE
  5
18CD1
330
18C7A
100
AcDbEntity
  8
部品1
100
AcDbLine
 10
3409.970589276524
 20
1392.494269174465
 30
0.0
 11
3437.970589276523
 21
1392.494269174465
 31
0.0
  0
DIMENSION
  5
18CD2
330
18C7A
100
AcDbEntity
  8
寸法
100
AcDbDimension
  2
*D16
 10
3674.266172669749
 20
1315.494269174465
 30
0.0
 11
3674.266172669748
 21
1177.494269174462
 31
0.0
 12
-3742.925985830444
 22
-6453.628869860112
 32
0.0
 70
   128
 71
     5
 42
77.0
  3
INABA_S40
100
AcDbAlignedDimension
 13
3437.970589276523
 23
1392.494269174465
 33
0.0
 14
3436.970589276523
 24
1315.494269174465
 34
0.0
 50
90.0
100
AcDbRotatedDimension
1001
ACAD
1000
DSTYLE
1002
{
1070
    41
1040
0.5
1070
    44
1040
1.0
1070
   147
1040
0.8
1070
   271
1070
     2
1070
   272
1070
     2
1070
   289
1070
     3
1070
   340
1005
F706
1070
   343
1005
164B4
1070
   344
1005
164B4
1002
}
  0
LINE
  5
18CD3
330
18C7A
100
AcDbEntity
  8
部品1
100
AcDbLine
 10
3437.970589276523
 20
1315.494269174465
 30
0.0
 11
3437.970589276523
 21
1392.494269174465
 31
0.0
  0
LINE
  5
18CD4
330
18C7A
100
AcDbEntity
  8
部品1
100
AcDbLine
 10
3398.970589276523
 20
1388.494269174465
 30
0.0
 11
3409.970589276524
 21
1388.494269174465
 31
0.0
  0
LINE
  5
18CD5
330
18C7A
100
AcDbEntity
  8
部品1
100
AcDbLine
 10
3407.970589276523
 20
1324.494269174465
 30
0.0
 11
3407.970589276523
 21
1315.494269174465
 31
0.0
  0
LINE
  5
18CD6
330
18C7A
100
AcDbEntity
  8
部品1
100
AcDbLine
 10
3398.970589276523
 20
1324.494269174465
 30
0.0
 11
3407.970589276523
 21
1324.494269174465
 31
0.0
  0
LINE
  5
18CD7
330
18C7A
100
AcDbEntity
  8
部品1
100
AcDbLine
 10
3398.970589276523
 20
1388.494269174465
 30
0.0
 11
3398.970589276523
 21
1324.494269174465
 31
0.0
  0
LINE
  5
18CD8
330
18C7A
100
AcDbEntity
  8
部品1
100
AcDbLine
 10
3409.970589276524
 20
1419.494269174465
 30
0.0
 11
3409.970589276524
 21
1388.494269174465
 31
0.0
  0
LINE
  5
18CD9
330
18C7A
100
AcDbEntity
  8
部品1
100
AcDbLine
 10
1322.970589276523
 20
1388.494269174465
 30
0.0
 11
1311.970589276523
 21
1388.494269174465
 31
0.0
  0
LINE
  5
18CDA
330
18C7A
100
AcDbEntity
  8
部品1
100
AcDbLine
 10
1283.970589276523
 20
1392.494269174465
 30
0.0
 11
1311.970589276523
 21
1392.494269174465
 31
0.0
  0
LINE
  5
18CDB
330
18C7A
100
AcDbEntity
  8
部品1
100
AcDbLine
 10
1313.970589276523
 20
1324.494269174465
 30
0.0
 11
1313.970589276523
 21
1315.494269174465
 31
0.0
  0
LINE
  5
18CDC
330
18C7A
100
AcDbEntity
  8
部品1
100
AcDbLine
 10
1322.970589276523
 20
1324.494269174465
 30
0.0
 11
1313.970589276523
 21
1324.494269174465
 31
0.0
  0
LINE
  5
18CDD
330
18C7A
100
AcDbEntity
  8
部品1
100
AcDbLine
 10
1313.970589276523
 20
1315.494269174465
 30
0.0
 11
1283.970589276523
 21
1315.494269174465
 31
0.0
  0
LINE
  5
18CDE
330
18C7A
100
AcDbEntity
  8
部品1
100
AcDbLine
 10
1283.970589276523
 20
1315.494269174465
 30
0.0
 11
1283.970589276523
 21
1392.494269174465
 31
0.0
  0
LINE
  5
18CDF
330
18C7A
100
AcDbEntity
  8
部品1
100
AcDbLine
 10
1322.970589276523
 20
1388.494269174465
 30
0.0
 11
1322.970589276523
 21
1324.494269174465
 31
0.0
  0
LINE
  5
18CE0
330
18C7A
100
AcDbEntity
  8
部品1
100
AcDbLine
 10
1311.970589276523
 20
1419.494269174462
 30
0.0
 11
1311.970589276523
 21
1388.494269174465
 31
0.0
  0
LINE
  5
18CE1
330
18C7A
100
AcDbEntity
  8
部品1
100
AcDbLine
 10
1311.970589276523
 20
1419.494269174462
 30
0.0
 11
3409.970589276524
 21
1419.494269174465
 31
0.0
  0
LINE
  5
18CE2
330
18C7A
100
AcDbEntity
  8
部品1
100
AcDbLine
 10
3407.970589276523
 20
1315.494269174465
 30
0.0
 11
3437.970589276523
 21
1315.494269174465
 31
0.0
  0
LINE
  5
18CE3
330
18C7A
100
AcDbEntity
  8
部品1
100
AcDbLine
 10
1313.970589276523
 20
1315.494269174465
 30
0.0
 11
3410.970589276523
 21
1315.494269174465
 31
0.0
  0
LINE
  5
18CE4
330
18C7A
100
AcDbEntity
  8
細線
  6
Continuous
 62
     5
100
AcDbLine
 10
2689.970589276527
 20
1354.494269174462
 30
0.0
 11
2689.970589276527
 21
1354.494269174462
 31
0.0
  0
LINE
  5
18CE5
330
18C7A
100
AcDbEntity
  8
細線
  6
Continuous
 62
     5
100
AcDbLine
 10
2682.470589276527
 20
1354.494269174462
 30
0.0
 11
2682.470589276527
 21
1354.494269174462
 31
0.0
  0
LINE
  5
18CE6
330
18C7A
100
AcDbEntity
  8
細線
  6
Continuous
 62
     5
100
AcDbLine
 10
2676.470589276527
 20
1354.494269174462
 30
0.0
 11
2676.470589276527
 21
1354.494269174462
 31
0.0
  0
LINE
  5
18CE7
330
18C7A
100
AcDbEntity
  8
細線
  6
Continuous
 62
     5
100
AcDbLine
 10
2743.970589276527
 20
1373.494269174462
 30
0.0
 11
2743.970589276527
 21
1373.494269174462
 31
0.0
  0
LINE
  5
18CE8
330
18C7A
100
AcDbEntity
  8
細線
 48
50.0
100
AcDbLine
 10
1336.970593930116
 20
1341.094443351418
 30
0.0
 11
1336.970593930113
 21
1349.490593759059
 31
0.0
  0
LINE
  5
18CE9
330
18C7A
100
AcDbEntity
  8
細線
 48
50.0
100
AcDbLine
 10
1336.970593930113
 20
1349.490593759059
 30
0.0
 11
1322.970589276523
 21
1349.490593759057
 31
0.0
  0
LINE
  5
18CEA
330
18C7A
100
AcDbEntity
  8
細線
 48
50.0
100
AcDbLine
 10
2087.970593930113
 20
1337.644443351419
 30
0.0
 11
2087.970593930113
 21
1342.494443351421
 31
0.0
  0
LINE
  5
18CEB
330
18C7A
100
AcDbEntity
  8
細線
 48
50.0
100
AcDbLine
 10
2087.970593930113
 20
1342.494443351421
 30
0.0
 11
2102.970593930113
 21
1342.494443351421
 31
0.0
  0
LINE
  5
18CEC
330
18C7A
100
AcDbEntity
  8
細線
 48
50.0
100
AcDbLine
 10
2102.970593930113
 20
1342.494443351421
 30
0.0
 11
2102.970593930115
 21
1349.494443351419
 31
0.0
  0
LINE
  5
18CED
330
18C7A
100
AcDbEntity
  8
細線
 48
50.0
100
AcDbLine
 10
2102.970593930115
 20
1349.494443351419
 30
0.0
 11
2117.970593930113
 21
1349.494443351419
 31
0.0
  0
LINE
  5
18CEE
330
18C7A
100
AcDbEntity
  8
細線
 48
50.0
100
AcDbLine
 10
2117.970593930113
 20
1349.494443351419
 30
0.0
 11
2117.970593930113
 21
1320.494443351421
 31
0.0
  0
LINE
  5
18CEF
330
18C7A
100
AcDbEntity
  8
細線
 48
50.0
100
AcDbLine
 10
1313.970589276523
 20
1320.491777694889
 30
0.0
 11
1527.970593930113
 21
1320.494460905133
 31
0.0
  0
LINE
  5
18CF0
330
18C7A
100
AcDbEntity
  8
細線
 48
50.0
100
AcDbLine
 10
2017.970593930113
 20
1320.494443351421
 30
0.0
 11
2117.970593930113
 21
1320.494443351421
 31
0.0
  0
LINE
  5
18CF1
330
18C7A
100
AcDbEntity
  8
細線
 48
50.0
100
AcDbLine
 10
1737.970593930113
 20
1320.494443351419
 30
0.0
 11
1807.970593930113
 21
1320.494443351423
 31
0.0
  0
LINE
  5
18CF2
330
18C7A
100
AcDbEntity
  8
細線
 48
50.0
100
AcDbLine
 10
1750.832558942642
 20
1320.494443351419
 30
0.0
 11
1756.588076525309
 21
1338.765294641913
 31
0.0
  0
LINE
  5
18CF3
330
18C7A
100
AcDbEntity
  8
細線
 48
50.0
100
AcDbLine
 10
1756.588076525309
 20
1338.765294641913
 30
0.0
 11
1767.516525005743
 21
1338.765294641911
 31
0.0
  0
ARC
  5
18CF4
330
18C7A
100
AcDbEntity
  8
細線
 48
50.0
100
AcDbCircle
 10
1767.516525005743
 20
1337.765294641911
 30
0.0
 40
1.0
100
AcDbArc
 50
24.62431835207225
 51
90.0
  0
ARC
  5
18CF5
330
18C7A
100
AcDbEntity
  8
細線
 48
50.0
100
AcDbCircle
 10
1778.425237120377
 20
1337.765294641911
 30
0.0
 40
1.0
100
AcDbArc
 50
90.0
 51
155.3756816479277
  0
ARC
  5
18CF6
330
18C7A
100
AcDbEntity
  8
細線
 48
50.0
100
AcDbCircle
 10
1772.970881063058
 20
1340.265294641911
 30
0.0
 40
5.0
100
AcDbArc
 50
204.6243183520723
 51
335.3756816479278
  0
LINE
  5
18CF7
330
18C7A
100
AcDbEntity
  8
細線
 48
50.0
100
AcDbLine
 10
1778.425237120377
 20
1338.765294641911
 30
0.0
 11
1789.35368560081
 21
1338.765294641913
 31
0.0
  0
LINE
  5
18CF8
330
18C7A
100
AcDbEntity
  8
細線
 48
50.0
100
AcDbLine
 10
1789.35368560081
 20
1338.765294641913
 30
0.0
 11
1795.109203183478
 21
1320.494443351423
 31
0.0
  0
LINE
  5
18CF9
330
18C7A
100
AcDbEntity
  8
細線
 48
50.0
100
AcDbLine
 10
2087.970593930113
 20
1341.094443351419
 30
0.0
 11
1336.970593930116
 21
1341.094443351418
 31
0.0
  0
LINE
  5
18CFA
330
18C7A
100
AcDbEntity
  8
細線
 48
50.0
100
AcDbLine
 10
1947.970593930113
 20
1320.494443351421
 30
0.0
 11
1877.970593930113
 21
1320.494443351421
 31
0.0
  0
LINE
  5
18CFB
330
18C7A
100
AcDbEntity
  8
細線
100
AcDbLine
 10
1667.970593930113
 20
1320.494443351421
 30
0.0
 11
1597.970602115529
 21
1320.494443351421
 31
0.0
  0
LINE
  5
18CFC
330
18C7A
100
AcDbEntity
  8
細線
 48
50.0
100
AcDbLine
 10
2741.970584622936
 20
1375.094487209288
 30
0.0
 11
2106.970593930113
 21
1375.094487209284
 31
0.0
  0
LINE
  5
18CFD
330
18C7A
100
AcDbEntity
  8
細線
 48
50.0
100
AcDbLine
 10
2106.970593930113
 20
1371.990637616925
 30
0.0
 11
2106.970593930113
 21
1376.490637616925
 31
0.0
  0
LINE
  5
18CFE
330
18C7A
100
AcDbEntity
  8
細線
 48
50.0
100
AcDbLine
 10
2106.970593930113
 20
1376.490637616925
 30
0.0
 11
2091.970593930113
 21
1376.490637616925
 31
0.0
  0
LINE
  5
18CFF
330
18C7A
100
AcDbEntity
  8
細線
 48
50.0
100
AcDbLine
 10
2091.970593930113
 20
1376.490637616925
 30
0.0
 11
2091.970593930113
 21
1383.490637616927
 31
0.0
  0
LINE
  5
18D00
330
18C7A
100
AcDbEntity
  8
細線
 48
50.0
100
AcDbLine
 10
2091.970593930113
 20
1383.490637616927
 30
0.0
 11
2076.970593930115
 21
1383.490637616924
 31
0.0
  0
LINE
  5
18D01
330
18C7A
100
AcDbEntity
  8
細線
 48
50.0
100
AcDbLine
 10
2076.970593930115
 20
1383.490637616924
 30
0.0
 11
2076.970593930115
 21
1345.890409513813
 31
0.0
  0
LINE
  5
18D02
330
18C7A
100
AcDbEntity
  8
細線
 48
50.0
100
AcDbLine
 10
2076.970593930115
 20
1345.890409513813
 30
0.0
 11
2096.970601231289
 21
1345.890451063353
 31
0.0
  0
LINE
  5
18D03
330
18C7A
100
AcDbEntity
  8
細線
 48
50.0
100
AcDbLine
 10
2096.970556362348
 20
1354.493912699161
 30
0.0
 11
2096.970601231289
 21
1345.890451063353
 31
0.0
  0
LINE
  5
18D04
330
18C7A
100
AcDbEntity
  8
細線
 48
50.0
100
AcDbLine
 10
2741.970584622936
 20
1371.644487209287
 30
0.0
 11
2741.970584622936
 21
1376.494487209284
 31
0.0
  0
LINE
  5
18D05
330
18C7A
100
AcDbEntity
  8
細線
 48
50.0
100
AcDbLine
 10
2741.970584622936
 20
1376.494487209284
 30
0.0
 11
2756.970584622934
 21
1376.494487209285
 31
0.0
  0
LINE
  5
18D06
330
18C7A
100
AcDbEntity
  8
細線
 48
50.0
100
AcDbLine
 10
2756.970584622934
 20
1376.494487209285
 30
0.0
 11
2756.970596256909
 21
1383.494487209331
 31
0.0
  0
LINE
  5
18D07
330
18C7A
100
AcDbEntity
  8
細線
 48
50.0
100
AcDbLine
 10
2756.970596256909
 20
1383.494487209331
 30
0.0
 11
2771.970594427439
 21
1383.494487209329
 31
0.0
  0
LINE
  5
18D08
330
18C7A
100
AcDbEntity
  8
細線
 48
50.0
100
AcDbLine
 10
2771.970594427439
 20
1383.494487209329
 30
0.0
 11
2771.970584125617
 21
1354.494281037055
 31
0.0
  0
LINE
  5
18D09
330
18C7A
100
AcDbEntity
  8
細線
 48
50.0
100
AcDbLine
 10
2458.070304175992
 20
1354.494278397076
 30
0.0
 11
2389.470863838818
 21
1354.494283787084
 31
0.0
  0
LINE
  5
18D0A
330
18C7A
100
AcDbEntity
  8
細線
 48
50.0
100
AcDbLine
 10
2096.970556362348
 20
1354.493912699161
 30
0.0
 11
2108.203245717057
 21
1354.494095652309
 31
0.0
  0
ARC
  5
18D0B
330
18C7A
100
AcDbEntity
  8
細線
 48
50.0
100
AcDbCircle
 10
2114.785538024393
 20
1353.294259565922
 30
0.0
 40
1.8
100
AcDbArc
 50
270.0006665777295
 51
345.000555481349
  0
LINE
  5
18D0C
330
18C7A
100
AcDbEntity
  8
細線
 48
50.0
100
AcDbLine
 10
2116.771971470473
 20
1353.753100023201
 30
0.0
 11
2116.524209028273
 21
1352.828402141094
 31
0.0
  0
LINE
  5
18D0D
330
18C7A
100
AcDbEntity
  8
細線
 48
50.0
100
AcDbLine
 10
2114.785558965548
 20
1351.494259566043
 30
0.0
 11
2111.155631546781
 21
1351.494217335563
 31
0.0
  0
ARC
  5
18D0E
330
18C7A
100
AcDbEntity
  8
細線
 48
50.0
100
AcDbCircle
 10
2111.155610605627
 20
1353.29421733544
 30
0.0
 40
1.8
100
AcDbArc
 50
195.0010443049965
 51
270.0006665777295
  0
LINE
  5
18D0F
330
18C7A
100
AcDbEntity
  8
細線
 48
50.0
100
AcDbLine
 10
2109.169183113368
 20
1353.752932303007
 30
0.0
 11
2109.416952609882
 21
1352.828311364425
 31
0.0
  0
ARC
  5
18D10
330
18C7A
100
AcDbEntity
  8
細線
 48
50.0
100
AcDbCircle
 10
2108.203262004622
 20
1353.494095652444
 30
0.0
 40
1.0
100
AcDbArc
 50
15.00104430499651
 51
90.00093320877969
  0
LINE
  5
18D11
330
18C7A
100
AcDbEntity
  8
細線
 48
50.0
100
AcDbLine
 10
2117.737892825577
 20
1354.494290342714
 30
0.0
 11
2118.679652976481
 21
1354.494296916564
 31
0.0
  0
ARC
  5
18D12
330
18C7A
100
AcDbEntity
  8
細線
 48
50.0
100
AcDbCircle
 10
2117.737899805961
 20
1353.49429034274
 30
0.0
 40
1.0
100
AcDbArc
 50
90.0003999466794
 51
165.000555481349
  0
LINE
  5
18D13
330
18C7A
100
AcDbEntity
  8
細線
 48
50.0
100
AcDbLine
 10
2669.470584622926
 20
1354.494281037055
 30
0.0
 11
2771.970584125617
 21
1354.494281037055
 31
0.0
  0
LINE
  5
18D14
330
18C7A
100
AcDbEntity
  8
細線
 48
50.0
100
AcDbLine
 10
2179.47061994182
 20
1354.494289224422
 30
0.0
 11
2118.370558714898
 21
1354.494296916564
 31
0.0
  0
LINE
  5
18D15
330
18C7A
100
AcDbEntity
  8
細線
 48
50.0
100
AcDbLine
 10
2599.470584622926
 20
1354.494281037057
 30
0.0
 11
2529.470584622926
 21
1354.494281037055
 31
0.0
  0
LINE
  5
18D16
330
18C7A
100
AcDbEntity
  8
細線
 48
50.0
100
AcDbLine
 10
2319.470584622926
 20
1354.494281037054
 30
0.0
 11
2249.470567335051
 21
1354.494281037057
 31
0.0
  0
ARC
  5
18D17
330
18C7A
100
AcDbEntity
  8
細線
 48
50.0
100
AcDbCircle
 10
2756.170589276533
 20
1387.694269174466
 30
0.0
 40
0.8
100
AcDbArc
 50
359.9997333689499
 51
89.99986668437072
  0
ARC
  5
18D18
330
18C7A
100
AcDbEntity
  8
細線
 48
50.0
100
AcDbCircle
 10
2763.770596101631
 20
1387.694280343081
 30
0.0
 40
0.8
100
AcDbArc
 50
90.00014387753465
 51
179.9997333689498
  0
LINE
  5
18D19
330
18C7A
100
AcDbEntity
  8
細線
 48
50.0
100
AcDbLine
 10
2756.170591137969
 20
1388.494269174465
 30
0.0
 11
2750.970589276525
 21
1388.494269174465
 31
0.0
  0
ARC
  5
18D1A
330
18C7A
100
AcDbEntity
  8
細線
 48
50.0
100
AcDbCircle
 10
2757.670589276524
 20
1386.194269174464
 30
0.0
 40
0.7
100
AcDbArc
 50
180.0
 51
270.0
  0
ARC
  5
18D1B
330
18C7A
100
AcDbEntity
  8
細線
 48
50.0
100
AcDbCircle
 10
2762.270589276524
 20
1386.194269174464
 30
0.0
 40
0.7
100
AcDbArc
 50
270.0
 51
0.0
  0
LINE
  5
18D1C
330
18C7A
100
AcDbEntity
  8
細線
 48
50.0
100
AcDbLine
 10
2762.970589276525
 20
1386.194269174464
 30
0.0
 11
2762.970596101639
 21
1387.694284065954
 31
0.0
  0
LINE
  5
18D1D
330
18C7A
100
AcDbEntity
  8
細線
 48
50.0
100
AcDbLine
 10
2757.670589276524
 20
1385.494269174465
 30
0.0
 11
2762.270589276524
 21
1385.494269174465
 31
0.0
  0
LINE
  5
18D1E
330
18C7A
100
AcDbEntity
  8
細線
 48
50.0
100
AcDbLine
 10
2756.970589276525
 20
1387.694269174466
 30
0.0
 11
2756.970589276525
 21
1386.194269174464
 31
0.0
  0
LINE
  5
18D1F
330
18C7A
100
AcDbEntity
  8
細線
 48
50.0
100
AcDbLine
 10
3382.570589276527
 20
1418.494269174465
 30
0.0
 11
2745.970589276525
 21
1418.494269174463
 31
0.0
  0
LINE
  5
18D20
330
18C7A
100
AcDbEntity
  8
細線
 48
50.0
100
AcDbLine
 10
3408.470589276525
 20
1413.494269174467
 30
0.0
 11
3392.570589276527
 21
1413.494269174465
 31
0.0
  0
LINE
  5
18D21
330
18C7A
100
AcDbEntity
  8
細線
 48
50.0
100
AcDbLine
 10
3392.570589276526
 20
1413.494269174465
 30
0.0
 11
3382.570589276527
 21
1418.494269174465
 31
0.0
  0
LINE
  5
18D22
330
18C7A
100
AcDbEntity
  8
細線
100
AcDbLine
 10
2993.470589276525
 20
1388.494269174465
 30
0.0
 11
2993.470589276525
 21
1417.794269174464
 31
0.0
  0
LINE
  5
18D23
330
18C7A
100
AcDbEntity
  8
細線
100
AcDbLine
 10
2993.470589276525
 20
1417.794269174464
 30
0.0
 11
3013.470589276525
 21
1417.794269174464
 31
0.0
  0
LINE
  5
18D24
330
18C7A
100
AcDbEntity
  8
細線
100
AcDbLine
 10
3013.470589276525
 20
1388.494269174465
 30
0.0
 11
3013.470589276525
 21
1417.794269174464
 31
0.0
  0
LINE
  5
18D25
330
18C7A
100
AcDbEntity
  8
細線
100
AcDbLine
 10
3170.720589276524
 20
1388.494269174465
 30
0.0
 11
3100.720589276523
 21
1388.494269174465
 31
0.0
  0
LINE
  5
18D26
330
18C7A
100
AcDbEntity
  8
細線
 48
50.0
100
AcDbLine
 10
2890.720589276525
 20
1388.494269174465
 30
0.0
 11
2763.766368849365
 21
1388.494269174465
 31
0.0
  0
LINE
  5
18D27
330
18C7A
100
AcDbEntity
  8
細線
100
AcDbLine
 10
3030.720589276525
 20
1388.494269174465
 30
0.0
 11
2960.720589276525
 21
1388.494269174465
 31
0.0
  0
LINE
  5
18D28
330
18C7A
100
AcDbEntity
  8
細線
 48
50.0
100
AcDbLine
 10
2750.970589276525
 20
1380.494269174465
 30
0.0
 11
2750.970589276525
 21
1388.494269174465
 31
0.0
  0
LINE
  5
18D29
330
18C7A
100
AcDbEntity
  8
細線
 48
50.0
100
AcDbLine
 10
2730.970589276524
 20
1380.494269174467
 30
0.0
 11
2750.970589276525
 21
1380.494269174465
 31
0.0
  0
LINE
  5
18D2A
330
18C7A
100
AcDbEntity
  8
細線
 48
50.0
100
AcDbLine
 10
2745.970589276525
 20
1418.494269174465
 30
0.0
 11
2745.970589276525
 21
1413.494269174465
 31
0.0
  0
LINE
  5
18D2B
330
18C7A
100
AcDbEntity
  8
細線
 48
50.0
100
AcDbLine
 10
2730.970589276525
 20
1418.494269174463
 30
0.0
 11
2745.970589276525
 21
1418.494269174465
 31
0.0
  0
LINE
  5
18D2C
330
18C7A
100
AcDbEntity
  8
細線
 48
50.0
100
AcDbLine
 10
2730.970589276524
 20
1380.494269174467
 30
0.0
 11
2730.970589276525
 21
1418.494269174463
 31
0.0
  0
LINE
  5
18D2D
330
18C7A
100
AcDbEntity
  8
細線
100
AcDbLine
 10
3398.970589276523
 20
1388.494269174465
 30
0.0
 11
3240.720589276525
 21
1388.494269174465
 31
0.0
  0
LINE
  5
18D2E
330
18C7A
100
AcDbEntity
  8
細線
 48
50.0
100
AcDbLine
 10
3408.470589276525
 20
1413.494269174467
 30
0.0
 11
3408.470589276524
 21
1388.494269174465
 31
0.0
  0
TEXT
  5
18D2F
330
18C7A
100
AcDbEntity
  8
部品1
100
AcDbText
 10
1860.154865991392
 20
46.99880823813145
 30
0.0
 40
135.0
  1
平面図
  7
STYLE2
100
AcDbText
  0
LWPOLYLINE
  5
18D30
330
18C7A
100
AcDbEntity
  8
部品1
100
AcDbPolyline
 90
        4
 70
     1
 43
0.0
 10
1770.23525616235
 20
239.8923374566548
 10
1770.23525616235
 20
0.0000159111223184
 10
2533.705922390791
 20
0.0000159111223184
 10
2533.705922390791
 20
239.8923374566548
  0
LINE
  5
18D31
330
18C7A
100
AcDbEntity
  8
部品1
100
AcDbLine
 10
1534.470589276487
 20
3154.494269174626
 30
0.0
 11
2769.470589276552
 21
3154.494269174626
 31
0.0
  0
LINE
  5
18D32
330
18C7A
100
AcDbEntity
  8
部品1
 48
50.0
100
AcDbLine
 10
1311.970589276523
 20
1420.494269174462
 30
0.0
 11
3411.970589276523
 21
1420.494269174465
 31
0.0
  0
LINE
  5
18D33
330
18C7A
100
AcDbEntity
  8
部品1
 48
50.0
100
AcDbLine
 10
471.9705892765232
 20
1392.494269174465
 30
0.0
 11
1311.970589276523
 21
1392.494269174465
 31
0.0
  0
DIMENSION
  5
18D34
330
18C7A
100
AcDbEntity
  8
寸法
100
AcDbDimension
  2
*D14
 10
2710.234916278077
 20
2488.887829538828
 30
0.0
 11
2338.318822490183
 21
2488.887829538828
 31
0.0
 12
-3742.925985830444
 22
-6453.628869860112
 32
0.0
 70
   128
 71
     5
 42
1231.00000000007
  3
INABA_S40G
100
AcDbAlignedDimension
 13
1536.470589276486
 23
2702.494269174557
 33
0.0
 14
2767.470589276556
 24
2702.494269174549
 34
0.0
100
AcDbRotatedDimension
1001
ACAD
1000
DSTYLE
1002
{
1002
}
  0
LINE
  5
18D35
330
18C7A
100
AcDbEntity
  8
部品1
100
AcDbLine
 10
1536.470589276487
 20
2702.494269174557
 30
0.0
 11
2767.470589276554
 21
2702.494269174615
 31
0.0
  0
LINE
  5
18D36
330
18C7A
100
AcDbEntity
  8
部品1
100
AcDbLine
 10
1536.470589276487
 20
3152.494269174557
 30
0.0
 11
2767.470589276556
 21
3152.494269174615
 31
0.0
  0
LINE
  5
18D37
330
18C7A
100
AcDbEntity
  8
細線
 48
50.0
100
AcDbLine
 10
1508.470589276487
 20
3152.494269174558
 30
0.0
 11
445.4705892765559
 21
2702.494269174509
 31
0.0
  0
LINE
  5
18D38
330
18C7A
100
AcDbEntity
  8
細線
 48
50.0
100
AcDbLine
 10
1508.470589276487
 20
2702.494269174558
 30
0.0
 11
445.4705892765542
 21
3152.494269174509
 31
0.0
  0
LINE
  5
18D39
330
18C7A
100
AcDbEntity
  8
部品1
100
AcDbLine
 10
1556.970589276487
 20
3172.494269174611
 30
0.0
 11
1556.970589276487
 21
3154.494269174611
 31
0.0
  0
LINE
  5
18D3A
330
18C7A
100
AcDbEntity
  8
部品1
100
AcDbLine
 10
1556.970589276487
 20
3172.494269174611
 30
0.0
 11
1550.970589276487
 21
3172.494269174611
 31
0.0
  0
LINE
  5
18D3B
330
18C7A
100
AcDbEntity
  8
部品1
100
AcDbLine
 10
1534.470589276487
 20
3146.494269174608
 30
0.0
 11
1509.470589276487
 21
3146.494269174611
 31
0.0
  0
LINE
  5
18D3C
330
18C7A
100
AcDbEntity
  8
部品1
100
AcDbLine
 10
1486.970589276487
 20
3172.494269174611
 30
0.0
 11
1486.970589276487
 21
3154.494269174611
 31
0.0
  0
LINE
  5
18D3D
330
18C7A
100
AcDbEntity
  8
部品1
100
AcDbLine
 10
1492.970589276487
 20
3172.494269174611
 30
0.0
 11
1486.970589276487
 21
3172.494269174611
 31
0.0
  0
LINE
  5
18D3E
330
18C7A
100
AcDbEntity
  8
部品1
100
AcDbLine
 10
1534.470589276487
 20
2702.494269174615
 30
0.0
 11
1509.470589276487
 21
2702.494269174615
 31
0.0
  0
LINE
  5
18D3F
330
18C7A
100
AcDbEntity
  8
部品1
 48
50.0
100
AcDbLine
 10
1536.470589276487
 20
3152.494269174611
 30
0.0
 11
1536.470589276487
 21
2702.494269174615
 31
0.0
  0
LINE
  5
18D40
330
18C7A
100
AcDbEntity
  8
部品1
 48
50.0
100
AcDbLine
 10
1508.470589276487
 20
3152.494269174607
 30
0.0
 11
1508.470589276487
 21
2702.494269174615
 31
0.0
  0
LINE
  5
18D41
330
18C7A
100
AcDbEntity
  8
部品1
 48
50.0
100
AcDbLine
 10
1534.470589276487
 20
3154.494269174618
 30
0.0
 11
1534.470589276487
 21
2702.494269174615
 31
0.0
  0
LINE
  5
18D42
330
18C7A
100
AcDbEntity
  8
部品1
 48
50.0
100
AcDbLine
 10
1509.470589276487
 20
3154.494269174615
 30
0.0
 11
1509.470589276487
 21
2702.494269174615
 31
0.0
  0
LINE
  5
18D43
330
18C7A
100
AcDbEntity
  8
部品1
100
AcDbLine
 10
3411.970589276556
 20
1392.494269174582
 30
0.0
 11
3411.970589276556
 21
1420.494269174596
 31
0.0
  0
LINE
  5
18D44
330
18C7A
100
AcDbEntity
  8
部品1
100
AcDbLine
 10
1311.970589276523
 20
1392.494269174596
 30
0.0
 11
1311.970589276523
 21
1420.494269174596
 31
0.0
  0
LINE
  5
18D45
330
18C7A
100
AcDbEntity
  8
部品1
100
AcDbLine
 10
891.9705892765232
 20
1392.494269174596
 30
0.0
 11
891.9705892765232
 21
1420.494269174596
 31
0.0
  0
LINE
  5
18D46
330
18C7A
100
AcDbEntity
  8
部品1
100
AcDbLine
 10
3411.97058927652
 20
3182.494269174477
 30
0.0
 11
3411.970589276523
 21
3154.494269174477
 31
0.0
  0
LINE
  5
18D47
330
18C7A
100
AcDbEntity
  8
部品1
100
AcDbLine
 10
2571.97058927652
 20
3182.494269174477
 30
0.0
 11
2571.970589276523
 21
3154.494269174477
 31
0.0
  0
LINE
  5
18D48
330
18C7A
100
AcDbEntity
  8
部品1
100
AcDbLine
 10
2991.97058927652
 20
3182.494269174477
 30
0.0
 11
2991.970589276523
 21
3154.494269174477
 31
0.0
  0
LINE
  5
18D49
330
18C7A
100
AcDbEntity
  8
部品1
100
AcDbLine
 10
2151.970589276519
 20
3182.494269174477
 30
0.0
 11
2151.970589276523
 21
3154.494269174477
 31
0.0
  0
LINE
  5
18D4A
330
18C7A
100
AcDbEntity
  8
部品1
100
AcDbLine
 10
1731.970589276519
 20
3182.494269174477
 30
0.0
 11
1731.970589276523
 21
3154.494269174477
 31
0.0
  0
LINE
  5
18D4B
330
18C7A
100
AcDbEntity
  8
部品1
100
AcDbLine
 10
1311.970589276519
 20
3182.494269174477
 30
0.0
 11
1311.970589276523
 21
3154.494269174477
 31
0.0
  0
LINE
  5
18D4C
330
18C7A
100
AcDbEntity
  8
部品1
100
AcDbLine
 10
891.9705892765195
 20
3182.494269174477
 30
0.0
 11
891.9705892765232
 21
3154.494269174477
 31
0.0
  0
LINE
  5
18D4D
330
18C7A
100
AcDbEntity
  8
部品1
100
AcDbLine
 10
471.9705892765232
 20
1392.494269174596
 30
0.0
 11
471.9705892765232
 21
1420.494269174596
 31
0.0
  0
LINE
  5
18D4E
330
18C7A
100
AcDbEntity
  8
部品1
100
AcDbLine
 10
444.9705892765305
 20
1420.494269174558
 30
0.0
 11
3858.970589276556
 21
1420.494269174596
 31
0.0
  0
LINE
  5
18D4F
330
18C7A
100
AcDbEntity
  8
部品1
100
AcDbLine
 10
3831.970589276556
 20
1392.494269174596
 30
0.0
 11
3831.970589276556
 21
1420.494269174596
 31
0.0
  0
LINE
  5
18D50
330
18C7A
100
AcDbEntity
  8
部品1
100
AcDbLine
 10
3858.970589276556
 20
1447.494269174593
 30
0.0
 11
3886.970589276556
 21
1447.494269174593
 31
0.0
  0
LINE
  5
18D51
330
18C7A
100
AcDbEntity
  8
部品1
100
AcDbLine
 10
3858.970589276556
 20
1867.494269174607
 30
0.0
 11
3886.970589276556
 21
1867.494269174607
 31
0.0
  0
LINE
  5
18D52
330
18C7A
100
AcDbEntity
  8
部品1
100
AcDbLine
 10
444.9705892765305
 20
1867.49426917448
 30
0.0
 11
416.9705892765305
 21
1867.49426917448
 31
0.0
  0
LINE
  5
18D53
330
18C7A
100
AcDbEntity
  8
部品1
100
AcDbLine
 10
3830.470589276541
 20
1867.49426917458
 30
0.0
 11
473.4705892765396
 21
1867.49426917448
 31
0.0
  0
LINE
  5
18D54
330
18C7A
100
AcDbEntity
  8
部品1
100
AcDbLine
 10
3830.470589276541
 20
2287.49426917458
 30
0.0
 11
473.4705892765396
 21
2287.49426917448
 31
0.0
  0
LINE
  5
18D55
330
18C7A
100
AcDbEntity
  8
部品1
100
AcDbLine
 10
444.9705892765305
 20
2287.49426917448
 30
0.0
 11
416.9705892765305
 21
2287.49426917448
 31
0.0
  0
LINE
  5
18D56
330
18C7A
100
AcDbEntity
  8
部品1
100
AcDbLine
 10
3858.970589276556
 20
2287.494269174608
 30
0.0
 11
3886.970589276556
 21
2287.494269174608
 31
0.0
  0
LINE
  5
18D57
330
18C7A
100
AcDbEntity
  8
部品1
 48
50.0
100
AcDbLine
 10
2151.970589276551
 20
2702.494269174586
 30
0.0
 11
2151.970589276581
 21
1448.994269174494
 31
0.0
  0
LINE
  5
18D58
330
18C7A
100
AcDbEntity
  8
破線
 48
10.0
100
AcDbLine
 10
2959.470589276535
 20
1472.494269174522
 30
0.0
 11
2176.970589276532
 21
1472.494269174505
 31
0.0
  0
LINE
  5
18D59
330
18C7A
100
AcDbEntity
  8
破線
 48
10.0
100
AcDbLine
 10
3009.47058927653
 20
1448.994269174509
 30
0.0
 11
3009.47058927653
 21
2702.494269174615
 31
0.0
  0
LINE
  5
18D5A
330
18C7A
100
AcDbEntity
  8
破線
 48
10.0
100
AcDbLine
 10
2959.470589276535
 20
1448.994269174505
 30
0.0
 11
2959.470589276531
 21
2702.494269174615
 31
0.0
  0
LINE
  5
18D5B
330
18C7A
100
AcDbEntity
  8
破線
 48
10.0
100
AcDbLine
 10
1344.47058927653
 20
1448.994269174509
 30
0.0
 11
1344.47058927653
 21
2702.494269174615
 31
0.0
  0
LINE
  5
18D5C
330
18C7A
100
AcDbEntity
  8
破線
 48
10.0
100
AcDbLine
 10
1294.470589276534
 20
1448.994269174505
 30
0.0
 11
1294.47058927653
 21
2702.494269174615
 31
0.0
  0
DIMENSION
  5
18D5D
330
18C7A
100
AcDbEntity
  8
寸法
100
AcDbDimension
  2
*D13
 10
1451.234916278005
 20
2488.887829538828
 30
0.0
 11
916.0604668248634
 21
2488.887829538828
 31
0.0
 12
-3742.925985830444
 22
-6453.628869860112
 32
0.0
 70
   128
 71
     5
 42
1062.99999999993
  3
INABA_S40G
100
AcDbAlignedDimension
 13
445.4705892765559
 23
2702.494269174505
 33
0.0
 14
1508.470589276486
 24
2702.494269174558
 34
0.0
100
AcDbRotatedDimension
1001
ACAD
1000
DSTYLE
1002
{
1002
}
  0
LINE
  5
18D5E
330
18C7A
100
AcDbEntity
  8
破線
 48
10.0
100
AcDbLine
 10
1294.470589276534
 20
1472.494269174469
 30
0.0
 11
496.9705892765414
 21
1472.494269174476
 31
0.0
  0
LINE
  5
18D5F
330
18C7A
100
AcDbEntity
  8
部品1
100
AcDbLine
 10
3831.970589276556
 20
3182.494269174604
 30
0.0
 11
3831.970589276556
 21
3154.494269174604
 31
0.0
  0
LINE
  5
18D60
330
18C7A
100
AcDbEntity
  8
部品1
100
AcDbLine
 10
3831.970589276556
 20
3182.494269174626
 30
0.0
 11
3831.970589276556
 21
3154.494269174626
 31
0.0
  0
LINE
  5
18D61
330
18C7A
100
AcDbEntity
  8
部品1
100
AcDbLine
 10
3858.970589276556
 20
3127.494269174607
 30
0.0
 11
3886.970589276556
 21
3127.494269174607
 31
0.0
  0
LINE
  5
18D62
330
18C7A
100
AcDbEntity
  8
部品1
100
AcDbLine
 10
3858.970589276556
 20
2707.494269174608
 30
0.0
 11
3886.970589276556
 21
2707.494269174608
 31
0.0
  0
LINE
  5
18D63
330
18C7A
100
AcDbEntity
  8
部品1
100
AcDbLine
 10
3858.470589276556
 20
3152.494269174604
 30
0.0
 11
3858.470589276556
 21
2702.494269174608
 31
0.0
  0
LINE
  5
18D64
330
18C7A
100
AcDbEntity
  8
部品1
100
AcDbLine
 10
3886.970589276533
 20
1447.494269174593
 30
0.0
 11
3886.970589276531
 21
1392.494269174596
 31
0.0
  0
LINE
  5
18D65
330
18C7A
100
AcDbEntity
  8
部品1
 48
50.0
100
AcDbLine
 10
3830.470589276556
 20
1448.994269174596
 30
0.0
 11
3858.970589276554
 21
1420.494269174596
 31
0.0
  0
LINE
  5
18D66
330
18C7A
100
AcDbEntity
  8
部品1
100
AcDbLine
 10
3886.970589276531
 20
1392.494269174596
 30
0.0
 11
3835.970589276531
 21
1392.494269174596
 31
0.0
  0
LINE
  5
18D67
330
18C7A
100
AcDbEntity
  8
部品1
100
AcDbLine
 10
3858.970589276533
 20
1447.494269174593
 30
0.0
 11
3886.970589276531
 21
1447.494269174593
 31
0.0
  0
LINE
  5
18D68
330
18C7A
100
AcDbEntity
  8
部品1
100
AcDbLine
 10
3886.970589276556
 20
3182.494269174604
 30
0.0
 11
3886.970589276531
 21
1392.494269174596
 31
0.0
  0
DIMENSION
  5
18D69
330
18C7A
100
AcDbEntity
  8
寸法
100
AcDbDimension
  2
*D12
 10
4534.396935010967
 20
1447.494269174593
 30
0.0
 11
4534.396935010965
 21
2287.4942691746
 31
0.0
 12
-3742.925985830444
 22
-6453.628869860112
 32
0.0
 70
   128
  1
4X420=<>
 71
     5
 42
1680.000000000014
  3
INABA_S40G
100
AcDbAlignedDimension
 13
3886.970589276556
 23
3127.494269174607
 33
0.0
 14
3886.970589276531
 24
1447.494269174593
 34
0.0
 50
90.0
100
AcDbRotatedDimension
1001
ACAD
1000
DSTYLE
1002
{
1002
}
  0
LINE
  5
18D6A
330
18C7A
100
AcDbEntity
  8
部品1
100
AcDbLine
 10
3858.970589276556
 20
3154.494269174604
 30
0.0
 11
3858.970589276534
 21
1420.494269174596
 31
0.0
  0
DIMENSION
  5
18D6B
330
18C7A
100
AcDbEntity
  8
寸法
100
AcDbDimension
  2
*D11
 10
4213.82831513858
 20
2607.276453505718
 30
0.0
 11
4113.828315138579
 21
2832.276453505718
 31
0.0
 12
-3742.925985830444
 22
-6453.628869860112
 32
0.0
 71
     5
 42
449.9999999999963
  3
INABA_S40G
100
AcDbAlignedDimension
 13
3858.470589276556
 23
3152.494269174604
 33
0.0
 14
3858.470589276556
 24
2702.494269174608
 34
0.0
 50
90.0
100
AcDbRotatedDimension
1001
ACAD
1000
DSTYLE
1002
{
1002
}
  0
LINE
  5
18D6C
330
18C7A
100
AcDbEntity
  8
部品1
100
AcDbLine
 10
3830.470589276547
 20
2702.494269174608
 30
0.0
 11
3830.470589276556
 21
1448.994269174596
 31
0.0
  0
LINE
  5
18D6D
330
18C7A
100
AcDbEntity
  8
破線
 48
10.0
100
AcDbLine
 10
3806.970589276549
 20
2702.494269174608
 30
0.0
 11
3806.970589276558
 21
1472.494269174593
 31
0.0
  0
LINE
  5
18D6E
330
18C7A
100
AcDbEntity
  8
部品1
100
AcDbLine
 10
2769.470589276556
 20
3146.494269174608
 30
0.0
 11
2794.470589276556
 21
3146.494269174611
 31
0.0
  0
LINE
  5
18D6F
330
18C7A
100
AcDbEntity
  8
部品1
100
AcDbLine
 10
2810.970589276556
 20
3172.494269174611
 30
0.0
 11
2816.970589276556
 21
3172.494269174611
 31
0.0
  0
LINE
  5
18D70
330
18C7A
100
AcDbEntity
  8
部品1
100
AcDbLine
 10
2816.970589276556
 20
3172.494269174611
 30
0.0
 11
2816.970589276556
 21
3154.494269174611
 31
0.0
  0
LINE
  5
18D71
330
18C7A
100
AcDbEntity
  8
部品1
100
AcDbLine
 10
2746.970589276556
 20
3172.494269174611
 30
0.0
 11
2752.970589276556
 21
3172.494269174611
 31
0.0
  0
LINE
  5
18D72
330
18C7A
100
AcDbEntity
  8
部品1
100
AcDbLine
 10
2746.970589276556
 20
3172.494269174611
 30
0.0
 11
2746.970589276556
 21
3154.494269174611
 31
0.0
  0
LINE
  5
18D73
330
18C7A
100
AcDbEntity
  8
部品1
100
AcDbLine
 10
2769.470589276556
 20
2702.494269174615
 30
0.0
 11
2794.470589276556
 21
2702.494269174615
 31
0.0
  0
LINE
  5
18D74
330
18C7A
100
AcDbEntity
  8
部品1
 48
50.0
100
AcDbLine
 10
2794.470589276556
 20
3154.494269174615
 30
0.0
 11
2794.470589276556
 21
2702.494269174615
 31
0.0
  0
LINE
  5
18D75
330
18C7A
100
AcDbEntity
  8
部品1
 48
50.0
100
AcDbLine
 10
2769.470589276554
 20
3154.494269174618
 30
0.0
 11
2769.470589276556
 21
2702.494269174615
 31
0.0
  0
LINE
  5
18D76
330
18C7A
100
AcDbEntity
  8
部品1
 48
50.0
100
AcDbLine
 10
2795.470589276556
 20
3152.494269174607
 30
0.0
 11
2795.470589276556
 21
2702.494269174615
 31
0.0
  0
LINE
  5
18D77
330
18C7A
100
AcDbEntity
  8
部品1
 48
50.0
100
AcDbLine
 10
2767.470589276556
 20
3152.494269174611
 30
0.0
 11
2767.470589276556
 21
2702.494269174615
 31
0.0
  0
LINE
  5
18D78
330
18C7A
100
AcDbEntity
  8
破線
 48
10.0
100
AcDbLine
 10
2176.97058927653
 20
1448.994269174509
 30
0.0
 11
2176.97058927653
 21
2702.494269174588
 31
0.0
  0
LINE
  5
18D79
330
18C7A
100
AcDbEntity
  8
破線
 48
10.0
100
AcDbLine
 10
2126.970589276534
 20
1448.994269174505
 30
0.0
 11
2126.970589276531
 21
2702.494269174586
 31
0.0
  0
LINE
  5
18D7A
330
18C7A
100
AcDbEntity
  8
部品1
100
AcDbLine
 10
2794.470589276556
 20
3154.494269174622
 30
0.0
 11
3858.970589276556
 21
3154.494269174604
 31
0.0
  0
LINE
  5
18D7B
330
18C7A
100
AcDbEntity
  8
細線
 48
50.0
100
AcDbLine
 10
3858.470589276556
 20
2702.494269174608
 30
0.0
 11
2795.470589276556
 21
3152.494269174607
 31
0.0
  0
LINE
  5
18D7C
330
18C7A
100
AcDbEntity
  8
部品1
100
AcDbLine
 10
2795.470589276555
 20
2702.494269174615
 30
0.0
 11
3858.470589276556
 21
2702.494269174608
 31
0.0
  0
LINE
  5
18D7D
330
18C7A
100
AcDbEntity
  8
部品1
100
AcDbLine
 10
2795.470589276556
 20
3152.494269174611
 30
0.0
 11
3858.470589276556
 21
3152.494269174604
 31
0.0
  0
LINE
  5
18D7E
330
18C7A
100
AcDbEntity
  8
細線
 48
50.0
100
AcDbLine
 10
3858.470589276556
 20
3152.494269174604
 30
0.0
 11
2795.470589276555
 21
2702.494269174615
 31
0.0
  0
DIMENSION
  5
18D7F
330
18C7A
100
AcDbEntity
  8
寸法
100
AcDbDimension
  2
*D10
 10
3801.234916278101
 20
2488.887829538937
 30
0.0
 11
3318.360544398907
 21
2488.887829538937
 31
0.0
 12
-3742.925985830444
 22
-6453.628869860112
 32
0.0
 70
   128
 71
     5
 42
1063.000000000012
  3
INABA_S40G
100
AcDbAlignedDimension
 13
2795.470589276555
 23
2702.494269174615
 33
0.0
 14
3858.470589276567
 24
2702.494269174608
 34
0.0
100
AcDbRotatedDimension
1001
ACAD
1000
DSTYLE
1002
{
1002
}
  0
LINE
  5
18D80
330
18C7A
100
AcDbEntity
  8
破線
 48
10.0
100
AcDbLine
 10
3806.970589276556
 20
1472.494269174594
 30
0.0
 11
3009.47058927653
 21
1472.494269174523
 31
0.0
  0
DIMENSION
  5
18D81
330
18C7A
100
AcDbEntity
  8
寸法
100
AcDbDimension
  2
*D9
 10
4534.396935010941
 20
1392.494269174596
 30
0.0
 11
4534.39693501094
 21
1084.008987800356
 31
0.0
 12
-3742.925985830444
 22
-6453.628869860112
 32
0.0
 70
   128
 71
     5
 42
54.99999999999636
  3
INABA_S40G
100
AcDbAlignedDimension
 13
3886.970589276531
 23
1447.494269174593
 33
0.0
 14
3886.970589276531
 24
1392.494269174596
 34
0.0
 50
90.0
100
AcDbRotatedDimension
1001
ACAD
1000
DSTYLE
1002
{
1002
}
  0
LINE
  5
18D82
330
18C7A
100
AcDbEntity
  8
部品1
100
AcDbLine
 10
471.9705892765196
 20
3182.494269174477
 30
0.0
 11
471.9705892765232
 21
3154.494269174477
 31
0.0
  0
LINE
  5
18D83
330
18C7A
100
AcDbEntity
  8
部品1
100
AcDbLine
 10
471.9705892765559
 20
3182.494269174509
 30
0.0
 11
471.9705892765559
 21
3154.494269174509
 31
0.0
  0
LINE
  5
18D84
330
18C7A
100
AcDbEntity
  8
部品1
100
AcDbLine
 10
444.9705892765232
 20
3127.49426917448
 30
0.0
 11
416.9705892765232
 21
3127.49426917448
 31
0.0
  0
LINE
  5
18D85
330
18C7A
100
AcDbEntity
  8
部品1
100
AcDbLine
 10
444.9705892765305
 20
2707.49426917448
 30
0.0
 11
416.9705892765305
 21
2707.49426917448
 31
0.0
  0
LINE
  5
18D86
330
18C7A
100
AcDbEntity
  8
部品1
 48
50.0
100
AcDbLine
 10
445.4705892765542
 20
3152.494269174506
 30
0.0
 11
445.4705892765559
 21
2702.494269174505
 31
0.0
  0
LINE
  5
18D87
330
18C7A
100
AcDbEntity
  8
部品1
 48
50.0
100
AcDbLine
 10
473.470589276545
 20
1448.994269174573
 30
0.0
 11
444.970589276545
 21
1420.494269174574
 31
0.0
  0
LINE
  5
18D88
330
18C7A
100
AcDbEntity
  8
部品1
100
AcDbLine
 10
471.9705892765232
 20
1392.494269174465
 30
0.0
 11
416.9705892765486
 21
1392.494269174465
 31
0.0
  0
LINE
  5
18D89
330
18C7A
100
AcDbEntity
  8
部品1
100
AcDbLine
 10
444.9705892765305
 20
1447.494269174429
 30
0.0
 11
416.9705892765469
 21
1447.494269174429
 31
0.0
  0
LINE
  5
18D8A
330
18C7A
100
AcDbEntity
  8
部品1
100
AcDbLine
 10
444.9705892765305
 20
1447.494269174465
 30
0.0
 11
416.9705892765469
 21
1447.494269174465
 31
0.0
  0
LINE
  5
18D8B
330
18C7A
100
AcDbEntity
  8
部品1
100
AcDbLine
 10
444.9705892765469
 20
1447.49426917448
 30
0.0
 11
416.9705892765469
 21
1447.49426917448
 31
0.0
  0
LINE
  5
18D8C
330
18C7A
100
AcDbEntity
  8
部品1
100
AcDbLine
 10
416.9705892765469
 20
1447.494269174429
 30
0.0
 11
416.9705892765486
 21
1392.494269174433
 31
0.0
  0
LINE
  5
18D8D
330
18C7A
100
AcDbEntity
  8
部品1
100
AcDbLine
 10
416.9705892765196
 20
3182.494269174477
 30
0.0
 11
416.9705892765486
 21
1392.494269174465
 31
0.0
  0
LINE
  5
18D8E
330
18C7A
100
AcDbEntity
  8
部品1
100
AcDbLine
 10
444.9705892765305
 20
1420.494269174556
 30
0.0
 11
444.9705892765559
 21
3154.494269174509
 31
0.0
  0
LINE
  5
18D8F
330
18C7A
100
AcDbEntity
  8
部品1
100
AcDbLine
 10
473.4705892765323
 20
2702.494269174608
 30
0.0
 11
473.470589276545
 21
1448.994269174571
 31
0.0
  0
LINE
  5
18D90
330
18C7A
100
AcDbEntity
  8
破線
 48
10.0
100
AcDbLine
 10
496.9705892765305
 20
2702.494269174608
 30
0.0
 11
496.9705892765451
 21
1472.494269174476
 31
0.0
  0
DIMENSION
  5
18D91
330
18C7A
100
AcDbEntity
  8
寸法
100
AcDbDimension
  2
*D8
 10
3886.970589276531
 20
410.7433333855515
 30
0.0
 11
2168.197775309287
 21
410.7433333855515
 31
0.0
 12
-3742.925985830444
 22
-6453.628869860112
 32
0.0
 70
   128
 71
     5
 42
3469.999999999982
  3
INABA_S40G
100
AcDbAlignedDimension
 13
416.9705892765486
 23
1392.494269174433
 33
0.0
 14
3886.970589276531
 24
1392.49426917456
 34
0.0
100
AcDbRotatedDimension
1001
ACAD
1000
DSTYLE
1002
{
1070
   341
1005
0
1002
}
  0
LINE
  5
18D92
330
18C7A
100
AcDbEntity
  8
部品1
100
AcDbLine
 10
444.9705892765559
 20
3154.494269174624
 30
0.0
 11
1509.470589276487
 21
3154.494269174626
 31
0.0
  0
LINE
  5
18D93
330
18C7A
100
AcDbEntity
  8
部品1
100
AcDbLine
 10
3886.970589276531
 20
1392.494269174596
 30
0.0
 11
3411.970589276556
 21
1392.494269174582
 31
0.0
  0
LINE
  5
18D94
330
18C7A
100
AcDbEntity
  8
部品1
100
AcDbLine
 10
416.9705892765559
 20
3182.494269174509
 30
0.0
 11
3886.970589276556
 21
3182.494269174604
 31
0.0
  0
LINE
  5
18D95
330
18C7A
100
AcDbEntity
  8
部品1
100
AcDbLine
 10
445.4705892765559
 20
2702.494269174509
 30
0.0
 11
1508.470589276487
 21
2702.494269174558
 31
0.0
  0
LINE
  5
18D96
330
18C7A
100
AcDbEntity
  8
細線
 48
50.0
100
AcDbLine
 10
2767.470589276556
 20
3152.494269174611
 30
0.0
 11
1536.470589276487
 21
2702.494269174558
 31
0.0
  0
LINE
  5
18D97
330
18C7A
100
AcDbEntity
  8
部品1
100
AcDbLine
 10
445.4705892765542
 20
3152.494269174509
 30
0.0
 11
1508.470589276485
 21
3152.494269174558
 31
0.0
  0
LINE
  5
18D98
330
18C7A
100
AcDbEntity
  8
細線
 48
50.0
100
AcDbLine
 10
2767.470589276554
 20
2702.494269174615
 30
0.0
 11
1536.470589276485
 21
3152.494269174558
 31
0.0
  0
LINE
  5
18D99
330
18C7A
100
AcDbEntity
  8
破線
 48
10.0
100
AcDbLine
 10
2126.970589276534
 20
1472.494269174502
 30
0.0
 11
1344.47058927653
 21
1472.494269174473
 31
0.0
  0
LINE
  5
18D9A
330
18C7A
100
AcDbEntity
  8
部品1
100
AcDbLine
 10
3830.470589276556
 20
1448.994269174596
 30
0.0
 11
473.4705892764487
 21
1448.994269174476
 31
0.0
  0
DIMENSION
  5
18D9B
330
18C7A
100
AcDbEntity
  8
寸法
100
AcDbDimension
  2
*D7
 10
471.970589276555
 20
3698.302488799491
 30
0.0
 11
108.4853079022819
 21
3698.302488799491
 31
0.0
 12
-3742.925985830444
 22
-6453.628869860112
 32
0.0
 70
   128
 71
     5
 42
55.00000000003456
  3
INABA_S40G
100
AcDbAlignedDimension
 13
416.9705892765205
 23
3182.494269174509
 33
0.0
 14
471.970589276555
 24
3182.494269174509
 34
0.0
100
AcDbRotatedDimension
1001
ACAD
1000
DSTYLE
1002
{
1002
}
  0
DIMENSION
  5
18D9C
330
18C7A
100
AcDbEntity
  8
寸法
100
AcDbDimension
  2
*D6
 10
4534.396935010967
 20
3127.494269174607
 30
0.0
 11
4534.396935010965
 21
3490.979550548844
 31
0.0
 12
-3742.925985830444
 22
-6453.628869860112
 32
0.0
 70
   128
 71
     5
 42
54.99999999999636
  3
INABA_S40G
100
AcDbAlignedDimension
 13
3886.970589276556
 23
3182.494269174604
 33
0.0
 14
3886.970589276556
 24
3127.494269174607
 34
0.0
 50
90.0
100
AcDbRotatedDimension
1001
ACAD
1000
DSTYLE
1002
{
1002
}
  0
DIMENSION
  5
18D9D
330
18C7A
100
AcDbEntity
  8
寸法
100
AcDbDimension
  2
*D5
 10
3886.970589276556
 20
3698.302488799589
 30
0.0
 11
4195.455870650794
 21
3698.302488799589
 31
0.0
 12
-3742.925985830444
 22
-6453.628869860112
 32
0.0
 70
   128
 71
     5
 42
55.0
  3
INABA_S40G
100
AcDbAlignedDimension
 13
3831.970589276556
 23
3182.494269174604
 33
0.0
 14
3886.970589276556
 24
3182.494269174604
 34
0.0
100
AcDbRotatedDimension
1001
ACAD
1000
DSTYLE
1002
{
1002
}
  0
DIMENSION
  5
18D9E
330
18C7A
100
AcDbEntity
  8
寸法
100
AcDbDimension
  2
*D4
 10
3831.970589276556
 20
3698.302488799607
 30
0.0
 11
2151.970589276555
 21
3698.302488799607
 31
0.0
 12
-3742.925985830444
 22
-6453.628869860112
 32
0.0
 70
   128
  1
8X420=<>
 71
     5
 42
3360.000000000001
  3
INABA_S40G
100
AcDbAlignedDimension
 13
471.970589276555
 23
3182.494269174509
 33
0.0
 14
3831.970589276556
 24
3182.494269174604
 34
0.0
100
AcDbRotatedDimension
1001
ACAD
1000
DSTYLE
1002
{
1002
}
  0
DIMENSION
  5
18D9F
330
18C7A
100
AcDbEntity
  8
寸法
100
AcDbDimension
  2
*D3
 10
4899.503876750603
 20
1392.494269174596
 30
0.0
 11
4899.503876750601
 21
2287.4942691746
 31
0.0
 12
-3742.925985830444
 22
-6453.628869860112
 32
0.0
 70
   128
 71
     5
 42
1790.000000000007
  3
INABA_S40G
100
AcDbAlignedDimension
 13
3886.970589276556
 23
3182.494269174604
 33
0.0
 14
3886.970589276531
 24
1392.494269174596
 34
0.0
 50
90.0
100
AcDbRotatedDimension
1001
ACAD
1000
DSTYLE
1002
{
1002
}
  0
ENDBLK
  5
18DA1
330
18C7A
100
AcDbEntity
  8
0
 48
50.0
100
AcDbBlockEnd
  0
BLOCK
  5
1C4CB
330
1C4CA
100
AcDbEntity
  8
0
 48
50.0
100
AcDbBlockBegin
  2
_NONE
 70
     0
 10
0.0
 20
0.0
 30
0.0
  3
_NONE
  1

  0
CIRCLE
  5
1C4CC
330
1C4CA
100
AcDbEntity
  8
0
  6
ByBlock
 62
     0
 48
50.0
100
AcDbCircle
 10
0.0
 20
0.0
 30
0.0
 40
0.25
  0
ENDBLK
  5
1C4CD
330
1C4CA
100
AcDbEntity
  8
0
 48
50.0
100
AcDbBlockEnd
  0
BLOCK
  5
1F69F
330
1F695
100
AcDbEntity
  8
0
 48
50.0
100
AcDbBlockBegin
  2
*D19
 70
     1
 10
0.0
 20
0.0
 30
0.0
  3
*D19
  1

  0
LINE
  5
1FFD9
330
1F695
100
AcDbEntity
  8
寸法
 62
     0
 48
50.0
370
    -2
100
AcDbLine
 10
4927.384058786208
 20
1255.020539289267
 30
0.0
 11
4802.211765039575
 21
1255.020539289267
 31
0.0
  0
LINE
  5
1FFDA
330
1F695
100
AcDbEntity
  8
寸法
 62
     0
 48
50.0
370
    -2
100
AcDbLine
 10
5026.386756954636
 20
775.0205392892675
 30
0.0
 11
4802.211765039575
 21
775.0205392892677
 31
0.0
  0
LINE
  5
1FFDB
330
1F695
100
AcDbEntity
  8
寸法
 62
     0
 48
50.0
370
    -2
100
AcDbLine
 10
4862.211765039575
 20
1255.020539289267
 30
0.0
 11
4862.211765039575
 21
775.0205392892677
 31
0.0
  0
INSERT
  5
1FFDC
330
1F695
100
AcDbEntity
  8
寸法
 62
     0
 48
50.0
370
    -2
100
AcDbBlockReference
  2
_DOTSMALL
 10
4862.211765039575
 20
1255.020539289267
 30
0.0
 41
100.0
 42
100.0
 43
100.0
 50
90.0
  0
INSERT
  5
1FFDD
330
1F695
100
AcDbEntity
  8
寸法
 62
     0
 48
50.0
370
    -2
100
AcDbBlockReference
  2
_DOTSMALL
 10
4862.211765039575
 20
775.0205392892677
 30
0.0
 41
100.0
 42
100.0
 43
100.0
 50
270.0
  0
MTEXT
  5
1FFDE
330
1F695
100
AcDbEntity
  8
寸法
 62
     7
 48
50.0
100
AcDbMText
 10
4762.199954015954
 20
1015.020539289268
 30
0.0
 40
120.0
 41
0.0
 71
     5
 72
     1
  1
\A1;200
  7
STYLE1
 11
0.0000000000000001
 21
1.0
 31
0.0
 73
     1
 44
1.0
1001
ACAD
1000
MTEXTBEGIN
1070
    73
1070
     1
1070
    44
1040
1.0
1070
    74
1070
     0
1000
MTEXTEND
  0
POINT
  5
1FFDF
330
1F695
100
AcDbEntity
  8
DEFPOINTS
 62
     0
 48
50.0
100
AcDbPoint
 10
4947.384058786208
 20
1255.020539289267
 30
0.0
  0
POINT
  5
1FFE0
330
1F695
100
AcDbEntity
  8
DEFPOINTS
 62
     0
 48
50.0
100
AcDbPoint
 10
5046.386756954635
 20
775.0205392892675
 30
0.0
  0
POINT
  5
1FFE1
330
1F695
100
AcDbEntity
  8
DEFPOINTS
 62
     0
 48
50.0
100
AcDbPoint
 10
4862.211765039575
 20
775.0205392892677
 30
0.0
  0
ENDBLK
  5
1F6A0
330
1F695
100
AcDbEntity
  8
0
 48
50.0
100
AcDbBlockEnd
  0
BLOCK
  5
1F6AB
330
1F6A1
100
AcDbEntity
  8
0
 48
50.0
100
AcDbBlockBegin
  2
*D20
 70
     1
 10
0.0
 20
0.0
 30
0.0
  3
*D20
  1

  0
LINE
  5
1FFD0
330
1F6A1
100
AcDbEntity
  8
寸法
 62
     0
 48
50.0
370
    -2
100
AcDbLine
 10
8508.393658689998
 20
1647.854386431425
 30
0.0
 11
9087.802552640681
 21
1647.854386431425
 31
0.0
  0
LINE
  5
1FFD1
330
1F6A1
100
AcDbEntity
  8
寸法
 62
     0
 48
50.0
370
    -2
100
AcDbLine
 10
8828.304785162265
 20
1407.854386431425
 30
0.0
 11
9087.802552640681
 21
1407.854386431425
 31
0.0
  0
LINE
  5
1FFD2
330
1F6A1
100
AcDbEntity
  8
寸法
 62
     0
 48
50.0
370
    -2
100
AcDbLine
 10
9027.802552640682
 20
1647.854386431425
 30
0.0
 11
9027.802552640682
 21
1407.854386431425
 31
0.0
  0
INSERT
  5
1FFD3
330
1F6A1
100
AcDbEntity
  8
寸法
 62
     0
 48
50.0
370
    -2
100
AcDbBlockReference
  2
_DOTSMALL
 10
9027.802552640682
 20
1647.854386431425
 30
0.0
 41
100.0
 42
100.0
 43
100.0
 50
90.0
  0
INSERT
  5
1FFD4
330
1F6A1
100
AcDbEntity
  8
寸法
 62
     0
 48
50.0
370
    -2
100
AcDbBlockReference
  2
_DOTSMALL
 10
9027.802552640682
 20
1407.854386431425
 30
0.0
 41
100.0
 42
100.0
 43
100.0
 50
270.0
  0
MTEXT
  5
1FFD5
330
1F6A1
100
AcDbEntity
  8
寸法
 62
     7
 48
50.0
100
AcDbMText
 10
8927.802552640683
 20
1527.854386431426
 30
0.0
 40
120.0
 41
0.0
 71
     5
 72
     1
  1
\A1;b
  7
STYLE1
 11
0.0000000000000001
 21
1.0
 31
0.0
 73
     1
 44
1.0
1001
ACAD
1000
MTEXTBEGIN
1070
    73
1070
     1
1070
    44
1040
1.0
1070
    74
1070
     0
1000
MTEXTEND
  0
POINT
  5
1FFD6
330
1F6A1
100
AcDbEntity
  8
DEFPOINTS
 62
     0
 48
50.0
100
AcDbPoint
 10
8488.393658689998
 20
1647.854386431425
 30
0.0
  0
POINT
  5
1FFD7
330
1F6A1
100
AcDbEntity
  8
DEFPOINTS
 62
     0
 48
50.0
100
AcDbPoint
 10
8808.304785162265
 20
1407.854386431425
 30
0.0
  0
POINT
  5
1FFD8
330
1F6A1
100
AcDbEntity
  8
DEFPOINTS
 62
     0
 48
50.0
100
AcDbPoint
 10
9027.802552640682
 20
1407.854386431425
 30
0.0
  0
ENDBLK
  5
1F6AC
330
1F6A1
100
AcDbEntity
  8
0
 48
50.0
100
AcDbBlockEnd
  0
BLOCK
  5
1F6B7
330
1F6AD
100
AcDbEntity
  8
0
 48
50.0
100
AcDbBlockBegin
  2
*D21
 70
     1
 10
0.0
 20
0.0
 30
0.0
  3
*D21
  1

  0
LINE
  5
1FFC7
330
1F6AD
100
AcDbEntity
  8
寸法
 62
     0
 48
50.0
370
    -2
100
AcDbLine
 10
10107.01649771589
 20
1033.055846637615
 30
0.0
 11
10349.58517520803
 21
1033.055846637615
 31
0.0
  0
LINE
  5
1FFC8
330
1F6AD
100
AcDbEntity
  8
寸法
 62
     0
 48
50.0
370
    -2
100
AcDbLine
 10
10107.01649771589
 20
1353.055846637615
 30
0.0
 11
10349.58517520803
 21
1353.055846637615
 31
0.0
  0
LINE
  5
1FFC9
330
1F6AD
100
AcDbEntity
  8
寸法
 62
     0
 48
50.0
370
    -2
100
AcDbLine
 10
10289.58517520803
 20
1033.055846637615
 30
0.0
 11
10289.58517520803
 21
1353.055846637615
 31
0.0
  0
INSERT
  5
1FFCA
330
1F6AD
100
AcDbEntity
  8
寸法
 62
     0
 48
50.0
370
    -2
100
AcDbBlockReference
  2
_DOTSMALL
 10
10289.58517520803
 20
1033.055846637615
 30
0.0
 41
100.0
 42
100.0
 43
100.0
 50
270.0
  0
INSERT
  5
1FFCB
330
1F6AD
100
AcDbEntity
  8
寸法
 62
     0
 48
50.0
370
    -2
100
AcDbBlockReference
  2
_DOTSMALL
 10
10289.58517520803
 20
1353.055846637615
 30
0.0
 41
100.0
 42
100.0
 43
100.0
 50
90.0
  0
MTEXT
  5
1FFCC
330
1F6AD
100
AcDbEntity
  8
寸法
 62
     7
 48
50.0
100
AcDbMText
 10
10189.57336418441
 20
1193.055846637617
 30
0.0
 40
120.0
 41
0.0
 71
     5
 72
     1
  1
\A1;200
  7
STYLE1
 11
0.0000000000000001
 21
1.0
 31
0.0
 73
     1
 44
1.0
1001
ACAD
1000
MTEXTBEGIN
1070
    73
1070
     1
1070
    44
1040
1.0
1070
    74
1070
     0
1000
MTEXTEND
  0
POINT
  5
1FFCD
330
1F6AD
100
AcDbEntity
  8
DEFPOINTS
 62
     0
 48
50.0
100
AcDbPoint
 10
10087.01649771589
 20
1033.055846637615
 30
0.0
  0
POINT
  5
1FFCE
330
1F6AD
100
AcDbEntity
  8
DEFPOINTS
 62
     0
 48
50.0
100
AcDbPoint
 10
10087.01649771589
 20
1353.055846637615
 30
0.0
  0
POINT
  5
1FFCF
330
1F6AD
100
AcDbEntity
  8
DEFPOINTS
 62
     0
 48
50.0
100
AcDbPoint
 10
10289.58517520803
 20
1353.055846637615
 30
0.0
  0
ENDBLK
  5
1F6B8
330
1F6AD
100
AcDbEntity
  8
0
 48
50.0
100
AcDbBlockEnd
  0
BLOCK
  5
1F6C2
330
1F6B9
100
AcDbEntity
  8
0
 48
50.0
100
AcDbBlockBegin
  2
*D22
 70
     1
 10
0.0
 20
0.0
 30
0.0
  3
*D22
  1

  0
LINE
  5
20447
330
1F6B9
100
AcDbEntity
  8
寸法
 62
     0
 48
50.0
370
    -2
100
AcDbLine
 10
8223.600000000001
 20
8350.581353077208
 30
0.0
 11
8223.600000000001
 21
8936.593912720347
 31
0.0
  0
LINE
  5
20448
330
1F6B9
100
AcDbEntity
  8
寸法
 62
     0
 48
50.0
370
    -2
100
AcDbLine
 10
6412.600000000001
 20
8350.581353077208
 30
0.0
 11
6412.600000000001
 21
8936.593912720347
 31
0.0
  0
LINE
  5
20449
330
1F6B9
100
AcDbEntity
  8
寸法
 62
     0
 48
50.0
370
    -2
100
AcDbLine
 10
8223.600000000001
 20
8876.593912720348
 30
0.0
 11
6412.600000000001
 21
8876.593912720348
 31
0.0
  0
INSERT
  5
2044A
330
1F6B9
100
AcDbEntity
  8
寸法
 62
     0
 48
50.0
370
    -2
100
AcDbBlockReference
  2
_DOTSMALL
 10
8223.600000000001
 20
8876.593912720348
 30
0.0
 41
100.0
 42
100.0
 43
100.0
  0
INSERT
  5
2044B
330
1F6B9
100
AcDbEntity
  8
寸法
 62
     0
 48
50.0
370
    -2
100
AcDbBlockReference
  2
_DOTSMALL
 10
6412.600000000001
 20
8876.593912720348
 30
0.0
 41
100.0
 42
100.0
 43
100.0
 50
180.0
  0
MTEXT
  5
2044C
330
1F6B9
100
AcDbEntity
  8
寸法
 62
     7
 48
50.0
100
AcDbMText
 10
7318.100000000001
 20
8976.593912720348
 30
0.0
 40
120.0
 41
0.0
 71
     5
 72
     1
  1
\A1;1811
  7
STYLE1
 73
     1
 44
1.0
1001
ACAD
1000
MTEXTBEGIN
1070
    73
1070
     1
1070
    44
1040
1.0
1070
    74
1070
     0
1000
MTEXTEND
  0
POINT
  5
2044D
330
1F6B9
100
AcDbEntity
  8
DEFPOINTS
 62
     0
 48
50.0
100
AcDbPoint
 10
8223.600000000001
 20
8330.581353077207
 30
0.0
  0
POINT
  5
2044E
330
1F6B9
100
AcDbEntity
  8
DEFPOINTS
 62
     0
 48
50.0
100
AcDbPoint
 10
6412.600000000001
 20
8330.581353077207
 30
0.0
  0
POINT
  5
2044F
330
1F6B9
100
AcDbEntity
  8
DEFPOINTS
 62
     0
 48
50.0
100
AcDbPoint
 10
6412.600000000001
 20
8876.593912720348
 30
0.0
  0
ENDBLK
  5
1F6C3
330
1F6B9
100
AcDbEntity
  8
0
 48
50.0
100
AcDbBlockEnd
  0
BLOCK
  5
1F6CC
330
1F6C4
100
AcDbEntity
  8
0
 48
50.0
100
AcDbBlockBegin
  2
*D23
 70
     1
 10
0.0
 20
0.0
 30
0.0
  3
*D23
  1

  0
LINE
  5
2043E
330
1F6C4
100
AcDbEntity
  8
寸法
 62
     0
 48
50.0
370
    -2
100
AcDbLine
 10
6412.600000000001
 20
8350.581353077208
 30
0.0
 11
6412.600000000001
 21
9182.993940748829
 31
0.0
  0
LINE
  5
2043F
330
1F6C4
100
AcDbEntity
  8
寸法
 62
     0
 48
50.0
370
    -2
100
AcDbLine
 10
10034.6
 20
8350.581353077208
 30
0.0
 11
10034.6
 21
9182.993940748829
 31
0.0
  0
LINE
  5
20440
330
1F6C4
100
AcDbEntity
  8
寸法
 62
     0
 48
50.0
370
    -2
100
AcDbLine
 10
6412.600000000001
 20
9122.993940748829
 30
0.0
 11
10034.6
 21
9122.993940748829
 31
0.0
  0
INSERT
  5
20441
330
1F6C4
100
AcDbEntity
  8
寸法
 62
     0
 48
50.0
370
    -2
100
AcDbBlockReference
  2
_DOTSMALL
 10
6412.600000000001
 20
9122.993940748829
 30
0.0
 41
100.0
 42
100.0
 43
100.0
 50
180.0
  0
INSERT
  5
20442
330
1F6C4
100
AcDbEntity
  8
寸法
 62
     0
 48
50.0
370
    -2
100
AcDbBlockReference
  2
_DOTSMALL
 10
10034.6
 20
9122.993940748829
 30
0.0
 41
100.0
 42
100.0
 43
100.0
  0
MTEXT
  5
20443
330
1F6C4
100
AcDbEntity
  8
寸法
 62
     7
 48
50.0
100
AcDbMText
 10
8223.600000000001
 20
9223.005751772451
 30
0.0
 40
120.0
 41
0.0
 71
     5
 72
     1
  1
\A1;3622
  7
STYLE1
 73
     1
 44
1.0
1001
ACAD
1000
MTEXTBEGIN
1070
    73
1070
     1
1070
    44
1040
1.0
1070
    74
1070
     0
1000
MTEXTEND
  0
POINT
  5
20444
330
1F6C4
100
AcDbEntity
  8
DEFPOINTS
 62
     0
 48
50.0
100
AcDbPoint
 10
6412.600000000001
 20
8330.581353077207
 30
0.0
  0
POINT
  5
20445
330
1F6C4
100
AcDbEntity
  8
DEFPOINTS
 62
     0
 48
50.0
100
AcDbPoint
 10
10034.6
 20
8330.581353077207
 30
0.0
  0
POINT
  5
20446
330
1F6C4
100
AcDbEntity
  8
DEFPOINTS
 62
     0
 48
50.0
100
AcDbPoint
 10
10034.6
 20
9122.993940748829
 30
0.0
  0
ENDBLK
  5
1F6CD
330
1F6C4
100
AcDbEntity
  8
0
 48
50.0
100
AcDbBlockEnd
  0
BLOCK
  5
1F6D8
330
1F6CE
100
AcDbEntity
  8
0
 48
50.0
100
AcDbBlockBegin
  2
*D24
 70
     1
 10
0.0
 20
0.0
 30
0.0
  3
*D24
  1

  0
LINE
  5
20435
330
1F6CE
100
AcDbEntity
  8
寸法
 62
     0
 48
50.0
370
    -2
100
AcDbLine
 10
6392.6
 20
8330.581353077207
 30
0.0
 11
5755.625098509068
 21
8330.581353077207
 31
0.0
  0
LINE
  5
20436
330
1F6CE
100
AcDbEntity
  8
寸法
 62
     0
 48
50.0
370
    -2
100
AcDbLine
 10
6392.6
 20
7424.581353077207
 30
0.0
 11
5755.625098509068
 21
7424.581353077208
 31
0.0
  0
LINE
  5
20437
330
1F6CE
100
AcDbEntity
  8
寸法
 62
     0
 48
50.0
370
    -2
100
AcDbLine
 10
5815.625098509069
 20
8330.581353077207
 30
0.0
 11
5815.625098509069
 21
7424.581353077208
 31
0.0
  0
INSERT
  5
20438
330
1F6CE
100
AcDbEntity
  8
寸法
 62
     0
 48
50.0
370
    -2
100
AcDbBlockReference
  2
_DOTSMALL
 10
5815.625098509069
 20
8330.581353077207
 30
0.0
 41
100.0
 42
100.0
 43
100.0
 50
90.0
  0
INSERT
  5
20439
330
1F6CE
100
AcDbEntity
  8
寸法
 62
     0
 48
50.0
370
    -2
100
AcDbBlockReference
  2
_DOTSMALL
 10
5815.625098509069
 20
7424.581353077208
 30
0.0
 41
100.0
 42
100.0
 43
100.0
 50
270.0
  0
MTEXT
  5
2043A
330
1F6CE
100
AcDbEntity
  8
寸法
 62
     7
 48
50.0
100
AcDbMText
 10
5715.625098509067
 20
7877.581353077208
 30
0.0
 40
120.0
 41
0.0
 71
     5
 72
     1
  1
\A1;906
  7
STYLE1
 11
0.0000000000000001
 21
1.0
 31
0.0
 73
     1
 44
1.0
1001
ACAD
1000
MTEXTBEGIN
1070
    73
1070
     1
1070
    44
1040
1.0
1070
    74
1070
     0
1000
MTEXTEND
  0
POINT
  5
2043B
330
1F6CE
100
AcDbEntity
  8
DEFPOINTS
 62
     0
 48
50.0
100
AcDbPoint
 10
6412.600000000001
 20
8330.581353077207
 30
0.0
  0
POINT
  5
2043C
330
1F6CE
100
AcDbEntity
  8
DEFPOINTS
 62
     0
 48
50.0
100
AcDbPoint
 10
6412.600000000001
 20
7424.581353077207
 30
0.0
  0
POINT
  5
2043D
330
1F6CE
100
AcDbEntity
  8
DEFPOINTS
 62
     0
 48
50.0
100
AcDbPoint
 10
5815.625098509069
 20
7424.581353077208
 30
0.0
  0
ENDBLK
  5
1F6D9
330
1F6CE
100
AcDbEntity
  8
0
 48
50.0
100
AcDbBlockEnd
  0
BLOCK
  5
1F6E3
330
1F6DA
100
AcDbEntity
  8
0
 48
50.0
100
AcDbBlockBegin
  2
*D25
 70
     1
 10
0.0
 20
0.0
 30
0.0
  3
*D25
  1

  0
LINE
  5
2042C
330
1F6DA
100
AcDbEntity
  8
寸法
 62
     0
 48
50.0
370
    -2
100
AcDbLine
 10
6392.6
 20
8330.581353077207
 30
0.0
 11
5496.125110886091
 21
8330.581353077207
 31
0.0
  0
LINE
  5
2042D
330
1F6DA
100
AcDbEntity
  8
寸法
 62
     0
 48
50.0
370
    -2
100
AcDbLine
 10
6392.6
 20
5678.581353077206
 30
0.0
 11
5496.12511088609
 21
5678.581353077207
 31
0.0
  0
LINE
  5
2042E
330
1F6DA
100
AcDbEntity
  8
寸法
 62
     0
 48
50.0
370
    -2
100
AcDbLine
 10
5556.125110886092
 20
8330.581353077207
 30
0.0
 11
5556.125110886091
 21
5678.581353077207
 31
0.0
  0
INSERT
  5
2042F
330
1F6DA
100
AcDbEntity
  8
寸法
 62
     0
 48
50.0
370
    -2
100
AcDbBlockReference
  2
_DOTSMALL
 10
5556.125110886092
 20
8330.581353077207
 30
0.0
 41
100.0
 42
100.0
 43
100.0
 50
90.0
  0
INSERT
  5
20430
330
1F6DA
100
AcDbEntity
  8
寸法
 62
     0
 48
50.0
370
    -2
100
AcDbBlockReference
  2
_DOTSMALL
 10
5556.125110886091
 20
5678.581353077207
 30
0.0
 41
100.0
 42
100.0
 43
100.0
 50
270.0
  0
MTEXT
  5
20431
330
1F6DA
100
AcDbEntity
  8
寸法
 62
     7
 48
50.0
100
AcDbMText
 10
5456.113299862468
 20
7004.581353077208
 30
0.0
 40
120.0
 41
0.0
 71
     5
 72
     1
  1
\A1;2652
  7
STYLE1
 11
0.0000000000000001
 21
1.0
 31
0.0
 73
     1
 44
1.0
1001
ACAD
1000
MTEXTBEGIN
1070
    73
1070
     1
1070
    44
1040
1.0
1070
    74
1070
     0
1000
MTEXTEND
  0
POINT
  5
20432
330
1F6DA
100
AcDbEntity
  8
DEFPOINTS
 62
     0
 48
50.0
100
AcDbPoint
 10
6412.600000000001
 20
8330.581353077207
 30
0.0
  0
POINT
  5
20433
330
1F6DA
100
AcDbEntity
  8
DEFPOINTS
 62
     0
 48
50.0
100
AcDbPoint
 10
6412.600000000001
 20
5678.581353077206
 30
0.0
  0
POINT
  5
20434
330
1F6DA
100
AcDbEntity
  8
DEFPOINTS
 62
     0
 48
50.0
100
AcDbPoint
 10
5556.125110886091
 20
5678.581353077207
 30
0.0
  0
ENDBLK
  5
1F6E4
330
1F6DA
100
AcDbEntity
  8
0
 48
50.0
100
AcDbBlockEnd
  0
BLOCK
  5
1F6ED
330
1F6E5
100
AcDbEntity
  8
0
 48
50.0
100
AcDbBlockBegin
  2
*D26
 70
     1
 10
0.0
 20
0.0
 30
0.0
  3
*D26
  1

  0
LINE
  5
20421
330
1F6E5
100
AcDbEntity
  8
寸法
 62
     0
 48
50.0
370
    -2
100
AcDbLine
 10
6392.6
 20
5678.581353077206
 30
0.0
 11
5496.12511088609
 21
5678.581353077207
 31
0.0
  0
LINE
  5
20422
330
1F6E5
100
AcDbEntity
  8
寸法
 62
     0
 48
50.0
370
    -2
100
AcDbLine
 10
6292.600000000001
 20
5578.581353077207
 30
0.0
 11
5496.12511088609
 21
5578.581353077208
 31
0.0
  0
LINE
  5
20423
330
1F6E5
100
AcDbEntity
  8
寸法
 62
     0
 48
50.0
370
    -2
100
AcDbLine
 10
5556.125110886091
 20
5678.581353077207
 30
0.0
 11
5556.125110886091
 21
5778.581353077207
 31
0.0
  0
LINE
  5
20424
330
1F6E5
100
AcDbEntity
  8
寸法
 62
     0
 48
50.0
370
    -2
100
AcDbLine
 10
5556.125110886091
 20
5578.581353077208
 30
0.0
 11
5556.125110886091
 21
5478.581353077207
 31
0.0
  0
LINE
  5
20425
330
1F6E5
100
AcDbEntity
  8
寸法
 62
     0
 48
50.0
370
    -2
100
AcDbLine
 10
5556.125110886091
 20
5678.581353077207
 30
0.0
 11
5556.125110886091
 21
5578.581353077208
 31
0.0
  0
INSERT
  5
20426
330
1F6E5
100
AcDbEntity
  8
寸法
 62
     0
 48
50.0
370
    -2
100
AcDbBlockReference
  2
_DOTSMALL
 10
5556.125110886091
 20
5678.581353077207
 30
0.0
 41
100.0
 42
100.0
 43
100.0
 50
270.0
  0
INSERT
  5
20427
330
1F6E5
100
AcDbEntity
  8
寸法
 62
     0
 48
50.0
370
    -2
100
AcDbBlockReference
  2
_DOTSMALL
 10
5556.125110886091
 20
5578.581353077208
 30
0.0
 41
100.0
 42
100.0
 43
100.0
 50
90.0
  0
MTEXT
  5
20428
330
1F6E5
100
AcDbEntity
  8
寸法
 62
     7
 48
50.0
100
AcDbMText
 10
5456.12511088609
 20
5628.581353077208
 30
0.0
 40
120.0
 41
0.0
 71
     5
 72
     1
  1
\A1;a
  7
STYLE1
 11
0.0000000000000001
 21
1.0
 31
0.0
 73
     1
 44
1.0
1001
ACAD
1000
MTEXTBEGIN
1070
    73
1070
     1
1070
    44
1040
1.0
1070
    74
1070
     0
1000
MTEXTEND
  0
POINT
  5
20429
330
1F6E5
100
AcDbEntity
  8
DEFPOINTS
 62
     0
 48
50.0
100
AcDbPoint
 10
6412.600000000001
 20
5678.581353077206
 30
0.0
  0
POINT
  5
2042A
330
1F6E5
100
AcDbEntity
  8
DEFPOINTS
 62
     0
 48
50.0
100
AcDbPoint
 10
6312.600000000001
 20
5578.581353077207
 30
0.0
  0
POINT
  5
2042B
330
1F6E5
100
AcDbEntity
  8
DEFPOINTS
 62
     0
 48
50.0
100
AcDbPoint
 10
5556.125110886091
 20
5578.581353077208
 30
0.0
  0
ENDBLK
  5
1F6EE
330
1F6E5
100
AcDbEntity
  8
0
 48
50.0
100
AcDbBlockEnd
  0
BLOCK
  5
1F6F8
330
1F6EF
100
AcDbEntity
  8
0
 48
50.0
100
AcDbBlockBegin
  2
*D27
 70
     1
 10
0.0
 20
0.0
 30
0.0
  3
*D27
  1

  0
LINE
  5
20418
330
1F6EF
100
AcDbEntity
  8
寸法
 62
     0
 48
50.0
370
    -2
100
AcDbLine
 10
6392.6
 20
6584.581353077206
 30
0.0
 11
5755.625098509069
 21
6584.581353077208
 31
0.0
  0
LINE
  5
20419
330
1F6EF
100
AcDbEntity
  8
寸法
 62
     0
 48
50.0
370
    -2
100
AcDbLine
 10
6392.600000000008
 20
5678.581353077206
 30
0.0
 11
5755.625098509068
 21
5678.581353077207
 31
0.0
  0
LINE
  5
2041A
330
1F6EF
100
AcDbEntity
  8
寸法
 62
     0
 48
50.0
370
    -2
100
AcDbLine
 10
5815.62509850907
 20
6584.581353077208
 30
0.0
 11
5815.625098509069
 21
5678.581353077207
 31
0.0
  0
INSERT
  5
2041B
330
1F6EF
100
AcDbEntity
  8
寸法
 62
     0
 48
50.0
370
    -2
100
AcDbBlockReference
  2
_DOTSMALL
 10
5815.62509850907
 20
6584.581353077208
 30
0.0
 41
100.0
 42
100.0
 43
100.0
 50
90.0
  0
INSERT
  5
2041C
330
1F6EF
100
AcDbEntity
  8
寸法
 62
     0
 48
50.0
370
    -2
100
AcDbBlockReference
  2
_DOTSMALL
 10
5815.625098509069
 20
5678.581353077207
 30
0.0
 41
100.0
 42
100.0
 43
100.0
 50
270.0
  0
MTEXT
  5
2041D
330
1F6EF
100
AcDbEntity
  8
寸法
 62
     7
 48
50.0
100
AcDbMText
 10
5715.625098509067
 20
6131.581353077208
 30
0.0
 40
120.0
 41
0.0
 71
     5
 72
     1
  1
\A1;906
  7
STYLE1
 11
0.0000000000000001
 21
1.0
 31
0.0
 73
     1
 44
1.0
1001
ACAD
1000
MTEXTBEGIN
1070
    73
1070
     1
1070
    44
1040
1.0
1070
    74
1070
     0
1000
MTEXTEND
  0
POINT
  5
2041E
330
1F6EF
100
AcDbEntity
  8
DEFPOINTS
 62
     0
 48
50.0
100
AcDbPoint
 10
6412.600000000001
 20
6584.581353077206
 30
0.0
  0
POINT
  5
2041F
330
1F6EF
100
AcDbEntity
  8
DEFPOINTS
 62
     0
 48
50.0
100
AcDbPoint
 10
6412.600000000008
 20
5678.581353077206
 30
0.0
  0
POINT
  5
20420
330
1F6EF
100
AcDbEntity
  8
DEFPOINTS
 62
     0
 48
50.0
100
AcDbPoint
 10
5815.625098509069
 20
5678.581353077207
 30
0.0
  0
ENDBLK
  5
1F6F9
330
1F6EF
100
AcDbEntity
  8
0
 48
50.0
100
AcDbBlockEnd
  0
BLOCK
  5
1F703
330
1F6FA
100
AcDbEntity
  8
0
 48
50.0
100
AcDbBlockBegin
  2
*D28
 70
     1
 10
0.0
 20
0.0
 30
0.0
  3
*D28
  1

  0
LINE
  5
2040F
330
1F6FA
100
AcDbEntity
  8
寸法
 62
     0
 48
50.0
370
    -2
100
AcDbLine
 10
6392.6
 20
7424.581353077207
 30
0.0
 11
5755.625098509068
 21
7424.581353077208
 31
0.0
  0
LINE
  5
20410
330
1F6FA
100
AcDbEntity
  8
寸法
 62
     0
 48
50.0
370
    -2
100
AcDbLine
 10
6392.6
 20
6584.581353077206
 30
0.0
 11
5755.625098509068
 21
6584.581353077208
 31
0.0
  0
LINE
  5
20411
330
1F6FA
100
AcDbEntity
  8
寸法
 62
     0
 48
50.0
370
    -2
100
AcDbLine
 10
5815.625098509069
 20
7424.581353077208
 30
0.0
 11
5815.625098509069
 21
6584.581353077208
 31
0.0
  0
INSERT
  5
20412
330
1F6FA
100
AcDbEntity
  8
寸法
 62
     0
 48
50.0
370
    -2
100
AcDbBlockReference
  2
_DOTSMALL
 10
5815.625098509069
 20
7424.581353077208
 30
0.0
 41
100.0
 42
100.0
 43
100.0
 50
90.0
  0
INSERT
  5
20413
330
1F6FA
100
AcDbEntity
  8
寸法
 62
     0
 48
50.0
370
    -2
100
AcDbBlockReference
  2
_DOTSMALL
 10
5815.625098509069
 20
6584.581353077208
 30
0.0
 41
100.0
 42
100.0
 43
100.0
 50
270.0
  0
MTEXT
  5
20414
330
1F6FA
100
AcDbEntity
  8
寸法
 62
     7
 48
50.0
100
AcDbMText
 10
5715.625098509066
 20
7004.581353077208
 30
0.0
 40
120.0
 41
0.0
 71
     5
 72
     1
  1
\A1;840
  7
STYLE1
 11
0.0000000000000001
 21
1.0
 31
0.0
 73
     1
 44
1.0
1001
ACAD
1000
MTEXTBEGIN
1070
    73
1070
     1
1070
    44
1040
1.0
1070
    74
1070
     0
1000
MTEXTEND
  0
POINT
  5
20415
330
1F6FA
100
AcDbEntity
  8
DEFPOINTS
 62
     0
 48
50.0
100
AcDbPoint
 10
6412.600000000001
 20
7424.581353077207
 30
0.0
  0
POINT
  5
20416
330
1F6FA
100
AcDbEntity
  8
DEFPOINTS
 62
     0
 48
50.0
100
AcDbPoint
 10
6412.600000000001
 20
6584.581353077206
 30
0.0
  0
POINT
  5
20417
330
1F6FA
100
AcDbEntity
  8
DEFPOINTS
 62
     0
 48
50.0
100
AcDbPoint
 10
5815.625098509069
 20
6584.581353077208
 30
0.0
  0
ENDBLK
  5
1F704
330
1F6FA
100
AcDbEntity
  8
0
 48
50.0
100
AcDbBlockEnd
  0
BLOCK
  5
1F70D
330
1F705
100
AcDbEntity
  8
0
 48
50.0
100
AcDbBlockBegin
  2
*D29
 70
     1
 10
0.0
 20
0.0
 30
0.0
  3
*D29
  1

  0
LINE
  5
20404
330
1F705
100
AcDbEntity
  8
寸法
 62
     0
 48
50.0
370
    -2
100
AcDbLine
 10
6292.600000000001
 20
8430.581353077206
 30
0.0
 11
5496.12511088609
 21
8430.581353077206
 31
0.0
  0
LINE
  5
20405
330
1F705
100
AcDbEntity
  8
寸法
 62
     0
 48
50.0
370
    -2
100
AcDbLine
 10
6392.6
 20
8330.581353077207
 30
0.0
 11
5496.12511088609
 21
8330.581353077207
 31
0.0
  0
LINE
  5
20406
330
1F705
100
AcDbEntity
  8
寸法
 62
     0
 48
50.0
370
    -2
100
AcDbLine
 10
5556.125110886091
 20
8430.581353077206
 30
0.0
 11
5556.125110886091
 21
8530.581353077208
 31
0.0
  0
LINE
  5
20407
330
1F705
100
AcDbEntity
  8
寸法
 62
     0
 48
50.0
370
    -2
100
AcDbLine
 10
5556.125110886091
 20
8330.581353077207
 30
0.0
 11
5556.125110886091
 21
8230.581353077207
 31
0.0
  0
LINE
  5
20408
330
1F705
100
AcDbEntity
  8
寸法
 62
     0
 48
50.0
370
    -2
100
AcDbLine
 10
5556.125110886091
 20
8430.581353077206
 30
0.0
 11
5556.125110886091
 21
8330.581353077207
 31
0.0
  0
INSERT
  5
20409
330
1F705
100
AcDbEntity
  8
寸法
 62
     0
 48
50.0
370
    -2
100
AcDbBlockReference
  2
_DOTSMALL
 10
5556.125110886091
 20
8430.581353077206
 30
0.0
 41
100.0
 42
100.0
 43
100.0
 50
270.0
  0
INSERT
  5
2040A
330
1F705
100
AcDbEntity
  8
寸法
 62
     0
 48
50.0
370
    -2
100
AcDbBlockReference
  2
_DOTSMALL
 10
5556.125110886091
 20
8330.581353077207
 30
0.0
 41
100.0
 42
100.0
 43
100.0
 50
90.0
  0
MTEXT
  5
2040B
330
1F705
100
AcDbEntity
  8
寸法
 62
     7
 48
50.0
100
AcDbMText
 10
5456.12511088609
 20
8380.581353077209
 30
0.0
 40
120.0
 41
0.0
 71
     5
 72
     1
  1
\A1;a
  7
STYLE1
 11
0.0000000000000001
 21
1.0
 31
0.0
 73
     1
 44
1.0
1001
ACAD
1000
MTEXTBEGIN
1070
    73
1070
     1
1070
    44
1040
1.0
1070
    74
1070
     0
1000
MTEXTEND
  0
POINT
  5
2040C
330
1F705
100
AcDbEntity
  8
DEFPOINTS
 62
     0
 48
50.0
100
AcDbPoint
 10
6312.600000000001
 20
8430.581353077206
 30
0.0
  0
POINT
  5
2040D
330
1F705
100
AcDbEntity
  8
DEFPOINTS
 62
     0
 48
50.0
100
AcDbPoint
 10
6412.600000000001
 20
8330.581353077207
 30
0.0
  0
POINT
  5
2040E
330
1F705
100
AcDbEntity
  8
DEFPOINTS
 62
     0
 48
50.0
100
AcDbPoint
 10
5556.125110886091
 20
8330.581353077207
 30
0.0
  0
ENDBLK
  5
1F70E
330
1F705
100
AcDbEntity
  8
0
 48
50.0
100
AcDbBlockEnd
  0
BLOCK
  5
1F71A
330
1F70F
100
AcDbEntity
  8
0
 48
50.0
100
AcDbBlockBegin
  2
*D30
 70
     1
 10
0.0
 20
0.0
 30
0.0
  3
*D30
  1

  0
LINE
  5
203FA
330
1F70F
100
AcDbEntity
  8
寸法
 62
     0
 48
50.0
370
    -2
100
AcDbLine
 10
6317.600000000002
 20
8450.581353077209
 30
0.0
 11
6317.600000000002
 21
9182.993940748829
 31
0.0
  0
LINE
  5
203FB
330
1F70F
100
AcDbEntity
  8
寸法
 62
     0
 48
50.0
370
    -2
100
AcDbLine
 10
6412.600000000001
 20
8350.581353077208
 30
0.0
 11
6412.600000000001
 21
9182.993940748829
 31
0.0
  0
LINE
  5
203FC
330
1F70F
100
AcDbEntity
  8
寸法
 62
     0
 48
50.0
370
    -2
100
AcDbLine
 10
6412.600000000001
 20
9122.993940748829
 30
0.0
 11
6317.600000000002
 21
9122.993940748829
 31
0.0
  0
LINE
  5
203FD
330
1F70F
100
AcDbEntity
  8
寸法
 62
     0
 48
50.0
370
    -2
100
AcDbLine
 10
6317.600000000002
 20
9122.993940748829
 30
0.0
 11
6068.707102294468
 21
9122.993940748829
 31
0.0
  0
INSERT
  5
203FE
330
1F70F
100
AcDbEntity
  8
寸法
 62
     0
 48
50.0
370
    -2
100
AcDbBlockReference
  2
_DOTSMALL
 10
6412.600000000001
 20
9122.993940748829
 30
0.0
 41
100.0
 42
100.0
 43
100.0
  0
INSERT
  5
203FF
330
1F70F
100
AcDbEntity
  8
寸法
 62
     0
 48
50.0
370
    -2
100
AcDbBlockReference
  2
_DOTSMALL
 10
6317.600000000002
 20
9122.993940748829
 30
0.0
 41
100.0
 42
100.0
 43
100.0
 50
180.0
  0
MTEXT
  5
20400
330
1F70F
100
AcDbEntity
  8
寸法
 62
     7
 48
50.0
100
AcDbMText
 10
6134.881723496927
 20
9222.993940748828
 30
0.0
 40
120.0
 41
0.0
 71
     5
 72
     1
  1
\A1;b
  7
STYLE1
 73
     1
 44
1.0
1001
ACAD
1000
MTEXTBEGIN
1070
    73
1070
     1
1070
    44
1040
1.0
1070
    74
1070
     0
1000
MTEXTEND
  0
POINT
  5
20401
330
1F70F
100
AcDbEntity
  8
DEFPOINTS
 62
     0
 48
50.0
100
AcDbPoint
 10
6317.600000000002
 20
8430.58135307721
 30
0.0
  0
POINT
  5
20402
330
1F70F
100
AcDbEntity
  8
DEFPOINTS
 62
     0
 48
50.0
100
AcDbPoint
 10
6412.600000000001
 20
8330.581353077207
 30
0.0
  0
POINT
  5
20403
330
1F70F
100
AcDbEntity
  8
DEFPOINTS
 62
     0
 48
50.0
100
AcDbPoint
 10
6412.600000000001
 20
9122.993940748829
 30
0.0
  0
ENDBLK
  5
1F71B
330
1F70F
100
AcDbEntity
  8
0
 48
50.0
100
AcDbBlockEnd
  0
BLOCK
  5
1F726
330
1F71C
100
AcDbEntity
  8
0
 48
50.0
100
AcDbBlockBegin
  2
*D31
 70
     1
 10
0.0
 20
0.0
 30
0.0
  3
*D31
  1

  0
LINE
  5
203F1
330
1F71C
100
AcDbEntity
  8
寸法
 62
     0
 48
50.0
370
    -2
100
AcDbLine
 10
10129.6
 20
8330.581353077207
 30
0.0
 11
10664.03712960281
 21
8330.581353077207
 31
0.0
  0
LINE
  5
203F2
330
1F71C
100
AcDbEntity
  8
寸法
 62
     0
 48
50.0
370
    -2
100
AcDbLine
 10
10129.6
 20
6136.581353077207
 30
0.0
 11
10664.03712960281
 21
6136.581353077206
 31
0.0
  0
LINE
  5
203F3
330
1F71C
100
AcDbEntity
  8
寸法
 62
     0
 48
50.0
370
    -2
100
AcDbLine
 10
10604.03712960281
 20
8330.581353077207
 30
0.0
 11
10604.03712960281
 21
6136.581353077206
 31
0.0
  0
INSERT
  5
203F4
330
1F71C
100
AcDbEntity
  8
寸法
 62
     0
 48
50.0
370
    -2
100
AcDbBlockReference
  2
_DOTSMALL
 10
10604.03712960281
 20
8330.581353077207
 30
0.0
 41
100.0
 42
100.0
 43
100.0
 50
90.0
  0
INSERT
  5
203F5
330
1F71C
100
AcDbEntity
  8
寸法
 62
     0
 48
50.0
370
    -2
100
AcDbBlockReference
  2
_DOTSMALL
 10
10604.03712960281
 20
6136.581353077206
 30
0.0
 41
100.0
 42
100.0
 43
100.0
 50
270.0
  0
MTEXT
  5
203F6
330
1F71C
100
AcDbEntity
  8
寸法
 62
     7
 48
50.0
100
AcDbMText
 10
10504.02531857919
 20
7210.121530825716
 30
0.0
 40
120.0
 41
0.0
 71
     5
 72
     1
  1
\A1;2194
  7
STYLE1
 11
0.0000000000000001
 21
1.0
 31
0.0
 73
     1
 44
1.0
1001
ACAD
1000
MTEXTBEGIN
1070
    73
1070
     1
1070
    44
1040
1.0
1070
    74
1070
     0
1000
MTEXTEND
  0
POINT
  5
203F7
330
1F71C
100
AcDbEntity
  8
DEFPOINTS
 62
     0
 48
50.0
100
AcDbPoint
 10
10109.6
 20
8330.581353077207
 30
0.0
  0
POINT
  5
203F8
330
1F71C
100
AcDbEntity
  8
DEFPOINTS
 62
     0
 48
50.0
100
AcDbPoint
 10
10109.6
 20
6136.581353077207
 30
0.0
  0
POINT
  5
203F9
330
1F71C
100
AcDbEntity
  8
DEFPOINTS
 62
     0
 48
50.0
100
AcDbPoint
 10
10604.03712960281
 20
6136.581353077206
 30
0.0
  0
ENDBLK
  5
1F727
330
1F71C
100
AcDbEntity
  8
0
 48
50.0
100
AcDbBlockEnd
  0
BLOCK
  5
1F732
330
1F728
100
AcDbEntity
  8
0
 48
50.0
100
AcDbBlockBegin
  2
*D32
 70
     1
 10
0.0
 20
0.0
 30
0.0
  3
*D32
  1

  0
LINE
  5
203E8
330
1F728
100
AcDbEntity
  8
寸法
 62
     0
 48
50.0
370
    -2
100
AcDbLine
 10
10154.6
 20
5778.581353077203
 30
0.0
 11
10489.20701126365
 21
5778.581353077202
 31
0.0
  0
LINE
  5
203E9
330
1F728
100
AcDbEntity
  8
寸法
 62
     0
 48
50.0
370
    -2
100
AcDbLine
 10
10154.6
 20
5578.581353077203
 30
0.0
 11
10489.20701126365
 21
5578.581353077202
 31
0.0
  0
LINE
  5
203EA
330
1F728
100
AcDbEntity
  8
寸法
 62
     0
 48
50.0
370
    -2
100
AcDbLine
 10
10429.20701126365
 20
5778.581353077202
 30
0.0
 11
10429.20701126365
 21
5578.581353077202
 31
0.0
  0
MTEXT
  5
203EB
330
1F728
100
AcDbEntity
  8
寸法
 62
     7
 48
50.0
100
AcDbMText
 10
10587.60656586072
 20
5683.761427623096
 30
0.0
 40
120.0
 41
0.0
 71
     5
 72
     1
  1
\A1;200
  7
STYLE1
 11
0.0000000000000001
 21
1.0
 31
0.0
 73
     1
 44
1.0
1001
ACAD
1000
MTEXTBEGIN
1070
    73
1070
     1
1070
    44
1040
1.0
1070
    74
1070
     0
1000
MTEXTEND
  0
INSERT
  5
203EC
330
1F728
100
AcDbEntity
  8
寸法
 62
     0
 48
50.0
370
    -2
100
AcDbBlockReference
  2
_DOTSMALL
 10
10429.20701126365
 20
5778.581353077202
 30
0.0
 41
100.0
 42
100.0
 43
100.0
 50
90.0
  0
INSERT
  5
203ED
330
1F728
100
AcDbEntity
  8
寸法
 62
     0
 48
50.0
370
    -2
100
AcDbBlockReference
  2
_DOTSMALL
 10
10429.20701126365
 20
5578.581353077202
 30
0.0
 41
100.0
 42
100.0
 43
100.0
 50
270.0
  0
POINT
  5
203EE
330
1F728
100
AcDbEntity
  8
DEFPOINTS
 62
     0
 48
50.0
100
AcDbPoint
 10
10134.6
 20
5778.581353077203
 30
0.0
  0
POINT
  5
203EF
330
1F728
100
AcDbEntity
  8
DEFPOINTS
 62
     0
 48
50.0
100
AcDbPoint
 10
10134.6
 20
5578.581353077203
 30
0.0
  0
POINT
  5
203F0
330
1F728
100
AcDbEntity
  8
DEFPOINTS
 62
     0
 48
50.0
100
AcDbPoint
 10
10429.20701126365
 20
5578.581353077202
 30
0.0
  0
ENDBLK
  5
1F733
330
1F728
100
AcDbEntity
  8
0
 48
50.0
100
AcDbBlockEnd
  0
BLOCK
  5
1F73F
330
1F734
100
AcDbEntity
  8
0
 48
50.0
100
AcDbBlockBegin
  2
*D33
 70
     1
 10
0.0
 20
0.0
 30
0.0
  3
*D33
  1

  0
LINE
  5
203DF
330
1F734
100
AcDbEntity
  8
寸法
 62
     0
 48
50.0
370
    -2
100
AcDbLine
 10
10134.6
 20
5558.581353077203
 30
0.0
 11
10134.6
 21
5257.799923455786
 31
0.0
  0
LINE
  5
203E0
330
1F734
100
AcDbEntity
  8
寸法
 62
     0
 48
50.0
370
    -2
100
AcDbLine
 10
9934.600000000001
 20
5558.581353077203
 30
0.0
 11
9934.600000000001
 21
5257.799923455786
 31
0.0
  0
LINE
  5
203E1
330
1F734
100
AcDbEntity
  8
寸法
 62
     0
 48
50.0
370
    -2
100
AcDbLine
 10
10134.6
 20
5317.799923455787
 30
0.0
 11
9934.600000000001
 21
5317.799923455787
 31
0.0
  0
MTEXT
  5
203E2
330
1F734
100
AcDbEntity
  8
寸法
 62
     7
 48
50.0
100
AcDbMText
 10
10034.91470962309
 20
5170.700719143802
 30
0.0
 40
120.0
 41
0.0
 71
     5
 72
     1
  1
\A1;200
  7
STYLE1
 73
     1
 44
1.0
1001
ACAD
1000
MTEXTBEGIN
1070
    73
1070
     1
1070
    44
1040
1.0
1070
    74
1070
     0
1000
MTEXTEND
  0
INSERT
  5
203E3
330
1F734
100
AcDbEntity
  8
寸法
 62
     0
 48
50.0
370
    -2
100
AcDbBlockReference
  2
_DOTSMALL
 10
10134.6
 20
5317.799923455787
 30
0.0
 41
100.0
 42
100.0
 43
100.0
  0
INSERT
  5
203E4
330
1F734
100
AcDbEntity
  8
寸法
 62
     0
 48
50.0
370
    -2
100
AcDbBlockReference
  2
_DOTSMALL
 10
9934.600000000001
 20
5317.799923455787
 30
0.0
 41
100.0
 42
100.0
 43
100.0
 50
180.0
  0
POINT
  5
203E5
330
1F734
100
AcDbEntity
  8
DEFPOINTS
 62
     0
 48
50.0
100
AcDbPoint
 10
10134.6
 20
5578.581353077203
 30
0.0
  0
POINT
  5
203E6
330
1F734
100
AcDbEntity
  8
DEFPOINTS
 62
     0
 48
50.0
100
AcDbPoint
 10
9934.600000000001
 20
5578.581353077203
 30
0.0
  0
POINT
  5
203E7
330
1F734
100
AcDbEntity
  8
DEFPOINTS
 62
     0
 48
50.0
100
AcDbPoint
 10
9934.600000000001
 20
5317.799923455787
 30
0.0
  0
ENDBLK
  5
1F740
330
1F734
100
AcDbEntity
  8
0
 48
50.0
100
AcDbBlockEnd
  0
BLOCK
  5
1F74C
330
1F741
100
AcDbEntity
  8
0
 48
50.0
100
AcDbBlockBegin
  2
*D34
 70
     1
 10
0.0
 20
0.0
 30
0.0
  3
*D34
  1

  0
LINE
  5
203D4
330
1F741
100
AcDbEntity
  8
寸法
 62
     0
 48
50.0
370
    -2
100
AcDbLine
 10
10109.6
 20
8350.581353077208
 30
0.0
 11
10109.6
 21
8695.872028276768
 31
0.0
  0
LINE
  5
203D5
330
1F741
100
AcDbEntity
  8
寸法
 62
     0
 48
50.0
370
    -2
100
AcDbLine
 10
10034.6
 20
8350.581353077208
 30
0.0
 11
10034.6
 21
8695.872028276768
 31
0.0
  0
LINE
  5
203D6
330
1F741
100
AcDbEntity
  8
寸法
 62
     0
 48
50.0
370
    -2
100
AcDbLine
 10
10034.6
 20
8635.872028276768
 30
0.0
 11
9934.600000000001
 21
8635.872028276768
 31
0.0
  0
LINE
  5
203D7
330
1F741
100
AcDbEntity
  8
寸法
 62
     0
 48
50.0
370
    -2
100
AcDbLine
 10
10109.6
 20
8635.872028276768
 30
0.0
 11
11068.570658344
 21
8635.872028276768
 31
0.0
  0
LINE
  5
203D8
330
1F741
100
AcDbEntity
  8
寸法
 62
     0
 48
50.0
370
    -2
100
AcDbLine
 10
10034.6
 20
8635.872028276768
 30
0.0
 11
10109.6
 21
8635.872028276768
 31
0.0
  0
INSERT
  5
203D9
330
1F741
100
AcDbEntity
  8
寸法
 62
     0
 48
50.0
370
    -2
100
AcDbBlockReference
  2
_DOTSMALL
 10
10034.6
 20
8635.872028276768
 30
0.0
 41
100.0
 42
100.0
 43
100.0
  0
INSERT
  5
203DA
330
1F741
100
AcDbEntity
  8
寸法
 62
     0
 48
50.0
370
    -2
100
AcDbBlockReference
  2
_DOTSMALL
 10
10109.6
 20
8635.872028276768
 30
0.0
 41
100.0
 42
100.0
 43
100.0
 50
180.0
  0
MTEXT
  5
203DB
330
1F741
100
AcDbEntity
  8
寸法
 62
     7
 48
50.0
100
AcDbMText
 10
10735.08537696976
 20
8735.872028276768
 30
0.0
 40
120.0
 41
0.0
 71
     5
 72
     1
  1
\A1;扉の出75
  7
STYLE1
 73
     1
 44
1.0
1001
ACAD
1000
MTEXTBEGIN
1070
    73
1070
     1
1070
    44
1040
1.0
1070
    74
1070
     0
1000
MTEXTEND
  0
POINT
  5
203DC
330
1F741
100
AcDbEntity
  8
DEFPOINTS
 62
     0
 48
50.0
100
AcDbPoint
 10
10109.6
 20
8330.581353077207
 30
0.0
  0
POINT
  5
203DD
330
1F741
100
AcDbEntity
  8
DEFPOINTS
 62
     0
 48
50.0
100
AcDbPoint
 10
10034.6
 20
8330.581353077207
 30
0.0
  0
POINT
  5
203DE
330
1F741
100
AcDbEntity
  8
DEFPOINTS
 62
     0
 48
50.0
100
AcDbPoint
 10
10034.6
 20
8635.872028276768
 30
0.0
  0
ENDBLK
  5
1F74D
330
1F741
100
AcDbEntity
  8
0
 48
50.0
100
AcDbBlockEnd
  0
BLOCK
  5
1F758
330
1F74E
100
AcDbEntity
  8
0
 48
50.0
100
AcDbBlockBegin
  2
*D35
 70
     1
 10
0.0
 20
0.0
 30
0.0
  3
*D35
  1

  0
LINE
  5
203CB
330
1F74E
100
AcDbEntity
  8
寸法
 62
     0
 48
50.0
370
    -2
100
AcDbLine
 10
10034.6
 20
8350.581353077208
 30
0.0
 11
10034.6
 21
8936.593912720347
 31
0.0
  0
LINE
  5
203CC
330
1F74E
100
AcDbEntity
  8
寸法
 62
     0
 48
50.0
370
    -2
100
AcDbLine
 10
8223.600000000001
 20
8350.581353077208
 30
0.0
 11
8223.600000000001
 21
8936.593912720347
 31
0.0
  0
LINE
  5
203CD
330
1F74E
100
AcDbEntity
  8
寸法
 62
     0
 48
50.0
370
    -2
100
AcDbLine
 10
10034.6
 20
8876.593912720348
 30
0.0
 11
8223.600000000001
 21
8876.593912720348
 31
0.0
  0
INSERT
  5
203CE
330
1F74E
100
AcDbEntity
  8
寸法
 62
     0
 48
50.0
370
    -2
100
AcDbBlockReference
  2
_DOTSMALL
 10
10034.6
 20
8876.593912720348
 30
0.0
 41
100.0
 42
100.0
 43
100.0
  0
INSERT
  5
203CF
330
1F74E
100
AcDbEntity
  8
寸法
 62
     0
 48
50.0
370
    -2
100
AcDbBlockReference
  2
_DOTSMALL
 10
8223.600000000001
 20
8876.593912720348
 30
0.0
 41
100.0
 42
100.0
 43
100.0
 50
180.0
  0
MTEXT
  5
203D0
330
1F74E
100
AcDbEntity
  8
寸法
 62
     7
 48
50.0
100
AcDbMText
 10
9129.100000000001
 20
8976.593912720348
 30
0.0
 40
120.0
 41
0.0
 71
     5
 72
     1
  1
\A1;1811
  7
STYLE1
 73
     1
 44
1.0
1001
ACAD
1000
MTEXTBEGIN
1070
    73
1070
     1
1070
    44
1040
1.0
1070
    74
1070
     0
1000
MTEXTEND
  0
POINT
  5
203D1
330
1F74E
100
AcDbEntity
  8
DEFPOINTS
 62
     0
 48
50.0
100
AcDbPoint
 10
10034.6
 20
8330.581353077207
 30
0.0
  0
POINT
  5
203D2
330
1F74E
100
AcDbEntity
  8
DEFPOINTS
 62
     0
 48
50.0
100
AcDbPoint
 10
8223.600000000001
 20
8330.581353077207
 30
0.0
  0
POINT
  5
203D3
330
1F74E
100
AcDbEntity
  8
DEFPOINTS
 62
     0
 48
50.0
100
AcDbPoint
 10
8223.600000000001
 20
8876.593912720348
 30
0.0
  0
ENDBLK
  5
1F759
330
1F74E
100
AcDbEntity
  8
0
 48
50.0
100
AcDbBlockEnd
  0
BLOCK
  5
1F765
330
1F75A
100
AcDbEntity
  8
0
 48
50.0
100
AcDbBlockBegin
  2
*D36
 70
     1
 10
0.0
 20
0.0
 30
0.0
  3
*D36
  1

  0
LINE
  5
203C1
330
1F75A
100
AcDbEntity
  8
寸法
 62
     0
 48
50.0
370
    -2
100
AcDbLine
 10
10034.6
 20
8350.581353077208
 30
0.0
 11
10034.6
 21
9182.993940748829
 31
0.0
  0
LINE
  5
203C2
330
1F75A
100
AcDbEntity
  8
寸法
 62
     0
 48
50.0
370
    -2
100
AcDbLine
 10
10129.6
 20
8450.581353077211
 30
0.0
 11
10129.6
 21
9182.993940748829
 31
0.0
  0
LINE
  5
203C3
330
1F75A
100
AcDbEntity
  8
寸法
 62
     0
 48
50.0
370
    -2
100
AcDbLine
 10
10034.6
 20
9122.993940748829
 30
0.0
 11
10129.6
 21
9122.993940748829
 31
0.0
  0
LINE
  5
203C4
330
1F75A
100
AcDbEntity
  8
寸法
 62
     0
 48
50.0
370
    -2
100
AcDbLine
 10
10129.6
 20
9122.993940748829
 30
0.0
 11
10378.49289770553
 21
9122.993940748829
 31
0.0
  0
INSERT
  5
203C5
330
1F75A
100
AcDbEntity
  8
寸法
 62
     0
 48
50.0
370
    -2
100
AcDbBlockReference
  2
_DOTSMALL
 10
10034.6
 20
9122.993940748829
 30
0.0
 41
100.0
 42
100.0
 43
100.0
 50
180.0
  0
INSERT
  5
203C6
330
1F75A
100
AcDbEntity
  8
寸法
 62
     0
 48
50.0
370
    -2
100
AcDbBlockReference
  2
_DOTSMALL
 10
10129.6
 20
9122.993940748829
 30
0.0
 41
100.0
 42
100.0
 43
100.0
  0
MTEXT
  5
203C7
330
1F75A
100
AcDbEntity
  8
寸法
 62
     7
 48
50.0
100
AcDbMText
 10
10312.31827650307
 20
9222.993940748828
 30
0.0
 40
120.0
 41
0.0
 71
     5
 72
     1
  1
\A1;b
  7
STYLE1
 73
     1
 44
1.0
1001
ACAD
1000
MTEXTBEGIN
1070
    73
1070
     1
1070
    44
1040
1.0
1070
    74
1070
     0
1000
MTEXTEND
  0
POINT
  5
203C8
330
1F75A
100
AcDbEntity
  8
DEFPOINTS
 62
     0
 48
50.0
100
AcDbPoint
 10
10034.6
 20
8330.581353077207
 30
0.0
  0
POINT
  5
203C9
330
1F75A
100
AcDbEntity
  8
DEFPOINTS
 62
     0
 48
50.0
100
AcDbPoint
 10
10129.6
 20
8430.581353077213
 30
0.0
  0
POINT
  5
203CA
330
1F75A
100
AcDbEntity
  8
DEFPOINTS
 62
     0
 48
50.0
100
AcDbPoint
 10
10129.6
 20
9122.993940748829
 30
0.0
  0
ENDBLK
  5
1F766
330
1F75A
100
AcDbEntity
  8
0
 48
50.0
100
AcDbBlockEnd
  0
BLOCK
  5
1F771
330
1F767
100
AcDbEntity
  8
0
 48
50.0
100
AcDbBlockBegin
  2
*D37
 70
     1
 10
0.0
 20
0.0
 30
0.0
  3
*D37
  1

  0
LINE
  5
1FFE2
330
1F767
100
AcDbEntity
  8
寸法
 62
     0
 48
50.0
370
    -2
100
AcDbLine
 10
6906.719606458068
 20
1647.854386431425
 30
0.0
 11
7388.522301453495
 21
1647.854386431425
 31
0.0
  0
LINE
  5
1FFE3
330
1F767
100
AcDbEntity
  8
寸法
 62
     0
 48
50.0
370
    -2
100
AcDbLine
 10
7218.278995973659
 20
1487.854386431425
 30
0.0
 11
7388.522301453495
 21
1487.854386431425
 31
0.0
  0
LINE
  5
1FFE4
330
1F767
100
AcDbEntity
  8
寸法
 62
     0
 48
50.0
370
    -2
100
AcDbLine
 10
7328.522301453493
 20
1647.854386431425
 30
0.0
 11
7328.522301453493
 21
1487.854386431425
 31
0.0
  0
INSERT
  5
1FFE5
330
1F767
100
AcDbEntity
  8
寸法
 62
     0
 48
50.0
370
    -2
100
AcDbBlockReference
  2
_DOTSMALL
 10
7328.522301453493
 20
1647.854386431425
 30
0.0
 41
100.0
 42
100.0
 43
100.0
 50
90.0
  0
INSERT
  5
1FFE6
330
1F767
100
AcDbEntity
  8
寸法
 62
     0
 48
50.0
370
    -2
100
AcDbBlockReference
  2
_DOTSMALL
 10
7328.522301453493
 20
1487.854386431425
 30
0.0
 41
100.0
 42
100.0
 43
100.0
 50
270.0
  0
MTEXT
  5
1FFE7
330
1F767
100
AcDbEntity
  8
寸法
 62
     7
 48
50.0
100
AcDbMText
 10
7228.522301453494
 20
1558.732044950497
 30
0.0
 40
120.0
 41
0.0
 71
     5
 72
     1
  1
\A1;a
  7
STYLE1
 11
0.0000000000000001
 21
1.0
 31
0.0
 73
     1
 44
1.0
1001
ACAD
1000
MTEXTBEGIN
1070
    73
1070
     1
1070
    44
1040
1.0
1070
    74
1070
     0
1000
MTEXTEND
  0
POINT
  5
1FFE8
330
1F767
100
AcDbEntity
  8
DEFPOINTS
 62
     0
 48
50.0
100
AcDbPoint
 10
6886.719606458068
 20
1647.854386431425
 30
0.0
  0
POINT
  5
1FFE9
330
1F767
100
AcDbEntity
  8
DEFPOINTS
 62
     0
 48
50.0
100
AcDbPoint
 10
7198.278995973659
 20
1487.854386431425
 30
0.0
  0
POINT
  5
1FFEA
330
1F767
100
AcDbEntity
  8
DEFPOINTS
 62
     0
 48
50.0
100
AcDbPoint
 10
7328.522301453493
 20
1487.854386431425
 30
0.0
  0
ENDBLK
  5
1F772
330
1F767
100
AcDbEntity
  8
0
 48
50.0
100
AcDbBlockEnd
  0
BLOCK
  5
202A0
330
2029E
100
AcDbEntity
  8
0
 48
50.0
100
AcDbBlockBegin
  2
_DatumFilled
 70
     0
 10
0.0
 20
0.0
 30
0.0
  3
_DatumFilled
  1

  0
SOLID
  5
2029F
330
2029E
100
AcDbEntity
  8
0
  6
ByBlock
 62
     0
100
AcDbTrace
 10
0.0
 20
0.5773502700000001
 30
0.0
 11
-1.0
 21
0.0
 31
0.0
 12
0.0
 22
-0.5773502700000001
 32
0.0
 13
0.0
 23
-0.5773502700000001
 33
0.0
  0
ENDBLK
  5
202A1
330
2029E
100
AcDbEntity
  8
0
 48
50.0
100
AcDbBlockEnd
  0
ENDSEC
  0
SECTION
  2
ENTITIES
  0
MTEXT
  5
763F
330
747D
100
AcDbEntity
  8
0
100
AcDbMText
 10
302.846345836809
 20
280.1983726409901
 30
0.0
 40
3.5
 41
5.323721266742722
 71
     1
 72
     5
  1

  7
MSMINCHO
 73
     1
 44
1.0
1001
ACAD
1000
MTEXTBEGIN
1070
    73
1070
     1
1070
    44
1040
1.0
1070
    74
1070
     0
1000
MTEXTEND
  0
LINE
  5
10B57
330
747D
100
AcDbEntity
  8
補助
  6
PHANTOM
 62
   230
 48
50.0
100
AcDbLine
 10
139.9999999999995
 20
11409.6
 30
0.0
 11
16307.2
 21
11409.6
 31
0.0
  0
LINE
  5
10B59
330
747D
100
AcDbEntity
  8
仕様書枠
  6
Continuous
 48
50.0
100
AcDbLine
 10
13107.2
 20
1200.0
 30
0.0
 11
13107.2
 21
-0.0000000000000729
 31
0.0
  0
LINE
  5
10B5D
330
747D
100
AcDbEntity
  8
仕様書枠
 48
50.0
100
AcDbLine
 10
140.0
 20
0.0
 30
0.0
 11
16307.2
 21
-0.0000000000000909
 31
0.0
  0
LINE
  5
10B5E
330
747D
100
AcDbEntity
  8
補助
  6
PHANTOM
 62
   230
 48
50.0
100
AcDbLine
 10
16307.2
 20
11409.6
 30
0.0
 11
16307.2
 21
1200.0
 31
0.0
  0
LINE
  5
10B6C
330
747D
100
AcDbEntity
  8
仕様書枠
 48
50.0
100
AcDbLine
 10
13107.2
 20
1200.0
 30
0.0
 11
16307.2
 21
1200.0
 31
0.0
  0
TEXT
  5
10B73
330
747D
100
AcDbEntity
  8
文字
 62
     7
 48
50.0
100
AcDbText
 10
13162.9790565769
 20
895.0906074299405
 30
0.0
 40
200.0
  1
基 礎 図
  7
STYLE2
100
AcDbText
  0
LINE
  5
10B7B
330
747D
100
AcDbEntity
  8
仕様書枠
 48
50.0
100
AcDbLine
 10
13107.2
 20
800.0
 30
0.0
 11
14251.2
 21
800.0
 31
0.0
  0
LINE
  5
10B88
330
747D
100
AcDbEntity
  8
仕様書枠
  6
Continuous
 48
50.0
100
AcDbLine
 10
14251.2
 20
1200.0
 30
0.0
 11
14251.2
 21
800.0
 31
0.0
  0
LINE
  5
16462
330
747D
100
AcDbEntity
  8
仕様書枠
 48
50.0
100
AcDbLine
 10
16307.2
 20
1200.0
 30
0.0
 11
16307.2
 21
-0.0000000000000909
 31
0.0
  0
LINE
  5
1903B
330
747D
100
AcDbEntity
  8
補助
  6
PHANTOM
 62
   230
 48
50.0
100
AcDbLine
 10
140.0
 20
0.0
 30
0.0
 11
139.9999999999995
 21
11409.6
 31
0.0
  0
TEXT
  5
1AC29
330
747D
100
AcDbEntity
  8
部品1
 48
50.0
100
AcDbText
 10
7065.233804113656
 20
5094.959547402864
 30
0.0
 40
80.0
  1
(a=105,b=100)
  7
STYLE1
100
AcDbText
  0
TEXT
  5
1AC2A
330
747D
100
AcDbEntity
  8
部品1
 48
50.0
100
AcDbText
 10
6906.654795359353
 20
5225.366083858947
 30
0.0
 40
80.0
  1
※a,bは屋根の出幅です。
  7
STYLE1
100
AcDbText
  0
MTEXT
  5
1AC2B
102
{ACAD_REACTORS
330
1AC2C
102
}
330
747D
100
AcDbEntity
  8
部品1
 62
     7
 48
50.0
100
AcDbMText
 10
7704.44199134796
 20
5404.676770792022
 30
0.0
 40
120.0
 41
0.0
 71
     6
 72
     1
  1
\A1;屋根の外寸
  7
STYLE1
 73
     1
 44
1.0
1001
ACAD
1000
MTEXTBEGIN
1070
    73
1070
     1
1070
    44
1040
1.0
1070
    74
1070
     0
1000
MTEXTEND
  0
LEADER
  5
1AC2C
330
747D
100
AcDbEntity
  8
寸法
 48
50.0
100
AcDbLeader
  3
INABA_S50G
 73
     0
 74
     0
 75
     1
 40
120.0
 41
672.0
 76
     3
 10
6766.501979155918
 20
5578.566114255598
 30
0.0
 10
6882.44199134796
 20
5319.676770792023
 30
0.0
 10
7007.44199134796
 20
5319.676770792023
 30
0.0
340
1AC2B
1001
ACAD
1000
DSTYLE
1002
{
1070
   341
1005
0
1070
    40
1040
1.0
1070
   343
1005
0
1070
   344
1005
0
1002
}
  0
TEXT
  5
1C7E7
330
747D
100
AcDbEntity
  8
文字
 62
     7
 48
50.0
100
AcDbText
 10
13188.16259899338
 20
246.7109242801889
 30
0.0
 40
80.0
  1
※寒冷地等は地域の実情に合わせた基礎にして下さい。
  7
STYLE2
100
AcDbText
  0
TEXT
  5
1C7E8
330
747D
100
AcDbEntity
  8
文字
 62
     7
 48
50.0
100
AcDbText
 10
14478.98566430227
 20
499.5983841039506
 30
0.0
 40
160.0
  1
ＫＸＮ－１０１Ｈ
  7
STYLE2
100
AcDbText
  0
TEXT
  5
1C7E9
330
747D
100
AcDbEntity
  8
文字
 62
     7
 48
50.0
100
AcDbText
 10
14641.2525855784
 20
871.1744590657927
 30
0.0
 40
100.0
  1
～一般型・多雪地型～
  7
STYLE2
100
AcDbText
  0
TEXT
  5
1C7EC
330
747D
100
AcDbEntity
  8
文字
 62
     7
 48
50.0
100
AcDbText
 10
14524.131837222
 20
1031.557706291229
 30
0.0
 40
100.0
  1
NO.01      <縮尺> S=1/40
  7
STYLE2
100
AcDbText
  0
TEXT
  5
1C7ED
330
747D
100
AcDbEntity
  8
文字
 62
     7
 48
50.0
100
AcDbText
 10
13201.43669998441
 20
477.2740661031257
 30
0.0
 40
160.0
  1
機種名
  7
STYLE2
100
AcDbText
  0
LINE
  5
1C7EF
330
747D
100
AcDbEntity
  8
文字
 62
     7
 48
50.0
100
AcDbLine
 10
13187.2
 20
400.0
 30
0.0
 11
16227.2
 21
400.0
 31
0.0
  0
LINE
  5
1F448
330
747D
100
AcDbEntity
  8
部品1
 48
50.0
100
AcDbLine
 10
7518.100000000001
 20
8330.581353077207
 30
0.0
 11
7318.100000000001
 21
8330.581353077207
 31
0.0
  0
LINE
  5
1F449
330
747D
100
AcDbEntity
  8
部品1
 48
50.0
100
AcDbLine
 10
7518.100000000001
 20
8130.581353077207
 30
0.0
 11
7318.100000000001
 21
8130.581353077207
 31
0.0
  0
DIMENSION
  5
1F44A
330
747D
100
AcDbEntity
  8
寸法
 48
50.0
100
AcDbDimension
  2
*D22
 10
6412.600000000001
 20
8876.593912720348
 30
0.0
 11
7318.100000000001
 21
8976.593912720348
 31
0.0
 70
    32
 71
     5
 42
1811.0
  3
INABA_S40G
100
AcDbAlignedDimension
 13
8223.600000000001
 23
8330.581353077207
 33
0.0
 14
6412.600000000001
 24
8330.581353077207
 34
0.0
100
AcDbRotatedDimension
1001
ACAD
1000
DSTYLE
1002
{
1070
   341
1005
0
1002
}
  0
DIMENSION
  5
1F44B
330
747D
100
AcDbEntity
  8
寸法
 48
50.0
100
AcDbDimension
  2
*D23
 10
10034.6
 20
9122.993940748829
 30
0.0
 11
8223.600000000001
 21
9223.005751772451
 31
0.0
 70
    32
 71
     5
 42
3622.0
  3
INABA_S40G
100
AcDbAlignedDimension
 13
6412.600000000001
 23
8330.581353077207
 33
0.0
 14
10034.6
 24
8330.581353077207
 34
0.0
100
AcDbRotatedDimension
1001
ACAD
1000
DSTYLE
1002
{
1070
   341
1005
0
1002
}
  0
LINE
  5
1F44C
330
747D
100
AcDbEntity
  8
部品1
 48
50.0
100
AcDbLine
 10
7618.099999999997
 20
7524.581353077202
 30
0.0
 11
7218.099999999997
 21
7524.581353077202
 31
0.0
  0
LINE
  5
1F44D
330
747D
100
AcDbEntity
  8
部品1
 48
50.0
100
AcDbLine
 10
7618.099999999997
 20
7324.581353077203
 30
0.0
 11
7218.099999999997
 21
7324.581353077203
 31
0.0
  0
LINE
  5
1F44E
330
747D
100
AcDbEntity
  8
部品1
 48
50.0
100
AcDbLine
 10
7618.100000000001
 20
6684.58135307721
 30
0.0
 11
7218.100000000001
 21
6684.58135307721
 31
0.0
  0
LINE
  5
1F44F
330
747D
100
AcDbEntity
  8
部品1
 48
50.0
100
AcDbLine
 10
7618.100000000001
 20
6484.58135307721
 30
0.0
 11
7218.100000000001
 21
6484.58135307721
 31
0.0
  0
LINE
  5
1F450
330
747D
100
AcDbEntity
  8
部品1
 48
50.0
100
AcDbLine
 10
7518.100000000001
 20
5878.581353077207
 30
0.0
 11
7318.100000000001
 21
5878.581353077207
 31
0.0
  0
LINE
  5
1F451
330
747D
100
AcDbEntity
  8
部品1
 48
50.0
100
AcDbLine
 10
7518.100000000001
 20
5678.581353077206
 30
0.0
 11
7318.100000000001
 21
5678.581353077206
 31
0.0
  0
LINE
  5
1F452
330
747D
100
AcDbEntity
  8
想像線
 48
10.0
100
AcDbLine
 10
10129.6
 20
5578.581353077203
 30
0.0
 11
6317.6
 21
5578.581353077207
 31
0.0
  0
DIMENSION
  5
1F457
330
747D
100
AcDbEntity
  8
寸法
 48
50.0
100
AcDbDimension
  2
*D24
 10
5815.625098509069
 20
7424.581353077208
 30
0.0
 11
5715.625098509067
 21
7877.581353077208
 31
0.0
 70
    32
 71
     5
 42
906.0
  3
INABA_S40G
100
AcDbAlignedDimension
 13
6412.600000000001
 23
8330.581353077207
 33
0.0
 14
6412.600000000001
 24
7424.581353077207
 34
0.0
 50
90.0
100
AcDbRotatedDimension
1001
ACAD
1000
DSTYLE
1002
{
1070
   341
1005
0
1002
}
  0
DIMENSION
  5
1F458
330
747D
100
AcDbEntity
  8
寸法
 48
50.0
100
AcDbDimension
  2
*D25
 10
5556.125110886091
 20
5678.581353077207
 30
0.0
 11
5456.113299862468
 21
7004.581353077208
 31
0.0
 70
    32
 71
     5
 42
2652.0
  3
INABA_S40G
100
AcDbAlignedDimension
 13
6412.600000000001
 23
8330.581353077207
 33
0.0
 14
6412.600000000001
 24
5678.581353077206
 34
0.0
 50
90.0
100
AcDbRotatedDimension
1001
ACAD
1000
DSTYLE
1002
{
1070
   341
1005
0
1002
}
  0
DIMENSION
  5
1F459
330
747D
100
AcDbEntity
  8
寸法
 48
50.0
100
AcDbDimension
  2
*D26
 10
5556.125110886091
 20
5578.581353077208
 30
0.0
 11
5456.12511088609
 21
5628.581353077208
 31
0.0
 70
    32
  1
a
 71
     5
 42
100.0
  3
INABA_S40G
100
AcDbAlignedDimension
 13
6412.600000000001
 23
5678.581353077206
 33
0.0
 14
6312.600000000001
 24
5578.581353077207
 34
0.0
 50
90.0
100
AcDbRotatedDimension
1001
ACAD
1000
DSTYLE
1002
{
1070
   341
1005
0
1002
}
  0
DIMENSION
  5
1F45A
330
747D
100
AcDbEntity
  8
寸法
 48
50.0
100
AcDbDimension
  2
*D27
 10
5815.625098509069
 20
5678.581353077207
 30
0.0
 11
5715.625098509067
 21
6131.581353077208
 31
0.0
 70
    32
 71
     5
 42
906.0
  3
INABA_S40G
100
AcDbAlignedDimension
 13
6412.600000000001
 23
6584.581353077206
 33
0.0
 14
6412.600000000008
 24
5678.581353077206
 34
0.0
 50
90.0
100
AcDbRotatedDimension
1001
ACAD
1000
DSTYLE
1002
{
1070
   341
1005
0
1002
}
  0
DIMENSION
  5
1F45B
330
747D
100
AcDbEntity
  8
寸法
 48
50.0
100
AcDbDimension
  2
*D28
 10
5815.625098509069
 20
6584.581353077208
 30
0.0
 11
5715.625098509066
 21
7004.581353077208
 31
0.0
 70
    32
 71
     5
 42
840.0
  3
INABA_S40G
100
AcDbAlignedDimension
 13
6412.600000000001
 23
7424.581353077207
 33
0.0
 14
6412.600000000001
 24
6584.581353077206
 34
0.0
 50
90.0
100
AcDbRotatedDimension
1001
ACAD
1000
DSTYLE
1002
{
1070
   341
1005
0
1002
}
  0
LINE
  5
1F45C
330
747D
100
AcDbEntity
  8
想像線
 48
10.0
100
AcDbLine
 10
6317.6
 20
5578.581353077207
 30
0.0
 11
6317.6
 21
8430.581353077208
 31
0.0
  0
LINE
  5
1F45D
330
747D
100
AcDbEntity
  8
部品1
 48
50.0
100
AcDbLine
 10
6612.6
 20
6684.58135307721
 30
0.0
 11
6412.600000000001
 21
6684.58135307721
 31
0.0
  0
LINE
  5
1F45E
330
747D
100
AcDbEntity
  8
部品1
 48
50.0
100
AcDbLine
 10
6612.6
 20
6484.58135307721
 30
0.0
 11
6412.600000000001
 21
6484.58135307721
 31
0.0
  0
LINE
  5
1F45F
330
747D
100
AcDbEntity
  8
部品1
 48
50.0
100
AcDbLine
 10
6812.6
 20
5878.581353077207
 30
0.0
 11
6412.600000000001
 21
5878.581353077207
 31
0.0
  0
LINE
  5
1F460
330
747D
100
AcDbEntity
  8
部品1
 48
50.0
100
AcDbLine
 10
6812.6
 20
5678.581353077206
 30
0.0
 11
6412.600000000001
 21
5678.581353077206
 31
0.0
  0
LINE
  5
1F461
330
747D
100
AcDbEntity
  8
部品1
 48
50.0
100
AcDbLine
 10
6812.6
 20
5678.58135307721
 30
0.0
 11
6412.600000000001
 21
5678.581353077206
 31
0.0
  0
LINE
  5
1F462
330
747D
100
AcDbEntity
  8
部品1
 48
50.0
100
AcDbLine
 10
6412.600000000001
 20
5878.581353077207
 30
0.0
 11
6412.600000000001
 21
5678.581353077206
 31
0.0
  0
LINE
  5
1F463
330
747D
100
AcDbEntity
  8
点線
 48
10.0
100
AcDbLine
 10
6512.6
 20
5578.5813530772
 30
0.0
 11
6312.6
 21
5578.5813530772
 31
0.0
  0
LINE
  5
1F464
330
747D
100
AcDbEntity
  8
点線
 48
10.0
100
AcDbLine
 10
6512.6
 20
5778.5813530772
 30
0.0
 11
6312.6
 21
5778.5813530772
 31
0.0
  0
LINE
  5
1F465
330
747D
100
AcDbEntity
  8
点線
 48
10.0
100
AcDbLine
 10
6312.6
 20
5778.5813530772
 30
0.0
 11
6312.6
 21
5578.5813530772
 31
0.0
  0
LINE
  5
1F466
330
747D
100
AcDbEntity
  8
点線
 48
10.0
100
AcDbLine
 10
6512.6
 20
5778.5813530772
 30
0.0
 11
6512.6
 21
5578.5813530772
 31
0.0
  0
LINE
  5
1F467
330
747D
100
AcDbEntity
  8
部品1
 48
50.0
100
AcDbLine
 10
6412.600000000001
 20
6684.581353077206
 30
0.0
 11
6412.600000000001
 21
6484.581353077206
 31
0.0
  0
LINE
  5
1F468
330
747D
100
AcDbEntity
  8
部品1
 48
50.0
100
AcDbLine
 10
6812.6
 20
5878.581353077207
 30
0.0
 11
6812.6
 21
5678.581353077206
 31
0.0
  0
LINE
  5
1F469
330
747D
100
AcDbEntity
  8
部品1
 48
50.0
100
AcDbLine
 10
7318.100000000001
 20
5678.58135307721
 30
0.0
 11
7318.100000000001
 21
5878.58135307721
 31
0.0
  0
LINE
  5
1F46A
330
747D
100
AcDbEntity
  8
部品1
 48
50.0
100
AcDbLine
 10
6612.6
 20
6684.581353077206
 30
0.0
 11
6612.6
 21
6484.581353077206
 31
0.0
  0
LINE
  5
1F46B
330
747D
100
AcDbEntity
  8
部品1
 48
50.0
100
AcDbLine
 10
7218.100000000001
 20
6684.581353077206
 30
0.0
 11
7218.100000000001
 21
6484.581353077206
 31
0.0
  0
LINE
  5
1F46C
330
747D
100
AcDbEntity
  8
部品1
 48
50.0
100
AcDbLine
 10
6612.6
 20
7524.581353077202
 30
0.0
 11
6412.600000000001
 21
7524.581353077202
 31
0.0
  0
LINE
  5
1F46D
330
747D
100
AcDbEntity
  8
部品1
 48
50.0
100
AcDbLine
 10
6612.6
 20
7324.581353077203
 30
0.0
 11
6412.600000000001
 21
7324.581353077203
 31
0.0
  0
LINE
  5
1F46E
330
747D
100
AcDbEntity
  8
部品1
 48
50.0
100
AcDbLine
 10
6412.600000000001
 20
7324.581353077206
 30
0.0
 11
6412.600000000001
 21
7524.581353077206
 31
0.0
  0
LINE
  5
1F46F
330
747D
100
AcDbEntity
  8
部品1
 48
50.0
100
AcDbLine
 10
6612.6
 20
7324.581353077206
 30
0.0
 11
6612.6
 21
7524.581353077206
 31
0.0
  0
LINE
  5
1F470
330
747D
100
AcDbEntity
  8
部品1
 48
50.0
100
AcDbLine
 10
7218.099999999997
 20
7324.581353077206
 30
0.0
 11
7218.099999999997
 21
7524.581353077206
 31
0.0
  0
DIMENSION
  5
1F471
330
747D
100
AcDbEntity
  8
寸法
 48
50.0
100
AcDbDimension
  2
*D29
 10
5556.125110886091
 20
8330.581353077207
 30
0.0
 11
5456.12511088609
 21
8380.581353077209
 31
0.0
 70
    32
  1
a
 71
     5
 42
100.0
  3
INABA_S40G
100
AcDbAlignedDimension
 13
6312.600000000001
 23
8430.581353077206
 33
0.0
 14
6412.600000000001
 24
8330.581353077207
 34
0.0
 50
90.0
100
AcDbRotatedDimension
1001
ACAD
1000
DSTYLE
1002
{
1070
   341
1005
0
1002
}
  0
DIMENSION
  5
1F472
330
747D
100
AcDbEntity
  8
寸法
 48
50.0
100
AcDbDimension
  2
*D30
 10
6412.600000000001
 20
9122.993940748829
 30
0.0
 11
6134.881723496927
 21
9122.993940748829
 31
0.0
 70
   160
  1
b
 71
     5
 42
94.99999999999909
  3
INABA_S40G
100
AcDbAlignedDimension
 13
6317.600000000002
 23
8430.58135307721
 33
0.0
 14
6412.600000000001
 24
8330.581353077207
 34
0.0
100
AcDbRotatedDimension
1001
ACAD
1000
DSTYLE
1002
{
1070
   341
1005
0
1002
}
  0
LINE
  5
1F473
330
747D
100
AcDbEntity
  8
部品1
 48
50.0
100
AcDbLine
 10
6812.6
 20
8330.581353077207
 30
0.0
 11
6412.600000000001
 21
8330.581353077207
 31
0.0
  0
LINE
  5
1F474
330
747D
100
AcDbEntity
  8
部品1
 48
50.0
100
AcDbLine
 10
6812.6
 20
8330.581353077203
 30
0.0
 11
6412.600000000001
 21
8330.581353077207
 31
0.0
  0
LINE
  5
1F475
330
747D
100
AcDbEntity
  8
部品1
 48
50.0
100
AcDbLine
 10
6812.6
 20
8130.581353077207
 30
0.0
 11
6412.600000000001
 21
8130.581353077207
 31
0.0
  0
LINE
  5
1F476
330
747D
100
AcDbEntity
  8
部品1
 48
50.0
100
AcDbLine
 10
6412.600000000001
 20
8130.581353077207
 30
0.0
 11
6412.600000000001
 21
8330.581353077207
 31
0.0
  0
LINE
  5
1F477
330
747D
100
AcDbEntity
  8
点線
 48
10.0
100
AcDbLine
 10
6512.6
 20
8230.581353077207
 30
0.0
 11
6312.6
 21
8230.581353077207
 31
0.0
  0
LINE
  5
1F478
330
747D
100
AcDbEntity
  8
点線
 48
10.0
100
AcDbLine
 10
6512.6
 20
8430.581353077206
 30
0.0
 11
6312.6
 21
8430.581353077206
 31
0.0
  0
LINE
  5
1F479
330
747D
100
AcDbEntity
  8
点線
 48
10.0
100
AcDbLine
 10
6312.6
 20
8230.581353077207
 30
0.0
 11
6312.6
 21
8430.581353077206
 31
0.0
  0
LINE
  5
1F47A
330
747D
100
AcDbEntity
  8
点線
 48
10.0
100
AcDbLine
 10
6512.6
 20
8230.581353077207
 30
0.0
 11
6512.6
 21
8430.581353077206
 31
0.0
  0
LINE
  5
1F47B
330
747D
100
AcDbEntity
  8
部品1
 48
50.0
100
AcDbLine
 10
6812.6
 20
8130.581353077207
 30
0.0
 11
6812.6
 21
8330.581353077207
 31
0.0
  0
LINE
  5
1F47C
330
747D
100
AcDbEntity
  8
部品1
 48
50.0
100
AcDbLine
 10
7318.100000000001
 20
8130.581353077209
 30
0.0
 11
7318.100000000001
 21
8330.58135307721
 31
0.0
  0
LINE
  5
1F47D
330
747D
100
AcDbEntity
  8
センター
 48
10.0
100
AcDbLine
 10
10109.6
 20
6136.581353077207
 30
0.0
 11
10109.6
 21
8330.581353077207
 31
0.0
  0
LINE
  5
1F47E
330
747D
100
AcDbEntity
  8
センター
 48
10.0
100
AcDbLine
 10
10034.6
 20
6136.581353077207
 30
0.0
 11
10034.6
 21
8330.581353077207
 31
0.0
  0
DIMENSION
  5
1F47F
330
747D
100
AcDbEntity
  8
寸法
 48
50.0
100
AcDbDimension
  2
*D31
 10
10604.03712960281
 20
6136.581353077206
 30
0.0
 11
10604.03712960281
 21
7210.121530825716
 31
0.0
 70
   160
 71
     5
 42
2194.0
  3
INABA_S40G
100
AcDbAlignedDimension
 13
10109.6
 23
8330.581353077207
 33
0.0
 14
10109.6
 24
6136.581353077207
 34
0.0
 50
90.0
100
AcDbRotatedDimension
1001
ACAD
1000
DSTYLE
1002
{
1070
   341
1005
0
1002
}
  0
DIMENSION
  5
1F484
330
747D
100
AcDbEntity
  8
寸法
 48
50.0
100
AcDbDimension
  2
*D32
 10
10429.20701126365
 20
5578.581353077202
 30
0.0
 11
10587.60656586072
 21
5683.761427623096
 31
0.0
 70
   160
 71
     5
 42
200.0
  3
INABA_S40G
100
AcDbAlignedDimension
 13
10134.6
 23
5778.581353077203
 33
0.0
 14
10134.6
 24
5578.581353077203
 34
0.0
 50
90.0
100
AcDbRotatedDimension
1001
ACAD
1000
DSTYLE
1002
{
1070
   279
1070
     2
1070
   341
1005
0
1002
}
  0
DIMENSION
  5
1F485
330
747D
100
AcDbEntity
  8
寸法
 48
50.0
100
AcDbDimension
  2
*D33
 10
9934.600000000001
 20
5317.799923455787
 30
0.0
 11
10034.91470962309
 21
5170.700719143802
 31
0.0
 70
   160
 71
     5
 42
200.0
  3
INABA_S40G
100
AcDbAlignedDimension
 13
10134.6
 23
5578.581353077203
 33
0.0
 14
9934.600000000001
 24
5578.581353077203
 34
0.0
100
AcDbRotatedDimension
1001
ACAD
1000
DSTYLE
1002
{
1070
   279
1070
     2
1070
   341
1005
0
1002
}
  0
LINE
  5
1F487
330
747D
100
AcDbEntity
  8
部品1
 48
50.0
100
AcDbLine
 10
8829.100000000002
 20
7524.581353077201
 30
0.0
 11
9229.1
 21
7524.581353077201
 31
0.0
  0
LINE
  5
1F488
330
747D
100
AcDbEntity
  8
部品1
 48
50.0
100
AcDbLine
 10
8829.100000000002
 20
6684.581353077209
 30
0.0
 11
9229.1
 21
6684.581353077209
 31
0.0
  0
LINE
  5
1F489
330
747D
100
AcDbEntity
  8
部品1
 48
50.0
100
AcDbLine
 10
8829.100000000002
 20
7324.581353077201
 30
0.0
 11
9229.1
 21
7324.581353077201
 31
0.0
  0
LINE
  5
1F48A
330
747D
100
AcDbEntity
  8
部品1
 48
50.0
100
AcDbLine
 10
8829.100000000002
 20
6484.581353077209
 30
0.0
 11
9229.1
 21
6484.581353077209
 31
0.0
  0
LINE
  5
1F48B
330
747D
100
AcDbEntity
  8
部品1
 48
50.0
100
AcDbLine
 10
8929.100000000001
 20
5678.581353077206
 30
0.0
 11
9129.100000000001
 21
5678.581353077206
 31
0.0
  0
LINE
  5
1F48C
330
747D
100
AcDbEntity
  8
部品1
 48
50.0
100
AcDbLine
 10
8929.100000000001
 20
5878.581353077207
 30
0.0
 11
9129.100000000001
 21
5878.581353077207
 31
0.0
  0
LINE
  5
1F48D
330
747D
100
AcDbEntity
  8
部品1
 48
50.0
100
AcDbLine
 10
8323.6
 20
6684.58135307721
 30
0.0
 11
8123.600000000001
 21
6684.58135307721
 31
0.0
  0
LINE
  5
1F48E
330
747D
100
AcDbEntity
  8
部品1
 48
50.0
100
AcDbLine
 10
8323.6
 20
6484.58135307721
 30
0.0
 11
8123.600000000001
 21
6484.58135307721
 31
0.0
  0
LINE
  5
1F48F
330
747D
100
AcDbEntity
  8
点線
 48
10.0
100
AcDbLine
 10
8123.600000000001
 20
5578.5813530772
 30
0.0
 11
8323.6
 21
5578.5813530772
 31
0.0
  0
LINE
  5
1F490
330
747D
100
AcDbEntity
  8
部品1
 48
50.0
100
AcDbLine
 10
8023.6
 20
5678.58135307721
 30
0.0
 11
8423.6
 21
5678.581353077206
 31
0.0
  0
LINE
  5
1F491
330
747D
100
AcDbEntity
  8
部品1
 48
50.0
100
AcDbLine
 10
8023.6
 20
5678.581353077206
 30
0.0
 11
8423.6
 21
5678.581353077206
 31
0.0
  0
LINE
  5
1F492
330
747D
100
AcDbEntity
  8
点線
 48
10.0
100
AcDbLine
 10
8123.600000000001
 20
5778.5813530772
 30
0.0
 11
8323.6
 21
5778.5813530772
 31
0.0
  0
LINE
  5
1F493
330
747D
100
AcDbEntity
  8
部品1
 48
50.0
100
AcDbLine
 10
8023.6
 20
5878.581353077207
 30
0.0
 11
8423.6
 21
5878.581353077207
 31
0.0
  0
LINE
  5
1F494
330
747D
100
AcDbEntity
  8
部品1
 48
50.0
100
AcDbLine
 10
7518.100000000001
 20
5678.58135307721
 30
0.0
 11
7518.100000000001
 21
5878.58135307721
 31
0.0
  0
LINE
  5
1F495
330
747D
100
AcDbEntity
  8
部品1
 48
50.0
100
AcDbLine
 10
8023.6
 20
5878.581353077207
 30
0.0
 11
8023.6
 21
5678.581353077206
 31
0.0
  0
LINE
  5
1F496
330
747D
100
AcDbEntity
  8
点線
 48
10.0
100
AcDbLine
 10
8123.600000000001
 20
5778.5813530772
 30
0.0
 11
8123.600000000001
 21
5578.5813530772
 31
0.0
  0
LINE
  5
1F497
330
747D
100
AcDbEntity
  8
部品1
 48
50.0
100
AcDbLine
 10
7618.100000000001
 20
6684.581353077206
 30
0.0
 11
7618.100000000001
 21
6484.581353077206
 31
0.0
  0
LINE
  5
1F498
330
747D
100
AcDbEntity
  8
部品1
 48
50.0
100
AcDbLine
 10
8123.600000000001
 20
6684.581353077206
 30
0.0
 11
8123.600000000001
 21
6484.581353077206
 31
0.0
  0
LINE
  5
1F499
330
747D
100
AcDbEntity
  8
部品1
 48
50.0
100
AcDbLine
 10
8423.6
 20
5878.581353077207
 30
0.0
 11
8423.6
 21
5678.581353077206
 31
0.0
  0
LINE
  5
1F49A
330
747D
100
AcDbEntity
  8
点線
 48
10.0
100
AcDbLine
 10
8323.6
 20
5778.5813530772
 30
0.0
 11
8323.6
 21
5578.5813530772
 31
0.0
  0
LINE
  5
1F49B
330
747D
100
AcDbEntity
  8
部品1
 48
50.0
100
AcDbLine
 10
8929.100000000001
 20
5678.58135307721
 30
0.0
 11
8929.100000000001
 21
5878.58135307721
 31
0.0
  0
LINE
  5
1F49C
330
747D
100
AcDbEntity
  8
部品1
 48
50.0
100
AcDbLine
 10
8323.6
 20
6684.581353077206
 30
0.0
 11
8323.6
 21
6484.581353077206
 31
0.0
  0
LINE
  5
1F49D
330
747D
100
AcDbEntity
  8
部品1
 48
50.0
100
AcDbLine
 10
8829.100000000002
 20
6684.581353077205
 30
0.0
 11
8829.100000000002
 21
6484.581353077205
 31
0.0
  0
LINE
  5
1F49E
330
747D
100
AcDbEntity
  8
部品1
 48
50.0
100
AcDbLine
 10
8323.6
 20
7524.581353077202
 30
0.0
 11
8123.600000000001
 21
7524.581353077202
 31
0.0
  0
LINE
  5
1F49F
330
747D
100
AcDbEntity
  8
部品1
 48
50.0
100
AcDbLine
 10
8323.6
 20
7324.581353077203
 30
0.0
 11
8123.600000000001
 21
7324.581353077203
 31
0.0
  0
LINE
  5
1F4A2
330
747D
100
AcDbEntity
  8
部品1
 48
50.0
100
AcDbLine
 10
7618.099999999997
 20
7324.581353077206
 30
0.0
 11
7618.099999999997
 21
7524.581353077206
 31
0.0
  0
LINE
  5
1F4A3
330
747D
100
AcDbEntity
  8
部品1
 48
50.0
100
AcDbLine
 10
8123.600000000001
 20
7324.581353077206
 30
0.0
 11
8123.600000000001
 21
7524.581353077206
 31
0.0
  0
LINE
  5
1F4A4
330
747D
100
AcDbEntity
  8
部品1
 48
50.0
100
AcDbLine
 10
8323.6
 20
7324.581353077206
 30
0.0
 11
8323.6
 21
7524.581353077206
 31
0.0
  0
LINE
  5
1F4A5
330
747D
100
AcDbEntity
  8
部品1
 48
50.0
100
AcDbLine
 10
8829.100000000002
 20
7324.581353077205
 30
0.0
 11
8829.100000000002
 21
7524.581353077206
 31
0.0
  0
LINE
  5
1F4A6
330
747D
100
AcDbEntity
  8
想像線
 48
10.0
100
AcDbLine
 10
10129.6
 20
8430.581353077213
 30
0.0
 11
10129.6
 21
5578.581353077207
 31
0.0
  0
LINE
  5
1F4A7
330
747D
100
AcDbEntity
  8
部品1
 48
50.0
100
AcDbLine
 10
9634.6
 20
5878.581353077207
 30
0.0
 11
10034.6
 21
5878.581353077207
 31
0.0
  0
LINE
  5
1F4A8
330
747D
100
AcDbEntity
  8
部品1
 48
50.0
100
AcDbLine
 10
9634.6
 20
5678.581353077206
 30
0.0
 11
10034.6
 21
5678.581353077206
 31
0.0
  0
LINE
  5
1F4A9
330
747D
100
AcDbEntity
  8
部品1
 48
50.0
100
AcDbLine
 10
9634.6
 20
5678.58135307721
 30
0.0
 11
10034.6
 21
5678.581353077206
 31
0.0
  0
LINE
  5
1F4AA
330
747D
100
AcDbEntity
  8
部品1
 48
50.0
100
AcDbLine
 10
9129.100000000001
 20
5678.58135307721
 30
0.0
 11
9129.100000000001
 21
5878.58135307721
 31
0.0
  0
LINE
  5
1F4AB
330
747D
100
AcDbEntity
  8
部品1
 48
50.0
100
AcDbLine
 10
9634.6
 20
5878.581353077207
 30
0.0
 11
9634.6
 21
5678.581353077206
 31
0.0
  0
LINE
  5
1F4AC
330
747D
100
AcDbEntity
  8
部品1
 48
50.0
100
AcDbLine
 10
9229.1
 20
6684.581353077205
 30
0.0
 11
9229.1
 21
6484.581353077205
 31
0.0
  0
LINE
  5
1F4AD
330
747D
100
AcDbEntity
  8
部品1
 48
50.0
100
AcDbLine
 10
10034.6
 20
5878.581353077207
 30
0.0
 11
10034.6
 21
5678.581353077206
 31
0.0
  0
LINE
  5
1F4AE
330
747D
100
AcDbEntity
  8
点線
 48
10.0
100
AcDbLine
 10
9934.600000000001
 20
5578.5813530772
 30
0.0
 11
10134.6
 21
5578.5813530772
 31
0.0
  0
LINE
  5
1F4AF
330
747D
100
AcDbEntity
  8
点線
 48
10.0
100
AcDbLine
 10
9934.600000000001
 20
5778.5813530772
 30
0.0
 11
10134.6
 21
5778.5813530772
 31
0.0
  0
LINE
  5
1F4B0
330
747D
100
AcDbEntity
  8
点線
 48
10.0
100
AcDbLine
 10
9934.600000000001
 20
5778.5813530772
 30
0.0
 11
9934.600000000001
 21
5578.5813530772
 31
0.0
  0
LINE
  5
1F4B1
330
747D
100
AcDbEntity
  8
点線
 48
10.0
100
AcDbLine
 10
10134.6
 20
5778.5813530772
 30
0.0
 11
10134.6
 21
5578.5813530772
 31
0.0
  0
LINE
  5
1F4B2
330
747D
100
AcDbEntity
  8
センター
 48
10.0
100
AcDbLine
 10
10109.6
 20
6136.581353077207
 30
0.0
 11
10034.6
 21
6136.581353077207
 31
0.0
  0
LINE
  5
1F4B3
330
747D
100
AcDbEntity
  8
部品1
 48
50.0
100
AcDbLine
 10
10109.6
 20
6684.581353077209
 30
0.0
 11
10109.6
 21
6284.581353077208
 31
0.0
  0
LINE
  5
1F4B4
330
747D
100
AcDbEntity
  8
部品1
 48
50.0
100
AcDbLine
 10
9909.600000000008
 20
6684.581353077209
 30
0.0
 11
9909.600000000008
 21
6284.581353077208
 31
0.0
  0
LINE
  5
1F4B5
330
747D
100
AcDbEntity
  8
部品1
 48
50.0
100
AcDbLine
 10
9909.600000000008
 20
6284.581353077212
 30
0.0
 11
10109.6
 21
6284.581353077212
 31
0.0
  0
LINE
  5
1F4B6
330
747D
100
AcDbEntity
  8
部品1
 48
50.0
100
AcDbLine
 10
9909.600000000008
 20
6684.581353077212
 30
0.0
 11
10109.6
 21
6684.581353077212
 31
0.0
  0
LINE
  5
1F4B7
330
747D
100
AcDbEntity
  8
部品1
 48
50.0
100
AcDbLine
 10
9229.1
 20
7324.581353077205
 30
0.0
 11
9229.1
 21
7524.581353077206
 31
0.0
  0
LINE
  5
1F4B8
330
747D
100
AcDbEntity
  8
部品1
 48
50.0
100
AcDbLine
 10
10109.6
 20
7125.581353077212
 30
0.0
 11
10109.6
 21
7525.581353077211
 31
0.0
  0
LINE
  5
1F4B9
330
747D
100
AcDbEntity
  8
部品1
 48
50.0
100
AcDbLine
 10
9909.600000000008
 20
7125.581353077212
 30
0.0
 11
9909.600000000008
 21
7525.581353077211
 31
0.0
  0
LINE
  5
1F4BA
330
747D
100
AcDbEntity
  8
部品1
 48
50.0
100
AcDbLine
 10
9909.600000000008
 20
7125.581353077208
 30
0.0
 11
10109.6
 21
7125.581353077208
 31
0.0
  0
LINE
  5
1F4BB
330
747D
100
AcDbEntity
  8
部品1
 48
50.0
100
AcDbLine
 10
9909.600000000008
 20
7525.581353077209
 30
0.0
 11
10109.6
 21
7525.581353077209
 31
0.0
  0
DIMENSION
  5
1F4BC
330
747D
100
AcDbEntity
  8
寸法
 48
50.0
100
AcDbDimension
  2
*D34
 10
10034.6
 20
8635.872028276768
 30
0.0
 11
10735.08537696976
 21
8635.872028276768
 31
0.0
 70
   160
  1
扉の出<>
 71
     5
 42
75.0
  3
INABA_S40G
100
AcDbAlignedDimension
 13
10109.6
 23
8330.581353077207
 33
0.0
 14
10034.6
 24
8330.581353077207
 34
0.0
 50
180.0
100
AcDbRotatedDimension
1001
ACAD
1000
DSTYLE
1002
{
1070
   341
1005
0
1002
}
  0
LINE
  5
1F4BD
330
747D
100
AcDbEntity
  8
部品1
 48
50.0
100
AcDbLine
 10
8929.100000000001
 20
8130.581353077207
 30
0.0
 11
9129.100000000001
 21
8130.581353077207
 31
0.0
  0
LINE
  5
1F4BE
330
747D
100
AcDbEntity
  8
部品1
 48
50.0
100
AcDbLine
 10
8929.100000000001
 20
8330.581353077207
 30
0.0
 11
9129.100000000001
 21
8330.581353077207
 31
0.0
  0
DIMENSION
  5
1F4BF
330
747D
100
AcDbEntity
  8
寸法
 48
50.0
100
AcDbDimension
  2
*D35
 10
8223.600000000001
 20
8876.593912720348
 30
0.0
 11
9129.100000000001
 21
8976.593912720348
 31
0.0
 70
    32
 71
     5
 42
1811.0
  3
INABA_S40G
100
AcDbAlignedDimension
 13
10034.6
 23
8330.581353077207
 33
0.0
 14
8223.600000000001
 24
8330.581353077207
 34
0.0
100
AcDbRotatedDimension
1001
ACAD
1000
DSTYLE
1002
{
1070
   341
1005
0
1002
}
  0
LINE
  5
1F4C0
330
747D
100
AcDbEntity
  8
部品1
 48
50.0
100
AcDbLine
 10
8023.6
 20
8130.581353077207
 30
0.0
 11
8423.6
 21
8130.581353077207
 31
0.0
  0
LINE
  5
1F4C1
330
747D
100
AcDbEntity
  8
点線
 48
10.0
100
AcDbLine
 10
8123.600000000001
 20
8230.581353077207
 30
0.0
 11
8323.6
 21
8230.581353077207
 31
0.0
  0
LINE
  5
1F4C2
330
747D
100
AcDbEntity
  8
点線
 48
10.0
100
AcDbLine
 10
8123.600000000001
 20
8430.581353077206
 30
0.0
 11
8323.6
 21
8430.581353077206
 31
0.0
  0
LINE
  5
1F4C3
330
747D
100
AcDbEntity
  8
部品1
 48
50.0
100
AcDbLine
 10
8023.6
 20
8330.581353077207
 30
0.0
 11
8423.6
 21
8330.581353077207
 31
0.0
  0
LINE
  5
1F4C4
330
747D
100
AcDbEntity
  8
部品1
 48
50.0
100
AcDbLine
 10
7518.100000000001
 20
8130.581353077209
 30
0.0
 11
7518.100000000001
 21
8330.58135307721
 31
0.0
  0
LINE
  5
1F4C5
330
747D
100
AcDbEntity
  8
部品1
 48
50.0
100
AcDbLine
 10
8023.6
 20
8130.581353077207
 30
0.0
 11
8023.6
 21
8330.581353077207
 31
0.0
  0
LINE
  5
1F4C6
330
747D
100
AcDbEntity
  8
点線
 48
10.0
100
AcDbLine
 10
8123.600000000001
 20
8230.581353077207
 30
0.0
 11
8123.600000000001
 21
8430.581353077206
 31
0.0
  0
LINE
  5
1F4C7
330
747D
100
AcDbEntity
  8
部品1
 48
50.0
100
AcDbLine
 10
8423.6
 20
8130.581353077207
 30
0.0
 11
8423.6
 21
8330.581353077207
 31
0.0
  0
LINE
  5
1F4C8
330
747D
100
AcDbEntity
  8
点線
 48
10.0
100
AcDbLine
 10
8323.6
 20
8230.581353077207
 30
0.0
 11
8323.6
 21
8430.581353077206
 31
0.0
  0
LINE
  5
1F4C9
330
747D
100
AcDbEntity
  8
部品1
 48
50.0
100
AcDbLine
 10
8929.100000000001
 20
8130.581353077209
 30
0.0
 11
8929.100000000001
 21
8330.58135307721
 31
0.0
  0
DIMENSION
  5
1F4CA
330
747D
100
AcDbEntity
  8
寸法
 48
50.0
100
AcDbDimension
  2
*D36
 10
10129.6
 20
9122.993940748829
 30
0.0
 11
10312.31827650307
 21
9122.993940748829
 31
0.0
 70
   160
  1
b
 71
     5
 42
95.00000000000182
  3
INABA_S40G
100
AcDbAlignedDimension
 13
10034.6
 23
8330.581353077207
 33
0.0
 14
10129.6
 24
8430.581353077213
 34
0.0
100
AcDbRotatedDimension
1001
ACAD
1000
DSTYLE
1002
{
1070
   341
1005
0
1002
}
  0
LINE
  5
1F4CB
330
747D
100
AcDbEntity
  8
部品1
 48
50.0
100
AcDbLine
 10
9634.6
 20
8330.581353077207
 30
0.0
 11
10034.6
 21
8330.581353077207
 31
0.0
  0
LINE
  5
1F4CC
330
747D
100
AcDbEntity
  8
部品1
 48
50.0
100
AcDbLine
 10
9634.6
 20
8330.581353077203
 30
0.0
 11
10034.6
 21
8330.581353077207
 31
0.0
  0
LINE
  5
1F4CD
330
747D
100
AcDbEntity
  8
部品1
 48
50.0
100
AcDbLine
 10
9634.6
 20
8130.581353077207
 30
0.0
 11
10034.6
 21
8130.581353077207
 31
0.0
  0
LINE
  5
1F4CE
330
747D
100
AcDbEntity
  8
部品1
 48
50.0
100
AcDbLine
 10
9129.100000000001
 20
8130.581353077209
 30
0.0
 11
9129.100000000001
 21
8330.58135307721
 31
0.0
  0
LINE
  5
1F4CF
330
747D
100
AcDbEntity
  8
部品1
 48
50.0
100
AcDbLine
 10
9634.6
 20
8130.581353077207
 30
0.0
 11
9634.6
 21
8330.581353077207
 31
0.0
  0
LINE
  5
1F4D0
330
747D
100
AcDbEntity
  8
部品1
 48
50.0
100
AcDbLine
 10
10034.6
 20
8130.581353077207
 30
0.0
 11
10034.6
 21
8330.581353077207
 31
0.0
  0
LINE
  5
1F4D1
330
747D
100
AcDbEntity
  8
点線
 48
10.0
100
AcDbLine
 10
9934.600000000001
 20
8230.581353077207
 30
0.0
 11
10134.6
 21
8230.581353077207
 31
0.0
  0
LINE
  5
1F4D2
330
747D
100
AcDbEntity
  8
点線
 48
10.0
100
AcDbLine
 10
9934.600000000001
 20
8430.581353077206
 30
0.0
 11
10134.6
 21
8430.581353077206
 31
0.0
  0
LINE
  5
1F4D3
330
747D
100
AcDbEntity
  8
センター
 48
10.0
100
AcDbLine
 10
10109.6
 20
8330.581353077207
 30
0.0
 11
10034.6
 21
8330.581353077207
 31
0.0
  0
LINE
  5
1F4D4
330
747D
100
AcDbEntity
  8
点線
 48
10.0
100
AcDbLine
 10
9934.600000000001
 20
8230.581353077207
 30
0.0
 11
9934.600000000001
 21
8430.581353077206
 31
0.0
  0
LINE
  5
1F4D5
330
747D
100
AcDbEntity
  8
点線
 48
10.0
100
AcDbLine
 10
10134.6
 20
8230.581353077207
 30
0.0
 11
10134.6
 21
8430.581353077206
 31
0.0
  0
LINE
  5
1F4D6
330
747D
100
AcDbEntity
  8
細線
 48
10.0
100
AcDbLine
 10
6649.90432595952
 20
1096.236467561541
 30
0.0
 11
7041.522244829389
 21
1487.854386431425
 31
0.0
  0
LINE
  5
1F4D7
330
747D
100
AcDbEntity
  8
細線
 48
10.0
100
AcDbLine
 10
6627.276908961549
 20
1096.236467561541
 30
0.0
 11
7018.894827831421
 21
1487.854386431425
 31
0.0
  0
LINE
  5
1F4D8
330
747D
100
AcDbEntity
  8
細線
 48
10.0
100
AcDbLine
 10
6672.531742957487
 20
1096.236467561541
 30
0.0
 11
7064.149661827361
 21
1487.854386431425
 31
0.0
  0
MTEXT
  5
1F4D9
330
747D
100
AcDbEntity
  8
文字
 48
50.0
100
AcDbMText
 10
6025.298406908446
 20
902.6285383023278
 30
0.0
 40
80.0
 41
0.8
 71
     1
 72
     5
  1
a寸法：92～112mmに対応\P\U+203BオールアンカーM10(市販品)\P  が4本必要になります。
  7
STYLE2
 73
     1
 44
1.0
1001
ACAD
1000
MTEXTBEGIN
1070
    73
1070
     1
1070
    44
1040
1.0
1070
    74
1070
     0
1000
MTEXTEND
  0
DIMENSION
  5
1F4DA
330
747D
100
AcDbEntity
  8
寸法
 48
50.0
100
AcDbDimension
  2
*D37
 10
7328.522301453493
 20
1487.854386431425
 30
0.0
 11
7328.522301453493
 21
1558.732044950497
 31
0.0
 70
   160
  1
a
 71
     5
 42
160.0
  3
INABA_S40G
100
AcDbAlignedDimension
 13
6886.719606458068
 23
1647.854386431425
 33
0.0
 14
7198.278995973659
 24
1487.854386431425
 34
0.0
 50
90.0
100
AcDbRotatedDimension
1001
ACAD
1000
DSTYLE
1002
{
1070
   341
1005
0
1002
}
  0
LINE
  5
1F4DB
330
747D
100
AcDbEntity
  8
Ｇ．Ｌ
100
AcDbLine
 10
6156.857237524668
 20
1487.854386431425
 30
0.0
 11
7198.278995973661
 21
1487.854386431425
 31
0.0
  0
LINE
  5
1F4DC
330
747D
100
AcDbEntity
  8
部品1
100
AcDbLine
 10
5930.222058750763
 20
2495.521610273402
 30
0.0
 11
7530.222058750763
 21
2495.521610273402
 31
0.0
  0
LINE
  5
1F4DD
330
747D
100
AcDbEntity
  8
部品1
100
AcDbLine
 10
7530.222058750763
 20
2255.521610273401
 30
0.0
 11
5930.222058750763
 21
2255.521610273401
 31
0.0
  0
LWPOLYLINE
  5
1F4DE
330
747D
100
AcDbEntity
  8
部品1
100
AcDbPolyline
 90
        4
 70
     1
 43
0.0
 10
5930.222058750763
 20
2255.521610273401
 10
5930.222058750763
 20
335.5216102734012
 10
7530.222058750759
 20
335.5216102734012
 10
7530.222058750759
 20
2255.521610273401
  0
LINE
  5
1F4DF
330
747D
100
AcDbEntity
  8
部品1
100
AcDbLine
 10
4330.222058750762
 20
2495.521610273402
 30
0.0
 11
10728.96846365886
 21
2495.521610273402
 31
0.0
  0
LINE
  5
1F4E0
330
747D
100
AcDbEntity
  8
部品1
100
AcDbLine
 10
10728.96846365886
 20
2735.521610273401
 30
0.0
 11
2730.222058750758
 21
2735.521610273401
 31
0.0
  0
TEXT
  5
1F4E1
330
747D
100
AcDbEntity
  8
部品1
100
AcDbText
 10
6691.566839596039
 20
2311.387659778042
 30
0.0
 40
120.0
  1
地盤がコンクリートの場合
  7
STYLE2
100
AcDbText
  0
LINE
  5
1F4E3
330
747D
100
AcDbEntity
  8
部品1
100
AcDbLine
 10
5930.222058750763
 20
2255.521610273401
 30
0.0
 11
5930.222058750763
 21
2495.521610273402
 31
0.0
  0
LWPOLYLINE
  5
1F4E4
330
747D
100
AcDbEntity
  8
部品1
100
AcDbPolyline
 90
        4
 70
     1
 43
0.0
 10
4330.222058750762
 20
2255.521610273401
 10
4330.222058750762
 20
2495.521610273402
 10
5930.222058750763
 20
2495.521610273402
 10
5930.222058750763
 20
2255.521610273401
  0
TEXT
  5
1F4E5
330
747D
100
AcDbEntity
  8
部品1
100
AcDbText
 10
4556.69019125099
 20
2313.806726614606
 30
0.0
 40
120.0
  1
地盤が土の場合
  7
STYLE2
100
AcDbText
  0
LWPOLYLINE
  5
1F4E6
330
747D
100
AcDbEntity
  8
部品1
100
AcDbPolyline
 90
        4
 70
     1
 43
0.0
 10
2516.977963313589
 20
2255.521610273401
 10
2516.977963313587
 20
2495.521610273402
 10
4330.222058750762
 20
2495.521610273402
 10
4330.222058750762
 20
2255.521610273401
  0
TEXT
  5
1F4E7
330
747D
100
AcDbEntity
  8
部品1
100
AcDbText
 10
2638.448750464712
 20
2309.693079027631
 30
0.0
 40
120.0
  1
ブロック置基礎の場合
  7
STYLE2
100
AcDbText
  0
LWPOLYLINE
  5
1F4E8
330
747D
100
AcDbEntity
  8
部品1
100
AcDbPolyline
 90
        4
 70
     1
 43
0.0
 10
2516.977963313587
 20
2255.521610273401
 10
2516.977963313587
 20
335.5216102734012
 10
4330.222058750762
 20
335.5216102734012
 10
4330.222058750762
 20
2255.521610273401
  0
LEADER
  5
1F4E9
330
747D
100
AcDbEntity
  8
寸法
 48
50.0
100
AcDbLeader
  3
INABA_S50G
 73
     0
 74
     0
 75
     1
 40
120.0
 41
185.591883092037
 76
     3
 10
3495.67629971961
 20
1415.020539289267
 30
0.0
 10
3570.032221254596
 20
1587.166859970406
 30
0.0
 10
3695.032221254596
 20
1587.166859970406
 30
0.0
340
1F4EA
1001
ACAD
1000
DSTYLE
1002
{
1070
    40
1040
1.0
1002
}
  0
MTEXT
  5
1F4EA
102
{ACAD_REACTORS
330
1F4E9
102
}
330
747D
100
AcDbEntity
  8
寸法
 62
     7
 48
50.0
100
AcDbMText
 10
3720.032221254596
 20
1672.166859970406
 30
0.0
 40
120.0
 41
0.8
 71
     4
 72
     1
  1
\A1;C.B
  7
STYLE1
 73
     1
 44
1.0
1001
ACAD
1000
MTEXTBEGIN
1070
    73
1070
     1
1070
    44
1040
1.0
1070
    74
1070
     0
1000
MTEXTEND
  0
LINE
  5
1F4EB
330
747D
100
AcDbEntity
  8
細線
100
AcDbLine
 10
3552.166506488058
 20
1175.020539289267
 30
0.0
 11
3632.166506488058
 21
1255.020539289267
 31
0.0
  0
LINE
  5
1F4EC
330
747D
100
AcDbEntity
  8
細線
100
AcDbLine
 10
3597.421340484002
 20
1175.020539289267
 30
0.0
 11
3677.421340483998
 21
1255.020539289267
 31
0.0
  0
LINE
  5
1F4ED
330
747D
100
AcDbEntity
  8
細線
100
AcDbLine
 10
3574.793923486032
 20
1175.020539289267
 30
0.0
 11
3654.793923486028
 21
1255.020539289267
 31
0.0
  0
LINE
  5
1F4EE
330
747D
100
AcDbEntity
  8
細線
100
AcDbLine
 10
3646.451191487886
 20
1255.020539289269
 30
0.0
 11
3486.451191487886
 21
1415.020539289267
 31
0.0
  0
LINE
  5
1F4EF
330
747D
100
AcDbEntity
  8
Ｇ．Ｌ
100
AcDbLine
 10
2777.801949331577
 20
1255.020539289267
 30
0.0
 11
4190.507007024723
 21
1255.020539289267
 31
0.0
  0
LINE
  5
1F4F0
330
747D
100
AcDbEntity
  8
部品1
100
AcDbLine
 10
3335.676299719609
 20
1415.020539289267
 30
0.0
 11
3655.67629971961
 21
1415.020539289267
 31
0.0
  0
LINE
  5
1F4F1
330
747D
100
AcDbEntity
  8
部品1
100
AcDbLine
 10
3255.67629971961
 20
1175.020539289266
 30
0.0
 11
3735.676299719609
 21
1175.020539289267
 31
0.0
  0
LINE
  5
1F4F2
330
747D
100
AcDbEntity
  8
部品1
100
AcDbLine
 10
3255.67629971961
 20
1015.020539289266
 30
0.0
 11
3735.676299719609
 21
1015.020539289267
 31
0.0
  0
LINE
  5
1F4F3
330
747D
100
AcDbEntity
  8
細線
100
AcDbLine
 10
3255.67629971961
 20
1175.020539289266
 30
0.0
 11
3298.548170508587
 21
1015.020539289264
 31
0.0
  0
LINE
  5
1F4F4
330
747D
100
AcDbEntity
  8
部品1
100
AcDbLine
 10
3255.67629971961
 20
1015.020539289266
 30
0.0
 11
3255.67629971961
 21
1255.020539289267
 31
0.0
  0
LINE
  5
1F4F5
330
747D
100
AcDbEntity
  8
細線
100
AcDbLine
 10
3287.830202811343
 20
1055.020539289266
 30
0.0
 11
3277.112235114099
 21
1015.020539289266
 31
0.0
  0
LINE
  5
1F4F6
330
747D
100
AcDbEntity
  8
細線
100
AcDbLine
 10
3277.112235114099
 20
1175.020539289266
 30
0.0
 11
3266.394267416854
 21
1135.020539289266
 31
0.0
  0
LINE
  5
1F4F7
330
747D
100
AcDbEntity
  8
細線
100
AcDbLine
 10
3312.166506488058
 20
1175.020539289266
 30
0.0
 11
3392.166506488058
 21
1255.020539289267
 31
0.0
  0
LINE
  5
1F4F8
330
747D
100
AcDbEntity
  8
細線
100
AcDbLine
 10
3357.421340484001
 20
1175.020539289267
 30
0.0
 11
3437.421340483998
 21
1255.020539289267
 31
0.0
  0
LINE
  5
1F4F9
330
747D
100
AcDbEntity
  8
細線
100
AcDbLine
 10
3334.793923486031
 20
1175.020539289267
 30
0.0
 11
3414.793923486028
 21
1255.020539289267
 31
0.0
  0
LINE
  5
1F4FA
330
747D
100
AcDbEntity
  8
細線
100
AcDbLine
 10
3335.676299719609
 20
1175.020539289266
 30
0.0
 11
3378.548170508588
 21
1015.020539289264
 31
0.0
  0
LINE
  5
1F4FB
330
747D
100
AcDbEntity
  8
細線
100
AcDbLine
 10
3415.676299719609
 20
1175.020539289267
 30
0.0
 11
3458.548170508588
 21
1015.020539289266
 31
0.0
  0
LINE
  5
1F4FC
330
747D
100
AcDbEntity
  8
細線
100
AcDbLine
 10
3367.830202811343
 20
1055.020539289266
 30
0.0
 11
3357.112235114099
 21
1015.020539289266
 31
0.0
  0
LINE
  5
1F4FD
330
747D
100
AcDbEntity
  8
細線
100
AcDbLine
 10
3447.830202811343
 20
1055.020539289267
 30
0.0
 11
3437.112235114098
 21
1015.020539289267
 31
0.0
  0
LINE
  5
1F4FE
330
747D
100
AcDbEntity
  8
細線
100
AcDbLine
 10
3357.112235114099
 20
1175.020539289266
 30
0.0
 11
3346.394267416854
 21
1135.020539289266
 31
0.0
  0
LINE
  5
1F4FF
330
747D
100
AcDbEntity
  8
細線
100
AcDbLine
 10
3437.112235114098
 20
1175.020539289267
 30
0.0
 11
3426.394267416854
 21
1135.020539289267
 31
0.0
  0
LINE
  5
1F500
330
747D
100
AcDbEntity
  8
細線
100
AcDbLine
 10
3495.67629971961
 20
1175.020539289267
 30
0.0
 11
3538.548170508588
 21
1015.020539289266
 31
0.0
  0
LINE
  5
1F501
330
747D
100
AcDbEntity
  8
細線
100
AcDbLine
 10
3575.676299719609
 20
1175.020539289267
 30
0.0
 11
3618.548170508588
 21
1015.020539289266
 31
0.0
  0
LINE
  5
1F502
330
747D
100
AcDbEntity
  8
細線
100
AcDbLine
 10
3527.830202811343
 20
1055.020539289267
 30
0.0
 11
3517.112235114099
 21
1015.020539289267
 31
0.0
  0
LINE
  5
1F503
330
747D
100
AcDbEntity
  8
細線
100
AcDbLine
 10
3607.830202811344
 20
1055.020539289267
 30
0.0
 11
3597.112235114098
 21
1015.020539289267
 31
0.0
  0
LINE
  5
1F504
330
747D
100
AcDbEntity
  8
細線
100
AcDbLine
 10
3517.112235114099
 20
1175.020539289267
 30
0.0
 11
3506.394267416854
 21
1135.020539289267
 31
0.0
  0
LINE
  5
1F505
330
747D
100
AcDbEntity
  8
細線
100
AcDbLine
 10
3597.112235114098
 20
1175.020539289267
 30
0.0
 11
3586.394267416854
 21
1135.020539289267
 31
0.0
  0
LINE
  5
1F506
330
747D
100
AcDbEntity
  8
細線
100
AcDbLine
 10
3612.510065990933
 20
1255.020539289267
 30
0.0
 11
3452.510065990934
 21
1415.020539289267
 31
0.0
  0
LINE
  5
1F507
330
747D
100
AcDbEntity
  8
細線
100
AcDbLine
 10
3465.431855504129
 20
1255.020539289267
 30
0.0
 11
3335.676299719609
 21
1384.77609507379
 31
0.0
  0
LINE
  5
1F508
330
747D
100
AcDbEntity
  8
細線
100
AcDbLine
 10
3431.490730007175
 20
1255.020539289267
 30
0.0
 11
3335.676299719609
 21
1350.834969576837
 31
0.0
  0
LINE
  5
1F509
330
747D
100
AcDbEntity
  8
部品1
100
AcDbLine
 10
3335.676299719609
 20
1255.020539289267
 30
0.0
 11
3335.676299719609
 21
1415.020539289267
 31
0.0
  0
TEXT
  5
1F50A
330
747D
100
AcDbEntity
  8
部品1
100
AcDbText
 10
2920.107877079466
 20
1273.257747459087
 30
0.0
 40
120.0
  1
G.L
  7
STYLE1
100
AcDbText
  0
LINE
  5
1F50B
330
747D
100
AcDbEntity
  8
部品1
100
AcDbLine
 10
3735.676299719609
 20
1255.020539289267
 30
0.0
 11
3735.676299719609
 21
1015.020539289267
 31
0.0
  0
LINE
  5
1F50C
330
747D
100
AcDbEntity
  8
細線
100
AcDbLine
 10
3655.67629971961
 20
1175.020539289267
 30
0.0
 11
3698.548170508587
 21
1015.020539289267
 31
0.0
  0
LINE
  5
1F50D
330
747D
100
AcDbEntity
  8
細線
100
AcDbLine
 10
3687.830202811343
 20
1055.020539289267
 30
0.0
 11
3677.112235114099
 21
1015.020539289267
 31
0.0
  0
LINE
  5
1F50E
330
747D
100
AcDbEntity
  8
細線
100
AcDbLine
 10
3677.112235114099
 20
1175.020539289267
 30
0.0
 11
3666.394267416854
 21
1135.020539289267
 31
0.0
  0
LINE
  5
1F50F
330
747D
100
AcDbEntity
  8
部品1
100
AcDbLine
 10
3655.67629971961
 20
1415.020539289267
 30
0.0
 11
3655.67629971961
 21
1255.020539289267
 31
0.0
  0
LINE
  5
1F510
330
747D
100
AcDbEntity
  8
文字
 48
50.0
100
AcDbLine
 10
2844.481258078719
 20
1255.769232929995
 30
0.0
 11
2903.625677432949
 21
1358.21037223568
 31
0.0
  0
LINE
  5
1F511
330
747D
100
AcDbEntity
  8
文字
 48
50.0
100
AcDbLine
 10
2903.625677432949
 20
1358.21037223568
 30
0.0
 11
2785.336838724492
 21
1358.21037223568
 31
0.0
  0
LINE
  5
1F512
330
747D
100
AcDbEntity
  8
文字
 48
50.0
100
AcDbLine
 10
2785.336838724492
 20
1358.21037223568
 30
0.0
 11
2844.481258078719
 21
1255.769232929995
 31
0.0
  0
LWPOLYLINE
  5
1F513
330
747D
100
AcDbEntity
  8
部品1
100
AcDbPolyline
 90
        4
 70
     1
 43
0.0
 10
4330.222058750762
 20
2255.521610273401
 10
4330.222058750762
 20
335.5216102734012
 10
5930.222058750763
 20
335.5216102734012
 10
5930.222058750763
 20
2255.521610273401
  0
LINE
  5
1F514
330
747D
100
AcDbEntity
  8
細線
  6
HIDDEN
 48
10.0
100
AcDbLine
 10
5194.168140076206
 20
775.0205392892694
 30
0.0
 11
5526.386756954636
 21
1107.239156167712
 31
0.0
  0
LINE
  5
1F515
330
747D
100
AcDbEntity
  8
細線
  6
HIDDEN
 48
10.0
100
AcDbLine
 10
5171.540723078236
 20
775.0205392892675
 30
0.0
 11
5526.386756954636
 21
1129.86657316568
 31
0.0
  0
LINE
  5
1F516
330
747D
100
AcDbEntity
  8
細線
  6
HIDDEN
 48
10.0
100
AcDbLine
 10
5216.795557074173
 20
775.0205392892694
 30
0.0
 11
5526.386756954636
 21
1084.611739169741
 31
0.0
  0
LINE
  5
1F517
330
747D
100
AcDbEntity
  8
文字
 48
50.0
100
AcDbLine
 10
5445.578035422929
 20
1255.020539289267
 30
0.0
 11
5504.722454777158
 21
1357.461678594955
 31
0.0
  0
LINE
  5
1F518
330
747D
100
AcDbEntity
  8
文字
 48
50.0
100
AcDbLine
 10
5504.722454777158
 20
1357.461678594955
 30
0.0
 11
5386.433616068699
 21
1357.461678594955
 31
0.0
  0
LINE
  5
1F519
330
747D
100
AcDbEntity
  8
Ｇ．Ｌ
100
AcDbLine
 10
5326.386756954636
 20
1255.020539289267
 30
0.0
 11
5751.823606501098
 21
1255.020539289267
 31
0.0
  0
LWPOLYLINE
  5
1F51A
330
747D
100
AcDbEntity
  8
部品1
100
AcDbPolyline
 90
        4
 70
     0
 43
0.0
 10
5326.386756954636
 20
1255.020539289267
 10
5526.386756954636
 20
1255.020539289267
 10
5526.386756954636
 20
775.0205392892675
 10
5046.386756954635
 20
775.0205392892675
  0
LINE
  5
1F51B
330
747D
100
AcDbEntity
  8
部品1
100
AcDbLine
 10
5326.386756954636
 20
1465.420539289269
 30
0.0
 11
5326.386756954636
 21
1226.736914479676
 31
0.0
  0
LINE
  5
1F51C
330
747D
100
AcDbEntity
  8
部品1
100
AcDbLine
 10
5262.386756954636
 20
1465.420539289269
 30
0.0
 11
5262.386756954636
 21
1226.736914479676
 31
0.0
  0
LINE
  5
1F51D
330
747D
100
AcDbEntity
  8
部品1
100
AcDbLine
 10
5326.386756954636
 20
1895.020539289266
 30
0.0
 11
5326.386756954636
 21
1255.020539289267
 31
0.0
  0
DIMENSION
  5
1F51E
330
747D
100
AcDbEntity
  8
寸法
 48
50.0
100
AcDbDimension
  2
*D19
 10
4862.211765039575
 20
775.0205392892677
 30
0.0
 11
4762.199954015954
 21
1015.020539289268
 31
0.0
 70
    32
  1
200
 71
     5
 42
480.0
  3
INABA_S40G
100
AcDbAlignedDimension
 13
4947.384058786208
 23
1255.020539289267
 33
0.0
 14
5046.386756954635
 24
775.0205392892675
 34
0.0
 50
90.0
100
AcDbRotatedDimension
1001
ACAD
1000
DSTYLE
1002
{
1070
   341
1005
0
1002
}
  0
LINE
  5
1F51F
330
747D
100
AcDbEntity
  8
部品1
100
AcDbLine
 10
4686.386756954635
 20
1415.020539289267
 30
0.0
 11
5262.386756954636
 21
1415.020539289267
 31
0.0
  0
LINE
  5
1F520
330
747D
100
AcDbEntity
  8
細線
  6
HIDDEN
 48
10.0
100
AcDbLine
 10
5046.386756954635
 20
968.5658672499631
 30
0.0
 11
5257.087605394955
 21
1179.266715690297
 31
0.0
  0
LINE
  5
1F521
330
747D
100
AcDbEntity
  8
細線
  6
HIDDEN
 48
10.0
100
AcDbLine
 10
5046.386756954635
 20
945.9384502519933
 30
0.0
 11
5254.514085237673
 21
1154.065778535045
 31
0.0
  0
LWPOLYLINE
  5
1F522
330
747D
100
AcDbEntity
  8
部品1
100
AcDbPolyline
 90
        3
 70
     0
 43
0.0
 10
5046.386756954635
 20
775.0205392892675
 10
5046.386756954635
 20
1255.020539289267
 10
5262.386756954636
 20
1255.020539289267
  0
LINE
  5
1F523
330
747D
100
AcDbEntity
  8
細線
  6
HIDDEN
 48
10.0
100
AcDbLine
 10
5046.386756954635
 20
991.1932842479327
 30
0.0
 11
5259.661125552241
 21
1204.467652845546
 31
0.0
  0
LINE
  5
1F524
330
747D
100
AcDbEntity
  8
細線
100
AcDbLine
 10
5256.228703092149
 20
1255.020539289267
 30
0.0
 11
5096.228703092151
 21
1415.020539289267
 31
0.0
  0
LINE
  5
1F525
330
747D
100
AcDbEntity
  8
細線
100
AcDbLine
 10
5262.386756954636
 20
1282.803610923736
 30
0.0
 11
5130.169828589104
 21
1415.020539289267
 31
0.0
  0
LINE
  5
1F526
330
747D
100
AcDbEntity
  8
Ｇ．Ｌ
100
AcDbLine
 10
4947.384058786208
 20
1255.020539289267
 30
0.0
 11
5262.386756954636
 21
1255.020539289267
 31
0.0
  0
LINE
  5
1F527
330
747D
100
AcDbEntity
  8
細線
100
AcDbLine
 10
5075.209367108394
 20
1255.020539289267
 30
0.0
 11
5006.386756954635
 21
1323.843149443028
 31
0.0
  0
LINE
  5
1F528
330
747D
100
AcDbEntity
  8
細線
100
AcDbLine
 10
5109.150492605347
 20
1255.020539289267
 30
0.0
 11
5006.386756954635
 21
1357.784274939982
 31
0.0
  0
LINE
  5
1F529
330
747D
100
AcDbEntity
  8
部品1
100
AcDbLine
 10
5006.386756954635
 20
1255.020539289267
 30
0.0
 11
5006.386756954635
 21
1415.020539289267
 31
0.0
  0
CIRCLE
  5
1F52A
330
747D
100
AcDbEntity
  8
細線
100
AcDbCircle
 10
5294.386756954636
 20
1213.420539289269
 30
0.0
 40
12.8
  0
LINE
  5
1F52B
330
747D
100
AcDbEntity
  8
部品1
100
AcDbLine
 10
5261.669341748179
 20
1224.13290784839
 30
0.0
 11
5238.386756954636
 21
996.1405392892666
 31
0.0
  0
LINE
  5
1F52C
330
747D
100
AcDbEntity
  8
部品1
100
AcDbLine
 10
5327.104172161093
 20
1224.13290784839
 30
0.0
 11
5350.386756954636
 21
996.1405392892666
 31
0.0
  0
LINE
  5
1F52D
330
747D
100
AcDbEntity
  8
細線
100
AcDbLine
 10
5300.786756954637
 20
1202.335414120827
 30
0.0
 11
5300.786756954637
 21
1181.740539289265
 31
0.0
  0
LINE
  5
1F52E
330
747D
100
AcDbEntity
  8
細線
100
AcDbLine
 10
5287.986756954636
 20
1202.335414120827
 30
0.0
 11
5287.986756954636
 21
1181.740539289265
 31
0.0
  0
LINE
  5
1F52F
330
747D
100
AcDbEntity
  8
部品1
100
AcDbLine
 10
5238.386756954636
 20
996.1405392892666
 30
0.0
 11
5350.386756954636
 21
996.1405392892666
 31
0.0
  0
LINE
  5
1F530
330
747D
100
AcDbEntity
  8
部品1
100
AcDbLine
 10
5238.386756954636
 20
986.5405392892681
 30
0.0
 11
5350.386756954636
 21
986.5405392892681
 31
0.0
  0
LINE
  5
1F531
330
747D
100
AcDbEntity
  8
細線
100
AcDbLine
 10
5282.386756954636
 20
1005.740539289269
 30
0.0
 11
5306.386756954635
 21
1005.740539289267
 31
0.0
  0
LINE
  5
1F532
330
747D
100
AcDbEntity
  8
細線
100
AcDbLine
 10
5282.386756954636
 20
1010.540539289268
 30
0.0
 11
5306.386756954635
 21
1010.540539289266
 31
0.0
  0
LINE
  5
1F533
330
747D
100
AcDbEntity
  8
細線
100
AcDbLine
 10
5282.386756954636
 20
1042.54053928927
 30
0.0
 11
5306.386756954635
 21
1042.540539289266
 31
0.0
  0
LINE
  5
1F534
330
747D
100
AcDbEntity
  8
細線
100
AcDbLine
 10
5282.386756954636
 20
1037.74053928927
 30
0.0
 11
5306.386756954635
 21
1037.740539289265
 31
0.0
  0
LINE
  5
1F535
330
747D
100
AcDbEntity
  8
細線
100
AcDbLine
 10
5282.386756954636
 20
1010.540539289268
 30
0.0
 11
5282.386756954636
 21
1005.740539289267
 31
0.0
  0
LINE
  5
1F536
330
747D
100
AcDbEntity
  8
細線
100
AcDbLine
 10
5282.386756954636
 20
1042.54053928927
 30
0.0
 11
5282.386756954636
 21
1037.740539289265
 31
0.0
  0
LINE
  5
1F537
330
747D
100
AcDbEntity
  8
部品1
100
AcDbLine
 10
5238.386756954636
 20
996.1405392892647
 30
0.0
 11
5238.386756954636
 21
986.5405392892681
 31
0.0
  0
LINE
  5
1F538
330
747D
100
AcDbEntity
  8
細線
100
AcDbLine
 10
5306.386756954635
 20
1010.540539289264
 30
0.0
 11
5306.386756954635
 21
1005.740539289265
 31
0.0
  0
LINE
  5
1F539
330
747D
100
AcDbEntity
  8
細線
100
AcDbLine
 10
5306.386756954635
 20
1042.540539289264
 30
0.0
 11
5306.386756954635
 21
1037.740539289263
 31
0.0
  0
LINE
  5
1F53A
330
747D
100
AcDbEntity
  8
細線
100
AcDbLine
 10
5282.386756954636
 20
1157.740539289269
 30
0.0
 11
5283.186756954637
 21
1157.740539289269
 31
0.0
  0
LINE
  5
1F53B
330
747D
100
AcDbEntity
  8
細線
100
AcDbLine
 10
5282.386756954636
 20
1162.54053928927
 30
0.0
 11
5306.386756954635
 21
1162.540539289266
 31
0.0
  0
ARC
  5
1F53C
330
747D
100
AcDbEntity
  8
細線
100
AcDbCircle
 10
5294.386756954636
 20
1181.740539289265
 30
0.0
 40
6.4
100
AcDbArc
 50
179.9999999999739
 51
0.0
  0
LINE
  5
1F53D
330
747D
100
AcDbEntity
  8
細線
100
AcDbLine
 10
5282.386756954636
 20
1162.54053928927
 30
0.0
 11
5282.386756954636
 21
1157.740539289267
 31
0.0
  0
LINE
  5
1F53E
330
747D
100
AcDbEntity
  8
細線
100
AcDbLine
 10
5282.386756954636
 20
1161.420539289263
 30
0.0
 11
5306.386756954635
 21
1161.420539289269
 31
0.0
  0
LINE
  5
1F53F
330
747D
100
AcDbEntity
  8
細線
100
AcDbLine
 10
5288.085241455132
 20
1148.140539289261
 30
0.0
 11
5300.688272454141
 21
1148.140539289265
 31
0.0
  0
LINE
  5
1F540
330
747D
100
AcDbEntity
  8
細線
100
AcDbLine
 10
5283.186756954637
 20
1161.420539289263
 30
0.0
 11
5283.186756954637
 21
1157.740539289267
 31
0.0
  0
LINE
  5
1F541
330
747D
100
AcDbEntity
  8
細線
100
AcDbLine
 10
5283.186756954637
 20
1157.740539289265
 30
0.0
 11
5284.980785454668
 21
1150.564425289145
 31
0.0
  0
ARC
  5
1F542
330
747D
100
AcDbEntity
  8
細線
100
AcDbCircle
 10
5288.085241455132
 20
1151.340539289262
 30
0.0
 40
3.2
100
AcDbArc
 50
194.0362434679517
 51
270.0
  0
LINE
  5
1F543
330
747D
100
AcDbEntity
  8
細線
100
AcDbLine
 10
5305.586756954636
 20
1161.420539289265
 30
0.0
 11
5305.586756954636
 21
1157.740539289267
 31
0.0
  0
LINE
  5
1F544
330
747D
100
AcDbEntity
  8
細線
100
AcDbLine
 10
5305.586756954636
 20
1157.740539289265
 30
0.0
 11
5303.792728454605
 21
1150.564425289145
 31
0.0
  0
ARC
  5
1F545
330
747D
100
AcDbEntity
  8
細線
100
AcDbCircle
 10
5300.688272454141
 20
1151.340539289263
 30
0.0
 40
3.2
100
AcDbArc
 50
270.0
 51
345.9637565320483
  0
LINE
  5
1F546
330
747D
100
AcDbEntity
  8
細線
100
AcDbLine
 10
5306.386756954635
 20
1162.540539289264
 30
0.0
 11
5306.386756954635
 21
1157.740539289265
 31
0.0
  0
LINE
  5
1F547
330
747D
100
AcDbEntity
  8
細線
100
AcDbLine
 10
5305.586756954636
 20
1157.740539289269
 30
0.0
 11
5306.386756954635
 21
1157.740539289267
 31
0.0
  0
LINE
  5
1F548
330
747D
100
AcDbEntity
  8
部品1
100
AcDbLine
 10
5350.386756954636
 20
996.1405392892666
 30
0.0
 11
5350.386756954636
 21
986.5405392892681
 31
0.0
  0
LINE
  5
1F549
330
747D
100
AcDbEntity
  8
細線
  6
HIDDEN
 48
10.0
100
AcDbLine
 10
5326.62420171352
 20
1226.175895010896
 30
0.0
 11
5355.468845991891
 21
1255.020539289269
 31
0.0
  0
LINE
  5
1F54A
330
747D
100
AcDbEntity
  8
細線
  6
HIDDEN
 48
10.0
100
AcDbLine
 10
5326.386756954636
 20
1248.565867249977
 30
0.0
 11
5332.841428993925
 21
1255.020539289267
 31
0.0
  0
LINE
  5
1F54B
330
747D
100
AcDbEntity
  8
部品1
100
AcDbLine
 10
5269.630004538832
 20
1231.340539289267
 30
0.0
 11
5319.143509370441
 21
1231.340539289264
 31
0.0
  0
ARC
  5
1F54C
330
747D
100
AcDbEntity
  8
部品1
100
AcDbCircle
 10
5269.630004538832
 20
1223.340539289267
 30
0.0
 40
8.000000000000001
100
AcDbArc
 50
90.0
 51
174.3157584018144
  0
ARC
  5
1F54D
330
747D
100
AcDbEntity
  8
部品1
100
AcDbCircle
 10
5319.143509370441
 20
1223.340539289264
 30
0.0
 40
8.000000000000001
100
AcDbArc
 50
5.68424159818561
 51
90.0
  0
CIRCLE
  5
1F54E
330
747D
100
AcDbEntity
  8
細線
100
AcDbCircle
 10
5294.386756954636
 20
1337.420539289269
 30
0.0
 40
4.8
  0
CIRCLE
  5
1F54F
330
747D
100
AcDbEntity
  8
細線
100
AcDbCircle
 10
5294.386756954636
 20
1337.420539289269
 30
0.0
 40
5.6
  0
ARC
  5
1F550
330
747D
100
AcDbEntity
  8
細線
100
AcDbCircle
 10
5294.386756954636
 20
1425.420539289269
 30
0.0
 40
6.4
100
AcDbArc
 50
0.0
 51
180.0
  0
ARC
  5
1F551
330
747D
100
AcDbEntity
  8
細線
100
AcDbCircle
 10
5294.386756954636
 20
1393.420539289269
 30
0.0
 40
6.4
100
AcDbArc
 50
179.9999999999739
 51
0.0
  0
LINE
  5
1F552
330
747D
100
AcDbEntity
  8
細線
100
AcDbLine
 10
5287.986756954636
 20
1425.420539289269
 30
0.0
 11
5287.986756954636
 21
1393.420539289269
 31
0.0
  0
LINE
  5
1F553
330
747D
100
AcDbEntity
  8
細線
100
AcDbLine
 10
5300.786756954637
 20
1425.420539289269
 30
0.0
 11
5300.786756954637
 21
1393.420539289269
 31
0.0
  0
LINE
  5
1F554
330
747D
100
AcDbEntity
  8
文字
 48
50.0
100
AcDbLine
 10
5386.433616068699
 20
1357.461678594955
 30
0.0
 11
5445.578035422929
 21
1255.020539289267
 31
0.0
  0
LINE
  5
1F555
330
747D
100
AcDbEntity
  8
部品1
100
AcDbLine
 10
4686.386756954635
 20
1513.020539289267
 30
0.0
 11
5238.386756954636
 21
1513.020539289267
 31
0.0
  0
LINE
  5
1F556
330
747D
100
AcDbEntity
  8
部品1
100
AcDbLine
 10
4686.386756954635
 20
1495.020539289267
 30
0.0
 11
5326.386756954636
 21
1495.020539289267
 31
0.0
  0
LINE
  5
1F55D
330
747D
100
AcDbEntity
  8
部品1
100
AcDbLine
 10
5238.386756954636
 20
1895.020539289266
 30
0.0
 11
5238.386756954636
 21
1495.020539289267
 31
0.0
  0
LINE
  5
1F55E
330
747D
100
AcDbEntity
  8
部品1
100
AcDbLine
 10
5270.386756954636
 20
1473.420539289269
 30
0.0
 11
5318.386756954636
 21
1473.420539289269
 31
0.0
  0
ARC
  5
1F55F
330
747D
100
AcDbEntity
  8
部品1
100
AcDbCircle
 10
5270.386756954636
 20
1465.420539289269
 30
0.0
 40
8.000000000000001
100
AcDbArc
 50
90.0
 51
180.0
  0
ARC
  5
1F560
330
747D
100
AcDbEntity
  8
部品1
100
AcDbCircle
 10
5318.386756954636
 20
1465.420539289269
 30
0.0
 40
8.000000000000001
100
AcDbArc
 50
0.0
 51
90.0
  0
CIRCLE
  5
1F561
330
747D
100
AcDbEntity
  8
部品1
100
AcDbCircle
 10
5294.386756954636
 20
1449.420539289269
 30
0.0
 40
12.8
  0
LINE
  5
1F562
330
747D
100
AcDbEntity
  8
細線
 48
10.0
100
AcDbLine
 10
6156.85723752467
 20
1308.470218289196
 30
0.0
 11
6336.241405666894
 21
1487.854386431425
 31
0.0
  0
LINE
  5
1F563
330
747D
100
AcDbEntity
  8
細線
 48
10.0
100
AcDbLine
 10
6156.85723752467
 20
1263.215384293256
 30
0.0
 11
6381.496239662819
 21
1487.854386431425
 31
0.0
  0
LINE
  5
1F564
330
747D
100
AcDbEntity
  8
細線
 48
10.0
100
AcDbLine
 10
6156.857237524668
 20
1285.842801291226
 30
0.0
 11
6358.868822664856
 21
1487.854386431423
 31
0.0
  0
LINE
  5
1F565
330
747D
100
AcDbEntity
  8
細線
 48
10.0
100
AcDbLine
 10
6308.577614877265
 20
1096.236467561541
 30
0.0
 11
6700.195533747127
 21
1487.854386431425
 31
0.0
  0
LINE
  5
1F566
330
747D
100
AcDbEntity
  8
細線
 48
10.0
100
AcDbLine
 10
6285.950197879293
 20
1096.236467561541
 30
0.0
 11
6677.568116749165
 21
1487.854386431425
 31
0.0
  0
LINE
  5
1F567
330
747D
100
AcDbEntity
  8
細線
 48
10.0
100
AcDbLine
 10
6331.205031875239
 20
1096.236467561541
 30
0.0
 11
6722.822950745089
 21
1487.854386431425
 31
0.0
  0
LINE
  5
1F568
330
747D
100
AcDbEntity
  8
部品1
100
AcDbLine
 10
6838.278995973661
 20
1459.534386431423
 30
0.0
 11
6833.47899597366
 21
1427.534386431424
 31
0.0
  0
LINE
  5
1F569
330
747D
100
AcDbEntity
  8
部品1
100
AcDbLine
 10
6859.078995973661
 20
1427.534386431424
 30
0.0
 11
6854.278995973661
 21
1459.534386431423
 31
0.0
  0
LINE
  5
1F56A
330
747D
100
AcDbEntity
  8
部品1
100
AcDbLine
 10
6844.750595466831
 20
1459.534386431423
 30
0.0
 11
6839.808188632017
 21
1426.585007532672
 31
0.0
  0
LINE
  5
1F56B
330
747D
100
AcDbEntity
  8
部品1
100
AcDbLine
 10
6852.749803315304
 20
1426.585007532672
 30
0.0
 11
6847.80739648049
 21
1459.534386431423
 31
0.0
  0
TEXT
  5
1F56C
330
747D
100
AcDbEntity
  8
部品1
100
AcDbText
 10
5521.204654423676
 20
1272.509053818359
 30
0.0
 40
120.0
  1
G.L
  7
STYLE1
100
AcDbText
  0
LINE
  5
1F56D
330
747D
100
AcDbEntity
  8
部品1
100
AcDbLine
 10
6833.47899597366
 20
1427.534386431424
 30
0.0
 11
6839.808188632017
 21
1426.585007532672
 31
0.0
  0
LINE
  5
1F56E
330
747D
100
AcDbEntity
  8
部品1
100
AcDbLine
 10
6852.749803315304
 20
1426.585007532672
 30
0.0
 11
6859.078995973661
 21
1427.534386431424
 31
0.0
  0
LINE
  5
1F56F
330
747D
100
AcDbEntity
  8
部品1
100
AcDbLine
 10
6834.191030147724
 20
1432.281280925192
 30
0.0
 11
6840.520222806081
 21
1431.331902026439
 31
0.0
  0
LINE
  5
1F570
330
747D
100
AcDbEntity
  8
部品1
100
AcDbLine
 10
6852.037769141237
 20
1431.331902026439
 30
0.0
 11
6858.366961799598
 21
1432.281280925192
 31
0.0
  0
LINE
  5
1F571
330
747D
100
AcDbEntity
  8
文字
 48
50.0
100
AcDbLine
 10
6238.278995973659
 20
1487.854386431425
 30
0.0
 11
6297.423415327889
 21
1590.29552573711
 31
0.0
  0
LINE
  5
1F572
330
747D
100
AcDbEntity
  8
文字
 48
50.0
100
AcDbLine
 10
6297.423415327889
 20
1590.29552573711
 30
0.0
 11
6179.134576619431
 21
1590.29552573711
 31
0.0
  0
LINE
  5
1F573
330
747D
100
AcDbEntity
  8
部品1
100
AcDbLine
 10
6156.857237524668
 20
1745.854386431425
 30
0.0
 11
6790.278995973661
 21
1745.854386431425
 31
0.0
  0
LINE
  5
1F574
330
747D
100
AcDbEntity
  8
部品1
100
AcDbLine
 10
6156.857237524668
 20
1647.854386431425
 30
0.0
 11
6805.838385489254
 21
1647.854386431425
 31
0.0
  0
LINE
  5
1F575
330
747D
100
AcDbEntity
  8
部品1
100
AcDbLine
 10
6156.857237524668
 20
1727.854386431425
 30
0.0
 11
6814.19012244593
 21
1727.854386431425
 31
0.0
  0
LINE
  5
1F576
330
747D
100
AcDbEntity
  8
文字
 48
50.0
100
AcDbLine
 10
6179.134576619431
 20
1590.29552573711
 30
0.0
 11
6238.278995973661
 21
1487.854386431425
 31
0.0
  0
LINE
  5
1F57D
330
747D
100
AcDbEntity
  8
部品1
100
AcDbLine
 10
6790.278995973661
 20
2127.854386431422
 30
0.0
 11
6790.278995973661
 21
1727.854386431425
 31
0.0
  0
LINE
  5
1F57E
330
747D
100
AcDbEntity
  8
部品1
100
AcDbLine
 10
6878.278995973662
 20
2127.854386431422
 30
0.0
 11
6878.278995973662
 21
1728.050761621833
 31
0.0
  0
LINE
  5
1F57F
330
747D
100
AcDbEntity
  8
細線
100
AcDbLine
 10
6627.101606127419
 20
1487.854386431425
 30
0.0
 11
6558.278995973662
 21
1556.676996585183
 31
0.0
  0
LINE
  5
1F580
330
747D
100
AcDbEntity
  8
細線
100
AcDbLine
 10
6661.042731624374
 20
1487.854386431425
 30
0.0
 11
6558.278995973662
 21
1590.618122082138
 31
0.0
  0
TEXT
  5
1F581
330
747D
100
AcDbEntity
  8
部品1
100
AcDbText
 10
6313.905614974408
 20
1505.342900960517
 30
0.0
 40
120.0
  1
G.L
  7
STYLE1
100
AcDbText
  0
LINE
  5
1F582
330
747D
100
AcDbEntity
  8
部品1
100
AcDbLine
 10
6558.278995973662
 20
1487.854386431425
 30
0.0
 11
6558.278995973662
 21
1647.854386431425
 31
0.0
  0
LINE
  5
1F583
330
747D
100
AcDbEntity
  8
部品1
100
AcDbLine
 10
6878.996411180117
 20
1725.446754990545
 30
0.0
 11
6902.278995973661
 21
1497.454386431425
 31
0.0
  0
LINE
  5
1F584
330
747D
100
AcDbEntity
  8
部品1
100
AcDbLine
 10
6813.561580767203
 20
1725.446754990545
 30
0.0
 11
6790.278995973661
 21
1497.454386431425
 31
0.0
  0
LINE
  5
1F585
330
747D
100
AcDbEntity
  8
細線
100
AcDbLine
 10
6791.042676584282
 20
1504.932651958315
 30
0.0
 11
6648.120942111177
 21
1647.854386431425
 31
0.0
  0
LINE
  5
1F586
330
747D
100
AcDbEntity
  8
細線
100
AcDbLine
 10
6794.187586659194
 20
1535.728867380363
 30
0.0
 11
6682.062067608132
 21
1647.854386431425
 31
0.0
  0
LINE
  5
1F587
330
747D
100
AcDbEntity
  8
部品1
100
AcDbLine
 10
6790.278995973661
 20
1497.454386431425
 30
0.0
 11
6902.278995973661
 21
1497.454386431425
 31
0.0
  0
LINE
  5
1F588
330
747D
100
AcDbEntity
  8
細線
100
AcDbLine
 10
6834.278995973661
 20
1663.854386431425
 30
0.0
 11
6858.278995973662
 21
1663.854386431425
 31
0.0
  0
LINE
  5
1F589
330
747D
100
AcDbEntity
  8
部品1
100
AcDbLine
 10
6790.278995973661
 20
1487.854386431425
 30
0.0
 11
6902.278995973661
 21
1487.854386431425
 31
0.0
  0
LINE
  5
1F58A
330
747D
100
AcDbEntity
  8
部品1
100
AcDbLine
 10
6790.278995973661
 20
1497.454386431425
 30
0.0
 11
6790.278995973661
 21
1487.854386431425
 31
0.0
  0
LINE
  5
1F58B
330
747D
100
AcDbEntity
  8
部品1
100
AcDbLine
 10
6834.278995973661
 20
1540.974386431426
 30
0.0
 11
6858.278995973662
 21
1540.974386431426
 31
0.0
  0
LINE
  5
1F58C
330
747D
100
AcDbEntity
  8
部品1
100
AcDbLine
 10
6834.278995973661
 20
1545.774386431427
 30
0.0
 11
6858.278995973662
 21
1545.774386431427
 31
0.0
  0
LINE
  5
1F58D
330
747D
100
AcDbEntity
  8
部品1
100
AcDbLine
 10
6834.278995973661
 20
1513.774386431425
 30
0.0
 11
6838.278995973661
 21
1513.774386431425
 31
0.0
  0
LINE
  5
1F58E
330
747D
100
AcDbEntity
  8
部品1
100
AcDbLine
 10
6834.278995973661
 20
1545.774386431427
 30
0.0
 11
6834.278995973661
 21
1540.974386431426
 31
0.0
  0
LINE
  5
1F58F
330
747D
100
AcDbEntity
  8
部品1
100
AcDbLine
 10
6834.278995973661
 20
1513.774386431425
 30
0.0
 11
6834.278995973661
 21
1512.654386431424
 31
0.0
  0
LINE
  5
1F590
330
747D
100
AcDbEntity
  8
部品1
100
AcDbLine
 10
6902.278995973661
 20
1497.454386431425
 30
0.0
 11
6902.278995973661
 21
1487.854386431425
 31
0.0
  0
LINE
  5
1F591
330
747D
100
AcDbEntity
  8
部品1
100
AcDbLine
 10
6858.278995973662
 20
1545.774386431423
 30
0.0
 11
6858.278995973662
 21
1540.974386431422
 31
0.0
  0
LINE
  5
1F592
330
747D
100
AcDbEntity
  8
部品1
100
AcDbLine
 10
6858.278995973662
 20
1513.774386431423
 30
0.0
 11
6858.278995973662
 21
1512.654386431424
 31
0.0
  0
LINE
  5
1F593
330
747D
100
AcDbEntity
  8
部品1
100
AcDbLine
 10
6822.278995973661
 20
1499.854386431425
 30
0.0
 11
6870.27899597366
 21
1499.854386431427
 31
0.0
  0
LINE
  5
1F594
330
747D
100
AcDbEntity
  8
部品1
100
AcDbLine
 10
6838.278995973661
 20
1529.454386431425
 30
0.0
 11
6854.278995973661
 21
1529.454386431425
 31
0.0
  0
LINE
  5
1F595
330
747D
100
AcDbEntity
  8
部品1
100
AcDbLine
 10
6838.278995973661
 20
1499.854386431425
 30
0.0
 11
6838.278995973661
 21
1529.454386431425
 31
0.0
  0
LINE
  5
1F596
330
747D
100
AcDbEntity
  8
部品1
100
AcDbLine
 10
6854.278995973661
 20
1499.854386431425
 30
0.0
 11
6854.278995973661
 21
1529.454386431425
 31
0.0
  0
LINE
  5
1F597
330
747D
100
AcDbEntity
  8
部品1
100
AcDbLine
 10
6832.678995973662
 20
1512.654386431424
 30
0.0
 11
6859.878995973662
 21
1512.654386431424
 31
0.0
  0
LINE
  5
1F598
330
747D
100
AcDbEntity
  8
部品1
100
AcDbLine
 10
6830.278995973661
 20
1499.854386431425
 30
0.0
 11
6830.278995973661
 21
1510.254386431425
 31
0.0
  0
LINE
  5
1F599
330
747D
100
AcDbEntity
  8
部品1
100
AcDbLine
 10
6862.27899597366
 20
1499.854386431427
 30
0.0
 11
6862.27899597366
 21
1510.254386431425
 31
0.0
  0
LINE
  5
1F59A
330
747D
100
AcDbEntity
  8
部品1
100
AcDbLine
 10
6832.678995973662
 20
1512.654386431424
 30
0.0
 11
6830.278995973661
 21
1510.254386431425
 31
0.0
  0
LINE
  5
1F59B
330
747D
100
AcDbEntity
  8
部品1
100
AcDbLine
 10
6859.878995973662
 20
1512.654386431424
 30
0.0
 11
6862.27899597366
 21
1510.254386431425
 31
0.0
  0
LINE
  5
1F59C
330
747D
100
AcDbEntity
  8
部品1
100
AcDbLine
 10
6822.278995973661
 20
1497.454386431425
 30
0.0
 11
6822.278995973661
 21
1499.854386431425
 31
0.0
  0
LINE
  5
1F59D
330
747D
100
AcDbEntity
  8
部品1
100
AcDbLine
 10
6870.27899597366
 20
1497.454386431425
 30
0.0
 11
6870.27899597366
 21
1499.854386431431
 31
0.0
  0
LINE
  5
1F59E
330
747D
100
AcDbEntity
  8
部品1
100
AcDbLine
 10
6854.278995973661
 20
1513.774386431425
 30
0.0
 11
6858.278995973662
 21
1513.774386431425
 31
0.0
  0
LINE
  5
1F59F
330
747D
100
AcDbEntity
  8
部品1
100
AcDbLine
 10
6830.278995973661
 20
1510.254386431425
 30
0.0
 11
6862.27899597366
 21
1510.254386431425
 31
0.0
  0
ARC
  5
1F5A0
330
747D
100
AcDbEntity
  8
部品1
100
AcDbCircle
 10
6834.278995973661
 20
1506.64258259917
 30
0.0
 40
5.389353107996995
100
AcDbArc
 50
42.08048849856768
 51
137.9195115014323
  0
ARC
  5
1F5A1
330
747D
100
AcDbEntity
  8
部品1
100
AcDbCircle
 10
6858.278995973662
 20
1506.64258259917
 30
0.0
 40
5.389353107996995
100
AcDbArc
 50
42.08048849856768
 51
137.9195115014323
  0
ARC
  5
1F5A2
330
747D
100
AcDbEntity
  8
部品1
100
AcDbCircle
 10
6846.278995973661
 20
1493.38347985477
 30
0.0
 40
18.67156899454789
100
AcDbArc
 50
64.63020194521864
 51
115.3697980547925
  0
LINE
  5
1F5A3
330
747D
100
AcDbEntity
  8
部品1
100
AcDbLine
 10
6840.678995973661
 20
1539.256703250354
 30
0.0
 11
6851.878995973662
 21
1539.256703250354
 31
0.0
  0
LINE
  5
1F5A4
330
747D
100
AcDbEntity
  8
部品1
100
AcDbLine
 10
6842.278995973662
 20
1529.454386431425
 30
0.0
 11
6842.278995973662
 21
1536.056703250353
 31
0.0
  0
LINE
  5
1F5A5
330
747D
100
AcDbEntity
  8
部品1
100
AcDbLine
 10
6850.278995973662
 20
1529.454386431425
 30
0.0
 11
6850.278995973662
 21
1536.056703250353
 31
0.0
  0
LINE
  5
1F5A6
330
747D
100
AcDbEntity
  8
部品1
100
AcDbLine
 10
6840.678995973661
 20
1536.056703250353
 30
0.0
 11
6840.678995973661
 21
1539.256703250354
 31
0.0
  0
LINE
  5
1F5A7
330
747D
100
AcDbEntity
  8
部品1
100
AcDbLine
 10
6851.878995973662
 20
1536.056703250353
 30
0.0
 11
6851.878995973662
 21
1539.256703250354
 31
0.0
  0
LINE
  5
1F5A8
330
747D
100
AcDbEntity
  8
部品1
100
AcDbLine
 10
6840.678995973661
 20
1536.056703250353
 30
0.0
 11
6851.878995973662
 21
1536.056703250353
 31
0.0
  0
LINE
  5
1F5A9
330
747D
100
AcDbEntity
  8
部品1
100
AcDbLine
 10
6838.278995973661
 20
1487.854386431425
 30
0.0
 11
6838.278995973661
 21
1459.534386431423
 31
0.0
  0
LINE
  5
1F5AA
330
747D
100
AcDbEntity
  8
部品1
100
AcDbLine
 10
6854.278995973661
 20
1487.854386431425
 30
0.0
 11
6854.278995973661
 21
1459.534386431423
 31
0.0
  0
LINE
  5
1F5AB
330
747D
100
AcDbEntity
  8
部品1
100
AcDbLine
 10
6844.750595466831
 20
1459.534386431423
 30
0.0
 11
6847.80739648049
 21
1459.534386431423
 31
0.0
  0
LINE
  5
1F5AC
330
747D
100
AcDbEntity
  8
部品1
100
AcDbLine
 10
6834.903064321787
 20
1437.028175418958
 30
0.0
 11
6841.232256980145
 21
1436.078796520203
 31
0.0
  0
LINE
  5
1F5AD
330
747D
100
AcDbEntity
  8
部品1
100
AcDbLine
 10
6835.615098495854
 20
1441.775069912725
 30
0.0
 11
6841.94429115421
 21
1440.825691013973
 31
0.0
  0
LINE
  5
1F5AE
330
747D
100
AcDbEntity
  8
部品1
100
AcDbLine
 10
6836.327132669919
 20
1446.521964406493
 30
0.0
 11
6842.656325328274
 21
1445.572585507743
 31
0.0
  0
LINE
  5
1F5AF
330
747D
100
AcDbEntity
  8
部品1
100
AcDbLine
 10
6837.039166843982
 20
1451.268858900263
 30
0.0
 11
6843.368359502338
 21
1450.319480001508
 31
0.0
  0
LINE
  5
1F5B0
330
747D
100
AcDbEntity
  8
部品1
100
AcDbLine
 10
6837.751201018043
 20
1456.015753394029
 30
0.0
 11
6844.080393676406
 21
1455.066374495274
 31
0.0
  0
LINE
  5
1F5B1
330
747D
100
AcDbEntity
  8
部品1
100
AcDbLine
 10
6851.325734967175
 20
1436.078796520203
 30
0.0
 11
6857.654927625533
 21
1437.028175418958
 31
0.0
  0
LINE
  5
1F5B2
330
747D
100
AcDbEntity
  8
部品1
100
AcDbLine
 10
6850.613700793111
 20
1440.825691013973
 30
0.0
 11
6856.942893451466
 21
1441.775069912725
 31
0.0
  0
LINE
  5
1F5B3
330
747D
100
AcDbEntity
  8
部品1
100
AcDbLine
 10
6849.901666619047
 20
1445.572585507743
 30
0.0
 11
6856.230859277403
 21
1446.521964406493
 31
0.0
  0
LINE
  5
1F5B4
330
747D
100
AcDbEntity
  8
部品1
100
AcDbLine
 10
6849.189632444984
 20
1450.319480001508
 30
0.0
 11
6855.518825103342
 21
1451.268858900263
 31
0.0
  0
LINE
  5
1F5B5
330
747D
100
AcDbEntity
  8
部品1
100
AcDbLine
 10
6848.477598270917
 20
1455.066374495274
 30
0.0
 11
6854.806790929274
 21
1456.015753394029
 31
0.0
  0
LINE
  5
1F5B6
330
747D
100
AcDbEntity
  8
細線
100
AcDbLine
 10
6834.278995973661
 20
1659.054386431424
 30
0.0
 11
6858.278995973662
 21
1659.054386431424
 31
0.0
  0
LINE
  5
1F5B7
330
747D
100
AcDbEntity
  8
細線
100
AcDbLine
 10
6834.278995973661
 20
1663.854386431425
 30
0.0
 11
6834.278995973661
 21
1659.054386431424
 31
0.0
  0
LINE
  5
1F5B8
330
747D
100
AcDbEntity
  8
細線
100
AcDbLine
 10
6858.278995973662
 20
1663.854386431421
 30
0.0
 11
6858.278995973662
 21
1659.054386431422
 31
0.0
  0
ARC
  5
1F5B9
330
747D
100
AcDbEntity
  8
部品1
100
AcDbCircle
 10
6821.522243557855
 20
1724.654386431426
 30
0.0
 40
8.000000000000001
100
AcDbArc
 50
90.0
 51
174.3157584018144
  0
CIRCLE
  5
1F5BA
330
747D
100
AcDbEntity
  8
部品1
100
AcDbCircle
 10
6846.278995973661
 20
1682.254386431425
 30
0.0
 40
12.8
  0
LINE
  5
1F5BB
330
747D
100
AcDbEntity
  8
細線
100
AcDbLine
 10
6839.878995973662
 20
1715.054386431422
 30
0.0
 11
6839.878995973662
 21
1693.339511599866
 31
0.0
  0
LINE
  5
1F5BC
330
747D
100
AcDbEntity
  8
細線
100
AcDbLine
 10
6852.67899597366
 20
1715.054386431422
 30
0.0
 11
6852.67899597366
 21
1693.339511599866
 31
0.0
  0
ARC
  5
1F5BD
330
747D
100
AcDbEntity
  8
細線
100
AcDbCircle
 10
6846.278995973661
 20
1715.054386431422
 30
0.0
 40
6.4
100
AcDbArc
 50
0.0
 51
180.0
  0
LINE
  5
1F5BE
330
747D
100
AcDbEntity
  8
部品1
100
AcDbLine
 10
6821.522243557855
 20
1732.654386431424
 30
0.0
 11
6871.035748389465
 21
1732.654386431423
 31
0.0
  0
ARC
  5
1F5BF
330
747D
100
AcDbEntity
  8
部品1
100
AcDbCircle
 10
6871.035748389465
 20
1724.654386431422
 30
0.0
 40
8.000000000000001
100
AcDbArc
 50
5.68424159818561
 51
90.0
  0
LWPOLYLINE
  5
1F5C0
330
747D
100
AcDbEntity
  8
部品1
100
AcDbPolyline
 90
        4
 70
     1
 43
0.0
 10
2516.977963313587
 20
2495.521610273402
 10
2516.977963313587
 20
2735.521610273401
 10
4330.222058750762
 20
2735.521610273401
 10
4330.222058750762
 20
2495.521610273402
  0
TEXT
  5
1F5C1
330
747D
100
AcDbEntity
  8
部品1
100
AcDbText
 10
3077.343365411423
 20
2555.969678321974
 30
0.0
 40
120.0
  1
基礎詳細
  7
STYLE2
100
AcDbText
  0
LINE
  5
1F5C2
330
747D
100
AcDbEntity
  8
部品1
100
AcDbLine
 10
4330.222058750762
 20
2735.521610273401
 30
0.0
 11
4330.222058750762
 21
2495.521610273402
 31
0.0
  0
TEXT
  5
1F5C8
330
747D
100
AcDbEntity
  8
部品1
100
AcDbText
 10
9536.335871290358
 20
2316.889239838687
 30
0.0
 40
120.0
  1
柱中左右部
  7
STYLE2
100
AcDbText
  0
LINE
  5
1F5C9
330
747D
100
AcDbEntity
  8
部品1
100
AcDbLine
 10
9226.881241476005
 20
2255.521610273401
 30
0.0
 11
9226.881241476005
 21
2495.521610273402
 31
0.0
  0
LINE
  5
1F5CA
330
747D
100
AcDbEntity
  8
部品1
100
AcDbLine
 10
10728.96846365886
 20
2255.521610273401
 30
0.0
 11
10728.96846365886
 21
2495.521610273402
 31
0.0
  0
LINE
  5
1F5CB
330
747D
100
AcDbEntity
  8
部品1
100
AcDbLine
 10
9287.016497715896
 20
1593.055846637617
 30
0.0
 11
9927.016497715897
 21
1593.055846637617
 31
0.0
  0
LINE
  5
1F5CC
330
747D
100
AcDbEntity
  8
部品1
100
AcDbLine
 10
9287.016497715896
 20
1513.055846637617
 30
0.0
 11
9875.816497715895
 21
1513.055846637617
 31
0.0
  0
LINE
  5
1F5CD
330
747D
100
AcDbEntity
  8
部品1
100
AcDbLine
 10
9287.016497715896
 20
1611.055846637617
 30
0.0
 11
9839.016497715897
 21
1611.055846637619
 31
0.0
  0
LINE
  5
1F5CE
330
747D
100
AcDbEntity
  8
Ｇ．Ｌ
100
AcDbLine
 10
9287.016497715896
 20
1353.055846637617
 30
0.0
 11
9875.816497715895
 21
1353.055846637615
 31
0.0
  0
LWPOLYLINE
  5
1F5CF
330
747D
100
AcDbEntity
  8
部品1
100
AcDbPolyline
 90
        4
 70
     1
 43
0.0
 10
9226.881219411657
 20
2255.521607763188
 10
9226.881219411657
 20
335.5216077631885
 10
10730.22203668641
 20
335.5216077631885
 10
10730.22203668641
 20
2255.521607763188
  0
MTEXT
  5
1F5D0
330
747D
100
AcDbEntity
  8
文字
 48
50.0
100
AcDbMText
 10
9493.53877417621
 20
902.6285357921151
 30
0.0
 40
80.0
 41
0.8
 71
     1
 72
     5
  1
\U+203B地盤に関係なく\P  埋め込んでください。
  7
STYLE2
 73
     1
 44
1.0
1001
ACAD
1000
MTEXTBEGIN
1070
    73
1070
     1
1070
    44
1040
1.0
1070
    74
1070
     0
1000
MTEXTEND
  0
MTEXT
  5
1F5D1
330
747D
100
AcDbEntity
  8
文字
 48
50.0
100
AcDbMText
 10
7654.306762105448
 20
902.6285383023278
 30
0.0
 40
80.0
 41
0.8
 71
     1
 72
     5
  1
b寸法：127～167,182mmに対応\P\U+203BオールアンカーM10(市販品)\P  が4本必要になります。
  7
STYLE2
 73
     1
 44
1.0
1001
ACAD
1000
MTEXTBEGIN
1070
    73
1070
     1
1070
    44
1040
1.0
1070
    74
1070
     0
1000
MTEXTEND
  0
LINE
  5
1F5D2
330
747D
100
AcDbEntity
  8
部品1
100
AcDbLine
 10
9226.881241476005
 20
335.5216102734012
 30
0.0
 11
9226.881241476005
 21
2255.521610273401
 31
0.0
  0
LINE
  5
1F5D3
330
747D
100
AcDbEntity
  8
部品1
100
AcDbLine
 10
7530.222058750763
 20
2255.521610273401
 30
0.0
 11
7530.222058750763
 21
335.5216102734012
 31
0.0
  0
LINE
  5
1F5D4
330
747D
100
AcDbEntity
  8
部品1
100
AcDbLine
 10
7530.222058750763
 20
335.5216102734012
 30
0.0
 11
9226.881241476005
 21
335.5216102734012
 31
0.0
  0
LINE
  5
1F5D5
330
747D
100
AcDbEntity
  8
細線
100
AcDbLine
 10
8271.068520812979
 20
1407.854386431425
 30
0.0
 11
8168.304785162266
 21
1510.618122082138
 31
0.0
  0
LINE
  5
1F5D6
330
747D
100
AcDbEntity
  8
細線
100
AcDbLine
 10
8237.127395316024
 20
1407.854386431425
 30
0.0
 11
8168.304785162266
 21
1476.676996585185
 31
0.0
  0
LINE
  5
1F5D7
330
747D
100
AcDbEntity
  8
細線
100
AcDbLine
 10
8401.068465772889
 20
1424.932651958317
 30
0.0
 11
8178.146731299781
 21
1647.854386431425
 31
0.0
  0
LINE
  5
1F5D8
330
747D
100
AcDbEntity
  8
細線
100
AcDbLine
 10
8404.213375847797
 20
1455.728867380363
 30
0.0
 11
8212.087856796738
 21
1647.854386431425
 31
0.0
  0
LINE
  5
1F5D9
330
747D
100
AcDbEntity
  8
細線
 48
10.0
100
AcDbLine
 10
7856.071654532668
 20
1016.236467561542
 30
0.0
 11
8247.689573402539
 21
1407.854386431427
 31
0.0
  0
LINE
  5
1F5DA
330
747D
100
AcDbEntity
  8
細線
 48
10.0
100
AcDbLine
 10
7878.699071530639
 20
1016.236467561542
 30
0.0
 11
8270.3169904005
 21
1407.854386431425
 31
0.0
  0
LINE
  5
1F5DB
330
747D
100
AcDbEntity
  8
細線
 48
10.0
100
AcDbLine
 10
7901.326488528614
 20
1016.236467561542
 30
0.0
 11
8292.944407398463
 21
1407.854386431425
 31
0.0
  0
LINE
  5
1F5DC
330
747D
100
AcDbEntity
  8
細線
 48
10.0
100
AcDbLine
 10
8197.398365614924
 20
1016.236467561542
 30
0.0
 11
8589.016284484795
 21
1407.854386431425
 31
0.0
  0
LINE
  5
1F5DD
330
747D
100
AcDbEntity
  8
部品1
100
AcDbLine
 10
7726.978694178041
 20
1745.854386431425
 30
0.0
 11
8400.304785162266
 21
1745.854386431425
 31
0.0
  0
LINE
  5
1F5DE
330
747D
100
AcDbEntity
  8
Ｇ．Ｌ
100
AcDbLine
 10
7726.978694178043
 20
1407.854386431425
 30
0.0
 11
8808.304785162265
 21
1407.854386431425
 31
0.0
  0
LINE
  5
1F5DF
330
747D
100
AcDbEntity
  8
部品1
100
AcDbLine
 10
7726.978694178045
 20
1647.854386431425
 30
0.0
 11
8424.215911634536
 21
1647.854386431425
 31
0.0
  0
LINE
  5
1F5E0
330
747D
100
AcDbEntity
  8
部品1
100
AcDbLine
 10
7726.978694178045
 20
1727.854386431425
 30
0.0
 11
8424.215911634536
 21
1727.854386431425
 31
0.0
  0
LINE
  5
1F5E1
330
747D
100
AcDbEntity
  8
部品1
100
AcDbLine
 10
9226.881241476005
 20
2255.521610273401
 30
0.0
 11
7530.222058750763
 21
2255.521610273401
 31
0.0
  0
LINE
  5
1F5E2
330
747D
100
AcDbEntity
  8
部品1
100
AcDbLine
 10
9226.881241476005
 20
2255.521610273401
 30
0.0
 11
7530.222058750763
 21
2255.521610273401
 31
0.0
  0
LINE
  5
1F5E3
330
747D
100
AcDbEntity
  8
文字
 48
50.0
100
AcDbLine
 10
7789.160365808036
 20
1510.29552573711
 30
0.0
 11
7848.304785162266
 21
1407.854386431425
 31
0.0
  0
LINE
  5
1F5E4
330
747D
100
AcDbEntity
  8
文字
 48
50.0
100
AcDbLine
 10
7848.304785162266
 20
1407.854386431425
 30
0.0
 11
7907.449204516495
 21
1510.29552573711
 31
0.0
  0
TEXT
  5
1F5E5
330
747D
100
AcDbEntity
  8
部品1
100
AcDbText
 10
7923.931404163013
 20
1425.342900960517
 30
0.0
 40
120.0
  1
G.L
  7
STYLE1
100
AcDbText
  0
LINE
  5
1F5E6
330
747D
100
AcDbEntity
  8
部品1
100
AcDbLine
 10
8168.304785162266
 20
1407.854386431421
 30
0.0
 11
8168.304785162266
 21
1647.854386431425
 31
0.0
  0
LINE
  5
1F5E7
330
747D
100
AcDbEntity
  8
細線
 48
10.0
100
AcDbLine
 10
7013.858454039743
 20
1096.236467561541
 30
0.0
 11
7198.278995973663
 21
1280.657009495462
 31
0.0
  0
LINE
  5
1F5E8
330
747D
100
AcDbEntity
  8
細線
 48
10.0
100
AcDbLine
 10
6991.231037041775
 20
1096.236467561541
 30
0.0
 11
7198.278995973663
 21
1303.284426493436
 31
0.0
  0
LINE
  5
1F5E9
330
747D
100
AcDbEntity
  8
細線
 48
10.0
100
AcDbLine
 10
6968.603620043805
 20
1096.236467561541
 30
0.0
 11
7198.278995973663
 21
1325.911843491405
 31
0.0
  0
LINE
  5
1F5EA
330
747D
100
AcDbEntity
  8
細線
 48
10.0
100
AcDbLine
 10
7726.978694178045
 20
1183.215384293258
 30
0.0
 11
7951.617696316194
 21
1407.854386431425
 31
0.0
  0
LINE
  5
1F5EB
330
747D
100
AcDbEntity
  8
細線
 48
10.0
100
AcDbLine
 10
7726.978694178043
 20
1205.842801291226
 30
0.0
 11
7928.990279318231
 21
1407.854386431425
 31
0.0
  0
LINE
  5
1F5EC
330
747D
100
AcDbEntity
  8
細線
 48
10.0
100
AcDbLine
 10
7726.978694178045
 20
1228.470218289196
 30
0.0
 11
7906.362862320269
 21
1407.854386431425
 31
0.0
  0
LINE
  5
1F5F3
330
747D
100
AcDbEntity
  8
文字
 48
50.0
100
AcDbLine
 10
7907.449204516495
 20
1510.29552573711
 30
0.0
 11
7789.160365808036
 21
1510.29552573711
 31
0.0
  0
DIMENSION
  5
1F5F4
330
747D
100
AcDbEntity
  8
寸法
 48
50.0
100
AcDbDimension
  2
*D20
 10
9027.802552640682
 20
1407.854386431425
 30
0.0
 11
8927.802552640683
 21
1527.854386431426
 31
0.0
 70
    32
  1
b
 71
     5
 42
239.9999999999998
  3
INABA_S40G
100
AcDbAlignedDimension
 13
8488.393658689998
 23
1647.854386431425
 33
0.0
 14
8808.304785162265
 24
1407.854386431425
 34
0.0
 50
90.0
100
AcDbRotatedDimension
1001
ACAD
1000
DSTYLE
1002
{
1070
   341
1005
0
1002
}
  0
LINE
  5
1F5F5
330
747D
100
AcDbEntity
  8
部品1
100
AcDbLine
 10
8423.587369955807
 20
1645.446754990546
 30
0.0
 11
8400.304785162266
 21
1417.454386431425
 31
0.0
  0
LINE
  5
1F5F6
330
747D
100
AcDbEntity
  8
部品1
100
AcDbLine
 10
8489.022200368722
 20
1645.446754990546
 30
0.0
 11
8512.304785162266
 21
1417.454386431425
 31
0.0
  0
LINE
  5
1F5F7
330
747D
100
AcDbEntity
  8
部品1
100
AcDbLine
 10
8464.304785162266
 20
1419.854386431425
 30
0.0
 11
8464.304785162266
 21
1449.454386431425
 31
0.0
  0
LINE
  5
1F5F8
330
747D
100
AcDbEntity
  8
部品1
100
AcDbLine
 10
8448.304785162266
 20
1419.854386431425
 30
0.0
 11
8448.304785162266
 21
1449.454386431425
 31
0.0
  0
LINE
  5
1F5F9
330
747D
100
AcDbEntity
  8
細線
 48
10.0
100
AcDbLine
 10
8538.725076697181
 20
1016.236467561542
 30
0.0
 11
8768.400452627037
 21
1245.911843491405
 31
0.0
  0
LINE
  5
1F5FA
330
747D
100
AcDbEntity
  8
細線
 48
10.0
100
AcDbLine
 10
8242.653199610861
 20
1016.236467561542
 30
0.0
 11
8634.271118480734
 21
1407.854386431427
 31
0.0
  0
LINE
  5
1F5FB
330
747D
100
AcDbEntity
  8
細線
 48
10.0
100
AcDbLine
 10
8220.025782612895
 20
1016.236467561542
 30
0.0
 11
8611.643701482764
 21
1407.854386431425
 31
0.0
  0
LINE
  5
1F5FC
330
747D
100
AcDbEntity
  8
部品1
100
AcDbLine
 10
8400.304785162266
 20
1417.454386431425
 30
0.0
 11
8512.304785162266
 21
1417.454386431425
 31
0.0
  0
LINE
  5
1F5FD
330
747D
100
AcDbEntity
  8
部品1
100
AcDbLine
 10
8462.775592503909
 20
1346.585007532672
 30
0.0
 11
8457.833185669093
 21
1379.534386431424
 31
0.0
  0
LINE
  5
1F5FE
330
747D
100
AcDbEntity
  8
部品1
100
AcDbLine
 10
8454.776384655437
 20
1379.534386431424
 30
0.0
 11
8449.833977820622
 21
1346.585007532672
 31
0.0
  0
LINE
  5
1F5FF
330
747D
100
AcDbEntity
  8
部品1
100
AcDbLine
 10
8469.104785162263
 20
1347.534386431423
 30
0.0
 11
8464.304785162266
 21
1379.534386431424
 31
0.0
  0
LINE
  5
1F600
330
747D
100
AcDbEntity
  8
部品1
100
AcDbLine
 10
8448.304785162266
 20
1379.534386431424
 30
0.0
 11
8443.504785162266
 21
1347.534386431423
 31
0.0
  0
LINE
  5
1F601
330
747D
100
AcDbEntity
  8
部品1
100
AcDbLine
 10
8461.35152415578
 20
1356.078796520203
 30
0.0
 11
8467.68071681414
 21
1357.028175418958
 31
0.0
  0
LINE
  5
1F602
330
747D
100
AcDbEntity
  8
部品1
100
AcDbLine
 10
8462.063558329843
 20
1351.331902026439
 30
0.0
 11
8468.392750988201
 21
1352.281280925194
 31
0.0
  0
LINE
  5
1F603
330
747D
100
AcDbEntity
  8
部品1
100
AcDbLine
 10
8444.928853510392
 20
1357.028175418958
 30
0.0
 11
8451.258046168751
 21
1356.078796520203
 31
0.0
  0
LINE
  5
1F604
330
747D
100
AcDbEntity
  8
部品1
100
AcDbLine
 10
8444.216819336329
 20
1352.281280925194
 30
0.0
 11
8450.546011994687
 21
1351.331902026439
 31
0.0
  0
LINE
  5
1F605
330
747D
100
AcDbEntity
  8
部品1
100
AcDbLine
 10
8462.775592503909
 20
1346.585007532672
 30
0.0
 11
8469.104785162263
 21
1347.534386431423
 31
0.0
  0
LINE
  5
1F606
330
747D
100
AcDbEntity
  8
部品1
100
AcDbLine
 10
8443.504785162266
 20
1347.534386431423
 30
0.0
 11
8449.833977820622
 21
1346.585007532672
 31
0.0
  0
LINE
  5
1F607
330
747D
100
AcDbEntity
  8
部品1
100
AcDbLine
 10
8400.304785162266
 20
1417.454386431425
 30
0.0
 11
8400.304785162266
 21
1407.854386431425
 31
0.0
  0
LINE
  5
1F608
330
747D
100
AcDbEntity
  8
部品1
100
AcDbLine
 10
8512.304785162266
 20
1417.454386431425
 30
0.0
 11
8512.304785162266
 21
1407.854386431425
 31
0.0
  0
LINE
  5
1F609
330
747D
100
AcDbEntity
  8
部品1
100
AcDbLine
 10
8400.304785162266
 20
1407.854386431425
 30
0.0
 11
8512.304785162266
 21
1407.854386431425
 31
0.0
  0
LINE
  5
1F60A
330
747D
100
AcDbEntity
  8
部品1
100
AcDbLine
 10
8444.304785162264
 20
1433.774386431425
 30
0.0
 11
8448.304785162266
 21
1433.774386431425
 31
0.0
  0
LINE
  5
1F60B
330
747D
100
AcDbEntity
  8
部品1
100
AcDbLine
 10
8444.304785162264
 20
1433.774386431425
 30
0.0
 11
8444.304785162264
 21
1432.654386431422
 31
0.0
  0
LINE
  5
1F60C
330
747D
100
AcDbEntity
  8
部品1
100
AcDbLine
 10
8468.304785162265
 20
1433.774386431423
 30
0.0
 11
8468.304785162265
 21
1432.654386431424
 31
0.0
  0
LINE
  5
1F60D
330
747D
100
AcDbEntity
  8
部品1
100
AcDbLine
 10
8444.304785162264
 20
1432.654386431424
 30
0.0
 11
8468.304785162265
 21
1432.654386431424
 31
0.0
  0
LINE
  5
1F60E
330
747D
100
AcDbEntity
  8
部品1
100
AcDbLine
 10
8458.50338745952
 20
1375.066374495274
 30
0.0
 11
8464.83258011788
 21
1376.015753394029
 31
0.0
  0
LINE
  5
1F60F
330
747D
100
AcDbEntity
  8
部品1
100
AcDbLine
 10
8459.215421633587
 20
1370.319480001508
 30
0.0
 11
8465.544614291946
 21
1371.268858900263
 31
0.0
  0
LINE
  5
1F610
330
747D
100
AcDbEntity
  8
部品1
100
AcDbLine
 10
8459.927455807649
 20
1365.572585507742
 30
0.0
 11
8466.256648466009
 21
1366.521964406493
 31
0.0
  0
LINE
  5
1F611
330
747D
100
AcDbEntity
  8
部品1
100
AcDbLine
 10
8460.639489981717
 20
1360.825691013973
 30
0.0
 11
8466.968682640072
 21
1361.775069912724
 31
0.0
  0
LINE
  5
1F612
330
747D
100
AcDbEntity
  8
部品1
100
AcDbLine
 10
8447.77699020665
 20
1376.015753394029
 30
0.0
 11
8454.106182865009
 21
1375.066374495274
 31
0.0
  0
LINE
  5
1F613
330
747D
100
AcDbEntity
  8
部品1
100
AcDbLine
 10
8447.064956032589
 20
1371.268858900263
 30
0.0
 11
8453.394148690943
 21
1370.319480001508
 31
0.0
  0
LINE
  5
1F614
330
747D
100
AcDbEntity
  8
部品1
100
AcDbLine
 10
8446.352921858524
 20
1366.521964406493
 30
0.0
 11
8452.68211451688
 21
1365.572585507742
 31
0.0
  0
LINE
  5
1F615
330
747D
100
AcDbEntity
  8
部品1
100
AcDbLine
 10
8445.640887684458
 20
1361.775069912724
 30
0.0
 11
8451.970080342814
 21
1360.825691013973
 31
0.0
  0
LINE
  5
1F616
330
747D
100
AcDbEntity
  8
部品1
100
AcDbLine
 10
8454.776384655437
 20
1379.534386431424
 30
0.0
 11
8457.833185669093
 21
1379.534386431424
 31
0.0
  0
LINE
  5
1F617
330
747D
100
AcDbEntity
  8
部品1
100
AcDbLine
 10
8464.304785162266
 20
1407.854386431425
 30
0.0
 11
8464.304785162266
 21
1379.534386431424
 31
0.0
  0
LINE
  5
1F618
330
747D
100
AcDbEntity
  8
部品1
100
AcDbLine
 10
8448.304785162266
 20
1407.854386431425
 30
0.0
 11
8448.304785162266
 21
1379.534386431424
 31
0.0
  0
ARC
  5
1F619
330
747D
100
AcDbEntity
  8
部品1
100
AcDbCircle
 10
8456.304785162265
 20
1413.383479854772
 30
0.0
 40
18.67156899454789
100
AcDbArc
 50
64.63020194521864
 51
115.3697980547925
  0
ARC
  5
1F61A
330
747D
100
AcDbEntity
  8
部品1
100
AcDbCircle
 10
8468.304785162265
 20
1426.64258259917
 30
0.0
 40
5.389353107996995
100
AcDbArc
 50
42.08048849856768
 51
137.9195115014323
  0
ARC
  5
1F61B
330
747D
100
AcDbEntity
  8
部品1
100
AcDbCircle
 10
8444.304785162264
 20
1426.64258259917
 30
0.0
 40
5.389353107996995
100
AcDbArc
 50
42.08048849856768
 51
137.9195115014323
  0
LINE
  5
1F61C
330
747D
100
AcDbEntity
  8
部品1
100
AcDbLine
 10
8440.304785162265
 20
1430.254386431425
 30
0.0
 11
8472.304785162265
 21
1430.254386431425
 31
0.0
  0
LINE
  5
1F61D
330
747D
100
AcDbEntity
  8
部品1
100
AcDbLine
 10
8464.304785162266
 20
1433.774386431425
 30
0.0
 11
8468.304785162265
 21
1433.774386431425
 31
0.0
  0
LINE
  5
1F61E
330
747D
100
AcDbEntity
  8
部品1
100
AcDbLine
 10
8444.304785162264
 20
1433.774386431425
 30
0.0
 11
8448.304785162266
 21
1433.774386431425
 31
0.0
  0
LINE
  5
1F61F
330
747D
100
AcDbEntity
  8
部品1
100
AcDbLine
 10
8472.304785162265
 20
1419.854386431427
 30
0.0
 11
8472.304785162265
 21
1430.254386431425
 31
0.0
  0
LINE
  5
1F620
330
747D
100
AcDbEntity
  8
部品1
100
AcDbLine
 10
8440.304785162265
 20
1419.854386431425
 30
0.0
 11
8440.304785162265
 21
1430.254386431425
 31
0.0
  0
LINE
  5
1F621
330
747D
100
AcDbEntity
  8
部品1
100
AcDbLine
 10
8480.304785162266
 20
1417.454386431425
 30
0.0
 11
8480.304785162266
 21
1419.85438643143
 31
0.0
  0
LINE
  5
1F622
330
747D
100
AcDbEntity
  8
部品1
100
AcDbLine
 10
8432.304785162264
 20
1417.454386431425
 30
0.0
 11
8432.304785162264
 21
1419.854386431425
 31
0.0
  0
LINE
  5
1F623
330
747D
100
AcDbEntity
  8
部品1
100
AcDbLine
 10
8432.304785162264
 20
1419.854386431425
 30
0.0
 11
8480.304785162266
 21
1419.854386431427
 31
0.0
  0
LINE
  5
1F624
330
747D
100
AcDbEntity
  8
部品1
100
AcDbLine
 10
8468.304785162265
 20
1433.774386431423
 30
0.0
 11
8468.304785162265
 21
1432.654386431424
 31
0.0
  0
LINE
  5
1F625
330
747D
100
AcDbEntity
  8
部品1
100
AcDbLine
 10
8444.304785162264
 20
1433.774386431425
 30
0.0
 11
8444.304785162264
 21
1432.654386431424
 31
0.0
  0
LINE
  5
1F626
330
747D
100
AcDbEntity
  8
部品1
100
AcDbLine
 10
8469.904785162269
 20
1432.654386431424
 30
0.0
 11
8472.304785162265
 21
1430.254386431425
 31
0.0
  0
LINE
  5
1F627
330
747D
100
AcDbEntity
  8
部品1
100
AcDbLine
 10
8442.704785162263
 20
1432.654386431424
 30
0.0
 11
8469.904785162269
 21
1432.654386431424
 31
0.0
  0
LINE
  5
1F628
330
747D
100
AcDbEntity
  8
部品1
100
AcDbLine
 10
8442.704785162263
 20
1432.654386431424
 30
0.0
 11
8440.304785162265
 21
1430.254386431425
 31
0.0
  0
LINE
  5
1F629
330
747D
100
AcDbEntity
  8
部品1
100
AcDbLine
 10
8464.304785162266
 20
1433.774386431425
 30
0.0
 11
8468.304785162265
 21
1433.774386431425
 31
0.0
  0
LINE
  5
1F62A
330
747D
100
AcDbEntity
  8
細線
 48
10.0
100
AcDbLine
 10
8561.352493695151
 20
1016.236467561542
 30
0.0
 11
8768.400452627037
 21
1223.284426493437
 31
0.0
  0
LINE
  5
1F62B
330
747D
100
AcDbEntity
  8
細線
 48
10.0
100
AcDbLine
 10
8583.979910693116
 20
1016.236467561542
 30
0.0
 11
8768.400452627037
 21
1200.657009495464
 31
0.0
  0
LINE
  5
1F62C
330
747D
100
AcDbEntity
  8
部品1
100
AcDbLine
 10
8488.304785162265
 20
2127.854386431422
 30
0.0
 11
8488.304785162265
 21
1728.050761621833
 31
0.0
  0
LINE
  5
1F62D
330
747D
100
AcDbEntity
  8
部品1
100
AcDbLine
 10
8400.304785162266
 20
2127.854386431422
 30
0.0
 11
8400.304785162266
 21
1727.854386431425
 31
0.0
  0
LINE
  5
1F62E
330
747D
100
AcDbEntity
  8
部品1
100
AcDbLine
 10
8424.304785162265
 20
1730.734386431424
 30
0.0
 11
8424.304785162265
 21
1648.050761621831
 31
0.0
  0
LINE
  5
1F62F
330
747D
100
AcDbEntity
  8
部品1
100
AcDbLine
 10
8488.304785162265
 20
1730.734386431426
 30
0.0
 11
8488.304785162265
 21
1648.050761621834
 31
0.0
  0
LINE
  5
1F630
330
747D
100
AcDbEntity
  8
部品1
100
AcDbLine
 10
8462.704785162266
 20
1671.169261262983
 30
0.0
 11
8462.704785162266
 21
1658.734386431424
 31
0.0
  0
LINE
  5
1F631
330
747D
100
AcDbEntity
  8
部品1
100
AcDbLine
 10
8449.904785162264
 20
1671.169261262983
 30
0.0
 11
8449.904785162264
 21
1658.734386431424
 31
0.0
  0
LINE
  5
1F632
330
747D
100
AcDbEntity
  8
細線
100
AcDbLine
 10
8417.84131950574
 20
1589.179134209227
 30
0.0
 11
8359.166067283544
 21
1647.854386431425
 31
0.0
  0
LINE
  5
1F633
330
747D
100
AcDbEntity
  8
細線
100
AcDbLine
 10
8420.986229580647
 20
1619.975349631273
 30
0.0
 11
8393.107192780496
 21
1647.854386431425
 31
0.0
  0
ARC
  5
1F634
330
747D
100
AcDbEntity
  8
細線
100
AcDbCircle
 10
8456.304785162265
 20
1635.054386431422
 30
0.0
 40
6.4
100
AcDbArc
 50
0.0
 51
180.0
  0
LINE
  5
1F635
330
747D
100
AcDbEntity
  8
細線
100
AcDbLine
 10
8444.304785162264
 20
1579.054386431424
 30
0.0
 11
8468.304785162265
 21
1579.054386431424
 31
0.0
  0
LINE
  5
1F636
330
747D
100
AcDbEntity
  8
細線
100
AcDbLine
 10
8444.304785162264
 20
1583.854386431425
 30
0.0
 11
8468.304785162265
 21
1583.854386431425
 31
0.0
  0
LINE
  5
1F637
330
747D
100
AcDbEntity
  8
細線
100
AcDbLine
 10
8444.304785162264
 20
1583.854386431425
 30
0.0
 11
8444.304785162264
 21
1579.054386431424
 31
0.0
  0
LINE
  5
1F638
330
747D
100
AcDbEntity
  8
細線
100
AcDbLine
 10
8468.304785162265
 20
1583.854386431423
 30
0.0
 11
8468.304785162265
 21
1579.054386431422
 31
0.0
  0
LINE
  5
1F639
330
747D
100
AcDbEntity
  8
細線
100
AcDbLine
 10
8449.904785162264
 20
1635.054386431422
 30
0.0
 11
8449.904785162264
 21
1613.819511599866
 31
0.0
  0
LINE
  5
1F63A
330
747D
100
AcDbEntity
  8
細線
100
AcDbLine
 10
8462.704785162266
 20
1635.054386431422
 30
0.0
 11
8462.704785162266
 21
1613.819511599866
 31
0.0
  0
LINE
  5
1F63B
330
747D
100
AcDbEntity
  8
部品1
100
AcDbLine
 10
8444.304785162264
 20
1460.974386431426
 30
0.0
 11
8468.304785162265
 21
1460.974386431426
 31
0.0
  0
LINE
  5
1F63C
330
747D
100
AcDbEntity
  8
部品1
100
AcDbLine
 10
8444.304785162264
 20
1465.774386431425
 30
0.0
 11
8468.304785162265
 21
1465.774386431425
 31
0.0
  0
LINE
  5
1F63D
330
747D
100
AcDbEntity
  8
部品1
100
AcDbLine
 10
8444.304785162264
 20
1465.774386431425
 30
0.0
 11
8444.304785162264
 21
1460.974386431426
 31
0.0
  0
LINE
  5
1F63E
330
747D
100
AcDbEntity
  8
部品1
100
AcDbLine
 10
8468.304785162265
 20
1465.774386431423
 30
0.0
 11
8468.304785162265
 21
1460.974386431422
 31
0.0
  0
LINE
  5
1F63F
330
747D
100
AcDbEntity
  8
部品1
100
AcDbLine
 10
8461.904785162264
 20
1456.056703250353
 30
0.0
 11
8461.904785162264
 21
1459.256703250352
 31
0.0
  0
LINE
  5
1F640
330
747D
100
AcDbEntity
  8
部品1
100
AcDbLine
 10
8450.704785162267
 20
1456.056703250353
 30
0.0
 11
8450.704785162267
 21
1459.256703250352
 31
0.0
  0
LINE
  5
1F641
330
747D
100
AcDbEntity
  8
部品1
100
AcDbLine
 10
8460.304785162264
 20
1449.454386431425
 30
0.0
 11
8460.304785162264
 21
1456.056703250353
 31
0.0
  0
LINE
  5
1F642
330
747D
100
AcDbEntity
  8
部品1
100
AcDbLine
 10
8452.304785162265
 20
1449.454386431425
 30
0.0
 11
8452.304785162265
 21
1456.056703250353
 31
0.0
  0
LINE
  5
1F643
330
747D
100
AcDbEntity
  8
部品1
100
AcDbLine
 10
8450.704785162267
 20
1456.056703250353
 30
0.0
 11
8461.904785162264
 21
1456.056703250353
 31
0.0
  0
LINE
  5
1F644
330
747D
100
AcDbEntity
  8
部品1
100
AcDbLine
 10
8448.304785162266
 20
1449.454386431425
 30
0.0
 11
8464.304785162266
 21
1449.454386431425
 31
0.0
  0
LINE
  5
1F645
330
747D
100
AcDbEntity
  8
部品1
100
AcDbLine
 10
8450.704785162267
 20
1459.256703250352
 30
0.0
 11
8461.904785162264
 21
1459.256703250352
 31
0.0
  0
LINE
  5
1F646
330
747D
100
AcDbEntity
  8
部品1
100
AcDbLine
 10
8468.304785162265
 20
1465.774386431423
 30
0.0
 11
8468.304785162265
 21
1460.974386431422
 31
0.0
  0
LINE
  5
1F647
330
747D
100
AcDbEntity
  8
部品1
100
AcDbLine
 10
8444.304785162264
 20
1465.774386431425
 30
0.0
 11
8444.304785162264
 21
1460.974386431426
 31
0.0
  0
LINE
  5
1F648
330
747D
100
AcDbEntity
  8
部品1
100
AcDbLine
 10
8444.304785162264
 20
1465.774386431425
 30
0.0
 11
8468.304785162265
 21
1465.774386431425
 31
0.0
  0
LINE
  5
1F649
330
747D
100
AcDbEntity
  8
部品1
100
AcDbLine
 10
8444.304785162264
 20
1460.974386431426
 30
0.0
 11
8468.304785162265
 21
1460.974386431426
 31
0.0
  0
CIRCLE
  5
1F64A
330
747D
100
AcDbEntity
  8
部品1
100
AcDbCircle
 10
8456.304785162265
 20
1602.734386431424
 30
0.0
 40
12.8
  0
LINE
  5
1F64B
330
747D
100
AcDbEntity
  8
部品1
100
AcDbLine
 10
8431.54803274646
 20
1652.654386431426
 30
0.0
 11
8481.061537578069
 21
1652.654386431423
 31
0.0
  0
ARC
  5
1F64C
330
747D
100
AcDbEntity
  8
部品1
100
AcDbCircle
 10
8431.54803274646
 20
1644.654386431424
 30
0.0
 40
8.000000000000001
100
AcDbArc
 50
90.0
 51
174.3157584018144
  0
ARC
  5
1F64D
330
747D
100
AcDbEntity
  8
部品1
100
AcDbCircle
 10
8481.061537578069
 20
1644.654386431422
 30
0.0
 40
8.000000000000001
100
AcDbArc
 50
5.68424159818561
 51
90.0
  0
ARC
  5
1F64E
330
747D
100
AcDbEntity
  8
部品1
100
AcDbCircle
 10
8456.304785162265
 20
1658.734386431424
 30
0.0
 40
6.4
100
AcDbArc
 50
179.9999999999739
 51
251.8051276613294
  0
ARC
  5
1F64F
330
747D
100
AcDbEntity
  8
部品1
100
AcDbCircle
 10
8456.304785162265
 20
1658.734386431424
 30
0.0
 40
6.4
100
AcDbArc
 50
288.1948723386706
 51
0.0
  0
LINE
  5
1F650
330
747D
100
AcDbEntity
  8
部品1
100
AcDbLine
 10
8432.304785162264
 20
1738.734386431424
 30
0.0
 11
8480.304785162266
 21
1738.734386431426
 31
0.0
  0
ARC
  5
1F651
330
747D
100
AcDbEntity
  8
部品1
100
AcDbCircle
 10
8432.304785162264
 20
1730.734386431424
 30
0.0
 40
8.000000000000001
100
AcDbArc
 50
90.0
 51
180.0
  0
ARC
  5
1F652
330
747D
100
AcDbEntity
  8
部品1
100
AcDbCircle
 10
8480.304785162266
 20
1730.734386431426
 30
0.0
 40
8.000000000000001
100
AcDbArc
 50
0.0
 51
90.0
  0
ARC
  5
1F653
330
747D
100
AcDbEntity
  8
部品1
100
AcDbCircle
 10
8456.304785162265
 20
1690.734386431424
 30
0.0
 40
6.4
100
AcDbArc
 50
28.00674301450029
 51
151.9932569854997
  0
CIRCLE
  5
1F654
330
747D
100
AcDbEntity
  8
部品1
100
AcDbCircle
 10
8456.304785162265
 20
1682.254386431425
 30
0.0
 40
12.8
  0
CIRCLE
  5
1F655
330
747D
100
AcDbEntity
  8
細線
100
AcDbCircle
 10
8456.304785162265
 20
1714.734386431424
 30
0.0
 40
6.4
  0
LINE
  5
1F65B
330
747D
100
AcDbEntity
  8
部品1
100
AcDbLine
 10
10247.01649771589
 20
1353.055846637615
 30
0.0
 11
10247.01649771589
 21
1513.055846637617
 31
0.0
  0
TEXT
  5
1F65C
330
747D
100
AcDbEntity
  8
部品1
100
AcDbText
 10
10419.22134583286
 20
1370.544361166708
 30
0.0
 40
120.0
  1
G.L
  7
STYLE1
100
AcDbText
  0
LINE
  5
1F65D
330
747D
100
AcDbEntity
  8
文字
 48
50.0
100
AcDbLine
 10
10284.45030747788
 20
1455.496985943304
 30
0.0
 11
10343.59472683211
 21
1353.055846637617
 31
0.0
  0
LINE
  5
1F65E
330
747D
100
AcDbEntity
  8
文字
 48
50.0
100
AcDbLine
 10
10343.59472683211
 20
1353.055846637617
 30
0.0
 11
10402.73914618634
 21
1455.496985943304
 31
0.0
  0
LINE
  5
1F65F
330
747D
100
AcDbEntity
  8
細線
100
AcDbLine
 10
10247.01649771589
 20
1368.038918272086
 30
0.0
 11
10101.99956935036
 21
1513.055846637617
 31
0.0
  0
LINE
  5
1F660
330
747D
100
AcDbEntity
  8
細線
100
AcDbLine
 10
10228.05844385341
 20
1353.055846637611
 30
0.0
 11
10068.05844385341
 21
1513.055846637617
 31
0.0
  0
LINE
  5
1F661
330
747D
100
AcDbEntity
  8
部品1
100
AcDbLine
 10
9978.216497715898
 20
1559.455846637618
 30
0.0
 11
9978.216497715898
 21
1115.455846637618
 31
0.0
  0
LINE
  5
1F662
330
747D
100
AcDbEntity
  8
部品1
100
AcDbLine
 10
9875.816497715895
 20
1559.455846637618
 30
0.0
 11
9875.816497715895
 21
1115.455846637618
 31
0.0
  0
LINE
  5
1F663
330
747D
100
AcDbEntity
  8
部品1
100
AcDbLine
 10
9607.016497715896
 20
1353.055846637615
 30
0.0
 11
9607.016497715896
 21
1513.055846637617
 31
0.0
  0
LINE
  5
1F664
330
747D
100
AcDbEntity
  8
細線
100
AcDbLine
 10
9875.816497715895
 20
1368.038918272086
 30
0.0
 11
9730.799569350367
 21
1513.055846637617
 31
0.0
  0
LINE
  5
1F665
330
747D
100
AcDbEntity
  8
細線
100
AcDbLine
 10
9856.858443853413
 20
1353.055846637611
 30
0.0
 11
9696.858443853413
 21
1513.055846637617
 31
0.0
  0
LINE
  5
1F666
330
747D
100
AcDbEntity
  8
細線
100
AcDbLine
 10
9709.780233366608
 20
1353.055846637617
 30
0.0
 11
9607.016497715896
 21
1455.81958228833
 31
0.0
  0
LINE
  5
1F667
330
747D
100
AcDbEntity
  8
細線
100
AcDbLine
 10
10080.98023336661
 20
1353.055846637617
 30
0.0
 11
9978.216497715898
 21
1455.81958228833
 31
0.0
  0
DIMENSION
  5
1F668
330
747D
100
AcDbEntity
  8
寸法
 48
50.0
100
AcDbDimension
  2
*D21
 10
10289.58517520803
 20
1353.055846637615
 30
0.0
 11
10189.57336418441
 21
1193.055846637617
 31
0.0
 70
    32
  1
200
 71
     5
 42
320.0
  3
INABA_S40G
100
AcDbAlignedDimension
 13
10087.01649771589
 23
1033.055846637615
 33
0.0
 14
10087.01649771589
 24
1353.055846637615
 34
0.0
 50
90.0
100
AcDbRotatedDimension
1001
ACAD
1000
DSTYLE
1002
{
1070
   341
1005
0
1002
}
  0
LINE
  5
1F669
330
747D
100
AcDbEntity
  8
Ｇ．Ｌ
100
AcDbLine
 10
10675.95638393654
 20
1353.055846637617
 30
0.0
 11
9978.216497715898
 21
1353.055846637615
 31
0.0
  0
LINE
  5
1F66A
330
747D
100
AcDbEntity
  8
細線
  6
HIDDEN
 48
10.0
100
AcDbLine
 10
9767.016497715896
 20
1211.433707779802
 30
0.0
 11
9875.816497715895
 21
1320.233707779809
 31
0.0
  0
LWPOLYLINE
  5
1F66B
330
747D
100
AcDbEntity
  8
部品1
100
AcDbPolyline
 90
        3
 70
     0
 43
0.0
 10
9767.016497715896
 20
1033.055846637615
 10
9767.016497715896
 20
1353.055846637615
 10
9875.816497715895
 20
1353.055846637611
  0
LINE
  5
1F66C
330
747D
100
AcDbEntity
  8
細線
  6
HIDDEN
 48
10.0
100
AcDbLine
 10
9767.016497715896
 20
1166.178873783861
 30
0.0
 11
9875.816497715895
 21
1274.978873783866
 31
0.0
  0
LINE
  5
1F66D
330
747D
100
AcDbEntity
  8
細線
  6
HIDDEN
 48
10.0
100
AcDbLine
 10
9767.016497715896
 20
1188.806290781831
 30
0.0
 11
9875.816497715895
 21
1297.606290781837
 31
0.0
  0
LWPOLYLINE
  5
1F66E
330
747D
100
AcDbEntity
  8
部品1
100
AcDbPolyline
 90
        4
 70
     0
 43
0.0
 10
9978.216497715898
 20
1353.055846637611
 10
10087.01649771589
 20
1353.055846637615
 10
10087.01649771589
 20
1033.055846637615
 10
9767.016497715896
 20
1033.055846637615
  0
LINE
  5
1F66F
330
747D
100
AcDbEntity
  8
細線
100
AcDbLine
 10
9675.839107869656
 20
1353.055846637617
 30
0.0
 11
9607.016497715896
 21
1421.878456791375
 31
0.0
  0
LINE
  5
1F670
330
747D
100
AcDbEntity
  8
細線
  6
HIDDEN
 48
10.0
100
AcDbLine
 10
9975.220181651909
 20
1033.055846637615
 30
0.0
 11
10087.01649771589
 21
1144.852162701607
 31
0.0
  0
LINE
  5
1F671
330
747D
100
AcDbEntity
  8
細線
  6
HIDDEN
 48
10.0
100
AcDbLine
 10
9952.592764653935
 20
1033.055846637615
 30
0.0
 11
10087.01649771589
 21
1167.479579699578
 31
0.0
  0
LINE
  5
1F672
330
747D
100
AcDbEntity
  8
細線
  6
HIDDEN
 48
10.0
100
AcDbLine
 10
9929.965347655969
 20
1033.055846637615
 30
0.0
 11
10087.01649771589
 21
1190.106996697548
 31
0.0
  0
LINE
  5
1F673
330
747D
100
AcDbEntity
  8
部品1
 48
50.0
100
AcDbLine
 10
9978.216497715898
 20
1115.455846637618
 30
0.0
 11
9875.816497715895
 21
1115.455846637618
 31
0.0
  0
LINE
  5
1F674
330
747D
100
AcDbEntity
  8
部品1
 48
50.0
100
AcDbLine
 10
9978.216497715898
 20
1125.055846637617
 30
0.0
 11
9875.816497715895
 21
1125.055846637617
 31
0.0
  0
LINE
  5
1F675
330
747D
100
AcDbEntity
  8
細線
100
AcDbLine
 10
10047.03910786965
 20
1353.055846637617
 30
0.0
 11
9978.216497715898
 21
1421.878456791375
 31
0.0
  0
LINE
  5
1F676
330
747D
100
AcDbEntity
  8
部品1
100
AcDbLine
 10
10567.01649771589
 20
1513.055846637617
 30
0.0
 11
9978.216497715898
 21
1513.055846637617
 31
0.0
  0
LINE
  5
1F677
330
747D
100
AcDbEntity
  8
部品1
100
AcDbLine
 10
10567.01649771589
 20
1593.055846637617
 30
0.0
 11
9927.016497715897
 21
1593.055846637617
 31
0.0
  0
LINE
  5
1F678
330
747D
100
AcDbEntity
  8
部品1
100
AcDbLine
 10
10567.01649771589
 20
1611.055846637617
 30
0.0
 11
10015.01649771589
 21
1611.055846637617
 31
0.0
  0
LINE
  5
1F67A
330
747D
100
AcDbEntity
  8
部品1
100
AcDbLine
 10
10015.01649771589
 20
1993.055846637615
 30
0.0
 11
10015.01649771589
 21
1593.055846637617
 31
0.0
  0
LINE
  5
1F67B
330
747D
100
AcDbEntity
  8
部品1
100
AcDbLine
 10
9839.016497715897
 20
1993.055846637615
 30
0.0
 11
9839.016497715897
 21
1593.055846637617
 31
0.0
  0
CIRCLE
  5
1F67D
330
747D
100
AcDbEntity
  8
部品1
100
AcDbCircle
 10
9895.016497715896
 20
1547.455846637618
 30
0.0
 40
12.8
  0
LINE
  5
1F67E
330
747D
100
AcDbEntity
  8
部品1
100
AcDbLine
 10
9887.816497715895
 20
1571.455846637618
 30
0.0
 11
9927.016497715897
 21
1571.455846637618
 31
0.0
  0
LINE
  5
1F67F
330
747D
100
AcDbEntity
  8
部品1
100
AcDbLine
 10
9927.016497715897
 20
1593.055846637617
 30
0.0
 11
9927.016497715897
 21
1571.455846637618
 31
0.0
  0
CIRCLE
  5
1F680
330
747D
100
AcDbEntity
  8
部品1
100
AcDbCircle
 10
9959.016497715897
 20
1547.455846637618
 30
0.0
 40
12.8
  0
LINE
  5
1F681
330
747D
100
AcDbEntity
  8
部品1
100
AcDbLine
 10
9966.216497715898
 20
1571.455846637618
 30
0.0
 11
9927.016497715897
 21
1571.455846637618
 31
0.0
  0
ARC
  5
1F682
330
747D
100
AcDbEntity
  8
部品1
100
AcDbCircle
 10
9966.216497715898
 20
1559.455846637618
 30
0.0
 40
12.0
100
AcDbArc
 50
0.0
 51
90.0
  0
ARC
  5
1F683
330
747D
100
AcDbEntity
  8
部品1
100
AcDbCircle
 10
9887.816497715895
 20
1559.455846637618
 30
0.0
 40
12.0
100
AcDbArc
 50
90.0
 51
180.0
  0
LINE
  5
1F68A
330
747D
100
AcDbEntity
  8
文字
 48
50.0
100
AcDbLine
 10
10402.73914618634
 20
1455.496985943304
 30
0.0
 11
10284.45030747788
 21
1455.496985943304
 31
0.0
  0
LINE
  5
1F68B
330
747D
100
AcDbEntity
  8
部品1
100
AcDbLine
 10
7530.222058750763
 20
2495.521610273402
 30
0.0
 11
9226.881241476005
 21
2495.521610273402
 31
0.0
  0
TEXT
  5
1F68C
330
747D
100
AcDbEntity
  8
部品1
100
AcDbText
 10
6907.88590018062
 20
2556.503285475034
 30
0.0
 40
120.0
  1
アンカー部詳細
  7
STYLE2
100
AcDbText
  0
LINE
  5
1F68D
330
747D
100
AcDbEntity
  8
部品1
100
AcDbLine
 10
9226.881241476005
 20
2495.521610273402
 30
0.0
 11
9226.881241476005
 21
2495.521610273402
 31
0.0
  0
LINE
  5
1F68E
330
747D
100
AcDbEntity
  8
部品1
100
AcDbLine
 10
10728.96846365886
 20
2495.521610273402
 30
0.0
 11
10728.96846365886
 21
2735.521610273401
 31
0.0
  0
TEXT
  5
1FAD4
330
747D
100
AcDbEntity
  8
寸法
 48
50.0
100
AcDbText
 10
10254.30394795216
 20
7095.364192098337
 30
0.0
 40
96.0
  1
扉面
 50
90.0
  7
STYLE1
100
AcDbText
  0
TEXT
  5
1FC8E
330
747D
100
AcDbEntity
  8
文字
 48
50.0
100
AcDbText
 10
10631.27590503344
 20
4828.337161874688
 30
0.0
 40
120.0
  1
深サ:200
  7
STYLE1
100
AcDbText
  0
LEADER
  5
1FC8F
330
747D
100
AcDbEntity
  8
寸法
 48
50.0
100
AcDbLeader
  3
INABA_S50G
 73
     0
 74
     0
 75
     1
 40
120.0
 41
185.591883092037
 76
     3
 10
6585.147659102762
 20
8178.278360804419
 30
0.0
 10
6653.524372326066
 20
7890.525880499045
 30
0.0
 10
6778.524372326066
 20
7890.525880499045
 30
0.0
340
1FC90
1001
ACAD
1000
DSTYLE
1002
{
1070
   341
1005
0
1070
   343
1005
0
1070
   344
1005
0
1002
}
  0
MTEXT
  5
1FC90
102
{ACAD_REACTORS
330
1FC8F
102
}
330
747D
100
AcDbEntity
  8
部品1
 62
     7
 48
50.0
100
AcDbMText
 10
6803.524372326066
 20
7975.525880499045
 30
0.0
 40
120.0
 41
0.0
 71
     4
 72
     1
  1
\A1;C.B
  7
STYLE1
 73
     1
 44
1.0
1001
ACAD
1000
MTEXTBEGIN
1070
    73
1070
     1
1070
    44
1040
1.0
1070
    74
1070
     0
1000
MTEXTEND
  0
TEXT
  5
1FC91
330
747D
100
AcDbEntity
  8
文字
 48
50.0
100
AcDbText
 10
6664.583187461531
 20
7723.027281005423
 30
0.0
 40
120.0
  1
100x190x390
  7
STYLE1
100
AcDbText
  0
TEXT
  5
1FC92
330
747D
100
AcDbEntity
  8
部品1
 48
50.0
100
AcDbText
 10
10608.36130780288
 20
5230.251797862887
 30
0.0
 40
120.0
  1
組立後
  7
STYLE1
100
AcDbText
  0
MTEXT
  5
1FC93
102
{ACAD_REACTORS
330
1FC94
102
}
330
747D
100
AcDbEntity
  8
部品1
 62
     7
 48
50.0
100
AcDbMText
 10
10600.23737570778
 20
5103.77420939081
 30
0.0
 40
120.0
 41
0.0
 71
     4
 72
     1
  1
現場打コンクリート
  7
STYLE1
 73
     1
 44
1.0
1001
ACAD
1000
MTEXTBEGIN
1070
    73
1070
     1
1070
    44
1040
1.0
1070
    74
1070
     0
1000
MTEXTEND
  0
LEADER
  5
1FC94
330
747D
100
AcDbEntity
  8
寸法
 48
50.0
100
AcDbLeader
  3
INABA_S50G
 73
     0
 74
     0
 75
     1
 40
120.0
 41
1282.349242404918
 76
     3
 10
10100.17397649493
 20
5617.940693575494
 30
0.0
 10
10450.23737570778
 20
5018.774209390811
 30
0.0
 10
10575.23737570778
 20
5018.774209390811
 30
0.0
340
1FC93
1001
ACAD
1000
DSTYLE
1002
{
1070
   341
1005
0
1070
   343
1005
0
1070
   344
1005
0
1002
}
  0
LINE
  5
1FE8B
330
747D
100
AcDbEntity
  8
細線
 48
50.0
100
AcDbLine
 10
4781.386756954637
 20
1895.020539289268
 30
0.0
 11
4781.386756954634
 21
1513.020539289266
 31
0.0
  0
LINE
  5
1FE8C
330
747D
100
AcDbEntity
  8
細線
 48
50.0
100
AcDbLine
 10
4811.386756954637
 20
1895.020539289268
 30
0.0
 11
4811.386756954633
 21
1513.020539289266
 31
0.0
  0
LINE
  5
1FE8D
330
747D
100
AcDbEntity
  8
細線
 48
50.0
100
AcDbLine
 10
5091.386756954635
 20
1895.020539289268
 30
0.0
 11
5091.386756954634
 21
1513.020539289266
 31
0.0
  0
LINE
  5
1FE8E
330
747D
100
AcDbEntity
  8
細線
 48
50.0
100
AcDbLine
 10
5061.386756954636
 20
1895.020539289268
 30
0.0
 11
5061.386756954633
 21
1513.020539289266
 31
0.0
  0
LINE
  5
1FE9B
330
747D
100
AcDbEntity
  8
細線
 48
50.0
100
AcDbLine
 10
6643.278995973661
 20
2127.854386431425
 30
0.0
 11
6643.278995973661
 21
1745.854386431425
 31
0.0
  0
LINE
  5
1FE9C
330
747D
100
AcDbEntity
  8
細線
 48
50.0
100
AcDbLine
 10
6613.278995973661
 20
2127.854386431425
 30
0.0
 11
6613.278995973661
 21
1745.854386431425
 31
0.0
  0
LINE
  5
1FE9D
330
747D
100
AcDbEntity
  8
細線
 48
50.0
100
AcDbLine
 10
6363.278995973662
 20
2127.854386431425
 30
0.0
 11
6363.278995973661
 21
1745.854386431425
 31
0.0
  0
LINE
  5
1FE9E
330
747D
100
AcDbEntity
  8
細線
 48
50.0
100
AcDbLine
 10
6333.278995973663
 20
2127.854386431425
 30
0.0
 11
6333.278995973663
 21
1745.854386431425
 31
0.0
  0
LINE
  5
1FE9F
330
747D
100
AcDbEntity
  8
細線
 48
50.0
100
AcDbLine
 10
7943.304785162268
 20
2127.854386431425
 30
0.0
 11
7943.304785162268
 21
1745.854386431425
 31
0.0
  0
LINE
  5
1FEA0
330
747D
100
AcDbEntity
  8
細線
 48
50.0
100
AcDbLine
 10
7973.304785162269
 20
2127.854386431425
 30
0.0
 11
7973.304785162266
 21
1745.854386431425
 31
0.0
  0
LINE
  5
1FEA1
330
747D
100
AcDbEntity
  8
細線
 48
50.0
100
AcDbLine
 10
8223.304785162266
 20
2127.854386431425
 30
0.0
 11
8223.304785162266
 21
1745.854386431425
 31
0.0
  0
LINE
  5
1FEA2
330
747D
100
AcDbEntity
  8
細線
 48
50.0
100
AcDbLine
 10
8253.304785162265
 20
2127.854386431425
 30
0.0
 11
8253.304785162265
 21
1745.854386431425
 31
0.0
  0
LINE
  5
1FEA3
330
747D
100
AcDbEntity
  8
細線
 48
50.0
100
AcDbLine
 10
9692.016497715897
 20
1993.055846637618
 30
0.0
 11
9692.016497715897
 21
1611.055846637619
 31
0.0
  0
LINE
  5
1FEA4
330
747D
100
AcDbEntity
  8
細線
 48
50.0
100
AcDbLine
 10
9662.016497715896
 20
1993.055846637618
 30
0.0
 11
9662.016497715896
 21
1611.055846637619
 31
0.0
  0
LINE
  5
1FEA5
330
747D
100
AcDbEntity
  8
細線
 48
50.0
100
AcDbLine
 10
9412.016497715896
 20
1993.055846637618
 30
0.0
 11
9412.016497715896
 21
1611.055846637619
 31
0.0
  0
LINE
  5
1FEA6
330
747D
100
AcDbEntity
  8
細線
 48
50.0
100
AcDbLine
 10
9382.016497715897
 20
1993.055846637618
 30
0.0
 11
9382.016497715897
 21
1611.055846637619
 31
0.0
  0
LINE
  5
1FEA8
330
747D
100
AcDbEntity
  8
細線
 48
50.0
100
AcDbLine
 10
10472.01649771589
 20
1993.055846637618
 30
0.0
 11
10472.01649771589
 21
1611.055846637619
 31
0.0
  0
LINE
  5
1FEA9
330
747D
100
AcDbEntity
  8
細線
 48
50.0
100
AcDbLine
 10
10442.01649771589
 20
1993.055846637618
 30
0.0
 11
10442.0164977159
 21
1611.055846637619
 31
0.0
  0
LINE
  5
1FEAA
330
747D
100
AcDbEntity
  8
細線
 48
50.0
100
AcDbLine
 10
10192.01649771589
 20
1993.055846637618
 30
0.0
 11
10192.01649771589
 21
1611.055846637619
 31
0.0
  0
LINE
  5
1FEAB
330
747D
100
AcDbEntity
  8
細線
 48
50.0
100
AcDbLine
 10
10162.01649771589
 20
1993.055846637618
 30
0.0
 11
10162.01649771589
 21
1611.055846637619
 31
0.0
  0
LINE
  5
20287
330
747D
100
AcDbEntity
  8
想像線
 48
10.0
100
AcDbLine
 10
10129.6
 20
8430.581353077213
 30
0.0
 11
6317.6
 21
8430.581353077208
 31
0.0
  0
HATCH
  5
203BF
330
747D
100
AcDbEntity
  8
寸法
 48
50.0
100
AcDbHatch
 10
0.0
 20
0.0
 30
0.0
210
0.0
220
0.0
230
1.0
  2
DOTS
 70
     0
 71
     0
 91
        6
 92
        7
 72
     0
 73
     1
 93
        4
 10
10109.6
 20
7125.581353077208
 10
10034.6
 20
7125.581353077207
 10
10034.6
 20
6684.581353077212
 10
10109.6
 20
6684.581353077213
 97
        0
 92
        7
 72
     0
 73
     1
 93
        4
 10
10109.6
 20
7525.581353077209
 10
10034.6
 20
7525.581353077207
 10
10034.6
 20
7125.581353077208
 10
10109.6
 20
7125.581353077208
 97
        0
 92
        7
 72
     0
 73
     1
 93
        5
 10
10109.6
 20
8230.581353077207
 10
10034.6
 20
8230.581353077205
 10
10034.6
 20
8130.581353077207
 10
10034.6
 20
7525.581353077209
 10
10109.6
 20
7525.581353077207
 97
        0
 92
        7
 72
     0
 73
     1
 93
        4
 10
10109.6
 20
8330.581353077207
 10
10034.6
 20
8330.581353077207
 10
10034.6
 20
8230.581353077207
 10
10109.6
 20
8230.581353077205
 97
        0
 92
        7
 72
     0
 73
     1
 93
        4
 10
10109.6
 20
6684.581353077212
 10
10034.6
 20
6684.581353077212
 10
10034.6
 20
6284.581353077213
 10
10109.6
 20
6284.581353077213
 97
        0
 92
        7
 72
     0
 73
     1
 93
        4
 10
10109.6
 20
6284.581353077213
 10
10034.6
 20
6284.581353077213
 10
10034.6
 20
6136.581353077206
 10
10109.6
 20
6136.581353077207
 97
        0
 75
     0
 76
     1
 52
0.0
 41
10.0
 77
     0
 78
     1
 53
0.0
 43
261.5226534396297
 44
0.0
 45
7.9375
 46
15.875
 79
     2
 49
0.0
 49
-15.875
 47
4.921833603751803
 98
        6
 10
10061.63663385682
 20
6942.994934618131
 10
10076.40871227784
 20
7302.288811990097
 10
10066.56065999717
 20
7725.566500975634
 10
10091.18087501004
 20
8291.57737042736
 10
10061.63663385682
 20
6455.733380067904
 10
10061.63663385682
 20
6185.032522423455
  0
ENDSEC
  0
SECTION
  2
OBJECTS
  0
DICTIONARY
  5
7471
330
0
100
AcDbDictionary
281
     1
  3
ACAD_COLOR
350
173D2
  3
ACAD_GROUP
350
7472
  3
ACAD_LAYOUT
350
173D3
  3
ACAD_MATERIAL
350
173D1
  3
ACAD_MLINESTYLE
350
7473
  3
ACAD_PLOTSETTINGS
350
173D4
  3
ACAD_PLOTSTYLENAME
350
173CF
  3
ACDBHEADERROUNDTRIPXREC
350
20487
  3
AcDbVariableDictionary
350
20467
  3
CONTENTDICTIONARY
350
E71C
  3
DRAWINGVARIABLESDICT
350
F3B9
  0
DICTIONARY
  5
1758F
330
7467
100
AcDbDictionary
280
     1
281
     1
  3
ACAD_LAYERSTATES
360
17590
  0
DICTIONARY
  5
173D2
102
{ACAD_REACTORS
330
7471
102
}
330
7471
100
AcDbDictionary
281
     1
  0
DICTIONARY
  5
7472
102
{ACAD_REACTORS
330
7471
102
}
330
7471
100
AcDbDictionary
281
     1
  3
*A1
350
1D2A9
  3
*A2
350
2028B
  0
DICTIONARY
  5
173D3
102
{ACAD_REACTORS
330
7471
102
}
330
7471
100
AcDbDictionary
281
     1
  3
Model
350
173D5
  3
レイアウト1
350
173D6
  0
DICTIONARY
  5
173D1
102
{ACAD_REACTORS
330
7471
102
}
330
7471
100
AcDbDictionary
281
     1
  0
DICTIONARY
  5
7473
102
{ACAD_REACTORS
330
7471
102
}
330
7471
100
AcDbDictionary
281
     1
  3
STANDARD
350
7480
  0
DICTIONARY
  5
173D4
102
{ACAD_REACTORS
330
7471
102
}
330
7471
100
AcDbDictionary
281
     1
  0
ACDBDICTIONARYWDFLT
  5
173CF
102
{ACAD_REACTORS
330
7471
102
}
330
7471
100
AcDbDictionary
281
     1
  3
Normal
350
173D0
100
AcDbDictionaryWithDefault
340
173D0
  0
DICTIONARY
  5
20487
102
{ACAD_REACTORS
330
7471
102
}
330
7471
100
AcDbDictionary
281
     1
  3
COLORDICT
350
20489
  3
MATERIALDICT
350
20488
  0
DICTIONARY
  5
20467
102
{ACAD_REACTORS
330
7471
102
}
330
7471
100
AcDbDictionary
281
     1
  3
DIMASSOC
350
20468
  3
PROJECTNAME
350
20469
  0
DICTIONARY
  5
E71C
102
{ACAD_REACTORS
330
7471
102
}
330
7471
100
AcDbDictionary
281
     1
  0
DICTIONARY
  5
F3B9
102
{ACAD_REACTORS
330
7471
102
}
330
7471
100
AcDbDictionary
281
     1
1001
DRAWINGVARIABLESXDATA
1000
POLARMODE
1000
1
  0
DICTIONARY
  5
17590
102
{ACAD_REACTORS
330
1758F
102
}
330
1758F
100
AcDbDictionary
281
     1
  0
GROUP
  5
1D2A9
102
{ACAD_REACTORS
330
7472
102
}
330
7472
100
AcDbGroup
300

 70
     1
 71
     1
  0
GROUP
  5
2028B
102
{ACAD_REACTORS
330
7472
102
}
330
7472
100
AcDbGroup
300

 70
     1
 71
     1
  0
LAYOUT
  5
173D5
102
{ACAD_XDICTIONARY
360
2048A
102
}
102
{ACAD_REACTORS
330
173D3
102
}
330
173D3
100
AcDbPlotSettings
  1

  2
Microsoft Office Document Image Writer
  4

  6

 40
0.0
 41
0.0
 42
0.0
 43
0.0
 44
0.0
 45
0.0
 46
0.0
 47
0.0
 48
0.0
 49
0.0
140
0.0
141
0.0
142
1.0
143
1.0
 70
  1712
 72
     0
 73
     0
 74
     0
  7

 75
     0
147
1.0
148
0.0
149
0.0
100
AcDbLayout
  1
Model
 70
     1
 71
     0
 10
0.0
 20
0.0
 11
12.0
 21
9.0
 12
0.0
 22
0.0
 32
0.0
 14
0.0
 24
0.0
 34
0.0
 15
0.0
 25
0.0
 35
0.0
146
0.0
 13
0.0
 23
0.0
 33
0.0
 16
1.0
 26
0.0
 36
0.0
 17
0.0
 27
1.0
 37
0.0
 76
     0
330
747D
  0
LAYOUT
  5
173D6
102
{ACAD_XDICTIONARY
360
2048C
102
}
102
{ACAD_REACTORS
330
173D3
102
}
330
173D3
100
AcDbPlotSettings
  1

  2
Microsoft Office Document Image Writer
  4

  6

 40
0.0
 41
0.0
 42
0.0
 43
0.0
 44
0.0
 45
0.0
 46
0.0
 47
0.0
 48
0.0
 49
0.0
140
0.0
141
0.0
142
1.0
143
1.0
 70
   688
 72
     0
 73
     0
 74
     5
  7

 75
    16
147
1.0
148
0.0
149
0.0
100
AcDbLayout
  1
レイアウト1
 70
     0
 71
     1
 10
0.0
 20
0.0
 11
420.0
 21
297.0
 12
0.0
 22
0.0
 32
0.0
 14
1.000000000000000E+20
 24
1.000000000000000E+20
 34
1.000000000000000E+20
 15
-1.000000000000000E+20
 25
-1.000000000000000E+20
 35
-1.000000000000000E+20
146
0.0
 13
0.0
 23
0.0
 33
0.0
 16
1.0
 26
0.0
 36
0.0
 17
0.0
 27
1.0
 37
0.0
 76
     0
330
747A
  0
MLINESTYLE
  5
7480
102
{ACAD_REACTORS
330
7473
102
}
330
7473
100
AcDbMlineStyle
  2
STANDARD
 70
     0
  3

 62
     0
 51
90.0
 52
90.0
 71
     2
 49
0.5
 62
   256
  6
BYLAYER
 49
-0.5
 62
   256
  6
BYLAYER
  0
ACDBPLACEHOLDER
  5
173D0
102
{ACAD_REACTORS
330
173CF
102
}
330
173CF
  0
XRECORD
  5
20489
102
{ACAD_REACTORS
330
20487
102
}
330
20487
100
AcDbXrecord
280
     1
340
173D2
  0
XRECORD
  5
20488
102
{ACAD_REACTORS
330
20487
102
}
330
20487
100
AcDbXrecord
280
     1
340
173D1
  0
DICTIONARYVAR
  5
20468
102
{ACAD_REACTORS
330
20467
102
}
330
20467
100
DictionaryVariables
280
     0
  1
1
  0
DICTIONARYVAR
  5
20469
102
{ACAD_REACTORS
330
20467
102
}
330
20467
100
DictionaryVariables
280
     0
  1

  0
DICTIONARY
  5
2048A
330
173D5
100
AcDbDictionary
280
     1
281
     1
  3
ACAD_XREC_ROUNDTRIP
360
2048B
  0
DICTIONARY
  5
2048C
330
173D6
100
AcDbDictionary
280
     1
281
     1
  3
ACAD_XREC_ROUNDTRIP
360
2048D
  0
XRECORD
  5
2048B
102
{ACAD_REACTORS
330
2048A
102
}
330
2048A
100
AcDbXrecord
280
     1
102
SHADEPLOT
 70
     0
102
SHADEPLOTRESLEVEL
 70
     2
102
SHADEPLOTCUSTOMDPI
 70
   300
  0
XRECORD
  5
2048D
102
{ACAD_REACTORS
330
2048C
102
}
330
2048C
100
AcDbXrecord
280
     1
102
SHADEPLOT
 70
     0
102
SHADEPLOTRESLEVEL
 70
     2
102
SHADEPLOTCUSTOMDPI
 70
   300
  0
ENDSEC
  0
EOF
