  0
SECTION
  2
HEADER
  9
$ACADVER
  1
AC1015
  9
$ACADMAINTVER
 70
    20
  9
$DWGCODEPAGE
  3
ANSI_932
  9
$INSBASE
 10
0.0
 20
0.0
 30
0.0
  9
$EXTMIN
 10
139.196816621341
 20
-0.3621615728043253
 30
-0.000000000000013
  9
$EXTMAX
 10
16308.32523385566
 20
11409.91962248407
 30
0.0000000000000023
  9
$LIMMIN
 10
0.0
 20
0.0
  9
$LIMMAX
 10
16800.0
 20
11880.0
  9
$ORTHOMODE
 70
     0
  9
$REGENMODE
 70
     1
  9
$FILLMODE
 70
     1
  9
$QTEXTMODE
 70
     0
  9
$MIRRTEXT
 70
     1
  9
$LTSCALE
 40
20.0
  9
$ATTMODE
 70
     1
  9
$TEXTSIZE
 40
100.0
  9
$TRACEWID
 40
1.0
  9
$TEXTSTYLE
  7
STYLE2
  9
$CLAYER
  8
部品1
  9
$CELTYPE
  6
BYLAYER
  9
$CECOLOR
 62
   256
  9
$CELTSCALE
 40
50.0
  9
$DISPSILH
 70
     0
  9
$DIMSCALE
 40
40.0
  9
$DIMASZ
 40
2.5
  9
$DIMEXO
 40
0.5
  9
$DIMDLI
 40
7.0
  9
$DIMRND
 40
0.0
  9
$DIMDLE
 40
0.0
  9
$DIMEXE
 40
1.5
  9
$DIMTP
 40
0.0
  9
$DIMTM
 40
0.0
  9
$DIMTXT
 40
3.0
  9
$DIMCEN
 40
0.0
  9
$DIMTSZ
 40
0.0
  9
$DIMTOL
 70
     0
  9
$DIMLIM
 70
     0
  9
$DIMTIH
 70
     0
  9
$DIMTOH
 70
     0
  9
$DIMSE1
 70
     0
  9
$DIMSE2
 70
     0
  9
$DIMTAD
 70
     3
  9
$DIMZIN
 70
     8
  9
$DIMBLK
  1

  9
$DIMASO
 70
     1
  9
$DIMSHO
 70
     1
  9
$DIMPOST
  1

  9
$DIMAPOST
  1

  9
$DIMALT
 70
     0
  9
$DIMALTD
 70
     2
  9
$DIMALTF
 40
0.0394
  9
$DIMLFAC
 40
1.0
  9
$DIMTOFL
 70
     1
  9
$DIMTVP
 40
0.0
  9
$DIMTIX
 70
     1
  9
$DIMSOXD
 70
     0
  9
$DIMSAH
 70
     1
  9
$DIMBLK1
  1
DOTSMALL
  9
$DIMBLK2
  1
DOTSMALL
  9
$DIMSTYLE
  2
INABA_S40G
  9
$DIMCLRD
 70
     0
  9
$DIMCLRE
 70
     0
  9
$DIMCLRT
 70
     7
  9
$DIMTFAC
 40
1.0
  9
$DIMGAP
 40
1.0
  9
$DIMJUST
 70
     0
  9
$DIMSD1
 70
     0
  9
$DIMSD2
 70
     0
  9
$DIMTOLJ
 70
     1
  9
$DIMTZIN
 70
     0
  9
$DIMALTZ
 70
     0
  9
$DIMALTTZ
 70
     0
  9
$DIMUPT
 70
     0
  9
$DIMDEC
 70
     1
  9
$DIMTDEC
 70
     4
  9
$DIMALTU
 70
     2
  9
$DIMALTTD
 70
     2
  9
$DIMTXSTY
  7
STYLE1
  9
$DIMAUNIT
 70
     0
  9
$DIMADEC
 70
     0
  9
$DIMALTRND
 40
0.0
  9
$DIMAZIN
 70
     0
  9
$DIMDSEP
 70
    46
  9
$DIMATFIT
 70
     3
  9
$DIMFRAC
 70
     0
  9
$DIMLDRBLK
  1

  9
$DIMLUNIT
 70
     2
  9
$DIMLWD
 70
    -2
  9
$DIMLWE
 70
    -2
  9
$DIMTMOVE
 70
     0
  9
$LUNITS
 70
     2
  9
$LUPREC
 70
     1
  9
$SKETCHINC
 40
1.0
  9
$FILLETRAD
 40
3.0
  9
$AUNITS
 70
     0
  9
$AUPREC
 70
     0
  9
$MENU
  1
acad
  9
$ELEVATION
 40
0.0
  9
$PELEVATION
 40
0.0
  9
$THICKNESS
 40
0.0
  9
$LIMCHECK
 70
     0
  9
$CHAMFERA
 40
0.0
  9
$CHAMFERB
 40
0.0
  9
$CHAMFERC
 40
0.0
  9
$CHAMFERD
 40
0.0
  9
$SKPOLY
 70
     0
  9
$TDCREATE
 40
2451368.612993866
  9
$TDUCREATE
 40
2451368.237993866
  9
$TDUPDATE
 40
2456574.732744178
  9
$TDUUPDATE
 40
2456574.357744178
  9
$TDINDWG
 40
0.6324090046
  9
$TDUSRTIMER
 40
0.6324090046
  9
$USRTIMER
 70
     1
  9
$ANGBASE
 50
0.0
  9
$ANGDIR
 70
     0
  9
$PDMODE
 70
     3
  9
$PDSIZE
 40
2.0
  9
$PLINEWID
 40
0.0
  9
$SPLFRAME
 70
     0
  9
$SPLINETYPE
 70
     6
  9
$SPLINESEGS
 70
     8
  9
$HANDSEED
  5
19278
  9
$SURFTAB1
 70
     6
  9
$SURFTAB2
 70
     6
  9
$SURFTYPE
 70
     6
  9
$SURFU
 70
     6
  9
$SURFV
 70
     6
  9
$UCSBASE
  2

  9
$UCSNAME
  2

  9
$UCSORG
 10
0.0
 20
0.0
 30
0.0
  9
$UCSXDIR
 10
1.0
 20
0.0
 30
0.0
  9
$UCSYDIR
 10
0.0
 20
1.0
 30
0.0
  9
$UCSORTHOREF
  2

  9
$UCSORTHOVIEW
 70
     0
  9
$UCSORGTOP
 10
0.0
 20
0.0
 30
0.0
  9
$UCSORGBOTTOM
 10
0.0
 20
0.0
 30
0.0
  9
$UCSORGLEFT
 10
0.0
 20
0.0
 30
0.0
  9
$UCSORGRIGHT
 10
0.0
 20
0.0
 30
0.0
  9
$UCSORGFRONT
 10
0.0
 20
0.0
 30
0.0
  9
$UCSORGBACK
 10
0.0
 20
0.0
 30
0.0
  9
$PUCSBASE
  2

  9
$PUCSNAME
  2

  9
$PUCSORG
 10
0.0
 20
0.0
 30
0.0
  9
$PUCSXDIR
 10
1.0
 20
0.0
 30
0.0
  9
$PUCSYDIR
 10
0.0
 20
1.0
 30
0.0
  9
$PUCSORTHOREF
  2

  9
$PUCSORTHOVIEW
 70
     0
  9
$PUCSORGTOP
 10
0.0
 20
0.0
 30
0.0
  9
$PUCSORGBOTTOM
 10
0.0
 20
0.0
 30
0.0
  9
$PUCSORGLEFT
 10
0.0
 20
0.0
 30
0.0
  9
$PUCSORGRIGHT
 10
0.0
 20
0.0
 30
0.0
  9
$PUCSORGFRONT
 10
0.0
 20
0.0
 30
0.0
  9
$PUCSORGBACK
 10
0.0
 20
0.0
 30
0.0
  9
$USERI1
 70
     0
  9
$USERI2
 70
     0
  9
$USERI3
 70
     0
  9
$USERI4
 70
     0
  9
$USERI5
 70
     0
  9
$USERR1
 40
0.0
  9
$USERR2
 40
0.0
  9
$USERR3
 40
0.0
  9
$USERR4
 40
0.0
  9
$USERR5
 40
0.0
  9
$WORLDVIEW
 70
     1
  9
$SHADEDGE
 70
     3
  9
$SHADEDIF
 70
    70
  9
$TILEMODE
 70
     1
  9
$MAXACTVP
 70
    16
  9
$PINSBASE
 10
0.0
 20
0.0
 30
0.0
  9
$PLIMCHECK
 70
     0
  9
$PEXTMIN
 10
1.000000000000000E+20
 20
1.000000000000000E+20
 30
1.000000000000000E+20
  9
$PEXTMAX
 10
-1.000000000000000E+20
 20
-1.000000000000000E+20
 30
-1.000000000000000E+20
  9
$PLIMMIN
 10
0.0
 20
0.0
  9
$PLIMMAX
 10
420.0
 20
297.0
  9
$UNITMODE
 70
     0
  9
$VISRETAIN
 70
     0
  9
$PLINEGEN
 70
     0
  9
$PSLTSCALE
 70
     0
  9
$TREEDEPTH
 70
  3020
  9
$CMLSTYLE
  2
STANDARD
  9
$CMLJUST
 70
     0
  9
$CMLSCALE
 40
1.0
  9
$PROXYGRAPHICS
 70
     1
  9
$MEASUREMENT
 70
     1
  9
$CELWEIGHT
370
    -1
  9
$ENDCAPS
280
     0
  9
$JOINSTYLE
280
     0
  9
$LWDISPLAY
290
     0
  9
$INSUNITS
 70
     0
  9
$HYPERLINKBASE
  1

  9
$STYLESHEET
  1
inaba.ctb
  9
$XEDIT
290
     1
  9
$CEPSNTYPE
380
     0
  9
$PSTYLEMODE
290
     1
  9
$FINGERPRINTGUID
  2
{912671F2-4E21-4C46-9157-F687633989C7}
  9
$VERSIONGUID
  2
{D7E352A4-9202-48BF-A32C-635FA24939A9}
  9
$EXTNAMES
290
     1
  9
$PSVPSCALE
 40
0.0
  9
$OLESTARTUP
290
     0
  0
ENDSEC
  0
SECTION
  2
CLASSES
  0
CLASS
  1
ACDBDICTIONARYWDFLT
  2
AcDbDictionaryWithDefault
  3
ObjectDBX Classes
 90
        0
280
     0
281
     0
  0
CLASS
  1
MATERIAL
  2
AcDbMaterial
  3
ObjectDBX Classes
 90
     1153
280
     0
281
     0
  0
CLASS
  1
VISUALSTYLE
  2
AcDbVisualStyle
  3
ObjectDBX Classes
 90
     4095
280
     0
281
     0
  0
CLASS
  1
TABLESTYLE
  2
AcDbTableStyle
  3
ObjectDBX Classes
 90
     4095
280
     0
281
     0
  0
CLASS
  1
SCALE
  2
AcDbScale
  3
ObjectDBX Classes
 90
     1153
280
     0
281
     0
  0
CLASS
  1
MLEADERSTYLE
  2
AcDbMLeaderStyle
  3
ACDB_MLEADERSTYLE_CLASS
 90
     4095
280
     0
281
     0
  0
CLASS
  1
ACDBSECTIONVIEWSTYLE
  2
AcDbSectionViewStyle
  3
ObjectDBX Classes
 90
     1025
280
     0
281
     0
  0
CLASS
  1
ACDBDETAILVIEWSTYLE
  2
AcDbDetailViewStyle
  3
ObjectDBX Classes
 90
     1025
280
     0
281
     0
  0
CLASS
  1
DICTIONARYVAR
  2
AcDbDictionaryVar
  3
ObjectDBX Classes
 90
        0
280
     0
281
     0
  0
CLASS
  1
CELLSTYLEMAP
  2
AcDbCellStyleMap
  3
ObjectDBX Classes
 90
     1152
280
     0
281
     0
  0
CLASS
  1
ACDBPLACEHOLDER
  2
AcDbPlaceHolder
  3
ObjectDBX Classes
 90
        0
280
     0
281
     0
  0
CLASS
  1
LAYOUT
  2
AcDbLayout
  3
ObjectDBX Classes
 90
        0
280
     0
281
     0
  0
ENDSEC
  0
SECTION
  2
TABLES
  0
TABLE
  2
VPORT
  5
746D
330
0
100
AcDbSymbolTable
 70
     1
  0
VPORT
  5
1919D
330
746D
100
AcDbSymbolTableRecord
100
AcDbViewportTableRecord
  2
*Active
 70
     0
 10
0.0
 20
0.0
 11
1.0
 21
1.0
 12
8399.999999999998
 22
5939.818919213598
 13
0.0
 23
0.0
 14
10.0
 24
10.0
 15
10.0
 25
10.0
 16
0.0
 26
0.0
 36
1.0
 17
0.0
 27
0.0
 37
0.0
 40
13243.95957499517
 41
1.276081424936386
 42
50.0
 43
0.0
 44
0.0
 50
0.0
 51
0.0
 71
     0
 72
     0
 73
     1
 74
     0
 75
     0
 76
     0
 77
     0
 78
     0
281
     0
 65
     1
110
0.0
120
0.0
130
0.0
111
1.0
121
0.0
131
0.0
112
0.0
122
1.0
132
0.0
 79
     0
146
0.0
1001
ACAD_NAV_VCDISPLAY
1070
     3
  0
ENDTAB
  0
TABLE
  2
LTYPE
  5
746A
330
0
100
AcDbSymbolTable
 70
     3
  0
LTYPE
  5
7477
330
746A
100
AcDbSymbolTableRecord
100
AcDbLinetypeTableRecord
  2
BYBLOCK
 70
     0
  3

 72
    65
 73
     0
 40
0.0
  0
LTYPE
  5
7478
330
746A
100
AcDbSymbolTableRecord
100
AcDbLinetypeTableRecord
  2
BYLAYER
 70
     0
  3

 72
    65
 73
     0
 40
0.0
  0
LTYPE
  5
7479
330
746A
100
AcDbSymbolTableRecord
100
AcDbLinetypeTableRecord
  2
CONTINUOUS
 70
     0
  3
Solid line
 72
    65
 73
     0
 40
0.0
  0
LTYPE
  5
781A
330
746A
100
AcDbSymbolTableRecord
100
AcDbLinetypeTableRecord
  2
HIDDEN
 70
     0
  3
__ __ __ __ __ __ __ __ __ __ __ __ __ __ __ __
 72
    65
 73
     2
 40
0.375
 49
0.25
 74
     0
 49
-0.125
 74
     0
  0
LTYPE
  5
781B
330
746A
100
AcDbSymbolTableRecord
100
AcDbLinetypeTableRecord
  2
PHANTOM
 70
     0
  3
______  __  __  ______  __  __  ______  __  __ 
 72
    65
 73
     6
 40
2.5
 49
1.25
 74
     0
 49
-0.25
 74
     0
 49
0.25
 74
     0
 49
-0.25
 74
     0
 49
0.25
 74
     0
 49
-0.25
 74
     0
  0
ENDTAB
  0
TABLE
  2
LAYER
  5
7467
102
{ACAD_XDICTIONARY
360
16A85
102
}
330
0
100
AcDbSymbolTable
 70
    10
  0
LAYER
  5
7474
102
{ACAD_XDICTIONARY
360
191FA
102
}
330
7467
100
AcDbSymbolTableRecord
100
AcDbLayerTableRecord
  2
0
 70
     0
 62
     7
  6
CONTINUOUS
370
    -3
390
16815
  0
LAYER
  5
DEB3
102
{ACAD_XDICTIONARY
360
191FC
102
}
330
7467
100
AcDbSymbolTableRecord
100
AcDbLayerTableRecord
  2
寸法
 70
     0
 62
     4
  6
CONTINUOUS
370
    -3
390
16815
  0
LAYER
  5
DEB4
102
{ACAD_XDICTIONARY
360
191FE
102
}
330
7467
100
AcDbSymbolTableRecord
100
AcDbLayerTableRecord
  2
部品1
 70
     0
 62
     7
  6
CONTINUOUS
370
    -3
390
16815
  0
LAYER
  5
DEB5
102
{ACAD_XDICTIONARY
360
19200
102
}
330
7467
100
AcDbSymbolTableRecord
100
AcDbLayerTableRecord
  2
補助
 70
     0
 62
    -1
  6
CONTINUOUS
370
    -3
390
16815
  0
LAYER
  5
DEB6
102
{ACAD_XDICTIONARY
360
19202
102
}
330
7467
100
AcDbSymbolTableRecord
100
AcDbLayerTableRecord
  2
文字
 70
     0
 62
     7
  6
CONTINUOUS
370
    -3
390
16815
  0
LAYER
  5
F255
330
7467
100
AcDbSymbolTableRecord
100
AcDbLayerTableRecord
  2
DEFPOINTS
 70
     0
 62
     7
  6
CONTINUOUS
290
     0
370
    -3
390
16815
  0
LAYER
  5
10B54
102
{ACAD_XDICTIONARY
360
19204
102
}
330
7467
100
AcDbSymbolTableRecord
100
AcDbLayerTableRecord
  2
仕様書枠
 70
     0
 62
   230
  6
CONTINUOUS
370
    -3
390
16815
  0
LAYER
  5
11729
102
{ACAD_XDICTIONARY
360
19206
102
}
330
7467
100
AcDbSymbolTableRecord
100
AcDbLayerTableRecord
  2
Ｇ．Ｌ
 70
     0
 62
    30
  6
CONTINUOUS
370
    -3
390
16815
  0
LAYER
  5
1173F
102
{ACAD_XDICTIONARY
360
19208
102
}
330
7467
100
AcDbSymbolTableRecord
100
AcDbLayerTableRecord
  2
細線
 70
     0
 62
     5
  6
CONTINUOUS
370
    -3
390
16815
  0
LAYER
  5
142E2
102
{ACAD_XDICTIONARY
360
1920A
102
}
330
7467
100
AcDbSymbolTableRecord
100
AcDbLayerTableRecord
  2
破線
 70
     0
 62
     2
  6
HIDDEN
370
    -3
390
16815
  0
ENDTAB
  0
TABLE
  2
STYLE
  5
7468
330
0
100
AcDbSymbolTable
 70
     4
  0
STYLE
  5
7475
330
7468
100
AcDbSymbolTableRecord
100
AcDbTextStyleTableRecord
  2
STANDARD
 70
     0
 40
0.0
 41
1.0
 50
0.0
 71
     0
 42
4.0
  3
txt
  4
C:\AutoCAD LT\bigfont.shx
  0
STYLE
  5
763C
330
7468
100
AcDbSymbolTableRecord
100
AcDbTextStyleTableRecord
  2
MSMINCHO
 70
     0
 40
0.0
 41
1.0
 50
0.0
 71
     0
 42
1.199999999999999
  3
C:\AutoCAD LT\msminch2.TTF
  4

  0
STYLE
  5
F706
330
7468
100
AcDbSymbolTableRecord
100
AcDbTextStyleTableRecord
  2
STYLE1
 70
     0
 40
0.0
 41
1.0
 50
0.0
 71
     0
 42
4.0
  3
isocp.shx
  4
bigfont.shx
  0
STYLE
  5
103BF
330
7468
100
AcDbSymbolTableRecord
100
AcDbTextStyleTableRecord
  2
STYLE2
 70
     0
 40
0.0
 41
1.0
 50
0.0
 71
     0
 42
100.0
  3
MS PGothic.ttf
  4

1001
ACAD
1000
MS PGothic
1071
    32818
  0
ENDTAB
  0
TABLE
  2
VIEW
  5
746B
330
0
100
AcDbSymbolTable
 70
     1
  0
ENDTAB
  0
TABLE
  2
UCS
  5
746C
330
0
100
AcDbSymbolTable
 70
     0
  0
ENDTAB
  0
TABLE
  2
APPID
  5
746E
330
0
100
AcDbSymbolTable
 70
     8
  0
APPID
  5
7476
330
746E
100
AcDbSymbolTableRecord
100
AcDbRegAppTableRecord
  2
ACAD
 70
     0
  0
APPID
  5
DEA9
330
746E
100
AcDbSymbolTableRecord
100
AcDbRegAppTableRecord
  2
CONTENTBLOCKICON
 70
     0
  0
APPID
  5
DEAA
330
746E
100
AcDbSymbolTableRecord
100
AcDbRegAppTableRecord
  2
CONTENTBLOCKDESCRIPTION
 70
     0
  0
APPID
  5
E71D
330
746E
100
AcDbSymbolTableRecord
100
AcDbRegAppTableRecord
  2
CONTENTTABDATA
 70
     0
  0
APPID
  5
E71E
330
746E
100
AcDbSymbolTableRecord
100
AcDbRegAppTableRecord
  2
CONTENTCURRENTTAB
 70
     0
  0
APPID
  5
F3BA
330
746E
100
AcDbSymbolTableRecord
100
AcDbRegAppTableRecord
  2
DRAWINGVARIABLESXDATA
 70
     0
  0
APPID
  5
191F3
330
746E
100
AcDbSymbolTableRecord
100
AcDbRegAppTableRecord
  2
ACAD_NAV_VCDISPLAY
 70
     0
  0
APPID
  5
19271
330
746E
100
AcDbSymbolTableRecord
100
AcDbRegAppTableRecord
  2
ACAD_MLEADERVER
 70
     0
  0
ENDTAB
  0
TABLE
  2
DIMSTYLE
  5
746F
330
0
100
AcDbSymbolTable
 70
     1
100
AcDbDimStyleTable
 71
     1
340
F71F
  0
DIMSTYLE
105
F71F
102
{ACAD_REACTORS
330
14E59
330
14E5A
330
14E5B
330
14E5C
330
14E5D
330
14E61
330
14E6F
330
14E87
330
14E8B
330
14ECF
330
14ED1
330
15E45
330
15E53
330
15E5F
330
15E6D
330
15E7B
330
1751D
330
1751E
330
17524
330
17525
330
17526
330
17529
330
1752A
330
1767D
330
17680
330
17681
330
17683
330
182CF
330
18F71
330
18F72
330
18F73
330
1752B
330
17528
102
}
330
746F
100
AcDbSymbolTableRecord
100
AcDbDimStyleTableRecord
  2
INABA_S40G
 70
     0
 40
40.0
 41
2.5
 42
0.5
 43
7.0
 44
1.5
 73
     0
 74
     0
 77
     3
 78
     8
140
3.0
141
0.0
143
0.0394
147
1.0
172
     1
173
     1
174
     1
178
     7
271
     1
340
F706
341
F770
343
F770
344
F770
  0
ENDTAB
  0
TABLE
  2
BLOCK_RECORD
  5
7466
330
0
100
AcDbSymbolTable
 70
    37
  0
BLOCK_RECORD
  5
747D
330
7466
100
AcDbSymbolTableRecord
100
AcDbBlockTableRecord
  2
*MODEL_SPACE
340
1681A
  0
BLOCK_RECORD
  5
747A
330
7466
100
AcDbSymbolTableRecord
100
AcDbBlockTableRecord
  2
*PAPER_SPACE
340
1681B
  0
BLOCK_RECORD
  5
F770
330
7466
100
AcDbSymbolTableRecord
100
AcDbBlockTableRecord
  2
_DOTSMALL
340
0
102
{BLKREFS
331
17A5B
331
17A5C
331
17A65
331
17A66
331
17A70
331
17A71
331
17A7C
331
17A7D
331
17A83
331
17A84
331
17A8F
331
17A90
331
17A99
331
17A9A
331
17AA2
331
17AA3
331
17AAB
331
17AAC
331
17AB4
331
17AB5
331
17ABF
331
17AC0
331
17AE7
331
17AE8
331
17B04
331
17B05
331
182DF
331
182E0
331
1865B
331
1865C
331
18666
331
18667
331
18E02
331
18E03
331
190AA
331
190AB
331
19125
331
19126
331
1912E
331
1912F
331
1914A
331
1914B
331
19155
331
19156
331
1915E
331
1915F
331
19167
331
19168
331
19183
331
19184
331
1918F
331
19190
331
179A1
331
179A2
331
179B4
331
179B5
331
179BF
331
179C0
331
179C8
331
179C9
331
17A20
331
17A21
331
17A2B
331
17A2C
331
17A3E
331
17A3F
102
}
  0
BLOCK_RECORD
  5
14EE4
330
7466
100
AcDbSymbolTableRecord
100
AcDbBlockTableRecord
  2
*D1
340
0
  0
BLOCK_RECORD
  5
14EF0
330
7466
100
AcDbSymbolTableRecord
100
AcDbBlockTableRecord
  2
*D2
340
0
  0
BLOCK_RECORD
  5
14EFC
330
7466
100
AcDbSymbolTableRecord
100
AcDbBlockTableRecord
  2
*D3
340
0
  0
BLOCK_RECORD
  5
14F0A
330
7466
100
AcDbSymbolTableRecord
100
AcDbBlockTableRecord
  2
*D4
340
0
  0
BLOCK_RECORD
  5
14F18
330
7466
100
AcDbSymbolTableRecord
100
AcDbBlockTableRecord
  2
*D5
340
0
  0
BLOCK_RECORD
  5
14F26
330
7466
100
AcDbSymbolTableRecord
100
AcDbBlockTableRecord
  2
*D6
340
0
  0
BLOCK_RECORD
  5
14F3E
330
7466
100
AcDbSymbolTableRecord
100
AcDbBlockTableRecord
  2
*D7
340
0
  0
BLOCK_RECORD
  5
14F4A
330
7466
100
AcDbSymbolTableRecord
100
AcDbBlockTableRecord
  2
*D8
340
0
  0
BLOCK_RECORD
  5
14F58
330
7466
100
AcDbSymbolTableRecord
100
AcDbBlockTableRecord
  2
*D9
340
0
  0
BLOCK_RECORD
  5
14F64
330
7466
100
AcDbSymbolTableRecord
100
AcDbBlockTableRecord
  2
*D10
340
0
  0
BLOCK_RECORD
  5
14F70
330
7466
100
AcDbSymbolTableRecord
100
AcDbBlockTableRecord
  2
*D11
340
0
  0
BLOCK_RECORD
  5
15E37
330
7466
100
AcDbSymbolTableRecord
100
AcDbBlockTableRecord
  2
*D12
340
0
  0
BLOCK_RECORD
  5
15E46
330
7466
100
AcDbSymbolTableRecord
100
AcDbBlockTableRecord
  2
*D13
340
0
  0
BLOCK_RECORD
  5
15E54
330
7466
100
AcDbSymbolTableRecord
100
AcDbBlockTableRecord
  2
*D14
340
0
  0
BLOCK_RECORD
  5
15E60
330
7466
100
AcDbSymbolTableRecord
100
AcDbBlockTableRecord
  2
*D15
340
0
  0
BLOCK_RECORD
  5
15E6E
330
7466
100
AcDbSymbolTableRecord
100
AcDbBlockTableRecord
  2
*D16
340
0
  0
BLOCK_RECORD
  5
167A2
330
7466
100
AcDbSymbolTableRecord
100
AcDbBlockTableRecord
  2
A$C0F9D2380
340
0
102
{BLKREFS
331
175CA
102
}
  0
BLOCK_RECORD
  5
17696
330
7466
100
AcDbSymbolTableRecord
100
AcDbBlockTableRecord
  2
*D18
340
0
  0
BLOCK_RECORD
  5
176A3
330
7466
100
AcDbSymbolTableRecord
100
AcDbBlockTableRecord
  2
*D19
340
0
  0
BLOCK_RECORD
  5
176B1
330
7466
100
AcDbSymbolTableRecord
100
AcDbBlockTableRecord
  2
*D20
340
0
  0
BLOCK_RECORD
  5
176BD
330
7466
100
AcDbSymbolTableRecord
100
AcDbBlockTableRecord
  2
*D21
340
0
  0
BLOCK_RECORD
  5
176C9
330
7466
100
AcDbSymbolTableRecord
100
AcDbBlockTableRecord
  2
*D22
340
0
  0
BLOCK_RECORD
  5
176D6
330
7466
100
AcDbSymbolTableRecord
100
AcDbBlockTableRecord
  2
*D23
340
0
  0
BLOCK_RECORD
  5
176E2
330
7466
100
AcDbSymbolTableRecord
100
AcDbBlockTableRecord
  2
*D24
340
0
  0
BLOCK_RECORD
  5
176F0
330
7466
100
AcDbSymbolTableRecord
100
AcDbBlockTableRecord
  2
*D25
340
0
  0
BLOCK_RECORD
  5
176FE
330
7466
100
AcDbSymbolTableRecord
100
AcDbBlockTableRecord
  2
*D26
340
0
  0
BLOCK_RECORD
  5
1780E
330
7466
100
AcDbSymbolTableRecord
100
AcDbBlockTableRecord
  2
*D27
340
0
  0
BLOCK_RECORD
  5
1781A
330
7466
100
AcDbSymbolTableRecord
100
AcDbBlockTableRecord
  2
*D28
340
0
  0
BLOCK_RECORD
  5
17828
330
7466
100
AcDbSymbolTableRecord
100
AcDbBlockTableRecord
  2
*D29
340
0
  0
BLOCK_RECORD
  5
17841
330
7466
100
AcDbSymbolTableRecord
100
AcDbBlockTableRecord
  2
*D30
340
0
  0
BLOCK_RECORD
  5
182D0
330
7466
100
AcDbSymbolTableRecord
100
AcDbBlockTableRecord
  2
*D31
340
0
  0
BLOCK_RECORD
  5
187B7
330
7466
100
AcDbSymbolTableRecord
100
AcDbBlockTableRecord
  2
A$C20F158B4
340
0
  0
BLOCK_RECORD
  5
18FDC
330
7466
100
AcDbSymbolTableRecord
100
AcDbBlockTableRecord
  2
*D33
340
0
  0
BLOCK_RECORD
  5
18FE8
330
7466
100
AcDbSymbolTableRecord
100
AcDbBlockTableRecord
  2
*D34
340
0
  0
BLOCK_RECORD
  5
18FF6
330
7466
100
AcDbSymbolTableRecord
100
AcDbBlockTableRecord
  2
*D35
340
0
  0
ENDTAB
  0
ENDSEC
  0
SECTION
  2
BLOCKS
  0
BLOCK
  5
7489
330
747D
100
AcDbEntity
  8
0
100
AcDbBlockBegin
  2
*MODEL_SPACE
 70
     0
 10
0.0
 20
0.0
 30
0.0
  3
*MODEL_SPACE
  1

  0
ENDBLK
  5
748A
330
747D
100
AcDbEntity
  8
0
100
AcDbBlockEnd
  0
BLOCK
  5
7487
330
747A
100
AcDbEntity
 67
     1
  8
0
100
AcDbBlockBegin
  2
*PAPER_SPACE
 70
     0
 10
0.0
 20
0.0
 30
0.0
  3
*PAPER_SPACE
  1

  0
ENDBLK
  5
7488
330
747A
100
AcDbEntity
 67
     1
  8
0
100
AcDbBlockEnd
  0
BLOCK
  5
F771
330
F770
100
AcDbEntity
  8
0
 48
50.0
100
AcDbBlockBegin
  2
_DOTSMALL
 70
     0
 10
0.0
 20
0.0
 30
0.0
  3
_DOTSMALL
  1

  0
LWPOLYLINE
  5
F772
330
F770
100
AcDbEntity
  8
0
  6
ByBlock
 62
     0
 48
50.0
100
AcDbPolyline
 90
        2
 70
     1
 43
0.5
 10
-0.0625
 20
0.0
 42
1.0
 10
0.0625
 20
0.0
 42
1.0
  0
ENDBLK
  5
F776
330
F770
100
AcDbEntity
  8
0
 48
50.0
100
AcDbBlockEnd
  0
BLOCK
  5
160C2
330
14EE4
100
AcDbEntity
  8
0
 48
50.0
100
AcDbBlockBegin
  2
*D1
 70
     1
 10
0.0
 20
0.0
 30
0.0
  3
*D1
  1

  0
LINE
  5
17B01
330
14EE4
100
AcDbEntity
  8
寸法
 62
     0
 48
50.0
370
    -2
100
AcDbLine
 10
7394.673057123664
 20
9045.924129951051
 30
0.0
 11
8447.206344597709
 21
9045.924129951051
 31
0.0
  0
LINE
  5
17B02
330
14EE4
100
AcDbEntity
  8
寸法
 62
     0
 48
50.0
370
    -2
100
AcDbLine
 10
7394.673057123639
 20
7255.924129951043
 30
0.0
 11
8447.206344597709
 21
7255.924129951043
 31
0.0
  0
LINE
  5
17B03
330
14EE4
100
AcDbEntity
  8
寸法
 62
     0
 48
50.0
370
    -2
100
AcDbLine
 10
8387.206344597709
 20
9045.924129951051
 30
0.0
 11
8387.206344597709
 21
7255.924129951043
 31
0.0
  0
INSERT
  5
17B04
330
14EE4
100
AcDbEntity
  8
寸法
 62
     0
 48
50.0
370
    -2
100
AcDbBlockReference
  2
_DOTSMALL
 10
8387.206344597709
 20
9045.924129951051
 30
0.0
 41
100.0
 42
100.0
 43
100.0
 50
90.0
  0
INSERT
  5
17B05
330
14EE4
100
AcDbEntity
  8
寸法
 62
     0
 48
50.0
370
    -2
100
AcDbBlockReference
  2
_DOTSMALL
 10
8387.206344597709
 20
7255.924129951043
 30
0.0
 41
100.0
 42
100.0
 43
100.0
 50
270.0
  0
MTEXT
  5
17B06
330
14EE4
100
AcDbEntity
  8
寸法
 62
     7
 48
50.0
100
AcDbMText
 10
8287.206344597707
 20
8150.924129951048
 30
0.0
 40
120.0
 41
0.0
 71
     5
 72
     1
  1
\A1;1790
  7
STYLE1
 11
0.0000000000000001
 21
1.0
 31
0.0
 73
     1
 44
1.0
1001
ACAD
1000
MTEXTBEGIN
1070
    73
1070
     1
1070
    44
1040
1.0
1070
    74
1070
     0
1000
MTEXTEND
  0
POINT
  5
17B07
330
14EE4
100
AcDbEntity
  8
DEFPOINTS
 62
     0
 48
50.0
100
AcDbPoint
 10
7374.673057123664
 20
9045.924129951051
 30
0.0
  0
POINT
  5
17B08
330
14EE4
100
AcDbEntity
  8
DEFPOINTS
 62
     0
 48
50.0
100
AcDbPoint
 10
7374.673057123638
 20
7255.924129951043
 30
0.0
  0
POINT
  5
17B09
330
14EE4
100
AcDbEntity
  8
DEFPOINTS
 62
     0
 48
50.0
100
AcDbPoint
 10
8387.206344597709
 20
7255.924129951043
 30
0.0
  0
ENDBLK
  5
160CC
330
14EE4
100
AcDbEntity
  8
0
 48
50.0
100
AcDbBlockEnd
  0
BLOCK
  5
15283
330
14EF0
100
AcDbEntity
  8
0
 48
50.0
100
AcDbBlockBegin
  2
*D2
 70
     1
 10
0.0
 20
0.0
 30
0.0
  3
*D2
  1

  0
LINE
  5
19164
330
14EF0
100
AcDbEntity
  8
寸法
 62
     0
 48
50.0
370
    -2
100
AcDbLine
 10
5219.673057123663
 20
9065.924129950955
 30
0.0
 11
5219.673057123663
 21
9621.732349576054
 31
0.0
  0
LINE
  5
19165
330
14EF0
100
AcDbEntity
  8
寸法
 62
     0
 48
50.0
370
    -2
100
AcDbLine
 10
7319.673057123664
 20
9065.924129951051
 30
0.0
 11
7319.673057123664
 21
9621.732349576054
 31
0.0
  0
LINE
  5
19166
330
14EF0
100
AcDbEntity
  8
寸法
 62
     0
 48
50.0
370
    -2
100
AcDbLine
 10
5219.673057123663
 20
9561.732349576054
 30
0.0
 11
7319.673057123664
 21
9561.732349576054
 31
0.0
  0
INSERT
  5
19167
330
14EF0
100
AcDbEntity
  8
寸法
 62
     0
 48
50.0
370
    -2
100
AcDbBlockReference
  2
_DOTSMALL
 10
5219.673057123663
 20
9561.732349576054
 30
0.0
 41
100.0
 42
100.0
 43
100.0
 50
180.0
  0
INSERT
  5
19168
330
14EF0
100
AcDbEntity
  8
寸法
 62
     0
 48
50.0
370
    -2
100
AcDbBlockReference
  2
_DOTSMALL
 10
7319.673057123664
 20
9561.732349576054
 30
0.0
 41
100.0
 42
100.0
 43
100.0
  0
MTEXT
  5
19169
330
14EF0
100
AcDbEntity
  8
寸法
 62
     7
 48
50.0
100
AcDbMText
 10
6269.673057123664
 20
9661.744160599676
 30
0.0
 40
120.0
 41
0.0
 71
     5
 72
     1
  1
\A1;5X420=2100
  7
STYLE1
 73
     1
 44
1.0
1001
ACAD
1000
MTEXTBEGIN
1070
    73
1070
     1
1070
    44
1040
1.0
1070
    74
1070
     0
1000
MTEXTEND
  0
POINT
  5
1916A
330
14EF0
100
AcDbEntity
  8
DEFPOINTS
 62
     0
 48
50.0
100
AcDbPoint
 10
5219.673057123663
 20
9045.924129950956
 30
0.0
  0
POINT
  5
1916B
330
14EF0
100
AcDbEntity
  8
DEFPOINTS
 62
     0
 48
50.0
100
AcDbPoint
 10
7319.673057123664
 20
9045.924129951051
 30
0.0
  0
POINT
  5
1916C
330
14EF0
100
AcDbEntity
  8
DEFPOINTS
 62
     0
 48
50.0
100
AcDbPoint
 10
7319.673057123664
 20
9561.732349576054
 30
0.0
  0
ENDBLK
  5
1528D
330
14EF0
100
AcDbEntity
  8
0
 48
50.0
100
AcDbBlockEnd
  0
BLOCK
  5
1528E
330
14EFC
100
AcDbEntity
  8
0
 48
50.0
100
AcDbBlockBegin
  2
*D3
 70
     1
 10
0.0
 20
0.0
 30
0.0
  3
*D3
  1

  0
LINE
  5
18661
330
14EFC
100
AcDbEntity
  8
寸法
 62
     0
 48
50.0
370
    -2
100
AcDbLine
 10
7319.673057123664
 20
9065.924129951051
 30
0.0
 11
7319.673057123664
 21
9621.732349576035
 31
0.0
  0
LINE
  5
18662
330
14EFC
100
AcDbEntity
  8
寸法
 62
     0
 48
50.0
370
    -2
100
AcDbLine
 10
7374.673057123664
 20
9065.924129951051
 30
0.0
 11
7374.673057123664
 21
9621.732349576035
 31
0.0
  0
LINE
  5
18663
330
14EFC
100
AcDbEntity
  8
寸法
 62
     0
 48
50.0
370
    -2
100
AcDbLine
 10
7319.673057123664
 20
9561.732349576036
 30
0.0
 11
7219.673057123664
 21
9561.732349576036
 31
0.0
  0
LINE
  5
18664
330
14EFC
100
AcDbEntity
  8
寸法
 62
     0
 48
50.0
370
    -2
100
AcDbLine
 10
7374.673057123664
 20
9561.732349576036
 30
0.0
 11
7791.643619872141
 21
9561.732349576036
 31
0.0
  0
LINE
  5
18665
330
14EFC
100
AcDbEntity
  8
寸法
 62
     0
 48
50.0
370
    -2
100
AcDbLine
 10
7319.673057123664
 20
9561.732349576036
 30
0.0
 11
7374.673057123664
 21
9561.732349576036
 31
0.0
  0
INSERT
  5
18666
330
14EFC
100
AcDbEntity
  8
寸法
 62
     0
 48
50.0
370
    -2
100
AcDbBlockReference
  2
_DOTSMALL
 10
7319.673057123664
 20
9561.732349576036
 30
0.0
 41
100.0
 42
100.0
 43
100.0
  0
INSERT
  5
18667
330
14EFC
100
AcDbEntity
  8
寸法
 62
     0
 48
50.0
370
    -2
100
AcDbBlockReference
  2
_DOTSMALL
 10
7374.673057123664
 20
9561.732349576036
 30
0.0
 41
100.0
 42
100.0
 43
100.0
 50
180.0
  0
MTEXT
  5
18668
330
14EFC
100
AcDbEntity
  8
寸法
 62
     7
 48
50.0
100
AcDbMText
 10
7683.158338497903
 20
9661.732349576036
 30
0.0
 40
120.0
 41
0.0
 71
     5
 72
     1
  1
\A1;55
  7
STYLE1
 73
     1
 44
1.0
1001
ACAD
1000
MTEXTBEGIN
1070
    73
1070
     1
1070
    44
1040
1.0
1070
    74
1070
     0
1000
MTEXTEND
  0
POINT
  5
18669
330
14EFC
100
AcDbEntity
  8
DEFPOINTS
 62
     0
 48
50.0
100
AcDbPoint
 10
7319.673057123664
 20
9045.924129951051
 30
0.0
  0
POINT
  5
1866A
330
14EFC
100
AcDbEntity
  8
DEFPOINTS
 62
     0
 48
50.0
100
AcDbPoint
 10
7374.673057123664
 20
9045.924129951051
 30
0.0
  0
POINT
  5
1866B
330
14EFC
100
AcDbEntity
  8
DEFPOINTS
 62
     0
 48
50.0
100
AcDbPoint
 10
7374.673057123664
 20
9561.732349576036
 30
0.0
  0
ENDBLK
  5
1529A
330
14EFC
100
AcDbEntity
  8
0
 48
50.0
100
AcDbBlockEnd
  0
BLOCK
  5
1529B
330
14F0A
100
AcDbEntity
  8
0
 48
50.0
100
AcDbBlockBegin
  2
*D4
 70
     1
 10
0.0
 20
0.0
 30
0.0
  3
*D4
  1

  0
LINE
  5
17AE2
330
14F0A
100
AcDbEntity
  8
寸法
 62
     0
 48
50.0
370
    -2
100
AcDbLine
 10
7394.673057123664
 20
9045.924129951051
 30
0.0
 11
8082.099402858075
 21
9045.924129951051
 31
0.0
  0
LINE
  5
17AE3
330
14F0A
100
AcDbEntity
  8
寸法
 62
     0
 48
50.0
370
    -2
100
AcDbLine
 10
7394.673057123664
 20
8990.924129951054
 30
0.0
 11
8082.099402858075
 21
8990.924129951054
 31
0.0
  0
LINE
  5
17AE4
330
14F0A
100
AcDbEntity
  8
寸法
 62
     0
 48
50.0
370
    -2
100
AcDbLine
 10
8022.099402858074
 20
8990.924129951054
 30
0.0
 11
8022.099402858074
 21
8890.924129951054
 31
0.0
  0
LINE
  5
17AE5
330
14F0A
100
AcDbEntity
  8
寸法
 62
     0
 48
50.0
370
    -2
100
AcDbLine
 10
8022.099402858074
 20
9045.924129951051
 30
0.0
 11
8022.099402858074
 21
9462.894692699526
 31
0.0
  0
LINE
  5
17AE6
330
14F0A
100
AcDbEntity
  8
寸法
 62
     0
 48
50.0
370
    -2
100
AcDbLine
 10
8022.099402858074
 20
8990.924129951054
 30
0.0
 11
8022.099402858074
 21
9045.924129951051
 31
0.0
  0
INSERT
  5
17AE7
330
14F0A
100
AcDbEntity
  8
寸法
 62
     0
 48
50.0
370
    -2
100
AcDbBlockReference
  2
_DOTSMALL
 10
8022.099402858074
 20
8990.924129951054
 30
0.0
 41
100.0
 42
100.0
 43
100.0
 50
90.0
  0
INSERT
  5
17AE8
330
14F0A
100
AcDbEntity
  8
寸法
 62
     0
 48
50.0
370
    -2
100
AcDbBlockReference
  2
_DOTSMALL
 10
8022.099402858074
 20
9045.924129951051
 30
0.0
 41
100.0
 42
100.0
 43
100.0
 50
270.0
  0
MTEXT
  5
17AE9
330
14F0A
100
AcDbEntity
  8
寸法
 62
     7
 48
50.0
100
AcDbMText
 10
7922.099402858073
 20
9354.40941132529
 30
0.0
 40
120.0
 41
0.0
 71
     5
 72
     1
  1
\A1;55
  7
STYLE1
 11
0.0000000000000001
 21
1.0
 31
0.0
 73
     1
 44
1.0
1001
ACAD
1000
MTEXTBEGIN
1070
    73
1070
     1
1070
    44
1040
1.0
1070
    74
1070
     0
1000
MTEXTEND
  0
POINT
  5
17AEA
330
14F0A
100
AcDbEntity
  8
DEFPOINTS
 62
     0
 48
50.0
100
AcDbPoint
 10
7374.673057123664
 20
9045.924129951051
 30
0.0
  0
POINT
  5
17AEB
330
14F0A
100
AcDbEntity
  8
DEFPOINTS
 62
     0
 48
50.0
100
AcDbPoint
 10
7374.673057123664
 20
8990.924129951054
 30
0.0
  0
POINT
  5
17AEC
330
14F0A
100
AcDbEntity
  8
DEFPOINTS
 62
     0
 48
50.0
100
AcDbPoint
 10
8022.099402858074
 20
8990.924129951054
 30
0.0
  0
ENDBLK
  5
152A7
330
14F0A
100
AcDbEntity
  8
0
 48
50.0
100
AcDbBlockEnd
  0
BLOCK
  5
152A8
330
14F18
100
AcDbEntity
  8
0
 48
50.0
100
AcDbBlockBegin
  2
*D5
 70
     1
 10
0.0
 20
0.0
 30
0.0
  3
*D5
  1

  0
LINE
  5
18656
330
14F18
100
AcDbEntity
  8
寸法
 62
     0
 48
50.0
370
    -2
100
AcDbLine
 10
5164.673057123629
 20
9065.924129950955
 30
0.0
 11
5164.673057123629
 21
9621.732349575937
 31
0.0
  0
LINE
  5
18657
330
14F18
100
AcDbEntity
  8
寸法
 62
     0
 48
50.0
370
    -2
100
AcDbLine
 10
5219.673057123663
 20
9065.924129950955
 30
0.0
 11
5219.673057123663
 21
9621.732349575937
 31
0.0
  0
LINE
  5
18658
330
14F18
100
AcDbEntity
  8
寸法
 62
     0
 48
50.0
370
    -2
100
AcDbLine
 10
5219.673057123663
 20
9561.732349575938
 30
0.0
 11
5319.673057123663
 21
9561.732349575938
 31
0.0
  0
LINE
  5
18659
330
14F18
100
AcDbEntity
  8
寸法
 62
     0
 48
50.0
370
    -2
100
AcDbLine
 10
5164.673057123629
 20
9561.732349575938
 30
0.0
 11
4747.702494375151
 21
9561.732349575938
 31
0.0
  0
LINE
  5
1865A
330
14F18
100
AcDbEntity
  8
寸法
 62
     0
 48
50.0
370
    -2
100
AcDbLine
 10
5219.673057123663
 20
9561.732349575938
 30
0.0
 11
5164.673057123629
 21
9561.732349575938
 31
0.0
  0
INSERT
  5
1865B
330
14F18
100
AcDbEntity
  8
寸法
 62
     0
 48
50.0
370
    -2
100
AcDbBlockReference
  2
_DOTSMALL
 10
5219.673057123663
 20
9561.732349575938
 30
0.0
 41
100.0
 42
100.0
 43
100.0
 50
180.0
  0
INSERT
  5
1865C
330
14F18
100
AcDbEntity
  8
寸法
 62
     0
 48
50.0
370
    -2
100
AcDbBlockReference
  2
_DOTSMALL
 10
5164.673057123629
 20
9561.732349575938
 30
0.0
 41
100.0
 42
100.0
 43
100.0
  0
MTEXT
  5
1865D
330
14F18
100
AcDbEntity
  8
寸法
 62
     7
 48
50.0
100
AcDbMText
 10
4856.18777574939
 20
9661.732349575938
 30
0.0
 40
120.0
 41
0.0
 71
     5
 72
     1
  1
\A1;55
  7
STYLE1
 73
     1
 44
1.0
1001
ACAD
1000
MTEXTBEGIN
1070
    73
1070
     1
1070
    44
1040
1.0
1070
    74
1070
     0
1000
MTEXTEND
  0
POINT
  5
1865E
330
14F18
100
AcDbEntity
  8
DEFPOINTS
 62
     0
 48
50.0
100
AcDbPoint
 10
5164.673057123629
 20
9045.924129950956
 30
0.0
  0
POINT
  5
1865F
330
14F18
100
AcDbEntity
  8
DEFPOINTS
 62
     0
 48
50.0
100
AcDbPoint
 10
5219.673057123663
 20
9045.924129950956
 30
0.0
  0
POINT
  5
18660
330
14F18
100
AcDbEntity
  8
DEFPOINTS
 62
     0
 48
50.0
100
AcDbPoint
 10
5219.673057123663
 20
9561.732349575938
 30
0.0
  0
ENDBLK
  5
152B4
330
14F18
100
AcDbEntity
  8
0
 48
50.0
100
AcDbBlockEnd
  0
BLOCK
  5
167FC
330
14F26
100
AcDbEntity
  8
0
 48
50.0
100
AcDbBlockBegin
  2
*D6
 70
     1
 10
0.0
 20
0.0
 30
0.0
  3
*D6
  1

  0
LINE
  5
18DFF
330
14F26
100
AcDbEntity
  8
寸法
 62
     0
 48
50.0
370
    -2
100
AcDbLine
 10
5187.814073275042
 20
8545.924129950956
 30
0.0
 11
5084.797464353713
 21
8161.46091143311
 31
0.0
  0
LINE
  5
18E00
330
14F26
100
AcDbEntity
  8
寸法
 62
     0
 48
50.0
370
    -2
100
AcDbLine
 10
6460.814073275054
 20
8545.924129950948
 30
0.0
 11
6357.797464353727
 21
8161.46091143311
 31
0.0
  0
LINE
  5
18E01
330
14F26
100
AcDbEntity
  8
寸法
 62
     0
 48
50.0
370
    -2
100
AcDbLine
 10
5100.874415899582
 20
8221.46091143311
 30
0.0
 11
6373.874415899595
 21
8221.46091143311
 31
0.0
  0
INSERT
  5
18E02
330
14F26
100
AcDbEntity
  8
寸法
 62
     0
 48
50.0
370
    -2
100
AcDbBlockReference
  2
_DOTSMALL
 10
5100.874415899582
 20
8221.46091143311
 30
0.0
 41
100.0
 42
100.0
 43
100.0
 50
180.0
  0
INSERT
  5
18E03
330
14F26
100
AcDbEntity
  8
寸法
 62
     0
 48
50.0
370
    -2
100
AcDbBlockReference
  2
_DOTSMALL
 10
6373.874415899595
 20
8221.46091143311
 30
0.0
 41
100.0
 42
100.0
 43
100.0
  0
MTEXT
  5
18E04
330
14F26
100
AcDbEntity
  8
寸法
 62
     7
 48
50.0
100
AcDbMText
 10
5729.944833674774
 20
8321.472722456732
 30
0.0
 40
120.0
 41
0.0
 71
     5
 72
     1
  1
\A1;1273
  7
STYLE1
 73
     1
 44
1.0
1001
ACAD
1000
MTEXTBEGIN
1070
    73
1070
     1
1070
    44
1040
1.0
1070
    74
1070
     0
1000
MTEXTEND
  0
POINT
  5
18E05
330
14F26
100
AcDbEntity
  8
DEFPOINTS
 62
     0
 48
50.0
100
AcDbPoint
 10
5193.173057123664
 20
8565.924129950955
 30
0.0
  0
POINT
  5
18E06
330
14F26
100
AcDbEntity
  8
DEFPOINTS
 62
     0
 48
50.0
100
AcDbPoint
 10
6466.173057123675
 20
8565.924129950948
 30
0.0
  0
POINT
  5
18E07
330
14F26
100
AcDbEntity
  8
DEFPOINTS
 62
     0
 48
50.0
100
AcDbPoint
 10
6373.874415899595
 20
8221.46091143311
 30
0.0
  0
ENDBLK
  5
16806
330
14F26
100
AcDbEntity
  8
0
 48
50.0
100
AcDbBlockEnd
  0
BLOCK
  5
16002
330
14F3E
100
AcDbEntity
  8
0
 48
50.0
100
AcDbBlockBegin
  2
*D7
 70
     1
 10
0.0
 20
0.0
 30
0.0
  3
*D7
  1

  0
LINE
  5
19147
330
14F3E
100
AcDbEntity
  8
寸法
 62
     0
 48
50.0
370
    -2
100
AcDbLine
 10
5164.673057123657
 20
7235.92412995088
 30
0.0
 11
5164.673057123657
 21
6375.320363593914
 31
0.0
  0
LINE
  5
19148
330
14F3E
100
AcDbEntity
  8
寸法
 62
     0
 48
50.0
370
    -2
100
AcDbLine
 10
7374.673057123638
 20
7235.924129951007
 30
0.0
 11
7374.673057123638
 21
6375.320363593914
 31
0.0
  0
LINE
  5
19149
330
14F3E
100
AcDbEntity
  8
寸法
 62
     0
 48
50.0
370
    -2
100
AcDbLine
 10
5164.673057123657
 20
6435.320363593914
 30
0.0
 11
7374.673057123638
 21
6435.320363593914
 31
0.0
  0
INSERT
  5
1914A
330
14F3E
100
AcDbEntity
  8
寸法
 62
     0
 48
50.0
370
    -2
100
AcDbBlockReference
  2
_DOTSMALL
 10
5164.673057123657
 20
6435.320363593914
 30
0.0
 41
100.0
 42
100.0
 43
100.0
 50
180.0
  0
INSERT
  5
1914B
330
14F3E
100
AcDbEntity
  8
寸法
 62
     0
 48
50.0
370
    -2
100
AcDbBlockReference
  2
_DOTSMALL
 10
7374.673057123638
 20
6435.320363593914
 30
0.0
 41
100.0
 42
100.0
 43
100.0
  0
MTEXT
  5
1914C
330
14F3E
100
AcDbEntity
  8
寸法
 62
     7
 48
50.0
100
AcDbMText
 10
6269.673057123648
 20
6535.332174617535
 30
0.0
 40
120.0
 41
0.0
 71
     5
 72
     1
  1
\A1;2210
  7
STYLE1
 73
     1
 44
1.0
1001
ACAD
1000
MTEXTBEGIN
1070
    73
1070
     1
1070
    44
1040
1.0
1070
    74
1070
     0
1000
MTEXTEND
  0
POINT
  5
1914D
330
14F3E
100
AcDbEntity
  8
DEFPOINTS
 62
     0
 48
50.0
100
AcDbPoint
 10
5164.673057123657
 20
7255.92412995088
 30
0.0
  0
POINT
  5
1914E
330
14F3E
100
AcDbEntity
  8
DEFPOINTS
 62
     0
 48
50.0
100
AcDbPoint
 10
7374.673057123638
 20
7255.924129951006
 30
0.0
  0
POINT
  5
1914F
330
14F3E
100
AcDbEntity
  8
DEFPOINTS
 62
     0
 48
50.0
100
AcDbPoint
 10
7374.673057123638
 20
6435.320363593914
 30
0.0
  0
ENDBLK
  5
1600C
330
14F3E
100
AcDbEntity
  8
0
 48
50.0
100
AcDbBlockEnd
  0
BLOCK
  5
152D6
330
14F4A
100
AcDbEntity
  8
0
 48
50.0
100
AcDbBlockBegin
  2
*D8
 70
     1
 10
0.0
 20
0.0
 30
0.0
  3
*D8
  1

  0
LINE
  5
17ABA
330
14F4A
100
AcDbEntity
  8
寸法
 62
     0
 48
50.0
370
    -2
100
AcDbLine
 10
7394.673057123639
 20
7310.92412995104
 30
0.0
 11
8082.09940285805
 21
7310.92412995104
 31
0.0
  0
LINE
  5
17ABB
330
14F4A
100
AcDbEntity
  8
寸法
 62
     0
 48
50.0
370
    -2
100
AcDbLine
 10
7394.673057123639
 20
7255.924129951043
 30
0.0
 11
8082.09940285805
 21
7255.924129951043
 31
0.0
  0
LINE
  5
17ABC
330
14F4A
100
AcDbEntity
  8
寸法
 62
     0
 48
50.0
370
    -2
100
AcDbLine
 10
8022.099402858051
 20
7310.92412995104
 30
0.0
 11
8022.099402858051
 21
7410.92412995104
 31
0.0
  0
LINE
  5
17ABD
330
14F4A
100
AcDbEntity
  8
寸法
 62
     0
 48
50.0
370
    -2
100
AcDbLine
 10
8022.099402858051
 20
7255.924129951043
 30
0.0
 11
8022.099402858051
 21
6769.577381671941
 31
0.0
  0
LINE
  5
17ABE
330
14F4A
100
AcDbEntity
  8
寸法
 62
     0
 48
50.0
370
    -2
100
AcDbLine
 10
8022.099402858051
 20
7310.92412995104
 30
0.0
 11
8022.099402858051
 21
7255.924129951043
 31
0.0
  0
INSERT
  5
17ABF
330
14F4A
100
AcDbEntity
  8
寸法
 62
     0
 48
50.0
370
    -2
100
AcDbBlockReference
  2
_DOTSMALL
 10
8022.099402858051
 20
7310.92412995104
 30
0.0
 41
100.0
 42
100.0
 43
100.0
 50
270.0
  0
INSERT
  5
17AC0
330
14F4A
100
AcDbEntity
  8
寸法
 62
     0
 48
50.0
370
    -2
100
AcDbBlockReference
  2
_DOTSMALL
 10
8022.099402858051
 20
7255.924129951043
 30
0.0
 41
100.0
 42
100.0
 43
100.0
 50
90.0
  0
MTEXT
  5
17AC1
330
14F4A
100
AcDbEntity
  8
寸法
 62
     7
 48
50.0
100
AcDbMText
 10
7922.099402858048
 20
6878.062663046181
 30
0.0
 40
120.0
 41
0.0
 71
     5
 72
     1
  1
\A1;55
  7
STYLE1
 11
0.0000000000000001
 21
1.0
 31
0.0
 73
     1
 44
1.0
1001
ACAD
1000
MTEXTBEGIN
1070
    73
1070
     1
1070
    44
1040
1.0
1070
    74
1070
     0
1000
MTEXTEND
  0
POINT
  5
17AC2
330
14F4A
100
AcDbEntity
  8
DEFPOINTS
 62
     0
 48
50.0
100
AcDbPoint
 10
7374.673057123638
 20
7310.92412995104
 30
0.0
  0
POINT
  5
17AC3
330
14F4A
100
AcDbEntity
  8
DEFPOINTS
 62
     0
 48
50.0
100
AcDbPoint
 10
7374.673057123638
 20
7255.924129951043
 30
0.0
  0
POINT
  5
17AC4
330
14F4A
100
AcDbEntity
  8
DEFPOINTS
 62
     0
 48
50.0
100
AcDbPoint
 10
8022.099402858051
 20
7255.924129951043
 30
0.0
  0
ENDBLK
  5
152E2
330
14F4A
100
AcDbEntity
  8
0
 48
50.0
100
AcDbBlockEnd
  0
BLOCK
  5
16807
330
14F58
100
AcDbEntity
  8
0
 48
50.0
100
AcDbBlockBegin
  2
*D9
 70
     1
 10
0.0
 20
0.0
 30
0.0
  3
*D9
  1

  0
LINE
  5
17AB1
330
14F58
100
AcDbEntity
  8
寸法
 62
     0
 48
50.0
370
    -2
100
AcDbLine
 10
6487.814073275041
 20
8545.92412995106
 30
0.0
 11
6385.072259316471
 21
8162.486460195895
 31
0.0
  0
LINE
  5
17AB2
330
14F58
100
AcDbEntity
  8
寸法
 62
     0
 48
50.0
370
    -2
100
AcDbLine
 10
7340.814073275052
 20
8545.924129951053
 30
0.0
 11
7238.072259316486
 21
8162.486460195895
 31
0.0
  0
LINE
  5
17AB3
330
14F58
100
AcDbEntity
  8
寸法
 62
     0
 48
50.0
370
    -2
100
AcDbLine
 10
6401.149210862339
 20
8222.486460195893
 30
0.0
 11
7254.149210862353
 21
8222.486460195893
 31
0.0
  0
INSERT
  5
17AB4
330
14F58
100
AcDbEntity
  8
寸法
 62
     0
 48
50.0
370
    -2
100
AcDbBlockReference
  2
_DOTSMALL
 10
6401.149210862339
 20
8222.486460195893
 30
0.0
 41
100.0
 42
100.0
 43
100.0
 50
180.0
  0
INSERT
  5
17AB5
330
14F58
100
AcDbEntity
  8
寸法
 62
     0
 48
50.0
370
    -2
100
AcDbBlockReference
  2
_DOTSMALL
 10
7254.149210862353
 20
8222.486460195893
 30
0.0
 41
100.0
 42
100.0
 43
100.0
  0
MTEXT
  5
17AB6
330
14F58
100
AcDbEntity
  8
寸法
 62
     7
 48
50.0
100
AcDbMText
 10
6943.108030108764
 20
8322.486460195895
 30
0.0
 40
120.0
 41
0.0
 71
     5
 72
     1
  1
\A1;853
  7
STYLE1
 73
     1
 44
1.0
1001
ACAD
1000
MTEXTBEGIN
1070
    73
1070
     1
1070
    44
1040
1.0
1070
    74
1070
     0
1000
MTEXTEND
  0
POINT
  5
17AB7
330
14F58
100
AcDbEntity
  8
DEFPOINTS
 62
     0
 48
50.0
100
AcDbPoint
 10
6493.173057123662
 20
8565.924129951062
 30
0.0
  0
POINT
  5
17AB8
330
14F58
100
AcDbEntity
  8
DEFPOINTS
 62
     0
 48
50.0
100
AcDbPoint
 10
7346.173057123675
 20
8565.924129951055
 30
0.0
  0
POINT
  5
17AB9
330
14F58
100
AcDbEntity
  8
DEFPOINTS
 62
     0
 48
50.0
100
AcDbPoint
 10
7254.149210862353
 20
8222.486460195893
 30
0.0
  0
ENDBLK
  5
16811
330
14F58
100
AcDbEntity
  8
0
 48
50.0
100
AcDbBlockEnd
  0
BLOCK
  5
1670D
330
14F64
100
AcDbEntity
  8
0
 48
50.0
100
AcDbBlockBegin
  2
*D10
 70
     1
 10
0.0
 20
0.0
 30
0.0
  3
*D10
  1

  0
LINE
  5
17AA8
330
14F64
100
AcDbEntity
  8
寸法
 62
     0
 48
50.0
370
    -2
100
AcDbLine
 10
7366.173057123664
 20
9010.565146102427
 30
0.0
 11
7761.530782985689
 21
8904.629362736294
 31
0.0
  0
LINE
  5
17AA9
330
14F64
100
AcDbEntity
  8
寸法
 62
     0
 48
50.0
370
    -2
100
AcDbLine
 10
7366.173057123664
 20
8560.565146102431
 30
0.0
 11
7761.530782985689
 21
8454.629362736296
 31
0.0
  0
LINE
  5
17AAA
330
14F64
100
AcDbEntity
  8
寸法
 62
     0
 48
50.0
370
    -2
100
AcDbLine
 10
7701.530782985688
 20
8920.706314282162
 30
0.0
 11
7701.530782985688
 21
8470.706314282164
 31
0.0
  0
INSERT
  5
17AAB
330
14F64
100
AcDbEntity
  8
寸法
 62
     0
 48
50.0
370
    -2
100
AcDbBlockReference
  2
_DOTSMALL
 10
7701.530782985688
 20
8920.706314282162
 30
0.0
 41
100.0
 42
100.0
 43
100.0
 50
90.0
  0
INSERT
  5
17AAC
330
14F64
100
AcDbEntity
  8
寸法
 62
     0
 48
50.0
370
    -2
100
AcDbBlockReference
  2
_DOTSMALL
 10
7701.530782985688
 20
8470.706314282164
 30
0.0
 41
100.0
 42
100.0
 43
100.0
 50
270.0
  0
MTEXT
  5
17AAD
330
14F64
100
AcDbEntity
  8
寸法
 62
     7
 48
50.0
100
AcDbMText
 10
7601.530782985688
 20
8695.706314282164
 30
0.0
 40
120.0
 41
0.0
 71
     5
 72
     1
  1
\A1;450
  7
STYLE1
 11
0.0000000000000001
 21
1.0
 31
0.0
 73
     1
 44
1.0
1001
ACAD
1000
MTEXTBEGIN
1070
    73
1070
     1
1070
    44
1040
1.0
1070
    74
1070
     0
1000
MTEXTEND
  0
POINT
  5
17AAE
330
14F64
100
AcDbEntity
  8
DEFPOINTS
 62
     0
 48
50.0
100
AcDbPoint
 10
7346.173057123664
 20
9015.92412995105
 30
0.0
  0
POINT
  5
17AAF
330
14F64
100
AcDbEntity
  8
DEFPOINTS
 62
     0
 48
50.0
100
AcDbPoint
 10
7346.173057123664
 20
8565.924129951055
 30
0.0
  0
POINT
  5
17AB0
330
14F64
100
AcDbEntity
  8
DEFPOINTS
 62
     0
 48
50.0
100
AcDbPoint
 10
7701.530782985688
 20
8470.706314282164
 30
0.0
  0
ENDBLK
  5
16717
330
14F64
100
AcDbEntity
  8
0
 48
50.0
100
AcDbBlockEnd
  0
BLOCK
  5
160B7
330
14F70
100
AcDbEntity
  8
0
 48
50.0
100
AcDbBlockBegin
  2
*D11
 70
     1
 10
0.0
 20
0.0
 30
0.0
  3
*D11
  1

  0
LINE
  5
17A9F
330
14F70
100
AcDbEntity
  8
寸法
 62
     0
 48
50.0
370
    -2
100
AcDbLine
 10
7394.673057123664
 20
8990.924129951054
 30
0.0
 11
8082.099402858073
 21
8990.924129951054
 31
0.0
  0
LINE
  5
17AA0
330
14F70
100
AcDbEntity
  8
寸法
 62
     0
 48
50.0
370
    -2
100
AcDbLine
 10
7394.673057123639
 20
7310.92412995104
 30
0.0
 11
8082.099402858073
 21
7310.92412995104
 31
0.0
  0
LINE
  5
17AA1
330
14F70
100
AcDbEntity
  8
寸法
 62
     0
 48
50.0
370
    -2
100
AcDbLine
 10
8022.099402858072
 20
8990.924129951054
 30
0.0
 11
8022.099402858072
 21
7310.92412995104
 31
0.0
  0
INSERT
  5
17AA2
330
14F70
100
AcDbEntity
  8
寸法
 62
     0
 48
50.0
370
    -2
100
AcDbBlockReference
  2
_DOTSMALL
 10
8022.099402858072
 20
8990.924129951054
 30
0.0
 41
100.0
 42
100.0
 43
100.0
 50
90.0
  0
INSERT
  5
17AA3
330
14F70
100
AcDbEntity
  8
寸法
 62
     0
 48
50.0
370
    -2
100
AcDbBlockReference
  2
_DOTSMALL
 10
8022.099402858072
 20
7310.92412995104
 30
0.0
 41
100.0
 42
100.0
 43
100.0
 50
270.0
  0
MTEXT
  5
17AA4
330
14F70
100
AcDbEntity
  8
寸法
 62
     7
 48
50.0
100
AcDbMText
 10
7922.087591834451
 20
8150.924129951048
 30
0.0
 40
120.0
 41
0.0
 71
     5
 72
     1
  1
\A1;4X420=1680
  7
STYLE1
 11
0.0000000000000001
 21
1.0
 31
0.0
 73
     1
 44
1.0
1001
ACAD
1000
MTEXTBEGIN
1070
    73
1070
     1
1070
    44
1040
1.0
1070
    74
1070
     0
1000
MTEXTEND
  0
POINT
  5
17AA5
330
14F70
100
AcDbEntity
  8
DEFPOINTS
 62
     0
 48
50.0
100
AcDbPoint
 10
7374.673057123664
 20
8990.924129951054
 30
0.0
  0
POINT
  5
17AA6
330
14F70
100
AcDbEntity
  8
DEFPOINTS
 62
     0
 48
50.0
100
AcDbPoint
 10
7374.673057123638
 20
7310.92412995104
 30
0.0
  0
POINT
  5
17AA7
330
14F70
100
AcDbEntity
  8
DEFPOINTS
 62
     0
 48
50.0
100
AcDbPoint
 10
8022.099402858072
 20
7310.92412995104
 30
0.0
  0
ENDBLK
  5
160C1
330
14F70
100
AcDbEntity
  8
0
 48
50.0
100
AcDbBlockEnd
  0
BLOCK
  5
1601B
330
15E37
100
AcDbEntity
  8
0
 48
50.0
100
AcDbBlockBegin
  2
*D12
 70
     1
 10
0.0
 20
0.0
 30
0.0
  3
*D12
  1

  0
LINE
  5
17A94
330
15E37
100
AcDbEntity
  8
寸法
 62
     0
 48
50.0
370
    -2
100
AcDbLine
 10
7374.673057123638
 20
7235.924129951043
 30
0.0
 11
7374.673057123638
 21
6661.493359184788
 31
0.0
  0
LINE
  5
17A95
330
15E37
100
AcDbEntity
  8
寸法
 62
     0
 48
50.0
370
    -2
100
AcDbLine
 10
7319.67305712364
 20
7235.92412995104
 30
0.0
 11
7319.67305712364
 21
6661.493359184788
 31
0.0
  0
LINE
  5
17A96
330
15E37
100
AcDbEntity
  8
寸法
 62
     0
 48
50.0
370
    -2
100
AcDbLine
 10
7319.67305712364
 20
6721.493359184788
 30
0.0
 11
7219.67305712364
 21
6721.493359184788
 31
0.0
  0
LINE
  5
17A97
330
15E37
100
AcDbEntity
  8
寸法
 62
     0
 48
50.0
370
    -2
100
AcDbLine
 10
7374.673057123638
 20
6721.493359184788
 30
0.0
 11
7791.643619872115
 21
6721.493359184788
 31
0.0
  0
LINE
  5
17A98
330
15E37
100
AcDbEntity
  8
寸法
 62
     0
 48
50.0
370
    -2
100
AcDbLine
 10
7319.67305712364
 20
6721.493359184788
 30
0.0
 11
7374.673057123638
 21
6721.493359184788
 31
0.0
  0
INSERT
  5
17A99
330
15E37
100
AcDbEntity
  8
寸法
 62
     0
 48
50.0
370
    -2
100
AcDbBlockReference
  2
_DOTSMALL
 10
7319.67305712364
 20
6721.493359184788
 30
0.0
 41
100.0
 42
100.0
 43
100.0
  0
INSERT
  5
17A9A
330
15E37
100
AcDbEntity
  8
寸法
 62
     0
 48
50.0
370
    -2
100
AcDbBlockReference
  2
_DOTSMALL
 10
7374.673057123638
 20
6721.493359184788
 30
0.0
 41
100.0
 42
100.0
 43
100.0
 50
180.0
  0
MTEXT
  5
17A9B
330
15E37
100
AcDbEntity
  8
寸法
 62
     7
 48
50.0
100
AcDbMText
 10
7683.158338497877
 20
6821.493359184788
 30
0.0
 40
120.0
 41
0.0
 71
     5
 72
     1
  1
\A1;55
  7
STYLE1
 73
     1
 44
1.0
1001
ACAD
1000
MTEXTBEGIN
1070
    73
1070
     1
1070
    44
1040
1.0
1070
    74
1070
     0
1000
MTEXTEND
  0
POINT
  5
17A9C
330
15E37
100
AcDbEntity
  8
DEFPOINTS
 62
     0
 48
50.0
100
AcDbPoint
 10
7374.673057123638
 20
7255.924129951043
 30
0.0
  0
POINT
  5
17A9D
330
15E37
100
AcDbEntity
  8
DEFPOINTS
 62
     0
 48
50.0
100
AcDbPoint
 10
7319.67305712364
 20
7255.924129951039
 30
0.0
  0
POINT
  5
17A9E
330
15E37
100
AcDbEntity
  8
DEFPOINTS
 62
     0
 48
50.0
100
AcDbPoint
 10
7319.67305712364
 20
6721.493359184788
 30
0.0
  0
ENDBLK
  5
16027
330
15E37
100
AcDbEntity
  8
0
 48
50.0
100
AcDbBlockEnd
  0
BLOCK
  5
1600D
330
15E46
100
AcDbEntity
  8
0
 48
50.0
100
AcDbBlockBegin
  2
*D13
 70
     1
 10
0.0
 20
0.0
 30
0.0
  3
*D13
  1

  0
LINE
  5
17A89
330
15E46
100
AcDbEntity
  8
寸法
 62
     0
 48
50.0
370
    -2
100
AcDbLine
 10
7319.67305712364
 20
7235.92412995104
 30
0.0
 11
7319.67305712364
 21
6661.493359184787
 31
0.0
  0
LINE
  5
17A8A
330
15E46
100
AcDbEntity
  8
寸法
 62
     0
 48
50.0
370
    -2
100
AcDbLine
 10
7271.673057123638
 20
7261.924129950952
 30
0.0
 11
7271.673057123638
 21
6661.493359184787
 31
0.0
  0
LINE
  5
17A8B
330
15E46
100
AcDbEntity
  8
寸法
 62
     0
 48
50.0
370
    -2
100
AcDbLine
 10
7319.67305712364
 20
6721.493359184788
 30
0.0
 11
7419.67305712364
 21
6721.493359184788
 31
0.0
  0
LINE
  5
17A8C
330
15E46
100
AcDbEntity
  8
寸法
 62
     0
 48
50.0
370
    -2
100
AcDbLine
 10
7271.673057123638
 20
6721.493359184788
 30
0.0
 11
7171.673057123638
 21
6721.493359184788
 31
0.0
  0
MTEXT
  5
17A8D
330
15E46
100
AcDbEntity
  8
寸法
 62
     7
 48
50.0
100
AcDbMText
 10
7160.710159474891
 20
6821.493359184788
 30
0.0
 40
120.0
 41
0.0
 71
     5
 72
     1
  1
\A1;48
  7
STYLE1
 73
     1
 44
1.0
1001
ACAD
1000
MTEXTBEGIN
1070
    73
1070
     1
1070
    44
1040
1.0
1070
    74
1070
     0
1000
MTEXTEND
  0
LINE
  5
17A8E
330
15E46
100
AcDbEntity
  8
寸法
 62
     0
 48
50.0
370
    -2
100
AcDbLine
 10
7319.67305712364
 20
6721.493359184788
 30
0.0
 11
7271.673057123638
 21
6721.493359184788
 31
0.0
  0
INSERT
  5
17A8F
330
15E46
100
AcDbEntity
  8
寸法
 62
     0
 48
50.0
370
    -2
100
AcDbBlockReference
  2
_DOTSMALL
 10
7319.67305712364
 20
6721.493359184788
 30
0.0
 41
100.0
 42
100.0
 43
100.0
 50
180.0
  0
INSERT
  5
17A90
330
15E46
100
AcDbEntity
  8
寸法
 62
     0
 48
50.0
370
    -2
100
AcDbBlockReference
  2
_DOTSMALL
 10
7271.673057123638
 20
6721.493359184788
 30
0.0
 41
100.0
 42
100.0
 43
100.0
  0
POINT
  5
17A91
330
15E46
100
AcDbEntity
  8
DEFPOINTS
 62
     0
 48
50.0
100
AcDbPoint
 10
7319.67305712364
 20
7255.924129951039
 30
0.0
  0
POINT
  5
17A92
330
15E46
100
AcDbEntity
  8
DEFPOINTS
 62
     0
 48
50.0
100
AcDbPoint
 10
7271.673057123638
 20
7281.924129950953
 30
0.0
  0
POINT
  5
17A93
330
15E46
100
AcDbEntity
  8
DEFPOINTS
 62
     0
 48
50.0
100
AcDbPoint
 10
7271.673057123638
 20
6721.493359184788
 30
0.0
  0
ENDBLK
  5
1601A
330
15E46
100
AcDbEntity
  8
0
 48
50.0
100
AcDbBlockEnd
  0
BLOCK
  5
16028
330
15E54
100
AcDbEntity
  8
0
 48
50.0
100
AcDbBlockBegin
  2
*D14
 70
     1
 10
0.0
 20
0.0
 30
0.0
  3
*D14
  1

  0
LINE
  5
17A81
330
15E54
100
AcDbEntity
  8
寸法
 62
     0
 48
50.0
370
    -2
100
AcDbLine
 10
5267.673057123657
 20
7261.924129950951
 30
0.0
 11
5267.673057123657
 21
6661.493359184787
 31
0.0
  0
LINE
  5
17A82
330
15E54
100
AcDbEntity
  8
寸法
 62
     0
 48
50.0
370
    -2
100
AcDbLine
 10
7271.673057123638
 20
6721.493359184788
 30
0.0
 11
5267.673057123657
 21
6721.493359184788
 31
0.0
  0
INSERT
  5
17A83
330
15E54
100
AcDbEntity
  8
寸法
 62
     0
 48
50.0
370
    -2
100
AcDbBlockReference
  2
_DOTSMALL
 10
7271.673057123638
 20
6721.493359184788
 30
0.0
 41
100.0
 42
100.0
 43
100.0
  0
INSERT
  5
17A84
330
15E54
100
AcDbEntity
  8
寸法
 62
     0
 48
50.0
370
    -2
100
AcDbBlockReference
  2
_DOTSMALL
 10
5267.673057123657
 20
6721.493359184788
 30
0.0
 41
100.0
 42
100.0
 43
100.0
 50
180.0
  0
MTEXT
  5
17A85
330
15E54
100
AcDbEntity
  8
寸法
 62
     7
 48
50.0
100
AcDbMText
 10
6269.673057123648
 20
6921.505170208409
 30
0.0
 40
120.0
 41
0.0
 71
     5
 72
     1
  1
\A1;有効開口部間口\P2004
  7
STYLE1
 73
     1
 44
1.0
1001
ACAD
1000
MTEXTBEGIN
1070
    73
1070
     1
1070
    44
1040
1.0
1070
    74
1070
     0
1000
MTEXTEND
  0
POINT
  5
17A86
330
15E54
100
AcDbEntity
  8
DEFPOINTS
 62
     0
 48
50.0
100
AcDbPoint
 10
7271.673057123638
 20
7281.924129950953
 30
0.0
  0
POINT
  5
17A87
330
15E54
100
AcDbEntity
  8
DEFPOINTS
 62
     0
 48
50.0
100
AcDbPoint
 10
5267.673057123657
 20
7281.924129950951
 30
0.0
  0
POINT
  5
17A88
330
15E54
100
AcDbEntity
  8
DEFPOINTS
 62
     0
 48
50.0
100
AcDbPoint
 10
5267.673057123657
 20
6721.493359184788
 30
0.0
  0
ENDBLK
  5
16031
330
15E54
100
AcDbEntity
  8
0
 48
50.0
100
AcDbBlockEnd
  0
BLOCK
  5
15FE7
330
15E60
100
AcDbEntity
  8
0
 48
50.0
100
AcDbBlockBegin
  2
*D15
 70
     1
 10
0.0
 20
0.0
 30
0.0
  3
*D15
  1

  0
LINE
  5
17A76
330
15E60
100
AcDbEntity
  8
寸法
 62
     0
 48
50.0
370
    -2
100
AcDbLine
 10
5267.673057123657
 20
7261.924129950951
 30
0.0
 11
5267.673057123657
 21
6661.493359184787
 31
0.0
  0
LINE
  5
17A77
330
15E60
100
AcDbEntity
  8
寸法
 62
     0
 48
50.0
370
    -2
100
AcDbLine
 10
5219.673057123653
 20
7235.924129950952
 30
0.0
 11
5219.673057123653
 21
6661.493359184787
 31
0.0
  0
LINE
  5
17A78
330
15E60
100
AcDbEntity
  8
寸法
 62
     0
 48
50.0
370
    -2
100
AcDbLine
 10
5267.673057123657
 20
6721.493359184788
 30
0.0
 11
5367.673057123656
 21
6721.493359184788
 31
0.0
  0
LINE
  5
17A79
330
15E60
100
AcDbEntity
  8
寸法
 62
     0
 48
50.0
370
    -2
100
AcDbLine
 10
5219.673057123653
 20
6721.493359184788
 30
0.0
 11
5119.673057123653
 21
6721.493359184788
 31
0.0
  0
MTEXT
  5
17A7A
330
15E60
100
AcDbEntity
  8
寸法
 62
     7
 48
50.0
100
AcDbMText
 10
5380.575028123715
 20
6821.493359184788
 30
0.0
 40
120.0
 41
0.0
 71
     5
 72
     1
  1
\A1;48
  7
STYLE1
 73
     1
 44
1.0
1001
ACAD
1000
MTEXTBEGIN
1070
    73
1070
     1
1070
    44
1040
1.0
1070
    74
1070
     0
1000
MTEXTEND
  0
LINE
  5
17A7B
330
15E60
100
AcDbEntity
  8
寸法
 62
     0
 48
50.0
370
    -2
100
AcDbLine
 10
5267.673057123657
 20
6721.493359184788
 30
0.0
 11
5219.673057123653
 21
6721.493359184788
 31
0.0
  0
INSERT
  5
17A7C
330
15E60
100
AcDbEntity
  8
寸法
 62
     0
 48
50.0
370
    -2
100
AcDbBlockReference
  2
_DOTSMALL
 10
5267.673057123657
 20
6721.493359184788
 30
0.0
 41
100.0
 42
100.0
 43
100.0
 50
180.0
  0
INSERT
  5
17A7D
330
15E60
100
AcDbEntity
  8
寸法
 62
     0
 48
50.0
370
    -2
100
AcDbBlockReference
  2
_DOTSMALL
 10
5219.673057123653
 20
6721.493359184788
 30
0.0
 41
100.0
 42
100.0
 43
100.0
  0
POINT
  5
17A7E
330
15E60
100
AcDbEntity
  8
DEFPOINTS
 62
     0
 48
50.0
100
AcDbPoint
 10
5267.673057123657
 20
7281.924129950951
 30
0.0
  0
POINT
  5
17A7F
330
15E60
100
AcDbEntity
  8
DEFPOINTS
 62
     0
 48
50.0
100
AcDbPoint
 10
5219.673057123653
 20
7255.924129950951
 30
0.0
  0
POINT
  5
17A80
330
15E60
100
AcDbEntity
  8
DEFPOINTS
 62
     0
 48
50.0
100
AcDbPoint
 10
5219.673057123653
 20
6721.493359184788
 30
0.0
  0
ENDBLK
  5
15FF4
330
15E60
100
AcDbEntity
  8
0
 48
50.0
100
AcDbBlockEnd
  0
BLOCK
  5
15FF5
330
15E6E
100
AcDbEntity
  8
0
 48
50.0
100
AcDbBlockBegin
  2
*D16
 70
     1
 10
0.0
 20
0.0
 30
0.0
  3
*D16
  1

  0
LINE
  5
17A6B
330
15E6E
100
AcDbEntity
  8
寸法
 62
     0
 48
50.0
370
    -2
100
AcDbLine
 10
5219.673057123653
 20
7235.924129950952
 30
0.0
 11
5219.673057123653
 21
6661.493359184787
 31
0.0
  0
LINE
  5
17A6C
330
15E6E
100
AcDbEntity
  8
寸法
 62
     0
 48
50.0
370
    -2
100
AcDbLine
 10
5164.673057123657
 20
7235.924129950949
 30
0.0
 11
5164.673057123657
 21
6661.493359184787
 31
0.0
  0
LINE
  5
17A6D
330
15E6E
100
AcDbEntity
  8
寸法
 62
     0
 48
50.0
370
    -2
100
AcDbLine
 10
5219.673057123653
 20
6721.493359184788
 30
0.0
 11
5319.673057123653
 21
6721.493359184788
 31
0.0
  0
LINE
  5
17A6E
330
15E6E
100
AcDbEntity
  8
寸法
 62
     0
 48
50.0
370
    -2
100
AcDbLine
 10
5164.673057123657
 20
6721.493359184788
 30
0.0
 11
4747.702494375179
 21
6721.493359184788
 31
0.0
  0
LINE
  5
17A6F
330
15E6E
100
AcDbEntity
  8
寸法
 62
     0
 48
50.0
370
    -2
100
AcDbLine
 10
5219.673057123653
 20
6721.493359184788
 30
0.0
 11
5164.673057123657
 21
6721.493359184788
 31
0.0
  0
INSERT
  5
17A70
330
15E6E
100
AcDbEntity
  8
寸法
 62
     0
 48
50.0
370
    -2
100
AcDbBlockReference
  2
_DOTSMALL
 10
5219.673057123653
 20
6721.493359184788
 30
0.0
 41
100.0
 42
100.0
 43
100.0
 50
180.0
  0
INSERT
  5
17A71
330
15E6E
100
AcDbEntity
  8
寸法
 62
     0
 48
50.0
370
    -2
100
AcDbBlockReference
  2
_DOTSMALL
 10
5164.673057123657
 20
6721.493359184788
 30
0.0
 41
100.0
 42
100.0
 43
100.0
  0
MTEXT
  5
17A72
330
15E6E
100
AcDbEntity
  8
寸法
 62
     7
 48
50.0
100
AcDbMText
 10
4856.187775749418
 20
6821.493359184788
 30
0.0
 40
120.0
 41
0.0
 71
     5
 72
     1
  1
\A1;55
  7
STYLE1
 73
     1
 44
1.0
1001
ACAD
1000
MTEXTBEGIN
1070
    73
1070
     1
1070
    44
1040
1.0
1070
    74
1070
     0
1000
MTEXTEND
  0
POINT
  5
17A73
330
15E6E
100
AcDbEntity
  8
DEFPOINTS
 62
     0
 48
50.0
100
AcDbPoint
 10
5219.673057123653
 20
7255.924129950951
 30
0.0
  0
POINT
  5
17A74
330
15E6E
100
AcDbEntity
  8
DEFPOINTS
 62
     0
 48
50.0
100
AcDbPoint
 10
5164.673057123657
 20
7255.924129950948
 30
0.0
  0
POINT
  5
17A75
330
15E6E
100
AcDbEntity
  8
DEFPOINTS
 62
     0
 48
50.0
100
AcDbPoint
 10
5164.673057123657
 20
6721.493359184788
 30
0.0
  0
ENDBLK
  5
16001
330
15E6E
100
AcDbEntity
  8
0
 48
50.0
100
AcDbBlockEnd
  0
BLOCK
  5
167A5
330
167A2
100
AcDbEntity
  8
0
 48
50.0
100
AcDbBlockBegin
  2
A$C0F9D2380
 70
     0
 10
0.0
 20
0.0
 30
0.0
  3
A$C0F9D2380
  1

  0
LINE
  5
167A3
330
167A2
100
AcDbEntity
  8
部品1
100
AcDbLine
 10
-0.0000145755693666
 20
99.99999935958113
 30
0.0
 11
-0.0000145755711856
 21
-0.0000006404188753
 31
0.0
  0
LINE
  5
167A4
330
167A2
100
AcDbEntity
  8
部品1
100
AcDbLine
 10
199.9999854244288
 20
99.99999935958113
 30
0.0
 11
199.9999854244288
 21
-0.0000006404188753
 31
0.0
  0
ENDBLK
  5
167A6
330
167A2
100
AcDbEntity
  8
0
 48
50.0
100
AcDbBlockEnd
  0
BLOCK
  5
176A1
330
17696
100
AcDbEntity
  8
0
 48
50.0
100
AcDbBlockBegin
  2
*D18
 70
     1
 10
0.0
 20
0.0
 30
0.0
  3
*D18
  1

  0
LINE
  5
17A61
330
17696
100
AcDbEntity
  8
寸法
 62
     0
 48
50.0
370
    -2
100
AcDbLine
 10
9249.874725222239
 20
4912.229305782923
 30
0.0
 11
8633.940286116974
 21
4929.943456057244
 31
0.0
  0
LINE
  5
17A62
330
17696
100
AcDbEntity
  8
寸法
 62
     0
 48
50.0
370
    -2
100
AcDbLine
 10
9245.821269665617
 20
4771.28758201721
 30
0.0
 11
8629.88683056035
 21
4789.001732291531
 31
0.0
  0
LINE
  5
17A63
330
17696
100
AcDbEntity
  8
寸法
 62
     0
 48
50.0
370
    -2
100
AcDbLine
 10
8689.86203216278
 20
4787.276857586584
 30
0.0
 11
8693.915487719406
 21
4928.218581352297
 31
0.0
  0
LINE
  5
17A64
330
17696
100
AcDbEntity
  8
寸法
 62
     0
 48
50.0
370
    -2
100
AcDbLine
 10
8693.915487719406
 20
4928.218581352297
 30
0.0
 11
8704.264735949085
 21
5288.069790966885
 31
0.0
  0
INSERT
  5
17A65
330
17696
100
AcDbEntity
  8
寸法
 62
     0
 48
50.0
370
    -2
100
AcDbBlockReference
  2
_DOTSMALL
 10
8689.86203216278
 20
4787.276857586584
 30
0.0
 41
100.0
 42
100.0
 43
100.0
 50
268.3526390256385
  0
INSERT
  5
17A66
330
17696
100
AcDbEntity
  8
寸法
 62
     0
 48
50.0
370
    -2
100
AcDbBlockReference
  2
_DOTSMALL
 10
8693.915487719406
 20
4928.218581352297
 30
0.0
 41
100.0
 42
100.0
 43
100.0
 50
88.35263902563855
  0
MTEXT
  5
17A67
330
17696
100
AcDbEntity
  8
寸法
 62
     7
 48
50.0
100
AcDbMText
 10
8600.568838084317
 20
5160.998312003195
 30
0.0
 40
120.0
 41
0.0
 71
     5
 72
     1
  1
\A1;141
  7
STYLE1
 11
0.0287479117491103
 21
0.999586693373849
 31
0.0
 73
     1
 44
1.0
1001
ACAD
1000
MTEXTBEGIN
1070
    73
1070
     1
1070
    44
1040
1.0
1070
    74
1070
     0
1000
MTEXTEND
  0
POINT
  5
17A68
330
17696
100
AcDbEntity
  8
DEFPOINTS
 62
     0
 48
50.0
100
AcDbPoint
 10
9269.866459089717
 20
4911.654347547941
 30
0.0
  0
POINT
  5
17A69
330
17696
100
AcDbEntity
  8
DEFPOINTS
 62
     0
 48
50.0
100
AcDbPoint
 10
9265.813003533093
 20
4770.712623782228
 30
0.0
  0
POINT
  5
17A6A
330
17696
100
AcDbEntity
  8
DEFPOINTS
 62
     0
 48
50.0
100
AcDbPoint
 10
8689.86203216278
 20
4787.276857586584
 30
0.0
  0
ENDBLK
  5
176A2
330
17696
100
AcDbEntity
  8
0
 48
50.0
100
AcDbBlockEnd
  0
BLOCK
  5
176AF
330
176A3
100
AcDbEntity
  8
0
 48
50.0
100
AcDbBlockBegin
  2
*D19
 70
     1
 10
0.0
 20
0.0
 30
0.0
  3
*D19
  1

  0
LINE
  5
17A56
330
176A3
100
AcDbEntity
  8
寸法
 62
     0
 48
50.0
370
    -2
100
AcDbLine
 10
9310.47043893114
 20
4928.933216836238
 30
0.0
 11
9310.47043893114
 21
5372.024768052734
 31
0.0
  0
LINE
  5
17A57
330
176A3
100
AcDbEntity
  8
寸法
 62
     0
 48
50.0
370
    -2
100
AcDbLine
 10
9250.470438931142
 20
4932.931598713266
 30
0.0
 11
9250.470438931142
 21
5372.024768052734
 31
0.0
  0
LINE
  5
17A58
330
176A3
100
AcDbEntity
  8
寸法
 62
     0
 48
50.0
370
    -2
100
AcDbLine
 10
9310.47043893114
 20
5312.024768052735
 30
0.0
 11
9410.47043893114
 21
5312.024768052735
 31
0.0
  0
LINE
  5
17A59
330
176A3
100
AcDbEntity
  8
寸法
 62
     0
 48
50.0
370
    -2
100
AcDbLine
 10
9250.470438931142
 20
5312.024768052735
 30
0.0
 11
8831.194848379961
 21
5312.024768052735
 31
0.0
  0
LINE
  5
17A5A
330
176A3
100
AcDbEntity
  8
寸法
 62
     0
 48
50.0
370
    -2
100
AcDbLine
 10
9310.47043893114
 20
5312.024768052735
 30
0.0
 11
9250.470438931142
 21
5312.024768052735
 31
0.0
  0
INSERT
  5
17A5B
330
176A3
100
AcDbEntity
  8
寸法
 62
     0
 48
50.0
370
    -2
100
AcDbBlockReference
  2
_DOTSMALL
 10
9310.47043893114
 20
5312.024768052735
 30
0.0
 41
100.0
 42
100.0
 43
100.0
 50
180.0
  0
INSERT
  5
17A5C
330
176A3
100
AcDbEntity
  8
寸法
 62
     0
 48
50.0
370
    -2
100
AcDbBlockReference
  2
_DOTSMALL
 10
9250.470438931142
 20
5312.024768052735
 30
0.0
 41
100.0
 42
100.0
 43
100.0
  0
MTEXT
  5
17A5D
330
176A3
100
AcDbEntity
  8
寸法
 62
     7
 48
50.0
100
AcDbMText
 10
8940.832643655552
 20
5412.024768052734
 30
0.0
 40
120.0
 41
0.0
 71
     5
 72
     1
  1
\A1;60
  7
STYLE1
 73
     1
 44
1.0
1001
ACAD
1000
MTEXTBEGIN
1070
    73
1070
     1
1070
    44
1040
1.0
1070
    74
1070
     0
1000
MTEXTEND
  0
POINT
  5
17A5E
330
176A3
100
AcDbEntity
  8
DEFPOINTS
 62
     0
 48
50.0
100
AcDbPoint
 10
9310.47043893114
 20
4908.933216836238
 30
0.0
  0
POINT
  5
17A5F
330
176A3
100
AcDbEntity
  8
DEFPOINTS
 62
     0
 48
50.0
100
AcDbPoint
 10
9250.470438931142
 20
4912.931598713266
 30
0.0
  0
POINT
  5
17A60
330
176A3
100
AcDbEntity
  8
DEFPOINTS
 62
     0
 48
50.0
100
AcDbPoint
 10
9250.470438931142
 20
5312.024768052735
 30
0.0
  0
ENDBLK
  5
176B0
330
176A3
100
AcDbEntity
  8
0
 48
50.0
100
AcDbBlockEnd
  0
BLOCK
  5
176BB
330
176B1
100
AcDbEntity
  8
0
 48
50.0
100
AcDbBlockBegin
  2
*D20
 70
     1
 10
0.0
 20
0.0
 30
0.0
  3
*D20
  1

  0
LINE
  5
1912B
330
176B1
100
AcDbEntity
  8
寸法
 62
     0
 48
50.0
370
    -2
100
AcDbLine
 10
11100.47043893114
 20
4879.742278324915
 30
0.0
 11
11100.47043893114
 21
5372.024768052734
 31
0.0
  0
LINE
  5
1912C
330
176B1
100
AcDbEntity
  8
寸法
 62
     0
 48
50.0
370
    -2
100
AcDbLine
 10
9310.47043893114
 20
4928.933216836238
 30
0.0
 11
9310.47043893114
 21
5372.024768052734
 31
0.0
  0
LINE
  5
1912D
330
176B1
100
AcDbEntity
  8
寸法
 62
     0
 48
50.0
370
    -2
100
AcDbLine
 10
11100.47043893114
 20
5312.024768052735
 30
0.0
 11
9310.47043893114
 21
5312.024768052735
 31
0.0
  0
INSERT
  5
1912E
330
176B1
100
AcDbEntity
  8
寸法
 62
     0
 48
50.0
370
    -2
100
AcDbBlockReference
  2
_DOTSMALL
 10
11100.47043893114
 20
5312.024768052735
 30
0.0
 41
100.0
 42
100.0
 43
100.0
  0
INSERT
  5
1912F
330
176B1
100
AcDbEntity
  8
寸法
 62
     0
 48
50.0
370
    -2
100
AcDbBlockReference
  2
_DOTSMALL
 10
9310.47043893114
 20
5312.024768052735
 30
0.0
 41
100.0
 42
100.0
 43
100.0
 50
180.0
  0
MTEXT
  5
19130
330
176B1
100
AcDbEntity
  8
寸法
 62
     7
 48
50.0
100
AcDbMText
 10
10205.47043893114
 20
5412.024768052734
 30
0.0
 40
120.0
 41
0.0
 71
     5
 72
     1
  1
\A1;柱外寸法1790
  7
STYLE1
 73
     1
 44
1.0
1001
ACAD
1000
MTEXTBEGIN
1070
    73
1070
     1
1070
    44
1040
1.0
1070
    74
1070
     0
1000
MTEXTEND
  0
POINT
  5
19131
330
176B1
100
AcDbEntity
  8
DEFPOINTS
 62
     0
 48
50.0
100
AcDbPoint
 10
11100.47043893114
 20
4859.742278324915
 30
0.0
  0
POINT
  5
19132
330
176B1
100
AcDbEntity
  8
DEFPOINTS
 62
     0
 48
50.0
100
AcDbPoint
 10
9310.47043893114
 20
4908.933216836238
 30
0.0
  0
POINT
  5
19133
330
176B1
100
AcDbEntity
  8
DEFPOINTS
 62
     0
 48
50.0
100
AcDbPoint
 10
9310.47043893114
 20
5312.024768052735
 30
0.0
  0
ENDBLK
  5
176BC
330
176B1
100
AcDbEntity
  8
0
 48
50.0
100
AcDbBlockEnd
  0
BLOCK
  5
176C7
330
176BD
100
AcDbEntity
  8
0
 48
50.0
100
AcDbBlockBegin
  2
*D21
 70
     1
 10
0.0
 20
0.0
 30
0.0
  3
*D21
  1

  0
LINE
  5
19122
330
176BD
100
AcDbEntity
  8
寸法
 62
     0
 48
50.0
370
    -2
100
AcDbLine
 10
11180.47043893114
 20
4877.931598713263
 30
0.0
 11
11180.47043893114
 21
5588.55086767118
 31
0.0
  0
LINE
  5
19123
330
176BD
100
AcDbEntity
  8
寸法
 62
     0
 48
50.0
370
    -2
100
AcDbLine
 10
9250.470438931142
 20
4932.931598713266
 30
0.0
 11
9250.470438931142
 21
5588.55086767118
 31
0.0
  0
LINE
  5
19124
330
176BD
100
AcDbEntity
  8
寸法
 62
     0
 48
50.0
370
    -2
100
AcDbLine
 10
11180.47043893114
 20
5528.55086767118
 30
0.0
 11
9250.470438931142
 21
5528.55086767118
 31
0.0
  0
INSERT
  5
19125
330
176BD
100
AcDbEntity
  8
寸法
 62
     0
 48
50.0
370
    -2
100
AcDbBlockReference
  2
_DOTSMALL
 10
11180.47043893114
 20
5528.55086767118
 30
0.0
 41
100.0
 42
100.0
 43
100.0
  0
INSERT
  5
19126
330
176BD
100
AcDbEntity
  8
寸法
 62
     0
 48
50.0
370
    -2
100
AcDbBlockReference
  2
_DOTSMALL
 10
9250.470438931142
 20
5528.55086767118
 30
0.0
 41
100.0
 42
100.0
 43
100.0
 50
180.0
  0
MTEXT
  5
19127
330
176BD
100
AcDbEntity
  8
寸法
 62
     7
 48
50.0
100
AcDbMText
 10
10215.47043893114
 20
5628.550867671179
 30
0.0
 40
120.0
 41
0.0
 71
     5
 72
     1
  1
\A1;1930
  7
STYLE1
 73
     1
 44
1.0
1001
ACAD
1000
MTEXTBEGIN
1070
    73
1070
     1
1070
    44
1040
1.0
1070
    74
1070
     0
1000
MTEXTEND
  0
POINT
  5
19128
330
176BD
100
AcDbEntity
  8
DEFPOINTS
 62
     0
 48
50.0
100
AcDbPoint
 10
11180.47043893114
 20
4857.931598713262
 30
0.0
  0
POINT
  5
19129
330
176BD
100
AcDbEntity
  8
DEFPOINTS
 62
     0
 48
50.0
100
AcDbPoint
 10
9250.470438931142
 20
4912.931598713266
 30
0.0
  0
POINT
  5
1912A
330
176BD
100
AcDbEntity
  8
DEFPOINTS
 62
     0
 48
50.0
100
AcDbPoint
 10
9250.470438931142
 20
5528.55086767118
 30
0.0
  0
ENDBLK
  5
176C8
330
176BD
100
AcDbEntity
  8
0
 48
50.0
100
AcDbBlockEnd
  0
BLOCK
  5
176D4
330
176C9
100
AcDbEntity
  8
0
 48
50.0
100
AcDbBlockBegin
  2
*D22
 70
     1
 10
0.0
 20
0.0
 30
0.0
  3
*D22
  1

  0
LINE
  5
17A3A
330
176C9
100
AcDbEntity
  8
寸法
 62
     0
 48
50.0
370
    -2
100
AcDbLine
 10
11100.47043893114
 20
4879.742278324915
 30
0.0
 11
11100.47043893114
 21
5372.024768052734
 31
0.0
  0
LINE
  5
17A3B
330
176C9
100
AcDbEntity
  8
寸法
 62
     0
 48
50.0
370
    -2
100
AcDbLine
 10
11180.47043893114
 20
4877.931598713263
 30
0.0
 11
11180.47043893114
 21
5372.024768052734
 31
0.0
  0
LINE
  5
17A3C
330
176C9
100
AcDbEntity
  8
寸法
 62
     0
 48
50.0
370
    -2
100
AcDbLine
 10
11100.47043893114
 20
5312.024768052735
 30
0.0
 11
11180.47043893114
 21
5312.024768052735
 31
0.0
  0
LINE
  5
17A3D
330
176C9
100
AcDbEntity
  8
寸法
 62
     0
 48
50.0
370
    -2
100
AcDbLine
 10
11180.47043893114
 20
5312.024768052735
 30
0.0
 11
11492.56492712012
 21
5312.024768052735
 31
0.0
  0
INSERT
  5
17A3E
330
176C9
100
AcDbEntity
  8
寸法
 62
     0
 48
50.0
370
    -2
100
AcDbBlockReference
  2
_DOTSMALL
 10
11100.47043893114
 20
5312.024768052735
 30
0.0
 41
100.0
 42
100.0
 43
100.0
 50
180.0
  0
INSERT
  5
17A3F
330
176C9
100
AcDbEntity
  8
寸法
 62
     0
 48
50.0
370
    -2
100
AcDbBlockReference
  2
_DOTSMALL
 10
11180.47043893114
 20
5312.024768052735
 30
0.0
 41
100.0
 42
100.0
 43
100.0
  0
MTEXT
  5
17A40
330
176C9
100
AcDbEntity
  8
寸法
 62
     7
 48
50.0
100
AcDbMText
 10
11386.51768302563
 20
5412.024768052734
 30
0.0
 40
120.0
 41
0.0
 71
     5
 72
     1
  1
\A1;80
  7
STYLE1
 73
     1
 44
1.0
1001
ACAD
1000
MTEXTBEGIN
1070
    73
1070
     1
1070
    44
1040
1.0
1070
    74
1070
     0
1000
MTEXTEND
  0
POINT
  5
17A41
330
176C9
100
AcDbEntity
  8
DEFPOINTS
 62
     0
 48
50.0
100
AcDbPoint
 10
11100.47043893114
 20
4859.742278324915
 30
0.0
  0
POINT
  5
17A42
330
176C9
100
AcDbEntity
  8
DEFPOINTS
 62
     0
 48
50.0
100
AcDbPoint
 10
11180.47043893114
 20
4857.931598713262
 30
0.0
  0
POINT
  5
17A43
330
176C9
100
AcDbEntity
  8
DEFPOINTS
 62
     0
 48
50.0
100
AcDbPoint
 10
11180.47043893114
 20
5312.024768052735
 30
0.0
  0
ENDBLK
  5
176D5
330
176C9
100
AcDbEntity
  8
0
 48
50.0
100
AcDbBlockEnd
  0
BLOCK
  5
176E0
330
176D6
100
AcDbEntity
  8
0
 48
50.0
100
AcDbBlockBegin
  2
*D23
 70
     1
 10
0.0
 20
0.0
 30
0.0
  3
*D23
  1

  0
LINE
  5
1915B
330
176D6
100
AcDbEntity
  8
寸法
 62
     0
 48
50.0
370
    -2
100
AcDbLine
 10
5114.673057123647
 20
4932.931598713267
 30
0.0
 11
5114.673057123647
 21
5393.301987862156
 31
0.0
  0
LINE
  5
1915C
330
176D6
100
AcDbEntity
  8
寸法
 62
     0
 48
50.0
370
    -2
100
AcDbLine
 10
7424.673057123666
 20
4932.931598713263
 30
0.0
 11
7424.673057123666
 21
5393.301987862156
 31
0.0
  0
LINE
  5
1915D
330
176D6
100
AcDbEntity
  8
寸法
 62
     0
 48
50.0
370
    -2
100
AcDbLine
 10
5114.673057123647
 20
5333.301987862157
 30
0.0
 11
7424.673057123666
 21
5333.301987862157
 31
0.0
  0
INSERT
  5
1915E
330
176D6
100
AcDbEntity
  8
寸法
 62
     0
 48
50.0
370
    -2
100
AcDbBlockReference
  2
_DOTSMALL
 10
5114.673057123647
 20
5333.301987862157
 30
0.0
 41
100.0
 42
100.0
 43
100.0
 50
180.0
  0
INSERT
  5
1915F
330
176D6
100
AcDbEntity
  8
寸法
 62
     0
 48
50.0
370
    -2
100
AcDbBlockReference
  2
_DOTSMALL
 10
7424.673057123666
 20
5333.301987862157
 30
0.0
 41
100.0
 42
100.0
 43
100.0
  0
MTEXT
  5
19160
330
176D6
100
AcDbEntity
  8
寸法
 62
     7
 48
50.0
100
AcDbMText
 10
6269.673057123657
 20
5433.313798885778
 30
0.0
 40
120.0
 41
0.0
 71
     5
 72
     1
  1
\A1;2310
  7
STYLE1
 73
     1
 44
1.0
1001
ACAD
1000
MTEXTBEGIN
1070
    73
1070
     1
1070
    44
1040
1.0
1070
    74
1070
     0
1000
MTEXTEND
  0
POINT
  5
19161
330
176D6
100
AcDbEntity
  8
DEFPOINTS
 62
     0
 48
50.0
100
AcDbPoint
 10
5114.673057123647
 20
4912.931598713267
 30
0.0
  0
POINT
  5
19162
330
176D6
100
AcDbEntity
  8
DEFPOINTS
 62
     0
 48
50.0
100
AcDbPoint
 10
7424.673057123666
 20
4912.931598713264
 30
0.0
  0
POINT
  5
19163
330
176D6
100
AcDbEntity
  8
DEFPOINTS
 62
     0
 48
50.0
100
AcDbPoint
 10
7424.673057123666
 20
5333.301987862157
 30
0.0
  0
ENDBLK
  5
176E1
330
176D6
100
AcDbEntity
  8
0
 48
50.0
100
AcDbBlockEnd
  0
BLOCK
  5
176EE
330
176E2
100
AcDbEntity
  8
0
 48
50.0
100
AcDbBlockBegin
  2
*D24
 70
     1
 10
0.0
 20
0.0
 30
0.0
  3
*D24
  1

  0
LINE
  5
17A26
330
176E2
100
AcDbEntity
  8
寸法
 62
     0
 48
50.0
370
    -2
100
AcDbLine
 10
7424.673057123666
 20
4932.931598713263
 30
0.0
 11
7424.673057123666
 21
5177.073829981253
 31
0.0
  0
LINE
  5
17A27
330
176E2
100
AcDbEntity
  8
寸法
 62
     0
 48
50.0
370
    -2
100
AcDbLine
 10
7374.673057123665
 20
4932.931598713267
 30
0.0
 11
7374.673057123665
 21
5177.073829981253
 31
0.0
  0
LINE
  5
17A28
330
176E2
100
AcDbEntity
  8
寸法
 62
     0
 48
50.0
370
    -2
100
AcDbLine
 10
7374.673057123665
 20
5117.073829981253
 30
0.0
 11
7274.673057123665
 21
5117.073829981253
 31
0.0
  0
LINE
  5
17A29
330
176E2
100
AcDbEntity
  8
寸法
 62
     0
 48
50.0
370
    -2
100
AcDbLine
 10
7424.673057123666
 20
5117.073829981253
 30
0.0
 11
7844.20558259239
 21
5117.073829981253
 31
0.0
  0
LINE
  5
17A2A
330
176E2
100
AcDbEntity
  8
寸法
 62
     0
 48
50.0
370
    -2
100
AcDbLine
 10
7374.673057123665
 20
5117.073829981253
 30
0.0
 11
7424.673057123666
 21
5117.073829981253
 31
0.0
  0
INSERT
  5
17A2B
330
176E2
100
AcDbEntity
  8
寸法
 62
     0
 48
50.0
370
    -2
100
AcDbBlockReference
  2
_DOTSMALL
 10
7374.673057123665
 20
5117.073829981253
 30
0.0
 41
100.0
 42
100.0
 43
100.0
  0
INSERT
  5
17A2C
330
176E2
100
AcDbEntity
  8
寸法
 62
     0
 48
50.0
370
    -2
100
AcDbBlockReference
  2
_DOTSMALL
 10
7424.673057123666
 20
5117.073829981253
 30
0.0
 41
100.0
 42
100.0
 43
100.0
 50
180.0
  0
MTEXT
  5
17A2D
330
176E2
100
AcDbEntity
  8
寸法
 62
     7
 48
50.0
100
AcDbMText
 10
7738.158338497902
 20
5217.073829981252
 30
0.0
 40
120.0
 41
0.0
 71
     5
 72
     1
  1
\A1;50
  7
STYLE1
 73
     1
 44
1.0
1001
ACAD
1000
MTEXTBEGIN
1070
    73
1070
     1
1070
    44
1040
1.0
1070
    74
1070
     0
1000
MTEXTEND
  0
POINT
  5
17A2E
330
176E2
100
AcDbEntity
  8
DEFPOINTS
 62
     0
 48
50.0
100
AcDbPoint
 10
7424.673057123666
 20
4912.931598713264
 30
0.0
  0
POINT
  5
17A2F
330
176E2
100
AcDbEntity
  8
DEFPOINTS
 62
     0
 48
50.0
100
AcDbPoint
 10
7374.673057123665
 20
4912.931598713267
 30
0.0
  0
POINT
  5
17A30
330
176E2
100
AcDbEntity
  8
DEFPOINTS
 62
     0
 48
50.0
100
AcDbPoint
 10
7374.673057123665
 20
5117.073829981253
 30
0.0
  0
ENDBLK
  5
176EF
330
176E2
100
AcDbEntity
  8
0
 48
50.0
100
AcDbBlockEnd
  0
BLOCK
  5
176FC
330
176F0
100
AcDbEntity
  8
0
 48
50.0
100
AcDbBlockBegin
  2
*D25
 70
     1
 10
0.0
 20
0.0
 30
0.0
  3
*D25
  1

  0
LINE
  5
17A1B
330
176F0
100
AcDbEntity
  8
寸法
 62
     0
 48
50.0
370
    -2
100
AcDbLine
 10
5164.673057123647
 20
4932.931598713267
 30
0.0
 11
5164.673057123647
 21
5177.073829981253
 31
0.0
  0
LINE
  5
17A1C
330
176F0
100
AcDbEntity
  8
寸法
 62
     0
 48
50.0
370
    -2
100
AcDbLine
 10
5114.673057123647
 20
4932.931598713267
 30
0.0
 11
5114.673057123647
 21
5177.073829981253
 31
0.0
  0
LINE
  5
17A1D
330
176F0
100
AcDbEntity
  8
寸法
 62
     0
 48
50.0
370
    -2
100
AcDbLine
 10
5164.673057123647
 20
5117.073829981253
 30
0.0
 11
5264.673057123648
 21
5117.073829981253
 31
0.0
  0
LINE
  5
17A1E
330
176F0
100
AcDbEntity
  8
寸法
 62
     0
 48
50.0
370
    -2
100
AcDbLine
 10
5114.673057123647
 20
5117.073829981253
 30
0.0
 11
4695.140531654913
 21
5117.073829981253
 31
0.0
  0
LINE
  5
17A1F
330
176F0
100
AcDbEntity
  8
寸法
 62
     0
 48
50.0
370
    -2
100
AcDbLine
 10
5164.673057123647
 20
5117.073829981253
 30
0.0
 11
5114.673057123647
 21
5117.073829981253
 31
0.0
  0
INSERT
  5
17A20
330
176F0
100
AcDbEntity
  8
寸法
 62
     0
 48
50.0
370
    -2
100
AcDbBlockReference
  2
_DOTSMALL
 10
5164.673057123647
 20
5117.073829981253
 30
0.0
 41
100.0
 42
100.0
 43
100.0
 50
180.0
  0
INSERT
  5
17A21
330
176F0
100
AcDbEntity
  8
寸法
 62
     0
 48
50.0
370
    -2
100
AcDbBlockReference
  2
_DOTSMALL
 10
5114.673057123647
 20
5117.073829981253
 30
0.0
 41
100.0
 42
100.0
 43
100.0
  0
MTEXT
  5
17A22
330
176F0
100
AcDbEntity
  8
寸法
 62
     7
 48
50.0
100
AcDbMText
 10
4801.187775749401
 20
5217.073829981252
 30
0.0
 40
120.0
 41
0.0
 71
     5
 72
     1
  1
\A1;50
  7
STYLE1
 73
     1
 44
1.0
1001
ACAD
1000
MTEXTBEGIN
1070
    73
1070
     1
1070
    44
1040
1.0
1070
    74
1070
     0
1000
MTEXTEND
  0
POINT
  5
17A23
330
176F0
100
AcDbEntity
  8
DEFPOINTS
 62
     0
 48
50.0
100
AcDbPoint
 10
5164.673057123647
 20
4912.931598713267
 30
0.0
  0
POINT
  5
17A24
330
176F0
100
AcDbEntity
  8
DEFPOINTS
 62
     0
 48
50.0
100
AcDbPoint
 10
5114.673057123647
 20
4912.931598713267
 30
0.0
  0
POINT
  5
17A25
330
176F0
100
AcDbEntity
  8
DEFPOINTS
 62
     0
 48
50.0
100
AcDbPoint
 10
5114.673057123647
 20
5117.073829981253
 30
0.0
  0
ENDBLK
  5
176FD
330
176F0
100
AcDbEntity
  8
0
 48
50.0
100
AcDbBlockEnd
  0
BLOCK
  5
17708
330
176FE
100
AcDbEntity
  8
0
 48
50.0
100
AcDbBlockBegin
  2
*D26
 70
     1
 10
0.0
 20
0.0
 30
0.0
  3
*D26
  1

  0
LINE
  5
19152
330
176FE
100
AcDbEntity
  8
寸法
 62
     0
 48
50.0
370
    -2
100
AcDbLine
 10
7374.673057123665
 20
4932.931598713267
 30
0.0
 11
7374.673057123665
 21
5177.073829981253
 31
0.0
  0
LINE
  5
19153
330
176FE
100
AcDbEntity
  8
寸法
 62
     0
 48
50.0
370
    -2
100
AcDbLine
 10
5164.673057123647
 20
4932.931598713267
 30
0.0
 11
5164.673057123647
 21
5177.073829981253
 31
0.0
  0
LINE
  5
19154
330
176FE
100
AcDbEntity
  8
寸法
 62
     0
 48
50.0
370
    -2
100
AcDbLine
 10
7374.673057123665
 20
5117.073829981253
 30
0.0
 11
5164.673057123647
 21
5117.073829981253
 31
0.0
  0
INSERT
  5
19155
330
176FE
100
AcDbEntity
  8
寸法
 62
     0
 48
50.0
370
    -2
100
AcDbBlockReference
  2
_DOTSMALL
 10
7374.673057123665
 20
5117.073829981253
 30
0.0
 41
100.0
 42
100.0
 43
100.0
  0
INSERT
  5
19156
330
176FE
100
AcDbEntity
  8
寸法
 62
     0
 48
50.0
370
    -2
100
AcDbBlockReference
  2
_DOTSMALL
 10
5164.673057123647
 20
5117.073829981253
 30
0.0
 41
100.0
 42
100.0
 43
100.0
 50
180.0
  0
MTEXT
  5
19157
330
176FE
100
AcDbEntity
  8
寸法
 62
     7
 48
50.0
100
AcDbMText
 10
6269.673057123657
 20
5217.085641004874
 30
0.0
 40
120.0
 41
0.0
 71
     5
 72
     1
  1
\A1;柱外寸法2210
  7
STYLE1
 73
     1
 44
1.0
1001
ACAD
1000
MTEXTBEGIN
1070
    73
1070
     1
1070
    44
1040
1.0
1070
    74
1070
     0
1000
MTEXTEND
  0
POINT
  5
19158
330
176FE
100
AcDbEntity
  8
DEFPOINTS
 62
     0
 48
50.0
100
AcDbPoint
 10
7374.673057123665
 20
4912.931598713267
 30
0.0
  0
POINT
  5
19159
330
176FE
100
AcDbEntity
  8
DEFPOINTS
 62
     0
 48
50.0
100
AcDbPoint
 10
5164.673057123647
 20
4912.931598713267
 30
0.0
  0
POINT
  5
1915A
330
176FE
100
AcDbEntity
  8
DEFPOINTS
 62
     0
 48
50.0
100
AcDbPoint
 10
5164.673057123647
 20
5117.073829981253
 30
0.0
  0
ENDBLK
  5
17709
330
176FE
100
AcDbEntity
  8
0
 48
50.0
100
AcDbBlockEnd
  0
BLOCK
  5
17818
330
1780E
100
AcDbEntity
  8
0
 48
50.0
100
AcDbBlockBegin
  2
*D27
 70
     1
 10
0.0
 20
0.0
 30
0.0
  3
*D27
  1

  0
LINE
  5
179C5
330
1780E
100
AcDbEntity
  8
寸法
 62
     0
 48
50.0
370
    -2
100
AcDbLine
 10
11120.47043893114
 20
2537.931598713262
 30
0.0
 11
11865.39759690326
 21
2537.931598713261
 31
0.0
  0
LINE
  5
179C6
330
1780E
100
AcDbEntity
  8
寸法
 62
     0
 48
50.0
370
    -2
100
AcDbLine
 10
11215.47043893114
 20
4857.931598713261
 30
0.0
 11
11865.39759690326
 21
4857.931598713261
 31
0.0
  0
LINE
  5
179C7
330
1780E
100
AcDbEntity
  8
寸法
 62
     0
 48
50.0
370
    -2
100
AcDbLine
 10
11805.39759690326
 20
2537.931598713261
 30
0.0
 11
11805.39759690326
 21
4857.931598713261
 31
0.0
  0
INSERT
  5
179C8
330
1780E
100
AcDbEntity
  8
寸法
 62
     0
 48
50.0
370
    -2
100
AcDbBlockReference
  2
_DOTSMALL
 10
11805.39759690326
 20
2537.931598713261
 30
0.0
 41
100.0
 42
100.0
 43
100.0
 50
270.0
  0
INSERT
  5
179C9
330
1780E
100
AcDbEntity
  8
寸法
 62
     0
 48
50.0
370
    -2
100
AcDbBlockReference
  2
_DOTSMALL
 10
11805.39759690326
 20
4857.931598713261
 30
0.0
 41
100.0
 42
100.0
 43
100.0
 50
90.0
  0
MTEXT
  5
179CA
330
1780E
100
AcDbEntity
  8
寸法
 62
     7
 48
50.0
100
AcDbMText
 10
11705.38578587964
 20
3692.931598713261
 30
0.0
 40
120.0
 41
0.0
 71
     5
 72
     1
  1
\A1;2320
  7
STYLE1
 11
0.0000000000000001
 21
1.0
 31
0.0
 73
     1
 44
1.0
1001
ACAD
1000
MTEXTBEGIN
1070
    73
1070
     1
1070
    44
1040
1.0
1070
    74
1070
     0
1000
MTEXTEND
  0
POINT
  5
179CB
330
1780E
100
AcDbEntity
  8
DEFPOINTS
 62
     0
 48
50.0
100
AcDbPoint
 10
11100.47043893114
 20
2537.931598713262
 30
0.0
  0
POINT
  5
179CC
330
1780E
100
AcDbEntity
  8
DEFPOINTS
 62
     0
 48
50.0
100
AcDbPoint
 10
11195.47043893114
 20
4857.931598713261
 30
0.0
  0
POINT
  5
179CD
330
1780E
100
AcDbEntity
  8
DEFPOINTS
 62
     0
 48
50.0
100
AcDbPoint
 10
11805.39759690326
 20
4857.931598713261
 30
0.0
  0
ENDBLK
  5
17819
330
1780E
100
AcDbEntity
  8
0
 48
50.0
100
AcDbBlockEnd
  0
BLOCK
  5
17826
330
1781A
100
AcDbEntity
  8
0
 48
50.0
100
AcDbBlockBegin
  2
*D28
 70
     1
 10
0.0
 20
0.0
 30
0.0
  3
*D28
  1

  0
LINE
  5
179BA
330
1781A
100
AcDbEntity
  8
寸法
 62
     0
 48
50.0
370
    -2
100
AcDbLine
 10
9290.470438931139
 20
2587.931598713261
 30
0.0
 11
8406.72030974788
 21
2587.931598713262
 31
0.0
  0
LINE
  5
179BB
330
1781A
100
AcDbEntity
  8
寸法
 62
     0
 48
50.0
370
    -2
100
AcDbLine
 10
9235.470438931139
 20
2537.931598713262
 30
0.0
 11
8406.72030974788
 21
2537.931598713262
 31
0.0
  0
LINE
  5
179BC
330
1781A
100
AcDbEntity
  8
寸法
 62
     0
 48
50.0
370
    -2
100
AcDbLine
 10
8466.720309747881
 20
2587.931598713262
 30
0.0
 11
8466.720309747881
 21
2687.931598713262
 31
0.0
  0
LINE
  5
179BD
330
1781A
100
AcDbEntity
  8
寸法
 62
     0
 48
50.0
370
    -2
100
AcDbLine
 10
8466.720309747881
 20
2537.931598713262
 30
0.0
 11
8466.720309747881
 21
2048.134354618772
 31
0.0
  0
LINE
  5
179BE
330
1781A
100
AcDbEntity
  8
寸法
 62
     0
 48
50.0
370
    -2
100
AcDbLine
 10
8466.720309747881
 20
2587.931598713262
 30
0.0
 11
8466.720309747881
 21
2537.931598713262
 31
0.0
  0
INSERT
  5
179BF
330
1781A
100
AcDbEntity
  8
寸法
 62
     0
 48
50.0
370
    -2
100
AcDbBlockReference
  2
_DOTSMALL
 10
8466.720309747881
 20
2587.931598713262
 30
0.0
 41
100.0
 42
100.0
 43
100.0
 50
270.0
  0
INSERT
  5
179C0
330
1781A
100
AcDbEntity
  8
寸法
 62
     0
 48
50.0
370
    -2
100
AcDbBlockReference
  2
_DOTSMALL
 10
8466.720309747881
 20
2537.931598713262
 30
0.0
 41
100.0
 42
100.0
 43
100.0
 50
90.0
  0
MTEXT
  5
179C1
330
1781A
100
AcDbEntity
  8
寸法
 62
     7
 48
50.0
100
AcDbMText
 10
8366.720309747881
 20
2154.181598713261
 30
0.0
 40
120.0
 41
0.0
 71
     5
 72
     1
  1
\A1;50
  7
STYLE1
 11
0.0000000000000001
 21
1.0
 31
0.0
 73
     1
 44
1.0
1001
ACAD
1000
MTEXTBEGIN
1070
    73
1070
     1
1070
    44
1040
1.0
1070
    74
1070
     0
1000
MTEXTEND
  0
POINT
  5
179C2
330
1781A
100
AcDbEntity
  8
DEFPOINTS
 62
     0
 48
50.0
100
AcDbPoint
 10
9310.470438931139
 20
2587.931598713261
 30
0.0
  0
POINT
  5
179C3
330
1781A
100
AcDbEntity
  8
DEFPOINTS
 62
     0
 48
50.0
100
AcDbPoint
 10
9255.470438931139
 20
2537.931598713262
 30
0.0
  0
POINT
  5
179C4
330
1781A
100
AcDbEntity
  8
DEFPOINTS
 62
     0
 48
50.0
100
AcDbPoint
 10
8466.720309747881
 20
2537.931598713262
 30
0.0
  0
ENDBLK
  5
17827
330
1781A
100
AcDbEntity
  8
0
 48
50.0
100
AcDbBlockEnd
  0
BLOCK
  5
17833
330
17828
100
AcDbEntity
  8
0
 48
50.0
100
AcDbBlockBegin
  2
*D29
 70
     1
 10
0.0
 20
0.0
 30
0.0
  3
*D29
  1

  0
LINE
  5
179B0
330
17828
100
AcDbEntity
  8
寸法
 62
     0
 48
50.0
370
    -2
100
AcDbLine
 10
9235.470438931139
 20
2537.931598713262
 30
0.0
 11
8106.720309747881
 21
2537.931598713262
 31
0.0
  0
LINE
  5
179B1
330
17828
100
AcDbEntity
  8
寸法
 62
     0
 48
50.0
370
    -2
100
AcDbLine
 10
8233.969363036008
 20
2437.931598713261
 30
0.0
 11
8106.720309747881
 21
2437.931598713261
 31
0.0
  0
LINE
  5
179B2
330
17828
100
AcDbEntity
  8
寸法
 62
     0
 48
50.0
370
    -2
100
AcDbLine
 10
8166.72030974788
 20
2537.931598713262
 30
0.0
 11
8166.72030974788
 21
2437.931598713261
 31
0.0
  0
LINE
  5
179B3
330
17828
100
AcDbEntity
  8
寸法
 62
     0
 48
50.0
370
    -2
100
AcDbLine
 10
8166.72030974788
 20
2437.931598713261
 30
0.0
 11
8166.72030974788
 21
1886.884354618772
 31
0.0
  0
INSERT
  5
179B4
330
17828
100
AcDbEntity
  8
寸法
 62
     0
 48
50.0
370
    -2
100
AcDbBlockReference
  2
_DOTSMALL
 10
8166.72030974788
 20
2537.931598713262
 30
0.0
 41
100.0
 42
100.0
 43
100.0
 50
90.0
  0
INSERT
  5
179B5
330
17828
100
AcDbEntity
  8
寸法
 62
     0
 48
50.0
370
    -2
100
AcDbBlockReference
  2
_DOTSMALL
 10
8166.72030974788
 20
2437.931598713261
 30
0.0
 41
100.0
 42
100.0
 43
100.0
 50
270.0
  0
MTEXT
  5
179B6
330
17828
100
AcDbEntity
  8
寸法
 62
     7
 48
50.0
100
AcDbMText
 10
8066.72030974788
 20
2022.931598713261
 30
0.0
 40
120.0
 41
0.0
 71
     5
 72
     1
  1
\A1;100
  7
STYLE1
 11
0.0000000000000001
 21
1.0
 31
0.0
 73
     1
 44
1.0
1001
ACAD
1000
MTEXTBEGIN
1070
    73
1070
     1
1070
    44
1040
1.0
1070
    74
1070
     0
1000
MTEXTEND
  0
POINT
  5
179B7
330
17828
100
AcDbEntity
  8
DEFPOINTS
 62
     0
 48
50.0
100
AcDbPoint
 10
9255.470438931139
 20
2537.931598713262
 30
0.0
  0
POINT
  5
179B8
330
17828
100
AcDbEntity
  8
DEFPOINTS
 62
     0
 48
50.0
100
AcDbPoint
 10
8253.969363036008
 20
2437.931598713261
 30
0.0
  0
POINT
  5
179B9
330
17828
100
AcDbEntity
  8
DEFPOINTS
 62
     0
 48
50.0
100
AcDbPoint
 10
8166.72030974788
 20
2437.931598713261
 30
0.0
  0
ENDBLK
  5
17834
330
17828
100
AcDbEntity
  8
0
 48
50.0
100
AcDbBlockEnd
  0
BLOCK
  5
1784B
330
17841
100
AcDbEntity
  8
0
 48
50.0
100
AcDbBlockBegin
  2
*D30
 70
     1
 10
0.0
 20
0.0
 30
0.0
  3
*D30
  1

  0
LINE
  5
1799E
330
17841
100
AcDbEntity
  8
寸法
 62
     0
 48
50.0
370
    -2
100
AcDbLine
 10
9290.470438931139
 20
4677.931598713261
 30
0.0
 11
8406.72030974788
 21
4677.931598713261
 31
0.0
  0
LINE
  5
1799F
330
17841
100
AcDbEntity
  8
寸法
 62
     0
 48
50.0
370
    -2
100
AcDbLine
 10
9290.470438931139
 20
2587.931598713261
 30
0.0
 11
8406.72030974788
 21
2587.931598713262
 31
0.0
  0
LINE
  5
179A0
330
17841
100
AcDbEntity
  8
寸法
 62
     0
 48
50.0
370
    -2
100
AcDbLine
 10
8466.720309747882
 20
4677.931598713261
 30
0.0
 11
8466.720309747881
 21
2587.931598713262
 31
0.0
  0
INSERT
  5
179A1
330
17841
100
AcDbEntity
  8
寸法
 62
     0
 48
50.0
370
    -2
100
AcDbBlockReference
  2
_DOTSMALL
 10
8466.720309747882
 20
4677.931598713261
 30
0.0
 41
100.0
 42
100.0
 43
100.0
 50
90.0
  0
INSERT
  5
179A2
330
17841
100
AcDbEntity
  8
寸法
 62
     0
 48
50.0
370
    -2
100
AcDbBlockReference
  2
_DOTSMALL
 10
8466.720309747881
 20
2587.931598713262
 30
0.0
 41
100.0
 42
100.0
 43
100.0
 50
270.0
  0
MTEXT
  5
179A3
330
17841
100
AcDbEntity
  8
寸法
 62
     7
 48
50.0
100
AcDbMText
 10
8366.708498724257
 20
3632.931598713263
 30
0.0
 40
120.0
 41
0.0
 71
     5
 72
     1
  1
\A1;2090
  7
STYLE1
 11
0.0000000000000001
 21
1.0
 31
0.0
 73
     1
 44
1.0
1001
ACAD
1000
MTEXTBEGIN
1070
    73
1070
     1
1070
    44
1040
1.0
1070
    74
1070
     0
1000
MTEXTEND
  0
POINT
  5
179A4
330
17841
100
AcDbEntity
  8
DEFPOINTS
 62
     0
 48
50.0
100
AcDbPoint
 10
9310.470438931139
 20
4677.931598713261
 30
0.0
  0
POINT
  5
179A5
330
17841
100
AcDbEntity
  8
DEFPOINTS
 62
     0
 48
50.0
100
AcDbPoint
 10
9310.470438931139
 20
2587.931598713261
 30
0.0
  0
POINT
  5
179A6
330
17841
100
AcDbEntity
  8
DEFPOINTS
 62
     0
 48
50.0
100
AcDbPoint
 10
8466.720309747881
 20
2587.931598713262
 30
0.0
  0
ENDBLK
  5
1784C
330
17841
100
AcDbEntity
  8
0
 48
50.0
100
AcDbBlockEnd
  0
BLOCK
  5
182DA
330
182D0
100
AcDbEntity
  8
0
 48
50.0
100
AcDbBlockBegin
  2
*D31
 70
     1
 10
0.0
 20
0.0
 30
0.0
  3
*D31
  1

  0
LINE
  5
182DC
330
182D0
100
AcDbEntity
  8
寸法
 62
     0
 48
50.0
370
    -2
100
AcDbLine
 10
9290.470438931141
 20
2537.93159871326
 30
0.0
 11
8106.720309747881
 21
2537.93159871326
 31
0.0
  0
LINE
  5
182DD
330
182D0
100
AcDbEntity
  8
寸法
 62
     0
 48
50.0
370
    -2
100
AcDbLine
 10
9230.470438931147
 20
4912.931598713265
 30
0.0
 11
8106.720309747881
 21
4912.931598713265
 31
0.0
  0
LINE
  5
182DE
330
182D0
100
AcDbEntity
  8
寸法
 62
     0
 48
50.0
370
    -2
100
AcDbLine
 10
8166.720309747882
 20
2537.93159871326
 30
0.0
 11
8166.720309747882
 21
4912.931598713265
 31
0.0
  0
INSERT
  5
182DF
330
182D0
100
AcDbEntity
  8
寸法
 62
     0
 48
50.0
370
    -2
100
AcDbBlockReference
  2
_DOTSMALL
 10
8166.720309747882
 20
2537.93159871326
 30
0.0
 41
100.0
 42
100.0
 43
100.0
 50
270.0
  0
INSERT
  5
182E0
330
182D0
100
AcDbEntity
  8
寸法
 62
     0
 48
50.0
370
    -2
100
AcDbBlockReference
  2
_DOTSMALL
 10
8166.720309747882
 20
4912.931598713265
 30
0.0
 41
100.0
 42
100.0
 43
100.0
 50
90.0
  0
MTEXT
  5
182E1
330
182D0
100
AcDbEntity
  8
寸法
 62
     7
 48
50.0
100
AcDbMText
 10
8066.708498724258
 20
3725.431598713264
 30
0.0
 40
120.0
 41
0.0
 71
     5
 72
     1
  1
\A1;2375
  7
STYLE1
 11
0.0000000000000001
 21
1.0
 31
0.0
 73
     1
 44
1.0
1001
ACAD
1000
MTEXTBEGIN
1070
    73
1070
     1
1070
    44
1040
1.0
1070
    74
1070
     0
1000
MTEXTEND
  0
POINT
  5
182E2
330
182D0
100
AcDbEntity
  8
DEFPOINTS
 62
     0
 48
50.0
100
AcDbPoint
 10
9310.47043893114
 20
2537.93159871326
 30
0.0
  0
POINT
  5
182E3
330
182D0
100
AcDbEntity
  8
DEFPOINTS
 62
     0
 48
50.0
100
AcDbPoint
 10
9250.470438931149
 20
4912.931598713265
 30
0.0
  0
POINT
  5
182E4
330
182D0
100
AcDbEntity
  8
DEFPOINTS
 62
     0
 48
50.0
100
AcDbPoint
 10
8166.720309747882
 20
4912.931598713265
 30
0.0
  0
ENDBLK
  5
182DB
330
182D0
100
AcDbEntity
  8
0
 48
50.0
100
AcDbBlockEnd
  0
BLOCK
  5
187B8
330
187B7
100
AcDbEntity
  8
0
 48
50.0
100
AcDbBlockBegin
  2
A$C20F158B4
 70
     0
 10
0.0
 20
0.0
 30
0.0
  3
A$C20F158B4
  1

  0
LINE
  5
187B9
330
187B7
100
AcDbEntity
  8
部品1
100
AcDbLine
 10
22.49998127195522
 20
-0.0000023044267436
 30
0.0
 11
47.49998127195522
 21
-0.0000023044231057
 31
0.0
  0
LINE
  5
187BA
330
187B7
100
AcDbEntity
  8
部品1
100
AcDbLine
 10
-0.000018728044779
 20
25.99999769557689
 30
0.0
 11
-0.000018728044779
 21
7.999997695576894
 31
0.0
  0
LINE
  5
187BB
330
187B7
100
AcDbEntity
  8
部品1
100
AcDbLine
 10
-0.000018728044779
 20
25.99999769557689
 30
0.0
 11
5.999981271955221
 21
25.99999769557689
 31
0.0
  0
LINE
  5
187BC
330
187B7
100
AcDbEntity
  8
部品1
100
AcDbLine
 10
69.99998127195522
 20
25.99999769557689
 30
0.0
 11
69.99998127195522
 21
7.999997695576894
 31
0.0
  0
LINE
  5
187BD
330
187B7
100
AcDbEntity
  8
部品1
100
AcDbLine
 10
63.99998127195522
 20
25.99999769557689
 30
0.0
 11
69.99998127195522
 21
25.99999769557689
 31
0.0
  0
ENDBLK
  5
187BE
330
187B7
100
AcDbEntity
  8
0
 48
50.0
100
AcDbBlockEnd
  0
BLOCK
  5
18FE6
330
18FDC
100
AcDbEntity
  8
0
 48
50.0
100
AcDbBlockBegin
  2
*D33
 70
     1
 10
0.0
 20
0.0
 30
0.0
  3
*D33
  1

  0
LINE
  5
190A7
330
18FDC
100
AcDbEntity
  8
寸法
 62
     0
 48
50.0
370
    -2
100
AcDbLine
 10
7394.673057123657
 20
2599.931598713262
 30
0.0
 11
7722.216159445403
 21
2599.931598713262
 31
0.0
  0
LINE
  5
190A8
330
18FDC
100
AcDbEntity
  8
寸法
 62
     0
 48
50.0
370
    -2
100
AcDbLine
 10
7394.673057123657
 20
4485.93159871326
 30
0.0
 11
7722.216159445403
 21
4485.93159871326
 31
0.0
  0
LINE
  5
190A9
330
18FDC
100
AcDbEntity
  8
寸法
 62
     0
 48
50.0
370
    -2
100
AcDbLine
 10
7662.216159445403
 20
2599.931598713262
 30
0.0
 11
7662.216159445403
 21
4485.93159871326
 31
0.0
  0
INSERT
  5
190AA
330
18FDC
100
AcDbEntity
  8
寸法
 62
     0
 48
50.0
370
    -2
100
AcDbBlockReference
  2
_DOTSMALL
 10
7662.216159445403
 20
2599.931598713262
 30
0.0
 41
100.0
 42
100.0
 43
100.0
 50
270.0
  0
INSERT
  5
190AB
330
18FDC
100
AcDbEntity
  8
寸法
 62
     0
 48
50.0
370
    -2
100
AcDbBlockReference
  2
_DOTSMALL
 10
7662.216159445403
 20
4485.93159871326
 30
0.0
 41
100.0
 42
100.0
 43
100.0
 50
90.0
  0
MTEXT
  5
190AC
330
18FDC
100
AcDbEntity
  8
寸法
 62
     7
 48
50.0
100
AcDbMText
 10
7562.216159445402
 20
3542.931598713263
 30
0.0
 40
120.0
 41
0.0
 71
     5
 72
     1
  1
\A1;有効開口部高サ 1886
  7
STYLE1
 11
0.0000000000000001
 21
1.0
 31
0.0
 73
     1
 44
1.0
1001
ACAD
1000
MTEXTBEGIN
1070
    73
1070
     1
1070
    44
1040
1.0
1070
    74
1070
     0
1000
MTEXTEND
  0
POINT
  5
190AD
330
18FDC
100
AcDbEntity
  8
DEFPOINTS
 62
     0
 48
50.0
100
AcDbPoint
 10
7374.673057123657
 20
2599.931598713262
 30
0.0
  0
POINT
  5
190AE
330
18FDC
100
AcDbEntity
  8
DEFPOINTS
 62
     0
 48
50.0
100
AcDbPoint
 10
7374.673057123658
 20
4485.93159871326
 30
0.0
  0
POINT
  5
190AF
330
18FDC
100
AcDbEntity
  8
DEFPOINTS
 62
     0
 48
50.0
100
AcDbPoint
 10
7662.216159445403
 20
4485.93159871326
 30
0.0
  0
ENDBLK
  5
18FE7
330
18FDC
100
AcDbEntity
  8
0
 48
50.0
100
AcDbBlockEnd
  0
BLOCK
  5
18FF4
330
18FE8
100
AcDbEntity
  8
0
 48
50.0
100
AcDbBlockBegin
  2
*D34
 70
     1
 10
0.0
 20
0.0
 30
0.0
  3
*D34
  1

  0
LINE
  5
19189
330
18FE8
100
AcDbEntity
  8
寸法
 62
     0
 48
50.0
370
    -2
100
AcDbLine
 10
7394.673057123657
 20
4485.93159871326
 30
0.0
 11
7722.216159445403
 21
4485.93159871326
 31
0.0
  0
LINE
  5
1918A
330
18FE8
100
AcDbEntity
  8
寸法
 62
     0
 48
50.0
370
    -2
100
AcDbLine
 10
7394.673057123658
 20
4512.931598713262
 30
0.0
 11
7722.216159445403
 21
4512.931598713262
 31
0.0
  0
LINE
  5
1918B
330
18FE8
100
AcDbEntity
  8
寸法
 62
     0
 48
50.0
370
    -2
100
AcDbLine
 10
7662.216159445403
 20
4485.93159871326
 30
0.0
 11
7662.216159445403
 21
4385.93159871326
 31
0.0
  0
LINE
  5
1918C
330
18FE8
100
AcDbEntity
  8
寸法
 62
     0
 48
50.0
370
    -2
100
AcDbLine
 10
7662.216159445403
 20
4512.931598713262
 30
0.0
 11
7662.216159445403
 21
4612.931598713262
 31
0.0
  0
MTEXT
  5
1918D
330
18FE8
100
AcDbEntity
  8
寸法
 62
     7
 48
50.0
100
AcDbMText
 10
7802.385982691768
 20
4513.89879855292
 30
0.0
 40
120.0
 41
0.0
 71
     5
 72
     1
  1
\A1;27
  7
STYLE1
 11
0.0000000000000001
 21
1.0
 31
0.0
 73
     1
 44
1.0
1001
ACAD
1000
MTEXTBEGIN
1070
    73
1070
     1
1070
    44
1040
1.0
1070
    74
1070
     0
1000
MTEXTEND
  0
LINE
  5
1918E
330
18FE8
100
AcDbEntity
  8
寸法
 62
     0
 48
50.0
370
    -2
100
AcDbLine
 10
7662.216159445403
 20
4485.93159871326
 30
0.0
 11
7662.216159445403
 21
4512.931598713262
 31
0.0
  0
INSERT
  5
1918F
330
18FE8
100
AcDbEntity
  8
寸法
 62
     0
 48
50.0
370
    -2
100
AcDbBlockReference
  2
_DOTSMALL
 10
7662.216159445403
 20
4485.93159871326
 30
0.0
 41
100.0
 42
100.0
 43
100.0
 50
90.0
  0
INSERT
  5
19190
330
18FE8
100
AcDbEntity
  8
寸法
 62
     0
 48
50.0
370
    -2
100
AcDbBlockReference
  2
_DOTSMALL
 10
7662.216159445403
 20
4512.931598713262
 30
0.0
 41
100.0
 42
100.0
 43
100.0
 50
270.0
  0
POINT
  5
19191
330
18FE8
100
AcDbEntity
  8
DEFPOINTS
 62
     0
 48
50.0
100
AcDbPoint
 10
7374.673057123658
 20
4485.93159871326
 30
0.0
  0
POINT
  5
19192
330
18FE8
100
AcDbEntity
  8
DEFPOINTS
 62
     0
 48
50.0
100
AcDbPoint
 10
7374.673057123658
 20
4512.931598713262
 30
0.0
  0
POINT
  5
19193
330
18FE8
100
AcDbEntity
  8
DEFPOINTS
 62
     0
 48
50.0
100
AcDbPoint
 10
7662.216159445403
 20
4512.931598713262
 30
0.0
  0
ENDBLK
  5
18FF5
330
18FE8
100
AcDbEntity
  8
0
 48
50.0
100
AcDbBlockEnd
  0
BLOCK
  5
19001
330
18FF6
100
AcDbEntity
  8
0
 48
50.0
100
AcDbBlockBegin
  2
*D35
 70
     1
 10
0.0
 20
0.0
 30
0.0
  3
*D35
  1

  0
LINE
  5
1917F
330
18FF6
100
AcDbEntity
  8
寸法
 62
     0
 48
50.0
370
    -2
100
AcDbLine
 10
7394.673057123658
 20
4512.931598713262
 30
0.0
 11
7722.216159445403
 21
4512.931598713262
 31
0.0
  0
LINE
  5
19180
330
18FF6
100
AcDbEntity
  8
寸法
 62
     0
 48
50.0
370
    -2
100
AcDbLine
 10
7394.673057123657
 20
4677.931598713261
 30
0.0
 11
7722.216159445403
 21
4677.931598713261
 31
0.0
  0
LINE
  5
19181
330
18FF6
100
AcDbEntity
  8
寸法
 62
     0
 48
50.0
370
    -2
100
AcDbLine
 10
7662.216159445404
 20
4512.931598713262
 30
0.0
 11
7662.216159445404
 21
4677.931598713261
 31
0.0
  0
LINE
  5
19182
330
18FF6
100
AcDbEntity
  8
寸法
 62
     0
 48
50.0
370
    -2
100
AcDbLine
 10
7662.216159445404
 20
4677.931598713261
 30
0.0
 11
7662.216159445404
 21
5054.90216146174
 31
0.0
  0
INSERT
  5
19183
330
18FF6
100
AcDbEntity
  8
寸法
 62
     0
 48
50.0
370
    -2
100
AcDbBlockReference
  2
_DOTSMALL
 10
7662.216159445404
 20
4512.931598713262
 30
0.0
 41
100.0
 42
100.0
 43
100.0
 50
270.0
  0
INSERT
  5
19184
330
18FF6
100
AcDbEntity
  8
寸法
 62
     0
 48
50.0
370
    -2
100
AcDbBlockReference
  2
_DOTSMALL
 10
7662.216159445404
 20
4677.931598713261
 30
0.0
 41
100.0
 42
100.0
 43
100.0
 50
90.0
  0
MTEXT
  5
19185
330
18FF6
100
AcDbEntity
  8
寸法
 62
     7
 48
50.0
100
AcDbMText
 10
7562.216159445402
 20
4916.416880087502
 30
0.0
 40
120.0
 41
0.0
 71
     5
 72
     1
  1
\A1;165
  7
STYLE1
 11
0.0000000000000001
 21
1.0
 31
0.0
 73
     1
 44
1.0
1001
ACAD
1000
MTEXTBEGIN
1070
    73
1070
     1
1070
    44
1040
1.0
1070
    74
1070
     0
1000
MTEXTEND
  0
POINT
  5
19186
330
18FF6
100
AcDbEntity
  8
DEFPOINTS
 62
     0
 48
50.0
100
AcDbPoint
 10
7374.673057123658
 20
4512.931598713262
 30
0.0
  0
POINT
  5
19187
330
18FF6
100
AcDbEntity
  8
DEFPOINTS
 62
     0
 48
50.0
100
AcDbPoint
 10
7374.673057123657
 20
4677.931598713261
 30
0.0
  0
POINT
  5
19188
330
18FF6
100
AcDbEntity
  8
DEFPOINTS
 62
     0
 48
50.0
100
AcDbPoint
 10
7662.216159445404
 20
4677.931598713261
 30
0.0
  0
ENDBLK
  5
19002
330
18FF6
100
AcDbEntity
  8
0
 48
50.0
100
AcDbBlockEnd
  0
ENDSEC
  0
SECTION
  2
ENTITIES
  0
MTEXT
  5
763F
330
747D
100
AcDbEntity
  8
0
100
AcDbMText
 10
302.846345836809
 20
280.1983726409901
 30
0.0
 40
3.5
 41
5.323721266742722
 71
     1
 72
     5
  1

  7
MSMINCHO
 73
     1
 44
1.0
1001
ACAD
1000
MTEXTBEGIN
1070
    73
1070
     1
1070
    44
1040
1.0
1070
    74
1070
     0
1000
MTEXTEND
  0
LINE
  5
10B57
330
747D
100
AcDbEntity
  8
補助
  6
PHANTOM
 62
   230
 48
50.0
100
AcDbLine
 10
139.9999999999995
 20
11409.6
 30
0.0
 11
16307.2
 21
11409.6
 31
0.0
  0
LINE
  5
10B59
330
747D
100
AcDbEntity
  8
仕様書枠
  6
Continuous
 48
50.0
100
AcDbLine
 10
13107.2
 20
1200.0
 30
0.0
 11
13107.2
 21
-0.0000000000000729
 31
0.0
  0
LINE
  5
10B5C
330
747D
100
AcDbEntity
  8
仕様書枠
 48
50.0
100
AcDbLine
 10
16307.2
 20
1200.0
 30
0.0
 11
16307.2
 21
-0.0000000000000909
 31
0.0
  0
LINE
  5
10B5D
330
747D
100
AcDbEntity
  8
仕様書枠
 48
50.0
100
AcDbLine
 10
140.0
 20
0.0
 30
0.0
 11
16307.2
 21
-0.0000000000000909
 31
0.0
  0
LINE
  5
10B5E
330
747D
100
AcDbEntity
  8
補助
  6
PHANTOM
 62
   230
 48
50.0
100
AcDbLine
 10
16307.2
 20
11409.6
 30
0.0
 11
16307.2
 21
1200.0
 31
0.0
  0
LINE
  5
10B6C
330
747D
100
AcDbEntity
  8
仕様書枠
 48
50.0
100
AcDbLine
 10
13107.2
 20
1200.0
 30
0.0
 11
16307.2
 21
1200.0
 31
0.0
  0
LINE
  5
10B6D
330
747D
100
AcDbEntity
  8
補助
  6
PHANTOM
 62
   230
 48
50.0
100
AcDbLine
 10
13107.2
 20
11409.6
 30
0.0
 11
13107.2
 21
4800.0
 31
0.0
  0
LINE
  5
10B6F
330
747D
100
AcDbEntity
  8
補助
  6
PHANTOM
 62
   230
 48
50.0
100
AcDbLine
 10
13107.2
 20
4800.0
 30
0.0
 11
16307.2
 21
4800.0
 31
0.0
  0
LINE
  5
10B72
330
747D
100
AcDbEntity
  8
文字
 62
     7
 48
50.0
100
AcDbLine
 10
13187.2
 20
400.0
 30
0.0
 11
16227.2
 21
400.0
 31
0.0
  0
TEXT
  5
10B73
330
747D
100
AcDbEntity
  8
文字
 62
     7
 48
50.0
100
AcDbText
 10
13162.9790565769
 20
895.0906074299405
 30
0.0
 40
200.0
  1
外 形 図
  7
STYLE2
100
AcDbText
  0
TEXT
  5
10B74
330
747D
100
AcDbEntity
  8
文字
 62
     7
 48
50.0
100
AcDbText
 10
13201.43669998441
 20
477.2740661031255
 30
0.0
 40
160.0
  1
機種名
  7
STYLE2
100
AcDbText
  0
TEXT
  5
10B75
330
747D
100
AcDbEntity
  8
文字
 62
     7
 48
50.0
100
AcDbText
 10
13209.4053442172
 20
228.5435242569016
 30
0.0
 40
100.0
  1
○有効開口寸法 ： 2004\U+00D71886(mm)
  7
STYLE2
100
AcDbText
  0
TEXT
  5
10B76
330
747D
100
AcDbEntity
  8
文字
 62
     7
 48
50.0
100
AcDbText
 10
13209.4053442172
 20
76.09434707649343
 30
0.0
 40
100.0
  1
○床面積 ： 3.96㎡(1.20坪) 　
  7
STYLE2
100
AcDbText
  0
TEXT
  5
10B79
330
747D
100
AcDbEntity
  8
文字
 62
     7
 48
50.0
100
AcDbText
 10
14524.131837222
 20
1031.557706291228
 30
0.0
 40
100.0
  1
NO.04      <縮尺> S=1/40
  7
STYLE2
100
AcDbText
  0
LINE
  5
10B7B
330
747D
100
AcDbEntity
  8
仕様書枠
 48
50.0
100
AcDbLine
 10
13107.2
 20
800.0
 30
0.0
 11
14251.2
 21
800.0
 31
0.0
  0
LINE
  5
10B88
330
747D
100
AcDbEntity
  8
仕様書枠
  6
Continuous
 48
50.0
100
AcDbLine
 10
14251.2
 20
1200.0
 30
0.0
 11
14251.2
 21
800.0
 31
0.0
  0
DIMENSION
  5
14E59
330
747D
100
AcDbEntity
  8
寸法
100
AcDbDimension
  2
*D1
 10
8387.206344597709
 20
7255.924129951043
 30
0.0
 11
8287.206344597707
 21
8150.924129951048
 31
0.0
 70
    32
 71
     5
 42
1790.000000000007
  3
INABA_S40G
100
AcDbAlignedDimension
 13
7374.673057123664
 23
9045.924129951051
 33
0.0
 14
7374.673057123638
 24
7255.924129951043
 34
0.0
 50
90.0
100
AcDbRotatedDimension
1001
ACAD
1000
DSTYLE
1002
{
1002
}
  0
DIMENSION
  5
14E5A
330
747D
100
AcDbEntity
  8
寸法
100
AcDbDimension
  2
*D2
 10
7319.673057123664
 20
9561.732349576054
 30
0.0
 11
6269.673057123664
 21
9561.732349576054
 31
0.0
 70
   160
  1
5X420=<>
 71
     5
 42
2100.000000000001
  3
INABA_S40G
100
AcDbAlignedDimension
 13
5219.673057123663
 23
9045.924129950956
 33
0.0
 14
7319.673057123664
 24
9045.924129951051
 34
0.0
100
AcDbRotatedDimension
1001
ACAD
1000
DSTYLE
1002
{
1002
}
  0
DIMENSION
  5
14E5B
330
747D
100
AcDbEntity
  8
寸法
100
AcDbDimension
  2
*D3
 10
7374.673057123664
 20
9561.732349576036
 30
0.0
 11
7683.158338497903
 21
9561.732349576036
 31
0.0
 70
   160
 71
     5
 42
55.0
  3
INABA_S40G
100
AcDbAlignedDimension
 13
7319.673057123664
 23
9045.924129951051
 33
0.0
 14
7374.673057123664
 24
9045.924129951051
 34
0.0
100
AcDbRotatedDimension
1001
ACAD
1000
DSTYLE
1002
{
1002
}
  0
DIMENSION
  5
14E5C
330
747D
100
AcDbEntity
  8
寸法
100
AcDbDimension
  2
*D4
 10
8022.099402858074
 20
8990.924129951054
 30
0.0
 11
8022.099402858072
 21
9354.40941132529
 31
0.0
 70
   160
 71
     5
 42
54.99999999999636
  3
INABA_S40G
100
AcDbAlignedDimension
 13
7374.673057123664
 23
9045.924129951051
 33
0.0
 14
7374.673057123664
 24
8990.924129951054
 34
0.0
 50
90.0
100
AcDbRotatedDimension
1001
ACAD
1000
DSTYLE
1002
{
1002
}
  0
DIMENSION
  5
14E5D
330
747D
100
AcDbEntity
  8
寸法
100
AcDbDimension
  2
*D5
 10
5219.673057123663
 20
9561.732349575938
 30
0.0
 11
4856.18777574939
 21
9561.732349575938
 31
0.0
 70
   160
 71
     5
 42
55.00000000003456
  3
INABA_S40G
100
AcDbAlignedDimension
 13
5164.673057123629
 23
9045.924129950956
 33
0.0
 14
5219.673057123663
 24
9045.924129950956
 34
0.0
100
AcDbRotatedDimension
1001
ACAD
1000
DSTYLE
1002
{
1002
}
  0
DIMENSION
  5
14E61
330
747D
100
AcDbEntity
  8
寸法
100
AcDbDimension
  2
*D6
 10
6373.874415899595
 20
8221.46091143311
 30
0.0
 11
5729.944833674774
 21
8221.46091143311
 31
0.0
 70
   160
 71
     5
 42
1273.000000000012
  3
INABA_S40G
100
AcDbAlignedDimension
 13
5193.173057123664
 23
8565.924129950955
 33
0.0
 14
6466.173057123675
 24
8565.924129950948
 34
0.0
100
AcDbRotatedDimension
1001
ACAD
1000
DSTYLE
1002
{
1002
}
  0
LINE
  5
14E62
330
747D
100
AcDbEntity
  8
細線
 48
50.0
100
AcDbLine
 10
6466.173057123661
 20
8565.924129951062
 30
0.0
 11
5193.173057123662
 21
9015.924129950956
 31
0.0
  0
LINE
  5
14E63
330
747D
100
AcDbEntity
  8
部品1
100
AcDbLine
 10
5193.173057123662
 20
9015.924129950956
 30
0.0
 11
6466.173057123663
 21
9015.924129951061
 31
0.0
  0
LINE
  5
14E64
330
747D
100
AcDbEntity
  8
細線
 48
50.0
100
AcDbLine
 10
6466.173057123663
 20
9015.924129951057
 30
0.0
 11
5193.173057123663
 21
8565.924129950955
 31
0.0
  0
LINE
  5
14E65
330
747D
100
AcDbEntity
  8
部品1
100
AcDbLine
 10
5193.173057123664
 20
8565.924129950955
 30
0.0
 11
6466.173057123661
 21
8565.924129951062
 31
0.0
  0
LINE
  5
14E67
330
747D
100
AcDbEntity
  8
部品1
100
AcDbLine
 10
5164.673057123663
 20
9045.924129950956
 30
0.0
 11
7374.673057123664
 21
9045.924129951051
 31
0.0
  0
LINE
  5
14E68
330
747D
100
AcDbEntity
  8
部品1
100
AcDbLine
 10
5192.673057123663
 20
9017.924129950955
 30
0.0
 11
6467.173057123661
 21
9017.92412995096
 31
0.0
  0
LINE
  5
14E6C
330
747D
100
AcDbEntity
  8
部品1
100
AcDbLine
 10
7374.673057123638
 20
7255.924129951043
 30
0.0
 11
7319.67305712364
 21
7255.92412995104
 31
0.0
  0
DIMENSION
  5
14E6F
330
747D
100
AcDbEntity
  8
寸法
100
AcDbDimension
  2
*D7
 10
7374.673057123638
 20
6435.320363593914
 30
0.0
 11
6269.673057123648
 21
6435.320363593914
 31
0.0
 70
   160
 71
     5
 42
2209.999999999982
  3
INABA_S40G
100
AcDbAlignedDimension
 13
5164.673057123657
 23
7255.92412995088
 33
0.0
 14
7374.673057123638
 24
7255.924129951006
 34
0.0
100
AcDbRotatedDimension
1001
ACAD
1000
DSTYLE
1002
{
1002
}
  0
LINE
  5
14E72
330
747D
100
AcDbEntity
  8
部品1
100
AcDbLine
 10
5192.673057123638
 20
7310.924129950909
 30
0.0
 11
5192.673057123647
 21
9017.924129950955
 31
0.0
  0
LINE
  5
14E73
330
747D
100
AcDbEntity
  8
部品1
100
AcDbLine
 10
5164.673057123629
 20
9045.924129950924
 30
0.0
 11
5164.673057123657
 21
7255.924129950912
 31
0.0
  0
LINE
  5
14E7C
330
747D
100
AcDbEntity
  8
部品1
100
AcDbLine
 10
5192.673057123655
 20
7310.924129950926
 30
0.0
 11
5164.673057123655
 21
7310.924129950926
 31
0.0
  0
LINE
  5
14E7D
330
747D
100
AcDbEntity
  8
部品1
100
AcDbLine
 10
5192.673057123638
 20
7310.924129950912
 30
0.0
 11
5164.673057123655
 21
7310.924129950912
 31
0.0
  0
LINE
  5
14E7E
330
747D
100
AcDbEntity
  8
部品1
100
AcDbLine
 10
5219.673057123656
 20
7310.924129950875
 30
0.0
 11
5164.673057123655
 21
7310.924129950875
 31
0.0
  0
LINE
  5
14E81
330
747D
100
AcDbEntity
  8
部品1
100
AcDbLine
 10
5192.673057123643
 20
8150.924129950928
 30
0.0
 11
5164.673057123643
 21
8150.924129950928
 31
0.0
  0
LINE
  5
14E82
330
747D
100
AcDbEntity
  8
部品1
 48
50.0
100
AcDbLine
 10
5193.173057123662
 20
9015.924129950951
 30
0.0
 11
5193.173057123663
 21
8565.924129950952
 31
0.0
  0
LINE
  5
14E83
330
747D
100
AcDbEntity
  8
部品1
100
AcDbLine
 10
5192.673057123638
 20
8570.924129950928
 30
0.0
 11
5164.673057123637
 21
8570.924129950928
 31
0.0
  0
LINE
  5
14E84
330
747D
100
AcDbEntity
  8
部品1
100
AcDbLine
 10
5192.673057123631
 20
8990.924129950927
 30
0.0
 11
5164.67305712363
 21
8990.924129950927
 31
0.0
  0
LINE
  5
14E85
330
747D
100
AcDbEntity
  8
部品1
100
AcDbLine
 10
5219.673057123663
 20
9045.924129950956
 30
0.0
 11
5219.673057123663
 21
9017.924129950955
 31
0.0
  0
LINE
  5
14E86
330
747D
100
AcDbEntity
  8
部品1
100
AcDbLine
 10
5219.673057123628
 20
9045.924129950924
 30
0.0
 11
5219.67305712363
 21
9017.924129950923
 31
0.0
  0
DIMENSION
  5
14E87
330
747D
100
AcDbEntity
  8
寸法
100
AcDbDimension
  2
*D8
 10
8022.099402858051
 20
7255.924129951043
 30
0.0
 11
8022.099402858048
 21
6878.062663046181
 31
0.0
 70
   160
 71
     5
 42
54.99999999999636
  3
INABA_S40G
100
AcDbAlignedDimension
 13
7374.673057123638
 23
7310.92412995104
 33
0.0
 14
7374.673057123638
 24
7255.924129951043
 34
0.0
 50
90.0
100
AcDbRotatedDimension
1001
ACAD
1000
DSTYLE
1002
{
1002
}
  0
DIMENSION
  5
14E8B
330
747D
100
AcDbEntity
  8
寸法
100
AcDbDimension
  2
*D9
 10
7254.149210862353
 20
8222.486460195893
 30
0.0
 11
6943.108030108764
 21
8222.486460195893
 31
0.0
 70
   160
 71
     5
 42
853.0000000000118
  3
INABA_S40G
100
AcDbAlignedDimension
 13
6493.173057123662
 23
8565.924129951062
 33
0.0
 14
7346.173057123675
 24
8565.924129951055
 34
0.0
100
AcDbRotatedDimension
1001
ACAD
1000
DSTYLE
1002
{
1002
}
  0
LINE
  5
14E8C
330
747D
100
AcDbEntity
  8
細線
 48
50.0
100
AcDbLine
 10
7346.173057123664
 20
9015.92412995105
 30
0.0
 11
6493.173057123662
 21
8565.924129951062
 31
0.0
  0
LINE
  5
14E8D
330
747D
100
AcDbEntity
  8
部品1
100
AcDbLine
 10
6493.173057123662
 20
9015.924129951057
 30
0.0
 11
7346.173057123664
 21
9015.92412995105
 31
0.0
  0
LINE
  5
14E8E
330
747D
100
AcDbEntity
  8
部品1
100
AcDbLine
 10
6493.173057123662
 20
8565.924129951062
 30
0.0
 11
7346.173057123664
 21
8565.924129951055
 31
0.0
  0
LINE
  5
14E8F
330
747D
100
AcDbEntity
  8
細線
 48
50.0
100
AcDbLine
 10
7346.173057123664
 20
8565.924129951055
 30
0.0
 11
6493.173057123662
 21
9015.924129951054
 31
0.0
  0
LINE
  5
14E90
330
747D
100
AcDbEntity
  8
部品1
100
AcDbLine
 10
6492.173057123664
 20
9017.924129951069
 30
0.0
 11
7346.673057123664
 21
9017.924129951051
 31
0.0
  0
LINE
  5
14EBE
330
747D
100
AcDbEntity
  8
部品1
100
AcDbLine
 10
5639.673057123663
 20
9045.924129950956
 30
0.0
 11
5639.673057123663
 21
9017.924129950955
 31
0.0
  0
LINE
  5
14EBF
330
747D
100
AcDbEntity
  8
部品1
100
AcDbLine
 10
5639.673057123663
 20
9045.924129950956
 30
0.0
 11
5639.673057123663
 21
9017.924129950955
 31
0.0
  0
LINE
  5
14EC0
330
747D
100
AcDbEntity
  8
部品1
100
AcDbLine
 10
5639.673057123663
 20
9045.924129951073
 30
0.0
 11
5639.673057123663
 21
9017.924129951072
 31
0.0
  0
LINE
  5
14EC1
330
747D
100
AcDbEntity
  8
部品1
 48
50.0
100
AcDbLine
 10
6466.173057123663
 20
9015.924129951057
 30
0.0
 11
6466.173057123663
 21
8565.924129951062
 31
0.0
  0
LINE
  5
14EC2
330
747D
100
AcDbEntity
  8
部品1
 48
50.0
100
AcDbLine
 10
6493.173057123662
 20
9015.924129951054
 30
0.0
 11
6493.173057123662
 21
8565.924129951062
 31
0.0
  0
LINE
  5
14EC3
330
747D
100
AcDbEntity
  8
部品1
 48
50.0
100
AcDbLine
 10
6467.173057123662
 20
9017.924129951065
 30
0.0
 11
6467.173057123663
 21
8565.924129951062
 31
0.0
  0
LINE
  5
14EC4
330
747D
100
AcDbEntity
  8
部品1
 48
50.0
100
AcDbLine
 10
6492.173057123664
 20
9017.924129951062
 30
0.0
 11
6492.173057123664
 21
8565.924129951062
 31
0.0
  0
LINE
  5
14EC5
330
747D
100
AcDbEntity
  8
部品1
100
AcDbLine
 10
6467.173057123663
 20
8565.924129951062
 30
0.0
 11
6492.173057123664
 21
8565.924129951062
 31
0.0
  0
LINE
  5
14EC6
330
747D
100
AcDbEntity
  8
部品1
100
AcDbLine
 10
6444.673057123663
 20
9035.924129951057
 30
0.0
 11
6444.673057123663
 21
9017.924129951058
 31
0.0
  0
LINE
  5
14EC7
330
747D
100
AcDbEntity
  8
部品1
100
AcDbLine
 10
6444.673057123663
 20
9035.924129951057
 30
0.0
 11
6450.673057123663
 21
9035.924129951057
 31
0.0
  0
LINE
  5
14EC8
330
747D
100
AcDbEntity
  8
部品1
100
AcDbLine
 10
6514.673057123663
 20
9035.924129951057
 30
0.0
 11
6514.673057123663
 21
9017.924129951058
 31
0.0
  0
LINE
  5
14EC9
330
747D
100
AcDbEntity
  8
部品1
100
AcDbLine
 10
6508.673057123663
 20
9035.924129951057
 30
0.0
 11
6514.673057123663
 21
9035.924129951057
 31
0.0
  0
LINE
  5
14ECA
330
747D
100
AcDbEntity
  8
部品1
100
AcDbLine
 10
6467.173057123663
 20
9009.924129951054
 30
0.0
 11
6492.173057123664
 21
9009.924129951057
 31
0.0
  0
LINE
  5
14ECB
330
747D
100
AcDbEntity
  8
部品1
100
AcDbLine
 10
6479.673057123664
 20
9045.924129951073
 30
0.0
 11
6479.673057123664
 21
9017.924129951072
 31
0.0
  0
LINE
  5
14ECC
330
747D
100
AcDbEntity
  8
部品1
100
AcDbLine
 10
6899.673057123663
 20
9045.924129951073
 30
0.0
 11
6899.673057123663
 21
9017.924129951072
 31
0.0
  0
DIMENSION
  5
14ECF
330
747D
100
AcDbEntity
  8
寸法
100
AcDbDimension
  2
*D10
 10
7701.530782985688
 20
8470.706314282164
 30
0.0
 11
7601.530782985688
 21
8695.706314282164
 31
0.0
 70
    32
 71
     5
 42
449.9999999999963
  3
INABA_S40G
100
AcDbAlignedDimension
 13
7346.173057123664
 23
9015.92412995105
 33
0.0
 14
7346.173057123664
 24
8565.924129951055
 34
0.0
 50
90.0
100
AcDbRotatedDimension
1001
ACAD
1000
DSTYLE
1002
{
1002
}
  0
DIMENSION
  5
14ED1
330
747D
100
AcDbEntity
  8
寸法
100
AcDbDimension
  2
*D11
 10
8022.099402858072
 20
7310.92412995104
 30
0.0
 11
7922.087591834451
 21
8150.924129951048
 31
0.0
 70
    32
  1
4X420=<>
 71
     5
 42
1680.000000000014
  3
INABA_S40G
100
AcDbAlignedDimension
 13
7374.673057123664
 23
8990.924129951054
 33
0.0
 14
7374.673057123638
 24
7310.92412995104
 34
0.0
 50
90.0
100
AcDbRotatedDimension
1001
ACAD
1000
DSTYLE
1002
{
1002
}
  0
LINE
  5
14ED2
330
747D
100
AcDbEntity
  8
部品1
100
AcDbLine
 10
7374.673057123664
 20
9045.924129951051
 30
0.0
 11
7374.673057123638
 21
7255.924129951043
 31
0.0
  0
LINE
  5
14ED3
330
747D
100
AcDbEntity
  8
部品1
100
AcDbLine
 10
7319.673057123639
 20
7310.924129951054
 30
0.0
 11
7374.673057123671
 21
7310.924129951054
 31
0.0
  0
LINE
  5
14EDE
330
747D
100
AcDbEntity
  8
部品1
100
AcDbLine
 10
7346.673057123668
 20
8150.924129951055
 30
0.0
 11
7374.673057123668
 21
8150.924129951055
 31
0.0
  0
LINE
  5
14EDF
330
747D
100
AcDbEntity
  8
部品1
100
AcDbLine
 10
7346.173057123664
 20
9015.92412995105
 30
0.0
 11
7346.173057123664
 21
8565.924129951055
 31
0.0
  0
LINE
  5
14EE0
330
747D
100
AcDbEntity
  8
部品1
100
AcDbLine
 10
7346.673057123664
 20
8570.924129951054
 30
0.0
 11
7374.673057123664
 21
8570.924129951054
 31
0.0
  0
LINE
  5
14EE1
330
747D
100
AcDbEntity
  8
部品1
100
AcDbLine
 10
7346.673057123664
 20
8990.924129951054
 30
0.0
 11
7374.673057123664
 21
8990.924129951054
 31
0.0
  0
LINE
  5
14EE2
330
747D
100
AcDbEntity
  8
部品1
100
AcDbLine
 10
7319.673057123664
 20
9045.924129951073
 30
0.0
 11
7319.673057123664
 21
9017.924129951072
 31
0.0
  0
LINE
  5
14EE3
330
747D
100
AcDbEntity
  8
部品1
100
AcDbLine
 10
7319.673057123664
 20
9045.924129951051
 30
0.0
 11
7319.673057123664
 21
9017.924129951051
 31
0.0
  0
LINE
  5
15151
330
747D
100
AcDbEntity
  8
部品1
100
AcDbLine
 10
6059.673057123664
 20
9045.924129950956
 30
0.0
 11
6059.673057123664
 21
9017.924129950955
 31
0.0
  0
LINE
  5
15152
330
747D
100
AcDbEntity
  8
部品1
100
AcDbLine
 10
6059.673057123664
 20
9045.924129950956
 30
0.0
 11
6059.673057123664
 21
9017.924129950955
 31
0.0
  0
LINE
  5
15153
330
747D
100
AcDbEntity
  8
部品1
100
AcDbLine
 10
6059.673057123664
 20
9045.924129951073
 30
0.0
 11
6059.673057123664
 21
9017.924129951072
 31
0.0
  0
LINE
  5
15535
330
747D
100
AcDbEntity
  8
部品1
100
AcDbLine
 10
7346.673057123664
 20
9017.924129951051
 30
0.0
 11
7346.673057123641
 21
7310.92412995104
 31
0.0
  0
LINE
  5
15536
330
747D
100
AcDbEntity
  8
部品1
100
AcDbLine
 10
7319.673057123655
 20
8565.924129951055
 30
0.0
 11
7319.67305712364
 21
7255.924129951039
 31
0.0
  0
LINE
  5
1553F
330
747D
100
AcDbEntity
  8
部品1
100
AcDbLine
 10
5219.673057123642
 20
8565.924129950957
 30
0.0
 11
5219.673057123656
 21
7320.92412995095
 31
0.0
  0
LINE
  5
15D5D
330
747D
100
AcDbEntity
  8
部品1
100
AcDbLine
 10
5219.673057123656
 20
7291.924129950951
 30
0.0
 11
5196.673057123657
 21
7291.924129950951
 31
0.0
  0
LINE
  5
15D60
330
747D
100
AcDbEntity
  8
部品1
100
AcDbLine
 10
5267.673057123657
 20
7281.924129950953
 30
0.0
 11
5219.673057123657
 21
7281.924129950951
 31
0.0
  0
LINE
  5
15D61
330
747D
100
AcDbEntity
  8
部品1
100
AcDbLine
 10
5267.673057123657
 20
7320.924129950952
 30
0.0
 11
5219.673057123657
 21
7320.924129950951
 31
0.0
  0
LINE
  5
15D62
330
747D
100
AcDbEntity
  8
部品1
 48
50.0
100
AcDbLine
 10
5267.673057123657
 20
7320.924129950952
 30
0.0
 11
5267.673057123657
 21
7311.924129950952
 31
0.0
  0
LINE
  5
15D63
330
747D
100
AcDbEntity
  8
部品1
 48
50.0
100
AcDbLine
 10
5267.673057123657
 20
7281.924129950953
 30
0.0
 11
5267.673057123657
 21
7290.924129950951
 31
0.0
  0
LINE
  5
15D64
330
747D
100
AcDbEntity
  8
部品1
 48
50.0
100
AcDbLine
 10
5219.673057123657
 20
7320.92412995095
 30
0.0
 11
5219.673057123653
 21
7255.924129950951
 31
0.0
  0
LINE
  5
15D71
330
747D
100
AcDbEntity
  8
部品1
 48
50.0
100
AcDbLine
 10
5229.673057123656
 20
7281.924129950951
 30
0.0
 11
5219.673057123657
 21
7260.924129950952
 31
0.0
  0
LINE
  5
15D72
330
747D
100
AcDbEntity
  8
部品1
100
AcDbLine
 10
7271.673057123638
 20
7281.924129950953
 30
0.0
 11
7319.673057123639
 21
7281.924129950951
 31
0.0
  0
LINE
  5
15D73
330
747D
100
AcDbEntity
  8
部品1
 48
50.0
100
AcDbLine
 10
7271.673057123638
 20
7281.924129950953
 30
0.0
 11
7271.673057123638
 21
7290.924129950951
 31
0.0
  0
LINE
  5
15D74
330
747D
100
AcDbEntity
  8
部品1
100
AcDbLine
 10
7271.673057123638
 20
7320.924129950952
 30
0.0
 11
7319.67305712364
 21
7320.924129950951
 31
0.0
  0
LINE
  5
15D75
330
747D
100
AcDbEntity
  8
部品1
 48
50.0
100
AcDbLine
 10
7271.673057123638
 20
7320.924129950952
 30
0.0
 11
7271.673057123638
 21
7311.924129950952
 31
0.0
  0
LINE
  5
15D76
330
747D
100
AcDbEntity
  8
部品1
100
AcDbLine
 10
7319.673057123639
 20
7291.924129950949
 30
0.0
 11
7342.673057123639
 21
7291.924129950951
 31
0.0
  0
LINE
  5
15D78
330
747D
100
AcDbEntity
  8
部品1
 48
50.0
100
AcDbLine
 10
7309.673057123639
 20
7281.924129950951
 30
0.0
 11
7319.673057123639
 21
7260.924129950952
 31
0.0
  0
LINE
  5
15D7A
330
747D
100
AcDbEntity
  8
部品1
 48
50.0
100
AcDbLine
 10
5219.673057123657
 20
7291.924129950951
 30
0.0
 11
5196.673057123657
 21
7291.924129950951
 31
0.0
  0
LINE
  5
15D7B
330
747D
100
AcDbEntity
  8
部品1
 48
50.0
100
AcDbLine
 10
5231.673057123656
 20
7301.424129950951
 30
0.0
 11
7307.67305712364
 21
7301.424129950951
 31
0.0
  0
LINE
  5
15D85
330
747D
100
AcDbEntity
  8
部品1
100
AcDbLine
 10
5219.673057123652
 20
7255.924129950951
 30
0.0
 11
5164.673057123657
 21
7255.924129950948
 31
0.0
  0
LINE
  5
15D88
330
747D
100
AcDbEntity
  8
破線
 48
10.0
100
AcDbLine
 10
5244.673057123655
 20
7410.924129950922
 30
0.0
 11
5244.673057123639
 21
8565.924129950962
 31
0.0
  0
LINE
  5
15D89
330
747D
100
AcDbEntity
  8
破線
 48
10.0
100
AcDbLine
 10
7294.673057123657
 20
8374.924129950926
 30
0.0
 11
7294.673057123652
 21
8565.924129950962
 31
0.0
  0
DIMENSION
  5
15E45
330
747D
100
AcDbEntity
  8
寸法
 48
50.0
100
AcDbDimension
  2
*D12
 10
7319.67305712364
 20
6721.493359184788
 30
0.0
 11
7683.158338497877
 21
6721.493359184788
 31
0.0
 70
   160
 71
     5
 42
54.99999999999818
  3
INABA_S40G
100
AcDbAlignedDimension
 13
7374.673057123638
 23
7255.924129951043
 33
0.0
 14
7319.67305712364
 24
7255.924129951039
 34
0.0
100
AcDbRotatedDimension
1001
ACAD
1000
DSTYLE
1002
{
1002
}
  0
DIMENSION
  5
15E53
330
747D
100
AcDbEntity
  8
寸法
 48
50.0
100
AcDbDimension
  2
*D13
 10
7271.673057123638
 20
6721.493359184788
 30
0.0
 11
7160.710159474891
 21
6821.493359184788
 31
0.0
 70
   160
 71
     5
 42
48.00000000000181
  3
INABA_S40G
100
AcDbAlignedDimension
 13
7319.67305712364
 23
7255.924129951039
 33
0.0
 14
7271.673057123638
 24
7281.924129950953
 34
0.0
100
AcDbRotatedDimension
1001
ACAD
1000
DSTYLE
1002
{
1070
   279
1070
     2
1002
}
  0
DIMENSION
  5
15E5F
330
747D
100
AcDbEntity
  8
寸法
 48
50.0
100
AcDbDimension
  2
*D14
 10
5267.673057123657
 20
6721.493359184788
 30
0.0
 11
6269.673057123648
 21
6921.505170208409
 31
0.0
 70
    32
  1
有効開口部間口\P<>
 71
     5
 42
2003.999999999982
  3
INABA_S40G
100
AcDbAlignedDimension
 13
7271.673057123638
 23
7281.924129950953
 33
0.0
 14
5267.673057123657
 24
7281.924129950951
 34
0.0
100
AcDbRotatedDimension
1001
ACAD
1000
DSTYLE
1002
{
1070
    75
1070
     1
1070
   279
1070
     2
1002
}
  0
DIMENSION
  5
15E6D
330
747D
100
AcDbEntity
  8
寸法
 48
50.0
100
AcDbDimension
  2
*D15
 10
5219.673057123653
 20
6721.493359184788
 30
0.0
 11
5380.575028123715
 21
6821.493359184788
 31
0.0
 70
   160
 71
     5
 42
48.00000000000363
  3
INABA_S40G
100
AcDbAlignedDimension
 13
5267.673057123657
 23
7281.924129950951
 33
0.0
 14
5219.673057123653
 24
7255.924129950951
 34
0.0
100
AcDbRotatedDimension
1001
ACAD
1000
DSTYLE
1002
{
1070
   279
1070
     2
1002
}
  0
DIMENSION
  5
15E7B
330
747D
100
AcDbEntity
  8
寸法
 48
50.0
100
AcDbDimension
  2
*D16
 10
5164.673057123657
 20
6721.493359184788
 30
0.0
 11
4856.187775749418
 21
6721.493359184788
 31
0.0
 70
   160
 71
     5
 42
54.99999999999636
  3
INABA_S40G
100
AcDbAlignedDimension
 13
5219.673057123653
 23
7255.924129950951
 33
0.0
 14
5164.673057123657
 24
7255.924129950948
 34
0.0
100
AcDbRotatedDimension
1001
ACAD
1000
DSTYLE
1002
{
1002
}
  0
LINE
  5
160AA
330
747D
100
AcDbEntity
  8
部品1
100
AcDbLine
 10
7346.673057123668
 20
7730.924129951055
 30
0.0
 11
7374.673057123668
 21
7730.924129951055
 31
0.0
  0
LINE
  5
160AB
330
747D
100
AcDbEntity
  8
部品1
100
AcDbLine
 10
5192.673057123643
 20
7730.924129950927
 30
0.0
 11
5164.673057123643
 21
7730.924129950927
 31
0.0
  0
LINE
  5
16745
330
747D
100
AcDbEntity
  8
破線
  6
HIDDEN
 48
10.0
100
AcDbLine
 10
7294.673057123667
 20
7410.92412995095
 30
0.0
 11
7294.673057123647
 21
8545.924129950931
 31
0.0
  0
LINE
  5
1674D
330
747D
100
AcDbEntity
  8
部品1
 48
50.0
100
AcDbLine
 10
7319.673057123674
 20
7385.924129950952
 30
0.0
 11
5219.673057123653
 21
7385.924129950833
 31
0.0
  0
LINE
  5
1674E
330
747D
100
AcDbEntity
  8
部品1
 48
50.0
100
AcDbLine
 10
7319.673057123674
 20
7340.924129950952
 30
0.0
 11
5219.673057123654
 21
7340.924129950832
 31
0.0
  0
LINE
  5
1674F
330
747D
100
AcDbEntity
  8
部品1
 48
50.0
100
AcDbLine
 10
5219.673057123646
 20
8150.924129950928
 30
0.0
 11
7319.67305712365
 21
8150.924129950903
 31
0.0
  0
LINE
  5
16750
330
747D
100
AcDbEntity
  8
部品1
 48
50.0
100
AcDbLine
 10
5219.673057123651
 20
7730.924129950925
 30
0.0
 11
7319.673057123646
 21
7730.924129950904
 31
0.0
  0
LINE
  5
16751
330
747D
100
AcDbEntity
  8
破線
 48
10.0
100
AcDbLine
 10
7294.673057123667
 20
7410.92412995095
 30
0.0
 11
6640.173057123681
 21
7410.924129950941
 31
0.0
  0
LINE
  5
16752
330
747D
100
AcDbEntity
  8
破線
 48
10.0
100
AcDbLine
 10
6590.173057123684
 20
7410.924129950939
 30
0.0
 11
5949.173057123679
 21
7410.924129950931
 31
0.0
  0
LINE
  5
167DE
330
747D
100
AcDbEntity
  8
部品1
 48
50.0
100
AcDbLine
 10
5219.673057123652
 20
7255.924129950951
 30
0.0
 11
7319.67305712364
 21
7255.924129950928
 31
0.0
  0
LINE
  5
16876
330
747D
100
AcDbEntity
  8
仕様書枠
 48
50.0
100
AcDbLine
 10
16307.19999999999
 20
8519.600000000002
 30
0.0
 11
13127.19999999999
 21
8519.600000000002
 31
0.0
  0
TEXT
  5
16877
330
747D
100
AcDbEntity
  8
文字
 62
     7
 48
50.0
100
AcDbText
 10
13248.77747366448
 20
8380.013745883731
 30
0.0
 40
100.0
  1
16
  7
STYLE1
100
AcDbText
  0
TEXT
  5
16878
330
747D
100
AcDbEntity
  8
文字
 62
     7
 48
50.0
100
AcDbText
 10
13583.11819016569
 20
8380.013745883731
 30
0.0
 40
100.0
  1
アンカープレート
  7
STYLE1
100
AcDbText
  0
TEXT
  5
16879
330
747D
100
AcDbEntity
  8
文字
 62
     7
 48
50.0
100
AcDbText
 10
15022.63965474515
 20
8380.013745883726
 30
0.0
 40
100.0
  1
F12            2.3
  7
STYLE1
100
AcDbText
  0
LINE
  5
1687A
330
747D
100
AcDbEntity
  8
仕様書枠
 48
50.0
100
AcDbLine
 10
16307.19999999999
 20
9879.599999999999
 30
0.0
 11
13127.19999999999
 21
9879.600000000001
 31
0.0
  0
LINE
  5
1687B
330
747D
100
AcDbEntity
  8
仕様書枠
 48
50.0
100
AcDbLine
 10
16307.19999999999
 20
11239.6
 30
0.0
 11
13127.2
 21
11239.6
 31
0.0
  0
LINE
  5
1687C
330
747D
100
AcDbEntity
  8
仕様書枠
 48
50.0
100
AcDbLine
 10
16307.19999999999
 20
7839.600000000007
 30
0.0
 11
16307.2
 21
11239.6
 31
0.0
  0
LINE
  5
1687D
330
747D
100
AcDbEntity
  8
仕様書枠
 48
50.0
100
AcDbLine
 10
14785.2
 20
11239.59999999999
 30
0.0
 11
14785.2
 21
8349.600000000007
 31
0.0
  0
LINE
  5
1687E
330
747D
100
AcDbEntity
  8
仕様書枠
 48
50.0
100
AcDbLine
 10
13490.2
 20
11239.6
 30
0.0
 11
13490.20000000001
 21
8349.600000000007
 31
0.0
  0
LINE
  5
1687F
330
747D
100
AcDbEntity
  8
仕様書枠
 48
50.0
100
AcDbLine
 10
16307.19999999999
 20
11069.6
 30
0.0
 11
13127.2
 21
11069.6
 31
0.0
  0
LINE
  5
16880
330
747D
100
AcDbEntity
  8
仕様書枠
 48
50.0
100
AcDbLine
 10
16307.19999999999
 20
10729.6
 30
0.0
 11
13127.2
 21
10729.6
 31
0.0
  0
LINE
  5
16881
330
747D
100
AcDbEntity
  8
仕様書枠
 48
50.0
100
AcDbLine
 10
16307.19999999999
 20
10899.6
 30
0.0
 11
13127.2
 21
10899.6
 31
0.0
  0
LINE
  5
16882
330
747D
100
AcDbEntity
  8
仕様書枠
 48
50.0
100
AcDbLine
 10
16307.19999999999
 20
10389.6
 30
0.0
 11
13127.19999999999
 21
10389.6
 31
0.0
  0
LINE
  5
16883
330
747D
100
AcDbEntity
  8
仕様書枠
 48
50.0
100
AcDbLine
 10
16307.19999999999
 20
10219.6
 30
0.0
 11
13127.19999999999
 21
10219.6
 31
0.0
  0
LINE
  5
16884
330
747D
100
AcDbEntity
  8
仕様書枠
 48
50.0
100
AcDbLine
 10
16307.19999999999
 20
10559.6
 30
0.0
 11
13127.19999999999
 21
10559.6
 31
0.0
  0
TEXT
  5
16885
330
747D
100
AcDbEntity
  8
文字
 62
     7
 48
50.0
100
AcDbText
 10
13197.42518560407
 20
11100.01374588373
 30
0.0
 40
100.0
  1
品番
  7
STYLE1
100
AcDbText
  0
TEXT
  5
16886
330
747D
100
AcDbEntity
  8
文字
 62
     7
 48
50.0
100
AcDbText
 10
13271.19032244792
 20
10930.01374588373
 30
0.0
 40
100.0
  1
1
  7
STYLE1
100
AcDbText
  0
TEXT
  5
16887
330
747D
100
AcDbEntity
  8
文字
 62
     7
 48
50.0
100
AcDbText
 10
13271.19032244792
 20
10760.01374588373
 30
0.0
 40
100.0
  1
2
  7
STYLE1
100
AcDbText
  0
TEXT
  5
16888
330
747D
100
AcDbEntity
  8
文字
 62
     7
 48
50.0
100
AcDbText
 10
13271.19032244792
 20
10420.01374588373
 30
0.0
 40
100.0
  1
4
  7
STYLE1
100
AcDbText
  0
TEXT
  5
16889
330
747D
100
AcDbEntity
  8
文字
 62
     7
 48
50.0
100
AcDbText
 10
13271.19032244792
 20
10590.01374588373
 30
0.0
 40
100.0
  1
3
  7
STYLE1
100
AcDbText
  0
TEXT
  5
1688A
330
747D
100
AcDbEntity
  8
文字
 62
     7
 48
50.0
100
AcDbText
 10
13732.03840939434
 20
11100.01374588373
 30
0.0
 40
100.0
  1
部　　品　　名
  7
STYLE1
100
AcDbText
  0
TEXT
  5
1688B
330
747D
100
AcDbEntity
  8
文字
 62
     7
 48
50.0
100
AcDbText
 10
14859.79774614482
 20
11100.01374588373
 30
0.0
 40
100.0
  1
材料（材質）　　単位mm
  7
STYLE1
100
AcDbText
  0
TEXT
  5
1688C
330
747D
100
AcDbEntity
  8
文字
 62
     7
 48
50.0
100
AcDbText
 10
13583.11819016569
 20
10930.01374588372
 30
0.0
 40
100.0
  1
土台枠
  7
STYLE1
100
AcDbText
  0
TEXT
  5
1688D
330
747D
100
AcDbEntity
  8
文字
 62
     7
 48
50.0
100
AcDbText
 10
13583.11819016569
 20
10760.01374588372
 30
0.0
 40
100.0
  1
柱
  7
STYLE1
100
AcDbText
  0
TEXT
  5
1688E
330
747D
100
AcDbEntity
  8
文字
 62
     7
 48
50.0
100
AcDbText
 10
13583.11819016569
 20
10590.01374588373
 30
0.0
 40
100.0
  1
桁前
  7
STYLE1
100
AcDbText
  0
TEXT
  5
1688F
330
747D
100
AcDbEntity
  8
文字
 62
     7
 48
50.0
100
AcDbText
 10
13583.11819016569
 20
10420.01374588373
 30
0.0
 40
100.0
  1
桁後
  7
STYLE1
100
AcDbText
  0
TEXT
  5
16890
330
747D
100
AcDbEntity
  8
文字
 62
     7
 48
50.0
100
AcDbText
 10
13271.19032244792
 20
10250.01374588373
 30
0.0
 40
100.0
  1
5
  7
STYLE1
100
AcDbText
  0
TEXT
  5
16891
330
747D
100
AcDbEntity
  8
文字
 62
     7
 48
50.0
100
AcDbText
 10
13583.11819016569
 20
10250.01374588373
 30
0.0
 40
100.0
  1
妻板左右
  7
STYLE1
100
AcDbText
  0
TEXT
  5
16892
330
747D
100
AcDbEntity
  8
文字
 62
     7
 48
50.0
100
AcDbText
 10
13583.11819016569
 20
9060.013745883727
 30
0.0
 40
100.0
  1
シャッターレール
  7
STYLE1
100
AcDbText
  0
TEXT
  5
16893
330
747D
100
AcDbEntity
  8
文字
 62
     7
 48
50.0
100
AcDbText
 10
13248.77747366448
 20
9400.013745883727
 30
0.0
 40
100.0
  1
10
  7
STYLE1
100
AcDbText
  0
TEXT
  5
16894
330
747D
100
AcDbEntity
  8
文字
 62
     7
 48
50.0
100
AcDbText
 10
13583.11819016569
 20
9570.013745883729
 30
0.0
 40
100.0
  1
壁パネル
  7
STYLE1
100
AcDbText
  0
TEXT
  5
16895
330
747D
100
AcDbEntity
  8
文字
 62
     7
 48
50.0
100
AcDbText
 10
13583.11819016569
 20
9740.013745883729
 30
0.0
 40
100.0
  1
屋根パネル
  7
STYLE1
100
AcDbText
  0
TEXT
  5
16896
330
747D
100
AcDbEntity
  8
文字
 62
     7
 48
50.0
100
AcDbText
 10
13583.11819016569
 20
9910.013745883727
 30
0.0
 40
100.0
  1
母屋中
  7
STYLE1
100
AcDbText
  0
TEXT
  5
16897
330
747D
100
AcDbEntity
  8
文字
 62
     7
 48
50.0
100
AcDbText
 10
13583.11819016569
 20
10080.01374588372
 30
0.0
 40
100.0
  1
鼻隠シ前後
  7
STYLE1
100
AcDbText
  0
TEXT
  5
16898
330
747D
100
AcDbEntity
  8
文字
 62
     7
 48
50.0
100
AcDbText
 10
13271.19032244792
 20
9740.013745883729
 30
0.0
 40
100.0
  1
8
  7
STYLE1
100
AcDbText
  0
TEXT
  5
16899
330
747D
100
AcDbEntity
  8
文字
 62
     7
 48
50.0
100
AcDbText
 10
13271.19032244792
 20
9570.013745883729
 30
0.0
 40
100.0
  1
9
  7
STYLE1
100
AcDbText
  0
TEXT
  5
1689A
330
747D
100
AcDbEntity
  8
文字
 62
     7
 48
50.0
100
AcDbText
 10
13271.19032244792
 20
9910.01374588373
 30
0.0
 40
100.0
  1
7
  7
STYLE1
100
AcDbText
  0
TEXT
  5
1689B
330
747D
100
AcDbEntity
  8
文字
 62
     7
 48
50.0
100
AcDbText
 10
13271.19032244792
 20
10080.01374588373
 30
0.0
 40
100.0
  1
6
  7
STYLE1
100
AcDbText
  0
LINE
  5
1689C
330
747D
100
AcDbEntity
  8
仕様書枠
 48
50.0
100
AcDbLine
 10
16307.19999999999
 20
9539.599999999998
 30
0.0
 11
13127.19999999999
 21
9539.6
 31
0.0
  0
LINE
  5
1689D
330
747D
100
AcDbEntity
  8
仕様書枠
 48
50.0
100
AcDbLine
 10
16307.19999999999
 20
9199.599999999998
 30
0.0
 11
13127.19999999999
 21
9199.600000000001
 31
0.0
  0
LINE
  5
1689E
330
747D
100
AcDbEntity
  8
仕様書枠
 48
50.0
100
AcDbLine
 10
16307.19999999999
 20
9369.599999999998
 30
0.0
 11
13127.19999999999
 21
9369.600000000001
 31
0.0
  0
LINE
  5
1689F
330
747D
100
AcDbEntity
  8
仕様書枠
 48
50.0
100
AcDbLine
 10
16307.19999999999
 20
10049.6
 30
0.0
 11
13127.2
 21
10049.6
 31
0.0
  0
LINE
  5
168A0
330
747D
100
AcDbEntity
  8
仕様書枠
 48
50.0
100
AcDbLine
 10
16307.19999999999
 20
9709.6
 30
0.0
 11
13127.19999999999
 21
9709.600000000001
 31
0.0
  0
TEXT
  5
168A1
330
747D
100
AcDbEntity
  8
文字
 62
     7
 48
50.0
100
AcDbText
 10
13248.77747366448
 20
9230.013745883727
 30
0.0
 40
100.0
  1
11
  7
STYLE1
100
AcDbText
  0
TEXT
  5
168A2
330
747D
100
AcDbEntity
  8
文字
 62
     7
 48
50.0
100
AcDbText
 10
13583.11819016569
 20
9230.013745883727
 30
0.0
 40
100.0
  1
シャッターカバー
 41
0.9
  7
STYLE1
100
AcDbText
  0
LINE
  5
168A3
330
747D
100
AcDbEntity
  8
仕様書枠
 48
50.0
100
AcDbLine
 10
16307.19999999999
 20
9029.6
 30
0.0
 11
13127.19999999999
 21
9029.6
 31
0.0
  0
LINE
  5
168A4
330
747D
100
AcDbEntity
  8
仕様書枠
 48
50.0
100
AcDbLine
 10
16307.19999999999
 20
8349.600000000004
 30
0.0
 11
13127.19999999999
 21
8349.600000000007
 31
0.0
  0
TEXT
  5
168A5
330
747D
100
AcDbEntity
  8
文字
 62
     7
 48
50.0
100
AcDbText
 10
13583.11819016569
 20
9400.013745883732
 30
0.0
 40
100.0
  1
シャッター
  7
STYLE1
100
AcDbText
  0
TEXT
  5
168A6
330
747D
100
AcDbEntity
  8
文字
 62
     7
 48
50.0
100
AcDbText
 10
13248.77747366448
 20
8890.013745883729
 30
0.0
 40
100.0
  1
13
  7
STYLE1
100
AcDbText
  0
TEXT
  5
168A7
330
747D
100
AcDbEntity
  8
文字
 62
     7
 48
50.0
100
AcDbText
 10
13248.77747366448
 20
9060.013745883729
 30
0.0
 40
100.0
  1
12
  7
STYLE1
100
AcDbText
  0
TEXT
  5
168A8
330
747D
100
AcDbEntity
  8
文字
 62
     7
 48
50.0
100
AcDbText
 10
15022.63965474517
 20
10930.01374588372
 30
0.0
 40
100.0
  1
F12            1.2
  7
STYLE1
100
AcDbText
  0
TEXT
  5
168A9
330
747D
100
AcDbEntity
  8
文字
 62
     7
 48
50.0
100
AcDbText
 10
15022.63965474517
 20
10760.01374588372
 30
0.0
 40
100.0
  1
F12         1.0,1.2
  7
STYLE1
100
AcDbText
  0
TEXT
  5
168AA
330
747D
100
AcDbEntity
  8
文字
 62
     7
 48
50.0
100
AcDbText
 10
15022.63965474516
 20
10590.01374588372
 30
0.0
 40
100.0
  1
Y10            1.0
  7
STYLE1
100
AcDbText
  0
TEXT
  5
168AB
330
747D
100
AcDbEntity
  8
文字
 62
     7
 48
50.0
100
AcDbText
 10
15022.63965474516
 20
10420.01374588372
 30
0.0
 40
100.0
  1
Y10            1.0
  7
STYLE1
100
AcDbText
  0
TEXT
  5
168AC
330
747D
100
AcDbEntity
  8
文字
 62
     7
 48
50.0
100
AcDbText
 10
15022.63965474516
 20
10250.01374588372
 30
0.0
 40
100.0
  1
Y10            0.7
  7
STYLE1
100
AcDbText
  0
TEXT
  5
168AD
330
747D
100
AcDbEntity
  8
文字
 62
     7
 48
50.0
100
AcDbText
 10
15022.63965474516
 20
10080.01374588372
 30
0.0
 40
100.0
  1
Y10            0.7
  7
STYLE1
100
AcDbText
  0
TEXT
  5
168AE
330
747D
100
AcDbEntity
  8
文字
 62
     7
 48
50.0
100
AcDbText
 10
15022.63965474516
 20
9740.013745883725
 30
0.0
 40
100.0
  1
Y10            0.5
  7
STYLE1
100
AcDbText
  0
TEXT
  5
168AF
330
747D
100
AcDbEntity
  8
文字
 62
     7
 48
50.0
100
AcDbText
 10
15022.63965474516
 20
9570.013745883725
 30
0.0
 40
100.0
  1
F12            0.7
  7
STYLE1
100
AcDbText
  0
TEXT
  5
168B0
330
747D
100
AcDbEntity
  8
文字
 62
     7
 48
50.0
100
AcDbText
 10
14850.83183167176
 20
9060.013745883725
 30
0.0
 40
100.0
  1
アルミニウム合金押出形材
  7
STYLE1
100
AcDbText
  0
TEXT
  5
168B2
330
747D
100
AcDbEntity
  8
文字
 62
     7
 48
50.0
100
AcDbText
 10
15022.63965474515
 20
9400.013745883729
 30
0.0
 40
100.0
  1
Z08            0.5
  7
STYLE1
100
AcDbText
  0
LINE
  5
168B3
330
747D
100
AcDbEntity
  8
仕様書枠
 48
50.0
100
AcDbLine
 10
16307.19999999998
 20
8179.600000000005
 30
0.0
 11
13127.19999999999
 21
8179.600000000007
 31
0.0
  0
LINE
  5
168B4
330
747D
100
AcDbEntity
  8
仕様書枠
 48
50.0
100
AcDbLine
 10
16307.19999999998
 20
8009.600000000006
 30
0.0
 11
13127.19999999999
 21
8009.600000000007
 31
0.0
  0
LINE
  5
168B5
330
747D
100
AcDbEntity
  8
仕様書枠
 48
50.0
100
AcDbLine
 10
16307.19999999998
 20
7839.600000000006
 30
0.0
 11
13127.19999999999
 21
7839.600000000007
 31
0.0
  0
TEXT
  5
168B6
330
747D
100
AcDbEntity
  8
文字
 62
     7
 48
50.0
100
AcDbText
 10
13229.83081656554
 20
8210.013745883735
 30
0.0
 40
100.0
  1
F12→溶融亜鉛めっき鋼板(JIS G 3302)
  7
STYLE1
100
AcDbText
  0
TEXT
  5
168B7
330
747D
100
AcDbEntity
  8
文字
 62
     7
 48
50.0
100
AcDbText
 10
13229.83081656554
 20
8040.013745883735
 30
0.0
 40
100.0
  1
Y10→溶融亜鉛-5％アルミニウム合金めっき鋼板(JIS G 3317)
 41
0.9
  7
STYLE1
100
AcDbText
  0
LINE
  5
168B9
330
747D
100
AcDbEntity
  8
仕様書枠
 48
50.0
100
AcDbLine
 10
13127.2
 20
11239.6
 30
0.0
 11
13127.19999999999
 21
7839.600000000007
 31
0.0
  0
TEXT
  5
168BA
330
747D
100
AcDbEntity
  8
文字
 62
     7
 48
50.0
100
AcDbText
 10
14833.43123277338
 20
9915.516434800332
 30
0.0
 40
100.0
  1
F12    1.0(多雪地型  2.3)
  7
STYLE1
100
AcDbText
  0
LINE
  5
168BB
330
747D
100
AcDbEntity
  8
仕様書枠
 48
50.0
100
AcDbLine
 10
16307.19999999999
 20
8689.6
 30
0.0
 11
13127.19999999999
 21
8689.600000000003
 31
0.0
  0
LINE
  5
168BC
330
747D
100
AcDbEntity
  8
仕様書枠
 48
50.0
100
AcDbLine
 10
16307.19999999999
 20
8859.6
 30
0.0
 11
13127.19999999999
 21
8859.600000000002
 31
0.0
  0
TEXT
  5
168BD
330
747D
100
AcDbEntity
  8
文字
 62
     7
 48
50.0
100
AcDbText
 10
13583.11819016569
 20
8720.013745883729
 30
0.0
 40
100.0
  1
床パネル
 41
0.9
  7
STYLE1
100
AcDbText
  0
TEXT
  5
168BE
330
747D
100
AcDbEntity
  8
文字
 62
     7
 48
50.0
100
AcDbText
 10
13583.11819016569
 20
8550.013745883731
 30
0.0
 40
100.0
  1
棚板
  7
STYLE1
100
AcDbText
  0
TEXT
  5
168BF
330
747D
100
AcDbEntity
  8
文字
 62
     7
 48
50.0
100
AcDbText
 10
13583.11819016569
 20
8890.013745883729
 30
0.0
 40
100.0
  1
根太
  7
STYLE1
100
AcDbText
  0
TEXT
  5
168C0
330
747D
100
AcDbEntity
  8
文字
 62
     7
 48
50.0
100
AcDbText
 10
13248.77747366448
 20
8720.013745883729
 30
0.0
 40
100.0
  1
14
  7
STYLE1
100
AcDbText
  0
TEXT
  5
168C1
330
747D
100
AcDbEntity
  8
文字
 62
     7
 48
50.0
100
AcDbText
 10
13248.77747366448
 20
8550.013745883731
 30
0.0
 40
100.0
  1
15
  7
STYLE1
100
AcDbText
  0
TEXT
  5
168C2
330
747D
100
AcDbEntity
  8
文字
 62
     7
 48
50.0
100
AcDbText
 10
15022.63965474516
 20
8890.013745883726
 30
0.0
 40
100.0
  1
F12            1.2
  7
STYLE1
100
AcDbText
  0
TEXT
  5
168C3
330
747D
100
AcDbEntity
  8
文字
 62
     7
 48
50.0
100
AcDbText
 10
15022.63965474516
 20
8720.013745883727
 30
0.0
 40
100.0
  1
F12            1.0
  7
STYLE1
100
AcDbText
  0
TEXT
  5
168C4
330
747D
100
AcDbEntity
  8
文字
 62
     7
 48
50.0
100
AcDbText
 10
15022.63965474515
 20
8550.013745883726
 30
0.0
 40
100.0
  1
F12            0.6
  7
STYLE1
100
AcDbText
  0
LWPOLYLINE
  5
16C6F
330
747D
100
AcDbEntity
  8
部品1
100
AcDbPolyline
 90
        4
 70
     1
 43
0.0
 10
5887.937724009443
 20
6252.928922994943
 10
5887.937724009443
 20
6013.036601449411
 10
6651.408390237882
 20
6013.036601449411
 10
6651.408390237882
 20
6252.928922994943
  0
TEXT
  5
16C70
330
747D
100
AcDbEntity
  8
部品1
100
AcDbText
 10
5977.857333838482
 20
6060.03539377642
 30
0.0
 40
135.0
  1
平面図
  7
STYLE2
100
AcDbText
  0
TEXT
  5
174E2
330
747D
100
AcDbEntity
  8
部品1
100
AcDbText
 10
9913.181207240528
 20
1595.038069494738
 30
0.0
 40
135.0
  1
側面図
  7
STYLE2
100
AcDbText
  0
LWPOLYLINE
  5
174E3
330
747D
100
AcDbEntity
  8
部品1
100
AcDbPolyline
 90
        4
 70
     1
 43
0.0
 10
9823.735105816922
 20
1787.931598713261
 10
9823.735105816922
 20
1548.039277167729
 10
10587.20577204536
 20
1548.039277167729
 10
10587.20577204536
 20
1787.931598713261
  0
TEXT
  5
174E4
330
747D
100
AcDbEntity
  8
部品1
100
AcDbText
 10
5978.463127747382
 20
1595.038069494737
 30
0.0
 40
135.0
  1
正面図
  7
STYLE2
100
AcDbText
  0
LWPOLYLINE
  5
174E5
330
747D
100
AcDbEntity
  8
部品1
100
AcDbPolyline
 90
        4
 70
     1
 43
0.0
 10
5887.937724009426
 20
1787.931598713261
 10
5887.937724009426
 20
1548.039277167728
 10
6651.408390237867
 20
1548.039277167728
 10
6651.408390237867
 20
1787.931598713261
  0
LWPOLYLINE
  5
174E6
330
747D
100
AcDbEntity
  8
部品1
100
AcDbPolyline
 90
        4
 70
     1
 43
0.0
 10
5887.937724009426
 20
1787.931598713261
 10
5887.937724009426
 20
1548.039277167728
 10
6651.408390237867
 20
1548.039277167728
 10
6651.408390237867
 20
1787.931598713261
  0
TEXT
  5
174E7
330
747D
100
AcDbEntity
  8
部品1
100
AcDbText
 10
5978.463127747382
 20
1595.038069494737
 30
0.0
 40
135.0
  1
正面図
  7
STYLE2
100
AcDbText
  0
LINE
  5
174EA
330
747D
100
AcDbEntity
  8
部品1
100
AcDbLine
 10
9785.470438931135
 20
4677.931598713261
 30
0.0
 11
9785.470438931135
 21
2587.931598713261
 31
0.0
  0
LINE
  5
174EB
330
747D
100
AcDbEntity
  8
細線
 48
50.0
100
AcDbLine
 10
9862.970438931135
 20
4677.931598713261
 30
0.0
 11
9862.970438931135
 21
2587.931598713261
 31
0.0
  0
LINE
  5
174EC
330
747D
100
AcDbEntity
  8
細線
 48
50.0
100
AcDbLine
 10
9847.970438931135
 20
4677.931598713261
 30
0.0
 11
9847.970438931135
 21
2587.931598713261
 31
0.0
  0
LINE
  5
174ED
330
747D
100
AcDbEntity
  8
細線
 48
50.0
100
AcDbLine
 10
9987.970438931135
 20
4677.931598713261
 30
0.0
 11
9987.970438931135
 21
2587.931598713261
 31
0.0
  0
LINE
  5
174EE
330
747D
100
AcDbEntity
  8
細線
 48
50.0
100
AcDbLine
 10
10002.97043893113
 20
4677.931598713261
 30
0.0
 11
10002.97043893113
 21
2587.931598713261
 31
0.0
  0
LINE
  5
174EF
330
747D
100
AcDbEntity
  8
細線
 48
50.0
100
AcDbLine
 10
10142.97043893113
 20
4677.931598713261
 30
0.0
 11
10142.97043893113
 21
2587.931598713261
 31
0.0
  0
LINE
  5
174F0
330
747D
100
AcDbEntity
  8
細線
 48
50.0
100
AcDbLine
 10
10127.97043893113
 20
4677.931598713261
 30
0.0
 11
10127.97043893113
 21
2587.931598713261
 31
0.0
  0
LINE
  5
174F1
330
747D
100
AcDbEntity
  8
細線
 48
50.0
100
AcDbLine
 10
9707.970438931136
 20
4677.931598713261
 30
0.0
 11
9707.970438931136
 21
2587.931598713261
 31
0.0
  0
LINE
  5
174F2
330
747D
100
AcDbEntity
  8
細線
 48
50.0
100
AcDbLine
 10
9722.970438931135
 20
4677.931598713261
 30
0.0
 11
9722.970438931135
 21
2587.931598713261
 31
0.0
  0
LINE
  5
174F3
330
747D
100
AcDbEntity
  8
細線
 48
50.0
100
AcDbLine
 10
9582.970438931136
 20
4677.931598713261
 30
0.0
 11
9582.970438931136
 21
2587.931598713261
 31
0.0
  0
LINE
  5
174F4
330
747D
100
AcDbEntity
  8
細線
 48
50.0
100
AcDbLine
 10
9567.970438931135
 20
4677.931598713261
 30
0.0
 11
9567.970438931135
 21
2587.931598713261
 31
0.0
  0
LINE
  5
174F5
330
747D
100
AcDbEntity
  8
細線
 48
50.0
100
AcDbLine
 10
9427.970438931136
 20
4677.931598713261
 30
0.0
 11
9427.970438931136
 21
2587.931598713261
 31
0.0
  0
LINE
  5
174F6
330
747D
100
AcDbEntity
  8
細線
 48
50.0
100
AcDbLine
 10
9442.970438931135
 20
4677.931598713261
 30
0.0
 11
9442.970438931135
 21
2587.931598713261
 31
0.0
  0
LINE
  5
174F7
330
747D
100
AcDbEntity
  8
部品1
100
AcDbLine
 10
10205.47043893113
 20
4677.931598713261
 30
0.0
 11
10205.47043893113
 21
2587.931598713261
 31
0.0
  0
LINE
  5
174F8
330
747D
100
AcDbEntity
  8
細線
 48
50.0
100
AcDbLine
 10
10547.97043893114
 20
4677.931598713261
 30
0.0
 11
10547.97043893114
 21
2587.931598713261
 31
0.0
  0
LINE
  5
174F9
330
747D
100
AcDbEntity
  8
細線
 48
50.0
100
AcDbLine
 10
10562.97043893114
 20
4677.931598713261
 30
0.0
 11
10562.97043893114
 21
2587.931598713261
 31
0.0
  0
LINE
  5
174FA
330
747D
100
AcDbEntity
  8
細線
 48
50.0
100
AcDbLine
 10
10422.97043893114
 20
4677.931598713261
 30
0.0
 11
10422.97043893114
 21
2587.931598713261
 31
0.0
  0
LINE
  5
174FB
330
747D
100
AcDbEntity
  8
細線
 48
50.0
100
AcDbLine
 10
10407.97043893114
 20
4677.931598713261
 30
0.0
 11
10407.97043893114
 21
2587.931598713261
 31
0.0
  0
LINE
  5
174FC
330
747D
100
AcDbEntity
  8
細線
 48
50.0
100
AcDbLine
 10
10267.97043893114
 20
4677.931598713261
 30
0.0
 11
10267.97043893114
 21
2587.931598713261
 31
0.0
  0
LINE
  5
174FD
330
747D
100
AcDbEntity
  8
細線
 48
50.0
100
AcDbLine
 10
10282.97043893114
 20
4677.931598713261
 30
0.0
 11
10282.97043893114
 21
2587.931598713261
 31
0.0
  0
LINE
  5
174FE
330
747D
100
AcDbEntity
  8
部品1
100
AcDbLine
 10
10625.47043893113
 20
4677.931598713261
 30
0.0
 11
10625.47043893113
 21
2587.931598713261
 31
0.0
  0
LINE
  5
174FF
330
747D
100
AcDbEntity
  8
細線
 48
50.0
100
AcDbLine
 10
10702.97043893114
 20
4677.931598713261
 30
0.0
 11
10702.97043893114
 21
2587.931598713261
 31
0.0
  0
LINE
  5
17500
330
747D
100
AcDbEntity
  8
細線
 48
50.0
100
AcDbLine
 10
10687.97043893114
 20
4677.931598713261
 30
0.0
 11
10687.97043893114
 21
2587.931598713261
 31
0.0
  0
LINE
  5
17501
330
747D
100
AcDbEntity
  8
細線
 48
50.0
100
AcDbLine
 10
10827.97043893114
 20
4677.931598713261
 30
0.0
 11
10827.97043893114
 21
2587.931598713261
 31
0.0
  0
LINE
  5
17502
330
747D
100
AcDbEntity
  8
細線
 48
50.0
100
AcDbLine
 10
10842.97043893114
 20
4677.931598713261
 30
0.0
 11
10842.97043893114
 21
2587.931598713261
 31
0.0
  0
LINE
  5
17503
330
747D
100
AcDbEntity
  8
細線
 48
50.0
100
AcDbLine
 10
10982.97043893114
 20
4677.931598713261
 30
0.0
 11
10982.97043893114
 21
2587.931598713261
 31
0.0
  0
LINE
  5
17504
330
747D
100
AcDbEntity
  8
細線
 48
50.0
100
AcDbLine
 10
10967.97043893114
 20
4677.931598713261
 30
0.0
 11
10967.97043893114
 21
2587.931598713261
 31
0.0
  0
LINE
  5
17505
330
747D
100
AcDbEntity
  8
部品1
100
AcDbLine
 10
9258.015425288101
 20
4911.649334047528
 30
0.0
 11
11173.0823157926
 21
4856.5723964224
 31
0.0
  0
LINE
  5
17506
330
747D
100
AcDbEntity
  8
部品1
100
AcDbLine
 10
9265.813003533095
 20
4770.712623782229
 30
0.0
 11
11155.13413947098
 21
4731.684198548022
 31
0.0
  0
LINE
  5
17507
330
747D
100
AcDbEntity
  8
細線
 48
50.0
100
AcDbLine
 10
9283.470438931141
 20
4910.331275088666
 30
0.0
 11
9278.181337375631
 21
4770.245642461311
 31
0.0
  0
LINE
  5
17508
330
747D
100
AcDbEntity
  8
細線
 48
50.0
100
AcDbLine
 10
11147.47043893114
 20
4857.898577748557
 30
0.0
 11
11142.72275604314
 21
4732.152805257813
 31
0.0
  0
LINE
  5
17509
330
747D
100
AcDbEntity
  8
部品1
 48
50.0
100
AcDbLine
 10
9250.654724844247
 20
4904.525144877954
 30
0.0
 11
9251.034984622059
 21
4884.598180431543
 31
0.0
  0
LINE
  5
1750A
330
747D
100
AcDbEntity
  8
部品1
 48
50.0
100
AcDbLine
 10
9254.103756728303
 20
4881.02289893807
 30
0.0
 11
9255.807658219671
 21
4791.732402231423
 31
0.0
  0
LINE
  5
1750B
330
747D
100
AcDbEntity
  8
細線
 48
50.0
100
AcDbLine
 10
9251.509862031953
 20
4883.948680554623
 30
0.0
 11
11177.14584677712
 21
4828.324475913795
 31
0.0
  0
LINE
  5
1750C
330
747D
100
AcDbEntity
  8
細線
 48
50.0
100
AcDbLine
 10
9256.27033726924
 20
4791.087168856759
 30
0.0
 11
11166.27400169987
 21
4751.277849882266
 31
0.0
  0
LINE
  5
1750D
330
747D
100
AcDbEntity
  8
部品1
 48
50.0
100
AcDbLine
 10
9258.87643032591
 20
4788.157120737952
 30
0.0
 11
9259.078382946343
 21
4777.574085344858
 31
0.0
  0
ARC
  5
1750E
330
747D
100
AcDbEntity
  8
部品1
 48
50.0
100
AcDbCircle
 10
9257.653450672586
 20
4904.658699285382
 30
0.0
 40
7.0
100
AcDbArc
 50
87.03587545283093
 51
181.0932240292895
  0
ARC
  5
1750F
330
747D
100
AcDbEntity
  8
部品1
 48
50.0
100
AcDbCircle
 10
9266.077108774682
 20
4777.707639752287
 30
0.0
 40
7.0
100
AcDbArc
 50
181.0932240292895
 51
267.8377559869489
  0
ARC
  5
17510
330
747D
100
AcDbEntity
  8
部品1
100
AcDbCircle
 10
9255.876976399479
 20
4788.099883134768
 30
0.0
 40
3.0
100
AcDbArc
 50
1.093224029289586
 51
80.18775403148559
  0
ARC
  5
17511
330
747D
100
AcDbEntity
  8
部品1
100
AcDbCircle
 10
9251.104302801875
 20
4880.965661334887
 30
0.0
 40
3.0
100
AcDbArc
 50
1.093224029289586
 51
80.18775403169765
  0
ARC
  5
17512
330
747D
100
AcDbEntity
  8
部品1
100
AcDbCircle
 10
9251.734857204896
 20
4884.611535872284
 30
0.0
 40
0.7
100
AcDbArc
 50
181.0932240292375
 51
260.1877540314855
  0
ARC
  5
17513
330
747D
100
AcDbEntity
  8
部品1
100
AcDbCircle
 10
9256.507530802505
 20
4791.745757672165
 30
0.0
 40
0.7
100
AcDbArc
 50
181.0932240292375
 51
260.1877540314855
  0
LINE
  5
17514
330
747D
100
AcDbEntity
  8
部品1
 48
50.0
100
AcDbLine
 10
11179.68434174184
 20
4848.87275098748
 30
0.0
 11
11177.65372055087
 21
4828.9277097297
 31
0.0
  0
LINE
  5
17515
330
747D
100
AcDbEntity
  8
部品1
 48
50.0
100
AcDbLine
 10
11174.30115406639
 20
4825.617075656791
 30
0.0
 11
11166.79437480155
 21
4751.884454911778
 31
0.0
  0
LINE
  5
17516
330
747D
100
AcDbEntity
  8
部品1
 48
50.0
100
AcDbLine
 10
11163.44180831706
 20
4748.573820838866
 30
0.0
 11
11162.36224527732
 21
4737.970203845308
 31
0.0
  0
ARC
  5
17517
330
747D
100
AcDbEntity
  8
部品1
 48
50.0
100
AcDbCircle
 10
11172.72034117708
 20
4849.581761660254
 30
0.0
 40
7.0
100
AcDbArc
 50
354.1866997665337
 51
87.03587545283093
  0
ARC
  5
17518
330
747D
100
AcDbEntity
  8
部品1
 48
50.0
100
AcDbCircle
 10
11155.39824471257
 20
4738.679214518081
 30
0.0
 40
7.0
100
AcDbArc
 50
267.8377559869489
 51
354.1866997665337
  0
ARC
  5
17519
330
747D
100
AcDbEntity
  8
部品1
100
AcDbCircle
 10
11166.42637998767
 20
4748.269959121963
 30
0.0
 40
3.0
100
AcDbArc
 50
95.0921697642102
 51
174.1866997665337
  0
ARC
  5
1751A
330
747D
100
AcDbEntity
  8
部品1
100
AcDbCircle
 10
11177.285725737
 20
4825.313213939888
 30
0.0
 40
3.0
100
AcDbArc
 50
95.09216976441955
 51
174.1866997665337
  0
ARC
  5
1751B
330
747D
100
AcDbEntity
  8
部品1
100
AcDbCircle
 10
11176.9573204944
 20
4828.998610796977
 30
0.0
 40
0.7
100
AcDbArc
 50
275.0921697642102
 51
354.1866997665337
  0
ARC
  5
1751C
330
747D
100
AcDbEntity
  8
部品1
100
AcDbCircle
 10
11166.09797474507
 20
4751.955355979053
 30
0.0
 40
0.7
100
AcDbArc
 50
275.0921697642102
 51
354.1866997666892
  0
DIMENSION
  5
1751D
330
747D
100
AcDbEntity
  8
寸法
 48
50.0
100
AcDbDimension
  2
*D18
 10
8689.86203216278
 20
4787.276857586584
 30
0.0
 11
8700.527507421702
 21
5158.123520828286
 31
0.0
 70
   161
 71
     5
 42
141.0
  3
INABA_S40G
100
AcDbAlignedDimension
 13
9269.866459089719
 23
4911.654347547941
 33
0.0
 14
9265.813003533095
 24
4770.712623782229
 34
0.0
1001
ACAD
1000
DSTYLE
1002
{
1070
   174
1070
     0
1070
   272
1070
     1
1070
   288
1070
     0
1070
   341
1005
0
1002
}
  0
DIMENSION
  5
1751E
330
747D
100
AcDbEntity
  8
寸法
 48
50.0
100
AcDbDimension
  2
*D19
 10
9250.470438931142
 20
5312.024768052735
 30
0.0
 11
8940.832643655552
 21
5312.024768052735
 31
0.0
 70
   160
 71
     5
 42
60.0
  3
INABA_S40G
100
AcDbAlignedDimension
 13
9310.47043893114
 23
4908.933216836238
 33
0.0
 14
9250.470438931142
 24
4912.931598713266
 34
0.0
100
AcDbRotatedDimension
1001
ACAD
1000
DSTYLE
1002
{
1070
   174
1070
     0
1070
   272
1070
     1
1070
   288
1070
     0
1070
   341
1005
0
1002
}
  0
LINE
  5
1751F
330
747D
100
AcDbEntity
  8
部品1
 48
50.0
100
AcDbLine
 10
10055.47043893114
 20
5043.799737814541
 30
0.0
 11
10355.47043893114
 21
5043.799737814541
 31
0.0
  0
LINE
  5
17520
330
747D
100
AcDbEntity
  8
部品1
 48
50.0
100
AcDbLine
 10
10355.47043893114
 20
5043.799737814541
 30
0.0
 11
10355.47043893114
 21
5027.599737814542
 31
0.0
  0
TEXT
  5
17521
330
747D
100
AcDbEntity
  8
部品1
 48
50.0
100
AcDbText
 10
10043.73827415486
 20
5079.683759966974
 30
0.0
 40
120.0
  1
1000
  7
STYLE1
100
AcDbText
  0
TEXT
  5
17522
330
747D
100
AcDbEntity
  8
部品1
 48
50.0
100
AcDbText
 10
10532.563286219
 20
4942.182501748692
 30
0.0
 40
120.0
  1
54
 50
90.0
  7
STYLE1
100
AcDbText
  0
LINE
  5
17523
330
747D
100
AcDbEntity
  8
部品1
 48
50.0
100
AcDbLine
 10
10055.47043893114
 20
5043.799737814541
 30
0.0
 11
10355.47043893114
 21
5027.599737814542
 31
0.0
  0
DIMENSION
  5
17524
330
747D
100
AcDbEntity
  8
寸法
 48
50.0
100
AcDbDimension
  2
*D20
 10
9310.47043893114
 20
5312.024768052735
 30
0.0
 11
10205.47043893114
 21
5312.024768052735
 31
0.0
 70
   160
  1
柱外寸法<>
 71
     5
 42
1790.0
  3
INABA_S40G
100
AcDbAlignedDimension
 13
11100.47043893114
 23
4859.742278324915
 33
0.0
 14
9310.47043893114
 24
4908.933216836238
 34
0.0
100
AcDbRotatedDimension
1001
ACAD
1000
DSTYLE
1002
{
1070
   174
1070
     0
1070
   272
1070
     1
1070
   288
1070
     0
1070
   341
1005
0
1002
}
  0
DIMENSION
  5
17525
330
747D
100
AcDbEntity
  8
寸法
 48
50.0
100
AcDbDimension
  2
*D21
 10
9250.470438931142
 20
5528.55086767118
 30
0.0
 11
10215.47043893114
 21
5528.55086767118
 31
0.0
 70
   160
 71
     5
 42
1930.0
  3
INABA_S40G
100
AcDbAlignedDimension
 13
11180.47043893114
 23
4857.931598713262
 33
0.0
 14
9250.470438931142
 24
4912.931598713266
 34
0.0
100
AcDbRotatedDimension
1001
ACAD
1000
DSTYLE
1002
{
1070
   174
1070
     0
1070
   272
1070
     1
1070
   288
1070
     0
1070
   341
1005
0
1002
}
  0
DIMENSION
  5
17526
330
747D
100
AcDbEntity
  8
寸法
 48
50.0
100
AcDbDimension
  2
*D22
 10
11180.47043893114
 20
5312.024768052735
 30
0.0
 11
11386.51768302563
 21
5312.024768052735
 31
0.0
 70
   160
 71
     5
 42
80.0
  3
INABA_S40G
100
AcDbAlignedDimension
 13
11100.47043893114
 23
4859.742278324915
 33
0.0
 14
11180.47043893114
 24
4857.931598713262
 34
0.0
100
AcDbRotatedDimension
1001
ACAD
1000
DSTYLE
1002
{
1070
   174
1070
     0
1070
   272
1070
     1
1070
   288
1070
     0
1070
   341
1005
0
1002
}
  0
LINE
  5
17527
330
747D
100
AcDbEntity
  8
部品1
100
AcDbLine
 10
5164.673057123657
 20
4677.931598713261
 30
0.0
 11
7374.673057123657
 21
4677.931598713261
 31
0.0
  0
DIMENSION
  5
17528
330
747D
100
AcDbEntity
  8
寸法
 48
50.0
100
AcDbDimension
  2
*D23
 10
7424.673057123666
 20
5333.301987862157
 30
0.0
 11
6269.673057123657
 21
5333.301987862157
 31
0.0
 70
   160
 71
     5
 42
2310.000000000018
  3
INABA_S40G
100
AcDbAlignedDimension
 13
5114.673057123647
 23
4912.931598713267
 33
0.0
 14
7424.673057123666
 24
4912.931598713264
 34
0.0
100
AcDbRotatedDimension
1001
ACAD
1000
DSTYLE
1002
{
1070
   341
1005
0
1002
}
  0
DIMENSION
  5
17529
330
747D
100
AcDbEntity
  8
寸法
 48
50.0
100
AcDbDimension
  2
*D24
 10
7374.673057123665
 20
5117.073829981253
 30
0.0
 11
7738.158338497902
 21
5117.073829981253
 31
0.0
 70
   160
 71
     5
 42
50.0
  3
INABA_S40G
100
AcDbAlignedDimension
 13
7424.673057123666
 23
4912.931598713264
 33
0.0
 14
7374.673057123665
 24
4912.931598713267
 34
0.0
100
AcDbRotatedDimension
  0
DIMENSION
  5
1752A
330
747D
100
AcDbEntity
  8
寸法
 48
50.0
100
AcDbDimension
  2
*D25
 10
5114.673057123647
 20
5117.073829981253
 30
0.0
 11
4801.187775749401
 21
5117.073829981253
 31
0.0
 70
   160
 71
     5
 42
50.0
  3
INABA_S40G
100
AcDbAlignedDimension
 13
5164.673057123647
 23
4912.931598713267
 33
0.0
 14
5114.673057123647
 24
4912.931598713267
 34
0.0
100
AcDbRotatedDimension
1001
ACAD
1000
DSTYLE
1002
{
1002
}
  0
DIMENSION
  5
1752B
330
747D
100
AcDbEntity
  8
寸法
 48
50.0
100
AcDbDimension
  2
*D26
 10
5164.673057123647
 20
5117.073829981253
 30
0.0
 11
6269.673057123657
 21
5117.073829981253
 31
0.0
 70
   160
  1
柱外寸法<>
 71
     5
 42
2210.000000000018
  3
INABA_S40G
100
AcDbAlignedDimension
 13
7374.673057123665
 23
4912.931598713267
 33
0.0
 14
5164.673057123647
 24
4912.931598713267
 34
0.0
100
AcDbRotatedDimension
1001
ACAD
1000
DSTYLE
1002
{
1070
   341
1005
0
1002
}
  0
ARC
  5
1752C
330
747D
100
AcDbEntity
  8
部品1
 48
0.01
100
AcDbCircle
 10
6796.673057123665
 20
4710.431598713261
 30
0.0
 40
2.0
100
AcDbArc
 50
180.0
 51
270.0
  0
ARC
  5
1752D
330
747D
100
AcDbEntity
  8
部品1
 48
0.01
100
AcDbCircle
 10
6796.673057123665
 20
4741.931598713261
 30
0.0
 40
2.0
100
AcDbArc
 50
90.0
 51
180.0
  0
ARC
  5
1752E
330
747D
100
AcDbEntity
  8
部品1
 48
0.01
100
AcDbCircle
 10
6972.673057123666
 20
4710.431598713261
 30
0.0
 40
2.0
100
AcDbArc
 50
270.0
 51
0.0
  0
ARC
  5
1752F
330
747D
100
AcDbEntity
  8
部品1
 48
0.01
100
AcDbCircle
 10
6972.673057123666
 20
4741.931598713261
 30
0.0
 40
2.0
100
AcDbArc
 50
0.0
 51
90.0
  0
LINE
  5
17530
330
747D
100
AcDbEntity
  8
細線
100
AcDbLine
 10
6884.673057123666
 20
4714.431598713261
 30
0.0
 11
6810.673057123665
 21
4714.431598713261
 31
0.0
  0
LINE
  5
17531
330
747D
100
AcDbEntity
  8
細線
100
AcDbLine
 10
6884.673057123666
 20
4737.431598713261
 30
0.0
 11
6958.673057123665
 21
4737.431598713261
 31
0.0
  0
LINE
  5
17532
330
747D
100
AcDbEntity
  8
細線
100
AcDbLine
 10
6958.673057123665
 20
4714.431598713261
 30
0.0
 11
6884.673057123666
 21
4714.431598713261
 31
0.0
  0
LINE
  5
17533
330
747D
100
AcDbEntity
  8
細線
100
AcDbLine
 10
6810.673057123665
 20
4737.431598713261
 30
0.0
 11
6884.673057123666
 21
4737.431598713261
 31
0.0
  0
LINE
  5
17534
330
747D
100
AcDbEntity
  8
細線
100
AcDbLine
 10
6810.673057123665
 20
4714.431598713261
 30
0.0
 11
6810.673057123665
 21
4737.431598713261
 31
0.0
  0
LINE
  5
17535
330
747D
100
AcDbEntity
  8
細線
100
AcDbLine
 10
6958.673057123665
 20
4737.431598713261
 30
0.0
 11
6958.673057123665
 21
4714.431598713261
 31
0.0
  0
LINE
  5
17536
330
747D
100
AcDbEntity
  8
部品1
 48
0.01
100
AcDbLine
 10
6794.673057123666
 20
4710.431598713261
 30
0.0
 11
6794.673057123666
 21
4741.931598713261
 31
0.0
  0
LINE
  5
17537
330
747D
100
AcDbEntity
  8
部品1
 48
0.01
100
AcDbLine
 10
6972.673057123666
 20
4708.431598713261
 30
0.0
 11
6796.673057123665
 21
4708.431598713261
 31
0.0
  0
LINE
  5
17538
330
747D
100
AcDbEntity
  8
部品1
 48
0.01
100
AcDbLine
 10
6974.673057123665
 20
4741.931598713261
 30
0.0
 11
6974.673057123665
 21
4710.431598713261
 31
0.0
  0
LINE
  5
17539
330
747D
100
AcDbEntity
  8
部品1
 48
0.01
100
AcDbLine
 10
6796.673057123665
 20
4743.931598713261
 30
0.0
 11
6972.673057123666
 21
4743.931598713261
 31
0.0
  0
LINE
  5
1753A
330
747D
100
AcDbEntity
  8
細線
100
AcDbLine
 10
6958.673057123665
 20
4731.431598713261
 30
0.0
 11
6884.673057123666
 21
4731.431598713261
 31
0.0
  0
LINE
  5
1753B
330
747D
100
AcDbEntity
  8
細線
100
AcDbLine
 10
6958.673057123665
 20
4725.431598713261
 30
0.0
 11
6884.673057123666
 21
4725.431598713261
 31
0.0
  0
LINE
  5
1753C
330
747D
100
AcDbEntity
  8
細線
100
AcDbLine
 10
6958.673057123665
 20
4719.431598713261
 30
0.0
 11
6884.673057123666
 21
4719.431598713261
 31
0.0
  0
LINE
  5
1753D
330
747D
100
AcDbEntity
  8
細線
100
AcDbLine
 10
6958.673057123665
 20
4731.431598713261
 30
0.0
 11
6889.673057123665
 21
4731.431598713261
 31
0.0
  0
LINE
  5
1753E
330
747D
100
AcDbEntity
  8
細線
100
AcDbLine
 10
6810.673057123665
 20
4731.431598713261
 30
0.0
 11
6884.673057123666
 21
4731.431598713261
 31
0.0
  0
LINE
  5
1753F
330
747D
100
AcDbEntity
  8
細線
100
AcDbLine
 10
6810.673057123665
 20
4719.431598713261
 30
0.0
 11
6884.673057123666
 21
4719.431598713261
 31
0.0
  0
LINE
  5
17540
330
747D
100
AcDbEntity
  8
細線
100
AcDbLine
 10
6810.673057123665
 20
4725.431598713261
 30
0.0
 11
6884.673057123666
 21
4725.431598713261
 31
0.0
  0
LINE
  5
17541
330
747D
100
AcDbEntity
  8
細線
100
AcDbLine
 10
6884.673057123666
 20
4737.431598713261
 30
0.0
 11
6884.673057123666
 21
4714.431598713261
 31
0.0
  0
LINE
  5
17542
330
747D
100
AcDbEntity
  8
細線
100
AcDbLine
 10
5654.673057123648
 20
4737.431598713261
 30
0.0
 11
5654.673057123646
 21
4714.431598713261
 31
0.0
  0
LINE
  5
17543
330
747D
100
AcDbEntity
  8
細線
100
AcDbLine
 10
5728.673057123646
 20
4725.431598713261
 30
0.0
 11
5654.673057123648
 21
4725.431598713261
 31
0.0
  0
LINE
  5
17544
330
747D
100
AcDbEntity
  8
細線
100
AcDbLine
 10
5728.673057123646
 20
4719.431598713259
 30
0.0
 11
5654.673057123648
 21
4719.431598713261
 31
0.0
  0
LINE
  5
17545
330
747D
100
AcDbEntity
  8
細線
100
AcDbLine
 10
5728.673057123646
 20
4731.43159871326
 30
0.0
 11
5654.673057123648
 21
4731.431598713261
 31
0.0
  0
LINE
  5
17546
330
747D
100
AcDbEntity
  8
細線
100
AcDbLine
 10
5580.673057123648
 20
4731.431598713261
 30
0.0
 11
5649.673057123647
 21
4731.431598713261
 31
0.0
  0
LINE
  5
17547
330
747D
100
AcDbEntity
  8
細線
100
AcDbLine
 10
5580.673057123646
 20
4719.431598713261
 30
0.0
 11
5654.673057123648
 21
4719.431598713261
 31
0.0
  0
LINE
  5
17548
330
747D
100
AcDbEntity
  8
細線
100
AcDbLine
 10
5580.673057123648
 20
4725.431598713261
 30
0.0
 11
5654.673057123648
 21
4725.431598713261
 31
0.0
  0
LINE
  5
17549
330
747D
100
AcDbEntity
  8
細線
100
AcDbLine
 10
5580.673057123648
 20
4731.431598713261
 30
0.0
 11
5654.673057123648
 21
4731.431598713261
 31
0.0
  0
LINE
  5
1754A
330
747D
100
AcDbEntity
  8
部品1
 48
0.01
100
AcDbLine
 10
5742.673057123647
 20
4743.931598713261
 30
0.0
 11
5566.673057123647
 21
4743.931598713261
 31
0.0
  0
LINE
  5
1754B
330
747D
100
AcDbEntity
  8
部品1
 48
0.01
100
AcDbLine
 10
5564.673057123648
 20
4741.931598713261
 30
0.0
 11
5564.673057123648
 21
4710.431598713261
 31
0.0
  0
LINE
  5
1754C
330
747D
100
AcDbEntity
  8
部品1
 48
0.01
100
AcDbLine
 10
5566.673057123647
 20
4708.431598713261
 30
0.0
 11
5742.673057123646
 21
4708.431598713261
 31
0.0
  0
LINE
  5
1754D
330
747D
100
AcDbEntity
  8
部品1
 48
0.01
100
AcDbLine
 10
5744.673057123645
 20
4710.431598713261
 30
0.0
 11
5744.673057123648
 21
4741.931598713261
 31
0.0
  0
LINE
  5
1754E
330
747D
100
AcDbEntity
  8
細線
100
AcDbLine
 10
5580.673057123648
 20
4737.431598713261
 30
0.0
 11
5580.673057123648
 21
4714.431598713261
 31
0.0
  0
LINE
  5
1754F
330
747D
100
AcDbEntity
  8
細線
100
AcDbLine
 10
5728.673057123647
 20
4714.431598713261
 30
0.0
 11
5728.673057123647
 21
4737.431598713261
 31
0.0
  0
LINE
  5
17550
330
747D
100
AcDbEntity
  8
細線
100
AcDbLine
 10
5728.673057123647
 20
4737.431598713261
 30
0.0
 11
5654.673057123648
 21
4737.431598713261
 31
0.0
  0
LINE
  5
17551
330
747D
100
AcDbEntity
  8
細線
100
AcDbLine
 10
5580.673057123648
 20
4714.431598713261
 30
0.0
 11
5654.673057123648
 21
4714.431598713261
 31
0.0
  0
LINE
  5
17552
330
747D
100
AcDbEntity
  8
細線
100
AcDbLine
 10
5654.673057123648
 20
4737.431598713261
 30
0.0
 11
5580.673057123648
 21
4737.431598713261
 31
0.0
  0
LINE
  5
17553
330
747D
100
AcDbEntity
  8
細線
100
AcDbLine
 10
5654.673057123646
 20
4714.431598713261
 30
0.0
 11
5728.673057123647
 21
4714.431598713261
 31
0.0
  0
ARC
  5
17554
330
747D
100
AcDbEntity
  8
部品1
 48
0.01
100
AcDbCircle
 10
5566.673057123647
 20
4741.931598713261
 30
0.0
 40
2.0
100
AcDbArc
 50
90.0
 51
180.0
  0
ARC
  5
17555
330
747D
100
AcDbEntity
  8
部品1
 48
0.01
100
AcDbCircle
 10
5566.673057123647
 20
4710.431598713261
 30
0.0
 40
2.0
100
AcDbArc
 50
180.0
 51
270.0
  0
ARC
  5
17556
330
747D
100
AcDbEntity
  8
部品1
 48
0.01
100
AcDbCircle
 10
5742.673057123647
 20
4741.931598713261
 30
0.0
 40
2.0
100
AcDbArc
 50
0.0
 51
90.0
  0
ARC
  5
17557
330
747D
100
AcDbEntity
  8
部品1
 48
0.01
100
AcDbCircle
 10
5742.673057123646
 20
4710.431598713261
 30
0.0
 40
2.0
100
AcDbArc
 50
270.0
 51
0.0
  0
LINE
  5
17558
330
747D
100
AcDbEntity
  8
部品1
 48
50.0
100
AcDbLine
 10
7417.264636017233
 20
4912.931598713265
 30
0.0
 11
5122.081478230079
 21
4912.931598713265
 31
0.0
  0
LINE
  5
17559
330
747D
100
AcDbEntity
  8
部品1
 48
50.0
100
AcDbLine
 10
7404.0493125562
 20
4771.931598713266
 30
0.0
 11
5135.296801691112
 21
4771.931598713266
 31
0.0
  0
LINE
  5
1755A
330
747D
100
AcDbEntity
  8
細線
 48
50.0
100
AcDbLine
 10
7422.514406111748
 20
4884.904841276733
 30
0.0
 11
5116.831708135607
 21
4884.904841277053
 31
0.0
  0
LINE
  5
1755B
330
747D
100
AcDbEntity
  8
細線
 48
50.0
100
AcDbLine
 10
7414.278375586862
 20
4792.704841277051
 30
0.0
 11
5125.067738660447
 21
4792.704841277051
 31
0.0
  0
LINE
  5
1755C
330
747D
100
AcDbEntity
  8
部品1
100
AcDbLine
 10
7424.253396108333
 20
4905.535073318026
 30
0.0
 11
7423.119998775987
 21
4885.558945335426
 31
0.0
  0
LINE
  5
1755D
330
747D
100
AcDbEntity
  8
細線
 48
50.0
100
AcDbLine
 10
7391.673057123665
 20
4912.931598713265
 30
0.0
 11
7391.673057123665
 21
4771.931598713265
 31
0.0
  0
LINE
  5
1755E
330
747D
100
AcDbEntity
  8
細線
 48
50.0
100
AcDbLine
 10
5147.673057123648
 20
4912.931598713265
 30
0.0
 11
5147.673057123648
 21
4771.931598713265
 31
0.0
  0
LINE
  5
1755F
330
747D
100
AcDbEntity
  8
部品1
100
AcDbLine
 10
7411.682978454409
 20
4789.901538168366
 30
0.0
 11
7411.038072647298
 21
4778.535073318027
 31
0.0
  0
LINE
  5
17560
330
747D
100
AcDbEntity
  8
部品1
100
AcDbLine
 10
7419.919008979253
 20
4882.101538168369
 30
0.0
 11
7414.883968251142
 21
4793.358945335425
 31
0.0
  0
ARC
  5
17561
330
747D
100
AcDbEntity
  8
部品1
 48
50.0
100
AcDbCircle
 10
7422.914191875439
 20
4881.931598713267
 30
0.0
 40
3.0
100
AcDbArc
 50
97.65812720736347
 51
176.7526572096682
  0
ARC
  5
17562
330
747D
100
AcDbEntity
  8
部品1
 48
50.0
100
AcDbCircle
 10
7414.678161350595
 20
4789.731598713264
 30
0.0
 40
3.0
100
AcDbArc
 50
97.65812720736347
 51
176.7526572096682
  0
ARC
  5
17563
330
747D
100
AcDbEntity
  8
部品1
 48
50.0
100
AcDbCircle
 10
7414.185092242035
 20
4793.398597874948
 30
0.0
 40
0.7
100
AcDbArc
 50
277.6581272073635
 51
356.7526572097137
  0
ARC
  5
17564
330
747D
100
AcDbEntity
  8
部品1
 48
50.0
100
AcDbCircle
 10
7422.421122766879
 20
4885.598597874951
 30
0.0
 40
0.7
100
AcDbArc
 50
277.6581272073635
 51
356.7526572096162
  0
ARC
  5
17565
330
747D
100
AcDbEntity
  8
部品1
100
AcDbCircle
 10
7404.0493125562
 20
4778.931598713266
 30
0.0
 40
7.0
100
AcDbArc
 50
270.0
 51
356.7526572096682
  0
ARC
  5
17566
330
747D
100
AcDbEntity
  8
部品1
100
AcDbCircle
 10
7417.264636017233
 20
4905.931598713265
 30
0.0
 40
7.0
100
AcDbArc
 50
356.7526572096682
 51
90.0
  0
ARC
  5
17567
330
747D
100
AcDbEntity
  8
部品1
100
AcDbCircle
 10
5122.081478230079
 20
4905.931598713265
 30
0.0
 40
7.0
100
AcDbArc
 50
90.0
 51
183.2473427903317
  0
ARC
  5
17568
330
747D
100
AcDbEntity
  8
部品1
100
AcDbCircle
 10
5135.296801691112
 20
4778.931598713266
 30
0.0
 40
7.0
100
AcDbArc
 50
183.2473427903317
 51
270.0
  0
ARC
  5
17569
330
747D
100
AcDbEntity
  8
部品1
 48
50.0
100
AcDbCircle
 10
5116.924991480435
 20
4885.598597874951
 30
0.0
 40
0.7
100
AcDbArc
 50
183.2473427903838
 51
262.3418727926365
  0
ARC
  5
1756A
330
747D
100
AcDbEntity
  8
部品1
 48
50.0
100
AcDbCircle
 10
5125.161022005276
 20
4793.398597874948
 30
0.0
 40
0.7
100
AcDbArc
 50
183.2473427902862
 51
262.3418727926365
  0
ARC
  5
1756B
330
747D
100
AcDbEntity
  8
部品1
 48
50.0
100
AcDbCircle
 10
5124.667952896714
 20
4789.731598713264
 30
0.0
 40
3.0
100
AcDbArc
 50
3.247342790331777
 51
82.34187279263654
  0
ARC
  5
1756C
330
747D
100
AcDbEntity
  8
部品1
 48
50.0
100
AcDbCircle
 10
5116.431922371872
 20
4881.931598713267
 30
0.0
 40
3.0
100
AcDbArc
 50
3.247342790331777
 51
82.34187279263654
  0
LINE
  5
1756D
330
747D
100
AcDbEntity
  8
部品1
100
AcDbLine
 10
5119.427105268056
 20
4882.101538168369
 30
0.0
 11
5124.462145996167
 21
4793.358945335425
 31
0.0
  0
LINE
  5
1756E
330
747D
100
AcDbEntity
  8
部品1
100
AcDbLine
 10
5127.663135792904
 20
4789.901538168366
 30
0.0
 11
5128.308041600012
 21
4778.535073318027
 31
0.0
  0
LINE
  5
1756F
330
747D
100
AcDbEntity
  8
部品1
100
AcDbLine
 10
5115.09271813898
 20
4905.535073318026
 30
0.0
 11
5116.226115471327
 21
4885.558945335426
 31
0.0
  0
INSERT
  5
175CA
330
747D
100
AcDbEntity
  8
破線
 48
50.0
100
AcDbBlockReference
  2
A$C0F9D2380
 10
10105.47043893114
 20
2437.931598713261
 30
0.0
  0
LINE
  5
175CB
330
747D
100
AcDbEntity
  8
部品1
100
AcDbLine
 10
9765.470438931139
 20
2537.931598713262
 30
0.0
 11
9765.470438931139
 21
2437.931598713261
 31
0.0
  0
LINE
  5
175CD
330
747D
100
AcDbEntity
  8
破線
  6
HIDDEN
 48
5.0
100
AcDbLine
 10
11107.97043893114
 20
2282.931598713261
 30
0.0
 11
11037.97043893113
 21
2282.931598713261
 31
0.0
  0
LINE
  5
175D1
330
747D
100
AcDbEntity
  8
部品1
100
AcDbLine
 10
10900.47043893114
 20
2537.931598713262
 30
0.0
 11
10900.47043893114
 21
2437.931598713261
 31
0.0
  0
LINE
  5
175D2
330
747D
100
AcDbEntity
  8
部品1
100
AcDbLine
 10
5219.673057123657
 20
2537.931598713261
 30
0.0
 11
7319.673057123655
 21
2537.931598713262
 31
0.0
  0
LINE
  5
175D3
330
747D
100
AcDbEntity
  8
部品1
100
AcDbLine
 10
7174.673057123652
 20
2537.931598713262
 30
0.0
 11
7174.673057123651
 21
2437.931598713261
 31
0.0
  0
LINE
  5
175D4
330
747D
100
AcDbEntity
  8
部品1
100
AcDbLine
 10
6974.673057123652
 20
2537.931598713262
 30
0.0
 11
6974.673057123651
 21
2437.931598713261
 31
0.0
  0
LINE
  5
175D7
330
747D
100
AcDbEntity
  8
部品1
100
AcDbLine
 10
5564.673057123659
 20
2537.931598713262
 30
0.0
 11
5564.673057123659
 21
2437.931598713261
 31
0.0
  0
LINE
  5
175D8
330
747D
100
AcDbEntity
  8
部品1
100
AcDbLine
 10
5364.673057123659
 20
2537.931598713262
 30
0.0
 11
5364.673057123659
 21
2437.931598713261
 31
0.0
  0
ARC
  5
175E4
330
747D
100
AcDbEntity
  8
細線
 48
50.0
100
AcDbCircle
 10
5969.673057123655
 20
3150.431598713261
 30
0.0
 40
15.0
100
AcDbArc
 50
90.0
 51
270.0
  0
ARC
  5
175E5
330
747D
100
AcDbEntity
  8
細線
 48
50.0
100
AcDbCircle
 10
6069.673057123655
 20
3150.431598713261
 30
0.0
 40
15.0
100
AcDbArc
 50
270.0
 51
90.0
  0
LINE
  5
175E6
330
747D
100
AcDbEntity
  8
細線
 48
50.0
100
AcDbLine
 10
5969.673057123655
 20
3165.431598713261
 30
0.0
 11
6069.673057123655
 21
3165.431598713261
 31
0.0
  0
LINE
  5
175E7
330
747D
100
AcDbEntity
  8
細線
 48
50.0
100
AcDbLine
 10
6069.673057123655
 20
3135.431598713262
 30
0.0
 11
5969.673057123655
 21
3135.431598713262
 31
0.0
  0
LINE
  5
175E8
330
747D
100
AcDbEntity
  8
細線
 48
50.0
100
AcDbLine
 10
6569.673057123655
 20
3135.431598713262
 30
0.0
 11
6469.673057123654
 21
3135.431598713262
 31
0.0
  0
LINE
  5
175E9
330
747D
100
AcDbEntity
  8
細線
 48
50.0
100
AcDbLine
 10
6469.673057123654
 20
3165.431598713261
 30
0.0
 11
6569.673057123655
 21
3165.431598713261
 31
0.0
  0
ARC
  5
175EA
330
747D
100
AcDbEntity
  8
細線
 48
50.0
100
AcDbCircle
 10
6469.673057123654
 20
3150.431598713261
 30
0.0
 40
15.0
100
AcDbArc
 50
90.0
 51
270.0
  0
ARC
  5
175EB
330
747D
100
AcDbEntity
  8
細線
 48
50.0
100
AcDbCircle
 10
6569.673057123655
 20
3150.431598713261
 30
0.0
 40
15.0
100
AcDbArc
 50
270.0
 51
90.0
  0
CIRCLE
  5
175EC
330
747D
100
AcDbEntity
  8
細線
 48
50.0
100
AcDbCircle
 10
6269.673057123655
 20
3475.431598713262
 30
0.0
 40
18.0
  0
LINE
  5
17606
330
747D
100
AcDbEntity
  8
細線
100
AcDbLine
 10
7271.673057123656
 20
2597.931598713262
 30
0.0
 11
5267.673057123651
 21
2597.931598713262
 31
0.0
  0
LINE
  5
17607
330
747D
100
AcDbEntity
  8
細線
100
AcDbLine
 10
5267.673057123653
 20
3117.931598713262
 30
0.0
 11
7271.673057123655
 21
3117.931598713262
 31
0.0
  0
LINE
  5
17608
330
747D
100
AcDbEntity
  8
細線
100
AcDbLine
 10
5267.673057123653
 20
3052.931598713261
 30
0.0
 11
7271.673057123655
 21
3052.931598713261
 31
0.0
  0
LINE
  5
17609
330
747D
100
AcDbEntity
  8
細線
100
AcDbLine
 10
5267.673057123653
 20
2987.931598713262
 30
0.0
 11
7271.673057123655
 21
2987.931598713262
 31
0.0
  0
LINE
  5
1760A
330
747D
100
AcDbEntity
  8
細線
100
AcDbLine
 10
5267.673057123653
 20
2922.931598713262
 30
0.0
 11
7271.673057123655
 21
2922.931598713262
 31
0.0
  0
LINE
  5
1760B
330
747D
100
AcDbEntity
  8
細線
100
AcDbLine
 10
5267.673057123653
 20
2857.931598713261
 30
0.0
 11
7271.673057123655
 21
2857.931598713261
 31
0.0
  0
LINE
  5
1760C
330
747D
100
AcDbEntity
  8
細線
100
AcDbLine
 10
5267.673057123653
 20
2792.931598713261
 30
0.0
 11
7271.673057123655
 21
2792.931598713261
 31
0.0
  0
LINE
  5
1760D
330
747D
100
AcDbEntity
  8
細線
100
AcDbLine
 10
5267.673057123653
 20
2727.931598713261
 30
0.0
 11
7271.673057123655
 21
2727.931598713261
 31
0.0
  0
LINE
  5
1760E
330
747D
100
AcDbEntity
  8
細線
100
AcDbLine
 10
5267.673057123653
 20
2662.931598713262
 30
0.0
 11
7271.673057123655
 21
2662.931598713262
 31
0.0
  0
LINE
  5
1760F
330
747D
100
AcDbEntity
  8
細線
100
AcDbLine
 10
5267.673057123653
 20
2597.931598713262
 30
0.0
 11
7271.673057123655
 21
2597.931598713262
 31
0.0
  0
LINE
  5
17610
330
747D
100
AcDbEntity
  8
細線
100
AcDbLine
 10
5267.673057123653
 20
4417.931598713261
 30
0.0
 11
7271.673057123655
 21
4417.931598713261
 31
0.0
  0
LINE
  5
17611
330
747D
100
AcDbEntity
  8
細線
100
AcDbLine
 10
5267.673057123653
 20
4482.931598713261
 30
0.0
 11
7271.673057123655
 21
4482.931598713261
 31
0.0
  0
LINE
  5
17612
330
747D
100
AcDbEntity
  8
細線
100
AcDbLine
 10
5267.673057123653
 20
3767.931598713261
 30
0.0
 11
7271.673057123655
 21
3767.931598713261
 31
0.0
  0
LINE
  5
17613
330
747D
100
AcDbEntity
  8
細線
100
AcDbLine
 10
5267.673057123653
 20
3702.931598713262
 30
0.0
 11
7271.673057123655
 21
3702.931598713262
 31
0.0
  0
LINE
  5
17614
330
747D
100
AcDbEntity
  8
細線
100
AcDbLine
 10
5267.673057123653
 20
3637.931598713262
 30
0.0
 11
7271.673057123655
 21
3637.931598713262
 31
0.0
  0
LINE
  5
17615
330
747D
100
AcDbEntity
  8
細線
100
AcDbLine
 10
5267.673057123653
 20
3572.931598713262
 30
0.0
 11
7271.673057123655
 21
3572.931598713262
 31
0.0
  0
LINE
  5
17616
330
747D
100
AcDbEntity
  8
細線
100
AcDbLine
 10
5267.673057123653
 20
3507.931598713262
 30
0.0
 11
7271.673057123655
 21
3507.931598713262
 31
0.0
  0
LINE
  5
17617
330
747D
100
AcDbEntity
  8
細線
100
AcDbLine
 10
5267.673057123653
 20
3442.931598713261
 30
0.0
 11
7271.673057123655
 21
3442.931598713261
 31
0.0
  0
LINE
  5
17618
330
747D
100
AcDbEntity
  8
細線
100
AcDbLine
 10
5267.673057123653
 20
3377.931598713261
 30
0.0
 11
7271.673057123655
 21
3377.931598713261
 31
0.0
  0
LINE
  5
17619
330
747D
100
AcDbEntity
  8
細線
100
AcDbLine
 10
5267.673057123653
 20
3312.931598713261
 30
0.0
 11
7271.673057123655
 21
3312.931598713261
 31
0.0
  0
LINE
  5
1761A
330
747D
100
AcDbEntity
  8
細線
100
AcDbLine
 10
5267.673057123653
 20
3247.931598713261
 30
0.0
 11
7271.673057123655
 21
3247.931598713261
 31
0.0
  0
LINE
  5
1761B
330
747D
100
AcDbEntity
  8
細線
100
AcDbLine
 10
5267.673057123653
 20
3182.931598713262
 30
0.0
 11
7271.673057123655
 21
3182.931598713262
 31
0.0
  0
LINE
  5
1761C
330
747D
100
AcDbEntity
  8
細線
100
AcDbLine
 10
5267.673057123653
 20
4157.931598713261
 30
0.0
 11
7271.673057123655
 21
4157.931598713261
 31
0.0
  0
LINE
  5
1761D
330
747D
100
AcDbEntity
  8
細線
100
AcDbLine
 10
5267.673057123653
 20
4092.931598713261
 30
0.0
 11
7271.673057123655
 21
4092.931598713261
 31
0.0
  0
LINE
  5
1761E
330
747D
100
AcDbEntity
  8
細線
100
AcDbLine
 10
5267.673057123653
 20
4027.931598713261
 30
0.0
 11
7271.673057123655
 21
4027.931598713261
 31
0.0
  0
LINE
  5
1761F
330
747D
100
AcDbEntity
  8
細線
100
AcDbLine
 10
5267.673057123653
 20
3962.931598713261
 30
0.0
 11
7271.673057123655
 21
3962.931598713261
 31
0.0
  0
LINE
  5
17620
330
747D
100
AcDbEntity
  8
細線
100
AcDbLine
 10
5267.673057123653
 20
3897.931598713262
 30
0.0
 11
7271.673057123655
 21
3897.931598713262
 31
0.0
  0
LINE
  5
17621
330
747D
100
AcDbEntity
  8
細線
100
AcDbLine
 10
5267.673057123653
 20
3832.931598713262
 30
0.0
 11
7271.673057123655
 21
3832.931598713262
 31
0.0
  0
LINE
  5
17622
330
747D
100
AcDbEntity
  8
細線
100
AcDbLine
 10
5267.673057123653
 20
4352.931598713261
 30
0.0
 11
7271.673057123655
 21
4352.931598713261
 31
0.0
  0
LINE
  5
17623
330
747D
100
AcDbEntity
  8
細線
100
AcDbLine
 10
5267.673057123653
 20
4287.931598713261
 30
0.0
 11
7271.673057123655
 21
4287.931598713261
 31
0.0
  0
LINE
  5
17624
330
747D
100
AcDbEntity
  8
細線
100
AcDbLine
 10
5267.673057123653
 20
4222.931598713262
 30
0.0
 11
7271.673057123655
 21
4222.931598713262
 31
0.0
  0
LINE
  5
17625
330
747D
100
AcDbEntity
  8
部品1
100
AcDbLine
 10
5164.673057123657
 20
4512.931598713261
 30
0.0
 11
7374.673057123658
 21
4512.931598713262
 31
0.0
  0
LINE
  5
17626
330
747D
100
AcDbEntity
  8
部品1
100
AcDbLine
 10
7271.673057123658
 20
4512.931598713262
 30
0.0
 11
7271.673057123656
 21
2587.931598713261
 31
0.0
  0
LINE
  5
17627
330
747D
100
AcDbEntity
  8
部品1
100
AcDbLine
 10
5267.673057123657
 20
4512.931598713261
 30
0.0
 11
5267.673057123657
 21
2587.931598713261
 31
0.0
  0
LINE
  5
17628
330
747D
100
AcDbEntity
  8
破線
  6
HIDDEN
 48
5.0
100
AcDbLine
 10
5219.673057123655
 20
2187.931598713269
 30
0.0
 11
5164.673057123655
 21
2187.931598713269
 31
0.0
  0
LINE
  5
17629
330
747D
100
AcDbEntity
  8
破線
  6
HIDDEN
 48
5.0
100
AcDbLine
 10
7374.673057123655
 20
2187.931598713261
 30
0.0
 11
7319.673057123657
 21
2187.931598713261
 31
0.0
  0
LINE
  5
1762A
330
747D
100
AcDbEntity
  8
破線
  6
HIDDEN
 48
5.0
100
AcDbLine
 10
5219.673057123657
 20
2437.931598713261
 30
0.0
 11
5219.673057123655
 21
2187.931598713261
 31
0.0
  0
LINE
  5
1762B
330
747D
100
AcDbEntity
  8
破線
  6
HIDDEN
 48
5.0
100
AcDbLine
 10
7319.673057123657
 20
2437.931598713261
 30
0.0
 11
7319.673057123657
 21
2187.931598713261
 31
0.0
  0
LINE
  5
1762C
330
747D
100
AcDbEntity
  8
破線
  6
HIDDEN
 48
5.0
100
AcDbLine
 10
9310.470438931139
 20
2437.931598713261
 30
0.0
 11
9310.470438931139
 21
2187.931598713261
 31
0.0
  0
LINE
  5
1762D
330
747D
100
AcDbEntity
  8
破線
  6
HIDDEN
 48
5.0
100
AcDbLine
 10
9365.470438931138
 20
2437.931598713261
 30
0.0
 11
9365.470438931138
 21
2187.931598713261
 31
0.0
  0
LINE
  5
1762F
330
747D
100
AcDbEntity
  8
破線
  6
HIDDEN
 48
5.0
100
AcDbLine
 10
9310.470438931139
 20
2187.931598713261
 30
0.0
 11
9365.470438931138
 21
2187.931598713261
 31
0.0
  0
LINE
  5
1765C
330
747D
100
AcDbEntity
  8
破線
  6
HIDDEN
 48
5.0
100
AcDbLine
 10
5164.673057123657
 20
2437.931598713261
 30
0.0
 11
5164.673057123655
 21
2187.931598713261
 31
0.0
  0
LINE
  5
1765D
330
747D
100
AcDbEntity
  8
破線
  6
HIDDEN
 48
5.0
100
AcDbLine
 10
7374.673057123657
 20
2437.931598713261
 30
0.0
 11
7374.673057123657
 21
2187.931598713261
 31
0.0
  0
LINE
  5
1765E
330
747D
100
AcDbEntity
  8
部品1
100
AcDbLine
 10
9365.470438931138
 20
2537.931598713262
 30
0.0
 11
11052.97043893113
 21
2537.931598713262
 31
0.0
  0
LINE
  5
1765F
330
747D
100
AcDbEntity
  8
部品1
100
AcDbLine
 10
11092.97043893114
 20
2537.931598713262
 30
0.0
 11
11100.47043893114
 21
2537.931598713262
 31
0.0
  0
LINE
  5
17666
330
747D
100
AcDbEntity
  8
破線
  6
HIDDEN
 48
5.0
100
AcDbLine
 10
11092.97043893113
 20
2437.931598713261
 30
0.0
 11
11092.97043893113
 21
2432.931598713262
 31
0.0
  0
LINE
  5
17667
330
747D
100
AcDbEntity
  8
破線
  6
HIDDEN
 48
5.0
100
AcDbLine
 10
11052.97043893114
 20
2437.931598713261
 30
0.0
 11
11052.97043893114
 21
2432.931598713262
 31
0.0
  0
ARC
  5
17668
330
747D
100
AcDbEntity
  8
部品1
 48
50.0
100
AcDbCircle
 10
11087.97043893114
 20
2577.931598713262
 30
0.0
 40
5.0
100
AcDbArc
 50
0.0
 51
90.0
  0
ARC
  5
17669
330
747D
100
AcDbEntity
  8
部品1
 48
50.0
100
AcDbCircle
 10
11057.97043893113
 20
2577.931598713262
 30
0.0
 40
5.0
100
AcDbArc
 50
90.0
 51
180.0
  0
LINE
  5
1766A
330
747D
100
AcDbEntity
  8
部品1
100
AcDbLine
 10
11087.97043893114
 20
2582.931598713261
 30
0.0
 11
11057.97043893113
 21
2582.931598713261
 31
0.0
  0
LINE
  5
1766B
330
747D
100
AcDbEntity
  8
部品1
 48
50.0
100
AcDbLine
 10
11092.97043893114
 20
2577.931598713262
 30
0.0
 11
11092.97043893113
 21
2437.931598713261
 31
0.0
  0
LINE
  5
1766C
330
747D
100
AcDbEntity
  8
部品1
 48
50.0
100
AcDbLine
 10
11052.97043893113
 20
2577.931598713262
 30
0.0
 11
11052.97043893114
 21
2437.931598713261
 31
0.0
  0
LINE
  5
17670
330
747D
100
AcDbEntity
  8
破線
  6
HIDDEN
 48
5.0
100
AcDbLine
 10
11107.97043893114
 20
2285.231598713261
 30
0.0
 11
11107.97043893114
 21
2282.931598713261
 31
0.0
  0
LINE
  5
17671
330
747D
100
AcDbEntity
  8
破線
  6
HIDDEN
 48
5.0
100
AcDbLine
 10
11092.97043893114
 20
2432.931598713262
 30
0.0
 11
11107.97043893114
 21
2285.231598713261
 31
0.0
  0
LINE
  5
17672
330
747D
100
AcDbEntity
  8
破線
  6
HIDDEN
 48
5.0
100
AcDbLine
 10
11037.97043893113
 20
2285.231598713261
 30
0.0
 11
11037.97043893113
 21
2282.931598713261
 31
0.0
  0
LINE
  5
17673
330
747D
100
AcDbEntity
  8
破線
  6
HIDDEN
 48
5.0
100
AcDbLine
 10
11052.97043893113
 20
2432.931598713262
 30
0.0
 11
11037.97043893113
 21
2285.231598713261
 31
0.0
  0
LINE
  5
17674
330
747D
100
AcDbEntity
  8
部品1
100
AcDbLine
 10
7374.673057123658
 20
4771.931598713266
 30
0.0
 11
7374.673057123657
 21
2437.931598713261
 31
0.0
  0
LINE
  5
17675
330
747D
100
AcDbEntity
  8
部品1
100
AcDbLine
 10
5219.673057123658
 20
4512.931598713261
 30
0.0
 11
5219.673057123657
 21
2437.931598713261
 31
0.0
  0
LINE
  5
17676
330
747D
100
AcDbEntity
  8
部品1
100
AcDbLine
 10
7319.673057123657
 20
4512.931598713262
 30
0.0
 11
7319.673057123655
 21
2437.931598713261
 31
0.0
  0
LINE
  5
17677
330
747D
100
AcDbEntity
  8
部品1
100
AcDbLine
 10
5164.673057123657
 20
4771.931598713266
 30
0.0
 11
5164.673057123657
 21
2437.931598713261
 31
0.0
  0
LINE
  5
17678
330
747D
100
AcDbEntity
  8
部品1
100
AcDbLine
 10
5219.673057123657
 20
2587.931598713261
 30
0.0
 11
7319.673057123655
 21
2587.931598713261
 31
0.0
  0
LINE
  5
17679
330
747D
100
AcDbEntity
  8
部品1
100
AcDbLine
 10
4325.903465777273
 20
2567.835409280926
 30
0.0
 11
4250.903465777273
 21
2437.931598713261
 31
0.0
  0
TEXT
  5
1767A
330
747D
100
AcDbEntity
  8
部品1
100
AcDbText
 10
4354.008407902047
 20
2474.038502319163
 30
0.0
 40
125.0
  1
G.L
  7
STYLE2
100
AcDbText
  0
LINE
  5
1767B
330
747D
100
AcDbEntity
  8
部品1
100
AcDbLine
 10
4250.903465777273
 20
2437.931598713261
 30
0.0
 11
4175.903465777273
 21
2567.835409280926
 31
0.0
  0
LINE
  5
1767C
330
747D
100
AcDbEntity
  8
部品1
100
AcDbLine
 10
4175.903465777273
 20
2567.835409280926
 30
0.0
 11
4325.903465777273
 21
2567.835409280926
 31
0.0
  0
DIMENSION
  5
1767D
330
747D
100
AcDbEntity
  8
寸法
100
AcDbDimension
  2
*D27
 10
11805.39759690326
 20
4857.931598713261
 30
0.0
 11
11805.39759690326
 21
3692.931598713261
 31
0.0
 70
   160
 71
     5
 42
2320.000000000001
  3
INABA_S40G
100
AcDbAlignedDimension
 13
11100.47043893114
 23
2537.931598713262
 33
0.0
 14
11195.47043893114
 24
4857.931598713261
 34
0.0
 50
90.0
100
AcDbRotatedDimension
1001
ACAD
1000
DSTYLE
1002
{
1070
   288
1070
     1
1002
}
  0
LINE
  5
1767E
330
747D
100
AcDbEntity
  8
部品1
100
AcDbLine
 10
11045.47043893114
 20
4677.931598713261
 30
0.0
 11
11045.47043893114
 21
2587.931598713261
 31
0.0
  0
LINE
  5
1767F
330
747D
100
AcDbEntity
  8
部品1
100
AcDbLine
 10
11100.47043893114
 20
4732.813407399267
 30
0.0
 11
11100.47043893114
 21
2437.931598713261
 31
0.0
  0
DIMENSION
  5
17680
330
747D
100
AcDbEntity
  8
寸法
100
AcDbDimension
  2
*D28
 10
8466.720309747881
 20
2537.931598713262
 30
0.0
 11
8466.720309747881
 21
2154.181598713261
 31
0.0
 70
   160
 71
     5
 42
50.0
  3
INABA_S40G
100
AcDbAlignedDimension
 13
9310.470438931139
 23
2587.931598713261
 33
0.0
 14
9255.470438931139
 24
2537.931598713262
 34
0.0
 50
90.0
100
AcDbRotatedDimension
1001
ACAD
1000
DSTYLE
1002
{
1070
   288
1070
     1
1002
}
  0
DIMENSION
  5
17681
330
747D
100
AcDbEntity
  8
寸法
100
AcDbDimension
  2
*D29
 10
8166.72030974788
 20
2437.931598713261
 30
0.0
 11
8166.72030974788
 21
2022.931598713261
 31
0.0
 70
   160
 71
     5
 42
100.0000000000004
  3
INABA_S40G
100
AcDbAlignedDimension
 13
9255.470438931139
 23
2537.931598713262
 33
0.0
 14
8253.969363036008
 24
2437.931598713261
 34
0.0
 50
90.0
100
AcDbRotatedDimension
1001
ACAD
1000
DSTYLE
1002
{
1070
   288
1070
     1
1002
}
  0
DIMENSION
  5
17683
330
747D
100
AcDbEntity
  8
寸法
100
AcDbDimension
  2
*D30
 10
8466.720309747881
 20
2587.931598713262
 30
0.0
 11
8366.708498724257
 21
3632.931598713263
 31
0.0
 70
    32
 71
     5
 42
2089.999999999999
  3
INABA_S40G
100
AcDbAlignedDimension
 13
9310.470438931139
 23
4677.931598713261
 33
0.0
 14
9310.470438931139
 24
2587.931598713261
 34
0.0
 50
90.0
100
AcDbRotatedDimension
1001
ACAD
1000
DSTYLE
1002
{
1070
   288
1070
     1
1002
}
  0
LINE
  5
17684
330
747D
100
AcDbEntity
  8
部品1
100
AcDbLine
 10
9310.470438931144
 20
4769.790118155508
 30
0.0
 11
9310.470438931139
 21
2437.931598713261
 31
0.0
  0
LINE
  5
17685
330
747D
100
AcDbEntity
  8
部品1
100
AcDbLine
 10
9365.470438931138
 20
4677.931598713261
 30
0.0
 11
9365.470438931138
 21
2437.931598713261
 31
0.0
  0
LINE
  5
17686
330
747D
100
AcDbEntity
  8
部品1
100
AcDbLine
 10
9365.470438931138
 20
2587.931598713261
 30
0.0
 11
11100.47043893114
 21
2587.931598713261
 31
0.0
  0
LINE
  5
17687
330
747D
100
AcDbEntity
  8
部品1
100
AcDbLine
 10
9310.470438931139
 20
4677.931598713261
 30
0.0
 11
11100.47043893114
 21
4677.931598713261
 31
0.0
  0
LINE
  5
17688
330
747D
100
AcDbEntity
  8
Ｇ．Ｌ
100
AcDbLine
 10
4076.406454453174
 20
2437.931598713261
 30
0.0
 11
12790.79354554683
 21
2437.931598713261
 31
0.0
  0
DIMENSION
  5
182CF
330
747D
100
AcDbEntity
  8
寸法
100
AcDbDimension
  2
*D31
 10
8166.720309747882
 20
4912.931598713265
 30
0.0
 11
8066.708498724258
 21
3725.431598713264
 31
0.0
 70
    32
 71
     5
 42
2375.000000000005
  3
INABA_S40G
100
AcDbAlignedDimension
 13
9310.47043893114
 23
2537.93159871326
 33
0.0
 14
9250.470438931149
 24
4912.931598713265
 34
0.0
 50
90.0
100
AcDbRotatedDimension
1001
ACAD
1000
DSTYLE
1002
{
1070
   174
1070
     0
1070
   272
1070
     1
1070
   288
1070
     0
1070
   341
1005
0
1002
}
  0
MTEXT
  5
1846B
330
747D
100
AcDbEntity
  8
寸法
 62
     7
 48
50.0
100
AcDbMText
 10
6932.3882551963
 20
8630.330398918138
 30
0.0
 40
96.0
 41
0.0
 71
     5
 72
     1
  1
棚 3段
  7
STYLE1
 73
     1
 44
1.0
1001
ACAD
1000
MTEXTBEGIN
1070
    73
1070
     1
1070
    44
1040
1.0
1070
    74
1070
     0
1000
MTEXTEND
  0
MTEXT
  5
1864B
330
747D
100
AcDbEntity
  8
寸法
 62
     7
 48
50.0
100
AcDbMText
 10
5842.388255196299
 20
8630.330398918088
 30
0.0
 40
96.0
 41
0.0
 71
     5
 72
     1
  1
棚 3段
  7
STYLE1
 73
     1
 44
1.0
1001
ACAD
1000
MTEXTBEGIN
1070
    73
1070
     1
1070
    44
1040
1.0
1070
    74
1070
     0
1000
MTEXTEND
  0
LINE
  5
18DF1
330
747D
100
AcDbEntity
  8
破線
 48
10.0
100
AcDbLine
 10
5949.173057123679
 20
7385.924129950875
 30
0.0
 11
5949.173057123685
 21
8570.924129950952
 31
0.0
  0
LINE
  5
18DF2
330
747D
100
AcDbEntity
  8
破線
 48
10.0
100
AcDbLine
 10
5899.173057123684
 20
7385.924129950872
 30
0.0
 11
5899.173057123678
 21
8570.924129950956
 31
0.0
  0
LINE
  5
18DF3
330
747D
100
AcDbEntity
  8
破線
 48
10.0
100
AcDbLine
 10
6590.173057123684
 20
7385.924129950912
 30
0.0
 11
6590.173057123681
 21
8570.924129950943
 31
0.0
  0
LINE
  5
18DF4
330
747D
100
AcDbEntity
  8
破線
 48
10.0
100
AcDbLine
 10
6640.173057123681
 20
7385.924129950912
 30
0.0
 11
6640.173057123686
 21
8570.92412995094
 31
0.0
  0
LINE
  5
18DF5
330
747D
100
AcDbEntity
  8
破線
 48
10.0
100
AcDbLine
 10
5899.173057123684
 20
7410.924129950929
 30
0.0
 11
5244.673057123655
 21
7410.924129950922
 31
0.0
  0
LINE
  5
18E08
330
747D
100
AcDbEntity
  8
部品1
 48
50.0
100
AcDbLine
 10
6023.673057123648
 20
2537.931598713262
 30
0.0
 11
6023.673057123648
 21
2437.931598713261
 31
0.0
  0
LINE
  5
18E09
330
747D
100
AcDbEntity
  8
部品1
 48
50.0
100
AcDbLine
 10
5823.673057123649
 20
2537.931598713262
 30
0.0
 11
5823.673057123649
 21
2437.931598713261
 31
0.0
  0
LINE
  5
18E0A
330
747D
100
AcDbEntity
  8
部品1
 48
50.0
100
AcDbLine
 10
6715.673057123648
 20
2537.931598713262
 30
0.0
 11
6715.673057123648
 21
2437.931598713261
 31
0.0
  0
LINE
  5
18E0B
330
747D
100
AcDbEntity
  8
部品1
 48
50.0
100
AcDbLine
 10
6515.673057123648
 20
2537.931598713262
 30
0.0
 11
6515.673057123648
 21
2437.931598713261
 31
0.0
  0
LINE
  5
18E16
330
747D
100
AcDbEntity
  8
補助
  6
PHANTOM
 62
   230
 48
50.0
100
AcDbLine
 10
140.0
 20
0.0
 30
0.0
 11
140.0
 21
11409.6
 31
0.0
  0
TEXT
  5
18E34
330
747D
100
AcDbEntity
  8
文字
 62
     7
 48
50.0
100
AcDbText
 10
14544.7600863402
 20
483.8967129911414
 30
0.0
 40
160.0
  1
FXN-40HY
  7
STYLE2
100
AcDbText
  0
DIMENSION
  5
18F71
330
747D
100
AcDbEntity
  8
寸法
 48
50.0
100
AcDbDimension
  2
*D33
 10
7662.216159445403
 20
4485.93159871326
 30
0.0
 11
7562.216159445402
 21
3542.931598713263
 31
0.0
 70
    32
  1
有効開口部高サ <>
 71
     5
 42
1885.999999999999
  3
INABA_S40G
100
AcDbAlignedDimension
 13
7374.673057123657
 23
2599.931598713262
 33
0.0
 14
7374.673057123658
 24
4485.93159871326
 34
0.0
 50
90.0
100
AcDbRotatedDimension
  0
DIMENSION
  5
18F72
330
747D
100
AcDbEntity
  8
寸法
 48
50.0
100
AcDbDimension
  2
*D34
 10
7662.216159445403
 20
4512.931598713262
 30
0.0
 11
7802.385982691768
 21
4513.89879855292
 31
0.0
 70
   160
 71
     5
 42
27.00000000000182
  3
INABA_S40G
100
AcDbAlignedDimension
 13
7374.673057123658
 23
4485.93159871326
 33
0.0
 14
7374.673057123658
 24
4512.931598713262
 34
0.0
 50
90.0
100
AcDbRotatedDimension
1001
ACAD
1000
DSTYLE
1002
{
1070
   279
1070
     2
1002
}
  0
DIMENSION
  5
18F73
330
747D
100
AcDbEntity
  8
寸法
 48
50.0
100
AcDbDimension
  2
*D35
 10
7662.216159445404
 20
4677.931598713261
 30
0.0
 11
7662.216159445403
 21
4916.416880087502
 31
0.0
 70
   160
 71
     5
 42
164.9999999999991
  3
INABA_S40G
100
AcDbAlignedDimension
 13
7374.673057123658
 23
4512.931598713262
 33
0.0
 14
7374.673057123657
 24
4677.931598713261
 34
0.0
 50
90.0
100
AcDbRotatedDimension
1001
ACAD
1000
DSTYLE
1002
{
1002
}
  0
TEXT
  5
19104
330
747D
100
AcDbEntity
  8
文字
 62
     7
 48
50.0
100
AcDbText
 10
14646.46056207479
 20
871.9640646083623
 30
0.0
 40
100.0
  1
～一般型・多雪地型～
  7
STYLE2
100
AcDbText
  0
TEXT
  5
19120
330
747D
100
AcDbEntity
  8
文字
 62
     7
 48
50.0
100
AcDbText
 10
15022.63965474516
 20
9230.013745883725
 30
0.0
 40
100.0
  1
F12            0.7
  7
STYLE1
100
AcDbText
  0
TEXT
  5
191F9
330
747D
100
AcDbEntity
  8
文字
 62
     7
 48
50.0
100
AcDbText
 10
13229.83081656554
 20
7870.013745883736
 30
0.0
 40
100.0
  1
Z08→塗装溶融亜鉛めっき鋼板(JIS G 3312)
  7
STYLE1
100
AcDbText
  0
ENDSEC
  0
SECTION
  2
OBJECTS
  0
DICTIONARY
  5
7471
330
0
100
AcDbDictionary
281
     1
  3
ACAD_CIP_PREVIOUS_PRODUCT_INFO
350
191F1
  3
ACAD_COLOR
350
16817
  3
ACAD_DETAILVIEWSTYLE
350
191E8
  3
ACAD_GROUP
350
7472
  3
ACAD_LAYOUT
350
16818
  3
ACAD_MATERIAL
350
16816
  3
ACAD_MLEADERSTYLE
350
191E4
  3
ACAD_MLINESTYLE
350
7473
  3
ACAD_PLOTSETTINGS
350
16819
  3
ACAD_PLOTSTYLENAME
350
16814
  3
ACAD_SCALELIST
350
191D2
  3
ACAD_SECTIONVIEWSTYLE
350
191E6
  3
ACAD_TABLESTYLE
350
191D0
  3
ACAD_VISUALSTYLE
350
191B7
  3
ACDB_RECOMPOSE_DATA
350
1922E
  3
AcDbVariableDictionary
350
19222
  3
AcDsDecomposeData
350
19235
  3
CONTENTDICTIONARY
350
E71C
  3
DRAWINGVARIABLESDICT
350
F3B9
  3
DWGPROPS
350
1922F
  0
DICTIONARY
  5
16A85
330
7467
100
AcDbDictionary
280
     1
281
     1
  3
ACAD_LAYERSTATES
360
16A86
  0
DICTIONARY
  5
191FA
330
7474
100
AcDbDictionary
280
     1
281
     1
  3
ADSK_XREC_LAYER_RECONCILED
360
191FB
  0
DICTIONARY
  5
191FC
330
DEB3
100
AcDbDictionary
280
     1
281
     1
  3
ADSK_XREC_LAYER_RECONCILED
360
191FD
  0
DICTIONARY
  5
191FE
330
DEB4
100
AcDbDictionary
280
     1
281
     1
  3
ADSK_XREC_LAYER_RECONCILED
360
191FF
  0
DICTIONARY
  5
19200
330
DEB5
100
AcDbDictionary
280
     1
281
     1
  3
ADSK_XREC_LAYER_RECONCILED
360
19201
  0
DICTIONARY
  5
19202
330
DEB6
100
AcDbDictionary
280
     1
281
     1
  3
ADSK_XREC_LAYER_RECONCILED
360
19203
  0
DICTIONARY
  5
19204
330
10B54
100
AcDbDictionary
280
     1
281
     1
  3
ADSK_XREC_LAYER_RECONCILED
360
19205
  0
DICTIONARY
  5
19206
330
11729
100
AcDbDictionary
280
     1
281
     1
  3
ADSK_XREC_LAYER_RECONCILED
360
19207
  0
DICTIONARY
  5
19208
330
1173F
100
AcDbDictionary
280
     1
281
     1
  3
ADSK_XREC_LAYER_RECONCILED
360
19209
  0
DICTIONARY
  5
1920A
330
142E2
100
AcDbDictionary
280
     1
281
     1
  3
ADSK_XREC_LAYER_RECONCILED
360
1920B
  0
XRECORD
  5
191F1
102
{ACAD_REACTORS
330
7471
102
}
330
7471
100
AcDbXrecord
280
     1
300
ACDLT
300
2014
300
ACDLT_F_S
  0
DICTIONARY
  5
16817
102
{ACAD_REACTORS
330
7471
102
}
330
7471
100
AcDbDictionary
281
     1
  0
DICTIONARY
  5
191E8
102
{ACAD_REACTORS
330
7471
102
}
330
7471
100
AcDbDictionary
281
     1
  3
Metric50
350
191E9
  0
DICTIONARY
  5
7472
102
{ACAD_REACTORS
330
7471
102
}
330
7471
100
AcDbDictionary
281
     1
  0
DICTIONARY
  5
16818
102
{ACAD_REACTORS
330
7471
102
}
330
7471
100
AcDbDictionary
281
     1
  3
Model
350
1681A
  3
レイアウト1
350
1681B
  0
DICTIONARY
  5
16816
102
{ACAD_REACTORS
330
7471
102
}
330
7471
100
AcDbDictionary
281
     1
  3
ByBlock
350
191A7
  3
ByLayer
350
1919F
  3
Global
350
191AF
  0
DICTIONARY
  5
191E4
102
{ACAD_REACTORS
330
7471
102
}
330
7471
100
AcDbDictionary
281
     1
  3
Standard
350
191E5
  0
DICTIONARY
  5
7473
102
{ACAD_REACTORS
330
7471
102
}
330
7471
100
AcDbDictionary
281
     1
  3
STANDARD
350
7480
  0
DICTIONARY
  5
16819
102
{ACAD_REACTORS
330
7471
102
}
330
7471
100
AcDbDictionary
281
     1
  0
ACDBDICTIONARYWDFLT
  5
16814
102
{ACAD_REACTORS
330
7471
102
}
330
7471
100
AcDbDictionary
281
     1
  3
Normal
350
16815
100
AcDbDictionaryWithDefault
340
16815
  0
DICTIONARY
  5
191D2
102
{ACAD_REACTORS
330
7471
102
}
330
7471
100
AcDbDictionary
281
     1
  3
A0
350
191D3
  3
A1
350
191D4
  3
A2
350
191D5
  3
A3
350
191D6
  3
A4
350
191D7
  3
A5
350
191D8
  3
A6
350
191D9
  3
A7
350
191DA
  3
A8
350
191DB
  3
A9
350
191DC
  3
B0
350
191DD
  3
B1
350
191DE
  3
B2
350
191DF
  3
B3
350
191E0
  3
B4
350
191E1
  3
B5
350
191E2
  3
B6
350
191E3
  0
DICTIONARY
  5
191E6
102
{ACAD_REACTORS
330
7471
102
}
330
7471
100
AcDbDictionary
281
     1
  3
Metric50
350
191E7
  0
DICTIONARY
  5
191D0
102
{ACAD_REACTORS
330
7471
102
}
330
7471
100
AcDbDictionary
281
     1
  3
Standard
350
191D1
  0
DICTIONARY
  5
191B7
102
{ACAD_REACTORS
330
7471
102
}
330
7471
100
AcDbDictionary
281
     1
  3
2dWireframe
350
191BD
  3
Basic
350
191BC
  3
Brighten
350
191C3
  3
ColorChange
350
191C7
  3
Conceptual
350
191C0
  3
Dim
350
191C2
  3
EdgeColorOff
350
191CF
  3
Facepattern
350
191C6
  3
Flat
350
191B8
  3
FlatWithEdges
350
191B9
  3
Gouraud
350
191BA
  3
GouraudWithEdges
350
191BB
  3
Hidden
350
191BF
  3
JitterOff
350
191CD
  3
Linepattern
350
191C5
  3
OverhangOff
350
191CE
  3
Realistic
350
191C1
  3
Shaded
350
191CC
  3
Shaded with edges
350
191CB
  3
Shades of Gray
350
191C8
  3
Sketchy
350
191C9
  3
Thicken
350
191C4
  3
Wireframe
350
191BE
  3
X-Ray
350
191CA
  0
XRECORD
  5
1922E
102
{ACAD_REACTORS
330
7471
102
}
330
7471
100
AcDbXrecord
280
     1
 90
        1
330
15E53
330
15E5F
330
15E6D
330
18F72
330
191D1
  0
DICTIONARY
  5
19222
102
{ACAD_REACTORS
330
7471
102
}
330
7471
100
AcDbDictionary
281
     1
  3
CANNOSCALE
350
19227
  3
CMLEADERSTYLE
350
19224
  3
CTABLESTYLE
350
19223
  3
CVIEWDETAILSTYLE
350
19225
  3
CVIEWSECTIONSTYLE
350
19226
  3
DIMASSOC
350
1922B
  3
INDEXCTL
350
19229
  3
SORTENTS
350
19228
  3
XCLIPFRAME
350
1922A
  0
DICTIONARY
  5
19235
102
{ACAD_REACTORS
330
7471
102
}
330
7471
100
AcDbDictionary
281
     1
  3
AcDsRecords
350
19237
  3
AcDsSchemas
350
19236
1001
ACAD
1070
     2
  0
DICTIONARY
  5
E71C
102
{ACAD_REACTORS
330
7471
102
}
330
7471
100
AcDbDictionary
281
     1
  0
DICTIONARY
  5
F3B9
102
{ACAD_REACTORS
330
7471
102
}
330
7471
100
AcDbDictionary
281
     1
1001
DRAWINGVARIABLESXDATA
1000
POLARMODE
1000
1
  0
XRECORD
  5
1922F
102
{ACAD_REACTORS
330
7471
102
}
330
7471
100
AcDbXrecord
280
     1
  1
DWGPROPS COOKIE
  2

  3

  4

  6

  7

  8
ishizaki
  9

300
=
301
=
302
=
303
=
304
=
305
=
306
=
307
=
308
=
309
=
 40
0.6324002314814816
 41
2451368.612993866
 42
2456574.732744178
  1

 90
        0
  0
DICTIONARY
  5
16A86
102
{ACAD_REACTORS
330
16A85
102
}
330
16A85
100
AcDbDictionary
281
     1
  0
XRECORD
  5
191FB
102
{ACAD_REACTORS
330
191FA
102
}
330
191FA
100
AcDbXrecord
280
     1
290
     1
  0
XRECORD
  5
191FD
102
{ACAD_REACTORS
330
191FC
102
}
330
191FC
100
AcDbXrecord
280
     1
290
     1
  0
XRECORD
  5
191FF
102
{ACAD_REACTORS
330
191FE
102
}
330
191FE
100
AcDbXrecord
280
     1
290
     1
  0
XRECORD
  5
19201
102
{ACAD_REACTORS
330
19200
102
}
330
19200
100
AcDbXrecord
280
     1
290
     1
  0
XRECORD
  5
19203
102
{ACAD_REACTORS
330
19202
102
}
330
19202
100
AcDbXrecord
280
     1
290
     1
  0
XRECORD
  5
19205
102
{ACAD_REACTORS
330
19204
102
}
330
19204
100
AcDbXrecord
280
     1
290
     1
  0
XRECORD
  5
19207
102
{ACAD_REACTORS
330
19206
102
}
330
19206
100
AcDbXrecord
280
     1
290
     1
  0
XRECORD
  5
19209
102
{ACAD_REACTORS
330
19208
102
}
330
19208
100
AcDbXrecord
280
     1
290
     1
  0
XRECORD
  5
1920B
102
{ACAD_REACTORS
330
1920A
102
}
330
1920A
100
AcDbXrecord
280
     1
290
     1
  0
ACDBDETAILVIEWSTYLE
  5
191E9
102
{ACAD_XDICTIONARY
360
19276
102
}
102
{ACAD_REACTORS
330
191E8
102
}
330
191E8
100
AcDbModelDocViewStyle
 70
     0
  3
Metric50
290
     0
100
AcDbDetailViewStyle
 70
     0
 71
     0
 90
        3
 71
     1
340
7475
 40
5.0
340
0
 40
5.0
300

 40
0.0
280
     1
 71
     2
340
7479
 90
       25
 71
     3
340
7475
 40
5.0
 90
        0
 40
15.0
 90
        1
300
%<\AcVar ViewDetailId>% (%<\AcVar ViewScale \f "%sn">%)
 71
     4
340
7479
 90
       25
340
7479
 90
       25
280
     0
  0
LAYOUT
  5
1681A
102
{ACAD_XDICTIONARY
360
19239
102
}
102
{ACAD_REACTORS
330
16818
102
}
330
16818
100
AcDbPlotSettings
  1

  2
none_device
  4
Letter_(8.50_x_11.00_Inches)
  6

 40
6.349999904632568
 41
6.349999904632568
 42
6.350006103515625
 43
6.350006103515625
 44
215.8999938964844
 45
279.3999938964844
 46
0.0
 47
0.0
 48
0.0
 49
0.0
140
0.0
141
0.0
142
1.0
143
1.0
 70
 11952
 72
     1
 73
     1
 74
     0
  7
inaba.ctb
 75
     0
147
1.0
148
-2464.692037279003
149
54.36659085389965
100
AcDbLayout
  1
Model
 70
     1
 71
     0
 10
0.0
 20
0.0
 11
12.0
 21
9.0
 12
0.0
 22
0.0
 32
0.0
 14
0.0
 24
0.0
 34
0.0
 15
0.0
 25
0.0
 35
0.0
146
0.0
 13
0.0
 23
0.0
 33
0.0
 16
1.0
 26
0.0
 36
0.0
 17
0.0
 27
1.0
 37
0.0
 76
     0
330
747D
331
1919D
  0
LAYOUT
  5
1681B
102
{ACAD_XDICTIONARY
360
1923B
102
}
102
{ACAD_REACTORS
330
16818
102
}
330
16818
100
AcDbPlotSettings
  1

  2
EPSON LP-8300
  4

  6

 40
0.0
 41
0.0
 42
0.0
 43
0.0
 44
0.0
 45
0.0
 46
0.0
 47
0.0
 48
0.0
 49
0.0
140
0.0
141
0.0
142
1.0
143
1.0
 70
   688
 72
     0
 73
     0
 74
     5
  7
inaba.ctb
 75
    16
147
1.0
148
0.0
149
0.0
100
AcDbLayout
  1
レイアウト1
 70
     0
 71
     1
 10
0.0
 20
0.0
 11
420.0
 21
297.0
 12
0.0
 22
0.0
 32
0.0
 14
1.000000000000000E+20
 24
1.000000000000000E+20
 34
1.000000000000000E+20
 15
-1.000000000000000E+20
 25
-1.000000000000000E+20
 35
-1.000000000000000E+20
146
0.0
 13
0.0
 23
0.0
 33
0.0
 16
1.0
 26
0.0
 36
0.0
 17
0.0
 27
1.0
 37
0.0
 76
     0
330
747A
  0
MATERIAL
  5
191A7
102
{ACAD_XDICTIONARY
360
191A8
102
}
102
{ACAD_REACTORS
330
16816
102
}
330
16816
100
AcDbMaterial
  1
ByBlock
 72
     0
 43
0.0208333333333333
 43
0.0
 43
0.0
 43
0.0
 43
0.0
 43
0.0208333333333333
 43
0.0
 43
0.0
 43
0.0
 43
0.0
 43
1.0
 43
0.0
 43
0.0
 43
0.0
 43
0.0
 43
1.0
 77
     0
 47
0.0208333333333333
 47
0.0
 47
0.0
 47
0.0
 47
0.0
 47
0.0208333333333333
 47
0.0
 47
0.0
 47
0.0
 47
0.0
 47
1.0
 47
0.0
 47
0.0
 47
0.0
 47
0.0
 47
1.0
171
     0
 49
0.0208333333333333
 49
0.0
 49
0.0
 49
0.0
 49
0.0
 49
0.0208333333333333
 49
0.0
 49
0.0
 49
0.0
 49
0.0
 49
1.0
 49
0.0
 49
0.0
 49
0.0
 49
0.0
 49
1.0
175
     0
142
0.0208333333333333
142
0.0
142
0.0
142
0.0
142
0.0
142
0.0208333333333333
142
0.0
142
0.0
142
0.0
142
0.0
142
1.0
142
0.0
142
0.0
142
0.0
142
0.0
142
1.0
179
     0
144
0.0208333333333333
144
0.0
144
0.0
144
0.0
144
0.0
144
0.0208333333333333
144
0.0
144
0.0
144
0.0
144
0.0
144
1.0
144
0.0
144
0.0
144
0.0
144
0.0
144
1.0
147
0.0208333333333333
147
0.0
147
0.0
147
0.0
147
0.0
147
0.0208333333333333
147
0.0
147
0.0
147
0.0
147
0.0
147
1.0
147
0.0
147
0.0
147
0.0
147
0.0
147
1.0
  0
MATERIAL
  5
1919F
102
{ACAD_XDICTIONARY
360
191A0
102
}
102
{ACAD_REACTORS
330
16816
102
}
330
16816
100
AcDbMaterial
  1
ByLayer
 72
     0
 43
0.0208333333333333
 43
0.0
 43
0.0
 43
0.0
 43
0.0
 43
0.0208333333333333
 43
0.0
 43
0.0
 43
0.0
 43
0.0
 43
1.0
 43
0.0
 43
0.0
 43
0.0
 43
0.0
 43
1.0
 77
     0
 47
0.0208333333333333
 47
0.0
 47
0.0
 47
0.0
 47
0.0
 47
0.0208333333333333
 47
0.0
 47
0.0
 47
0.0
 47
0.0
 47
1.0
 47
0.0
 47
0.0
 47
0.0
 47
0.0
 47
1.0
171
     0
 49
0.0208333333333333
 49
0.0
 49
0.0
 49
0.0
 49
0.0
 49
0.0208333333333333
 49
0.0
 49
0.0
 49
0.0
 49
0.0
 49
1.0
 49
0.0
 49
0.0
 49
0.0
 49
0.0
 49
1.0
175
     0
142
0.0208333333333333
142
0.0
142
0.0
142
0.0
142
0.0
142
0.0208333333333333
142
0.0
142
0.0
142
0.0
142
0.0
142
1.0
142
0.0
142
0.0
142
0.0
142
0.0
142
1.0
179
     0
144
0.0208333333333333
144
0.0
144
0.0
144
0.0
144
0.0
144
0.0208333333333333
144
0.0
144
0.0
144
0.0
144
0.0
144
1.0
144
0.0
144
0.0
144
0.0
144
0.0
144
1.0
147
0.0208333333333333
147
0.0
147
0.0
147
0.0
147
0.0
147
0.0208333333333333
147
0.0
147
0.0
147
0.0
147
0.0
147
1.0
147
0.0
147
0.0
147
0.0
147
0.0
147
1.0
  0
MATERIAL
  5
191AF
102
{ACAD_XDICTIONARY
360
191B0
102
}
102
{ACAD_REACTORS
330
16816
102
}
330
16816
100
AcDbMaterial
  1
Global
 72
     0
 43
0.0208333333333333
 43
0.0
 43
0.0
 43
0.0
 43
0.0
 43
0.0208333333333333
 43
0.0
 43
0.0
 43
0.0
 43
0.0
 43
1.0
 43
0.0
 43
0.0
 43
0.0
 43
0.0
 43
1.0
 77
     0
 47
0.0208333333333333
 47
0.0
 47
0.0
 47
0.0
 47
0.0
 47
0.0208333333333333
 47
0.0
 47
0.0
 47
0.0
 47
0.0
 47
1.0
 47
0.0
 47
0.0
 47
0.0
 47
0.0
 47
1.0
171
     0
 49
0.0208333333333333
 49
0.0
 49
0.0
 49
0.0
 49
0.0
 49
0.0208333333333333
 49
0.0
 49
0.0
 49
0.0
 49
0.0
 49
1.0
 49
0.0
 49
0.0
 49
0.0
 49
0.0
 49
1.0
175
     0
142
0.0208333333333333
142
0.0
142
0.0
142
0.0
142
0.0
142
0.0208333333333333
142
0.0
142
0.0
142
0.0
142
0.0
142
1.0
142
0.0
142
0.0
142
0.0
142
0.0
142
1.0
179
     0
144
0.0208333333333333
144
0.0
144
0.0
144
0.0
144
0.0
144
0.0208333333333333
144
0.0
144
0.0
144
0.0
144
0.0
144
1.0
144
0.0
144
0.0
144
0.0
144
0.0
144
1.0
147
0.0208333333333333
147
0.0
147
0.0
147
0.0
147
0.0
147
0.0208333333333333
147
0.0
147
0.0
147
0.0
147
0.0
147
1.0
147
0.0
147
0.0
147
0.0
147
0.0
147
1.0
  0
MLEADERSTYLE
  5
191E5
102
{ACAD_XDICTIONARY
360
19272
102
}
102
{ACAD_REACTORS
330
191E4
102
}
330
191E4
100
AcDbMLeaderStyle
170
     2
171
     1
172
     0
 90
        2
 40
0.0
 41
0.0
173
     1
 91
-1056964608
340
7477
 92
       -2
290
     1
 42
2.0
291
     1
 43
0.36
  3
Standard
 44
4.0
300

342
7475
174
     1
178
     6
175
     1
176
     0
 93
-1056964608
 45
4.0
292
     0
297
     0
 46
4.0
 94
-1056964608
 47
1.0
 49
1.0
140
1.0
293
     1
141
0.0
294
     1
177
     0
142
1.0
295
     0
296
     0
143
0.125
1001
ACAD_MLEADERVER
1070
     2
  0
MLINESTYLE
  5
7480
102
{ACAD_REACTORS
330
7473
102
}
330
7473
100
AcDbMlineStyle
  2
STANDARD
 70
     0
  3

 62
     0
 51
90.0
 52
90.0
 71
     2
 49
0.5
 62
   256
  6
BYLAYER
 49
-0.5
 62
   256
  6
BYLAYER
  0
ACDBPLACEHOLDER
  5
16815
102
{ACAD_REACTORS
330
16814
102
}
330
16814
  0
SCALE
  5
191D3
102
{ACAD_REACTORS
330
191D2
102
}
330
191D2
100
AcDbScale
 70
     0
300
1:1
140
1.0
141
1.0
290
     1
  0
SCALE
  5
191D4
102
{ACAD_REACTORS
330
191D2
102
}
330
191D2
100
AcDbScale
 70
     0
300
1:2
140
1.0
141
2.0
290
     0
  0
SCALE
  5
191D5
102
{ACAD_REACTORS
330
191D2
102
}
330
191D2
100
AcDbScale
 70
     0
300
1:4
140
1.0
141
4.0
290
     0
  0
SCALE
  5
191D6
102
{ACAD_REACTORS
330
191D2
102
}
330
191D2
100
AcDbScale
 70
     0
300
1:5
140
1.0
141
5.0
290
     0
  0
SCALE
  5
191D7
102
{ACAD_REACTORS
330
191D2
102
}
330
191D2
100
AcDbScale
 70
     0
300
1:8
140
1.0
141
8.0
290
     0
  0
SCALE
  5
191D8
102
{ACAD_REACTORS
330
191D2
102
}
330
191D2
100
AcDbScale
 70
     0
300
1:10
140
1.0
141
10.0
290
     0
  0
SCALE
  5
191D9
102
{ACAD_REACTORS
330
191D2
102
}
330
191D2
100
AcDbScale
 70
     0
300
1:16
140
1.0
141
16.0
290
     0
  0
SCALE
  5
191DA
102
{ACAD_REACTORS
330
191D2
102
}
330
191D2
100
AcDbScale
 70
     0
300
1:20
140
1.0
141
20.0
290
     0
  0
SCALE
  5
191DB
102
{ACAD_REACTORS
330
191D2
102
}
330
191D2
100
AcDbScale
 70
     0
300
1:30
140
1.0
141
30.0
290
     0
  0
SCALE
  5
191DC
102
{ACAD_REACTORS
330
191D2
102
}
330
191D2
100
AcDbScale
 70
     0
300
1:40
140
1.0
141
40.0
290
     0
  0
SCALE
  5
191DD
102
{ACAD_REACTORS
330
191D2
102
}
330
191D2
100
AcDbScale
 70
     0
300
1:50
140
1.0
141
50.0
290
     0
  0
SCALE
  5
191DE
102
{ACAD_REACTORS
330
191D2
102
}
330
191D2
100
AcDbScale
 70
     0
300
1:100
140
1.0
141
100.0
290
     0
  0
SCALE
  5
191DF
102
{ACAD_REACTORS
330
191D2
102
}
330
191D2
100
AcDbScale
 70
     0
300
2:1
140
2.0
141
1.0
290
     0
  0
SCALE
  5
191E0
102
{ACAD_REACTORS
330
191D2
102
}
330
191D2
100
AcDbScale
 70
     0
300
4:1
140
4.0
141
1.0
290
     0
  0
SCALE
  5
191E1
102
{ACAD_REACTORS
330
191D2
102
}
330
191D2
100
AcDbScale
 70
     0
300
8:1
140
8.0
141
1.0
290
     0
  0
SCALE
  5
191E2
102
{ACAD_REACTORS
330
191D2
102
}
330
191D2
100
AcDbScale
 70
     0
300
10:1
140
10.0
141
1.0
290
     0
  0
SCALE
  5
191E3
102
{ACAD_REACTORS
330
191D2
102
}
330
191D2
100
AcDbScale
 70
     0
300
100:1
140
100.0
141
1.0
290
     0
  0
ACDBSECTIONVIEWSTYLE
  5
191E7
102
{ACAD_XDICTIONARY
360
19274
102
}
102
{ACAD_REACTORS
330
191E6
102
}
330
191E6
100
AcDbModelDocViewStyle
 70
     0
  3
Metric50
290
     0
100
AcDbSectionViewStyle
 70
     0
 71
     0
 90
      102
 71
     1
340
7475
 40
5.0
340
0
340
0
 40
5.0
300
I, O, Q, S, X, Z
 40
10.0
 90
        0
 40
2.5
 90
        0
 71
     2
340
7479
 90
       25
340
7479
 90
       50
 40
5.0
 40
2.5
 40
5.0
 71
     3
340
7475
 40
5.0
 90
        0
 40
15.0
 90
        1
300
%<\AcVar ViewSectionStartId>%-%<\AcVar ViewSectionEndId>% (%<\AcVar ViewScale \f "%sn">%)
 71
     4
300
ANSI31
 40
1.0
 90
        0
290
     0
290
     0
 90
        6
 40
0.0
 40
1.570796326794896
 40
0.2617993877991494
 40
1.308996938995747
 40
-0.2617993877991494
 40
1.832595714594046
  0
TABLESTYLE
  5
191D1
102
{ACAD_XDICTIONARY
360
1922C
102
}
102
{ACAD_REACTORS
330
191D0
102
}
330
191D0
100
AcDbTableStyle
  3
Standard
 70
     0
 71
     0
 40
1.5
 41
1.5
280
     0
281
     0
  7
STANDARD
140
4.5
170
     2
 62
     0
 63
     7
283
     0
274
    -2
284
     1
 64
     0
275
    -2
285
     1
 65
     0
276
    -2
286
     1
 66
     0
277
    -2
287
     1
 67
     0
278
    -2
288
     1
 68
     0
279
    -2
289
     1
 69
     0
  7
STANDARD
140
6.0
170
     5
 62
     0
 63
     7
283
     0
274
    -2
284
     1
 64
     0
275
    -2
285
     1
 65
     0
276
    -2
286
     1
 66
     0
277
    -2
287
     1
 67
     0
278
    -2
288
     1
 68
     0
279
    -2
289
     1
 69
     0
  7
STANDARD
140
4.5
170
     5
 62
     0
 63
     7
283
     0
274
    -2
284
     1
 64
     0
275
    -2
285
     1
 65
     0
276
    -2
286
     1
 66
     0
277
    -2
287
     1
 67
     0
278
    -2
288
     1
 68
     0
279
    -2
289
     1
 69
     0
  0
VISUALSTYLE
  5
191BD
102
{ACAD_XDICTIONARY
360
1924A
102
}
102
{ACAD_REACTORS
330
191B7
102
}
330
191B7
100
AcDbVisualStyle
  2
2dWireframe
 70
     4
 71
     0
 72
     2
 73
     0
 90
        0
 40
-0.6
 41
-30.0
 62
     5
 63
     7
 74
     1
 91
        4
 64
     7
 65
   257
 75
     1
175
     1
 42
1.0
 92
        0
 66
   257
 43
1.0
 76
     1
 77
     6
 78
     2
 67
     7
 79
     5
170
     0
171
     0
290
     0
174
     0
 93
        1
 44
0.0
173
     0
291
     0
 45
0.0
1001
ACAD
1000
AcDbSavedByObjectVersion
1070
     0
  0
VISUALSTYLE
  5
191BC
102
{ACAD_XDICTIONARY
360
19248
102
}
102
{ACAD_REACTORS
330
191B7
102
}
330
191B7
100
AcDbVisualStyle
  2
Basic
 70
     7
 71
     1
 72
     0
 73
     1
 90
        0
 40
-0.6
 41
-30.0
 62
     5
 63
     7
 74
     0
 91
        4
 64
     7
 65
   257
 75
     1
175
     1
 42
1.0
 92
        8
 66
     7
 43
1.0
 76
     1
 77
     6
 78
     2
 67
     7
 79
     5
170
     0
171
     0
290
     0
174
     0
 93
        1
 44
0.0
173
     0
291
     1
 45
0.0
1001
ACAD
1000
AcDbSavedByObjectVersion
1070
     0
  0
VISUALSTYLE
  5
191C3
102
{ACAD_XDICTIONARY
360
19256
102
}
102
{ACAD_REACTORS
330
191B7
102
}
330
191B7
100
AcDbVisualStyle
  2
Brighten
 70
    12
 71
     2
 72
     2
 73
     0
 90
        0
 40
-0.6
 41
-30.0
 62
     5
 63
     7
 74
     1
 91
        4
 64
     7
 65
   257
 75
     1
175
     1
 42
1.0
 92
        8
 66
     7
 43
1.0
 76
     1
 77
     6
 78
     2
 67
     7
 79
     5
170
     0
171
     0
290
     0
174
     0
 93
        1
 44
50.0
173
     0
291
     1
 45
0.0
1001
ACAD
1000
AcDbSavedByObjectVersion
1070
     0
  0
VISUALSTYLE
  5
191C7
102
{ACAD_XDICTIONARY
360
1925E
102
}
102
{ACAD_REACTORS
330
191B7
102
}
330
191B7
100
AcDbVisualStyle
  2
ColorChange
 70
    16
 71
     2
 72
     2
 73
     3
 90
        0
 40
-0.6
 41
-30.0
 62
     5
 63
     8
 74
     1
 91
        4
 64
     7
 65
   257
 75
     1
175
     1
 42
1.0
 92
        8
 66
     8
 43
1.0
 76
     1
 77
     6
 78
     2
 67
     7
 79
     5
170
     0
171
     0
290
     0
174
     0
 93
        1
 44
0.0
173
     0
291
     1
 45
0.0
1001
ACAD
1000
AcDbSavedByObjectVersion
1070
     0
  0
VISUALSTYLE
  5
191C0
102
{ACAD_XDICTIONARY
360
19250
102
}
102
{ACAD_REACTORS
330
191B7
102
}
330
191B7
100
AcDbVisualStyle
  2
Conceptual
 70
     9
 71
     3
 72
     2
 73
     0
 90
        0
 40
-0.6
 41
-30.0
 62
     5
 63
     7
 74
     2
 91
        2
 64
     7
 65
   257
 75
     1
175
     1
 42
179.0
 92
        8
 66
     7
 43
1.0
 76
     1
 77
     6
 78
     2
 67
     7
 79
     3
170
     0
171
     0
290
     0
174
     0
 93
        1
 44
0.0
173
     0
291
     0
 45
0.0
1001
ACAD
1000
AcDbSavedByObjectVersion
1070
     0
  0
VISUALSTYLE
  5
191C2
102
{ACAD_XDICTIONARY
360
19254
102
}
102
{ACAD_REACTORS
330
191B7
102
}
330
191B7
100
AcDbVisualStyle
  2
Dim
 70
    11
 71
     2
 72
     2
 73
     0
 90
        0
 40
-0.6
 41
-30.0
 62
     5
 63
     7
 74
     1
 91
        4
 64
     7
 65
   257
 75
     1
175
     1
 42
1.0
 92
        8
 66
     7
 43
1.0
 76
     1
 77
     6
 78
     2
 67
     7
 79
     5
170
     0
171
     0
290
     0
174
     0
 93
        1
 44
-50.0
173
     0
291
     1
 45
0.0
1001
ACAD
1000
AcDbSavedByObjectVersion
1070
     0
  0
VISUALSTYLE
  5
191CF
102
{ACAD_XDICTIONARY
360
1926E
102
}
102
{ACAD_REACTORS
330
191B7
102
}
330
191B7
100
AcDbVisualStyle
  2
EdgeColorOff
 70
    22
 71
     2
 72
     2
 73
     0
 90
        0
 40
-0.6
 41
-30.0
 62
     5
 63
     7
 74
     1
 91
        4
 64
     7
 65
   257
 75
     1
175
     1
 42
1.0
 92
        8
 66
     7
 43
1.0
 76
     1
 77
     6
 78
     2
 67
     7
 79
     5
170
     0
171
     0
290
     0
174
     0
 93
        1
 44
0.0
173
     0
291
     1
 45
0.0
1001
ACAD
1000
AcDbSavedByObjectVersion
1070
     0
  0
VISUALSTYLE
  5
191C6
102
{ACAD_XDICTIONARY
360
1925C
102
}
102
{ACAD_REACTORS
330
191B7
102
}
330
191B7
100
AcDbVisualStyle
  2
Facepattern
 70
    15
 71
     2
 72
     2
 73
     0
 90
        0
 40
-0.6
 41
-30.0
 62
     5
 63
     7
 74
     1
 91
        4
 64
     7
 65
   257
 75
     1
175
     1
 42
1.0
 92
        8
 66
     7
 43
1.0
 76
     1
 77
     6
 78
     2
 67
     7
 79
     5
170
     0
171
     0
290
     0
174
     0
 93
        1
 44
0.0
173
     0
291
     1
 45
0.0
1001
ACAD
1000
AcDbSavedByObjectVersion
1070
     0
  0
VISUALSTYLE
  5
191B8
102
{ACAD_XDICTIONARY
360
19240
102
}
102
{ACAD_REACTORS
330
191B7
102
}
330
191B7
100
AcDbVisualStyle
  2
Flat
 70
     0
 71
     2
 72
     1
 73
     1
 90
        2
 40
-0.6
 41
30.0
 62
     5
 63
     7
 74
     0
 91
        0
 64
     7
 65
   257
 75
     1
175
     1
 42
1.0
 92
        8
 66
     7
 43
1.0
 76
     1
 77
     6
 78
     2
 67
     7
 79
     5
170
     0
171
     0
290
     0
174
     0
 93
       13
 44
0.0
173
     0
291
     1
 45
0.0
1001
ACAD
1000
AcDbSavedByObjectVersion
1070
     0
  0
VISUALSTYLE
  5
191B9
102
{ACAD_XDICTIONARY
360
19242
102
}
102
{ACAD_REACTORS
330
191B7
102
}
330
191B7
100
AcDbVisualStyle
  2
FlatWithEdges
 70
     1
 71
     2
 72
     1
 73
     1
 90
        2
 40
-0.6
 41
30.0
 62
     5
 63
     7
 74
     1
 91
        0
 64
     7
 65
   257
 75
     1
175
     1
 42
1.0
 92
        0
 66
   257
 43
1.0
 76
     1
 77
     6
 78
     2
 67
     7
 79
     5
170
     0
171
     0
290
     0
174
     0
 93
       13
 44
0.0
173
     0
291
     1
 45
0.0
1001
ACAD
1000
AcDbSavedByObjectVersion
1070
     0
  0
VISUALSTYLE
  5
191BA
102
{ACAD_XDICTIONARY
360
19244
102
}
102
{ACAD_REACTORS
330
191B7
102
}
330
191B7
100
AcDbVisualStyle
  2
Gouraud
 70
     2
 71
     2
 72
     2
 73
     1
 90
        2
 40
-0.6
 41
30.0
 62
     5
 63
     7
 74
     0
 91
        0
 64
     7
 65
   257
 75
     1
175
     1
 42
1.0
 92
        0
 66
     7
 43
1.0
 76
     1
 77
     6
 78
     2
 67
     7
 79
     5
170
     0
171
     0
290
     0
174
     0
 93
       13
 44
0.0
173
     0
291
     1
 45
0.0
1001
ACAD
1000
AcDbSavedByObjectVersion
1070
     0
  0
VISUALSTYLE
  5
191BB
102
{ACAD_XDICTIONARY
360
19246
102
}
102
{ACAD_REACTORS
330
191B7
102
}
330
191B7
100
AcDbVisualStyle
  2
GouraudWithEdges
 70
     3
 71
     2
 72
     2
 73
     1
 90
        2
 40
-0.6
 41
30.0
 62
     5
 63
     7
 74
     1
 91
        0
 64
     7
 65
   257
 75
     1
175
     1
 42
1.0
 92
        0
 66
   257
 43
1.0
 76
     1
 77
     6
 78
     2
 67
     7
 79
     5
170
     0
171
     0
290
     0
174
     0
 93
       13
 44
0.0
173
     0
291
     1
 45
0.0
1001
ACAD
1000
AcDbSavedByObjectVersion
1070
     0
  0
VISUALSTYLE
  5
191BF
102
{ACAD_XDICTIONARY
360
1924E
102
}
102
{ACAD_REACTORS
330
191B7
102
}
330
191B7
100
AcDbVisualStyle
  2
Hidden
 70
     6
 71
     1
 72
     2
 73
     2
 90
        0
 40
-0.6
 41
-30.0
 62
     5
 63
     7
 74
     2
 91
        2
 64
     7
 65
   257
 75
     2
175
     1
 42
40.0
 92
        0
 66
   257
 43
1.0
 76
     1
 77
     6
 78
     2
 67
     7
 79
     3
170
     0
171
     0
290
     0
174
     0
 93
        1
 44
0.0
173
     0
291
     0
 45
0.0
1001
ACAD
1000
AcDbSavedByObjectVersion
1070
     0
  0
VISUALSTYLE
  5
191CD
102
{ACAD_XDICTIONARY
360
1926A
102
}
102
{ACAD_REACTORS
330
191B7
102
}
330
191B7
100
AcDbVisualStyle
  2
JitterOff
 70
    20
 71
     2
 72
     2
 73
     0
 90
        0
 40
-0.6
 41
-30.0
 62
     5
 63
     7
 74
     1
 91
        4
 64
     7
 65
   257
 75
     1
175
     1
 42
1.0
 92
       10
 66
     7
 43
1.0
 76
     1
 77
     6
 78
     2
 67
     7
 79
     5
170
     0
171
     0
290
     0
174
     0
 93
        1
 44
0.0
173
     0
291
     1
 45
0.0
1001
ACAD
1000
AcDbSavedByObjectVersion
1070
     0
  0
VISUALSTYLE
  5
191C5
102
{ACAD_XDICTIONARY
360
1925A
102
}
102
{ACAD_REACTORS
330
191B7
102
}
330
191B7
100
AcDbVisualStyle
  2
Linepattern
 70
    14
 71
     2
 72
     2
 73
     0
 90
        0
 40
-0.6
 41
-30.0
 62
     5
 63
     7
 74
     1
 91
        4
 64
     7
 65
   257
 75
     7
175
     7
 42
1.0
 92
        8
 66
     7
 43
1.0
 76
     1
 77
     6
 78
     2
 67
     7
 79
     5
170
     0
171
     0
290
     0
174
     0
 93
        1
 44
0.0
173
     0
291
     1
 45
0.0
1001
ACAD
1000
AcDbSavedByObjectVersion
1070
     0
  0
VISUALSTYLE
  5
191CE
102
{ACAD_XDICTIONARY
360
1926C
102
}
102
{ACAD_REACTORS
330
191B7
102
}
330
191B7
100
AcDbVisualStyle
  2
OverhangOff
 70
    21
 71
     2
 72
     2
 73
     0
 90
        0
 40
-0.6
 41
-30.0
 62
     5
 63
     7
 74
     1
 91
        4
 64
     7
 65
   257
 75
     1
175
     1
 42
1.0
 92
        9
 66
     7
 43
1.0
 76
     1
 77
     6
 78
     2
 67
     7
 79
     5
170
     0
171
     0
290
     0
174
     0
 93
        1
 44
0.0
173
     0
291
     1
 45
0.0
1001
ACAD
1000
AcDbSavedByObjectVersion
1070
     0
  0
VISUALSTYLE
  5
191C1
102
{ACAD_XDICTIONARY
360
19252
102
}
102
{ACAD_REACTORS
330
191B7
102
}
330
191B7
100
AcDbVisualStyle
  2
Realistic
 70
     8
 71
     2
 72
     3
 73
     0
 90
        2
 40
-0.6
 41
30.0
 62
     5
 63
     7
 74
     0
 91
        0
 64
     7
 65
   257
 75
     1
175
     1
 42
1.0
 92
        8
 66
   257
 43
1.0
 76
     1
 77
     6
 78
     2
 67
     7
 79
     3
170
     0
171
     0
290
     0
174
     0
 93
       13
 44
0.0
173
     0
291
     0
 45
0.0
1001
ACAD
1000
AcDbSavedByObjectVersion
1070
     0
  0
VISUALSTYLE
  5
191CC
102
{ACAD_XDICTIONARY
360
19268
102
}
102
{ACAD_REACTORS
330
191B7
102
}
330
191B7
100
AcDbVisualStyle
  2
Shaded
 70
    27
 71
     2
 72
     2
 73
     1
 90
        2
 40
-0.6
 41
30.0
 62
     5
 63
     7
 74
     0
 91
        4
 64
     7
 65
   257
 75
     1
175
     1
 42
1.0
 92
        8
 66
   257
 43
1.0
 76
     1
 77
     6
 78
     2
 67
     8
 79
     3
170
     0
171
     0
290
     0
174
     0
 93
        5
 44
0.0
173
     0
291
     0
 45
0.0
1001
ACAD
1000
AcDbSavedByObjectVersion
1070
     0
  0
VISUALSTYLE
  5
191CB
102
{ACAD_XDICTIONARY
360
19266
102
}
102
{ACAD_REACTORS
330
191B7
102
}
330
191B7
100
AcDbVisualStyle
  2
Shaded with edges
 70
    26
 71
     2
 72
     2
 73
     1
 90
        2
 40
-0.6
 41
30.0
 62
     5
 63
     7
 74
     1
 91
       10
 64
     7
 65
   257
 75
     2
175
     1
 42
1.0
 92
        8
 66
   257
 43
1.0
 76
     1
 77
     6
 78
     2
 67
     7
 79
     3
170
     0
171
     0
290
     0
174
     0
 93
        5
 44
0.0
173
     0
291
     0
 45
0.0
1001
ACAD
1000
AcDbSavedByObjectVersion
1070
     0
  0
VISUALSTYLE
  5
191C8
102
{ACAD_XDICTIONARY
360
19260
102
}
102
{ACAD_REACTORS
330
191B7
102
}
330
191B7
100
AcDbVisualStyle
  2
Shades of Gray
 70
    23
 71
     2
 72
     2
 73
     3
 90
        0
 40
-0.6
 41
-30.0
 62
     5
 63
     7
 74
     2
 91
        2
 64
     7
 65
     7
 75
     1
175
     1
 42
40.0
 92
        8
 66
     7
 43
1.0
 76
     1
 77
     6
 78
     2
 67
     7
 79
     3
170
     0
171
     0
290
     0
174
     0
 93
        1
 44
0.0
173
     0
291
     0
 45
0.0
1001
ACAD
1000
AcDbSavedByObjectVersion
1070
     0
  0
VISUALSTYLE
  5
191C9
102
{ACAD_XDICTIONARY
360
19262
102
}
102
{ACAD_REACTORS
330
191B7
102
}
330
191B7
100
AcDbVisualStyle
  2
Sketchy
 70
    24
 71
     1
 72
     2
 73
     2
 90
        0
 40
-0.6
 41
-30.0
 62
     5
 63
     7
 74
     2
 91
        2
 64
     7
 65
     7
 75
     1
175
     1
 42
40.0
 92
       11
 66
     7
 43
1.0
 76
     1
 77
     6
 78
     2
 67
     7
 79
     6
170
     0
171
     0
290
     0
174
     0
 93
        1
 44
0.0
173
     0
291
     0
 45
0.0
1001
ACAD
1000
AcDbSavedByObjectVersion
1070
     0
  0
VISUALSTYLE
  5
191C4
102
{ACAD_XDICTIONARY
360
19258
102
}
102
{ACAD_REACTORS
330
191B7
102
}
330
191B7
100
AcDbVisualStyle
  2
Thicken
 70
    13
 71
     2
 72
     2
 73
     0
 90
        0
 40
-0.6
 41
-30.0
 62
     5
 63
     7
 74
     1
 91
        4
 64
     7
 65
   257
 75
     1
175
     1
 42
1.0
 92
       12
 66
     7
 43
1.0
 76
     1
 77
     6
 78
     2
 67
     7
 79
     5
170
     0
171
     0
290
     0
174
     0
 93
        1
 44
0.0
173
     0
291
     1
 45
0.0
1001
ACAD
1000
AcDbSavedByObjectVersion
1070
     0
  0
VISUALSTYLE
  5
191BE
102
{ACAD_XDICTIONARY
360
1924C
102
}
102
{ACAD_REACTORS
330
191B7
102
}
330
191B7
100
AcDbVisualStyle
  2
Wireframe
 70
     5
 71
     0
 72
     2
 73
     0
 90
        0
 40
-0.6
 41
-30.0
 62
     5
 63
     7
 74
     1
 91
        4
 64
     7
 65
   257
 75
     1
175
     1
 42
1.0
 92
        0
 66
   257
 43
1.0
 76
     1
 77
     6
 78
     2
 67
     7
 79
     3
170
     0
171
     0
290
     0
174
     0
 93
        1
 44
0.0
173
     0
291
     0
 45
0.0
1001
ACAD
1000
AcDbSavedByObjectVersion
1070
     0
  0
VISUALSTYLE
  5
191CA
102
{ACAD_XDICTIONARY
360
19264
102
}
102
{ACAD_REACTORS
330
191B7
102
}
330
191B7
100
AcDbVisualStyle
  2
X-Ray
 70
    25
 71
     2
 72
     2
 73
     1
 90
        1
 40
0.5
 41
-30.0
 62
     5
 63
     7
 74
     1
 91
        0
 64
     7
 65
   257
 75
     1
175
     1
 42
1.0
 92
        8
 66
     7
 43
1.0
 76
     1
 77
     6
 78
     2
 67
     7
 79
     3
170
     0
171
     0
290
     0
174
     0
 93
       13
 44
0.0
173
     0
291
     0
 45
0.0
1001
ACAD
1000
AcDbSavedByObjectVersion
1070
     0
  0
DICTIONARYVAR
  5
19227
102
{ACAD_REACTORS
330
19222
102
}
330
19222
100
DictionaryVariables
280
     0
  1
1:1
  0
DICTIONARYVAR
  5
19224
102
{ACAD_REACTORS
330
19222
102
}
330
19222
100
DictionaryVariables
280
     0
  1
STANDARD
  0
DICTIONARYVAR
  5
19223
102
{ACAD_REACTORS
330
19222
102
}
330
19222
100
DictionaryVariables
280
     0
  1
STANDARD
  0
DICTIONARYVAR
  5
19225
102
{ACAD_REACTORS
330
19222
102
}
330
19222
100
DictionaryVariables
280
     0
  1
Metric50
  0
DICTIONARYVAR
  5
19226
102
{ACAD_REACTORS
330
19222
102
}
330
19222
100
DictionaryVariables
280
     0
  1
Metric50
  0
DICTIONARYVAR
  5
1922B
102
{ACAD_REACTORS
330
19222
102
}
330
19222
100
DictionaryVariables
280
     0
  1
1
  0
DICTIONARYVAR
  5
19229
102
{ACAD_REACTORS
330
19222
102
}
330
19222
100
DictionaryVariables
280
     0
  1
0
  0
DICTIONARYVAR
  5
19228
102
{ACAD_REACTORS
330
19222
102
}
330
19222
100
DictionaryVariables
280
     0
  1
127
  0
DICTIONARYVAR
  5
1922A
102
{ACAD_REACTORS
330
19222
102
}
330
19222
100
DictionaryVariables
280
     0
  1
0
  0
DICTIONARY
  5
19237
102
{ACAD_REACTORS
330
19235
102
}
330
19235
100
AcDbDictionary
281
     1
  0
DICTIONARY
  5
19236
102
{ACAD_REACTORS
330
19235
102
}
330
19235
100
AcDbDictionary
281
     1
  3
2130310272
350
19230
  3
2130310280
350
19231
  3
2130310288
350
19232
  3
2130310296
350
19233
  3
2130310304
350
19234
  0
DICTIONARY
  5
19276
330
191E9
100
AcDbDictionary
280
     1
281
     1
  3
ACAD_XREC_ROUNDTRIP
360
19277
  0
DICTIONARY
  5
19239
330
1681A
100
AcDbDictionary
280
     1
281
     1
  3
ACAD_XREC_ROUNDTRIP
360
1923A
  0
DICTIONARY
  5
1923B
330
1681B
100
AcDbDictionary
280
     1
281
     1
  3
ACAD_XREC_ROUNDTRIP
360
1923C
  0
DICTIONARY
  5
191A8
330
191A7
100
AcDbDictionary
280
     1
281
     1
  3
ACAD_XREC_ROUNDTRIP
360
1923E
  3
BUMPTILE
360
191AA
  3
DIFFUSETILE
360
191A9
  3
OPACITYTILE
360
191AD
  3
REFLECTIONTILE
360
191AC
  3
REFRACTIONTILE
360
191AE
  3
SPECULARTILE
360
191AB
  0
DICTIONARY
  5
191A0
330
1919F
100
AcDbDictionary
280
     1
281
     1
  3
ACAD_XREC_ROUNDTRIP
360
1923D
  3
BUMPTILE
360
191A2
  3
DIFFUSETILE
360
191A1
  3
OPACITYTILE
360
191A5
  3
REFLECTIONTILE
360
191A4
  3
REFRACTIONTILE
360
191A6
  3
SPECULARTILE
360
191A3
  0
DICTIONARY
  5
191B0
330
191AF
100
AcDbDictionary
280
     1
281
     1
  3
ACAD_XREC_ROUNDTRIP
360
1923F
  3
BUMPTILE
360
191B2
  3
DIFFUSETILE
360
191B1
  3
OPACITYTILE
360
191B5
  3
REFLECTIONTILE
360
191B4
  3
REFRACTIONTILE
360
191B6
  3
SPECULARTILE
360
191B3
  0
DICTIONARY
  5
19272
330
191E5
100
AcDbDictionary
280
     1
281
     1
  3
ACAD_XREC_ROUNDTRIP
360
19273
  0
DICTIONARY
  5
19274
330
191E7
100
AcDbDictionary
280
     1
281
     1
  3
ACAD_XREC_ROUNDTRIP
360
19275
  0
DICTIONARY
  5
1922C
330
191D1
100
AcDbDictionary
280
     1
281
     1
  3
ACAD_ROUNDTRIP_2008_TABLESTYLE_CELLSTYLEMAP
360
1922D
  3
ACAD_XREC_ROUNDTRIP
360
19270
  0
DICTIONARY
  5
1924A
330
191BD
100
AcDbDictionary
280
     1
281
     1
  3
ACAD_XREC_ROUNDTRIP
360
1924B
  0
DICTIONARY
  5
19248
330
191BC
100
AcDbDictionary
280
     1
281
     1
  3
ACAD_XREC_ROUNDTRIP
360
19249
  0
DICTIONARY
  5
19256
330
191C3
100
AcDbDictionary
280
     1
281
     1
  3
ACAD_XREC_ROUNDTRIP
360
19257
  0
DICTIONARY
  5
1925E
330
191C7
100
AcDbDictionary
280
     1
281
     1
  3
ACAD_XREC_ROUNDTRIP
360
1925F
  0
DICTIONARY
  5
19250
330
191C0
100
AcDbDictionary
280
     1
281
     1
  3
ACAD_XREC_ROUNDTRIP
360
19251
  0
DICTIONARY
  5
19254
330
191C2
100
AcDbDictionary
280
     1
281
     1
  3
ACAD_XREC_ROUNDTRIP
360
19255
  0
DICTIONARY
  5
1926E
330
191CF
100
AcDbDictionary
280
     1
281
     1
  3
ACAD_XREC_ROUNDTRIP
360
1926F
  0
DICTIONARY
  5
1925C
330
191C6
100
AcDbDictionary
280
     1
281
     1
  3
ACAD_XREC_ROUNDTRIP
360
1925D
  0
DICTIONARY
  5
19240
330
191B8
100
AcDbDictionary
280
     1
281
     1
  3
ACAD_XREC_ROUNDTRIP
360
19241
  0
DICTIONARY
  5
19242
330
191B9
100
AcDbDictionary
280
     1
281
     1
  3
ACAD_XREC_ROUNDTRIP
360
19243
  0
DICTIONARY
  5
19244
330
191BA
100
AcDbDictionary
280
     1
281
     1
  3
ACAD_XREC_ROUNDTRIP
360
19245
  0
DICTIONARY
  5
19246
330
191BB
100
AcDbDictionary
280
     1
281
     1
  3
ACAD_XREC_ROUNDTRIP
360
19247
  0
DICTIONARY
  5
1924E
330
191BF
100
AcDbDictionary
280
     1
281
     1
  3
ACAD_XREC_ROUNDTRIP
360
1924F
  0
DICTIONARY
  5
1926A
330
191CD
100
AcDbDictionary
280
     1
281
     1
  3
ACAD_XREC_ROUNDTRIP
360
1926B
  0
DICTIONARY
  5
1925A
330
191C5
100
AcDbDictionary
280
     1
281
     1
  3
ACAD_XREC_ROUNDTRIP
360
1925B
  0
DICTIONARY
  5
1926C
330
191CE
100
AcDbDictionary
280
     1
281
     1
  3
ACAD_XREC_ROUNDTRIP
360
1926D
  0
DICTIONARY
  5
19252
330
191C1
100
AcDbDictionary
280
     1
281
     1
  3
ACAD_XREC_ROUNDTRIP
360
19253
  0
DICTIONARY
  5
19268
330
191CC
100
AcDbDictionary
280
     1
281
     1
  3
ACAD_XREC_ROUNDTRIP
360
19269
  0
DICTIONARY
  5
19266
330
191CB
100
AcDbDictionary
280
     1
281
     1
  3
ACAD_XREC_ROUNDTRIP
360
19267
  0
DICTIONARY
  5
19260
330
191C8
100
AcDbDictionary
280
     1
281
     1
  3
ACAD_XREC_ROUNDTRIP
360
19261
  0
DICTIONARY
  5
19262
330
191C9
100
AcDbDictionary
280
     1
281
     1
  3
ACAD_XREC_ROUNDTRIP
360
19263
  0
DICTIONARY
  5
19258
330
191C4
100
AcDbDictionary
280
     1
281
     1
  3
ACAD_XREC_ROUNDTRIP
360
19259
  0
DICTIONARY
  5
1924C
330
191BE
100
AcDbDictionary
280
     1
281
     1
  3
ACAD_XREC_ROUNDTRIP
360
1924D
  0
DICTIONARY
  5
19264
330
191CA
100
AcDbDictionary
280
     1
281
     1
  3
ACAD_XREC_ROUNDTRIP
360
19265
  0
XRECORD
  5
19230
102
{ACAD_REACTORS
330
19236
102
}
330
19236
100
AcDbXrecord
280
     1
  1
AcDb_Thumbnail_Schema
102
{ATTRRECORD
341
19231
  2
AcDbDs::TreatedAsObjectData
280
     1
291
     1
102
ATTRRECORD}
102
{ATTRRECORD
341
19232
  2
AcDbDs::Legacy
280
     1
291
     1
102
ATTRRECORD}
  2
AcDbDs::ID
280
    10
 91
        8
102
{ATTRRECORD
341
19233
  2
AcDs:Indexable
280
     1
291
     1
102
ATTRRECORD}
102
{ATTRRECORD
341
19234
  2
AcDbDs::HandleAttribute
280
     7
282
     1
102
ATTRRECORD}
  2
Thumbnail_Data
280
    15
 91
        0
  0
XRECORD
  5
19231
102
{ACAD_REACTORS
330
19236
102
}
330
19236
100
AcDbXrecord
280
     1
  1
AcDbDs::TreatedAsObjectDataSchema
  2
AcDbDs::TreatedAsObjectData
280
     1
 91
        0
  0
XRECORD
  5
19232
102
{ACAD_REACTORS
330
19236
102
}
330
19236
100
AcDbXrecord
280
     1
  1
AcDbDs::LegacySchema
  2
AcDbDs::Legacy
280
     1
 91
        0
  0
XRECORD
  5
19233
102
{ACAD_REACTORS
330
19236
102
}
330
19236
100
AcDbXrecord
280
     1
  1
AcDbDs::IndexedPropertySchema
  2
AcDs:Indexable
280
     1
 91
        0
  0
XRECORD
  5
19234
102
{ACAD_REACTORS
330
19236
102
}
330
19236
100
AcDbXrecord
280
     1
  1
AcDbDs::HandleAttributeSchema
  2
AcDbDs::HandleAttribute
280
     7
 91
        1
284
     1
  0
XRECORD
  5
19277
102
{ACAD_REACTORS
330
19276
102
}
330
19276
100
AcDbXrecord
280
     1
102
DISPLAYNAME
  1
Metric50
102
FLAGS
 90
        0
  0
XRECORD
  5
1923A
102
{ACAD_REACTORS
330
19239
102
}
330
19239
100
AcDbXrecord
280
     1
102
SHADEPLOT
 70
     0
102
SHADEPLOTRESLEVEL
 70
     2
102
SHADEPLOTCUSTOMDPI
 70
   300
  0
XRECORD
  5
1923C
102
{ACAD_REACTORS
330
1923B
102
}
330
1923B
100
AcDbXrecord
280
     1
102
SHADEPLOT
 70
     0
102
SHADEPLOTRESLEVEL
 70
     2
102
SHADEPLOTCUSTOMDPI
 70
   300
  0
XRECORD
  5
1923E
102
{ACAD_REACTORS
330
191A8
102
}
330
191A8
100
AcDbXrecord
280
     1
102
MATERIAL
148
0.0
149
0.0
149
0.0
 93
        0
 94
      127
282
     0
 72
     0
 77
     0
171
     0
175
     0
179
     0
273
     0
  0
XRECORD
  5
191AA
102
{ACAD_REACTORS
330
191A8
102
}
330
191A8
100
AcDbXrecord
280
     1
270
     1
271
     1
  0
XRECORD
  5
191A9
102
{ACAD_REACTORS
330
191A8
102
}
330
191A8
100
AcDbXrecord
280
     1
270
     1
271
     1
  0
XRECORD
  5
191AD
102
{ACAD_REACTORS
330
191A8
102
}
330
191A8
100
AcDbXrecord
280
     1
270
     1
271
     1
  0
XRECORD
  5
191AC
102
{ACAD_REACTORS
330
191A8
102
}
330
191A8
100
AcDbXrecord
280
     1
270
     1
271
     1
  0
XRECORD
  5
191AE
102
{ACAD_REACTORS
330
191A8
102
}
330
191A8
100
AcDbXrecord
280
     1
270
     1
271
     1
  0
XRECORD
  5
191AB
102
{ACAD_REACTORS
330
191A8
102
}
330
191A8
100
AcDbXrecord
280
     1
270
     1
271
     1
  0
XRECORD
  5
1923D
102
{ACAD_REACTORS
330
191A0
102
}
330
191A0
100
AcDbXrecord
280
     1
102
MATERIAL
148
0.0
149
0.0
149
0.0
 93
        0
 94
      127
282
     0
 72
     0
 77
     0
171
     0
175
     0
179
     0
273
     0
  0
XRECORD
  5
191A2
102
{ACAD_REACTORS
330
191A0
102
}
330
191A0
100
AcDbXrecord
280
     1
270
     1
271
     1
  0
XRECORD
  5
191A1
102
{ACAD_REACTORS
330
191A0
102
}
330
191A0
100
AcDbXrecord
280
     1
270
     1
271
     1
  0
XRECORD
  5
191A5
102
{ACAD_REACTORS
330
191A0
102
}
330
191A0
100
AcDbXrecord
280
     1
270
     1
271
     1
  0
XRECORD
  5
191A4
102
{ACAD_REACTORS
330
191A0
102
}
330
191A0
100
AcDbXrecord
280
     1
270
     1
271
     1
  0
XRECORD
  5
191A6
102
{ACAD_REACTORS
330
191A0
102
}
330
191A0
100
AcDbXrecord
280
     1
270
     1
271
     1
  0
XRECORD
  5
191A3
102
{ACAD_REACTORS
330
191A0
102
}
330
191A0
100
AcDbXrecord
280
     1
270
     1
271
     1
  0
XRECORD
  5
1923F
102
{ACAD_REACTORS
330
191B0
102
}
330
191B0
100
AcDbXrecord
280
     1
102
MATERIAL
148
0.0
149
0.0
149
0.0
 93
        0
 94
      127
282
     0
 72
     0
 77
     0
171
     0
175
     0
179
     0
273
     0
  0
XRECORD
  5
191B2
102
{ACAD_REACTORS
330
191B0
102
}
330
191B0
100
AcDbXrecord
280
     1
270
     1
271
     1
  0
XRECORD
  5
191B1
102
{ACAD_REACTORS
330
191B0
102
}
330
191B0
100
AcDbXrecord
280
     1
270
     1
271
     1
  0
XRECORD
  5
191B5
102
{ACAD_REACTORS
330
191B0
102
}
330
191B0
100
AcDbXrecord
280
     1
270
     1
271
     1
  0
XRECORD
  5
191B4
102
{ACAD_REACTORS
330
191B0
102
}
330
191B0
100
AcDbXrecord
280
     1
270
     1
271
     1
  0
XRECORD
  5
191B6
102
{ACAD_REACTORS
330
191B0
102
}
330
191B0
100
AcDbXrecord
280
     1
270
     1
271
     1
  0
XRECORD
  5
191B3
102
{ACAD_REACTORS
330
191B0
102
}
330
191B0
100
AcDbXrecord
280
     1
270
     1
271
     1
  0
XRECORD
  5
19273
102
{ACAD_REACTORS
330
19272
102
}
330
19272
100
AcDbXrecord
280
     1
102
ACAD_ROUNDTRIP_2012_MLEADER_STYLE
298
     1
  0
XRECORD
  5
19275
102
{ACAD_REACTORS
330
19274
102
}
330
19274
100
AcDbXrecord
280
     1
102
DISPLAYNAME
  1
Metric50
102
FLAGS
 90
        0
  0
CELLSTYLEMAP
  5
1922D
102
{ACAD_REACTORS
330
1922C
102
}
330
1922C
100
AcDbCellStyleMap
 90
        3
300
CELLSTYLE
  1
TABLEFORMAT_BEGIN
 90
        5
170
     1
 91
        0
 92
    32768
 62
   257
 93
        1
300
CONTENTFORMAT
  1
CONTENTFORMAT_BEGIN
 90
        0
 91
        0
 92
      512
 93
        0
300

 40
0.0
140
1.0
 94
        5
 62
     0
340
7475
144
6.0
309
CONTENTFORMAT_END
171
     1
301
MARGIN
  1
CELLMARGIN_BEGIN
 40
1.5
 40
1.5
 40
1.5
 40
1.5
 40
4.5
 40
4.5
309
CELLMARGIN_END
 94
        6
 95
        1
302
GRIDFORMAT
  1
GRIDFORMAT_BEGIN
 90
        0
 91
        1
 62
     0
 92
       -2
340
0
 93
        0
 40
1.125
309
GRIDFORMAT_END
 95
        2
302
GRIDFORMAT
  1
GRIDFORMAT_BEGIN
 90
        0
 91
        1
 62
     0
 92
       -2
340
0
 93
        0
 40
1.125
309
GRIDFORMAT_END
 95
        4
302
GRIDFORMAT
  1
GRIDFORMAT_BEGIN
 90
        0
 91
        1
 62
     0
 92
       -2
340
0
 93
        0
 40
1.125
309
GRIDFORMAT_END
 95
        8
302
GRIDFORMAT
  1
GRIDFORMAT_BEGIN
 90
        0
 91
        1
 62
     0
 92
       -2
340
0
 93
        0
 40
1.125
309
GRIDFORMAT_END
 95
       16
302
GRIDFORMAT
  1
GRIDFORMAT_BEGIN
 90
        0
 91
        1
 62
     0
 92
       -2
340
0
 93
        0
 40
1.125
309
GRIDFORMAT_END
 95
       32
302
GRIDFORMAT
  1
GRIDFORMAT_BEGIN
 90
        0
 91
        1
 62
     0
 92
       -2
340
0
 93
        0
 40
1.125
309
GRIDFORMAT_END
309
TABLEFORMAT_END
  1
CELLSTYLE_BEGIN
 90
        1
 91
        1
300
_TITLE
309
CELLSTYLE_END
300
CELLSTYLE
  1
TABLEFORMAT_BEGIN
 90
        5
170
     1
 91
        0
 92
        0
 62
   257
 93
        1
300
CONTENTFORMAT
  1
CONTENTFORMAT_BEGIN
 90
        0
 91
        0
 92
      512
 93
        0
300

 40
0.0
140
1.0
 94
        5
 62
     0
340
7475
144
4.5
309
CONTENTFORMAT_END
171
     1
301
MARGIN
  1
CELLMARGIN_BEGIN
 40
1.5
 40
1.5
 40
1.5
 40
1.5
 40
4.5
 40
4.5
309
CELLMARGIN_END
 94
        6
 95
        1
302
GRIDFORMAT
  1
GRIDFORMAT_BEGIN
 90
        0
 91
        1
 62
     0
 92
       -2
340
0
 93
        0
 40
1.125
309
GRIDFORMAT_END
 95
        2
302
GRIDFORMAT
  1
GRIDFORMAT_BEGIN
 90
        0
 91
        1
 62
     0
 92
       -2
340
0
 93
        0
 40
1.125
309
GRIDFORMAT_END
 95
        4
302
GRIDFORMAT
  1
GRIDFORMAT_BEGIN
 90
        0
 91
        1
 62
     0
 92
       -2
340
0
 93
        0
 40
1.125
309
GRIDFORMAT_END
 95
        8
302
GRIDFORMAT
  1
GRIDFORMAT_BEGIN
 90
        0
 91
        1
 62
     0
 92
       -2
340
0
 93
        0
 40
1.125
309
GRIDFORMAT_END
 95
       16
302
GRIDFORMAT
  1
GRIDFORMAT_BEGIN
 90
        0
 91
        1
 62
     0
 92
       -2
340
0
 93
        0
 40
1.125
309
GRIDFORMAT_END
 95
       32
302
GRIDFORMAT
  1
GRIDFORMAT_BEGIN
 90
        0
 91
        1
 62
     0
 92
       -2
340
0
 93
        0
 40
1.125
309
GRIDFORMAT_END
309
TABLEFORMAT_END
  1
CELLSTYLE_BEGIN
 90
        2
 91
        1
300
_HEADER
309
CELLSTYLE_END
300
CELLSTYLE
  1
TABLEFORMAT_BEGIN
 90
        5
170
     1
 91
        0
 92
        0
 62
   257
 93
        1
300
CONTENTFORMAT
  1
CONTENTFORMAT_BEGIN
 90
        0
 91
        0
 92
      512
 93
        0
300

 40
0.0
140
1.0
 94
        2
 62
     0
340
7475
144
4.5
309
CONTENTFORMAT_END
171
     1
301
MARGIN
  1
CELLMARGIN_BEGIN
 40
1.5
 40
1.5
 40
1.5
 40
1.5
 40
4.5
 40
4.5
309
CELLMARGIN_END
 94
        6
 95
        1
302
GRIDFORMAT
  1
GRIDFORMAT_BEGIN
 90
        0
 91
        1
 62
     0
 92
       -2
340
0
 93
        0
 40
1.125
309
GRIDFORMAT_END
 95
        2
302
GRIDFORMAT
  1
GRIDFORMAT_BEGIN
 90
        0
 91
        1
 62
     0
 92
       -2
340
0
 93
        0
 40
1.125
309
GRIDFORMAT_END
 95
        4
302
GRIDFORMAT
  1
GRIDFORMAT_BEGIN
 90
        0
 91
        1
 62
     0
 92
       -2
340
0
 93
        0
 40
1.125
309
GRIDFORMAT_END
 95
        8
302
GRIDFORMAT
  1
GRIDFORMAT_BEGIN
 90
        0
 91
        1
 62
     0
 92
       -2
340
0
 93
        0
 40
1.125
309
GRIDFORMAT_END
 95
       16
302
GRIDFORMAT
  1
GRIDFORMAT_BEGIN
 90
        0
 91
        1
 62
     0
 92
       -2
340
0
 93
        0
 40
1.125
309
GRIDFORMAT_END
 95
       32
302
GRIDFORMAT
  1
GRIDFORMAT_BEGIN
 90
        0
 91
        1
 62
     0
 92
       -2
340
0
 93
        0
 40
1.125
309
GRIDFORMAT_END
309
TABLEFORMAT_END
  1
CELLSTYLE_BEGIN
 90
        3
 91
        2
300
_DATA
309
CELLSTYLE_END
  0
XRECORD
  5
19270
102
{ACAD_REACTORS
330
1922C
102
}
330
1922C
100
AcDbXrecord
280
     1
102
ACAD_ROUNDTRIP_PRE2007_TABLESTYLE
 90
      512
 91
        0
  1

 92
      512
 93
        0
  2

 94
      512
 95
        0
  3

  0
XRECORD
  5
1924B
102
{ACAD_REACTORS
330
1924A
102
}
330
1924A
100
AcDbXrecord
280
     1
102
RTVSPost2010Prop28
280
     1
102
RTVSPost2010PropOp28
 70
     1
102
RTVSPost2010Prop29
280
     1
102
RTVSPost2010PropOp29
 70
     1
102
RTVSPost2010Prop30
280
     0
102
RTVSPost2010PropOp30
 70
     1
102
RTVSPost2010Prop31
280
     0
102
RTVSPost2010PropOp31
 70
     1
102
RTVSPost2010Prop32
280
     0
102
RTVSPost2010PropOp32
 70
     1
102
RTVSPost2010Prop33
280
     0
102
RTVSPost2010PropOp33
 70
     1
102
RTVSPost2010Prop34
280
     0
102
RTVSPost2010PropOp34
 70
     1
102
RTVSPost2010Prop35
280
     0
102
RTVSPost2010PropOp35
 70
     1
102
RTVSPost2010Prop36
280
     0
102
RTVSPost2010PropOp36
 70
     1
102
RTVSPost2010Prop37
 90
       50
102
RTVSPost2010PropOp37
 70
     1
102
RTVSPost2010Prop38
140
0.0
102
RTVSPost2010PropOp38
 70
     1
102
RTVSPost2010Prop39
140
1.0
102
RTVSPost2010PropOp39
 70
     1
102
RTVSPost2010Prop40
 90
        0
102
RTVSPost2010PropOp40
 70
     1
102
RTVSPost2010Prop41ColorIndex
 90
       18
102
RTVSPost2010Prop41ColorRGB
 90
        0
102
RTVSPost2010PropOp41
 70
     1
102
RTVSPost2010Prop42
 90
       50
102
RTVSPost2010PropOp42
 70
     1
102
RTVSPost2010Prop43
 90
        3
102
RTVSPost2010PropOp43
 70
     1
102
RTVSPost2010Prop44ColorIndex
 90
        5
102
RTVSPost2010Prop44ColorRGB
 90
      255
102
RTVSPost2010PropOp44
 70
     1
102
RTVSPost2010Prop45
280
     0
102
RTVSPost2010PropOp45
 70
     1
102
RTVSPost2010Prop46
 90
       50
102
RTVSPost2010PropOp46
 70
     1
102
RTVSPost2010Prop47
 90
       50
102
RTVSPost2010PropOp47
 70
     1
102
RTVSPost2010Prop48
 90
       50
102
RTVSPost2010PropOp48
 70
     1
102
RTVSPost2010Prop49
280
     0
102
RTVSPost2010PropOp49
 70
     1
102
RTVSPost2010Prop50
 90
       50
102
RTVSPost2010PropOp50
 70
     1
102
RTVSPost2010Prop51ColorIndex
 90
      256
102
RTVSPost2010Prop51ColorRGB
 90
-16777216
102
RTVSPost2010PropOp51
 70
     0
102
RTVSPost2010Prop52
140
1.0
102
RTVSPost2010PropOp52
 70
     0
102
RTVSPost2010Prop53
 90
        2
102
RTVSPost2010PropOp53
 70
     1
102
RTVSPost2010Prop54
  1
strokes_ogs.tif
102
RTVSPost2010PropOp54
 70
     1
102
RTVSPost2010Prop55
280
     0
102
RTVSPost2010PropOp55
 70
     1
102
RTVSPost2010Prop56
140
1.0
102
RTVSPost2010PropOp56
 70
     1
102
RTVSPost2010Prop57
140
1.0
102
RTVSPost2010PropOp57
 70
     1
102
RTVSPropertyOp0
 70
     1
102
RTVSPropertyOp1
 70
     1
102
RTVSPropertyOp2
 70
     1
102
RTVSPropertyOp3
 70
     1
102
RTVSPropertyOp4
 70
     1
102
RTVSPropertyOp5
 70
     1
102
RTVSPropertyOp6
 70
     1
102
RTVSPropertyOp7
 70
     1
102
RTVSPropertyOp8
 70
     1
102
RTVSPropertyOp9
 70
     1
102
RTVSPropertyOp10
 70
     1
102
RTVSPropertyOp11
 70
     1
102
RTVSPropertyOp12
 70
     1
102
RTVSPropertyOp13
 70
     1
102
RTVSPropertyOp14
 70
     1
102
RTVSPropertyOp15
 70
     1
102
RTVSPropertyOp16
 70
     1
102
RTVSPropertyOp17
 70
     1
102
RTVSPropertyOp18
 70
     1
102
RTVSPropertyOp19
 70
     1
102
RTVSPropertyOp20
 70
     1
102
RTVSPropertyOp21
 70
     1
102
RTVSPropertyOp22
 70
     1
102
RTVSPropertyOp23
 70
     1
102
RTVSPropertyOp24
 70
     1
102
RTVSPropertyOp25
 70
     1
102
RTVSPropertyOp26
 70
     1
102
RTVSPropertyOp27
 70
     1
102
RTVSPropertyOp28
 70
     1
102
RTVSPropertyOp29
 70
     1
102
RTVSPropertyOp30
 70
     1
102
RTVSPropertyOp31
 70
     1
102
RTVSPropertyOp32
 70
     1
102
RTVSPropertyOp33
 70
     1
102
RTVSPropertyOp34
 70
     1
102
RTVSPropertyOp35
 70
     1
102
RTVSPropertyOp36
 70
     1
102
RTVSPropertyOp37
 70
     1
102
RTVSPropertyOp38
 70
     1
102
RTVSPropertyOp39
 70
     1
102
RTVSPropertyOp40
 70
     1
102
RTVSPropertyOp41
 70
     1
102
RTVSPropertyOp42
 70
     1
102
RTVSPropertyOp43
 70
     1
102
RTVSPropertyOp44
 70
     1
102
RTVSPropertyOp45
 70
     1
102
RTVSPropertyOp46
 70
     1
102
RTVSPropertyOp47
 70
     1
102
RTVSPropertyOp48
 70
     1
102
RTVSPropertyOp49
 70
     1
102
RTVSPropertyOp50
 70
     1
102
RTVSPropertyOp51
 70
     0
102
RTVSPropertyOp52
 70
     0
102
RTVSPropertyOp53
 70
     1
102
RTVSPropertyOp54
 70
     1
102
RTVSPropertyOp55
 70
     1
102
RTVSPropertyOp56
 70
     1
102
RTVSPropertyOp57
 70
     1
102
RTVSPropertyOp58
 70
     1
102
RTVSPropertyOp59
 70
     1
102
RTVSPropertyOp60
 70
     1
102
RTVSPropertyOp61
 70
     1
102
RTVSPropertyOp62
 70
     1
  0
XRECORD
  5
19249
102
{ACAD_REACTORS
330
19248
102
}
330
19248
100
AcDbXrecord
280
     1
102
RTVSPost2010Prop28
280
     0
102
RTVSPost2010PropOp28
 70
     1
102
RTVSPost2010Prop29
280
     1
102
RTVSPost2010PropOp29
 70
     1
102
RTVSPost2010Prop30
280
     1
102
RTVSPost2010PropOp30
 70
     1
102
RTVSPost2010Prop31
280
     0
102
RTVSPost2010PropOp31
 70
     1
102
RTVSPost2010Prop32
280
     0
102
RTVSPost2010PropOp32
 70
     1
102
RTVSPost2010Prop33
280
     0
102
RTVSPost2010PropOp33
 70
     1
102
RTVSPost2010Prop34
280
     0
102
RTVSPost2010PropOp34
 70
     1
102
RTVSPost2010Prop35
280
     0
102
RTVSPost2010PropOp35
 70
     1
102
RTVSPost2010Prop36
280
     0
102
RTVSPost2010PropOp36
 70
     1
102
RTVSPost2010Prop37
 90
       50
102
RTVSPost2010PropOp37
 70
     1
102
RTVSPost2010Prop38
140
0.0
102
RTVSPost2010PropOp38
 70
     1
102
RTVSPost2010Prop39
140
1.0
102
RTVSPost2010PropOp39
 70
     1
102
RTVSPost2010Prop40
 90
        0
102
RTVSPost2010PropOp40
 70
     1
102
RTVSPost2010Prop41ColorIndex
 90
       18
102
RTVSPost2010Prop41ColorRGB
 90
        0
102
RTVSPost2010PropOp41
 70
     1
102
RTVSPost2010Prop42
 90
       50
102
RTVSPost2010PropOp42
 70
     1
102
RTVSPost2010Prop43
 90
        3
102
RTVSPost2010PropOp43
 70
     1
102
RTVSPost2010Prop44ColorIndex
 90
        5
102
RTVSPost2010Prop44ColorRGB
 90
      255
102
RTVSPost2010PropOp44
 70
     1
102
RTVSPost2010Prop45
280
     0
102
RTVSPost2010PropOp45
 70
     1
102
RTVSPost2010Prop46
 90
       50
102
RTVSPost2010PropOp46
 70
     1
102
RTVSPost2010Prop47
 90
       50
102
RTVSPost2010PropOp47
 70
     1
102
RTVSPost2010Prop48
 90
       50
102
RTVSPost2010PropOp48
 70
     1
102
RTVSPost2010Prop49
280
     0
102
RTVSPost2010PropOp49
 70
     1
102
RTVSPost2010Prop50
 90
       50
102
RTVSPost2010PropOp50
 70
     1
102
RTVSPost2010Prop51ColorIndex
 90
      256
102
RTVSPost2010Prop51ColorRGB
 90
-16777216
102
RTVSPost2010PropOp51
 70
     0
102
RTVSPost2010Prop52
140
1.0
102
RTVSPost2010PropOp52
 70
     0
102
RTVSPost2010Prop53
 90
        2
102
RTVSPost2010PropOp53
 70
     1
102
RTVSPost2010Prop54
  1
strokes_ogs.tif
102
RTVSPost2010PropOp54
 70
     1
102
RTVSPost2010Prop55
280
     0
102
RTVSPost2010PropOp55
 70
     1
102
RTVSPost2010Prop56
140
1.0
102
RTVSPost2010PropOp56
 70
     1
102
RTVSPost2010Prop57
140
1.0
102
RTVSPost2010PropOp57
 70
     1
102
RTVSPropertyOp0
 70
     1
102
RTVSPropertyOp1
 70
     1
102
RTVSPropertyOp2
 70
     1
102
RTVSPropertyOp3
 70
     1
102
RTVSPropertyOp4
 70
     1
102
RTVSPropertyOp5
 70
     1
102
RTVSPropertyOp6
 70
     1
102
RTVSPropertyOp7
 70
     1
102
RTVSPropertyOp8
 70
     1
102
RTVSPropertyOp9
 70
     1
102
RTVSPropertyOp10
 70
     1
102
RTVSPropertyOp11
 70
     1
102
RTVSPropertyOp12
 70
     1
102
RTVSPropertyOp13
 70
     1
102
RTVSPropertyOp14
 70
     1
102
RTVSPropertyOp15
 70
     1
102
RTVSPropertyOp16
 70
     1
102
RTVSPropertyOp17
 70
     1
102
RTVSPropertyOp18
 70
     1
102
RTVSPropertyOp19
 70
     1
102
RTVSPropertyOp20
 70
     1
102
RTVSPropertyOp21
 70
     1
102
RTVSPropertyOp22
 70
     1
102
RTVSPropertyOp23
 70
     1
102
RTVSPropertyOp24
 70
     1
102
RTVSPropertyOp25
 70
     1
102
RTVSPropertyOp26
 70
     1
102
RTVSPropertyOp27
 70
     1
102
RTVSPropertyOp28
 70
     1
102
RTVSPropertyOp29
 70
     1
102
RTVSPropertyOp30
 70
     1
102
RTVSPropertyOp31
 70
     1
102
RTVSPropertyOp32
 70
     1
102
RTVSPropertyOp33
 70
     1
102
RTVSPropertyOp34
 70
     1
102
RTVSPropertyOp35
 70
     1
102
RTVSPropertyOp36
 70
     1
102
RTVSPropertyOp37
 70
     1
102
RTVSPropertyOp38
 70
     1
102
RTVSPropertyOp39
 70
     1
102
RTVSPropertyOp40
 70
     1
102
RTVSPropertyOp41
 70
     1
102
RTVSPropertyOp42
 70
     1
102
RTVSPropertyOp43
 70
     1
102
RTVSPropertyOp44
 70
     1
102
RTVSPropertyOp45
 70
     1
102
RTVSPropertyOp46
 70
     1
102
RTVSPropertyOp47
 70
     1
102
RTVSPropertyOp48
 70
     1
102
RTVSPropertyOp49
 70
     1
102
RTVSPropertyOp50
 70
     1
102
RTVSPropertyOp51
 70
     0
102
RTVSPropertyOp52
 70
     0
102
RTVSPropertyOp53
 70
     1
102
RTVSPropertyOp54
 70
     1
102
RTVSPropertyOp55
 70
     1
102
RTVSPropertyOp56
 70
     1
102
RTVSPropertyOp57
 70
     1
102
RTVSPropertyOp58
 70
     1
102
RTVSPropertyOp59
 70
     1
102
RTVSPropertyOp60
 70
     1
102
RTVSPropertyOp61
 70
     1
102
RTVSPropertyOp62
 70
     1
  0
XRECORD
  5
19257
102
{ACAD_REACTORS
330
19256
102
}
330
19256
100
AcDbXrecord
280
     1
102
RTVSPost2010Prop28
280
     0
102
RTVSPost2010PropOp28
 70
     1
102
RTVSPost2010Prop29
280
     1
102
RTVSPost2010PropOp29
 70
     1
102
RTVSPost2010Prop30
280
     1
102
RTVSPost2010PropOp30
 70
     1
102
RTVSPost2010Prop31
280
     0
102
RTVSPost2010PropOp31
 70
     1
102
RTVSPost2010Prop32
280
     0
102
RTVSPost2010PropOp32
 70
     1
102
RTVSPost2010Prop33
280
     0
102
RTVSPost2010PropOp33
 70
     1
102
RTVSPost2010Prop34
280
     0
102
RTVSPost2010PropOp34
 70
     1
102
RTVSPost2010Prop35
280
     0
102
RTVSPost2010PropOp35
 70
     1
102
RTVSPost2010Prop36
280
     0
102
RTVSPost2010PropOp36
 70
     1
102
RTVSPost2010Prop37
 90
       50
102
RTVSPost2010PropOp37
 70
     1
102
RTVSPost2010Prop38
140
0.0
102
RTVSPost2010PropOp38
 70
     1
102
RTVSPost2010Prop39
140
1.0
102
RTVSPost2010PropOp39
 70
     1
102
RTVSPost2010Prop40
 90
        0
102
RTVSPost2010PropOp40
 70
     1
102
RTVSPost2010Prop41ColorIndex
 90
       18
102
RTVSPost2010Prop41ColorRGB
 90
        0
102
RTVSPost2010PropOp41
 70
     1
102
RTVSPost2010Prop42
 90
       50
102
RTVSPost2010PropOp42
 70
     1
102
RTVSPost2010Prop43
 90
        3
102
RTVSPost2010PropOp43
 70
     1
102
RTVSPost2010Prop44ColorIndex
 90
        5
102
RTVSPost2010Prop44ColorRGB
 90
      255
102
RTVSPost2010PropOp44
 70
     1
102
RTVSPost2010Prop45
280
     0
102
RTVSPost2010PropOp45
 70
     1
102
RTVSPost2010Prop46
 90
       50
102
RTVSPost2010PropOp46
 70
     1
102
RTVSPost2010Prop47
 90
       50
102
RTVSPost2010PropOp47
 70
     1
102
RTVSPost2010Prop48
 90
       50
102
RTVSPost2010PropOp48
 70
     1
102
RTVSPost2010Prop49
280
     0
102
RTVSPost2010PropOp49
 70
     1
102
RTVSPost2010Prop50
 90
       50
102
RTVSPost2010PropOp50
 70
     1
102
RTVSPost2010Prop51ColorIndex
 90
      256
102
RTVSPost2010Prop51ColorRGB
 90
-16777216
102
RTVSPost2010PropOp51
 70
     0
102
RTVSPost2010Prop52
140
1.0
102
RTVSPost2010PropOp52
 70
     0
102
RTVSPost2010Prop53
 90
        2
102
RTVSPost2010PropOp53
 70
     1
102
RTVSPost2010Prop54
  1
strokes_ogs.tif
102
RTVSPost2010PropOp54
 70
     1
102
RTVSPost2010Prop55
280
     0
102
RTVSPost2010PropOp55
 70
     1
102
RTVSPost2010Prop56
140
1.0
102
RTVSPost2010PropOp56
 70
     1
102
RTVSPost2010Prop57
140
1.0
102
RTVSPost2010PropOp57
 70
     1
102
RTVSPropertyOp0
 70
     1
102
RTVSPropertyOp1
 70
     1
102
RTVSPropertyOp2
 70
     1
102
RTVSPropertyOp3
 70
     1
102
RTVSPropertyOp4
 70
     1
102
RTVSPropertyOp5
 70
     1
102
RTVSPropertyOp6
 70
     1
102
RTVSPropertyOp7
 70
     1
102
RTVSPropertyOp8
 70
     1
102
RTVSPropertyOp9
 70
     1
102
RTVSPropertyOp10
 70
     1
102
RTVSPropertyOp11
 70
     1
102
RTVSPropertyOp12
 70
     1
102
RTVSPropertyOp13
 70
     1
102
RTVSPropertyOp14
 70
     1
102
RTVSPropertyOp15
 70
     1
102
RTVSPropertyOp16
 70
     1
102
RTVSPropertyOp17
 70
     1
102
RTVSPropertyOp18
 70
     1
102
RTVSPropertyOp19
 70
     1
102
RTVSPropertyOp20
 70
     1
102
RTVSPropertyOp21
 70
     1
102
RTVSPropertyOp22
 70
     1
102
RTVSPropertyOp23
 70
     1
102
RTVSPropertyOp24
 70
     1
102
RTVSPropertyOp25
 70
     1
102
RTVSPropertyOp26
 70
     1
102
RTVSPropertyOp27
 70
     1
102
RTVSPropertyOp28
 70
     1
102
RTVSPropertyOp29
 70
     1
102
RTVSPropertyOp30
 70
     1
102
RTVSPropertyOp31
 70
     1
102
RTVSPropertyOp32
 70
     1
102
RTVSPropertyOp33
 70
     1
102
RTVSPropertyOp34
 70
     1
102
RTVSPropertyOp35
 70
     1
102
RTVSPropertyOp36
 70
     1
102
RTVSPropertyOp37
 70
     1
102
RTVSPropertyOp38
 70
     1
102
RTVSPropertyOp39
 70
     1
102
RTVSPropertyOp40
 70
     1
102
RTVSPropertyOp41
 70
     1
102
RTVSPropertyOp42
 70
     1
102
RTVSPropertyOp43
 70
     1
102
RTVSPropertyOp44
 70
     1
102
RTVSPropertyOp45
 70
     1
102
RTVSPropertyOp46
 70
     1
102
RTVSPropertyOp47
 70
     1
102
RTVSPropertyOp48
 70
     1
102
RTVSPropertyOp49
 70
     1
102
RTVSPropertyOp50
 70
     1
102
RTVSPropertyOp51
 70
     0
102
RTVSPropertyOp52
 70
     0
102
RTVSPropertyOp53
 70
     1
102
RTVSPropertyOp54
 70
     1
102
RTVSPropertyOp55
 70
     1
102
RTVSPropertyOp56
 70
     1
102
RTVSPropertyOp57
 70
     1
102
RTVSPropertyOp58
 70
     1
102
RTVSPropertyOp59
 70
     1
102
RTVSPropertyOp60
 70
     1
102
RTVSPropertyOp61
 70
     1
102
RTVSPropertyOp62
 70
     1
  0
XRECORD
  5
1925F
102
{ACAD_REACTORS
330
1925E
102
}
330
1925E
100
AcDbXrecord
280
     1
102
RTVSPost2010Prop28
280
     0
102
RTVSPost2010PropOp28
 70
     1
102
RTVSPost2010Prop29
280
     1
102
RTVSPost2010PropOp29
 70
     1
102
RTVSPost2010Prop30
280
     1
102
RTVSPost2010PropOp30
 70
     1
102
RTVSPost2010Prop31
280
     0
102
RTVSPost2010PropOp31
 70
     1
102
RTVSPost2010Prop32
280
     0
102
RTVSPost2010PropOp32
 70
     1
102
RTVSPost2010Prop33
280
     0
102
RTVSPost2010PropOp33
 70
     1
102
RTVSPost2010Prop34
280
     0
102
RTVSPost2010PropOp34
 70
     1
102
RTVSPost2010Prop35
280
     0
102
RTVSPost2010PropOp35
 70
     1
102
RTVSPost2010Prop36
280
     0
102
RTVSPost2010PropOp36
 70
     1
102
RTVSPost2010Prop37
 90
       50
102
RTVSPost2010PropOp37
 70
     1
102
RTVSPost2010Prop38
140
0.0
102
RTVSPost2010PropOp38
 70
     1
102
RTVSPost2010Prop39
140
1.0
102
RTVSPost2010PropOp39
 70
     1
102
RTVSPost2010Prop40
 90
        0
102
RTVSPost2010PropOp40
 70
     1
102
RTVSPost2010Prop41ColorIndex
 90
       18
102
RTVSPost2010Prop41ColorRGB
 90
        0
102
RTVSPost2010PropOp41
 70
     1
102
RTVSPost2010Prop42
 90
       50
102
RTVSPost2010PropOp42
 70
     1
102
RTVSPost2010Prop43
 90
        3
102
RTVSPost2010PropOp43
 70
     1
102
RTVSPost2010Prop44ColorIndex
 90
        5
102
RTVSPost2010Prop44ColorRGB
 90
      255
102
RTVSPost2010PropOp44
 70
     1
102
RTVSPost2010Prop45
280
     0
102
RTVSPost2010PropOp45
 70
     1
102
RTVSPost2010Prop46
 90
       50
102
RTVSPost2010PropOp46
 70
     1
102
RTVSPost2010Prop47
 90
       50
102
RTVSPost2010PropOp47
 70
     1
102
RTVSPost2010Prop48
 90
       50
102
RTVSPost2010PropOp48
 70
     1
102
RTVSPost2010Prop49
280
     0
102
RTVSPost2010PropOp49
 70
     1
102
RTVSPost2010Prop50
 90
       50
102
RTVSPost2010PropOp50
 70
     1
102
RTVSPost2010Prop51ColorIndex
 90
      256
102
RTVSPost2010Prop51ColorRGB
 90
-16777216
102
RTVSPost2010PropOp51
 70
     0
102
RTVSPost2010Prop52
140
1.0
102
RTVSPost2010PropOp52
 70
     0
102
RTVSPost2010Prop53
 90
        2
102
RTVSPost2010PropOp53
 70
     1
102
RTVSPost2010Prop54
  1
strokes_ogs.tif
102
RTVSPost2010PropOp54
 70
     1
102
RTVSPost2010Prop55
280
     0
102
RTVSPost2010PropOp55
 70
     1
102
RTVSPost2010Prop56
140
1.0
102
RTVSPost2010PropOp56
 70
     1
102
RTVSPost2010Prop57
140
1.0
102
RTVSPost2010PropOp57
 70
     1
102
RTVSPropertyOp0
 70
     1
102
RTVSPropertyOp1
 70
     1
102
RTVSPropertyOp2
 70
     1
102
RTVSPropertyOp3
 70
     1
102
RTVSPropertyOp4
 70
     1
102
RTVSPropertyOp5
 70
     1
102
RTVSPropertyOp6
 70
     1
102
RTVSPropertyOp7
 70
     1
102
RTVSPropertyOp8
 70
     1
102
RTVSPropertyOp9
 70
     1
102
RTVSPropertyOp10
 70
     1
102
RTVSPropertyOp11
 70
     1
102
RTVSPropertyOp12
 70
     1
102
RTVSPropertyOp13
 70
     1
102
RTVSPropertyOp14
 70
     1
102
RTVSPropertyOp15
 70
     1
102
RTVSPropertyOp16
 70
     1
102
RTVSPropertyOp17
 70
     1
102
RTVSPropertyOp18
 70
     1
102
RTVSPropertyOp19
 70
     1
102
RTVSPropertyOp20
 70
     1
102
RTVSPropertyOp21
 70
     1
102
RTVSPropertyOp22
 70
     1
102
RTVSPropertyOp23
 70
     1
102
RTVSPropertyOp24
 70
     1
102
RTVSPropertyOp25
 70
     1
102
RTVSPropertyOp26
 70
     1
102
RTVSPropertyOp27
 70
     1
102
RTVSPropertyOp28
 70
     1
102
RTVSPropertyOp29
 70
     1
102
RTVSPropertyOp30
 70
     1
102
RTVSPropertyOp31
 70
     1
102
RTVSPropertyOp32
 70
     1
102
RTVSPropertyOp33
 70
     1
102
RTVSPropertyOp34
 70
     1
102
RTVSPropertyOp35
 70
     1
102
RTVSPropertyOp36
 70
     1
102
RTVSPropertyOp37
 70
     1
102
RTVSPropertyOp38
 70
     1
102
RTVSPropertyOp39
 70
     1
102
RTVSPropertyOp40
 70
     1
102
RTVSPropertyOp41
 70
     1
102
RTVSPropertyOp42
 70
     1
102
RTVSPropertyOp43
 70
     1
102
RTVSPropertyOp44
 70
     1
102
RTVSPropertyOp45
 70
     1
102
RTVSPropertyOp46
 70
     1
102
RTVSPropertyOp47
 70
     1
102
RTVSPropertyOp48
 70
     1
102
RTVSPropertyOp49
 70
     1
102
RTVSPropertyOp50
 70
     1
102
RTVSPropertyOp51
 70
     0
102
RTVSPropertyOp52
 70
     0
102
RTVSPropertyOp53
 70
     1
102
RTVSPropertyOp54
 70
     1
102
RTVSPropertyOp55
 70
     1
102
RTVSPropertyOp56
 70
     1
102
RTVSPropertyOp57
 70
     1
102
RTVSPropertyOp58
 70
     1
102
RTVSPropertyOp59
 70
     1
102
RTVSPropertyOp60
 70
     1
102
RTVSPropertyOp61
 70
     1
102
RTVSPropertyOp62
 70
     1
  0
XRECORD
  5
19251
102
{ACAD_REACTORS
330
19250
102
}
330
19250
100
AcDbXrecord
280
     1
102
RTVSPost2010Prop28
280
     0
102
RTVSPost2010PropOp28
 70
     1
102
RTVSPost2010Prop29
280
     1
102
RTVSPost2010PropOp29
 70
     1
102
RTVSPost2010Prop30
280
     1
102
RTVSPost2010PropOp30
 70
     1
102
RTVSPost2010Prop31
280
     0
102
RTVSPost2010PropOp31
 70
     1
102
RTVSPost2010Prop32
280
     0
102
RTVSPost2010PropOp32
 70
     1
102
RTVSPost2010Prop33
280
     0
102
RTVSPost2010PropOp33
 70
     1
102
RTVSPost2010Prop34
280
     0
102
RTVSPost2010PropOp34
 70
     1
102
RTVSPost2010Prop35
280
     0
102
RTVSPost2010PropOp35
 70
     1
102
RTVSPost2010Prop36
280
     0
102
RTVSPost2010PropOp36
 70
     1
102
RTVSPost2010Prop37
 90
       50
102
RTVSPost2010PropOp37
 70
     1
102
RTVSPost2010Prop38
140
0.0
102
RTVSPost2010PropOp38
 70
     1
102
RTVSPost2010Prop39
140
1.0
102
RTVSPost2010PropOp39
 70
     1
102
RTVSPost2010Prop40
 90
        0
102
RTVSPost2010PropOp40
 70
     1
102
RTVSPost2010Prop41ColorIndex
 90
       18
102
RTVSPost2010Prop41ColorRGB
 90
        0
102
RTVSPost2010PropOp41
 70
     1
102
RTVSPost2010Prop42
 90
       50
102
RTVSPost2010PropOp42
 70
     1
102
RTVSPost2010Prop43
 90
        3
102
RTVSPost2010PropOp43
 70
     1
102
RTVSPost2010Prop44ColorIndex
 90
        5
102
RTVSPost2010Prop44ColorRGB
 90
      255
102
RTVSPost2010PropOp44
 70
     1
102
RTVSPost2010Prop45
280
     0
102
RTVSPost2010PropOp45
 70
     1
102
RTVSPost2010Prop46
 90
       50
102
RTVSPost2010PropOp46
 70
     1
102
RTVSPost2010Prop47
 90
       50
102
RTVSPost2010PropOp47
 70
     1
102
RTVSPost2010Prop48
 90
       50
102
RTVSPost2010PropOp48
 70
     1
102
RTVSPost2010Prop49
280
     0
102
RTVSPost2010PropOp49
 70
     1
102
RTVSPost2010Prop50
 90
       50
102
RTVSPost2010PropOp50
 70
     1
102
RTVSPost2010Prop51ColorIndex
 90
      256
102
RTVSPost2010Prop51ColorRGB
 90
-16777216
102
RTVSPost2010PropOp51
 70
     0
102
RTVSPost2010Prop52
140
1.0
102
RTVSPost2010PropOp52
 70
     0
102
RTVSPost2010Prop53
 90
        2
102
RTVSPost2010PropOp53
 70
     1
102
RTVSPost2010Prop54
  1
strokes_ogs.tif
102
RTVSPost2010PropOp54
 70
     1
102
RTVSPost2010Prop55
280
     0
102
RTVSPost2010PropOp55
 70
     1
102
RTVSPost2010Prop56
140
1.0
102
RTVSPost2010PropOp56
 70
     1
102
RTVSPost2010Prop57
140
1.0
102
RTVSPost2010PropOp57
 70
     1
102
RTVSPropertyOp0
 70
     1
102
RTVSPropertyOp1
 70
     1
102
RTVSPropertyOp2
 70
     1
102
RTVSPropertyOp3
 70
     1
102
RTVSPropertyOp4
 70
     1
102
RTVSPropertyOp5
 70
     1
102
RTVSPropertyOp6
 70
     1
102
RTVSPropertyOp7
 70
     1
102
RTVSPropertyOp8
 70
     1
102
RTVSPropertyOp9
 70
     1
102
RTVSPropertyOp10
 70
     1
102
RTVSPropertyOp11
 70
     1
102
RTVSPropertyOp12
 70
     1
102
RTVSPropertyOp13
 70
     1
102
RTVSPropertyOp14
 70
     1
102
RTVSPropertyOp15
 70
     1
102
RTVSPropertyOp16
 70
     1
102
RTVSPropertyOp17
 70
     1
102
RTVSPropertyOp18
 70
     1
102
RTVSPropertyOp19
 70
     1
102
RTVSPropertyOp20
 70
     1
102
RTVSPropertyOp21
 70
     1
102
RTVSPropertyOp22
 70
     1
102
RTVSPropertyOp23
 70
     1
102
RTVSPropertyOp24
 70
     1
102
RTVSPropertyOp25
 70
     1
102
RTVSPropertyOp26
 70
     1
102
RTVSPropertyOp27
 70
     1
102
RTVSPropertyOp28
 70
     1
102
RTVSPropertyOp29
 70
     1
102
RTVSPropertyOp30
 70
     1
102
RTVSPropertyOp31
 70
     1
102
RTVSPropertyOp32
 70
     1
102
RTVSPropertyOp33
 70
     1
102
RTVSPropertyOp34
 70
     1
102
RTVSPropertyOp35
 70
     1
102
RTVSPropertyOp36
 70
     1
102
RTVSPropertyOp37
 70
     1
102
RTVSPropertyOp38
 70
     1
102
RTVSPropertyOp39
 70
     1
102
RTVSPropertyOp40
 70
     1
102
RTVSPropertyOp41
 70
     1
102
RTVSPropertyOp42
 70
     1
102
RTVSPropertyOp43
 70
     1
102
RTVSPropertyOp44
 70
     1
102
RTVSPropertyOp45
 70
     1
102
RTVSPropertyOp46
 70
     1
102
RTVSPropertyOp47
 70
     1
102
RTVSPropertyOp48
 70
     1
102
RTVSPropertyOp49
 70
     1
102
RTVSPropertyOp50
 70
     1
102
RTVSPropertyOp51
 70
     0
102
RTVSPropertyOp52
 70
     0
102
RTVSPropertyOp53
 70
     1
102
RTVSPropertyOp54
 70
     1
102
RTVSPropertyOp55
 70
     1
102
RTVSPropertyOp56
 70
     1
102
RTVSPropertyOp57
 70
     1
102
RTVSPropertyOp58
 70
     1
102
RTVSPropertyOp59
 70
     1
102
RTVSPropertyOp60
 70
     1
102
RTVSPropertyOp61
 70
     1
102
RTVSPropertyOp62
 70
     1
  0
XRECORD
  5
19255
102
{ACAD_REACTORS
330
19254
102
}
330
19254
100
AcDbXrecord
280
     1
102
RTVSPost2010Prop28
280
     0
102
RTVSPost2010PropOp28
 70
     1
102
RTVSPost2010Prop29
280
     1
102
RTVSPost2010PropOp29
 70
     1
102
RTVSPost2010Prop30
280
     1
102
RTVSPost2010PropOp30
 70
     1
102
RTVSPost2010Prop31
280
     0
102
RTVSPost2010PropOp31
 70
     1
102
RTVSPost2010Prop32
280
     0
102
RTVSPost2010PropOp32
 70
     1
102
RTVSPost2010Prop33
280
     0
102
RTVSPost2010PropOp33
 70
     1
102
RTVSPost2010Prop34
280
     0
102
RTVSPost2010PropOp34
 70
     1
102
RTVSPost2010Prop35
280
     0
102
RTVSPost2010PropOp35
 70
     1
102
RTVSPost2010Prop36
280
     0
102
RTVSPost2010PropOp36
 70
     1
102
RTVSPost2010Prop37
 90
       50
102
RTVSPost2010PropOp37
 70
     1
102
RTVSPost2010Prop38
140
0.0
102
RTVSPost2010PropOp38
 70
     1
102
RTVSPost2010Prop39
140
1.0
102
RTVSPost2010PropOp39
 70
     1
102
RTVSPost2010Prop40
 90
        0
102
RTVSPost2010PropOp40
 70
     1
102
RTVSPost2010Prop41ColorIndex
 90
       18
102
RTVSPost2010Prop41ColorRGB
 90
        0
102
RTVSPost2010PropOp41
 70
     1
102
RTVSPost2010Prop42
 90
       50
102
RTVSPost2010PropOp42
 70
     1
102
RTVSPost2010Prop43
 90
        3
102
RTVSPost2010PropOp43
 70
     1
102
RTVSPost2010Prop44ColorIndex
 90
        5
102
RTVSPost2010Prop44ColorRGB
 90
      255
102
RTVSPost2010PropOp44
 70
     1
102
RTVSPost2010Prop45
280
     0
102
RTVSPost2010PropOp45
 70
     1
102
RTVSPost2010Prop46
 90
       50
102
RTVSPost2010PropOp46
 70
     1
102
RTVSPost2010Prop47
 90
       50
102
RTVSPost2010PropOp47
 70
     1
102
RTVSPost2010Prop48
 90
       50
102
RTVSPost2010PropOp48
 70
     1
102
RTVSPost2010Prop49
280
     0
102
RTVSPost2010PropOp49
 70
     1
102
RTVSPost2010Prop50
 90
       50
102
RTVSPost2010PropOp50
 70
     1
102
RTVSPost2010Prop51ColorIndex
 90
      256
102
RTVSPost2010Prop51ColorRGB
 90
-16777216
102
RTVSPost2010PropOp51
 70
     0
102
RTVSPost2010Prop52
140
1.0
102
RTVSPost2010PropOp52
 70
     0
102
RTVSPost2010Prop53
 90
        2
102
RTVSPost2010PropOp53
 70
     1
102
RTVSPost2010Prop54
  1
strokes_ogs.tif
102
RTVSPost2010PropOp54
 70
     1
102
RTVSPost2010Prop55
280
     0
102
RTVSPost2010PropOp55
 70
     1
102
RTVSPost2010Prop56
140
1.0
102
RTVSPost2010PropOp56
 70
     1
102
RTVSPost2010Prop57
140
1.0
102
RTVSPost2010PropOp57
 70
     1
102
RTVSPropertyOp0
 70
     1
102
RTVSPropertyOp1
 70
     1
102
RTVSPropertyOp2
 70
     1
102
RTVSPropertyOp3
 70
     1
102
RTVSPropertyOp4
 70
     1
102
RTVSPropertyOp5
 70
     1
102
RTVSPropertyOp6
 70
     1
102
RTVSPropertyOp7
 70
     1
102
RTVSPropertyOp8
 70
     1
102
RTVSPropertyOp9
 70
     1
102
RTVSPropertyOp10
 70
     1
102
RTVSPropertyOp11
 70
     1
102
RTVSPropertyOp12
 70
     1
102
RTVSPropertyOp13
 70
     1
102
RTVSPropertyOp14
 70
     1
102
RTVSPropertyOp15
 70
     1
102
RTVSPropertyOp16
 70
     1
102
RTVSPropertyOp17
 70
     1
102
RTVSPropertyOp18
 70
     1
102
RTVSPropertyOp19
 70
     1
102
RTVSPropertyOp20
 70
     1
102
RTVSPropertyOp21
 70
     1
102
RTVSPropertyOp22
 70
     1
102
RTVSPropertyOp23
 70
     1
102
RTVSPropertyOp24
 70
     1
102
RTVSPropertyOp25
 70
     1
102
RTVSPropertyOp26
 70
     1
102
RTVSPropertyOp27
 70
     1
102
RTVSPropertyOp28
 70
     1
102
RTVSPropertyOp29
 70
     1
102
RTVSPropertyOp30
 70
     1
102
RTVSPropertyOp31
 70
     1
102
RTVSPropertyOp32
 70
     1
102
RTVSPropertyOp33
 70
     1
102
RTVSPropertyOp34
 70
     1
102
RTVSPropertyOp35
 70
     1
102
RTVSPropertyOp36
 70
     1
102
RTVSPropertyOp37
 70
     1
102
RTVSPropertyOp38
 70
     1
102
RTVSPropertyOp39
 70
     1
102
RTVSPropertyOp40
 70
     1
102
RTVSPropertyOp41
 70
     1
102
RTVSPropertyOp42
 70
     1
102
RTVSPropertyOp43
 70
     1
102
RTVSPropertyOp44
 70
     1
102
RTVSPropertyOp45
 70
     1
102
RTVSPropertyOp46
 70
     1
102
RTVSPropertyOp47
 70
     1
102
RTVSPropertyOp48
 70
     1
102
RTVSPropertyOp49
 70
     1
102
RTVSPropertyOp50
 70
     1
102
RTVSPropertyOp51
 70
     0
102
RTVSPropertyOp52
 70
     0
102
RTVSPropertyOp53
 70
     1
102
RTVSPropertyOp54
 70
     1
102
RTVSPropertyOp55
 70
     1
102
RTVSPropertyOp56
 70
     1
102
RTVSPropertyOp57
 70
     1
102
RTVSPropertyOp58
 70
     1
102
RTVSPropertyOp59
 70
     1
102
RTVSPropertyOp60
 70
     1
102
RTVSPropertyOp61
 70
     1
102
RTVSPropertyOp62
 70
     1
  0
XRECORD
  5
1926F
102
{ACAD_REACTORS
330
1926E
102
}
330
1926E
100
AcDbXrecord
280
     1
102
RTVSPost2010Prop28
280
     0
102
RTVSPost2010PropOp28
 70
     0
102
RTVSPost2010Prop29
280
     1
102
RTVSPost2010PropOp29
 70
     0
102
RTVSPost2010Prop30
280
     1
102
RTVSPost2010PropOp30
 70
     0
102
RTVSPost2010Prop31
280
     0
102
RTVSPost2010PropOp31
 70
     0
102
RTVSPost2010Prop32
280
     0
102
RTVSPost2010PropOp32
 70
     0
102
RTVSPost2010Prop33
280
     0
102
RTVSPost2010PropOp33
 70
     0
102
RTVSPost2010Prop34
280
     0
102
RTVSPost2010PropOp34
 70
     0
102
RTVSPost2010Prop35
280
     0
102
RTVSPost2010PropOp35
 70
     0
102
RTVSPost2010Prop36
280
     0
102
RTVSPost2010PropOp36
 70
     0
102
RTVSPost2010Prop37
 90
       50
102
RTVSPost2010PropOp37
 70
     0
102
RTVSPost2010Prop38
140
0.0
102
RTVSPost2010PropOp38
 70
     0
102
RTVSPost2010Prop39
140
1.0
102
RTVSPost2010PropOp39
 70
     0
102
RTVSPost2010Prop40
 90
        0
102
RTVSPost2010PropOp40
 70
     0
102
RTVSPost2010Prop41ColorIndex
 90
       18
102
RTVSPost2010Prop41ColorRGB
 90
        0
102
RTVSPost2010PropOp41
 70
     0
102
RTVSPost2010Prop42
 90
       50
102
RTVSPost2010PropOp42
 70
     0
102
RTVSPost2010Prop43
 90
        3
102
RTVSPost2010PropOp43
 70
     0
102
RTVSPost2010Prop44ColorIndex
 90
        5
102
RTVSPost2010Prop44ColorRGB
 90
      255
102
RTVSPost2010PropOp44
 70
     0
102
RTVSPost2010Prop45
280
     0
102
RTVSPost2010PropOp45
 70
     0
102
RTVSPost2010Prop46
 90
       50
102
RTVSPost2010PropOp46
 70
     0
102
RTVSPost2010Prop47
 90
       50
102
RTVSPost2010PropOp47
 70
     0
102
RTVSPost2010Prop48
 90
       50
102
RTVSPost2010PropOp48
 70
     0
102
RTVSPost2010Prop49
280
     0
102
RTVSPost2010PropOp49
 70
     0
102
RTVSPost2010Prop50
 90
       50
102
RTVSPost2010PropOp50
 70
     0
102
RTVSPost2010Prop51ColorIndex
 90
      256
102
RTVSPost2010Prop51ColorRGB
 90
-16777216
102
RTVSPost2010PropOp51
 70
     0
102
RTVSPost2010Prop52
140
1.0
102
RTVSPost2010PropOp52
 70
     0
102
RTVSPost2010Prop53
 90
        2
102
RTVSPost2010PropOp53
 70
     0
102
RTVSPost2010Prop54
  1
strokes_ogs.tif
102
RTVSPost2010PropOp54
 70
     0
102
RTVSPost2010Prop55
280
     0
102
RTVSPost2010PropOp55
 70
     0
102
RTVSPost2010Prop56
140
1.0
102
RTVSPost2010PropOp56
 70
     0
102
RTVSPost2010Prop57
140
1.0
102
RTVSPost2010PropOp57
 70
     0
102
RTVSPropertyOp0
 70
     0
102
RTVSPropertyOp1
 70
     0
102
RTVSPropertyOp2
 70
     0
102
RTVSPropertyOp3
 70
     0
102
RTVSPropertyOp4
 70
     0
102
RTVSPropertyOp5
 70
     0
102
RTVSPropertyOp6
 70
     0
102
RTVSPropertyOp7
 70
     0
102
RTVSPropertyOp8
 70
     0
102
RTVSPropertyOp9
 70
     0
102
RTVSPropertyOp10
 70
     0
102
RTVSPropertyOp11
 70
     0
102
RTVSPropertyOp12
 70
     0
102
RTVSPropertyOp13
 70
     0
102
RTVSPropertyOp14
 70
     2
102
RTVSPropertyOp15
 70
     0
102
RTVSPropertyOp16
 70
     0
102
RTVSPropertyOp17
 70
     0
102
RTVSPropertyOp18
 70
     0
102
RTVSPropertyOp19
 70
     0
102
RTVSPropertyOp20
 70
     0
102
RTVSPropertyOp21
 70
     0
102
RTVSPropertyOp22
 70
     0
102
RTVSPropertyOp23
 70
     0
102
RTVSPropertyOp24
 70
     0
102
RTVSPropertyOp25
 70
     0
102
RTVSPropertyOp26
 70
     0
102
RTVSPropertyOp27
 70
     0
102
RTVSPropertyOp28
 70
     0
102
RTVSPropertyOp29
 70
     0
102
RTVSPropertyOp30
 70
     0
102
RTVSPropertyOp31
 70
     0
102
RTVSPropertyOp32
 70
     0
102
RTVSPropertyOp33
 70
     0
102
RTVSPropertyOp34
 70
     0
102
RTVSPropertyOp35
 70
     0
102
RTVSPropertyOp36
 70
     0
102
RTVSPropertyOp37
 70
     0
102
RTVSPropertyOp38
 70
     0
102
RTVSPropertyOp39
 70
     0
102
RTVSPropertyOp40
 70
     0
102
RTVSPropertyOp41
 70
     0
102
RTVSPropertyOp42
 70
     0
102
RTVSPropertyOp43
 70
     0
102
RTVSPropertyOp44
 70
     0
102
RTVSPropertyOp45
 70
     0
102
RTVSPropertyOp46
 70
     0
102
RTVSPropertyOp47
 70
     0
102
RTVSPropertyOp48
 70
     0
102
RTVSPropertyOp49
 70
     0
102
RTVSPropertyOp50
 70
     0
102
RTVSPropertyOp51
 70
     0
102
RTVSPropertyOp52
 70
     0
102
RTVSPropertyOp53
 70
     0
102
RTVSPropertyOp54
 70
     0
102
RTVSPropertyOp55
 70
     0
102
RTVSPropertyOp56
 70
     0
102
RTVSPropertyOp57
 70
     0
102
RTVSPropertyOp58
 70
     0
102
RTVSPropertyOp59
 70
     0
102
RTVSPropertyOp60
 70
     0
102
RTVSPropertyOp61
 70
     0
102
RTVSPropertyOp62
 70
     0
  0
XRECORD
  5
1925D
102
{ACAD_REACTORS
330
1925C
102
}
330
1925C
100
AcDbXrecord
280
     1
102
RTVSPost2010Prop28
280
     0
102
RTVSPost2010PropOp28
 70
     1
102
RTVSPost2010Prop29
280
     1
102
RTVSPost2010PropOp29
 70
     1
102
RTVSPost2010Prop30
280
     1
102
RTVSPost2010PropOp30
 70
     1
102
RTVSPost2010Prop31
280
     0
102
RTVSPost2010PropOp31
 70
     1
102
RTVSPost2010Prop32
280
     0
102
RTVSPost2010PropOp32
 70
     1
102
RTVSPost2010Prop33
280
     0
102
RTVSPost2010PropOp33
 70
     1
102
RTVSPost2010Prop34
280
     0
102
RTVSPost2010PropOp34
 70
     1
102
RTVSPost2010Prop35
280
     0
102
RTVSPost2010PropOp35
 70
     1
102
RTVSPost2010Prop36
280
     0
102
RTVSPost2010PropOp36
 70
     1
102
RTVSPost2010Prop37
 90
       50
102
RTVSPost2010PropOp37
 70
     1
102
RTVSPost2010Prop38
140
0.0
102
RTVSPost2010PropOp38
 70
     1
102
RTVSPost2010Prop39
140
1.0
102
RTVSPost2010PropOp39
 70
     1
102
RTVSPost2010Prop40
 90
        0
102
RTVSPost2010PropOp40
 70
     1
102
RTVSPost2010Prop41ColorIndex
 90
       18
102
RTVSPost2010Prop41ColorRGB
 90
        0
102
RTVSPost2010PropOp41
 70
     1
102
RTVSPost2010Prop42
 90
       50
102
RTVSPost2010PropOp42
 70
     1
102
RTVSPost2010Prop43
 90
        3
102
RTVSPost2010PropOp43
 70
     1
102
RTVSPost2010Prop44ColorIndex
 90
        5
102
RTVSPost2010Prop44ColorRGB
 90
      255
102
RTVSPost2010PropOp44
 70
     1
102
RTVSPost2010Prop45
280
     0
102
RTVSPost2010PropOp45
 70
     1
102
RTVSPost2010Prop46
 90
       50
102
RTVSPost2010PropOp46
 70
     1
102
RTVSPost2010Prop47
 90
       50
102
RTVSPost2010PropOp47
 70
     1
102
RTVSPost2010Prop48
 90
       50
102
RTVSPost2010PropOp48
 70
     1
102
RTVSPost2010Prop49
280
     0
102
RTVSPost2010PropOp49
 70
     1
102
RTVSPost2010Prop50
 90
       50
102
RTVSPost2010PropOp50
 70
     1
102
RTVSPost2010Prop51ColorIndex
 90
      256
102
RTVSPost2010Prop51ColorRGB
 90
-16777216
102
RTVSPost2010PropOp51
 70
     0
102
RTVSPost2010Prop52
140
1.0
102
RTVSPost2010PropOp52
 70
     0
102
RTVSPost2010Prop53
 90
        2
102
RTVSPost2010PropOp53
 70
     1
102
RTVSPost2010Prop54
  1
strokes_ogs.tif
102
RTVSPost2010PropOp54
 70
     1
102
RTVSPost2010Prop55
280
     0
102
RTVSPost2010PropOp55
 70
     1
102
RTVSPost2010Prop56
140
1.0
102
RTVSPost2010PropOp56
 70
     1
102
RTVSPost2010Prop57
140
1.0
102
RTVSPost2010PropOp57
 70
     1
102
RTVSPropertyOp0
 70
     1
102
RTVSPropertyOp1
 70
     1
102
RTVSPropertyOp2
 70
     1
102
RTVSPropertyOp3
 70
     1
102
RTVSPropertyOp4
 70
     1
102
RTVSPropertyOp5
 70
     1
102
RTVSPropertyOp6
 70
     1
102
RTVSPropertyOp7
 70
     1
102
RTVSPropertyOp8
 70
     1
102
RTVSPropertyOp9
 70
     1
102
RTVSPropertyOp10
 70
     1
102
RTVSPropertyOp11
 70
     1
102
RTVSPropertyOp12
 70
     1
102
RTVSPropertyOp13
 70
     1
102
RTVSPropertyOp14
 70
     1
102
RTVSPropertyOp15
 70
     1
102
RTVSPropertyOp16
 70
     1
102
RTVSPropertyOp17
 70
     1
102
RTVSPropertyOp18
 70
     1
102
RTVSPropertyOp19
 70
     1
102
RTVSPropertyOp20
 70
     1
102
RTVSPropertyOp21
 70
     1
102
RTVSPropertyOp22
 70
     1
102
RTVSPropertyOp23
 70
     1
102
RTVSPropertyOp24
 70
     1
102
RTVSPropertyOp25
 70
     1
102
RTVSPropertyOp26
 70
     1
102
RTVSPropertyOp27
 70
     1
102
RTVSPropertyOp28
 70
     1
102
RTVSPropertyOp29
 70
     1
102
RTVSPropertyOp30
 70
     1
102
RTVSPropertyOp31
 70
     1
102
RTVSPropertyOp32
 70
     1
102
RTVSPropertyOp33
 70
     1
102
RTVSPropertyOp34
 70
     1
102
RTVSPropertyOp35
 70
     1
102
RTVSPropertyOp36
 70
     1
102
RTVSPropertyOp37
 70
     1
102
RTVSPropertyOp38
 70
     1
102
RTVSPropertyOp39
 70
     1
102
RTVSPropertyOp40
 70
     1
102
RTVSPropertyOp41
 70
     1
102
RTVSPropertyOp42
 70
     1
102
RTVSPropertyOp43
 70
     1
102
RTVSPropertyOp44
 70
     1
102
RTVSPropertyOp45
 70
     1
102
RTVSPropertyOp46
 70
     1
102
RTVSPropertyOp47
 70
     1
102
RTVSPropertyOp48
 70
     1
102
RTVSPropertyOp49
 70
     1
102
RTVSPropertyOp50
 70
     1
102
RTVSPropertyOp51
 70
     0
102
RTVSPropertyOp52
 70
     0
102
RTVSPropertyOp53
 70
     1
102
RTVSPropertyOp54
 70
     1
102
RTVSPropertyOp55
 70
     1
102
RTVSPropertyOp56
 70
     1
102
RTVSPropertyOp57
 70
     1
102
RTVSPropertyOp58
 70
     1
102
RTVSPropertyOp59
 70
     1
102
RTVSPropertyOp60
 70
     1
102
RTVSPropertyOp61
 70
     1
102
RTVSPropertyOp62
 70
     1
  0
XRECORD
  5
19241
102
{ACAD_REACTORS
330
19240
102
}
330
19240
100
AcDbXrecord
280
     1
102
RTVSPost2010Prop28
280
     0
102
RTVSPost2010PropOp28
 70
     1
102
RTVSPost2010Prop29
280
     1
102
RTVSPost2010PropOp29
 70
     1
102
RTVSPost2010Prop30
280
     1
102
RTVSPost2010PropOp30
 70
     1
102
RTVSPost2010Prop31
280
     0
102
RTVSPost2010PropOp31
 70
     1
102
RTVSPost2010Prop32
280
     0
102
RTVSPost2010PropOp32
 70
     1
102
RTVSPost2010Prop33
280
     0
102
RTVSPost2010PropOp33
 70
     1
102
RTVSPost2010Prop34
280
     0
102
RTVSPost2010PropOp34
 70
     1
102
RTVSPost2010Prop35
280
     0
102
RTVSPost2010PropOp35
 70
     1
102
RTVSPost2010Prop36
280
     0
102
RTVSPost2010PropOp36
 70
     1
102
RTVSPost2010Prop37
 90
       50
102
RTVSPost2010PropOp37
 70
     1
102
RTVSPost2010Prop38
140
0.0
102
RTVSPost2010PropOp38
 70
     1
102
RTVSPost2010Prop39
140
1.0
102
RTVSPost2010PropOp39
 70
     1
102
RTVSPost2010Prop40
 90
        0
102
RTVSPost2010PropOp40
 70
     1
102
RTVSPost2010Prop41ColorIndex
 90
       18
102
RTVSPost2010Prop41ColorRGB
 90
        0
102
RTVSPost2010PropOp41
 70
     1
102
RTVSPost2010Prop42
 90
       50
102
RTVSPost2010PropOp42
 70
     1
102
RTVSPost2010Prop43
 90
        3
102
RTVSPost2010PropOp43
 70
     1
102
RTVSPost2010Prop44ColorIndex
 90
        5
102
RTVSPost2010Prop44ColorRGB
 90
      255
102
RTVSPost2010PropOp44
 70
     1
102
RTVSPost2010Prop45
280
     0
102
RTVSPost2010PropOp45
 70
     1
102
RTVSPost2010Prop46
 90
       50
102
RTVSPost2010PropOp46
 70
     1
102
RTVSPost2010Prop47
 90
       50
102
RTVSPost2010PropOp47
 70
     1
102
RTVSPost2010Prop48
 90
       50
102
RTVSPost2010PropOp48
 70
     1
102
RTVSPost2010Prop49
280
     0
102
RTVSPost2010PropOp49
 70
     1
102
RTVSPost2010Prop50
 90
       50
102
RTVSPost2010PropOp50
 70
     1
102
RTVSPost2010Prop51ColorIndex
 90
      256
102
RTVSPost2010Prop51ColorRGB
 90
-16777216
102
RTVSPost2010PropOp51
 70
     0
102
RTVSPost2010Prop52
140
1.0
102
RTVSPost2010PropOp52
 70
     0
102
RTVSPost2010Prop53
 90
        2
102
RTVSPost2010PropOp53
 70
     1
102
RTVSPost2010Prop54
  1
strokes_ogs.tif
102
RTVSPost2010PropOp54
 70
     1
102
RTVSPost2010Prop55
280
     0
102
RTVSPost2010PropOp55
 70
     1
102
RTVSPost2010Prop56
140
1.0
102
RTVSPost2010PropOp56
 70
     1
102
RTVSPost2010Prop57
140
1.0
102
RTVSPost2010PropOp57
 70
     1
102
RTVSPropertyOp0
 70
     1
102
RTVSPropertyOp1
 70
     1
102
RTVSPropertyOp2
 70
     1
102
RTVSPropertyOp3
 70
     1
102
RTVSPropertyOp4
 70
     1
102
RTVSPropertyOp5
 70
     1
102
RTVSPropertyOp6
 70
     1
102
RTVSPropertyOp7
 70
     1
102
RTVSPropertyOp8
 70
     1
102
RTVSPropertyOp9
 70
     1
102
RTVSPropertyOp10
 70
     1
102
RTVSPropertyOp11
 70
     1
102
RTVSPropertyOp12
 70
     1
102
RTVSPropertyOp13
 70
     1
102
RTVSPropertyOp14
 70
     1
102
RTVSPropertyOp15
 70
     1
102
RTVSPropertyOp16
 70
     1
102
RTVSPropertyOp17
 70
     1
102
RTVSPropertyOp18
 70
     1
102
RTVSPropertyOp19
 70
     1
102
RTVSPropertyOp20
 70
     1
102
RTVSPropertyOp21
 70
     1
102
RTVSPropertyOp22
 70
     1
102
RTVSPropertyOp23
 70
     1
102
RTVSPropertyOp24
 70
     1
102
RTVSPropertyOp25
 70
     1
102
RTVSPropertyOp26
 70
     1
102
RTVSPropertyOp27
 70
     1
102
RTVSPropertyOp28
 70
     1
102
RTVSPropertyOp29
 70
     1
102
RTVSPropertyOp30
 70
     1
102
RTVSPropertyOp31
 70
     1
102
RTVSPropertyOp32
 70
     1
102
RTVSPropertyOp33
 70
     1
102
RTVSPropertyOp34
 70
     1
102
RTVSPropertyOp35
 70
     1
102
RTVSPropertyOp36
 70
     1
102
RTVSPropertyOp37
 70
     1
102
RTVSPropertyOp38
 70
     1
102
RTVSPropertyOp39
 70
     1
102
RTVSPropertyOp40
 70
     1
102
RTVSPropertyOp41
 70
     1
102
RTVSPropertyOp42
 70
     1
102
RTVSPropertyOp43
 70
     1
102
RTVSPropertyOp44
 70
     1
102
RTVSPropertyOp45
 70
     1
102
RTVSPropertyOp46
 70
     1
102
RTVSPropertyOp47
 70
     1
102
RTVSPropertyOp48
 70
     1
102
RTVSPropertyOp49
 70
     1
102
RTVSPropertyOp50
 70
     1
102
RTVSPropertyOp51
 70
     0
102
RTVSPropertyOp52
 70
     0
102
RTVSPropertyOp53
 70
     1
102
RTVSPropertyOp54
 70
     1
102
RTVSPropertyOp55
 70
     1
102
RTVSPropertyOp56
 70
     1
102
RTVSPropertyOp57
 70
     1
102
RTVSPropertyOp58
 70
     1
102
RTVSPropertyOp59
 70
     1
102
RTVSPropertyOp60
 70
     1
102
RTVSPropertyOp61
 70
     1
102
RTVSPropertyOp62
 70
     1
  0
XRECORD
  5
19243
102
{ACAD_REACTORS
330
19242
102
}
330
19242
100
AcDbXrecord
280
     1
102
RTVSPost2010Prop28
280
     0
102
RTVSPost2010PropOp28
 70
     1
102
RTVSPost2010Prop29
280
     1
102
RTVSPost2010PropOp29
 70
     1
102
RTVSPost2010Prop30
280
     1
102
RTVSPost2010PropOp30
 70
     1
102
RTVSPost2010Prop31
280
     0
102
RTVSPost2010PropOp31
 70
     1
102
RTVSPost2010Prop32
280
     0
102
RTVSPost2010PropOp32
 70
     1
102
RTVSPost2010Prop33
280
     0
102
RTVSPost2010PropOp33
 70
     1
102
RTVSPost2010Prop34
280
     0
102
RTVSPost2010PropOp34
 70
     1
102
RTVSPost2010Prop35
280
     0
102
RTVSPost2010PropOp35
 70
     1
102
RTVSPost2010Prop36
280
     0
102
RTVSPost2010PropOp36
 70
     1
102
RTVSPost2010Prop37
 90
       50
102
RTVSPost2010PropOp37
 70
     1
102
RTVSPost2010Prop38
140
0.0
102
RTVSPost2010PropOp38
 70
     1
102
RTVSPost2010Prop39
140
1.0
102
RTVSPost2010PropOp39
 70
     1
102
RTVSPost2010Prop40
 90
        0
102
RTVSPost2010PropOp40
 70
     1
102
RTVSPost2010Prop41ColorIndex
 90
       18
102
RTVSPost2010Prop41ColorRGB
 90
        0
102
RTVSPost2010PropOp41
 70
     1
102
RTVSPost2010Prop42
 90
       50
102
RTVSPost2010PropOp42
 70
     1
102
RTVSPost2010Prop43
 90
        3
102
RTVSPost2010PropOp43
 70
     1
102
RTVSPost2010Prop44ColorIndex
 90
        5
102
RTVSPost2010Prop44ColorRGB
 90
      255
102
RTVSPost2010PropOp44
 70
     1
102
RTVSPost2010Prop45
280
     0
102
RTVSPost2010PropOp45
 70
     1
102
RTVSPost2010Prop46
 90
       50
102
RTVSPost2010PropOp46
 70
     1
102
RTVSPost2010Prop47
 90
       50
102
RTVSPost2010PropOp47
 70
     1
102
RTVSPost2010Prop48
 90
       50
102
RTVSPost2010PropOp48
 70
     1
102
RTVSPost2010Prop49
280
     0
102
RTVSPost2010PropOp49
 70
     1
102
RTVSPost2010Prop50
 90
       50
102
RTVSPost2010PropOp50
 70
     1
102
RTVSPost2010Prop51ColorIndex
 90
      256
102
RTVSPost2010Prop51ColorRGB
 90
-16777216
102
RTVSPost2010PropOp51
 70
     0
102
RTVSPost2010Prop52
140
1.0
102
RTVSPost2010PropOp52
 70
     0
102
RTVSPost2010Prop53
 90
        2
102
RTVSPost2010PropOp53
 70
     1
102
RTVSPost2010Prop54
  1
strokes_ogs.tif
102
RTVSPost2010PropOp54
 70
     1
102
RTVSPost2010Prop55
280
     0
102
RTVSPost2010PropOp55
 70
     1
102
RTVSPost2010Prop56
140
1.0
102
RTVSPost2010PropOp56
 70
     1
102
RTVSPost2010Prop57
140
1.0
102
RTVSPost2010PropOp57
 70
     1
102
RTVSPropertyOp0
 70
     1
102
RTVSPropertyOp1
 70
     1
102
RTVSPropertyOp2
 70
     1
102
RTVSPropertyOp3
 70
     1
102
RTVSPropertyOp4
 70
     1
102
RTVSPropertyOp5
 70
     1
102
RTVSPropertyOp6
 70
     1
102
RTVSPropertyOp7
 70
     1
102
RTVSPropertyOp8
 70
     1
102
RTVSPropertyOp9
 70
     1
102
RTVSPropertyOp10
 70
     1
102
RTVSPropertyOp11
 70
     1
102
RTVSPropertyOp12
 70
     1
102
RTVSPropertyOp13
 70
     1
102
RTVSPropertyOp14
 70
     1
102
RTVSPropertyOp15
 70
     1
102
RTVSPropertyOp16
 70
     1
102
RTVSPropertyOp17
 70
     1
102
RTVSPropertyOp18
 70
     1
102
RTVSPropertyOp19
 70
     1
102
RTVSPropertyOp20
 70
     1
102
RTVSPropertyOp21
 70
     1
102
RTVSPropertyOp22
 70
     1
102
RTVSPropertyOp23
 70
     1
102
RTVSPropertyOp24
 70
     1
102
RTVSPropertyOp25
 70
     1
102
RTVSPropertyOp26
 70
     1
102
RTVSPropertyOp27
 70
     1
102
RTVSPropertyOp28
 70
     1
102
RTVSPropertyOp29
 70
     1
102
RTVSPropertyOp30
 70
     1
102
RTVSPropertyOp31
 70
     1
102
RTVSPropertyOp32
 70
     1
102
RTVSPropertyOp33
 70
     1
102
RTVSPropertyOp34
 70
     1
102
RTVSPropertyOp35
 70
     1
102
RTVSPropertyOp36
 70
     1
102
RTVSPropertyOp37
 70
     1
102
RTVSPropertyOp38
 70
     1
102
RTVSPropertyOp39
 70
     1
102
RTVSPropertyOp40
 70
     1
102
RTVSPropertyOp41
 70
     1
102
RTVSPropertyOp42
 70
     1
102
RTVSPropertyOp43
 70
     1
102
RTVSPropertyOp44
 70
     1
102
RTVSPropertyOp45
 70
     1
102
RTVSPropertyOp46
 70
     1
102
RTVSPropertyOp47
 70
     1
102
RTVSPropertyOp48
 70
     1
102
RTVSPropertyOp49
 70
     1
102
RTVSPropertyOp50
 70
     1
102
RTVSPropertyOp51
 70
     0
102
RTVSPropertyOp52
 70
     0
102
RTVSPropertyOp53
 70
     1
102
RTVSPropertyOp54
 70
     1
102
RTVSPropertyOp55
 70
     1
102
RTVSPropertyOp56
 70
     1
102
RTVSPropertyOp57
 70
     1
102
RTVSPropertyOp58
 70
     1
102
RTVSPropertyOp59
 70
     1
102
RTVSPropertyOp60
 70
     1
102
RTVSPropertyOp61
 70
     1
102
RTVSPropertyOp62
 70
     1
  0
XRECORD
  5
19245
102
{ACAD_REACTORS
330
19244
102
}
330
19244
100
AcDbXrecord
280
     1
102
RTVSPost2010Prop28
280
     0
102
RTVSPost2010PropOp28
 70
     1
102
RTVSPost2010Prop29
280
     1
102
RTVSPost2010PropOp29
 70
     1
102
RTVSPost2010Prop30
280
     1
102
RTVSPost2010PropOp30
 70
     1
102
RTVSPost2010Prop31
280
     0
102
RTVSPost2010PropOp31
 70
     1
102
RTVSPost2010Prop32
280
     0
102
RTVSPost2010PropOp32
 70
     1
102
RTVSPost2010Prop33
280
     0
102
RTVSPost2010PropOp33
 70
     1
102
RTVSPost2010Prop34
280
     0
102
RTVSPost2010PropOp34
 70
     1
102
RTVSPost2010Prop35
280
     0
102
RTVSPost2010PropOp35
 70
     1
102
RTVSPost2010Prop36
280
     0
102
RTVSPost2010PropOp36
 70
     1
102
RTVSPost2010Prop37
 90
       50
102
RTVSPost2010PropOp37
 70
     1
102
RTVSPost2010Prop38
140
0.0
102
RTVSPost2010PropOp38
 70
     1
102
RTVSPost2010Prop39
140
1.0
102
RTVSPost2010PropOp39
 70
     1
102
RTVSPost2010Prop40
 90
        0
102
RTVSPost2010PropOp40
 70
     1
102
RTVSPost2010Prop41ColorIndex
 90
       18
102
RTVSPost2010Prop41ColorRGB
 90
        0
102
RTVSPost2010PropOp41
 70
     1
102
RTVSPost2010Prop42
 90
       50
102
RTVSPost2010PropOp42
 70
     1
102
RTVSPost2010Prop43
 90
        3
102
RTVSPost2010PropOp43
 70
     1
102
RTVSPost2010Prop44ColorIndex
 90
        5
102
RTVSPost2010Prop44ColorRGB
 90
      255
102
RTVSPost2010PropOp44
 70
     1
102
RTVSPost2010Prop45
280
     0
102
RTVSPost2010PropOp45
 70
     1
102
RTVSPost2010Prop46
 90
       50
102
RTVSPost2010PropOp46
 70
     1
102
RTVSPost2010Prop47
 90
       50
102
RTVSPost2010PropOp47
 70
     1
102
RTVSPost2010Prop48
 90
       50
102
RTVSPost2010PropOp48
 70
     1
102
RTVSPost2010Prop49
280
     0
102
RTVSPost2010PropOp49
 70
     1
102
RTVSPost2010Prop50
 90
       50
102
RTVSPost2010PropOp50
 70
     1
102
RTVSPost2010Prop51ColorIndex
 90
      256
102
RTVSPost2010Prop51ColorRGB
 90
-16777216
102
RTVSPost2010PropOp51
 70
     0
102
RTVSPost2010Prop52
140
1.0
102
RTVSPost2010PropOp52
 70
     0
102
RTVSPost2010Prop53
 90
        2
102
RTVSPost2010PropOp53
 70
     1
102
RTVSPost2010Prop54
  1
strokes_ogs.tif
102
RTVSPost2010PropOp54
 70
     1
102
RTVSPost2010Prop55
280
     0
102
RTVSPost2010PropOp55
 70
     1
102
RTVSPost2010Prop56
140
1.0
102
RTVSPost2010PropOp56
 70
     1
102
RTVSPost2010Prop57
140
1.0
102
RTVSPost2010PropOp57
 70
     1
102
RTVSPropertyOp0
 70
     1
102
RTVSPropertyOp1
 70
     1
102
RTVSPropertyOp2
 70
     1
102
RTVSPropertyOp3
 70
     1
102
RTVSPropertyOp4
 70
     1
102
RTVSPropertyOp5
 70
     1
102
RTVSPropertyOp6
 70
     1
102
RTVSPropertyOp7
 70
     1
102
RTVSPropertyOp8
 70
     1
102
RTVSPropertyOp9
 70
     1
102
RTVSPropertyOp10
 70
     1
102
RTVSPropertyOp11
 70
     1
102
RTVSPropertyOp12
 70
     1
102
RTVSPropertyOp13
 70
     1
102
RTVSPropertyOp14
 70
     1
102
RTVSPropertyOp15
 70
     1
102
RTVSPropertyOp16
 70
     1
102
RTVSPropertyOp17
 70
     1
102
RTVSPropertyOp18
 70
     1
102
RTVSPropertyOp19
 70
     1
102
RTVSPropertyOp20
 70
     1
102
RTVSPropertyOp21
 70
     1
102
RTVSPropertyOp22
 70
     1
102
RTVSPropertyOp23
 70
     1
102
RTVSPropertyOp24
 70
     1
102
RTVSPropertyOp25
 70
     1
102
RTVSPropertyOp26
 70
     1
102
RTVSPropertyOp27
 70
     1
102
RTVSPropertyOp28
 70
     1
102
RTVSPropertyOp29
 70
     1
102
RTVSPropertyOp30
 70
     1
102
RTVSPropertyOp31
 70
     1
102
RTVSPropertyOp32
 70
     1
102
RTVSPropertyOp33
 70
     1
102
RTVSPropertyOp34
 70
     1
102
RTVSPropertyOp35
 70
     1
102
RTVSPropertyOp36
 70
     1
102
RTVSPropertyOp37
 70
     1
102
RTVSPropertyOp38
 70
     1
102
RTVSPropertyOp39
 70
     1
102
RTVSPropertyOp40
 70
     1
102
RTVSPropertyOp41
 70
     1
102
RTVSPropertyOp42
 70
     1
102
RTVSPropertyOp43
 70
     1
102
RTVSPropertyOp44
 70
     1
102
RTVSPropertyOp45
 70
     1
102
RTVSPropertyOp46
 70
     1
102
RTVSPropertyOp47
 70
     1
102
RTVSPropertyOp48
 70
     1
102
RTVSPropertyOp49
 70
     1
102
RTVSPropertyOp50
 70
     1
102
RTVSPropertyOp51
 70
     0
102
RTVSPropertyOp52
 70
     0
102
RTVSPropertyOp53
 70
     1
102
RTVSPropertyOp54
 70
     1
102
RTVSPropertyOp55
 70
     1
102
RTVSPropertyOp56
 70
     1
102
RTVSPropertyOp57
 70
     1
102
RTVSPropertyOp58
 70
     1
102
RTVSPropertyOp59
 70
     1
102
RTVSPropertyOp60
 70
     1
102
RTVSPropertyOp61
 70
     1
102
RTVSPropertyOp62
 70
     1
  0
XRECORD
  5
19247
102
{ACAD_REACTORS
330
19246
102
}
330
19246
100
AcDbXrecord
280
     1
102
RTVSPost2010Prop28
280
     0
102
RTVSPost2010PropOp28
 70
     1
102
RTVSPost2010Prop29
280
     1
102
RTVSPost2010PropOp29
 70
     1
102
RTVSPost2010Prop30
280
     1
102
RTVSPost2010PropOp30
 70
     1
102
RTVSPost2010Prop31
280
     0
102
RTVSPost2010PropOp31
 70
     1
102
RTVSPost2010Prop32
280
     0
102
RTVSPost2010PropOp32
 70
     1
102
RTVSPost2010Prop33
280
     0
102
RTVSPost2010PropOp33
 70
     1
102
RTVSPost2010Prop34
280
     0
102
RTVSPost2010PropOp34
 70
     1
102
RTVSPost2010Prop35
280
     0
102
RTVSPost2010PropOp35
 70
     1
102
RTVSPost2010Prop36
280
     0
102
RTVSPost2010PropOp36
 70
     1
102
RTVSPost2010Prop37
 90
       50
102
RTVSPost2010PropOp37
 70
     1
102
RTVSPost2010Prop38
140
0.0
102
RTVSPost2010PropOp38
 70
     1
102
RTVSPost2010Prop39
140
1.0
102
RTVSPost2010PropOp39
 70
     1
102
RTVSPost2010Prop40
 90
        0
102
RTVSPost2010PropOp40
 70
     1
102
RTVSPost2010Prop41ColorIndex
 90
       18
102
RTVSPost2010Prop41ColorRGB
 90
        0
102
RTVSPost2010PropOp41
 70
     1
102
RTVSPost2010Prop42
 90
       50
102
RTVSPost2010PropOp42
 70
     1
102
RTVSPost2010Prop43
 90
        3
102
RTVSPost2010PropOp43
 70
     1
102
RTVSPost2010Prop44ColorIndex
 90
        5
102
RTVSPost2010Prop44ColorRGB
 90
      255
102
RTVSPost2010PropOp44
 70
     1
102
RTVSPost2010Prop45
280
     0
102
RTVSPost2010PropOp45
 70
     1
102
RTVSPost2010Prop46
 90
       50
102
RTVSPost2010PropOp46
 70
     1
102
RTVSPost2010Prop47
 90
       50
102
RTVSPost2010PropOp47
 70
     1
102
RTVSPost2010Prop48
 90
       50
102
RTVSPost2010PropOp48
 70
     1
102
RTVSPost2010Prop49
280
     0
102
RTVSPost2010PropOp49
 70
     1
102
RTVSPost2010Prop50
 90
       50
102
RTVSPost2010PropOp50
 70
     1
102
RTVSPost2010Prop51ColorIndex
 90
      256
102
RTVSPost2010Prop51ColorRGB
 90
-16777216
102
RTVSPost2010PropOp51
 70
     0
102
RTVSPost2010Prop52
140
1.0
102
RTVSPost2010PropOp52
 70
     0
102
RTVSPost2010Prop53
 90
        2
102
RTVSPost2010PropOp53
 70
     1
102
RTVSPost2010Prop54
  1
strokes_ogs.tif
102
RTVSPost2010PropOp54
 70
     1
102
RTVSPost2010Prop55
280
     0
102
RTVSPost2010PropOp55
 70
     1
102
RTVSPost2010Prop56
140
1.0
102
RTVSPost2010PropOp56
 70
     1
102
RTVSPost2010Prop57
140
1.0
102
RTVSPost2010PropOp57
 70
     1
102
RTVSPropertyOp0
 70
     1
102
RTVSPropertyOp1
 70
     1
102
RTVSPropertyOp2
 70
     1
102
RTVSPropertyOp3
 70
     1
102
RTVSPropertyOp4
 70
     1
102
RTVSPropertyOp5
 70
     1
102
RTVSPropertyOp6
 70
     1
102
RTVSPropertyOp7
 70
     1
102
RTVSPropertyOp8
 70
     1
102
RTVSPropertyOp9
 70
     1
102
RTVSPropertyOp10
 70
     1
102
RTVSPropertyOp11
 70
     1
102
RTVSPropertyOp12
 70
     1
102
RTVSPropertyOp13
 70
     1
102
RTVSPropertyOp14
 70
     1
102
RTVSPropertyOp15
 70
     1
102
RTVSPropertyOp16
 70
     1
102
RTVSPropertyOp17
 70
     1
102
RTVSPropertyOp18
 70
     1
102
RTVSPropertyOp19
 70
     1
102
RTVSPropertyOp20
 70
     1
102
RTVSPropertyOp21
 70
     1
102
RTVSPropertyOp22
 70
     1
102
RTVSPropertyOp23
 70
     1
102
RTVSPropertyOp24
 70
     1
102
RTVSPropertyOp25
 70
     1
102
RTVSPropertyOp26
 70
     1
102
RTVSPropertyOp27
 70
     1
102
RTVSPropertyOp28
 70
     1
102
RTVSPropertyOp29
 70
     1
102
RTVSPropertyOp30
 70
     1
102
RTVSPropertyOp31
 70
     1
102
RTVSPropertyOp32
 70
     1
102
RTVSPropertyOp33
 70
     1
102
RTVSPropertyOp34
 70
     1
102
RTVSPropertyOp35
 70
     1
102
RTVSPropertyOp36
 70
     1
102
RTVSPropertyOp37
 70
     1
102
RTVSPropertyOp38
 70
     1
102
RTVSPropertyOp39
 70
     1
102
RTVSPropertyOp40
 70
     1
102
RTVSPropertyOp41
 70
     1
102
RTVSPropertyOp42
 70
     1
102
RTVSPropertyOp43
 70
     1
102
RTVSPropertyOp44
 70
     1
102
RTVSPropertyOp45
 70
     1
102
RTVSPropertyOp46
 70
     1
102
RTVSPropertyOp47
 70
     1
102
RTVSPropertyOp48
 70
     1
102
RTVSPropertyOp49
 70
     1
102
RTVSPropertyOp50
 70
     1
102
RTVSPropertyOp51
 70
     0
102
RTVSPropertyOp52
 70
     0
102
RTVSPropertyOp53
 70
     1
102
RTVSPropertyOp54
 70
     1
102
RTVSPropertyOp55
 70
     1
102
RTVSPropertyOp56
 70
     1
102
RTVSPropertyOp57
 70
     1
102
RTVSPropertyOp58
 70
     1
102
RTVSPropertyOp59
 70
     1
102
RTVSPropertyOp60
 70
     1
102
RTVSPropertyOp61
 70
     1
102
RTVSPropertyOp62
 70
     1
  0
XRECORD
  5
1924F
102
{ACAD_REACTORS
330
1924E
102
}
330
1924E
100
AcDbXrecord
280
     1
102
RTVSPost2010Prop28
280
     0
102
RTVSPost2010PropOp28
 70
     1
102
RTVSPost2010Prop29
280
     1
102
RTVSPost2010PropOp29
 70
     1
102
RTVSPost2010Prop30
280
     1
102
RTVSPost2010PropOp30
 70
     1
102
RTVSPost2010Prop31
280
     0
102
RTVSPost2010PropOp31
 70
     1
102
RTVSPost2010Prop32
280
     0
102
RTVSPost2010PropOp32
 70
     1
102
RTVSPost2010Prop33
280
     0
102
RTVSPost2010PropOp33
 70
     1
102
RTVSPost2010Prop34
280
     0
102
RTVSPost2010PropOp34
 70
     1
102
RTVSPost2010Prop35
280
     0
102
RTVSPost2010PropOp35
 70
     1
102
RTVSPost2010Prop36
280
     0
102
RTVSPost2010PropOp36
 70
     1
102
RTVSPost2010Prop37
 90
       50
102
RTVSPost2010PropOp37
 70
     1
102
RTVSPost2010Prop38
140
0.0
102
RTVSPost2010PropOp38
 70
     1
102
RTVSPost2010Prop39
140
1.0
102
RTVSPost2010PropOp39
 70
     1
102
RTVSPost2010Prop40
 90
        0
102
RTVSPost2010PropOp40
 70
     1
102
RTVSPost2010Prop41ColorIndex
 90
       18
102
RTVSPost2010Prop41ColorRGB
 90
        0
102
RTVSPost2010PropOp41
 70
     1
102
RTVSPost2010Prop42
 90
       50
102
RTVSPost2010PropOp42
 70
     1
102
RTVSPost2010Prop43
 90
        3
102
RTVSPost2010PropOp43
 70
     1
102
RTVSPost2010Prop44ColorIndex
 90
        5
102
RTVSPost2010Prop44ColorRGB
 90
      255
102
RTVSPost2010PropOp44
 70
     1
102
RTVSPost2010Prop45
280
     0
102
RTVSPost2010PropOp45
 70
     1
102
RTVSPost2010Prop46
 90
       50
102
RTVSPost2010PropOp46
 70
     1
102
RTVSPost2010Prop47
 90
       50
102
RTVSPost2010PropOp47
 70
     1
102
RTVSPost2010Prop48
 90
       50
102
RTVSPost2010PropOp48
 70
     1
102
RTVSPost2010Prop49
280
     0
102
RTVSPost2010PropOp49
 70
     1
102
RTVSPost2010Prop50
 90
       50
102
RTVSPost2010PropOp50
 70
     1
102
RTVSPost2010Prop51ColorIndex
 90
      256
102
RTVSPost2010Prop51ColorRGB
 90
-16777216
102
RTVSPost2010PropOp51
 70
     0
102
RTVSPost2010Prop52
140
1.0
102
RTVSPost2010PropOp52
 70
     0
102
RTVSPost2010Prop53
 90
        2
102
RTVSPost2010PropOp53
 70
     1
102
RTVSPost2010Prop54
  1
strokes_ogs.tif
102
RTVSPost2010PropOp54
 70
     1
102
RTVSPost2010Prop55
280
     0
102
RTVSPost2010PropOp55
 70
     1
102
RTVSPost2010Prop56
140
1.0
102
RTVSPost2010PropOp56
 70
     1
102
RTVSPost2010Prop57
140
1.0
102
RTVSPost2010PropOp57
 70
     1
102
RTVSPropertyOp0
 70
     1
102
RTVSPropertyOp1
 70
     1
102
RTVSPropertyOp2
 70
     1
102
RTVSPropertyOp3
 70
     1
102
RTVSPropertyOp4
 70
     1
102
RTVSPropertyOp5
 70
     1
102
RTVSPropertyOp6
 70
     1
102
RTVSPropertyOp7
 70
     1
102
RTVSPropertyOp8
 70
     1
102
RTVSPropertyOp9
 70
     1
102
RTVSPropertyOp10
 70
     1
102
RTVSPropertyOp11
 70
     1
102
RTVSPropertyOp12
 70
     1
102
RTVSPropertyOp13
 70
     1
102
RTVSPropertyOp14
 70
     1
102
RTVSPropertyOp15
 70
     1
102
RTVSPropertyOp16
 70
     1
102
RTVSPropertyOp17
 70
     1
102
RTVSPropertyOp18
 70
     1
102
RTVSPropertyOp19
 70
     1
102
RTVSPropertyOp20
 70
     1
102
RTVSPropertyOp21
 70
     1
102
RTVSPropertyOp22
 70
     1
102
RTVSPropertyOp23
 70
     1
102
RTVSPropertyOp24
 70
     1
102
RTVSPropertyOp25
 70
     1
102
RTVSPropertyOp26
 70
     1
102
RTVSPropertyOp27
 70
     1
102
RTVSPropertyOp28
 70
     1
102
RTVSPropertyOp29
 70
     1
102
RTVSPropertyOp30
 70
     1
102
RTVSPropertyOp31
 70
     1
102
RTVSPropertyOp32
 70
     1
102
RTVSPropertyOp33
 70
     1
102
RTVSPropertyOp34
 70
     1
102
RTVSPropertyOp35
 70
     1
102
RTVSPropertyOp36
 70
     1
102
RTVSPropertyOp37
 70
     1
102
RTVSPropertyOp38
 70
     1
102
RTVSPropertyOp39
 70
     1
102
RTVSPropertyOp40
 70
     1
102
RTVSPropertyOp41
 70
     1
102
RTVSPropertyOp42
 70
     1
102
RTVSPropertyOp43
 70
     1
102
RTVSPropertyOp44
 70
     1
102
RTVSPropertyOp45
 70
     1
102
RTVSPropertyOp46
 70
     1
102
RTVSPropertyOp47
 70
     1
102
RTVSPropertyOp48
 70
     1
102
RTVSPropertyOp49
 70
     1
102
RTVSPropertyOp50
 70
     1
102
RTVSPropertyOp51
 70
     0
102
RTVSPropertyOp52
 70
     0
102
RTVSPropertyOp53
 70
     1
102
RTVSPropertyOp54
 70
     1
102
RTVSPropertyOp55
 70
     1
102
RTVSPropertyOp56
 70
     1
102
RTVSPropertyOp57
 70
     1
102
RTVSPropertyOp58
 70
     1
102
RTVSPropertyOp59
 70
     1
102
RTVSPropertyOp60
 70
     1
102
RTVSPropertyOp61
 70
     1
102
RTVSPropertyOp62
 70
     1
  0
XRECORD
  5
1926B
102
{ACAD_REACTORS
330
1926A
102
}
330
1926A
100
AcDbXrecord
280
     1
102
RTVSPost2010Prop28
280
     0
102
RTVSPost2010PropOp28
 70
     0
102
RTVSPost2010Prop29
280
     1
102
RTVSPost2010PropOp29
 70
     0
102
RTVSPost2010Prop30
280
     1
102
RTVSPost2010PropOp30
 70
     0
102
RTVSPost2010Prop31
280
     0
102
RTVSPost2010PropOp31
 70
     0
102
RTVSPost2010Prop32
280
     0
102
RTVSPost2010PropOp32
 70
     0
102
RTVSPost2010Prop33
280
     0
102
RTVSPost2010PropOp33
 70
     0
102
RTVSPost2010Prop34
280
     0
102
RTVSPost2010PropOp34
 70
     0
102
RTVSPost2010Prop35
280
     0
102
RTVSPost2010PropOp35
 70
     0
102
RTVSPost2010Prop36
280
     0
102
RTVSPost2010PropOp36
 70
     0
102
RTVSPost2010Prop37
 90
       50
102
RTVSPost2010PropOp37
 70
     0
102
RTVSPost2010Prop38
140
0.0
102
RTVSPost2010PropOp38
 70
     0
102
RTVSPost2010Prop39
140
1.0
102
RTVSPost2010PropOp39
 70
     0
102
RTVSPost2010Prop40
 90
        0
102
RTVSPost2010PropOp40
 70
     0
102
RTVSPost2010Prop41ColorIndex
 90
       18
102
RTVSPost2010Prop41ColorRGB
 90
        0
102
RTVSPost2010PropOp41
 70
     0
102
RTVSPost2010Prop42
 90
       50
102
RTVSPost2010PropOp42
 70
     0
102
RTVSPost2010Prop43
 90
        3
102
RTVSPost2010PropOp43
 70
     0
102
RTVSPost2010Prop44ColorIndex
 90
        5
102
RTVSPost2010Prop44ColorRGB
 90
      255
102
RTVSPost2010PropOp44
 70
     0
102
RTVSPost2010Prop45
280
     0
102
RTVSPost2010PropOp45
 70
     0
102
RTVSPost2010Prop46
 90
       50
102
RTVSPost2010PropOp46
 70
     0
102
RTVSPost2010Prop47
 90
       50
102
RTVSPost2010PropOp47
 70
     0
102
RTVSPost2010Prop48
 90
       50
102
RTVSPost2010PropOp48
 70
     0
102
RTVSPost2010Prop49
280
     0
102
RTVSPost2010PropOp49
 70
     0
102
RTVSPost2010Prop50
 90
       50
102
RTVSPost2010PropOp50
 70
     0
102
RTVSPost2010Prop51ColorIndex
 90
      256
102
RTVSPost2010Prop51ColorRGB
 90
-16777216
102
RTVSPost2010PropOp51
 70
     0
102
RTVSPost2010Prop52
140
1.0
102
RTVSPost2010PropOp52
 70
     0
102
RTVSPost2010Prop53
 90
        2
102
RTVSPost2010PropOp53
 70
     0
102
RTVSPost2010Prop54
  1
strokes_ogs.tif
102
RTVSPost2010PropOp54
 70
     0
102
RTVSPost2010Prop55
280
     0
102
RTVSPost2010PropOp55
 70
     0
102
RTVSPost2010Prop56
140
1.0
102
RTVSPost2010PropOp56
 70
     0
102
RTVSPost2010Prop57
140
1.0
102
RTVSPost2010PropOp57
 70
     0
102
RTVSPropertyOp0
 70
     0
102
RTVSPropertyOp1
 70
     0
102
RTVSPropertyOp2
 70
     0
102
RTVSPropertyOp3
 70
     0
102
RTVSPropertyOp4
 70
     0
102
RTVSPropertyOp5
 70
     0
102
RTVSPropertyOp6
 70
     0
102
RTVSPropertyOp7
 70
     0
102
RTVSPropertyOp8
 70
     0
102
RTVSPropertyOp9
 70
     0
102
RTVSPropertyOp10
 70
     0
102
RTVSPropertyOp11
 70
     0
102
RTVSPropertyOp12
 70
     0
102
RTVSPropertyOp13
 70
     0
102
RTVSPropertyOp14
 70
     2
102
RTVSPropertyOp15
 70
     0
102
RTVSPropertyOp16
 70
     0
102
RTVSPropertyOp17
 70
     0
102
RTVSPropertyOp18
 70
     0
102
RTVSPropertyOp19
 70
     0
102
RTVSPropertyOp20
 70
     0
102
RTVSPropertyOp21
 70
     0
102
RTVSPropertyOp22
 70
     0
102
RTVSPropertyOp23
 70
     0
102
RTVSPropertyOp24
 70
     0
102
RTVSPropertyOp25
 70
     0
102
RTVSPropertyOp26
 70
     0
102
RTVSPropertyOp27
 70
     0
102
RTVSPropertyOp28
 70
     0
102
RTVSPropertyOp29
 70
     0
102
RTVSPropertyOp30
 70
     0
102
RTVSPropertyOp31
 70
     0
102
RTVSPropertyOp32
 70
     0
102
RTVSPropertyOp33
 70
     0
102
RTVSPropertyOp34
 70
     0
102
RTVSPropertyOp35
 70
     0
102
RTVSPropertyOp36
 70
     0
102
RTVSPropertyOp37
 70
     0
102
RTVSPropertyOp38
 70
     0
102
RTVSPropertyOp39
 70
     0
102
RTVSPropertyOp40
 70
     0
102
RTVSPropertyOp41
 70
     0
102
RTVSPropertyOp42
 70
     0
102
RTVSPropertyOp43
 70
     0
102
RTVSPropertyOp44
 70
     0
102
RTVSPropertyOp45
 70
     0
102
RTVSPropertyOp46
 70
     0
102
RTVSPropertyOp47
 70
     0
102
RTVSPropertyOp48
 70
     0
102
RTVSPropertyOp49
 70
     0
102
RTVSPropertyOp50
 70
     0
102
RTVSPropertyOp51
 70
     0
102
RTVSPropertyOp52
 70
     0
102
RTVSPropertyOp53
 70
     0
102
RTVSPropertyOp54
 70
     0
102
RTVSPropertyOp55
 70
     0
102
RTVSPropertyOp56
 70
     0
102
RTVSPropertyOp57
 70
     0
102
RTVSPropertyOp58
 70
     0
102
RTVSPropertyOp59
 70
     0
102
RTVSPropertyOp60
 70
     0
102
RTVSPropertyOp61
 70
     0
102
RTVSPropertyOp62
 70
     0
  0
XRECORD
  5
1925B
102
{ACAD_REACTORS
330
1925A
102
}
330
1925A
100
AcDbXrecord
280
     1
102
RTVSPost2010Prop28
280
     0
102
RTVSPost2010PropOp28
 70
     1
102
RTVSPost2010Prop29
280
     1
102
RTVSPost2010PropOp29
 70
     1
102
RTVSPost2010Prop30
280
     1
102
RTVSPost2010PropOp30
 70
     1
102
RTVSPost2010Prop31
280
     0
102
RTVSPost2010PropOp31
 70
     1
102
RTVSPost2010Prop32
280
     0
102
RTVSPost2010PropOp32
 70
     1
102
RTVSPost2010Prop33
280
     0
102
RTVSPost2010PropOp33
 70
     1
102
RTVSPost2010Prop34
280
     0
102
RTVSPost2010PropOp34
 70
     1
102
RTVSPost2010Prop35
280
     0
102
RTVSPost2010PropOp35
 70
     1
102
RTVSPost2010Prop36
280
     0
102
RTVSPost2010PropOp36
 70
     1
102
RTVSPost2010Prop37
 90
       50
102
RTVSPost2010PropOp37
 70
     1
102
RTVSPost2010Prop38
140
0.0
102
RTVSPost2010PropOp38
 70
     1
102
RTVSPost2010Prop39
140
1.0
102
RTVSPost2010PropOp39
 70
     1
102
RTVSPost2010Prop40
 90
        0
102
RTVSPost2010PropOp40
 70
     1
102
RTVSPost2010Prop41ColorIndex
 90
       18
102
RTVSPost2010Prop41ColorRGB
 90
        0
102
RTVSPost2010PropOp41
 70
     1
102
RTVSPost2010Prop42
 90
       50
102
RTVSPost2010PropOp42
 70
     1
102
RTVSPost2010Prop43
 90
        3
102
RTVSPost2010PropOp43
 70
     1
102
RTVSPost2010Prop44ColorIndex
 90
        5
102
RTVSPost2010Prop44ColorRGB
 90
      255
102
RTVSPost2010PropOp44
 70
     1
102
RTVSPost2010Prop45
280
     0
102
RTVSPost2010PropOp45
 70
     1
102
RTVSPost2010Prop46
 90
       50
102
RTVSPost2010PropOp46
 70
     1
102
RTVSPost2010Prop47
 90
       50
102
RTVSPost2010PropOp47
 70
     1
102
RTVSPost2010Prop48
 90
       50
102
RTVSPost2010PropOp48
 70
     1
102
RTVSPost2010Prop49
280
     0
102
RTVSPost2010PropOp49
 70
     1
102
RTVSPost2010Prop50
 90
       50
102
RTVSPost2010PropOp50
 70
     1
102
RTVSPost2010Prop51ColorIndex
 90
      256
102
RTVSPost2010Prop51ColorRGB
 90
-16777216
102
RTVSPost2010PropOp51
 70
     0
102
RTVSPost2010Prop52
140
1.0
102
RTVSPost2010PropOp52
 70
     0
102
RTVSPost2010Prop53
 90
        2
102
RTVSPost2010PropOp53
 70
     1
102
RTVSPost2010Prop54
  1
strokes_ogs.tif
102
RTVSPost2010PropOp54
 70
     1
102
RTVSPost2010Prop55
280
     0
102
RTVSPost2010PropOp55
 70
     1
102
RTVSPost2010Prop56
140
1.0
102
RTVSPost2010PropOp56
 70
     1
102
RTVSPost2010Prop57
140
1.0
102
RTVSPost2010PropOp57
 70
     1
102
RTVSPropertyOp0
 70
     1
102
RTVSPropertyOp1
 70
     1
102
RTVSPropertyOp2
 70
     1
102
RTVSPropertyOp3
 70
     1
102
RTVSPropertyOp4
 70
     1
102
RTVSPropertyOp5
 70
     1
102
RTVSPropertyOp6
 70
     1
102
RTVSPropertyOp7
 70
     1
102
RTVSPropertyOp8
 70
     1
102
RTVSPropertyOp9
 70
     1
102
RTVSPropertyOp10
 70
     1
102
RTVSPropertyOp11
 70
     1
102
RTVSPropertyOp12
 70
     1
102
RTVSPropertyOp13
 70
     1
102
RTVSPropertyOp14
 70
     1
102
RTVSPropertyOp15
 70
     1
102
RTVSPropertyOp16
 70
     1
102
RTVSPropertyOp17
 70
     1
102
RTVSPropertyOp18
 70
     1
102
RTVSPropertyOp19
 70
     1
102
RTVSPropertyOp20
 70
     1
102
RTVSPropertyOp21
 70
     1
102
RTVSPropertyOp22
 70
     1
102
RTVSPropertyOp23
 70
     1
102
RTVSPropertyOp24
 70
     1
102
RTVSPropertyOp25
 70
     1
102
RTVSPropertyOp26
 70
     1
102
RTVSPropertyOp27
 70
     1
102
RTVSPropertyOp28
 70
     1
102
RTVSPropertyOp29
 70
     1
102
RTVSPropertyOp30
 70
     1
102
RTVSPropertyOp31
 70
     1
102
RTVSPropertyOp32
 70
     1
102
RTVSPropertyOp33
 70
     1
102
RTVSPropertyOp34
 70
     1
102
RTVSPropertyOp35
 70
     1
102
RTVSPropertyOp36
 70
     1
102
RTVSPropertyOp37
 70
     1
102
RTVSPropertyOp38
 70
     1
102
RTVSPropertyOp39
 70
     1
102
RTVSPropertyOp40
 70
     1
102
RTVSPropertyOp41
 70
     1
102
RTVSPropertyOp42
 70
     1
102
RTVSPropertyOp43
 70
     1
102
RTVSPropertyOp44
 70
     1
102
RTVSPropertyOp45
 70
     1
102
RTVSPropertyOp46
 70
     1
102
RTVSPropertyOp47
 70
     1
102
RTVSPropertyOp48
 70
     1
102
RTVSPropertyOp49
 70
     1
102
RTVSPropertyOp50
 70
     1
102
RTVSPropertyOp51
 70
     0
102
RTVSPropertyOp52
 70
     0
102
RTVSPropertyOp53
 70
     1
102
RTVSPropertyOp54
 70
     1
102
RTVSPropertyOp55
 70
     1
102
RTVSPropertyOp56
 70
     1
102
RTVSPropertyOp57
 70
     1
102
RTVSPropertyOp58
 70
     1
102
RTVSPropertyOp59
 70
     1
102
RTVSPropertyOp60
 70
     1
102
RTVSPropertyOp61
 70
     1
102
RTVSPropertyOp62
 70
     1
  0
XRECORD
  5
1926D
102
{ACAD_REACTORS
330
1926C
102
}
330
1926C
100
AcDbXrecord
280
     1
102
RTVSPost2010Prop28
280
     0
102
RTVSPost2010PropOp28
 70
     0
102
RTVSPost2010Prop29
280
     1
102
RTVSPost2010PropOp29
 70
     0
102
RTVSPost2010Prop30
280
     1
102
RTVSPost2010PropOp30
 70
     0
102
RTVSPost2010Prop31
280
     0
102
RTVSPost2010PropOp31
 70
     0
102
RTVSPost2010Prop32
280
     0
102
RTVSPost2010PropOp32
 70
     0
102
RTVSPost2010Prop33
280
     0
102
RTVSPost2010PropOp33
 70
     0
102
RTVSPost2010Prop34
280
     0
102
RTVSPost2010PropOp34
 70
     0
102
RTVSPost2010Prop35
280
     0
102
RTVSPost2010PropOp35
 70
     0
102
RTVSPost2010Prop36
280
     0
102
RTVSPost2010PropOp36
 70
     0
102
RTVSPost2010Prop37
 90
       50
102
RTVSPost2010PropOp37
 70
     0
102
RTVSPost2010Prop38
140
0.0
102
RTVSPost2010PropOp38
 70
     0
102
RTVSPost2010Prop39
140
1.0
102
RTVSPost2010PropOp39
 70
     0
102
RTVSPost2010Prop40
 90
        0
102
RTVSPost2010PropOp40
 70
     0
102
RTVSPost2010Prop41ColorIndex
 90
       18
102
RTVSPost2010Prop41ColorRGB
 90
        0
102
RTVSPost2010PropOp41
 70
     0
102
RTVSPost2010Prop42
 90
       50
102
RTVSPost2010PropOp42
 70
     0
102
RTVSPost2010Prop43
 90
        3
102
RTVSPost2010PropOp43
 70
     0
102
RTVSPost2010Prop44ColorIndex
 90
        5
102
RTVSPost2010Prop44ColorRGB
 90
      255
102
RTVSPost2010PropOp44
 70
     0
102
RTVSPost2010Prop45
280
     0
102
RTVSPost2010PropOp45
 70
     0
102
RTVSPost2010Prop46
 90
       50
102
RTVSPost2010PropOp46
 70
     0
102
RTVSPost2010Prop47
 90
       50
102
RTVSPost2010PropOp47
 70
     0
102
RTVSPost2010Prop48
 90
       50
102
RTVSPost2010PropOp48
 70
     0
102
RTVSPost2010Prop49
280
     0
102
RTVSPost2010PropOp49
 70
     0
102
RTVSPost2010Prop50
 90
       50
102
RTVSPost2010PropOp50
 70
     0
102
RTVSPost2010Prop51ColorIndex
 90
      256
102
RTVSPost2010Prop51ColorRGB
 90
-16777216
102
RTVSPost2010PropOp51
 70
     0
102
RTVSPost2010Prop52
140
1.0
102
RTVSPost2010PropOp52
 70
     0
102
RTVSPost2010Prop53
 90
        2
102
RTVSPost2010PropOp53
 70
     0
102
RTVSPost2010Prop54
  1
strokes_ogs.tif
102
RTVSPost2010PropOp54
 70
     0
102
RTVSPost2010Prop55
280
     0
102
RTVSPost2010PropOp55
 70
     0
102
RTVSPost2010Prop56
140
1.0
102
RTVSPost2010PropOp56
 70
     0
102
RTVSPost2010Prop57
140
1.0
102
RTVSPost2010PropOp57
 70
     0
102
RTVSPropertyOp0
 70
     0
102
RTVSPropertyOp1
 70
     0
102
RTVSPropertyOp2
 70
     0
102
RTVSPropertyOp3
 70
     0
102
RTVSPropertyOp4
 70
     0
102
RTVSPropertyOp5
 70
     0
102
RTVSPropertyOp6
 70
     0
102
RTVSPropertyOp7
 70
     0
102
RTVSPropertyOp8
 70
     0
102
RTVSPropertyOp9
 70
     0
102
RTVSPropertyOp10
 70
     0
102
RTVSPropertyOp11
 70
     0
102
RTVSPropertyOp12
 70
     0
102
RTVSPropertyOp13
 70
     0
102
RTVSPropertyOp14
 70
     2
102
RTVSPropertyOp15
 70
     0
102
RTVSPropertyOp16
 70
     0
102
RTVSPropertyOp17
 70
     0
102
RTVSPropertyOp18
 70
     0
102
RTVSPropertyOp19
 70
     0
102
RTVSPropertyOp20
 70
     0
102
RTVSPropertyOp21
 70
     0
102
RTVSPropertyOp22
 70
     0
102
RTVSPropertyOp23
 70
     0
102
RTVSPropertyOp24
 70
     0
102
RTVSPropertyOp25
 70
     0
102
RTVSPropertyOp26
 70
     0
102
RTVSPropertyOp27
 70
     0
102
RTVSPropertyOp28
 70
     0
102
RTVSPropertyOp29
 70
     0
102
RTVSPropertyOp30
 70
     0
102
RTVSPropertyOp31
 70
     0
102
RTVSPropertyOp32
 70
     0
102
RTVSPropertyOp33
 70
     0
102
RTVSPropertyOp34
 70
     0
102
RTVSPropertyOp35
 70
     0
102
RTVSPropertyOp36
 70
     0
102
RTVSPropertyOp37
 70
     0
102
RTVSPropertyOp38
 70
     0
102
RTVSPropertyOp39
 70
     0
102
RTVSPropertyOp40
 70
     0
102
RTVSPropertyOp41
 70
     0
102
RTVSPropertyOp42
 70
     0
102
RTVSPropertyOp43
 70
     0
102
RTVSPropertyOp44
 70
     0
102
RTVSPropertyOp45
 70
     0
102
RTVSPropertyOp46
 70
     0
102
RTVSPropertyOp47
 70
     0
102
RTVSPropertyOp48
 70
     0
102
RTVSPropertyOp49
 70
     0
102
RTVSPropertyOp50
 70
     0
102
RTVSPropertyOp51
 70
     0
102
RTVSPropertyOp52
 70
     0
102
RTVSPropertyOp53
 70
     0
102
RTVSPropertyOp54
 70
     0
102
RTVSPropertyOp55
 70
     0
102
RTVSPropertyOp56
 70
     0
102
RTVSPropertyOp57
 70
     0
102
RTVSPropertyOp58
 70
     0
102
RTVSPropertyOp59
 70
     0
102
RTVSPropertyOp60
 70
     0
102
RTVSPropertyOp61
 70
     0
102
RTVSPropertyOp62
 70
     0
  0
XRECORD
  5
19253
102
{ACAD_REACTORS
330
19252
102
}
330
19252
100
AcDbXrecord
280
     1
102
RTVSPost2010Prop28
280
     0
102
RTVSPost2010PropOp28
 70
     1
102
RTVSPost2010Prop29
280
     1
102
RTVSPost2010PropOp29
 70
     1
102
RTVSPost2010Prop30
280
     1
102
RTVSPost2010PropOp30
 70
     1
102
RTVSPost2010Prop31
280
     0
102
RTVSPost2010PropOp31
 70
     1
102
RTVSPost2010Prop32
280
     0
102
RTVSPost2010PropOp32
 70
     1
102
RTVSPost2010Prop33
280
     0
102
RTVSPost2010PropOp33
 70
     1
102
RTVSPost2010Prop34
280
     0
102
RTVSPost2010PropOp34
 70
     1
102
RTVSPost2010Prop35
280
     0
102
RTVSPost2010PropOp35
 70
     1
102
RTVSPost2010Prop36
280
     0
102
RTVSPost2010PropOp36
 70
     1
102
RTVSPost2010Prop37
 90
       50
102
RTVSPost2010PropOp37
 70
     1
102
RTVSPost2010Prop38
140
0.0
102
RTVSPost2010PropOp38
 70
     1
102
RTVSPost2010Prop39
140
1.0
102
RTVSPost2010PropOp39
 70
     1
102
RTVSPost2010Prop40
 90
        0
102
RTVSPost2010PropOp40
 70
     1
102
RTVSPost2010Prop41ColorIndex
 90
       18
102
RTVSPost2010Prop41ColorRGB
 90
        0
102
RTVSPost2010PropOp41
 70
     1
102
RTVSPost2010Prop42
 90
       50
102
RTVSPost2010PropOp42
 70
     1
102
RTVSPost2010Prop43
 90
        3
102
RTVSPost2010PropOp43
 70
     1
102
RTVSPost2010Prop44ColorIndex
 90
        5
102
RTVSPost2010Prop44ColorRGB
 90
      255
102
RTVSPost2010PropOp44
 70
     1
102
RTVSPost2010Prop45
280
     0
102
RTVSPost2010PropOp45
 70
     1
102
RTVSPost2010Prop46
 90
       50
102
RTVSPost2010PropOp46
 70
     1
102
RTVSPost2010Prop47
 90
       50
102
RTVSPost2010PropOp47
 70
     1
102
RTVSPost2010Prop48
 90
       50
102
RTVSPost2010PropOp48
 70
     1
102
RTVSPost2010Prop49
280
     0
102
RTVSPost2010PropOp49
 70
     1
102
RTVSPost2010Prop50
 90
       50
102
RTVSPost2010PropOp50
 70
     1
102
RTVSPost2010Prop51ColorIndex
 90
      256
102
RTVSPost2010Prop51ColorRGB
 90
-16777216
102
RTVSPost2010PropOp51
 70
     0
102
RTVSPost2010Prop52
140
1.0
102
RTVSPost2010PropOp52
 70
     0
102
RTVSPost2010Prop53
 90
        2
102
RTVSPost2010PropOp53
 70
     1
102
RTVSPost2010Prop54
  1
strokes_ogs.tif
102
RTVSPost2010PropOp54
 70
     1
102
RTVSPost2010Prop55
280
     0
102
RTVSPost2010PropOp55
 70
     1
102
RTVSPost2010Prop56
140
1.0
102
RTVSPost2010PropOp56
 70
     1
102
RTVSPost2010Prop57
140
1.0
102
RTVSPost2010PropOp57
 70
     1
102
RTVSPropertyOp0
 70
     1
102
RTVSPropertyOp1
 70
     1
102
RTVSPropertyOp2
 70
     1
102
RTVSPropertyOp3
 70
     1
102
RTVSPropertyOp4
 70
     1
102
RTVSPropertyOp5
 70
     1
102
RTVSPropertyOp6
 70
     1
102
RTVSPropertyOp7
 70
     1
102
RTVSPropertyOp8
 70
     1
102
RTVSPropertyOp9
 70
     1
102
RTVSPropertyOp10
 70
     1
102
RTVSPropertyOp11
 70
     1
102
RTVSPropertyOp12
 70
     1
102
RTVSPropertyOp13
 70
     1
102
RTVSPropertyOp14
 70
     1
102
RTVSPropertyOp15
 70
     1
102
RTVSPropertyOp16
 70
     1
102
RTVSPropertyOp17
 70
     1
102
RTVSPropertyOp18
 70
     1
102
RTVSPropertyOp19
 70
     1
102
RTVSPropertyOp20
 70
     1
102
RTVSPropertyOp21
 70
     1
102
RTVSPropertyOp22
 70
     1
102
RTVSPropertyOp23
 70
     1
102
RTVSPropertyOp24
 70
     1
102
RTVSPropertyOp25
 70
     1
102
RTVSPropertyOp26
 70
     1
102
RTVSPropertyOp27
 70
     1
102
RTVSPropertyOp28
 70
     1
102
RTVSPropertyOp29
 70
     1
102
RTVSPropertyOp30
 70
     1
102
RTVSPropertyOp31
 70
     1
102
RTVSPropertyOp32
 70
     1
102
RTVSPropertyOp33
 70
     1
102
RTVSPropertyOp34
 70
     1
102
RTVSPropertyOp35
 70
     1
102
RTVSPropertyOp36
 70
     1
102
RTVSPropertyOp37
 70
     1
102
RTVSPropertyOp38
 70
     1
102
RTVSPropertyOp39
 70
     1
102
RTVSPropertyOp40
 70
     1
102
RTVSPropertyOp41
 70
     1
102
RTVSPropertyOp42
 70
     1
102
RTVSPropertyOp43
 70
     1
102
RTVSPropertyOp44
 70
     1
102
RTVSPropertyOp45
 70
     1
102
RTVSPropertyOp46
 70
     1
102
RTVSPropertyOp47
 70
     1
102
RTVSPropertyOp48
 70
     1
102
RTVSPropertyOp49
 70
     1
102
RTVSPropertyOp50
 70
     1
102
RTVSPropertyOp51
 70
     0
102
RTVSPropertyOp52
 70
     0
102
RTVSPropertyOp53
 70
     1
102
RTVSPropertyOp54
 70
     1
102
RTVSPropertyOp55
 70
     1
102
RTVSPropertyOp56
 70
     1
102
RTVSPropertyOp57
 70
     1
102
RTVSPropertyOp58
 70
     1
102
RTVSPropertyOp59
 70
     1
102
RTVSPropertyOp60
 70
     1
102
RTVSPropertyOp61
 70
     1
102
RTVSPropertyOp62
 70
     1
  0
XRECORD
  5
19269
102
{ACAD_REACTORS
330
19268
102
}
330
19268
100
AcDbXrecord
280
     1
102
RTVSPost2010Prop28
280
     0
102
RTVSPost2010PropOp28
 70
     1
102
RTVSPost2010Prop29
280
     1
102
RTVSPost2010PropOp29
 70
     1
102
RTVSPost2010Prop30
280
     1
102
RTVSPost2010PropOp30
 70
     1
102
RTVSPost2010Prop31
280
     0
102
RTVSPost2010PropOp31
 70
     1
102
RTVSPost2010Prop32
280
     0
102
RTVSPost2010PropOp32
 70
     1
102
RTVSPost2010Prop33
280
     0
102
RTVSPost2010PropOp33
 70
     1
102
RTVSPost2010Prop34
280
     0
102
RTVSPost2010PropOp34
 70
     1
102
RTVSPost2010Prop35
280
     0
102
RTVSPost2010PropOp35
 70
     1
102
RTVSPost2010Prop36
280
     0
102
RTVSPost2010PropOp36
 70
     1
102
RTVSPost2010Prop37
 90
       50
102
RTVSPost2010PropOp37
 70
     1
102
RTVSPost2010Prop38
140
0.0
102
RTVSPost2010PropOp38
 70
     1
102
RTVSPost2010Prop39
140
1.0
102
RTVSPost2010PropOp39
 70
     1
102
RTVSPost2010Prop40
 90
        0
102
RTVSPost2010PropOp40
 70
     1
102
RTVSPost2010Prop41ColorIndex
 90
       18
102
RTVSPost2010Prop41ColorRGB
 90
        0
102
RTVSPost2010PropOp41
 70
     1
102
RTVSPost2010Prop42
 90
       50
102
RTVSPost2010PropOp42
 70
     1
102
RTVSPost2010Prop43
 90
        3
102
RTVSPost2010PropOp43
 70
     1
102
RTVSPost2010Prop44ColorIndex
 90
        5
102
RTVSPost2010Prop44ColorRGB
 90
      255
102
RTVSPost2010PropOp44
 70
     1
102
RTVSPost2010Prop45
280
     0
102
RTVSPost2010PropOp45
 70
     1
102
RTVSPost2010Prop46
 90
       50
102
RTVSPost2010PropOp46
 70
     1
102
RTVSPost2010Prop47
 90
       50
102
RTVSPost2010PropOp47
 70
     1
102
RTVSPost2010Prop48
 90
       50
102
RTVSPost2010PropOp48
 70
     1
102
RTVSPost2010Prop49
280
     0
102
RTVSPost2010PropOp49
 70
     1
102
RTVSPost2010Prop50
 90
       50
102
RTVSPost2010PropOp50
 70
     1
102
RTVSPost2010Prop51ColorIndex
 90
      256
102
RTVSPost2010Prop51ColorRGB
 90
-16777216
102
RTVSPost2010PropOp51
 70
     0
102
RTVSPost2010Prop52
140
1.0
102
RTVSPost2010PropOp52
 70
     0
102
RTVSPost2010Prop53
 90
        2
102
RTVSPost2010PropOp53
 70
     1
102
RTVSPost2010Prop54
  1
strokes_ogs.tif
102
RTVSPost2010PropOp54
 70
     1
102
RTVSPost2010Prop55
280
     0
102
RTVSPost2010PropOp55
 70
     1
102
RTVSPost2010Prop56
140
1.0
102
RTVSPost2010PropOp56
 70
     1
102
RTVSPost2010Prop57
140
1.0
102
RTVSPost2010PropOp57
 70
     1
102
RTVSPropertyOp0
 70
     1
102
RTVSPropertyOp1
 70
     1
102
RTVSPropertyOp2
 70
     1
102
RTVSPropertyOp3
 70
     1
102
RTVSPropertyOp4
 70
     1
102
RTVSPropertyOp5
 70
     1
102
RTVSPropertyOp6
 70
     1
102
RTVSPropertyOp7
 70
     1
102
RTVSPropertyOp8
 70
     1
102
RTVSPropertyOp9
 70
     1
102
RTVSPropertyOp10
 70
     1
102
RTVSPropertyOp11
 70
     1
102
RTVSPropertyOp12
 70
     1
102
RTVSPropertyOp13
 70
     1
102
RTVSPropertyOp14
 70
     1
102
RTVSPropertyOp15
 70
     1
102
RTVSPropertyOp16
 70
     1
102
RTVSPropertyOp17
 70
     1
102
RTVSPropertyOp18
 70
     1
102
RTVSPropertyOp19
 70
     1
102
RTVSPropertyOp20
 70
     1
102
RTVSPropertyOp21
 70
     1
102
RTVSPropertyOp22
 70
     1
102
RTVSPropertyOp23
 70
     1
102
RTVSPropertyOp24
 70
     1
102
RTVSPropertyOp25
 70
     1
102
RTVSPropertyOp26
 70
     1
102
RTVSPropertyOp27
 70
     1
102
RTVSPropertyOp28
 70
     1
102
RTVSPropertyOp29
 70
     1
102
RTVSPropertyOp30
 70
     1
102
RTVSPropertyOp31
 70
     1
102
RTVSPropertyOp32
 70
     1
102
RTVSPropertyOp33
 70
     1
102
RTVSPropertyOp34
 70
     1
102
RTVSPropertyOp35
 70
     1
102
RTVSPropertyOp36
 70
     1
102
RTVSPropertyOp37
 70
     1
102
RTVSPropertyOp38
 70
     1
102
RTVSPropertyOp39
 70
     1
102
RTVSPropertyOp40
 70
     1
102
RTVSPropertyOp41
 70
     1
102
RTVSPropertyOp42
 70
     1
102
RTVSPropertyOp43
 70
     1
102
RTVSPropertyOp44
 70
     1
102
RTVSPropertyOp45
 70
     1
102
RTVSPropertyOp46
 70
     1
102
RTVSPropertyOp47
 70
     1
102
RTVSPropertyOp48
 70
     1
102
RTVSPropertyOp49
 70
     1
102
RTVSPropertyOp50
 70
     1
102
RTVSPropertyOp51
 70
     0
102
RTVSPropertyOp52
 70
     0
102
RTVSPropertyOp53
 70
     1
102
RTVSPropertyOp54
 70
     1
102
RTVSPropertyOp55
 70
     1
102
RTVSPropertyOp56
 70
     1
102
RTVSPropertyOp57
 70
     1
102
RTVSPropertyOp58
 70
     1
102
RTVSPropertyOp59
 70
     1
102
RTVSPropertyOp60
 70
     1
102
RTVSPropertyOp61
 70
     1
102
RTVSPropertyOp62
 70
     1
  0
XRECORD
  5
19267
102
{ACAD_REACTORS
330
19266
102
}
330
19266
100
AcDbXrecord
280
     1
102
RTVSPost2010Prop28
280
     0
102
RTVSPost2010PropOp28
 70
     1
102
RTVSPost2010Prop29
280
     1
102
RTVSPost2010PropOp29
 70
     1
102
RTVSPost2010Prop30
280
     1
102
RTVSPost2010PropOp30
 70
     1
102
RTVSPost2010Prop31
280
     0
102
RTVSPost2010PropOp31
 70
     1
102
RTVSPost2010Prop32
280
     0
102
RTVSPost2010PropOp32
 70
     1
102
RTVSPost2010Prop33
280
     0
102
RTVSPost2010PropOp33
 70
     1
102
RTVSPost2010Prop34
280
     0
102
RTVSPost2010PropOp34
 70
     1
102
RTVSPost2010Prop35
280
     0
102
RTVSPost2010PropOp35
 70
     1
102
RTVSPost2010Prop36
280
     0
102
RTVSPost2010PropOp36
 70
     1
102
RTVSPost2010Prop37
 90
       50
102
RTVSPost2010PropOp37
 70
     1
102
RTVSPost2010Prop38
140
0.0
102
RTVSPost2010PropOp38
 70
     1
102
RTVSPost2010Prop39
140
1.0
102
RTVSPost2010PropOp39
 70
     1
102
RTVSPost2010Prop40
 90
        0
102
RTVSPost2010PropOp40
 70
     1
102
RTVSPost2010Prop41ColorIndex
 90
       18
102
RTVSPost2010Prop41ColorRGB
 90
        0
102
RTVSPost2010PropOp41
 70
     1
102
RTVSPost2010Prop42
 90
       50
102
RTVSPost2010PropOp42
 70
     1
102
RTVSPost2010Prop43
 90
        3
102
RTVSPost2010PropOp43
 70
     1
102
RTVSPost2010Prop44ColorIndex
 90
        5
102
RTVSPost2010Prop44ColorRGB
 90
      255
102
RTVSPost2010PropOp44
 70
     1
102
RTVSPost2010Prop45
280
     0
102
RTVSPost2010PropOp45
 70
     1
102
RTVSPost2010Prop46
 90
       50
102
RTVSPost2010PropOp46
 70
     1
102
RTVSPost2010Prop47
 90
       50
102
RTVSPost2010PropOp47
 70
     1
102
RTVSPost2010Prop48
 90
       50
102
RTVSPost2010PropOp48
 70
     1
102
RTVSPost2010Prop49
280
     0
102
RTVSPost2010PropOp49
 70
     1
102
RTVSPost2010Prop50
 90
       50
102
RTVSPost2010PropOp50
 70
     1
102
RTVSPost2010Prop51ColorIndex
 90
      256
102
RTVSPost2010Prop51ColorRGB
 90
-16777216
102
RTVSPost2010PropOp51
 70
     0
102
RTVSPost2010Prop52
140
1.0
102
RTVSPost2010PropOp52
 70
     0
102
RTVSPost2010Prop53
 90
        2
102
RTVSPost2010PropOp53
 70
     1
102
RTVSPost2010Prop54
  1
strokes_ogs.tif
102
RTVSPost2010PropOp54
 70
     1
102
RTVSPost2010Prop55
280
     0
102
RTVSPost2010PropOp55
 70
     1
102
RTVSPost2010Prop56
140
1.0
102
RTVSPost2010PropOp56
 70
     1
102
RTVSPost2010Prop57
140
1.0
102
RTVSPost2010PropOp57
 70
     1
102
RTVSPropertyOp0
 70
     1
102
RTVSPropertyOp1
 70
     1
102
RTVSPropertyOp2
 70
     1
102
RTVSPropertyOp3
 70
     1
102
RTVSPropertyOp4
 70
     1
102
RTVSPropertyOp5
 70
     1
102
RTVSPropertyOp6
 70
     1
102
RTVSPropertyOp7
 70
     1
102
RTVSPropertyOp8
 70
     1
102
RTVSPropertyOp9
 70
     1
102
RTVSPropertyOp10
 70
     1
102
RTVSPropertyOp11
 70
     1
102
RTVSPropertyOp12
 70
     1
102
RTVSPropertyOp13
 70
     1
102
RTVSPropertyOp14
 70
     1
102
RTVSPropertyOp15
 70
     1
102
RTVSPropertyOp16
 70
     1
102
RTVSPropertyOp17
 70
     1
102
RTVSPropertyOp18
 70
     1
102
RTVSPropertyOp19
 70
     1
102
RTVSPropertyOp20
 70
     1
102
RTVSPropertyOp21
 70
     1
102
RTVSPropertyOp22
 70
     1
102
RTVSPropertyOp23
 70
     1
102
RTVSPropertyOp24
 70
     1
102
RTVSPropertyOp25
 70
     1
102
RTVSPropertyOp26
 70
     1
102
RTVSPropertyOp27
 70
     1
102
RTVSPropertyOp28
 70
     1
102
RTVSPropertyOp29
 70
     1
102
RTVSPropertyOp30
 70
     1
102
RTVSPropertyOp31
 70
     1
102
RTVSPropertyOp32
 70
     1
102
RTVSPropertyOp33
 70
     1
102
RTVSPropertyOp34
 70
     1
102
RTVSPropertyOp35
 70
     1
102
RTVSPropertyOp36
 70
     1
102
RTVSPropertyOp37
 70
     1
102
RTVSPropertyOp38
 70
     1
102
RTVSPropertyOp39
 70
     1
102
RTVSPropertyOp40
 70
     1
102
RTVSPropertyOp41
 70
     1
102
RTVSPropertyOp42
 70
     1
102
RTVSPropertyOp43
 70
     1
102
RTVSPropertyOp44
 70
     1
102
RTVSPropertyOp45
 70
     1
102
RTVSPropertyOp46
 70
     1
102
RTVSPropertyOp47
 70
     1
102
RTVSPropertyOp48
 70
     1
102
RTVSPropertyOp49
 70
     1
102
RTVSPropertyOp50
 70
     1
102
RTVSPropertyOp51
 70
     0
102
RTVSPropertyOp52
 70
     0
102
RTVSPropertyOp53
 70
     1
102
RTVSPropertyOp54
 70
     1
102
RTVSPropertyOp55
 70
     1
102
RTVSPropertyOp56
 70
     1
102
RTVSPropertyOp57
 70
     1
102
RTVSPropertyOp58
 70
     1
102
RTVSPropertyOp59
 70
     1
102
RTVSPropertyOp60
 70
     1
102
RTVSPropertyOp61
 70
     1
102
RTVSPropertyOp62
 70
     1
  0
XRECORD
  5
19261
102
{ACAD_REACTORS
330
19260
102
}
330
19260
100
AcDbXrecord
280
     1
102
RTVSPost2010Prop28
280
     0
102
RTVSPost2010PropOp28
 70
     1
102
RTVSPost2010Prop29
280
     1
102
RTVSPost2010PropOp29
 70
     1
102
RTVSPost2010Prop30
280
     1
102
RTVSPost2010PropOp30
 70
     1
102
RTVSPost2010Prop31
280
     0
102
RTVSPost2010PropOp31
 70
     1
102
RTVSPost2010Prop32
280
     0
102
RTVSPost2010PropOp32
 70
     1
102
RTVSPost2010Prop33
280
     0
102
RTVSPost2010PropOp33
 70
     1
102
RTVSPost2010Prop34
280
     0
102
RTVSPost2010PropOp34
 70
     1
102
RTVSPost2010Prop35
280
     0
102
RTVSPost2010PropOp35
 70
     1
102
RTVSPost2010Prop36
280
     0
102
RTVSPost2010PropOp36
 70
     1
102
RTVSPost2010Prop37
 90
       50
102
RTVSPost2010PropOp37
 70
     1
102
RTVSPost2010Prop38
140
0.0
102
RTVSPost2010PropOp38
 70
     1
102
RTVSPost2010Prop39
140
1.0
102
RTVSPost2010PropOp39
 70
     1
102
RTVSPost2010Prop40
 90
        0
102
RTVSPost2010PropOp40
 70
     1
102
RTVSPost2010Prop41ColorIndex
 90
       18
102
RTVSPost2010Prop41ColorRGB
 90
        0
102
RTVSPost2010PropOp41
 70
     1
102
RTVSPost2010Prop42
 90
       50
102
RTVSPost2010PropOp42
 70
     1
102
RTVSPost2010Prop43
 90
        3
102
RTVSPost2010PropOp43
 70
     1
102
RTVSPost2010Prop44ColorIndex
 90
        5
102
RTVSPost2010Prop44ColorRGB
 90
      255
102
RTVSPost2010PropOp44
 70
     1
102
RTVSPost2010Prop45
280
     0
102
RTVSPost2010PropOp45
 70
     1
102
RTVSPost2010Prop46
 90
       50
102
RTVSPost2010PropOp46
 70
     1
102
RTVSPost2010Prop47
 90
       50
102
RTVSPost2010PropOp47
 70
     1
102
RTVSPost2010Prop48
 90
       50
102
RTVSPost2010PropOp48
 70
     1
102
RTVSPost2010Prop49
280
     0
102
RTVSPost2010PropOp49
 70
     1
102
RTVSPost2010Prop50
 90
       50
102
RTVSPost2010PropOp50
 70
     1
102
RTVSPost2010Prop51ColorIndex
 90
      256
102
RTVSPost2010Prop51ColorRGB
 90
-16777216
102
RTVSPost2010PropOp51
 70
     0
102
RTVSPost2010Prop52
140
1.0
102
RTVSPost2010PropOp52
 70
     0
102
RTVSPost2010Prop53
 90
        2
102
RTVSPost2010PropOp53
 70
     1
102
RTVSPost2010Prop54
  1
strokes_ogs.tif
102
RTVSPost2010PropOp54
 70
     1
102
RTVSPost2010Prop55
280
     0
102
RTVSPost2010PropOp55
 70
     1
102
RTVSPost2010Prop56
140
1.0
102
RTVSPost2010PropOp56
 70
     1
102
RTVSPost2010Prop57
140
1.0
102
RTVSPost2010PropOp57
 70
     1
102
RTVSPropertyOp0
 70
     1
102
RTVSPropertyOp1
 70
     1
102
RTVSPropertyOp2
 70
     1
102
RTVSPropertyOp3
 70
     1
102
RTVSPropertyOp4
 70
     1
102
RTVSPropertyOp5
 70
     1
102
RTVSPropertyOp6
 70
     1
102
RTVSPropertyOp7
 70
     1
102
RTVSPropertyOp8
 70
     1
102
RTVSPropertyOp9
 70
     1
102
RTVSPropertyOp10
 70
     1
102
RTVSPropertyOp11
 70
     1
102
RTVSPropertyOp12
 70
     1
102
RTVSPropertyOp13
 70
     1
102
RTVSPropertyOp14
 70
     1
102
RTVSPropertyOp15
 70
     1
102
RTVSPropertyOp16
 70
     1
102
RTVSPropertyOp17
 70
     1
102
RTVSPropertyOp18
 70
     1
102
RTVSPropertyOp19
 70
     1
102
RTVSPropertyOp20
 70
     1
102
RTVSPropertyOp21
 70
     1
102
RTVSPropertyOp22
 70
     1
102
RTVSPropertyOp23
 70
     1
102
RTVSPropertyOp24
 70
     1
102
RTVSPropertyOp25
 70
     1
102
RTVSPropertyOp26
 70
     1
102
RTVSPropertyOp27
 70
     1
102
RTVSPropertyOp28
 70
     1
102
RTVSPropertyOp29
 70
     1
102
RTVSPropertyOp30
 70
     1
102
RTVSPropertyOp31
 70
     1
102
RTVSPropertyOp32
 70
     1
102
RTVSPropertyOp33
 70
     1
102
RTVSPropertyOp34
 70
     1
102
RTVSPropertyOp35
 70
     1
102
RTVSPropertyOp36
 70
     1
102
RTVSPropertyOp37
 70
     1
102
RTVSPropertyOp38
 70
     1
102
RTVSPropertyOp39
 70
     1
102
RTVSPropertyOp40
 70
     1
102
RTVSPropertyOp41
 70
     1
102
RTVSPropertyOp42
 70
     1
102
RTVSPropertyOp43
 70
     1
102
RTVSPropertyOp44
 70
     1
102
RTVSPropertyOp45
 70
     1
102
RTVSPropertyOp46
 70
     1
102
RTVSPropertyOp47
 70
     1
102
RTVSPropertyOp48
 70
     1
102
RTVSPropertyOp49
 70
     1
102
RTVSPropertyOp50
 70
     1
102
RTVSPropertyOp51
 70
     0
102
RTVSPropertyOp52
 70
     0
102
RTVSPropertyOp53
 70
     1
102
RTVSPropertyOp54
 70
     1
102
RTVSPropertyOp55
 70
     1
102
RTVSPropertyOp56
 70
     1
102
RTVSPropertyOp57
 70
     1
102
RTVSPropertyOp58
 70
     1
102
RTVSPropertyOp59
 70
     1
102
RTVSPropertyOp60
 70
     1
102
RTVSPropertyOp61
 70
     1
102
RTVSPropertyOp62
 70
     1
  0
XRECORD
  5
19263
102
{ACAD_REACTORS
330
19262
102
}
330
19262
100
AcDbXrecord
280
     1
102
RTVSPost2010Prop28
280
     0
102
RTVSPost2010PropOp28
 70
     1
102
RTVSPost2010Prop29
280
     1
102
RTVSPost2010PropOp29
 70
     1
102
RTVSPost2010Prop30
280
     1
102
RTVSPost2010PropOp30
 70
     1
102
RTVSPost2010Prop31
280
     0
102
RTVSPost2010PropOp31
 70
     1
102
RTVSPost2010Prop32
280
     0
102
RTVSPost2010PropOp32
 70
     1
102
RTVSPost2010Prop33
280
     0
102
RTVSPost2010PropOp33
 70
     1
102
RTVSPost2010Prop34
280
     0
102
RTVSPost2010PropOp34
 70
     1
102
RTVSPost2010Prop35
280
     0
102
RTVSPost2010PropOp35
 70
     1
102
RTVSPost2010Prop36
280
     0
102
RTVSPost2010PropOp36
 70
     1
102
RTVSPost2010Prop37
 90
       50
102
RTVSPost2010PropOp37
 70
     1
102
RTVSPost2010Prop38
140
0.0
102
RTVSPost2010PropOp38
 70
     1
102
RTVSPost2010Prop39
140
1.0
102
RTVSPost2010PropOp39
 70
     1
102
RTVSPost2010Prop40
 90
        0
102
RTVSPost2010PropOp40
 70
     1
102
RTVSPost2010Prop41ColorIndex
 90
       18
102
RTVSPost2010Prop41ColorRGB
 90
        0
102
RTVSPost2010PropOp41
 70
     1
102
RTVSPost2010Prop42
 90
       50
102
RTVSPost2010PropOp42
 70
     1
102
RTVSPost2010Prop43
 90
        3
102
RTVSPost2010PropOp43
 70
     1
102
RTVSPost2010Prop44ColorIndex
 90
        5
102
RTVSPost2010Prop44ColorRGB
 90
      255
102
RTVSPost2010PropOp44
 70
     1
102
RTVSPost2010Prop45
280
     0
102
RTVSPost2010PropOp45
 70
     1
102
RTVSPost2010Prop46
 90
       50
102
RTVSPost2010PropOp46
 70
     1
102
RTVSPost2010Prop47
 90
       50
102
RTVSPost2010PropOp47
 70
     1
102
RTVSPost2010Prop48
 90
       50
102
RTVSPost2010PropOp48
 70
     1
102
RTVSPost2010Prop49
280
     0
102
RTVSPost2010PropOp49
 70
     1
102
RTVSPost2010Prop50
 90
       50
102
RTVSPost2010PropOp50
 70
     1
102
RTVSPost2010Prop51ColorIndex
 90
      256
102
RTVSPost2010Prop51ColorRGB
 90
-16777216
102
RTVSPost2010PropOp51
 70
     0
102
RTVSPost2010Prop52
140
1.0
102
RTVSPost2010PropOp52
 70
     0
102
RTVSPost2010Prop53
 90
        2
102
RTVSPost2010PropOp53
 70
     1
102
RTVSPost2010Prop54
  1
strokes_ogs.tif
102
RTVSPost2010PropOp54
 70
     1
102
RTVSPost2010Prop55
280
     0
102
RTVSPost2010PropOp55
 70
     1
102
RTVSPost2010Prop56
140
1.0
102
RTVSPost2010PropOp56
 70
     1
102
RTVSPost2010Prop57
140
1.0
102
RTVSPost2010PropOp57
 70
     1
102
RTVSPropertyOp0
 70
     1
102
RTVSPropertyOp1
 70
     1
102
RTVSPropertyOp2
 70
     1
102
RTVSPropertyOp3
 70
     1
102
RTVSPropertyOp4
 70
     1
102
RTVSPropertyOp5
 70
     1
102
RTVSPropertyOp6
 70
     1
102
RTVSPropertyOp7
 70
     1
102
RTVSPropertyOp8
 70
     1
102
RTVSPropertyOp9
 70
     1
102
RTVSPropertyOp10
 70
     1
102
RTVSPropertyOp11
 70
     1
102
RTVSPropertyOp12
 70
     1
102
RTVSPropertyOp13
 70
     1
102
RTVSPropertyOp14
 70
     1
102
RTVSPropertyOp15
 70
     1
102
RTVSPropertyOp16
 70
     1
102
RTVSPropertyOp17
 70
     1
102
RTVSPropertyOp18
 70
     1
102
RTVSPropertyOp19
 70
     1
102
RTVSPropertyOp20
 70
     1
102
RTVSPropertyOp21
 70
     1
102
RTVSPropertyOp22
 70
     1
102
RTVSPropertyOp23
 70
     1
102
RTVSPropertyOp24
 70
     1
102
RTVSPropertyOp25
 70
     1
102
RTVSPropertyOp26
 70
     1
102
RTVSPropertyOp27
 70
     1
102
RTVSPropertyOp28
 70
     1
102
RTVSPropertyOp29
 70
     1
102
RTVSPropertyOp30
 70
     1
102
RTVSPropertyOp31
 70
     1
102
RTVSPropertyOp32
 70
     1
102
RTVSPropertyOp33
 70
     1
102
RTVSPropertyOp34
 70
     1
102
RTVSPropertyOp35
 70
     1
102
RTVSPropertyOp36
 70
     1
102
RTVSPropertyOp37
 70
     1
102
RTVSPropertyOp38
 70
     1
102
RTVSPropertyOp39
 70
     1
102
RTVSPropertyOp40
 70
     1
102
RTVSPropertyOp41
 70
     1
102
RTVSPropertyOp42
 70
     1
102
RTVSPropertyOp43
 70
     1
102
RTVSPropertyOp44
 70
     1
102
RTVSPropertyOp45
 70
     1
102
RTVSPropertyOp46
 70
     1
102
RTVSPropertyOp47
 70
     1
102
RTVSPropertyOp48
 70
     1
102
RTVSPropertyOp49
 70
     1
102
RTVSPropertyOp50
 70
     1
102
RTVSPropertyOp51
 70
     0
102
RTVSPropertyOp52
 70
     0
102
RTVSPropertyOp53
 70
     1
102
RTVSPropertyOp54
 70
     1
102
RTVSPropertyOp55
 70
     1
102
RTVSPropertyOp56
 70
     1
102
RTVSPropertyOp57
 70
     1
102
RTVSPropertyOp58
 70
     1
102
RTVSPropertyOp59
 70
     1
102
RTVSPropertyOp60
 70
     1
102
RTVSPropertyOp61
 70
     1
102
RTVSPropertyOp62
 70
     1
  0
XRECORD
  5
19259
102
{ACAD_REACTORS
330
19258
102
}
330
19258
100
AcDbXrecord
280
     1
102
RTVSPost2010Prop28
280
     0
102
RTVSPost2010PropOp28
 70
     1
102
RTVSPost2010Prop29
280
     1
102
RTVSPost2010PropOp29
 70
     1
102
RTVSPost2010Prop30
280
     1
102
RTVSPost2010PropOp30
 70
     1
102
RTVSPost2010Prop31
280
     0
102
RTVSPost2010PropOp31
 70
     1
102
RTVSPost2010Prop32
280
     0
102
RTVSPost2010PropOp32
 70
     1
102
RTVSPost2010Prop33
280
     0
102
RTVSPost2010PropOp33
 70
     1
102
RTVSPost2010Prop34
280
     0
102
RTVSPost2010PropOp34
 70
     1
102
RTVSPost2010Prop35
280
     0
102
RTVSPost2010PropOp35
 70
     1
102
RTVSPost2010Prop36
280
     0
102
RTVSPost2010PropOp36
 70
     1
102
RTVSPost2010Prop37
 90
       50
102
RTVSPost2010PropOp37
 70
     1
102
RTVSPost2010Prop38
140
0.0
102
RTVSPost2010PropOp38
 70
     1
102
RTVSPost2010Prop39
140
1.0
102
RTVSPost2010PropOp39
 70
     1
102
RTVSPost2010Prop40
 90
        0
102
RTVSPost2010PropOp40
 70
     1
102
RTVSPost2010Prop41ColorIndex
 90
       18
102
RTVSPost2010Prop41ColorRGB
 90
        0
102
RTVSPost2010PropOp41
 70
     1
102
RTVSPost2010Prop42
 90
       50
102
RTVSPost2010PropOp42
 70
     1
102
RTVSPost2010Prop43
 90
        3
102
RTVSPost2010PropOp43
 70
     1
102
RTVSPost2010Prop44ColorIndex
 90
        5
102
RTVSPost2010Prop44ColorRGB
 90
      255
102
RTVSPost2010PropOp44
 70
     1
102
RTVSPost2010Prop45
280
     0
102
RTVSPost2010PropOp45
 70
     1
102
RTVSPost2010Prop46
 90
       50
102
RTVSPost2010PropOp46
 70
     1
102
RTVSPost2010Prop47
 90
       50
102
RTVSPost2010PropOp47
 70
     1
102
RTVSPost2010Prop48
 90
       50
102
RTVSPost2010PropOp48
 70
     1
102
RTVSPost2010Prop49
280
     0
102
RTVSPost2010PropOp49
 70
     1
102
RTVSPost2010Prop50
 90
       50
102
RTVSPost2010PropOp50
 70
     1
102
RTVSPost2010Prop51ColorIndex
 90
      256
102
RTVSPost2010Prop51ColorRGB
 90
-16777216
102
RTVSPost2010PropOp51
 70
     0
102
RTVSPost2010Prop52
140
1.0
102
RTVSPost2010PropOp52
 70
     0
102
RTVSPost2010Prop53
 90
        2
102
RTVSPost2010PropOp53
 70
     1
102
RTVSPost2010Prop54
  1
strokes_ogs.tif
102
RTVSPost2010PropOp54
 70
     1
102
RTVSPost2010Prop55
280
     0
102
RTVSPost2010PropOp55
 70
     1
102
RTVSPost2010Prop56
140
1.0
102
RTVSPost2010PropOp56
 70
     1
102
RTVSPost2010Prop57
140
1.0
102
RTVSPost2010PropOp57
 70
     1
102
RTVSPropertyOp0
 70
     1
102
RTVSPropertyOp1
 70
     1
102
RTVSPropertyOp2
 70
     1
102
RTVSPropertyOp3
 70
     1
102
RTVSPropertyOp4
 70
     1
102
RTVSPropertyOp5
 70
     1
102
RTVSPropertyOp6
 70
     1
102
RTVSPropertyOp7
 70
     1
102
RTVSPropertyOp8
 70
     1
102
RTVSPropertyOp9
 70
     1
102
RTVSPropertyOp10
 70
     1
102
RTVSPropertyOp11
 70
     1
102
RTVSPropertyOp12
 70
     1
102
RTVSPropertyOp13
 70
     1
102
RTVSPropertyOp14
 70
     1
102
RTVSPropertyOp15
 70
     1
102
RTVSPropertyOp16
 70
     1
102
RTVSPropertyOp17
 70
     1
102
RTVSPropertyOp18
 70
     1
102
RTVSPropertyOp19
 70
     1
102
RTVSPropertyOp20
 70
     1
102
RTVSPropertyOp21
 70
     1
102
RTVSPropertyOp22
 70
     1
102
RTVSPropertyOp23
 70
     1
102
RTVSPropertyOp24
 70
     1
102
RTVSPropertyOp25
 70
     1
102
RTVSPropertyOp26
 70
     1
102
RTVSPropertyOp27
 70
     1
102
RTVSPropertyOp28
 70
     1
102
RTVSPropertyOp29
 70
     1
102
RTVSPropertyOp30
 70
     1
102
RTVSPropertyOp31
 70
     1
102
RTVSPropertyOp32
 70
     1
102
RTVSPropertyOp33
 70
     1
102
RTVSPropertyOp34
 70
     1
102
RTVSPropertyOp35
 70
     1
102
RTVSPropertyOp36
 70
     1
102
RTVSPropertyOp37
 70
     1
102
RTVSPropertyOp38
 70
     1
102
RTVSPropertyOp39
 70
     1
102
RTVSPropertyOp40
 70
     1
102
RTVSPropertyOp41
 70
     1
102
RTVSPropertyOp42
 70
     1
102
RTVSPropertyOp43
 70
     1
102
RTVSPropertyOp44
 70
     1
102
RTVSPropertyOp45
 70
     1
102
RTVSPropertyOp46
 70
     1
102
RTVSPropertyOp47
 70
     1
102
RTVSPropertyOp48
 70
     1
102
RTVSPropertyOp49
 70
     1
102
RTVSPropertyOp50
 70
     1
102
RTVSPropertyOp51
 70
     0
102
RTVSPropertyOp52
 70
     0
102
RTVSPropertyOp53
 70
     1
102
RTVSPropertyOp54
 70
     1
102
RTVSPropertyOp55
 70
     1
102
RTVSPropertyOp56
 70
     1
102
RTVSPropertyOp57
 70
     1
102
RTVSPropertyOp58
 70
     1
102
RTVSPropertyOp59
 70
     1
102
RTVSPropertyOp60
 70
     1
102
RTVSPropertyOp61
 70
     1
102
RTVSPropertyOp62
 70
     1
  0
XRECORD
  5
1924D
102
{ACAD_REACTORS
330
1924C
102
}
330
1924C
100
AcDbXrecord
280
     1
102
RTVSPost2010Prop28
280
     0
102
RTVSPost2010PropOp28
 70
     1
102
RTVSPost2010Prop29
280
     1
102
RTVSPost2010PropOp29
 70
     1
102
RTVSPost2010Prop30
280
     1
102
RTVSPost2010PropOp30
 70
     1
102
RTVSPost2010Prop31
280
     0
102
RTVSPost2010PropOp31
 70
     1
102
RTVSPost2010Prop32
280
     0
102
RTVSPost2010PropOp32
 70
     1
102
RTVSPost2010Prop33
280
     0
102
RTVSPost2010PropOp33
 70
     1
102
RTVSPost2010Prop34
280
     0
102
RTVSPost2010PropOp34
 70
     1
102
RTVSPost2010Prop35
280
     0
102
RTVSPost2010PropOp35
 70
     1
102
RTVSPost2010Prop36
280
     0
102
RTVSPost2010PropOp36
 70
     1
102
RTVSPost2010Prop37
 90
       50
102
RTVSPost2010PropOp37
 70
     1
102
RTVSPost2010Prop38
140
0.0
102
RTVSPost2010PropOp38
 70
     1
102
RTVSPost2010Prop39
140
1.0
102
RTVSPost2010PropOp39
 70
     1
102
RTVSPost2010Prop40
 90
        0
102
RTVSPost2010PropOp40
 70
     1
102
RTVSPost2010Prop41ColorIndex
 90
       18
102
RTVSPost2010Prop41ColorRGB
 90
        0
102
RTVSPost2010PropOp41
 70
     1
102
RTVSPost2010Prop42
 90
       50
102
RTVSPost2010PropOp42
 70
     1
102
RTVSPost2010Prop43
 90
        3
102
RTVSPost2010PropOp43
 70
     1
102
RTVSPost2010Prop44ColorIndex
 90
        5
102
RTVSPost2010Prop44ColorRGB
 90
      255
102
RTVSPost2010PropOp44
 70
     1
102
RTVSPost2010Prop45
280
     0
102
RTVSPost2010PropOp45
 70
     1
102
RTVSPost2010Prop46
 90
       50
102
RTVSPost2010PropOp46
 70
     1
102
RTVSPost2010Prop47
 90
       50
102
RTVSPost2010PropOp47
 70
     1
102
RTVSPost2010Prop48
 90
       50
102
RTVSPost2010PropOp48
 70
     1
102
RTVSPost2010Prop49
280
     0
102
RTVSPost2010PropOp49
 70
     1
102
RTVSPost2010Prop50
 90
       50
102
RTVSPost2010PropOp50
 70
     1
102
RTVSPost2010Prop51ColorIndex
 90
      256
102
RTVSPost2010Prop51ColorRGB
 90
-16777216
102
RTVSPost2010PropOp51
 70
     0
102
RTVSPost2010Prop52
140
1.0
102
RTVSPost2010PropOp52
 70
     0
102
RTVSPost2010Prop53
 90
        2
102
RTVSPost2010PropOp53
 70
     1
102
RTVSPost2010Prop54
  1
strokes_ogs.tif
102
RTVSPost2010PropOp54
 70
     1
102
RTVSPost2010Prop55
280
     0
102
RTVSPost2010PropOp55
 70
     1
102
RTVSPost2010Prop56
140
1.0
102
RTVSPost2010PropOp56
 70
     1
102
RTVSPost2010Prop57
140
1.0
102
RTVSPost2010PropOp57
 70
     1
102
RTVSPropertyOp0
 70
     1
102
RTVSPropertyOp1
 70
     1
102
RTVSPropertyOp2
 70
     1
102
RTVSPropertyOp3
 70
     1
102
RTVSPropertyOp4
 70
     1
102
RTVSPropertyOp5
 70
     1
102
RTVSPropertyOp6
 70
     1
102
RTVSPropertyOp7
 70
     1
102
RTVSPropertyOp8
 70
     1
102
RTVSPropertyOp9
 70
     1
102
RTVSPropertyOp10
 70
     1
102
RTVSPropertyOp11
 70
     1
102
RTVSPropertyOp12
 70
     1
102
RTVSPropertyOp13
 70
     1
102
RTVSPropertyOp14
 70
     1
102
RTVSPropertyOp15
 70
     1
102
RTVSPropertyOp16
 70
     1
102
RTVSPropertyOp17
 70
     1
102
RTVSPropertyOp18
 70
     1
102
RTVSPropertyOp19
 70
     1
102
RTVSPropertyOp20
 70
     1
102
RTVSPropertyOp21
 70
     1
102
RTVSPropertyOp22
 70
     1
102
RTVSPropertyOp23
 70
     1
102
RTVSPropertyOp24
 70
     1
102
RTVSPropertyOp25
 70
     1
102
RTVSPropertyOp26
 70
     1
102
RTVSPropertyOp27
 70
     1
102
RTVSPropertyOp28
 70
     1
102
RTVSPropertyOp29
 70
     1
102
RTVSPropertyOp30
 70
     1
102
RTVSPropertyOp31
 70
     1
102
RTVSPropertyOp32
 70
     1
102
RTVSPropertyOp33
 70
     1
102
RTVSPropertyOp34
 70
     1
102
RTVSPropertyOp35
 70
     1
102
RTVSPropertyOp36
 70
     1
102
RTVSPropertyOp37
 70
     1
102
RTVSPropertyOp38
 70
     1
102
RTVSPropertyOp39
 70
     1
102
RTVSPropertyOp40
 70
     1
102
RTVSPropertyOp41
 70
     1
102
RTVSPropertyOp42
 70
     1
102
RTVSPropertyOp43
 70
     1
102
RTVSPropertyOp44
 70
     1
102
RTVSPropertyOp45
 70
     1
102
RTVSPropertyOp46
 70
     1
102
RTVSPropertyOp47
 70
     1
102
RTVSPropertyOp48
 70
     1
102
RTVSPropertyOp49
 70
     1
102
RTVSPropertyOp50
 70
     1
102
RTVSPropertyOp51
 70
     0
102
RTVSPropertyOp52
 70
     0
102
RTVSPropertyOp53
 70
     1
102
RTVSPropertyOp54
 70
     1
102
RTVSPropertyOp55
 70
     1
102
RTVSPropertyOp56
 70
     1
102
RTVSPropertyOp57
 70
     1
102
RTVSPropertyOp58
 70
     1
102
RTVSPropertyOp59
 70
     1
102
RTVSPropertyOp60
 70
     1
102
RTVSPropertyOp61
 70
     1
102
RTVSPropertyOp62
 70
     1
  0
XRECORD
  5
19265
102
{ACAD_REACTORS
330
19264
102
}
330
19264
100
AcDbXrecord
280
     1
102
RTVSPost2010Prop28
280
     0
102
RTVSPost2010PropOp28
 70
     1
102
RTVSPost2010Prop29
280
     1
102
RTVSPost2010PropOp29
 70
     1
102
RTVSPost2010Prop30
280
     1
102
RTVSPost2010PropOp30
 70
     1
102
RTVSPost2010Prop31
280
     0
102
RTVSPost2010PropOp31
 70
     1
102
RTVSPost2010Prop32
280
     0
102
RTVSPost2010PropOp32
 70
     1
102
RTVSPost2010Prop33
280
     0
102
RTVSPost2010PropOp33
 70
     1
102
RTVSPost2010Prop34
280
     0
102
RTVSPost2010PropOp34
 70
     1
102
RTVSPost2010Prop35
280
     0
102
RTVSPost2010PropOp35
 70
     1
102
RTVSPost2010Prop36
280
     0
102
RTVSPost2010PropOp36
 70
     1
102
RTVSPost2010Prop37
 90
       50
102
RTVSPost2010PropOp37
 70
     1
102
RTVSPost2010Prop38
140
0.0
102
RTVSPost2010PropOp38
 70
     1
102
RTVSPost2010Prop39
140
1.0
102
RTVSPost2010PropOp39
 70
     1
102
RTVSPost2010Prop40
 90
        0
102
RTVSPost2010PropOp40
 70
     1
102
RTVSPost2010Prop41ColorIndex
 90
       18
102
RTVSPost2010Prop41ColorRGB
 90
        0
102
RTVSPost2010PropOp41
 70
     1
102
RTVSPost2010Prop42
 90
       50
102
RTVSPost2010PropOp42
 70
     1
102
RTVSPost2010Prop43
 90
        3
102
RTVSPost2010PropOp43
 70
     1
102
RTVSPost2010Prop44ColorIndex
 90
        5
102
RTVSPost2010Prop44ColorRGB
 90
      255
102
RTVSPost2010PropOp44
 70
     1
102
RTVSPost2010Prop45
280
     0
102
RTVSPost2010PropOp45
 70
     1
102
RTVSPost2010Prop46
 90
       50
102
RTVSPost2010PropOp46
 70
     1
102
RTVSPost2010Prop47
 90
       50
102
RTVSPost2010PropOp47
 70
     1
102
RTVSPost2010Prop48
 90
       50
102
RTVSPost2010PropOp48
 70
     1
102
RTVSPost2010Prop49
280
     0
102
RTVSPost2010PropOp49
 70
     1
102
RTVSPost2010Prop50
 90
       50
102
RTVSPost2010PropOp50
 70
     1
102
RTVSPost2010Prop51ColorIndex
 90
      256
102
RTVSPost2010Prop51ColorRGB
 90
-16777216
102
RTVSPost2010PropOp51
 70
     0
102
RTVSPost2010Prop52
140
1.0
102
RTVSPost2010PropOp52
 70
     0
102
RTVSPost2010Prop53
 90
        2
102
RTVSPost2010PropOp53
 70
     1
102
RTVSPost2010Prop54
  1
strokes_ogs.tif
102
RTVSPost2010PropOp54
 70
     1
102
RTVSPost2010Prop55
280
     0
102
RTVSPost2010PropOp55
 70
     1
102
RTVSPost2010Prop56
140
1.0
102
RTVSPost2010PropOp56
 70
     1
102
RTVSPost2010Prop57
140
1.0
102
RTVSPost2010PropOp57
 70
     1
102
RTVSPropertyOp0
 70
     1
102
RTVSPropertyOp1
 70
     1
102
RTVSPropertyOp2
 70
     1
102
RTVSPropertyOp3
 70
     1
102
RTVSPropertyOp4
 70
     1
102
RTVSPropertyOp5
 70
     1
102
RTVSPropertyOp6
 70
     1
102
RTVSPropertyOp7
 70
     1
102
RTVSPropertyOp8
 70
     1
102
RTVSPropertyOp9
 70
     1
102
RTVSPropertyOp10
 70
     1
102
RTVSPropertyOp11
 70
     1
102
RTVSPropertyOp12
 70
     1
102
RTVSPropertyOp13
 70
     1
102
RTVSPropertyOp14
 70
     1
102
RTVSPropertyOp15
 70
     1
102
RTVSPropertyOp16
 70
     1
102
RTVSPropertyOp17
 70
     1
102
RTVSPropertyOp18
 70
     1
102
RTVSPropertyOp19
 70
     1
102
RTVSPropertyOp20
 70
     1
102
RTVSPropertyOp21
 70
     1
102
RTVSPropertyOp22
 70
     1
102
RTVSPropertyOp23
 70
     1
102
RTVSPropertyOp24
 70
     1
102
RTVSPropertyOp25
 70
     1
102
RTVSPropertyOp26
 70
     1
102
RTVSPropertyOp27
 70
     1
102
RTVSPropertyOp28
 70
     1
102
RTVSPropertyOp29
 70
     1
102
RTVSPropertyOp30
 70
     1
102
RTVSPropertyOp31
 70
     1
102
RTVSPropertyOp32
 70
     1
102
RTVSPropertyOp33
 70
     1
102
RTVSPropertyOp34
 70
     1
102
RTVSPropertyOp35
 70
     1
102
RTVSPropertyOp36
 70
     1
102
RTVSPropertyOp37
 70
     1
102
RTVSPropertyOp38
 70
     1
102
RTVSPropertyOp39
 70
     1
102
RTVSPropertyOp40
 70
     1
102
RTVSPropertyOp41
 70
     1
102
RTVSPropertyOp42
 70
     1
102
RTVSPropertyOp43
 70
     1
102
RTVSPropertyOp44
 70
     1
102
RTVSPropertyOp45
 70
     1
102
RTVSPropertyOp46
 70
     1
102
RTVSPropertyOp47
 70
     1
102
RTVSPropertyOp48
 70
     1
102
RTVSPropertyOp49
 70
     1
102
RTVSPropertyOp50
 70
     1
102
RTVSPropertyOp51
 70
     0
102
RTVSPropertyOp52
 70
     0
102
RTVSPropertyOp53
 70
     1
102
RTVSPropertyOp54
 70
     1
102
RTVSPropertyOp55
 70
     1
102
RTVSPropertyOp56
 70
     1
102
RTVSPropertyOp57
 70
     1
102
RTVSPropertyOp58
 70
     1
102
RTVSPropertyOp59
 70
     1
102
RTVSPropertyOp60
 70
     1
102
RTVSPropertyOp61
 70
     1
102
RTVSPropertyOp62
 70
     1
  0
ENDSEC
  0
EOF
