  0
SECTION
  2
HEADER
  9
$ACADVER
  1
AC1015
  9
$ACADMAINTVER
 70
    20
  9
$DWGCODEPAGE
  3
ANSI_932
  9
$INSBASE
 10
0.0
 20
0.0
 30
0.0
  9
$EXTMIN
 10
174.9999999999993
 20
-0.0000075012905659
 30
0.0
  9
$EXTMAX
 10
20384.0
 20
14262.0
 30
0.0
  9
$LIMMIN
 10
-161.6812653104498
 20
-194.5236301608711
  9
$LIMMAX
 10
20542.28441621547
 20
14447.75181300318
  9
$ORTHOMODE
 70
     0
  9
$REGENMODE
 70
     1
  9
$FILLMODE
 70
     1
  9
$QTEXTMODE
 70
     0
  9
$MIRRTEXT
 70
     1
  9
$LTSCALE
 40
20.0
  9
$ATTMODE
 70
     1
  9
$TEXTSIZE
 40
150.0
  9
$TRACEWID
 40
1.0
  9
$TEXTSTYLE
  7
STYLE1
  9
$CLAYER
  8
仕様書枠
  9
$CELTYPE
  6
BYLAYER
  9
$CECOLOR
 62
   256
  9
$CELTSCALE
 40
50.0
  9
$DISPSILH
 70
     0
  9
$DIMSCALE
 40
0.0
  9
$DIMASZ
 40
125.0
  9
$DIMEXO
 40
25.0
  9
$DIMDLI
 40
7.0
  9
$DIMRND
 40
0.0
  9
$DIMDLE
 40
0.0
  9
$DIMEXE
 40
75.0
  9
$DIMTP
 40
0.0
  9
$DIMTM
 40
0.0
  9
$DIMTXT
 40
150.0
  9
$DIMCEN
 40
0.0
  9
$DIMTSZ
 40
0.0
  9
$DIMTOL
 70
     0
  9
$DIMLIM
 70
     0
  9
$DIMTIH
 70
     0
  9
$DIMTOH
 70
     0
  9
$DIMSE1
 70
     0
  9
$DIMSE2
 70
     0
  9
$DIMTAD
 70
     3
  9
$DIMZIN
 70
     8
  9
$DIMBLK
  1

  9
$DIMASO
 70
     1
  9
$DIMSHO
 70
     1
  9
$DIMPOST
  1

  9
$DIMAPOST
  1

  9
$DIMALT
 70
     0
  9
$DIMALTD
 70
     2
  9
$DIMALTF
 40
0.0394
  9
$DIMLFAC
 40
1.0
  9
$DIMTOFL
 70
     1
  9
$DIMTVP
 40
0.0
  9
$DIMTIX
 70
     1
  9
$DIMSOXD
 70
     0
  9
$DIMSAH
 70
     1
  9
$DIMBLK1
  1
DOTSMALL
  9
$DIMBLK2
  1
DOTSMALL
  9
$DIMSTYLE
  2
INABA_S50G
  9
$DIMCLRD
 70
     0
  9
$DIMCLRE
 70
     0
  9
$DIMCLRT
 70
     7
  9
$DIMTFAC
 40
1.0
  9
$DIMGAP
 40
25.0
  9
$DIMJUST
 70
     0
  9
$DIMSD1
 70
     0
  9
$DIMSD2
 70
     0
  9
$DIMTOLJ
 70
     1
  9
$DIMTZIN
 70
     0
  9
$DIMALTZ
 70
     0
  9
$DIMALTTZ
 70
     0
  9
$DIMUPT
 70
     0
  9
$DIMDEC
 70
     1
  9
$DIMTDEC
 70
     4
  9
$DIMALTU
 70
     2
  9
$DIMALTTD
 70
     2
  9
$DIMTXSTY
  7
STYLE1
  9
$DIMAUNIT
 70
     0
  9
$DIMADEC
 70
     0
  9
$DIMALTRND
 40
0.0
  9
$DIMAZIN
 70
     0
  9
$DIMDSEP
 70
    46
  9
$DIMATFIT
 70
     3
  9
$DIMFRAC
 70
     0
  9
$DIMLDRBLK
  1
DOTSMALL
  9
$DIMLUNIT
 70
     2
  9
$DIMLWD
 70
    -2
  9
$DIMLWE
 70
    -2
  9
$DIMTMOVE
 70
     0
  9
$LUNITS
 70
     2
  9
$LUPREC
 70
     1
  9
$SKETCHINC
 40
1.0
  9
$FILLETRAD
 40
0.0
  9
$AUNITS
 70
     0
  9
$AUPREC
 70
     0
  9
$MENU
  1
acad
  9
$ELEVATION
 40
0.0
  9
$PELEVATION
 40
0.0
  9
$THICKNESS
 40
0.0
  9
$LIMCHECK
 70
     0
  9
$CHAMFERA
 40
0.0
  9
$CHAMFERB
 40
0.0
  9
$CHAMFERC
 40
0.0
  9
$CHAMFERD
 40
0.0
  9
$SKPOLY
 70
     0
  9
$TDCREATE
 40
2451376.453362153
  9
$TDUCREATE
 40
2451376.078362153
  9
$TDUPDATE
 40
2455569.637590058
  9
$TDUUPDATE
 40
2455569.262590058
  9
$TDINDWG
 40
1.9462658333
  9
$TDUSRTIMER
 40
1.9462658333
  9
$USRTIMER
 70
     1
  9
$ANGBASE
 50
0.0
  9
$ANGDIR
 70
     0
  9
$PDMODE
 70
     3
  9
$PDSIZE
 40
2.0
  9
$PLINEWID
 40
0.0
  9
$SPLFRAME
 70
     0
  9
$SPLINETYPE
 70
     6
  9
$SPLINESEGS
 70
     8
  9
$HANDSEED
  5
23E52
  9
$SURFTAB1
 70
     6
  9
$SURFTAB2
 70
     6
  9
$SURFTYPE
 70
     6
  9
$SURFU
 70
     6
  9
$SURFV
 70
     6
  9
$UCSBASE
  2

  9
$UCSNAME
  2

  9
$UCSORG
 10
0.0
 20
0.0
 30
0.0
  9
$UCSXDIR
 10
1.0
 20
0.0
 30
0.0
  9
$UCSYDIR
 10
0.0
 20
1.0
 30
0.0
  9
$UCSORTHOREF
  2

  9
$UCSORTHOVIEW
 70
     0
  9
$UCSORGTOP
 10
0.0
 20
0.0
 30
0.0
  9
$UCSORGBOTTOM
 10
0.0
 20
0.0
 30
0.0
  9
$UCSORGLEFT
 10
0.0
 20
0.0
 30
0.0
  9
$UCSORGRIGHT
 10
0.0
 20
0.0
 30
0.0
  9
$UCSORGFRONT
 10
0.0
 20
0.0
 30
0.0
  9
$UCSORGBACK
 10
0.0
 20
0.0
 30
0.0
  9
$PUCSBASE
  2

  9
$PUCSNAME
  2

  9
$PUCSORG
 10
0.0
 20
0.0
 30
0.0
  9
$PUCSXDIR
 10
1.0
 20
0.0
 30
0.0
  9
$PUCSYDIR
 10
0.0
 20
1.0
 30
0.0
  9
$PUCSORTHOREF
  2

  9
$PUCSORTHOVIEW
 70
     0
  9
$PUCSORGTOP
 10
0.0
 20
0.0
 30
0.0
  9
$PUCSORGBOTTOM
 10
0.0
 20
0.0
 30
0.0
  9
$PUCSORGLEFT
 10
0.0
 20
0.0
 30
0.0
  9
$PUCSORGRIGHT
 10
0.0
 20
0.0
 30
0.0
  9
$PUCSORGFRONT
 10
0.0
 20
0.0
 30
0.0
  9
$PUCSORGBACK
 10
0.0
 20
0.0
 30
0.0
  9
$USERI1
 70
     0
  9
$USERI2
 70
     0
  9
$USERI3
 70
     0
  9
$USERI4
 70
     0
  9
$USERI5
 70
     0
  9
$USERR1
 40
0.0
  9
$USERR2
 40
0.0
  9
$USERR3
 40
0.0
  9
$USERR4
 40
0.0
  9
$USERR5
 40
0.0
  9
$WORLDVIEW
 70
     1
  9
$SHADEDGE
 70
     3
  9
$SHADEDIF
 70
    70
  9
$TILEMODE
 70
     1
  9
$MAXACTVP
 70
    16
  9
$PINSBASE
 10
0.0
 20
0.0
 30
0.0
  9
$PLIMCHECK
 70
     0
  9
$PEXTMIN
 10
1.000000000000000E+20
 20
1.000000000000000E+20
 30
1.000000000000000E+20
  9
$PEXTMAX
 10
-1.000000000000000E+20
 20
-1.000000000000000E+20
 30
-1.000000000000000E+20
  9
$PLIMMIN
 10
0.0
 20
0.0
  9
$PLIMMAX
 10
420.0
 20
297.0
  9
$UNITMODE
 70
     0
  9
$VISRETAIN
 70
     0
  9
$PLINEGEN
 70
     0
  9
$PSLTSCALE
 70
     0
  9
$TREEDEPTH
 70
  3020
  9
$CMLSTYLE
  2
STANDARD
  9
$CMLJUST
 70
     0
  9
$CMLSCALE
 40
1.0
  9
$PROXYGRAPHICS
 70
     1
  9
$MEASUREMENT
 70
     1
  9
$CELWEIGHT
370
    -1
  9
$ENDCAPS
280
     0
  9
$JOINSTYLE
280
     0
  9
$LWDISPLAY
290
     0
  9
$INSUNITS
 70
     0
  9
$HYPERLINKBASE
  1

  9
$STYLESHEET
  1
inaba.ctb
  9
$XEDIT
290
     1
  9
$CEPSNTYPE
380
     0
  9
$PSTYLEMODE
290
     1
  9
$FINGERPRINTGUID
  2
{5A87F933-F3E7-4E5A-B693-1B108A8B4DAE}
  9
$VERSIONGUID
  2
{7ABCBBE4-B303-447E-AB64-544FB3CB4F95}
  9
$EXTNAMES
290
     1
  9
$PSVPSCALE
 40
0.0
  9
$OLESTARTUP
290
     0
  0
ENDSEC
  0
SECTION
  2
CLASSES
  0
CLASS
  1
DICTIONARYVAR
  2
AcDbDictionaryVar
  3
ObjectDBX Classes
 90
        0
280
     0
281
     0
  0
CLASS
  1
ACDBDICTIONARYWDFLT
  2
AcDbDictionaryWithDefault
  3
ObjectDBX Classes
 90
        0
280
     0
281
     0
  0
CLASS
  1
ACDBPLACEHOLDER
  2
AcDbPlaceHolder
  3
ObjectDBX Classes
 90
        0
280
     0
281
     0
  0
CLASS
  1
LAYOUT
  2
AcDbLayout
  3
ObjectDBX Classes
 90
        0
280
     0
281
     0
  0
ENDSEC
  0
SECTION
  2
TABLES
  0
TABLE
  2
VPORT
  5
746D
330
0
100
AcDbSymbolTable
 70
     2
  0
VPORT
  5
23E4A
330
746D
100
AcDbSymbolTableRecord
100
AcDbViewportTableRecord
  2
*Active
 70
     0
 10
0.0
 20
0.0
 11
1.0
 21
1.0
 12
11009.07850770919
 22
7130.995590026313
 13
0.0
 23
0.0
 14
500.0
 24
500.0
 15
500.0
 25
500.0
 16
0.0
 26
0.0
 36
1.0
 17
0.0
 27
0.0
 37
0.0
 40
14368.41831793669
 41
1.627450980392156
 42
50.0
 43
0.0
 44
0.0
 50
0.0
 51
0.0
 71
     0
 72
     0
 73
     1
 74
     0
 75
     0
 76
     0
 77
     0
 78
     0
281
     0
 65
     1
110
0.0
120
0.0
130
0.0
111
1.0
121
0.0
131
0.0
112
0.0
122
1.0
132
0.0
 79
     0
146
0.0
  0
ENDTAB
  0
TABLE
  2
LTYPE
  5
746A
330
0
100
AcDbSymbolTable
 70
     4
  0
LTYPE
  5
7477
330
746A
100
AcDbSymbolTableRecord
100
AcDbLinetypeTableRecord
  2
BYBLOCK
 70
     0
  3

 72
    65
 73
     0
 40
0.0
  0
LTYPE
  5
7478
330
746A
100
AcDbSymbolTableRecord
100
AcDbLinetypeTableRecord
  2
BYLAYER
 70
     0
  3

 72
    65
 73
     0
 40
0.0
  0
LTYPE
  5
7479
330
746A
100
AcDbSymbolTableRecord
100
AcDbLinetypeTableRecord
  2
CONTINUOUS
 70
     0
  3
Solid line
 72
    65
 73
     0
 40
0.0
  0
LTYPE
  5
7816
330
746A
100
AcDbSymbolTableRecord
100
AcDbLinetypeTableRecord
  2
CENTER
 70
     0
  3
____ _ ____ _ ____ _ ____ _ ____ _ ____ _ ____ 
 72
    65
 73
     4
 40
2.0
 49
1.25
 74
     0
 49
-0.25
 74
     0
 49
0.25
 74
     0
 49
-0.25
 74
     0
  0
LTYPE
  5
781A
330
746A
100
AcDbSymbolTableRecord
100
AcDbLinetypeTableRecord
  2
HIDDEN
 70
     0
  3
__ __ __ __ __ __ __ __ __ __ __ __ __ __ __ __
 72
    65
 73
     2
 40
0.375
 49
0.25
 74
     0
 49
-0.125
 74
     0
  0
LTYPE
  5
781B
330
746A
100
AcDbSymbolTableRecord
100
AcDbLinetypeTableRecord
  2
PHANTOM
 70
     0
  3
______  __  __  ______  __  __  ______  __  __ 
 72
    65
 73
     6
 40
2.5
 49
1.25
 74
     0
 49
-0.25
 74
     0
 49
0.25
 74
     0
 49
-0.25
 74
     0
 49
0.25
 74
     0
 49
-0.25
 74
     0
  0
ENDTAB
  0
TABLE
  2
LAYER
  5
7467
102
{ACAD_XDICTIONARY
360
23CEC
102
}
330
0
100
AcDbSymbolTable
 70
    11
  0
LAYER
  5
7474
330
7467
100
AcDbSymbolTableRecord
100
AcDbLayerTableRecord
  2
0
 70
     0
 62
     7
  6
CONTINUOUS
370
    -3
390
1C065
  0
LAYER
  5
DEB2
330
7467
100
AcDbSymbolTableRecord
100
AcDbLayerTableRecord
  2
センター
 70
     0
 62
     3
  6
CENTER
370
    -3
390
1C065
  0
LAYER
  5
DEB3
330
7467
100
AcDbSymbolTableRecord
100
AcDbLayerTableRecord
  2
寸法
 70
     0
 62
     4
  6
CONTINUOUS
370
    -3
390
1C065
  0
LAYER
  5
DEB4
330
7467
100
AcDbSymbolTableRecord
100
AcDbLayerTableRecord
  2
部品1
 70
     0
 62
     7
  6
CONTINUOUS
370
    -3
390
1C065
  0
LAYER
  5
DEB5
330
7467
100
AcDbSymbolTableRecord
100
AcDbLayerTableRecord
  2
補助
 70
     0
 62
    -1
  6
CONTINUOUS
370
    -3
390
1C065
  0
LAYER
  5
DEB6
330
7467
100
AcDbSymbolTableRecord
100
AcDbLayerTableRecord
  2
文字
 70
     0
 62
     7
  6
CONTINUOUS
370
    -3
390
1C065
  0
LAYER
  5
F255
330
7467
100
AcDbSymbolTableRecord
100
AcDbLayerTableRecord
  2
DEFPOINTS
 70
     0
 62
     7
  6
CONTINUOUS
290
     0
370
    -3
390
1C065
  0
LAYER
  5
10B54
330
7467
100
AcDbSymbolTableRecord
100
AcDbLayerTableRecord
  2
仕様書枠
 70
     0
 62
   230
  6
CONTINUOUS
370
    -3
390
1C065
  0
LAYER
  5
1173F
330
7467
100
AcDbSymbolTableRecord
100
AcDbLayerTableRecord
  2
細線
 70
     0
 62
     5
  6
CONTINUOUS
370
    -3
390
1C065
  0
LAYER
  5
1180C
330
7467
100
AcDbSymbolTableRecord
100
AcDbLayerTableRecord
  2
想像線
 70
     0
 62
     6
  6
PHANTOM
370
    -3
390
1C065
  0
LAYER
  5
1D520
330
7467
100
AcDbSymbolTableRecord
100
AcDbLayerTableRecord
  2
点線
 70
     0
 62
     2
  6
HIDDEN
370
    -3
390
1C065
  0
ENDTAB
  0
TABLE
  2
STYLE
  5
7468
330
0
100
AcDbSymbolTable
 70
     4
  0
STYLE
  5
7475
330
7468
100
AcDbSymbolTableRecord
100
AcDbTextStyleTableRecord
  2
STANDARD
 70
     0
 40
0.0
 41
1.0
 50
0.0
 71
     0
 42
4.0
  3
txt
  4
C:\AutoCAD LT\bigfont.shx
  0
STYLE
  5
763C
330
7468
100
AcDbSymbolTableRecord
100
AcDbTextStyleTableRecord
  2
MSMINCHO
 70
     0
 40
0.0
 41
1.0
 50
0.0
 71
     0
 42
1.199999999999999
  3
C:\AutoCAD LT\msminch2.TTF
  4

  0
STYLE
  5
F706
330
7468
100
AcDbSymbolTableRecord
100
AcDbTextStyleTableRecord
  2
STYLE1
 70
     0
 40
0.0
 41
1.0
 50
0.0
 71
     0
 42
150.0
  3
isocp.shx
  4
bigfont.shx
  0
STYLE
  5
103BF
330
7468
100
AcDbSymbolTableRecord
100
AcDbTextStyleTableRecord
  2
STYLE2
 70
     0
 40
0.0
 41
1.0
 50
0.0
 71
     0
 42
100.0
  3
MS PGothic.ttf
  4

1001
ACAD
1000
MS PGothic
1071
    32818
  0
ENDTAB
  0
TABLE
  2
VIEW
  5
746B
330
0
100
AcDbSymbolTable
 70
     0
  0
ENDTAB
  0
TABLE
  2
UCS
  5
746C
330
0
100
AcDbSymbolTable
 70
     0
  0
ENDTAB
  0
TABLE
  2
APPID
  5
746E
330
0
100
AcDbSymbolTable
 70
     6
  0
APPID
  5
7476
330
746E
100
AcDbSymbolTableRecord
100
AcDbRegAppTableRecord
  2
ACAD
 70
     0
  0
APPID
  5
DEA9
330
746E
100
AcDbSymbolTableRecord
100
AcDbRegAppTableRecord
  2
CONTENTBLOCKICON
 70
     0
  0
APPID
  5
DEAA
330
746E
100
AcDbSymbolTableRecord
100
AcDbRegAppTableRecord
  2
CONTENTBLOCKDESCRIPTION
 70
     0
  0
APPID
  5
E71D
330
746E
100
AcDbSymbolTableRecord
100
AcDbRegAppTableRecord
  2
CONTENTTABDATA
 70
     0
  0
APPID
  5
E71E
330
746E
100
AcDbSymbolTableRecord
100
AcDbRegAppTableRecord
  2
CONTENTCURRENTTAB
 70
     0
  0
APPID
  5
F3BA
330
746E
100
AcDbSymbolTableRecord
100
AcDbRegAppTableRecord
  2
DRAWINGVARIABLESXDATA
 70
     0
  0
ENDTAB
  0
TABLE
  2
DIMSTYLE
  5
746F
330
0
100
AcDbSymbolTable
 70
     3
100
AcDbDimStyleTable
 71
     2
340
F71F
340
20F41
  0
DIMSTYLE
105
F71F
102
{ACAD_REACTORS
330
1D651
330
1D658
330
1D659
330
1D665
330
1D668
330
1D669
330
1D66C
330
1D66D
330
1D67F
330
1D6E3
330
1D6E5
330
1D742
330
1D743
330
1D746
330
1D747
330
1D74B
330
1D74F
330
1D755
330
1E143
330
1E529
330
1EE47
330
1EE46
330
1EE45
330
21F30
330
21F3D
330
21F4A
330
21F57
330
1EE4B
330
22068
330
22069
330
2206A
330
2206B
330
22AF6
330
22B1A
102
}
330
746F
100
AcDbSymbolTableRecord
100
AcDbDimStyleTableRecord
  2
INABA_S50G
 70
     0
 40
0.0
 41
125.0
 42
25.0
 43
7.0
 44
75.0
 73
     0
 74
     0
 77
     3
 78
     8
140
150.0
141
0.0
143
0.0394
147
25.0
172
     1
173
     1
174
     1
178
     7
271
     1
340
F706
341
F770
343
F770
344
F770
  0
DIMSTYLE
105
20F40
330
746F
100
AcDbSymbolTableRecord
100
AcDbDimStyleTableRecord
  2
INABA_S50G詳細用
 70
     0
 40
0.0
 41
125.0
 42
25.0
 43
7.0
 44
35.0
 73
     0
 74
     0
 77
     3
 78
     8
140
150.0
141
0.0
143
0.0394
144
0.5
147
25.0
172
     1
173
     1
178
     7
271
     1
272
     1
340
F706
341
11750
343
F770
344
F770
  0
DIMSTYLE
105
20F41
102
{ACAD_REACTORS
330
2135D
330
21369
330
2136E
330
214A8
330
214B6
330
214B9
330
214C3
330
21588
330
2149E
330
22E38
330
22E45
330
22E96
330
22EB0
330
230D8
330
230FA
330
23515
330
2150F
330
21510
102
}
330
746F
100
AcDbSymbolTableRecord
100
AcDbDimStyleTableRecord
  2
INABA_S50G詳細S20用
 70
     0
 40
0.0
 41
125.0
 42
25.0
 43
7.0
 44
35.0
 73
     0
 74
     0
 77
     3
 78
     8
140
150.0
141
0.0
143
0.0394
144
0.4
147
25.0
172
     1
173
     1
178
     7
271
     1
272
     1
340
F706
341
11750
343
F770
344
F770
  0
ENDTAB
  0
TABLE
  2
BLOCK_RECORD
  5
7466
330
0
100
AcDbSymbolTable
 70
    55
  0
BLOCK_RECORD
  5
747D
330
7466
100
AcDbSymbolTableRecord
100
AcDbBlockTableRecord
  2
*MODEL_SPACE
340
1C06A
  0
BLOCK_RECORD
  5
747A
330
7466
100
AcDbSymbolTableRecord
100
AcDbBlockTableRecord
  2
*PAPER_SPACE
340
1C06B
  0
BLOCK_RECORD
  5
ECB3
330
7466
100
AcDbSymbolTableRecord
100
AcDbBlockTableRecord
  2
作図枠S50
340
0
310
2800000020000000200000000100040000000000000200000000000000000000000000000000000000000000000080000080000000808000800000008000800080800000C0C0C000808080000000FF0000FF000000FFFF00FF000000FF00FF00FFFF0000FFFFFF00FFFFFFFFFFFFFFFFFFFFFFFFFFFFFFFFFFFFFFFFFFFFFF
310
FFFFFFFFFFFFFFFFFFFFFFFFFFFFFFFFFFFFFFFFFFFFFFFFFFFFFFFFFFFFFFFFFFFFFFFFFFFFFFFFFFFFFFFFFFFFFFFFFFFFFFFFFFFFFFFFFFFFFFFFFFFFFFFFFFFFFFFFFFFFFFFFFF999999999999999999999999999999999FFFFFFFFFFFFFFFFFFFFFFFFFFFFFF99FFFFFFFFFFFFFFFFFFFFFFFFFFFFFF99FFFFFFFFFFF
310
FFFFFFFFFFFFFFFFFFF99FFFFFFFFFFFFFFFFFFFFFFFFFFFFFF99FFFFFFFFFFFFFFFFFFFFFFFFFFFFFF99FFFFFFFFFFFFFFFFFFFFFFFFFFFFFF99FFFFFFFFFFFFFFFFFFFFFFFFFFFFFF99FFFFFFFFFFFFFFFFFFFFFFFFFFFFFF99FFFFFFFFFFFFFFFFFFFFFFFFFFFFFF99FFFFFFFFFFFFFFFFFFFFFFFFFFFFFF99FFFFFFFFF
310
FFFFFFFFFFFFFFFFFFFFF99FFFFFFFFFFFFFFFFFFFFFFFFFFFFFF99FFFFFFFFFFFFFFFFFFFFFFFFFFFFFF99FFFFFFFFFFFFFFFFFFFFFFFFFFFFFF99FFFFFFFFFFFFFFFFFFFFFFFFFFFFFF99FFFFFFFFFFFFFFFFFFFFFFFFFFFFFF99FFFFFFFFFFFFFFFFFFFFFFFFFFFFFF99FFFFFFFFFFFFFFFFFFFFF99999999999FFFFFFF
310
FFFFFFFFFFFFFF9FFFFFFFFF99999999999999999999999FFFFFFFFFFFFFFFFFFFFFFFFFFFFFFFFFFFFFFFFFFFFFFFFFFFFFFFFFFFFFFFFFFFFFFFFFFFFFFFFFFFFFFFFFFFFFFFFFFFFFFFFFFFFFFFFFFFFFFFFFFFFFFFFFFFFFFFFFFFFFFFFFFFFFFFFFFFFFFFFFFFFFFFFF
102
{BLKREFS
331
F235
102
}
  0
BLOCK_RECORD
  5
F770
330
7466
100
AcDbSymbolTableRecord
100
AcDbBlockTableRecord
  2
_DOTSMALL
340
0
102
{BLKREFS
331
2383B
331
2383C
331
23844
331
23845
331
2384D
331
2384E
331
23856
331
23857
331
2385F
331
23860
331
23869
331
2386A
331
23873
331
23874
331
2387B
331
2387C
331
23885
331
23886
331
2388D
331
2388E
331
23896
331
23897
331
238A0
331
238A1
331
238AB
331
238AC
331
238B6
331
238B7
331
238BF
331
238C0
331
238C9
331
238CA
331
238D2
331
238D3
331
238DB
331
238DC
331
23CF8
331
23CF9
331
23D01
331
23D02
331
23D0A
331
23D0B
331
23D13
331
23D14
331
23D1C
331
23D1D
331
23D26
331
23D27
331
23D31
331
23D32
331
23D3A
331
23D3B
331
23D44
331
23D45
331
23D4D
331
23D4E
331
23D57
331
23D58
331
23D5F
331
23D60
331
23D6A
331
23D6B
331
23D74
331
23D75
331
23D7E
331
23D7F
331
23D86
331
23D87
331
23D8F
331
23D90
331
23D98
331
23D99
331
23DA3
331
23DA4
331
23DAD
331
23DAE
331
23DB7
331
23DB8
331
23DC1
331
23DC2
331
23DCB
331
23DCC
331
23DD4
331
23DD5
331
23DDE
331
23DDF
331
23DE8
331
23DE9
331
23DF3
331
23DF4
331
23DFD
331
23DFE
331
23E07
331
23E08
331
23E10
331
23E11
331
23E1A
331
23E1B
331
23E23
331
23E24
331
23E2E
331
23E2F
331
23E38
331
23E39
102
}
  0
BLOCK_RECORD
  5
11750
330
7466
100
AcDbSymbolTableRecord
100
AcDbBlockTableRecord
  2
_NONE
340
0
  0
BLOCK_RECORD
  5
1D787
330
7466
100
AcDbSymbolTableRecord
100
AcDbBlockTableRecord
  2
*D3
340
0
  0
BLOCK_RECORD
  5
1D793
330
7466
100
AcDbSymbolTableRecord
100
AcDbBlockTableRecord
  2
*D4
340
0
  0
BLOCK_RECORD
  5
1D7A0
330
7466
100
AcDbSymbolTableRecord
100
AcDbBlockTableRecord
  2
*D5
340
0
  0
BLOCK_RECORD
  5
1D7AC
330
7466
100
AcDbSymbolTableRecord
100
AcDbBlockTableRecord
  2
*D6
340
0
  0
BLOCK_RECORD
  5
1D7B8
330
7466
100
AcDbSymbolTableRecord
100
AcDbBlockTableRecord
  2
*D7
340
0
  0
BLOCK_RECORD
  5
1D7C4
330
7466
100
AcDbSymbolTableRecord
100
AcDbBlockTableRecord
  2
*D8
340
0
  0
BLOCK_RECORD
  5
1D7D0
330
7466
100
AcDbSymbolTableRecord
100
AcDbBlockTableRecord
  2
*D9
340
0
  0
BLOCK_RECORD
  5
1D7DE
330
7466
100
AcDbSymbolTableRecord
100
AcDbBlockTableRecord
  2
*D10
340
0
  0
BLOCK_RECORD
  5
1D7EC
330
7466
100
AcDbSymbolTableRecord
100
AcDbBlockTableRecord
  2
*D11
340
0
  0
BLOCK_RECORD
  5
1D808
330
7466
100
AcDbSymbolTableRecord
100
AcDbBlockTableRecord
  2
*D12
340
0
  0
BLOCK_RECORD
  5
1D821
330
7466
100
AcDbSymbolTableRecord
100
AcDbBlockTableRecord
  2
*D13
340
0
  0
BLOCK_RECORD
  5
1D890
330
7466
100
AcDbSymbolTableRecord
100
AcDbBlockTableRecord
  2
*D14
340
0
  0
BLOCK_RECORD
  5
1D89D
330
7466
100
AcDbSymbolTableRecord
100
AcDbBlockTableRecord
  2
*D15
340
0
  0
BLOCK_RECORD
  5
1D8A9
330
7466
100
AcDbSymbolTableRecord
100
AcDbBlockTableRecord
  2
*D16
340
0
  0
BLOCK_RECORD
  5
1D8B7
330
7466
100
AcDbSymbolTableRecord
100
AcDbBlockTableRecord
  2
*D17
340
0
  0
BLOCK_RECORD
  5
1D8C5
330
7466
100
AcDbSymbolTableRecord
100
AcDbBlockTableRecord
  2
*D18
340
0
  0
BLOCK_RECORD
  5
1D8D1
330
7466
100
AcDbSymbolTableRecord
100
AcDbBlockTableRecord
  2
*D19
340
0
  0
BLOCK_RECORD
  5
1D8DE
330
7466
100
AcDbSymbolTableRecord
100
AcDbBlockTableRecord
  2
*D20
340
0
  0
BLOCK_RECORD
  5
1E144
330
7466
100
AcDbSymbolTableRecord
100
AcDbBlockTableRecord
  2
*D21
340
0
  0
BLOCK_RECORD
  5
1E52A
330
7466
100
AcDbSymbolTableRecord
100
AcDbBlockTableRecord
  2
*D22
340
0
  0
BLOCK_RECORD
  5
1EE69
330
7466
100
AcDbSymbolTableRecord
100
AcDbBlockTableRecord
  2
*D23
340
0
  0
BLOCK_RECORD
  5
1EE74
330
7466
100
AcDbSymbolTableRecord
100
AcDbBlockTableRecord
  2
*D24
340
0
  0
BLOCK_RECORD
  5
1EE7F
330
7466
100
AcDbSymbolTableRecord
100
AcDbBlockTableRecord
  2
*D25
340
0
  0
BLOCK_RECORD
  5
1EEAB
330
7466
100
AcDbSymbolTableRecord
100
AcDbBlockTableRecord
  2
*D26
340
0
  0
BLOCK_RECORD
  5
21783
330
7466
100
AcDbSymbolTableRecord
100
AcDbBlockTableRecord
  2
*D27
340
0
  0
BLOCK_RECORD
  5
217AA
330
7466
100
AcDbSymbolTableRecord
100
AcDbBlockTableRecord
  2
*D28
340
0
  0
BLOCK_RECORD
  5
217B6
330
7466
100
AcDbSymbolTableRecord
100
AcDbBlockTableRecord
  2
*D29
340
0
  0
BLOCK_RECORD
  5
217D0
330
7466
100
AcDbSymbolTableRecord
100
AcDbBlockTableRecord
  2
*D30
340
0
  0
BLOCK_RECORD
  5
217DC
330
7466
100
AcDbSymbolTableRecord
100
AcDbBlockTableRecord
  2
*D31
340
0
  0
BLOCK_RECORD
  5
217F5
330
7466
100
AcDbSymbolTableRecord
100
AcDbBlockTableRecord
  2
*D32
340
0
  0
BLOCK_RECORD
  5
21801
330
7466
100
AcDbSymbolTableRecord
100
AcDbBlockTableRecord
  2
*D33
340
0
  0
BLOCK_RECORD
  5
2180D
330
7466
100
AcDbSymbolTableRecord
100
AcDbBlockTableRecord
  2
*D34
340
0
  0
BLOCK_RECORD
  5
21819
330
7466
100
AcDbSymbolTableRecord
100
AcDbBlockTableRecord
  2
*D35
340
0
  0
BLOCK_RECORD
  5
21825
330
7466
100
AcDbSymbolTableRecord
100
AcDbBlockTableRecord
  2
*D36
340
0
  0
BLOCK_RECORD
  5
21832
330
7466
100
AcDbSymbolTableRecord
100
AcDbBlockTableRecord
  2
*D37
340
0
  0
BLOCK_RECORD
  5
21F31
330
7466
100
AcDbSymbolTableRecord
100
AcDbBlockTableRecord
  2
*D38
340
0
  0
BLOCK_RECORD
  5
21F3E
330
7466
100
AcDbSymbolTableRecord
100
AcDbBlockTableRecord
  2
*D39
340
0
  0
BLOCK_RECORD
  5
21F4B
330
7466
100
AcDbSymbolTableRecord
100
AcDbBlockTableRecord
  2
*D40
340
0
  0
BLOCK_RECORD
  5
21F58
330
7466
100
AcDbSymbolTableRecord
100
AcDbBlockTableRecord
  2
*D41
340
0
  0
BLOCK_RECORD
  5
2206C
330
7466
100
AcDbSymbolTableRecord
100
AcDbBlockTableRecord
  2
*D42
340
0
  0
BLOCK_RECORD
  5
2207A
330
7466
100
AcDbSymbolTableRecord
100
AcDbBlockTableRecord
  2
*D43
340
0
  0
BLOCK_RECORD
  5
22088
330
7466
100
AcDbSymbolTableRecord
100
AcDbBlockTableRecord
  2
*D44
340
0
  0
BLOCK_RECORD
  5
22096
330
7466
100
AcDbSymbolTableRecord
100
AcDbBlockTableRecord
  2
*D45
340
0
  0
BLOCK_RECORD
  5
22AF7
330
7466
100
AcDbSymbolTableRecord
100
AcDbBlockTableRecord
  2
*D46
340
0
  0
BLOCK_RECORD
  5
22B1B
330
7466
100
AcDbSymbolTableRecord
100
AcDbBlockTableRecord
  2
*D47
340
0
  0
BLOCK_RECORD
  5
22E39
330
7466
100
AcDbSymbolTableRecord
100
AcDbBlockTableRecord
  2
*D48
340
0
  0
BLOCK_RECORD
  5
22E46
330
7466
100
AcDbSymbolTableRecord
100
AcDbBlockTableRecord
  2
*D49
340
0
  0
BLOCK_RECORD
  5
22E97
330
7466
100
AcDbSymbolTableRecord
100
AcDbBlockTableRecord
  2
*D50
340
0
  0
BLOCK_RECORD
  5
22EB1
330
7466
100
AcDbSymbolTableRecord
100
AcDbBlockTableRecord
  2
*D51
340
0
  0
BLOCK_RECORD
  5
230D9
330
7466
100
AcDbSymbolTableRecord
100
AcDbBlockTableRecord
  2
*D52
340
0
  0
BLOCK_RECORD
  5
230FB
330
7466
100
AcDbSymbolTableRecord
100
AcDbBlockTableRecord
  2
*D53
340
0
  0
BLOCK_RECORD
  5
23516
330
7466
100
AcDbSymbolTableRecord
100
AcDbBlockTableRecord
  2
*D54
340
0
  0
ENDTAB
  0
ENDSEC
  0
SECTION
  2
BLOCKS
  0
BLOCK
  5
7489
330
747D
100
AcDbEntity
  8
0
100
AcDbBlockBegin
  2
*MODEL_SPACE
 70
     0
 10
0.0
 20
0.0
 30
0.0
  3
*MODEL_SPACE
  1

  0
ENDBLK
  5
748A
330
747D
100
AcDbEntity
  8
0
100
AcDbBlockEnd
  0
BLOCK
  5
7487
330
747A
100
AcDbEntity
 67
     1
  8
0
100
AcDbBlockBegin
  2
*PAPER_SPACE
 70
     0
 10
0.0
 20
0.0
 30
0.0
  3
*PAPER_SPACE
  1

  0
ENDBLK
  5
7488
330
747A
100
AcDbEntity
 67
     1
  8
0
100
AcDbBlockEnd
  0
BLOCK
  5
ECB4
330
ECB3
100
AcDbEntity
  8
0
100
AcDbBlockBegin
  2
作図枠S50
 70
     0
 10
0.0
 20
0.0
 30
0.0
  3
作図枠S50
  1

  4
作図領域枠 縮尺 1/50
  0
LINE
  5
ECB5
330
ECB3
100
AcDbEntity
  8
補助
100
AcDbLine
 10
14364.0
 20
14262.0
 30
0.0
 11
174.9999999999993
 21
14262.0
 31
0.0
  0
LINE
  5
ECB6
330
ECB3
100
AcDbEntity
  8
補助
100
AcDbLine
 10
174.9999999999993
 20
14262.0
 30
0.0
 11
174.9999999999993
 21
1520.0
 31
0.0
  0
LINE
  5
ECB7
330
ECB3
100
AcDbEntity
  8
補助
100
AcDbLine
 10
174.9999999999993
 20
1520.0
 30
0.0
 11
20384.0
 21
1520.0
 31
0.0
  0
LINE
  5
ECB8
330
ECB3
100
AcDbEntity
  8
補助
100
AcDbLine
 10
20384.0
 20
1520.0
 30
0.0
 11
20384.0
 21
13042.0
 31
0.0
  0
LINE
  5
ECB9
330
ECB3
100
AcDbEntity
  8
補助
100
AcDbLine
 10
20384.0
 20
13042.0
 30
0.0
 11
14364.0
 21
13042.0
 31
0.0
  0
LINE
  5
ECBA
330
ECB3
100
AcDbEntity
  8
補助
100
AcDbLine
 10
14364.0
 20
13042.0
 30
0.0
 11
14364.0
 21
14262.0
 31
0.0
  0
ENDBLK
  5
ECBB
330
ECB3
100
AcDbEntity
  8
0
100
AcDbBlockEnd
  0
BLOCK
  5
F771
330
F770
100
AcDbEntity
  8
0
 48
50.0
100
AcDbBlockBegin
  2
_DOTSMALL
 70
     0
 10
0.0
 20
0.0
 30
0.0
  3
_DOTSMALL
  1

  0
LWPOLYLINE
  5
F772
330
F770
100
AcDbEntity
  8
0
  6
ByBlock
 62
     0
 48
50.0
100
AcDbPolyline
 90
        2
 70
     1
 43
0.5
 10
-0.0625
 20
0.0
 42
1.0
 10
0.0625
 20
0.0
 42
1.0
  0
ENDBLK
  5
F776
330
F770
100
AcDbEntity
  8
0
 48
50.0
100
AcDbBlockEnd
  0
BLOCK
  5
11752
330
11750
100
AcDbEntity
  8
0
 48
50.0
100
AcDbBlockBegin
  2
_NONE
 70
     0
 10
0.0
 20
0.0
 30
0.0
  3
_NONE
  1

  0
CIRCLE
  5
11751
330
11750
100
AcDbEntity
  8
0
  6
ByBlock
 62
     0
 48
50.0
100
AcDbCircle
 10
0.0
 20
0.0
 30
0.0
 40
0.25
  0
ENDBLK
  5
11753
330
11750
100
AcDbEntity
  8
0
 48
50.0
100
AcDbBlockEnd
  0
BLOCK
  5
1D791
330
1D787
100
AcDbEntity
  8
0
 48
50.0
100
AcDbBlockBegin
  2
*D3
 70
     1
 10
0.0
 20
0.0
 30
0.0
  3
*D3
  1

  0
LINE
  5
23D19
330
1D787
100
AcDbEntity
  8
寸法
 62
     0
 48
50.0
370
    -2
100
AcDbLine
 10
8749.500000000001
 20
10824.4395487321
 30
0.0
 11
8749.500000000001
 21
12093.18710326403
 31
0.0
  0
LINE
  5
23D1A
330
1D787
100
AcDbEntity
  8
寸法
 62
     0
 48
50.0
370
    -2
100
AcDbLine
 10
11809.5
 20
10824.4395487321
 30
0.0
 11
11809.5
 21
12093.18710326403
 31
0.0
  0
LINE
  5
23D1B
330
1D787
100
AcDbEntity
  8
寸法
 62
     0
 48
50.0
370
    -2
100
AcDbLine
 10
8749.500000000001
 20
12018.18710326403
 30
0.0
 11
11809.5
 21
12018.18710326403
 31
0.0
  0
INSERT
  5
23D1C
330
1D787
100
AcDbEntity
  8
寸法
 62
     0
 48
50.0
370
    -2
100
AcDbBlockReference
  2
_DOTSMALL
 10
8749.500000000001
 20
12018.18710326403
 30
0.0
 41
125.0
 42
125.0
 43
125.0
 50
180.0
  0
INSERT
  5
23D1D
330
1D787
100
AcDbEntity
  8
寸法
 62
     0
 48
50.0
370
    -2
100
AcDbBlockReference
  2
_DOTSMALL
 10
11809.5
 20
12018.18710326403
 30
0.0
 41
125.0
 42
125.0
 43
125.0
  0
MTEXT
  5
23D1E
330
1D787
100
AcDbEntity
  8
寸法
 62
     7
 48
50.0
100
AcDbMText
 10
10279.5
 20
12118.18710326403
 30
0.0
 40
150.0
 41
0.0
 71
     5
 72
     1
  1
\A1;3060
  7
STYLE1
 73
     1
 44
1.0
1001
ACAD
1000
MTEXTBEGIN
1070
    73
1070
     1
1070
    44
1040
1.0
1070
    74
1070
     0
1000
MTEXTEND
  0
POINT
  5
23D1F
330
1D787
100
AcDbEntity
  8
DEFPOINTS
 62
     0
 48
50.0
100
AcDbPoint
 10
8749.500000000001
 20
10799.43954873211
 30
0.0
  0
POINT
  5
23D20
330
1D787
100
AcDbEntity
  8
DEFPOINTS
 62
     0
 48
50.0
100
AcDbPoint
 10
11809.5
 20
10799.43954873211
 30
0.0
  0
POINT
  5
23D21
330
1D787
100
AcDbEntity
  8
DEFPOINTS
 62
     0
 48
50.0
100
AcDbPoint
 10
11809.5
 20
12018.18710326403
 30
0.0
  0
ENDBLK
  5
1D792
330
1D787
100
AcDbEntity
  8
0
 48
50.0
100
AcDbBlockEnd
  0
BLOCK
  5
1D79E
330
1D793
100
AcDbEntity
  8
0
 48
50.0
100
AcDbBlockBegin
  2
*D4
 70
     1
 10
0.0
 20
0.0
 30
0.0
  3
*D4
  1

  0
LINE
  5
23DA9
330
1D793
100
AcDbEntity
  8
寸法
 62
     0
 48
50.0
370
    -2
100
AcDbLine
 10
8824.50000000019
 20
10824.4395487321
 30
0.0
 11
8824.50000000019
 21
11793.02090352267
 31
0.0
  0
LINE
  5
23DAA
330
1D793
100
AcDbEntity
  8
寸法
 62
     0
 48
50.0
370
    -2
100
AcDbLine
 10
8749.500000000001
 20
10824.4395487321
 30
0.0
 11
8749.500000000001
 21
11793.02090352267
 31
0.0
  0
LINE
  5
23DAB
330
1D793
100
AcDbEntity
  8
寸法
 62
     0
 48
50.0
370
    -2
100
AcDbLine
 10
8824.50000000019
 20
11718.02090352267
 30
0.0
 11
8749.500000000001
 21
11718.02090352267
 31
0.0
  0
LINE
  5
23DAC
330
1D793
100
AcDbEntity
  8
寸法
 62
     0
 48
50.0
370
    -2
100
AcDbLine
 10
8749.500000000001
 20
11718.02090352267
 30
0.0
 11
8398.893398282202
 21
11718.02090352267
 31
0.0
  0
INSERT
  5
23DAD
330
1D793
100
AcDbEntity
  8
寸法
 62
     0
 48
50.0
370
    -2
100
AcDbBlockReference
  2
_DOTSMALL
 10
8824.50000000019
 20
11718.02090352267
 30
0.0
 41
125.0
 42
125.0
 43
125.0
  0
INSERT
  5
23DAE
330
1D793
100
AcDbEntity
  8
寸法
 62
     0
 48
50.0
370
    -2
100
AcDbBlockReference
  2
_DOTSMALL
 10
8749.500000000001
 20
11718.02090352267
 30
0.0
 41
125.0
 42
125.0
 43
125.0
 50
180.0
  0
MTEXT
  5
23DAF
330
1D793
100
AcDbEntity
  8
寸法
 62
     7
 48
50.0
100
AcDbMText
 10
8509.5
 20
11818.02090352267
 30
0.0
 40
150.0
 41
0.0
 71
     5
 72
     1
  1
\A1;75
  7
STYLE1
 73
     1
 44
1.0
1001
ACAD
1000
MTEXTBEGIN
1070
    73
1070
     1
1070
    44
1040
1.0
1070
    74
1070
     0
1000
MTEXTEND
  0
POINT
  5
23DB0
330
1D793
100
AcDbEntity
  8
DEFPOINTS
 62
     0
 48
50.0
100
AcDbPoint
 10
8824.50000000019
 20
10799.43954873211
 30
0.0
  0
POINT
  5
23DB1
330
1D793
100
AcDbEntity
  8
DEFPOINTS
 62
     0
 48
50.0
100
AcDbPoint
 10
8749.500000000001
 20
10799.43954873211
 30
0.0
  0
POINT
  5
23DB2
330
1D793
100
AcDbEntity
  8
DEFPOINTS
 62
     0
 48
50.0
100
AcDbPoint
 10
8749.500000000001
 20
11718.02090352267
 30
0.0
  0
ENDBLK
  5
1D79F
330
1D793
100
AcDbEntity
  8
0
 48
50.0
100
AcDbBlockEnd
  0
BLOCK
  5
1D7AA
330
1D7A0
100
AcDbEntity
  8
0
 48
50.0
100
AcDbBlockBegin
  2
*D5
 70
     1
 10
0.0
 20
0.0
 30
0.0
  3
*D5
  1

  0
LINE
  5
23D10
330
1D7A0
100
AcDbEntity
  8
寸法
 62
     0
 48
50.0
370
    -2
100
AcDbLine
 10
11734.50000000019
 20
10816.32147982566
 30
0.0
 11
11734.50000000019
 21
11793.02090352267
 31
0.0
  0
LINE
  5
23D11
330
1D7A0
100
AcDbEntity
  8
寸法
 62
     0
 48
50.0
370
    -2
100
AcDbLine
 10
8824.50000000019
 20
10824.4395487321
 30
0.0
 11
8824.50000000019
 21
11793.02090352267
 31
0.0
  0
LINE
  5
23D12
330
1D7A0
100
AcDbEntity
  8
寸法
 62
     0
 48
50.0
370
    -2
100
AcDbLine
 10
11734.50000000019
 20
11718.02090352267
 30
0.0
 11
8824.50000000019
 21
11718.02090352267
 31
0.0
  0
INSERT
  5
23D13
330
1D7A0
100
AcDbEntity
  8
寸法
 62
     0
 48
50.0
370
    -2
100
AcDbBlockReference
  2
_DOTSMALL
 10
11734.50000000019
 20
11718.02090352267
 30
0.0
 41
125.0
 42
125.0
 43
125.0
  0
INSERT
  5
23D14
330
1D7A0
100
AcDbEntity
  8
寸法
 62
     0
 48
50.0
370
    -2
100
AcDbBlockReference
  2
_DOTSMALL
 10
8824.50000000019
 20
11718.02090352267
 30
0.0
 41
125.0
 42
125.0
 43
125.0
 50
180.0
  0
MTEXT
  5
23D15
330
1D7A0
100
AcDbEntity
  8
寸法
 62
     7
 48
50.0
100
AcDbMText
 10
10279.50000000019
 20
11818.0356673022
 30
0.0
 40
150.0
 41
0.0
 71
     5
 72
     1
  1
\A1;2910
  7
STYLE1
 73
     1
 44
1.0
1001
ACAD
1000
MTEXTBEGIN
1070
    73
1070
     1
1070
    44
1040
1.0
1070
    74
1070
     0
1000
MTEXTEND
  0
POINT
  5
23D16
330
1D7A0
100
AcDbEntity
  8
DEFPOINTS
 62
     0
 48
50.0
100
AcDbPoint
 10
11734.50000000019
 20
10791.32147982565
 30
0.0
  0
POINT
  5
23D17
330
1D7A0
100
AcDbEntity
  8
DEFPOINTS
 62
     0
 48
50.0
100
AcDbPoint
 10
8824.50000000019
 20
10799.43954873211
 30
0.0
  0
POINT
  5
23D18
330
1D7A0
100
AcDbEntity
  8
DEFPOINTS
 62
     0
 48
50.0
100
AcDbPoint
 10
8824.50000000019
 20
11718.02090352267
 30
0.0
  0
ENDBLK
  5
1D7AB
330
1D7A0
100
AcDbEntity
  8
0
 48
50.0
100
AcDbBlockEnd
  0
BLOCK
  5
1D7B6
330
1D7AC
100
AcDbEntity
  8
0
 48
50.0
100
AcDbBlockBegin
  2
*D6
 70
     1
 10
0.0
 20
0.0
 30
0.0
  3
*D6
  1

  0
LINE
  5
23D07
330
1D7AC
100
AcDbEntity
  8
寸法
 62
     0
 48
50.0
370
    -2
100
AcDbLine
 10
11748.5
 20
6825.88997162871
 30
0.0
 11
11748.5
 21
5718.844103684563
 31
0.0
  0
LINE
  5
23D08
330
1D7AC
100
AcDbEntity
  8
寸法
 62
     0
 48
50.0
370
    -2
100
AcDbLine
 10
8810.500000000001
 20
7294.439548732107
 30
0.0
 11
8810.500000000001
 21
5718.844103684563
 31
0.0
  0
LINE
  5
23D09
330
1D7AC
100
AcDbEntity
  8
寸法
 62
     0
 48
50.0
370
    -2
100
AcDbLine
 10
11748.5
 20
5793.844103684563
 30
0.0
 11
8810.500000000001
 21
5793.844103684563
 31
0.0
  0
INSERT
  5
23D0A
330
1D7AC
100
AcDbEntity
  8
寸法
 62
     0
 48
50.0
370
    -2
100
AcDbBlockReference
  2
_DOTSMALL
 10
11748.5
 20
5793.844103684563
 30
0.0
 41
125.0
 42
125.0
 43
125.0
  0
INSERT
  5
23D0B
330
1D7AC
100
AcDbEntity
  8
寸法
 62
     0
 48
50.0
370
    -2
100
AcDbBlockReference
  2
_DOTSMALL
 10
8810.500000000001
 20
5793.844103684563
 30
0.0
 41
125.0
 42
125.0
 43
125.0
 50
180.0
  0
MTEXT
  5
23D0C
330
1D7AC
100
AcDbEntity
  8
寸法
 62
     7
 48
50.0
100
AcDbMText
 10
10279.5
 20
5893.85886746409
 30
0.0
 40
150.0
 41
0.0
 71
     5
 72
     1
  1
\A1;2938
  7
STYLE1
 73
     1
 44
1.0
1001
ACAD
1000
MTEXTBEGIN
1070
    73
1070
     1
1070
    44
1040
1.0
1070
    74
1070
     0
1000
MTEXTEND
  0
POINT
  5
23D0D
330
1D7AC
100
AcDbEntity
  8
DEFPOINTS
 62
     0
 48
50.0
100
AcDbPoint
 10
11748.5
 20
6850.88997162871
 30
0.0
  0
POINT
  5
23D0E
330
1D7AC
100
AcDbEntity
  8
DEFPOINTS
 62
     0
 48
50.0
100
AcDbPoint
 10
8810.500000000001
 20
7319.439548732107
 30
0.0
  0
POINT
  5
23D0F
330
1D7AC
100
AcDbEntity
  8
DEFPOINTS
 62
     0
 48
50.0
100
AcDbPoint
 10
8810.500000000001
 20
5793.844103684563
 30
0.0
  0
ENDBLK
  5
1D7B7
330
1D7AC
100
AcDbEntity
  8
0
 48
50.0
100
AcDbBlockEnd
  0
BLOCK
  5
1D7C2
330
1D7B8
100
AcDbEntity
  8
0
 48
50.0
100
AcDbBlockBegin
  2
*D7
 70
     1
 10
0.0
 20
0.0
 30
0.0
  3
*D7
  1

  0
LINE
  5
23D5C
330
1D7B8
100
AcDbEntity
  8
寸法
 62
     0
 48
50.0
370
    -2
100
AcDbLine
 10
8724.5
 20
7380.439548732107
 30
0.0
 11
7857.193633210163
 21
7380.439548732107
 31
0.0
  0
LINE
  5
23D5D
330
1D7B8
100
AcDbEntity
  8
寸法
 62
     0
 48
50.0
370
    -2
100
AcDbLine
 10
8749.500000000191
 20
10749.4395487321
 30
0.0
 11
7857.193633210164
 21
10749.4395487321
 31
0.0
  0
LINE
  5
23D5E
330
1D7B8
100
AcDbEntity
  8
寸法
 62
     0
 48
50.0
370
    -2
100
AcDbLine
 10
7932.193633210163
 20
7380.439548732107
 30
0.0
 11
7932.193633210165
 21
10749.4395487321
 31
0.0
  0
INSERT
  5
23D5F
330
1D7B8
100
AcDbEntity
  8
寸法
 62
     0
 48
50.0
370
    -2
100
AcDbBlockReference
  2
_DOTSMALL
 10
7932.193633210163
 20
7380.439548732107
 30
0.0
 41
125.0
 42
125.0
 43
125.0
 50
270.0
  0
INSERT
  5
23D60
330
1D7B8
100
AcDbEntity
  8
寸法
 62
     0
 48
50.0
370
    -2
100
AcDbBlockReference
  2
_DOTSMALL
 10
7932.193633210165
 20
10749.4395487321
 30
0.0
 41
125.0
 42
125.0
 43
125.0
 50
90.0
  0
MTEXT
  5
23D61
330
1D7B8
100
AcDbEntity
  8
寸法
 62
     7
 48
50.0
100
AcDbMText
 10
7832.193633210163
 20
9064.939548732109
 30
0.0
 40
150.0
 41
0.0
 71
     5
 72
     1
  1
\A1;3369
  7
STYLE1
 11
0.0000000000000001
 21
1.0
 31
0.0
 73
     1
 44
1.0
1001
ACAD
1000
MTEXTBEGIN
1070
    73
1070
     1
1070
    44
1040
1.0
1070
    74
1070
     0
1000
MTEXTEND
  0
POINT
  5
23D62
330
1D7B8
100
AcDbEntity
  8
DEFPOINTS
 62
     0
 48
50.0
100
AcDbPoint
 10
8749.500000000001
 20
7380.439548732107
 30
0.0
  0
POINT
  5
23D63
330
1D7B8
100
AcDbEntity
  8
DEFPOINTS
 62
     0
 48
50.0
100
AcDbPoint
 10
8774.500000000191
 20
10749.4395487321
 30
0.0
  0
POINT
  5
23D64
330
1D7B8
100
AcDbEntity
  8
DEFPOINTS
 62
     0
 48
50.0
100
AcDbPoint
 10
7932.193633210165
 20
10749.4395487321
 30
0.0
  0
ENDBLK
  5
1D7C3
330
1D7B8
100
AcDbEntity
  8
0
 48
50.0
100
AcDbBlockEnd
  0
BLOCK
  5
1D7CE
330
1D7C4
100
AcDbEntity
  8
0
 48
50.0
100
AcDbBlockBegin
  2
*D8
 70
     1
 10
0.0
 20
0.0
 30
0.0
  3
*D8
  1

  0
LINE
  5
23D4A
330
1D7C4
100
AcDbEntity
  8
寸法
 62
     0
 48
50.0
370
    -2
100
AcDbLine
 10
8724.5
 20
10799.43954873211
 30
0.0
 11
7474.077758871932
 21
10799.43954873211
 31
0.0
  0
LINE
  5
23D4B
330
1D7C4
100
AcDbEntity
  8
寸法
 62
     0
 48
50.0
370
    -2
100
AcDbLine
 10
8785.5
 20
7319.439548732107
 30
0.0
 11
7474.077758871932
 21
7319.439548732107
 31
0.0
  0
LINE
  5
23D4C
330
1D7C4
100
AcDbEntity
  8
寸法
 62
     0
 48
50.0
370
    -2
100
AcDbLine
 10
7549.077758871932
 20
10799.43954873211
 30
0.0
 11
7549.077758871932
 21
7319.439548732107
 31
0.0
  0
INSERT
  5
23D4D
330
1D7C4
100
AcDbEntity
  8
寸法
 62
     0
 48
50.0
370
    -2
100
AcDbBlockReference
  2
_DOTSMALL
 10
7549.077758871932
 20
10799.43954873211
 30
0.0
 41
125.0
 42
125.0
 43
125.0
 50
90.0
  0
INSERT
  5
23D4E
330
1D7C4
100
AcDbEntity
  8
寸法
 62
     0
 48
50.0
370
    -2
100
AcDbBlockReference
  2
_DOTSMALL
 10
7549.077758871932
 20
7319.439548732107
 30
0.0
 41
125.0
 42
125.0
 43
125.0
 50
270.0
  0
MTEXT
  5
23D4F
330
1D7C4
100
AcDbEntity
  8
寸法
 62
     7
 48
50.0
100
AcDbMText
 10
7449.077758871931
 20
9059.439548732109
 30
0.0
 40
150.0
 41
0.0
 71
     5
 72
     1
  1
\A1;3480
  7
STYLE1
 11
0.0000000000000001
 21
1.0
 31
0.0
 73
     1
 44
1.0
1001
ACAD
1000
MTEXTBEGIN
1070
    73
1070
     1
1070
    44
1040
1.0
1070
    74
1070
     0
1000
MTEXTEND
  0
POINT
  5
23D50
330
1D7C4
100
AcDbEntity
  8
DEFPOINTS
 62
     0
 48
50.0
100
AcDbPoint
 10
8749.500000000001
 20
10799.43954873211
 30
0.0
  0
POINT
  5
23D51
330
1D7C4
100
AcDbEntity
  8
DEFPOINTS
 62
     0
 48
50.0
100
AcDbPoint
 10
8810.500000000001
 20
7319.439548732107
 30
0.0
  0
POINT
  5
23D52
330
1D7C4
100
AcDbEntity
  8
DEFPOINTS
 62
     0
 48
50.0
100
AcDbPoint
 10
7549.077758871932
 20
7319.439548732107
 30
0.0
  0
ENDBLK
  5
1D7CF
330
1D7C4
100
AcDbEntity
  8
0
 48
50.0
100
AcDbBlockEnd
  0
BLOCK
  5
1D7DC
330
1D7D0
100
AcDbEntity
  8
0
 48
50.0
100
AcDbBlockBegin
  2
*D9
 70
     1
 10
0.0
 20
0.0
 30
0.0
  3
*D9
  1

  0
LINE
  5
23D70
330
1D7D0
100
AcDbEntity
  8
寸法
 62
     0
 48
50.0
370
    -2
100
AcDbLine
 10
8785.5
 20
7319.439548732107
 30
0.0
 11
7857.193633210164
 21
7319.439548732107
 31
0.0
  0
LINE
  5
23D71
330
1D7D0
100
AcDbEntity
  8
寸法
 62
     0
 48
50.0
370
    -2
100
AcDbLine
 10
8724.5
 20
7380.439548732107
 30
0.0
 11
7857.193633210164
 21
7380.439548732107
 31
0.0
  0
LINE
  5
23D72
330
1D7D0
100
AcDbEntity
  8
寸法
 62
     0
 48
50.0
370
    -2
100
AcDbLine
 10
7932.193633210165
 20
7380.439548732107
 30
0.0
 11
7932.193633210165
 21
7319.439548732107
 31
0.0
  0
LINE
  5
23D73
330
1D7D0
100
AcDbEntity
  8
寸法
 62
     0
 48
50.0
370
    -2
100
AcDbLine
 10
7932.193633210165
 20
7319.439548732107
 30
0.0
 11
7932.193633210165
 21
7000.463170779352
 31
0.0
  0
INSERT
  5
23D74
330
1D7D0
100
AcDbEntity
  8
寸法
 62
     0
 48
50.0
370
    -2
100
AcDbBlockReference
  2
_DOTSMALL
 10
7932.193633210165
 20
7380.439548732107
 30
0.0
 41
125.0
 42
125.0
 43
125.0
 50
90.0
  0
INSERT
  5
23D75
330
1D7D0
100
AcDbEntity
  8
寸法
 62
     0
 48
50.0
370
    -2
100
AcDbBlockReference
  2
_DOTSMALL
 10
7932.193633210165
 20
7319.439548732107
 30
0.0
 41
125.0
 42
125.0
 43
125.0
 50
270.0
  0
MTEXT
  5
23D76
330
1D7D0
100
AcDbEntity
  8
寸法
 62
     7
 48
50.0
100
AcDbMText
 10
7832.193633210163
 20
7097.45135975573
 30
0.0
 40
150.0
 41
0.0
 71
     5
 72
     1
  1
\A1;61
  7
STYLE1
 11
0.0000000000000001
 21
1.0
 31
0.0
 73
     1
 44
1.0
1001
ACAD
1000
MTEXTBEGIN
1070
    73
1070
     1
1070
    44
1040
1.0
1070
    74
1070
     0
1000
MTEXTEND
  0
POINT
  5
23D77
330
1D7D0
100
AcDbEntity
  8
DEFPOINTS
 62
     0
 48
50.0
100
AcDbPoint
 10
8810.500000000001
 20
7319.439548732107
 30
0.0
  0
POINT
  5
23D78
330
1D7D0
100
AcDbEntity
  8
DEFPOINTS
 62
     0
 48
50.0
100
AcDbPoint
 10
8749.500000000001
 20
7380.439548732107
 30
0.0
  0
POINT
  5
23D79
330
1D7D0
100
AcDbEntity
  8
DEFPOINTS
 62
     0
 48
50.0
100
AcDbPoint
 10
7932.193633210165
 20
7380.439548732107
 30
0.0
  0
ENDBLK
  5
1D7DD
330
1D7D0
100
AcDbEntity
  8
0
 48
50.0
100
AcDbBlockEnd
  0
BLOCK
  5
1D7EA
330
1D7DE
100
AcDbEntity
  8
0
 48
50.0
100
AcDbBlockBegin
  2
*D10
 70
     1
 10
0.0
 20
0.0
 30
0.0
  3
*D10
  1

  0
LINE
  5
23D22
330
1D7DE
100
AcDbEntity
  8
寸法
 62
     0
 48
50.0
370
    -2
100
AcDbLine
 10
8749.500000000001
 20
7355.439548732107
 30
0.0
 11
8749.500000000001
 21
5718.844103684563
 31
0.0
  0
LINE
  5
23D23
330
1D7DE
100
AcDbEntity
  8
寸法
 62
     0
 48
50.0
370
    -2
100
AcDbLine
 10
8810.500000000001
 20
7294.439548732107
 30
0.0
 11
8810.500000000001
 21
5718.844103684563
 31
0.0
  0
LINE
  5
23D24
330
1D7DE
100
AcDbEntity
  8
寸法
 62
     0
 48
50.0
370
    -2
100
AcDbLine
 10
8810.500000000001
 20
5793.844103684563
 30
0.0
 11
8749.500000000001
 21
5793.844103684563
 31
0.0
  0
LINE
  5
23D25
330
1D7DE
100
AcDbEntity
  8
寸法
 62
     0
 48
50.0
370
    -2
100
AcDbLine
 10
8749.500000000001
 20
5793.844103684563
 30
0.0
 11
8430.523622047244
 21
5793.844103684563
 31
0.0
  0
INSERT
  5
23D26
330
1D7DE
100
AcDbEntity
  8
寸法
 62
     0
 48
50.0
370
    -2
100
AcDbBlockReference
  2
_DOTSMALL
 10
8810.500000000001
 20
5793.844103684563
 30
0.0
 41
125.0
 42
125.0
 43
125.0
  0
INSERT
  5
23D27
330
1D7DE
100
AcDbEntity
  8
寸法
 62
     0
 48
50.0
370
    -2
100
AcDbBlockReference
  2
_DOTSMALL
 10
8749.500000000001
 20
5793.844103684563
 30
0.0
 41
125.0
 42
125.0
 43
125.0
 50
180.0
  0
MTEXT
  5
23D28
330
1D7DE
100
AcDbEntity
  8
寸法
 62
     7
 48
50.0
100
AcDbMText
 10
8527.511811023622
 20
5893.844103684563
 30
0.0
 40
150.0
 41
0.0
 71
     5
 72
     1
  1
\A1;61
  7
STYLE1
 73
     1
 44
1.0
1001
ACAD
1000
MTEXTBEGIN
1070
    73
1070
     1
1070
    44
1040
1.0
1070
    74
1070
     0
1000
MTEXTEND
  0
POINT
  5
23D29
330
1D7DE
100
AcDbEntity
  8
DEFPOINTS
 62
     0
 48
50.0
100
AcDbPoint
 10
8749.500000000001
 20
7380.439548732107
 30
0.0
  0
POINT
  5
23D2A
330
1D7DE
100
AcDbEntity
  8
DEFPOINTS
 62
     0
 48
50.0
100
AcDbPoint
 10
8810.500000000001
 20
7319.439548732107
 30
0.0
  0
POINT
  5
23D2B
330
1D7DE
100
AcDbEntity
  8
DEFPOINTS
 62
     0
 48
50.0
100
AcDbPoint
 10
8810.500000000001
 20
5793.844103684563
 30
0.0
  0
ENDBLK
  5
1D7EB
330
1D7DE
100
AcDbEntity
  8
0
 48
50.0
100
AcDbBlockEnd
  0
BLOCK
  5
1D7F8
330
1D7EC
100
AcDbEntity
  8
0
 48
50.0
100
AcDbBlockBegin
  2
*D11
 70
     1
 10
0.0
 20
0.0
 30
0.0
  3
*D11
  1

  0
LINE
  5
23D40
330
1D7EC
100
AcDbEntity
  8
寸法
 62
     0
 48
50.0
370
    -2
100
AcDbLine
 10
8749.500000000191
 20
10749.4395487321
 30
0.0
 11
7857.193633210164
 21
10749.4395487321
 31
0.0
  0
LINE
  5
23D41
330
1D7EC
100
AcDbEntity
  8
寸法
 62
     0
 48
50.0
370
    -2
100
AcDbLine
 10
8724.5
 20
10799.43954873211
 30
0.0
 11
7857.193633210164
 21
10799.43954873211
 31
0.0
  0
LINE
  5
23D42
330
1D7EC
100
AcDbEntity
  8
寸法
 62
     0
 48
50.0
370
    -2
100
AcDbLine
 10
7932.193633210165
 20
10749.4395487321
 30
0.0
 11
7932.193633210165
 21
10799.43954873211
 31
0.0
  0
LINE
  5
23D43
330
1D7EC
100
AcDbEntity
  8
寸法
 62
     0
 48
50.0
370
    -2
100
AcDbLine
 10
7932.193633210165
 20
10799.43954873211
 30
0.0
 11
7932.193633210165
 21
11139.55765896833
 31
0.0
  0
INSERT
  5
23D44
330
1D7EC
100
AcDbEntity
  8
寸法
 62
     0
 48
50.0
370
    -2
100
AcDbBlockReference
  2
_DOTSMALL
 10
7932.193633210165
 20
10749.4395487321
 30
0.0
 41
125.0
 42
125.0
 43
125.0
 50
270.0
  0
INSERT
  5
23D45
330
1D7EC
100
AcDbEntity
  8
寸法
 62
     0
 48
50.0
370
    -2
100
AcDbBlockReference
  2
_DOTSMALL
 10
7932.193633210165
 20
10799.43954873211
 30
0.0
 41
125.0
 42
125.0
 43
125.0
 50
90.0
  0
MTEXT
  5
23D46
330
1D7EC
100
AcDbEntity
  8
寸法
 62
     7
 48
50.0
100
AcDbMText
 10
7832.193633210163
 20
11031.99860385022
 30
0.0
 40
150.0
 41
0.0
 71
     5
 72
     1
  1
\A1;50
  7
STYLE1
 11
0.0000000000000001
 21
1.0
 31
0.0
 73
     1
 44
1.0
1001
ACAD
1000
MTEXTBEGIN
1070
    73
1070
     1
1070
    44
1040
1.0
1070
    74
1070
     0
1000
MTEXTEND
  0
POINT
  5
23D47
330
1D7EC
100
AcDbEntity
  8
DEFPOINTS
 62
     0
 48
50.0
100
AcDbPoint
 10
8774.500000000191
 20
10749.4395487321
 30
0.0
  0
POINT
  5
23D48
330
1D7EC
100
AcDbEntity
  8
DEFPOINTS
 62
     0
 48
50.0
100
AcDbPoint
 10
8749.500000000001
 20
10799.43954873211
 30
0.0
  0
POINT
  5
23D49
330
1D7EC
100
AcDbEntity
  8
DEFPOINTS
 62
     0
 48
50.0
100
AcDbPoint
 10
7932.193633210165
 20
10799.43954873211
 30
0.0
  0
ENDBLK
  5
1D7F9
330
1D7EC
100
AcDbEntity
  8
0
 48
50.0
100
AcDbBlockEnd
  0
BLOCK
  5
1D813
330
1D808
100
AcDbEntity
  8
0
 48
50.0
100
AcDbBlockBegin
  2
*D12
 70
     1
 10
0.0
 20
0.0
 30
0.0
  3
*D12
  1

  0
LINE
  5
23E34
330
1D808
100
AcDbEntity
  8
寸法
 62
     0
 48
50.0
370
    -2
100
AcDbLine
 10
11809.5
 20
10824.43954873209
 30
0.0
 11
11809.5
 21
11793.02090352267
 31
0.0
  0
LINE
  5
23E35
330
1D808
100
AcDbEntity
  8
寸法
 62
     0
 48
50.0
370
    -2
100
AcDbLine
 10
11734.5
 20
10824.4395487321
 30
0.0
 11
11734.5
 21
11793.02090352267
 31
0.0
  0
LINE
  5
23E36
330
1D808
100
AcDbEntity
  8
寸法
 62
     0
 48
50.0
370
    -2
100
AcDbLine
 10
11734.5
 20
11718.02090352267
 30
0.0
 11
11809.5
 21
11718.02090352267
 31
0.0
  0
LINE
  5
23E37
330
1D808
100
AcDbEntity
  8
寸法
 62
     0
 48
50.0
370
    -2
100
AcDbLine
 10
11809.5
 20
11718.02090352267
 30
0.0
 11
12160.1066017178
 21
11718.02090352267
 31
0.0
  0
INSERT
  5
23E38
330
1D808
100
AcDbEntity
  8
寸法
 62
     0
 48
50.0
370
    -2
100
AcDbBlockReference
  2
_DOTSMALL
 10
11734.5
 20
11718.02090352267
 30
0.0
 41
125.0
 42
125.0
 43
125.0
 50
180.0
  0
INSERT
  5
23E39
330
1D808
100
AcDbEntity
  8
寸法
 62
     0
 48
50.0
370
    -2
100
AcDbBlockReference
  2
_DOTSMALL
 10
11809.5
 20
11718.02090352267
 30
0.0
 41
125.0
 42
125.0
 43
125.0
  0
MTEXT
  5
23E3A
330
1D808
100
AcDbEntity
  8
寸法
 62
     7
 48
50.0
100
AcDbMText
 10
12049.5
 20
11818.02090352267
 30
0.0
 40
150.0
 41
0.0
 71
     5
 72
     1
  1
\A1;75
  7
STYLE1
 73
     1
 44
1.0
1001
ACAD
1000
MTEXTBEGIN
1070
    73
1070
     1
1070
    44
1040
1.0
1070
    74
1070
     0
1000
MTEXTEND
  0
POINT
  5
23E3B
330
1D808
100
AcDbEntity
  8
DEFPOINTS
 62
     0
 48
50.0
100
AcDbPoint
 10
11809.5
 20
10799.43954873209
 30
0.0
  0
POINT
  5
23E3C
330
1D808
100
AcDbEntity
  8
DEFPOINTS
 62
     0
 48
50.0
100
AcDbPoint
 10
11734.5
 20
10799.43954873211
 30
0.0
  0
POINT
  5
23E3D
330
1D808
100
AcDbEntity
  8
DEFPOINTS
 62
     0
 48
50.0
100
AcDbPoint
 10
11734.5
 20
11718.02090352267
 30
0.0
  0
ENDBLK
  5
1D814
330
1D808
100
AcDbEntity
  8
0
 48
50.0
100
AcDbBlockEnd
  0
BLOCK
  5
1D82C
330
1D821
100
AcDbEntity
  8
0
 48
50.0
100
AcDbBlockBegin
  2
*D13
 70
     1
 10
0.0
 20
0.0
 30
0.0
  3
*D13
  1

  0
LINE
  5
23DC7
330
1D821
100
AcDbEntity
  8
寸法
 62
     0
 48
50.0
370
    -2
100
AcDbLine
 10
10870.00000000001
 20
10679.43954873209
 30
0.0
 11
10792.66479268395
 21
10679.43954873209
 31
0.0
  0
LINE
  5
23DC8
330
1D821
100
AcDbEntity
  8
寸法
 62
     0
 48
50.0
370
    -2
100
AcDbLine
 10
10870.00000000001
 20
10799.43954873209
 30
0.0
 11
10792.66479268395
 21
10799.43954873209
 31
0.0
  0
LINE
  5
23DC9
330
1D821
100
AcDbEntity
  8
寸法
 62
     0
 48
50.0
370
    -2
100
AcDbLine
 10
10867.66479268395
 20
10679.43954873209
 30
0.0
 11
10867.66479268395
 21
10799.43954873209
 31
0.0
  0
LINE
  5
23DCA
330
1D821
100
AcDbEntity
  8
寸法
 62
     0
 48
50.0
370
    -2
100
AcDbLine
 10
10867.66479268395
 20
10799.43954873209
 30
0.0
 11
10867.66479268395
 21
11214.55765896833
 31
0.0
  0
INSERT
  5
23DCB
330
1D821
100
AcDbEntity
  8
寸法
 62
     0
 48
50.0
370
    -2
100
AcDbBlockReference
  2
_DOTSMALL
 10
10867.66479268395
 20
10679.43954873209
 30
0.0
 41
125.0
 42
125.0
 43
125.0
 50
270.0
  0
INSERT
  5
23DCC
330
1D821
100
AcDbEntity
  8
寸法
 62
     0
 48
50.0
370
    -2
100
AcDbBlockReference
  2
_DOTSMALL
 10
10867.66479268395
 20
10799.43954873209
 30
0.0
 41
125.0
 42
125.0
 43
125.0
 50
90.0
  0
MTEXT
  5
23DCD
330
1D821
100
AcDbEntity
  8
寸法
 62
     7
 48
50.0
100
AcDbMText
 10
10767.65002890442
 20
11069.49860385022
 30
0.0
 40
150.0
 41
0.0
 71
     5
 72
     1
  1
\A1;120
  7
STYLE1
 11
0.0000000000000001
 21
1.0
 31
0.0
 73
     1
 44
1.0
1001
ACAD
1000
MTEXTBEGIN
1070
    73
1070
     1
1070
    44
1040
1.0
1070
    74
1070
     0
1000
MTEXTEND
  0
POINT
  5
23DCE
330
1D821
100
AcDbEntity
  8
DEFPOINTS
 62
     0
 48
50.0
100
AcDbPoint
 10
10895.00000000001
 20
10679.43954873209
 30
0.0
  0
POINT
  5
23DCF
330
1D821
100
AcDbEntity
  8
DEFPOINTS
 62
     0
 48
50.0
100
AcDbPoint
 10
10895.00000000001
 20
10799.43954873209
 30
0.0
  0
POINT
  5
23DD0
330
1D821
100
AcDbEntity
  8
DEFPOINTS
 62
     0
 48
50.0
100
AcDbPoint
 10
10867.66479268395
 20
10799.43954873209
 30
0.0
  0
ENDBLK
  5
1D82D
330
1D821
100
AcDbEntity
  8
0
 48
50.0
100
AcDbBlockEnd
  0
BLOCK
  5
1D89B
330
1D890
100
AcDbEntity
  8
0
 48
50.0
100
AcDbBlockBegin
  2
*D14
 70
     1
 10
0.0
 20
0.0
 30
0.0
  3
*D14
  1

  0
LINE
  5
23E16
330
1D890
100
AcDbEntity
  8
寸法
 62
     0
 48
50.0
370
    -2
100
AcDbLine
 10
11689.5
 20
9877.210678774858
 30
0.0
 11
11689.5
 21
9649.259709041629
 31
0.0
  0
LINE
  5
23E17
330
1D890
100
AcDbEntity
  8
寸法
 62
     0
 48
50.0
370
    -2
100
AcDbLine
 10
11809.5
 20
9877.210678774858
 30
0.0
 11
11809.5
 21
9649.259709041629
 31
0.0
  0
LINE
  5
23E18
330
1D890
100
AcDbEntity
  8
寸法
 62
     0
 48
50.0
370
    -2
100
AcDbLine
 10
11689.5
 20
9724.25970904163
 30
0.0
 11
11809.5
 21
9724.25970904163
 31
0.0
  0
LINE
  5
23E19
330
1D890
100
AcDbEntity
  8
寸法
 62
     0
 48
50.0
370
    -2
100
AcDbLine
 10
11809.5
 20
9724.25970904163
 30
0.0
 11
12224.68192731239
 21
9724.25970904163
 31
0.0
  0
INSERT
  5
23E1A
330
1D890
100
AcDbEntity
  8
寸法
 62
     0
 48
50.0
370
    -2
100
AcDbBlockReference
  2
_DOTSMALL
 10
11689.5
 20
9724.25970904163
 30
0.0
 41
125.0
 42
125.0
 43
125.0
 50
180.0
  0
INSERT
  5
23E1B
330
1D890
100
AcDbEntity
  8
寸法
 62
     0
 48
50.0
370
    -2
100
AcDbBlockReference
  2
_DOTSMALL
 10
11809.5
 20
9724.25970904163
 30
0.0
 41
125.0
 42
125.0
 43
125.0
  0
MTEXT
  5
23E1C
330
1D890
100
AcDbEntity
  8
寸法
 62
     7
 48
50.0
100
AcDbMText
 10
12079.62287219428
 20
9824.274472821157
 30
0.0
 40
150.0
 41
0.0
 71
     5
 72
     1
  1
\A1;120
  7
STYLE1
 73
     1
 44
1.0
1001
ACAD
1000
MTEXTBEGIN
1070
    73
1070
     1
1070
    44
1040
1.0
1070
    74
1070
     0
1000
MTEXTEND
  0
POINT
  5
23E1D
330
1D890
100
AcDbEntity
  8
DEFPOINTS
 62
     0
 48
50.0
100
AcDbPoint
 10
11689.5
 20
9902.210678774858
 30
0.0
  0
POINT
  5
23E1E
330
1D890
100
AcDbEntity
  8
DEFPOINTS
 62
     0
 48
50.0
100
AcDbPoint
 10
11809.5
 20
9902.210678774858
 30
0.0
  0
POINT
  5
23E1F
330
1D890
100
AcDbEntity
  8
DEFPOINTS
 62
     0
 48
50.0
100
AcDbPoint
 10
11809.5
 20
9724.25970904163
 30
0.0
  0
ENDBLK
  5
1D89C
330
1D890
100
AcDbEntity
  8
0
 48
50.0
100
AcDbBlockEnd
  0
BLOCK
  5
1D8A7
330
1D89D
100
AcDbEntity
  8
0
 48
50.0
100
AcDbBlockBegin
  2
*D15
 70
     1
 10
0.0
 20
0.0
 30
0.0
  3
*D15
  1

  0
LINE
  5
23DD1
330
1D89D
100
AcDbEntity
  8
寸法
 62
     0
 48
50.0
370
    -2
100
AcDbLine
 10
11834.5
 20
7380.439548732107
 30
0.0
 11
13335.92407367218
 21
7380.439548732107
 31
0.0
  0
LINE
  5
23DD2
330
1D89D
100
AcDbEntity
  8
寸法
 62
     0
 48
50.0
370
    -2
100
AcDbLine
 10
11809.5
 20
10749.4395487321
 30
0.0
 11
13335.92407367218
 21
10749.4395487321
 31
0.0
  0
LINE
  5
23DD3
330
1D89D
100
AcDbEntity
  8
寸法
 62
     0
 48
50.0
370
    -2
100
AcDbLine
 10
13260.92407367218
 20
7380.439548732107
 30
0.0
 11
13260.92407367218
 21
10749.4395487321
 31
0.0
  0
INSERT
  5
23DD4
330
1D89D
100
AcDbEntity
  8
寸法
 62
     0
 48
50.0
370
    -2
100
AcDbBlockReference
  2
_DOTSMALL
 10
13260.92407367218
 20
7380.439548732107
 30
0.0
 41
125.0
 42
125.0
 43
125.0
 50
270.0
  0
INSERT
  5
23DD5
330
1D89D
100
AcDbEntity
  8
寸法
 62
     0
 48
50.0
370
    -2
100
AcDbBlockReference
  2
_DOTSMALL
 10
13260.92407367218
 20
10749.4395487321
 30
0.0
 41
125.0
 42
125.0
 43
125.0
 50
90.0
  0
MTEXT
  5
23DD6
330
1D89D
100
AcDbEntity
  8
寸法
 62
     7
 48
50.0
100
AcDbMText
 10
13160.92407367218
 20
9064.939548732109
 30
0.0
 40
150.0
 41
0.0
 71
     5
 72
     1
  1
\A1;3369
  7
STYLE1
 11
0.0000000000000001
 21
1.0
 31
0.0
 73
     1
 44
1.0
1001
ACAD
1000
MTEXTBEGIN
1070
    73
1070
     1
1070
    44
1040
1.0
1070
    74
1070
     0
1000
MTEXTEND
  0
POINT
  5
23DD7
330
1D89D
100
AcDbEntity
  8
DEFPOINTS
 62
     0
 48
50.0
100
AcDbPoint
 10
11809.5
 20
7380.439548732107
 30
0.0
  0
POINT
  5
23DD8
330
1D89D
100
AcDbEntity
  8
DEFPOINTS
 62
     0
 48
50.0
100
AcDbPoint
 10
11784.5
 20
10749.4395487321
 30
0.0
  0
POINT
  5
23DD9
330
1D89D
100
AcDbEntity
  8
DEFPOINTS
 62
     0
 48
50.0
100
AcDbPoint
 10
13260.92407367218
 20
10749.4395487321
 30
0.0
  0
ENDBLK
  5
1D8A8
330
1D89D
100
AcDbEntity
  8
0
 48
50.0
100
AcDbBlockEnd
  0
BLOCK
  5
1D8B5
330
1D8A9
100
AcDbEntity
  8
0
 48
50.0
100
AcDbBlockBegin
  2
*D16
 70
     1
 10
0.0
 20
0.0
 30
0.0
  3
*D16
  1

  0
LINE
  5
23DEE
330
1D8A9
100
AcDbEntity
  8
寸法
 62
     0
 48
50.0
370
    -2
100
AcDbLine
 10
11834.5
 20
7380.439548732107
 30
0.0
 11
13335.92407367217
 21
7380.439548732107
 31
0.0
  0
LINE
  5
23DEF
330
1D8A9
100
AcDbEntity
  8
寸法
 62
     0
 48
50.0
370
    -2
100
AcDbLine
 10
11980.49851475226
 20
7352.439548732107
 30
0.0
 11
13335.92407367217
 21
7352.439548732107
 31
0.0
  0
LINE
  5
23DF0
330
1D8A9
100
AcDbEntity
  8
寸法
 62
     0
 48
50.0
370
    -2
100
AcDbLine
 10
13260.92407367217
 20
7380.439548732107
 30
0.0
 11
13260.92407367217
 21
7505.439548732107
 31
0.0
  0
LINE
  5
23DF1
330
1D8A9
100
AcDbEntity
  8
寸法
 62
     0
 48
50.0
370
    -2
100
AcDbLine
 10
13260.92407367217
 20
7352.439548732107
 30
0.0
 11
13260.92407367217
 21
6498.570037806974
 31
0.0
  0
LINE
  5
23DF2
330
1D8A9
100
AcDbEntity
  8
寸法
 62
     0
 48
50.0
370
    -2
100
AcDbLine
 10
13260.92407367217
 20
7380.439548732107
 30
0.0
 11
13260.92407367217
 21
7352.439548732107
 31
0.0
  0
INSERT
  5
23DF3
330
1D8A9
100
AcDbEntity
  8
寸法
 62
     0
 48
50.0
370
    -2
100
AcDbBlockReference
  2
_DOTSMALL
 10
13260.92407367217
 20
7380.439548732107
 30
0.0
 41
125.0
 42
125.0
 43
125.0
 50
270.0
  0
INSERT
  5
23DF4
330
1D8A9
100
AcDbEntity
  8
寸法
 62
     0
 48
50.0
370
    -2
100
AcDbBlockReference
  2
_DOTSMALL
 10
13260.92407367217
 20
7352.439548732107
 30
0.0
 41
125.0
 42
125.0
 43
125.0
 50
90.0
  0
MTEXT
  5
23DF5
330
1D8A9
100
AcDbEntity
  8
寸法
 62
     7
 48
50.0
100
AcDbMText
 10
13160.90930989264
 20
6797.320037806976
 30
0.0
 40
150.0
 41
0.0
 71
     5
 72
     1
  1
\A1;柱芯28
  7
STYLE1
 11
0.0000000000000001
 21
1.0
 31
0.0
 73
     1
 44
1.0
1001
ACAD
1000
MTEXTBEGIN
1070
    73
1070
     1
1070
    44
1040
1.0
1070
    74
1070
     0
1000
MTEXTEND
  0
POINT
  5
23DF6
330
1D8A9
100
AcDbEntity
  8
DEFPOINTS
 62
     0
 48
50.0
100
AcDbPoint
 10
11809.5
 20
7380.439548732107
 30
0.0
  0
POINT
  5
23DF7
330
1D8A9
100
AcDbEntity
  8
DEFPOINTS
 62
     0
 48
50.0
100
AcDbPoint
 10
11955.49851475226
 20
7352.439548732107
 30
0.0
  0
POINT
  5
23DF8
330
1D8A9
100
AcDbEntity
  8
DEFPOINTS
 62
     0
 48
50.0
100
AcDbPoint
 10
13260.92407367217
 20
7352.439548732107
 30
0.0
  0
ENDBLK
  5
1D8B6
330
1D8A9
100
AcDbEntity
  8
0
 48
50.0
100
AcDbBlockEnd
  0
BLOCK
  5
1D8C3
330
1D8B7
100
AcDbEntity
  8
0
 48
50.0
100
AcDbBlockBegin
  2
*D17
 70
     1
 10
0.0
 20
0.0
 30
0.0
  3
*D17
  1

  0
LINE
  5
23DB3
330
1D8B7
100
AcDbEntity
  8
寸法
 62
     0
 48
50.0
370
    -2
100
AcDbLine
 10
11809.5
 20
6825.88997162871
 30
0.0
 11
11809.5
 21
5718.844103684563
 31
0.0
  0
LINE
  5
23DB4
330
1D8B7
100
AcDbEntity
  8
寸法
 62
     0
 48
50.0
370
    -2
100
AcDbLine
 10
11748.5
 20
6825.88997162871
 30
0.0
 11
11748.5
 21
5718.844103684563
 31
0.0
  0
LINE
  5
23DB5
330
1D8B7
100
AcDbEntity
  8
寸法
 62
     0
 48
50.0
370
    -2
100
AcDbLine
 10
11748.5
 20
5793.844103684563
 30
0.0
 11
11809.5
 21
5793.844103684563
 31
0.0
  0
LINE
  5
23DB6
330
1D8B7
100
AcDbEntity
  8
寸法
 62
     0
 48
50.0
370
    -2
100
AcDbLine
 10
11809.5
 20
5793.844103684563
 30
0.0
 11
12128.47637795275
 21
5793.844103684563
 31
0.0
  0
INSERT
  5
23DB7
330
1D8B7
100
AcDbEntity
  8
寸法
 62
     0
 48
50.0
370
    -2
100
AcDbBlockReference
  2
_DOTSMALL
 10
11748.5
 20
5793.844103684563
 30
0.0
 41
125.0
 42
125.0
 43
125.0
 50
180.0
  0
INSERT
  5
23DB8
330
1D8B7
100
AcDbEntity
  8
寸法
 62
     0
 48
50.0
370
    -2
100
AcDbBlockReference
  2
_DOTSMALL
 10
11809.5
 20
5793.844103684563
 30
0.0
 41
125.0
 42
125.0
 43
125.0
  0
MTEXT
  5
23DB9
330
1D8B7
100
AcDbEntity
  8
寸法
 62
     7
 48
50.0
100
AcDbMText
 10
12031.48818897638
 20
5893.844103684563
 30
0.0
 40
150.0
 41
0.0
 71
     5
 72
     1
  1
\A1;61
  7
STYLE1
 73
     1
 44
1.0
1001
ACAD
1000
MTEXTBEGIN
1070
    73
1070
     1
1070
    44
1040
1.0
1070
    74
1070
     0
1000
MTEXTEND
  0
POINT
  5
23DBA
330
1D8B7
100
AcDbEntity
  8
DEFPOINTS
 62
     0
 48
50.0
100
AcDbPoint
 10
11809.5
 20
6850.88997162871
 30
0.0
  0
POINT
  5
23DBB
330
1D8B7
100
AcDbEntity
  8
DEFPOINTS
 62
     0
 48
50.0
100
AcDbPoint
 10
11748.5
 20
6850.88997162871
 30
0.0
  0
POINT
  5
23DBC
330
1D8B7
100
AcDbEntity
  8
DEFPOINTS
 62
     0
 48
50.0
100
AcDbPoint
 10
11748.5
 20
5793.844103684563
 30
0.0
  0
ENDBLK
  5
1D8C4
330
1D8B7
100
AcDbEntity
  8
0
 48
50.0
100
AcDbBlockEnd
  0
BLOCK
  5
1D8CF
330
1D8C5
100
AcDbEntity
  8
0
 48
50.0
100
AcDbBlockBegin
  2
*D18
 70
     1
 10
0.0
 20
0.0
 30
0.0
  3
*D18
  1

  0
LINE
  5
23E0D
330
1D8C5
100
AcDbEntity
  8
寸法
 62
     0
 48
50.0
370
    -2
100
AcDbLine
 10
11639.5
 20
7114.439548732118
 30
0.0
 11
11639.5
 21
6775.889971628711
 31
0.0
  0
LINE
  5
23E0E
330
1D8C5
100
AcDbEntity
  8
寸法
 62
     0
 48
50.0
370
    -2
100
AcDbLine
 10
11989.50000000001
 20
7114.439548732107
 30
0.0
 11
11989.50000000001
 21
6775.889971628711
 31
0.0
  0
LINE
  5
23E0F
330
1D8C5
100
AcDbEntity
  8
寸法
 62
     0
 48
50.0
370
    -2
100
AcDbLine
 10
11639.5
 20
6850.88997162871
 30
0.0
 11
11989.50000000001
 21
6850.88997162871
 31
0.0
  0
INSERT
  5
23E10
330
1D8C5
100
AcDbEntity
  8
寸法
 62
     0
 48
50.0
370
    -2
100
AcDbBlockReference
  2
_DOTSMALL
 10
11639.5
 20
6850.88997162871
 30
0.0
 41
125.0
 42
125.0
 43
125.0
 50
180.0
  0
INSERT
  5
23E11
330
1D8C5
100
AcDbEntity
  8
寸法
 62
     0
 48
50.0
370
    -2
100
AcDbBlockReference
  2
_DOTSMALL
 10
11989.50000000001
 20
6850.88997162871
 30
0.0
 41
125.0
 42
125.0
 43
125.0
  0
MTEXT
  5
23E12
330
1D8C5
100
AcDbEntity
  8
寸法
 62
     7
 48
50.0
100
AcDbMText
 10
11814.5
 20
6950.88997162871
 30
0.0
 40
150.0
 41
0.0
 71
     5
 72
     1
  1
\A1;350
  7
STYLE1
 73
     1
 44
1.0
1001
ACAD
1000
MTEXTBEGIN
1070
    73
1070
     1
1070
    44
1040
1.0
1070
    74
1070
     0
1000
MTEXTEND
  0
POINT
  5
23E13
330
1D8C5
100
AcDbEntity
  8
DEFPOINTS
 62
     0
 48
50.0
100
AcDbPoint
 10
11639.5
 20
7139.439548732117
 30
0.0
  0
POINT
  5
23E14
330
1D8C5
100
AcDbEntity
  8
DEFPOINTS
 62
     0
 48
50.0
100
AcDbPoint
 10
11989.50000000001
 20
7139.439548732108
 30
0.0
  0
POINT
  5
23E15
330
1D8C5
100
AcDbEntity
  8
DEFPOINTS
 62
     0
 48
50.0
100
AcDbPoint
 10
11989.50000000001
 20
6850.88997162871
 30
0.0
  0
ENDBLK
  5
1D8D0
330
1D8C5
100
AcDbEntity
  8
0
 48
50.0
100
AcDbBlockEnd
  0
BLOCK
  5
1D8DC
330
1D8D1
100
AcDbEntity
  8
0
 48
50.0
100
AcDbBlockBegin
  2
*D19
 70
     1
 10
0.0
 20
0.0
 30
0.0
  3
*D19
  1

  0
LINE
  5
23DE4
330
1D8D1
100
AcDbEntity
  8
寸法
 62
     0
 48
50.0
370
    -2
100
AcDbLine
 10
12014.5
 20
7139.439548732117
 30
0.0
 11
12417.09093176127
 21
7139.439548732117
 31
0.0
  0
LINE
  5
23DE5
330
1D8D1
100
AcDbEntity
  8
寸法
 62
     0
 48
50.0
370
    -2
100
AcDbLine
 10
12014.5
 20
7489.439548732118
 30
0.0
 11
12417.09093176127
 21
7489.439548732118
 31
0.0
  0
LINE
  5
23DE6
330
1D8D1
100
AcDbEntity
  8
寸法
 62
     0
 48
50.0
370
    -2
100
AcDbLine
 10
12342.09093176128
 20
7489.439548732118
 30
0.0
 11
12342.09093176128
 21
7139.439548732117
 31
0.0
  0
LINE
  5
23DE7
330
1D8D1
100
AcDbEntity
  8
寸法
 62
     0
 48
50.0
370
    -2
100
AcDbLine
 10
12342.09093176128
 20
7139.439548732117
 30
0.0
 11
12342.09093176128
 21
6694.321438495896
 31
0.0
  0
INSERT
  5
23DE8
330
1D8D1
100
AcDbEntity
  8
寸法
 62
     0
 48
50.0
370
    -2
100
AcDbBlockReference
  2
_DOTSMALL
 10
12342.09093176128
 20
7489.439548732118
 30
0.0
 41
125.0
 42
125.0
 43
125.0
 50
90.0
  0
INSERT
  5
23DE9
330
1D8D1
100
AcDbEntity
  8
寸法
 62
     0
 48
50.0
370
    -2
100
AcDbBlockReference
  2
_DOTSMALL
 10
12342.09093176128
 20
7139.439548732117
 30
0.0
 41
125.0
 42
125.0
 43
125.0
 50
270.0
  0
MTEXT
  5
23DEA
330
1D8D1
100
AcDbEntity
  8
寸法
 62
     7
 48
50.0
100
AcDbMText
 10
12242.09093176127
 20
6854.380493614009
 30
0.0
 40
150.0
 41
0.0
 71
     5
 72
     1
  1
\A1;350
  7
STYLE1
 11
0.0000000000000001
 21
1.0
 31
0.0
 73
     1
 44
1.0
1001
ACAD
1000
MTEXTBEGIN
1070
    73
1070
     1
1070
    44
1040
1.0
1070
    74
1070
     0
1000
MTEXTEND
  0
POINT
  5
23DEB
330
1D8D1
100
AcDbEntity
  8
DEFPOINTS
 62
     0
 48
50.0
100
AcDbPoint
 10
11989.5
 20
7139.439548732117
 30
0.0
  0
POINT
  5
23DEC
330
1D8D1
100
AcDbEntity
  8
DEFPOINTS
 62
     0
 48
50.0
100
AcDbPoint
 10
11989.5
 20
7489.439548732118
 30
0.0
  0
POINT
  5
23DED
330
1D8D1
100
AcDbEntity
  8
DEFPOINTS
 62
     0
 48
50.0
100
AcDbPoint
 10
12342.09093176128
 20
7489.439548732118
 30
0.0
  0
ENDBLK
  5
1D8DD
330
1D8D1
100
AcDbEntity
  8
0
 48
50.0
100
AcDbBlockEnd
  0
BLOCK
  5
1D8E9
330
1D8DE
100
AcDbEntity
  8
0
 48
50.0
100
AcDbBlockBegin
  2
*D20
 70
     1
 10
0.0
 20
0.0
 30
0.0
  3
*D20
  1

  0
LINE
  5
23DBD
330
1D8DE
100
AcDbEntity
  8
寸法
 62
     0
 48
50.0
370
    -2
100
AcDbLine
 10
11834.5
 20
10799.43954873211
 30
0.0
 11
13335.92407367217
 21
10799.4395487321
 31
0.0
  0
LINE
  5
23DBE
330
1D8DE
100
AcDbEntity
  8
寸法
 62
     0
 48
50.0
370
    -2
100
AcDbLine
 10
11809.5
 20
10749.4395487321
 30
0.0
 11
13335.92407367217
 21
10749.4395487321
 31
0.0
  0
LINE
  5
23DBF
330
1D8DE
100
AcDbEntity
  8
寸法
 62
     0
 48
50.0
370
    -2
100
AcDbLine
 10
13260.92407367217
 20
10749.4395487321
 30
0.0
 11
13260.92407367217
 21
10799.4395487321
 31
0.0
  0
LINE
  5
23DC0
330
1D8DE
100
AcDbEntity
  8
寸法
 62
     0
 48
50.0
370
    -2
100
AcDbLine
 10
13260.92407367217
 20
10799.4395487321
 30
0.0
 11
13260.92407367217
 21
11277.36811477534
 31
0.0
  0
INSERT
  5
23DC1
330
1D8DE
100
AcDbEntity
  8
寸法
 62
     0
 48
50.0
370
    -2
100
AcDbBlockReference
  2
_DOTSMALL
 10
13260.92407367217
 20
10749.4395487321
 30
0.0
 41
125.0
 42
125.0
 43
125.0
 50
270.0
  0
INSERT
  5
23DC2
330
1D8DE
100
AcDbEntity
  8
寸法
 62
     0
 48
50.0
370
    -2
100
AcDbBlockReference
  2
_DOTSMALL
 10
13260.92407367217
 20
10799.4395487321
 30
0.0
 41
125.0
 42
125.0
 43
125.0
 50
90.0
  0
MTEXT
  5
23DC3
330
1D8DE
100
AcDbEntity
  8
寸法
 62
     7
 48
50.0
100
AcDbMText
 10
13160.92407367217
 20
11169.80905965724
 30
0.0
 40
150.0
 41
0.0
 71
     5
 72
     1
  1
\A1;50
  7
STYLE1
 11
0.0000000000000001
 21
1.0
 31
0.0
 73
     1
 44
1.0
1001
ACAD
1000
MTEXTBEGIN
1070
    73
1070
     1
1070
    44
1040
1.0
1070
    74
1070
     0
1000
MTEXTEND
  0
POINT
  5
23DC4
330
1D8DE
100
AcDbEntity
  8
DEFPOINTS
 62
     0
 48
50.0
100
AcDbPoint
 10
11809.5
 20
10799.43954873211
 30
0.0
  0
POINT
  5
23DC5
330
1D8DE
100
AcDbEntity
  8
DEFPOINTS
 62
     0
 48
50.0
100
AcDbPoint
 10
11784.5
 20
10749.4395487321
 30
0.0
  0
POINT
  5
23DC6
330
1D8DE
100
AcDbEntity
  8
DEFPOINTS
 62
     0
 48
50.0
100
AcDbPoint
 10
13260.92407367217
 20
10749.4395487321
 30
0.0
  0
ENDBLK
  5
1D8EA
330
1D8DE
100
AcDbEntity
  8
0
 48
50.0
100
AcDbBlockEnd
  0
BLOCK
  5
1E150
330
1E144
100
AcDbEntity
  8
0
 48
50.0
100
AcDbBlockBegin
  2
*D21
 70
     1
 10
0.0
 20
0.0
 30
0.0
  3
*D21
  1

  0
LINE
  5
23E03
330
1E144
100
AcDbEntity
  8
寸法
 62
     0
 48
50.0
370
    -2
100
AcDbLine
 10
10751.15417150804
 20
7489.439548732107
 30
0.0
 11
10879.25310699717
 21
7489.439548732107
 31
0.0
  0
LINE
  5
23E04
330
1E144
100
AcDbEntity
  8
寸法
 62
     0
 48
50.0
370
    -2
100
AcDbLine
 10
10751.15417150804
 20
7319.439548732107
 30
0.0
 11
10879.25310699717
 21
7319.439548732107
 31
0.0
  0
LINE
  5
23E05
330
1E144
100
AcDbEntity
  8
寸法
 62
     0
 48
50.0
370
    -2
100
AcDbLine
 10
10804.25310699717
 20
7489.439548732107
 30
0.0
 11
10804.25310699717
 21
7319.439548732107
 31
0.0
  0
LINE
  5
23E06
330
1E144
100
AcDbEntity
  8
寸法
 62
     0
 48
50.0
370
    -2
100
AcDbLine
 10
10804.25310699717
 20
7319.439548732107
 30
0.0
 11
10804.25310699717
 21
6904.321438495887
 31
0.0
  0
INSERT
  5
23E07
330
1E144
100
AcDbEntity
  8
寸法
 62
     0
 48
50.0
370
    -2
100
AcDbBlockReference
  2
_DOTSMALL
 10
10804.25310699717
 20
7489.439548732107
 30
0.0
 41
125.0
 42
125.0
 43
125.0
 50
90.0
  0
INSERT
  5
23E08
330
1E144
100
AcDbEntity
  8
寸法
 62
     0
 48
50.0
370
    -2
100
AcDbBlockReference
  2
_DOTSMALL
 10
10804.25310699717
 20
7319.439548732107
 30
0.0
 41
125.0
 42
125.0
 43
125.0
 50
270.0
  0
MTEXT
  5
23E09
330
1E144
100
AcDbEntity
  8
寸法
 62
     7
 48
50.0
100
AcDbMText
 10
10704.25310699717
 20
7049.380493613999
 30
0.0
 40
150.0
 41
0.0
 71
     5
 72
     1
  1
\A1;170
  7
STYLE1
 11
0.0000000000000001
 21
1.0
 31
0.0
 73
     1
 44
1.0
1001
ACAD
1000
MTEXTBEGIN
1070
    73
1070
     1
1070
    44
1040
1.0
1070
    74
1070
     0
1000
MTEXTEND
  0
POINT
  5
23E0A
330
1E144
100
AcDbEntity
  8
DEFPOINTS
 62
     0
 48
50.0
100
AcDbPoint
 10
10726.15417150804
 20
7489.439548732107
 30
0.0
  0
POINT
  5
23E0B
330
1E144
100
AcDbEntity
  8
DEFPOINTS
 62
     0
 48
50.0
100
AcDbPoint
 10
10726.15417150804
 20
7319.439548732107
 30
0.0
  0
POINT
  5
23E0C
330
1E144
100
AcDbEntity
  8
DEFPOINTS
 62
     0
 48
50.0
100
AcDbPoint
 10
10804.25310699717
 20
7319.439548732107
 30
0.0
  0
ENDBLK
  5
1E151
330
1E144
100
AcDbEntity
  8
0
 48
50.0
100
AcDbBlockEnd
  0
BLOCK
  5
1E534
330
1E52A
100
AcDbEntity
  8
0
 48
50.0
100
AcDbBlockBegin
  2
*D22
 70
     1
 10
0.0
 20
0.0
 30
0.0
  3
*D22
  1

  0
LINE
  5
23CFE
330
1E52A
100
AcDbEntity
  8
寸法
 62
     0
 48
50.0
370
    -2
100
AcDbLine
 10
11828.43794005427
 20
10783.11918027728
 30
0.0
 11
12208.32800253823
 21
10455.73691091251
 31
0.0
  0
LINE
  5
23CFF
330
1E52A
100
AcDbEntity
  8
寸法
 62
     0
 48
50.0
370
    -2
100
AcDbLine
 10
8829.437940054271
 20
7303.119180277295
 30
0.0
 11
9209.328002538233
 21
6975.736910912525
 31
0.0
  0
LINE
  5
23D00
330
1E52A
100
AcDbEntity
  8
寸法
 62
     0
 48
50.0
370
    -2
100
AcDbLine
 10
12151.51418237542
 20
10504.69801627695
 30
0.0
 11
9152.514182375425
 21
7024.698016276968
 31
0.0
  0
INSERT
  5
23D01
330
1E52A
100
AcDbEntity
  8
寸法
 62
     0
 48
50.0
370
    -2
100
AcDbBlockReference
  2
_DOTSMALL
 10
12151.51418237542
 20
10504.69801627695
 30
0.0
 41
125.0
 42
125.0
 43
125.0
 50
49.2458412164716
  0
INSERT
  5
23D02
330
1E52A
100
AcDbEntity
  8
寸法
 62
     0
 48
50.0
370
    -2
100
AcDbBlockReference
  2
_DOTSMALL
 10
9152.514182375425
 20
7024.698016276968
 30
0.0
 41
125.0
 42
125.0
 43
125.0
 50
229.2458412164716
  0
MTEXT
  5
23D03
330
1E52A
100
AcDbEntity
  8
寸法
 62
     7
 48
50.0
100
AcDbMText
 10
10576.26242215834
 20
8829.979490096215
 30
0.0
 40
150.0
 41
0.0
 71
     5
 72
     1
  1
\A1;4594
  7
STYLE1
 11
0.6528147381925747
 21
0.7575176021707748
 31
0.0
 73
     1
 44
1.0
1001
ACAD
1000
MTEXTBEGIN
1070
    73
1070
     1
1070
    44
1040
1.0
1070
    74
1070
     0
1000
MTEXTEND
  0
POINT
  5
23D04
330
1E52A
100
AcDbEntity
  8
DEFPOINTS
 62
     0
 48
50.0
100
AcDbPoint
 10
11809.5
 20
10799.4395487321
 30
0.0
  0
POINT
  5
23D05
330
1E52A
100
AcDbEntity
  8
DEFPOINTS
 62
     0
 48
50.0
100
AcDbPoint
 10
8810.500000000002
 20
7319.439548732109
 30
0.0
  0
POINT
  5
23D06
330
1E52A
100
AcDbEntity
  8
DEFPOINTS
 62
     0
 48
50.0
100
AcDbPoint
 10
9152.514182375425
 20
7024.698016276968
 30
0.0
  0
ENDBLK
  5
1E535
330
1E52A
100
AcDbEntity
  8
0
 48
50.0
100
AcDbBlockEnd
  0
BLOCK
  5
1EE72
330
1EE69
100
AcDbEntity
  8
0
 48
50.0
100
AcDbBlockBegin
  2
*D23
 70
     1
 10
0.0
 20
0.0
 30
0.0
  3
*D23
  1

  0
LINE
  5
23D83
330
1EE69
100
AcDbEntity
  8
寸法
 62
     0
 48
50.0
370
    -2
100
AcDbLine
 10
9552.500000000376
 20
9689.439548732094
 30
0.0
 11
9552.500000000376
 21
9350.296432230978
 31
0.0
  0
LINE
  5
23D84
330
1EE69
100
AcDbEntity
  8
寸法
 62
     0
 48
50.0
370
    -2
100
AcDbLine
 10
8749.500000000372
 20
9653.317290447777
 30
0.0
 11
8749.500000000372
 21
9350.296432230978
 31
0.0
  0
LINE
  5
23D85
330
1EE69
100
AcDbEntity
  8
寸法
 62
     0
 48
50.0
370
    -2
100
AcDbLine
 10
9552.500000000376
 20
9425.296432230977
 30
0.0
 11
8749.500000000372
 21
9425.296432230977
 31
0.0
  0
INSERT
  5
23D86
330
1EE69
100
AcDbEntity
  8
寸法
 62
     0
 48
50.0
370
    -2
100
AcDbBlockReference
  2
_DOTSMALL
 10
9552.500000000376
 20
9425.296432230977
 30
0.0
 41
125.0
 42
125.0
 43
125.0
  0
INSERT
  5
23D87
330
1EE69
100
AcDbEntity
  8
寸法
 62
     0
 48
50.0
370
    -2
100
AcDbBlockReference
  2
_DOTSMALL
 10
8749.500000000372
 20
9425.296432230977
 30
0.0
 41
125.0
 42
125.0
 43
125.0
 50
180.0
  0
MTEXT
  5
23D88
330
1EE69
100
AcDbEntity
  8
寸法
 62
     7
 48
50.0
100
AcDbMText
 10
9151.000000000374
 20
9525.296432230978
 30
0.0
 40
150.0
 41
0.0
 71
     5
 72
     1
  1
\A1;803
  7
STYLE1
 73
     1
 44
1.0
1001
ACAD
1000
MTEXTBEGIN
1070
    73
1070
     1
1070
    44
1040
1.0
1070
    74
1070
     0
1000
MTEXTEND
  0
POINT
  5
23D89
330
1EE69
100
AcDbEntity
  8
DEFPOINTS
 62
     0
 48
50.0
100
AcDbPoint
 10
9552.500000000376
 20
9714.439548732094
 30
0.0
  0
POINT
  5
23D8A
330
1EE69
100
AcDbEntity
  8
DEFPOINTS
 62
     0
 48
50.0
100
AcDbPoint
 10
8749.500000000372
 20
9678.317290447777
 30
0.0
  0
POINT
  5
23D8B
330
1EE69
100
AcDbEntity
  8
DEFPOINTS
 62
     0
 48
50.0
100
AcDbPoint
 10
8749.500000000372
 20
9425.296432230977
 30
0.0
  0
ENDBLK
  5
1EE73
330
1EE69
100
AcDbEntity
  8
0
 48
50.0
100
AcDbBlockEnd
  0
BLOCK
  5
1EE7D
330
1EE74
100
AcDbEntity
  8
0
 48
50.0
100
AcDbBlockBegin
  2
*D24
 70
     1
 10
0.0
 20
0.0
 30
0.0
  3
*D24
  1

  0
LINE
  5
23CF5
330
1EE74
100
AcDbEntity
  8
寸法
 62
     0
 48
50.0
370
    -2
100
AcDbLine
 10
11006.50000000037
 20
9540.439548732072
 30
0.0
 11
11006.50000000037
 21
9350.296432230978
 31
0.0
  0
LINE
  5
23CF6
330
1EE74
100
AcDbEntity
  8
寸法
 62
     0
 48
50.0
370
    -2
100
AcDbLine
 10
10279.50000000037
 20
9689.439548732094
 30
0.0
 11
10279.50000000037
 21
9350.296432230978
 31
0.0
  0
LINE
  5
23CF7
330
1EE74
100
AcDbEntity
  8
寸法
 62
     0
 48
50.0
370
    -2
100
AcDbLine
 10
11006.50000000037
 20
9425.296432230977
 30
0.0
 11
10279.50000000037
 21
9425.296432230977
 31
0.0
  0
INSERT
  5
23CF8
330
1EE74
100
AcDbEntity
  8
寸法
 62
     0
 48
50.0
370
    -2
100
AcDbBlockReference
  2
_DOTSMALL
 10
11006.50000000037
 20
9425.296432230977
 30
0.0
 41
125.0
 42
125.0
 43
125.0
  0
INSERT
  5
23CF9
330
1EE74
100
AcDbEntity
  8
寸法
 62
     0
 48
50.0
370
    -2
100
AcDbBlockReference
  2
_DOTSMALL
 10
10279.50000000037
 20
9425.296432230977
 30
0.0
 41
125.0
 42
125.0
 43
125.0
 50
180.0
  0
MTEXT
  5
23CFA
330
1EE74
100
AcDbEntity
  8
寸法
 62
     7
 48
50.0
100
AcDbMText
 10
10643.00000000037
 20
9525.311196010505
 30
0.0
 40
150.0
 41
0.0
 71
     5
 72
     1
  1
\A1;727
  7
STYLE1
 73
     1
 44
1.0
1001
ACAD
1000
MTEXTBEGIN
1070
    73
1070
     1
1070
    44
1040
1.0
1070
    74
1070
     0
1000
MTEXTEND
  0
POINT
  5
23CFB
330
1EE74
100
AcDbEntity
  8
DEFPOINTS
 62
     0
 48
50.0
100
AcDbPoint
 10
11006.50000000037
 20
9565.439548732072
 30
0.0
  0
POINT
  5
23CFC
330
1EE74
100
AcDbEntity
  8
DEFPOINTS
 62
     0
 48
50.0
100
AcDbPoint
 10
10279.50000000037
 20
9714.439548732094
 30
0.0
  0
POINT
  5
23CFD
330
1EE74
100
AcDbEntity
  8
DEFPOINTS
 62
     0
 48
50.0
100
AcDbPoint
 10
10279.50000000037
 20
9425.296432230977
 30
0.0
  0
ENDBLK
  5
1EE7E
330
1EE74
100
AcDbEntity
  8
0
 48
50.0
100
AcDbBlockEnd
  0
BLOCK
  5
1EE88
330
1EE7F
100
AcDbEntity
  8
0
 48
50.0
100
AcDbBlockBegin
  2
*D25
 70
     1
 10
0.0
 20
0.0
 30
0.0
  3
*D25
  1

  0
LINE
  5
23D95
330
1EE7F
100
AcDbEntity
  8
寸法
 62
     0
 48
50.0
370
    -2
100
AcDbLine
 10
10279.50000000037
 20
9689.439548732094
 30
0.0
 11
10279.50000000037
 21
9350.296432230978
 31
0.0
  0
LINE
  5
23D96
330
1EE7F
100
AcDbEntity
  8
寸法
 62
     0
 48
50.0
370
    -2
100
AcDbLine
 10
9552.500000000376
 20
9689.439548732094
 30
0.0
 11
9552.500000000376
 21
9350.296432230978
 31
0.0
  0
LINE
  5
23D97
330
1EE7F
100
AcDbEntity
  8
寸法
 62
     0
 48
50.0
370
    -2
100
AcDbLine
 10
10279.50000000037
 20
9425.296432230977
 30
0.0
 11
9552.500000000376
 21
9425.296432230977
 31
0.0
  0
INSERT
  5
23D98
330
1EE7F
100
AcDbEntity
  8
寸法
 62
     0
 48
50.0
370
    -2
100
AcDbBlockReference
  2
_DOTSMALL
 10
10279.50000000037
 20
9425.296432230977
 30
0.0
 41
125.0
 42
125.0
 43
125.0
  0
INSERT
  5
23D99
330
1EE7F
100
AcDbEntity
  8
寸法
 62
     0
 48
50.0
370
    -2
100
AcDbBlockReference
  2
_DOTSMALL
 10
9552.500000000376
 20
9425.296432230977
 30
0.0
 41
125.0
 42
125.0
 43
125.0
 50
180.0
  0
MTEXT
  5
23D9A
330
1EE7F
100
AcDbEntity
  8
寸法
 62
     7
 48
50.0
100
AcDbMText
 10
10067.55775307193
 20
9525.311196010505
 30
0.0
 40
150.0
 41
0.0
 71
     5
 72
     1
  1
\A1;727
  7
STYLE1
 73
     1
 44
1.0
1001
ACAD
1000
MTEXTBEGIN
1070
    73
1070
     1
1070
    44
1040
1.0
1070
    74
1070
     0
1000
MTEXTEND
  0
POINT
  5
23D9B
330
1EE7F
100
AcDbEntity
  8
DEFPOINTS
 62
     0
 48
50.0
100
AcDbPoint
 10
10279.50000000037
 20
9714.439548732094
 30
0.0
  0
POINT
  5
23D9C
330
1EE7F
100
AcDbEntity
  8
DEFPOINTS
 62
     0
 48
50.0
100
AcDbPoint
 10
9552.500000000376
 20
9714.439548732094
 30
0.0
  0
POINT
  5
23D9D
330
1EE7F
100
AcDbEntity
  8
DEFPOINTS
 62
     0
 48
50.0
100
AcDbPoint
 10
9552.500000000376
 20
9425.296432230977
 30
0.0
  0
ENDBLK
  5
1EE89
330
1EE7F
100
AcDbEntity
  8
0
 48
50.0
100
AcDbBlockEnd
  0
BLOCK
  5
1EEB4
330
1EEAB
100
AcDbEntity
  8
0
 48
50.0
100
AcDbBlockBegin
  2
*D26
 70
     1
 10
0.0
 20
0.0
 30
0.0
  3
*D26
  1

  0
LINE
  5
23E20
330
1EEAB
100
AcDbEntity
  8
寸法
 62
     0
 48
50.0
370
    -2
100
AcDbLine
 10
11809.50000000037
 20
9579.439548732098
 30
0.0
 11
11809.50000000037
 21
9350.296432230978
 31
0.0
  0
LINE
  5
23E21
330
1EEAB
100
AcDbEntity
  8
寸法
 62
     0
 48
50.0
370
    -2
100
AcDbLine
 10
11006.50000000037
 20
9689.439548732094
 30
0.0
 11
11006.50000000037
 21
9350.296432230978
 31
0.0
  0
LINE
  5
23E22
330
1EEAB
100
AcDbEntity
  8
寸法
 62
     0
 48
50.0
370
    -2
100
AcDbLine
 10
11809.50000000037
 20
9425.296432230977
 30
0.0
 11
11006.50000000037
 21
9425.296432230977
 31
0.0
  0
INSERT
  5
23E23
330
1EEAB
100
AcDbEntity
  8
寸法
 62
     0
 48
50.0
370
    -2
100
AcDbBlockReference
  2
_DOTSMALL
 10
11809.50000000037
 20
9425.296432230977
 30
0.0
 41
125.0
 42
125.0
 43
125.0
  0
INSERT
  5
23E24
330
1EEAB
100
AcDbEntity
  8
寸法
 62
     0
 48
50.0
370
    -2
100
AcDbBlockReference
  2
_DOTSMALL
 10
11006.50000000037
 20
9425.296432230977
 30
0.0
 41
125.0
 42
125.0
 43
125.0
 50
180.0
  0
MTEXT
  5
23E25
330
1EEAB
100
AcDbEntity
  8
寸法
 62
     7
 48
50.0
100
AcDbMText
 10
11408.00000000037
 20
9525.296432230978
 30
0.0
 40
150.0
 41
0.0
 71
     5
 72
     1
  1
\A1;803
  7
STYLE1
 73
     1
 44
1.0
1001
ACAD
1000
MTEXTBEGIN
1070
    73
1070
     1
1070
    44
1040
1.0
1070
    74
1070
     0
1000
MTEXTEND
  0
POINT
  5
23E26
330
1EEAB
100
AcDbEntity
  8
DEFPOINTS
 62
     0
 48
50.0
100
AcDbPoint
 10
11809.50000000037
 20
9604.439548732099
 30
0.0
  0
POINT
  5
23E27
330
1EEAB
100
AcDbEntity
  8
DEFPOINTS
 62
     0
 48
50.0
100
AcDbPoint
 10
11006.50000000037
 20
9714.439548732094
 30
0.0
  0
POINT
  5
23E28
330
1EEAB
100
AcDbEntity
  8
DEFPOINTS
 62
     0
 48
50.0
100
AcDbPoint
 10
11006.50000000037
 20
9425.296432230977
 30
0.0
  0
ENDBLK
  5
1EEB5
330
1EEAB
100
AcDbEntity
  8
0
 48
50.0
100
AcDbBlockEnd
  0
BLOCK
  5
2178D
330
21783
100
AcDbEntity
  8
0
 48
50.0
100
AcDbBlockBegin
  2
*D27
 70
     1
 10
0.0
 20
0.0
 30
0.0
  3
*D27
  1

  0
LINE
  5
238C5
330
21783
100
AcDbEntity
  8
寸法
 62
     0
 48
50.0
370
    -2
100
AcDbLine
 10
14736.90298830823
 20
2005.89363697215
 30
0.0
 11
14142.69557878274
 21
2005.89363697215
 31
0.0
  0
LINE
  5
238C6
330
21783
100
AcDbEntity
  8
寸法
 62
     0
 48
50.0
370
    -2
100
AcDbLine
 10
14735.2198591847
 20
1868.39363697215
 30
0.0
 11
14142.69557878274
 21
1868.39363697215
 31
0.0
  0
LINE
  5
238C7
330
21783
100
AcDbEntity
  8
寸法
 62
     0
 48
50.0
370
    -2
100
AcDbLine
 10
14177.69557878274
 20
2005.89363697215
 30
0.0
 11
14177.69557878274
 21
1868.39363697215
 31
0.0
  0
MTEXT
  5
238C8
330
21783
100
AcDbEntity
  8
寸法
 62
     7
 48
50.0
100
AcDbMText
 10
14041.67367893307
 20
1944.098288442
 30
0.0
 40
150.0
 41
0.0
 71
     5
 72
     1
  1
\A1;55
  7
STYLE1
 11
0.0000000000000001
 21
1.0
 31
0.0
 73
     1
 44
1.0
1001
ACAD
1000
MTEXTBEGIN
1070
    73
1070
     1
1070
    44
1040
1.0
1070
    74
1070
     0
1000
MTEXTEND
  0
INSERT
  5
238C9
330
21783
100
AcDbEntity
  8
寸法
 62
     0
 48
50.0
370
    -2
100
AcDbBlockReference
  2
_DOTSMALL
 10
14177.69557878274
 20
2005.89363697215
 30
0.0
 41
125.0
 42
125.0
 43
125.0
 50
90.0
  0
INSERT
  5
238CA
330
21783
100
AcDbEntity
  8
寸法
 62
     0
 48
50.0
370
    -2
100
AcDbBlockReference
  2
_DOTSMALL
 10
14177.69557878274
 20
1868.39363697215
 30
0.0
 41
125.0
 42
125.0
 43
125.0
 50
270.0
  0
POINT
  5
238CB
330
21783
100
AcDbEntity
  8
DEFPOINTS
 62
     0
 48
50.0
100
AcDbPoint
 10
14761.90298830823
 20
2005.89363697215
 30
0.0
  0
POINT
  5
238CC
330
21783
100
AcDbEntity
  8
DEFPOINTS
 62
     0
 48
50.0
100
AcDbPoint
 10
14760.2198591847
 20
1868.39363697215
 30
0.0
  0
POINT
  5
238CD
330
21783
100
AcDbEntity
  8
DEFPOINTS
 62
     0
 48
50.0
100
AcDbPoint
 10
14177.69557878274
 20
1868.39363697215
 30
0.0
  0
ENDBLK
  5
2178E
330
21783
100
AcDbEntity
  8
0
 48
50.0
100
AcDbBlockEnd
  0
BLOCK
  5
217B4
330
217AA
100
AcDbEntity
  8
0
 48
50.0
100
AcDbBlockBegin
  2
*D28
 70
     1
 10
0.0
 20
0.0
 30
0.0
  3
*D28
  1

  0
LINE
  5
23881
330
217AA
100
AcDbEntity
  8
寸法
 62
     0
 48
50.0
370
    -2
100
AcDbLine
 10
11999.53058465187
 20
2722.738285487482
 30
0.0
 11
12674.91424671998
 21
2722.738285487482
 31
0.0
  0
LINE
  5
23882
330
217AA
100
AcDbEntity
  8
寸法
 62
     0
 48
50.0
370
    -2
100
AcDbLine
 10
11277.81013815939
 20
1847.738285487482
 30
0.0
 11
12674.91424671998
 21
1847.738285487482
 31
0.0
  0
LINE
  5
23883
330
217AA
100
AcDbEntity
  8
寸法
 62
     0
 48
50.0
370
    -2
100
AcDbLine
 10
12639.91424671998
 20
2722.738285487482
 30
0.0
 11
12639.91424671998
 21
1847.738285487482
 31
0.0
  0
MTEXT
  5
23884
330
217AA
100
AcDbEntity
  8
寸法
 62
     7
 48
50.0
100
AcDbMText
 10
12400.41581272423
 20
2317.143588555231
 30
0.0
 40
150.0
 41
0.0
 71
     5
 72
     1
  1
\A1;基礎天ヨリ\P350
  7
STYLE1
 11
0.0000000000000001
 21
1.0
 31
0.0
 73
     1
 44
1.0
1001
ACAD
1000
MTEXTBEGIN
1070
    73
1070
     1
1070
    44
1040
1.0
1070
    74
1070
     0
1000
MTEXTEND
  0
INSERT
  5
23885
330
217AA
100
AcDbEntity
  8
寸法
 62
     0
 48
50.0
370
    -2
100
AcDbBlockReference
  2
_DOTSMALL
 10
12639.91424671998
 20
2722.738285487482
 30
0.0
 41
125.0
 42
125.0
 43
125.0
 50
90.0
  0
INSERT
  5
23886
330
217AA
100
AcDbEntity
  8
寸法
 62
     0
 48
50.0
370
    -2
100
AcDbBlockReference
  2
_DOTSMALL
 10
12639.91424671998
 20
1847.738285487482
 30
0.0
 41
125.0
 42
125.0
 43
125.0
 50
270.0
  0
POINT
  5
23887
330
217AA
100
AcDbEntity
  8
DEFPOINTS
 62
     0
 48
50.0
100
AcDbPoint
 10
11974.53058465187
 20
2722.738285487482
 30
0.0
  0
POINT
  5
23888
330
217AA
100
AcDbEntity
  8
DEFPOINTS
 62
     0
 48
50.0
100
AcDbPoint
 10
11252.81013815939
 20
1847.738285487482
 30
0.0
  0
POINT
  5
23889
330
217AA
100
AcDbEntity
  8
DEFPOINTS
 62
     0
 48
50.0
100
AcDbPoint
 10
12639.91424671998
 20
1847.738285487482
 30
0.0
  0
ENDBLK
  5
217B5
330
217AA
100
AcDbEntity
  8
0
 48
50.0
100
AcDbBlockEnd
  0
BLOCK
  5
217C0
330
217B6
100
AcDbEntity
  8
0
 48
50.0
100
AcDbBlockBegin
  2
*D29
 70
     1
 10
0.0
 20
0.0
 30
0.0
  3
*D29
  1

  0
LINE
  5
2388A
330
217B6
100
AcDbEntity
  8
寸法
 62
     0
 48
50.0
370
    -2
100
AcDbLine
 10
10652.81013815939
 20
1372.73828548748
 30
0.0
 11
10652.81013815939
 21
986.4350246737712
 31
0.0
  0
LINE
  5
2388B
330
217B6
100
AcDbEntity
  8
寸法
 62
     0
 48
50.0
370
    -2
100
AcDbLine
 10
11527.81013815938
 20
1372.738285487483
 30
0.0
 11
11527.81013815938
 21
986.4350246737712
 31
0.0
  0
LINE
  5
2388C
330
217B6
100
AcDbEntity
  8
寸法
 62
     0
 48
50.0
370
    -2
100
AcDbLine
 10
10652.81013815939
 20
1021.435024673771
 30
0.0
 11
11527.81013815938
 21
1021.435024673771
 31
0.0
  0
INSERT
  5
2388D
330
217B6
100
AcDbEntity
  8
寸法
 62
     0
 48
50.0
370
    -2
100
AcDbBlockReference
  2
_DOTSMALL
 10
10652.81013815939
 20
1021.435024673771
 30
0.0
 41
125.0
 42
125.0
 43
125.0
 50
180.0
  0
INSERT
  5
2388E
330
217B6
100
AcDbEntity
  8
寸法
 62
     0
 48
50.0
370
    -2
100
AcDbBlockReference
  2
_DOTSMALL
 10
11527.81013815938
 20
1021.435024673771
 30
0.0
 41
125.0
 42
125.0
 43
125.0
  0
MTEXT
  5
2388F
330
217B6
100
AcDbEntity
  8
寸法
 62
     7
 48
50.0
100
AcDbMText
 10
11090.31013815938
 20
1121.435024673771
 30
0.0
 40
150.0
 41
0.0
 71
     5
 72
     1
  1
\A1;\U+25A1350
  7
STYLE1
 73
     1
 44
1.0
1001
ACAD
1000
MTEXTBEGIN
1070
    73
1070
     1
1070
    44
1040
1.0
1070
    74
1070
     0
1000
MTEXTEND
  0
POINT
  5
23890
330
217B6
100
AcDbEntity
  8
DEFPOINTS
 62
     0
 48
50.0
100
AcDbPoint
 10
10652.81013815939
 20
1397.73828548748
 30
0.0
  0
POINT
  5
23891
330
217B6
100
AcDbEntity
  8
DEFPOINTS
 62
     0
 48
50.0
100
AcDbPoint
 10
11527.81013815938
 20
1397.738285487483
 30
0.0
  0
POINT
  5
23892
330
217B6
100
AcDbEntity
  8
DEFPOINTS
 62
     0
 48
50.0
100
AcDbPoint
 10
11527.81013815938
 20
1021.435024673771
 30
0.0
  0
ENDBLK
  5
217C1
330
217B6
100
AcDbEntity
  8
0
 48
50.0
100
AcDbBlockEnd
  0
BLOCK
  5
217DA
330
217D0
100
AcDbEntity
  8
0
 48
50.0
100
AcDbBlockBegin
  2
*D30
 70
     1
 10
0.0
 20
0.0
 30
0.0
  3
*D30
  1

  0
LINE
  5
23878
330
217D0
100
AcDbEntity
  8
寸法
 62
     0
 48
50.0
370
    -2
100
AcDbLine
 10
14266.4698591847
 20
1405.893636972149
 30
0.0
 11
13754.66023036435
 21
1405.89363697215
 31
0.0
  0
LINE
  5
23879
330
217D0
100
AcDbEntity
  8
寸法
 62
     0
 48
50.0
370
    -2
100
AcDbLine
 10
13912.83995327123
 20
2280.89363697215
 30
0.0
 11
13754.66023036435
 21
2280.89363697215
 31
0.0
  0
LINE
  5
2387A
330
217D0
100
AcDbEntity
  8
寸法
 62
     0
 48
50.0
370
    -2
100
AcDbLine
 10
13789.66023036435
 20
1405.89363697215
 30
0.0
 11
13789.66023036435
 21
2280.89363697215
 31
0.0
  0
INSERT
  5
2387B
330
217D0
100
AcDbEntity
  8
寸法
 62
     0
 48
50.0
370
    -2
100
AcDbBlockReference
  2
_DOTSMALL
 10
13789.66023036435
 20
1405.89363697215
 30
0.0
 41
125.0
 42
125.0
 43
125.0
 50
270.0
  0
INSERT
  5
2387C
330
217D0
100
AcDbEntity
  8
寸法
 62
     0
 48
50.0
370
    -2
100
AcDbBlockReference
  2
_DOTSMALL
 10
13789.66023036435
 20
2280.89363697215
 30
0.0
 41
125.0
 42
125.0
 43
125.0
 50
90.0
  0
MTEXT
  5
2387D
330
217D0
100
AcDbEntity
  8
寸法
 62
     7
 48
50.0
100
AcDbMText
 10
13689.66023036435
 20
1843.393636972152
 30
0.0
 40
150.0
 41
0.0
 71
     5
 72
     1
  1
\A1;\U+25A1350穴
  7
STYLE1
 11
0.0000000000000001
 21
1.0
 31
0.0
 73
     1
 44
1.0
1001
ACAD
1000
MTEXTBEGIN
1070
    73
1070
     1
1070
    44
1040
1.0
1070
    74
1070
     0
1000
MTEXTEND
  0
POINT
  5
2387E
330
217D0
100
AcDbEntity
  8
DEFPOINTS
 62
     0
 48
50.0
100
AcDbPoint
 10
14291.4698591847
 20
1405.893636972149
 30
0.0
  0
POINT
  5
2387F
330
217D0
100
AcDbEntity
  8
DEFPOINTS
 62
     0
 48
50.0
100
AcDbPoint
 10
13937.83995327123
 20
2280.89363697215
 30
0.0
  0
POINT
  5
23880
330
217D0
100
AcDbEntity
  8
DEFPOINTS
 62
     0
 48
50.0
100
AcDbPoint
 10
13789.66023036435
 20
2280.89363697215
 30
0.0
  0
ENDBLK
  5
217DB
330
217D0
100
AcDbEntity
  8
0
 48
50.0
100
AcDbBlockEnd
  0
BLOCK
  5
217E6
330
217DC
100
AcDbEntity
  8
0
 48
50.0
100
AcDbBlockBegin
  2
*D31
 70
     1
 10
0.0
 20
0.0
 30
0.0
  3
*D31
  1

  0
LINE
  5
23841
330
217DC
100
AcDbEntity
  8
寸法
 62
     0
 48
50.0
370
    -2
100
AcDbLine
 10
5810.64728349413
 20
2747.738285487483
 30
0.0
 11
5810.64728349413
 21
3157.559024330065
 31
0.0
  0
LINE
  5
23842
330
217DC
100
AcDbEntity
  8
寸法
 62
     0
 48
50.0
370
    -2
100
AcDbLine
 10
5510.64728349413
 20
2747.738285487483
 30
0.0
 11
5510.64728349413
 21
3157.559024330065
 31
0.0
  0
LINE
  5
23843
330
217DC
100
AcDbEntity
  8
寸法
 62
     0
 48
50.0
370
    -2
100
AcDbLine
 10
5810.64728349413
 20
3122.559024330065
 30
0.0
 11
5510.64728349413
 21
3122.559024330065
 31
0.0
  0
INSERT
  5
23844
330
217DC
100
AcDbEntity
  8
寸法
 62
     0
 48
50.0
370
    -2
100
AcDbBlockReference
  2
_DOTSMALL
 10
5810.64728349413
 20
3122.559024330065
 30
0.0
 41
125.0
 42
125.0
 43
125.0
  0
INSERT
  5
23845
330
217DC
100
AcDbEntity
  8
寸法
 62
     0
 48
50.0
370
    -2
100
AcDbBlockReference
  2
_DOTSMALL
 10
5510.64728349413
 20
3122.559024330065
 30
0.0
 41
125.0
 42
125.0
 43
125.0
 50
180.0
  0
MTEXT
  5
23846
330
217DC
100
AcDbEntity
  8
寸法
 62
     7
 48
50.0
100
AcDbMText
 10
5660.647283494131
 20
3347.573788109592
 30
0.0
 40
150.0
 41
0.0
 71
     5
 72
     1
  1
\A1;120\P170
  7
STYLE1
 73
     1
 44
1.0
1001
ACAD
1000
MTEXTBEGIN
1070
    73
1070
     1
1070
    44
1040
1.0
1070
    74
1070
     0
1000
MTEXTEND
  0
POINT
  5
23847
330
217DC
100
AcDbEntity
  8
DEFPOINTS
 62
     0
 48
50.0
100
AcDbPoint
 10
5810.64728349413
 20
2722.738285487483
 30
0.0
  0
POINT
  5
23848
330
217DC
100
AcDbEntity
  8
DEFPOINTS
 62
     0
 48
50.0
100
AcDbPoint
 10
5510.64728349413
 20
2722.738285487483
 30
0.0
  0
POINT
  5
23849
330
217DC
100
AcDbEntity
  8
DEFPOINTS
 62
     0
 48
50.0
100
AcDbPoint
 10
5510.64728349413
 20
3122.559024330065
 30
0.0
  0
ENDBLK
  5
217E7
330
217DC
100
AcDbEntity
  8
0
 48
50.0
100
AcDbBlockEnd
  0
BLOCK
  5
217FF
330
217F5
100
AcDbEntity
  8
0
 48
50.0
100
AcDbBlockBegin
  2
*D32
 70
     1
 10
0.0
 20
0.0
 30
0.0
  3
*D32
  1

  0
LINE
  5
23853
330
217F5
100
AcDbEntity
  8
寸法
 62
     0
 48
50.0
370
    -2
100
AcDbLine
 10
5485.647283494131
 20
2722.738285487483
 30
0.0
 11
4242.153456647656
 21
2722.738285487484
 31
0.0
  0
LINE
  5
23854
330
217F5
100
AcDbEntity
  8
寸法
 62
     0
 48
50.0
370
    -2
100
AcDbLine
 10
5135.64728349413
 20
1372.738285487483
 30
0.0
 11
4242.153456647655
 21
1372.738285487483
 31
0.0
  0
LINE
  5
23855
330
217F5
100
AcDbEntity
  8
寸法
 62
     0
 48
50.0
370
    -2
100
AcDbLine
 10
4277.153456647656
 20
2722.738285487484
 30
0.0
 11
4277.153456647655
 21
1372.738285487483
 31
0.0
  0
INSERT
  5
23856
330
217F5
100
AcDbEntity
  8
寸法
 62
     0
 48
50.0
370
    -2
100
AcDbBlockReference
  2
_DOTSMALL
 10
4277.153456647656
 20
2722.738285487484
 30
0.0
 41
125.0
 42
125.0
 43
125.0
 50
90.0
  0
INSERT
  5
23857
330
217F5
100
AcDbEntity
  8
寸法
 62
     0
 48
50.0
370
    -2
100
AcDbBlockReference
  2
_DOTSMALL
 10
4277.153456647655
 20
1372.738285487483
 30
0.0
 41
125.0
 42
125.0
 43
125.0
 50
270.0
  0
MTEXT
  5
23858
330
217F5
100
AcDbEntity
  8
寸法
 62
     7
 48
50.0
100
AcDbMText
 10
4177.153456647656
 20
2047.738285487485
 30
0.0
 40
150.0
 41
0.0
 71
     5
 72
     1
  1
\A1;540
  7
STYLE1
 11
0.0000000000000001
 21
1.0
 31
0.0
 73
     1
 44
1.0
1001
ACAD
1000
MTEXTBEGIN
1070
    73
1070
     1
1070
    44
1040
1.0
1070
    74
1070
     0
1000
MTEXTEND
  0
POINT
  5
23859
330
217F5
100
AcDbEntity
  8
DEFPOINTS
 62
     0
 48
50.0
100
AcDbPoint
 10
5510.64728349413
 20
2722.738285487483
 30
0.0
  0
POINT
  5
2385A
330
217F5
100
AcDbEntity
  8
DEFPOINTS
 62
     0
 48
50.0
100
AcDbPoint
 10
5160.647283494131
 20
1372.738285487483
 30
0.0
  0
POINT
  5
2385B
330
217F5
100
AcDbEntity
  8
DEFPOINTS
 62
     0
 48
50.0
100
AcDbPoint
 10
4277.153456647655
 20
1372.738285487483
 30
0.0
  0
ENDBLK
  5
21800
330
217F5
100
AcDbEntity
  8
0
 48
50.0
100
AcDbBlockEnd
  0
BLOCK
  5
2180B
330
21801
100
AcDbEntity
  8
0
 48
50.0
100
AcDbBlockBegin
  2
*D33
 70
     1
 10
0.0
 20
0.0
 30
0.0
  3
*D33
  1

  0
LINE
  5
2385C
330
21801
100
AcDbEntity
  8
寸法
 62
     0
 48
50.0
370
    -2
100
AcDbLine
 10
6185.64728349413
 20
1372.738285487483
 30
0.0
 11
6659.385326591269
 21
1372.738285487483
 31
0.0
  0
LINE
  5
2385D
330
21801
100
AcDbEntity
  8
寸法
 62
     0
 48
50.0
370
    -2
100
AcDbLine
 10
6060.64728349413
 20
1747.738285487483
 30
0.0
 11
6659.385326591269
 21
1747.738285487483
 31
0.0
  0
LINE
  5
2385E
330
21801
100
AcDbEntity
  8
寸法
 62
     0
 48
50.0
370
    -2
100
AcDbLine
 10
6624.385326591269
 20
1372.738285487483
 30
0.0
 11
6624.385326591269
 21
1747.738285487483
 31
0.0
  0
INSERT
  5
2385F
330
21801
100
AcDbEntity
  8
寸法
 62
     0
 48
50.0
370
    -2
100
AcDbBlockReference
  2
_DOTSMALL
 10
6624.385326591269
 20
1372.738285487483
 30
0.0
 41
125.0
 42
125.0
 43
125.0
 50
270.0
  0
INSERT
  5
23860
330
21801
100
AcDbEntity
  8
寸法
 62
     0
 48
50.0
370
    -2
100
AcDbBlockReference
  2
_DOTSMALL
 10
6624.385326591269
 20
1747.738285487483
 30
0.0
 41
125.0
 42
125.0
 43
125.0
 50
90.0
  0
MTEXT
  5
23861
330
21801
100
AcDbEntity
  8
寸法
 62
     7
 48
50.0
100
AcDbMText
 10
6524.385326591269
 20
1560.238285487483
 30
0.0
 40
150.0
 41
0.0
 71
     5
 72
     1
  1
\A1;150
  7
STYLE1
 11
0.0000000000000001
 21
1.0
 31
0.0
 73
     1
 44
1.0
1001
ACAD
1000
MTEXTBEGIN
1070
    73
1070
     1
1070
    44
1040
1.0
1070
    74
1070
     0
1000
MTEXTEND
  0
POINT
  5
23862
330
21801
100
AcDbEntity
  8
DEFPOINTS
 62
     0
 48
50.0
100
AcDbPoint
 10
6160.647283494131
 20
1372.738285487483
 30
0.0
  0
POINT
  5
23863
330
21801
100
AcDbEntity
  8
DEFPOINTS
 62
     0
 48
50.0
100
AcDbPoint
 10
6035.647283494131
 20
1747.738285487483
 30
0.0
  0
POINT
  5
23864
330
21801
100
AcDbEntity
  8
DEFPOINTS
 62
     0
 48
50.0
100
AcDbPoint
 10
6624.385326591269
 20
1747.738285487483
 30
0.0
  0
ENDBLK
  5
2180C
330
21801
100
AcDbEntity
  8
0
 48
50.0
100
AcDbBlockEnd
  0
BLOCK
  5
21817
330
2180D
100
AcDbEntity
  8
0
 48
50.0
100
AcDbBlockBegin
  2
*D34
 70
     1
 10
0.0
 20
0.0
 30
0.0
  3
*D34
  1

  0
LINE
  5
2384A
330
2180D
100
AcDbEntity
  8
寸法
 62
     0
 48
50.0
370
    -2
100
AcDbLine
 10
5285.647283494131
 20
1147.738285487481
 30
0.0
 11
5285.647283494131
 21
863.1147359845272
 31
0.0
  0
LINE
  5
2384B
330
2180D
100
AcDbEntity
  8
寸法
 62
     0
 48
50.0
370
    -2
100
AcDbLine
 10
6035.647283494131
 20
1147.738285487482
 30
0.0
 11
6035.647283494131
 21
863.1147359845272
 31
0.0
  0
LINE
  5
2384C
330
2180D
100
AcDbEntity
  8
寸法
 62
     0
 48
50.0
370
    -2
100
AcDbLine
 10
5285.647283494131
 20
898.1147359845271
 30
0.0
 11
6035.647283494131
 21
898.1147359845271
 31
0.0
  0
INSERT
  5
2384D
330
2180D
100
AcDbEntity
  8
寸法
 62
     0
 48
50.0
370
    -2
100
AcDbBlockReference
  2
_DOTSMALL
 10
5285.647283494131
 20
898.1147359845271
 30
0.0
 41
125.0
 42
125.0
 43
125.0
 50
180.0
  0
INSERT
  5
2384E
330
2180D
100
AcDbEntity
  8
寸法
 62
     0
 48
50.0
370
    -2
100
AcDbBlockReference
  2
_DOTSMALL
 10
6035.647283494131
 20
898.1147359845271
 30
0.0
 41
125.0
 42
125.0
 43
125.0
  0
MTEXT
  5
2384F
330
2180D
100
AcDbEntity
  8
寸法
 62
     7
 48
50.0
100
AcDbMText
 10
5660.647283494131
 20
998.1147359845271
 30
0.0
 40
150.0
 41
0.0
 71
     5
 72
     1
  1
\A1;300
  7
STYLE1
 73
     1
 44
1.0
1001
ACAD
1000
MTEXTBEGIN
1070
    73
1070
     1
1070
    44
1040
1.0
1070
    74
1070
     0
1000
MTEXTEND
  0
POINT
  5
23850
330
2180D
100
AcDbEntity
  8
DEFPOINTS
 62
     0
 48
50.0
100
AcDbPoint
 10
5285.647283494131
 20
1172.738285487481
 30
0.0
  0
POINT
  5
23851
330
2180D
100
AcDbEntity
  8
DEFPOINTS
 62
     0
 48
50.0
100
AcDbPoint
 10
6035.647283494131
 20
1172.738285487482
 30
0.0
  0
POINT
  5
23852
330
2180D
100
AcDbEntity
  8
DEFPOINTS
 62
     0
 48
50.0
100
AcDbPoint
 10
6035.647283494131
 20
898.1147359845271
 30
0.0
  0
ENDBLK
  5
21818
330
2180D
100
AcDbEntity
  8
0
 48
50.0
100
AcDbBlockEnd
  0
BLOCK
  5
21823
330
21819
100
AcDbEntity
  8
0
 48
50.0
100
AcDbBlockBegin
  2
*D35
 70
     1
 10
0.0
 20
0.0
 30
0.0
  3
*D35
  1

  0
LINE
  5
2386F
330
21819
100
AcDbEntity
  8
寸法
 62
     0
 48
50.0
370
    -2
100
AcDbLine
 10
8821.294535959308
 20
2798.122900872097
 30
0.0
 11
9547.440052398924
 21
2798.122900872096
 31
0.0
  0
LINE
  5
23870
330
21819
100
AcDbEntity
  8
寸法
 62
     0
 48
50.0
370
    -2
100
AcDbLine
 10
8905.099004180696
 20
2722.738285487482
 30
0.0
 11
9547.440052398924
 21
2722.738285487482
 31
0.0
  0
LINE
  5
23871
330
21819
100
AcDbEntity
  8
寸法
 62
     0
 48
50.0
370
    -2
100
AcDbLine
 10
9512.440052398925
 20
2798.122900872096
 30
0.0
 11
9512.440052398925
 21
2722.738285487482
 31
0.0
  0
MTEXT
  5
23872
330
21819
100
AcDbEntity
  8
寸法
 62
     7
 48
50.0
100
AcDbMText
 10
9412.425288619397
 20
3248.657258636239
 30
0.0
 40
150.0
 41
0.0
 71
     5
 72
     1
  1
\A1;出20～25
  7
STYLE1
 11
0.0000000000000001
 21
1.0
 31
0.0
 73
     1
 44
1.0
1001
ACAD
1000
MTEXTBEGIN
1070
    73
1070
     1
1070
    44
1040
1.0
1070
    74
1070
     0
1000
MTEXTEND
  0
INSERT
  5
23873
330
21819
100
AcDbEntity
  8
寸法
 62
     0
 48
50.0
370
    -2
100
AcDbBlockReference
  2
_DOTSMALL
 10
9512.440052398925
 20
2798.122900872096
 30
0.0
 41
125.0
 42
125.0
 43
125.0
 50
90.0
  0
INSERT
  5
23874
330
21819
100
AcDbEntity
  8
寸法
 62
     0
 48
50.0
370
    -2
100
AcDbBlockReference
  2
_DOTSMALL
 10
9512.440052398925
 20
2722.738285487482
 30
0.0
 41
125.0
 42
125.0
 43
125.0
 50
270.0
  0
POINT
  5
23875
330
21819
100
AcDbEntity
  8
DEFPOINTS
 62
     0
 48
50.0
100
AcDbPoint
 10
8796.29453595931
 20
2798.122900872097
 30
0.0
  0
POINT
  5
23876
330
21819
100
AcDbEntity
  8
DEFPOINTS
 62
     0
 48
50.0
100
AcDbPoint
 10
8880.099004180697
 20
2722.738285487482
 30
0.0
  0
POINT
  5
23877
330
21819
100
AcDbEntity
  8
DEFPOINTS
 62
     0
 48
50.0
100
AcDbPoint
 10
9512.440052398925
 20
2722.738285487482
 30
0.0
  0
ENDBLK
  5
21824
330
21819
100
AcDbEntity
  8
0
 48
50.0
100
AcDbBlockEnd
  0
BLOCK
  5
21830
330
21825
100
AcDbEntity
  8
0
 48
50.0
100
AcDbBlockBegin
  2
*D36
 70
     1
 10
0.0
 20
0.0
 30
0.0
  3
*D36
  1

  0
LINE
  5
23865
330
21825
100
AcDbEntity
  8
寸法
 62
     0
 48
50.0
370
    -2
100
AcDbLine
 10
8880.099004180697
 20
2747.738285487483
 30
0.0
 11
8880.099004180697
 21
3032.835233635527
 31
0.0
  0
LINE
  5
23866
330
21825
100
AcDbEntity
  8
寸法
 62
     0
 48
50.0
370
    -2
100
AcDbLine
 10
8779.419535959309
 20
2823.122900872096
 30
0.0
 11
8779.419535959309
 21
3032.835233635527
 31
0.0
  0
LINE
  5
23867
330
21825
100
AcDbEntity
  8
寸法
 62
     0
 48
50.0
370
    -2
100
AcDbLine
 10
8779.419535959309
 20
2997.835233635528
 30
0.0
 11
8880.099004180697
 21
2997.835233635528
 31
0.0
  0
LINE
  5
23868
330
21825
100
AcDbEntity
  8
寸法
 62
     0
 48
50.0
370
    -2
100
AcDbLine
 10
8880.099004180697
 20
2997.835233635528
 30
0.0
 11
9220.217114416918
 21
2997.835233635528
 31
0.0
  0
INSERT
  5
23869
330
21825
100
AcDbEntity
  8
寸法
 62
     0
 48
50.0
370
    -2
100
AcDbBlockReference
  2
_DOTSMALL
 10
8779.419535959309
 20
2997.835233635528
 30
0.0
 41
125.0
 42
125.0
 43
125.0
 50
180.0
  0
INSERT
  5
2386A
330
21825
100
AcDbEntity
  8
寸法
 62
     0
 48
50.0
370
    -2
100
AcDbBlockReference
  2
_DOTSMALL
 10
8880.099004180697
 20
2997.835233635528
 30
0.0
 41
125.0
 42
125.0
 43
125.0
  0
MTEXT
  5
2386B
330
21825
100
AcDbEntity
  8
寸法
 62
     7
 48
50.0
100
AcDbMText
 10
9112.658059298809
 20
3097.835233635528
 30
0.0
 40
150.0
 41
0.0
 71
     5
 72
     1
  1
\A1;50
  7
STYLE1
 73
     1
 44
1.0
1001
ACAD
1000
MTEXTBEGIN
1070
    73
1070
     1
1070
    44
1040
1.0
1070
    74
1070
     0
1000
MTEXTEND
  0
POINT
  5
2386C
330
21825
100
AcDbEntity
  8
DEFPOINTS
 62
     0
 48
50.0
100
AcDbPoint
 10
8880.099004180697
 20
2722.738285487482
 30
0.0
  0
POINT
  5
2386D
330
21825
100
AcDbEntity
  8
DEFPOINTS
 62
     0
 48
50.0
100
AcDbPoint
 10
8779.419535959309
 20
2798.122900872097
 30
0.0
  0
POINT
  5
2386E
330
21825
100
AcDbEntity
  8
DEFPOINTS
 62
     0
 48
50.0
100
AcDbPoint
 10
8779.419535959309
 20
2997.835233635528
 30
0.0
  0
ENDBLK
  5
21831
330
21825
100
AcDbEntity
  8
0
 48
50.0
100
AcDbBlockEnd
  0
BLOCK
  5
2183C
330
21832
100
AcDbEntity
  8
0
 48
50.0
100
AcDbBlockBegin
  2
*D37
 70
     1
 10
0.0
 20
0.0
 30
0.0
  3
*D37
  1

  0
LINE
  5
23838
330
21832
100
AcDbEntity
  8
寸法
 62
     0
 48
50.0
370
    -2
100
AcDbLine
 10
10472.34537145263
 20
2347.738285487482
 30
0.0
 11
10245.13627582639
 21
2347.738285487482
 31
0.0
  0
LINE
  5
23839
330
21832
100
AcDbEntity
  8
寸法
 62
     0
 48
50.0
370
    -2
100
AcDbLine
 10
10659.06013815939
 20
1597.738285487482
 30
0.0
 11
10245.13627582639
 21
1597.738285487482
 31
0.0
  0
LINE
  5
2383A
330
21832
100
AcDbEntity
  8
寸法
 62
     0
 48
50.0
370
    -2
100
AcDbLine
 10
10280.13627582639
 20
2347.738285487482
 30
0.0
 11
10280.13627582639
 21
1597.738285487482
 31
0.0
  0
INSERT
  5
2383B
330
21832
100
AcDbEntity
  8
寸法
 62
     0
 48
50.0
370
    -2
100
AcDbBlockReference
  2
_DOTSMALL
 10
10280.13627582639
 20
2347.738285487482
 30
0.0
 41
125.0
 42
125.0
 43
125.0
 50
90.0
  0
INSERT
  5
2383C
330
21832
100
AcDbEntity
  8
寸法
 62
     0
 48
50.0
370
    -2
100
AcDbBlockReference
  2
_DOTSMALL
 10
10280.13627582639
 20
1597.738285487482
 30
0.0
 41
125.0
 42
125.0
 43
125.0
 50
270.0
  0
MTEXT
  5
2383D
330
21832
100
AcDbEntity
  8
寸法
 62
     7
 48
50.0
100
AcDbMText
 10
10180.13627582639
 20
1972.738285487483
 30
0.0
 40
150.0
 41
0.0
 71
     5
 72
     1
  1
\A1;300
  7
STYLE1
 11
0.0000000000000001
 21
1.0
 31
0.0
 73
     1
 44
1.0
1001
ACAD
1000
MTEXTBEGIN
1070
    73
1070
     1
1070
    44
1040
1.0
1070
    74
1070
     0
1000
MTEXTEND
  0
POINT
  5
2383E
330
21832
100
AcDbEntity
  8
DEFPOINTS
 62
     0
 48
50.0
100
AcDbPoint
 10
10497.34537145263
 20
2347.738285487482
 30
0.0
  0
POINT
  5
2383F
330
21832
100
AcDbEntity
  8
DEFPOINTS
 62
     0
 48
50.0
100
AcDbPoint
 10
10684.06013815939
 20
1597.738285487482
 30
0.0
  0
POINT
  5
23840
330
21832
100
AcDbEntity
  8
DEFPOINTS
 62
     0
 48
50.0
100
AcDbPoint
 10
10280.13627582639
 20
1597.738285487482
 30
0.0
  0
ENDBLK
  5
2183D
330
21832
100
AcDbEntity
  8
0
 48
50.0
100
AcDbBlockEnd
  0
BLOCK
  5
21F3B
330
21F31
100
AcDbEntity
  8
0
 48
50.0
100
AcDbBlockBegin
  2
*D38
 70
     1
 10
0.0
 20
0.0
 30
0.0
  3
*D38
  1

  0
LINE
  5
23D37
330
21F31
100
AcDbEntity
  8
寸法
 62
     0
 48
50.0
370
    -2
100
AcDbLine
 10
9363.66479268395
 20
10799.43954873209
 30
0.0
 11
9955.655735880078
 21
10799.43954873209
 31
0.0
  0
LINE
  5
23D38
330
21F31
100
AcDbEntity
  8
寸法
 62
     0
 48
50.0
370
    -2
100
AcDbLine
 10
9677.499999999998
 20
9914.439548732094
 30
0.0
 11
9955.655735880078
 21
9914.439548732094
 31
0.0
  0
LINE
  5
23D39
330
21F31
100
AcDbEntity
  8
寸法
 62
     0
 48
50.0
370
    -2
100
AcDbLine
 10
9880.655735880077
 20
10799.43954873209
 30
0.0
 11
9880.655735880077
 21
9914.439548732094
 31
0.0
  0
INSERT
  5
23D3A
330
21F31
100
AcDbEntity
  8
寸法
 62
     0
 48
50.0
370
    -2
100
AcDbBlockReference
  2
_DOTSMALL
 10
9880.655735880077
 20
10799.43954873209
 30
0.0
 41
125.0
 42
125.0
 43
125.0
 50
90.0
  0
INSERT
  5
23D3B
330
21F31
100
AcDbEntity
  8
寸法
 62
     0
 48
50.0
370
    -2
100
AcDbBlockReference
  2
_DOTSMALL
 10
9880.655735880077
 20
9914.439548732094
 30
0.0
 41
125.0
 42
125.0
 43
125.0
 50
270.0
  0
MTEXT
  5
23D3C
330
21F31
100
AcDbEntity
  8
寸法
 62
     7
 48
50.0
100
AcDbMText
 10
9780.655735880074
 20
10356.93954873209
 30
0.0
 40
150.0
 41
0.0
 71
     5
 72
     1
  1
\A1;885
  7
STYLE1
 11
0.0000000000000001
 21
1.0
 31
0.0
 73
     1
 44
1.0
1001
ACAD
1000
MTEXTBEGIN
1070
    73
1070
     1
1070
    44
1040
1.0
1070
    74
1070
     0
1000
MTEXTEND
  0
POINT
  5
23D3D
330
21F31
100
AcDbEntity
  8
DEFPOINTS
 62
     0
 48
50.0
100
AcDbPoint
 10
9338.66479268395
 20
10799.43954873209
 30
0.0
  0
POINT
  5
23D3E
330
21F31
100
AcDbEntity
  8
DEFPOINTS
 62
     0
 48
50.0
100
AcDbPoint
 10
9652.499999999998
 20
9914.439548732094
 30
0.0
  0
POINT
  5
23D3F
330
21F31
100
AcDbEntity
  8
DEFPOINTS
 62
     0
 48
50.0
100
AcDbPoint
 10
9880.655735880077
 20
9914.439548732094
 30
0.0
  0
ENDBLK
  5
21F3C
330
21F31
100
AcDbEntity
  8
0
 48
50.0
100
AcDbBlockEnd
  0
BLOCK
  5
21F48
330
21F3E
100
AcDbEntity
  8
0
 48
50.0
100
AcDbBlockBegin
  2
*D39
 70
     1
 10
0.0
 20
0.0
 30
0.0
  3
*D39
  1

  0
LINE
  5
23D8C
330
21F3E
100
AcDbEntity
  8
寸法
 62
     0
 48
50.0
370
    -2
100
AcDbLine
 10
9677.499999999998
 20
9914.439548732094
 30
0.0
 11
9955.655735880078
 21
9914.439548732094
 31
0.0
  0
LINE
  5
23D8D
330
21F3E
100
AcDbEntity
  8
寸法
 62
     0
 48
50.0
370
    -2
100
AcDbLine
 10
9677.499999999998
 20
9059.439548732095
 30
0.0
 11
9955.655735880078
 21
9059.439548732095
 31
0.0
  0
LINE
  5
23D8E
330
21F3E
100
AcDbEntity
  8
寸法
 62
     0
 48
50.0
370
    -2
100
AcDbLine
 10
9880.655735880077
 20
9914.439548732094
 30
0.0
 11
9880.655735880077
 21
9059.439548732095
 31
0.0
  0
INSERT
  5
23D8F
330
21F3E
100
AcDbEntity
  8
寸法
 62
     0
 48
50.0
370
    -2
100
AcDbBlockReference
  2
_DOTSMALL
 10
9880.655735880077
 20
9914.439548732094
 30
0.0
 41
125.0
 42
125.0
 43
125.0
 50
90.0
  0
INSERT
  5
23D90
330
21F3E
100
AcDbEntity
  8
寸法
 62
     0
 48
50.0
370
    -2
100
AcDbBlockReference
  2
_DOTSMALL
 10
9880.655735880077
 20
9059.439548732095
 30
0.0
 41
125.0
 42
125.0
 43
125.0
 50
270.0
  0
MTEXT
  5
23D91
330
21F3E
100
AcDbEntity
  8
寸法
 62
     7
 48
50.0
100
AcDbMText
 10
9780.655735880074
 20
9486.939548732093
 30
0.0
 40
150.0
 41
0.0
 71
     5
 72
     1
  1
\A1;855
  7
STYLE1
 11
0.0000000000000001
 21
1.0
 31
0.0
 73
     1
 44
1.0
1001
ACAD
1000
MTEXTBEGIN
1070
    73
1070
     1
1070
    44
1040
1.0
1070
    74
1070
     0
1000
MTEXTEND
  0
POINT
  5
23D92
330
21F3E
100
AcDbEntity
  8
DEFPOINTS
 62
     0
 48
50.0
100
AcDbPoint
 10
9652.499999999998
 20
9914.439548732094
 30
0.0
  0
POINT
  5
23D93
330
21F3E
100
AcDbEntity
  8
DEFPOINTS
 62
     0
 48
50.0
100
AcDbPoint
 10
9652.499999999998
 20
9059.439548732095
 30
0.0
  0
POINT
  5
23D94
330
21F3E
100
AcDbEntity
  8
DEFPOINTS
 62
     0
 48
50.0
100
AcDbPoint
 10
9880.655735880077
 20
9059.439548732095
 30
0.0
  0
ENDBLK
  5
21F49
330
21F3E
100
AcDbEntity
  8
0
 48
50.0
100
AcDbBlockEnd
  0
BLOCK
  5
21F55
330
21F4B
100
AcDbEntity
  8
0
 48
50.0
100
AcDbBlockBegin
  2
*D40
 70
     1
 10
0.0
 20
0.0
 30
0.0
  3
*D40
  1

  0
LINE
  5
23D53
330
21F4B
100
AcDbEntity
  8
寸法
 62
     0
 48
50.0
370
    -2
100
AcDbLine
 10
9677.499999999998
 20
9059.439548732095
 30
0.0
 11
9955.655735880078
 21
9059.439548732095
 31
0.0
  0
LINE
  5
23D54
330
21F4B
100
AcDbEntity
  8
寸法
 62
     0
 48
50.0
370
    -2
100
AcDbLine
 10
9677.499999999998
 20
8204.439548732095
 30
0.0
 11
9955.655735880078
 21
8204.439548732095
 31
0.0
  0
LINE
  5
23D55
330
21F4B
100
AcDbEntity
  8
寸法
 62
     0
 48
50.0
370
    -2
100
AcDbLine
 10
9880.655735880077
 20
9059.439548732095
 30
0.0
 11
9880.655735880077
 21
8204.439548732095
 31
0.0
  0
MTEXT
  5
23D56
330
21F4B
100
AcDbEntity
  8
寸法
 62
     7
 48
50.0
100
AcDbMText
 10
9780.655735880078
 20
8631.939548732095
 30
0.0
 40
150.0
 41
0.0
 71
     5
 72
     1
  1
\A1;855
  7
STYLE1
 11
0.0000000000000001
 21
1.0
 31
0.0
 73
     1
 44
1.0
1001
ACAD
1000
MTEXTBEGIN
1070
    73
1070
     1
1070
    44
1040
1.0
1070
    74
1070
     0
1000
MTEXTEND
  0
INSERT
  5
23D57
330
21F4B
100
AcDbEntity
  8
寸法
 62
     0
 48
50.0
370
    -2
100
AcDbBlockReference
  2
_DOTSMALL
 10
9880.655735880077
 20
9059.439548732095
 30
0.0
 41
125.0
 42
125.0
 43
125.0
 50
90.0
  0
INSERT
  5
23D58
330
21F4B
100
AcDbEntity
  8
寸法
 62
     0
 48
50.0
370
    -2
100
AcDbBlockReference
  2
_DOTSMALL
 10
9880.655735880077
 20
8204.439548732095
 30
0.0
 41
125.0
 42
125.0
 43
125.0
 50
270.0
  0
POINT
  5
23D59
330
21F4B
100
AcDbEntity
  8
DEFPOINTS
 62
     0
 48
50.0
100
AcDbPoint
 10
9652.499999999998
 20
9059.439548732095
 30
0.0
  0
POINT
  5
23D5A
330
21F4B
100
AcDbEntity
  8
DEFPOINTS
 62
     0
 48
50.0
100
AcDbPoint
 10
9652.499999999998
 20
8204.439548732095
 30
0.0
  0
POINT
  5
23D5B
330
21F4B
100
AcDbEntity
  8
DEFPOINTS
 62
     0
 48
50.0
100
AcDbPoint
 10
9880.655735880077
 20
8204.439548732095
 30
0.0
  0
ENDBLK
  5
21F56
330
21F4B
100
AcDbEntity
  8
0
 48
50.0
100
AcDbBlockEnd
  0
BLOCK
  5
21F62
330
21F58
100
AcDbEntity
  8
0
 48
50.0
100
AcDbBlockBegin
  2
*D41
 70
     1
 10
0.0
 20
0.0
 30
0.0
  3
*D41
  1

  0
LINE
  5
23D7A
330
21F58
100
AcDbEntity
  8
寸法
 62
     0
 48
50.0
370
    -2
100
AcDbLine
 10
9677.499999999998
 20
8204.439548732095
 30
0.0
 11
9955.655735880078
 21
8204.439548732095
 31
0.0
  0
LINE
  5
23D7B
330
21F58
100
AcDbEntity
  8
寸法
 62
     0
 48
50.0
370
    -2
100
AcDbLine
 10
9677.499999999998
 20
7319.439548732107
 30
0.0
 11
9955.655735880078
 21
7319.439548732107
 31
0.0
  0
LINE
  5
23D7C
330
21F58
100
AcDbEntity
  8
寸法
 62
     0
 48
50.0
370
    -2
100
AcDbLine
 10
9880.655735880077
 20
8204.439548732095
 30
0.0
 11
9880.655735880077
 21
7319.439548732107
 31
0.0
  0
MTEXT
  5
23D7D
330
21F58
100
AcDbEntity
  8
寸法
 62
     7
 48
50.0
100
AcDbMText
 10
9780.655735880078
 20
7761.939548732101
 30
0.0
 40
150.0
 41
0.0
 71
     5
 72
     1
  1
\A1;885
  7
STYLE1
 11
0.0000000000000001
 21
1.0
 31
0.0
 73
     1
 44
1.0
1001
ACAD
1000
MTEXTBEGIN
1070
    73
1070
     1
1070
    44
1040
1.0
1070
    74
1070
     0
1000
MTEXTEND
  0
INSERT
  5
23D7E
330
21F58
100
AcDbEntity
  8
寸法
 62
     0
 48
50.0
370
    -2
100
AcDbBlockReference
  2
_DOTSMALL
 10
9880.655735880077
 20
8204.439548732095
 30
0.0
 41
125.0
 42
125.0
 43
125.0
 50
90.0
  0
INSERT
  5
23D7F
330
21F58
100
AcDbEntity
  8
寸法
 62
     0
 48
50.0
370
    -2
100
AcDbBlockReference
  2
_DOTSMALL
 10
9880.655735880077
 20
7319.439548732107
 30
0.0
 41
125.0
 42
125.0
 43
125.0
 50
270.0
  0
POINT
  5
23D80
330
21F58
100
AcDbEntity
  8
DEFPOINTS
 62
     0
 48
50.0
100
AcDbPoint
 10
9652.499999999998
 20
8204.439548732095
 30
0.0
  0
POINT
  5
23D81
330
21F58
100
AcDbEntity
  8
DEFPOINTS
 62
     0
 48
50.0
100
AcDbPoint
 10
9652.499999999998
 20
7319.439548732107
 30
0.0
  0
POINT
  5
23D82
330
21F58
100
AcDbEntity
  8
DEFPOINTS
 62
     0
 48
50.0
100
AcDbPoint
 10
9880.655735880077
 20
7319.439548732107
 30
0.0
  0
ENDBLK
  5
21F63
330
21F58
100
AcDbEntity
  8
0
 48
50.0
100
AcDbBlockEnd
  0
BLOCK
  5
22078
330
2206C
100
AcDbEntity
  8
0
 48
50.0
100
AcDbBlockBegin
  2
*D42
 70
     1
 10
0.0
 20
0.0
 30
0.0
  3
*D42
  1

  0
LINE
  5
23E29
330
2206C
100
AcDbEntity
  8
寸法
 62
     0
 48
50.0
370
    -2
100
AcDbLine
 10
11809.5
 20
10824.4395487321
 30
0.0
 11
11809.5
 21
12093.18710326403
 31
0.0
  0
LINE
  5
23E2A
330
2206C
100
AcDbEntity
  8
寸法
 62
     0
 48
50.0
370
    -2
100
AcDbLine
 10
11854.5
 20
11911.17151897047
 30
0.0
 11
11854.5
 21
12093.18710326403
 31
0.0
  0
LINE
  5
23E2B
330
2206C
100
AcDbEntity
  8
寸法
 62
     0
 48
50.0
370
    -2
100
AcDbLine
 10
11809.5
 20
12018.18710326403
 30
0.0
 11
11684.49999999999
 21
12018.18710326403
 31
0.0
  0
LINE
  5
23E2C
330
2206C
100
AcDbEntity
  8
寸法
 62
     0
 48
50.0
370
    -2
100
AcDbLine
 10
11854.5
 20
12018.18710326403
 30
0.0
 11
12219.93655300615
 21
12018.18710326403
 31
0.0
  0
LINE
  5
23E2D
330
2206C
100
AcDbEntity
  8
寸法
 62
     0
 48
50.0
370
    -2
100
AcDbLine
 10
11809.5
 20
12018.18710326403
 30
0.0
 11
11854.5
 21
12018.18710326403
 31
0.0
  0
INSERT
  5
23E2E
330
2206C
100
AcDbEntity
  8
寸法
 62
     0
 48
50.0
370
    -2
100
AcDbBlockReference
  2
_DOTSMALL
 10
11809.5
 20
12018.18710326403
 30
0.0
 41
125.0
 42
125.0
 43
125.0
  0
INSERT
  5
23E2F
330
2206C
100
AcDbEntity
  8
寸法
 62
     0
 48
50.0
370
    -2
100
AcDbBlockReference
  2
_DOTSMALL
 10
11854.5
 20
12018.18710326403
 30
0.0
 41
125.0
 42
125.0
 43
125.0
 50
180.0
  0
MTEXT
  5
23E30
330
2206C
100
AcDbEntity
  8
寸法
 62
     7
 48
50.0
100
AcDbMText
 10
12162.21827650308
 20
12118.18710326403
 30
0.0
 40
150.0
 41
0.0
 71
     5
 72
     1
  1
\A1;a
  7
STYLE1
 73
     1
 44
1.0
1001
ACAD
1000
MTEXTBEGIN
1070
    73
1070
     1
1070
    44
1040
1.0
1070
    74
1070
     0
1000
MTEXTEND
  0
POINT
  5
23E31
330
2206C
100
AcDbEntity
  8
DEFPOINTS
 62
     0
 48
50.0
100
AcDbPoint
 10
11809.5
 20
10799.43954873211
 30
0.0
  0
POINT
  5
23E32
330
2206C
100
AcDbEntity
  8
DEFPOINTS
 62
     0
 48
50.0
100
AcDbPoint
 10
11854.5
 20
11886.17151897047
 30
0.0
  0
POINT
  5
23E33
330
2206C
100
AcDbEntity
  8
DEFPOINTS
 62
     0
 48
50.0
100
AcDbPoint
 10
11854.5
 20
12018.18710326403
 30
0.0
  0
ENDBLK
  5
22079
330
2206C
100
AcDbEntity
  8
0
 48
50.0
100
AcDbBlockEnd
  0
BLOCK
  5
22086
330
2207A
100
AcDbEntity
  8
0
 48
50.0
100
AcDbBlockBegin
  2
*D43
 70
     1
 10
0.0
 20
0.0
 30
0.0
  3
*D43
  1

  0
LINE
  5
23D9E
330
2207A
100
AcDbEntity
  8
寸法
 62
     0
 48
50.0
370
    -2
100
AcDbLine
 10
8704.500000000001
 20
11908.601306578
 30
0.0
 11
8704.500000000001
 21
12093.18710326403
 31
0.0
  0
LINE
  5
23D9F
330
2207A
100
AcDbEntity
  8
寸法
 62
     0
 48
50.0
370
    -2
100
AcDbLine
 10
8749.500000000001
 20
10824.4395487321
 30
0.0
 11
8749.500000000001
 21
12093.18710326403
 31
0.0
  0
LINE
  5
23DA0
330
2207A
100
AcDbEntity
  8
寸法
 62
     0
 48
50.0
370
    -2
100
AcDbLine
 10
8749.500000000001
 20
12018.18710326403
 30
0.0
 11
8874.500000000001
 21
12018.18710326403
 31
0.0
  0
LINE
  5
23DA1
330
2207A
100
AcDbEntity
  8
寸法
 62
     0
 48
50.0
370
    -2
100
AcDbLine
 10
8704.500000000001
 20
12018.18710326403
 30
0.0
 11
8339.063446993852
 21
12018.18710326403
 31
0.0
  0
LINE
  5
23DA2
330
2207A
100
AcDbEntity
  8
寸法
 62
     0
 48
50.0
370
    -2
100
AcDbLine
 10
8749.500000000001
 20
12018.18710326403
 30
0.0
 11
8704.500000000001
 21
12018.18710326403
 31
0.0
  0
INSERT
  5
23DA3
330
2207A
100
AcDbEntity
  8
寸法
 62
     0
 48
50.0
370
    -2
100
AcDbBlockReference
  2
_DOTSMALL
 10
8749.500000000001
 20
12018.18710326403
 30
0.0
 41
125.0
 42
125.0
 43
125.0
 50
180.0
  0
INSERT
  5
23DA4
330
2207A
100
AcDbEntity
  8
寸法
 62
     0
 48
50.0
370
    -2
100
AcDbBlockReference
  2
_DOTSMALL
 10
8704.500000000001
 20
12018.18710326403
 30
0.0
 41
125.0
 42
125.0
 43
125.0
  0
MTEXT
  5
23DA5
330
2207A
100
AcDbEntity
  8
寸法
 62
     7
 48
50.0
100
AcDbMText
 10
8396.781723496927
 20
12118.18710326403
 30
0.0
 40
150.0
 41
0.0
 71
     5
 72
     1
  1
\A1;a
  7
STYLE1
 73
     1
 44
1.0
1001
ACAD
1000
MTEXTBEGIN
1070
    73
1070
     1
1070
    44
1040
1.0
1070
    74
1070
     0
1000
MTEXTEND
  0
POINT
  5
23DA6
330
2207A
100
AcDbEntity
  8
DEFPOINTS
 62
     0
 48
50.0
100
AcDbPoint
 10
8704.500000000001
 20
11883.601306578
 30
0.0
  0
POINT
  5
23DA7
330
2207A
100
AcDbEntity
  8
DEFPOINTS
 62
     0
 48
50.0
100
AcDbPoint
 10
8749.500000000001
 20
10799.43954873211
 30
0.0
  0
POINT
  5
23DA8
330
2207A
100
AcDbEntity
  8
DEFPOINTS
 62
     0
 48
50.0
100
AcDbPoint
 10
8749.500000000001
 20
12018.18710326403
 30
0.0
  0
ENDBLK
  5
22087
330
2207A
100
AcDbEntity
  8
0
 48
50.0
100
AcDbBlockEnd
  0
BLOCK
  5
22094
330
22088
100
AcDbEntity
  8
0
 48
50.0
100
AcDbBlockBegin
  2
*D44
 70
     1
 10
0.0
 20
0.0
 30
0.0
  3
*D44
  1

  0
LINE
  5
23D2C
330
22088
100
AcDbEntity
  8
寸法
 62
     0
 48
50.0
370
    -2
100
AcDbLine
 10
7724.847327740178
 20
10874.43954873211
 30
0.0
 11
7474.077758871935
 21
10874.43954873211
 31
0.0
  0
LINE
  5
23D2D
330
22088
100
AcDbEntity
  8
寸法
 62
     0
 48
50.0
370
    -2
100
AcDbLine
 10
8724.5
 20
10799.43954873211
 30
0.0
 11
7474.077758871935
 21
10799.43954873211
 31
0.0
  0
LINE
  5
23D2E
330
22088
100
AcDbEntity
  8
寸法
 62
     0
 48
50.0
370
    -2
100
AcDbLine
 10
7549.077758871935
 20
10874.43954873211
 30
0.0
 11
7549.077758871935
 21
10999.43954873211
 31
0.0
  0
LINE
  5
23D2F
330
22088
100
AcDbEntity
  8
寸法
 62
     0
 48
50.0
370
    -2
100
AcDbLine
 10
7549.077758871935
 20
10799.43954873211
 30
0.0
 11
7549.077758871935
 21
10674.43954873211
 31
0.0
  0
LINE
  5
23D30
330
22088
100
AcDbEntity
  8
寸法
 62
     0
 48
50.0
370
    -2
100
AcDbLine
 10
7549.077758871935
 20
10874.43954873211
 30
0.0
 11
7549.077758871935
 21
10799.43954873211
 31
0.0
  0
INSERT
  5
23D31
330
22088
100
AcDbEntity
  8
寸法
 62
     0
 48
50.0
370
    -2
100
AcDbBlockReference
  2
_DOTSMALL
 10
7549.077758871935
 20
10874.43954873211
 30
0.0
 41
125.0
 42
125.0
 43
125.0
 50
270.0
  0
INSERT
  5
23D32
330
22088
100
AcDbEntity
  8
寸法
 62
     0
 48
50.0
370
    -2
100
AcDbBlockReference
  2
_DOTSMALL
 10
7549.077758871935
 20
10799.43954873211
 30
0.0
 41
125.0
 42
125.0
 43
125.0
 50
90.0
  0
MTEXT
  5
23D33
330
22088
100
AcDbEntity
  8
寸法
 62
     7
 48
50.0
100
AcDbMText
 10
7449.077758871934
 20
10836.93954873211
 30
0.0
 40
150.0
 41
0.0
 71
     5
 72
     1
  1
\A1;c
  7
STYLE1
 11
0.0000000000000001
 21
1.0
 31
0.0
 73
     1
 44
1.0
1001
ACAD
1000
MTEXTBEGIN
1070
    73
1070
     1
1070
    44
1040
1.0
1070
    74
1070
     0
1000
MTEXTEND
  0
POINT
  5
23D34
330
22088
100
AcDbEntity
  8
DEFPOINTS
 62
     0
 48
50.0
100
AcDbPoint
 10
7749.847327740178
 20
10874.43954873211
 30
0.0
  0
POINT
  5
23D35
330
22088
100
AcDbEntity
  8
DEFPOINTS
 62
     0
 48
50.0
100
AcDbPoint
 10
8749.500000000001
 20
10799.43954873211
 30
0.0
  0
POINT
  5
23D36
330
22088
100
AcDbEntity
  8
DEFPOINTS
 62
     0
 48
50.0
100
AcDbPoint
 10
7549.077758871935
 20
10799.43954873211
 30
0.0
  0
ENDBLK
  5
22095
330
22088
100
AcDbEntity
  8
0
 48
50.0
100
AcDbBlockEnd
  0
BLOCK
  5
220A0
330
22096
100
AcDbEntity
  8
0
 48
50.0
100
AcDbBlockBegin
  2
*D45
 70
     1
 10
0.0
 20
0.0
 30
0.0
  3
*D45
  1

  0
LINE
  5
23D65
330
22096
100
AcDbEntity
  8
寸法
 62
     0
 48
50.0
370
    -2
100
AcDbLine
 10
8785.5
 20
7319.439548732107
 30
0.0
 11
7474.077758871934
 21
7319.439548732107
 31
0.0
  0
LINE
  5
23D66
330
22096
100
AcDbEntity
  8
寸法
 62
     0
 48
50.0
370
    -2
100
AcDbLine
 10
7731.355528014631
 20
7264.439548732105
 30
0.0
 11
7474.077758871934
 21
7264.439548732105
 31
0.0
  0
LINE
  5
23D67
330
22096
100
AcDbEntity
  8
寸法
 62
     0
 48
50.0
370
    -2
100
AcDbLine
 10
7549.077758871934
 20
7319.439548732107
 30
0.0
 11
7549.077758871934
 21
7444.439548732107
 31
0.0
  0
LINE
  5
23D68
330
22096
100
AcDbEntity
  8
寸法
 62
     0
 48
50.0
370
    -2
100
AcDbLine
 10
7549.077758871934
 20
7264.439548732105
 30
0.0
 11
7549.077758871934
 21
7139.439548732105
 31
0.0
  0
LINE
  5
23D69
330
22096
100
AcDbEntity
  8
寸法
 62
     0
 48
50.0
370
    -2
100
AcDbLine
 10
7549.077758871934
 20
7319.439548732107
 30
0.0
 11
7549.077758871934
 21
7264.439548732105
 31
0.0
  0
INSERT
  5
23D6A
330
22096
100
AcDbEntity
  8
寸法
 62
     0
 48
50.0
370
    -2
100
AcDbBlockReference
  2
_DOTSMALL
 10
7549.077758871934
 20
7319.439548732107
 30
0.0
 41
125.0
 42
125.0
 43
125.0
 50
270.0
  0
INSERT
  5
23D6B
330
22096
100
AcDbEntity
  8
寸法
 62
     0
 48
50.0
370
    -2
100
AcDbBlockReference
  2
_DOTSMALL
 10
7549.077758871934
 20
7264.439548732105
 30
0.0
 41
125.0
 42
125.0
 43
125.0
 50
90.0
  0
MTEXT
  5
23D6C
330
22096
100
AcDbEntity
  8
寸法
 62
     7
 48
50.0
100
AcDbMText
 10
7449.077758871933
 20
7291.939548732107
 30
0.0
 40
150.0
 41
0.0
 71
     5
 72
     1
  1
\A1;b
  7
STYLE1
 11
0.0000000000000001
 21
1.0
 31
0.0
 73
     1
 44
1.0
1001
ACAD
1000
MTEXTBEGIN
1070
    73
1070
     1
1070
    44
1040
1.0
1070
    74
1070
     0
1000
MTEXTEND
  0
POINT
  5
23D6D
330
22096
100
AcDbEntity
  8
DEFPOINTS
 62
     0
 48
50.0
100
AcDbPoint
 10
8810.500000000001
 20
7319.439548732107
 30
0.0
  0
POINT
  5
23D6E
330
22096
100
AcDbEntity
  8
DEFPOINTS
 62
     0
 48
50.0
100
AcDbPoint
 10
7756.355528014632
 20
7264.439548732105
 30
0.0
  0
POINT
  5
23D6F
330
22096
100
AcDbEntity
  8
DEFPOINTS
 62
     0
 48
50.0
100
AcDbPoint
 10
7549.077758871934
 20
7264.439548732105
 30
0.0
  0
ENDBLK
  5
220A1
330
22096
100
AcDbEntity
  8
0
 48
50.0
100
AcDbBlockEnd
  0
BLOCK
  5
22B03
330
22AF7
100
AcDbEntity
  8
0
 48
50.0
100
AcDbBlockBegin
  2
*D46
 70
     1
 10
0.0
 20
0.0
 30
0.0
  3
*D46
  1

  0
LINE
  5
23DDA
330
22AF7
100
AcDbEntity
  8
寸法
 62
     0
 48
50.0
370
    -2
100
AcDbLine
 10
11989.5
 20
7514.439548732117
 30
0.0
 11
11989.5
 21
7799.888447691505
 31
0.0
  0
LINE
  5
23DDB
330
22AF7
100
AcDbEntity
  8
寸法
 62
     0
 48
50.0
370
    -2
100
AcDbLine
 10
11809.5
 20
7514.439548732117
 30
0.0
 11
11809.5
 21
7799.888447691505
 31
0.0
  0
LINE
  5
23DDC
330
22AF7
100
AcDbEntity
  8
寸法
 62
     0
 48
50.0
370
    -2
100
AcDbLine
 10
11809.5
 20
7724.888447691505
 30
0.0
 11
11989.5
 21
7724.888447691505
 31
0.0
  0
LINE
  5
23DDD
330
22AF7
100
AcDbEntity
  8
寸法
 62
     0
 48
50.0
370
    -2
100
AcDbLine
 10
11989.5
 20
7724.888447691505
 30
0.0
 11
12404.61811023622
 21
7724.888447691505
 31
0.0
  0
INSERT
  5
23DDE
330
22AF7
100
AcDbEntity
  8
寸法
 62
     0
 48
50.0
370
    -2
100
AcDbBlockReference
  2
_DOTSMALL
 10
11809.5
 20
7724.888447691505
 30
0.0
 41
125.0
 42
125.0
 43
125.0
 50
180.0
  0
INSERT
  5
23DDF
330
22AF7
100
AcDbEntity
  8
寸法
 62
     0
 48
50.0
370
    -2
100
AcDbBlockReference
  2
_DOTSMALL
 10
11989.5
 20
7724.888447691505
 30
0.0
 41
125.0
 42
125.0
 43
125.0
  0
MTEXT
  5
23DE0
330
22AF7
100
AcDbEntity
  8
寸法
 62
     7
 48
50.0
100
AcDbMText
 10
12259.55905511811
 20
7824.888447691505
 30
0.0
 40
150.0
 41
0.0
 71
     5
 72
     1
  1
\A1;180
  7
STYLE1
 73
     1
 44
1.0
1001
ACAD
1000
MTEXTBEGIN
1070
    73
1070
     1
1070
    44
1040
1.0
1070
    74
1070
     0
1000
MTEXTEND
  0
POINT
  5
23DE1
330
22AF7
100
AcDbEntity
  8
DEFPOINTS
 62
     0
 48
50.0
100
AcDbPoint
 10
11989.5
 20
7489.439548732118
 30
0.0
  0
POINT
  5
23DE2
330
22AF7
100
AcDbEntity
  8
DEFPOINTS
 62
     0
 48
50.0
100
AcDbPoint
 10
11809.5
 20
7489.439548732118
 30
0.0
  0
POINT
  5
23DE3
330
22AF7
100
AcDbEntity
  8
DEFPOINTS
 62
     0
 48
50.0
100
AcDbPoint
 10
11809.5
 20
7724.888447691505
 30
0.0
  0
ENDBLK
  5
22B04
330
22AF7
100
AcDbEntity
  8
0
 48
50.0
100
AcDbBlockEnd
  0
BLOCK
  5
22B27
330
22B1B
100
AcDbEntity
  8
0
 48
50.0
100
AcDbBlockBegin
  2
*D47
 70
     1
 10
0.0
 20
0.0
 30
0.0
  3
*D47
  1

  0
LINE
  5
23DF9
330
22B1B
100
AcDbEntity
  8
寸法
 62
     0
 48
50.0
370
    -2
100
AcDbLine
 10
11614.5
 20
7139.439548732117
 30
0.0
 11
11211.55370230484
 21
7139.439548732117
 31
0.0
  0
LINE
  5
23DFA
330
22B1B
100
AcDbEntity
  8
寸法
 62
     0
 48
50.0
370
    -2
100
AcDbLine
 10
11614.5
 20
7319.439548732107
 30
0.0
 11
11211.55370230484
 21
7319.439548732107
 31
0.0
  0
LINE
  5
23DFB
330
22B1B
100
AcDbEntity
  8
寸法
 62
     0
 48
50.0
370
    -2
100
AcDbLine
 10
11286.55370230484
 20
7319.439548732107
 30
0.0
 11
11286.55370230484
 21
7139.439548732117
 31
0.0
  0
LINE
  5
23DFC
330
22B1B
100
AcDbEntity
  8
寸法
 62
     0
 48
50.0
370
    -2
100
AcDbLine
 10
11286.55370230484
 20
7139.439548732117
 30
0.0
 11
11286.55370230484
 21
6724.321438495896
 31
0.0
  0
INSERT
  5
23DFD
330
22B1B
100
AcDbEntity
  8
寸法
 62
     0
 48
50.0
370
    -2
100
AcDbBlockReference
  2
_DOTSMALL
 10
11286.55370230484
 20
7319.439548732107
 30
0.0
 41
125.0
 42
125.0
 43
125.0
 50
90.0
  0
INSERT
  5
23DFE
330
22B1B
100
AcDbEntity
  8
寸法
 62
     0
 48
50.0
370
    -2
100
AcDbBlockReference
  2
_DOTSMALL
 10
11286.55370230484
 20
7139.439548732117
 30
0.0
 41
125.0
 42
125.0
 43
125.0
 50
270.0
  0
MTEXT
  5
23DFF
330
22B1B
100
AcDbEntity
  8
寸法
 62
     7
 48
50.0
100
AcDbMText
 10
11186.55370230484
 20
6869.380493614008
 30
0.0
 40
150.0
 41
0.0
 71
     5
 72
     1
  1
\A1;180
  7
STYLE1
 11
0.0000000000000001
 21
1.0
 31
0.0
 73
     1
 44
1.0
1001
ACAD
1000
MTEXTBEGIN
1070
    73
1070
     1
1070
    44
1040
1.0
1070
    74
1070
     0
1000
MTEXTEND
  0
POINT
  5
23E00
330
22B1B
100
AcDbEntity
  8
DEFPOINTS
 62
     0
 48
50.0
100
AcDbPoint
 10
11639.5
 20
7139.439548732117
 30
0.0
  0
POINT
  5
23E01
330
22B1B
100
AcDbEntity
  8
DEFPOINTS
 62
     0
 48
50.0
100
AcDbPoint
 10
11639.5
 20
7319.439548732107
 30
0.0
  0
POINT
  5
23E02
330
22B1B
100
AcDbEntity
  8
DEFPOINTS
 62
     0
 48
50.0
100
AcDbPoint
 10
11286.55370230484
 20
7319.439548732107
 30
0.0
  0
ENDBLK
  5
22B28
330
22B1B
100
AcDbEntity
  8
0
 48
50.0
100
AcDbBlockEnd
  0
BLOCK
  5
22E43
330
22E39
100
AcDbEntity
  8
0
 48
50.0
100
AcDbBlockBegin
  2
*D48
 70
     1
 10
0.0
 20
0.0
 30
0.0
  3
*D48
  1

  0
LINE
  5
238BC
330
22E39
100
AcDbEntity
  8
寸法
 62
     0
 48
50.0
370
    -2
100
AcDbLine
 10
14291.4698591847
 20
2305.89363697215
 30
0.0
 11
14291.4698591847
 21
2523.021224565971
 31
0.0
  0
LINE
  5
238BD
330
22E39
100
AcDbEntity
  8
寸法
 62
     0
 48
50.0
370
    -2
100
AcDbLine
 10
14741.4698591847
 20
2305.89363697215
 30
0.0
 11
14741.4698591847
 21
2523.021224565971
 31
0.0
  0
LINE
  5
238BE
330
22E39
100
AcDbEntity
  8
寸法
 62
     0
 48
50.0
370
    -2
100
AcDbLine
 10
14291.4698591847
 20
2488.021224565971
 30
0.0
 11
14741.4698591847
 21
2488.021224565971
 31
0.0
  0
INSERT
  5
238BF
330
22E39
100
AcDbEntity
  8
寸法
 62
     0
 48
50.0
370
    -2
100
AcDbBlockReference
  2
_DOTSMALL
 10
14291.4698591847
 20
2488.021224565971
 30
0.0
 41
125.0
 42
125.0
 43
125.0
 50
180.0
  0
INSERT
  5
238C0
330
22E39
100
AcDbEntity
  8
寸法
 62
     0
 48
50.0
370
    -2
100
AcDbBlockReference
  2
_DOTSMALL
 10
14741.4698591847
 20
2488.021224565971
 30
0.0
 41
125.0
 42
125.0
 43
125.0
  0
MTEXT
  5
238C1
330
22E39
100
AcDbEntity
  8
寸法
 62
     7
 48
50.0
100
AcDbMText
 10
14516.4698591847
 20
2588.021224565971
 30
0.0
 40
150.0
 41
0.0
 71
     5
 72
     1
  1
\A1;180
  7
STYLE1
 73
     1
 44
1.0
1001
ACAD
1000
MTEXTBEGIN
1070
    73
1070
     1
1070
    44
1040
1.0
1070
    74
1070
     0
1000
MTEXTEND
  0
POINT
  5
238C2
330
22E39
100
AcDbEntity
  8
DEFPOINTS
 62
     0
 48
50.0
100
AcDbPoint
 10
14291.4698591847
 20
2280.89363697215
 30
0.0
  0
POINT
  5
238C3
330
22E39
100
AcDbEntity
  8
DEFPOINTS
 62
     0
 48
50.0
100
AcDbPoint
 10
14741.4698591847
 20
2280.89363697215
 30
0.0
  0
POINT
  5
238C4
330
22E39
100
AcDbEntity
  8
DEFPOINTS
 62
     0
 48
50.0
100
AcDbPoint
 10
14741.4698591847
 20
2488.021224565971
 30
0.0
  0
ENDBLK
  5
22E44
330
22E39
100
AcDbEntity
  8
0
 48
50.0
100
AcDbBlockEnd
  0
BLOCK
  5
22E50
330
22E46
100
AcDbEntity
  8
0
 48
50.0
100
AcDbBlockBegin
  2
*D49
 70
     1
 10
0.0
 20
0.0
 30
0.0
  3
*D49
  1

  0
LINE
  5
23893
330
22E46
100
AcDbEntity
  8
寸法
 62
     0
 48
50.0
370
    -2
100
AcDbLine
 10
15191.4698591847
 20
1405.893636972149
 30
0.0
 11
15480.34547577422
 21
1405.893636972149
 31
0.0
  0
LINE
  5
23894
330
22E46
100
AcDbEntity
  8
寸法
 62
     0
 48
50.0
370
    -2
100
AcDbLine
 10
15191.4698591847
 20
1855.893636972151
 30
0.0
 11
15480.34547577422
 21
1855.893636972151
 31
0.0
  0
LINE
  5
23895
330
22E46
100
AcDbEntity
  8
寸法
 62
     0
 48
50.0
370
    -2
100
AcDbLine
 10
15445.34547577422
 20
1405.893636972149
 30
0.0
 11
15445.34547577422
 21
1855.893636972151
 31
0.0
  0
INSERT
  5
23896
330
22E46
100
AcDbEntity
  8
寸法
 62
     0
 48
50.0
370
    -2
100
AcDbBlockReference
  2
_DOTSMALL
 10
15445.34547577422
 20
1405.893636972149
 30
0.0
 41
125.0
 42
125.0
 43
125.0
 50
270.0
  0
INSERT
  5
23897
330
22E46
100
AcDbEntity
  8
寸法
 62
     0
 48
50.0
370
    -2
100
AcDbBlockReference
  2
_DOTSMALL
 10
15445.34547577422
 20
1855.893636972151
 30
0.0
 41
125.0
 42
125.0
 43
125.0
 50
90.0
  0
MTEXT
  5
23898
330
22E46
100
AcDbEntity
  8
寸法
 62
     7
 48
50.0
100
AcDbMText
 10
15345.34547577422
 20
1630.893636972153
 30
0.0
 40
150.0
 41
0.0
 71
     5
 72
     1
  1
\A1;180
  7
STYLE1
 11
0.0000000000000001
 21
1.0
 31
0.0
 73
     1
 44
1.0
1001
ACAD
1000
MTEXTBEGIN
1070
    73
1070
     1
1070
    44
1040
1.0
1070
    74
1070
     0
1000
MTEXTEND
  0
POINT
  5
23899
330
22E46
100
AcDbEntity
  8
DEFPOINTS
 62
     0
 48
50.0
100
AcDbPoint
 10
15166.46985918471
 20
1405.893636972149
 30
0.0
  0
POINT
  5
2389A
330
22E46
100
AcDbEntity
  8
DEFPOINTS
 62
     0
 48
50.0
100
AcDbPoint
 10
15166.46985918471
 20
1855.893636972151
 30
0.0
  0
POINT
  5
2389B
330
22E46
100
AcDbEntity
  8
DEFPOINTS
 62
     0
 48
50.0
100
AcDbPoint
 10
15445.34547577422
 20
1855.893636972151
 30
0.0
  0
ENDBLK
  5
22E51
330
22E46
100
AcDbEntity
  8
0
 48
50.0
100
AcDbBlockEnd
  0
BLOCK
  5
22EA3
330
22E97
100
AcDbEntity
  8
0
 48
50.0
100
AcDbBlockBegin
  2
*D50
 70
     1
 10
0.0
 20
0.0
 30
0.0
  3
*D50
  1

  0
LINE
  5
238B1
330
22E97
100
AcDbEntity
  8
寸法
 62
     0
 48
50.0
370
    -2
100
AcDbLine
 10
14735.2198591847
 20
2005.89363697215
 30
0.0
 11
14142.69557878274
 21
2005.89363697215
 31
0.0
  0
LINE
  5
238B2
330
22E97
100
AcDbEntity
  8
寸法
 62
     0
 48
50.0
370
    -2
100
AcDbLine
 10
14716.4698591847
 20
2008.393636972151
 30
0.0
 11
14142.69557878274
 21
2008.393636972151
 31
0.0
  0
LINE
  5
238B3
330
22E97
100
AcDbEntity
  8
寸法
 62
     0
 48
50.0
370
    -2
100
AcDbLine
 10
14177.69557878274
 20
2005.89363697215
 30
0.0
 11
14177.69557878274
 21
1880.89363697215
 31
0.0
  0
LINE
  5
238B4
330
22E97
100
AcDbEntity
  8
寸法
 62
     0
 48
50.0
370
    -2
100
AcDbLine
 10
14177.69557878274
 20
2008.393636972151
 30
0.0
 11
14177.69557878274
 21
2338.393636972151
 31
0.0
  0
LINE
  5
238B5
330
22E97
100
AcDbEntity
  8
寸法
 62
     0
 48
50.0
370
    -2
100
AcDbLine
 10
14177.69557878274
 20
2005.89363697215
 30
0.0
 11
14177.69557878274
 21
2008.393636972151
 31
0.0
  0
INSERT
  5
238B6
330
22E97
100
AcDbEntity
  8
寸法
 62
     0
 48
50.0
370
    -2
100
AcDbBlockReference
  2
_DOTSMALL
 10
14177.69557878274
 20
2005.89363697215
 30
0.0
 41
125.0
 42
125.0
 43
125.0
 50
90.0
  0
INSERT
  5
238B7
330
22E97
100
AcDbEntity
  8
寸法
 62
     0
 48
50.0
370
    -2
100
AcDbBlockReference
  2
_DOTSMALL
 10
14177.69557878274
 20
2008.393636972151
 30
0.0
 41
125.0
 42
125.0
 43
125.0
 50
270.0
  0
MTEXT
  5
238B8
330
22E97
100
AcDbEntity
  8
寸法
 62
     7
 48
50.0
100
AcDbMText
 10
14077.69557878274
 20
2298.393636972154
 30
0.0
 40
150.0
 41
0.0
 71
     5
 72
     1
  1
\A1;1
  7
STYLE1
 11
0.0000000000000001
 21
1.0
 31
0.0
 73
     1
 44
1.0
1001
ACAD
1000
MTEXTBEGIN
1070
    73
1070
     1
1070
    44
1040
1.0
1070
    74
1070
     0
1000
MTEXTEND
  0
POINT
  5
238B9
330
22E97
100
AcDbEntity
  8
DEFPOINTS
 62
     0
 48
50.0
100
AcDbPoint
 10
14760.2198591847
 20
2005.89363697215
 30
0.0
  0
POINT
  5
238BA
330
22E97
100
AcDbEntity
  8
DEFPOINTS
 62
     0
 48
50.0
100
AcDbPoint
 10
14741.4698591847
 20
2008.393636972151
 30
0.0
  0
POINT
  5
238BB
330
22E97
100
AcDbEntity
  8
DEFPOINTS
 62
     0
 48
50.0
100
AcDbPoint
 10
14177.69557878274
 20
2008.393636972151
 30
0.0
  0
ENDBLK
  5
22EA4
330
22E97
100
AcDbEntity
  8
0
 48
50.0
100
AcDbBlockEnd
  0
BLOCK
  5
22EBD
330
22EB1
100
AcDbEntity
  8
0
 48
50.0
100
AcDbBlockBegin
  2
*D51
 70
     1
 10
0.0
 20
0.0
 30
0.0
  3
*D51
  1

  0
LINE
  5
238A6
330
22EB1
100
AcDbEntity
  8
寸法
 62
     0
 48
50.0
370
    -2
100
AcDbLine
 10
14735.2198591847
 20
1868.39363697215
 30
0.0
 11
14142.69557878274
 21
1868.39363697215
 31
0.0
  0
LINE
  5
238A7
330
22EB1
100
AcDbEntity
  8
寸法
 62
     0
 48
50.0
370
    -2
100
AcDbLine
 10
14868.9698591847
 20
1855.893636972151
 30
0.0
 11
14142.69557878274
 21
1855.893636972152
 31
0.0
  0
LINE
  5
238A8
330
22EB1
100
AcDbEntity
  8
寸法
 62
     0
 48
50.0
370
    -2
100
AcDbLine
 10
14177.69557878274
 20
1868.39363697215
 30
0.0
 11
14177.69557878274
 21
1993.39363697215
 31
0.0
  0
LINE
  5
238A9
330
22EB1
100
AcDbEntity
  8
寸法
 62
     0
 48
50.0
370
    -2
100
AcDbLine
 10
14177.69557878274
 20
1855.893636972152
 30
0.0
 11
14177.69557878274
 21
1489.680433536555
 31
0.0
  0
LINE
  5
238AA
330
22EB1
100
AcDbEntity
  8
寸法
 62
     0
 48
50.0
370
    -2
100
AcDbLine
 10
14177.69557878274
 20
1868.39363697215
 30
0.0
 11
14177.69557878274
 21
1855.893636972152
 31
0.0
  0
INSERT
  5
238AB
330
22EB1
100
AcDbEntity
  8
寸法
 62
     0
 48
50.0
370
    -2
100
AcDbBlockReference
  2
_DOTSMALL
 10
14177.69557878274
 20
1868.39363697215
 30
0.0
 41
125.0
 42
125.0
 43
125.0
 50
270.0
  0
INSERT
  5
238AC
330
22EB1
100
AcDbEntity
  8
寸法
 62
     0
 48
50.0
370
    -2
100
AcDbBlockReference
  2
_DOTSMALL
 10
14177.69557878274
 20
1855.893636972152
 30
0.0
 41
125.0
 42
125.0
 43
125.0
 50
90.0
  0
MTEXT
  5
238AD
330
22EB1
100
AcDbEntity
  8
寸法
 62
     7
 48
50.0
100
AcDbMText
 10
14077.69557878274
 20
1547.787035254356
 30
0.0
 40
150.0
 41
0.0
 71
     5
 72
     1
  1
\A1;5
  7
STYLE1
 11
0.0000000000000001
 21
1.0
 31
0.0
 73
     1
 44
1.0
1001
ACAD
1000
MTEXTBEGIN
1070
    73
1070
     1
1070
    44
1040
1.0
1070
    74
1070
     0
1000
MTEXTEND
  0
POINT
  5
238AE
330
22EB1
100
AcDbEntity
  8
DEFPOINTS
 62
     0
 48
50.0
100
AcDbPoint
 10
14760.2198591847
 20
1868.39363697215
 30
0.0
  0
POINT
  5
238AF
330
22EB1
100
AcDbEntity
  8
DEFPOINTS
 62
     0
 48
50.0
100
AcDbPoint
 10
14893.9698591847
 20
1855.893636972151
 30
0.0
  0
POINT
  5
238B0
330
22EB1
100
AcDbEntity
  8
DEFPOINTS
 62
     0
 48
50.0
100
AcDbPoint
 10
14177.69557878274
 20
1855.893636972152
 30
0.0
  0
ENDBLK
  5
22EBE
330
22EB1
100
AcDbEntity
  8
0
 48
50.0
100
AcDbBlockEnd
  0
BLOCK
  5
230E4
330
230D9
100
AcDbEntity
  8
0
 48
50.0
100
AcDbBlockBegin
  2
*D52
 70
     1
 10
0.0
 20
0.0
 30
0.0
  3
*D52
  1

  0
LINE
  5
238CE
330
230D9
100
AcDbEntity
  8
寸法
 62
     0
 48
50.0
370
    -2
100
AcDbLine
 10
14918.9698591847
 20
2008.393636972151
 30
0.0
 11
15314.58733560802
 21
2008.393636972151
 31
0.0
  0
LINE
  5
238CF
330
230D9
100
AcDbEntity
  8
寸法
 62
     0
 48
50.0
370
    -2
100
AcDbLine
 10
14918.9698591847
 20
1855.893636972151
 30
0.0
 11
15314.58733560802
 21
1855.893636972151
 31
0.0
  0
LINE
  5
238D0
330
230D9
100
AcDbEntity
  8
寸法
 62
     0
 48
50.0
370
    -2
100
AcDbLine
 10
15279.58733560802
 20
1855.893636972151
 30
0.0
 11
15279.58733560802
 21
2008.393636972151
 31
0.0
  0
LINE
  5
238D1
330
230D9
100
AcDbEntity
  8
寸法
 62
     0
 48
50.0
370
    -2
100
AcDbLine
 10
15279.58733560802
 20
2008.393636972151
 30
0.0
 11
15279.58733560802
 21
2521.180104209886
 31
0.0
  0
INSERT
  5
238D2
330
230D9
100
AcDbEntity
  8
寸法
 62
     0
 48
50.0
370
    -2
100
AcDbBlockReference
  2
_DOTSMALL
 10
15279.58733560802
 20
1855.893636972151
 30
0.0
 41
125.0
 42
125.0
 43
125.0
 50
270.0
  0
INSERT
  5
238D3
330
230D9
100
AcDbEntity
  8
寸法
 62
     0
 48
50.0
370
    -2
100
AcDbBlockReference
  2
_DOTSMALL
 10
15279.58733560802
 20
2008.393636972151
 30
0.0
 41
125.0
 42
125.0
 43
125.0
 50
90.0
  0
MTEXT
  5
238D4
330
230D9
100
AcDbEntity
  8
寸法
 62
     7
 48
50.0
100
AcDbMText
 10
15179.58733560802
 20
2424.19191523351
 30
0.0
 40
150.0
 41
0.0
 71
     5
 72
     1
  1
\A1;61
  7
STYLE1
 11
0.0000000000000001
 21
1.0
 31
0.0
 73
     1
 44
1.0
1001
ACAD
1000
MTEXTBEGIN
1070
    73
1070
     1
1070
    44
1040
1.0
1070
    74
1070
     0
1000
MTEXTEND
  0
POINT
  5
238D5
330
230D9
100
AcDbEntity
  8
DEFPOINTS
 62
     0
 48
50.0
100
AcDbPoint
 10
14893.9698591847
 20
2008.393636972151
 30
0.0
  0
POINT
  5
238D6
330
230D9
100
AcDbEntity
  8
DEFPOINTS
 62
     0
 48
50.0
100
AcDbPoint
 10
14893.9698591847
 20
1855.893636972151
 30
0.0
  0
POINT
  5
238D7
330
230D9
100
AcDbEntity
  8
DEFPOINTS
 62
     0
 48
50.0
100
AcDbPoint
 10
15279.58733560802
 20
1855.893636972151
 30
0.0
  0
ENDBLK
  5
230E5
330
230D9
100
AcDbEntity
  8
0
 48
50.0
100
AcDbBlockEnd
  0
BLOCK
  5
23106
330
230FB
100
AcDbEntity
  8
0
 48
50.0
100
AcDbBlockBegin
  2
*D53
 70
     1
 10
0.0
 20
0.0
 30
0.0
  3
*D53
  1

  0
LINE
  5
2389C
330
230FB
100
AcDbEntity
  8
寸法
 62
     0
 48
50.0
370
    -2
100
AcDbLine
 10
14741.4698591847
 20
1983.393636972151
 30
0.0
 11
14741.4698591847
 21
1066.430694261179
 31
0.0
  0
LINE
  5
2389D
330
230FB
100
AcDbEntity
  8
寸法
 62
     0
 48
50.0
370
    -2
100
AcDbLine
 10
14893.9698591847
 20
1830.893636972151
 30
0.0
 11
14893.9698591847
 21
1066.430694261179
 31
0.0
  0
LINE
  5
2389E
330
230FB
100
AcDbEntity
  8
寸法
 62
     0
 48
50.0
370
    -2
100
AcDbLine
 10
14741.4698591847
 20
1101.430694261179
 30
0.0
 11
14893.9698591847
 21
1101.430694261179
 31
0.0
  0
LINE
  5
2389F
330
230FB
100
AcDbEntity
  8
寸法
 62
     0
 48
50.0
370
    -2
100
AcDbLine
 10
14893.9698591847
 20
1101.430694261179
 30
0.0
 11
15212.94623713745
 21
1101.430694261179
 31
0.0
  0
INSERT
  5
238A0
330
230FB
100
AcDbEntity
  8
寸法
 62
     0
 48
50.0
370
    -2
100
AcDbBlockReference
  2
_DOTSMALL
 10
14741.4698591847
 20
1101.430694261179
 30
0.0
 41
125.0
 42
125.0
 43
125.0
 50
180.0
  0
INSERT
  5
238A1
330
230FB
100
AcDbEntity
  8
寸法
 62
     0
 48
50.0
370
    -2
100
AcDbBlockReference
  2
_DOTSMALL
 10
14893.9698591847
 20
1101.430694261179
 30
0.0
 41
125.0
 42
125.0
 43
125.0
  0
MTEXT
  5
238A2
330
230FB
100
AcDbEntity
  8
寸法
 62
     7
 48
50.0
100
AcDbMText
 10
15115.95804816107
 20
1201.430694261179
 30
0.0
 40
150.0
 41
0.0
 71
     5
 72
     1
  1
\A1;61
  7
STYLE1
 73
     1
 44
1.0
1001
ACAD
1000
MTEXTBEGIN
1070
    73
1070
     1
1070
    44
1040
1.0
1070
    74
1070
     0
1000
MTEXTEND
  0
POINT
  5
238A3
330
230FB
100
AcDbEntity
  8
DEFPOINTS
 62
     0
 48
50.0
100
AcDbPoint
 10
14741.4698591847
 20
2008.393636972151
 30
0.0
  0
POINT
  5
238A4
330
230FB
100
AcDbEntity
  8
DEFPOINTS
 62
     0
 48
50.0
100
AcDbPoint
 10
14893.9698591847
 20
1855.893636972151
 30
0.0
  0
POINT
  5
238A5
330
230FB
100
AcDbEntity
  8
DEFPOINTS
 62
     0
 48
50.0
100
AcDbPoint
 10
14893.9698591847
 20
1101.430694261179
 30
0.0
  0
ENDBLK
  5
23107
330
230FB
100
AcDbEntity
  8
0
 48
50.0
100
AcDbBlockEnd
  0
BLOCK
  5
23520
330
23516
100
AcDbEntity
  8
0
 48
50.0
100
AcDbBlockBegin
  2
*D54
 70
     1
 10
0.0
 20
0.0
 30
0.0
  3
*D54
  1

  0
LINE
  5
238D8
330
23516
100
AcDbEntity
  8
寸法
 62
     0
 48
50.0
370
    -2
100
AcDbLine
 10
15690.40139261793
 20
2280.893636972152
 30
0.0
 11
16051.29919612162
 21
2280.893636972152
 31
0.0
  0
LINE
  5
238D9
330
23516
100
AcDbEntity
  8
寸法
 62
     0
 48
50.0
370
    -2
100
AcDbLine
 10
15750.89551202196
 20
1855.893636972151
 30
0.0
 11
16051.29919612162
 21
1855.893636972151
 31
0.0
  0
LINE
  5
238DA
330
23516
100
AcDbEntity
  8
寸法
 62
     0
 48
50.0
370
    -2
100
AcDbLine
 10
16016.29919612162
 20
2280.893636972152
 30
0.0
 11
16016.29919612162
 21
1855.893636972151
 31
0.0
  0
INSERT
  5
238DB
330
23516
100
AcDbEntity
  8
寸法
 62
     0
 48
50.0
370
    -2
100
AcDbBlockReference
  2
_DOTSMALL
 10
16016.29919612162
 20
2280.893636972152
 30
0.0
 41
125.0
 42
125.0
 43
125.0
 50
90.0
  0
INSERT
  5
238DC
330
23516
100
AcDbEntity
  8
寸法
 62
     0
 48
50.0
370
    -2
100
AcDbBlockReference
  2
_DOTSMALL
 10
16016.29919612162
 20
1855.893636972151
 30
0.0
 41
125.0
 42
125.0
 43
125.0
 50
270.0
  0
MTEXT
  5
238DD
330
23516
100
AcDbEntity
  8
寸法
 62
     7
 48
50.0
100
AcDbMText
 10
15916.29919612162
 20
2068.393636972154
 30
0.0
 40
150.0
 41
0.0
 71
     5
 72
     1
  1
\A1;170
  7
STYLE1
 11
0.0000000000000001
 21
1.0
 31
0.0
 73
     1
 44
1.0
1001
ACAD
1000
MTEXTBEGIN
1070
    73
1070
     1
1070
    44
1040
1.0
1070
    74
1070
     0
1000
MTEXTEND
  0
POINT
  5
238DE
330
23516
100
AcDbEntity
  8
DEFPOINTS
 62
     0
 48
50.0
100
AcDbPoint
 10
15665.40139261793
 20
2280.893636972152
 30
0.0
  0
POINT
  5
238DF
330
23516
100
AcDbEntity
  8
DEFPOINTS
 62
     0
 48
50.0
100
AcDbPoint
 10
15725.89551202196
 20
1855.893636972151
 30
0.0
  0
POINT
  5
238E0
330
23516
100
AcDbEntity
  8
DEFPOINTS
 62
     0
 48
50.0
100
AcDbPoint
 10
16016.29919612162
 20
1855.893636972151
 30
0.0
  0
ENDBLK
  5
23521
330
23516
100
AcDbEntity
  8
0
 48
50.0
100
AcDbBlockEnd
  0
ENDSEC
  0
SECTION
  2
ENTITIES
  0
MTEXT
  5
763F
330
747D
100
AcDbEntity
  8
0
100
AcDbMText
 10
302.846345836809
 20
280.1983726409901
 30
0.0
 40
3.5
 41
5.323721266742722
 71
     1
 72
     5
  1

  7
MSMINCHO
 73
     1
 44
1.0
1001
ACAD
1000
MTEXTBEGIN
1070
    73
1070
     1
1070
    44
1040
1.0
1070
    74
1070
     0
1000
MTEXTEND
  0
INSERT
  5
F235
330
747D
100
AcDbEntity
  8
0
100
AcDbBlockReference
  2
作図枠S50
 10
0.0
 20
0.0
 30
0.0
  0
LINE
  5
10B56
330
747D
100
AcDbEntity
  8
補助
  6
PHANTOM
 62
   230
 48
50.0
100
AcDbLine
 10
175.0
 20
0.0
 30
0.0
 11
174.9999999999993
 21
14262.0
 31
0.0
  0
LINE
  5
10B57
330
747D
100
AcDbEntity
  8
補助
  6
PHANTOM
 62
   230
 48
50.0
100
AcDbLine
 10
174.9999999999993
 20
14262.0
 30
0.0
 11
20384.0
 21
14262.0
 31
0.0
  0
LINE
  5
10B5C
330
747D
100
AcDbEntity
  8
仕様書枠
 48
50.0
100
AcDbLine
 10
20384.0
 20
1500.0
 30
0.0
 11
20384.0
 21
-0.0000000000001137
 31
0.0
  0
LINE
  5
10B5D
330
747D
100
AcDbEntity
  8
仕様書枠
 48
50.0
100
AcDbLine
 10
175.0
 20
0.0
 30
0.0
 11
20384.0
 21
-0.0000000000001137
 31
0.0
  0
LINE
  5
10B5E
330
747D
100
AcDbEntity
  8
補助
  6
PHANTOM
 62
   230
 48
50.0
100
AcDbLine
 10
20384.0
 20
14262.0
 30
0.0
 11
20384.0
 21
1500.0
 31
0.0
  0
LINE
  5
10B6C
330
747D
100
AcDbEntity
  8
仕様書枠
 48
50.0
100
AcDbLine
 10
16384.0
 20
1500.0
 30
0.0
 11
20384.0
 21
1500.0
 31
0.0
  0
LINE
  5
10B6D
330
747D
100
AcDbEntity
  8
補助
  6
PHANTOM
 62
   230
 48
50.0
100
AcDbLine
 10
16384.0
 20
14262.0
 30
0.0
 11
16384.0
 21
6000.0
 31
0.0
  0
LINE
  5
10B6F
330
747D
100
AcDbEntity
  8
補助
  6
PHANTOM
 62
   230
 48
50.0
100
AcDbLine
 10
16384.0
 20
6000.0
 30
0.0
 11
20384.0
 21
6000.0
 31
0.0
  0
LINE
  5
10B72
330
747D
100
AcDbEntity
  8
文字
 62
     7
 48
50.0
100
AcDbLine
 10
16484.0
 20
500.0
 30
0.0
 11
20284.0
 21
500.0
 31
0.0
  0
TEXT
  5
10B73
330
747D
100
AcDbEntity
  8
文字
 62
     7
 48
50.0
100
AcDbText
 10
16453.72382072112
 20
1118.863259287425
 30
0.0
 40
250.0
  1
基 礎 図
  7
STYLE2
100
AcDbText
  0
LINE
  5
10B7B
330
747D
100
AcDbEntity
  8
仕様書枠
 48
50.0
100
AcDbLine
 10
16384.0
 20
1000.0
 30
0.0
 11
17814.0
 21
1000.0
 31
0.0
  0
LINE
  5
10B88
330
747D
100
AcDbEntity
  8
仕様書枠
  6
Continuous
 48
50.0
100
AcDbLine
 10
17814.0
 20
1500.0
 30
0.0
 11
17814.0
 21
1000.0
 31
0.0
  0
TEXT
  5
10BB0
330
747D
100
AcDbEntity
  8
文字
 62
     7
 48
50.0
100
AcDbText
 10
17799.22747163624
 20
604.8708912389265
 30
0.0
 40
200.0
  1
ＦＸＮ-１０５ＨＹ
  7
STYLE2
100
AcDbText
  0
TEXT
  5
17483
330
747D
100
AcDbEntity
  8
文字
 62
     7
 48
50.0
100
AcDbText
 10
16511.75668531126
 20
270.5931184260625
 30
0.0
 40
100.0
  1
※寒冷地等は、地域の実情に合わせた基礎にしてください。
  7
STYLE2
100
AcDbText
  0
LINE
  5
17484
330
747D
100
AcDbEntity
  8
仕様書枠
  6
Continuous
 48
50.0
100
AcDbLine
 10
16384.00000503976
 20
1499.999992498709
 30
0.0
 11
16384.00000503976
 21
-0.0000075012905659
 31
0.0
  0
TEXT
  5
1A873
330
747D
100
AcDbEntity
  8
文字
 62
     7
 48
50.0
100
AcDbText
 10
18155.16479652749
 20
1289.447132864036
 30
0.0
 40
125.0
  1
NO.21      <縮尺> S=1/50
  7
STYLE2
100
AcDbText
  0
TEXT
  5
1A874
330
747D
100
AcDbEntity
  8
文字
 62
     7
 48
50.0
100
AcDbText
 10
18282.32565866817
 20
1089.955080760453
 30
0.0
 40
125.0
  1
～一般型～
  7
STYLE2
100
AcDbText
  0
TEXT
  5
1A875
330
747D
100
AcDbEntity
  8
文字
 62
     7
 48
50.0
100
AcDbText
 10
16501.79587498051
 20
596.5925826289069
 30
0.0
 40
200.0
  1
機種名
  7
STYLE2
100
AcDbText
  0
DIMENSION
  5
1D651
330
747D
100
AcDbEntity
  8
寸法
 48
50.0
100
AcDbDimension
  2
*D3
 10
11809.5
 20
12018.18710326403
 30
0.0
 11
10279.5
 21
12118.18710326403
 31
0.0
 70
    32
 71
     5
 42
3060.0
  3
INABA_S50G
100
AcDbAlignedDimension
 13
8749.500000000001
 23
10799.43954873211
 33
0.0
 14
11809.5
 24
10799.43954873211
 34
0.0
100
AcDbRotatedDimension
1001
ACAD
1000
DSTYLE
1002
{
1070
    40
1040
1.0
1002
}
  0
LINE
  5
1D652
330
747D
100
AcDbEntity
  8
部品1
 48
50.0
100
AcDbLine
 10
11689.5
 20
7489.439548732107
 30
0.0
 11
8869.5
 21
7489.439548732111
 31
0.0
  0
LINE
  5
1D653
330
747D
100
AcDbEntity
  8
部品1
 48
50.0
100
AcDbLine
 10
11689.5
 20
10679.43954873209
 30
0.0
 11
8869.5
 21
10679.43954873209
 31
0.0
  0
LINE
  5
1D654
330
747D
100
AcDbEntity
  8
部品1
 48
50.0
100
AcDbLine
 10
11809.5
 20
10799.43954873211
 30
0.0
 11
8749.500000000001
 21
10799.43954873211
 31
0.0
  0
DIMENSION
  5
1D658
330
747D
100
AcDbEntity
  8
寸法
 48
50.0
100
AcDbDimension
  2
*D4
 10
8749.500000000001
 20
11718.02090352267
 30
0.0
 11
8509.5
 21
11718.02090352267
 31
0.0
 70
   160
 71
     5
 42
75.00000000019099
  3
INABA_S50G
100
AcDbAlignedDimension
 13
8824.50000000019
 23
10799.43954873211
 33
0.0
 14
8749.500000000001
 24
10799.43954873211
 34
0.0
100
AcDbRotatedDimension
1001
ACAD
1000
DSTYLE
1002
{
1070
    40
1040
1.0
1002
}
  0
DIMENSION
  5
1D659
330
747D
100
AcDbEntity
  8
寸法
 48
50.0
100
AcDbDimension
  2
*D5
 10
8824.50000000019
 20
11718.02090352267
 30
0.0
 11
10279.50000000019
 21
11818.0356673022
 31
0.0
 70
    32
 71
     5
 42
2910.0
  3
INABA_S50G
100
AcDbAlignedDimension
 13
11734.50000000019
 23
10791.32147982565
 33
0.0
 14
8824.50000000019
 24
10799.43954873211
 34
0.0
100
AcDbRotatedDimension
1001
ACAD
1000
DSTYLE
1002
{
1070
    40
1040
1.0
1002
}
  0
DIMENSION
  5
1D665
330
747D
100
AcDbEntity
  8
寸法
 48
50.0
100
AcDbDimension
  2
*D6
 10
8810.500000000001
 20
5793.844103684563
 30
0.0
 11
10279.5
 21
5893.85886746409
 31
0.0
 70
    32
 71
     5
 42
2938.0
  3
INABA_S50G
100
AcDbAlignedDimension
 13
11748.5
 23
6850.88997162871
 33
0.0
 14
8810.500000000001
 24
7319.439548732107
 34
0.0
100
AcDbRotatedDimension
1001
ACAD
1000
DSTYLE
1002
{
1070
    40
1040
1.0
1070
   341
1005
0
1002
}
  0
LINE
  5
1D667
330
747D
100
AcDbEntity
  8
部品1
 48
50.0
100
AcDbLine
 10
11748.5
 20
7319.439548732106
 30
0.0
 11
8810.500000000001
 21
7319.439548732107
 31
0.0
  0
DIMENSION
  5
1D668
330
747D
100
AcDbEntity
  8
寸法
 48
50.0
100
AcDbDimension
  2
*D7
 10
7932.193633210165
 20
10749.4395487321
 30
0.0
 11
7832.193633210163
 21
9064.939548732109
 31
0.0
 70
    32
 71
     5
 42
3369.0
  3
INABA_S50G
100
AcDbAlignedDimension
 13
8749.500000000001
 23
7380.439548732107
 33
0.0
 14
8774.500000000191
 24
10749.4395487321
 34
0.0
 50
90.0
100
AcDbRotatedDimension
1001
ACAD
1000
DSTYLE
1002
{
1070
    40
1040
1.0
1070
   341
1005
0
1002
}
  0
DIMENSION
  5
1D669
330
747D
100
AcDbEntity
  8
寸法
 48
50.0
100
AcDbDimension
  2
*D8
 10
7549.077758871932
 20
7319.439548732107
 30
0.0
 11
7449.077758871931
 21
9059.439548732109
 31
0.0
 70
    32
 71
     5
 42
3480.0
  3
INABA_S50G
100
AcDbAlignedDimension
 13
8749.500000000001
 23
10799.43954873211
 33
0.0
 14
8810.500000000001
 24
7319.439548732107
 34
0.0
 50
90.0
100
AcDbRotatedDimension
1001
ACAD
1000
DSTYLE
1002
{
1070
    40
1040
1.0
1002
}
  0
LINE
  5
1D66A
330
747D
100
AcDbEntity
  8
部品1
 48
50.0
100
AcDbLine
 10
8869.5
 20
7489.439548732107
 30
0.0
 11
8869.5
 21
10679.43954873209
 31
0.0
  0
LINE
  5
1D66B
330
747D
100
AcDbEntity
  8
部品1
 48
50.0
100
AcDbLine
 10
8749.500000000001
 20
7380.439548732107
 30
0.0
 11
8749.500000000001
 21
10799.43954873211
 31
0.0
  0
DIMENSION
  5
1D66C
330
747D
100
AcDbEntity
  8
寸法
 48
50.0
100
AcDbDimension
  2
*D9
 10
7932.193633210165
 20
7380.439548732107
 30
0.0
 11
7932.193633210163
 21
7097.45135975573
 31
0.0
 70
   160
 71
     5
 42
61.0
  3
INABA_S50G
100
AcDbAlignedDimension
 13
8810.500000000001
 23
7319.439548732107
 33
0.0
 14
8749.500000000001
 24
7380.439548732107
 34
0.0
 50
90.0
100
AcDbRotatedDimension
1001
ACAD
1000
DSTYLE
1002
{
1070
    40
1040
1.0
1070
   341
1005
0
1002
}
  0
DIMENSION
  5
1D66D
330
747D
100
AcDbEntity
  8
寸法
 48
50.0
100
AcDbDimension
  2
*D10
 10
8810.500000000001
 20
5793.844103684563
 30
0.0
 11
8527.511811023622
 21
5793.844103684563
 31
0.0
 70
   160
 71
     5
 42
61.0
  3
INABA_S50G
100
AcDbAlignedDimension
 13
8749.500000000001
 23
7380.439548732107
 33
0.0
 14
8810.500000000001
 24
7319.439548732107
 34
0.0
100
AcDbRotatedDimension
1001
ACAD
1000
DSTYLE
1002
{
1070
    40
1040
1.0
1070
   341
1005
0
1002
}
  0
LINE
  5
1D66F
330
747D
100
AcDbEntity
  8
センター
 48
8.0
100
AcDbLine
 10
8603.49851475226
 20
7352.439548732107
 30
0.0
 11
9003.49851475226
 21
7352.439548732107
 31
0.0
  0
LINE
  5
1D673
330
747D
100
AcDbEntity
  8
部品1
 48
50.0
100
AcDbLine
 10
8810.500000000001
 20
7380.439548732107
 30
0.0
 11
8749.500000000001
 21
7380.439548732107
 31
0.0
  0
LINE
  5
1D674
330
747D
100
AcDbEntity
  8
部品1
 48
50.0
100
AcDbLine
 10
8810.500000000001
 20
7319.439548732107
 30
0.0
 11
8810.500000000001
 21
7380.439548732107
 31
0.0
  0
DIMENSION
  5
1D67F
330
747D
100
AcDbEntity
  8
寸法
 48
50.0
100
AcDbDimension
  2
*D11
 10
7932.193633210165
 20
10799.43954873211
 30
0.0
 11
7932.193633210163
 21
11031.99860385022
 31
0.0
 70
   160
 71
     5
 42
50.0
  3
INABA_S50G
100
AcDbAlignedDimension
 13
8774.500000000191
 23
10749.4395487321
 33
0.0
 14
8749.500000000001
 24
10799.43954873211
 34
0.0
 50
90.0
100
AcDbRotatedDimension
1001
ACAD
1000
DSTYLE
1002
{
1070
    40
1040
1.0
1070
   341
1005
0
1002
}
  0
LINE
  5
1D680
330
747D
100
AcDbEntity
  8
細線
 48
50.0
100
AcDbLine
 10
8749.500000000001
 20
8970.560635522842
 30
0.0
 11
8869.5
 21
9090.560635522853
 31
0.0
  0
LINE
  5
1D681
330
747D
100
AcDbEntity
  8
細線
 48
50.0
100
AcDbLine
 10
8801.240706056745
 20
8959.439548732103
 30
0.0
 11
8869.5
 21
9027.698842675365
 31
0.0
  0
LINE
  5
1D683
330
747D
100
AcDbEntity
  8
部品1
 48
50.0
100
AcDbLine
 10
8869.5
 20
8959.439548732097
 30
0.0
 11
8749.500000000162
 21
8959.439548732108
 31
0.0
  0
LINE
  5
1D684
330
747D
100
AcDbEntity
  8
細線
 48
50.0
100
AcDbLine
 10
8864.102498904212
 20
8959.439548732097
 30
0.0
 11
8869.5
 21
8964.837049827883
 31
0.0
  0
LINE
  5
1D685
330
747D
100
AcDbEntity
  8
細線
 48
50.0
100
AcDbLine
 10
8749.500000000001
 20
9096.284221217818
 30
0.0
 11
8812.655327514283
 21
9159.439548732102
 31
0.0
  0
LINE
  5
1D686
330
747D
100
AcDbEntity
  8
細線
 48
50.0
100
AcDbLine
 10
8749.500000000001
 20
9159.146014065294
 30
0.0
 11
8749.793534666812
 21
9159.439548732105
 31
0.0
  0
LINE
  5
1D687
330
747D
100
AcDbEntity
  8
細線
 48
50.0
100
AcDbLine
 10
8749.500000000001
 20
9033.422428370325
 30
0.0
 11
8869.5
 21
9153.422428370335
 31
0.0
  0
LINE
  5
1D688
330
747D
100
AcDbEntity
  8
部品1
 48
50.0
100
AcDbLine
 10
8869.5
 20
9159.439548732096
 30
0.0
 11
8749.500000000162
 21
9159.439548732107
 31
0.0
  0
LINE
  5
1D68E
330
747D
100
AcDbEntity
  8
センター
 48
2.0
100
AcDbLine
 10
8874.500000000191
 20
10749.4395487321
 30
0.0
 11
8774.500000000191
 21
10749.4395487321
 31
0.0
  0
LINE
  5
1D68F
330
747D
100
AcDbEntity
  8
センター
 48
2.0
100
AcDbLine
 10
8824.50000000019
 20
10799.43954873211
 30
0.0
 11
8824.50000000019
 21
10699.43954873211
 31
0.0
  0
LINE
  5
1D6A1
330
747D
100
AcDbEntity
  8
部品1
 48
50.0
100
AcDbLine
 10
10379.5
 20
7489.439548732107
 30
0.0
 11
10379.5
 21
7319.439548732107
 31
0.0
  0
LINE
  5
1D6CA
330
747D
100
AcDbEntity
  8
部品1
 48
50.0
100
AcDbLine
 10
10379.5
 20
10799.43954873211
 30
0.0
 11
10379.5
 21
10679.43954873209
 31
0.0
  0
DIMENSION
  5
1D6E3
330
747D
100
AcDbEntity
  8
寸法
 48
50.0
100
AcDbDimension
  2
*D12
 10
11734.5
 20
11718.02090352267
 30
0.0
 11
12049.5
 21
11718.02090352267
 31
0.0
 70
   160
 71
     5
 42
75.0
  3
INABA_S50G
100
AcDbAlignedDimension
 13
11809.5
 23
10799.43954873209
 33
0.0
 14
11734.5
 24
10799.43954873211
 34
0.0
100
AcDbRotatedDimension
1001
ACAD
1000
DSTYLE
1002
{
1070
    40
1040
1.0
1002
}
  0
DIMENSION
  5
1D6E5
330
747D
100
AcDbEntity
  8
寸法
 48
50.0
100
AcDbDimension
  2
*D13
 10
10867.66479268395
 20
10799.43954873209
 30
0.0
 11
10867.66479268395
 21
11069.49860385022
 31
0.0
 70
   160
 71
     5
 42
120.0
  3
INABA_S50G
100
AcDbAlignedDimension
 13
10895.00000000001
 23
10679.43954873209
 33
0.0
 14
10895.00000000001
 24
10799.43954873209
 34
0.0
 50
90.0
100
AcDbRotatedDimension
1001
ACAD
1000
DSTYLE
1002
{
1070
    40
1040
1.0
1070
   341
1005
0
1002
}
  0
TEXT
  5
1D714
330
747D
100
AcDbEntity
  8
文字
 48
50.0
100
AcDbText
 10
11395.48058621108
 20
10317.6529198707
 30
0.0
 40
150.0
  1
A
 50
90.0
  7
STYLE1
100
AcDbText
  0
TEXT
  5
1D71F
330
747D
100
AcDbEntity
  8
文字
 48
50.0
100
AcDbText
 10
11395.48058621108
 20
11056.3673162521
 30
0.0
 40
150.0
  1
A'
 50
90.0
  7
STYLE1
100
AcDbText
  0
LINE
  5
1D721
330
747D
100
AcDbEntity
  8
寸法
 48
50.0
100
AcDbLine
 10
11734.50000000018
 20
10450.4395487321
 30
0.0
 11
11434.50000000018
 21
10450.4395487321
 31
0.0
  0
LINE
  5
1D722
330
747D
100
AcDbEntity
  8
寸法
 48
50.0
100
AcDbLine
 10
11434.50000000018
 20
10450.4395487321
 30
0.0
 11
11579.38887394354
 21
10411.61669196672
 31
0.0
  0
LINE
  5
1D723
330
747D
100
AcDbEntity
  8
寸法
 48
50.0
100
AcDbLine
 10
11579.38887394354
 20
10411.61669196672
 30
0.0
 11
11579.38887394354
 21
10511.61669196673
 31
0.0
  0
LINE
  5
1D724
330
747D
100
AcDbEntity
  8
寸法
 48
50.0
100
AcDbLine
 10
11734.50000000019
 20
10709.55761763854
 30
0.0
 11
11734.50000000018
 21
10450.4395487321
 31
0.0
  0
LINE
  5
1D726
330
747D
100
AcDbEntity
  8
寸法
 48
50.0
100
AcDbLine
 10
11734.50000000018
 20
11050.43954873209
 30
0.0
 11
11434.50000000018
 21
11050.43954873209
 31
0.0
  0
LINE
  5
1D727
330
747D
100
AcDbEntity
  8
寸法
 48
50.0
100
AcDbLine
 10
11434.50000000018
 20
11050.43954873209
 30
0.0
 11
11579.38887394354
 21
11011.61669196673
 31
0.0
  0
LINE
  5
1D728
330
747D
100
AcDbEntity
  8
寸法
 48
50.0
100
AcDbLine
 10
11579.38887394354
 20
11016.61669196673
 30
0.0
 11
11579.38887394354
 21
11116.61669196673
 31
0.0
  0
DIMENSION
  5
1D742
330
747D
100
AcDbEntity
  8
寸法
 48
50.0
100
AcDbDimension
  2
*D14
 10
11809.5
 20
9724.25970904163
 30
0.0
 11
12079.62287219428
 21
9724.25970904163
 31
0.0
 70
   160
 71
     5
 42
120.0
  3
INABA_S50G
100
AcDbAlignedDimension
 13
11689.5
 23
9902.210678774858
 33
0.0
 14
11809.5
 24
9902.210678774858
 34
0.0
100
AcDbRotatedDimension
1001
ACAD
1000
DSTYLE
1002
{
1070
    40
1040
1.0
1070
   341
1005
0
1002
}
  0
DIMENSION
  5
1D743
330
747D
100
AcDbEntity
  8
寸法
 48
50.0
100
AcDbDimension
  2
*D15
 10
13260.92407367218
 20
10749.4395487321
 30
0.0
 11
13160.92407367218
 21
9064.939548732109
 31
0.0
 70
    32
 71
     5
 42
3368.999999999999
  3
INABA_S50G
100
AcDbAlignedDimension
 13
11809.5
 23
7380.439548732107
 33
0.0
 14
11784.5
 24
10749.4395487321
 34
0.0
 50
90.0
100
AcDbRotatedDimension
1001
ACAD
1000
DSTYLE
1002
{
1070
    40
1040
1.0
1070
   341
1005
0
1002
}
  0
LINE
  5
1D744
330
747D
100
AcDbEntity
  8
部品1
 48
50.0
100
AcDbLine
 10
11689.5
 20
7489.439548732107
 30
0.0
 11
11689.5
 21
10679.43954873209
 31
0.0
  0
LINE
  5
1D745
330
747D
100
AcDbEntity
  8
部品1
 48
50.0
100
AcDbLine
 10
11809.5
 20
7380.439548732107
 30
0.0
 11
11809.5
 21
10799.43954873211
 31
0.0
  0
DIMENSION
  5
1D746
330
747D
100
AcDbEntity
  8
寸法
 48
50.0
100
AcDbDimension
  2
*D16
 10
13260.92407367217
 20
7352.439548732107
 30
0.0
 11
13260.92407367217
 21
6797.320037806976
 31
0.0
 70
   160
  1
柱芯<>
 71
     5
 42
28.0
  3
INABA_S50G
100
AcDbAlignedDimension
 13
11809.5
 23
7380.439548732107
 33
0.0
 14
11955.49851475226
 24
7352.439548732107
 34
0.0
 50
90.0
100
AcDbRotatedDimension
1001
ACAD
1000
DSTYLE
1002
{
1070
    40
1040
1.0
1002
}
  0
DIMENSION
  5
1D747
330
747D
100
AcDbEntity
  8
寸法
 48
50.0
100
AcDbDimension
  2
*D17
 10
11748.5
 20
5793.844103684563
 30
0.0
 11
12031.48818897638
 21
5793.844103684563
 31
0.0
 70
   160
 71
     5
 42
61.0
  3
INABA_S50G
100
AcDbAlignedDimension
 13
11809.5
 23
6850.88997162871
 33
0.0
 14
11748.5
 24
6850.88997162871
 34
0.0
 50
180.0
100
AcDbRotatedDimension
1001
ACAD
1000
DSTYLE
1002
{
1070
    40
1040
1.0
1070
   341
1005
0
1002
}
  0
LINE
  5
1D749
330
747D
100
AcDbEntity
  8
部品1
 48
10.0
100
AcDbLine
 10
11989.5
 20
7139.439548732117
 30
0.0
 11
11639.5
 21
7139.439548732108
 31
0.0
  0
LINE
  5
1D74A
330
747D
100
AcDbEntity
  8
センター
 48
8.0
100
AcDbLine
 10
11555.49851475226
 20
7352.439548732107
 30
0.0
 11
11955.49851475225
 21
7352.439548732107
 31
0.0
  0
DIMENSION
  5
1D74B
330
747D
100
AcDbEntity
  8
寸法
 48
50.0
100
AcDbDimension
  2
*D18
 10
11989.50000000001
 20
6850.88997162871
 30
0.0
 11
11814.5
 21
6950.88997162871
 31
0.0
 70
    32
 71
     5
 42
350.0000000000109
  3
INABA_S50G
100
AcDbAlignedDimension
 13
11639.5
 23
7139.439548732117
 33
0.0
 14
11989.50000000001
 24
7139.439548732108
 34
0.0
 50
180.0
100
AcDbRotatedDimension
1001
ACAD
1000
DSTYLE
1002
{
1070
    40
1040
1.0
1002
}
  0
LINE
  5
1D74C
330
747D
100
AcDbEntity
  8
部品1
 48
10.0
100
AcDbLine
 10
11639.5
 20
7139.439548732108
 30
0.0
 11
11639.5
 21
7319.439548732107
 31
0.0
  0
DIMENSION
  5
1D74F
330
747D
100
AcDbEntity
  8
寸法
 48
50.0
100
AcDbDimension
  2
*D19
 10
12342.09093176128
 20
7489.439548732118
 30
0.0
 11
12342.09093176127
 21
6854.380493614009
 31
0.0
 70
   160
 71
     5
 42
350.0
  3
INABA_S50G
100
AcDbAlignedDimension
 13
11989.5
 23
7139.439548732117
 33
0.0
 14
11989.5
 24
7489.439548732118
 34
0.0
 50
90.0
100
AcDbRotatedDimension
1001
ACAD
1000
DSTYLE
1002
{
1070
    40
1040
1.0
1002
}
  0
LINE
  5
1D751
330
747D
100
AcDbEntity
  8
部品1
 48
10.0
100
AcDbLine
 10
11989.5
 20
7489.439548732118
 30
0.0
 11
11809.5
 21
7489.439548732118
 31
0.0
  0
LINE
  5
1D752
330
747D
100
AcDbEntity
  8
部品1
 48
50.0
100
AcDbLine
 10
11748.5
 20
7380.439548732107
 30
0.0
 11
11809.5
 21
7380.439548732107
 31
0.0
  0
LINE
  5
1D753
330
747D
100
AcDbEntity
  8
部品1
 48
50.0
100
AcDbLine
 10
11748.5
 20
7319.439548732107
 30
0.0
 11
11748.5
 21
7380.439548732107
 31
0.0
  0
LINE
  5
1D754
330
747D
100
AcDbEntity
  8
部品1
 48
10.0
100
AcDbLine
 10
11989.5
 20
7139.439548732117
 30
0.0
 11
11989.5
 21
7489.439548732118
 31
0.0
  0
DIMENSION
  5
1D755
330
747D
100
AcDbEntity
  8
寸法
 48
50.0
100
AcDbDimension
  2
*D20
 10
13260.92407367217
 20
10749.4395487321
 30
0.0
 11
13260.92407367217
 21
11169.80905965724
 31
0.0
 70
   160
 71
     5
 42
50.0
  3
INABA_S50G
100
AcDbAlignedDimension
 13
11809.5
 23
10799.43954873211
 33
0.0
 14
11784.5
 24
10749.4395487321
 34
0.0
 50
90.0
100
AcDbRotatedDimension
1001
ACAD
1000
DSTYLE
1002
{
1070
    40
1040
1.0
1002
}
  0
LINE
  5
1D757
330
747D
100
AcDbEntity
  8
細線
 48
50.0
100
AcDbLine
 10
11689.49999999984
 20
8970.560635522854
 30
0.0
 11
11809.49999999984
 21
9090.560635522864
 31
0.0
  0
LINE
  5
1D758
330
747D
100
AcDbEntity
  8
細線
 48
50.0
100
AcDbLine
 10
11741.24070605658
 20
8959.439548732111
 30
0.0
 11
11809.49999999984
 21
9027.698842675375
 31
0.0
  0
LINE
  5
1D759
330
747D
100
AcDbEntity
  8
部品1
 48
50.0
100
AcDbLine
 10
11809.49999999984
 20
8959.439548732108
 30
0.0
 11
11689.5
 21
8959.439548732119
 31
0.0
  0
LINE
  5
1D75B
330
747D
100
AcDbEntity
  8
細線
 48
50.0
100
AcDbLine
 10
11804.10249890405
 20
8959.439548732108
 30
0.0
 11
11809.49999999984
 21
8964.837049827895
 31
0.0
  0
LINE
  5
1D75C
330
747D
100
AcDbEntity
  8
細線
 48
50.0
100
AcDbLine
 10
11689.49999999984
 20
9096.284221217826
 30
0.0
 11
11752.65532751412
 21
9159.439548732114
 31
0.0
  0
LINE
  5
1D75D
330
747D
100
AcDbEntity
  8
細線
 48
50.0
100
AcDbLine
 10
11689.49999999984
 20
9159.146014065305
 30
0.0
 11
11689.79353466665
 21
9159.439548732118
 31
0.0
  0
LINE
  5
1D75E
330
747D
100
AcDbEntity
  8
細線
 48
50.0
100
AcDbLine
 10
11689.49999999984
 20
9033.422428370334
 30
0.0
 11
11809.49999999984
 21
9153.422428370346
 31
0.0
  0
LINE
  5
1D75F
330
747D
100
AcDbEntity
  8
部品1
 48
50.0
100
AcDbLine
 10
11809.49999999984
 20
9159.439548732107
 30
0.0
 11
11689.5
 21
9159.439548732118
 31
0.0
  0
LINE
  5
1D761
330
747D
100
AcDbEntity
  8
センター
 48
2.0
100
AcDbLine
 10
11684.5
 20
10749.4395487321
 30
0.0
 11
11784.5
 21
10749.4395487321
 31
0.0
  0
LINE
  5
1D762
330
747D
100
AcDbEntity
  8
センター
 48
2.0
100
AcDbLine
 10
11734.5
 20
10799.43954873211
 30
0.0
 11
11734.5
 21
10699.43954873211
 31
0.0
  0
DIMENSION
  5
1E143
330
747D
100
AcDbEntity
  8
寸法
 48
50.0
100
AcDbDimension
  2
*D21
 10
10804.25310699717
 20
7319.439548732107
 30
0.0
 11
10804.25310699717
 21
7049.380493613999
 31
0.0
 70
   160
 71
     5
 42
170.0
  3
INABA_S50G
100
AcDbAlignedDimension
 13
10726.15417150804
 23
7489.439548732107
 33
0.0
 14
10726.15417150804
 24
7319.439548732107
 34
0.0
 50
90.0
100
AcDbRotatedDimension
1001
ACAD
1000
DSTYLE
1002
{
1070
    40
1040
1.0
1070
   341
1005
0
1002
}
  0
DIMENSION
  5
1E529
330
747D
100
AcDbEntity
  8
寸法
 48
50.0
100
AcDbDimension
  2
*D22
 10
9152.514182375425
 20
7024.698016276968
 30
0.0
 11
10652.01418237542
 21
8764.698016276957
 31
0.0
 70
   161
 71
     5
 42
4593.952655393819
  3
INABA_S50G
100
AcDbAlignedDimension
 13
11809.5
 23
10799.43954873209
 33
0.0
 14
8810.500000000001
 24
7319.439548732107
 34
0.0
1001
ACAD
1000
DSTYLE
1002
{
1070
    40
1040
1.0
1070
   341
1005
0
1002
}
  0
DIMENSION
  5
1EE45
330
747D
100
AcDbEntity
  8
寸法
 48
50.0
100
AcDbDimension
  2
*D23
 10
8749.500000000372
 20
9425.296432230977
 30
0.0
 11
9151.000000000374
 21
9525.296432230978
 31
0.0
 70
    32
 71
     5
 42
803.0000000000054
  3
INABA_S50G
100
AcDbAlignedDimension
 13
9552.500000000376
 23
9714.439548732094
 33
0.0
 14
8749.500000000372
 24
9678.317290447777
 34
0.0
100
AcDbRotatedDimension
1001
ACAD
1000
DSTYLE
1002
{
1070
    40
1040
1.0
1070
   341
1005
0
1002
}
  0
DIMENSION
  5
1EE46
330
747D
100
AcDbEntity
  8
寸法
 48
50.0
100
AcDbDimension
  2
*D24
 10
10279.50000000037
 20
9425.296432230977
 30
0.0
 11
10643.00000000037
 21
9525.311196010505
 31
0.0
 70
    32
 71
     5
 42
727.0000000000018
  3
INABA_S50G
100
AcDbAlignedDimension
 13
11006.50000000037
 23
9565.439548732072
 33
0.0
 14
10279.50000000037
 24
9714.439548732094
 34
0.0
100
AcDbRotatedDimension
1001
ACAD
1000
DSTYLE
1002
{
1070
    40
1040
1.0
1070
   341
1005
0
1002
}
  0
DIMENSION
  5
1EE47
330
747D
100
AcDbEntity
  8
寸法
 48
50.0
100
AcDbDimension
  2
*D25
 10
9552.500000000376
 20
9425.296432230977
 30
0.0
 11
10067.55775307193
 21
9425.296432230977
 31
0.0
 70
   160
 71
     5
 42
726.9999999999981
  3
INABA_S50G
100
AcDbAlignedDimension
 13
10279.50000000037
 23
9714.439548732094
 33
0.0
 14
9552.500000000376
 24
9714.439548732094
 34
0.0
100
AcDbRotatedDimension
1001
ACAD
1000
DSTYLE
1002
{
1070
    40
1040
1.0
1070
   341
1005
0
1002
}
  0
DIMENSION
  5
1EE4B
330
747D
100
AcDbEntity
  8
寸法
 48
50.0
100
AcDbDimension
  2
*D26
 10
11006.50000000037
 20
9425.296432230977
 30
0.0
 11
11408.00000000037
 21
9525.296432230978
 31
0.0
 70
    32
 71
     5
 42
803.0000000000018
  3
INABA_S50G
100
AcDbAlignedDimension
 13
11809.50000000037
 23
9604.439548732099
 33
0.0
 14
11006.50000000037
 24
9714.439548732094
 34
0.0
100
AcDbRotatedDimension
1001
ACAD
1000
DSTYLE
1002
{
1070
    40
1040
1.0
1070
   272
1070
     1
1070
   341
1005
0
1002
}
  0
LEADER
  5
202EE
330
747D
100
AcDbEntity
  8
寸法
 48
50.0
100
AcDbLeader
  3
INABA_S50G
 73
     0
 74
     0
 75
     1
 40
150.0
 41
231.9898538650463
 76
     3
 10
10318.10054630028
 20
10062.11074875147
 30
0.0
 10
10352.28890291193
 20
10279.06855305975
 30
0.0
 10
10477.28890291193
 20
10279.06855305975
 30
0.0
340
202EF
1001
ACAD
1000
DSTYLE
1002
{
1070
    40
1040
1.0
1002
}
  0
MTEXT
  5
202EF
102
{ACAD_REACTORS
330
202EE
102
}
330
747D
100
AcDbEntity
  8
部品1
 62
     7
 48
50.0
100
AcDbMText
 10
10502.28890291193
 20
10379.06855305975
 30
0.0
 40
150.0
 41
0.0
 71
     4
 72
     1
  1
\A1;C.B
  7
STYLE1
 73
     1
 44
1.0
1001
ACAD
1000
MTEXTBEGIN
1070
    73
1070
     1
1070
    44
1040
1.0
1070
    74
1070
     0
1000
MTEXTEND
  0
LINE
  5
2030E
330
747D
100
AcDbEntity
  8
部品1
 48
50.0
100
AcDbLine
 10
9452.500000000368
 20
8859.439548732096
 30
0.0
 11
9452.500000000368
 21
9259.439548732094
 31
0.0
  0
LINE
  5
2030F
330
747D
100
AcDbEntity
  8
部品1
 48
50.0
100
AcDbLine
 10
9652.500000000367
 20
8859.439548732096
 30
0.0
 11
9652.500000000367
 21
9259.439548732094
 31
0.0
  0
LINE
  5
20310
330
747D
100
AcDbEntity
  8
部品1
 48
50.0
100
AcDbLine
 10
10179.50000000036
 20
8859.439548732096
 30
0.0
 11
10179.50000000036
 21
9259.439548732094
 31
0.0
  0
LINE
  5
20311
330
747D
100
AcDbEntity
  8
部品1
 48
50.0
100
AcDbLine
 10
10379.50000000037
 20
8859.439548732096
 30
0.0
 11
10379.50000000037
 21
9259.439548732094
 31
0.0
  0
LINE
  5
20312
330
747D
100
AcDbEntity
  8
部品1
 48
50.0
100
AcDbLine
 10
10906.50000000036
 20
8859.439548732096
 30
0.0
 11
10906.50000000036
 21
9259.439548732094
 31
0.0
  0
LINE
  5
20313
330
747D
100
AcDbEntity
  8
部品1
 48
50.0
100
AcDbLine
 10
11106.50000000036
 20
8859.439548732096
 30
0.0
 11
11106.50000000036
 21
9259.439548732094
 31
0.0
  0
LINE
  5
20314
330
747D
100
AcDbEntity
  8
部品1
 48
50.0
100
AcDbLine
 10
9452.50000000037
 20
8404.439548732094
 30
0.0
 11
9652.500000000372
 21
8404.439548732094
 31
0.0
  0
LINE
  5
20315
330
747D
100
AcDbEntity
  8
部品1
 48
50.0
100
AcDbLine
 10
9452.50000000037
 20
8004.439548732094
 30
0.0
 11
9652.500000000372
 21
8004.439548732094
 31
0.0
  0
LINE
  5
20316
330
747D
100
AcDbEntity
  8
部品1
 48
50.0
100
AcDbLine
 10
9452.500000000368
 20
8859.43954873209
 30
0.0
 11
9652.500000000367
 21
8859.43954873209
 31
0.0
  0
LINE
  5
20317
330
747D
100
AcDbEntity
  8
部品1
 48
50.0
100
AcDbLine
 10
9452.50000000037
 20
8004.439548732099
 30
0.0
 11
9452.50000000037
 21
8404.439548732097
 31
0.0
  0
LINE
  5
20318
330
747D
100
AcDbEntity
  8
部品1
 48
50.0
100
AcDbLine
 10
9652.500000000372
 20
8004.439548732099
 30
0.0
 11
9652.500000000372
 21
8404.439548732097
 31
0.0
  0
LINE
  5
20319
330
747D
100
AcDbEntity
  8
部品1
 48
50.0
100
AcDbLine
 10
10179.50000000037
 20
8004.439548732099
 30
0.0
 11
10179.50000000037
 21
8404.439548732097
 31
0.0
  0
LINE
  5
2031A
330
747D
100
AcDbEntity
  8
部品1
 48
50.0
100
AcDbLine
 10
10379.50000000037
 20
8004.439548732099
 30
0.0
 11
10379.50000000037
 21
8404.439548732097
 31
0.0
  0
LINE
  5
2031B
330
747D
100
AcDbEntity
  8
部品1
 48
50.0
100
AcDbLine
 10
10179.50000000037
 20
8004.439548732094
 30
0.0
 11
10379.50000000037
 21
8004.439548732094
 31
0.0
  0
LINE
  5
2031C
330
747D
100
AcDbEntity
  8
部品1
 48
50.0
100
AcDbLine
 10
10179.50000000037
 20
8404.439548732094
 30
0.0
 11
10379.50000000037
 21
8404.439548732094
 31
0.0
  0
LINE
  5
2031D
330
747D
100
AcDbEntity
  8
部品1
 48
50.0
100
AcDbLine
 10
10179.50000000036
 20
8859.43954873209
 30
0.0
 11
10379.50000000037
 21
8859.43954873209
 31
0.0
  0
LINE
  5
2031E
330
747D
100
AcDbEntity
  8
部品1
 48
50.0
100
AcDbLine
 10
10906.50000000037
 20
8004.439548732099
 30
0.0
 11
10906.50000000037
 21
8404.439548732097
 31
0.0
  0
LINE
  5
2031F
330
747D
100
AcDbEntity
  8
部品1
 48
50.0
100
AcDbLine
 10
11106.50000000037
 20
8004.439548732099
 30
0.0
 11
11106.50000000037
 21
8404.439548732097
 31
0.0
  0
LINE
  5
20320
330
747D
100
AcDbEntity
  8
部品1
 48
50.0
100
AcDbLine
 10
10906.50000000037
 20
8004.439548732094
 30
0.0
 11
11106.50000000037
 21
8004.439548732094
 31
0.0
  0
LINE
  5
20321
330
747D
100
AcDbEntity
  8
部品1
 48
50.0
100
AcDbLine
 10
10906.50000000037
 20
8404.439548732094
 30
0.0
 11
11106.50000000037
 21
8404.439548732094
 31
0.0
  0
LINE
  5
20322
330
747D
100
AcDbEntity
  8
部品1
 48
50.0
100
AcDbLine
 10
10906.50000000036
 20
8859.43954873209
 30
0.0
 11
11106.50000000036
 21
8859.43954873209
 31
0.0
  0
LINE
  5
20323
330
747D
100
AcDbEntity
  8
部品1
 48
50.0
100
AcDbLine
 10
9452.500000000368
 20
9259.439548732091
 30
0.0
 11
9652.500000000367
 21
9259.439548732091
 31
0.0
  0
LINE
  5
20324
330
747D
100
AcDbEntity
  8
部品1
 48
50.0
100
AcDbLine
 10
9452.50000000037
 20
9714.439548732094
 30
0.0
 11
9652.500000000372
 21
9714.439548732094
 31
0.0
  0
LINE
  5
20325
330
747D
100
AcDbEntity
  8
部品1
 48
50.0
100
AcDbLine
 10
9452.50000000037
 20
10114.43954873209
 30
0.0
 11
9652.500000000372
 21
10114.43954873209
 31
0.0
  0
LINE
  5
20326
330
747D
100
AcDbEntity
  8
部品1
 48
50.0
100
AcDbLine
 10
9452.50000000037
 20
9714.439548732096
 30
0.0
 11
9452.50000000037
 21
10114.43954873209
 31
0.0
  0
LINE
  5
20327
330
747D
100
AcDbEntity
  8
部品1
 48
50.0
100
AcDbLine
 10
10179.50000000036
 20
9259.439548732091
 30
0.0
 11
10379.50000000037
 21
9259.439548732091
 31
0.0
  0
LINE
  5
20328
330
747D
100
AcDbEntity
  8
部品1
 48
50.0
100
AcDbLine
 10
9652.500000000372
 20
9714.439548732096
 30
0.0
 11
9652.500000000372
 21
10114.43954873209
 31
0.0
  0
LINE
  5
20329
330
747D
100
AcDbEntity
  8
部品1
 48
50.0
100
AcDbLine
 10
10179.50000000037
 20
9714.439548732096
 30
0.0
 11
10179.50000000037
 21
10114.43954873209
 31
0.0
  0
LINE
  5
2032A
330
747D
100
AcDbEntity
  8
部品1
 48
50.0
100
AcDbLine
 10
10379.50000000037
 20
9714.439548732096
 30
0.0
 11
10379.50000000037
 21
10114.43954873209
 31
0.0
  0
LINE
  5
2032B
330
747D
100
AcDbEntity
  8
部品1
 48
50.0
100
AcDbLine
 10
10179.50000000037
 20
9714.439548732094
 30
0.0
 11
10379.50000000037
 21
9714.439548732094
 31
0.0
  0
LINE
  5
2032C
330
747D
100
AcDbEntity
  8
部品1
 48
50.0
100
AcDbLine
 10
10179.50000000037
 20
10114.43954873209
 30
0.0
 11
10379.50000000037
 21
10114.43954873209
 31
0.0
  0
LINE
  5
2032D
330
747D
100
AcDbEntity
  8
部品1
 48
50.0
100
AcDbLine
 10
10906.50000000036
 20
9259.439548732091
 30
0.0
 11
11106.50000000036
 21
9259.439548732091
 31
0.0
  0
LINE
  5
2032E
330
747D
100
AcDbEntity
  8
部品1
 48
50.0
100
AcDbLine
 10
10906.50000000037
 20
9714.439548732096
 30
0.0
 11
10906.50000000037
 21
10114.43954873209
 31
0.0
  0
LINE
  5
2032F
330
747D
100
AcDbEntity
  8
部品1
 48
50.0
100
AcDbLine
 10
11106.50000000037
 20
9714.439548732096
 30
0.0
 11
11106.50000000037
 21
10114.43954873209
 31
0.0
  0
LINE
  5
20330
330
747D
100
AcDbEntity
  8
部品1
 48
50.0
100
AcDbLine
 10
10906.50000000037
 20
9714.439548732094
 30
0.0
 11
11106.50000000037
 21
9714.439548732094
 31
0.0
  0
LINE
  5
20331
330
747D
100
AcDbEntity
  8
部品1
 48
50.0
100
AcDbLine
 10
10906.50000000037
 20
10114.43954873209
 30
0.0
 11
11106.50000000037
 21
10114.43954873209
 31
0.0
  0
LINE
  5
20BA1
330
747D
100
AcDbEntity
  8
細線
 48
50.0
100
AcDbLine
 10
10179.5
 20
7419.410954982147
 30
0.0
 11
10249.52859374996
 21
7489.439548732107
 31
0.0
  0
LINE
  5
20BA2
330
747D
100
AcDbEntity
  8
細線
 48
50.0
100
AcDbLine
 10
10179.5
 20
7356.549162134659
 30
0.0
 11
10312.39038659745
 21
7489.439548732107
 31
0.0
  0
LINE
  5
20BA3
330
747D
100
AcDbEntity
  8
細線
 48
50.0
100
AcDbLine
 10
10330.9757651399
 20
7319.439548732107
 30
0.0
 11
10379.5
 21
7367.963783592208
 31
0.0
  0
LINE
  5
20BA4
330
747D
100
AcDbEntity
  8
細線
 48
50.0
100
AcDbLine
 10
10268.11397229242
 20
7319.439548732107
 30
0.0
 11
10379.5
 21
7430.825576439689
 31
0.0
  0
LINE
  5
20BA5
330
747D
100
AcDbEntity
  8
細線
 48
50.0
100
AcDbLine
 10
10205.25217944493
 20
7319.439548732107
 30
0.0
 11
10375.25217944493
 21
7489.439548732107
 31
0.0
  0
LINE
  5
20BA9
330
747D
100
AcDbEntity
  8
部品1
 48
50.0
100
AcDbLine
 10
10179.5
 20
7489.439548732107
 30
0.0
 11
10179.5
 21
7319.439548732107
 31
0.0
  0
LINE
  5
20BAB
330
747D
100
AcDbEntity
  8
細線
 48
50.0
100
AcDbLine
 10
10179.5
 20
7482.272747829627
 30
0.0
 11
10186.66680090248
 21
7489.439548732107
 31
0.0
  0
LINE
  5
20BAC
330
747D
100
AcDbEntity
  8
細線
 48
50.0
100
AcDbLine
 10
10179.5
 20
10759.08597589879
 30
0.0
 11
10219.85357283331
 21
10799.43954873211
 31
0.0
  0
LINE
  5
20BAD
330
747D
100
AcDbEntity
  8
細線
 48
50.0
100
AcDbLine
 10
10179.5
 20
10696.2241830513
 30
0.0
 11
10282.71536568079
 21
10799.43954873211
 31
0.0
  0
LINE
  5
20BB0
330
747D
100
AcDbEntity
  8
部品1
 48
50.0
100
AcDbLine
 10
10179.5
 20
10799.43954873211
 30
0.0
 11
10179.5
 21
10679.43954873209
 31
0.0
  0
LINE
  5
20BB2
330
747D
100
AcDbEntity
  8
細線
 48
50.0
100
AcDbLine
 10
10351.30074422324
 20
10679.43954873209
 30
0.0
 11
10379.5
 21
10707.63880450885
 31
0.0
  0
LINE
  5
20BB3
330
747D
100
AcDbEntity
  8
細線
 48
50.0
100
AcDbLine
 10
10225.57715852827
 20
10679.43954873209
 30
0.0
 11
10345.57715852828
 21
10799.43954873211
 31
0.0
  0
LINE
  5
20BB4
330
747D
100
AcDbEntity
  8
細線
 48
50.0
100
AcDbLine
 10
10288.43895137575
 20
10679.43954873209
 30
0.0
 11
10379.5
 21
10770.50059735634
 31
0.0
  0
TEXT
  5
20C84
330
747D
100
AcDbEntity
  8
文字
 62
     7
 48
50.0
100
AcDbText
 10
16511.28370703062
 20
88.05691871135051
 30
0.0
 40
100.0
  1
※布基礎には換気口を設けてください。
  7
STYLE2
100
AcDbText
  0
TEXT
  5
21353
330
747D
100
AcDbEntity
  8
文字
 62
     7
 48
50.0
100
AcDbText
 10
10381.89215286826
 20
3869.477158806973
 30
0.0
 40
125.0
  1
S=1/20
  7
STYLE2
100
AcDbText
  0
LINE
  5
21354
330
747D
100
AcDbEntity
  8
部品1
 48
50.0
100
AcDbLine
 10
15041.1061398714
 20
561.2669576020116
 30
0.0
 11
14589.09224311776
 21
561.2669576020116
 31
0.0
  0
LINE
  5
21355
330
747D
100
AcDbEntity
  8
部品1
 48
50.0
100
AcDbLine
 10
15041.1061398714
 20
361.2669576020116
 30
0.0
 11
14589.09224311776
 21
361.2669576020116
 31
0.0
  0
TEXT
  5
21356
330
747D
100
AcDbEntity
  8
部品1
 48
50.0
100
AcDbText
 10
14666.09528704056
 20
403.7573222676319
 30
0.0
 40
120.0
  1
Ｃ部
  7
STYLE2
100
AcDbText
  0
TEXT
  5
21357
330
747D
100
AcDbEntity
  8
部品1
 48
50.0
100
AcDbText
 10
10739.69251439207
 20
403.7573222676328
 30
0.0
 40
120.0
  1
Ｂ－Ｂ’断面
  7
STYLE2
100
AcDbText
  0
LINE
  5
21358
330
747D
100
AcDbEntity
  8
部品1
 48
50.0
100
AcDbLine
 10
11662.68947046927
 20
361.2669576020126
 30
0.0
 11
10662.68947046927
 21
361.2669576020126
 31
0.0
  0
LINE
  5
21359
330
747D
100
AcDbEntity
  8
部品1
 48
50.0
100
AcDbLine
 10
11662.68947046927
 20
561.2669576020125
 30
0.0
 11
10662.68947046927
 21
561.2669576020125
 31
0.0
  0
LINE
  5
2135A
330
747D
100
AcDbEntity
  8
細線
 48
50.0
100
AcDbLine
 10
16201.19820779696
 20
135.8143065415861
 30
0.0
 11
3789.67571756148
 21
135.8143065415861
 31
0.0
  0
LINE
  5
2135B
330
747D
100
AcDbEntity
  8
細線
 48
50.0
100
AcDbLine
 10
10949.83706355274
 20
3780.801146939121
 30
0.0
 11
9041.036861805709
 21
3780.801146939121
 31
0.0
  0
LINE
  5
2135C
330
747D
100
AcDbEntity
  8
細線
 48
50.0
100
AcDbLine
 10
9041.036861805709
 20
4080.801146939121
 30
0.0
 11
10949.83706355274
 21
4080.801146939121
 31
0.0
  0
DIMENSION
  5
2135D
330
747D
100
AcDbEntity
  8
寸法
 48
50.0
100
AcDbDimension
  2
*D27
 10
14177.69557878274
 20
1868.39363697215
 30
0.0
 11
14141.67367893307
 21
1944.098288442
 31
0.0
 70
   160
  1
55
 71
     5
 42
55.0
  3
INABA_S50G詳細S20用
100
AcDbAlignedDimension
 13
14761.90298830823
 23
2005.89363697215
 33
0.0
 14
14760.2198591847
 24
1868.39363697215
 34
0.0
 50
90.0
100
AcDbRotatedDimension
1001
ACAD
1000
DSTYLE
1002
{
1070
    40
1040
1.0
1070
   279
1070
     1
1002
}
  0
LEADER
  5
2135E
330
747D
100
AcDbEntity
  8
寸法
 48
50.0
100
AcDbLeader
  3
INABA_S50G詳細用
 71
     0
 73
     0
 75
     1
 40
150.0
 41
509.9999999999997
 76
     3
 10
14795.69140565139
 20
1868.393636972151
 30
0.0
 10
14228.94832359521
 20
1124.418844050864
 30
0.0
 10
14103.94832359521
 20
1124.418844050864
 30
0.0
340
2135F
1001
ACAD
1000
DSTYLE
1002
{
1070
    40
1040
1.0
1070
    77
1070
     1
1002
}
  0
MTEXT
  5
2135F
102
{ACAD_REACTORS
330
2135E
102
}
330
747D
100
AcDbEntity
  8
寸法
 62
     7
 48
50.0
100
AcDbMText
 10
14078.94832359521
 20
1149.418844050864
 30
0.0
 40
150.0
 41
0.0
 71
     9
 72
     1
  1
\A1;柱前左
  7
STYLE1
 73
     1
 44
1.0
1001
ACAD
1000
MTEXTBEGIN
1070
    73
1070
     1
1070
    44
1040
1.0
1070
    74
1070
     0
1000
MTEXTEND
  0
SPLINE
  5
21361
102
{ACAD_REACTORS
330
22F27
102
}
330
747D
100
AcDbEntity
  8
部品1
 48
50.0
100
AcDbSpline
210
0.0
220
0.0
230
1.0
 70
     8
 71
     3
 72
    11
 73
     7
 74
     5
 42
0.0000000001
 43
0.0000000001
 44
0.0000000001
 40
0.0
 40
0.0
 40
0.0
 40
0.0
 40
142.4562004170196
 40
249.0971287921331
 40
365.1670311020035
 40
496.9286002756863
 40
496.9286002756863
 40
496.9286002756863
 40
496.9286002756863
 10
15124.80319251803
 20
2779.377571403685
 30
0.0
 10
15078.93506902222
 20
2803.472305287252
 30
0.0
 10
14998.73064245151
 20
2845.604055339812
 30
0.0
 10
14889.31278170349
 20
2776.495428620754
 30
0.0
 10
14778.46088610851
 20
2717.030792785991
 30
0.0
 10
14699.90264066172
 20
2757.736212095916
 30
0.0
 10
14658.13652585137
 20
2779.377571403685
 30
0.0
 11
15124.80319251803
 21
2779.377571403685
 31
0.0
 11
14989.01906563877
 21
2822.463995308305
 31
0.0
 11
14891.4698591847
 21
2779.377571403685
 31
0.0
 11
14783.13652585137
 21
2737.710904737017
 31
0.0
 11
14658.13652585137
 21
2779.377571403685
 31
0.0
  0
LINE
  5
21362
330
747D
100
AcDbEntity
  8
部品1
 48
50.0
100
AcDbLine
 10
14291.4698591847
 20
2280.89363697215
 30
0.0
 11
14741.4698591847
 21
2280.89363697215
 31
0.0
  0
LINE
  5
21365
330
747D
100
AcDbEntity
  8
部品1
 48
50.0
100
AcDbLine
 10
14291.4698591847
 20
1405.893636972149
 30
0.0
 11
15166.46985918471
 21
1405.893636972151
 31
0.0
  0
LINE
  5
21366
102
{ACAD_REACTORS
330
22CD6
102
}
330
747D
100
AcDbEntity
  8
部品1
 48
50.0
100
AcDbLine
 10
11252.81013815939
 20
1961.488285487479
 30
0.0
 11
11434.06013815939
 21
1961.488285487485
 31
0.0
  0
LINE
  5
21367
102
{ACAD_REACTORS
330
22CD6
102
}
330
747D
100
AcDbEntity
  8
部品1
 48
50.0
100
AcDbLine
 10
11252.81013815939
 20
1983.988285487482
 30
0.0
 11
11434.06013815939
 21
1983.988285487485
 31
0.0
  0
LINE
  5
21368
330
747D
100
AcDbEntity
  8
部品1
 48
50.0
100
AcDbLine
 10
11252.81013815938
 20
2847.738285487485
 30
0.0
 11
11372.81013815939
 21
2847.738285487482
 31
0.0
  0
DIMENSION
  5
21369
330
747D
100
AcDbEntity
  8
寸法
 48
50.0
100
AcDbDimension
  2
*D28
 10
12639.91424671998
 20
1847.738285487482
 30
0.0
 11
12625.41581272423
 21
2317.143588555231
 31
0.0
 70
   160
  1
基礎天ヨリ\P<>
 71
     5
 42
350.0000000000001
  3
INABA_S50G詳細S20用
100
AcDbAlignedDimension
 13
11974.53058465187
 23
2722.738285487482
 33
0.0
 14
11252.81013815939
 24
1847.738285487482
 34
0.0
 50
90.0
100
AcDbRotatedDimension
1001
ACAD
1000
DSTYLE
1002
{
1070
    40
1040
1.0
1070
   279
1070
     1
1002
}
  0
LINE
  5
2136A
330
747D
100
AcDbEntity
  8
部品1
 48
50.0
100
AcDbLine
 10
10652.81013815939
 20
1597.73828548748
 30
0.0
 11
11527.81013815938
 21
1597.738285487486
 31
0.0
  0
HATCH
  5
2136B
330
747D
100
AcDbEntity
  8
細線
 48
50.0
100
AcDbHatch
 10
0.0
 20
0.0
 30
0.0
210
0.0
220
0.0
230
1.0
  2
LINE
 70
     0
 71
     1
 91
        1
 92
        7
 72
     0
 73
     1
 93
        4
 10
11590.31013815938
 20
1397.738285487483
 10
11590.31013815938
 20
1597.738285487483
 10
10590.31013815938
 20
1597.738285487483
 10
10590.31013815938
 20
1397.73828548748
 97
        4
330
2136D
330
2158B
330
2136C
330
21666
 75
     0
 76
     1
 52
75.0
 41
37.5
 77
     0
 78
     1
 53
75.0
 43
-6479.283995886205
 44
13791.19637224351
 45
-115.0055436925422
 46
30.81564255751887
 79
     0
 47
2.300206460912943
 98
        1
 10
11101.80645511583
 20
1488.272050712892
  0
LINE
  5
2136C
102
{ACAD_REACTORS
330
2136B
102
}
330
747D
100
AcDbEntity
  8
部品1
 48
50.0
100
AcDbLine
 10
11590.31013815938
 20
1397.738285487483
 30
0.0
 11
10590.31013815938
 21
1397.73828548748
 31
0.0
  0
LINE
  5
2136D
102
{ACAD_REACTORS
330
2136B
330
22CD6
102
}
330
747D
100
AcDbEntity
  8
部品1
 48
50.0
100
AcDbLine
 10
11590.31013815938
 20
1597.738285487483
 30
0.0
 11
10590.31013815938
 21
1597.738285487483
 31
0.0
  0
DIMENSION
  5
2136E
330
747D
100
AcDbEntity
  8
寸法
 48
50.0
100
AcDbDimension
  2
*D29
 10
11527.81013815938
 20
1021.435024673771
 30
0.0
 11
11090.31013815938
 21
1121.435024673771
 31
0.0
 70
    32
  1
\U+25A1<>
 71
     5
 42
349.9999999999949
  3
INABA_S50G詳細S20用
100
AcDbAlignedDimension
 13
10652.81013815939
 23
1397.73828548748
 33
0.0
 14
11527.81013815938
 24
1397.738285487483
 34
0.0
100
AcDbRotatedDimension
1001
ACAD
1000
DSTYLE
1002
{
1070
    40
1040
1.0
1002
}
  0
LINE
  5
21370
330
747D
100
AcDbEntity
  8
細線
 48
50.0
100
AcDbLine
 10
3789.67571756148
 20
135.8143065415861
 30
0.0
 11
3789.67571756148
 21
3930.801146939121
 31
0.0
  0
DIMENSION
  5
2149E
330
747D
100
AcDbEntity
  8
寸法
 48
50.0
100
AcDbDimension
  2
*D30
 10
13789.66023036435
 20
2280.89363697215
 30
0.0
 11
13689.66023036435
 21
1843.393636972152
 31
0.0
 70
    32
  1
\U+25A1<>穴
 71
     5
 42
350.0
  3
INABA_S50G詳細S20用
100
AcDbAlignedDimension
 13
14291.4698591847
 23
1405.893636972149
 33
0.0
 14
13937.83995327123
 24
2280.89363697215
 34
0.0
 50
90.0
100
AcDbRotatedDimension
1001
ACAD
1000
DSTYLE
1002
{
1070
    40
1040
1.0
1002
}
  0
LINE
  5
2149F
330
747D
100
AcDbEntity
  8
部品1
 48
50.0
100
AcDbLine
 10
14291.4698591847
 20
1405.893636972149
 30
0.0
 11
14291.4698591847
 21
2280.89363697215
 31
0.0
  0
LINE
  5
214A0
330
747D
100
AcDbEntity
  8
部品1
 48
50.0
100
AcDbLine
 10
14589.09224311776
 20
561.2669576020116
 30
0.0
 11
14589.09224311776
 21
361.2669576020116
 31
0.0
  0
LINE
  5
214A1
330
747D
100
AcDbEntity
  8
細線
 48
50.0
100
AcDbLine
 10
3789.67571756148
 20
3930.801146939121
 30
0.0
 11
8941.036861805709
 21
3930.801146939121
 31
0.0
  0
MTEXT
  5
214A2
102
{ACAD_REACTORS
330
214A3
102
}
330
747D
100
AcDbEntity
  8
寸法
 62
     7
 48
50.0
100
AcDbMText
 10
7111.847236024271
 20
3128.130283546262
 30
0.0
 40
150.0
 41
0.0
 71
     7
 72
     1
  1
アンカーボルト
  7
STYLE1
 73
     1
 44
0.6800000000000001
1001
ACAD
1000
MTEXTBEGIN
1070
    73
1070
     1
1070
    44
1040
0.6800000000000001
1070
    74
1070
     0
1000
MTEXTEND
  0
LEADER
  5
214A3
330
747D
100
AcDbEntity
  8
寸法
 48
50.0
100
AcDbLeader
  3
INABA_S50G詳細用
 71
     0
 73
     0
 75
     1
 40
150.0
 41
1242.936553006146
 76
     3
 10
8778.097926082086
 20
2617.823261260424
 30
0.0
 10
8504.783789030417
 20
3103.130283546262
 30
0.0
 10
8379.783789030417
 20
3103.130283546262
 30
0.0
340
214A2
1001
ACAD
1000
DSTYLE
1002
{
1070
    40
1040
1.0
1070
    77
1070
     1
1002
}
  0
TEXT
  5
214A4
330
747D
100
AcDbEntity
  8
部品1
 48
50.0
100
AcDbText
 10
7152.724927101982
 20
2904.529107051634
 30
0.0
 40
150.0
  1
M10×160
  7
STYLE1
100
AcDbText
  0
MTEXT
  5
214A7
102
{ACAD_REACTORS
330
214B1
102
}
330
747D
100
AcDbEntity
  8
寸法
 62
     7
 48
50.0
100
AcDbMText
 10
5176.727861304081
 20
3062.322623028813
 30
0.0
 40
150.0
 41
0.0
 71
     9
 72
     1
  1
金コテ押エ
  7
STYLE1
 73
     1
 44
1.0
1001
ACAD
1000
MTEXTBEGIN
1070
    73
1070
     1
1070
    44
1040
1.0
1070
    74
1070
     0
1000
MTEXTEND
  0
DIMENSION
  5
214A8
330
747D
100
AcDbEntity
  8
寸法
 48
50.0
100
AcDbDimension
  2
*D31
 10
5510.64728349413
 20
3122.559024330065
 30
0.0
 11
5660.647283494131
 21
3347.573788109592
 31
0.0
 70
    32
  1
<>\P170
 71
     5
 42
120.0
  3
INABA_S50G詳細S20用
100
AcDbAlignedDimension
 13
5810.64728349413
 23
2722.738285487483
 33
0.0
 14
5510.64728349413
 24
2722.738285487483
 34
0.0
100
AcDbRotatedDimension
1001
ACAD
1000
DSTYLE
1002
{
1070
    40
1040
1.0
1002
}
  0
TEXT
  5
214AA
330
747D
100
AcDbEntity
  8
寸法
 62
     7
 48
50.0
100
AcDbText
 10
4812.363128354642
 20
672.8449686704371
 30
0.0
 40
100.0
  1
基礎天は面取しないでください
  7
STYLE1
100
AcDbText
  0
LEADER
  5
214AB
330
747D
100
AcDbEntity
  8
寸法
 48
50.0
100
AcDbLeader
  3
INABA_S50G詳細用
 71
     0
 73
     0
 75
     1
 40
152.0863094478901
 41
255.1181102362205
 76
     3
 10
5460.647283494131
 20
1572.738285487483
 30
0.0
 10
5154.53825864256
 20
990.7336481721413
 30
0.0
 10
5029.53825864256
 20
990.7336481721413
 30
0.0
340
214AC
1001
ACAD
1000
DSTYLE
1002
{
1070
    40
1040
1.0
1070
    77
1070
     1
1002
}
  0
MTEXT
  5
214AC
102
{ACAD_REACTORS
330
214AB
102
}
330
747D
100
AcDbEntity
  8
寸法
 62
     7
 48
50.0
100
AcDbMText
 10
5004.53825864256
 20
1015.733648172141
 30
0.0
 40
150.0
 41
0.0
 71
     9
 72
     1
  1
D10
  7
STYLE1
 73
     1
 44
1.0
1001
ACAD
1000
MTEXTBEGIN
1070
    73
1070
     1
1070
    44
1040
1.0
1070
    74
1070
     0
1000
MTEXTEND
  0
LEADER
  5
214AD
330
747D
100
AcDbEntity
  8
寸法
 48
50.0
100
AcDbLeader
  3
INABA_S50G詳細用
 71
     0
 73
     0
 75
     1
 40
199.416260736239
 41
735.1181102362204
 76
     3
 10
5688.669691642267
 20
2115.574317241589
 30
0.0
 10
5346.712412576074
 20
1866.641372891462
 30
0.0
 10
5221.712412576074
 20
1866.641372891462
 30
0.0
340
214AE
1001
ACAD
1000
DSTYLE
1002
{
1070
    40
1040
1.0
1070
    77
1070
     1
1002
}
  0
MTEXT
  5
214AE
102
{ACAD_REACTORS
330
214AD
102
}
330
747D
100
AcDbEntity
  8
寸法
 62
     7
 48
50.0
100
AcDbMText
 10
5196.712412576075
 20
1891.641372891462
 30
0.0
 40
150.0
 41
0.0
 71
     9
 72
     1
  1
D10@300
  7
STYLE1
 73
     1
 44
1.0
1001
ACAD
1000
MTEXTBEGIN
1070
    73
1070
     1
1070
    44
1040
1.0
1070
    74
1070
     0
1000
MTEXTEND
  0
MTEXT
  5
214AF
102
{ACAD_REACTORS
330
214B0
102
}
330
747D
100
AcDbEntity
  8
寸法
 62
     7
 48
50.0
100
AcDbMText
 10
5251.05093161382
 20
2835.625132767852
 30
0.0
 40
150.0
 41
0.0
 71
     9
 72
     1
  1
D13
  7
STYLE1
 73
     1
 44
1.0
1001
ACAD
1000
MTEXTBEGIN
1070
    73
1070
     1
1070
    44
1040
1.0
1070
    74
1070
     0
1000
MTEXTEND
  0
LEADER
  5
214B0
330
747D
100
AcDbEntity
  8
寸法
 48
50.0
100
AcDbLeader
  3
INABA_S50G
 71
     0
 73
     0
 75
     1
 40
152.0863094478901
 41
261.2132034355964
 76
     3
 10
5660.647283494131
 20
2581.488285487483
 30
0.0
 10
5401.05093161382
 20
2810.625132767852
 30
0.0
 10
5276.05093161382
 20
2810.625132767852
 30
0.0
340
214AF
1001
ACAD
1000
DSTYLE
1002
{
1070
    40
1040
1.0
1070
    77
1070
     1
1070
   341
1005
11750
1002
}
  0
LEADER
  5
214B1
330
747D
100
AcDbEntity
  8
寸法
 48
50.0
100
AcDbLeader
  3
INABA_S50G
 71
     0
 73
     0
 75
     1
 40
150.0
 41
877.5000000000002
 76
     3
 10
5660.647283494131
 20
2722.738285487483
 30
0.0
 10
5326.727861304082
 20
3037.322623028813
 30
0.0
 10
5201.727861304082
 20
3037.322623028813
 30
0.0
340
214A7
1001
ACAD
1000
DSTYLE
1002
{
1070
    40
1040
1.0
1070
    77
1070
     1
1070
   341
1005
11750
1002
}
  0
LWPOLYLINE
  5
214B2
330
747D
100
AcDbEntity
  8
部品1
 48
50.0
100
AcDbPolyline
 90
        2
 70
     0
 10
4348.069510519817
 20
2347.738285487483
 40
18.75
 41
18.75
 10
5510.64728349413
 20
2347.738285487483
 40
12.5
 41
12.5
  0
LINE
  5
214B3
102
{ACAD_REACTORS
330
214BE
330
214B5
102
}
330
747D
100
AcDbEntity
  8
部品1
 48
50.0
100
AcDbLine
 10
6160.647283494131
 20
1372.738285487483
 30
0.0
 11
5160.647283494131
 21
1372.738285487483
 31
0.0
  0
LINE
  5
214B4
102
{ACAD_REACTORS
330
214B5
102
}
330
747D
100
AcDbEntity
  8
部品1
 48
50.0
100
AcDbLine
 10
6160.647283494131
 20
1172.738285487483
 30
0.0
 11
5160.647283494131
 21
1172.73828548748
 31
0.0
  0
HATCH
  5
214B5
330
747D
100
AcDbEntity
  8
細線
 48
50.0
100
AcDbHatch
 10
0.0
 20
0.0
 30
0.0
210
0.0
220
0.0
230
1.0
  2
LINE
 70
     0
 71
     1
 91
        1
 92
        7
 72
     0
 73
     1
 93
        4
 10
6160.647283494131
 20
1172.738285487483
 10
6160.64728349413
 20
1372.738285487483
 10
5160.647283494131
 20
1372.738285487483
 10
5160.647283494131
 20
1172.73828548748
 97
        4
330
214B3
330
214B7
330
214B4
330
214DB
 75
     0
 76
     1
 52
75.0
 41
37.5
 77
     0
 78
     1
 53
75.0
 43
-11908.94685055146
 44
13566.19637224351
 45
-115.0055436925422
 46
30.81564255751887
 79
     0
 47
2.300206460912943
 98
        1
 10
5672.143600450578
 20
1263.272050712892
  0
DIMENSION
  5
214B6
330
747D
100
AcDbEntity
  8
寸法
 48
50.0
100
AcDbDimension
  2
*D32
 10
4277.153456647655
 20
1372.738285487483
 30
0.0
 11
4177.153456647656
 21
2047.738285487485
 31
0.0
 70
    32
 71
     5
 42
540.0000000000001
  3
INABA_S50G詳細S20用
100
AcDbAlignedDimension
 13
5510.64728349413
 23
2722.738285487483
 33
0.0
 14
5160.647283494131
 24
1372.738285487483
 34
0.0
 50
90.0
100
AcDbRotatedDimension
1001
ACAD
1000
DSTYLE
1002
{
1070
    40
1040
1.0
1002
}
  0
LINE
  5
214B7
102
{ACAD_REACTORS
330
214B5
102
}
330
747D
100
AcDbEntity
  8
部品1
 48
50.0
100
AcDbLine
 10
5160.647283494131
 20
1172.73828548748
 30
0.0
 11
5160.647283494131
 21
1372.738285487483
 31
0.0
  0
TEXT
  5
214B8
330
747D
100
AcDbEntity
  8
寸法
 62
     7
 48
50.0
100
AcDbText
 10
4400.330615007045
 20
2367.033012319225
 30
0.0
 40
150.0
  1
▽G.L
  7
STYLE1
100
AcDbText
  0
DIMENSION
  5
214B9
330
747D
100
AcDbEntity
  8
寸法
 48
50.0
100
AcDbDimension
  2
*D33
 10
6624.385326591269
 20
1747.738285487483
 30
0.0
 11
6624.385326591269
 21
1560.238285487483
 31
0.0
 70
   160
 71
     5
 42
150.0
  3
INABA_S50G詳細S20用
100
AcDbAlignedDimension
 13
6160.647283494131
 23
1372.738285487483
 33
0.0
 14
6035.647283494131
 24
1747.738285487483
 34
0.0
 50
90.0
100
AcDbRotatedDimension
1001
ACAD
1000
DSTYLE
1002
{
1070
    40
1040
1.0
1002
}
  0
LINE
  5
214BA
102
{ACAD_REACTORS
330
214BE
102
}
330
747D
100
AcDbEntity
  8
部品1
 48
50.0
100
AcDbLine
 10
6035.647283494131
 20
1747.738285487483
 30
0.0
 11
6035.647283494131
 21
1372.738285487483
 31
0.0
  0
LINE
  5
214BB
102
{ACAD_REACTORS
330
214BE
102
}
330
747D
100
AcDbEntity
  8
部品1
 48
50.0
100
AcDbLine
 10
5285.647283494131
 20
1372.738285487483
 30
0.0
 11
5285.647283494131
 21
1747.738285487483
 31
0.0
  0
LINE
  5
214BC
102
{ACAD_REACTORS
330
214BE
102
}
330
747D
100
AcDbEntity
  8
部品1
 48
50.0
100
AcDbLine
 10
5701.897283494139
 20
2582.738285487483
 30
0.0
 11
5701.897283494122
 21
1575.238285487483
 31
0.0
  0
LINE
  5
214BD
102
{ACAD_REACTORS
330
214BE
102
}
330
747D
100
AcDbEntity
  8
部品1
 48
50.0
100
AcDbLine
 10
5676.897283494131
 20
2582.738285487483
 30
0.0
 11
5676.897283494121
 21
1575.238285487485
 31
0.0
  0
HATCH
  5
214BE
330
747D
100
AcDbEntity
  8
細線
 48
50.0
100
AcDbHatch
 10
0.0
 20
0.0
 30
0.0
210
0.0
220
0.0
230
1.0
  2
PLAST
 70
     0
 71
     1
 91
        2
 92
        7
 72
     0
 73
     1
 93
        8
 10
5810.64728349413
 20
2722.738285487483
 10
5510.64728349413
 20
2722.738285487483
 10
5510.64728349413
 20
1747.738285487483
 10
5285.647283494131
 20
1747.738285487483
 10
5285.647283494131
 20
1372.738285487483
 10
6035.647283494132
 20
1372.738285487483
 10
6035.647283494131
 20
1747.738285487483
 10
5810.64728349413
 20
1747.738285487483
 97
        8
330
214FE
330
214F2
330
214F3
330
214BB
330
214B3
330
214BA
330
214FD
330
214F1
 92
       22
 72
     1
 73
     1
 93
       28
 10
5701.897283494122
 20
1575.238285487483
 42
-0.0963961176292894
 10
5698.978275929618
 20
1560.238285487484
 42
0.0
 10
5860.647283494131
 20
1560.238285487485
 42
-0.4142135623730525
 10
5848.147283494131
 20
1572.738285487483
 42
-1.0
 10
5873.14728349413
 20
1572.738285487483
 42
-0.4142135623730525
 10
5860.647283494131
 20
1560.238285487485
 42
0.0
 10
5885.647283494138
 20
1560.238285487485
 42
0.0
 10
5885.64728349413
 20
1535.238285487483
 42
0.0
 10
5435.64728349413
 20
1535.238285487483
 42
0.0
 10
5435.64728349413
 20
1560.238285487483
 42
0.0
 10
5460.647283494131
 20
1560.238285487483
 42
-0.4142135623731004
 10
5448.14728349413
 20
1572.738285487483
 42
-1.0
 10
5473.147283494131
 20
1572.738285487483
 42
-0.4142135623730951
 10
5460.647283494131
 20
1560.238285487483
 42
0.0
 10
5622.316291058635
 20
1560.238285487484
 42
-0.0963961176293158
 10
5619.397283494112
 20
1575.238285487483
 42
0.0
 10
5619.397283494102
 20
1676.488285487487
 42
0.0
 10
5644.39728349413
 20
1676.488285487485
 42
0.0
 10
5644.397283494139
 20
1576.488285487481
 42
-1.0
 10
5676.897283494121
 20
1576.488285487483
 42
0.0
 10
5676.897283494131
 20
2581.488285487483
 42
-1.0
 10
5644.397283494139
 20
2581.488285487484
 42
0.0
 10
5644.39728349413
 20
2481.488285487483
 42
0.0
 10
5619.397283494104
 20
2481.488285487482
 42
0.0
 10
5619.397283494112
 20
2582.738285487482
 42
-0.414213562372882
 10
5659.397283494083
 20
2622.738285487482
 42
0.0
 10
5661.897283494139
 20
2622.738285487483
 42
-0.4142135623731017
 10
5701.897283494139
 20
2582.738285487482
 42
0.0
 97
       21
330
214CC
330
214C9
330
214DE
330
214DF
330
214CA
330
214CF
330
214CE
330
214D0
330
214D1
330
214D2
330
214CD
330
214CB
330
214BD
330
214FF
330
21504
330
21503
330
21505
330
21502
330
21500
330
21501
330
214BC
 75
     0
 76
     1
 52
45.0
 41
37.5
 77
     0
 78
     3
 53
45.0
 43
-11908.94685055146
 44
13566.19637224351
 45
-168.3798022700466
 46
168.3798022700466
 79
     0
 53
45.0
 43
-11929.99432583521
 44
13587.24384752727
 45
-168.3798022700466
 46
168.3798022700466
 79
     0
 53
45.0
 43
-11951.04180111897
 44
13608.29132281103
 45
-168.3798022700466
 46
168.3798022700466
 79
     0
 47
4.554250812093354
 98
        2
 10
5737.05948295828
 20
2393.273037570359
 10
5737.05948295828
 20
2393.273037570359
  0
LEADER
  5
214BF
330
747D
100
AcDbEntity
  8
寸法
 48
50.0
100
AcDbLeader
  3
INABA_S50G詳細用
 71
     0
 73
     0
 74
     0
 75
     1
 40
152.0863094478901
 41
261.2132034355964
 76
     3
 10
5660.647283494131
 20
1576.488285487483
 30
0.0
 10
6161.258965136211
 20
865.241608049866
 30
0.0
 10
6286.258965136211
 20
865.241608049866
 30
0.0
340
214C0
1001
ACAD
1000
DSTYLE
1002
{
1070
    40
1040
1.0
1070
    77
1070
     1
1002
}
  0
MTEXT
  5
214C0
102
{ACAD_REACTORS
330
214BF
102
}
330
747D
100
AcDbEntity
  8
寸法
 62
     7
 48
50.0
100
AcDbMText
 10
6311.258965136211
 20
890.241608049866
 30
0.0
 40
150.0
 41
0.0
 71
     7
 72
     1
  1
\A1;D13
  7
STYLE1
 73
     1
 44
1.0
1001
ACAD
1000
MTEXTBEGIN
1070
    73
1070
     1
1070
    44
1040
1.0
1070
    74
1070
     0
1000
MTEXTEND
  0
LEADER
  5
214C1
330
747D
100
AcDbEntity
  8
寸法
 48
50.0
100
AcDbLeader
  3
INABA_S50G詳細用
 71
     0
 73
     0
 74
     0
 75
     1
 40
199.416260736239
 41
735.1181102362204
 76
     3
 10
5821.846983395251
 20
1547.422227660753
 30
0.0
 10
6160.534454432802
 20
1081.713690993436
 30
0.0
 10
6285.534454432802
 20
1081.713690993436
 30
0.0
340
214C2
1001
ACAD
1000
DSTYLE
1002
{
1070
    40
1040
1.0
1070
    77
1070
     1
1002
}
  0
MTEXT
  5
214C2
102
{ACAD_REACTORS
330
214C1
102
}
330
747D
100
AcDbEntity
  8
寸法
 62
     7
 48
50.0
100
AcDbMText
 10
6310.534454432803
 20
1106.713690993436
 30
0.0
 40
150.0
 41
0.0
 71
     7
 72
     1
  1
\A1;D10@300
  7
STYLE1
 73
     1
 44
1.0
1001
ACAD
1000
MTEXTBEGIN
1070
    73
1070
     1
1070
    44
1040
1.0
1070
    74
1070
     0
1000
MTEXTEND
  0
DIMENSION
  5
214C3
330
747D
100
AcDbEntity
  8
寸法
 48
50.0
100
AcDbDimension
  2
*D34
 10
6035.647283494131
 20
898.1147359845271
 30
0.0
 11
5660.647283494131
 21
998.1147359845271
 31
0.0
 70
    32
 71
     5
 42
300.0
  3
INABA_S50G詳細S20用
100
AcDbAlignedDimension
 13
5285.647283494131
 23
1172.738285487481
 33
0.0
 14
6035.647283494131
 24
1172.738285487482
 34
0.0
100
AcDbRotatedDimension
1001
ACAD
1000
DSTYLE
1002
{
1070
    40
1040
1.0
1002
}
  0
TEXT
  5
214C4
330
747D
100
AcDbEntity
  8
部品1
 48
50.0
100
AcDbText
 10
5295.605676027644
 20
400.2766903578522
 30
0.0
 40
120.0
  1
基礎断面
  7
STYLE2
100
AcDbText
  0
LINE
  5
214C5
330
747D
100
AcDbEntity
  8
部品1
 48
50.0
100
AcDbLine
 10
6042.867549347374
 20
361.2669576020126
 30
0.0
 11
5242.867549347375
 21
361.2669576020126
 31
0.0
  0
LINE
  5
214C6
330
747D
100
AcDbEntity
  8
部品1
 48
50.0
100
AcDbLine
 10
6042.867549347374
 20
561.2669576020125
 30
0.0
 11
5242.867549347375
 21
561.2669576020125
 31
0.0
  0
LINE
  5
214C7
330
747D
100
AcDbEntity
  8
部品1
 48
50.0
100
AcDbLine
 10
5242.867549347375
 20
561.2669576020125
 30
0.0
 11
5242.867549347375
 21
361.2669576020126
 31
0.0
  0
LINE
  5
214C8
330
747D
100
AcDbEntity
  8
部品1
 48
50.0
100
AcDbLine
 10
6042.867549347374
 20
561.2669576020125
 30
0.0
 11
6042.867549347374
 21
361.2669576020126
 31
0.0
  0
LINE
  5
214C9
102
{ACAD_REACTORS
330
214BE
102
}
330
747D
100
AcDbEntity
  8
部品1
 48
50.0
100
AcDbLine
 10
5435.64728349413
 20
1560.238285487483
 30
0.0
 11
5885.647283494148
 21
1560.238285487485
 31
0.0
  0
LINE
  5
214CA
102
{ACAD_REACTORS
330
214BE
102
}
330
747D
100
AcDbEntity
  8
部品1
 48
50.0
100
AcDbLine
 10
5435.64728349413
 20
1535.238285487483
 30
0.0
 11
5885.64728349413
 21
1535.238285487483
 31
0.0
  0
CIRCLE
  5
214CB
102
{ACAD_REACTORS
330
214BE
102
}
330
747D
100
AcDbEntity
  8
部品1
 48
50.0
100
AcDbCircle
 10
5660.647283494131
 20
1576.488285487483
 30
0.0
 40
16.25
  0
ARC
  5
214CC
102
{ACAD_REACTORS
330
214BE
102
}
330
747D
100
AcDbEntity
  8
部品1
 48
50.0
100
AcDbCircle
 10
5661.897283494139
 20
1575.238285487485
 30
0.0
 40
40.0
100
AcDbArc
 50
337.9756871629567
 51
0.0
  0
LINE
  5
214CD
102
{ACAD_REACTORS
330
214BE
102
}
330
747D
100
AcDbEntity
  8
部品1
 48
50.0
100
AcDbLine
 10
5644.397283494139
 20
1575.238285487487
 30
0.0
 11
5644.39728349413
 21
1676.488285487487
 31
0.0
  0
CIRCLE
  5
214CE
102
{ACAD_REACTORS
330
214BE
102
}
330
747D
100
AcDbEntity
  8
部品1
 48
50.0
100
AcDbCircle
 10
5460.647283494131
 20
1572.738285487483
 30
0.0
 40
12.5
  0
LINE
  5
214CF
102
{ACAD_REACTORS
330
214BE
102
}
330
747D
100
AcDbEntity
  8
部品1
 48
50.0
100
AcDbLine
 10
5435.64728349413
 20
1535.238285487483
 30
0.0
 11
5435.64728349413
 21
1560.238285487483
 31
0.0
  0
ARC
  5
214D0
102
{ACAD_REACTORS
330
214BE
102
}
330
747D
100
AcDbEntity
  8
部品1
 48
50.0
100
AcDbCircle
 10
5659.397283494112
 20
1575.238285487487
 30
0.0
 40
40.0
100
AcDbArc
 50
180.0
 51
202.0243128370433
  0
LINE
  5
214D1
102
{ACAD_REACTORS
330
214BE
102
}
330
747D
100
AcDbEntity
  8
部品1
 48
50.0
100
AcDbLine
 10
5619.397283494112
 20
1575.238285487487
 30
0.0
 11
5619.397283494103
 21
1676.488285487487
 31
0.0
  0
LINE
  5
214D2
102
{ACAD_REACTORS
330
214BE
102
}
330
747D
100
AcDbEntity
  8
部品1
 48
50.0
100
AcDbLine
 10
5619.397283494103
 20
1676.488285487487
 30
0.0
 11
5644.397283494139
 21
1676.488285487485
 31
0.0
  0
LINE
  5
214D3
330
747D
100
AcDbEntity
  8
細線
 48
50.0
100
AcDbLine
 10
5615.007892177619
 20
1172.738285487477
 30
0.0
 11
5608.309162366835
 21
1197.738285487489
 31
0.0
  0
LINE
  5
214D4
330
747D
100
AcDbEntity
  8
細線
 48
50.0
100
AcDbLine
 10
5491.745321947543
 20
1172.738285487477
 30
0.0
 11
5485.046592136761
 21
1197.738285487485
 31
0.0
  0
LINE
  5
214D5
330
747D
100
AcDbEntity
  8
細線
 48
50.0
100
AcDbLine
 10
5401.976400771353
 20
1347.738285487483
 30
0.0
 11
5395.277670960575
 21
1372.738285487483
 31
0.0
  0
LINE
  5
214D6
330
747D
100
AcDbEntity
  8
細線
 48
50.0
100
AcDbLine
 10
5648.5015412315
 20
1347.738285487477
 30
0.0
 11
5641.802811420719
 21
1372.738285487483
 31
0.0
  0
LINE
  5
214D7
330
747D
100
AcDbEntity
  8
細線
 48
50.0
100
AcDbLine
 10
5525.238971001424
 20
1347.738285487477
 30
0.0
 11
5518.540241190647
 21
1372.738285487483
 31
0.0
  0
LINE
  5
214D8
330
747D
100
AcDbEntity
  8
細線
 48
50.0
100
AcDbLine
 10
5368.482751717468
 20
1172.73828548748
 30
0.0
 11
5361.784021906686
 21
1197.738285487492
 31
0.0
  0
LINE
  5
214D9
330
747D
100
AcDbEntity
  8
細線
 48
50.0
100
AcDbLine
 10
5245.220181487391
 20
1172.73828548748
 30
0.0
 11
5238.52145167661
 21
1197.738285487487
 31
0.0
  0
LINE
  5
214DA
330
747D
100
AcDbEntity
  8
細線
 48
50.0
100
AcDbLine
 10
5278.713830541281
 20
1347.738285487483
 30
0.0
 11
5272.015100730503
 21
1372.738285487483
 31
0.0
  0
LINE
  5
214DB
102
{ACAD_REACTORS
330
214B5
102
}
330
747D
100
AcDbEntity
  8
部品1
 48
50.0
100
AcDbLine
 10
6160.647283494131
 20
1372.738285487483
 30
0.0
 11
6160.647283494131
 21
1172.738285487483
 31
0.0
  0
LINE
  5
214DC
330
747D
100
AcDbEntity
  8
細線
 48
50.0
100
AcDbLine
 10
6108.058173097917
 20
1172.738285487477
 30
0.0
 11
6101.359443287136
 21
1197.738285487483
 31
0.0
  0
LINE
  5
214DD
330
747D
100
AcDbEntity
  8
細線
 48
50.0
100
AcDbLine
 10
6141.551822151801
 20
1347.738285487476
 30
0.0
 11
6134.853092341024
 21
1372.738285487478
 31
0.0
  0
CIRCLE
  5
214DE
102
{ACAD_REACTORS
330
214BE
102
}
330
747D
100
AcDbEntity
  8
部品1
 48
50.0
100
AcDbCircle
 10
5860.647283494131
 20
1572.738285487483
 30
0.0
 40
12.5
  0
LINE
  5
214DF
102
{ACAD_REACTORS
330
214BE
102
}
330
747D
100
AcDbEntity
  8
部品1
 48
50.0
100
AcDbLine
 10
5885.64728349414
 20
1560.238285487483
 30
0.0
 11
5885.64728349413
 21
1535.238285487483
 31
0.0
  0
LINE
  5
214E0
330
747D
100
AcDbEntity
  8
細線
 48
50.0
100
AcDbLine
 10
5984.795602867841
 20
1172.738285487477
 30
0.0
 11
5978.096873057062
 21
1197.738285487485
 31
0.0
  0
LINE
  5
214E1
330
747D
100
AcDbEntity
  8
細線
 48
50.0
100
AcDbLine
 10
5861.533032637768
 20
1172.738285487477
 30
0.0
 11
5854.834302826988
 21
1197.738285487489
 31
0.0
  0
LINE
  5
214E2
330
747D
100
AcDbEntity
  8
細線
 48
50.0
100
AcDbLine
 10
5738.270462407692
 20
1172.738285487477
 30
0.0
 11
5731.571732596912
 21
1197.738285487485
 31
0.0
  0
LINE
  5
214E3
330
747D
100
AcDbEntity
  8
細線
 48
50.0
100
AcDbLine
 10
6018.289251921728
 20
1347.738285487474
 30
0.0
 11
6011.590522110948
 21
1372.73828548748
 31
0.0
  0
LINE
  5
214E4
330
747D
100
AcDbEntity
  8
細線
 48
50.0
100
AcDbLine
 10
5895.026681691652
 20
1347.738285487477
 30
0.0
 11
5888.327951880874
 21
1372.738285487478
 31
0.0
  0
LINE
  5
214E5
330
747D
100
AcDbEntity
  8
細線
 48
50.0
100
AcDbLine
 10
5771.764111461575
 20
1347.738285487474
 30
0.0
 11
5765.065381650795
 21
1372.73828548748
 31
0.0
  0
LINE
  5
214F1
102
{ACAD_REACTORS
330
214BE
102
}
330
747D
100
AcDbEntity
  8
部品1
 48
50.0
100
AcDbLine
 10
5810.64728349413
 20
2722.738285487483
 30
0.0
 11
5810.64728349413
 21
1747.738285487483
 31
0.0
  0
LINE
  5
214F2
102
{ACAD_REACTORS
330
214BE
102
}
330
747D
100
AcDbEntity
  8
部品1
 48
50.0
100
AcDbLine
 10
5510.64728349413
 20
1747.738285487483
 30
0.0
 11
5510.64728349413
 21
2722.738285487483
 31
0.0
  0
LINE
  5
214F3
102
{ACAD_REACTORS
330
214BE
102
}
330
747D
100
AcDbEntity
  8
部品1
 48
50.0
100
AcDbLine
 10
5285.647283494131
 20
1747.738285487483
 30
0.0
 11
5510.64728349413
 21
1747.738285487483
 31
0.0
  0
LINE
  5
214FD
102
{ACAD_REACTORS
330
214BE
102
}
330
747D
100
AcDbEntity
  8
部品1
 48
50.0
100
AcDbLine
 10
5810.64728349413
 20
1747.738285487483
 30
0.0
 11
6035.647283494131
 21
1747.738285487483
 31
0.0
  0
LINE
  5
214FE
102
{ACAD_REACTORS
330
214BE
102
}
330
747D
100
AcDbEntity
  8
部品1
 48
50.0
100
AcDbLine
 10
5510.64728349413
 20
2722.738285487483
 30
0.0
 11
5810.64728349413
 21
2722.738285487483
 31
0.0
  0
CIRCLE
  5
214FF
102
{ACAD_REACTORS
330
214BE
102
}
330
747D
100
AcDbEntity
  8
部品1
 48
50.0
100
AcDbCircle
 10
5660.647283494131
 20
2581.488285487483
 30
0.0
 40
16.25
  0
LINE
  5
21500
102
{ACAD_REACTORS
330
214BE
102
}
330
747D
100
AcDbEntity
  8
部品1
 48
50.0
100
AcDbLine
 10
5659.397283494112
 20
2622.738285487482
 30
0.0
 11
5661.897283494139
 21
2622.738285487483
 31
0.0
  0
ARC
  5
21501
102
{ACAD_REACTORS
330
214BE
102
}
330
747D
100
AcDbEntity
  8
部品1
 48
50.0
100
AcDbCircle
 10
5661.897283494139
 20
2582.738285487483
 30
0.0
 40
40.0
100
AcDbArc
 50
0.0
 51
90.0
  0
ARC
  5
21502
102
{ACAD_REACTORS
330
214BE
102
}
330
747D
100
AcDbEntity
  8
部品1
 48
50.0
100
AcDbCircle
 10
5659.397283494112
 20
2582.738285487482
 30
0.0
 40
40.0
100
AcDbArc
 50
90.0
 51
180.0
  0
LINE
  5
21503
102
{ACAD_REACTORS
330
214BE
102
}
330
747D
100
AcDbEntity
  8
部品1
 48
50.0
100
AcDbLine
 10
5619.397283494103
 20
2481.488285487481
 30
0.0
 11
5644.397283494139
 21
2481.488285487483
 31
0.0
  0
LINE
  5
21504
102
{ACAD_REACTORS
330
214BE
102
}
330
747D
100
AcDbEntity
  8
部品1
 48
50.0
100
AcDbLine
 10
5644.397283494139
 20
2582.738285487482
 30
0.0
 11
5644.39728349413
 21
2481.488285487481
 31
0.0
  0
LINE
  5
21505
102
{ACAD_REACTORS
330
214BE
102
}
330
747D
100
AcDbEntity
  8
部品1
 48
50.0
100
AcDbLine
 10
5619.397283494112
 20
2582.738285487482
 30
0.0
 11
5619.397283494103
 21
2481.488285487481
 31
0.0
  0
LINE
  5
2150D
330
747D
100
AcDbEntity
  8
寸法
 48
50.0
100
AcDbLine
 10
9512.440052398925
 20
2798.122900872097
 30
0.0
 11
9512.440052398925
 21
3636.627629223596
 31
0.0
  0
MTEXT
  5
2150E
102
{ACAD_REACTORS
330
2159D
102
}
330
747D
100
AcDbEntity
  8
寸法
 62
     7
 48
50.0
100
AcDbMText
 10
10923.35557329442
 20
2961.215312174509
 30
0.0
 40
150.0
 41
0.0
 71
     9
 72
     1
  1
柱前左
  7
STYLE1
 73
     1
 44
1.0
1001
ACAD
1000
MTEXTBEGIN
1070
    73
1070
     1
1070
    44
1040
1.0
1070
    74
1070
     0
1000
MTEXTEND
  0
DIMENSION
  5
2150F
330
747D
100
AcDbEntity
  8
寸法
 48
50.0
100
AcDbDimension
  2
*D35
 10
9512.440052398925
 20
2722.738285487482
 30
0.0
 11
9512.440052398925
 21
3248.657258636239
 31
0.0
 70
   160
  1
出20～25
 71
     5
 42
30.15384615384574
  3
INABA_S50G詳細S20用
100
AcDbAlignedDimension
 13
8796.29453595931
 23
2798.122900872097
 33
0.0
 14
8880.099004180697
 24
2722.738285487482
 34
0.0
 50
90.0
100
AcDbRotatedDimension
1001
ACAD
1000
DSTYLE
1002
{
1070
   279
1070
     1
1070
    40
1040
1.0
1002
}
  0
DIMENSION
  5
21510
330
747D
100
AcDbEntity
  8
寸法
 48
50.0
100
AcDbDimension
  2
*D36
 10
8779.419535959309
 20
2997.835233635528
 30
0.0
 11
9112.658059298809
 21
2997.835233635528
 31
0.0
 70
   160
  1
50
 71
     5
 42
40.27178728855579
  3
INABA_S50G詳細S20用
100
AcDbAlignedDimension
 13
8880.099004180697
 23
2722.738285487482
 33
0.0
 14
8779.419535959309
 24
2798.122900872097
 34
0.0
100
AcDbRotatedDimension
1001
ACAD
1000
DSTYLE
1002
{
1070
    40
1040
1.0
1002
}
  0
LINE
  5
21511
102
{ACAD_REACTORS
330
22CD6
102
}
330
747D
100
AcDbEntity
  8
部品1
 48
50.0
100
AcDbLine
 10
11252.81013815939
 20
1847.738285487482
 30
0.0
 11
11252.81013815939
 21
3401.116674474371
 31
0.0
  0
LINE
  5
21512
102
{ACAD_REACTORS
330
22CD6
102
}
330
747D
100
AcDbEntity
  8
部品1
 48
50.0
100
AcDbLine
 10
11115.31013815939
 20
1847.738285487482
 30
0.0
 11
11115.31013815939
 21
3401.116674474371
 31
0.0
  0
LWPOLYLINE
  5
21513
330
747D
100
AcDbEntity
  8
部品1
 48
50.0
100
AcDbPolyline
 90
        2
 70
     0
 10
8880.099004180697
 20
2347.738285487482
 40
18.75
 41
18.75
 10
9619.784247296593
 20
2347.738285487482
 40
12.5
 41
12.5
  0
TEXT
  5
21514
330
747D
100
AcDbEntity
  8
寸法
 62
     7
 48
50.0
100
AcDbText
 10
9161.787360351297
 20
2373.737722240955
 30
0.0
 40
150.0
  1
▽G.L
  7
STYLE1
100
AcDbText
  0
TEXT
  5
21515
330
747D
100
AcDbEntity
  8
寸法
 62
     7
 48
50.0
100
AcDbText
 10
8106.247729830373
 20
944.1704392930523
 30
0.0
 40
150.0
  1
アンカーボルトは
  7
STYLE1
100
AcDbText
  0
LINE
  5
21516
330
747D
100
AcDbEntity
  8
部品1
 48
50.0
100
AcDbLine
 10
9105.099004180697
 20
1747.738285487482
 30
0.0
 11
9105.099004180697
 21
1372.738285487482
 31
0.0
  0
LINE
  5
21517
330
747D
100
AcDbEntity
  8
点線
 48
25.0
100
AcDbLine
 10
8355.099004180697
 20
1372.738285487482
 30
0.0
 11
8355.099004180697
 21
1747.738285487482
 31
0.0
  0
LINE
  5
21518
330
747D
100
AcDbEntity
  8
部品1
 48
50.0
100
AcDbLine
 10
8713.849004180696
 20
2363.988285487485
 30
0.0
 11
8713.849004180707
 21
1575.238285487485
 31
0.0
  0
LINE
  5
21519
330
747D
100
AcDbEntity
  8
部品1
 48
50.0
100
AcDbLine
 10
8688.84900418069
 20
2363.988285487482
 30
0.0
 11
8688.849004180706
 21
1575.238285487482
 31
0.0
  0
LINE
  5
2151B
330
747D
100
AcDbEntity
  8
部品1
 48
50.0
100
AcDbLine
 10
9211.597480067018
 20
561.2669576020125
 30
0.0
 11
8211.597480067018
 21
561.2669576020125
 31
0.0
  0
LINE
  5
2151C
330
747D
100
AcDbEntity
  8
部品1
 48
50.0
100
AcDbLine
 10
9211.597480067018
 20
361.2669576020126
 30
0.0
 11
8211.597480067018
 21
361.2669576020126
 31
0.0
  0
LINE
  5
2151D
330
747D
100
AcDbEntity
  8
部品1
 48
50.0
100
AcDbLine
 10
9230.099004180697
 20
1372.738285487482
 30
0.0
 11
8091.159173730941
 21
1372.738285487482
 31
0.0
  0
TEXT
  5
2151E
330
747D
100
AcDbEntity
  8
寸法
 62
     7
 48
50.0
100
AcDbText
 10
8106.247729830373
 20
767.3076877921021
 30
0.0
 40
150.0
  1
M12でも可
  7
STYLE1
100
AcDbText
  0
LINE
  5
2151F
330
747D
100
AcDbEntity
  8
部品1
 48
50.0
100
AcDbLine
 10
9230.099004180697
 20
1172.738285487482
 30
0.0
 11
8091.159173730941
 21
1172.738285487479
 31
0.0
  0
LINE
  5
21521
330
747D
100
AcDbEntity
  8
部品1
 48
50.0
100
AcDbLine
 10
8211.597480067018
 20
561.2669576020125
 30
0.0
 11
8211.597480067018
 21
361.2669576020126
 31
0.0
  0
LINE
  5
21522
330
747D
100
AcDbEntity
  8
点線
 48
25.0
100
AcDbLine
 10
8230.099004180697
 20
1172.738285487479
 30
0.0
 11
8230.099004180697
 21
1372.738285487482
 31
0.0
  0
TEXT
  5
21523
330
747D
100
AcDbEntity
  8
部品1
 48
50.0
100
AcDbText
 10
8288.600523989822
 20
403.7573222676328
 30
0.0
 40
120.0
  1
Ａ－Ａ’断面
  7
STYLE2
100
AcDbText
  0
LINE
  5
21524
330
747D
100
AcDbEntity
  8
部品1
 48
50.0
100
AcDbLine
 10
9211.597480067018
 20
561.2669576020125
 30
0.0
 11
9211.597480067018
 21
361.2669576020126
 31
0.0
  0
LINE
  5
21525
330
747D
100
AcDbEntity
  8
部品1
 48
50.0
100
AcDbLine
 10
8955.099004180697
 20
1560.238285487482
 30
0.0
 11
8505.099004180678
 21
1560.238285487485
 31
0.0
  0
LINE
  5
21526
330
747D
100
AcDbEntity
  8
部品1
 48
50.0
100
AcDbLine
 10
8955.099004180697
 20
1535.238285487482
 30
0.0
 11
8505.099004180697
 21
1535.238285487482
 31
0.0
  0
LINE
  5
21527
330
747D
100
AcDbEntity
  8
部品1
 48
50.0
100
AcDbLine
 10
8771.349004180724
 20
1676.488285487487
 30
0.0
 11
8746.349004180688
 21
1676.488285487485
 31
0.0
  0
ARC
  5
21529
330
747D
100
AcDbEntity
  8
部品1
 48
50.0
100
AcDbCircle
 10
8731.349004180714
 20
1575.238285487487
 30
0.0
 40
40.0
100
AcDbArc
 50
337.9756871629567
 51
0.0
  0
CIRCLE
  5
2152A
330
747D
100
AcDbEntity
  8
部品1
 48
50.0
100
AcDbCircle
 10
8730.099004180697
 20
1576.488285487482
 30
0.0
 40
16.25
  0
LINE
  5
2152B
330
747D
100
AcDbEntity
  8
部品1
 48
50.0
100
AcDbLine
 10
8771.349004180715
 20
1575.238285487487
 30
0.0
 11
8771.349004180724
 21
1676.488285487487
 31
0.0
  0
LINE
  5
2152C
330
747D
100
AcDbEntity
  8
部品1
 48
50.0
100
AcDbLine
 10
8746.349004180688
 20
1575.238285487487
 30
0.0
 11
8746.349004180697
 21
1676.488285487487
 31
0.0
  0
CIRCLE
  5
2152F
330
747D
100
AcDbEntity
  8
部品1
 48
50.0
100
AcDbCircle
 10
8530.099004180696
 20
1572.738285487482
 30
0.0
 40
12.5
  0
LINE
  5
21530
330
747D
100
AcDbEntity
  8
部品1
 48
50.0
100
AcDbLine
 10
8505.099004180687
 20
1560.238285487482
 30
0.0
 11
8505.099004180697
 21
1535.238285487482
 31
0.0
  0
ARC
  5
21531
330
747D
100
AcDbEntity
  8
部品1
 48
50.0
100
AcDbCircle
 10
8728.849004180686
 20
1575.238285487485
 30
0.0
 40
40.0
100
AcDbArc
 50
180.0
 51
202.0243128370433
  0
LINE
  5
2153A
330
747D
100
AcDbEntity
  8
部品1
 48
50.0
100
AcDbLine
 10
8955.099004180697
 20
1535.238285487482
 30
0.0
 11
8955.099004180697
 21
1560.238285487482
 31
0.0
  0
CIRCLE
  5
2153B
330
747D
100
AcDbEntity
  8
部品1
 48
50.0
100
AcDbCircle
 10
8930.099004180696
 20
1572.738285487482
 30
0.0
 40
12.5
  0
LINE
  5
21541
330
747D
100
AcDbEntity
  8
部品1
 48
50.0
100
AcDbLine
 10
9230.099004180697
 20
1372.738285487482
 30
0.0
 11
9230.099004180697
 21
1172.738285487482
 31
0.0
  0
ARC
  5
21555
330
747D
100
AcDbEntity
  8
部品1
 48
50.0
100
AcDbCircle
 10
8750.044535959309
 20
2410.238285487482
 30
0.0
 40
46.25
100
AcDbArc
 50
270.0
 51
0.0
  0
LINE
  5
21556
330
747D
100
AcDbEntity
  8
部品1
 48
50.0
100
AcDbLine
 10
8687.544535959309
 20
2363.988285487482
 30
0.0
 11
8687.544535959309
 21
2397.738285487482
 31
0.0
  0
LINE
  5
21558
330
747D
100
AcDbEntity
  8
点線
 48
25.0
100
AcDbLine
 10
8580.099004180697
 20
1747.738285487482
 30
0.0
 11
8580.099004180697
 21
2722.738285487482
 31
0.0
  0
LINE
  5
21559
330
747D
100
AcDbEntity
  8
部品1
 48
50.0
100
AcDbLine
 10
8880.099004180697
 20
2722.738285487482
 30
0.0
 11
8880.099004180697
 21
1747.738285487482
 31
0.0
  0
LINE
  5
2155E
330
747D
100
AcDbEntity
  8
部品1
 48
50.0
100
AcDbLine
 10
8750.044535959309
 20
2363.988285487482
 30
0.0
 11
8687.544535959309
 21
2363.988285487482
 31
0.0
  0
LINE
  5
21562
330
747D
100
AcDbEntity
  8
点線
 48
25.0
100
AcDbLine
 10
8355.099004180697
 20
1747.738285487482
 30
0.0
 11
8580.099004180697
 21
1747.738285487482
 31
0.0
  0
LINE
  5
21563
330
747D
100
AcDbEntity
  8
部品1
 48
50.0
100
AcDbLine
 10
8880.099004180697
 20
1747.738285487482
 30
0.0
 11
9105.099004180697
 21
1747.738285487482
 31
0.0
  0
LINE
  5
21564
330
747D
100
AcDbEntity
  8
部品1
 48
50.0
100
AcDbLine
 10
8762.544535959309
 20
2798.122900872097
 30
0.0
 11
8796.29453595931
 21
2798.122900872097
 31
0.0
  0
LINE
  5
21565
330
747D
100
AcDbEntity
  8
細線
 48
50.0
100
AcDbLine
 10
8801.294535959309
 20
2791.962646834252
 30
0.0
 11
8757.294535959303
 21
2780.172882367282
 31
0.0
  0
LINE
  5
21566
330
747D
100
AcDbEntity
  8
細線
 48
50.0
100
AcDbLine
 10
8801.294535959309
 20
2776.962646834256
 30
0.0
 11
8757.294535959303
 21
2765.172882367285
 31
0.0
  0
LINE
  5
21567
330
747D
100
AcDbEntity
  8
部品1
100
AcDbLine
 10
8804.996459036232
 20
2755.045977795175
 30
0.0
 11
8753.842612882385
 21
2755.045977795175
 31
0.0
  0
LINE
  5
21568
330
747D
100
AcDbEntity
  8
部品1
100
AcDbLine
 10
8809.034920574694
 20
2751.007516256716
 30
0.0
 11
8749.804151343919
 21
2751.007516256711
 31
0.0
  0
ARC
  5
21569
330
747D
100
AcDbEntity
  8
部品1
100
AcDbCircle
 10
8779.419535959299
 20
2710.234840860116
 30
0.0
 40
43.85610339004736
100
AcDbArc
 50
68.38687878209459
 51
111.6131212179054
  0
LINE
  5
2156A
330
747D
100
AcDbEntity
  8
細線
 48
50.0
100
AcDbLine
 10
8801.294535959309
 20
2761.962646834256
 30
0.0
 11
8775.481175686314
 21
2755.045977795175
 31
0.0
  0
LINE
  5
2156B
330
747D
100
AcDbEntity
  8
部品1
100
AcDbLine
 10
8814.419535959308
 20
2728.122900872097
 30
0.0
 11
8744.419535959307
 21
2728.122900872097
 31
0.0
  0
LINE
  5
2156C
330
747D
100
AcDbEntity
  8
部品1
 48
50.0
100
AcDbLine
 10
8091.159173730941
 20
2722.738285487483
 30
0.0
 11
8880.099004180697
 21
2722.738285487482
 31
0.0
  0
ARC
  5
2156D
330
747D
100
AcDbEntity
  8
部品1
100
AcDbCircle
 10
8756.53492057469
 20
2744.688393867952
 30
0.0
 40
9.232256614826125
100
AcDbArc
 50
43.19325636896715
 51
136.8067436310328
  0
LINE
  5
2156E
330
747D
100
AcDbEntity
  8
部品1
100
AcDbLine
 10
8753.842612882385
 20
2755.045977795175
 30
0.0
 11
8749.804151343919
 21
2751.007516256716
 31
0.0
  0
LINE
  5
2156F
330
747D
100
AcDbEntity
  8
部品1
100
AcDbLine
 10
8744.419535959307
 20
2728.122900872097
 30
0.0
 11
8744.419535959307
 21
2722.738285487482
 31
0.0
  0
LINE
  5
21570
330
747D
100
AcDbEntity
  8
部品1
100
AcDbLine
 10
8763.265689805461
 20
2751.007516256714
 30
0.0
 11
8763.265689805461
 21
2728.122900872097
 31
0.0
  0
LINE
  5
21571
330
747D
100
AcDbEntity
  8
部品1
100
AcDbLine
 10
8749.804151343919
 20
2751.007516256716
 30
0.0
 11
8749.804151343919
 21
2728.122900872097
 31
0.0
  0
LINE
  5
21572
330
747D
100
AcDbEntity
  8
部品1
 48
50.0
100
AcDbLine
 10
8762.544535959314
 20
2755.045977795175
 30
0.0
 11
8762.544535959309
 21
2798.122900872097
 31
0.0
  0
LINE
  5
21573
330
747D
100
AcDbEntity
  8
部品1
 48
50.0
100
AcDbLine
 10
8713.849004180696
 20
2582.738285487482
 30
0.0
 11
8713.849004180696
 21
2397.738285487485
 31
0.0
  0
LINE
  5
21574
330
747D
100
AcDbEntity
  8
部品1
 48
50.0
100
AcDbLine
 10
8746.349004180688
 20
2582.73828548748
 30
0.0
 11
8746.349004180697
 21
2481.48828548748
 31
0.0
  0
LINE
  5
21575
330
747D
100
AcDbEntity
  8
部品1
 48
50.0
100
AcDbLine
 10
8762.544535959309
 20
2481.488285487483
 30
0.0
 11
8746.349004180688
 21
2481.488285487483
 31
0.0
  0
ARC
  5
21576
330
747D
100
AcDbEntity
  8
部品1
 48
50.0
100
AcDbCircle
 10
8750.044535959309
 20
2410.238285487482
 30
0.0
 40
12.5
100
AcDbArc
 50
270.0
 51
0.0
  0
CIRCLE
  5
21577
330
747D
100
AcDbEntity
  8
部品1
 48
50.0
100
AcDbCircle
 10
8730.099004180697
 20
2581.488285487483
 30
0.0
 40
16.25
  0
LINE
  5
21578
330
747D
100
AcDbEntity
  8
部品1
 48
50.0
100
AcDbLine
 10
8731.349004180714
 20
2622.73828548748
 30
0.0
 11
8728.849004180686
 21
2622.738285487483
 31
0.0
  0
ARC
  5
21579
330
747D
100
AcDbEntity
  8
部品1
 48
50.0
100
AcDbCircle
 10
8731.349004180714
 20
2582.73828548748
 30
0.0
 40
40.0
100
AcDbArc
 50
38.74965111338627
 51
90.0
  0
LINE
  5
2157A
330
747D
100
AcDbEntity
  8
部品1
 48
50.0
100
AcDbLine
 10
8688.849004180687
 20
2582.738285487482
 30
0.0
 11
8688.84900418069
 21
2397.738285487482
 31
0.0
  0
LINE
  5
2157B
330
747D
100
AcDbEntity
  8
部品1
 48
50.0
100
AcDbLine
 10
8750.044535959309
 20
2397.738285487482
 30
0.0
 11
8687.544535959309
 21
2397.738285487482
 31
0.0
  0
ARC
  5
2157C
330
747D
100
AcDbEntity
  8
部品1
 48
50.0
100
AcDbCircle
 10
8728.849004180686
 20
2582.738285487482
 30
0.0
 40
40.0
100
AcDbArc
 50
90.0
 51
180.0
  0
LINE
  5
2157D
330
747D
100
AcDbEntity
  8
部品1
 48
50.0
100
AcDbLine
 10
8762.544535959309
 20
2410.238285487482
 30
0.0
 11
8762.544535959309
 21
2722.738285487482
 31
0.0
  0
LINE
  5
2157E
330
747D
100
AcDbEntity
  8
部品1
100
AcDbLine
 10
8809.03492057469
 20
2751.007516256714
 30
0.0
 11
8809.03492057469
 21
2728.122900872097
 31
0.0
  0
LINE
  5
2157F
330
747D
100
AcDbEntity
  8
部品1
100
AcDbLine
 10
8795.573382113147
 20
2751.007516256716
 30
0.0
 11
8795.57338211315
 21
2728.122900872097
 31
0.0
  0
ARC
  5
21580
330
747D
100
AcDbEntity
  8
部品1
100
AcDbCircle
 10
8802.304151343918
 20
2744.688393867952
 30
0.0
 40
9.232256614826125
100
AcDbArc
 50
43.19325636896715
 51
136.8067436310328
  0
LINE
  5
21581
330
747D
100
AcDbEntity
  8
部品1
100
AcDbLine
 10
8809.03492057469
 20
2751.007516256714
 30
0.0
 11
8804.996459036232
 21
2755.045977795175
 31
0.0
  0
LINE
  5
21582
330
747D
100
AcDbEntity
  8
部品1
 48
50.0
100
AcDbLine
 10
8796.294535959303
 20
2755.045977795175
 30
0.0
 11
8796.29453595931
 21
2798.122900872097
 31
0.0
  0
LINE
  5
21583
330
747D
100
AcDbEntity
  8
部品1
100
AcDbLine
 10
8814.419535959308
 20
2728.122900872097
 30
0.0
 11
8814.419535959308
 21
2722.738285487482
 31
0.0
  0
LINE
  5
21584
330
747D
100
AcDbEntity
  8
部品1
 48
50.0
100
AcDbLine
 10
8796.29453595931
 20
2410.238285487482
 30
0.0
 11
8796.29453595931
 21
2722.738285487482
 31
0.0
  0
LEADER
  5
21585
330
747D
100
AcDbEntity
  8
寸法
 48
50.0
100
AcDbLeader
  3
INABA_S50G詳細用
 71
     0
 73
     0
 75
     1
 40
150.0
 41
687.5
 76
     3
 10
11013.30642853119
 20
1974.049580773448
 30
0.0
 10
10549.41124581324
 20
1202.790007523475
 30
0.0
 10
10424.41124581324
 20
1202.790007523475
 30
0.0
340
21586
1001
ACAD
1000
DSTYLE
1002
{
1070
    40
1040
1.0
1070
    77
1070
     1
1002
}
  0
MTEXT
  5
21586
102
{ACAD_REACTORS
330
21585
102
}
330
747D
100
AcDbEntity
  8
寸法
 62
     7
 48
50.0
100
AcDbMText
 10
10399.41124581324
 20
1227.790007523476
 30
0.0
 40
150.0
 41
0.0
 71
     9
 72
     1
  1
\A1;カンザシ
  7
STYLE1
 73
     1
 44
1.0
1001
ACAD
1000
MTEXTBEGIN
1070
    73
1070
     1
1070
    44
1040
1.0
1070
    74
1070
     0
1000
MTEXTEND
  0
LINE
  5
21587
102
{ACAD_REACTORS
330
22CD6
102
}
330
747D
100
AcDbEntity
  8
部品1
 48
50.0
100
AcDbLine
 10
10652.81013815939
 20
1597.73828548748
 30
0.0
 11
10652.81013815938
 21
2347.738285487483
 31
0.0
  0
DIMENSION
  5
21588
330
747D
100
AcDbEntity
  8
寸法
 48
50.0
100
AcDbDimension
  2
*D37
 10
10280.13627582639
 20
1597.738285487482
 30
0.0
 11
10280.13627582639
 21
1972.738285487483
 31
0.0
 70
   160
 71
     5
 42
300.0
  3
INABA_S50G詳細S20用
100
AcDbAlignedDimension
 13
10497.34537145263
 23
2347.738285487482
 33
0.0
 14
10684.06013815939
 24
1597.738285487482
 34
0.0
 50
90.0
100
AcDbRotatedDimension
1001
ACAD
1000
DSTYLE
1002
{
1070
    40
1040
1.0
1002
}
  0
LINE
  5
21589
330
747D
100
AcDbEntity
  8
部品1
 48
50.0
100
AcDbLine
 10
10662.68947046927
 20
561.2669576020125
 30
0.0
 11
10662.68947046927
 21
361.2669576020126
 31
0.0
  0
LINE
  5
2158A
330
747D
100
AcDbEntity
  8
細線
 48
50.0
100
AcDbLine
 10
10674.88303615264
 20
1397.73828548748
 30
0.0
 11
10668.18430634186
 21
1422.738285487487
 31
0.0
  0
LINE
  5
2158B
102
{ACAD_REACTORS
330
2136B
102
}
330
747D
100
AcDbEntity
  8
部品1
 48
50.0
100
AcDbLine
 10
10590.31013815938
 20
1397.73828548748
 30
0.0
 11
10590.31013815938
 21
1597.738285487483
 31
0.0
  0
LINE
  5
2158C
330
747D
100
AcDbEntity
  8
細線
 48
50.0
100
AcDbLine
 10
10708.37668520653
 20
1572.738285487483
 30
0.0
 11
10701.67795539575
 21
1597.738285487483
 31
0.0
  0
LINE
  5
2158D
330
747D
100
AcDbEntity
  8
細線
 48
50.0
100
AcDbLine
 10
10798.14560638272
 20
1397.73828548748
 30
0.0
 11
10791.44687657193
 21
1422.738285487492
 31
0.0
  0
LINE
  5
2158E
330
747D
100
AcDbEntity
  8
細線
 48
50.0
100
AcDbLine
 10
11044.67074684287
 20
1397.738285487478
 30
0.0
 11
11037.97201703209
 21
1422.738285487489
 31
0.0
  0
LINE
  5
2158F
330
747D
100
AcDbEntity
  8
細線
 48
50.0
100
AcDbLine
 10
10921.40817661279
 20
1397.738285487478
 30
0.0
 11
10914.70944680201
 21
1422.738285487486
 31
0.0
  0
LINE
  5
21590
330
747D
100
AcDbEntity
  8
細線
 48
50.0
100
AcDbLine
 10
10954.90182566667
 20
1572.738285487479
 30
0.0
 11
10948.2030958559
 21
1597.738285487483
 31
0.0
  0
LINE
  5
21591
330
747D
100
AcDbEntity
  8
細線
 48
50.0
100
AcDbLine
 10
11078.16439589675
 20
1572.738285487479
 30
0.0
 11
11071.46566608597
 21
1597.738285487483
 31
0.0
  0
LINE
  5
21592
330
747D
100
AcDbEntity
  8
細線
 48
50.0
100
AcDbLine
 10
10831.6392554366
 20
1572.738285487483
 30
0.0
 11
10824.94052562583
 21
1597.738285487483
 31
0.0
  0
LINE
  5
21593
330
747D
100
AcDbEntity
  8
細線
 48
50.0
100
AcDbLine
 10
11167.93331707294
 20
1397.738285487478
 30
0.0
 11
11161.23458726216
 21
1422.738285487486
 31
0.0
  0
LINE
  5
21594
330
747D
100
AcDbEntity
  8
細線
 48
50.0
100
AcDbLine
 10
11201.42696612683
 20
1572.738285487474
 30
0.0
 11
11194.72823631605
 21
1597.73828548748
 31
0.0
  0
LINE
  5
21595
330
747D
100
AcDbEntity
  8
部品1
 48
50.0
100
AcDbLine
 10
11102.81013815938
 20
2347.738285487482
 30
0.0
 11
11102.81013815939
 21
2722.738285487482
 31
0.0
  0
TEXT
  5
21596
330
747D
100
AcDbEntity
  8
寸法
 62
     7
 48
50.0
100
AcDbText
 10
10516.84049356835
 20
2373.796934694942
 30
0.0
 40
150.0
  1
▽G.L
  7
STYLE1
100
AcDbText
  0
LWPOLYLINE
  5
21597
102
{ACAD_REACTORS
330
22CD6
102
}
330
747D
100
AcDbEntity
  8
部品1
 48
50.0
100
AcDbPolyline
 90
        2
 70
     0
 10
10497.34537145263
 20
2347.738285487482
 40
18.75
 41
18.75
 10
11115.31013815939
 20
2347.738285487482
 40
12.5
 41
12.5
  0
LINE
  5
21599
102
{ACAD_REACTORS
330
22CD6
102
}
330
747D
100
AcDbEntity
  8
部品1
 48
50.0
100
AcDbLine
 10
11115.31013815939
 20
1847.738285487482
 30
0.0
 11
11252.81013815939
 21
1847.738285487485
 31
0.0
  0
LINE
  5
2159A
102
{ACAD_REACTORS
330
22CD6
102
}
330
747D
100
AcDbEntity
  8
部品1
 48
50.0
100
AcDbLine
 10
10934.06013815939
 20
1961.488285487479
 30
0.0
 11
11115.3101381594
 21
1961.488285487482
 31
0.0
  0
LINE
  5
2159B
102
{ACAD_REACTORS
330
22CD6
102
}
330
747D
100
AcDbEntity
  8
部品1
 48
50.0
100
AcDbLine
 10
10934.06013815939
 20
1983.988285487479
 30
0.0
 11
11115.3101381594
 21
1983.988285487479
 31
0.0
  0
LINE
  5
2159C
102
{ACAD_REACTORS
330
22CD6
102
}
330
747D
100
AcDbEntity
  8
部品1
 48
50.0
100
AcDbLine
 10
10934.0601381594
 20
1961.488285487479
 30
0.0
 11
10934.06013815939
 21
1983.988285487479
 31
0.0
  0
LEADER
  5
2159D
330
747D
100
AcDbEntity
  8
寸法
 48
50.0
100
AcDbLeader
  3
INABA_S50G詳細用
 71
     0
 73
     0
 75
     1
 40
150.0
 41
509.9999999999997
 76
     3
 10
11140.80376002657
 20
2847.738285487482
 30
0.0
 10
11073.35557329442
 20
2936.215312174509
 30
0.0
 10
10948.35557329442
 20
2936.215312174509
 30
0.0
340
2150E
1001
ACAD
1000
DSTYLE
1002
{
1070
    40
1040
1.0
1070
    77
1070
     1
1002
}
  0
LINE
  5
215A0
330
747D
100
AcDbEntity
  8
部品1
 48
50.0
100
AcDbLine
 10
11102.81013815939
 20
2722.738285487482
 30
0.0
 11
11115.31013815939
 21
2722.738285487485
 31
0.0
  0
LINE
  5
215AB
330
747D
100
AcDbEntity
  8
点線
 48
5.0
100
AcDbLine
 10
11315.31013815939
 20
2722.738285487482
 30
0.0
 11
11295.31013815939
 21
2722.738285487482
 31
0.0
  0
TEXT
  5
215AE
330
747D
100
AcDbEntity
  8
部品1
 48
50.0
100
AcDbText
 10
9066.973205470308
 20
3862.159624205452
 30
0.0
 40
140.0
  1
基礎詳細図
  7
STYLE2
100
AcDbText
  0
ARC
  5
215AF
330
747D
100
AcDbEntity
  8
細線
 48
50.0
100
AcDbCircle
 10
9041.036861805709
 20
3980.801146939121
 30
0.0
 40
100.0
100
AcDbArc
 50
90.0
 51
180.0
  0
LINE
  5
215B0
330
747D
100
AcDbEntity
  8
細線
 48
50.0
100
AcDbLine
 10
8941.036861805709
 20
3880.801146939121
 30
0.0
 11
8941.036861805709
 21
3980.801146939121
 31
0.0
  0
ARC
  5
215B1
330
747D
100
AcDbEntity
  8
細線
 48
50.0
100
AcDbCircle
 10
9041.036861805709
 20
3880.801146939121
 30
0.0
 40
100.0
100
AcDbArc
 50
180.0
 51
270.0
  0
LINE
  5
215B6
330
747D
100
AcDbEntity
  8
細線
 48
50.0
100
AcDbLine
 10
16201.19820779696
 20
3930.801146939121
 30
0.0
 11
16201.19820779696
 21
135.8143065415861
 31
0.0
  0
LINE
  5
215BF
330
747D
100
AcDbEntity
  8
部品1
 48
50.0
100
AcDbLine
 10
15041.1061398714
 20
561.2669576020116
 30
0.0
 11
15041.1061398714
 21
361.2669576020116
 31
0.0
  0
LINE
  5
215C3
102
{ACAD_REACTORS
330
22F27
102
}
330
747D
100
AcDbEntity
  8
部品1
 48
50.0
100
AcDbLine
 10
14741.4698591847
 20
2008.393636972151
 30
0.0
 11
14741.4698591847
 21
2743.01597732779
 31
0.0
  0
LINE
  5
215C4
102
{ACAD_REACTORS
330
22F27
102
}
330
747D
100
AcDbEntity
  8
部品1
 48
50.0
100
AcDbLine
 10
15041.4698591847
 20
2280.89363697215
 30
0.0
 11
15041.4698591847
 21
2816.787227288392
 31
0.0
  0
LINE
  5
215C5
330
747D
100
AcDbEntity
  8
センター
 48
2.0
100
AcDbLine
 10
14822.7198591847
 20
1896.933879626197
 30
0.0
 11
14822.7198591847
 21
1977.353394318106
 31
0.0
  0
LINE
  5
215C6
330
747D
100
AcDbEntity
  8
センター
 48
2.0
100
AcDbLine
 10
14862.92961653065
 20
1937.143636972151
 30
0.0
 11
14782.51010183875
 21
1937.143636972151
 31
0.0
  0
ARC
  5
215C8
330
747D
100
AcDbEntity
  8
部品1
 48
50.0
100
AcDbCircle
 10
14885.2198591847
 20
1952.143636972153
 30
0.0
 40
6.25
100
AcDbArc
 50
0.0
 51
90.0
  0
ARC
  5
215C9
330
747D
100
AcDbEntity
  8
部品1
 48
50.0
100
AcDbCircle
 10
14885.2198591847
 20
1874.643636972151
 30
0.0
 40
6.25
100
AcDbArc
 50
270.0
 51
0.0
  0
ARC
  5
215CA
330
747D
100
AcDbEntity
  8
部品1
 48
50.0
100
AcDbCircle
 10
14760.2198591847
 20
1874.64363697215
 30
0.0
 40
6.25
100
AcDbArc
 50
180.0
 51
270.0
  0
ARC
  5
215CB
330
747D
100
AcDbEntity
  8
部品1
 48
50.0
100
AcDbCircle
 10
14760.2198591847
 20
1999.64363697215
 30
0.0
 40
6.25
100
AcDbArc
 50
90.0
 51
180.0
  0
LINE
  5
215CC
102
{ACAD_REACTORS
330
22F27
102
}
330
747D
100
AcDbEntity
  8
部品1
 48
50.0
100
AcDbLine
 10
14741.4698591847
 20
2008.393636972151
 30
0.0
 11
14893.9698591847
 21
2008.393636972151
 31
0.0
  0
LINE
  5
215CF
330
747D
100
AcDbEntity
  8
部品1
 48
50.0
100
AcDbLine
 10
14753.9698591847
 20
1999.64363697215
 30
0.0
 11
14753.9698591847
 21
1874.64363697215
 31
0.0
  0
LINE
  5
215DA
330
747D
100
AcDbEntity
  8
部品1
 48
50.0
100
AcDbLine
 10
14760.2198591847
 20
1868.39363697215
 30
0.0
 11
14885.2198591847
 21
1868.393636972151
 31
0.0
  0
LINE
  5
215DC
330
747D
100
AcDbEntity
  8
部品1
 48
50.0
100
AcDbLine
 10
14891.4698591847
 20
1953.393636972151
 30
0.0
 11
14891.4698591847
 21
1947.143636972151
 31
0.0
  0
LINE
  5
215E0
330
747D
100
AcDbEntity
  8
部品1
 48
50.0
100
AcDbLine
 10
14891.4698591847
 20
1874.643636972151
 30
0.0
 11
14891.4698591847
 21
1952.143636972153
 31
0.0
  0
LINE
  5
215E3
330
747D
100
AcDbEntity
  8
部品1
 48
50.0
100
AcDbLine
 10
14886.4698591847
 20
1958.393636972151
 30
0.0
 11
14833.9698591847
 21
1958.393636972151
 31
0.0
  0
LINE
  5
215E4
330
747D
100
AcDbEntity
  8
部品1
 48
50.0
100
AcDbLine
 10
14885.2198591847
 20
1958.393636972153
 30
0.0
 11
14833.9698591847
 21
1958.393636972151
 31
0.0
  0
LINE
  5
215EE
330
747D
100
AcDbEntity
  8
部品1
 48
50.0
100
AcDbLine
 10
14811.4698591847
 20
2005.893636972151
 30
0.0
 11
14760.2198591847
 21
2005.89363697215
 31
0.0
  0
LINE
  5
2164C
330
747D
100
AcDbEntity
  8
細線
 48
50.0
100
AcDbLine
 10
11049.83706355274
 20
3930.801146939121
 30
0.0
 11
16201.19820779696
 21
3930.801146939121
 31
0.0
  0
MTEXT
  5
2165A
102
{ACAD_REACTORS
330
2166C
102
}
330
747D
100
AcDbEntity
  8
寸法
 62
     7
 48
50.0
100
AcDbMText
 10
11558.1438791097
 20
3066.94972237587
 30
0.0
 40
150.0
 41
0.0
 71
     7
 72
     1
  1
\A1;シャッター\Pレール
  7
STYLE1
 73
     1
 44
0.6800000000000001
1001
ACAD
1000
MTEXTBEGIN
1070
    73
1070
     1
1070
    44
1040
0.6800000000000001
1070
    74
1070
     0
1000
MTEXTEND
  0
LINE
  5
2165B
330
747D
100
AcDbEntity
  8
部品1
 48
50.0
100
AcDbLine
 10
11372.81013815939
 20
2847.738285487482
 30
0.0
 11
11372.81013815939
 21
3401.116674474371
 31
0.0
  0
TEXT
  5
2165F
330
747D
100
AcDbEntity
  8
寸法
 62
     7
 48
50.0
100
AcDbText
 10
11803.8727511547
 20
1577.235852975032
 30
0.0
 40
150.0
  1
柱前部は
  7
STYLE1
100
AcDbText
  0
LINE
  5
21660
102
{ACAD_REACTORS
330
22CD6
102
}
330
747D
100
AcDbEntity
  8
部品1
 48
50.0
100
AcDbLine
 10
11527.81013815938
 20
1597.738285487486
 30
0.0
 11
11527.81013815938
 21
2347.738285487483
 31
0.0
  0
TEXT
  5
21661
330
747D
100
AcDbEntity
  8
寸法
 62
     7
 48
50.0
100
AcDbText
 10
11803.8727511547
 20
1378.803053178822
 30
0.0
 40
150.0
  1
G.L-基礎天を
  7
STYLE1
100
AcDbText
  0
TEXT
  5
21662
330
747D
100
AcDbEntity
  8
寸法
 62
     7
 48
50.0
100
AcDbText
 10
11803.8727511547
 20
973.766935582299
 30
0.0
 40
150.0
  1
してください
  7
STYLE1
100
AcDbText
  0
TEXT
  5
21663
330
747D
100
AcDbEntity
  8
寸法
 62
     7
 48
50.0
100
AcDbText
 10
11803.8727511547
 20
1168.741181137576
 30
0.0
 40
150.0
  1
200mm以下と
  7
STYLE1
100
AcDbText
  0
LINE
  5
21664
330
747D
100
AcDbEntity
  8
部品1
 48
50.0
100
AcDbLine
 10
11662.68947046927
 20
561.2669576020125
 30
0.0
 11
11662.68947046927
 21
361.2669576020126
 31
0.0
  0
LINE
  5
21665
330
747D
100
AcDbEntity
  8
細線
 48
50.0
100
AcDbLine
 10
11571.21467681705
 20
1572.738285487477
 30
0.0
 11
11564.51594700627
 21
1597.738285487478
 31
0.0
  0
LINE
  5
21666
102
{ACAD_REACTORS
330
2136B
102
}
330
747D
100
AcDbEntity
  8
部品1
 48
50.0
100
AcDbLine
 10
11590.31013815938
 20
1597.738285487483
 30
0.0
 11
11590.31013815938
 21
1397.738285487483
 31
0.0
  0
LINE
  5
21667
330
747D
100
AcDbEntity
  8
細線
 48
50.0
100
AcDbLine
 10
11537.72102776317
 20
1397.738285487478
 30
0.0
 11
11531.02229795239
 21
1422.738285487483
 31
0.0
  0
LINE
  5
21668
330
747D
100
AcDbEntity
  8
細線
 48
50.0
100
AcDbLine
 10
11291.19588730302
 20
1397.738285487478
 30
0.0
 11
11284.49715749224
 21
1422.738285487489
 31
0.0
  0
LINE
  5
21669
330
747D
100
AcDbEntity
  8
細線
 48
50.0
100
AcDbLine
 10
11324.6895363569
 20
1572.738285487479
 30
0.0
 11
11317.99080654612
 21
1597.738285487478
 31
0.0
  0
LINE
  5
2166A
330
747D
100
AcDbEntity
  8
細線
 48
50.0
100
AcDbLine
 10
11414.45845753309
 20
1397.738285487478
 30
0.0
 11
11407.75972772231
 21
1422.738285487486
 31
0.0
  0
LINE
  5
2166B
330
747D
100
AcDbEntity
  8
細線
 48
50.0
100
AcDbLine
 10
11447.95210658698
 20
1572.738285487474
 30
0.0
 11
11441.2533767762
 21
1597.73828548748
 31
0.0
  0
LEADER
  5
2166C
330
747D
100
AcDbEntity
  8
寸法
 48
50.0
100
AcDbLeader
  3
INABA_S50G詳細用
 71
     0
 73
     0
 74
     0
 75
     1
 40
320.0
 41
857.4999999999995
 76
     3
 10
11342.48689460591
 20
2954.976643969127
 30
0.0
 10
11408.1438791097
 20
3041.94972237587
 30
0.0
 10
11533.1438791097
 20
3041.94972237587
 30
0.0
340
2165A
1001
ACAD
1000
DSTYLE
1002
{
1070
    40
1040
1.0
1070
    77
1070
     1
1002
}
  0
LINE
  5
21677
102
{ACAD_REACTORS
330
22CD6
102
}
330
747D
100
AcDbEntity
  8
部品1
 48
50.0
100
AcDbLine
 10
11252.81013815939
 20
2347.738285487484
 30
0.0
 11
11527.81013815938
 21
2347.738285487482
 31
0.0
  0
LINE
  5
21680
102
{ACAD_REACTORS
330
22CD6
102
}
330
747D
100
AcDbEntity
  8
部品1
 48
50.0
100
AcDbLine
 10
11434.06013815938
 20
1961.488285487482
 30
0.0
 11
11434.06013815938
 21
1983.988285487482
 31
0.0
  0
LINE
  5
21685
330
747D
100
AcDbEntity
  8
部品1
 48
50.0
100
AcDbLine
 10
11252.81013815939
 20
2722.738285487482
 30
0.0
 11
11974.53058465187
 21
2722.738285487482
 31
0.0
  0
ARC
  5
216E1
330
747D
100
AcDbEntity
  8
細線
 48
50.0
100
AcDbCircle
 10
10949.83706355274
 20
3980.801146939121
 30
0.0
 40
100.0
100
AcDbArc
 50
0.0
 51
90.0
  0
LINE
  5
216E2
330
747D
100
AcDbEntity
  8
細線
 48
50.0
100
AcDbLine
 10
11049.83706355274
 20
3980.801146939121
 30
0.0
 11
11049.83706355274
 21
3880.801146939121
 31
0.0
  0
LINE
  5
216E3
330
747D
100
AcDbEntity
  8
細線
 48
50.0
100
AcDbLine
 10
11049.83706355274
 20
3880.801146939121
 30
0.0
 11
11049.83706355274
 21
3880.801146939121
 31
0.0
  0
ARC
  5
216E4
330
747D
100
AcDbEntity
  8
細線
 48
50.0
100
AcDbCircle
 10
10949.83706355274
 20
3880.801146939121
 30
0.0
 40
100.0
100
AcDbArc
 50
270.0
 51
0.0
  0
DIMENSION
  5
21F30
330
747D
100
AcDbEntity
  8
寸法
 48
50.0
100
AcDbDimension
  2
*D38
 10
9880.655735880077
 20
9914.439548732094
 30
0.0
 11
9780.655735880074
 21
10356.93954873209
 31
0.0
 70
    32
 71
     5
 42
885.0000000000036
  3
INABA_S50G
100
AcDbAlignedDimension
 13
9338.66479268395
 23
10799.43954873209
 33
0.0
 14
9652.499999999998
 24
9914.439548732094
 34
0.0
 50
90.0
100
AcDbRotatedDimension
1001
ACAD
1000
DSTYLE
1002
{
1070
    40
1040
1.0
1070
   272
1070
     1
1070
   341
1005
0
1002
}
  0
DIMENSION
  5
21F3D
330
747D
100
AcDbEntity
  8
寸法
 48
50.0
100
AcDbDimension
  2
*D39
 10
9880.655735880077
 20
9059.439548732095
 30
0.0
 11
9780.655735880074
 21
9486.939548732093
 31
0.0
 70
    32
 71
     5
 42
854.9999999999981
  3
INABA_S50G
100
AcDbAlignedDimension
 13
9652.499999999998
 23
9914.439548732094
 33
0.0
 14
9652.499999999998
 24
9059.439548732095
 34
0.0
 50
90.0
100
AcDbRotatedDimension
1001
ACAD
1000
DSTYLE
1002
{
1070
    40
1040
1.0
1070
   272
1070
     1
1070
   279
1070
     1
1070
   341
1005
0
1002
}
  0
DIMENSION
  5
21F4A
330
747D
100
AcDbEntity
  8
寸法
 48
50.0
100
AcDbDimension
  2
*D40
 10
9880.655735880077
 20
8204.439548732095
 30
0.0
 11
9880.655735880077
 21
8631.939548732095
 31
0.0
 70
   160
 71
     5
 42
855.0
  3
INABA_S50G
100
AcDbAlignedDimension
 13
9652.499999999998
 23
9059.439548732095
 33
0.0
 14
9652.499999999998
 24
8204.439548732095
 34
0.0
 50
90.0
100
AcDbRotatedDimension
1001
ACAD
1000
DSTYLE
1002
{
1070
    40
1040
1.0
1070
   272
1070
     1
1070
   279
1070
     1
1070
   341
1005
0
1002
}
  0
DIMENSION
  5
21F57
330
747D
100
AcDbEntity
  8
寸法
 48
50.0
100
AcDbDimension
  2
*D41
 10
9880.655735880077
 20
7319.439548732107
 30
0.0
 11
9880.655735880077
 21
7761.939548732101
 31
0.0
 70
   160
 71
     5
 42
884.9999999999873
  3
INABA_S50G
100
AcDbAlignedDimension
 13
9652.499999999998
 23
8204.439548732095
 33
0.0
 14
9652.499999999998
 24
7319.439548732107
 34
0.0
 50
90.0
100
AcDbRotatedDimension
1001
ACAD
1000
DSTYLE
1002
{
1070
    40
1040
1.0
1070
   272
1070
     1
1070
   279
1070
     1
1070
   341
1005
0
1002
}
  0
LEADER
  5
21FA5
330
747D
100
AcDbEntity
  8
寸法
 48
50.0
100
AcDbLeader
  3
INABA_S50G
 71
     0
 73
     0
 74
     0
 75
     1
 40
150.0
 41
900.0000000000001
 76
     3
 10
11789.34142141804
 20
9045.741505256613
 30
0.0
 10
11934.04738327915
 20
8647.524271590535
 30
0.0
 10
12059.04738327915
 20
8647.524271590535
 30
0.0
340
21FA6
1001
ACAD
1000
DSTYLE
1002
{
1070
   341
1005
11750
1070
    40
1040
1.0
1070
   343
1005
11750
1070
   344
1005
11750
1002
}
  0
MTEXT
  5
21FA6
102
{ACAD_REACTORS
330
21FA5
102
}
330
747D
100
AcDbEntity
  8
部品1
 62
     7
 48
50.0
100
AcDbMText
 10
12984.04738327915
 20
8747.524271590535
 30
0.0
 40
150.0
 41
0.0
 71
     6
 72
     1
  1
床下換気口
  7
STYLE1
 73
     1
 44
1.0
1001
ACAD
1000
MTEXTBEGIN
1070
    73
1070
     1
1070
    44
1040
1.0
1070
    74
1070
     0
1000
MTEXTEND
  0
LINE
  5
21FB5
330
747D
100
AcDbEntity
  8
想像線
 48
10.0
100
AcDbLine
 10
11854.49999999999
 20
10874.43954873211
 30
0.0
 11
8704.500000000001
 21
10874.43954873211
 31
0.0
  0
LINE
  5
21FB6
330
747D
100
AcDbEntity
  8
想像線
 48
10.0
100
AcDbLine
 10
8704.500000000004
 20
7264.439548732105
 30
0.0
 11
8704.500000000001
 21
10874.4395487321
 31
0.0
  0
LINE
  5
21FB7
330
747D
100
AcDbEntity
  8
想像線
 48
10.0
100
AcDbLine
 10
11854.5
 20
7264.439548732105
 30
0.0
 11
8704.500000000001
 21
7264.439548732105
 31
0.0
  0
TEXT
  5
22009
330
747D
100
AcDbEntity
  8
部品1
 48
50.0
100
AcDbText
 10
9592.071141149776
 20
6473.897813480161
 30
0.0
 40
100.0
  1
※a,b,cは屋根の出幅です。
  7
STYLE1
100
AcDbText
  0
TEXT
  5
2200A
330
747D
100
AcDbEntity
  8
部品1
 48
50.0
100
AcDbText
 10
9790.294902092652
 20
6340.341287394217
 30
0.0
 40
100.0
  1
(a=45,b=55,c=75)
  7
STYLE1
100
AcDbText
  0
LEADER
  5
2200B
330
747D
100
AcDbEntity
  8
寸法
 48
50.0
100
AcDbLeader
  3
INABA_S50G
 71
     0
 73
     0
 74
     0
 75
     1
 40
150.0
 41
840.0
 76
     3
 10
9694.170440903899
 20
7264.439548732105
 30
0.0
 10
9628.349408426277
 20
6648.207672605905
 30
0.0
 10
9753.349408426277
 20
6648.207672605905
 30
0.0
340
2200C
1001
ACAD
1000
DSTYLE
1002
{
1070
   341
1005
11750
1070
    40
1040
1.0
1070
   343
1005
11750
1070
   344
1005
11750
1002
}
  0
MTEXT
  5
2200C
102
{ACAD_REACTORS
330
2200B
102
}
330
747D
100
AcDbEntity
  8
部品1
 62
     7
 48
50.0
100
AcDbMText
 10
10618.34940842627
 20
6748.207672605905
 30
0.0
 40
150.0
 41
0.0
 71
     6
 72
     1
  1
\A1;屋根の外寸
  7
STYLE1
 73
     1
 44
1.0
1001
ACAD
1000
MTEXTBEGIN
1070
    73
1070
     1
1070
    44
1040
1.0
1070
    74
1070
     0
1000
MTEXTEND
  0
DIMENSION
  5
22068
330
747D
100
AcDbEntity
  8
寸法
 48
50.0
100
AcDbDimension
  2
*D42
 10
11854.5
 20
12018.18710326403
 30
0.0
 11
12162.21827650308
 21
12018.18710326403
 31
0.0
 70
   160
  1
a
 71
     5
 42
45.00000000000364
  3
INABA_S50G
100
AcDbAlignedDimension
 13
11809.5
 23
10799.43954873211
 33
0.0
 14
11854.5
 24
11886.17151897047
 34
0.0
100
AcDbRotatedDimension
1001
ACAD
1000
DSTYLE
1002
{
1070
    40
1040
1.0
1002
}
  0
DIMENSION
  5
22069
330
747D
100
AcDbEntity
  8
寸法
 48
50.0
100
AcDbDimension
  2
*D43
 10
8749.500000000001
 20
12018.18710326403
 30
0.0
 11
8396.781723496927
 21
12018.18710326403
 31
0.0
 70
   160
  1
a
 71
     5
 42
45.0
  3
INABA_S50G
100
AcDbAlignedDimension
 13
8704.500000000001
 23
11883.601306578
 33
0.0
 14
8749.500000000001
 24
10799.43954873211
 34
0.0
100
AcDbRotatedDimension
1001
ACAD
1000
DSTYLE
1002
{
1070
    40
1040
1.0
1002
}
  0
DIMENSION
  5
2206A
330
747D
100
AcDbEntity
  8
寸法
 48
50.0
100
AcDbDimension
  2
*D44
 10
7549.077758871935
 20
10799.43954873211
 30
0.0
 11
7449.077758871934
 21
10836.93954873211
 31
0.0
 70
    32
  1
c
 71
     5
 42
75.00000000000182
  3
INABA_S50G
100
AcDbAlignedDimension
 13
7749.847327740178
 23
10874.43954873211
 33
0.0
 14
8749.500000000001
 24
10799.43954873211
 34
0.0
 50
90.0
100
AcDbRotatedDimension
1001
ACAD
1000
DSTYLE
1002
{
1070
    40
1040
1.0
1002
}
  0
DIMENSION
  5
2206B
330
747D
100
AcDbEntity
  8
寸法
 48
50.0
100
AcDbDimension
  2
*D45
 10
7549.077758871934
 20
7264.439548732105
 30
0.0
 11
7449.077758871933
 21
7291.939548732107
 31
0.0
 70
    32
  1
b
 71
     5
 42
55.00000000000182
  3
INABA_S50G
100
AcDbAlignedDimension
 13
8810.500000000001
 23
7319.439548732107
 33
0.0
 14
7756.355528014632
 24
7264.439548732105
 34
0.0
 50
90.0
100
AcDbRotatedDimension
1001
ACAD
1000
DSTYLE
1002
{
1070
    40
1040
1.0
1002
}
  0
LINE
  5
2218D
330
747D
100
AcDbEntity
  8
想像線
 48
10.0
100
AcDbLine
 10
11854.5
 20
7264.439548732105
 30
0.0
 11
11854.5
 21
10874.4395487321
 31
0.0
  0
LEADER
  5
22538
330
747D
100
AcDbEntity
  8
寸法
 48
50.0
100
AcDbLeader
  3
INABA_S50G
 71
     0
 73
     0
 75
     1
 40
165.0000000000001
 41
2347.440944881889
 76
     3
 10
8706.435226723225
 20
7220.439966202608
 30
0.0
 10
8206.428852650073
 20
6358.8131666052
 30
0.0
 10
8081.428852650073
 20
6358.8131666052
 30
0.0
340
22539
1001
ACAD
1000
DSTYLE
1002
{
1070
    40
1040
1.0
1002
}
  0
MTEXT
  5
22539
102
{ACAD_REACTORS
330
22538
102
}
330
747D
100
AcDbEntity
  8
寸法
 62
     7
 48
50.0
100
AcDbMText
 10
8056.428852650073
 20
6466.3131666052
 30
0.0
 40
150.0
 41
0.0
 71
     6
 72
     1
  1
柱埋込用穴(深サ:300mm以上)
  7
STYLE1
 73
     1
 44
1.0
1001
ACAD
1000
MTEXTBEGIN
1070
    73
1070
     1
1070
    44
1040
1.0
1070
    74
1070
     0
1000
MTEXTEND
  0
MTEXT
  5
2253A
330
747D
100
AcDbEntity
  8
寸法
 62
     7
 48
50.0
100
AcDbMText
 10
5711.13283782031
 20
6231.301399429948
 30
0.0
 40
150.0
 41
0.0
 71
     4
 72
     1
  1
\A1;組立後現場打コンクリート
  7
STYLE1
 73
     1
 44
1.0
1001
ACAD
1000
MTEXTBEGIN
1070
    73
1070
     1
1070
    44
1040
1.0
1070
    74
1070
     0
1000
MTEXTEND
  0
LEADER
  5
22957
330
747D
100
AcDbEntity
  8
寸法
 48
50.0
100
AcDbLeader
  3
INABA_S50G
 71
     0
 73
     0
 75
     1
 40
165.0
 41
2002.44094488189
 76
     3
 10
8824.50000000019
 20
10750.4395487321
 30
0.0
 10
8402.011619495864
 20
11322.29351071229
 30
0.0
 10
8277.011619495864
 20
11322.29351071229
 30
0.0
340
22958
1001
ACAD
1000
DSTYLE
1002
{
1070
   341
1005
11750
1070
    40
1040
1.0
1070
   343
1005
11750
1070
   344
1005
11750
1002
}
  0
MTEXT
  5
22958
102
{ACAD_REACTORS
330
22957
102
}
330
747D
100
AcDbEntity
  8
部品1
 62
     7
 48
50.0
100
AcDbMText
 10
8252.011619495865
 20
11429.79351071229
 30
0.0
 40
150.0
 41
0.0
 71
     6
 72
     1
  1
アンカーボルト芯(2ヶ所)
  7
STYLE1
 73
     1
 44
1.0
1001
ACAD
1000
MTEXTBEGIN
1070
    73
1070
     1
1070
    44
1040
1.0
1070
    74
1070
     0
1000
MTEXTEND
  0
DIMENSION
  5
22AF6
330
747D
100
AcDbEntity
  8
寸法
 48
50.0
100
AcDbDimension
  2
*D46
 10
11809.5
 20
7724.888447691505
 30
0.0
 11
12259.55905511811
 21
7724.888447691505
 31
0.0
 70
   160
 71
     5
 42
180.0000000000018
  3
INABA_S50G
100
AcDbAlignedDimension
 13
11989.5
 23
7489.439548732118
 33
0.0
 14
11809.5
 24
7489.439548732118
 34
0.0
100
AcDbRotatedDimension
1001
ACAD
1000
DSTYLE
1002
{
1070
    40
1040
1.0
1070
   272
1070
     1
1070
   341
1005
0
1002
}
  0
DIMENSION
  5
22B1A
330
747D
100
AcDbEntity
  8
寸法
 48
50.0
100
AcDbDimension
  2
*D47
 10
11286.55370230484
 20
7319.439548732107
 30
0.0
 11
11286.55370230484
 21
6869.380493614008
 31
0.0
 70
   160
 71
     5
 42
179.9999999999891
  3
INABA_S50G
100
AcDbAlignedDimension
 13
11639.5
 23
7139.439548732117
 33
0.0
 14
11639.5
 24
7319.439548732107
 34
0.0
 50
90.0
100
AcDbRotatedDimension
1001
ACAD
1000
DSTYLE
1002
{
1070
    40
1040
1.0
1070
   272
1070
     1
1070
   341
1005
0
1002
}
  0
LINE
  5
22B50
330
747D
100
AcDbEntity
  8
部品1
 48
10.0
100
AcDbLine
 10
8569.499999999997
 20
7489.439548732118
 30
0.0
 11
8749.500000000001
 21
7489.439548732118
 31
0.0
  0
LINE
  5
22B51
330
747D
100
AcDbEntity
  8
部品1
 48
10.0
100
AcDbLine
 10
8569.499999999997
 20
7139.439548732117
 30
0.0
 11
8569.499999999997
 21
7489.439548732118
 31
0.0
  0
LINE
  5
22B52
330
747D
100
AcDbEntity
  8
部品1
 48
10.0
100
AcDbLine
 10
8569.499999999997
 20
7139.439548732117
 30
0.0
 11
8919.499999999997
 21
7139.439548732108
 31
0.0
  0
LINE
  5
22B53
330
747D
100
AcDbEntity
  8
部品1
 48
10.0
100
AcDbLine
 10
8919.499999999997
 20
7139.439548732108
 30
0.0
 11
8919.499999999997
 21
7319.439548732107
 31
0.0
  0
LWPOLYLINE
  5
22BB7
102
{ACAD_REACTORS
330
22C89
102
}
330
747D
100
AcDbEntity
  8
部品1
 48
50.0
100
AcDbPolyline
 90
        2
 70
     0
 10
6003.536096795528
 20
2347.738285487483
 40
18.75
 41
18.75
 10
7588.502560806076
 20
2347.738285487483
 40
12.5
 41
12.5
  0
LEADER
  5
22BE5
330
747D
100
AcDbEntity
  8
寸法
 48
50.0
100
AcDbLeader
  3
INABA_S50G
 71
     0
 73
     0
 74
     0
 75
     1
 40
150.0
 41
231.9898538650463
 76
     3
 10
6431.204073234131
 20
2722.738285487482
 30
0.0
 10
6521.316252562884
 20
2855.438800053827
 30
0.0
 10
6646.316252562884
 20
2855.438800053827
 30
0.0
340
22BE6
213
67.73172584638814
223
0.0
233
0.0
1001
ACAD
1000
DSTYLE
1002
{
1070
    40
1040
1.0
1002
}
  0
MTEXT
  5
22BE6
102
{ACAD_REACTORS
330
22BE5
102
}
330
747D
100
AcDbEntity
  8
寸法
 62
     7
 48
50.0
100
AcDbMText
 10
6603.584526716497
 20
2955.438800053827
 30
0.0
 40
150.0
 41
1.0
 71
     4
 72
     1
  1
\A1;C.B
  7
STYLE1
 73
     1
 44
1.0
1001
ACAD
1000
MTEXTBEGIN
1070
    73
1070
     1
1070
    44
1040
1.0
1070
    74
1070
     0
1000
MTEXTEND
  0
LINE
  5
22BE9
330
747D
100
AcDbEntity
  8
部品1
100
AcDbLine
 10
6319.371498624438
 20
2722.738285487482
 30
0.0
 11
7319.371498624434
 21
2722.738285487482
 31
0.0
  0
LINE
  5
22BF5
330
747D
100
AcDbEntity
  8
部品1
100
AcDbLine
 10
6319.371498624438
 20
2347.738285487483
 30
0.0
 11
6319.371498624438
 21
2722.738285487482
 31
0.0
  0
LINE
  5
22C04
330
747D
100
AcDbEntity
  8
部品1
100
AcDbLine
 10
7319.371498624434
 20
2722.738285487482
 30
0.0
 11
7319.371498624434
 21
2347.738285487483
 31
0.0
  0
LINE
  5
22C49
330
747D
100
AcDbEntity
  8
細線
 48
50.0
100
AcDbLine
 10
6319.371498624438
 20
2495.507790112104
 30
0.0
 11
6546.601993999816
 21
2722.738285487482
 31
0.0
  0
LINE
  5
22C4A
330
747D
100
AcDbEntity
  8
細線
 48
50.0
100
AcDbLine
 10
6441.009677631891
 20
2347.738285487483
 30
0.0
 11
6816.009677631891
 21
2722.738285487482
 31
0.0
  0
LINE
  5
22C4B
330
747D
100
AcDbEntity
  8
細線
 48
50.0
100
AcDbLine
 10
6710.417361263965
 20
2347.738285487482
 30
0.0
 11
7085.417361263965
 21
2722.738285487482
 31
0.0
  0
LINE
  5
22C4C
330
747D
100
AcDbEntity
  8
細線
 48
50.0
100
AcDbLine
 10
6979.82504489604
 20
2347.738285487482
 30
0.0
 11
7319.371498624433
 21
2687.284739215875
 31
0.0
  0
LINE
  5
22C4D
330
747D
100
AcDbEntity
  8
細線
 48
50.0
100
AcDbLine
 10
6319.371498624438
 20
2529.183750566114
 30
0.0
 11
6512.926033545807
 21
2722.738285487482
 31
0.0
  0
LINE
  5
22C4E
330
747D
100
AcDbEntity
  8
細線
 48
50.0
100
AcDbLine
 10
6407.333717177881
 20
2347.738285487483
 30
0.0
 11
6782.333717177881
 21
2722.738285487482
 31
0.0
  0
LINE
  5
22C4F
330
747D
100
AcDbEntity
  8
細線
 48
50.0
100
AcDbLine
 10
6676.741400809956
 20
2347.738285487482
 30
0.0
 11
7051.741400809956
 21
2722.738285487482
 31
0.0
  0
LINE
  5
22C50
330
747D
100
AcDbEntity
  8
細線
 48
50.0
100
AcDbLine
 10
6946.149084442031
 20
2347.738285487482
 30
0.0
 11
7319.371498624433
 21
2720.960699669885
 31
0.0
  0
LINE
  5
22C52
102
{ACAD_REACTORS
330
22C89
102
}
330
747D
100
AcDbEntity
  8
部品1
100
AcDbLine
 10
7444.371498624434
 20
2347.738285487483
 30
0.0
 11
7444.371498624434
 21
2222.738285487484
 31
0.0
  0
LINE
  5
22C53
102
{ACAD_REACTORS
330
22C89
102
}
330
747D
100
AcDbEntity
  8
部品1
100
AcDbLine
 10
6194.371498624438
 20
2222.738285487483
 30
0.0
 11
6194.371498624438
 21
2347.738285487483
 31
0.0
  0
HATCH
  5
22C56
330
747D
100
AcDbEntity
  8
細線
 48
50.0
100
AcDbHatch
 10
0.0
 20
0.0
 30
0.0
210
0.0
220
0.0
230
1.0
  2
LINE
 70
     0
 71
     1
 91
        1
 92
        7
 72
     0
 73
     1
 93
        4
 10
7444.371498624436
 20
2022.738285487483
 10
7444.371498624433
 20
2222.738285487483
 10
6194.371498624438
 20
2222.738285487483
 10
6194.371498624438
 20
2022.738285487481
 97
        4
330
22C6A
330
22C58
330
22C57
330
22C68
 75
     0
 76
     1
 52
75.0
 41
37.5
 77
     0
 78
     1
 53
75.0
 43
-10875.22263542115
 44
14416.19637224351
 45
-115.0055436925422
 46
30.81564255751887
 79
     0
 47
2.300206460912943
 98
        1
 10
6705.867815580884
 20
2113.272050712893
  0
LINE
  5
22C57
102
{ACAD_REACTORS
330
22C56
102
}
330
747D
100
AcDbEntity
  8
部品1
 48
50.0
100
AcDbLine
 10
7444.371498624434
 20
2022.738285487483
 30
0.0
 11
6194.371498624438
 21
2022.738285487481
 31
0.0
  0
LINE
  5
22C58
102
{ACAD_REACTORS
330
22C56
102
}
330
747D
100
AcDbEntity
  8
部品1
 48
50.0
100
AcDbLine
 10
6194.371498624438
 20
2022.738285487481
 30
0.0
 11
6194.371498624438
 21
2222.738285487483
 31
0.0
  0
LINE
  5
22C59
330
747D
100
AcDbEntity
  8
細線
 48
50.0
100
AcDbLine
 10
6402.206966847773
 20
2022.738285487481
 30
0.0
 11
6395.508237036989
 21
2047.738285487492
 31
0.0
  0
LINE
  5
22C5A
330
747D
100
AcDbEntity
  8
細線
 48
50.0
100
AcDbLine
 10
6278.944396617696
 20
2022.738285487481
 30
0.0
 11
6272.245666806917
 21
2047.738285487488
 31
0.0
  0
LINE
  5
22C5B
330
747D
100
AcDbEntity
  8
細線
 48
50.0
100
AcDbLine
 10
6312.438045671584
 20
2197.738285487483
 30
0.0
 11
6305.739315860806
 21
2222.738285487483
 31
0.0
  0
LINE
  5
22C5C
330
747D
100
AcDbEntity
  8
細線
 48
50.0
100
AcDbLine
 10
6435.700615901656
 20
2197.738285487483
 30
0.0
 11
6429.001886090879
 21
2222.738285487483
 31
0.0
  0
LINE
  5
22C5D
330
747D
100
AcDbEntity
  8
細線
 48
50.0
100
AcDbLine
 10
6771.994677537995
 20
2022.738285487479
 30
0.0
 11
6765.295947727214
 21
2047.738285487486
 31
0.0
  0
LINE
  5
22C5E
330
747D
100
AcDbEntity
  8
細線
 48
50.0
100
AcDbLine
 10
6805.488326591881
 20
2197.738285487474
 30
0.0
 11
6798.7895967811
 21
2222.73828548748
 31
0.0
  0
LINE
  5
22C5F
330
747D
100
AcDbEntity
  8
細線
 48
50.0
100
AcDbLine
 10
6648.73210730792
 20
2022.738285487479
 30
0.0
 11
6642.033377497142
 21
2047.73828548749
 31
0.0
  0
LINE
  5
22C60
330
747D
100
AcDbEntity
  8
細線
 48
50.0
100
AcDbLine
 10
6525.469537077848
 20
2022.738285487479
 30
0.0
 11
6518.770807267067
 21
2047.738285487486
 31
0.0
  0
LINE
  5
22C61
330
747D
100
AcDbEntity
  8
細線
 48
50.0
100
AcDbLine
 10
6558.963186131729
 20
2197.738285487479
 30
0.0
 11
6552.264456320951
 21
2222.738285487483
 31
0.0
  0
LINE
  5
22C62
330
747D
100
AcDbEntity
  8
細線
 48
50.0
100
AcDbLine
 10
6682.225756361806
 20
2197.738285487479
 30
0.0
 11
6675.527026551023
 21
2222.738285487483
 31
0.0
  0
LINE
  5
22C63
330
747D
100
AcDbEntity
  8
細線
 48
50.0
100
AcDbLine
 10
6895.257247768073
 20
2022.738285487479
 30
0.0
 11
6888.558517957296
 21
2047.73828548749
 31
0.0
  0
LINE
  5
22C64
330
747D
100
AcDbEntity
  8
細線
 48
50.0
100
AcDbLine
 10
7141.782388228223
 20
2022.738285487479
 30
0.0
 11
7135.08365841744
 21
2047.738285487483
 31
0.0
  0
LINE
  5
22C65
330
747D
100
AcDbEntity
  8
細線
 48
50.0
100
AcDbLine
 10
7018.519817998146
 20
2022.738285487479
 30
0.0
 11
7011.821088187367
 21
2047.738285487486
 31
0.0
  0
LINE
  5
22C66
330
747D
100
AcDbEntity
  8
細線
 48
50.0
100
AcDbLine
 10
6928.750896821954
 20
2197.738285487479
 30
0.0
 11
6922.052167011177
 21
2222.738285487479
 31
0.0
  0
LINE
  5
22C67
330
747D
100
AcDbEntity
  8
細線
 48
50.0
100
AcDbLine
 10
7052.013467052034
 20
2197.738285487474
 30
0.0
 11
7045.314737241252
 21
2222.73828548748
 31
0.0
  0
LINE
  5
22C68
102
{ACAD_REACTORS
330
22C56
102
}
330
747D
100
AcDbEntity
  8
部品1
 48
50.0
100
AcDbLine
 10
7444.371498624434
 20
2222.738285487483
 30
0.0
 11
7444.371498624434
 21
2022.738285487483
 31
0.0
  0
LINE
  5
22C69
330
747D
100
AcDbEntity
  8
細線
 48
50.0
100
AcDbLine
 10
7175.276037282107
 20
2197.738285487477
 30
0.0
 11
7168.57730747133
 21
2222.738285487479
 31
0.0
  0
LINE
  5
22C6A
102
{ACAD_REACTORS
330
22C56
330
22C89
102
}
330
747D
100
AcDbEntity
  8
部品1
 48
50.0
100
AcDbLine
 10
7444.371498624434
 20
2222.738285487483
 30
0.0
 11
6194.371498624438
 21
2222.738285487483
 31
0.0
  0
LINE
  5
22C6B
330
747D
100
AcDbEntity
  8
細線
 48
50.0
100
AcDbLine
 10
7298.538607512179
 20
2197.738285487477
 30
0.0
 11
7291.839877701402
 21
2222.738285487479
 31
0.0
  0
LINE
  5
22C6C
330
747D
100
AcDbEntity
  8
細線
 48
50.0
100
AcDbLine
 10
7265.044958458296
 20
2022.738285487479
 30
0.0
 11
7258.346228647512
 21
2047.738285487483
 31
0.0
  0
LINE
  5
22C7A
330
747D
100
AcDbEntity
  8
部品1
 48
50.0
100
AcDbLine
 10
5963.536096795528
 20
2405.206374438505
 30
0.0
 11
5963.536096795528
 21
2284.718138417225
 31
0.0
  0
LINE
  5
22C7B
330
747D
100
AcDbEntity
  8
部品1
 48
50.0
100
AcDbLine
 10
6003.536096795528
 20
2405.206374438505
 30
0.0
 11
6003.536096795528
 21
2284.718138417225
 31
0.0
  0
LWPOLYLINE
  5
22C7C
330
747D
100
AcDbEntity
  8
部品1
 48
50.0
100
AcDbPolyline
 90
        2
 70
     0
 10
5810.64728349413
 20
2347.738285487483
 40
18.75
 41
18.75
 10
5963.536096795528
 20
2347.738285487483
 40
12.5
 41
12.5
  0
HATCH
  5
22C89
330
747D
100
AcDbEntity
  8
細線
 48
50.0
100
AcDbHatch
 10
0.0
 20
0.0
 30
0.0
210
0.0
220
0.0
230
1.0
  2
PLAST
 70
     0
 71
     1
 91
        1
 92
        7
 72
     0
 73
     1
 93
        4
 10
6194.371498624438
 20
2347.738285487483
 10
6194.371498624438
 20
2222.738285487483
 10
7444.371498624434
 20
2222.738285487483
 10
7444.371498624434
 20
2347.738285487483
 97
        4
330
22BB7
330
22C53
330
22C6A
330
22C52
 75
     0
 76
     1
 52
45.0
 41
30.0
 77
     0
 78
     3
 53
45.0
 43
1533.353126289155
 44
-2150.100805309576
 45
-134.7038418160373
 46
134.7038418160373
 79
     0
 53
45.0
 43
1516.515146062151
 44
-2133.262825082571
 45
-134.7038418160373
 46
134.7038418160373
 79
     0
 53
45.0
 43
1499.677165835146
 44
-2116.424844855567
 45
-134.7038418160373
 46
134.7038418160373
 79
     0
 47
5.582266304280636
 98
        1
 10
7001.489299909088
 20
2293.047212481175
  0
LINE
  5
22C8B
330
747D
100
AcDbEntity
  8
細線
 48
50.0
100
AcDbLine
 10
7249.232728528117
 20
2347.738285487483
 30
0.0
 11
7319.371498624433
 21
2417.8770555838
 31
0.0
  0
LINE
  5
22C8C
330
747D
100
AcDbEntity
  8
細線
 48
50.0
100
AcDbLine
 10
7215.556768074107
 20
2347.738285487483
 30
0.0
 11
7319.371498624434
 21
2451.55301603781
 31
0.0
  0
LINE
  5
22C8D
330
747D
100
AcDbEntity
  8
細線
 48
50.0
100
AcDbLine
 10
7421.801177742256
 20
2197.738285487479
 30
0.0
 11
7415.102447931478
 21
2222.73828548748
 31
0.0
  0
LINE
  5
22C8E
330
747D
100
AcDbEntity
  8
細線
 48
50.0
100
AcDbLine
 10
7388.307528688372
 20
2022.738285487481
 30
0.0
 11
7381.608798877589
 21
2047.738285487485
 31
0.0
  0
LINE
  5
22C90
330
747D
100
AcDbEntity
  8
部品1
 48
50.0
100
AcDbLine
 10
11252.81013815939
 20
2847.738285487482
 30
0.0
 11
11974.53058465187
 21
2847.738285487482
 31
0.0
  0
LINE
  5
22C9A
330
747D
100
AcDbEntity
  8
部品1
 48
50.0
100
AcDbLine
 10
11372.81013815939
 20
2877.738285487482
 30
0.0
 11
11974.53058465187
 21
2877.738285487483
 31
0.0
  0
HATCH
  5
22CD6
330
747D
100
AcDbEntity
  8
細線
 48
50.0
100
AcDbHatch
 10
0.0
 20
0.0
 30
0.0
210
0.0
220
0.0
230
1.0
  2
PLAST
 70
     0
 71
     1
 91
        1
 92
        7
 72
     0
 73
     1
 93
       16
 10
11252.81013815939
 20
1983.988285487482
 10
11434.06013815938
 20
1983.988285487484
 10
11434.06013815938
 20
1961.488285487484
 10
11252.81013815939
 20
1961.488285487479
 10
11252.81013815939
 20
1847.738285487485
 10
11115.31013815939
 20
1847.738285487482
 10
11115.31013815939
 20
1961.488285487482
 10
10934.0601381594
 20
1961.488285487479
 10
10934.06013815939
 20
1983.988285487479
 10
11115.31013815939
 20
1983.98828548748
 10
11115.31013815939
 20
2347.738285487482
 10
10652.81013815938
 20
2347.738285487483
 10
10652.81013815939
 20
1597.738285487483
 10
11527.81013815938
 20
1597.738285487483
 10
11527.81013815938
 20
2347.738285487482
 10
11252.81013815939
 20
2347.738285487484
 97
       14
330
21677
330
21511
330
21367
330
21680
330
21366
330
21599
330
21512
330
2159A
330
2159C
330
2159B
330
21597
330
21587
330
2136D
330
21660
 75
     0
 76
     1
 52
45.0
 41
30.0
 77
     0
 78
     3
 53
45.0
 43
1533.353126289155
 44
-2150.100805309576
 45
-134.7038418160373
 46
134.7038418160373
 79
     0
 53
45.0
 43
1516.515146062151
 44
-2133.262825082571
 45
-134.7038418160373
 46
134.7038418160373
 79
     0
 53
45.0
 43
1499.677165835146
 44
-2116.424844855567
 45
-134.7038418160373
 46
134.7038418160373
 79
     0
 47
3.640240147443791
 98
        1
 10
11386.52334825136
 20
2165.759022652663
  0
HATCH
  5
22CE0
330
747D
100
AcDbEntity
  8
細線
 48
50.0
100
AcDbHatch
 10
0.0
 20
0.0
 30
0.0
210
0.0
220
0.0
230
1.0
  2
PLAST
 70
     0
 71
     0
 91
        1
 92
        7
 72
     0
 73
     1
 93
        4
 10
11974.53058465187
 20
2722.738285487483
 10
11252.81013815939
 20
2722.738285487482
 10
11252.81013815939
 20
2347.738285487483
 10
11974.53058465187
 20
2347.738285487482
 97
        0
 75
     0
 76
     1
 52
135.0
 41
30.0
 77
     0
 78
     3
 53
135.0
 43
1533.353126289155
 44
-2150.100805309576
 45
-134.7038418160373
 46
-134.7038418160373
 79
     0
 53
135.0
 43
1516.515146062151
 44
-2166.938785536581
 45
-134.7038418160373
 46
-134.7038418160373
 79
     0
 53
135.0
 43
1499.677165835146
 44
-2183.776765763585
 45
-134.7038418160373
 46
-134.7038418160373
 79
     0
 47
3.640240147443791
 98
        1
 10
11386.52334825136
 20
2544.343998758788
  0
LINE
  5
22CE1
330
747D
100
AcDbEntity
  8
寸法
 48
50.0
100
AcDbLine
 10
8361.520099240392
 20
7319.439548732107
 30
0.0
 11
8361.520099240392
 21
7652.439548732107
 31
0.0
  0
LINE
  5
22CE2
330
747D
100
AcDbEntity
  8
寸法
 48
50.0
100
AcDbLine
 10
8361.520099240392
 20
7652.439548732107
 30
0.0
 11
8322.697242475014
 21
7507.550674788747
 31
0.0
  0
LINE
  5
22CE3
330
747D
100
AcDbEntity
  8
寸法
 48
50.0
100
AcDbLine
 10
8322.697242475014
 20
7507.550674788747
 30
0.0
 11
8422.697242475013
 21
7507.550674788747
 31
0.0
  0
TEXT
  5
22CE4
330
747D
100
AcDbEntity
  8
文字
 48
50.0
100
AcDbText
 10
8229.797079089768
 20
7691.458962521214
 30
0.0
 40
150.0
  1
B
  7
STYLE1
100
AcDbText
  0
TEXT
  5
22CE5
330
747D
100
AcDbEntity
  8
文字
 48
50.0
100
AcDbText
 10
9251.404697784138
 20
7691.458962521211
 30
0.0
 40
150.0
  1
B'
  7
STYLE1
100
AcDbText
  0
LINE
  5
22CE6
330
747D
100
AcDbEntity
  8
寸法
 48
50.0
100
AcDbLine
 10
9245.476930264132
 20
7319.439548732107
 30
0.0
 11
9245.476930264132
 21
7652.439548732107
 31
0.0
  0
LINE
  5
22CE7
330
747D
100
AcDbEntity
  8
寸法
 48
50.0
100
AcDbLine
 10
9245.476930264132
 20
7652.439548732107
 30
0.0
 11
9206.654073498759
 21
7507.550674788747
 31
0.0
  0
LINE
  5
22CE8
330
747D
100
AcDbEntity
  8
寸法
 48
50.0
100
AcDbLine
 10
9206.654073498759
 20
7507.550674788747
 30
0.0
 11
9311.654073498758
 21
7507.550674788747
 31
0.0
  0
LEADER
  5
22CEA
330
747D
100
AcDbEntity
  8
寸法
 48
50.0
100
AcDbLeader
  3
INABA_S50G
 71
     0
 73
     0
 75
     1
 40
150.0
 41
269.489853865046
 76
     3
 10
8602.602727357647
 20
7647.033729764986
 30
0.0
 10
8515.684025650692
 20
7894.647855127406
 30
0.0
 10
8390.684025650692
 20
7894.647855127406
 30
0.0
340
22CEB
213
-6.654425256279864
223
-6.941639128017413
233
0.0
1001
ACAD
1000
DSTYLE
1002
{
1070
    40
1040
1.0
1002
}
  0
MTEXT
  5
22CEB
102
{ACAD_REACTORS
330
22CEA
102
}
330
747D
100
AcDbEntity
  8
寸法
 62
     7
 48
50.0
100
AcDbMText
 10
8372.338450906973
 20
8001.589494255423
 30
0.0
 40
150.0
 41
0.0
 71
     6
 72
     1
  1
C部
  7
STYLE1
 73
     1
 44
1.0
1001
ACAD
1000
MTEXTBEGIN
1070
    73
1070
     1
1070
    44
1040
1.0
1070
    74
1070
     0
1000
MTEXTEND
  0
CIRCLE
  5
22CEC
330
747D
100
AcDbEntity
  8
想像線
 48
10.0
100
AcDbCircle
 10
8762.96347551232
 20
7352.439548732107
 30
0.0
 40
335.4121361059542
  0
LWPOLYLINE
  5
22CEE
330
747D
100
AcDbEntity
  8
部品1
 48
50.0
100
AcDbPolyline
 90
        2
 70
     0
 10
11252.81013815939
 20
2347.738285487484
 40
18.75
 41
18.75
 10
11974.53058465187
 20
2347.738285487484
 40
12.5
 41
12.5
  0
LINE
  5
22D5A
102
{ACAD_REACTORS
330
22F27
102
}
330
747D
100
AcDbEntity
  8
部品1
 48
50.0
100
AcDbLine
 10
14893.9698591847
 20
1855.893636972151
 30
0.0
 11
15725.89551202196
 21
1855.893636972151
 31
0.0
  0
LINE
  5
22D5B
102
{ACAD_REACTORS
330
22F27
102
}
330
747D
100
AcDbEntity
  8
部品1
 48
50.0
100
AcDbLine
 10
14893.9698591847
 20
1855.893636972151
 30
0.0
 11
14893.9698591847
 21
2008.393636972151
 31
0.0
  0
LINE
  5
22DA7
102
{ACAD_REACTORS
330
22F27
102
}
330
747D
100
AcDbEntity
  8
部品1
 48
50.0
100
AcDbLine
 10
15041.4698591847
 20
2280.89363697215
 30
0.0
 11
15665.40139261793
 21
2280.893636972152
 31
0.0
  0
SPLINE
  5
22DAB
102
{ACAD_REACTORS
330
22F27
102
}
330
747D
100
AcDbEntity
  8
部品1
 48
50.0
100
AcDbSpline
210
0.0
220
0.0
230
1.0
 70
     8
 71
     3
 72
    11
 73
     7
 74
     5
 42
0.0000000001
 43
0.0000000001
 44
0.0000000001
 40
0.0
 40
0.0
 40
0.0
 40
0.0
 40
144.7568414096168
 40
299.314699781309
 40
429.3301754671687
 40
600.2078569462721
 40
600.2078569462721
 40
600.2078569462721
 40
600.2078569462721
 10
15701.76298669383
 20
1793.063045032838
 30
0.0
 10
15720.01571850063
 20
1838.23583931065
 30
0.0
 10
15757.75701547657
 20
1931.639931482613
 30
0.0
 10
15740.31452091667
 20
2082.036564987465
 30
0.0
 10
15627.07452111353
 20
2206.11627254717
 30
0.0
 10
15674.71046291285
 20
2306.958510203889
 30
0.0
 10
15701.76298669383
 20
2364.226970305484
 30
0.0
 11
15701.76298669383
 21
1793.063045032838
 31
0.0
 11
15744.84941059845
 21
1931.258932127933
 31
0.0
 11
15721.85669099581
 21
2084.096971992748
 31
0.0
 11
15660.09632002716
 21
2198.507113569597
 31
0.0
 11
15701.76298669383
 21
2364.226970305484
 31
0.0
  0
LINE
  5
22DAD
330
747D
100
AcDbEntity
  8
部品1
 48
50.0
100
AcDbLine
 10
14893.9698591847
 20
1405.893636972151
 30
0.0
 11
15166.46985918471
 21
1405.893636972151
 31
0.0
  0
LINE
  5
22DD3
330
747D
100
AcDbEntity
  8
部品1
 48
50.0
100
AcDbLine
 10
15166.46985918471
 20
1405.893636972149
 30
0.0
 11
15166.4698591847
 21
1855.893636972151
 31
0.0
  0
DIMENSION
  5
22E38
330
747D
100
AcDbEntity
  8
寸法
 48
50.0
100
AcDbDimension
  2
*D48
 10
14741.4698591847
 20
2488.021224565971
 30
0.0
 11
14516.4698591847
 21
2588.021224565971
 31
0.0
 70
    32
 71
     5
 42
180.0
  3
INABA_S50G詳細S20用
100
AcDbAlignedDimension
 13
14291.4698591847
 23
2280.89363697215
 33
0.0
 14
14741.4698591847
 24
2280.89363697215
 34
0.0
100
AcDbRotatedDimension
1001
ACAD
1000
DSTYLE
1002
{
1070
    40
1040
1.0
1002
}
  0
DIMENSION
  5
22E45
330
747D
100
AcDbEntity
  8
寸法
 48
50.0
100
AcDbDimension
  2
*D49
 10
15445.34547577422
 20
1855.893636972151
 30
0.0
 11
15345.34547577422
 21
1630.893636972153
 31
0.0
 70
    32
 71
     5
 42
180.0000000000007
  3
INABA_S50G詳細S20用
100
AcDbAlignedDimension
 13
15166.46985918471
 23
1405.893636972149
 33
0.0
 14
15166.46985918471
 24
1855.893636972151
 34
0.0
 50
90.0
100
AcDbRotatedDimension
1001
ACAD
1000
DSTYLE
1002
{
1070
    40
1040
1.0
1002
}
  0
DIMENSION
  5
22E96
330
747D
100
AcDbEntity
  8
寸法
 48
50.0
100
AcDbDimension
  2
*D50
 10
14177.69557878274
 20
2008.393636972151
 30
0.0
 11
14077.69557878274
 21
2298.393636972154
 31
0.0
 70
    32
 71
     5
 42
1.000000000000727
  3
INABA_S50G詳細S20用
100
AcDbAlignedDimension
 13
14760.2198591847
 23
2005.89363697215
 33
0.0
 14
14741.4698591847
 24
2008.393636972151
 34
0.0
 50
90.0
100
AcDbRotatedDimension
1001
ACAD
1000
DSTYLE
1002
{
1070
    40
1040
1.0
1002
}
  0
DIMENSION
  5
22EB0
330
747D
100
AcDbEntity
  8
寸法
 48
50.0
100
AcDbDimension
  2
*D51
 10
14177.69557878274
 20
1855.893636972152
 30
0.0
 11
14077.69557878274
 21
1547.787035254356
 31
0.0
 70
    32
 71
     5
 42
4.999999999999181
  3
INABA_S50G詳細S20用
100
AcDbAlignedDimension
 13
14760.2198591847
 23
1868.39363697215
 33
0.0
 14
14893.9698591847
 24
1855.893636972151
 34
0.0
 50
90.0
100
AcDbRotatedDimension
1001
ACAD
1000
DSTYLE
1002
{
1070
    40
1040
1.0
1002
}
  0
HATCH
  5
22F27
330
747D
100
AcDbEntity
  8
細線
 48
50.0
100
AcDbHatch
 10
0.0
 20
0.0
 30
0.0
210
0.0
220
0.0
230
1.0
  2
PLAST
 70
     0
 71
     1
 91
        1
 92
        5
 93
        8
 72
     1
 10
15041.4698591847
 20
2280.893636972158
 11
15041.4698591847
 21
2816.787227288392
 72
     4
 94
        3
 73
     0
 74
     0
 95
       11
 96
        7
 40
86.69635969091279
 40
86.69635969091279
 40
86.69635969091279
 40
86.69635969091279
 40
142.4562004170196
 40
249.0971287921331
 40
365.1670311020035
 40
409.2041214600674
 40
409.2041214600674
 40
409.2041214600674
 40
409.2041214600674
 10
15041.4698591847
 20
2816.787227288392
 10
15023.78015723427
 20
2821.985514273184
 10
14972.75313242441
 20
2829.19658738823
 10
14889.31278170349
 20
2776.495428620754
 10
14805.89440355774
 20
2731.747042030348
 10
14755.38464831021
 20
2739.228569357803
 10
14741.4698591847
 20
2743.01597732779
 72
     1
 10
14741.4698591847
 20
2743.015977327791
 11
14741.4698591847
 21
2008.393636972151
 72
     1
 10
14741.4698591847
 20
2008.393636972151
 11
14893.96985918469
 21
2008.393636972151
 72
     1
 10
14893.96985918469
 20
2008.393636972151
 11
14893.9698591847
 21
1855.893636972151
 72
     1
 10
14893.9698591847
 20
1855.893636972151
 11
15725.89551202196
 21
1855.893636972151
 72
     4
 94
        3
 73
     0
 74
     0
 95
       11
 96
        7
 40
66.83237386611556
 40
66.83237386611556
 40
66.83237386611556
 40
66.83237386611556
 40
144.7568414096168
 40
299.314699781309
 40
429.3301754671687
 40
600.2078569462721
 40
600.2078569462721
 40
600.2078569462721
 40
600.2078569462721
 10
15725.89551202196
 20
1855.893636972151
 10
15734.38192526828
 20
1880.517960292903
 10
15755.04180144271
 20
1955.051665884147
 10
15740.31452091667
 20
2082.036564987466
 10
15627.07452111353
 20
2206.11627254717
 10
15674.71046291284
 20
2306.958510203888
 10
15701.76298669383
 20
2364.226970305484
 72
     1
 10
15665.30823951889
 20
2280.893636972151
 11
15041.4698591847
 21
2280.893636972158
 97
        8
330
22DAB
330
22DA7
330
215C4
330
21361
330
215C3
330
215CC
330
22D5B
330
22D5A
 75
     0
 76
     1
 52
135.0
 41
30.0
 77
     0
 78
     3
 53
135.0
 43
5172.012847314466
 44
569.0673789618367
 45
-134.7038418160373
 46
-134.7038418160373
 79
     0
 53
135.0
 43
5155.17486708746
 44
552.229398734832
 45
-134.7038418160373
 46
-134.7038418160373
 79
     0
 53
135.0
 43
5138.336886860455
 44
535.3914185078274
 45
-134.7038418160373
 46
-134.7038418160373
 79
     0
 47
9.034573746928248
 98
        1
 10
15034.33625138623
 20
2182.089576552861
  0
DIMENSION
  5
230D8
330
747D
100
AcDbEntity
  8
寸法
 48
50.0
100
AcDbDimension
  2
*D52
 10
15279.58733560802
 20
1855.893636972151
 30
0.0
 11
15279.58733560802
 21
2424.19191523351
 31
0.0
 70
   160
 71
     5
 42
61.0
  3
INABA_S50G詳細S20用
100
AcDbAlignedDimension
 13
14893.9698591847
 23
2008.393636972151
 33
0.0
 14
14893.9698591847
 24
1855.893636972151
 34
0.0
 50
90.0
100
AcDbRotatedDimension
1001
ACAD
1000
DSTYLE
1002
{
1070
    40
1040
1.0
1002
}
  0
DIMENSION
  5
230FA
330
747D
100
AcDbEntity
  8
寸法
 48
50.0
100
AcDbDimension
  2
*D53
 10
14893.9698591847
 20
1101.430694261179
 30
0.0
 11
15115.95804816107
 21
1201.430694261179
 31
0.0
 70
    32
 71
     5
 42
60.99999999999927
  3
INABA_S50G詳細S20用
100
AcDbAlignedDimension
 13
14741.4698591847
 23
2008.393636972151
 33
0.0
 14
14893.9698591847
 24
1855.893636972151
 34
0.0
100
AcDbRotatedDimension
1001
ACAD
1000
DSTYLE
1002
{
1070
    40
1040
1.0
1002
}
  0
DIMENSION
  5
23515
330
747D
100
AcDbEntity
  8
寸法
 48
50.0
100
AcDbDimension
  2
*D54
 10
16016.29919612162
 20
1855.893636972151
 30
0.0
 11
15916.29919612162
 21
2068.393636972154
 31
0.0
 70
    32
 71
     5
 42
170.0000000000001
  3
INABA_S50G詳細S20用
100
AcDbAlignedDimension
 13
15665.40139261793
 23
2280.893636972152
 33
0.0
 14
15725.89551202196
 24
1855.893636972151
 34
0.0
 50
90.0
100
AcDbRotatedDimension
1001
ACAD
1000
DSTYLE
1002
{
1070
    40
1040
1.0
1002
}
  0
LINE
  5
23C2F
330
747D
100
AcDbEntity
  8
細線
 48
50.0
100
AcDbLine
 10
8352.625141532858
 20
1347.738285487482
 30
0.0
 11
8345.92641172208
 21
1372.738285487482
 31
0.0
  0
LINE
  5
23C30
330
747D
100
AcDbEntity
  8
細線
 48
50.0
100
AcDbLine
 10
8442.394062709047
 20
1172.738285487479
 30
0.0
 11
8435.69533289826
 21
1197.738285487491
 31
0.0
  0
LINE
  5
23C31
330
747D
100
AcDbEntity
  8
細線
 48
50.0
100
AcDbLine
 10
8319.131492478968
 20
1172.738285487479
 30
0.0
 11
8312.432762668191
 21
1197.738285487487
 31
0.0
  0
LINE
  5
23C32
330
747D
100
AcDbEntity
  8
細線
 48
50.0
100
AcDbLine
 10
8599.150281993001
 20
1347.738285487477
 30
0.0
 11
8592.451552182224
 21
1372.738285487482
 31
0.0
  0
LINE
  5
23C33
330
747D
100
AcDbEntity
  8
細線
 48
50.0
100
AcDbLine
 10
8475.887711762929
 20
1347.738285487482
 30
0.0
 11
8469.18898195215
 21
1372.738285487482
 31
0.0
  0
LINE
  5
23C34
330
747D
100
AcDbEntity
  8
細線
 48
50.0
100
AcDbLine
 10
8565.656632939122
 20
1172.738285487477
 30
0.0
 11
8558.957903128339
 21
1197.738285487485
 31
0.0
  0
LINE
  5
23C35
330
747D
100
AcDbEntity
  8
細線
 48
50.0
100
AcDbLine
 10
8845.675422453153
 20
1347.738285487473
 30
0.0
 11
8838.976692642374
 21
1372.738285487479
 31
0.0
  0
LINE
  5
23C36
330
747D
100
AcDbEntity
  8
細線
 48
50.0
100
AcDbLine
 10
8722.412852223078
 20
1347.738285487477
 30
0.0
 11
8715.714122412295
 21
1372.738285487482
 31
0.0
  0
LINE
  5
23C37
330
747D
100
AcDbEntity
  8
細線
 48
50.0
100
AcDbLine
 10
8812.181773399268
 20
1172.738285487477
 30
0.0
 11
8805.483043588486
 21
1197.738285487485
 31
0.0
  0
LINE
  5
23C38
330
747D
100
AcDbEntity
  8
細線
 48
50.0
100
AcDbLine
 10
8688.919203169193
 20
1172.738285487477
 30
0.0
 11
8682.220473358414
 21
1197.738285487488
 31
0.0
  0
LINE
  5
23C39
330
747D
100
AcDbEntity
  8
細線
 48
50.0
100
AcDbLine
 10
8968.937992683226
 20
1347.738285487477
 30
0.0
 11
8962.239262872449
 21
1372.738285487478
 31
0.0
  0
LINE
  5
23C3A
330
747D
100
AcDbEntity
  8
細線
 48
50.0
100
AcDbLine
 10
9058.706913859417
 20
1172.738285487477
 30
0.0
 11
9052.00818404864
 21
1197.738285487485
 31
0.0
  0
LINE
  5
23C3B
330
747D
100
AcDbEntity
  8
細線
 48
50.0
100
AcDbLine
 10
8935.444343629347
 20
1172.738285487477
 30
0.0
 11
8928.745613818568
 21
1197.738285487488
 31
0.0
  0
LINE
  5
23C3C
330
747D
100
AcDbEntity
  8
細線
 48
50.0
100
AcDbLine
 10
9215.463133143378
 20
1347.738285487476
 30
0.0
 11
9208.764403332601
 21
1372.738285487478
 31
0.0
  0
LINE
  5
23C3D
330
747D
100
AcDbEntity
  8
細線
 48
50.0
100
AcDbLine
 10
9092.200562913307
 20
1347.738285487473
 30
0.0
 11
9085.501833102524
 21
1372.738285487479
 31
0.0
  0
LINE
  5
23C3E
330
747D
100
AcDbEntity
  8
細線
 48
50.0
100
AcDbLine
 10
9181.969484089496
 20
1172.738285487477
 30
0.0
 11
9175.270754278711
 21
1197.738285487482
 31
0.0
  0
HATCH
  5
23C99
330
747D
100
AcDbEntity
  8
細線
 48
50.0
100
AcDbHatch
 10
0.0
 20
0.0
 30
0.0
210
0.0
220
0.0
230
1.0
  2
PLAST
 70
     0
 71
     0
 91
        2
 92
        7
 72
     1
 73
     1
 93
       39
 10
8688.84900418069
 20
2363.988285487482
 42
0.0
 10
8687.544535959309
 20
2363.988285487482
 42
0.0
 10
8687.544535959309
 20
2397.738285487482
 42
0.0
 10
8688.849004180688
 20
2397.738285487482
 42
0.0
 10
8688.849004180687
 20
2582.738285487482
 42
-0.4142135623730951
 10
8728.849004180686
 20
2622.738285487483
 42
0.0
 10
8731.349004180714
 20
2622.73828548748
 42
-0.2274254655226983
 10
8762.544535959309
 20
2607.775034418815
 42
0.0
 10
8762.544535959309
 20
2722.738285487482
 42
0.0
 10
8091.159173730941
 20
2722.738285487483
 42
0.0
 10
8091.159173730941
 20
1372.738285487482
 42
0.0
 10
9105.099004180694
 20
1372.738285487482
 42
0.0
 10
9105.099004180699
 20
1747.738285487482
 42
0.0
 10
8880.099004180697
 20
1747.738285487482
 42
0.0
 10
8880.099004180697
 20
2722.738285487482
 42
0.0
 10
8796.29453595931
 20
2722.738285487482
 42
0.0
 10
8796.29453595931
 20
2410.238285487482
 42
-0.4142135623730951
 10
8750.044535959309
 20
2363.988285487482
 42
0.0
 10
8713.849004180696
 20
2363.988285487482
 42
0.0
 10
8713.849004180707
 20
1576.488285487482
 42
-1.0
 10
8746.349004180688
 20
1576.488285487481
 42
0.0
 10
8746.349004180697
 20
1676.488285487485
 42
0.0
 10
8771.349004180724
 20
1676.488285487487
 42
0.0
 10
8771.349004180715
 20
1575.238285487487
 42
-0.0963961176293404
 10
8768.429996616193
 20
1560.238285487483
 42
0.0
 10
8930.099004180696
 20
1560.238285487482
 42
-0.4142135623730898
 10
8917.599004180697
 20
1572.738285487482
 42
-1.0
 10
8942.599004180697
 20
1572.738285487482
 42
-0.4142135623730898
 10
8930.099004180696
 20
1560.238285487482
 42
0.0
 10
8955.099004180697
 20
1560.238285487482
 42
0.0
 10
8955.099004180697
 20
1535.238285487482
 42
0.0
 10
8505.099004180697
 20
1535.238285487482
 42
0.0
 10
8505.099004180687
 20
1560.238285487484
 42
0.0
 10
8530.099004180696
 20
1560.238285487484
 42
-0.4142135623730472
 10
8517.599004180697
 20
1572.738285487482
 42
-1.0
 10
8542.599004180697
 20
1572.738285487482
 42
-0.4142135623730364
 10
8530.099004180696
 20
1560.238285487485
 42
0.0
 10
8691.768011745208
 20
1560.238285487484
 42
-0.0963961176292866
 10
8688.849004180706
 20
1575.238285487482
 42
0.0
 97
        0
 92
       23
 72
     1
 73
     1
 93
        7
 10
8762.544535959307
 20
2481.488285487483
 42
0.0
 10
8746.349004180695
 20
2481.488285487483
 42
0.0
 10
8746.349004180688
 20
2581.488285487483
 42
-1.0
 10
8713.849004180696
 20
2581.488285487483
 42
0.0
 10
8713.849004180696
 20
2397.738285487482
 42
0.0
 10
8750.044535959309
 20
2397.738285487482
 42
0.4142135623730951
 10
8762.544535959309
 20
2410.238285487482
 42
0.0
 97
        0
 75
     0
 76
     1
 52
45.0
 41
37.5
 77
     0
 78
     3
 53
45.0
 43
0.0
 44
3604.33330434695
 45
-168.3798022700466
 46
168.3798022700466
 79
     0
 53
45.0
 43
-21.04747528375582
 44
3625.380779630706
 45
-168.3798022700466
 46
168.3798022700466
 79
     0
 53
45.0
 43
-42.09495056751165
 44
3646.428254914462
 45
-168.3798022700466
 46
168.3798022700466
 79
     0
 47
1.910103703933306
 98
        3
 10
0.0
 20
3604.33330434695
 10
8540.757950418832
 20
2204.127614976394
 10
8731.844094860884
 20
2444.800683344293
  0
HATCH
  5
23CA8
330
747D
100
AcDbEntity
  8
細線
 48
50.0
100
AcDbHatch
 10
0.0
 20
0.0
 30
0.0
210
0.0
220
0.0
230
1.0
  2
LINE
 70
     0
 71
     0
 91
        1
 92
        7
 72
     0
 73
     1
 93
        4
 10
8091.159173730941
 20
1372.738285487482
 10
8091.159173730945
 20
1172.738285487479
 10
9230.099004180694
 20
1172.738285487483
 10
9230.099004180692
 20
1372.738285487483
 97
        0
 75
     0
 76
     1
 52
75.0
 41
37.5
 77
     0
 78
     1
 53
75.0
 43
-1766.565655536229
 44
3604.33330434695
 45
-115.0055436925422
 46
30.81564255751887
 79
     0
 47
6.829112558776185
 98
        1
 10
8214.763084439452
 20
1303.462648820787
  0
LINE
  5
23CA9
330
747D
100
AcDbEntity
  8
細線
 48
50.0
100
AcDbLine
 10
8106.100001072704
 20
1347.738285487482
 30
0.0
 11
8099.401271261926
 21
1372.738285487482
 31
0.0
  0
LINE
  5
23CAA
330
747D
100
AcDbEntity
  8
細線
 48
50.0
100
AcDbLine
 10
8229.362571302777
 20
1347.738285487482
 30
0.0
 11
8222.663841491998
 21
1372.738285487482
 31
0.0
  0
LINE
  5
23CAB
330
747D
100
AcDbEntity
  8
細線
 48
50.0
100
AcDbLine
 10
8195.868922248894
 20
1172.738285487479
 30
0.0
 11
8189.170192438117
 21
1197.738285487487
 31
0.0
  0
ENDSEC
  0
SECTION
  2
OBJECTS
  0
DICTIONARY
  5
7471
330
0
100
AcDbDictionary
281
     1
  3
ACAD_COLOR
350
1C067
  3
ACAD_GROUP
350
7472
  3
ACAD_LAYOUT
350
1C068
  3
ACAD_MATERIAL
350
1C066
  3
ACAD_MLINESTYLE
350
7473
  3
ACAD_PLOTSETTINGS
350
1C069
  3
ACAD_PLOTSTYLENAME
350
1C064
  3
ACDBHEADERROUNDTRIPXREC
350
23E4B
  3
ACDBVARIABLEDICTIONARY
350
141CA
  3
CONTENTDICTIONARY
350
E71C
  3
DRAWINGVARIABLESDICT
350
F3B9
  0
DICTIONARY
  5
23CEC
330
7467
100
AcDbDictionary
280
     1
281
     1
  3
ACAD_LAYERSTATES
360
23CED
  0
DICTIONARY
  5
1C067
102
{ACAD_REACTORS
330
7471
102
}
330
7471
100
AcDbDictionary
281
     1
  0
DICTIONARY
  5
7472
102
{ACAD_REACTORS
330
7471
102
}
330
7471
100
AcDbDictionary
281
     1
  3
*A1
350
1F6D8
  3
*A2
350
20102
  3
*A3
350
20103
  3
*A4
350
209D6
  0
DICTIONARY
  5
1C068
102
{ACAD_REACTORS
330
7471
102
}
330
7471
100
AcDbDictionary
281
     1
  3
Model
350
1C06A
  3
レイアウト1
350
1C06B
  0
DICTIONARY
  5
1C066
102
{ACAD_REACTORS
330
7471
102
}
330
7471
100
AcDbDictionary
281
     1
  0
DICTIONARY
  5
7473
102
{ACAD_REACTORS
330
7471
102
}
330
7471
100
AcDbDictionary
281
     1
  3
STANDARD
350
7480
  0
DICTIONARY
  5
1C069
102
{ACAD_REACTORS
330
7471
102
}
330
7471
100
AcDbDictionary
281
     1
  0
ACDBDICTIONARYWDFLT
  5
1C064
102
{ACAD_REACTORS
330
7471
102
}
330
7471
100
AcDbDictionary
281
     1
  3
Normal
350
1C065
100
AcDbDictionaryWithDefault
340
1C065
  0
DICTIONARY
  5
23E4B
102
{ACAD_REACTORS
330
7471
102
}
330
7471
100
AcDbDictionary
281
     1
  3
COLORDICT
350
23E4D
  3
MATERIALDICT
350
23E4C
  0
DICTIONARY
  5
141CA
102
{ACAD_REACTORS
330
7471
102
}
330
7471
100
AcDbDictionary
281
     1
  3
DIMASSOC
350
23E48
  3
PROJECTNAME
350
23E49
  3
SORTENTS
350
141CB
  0
DICTIONARY
  5
E71C
102
{ACAD_REACTORS
330
7471
102
}
330
7471
100
AcDbDictionary
281
     1
  0
DICTIONARY
  5
F3B9
102
{ACAD_REACTORS
330
7471
102
}
330
7471
100
AcDbDictionary
281
     1
1001
DRAWINGVARIABLESXDATA
1000
POLARMODE
1000
1
  0
DICTIONARY
  5
23CED
102
{ACAD_REACTORS
330
23CEC
102
}
330
23CEC
100
AcDbDictionary
281
     1
  0
GROUP
  5
1F6D8
102
{ACAD_REACTORS
330
7472
102
}
330
7472
100
AcDbGroup
300

 70
     1
 71
     1
  0
GROUP
  5
20102
102
{ACAD_REACTORS
330
7472
102
}
330
7472
100
AcDbGroup
300

 70
     1
 71
     1
  0
GROUP
  5
20103
102
{ACAD_REACTORS
330
7472
102
}
330
7472
100
AcDbGroup
300

 70
     1
 71
     1
  0
GROUP
  5
209D6
102
{ACAD_REACTORS
330
7472
102
}
330
7472
100
AcDbGroup
300

 70
     1
 71
     1
  0
LAYOUT
  5
1C06A
102
{ACAD_XDICTIONARY
360
23E4E
102
}
102
{ACAD_REACTORS
330
1C068
102
}
330
1C068
100
AcDbPlotSettings
  1

  2
クセロPDF
  4
A3
  6

 40
3.174999999999999
 41
3.174999999999999
 42
3.174987999999999
 43
3.174987999999999
 44
419.946655
 45
296.925995
 46
0.0
 47
0.0
 48
0.0
 49
0.0
140
0.0
141
0.0
142
1.0
143
50.39051776619688
 70
 11952
 72
     1
 73
     0
 74
     2
  7
inaba.ctb
 75
     0
147
0.019845003471483
148
161.6812653104498
149
194.5236301608711
100
AcDbLayout
  1
Model
 70
     1
 71
     0
 10
0.0
 20
0.0
 11
12.0
 21
9.0
 12
0.0
 22
0.0
 32
0.0
 14
0.0
 24
0.0
 34
0.0
 15
0.0
 25
0.0
 35
0.0
146
0.0
 13
0.0
 23
0.0
 33
0.0
 16
1.0
 26
0.0
 36
0.0
 17
0.0
 27
1.0
 37
0.0
 76
     0
330
747D
  0
LAYOUT
  5
1C06B
102
{ACAD_XDICTIONARY
360
23E50
102
}
102
{ACAD_REACTORS
330
1C068
102
}
330
1C068
100
AcDbPlotSettings
  1

  2
EPSON LP-7000C
  4

  6

 40
0.0
 41
0.0
 42
0.0
 43
0.0
 44
0.0
 45
0.0
 46
0.0
 47
0.0
 48
0.0
 49
0.0
140
0.0
141
0.0
142
1.0
143
1.0
 70
   688
 72
     0
 73
     0
 74
     5
  7
inaba.ctb
 75
    16
147
1.0
148
0.0
149
0.0
100
AcDbLayout
  1
レイアウト1
 70
     0
 71
     1
 10
0.0
 20
0.0
 11
420.0
 21
297.0
 12
0.0
 22
0.0
 32
0.0
 14
1.000000000000000E+20
 24
1.000000000000000E+20
 34
1.000000000000000E+20
 15
-1.000000000000000E+20
 25
-1.000000000000000E+20
 35
-1.000000000000000E+20
146
0.0
 13
0.0
 23
0.0
 33
0.0
 16
1.0
 26
0.0
 36
0.0
 17
0.0
 27
1.0
 37
0.0
 76
     0
330
747A
  0
MLINESTYLE
  5
7480
102
{ACAD_REACTORS
330
7473
102
}
330
7473
100
AcDbMlineStyle
  2
STANDARD
 70
     0
  3

 62
     0
 51
90.0
 52
90.0
 71
     2
 49
0.5
 62
   256
  6
BYLAYER
 49
-0.5
 62
   256
  6
BYLAYER
  0
ACDBPLACEHOLDER
  5
1C065
102
{ACAD_REACTORS
330
1C064
102
}
330
1C064
  0
XRECORD
  5
23E4D
102
{ACAD_REACTORS
330
23E4B
102
}
330
23E4B
100
AcDbXrecord
280
     1
340
1C067
  0
XRECORD
  5
23E4C
102
{ACAD_REACTORS
330
23E4B
102
}
330
23E4B
100
AcDbXrecord
280
     1
340
1C066
  0
DICTIONARYVAR
  5
23E48
102
{ACAD_REACTORS
330
141CA
102
}
330
141CA
100
DictionaryVariables
280
     0
  1
1
  0
DICTIONARYVAR
  5
23E49
102
{ACAD_REACTORS
330
141CA
102
}
330
141CA
100
DictionaryVariables
280
     0
  1

  0
DICTIONARYVAR
  5
141CB
102
{ACAD_REACTORS
330
141CA
102
}
330
141CA
100
DictionaryVariables
280
     0
  1
96
  0
DICTIONARY
  5
23E4E
330
1C06A
100
AcDbDictionary
280
     1
281
     1
  3
ACAD_XREC_ROUNDTRIP
360
23E4F
  0
DICTIONARY
  5
23E50
330
1C06B
100
AcDbDictionary
280
     1
281
     1
  3
ACAD_XREC_ROUNDTRIP
360
23E51
  0
XRECORD
  5
23E4F
102
{ACAD_REACTORS
330
23E4E
102
}
330
23E4E
100
AcDbXrecord
280
     1
102
SHADEPLOT
 70
     1
102
SHADEPLOTRESLEVEL
 70
     2
102
SHADEPLOTCUSTOMDPI
 70
   300
  0
XRECORD
  5
23E51
102
{ACAD_REACTORS
330
23E50
102
}
330
23E50
100
AcDbXrecord
280
     1
102
SHADEPLOT
 70
     0
102
SHADEPLOTRESLEVEL
 70
     2
102
SHADEPLOTCUSTOMDPI
 70
   300
  0
ENDSEC
  0
EOF
