  0
SECTION
  2
HEADER
  9
$ACADVER
  1
AC1015
  9
$ACADMAINTVER
 70
    20
  9
$DWGCODEPAGE
  3
ANSI_932
  9
$INSBASE
 10
0.0
 20
0.0
 30
0.0
  9
$EXTMIN
 10
139.196816621341
 20
-0.1808097138782614
 30
-0.0000000000000129
  9
$EXTMAX
 10
16308.32523385566
 20
11409.92679818706
 30
0.0000000000000023
  9
$LIMMIN
 10
0.0
 20
0.0
  9
$LIMMAX
 10
16800.0
 20
11880.0
  9
$ORTHOMODE
 70
     0
  9
$REGENMODE
 70
     1
  9
$FILLMODE
 70
     1
  9
$QTEXTMODE
 70
     0
  9
$MIRRTEXT
 70
     1
  9
$LTSCALE
 40
20.0
  9
$ATTMODE
 70
     1
  9
$TEXTSIZE
 40
4.0
  9
$TRACEWID
 40
1.0
  9
$TEXTSTYLE
  7
STYLE1
  9
$CLAYER
  8
部品1
  9
$CELTYPE
  6
BYLAYER
  9
$CECOLOR
 62
   256
  9
$CELTSCALE
 40
50.0
  9
$DISPSILH
 70
     0
  9
$DIMSCALE
 40
40.0
  9
$DIMASZ
 40
2.5
  9
$DIMEXO
 40
0.5
  9
$DIMDLI
 40
7.0
  9
$DIMRND
 40
0.0
  9
$DIMDLE
 40
0.0
  9
$DIMEXE
 40
1.5
  9
$DIMTP
 40
0.0
  9
$DIMTM
 40
0.0
  9
$DIMTXT
 40
3.0
  9
$DIMCEN
 40
0.0
  9
$DIMTSZ
 40
0.0
  9
$DIMTOL
 70
     0
  9
$DIMLIM
 70
     0
  9
$DIMTIH
 70
     0
  9
$DIMTOH
 70
     0
  9
$DIMSE1
 70
     0
  9
$DIMSE2
 70
     0
  9
$DIMTAD
 70
     3
  9
$DIMZIN
 70
     8
  9
$DIMBLK
  1

  9
$DIMASO
 70
     1
  9
$DIMSHO
 70
     1
  9
$DIMPOST
  1

  9
$DIMAPOST
  1

  9
$DIMALT
 70
     0
  9
$DIMALTD
 70
     2
  9
$DIMALTF
 40
0.0394
  9
$DIMLFAC
 40
1.0
  9
$DIMTOFL
 70
     1
  9
$DIMTVP
 40
0.0
  9
$DIMTIX
 70
     1
  9
$DIMSOXD
 70
     0
  9
$DIMSAH
 70
     1
  9
$DIMBLK1
  1
DOTSMALL
  9
$DIMBLK2
  1
DOTSMALL
  9
$DIMSTYLE
  2
INABA_S40G
  9
$DIMCLRD
 70
     0
  9
$DIMCLRE
 70
     0
  9
$DIMCLRT
 70
     7
  9
$DIMTFAC
 40
1.0
  9
$DIMGAP
 40
1.0
  9
$DIMJUST
 70
     0
  9
$DIMSD1
 70
     0
  9
$DIMSD2
 70
     0
  9
$DIMTOLJ
 70
     1
  9
$DIMTZIN
 70
     0
  9
$DIMALTZ
 70
     0
  9
$DIMALTTZ
 70
     0
  9
$DIMUPT
 70
     0
  9
$DIMDEC
 70
     1
  9
$DIMTDEC
 70
     4
  9
$DIMALTU
 70
     2
  9
$DIMALTTD
 70
     2
  9
$DIMTXSTY
  7
STYLE1
  9
$DIMAUNIT
 70
     0
  9
$DIMADEC
 70
     0
  9
$DIMALTRND
 40
0.0
  9
$DIMAZIN
 70
     0
  9
$DIMDSEP
 70
    46
  9
$DIMATFIT
 70
     3
  9
$DIMFRAC
 70
     0
  9
$DIMLDRBLK
  1

  9
$DIMLUNIT
 70
     2
  9
$DIMLWD
 70
    -2
  9
$DIMLWE
 70
    -2
  9
$DIMTMOVE
 70
     0
  9
$LUNITS
 70
     2
  9
$LUPREC
 70
     1
  9
$SKETCHINC
 40
1.0
  9
$FILLETRAD
 40
3.0
  9
$AUNITS
 70
     0
  9
$AUPREC
 70
     0
  9
$MENU
  1
acad
  9
$ELEVATION
 40
0.0
  9
$PELEVATION
 40
0.0
  9
$THICKNESS
 40
0.0
  9
$LIMCHECK
 70
     0
  9
$CHAMFERA
 40
0.0
  9
$CHAMFERB
 40
0.0
  9
$CHAMFERC
 40
0.0
  9
$CHAMFERD
 40
0.0
  9
$SKPOLY
 70
     0
  9
$TDCREATE
 40
2451368.612993866
  9
$TDUCREATE
 40
2451368.237993866
  9
$TDUPDATE
 40
2456587.709029202
  9
$TDUUPDATE
 40
2456587.334029201
  9
$TDINDWG
 40
0.7374245949
  9
$TDUSRTIMER
 40
0.7374236921
  9
$USRTIMER
 70
     1
  9
$ANGBASE
 50
0.0
  9
$ANGDIR
 70
     0
  9
$PDMODE
 70
     3
  9
$PDSIZE
 40
2.0
  9
$PLINEWID
 40
0.0
  9
$SPLFRAME
 70
     0
  9
$SPLINETYPE
 70
     6
  9
$SPLINESEGS
 70
     8
  9
$HANDSEED
  5
18181
  9
$SURFTAB1
 70
     6
  9
$SURFTAB2
 70
     6
  9
$SURFTYPE
 70
     6
  9
$SURFU
 70
     6
  9
$SURFV
 70
     6
  9
$UCSBASE
  2

  9
$UCSNAME
  2

  9
$UCSORG
 10
0.0
 20
0.0
 30
0.0
  9
$UCSXDIR
 10
1.0
 20
0.0
 30
0.0
  9
$UCSYDIR
 10
0.0
 20
1.0
 30
0.0
  9
$UCSORTHOREF
  2

  9
$UCSORTHOVIEW
 70
     0
  9
$UCSORGTOP
 10
0.0
 20
0.0
 30
0.0
  9
$UCSORGBOTTOM
 10
0.0
 20
0.0
 30
0.0
  9
$UCSORGLEFT
 10
0.0
 20
0.0
 30
0.0
  9
$UCSORGRIGHT
 10
0.0
 20
0.0
 30
0.0
  9
$UCSORGFRONT
 10
0.0
 20
0.0
 30
0.0
  9
$UCSORGBACK
 10
0.0
 20
0.0
 30
0.0
  9
$PUCSBASE
  2

  9
$PUCSNAME
  2

  9
$PUCSORG
 10
0.0
 20
0.0
 30
0.0
  9
$PUCSXDIR
 10
1.0
 20
0.0
 30
0.0
  9
$PUCSYDIR
 10
0.0
 20
1.0
 30
0.0
  9
$PUCSORTHOREF
  2

  9
$PUCSORTHOVIEW
 70
     0
  9
$PUCSORGTOP
 10
0.0
 20
0.0
 30
0.0
  9
$PUCSORGBOTTOM
 10
0.0
 20
0.0
 30
0.0
  9
$PUCSORGLEFT
 10
0.0
 20
0.0
 30
0.0
  9
$PUCSORGRIGHT
 10
0.0
 20
0.0
 30
0.0
  9
$PUCSORGFRONT
 10
0.0
 20
0.0
 30
0.0
  9
$PUCSORGBACK
 10
0.0
 20
0.0
 30
0.0
  9
$USERI1
 70
     0
  9
$USERI2
 70
     0
  9
$USERI3
 70
     0
  9
$USERI4
 70
     0
  9
$USERI5
 70
     0
  9
$USERR1
 40
0.0
  9
$USERR2
 40
0.0
  9
$USERR3
 40
0.0
  9
$USERR4
 40
0.0
  9
$USERR5
 40
0.0
  9
$WORLDVIEW
 70
     1
  9
$SHADEDGE
 70
     3
  9
$SHADEDIF
 70
    70
  9
$TILEMODE
 70
     1
  9
$MAXACTVP
 70
    16
  9
$PINSBASE
 10
0.0
 20
0.0
 30
0.0
  9
$PLIMCHECK
 70
     0
  9
$PEXTMIN
 10
1.000000000000000E+20
 20
1.000000000000000E+20
 30
1.000000000000000E+20
  9
$PEXTMAX
 10
-1.000000000000000E+20
 20
-1.000000000000000E+20
 30
-1.000000000000000E+20
  9
$PLIMMIN
 10
0.0
 20
0.0
  9
$PLIMMAX
 10
420.0
 20
297.0
  9
$UNITMODE
 70
     0
  9
$VISRETAIN
 70
     0
  9
$PLINEGEN
 70
     0
  9
$PSLTSCALE
 70
     0
  9
$TREEDEPTH
 70
  3020
  9
$CMLSTYLE
  2
STANDARD
  9
$CMLJUST
 70
     0
  9
$CMLSCALE
 40
1.0
  9
$PROXYGRAPHICS
 70
     1
  9
$MEASUREMENT
 70
     1
  9
$CELWEIGHT
370
    -1
  9
$ENDCAPS
280
     0
  9
$JOINSTYLE
280
     0
  9
$LWDISPLAY
290
     0
  9
$INSUNITS
 70
     0
  9
$HYPERLINKBASE
  1

  9
$STYLESHEET
  1
inaba.ctb
  9
$XEDIT
290
     1
  9
$CEPSNTYPE
380
     0
  9
$PSTYLEMODE
290
     1
  9
$FINGERPRINTGUID
  2
{EC090311-9254-4FB8-9BBA-E8C5B2CDFB2F}
  9
$VERSIONGUID
  2
{470B91FF-5099-495A-A28A-B1846CDD9B29}
  9
$EXTNAMES
290
     1
  9
$PSVPSCALE
 40
0.0
  9
$OLESTARTUP
290
     0
  0
ENDSEC
  0
SECTION
  2
CLASSES
  0
CLASS
  1
ACDBDICTIONARYWDFLT
  2
AcDbDictionaryWithDefault
  3
ObjectDBX Classes
 90
        0
280
     0
281
     0
  0
CLASS
  1
DICTIONARYVAR
  2
AcDbDictionaryVar
  3
ObjectDBX Classes
 90
        0
280
     0
281
     0
  0
CLASS
  1
ACDBPLACEHOLDER
  2
AcDbPlaceHolder
  3
ObjectDBX Classes
 90
        0
280
     0
281
     0
  0
CLASS
  1
LAYOUT
  2
AcDbLayout
  3
ObjectDBX Classes
 90
        0
280
     0
281
     0
  0
CLASS
  1
MATERIAL
  2
AcDbMaterial
  3
ObjectDBX Classes
 90
     1153
280
     0
281
     0
  0
CLASS
  1
VISUALSTYLE
  2
AcDbVisualStyle
  3
ObjectDBX Classes
 90
     4095
280
     0
281
     0
  0
CLASS
  1
TABLESTYLE
  2
AcDbTableStyle
  3
ObjectDBX Classes
 90
     4095
280
     0
281
     0
  0
CLASS
  1
SCALE
  2
AcDbScale
  3
ObjectDBX Classes
 90
     1153
280
     0
281
     0
  0
CLASS
  1
MLEADERSTYLE
  2
AcDbMLeaderStyle
  3
ACDB_MLEADERSTYLE_CLASS
 90
     4095
280
     0
281
     0
  0
CLASS
  1
ACDBSECTIONVIEWSTYLE
  2
AcDbSectionViewStyle
  3
ObjectDBX Classes
 90
     1025
280
     0
281
     0
  0
CLASS
  1
ACDBDETAILVIEWSTYLE
  2
AcDbDetailViewStyle
  3
ObjectDBX Classes
 90
     1025
280
     0
281
     0
  0
CLASS
  1
CELLSTYLEMAP
  2
AcDbCellStyleMap
  3
ObjectDBX Classes
 90
     1152
280
     0
281
     0
  0
ENDSEC
  0
SECTION
  2
TABLES
  0
TABLE
  2
VPORT
  5
746D
330
0
100
AcDbSymbolTable
 70
     1
  0
VPORT
  5
180A7
330
746D
100
AcDbSymbolTableRecord
100
AcDbViewportTableRecord
  2
*Active
 70
     0
 10
0.0
 20
0.0
 11
1.0
 21
1.0
 12
8400.0
 22
5939.909595143061
 13
0.0
 23
0.0
 14
10.0
 24
10.0
 15
10.0
 25
10.0
 16
0.0
 26
0.0
 36
1.0
 17
0.0
 27
0.0
 37
0.0
 40
12311.41256972373
 41
1.37290502793296
 42
50.0
 43
0.0
 44
0.0
 50
0.0
 51
0.0
 71
     0
 72
     0
 73
     1
 74
     0
 75
     0
 76
     0
 77
     0
 78
     0
281
     0
 65
     1
110
0.0
120
0.0
130
0.0
111
1.0
121
0.0
131
0.0
112
0.0
122
1.0
132
0.0
 79
     0
146
0.0
1001
ACAD_NAV_VCDISPLAY
1070
     3
  0
ENDTAB
  0
TABLE
  2
LTYPE
  5
746A
330
0
100
AcDbSymbolTable
 70
     4
  0
LTYPE
  5
7477
330
746A
100
AcDbSymbolTableRecord
100
AcDbLinetypeTableRecord
  2
BYBLOCK
 70
     0
  3

 72
    65
 73
     0
 40
0.0
  0
LTYPE
  5
7478
330
746A
100
AcDbSymbolTableRecord
100
AcDbLinetypeTableRecord
  2
BYLAYER
 70
     0
  3

 72
    65
 73
     0
 40
0.0
  0
LTYPE
  5
7479
330
746A
100
AcDbSymbolTableRecord
100
AcDbLinetypeTableRecord
  2
CONTINUOUS
 70
     0
  3
Solid line
 72
    65
 73
     0
 40
0.0
  0
LTYPE
  5
781A
330
746A
100
AcDbSymbolTableRecord
100
AcDbLinetypeTableRecord
  2
HIDDEN
 70
     0
  3
__ __ __ __ __ __ __ __ __ __ __ __ __ __ __ __
 72
    65
 73
     2
 40
0.375
 49
0.25
 74
     0
 49
-0.125
 74
     0
  0
LTYPE
  5
781B
330
746A
100
AcDbSymbolTableRecord
100
AcDbLinetypeTableRecord
  2
PHANTOM
 70
     0
  3
______  __  __  ______  __  __  ______  __  __ 
 72
    65
 73
     6
 40
2.5
 49
1.25
 74
     0
 49
-0.25
 74
     0
 49
0.25
 74
     0
 49
-0.25
 74
     0
 49
0.25
 74
     0
 49
-0.25
 74
     0
  0
ENDTAB
  0
TABLE
  2
LAYER
  5
7467
102
{ACAD_XDICTIONARY
360
16D27
102
}
330
0
100
AcDbSymbolTable
 70
    10
  0
LAYER
  5
7474
102
{ACAD_XDICTIONARY
360
18107
102
}
330
7467
100
AcDbSymbolTableRecord
100
AcDbLayerTableRecord
  2
0
 70
     0
 62
     7
  6
CONTINUOUS
370
    -3
390
1675D
  0
LAYER
  5
DEB3
102
{ACAD_XDICTIONARY
360
18109
102
}
330
7467
100
AcDbSymbolTableRecord
100
AcDbLayerTableRecord
  2
寸法
 70
     0
 62
     4
  6
CONTINUOUS
370
    -3
390
1675D
  0
LAYER
  5
DEB4
102
{ACAD_XDICTIONARY
360
1810B
102
}
330
7467
100
AcDbSymbolTableRecord
100
AcDbLayerTableRecord
  2
部品1
 70
     0
 62
     7
  6
CONTINUOUS
370
    -3
390
1675D
  0
LAYER
  5
DEB5
102
{ACAD_XDICTIONARY
360
1810D
102
}
330
7467
100
AcDbSymbolTableRecord
100
AcDbLayerTableRecord
  2
補助
 70
     0
 62
    -1
  6
CONTINUOUS
370
    -3
390
1675D
  0
LAYER
  5
DEB6
102
{ACAD_XDICTIONARY
360
1810F
102
}
330
7467
100
AcDbSymbolTableRecord
100
AcDbLayerTableRecord
  2
文字
 70
     0
 62
     7
  6
CONTINUOUS
370
    -3
390
1675D
  0
LAYER
  5
F255
330
7467
100
AcDbSymbolTableRecord
100
AcDbLayerTableRecord
  2
DEFPOINTS
 70
     0
 62
     7
  6
CONTINUOUS
290
     0
370
    -3
390
1675D
  0
LAYER
  5
10B54
102
{ACAD_XDICTIONARY
360
18111
102
}
330
7467
100
AcDbSymbolTableRecord
100
AcDbLayerTableRecord
  2
仕様書枠
 70
     0
 62
   230
  6
CONTINUOUS
370
    -3
390
1675D
  0
LAYER
  5
11729
102
{ACAD_XDICTIONARY
360
18113
102
}
330
7467
100
AcDbSymbolTableRecord
100
AcDbLayerTableRecord
  2
Ｇ．Ｌ
 70
     0
 62
    30
  6
CONTINUOUS
370
    -3
390
1675D
  0
LAYER
  5
1173F
102
{ACAD_XDICTIONARY
360
18115
102
}
330
7467
100
AcDbSymbolTableRecord
100
AcDbLayerTableRecord
  2
細線
 70
     0
 62
     5
  6
CONTINUOUS
370
    -3
390
1675D
  0
LAYER
  5
142E2
102
{ACAD_XDICTIONARY
360
18117
102
}
330
7467
100
AcDbSymbolTableRecord
100
AcDbLayerTableRecord
  2
破線
 70
     0
 62
     2
  6
HIDDEN
370
    -3
390
1675D
  0
ENDTAB
  0
TABLE
  2
STYLE
  5
7468
330
0
100
AcDbSymbolTable
 70
     7
  0
STYLE
  5
7475
330
7468
100
AcDbSymbolTableRecord
100
AcDbTextStyleTableRecord
  2
STANDARD
 70
     0
 40
0.0
 41
1.0
 50
0.0
 71
     0
 42
4.0
  3
txt
  4
C:\AutoCAD LT\bigfont.shx
  0
STYLE
  5
763C
330
7468
100
AcDbSymbolTableRecord
100
AcDbTextStyleTableRecord
  2
MSMINCHO
 70
     0
 40
0.0
 41
1.0
 50
0.0
 71
     0
 42
1.199999999999999
  3
C:\AutoCAD LT\msminch2.TTF
  4

  0
STYLE
  5
F706
330
7468
100
AcDbSymbolTableRecord
100
AcDbTextStyleTableRecord
  2
STYLE1
 70
     0
 40
0.0
 41
1.0
 50
0.0
 71
     0
 42
4.0
  3
isocp.shx
  4
bigfont.shx
  0
STYLE
  5
103BF
330
7468
100
AcDbSymbolTableRecord
100
AcDbTextStyleTableRecord
  2
STYLE2
 70
     0
 40
0.0
 41
1.0
 50
0.0
 71
     0
 42
100.0
  3
MS PGothic.ttf
  4

1001
ACAD
1000
MS PGothic
1071
    32818
  0
STYLE
  5
10BAA
330
7468
100
AcDbSymbolTableRecord
100
AcDbTextStyleTableRecord
  2
STYLE3
 70
     0
 40
0.0
 41
1.0
 50
0.0
 71
     0
 42
100.0
  3
DFPGothic-EB.ttf
  4

1001
ACAD
1000
DFPGothic-EB
1071
    32818
  0
STYLE
  5
11A15
330
7468
100
AcDbSymbolTableRecord
100
AcDbTextStyleTableRecord
  2
MSGOTHIC
 70
     0
 40
0.0
 41
1.0
 50
0.0
 71
     0
 42
3.5
  3
msgothi2.ttf
  4

  0
STYLE
  5
17ED0
330
7468
100
AcDbSymbolTableRecord
100
AcDbTextStyleTableRecord
  2
MSPゴシック
 70
     0
 40
0.0
 41
1.0
 50
0.0
 71
     0
 42
4.0
  3
MS PGothic.ttf
  4

1001
ACAD
1000
MS PGothic
1071
    32818
  0
ENDTAB
  0
TABLE
  2
VIEW
  5
746B
330
0
100
AcDbSymbolTable
 70
     1
  0
ENDTAB
  0
TABLE
  2
UCS
  5
746C
330
0
100
AcDbSymbolTable
 70
     0
  0
ENDTAB
  0
TABLE
  2
APPID
  5
746E
330
0
100
AcDbSymbolTable
 70
     9
  0
APPID
  5
7476
330
746E
100
AcDbSymbolTableRecord
100
AcDbRegAppTableRecord
  2
ACAD
 70
     0
  0
APPID
  5
DEA9
330
746E
100
AcDbSymbolTableRecord
100
AcDbRegAppTableRecord
  2
CONTENTBLOCKICON
 70
     0
  0
APPID
  5
DEAA
330
746E
100
AcDbSymbolTableRecord
100
AcDbRegAppTableRecord
  2
CONTENTBLOCKDESCRIPTION
 70
     0
  0
APPID
  5
E71D
330
746E
100
AcDbSymbolTableRecord
100
AcDbRegAppTableRecord
  2
CONTENTTABDATA
 70
     0
  0
APPID
  5
E71E
330
746E
100
AcDbSymbolTableRecord
100
AcDbRegAppTableRecord
  2
CONTENTCURRENTTAB
 70
     0
  0
APPID
  5
F3BA
330
746E
100
AcDbSymbolTableRecord
100
AcDbRegAppTableRecord
  2
DRAWINGVARIABLESXDATA
 70
     0
  0
APPID
  5
180FE
330
746E
100
AcDbSymbolTableRecord
100
AcDbRegAppTableRecord
  2
ACAD_EXEMPT_FROM_CAD_STANDARDS
 70
     0
  0
APPID
  5
18100
330
746E
100
AcDbSymbolTableRecord
100
AcDbRegAppTableRecord
  2
ACAD_NAV_VCDISPLAY
 70
     0
  0
APPID
  5
1817A
330
746E
100
AcDbSymbolTableRecord
100
AcDbRegAppTableRecord
  2
ACAD_MLEADERVER
 70
     0
  0
ENDTAB
  0
TABLE
  2
DIMSTYLE
  5
746F
330
0
100
AcDbSymbolTable
 70
     1
100
AcDbDimStyleTable
 71
     1
340
F71F
  0
DIMSTYLE
105
F71F
102
{ACAD_REACTORS
330
164EB
330
164F2
330
164F7
330
164F9
330
164FA
330
164FB
330
1650E
330
1650F
330
16510
330
16528
330
1652B
330
16556
330
16557
330
16F76
330
16F77
330
16F78
330
16FB4
330
17742
330
17751
330
1775F
330
17760
330
17761
330
17765
330
17795
330
17796
330
17797
330
17D05
330
17D06
330
17D07
102
}
330
746F
100
AcDbSymbolTableRecord
100
AcDbDimStyleTableRecord
  2
INABA_S40G
 70
     0
 40
40.0
 41
2.5
 42
0.5
 43
7.0
 44
1.5
 73
     0
 74
     0
 77
     3
 78
     8
140
3.0
141
0.0
143
0.0394
147
1.0
172
     1
173
     1
174
     1
178
     7
271
     1
340
F706
341
F770
343
F770
344
F770
  0
ENDTAB
  0
TABLE
  2
BLOCK_RECORD
  5
7466
330
0
100
AcDbSymbolTable
 70
    31
  0
BLOCK_RECORD
  5
747D
330
7466
100
AcDbSymbolTableRecord
100
AcDbBlockTableRecord
  2
*MODEL_SPACE
340
16762
  0
BLOCK_RECORD
  5
747A
330
7466
100
AcDbSymbolTableRecord
100
AcDbBlockTableRecord
  2
*PAPER_SPACE
340
16763
  0
BLOCK_RECORD
  5
F770
330
7466
100
AcDbSymbolTableRecord
100
AcDbBlockTableRecord
  2
_DOTSMALL
340
0
102
{BLKREFS
331
17AE3
331
17AE4
331
17B3D
331
17B3E
331
17B73
331
17B74
331
17B7D
331
17B7E
331
17F00
331
17F01
331
17F09
331
17F0A
331
17F14
331
17F15
331
17F1D
331
17F1E
331
17F28
331
17F29
331
17F31
331
17F32
331
17F3B
331
17F3C
331
17F44
331
17F45
331
17F4E
331
17F4F
331
17F59
331
17F5A
331
17F64
331
17F65
331
17F78
331
17F79
331
17F83
331
17F84
331
17F8F
331
17F90
331
17F97
331
17F98
331
17F9F
331
17FA0
331
17FA8
331
17FA9
331
17FB1
331
17FB2
331
17FBB
331
17FBC
331
17FDA
331
17FDB
331
17FE5
331
17FE6
331
1806E
331
1806F
331
18077
331
18078
331
18096
331
18097
331
180A2
331
180A3
102
}
  0
BLOCK_RECORD
  5
1655F
330
7466
100
AcDbSymbolTableRecord
100
AcDbBlockTableRecord
  2
*D1
340
0
  0
BLOCK_RECORD
  5
1656B
330
7466
100
AcDbSymbolTableRecord
100
AcDbBlockTableRecord
  2
*D2
340
0
  0
BLOCK_RECORD
  5
1658F
330
7466
100
AcDbSymbolTableRecord
100
AcDbBlockTableRecord
  2
*D3
340
0
  0
BLOCK_RECORD
  5
1659A
330
7466
100
AcDbSymbolTableRecord
100
AcDbBlockTableRecord
  2
*D4
340
0
  0
BLOCK_RECORD
  5
165A6
330
7466
100
AcDbSymbolTableRecord
100
AcDbBlockTableRecord
  2
*D5
340
0
  0
BLOCK_RECORD
  5
165B4
330
7466
100
AcDbSymbolTableRecord
100
AcDbBlockTableRecord
  2
*D6
340
0
  0
BLOCK_RECORD
  5
165C3
330
7466
100
AcDbSymbolTableRecord
100
AcDbBlockTableRecord
  2
*D7
340
0
  0
BLOCK_RECORD
  5
165D2
330
7466
100
AcDbSymbolTableRecord
100
AcDbBlockTableRecord
  2
*D8
340
0
  0
BLOCK_RECORD
  5
165E0
330
7466
100
AcDbSymbolTableRecord
100
AcDbBlockTableRecord
  2
*D9
340
0
  0
BLOCK_RECORD
  5
165EE
330
7466
100
AcDbSymbolTableRecord
100
AcDbBlockTableRecord
  2
*D10
340
0
  0
BLOCK_RECORD
  5
165FA
330
7466
100
AcDbSymbolTableRecord
100
AcDbBlockTableRecord
  2
*D11
340
0
  0
BLOCK_RECORD
  5
16608
330
7466
100
AcDbSymbolTableRecord
100
AcDbBlockTableRecord
  2
*D12
340
0
  0
BLOCK_RECORD
  5
16616
330
7466
100
AcDbSymbolTableRecord
100
AcDbBlockTableRecord
  2
*D13
340
0
  0
BLOCK_RECORD
  5
17100
330
7466
100
AcDbSymbolTableRecord
100
AcDbBlockTableRecord
  2
*D14
340
0
  0
BLOCK_RECORD
  5
1710C
330
7466
100
AcDbSymbolTableRecord
100
AcDbBlockTableRecord
  2
*D15
340
0
  0
BLOCK_RECORD
  5
17118
330
7466
100
AcDbSymbolTableRecord
100
AcDbBlockTableRecord
  2
*D16
340
0
  0
BLOCK_RECORD
  5
17126
330
7466
100
AcDbSymbolTableRecord
100
AcDbBlockTableRecord
  2
*D17
340
0
  0
BLOCK_RECORD
  5
17837
330
7466
100
AcDbSymbolTableRecord
100
AcDbBlockTableRecord
  2
*D18
340
0
  0
BLOCK_RECORD
  5
17844
330
7466
100
AcDbSymbolTableRecord
100
AcDbBlockTableRecord
  2
*D19
340
0
  0
BLOCK_RECORD
  5
17851
330
7466
100
AcDbSymbolTableRecord
100
AcDbBlockTableRecord
  2
*D20
340
0
  0
BLOCK_RECORD
  5
1785D
330
7466
100
AcDbSymbolTableRecord
100
AcDbBlockTableRecord
  2
*D21
340
0
  0
BLOCK_RECORD
  5
1786B
330
7466
100
AcDbSymbolTableRecord
100
AcDbBlockTableRecord
  2
*D22
340
0
  0
BLOCK_RECORD
  5
17877
330
7466
100
AcDbSymbolTableRecord
100
AcDbBlockTableRecord
  2
*D23
340
0
  0
BLOCK_RECORD
  5
17885
330
7466
100
AcDbSymbolTableRecord
100
AcDbBlockTableRecord
  2
*D24
340
0
  0
BLOCK_RECORD
  5
17891
330
7466
100
AcDbSymbolTableRecord
100
AcDbBlockTableRecord
  2
*D25
340
0
  0
BLOCK_RECORD
  5
1789D
330
7466
100
AcDbSymbolTableRecord
100
AcDbBlockTableRecord
  2
*D26
340
0
  0
BLOCK_RECORD
  5
17D65
330
7466
100
AcDbSymbolTableRecord
100
AcDbBlockTableRecord
  2
*D27
340
0
  0
BLOCK_RECORD
  5
17D71
330
7466
100
AcDbSymbolTableRecord
100
AcDbBlockTableRecord
  2
*D28
340
0
  0
BLOCK_RECORD
  5
17D7F
330
7466
100
AcDbSymbolTableRecord
100
AcDbBlockTableRecord
  2
*D29
340
0
  0
ENDTAB
  0
ENDSEC
  0
SECTION
  2
BLOCKS
  0
BLOCK
  5
7489
330
747D
100
AcDbEntity
  8
0
100
AcDbBlockBegin
  2
*MODEL_SPACE
 70
     0
 10
0.0
 20
0.0
 30
0.0
  3
*MODEL_SPACE
  1

  0
ENDBLK
  5
748A
330
747D
100
AcDbEntity
  8
0
100
AcDbBlockEnd
  0
BLOCK
  5
7487
330
747A
100
AcDbEntity
 67
     1
  8
0
100
AcDbBlockBegin
  2
*PAPER_SPACE
 70
     0
 10
0.0
 20
0.0
 30
0.0
  3
*PAPER_SPACE
  1

  0
ENDBLK
  5
7488
330
747A
100
AcDbEntity
 67
     1
  8
0
100
AcDbBlockEnd
  0
BLOCK
  5
F771
330
F770
100
AcDbEntity
  8
0
 48
50.0
100
AcDbBlockBegin
  2
_DOTSMALL
 70
     0
 10
0.0
 20
0.0
 30
0.0
  3
_DOTSMALL
  1

  0
LWPOLYLINE
  5
F772
330
F770
100
AcDbEntity
  8
0
  6
ByBlock
 62
     0
 48
50.0
100
AcDbPolyline
 90
        2
 70
     1
 43
0.5
 10
-0.0625
 20
0.0
 42
1.0
 10
0.0625
 20
0.0
 42
1.0
  0
ENDBLK
  5
F776
330
F770
100
AcDbEntity
  8
0
 48
50.0
100
AcDbBlockEnd
  0
BLOCK
  5
166FC
330
1655F
100
AcDbEntity
  8
0
 48
50.0
100
AcDbBlockBegin
  2
*D1
 70
     1
 10
0.0
 20
0.0
 30
0.0
  3
*D1
  1

  0
LINE
  5
17FAE
330
1655F
100
AcDbEntity
  8
寸法
 62
     0
 48
50.0
370
    -2
100
AcDbLine
 10
7216.461099046291
 20
10211.31085581437
 30
0.0
 11
8268.994386520335
 21
10211.31085581437
 31
0.0
  0
LINE
  5
17FAF
330
1655F
100
AcDbEntity
  8
寸法
 62
     0
 48
50.0
370
    -2
100
AcDbLine
 10
7216.461099046263
 20
6741.310855814369
 30
0.0
 11
8268.994386520335
 21
6741.310855814369
 31
0.0
  0
LINE
  5
17FB0
330
1655F
100
AcDbEntity
  8
寸法
 62
     0
 48
50.0
370
    -2
100
AcDbLine
 10
8208.994386520336
 20
10211.31085581437
 30
0.0
 11
8208.994386520336
 21
6741.310855814369
 31
0.0
  0
INSERT
  5
17FB1
330
1655F
100
AcDbEntity
  8
寸法
 62
     0
 48
50.0
370
    -2
100
AcDbBlockReference
  2
_DOTSMALL
 10
8208.994386520336
 20
10211.31085581437
 30
0.0
 41
100.0
 42
100.0
 43
100.0
 50
90.0
  0
INSERT
  5
17FB2
330
1655F
100
AcDbEntity
  8
寸法
 62
     0
 48
50.0
370
    -2
100
AcDbBlockReference
  2
_DOTSMALL
 10
8208.994386520336
 20
6741.310855814369
 30
0.0
 41
100.0
 42
100.0
 43
100.0
 50
270.0
  0
MTEXT
  5
17FB3
330
1655F
100
AcDbEntity
  8
寸法
 62
     7
 48
50.0
100
AcDbMText
 10
8108.994386520334
 20
8476.310855814373
 30
0.0
 40
120.0
 41
0.0
 71
     5
 72
     1
  1
\A1;3470
  7
STYLE1
 11
0.0000000000000001
 21
1.0
 31
0.0
 73
     1
 44
1.0
1001
ACAD
1000
MTEXTBEGIN
1070
    73
1070
     1
1070
    44
1040
1.0
1070
    74
1070
     0
1000
MTEXTEND
  0
POINT
  5
17FB4
330
1655F
100
AcDbEntity
  8
DEFPOINTS
 62
     0
 48
50.0
100
AcDbPoint
 10
7196.461099046292
 20
10211.31085581437
 30
0.0
  0
POINT
  5
17FB5
330
1655F
100
AcDbEntity
  8
DEFPOINTS
 62
     0
 48
50.0
100
AcDbPoint
 10
7196.461099046263
 20
6741.310855814369
 30
0.0
  0
POINT
  5
17FB6
330
1655F
100
AcDbEntity
  8
DEFPOINTS
 62
     0
 48
50.0
100
AcDbPoint
 10
8208.994386520336
 20
6741.310855814369
 30
0.0
  0
ENDBLK
  5
16706
330
1655F
100
AcDbEntity
  8
0
 48
50.0
100
AcDbBlockEnd
  0
BLOCK
  5
16707
330
1656B
100
AcDbEntity
  8
0
 48
50.0
100
AcDbBlockBegin
  2
*D2
 70
     1
 10
0.0
 20
0.0
 30
0.0
  3
*D2
  1

  0
LINE
  5
17FA5
330
1656B
100
AcDbEntity
  8
寸法
 62
     0
 48
50.0
370
    -2
100
AcDbLine
 10
7216.461099046291
 20
10156.31085581438
 30
0.0
 11
7903.887444780699
 21
10156.31085581438
 31
0.0
  0
LINE
  5
17FA6
330
1656B
100
AcDbEntity
  8
寸法
 62
     0
 48
50.0
370
    -2
100
AcDbLine
 10
7216.461099046263
 20
6796.310855814365
 30
0.0
 11
7903.887444780699
 21
6796.310855814365
 31
0.0
  0
LINE
  5
17FA7
330
1656B
100
AcDbEntity
  8
寸法
 62
     0
 48
50.0
370
    -2
100
AcDbLine
 10
7843.887444780699
 20
10156.31085581438
 30
0.0
 11
7843.887444780699
 21
6796.310855814365
 31
0.0
  0
INSERT
  5
17FA8
330
1656B
100
AcDbEntity
  8
寸法
 62
     0
 48
50.0
370
    -2
100
AcDbBlockReference
  2
_DOTSMALL
 10
7843.887444780699
 20
10156.31085581438
 30
0.0
 41
100.0
 42
100.0
 43
100.0
 50
90.0
  0
INSERT
  5
17FA9
330
1656B
100
AcDbEntity
  8
寸法
 62
     0
 48
50.0
370
    -2
100
AcDbBlockReference
  2
_DOTSMALL
 10
7843.887444780699
 20
6796.310855814365
 30
0.0
 41
100.0
 42
100.0
 43
100.0
 50
270.0
  0
MTEXT
  5
17FAA
330
1656B
100
AcDbEntity
  8
寸法
 62
     7
 48
50.0
100
AcDbMText
 10
7743.875633757077
 20
8476.310855814373
 30
0.0
 40
120.0
 41
0.0
 71
     5
 72
     1
  1
\A1;8X420=3360
  7
STYLE1
 11
0.0000000000000001
 21
1.0
 31
0.0
 73
     1
 44
1.0
1001
ACAD
1000
MTEXTBEGIN
1070
    73
1070
     1
1070
    44
1040
1.0
1070
    74
1070
     0
1000
MTEXTEND
  0
POINT
  5
17FAB
330
1656B
100
AcDbEntity
  8
DEFPOINTS
 62
     0
 48
50.0
100
AcDbPoint
 10
7196.461099046292
 20
10156.31085581438
 30
0.0
  0
POINT
  5
17FAC
330
1656B
100
AcDbEntity
  8
DEFPOINTS
 62
     0
 48
50.0
100
AcDbPoint
 10
7196.461099046263
 20
6796.310855814365
 30
0.0
  0
POINT
  5
17FAD
330
1656B
100
AcDbEntity
  8
DEFPOINTS
 62
     0
 48
50.0
100
AcDbPoint
 10
7843.887444780699
 20
6796.310855814365
 30
0.0
  0
ENDBLK
  5
16711
330
1656B
100
AcDbEntity
  8
0
 48
50.0
100
AcDbBlockEnd
  0
BLOCK
  5
1665C
330
1658F
100
AcDbEntity
  8
0
 48
50.0
100
AcDbBlockBegin
  2
*D3
 70
     1
 10
0.0
 20
0.0
 30
0.0
  3
*D3
  1

  0
LINE
  5
17F9D
330
1658F
100
AcDbEntity
  8
寸法
 62
     0
 48
50.0
370
    -2
100
AcDbLine
 10
4669.461099046284
 20
6747.310855814278
 30
0.0
 11
4669.461099046284
 21
6146.880085048113
 31
0.0
  0
LINE
  5
17F9E
330
1658F
100
AcDbEntity
  8
寸法
 62
     0
 48
50.0
370
    -2
100
AcDbLine
 10
7093.461099046263
 20
6206.880085048113
 30
0.0
 11
4669.461099046284
 21
6206.880085048113
 31
0.0
  0
INSERT
  5
17F9F
330
1658F
100
AcDbEntity
  8
寸法
 62
     0
 48
50.0
370
    -2
100
AcDbBlockReference
  2
_DOTSMALL
 10
7093.461099046263
 20
6206.880085048113
 30
0.0
 41
100.0
 42
100.0
 43
100.0
  0
INSERT
  5
17FA0
330
1658F
100
AcDbEntity
  8
寸法
 62
     0
 48
50.0
370
    -2
100
AcDbBlockReference
  2
_DOTSMALL
 10
4669.461099046284
 20
6206.880085048113
 30
0.0
 41
100.0
 42
100.0
 43
100.0
 50
180.0
  0
MTEXT
  5
17FA1
330
1658F
100
AcDbEntity
  8
寸法
 62
     7
 48
50.0
100
AcDbMText
 10
5881.461099046273
 20
6306.891896071735
 30
0.0
 40
120.0
 41
0.0
 71
     5
 72
     1
  1
\A1;有効開口部間口 2424
  7
STYLE1
 73
     1
 44
1.0
1001
ACAD
1000
MTEXTBEGIN
1070
    73
1070
     1
1070
    44
1040
1.0
1070
    74
1070
     0
1000
MTEXTEND
  0
POINT
  5
17FA2
330
1658F
100
AcDbEntity
  8
DEFPOINTS
 62
     0
 48
50.0
100
AcDbPoint
 10
7093.461099046263
 20
6767.310855814277
 30
0.0
  0
POINT
  5
17FA3
330
1658F
100
AcDbEntity
  8
DEFPOINTS
 62
     0
 48
50.0
100
AcDbPoint
 10
4669.461099046284
 20
6767.310855814277
 30
0.0
  0
POINT
  5
17FA4
330
1658F
100
AcDbEntity
  8
DEFPOINTS
 62
     0
 48
50.0
100
AcDbPoint
 10
4669.461099046284
 20
6206.880085048113
 30
0.0
  0
ENDBLK
  5
16665
330
1658F
100
AcDbEntity
  8
0
 48
50.0
100
AcDbBlockEnd
  0
BLOCK
  5
16666
330
1659A
100
AcDbEntity
  8
0
 48
50.0
100
AcDbBlockBegin
  2
*D4
 70
     1
 10
0.0
 20
0.0
 30
0.0
  3
*D4
  1

  0
LINE
  5
17F94
330
1659A
100
AcDbEntity
  8
寸法
 62
     0
 48
50.0
370
    -2
100
AcDbLine
 10
4566.461099046284
 20
6721.310855814206
 30
0.0
 11
4566.461099046284
 21
5860.707089457239
 31
0.0
  0
LINE
  5
17F95
330
1659A
100
AcDbEntity
  8
寸法
 62
     0
 48
50.0
370
    -2
100
AcDbLine
 10
7196.461099046263
 20
6721.310855814332
 30
0.0
 11
7196.461099046263
 21
5860.707089457239
 31
0.0
  0
LINE
  5
17F96
330
1659A
100
AcDbEntity
  8
寸法
 62
     0
 48
50.0
370
    -2
100
AcDbLine
 10
4566.461099046284
 20
5920.707089457239
 30
0.0
 11
7196.461099046263
 21
5920.707089457239
 31
0.0
  0
INSERT
  5
17F97
330
1659A
100
AcDbEntity
  8
寸法
 62
     0
 48
50.0
370
    -2
100
AcDbBlockReference
  2
_DOTSMALL
 10
4566.461099046284
 20
5920.707089457239
 30
0.0
 41
100.0
 42
100.0
 43
100.0
 50
180.0
  0
INSERT
  5
17F98
330
1659A
100
AcDbEntity
  8
寸法
 62
     0
 48
50.0
370
    -2
100
AcDbBlockReference
  2
_DOTSMALL
 10
7196.461099046263
 20
5920.707089457239
 30
0.0
 41
100.0
 42
100.0
 43
100.0
  0
MTEXT
  5
17F99
330
1659A
100
AcDbEntity
  8
寸法
 62
     7
 48
50.0
100
AcDbMText
 10
5881.461099046273
 20
6020.718900480861
 30
0.0
 40
120.0
 41
0.0
 71
     5
 72
     1
  1
\A1;2630
  7
STYLE1
 73
     1
 44
1.0
1001
ACAD
1000
MTEXTBEGIN
1070
    73
1070
     1
1070
    44
1040
1.0
1070
    74
1070
     0
1000
MTEXTEND
  0
POINT
  5
17F9A
330
1659A
100
AcDbEntity
  8
DEFPOINTS
 62
     0
 48
50.0
100
AcDbPoint
 10
4566.461099046284
 20
6741.310855814205
 30
0.0
  0
POINT
  5
17F9B
330
1659A
100
AcDbEntity
  8
DEFPOINTS
 62
     0
 48
50.0
100
AcDbPoint
 10
7196.461099046263
 20
6741.310855814332
 30
0.0
  0
POINT
  5
17F9C
330
1659A
100
AcDbEntity
  8
DEFPOINTS
 62
     0
 48
50.0
100
AcDbPoint
 10
7196.461099046263
 20
5920.707089457239
 30
0.0
  0
ENDBLK
  5
16670
330
1659A
100
AcDbEntity
  8
0
 48
50.0
100
AcDbBlockEnd
  0
BLOCK
  5
16671
330
165A6
100
AcDbEntity
  8
0
 48
50.0
100
AcDbBlockBegin
  2
*D5
 70
     1
 10
0.0
 20
0.0
 30
0.0
  3
*D5
  1

  0
LINE
  5
17B78
330
165A6
100
AcDbEntity
  8
寸法
 62
     0
 48
50.0
370
    -2
100
AcDbLine
 10
4621.461099046281
 20
6721.310855814279
 30
0.0
 11
4621.461099046281
 21
6146.880085048113
 31
0.0
  0
LINE
  5
17B79
330
165A6
100
AcDbEntity
  8
寸法
 62
     0
 48
50.0
370
    -2
100
AcDbLine
 10
4566.461099046284
 20
6721.310855814272
 30
0.0
 11
4566.461099046284
 21
6146.880085048113
 31
0.0
  0
LINE
  5
17B7A
330
165A6
100
AcDbEntity
  8
寸法
 62
     0
 48
50.0
370
    -2
100
AcDbLine
 10
4621.461099046281
 20
6206.880085048113
 30
0.0
 11
4721.461099046281
 21
6206.880085048113
 31
0.0
  0
LINE
  5
17B7B
330
165A6
100
AcDbEntity
  8
寸法
 62
     0
 48
50.0
370
    -2
100
AcDbLine
 10
4566.461099046284
 20
6206.880085048113
 30
0.0
 11
4149.490536297807
 21
6206.880085048113
 31
0.0
  0
LINE
  5
17B7C
330
165A6
100
AcDbEntity
  8
寸法
 62
     0
 48
50.0
370
    -2
100
AcDbLine
 10
4621.461099046281
 20
6206.880085048113
 30
0.0
 11
4566.461099046284
 21
6206.880085048113
 31
0.0
  0
INSERT
  5
17B7D
330
165A6
100
AcDbEntity
  8
寸法
 62
     0
 48
50.0
370
    -2
100
AcDbBlockReference
  2
_DOTSMALL
 10
4621.461099046281
 20
6206.880085048113
 30
0.0
 41
100.0
 42
100.0
 43
100.0
 50
180.0
  0
INSERT
  5
17B7E
330
165A6
100
AcDbEntity
  8
寸法
 62
     0
 48
50.0
370
    -2
100
AcDbBlockReference
  2
_DOTSMALL
 10
4566.461099046284
 20
6206.880085048113
 30
0.0
 41
100.0
 42
100.0
 43
100.0
  0
MTEXT
  5
17B7F
330
165A6
100
AcDbEntity
  8
寸法
 62
     7
 48
50.0
100
AcDbMText
 10
4257.975817672046
 20
6306.880085048113
 30
0.0
 40
120.0
 41
0.0
 71
     5
 72
     1
  1
\A1;55
  7
STYLE1
 73
     1
 44
1.0
1001
ACAD
1000
MTEXTBEGIN
1070
    73
1070
     1
1070
    44
1040
1.0
1070
    74
1070
     0
1000
MTEXTEND
  0
POINT
  5
17B80
330
165A6
100
AcDbEntity
  8
DEFPOINTS
 62
     0
 48
50.0
100
AcDbPoint
 10
4621.461099046281
 20
6741.310855814275
 30
0.0
  0
POINT
  5
17B81
330
165A6
100
AcDbEntity
  8
DEFPOINTS
 62
     0
 48
50.0
100
AcDbPoint
 10
4566.461099046284
 20
6741.310855814274
 30
0.0
  0
POINT
  5
17B82
330
165A6
100
AcDbEntity
  8
DEFPOINTS
 62
     0
 48
50.0
100
AcDbPoint
 10
4566.461099046284
 20
6206.880085048113
 30
0.0
  0
ENDBLK
  5
1667D
330
165A6
100
AcDbEntity
  8
0
 48
50.0
100
AcDbBlockEnd
  0
BLOCK
  5
1667E
330
165B4
100
AcDbEntity
  8
0
 48
50.0
100
AcDbBlockBegin
  2
*D6
 70
     1
 10
0.0
 20
0.0
 30
0.0
  3
*D6
  1

  0
LINE
  5
17B6D
330
165B4
100
AcDbEntity
  8
寸法
 62
     0
 48
50.0
370
    -2
100
AcDbLine
 10
4669.461099046284
 20
6747.310855814276
 30
0.0
 11
4669.461099046284
 21
6146.880085048113
 31
0.0
  0
LINE
  5
17B6E
330
165B4
100
AcDbEntity
  8
寸法
 62
     0
 48
50.0
370
    -2
100
AcDbLine
 10
4621.461099046281
 20
6721.310855814279
 30
0.0
 11
4621.461099046281
 21
6146.880085048113
 31
0.0
  0
LINE
  5
17B6F
330
165B4
100
AcDbEntity
  8
寸法
 62
     0
 48
50.0
370
    -2
100
AcDbLine
 10
4669.461099046284
 20
6206.880085048113
 30
0.0
 11
4769.461099046284
 21
6206.880085048113
 31
0.0
  0
LINE
  5
17B70
330
165B4
100
AcDbEntity
  8
寸法
 62
     0
 48
50.0
370
    -2
100
AcDbLine
 10
4621.461099046281
 20
6206.880085048113
 30
0.0
 11
4521.46109904628
 21
6206.880085048113
 31
0.0
  0
MTEXT
  5
17B71
330
165B4
100
AcDbEntity
  8
寸法
 62
     7
 48
50.0
100
AcDbMText
 10
4782.363070046342
 20
6306.880085048113
 30
0.0
 40
120.0
 41
0.0
 71
     5
 72
     1
  1
\A1;48
  7
STYLE1
 73
     1
 44
1.0
1001
ACAD
1000
MTEXTBEGIN
1070
    73
1070
     1
1070
    44
1040
1.0
1070
    74
1070
     0
1000
MTEXTEND
  0
LINE
  5
17B72
330
165B4
100
AcDbEntity
  8
寸法
 62
     0
 48
50.0
370
    -2
100
AcDbLine
 10
4669.461099046284
 20
6206.880085048113
 30
0.0
 11
4621.461099046281
 21
6206.880085048113
 31
0.0
  0
INSERT
  5
17B73
330
165B4
100
AcDbEntity
  8
寸法
 62
     0
 48
50.0
370
    -2
100
AcDbBlockReference
  2
_DOTSMALL
 10
4669.461099046284
 20
6206.880085048113
 30
0.0
 41
100.0
 42
100.0
 43
100.0
 50
180.0
  0
INSERT
  5
17B74
330
165B4
100
AcDbEntity
  8
寸法
 62
     0
 48
50.0
370
    -2
100
AcDbBlockReference
  2
_DOTSMALL
 10
4621.461099046281
 20
6206.880085048113
 30
0.0
 41
100.0
 42
100.0
 43
100.0
  0
POINT
  5
17B75
330
165B4
100
AcDbEntity
  8
DEFPOINTS
 62
     0
 48
50.0
100
AcDbPoint
 10
4669.461099046284
 20
6767.310855814277
 30
0.0
  0
POINT
  5
17B76
330
165B4
100
AcDbEntity
  8
DEFPOINTS
 62
     0
 48
50.0
100
AcDbPoint
 10
4621.461099046281
 20
6741.310855814275
 30
0.0
  0
POINT
  5
17B77
330
165B4
100
AcDbEntity
  8
DEFPOINTS
 62
     0
 48
50.0
100
AcDbPoint
 10
4621.461099046281
 20
6206.880085048113
 30
0.0
  0
ENDBLK
  5
1668B
330
165B4
100
AcDbEntity
  8
0
 48
50.0
100
AcDbBlockEnd
  0
BLOCK
  5
1668C
330
165C3
100
AcDbEntity
  8
0
 48
50.0
100
AcDbBlockBegin
  2
*D7
 70
     1
 10
0.0
 20
0.0
 30
0.0
  3
*D7
  1

  0
LINE
  5
17F89
330
165C3
100
AcDbEntity
  8
寸法
 62
     0
 48
50.0
370
    -2
100
AcDbLine
 10
7141.461099046267
 20
6721.310855814365
 30
0.0
 11
7141.461099046267
 21
6146.880085048113
 31
0.0
  0
LINE
  5
17F8A
330
165C3
100
AcDbEntity
  8
寸法
 62
     0
 48
50.0
370
    -2
100
AcDbLine
 10
7093.461099046263
 20
6747.310855814278
 30
0.0
 11
7093.461099046263
 21
6146.880085048113
 31
0.0
  0
LINE
  5
17F8B
330
165C3
100
AcDbEntity
  8
寸法
 62
     0
 48
50.0
370
    -2
100
AcDbLine
 10
7141.461099046267
 20
6206.880085048113
 30
0.0
 11
7241.461099046268
 21
6206.880085048113
 31
0.0
  0
LINE
  5
17F8C
330
165C3
100
AcDbEntity
  8
寸法
 62
     0
 48
50.0
370
    -2
100
AcDbLine
 10
7093.461099046263
 20
6206.880085048113
 30
0.0
 11
6993.461099046263
 21
6206.880085048113
 31
0.0
  0
MTEXT
  5
17F8D
330
165C3
100
AcDbEntity
  8
寸法
 62
     7
 48
50.0
100
AcDbMText
 10
6982.498201397518
 20
6306.880085048113
 30
0.0
 40
120.0
 41
0.0
 71
     5
 72
     1
  1
\A1;48
  7
STYLE1
 73
     1
 44
1.0
1001
ACAD
1000
MTEXTBEGIN
1070
    73
1070
     1
1070
    44
1040
1.0
1070
    74
1070
     0
1000
MTEXTEND
  0
LINE
  5
17F8E
330
165C3
100
AcDbEntity
  8
寸法
 62
     0
 48
50.0
370
    -2
100
AcDbLine
 10
7141.461099046267
 20
6206.880085048113
 30
0.0
 11
7093.461099046263
 21
6206.880085048113
 31
0.0
  0
INSERT
  5
17F8F
330
165C3
100
AcDbEntity
  8
寸法
 62
     0
 48
50.0
370
    -2
100
AcDbBlockReference
  2
_DOTSMALL
 10
7141.461099046267
 20
6206.880085048113
 30
0.0
 41
100.0
 42
100.0
 43
100.0
 50
180.0
  0
INSERT
  5
17F90
330
165C3
100
AcDbEntity
  8
寸法
 62
     0
 48
50.0
370
    -2
100
AcDbBlockReference
  2
_DOTSMALL
 10
7093.461099046263
 20
6206.880085048113
 30
0.0
 41
100.0
 42
100.0
 43
100.0
  0
POINT
  5
17F91
330
165C3
100
AcDbEntity
  8
DEFPOINTS
 62
     0
 48
50.0
100
AcDbPoint
 10
7141.461099046267
 20
6741.310855814365
 30
0.0
  0
POINT
  5
17F92
330
165C3
100
AcDbEntity
  8
DEFPOINTS
 62
     0
 48
50.0
100
AcDbPoint
 10
7093.461099046263
 20
6767.310855814277
 30
0.0
  0
POINT
  5
17F93
330
165C3
100
AcDbEntity
  8
DEFPOINTS
 62
     0
 48
50.0
100
AcDbPoint
 10
7093.461099046263
 20
6206.880085048113
 30
0.0
  0
ENDBLK
  5
16699
330
165C3
100
AcDbEntity
  8
0
 48
50.0
100
AcDbBlockEnd
  0
BLOCK
  5
1669A
330
165D2
100
AcDbEntity
  8
0
 48
50.0
100
AcDbBlockBegin
  2
*D8
 70
     1
 10
0.0
 20
0.0
 30
0.0
  3
*D8
  1

  0
LINE
  5
17F7E
330
165D2
100
AcDbEntity
  8
寸法
 62
     0
 48
50.0
370
    -2
100
AcDbLine
 10
7196.461099046263
 20
6721.310855814369
 30
0.0
 11
7196.461099046263
 21
6146.880085048113
 31
0.0
  0
LINE
  5
17F7F
330
165D2
100
AcDbEntity
  8
寸法
 62
     0
 48
50.0
370
    -2
100
AcDbLine
 10
7141.461099046267
 20
6721.310855814365
 30
0.0
 11
7141.461099046267
 21
6146.880085048113
 31
0.0
  0
LINE
  5
17F80
330
165D2
100
AcDbEntity
  8
寸法
 62
     0
 48
50.0
370
    -2
100
AcDbLine
 10
7141.461099046267
 20
6206.880085048114
 30
0.0
 11
7041.461099046268
 21
6206.880085048114
 31
0.0
  0
LINE
  5
17F81
330
165D2
100
AcDbEntity
  8
寸法
 62
     0
 48
50.0
370
    -2
100
AcDbLine
 10
7196.461099046263
 20
6206.880085048114
 30
0.0
 11
7613.431661794743
 21
6206.880085048114
 31
0.0
  0
LINE
  5
17F82
330
165D2
100
AcDbEntity
  8
寸法
 62
     0
 48
50.0
370
    -2
100
AcDbLine
 10
7141.461099046267
 20
6206.880085048114
 30
0.0
 11
7196.461099046263
 21
6206.880085048114
 31
0.0
  0
INSERT
  5
17F83
330
165D2
100
AcDbEntity
  8
寸法
 62
     0
 48
50.0
370
    -2
100
AcDbBlockReference
  2
_DOTSMALL
 10
7141.461099046267
 20
6206.880085048114
 30
0.0
 41
100.0
 42
100.0
 43
100.0
  0
INSERT
  5
17F84
330
165D2
100
AcDbEntity
  8
寸法
 62
     0
 48
50.0
370
    -2
100
AcDbBlockReference
  2
_DOTSMALL
 10
7196.461099046263
 20
6206.880085048114
 30
0.0
 41
100.0
 42
100.0
 43
100.0
 50
180.0
  0
MTEXT
  5
17F85
330
165D2
100
AcDbEntity
  8
寸法
 62
     7
 48
50.0
100
AcDbMText
 10
7504.946380420505
 20
6306.880085048113
 30
0.0
 40
120.0
 41
0.0
 71
     5
 72
     1
  1
\A1;55
  7
STYLE1
 73
     1
 44
1.0
1001
ACAD
1000
MTEXTBEGIN
1070
    73
1070
     1
1070
    44
1040
1.0
1070
    74
1070
     0
1000
MTEXTEND
  0
POINT
  5
17F86
330
165D2
100
AcDbEntity
  8
DEFPOINTS
 62
     0
 48
50.0
100
AcDbPoint
 10
7196.461099046263
 20
6741.310855814369
 30
0.0
  0
POINT
  5
17F87
330
165D2
100
AcDbEntity
  8
DEFPOINTS
 62
     0
 48
50.0
100
AcDbPoint
 10
7141.461099046267
 20
6741.310855814365
 30
0.0
  0
POINT
  5
17F88
330
165D2
100
AcDbEntity
  8
DEFPOINTS
 62
     0
 48
50.0
100
AcDbPoint
 10
7141.461099046267
 20
6206.880085048114
 30
0.0
  0
ENDBLK
  5
166A6
330
165D2
100
AcDbEntity
  8
0
 48
50.0
100
AcDbBlockEnd
  0
BLOCK
  5
166A7
330
165E0
100
AcDbEntity
  8
0
 48
50.0
100
AcDbBlockBegin
  2
*D9
 70
     1
 10
0.0
 20
0.0
 30
0.0
  3
*D9
  1

  0
LINE
  5
17F73
330
165E0
100
AcDbEntity
  8
寸法
 62
     0
 48
50.0
370
    -2
100
AcDbLine
 10
7216.461099046263
 20
6796.310855814365
 30
0.0
 11
7903.887444780679
 21
6796.310855814365
 31
0.0
  0
LINE
  5
17F74
330
165E0
100
AcDbEntity
  8
寸法
 62
     0
 48
50.0
370
    -2
100
AcDbLine
 10
7216.461099046263
 20
6741.310855814369
 30
0.0
 11
7903.887444780679
 21
6741.310855814369
 31
0.0
  0
LINE
  5
17F75
330
165E0
100
AcDbEntity
  8
寸法
 62
     0
 48
50.0
370
    -2
100
AcDbLine
 10
7843.887444780678
 20
6796.310855814365
 30
0.0
 11
7843.887444780678
 21
6896.310855814364
 31
0.0
  0
LINE
  5
17F76
330
165E0
100
AcDbEntity
  8
寸法
 62
     0
 48
50.0
370
    -2
100
AcDbLine
 10
7843.887444780678
 20
6741.310855814369
 30
0.0
 11
7843.887444780678
 21
6254.964107535267
 31
0.0
  0
LINE
  5
17F77
330
165E0
100
AcDbEntity
  8
寸法
 62
     0
 48
50.0
370
    -2
100
AcDbLine
 10
7843.887444780678
 20
6796.310855814365
 30
0.0
 11
7843.887444780678
 21
6741.310855814369
 31
0.0
  0
INSERT
  5
17F78
330
165E0
100
AcDbEntity
  8
寸法
 62
     0
 48
50.0
370
    -2
100
AcDbBlockReference
  2
_DOTSMALL
 10
7843.887444780678
 20
6796.310855814365
 30
0.0
 41
100.0
 42
100.0
 43
100.0
 50
270.0
  0
INSERT
  5
17F79
330
165E0
100
AcDbEntity
  8
寸法
 62
     0
 48
50.0
370
    -2
100
AcDbBlockReference
  2
_DOTSMALL
 10
7843.887444780678
 20
6741.310855814369
 30
0.0
 41
100.0
 42
100.0
 43
100.0
 50
90.0
  0
MTEXT
  5
17F7A
330
165E0
100
AcDbEntity
  8
寸法
 62
     7
 48
50.0
100
AcDbMText
 10
7743.887444780677
 20
6363.449388909507
 30
0.0
 40
120.0
 41
0.0
 71
     5
 72
     1
  1
\A1;55
  7
STYLE1
 11
0.0000000000000001
 21
1.0
 31
0.0
 73
     1
 44
1.0
1001
ACAD
1000
MTEXTBEGIN
1070
    73
1070
     1
1070
    44
1040
1.0
1070
    74
1070
     0
1000
MTEXTEND
  0
POINT
  5
17F7B
330
165E0
100
AcDbEntity
  8
DEFPOINTS
 62
     0
 48
50.0
100
AcDbPoint
 10
7196.461099046263
 20
6796.310855814365
 30
0.0
  0
POINT
  5
17F7C
330
165E0
100
AcDbEntity
  8
DEFPOINTS
 62
     0
 48
50.0
100
AcDbPoint
 10
7196.461099046263
 20
6741.310855814369
 30
0.0
  0
POINT
  5
17F7D
330
165E0
100
AcDbEntity
  8
DEFPOINTS
 62
     0
 48
50.0
100
AcDbPoint
 10
7843.887444780678
 20
6741.310855814369
 30
0.0
  0
ENDBLK
  5
166B3
330
165E0
100
AcDbEntity
  8
0
 48
50.0
100
AcDbBlockEnd
  0
BLOCK
  5
166B4
330
165EE
100
AcDbEntity
  8
0
 48
50.0
100
AcDbBlockBegin
  2
*D10
 70
     1
 10
0.0
 20
0.0
 30
0.0
  3
*D10
  1

  0
LINE
  5
17FB8
330
165EE
100
AcDbEntity
  8
寸法
 62
     0
 48
50.0
370
    -2
100
AcDbLine
 10
4621.461099046291
 20
10231.31085581428
 30
0.0
 11
4621.461099046291
 21
10487.11907543938
 31
0.0
  0
LINE
  5
17FB9
330
165EE
100
AcDbEntity
  8
寸法
 62
     0
 48
50.0
370
    -2
100
AcDbLine
 10
7141.461099046292
 20
10231.31085581437
 30
0.0
 11
7141.461099046292
 21
10487.11907543938
 31
0.0
  0
LINE
  5
17FBA
330
165EE
100
AcDbEntity
  8
寸法
 62
     0
 48
50.0
370
    -2
100
AcDbLine
 10
4621.461099046291
 20
10427.11907543938
 30
0.0
 11
7141.461099046292
 21
10427.11907543938
 31
0.0
  0
INSERT
  5
17FBB
330
165EE
100
AcDbEntity
  8
寸法
 62
     0
 48
50.0
370
    -2
100
AcDbBlockReference
  2
_DOTSMALL
 10
4621.461099046291
 20
10427.11907543938
 30
0.0
 41
100.0
 42
100.0
 43
100.0
 50
180.0
  0
INSERT
  5
17FBC
330
165EE
100
AcDbEntity
  8
寸法
 62
     0
 48
50.0
370
    -2
100
AcDbBlockReference
  2
_DOTSMALL
 10
7141.461099046292
 20
10427.11907543938
 30
0.0
 41
100.0
 42
100.0
 43
100.0
  0
MTEXT
  5
17FBD
330
165EE
100
AcDbEntity
  8
寸法
 62
     7
 48
50.0
100
AcDbMText
 10
5881.461099046291
 20
10527.130886463
 30
0.0
 40
120.0
 41
0.0
 71
     5
 72
     1
  1
\A1;6X420=2520
  7
STYLE1
 73
     1
 44
1.0
1001
ACAD
1000
MTEXTBEGIN
1070
    73
1070
     1
1070
    44
1040
1.0
1070
    74
1070
     0
1000
MTEXTEND
  0
POINT
  5
17FBE
330
165EE
100
AcDbEntity
  8
DEFPOINTS
 62
     0
 48
50.0
100
AcDbPoint
 10
4621.461099046291
 20
10211.31085581428
 30
0.0
  0
POINT
  5
17FBF
330
165EE
100
AcDbEntity
  8
DEFPOINTS
 62
     0
 48
50.0
100
AcDbPoint
 10
7141.461099046292
 20
10211.31085581437
 30
0.0
  0
POINT
  5
17FC0
330
165EE
100
AcDbEntity
  8
DEFPOINTS
 62
     0
 48
50.0
100
AcDbPoint
 10
7141.461099046292
 20
10427.11907543938
 30
0.0
  0
ENDBLK
  5
166BE
330
165EE
100
AcDbEntity
  8
0
 48
50.0
100
AcDbBlockEnd
  0
BLOCK
  5
166BF
330
165FA
100
AcDbEntity
  8
0
 48
50.0
100
AcDbBlockBegin
  2
*D11
 70
     1
 10
0.0
 20
0.0
 30
0.0
  3
*D11
  1

  0
LINE
  5
17B38
330
165FA
100
AcDbEntity
  8
寸法
 62
     0
 48
50.0
370
    -2
100
AcDbLine
 10
4566.461099046256
 20
10231.31085581428
 30
0.0
 11
4566.461099046256
 21
10487.11907543926
 31
0.0
  0
LINE
  5
17B39
330
165FA
100
AcDbEntity
  8
寸法
 62
     0
 48
50.0
370
    -2
100
AcDbLine
 10
4621.461099046291
 20
10231.31085581428
 30
0.0
 11
4621.461099046291
 21
10487.11907543926
 31
0.0
  0
LINE
  5
17B3A
330
165FA
100
AcDbEntity
  8
寸法
 62
     0
 48
50.0
370
    -2
100
AcDbLine
 10
4621.461099046291
 20
10427.11907543926
 30
0.0
 11
4721.461099046289
 21
10427.11907543926
 31
0.0
  0
LINE
  5
17B3B
330
165FA
100
AcDbEntity
  8
寸法
 62
     0
 48
50.0
370
    -2
100
AcDbLine
 10
4566.461099046256
 20
10427.11907543926
 30
0.0
 11
4149.490536297778
 21
10427.11907543926
 31
0.0
  0
LINE
  5
17B3C
330
165FA
100
AcDbEntity
  8
寸法
 62
     0
 48
50.0
370
    -2
100
AcDbLine
 10
4621.461099046291
 20
10427.11907543926
 30
0.0
 11
4566.461099046256
 21
10427.11907543926
 31
0.0
  0
INSERT
  5
17B3D
330
165FA
100
AcDbEntity
  8
寸法
 62
     0
 48
50.0
370
    -2
100
AcDbBlockReference
  2
_DOTSMALL
 10
4621.461099046291
 20
10427.11907543926
 30
0.0
 41
100.0
 42
100.0
 43
100.0
 50
180.0
  0
INSERT
  5
17B3E
330
165FA
100
AcDbEntity
  8
寸法
 62
     0
 48
50.0
370
    -2
100
AcDbBlockReference
  2
_DOTSMALL
 10
4566.461099046256
 20
10427.11907543926
 30
0.0
 41
100.0
 42
100.0
 43
100.0
  0
MTEXT
  5
17B3F
330
165FA
100
AcDbEntity
  8
寸法
 62
     7
 48
50.0
100
AcDbMText
 10
4257.975817672017
 20
10527.11907543926
 30
0.0
 40
120.0
 41
0.0
 71
     5
 72
     1
  1
\A1;55
  7
STYLE1
 73
     1
 44
1.0
1001
ACAD
1000
MTEXTBEGIN
1070
    73
1070
     1
1070
    44
1040
1.0
1070
    74
1070
     0
1000
MTEXTEND
  0
POINT
  5
17B40
330
165FA
100
AcDbEntity
  8
DEFPOINTS
 62
     0
 48
50.0
100
AcDbPoint
 10
4566.461099046256
 20
10211.31085581428
 30
0.0
  0
POINT
  5
17B41
330
165FA
100
AcDbEntity
  8
DEFPOINTS
 62
     0
 48
50.0
100
AcDbPoint
 10
4621.461099046291
 20
10211.31085581428
 30
0.0
  0
POINT
  5
17B42
330
165FA
100
AcDbEntity
  8
DEFPOINTS
 62
     0
 48
50.0
100
AcDbPoint
 10
4621.461099046291
 20
10427.11907543926
 30
0.0
  0
ENDBLK
  5
166CB
330
165FA
100
AcDbEntity
  8
0
 48
50.0
100
AcDbBlockEnd
  0
BLOCK
  5
166CC
330
16608
100
AcDbEntity
  8
0
 48
50.0
100
AcDbBlockBegin
  2
*D12
 70
     1
 10
0.0
 20
0.0
 30
0.0
  3
*D12
  1

  0
LINE
  5
17F5F
330
16608
100
AcDbEntity
  8
寸法
 62
     0
 48
50.0
370
    -2
100
AcDbLine
 10
7216.461099046291
 20
10211.31085581437
 30
0.0
 11
7903.8874447807
 21
10211.31085581437
 31
0.0
  0
LINE
  5
17F60
330
16608
100
AcDbEntity
  8
寸法
 62
     0
 48
50.0
370
    -2
100
AcDbLine
 10
7216.461099046291
 20
10156.31085581438
 30
0.0
 11
7903.8874447807
 21
10156.31085581438
 31
0.0
  0
LINE
  5
17F61
330
16608
100
AcDbEntity
  8
寸法
 62
     0
 48
50.0
370
    -2
100
AcDbLine
 10
7843.887444780701
 20
10156.31085581438
 30
0.0
 11
7843.887444780701
 21
10056.31085581438
 31
0.0
  0
LINE
  5
17F62
330
16608
100
AcDbEntity
  8
寸法
 62
     0
 48
50.0
370
    -2
100
AcDbLine
 10
7843.887444780701
 20
10211.31085581437
 30
0.0
 11
7843.887444780701
 21
10628.28141856285
 31
0.0
  0
LINE
  5
17F63
330
16608
100
AcDbEntity
  8
寸法
 62
     0
 48
50.0
370
    -2
100
AcDbLine
 10
7843.887444780701
 20
10156.31085581438
 30
0.0
 11
7843.887444780701
 21
10211.31085581437
 31
0.0
  0
INSERT
  5
17F64
330
16608
100
AcDbEntity
  8
寸法
 62
     0
 48
50.0
370
    -2
100
AcDbBlockReference
  2
_DOTSMALL
 10
7843.887444780701
 20
10156.31085581438
 30
0.0
 41
100.0
 42
100.0
 43
100.0
 50
90.0
  0
INSERT
  5
17F65
330
16608
100
AcDbEntity
  8
寸法
 62
     0
 48
50.0
370
    -2
100
AcDbBlockReference
  2
_DOTSMALL
 10
7843.887444780701
 20
10211.31085581437
 30
0.0
 41
100.0
 42
100.0
 43
100.0
 50
270.0
  0
MTEXT
  5
17F66
330
16608
100
AcDbEntity
  8
寸法
 62
     7
 48
50.0
100
AcDbMText
 10
7743.8874447807
 20
10519.79613718861
 30
0.0
 40
120.0
 41
0.0
 71
     5
 72
     1
  1
\A1;55
  7
STYLE1
 11
0.0000000000000001
 21
1.0
 31
0.0
 73
     1
 44
1.0
1001
ACAD
1000
MTEXTBEGIN
1070
    73
1070
     1
1070
    44
1040
1.0
1070
    74
1070
     0
1000
MTEXTEND
  0
POINT
  5
17F67
330
16608
100
AcDbEntity
  8
DEFPOINTS
 62
     0
 48
50.0
100
AcDbPoint
 10
7196.461099046292
 20
10211.31085581437
 30
0.0
  0
POINT
  5
17F68
330
16608
100
AcDbEntity
  8
DEFPOINTS
 62
     0
 48
50.0
100
AcDbPoint
 10
7196.461099046292
 20
10156.31085581438
 30
0.0
  0
POINT
  5
17F69
330
16608
100
AcDbEntity
  8
DEFPOINTS
 62
     0
 48
50.0
100
AcDbPoint
 10
7843.887444780701
 20
10156.31085581438
 30
0.0
  0
ENDBLK
  5
166D8
330
16608
100
AcDbEntity
  8
0
 48
50.0
100
AcDbBlockEnd
  0
BLOCK
  5
166D9
330
16616
100
AcDbEntity
  8
0
 48
50.0
100
AcDbBlockBegin
  2
*D13
 70
     1
 10
0.0
 20
0.0
 30
0.0
  3
*D13
  1

  0
LINE
  5
17F54
330
16616
100
AcDbEntity
  8
寸法
 62
     0
 48
50.0
370
    -2
100
AcDbLine
 10
7141.461099046292
 20
10231.31085581437
 30
0.0
 11
7141.461099046292
 21
10487.11907543936
 31
0.0
  0
LINE
  5
17F55
330
16616
100
AcDbEntity
  8
寸法
 62
     0
 48
50.0
370
    -2
100
AcDbLine
 10
7196.461099046292
 20
10231.31085581437
 30
0.0
 11
7196.461099046292
 21
10487.11907543936
 31
0.0
  0
LINE
  5
17F56
330
16616
100
AcDbEntity
  8
寸法
 62
     0
 48
50.0
370
    -2
100
AcDbLine
 10
7141.461099046292
 20
10427.11907543936
 30
0.0
 11
7041.461099046292
 21
10427.11907543936
 31
0.0
  0
LINE
  5
17F57
330
16616
100
AcDbEntity
  8
寸法
 62
     0
 48
50.0
370
    -2
100
AcDbLine
 10
7196.461099046292
 20
10427.11907543936
 30
0.0
 11
7613.431661794769
 21
10427.11907543936
 31
0.0
  0
LINE
  5
17F58
330
16616
100
AcDbEntity
  8
寸法
 62
     0
 48
50.0
370
    -2
100
AcDbLine
 10
7141.461099046292
 20
10427.11907543936
 30
0.0
 11
7196.461099046292
 21
10427.11907543936
 31
0.0
  0
INSERT
  5
17F59
330
16616
100
AcDbEntity
  8
寸法
 62
     0
 48
50.0
370
    -2
100
AcDbBlockReference
  2
_DOTSMALL
 10
7141.461099046292
 20
10427.11907543936
 30
0.0
 41
100.0
 42
100.0
 43
100.0
  0
INSERT
  5
17F5A
330
16616
100
AcDbEntity
  8
寸法
 62
     0
 48
50.0
370
    -2
100
AcDbBlockReference
  2
_DOTSMALL
 10
7196.461099046292
 20
10427.11907543936
 30
0.0
 41
100.0
 42
100.0
 43
100.0
 50
180.0
  0
MTEXT
  5
17F5B
330
16616
100
AcDbEntity
  8
寸法
 62
     7
 48
50.0
100
AcDbMText
 10
7504.94638042053
 20
10527.11907543936
 30
0.0
 40
120.0
 41
0.0
 71
     5
 72
     1
  1
\A1;55
  7
STYLE1
 73
     1
 44
1.0
1001
ACAD
1000
MTEXTBEGIN
1070
    73
1070
     1
1070
    44
1040
1.0
1070
    74
1070
     0
1000
MTEXTEND
  0
POINT
  5
17F5C
330
16616
100
AcDbEntity
  8
DEFPOINTS
 62
     0
 48
50.0
100
AcDbPoint
 10
7141.461099046292
 20
10211.31085581437
 30
0.0
  0
POINT
  5
17F5D
330
16616
100
AcDbEntity
  8
DEFPOINTS
 62
     0
 48
50.0
100
AcDbPoint
 10
7196.461099046292
 20
10211.31085581437
 30
0.0
  0
POINT
  5
17F5E
330
16616
100
AcDbEntity
  8
DEFPOINTS
 62
     0
 48
50.0
100
AcDbPoint
 10
7196.461099046292
 20
10427.11907543936
 30
0.0
  0
ENDBLK
  5
166E5
330
16616
100
AcDbEntity
  8
0
 48
50.0
100
AcDbBlockEnd
  0
BLOCK
  5
1710A
330
17100
100
AcDbEntity
  8
0
 48
50.0
100
AcDbBlockBegin
  2
*D14
 70
     1
 10
0.0
 20
0.0
 30
0.0
  3
*D14
  1

  0
LINE
  5
18074
330
17100
100
AcDbEntity
  8
寸法
 62
     0
 48
50.0
370
    -2
100
AcDbLine
 10
7196.461099046288
 20
4218.141384512927
 30
0.0
 11
7196.461099046288
 21
4663.867656244831
 31
0.0
  0
LINE
  5
18075
330
17100
100
AcDbEntity
  8
寸法
 62
     0
 48
50.0
370
    -2
100
AcDbLine
 10
4566.461099046288
 20
4218.141384512928
 30
0.0
 11
4566.461099046288
 21
4663.867656244831
 31
0.0
  0
LINE
  5
18076
330
17100
100
AcDbEntity
  8
寸法
 62
     0
 48
50.0
370
    -2
100
AcDbLine
 10
7196.461099046288
 20
4603.867656244831
 30
0.0
 11
4566.461099046288
 21
4603.867656244831
 31
0.0
  0
INSERT
  5
18077
330
17100
100
AcDbEntity
  8
寸法
 62
     0
 48
50.0
370
    -2
100
AcDbBlockReference
  2
_DOTSMALL
 10
7196.461099046288
 20
4603.867656244831
 30
0.0
 41
100.0
 42
100.0
 43
100.0
  0
INSERT
  5
18078
330
17100
100
AcDbEntity
  8
寸法
 62
     0
 48
50.0
370
    -2
100
AcDbBlockReference
  2
_DOTSMALL
 10
4566.461099046288
 20
4603.867656244831
 30
0.0
 41
100.0
 42
100.0
 43
100.0
 50
180.0
  0
MTEXT
  5
18079
330
17100
100
AcDbEntity
  8
寸法
 62
     7
 48
50.0
100
AcDbMText
 10
5881.461099046288
 20
4703.879467268452
 30
0.0
 40
120.0
 41
0.0
 71
     5
 72
     1
  1
\A1;柱外寸法2630
  7
STYLE1
 73
     1
 44
1.0
1001
ACAD
1000
MTEXTBEGIN
1070
    73
1070
     1
1070
    44
1040
1.0
1070
    74
1070
     0
1000
MTEXTEND
  0
POINT
  5
1807A
330
17100
100
AcDbEntity
  8
DEFPOINTS
 62
     0
 48
50.0
100
AcDbPoint
 10
7196.461099046288
 20
4198.141384512927
 30
0.0
  0
POINT
  5
1807B
330
17100
100
AcDbEntity
  8
DEFPOINTS
 62
     0
 48
50.0
100
AcDbPoint
 10
4566.461099046288
 20
4198.141384512928
 30
0.0
  0
POINT
  5
1807C
330
17100
100
AcDbEntity
  8
DEFPOINTS
 62
     0
 48
50.0
100
AcDbPoint
 10
4566.461099046288
 20
4603.867656244831
 30
0.0
  0
ENDBLK
  5
1710B
330
17100
100
AcDbEntity
  8
0
 48
50.0
100
AcDbBlockEnd
  0
BLOCK
  5
17116
330
1710C
100
AcDbEntity
  8
0
 48
50.0
100
AcDbBlockBegin
  2
*D15
 70
     1
 10
0.0
 20
0.0
 30
0.0
  3
*D15
  1

  0
LINE
  5
1806B
330
1710C
100
AcDbEntity
  8
寸法
 62
     0
 48
50.0
370
    -2
100
AcDbLine
 10
4516.461099046288
 20
4218.141384512927
 30
0.0
 11
4516.461099046288
 21
4863.776577458923
 31
0.0
  0
LINE
  5
1806C
330
1710C
100
AcDbEntity
  8
寸法
 62
     0
 48
50.0
370
    -2
100
AcDbLine
 10
7246.461099046284
 20
4218.141384512924
 30
0.0
 11
7246.461099046284
 21
4863.776577458923
 31
0.0
  0
LINE
  5
1806D
330
1710C
100
AcDbEntity
  8
寸法
 62
     0
 48
50.0
370
    -2
100
AcDbLine
 10
4516.461099046288
 20
4803.776577458922
 30
0.0
 11
7246.461099046284
 21
4803.776577458922
 31
0.0
  0
INSERT
  5
1806E
330
1710C
100
AcDbEntity
  8
寸法
 62
     0
 48
50.0
370
    -2
100
AcDbBlockReference
  2
_DOTSMALL
 10
4516.461099046288
 20
4803.776577458922
 30
0.0
 41
100.0
 42
100.0
 43
100.0
 50
180.0
  0
INSERT
  5
1806F
330
1710C
100
AcDbEntity
  8
寸法
 62
     0
 48
50.0
370
    -2
100
AcDbBlockReference
  2
_DOTSMALL
 10
7246.461099046284
 20
4803.776577458922
 30
0.0
 41
100.0
 42
100.0
 43
100.0
  0
MTEXT
  5
18070
330
1710C
100
AcDbEntity
  8
寸法
 62
     7
 48
50.0
100
AcDbMText
 10
5881.461099046286
 20
4903.788388482544
 30
0.0
 40
120.0
 41
0.0
 71
     5
 72
     1
  1
\A1;2730
  7
STYLE1
 73
     1
 44
1.0
1001
ACAD
1000
MTEXTBEGIN
1070
    73
1070
     1
1070
    44
1040
1.0
1070
    74
1070
     0
1000
MTEXTEND
  0
POINT
  5
18071
330
1710C
100
AcDbEntity
  8
DEFPOINTS
 62
     0
 48
50.0
100
AcDbPoint
 10
4516.461099046288
 20
4198.141384512927
 30
0.0
  0
POINT
  5
18072
330
1710C
100
AcDbEntity
  8
DEFPOINTS
 62
     0
 48
50.0
100
AcDbPoint
 10
7246.461099046284
 20
4198.141384512925
 30
0.0
  0
POINT
  5
18073
330
1710C
100
AcDbEntity
  8
DEFPOINTS
 62
     0
 48
50.0
100
AcDbPoint
 10
7246.461099046284
 20
4803.776577458922
 30
0.0
  0
ENDBLK
  5
17117
330
1710C
100
AcDbEntity
  8
0
 48
50.0
100
AcDbBlockEnd
  0
BLOCK
  5
17124
330
17118
100
AcDbEntity
  8
0
 48
50.0
100
AcDbBlockBegin
  2
*D16
 70
     1
 10
0.0
 20
0.0
 30
0.0
  3
*D16
  1

  0
LINE
  5
17ADE
330
17118
100
AcDbEntity
  8
寸法
 62
     0
 48
50.0
370
    -2
100
AcDbLine
 10
4566.461099046288
 20
4218.141384512928
 30
0.0
 11
4566.461099046288
 21
4663.867656244831
 31
0.0
  0
LINE
  5
17ADF
330
17118
100
AcDbEntity
  8
寸法
 62
     0
 48
50.0
370
    -2
100
AcDbLine
 10
4516.461099046288
 20
4218.141384512927
 30
0.0
 11
4516.461099046288
 21
4663.867656244831
 31
0.0
  0
LINE
  5
17AE0
330
17118
100
AcDbEntity
  8
寸法
 62
     0
 48
50.0
370
    -2
100
AcDbLine
 10
4566.461099046288
 20
4603.867656244831
 30
0.0
 11
4666.461099046288
 21
4603.867656244831
 31
0.0
  0
LINE
  5
17AE1
330
17118
100
AcDbEntity
  8
寸法
 62
     0
 48
50.0
370
    -2
100
AcDbLine
 10
4516.461099046288
 20
4603.867656244831
 30
0.0
 11
4096.928573577552
 21
4603.867656244831
 31
0.0
  0
LINE
  5
17AE2
330
17118
100
AcDbEntity
  8
寸法
 62
     0
 48
50.0
370
    -2
100
AcDbLine
 10
4566.461099046288
 20
4603.867656244831
 30
0.0
 11
4516.461099046288
 21
4603.867656244831
 31
0.0
  0
INSERT
  5
17AE3
330
17118
100
AcDbEntity
  8
寸法
 62
     0
 48
50.0
370
    -2
100
AcDbBlockReference
  2
_DOTSMALL
 10
4566.461099046288
 20
4603.867656244831
 30
0.0
 41
100.0
 42
100.0
 43
100.0
 50
180.0
  0
INSERT
  5
17AE4
330
17118
100
AcDbEntity
  8
寸法
 62
     0
 48
50.0
370
    -2
100
AcDbBlockReference
  2
_DOTSMALL
 10
4516.461099046288
 20
4603.867656244831
 30
0.0
 41
100.0
 42
100.0
 43
100.0
  0
MTEXT
  5
17AE5
330
17118
100
AcDbEntity
  8
寸法
 62
     7
 48
50.0
100
AcDbMText
 10
4202.975817672039
 20
4703.86765624483
 30
0.0
 40
120.0
 41
0.0
 71
     5
 72
     1
  1
\A1;50
  7
STYLE1
 73
     1
 44
1.0
1001
ACAD
1000
MTEXTBEGIN
1070
    73
1070
     1
1070
    44
1040
1.0
1070
    74
1070
     0
1000
MTEXTEND
  0
POINT
  5
17AE6
330
17118
100
AcDbEntity
  8
DEFPOINTS
 62
     0
 48
50.0
100
AcDbPoint
 10
4566.461099046288
 20
4198.141384512928
 30
0.0
  0
POINT
  5
17AE7
330
17118
100
AcDbEntity
  8
DEFPOINTS
 62
     0
 48
50.0
100
AcDbPoint
 10
4516.461099046288
 20
4198.141384512927
 30
0.0
  0
POINT
  5
17AE8
330
17118
100
AcDbEntity
  8
DEFPOINTS
 62
     0
 48
50.0
100
AcDbPoint
 10
4516.461099046288
 20
4603.867656244831
 30
0.0
  0
ENDBLK
  5
17125
330
17118
100
AcDbEntity
  8
0
 48
50.0
100
AcDbBlockEnd
  0
BLOCK
  5
17132
330
17126
100
AcDbEntity
  8
0
 48
50.0
100
AcDbBlockBegin
  2
*D17
 70
     1
 10
0.0
 20
0.0
 30
0.0
  3
*D17
  1

  0
LINE
  5
17FE0
330
17126
100
AcDbEntity
  8
寸法
 62
     0
 48
50.0
370
    -2
100
AcDbLine
 10
7246.461099046284
 20
4218.141384512924
 30
0.0
 11
7246.461099046284
 21
4663.867656244831
 31
0.0
  0
LINE
  5
17FE1
330
17126
100
AcDbEntity
  8
寸法
 62
     0
 48
50.0
370
    -2
100
AcDbLine
 10
7196.461099046288
 20
4218.141384512927
 30
0.0
 11
7196.461099046288
 21
4663.867656244831
 31
0.0
  0
LINE
  5
17FE2
330
17126
100
AcDbEntity
  8
寸法
 62
     0
 48
50.0
370
    -2
100
AcDbLine
 10
7196.461099046288
 20
4603.867656244831
 30
0.0
 11
7096.461099046289
 21
4603.867656244831
 31
0.0
  0
LINE
  5
17FE3
330
17126
100
AcDbEntity
  8
寸法
 62
     0
 48
50.0
370
    -2
100
AcDbLine
 10
7246.461099046284
 20
4603.867656244831
 30
0.0
 11
7665.993624515012
 21
4603.867656244831
 31
0.0
  0
LINE
  5
17FE4
330
17126
100
AcDbEntity
  8
寸法
 62
     0
 48
50.0
370
    -2
100
AcDbLine
 10
7196.461099046288
 20
4603.867656244831
 30
0.0
 11
7246.461099046284
 21
4603.867656244831
 31
0.0
  0
INSERT
  5
17FE5
330
17126
100
AcDbEntity
  8
寸法
 62
     0
 48
50.0
370
    -2
100
AcDbBlockReference
  2
_DOTSMALL
 10
7196.461099046288
 20
4603.867656244831
 30
0.0
 41
100.0
 42
100.0
 43
100.0
  0
INSERT
  5
17FE6
330
17126
100
AcDbEntity
  8
寸法
 62
     0
 48
50.0
370
    -2
100
AcDbBlockReference
  2
_DOTSMALL
 10
7246.461099046284
 20
4603.867656244831
 30
0.0
 41
100.0
 42
100.0
 43
100.0
 50
180.0
  0
MTEXT
  5
17FE7
330
17126
100
AcDbEntity
  8
寸法
 62
     7
 48
50.0
100
AcDbMText
 10
7559.946380420523
 20
4703.86765624483
 30
0.0
 40
120.0
 41
0.0
 71
     5
 72
     1
  1
\A1;50
  7
STYLE1
 73
     1
 44
1.0
1001
ACAD
1000
MTEXTBEGIN
1070
    73
1070
     1
1070
    44
1040
1.0
1070
    74
1070
     0
1000
MTEXTEND
  0
POINT
  5
17FE8
330
17126
100
AcDbEntity
  8
DEFPOINTS
 62
     0
 48
50.0
100
AcDbPoint
 10
7246.461099046284
 20
4198.141384512925
 30
0.0
  0
POINT
  5
17FE9
330
17126
100
AcDbEntity
  8
DEFPOINTS
 62
     0
 48
50.0
100
AcDbPoint
 10
7196.461099046288
 20
4198.141384512927
 30
0.0
  0
POINT
  5
17FEA
330
17126
100
AcDbEntity
  8
DEFPOINTS
 62
     0
 48
50.0
100
AcDbPoint
 10
7196.461099046288
 20
4603.867656244831
 30
0.0
  0
ENDBLK
  5
17133
330
17126
100
AcDbEntity
  8
0
 48
50.0
100
AcDbBlockEnd
  0
BLOCK
  5
17842
330
17837
100
AcDbEntity
  8
0
 48
50.0
100
AcDbBlockBegin
  2
*D18
 70
     1
 10
0.0
 20
0.0
 30
0.0
  3
*D18
  1

  0
LINE
  5
17F37
330
17837
100
AcDbEntity
  8
寸法
 62
     0
 48
50.0
370
    -2
100
AcDbLine
 10
9721.413812558136
 20
4197.439091582583
 30
0.0
 11
9105.479373452851
 21
4215.15324185692
 31
0.0
  0
LINE
  5
17F38
330
17837
100
AcDbEntity
  8
寸法
 62
     0
 48
50.0
370
    -2
100
AcDbLine
 10
9717.36035700151
 20
4056.497367816869
 30
0.0
 11
9101.425917896223
 21
4074.211518091208
 31
0.0
  0
LINE
  5
17F39
330
17837
100
AcDbEntity
  8
寸法
 62
     0
 48
50.0
370
    -2
100
AcDbLine
 10
9161.401119498654
 20
4072.48664338626
 30
0.0
 11
9165.454575055283
 21
4213.428367151972
 31
0.0
  0
LINE
  5
17F3A
330
17837
100
AcDbEntity
  8
寸法
 62
     0
 48
50.0
370
    -2
100
AcDbLine
 10
9165.454575055283
 20
4213.428367151972
 30
0.0
 11
9175.803823284972
 21
4573.279576766558
 31
0.0
  0
INSERT
  5
17F3B
330
17837
100
AcDbEntity
  8
寸法
 62
     0
 48
50.0
370
    -2
100
AcDbBlockReference
  2
_DOTSMALL
 10
9161.401119498654
 20
4072.48664338626
 30
0.0
 41
100.0
 42
100.0
 43
100.0
 50
268.352639025637
  0
INSERT
  5
17F3C
330
17837
100
AcDbEntity
  8
寸法
 62
     0
 48
50.0
370
    -2
100
AcDbBlockReference
  2
_DOTSMALL
 10
9165.454575055283
 20
4213.428367151972
 30
0.0
 41
100.0
 42
100.0
 43
100.0
 50
88.35263902563704
  0
MTEXT
  5
17F3D
330
17837
100
AcDbEntity
  8
寸法
 62
     7
 48
50.0
100
AcDbMText
 10
9072.107925420199
 20
4446.208097802871
 30
0.0
 40
120.0
 41
0.0
 71
     5
 72
     1
  1
\A1;141
  7
STYLE1
 11
0.028747911749137
 21
0.9995866933738483
 31
0.0
 73
     1
 44
1.0
1001
ACAD
1000
MTEXTBEGIN
1070
    73
1070
     1
1070
    44
1040
1.0
1070
    74
1070
     0
1000
MTEXTEND
  0
POINT
  5
17F3E
330
17837
100
AcDbEntity
  8
DEFPOINTS
 62
     0
 48
50.0
100
AcDbPoint
 10
9741.405546425612
 20
4196.8641333476
 30
0.0
  0
POINT
  5
17F3F
330
17837
100
AcDbEntity
  8
DEFPOINTS
 62
     0
 48
50.0
100
AcDbPoint
 10
9737.352090868988
 20
4055.922409581887
 30
0.0
  0
POINT
  5
17F40
330
17837
100
AcDbEntity
  8
DEFPOINTS
 62
     0
 48
50.0
100
AcDbPoint
 10
9161.401119498654
 20
4072.48664338626
 30
0.0
  0
ENDBLK
  5
17843
330
17837
100
AcDbEntity
  8
0
 48
50.0
100
AcDbBlockEnd
  0
BLOCK
  5
1784F
330
17844
100
AcDbEntity
  8
0
 48
50.0
100
AcDbBlockBegin
  2
*D19
 70
     1
 10
0.0
 20
0.0
 30
0.0
  3
*D19
  1

  0
LINE
  5
17F4A
330
17844
100
AcDbEntity
  8
寸法
 62
     0
 48
50.0
370
    -2
100
AcDbLine
 10
13252.00952626703
 20
4164.952064124576
 30
0.0
 11
13252.00952626703
 21
4656.798838092227
 31
0.0
  0
LINE
  5
17F4B
330
17844
100
AcDbEntity
  8
寸法
 62
     0
 48
50.0
370
    -2
100
AcDbLine
 10
13332.00952626703
 20
4163.141384512925
 30
0.0
 11
13332.00952626703
 21
4656.798838092227
 31
0.0
  0
LINE
  5
17F4C
330
17844
100
AcDbEntity
  8
寸法
 62
     0
 48
50.0
370
    -2
100
AcDbLine
 10
13252.00952626703
 20
4596.798838092227
 30
0.0
 11
13332.00952626703
 21
4596.798838092227
 31
0.0
  0
LINE
  5
17F4D
330
17844
100
AcDbEntity
  8
寸法
 62
     0
 48
50.0
370
    -2
100
AcDbLine
 10
13332.00952626703
 20
4596.798838092227
 30
0.0
 11
13644.10401445601
 21
4596.798838092227
 31
0.0
  0
INSERT
  5
17F4E
330
17844
100
AcDbEntity
  8
寸法
 62
     0
 48
50.0
370
    -2
100
AcDbBlockReference
  2
_DOTSMALL
 10
13252.00952626703
 20
4596.798838092227
 30
0.0
 41
100.0
 42
100.0
 43
100.0
 50
180.0
  0
INSERT
  5
17F4F
330
17844
100
AcDbEntity
  8
寸法
 62
     0
 48
50.0
370
    -2
100
AcDbBlockReference
  2
_DOTSMALL
 10
13332.00952626703
 20
4596.798838092227
 30
0.0
 41
100.0
 42
100.0
 43
100.0
  0
MTEXT
  5
17F50
330
17844
100
AcDbEntity
  8
寸法
 62
     7
 48
50.0
100
AcDbMText
 10
13538.05677036152
 20
4696.798838092226
 30
0.0
 40
120.0
 41
0.0
 71
     5
 72
     1
  1
\A1;80
  7
STYLE1
 73
     1
 44
1.0
1001
ACAD
1000
MTEXTBEGIN
1070
    73
1070
     1
1070
    44
1040
1.0
1070
    74
1070
     0
1000
MTEXTEND
  0
POINT
  5
17F51
330
17844
100
AcDbEntity
  8
DEFPOINTS
 62
     0
 48
50.0
100
AcDbPoint
 10
13252.00952626703
 20
4144.952064124575
 30
0.0
  0
POINT
  5
17F52
330
17844
100
AcDbEntity
  8
DEFPOINTS
 62
     0
 48
50.0
100
AcDbPoint
 10
13332.00952626703
 20
4143.141384512925
 30
0.0
  0
POINT
  5
17F53
330
17844
100
AcDbEntity
  8
DEFPOINTS
 62
     0
 48
50.0
100
AcDbPoint
 10
13332.00952626703
 20
4596.798838092227
 30
0.0
  0
ENDBLK
  5
17850
330
17844
100
AcDbEntity
  8
0
 48
50.0
100
AcDbBlockEnd
  0
BLOCK
  5
1785B
330
17851
100
AcDbEntity
  8
0
 48
50.0
100
AcDbBlockBegin
  2
*D20
 70
     1
 10
0.0
 20
0.0
 30
0.0
  3
*D20
  1

  0
LINE
  5
17F2E
330
17851
100
AcDbEntity
  8
寸法
 62
     0
 48
50.0
370
    -2
100
AcDbLine
 10
13332.00952626703
 20
4163.141384512921
 30
0.0
 11
13332.00952626703
 21
4886.912430878503
 31
0.0
  0
LINE
  5
17F2F
330
17851
100
AcDbEntity
  8
寸法
 62
     0
 48
50.0
370
    -2
100
AcDbLine
 10
9722.009526267033
 20
4218.141384512924
 30
0.0
 11
9722.009526267033
 21
4886.912430878503
 31
0.0
  0
LINE
  5
17F30
330
17851
100
AcDbEntity
  8
寸法
 62
     0
 48
50.0
370
    -2
100
AcDbLine
 10
13332.00952626703
 20
4826.912430878503
 30
0.0
 11
9722.009526267033
 21
4826.912430878503
 31
0.0
  0
INSERT
  5
17F31
330
17851
100
AcDbEntity
  8
寸法
 62
     0
 48
50.0
370
    -2
100
AcDbBlockReference
  2
_DOTSMALL
 10
13332.00952626703
 20
4826.912430878503
 30
0.0
 41
100.0
 42
100.0
 43
100.0
  0
INSERT
  5
17F32
330
17851
100
AcDbEntity
  8
寸法
 62
     0
 48
50.0
370
    -2
100
AcDbBlockReference
  2
_DOTSMALL
 10
9722.009526267033
 20
4826.912430878503
 30
0.0
 41
100.0
 42
100.0
 43
100.0
 50
180.0
  0
MTEXT
  5
17F33
330
17851
100
AcDbEntity
  8
寸法
 62
     7
 48
50.0
100
AcDbMText
 10
11527.00952626703
 20
4926.912430878503
 30
0.0
 40
120.0
 41
0.0
 71
     5
 72
     1
  1
\A1;3610
  7
STYLE1
 73
     1
 44
1.0
1001
ACAD
1000
MTEXTBEGIN
1070
    73
1070
     1
1070
    44
1040
1.0
1070
    74
1070
     0
1000
MTEXTEND
  0
POINT
  5
17F34
330
17851
100
AcDbEntity
  8
DEFPOINTS
 62
     0
 48
50.0
100
AcDbPoint
 10
13332.00952626703
 20
4143.141384512921
 30
0.0
  0
POINT
  5
17F35
330
17851
100
AcDbEntity
  8
DEFPOINTS
 62
     0
 48
50.0
100
AcDbPoint
 10
9722.009526267033
 20
4198.141384512925
 30
0.0
  0
POINT
  5
17F36
330
17851
100
AcDbEntity
  8
DEFPOINTS
 62
     0
 48
50.0
100
AcDbPoint
 10
9722.009526267033
 20
4826.912430878503
 30
0.0
  0
ENDBLK
  5
1785C
330
17851
100
AcDbEntity
  8
0
 48
50.0
100
AcDbBlockEnd
  0
BLOCK
  5
17869
330
1785D
100
AcDbEntity
  8
0
 48
50.0
100
AcDbBlockBegin
  2
*D21
 70
     1
 10
0.0
 20
0.0
 30
0.0
  3
*D21
  1

  0
LINE
  5
17F23
330
1785D
100
AcDbEntity
  8
寸法
 62
     0
 48
50.0
370
    -2
100
AcDbLine
 10
9782.009526267033
 20
4214.143002635897
 30
0.0
 11
9782.009526267033
 21
4656.798838092224
 31
0.0
  0
LINE
  5
17F24
330
1785D
100
AcDbEntity
  8
寸法
 62
     0
 48
50.0
370
    -2
100
AcDbLine
 10
9722.009526267033
 20
4218.141384512924
 30
0.0
 11
9722.009526267033
 21
4656.798838092224
 31
0.0
  0
LINE
  5
17F25
330
1785D
100
AcDbEntity
  8
寸法
 62
     0
 48
50.0
370
    -2
100
AcDbLine
 10
9782.009526267033
 20
4596.798838092224
 30
0.0
 11
9882.009526267033
 21
4596.798838092224
 31
0.0
  0
LINE
  5
17F26
330
1785D
100
AcDbEntity
  8
寸法
 62
     0
 48
50.0
370
    -2
100
AcDbLine
 10
9722.009526267033
 20
4596.798838092224
 30
0.0
 11
9302.733935715851
 21
4596.798838092224
 31
0.0
  0
LINE
  5
17F27
330
1785D
100
AcDbEntity
  8
寸法
 62
     0
 48
50.0
370
    -2
100
AcDbLine
 10
9782.009526267033
 20
4596.798838092224
 30
0.0
 11
9722.009526267033
 21
4596.798838092224
 31
0.0
  0
INSERT
  5
17F28
330
1785D
100
AcDbEntity
  8
寸法
 62
     0
 48
50.0
370
    -2
100
AcDbBlockReference
  2
_DOTSMALL
 10
9782.009526267033
 20
4596.798838092224
 30
0.0
 41
100.0
 42
100.0
 43
100.0
 50
180.0
  0
INSERT
  5
17F29
330
1785D
100
AcDbEntity
  8
寸法
 62
     0
 48
50.0
370
    -2
100
AcDbBlockReference
  2
_DOTSMALL
 10
9722.009526267033
 20
4596.798838092224
 30
0.0
 41
100.0
 42
100.0
 43
100.0
  0
MTEXT
  5
17F2A
330
1785D
100
AcDbEntity
  8
寸法
 62
     7
 48
50.0
100
AcDbMText
 10
9412.371730991441
 20
4696.798838092224
 30
0.0
 40
120.0
 41
0.0
 71
     5
 72
     1
  1
\A1;60
  7
STYLE1
 73
     1
 44
1.0
1001
ACAD
1000
MTEXTBEGIN
1070
    73
1070
     1
1070
    44
1040
1.0
1070
    74
1070
     0
1000
MTEXTEND
  0
POINT
  5
17F2B
330
1785D
100
AcDbEntity
  8
DEFPOINTS
 62
     0
 48
50.0
100
AcDbPoint
 10
9782.009526267033
 20
4194.143002635898
 30
0.0
  0
POINT
  5
17F2C
330
1785D
100
AcDbEntity
  8
DEFPOINTS
 62
     0
 48
50.0
100
AcDbPoint
 10
9722.009526267033
 20
4198.141384512925
 30
0.0
  0
POINT
  5
17F2D
330
1785D
100
AcDbEntity
  8
DEFPOINTS
 62
     0
 48
50.0
100
AcDbPoint
 10
9722.009526267033
 20
4596.798838092224
 30
0.0
  0
ENDBLK
  5
1786A
330
1785D
100
AcDbEntity
  8
0
 48
50.0
100
AcDbBlockEnd
  0
BLOCK
  5
17875
330
1786B
100
AcDbEntity
  8
0
 48
50.0
100
AcDbBlockBegin
  2
*D22
 70
     1
 10
0.0
 20
0.0
 30
0.0
  3
*D22
  1

  0
LINE
  5
17F1A
330
1786B
100
AcDbEntity
  8
寸法
 62
     0
 48
50.0
370
    -2
100
AcDbLine
 10
13252.00952626703
 20
4164.952064124576
 30
0.0
 11
13252.00952626703
 21
4656.798838092227
 31
0.0
  0
LINE
  5
17F1B
330
1786B
100
AcDbEntity
  8
寸法
 62
     0
 48
50.0
370
    -2
100
AcDbLine
 10
9782.009526267033
 20
4214.143002635897
 30
0.0
 11
9782.009526267033
 21
4656.798838092227
 31
0.0
  0
LINE
  5
17F1C
330
1786B
100
AcDbEntity
  8
寸法
 62
     0
 48
50.0
370
    -2
100
AcDbLine
 10
13252.00952626703
 20
4596.798838092227
 30
0.0
 11
9782.009526267033
 21
4596.798838092227
 31
0.0
  0
INSERT
  5
17F1D
330
1786B
100
AcDbEntity
  8
寸法
 62
     0
 48
50.0
370
    -2
100
AcDbBlockReference
  2
_DOTSMALL
 10
13252.00952626703
 20
4596.798838092227
 30
0.0
 41
100.0
 42
100.0
 43
100.0
  0
INSERT
  5
17F1E
330
1786B
100
AcDbEntity
  8
寸法
 62
     0
 48
50.0
370
    -2
100
AcDbBlockReference
  2
_DOTSMALL
 10
9782.009526267033
 20
4596.798838092227
 30
0.0
 41
100.0
 42
100.0
 43
100.0
 50
180.0
  0
MTEXT
  5
17F1F
330
1786B
100
AcDbEntity
  8
寸法
 62
     7
 48
50.0
100
AcDbMText
 10
11517.00952626703
 20
4696.798838092226
 30
0.0
 40
120.0
 41
0.0
 71
     5
 72
     1
  1
\A1;柱外寸法3470
  7
STYLE1
 73
     1
 44
1.0
1001
ACAD
1000
MTEXTBEGIN
1070
    73
1070
     1
1070
    44
1040
1.0
1070
    74
1070
     0
1000
MTEXTEND
  0
POINT
  5
17F20
330
1786B
100
AcDbEntity
  8
DEFPOINTS
 62
     0
 48
50.0
100
AcDbPoint
 10
13252.00952626703
 20
4144.952064124575
 30
0.0
  0
POINT
  5
17F21
330
1786B
100
AcDbEntity
  8
DEFPOINTS
 62
     0
 48
50.0
100
AcDbPoint
 10
9782.009526267033
 20
4194.143002635898
 30
0.0
  0
POINT
  5
17F22
330
1786B
100
AcDbEntity
  8
DEFPOINTS
 62
     0
 48
50.0
100
AcDbPoint
 10
9782.009526267033
 20
4596.798838092227
 30
0.0
  0
ENDBLK
  5
17876
330
1786B
100
AcDbEntity
  8
0
 48
50.0
100
AcDbBlockEnd
  0
BLOCK
  5
17883
330
17877
100
AcDbEntity
  8
0
 48
50.0
100
AcDbBlockBegin
  2
*D23
 70
     1
 10
0.0
 20
0.0
 30
0.0
  3
*D23
  1

  0
LINE
  5
17F0F
330
17877
100
AcDbEntity
  8
寸法
 62
     0
 48
50.0
370
    -2
100
AcDbLine
 10
9762.009526267034
 20
1873.141384512921
 30
0.0
 11
8878.259397083771
 21
1873.141384512921
 31
0.0
  0
LINE
  5
17F10
330
17877
100
AcDbEntity
  8
寸法
 62
     0
 48
50.0
370
    -2
100
AcDbLine
 10
9707.009526267034
 20
1823.141384512921
 30
0.0
 11
8878.259397083771
 21
1823.141384512921
 31
0.0
  0
LINE
  5
17F11
330
17877
100
AcDbEntity
  8
寸法
 62
     0
 48
50.0
370
    -2
100
AcDbLine
 10
8938.259397083772
 20
1873.141384512921
 30
0.0
 11
8938.259397083772
 21
1973.141384512921
 31
0.0
  0
LINE
  5
17F12
330
17877
100
AcDbEntity
  8
寸法
 62
     0
 48
50.0
370
    -2
100
AcDbLine
 10
8938.259397083772
 20
1823.141384512921
 30
0.0
 11
8938.259397083772
 21
1411.04689632394
 31
0.0
  0
LINE
  5
17F13
330
17877
100
AcDbEntity
  8
寸法
 62
     0
 48
50.0
370
    -2
100
AcDbLine
 10
8938.259397083772
 20
1873.141384512921
 30
0.0
 11
8938.259397083772
 21
1823.141384512921
 31
0.0
  0
INSERT
  5
17F14
330
17877
100
AcDbEntity
  8
寸法
 62
     0
 48
50.0
370
    -2
100
AcDbBlockReference
  2
_DOTSMALL
 10
8938.259397083772
 20
1873.141384512921
 30
0.0
 41
100.0
 42
100.0
 43
100.0
 50
270.0
  0
INSERT
  5
17F15
330
17877
100
AcDbEntity
  8
寸法
 62
     0
 48
50.0
370
    -2
100
AcDbBlockReference
  2
_DOTSMALL
 10
8938.259397083772
 20
1823.141384512921
 30
0.0
 41
100.0
 42
100.0
 43
100.0
 50
90.0
  0
MTEXT
  5
17F16
330
17877
100
AcDbEntity
  8
寸法
 62
     7
 48
50.0
100
AcDbMText
 10
8838.259397083772
 20
1517.09414041843
 30
0.0
 40
120.0
 41
0.0
 71
     5
 72
     1
  1
\A1;50
  7
STYLE1
 11
0.0000000000000001
 21
1.0
 31
0.0
 73
     1
 44
1.0
1001
ACAD
1000
MTEXTBEGIN
1070
    73
1070
     1
1070
    44
1040
1.0
1070
    74
1070
     0
1000
MTEXTEND
  0
POINT
  5
17F17
330
17877
100
AcDbEntity
  8
DEFPOINTS
 62
     0
 48
50.0
100
AcDbPoint
 10
9782.009526267033
 20
1873.141384512921
 30
0.0
  0
POINT
  5
17F18
330
17877
100
AcDbEntity
  8
DEFPOINTS
 62
     0
 48
50.0
100
AcDbPoint
 10
9727.009526267034
 20
1823.141384512921
 30
0.0
  0
POINT
  5
17F19
330
17877
100
AcDbEntity
  8
DEFPOINTS
 62
     0
 48
50.0
100
AcDbPoint
 10
8938.259397083772
 20
1823.141384512921
 30
0.0
  0
ENDBLK
  5
17884
330
17877
100
AcDbEntity
  8
0
 48
50.0
100
AcDbBlockEnd
  0
BLOCK
  5
1788F
330
17885
100
AcDbEntity
  8
0
 48
50.0
100
AcDbBlockBegin
  2
*D24
 70
     1
 10
0.0
 20
0.0
 30
0.0
  3
*D24
  1

  0
LINE
  5
17F41
330
17885
100
AcDbEntity
  8
寸法
 62
     0
 48
50.0
370
    -2
100
AcDbLine
 10
13272.00952626703
 20
1823.141384512923
 30
0.0
 11
14016.93668423916
 21
1823.141384512923
 31
0.0
  0
LINE
  5
17F42
330
17885
100
AcDbEntity
  8
寸法
 62
     0
 48
50.0
370
    -2
100
AcDbLine
 10
13352.00952626703
 20
4143.141384512921
 30
0.0
 11
14016.93668423916
 21
4143.141384512921
 31
0.0
  0
LINE
  5
17F43
330
17885
100
AcDbEntity
  8
寸法
 62
     0
 48
50.0
370
    -2
100
AcDbLine
 10
13956.93668423916
 20
1823.141384512923
 30
0.0
 11
13956.93668423916
 21
4143.141384512921
 31
0.0
  0
INSERT
  5
17F44
330
17885
100
AcDbEntity
  8
寸法
 62
     0
 48
50.0
370
    -2
100
AcDbBlockReference
  2
_DOTSMALL
 10
13956.93668423916
 20
1823.141384512923
 30
0.0
 41
100.0
 42
100.0
 43
100.0
 50
270.0
  0
INSERT
  5
17F45
330
17885
100
AcDbEntity
  8
寸法
 62
     0
 48
50.0
370
    -2
100
AcDbBlockReference
  2
_DOTSMALL
 10
13956.93668423916
 20
4143.141384512921
 30
0.0
 41
100.0
 42
100.0
 43
100.0
 50
90.0
  0
MTEXT
  5
17F46
330
17885
100
AcDbEntity
  8
寸法
 62
     7
 48
50.0
100
AcDbMText
 10
13856.92487321553
 20
2983.141384512924
 30
0.0
 40
120.0
 41
0.0
 71
     5
 72
     1
  1
\A1;2320
  7
STYLE1
 11
0.0000000000000001
 21
1.0
 31
0.0
 73
     1
 44
1.0
1001
ACAD
1000
MTEXTBEGIN
1070
    73
1070
     1
1070
    44
1040
1.0
1070
    74
1070
     0
1000
MTEXTEND
  0
POINT
  5
17F47
330
17885
100
AcDbEntity
  8
DEFPOINTS
 62
     0
 48
50.0
100
AcDbPoint
 10
13252.00952626703
 20
1823.141384512923
 30
0.0
  0
POINT
  5
17F48
330
17885
100
AcDbEntity
  8
DEFPOINTS
 62
     0
 48
50.0
100
AcDbPoint
 10
13332.00952626703
 20
4143.141384512921
 30
0.0
  0
POINT
  5
17F49
330
17885
100
AcDbEntity
  8
DEFPOINTS
 62
     0
 48
50.0
100
AcDbPoint
 10
13956.93668423916
 20
4143.141384512921
 30
0.0
  0
ENDBLK
  5
17890
330
17885
100
AcDbEntity
  8
0
 48
50.0
100
AcDbBlockEnd
  0
BLOCK
  5
1789B
330
17891
100
AcDbEntity
  8
0
 48
50.0
100
AcDbBlockBegin
  2
*D25
 70
     1
 10
0.0
 20
0.0
 30
0.0
  3
*D25
  1

  0
LINE
  5
17F06
330
17891
100
AcDbEntity
  8
寸法
 62
     0
 48
50.0
370
    -2
100
AcDbLine
 10
9762.009526267034
 20
1823.141384512916
 30
0.0
 11
8578.259397083773
 21
1823.141384512916
 31
0.0
  0
LINE
  5
17F07
330
17891
100
AcDbEntity
  8
寸法
 62
     0
 48
50.0
370
    -2
100
AcDbLine
 10
9702.009526267033
 20
4198.141384512921
 30
0.0
 11
8578.259397083774
 21
4198.141384512921
 31
0.0
  0
LINE
  5
17F08
330
17891
100
AcDbEntity
  8
寸法
 62
     0
 48
50.0
370
    -2
100
AcDbLine
 10
8638.259397083771
 20
1823.141384512916
 30
0.0
 11
8638.259397083773
 21
4198.141384512921
 31
0.0
  0
INSERT
  5
17F09
330
17891
100
AcDbEntity
  8
寸法
 62
     0
 48
50.0
370
    -2
100
AcDbBlockReference
  2
_DOTSMALL
 10
8638.259397083771
 20
1823.141384512916
 30
0.0
 41
100.0
 42
100.0
 43
100.0
 50
270.0
  0
INSERT
  5
17F0A
330
17891
100
AcDbEntity
  8
寸法
 62
     0
 48
50.0
370
    -2
100
AcDbBlockReference
  2
_DOTSMALL
 10
8638.259397083773
 20
4198.141384512921
 30
0.0
 41
100.0
 42
100.0
 43
100.0
 50
90.0
  0
MTEXT
  5
17F0B
330
17891
100
AcDbEntity
  8
寸法
 62
     7
 48
50.0
100
AcDbMText
 10
8538.247586060149
 20
3010.64138451292
 30
0.0
 40
120.0
 41
0.0
 71
     5
 72
     1
  1
\A1;2375
  7
STYLE1
 11
0.0000000000000001
 21
1.0
 31
0.0
 73
     1
 44
1.0
1001
ACAD
1000
MTEXTBEGIN
1070
    73
1070
     1
1070
    44
1040
1.0
1070
    74
1070
     0
1000
MTEXTEND
  0
POINT
  5
17F0C
330
17891
100
AcDbEntity
  8
DEFPOINTS
 62
     0
 48
50.0
100
AcDbPoint
 10
9782.009526267033
 20
1823.141384512916
 30
0.0
  0
POINT
  5
17F0D
330
17891
100
AcDbEntity
  8
DEFPOINTS
 62
     0
 48
50.0
100
AcDbPoint
 10
9722.009526267033
 20
4198.141384512921
 30
0.0
  0
POINT
  5
17F0E
330
17891
100
AcDbEntity
  8
DEFPOINTS
 62
     0
 48
50.0
100
AcDbPoint
 10
8638.259397083773
 20
4198.141384512921
 30
0.0
  0
ENDBLK
  5
1789C
330
17891
100
AcDbEntity
  8
0
 48
50.0
100
AcDbBlockEnd
  0
BLOCK
  5
178A7
330
1789D
100
AcDbEntity
  8
0
 48
50.0
100
AcDbBlockBegin
  2
*D26
 70
     1
 10
0.0
 20
0.0
 30
0.0
  3
*D26
  1

  0
LINE
  5
17EFD
330
1789D
100
AcDbEntity
  8
寸法
 62
     0
 48
50.0
370
    -2
100
AcDbLine
 10
9762.009526267034
 20
3963.141384512918
 30
0.0
 11
8878.259397083771
 21
3963.141384512919
 31
0.0
  0
LINE
  5
17EFE
330
1789D
100
AcDbEntity
  8
寸法
 62
     0
 48
50.0
370
    -2
100
AcDbLine
 10
9762.009526267034
 20
1873.141384512916
 30
0.0
 11
8878.259397083771
 21
1873.141384512916
 31
0.0
  0
LINE
  5
17EFF
330
1789D
100
AcDbEntity
  8
寸法
 62
     0
 48
50.0
370
    -2
100
AcDbLine
 10
8938.259397083772
 20
3963.141384512919
 30
0.0
 11
8938.259397083772
 21
1873.141384512916
 31
0.0
  0
INSERT
  5
17F00
330
1789D
100
AcDbEntity
  8
寸法
 62
     0
 48
50.0
370
    -2
100
AcDbBlockReference
  2
_DOTSMALL
 10
8938.259397083772
 20
3963.141384512919
 30
0.0
 41
100.0
 42
100.0
 43
100.0
 50
90.0
  0
INSERT
  5
17F01
330
1789D
100
AcDbEntity
  8
寸法
 62
     0
 48
50.0
370
    -2
100
AcDbBlockReference
  2
_DOTSMALL
 10
8938.259397083772
 20
1873.141384512916
 30
0.0
 41
100.0
 42
100.0
 43
100.0
 50
270.0
  0
MTEXT
  5
17F02
330
1789D
100
AcDbEntity
  8
寸法
 62
     7
 48
50.0
100
AcDbMText
 10
8838.24758606015
 20
2918.141384512919
 30
0.0
 40
120.0
 41
0.0
 71
     5
 72
     1
  1
\A1;2090
  7
STYLE1
 11
0.0000000000000001
 21
1.0
 31
0.0
 73
     1
 44
1.0
1001
ACAD
1000
MTEXTBEGIN
1070
    73
1070
     1
1070
    44
1040
1.0
1070
    74
1070
     0
1000
MTEXTEND
  0
POINT
  5
17F03
330
1789D
100
AcDbEntity
  8
DEFPOINTS
 62
     0
 48
50.0
100
AcDbPoint
 10
9782.009526267033
 20
3963.141384512918
 30
0.0
  0
POINT
  5
17F04
330
1789D
100
AcDbEntity
  8
DEFPOINTS
 62
     0
 48
50.0
100
AcDbPoint
 10
9782.009526267033
 20
1873.141384512916
 30
0.0
  0
POINT
  5
17F05
330
1789D
100
AcDbEntity
  8
DEFPOINTS
 62
     0
 48
50.0
100
AcDbPoint
 10
8938.259397083772
 20
1873.141384512916
 30
0.0
  0
ENDBLK
  5
178A8
330
1789D
100
AcDbEntity
  8
0
 48
50.0
100
AcDbBlockEnd
  0
BLOCK
  5
17D6F
330
17D65
100
AcDbEntity
  8
0
 48
50.0
100
AcDbBlockBegin
  2
*D27
 70
     1
 10
0.0
 20
0.0
 30
0.0
  3
*D27
  1

  0
LINE
  5
17FD7
330
17D65
100
AcDbEntity
  8
寸法
 62
     0
 48
50.0
370
    -2
100
AcDbLine
 10
7216.461099046284
 20
1823.141384512921
 30
0.0
 11
7544.004201368029
 21
1823.141384512921
 31
0.0
  0
LINE
  5
17FD8
330
17D65
100
AcDbEntity
  8
寸法
 62
     0
 48
50.0
370
    -2
100
AcDbLine
 10
7216.461099046284
 20
3771.141384512921
 30
0.0
 11
7544.004201368029
 21
3771.141384512921
 31
0.0
  0
LINE
  5
17FD9
330
17D65
100
AcDbEntity
  8
寸法
 62
     0
 48
50.0
370
    -2
100
AcDbLine
 10
7484.004201368029
 20
1823.141384512921
 30
0.0
 11
7484.00420136803
 21
3771.141384512921
 31
0.0
  0
INSERT
  5
17FDA
330
17D65
100
AcDbEntity
  8
寸法
 62
     0
 48
50.0
370
    -2
100
AcDbBlockReference
  2
_DOTSMALL
 10
7484.004201368029
 20
1823.141384512921
 30
0.0
 41
100.0
 42
100.0
 43
100.0
 50
270.0
  0
INSERT
  5
17FDB
330
17D65
100
AcDbEntity
  8
寸法
 62
     0
 48
50.0
370
    -2
100
AcDbBlockReference
  2
_DOTSMALL
 10
7484.00420136803
 20
3771.141384512921
 30
0.0
 41
100.0
 42
100.0
 43
100.0
 50
90.0
  0
MTEXT
  5
17FDC
330
17D65
100
AcDbEntity
  8
寸法
 62
     7
 48
50.0
100
AcDbMText
 10
7384.004201368028
 20
2797.141384512923
 30
0.0
 40
120.0
 41
0.0
 71
     5
 72
     1
  1
\A1;有効開口部高サ 1948
  7
STYLE1
 11
0.0000000000000001
 21
1.0
 31
0.0
 73
     1
 44
1.0
1001
ACAD
1000
MTEXTBEGIN
1070
    73
1070
     1
1070
    44
1040
1.0
1070
    74
1070
     0
1000
MTEXTEND
  0
POINT
  5
17FDD
330
17D65
100
AcDbEntity
  8
DEFPOINTS
 62
     0
 48
50.0
100
AcDbPoint
 10
7196.461099046285
 20
1823.141384512921
 30
0.0
  0
POINT
  5
17FDE
330
17D65
100
AcDbEntity
  8
DEFPOINTS
 62
     0
 48
50.0
100
AcDbPoint
 10
7196.461099046285
 20
3771.141384512921
 30
0.0
  0
POINT
  5
17FDF
330
17D65
100
AcDbEntity
  8
DEFPOINTS
 62
     0
 48
50.0
100
AcDbPoint
 10
7484.00420136803
 20
3771.141384512921
 30
0.0
  0
ENDBLK
  5
17D70
330
17D65
100
AcDbEntity
  8
0
 48
50.0
100
AcDbBlockEnd
  0
BLOCK
  5
17D7D
330
17D71
100
AcDbEntity
  8
0
 48
50.0
100
AcDbBlockBegin
  2
*D28
 70
     1
 10
0.0
 20
0.0
 30
0.0
  3
*D28
  1

  0
LINE
  5
1809C
330
17D71
100
AcDbEntity
  8
寸法
 62
     0
 48
50.0
370
    -2
100
AcDbLine
 10
7216.461099046284
 20
3771.141384512921
 30
0.0
 11
7544.004201368029
 21
3771.141384512921
 31
0.0
  0
LINE
  5
1809D
330
17D71
100
AcDbEntity
  8
寸法
 62
     0
 48
50.0
370
    -2
100
AcDbLine
 10
7216.461099046284
 20
3798.141384512922
 30
0.0
 11
7544.004201368029
 21
3798.141384512922
 31
0.0
  0
LINE
  5
1809E
330
17D71
100
AcDbEntity
  8
寸法
 62
     0
 48
50.0
370
    -2
100
AcDbLine
 10
7484.00420136803
 20
3771.141384512921
 30
0.0
 11
7484.00420136803
 21
3671.141384512921
 31
0.0
  0
LINE
  5
1809F
330
17D71
100
AcDbEntity
  8
寸法
 62
     0
 48
50.0
370
    -2
100
AcDbLine
 10
7484.00420136803
 20
3798.141384512922
 30
0.0
 11
7484.00420136803
 21
3898.141384512922
 31
0.0
  0
MTEXT
  5
180A0
330
17D71
100
AcDbEntity
  8
寸法
 62
     7
 48
50.0
100
AcDbMText
 10
7624.174024614394
 20
3799.10858435258
 30
0.0
 40
120.0
 41
0.0
 71
     5
 72
     1
  1
\A1;27
  7
STYLE1
 11
0.0000000000000001
 21
1.0
 31
0.0
 73
     1
 44
1.0
1001
ACAD
1000
MTEXTBEGIN
1070
    73
1070
     1
1070
    44
1040
1.0
1070
    74
1070
     0
1000
MTEXTEND
  0
LINE
  5
180A1
330
17D71
100
AcDbEntity
  8
寸法
 62
     0
 48
50.0
370
    -2
100
AcDbLine
 10
7484.00420136803
 20
3771.141384512921
 30
0.0
 11
7484.00420136803
 21
3798.141384512922
 31
0.0
  0
INSERT
  5
180A2
330
17D71
100
AcDbEntity
  8
寸法
 62
     0
 48
50.0
370
    -2
100
AcDbBlockReference
  2
_DOTSMALL
 10
7484.00420136803
 20
3771.141384512921
 30
0.0
 41
100.0
 42
100.0
 43
100.0
 50
90.0
  0
INSERT
  5
180A3
330
17D71
100
AcDbEntity
  8
寸法
 62
     0
 48
50.0
370
    -2
100
AcDbBlockReference
  2
_DOTSMALL
 10
7484.00420136803
 20
3798.141384512922
 30
0.0
 41
100.0
 42
100.0
 43
100.0
 50
270.0
  0
POINT
  5
180A4
330
17D71
100
AcDbEntity
  8
DEFPOINTS
 62
     0
 48
50.0
100
AcDbPoint
 10
7196.461099046285
 20
3771.141384512921
 30
0.0
  0
POINT
  5
180A5
330
17D71
100
AcDbEntity
  8
DEFPOINTS
 62
     0
 48
50.0
100
AcDbPoint
 10
7196.461099046285
 20
3798.141384512922
 30
0.0
  0
POINT
  5
180A6
330
17D71
100
AcDbEntity
  8
DEFPOINTS
 62
     0
 48
50.0
100
AcDbPoint
 10
7484.00420136803
 20
3798.141384512922
 30
0.0
  0
ENDBLK
  5
17D7E
330
17D71
100
AcDbEntity
  8
0
 48
50.0
100
AcDbBlockEnd
  0
BLOCK
  5
17D8A
330
17D7F
100
AcDbEntity
  8
0
 48
50.0
100
AcDbBlockBegin
  2
*D29
 70
     1
 10
0.0
 20
0.0
 30
0.0
  3
*D29
  1

  0
LINE
  5
18092
330
17D7F
100
AcDbEntity
  8
寸法
 62
     0
 48
50.0
370
    -2
100
AcDbLine
 10
7216.461099046284
 20
3798.141384512922
 30
0.0
 11
7544.004201368031
 21
3798.141384512922
 31
0.0
  0
LINE
  5
18093
330
17D7F
100
AcDbEntity
  8
寸法
 62
     0
 48
50.0
370
    -2
100
AcDbLine
 10
7216.461099046284
 20
3963.141384512921
 30
0.0
 11
7544.004201368031
 21
3963.141384512921
 31
0.0
  0
LINE
  5
18094
330
17D7F
100
AcDbEntity
  8
寸法
 62
     0
 48
50.0
370
    -2
100
AcDbLine
 10
7484.00420136803
 20
3798.141384512922
 30
0.0
 11
7484.00420136803
 21
3963.141384512921
 31
0.0
  0
LINE
  5
18095
330
17D7F
100
AcDbEntity
  8
寸法
 62
     0
 48
50.0
370
    -2
100
AcDbLine
 10
7484.00420136803
 20
3963.141384512921
 30
0.0
 11
7484.00420136803
 21
4340.111947261397
 31
0.0
  0
INSERT
  5
18096
330
17D7F
100
AcDbEntity
  8
寸法
 62
     0
 48
50.0
370
    -2
100
AcDbBlockReference
  2
_DOTSMALL
 10
7484.00420136803
 20
3798.141384512922
 30
0.0
 41
100.0
 42
100.0
 43
100.0
 50
270.0
  0
INSERT
  5
18097
330
17D7F
100
AcDbEntity
  8
寸法
 62
     0
 48
50.0
370
    -2
100
AcDbBlockReference
  2
_DOTSMALL
 10
7484.00420136803
 20
3963.141384512921
 30
0.0
 41
100.0
 42
100.0
 43
100.0
 50
90.0
  0
MTEXT
  5
18098
330
17D7F
100
AcDbEntity
  8
寸法
 62
     7
 48
50.0
100
AcDbMText
 10
7384.00420136803
 20
4201.62666588716
 30
0.0
 40
120.0
 41
0.0
 71
     5
 72
     1
  1
\A1;165
  7
STYLE1
 11
0.0000000000000001
 21
1.0
 31
0.0
 73
     1
 44
1.0
1001
ACAD
1000
MTEXTBEGIN
1070
    73
1070
     1
1070
    44
1040
1.0
1070
    74
1070
     0
1000
MTEXTEND
  0
POINT
  5
18099
330
17D7F
100
AcDbEntity
  8
DEFPOINTS
 62
     0
 48
50.0
100
AcDbPoint
 10
7196.461099046285
 20
3798.141384512922
 30
0.0
  0
POINT
  5
1809A
330
17D7F
100
AcDbEntity
  8
DEFPOINTS
 62
     0
 48
50.0
100
AcDbPoint
 10
7196.461099046285
 20
3963.141384512921
 30
0.0
  0
POINT
  5
1809B
330
17D7F
100
AcDbEntity
  8
DEFPOINTS
 62
     0
 48
50.0
100
AcDbPoint
 10
7484.00420136803
 20
3963.141384512921
 30
0.0
  0
ENDBLK
  5
17D8B
330
17D7F
100
AcDbEntity
  8
0
 48
50.0
100
AcDbBlockEnd
  0
ENDSEC
  0
SECTION
  2
ENTITIES
  0
MTEXT
  5
763F
330
747D
100
AcDbEntity
  8
0
100
AcDbMText
 10
302.846345836809
 20
280.1983726409901
 30
0.0
 40
3.5
 41
5.323721266742722
 71
     1
 72
     5
  1

  7
MSMINCHO
 73
     1
 44
1.0
1001
ACAD
1000
MTEXTBEGIN
1070
    73
1070
     1
1070
    44
1040
1.0
1070
    74
1070
     0
1000
MTEXTEND
  0
LINE
  5
10B57
330
747D
100
AcDbEntity
  8
補助
  6
PHANTOM
 62
   230
 48
50.0
100
AcDbLine
 10
139.9999999999995
 20
11409.6
 30
0.0
 11
16307.2
 21
11409.6
 31
0.0
  0
LINE
  5
10B59
330
747D
100
AcDbEntity
  8
仕様書枠
  6
Continuous
 48
50.0
100
AcDbLine
 10
13107.2
 20
1200.0
 30
0.0
 11
13107.2
 21
-0.0000000000000729
 31
0.0
  0
LINE
  5
10B5C
330
747D
100
AcDbEntity
  8
仕様書枠
 48
50.0
100
AcDbLine
 10
16307.2
 20
1200.0
 30
0.0
 11
16307.2
 21
-0.0000000000000909
 31
0.0
  0
LINE
  5
10B5D
330
747D
100
AcDbEntity
  8
仕様書枠
 48
50.0
100
AcDbLine
 10
140.0
 20
0.0
 30
0.0
 11
16307.2
 21
-0.0000000000000909
 31
0.0
  0
LINE
  5
10B5E
330
747D
100
AcDbEntity
  8
補助
  6
PHANTOM
 62
   230
 48
50.0
100
AcDbLine
 10
16307.2
 20
11409.6
 30
0.0
 11
16307.2
 21
1200.0
 31
0.0
  0
LINE
  5
10B6C
330
747D
100
AcDbEntity
  8
仕様書枠
 48
50.0
100
AcDbLine
 10
13107.2
 20
1200.0
 30
0.0
 11
16307.2
 21
1200.0
 31
0.0
  0
LINE
  5
10B6D
330
747D
100
AcDbEntity
  8
補助
  6
PHANTOM
 62
   230
 48
50.0
100
AcDbLine
 10
13107.2
 20
11409.6
 30
0.0
 11
13107.2
 21
4800.0
 31
0.0
  0
LINE
  5
10B6F
330
747D
100
AcDbEntity
  8
補助
  6
PHANTOM
 62
   230
 48
50.0
100
AcDbLine
 10
13107.2
 20
4800.0
 30
0.0
 11
16307.2
 21
4800.0
 31
0.0
  0
LINE
  5
10B72
330
747D
100
AcDbEntity
  8
文字
 62
     7
 48
50.0
100
AcDbLine
 10
13187.2
 20
400.0
 30
0.0
 11
16227.2
 21
400.0
 31
0.0
  0
TEXT
  5
10B73
330
747D
100
AcDbEntity
  8
文字
 62
     7
 48
50.0
100
AcDbText
 10
13162.9790565769
 20
895.0906074299405
 30
0.0
 40
200.0
  1
外 形 図
  7
STYLE2
100
AcDbText
  0
TEXT
  5
10B74
330
747D
100
AcDbEntity
  8
文字
 62
     7
 48
50.0
100
AcDbText
 10
13201.43669998441
 20
477.2740661031255
 30
0.0
 40
160.0
  1
機種名
  7
STYLE2
100
AcDbText
  0
TEXT
  5
10B75
330
747D
100
AcDbEntity
  8
文字
 62
     7
 48
50.0
100
AcDbText
 10
13209.4053442172
 20
228.5435242569016
 30
0.0
 40
100.0
  1
○有効開口寸法 ： 2424\U+00D71948(mm)
  7
STYLE2
100
AcDbText
  0
TEXT
  5
10B76
330
747D
100
AcDbEntity
  8
文字
 62
     7
 48
50.0
100
AcDbText
 10
13209.4053442172
 20
76.09434707649343
 30
0.0
 40
100.0
  1
○床面積 ： 9.13㎡(2.77坪) 　
  7
STYLE2
100
AcDbText
  0
TEXT
  5
10B79
330
747D
100
AcDbEntity
  8
文字
 62
     7
 48
50.0
100
AcDbText
 10
14524.131837222
 20
1031.557706291228
 30
0.0
 40
100.0
  1
NO.58      <縮尺> S=1/40
  7
STYLE2
100
AcDbText
  0
LINE
  5
10B7B
330
747D
100
AcDbEntity
  8
仕様書枠
 48
50.0
100
AcDbLine
 10
13107.2
 20
800.0
 30
0.0
 11
14251.2
 21
800.0
 31
0.0
  0
LINE
  5
10B88
330
747D
100
AcDbEntity
  8
仕様書枠
  6
Continuous
 48
50.0
100
AcDbLine
 10
14251.2
 20
1200.0
 30
0.0
 11
14251.2
 21
800.0
 31
0.0
  0
LINE
  5
12765
330
747D
100
AcDbEntity
  8
Ｇ．Ｌ
100
AcDbLine
 10
3478.194496375802
 20
1723.141384512921
 30
0.0
 11
13872.58158746945
 21
1723.141384512921
 31
0.0
  0
LINE
  5
13BE8
330
747D
100
AcDbEntity
  8
部品1
100
AcDbLine
 10
4566.461099046284
 20
1823.141384512921
 30
0.0
 11
7196.461099046285
 21
1823.141384512921
 31
0.0
  0
LINE
  5
13C1F
330
747D
100
AcDbEntity
  8
部品1
100
AcDbLine
 10
4566.461099046283
 20
4057.141384512926
 30
0.0
 11
4566.461099046284
 21
1723.141384512921
 31
0.0
  0
LINE
  5
13CFC
330
747D
100
AcDbEntity
  8
部品1
100
AcDbLine
 10
7141.461099046285
 20
3798.141384512923
 30
0.0
 11
7141.461099046283
 21
1823.141384512921
 31
0.0
  0
LINE
  5
13CFE
330
747D
100
AcDbEntity
  8
部品1
100
AcDbLine
 10
4621.461099046284
 20
3798.141384512922
 30
0.0
 11
4621.461099046284
 21
1823.141384512921
 31
0.0
  0
LINE
  5
13D18
330
747D
100
AcDbEntity
  8
部品1
100
AcDbLine
 10
7196.461099046285
 20
4057.141384512926
 30
0.0
 11
7196.461099046285
 21
1723.141384512921
 31
0.0
  0
LINE
  5
146B2
330
747D
100
AcDbEntity
  8
破線
 48
5.0
100
AcDbLine
 10
7196.461099046285
 20
1723.141384512921
 30
0.0
 11
7196.461099046285
 21
1473.141384512921
 31
0.0
  0
LINE
  5
146B3
330
747D
100
AcDbEntity
  8
破線
 48
5.0
100
AcDbLine
 10
4566.461099046284
 20
1723.141384512921
 30
0.0
 11
4566.461099046283
 21
1473.141384512921
 31
0.0
  0
TEXT
  5
149A1
330
747D
100
AcDbEntity
  8
部品1
100
AcDbText
 10
5597.565391268353
 20
880.2478552944041
 30
0.0
 40
135.0
  1
正面図
  7
STYLE2
100
AcDbText
  0
LWPOLYLINE
  5
149A2
330
747D
100
AcDbEntity
  8
部品1
100
AcDbPolyline
 90
        4
 70
     1
 43
0.0
 10
5499.725765932054
 20
1073.141384512928
 10
5499.725765932054
 20
833.2490629673959
 10
6263.196432160492
 20
833.2490629673959
 10
6263.196432160492
 20
1073.141384512928
  0
TEXT
  5
14E88
330
747D
100
AcDbEntity
  8
部品1
100
AcDbText
 10
5602.18108543226
 20
5561.192290119457
 30
0.0
 40
135.0
  1
平面図
  7
STYLE2
100
AcDbText
  0
LWPOLYLINE
  5
14E89
330
747D
100
AcDbEntity
  8
部品1
100
AcDbPolyline
 90
        4
 70
     1
 43
0.0
 10
5499.725765932055
 20
5754.085819337981
 10
5499.725765932055
 20
5514.193497792447
 10
6263.196432160493
 20
5514.193497792447
 10
6263.196432160493
 20
5754.085819337981
  0
TEXT
  5
15550
330
747D
100
AcDbEntity
  8
文字
 62
     7
 48
50.0
100
AcDbText
 10
14927.93463116741
 20
871.9640646083622
 30
0.0
 40
100.0
  1
～一般型～
  7
STYLE2
100
AcDbText
  0
LINE
  5
15CE5
330
747D
100
AcDbEntity
  8
破線
 48
5.0
100
AcDbLine
 10
7141.461099046283
 20
1823.141384512921
 30
0.0
 11
7141.461099046285
 21
1473.141384512921
 31
0.0
  0
LINE
  5
15CE6
330
747D
100
AcDbEntity
  8
破線
 48
5.0
100
AcDbLine
 10
4621.461099046284
 20
1823.141384512921
 30
0.0
 11
4621.461099046284
 21
1473.141384512921
 31
0.0
  0
LINE
  5
15CE7
330
747D
100
AcDbEntity
  8
破線
 48
5.0
100
AcDbLine
 10
7196.461099046285
 20
1473.141384512921
 30
0.0
 11
7141.461099046285
 21
1473.141384512921
 31
0.0
  0
LINE
  5
15CE8
330
747D
100
AcDbEntity
  8
破線
 48
5.0
100
AcDbLine
 10
4621.461099046281
 20
1473.141384512928
 30
0.0
 11
4566.461099046283
 21
1473.141384512928
 31
0.0
  0
LINE
  5
15CE9
330
747D
100
AcDbEntity
  8
部品1
100
AcDbLine
 10
4669.461099046284
 20
3798.141384512921
 30
0.0
 11
4669.461099046284
 21
1823.141384512921
 31
0.0
  0
LINE
  5
15CEA
330
747D
100
AcDbEntity
  8
破線
 48
5.0
100
AcDbLine
 10
4669.461099046284
 20
1823.141384512921
 30
0.0
 11
4669.461099046284
 21
1573.141384512926
 31
0.0
  0
LINE
  5
15CEB
330
747D
100
AcDbEntity
  8
部品1
100
AcDbLine
 10
7093.461099046286
 20
3798.141384512922
 30
0.0
 11
7093.461099046284
 21
1823.141384512921
 31
0.0
  0
LINE
  5
15CEC
330
747D
100
AcDbEntity
  8
破線
 48
5.0
100
AcDbLine
 10
7093.461099046284
 20
1823.141384512921
 30
0.0
 11
7093.461099046284
 21
1573.141384512921
 31
0.0
  0
LINE
  5
15CED
330
747D
100
AcDbEntity
  8
破線
 48
5.0
100
AcDbLine
 10
7141.461099046285
 20
1573.141384512921
 30
0.0
 11
7093.461099046284
 21
1573.141384512921
 31
0.0
  0
LINE
  5
15CEE
330
747D
100
AcDbEntity
  8
破線
 48
5.0
100
AcDbLine
 10
4669.461099046283
 20
1573.141384512926
 30
0.0
 11
4621.461099046281
 21
1573.141384512926
 31
0.0
  0
LINE
  5
15CF0
330
747D
100
AcDbEntity
  8
部品1
100
AcDbLine
 10
4566.461099046283
 20
3798.141384512922
 30
0.0
 11
7196.461099046286
 21
3798.141384512923
 31
0.0
  0
LINE
  5
15D20
330
747D
100
AcDbEntity
  8
細線
100
AcDbLine
 10
4669.461099046279
 20
3458.141384512921
 30
0.0
 11
7093.461099046281
 21
3458.141384512921
 31
0.0
  0
LINE
  5
15D21
330
747D
100
AcDbEntity
  8
細線
100
AcDbLine
 10
4669.461099046279
 20
3523.141384512921
 30
0.0
 11
7093.461099046281
 21
3523.141384512921
 31
0.0
  0
LINE
  5
15D22
330
747D
100
AcDbEntity
  8
細線
100
AcDbLine
 10
4669.461099046279
 20
3588.141384512921
 30
0.0
 11
7093.461099046281
 21
3588.141384512921
 31
0.0
  0
LINE
  5
15D23
330
747D
100
AcDbEntity
  8
細線
100
AcDbLine
 10
4669.461099046279
 20
3068.141384512921
 30
0.0
 11
7093.461099046281
 21
3068.141384512921
 31
0.0
  0
LINE
  5
15D24
330
747D
100
AcDbEntity
  8
細線
100
AcDbLine
 10
4669.461099046279
 20
3133.141384512921
 30
0.0
 11
7093.461099046281
 21
3133.141384512921
 31
0.0
  0
LINE
  5
15D25
330
747D
100
AcDbEntity
  8
細線
100
AcDbLine
 10
4669.461099046279
 20
3198.141384512921
 30
0.0
 11
7093.461099046281
 21
3198.141384512921
 31
0.0
  0
LINE
  5
15D26
330
747D
100
AcDbEntity
  8
細線
100
AcDbLine
 10
4669.461099046279
 20
3263.141384512921
 30
0.0
 11
7093.461099046281
 21
3263.141384512921
 31
0.0
  0
LINE
  5
15D27
330
747D
100
AcDbEntity
  8
細線
100
AcDbLine
 10
4669.461099046279
 20
3328.141384512921
 30
0.0
 11
7093.461099046281
 21
3328.141384512921
 31
0.0
  0
LINE
  5
15D28
330
747D
100
AcDbEntity
  8
細線
100
AcDbLine
 10
4669.461099046279
 20
3393.141384512921
 30
0.0
 11
7093.461099046281
 21
3393.141384512921
 31
0.0
  0
LINE
  5
15D29
330
747D
100
AcDbEntity
  8
細線
100
AcDbLine
 10
4669.461099046279
 20
2418.141384512921
 30
0.0
 11
7093.461099046281
 21
2418.141384512921
 31
0.0
  0
LINE
  5
15D2A
330
747D
100
AcDbEntity
  8
細線
100
AcDbLine
 10
4669.461099046279
 20
2483.141384512921
 30
0.0
 11
7093.461099046281
 21
2483.141384512921
 31
0.0
  0
LINE
  5
15D2B
330
747D
100
AcDbEntity
  8
細線
100
AcDbLine
 10
4669.461099046279
 20
2548.141384512921
 30
0.0
 11
7093.461099046281
 21
2548.141384512921
 31
0.0
  0
LINE
  5
15D2C
330
747D
100
AcDbEntity
  8
細線
100
AcDbLine
 10
4669.461099046279
 20
2613.141384512921
 30
0.0
 11
7093.461099046281
 21
2613.141384512921
 31
0.0
  0
LINE
  5
15D2D
330
747D
100
AcDbEntity
  8
細線
100
AcDbLine
 10
4669.461099046279
 20
2678.141384512921
 30
0.0
 11
7093.461099046281
 21
2678.141384512921
 31
0.0
  0
LINE
  5
15D2E
330
747D
100
AcDbEntity
  8
細線
100
AcDbLine
 10
4669.461099046279
 20
2743.141384512921
 30
0.0
 11
7093.461099046281
 21
2743.141384512921
 31
0.0
  0
LINE
  5
15D2F
330
747D
100
AcDbEntity
  8
細線
100
AcDbLine
 10
4669.461099046279
 20
2808.141384512921
 30
0.0
 11
7093.461099046281
 21
2808.141384512921
 31
0.0
  0
LINE
  5
15D30
330
747D
100
AcDbEntity
  8
細線
100
AcDbLine
 10
4669.461099046279
 20
2873.141384512921
 30
0.0
 11
7093.461099046281
 21
2873.141384512921
 31
0.0
  0
LINE
  5
15D31
330
747D
100
AcDbEntity
  8
細線
100
AcDbLine
 10
4669.461099046279
 20
2938.141384512921
 30
0.0
 11
7093.461099046281
 21
2938.141384512921
 31
0.0
  0
LINE
  5
15D32
330
747D
100
AcDbEntity
  8
細線
100
AcDbLine
 10
4669.461099046279
 20
3003.141384512921
 30
0.0
 11
7093.461099046281
 21
3003.141384512921
 31
0.0
  0
LINE
  5
15D33
330
747D
100
AcDbEntity
  8
細線
100
AcDbLine
 10
4669.461099046279
 20
3718.141384512921
 30
0.0
 11
7093.461099046281
 21
3718.141384512921
 31
0.0
  0
LINE
  5
15D34
330
747D
100
AcDbEntity
  8
細線
100
AcDbLine
 10
4669.461099046279
 20
3783.141384512922
 30
0.0
 11
7093.461099046281
 21
3783.141384512922
 31
0.0
  0
LINE
  5
15D35
330
747D
100
AcDbEntity
  8
細線
100
AcDbLine
 10
4669.461099046279
 20
3653.141384512921
 30
0.0
 11
7093.461099046281
 21
3653.141384512921
 31
0.0
  0
LINE
  5
15D36
330
747D
100
AcDbEntity
  8
細線
100
AcDbLine
 10
4669.461099046279
 20
1833.141384512921
 30
0.0
 11
7093.461099046281
 21
1833.141384512921
 31
0.0
  0
LINE
  5
15D37
330
747D
100
AcDbEntity
  8
細線
100
AcDbLine
 10
4669.461099046279
 20
1898.141384512921
 30
0.0
 11
7093.461099046281
 21
1898.141384512921
 31
0.0
  0
LINE
  5
15D38
330
747D
100
AcDbEntity
  8
細線
100
AcDbLine
 10
4669.461099046279
 20
1963.141384512921
 30
0.0
 11
7093.461099046281
 21
1963.141384512921
 31
0.0
  0
LINE
  5
15D39
330
747D
100
AcDbEntity
  8
細線
100
AcDbLine
 10
4669.461099046279
 20
2028.141384512921
 30
0.0
 11
7093.461099046281
 21
2028.141384512921
 31
0.0
  0
LINE
  5
15D3A
330
747D
100
AcDbEntity
  8
細線
100
AcDbLine
 10
4669.461099046279
 20
2093.141384512921
 30
0.0
 11
7093.461099046281
 21
2093.141384512921
 31
0.0
  0
LINE
  5
15D3B
330
747D
100
AcDbEntity
  8
細線
100
AcDbLine
 10
4669.461099046279
 20
2158.141384512921
 30
0.0
 11
7093.461099046281
 21
2158.141384512921
 31
0.0
  0
LINE
  5
15D3C
330
747D
100
AcDbEntity
  8
細線
100
AcDbLine
 10
4669.461099046279
 20
2223.141384512921
 30
0.0
 11
7093.461099046281
 21
2223.141384512921
 31
0.0
  0
LINE
  5
15D3D
330
747D
100
AcDbEntity
  8
細線
100
AcDbLine
 10
4669.461099046279
 20
2288.141384512921
 30
0.0
 11
7093.461099046281
 21
2288.141384512921
 31
0.0
  0
LINE
  5
15D3E
330
747D
100
AcDbEntity
  8
細線
100
AcDbLine
 10
4669.461099046279
 20
2353.141384512921
 30
0.0
 11
7093.461099046281
 21
2353.141384512921
 31
0.0
  0
LINE
  5
15D3F
330
747D
100
AcDbEntity
  8
細線
100
AcDbLine
 10
7093.461099046284
 20
1833.141384512921
 30
0.0
 11
4669.461099046279
 21
1833.141384512921
 31
0.0
  0
DIMENSION
  5
164EB
330
747D
100
AcDbEntity
  8
寸法
100
AcDbDimension
  2
*D1
 10
8208.994386520336
 20
6741.310855814369
 30
0.0
 11
8108.994386520334
 21
8476.310855814373
 31
0.0
 70
    32
 71
     5
 42
3470.000000000002
  3
INABA_S40G
100
AcDbAlignedDimension
 13
7196.461099046292
 23
10211.31085581437
 33
0.0
 14
7196.461099046263
 24
6741.310855814369
 34
0.0
 50
90.0
100
AcDbRotatedDimension
1001
ACAD
1000
DSTYLE
1002
{
1002
}
  0
LINE
  5
164EC
330
747D
100
AcDbEntity
  8
部品1
100
AcDbLine
 10
7116.461099046283
 20
10156.31085581438
 30
0.0
 11
7116.461099046268
 21
6806.310855814277
 31
0.0
  0
LINE
  5
164ED
330
747D
100
AcDbEntity
  8
部品1
100
AcDbLine
 10
4646.461099046264
 20
10156.31085581438
 30
0.0
 11
4646.461099046283
 21
6806.310855814276
 31
0.0
  0
LINE
  5
164EE
330
747D
100
AcDbEntity
  8
部品1
100
AcDbLine
 10
4621.461099046267
 20
10156.31085581441
 30
0.0
 11
4621.461099046284
 21
6806.310855814276
 31
0.0
  0
LINE
  5
164EF
330
747D
100
AcDbEntity
  8
部品1
100
AcDbLine
 10
7141.461099046281
 20
10156.31085581438
 30
0.0
 11
7141.461099046267
 21
6741.310855814365
 31
0.0
  0
LINE
  5
164F0
330
747D
100
AcDbEntity
  8
部品1
100
AcDbLine
 10
7168.461099046279
 20
10183.31085581437
 30
0.0
 11
7168.461099046268
 21
6796.310855814365
 31
0.0
  0
LINE
  5
164F1
330
747D
100
AcDbEntity
  8
部品1
100
AcDbLine
 10
7196.461099046292
 20
10211.31085581437
 30
0.0
 11
7196.461099046263
 21
6741.310855814369
 31
0.0
  0
DIMENSION
  5
164F2
330
747D
100
AcDbEntity
  8
寸法
100
AcDbDimension
  2
*D2
 10
7843.887444780699
 20
6796.310855814365
 30
0.0
 11
7743.875633757077
 21
8476.310855814373
 31
0.0
 70
    32
  1
8X420=<>
 71
     5
 42
3360.000000000014
  3
INABA_S40G
100
AcDbAlignedDimension
 13
7196.461099046292
 23
10156.31085581438
 33
0.0
 14
7196.461099046263
 24
6796.310855814365
 34
0.0
 50
90.0
100
AcDbRotatedDimension
1001
ACAD
1000
DSTYLE
1002
{
1002
}
  0
LINE
  5
164F4
330
747D
100
AcDbEntity
  8
部品1
100
AcDbLine
 10
4566.461099046256
 20
10211.31085581425
 30
0.0
 11
4566.461099046284
 21
6741.310855814238
 31
0.0
  0
LINE
  5
164F5
330
747D
100
AcDbEntity
  8
部品1
100
AcDbLine
 10
4594.461099046266
 20
6796.310855814233
 30
0.0
 11
4594.46109904628
 21
10183.31085581428
 31
0.0
  0
DIMENSION
  5
164F7
330
747D
100
AcDbEntity
  8
寸法
 48
50.0
100
AcDbDimension
  2
*D3
 10
4669.461099046284
 20
6206.880085048113
 30
0.0
 11
5881.461099046273
 21
6306.891896071735
 31
0.0
 70
    32
  1
有効開口部間口 <>
 71
     5
 42
2423.999999999979
  3
INABA_S40G
100
AcDbAlignedDimension
 13
7093.461099046263
 23
6767.310855814277
 33
0.0
 14
4669.461099046284
 24
6767.310855814277
 34
0.0
100
AcDbRotatedDimension
1001
ACAD
1000
DSTYLE
1002
{
1070
    75
1070
     1
1070
   279
1070
     2
1002
}
  0
LINE
  5
164F8
330
747D
100
AcDbEntity
  8
部品1
 48
50.0
100
AcDbLine
 10
4633.461099046283
 20
6786.810855814278
 30
0.0
 11
7129.461099046267
 21
6786.810855814278
 31
0.0
  0
DIMENSION
  5
164F9
330
747D
100
AcDbEntity
  8
寸法
100
AcDbDimension
  2
*D4
 10
7196.461099046263
 20
5920.707089457239
 30
0.0
 11
5881.461099046273
 21
6020.718900480861
 31
0.0
 70
    32
 71
     5
 42
2629.999999999979
  3
INABA_S40G
100
AcDbAlignedDimension
 13
4566.461099046284
 23
6741.310855814205
 33
0.0
 14
7196.461099046263
 24
6741.310855814332
 34
0.0
100
AcDbRotatedDimension
1001
ACAD
1000
DSTYLE
1002
{
1002
}
  0
DIMENSION
  5
164FA
330
747D
100
AcDbEntity
  8
寸法
 48
50.0
100
AcDbDimension
  2
*D5
 10
4566.461099046284
 20
6206.880085048113
 30
0.0
 11
4257.975817672046
 21
6206.880085048113
 31
0.0
 70
   160
 71
     5
 42
54.99999999999634
  3
INABA_S40G
100
AcDbAlignedDimension
 13
4621.461099046281
 23
6741.310855814275
 33
0.0
 14
4566.461099046284
 24
6741.310855814274
 34
0.0
100
AcDbRotatedDimension
1001
ACAD
1000
DSTYLE
1002
{
1002
}
  0
DIMENSION
  5
164FB
330
747D
100
AcDbEntity
  8
寸法
 48
50.0
100
AcDbDimension
  2
*D6
 10
4621.461099046281
 20
6206.880085048113
 30
0.0
 11
4782.363070046342
 21
6306.880085048113
 31
0.0
 70
   160
 71
     5
 42
48.00000000000363
  3
INABA_S40G
100
AcDbAlignedDimension
 13
4669.461099046284
 23
6767.310855814277
 33
0.0
 14
4621.461099046281
 24
6741.310855814275
 34
0.0
100
AcDbRotatedDimension
1001
ACAD
1000
DSTYLE
1002
{
1070
   279
1070
     2
1002
}
  0
LINE
  5
164FC
330
747D
100
AcDbEntity
  8
部品1
100
AcDbLine
 10
4621.461099046279
 20
6741.310855814275
 30
0.0
 11
4566.461099046284
 21
6741.310855814274
 31
0.0
  0
LINE
  5
164FD
330
747D
100
AcDbEntity
  8
部品1
 48
50.0
100
AcDbLine
 10
4621.461099046284
 20
6777.310855814275
 30
0.0
 11
4598.461099046284
 21
6777.310855814275
 31
0.0
  0
LINE
  5
164FE
330
747D
100
AcDbEntity
  8
部品1
 48
50.0
100
AcDbLine
 10
4631.461099046284
 20
6767.310855814277
 30
0.0
 11
4621.461099046284
 21
6746.310855814276
 31
0.0
  0
LINE
  5
164FF
330
747D
100
AcDbEntity
  8
部品1
 48
50.0
100
AcDbLine
 10
4621.461099046284
 20
6806.310855814276
 30
0.0
 11
4621.461099046281
 21
6741.310855814275
 31
0.0
  0
LINE
  5
16500
330
747D
100
AcDbEntity
  8
部品1
 48
50.0
100
AcDbLine
 10
4669.461099046284
 20
6767.310855814277
 30
0.0
 11
4669.461099046284
 21
6776.310855814277
 31
0.0
  0
LINE
  5
16501
330
747D
100
AcDbEntity
  8
部品1
 48
50.0
100
AcDbLine
 10
4669.461099046284
 20
6806.310855814277
 30
0.0
 11
4669.461099046284
 21
6797.310855814278
 31
0.0
  0
LINE
  5
16502
330
747D
100
AcDbEntity
  8
部品1
100
AcDbLine
 10
4669.461099046284
 20
6806.310855814277
 30
0.0
 11
4621.461099046284
 21
6806.310855814277
 31
0.0
  0
LINE
  5
16503
330
747D
100
AcDbEntity
  8
部品1
100
AcDbLine
 10
4669.461099046284
 20
6767.310855814277
 30
0.0
 11
4621.461099046284
 21
6767.310855814277
 31
0.0
  0
LINE
  5
16504
330
747D
100
AcDbEntity
  8
部品1
100
AcDbLine
 10
4621.461099046284
 20
6777.310855814275
 30
0.0
 11
4598.461099046284
 21
6777.310855814275
 31
0.0
  0
LINE
  5
16505
330
747D
100
AcDbEntity
  8
部品1
100
AcDbLine
 10
4621.461099046284
 20
6796.310855814201
 30
0.0
 11
4566.461099046281
 21
6796.310855814201
 31
0.0
  0
LINE
  5
16506
330
747D
100
AcDbEntity
  8
部品1
100
AcDbLine
 10
4594.461099046266
 20
6796.310855814238
 30
0.0
 11
4566.461099046281
 21
6796.310855814238
 31
0.0
  0
LINE
  5
16507
330
747D
100
AcDbEntity
  8
部品1
100
AcDbLine
 10
4594.461099046283
 20
6796.310855814252
 30
0.0
 11
4566.461099046281
 21
6796.310855814252
 31
0.0
  0
LINE
  5
16508
330
747D
100
AcDbEntity
  8
部品1
100
AcDbLine
 10
4566.461099046267
 20
7216.310855814391
 30
0.0
 11
4594.461099046267
 21
7216.310855814391
 31
0.0
  0
LINE
  5
1650A
330
747D
100
AcDbEntity
  8
部品1
100
AcDbLine
 10
4566.461099046267
 20
7636.310855814392
 30
0.0
 11
4594.461099046267
 21
7636.310855814392
 31
0.0
  0
LINE
  5
1650B
330
747D
100
AcDbEntity
  8
部品1
100
AcDbLine
 10
4566.461099046267
 20
8056.310855814391
 30
0.0
 11
4594.461099046267
 21
8056.310855814391
 31
0.0
  0
LINE
  5
1650C
330
747D
100
AcDbEntity
  8
部品1
100
AcDbLine
 10
4566.461099046267
 20
8476.310855814391
 30
0.0
 11
4594.461099046267
 21
8476.310855814391
 31
0.0
  0
LINE
  5
1650D
330
747D
100
AcDbEntity
  8
部品1
100
AcDbLine
 10
4594.461099046269
 20
8896.310855814252
 30
0.0
 11
4566.461099046271
 21
8896.310855814252
 31
0.0
  0
DIMENSION
  5
1650E
330
747D
100
AcDbEntity
  8
寸法
 48
50.0
100
AcDbDimension
  2
*D7
 10
7093.461099046263
 20
6206.880085048113
 30
0.0
 11
6982.498201397518
 21
6306.880085048113
 31
0.0
 70
   160
 71
     5
 42
48.00000000000363
  3
INABA_S40G
100
AcDbAlignedDimension
 13
7141.461099046267
 23
6741.310855814365
 33
0.0
 14
7093.461099046263
 24
6767.310855814277
 34
0.0
100
AcDbRotatedDimension
1001
ACAD
1000
DSTYLE
1002
{
1070
   279
1070
     2
1002
}
  0
DIMENSION
  5
1650F
330
747D
100
AcDbEntity
  8
寸法
 48
50.0
100
AcDbDimension
  2
*D8
 10
7141.461099046267
 20
6206.880085048114
 30
0.0
 11
7504.946380420505
 21
6206.880085048114
 31
0.0
 70
   160
 71
     5
 42
54.99999999999636
  3
INABA_S40G
100
AcDbAlignedDimension
 13
7196.461099046263
 23
6741.310855814369
 33
0.0
 14
7141.461099046267
 24
6741.310855814365
 34
0.0
100
AcDbRotatedDimension
1001
ACAD
1000
DSTYLE
1002
{
1002
}
  0
DIMENSION
  5
16510
330
747D
100
AcDbEntity
  8
寸法
100
AcDbDimension
  2
*D9
 10
7843.887444780678
 20
6741.310855814369
 30
0.0
 11
7843.887444780676
 21
6363.449388909507
 31
0.0
 70
   160
 71
     5
 42
54.99999999999636
  3
INABA_S40G
100
AcDbAlignedDimension
 13
7196.461099046263
 23
6796.310855814365
 33
0.0
 14
7196.461099046263
 24
6741.310855814369
 34
0.0
 50
90.0
100
AcDbRotatedDimension
1001
ACAD
1000
DSTYLE
1002
{
1002
}
  0
LINE
  5
16511
330
747D
100
AcDbEntity
  8
部品1
 48
50.0
100
AcDbLine
 10
7131.461099046267
 20
6767.310855814277
 30
0.0
 11
7141.461099046265
 21
6746.310855814276
 31
0.0
  0
LINE
  5
16512
330
747D
100
AcDbEntity
  8
部品1
100
AcDbLine
 10
7141.461099046265
 20
6777.310855814275
 30
0.0
 11
7164.461099046267
 21
6777.310855814275
 31
0.0
  0
LINE
  5
16513
330
747D
100
AcDbEntity
  8
部品1
 48
50.0
100
AcDbLine
 10
7093.461099046263
 20
6806.310855814277
 30
0.0
 11
7093.461099046263
 21
6797.310855814278
 31
0.0
  0
LINE
  5
16514
330
747D
100
AcDbEntity
  8
部品1
100
AcDbLine
 10
7093.461099046263
 20
6806.310855814277
 30
0.0
 11
7141.461099046267
 21
6806.310855814277
 31
0.0
  0
LINE
  5
16515
330
747D
100
AcDbEntity
  8
部品1
 48
50.0
100
AcDbLine
 10
7093.461099046263
 20
6767.310855814277
 30
0.0
 11
7093.461099046263
 21
6776.310855814277
 31
0.0
  0
LINE
  5
16516
330
747D
100
AcDbEntity
  8
部品1
100
AcDbLine
 10
7093.461099046263
 20
6767.310855814277
 30
0.0
 11
7141.461099046265
 21
6767.310855814277
 31
0.0
  0
LINE
  5
16517
330
747D
100
AcDbEntity
  8
部品1
100
AcDbLine
 10
7141.461099046265
 20
6796.31085581438
 30
0.0
 11
7196.461099046299
 21
6796.31085581438
 31
0.0
  0
LINE
  5
16518
330
747D
100
AcDbEntity
  8
部品1
100
AcDbLine
 10
7196.461099046263
 20
6741.310855814369
 30
0.0
 11
7141.461099046267
 21
6741.310855814366
 31
0.0
  0
LINE
  5
16519
330
747D
100
AcDbEntity
  8
部品1
100
AcDbLine
 10
7168.461099046296
 20
7216.310855814379
 30
0.0
 11
7196.461099046295
 21
7216.310855814379
 31
0.0
  0
LINE
  5
1651B
330
747D
100
AcDbEntity
  8
部品1
100
AcDbLine
 10
7168.461099046296
 20
7636.310855814379
 30
0.0
 11
7196.461099046295
 21
7636.310855814379
 31
0.0
  0
LINE
  5
1651C
330
747D
100
AcDbEntity
  8
部品1
100
AcDbLine
 10
7168.461099046296
 20
8056.310855814379
 30
0.0
 11
7196.461099046295
 21
8056.310855814379
 31
0.0
  0
LINE
  5
1651D
330
747D
100
AcDbEntity
  8
部品1
100
AcDbLine
 10
7168.461099046296
 20
8476.31085581438
 30
0.0
 11
7196.461099046295
 21
8476.31085581438
 31
0.0
  0
LINE
  5
1651E
330
747D
100
AcDbEntity
  8
部品1
100
AcDbLine
 10
7168.461099046296
 20
8896.31085581438
 30
0.0
 11
7196.461099046295
 21
8896.31085581438
 31
0.0
  0
LINE
  5
16523
330
747D
100
AcDbEntity
  8
部品1
100
AcDbLine
 10
4566.461099046288
 20
10211.31085581428
 30
0.0
 11
7196.461099046292
 21
10211.31085581437
 31
0.0
  0
DIMENSION
  5
16528
330
747D
100
AcDbEntity
  8
寸法
100
AcDbDimension
  2
*D10
 10
7141.461099046292
 20
10427.11907543938
 30
0.0
 11
5881.461099046291
 21
10527.130886463
 31
0.0
 70
    32
  1
6X420=<>
 71
     5
 42
2520.000000000001
  3
INABA_S40G
100
AcDbAlignedDimension
 13
4621.461099046291
 23
10211.31085581428
 33
0.0
 14
7141.461099046292
 24
10211.31085581437
 34
0.0
100
AcDbRotatedDimension
1001
ACAD
1000
DSTYLE
1002
{
1002
}
  0
DIMENSION
  5
1652B
330
747D
100
AcDbEntity
  8
寸法
100
AcDbDimension
  2
*D11
 10
4621.461099046291
 20
10427.11907543926
 30
0.0
 11
4257.975817672017
 21
10427.11907543926
 31
0.0
 70
   160
 71
     5
 42
55.00000000003456
  3
INABA_S40G
100
AcDbAlignedDimension
 13
4566.461099046256
 23
10211.31085581428
 33
0.0
 14
4621.461099046291
 24
10211.31085581428
 34
0.0
100
AcDbRotatedDimension
1001
ACAD
1000
DSTYLE
1002
{
1002
}
  0
LINE
  5
1652E
330
747D
100
AcDbEntity
  8
部品1
100
AcDbLine
 10
4594.461099046265
 20
9316.310855814252
 30
0.0
 11
4566.461099046265
 21
9316.310855814252
 31
0.0
  0
LINE
  5
1652F
330
747D
100
AcDbEntity
  8
部品1
100
AcDbLine
 10
4621.461099046256
 20
10211.31085581425
 30
0.0
 11
4621.461099046258
 21
10183.31085581425
 31
0.0
  0
LINE
  5
16530
330
747D
100
AcDbEntity
  8
部品1
100
AcDbLine
 10
4621.461099046291
 20
10211.31085581428
 30
0.0
 11
4621.461099046291
 21
10183.31085581428
 31
0.0
  0
LINE
  5
16531
330
747D
100
AcDbEntity
  8
部品1
100
AcDbLine
 10
4594.461099046258
 20
10156.31085581425
 30
0.0
 11
4566.461099046256
 21
10156.31085581425
 31
0.0
  0
LINE
  5
16533
330
747D
100
AcDbEntity
  8
部品1
100
AcDbLine
 10
5041.461099046291
 20
10211.31085581439
 30
0.0
 11
5041.461099046291
 21
10183.3108558144
 31
0.0
  0
LINE
  5
16534
330
747D
100
AcDbEntity
  8
部品1
100
AcDbLine
 10
5041.461099046291
 20
10211.31085581428
 30
0.0
 11
5041.461099046291
 21
10183.31085581428
 31
0.0
  0
LINE
  5
16535
330
747D
100
AcDbEntity
  8
部品1
100
AcDbLine
 10
5041.461099046291
 20
10211.31085581428
 30
0.0
 11
5041.461099046291
 21
10183.31085581428
 31
0.0
  0
LINE
  5
16537
330
747D
100
AcDbEntity
  8
部品1
100
AcDbLine
 10
5461.461099046291
 20
10211.31085581439
 30
0.0
 11
5461.461099046291
 21
10183.3108558144
 31
0.0
  0
LINE
  5
16538
330
747D
100
AcDbEntity
  8
部品1
100
AcDbLine
 10
5461.461099046291
 20
10211.31085581428
 30
0.0
 11
5461.461099046291
 21
10183.31085581428
 31
0.0
  0
LINE
  5
16539
330
747D
100
AcDbEntity
  8
部品1
100
AcDbLine
 10
5461.461099046291
 20
10211.31085581428
 30
0.0
 11
5461.461099046291
 21
10183.31085581428
 31
0.0
  0
LINE
  5
1653E
330
747D
100
AcDbEntity
  8
部品1
100
AcDbLine
 10
4594.461099046287
 20
10183.31085581439
 30
0.0
 11
5868.961099046289
 21
10183.31085581438
 31
0.0
  0
LINE
  5
16554
330
747D
100
AcDbEntity
  8
部品1
100
AcDbLine
 10
5881.46109904629
 20
10211.31085581439
 30
0.0
 11
5881.46109904629
 21
10183.3108558144
 31
0.0
  0
LINE
  5
16555
330
747D
100
AcDbEntity
  8
部品1
100
AcDbLine
 10
6301.46109904629
 20
10211.31085581439
 30
0.0
 11
6301.46109904629
 21
10183.3108558144
 31
0.0
  0
DIMENSION
  5
16556
330
747D
100
AcDbEntity
  8
寸法
100
AcDbDimension
  2
*D12
 10
7843.887444780701
 20
10156.31085581438
 30
0.0
 11
7843.887444780699
 21
10519.79613718861
 31
0.0
 70
   160
 71
     5
 42
54.9999999999909
  3
INABA_S40G
100
AcDbAlignedDimension
 13
7196.461099046292
 23
10211.31085581437
 33
0.0
 14
7196.461099046292
 24
10156.31085581438
 34
0.0
 50
90.0
100
AcDbRotatedDimension
1001
ACAD
1000
DSTYLE
1002
{
1002
}
  0
DIMENSION
  5
16557
330
747D
100
AcDbEntity
  8
寸法
100
AcDbDimension
  2
*D13
 10
7196.461099046292
 20
10427.11907543936
 30
0.0
 11
7504.94638042053
 21
10427.11907543936
 31
0.0
 70
   160
 71
     5
 42
55.0
  3
INABA_S40G
100
AcDbAlignedDimension
 13
7141.461099046292
 23
10211.31085581437
 33
0.0
 14
7196.461099046292
 24
10211.31085581437
 34
0.0
100
AcDbRotatedDimension
1001
ACAD
1000
DSTYLE
1002
{
1002
}
  0
LINE
  5
1655B
330
747D
100
AcDbEntity
  8
部品1
100
AcDbLine
 10
7168.461099046291
 20
9316.310855814379
 30
0.0
 11
7196.461099046292
 21
9316.310855814379
 31
0.0
  0
LINE
  5
1655C
330
747D
100
AcDbEntity
  8
部品1
100
AcDbLine
 10
7141.461099046292
 20
10211.31085581437
 30
0.0
 11
7141.461099046292
 21
10183.31085581437
 31
0.0
  0
LINE
  5
1655D
330
747D
100
AcDbEntity
  8
部品1
100
AcDbLine
 10
7141.461099046292
 20
10211.31085581439
 30
0.0
 11
7141.461099046292
 21
10183.3108558144
 31
0.0
  0
LINE
  5
1655E
330
747D
100
AcDbEntity
  8
部品1
100
AcDbLine
 10
7168.461099046291
 20
10156.31085581438
 30
0.0
 11
7196.461099046292
 21
10156.31085581438
 31
0.0
  0
LINE
  5
1673B
330
747D
100
AcDbEntity
  8
部品1
 48
50.0
100
AcDbLine
 10
7168.461099046279
 20
10183.31085581437
 30
0.0
 11
7141.461099046281
 21
10156.31085581438
 31
0.0
  0
LINE
  5
1673C
330
747D
100
AcDbEntity
  8
部品1
 48
50.0
100
AcDbLine
 10
4646.461099046265
 20
10131.31085581438
 30
0.0
 11
7116.461099046285
 21
10131.31085581438
 31
0.0
  0
LINE
  5
1673D
330
747D
100
AcDbEntity
  8
部品1
 48
50.0
100
AcDbLine
 10
4594.461099046305
 20
10183.31085581437
 30
0.0
 11
4621.461099046301
 21
10156.31085581438
 31
0.0
  0
LINE
  5
1673E
330
747D
100
AcDbEntity
  8
部品1
 48
50.0
100
AcDbLine
 10
4621.461099046301
 20
10156.31085581438
 30
0.0
 11
7141.461099046281
 21
10156.31085581438
 31
0.0
  0
LINE
  5
1684A
330
747D
100
AcDbEntity
  8
部品1
100
AcDbLine
 10
5881.46109904629
 20
10211.31085581433
 30
0.0
 11
5881.46109904629
 21
10183.31085581434
 31
0.0
  0
LINE
  5
1684B
330
747D
100
AcDbEntity
  8
部品1
100
AcDbLine
 10
5868.961099046291
 20
10175.31085581432
 30
0.0
 11
5893.961099046292
 21
10175.31085581432
 31
0.0
  0
LINE
  5
1684C
330
747D
100
AcDbEntity
  8
部品1
100
AcDbLine
 10
5910.46109904629
 20
10201.31085581432
 30
0.0
 11
5916.461099046292
 21
10201.31085581432
 31
0.0
  0
LINE
  5
1684D
330
747D
100
AcDbEntity
  8
部品1
100
AcDbLine
 10
5916.461099046292
 20
10201.31085581432
 30
0.0
 11
5916.461099046292
 21
10183.31085581432
 31
0.0
  0
LINE
  5
1684E
330
747D
100
AcDbEntity
  8
部品1
100
AcDbLine
 10
5846.46109904629
 20
10201.31085581432
 30
0.0
 11
5852.461099046291
 21
10201.31085581432
 31
0.0
  0
LINE
  5
1684F
330
747D
100
AcDbEntity
  8
部品1
100
AcDbLine
 10
5846.46109904629
 20
10201.31085581432
 30
0.0
 11
5846.46109904629
 21
10183.31085581432
 31
0.0
  0
LINE
  5
16850
330
747D
100
AcDbEntity
  8
部品1
 48
50.0
100
AcDbLine
 10
5868.961099046291
 20
10175.31085581432
 30
0.0
 11
5868.961099046289
 21
10183.31085581434
 31
0.0
  0
LINE
  5
16851
330
747D
100
AcDbEntity
  8
部品1
 48
50.0
100
AcDbLine
 10
5893.961099046292
 20
10175.31085581432
 30
0.0
 11
5893.961099046292
 21
10183.31085581433
 31
0.0
  0
LINE
  5
16852
330
747D
100
AcDbEntity
  8
部品1
100
AcDbLine
 10
5893.961099046292
 20
10183.31085581438
 30
0.0
 11
7168.461099046291
 21
10183.31085581437
 31
0.0
  0
LINE
  5
1690D
330
747D
100
AcDbEntity
  8
仕様書枠
 48
50.0
100
AcDbLine
 10
16307.2
 20
11239.6
 30
0.0
 11
13127.2
 21
11239.6
 31
0.0
  0
LINE
  5
1690E
330
747D
100
AcDbEntity
  8
仕様書枠
 48
50.0
100
AcDbLine
 10
13127.2
 20
11239.6
 30
0.0
 11
13127.2
 21
8349.600000000004
 31
0.0
  0
LINE
  5
1690F
330
747D
100
AcDbEntity
  8
仕様書枠
 48
50.0
100
AcDbLine
 10
16307.2
 20
8349.600000000002
 30
0.0
 11
16307.2
 21
11239.6
 31
0.0
  0
LINE
  5
16910
330
747D
100
AcDbEntity
  8
仕様書枠
 48
50.0
100
AcDbLine
 10
14785.2
 20
11239.6
 30
0.0
 11
14785.2
 21
8859.600000000002
 31
0.0
  0
LINE
  5
16911
330
747D
100
AcDbEntity
  8
仕様書枠
 48
50.0
100
AcDbLine
 10
13490.2
 20
11239.6
 30
0.0
 11
13490.20000000001
 21
8859.600000000005
 31
0.0
  0
LINE
  5
16912
330
747D
100
AcDbEntity
  8
仕様書枠
 48
50.0
100
AcDbLine
 10
16307.2
 20
11069.6
 30
0.0
 11
13127.2
 21
11069.6
 31
0.0
  0
LINE
  5
16913
330
747D
100
AcDbEntity
  8
仕様書枠
 48
50.0
100
AcDbLine
 10
16307.2
 20
10729.6
 30
0.0
 11
13127.2
 21
10729.6
 31
0.0
  0
LINE
  5
16914
330
747D
100
AcDbEntity
  8
仕様書枠
 48
50.0
100
AcDbLine
 10
16307.2
 20
10899.6
 30
0.0
 11
13127.2
 21
10899.6
 31
0.0
  0
LINE
  5
16915
330
747D
100
AcDbEntity
  8
仕様書枠
 48
50.0
100
AcDbLine
 10
16307.19999999999
 20
10389.6
 30
0.0
 11
13127.2
 21
10389.6
 31
0.0
  0
LINE
  5
16916
330
747D
100
AcDbEntity
  8
仕様書枠
 48
50.0
100
AcDbLine
 10
16307.19999999999
 20
10219.6
 30
0.0
 11
13127.2
 21
10219.6
 31
0.0
  0
LINE
  5
16917
330
747D
100
AcDbEntity
  8
仕様書枠
 48
50.0
100
AcDbLine
 10
16307.19999999999
 20
10559.6
 30
0.0
 11
13127.2
 21
10559.6
 31
0.0
  0
TEXT
  5
16918
330
747D
100
AcDbEntity
  8
文字
 62
     7
 48
50.0
100
AcDbText
 10
13197.42518560407
 20
11100.01374588373
 30
0.0
 40
100.0
  1
品番
  7
STYLE1
100
AcDbText
  0
TEXT
  5
16919
330
747D
100
AcDbEntity
  8
文字
 62
     7
 48
50.0
100
AcDbText
 10
13271.19032244792
 20
10930.01374588373
 30
0.0
 40
100.0
  1
1
  7
STYLE1
100
AcDbText
  0
TEXT
  5
1691A
330
747D
100
AcDbEntity
  8
文字
 62
     7
 48
50.0
100
AcDbText
 10
13271.19032244792
 20
10760.01374588373
 30
0.0
 40
100.0
  1
2
  7
STYLE1
100
AcDbText
  0
TEXT
  5
1691B
330
747D
100
AcDbEntity
  8
文字
 62
     7
 48
50.0
100
AcDbText
 10
13271.19032244792
 20
10420.01374588373
 30
0.0
 40
100.0
  1
4
  7
STYLE1
100
AcDbText
  0
TEXT
  5
1691C
330
747D
100
AcDbEntity
  8
文字
 62
     7
 48
50.0
100
AcDbText
 10
13271.19032244792
 20
10590.01374588373
 30
0.0
 40
100.0
  1
3
  7
STYLE1
100
AcDbText
  0
TEXT
  5
1691D
330
747D
100
AcDbEntity
  8
文字
 62
     7
 48
50.0
100
AcDbText
 10
13732.03840939435
 20
11100.01374588373
 30
0.0
 40
100.0
  1
部　　品　　名
  7
STYLE1
100
AcDbText
  0
TEXT
  5
1691E
330
747D
100
AcDbEntity
  8
文字
 62
     7
 48
50.0
100
AcDbText
 10
14859.79774614482
 20
11100.01374588373
 30
0.0
 40
100.0
  1
材料（材質）　　単位mm
  7
STYLE1
100
AcDbText
  0
TEXT
  5
1691F
330
747D
100
AcDbEntity
  8
文字
 62
     7
 48
50.0
100
AcDbText
 10
13583.11819016569
 20
10930.01374588373
 30
0.0
 40
100.0
  1
土台枠
  7
STYLE1
100
AcDbText
  0
TEXT
  5
16920
330
747D
100
AcDbEntity
  8
文字
 62
     7
 48
50.0
100
AcDbText
 10
13583.11819016569
 20
10760.01374588373
 30
0.0
 40
100.0
  1
柱
  7
STYLE1
100
AcDbText
  0
TEXT
  5
16921
330
747D
100
AcDbEntity
  8
文字
 62
     7
 48
50.0
100
AcDbText
 10
13583.11819016569
 20
10590.01374588373
 30
0.0
 40
100.0
  1
桁前
  7
STYLE1
100
AcDbText
  0
TEXT
  5
16922
330
747D
100
AcDbEntity
  8
文字
 62
     7
 48
50.0
100
AcDbText
 10
13583.11819016569
 20
10420.01374588373
 30
0.0
 40
100.0
  1
桁後
  7
STYLE1
100
AcDbText
  0
TEXT
  5
16923
330
747D
100
AcDbEntity
  8
文字
 62
     7
 48
50.0
100
AcDbText
 10
13271.19032244792
 20
10250.01374588373
 30
0.0
 40
100.0
  1
5
  7
STYLE1
100
AcDbText
  0
TEXT
  5
16924
330
747D
100
AcDbEntity
  8
文字
 62
     7
 48
50.0
100
AcDbText
 10
13583.11819016569
 20
10250.01374588373
 30
0.0
 40
100.0
  1
妻板左右
  7
STYLE1
100
AcDbText
  0
TEXT
  5
16925
330
747D
100
AcDbEntity
  8
文字
 62
     7
 48
50.0
100
AcDbText
 10
13583.11819016569
 20
9060.013745883729
 30
0.0
 40
100.0
  1
シャッターレール
  7
STYLE1
100
AcDbText
  0
TEXT
  5
16926
330
747D
100
AcDbEntity
  8
文字
 62
     7
 48
50.0
100
AcDbText
 10
13248.77747366448
 20
9400.013745883729
 30
0.0
 40
100.0
  1
10
  7
STYLE1
100
AcDbText
  0
TEXT
  5
16927
330
747D
100
AcDbEntity
  8
文字
 62
     7
 48
50.0
100
AcDbText
 10
13583.11819016569
 20
9570.013745883732
 30
0.0
 40
100.0
  1
壁パネル
  7
STYLE1
100
AcDbText
  0
TEXT
  5
16928
330
747D
100
AcDbEntity
  8
文字
 62
     7
 48
50.0
100
AcDbText
 10
13583.11819016569
 20
9740.013745883729
 30
0.0
 40
100.0
  1
屋根パネル
  7
STYLE1
100
AcDbText
  0
TEXT
  5
16929
330
747D
100
AcDbEntity
  8
文字
 62
     7
 48
50.0
100
AcDbText
 10
13583.11819016569
 20
9910.01374588373
 30
0.0
 40
100.0
  1
母屋中
  7
STYLE1
100
AcDbText
  0
TEXT
  5
1692A
330
747D
100
AcDbEntity
  8
文字
 62
     7
 48
50.0
100
AcDbText
 10
13583.11819016569
 20
10080.01374588373
 30
0.0
 40
100.0
  1
鼻隠シ前後
  7
STYLE1
100
AcDbText
  0
TEXT
  5
1692B
330
747D
100
AcDbEntity
  8
文字
 62
     7
 48
50.0
100
AcDbText
 10
13271.19032244792
 20
9740.013745883729
 30
0.0
 40
100.0
  1
8
  7
STYLE1
100
AcDbText
  0
TEXT
  5
1692C
330
747D
100
AcDbEntity
  8
文字
 62
     7
 48
50.0
100
AcDbText
 10
13271.19032244792
 20
9570.013745883732
 30
0.0
 40
100.0
  1
9
  7
STYLE1
100
AcDbText
  0
TEXT
  5
1692D
330
747D
100
AcDbEntity
  8
文字
 62
     7
 48
50.0
100
AcDbText
 10
13271.19032244792
 20
9910.01374588373
 30
0.0
 40
100.0
  1
7
  7
STYLE1
100
AcDbText
  0
TEXT
  5
1692E
330
747D
100
AcDbEntity
  8
文字
 62
     7
 48
50.0
100
AcDbText
 10
13271.19032244792
 20
10080.01374588373
 30
0.0
 40
100.0
  1
6
  7
STYLE1
100
AcDbText
  0
LINE
  5
1692F
330
747D
100
AcDbEntity
  8
仕様書枠
 48
50.0
100
AcDbLine
 10
16307.19999999999
 20
9369.600000000001
 30
0.0
 11
13127.2
 21
9369.600000000003
 31
0.0
  0
LINE
  5
16930
330
747D
100
AcDbEntity
  8
仕様書枠
 48
50.0
100
AcDbLine
 10
16307.19999999999
 20
9539.6
 30
0.0
 11
13127.2
 21
9539.6
 31
0.0
  0
LINE
  5
16931
330
747D
100
AcDbEntity
  8
仕様書枠
 48
50.0
100
AcDbLine
 10
16307.2
 20
10049.6
 30
0.0
 11
13127.2
 21
10049.6
 31
0.0
  0
LINE
  5
16932
330
747D
100
AcDbEntity
  8
仕様書枠
 48
50.0
100
AcDbLine
 10
16307.2
 20
9879.600000000001
 30
0.0
 11
13127.2
 21
9879.600000000001
 31
0.0
  0
TEXT
  5
16933
330
747D
100
AcDbEntity
  8
文字
 62
     7
 48
50.0
100
AcDbText
 10
13248.77747366448
 20
9230.013745883729
 30
0.0
 40
100.0
  1
11
  7
STYLE1
100
AcDbText
  0
TEXT
  5
16934
330
747D
100
AcDbEntity
  8
文字
 62
     7
 48
50.0
100
AcDbText
 10
13583.11819016569
 20
9230.013745883729
 30
0.0
 40
100.0
  1
シャッターカバー
 41
0.9
  7
STYLE1
100
AcDbText
  0
LINE
  5
16935
330
747D
100
AcDbEntity
  8
仕様書枠
 48
50.0
100
AcDbLine
 10
16307.19999999999
 20
9199.600000000001
 30
0.0
 11
13127.2
 21
9199.600000000003
 31
0.0
  0
TEXT
  5
16937
330
747D
100
AcDbEntity
  8
文字
 62
     7
 48
50.0
100
AcDbText
 10
13583.11819016569
 20
8890.013745883733
 30
0.0
 40
100.0
  1
棚板（別売）
  7
STYLE1
100
AcDbText
  0
LINE
  5
16938
330
747D
100
AcDbEntity
  8
仕様書枠
 48
50.0
100
AcDbLine
 10
16307.19999999999
 20
9029.6
 30
0.0
 11
13127.2
 21
9029.600000000003
 31
0.0
  0
TEXT
  5
16939
330
747D
100
AcDbEntity
  8
文字
 62
     7
 48
50.0
100
AcDbText
 10
13583.11819016569
 20
9400.013745883732
 30
0.0
 40
100.0
  1
シャッター
  7
STYLE1
100
AcDbText
  0
TEXT
  5
1693A
330
747D
100
AcDbEntity
  8
文字
 62
     7
 48
50.0
100
AcDbText
 10
13248.77747366448
 20
8890.013745883733
 30
0.0
 40
100.0
  1
13
  7
STYLE1
100
AcDbText
  0
TEXT
  5
1693B
330
747D
100
AcDbEntity
  8
文字
 62
     7
 48
50.0
100
AcDbText
 10
13248.77747366448
 20
9060.013745883733
 30
0.0
 40
100.0
  1
12
  7
STYLE1
100
AcDbText
  0
TEXT
  5
1693C
330
747D
100
AcDbEntity
  8
文字
 62
     7
 48
50.0
100
AcDbText
 10
15022.63965474517
 20
10930.01374588373
 30
0.0
 40
100.0
  1
F12            1.2
  7
STYLE1
100
AcDbText
  0
TEXT
  5
1693E
330
747D
100
AcDbEntity
  8
文字
 62
     7
 48
50.0
100
AcDbText
 10
15022.63965474517
 20
10590.01374588372
 30
0.0
 40
100.0
  1
Y10            1.0
  7
STYLE1
100
AcDbText
  0
TEXT
  5
1693F
330
747D
100
AcDbEntity
  8
文字
 62
     7
 48
50.0
100
AcDbText
 10
15022.63965474516
 20
10420.01374588373
 30
0.0
 40
100.0
  1
Y10            1.0
  7
STYLE1
100
AcDbText
  0
TEXT
  5
16940
330
747D
100
AcDbEntity
  8
文字
 62
     7
 48
50.0
100
AcDbText
 10
15022.63965474517
 20
10250.01374588372
 30
0.0
 40
100.0
  1
Y10            0.7
  7
STYLE1
100
AcDbText
  0
TEXT
  5
16941
330
747D
100
AcDbEntity
  8
文字
 62
     7
 48
50.0
100
AcDbText
 10
15022.63965474516
 20
10080.01374588373
 30
0.0
 40
100.0
  1
Y10            0.7
  7
STYLE1
100
AcDbText
  0
TEXT
  5
16943
330
747D
100
AcDbEntity
  8
文字
 62
     7
 48
50.0
100
AcDbText
 10
15022.63965474517
 20
9740.013745883729
 30
0.0
 40
100.0
  1
Y10            0.5
  7
STYLE1
100
AcDbText
  0
TEXT
  5
16944
330
747D
100
AcDbEntity
  8
文字
 62
     7
 48
50.0
100
AcDbText
 10
15022.63965474516
 20
9570.013745883729
 30
0.0
 40
100.0
  1
F12            0.7
  7
STYLE1
100
AcDbText
  0
TEXT
  5
16945
330
747D
100
AcDbEntity
  8
文字
 62
     7
 48
50.0
100
AcDbText
 10
14850.83183167176
 20
9060.013745883729
 30
0.0
 40
100.0
  1
アルミニウム合金押出形材
  7
STYLE1
100
AcDbText
  0
TEXT
  5
16947
330
747D
100
AcDbEntity
  8
文字
 62
     7
 48
50.0
100
AcDbText
 10
15022.63965474516
 20
9400.013745883729
 30
0.0
 40
100.0
  1
Z08            0.5
  7
STYLE1
100
AcDbText
  0
TEXT
  5
16948
330
747D
100
AcDbEntity
  8
文字
 62
     7
 48
50.0
100
AcDbText
 10
15022.63965474516
 20
8890.013745883729
 30
0.0
 40
100.0
  1
F12            0.6
  7
STYLE1
100
AcDbText
  0
LINE
  5
16949
330
747D
100
AcDbEntity
  8
仕様書枠
 48
50.0
100
AcDbLine
 10
16307.19999999999
 20
8689.600000000003
 30
0.0
 11
13127.2
 21
8689.600000000003
 31
0.0
  0
LINE
  5
1694A
330
747D
100
AcDbEntity
  8
仕様書枠
 48
50.0
100
AcDbLine
 10
16307.19999999999
 20
8519.600000000002
 30
0.0
 11
13127.2
 21
8519.600000000002
 31
0.0
  0
LINE
  5
1694B
330
747D
100
AcDbEntity
  8
仕様書枠
 48
50.0
100
AcDbLine
 10
16307.19999999999
 20
8349.600000000002
 30
0.0
 11
13127.2
 21
8349.600000000004
 31
0.0
  0
TEXT
  5
1694C
330
747D
100
AcDbEntity
  8
文字
 62
     7
 48
50.0
100
AcDbText
 10
13229.83081656555
 20
8720.013745883731
 30
0.0
 40
100.0
  1
F12→溶融亜鉛めっき鋼板(JIS G 3302)
  7
STYLE1
100
AcDbText
  0
TEXT
  5
1694D
330
747D
100
AcDbEntity
  8
文字
 62
     7
 48
50.0
100
AcDbText
 10
13229.83081656555
 20
8550.013745883731
 30
0.0
 40
100.0
  1
Y10→溶融亜鉛-5％アルミニウム合金めっき鋼板(JIS G 3317)
 41
0.9
  7
STYLE1
100
AcDbText
  0
LINE
  5
1694F
330
747D
100
AcDbEntity
  8
仕様書枠
 48
50.0
100
AcDbLine
 10
16307.19999999999
 20
9709.600000000001
 30
0.0
 11
13127.2
 21
9709.600000000005
 31
0.0
  0
TEXT
  5
16ECB
330
747D
100
AcDbEntity
  8
部品1
100
AcDbText
 10
11234.72029457642
 20
880.2478552944045
 30
0.0
 40
135.0
  1
側面図
  7
STYLE2
100
AcDbText
  0
LWPOLYLINE
  5
16ECC
330
747D
100
AcDbEntity
  8
部品1
100
AcDbPolyline
 90
        4
 70
     1
 43
0.0
 10
11145.27419315281
 20
1073.141384512928
 10
11145.27419315281
 20
833.2490629673952
 10
11908.74485938125
 20
833.2490629673952
 10
11908.74485938125
 20
1073.141384512928
  0
TEXT
  5
16F75
330
747D
100
AcDbEntity
  8
文字
 62
     7
 48
50.0
100
AcDbText
 10
14528.81784699908
 20
483.8967129911416
 30
0.0
 40
160.0
  1
FXN-2634H
  7
MSPゴシック
100
AcDbText
  0
DIMENSION
  5
16F76
330
747D
100
AcDbEntity
  8
寸法
 48
50.0
100
AcDbDimension
  2
*D14
 10
4566.461099046288
 20
4603.867656244831
 30
0.0
 11
5881.461099046288
 21
4603.867656244831
 31
0.0
 70
   160
  1
柱外寸法<>
 71
     5
 42
2630.0
  3
INABA_S40G
100
AcDbAlignedDimension
 13
7196.461099046288
 23
4198.141384512927
 33
0.0
 14
4566.461099046288
 24
4198.141384512928
 34
0.0
100
AcDbRotatedDimension
  0
DIMENSION
  5
16F77
330
747D
100
AcDbEntity
  8
寸法
 48
50.0
100
AcDbDimension
  2
*D15
 10
7246.461099046284
 20
4803.776577458922
 30
0.0
 11
5881.461099046286
 21
4803.776577458922
 31
0.0
 70
   160
 71
     5
 42
2729.999999999997
  3
INABA_S40G
100
AcDbAlignedDimension
 13
4516.461099046288
 23
4198.141384512927
 33
0.0
 14
7246.461099046284
 24
4198.141384512925
 34
0.0
100
AcDbRotatedDimension
  0
DIMENSION
  5
16F78
330
747D
100
AcDbEntity
  8
寸法
 48
50.0
100
AcDbDimension
  2
*D16
 10
4516.461099046288
 20
4603.867656244831
 30
0.0
 11
4202.975817672039
 21
4603.867656244831
 31
0.0
 70
   160
 71
     5
 42
50.0
  3
INABA_S40G
100
AcDbAlignedDimension
 13
4566.461099046288
 23
4198.141384512928
 33
0.0
 14
4516.461099046288
 24
4198.141384512927
 34
0.0
100
AcDbRotatedDimension
1001
ACAD
1000
DSTYLE
1002
{
1002
}
  0
LINE
  5
16FA5
330
747D
100
AcDbEntity
  8
部品1
100
AcDbLine
 10
4516.880760061618
 20
4190.744859117687
 30
0.0
 11
4518.014157393967
 21
4170.768731135087
 31
0.0
  0
LINE
  5
16FA6
330
747D
100
AcDbEntity
  8
部品1
100
AcDbLine
 10
4529.451177715544
 20
4075.111323968026
 30
0.0
 11
4530.096083522653
 21
4063.744859117687
 31
0.0
  0
LINE
  5
16FA7
330
747D
100
AcDbEntity
  8
部品1
100
AcDbLine
 10
4521.215147190695
 20
4167.311323968029
 30
0.0
 11
4526.250187918805
 21
4078.568731135084
 31
0.0
  0
ARC
  5
16FA8
330
747D
100
AcDbEntity
  8
部品1
 48
50.0
100
AcDbCircle
 10
4518.219964294512
 20
4167.141384512928
 30
0.0
 40
3.0
100
AcDbArc
 50
3.247342790337681
 51
82.34187279263656
  0
ARC
  5
16FA9
330
747D
100
AcDbEntity
  8
部品1
 48
50.0
100
AcDbCircle
 10
4526.455994819354
 20
4074.941384512924
 30
0.0
 40
3.0
100
AcDbArc
 50
3.247342790337681
 51
82.34187279263656
  0
ARC
  5
16FAA
330
747D
100
AcDbEntity
  8
部品1
 48
50.0
100
AcDbCircle
 10
4526.949063927914
 20
4078.608383674608
 30
0.0
 40
0.7
100
AcDbArc
 50
183.2473427902922
 51
262.3418727926365
  0
ARC
  5
16FAB
330
747D
100
AcDbEntity
  8
部品1
 48
50.0
100
AcDbCircle
 10
4518.713033403075
 20
4170.808383674612
 30
0.0
 40
0.7
100
AcDbArc
 50
183.2473427903897
 51
262.3418727926365
  0
ARC
  5
16FAC
330
747D
100
AcDbEntity
  8
部品1
100
AcDbCircle
 10
4537.084843613751
 20
4064.141384512928
 30
0.0
 40
7.0
100
AcDbArc
 50
183.2473427903377
 51
270.0
  0
ARC
  5
16FAD
330
747D
100
AcDbEntity
  8
部品1
100
AcDbCircle
 10
4523.869520152717
 20
4191.141384512927
 30
0.0
 40
7.0
100
AcDbArc
 50
90.0
 51
183.2473427903377
  0
LINE
  5
16FAE
330
747D
100
AcDbEntity
  8
細線
 48
50.0
100
AcDbLine
 10
4549.461099046288
 20
4198.141384512926
 30
0.0
 11
4549.461099046288
 21
4057.141384512926
 31
0.0
  0
LINE
  5
16FAF
330
747D
100
AcDbEntity
  8
細線
 48
50.0
100
AcDbLine
 10
7236.185530299987
 20
4077.941384512917
 30
0.0
 11
4526.736667792558
 21
4077.941384512928
 31
0.0
  0
LINE
  5
16FB0
330
747D
100
AcDbEntity
  8
細線
 48
50.0
100
AcDbLine
 10
7244.421560824853
 20
4170.141384512928
 30
0.0
 11
4518.500637267729
 21
4170.141384512924
 31
0.0
  0
LINE
  5
16FB1
330
747D
100
AcDbEntity
  8
部品1
 48
50.0
100
AcDbLine
 10
7225.837354478821
 20
4057.141384512926
 30
0.0
 11
4537.084843613751
 21
4057.141384512926
 31
0.0
  0
LINE
  5
16FB2
330
747D
100
AcDbEntity
  8
部品1
 48
50.0
100
AcDbLine
 10
7239.052677939856
 20
4198.141384512925
 30
0.0
 11
4523.869520152717
 21
4198.141384512928
 31
0.0
  0
LINE
  5
16FB3
330
747D
100
AcDbEntity
  8
部品1
100
AcDbLine
 10
4566.461099046284
 20
3963.141384512921
 30
0.0
 11
7196.461099046285
 21
3963.14138451292
 31
0.0
  0
DIMENSION
  5
16FB4
330
747D
100
AcDbEntity
  8
寸法
 48
50.0
100
AcDbDimension
  2
*D17
 10
7196.461099046288
 20
4603.867656244831
 30
0.0
 11
7559.946380420523
 21
4603.867656244831
 31
0.0
 70
   160
 71
     5
 42
49.99999999999636
  3
INABA_S40G
100
AcDbAlignedDimension
 13
7246.461099046284
 23
4198.141384512925
 33
0.0
 14
7196.461099046288
 24
4198.141384512927
 34
0.0
100
AcDbRotatedDimension
  0
ARC
  5
16FB5
330
747D
100
AcDbEntity
  8
部品1
100
AcDbCircle
 10
7239.052677939856
 20
4191.141384512927
 30
0.0
 40
7.0
100
AcDbArc
 50
356.7526572096623
 51
90.0
  0
ARC
  5
16FB6
330
747D
100
AcDbEntity
  8
部品1
100
AcDbCircle
 10
7225.837354478821
 20
4064.141384512928
 30
0.0
 40
7.0
100
AcDbArc
 50
270.0
 51
356.7526572096623
  0
ARC
  5
16FB7
330
747D
100
AcDbEntity
  8
部品1
 48
50.0
100
AcDbCircle
 10
7244.209164689499
 20
4170.808383674612
 30
0.0
 40
0.7
100
AcDbArc
 50
277.6581272073635
 51
356.7526572096103
  0
ARC
  5
16FB8
330
747D
100
AcDbEntity
  8
部品1
 48
50.0
100
AcDbCircle
 10
7235.973134164656
 20
4078.608383674608
 30
0.0
 40
0.7
100
AcDbArc
 50
277.6581272073635
 51
356.7526572097079
  0
ARC
  5
16FB9
330
747D
100
AcDbEntity
  8
部品1
 48
50.0
100
AcDbCircle
 10
7236.466203273218
 20
4074.941384512924
 30
0.0
 40
3.0
100
AcDbArc
 50
97.65812720736349
 51
176.7526572096623
  0
ARC
  5
16FBA
330
747D
100
AcDbEntity
  8
部品1
 48
50.0
100
AcDbCircle
 10
7244.702233798061
 20
4167.141384512928
 30
0.0
 40
3.0
100
AcDbArc
 50
97.65812720736349
 51
176.7526572096623
  0
LINE
  5
16FBB
330
747D
100
AcDbEntity
  8
部品1
100
AcDbLine
 10
7241.707050901876
 20
4167.311323968029
 30
0.0
 11
7236.672010173764
 21
4078.568731135084
 31
0.0
  0
LINE
  5
16FBC
330
747D
100
AcDbEntity
  8
部品1
100
AcDbLine
 10
7233.471020377027
 20
4075.111323968026
 30
0.0
 11
7232.826114569921
 21
4063.744859117687
 31
0.0
  0
LINE
  5
16FBD
330
747D
100
AcDbEntity
  8
細線
 48
50.0
100
AcDbLine
 10
7213.461099046284
 20
4198.141384512926
 30
0.0
 11
7213.461099046284
 21
4057.141384512926
 31
0.0
  0
LINE
  5
16FBE
330
747D
100
AcDbEntity
  8
部品1
100
AcDbLine
 10
7246.041438030954
 20
4190.744859117687
 30
0.0
 11
7244.908040698605
 21
4170.768731135087
 31
0.0
  0
LINE
  5
1732C
330
747D
100
AcDbEntity
  8
補助
  6
PHANTOM
 62
   230
 48
50.0
100
AcDbLine
 10
140.0
 20
0.0
 30
0.0
 11
139.9999999999995
 21
11409.6
 31
0.0
  0
LINE
  5
17731
330
747D
100
AcDbEntity
  8
細線
 48
50.0
100
AcDbLine
 10
12854.50952626705
 20
3963.141384512925
 30
0.0
 11
12854.50952626705
 21
1873.141384512925
 31
0.0
  0
LINE
  5
17732
330
747D
100
AcDbEntity
  8
細線
 48
50.0
100
AcDbLine
 10
12839.50952626705
 20
3963.141384512925
 30
0.0
 11
12839.50952626705
 21
1873.141384512925
 31
0.0
  0
LINE
  5
17733
330
747D
100
AcDbEntity
  8
細線
 48
50.0
100
AcDbLine
 10
12979.50952626705
 20
3963.141384512925
 30
0.0
 11
12979.50952626705
 21
1873.141384512925
 31
0.0
  0
LINE
  5
17734
330
747D
100
AcDbEntity
  8
細線
 48
50.0
100
AcDbLine
 10
12994.50952626705
 20
3963.141384512925
 30
0.0
 11
12994.50952626705
 21
1873.141384512925
 31
0.0
  0
LINE
  5
17735
330
747D
100
AcDbEntity
  8
細線
 48
50.0
100
AcDbLine
 10
13134.50952626705
 20
3963.141384512925
 30
0.0
 11
13134.50952626705
 21
1873.141384512925
 31
0.0
  0
LINE
  5
17736
330
747D
100
AcDbEntity
  8
細線
 48
50.0
100
AcDbLine
 10
13119.50952626705
 20
3963.141384512925
 30
0.0
 11
13119.50952626705
 21
1873.141384512925
 31
0.0
  0
LINE
  5
17737
330
747D
100
AcDbEntity
  8
部品1
100
AcDbLine
 10
12777.00952626701
 20
3963.141384512923
 30
0.0
 11
12777.00952626701
 21
1873.141384512925
 31
0.0
  0
LINE
  5
1773A
330
747D
100
AcDbEntity
  8
部品1
100
AcDbLine
 10
12357.00952626702
 20
3963.141384512923
 30
0.0
 11
12357.00952626702
 21
1873.141384512925
 31
0.0
  0
LINE
  5
1773B
330
747D
100
AcDbEntity
  8
細線
 48
50.0
100
AcDbLine
 10
12279.50952626703
 20
3963.141384512921
 30
0.0
 11
12279.50952626703
 21
1873.141384512923
 31
0.0
  0
LINE
  5
1773C
330
747D
100
AcDbEntity
  8
細線
 48
50.0
100
AcDbLine
 10
12294.50952626703
 20
3963.141384512921
 30
0.0
 11
12294.50952626703
 21
1873.141384512923
 31
0.0
  0
LINE
  5
1773D
330
747D
100
AcDbEntity
  8
細線
 48
50.0
100
AcDbLine
 10
12154.50952626703
 20
3963.141384512921
 30
0.0
 11
12154.50952626703
 21
1873.141384512923
 31
0.0
  0
LINE
  5
1773E
330
747D
100
AcDbEntity
  8
細線
 48
50.0
100
AcDbLine
 10
12139.50952626703
 20
3963.141384512921
 30
0.0
 11
12139.50952626703
 21
1873.141384512923
 31
0.0
  0
LINE
  5
1773F
330
747D
100
AcDbEntity
  8
細線
 48
50.0
100
AcDbLine
 10
11999.50952626703
 20
3963.141384512921
 30
0.0
 11
11999.50952626703
 21
1873.141384512923
 31
0.0
  0
LINE
  5
17740
330
747D
100
AcDbEntity
  8
細線
 48
50.0
100
AcDbLine
 10
12014.50952626703
 20
3963.141384512921
 30
0.0
 11
12014.50952626703
 21
1873.141384512923
 31
0.0
  0
LINE
  5
17741
330
747D
100
AcDbEntity
  8
部品1
100
AcDbLine
 10
11937.00952626702
 20
3963.141384512921
 30
0.0
 11
11937.00952626702
 21
1873.141384512923
 31
0.0
  0
DIMENSION
  5
17742
330
747D
100
AcDbEntity
  8
寸法
 48
50.0
100
AcDbDimension
  2
*D18
 10
9161.401119498654
 20
4072.48664338626
 30
0.0
 11
9172.066594757584
 21
4443.333306627958
 31
0.0
 70
   161
 71
     5
 42
141.0
  3
INABA_S40G
100
AcDbAlignedDimension
 13
9741.405546425616
 23
4196.864133347601
 33
0.0
 14
9737.352090868988
 24
4055.922409581888
 34
0.0
1001
ACAD
1000
DSTYLE
1002
{
1070
   174
1070
     0
1070
   272
1070
     1
1070
   288
1070
     0
1070
   341
1005
0
1002
}
  0
LINE
  5
17743
330
747D
100
AcDbEntity
  8
細線
 48
50.0
100
AcDbLine
 10
12699.50952626703
 20
3963.141384512923
 30
0.0
 11
12699.50952626703
 21
1873.141384512923
 31
0.0
  0
LINE
  5
17744
330
747D
100
AcDbEntity
  8
細線
 48
50.0
100
AcDbLine
 10
12714.50952626703
 20
3963.141384512923
 30
0.0
 11
12714.50952626703
 21
1873.141384512923
 31
0.0
  0
LINE
  5
17745
330
747D
100
AcDbEntity
  8
細線
 48
50.0
100
AcDbLine
 10
12574.50952626703
 20
3963.141384512923
 30
0.0
 11
12574.50952626703
 21
1873.141384512923
 31
0.0
  0
LINE
  5
17746
330
747D
100
AcDbEntity
  8
細線
 48
50.0
100
AcDbLine
 10
12559.50952626703
 20
3963.141384512923
 30
0.0
 11
12559.50952626703
 21
1873.141384512923
 31
0.0
  0
LINE
  5
17747
330
747D
100
AcDbEntity
  8
細線
 48
50.0
100
AcDbLine
 10
12419.50952626703
 20
3963.141384512923
 30
0.0
 11
12419.50952626703
 21
1873.141384512923
 31
0.0
  0
LINE
  5
17748
330
747D
100
AcDbEntity
  8
細線
 48
50.0
100
AcDbLine
 10
12434.50952626703
 20
3963.141384512923
 30
0.0
 11
12434.50952626703
 21
1873.141384512923
 31
0.0
  0
LINE
  5
17749
330
747D
100
AcDbEntity
  8
部品1
100
AcDbLine
 10
11097.00952626703
 20
3963.141384512921
 30
0.0
 11
11097.00952626703
 21
1873.141384512921
 31
0.0
  0
LINE
  5
1774A
330
747D
100
AcDbEntity
  8
細線
 48
50.0
100
AcDbLine
 10
10754.50952626703
 20
3963.141384512921
 30
0.0
 11
10754.50952626703
 21
1873.141384512921
 31
0.0
  0
LINE
  5
1774B
330
747D
100
AcDbEntity
  8
細線
 48
50.0
100
AcDbLine
 10
10739.50952626703
 20
3963.141384512921
 30
0.0
 11
10739.50952626703
 21
1873.141384512921
 31
0.0
  0
LINE
  5
1774C
330
747D
100
AcDbEntity
  8
細線
 48
50.0
100
AcDbLine
 10
10879.50952626703
 20
3963.141384512921
 30
0.0
 11
10879.50952626703
 21
1873.141384512921
 31
0.0
  0
LINE
  5
1774D
330
747D
100
AcDbEntity
  8
細線
 48
50.0
100
AcDbLine
 10
10894.50952626703
 20
3963.141384512921
 30
0.0
 11
10894.50952626703
 21
1873.141384512921
 31
0.0
  0
LINE
  5
1774E
330
747D
100
AcDbEntity
  8
細線
 48
50.0
100
AcDbLine
 10
11034.50952626703
 20
3963.141384512921
 30
0.0
 11
11034.50952626703
 21
1873.141384512921
 31
0.0
  0
LINE
  5
1774F
330
747D
100
AcDbEntity
  8
細線
 48
50.0
100
AcDbLine
 10
11019.50952626703
 20
3963.141384512921
 30
0.0
 11
11019.50952626703
 21
1873.141384512921
 31
0.0
  0
LINE
  5
17750
330
747D
100
AcDbEntity
  8
部品1
100
AcDbLine
 10
10677.00952626703
 20
3963.141384512921
 30
0.0
 11
10677.00952626703
 21
1873.141384512921
 31
0.0
  0
DIMENSION
  5
17751
330
747D
100
AcDbEntity
  8
寸法
 48
50.0
100
AcDbDimension
  2
*D19
 10
13332.00952626703
 20
4596.798838092227
 30
0.0
 11
13538.05677036152
 21
4596.798838092227
 31
0.0
 70
   160
 71
     5
 42
80.0
  3
INABA_S40G
100
AcDbAlignedDimension
 13
13252.00952626703
 23
4144.952064124575
 33
0.0
 14
13332.00952626703
 24
4143.141384512925
 34
0.0
100
AcDbRotatedDimension
1001
ACAD
1000
DSTYLE
1002
{
1070
   174
1070
     0
1070
   272
1070
     1
1070
   288
1070
     0
1070
   341
1005
0
1002
}
  0
LINE
  5
17752
330
747D
100
AcDbEntity
  8
細線
 48
50.0
100
AcDbLine
 10
9914.509526267034
 20
3963.141384512921
 30
0.0
 11
9914.509526267034
 21
1873.141384512921
 31
0.0
  0
LINE
  5
17753
330
747D
100
AcDbEntity
  8
細線
 48
50.0
100
AcDbLine
 10
9899.509526267033
 20
3963.141384512921
 30
0.0
 11
9899.509526267033
 21
1873.141384512921
 31
0.0
  0
LINE
  5
17754
330
747D
100
AcDbEntity
  8
細線
 48
50.0
100
AcDbLine
 10
10039.50952626703
 20
3963.141384512921
 30
0.0
 11
10039.50952626703
 21
1873.141384512921
 31
0.0
  0
LINE
  5
17755
330
747D
100
AcDbEntity
  8
細線
 48
50.0
100
AcDbLine
 10
10054.50952626703
 20
3963.141384512921
 30
0.0
 11
10054.50952626703
 21
1873.141384512921
 31
0.0
  0
LINE
  5
17756
330
747D
100
AcDbEntity
  8
細線
 48
50.0
100
AcDbLine
 10
10194.50952626703
 20
3963.141384512921
 30
0.0
 11
10194.50952626703
 21
1873.141384512921
 31
0.0
  0
LINE
  5
17757
330
747D
100
AcDbEntity
  8
細線
 48
50.0
100
AcDbLine
 10
10179.50952626703
 20
3963.141384512921
 30
0.0
 11
10179.50952626703
 21
1873.141384512921
 31
0.0
  0
LINE
  5
17758
330
747D
100
AcDbEntity
  8
細線
 48
50.0
100
AcDbLine
 10
10599.50952626703
 20
3963.141384512921
 30
0.0
 11
10599.50952626703
 21
1873.141384512921
 31
0.0
  0
LINE
  5
17759
330
747D
100
AcDbEntity
  8
細線
 48
50.0
100
AcDbLine
 10
10614.50952626703
 20
3963.141384512921
 30
0.0
 11
10614.50952626703
 21
1873.141384512921
 31
0.0
  0
LINE
  5
1775A
330
747D
100
AcDbEntity
  8
細線
 48
50.0
100
AcDbLine
 10
10474.50952626703
 20
3963.141384512921
 30
0.0
 11
10474.50952626703
 21
1873.141384512921
 31
0.0
  0
LINE
  5
1775B
330
747D
100
AcDbEntity
  8
細線
 48
50.0
100
AcDbLine
 10
10459.50952626703
 20
3963.141384512921
 30
0.0
 11
10459.50952626703
 21
1873.141384512921
 31
0.0
  0
LINE
  5
1775C
330
747D
100
AcDbEntity
  8
細線
 48
50.0
100
AcDbLine
 10
10319.50952626703
 20
3963.141384512921
 30
0.0
 11
10319.50952626703
 21
1873.141384512921
 31
0.0
  0
LINE
  5
1775D
330
747D
100
AcDbEntity
  8
細線
 48
50.0
100
AcDbLine
 10
10334.50952626703
 20
3963.141384512921
 30
0.0
 11
10334.50952626703
 21
1873.141384512921
 31
0.0
  0
LINE
  5
1775E
330
747D
100
AcDbEntity
  8
部品1
100
AcDbLine
 10
9837.00952626704
 20
1823.141384512921
 30
0.0
 11
13252.00952626703
 21
1823.141384512921
 31
0.0
  0
DIMENSION
  5
1775F
330
747D
100
AcDbEntity
  8
寸法
 48
50.0
100
AcDbDimension
  2
*D20
 10
9722.009526267033
 20
4826.912430878503
 30
0.0
 11
11527.00952626703
 21
4826.912430878503
 31
0.0
 70
   160
 71
     5
 42
3609.999999999997
  3
INABA_S40G
100
AcDbAlignedDimension
 13
13332.00952626703
 23
4143.141384512921
 33
0.0
 14
9722.009526267033
 24
4198.141384512925
 34
0.0
100
AcDbRotatedDimension
1001
ACAD
1000
DSTYLE
1002
{
1070
   174
1070
     0
1070
   272
1070
     1
1070
   288
1070
     0
1070
   341
1005
0
1002
}
  0
DIMENSION
  5
17760
330
747D
100
AcDbEntity
  8
寸法
 48
50.0
100
AcDbDimension
  2
*D21
 10
9722.009526267033
 20
4596.798838092224
 30
0.0
 11
9412.371730991441
 21
4596.798838092224
 31
0.0
 70
   160
 71
     5
 42
60.0
  3
INABA_S40G
100
AcDbAlignedDimension
 13
9782.009526267033
 23
4194.143002635898
 33
0.0
 14
9722.009526267033
 24
4198.141384512925
 34
0.0
100
AcDbRotatedDimension
1001
ACAD
1000
DSTYLE
1002
{
1070
   174
1070
     0
1070
   272
1070
     1
1070
   288
1070
     0
1070
   341
1005
0
1002
}
  0
DIMENSION
  5
17761
330
747D
100
AcDbEntity
  8
寸法
 48
50.0
100
AcDbDimension
  2
*D22
 10
9782.009526267033
 20
4596.798838092227
 30
0.0
 11
11517.00952626703
 21
4596.798838092227
 31
0.0
 70
   160
  1
柱外寸法<>
 71
     5
 42
3469.999999999997
  3
INABA_S40G
100
AcDbAlignedDimension
 13
13252.00952626703
 23
4144.952064124575
 33
0.0
 14
9782.009526267033
 24
4194.143002635898
 34
0.0
100
AcDbRotatedDimension
1001
ACAD
1000
DSTYLE
1002
{
1070
   174
1070
     0
1070
   272
1070
     1
1070
   288
1070
     0
1070
   341
1005
0
1002
}
  0
LINE
  5
17762
330
747D
100
AcDbEntity
  8
部品1
100
AcDbLine
 10
13197.00952626703
 20
3963.141384512923
 30
0.0
 11
13197.00952626703
 21
1873.141384512923
 31
0.0
  0
LINE
  5
17763
330
747D
100
AcDbEntity
  8
部品1
100
AcDbLine
 10
13252.00952626703
 20
4017.571412294041
 30
0.0
 11
13252.00952626703
 21
1723.141384512923
 31
0.0
  0
LINE
  5
17764
330
747D
100
AcDbEntity
  8
部品1
100
AcDbLine
 10
10257.00952626703
 20
3963.141384512921
 30
0.0
 11
10257.00952626703
 21
1873.141384512921
 31
0.0
  0
DIMENSION
  5
17765
330
747D
100
AcDbEntity
  8
寸法
100
AcDbDimension
  2
*D23
 10
8938.259397083772
 20
1823.141384512921
 30
0.0
 11
8938.259397083772
 21
1517.09414041843
 31
0.0
 70
   160
 71
     5
 42
50.00000000000023
  3
INABA_S40G
100
AcDbAlignedDimension
 13
9782.009526267033
 23
1873.141384512921
 33
0.0
 14
9727.009526267034
 24
1823.141384512921
 34
0.0
 50
90.0
100
AcDbRotatedDimension
1001
ACAD
1000
DSTYLE
1002
{
1070
   174
1070
     0
1070
   272
1070
     1
1070
   288
1070
     0
1070
   341
1005
0
1002
}
  0
LINE
  5
17766
330
747D
100
AcDbEntity
  8
部品1
100
AcDbLine
 10
9782.009526267033
 20
4055.283822441799
 30
0.0
 11
9782.009526267033
 21
1723.141384512921
 31
0.0
  0
LINE
  5
17767
330
747D
100
AcDbEntity
  8
部品1
100
AcDbLine
 10
9837.009526267033
 20
3963.141384512921
 30
0.0
 11
9837.00952626704
 21
1723.141384512921
 31
0.0
  0
LINE
  5
17768
330
747D
100
AcDbEntity
  8
部品1
100
AcDbLine
 10
9837.00952626704
 20
1873.141384512921
 30
0.0
 11
13252.00952626703
 21
1873.141384512923
 31
0.0
  0
LINE
  5
17769
330
747D
100
AcDbEntity
  8
部品1
100
AcDbLine
 10
9782.009526267033
 20
3963.141384512921
 30
0.0
 11
13252.00952626702
 21
3963.141384512921
 31
0.0
  0
LINE
  5
1776A
330
747D
100
AcDbEntity
  8
部品1
100
AcDbLine
 10
13197.00952626702
 20
3963.141384512925
 30
0.0
 11
13197.00952626702
 21
1873.141384512925
 31
0.0
  0
LINE
  5
1776B
330
747D
100
AcDbEntity
  8
細線
 48
50.0
100
AcDbLine
 10
11439.50952626703
 20
3963.141384512921
 30
0.0
 11
11439.50952626703
 21
1873.141384512921
 31
0.0
  0
LINE
  5
1776C
330
747D
100
AcDbEntity
  8
細線
 48
50.0
100
AcDbLine
 10
11454.50952626703
 20
3963.141384512921
 30
0.0
 11
11454.50952626703
 21
1873.141384512921
 31
0.0
  0
LINE
  5
1776D
330
747D
100
AcDbEntity
  8
細線
 48
50.0
100
AcDbLine
 10
11314.50952626703
 20
3963.141384512921
 30
0.0
 11
11314.50952626703
 21
1873.141384512921
 31
0.0
  0
LINE
  5
1776E
330
747D
100
AcDbEntity
  8
細線
 48
50.0
100
AcDbLine
 10
11299.50952626703
 20
3963.141384512921
 30
0.0
 11
11299.50952626703
 21
1873.141384512921
 31
0.0
  0
LINE
  5
1776F
330
747D
100
AcDbEntity
  8
細線
 48
50.0
100
AcDbLine
 10
11159.50952626703
 20
3963.141384512921
 30
0.0
 11
11159.50952626703
 21
1873.141384512921
 31
0.0
  0
LINE
  5
17770
330
747D
100
AcDbEntity
  8
細線
 48
50.0
100
AcDbLine
 10
11174.50952626703
 20
3963.141384512921
 30
0.0
 11
11174.50952626703
 21
1873.141384512921
 31
0.0
  0
TEXT
  5
17771
330
747D
100
AcDbEntity
  8
部品1
 48
50.0
100
AcDbText
 10
11842.91038415585
 20
4220.410477451228
 30
0.0
 40
120.0
  1
28
 50
90.0
  7
STYLE1
100
AcDbText
  0
TEXT
  5
17772
330
747D
100
AcDbEntity
  8
部品1
 48
50.0
100
AcDbText
 10
11365.27736149076
 20
4357.911735669509
 30
0.0
 40
120.0
  1
1000
  7
STYLE1
100
AcDbText
  0
LINE
  5
17773
330
747D
100
AcDbEntity
  8
部品1
 48
50.0
100
AcDbLine
 10
11677.00952626703
 20
4322.027713517077
 30
0.0
 11
11677.00952626703
 21
4305.827713517078
 31
0.0
  0
LINE
  5
17774
330
747D
100
AcDbEntity
  8
部品1
 48
50.0
100
AcDbLine
 10
11377.00952626703
 20
4322.027713517077
 30
0.0
 11
11677.00952626703
 21
4322.027713517077
 31
0.0
  0
LINE
  5
17775
330
747D
100
AcDbEntity
  8
部品1
100
AcDbLine
 10
9729.554512623996
 20
4196.859119847188
 30
0.0
 11
13324.6214031285
 21
4141.78218222206
 31
0.0
  0
LINE
  5
17776
330
747D
100
AcDbEntity
  8
部品1
100
AcDbLine
 10
9737.352090868988
 20
4055.922409581888
 30
0.0
 11
13306.67322680688
 21
4016.893984347682
 31
0.0
  0
LINE
  5
17777
330
747D
100
AcDbEntity
  8
細線
 48
50.0
100
AcDbLine
 10
9755.009526267032
 20
4195.541060888325
 30
0.0
 11
9749.720424711526
 21
4055.455428260971
 31
0.0
  0
LINE
  5
17778
330
747D
100
AcDbEntity
  8
細線
 48
50.0
100
AcDbLine
 10
13298.97880946072
 20
4142.29480699239
 30
0.0
 11
13294.26184337904
 21
4017.362591057473
 31
0.0
  0
LINE
  5
17779
330
747D
100
AcDbEntity
  8
部品1
 48
50.0
100
AcDbLine
 10
9722.19381218014
 20
4189.734930677614
 30
0.0
 11
9722.574071957952
 21
4169.807966231202
 31
0.0
  0
LINE
  5
1777A
330
747D
100
AcDbEntity
  8
部品1
 48
50.0
100
AcDbLine
 10
9725.642844064198
 20
4166.23268473773
 30
0.0
 11
9727.346745555561
 21
4076.942188031082
 31
0.0
  0
LINE
  5
1777B
330
747D
100
AcDbEntity
  8
細線
 48
50.0
100
AcDbLine
 10
9723.048949367845
 20
4169.158466354282
 30
0.0
 11
13328.68493411302
 21
4113.534261713454
 31
0.0
  0
LINE
  5
1777C
330
747D
100
AcDbEntity
  8
細線
 48
50.0
100
AcDbLine
 10
9727.809424605132
 20
4076.296954656419
 30
0.0
 11
13317.81308903577
 21
4036.487635681925
 31
0.0
  0
LINE
  5
1777D
330
747D
100
AcDbEntity
  8
部品1
 48
50.0
100
AcDbLine
 10
9730.415517661803
 20
4073.36690653761
 30
0.0
 11
9730.617470282236
 21
4062.783871144517
 31
0.0
  0
ARC
  5
1777E
330
747D
100
AcDbEntity
  8
部品1
 48
50.0
100
AcDbCircle
 10
9729.192538008479
 20
4189.868485085042
 30
0.0
 40
7.0
100
AcDbArc
 50
87.03587545283095
 51
181.0932240293156
  0
ARC
  5
1777F
330
747D
100
AcDbEntity
  8
部品1
 48
50.0
100
AcDbCircle
 10
9737.616196110575
 20
4062.917425551947
 30
0.0
 40
7.0
100
AcDbArc
 50
181.0932240293156
 51
267.8377559869489
  0
ARC
  5
17780
330
747D
100
AcDbEntity
  8
部品1
100
AcDbCircle
 10
9727.416063735375
 20
4073.309668934427
 30
0.0
 40
3.0
100
AcDbArc
 50
1.093224029315636
 51
80.18775403169765
  0
ARC
  5
17781
330
747D
100
AcDbEntity
  8
部品1
100
AcDbCircle
 10
9722.643390137768
 20
4166.175447134548
 30
0.0
 40
3.0
100
AcDbArc
 50
1.093224029315636
 51
80.18775403169765
  0
ARC
  5
17782
330
747D
100
AcDbEntity
  8
部品1
100
AcDbCircle
 10
9723.273944540789
 20
4169.821321671944
 30
0.0
 40
0.7
100
AcDbArc
 50
181.0932240292114
 51
260.1877540314855
  0
ARC
  5
17783
330
747D
100
AcDbEntity
  8
部品1
100
AcDbCircle
 10
9728.046618138399
 20
4076.955543471823
 30
0.0
 40
0.7
100
AcDbArc
 50
181.0932240292635
 51
260.1877540314855
  0
LINE
  5
17784
330
747D
100
AcDbEntity
  8
部品1
 48
50.0
100
AcDbLine
 10
13331.22342907774
 20
4134.08253678714
 30
0.0
 11
13329.19280788677
 21
4114.137495529361
 31
0.0
  0
LINE
  5
17785
330
747D
100
AcDbEntity
  8
部品1
 48
50.0
100
AcDbLine
 10
13325.84024140228
 20
4110.82686145645
 30
0.0
 11
13318.33346213745
 21
4037.094240711438
 31
0.0
  0
LINE
  5
17786
330
747D
100
AcDbEntity
  8
部品1
 48
50.0
100
AcDbLine
 10
13314.98089565296
 20
4033.783606638527
 30
0.0
 11
13313.90133261322
 21
4023.179989644968
 31
0.0
  0
ARC
  5
17787
330
747D
100
AcDbEntity
  8
部品1
 48
50.0
100
AcDbCircle
 10
13324.25942851298
 20
4134.791547459914
 30
0.0
 40
7.0
100
AcDbArc
 50
354.1866997665662
 51
87.03587545283095
  0
ARC
  5
17788
330
747D
100
AcDbEntity
  8
部品1
 48
50.0
100
AcDbCircle
 10
13306.93733204847
 20
4023.88900031774
 30
0.0
 40
7.0
100
AcDbArc
 50
267.8377559869489
 51
354.1866997665662
  0
ARC
  5
17789
330
747D
100
AcDbEntity
  8
部品1
100
AcDbCircle
 10
13317.96546732357
 20
4033.479744921623
 30
0.0
 40
3.0
100
AcDbArc
 50
95.0921697642102
 51
174.1866997665661
  0
ARC
  5
1778A
330
747D
100
AcDbEntity
  8
部品1
100
AcDbCircle
 10
13328.8248130729
 20
4110.522999739548
 30
0.0
 40
3.0
100
AcDbArc
 50
95.0921697642102
 51
174.1866997665661
  0
ARC
  5
1778B
330
747D
100
AcDbEntity
  8
部品1
100
AcDbCircle
 10
13328.4964078303
 20
4114.208396596636
 30
0.0
 40
0.7
100
AcDbArc
 50
275.0921697642102
 51
354.1866997665662
  0
ARC
  5
1778C
330
747D
100
AcDbEntity
  8
部品1
100
AcDbCircle
 10
13317.63706208097
 20
4037.165141778713
 30
0.0
 40
0.7
100
AcDbArc
 50
275.0921697642102
 51
354.1866997667087
  0
LINE
  5
1778D
330
747D
100
AcDbEntity
  8
部品1
100
AcDbLine
 10
11351.554512624
 20
4323.345772475938
 30
0.0
 11
11677.00952626703
 21
4305.827713517078
 31
0.0
  0
LINE
  5
1778E
330
747D
100
AcDbEntity
  8
部品1
100
AcDbLine
 10
11517.00952626703
 20
3963.141384512921
 30
0.0
 11
11517.00952626703
 21
1873.141384512923
 31
0.0
  0
LINE
  5
1778F
330
747D
100
AcDbEntity
  8
細線
 48
50.0
100
AcDbLine
 10
11594.50952626703
 20
3963.141384512921
 30
0.0
 11
11594.50952626703
 21
1873.141384512923
 31
0.0
  0
LINE
  5
17790
330
747D
100
AcDbEntity
  8
細線
 48
50.0
100
AcDbLine
 10
11579.50952626703
 20
3963.141384512921
 30
0.0
 11
11579.50952626703
 21
1873.141384512923
 31
0.0
  0
LINE
  5
17791
330
747D
100
AcDbEntity
  8
細線
 48
50.0
100
AcDbLine
 10
11719.50952626703
 20
3963.141384512921
 30
0.0
 11
11719.50952626703
 21
1873.141384512923
 31
0.0
  0
LINE
  5
17792
330
747D
100
AcDbEntity
  8
細線
 48
50.0
100
AcDbLine
 10
11734.50952626703
 20
3963.141384512921
 30
0.0
 11
11734.50952626703
 21
1873.141384512923
 31
0.0
  0
LINE
  5
17793
330
747D
100
AcDbEntity
  8
細線
 48
50.0
100
AcDbLine
 10
11874.50952626703
 20
3963.141384512921
 30
0.0
 11
11874.50952626703
 21
1873.141384512923
 31
0.0
  0
LINE
  5
17794
330
747D
100
AcDbEntity
  8
細線
 48
50.0
100
AcDbLine
 10
11859.50952626703
 20
3963.141384512921
 30
0.0
 11
11859.50952626703
 21
1873.141384512923
 31
0.0
  0
DIMENSION
  5
17795
330
747D
100
AcDbEntity
  8
寸法
100
AcDbDimension
  2
*D24
 10
13956.93668423916
 20
4143.141384512921
 30
0.0
 11
13856.92487321553
 21
2983.141384512924
 31
0.0
 70
    32
 71
     5
 42
2319.999999999998
  3
INABA_S40G
100
AcDbAlignedDimension
 13
13252.00952626703
 23
1823.141384512923
 33
0.0
 14
13332.00952626703
 24
4143.141384512921
 34
0.0
 50
90.0
100
AcDbRotatedDimension
1001
ACAD
1000
DSTYLE
1002
{
1070
   174
1070
     0
1070
   272
1070
     1
1070
   288
1070
     0
1070
   341
1005
0
1002
}
  0
DIMENSION
  5
17796
330
747D
100
AcDbEntity
  8
寸法
100
AcDbDimension
  2
*D25
 10
8638.259397083773
 20
4198.141384512921
 30
0.0
 11
8538.247586060149
 21
3010.64138451292
 31
0.0
 70
    32
 71
     5
 42
2375.000000000005
  3
INABA_S40G
100
AcDbAlignedDimension
 13
9782.009526267033
 23
1823.141384512916
 33
0.0
 14
9722.009526267033
 24
4198.141384512921
 34
0.0
 50
90.0
100
AcDbRotatedDimension
1001
ACAD
1000
DSTYLE
1002
{
1070
   174
1070
     0
1070
   272
1070
     1
1070
   288
1070
     0
1070
   341
1005
0
1002
}
  0
DIMENSION
  5
17797
330
747D
100
AcDbEntity
  8
寸法
100
AcDbDimension
  2
*D26
 10
8938.259397083772
 20
1873.141384512916
 30
0.0
 11
8838.24758606015
 21
2918.141384512919
 31
0.0
 70
    32
 71
     5
 42
2090.000000000002
  3
INABA_S40G
100
AcDbAlignedDimension
 13
9782.009526267033
 23
3963.141384512918
 33
0.0
 14
9782.009526267033
 24
1873.141384512916
 34
0.0
 50
90.0
100
AcDbRotatedDimension
1001
ACAD
1000
DSTYLE
1002
{
1070
   174
1070
     0
1070
   272
1070
     1
1070
   288
1070
     0
1070
   341
1005
0
1002
}
  0
LINE
  5
1779C
330
747D
100
AcDbEntity
  8
破線
 48
5.0
100
AcDbLine
 10
9782.009526267037
 20
1723.141384512921
 30
0.0
 11
9782.009526267037
 21
1473.141384512921
 31
0.0
  0
LINE
  5
1779D
330
747D
100
AcDbEntity
  8
破線
 48
5.0
100
AcDbLine
 10
9837.009526267037
 20
1723.141384512921
 30
0.0
 11
9837.009526267037
 21
1473.141384512921
 31
0.0
  0
LINE
  5
1779E
330
747D
100
AcDbEntity
  8
破線
 48
5.0
100
AcDbLine
 10
9782.009526267037
 20
1473.141384512921
 30
0.0
 11
9837.009526267033
 21
1473.141384512921
 31
0.0
  0
LINE
  5
1779F
330
747D
100
AcDbEntity
  8
部品1
100
AcDbLine
 10
9782.009526267037
 20
1823.141384512921
 30
0.0
 11
9389.01231205819
 21
1723.141384512921
 31
0.0
  0
LINE
  5
17A68
330
747D
100
AcDbEntity
  8
部品1
100
AcDbLine
 10
7168.461099046282
 20
9736.31085581438
 30
0.0
 11
7196.46109904628
 21
9736.31085581438
 31
0.0
  0
LINE
  5
17A69
330
747D
100
AcDbEntity
  8
部品1
100
AcDbLine
 10
4594.461099046255
 20
9736.310855814252
 30
0.0
 11
4566.461099046255
 21
9736.310855814252
 31
0.0
  0
DIMENSION
  5
17D05
330
747D
100
AcDbEntity
  8
寸法
 48
50.0
100
AcDbDimension
  2
*D27
 10
7484.00420136803
 20
3771.141384512921
 30
0.0
 11
7384.004201368028
 21
2797.141384512923
 31
0.0
 70
    32
  1
有効開口部高サ <>
 71
     5
 42
1948.0
  3
INABA_S40G
100
AcDbAlignedDimension
 13
7196.461099046285
 23
1823.141384512921
 33
0.0
 14
7196.461099046285
 24
3771.141384512921
 34
0.0
 50
90.0
100
AcDbRotatedDimension
  0
DIMENSION
  5
17D06
330
747D
100
AcDbEntity
  8
寸法
 48
50.0
100
AcDbDimension
  2
*D28
 10
7484.00420136803
 20
3798.141384512922
 30
0.0
 11
7624.174024614394
 21
3799.10858435258
 31
0.0
 70
   160
 71
     5
 42
27.00000000000091
  3
INABA_S40G
100
AcDbAlignedDimension
 13
7196.461099046285
 23
3771.141384512921
 33
0.0
 14
7196.461099046285
 24
3798.141384512922
 34
0.0
 50
90.0
100
AcDbRotatedDimension
1001
ACAD
1000
DSTYLE
1002
{
1070
   279
1070
     2
1002
}
  0
DIMENSION
  5
17D07
330
747D
100
AcDbEntity
  8
寸法
 48
50.0
100
AcDbDimension
  2
*D29
 10
7484.00420136803
 20
3963.141384512921
 30
0.0
 11
7484.00420136803
 21
4201.62666588716
 31
0.0
 70
   160
 71
     5
 42
164.9999999999991
  3
INABA_S40G
100
AcDbAlignedDimension
 13
7196.461099046285
 23
3798.141384512922
 33
0.0
 14
7196.461099046285
 24
3963.141384512921
 34
0.0
 50
90.0
100
AcDbRotatedDimension
1001
ACAD
1000
DSTYLE
1002
{
1002
}
  0
TEXT
  5
17E77
330
747D
100
AcDbEntity
  8
文字
 62
     7
 48
50.0
100
AcDbText
 10
15022.63965474516
 20
9910.013745883727
 30
0.0
 40
100.0
  1
F12            1.2
  7
STYLE1
100
AcDbText
  0
LINE
  5
17E8D
330
747D
100
AcDbEntity
  8
仕様書枠
 48
50.0
100
AcDbLine
 10
16307.19999999999
 20
8859.6
 30
0.0
 11
13127.2
 21
8859.600000000005
 31
0.0
  0
TEXT
  5
17E90
330
747D
100
AcDbEntity
  8
文字
 62
     7
 48
50.0
100
AcDbText
 10
15022.63965474517
 20
10760.01374588373
 30
0.0
 40
100.0
  1
F12         1.0,1.2
  7
STYLE1
100
AcDbText
  0
TEXT
  5
17E92
330
747D
100
AcDbEntity
  8
文字
 62
     7
 48
50.0
100
AcDbText
 10
15022.63965474516
 20
9230.013745883731
 30
0.0
 40
100.0
  1
F12            0.7
  7
STYLE1
100
AcDbText
  0
LINE
  5
17ED9
330
747D
100
AcDbEntity
  8
部品1
100
AcDbLine
 10
3727.691507699903
 20
1853.045195080586
 30
0.0
 11
3652.691507699902
 21
1723.141384512921
 31
0.0
  0
TEXT
  5
17EDA
330
747D
100
AcDbEntity
  8
部品1
100
AcDbText
 10
3755.796449824675
 20
1759.248288118823
 30
0.0
 40
125.0
  1
G.L
  7
MSPゴシック
100
AcDbText
  0
LINE
  5
17EDB
330
747D
100
AcDbEntity
  8
部品1
100
AcDbLine
 10
3652.691507699902
 20
1723.141384512921
 30
0.0
 11
3577.691507699903
 21
1853.045195080586
 31
0.0
  0
LINE
  5
17EDC
330
747D
100
AcDbEntity
  8
部品1
100
AcDbLine
 10
3577.691507699903
 20
1853.045195080586
 30
0.0
 11
3727.691507699903
 21
1853.045195080586
 31
0.0
  0
LINE
  5
17FB7
330
747D
100
AcDbEntity
  8
部品1
100
AcDbLine
 10
6721.46109904629
 20
10211.31085581439
 30
0.0
 11
6721.46109904629
 21
10183.3108558144
 31
0.0
  0
ARC
  5
18036
330
747D
100
AcDbEntity
  8
部品1
 48
0.01
100
AcDbCircle
 10
6408.461099046288
 20
3995.641384512921
 30
0.0
 40
2.0
100
AcDbArc
 50
180.0
 51
270.0
  0
ARC
  5
18037
330
747D
100
AcDbEntity
  8
部品1
 48
0.01
100
AcDbCircle
 10
6408.461099046284
 20
4027.141384512921
 30
0.0
 40
2.0
100
AcDbArc
 50
90.0
 51
180.0
  0
ARC
  5
18038
330
747D
100
AcDbEntity
  8
部品1
 48
0.01
100
AcDbCircle
 10
6584.461099046284
 20
3995.641384512921
 30
0.0
 40
2.0
100
AcDbArc
 50
270.0
 51
0.0
  0
ARC
  5
18039
330
747D
100
AcDbEntity
  8
部品1
 48
0.01
100
AcDbCircle
 10
6584.461099046284
 20
4027.141384512921
 30
0.0
 40
2.0
100
AcDbArc
 50
0.0
 51
90.0
  0
LINE
  5
1803A
330
747D
100
AcDbEntity
  8
細線
100
AcDbLine
 10
6496.461099046287
 20
3999.641384512921
 30
0.0
 11
6422.461099046284
 21
3999.641384512921
 31
0.0
  0
LINE
  5
1803B
330
747D
100
AcDbEntity
  8
細線
100
AcDbLine
 10
6496.461099046283
 20
4022.641384512921
 30
0.0
 11
6570.461099046283
 21
4022.641384512921
 31
0.0
  0
LINE
  5
1803C
330
747D
100
AcDbEntity
  8
細線
100
AcDbLine
 10
6570.461099046283
 20
3999.641384512921
 30
0.0
 11
6496.461099046283
 21
3999.641384512921
 31
0.0
  0
LINE
  5
1803D
330
747D
100
AcDbEntity
  8
細線
100
AcDbLine
 10
6422.461099046284
 20
4022.641384512921
 30
0.0
 11
6496.461099046283
 21
4022.641384512921
 31
0.0
  0
LINE
  5
1803E
330
747D
100
AcDbEntity
  8
細線
100
AcDbLine
 10
6422.461099046284
 20
3999.641384512921
 30
0.0
 11
6422.461099046284
 21
4022.641384512921
 31
0.0
  0
LINE
  5
1803F
330
747D
100
AcDbEntity
  8
細線
100
AcDbLine
 10
6570.461099046283
 20
4022.641384512921
 30
0.0
 11
6570.461099046283
 21
3999.641384512921
 31
0.0
  0
LINE
  5
18040
330
747D
100
AcDbEntity
  8
部品1
 48
0.01
100
AcDbLine
 10
6406.461099046286
 20
3995.641384512921
 30
0.0
 11
6406.461099046284
 21
4027.141384512921
 31
0.0
  0
LINE
  5
18041
330
747D
100
AcDbEntity
  8
部品1
 48
0.01
100
AcDbLine
 10
6584.461099046284
 20
3993.641384512921
 30
0.0
 11
6408.461099046288
 21
3993.641384512921
 31
0.0
  0
LINE
  5
18042
330
747D
100
AcDbEntity
  8
部品1
 48
0.01
100
AcDbLine
 10
6586.461099046283
 20
4027.141384512921
 30
0.0
 11
6586.461099046283
 21
3995.641384512921
 31
0.0
  0
LINE
  5
18043
330
747D
100
AcDbEntity
  8
部品1
 48
0.01
100
AcDbLine
 10
6408.461099046284
 20
4029.141384512921
 30
0.0
 11
6584.461099046284
 21
4029.141384512921
 31
0.0
  0
LINE
  5
18044
330
747D
100
AcDbEntity
  8
細線
100
AcDbLine
 10
6570.461099046283
 20
4016.641384512921
 30
0.0
 11
6496.461099046283
 21
4016.641384512921
 31
0.0
  0
LINE
  5
18045
330
747D
100
AcDbEntity
  8
細線
100
AcDbLine
 10
6570.461099046283
 20
4010.641384512921
 30
0.0
 11
6496.461099046283
 21
4010.641384512921
 31
0.0
  0
LINE
  5
18046
330
747D
100
AcDbEntity
  8
細線
100
AcDbLine
 10
6570.461099046287
 20
4004.641384512921
 30
0.0
 11
6496.461099046283
 21
4004.641384512921
 31
0.0
  0
LINE
  5
18047
330
747D
100
AcDbEntity
  8
細線
100
AcDbLine
 10
6570.461099046283
 20
4016.641384512921
 30
0.0
 11
6501.461099046284
 21
4016.641384512921
 31
0.0
  0
LINE
  5
18048
330
747D
100
AcDbEntity
  8
細線
100
AcDbLine
 10
6422.461099046287
 20
4016.641384512921
 30
0.0
 11
6496.461099046283
 21
4016.641384512921
 31
0.0
  0
LINE
  5
18049
330
747D
100
AcDbEntity
  8
細線
100
AcDbLine
 10
6422.461099046287
 20
4004.641384512921
 30
0.0
 11
6496.461099046283
 21
4004.641384512921
 31
0.0
  0
LINE
  5
1804A
330
747D
100
AcDbEntity
  8
細線
100
AcDbLine
 10
6422.461099046287
 20
4010.641384512921
 30
0.0
 11
6496.461099046283
 21
4010.641384512921
 31
0.0
  0
LINE
  5
1804B
330
747D
100
AcDbEntity
  8
細線
100
AcDbLine
 10
6496.461099046283
 20
4022.641384512921
 30
0.0
 11
6496.461099046287
 21
3999.641384512921
 31
0.0
  0
LINE
  5
1804C
330
747D
100
AcDbEntity
  8
細線
100
AcDbLine
 10
5266.461099046287
 20
4022.641384512921
 30
0.0
 11
5266.461099046283
 21
3999.641384512921
 31
0.0
  0
LINE
  5
1804D
330
747D
100
AcDbEntity
  8
細線
100
AcDbLine
 10
5340.461099046283
 20
4010.641384512921
 30
0.0
 11
5266.461099046287
 21
4010.641384512921
 31
0.0
  0
LINE
  5
1804E
330
747D
100
AcDbEntity
  8
細線
100
AcDbLine
 10
5340.461099046283
 20
4004.641384512921
 30
0.0
 11
5266.461099046287
 21
4004.641384512921
 31
0.0
  0
LINE
  5
1804F
330
747D
100
AcDbEntity
  8
細線
100
AcDbLine
 10
5340.461099046283
 20
4016.641384512921
 30
0.0
 11
5266.461099046287
 21
4016.641384512921
 31
0.0
  0
LINE
  5
18050
330
747D
100
AcDbEntity
  8
細線
100
AcDbLine
 10
5192.461099046287
 20
4016.641384512921
 30
0.0
 11
5261.461099046287
 21
4016.641384512921
 31
0.0
  0
LINE
  5
18051
330
747D
100
AcDbEntity
  8
細線
100
AcDbLine
 10
5192.461099046283
 20
4004.641384512921
 30
0.0
 11
5266.461099046287
 21
4004.641384512921
 31
0.0
  0
LINE
  5
18052
330
747D
100
AcDbEntity
  8
細線
100
AcDbLine
 10
5192.461099046287
 20
4010.641384512921
 30
0.0
 11
5266.461099046287
 21
4010.641384512921
 31
0.0
  0
LINE
  5
18053
330
747D
100
AcDbEntity
  8
細線
100
AcDbLine
 10
5192.461099046287
 20
4016.641384512921
 30
0.0
 11
5266.461099046287
 21
4016.641384512921
 31
0.0
  0
LINE
  5
18054
330
747D
100
AcDbEntity
  8
部品1
 48
0.01
100
AcDbLine
 10
5354.461099046287
 20
4029.141384512921
 30
0.0
 11
5178.461099046288
 21
4029.141384512921
 31
0.0
  0
LINE
  5
18055
330
747D
100
AcDbEntity
  8
部品1
 48
0.01
100
AcDbLine
 10
5176.461099046287
 20
4027.141384512921
 30
0.0
 11
5176.461099046287
 21
3995.641384512921
 31
0.0
  0
LINE
  5
18056
330
747D
100
AcDbEntity
  8
部品1
 48
0.01
100
AcDbLine
 10
5178.461099046288
 20
3993.641384512921
 30
0.0
 11
5354.461099046283
 21
3993.641384512921
 31
0.0
  0
LINE
  5
18057
330
747D
100
AcDbEntity
  8
部品1
 48
0.01
100
AcDbLine
 10
5356.461099046283
 20
3995.641384512921
 30
0.0
 11
5356.461099046287
 21
4027.141384512921
 31
0.0
  0
LINE
  5
18058
330
747D
100
AcDbEntity
  8
細線
100
AcDbLine
 10
5192.461099046287
 20
4022.641384512921
 30
0.0
 11
5192.461099046287
 21
3999.641384512921
 31
0.0
  0
LINE
  5
18059
330
747D
100
AcDbEntity
  8
細線
100
AcDbLine
 10
5340.461099046287
 20
3999.641384512921
 30
0.0
 11
5340.461099046287
 21
4022.641384512921
 31
0.0
  0
LINE
  5
1805A
330
747D
100
AcDbEntity
  8
細線
100
AcDbLine
 10
5340.461099046287
 20
4022.641384512921
 30
0.0
 11
5266.461099046287
 21
4022.641384512921
 31
0.0
  0
LINE
  5
1805B
330
747D
100
AcDbEntity
  8
細線
100
AcDbLine
 10
5192.461099046287
 20
3999.641384512921
 30
0.0
 11
5266.461099046287
 21
3999.641384512921
 31
0.0
  0
LINE
  5
1805C
330
747D
100
AcDbEntity
  8
細線
100
AcDbLine
 10
5266.461099046287
 20
4022.641384512921
 30
0.0
 11
5192.461099046287
 21
4022.641384512921
 31
0.0
  0
LINE
  5
1805D
330
747D
100
AcDbEntity
  8
細線
100
AcDbLine
 10
5266.461099046283
 20
3999.641384512921
 30
0.0
 11
5340.461099046287
 21
3999.641384512921
 31
0.0
  0
ARC
  5
1805E
330
747D
100
AcDbEntity
  8
部品1
 48
0.01
100
AcDbCircle
 10
5178.461099046288
 20
4027.141384512921
 30
0.0
 40
2.0
100
AcDbArc
 50
90.0
 51
180.0
  0
ARC
  5
1805F
330
747D
100
AcDbEntity
  8
部品1
 48
0.01
100
AcDbCircle
 10
5178.461099046288
 20
3995.641384512921
 30
0.0
 40
2.0
100
AcDbArc
 50
180.0
 51
270.0
  0
ARC
  5
18060
330
747D
100
AcDbEntity
  8
部品1
 48
0.01
100
AcDbCircle
 10
5354.461099046287
 20
4027.141384512921
 30
0.0
 40
2.0
100
AcDbArc
 50
0.0
 51
90.0
  0
ARC
  5
18061
330
747D
100
AcDbEntity
  8
部品1
 48
0.01
100
AcDbCircle
 10
5354.461099046283
 20
3995.641384512921
 30
0.0
 40
2.0
100
AcDbArc
 50
270.0
 51
0.0
  0
ARC
  5
18062
330
747D
100
AcDbEntity
  8
細線
 48
50.0
100
AcDbCircle
 10
5581.461099046281
 20
2385.641384512921
 30
0.0
 40
15.0
100
AcDbArc
 50
90.0
 51
270.0
  0
ARC
  5
18063
330
747D
100
AcDbEntity
  8
細線
 48
50.0
100
AcDbCircle
 10
5681.461099046281
 20
2385.641384512921
 30
0.0
 40
15.0
100
AcDbArc
 50
270.0
 51
90.0
  0
LINE
  5
18064
330
747D
100
AcDbEntity
  8
細線
 48
50.0
100
AcDbLine
 10
5581.461099046281
 20
2400.641384512921
 30
0.0
 11
5681.461099046281
 21
2400.641384512921
 31
0.0
  0
LINE
  5
18065
330
747D
100
AcDbEntity
  8
細線
 48
50.0
100
AcDbLine
 10
5681.461099046281
 20
2370.641384512921
 30
0.0
 11
5581.461099046281
 21
2370.641384512921
 31
0.0
  0
LINE
  5
18066
330
747D
100
AcDbEntity
  8
細線
 48
50.0
100
AcDbLine
 10
6181.461099046281
 20
2370.641384512921
 30
0.0
 11
6081.461099046281
 21
2370.641384512921
 31
0.0
  0
LINE
  5
18067
330
747D
100
AcDbEntity
  8
細線
 48
50.0
100
AcDbLine
 10
6081.461099046281
 20
2400.641384512921
 30
0.0
 11
6181.461099046281
 21
2400.641384512921
 31
0.0
  0
ARC
  5
18068
330
747D
100
AcDbEntity
  8
細線
 48
50.0
100
AcDbCircle
 10
6081.461099046281
 20
2385.641384512921
 30
0.0
 40
15.0
100
AcDbArc
 50
90.0
 51
270.0
  0
ARC
  5
18069
330
747D
100
AcDbEntity
  8
細線
 48
50.0
100
AcDbCircle
 10
6181.461099046281
 20
2385.641384512921
 30
0.0
 40
15.0
100
AcDbArc
 50
270.0
 51
90.0
  0
CIRCLE
  5
1806A
330
747D
100
AcDbEntity
  8
細線
 48
50.0
100
AcDbCircle
 10
5881.461099046281
 20
2710.641384512921
 30
0.0
 40
18.0
  0
TEXT
  5
18106
330
747D
100
AcDbEntity
  8
文字
 62
     7
 48
50.0
100
AcDbText
 10
13229.83081656555
 20
8380.013745883731
 30
0.0
 40
100.0
  1
Z08→塗装溶融亜鉛めっき鋼板(JIS G 3312)
  7
STYLE1
100
AcDbText
  0
ENDSEC
  0
SECTION
  2
OBJECTS
  0
DICTIONARY
  5
7471
330
0
100
AcDbDictionary
281
     1
  3
ACAD_CIP_PREVIOUS_PRODUCT_INFO
350
180FC
  3
ACAD_COLOR
350
1675F
  3
ACAD_DETAILVIEWSTYLE
350
180F2
  3
ACAD_GROUP
350
7472
  3
ACAD_LAYOUT
350
16760
  3
ACAD_MATERIAL
350
1675E
  3
ACAD_MLEADERSTYLE
350
180EE
  3
ACAD_MLINESTYLE
350
7473
  3
ACAD_PLOTSETTINGS
350
16761
  3
ACAD_PLOTSTYLENAME
350
1675C
  3
ACAD_SCALELIST
350
180DC
  3
ACAD_SECTIONVIEWSTYLE
350
180F0
  3
ACAD_TABLESTYLE
350
180DA
  3
ACAD_VISUALSTYLE
350
180C1
  3
ACDB_RECOMPOSE_DATA
350
18138
  3
AcDbVariableDictionary
350
168BB
  3
AcDsDecomposeData
350
1813F
  3
CONTENTDICTIONARY
350
E71C
  3
DRAWINGVARIABLESDICT
350
F3B9
  3
DWGPROPS
350
18139
  0
DICTIONARY
  5
16D27
330
7467
100
AcDbDictionary
280
     1
281
     1
  3
ACAD_LAYERSTATES
360
16D28
  0
DICTIONARY
  5
18107
330
7474
100
AcDbDictionary
280
     1
281
     1
  3
ADSK_XREC_LAYER_RECONCILED
360
18108
  0
DICTIONARY
  5
18109
330
DEB3
100
AcDbDictionary
280
     1
281
     1
  3
ADSK_XREC_LAYER_RECONCILED
360
1810A
  0
DICTIONARY
  5
1810B
330
DEB4
100
AcDbDictionary
280
     1
281
     1
  3
ADSK_XREC_LAYER_RECONCILED
360
1810C
  0
DICTIONARY
  5
1810D
330
DEB5
100
AcDbDictionary
280
     1
281
     1
  3
ADSK_XREC_LAYER_RECONCILED
360
1810E
  0
DICTIONARY
  5
1810F
330
DEB6
100
AcDbDictionary
280
     1
281
     1
  3
ADSK_XREC_LAYER_RECONCILED
360
18110
  0
DICTIONARY
  5
18111
330
10B54
100
AcDbDictionary
280
     1
281
     1
  3
ADSK_XREC_LAYER_RECONCILED
360
18112
  0
DICTIONARY
  5
18113
330
11729
100
AcDbDictionary
280
     1
281
     1
  3
ADSK_XREC_LAYER_RECONCILED
360
18114
  0
DICTIONARY
  5
18115
330
1173F
100
AcDbDictionary
280
     1
281
     1
  3
ADSK_XREC_LAYER_RECONCILED
360
18116
  0
DICTIONARY
  5
18117
330
142E2
100
AcDbDictionary
280
     1
281
     1
  3
ADSK_XREC_LAYER_RECONCILED
360
18118
  0
XRECORD
  5
180FC
102
{ACAD_REACTORS
330
7471
102
}
330
7471
100
AcDbXrecord
280
     1
300
ACDLT
300
2014
300
ACDLT_F_S
  0
DICTIONARY
  5
1675F
102
{ACAD_REACTORS
330
7471
102
}
330
7471
100
AcDbDictionary
281
     1
  0
DICTIONARY
  5
180F2
102
{ACAD_REACTORS
330
7471
102
}
330
7471
100
AcDbDictionary
281
     1
  3
Metric50
350
180F3
  0
DICTIONARY
  5
7472
102
{ACAD_REACTORS
330
7471
102
}
330
7471
100
AcDbDictionary
281
     1
  0
DICTIONARY
  5
16760
102
{ACAD_REACTORS
330
7471
102
}
330
7471
100
AcDbDictionary
281
     1
  3
Model
350
16762
  3
レイアウト1
350
16763
  0
DICTIONARY
  5
1675E
102
{ACAD_REACTORS
330
7471
102
}
330
7471
100
AcDbDictionary
281
     1
  3
ByBlock
350
180B1
  3
ByLayer
350
180A9
  3
Global
350
180B9
  0
DICTIONARY
  5
180EE
102
{ACAD_REACTORS
330
7471
102
}
330
7471
100
AcDbDictionary
281
     1
  3
Standard
350
180EF
  0
DICTIONARY
  5
7473
102
{ACAD_REACTORS
330
7471
102
}
330
7471
100
AcDbDictionary
281
     1
  3
STANDARD
350
7480
  0
DICTIONARY
  5
16761
102
{ACAD_REACTORS
330
7471
102
}
330
7471
100
AcDbDictionary
281
     1
  0
ACDBDICTIONARYWDFLT
  5
1675C
102
{ACAD_REACTORS
330
7471
102
}
330
7471
100
AcDbDictionary
281
     1
  3
Normal
350
1675D
100
AcDbDictionaryWithDefault
340
1675D
  0
DICTIONARY
  5
180DC
102
{ACAD_REACTORS
330
7471
102
}
330
7471
100
AcDbDictionary
281
     1
  3
A0
350
180DD
  3
A1
350
180DE
  3
A2
350
180DF
  3
A3
350
180E0
  3
A4
350
180E1
  3
A5
350
180E2
  3
A6
350
180E3
  3
A7
350
180E4
  3
A8
350
180E5
  3
A9
350
180E6
  3
B0
350
180E7
  3
B1
350
180E8
  3
B2
350
180E9
  3
B3
350
180EA
  3
B4
350
180EB
  3
B5
350
180EC
  3
B6
350
180ED
  0
DICTIONARY
  5
180F0
102
{ACAD_REACTORS
330
7471
102
}
330
7471
100
AcDbDictionary
281
     1
  3
Metric50
350
180F1
  0
DICTIONARY
  5
180DA
102
{ACAD_REACTORS
330
7471
102
}
330
7471
100
AcDbDictionary
281
     1
  3
Standard
350
180DB
  0
DICTIONARY
  5
180C1
102
{ACAD_REACTORS
330
7471
102
}
330
7471
100
AcDbDictionary
281
     1
  3
2dWireframe
350
180C7
  3
Basic
350
180C6
  3
Brighten
350
180CD
  3
ColorChange
350
180D1
  3
Conceptual
350
180CA
  3
Dim
350
180CC
  3
EdgeColorOff
350
180D9
  3
Facepattern
350
180D0
  3
Flat
350
180C2
  3
FlatWithEdges
350
180C3
  3
Gouraud
350
180C4
  3
GouraudWithEdges
350
180C5
  3
Hidden
350
180C9
  3
JitterOff
350
180D7
  3
Linepattern
350
180CF
  3
OverhangOff
350
180D8
  3
Realistic
350
180CB
  3
Shaded
350
180D6
  3
Shaded with edges
350
180D5
  3
Shades of Gray
350
180D2
  3
Sketchy
350
180D3
  3
Thicken
350
180CE
  3
Wireframe
350
180C8
  3
X-Ray
350
180D4
  0
XRECORD
  5
18138
102
{ACAD_REACTORS
330
7471
102
}
330
7471
100
AcDbXrecord
280
     1
 90
        1
330
164F7
330
164FB
330
1650E
330
17D06
330
180DB
  0
DICTIONARY
  5
168BB
102
{ACAD_REACTORS
330
7471
102
}
330
7471
100
AcDbDictionary
281
     1
  3
CANNOSCALE
350
18132
  3
CMLEADERSTYLE
350
1812F
  3
CTABLESTYLE
350
1812E
  3
CVIEWDETAILSTYLE
350
18130
  3
CVIEWSECTIONSTYLE
350
18131
  3
DIMASSOC
350
168BC
  3
INDEXCTL
350
18134
  3
PROJECTNAME
350
168BD
  3
SORTENTS
350
18133
  3
XCLIPFRAME
350
18135
  0
DICTIONARY
  5
1813F
102
{ACAD_REACTORS
330
7471
102
}
330
7471
100
AcDbDictionary
281
     1
  3
AcDsRecords
350
18141
  3
AcDsSchemas
350
18140
1001
ACAD
1070
     2
  0
DICTIONARY
  5
E71C
102
{ACAD_REACTORS
330
7471
102
}
330
7471
100
AcDbDictionary
281
     1
  0
DICTIONARY
  5
F3B9
102
{ACAD_REACTORS
330
7471
102
}
330
7471
100
AcDbDictionary
281
     1
1001
DRAWINGVARIABLESXDATA
1000
POLARMODE
1000
1
  0
XRECORD
  5
18139
102
{ACAD_REACTORS
330
7471
102
}
330
7471
100
AcDbXrecord
280
     1
  1
DWGPROPS COOKIE
  2

  3

  4

  6

  7

  8
ishizaki
  9

300
=
301
=
302
=
303
=
304
=
305
=
306
=
307
=
308
=
309
=
 40
0.7374232407407408
 41
2451368.612993866
 42
2456587.709029202
  1

 90
        0
  0
DICTIONARY
  5
16D28
102
{ACAD_REACTORS
330
16D27
102
}
330
16D27
100
AcDbDictionary
281
     1
  0
XRECORD
  5
18108
102
{ACAD_REACTORS
330
18107
102
}
330
18107
100
AcDbXrecord
280
     1
290
     1
  0
XRECORD
  5
1810A
102
{ACAD_REACTORS
330
18109
102
}
330
18109
100
AcDbXrecord
280
     1
290
     1
  0
XRECORD
  5
1810C
102
{ACAD_REACTORS
330
1810B
102
}
330
1810B
100
AcDbXrecord
280
     1
290
     1
  0
XRECORD
  5
1810E
102
{ACAD_REACTORS
330
1810D
102
}
330
1810D
100
AcDbXrecord
280
     1
290
     1
  0
XRECORD
  5
18110
102
{ACAD_REACTORS
330
1810F
102
}
330
1810F
100
AcDbXrecord
280
     1
290
     1
  0
XRECORD
  5
18112
102
{ACAD_REACTORS
330
18111
102
}
330
18111
100
AcDbXrecord
280
     1
290
     1
  0
XRECORD
  5
18114
102
{ACAD_REACTORS
330
18113
102
}
330
18113
100
AcDbXrecord
280
     1
290
     1
  0
XRECORD
  5
18116
102
{ACAD_REACTORS
330
18115
102
}
330
18115
100
AcDbXrecord
280
     1
290
     1
  0
XRECORD
  5
18118
102
{ACAD_REACTORS
330
18117
102
}
330
18117
100
AcDbXrecord
280
     1
290
     1
  0
ACDBDETAILVIEWSTYLE
  5
180F3
102
{ACAD_XDICTIONARY
360
1817F
102
}
102
{ACAD_REACTORS
330
180F2
102
}
330
180F2
100
AcDbModelDocViewStyle
 70
     0
  3
Metric50
290
     0
100
AcDbDetailViewStyle
 70
     0
 71
     0
 90
        3
 71
     1
340
7475
 40
5.0
340
0
 40
5.0
300

 40
0.0
280
     1
 71
     2
340
7479
 90
       25
 71
     3
340
7475
 40
5.0
 90
        0
 40
15.0
 90
        1
300
%<\AcVar ViewDetailId>% (%<\AcVar ViewScale \f "%sn">%)
 71
     4
340
7479
 90
       25
340
7479
 90
       25
280
     0
  0
LAYOUT
  5
16762
102
{ACAD_XDICTIONARY
360
18142
102
}
102
{ACAD_REACTORS
330
16760
102
}
330
16760
100
AcDbPlotSettings
  1

  2
Canon iR C3880/C4580 LIPSLX
  4
A3
  6

 40
5.873749732971191
 41
5.873747825622558
 42
5.873748779296875
 43
5.873748779296875
 44
296.9259948730469
 45
419.9466552734374
 46
0.0
 47
0.0
 48
0.0
 49
0.0
140
0.0
141
0.0
142
1.0
143
40.0
 70
 11952
 72
     1
 73
     1
 74
     2
  7
inaba.ctb
 75
    24
147
0.025
148
0.0
149
0.0
100
AcDbLayout
  1
Model
 70
     1
 71
     0
 10
0.0
 20
0.0
 11
12.0
 21
9.0
 12
0.0
 22
0.0
 32
0.0
 14
0.0
 24
0.0
 34
0.0
 15
0.0
 25
0.0
 35
0.0
146
0.0
 13
0.0
 23
0.0
 33
0.0
 16
1.0
 26
0.0
 36
0.0
 17
0.0
 27
1.0
 37
0.0
 76
     0
330
747D
331
180A7
  0
LAYOUT
  5
16763
102
{ACAD_XDICTIONARY
360
18144
102
}
102
{ACAD_REACTORS
330
16760
102
}
330
16760
100
AcDbPlotSettings
  1

  2
EPSON LP-7000C
  4

  6

 40
0.0
 41
0.0
 42
0.0
 43
0.0
 44
0.0
 45
0.0
 46
0.0
 47
0.0
 48
0.0
 49
0.0
140
0.0
141
0.0
142
1.0
143
1.0
 70
   688
 72
     0
 73
     0
 74
     5
  7
inaba.ctb
 75
    16
147
1.0
148
0.0
149
0.0
100
AcDbLayout
  1
レイアウト1
 70
     0
 71
     1
 10
0.0
 20
0.0
 11
420.0
 21
297.0
 12
0.0
 22
0.0
 32
0.0
 14
1.000000000000000E+20
 24
1.000000000000000E+20
 34
1.000000000000000E+20
 15
-1.000000000000000E+20
 25
-1.000000000000000E+20
 35
-1.000000000000000E+20
146
0.0
 13
0.0
 23
0.0
 33
0.0
 16
1.0
 26
0.0
 36
0.0
 17
0.0
 27
1.0
 37
0.0
 76
     0
330
747A
  0
MATERIAL
  5
180B1
102
{ACAD_XDICTIONARY
360
180B2
102
}
102
{ACAD_REACTORS
330
1675E
102
}
330
1675E
100
AcDbMaterial
  1
ByBlock
 72
     0
 43
0.0208333333333333
 43
0.0
 43
0.0
 43
0.0
 43
0.0
 43
0.0208333333333333
 43
0.0
 43
0.0
 43
0.0
 43
0.0
 43
1.0
 43
0.0
 43
0.0
 43
0.0
 43
0.0
 43
1.0
 77
     0
 47
0.0208333333333333
 47
0.0
 47
0.0
 47
0.0
 47
0.0
 47
0.0208333333333333
 47
0.0
 47
0.0
 47
0.0
 47
0.0
 47
1.0
 47
0.0
 47
0.0
 47
0.0
 47
0.0
 47
1.0
171
     0
 49
0.0208333333333333
 49
0.0
 49
0.0
 49
0.0
 49
0.0
 49
0.0208333333333333
 49
0.0
 49
0.0
 49
0.0
 49
0.0
 49
1.0
 49
0.0
 49
0.0
 49
0.0
 49
0.0
 49
1.0
175
     0
142
0.0208333333333333
142
0.0
142
0.0
142
0.0
142
0.0
142
0.0208333333333333
142
0.0
142
0.0
142
0.0
142
0.0
142
1.0
142
0.0
142
0.0
142
0.0
142
0.0
142
1.0
179
     0
144
0.0208333333333333
144
0.0
144
0.0
144
0.0
144
0.0
144
0.0208333333333333
144
0.0
144
0.0
144
0.0
144
0.0
144
1.0
144
0.0
144
0.0
144
0.0
144
0.0
144
1.0
147
0.0208333333333333
147
0.0
147
0.0
147
0.0
147
0.0
147
0.0208333333333333
147
0.0
147
0.0
147
0.0
147
0.0
147
1.0
147
0.0
147
0.0
147
0.0
147
0.0
147
1.0
  0
MATERIAL
  5
180A9
102
{ACAD_XDICTIONARY
360
180AA
102
}
102
{ACAD_REACTORS
330
1675E
102
}
330
1675E
100
AcDbMaterial
  1
ByLayer
 72
     0
 43
0.0208333333333333
 43
0.0
 43
0.0
 43
0.0
 43
0.0
 43
0.0208333333333333
 43
0.0
 43
0.0
 43
0.0
 43
0.0
 43
1.0
 43
0.0
 43
0.0
 43
0.0
 43
0.0
 43
1.0
 77
     0
 47
0.0208333333333333
 47
0.0
 47
0.0
 47
0.0
 47
0.0
 47
0.0208333333333333
 47
0.0
 47
0.0
 47
0.0
 47
0.0
 47
1.0
 47
0.0
 47
0.0
 47
0.0
 47
0.0
 47
1.0
171
     0
 49
0.0208333333333333
 49
0.0
 49
0.0
 49
0.0
 49
0.0
 49
0.0208333333333333
 49
0.0
 49
0.0
 49
0.0
 49
0.0
 49
1.0
 49
0.0
 49
0.0
 49
0.0
 49
0.0
 49
1.0
175
     0
142
0.0208333333333333
142
0.0
142
0.0
142
0.0
142
0.0
142
0.0208333333333333
142
0.0
142
0.0
142
0.0
142
0.0
142
1.0
142
0.0
142
0.0
142
0.0
142
0.0
142
1.0
179
     0
144
0.0208333333333333
144
0.0
144
0.0
144
0.0
144
0.0
144
0.0208333333333333
144
0.0
144
0.0
144
0.0
144
0.0
144
1.0
144
0.0
144
0.0
144
0.0
144
0.0
144
1.0
147
0.0208333333333333
147
0.0
147
0.0
147
0.0
147
0.0
147
0.0208333333333333
147
0.0
147
0.0
147
0.0
147
0.0
147
1.0
147
0.0
147
0.0
147
0.0
147
0.0
147
1.0
  0
MATERIAL
  5
180B9
102
{ACAD_XDICTIONARY
360
180BA
102
}
102
{ACAD_REACTORS
330
1675E
102
}
330
1675E
100
AcDbMaterial
  1
Global
 72
     0
 43
0.0208333333333333
 43
0.0
 43
0.0
 43
0.0
 43
0.0
 43
0.0208333333333333
 43
0.0
 43
0.0
 43
0.0
 43
0.0
 43
1.0
 43
0.0
 43
0.0
 43
0.0
 43
0.0
 43
1.0
 77
     0
 47
0.0208333333333333
 47
0.0
 47
0.0
 47
0.0
 47
0.0
 47
0.0208333333333333
 47
0.0
 47
0.0
 47
0.0
 47
0.0
 47
1.0
 47
0.0
 47
0.0
 47
0.0
 47
0.0
 47
1.0
171
     0
 49
0.0208333333333333
 49
0.0
 49
0.0
 49
0.0
 49
0.0
 49
0.0208333333333333
 49
0.0
 49
0.0
 49
0.0
 49
0.0
 49
1.0
 49
0.0
 49
0.0
 49
0.0
 49
0.0
 49
1.0
175
     0
142
0.0208333333333333
142
0.0
142
0.0
142
0.0
142
0.0
142
0.0208333333333333
142
0.0
142
0.0
142
0.0
142
0.0
142
1.0
142
0.0
142
0.0
142
0.0
142
0.0
142
1.0
179
     0
144
0.0208333333333333
144
0.0
144
0.0
144
0.0
144
0.0
144
0.0208333333333333
144
0.0
144
0.0
144
0.0
144
0.0
144
1.0
144
0.0
144
0.0
144
0.0
144
0.0
144
1.0
147
0.0208333333333333
147
0.0
147
0.0
147
0.0
147
0.0
147
0.0208333333333333
147
0.0
147
0.0
147
0.0
147
0.0
147
1.0
147
0.0
147
0.0
147
0.0
147
0.0
147
1.0
  0
MLEADERSTYLE
  5
180EF
102
{ACAD_XDICTIONARY
360
1817B
102
}
102
{ACAD_REACTORS
330
180EE
102
}
330
180EE
100
AcDbMLeaderStyle
170
     2
171
     1
172
     0
 90
        2
 40
0.0
 41
0.0
173
     1
 91
-1056964608
340
7477
 92
       -2
290
     1
 42
2.0
291
     1
 43
0.36
  3
Standard
 44
4.0
300

342
7475
174
     1
178
     6
175
     1
176
     0
 93
-1056964608
 45
4.0
292
     0
297
     0
 46
4.0
 94
-1056964608
 47
1.0
 49
1.0
140
1.0
293
     1
141
0.0
294
     1
177
     0
142
1.0
295
     0
296
     0
143
0.125
1001
ACAD_MLEADERVER
1070
     2
  0
MLINESTYLE
  5
7480
102
{ACAD_REACTORS
330
7473
102
}
330
7473
100
AcDbMlineStyle
  2
STANDARD
 70
     0
  3

 62
     0
 51
90.0
 52
90.0
 71
     2
 49
0.5
 62
   256
  6
BYLAYER
 49
-0.5
 62
   256
  6
BYLAYER
  0
ACDBPLACEHOLDER
  5
1675D
102
{ACAD_REACTORS
330
1675C
102
}
330
1675C
  0
SCALE
  5
180DD
102
{ACAD_REACTORS
330
180DC
102
}
330
180DC
100
AcDbScale
 70
     0
300
1:1
140
1.0
141
1.0
290
     1
  0
SCALE
  5
180DE
102
{ACAD_REACTORS
330
180DC
102
}
330
180DC
100
AcDbScale
 70
     0
300
1:2
140
1.0
141
2.0
290
     0
  0
SCALE
  5
180DF
102
{ACAD_REACTORS
330
180DC
102
}
330
180DC
100
AcDbScale
 70
     0
300
1:4
140
1.0
141
4.0
290
     0
  0
SCALE
  5
180E0
102
{ACAD_REACTORS
330
180DC
102
}
330
180DC
100
AcDbScale
 70
     0
300
1:5
140
1.0
141
5.0
290
     0
  0
SCALE
  5
180E1
102
{ACAD_REACTORS
330
180DC
102
}
330
180DC
100
AcDbScale
 70
     0
300
1:8
140
1.0
141
8.0
290
     0
  0
SCALE
  5
180E2
102
{ACAD_REACTORS
330
180DC
102
}
330
180DC
100
AcDbScale
 70
     0
300
1:10
140
1.0
141
10.0
290
     0
  0
SCALE
  5
180E3
102
{ACAD_REACTORS
330
180DC
102
}
330
180DC
100
AcDbScale
 70
     0
300
1:16
140
1.0
141
16.0
290
     0
  0
SCALE
  5
180E4
102
{ACAD_REACTORS
330
180DC
102
}
330
180DC
100
AcDbScale
 70
     0
300
1:20
140
1.0
141
20.0
290
     0
  0
SCALE
  5
180E5
102
{ACAD_REACTORS
330
180DC
102
}
330
180DC
100
AcDbScale
 70
     0
300
1:30
140
1.0
141
30.0
290
     0
  0
SCALE
  5
180E6
102
{ACAD_REACTORS
330
180DC
102
}
330
180DC
100
AcDbScale
 70
     0
300
1:40
140
1.0
141
40.0
290
     0
  0
SCALE
  5
180E7
102
{ACAD_REACTORS
330
180DC
102
}
330
180DC
100
AcDbScale
 70
     0
300
1:50
140
1.0
141
50.0
290
     0
  0
SCALE
  5
180E8
102
{ACAD_REACTORS
330
180DC
102
}
330
180DC
100
AcDbScale
 70
     0
300
1:100
140
1.0
141
100.0
290
     0
  0
SCALE
  5
180E9
102
{ACAD_REACTORS
330
180DC
102
}
330
180DC
100
AcDbScale
 70
     0
300
2:1
140
2.0
141
1.0
290
     0
  0
SCALE
  5
180EA
102
{ACAD_REACTORS
330
180DC
102
}
330
180DC
100
AcDbScale
 70
     0
300
4:1
140
4.0
141
1.0
290
     0
  0
SCALE
  5
180EB
102
{ACAD_REACTORS
330
180DC
102
}
330
180DC
100
AcDbScale
 70
     0
300
8:1
140
8.0
141
1.0
290
     0
  0
SCALE
  5
180EC
102
{ACAD_REACTORS
330
180DC
102
}
330
180DC
100
AcDbScale
 70
     0
300
10:1
140
10.0
141
1.0
290
     0
  0
SCALE
  5
180ED
102
{ACAD_REACTORS
330
180DC
102
}
330
180DC
100
AcDbScale
 70
     0
300
100:1
140
100.0
141
1.0
290
     0
  0
ACDBSECTIONVIEWSTYLE
  5
180F1
102
{ACAD_XDICTIONARY
360
1817D
102
}
102
{ACAD_REACTORS
330
180F0
102
}
330
180F0
100
AcDbModelDocViewStyle
 70
     0
  3
Metric50
290
     0
100
AcDbSectionViewStyle
 70
     0
 71
     0
 90
      102
 71
     1
340
7475
 40
5.0
340
0
340
0
 40
5.0
300
I, O, Q, S, X, Z
 40
10.0
 90
        0
 40
2.5
 90
        0
 71
     2
340
7479
 90
       25
340
7479
 90
       50
 40
5.0
 40
2.5
 40
5.0
 71
     3
340
7475
 40
5.0
 90
        0
 40
15.0
 90
        1
300
%<\AcVar ViewSectionStartId>%-%<\AcVar ViewSectionEndId>% (%<\AcVar ViewScale \f "%sn">%)
 71
     4
300
ANSI31
 40
1.0
 90
        0
290
     0
290
     0
 90
        6
 40
0.0
 40
1.570796326794896
 40
0.2617993877991494
 40
1.308996938995747
 40
-0.2617993877991494
 40
1.832595714594046
  0
TABLESTYLE
  5
180DB
102
{ACAD_XDICTIONARY
360
18136
102
}
102
{ACAD_REACTORS
330
180DA
102
}
330
180DA
100
AcDbTableStyle
  3
Standard
 70
     0
 71
     0
 40
1.5
 41
1.5
280
     0
281
     0
  7
STANDARD
140
4.5
170
     2
 62
     0
 63
     7
283
     0
274
    -2
284
     1
 64
     0
275
    -2
285
     1
 65
     0
276
    -2
286
     1
 66
     0
277
    -2
287
     1
 67
     0
278
    -2
288
     1
 68
     0
279
    -2
289
     1
 69
     0
  7
STANDARD
140
6.0
170
     5
 62
     0
 63
     7
283
     0
274
    -2
284
     1
 64
     0
275
    -2
285
     1
 65
     0
276
    -2
286
     1
 66
     0
277
    -2
287
     1
 67
     0
278
    -2
288
     1
 68
     0
279
    -2
289
     1
 69
     0
  7
STANDARD
140
4.5
170
     5
 62
     0
 63
     7
283
     0
274
    -2
284
     1
 64
     0
275
    -2
285
     1
 65
     0
276
    -2
286
     1
 66
     0
277
    -2
287
     1
 67
     0
278
    -2
288
     1
 68
     0
279
    -2
289
     1
 69
     0
  0
VISUALSTYLE
  5
180C7
102
{ACAD_XDICTIONARY
360
18153
102
}
102
{ACAD_REACTORS
330
180C1
102
}
330
180C1
100
AcDbVisualStyle
  2
2dWireframe
 70
     4
 71
     0
 72
     2
 73
     0
 90
        0
 40
-0.6
 41
-30.0
 62
     5
 63
     7
 74
     1
 91
        4
 64
     7
 65
   257
 75
     1
175
     1
 42
1.0
 92
        0
 66
   257
 43
1.0
 76
     1
 77
     6
 78
     2
 67
     7
 79
     5
170
     0
171
     0
290
     0
174
     0
 93
        1
 44
0.0
173
     0
291
     0
 45
0.0
1001
ACAD
1000
AcDbSavedByObjectVersion
1070
     0
  0
VISUALSTYLE
  5
180C6
102
{ACAD_XDICTIONARY
360
18151
102
}
102
{ACAD_REACTORS
330
180C1
102
}
330
180C1
100
AcDbVisualStyle
  2
Basic
 70
     7
 71
     1
 72
     0
 73
     1
 90
        0
 40
-0.6
 41
-30.0
 62
     5
 63
     7
 74
     0
 91
        4
 64
     7
 65
   257
 75
     1
175
     1
 42
1.0
 92
        8
 66
     7
 43
1.0
 76
     1
 77
     6
 78
     2
 67
     7
 79
     5
170
     0
171
     0
290
     0
174
     0
 93
        1
 44
0.0
173
     0
291
     1
 45
0.0
1001
ACAD
1000
AcDbSavedByObjectVersion
1070
     0
  0
VISUALSTYLE
  5
180CD
102
{ACAD_XDICTIONARY
360
1815F
102
}
102
{ACAD_REACTORS
330
180C1
102
}
330
180C1
100
AcDbVisualStyle
  2
Brighten
 70
    12
 71
     2
 72
     2
 73
     0
 90
        0
 40
-0.6
 41
-30.0
 62
     5
 63
     7
 74
     1
 91
        4
 64
     7
 65
   257
 75
     1
175
     1
 42
1.0
 92
        8
 66
     7
 43
1.0
 76
     1
 77
     6
 78
     2
 67
     7
 79
     5
170
     0
171
     0
290
     0
174
     0
 93
        1
 44
50.0
173
     0
291
     1
 45
0.0
1001
ACAD
1000
AcDbSavedByObjectVersion
1070
     0
  0
VISUALSTYLE
  5
180D1
102
{ACAD_XDICTIONARY
360
18167
102
}
102
{ACAD_REACTORS
330
180C1
102
}
330
180C1
100
AcDbVisualStyle
  2
ColorChange
 70
    16
 71
     2
 72
     2
 73
     3
 90
        0
 40
-0.6
 41
-30.0
 62
     5
 63
     8
 74
     1
 91
        4
 64
     7
 65
   257
 75
     1
175
     1
 42
1.0
 92
        8
 66
     8
 43
1.0
 76
     1
 77
     6
 78
     2
 67
     7
 79
     5
170
     0
171
     0
290
     0
174
     0
 93
        1
 44
0.0
173
     0
291
     1
 45
0.0
1001
ACAD
1000
AcDbSavedByObjectVersion
1070
     0
  0
VISUALSTYLE
  5
180CA
102
{ACAD_XDICTIONARY
360
18159
102
}
102
{ACAD_REACTORS
330
180C1
102
}
330
180C1
100
AcDbVisualStyle
  2
Conceptual
 70
     9
 71
     3
 72
     2
 73
     0
 90
        0
 40
-0.6
 41
-30.0
 62
     5
 63
     7
 74
     2
 91
        2
 64
     7
 65
   257
 75
     1
175
     1
 42
179.0
 92
        8
 66
     7
 43
1.0
 76
     1
 77
     6
 78
     2
 67
     7
 79
     3
170
     0
171
     0
290
     0
174
     0
 93
        1
 44
0.0
173
     0
291
     0
 45
0.0
1001
ACAD
1000
AcDbSavedByObjectVersion
1070
     0
  0
VISUALSTYLE
  5
180CC
102
{ACAD_XDICTIONARY
360
1815D
102
}
102
{ACAD_REACTORS
330
180C1
102
}
330
180C1
100
AcDbVisualStyle
  2
Dim
 70
    11
 71
     2
 72
     2
 73
     0
 90
        0
 40
-0.6
 41
-30.0
 62
     5
 63
     7
 74
     1
 91
        4
 64
     7
 65
   257
 75
     1
175
     1
 42
1.0
 92
        8
 66
     7
 43
1.0
 76
     1
 77
     6
 78
     2
 67
     7
 79
     5
170
     0
171
     0
290
     0
174
     0
 93
        1
 44
-50.0
173
     0
291
     1
 45
0.0
1001
ACAD
1000
AcDbSavedByObjectVersion
1070
     0
  0
VISUALSTYLE
  5
180D9
102
{ACAD_XDICTIONARY
360
18177
102
}
102
{ACAD_REACTORS
330
180C1
102
}
330
180C1
100
AcDbVisualStyle
  2
EdgeColorOff
 70
    22
 71
     2
 72
     2
 73
     0
 90
        0
 40
-0.6
 41
-30.0
 62
     5
 63
     7
 74
     1
 91
        4
 64
     7
 65
   257
 75
     1
175
     1
 42
1.0
 92
        8
 66
     7
 43
1.0
 76
     1
 77
     6
 78
     2
 67
     7
 79
     5
170
     0
171
     0
290
     0
174
     0
 93
        1
 44
0.0
173
     0
291
     1
 45
0.0
1001
ACAD
1000
AcDbSavedByObjectVersion
1070
     0
  0
VISUALSTYLE
  5
180D0
102
{ACAD_XDICTIONARY
360
18165
102
}
102
{ACAD_REACTORS
330
180C1
102
}
330
180C1
100
AcDbVisualStyle
  2
Facepattern
 70
    15
 71
     2
 72
     2
 73
     0
 90
        0
 40
-0.6
 41
-30.0
 62
     5
 63
     7
 74
     1
 91
        4
 64
     7
 65
   257
 75
     1
175
     1
 42
1.0
 92
        8
 66
     7
 43
1.0
 76
     1
 77
     6
 78
     2
 67
     7
 79
     5
170
     0
171
     0
290
     0
174
     0
 93
        1
 44
0.0
173
     0
291
     1
 45
0.0
1001
ACAD
1000
AcDbSavedByObjectVersion
1070
     0
  0
VISUALSTYLE
  5
180C2
102
{ACAD_XDICTIONARY
360
18149
102
}
102
{ACAD_REACTORS
330
180C1
102
}
330
180C1
100
AcDbVisualStyle
  2
Flat
 70
     0
 71
     2
 72
     1
 73
     1
 90
        2
 40
-0.6
 41
30.0
 62
     5
 63
     7
 74
     0
 91
        0
 64
     7
 65
   257
 75
     1
175
     1
 42
1.0
 92
        8
 66
     7
 43
1.0
 76
     1
 77
     6
 78
     2
 67
     7
 79
     5
170
     0
171
     0
290
     0
174
     0
 93
       13
 44
0.0
173
     0
291
     1
 45
0.0
1001
ACAD
1000
AcDbSavedByObjectVersion
1070
     0
  0
VISUALSTYLE
  5
180C3
102
{ACAD_XDICTIONARY
360
1814B
102
}
102
{ACAD_REACTORS
330
180C1
102
}
330
180C1
100
AcDbVisualStyle
  2
FlatWithEdges
 70
     1
 71
     2
 72
     1
 73
     1
 90
        2
 40
-0.6
 41
30.0
 62
     5
 63
     7
 74
     1
 91
        0
 64
     7
 65
   257
 75
     1
175
     1
 42
1.0
 92
        0
 66
   257
 43
1.0
 76
     1
 77
     6
 78
     2
 67
     7
 79
     5
170
     0
171
     0
290
     0
174
     0
 93
       13
 44
0.0
173
     0
291
     1
 45
0.0
1001
ACAD
1000
AcDbSavedByObjectVersion
1070
     0
  0
VISUALSTYLE
  5
180C4
102
{ACAD_XDICTIONARY
360
1814D
102
}
102
{ACAD_REACTORS
330
180C1
102
}
330
180C1
100
AcDbVisualStyle
  2
Gouraud
 70
     2
 71
     2
 72
     2
 73
     1
 90
        2
 40
-0.6
 41
30.0
 62
     5
 63
     7
 74
     0
 91
        0
 64
     7
 65
   257
 75
     1
175
     1
 42
1.0
 92
        0
 66
     7
 43
1.0
 76
     1
 77
     6
 78
     2
 67
     7
 79
     5
170
     0
171
     0
290
     0
174
     0
 93
       13
 44
0.0
173
     0
291
     1
 45
0.0
1001
ACAD
1000
AcDbSavedByObjectVersion
1070
     0
  0
VISUALSTYLE
  5
180C5
102
{ACAD_XDICTIONARY
360
1814F
102
}
102
{ACAD_REACTORS
330
180C1
102
}
330
180C1
100
AcDbVisualStyle
  2
GouraudWithEdges
 70
     3
 71
     2
 72
     2
 73
     1
 90
        2
 40
-0.6
 41
30.0
 62
     5
 63
     7
 74
     1
 91
        0
 64
     7
 65
   257
 75
     1
175
     1
 42
1.0
 92
        0
 66
   257
 43
1.0
 76
     1
 77
     6
 78
     2
 67
     7
 79
     5
170
     0
171
     0
290
     0
174
     0
 93
       13
 44
0.0
173
     0
291
     1
 45
0.0
1001
ACAD
1000
AcDbSavedByObjectVersion
1070
     0
  0
VISUALSTYLE
  5
180C9
102
{ACAD_XDICTIONARY
360
18157
102
}
102
{ACAD_REACTORS
330
180C1
102
}
330
180C1
100
AcDbVisualStyle
  2
Hidden
 70
     6
 71
     1
 72
     2
 73
     2
 90
        0
 40
-0.6
 41
-30.0
 62
     5
 63
     7
 74
     2
 91
        2
 64
     7
 65
   257
 75
     2
175
     1
 42
40.0
 92
        0
 66
   257
 43
1.0
 76
     1
 77
     6
 78
     2
 67
     7
 79
     3
170
     0
171
     0
290
     0
174
     0
 93
        1
 44
0.0
173
     0
291
     0
 45
0.0
1001
ACAD
1000
AcDbSavedByObjectVersion
1070
     0
  0
VISUALSTYLE
  5
180D7
102
{ACAD_XDICTIONARY
360
18173
102
}
102
{ACAD_REACTORS
330
180C1
102
}
330
180C1
100
AcDbVisualStyle
  2
JitterOff
 70
    20
 71
     2
 72
     2
 73
     0
 90
        0
 40
-0.6
 41
-30.0
 62
     5
 63
     7
 74
     1
 91
        4
 64
     7
 65
   257
 75
     1
175
     1
 42
1.0
 92
       10
 66
     7
 43
1.0
 76
     1
 77
     6
 78
     2
 67
     7
 79
     5
170
     0
171
     0
290
     0
174
     0
 93
        1
 44
0.0
173
     0
291
     1
 45
0.0
1001
ACAD
1000
AcDbSavedByObjectVersion
1070
     0
  0
VISUALSTYLE
  5
180CF
102
{ACAD_XDICTIONARY
360
18163
102
}
102
{ACAD_REACTORS
330
180C1
102
}
330
180C1
100
AcDbVisualStyle
  2
Linepattern
 70
    14
 71
     2
 72
     2
 73
     0
 90
        0
 40
-0.6
 41
-30.0
 62
     5
 63
     7
 74
     1
 91
        4
 64
     7
 65
   257
 75
     7
175
     7
 42
1.0
 92
        8
 66
     7
 43
1.0
 76
     1
 77
     6
 78
     2
 67
     7
 79
     5
170
     0
171
     0
290
     0
174
     0
 93
        1
 44
0.0
173
     0
291
     1
 45
0.0
1001
ACAD
1000
AcDbSavedByObjectVersion
1070
     0
  0
VISUALSTYLE
  5
180D8
102
{ACAD_XDICTIONARY
360
18175
102
}
102
{ACAD_REACTORS
330
180C1
102
}
330
180C1
100
AcDbVisualStyle
  2
OverhangOff
 70
    21
 71
     2
 72
     2
 73
     0
 90
        0
 40
-0.6
 41
-30.0
 62
     5
 63
     7
 74
     1
 91
        4
 64
     7
 65
   257
 75
     1
175
     1
 42
1.0
 92
        9
 66
     7
 43
1.0
 76
     1
 77
     6
 78
     2
 67
     7
 79
     5
170
     0
171
     0
290
     0
174
     0
 93
        1
 44
0.0
173
     0
291
     1
 45
0.0
1001
ACAD
1000
AcDbSavedByObjectVersion
1070
     0
  0
VISUALSTYLE
  5
180CB
102
{ACAD_XDICTIONARY
360
1815B
102
}
102
{ACAD_REACTORS
330
180C1
102
}
330
180C1
100
AcDbVisualStyle
  2
Realistic
 70
     8
 71
     2
 72
     3
 73
     0
 90
        2
 40
-0.6
 41
30.0
 62
     5
 63
     7
 74
     0
 91
        0
 64
     7
 65
   257
 75
     1
175
     1
 42
1.0
 92
        8
 66
   257
 43
1.0
 76
     1
 77
     6
 78
     2
 67
     7
 79
     3
170
     0
171
     0
290
     0
174
     0
 93
       13
 44
0.0
173
     0
291
     0
 45
0.0
1001
ACAD
1000
AcDbSavedByObjectVersion
1070
     0
  0
VISUALSTYLE
  5
180D6
102
{ACAD_XDICTIONARY
360
18171
102
}
102
{ACAD_REACTORS
330
180C1
102
}
330
180C1
100
AcDbVisualStyle
  2
Shaded
 70
    27
 71
     2
 72
     2
 73
     1
 90
        2
 40
-0.6
 41
30.0
 62
     5
 63
     7
 74
     0
 91
        4
 64
     7
 65
   257
 75
     1
175
     1
 42
1.0
 92
        8
 66
   257
 43
1.0
 76
     1
 77
     6
 78
     2
 67
     8
 79
     3
170
     0
171
     0
290
     0
174
     0
 93
        5
 44
0.0
173
     0
291
     0
 45
0.0
1001
ACAD
1000
AcDbSavedByObjectVersion
1070
     0
  0
VISUALSTYLE
  5
180D5
102
{ACAD_XDICTIONARY
360
1816F
102
}
102
{ACAD_REACTORS
330
180C1
102
}
330
180C1
100
AcDbVisualStyle
  2
Shaded with edges
 70
    26
 71
     2
 72
     2
 73
     1
 90
        2
 40
-0.6
 41
30.0
 62
     5
 63
     7
 74
     1
 91
       10
 64
     7
 65
   257
 75
     2
175
     1
 42
1.0
 92
        8
 66
   257
 43
1.0
 76
     1
 77
     6
 78
     2
 67
     7
 79
     3
170
     0
171
     0
290
     0
174
     0
 93
        5
 44
0.0
173
     0
291
     0
 45
0.0
1001
ACAD
1000
AcDbSavedByObjectVersion
1070
     0
  0
VISUALSTYLE
  5
180D2
102
{ACAD_XDICTIONARY
360
18169
102
}
102
{ACAD_REACTORS
330
180C1
102
}
330
180C1
100
AcDbVisualStyle
  2
Shades of Gray
 70
    23
 71
     2
 72
     2
 73
     3
 90
        0
 40
-0.6
 41
-30.0
 62
     5
 63
     7
 74
     2
 91
        2
 64
     7
 65
     7
 75
     1
175
     1
 42
40.0
 92
        8
 66
     7
 43
1.0
 76
     1
 77
     6
 78
     2
 67
     7
 79
     3
170
     0
171
     0
290
     0
174
     0
 93
        1
 44
0.0
173
     0
291
     0
 45
0.0
1001
ACAD
1000
AcDbSavedByObjectVersion
1070
     0
  0
VISUALSTYLE
  5
180D3
102
{ACAD_XDICTIONARY
360
1816B
102
}
102
{ACAD_REACTORS
330
180C1
102
}
330
180C1
100
AcDbVisualStyle
  2
Sketchy
 70
    24
 71
     1
 72
     2
 73
     2
 90
        0
 40
-0.6
 41
-30.0
 62
     5
 63
     7
 74
     2
 91
        2
 64
     7
 65
     7
 75
     1
175
     1
 42
40.0
 92
       11
 66
     7
 43
1.0
 76
     1
 77
     6
 78
     2
 67
     7
 79
     6
170
     0
171
     0
290
     0
174
     0
 93
        1
 44
0.0
173
     0
291
     0
 45
0.0
1001
ACAD
1000
AcDbSavedByObjectVersion
1070
     0
  0
VISUALSTYLE
  5
180CE
102
{ACAD_XDICTIONARY
360
18161
102
}
102
{ACAD_REACTORS
330
180C1
102
}
330
180C1
100
AcDbVisualStyle
  2
Thicken
 70
    13
 71
     2
 72
     2
 73
     0
 90
        0
 40
-0.6
 41
-30.0
 62
     5
 63
     7
 74
     1
 91
        4
 64
     7
 65
   257
 75
     1
175
     1
 42
1.0
 92
       12
 66
     7
 43
1.0
 76
     1
 77
     6
 78
     2
 67
     7
 79
     5
170
     0
171
     0
290
     0
174
     0
 93
        1
 44
0.0
173
     0
291
     1
 45
0.0
1001
ACAD
1000
AcDbSavedByObjectVersion
1070
     0
  0
VISUALSTYLE
  5
180C8
102
{ACAD_XDICTIONARY
360
18155
102
}
102
{ACAD_REACTORS
330
180C1
102
}
330
180C1
100
AcDbVisualStyle
  2
Wireframe
 70
     5
 71
     0
 72
     2
 73
     0
 90
        0
 40
-0.6
 41
-30.0
 62
     5
 63
     7
 74
     1
 91
        4
 64
     7
 65
   257
 75
     1
175
     1
 42
1.0
 92
        0
 66
   257
 43
1.0
 76
     1
 77
     6
 78
     2
 67
     7
 79
     3
170
     0
171
     0
290
     0
174
     0
 93
        1
 44
0.0
173
     0
291
     0
 45
0.0
1001
ACAD
1000
AcDbSavedByObjectVersion
1070
     0
  0
VISUALSTYLE
  5
180D4
102
{ACAD_XDICTIONARY
360
1816D
102
}
102
{ACAD_REACTORS
330
180C1
102
}
330
180C1
100
AcDbVisualStyle
  2
X-Ray
 70
    25
 71
     2
 72
     2
 73
     1
 90
        1
 40
0.5
 41
-30.0
 62
     5
 63
     7
 74
     1
 91
        0
 64
     7
 65
   257
 75
     1
175
     1
 42
1.0
 92
        8
 66
     7
 43
1.0
 76
     1
 77
     6
 78
     2
 67
     7
 79
     3
170
     0
171
     0
290
     0
174
     0
 93
       13
 44
0.0
173
     0
291
     0
 45
0.0
1001
ACAD
1000
AcDbSavedByObjectVersion
1070
     0
  0
DICTIONARYVAR
  5
18132
102
{ACAD_REACTORS
330
168BB
102
}
330
168BB
100
DictionaryVariables
280
     0
  1
1:1
  0
DICTIONARYVAR
  5
1812F
102
{ACAD_REACTORS
330
168BB
102
}
330
168BB
100
DictionaryVariables
280
     0
  1
STANDARD
  0
DICTIONARYVAR
  5
1812E
102
{ACAD_REACTORS
330
168BB
102
}
330
168BB
100
DictionaryVariables
280
     0
  1
STANDARD
  0
DICTIONARYVAR
  5
18130
102
{ACAD_REACTORS
330
168BB
102
}
330
168BB
100
DictionaryVariables
280
     0
  1
Metric50
  0
DICTIONARYVAR
  5
18131
102
{ACAD_REACTORS
330
168BB
102
}
330
168BB
100
DictionaryVariables
280
     0
  1
Metric50
  0
DICTIONARYVAR
  5
168BC
102
{ACAD_REACTORS
330
168BB
102
}
330
168BB
100
DictionaryVariables
280
     0
  1
1
  0
DICTIONARYVAR
  5
18134
102
{ACAD_REACTORS
330
168BB
102
}
330
168BB
100
DictionaryVariables
280
     0
  1
0
  0
DICTIONARYVAR
  5
168BD
102
{ACAD_REACTORS
330
168BB
102
}
330
168BB
100
DictionaryVariables
280
     0
  1

  0
DICTIONARYVAR
  5
18133
102
{ACAD_REACTORS
330
168BB
102
}
330
168BB
100
DictionaryVariables
280
     0
  1
127
  0
DICTIONARYVAR
  5
18135
102
{ACAD_REACTORS
330
168BB
102
}
330
168BB
100
DictionaryVariables
280
     0
  1
0
  0
DICTIONARY
  5
18141
102
{ACAD_REACTORS
330
1813F
102
}
330
1813F
100
AcDbDictionary
281
     1
  0
DICTIONARY
  5
18140
102
{ACAD_REACTORS
330
1813F
102
}
330
1813F
100
AcDbDictionary
281
     1
  3
2130185104
350
1813A
  3
2130185112
350
1813B
  3
2130185120
350
1813C
  3
2130185128
350
1813D
  3
2130185136
350
1813E
  0
DICTIONARY
  5
1817F
330
180F3
100
AcDbDictionary
280
     1
281
     1
  3
ACAD_XREC_ROUNDTRIP
360
18180
  0
DICTIONARY
  5
18142
330
16762
100
AcDbDictionary
280
     1
281
     1
  3
ACAD_XREC_ROUNDTRIP
360
18143
  0
DICTIONARY
  5
18144
330
16763
100
AcDbDictionary
280
     1
281
     1
  3
ACAD_XREC_ROUNDTRIP
360
18145
  0
DICTIONARY
  5
180B2
330
180B1
100
AcDbDictionary
280
     1
281
     1
  3
ACAD_XREC_ROUNDTRIP
360
18147
  3
BUMPTILE
360
180B4
  3
DIFFUSETILE
360
180B3
  3
OPACITYTILE
360
180B7
  3
REFLECTIONTILE
360
180B6
  3
REFRACTIONTILE
360
180B8
  3
SPECULARTILE
360
180B5
  0
DICTIONARY
  5
180AA
330
180A9
100
AcDbDictionary
280
     1
281
     1
  3
ACAD_XREC_ROUNDTRIP
360
18146
  3
BUMPTILE
360
180AC
  3
DIFFUSETILE
360
180AB
  3
OPACITYTILE
360
180AF
  3
REFLECTIONTILE
360
180AE
  3
REFRACTIONTILE
360
180B0
  3
SPECULARTILE
360
180AD
  0
DICTIONARY
  5
180BA
330
180B9
100
AcDbDictionary
280
     1
281
     1
  3
ACAD_XREC_ROUNDTRIP
360
18148
  3
BUMPTILE
360
180BC
  3
DIFFUSETILE
360
180BB
  3
OPACITYTILE
360
180BF
  3
REFLECTIONTILE
360
180BE
  3
REFRACTIONTILE
360
180C0
  3
SPECULARTILE
360
180BD
  0
DICTIONARY
  5
1817B
330
180EF
100
AcDbDictionary
280
     1
281
     1
  3
ACAD_XREC_ROUNDTRIP
360
1817C
  0
DICTIONARY
  5
1817D
330
180F1
100
AcDbDictionary
280
     1
281
     1
  3
ACAD_XREC_ROUNDTRIP
360
1817E
  0
DICTIONARY
  5
18136
330
180DB
100
AcDbDictionary
280
     1
281
     1
  3
ACAD_ROUNDTRIP_2008_TABLESTYLE_CELLSTYLEMAP
360
18137
  3
ACAD_XREC_ROUNDTRIP
360
18179
  0
DICTIONARY
  5
18153
330
180C7
100
AcDbDictionary
280
     1
281
     1
  3
ACAD_XREC_ROUNDTRIP
360
18154
  0
DICTIONARY
  5
18151
330
180C6
100
AcDbDictionary
280
     1
281
     1
  3
ACAD_XREC_ROUNDTRIP
360
18152
  0
DICTIONARY
  5
1815F
330
180CD
100
AcDbDictionary
280
     1
281
     1
  3
ACAD_XREC_ROUNDTRIP
360
18160
  0
DICTIONARY
  5
18167
330
180D1
100
AcDbDictionary
280
     1
281
     1
  3
ACAD_XREC_ROUNDTRIP
360
18168
  0
DICTIONARY
  5
18159
330
180CA
100
AcDbDictionary
280
     1
281
     1
  3
ACAD_XREC_ROUNDTRIP
360
1815A
  0
DICTIONARY
  5
1815D
330
180CC
100
AcDbDictionary
280
     1
281
     1
  3
ACAD_XREC_ROUNDTRIP
360
1815E
  0
DICTIONARY
  5
18177
330
180D9
100
AcDbDictionary
280
     1
281
     1
  3
ACAD_XREC_ROUNDTRIP
360
18178
  0
DICTIONARY
  5
18165
330
180D0
100
AcDbDictionary
280
     1
281
     1
  3
ACAD_XREC_ROUNDTRIP
360
18166
  0
DICTIONARY
  5
18149
330
180C2
100
AcDbDictionary
280
     1
281
     1
  3
ACAD_XREC_ROUNDTRIP
360
1814A
  0
DICTIONARY
  5
1814B
330
180C3
100
AcDbDictionary
280
     1
281
     1
  3
ACAD_XREC_ROUNDTRIP
360
1814C
  0
DICTIONARY
  5
1814D
330
180C4
100
AcDbDictionary
280
     1
281
     1
  3
ACAD_XREC_ROUNDTRIP
360
1814E
  0
DICTIONARY
  5
1814F
330
180C5
100
AcDbDictionary
280
     1
281
     1
  3
ACAD_XREC_ROUNDTRIP
360
18150
  0
DICTIONARY
  5
18157
330
180C9
100
AcDbDictionary
280
     1
281
     1
  3
ACAD_XREC_ROUNDTRIP
360
18158
  0
DICTIONARY
  5
18173
330
180D7
100
AcDbDictionary
280
     1
281
     1
  3
ACAD_XREC_ROUNDTRIP
360
18174
  0
DICTIONARY
  5
18163
330
180CF
100
AcDbDictionary
280
     1
281
     1
  3
ACAD_XREC_ROUNDTRIP
360
18164
  0
DICTIONARY
  5
18175
330
180D8
100
AcDbDictionary
280
     1
281
     1
  3
ACAD_XREC_ROUNDTRIP
360
18176
  0
DICTIONARY
  5
1815B
330
180CB
100
AcDbDictionary
280
     1
281
     1
  3
ACAD_XREC_ROUNDTRIP
360
1815C
  0
DICTIONARY
  5
18171
330
180D6
100
AcDbDictionary
280
     1
281
     1
  3
ACAD_XREC_ROUNDTRIP
360
18172
  0
DICTIONARY
  5
1816F
330
180D5
100
AcDbDictionary
280
     1
281
     1
  3
ACAD_XREC_ROUNDTRIP
360
18170
  0
DICTIONARY
  5
18169
330
180D2
100
AcDbDictionary
280
     1
281
     1
  3
ACAD_XREC_ROUNDTRIP
360
1816A
  0
DICTIONARY
  5
1816B
330
180D3
100
AcDbDictionary
280
     1
281
     1
  3
ACAD_XREC_ROUNDTRIP
360
1816C
  0
DICTIONARY
  5
18161
330
180CE
100
AcDbDictionary
280
     1
281
     1
  3
ACAD_XREC_ROUNDTRIP
360
18162
  0
DICTIONARY
  5
18155
330
180C8
100
AcDbDictionary
280
     1
281
     1
  3
ACAD_XREC_ROUNDTRIP
360
18156
  0
DICTIONARY
  5
1816D
330
180D4
100
AcDbDictionary
280
     1
281
     1
  3
ACAD_XREC_ROUNDTRIP
360
1816E
  0
XRECORD
  5
1813A
102
{ACAD_REACTORS
330
18140
102
}
330
18140
100
AcDbXrecord
280
     1
  1
AcDb_Thumbnail_Schema
102
{ATTRRECORD
341
1813B
  2
AcDbDs::TreatedAsObjectData
280
     1
291
     1
102
ATTRRECORD}
102
{ATTRRECORD
341
1813C
  2
AcDbDs::Legacy
280
     1
291
     1
102
ATTRRECORD}
  2
AcDbDs::ID
280
    10
 91
        8
102
{ATTRRECORD
341
1813D
  2
AcDs:Indexable
280
     1
291
     1
102
ATTRRECORD}
102
{ATTRRECORD
341
1813E
  2
AcDbDs::HandleAttribute
280
     7
282
     1
102
ATTRRECORD}
  2
Thumbnail_Data
280
    15
 91
        0
  0
XRECORD
  5
1813B
102
{ACAD_REACTORS
330
18140
102
}
330
18140
100
AcDbXrecord
280
     1
  1
AcDbDs::TreatedAsObjectDataSchema
  2
AcDbDs::TreatedAsObjectData
280
     1
 91
        0
  0
XRECORD
  5
1813C
102
{ACAD_REACTORS
330
18140
102
}
330
18140
100
AcDbXrecord
280
     1
  1
AcDbDs::LegacySchema
  2
AcDbDs::Legacy
280
     1
 91
        0
  0
XRECORD
  5
1813D
102
{ACAD_REACTORS
330
18140
102
}
330
18140
100
AcDbXrecord
280
     1
  1
AcDbDs::IndexedPropertySchema
  2
AcDs:Indexable
280
     1
 91
        0
  0
XRECORD
  5
1813E
102
{ACAD_REACTORS
330
18140
102
}
330
18140
100
AcDbXrecord
280
     1
  1
AcDbDs::HandleAttributeSchema
  2
AcDbDs::HandleAttribute
280
     7
 91
        1
284
     1
  0
XRECORD
  5
18180
102
{ACAD_REACTORS
330
1817F
102
}
330
1817F
100
AcDbXrecord
280
     1
102
DISPLAYNAME
  1
Metric50
102
FLAGS
 90
        0
  0
XRECORD
  5
18143
102
{ACAD_REACTORS
330
18142
102
}
330
18142
100
AcDbXrecord
280
     1
102
SHADEPLOT
 70
     0
102
SHADEPLOTRESLEVEL
 70
     2
102
SHADEPLOTCUSTOMDPI
 70
   300
  0
XRECORD
  5
18145
102
{ACAD_REACTORS
330
18144
102
}
330
18144
100
AcDbXrecord
280
     1
102
SHADEPLOT
 70
     0
102
SHADEPLOTRESLEVEL
 70
     2
102
SHADEPLOTCUSTOMDPI
 70
   300
  0
XRECORD
  5
18147
102
{ACAD_REACTORS
330
180B2
102
}
330
180B2
100
AcDbXrecord
280
     1
102
MATERIAL
148
0.0
149
0.0
149
0.0
 93
        0
 94
      127
282
     0
 72
     0
 77
     0
171
     0
175
     0
179
     0
273
     0
  0
XRECORD
  5
180B4
102
{ACAD_REACTORS
330
180B2
102
}
330
180B2
100
AcDbXrecord
280
     1
270
     1
271
     1
  0
XRECORD
  5
180B3
102
{ACAD_REACTORS
330
180B2
102
}
330
180B2
100
AcDbXrecord
280
     1
270
     1
271
     1
  0
XRECORD
  5
180B7
102
{ACAD_REACTORS
330
180B2
102
}
330
180B2
100
AcDbXrecord
280
     1
270
     1
271
     1
  0
XRECORD
  5
180B6
102
{ACAD_REACTORS
330
180B2
102
}
330
180B2
100
AcDbXrecord
280
     1
270
     1
271
     1
  0
XRECORD
  5
180B8
102
{ACAD_REACTORS
330
180B2
102
}
330
180B2
100
AcDbXrecord
280
     1
270
     1
271
     1
  0
XRECORD
  5
180B5
102
{ACAD_REACTORS
330
180B2
102
}
330
180B2
100
AcDbXrecord
280
     1
270
     1
271
     1
  0
XRECORD
  5
18146
102
{ACAD_REACTORS
330
180AA
102
}
330
180AA
100
AcDbXrecord
280
     1
102
MATERIAL
148
0.0
149
0.0
149
0.0
 93
        0
 94
      127
282
     0
 72
     0
 77
     0
171
     0
175
     0
179
     0
273
     0
  0
XRECORD
  5
180AC
102
{ACAD_REACTORS
330
180AA
102
}
330
180AA
100
AcDbXrecord
280
     1
270
     1
271
     1
  0
XRECORD
  5
180AB
102
{ACAD_REACTORS
330
180AA
102
}
330
180AA
100
AcDbXrecord
280
     1
270
     1
271
     1
  0
XRECORD
  5
180AF
102
{ACAD_REACTORS
330
180AA
102
}
330
180AA
100
AcDbXrecord
280
     1
270
     1
271
     1
  0
XRECORD
  5
180AE
102
{ACAD_REACTORS
330
180AA
102
}
330
180AA
100
AcDbXrecord
280
     1
270
     1
271
     1
  0
XRECORD
  5
180B0
102
{ACAD_REACTORS
330
180AA
102
}
330
180AA
100
AcDbXrecord
280
     1
270
     1
271
     1
  0
XRECORD
  5
180AD
102
{ACAD_REACTORS
330
180AA
102
}
330
180AA
100
AcDbXrecord
280
     1
270
     1
271
     1
  0
XRECORD
  5
18148
102
{ACAD_REACTORS
330
180BA
102
}
330
180BA
100
AcDbXrecord
280
     1
102
MATERIAL
148
0.0
149
0.0
149
0.0
 93
        0
 94
      127
282
     0
 72
     0
 77
     0
171
     0
175
     0
179
     0
273
     0
  0
XRECORD
  5
180BC
102
{ACAD_REACTORS
330
180BA
102
}
330
180BA
100
AcDbXrecord
280
     1
270
     1
271
     1
  0
XRECORD
  5
180BB
102
{ACAD_REACTORS
330
180BA
102
}
330
180BA
100
AcDbXrecord
280
     1
270
     1
271
     1
  0
XRECORD
  5
180BF
102
{ACAD_REACTORS
330
180BA
102
}
330
180BA
100
AcDbXrecord
280
     1
270
     1
271
     1
  0
XRECORD
  5
180BE
102
{ACAD_REACTORS
330
180BA
102
}
330
180BA
100
AcDbXrecord
280
     1
270
     1
271
     1
  0
XRECORD
  5
180C0
102
{ACAD_REACTORS
330
180BA
102
}
330
180BA
100
AcDbXrecord
280
     1
270
     1
271
     1
  0
XRECORD
  5
180BD
102
{ACAD_REACTORS
330
180BA
102
}
330
180BA
100
AcDbXrecord
280
     1
270
     1
271
     1
  0
XRECORD
  5
1817C
102
{ACAD_REACTORS
330
1817B
102
}
330
1817B
100
AcDbXrecord
280
     1
102
ACAD_ROUNDTRIP_2012_MLEADER_STYLE
298
     1
  0
XRECORD
  5
1817E
102
{ACAD_REACTORS
330
1817D
102
}
330
1817D
100
AcDbXrecord
280
     1
102
DISPLAYNAME
  1
Metric50
102
FLAGS
 90
        0
  0
CELLSTYLEMAP
  5
18137
102
{ACAD_REACTORS
330
18136
102
}
330
18136
100
AcDbCellStyleMap
 90
        3
300
CELLSTYLE
  1
TABLEFORMAT_BEGIN
 90
        5
170
     1
 91
        0
 92
    32768
 62
   257
 93
        1
300
CONTENTFORMAT
  1
CONTENTFORMAT_BEGIN
 90
        0
 91
        0
 92
      512
 93
        0
300

 40
0.0
140
1.0
 94
        5
 62
     0
340
7475
144
6.0
309
CONTENTFORMAT_END
171
     1
301
MARGIN
  1
CELLMARGIN_BEGIN
 40
1.5
 40
1.5
 40
1.5
 40
1.5
 40
4.5
 40
4.5
309
CELLMARGIN_END
 94
        6
 95
        1
302
GRIDFORMAT
  1
GRIDFORMAT_BEGIN
 90
        0
 91
        1
 62
     0
 92
       -2
340
0
 93
        0
 40
1.125
309
GRIDFORMAT_END
 95
        2
302
GRIDFORMAT
  1
GRIDFORMAT_BEGIN
 90
        0
 91
        1
 62
     0
 92
       -2
340
0
 93
        0
 40
1.125
309
GRIDFORMAT_END
 95
        4
302
GRIDFORMAT
  1
GRIDFORMAT_BEGIN
 90
        0
 91
        1
 62
     0
 92
       -2
340
0
 93
        0
 40
1.125
309
GRIDFORMAT_END
 95
        8
302
GRIDFORMAT
  1
GRIDFORMAT_BEGIN
 90
        0
 91
        1
 62
     0
 92
       -2
340
0
 93
        0
 40
1.125
309
GRIDFORMAT_END
 95
       16
302
GRIDFORMAT
  1
GRIDFORMAT_BEGIN
 90
        0
 91
        1
 62
     0
 92
       -2
340
0
 93
        0
 40
1.125
309
GRIDFORMAT_END
 95
       32
302
GRIDFORMAT
  1
GRIDFORMAT_BEGIN
 90
        0
 91
        1
 62
     0
 92
       -2
340
0
 93
        0
 40
1.125
309
GRIDFORMAT_END
309
TABLEFORMAT_END
  1
CELLSTYLE_BEGIN
 90
        1
 91
        1
300
_TITLE
309
CELLSTYLE_END
300
CELLSTYLE
  1
TABLEFORMAT_BEGIN
 90
        5
170
     1
 91
        0
 92
        0
 62
   257
 93
        1
300
CONTENTFORMAT
  1
CONTENTFORMAT_BEGIN
 90
        0
 91
        0
 92
      512
 93
        0
300

 40
0.0
140
1.0
 94
        5
 62
     0
340
7475
144
4.5
309
CONTENTFORMAT_END
171
     1
301
MARGIN
  1
CELLMARGIN_BEGIN
 40
1.5
 40
1.5
 40
1.5
 40
1.5
 40
4.5
 40
4.5
309
CELLMARGIN_END
 94
        6
 95
        1
302
GRIDFORMAT
  1
GRIDFORMAT_BEGIN
 90
        0
 91
        1
 62
     0
 92
       -2
340
0
 93
        0
 40
1.125
309
GRIDFORMAT_END
 95
        2
302
GRIDFORMAT
  1
GRIDFORMAT_BEGIN
 90
        0
 91
        1
 62
     0
 92
       -2
340
0
 93
        0
 40
1.125
309
GRIDFORMAT_END
 95
        4
302
GRIDFORMAT
  1
GRIDFORMAT_BEGIN
 90
        0
 91
        1
 62
     0
 92
       -2
340
0
 93
        0
 40
1.125
309
GRIDFORMAT_END
 95
        8
302
GRIDFORMAT
  1
GRIDFORMAT_BEGIN
 90
        0
 91
        1
 62
     0
 92
       -2
340
0
 93
        0
 40
1.125
309
GRIDFORMAT_END
 95
       16
302
GRIDFORMAT
  1
GRIDFORMAT_BEGIN
 90
        0
 91
        1
 62
     0
 92
       -2
340
0
 93
        0
 40
1.125
309
GRIDFORMAT_END
 95
       32
302
GRIDFORMAT
  1
GRIDFORMAT_BEGIN
 90
        0
 91
        1
 62
     0
 92
       -2
340
0
 93
        0
 40
1.125
309
GRIDFORMAT_END
309
TABLEFORMAT_END
  1
CELLSTYLE_BEGIN
 90
        2
 91
        1
300
_HEADER
309
CELLSTYLE_END
300
CELLSTYLE
  1
TABLEFORMAT_BEGIN
 90
        5
170
     1
 91
        0
 92
        0
 62
   257
 93
        1
300
CONTENTFORMAT
  1
CONTENTFORMAT_BEGIN
 90
        0
 91
        0
 92
      512
 93
        0
300

 40
0.0
140
1.0
 94
        2
 62
     0
340
7475
144
4.5
309
CONTENTFORMAT_END
171
     1
301
MARGIN
  1
CELLMARGIN_BEGIN
 40
1.5
 40
1.5
 40
1.5
 40
1.5
 40
4.5
 40
4.5
309
CELLMARGIN_END
 94
        6
 95
        1
302
GRIDFORMAT
  1
GRIDFORMAT_BEGIN
 90
        0
 91
        1
 62
     0
 92
       -2
340
0
 93
        0
 40
1.125
309
GRIDFORMAT_END
 95
        2
302
GRIDFORMAT
  1
GRIDFORMAT_BEGIN
 90
        0
 91
        1
 62
     0
 92
       -2
340
0
 93
        0
 40
1.125
309
GRIDFORMAT_END
 95
        4
302
GRIDFORMAT
  1
GRIDFORMAT_BEGIN
 90
        0
 91
        1
 62
     0
 92
       -2
340
0
 93
        0
 40
1.125
309
GRIDFORMAT_END
 95
        8
302
GRIDFORMAT
  1
GRIDFORMAT_BEGIN
 90
        0
 91
        1
 62
     0
 92
       -2
340
0
 93
        0
 40
1.125
309
GRIDFORMAT_END
 95
       16
302
GRIDFORMAT
  1
GRIDFORMAT_BEGIN
 90
        0
 91
        1
 62
     0
 92
       -2
340
0
 93
        0
 40
1.125
309
GRIDFORMAT_END
 95
       32
302
GRIDFORMAT
  1
GRIDFORMAT_BEGIN
 90
        0
 91
        1
 62
     0
 92
       -2
340
0
 93
        0
 40
1.125
309
GRIDFORMAT_END
309
TABLEFORMAT_END
  1
CELLSTYLE_BEGIN
 90
        3
 91
        2
300
_DATA
309
CELLSTYLE_END
  0
XRECORD
  5
18179
102
{ACAD_REACTORS
330
18136
102
}
330
18136
100
AcDbXrecord
280
     1
102
ACAD_ROUNDTRIP_PRE2007_TABLESTYLE
 90
      512
 91
        0
  1

 92
      512
 93
        0
  2

 94
      512
 95
        0
  3

  0
XRECORD
  5
18154
102
{ACAD_REACTORS
330
18153
102
}
330
18153
100
AcDbXrecord
280
     1
102
RTVSPost2010Prop28
280
     1
102
RTVSPost2010PropOp28
 70
     1
102
RTVSPost2010Prop29
280
     1
102
RTVSPost2010PropOp29
 70
     1
102
RTVSPost2010Prop30
280
     0
102
RTVSPost2010PropOp30
 70
     1
102
RTVSPost2010Prop31
280
     0
102
RTVSPost2010PropOp31
 70
     1
102
RTVSPost2010Prop32
280
     0
102
RTVSPost2010PropOp32
 70
     1
102
RTVSPost2010Prop33
280
     0
102
RTVSPost2010PropOp33
 70
     1
102
RTVSPost2010Prop34
280
     0
102
RTVSPost2010PropOp34
 70
     1
102
RTVSPost2010Prop35
280
     0
102
RTVSPost2010PropOp35
 70
     1
102
RTVSPost2010Prop36
280
     0
102
RTVSPost2010PropOp36
 70
     1
102
RTVSPost2010Prop37
 90
       50
102
RTVSPost2010PropOp37
 70
     1
102
RTVSPost2010Prop38
140
0.0
102
RTVSPost2010PropOp38
 70
     1
102
RTVSPost2010Prop39
140
1.0
102
RTVSPost2010PropOp39
 70
     1
102
RTVSPost2010Prop40
 90
        0
102
RTVSPost2010PropOp40
 70
     1
102
RTVSPost2010Prop41ColorIndex
 90
       18
102
RTVSPost2010Prop41ColorRGB
 90
        0
102
RTVSPost2010PropOp41
 70
     1
102
RTVSPost2010Prop42
 90
       50
102
RTVSPost2010PropOp42
 70
     1
102
RTVSPost2010Prop43
 90
        3
102
RTVSPost2010PropOp43
 70
     1
102
RTVSPost2010Prop44ColorIndex
 90
        5
102
RTVSPost2010Prop44ColorRGB
 90
      255
102
RTVSPost2010PropOp44
 70
     1
102
RTVSPost2010Prop45
280
     0
102
RTVSPost2010PropOp45
 70
     1
102
RTVSPost2010Prop46
 90
       50
102
RTVSPost2010PropOp46
 70
     1
102
RTVSPost2010Prop47
 90
       50
102
RTVSPost2010PropOp47
 70
     1
102
RTVSPost2010Prop48
 90
       50
102
RTVSPost2010PropOp48
 70
     1
102
RTVSPost2010Prop49
280
     0
102
RTVSPost2010PropOp49
 70
     1
102
RTVSPost2010Prop50
 90
       50
102
RTVSPost2010PropOp50
 70
     1
102
RTVSPost2010Prop51ColorIndex
 90
      256
102
RTVSPost2010Prop51ColorRGB
 90
-16777216
102
RTVSPost2010PropOp51
 70
     0
102
RTVSPost2010Prop52
140
1.0
102
RTVSPost2010PropOp52
 70
     0
102
RTVSPost2010Prop53
 90
        2
102
RTVSPost2010PropOp53
 70
     1
102
RTVSPost2010Prop54
  1
strokes_ogs.tif
102
RTVSPost2010PropOp54
 70
     1
102
RTVSPost2010Prop55
280
     0
102
RTVSPost2010PropOp55
 70
     1
102
RTVSPost2010Prop56
140
1.0
102
RTVSPost2010PropOp56
 70
     1
102
RTVSPost2010Prop57
140
1.0
102
RTVSPost2010PropOp57
 70
     1
102
RTVSPropertyOp0
 70
     1
102
RTVSPropertyOp1
 70
     1
102
RTVSPropertyOp2
 70
     1
102
RTVSPropertyOp3
 70
     1
102
RTVSPropertyOp4
 70
     1
102
RTVSPropertyOp5
 70
     1
102
RTVSPropertyOp6
 70
     1
102
RTVSPropertyOp7
 70
     1
102
RTVSPropertyOp8
 70
     1
102
RTVSPropertyOp9
 70
     1
102
RTVSPropertyOp10
 70
     1
102
RTVSPropertyOp11
 70
     1
102
RTVSPropertyOp12
 70
     1
102
RTVSPropertyOp13
 70
     1
102
RTVSPropertyOp14
 70
     1
102
RTVSPropertyOp15
 70
     1
102
RTVSPropertyOp16
 70
     1
102
RTVSPropertyOp17
 70
     1
102
RTVSPropertyOp18
 70
     1
102
RTVSPropertyOp19
 70
     1
102
RTVSPropertyOp20
 70
     1
102
RTVSPropertyOp21
 70
     1
102
RTVSPropertyOp22
 70
     1
102
RTVSPropertyOp23
 70
     1
102
RTVSPropertyOp24
 70
     1
102
RTVSPropertyOp25
 70
     1
102
RTVSPropertyOp26
 70
     1
102
RTVSPropertyOp27
 70
     1
102
RTVSPropertyOp28
 70
     1
102
RTVSPropertyOp29
 70
     1
102
RTVSPropertyOp30
 70
     1
102
RTVSPropertyOp31
 70
     1
102
RTVSPropertyOp32
 70
     1
102
RTVSPropertyOp33
 70
     1
102
RTVSPropertyOp34
 70
     1
102
RTVSPropertyOp35
 70
     1
102
RTVSPropertyOp36
 70
     1
102
RTVSPropertyOp37
 70
     1
102
RTVSPropertyOp38
 70
     1
102
RTVSPropertyOp39
 70
     1
102
RTVSPropertyOp40
 70
     1
102
RTVSPropertyOp41
 70
     1
102
RTVSPropertyOp42
 70
     1
102
RTVSPropertyOp43
 70
     1
102
RTVSPropertyOp44
 70
     1
102
RTVSPropertyOp45
 70
     1
102
RTVSPropertyOp46
 70
     1
102
RTVSPropertyOp47
 70
     1
102
RTVSPropertyOp48
 70
     1
102
RTVSPropertyOp49
 70
     1
102
RTVSPropertyOp50
 70
     1
102
RTVSPropertyOp51
 70
     0
102
RTVSPropertyOp52
 70
     0
102
RTVSPropertyOp53
 70
     1
102
RTVSPropertyOp54
 70
     1
102
RTVSPropertyOp55
 70
     1
102
RTVSPropertyOp56
 70
     1
102
RTVSPropertyOp57
 70
     1
102
RTVSPropertyOp58
 70
     1
102
RTVSPropertyOp59
 70
     1
102
RTVSPropertyOp60
 70
     1
102
RTVSPropertyOp61
 70
     1
102
RTVSPropertyOp62
 70
     1
  0
XRECORD
  5
18152
102
{ACAD_REACTORS
330
18151
102
}
330
18151
100
AcDbXrecord
280
     1
102
RTVSPost2010Prop28
280
     0
102
RTVSPost2010PropOp28
 70
     1
102
RTVSPost2010Prop29
280
     1
102
RTVSPost2010PropOp29
 70
     1
102
RTVSPost2010Prop30
280
     1
102
RTVSPost2010PropOp30
 70
     1
102
RTVSPost2010Prop31
280
     0
102
RTVSPost2010PropOp31
 70
     1
102
RTVSPost2010Prop32
280
     0
102
RTVSPost2010PropOp32
 70
     1
102
RTVSPost2010Prop33
280
     0
102
RTVSPost2010PropOp33
 70
     1
102
RTVSPost2010Prop34
280
     0
102
RTVSPost2010PropOp34
 70
     1
102
RTVSPost2010Prop35
280
     0
102
RTVSPost2010PropOp35
 70
     1
102
RTVSPost2010Prop36
280
     0
102
RTVSPost2010PropOp36
 70
     1
102
RTVSPost2010Prop37
 90
       50
102
RTVSPost2010PropOp37
 70
     1
102
RTVSPost2010Prop38
140
0.0
102
RTVSPost2010PropOp38
 70
     1
102
RTVSPost2010Prop39
140
1.0
102
RTVSPost2010PropOp39
 70
     1
102
RTVSPost2010Prop40
 90
        0
102
RTVSPost2010PropOp40
 70
     1
102
RTVSPost2010Prop41ColorIndex
 90
       18
102
RTVSPost2010Prop41ColorRGB
 90
        0
102
RTVSPost2010PropOp41
 70
     1
102
RTVSPost2010Prop42
 90
       50
102
RTVSPost2010PropOp42
 70
     1
102
RTVSPost2010Prop43
 90
        3
102
RTVSPost2010PropOp43
 70
     1
102
RTVSPost2010Prop44ColorIndex
 90
        5
102
RTVSPost2010Prop44ColorRGB
 90
      255
102
RTVSPost2010PropOp44
 70
     1
102
RTVSPost2010Prop45
280
     0
102
RTVSPost2010PropOp45
 70
     1
102
RTVSPost2010Prop46
 90
       50
102
RTVSPost2010PropOp46
 70
     1
102
RTVSPost2010Prop47
 90
       50
102
RTVSPost2010PropOp47
 70
     1
102
RTVSPost2010Prop48
 90
       50
102
RTVSPost2010PropOp48
 70
     1
102
RTVSPost2010Prop49
280
     0
102
RTVSPost2010PropOp49
 70
     1
102
RTVSPost2010Prop50
 90
       50
102
RTVSPost2010PropOp50
 70
     1
102
RTVSPost2010Prop51ColorIndex
 90
      256
102
RTVSPost2010Prop51ColorRGB
 90
-16777216
102
RTVSPost2010PropOp51
 70
     0
102
RTVSPost2010Prop52
140
1.0
102
RTVSPost2010PropOp52
 70
     0
102
RTVSPost2010Prop53
 90
        2
102
RTVSPost2010PropOp53
 70
     1
102
RTVSPost2010Prop54
  1
strokes_ogs.tif
102
RTVSPost2010PropOp54
 70
     1
102
RTVSPost2010Prop55
280
     0
102
RTVSPost2010PropOp55
 70
     1
102
RTVSPost2010Prop56
140
1.0
102
RTVSPost2010PropOp56
 70
     1
102
RTVSPost2010Prop57
140
1.0
102
RTVSPost2010PropOp57
 70
     1
102
RTVSPropertyOp0
 70
     1
102
RTVSPropertyOp1
 70
     1
102
RTVSPropertyOp2
 70
     1
102
RTVSPropertyOp3
 70
     1
102
RTVSPropertyOp4
 70
     1
102
RTVSPropertyOp5
 70
     1
102
RTVSPropertyOp6
 70
     1
102
RTVSPropertyOp7
 70
     1
102
RTVSPropertyOp8
 70
     1
102
RTVSPropertyOp9
 70
     1
102
RTVSPropertyOp10
 70
     1
102
RTVSPropertyOp11
 70
     1
102
RTVSPropertyOp12
 70
     1
102
RTVSPropertyOp13
 70
     1
102
RTVSPropertyOp14
 70
     1
102
RTVSPropertyOp15
 70
     1
102
RTVSPropertyOp16
 70
     1
102
RTVSPropertyOp17
 70
     1
102
RTVSPropertyOp18
 70
     1
102
RTVSPropertyOp19
 70
     1
102
RTVSPropertyOp20
 70
     1
102
RTVSPropertyOp21
 70
     1
102
RTVSPropertyOp22
 70
     1
102
RTVSPropertyOp23
 70
     1
102
RTVSPropertyOp24
 70
     1
102
RTVSPropertyOp25
 70
     1
102
RTVSPropertyOp26
 70
     1
102
RTVSPropertyOp27
 70
     1
102
RTVSPropertyOp28
 70
     1
102
RTVSPropertyOp29
 70
     1
102
RTVSPropertyOp30
 70
     1
102
RTVSPropertyOp31
 70
     1
102
RTVSPropertyOp32
 70
     1
102
RTVSPropertyOp33
 70
     1
102
RTVSPropertyOp34
 70
     1
102
RTVSPropertyOp35
 70
     1
102
RTVSPropertyOp36
 70
     1
102
RTVSPropertyOp37
 70
     1
102
RTVSPropertyOp38
 70
     1
102
RTVSPropertyOp39
 70
     1
102
RTVSPropertyOp40
 70
     1
102
RTVSPropertyOp41
 70
     1
102
RTVSPropertyOp42
 70
     1
102
RTVSPropertyOp43
 70
     1
102
RTVSPropertyOp44
 70
     1
102
RTVSPropertyOp45
 70
     1
102
RTVSPropertyOp46
 70
     1
102
RTVSPropertyOp47
 70
     1
102
RTVSPropertyOp48
 70
     1
102
RTVSPropertyOp49
 70
     1
102
RTVSPropertyOp50
 70
     1
102
RTVSPropertyOp51
 70
     0
102
RTVSPropertyOp52
 70
     0
102
RTVSPropertyOp53
 70
     1
102
RTVSPropertyOp54
 70
     1
102
RTVSPropertyOp55
 70
     1
102
RTVSPropertyOp56
 70
     1
102
RTVSPropertyOp57
 70
     1
102
RTVSPropertyOp58
 70
     1
102
RTVSPropertyOp59
 70
     1
102
RTVSPropertyOp60
 70
     1
102
RTVSPropertyOp61
 70
     1
102
RTVSPropertyOp62
 70
     1
  0
XRECORD
  5
18160
102
{ACAD_REACTORS
330
1815F
102
}
330
1815F
100
AcDbXrecord
280
     1
102
RTVSPost2010Prop28
280
     0
102
RTVSPost2010PropOp28
 70
     1
102
RTVSPost2010Prop29
280
     1
102
RTVSPost2010PropOp29
 70
     1
102
RTVSPost2010Prop30
280
     1
102
RTVSPost2010PropOp30
 70
     1
102
RTVSPost2010Prop31
280
     0
102
RTVSPost2010PropOp31
 70
     1
102
RTVSPost2010Prop32
280
     0
102
RTVSPost2010PropOp32
 70
     1
102
RTVSPost2010Prop33
280
     0
102
RTVSPost2010PropOp33
 70
     1
102
RTVSPost2010Prop34
280
     0
102
RTVSPost2010PropOp34
 70
     1
102
RTVSPost2010Prop35
280
     0
102
RTVSPost2010PropOp35
 70
     1
102
RTVSPost2010Prop36
280
     0
102
RTVSPost2010PropOp36
 70
     1
102
RTVSPost2010Prop37
 90
       50
102
RTVSPost2010PropOp37
 70
     1
102
RTVSPost2010Prop38
140
0.0
102
RTVSPost2010PropOp38
 70
     1
102
RTVSPost2010Prop39
140
1.0
102
RTVSPost2010PropOp39
 70
     1
102
RTVSPost2010Prop40
 90
        0
102
RTVSPost2010PropOp40
 70
     1
102
RTVSPost2010Prop41ColorIndex
 90
       18
102
RTVSPost2010Prop41ColorRGB
 90
        0
102
RTVSPost2010PropOp41
 70
     1
102
RTVSPost2010Prop42
 90
       50
102
RTVSPost2010PropOp42
 70
     1
102
RTVSPost2010Prop43
 90
        3
102
RTVSPost2010PropOp43
 70
     1
102
RTVSPost2010Prop44ColorIndex
 90
        5
102
RTVSPost2010Prop44ColorRGB
 90
      255
102
RTVSPost2010PropOp44
 70
     1
102
RTVSPost2010Prop45
280
     0
102
RTVSPost2010PropOp45
 70
     1
102
RTVSPost2010Prop46
 90
       50
102
RTVSPost2010PropOp46
 70
     1
102
RTVSPost2010Prop47
 90
       50
102
RTVSPost2010PropOp47
 70
     1
102
RTVSPost2010Prop48
 90
       50
102
RTVSPost2010PropOp48
 70
     1
102
RTVSPost2010Prop49
280
     0
102
RTVSPost2010PropOp49
 70
     1
102
RTVSPost2010Prop50
 90
       50
102
RTVSPost2010PropOp50
 70
     1
102
RTVSPost2010Prop51ColorIndex
 90
      256
102
RTVSPost2010Prop51ColorRGB
 90
-16777216
102
RTVSPost2010PropOp51
 70
     0
102
RTVSPost2010Prop52
140
1.0
102
RTVSPost2010PropOp52
 70
     0
102
RTVSPost2010Prop53
 90
        2
102
RTVSPost2010PropOp53
 70
     1
102
RTVSPost2010Prop54
  1
strokes_ogs.tif
102
RTVSPost2010PropOp54
 70
     1
102
RTVSPost2010Prop55
280
     0
102
RTVSPost2010PropOp55
 70
     1
102
RTVSPost2010Prop56
140
1.0
102
RTVSPost2010PropOp56
 70
     1
102
RTVSPost2010Prop57
140
1.0
102
RTVSPost2010PropOp57
 70
     1
102
RTVSPropertyOp0
 70
     1
102
RTVSPropertyOp1
 70
     1
102
RTVSPropertyOp2
 70
     1
102
RTVSPropertyOp3
 70
     1
102
RTVSPropertyOp4
 70
     1
102
RTVSPropertyOp5
 70
     1
102
RTVSPropertyOp6
 70
     1
102
RTVSPropertyOp7
 70
     1
102
RTVSPropertyOp8
 70
     1
102
RTVSPropertyOp9
 70
     1
102
RTVSPropertyOp10
 70
     1
102
RTVSPropertyOp11
 70
     1
102
RTVSPropertyOp12
 70
     1
102
RTVSPropertyOp13
 70
     1
102
RTVSPropertyOp14
 70
     1
102
RTVSPropertyOp15
 70
     1
102
RTVSPropertyOp16
 70
     1
102
RTVSPropertyOp17
 70
     1
102
RTVSPropertyOp18
 70
     1
102
RTVSPropertyOp19
 70
     1
102
RTVSPropertyOp20
 70
     1
102
RTVSPropertyOp21
 70
     1
102
RTVSPropertyOp22
 70
     1
102
RTVSPropertyOp23
 70
     1
102
RTVSPropertyOp24
 70
     1
102
RTVSPropertyOp25
 70
     1
102
RTVSPropertyOp26
 70
     1
102
RTVSPropertyOp27
 70
     1
102
RTVSPropertyOp28
 70
     1
102
RTVSPropertyOp29
 70
     1
102
RTVSPropertyOp30
 70
     1
102
RTVSPropertyOp31
 70
     1
102
RTVSPropertyOp32
 70
     1
102
RTVSPropertyOp33
 70
     1
102
RTVSPropertyOp34
 70
     1
102
RTVSPropertyOp35
 70
     1
102
RTVSPropertyOp36
 70
     1
102
RTVSPropertyOp37
 70
     1
102
RTVSPropertyOp38
 70
     1
102
RTVSPropertyOp39
 70
     1
102
RTVSPropertyOp40
 70
     1
102
RTVSPropertyOp41
 70
     1
102
RTVSPropertyOp42
 70
     1
102
RTVSPropertyOp43
 70
     1
102
RTVSPropertyOp44
 70
     1
102
RTVSPropertyOp45
 70
     1
102
RTVSPropertyOp46
 70
     1
102
RTVSPropertyOp47
 70
     1
102
RTVSPropertyOp48
 70
     1
102
RTVSPropertyOp49
 70
     1
102
RTVSPropertyOp50
 70
     1
102
RTVSPropertyOp51
 70
     0
102
RTVSPropertyOp52
 70
     0
102
RTVSPropertyOp53
 70
     1
102
RTVSPropertyOp54
 70
     1
102
RTVSPropertyOp55
 70
     1
102
RTVSPropertyOp56
 70
     1
102
RTVSPropertyOp57
 70
     1
102
RTVSPropertyOp58
 70
     1
102
RTVSPropertyOp59
 70
     1
102
RTVSPropertyOp60
 70
     1
102
RTVSPropertyOp61
 70
     1
102
RTVSPropertyOp62
 70
     1
  0
XRECORD
  5
18168
102
{ACAD_REACTORS
330
18167
102
}
330
18167
100
AcDbXrecord
280
     1
102
RTVSPost2010Prop28
280
     0
102
RTVSPost2010PropOp28
 70
     1
102
RTVSPost2010Prop29
280
     1
102
RTVSPost2010PropOp29
 70
     1
102
RTVSPost2010Prop30
280
     1
102
RTVSPost2010PropOp30
 70
     1
102
RTVSPost2010Prop31
280
     0
102
RTVSPost2010PropOp31
 70
     1
102
RTVSPost2010Prop32
280
     0
102
RTVSPost2010PropOp32
 70
     1
102
RTVSPost2010Prop33
280
     0
102
RTVSPost2010PropOp33
 70
     1
102
RTVSPost2010Prop34
280
     0
102
RTVSPost2010PropOp34
 70
     1
102
RTVSPost2010Prop35
280
     0
102
RTVSPost2010PropOp35
 70
     1
102
RTVSPost2010Prop36
280
     0
102
RTVSPost2010PropOp36
 70
     1
102
RTVSPost2010Prop37
 90
       50
102
RTVSPost2010PropOp37
 70
     1
102
RTVSPost2010Prop38
140
0.0
102
RTVSPost2010PropOp38
 70
     1
102
RTVSPost2010Prop39
140
1.0
102
RTVSPost2010PropOp39
 70
     1
102
RTVSPost2010Prop40
 90
        0
102
RTVSPost2010PropOp40
 70
     1
102
RTVSPost2010Prop41ColorIndex
 90
       18
102
RTVSPost2010Prop41ColorRGB
 90
        0
102
RTVSPost2010PropOp41
 70
     1
102
RTVSPost2010Prop42
 90
       50
102
RTVSPost2010PropOp42
 70
     1
102
RTVSPost2010Prop43
 90
        3
102
RTVSPost2010PropOp43
 70
     1
102
RTVSPost2010Prop44ColorIndex
 90
        5
102
RTVSPost2010Prop44ColorRGB
 90
      255
102
RTVSPost2010PropOp44
 70
     1
102
RTVSPost2010Prop45
280
     0
102
RTVSPost2010PropOp45
 70
     1
102
RTVSPost2010Prop46
 90
       50
102
RTVSPost2010PropOp46
 70
     1
102
RTVSPost2010Prop47
 90
       50
102
RTVSPost2010PropOp47
 70
     1
102
RTVSPost2010Prop48
 90
       50
102
RTVSPost2010PropOp48
 70
     1
102
RTVSPost2010Prop49
280
     0
102
RTVSPost2010PropOp49
 70
     1
102
RTVSPost2010Prop50
 90
       50
102
RTVSPost2010PropOp50
 70
     1
102
RTVSPost2010Prop51ColorIndex
 90
      256
102
RTVSPost2010Prop51ColorRGB
 90
-16777216
102
RTVSPost2010PropOp51
 70
     0
102
RTVSPost2010Prop52
140
1.0
102
RTVSPost2010PropOp52
 70
     0
102
RTVSPost2010Prop53
 90
        2
102
RTVSPost2010PropOp53
 70
     1
102
RTVSPost2010Prop54
  1
strokes_ogs.tif
102
RTVSPost2010PropOp54
 70
     1
102
RTVSPost2010Prop55
280
     0
102
RTVSPost2010PropOp55
 70
     1
102
RTVSPost2010Prop56
140
1.0
102
RTVSPost2010PropOp56
 70
     1
102
RTVSPost2010Prop57
140
1.0
102
RTVSPost2010PropOp57
 70
     1
102
RTVSPropertyOp0
 70
     1
102
RTVSPropertyOp1
 70
     1
102
RTVSPropertyOp2
 70
     1
102
RTVSPropertyOp3
 70
     1
102
RTVSPropertyOp4
 70
     1
102
RTVSPropertyOp5
 70
     1
102
RTVSPropertyOp6
 70
     1
102
RTVSPropertyOp7
 70
     1
102
RTVSPropertyOp8
 70
     1
102
RTVSPropertyOp9
 70
     1
102
RTVSPropertyOp10
 70
     1
102
RTVSPropertyOp11
 70
     1
102
RTVSPropertyOp12
 70
     1
102
RTVSPropertyOp13
 70
     1
102
RTVSPropertyOp14
 70
     1
102
RTVSPropertyOp15
 70
     1
102
RTVSPropertyOp16
 70
     1
102
RTVSPropertyOp17
 70
     1
102
RTVSPropertyOp18
 70
     1
102
RTVSPropertyOp19
 70
     1
102
RTVSPropertyOp20
 70
     1
102
RTVSPropertyOp21
 70
     1
102
RTVSPropertyOp22
 70
     1
102
RTVSPropertyOp23
 70
     1
102
RTVSPropertyOp24
 70
     1
102
RTVSPropertyOp25
 70
     1
102
RTVSPropertyOp26
 70
     1
102
RTVSPropertyOp27
 70
     1
102
RTVSPropertyOp28
 70
     1
102
RTVSPropertyOp29
 70
     1
102
RTVSPropertyOp30
 70
     1
102
RTVSPropertyOp31
 70
     1
102
RTVSPropertyOp32
 70
     1
102
RTVSPropertyOp33
 70
     1
102
RTVSPropertyOp34
 70
     1
102
RTVSPropertyOp35
 70
     1
102
RTVSPropertyOp36
 70
     1
102
RTVSPropertyOp37
 70
     1
102
RTVSPropertyOp38
 70
     1
102
RTVSPropertyOp39
 70
     1
102
RTVSPropertyOp40
 70
     1
102
RTVSPropertyOp41
 70
     1
102
RTVSPropertyOp42
 70
     1
102
RTVSPropertyOp43
 70
     1
102
RTVSPropertyOp44
 70
     1
102
RTVSPropertyOp45
 70
     1
102
RTVSPropertyOp46
 70
     1
102
RTVSPropertyOp47
 70
     1
102
RTVSPropertyOp48
 70
     1
102
RTVSPropertyOp49
 70
     1
102
RTVSPropertyOp50
 70
     1
102
RTVSPropertyOp51
 70
     0
102
RTVSPropertyOp52
 70
     0
102
RTVSPropertyOp53
 70
     1
102
RTVSPropertyOp54
 70
     1
102
RTVSPropertyOp55
 70
     1
102
RTVSPropertyOp56
 70
     1
102
RTVSPropertyOp57
 70
     1
102
RTVSPropertyOp58
 70
     1
102
RTVSPropertyOp59
 70
     1
102
RTVSPropertyOp60
 70
     1
102
RTVSPropertyOp61
 70
     1
102
RTVSPropertyOp62
 70
     1
  0
XRECORD
  5
1815A
102
{ACAD_REACTORS
330
18159
102
}
330
18159
100
AcDbXrecord
280
     1
102
RTVSPost2010Prop28
280
     0
102
RTVSPost2010PropOp28
 70
     1
102
RTVSPost2010Prop29
280
     1
102
RTVSPost2010PropOp29
 70
     1
102
RTVSPost2010Prop30
280
     1
102
RTVSPost2010PropOp30
 70
     1
102
RTVSPost2010Prop31
280
     0
102
RTVSPost2010PropOp31
 70
     1
102
RTVSPost2010Prop32
280
     0
102
RTVSPost2010PropOp32
 70
     1
102
RTVSPost2010Prop33
280
     0
102
RTVSPost2010PropOp33
 70
     1
102
RTVSPost2010Prop34
280
     0
102
RTVSPost2010PropOp34
 70
     1
102
RTVSPost2010Prop35
280
     0
102
RTVSPost2010PropOp35
 70
     1
102
RTVSPost2010Prop36
280
     0
102
RTVSPost2010PropOp36
 70
     1
102
RTVSPost2010Prop37
 90
       50
102
RTVSPost2010PropOp37
 70
     1
102
RTVSPost2010Prop38
140
0.0
102
RTVSPost2010PropOp38
 70
     1
102
RTVSPost2010Prop39
140
1.0
102
RTVSPost2010PropOp39
 70
     1
102
RTVSPost2010Prop40
 90
        0
102
RTVSPost2010PropOp40
 70
     1
102
RTVSPost2010Prop41ColorIndex
 90
       18
102
RTVSPost2010Prop41ColorRGB
 90
        0
102
RTVSPost2010PropOp41
 70
     1
102
RTVSPost2010Prop42
 90
       50
102
RTVSPost2010PropOp42
 70
     1
102
RTVSPost2010Prop43
 90
        3
102
RTVSPost2010PropOp43
 70
     1
102
RTVSPost2010Prop44ColorIndex
 90
        5
102
RTVSPost2010Prop44ColorRGB
 90
      255
102
RTVSPost2010PropOp44
 70
     1
102
RTVSPost2010Prop45
280
     0
102
RTVSPost2010PropOp45
 70
     1
102
RTVSPost2010Prop46
 90
       50
102
RTVSPost2010PropOp46
 70
     1
102
RTVSPost2010Prop47
 90
       50
102
RTVSPost2010PropOp47
 70
     1
102
RTVSPost2010Prop48
 90
       50
102
RTVSPost2010PropOp48
 70
     1
102
RTVSPost2010Prop49
280
     0
102
RTVSPost2010PropOp49
 70
     1
102
RTVSPost2010Prop50
 90
       50
102
RTVSPost2010PropOp50
 70
     1
102
RTVSPost2010Prop51ColorIndex
 90
      256
102
RTVSPost2010Prop51ColorRGB
 90
-16777216
102
RTVSPost2010PropOp51
 70
     0
102
RTVSPost2010Prop52
140
1.0
102
RTVSPost2010PropOp52
 70
     0
102
RTVSPost2010Prop53
 90
        2
102
RTVSPost2010PropOp53
 70
     1
102
RTVSPost2010Prop54
  1
strokes_ogs.tif
102
RTVSPost2010PropOp54
 70
     1
102
RTVSPost2010Prop55
280
     0
102
RTVSPost2010PropOp55
 70
     1
102
RTVSPost2010Prop56
140
1.0
102
RTVSPost2010PropOp56
 70
     1
102
RTVSPost2010Prop57
140
1.0
102
RTVSPost2010PropOp57
 70
     1
102
RTVSPropertyOp0
 70
     1
102
RTVSPropertyOp1
 70
     1
102
RTVSPropertyOp2
 70
     1
102
RTVSPropertyOp3
 70
     1
102
RTVSPropertyOp4
 70
     1
102
RTVSPropertyOp5
 70
     1
102
RTVSPropertyOp6
 70
     1
102
RTVSPropertyOp7
 70
     1
102
RTVSPropertyOp8
 70
     1
102
RTVSPropertyOp9
 70
     1
102
RTVSPropertyOp10
 70
     1
102
RTVSPropertyOp11
 70
     1
102
RTVSPropertyOp12
 70
     1
102
RTVSPropertyOp13
 70
     1
102
RTVSPropertyOp14
 70
     1
102
RTVSPropertyOp15
 70
     1
102
RTVSPropertyOp16
 70
     1
102
RTVSPropertyOp17
 70
     1
102
RTVSPropertyOp18
 70
     1
102
RTVSPropertyOp19
 70
     1
102
RTVSPropertyOp20
 70
     1
102
RTVSPropertyOp21
 70
     1
102
RTVSPropertyOp22
 70
     1
102
RTVSPropertyOp23
 70
     1
102
RTVSPropertyOp24
 70
     1
102
RTVSPropertyOp25
 70
     1
102
RTVSPropertyOp26
 70
     1
102
RTVSPropertyOp27
 70
     1
102
RTVSPropertyOp28
 70
     1
102
RTVSPropertyOp29
 70
     1
102
RTVSPropertyOp30
 70
     1
102
RTVSPropertyOp31
 70
     1
102
RTVSPropertyOp32
 70
     1
102
RTVSPropertyOp33
 70
     1
102
RTVSPropertyOp34
 70
     1
102
RTVSPropertyOp35
 70
     1
102
RTVSPropertyOp36
 70
     1
102
RTVSPropertyOp37
 70
     1
102
RTVSPropertyOp38
 70
     1
102
RTVSPropertyOp39
 70
     1
102
RTVSPropertyOp40
 70
     1
102
RTVSPropertyOp41
 70
     1
102
RTVSPropertyOp42
 70
     1
102
RTVSPropertyOp43
 70
     1
102
RTVSPropertyOp44
 70
     1
102
RTVSPropertyOp45
 70
     1
102
RTVSPropertyOp46
 70
     1
102
RTVSPropertyOp47
 70
     1
102
RTVSPropertyOp48
 70
     1
102
RTVSPropertyOp49
 70
     1
102
RTVSPropertyOp50
 70
     1
102
RTVSPropertyOp51
 70
     0
102
RTVSPropertyOp52
 70
     0
102
RTVSPropertyOp53
 70
     1
102
RTVSPropertyOp54
 70
     1
102
RTVSPropertyOp55
 70
     1
102
RTVSPropertyOp56
 70
     1
102
RTVSPropertyOp57
 70
     1
102
RTVSPropertyOp58
 70
     1
102
RTVSPropertyOp59
 70
     1
102
RTVSPropertyOp60
 70
     1
102
RTVSPropertyOp61
 70
     1
102
RTVSPropertyOp62
 70
     1
  0
XRECORD
  5
1815E
102
{ACAD_REACTORS
330
1815D
102
}
330
1815D
100
AcDbXrecord
280
     1
102
RTVSPost2010Prop28
280
     0
102
RTVSPost2010PropOp28
 70
     1
102
RTVSPost2010Prop29
280
     1
102
RTVSPost2010PropOp29
 70
     1
102
RTVSPost2010Prop30
280
     1
102
RTVSPost2010PropOp30
 70
     1
102
RTVSPost2010Prop31
280
     0
102
RTVSPost2010PropOp31
 70
     1
102
RTVSPost2010Prop32
280
     0
102
RTVSPost2010PropOp32
 70
     1
102
RTVSPost2010Prop33
280
     0
102
RTVSPost2010PropOp33
 70
     1
102
RTVSPost2010Prop34
280
     0
102
RTVSPost2010PropOp34
 70
     1
102
RTVSPost2010Prop35
280
     0
102
RTVSPost2010PropOp35
 70
     1
102
RTVSPost2010Prop36
280
     0
102
RTVSPost2010PropOp36
 70
     1
102
RTVSPost2010Prop37
 90
       50
102
RTVSPost2010PropOp37
 70
     1
102
RTVSPost2010Prop38
140
0.0
102
RTVSPost2010PropOp38
 70
     1
102
RTVSPost2010Prop39
140
1.0
102
RTVSPost2010PropOp39
 70
     1
102
RTVSPost2010Prop40
 90
        0
102
RTVSPost2010PropOp40
 70
     1
102
RTVSPost2010Prop41ColorIndex
 90
       18
102
RTVSPost2010Prop41ColorRGB
 90
        0
102
RTVSPost2010PropOp41
 70
     1
102
RTVSPost2010Prop42
 90
       50
102
RTVSPost2010PropOp42
 70
     1
102
RTVSPost2010Prop43
 90
        3
102
RTVSPost2010PropOp43
 70
     1
102
RTVSPost2010Prop44ColorIndex
 90
        5
102
RTVSPost2010Prop44ColorRGB
 90
      255
102
RTVSPost2010PropOp44
 70
     1
102
RTVSPost2010Prop45
280
     0
102
RTVSPost2010PropOp45
 70
     1
102
RTVSPost2010Prop46
 90
       50
102
RTVSPost2010PropOp46
 70
     1
102
RTVSPost2010Prop47
 90
       50
102
RTVSPost2010PropOp47
 70
     1
102
RTVSPost2010Prop48
 90
       50
102
RTVSPost2010PropOp48
 70
     1
102
RTVSPost2010Prop49
280
     0
102
RTVSPost2010PropOp49
 70
     1
102
RTVSPost2010Prop50
 90
       50
102
RTVSPost2010PropOp50
 70
     1
102
RTVSPost2010Prop51ColorIndex
 90
      256
102
RTVSPost2010Prop51ColorRGB
 90
-16777216
102
RTVSPost2010PropOp51
 70
     0
102
RTVSPost2010Prop52
140
1.0
102
RTVSPost2010PropOp52
 70
     0
102
RTVSPost2010Prop53
 90
        2
102
RTVSPost2010PropOp53
 70
     1
102
RTVSPost2010Prop54
  1
strokes_ogs.tif
102
RTVSPost2010PropOp54
 70
     1
102
RTVSPost2010Prop55
280
     0
102
RTVSPost2010PropOp55
 70
     1
102
RTVSPost2010Prop56
140
1.0
102
RTVSPost2010PropOp56
 70
     1
102
RTVSPost2010Prop57
140
1.0
102
RTVSPost2010PropOp57
 70
     1
102
RTVSPropertyOp0
 70
     1
102
RTVSPropertyOp1
 70
     1
102
RTVSPropertyOp2
 70
     1
102
RTVSPropertyOp3
 70
     1
102
RTVSPropertyOp4
 70
     1
102
RTVSPropertyOp5
 70
     1
102
RTVSPropertyOp6
 70
     1
102
RTVSPropertyOp7
 70
     1
102
RTVSPropertyOp8
 70
     1
102
RTVSPropertyOp9
 70
     1
102
RTVSPropertyOp10
 70
     1
102
RTVSPropertyOp11
 70
     1
102
RTVSPropertyOp12
 70
     1
102
RTVSPropertyOp13
 70
     1
102
RTVSPropertyOp14
 70
     1
102
RTVSPropertyOp15
 70
     1
102
RTVSPropertyOp16
 70
     1
102
RTVSPropertyOp17
 70
     1
102
RTVSPropertyOp18
 70
     1
102
RTVSPropertyOp19
 70
     1
102
RTVSPropertyOp20
 70
     1
102
RTVSPropertyOp21
 70
     1
102
RTVSPropertyOp22
 70
     1
102
RTVSPropertyOp23
 70
     1
102
RTVSPropertyOp24
 70
     1
102
RTVSPropertyOp25
 70
     1
102
RTVSPropertyOp26
 70
     1
102
RTVSPropertyOp27
 70
     1
102
RTVSPropertyOp28
 70
     1
102
RTVSPropertyOp29
 70
     1
102
RTVSPropertyOp30
 70
     1
102
RTVSPropertyOp31
 70
     1
102
RTVSPropertyOp32
 70
     1
102
RTVSPropertyOp33
 70
     1
102
RTVSPropertyOp34
 70
     1
102
RTVSPropertyOp35
 70
     1
102
RTVSPropertyOp36
 70
     1
102
RTVSPropertyOp37
 70
     1
102
RTVSPropertyOp38
 70
     1
102
RTVSPropertyOp39
 70
     1
102
RTVSPropertyOp40
 70
     1
102
RTVSPropertyOp41
 70
     1
102
RTVSPropertyOp42
 70
     1
102
RTVSPropertyOp43
 70
     1
102
RTVSPropertyOp44
 70
     1
102
RTVSPropertyOp45
 70
     1
102
RTVSPropertyOp46
 70
     1
102
RTVSPropertyOp47
 70
     1
102
RTVSPropertyOp48
 70
     1
102
RTVSPropertyOp49
 70
     1
102
RTVSPropertyOp50
 70
     1
102
RTVSPropertyOp51
 70
     0
102
RTVSPropertyOp52
 70
     0
102
RTVSPropertyOp53
 70
     1
102
RTVSPropertyOp54
 70
     1
102
RTVSPropertyOp55
 70
     1
102
RTVSPropertyOp56
 70
     1
102
RTVSPropertyOp57
 70
     1
102
RTVSPropertyOp58
 70
     1
102
RTVSPropertyOp59
 70
     1
102
RTVSPropertyOp60
 70
     1
102
RTVSPropertyOp61
 70
     1
102
RTVSPropertyOp62
 70
     1
  0
XRECORD
  5
18178
102
{ACAD_REACTORS
330
18177
102
}
330
18177
100
AcDbXrecord
280
     1
102
RTVSPost2010Prop28
280
     0
102
RTVSPost2010PropOp28
 70
     0
102
RTVSPost2010Prop29
280
     1
102
RTVSPost2010PropOp29
 70
     0
102
RTVSPost2010Prop30
280
     1
102
RTVSPost2010PropOp30
 70
     0
102
RTVSPost2010Prop31
280
     0
102
RTVSPost2010PropOp31
 70
     0
102
RTVSPost2010Prop32
280
     0
102
RTVSPost2010PropOp32
 70
     0
102
RTVSPost2010Prop33
280
     0
102
RTVSPost2010PropOp33
 70
     0
102
RTVSPost2010Prop34
280
     0
102
RTVSPost2010PropOp34
 70
     0
102
RTVSPost2010Prop35
280
     0
102
RTVSPost2010PropOp35
 70
     0
102
RTVSPost2010Prop36
280
     0
102
RTVSPost2010PropOp36
 70
     0
102
RTVSPost2010Prop37
 90
       50
102
RTVSPost2010PropOp37
 70
     0
102
RTVSPost2010Prop38
140
0.0
102
RTVSPost2010PropOp38
 70
     0
102
RTVSPost2010Prop39
140
1.0
102
RTVSPost2010PropOp39
 70
     0
102
RTVSPost2010Prop40
 90
        0
102
RTVSPost2010PropOp40
 70
     0
102
RTVSPost2010Prop41ColorIndex
 90
       18
102
RTVSPost2010Prop41ColorRGB
 90
        0
102
RTVSPost2010PropOp41
 70
     0
102
RTVSPost2010Prop42
 90
       50
102
RTVSPost2010PropOp42
 70
     0
102
RTVSPost2010Prop43
 90
        3
102
RTVSPost2010PropOp43
 70
     0
102
RTVSPost2010Prop44ColorIndex
 90
        5
102
RTVSPost2010Prop44ColorRGB
 90
      255
102
RTVSPost2010PropOp44
 70
     0
102
RTVSPost2010Prop45
280
     0
102
RTVSPost2010PropOp45
 70
     0
102
RTVSPost2010Prop46
 90
       50
102
RTVSPost2010PropOp46
 70
     0
102
RTVSPost2010Prop47
 90
       50
102
RTVSPost2010PropOp47
 70
     0
102
RTVSPost2010Prop48
 90
       50
102
RTVSPost2010PropOp48
 70
     0
102
RTVSPost2010Prop49
280
     0
102
RTVSPost2010PropOp49
 70
     0
102
RTVSPost2010Prop50
 90
       50
102
RTVSPost2010PropOp50
 70
     0
102
RTVSPost2010Prop51ColorIndex
 90
      256
102
RTVSPost2010Prop51ColorRGB
 90
-16777216
102
RTVSPost2010PropOp51
 70
     0
102
RTVSPost2010Prop52
140
1.0
102
RTVSPost2010PropOp52
 70
     0
102
RTVSPost2010Prop53
 90
        2
102
RTVSPost2010PropOp53
 70
     0
102
RTVSPost2010Prop54
  1
strokes_ogs.tif
102
RTVSPost2010PropOp54
 70
     0
102
RTVSPost2010Prop55
280
     0
102
RTVSPost2010PropOp55
 70
     0
102
RTVSPost2010Prop56
140
1.0
102
RTVSPost2010PropOp56
 70
     0
102
RTVSPost2010Prop57
140
1.0
102
RTVSPost2010PropOp57
 70
     0
102
RTVSPropertyOp0
 70
     0
102
RTVSPropertyOp1
 70
     0
102
RTVSPropertyOp2
 70
     0
102
RTVSPropertyOp3
 70
     0
102
RTVSPropertyOp4
 70
     0
102
RTVSPropertyOp5
 70
     0
102
RTVSPropertyOp6
 70
     0
102
RTVSPropertyOp7
 70
     0
102
RTVSPropertyOp8
 70
     0
102
RTVSPropertyOp9
 70
     0
102
RTVSPropertyOp10
 70
     0
102
RTVSPropertyOp11
 70
     0
102
RTVSPropertyOp12
 70
     0
102
RTVSPropertyOp13
 70
     0
102
RTVSPropertyOp14
 70
     2
102
RTVSPropertyOp15
 70
     0
102
RTVSPropertyOp16
 70
     0
102
RTVSPropertyOp17
 70
     0
102
RTVSPropertyOp18
 70
     0
102
RTVSPropertyOp19
 70
     0
102
RTVSPropertyOp20
 70
     0
102
RTVSPropertyOp21
 70
     0
102
RTVSPropertyOp22
 70
     0
102
RTVSPropertyOp23
 70
     0
102
RTVSPropertyOp24
 70
     0
102
RTVSPropertyOp25
 70
     0
102
RTVSPropertyOp26
 70
     0
102
RTVSPropertyOp27
 70
     0
102
RTVSPropertyOp28
 70
     0
102
RTVSPropertyOp29
 70
     0
102
RTVSPropertyOp30
 70
     0
102
RTVSPropertyOp31
 70
     0
102
RTVSPropertyOp32
 70
     0
102
RTVSPropertyOp33
 70
     0
102
RTVSPropertyOp34
 70
     0
102
RTVSPropertyOp35
 70
     0
102
RTVSPropertyOp36
 70
     0
102
RTVSPropertyOp37
 70
     0
102
RTVSPropertyOp38
 70
     0
102
RTVSPropertyOp39
 70
     0
102
RTVSPropertyOp40
 70
     0
102
RTVSPropertyOp41
 70
     0
102
RTVSPropertyOp42
 70
     0
102
RTVSPropertyOp43
 70
     0
102
RTVSPropertyOp44
 70
     0
102
RTVSPropertyOp45
 70
     0
102
RTVSPropertyOp46
 70
     0
102
RTVSPropertyOp47
 70
     0
102
RTVSPropertyOp48
 70
     0
102
RTVSPropertyOp49
 70
     0
102
RTVSPropertyOp50
 70
     0
102
RTVSPropertyOp51
 70
     0
102
RTVSPropertyOp52
 70
     0
102
RTVSPropertyOp53
 70
     0
102
RTVSPropertyOp54
 70
     0
102
RTVSPropertyOp55
 70
     0
102
RTVSPropertyOp56
 70
     0
102
RTVSPropertyOp57
 70
     0
102
RTVSPropertyOp58
 70
     0
102
RTVSPropertyOp59
 70
     0
102
RTVSPropertyOp60
 70
     0
102
RTVSPropertyOp61
 70
     0
102
RTVSPropertyOp62
 70
     0
  0
XRECORD
  5
18166
102
{ACAD_REACTORS
330
18165
102
}
330
18165
100
AcDbXrecord
280
     1
102
RTVSPost2010Prop28
280
     0
102
RTVSPost2010PropOp28
 70
     1
102
RTVSPost2010Prop29
280
     1
102
RTVSPost2010PropOp29
 70
     1
102
RTVSPost2010Prop30
280
     1
102
RTVSPost2010PropOp30
 70
     1
102
RTVSPost2010Prop31
280
     0
102
RTVSPost2010PropOp31
 70
     1
102
RTVSPost2010Prop32
280
     0
102
RTVSPost2010PropOp32
 70
     1
102
RTVSPost2010Prop33
280
     0
102
RTVSPost2010PropOp33
 70
     1
102
RTVSPost2010Prop34
280
     0
102
RTVSPost2010PropOp34
 70
     1
102
RTVSPost2010Prop35
280
     0
102
RTVSPost2010PropOp35
 70
     1
102
RTVSPost2010Prop36
280
     0
102
RTVSPost2010PropOp36
 70
     1
102
RTVSPost2010Prop37
 90
       50
102
RTVSPost2010PropOp37
 70
     1
102
RTVSPost2010Prop38
140
0.0
102
RTVSPost2010PropOp38
 70
     1
102
RTVSPost2010Prop39
140
1.0
102
RTVSPost2010PropOp39
 70
     1
102
RTVSPost2010Prop40
 90
        0
102
RTVSPost2010PropOp40
 70
     1
102
RTVSPost2010Prop41ColorIndex
 90
       18
102
RTVSPost2010Prop41ColorRGB
 90
        0
102
RTVSPost2010PropOp41
 70
     1
102
RTVSPost2010Prop42
 90
       50
102
RTVSPost2010PropOp42
 70
     1
102
RTVSPost2010Prop43
 90
        3
102
RTVSPost2010PropOp43
 70
     1
102
RTVSPost2010Prop44ColorIndex
 90
        5
102
RTVSPost2010Prop44ColorRGB
 90
      255
102
RTVSPost2010PropOp44
 70
     1
102
RTVSPost2010Prop45
280
     0
102
RTVSPost2010PropOp45
 70
     1
102
RTVSPost2010Prop46
 90
       50
102
RTVSPost2010PropOp46
 70
     1
102
RTVSPost2010Prop47
 90
       50
102
RTVSPost2010PropOp47
 70
     1
102
RTVSPost2010Prop48
 90
       50
102
RTVSPost2010PropOp48
 70
     1
102
RTVSPost2010Prop49
280
     0
102
RTVSPost2010PropOp49
 70
     1
102
RTVSPost2010Prop50
 90
       50
102
RTVSPost2010PropOp50
 70
     1
102
RTVSPost2010Prop51ColorIndex
 90
      256
102
RTVSPost2010Prop51ColorRGB
 90
-16777216
102
RTVSPost2010PropOp51
 70
     0
102
RTVSPost2010Prop52
140
1.0
102
RTVSPost2010PropOp52
 70
     0
102
RTVSPost2010Prop53
 90
        2
102
RTVSPost2010PropOp53
 70
     1
102
RTVSPost2010Prop54
  1
strokes_ogs.tif
102
RTVSPost2010PropOp54
 70
     1
102
RTVSPost2010Prop55
280
     0
102
RTVSPost2010PropOp55
 70
     1
102
RTVSPost2010Prop56
140
1.0
102
RTVSPost2010PropOp56
 70
     1
102
RTVSPost2010Prop57
140
1.0
102
RTVSPost2010PropOp57
 70
     1
102
RTVSPropertyOp0
 70
     1
102
RTVSPropertyOp1
 70
     1
102
RTVSPropertyOp2
 70
     1
102
RTVSPropertyOp3
 70
     1
102
RTVSPropertyOp4
 70
     1
102
RTVSPropertyOp5
 70
     1
102
RTVSPropertyOp6
 70
     1
102
RTVSPropertyOp7
 70
     1
102
RTVSPropertyOp8
 70
     1
102
RTVSPropertyOp9
 70
     1
102
RTVSPropertyOp10
 70
     1
102
RTVSPropertyOp11
 70
     1
102
RTVSPropertyOp12
 70
     1
102
RTVSPropertyOp13
 70
     1
102
RTVSPropertyOp14
 70
     1
102
RTVSPropertyOp15
 70
     1
102
RTVSPropertyOp16
 70
     1
102
RTVSPropertyOp17
 70
     1
102
RTVSPropertyOp18
 70
     1
102
RTVSPropertyOp19
 70
     1
102
RTVSPropertyOp20
 70
     1
102
RTVSPropertyOp21
 70
     1
102
RTVSPropertyOp22
 70
     1
102
RTVSPropertyOp23
 70
     1
102
RTVSPropertyOp24
 70
     1
102
RTVSPropertyOp25
 70
     1
102
RTVSPropertyOp26
 70
     1
102
RTVSPropertyOp27
 70
     1
102
RTVSPropertyOp28
 70
     1
102
RTVSPropertyOp29
 70
     1
102
RTVSPropertyOp30
 70
     1
102
RTVSPropertyOp31
 70
     1
102
RTVSPropertyOp32
 70
     1
102
RTVSPropertyOp33
 70
     1
102
RTVSPropertyOp34
 70
     1
102
RTVSPropertyOp35
 70
     1
102
RTVSPropertyOp36
 70
     1
102
RTVSPropertyOp37
 70
     1
102
RTVSPropertyOp38
 70
     1
102
RTVSPropertyOp39
 70
     1
102
RTVSPropertyOp40
 70
     1
102
RTVSPropertyOp41
 70
     1
102
RTVSPropertyOp42
 70
     1
102
RTVSPropertyOp43
 70
     1
102
RTVSPropertyOp44
 70
     1
102
RTVSPropertyOp45
 70
     1
102
RTVSPropertyOp46
 70
     1
102
RTVSPropertyOp47
 70
     1
102
RTVSPropertyOp48
 70
     1
102
RTVSPropertyOp49
 70
     1
102
RTVSPropertyOp50
 70
     1
102
RTVSPropertyOp51
 70
     0
102
RTVSPropertyOp52
 70
     0
102
RTVSPropertyOp53
 70
     1
102
RTVSPropertyOp54
 70
     1
102
RTVSPropertyOp55
 70
     1
102
RTVSPropertyOp56
 70
     1
102
RTVSPropertyOp57
 70
     1
102
RTVSPropertyOp58
 70
     1
102
RTVSPropertyOp59
 70
     1
102
RTVSPropertyOp60
 70
     1
102
RTVSPropertyOp61
 70
     1
102
RTVSPropertyOp62
 70
     1
  0
XRECORD
  5
1814A
102
{ACAD_REACTORS
330
18149
102
}
330
18149
100
AcDbXrecord
280
     1
102
RTVSPost2010Prop28
280
     0
102
RTVSPost2010PropOp28
 70
     1
102
RTVSPost2010Prop29
280
     1
102
RTVSPost2010PropOp29
 70
     1
102
RTVSPost2010Prop30
280
     1
102
RTVSPost2010PropOp30
 70
     1
102
RTVSPost2010Prop31
280
     0
102
RTVSPost2010PropOp31
 70
     1
102
RTVSPost2010Prop32
280
     0
102
RTVSPost2010PropOp32
 70
     1
102
RTVSPost2010Prop33
280
     0
102
RTVSPost2010PropOp33
 70
     1
102
RTVSPost2010Prop34
280
     0
102
RTVSPost2010PropOp34
 70
     1
102
RTVSPost2010Prop35
280
     0
102
RTVSPost2010PropOp35
 70
     1
102
RTVSPost2010Prop36
280
     0
102
RTVSPost2010PropOp36
 70
     1
102
RTVSPost2010Prop37
 90
       50
102
RTVSPost2010PropOp37
 70
     1
102
RTVSPost2010Prop38
140
0.0
102
RTVSPost2010PropOp38
 70
     1
102
RTVSPost2010Prop39
140
1.0
102
RTVSPost2010PropOp39
 70
     1
102
RTVSPost2010Prop40
 90
        0
102
RTVSPost2010PropOp40
 70
     1
102
RTVSPost2010Prop41ColorIndex
 90
       18
102
RTVSPost2010Prop41ColorRGB
 90
        0
102
RTVSPost2010PropOp41
 70
     1
102
RTVSPost2010Prop42
 90
       50
102
RTVSPost2010PropOp42
 70
     1
102
RTVSPost2010Prop43
 90
        3
102
RTVSPost2010PropOp43
 70
     1
102
RTVSPost2010Prop44ColorIndex
 90
        5
102
RTVSPost2010Prop44ColorRGB
 90
      255
102
RTVSPost2010PropOp44
 70
     1
102
RTVSPost2010Prop45
280
     0
102
RTVSPost2010PropOp45
 70
     1
102
RTVSPost2010Prop46
 90
       50
102
RTVSPost2010PropOp46
 70
     1
102
RTVSPost2010Prop47
 90
       50
102
RTVSPost2010PropOp47
 70
     1
102
RTVSPost2010Prop48
 90
       50
102
RTVSPost2010PropOp48
 70
     1
102
RTVSPost2010Prop49
280
     0
102
RTVSPost2010PropOp49
 70
     1
102
RTVSPost2010Prop50
 90
       50
102
RTVSPost2010PropOp50
 70
     1
102
RTVSPost2010Prop51ColorIndex
 90
      256
102
RTVSPost2010Prop51ColorRGB
 90
-16777216
102
RTVSPost2010PropOp51
 70
     0
102
RTVSPost2010Prop52
140
1.0
102
RTVSPost2010PropOp52
 70
     0
102
RTVSPost2010Prop53
 90
        2
102
RTVSPost2010PropOp53
 70
     1
102
RTVSPost2010Prop54
  1
strokes_ogs.tif
102
RTVSPost2010PropOp54
 70
     1
102
RTVSPost2010Prop55
280
     0
102
RTVSPost2010PropOp55
 70
     1
102
RTVSPost2010Prop56
140
1.0
102
RTVSPost2010PropOp56
 70
     1
102
RTVSPost2010Prop57
140
1.0
102
RTVSPost2010PropOp57
 70
     1
102
RTVSPropertyOp0
 70
     1
102
RTVSPropertyOp1
 70
     1
102
RTVSPropertyOp2
 70
     1
102
RTVSPropertyOp3
 70
     1
102
RTVSPropertyOp4
 70
     1
102
RTVSPropertyOp5
 70
     1
102
RTVSPropertyOp6
 70
     1
102
RTVSPropertyOp7
 70
     1
102
RTVSPropertyOp8
 70
     1
102
RTVSPropertyOp9
 70
     1
102
RTVSPropertyOp10
 70
     1
102
RTVSPropertyOp11
 70
     1
102
RTVSPropertyOp12
 70
     1
102
RTVSPropertyOp13
 70
     1
102
RTVSPropertyOp14
 70
     1
102
RTVSPropertyOp15
 70
     1
102
RTVSPropertyOp16
 70
     1
102
RTVSPropertyOp17
 70
     1
102
RTVSPropertyOp18
 70
     1
102
RTVSPropertyOp19
 70
     1
102
RTVSPropertyOp20
 70
     1
102
RTVSPropertyOp21
 70
     1
102
RTVSPropertyOp22
 70
     1
102
RTVSPropertyOp23
 70
     1
102
RTVSPropertyOp24
 70
     1
102
RTVSPropertyOp25
 70
     1
102
RTVSPropertyOp26
 70
     1
102
RTVSPropertyOp27
 70
     1
102
RTVSPropertyOp28
 70
     1
102
RTVSPropertyOp29
 70
     1
102
RTVSPropertyOp30
 70
     1
102
RTVSPropertyOp31
 70
     1
102
RTVSPropertyOp32
 70
     1
102
RTVSPropertyOp33
 70
     1
102
RTVSPropertyOp34
 70
     1
102
RTVSPropertyOp35
 70
     1
102
RTVSPropertyOp36
 70
     1
102
RTVSPropertyOp37
 70
     1
102
RTVSPropertyOp38
 70
     1
102
RTVSPropertyOp39
 70
     1
102
RTVSPropertyOp40
 70
     1
102
RTVSPropertyOp41
 70
     1
102
RTVSPropertyOp42
 70
     1
102
RTVSPropertyOp43
 70
     1
102
RTVSPropertyOp44
 70
     1
102
RTVSPropertyOp45
 70
     1
102
RTVSPropertyOp46
 70
     1
102
RTVSPropertyOp47
 70
     1
102
RTVSPropertyOp48
 70
     1
102
RTVSPropertyOp49
 70
     1
102
RTVSPropertyOp50
 70
     1
102
RTVSPropertyOp51
 70
     0
102
RTVSPropertyOp52
 70
     0
102
RTVSPropertyOp53
 70
     1
102
RTVSPropertyOp54
 70
     1
102
RTVSPropertyOp55
 70
     1
102
RTVSPropertyOp56
 70
     1
102
RTVSPropertyOp57
 70
     1
102
RTVSPropertyOp58
 70
     1
102
RTVSPropertyOp59
 70
     1
102
RTVSPropertyOp60
 70
     1
102
RTVSPropertyOp61
 70
     1
102
RTVSPropertyOp62
 70
     1
  0
XRECORD
  5
1814C
102
{ACAD_REACTORS
330
1814B
102
}
330
1814B
100
AcDbXrecord
280
     1
102
RTVSPost2010Prop28
280
     0
102
RTVSPost2010PropOp28
 70
     1
102
RTVSPost2010Prop29
280
     1
102
RTVSPost2010PropOp29
 70
     1
102
RTVSPost2010Prop30
280
     1
102
RTVSPost2010PropOp30
 70
     1
102
RTVSPost2010Prop31
280
     0
102
RTVSPost2010PropOp31
 70
     1
102
RTVSPost2010Prop32
280
     0
102
RTVSPost2010PropOp32
 70
     1
102
RTVSPost2010Prop33
280
     0
102
RTVSPost2010PropOp33
 70
     1
102
RTVSPost2010Prop34
280
     0
102
RTVSPost2010PropOp34
 70
     1
102
RTVSPost2010Prop35
280
     0
102
RTVSPost2010PropOp35
 70
     1
102
RTVSPost2010Prop36
280
     0
102
RTVSPost2010PropOp36
 70
     1
102
RTVSPost2010Prop37
 90
       50
102
RTVSPost2010PropOp37
 70
     1
102
RTVSPost2010Prop38
140
0.0
102
RTVSPost2010PropOp38
 70
     1
102
RTVSPost2010Prop39
140
1.0
102
RTVSPost2010PropOp39
 70
     1
102
RTVSPost2010Prop40
 90
        0
102
RTVSPost2010PropOp40
 70
     1
102
RTVSPost2010Prop41ColorIndex
 90
       18
102
RTVSPost2010Prop41ColorRGB
 90
        0
102
RTVSPost2010PropOp41
 70
     1
102
RTVSPost2010Prop42
 90
       50
102
RTVSPost2010PropOp42
 70
     1
102
RTVSPost2010Prop43
 90
        3
102
RTVSPost2010PropOp43
 70
     1
102
RTVSPost2010Prop44ColorIndex
 90
        5
102
RTVSPost2010Prop44ColorRGB
 90
      255
102
RTVSPost2010PropOp44
 70
     1
102
RTVSPost2010Prop45
280
     0
102
RTVSPost2010PropOp45
 70
     1
102
RTVSPost2010Prop46
 90
       50
102
RTVSPost2010PropOp46
 70
     1
102
RTVSPost2010Prop47
 90
       50
102
RTVSPost2010PropOp47
 70
     1
102
RTVSPost2010Prop48
 90
       50
102
RTVSPost2010PropOp48
 70
     1
102
RTVSPost2010Prop49
280
     0
102
RTVSPost2010PropOp49
 70
     1
102
RTVSPost2010Prop50
 90
       50
102
RTVSPost2010PropOp50
 70
     1
102
RTVSPost2010Prop51ColorIndex
 90
      256
102
RTVSPost2010Prop51ColorRGB
 90
-16777216
102
RTVSPost2010PropOp51
 70
     0
102
RTVSPost2010Prop52
140
1.0
102
RTVSPost2010PropOp52
 70
     0
102
RTVSPost2010Prop53
 90
        2
102
RTVSPost2010PropOp53
 70
     1
102
RTVSPost2010Prop54
  1
strokes_ogs.tif
102
RTVSPost2010PropOp54
 70
     1
102
RTVSPost2010Prop55
280
     0
102
RTVSPost2010PropOp55
 70
     1
102
RTVSPost2010Prop56
140
1.0
102
RTVSPost2010PropOp56
 70
     1
102
RTVSPost2010Prop57
140
1.0
102
RTVSPost2010PropOp57
 70
     1
102
RTVSPropertyOp0
 70
     1
102
RTVSPropertyOp1
 70
     1
102
RTVSPropertyOp2
 70
     1
102
RTVSPropertyOp3
 70
     1
102
RTVSPropertyOp4
 70
     1
102
RTVSPropertyOp5
 70
     1
102
RTVSPropertyOp6
 70
     1
102
RTVSPropertyOp7
 70
     1
102
RTVSPropertyOp8
 70
     1
102
RTVSPropertyOp9
 70
     1
102
RTVSPropertyOp10
 70
     1
102
RTVSPropertyOp11
 70
     1
102
RTVSPropertyOp12
 70
     1
102
RTVSPropertyOp13
 70
     1
102
RTVSPropertyOp14
 70
     1
102
RTVSPropertyOp15
 70
     1
102
RTVSPropertyOp16
 70
     1
102
RTVSPropertyOp17
 70
     1
102
RTVSPropertyOp18
 70
     1
102
RTVSPropertyOp19
 70
     1
102
RTVSPropertyOp20
 70
     1
102
RTVSPropertyOp21
 70
     1
102
RTVSPropertyOp22
 70
     1
102
RTVSPropertyOp23
 70
     1
102
RTVSPropertyOp24
 70
     1
102
RTVSPropertyOp25
 70
     1
102
RTVSPropertyOp26
 70
     1
102
RTVSPropertyOp27
 70
     1
102
RTVSPropertyOp28
 70
     1
102
RTVSPropertyOp29
 70
     1
102
RTVSPropertyOp30
 70
     1
102
RTVSPropertyOp31
 70
     1
102
RTVSPropertyOp32
 70
     1
102
RTVSPropertyOp33
 70
     1
102
RTVSPropertyOp34
 70
     1
102
RTVSPropertyOp35
 70
     1
102
RTVSPropertyOp36
 70
     1
102
RTVSPropertyOp37
 70
     1
102
RTVSPropertyOp38
 70
     1
102
RTVSPropertyOp39
 70
     1
102
RTVSPropertyOp40
 70
     1
102
RTVSPropertyOp41
 70
     1
102
RTVSPropertyOp42
 70
     1
102
RTVSPropertyOp43
 70
     1
102
RTVSPropertyOp44
 70
     1
102
RTVSPropertyOp45
 70
     1
102
RTVSPropertyOp46
 70
     1
102
RTVSPropertyOp47
 70
     1
102
RTVSPropertyOp48
 70
     1
102
RTVSPropertyOp49
 70
     1
102
RTVSPropertyOp50
 70
     1
102
RTVSPropertyOp51
 70
     0
102
RTVSPropertyOp52
 70
     0
102
RTVSPropertyOp53
 70
     1
102
RTVSPropertyOp54
 70
     1
102
RTVSPropertyOp55
 70
     1
102
RTVSPropertyOp56
 70
     1
102
RTVSPropertyOp57
 70
     1
102
RTVSPropertyOp58
 70
     1
102
RTVSPropertyOp59
 70
     1
102
RTVSPropertyOp60
 70
     1
102
RTVSPropertyOp61
 70
     1
102
RTVSPropertyOp62
 70
     1
  0
XRECORD
  5
1814E
102
{ACAD_REACTORS
330
1814D
102
}
330
1814D
100
AcDbXrecord
280
     1
102
RTVSPost2010Prop28
280
     0
102
RTVSPost2010PropOp28
 70
     1
102
RTVSPost2010Prop29
280
     1
102
RTVSPost2010PropOp29
 70
     1
102
RTVSPost2010Prop30
280
     1
102
RTVSPost2010PropOp30
 70
     1
102
RTVSPost2010Prop31
280
     0
102
RTVSPost2010PropOp31
 70
     1
102
RTVSPost2010Prop32
280
     0
102
RTVSPost2010PropOp32
 70
     1
102
RTVSPost2010Prop33
280
     0
102
RTVSPost2010PropOp33
 70
     1
102
RTVSPost2010Prop34
280
     0
102
RTVSPost2010PropOp34
 70
     1
102
RTVSPost2010Prop35
280
     0
102
RTVSPost2010PropOp35
 70
     1
102
RTVSPost2010Prop36
280
     0
102
RTVSPost2010PropOp36
 70
     1
102
RTVSPost2010Prop37
 90
       50
102
RTVSPost2010PropOp37
 70
     1
102
RTVSPost2010Prop38
140
0.0
102
RTVSPost2010PropOp38
 70
     1
102
RTVSPost2010Prop39
140
1.0
102
RTVSPost2010PropOp39
 70
     1
102
RTVSPost2010Prop40
 90
        0
102
RTVSPost2010PropOp40
 70
     1
102
RTVSPost2010Prop41ColorIndex
 90
       18
102
RTVSPost2010Prop41ColorRGB
 90
        0
102
RTVSPost2010PropOp41
 70
     1
102
RTVSPost2010Prop42
 90
       50
102
RTVSPost2010PropOp42
 70
     1
102
RTVSPost2010Prop43
 90
        3
102
RTVSPost2010PropOp43
 70
     1
102
RTVSPost2010Prop44ColorIndex
 90
        5
102
RTVSPost2010Prop44ColorRGB
 90
      255
102
RTVSPost2010PropOp44
 70
     1
102
RTVSPost2010Prop45
280
     0
102
RTVSPost2010PropOp45
 70
     1
102
RTVSPost2010Prop46
 90
       50
102
RTVSPost2010PropOp46
 70
     1
102
RTVSPost2010Prop47
 90
       50
102
RTVSPost2010PropOp47
 70
     1
102
RTVSPost2010Prop48
 90
       50
102
RTVSPost2010PropOp48
 70
     1
102
RTVSPost2010Prop49
280
     0
102
RTVSPost2010PropOp49
 70
     1
102
RTVSPost2010Prop50
 90
       50
102
RTVSPost2010PropOp50
 70
     1
102
RTVSPost2010Prop51ColorIndex
 90
      256
102
RTVSPost2010Prop51ColorRGB
 90
-16777216
102
RTVSPost2010PropOp51
 70
     0
102
RTVSPost2010Prop52
140
1.0
102
RTVSPost2010PropOp52
 70
     0
102
RTVSPost2010Prop53
 90
        2
102
RTVSPost2010PropOp53
 70
     1
102
RTVSPost2010Prop54
  1
strokes_ogs.tif
102
RTVSPost2010PropOp54
 70
     1
102
RTVSPost2010Prop55
280
     0
102
RTVSPost2010PropOp55
 70
     1
102
RTVSPost2010Prop56
140
1.0
102
RTVSPost2010PropOp56
 70
     1
102
RTVSPost2010Prop57
140
1.0
102
RTVSPost2010PropOp57
 70
     1
102
RTVSPropertyOp0
 70
     1
102
RTVSPropertyOp1
 70
     1
102
RTVSPropertyOp2
 70
     1
102
RTVSPropertyOp3
 70
     1
102
RTVSPropertyOp4
 70
     1
102
RTVSPropertyOp5
 70
     1
102
RTVSPropertyOp6
 70
     1
102
RTVSPropertyOp7
 70
     1
102
RTVSPropertyOp8
 70
     1
102
RTVSPropertyOp9
 70
     1
102
RTVSPropertyOp10
 70
     1
102
RTVSPropertyOp11
 70
     1
102
RTVSPropertyOp12
 70
     1
102
RTVSPropertyOp13
 70
     1
102
RTVSPropertyOp14
 70
     1
102
RTVSPropertyOp15
 70
     1
102
RTVSPropertyOp16
 70
     1
102
RTVSPropertyOp17
 70
     1
102
RTVSPropertyOp18
 70
     1
102
RTVSPropertyOp19
 70
     1
102
RTVSPropertyOp20
 70
     1
102
RTVSPropertyOp21
 70
     1
102
RTVSPropertyOp22
 70
     1
102
RTVSPropertyOp23
 70
     1
102
RTVSPropertyOp24
 70
     1
102
RTVSPropertyOp25
 70
     1
102
RTVSPropertyOp26
 70
     1
102
RTVSPropertyOp27
 70
     1
102
RTVSPropertyOp28
 70
     1
102
RTVSPropertyOp29
 70
     1
102
RTVSPropertyOp30
 70
     1
102
RTVSPropertyOp31
 70
     1
102
RTVSPropertyOp32
 70
     1
102
RTVSPropertyOp33
 70
     1
102
RTVSPropertyOp34
 70
     1
102
RTVSPropertyOp35
 70
     1
102
RTVSPropertyOp36
 70
     1
102
RTVSPropertyOp37
 70
     1
102
RTVSPropertyOp38
 70
     1
102
RTVSPropertyOp39
 70
     1
102
RTVSPropertyOp40
 70
     1
102
RTVSPropertyOp41
 70
     1
102
RTVSPropertyOp42
 70
     1
102
RTVSPropertyOp43
 70
     1
102
RTVSPropertyOp44
 70
     1
102
RTVSPropertyOp45
 70
     1
102
RTVSPropertyOp46
 70
     1
102
RTVSPropertyOp47
 70
     1
102
RTVSPropertyOp48
 70
     1
102
RTVSPropertyOp49
 70
     1
102
RTVSPropertyOp50
 70
     1
102
RTVSPropertyOp51
 70
     0
102
RTVSPropertyOp52
 70
     0
102
RTVSPropertyOp53
 70
     1
102
RTVSPropertyOp54
 70
     1
102
RTVSPropertyOp55
 70
     1
102
RTVSPropertyOp56
 70
     1
102
RTVSPropertyOp57
 70
     1
102
RTVSPropertyOp58
 70
     1
102
RTVSPropertyOp59
 70
     1
102
RTVSPropertyOp60
 70
     1
102
RTVSPropertyOp61
 70
     1
102
RTVSPropertyOp62
 70
     1
  0
XRECORD
  5
18150
102
{ACAD_REACTORS
330
1814F
102
}
330
1814F
100
AcDbXrecord
280
     1
102
RTVSPost2010Prop28
280
     0
102
RTVSPost2010PropOp28
 70
     1
102
RTVSPost2010Prop29
280
     1
102
RTVSPost2010PropOp29
 70
     1
102
RTVSPost2010Prop30
280
     1
102
RTVSPost2010PropOp30
 70
     1
102
RTVSPost2010Prop31
280
     0
102
RTVSPost2010PropOp31
 70
     1
102
RTVSPost2010Prop32
280
     0
102
RTVSPost2010PropOp32
 70
     1
102
RTVSPost2010Prop33
280
     0
102
RTVSPost2010PropOp33
 70
     1
102
RTVSPost2010Prop34
280
     0
102
RTVSPost2010PropOp34
 70
     1
102
RTVSPost2010Prop35
280
     0
102
RTVSPost2010PropOp35
 70
     1
102
RTVSPost2010Prop36
280
     0
102
RTVSPost2010PropOp36
 70
     1
102
RTVSPost2010Prop37
 90
       50
102
RTVSPost2010PropOp37
 70
     1
102
RTVSPost2010Prop38
140
0.0
102
RTVSPost2010PropOp38
 70
     1
102
RTVSPost2010Prop39
140
1.0
102
RTVSPost2010PropOp39
 70
     1
102
RTVSPost2010Prop40
 90
        0
102
RTVSPost2010PropOp40
 70
     1
102
RTVSPost2010Prop41ColorIndex
 90
       18
102
RTVSPost2010Prop41ColorRGB
 90
        0
102
RTVSPost2010PropOp41
 70
     1
102
RTVSPost2010Prop42
 90
       50
102
RTVSPost2010PropOp42
 70
     1
102
RTVSPost2010Prop43
 90
        3
102
RTVSPost2010PropOp43
 70
     1
102
RTVSPost2010Prop44ColorIndex
 90
        5
102
RTVSPost2010Prop44ColorRGB
 90
      255
102
RTVSPost2010PropOp44
 70
     1
102
RTVSPost2010Prop45
280
     0
102
RTVSPost2010PropOp45
 70
     1
102
RTVSPost2010Prop46
 90
       50
102
RTVSPost2010PropOp46
 70
     1
102
RTVSPost2010Prop47
 90
       50
102
RTVSPost2010PropOp47
 70
     1
102
RTVSPost2010Prop48
 90
       50
102
RTVSPost2010PropOp48
 70
     1
102
RTVSPost2010Prop49
280
     0
102
RTVSPost2010PropOp49
 70
     1
102
RTVSPost2010Prop50
 90
       50
102
RTVSPost2010PropOp50
 70
     1
102
RTVSPost2010Prop51ColorIndex
 90
      256
102
RTVSPost2010Prop51ColorRGB
 90
-16777216
102
RTVSPost2010PropOp51
 70
     0
102
RTVSPost2010Prop52
140
1.0
102
RTVSPost2010PropOp52
 70
     0
102
RTVSPost2010Prop53
 90
        2
102
RTVSPost2010PropOp53
 70
     1
102
RTVSPost2010Prop54
  1
strokes_ogs.tif
102
RTVSPost2010PropOp54
 70
     1
102
RTVSPost2010Prop55
280
     0
102
RTVSPost2010PropOp55
 70
     1
102
RTVSPost2010Prop56
140
1.0
102
RTVSPost2010PropOp56
 70
     1
102
RTVSPost2010Prop57
140
1.0
102
RTVSPost2010PropOp57
 70
     1
102
RTVSPropertyOp0
 70
     1
102
RTVSPropertyOp1
 70
     1
102
RTVSPropertyOp2
 70
     1
102
RTVSPropertyOp3
 70
     1
102
RTVSPropertyOp4
 70
     1
102
RTVSPropertyOp5
 70
     1
102
RTVSPropertyOp6
 70
     1
102
RTVSPropertyOp7
 70
     1
102
RTVSPropertyOp8
 70
     1
102
RTVSPropertyOp9
 70
     1
102
RTVSPropertyOp10
 70
     1
102
RTVSPropertyOp11
 70
     1
102
RTVSPropertyOp12
 70
     1
102
RTVSPropertyOp13
 70
     1
102
RTVSPropertyOp14
 70
     1
102
RTVSPropertyOp15
 70
     1
102
RTVSPropertyOp16
 70
     1
102
RTVSPropertyOp17
 70
     1
102
RTVSPropertyOp18
 70
     1
102
RTVSPropertyOp19
 70
     1
102
RTVSPropertyOp20
 70
     1
102
RTVSPropertyOp21
 70
     1
102
RTVSPropertyOp22
 70
     1
102
RTVSPropertyOp23
 70
     1
102
RTVSPropertyOp24
 70
     1
102
RTVSPropertyOp25
 70
     1
102
RTVSPropertyOp26
 70
     1
102
RTVSPropertyOp27
 70
     1
102
RTVSPropertyOp28
 70
     1
102
RTVSPropertyOp29
 70
     1
102
RTVSPropertyOp30
 70
     1
102
RTVSPropertyOp31
 70
     1
102
RTVSPropertyOp32
 70
     1
102
RTVSPropertyOp33
 70
     1
102
RTVSPropertyOp34
 70
     1
102
RTVSPropertyOp35
 70
     1
102
RTVSPropertyOp36
 70
     1
102
RTVSPropertyOp37
 70
     1
102
RTVSPropertyOp38
 70
     1
102
RTVSPropertyOp39
 70
     1
102
RTVSPropertyOp40
 70
     1
102
RTVSPropertyOp41
 70
     1
102
RTVSPropertyOp42
 70
     1
102
RTVSPropertyOp43
 70
     1
102
RTVSPropertyOp44
 70
     1
102
RTVSPropertyOp45
 70
     1
102
RTVSPropertyOp46
 70
     1
102
RTVSPropertyOp47
 70
     1
102
RTVSPropertyOp48
 70
     1
102
RTVSPropertyOp49
 70
     1
102
RTVSPropertyOp50
 70
     1
102
RTVSPropertyOp51
 70
     0
102
RTVSPropertyOp52
 70
     0
102
RTVSPropertyOp53
 70
     1
102
RTVSPropertyOp54
 70
     1
102
RTVSPropertyOp55
 70
     1
102
RTVSPropertyOp56
 70
     1
102
RTVSPropertyOp57
 70
     1
102
RTVSPropertyOp58
 70
     1
102
RTVSPropertyOp59
 70
     1
102
RTVSPropertyOp60
 70
     1
102
RTVSPropertyOp61
 70
     1
102
RTVSPropertyOp62
 70
     1
  0
XRECORD
  5
18158
102
{ACAD_REACTORS
330
18157
102
}
330
18157
100
AcDbXrecord
280
     1
102
RTVSPost2010Prop28
280
     0
102
RTVSPost2010PropOp28
 70
     1
102
RTVSPost2010Prop29
280
     1
102
RTVSPost2010PropOp29
 70
     1
102
RTVSPost2010Prop30
280
     1
102
RTVSPost2010PropOp30
 70
     1
102
RTVSPost2010Prop31
280
     0
102
RTVSPost2010PropOp31
 70
     1
102
RTVSPost2010Prop32
280
     0
102
RTVSPost2010PropOp32
 70
     1
102
RTVSPost2010Prop33
280
     0
102
RTVSPost2010PropOp33
 70
     1
102
RTVSPost2010Prop34
280
     0
102
RTVSPost2010PropOp34
 70
     1
102
RTVSPost2010Prop35
280
     0
102
RTVSPost2010PropOp35
 70
     1
102
RTVSPost2010Prop36
280
     0
102
RTVSPost2010PropOp36
 70
     1
102
RTVSPost2010Prop37
 90
       50
102
RTVSPost2010PropOp37
 70
     1
102
RTVSPost2010Prop38
140
0.0
102
RTVSPost2010PropOp38
 70
     1
102
RTVSPost2010Prop39
140
1.0
102
RTVSPost2010PropOp39
 70
     1
102
RTVSPost2010Prop40
 90
        0
102
RTVSPost2010PropOp40
 70
     1
102
RTVSPost2010Prop41ColorIndex
 90
       18
102
RTVSPost2010Prop41ColorRGB
 90
        0
102
RTVSPost2010PropOp41
 70
     1
102
RTVSPost2010Prop42
 90
       50
102
RTVSPost2010PropOp42
 70
     1
102
RTVSPost2010Prop43
 90
        3
102
RTVSPost2010PropOp43
 70
     1
102
RTVSPost2010Prop44ColorIndex
 90
        5
102
RTVSPost2010Prop44ColorRGB
 90
      255
102
RTVSPost2010PropOp44
 70
     1
102
RTVSPost2010Prop45
280
     0
102
RTVSPost2010PropOp45
 70
     1
102
RTVSPost2010Prop46
 90
       50
102
RTVSPost2010PropOp46
 70
     1
102
RTVSPost2010Prop47
 90
       50
102
RTVSPost2010PropOp47
 70
     1
102
RTVSPost2010Prop48
 90
       50
102
RTVSPost2010PropOp48
 70
     1
102
RTVSPost2010Prop49
280
     0
102
RTVSPost2010PropOp49
 70
     1
102
RTVSPost2010Prop50
 90
       50
102
RTVSPost2010PropOp50
 70
     1
102
RTVSPost2010Prop51ColorIndex
 90
      256
102
RTVSPost2010Prop51ColorRGB
 90
-16777216
102
RTVSPost2010PropOp51
 70
     0
102
RTVSPost2010Prop52
140
1.0
102
RTVSPost2010PropOp52
 70
     0
102
RTVSPost2010Prop53
 90
        2
102
RTVSPost2010PropOp53
 70
     1
102
RTVSPost2010Prop54
  1
strokes_ogs.tif
102
RTVSPost2010PropOp54
 70
     1
102
RTVSPost2010Prop55
280
     0
102
RTVSPost2010PropOp55
 70
     1
102
RTVSPost2010Prop56
140
1.0
102
RTVSPost2010PropOp56
 70
     1
102
RTVSPost2010Prop57
140
1.0
102
RTVSPost2010PropOp57
 70
     1
102
RTVSPropertyOp0
 70
     1
102
RTVSPropertyOp1
 70
     1
102
RTVSPropertyOp2
 70
     1
102
RTVSPropertyOp3
 70
     1
102
RTVSPropertyOp4
 70
     1
102
RTVSPropertyOp5
 70
     1
102
RTVSPropertyOp6
 70
     1
102
RTVSPropertyOp7
 70
     1
102
RTVSPropertyOp8
 70
     1
102
RTVSPropertyOp9
 70
     1
102
RTVSPropertyOp10
 70
     1
102
RTVSPropertyOp11
 70
     1
102
RTVSPropertyOp12
 70
     1
102
RTVSPropertyOp13
 70
     1
102
RTVSPropertyOp14
 70
     1
102
RTVSPropertyOp15
 70
     1
102
RTVSPropertyOp16
 70
     1
102
RTVSPropertyOp17
 70
     1
102
RTVSPropertyOp18
 70
     1
102
RTVSPropertyOp19
 70
     1
102
RTVSPropertyOp20
 70
     1
102
RTVSPropertyOp21
 70
     1
102
RTVSPropertyOp22
 70
     1
102
RTVSPropertyOp23
 70
     1
102
RTVSPropertyOp24
 70
     1
102
RTVSPropertyOp25
 70
     1
102
RTVSPropertyOp26
 70
     1
102
RTVSPropertyOp27
 70
     1
102
RTVSPropertyOp28
 70
     1
102
RTVSPropertyOp29
 70
     1
102
RTVSPropertyOp30
 70
     1
102
RTVSPropertyOp31
 70
     1
102
RTVSPropertyOp32
 70
     1
102
RTVSPropertyOp33
 70
     1
102
RTVSPropertyOp34
 70
     1
102
RTVSPropertyOp35
 70
     1
102
RTVSPropertyOp36
 70
     1
102
RTVSPropertyOp37
 70
     1
102
RTVSPropertyOp38
 70
     1
102
RTVSPropertyOp39
 70
     1
102
RTVSPropertyOp40
 70
     1
102
RTVSPropertyOp41
 70
     1
102
RTVSPropertyOp42
 70
     1
102
RTVSPropertyOp43
 70
     1
102
RTVSPropertyOp44
 70
     1
102
RTVSPropertyOp45
 70
     1
102
RTVSPropertyOp46
 70
     1
102
RTVSPropertyOp47
 70
     1
102
RTVSPropertyOp48
 70
     1
102
RTVSPropertyOp49
 70
     1
102
RTVSPropertyOp50
 70
     1
102
RTVSPropertyOp51
 70
     0
102
RTVSPropertyOp52
 70
     0
102
RTVSPropertyOp53
 70
     1
102
RTVSPropertyOp54
 70
     1
102
RTVSPropertyOp55
 70
     1
102
RTVSPropertyOp56
 70
     1
102
RTVSPropertyOp57
 70
     1
102
RTVSPropertyOp58
 70
     1
102
RTVSPropertyOp59
 70
     1
102
RTVSPropertyOp60
 70
     1
102
RTVSPropertyOp61
 70
     1
102
RTVSPropertyOp62
 70
     1
  0
XRECORD
  5
18174
102
{ACAD_REACTORS
330
18173
102
}
330
18173
100
AcDbXrecord
280
     1
102
RTVSPost2010Prop28
280
     0
102
RTVSPost2010PropOp28
 70
     0
102
RTVSPost2010Prop29
280
     1
102
RTVSPost2010PropOp29
 70
     0
102
RTVSPost2010Prop30
280
     1
102
RTVSPost2010PropOp30
 70
     0
102
RTVSPost2010Prop31
280
     0
102
RTVSPost2010PropOp31
 70
     0
102
RTVSPost2010Prop32
280
     0
102
RTVSPost2010PropOp32
 70
     0
102
RTVSPost2010Prop33
280
     0
102
RTVSPost2010PropOp33
 70
     0
102
RTVSPost2010Prop34
280
     0
102
RTVSPost2010PropOp34
 70
     0
102
RTVSPost2010Prop35
280
     0
102
RTVSPost2010PropOp35
 70
     0
102
RTVSPost2010Prop36
280
     0
102
RTVSPost2010PropOp36
 70
     0
102
RTVSPost2010Prop37
 90
       50
102
RTVSPost2010PropOp37
 70
     0
102
RTVSPost2010Prop38
140
0.0
102
RTVSPost2010PropOp38
 70
     0
102
RTVSPost2010Prop39
140
1.0
102
RTVSPost2010PropOp39
 70
     0
102
RTVSPost2010Prop40
 90
        0
102
RTVSPost2010PropOp40
 70
     0
102
RTVSPost2010Prop41ColorIndex
 90
       18
102
RTVSPost2010Prop41ColorRGB
 90
        0
102
RTVSPost2010PropOp41
 70
     0
102
RTVSPost2010Prop42
 90
       50
102
RTVSPost2010PropOp42
 70
     0
102
RTVSPost2010Prop43
 90
        3
102
RTVSPost2010PropOp43
 70
     0
102
RTVSPost2010Prop44ColorIndex
 90
        5
102
RTVSPost2010Prop44ColorRGB
 90
      255
102
RTVSPost2010PropOp44
 70
     0
102
RTVSPost2010Prop45
280
     0
102
RTVSPost2010PropOp45
 70
     0
102
RTVSPost2010Prop46
 90
       50
102
RTVSPost2010PropOp46
 70
     0
102
RTVSPost2010Prop47
 90
       50
102
RTVSPost2010PropOp47
 70
     0
102
RTVSPost2010Prop48
 90
       50
102
RTVSPost2010PropOp48
 70
     0
102
RTVSPost2010Prop49
280
     0
102
RTVSPost2010PropOp49
 70
     0
102
RTVSPost2010Prop50
 90
       50
102
RTVSPost2010PropOp50
 70
     0
102
RTVSPost2010Prop51ColorIndex
 90
      256
102
RTVSPost2010Prop51ColorRGB
 90
-16777216
102
RTVSPost2010PropOp51
 70
     0
102
RTVSPost2010Prop52
140
1.0
102
RTVSPost2010PropOp52
 70
     0
102
RTVSPost2010Prop53
 90
        2
102
RTVSPost2010PropOp53
 70
     0
102
RTVSPost2010Prop54
  1
strokes_ogs.tif
102
RTVSPost2010PropOp54
 70
     0
102
RTVSPost2010Prop55
280
     0
102
RTVSPost2010PropOp55
 70
     0
102
RTVSPost2010Prop56
140
1.0
102
RTVSPost2010PropOp56
 70
     0
102
RTVSPost2010Prop57
140
1.0
102
RTVSPost2010PropOp57
 70
     0
102
RTVSPropertyOp0
 70
     0
102
RTVSPropertyOp1
 70
     0
102
RTVSPropertyOp2
 70
     0
102
RTVSPropertyOp3
 70
     0
102
RTVSPropertyOp4
 70
     0
102
RTVSPropertyOp5
 70
     0
102
RTVSPropertyOp6
 70
     0
102
RTVSPropertyOp7
 70
     0
102
RTVSPropertyOp8
 70
     0
102
RTVSPropertyOp9
 70
     0
102
RTVSPropertyOp10
 70
     0
102
RTVSPropertyOp11
 70
     0
102
RTVSPropertyOp12
 70
     0
102
RTVSPropertyOp13
 70
     0
102
RTVSPropertyOp14
 70
     2
102
RTVSPropertyOp15
 70
     0
102
RTVSPropertyOp16
 70
     0
102
RTVSPropertyOp17
 70
     0
102
RTVSPropertyOp18
 70
     0
102
RTVSPropertyOp19
 70
     0
102
RTVSPropertyOp20
 70
     0
102
RTVSPropertyOp21
 70
     0
102
RTVSPropertyOp22
 70
     0
102
RTVSPropertyOp23
 70
     0
102
RTVSPropertyOp24
 70
     0
102
RTVSPropertyOp25
 70
     0
102
RTVSPropertyOp26
 70
     0
102
RTVSPropertyOp27
 70
     0
102
RTVSPropertyOp28
 70
     0
102
RTVSPropertyOp29
 70
     0
102
RTVSPropertyOp30
 70
     0
102
RTVSPropertyOp31
 70
     0
102
RTVSPropertyOp32
 70
     0
102
RTVSPropertyOp33
 70
     0
102
RTVSPropertyOp34
 70
     0
102
RTVSPropertyOp35
 70
     0
102
RTVSPropertyOp36
 70
     0
102
RTVSPropertyOp37
 70
     0
102
RTVSPropertyOp38
 70
     0
102
RTVSPropertyOp39
 70
     0
102
RTVSPropertyOp40
 70
     0
102
RTVSPropertyOp41
 70
     0
102
RTVSPropertyOp42
 70
     0
102
RTVSPropertyOp43
 70
     0
102
RTVSPropertyOp44
 70
     0
102
RTVSPropertyOp45
 70
     0
102
RTVSPropertyOp46
 70
     0
102
RTVSPropertyOp47
 70
     0
102
RTVSPropertyOp48
 70
     0
102
RTVSPropertyOp49
 70
     0
102
RTVSPropertyOp50
 70
     0
102
RTVSPropertyOp51
 70
     0
102
RTVSPropertyOp52
 70
     0
102
RTVSPropertyOp53
 70
     0
102
RTVSPropertyOp54
 70
     0
102
RTVSPropertyOp55
 70
     0
102
RTVSPropertyOp56
 70
     0
102
RTVSPropertyOp57
 70
     0
102
RTVSPropertyOp58
 70
     0
102
RTVSPropertyOp59
 70
     0
102
RTVSPropertyOp60
 70
     0
102
RTVSPropertyOp61
 70
     0
102
RTVSPropertyOp62
 70
     0
  0
XRECORD
  5
18164
102
{ACAD_REACTORS
330
18163
102
}
330
18163
100
AcDbXrecord
280
     1
102
RTVSPost2010Prop28
280
     0
102
RTVSPost2010PropOp28
 70
     1
102
RTVSPost2010Prop29
280
     1
102
RTVSPost2010PropOp29
 70
     1
102
RTVSPost2010Prop30
280
     1
102
RTVSPost2010PropOp30
 70
     1
102
RTVSPost2010Prop31
280
     0
102
RTVSPost2010PropOp31
 70
     1
102
RTVSPost2010Prop32
280
     0
102
RTVSPost2010PropOp32
 70
     1
102
RTVSPost2010Prop33
280
     0
102
RTVSPost2010PropOp33
 70
     1
102
RTVSPost2010Prop34
280
     0
102
RTVSPost2010PropOp34
 70
     1
102
RTVSPost2010Prop35
280
     0
102
RTVSPost2010PropOp35
 70
     1
102
RTVSPost2010Prop36
280
     0
102
RTVSPost2010PropOp36
 70
     1
102
RTVSPost2010Prop37
 90
       50
102
RTVSPost2010PropOp37
 70
     1
102
RTVSPost2010Prop38
140
0.0
102
RTVSPost2010PropOp38
 70
     1
102
RTVSPost2010Prop39
140
1.0
102
RTVSPost2010PropOp39
 70
     1
102
RTVSPost2010Prop40
 90
        0
102
RTVSPost2010PropOp40
 70
     1
102
RTVSPost2010Prop41ColorIndex
 90
       18
102
RTVSPost2010Prop41ColorRGB
 90
        0
102
RTVSPost2010PropOp41
 70
     1
102
RTVSPost2010Prop42
 90
       50
102
RTVSPost2010PropOp42
 70
     1
102
RTVSPost2010Prop43
 90
        3
102
RTVSPost2010PropOp43
 70
     1
102
RTVSPost2010Prop44ColorIndex
 90
        5
102
RTVSPost2010Prop44ColorRGB
 90
      255
102
RTVSPost2010PropOp44
 70
     1
102
RTVSPost2010Prop45
280
     0
102
RTVSPost2010PropOp45
 70
     1
102
RTVSPost2010Prop46
 90
       50
102
RTVSPost2010PropOp46
 70
     1
102
RTVSPost2010Prop47
 90
       50
102
RTVSPost2010PropOp47
 70
     1
102
RTVSPost2010Prop48
 90
       50
102
RTVSPost2010PropOp48
 70
     1
102
RTVSPost2010Prop49
280
     0
102
RTVSPost2010PropOp49
 70
     1
102
RTVSPost2010Prop50
 90
       50
102
RTVSPost2010PropOp50
 70
     1
102
RTVSPost2010Prop51ColorIndex
 90
      256
102
RTVSPost2010Prop51ColorRGB
 90
-16777216
102
RTVSPost2010PropOp51
 70
     0
102
RTVSPost2010Prop52
140
1.0
102
RTVSPost2010PropOp52
 70
     0
102
RTVSPost2010Prop53
 90
        2
102
RTVSPost2010PropOp53
 70
     1
102
RTVSPost2010Prop54
  1
strokes_ogs.tif
102
RTVSPost2010PropOp54
 70
     1
102
RTVSPost2010Prop55
280
     0
102
RTVSPost2010PropOp55
 70
     1
102
RTVSPost2010Prop56
140
1.0
102
RTVSPost2010PropOp56
 70
     1
102
RTVSPost2010Prop57
140
1.0
102
RTVSPost2010PropOp57
 70
     1
102
RTVSPropertyOp0
 70
     1
102
RTVSPropertyOp1
 70
     1
102
RTVSPropertyOp2
 70
     1
102
RTVSPropertyOp3
 70
     1
102
RTVSPropertyOp4
 70
     1
102
RTVSPropertyOp5
 70
     1
102
RTVSPropertyOp6
 70
     1
102
RTVSPropertyOp7
 70
     1
102
RTVSPropertyOp8
 70
     1
102
RTVSPropertyOp9
 70
     1
102
RTVSPropertyOp10
 70
     1
102
RTVSPropertyOp11
 70
     1
102
RTVSPropertyOp12
 70
     1
102
RTVSPropertyOp13
 70
     1
102
RTVSPropertyOp14
 70
     1
102
RTVSPropertyOp15
 70
     1
102
RTVSPropertyOp16
 70
     1
102
RTVSPropertyOp17
 70
     1
102
RTVSPropertyOp18
 70
     1
102
RTVSPropertyOp19
 70
     1
102
RTVSPropertyOp20
 70
     1
102
RTVSPropertyOp21
 70
     1
102
RTVSPropertyOp22
 70
     1
102
RTVSPropertyOp23
 70
     1
102
RTVSPropertyOp24
 70
     1
102
RTVSPropertyOp25
 70
     1
102
RTVSPropertyOp26
 70
     1
102
RTVSPropertyOp27
 70
     1
102
RTVSPropertyOp28
 70
     1
102
RTVSPropertyOp29
 70
     1
102
RTVSPropertyOp30
 70
     1
102
RTVSPropertyOp31
 70
     1
102
RTVSPropertyOp32
 70
     1
102
RTVSPropertyOp33
 70
     1
102
RTVSPropertyOp34
 70
     1
102
RTVSPropertyOp35
 70
     1
102
RTVSPropertyOp36
 70
     1
102
RTVSPropertyOp37
 70
     1
102
RTVSPropertyOp38
 70
     1
102
RTVSPropertyOp39
 70
     1
102
RTVSPropertyOp40
 70
     1
102
RTVSPropertyOp41
 70
     1
102
RTVSPropertyOp42
 70
     1
102
RTVSPropertyOp43
 70
     1
102
RTVSPropertyOp44
 70
     1
102
RTVSPropertyOp45
 70
     1
102
RTVSPropertyOp46
 70
     1
102
RTVSPropertyOp47
 70
     1
102
RTVSPropertyOp48
 70
     1
102
RTVSPropertyOp49
 70
     1
102
RTVSPropertyOp50
 70
     1
102
RTVSPropertyOp51
 70
     0
102
RTVSPropertyOp52
 70
     0
102
RTVSPropertyOp53
 70
     1
102
RTVSPropertyOp54
 70
     1
102
RTVSPropertyOp55
 70
     1
102
RTVSPropertyOp56
 70
     1
102
RTVSPropertyOp57
 70
     1
102
RTVSPropertyOp58
 70
     1
102
RTVSPropertyOp59
 70
     1
102
RTVSPropertyOp60
 70
     1
102
RTVSPropertyOp61
 70
     1
102
RTVSPropertyOp62
 70
     1
  0
XRECORD
  5
18176
102
{ACAD_REACTORS
330
18175
102
}
330
18175
100
AcDbXrecord
280
     1
102
RTVSPost2010Prop28
280
     0
102
RTVSPost2010PropOp28
 70
     0
102
RTVSPost2010Prop29
280
     1
102
RTVSPost2010PropOp29
 70
     0
102
RTVSPost2010Prop30
280
     1
102
RTVSPost2010PropOp30
 70
     0
102
RTVSPost2010Prop31
280
     0
102
RTVSPost2010PropOp31
 70
     0
102
RTVSPost2010Prop32
280
     0
102
RTVSPost2010PropOp32
 70
     0
102
RTVSPost2010Prop33
280
     0
102
RTVSPost2010PropOp33
 70
     0
102
RTVSPost2010Prop34
280
     0
102
RTVSPost2010PropOp34
 70
     0
102
RTVSPost2010Prop35
280
     0
102
RTVSPost2010PropOp35
 70
     0
102
RTVSPost2010Prop36
280
     0
102
RTVSPost2010PropOp36
 70
     0
102
RTVSPost2010Prop37
 90
       50
102
RTVSPost2010PropOp37
 70
     0
102
RTVSPost2010Prop38
140
0.0
102
RTVSPost2010PropOp38
 70
     0
102
RTVSPost2010Prop39
140
1.0
102
RTVSPost2010PropOp39
 70
     0
102
RTVSPost2010Prop40
 90
        0
102
RTVSPost2010PropOp40
 70
     0
102
RTVSPost2010Prop41ColorIndex
 90
       18
102
RTVSPost2010Prop41ColorRGB
 90
        0
102
RTVSPost2010PropOp41
 70
     0
102
RTVSPost2010Prop42
 90
       50
102
RTVSPost2010PropOp42
 70
     0
102
RTVSPost2010Prop43
 90
        3
102
RTVSPost2010PropOp43
 70
     0
102
RTVSPost2010Prop44ColorIndex
 90
        5
102
RTVSPost2010Prop44ColorRGB
 90
      255
102
RTVSPost2010PropOp44
 70
     0
102
RTVSPost2010Prop45
280
     0
102
RTVSPost2010PropOp45
 70
     0
102
RTVSPost2010Prop46
 90
       50
102
RTVSPost2010PropOp46
 70
     0
102
RTVSPost2010Prop47
 90
       50
102
RTVSPost2010PropOp47
 70
     0
102
RTVSPost2010Prop48
 90
       50
102
RTVSPost2010PropOp48
 70
     0
102
RTVSPost2010Prop49
280
     0
102
RTVSPost2010PropOp49
 70
     0
102
RTVSPost2010Prop50
 90
       50
102
RTVSPost2010PropOp50
 70
     0
102
RTVSPost2010Prop51ColorIndex
 90
      256
102
RTVSPost2010Prop51ColorRGB
 90
-16777216
102
RTVSPost2010PropOp51
 70
     0
102
RTVSPost2010Prop52
140
1.0
102
RTVSPost2010PropOp52
 70
     0
102
RTVSPost2010Prop53
 90
        2
102
RTVSPost2010PropOp53
 70
     0
102
RTVSPost2010Prop54
  1
strokes_ogs.tif
102
RTVSPost2010PropOp54
 70
     0
102
RTVSPost2010Prop55
280
     0
102
RTVSPost2010PropOp55
 70
     0
102
RTVSPost2010Prop56
140
1.0
102
RTVSPost2010PropOp56
 70
     0
102
RTVSPost2010Prop57
140
1.0
102
RTVSPost2010PropOp57
 70
     0
102
RTVSPropertyOp0
 70
     0
102
RTVSPropertyOp1
 70
     0
102
RTVSPropertyOp2
 70
     0
102
RTVSPropertyOp3
 70
     0
102
RTVSPropertyOp4
 70
     0
102
RTVSPropertyOp5
 70
     0
102
RTVSPropertyOp6
 70
     0
102
RTVSPropertyOp7
 70
     0
102
RTVSPropertyOp8
 70
     0
102
RTVSPropertyOp9
 70
     0
102
RTVSPropertyOp10
 70
     0
102
RTVSPropertyOp11
 70
     0
102
RTVSPropertyOp12
 70
     0
102
RTVSPropertyOp13
 70
     0
102
RTVSPropertyOp14
 70
     2
102
RTVSPropertyOp15
 70
     0
102
RTVSPropertyOp16
 70
     0
102
RTVSPropertyOp17
 70
     0
102
RTVSPropertyOp18
 70
     0
102
RTVSPropertyOp19
 70
     0
102
RTVSPropertyOp20
 70
     0
102
RTVSPropertyOp21
 70
     0
102
RTVSPropertyOp22
 70
     0
102
RTVSPropertyOp23
 70
     0
102
RTVSPropertyOp24
 70
     0
102
RTVSPropertyOp25
 70
     0
102
RTVSPropertyOp26
 70
     0
102
RTVSPropertyOp27
 70
     0
102
RTVSPropertyOp28
 70
     0
102
RTVSPropertyOp29
 70
     0
102
RTVSPropertyOp30
 70
     0
102
RTVSPropertyOp31
 70
     0
102
RTVSPropertyOp32
 70
     0
102
RTVSPropertyOp33
 70
     0
102
RTVSPropertyOp34
 70
     0
102
RTVSPropertyOp35
 70
     0
102
RTVSPropertyOp36
 70
     0
102
RTVSPropertyOp37
 70
     0
102
RTVSPropertyOp38
 70
     0
102
RTVSPropertyOp39
 70
     0
102
RTVSPropertyOp40
 70
     0
102
RTVSPropertyOp41
 70
     0
102
RTVSPropertyOp42
 70
     0
102
RTVSPropertyOp43
 70
     0
102
RTVSPropertyOp44
 70
     0
102
RTVSPropertyOp45
 70
     0
102
RTVSPropertyOp46
 70
     0
102
RTVSPropertyOp47
 70
     0
102
RTVSPropertyOp48
 70
     0
102
RTVSPropertyOp49
 70
     0
102
RTVSPropertyOp50
 70
     0
102
RTVSPropertyOp51
 70
     0
102
RTVSPropertyOp52
 70
     0
102
RTVSPropertyOp53
 70
     0
102
RTVSPropertyOp54
 70
     0
102
RTVSPropertyOp55
 70
     0
102
RTVSPropertyOp56
 70
     0
102
RTVSPropertyOp57
 70
     0
102
RTVSPropertyOp58
 70
     0
102
RTVSPropertyOp59
 70
     0
102
RTVSPropertyOp60
 70
     0
102
RTVSPropertyOp61
 70
     0
102
RTVSPropertyOp62
 70
     0
  0
XRECORD
  5
1815C
102
{ACAD_REACTORS
330
1815B
102
}
330
1815B
100
AcDbXrecord
280
     1
102
RTVSPost2010Prop28
280
     0
102
RTVSPost2010PropOp28
 70
     1
102
RTVSPost2010Prop29
280
     1
102
RTVSPost2010PropOp29
 70
     1
102
RTVSPost2010Prop30
280
     1
102
RTVSPost2010PropOp30
 70
     1
102
RTVSPost2010Prop31
280
     0
102
RTVSPost2010PropOp31
 70
     1
102
RTVSPost2010Prop32
280
     0
102
RTVSPost2010PropOp32
 70
     1
102
RTVSPost2010Prop33
280
     0
102
RTVSPost2010PropOp33
 70
     1
102
RTVSPost2010Prop34
280
     0
102
RTVSPost2010PropOp34
 70
     1
102
RTVSPost2010Prop35
280
     0
102
RTVSPost2010PropOp35
 70
     1
102
RTVSPost2010Prop36
280
     0
102
RTVSPost2010PropOp36
 70
     1
102
RTVSPost2010Prop37
 90
       50
102
RTVSPost2010PropOp37
 70
     1
102
RTVSPost2010Prop38
140
0.0
102
RTVSPost2010PropOp38
 70
     1
102
RTVSPost2010Prop39
140
1.0
102
RTVSPost2010PropOp39
 70
     1
102
RTVSPost2010Prop40
 90
        0
102
RTVSPost2010PropOp40
 70
     1
102
RTVSPost2010Prop41ColorIndex
 90
       18
102
RTVSPost2010Prop41ColorRGB
 90
        0
102
RTVSPost2010PropOp41
 70
     1
102
RTVSPost2010Prop42
 90
       50
102
RTVSPost2010PropOp42
 70
     1
102
RTVSPost2010Prop43
 90
        3
102
RTVSPost2010PropOp43
 70
     1
102
RTVSPost2010Prop44ColorIndex
 90
        5
102
RTVSPost2010Prop44ColorRGB
 90
      255
102
RTVSPost2010PropOp44
 70
     1
102
RTVSPost2010Prop45
280
     0
102
RTVSPost2010PropOp45
 70
     1
102
RTVSPost2010Prop46
 90
       50
102
RTVSPost2010PropOp46
 70
     1
102
RTVSPost2010Prop47
 90
       50
102
RTVSPost2010PropOp47
 70
     1
102
RTVSPost2010Prop48
 90
       50
102
RTVSPost2010PropOp48
 70
     1
102
RTVSPost2010Prop49
280
     0
102
RTVSPost2010PropOp49
 70
     1
102
RTVSPost2010Prop50
 90
       50
102
RTVSPost2010PropOp50
 70
     1
102
RTVSPost2010Prop51ColorIndex
 90
      256
102
RTVSPost2010Prop51ColorRGB
 90
-16777216
102
RTVSPost2010PropOp51
 70
     0
102
RTVSPost2010Prop52
140
1.0
102
RTVSPost2010PropOp52
 70
     0
102
RTVSPost2010Prop53
 90
        2
102
RTVSPost2010PropOp53
 70
     1
102
RTVSPost2010Prop54
  1
strokes_ogs.tif
102
RTVSPost2010PropOp54
 70
     1
102
RTVSPost2010Prop55
280
     0
102
RTVSPost2010PropOp55
 70
     1
102
RTVSPost2010Prop56
140
1.0
102
RTVSPost2010PropOp56
 70
     1
102
RTVSPost2010Prop57
140
1.0
102
RTVSPost2010PropOp57
 70
     1
102
RTVSPropertyOp0
 70
     1
102
RTVSPropertyOp1
 70
     1
102
RTVSPropertyOp2
 70
     1
102
RTVSPropertyOp3
 70
     1
102
RTVSPropertyOp4
 70
     1
102
RTVSPropertyOp5
 70
     1
102
RTVSPropertyOp6
 70
     1
102
RTVSPropertyOp7
 70
     1
102
RTVSPropertyOp8
 70
     1
102
RTVSPropertyOp9
 70
     1
102
RTVSPropertyOp10
 70
     1
102
RTVSPropertyOp11
 70
     1
102
RTVSPropertyOp12
 70
     1
102
RTVSPropertyOp13
 70
     1
102
RTVSPropertyOp14
 70
     1
102
RTVSPropertyOp15
 70
     1
102
RTVSPropertyOp16
 70
     1
102
RTVSPropertyOp17
 70
     1
102
RTVSPropertyOp18
 70
     1
102
RTVSPropertyOp19
 70
     1
102
RTVSPropertyOp20
 70
     1
102
RTVSPropertyOp21
 70
     1
102
RTVSPropertyOp22
 70
     1
102
RTVSPropertyOp23
 70
     1
102
RTVSPropertyOp24
 70
     1
102
RTVSPropertyOp25
 70
     1
102
RTVSPropertyOp26
 70
     1
102
RTVSPropertyOp27
 70
     1
102
RTVSPropertyOp28
 70
     1
102
RTVSPropertyOp29
 70
     1
102
RTVSPropertyOp30
 70
     1
102
RTVSPropertyOp31
 70
     1
102
RTVSPropertyOp32
 70
     1
102
RTVSPropertyOp33
 70
     1
102
RTVSPropertyOp34
 70
     1
102
RTVSPropertyOp35
 70
     1
102
RTVSPropertyOp36
 70
     1
102
RTVSPropertyOp37
 70
     1
102
RTVSPropertyOp38
 70
     1
102
RTVSPropertyOp39
 70
     1
102
RTVSPropertyOp40
 70
     1
102
RTVSPropertyOp41
 70
     1
102
RTVSPropertyOp42
 70
     1
102
RTVSPropertyOp43
 70
     1
102
RTVSPropertyOp44
 70
     1
102
RTVSPropertyOp45
 70
     1
102
RTVSPropertyOp46
 70
     1
102
RTVSPropertyOp47
 70
     1
102
RTVSPropertyOp48
 70
     1
102
RTVSPropertyOp49
 70
     1
102
RTVSPropertyOp50
 70
     1
102
RTVSPropertyOp51
 70
     0
102
RTVSPropertyOp52
 70
     0
102
RTVSPropertyOp53
 70
     1
102
RTVSPropertyOp54
 70
     1
102
RTVSPropertyOp55
 70
     1
102
RTVSPropertyOp56
 70
     1
102
RTVSPropertyOp57
 70
     1
102
RTVSPropertyOp58
 70
     1
102
RTVSPropertyOp59
 70
     1
102
RTVSPropertyOp60
 70
     1
102
RTVSPropertyOp61
 70
     1
102
RTVSPropertyOp62
 70
     1
  0
XRECORD
  5
18172
102
{ACAD_REACTORS
330
18171
102
}
330
18171
100
AcDbXrecord
280
     1
102
RTVSPost2010Prop28
280
     0
102
RTVSPost2010PropOp28
 70
     1
102
RTVSPost2010Prop29
280
     1
102
RTVSPost2010PropOp29
 70
     1
102
RTVSPost2010Prop30
280
     1
102
RTVSPost2010PropOp30
 70
     1
102
RTVSPost2010Prop31
280
     0
102
RTVSPost2010PropOp31
 70
     1
102
RTVSPost2010Prop32
280
     0
102
RTVSPost2010PropOp32
 70
     1
102
RTVSPost2010Prop33
280
     0
102
RTVSPost2010PropOp33
 70
     1
102
RTVSPost2010Prop34
280
     0
102
RTVSPost2010PropOp34
 70
     1
102
RTVSPost2010Prop35
280
     0
102
RTVSPost2010PropOp35
 70
     1
102
RTVSPost2010Prop36
280
     0
102
RTVSPost2010PropOp36
 70
     1
102
RTVSPost2010Prop37
 90
       50
102
RTVSPost2010PropOp37
 70
     1
102
RTVSPost2010Prop38
140
0.0
102
RTVSPost2010PropOp38
 70
     1
102
RTVSPost2010Prop39
140
1.0
102
RTVSPost2010PropOp39
 70
     1
102
RTVSPost2010Prop40
 90
        0
102
RTVSPost2010PropOp40
 70
     1
102
RTVSPost2010Prop41ColorIndex
 90
       18
102
RTVSPost2010Prop41ColorRGB
 90
        0
102
RTVSPost2010PropOp41
 70
     1
102
RTVSPost2010Prop42
 90
       50
102
RTVSPost2010PropOp42
 70
     1
102
RTVSPost2010Prop43
 90
        3
102
RTVSPost2010PropOp43
 70
     1
102
RTVSPost2010Prop44ColorIndex
 90
        5
102
RTVSPost2010Prop44ColorRGB
 90
      255
102
RTVSPost2010PropOp44
 70
     1
102
RTVSPost2010Prop45
280
     0
102
RTVSPost2010PropOp45
 70
     1
102
RTVSPost2010Prop46
 90
       50
102
RTVSPost2010PropOp46
 70
     1
102
RTVSPost2010Prop47
 90
       50
102
RTVSPost2010PropOp47
 70
     1
102
RTVSPost2010Prop48
 90
       50
102
RTVSPost2010PropOp48
 70
     1
102
RTVSPost2010Prop49
280
     0
102
RTVSPost2010PropOp49
 70
     1
102
RTVSPost2010Prop50
 90
       50
102
RTVSPost2010PropOp50
 70
     1
102
RTVSPost2010Prop51ColorIndex
 90
      256
102
RTVSPost2010Prop51ColorRGB
 90
-16777216
102
RTVSPost2010PropOp51
 70
     0
102
RTVSPost2010Prop52
140
1.0
102
RTVSPost2010PropOp52
 70
     0
102
RTVSPost2010Prop53
 90
        2
102
RTVSPost2010PropOp53
 70
     1
102
RTVSPost2010Prop54
  1
strokes_ogs.tif
102
RTVSPost2010PropOp54
 70
     1
102
RTVSPost2010Prop55
280
     0
102
RTVSPost2010PropOp55
 70
     1
102
RTVSPost2010Prop56
140
1.0
102
RTVSPost2010PropOp56
 70
     1
102
RTVSPost2010Prop57
140
1.0
102
RTVSPost2010PropOp57
 70
     1
102
RTVSPropertyOp0
 70
     1
102
RTVSPropertyOp1
 70
     1
102
RTVSPropertyOp2
 70
     1
102
RTVSPropertyOp3
 70
     1
102
RTVSPropertyOp4
 70
     1
102
RTVSPropertyOp5
 70
     1
102
RTVSPropertyOp6
 70
     1
102
RTVSPropertyOp7
 70
     1
102
RTVSPropertyOp8
 70
     1
102
RTVSPropertyOp9
 70
     1
102
RTVSPropertyOp10
 70
     1
102
RTVSPropertyOp11
 70
     1
102
RTVSPropertyOp12
 70
     1
102
RTVSPropertyOp13
 70
     1
102
RTVSPropertyOp14
 70
     1
102
RTVSPropertyOp15
 70
     1
102
RTVSPropertyOp16
 70
     1
102
RTVSPropertyOp17
 70
     1
102
RTVSPropertyOp18
 70
     1
102
RTVSPropertyOp19
 70
     1
102
RTVSPropertyOp20
 70
     1
102
RTVSPropertyOp21
 70
     1
102
RTVSPropertyOp22
 70
     1
102
RTVSPropertyOp23
 70
     1
102
RTVSPropertyOp24
 70
     1
102
RTVSPropertyOp25
 70
     1
102
RTVSPropertyOp26
 70
     1
102
RTVSPropertyOp27
 70
     1
102
RTVSPropertyOp28
 70
     1
102
RTVSPropertyOp29
 70
     1
102
RTVSPropertyOp30
 70
     1
102
RTVSPropertyOp31
 70
     1
102
RTVSPropertyOp32
 70
     1
102
RTVSPropertyOp33
 70
     1
102
RTVSPropertyOp34
 70
     1
102
RTVSPropertyOp35
 70
     1
102
RTVSPropertyOp36
 70
     1
102
RTVSPropertyOp37
 70
     1
102
RTVSPropertyOp38
 70
     1
102
RTVSPropertyOp39
 70
     1
102
RTVSPropertyOp40
 70
     1
102
RTVSPropertyOp41
 70
     1
102
RTVSPropertyOp42
 70
     1
102
RTVSPropertyOp43
 70
     1
102
RTVSPropertyOp44
 70
     1
102
RTVSPropertyOp45
 70
     1
102
RTVSPropertyOp46
 70
     1
102
RTVSPropertyOp47
 70
     1
102
RTVSPropertyOp48
 70
     1
102
RTVSPropertyOp49
 70
     1
102
RTVSPropertyOp50
 70
     1
102
RTVSPropertyOp51
 70
     0
102
RTVSPropertyOp52
 70
     0
102
RTVSPropertyOp53
 70
     1
102
RTVSPropertyOp54
 70
     1
102
RTVSPropertyOp55
 70
     1
102
RTVSPropertyOp56
 70
     1
102
RTVSPropertyOp57
 70
     1
102
RTVSPropertyOp58
 70
     1
102
RTVSPropertyOp59
 70
     1
102
RTVSPropertyOp60
 70
     1
102
RTVSPropertyOp61
 70
     1
102
RTVSPropertyOp62
 70
     1
  0
XRECORD
  5
18170
102
{ACAD_REACTORS
330
1816F
102
}
330
1816F
100
AcDbXrecord
280
     1
102
RTVSPost2010Prop28
280
     0
102
RTVSPost2010PropOp28
 70
     1
102
RTVSPost2010Prop29
280
     1
102
RTVSPost2010PropOp29
 70
     1
102
RTVSPost2010Prop30
280
     1
102
RTVSPost2010PropOp30
 70
     1
102
RTVSPost2010Prop31
280
     0
102
RTVSPost2010PropOp31
 70
     1
102
RTVSPost2010Prop32
280
     0
102
RTVSPost2010PropOp32
 70
     1
102
RTVSPost2010Prop33
280
     0
102
RTVSPost2010PropOp33
 70
     1
102
RTVSPost2010Prop34
280
     0
102
RTVSPost2010PropOp34
 70
     1
102
RTVSPost2010Prop35
280
     0
102
RTVSPost2010PropOp35
 70
     1
102
RTVSPost2010Prop36
280
     0
102
RTVSPost2010PropOp36
 70
     1
102
RTVSPost2010Prop37
 90
       50
102
RTVSPost2010PropOp37
 70
     1
102
RTVSPost2010Prop38
140
0.0
102
RTVSPost2010PropOp38
 70
     1
102
RTVSPost2010Prop39
140
1.0
102
RTVSPost2010PropOp39
 70
     1
102
RTVSPost2010Prop40
 90
        0
102
RTVSPost2010PropOp40
 70
     1
102
RTVSPost2010Prop41ColorIndex
 90
       18
102
RTVSPost2010Prop41ColorRGB
 90
        0
102
RTVSPost2010PropOp41
 70
     1
102
RTVSPost2010Prop42
 90
       50
102
RTVSPost2010PropOp42
 70
     1
102
RTVSPost2010Prop43
 90
        3
102
RTVSPost2010PropOp43
 70
     1
102
RTVSPost2010Prop44ColorIndex
 90
        5
102
RTVSPost2010Prop44ColorRGB
 90
      255
102
RTVSPost2010PropOp44
 70
     1
102
RTVSPost2010Prop45
280
     0
102
RTVSPost2010PropOp45
 70
     1
102
RTVSPost2010Prop46
 90
       50
102
RTVSPost2010PropOp46
 70
     1
102
RTVSPost2010Prop47
 90
       50
102
RTVSPost2010PropOp47
 70
     1
102
RTVSPost2010Prop48
 90
       50
102
RTVSPost2010PropOp48
 70
     1
102
RTVSPost2010Prop49
280
     0
102
RTVSPost2010PropOp49
 70
     1
102
RTVSPost2010Prop50
 90
       50
102
RTVSPost2010PropOp50
 70
     1
102
RTVSPost2010Prop51ColorIndex
 90
      256
102
RTVSPost2010Prop51ColorRGB
 90
-16777216
102
RTVSPost2010PropOp51
 70
     0
102
RTVSPost2010Prop52
140
1.0
102
RTVSPost2010PropOp52
 70
     0
102
RTVSPost2010Prop53
 90
        2
102
RTVSPost2010PropOp53
 70
     1
102
RTVSPost2010Prop54
  1
strokes_ogs.tif
102
RTVSPost2010PropOp54
 70
     1
102
RTVSPost2010Prop55
280
     0
102
RTVSPost2010PropOp55
 70
     1
102
RTVSPost2010Prop56
140
1.0
102
RTVSPost2010PropOp56
 70
     1
102
RTVSPost2010Prop57
140
1.0
102
RTVSPost2010PropOp57
 70
     1
102
RTVSPropertyOp0
 70
     1
102
RTVSPropertyOp1
 70
     1
102
RTVSPropertyOp2
 70
     1
102
RTVSPropertyOp3
 70
     1
102
RTVSPropertyOp4
 70
     1
102
RTVSPropertyOp5
 70
     1
102
RTVSPropertyOp6
 70
     1
102
RTVSPropertyOp7
 70
     1
102
RTVSPropertyOp8
 70
     1
102
RTVSPropertyOp9
 70
     1
102
RTVSPropertyOp10
 70
     1
102
RTVSPropertyOp11
 70
     1
102
RTVSPropertyOp12
 70
     1
102
RTVSPropertyOp13
 70
     1
102
RTVSPropertyOp14
 70
     1
102
RTVSPropertyOp15
 70
     1
102
RTVSPropertyOp16
 70
     1
102
RTVSPropertyOp17
 70
     1
102
RTVSPropertyOp18
 70
     1
102
RTVSPropertyOp19
 70
     1
102
RTVSPropertyOp20
 70
     1
102
RTVSPropertyOp21
 70
     1
102
RTVSPropertyOp22
 70
     1
102
RTVSPropertyOp23
 70
     1
102
RTVSPropertyOp24
 70
     1
102
RTVSPropertyOp25
 70
     1
102
RTVSPropertyOp26
 70
     1
102
RTVSPropertyOp27
 70
     1
102
RTVSPropertyOp28
 70
     1
102
RTVSPropertyOp29
 70
     1
102
RTVSPropertyOp30
 70
     1
102
RTVSPropertyOp31
 70
     1
102
RTVSPropertyOp32
 70
     1
102
RTVSPropertyOp33
 70
     1
102
RTVSPropertyOp34
 70
     1
102
RTVSPropertyOp35
 70
     1
102
RTVSPropertyOp36
 70
     1
102
RTVSPropertyOp37
 70
     1
102
RTVSPropertyOp38
 70
     1
102
RTVSPropertyOp39
 70
     1
102
RTVSPropertyOp40
 70
     1
102
RTVSPropertyOp41
 70
     1
102
RTVSPropertyOp42
 70
     1
102
RTVSPropertyOp43
 70
     1
102
RTVSPropertyOp44
 70
     1
102
RTVSPropertyOp45
 70
     1
102
RTVSPropertyOp46
 70
     1
102
RTVSPropertyOp47
 70
     1
102
RTVSPropertyOp48
 70
     1
102
RTVSPropertyOp49
 70
     1
102
RTVSPropertyOp50
 70
     1
102
RTVSPropertyOp51
 70
     0
102
RTVSPropertyOp52
 70
     0
102
RTVSPropertyOp53
 70
     1
102
RTVSPropertyOp54
 70
     1
102
RTVSPropertyOp55
 70
     1
102
RTVSPropertyOp56
 70
     1
102
RTVSPropertyOp57
 70
     1
102
RTVSPropertyOp58
 70
     1
102
RTVSPropertyOp59
 70
     1
102
RTVSPropertyOp60
 70
     1
102
RTVSPropertyOp61
 70
     1
102
RTVSPropertyOp62
 70
     1
  0
XRECORD
  5
1816A
102
{ACAD_REACTORS
330
18169
102
}
330
18169
100
AcDbXrecord
280
     1
102
RTVSPost2010Prop28
280
     0
102
RTVSPost2010PropOp28
 70
     1
102
RTVSPost2010Prop29
280
     1
102
RTVSPost2010PropOp29
 70
     1
102
RTVSPost2010Prop30
280
     1
102
RTVSPost2010PropOp30
 70
     1
102
RTVSPost2010Prop31
280
     0
102
RTVSPost2010PropOp31
 70
     1
102
RTVSPost2010Prop32
280
     0
102
RTVSPost2010PropOp32
 70
     1
102
RTVSPost2010Prop33
280
     0
102
RTVSPost2010PropOp33
 70
     1
102
RTVSPost2010Prop34
280
     0
102
RTVSPost2010PropOp34
 70
     1
102
RTVSPost2010Prop35
280
     0
102
RTVSPost2010PropOp35
 70
     1
102
RTVSPost2010Prop36
280
     0
102
RTVSPost2010PropOp36
 70
     1
102
RTVSPost2010Prop37
 90
       50
102
RTVSPost2010PropOp37
 70
     1
102
RTVSPost2010Prop38
140
0.0
102
RTVSPost2010PropOp38
 70
     1
102
RTVSPost2010Prop39
140
1.0
102
RTVSPost2010PropOp39
 70
     1
102
RTVSPost2010Prop40
 90
        0
102
RTVSPost2010PropOp40
 70
     1
102
RTVSPost2010Prop41ColorIndex
 90
       18
102
RTVSPost2010Prop41ColorRGB
 90
        0
102
RTVSPost2010PropOp41
 70
     1
102
RTVSPost2010Prop42
 90
       50
102
RTVSPost2010PropOp42
 70
     1
102
RTVSPost2010Prop43
 90
        3
102
RTVSPost2010PropOp43
 70
     1
102
RTVSPost2010Prop44ColorIndex
 90
        5
102
RTVSPost2010Prop44ColorRGB
 90
      255
102
RTVSPost2010PropOp44
 70
     1
102
RTVSPost2010Prop45
280
     0
102
RTVSPost2010PropOp45
 70
     1
102
RTVSPost2010Prop46
 90
       50
102
RTVSPost2010PropOp46
 70
     1
102
RTVSPost2010Prop47
 90
       50
102
RTVSPost2010PropOp47
 70
     1
102
RTVSPost2010Prop48
 90
       50
102
RTVSPost2010PropOp48
 70
     1
102
RTVSPost2010Prop49
280
     0
102
RTVSPost2010PropOp49
 70
     1
102
RTVSPost2010Prop50
 90
       50
102
RTVSPost2010PropOp50
 70
     1
102
RTVSPost2010Prop51ColorIndex
 90
      256
102
RTVSPost2010Prop51ColorRGB
 90
-16777216
102
RTVSPost2010PropOp51
 70
     0
102
RTVSPost2010Prop52
140
1.0
102
RTVSPost2010PropOp52
 70
     0
102
RTVSPost2010Prop53
 90
        2
102
RTVSPost2010PropOp53
 70
     1
102
RTVSPost2010Prop54
  1
strokes_ogs.tif
102
RTVSPost2010PropOp54
 70
     1
102
RTVSPost2010Prop55
280
     0
102
RTVSPost2010PropOp55
 70
     1
102
RTVSPost2010Prop56
140
1.0
102
RTVSPost2010PropOp56
 70
     1
102
RTVSPost2010Prop57
140
1.0
102
RTVSPost2010PropOp57
 70
     1
102
RTVSPropertyOp0
 70
     1
102
RTVSPropertyOp1
 70
     1
102
RTVSPropertyOp2
 70
     1
102
RTVSPropertyOp3
 70
     1
102
RTVSPropertyOp4
 70
     1
102
RTVSPropertyOp5
 70
     1
102
RTVSPropertyOp6
 70
     1
102
RTVSPropertyOp7
 70
     1
102
RTVSPropertyOp8
 70
     1
102
RTVSPropertyOp9
 70
     1
102
RTVSPropertyOp10
 70
     1
102
RTVSPropertyOp11
 70
     1
102
RTVSPropertyOp12
 70
     1
102
RTVSPropertyOp13
 70
     1
102
RTVSPropertyOp14
 70
     1
102
RTVSPropertyOp15
 70
     1
102
RTVSPropertyOp16
 70
     1
102
RTVSPropertyOp17
 70
     1
102
RTVSPropertyOp18
 70
     1
102
RTVSPropertyOp19
 70
     1
102
RTVSPropertyOp20
 70
     1
102
RTVSPropertyOp21
 70
     1
102
RTVSPropertyOp22
 70
     1
102
RTVSPropertyOp23
 70
     1
102
RTVSPropertyOp24
 70
     1
102
RTVSPropertyOp25
 70
     1
102
RTVSPropertyOp26
 70
     1
102
RTVSPropertyOp27
 70
     1
102
RTVSPropertyOp28
 70
     1
102
RTVSPropertyOp29
 70
     1
102
RTVSPropertyOp30
 70
     1
102
RTVSPropertyOp31
 70
     1
102
RTVSPropertyOp32
 70
     1
102
RTVSPropertyOp33
 70
     1
102
RTVSPropertyOp34
 70
     1
102
RTVSPropertyOp35
 70
     1
102
RTVSPropertyOp36
 70
     1
102
RTVSPropertyOp37
 70
     1
102
RTVSPropertyOp38
 70
     1
102
RTVSPropertyOp39
 70
     1
102
RTVSPropertyOp40
 70
     1
102
RTVSPropertyOp41
 70
     1
102
RTVSPropertyOp42
 70
     1
102
RTVSPropertyOp43
 70
     1
102
RTVSPropertyOp44
 70
     1
102
RTVSPropertyOp45
 70
     1
102
RTVSPropertyOp46
 70
     1
102
RTVSPropertyOp47
 70
     1
102
RTVSPropertyOp48
 70
     1
102
RTVSPropertyOp49
 70
     1
102
RTVSPropertyOp50
 70
     1
102
RTVSPropertyOp51
 70
     0
102
RTVSPropertyOp52
 70
     0
102
RTVSPropertyOp53
 70
     1
102
RTVSPropertyOp54
 70
     1
102
RTVSPropertyOp55
 70
     1
102
RTVSPropertyOp56
 70
     1
102
RTVSPropertyOp57
 70
     1
102
RTVSPropertyOp58
 70
     1
102
RTVSPropertyOp59
 70
     1
102
RTVSPropertyOp60
 70
     1
102
RTVSPropertyOp61
 70
     1
102
RTVSPropertyOp62
 70
     1
  0
XRECORD
  5
1816C
102
{ACAD_REACTORS
330
1816B
102
}
330
1816B
100
AcDbXrecord
280
     1
102
RTVSPost2010Prop28
280
     0
102
RTVSPost2010PropOp28
 70
     1
102
RTVSPost2010Prop29
280
     1
102
RTVSPost2010PropOp29
 70
     1
102
RTVSPost2010Prop30
280
     1
102
RTVSPost2010PropOp30
 70
     1
102
RTVSPost2010Prop31
280
     0
102
RTVSPost2010PropOp31
 70
     1
102
RTVSPost2010Prop32
280
     0
102
RTVSPost2010PropOp32
 70
     1
102
RTVSPost2010Prop33
280
     0
102
RTVSPost2010PropOp33
 70
     1
102
RTVSPost2010Prop34
280
     0
102
RTVSPost2010PropOp34
 70
     1
102
RTVSPost2010Prop35
280
     0
102
RTVSPost2010PropOp35
 70
     1
102
RTVSPost2010Prop36
280
     0
102
RTVSPost2010PropOp36
 70
     1
102
RTVSPost2010Prop37
 90
       50
102
RTVSPost2010PropOp37
 70
     1
102
RTVSPost2010Prop38
140
0.0
102
RTVSPost2010PropOp38
 70
     1
102
RTVSPost2010Prop39
140
1.0
102
RTVSPost2010PropOp39
 70
     1
102
RTVSPost2010Prop40
 90
        0
102
RTVSPost2010PropOp40
 70
     1
102
RTVSPost2010Prop41ColorIndex
 90
       18
102
RTVSPost2010Prop41ColorRGB
 90
        0
102
RTVSPost2010PropOp41
 70
     1
102
RTVSPost2010Prop42
 90
       50
102
RTVSPost2010PropOp42
 70
     1
102
RTVSPost2010Prop43
 90
        3
102
RTVSPost2010PropOp43
 70
     1
102
RTVSPost2010Prop44ColorIndex
 90
        5
102
RTVSPost2010Prop44ColorRGB
 90
      255
102
RTVSPost2010PropOp44
 70
     1
102
RTVSPost2010Prop45
280
     0
102
RTVSPost2010PropOp45
 70
     1
102
RTVSPost2010Prop46
 90
       50
102
RTVSPost2010PropOp46
 70
     1
102
RTVSPost2010Prop47
 90
       50
102
RTVSPost2010PropOp47
 70
     1
102
RTVSPost2010Prop48
 90
       50
102
RTVSPost2010PropOp48
 70
     1
102
RTVSPost2010Prop49
280
     0
102
RTVSPost2010PropOp49
 70
     1
102
RTVSPost2010Prop50
 90
       50
102
RTVSPost2010PropOp50
 70
     1
102
RTVSPost2010Prop51ColorIndex
 90
      256
102
RTVSPost2010Prop51ColorRGB
 90
-16777216
102
RTVSPost2010PropOp51
 70
     0
102
RTVSPost2010Prop52
140
1.0
102
RTVSPost2010PropOp52
 70
     0
102
RTVSPost2010Prop53
 90
        2
102
RTVSPost2010PropOp53
 70
     1
102
RTVSPost2010Prop54
  1
strokes_ogs.tif
102
RTVSPost2010PropOp54
 70
     1
102
RTVSPost2010Prop55
280
     0
102
RTVSPost2010PropOp55
 70
     1
102
RTVSPost2010Prop56
140
1.0
102
RTVSPost2010PropOp56
 70
     1
102
RTVSPost2010Prop57
140
1.0
102
RTVSPost2010PropOp57
 70
     1
102
RTVSPropertyOp0
 70
     1
102
RTVSPropertyOp1
 70
     1
102
RTVSPropertyOp2
 70
     1
102
RTVSPropertyOp3
 70
     1
102
RTVSPropertyOp4
 70
     1
102
RTVSPropertyOp5
 70
     1
102
RTVSPropertyOp6
 70
     1
102
RTVSPropertyOp7
 70
     1
102
RTVSPropertyOp8
 70
     1
102
RTVSPropertyOp9
 70
     1
102
RTVSPropertyOp10
 70
     1
102
RTVSPropertyOp11
 70
     1
102
RTVSPropertyOp12
 70
     1
102
RTVSPropertyOp13
 70
     1
102
RTVSPropertyOp14
 70
     1
102
RTVSPropertyOp15
 70
     1
102
RTVSPropertyOp16
 70
     1
102
RTVSPropertyOp17
 70
     1
102
RTVSPropertyOp18
 70
     1
102
RTVSPropertyOp19
 70
     1
102
RTVSPropertyOp20
 70
     1
102
RTVSPropertyOp21
 70
     1
102
RTVSPropertyOp22
 70
     1
102
RTVSPropertyOp23
 70
     1
102
RTVSPropertyOp24
 70
     1
102
RTVSPropertyOp25
 70
     1
102
RTVSPropertyOp26
 70
     1
102
RTVSPropertyOp27
 70
     1
102
RTVSPropertyOp28
 70
     1
102
RTVSPropertyOp29
 70
     1
102
RTVSPropertyOp30
 70
     1
102
RTVSPropertyOp31
 70
     1
102
RTVSPropertyOp32
 70
     1
102
RTVSPropertyOp33
 70
     1
102
RTVSPropertyOp34
 70
     1
102
RTVSPropertyOp35
 70
     1
102
RTVSPropertyOp36
 70
     1
102
RTVSPropertyOp37
 70
     1
102
RTVSPropertyOp38
 70
     1
102
RTVSPropertyOp39
 70
     1
102
RTVSPropertyOp40
 70
     1
102
RTVSPropertyOp41
 70
     1
102
RTVSPropertyOp42
 70
     1
102
RTVSPropertyOp43
 70
     1
102
RTVSPropertyOp44
 70
     1
102
RTVSPropertyOp45
 70
     1
102
RTVSPropertyOp46
 70
     1
102
RTVSPropertyOp47
 70
     1
102
RTVSPropertyOp48
 70
     1
102
RTVSPropertyOp49
 70
     1
102
RTVSPropertyOp50
 70
     1
102
RTVSPropertyOp51
 70
     0
102
RTVSPropertyOp52
 70
     0
102
RTVSPropertyOp53
 70
     1
102
RTVSPropertyOp54
 70
     1
102
RTVSPropertyOp55
 70
     1
102
RTVSPropertyOp56
 70
     1
102
RTVSPropertyOp57
 70
     1
102
RTVSPropertyOp58
 70
     1
102
RTVSPropertyOp59
 70
     1
102
RTVSPropertyOp60
 70
     1
102
RTVSPropertyOp61
 70
     1
102
RTVSPropertyOp62
 70
     1
  0
XRECORD
  5
18162
102
{ACAD_REACTORS
330
18161
102
}
330
18161
100
AcDbXrecord
280
     1
102
RTVSPost2010Prop28
280
     0
102
RTVSPost2010PropOp28
 70
     1
102
RTVSPost2010Prop29
280
     1
102
RTVSPost2010PropOp29
 70
     1
102
RTVSPost2010Prop30
280
     1
102
RTVSPost2010PropOp30
 70
     1
102
RTVSPost2010Prop31
280
     0
102
RTVSPost2010PropOp31
 70
     1
102
RTVSPost2010Prop32
280
     0
102
RTVSPost2010PropOp32
 70
     1
102
RTVSPost2010Prop33
280
     0
102
RTVSPost2010PropOp33
 70
     1
102
RTVSPost2010Prop34
280
     0
102
RTVSPost2010PropOp34
 70
     1
102
RTVSPost2010Prop35
280
     0
102
RTVSPost2010PropOp35
 70
     1
102
RTVSPost2010Prop36
280
     0
102
RTVSPost2010PropOp36
 70
     1
102
RTVSPost2010Prop37
 90
       50
102
RTVSPost2010PropOp37
 70
     1
102
RTVSPost2010Prop38
140
0.0
102
RTVSPost2010PropOp38
 70
     1
102
RTVSPost2010Prop39
140
1.0
102
RTVSPost2010PropOp39
 70
     1
102
RTVSPost2010Prop40
 90
        0
102
RTVSPost2010PropOp40
 70
     1
102
RTVSPost2010Prop41ColorIndex
 90
       18
102
RTVSPost2010Prop41ColorRGB
 90
        0
102
RTVSPost2010PropOp41
 70
     1
102
RTVSPost2010Prop42
 90
       50
102
RTVSPost2010PropOp42
 70
     1
102
RTVSPost2010Prop43
 90
        3
102
RTVSPost2010PropOp43
 70
     1
102
RTVSPost2010Prop44ColorIndex
 90
        5
102
RTVSPost2010Prop44ColorRGB
 90
      255
102
RTVSPost2010PropOp44
 70
     1
102
RTVSPost2010Prop45
280
     0
102
RTVSPost2010PropOp45
 70
     1
102
RTVSPost2010Prop46
 90
       50
102
RTVSPost2010PropOp46
 70
     1
102
RTVSPost2010Prop47
 90
       50
102
RTVSPost2010PropOp47
 70
     1
102
RTVSPost2010Prop48
 90
       50
102
RTVSPost2010PropOp48
 70
     1
102
RTVSPost2010Prop49
280
     0
102
RTVSPost2010PropOp49
 70
     1
102
RTVSPost2010Prop50
 90
       50
102
RTVSPost2010PropOp50
 70
     1
102
RTVSPost2010Prop51ColorIndex
 90
      256
102
RTVSPost2010Prop51ColorRGB
 90
-16777216
102
RTVSPost2010PropOp51
 70
     0
102
RTVSPost2010Prop52
140
1.0
102
RTVSPost2010PropOp52
 70
     0
102
RTVSPost2010Prop53
 90
        2
102
RTVSPost2010PropOp53
 70
     1
102
RTVSPost2010Prop54
  1
strokes_ogs.tif
102
RTVSPost2010PropOp54
 70
     1
102
RTVSPost2010Prop55
280
     0
102
RTVSPost2010PropOp55
 70
     1
102
RTVSPost2010Prop56
140
1.0
102
RTVSPost2010PropOp56
 70
     1
102
RTVSPost2010Prop57
140
1.0
102
RTVSPost2010PropOp57
 70
     1
102
RTVSPropertyOp0
 70
     1
102
RTVSPropertyOp1
 70
     1
102
RTVSPropertyOp2
 70
     1
102
RTVSPropertyOp3
 70
     1
102
RTVSPropertyOp4
 70
     1
102
RTVSPropertyOp5
 70
     1
102
RTVSPropertyOp6
 70
     1
102
RTVSPropertyOp7
 70
     1
102
RTVSPropertyOp8
 70
     1
102
RTVSPropertyOp9
 70
     1
102
RTVSPropertyOp10
 70
     1
102
RTVSPropertyOp11
 70
     1
102
RTVSPropertyOp12
 70
     1
102
RTVSPropertyOp13
 70
     1
102
RTVSPropertyOp14
 70
     1
102
RTVSPropertyOp15
 70
     1
102
RTVSPropertyOp16
 70
     1
102
RTVSPropertyOp17
 70
     1
102
RTVSPropertyOp18
 70
     1
102
RTVSPropertyOp19
 70
     1
102
RTVSPropertyOp20
 70
     1
102
RTVSPropertyOp21
 70
     1
102
RTVSPropertyOp22
 70
     1
102
RTVSPropertyOp23
 70
     1
102
RTVSPropertyOp24
 70
     1
102
RTVSPropertyOp25
 70
     1
102
RTVSPropertyOp26
 70
     1
102
RTVSPropertyOp27
 70
     1
102
RTVSPropertyOp28
 70
     1
102
RTVSPropertyOp29
 70
     1
102
RTVSPropertyOp30
 70
     1
102
RTVSPropertyOp31
 70
     1
102
RTVSPropertyOp32
 70
     1
102
RTVSPropertyOp33
 70
     1
102
RTVSPropertyOp34
 70
     1
102
RTVSPropertyOp35
 70
     1
102
RTVSPropertyOp36
 70
     1
102
RTVSPropertyOp37
 70
     1
102
RTVSPropertyOp38
 70
     1
102
RTVSPropertyOp39
 70
     1
102
RTVSPropertyOp40
 70
     1
102
RTVSPropertyOp41
 70
     1
102
RTVSPropertyOp42
 70
     1
102
RTVSPropertyOp43
 70
     1
102
RTVSPropertyOp44
 70
     1
102
RTVSPropertyOp45
 70
     1
102
RTVSPropertyOp46
 70
     1
102
RTVSPropertyOp47
 70
     1
102
RTVSPropertyOp48
 70
     1
102
RTVSPropertyOp49
 70
     1
102
RTVSPropertyOp50
 70
     1
102
RTVSPropertyOp51
 70
     0
102
RTVSPropertyOp52
 70
     0
102
RTVSPropertyOp53
 70
     1
102
RTVSPropertyOp54
 70
     1
102
RTVSPropertyOp55
 70
     1
102
RTVSPropertyOp56
 70
     1
102
RTVSPropertyOp57
 70
     1
102
RTVSPropertyOp58
 70
     1
102
RTVSPropertyOp59
 70
     1
102
RTVSPropertyOp60
 70
     1
102
RTVSPropertyOp61
 70
     1
102
RTVSPropertyOp62
 70
     1
  0
XRECORD
  5
18156
102
{ACAD_REACTORS
330
18155
102
}
330
18155
100
AcDbXrecord
280
     1
102
RTVSPost2010Prop28
280
     0
102
RTVSPost2010PropOp28
 70
     1
102
RTVSPost2010Prop29
280
     1
102
RTVSPost2010PropOp29
 70
     1
102
RTVSPost2010Prop30
280
     1
102
RTVSPost2010PropOp30
 70
     1
102
RTVSPost2010Prop31
280
     0
102
RTVSPost2010PropOp31
 70
     1
102
RTVSPost2010Prop32
280
     0
102
RTVSPost2010PropOp32
 70
     1
102
RTVSPost2010Prop33
280
     0
102
RTVSPost2010PropOp33
 70
     1
102
RTVSPost2010Prop34
280
     0
102
RTVSPost2010PropOp34
 70
     1
102
RTVSPost2010Prop35
280
     0
102
RTVSPost2010PropOp35
 70
     1
102
RTVSPost2010Prop36
280
     0
102
RTVSPost2010PropOp36
 70
     1
102
RTVSPost2010Prop37
 90
       50
102
RTVSPost2010PropOp37
 70
     1
102
RTVSPost2010Prop38
140
0.0
102
RTVSPost2010PropOp38
 70
     1
102
RTVSPost2010Prop39
140
1.0
102
RTVSPost2010PropOp39
 70
     1
102
RTVSPost2010Prop40
 90
        0
102
RTVSPost2010PropOp40
 70
     1
102
RTVSPost2010Prop41ColorIndex
 90
       18
102
RTVSPost2010Prop41ColorRGB
 90
        0
102
RTVSPost2010PropOp41
 70
     1
102
RTVSPost2010Prop42
 90
       50
102
RTVSPost2010PropOp42
 70
     1
102
RTVSPost2010Prop43
 90
        3
102
RTVSPost2010PropOp43
 70
     1
102
RTVSPost2010Prop44ColorIndex
 90
        5
102
RTVSPost2010Prop44ColorRGB
 90
      255
102
RTVSPost2010PropOp44
 70
     1
102
RTVSPost2010Prop45
280
     0
102
RTVSPost2010PropOp45
 70
     1
102
RTVSPost2010Prop46
 90
       50
102
RTVSPost2010PropOp46
 70
     1
102
RTVSPost2010Prop47
 90
       50
102
RTVSPost2010PropOp47
 70
     1
102
RTVSPost2010Prop48
 90
       50
102
RTVSPost2010PropOp48
 70
     1
102
RTVSPost2010Prop49
280
     0
102
RTVSPost2010PropOp49
 70
     1
102
RTVSPost2010Prop50
 90
       50
102
RTVSPost2010PropOp50
 70
     1
102
RTVSPost2010Prop51ColorIndex
 90
      256
102
RTVSPost2010Prop51ColorRGB
 90
-16777216
102
RTVSPost2010PropOp51
 70
     0
102
RTVSPost2010Prop52
140
1.0
102
RTVSPost2010PropOp52
 70
     0
102
RTVSPost2010Prop53
 90
        2
102
RTVSPost2010PropOp53
 70
     1
102
RTVSPost2010Prop54
  1
strokes_ogs.tif
102
RTVSPost2010PropOp54
 70
     1
102
RTVSPost2010Prop55
280
     0
102
RTVSPost2010PropOp55
 70
     1
102
RTVSPost2010Prop56
140
1.0
102
RTVSPost2010PropOp56
 70
     1
102
RTVSPost2010Prop57
140
1.0
102
RTVSPost2010PropOp57
 70
     1
102
RTVSPropertyOp0
 70
     1
102
RTVSPropertyOp1
 70
     1
102
RTVSPropertyOp2
 70
     1
102
RTVSPropertyOp3
 70
     1
102
RTVSPropertyOp4
 70
     1
102
RTVSPropertyOp5
 70
     1
102
RTVSPropertyOp6
 70
     1
102
RTVSPropertyOp7
 70
     1
102
RTVSPropertyOp8
 70
     1
102
RTVSPropertyOp9
 70
     1
102
RTVSPropertyOp10
 70
     1
102
RTVSPropertyOp11
 70
     1
102
RTVSPropertyOp12
 70
     1
102
RTVSPropertyOp13
 70
     1
102
RTVSPropertyOp14
 70
     1
102
RTVSPropertyOp15
 70
     1
102
RTVSPropertyOp16
 70
     1
102
RTVSPropertyOp17
 70
     1
102
RTVSPropertyOp18
 70
     1
102
RTVSPropertyOp19
 70
     1
102
RTVSPropertyOp20
 70
     1
102
RTVSPropertyOp21
 70
     1
102
RTVSPropertyOp22
 70
     1
102
RTVSPropertyOp23
 70
     1
102
RTVSPropertyOp24
 70
     1
102
RTVSPropertyOp25
 70
     1
102
RTVSPropertyOp26
 70
     1
102
RTVSPropertyOp27
 70
     1
102
RTVSPropertyOp28
 70
     1
102
RTVSPropertyOp29
 70
     1
102
RTVSPropertyOp30
 70
     1
102
RTVSPropertyOp31
 70
     1
102
RTVSPropertyOp32
 70
     1
102
RTVSPropertyOp33
 70
     1
102
RTVSPropertyOp34
 70
     1
102
RTVSPropertyOp35
 70
     1
102
RTVSPropertyOp36
 70
     1
102
RTVSPropertyOp37
 70
     1
102
RTVSPropertyOp38
 70
     1
102
RTVSPropertyOp39
 70
     1
102
RTVSPropertyOp40
 70
     1
102
RTVSPropertyOp41
 70
     1
102
RTVSPropertyOp42
 70
     1
102
RTVSPropertyOp43
 70
     1
102
RTVSPropertyOp44
 70
     1
102
RTVSPropertyOp45
 70
     1
102
RTVSPropertyOp46
 70
     1
102
RTVSPropertyOp47
 70
     1
102
RTVSPropertyOp48
 70
     1
102
RTVSPropertyOp49
 70
     1
102
RTVSPropertyOp50
 70
     1
102
RTVSPropertyOp51
 70
     0
102
RTVSPropertyOp52
 70
     0
102
RTVSPropertyOp53
 70
     1
102
RTVSPropertyOp54
 70
     1
102
RTVSPropertyOp55
 70
     1
102
RTVSPropertyOp56
 70
     1
102
RTVSPropertyOp57
 70
     1
102
RTVSPropertyOp58
 70
     1
102
RTVSPropertyOp59
 70
     1
102
RTVSPropertyOp60
 70
     1
102
RTVSPropertyOp61
 70
     1
102
RTVSPropertyOp62
 70
     1
  0
XRECORD
  5
1816E
102
{ACAD_REACTORS
330
1816D
102
}
330
1816D
100
AcDbXrecord
280
     1
102
RTVSPost2010Prop28
280
     0
102
RTVSPost2010PropOp28
 70
     1
102
RTVSPost2010Prop29
280
     1
102
RTVSPost2010PropOp29
 70
     1
102
RTVSPost2010Prop30
280
     1
102
RTVSPost2010PropOp30
 70
     1
102
RTVSPost2010Prop31
280
     0
102
RTVSPost2010PropOp31
 70
     1
102
RTVSPost2010Prop32
280
     0
102
RTVSPost2010PropOp32
 70
     1
102
RTVSPost2010Prop33
280
     0
102
RTVSPost2010PropOp33
 70
     1
102
RTVSPost2010Prop34
280
     0
102
RTVSPost2010PropOp34
 70
     1
102
RTVSPost2010Prop35
280
     0
102
RTVSPost2010PropOp35
 70
     1
102
RTVSPost2010Prop36
280
     0
102
RTVSPost2010PropOp36
 70
     1
102
RTVSPost2010Prop37
 90
       50
102
RTVSPost2010PropOp37
 70
     1
102
RTVSPost2010Prop38
140
0.0
102
RTVSPost2010PropOp38
 70
     1
102
RTVSPost2010Prop39
140
1.0
102
RTVSPost2010PropOp39
 70
     1
102
RTVSPost2010Prop40
 90
        0
102
RTVSPost2010PropOp40
 70
     1
102
RTVSPost2010Prop41ColorIndex
 90
       18
102
RTVSPost2010Prop41ColorRGB
 90
        0
102
RTVSPost2010PropOp41
 70
     1
102
RTVSPost2010Prop42
 90
       50
102
RTVSPost2010PropOp42
 70
     1
102
RTVSPost2010Prop43
 90
        3
102
RTVSPost2010PropOp43
 70
     1
102
RTVSPost2010Prop44ColorIndex
 90
        5
102
RTVSPost2010Prop44ColorRGB
 90
      255
102
RTVSPost2010PropOp44
 70
     1
102
RTVSPost2010Prop45
280
     0
102
RTVSPost2010PropOp45
 70
     1
102
RTVSPost2010Prop46
 90
       50
102
RTVSPost2010PropOp46
 70
     1
102
RTVSPost2010Prop47
 90
       50
102
RTVSPost2010PropOp47
 70
     1
102
RTVSPost2010Prop48
 90
       50
102
RTVSPost2010PropOp48
 70
     1
102
RTVSPost2010Prop49
280
     0
102
RTVSPost2010PropOp49
 70
     1
102
RTVSPost2010Prop50
 90
       50
102
RTVSPost2010PropOp50
 70
     1
102
RTVSPost2010Prop51ColorIndex
 90
      256
102
RTVSPost2010Prop51ColorRGB
 90
-16777216
102
RTVSPost2010PropOp51
 70
     0
102
RTVSPost2010Prop52
140
1.0
102
RTVSPost2010PropOp52
 70
     0
102
RTVSPost2010Prop53
 90
        2
102
RTVSPost2010PropOp53
 70
     1
102
RTVSPost2010Prop54
  1
strokes_ogs.tif
102
RTVSPost2010PropOp54
 70
     1
102
RTVSPost2010Prop55
280
     0
102
RTVSPost2010PropOp55
 70
     1
102
RTVSPost2010Prop56
140
1.0
102
RTVSPost2010PropOp56
 70
     1
102
RTVSPost2010Prop57
140
1.0
102
RTVSPost2010PropOp57
 70
     1
102
RTVSPropertyOp0
 70
     1
102
RTVSPropertyOp1
 70
     1
102
RTVSPropertyOp2
 70
     1
102
RTVSPropertyOp3
 70
     1
102
RTVSPropertyOp4
 70
     1
102
RTVSPropertyOp5
 70
     1
102
RTVSPropertyOp6
 70
     1
102
RTVSPropertyOp7
 70
     1
102
RTVSPropertyOp8
 70
     1
102
RTVSPropertyOp9
 70
     1
102
RTVSPropertyOp10
 70
     1
102
RTVSPropertyOp11
 70
     1
102
RTVSPropertyOp12
 70
     1
102
RTVSPropertyOp13
 70
     1
102
RTVSPropertyOp14
 70
     1
102
RTVSPropertyOp15
 70
     1
102
RTVSPropertyOp16
 70
     1
102
RTVSPropertyOp17
 70
     1
102
RTVSPropertyOp18
 70
     1
102
RTVSPropertyOp19
 70
     1
102
RTVSPropertyOp20
 70
     1
102
RTVSPropertyOp21
 70
     1
102
RTVSPropertyOp22
 70
     1
102
RTVSPropertyOp23
 70
     1
102
RTVSPropertyOp24
 70
     1
102
RTVSPropertyOp25
 70
     1
102
RTVSPropertyOp26
 70
     1
102
RTVSPropertyOp27
 70
     1
102
RTVSPropertyOp28
 70
     1
102
RTVSPropertyOp29
 70
     1
102
RTVSPropertyOp30
 70
     1
102
RTVSPropertyOp31
 70
     1
102
RTVSPropertyOp32
 70
     1
102
RTVSPropertyOp33
 70
     1
102
RTVSPropertyOp34
 70
     1
102
RTVSPropertyOp35
 70
     1
102
RTVSPropertyOp36
 70
     1
102
RTVSPropertyOp37
 70
     1
102
RTVSPropertyOp38
 70
     1
102
RTVSPropertyOp39
 70
     1
102
RTVSPropertyOp40
 70
     1
102
RTVSPropertyOp41
 70
     1
102
RTVSPropertyOp42
 70
     1
102
RTVSPropertyOp43
 70
     1
102
RTVSPropertyOp44
 70
     1
102
RTVSPropertyOp45
 70
     1
102
RTVSPropertyOp46
 70
     1
102
RTVSPropertyOp47
 70
     1
102
RTVSPropertyOp48
 70
     1
102
RTVSPropertyOp49
 70
     1
102
RTVSPropertyOp50
 70
     1
102
RTVSPropertyOp51
 70
     0
102
RTVSPropertyOp52
 70
     0
102
RTVSPropertyOp53
 70
     1
102
RTVSPropertyOp54
 70
     1
102
RTVSPropertyOp55
 70
     1
102
RTVSPropertyOp56
 70
     1
102
RTVSPropertyOp57
 70
     1
102
RTVSPropertyOp58
 70
     1
102
RTVSPropertyOp59
 70
     1
102
RTVSPropertyOp60
 70
     1
102
RTVSPropertyOp61
 70
     1
102
RTVSPropertyOp62
 70
     1
  0
ENDSEC
  0
EOF
