  0
SECTION
  2
HEADER
  9
$ACADVER
  1
AC1015
  9
$ACADMAINTVER
 70
    20
  9
$DWGCODEPAGE
  3
ANSI_932
  9
$INSBASE
 10
0.0
 20
0.0
 30
0.0
  9
$EXTMIN
 10
174.9999999999993
 20
-0.0000075012905659
 30
0.0
  9
$EXTMAX
 10
20384.0
 20
14262.0
 30
0.0
  9
$LIMMIN
 10
0.0
 20
0.0
  9
$LIMMAX
 10
21000.0
 20
14850.0
  9
$ORTHOMODE
 70
     0
  9
$REGENMODE
 70
     1
  9
$FILLMODE
 70
     1
  9
$QTEXTMODE
 70
     0
  9
$MIRRTEXT
 70
     1
  9
$LTSCALE
 40
20.0
  9
$ATTMODE
 70
     1
  9
$TEXTSIZE
 40
150.0
  9
$TRACEWID
 40
1.0
  9
$TEXTSTYLE
  7
STYLE1
  9
$CLAYER
  8
寸法
  9
$CELTYPE
  6
BYLAYER
  9
$CECOLOR
 62
   256
  9
$CELTSCALE
 40
50.0
  9
$DISPSILH
 70
     0
  9
$DIMSCALE
 40
0.0
  9
$DIMASZ
 40
125.0
  9
$DIMEXO
 40
25.0
  9
$DIMDLI
 40
7.0
  9
$DIMRND
 40
0.0
  9
$DIMDLE
 40
0.0
  9
$DIMEXE
 40
75.0
  9
$DIMTP
 40
0.0
  9
$DIMTM
 40
0.0
  9
$DIMTXT
 40
150.0
  9
$DIMCEN
 40
0.0
  9
$DIMTSZ
 40
0.0
  9
$DIMTOL
 70
     0
  9
$DIMLIM
 70
     0
  9
$DIMTIH
 70
     0
  9
$DIMTOH
 70
     0
  9
$DIMSE1
 70
     0
  9
$DIMSE2
 70
     0
  9
$DIMTAD
 70
     3
  9
$DIMZIN
 70
     8
  9
$DIMBLK
  1

  9
$DIMASO
 70
     1
  9
$DIMSHO
 70
     1
  9
$DIMPOST
  1

  9
$DIMAPOST
  1

  9
$DIMALT
 70
     0
  9
$DIMALTD
 70
     2
  9
$DIMALTF
 40
0.0394
  9
$DIMLFAC
 40
1.0
  9
$DIMTOFL
 70
     1
  9
$DIMTVP
 40
0.0
  9
$DIMTIX
 70
     1
  9
$DIMSOXD
 70
     0
  9
$DIMSAH
 70
     1
  9
$DIMBLK1
  1
DOTSMALL
  9
$DIMBLK2
  1
DOTSMALL
  9
$DIMSTYLE
  2
INABA_S50G
  9
$DIMCLRD
 70
     0
  9
$DIMCLRE
 70
     0
  9
$DIMCLRT
 70
     7
  9
$DIMTFAC
 40
1.0
  9
$DIMGAP
 40
25.0
  9
$DIMJUST
 70
     0
  9
$DIMSD1
 70
     0
  9
$DIMSD2
 70
     0
  9
$DIMTOLJ
 70
     1
  9
$DIMTZIN
 70
     0
  9
$DIMALTZ
 70
     0
  9
$DIMALTTZ
 70
     0
  9
$DIMUPT
 70
     0
  9
$DIMDEC
 70
     1
  9
$DIMTDEC
 70
     4
  9
$DIMALTU
 70
     2
  9
$DIMALTTD
 70
     2
  9
$DIMTXSTY
  7
STYLE1
  9
$DIMAUNIT
 70
     0
  9
$DIMADEC
 70
     0
  9
$DIMALTRND
 40
0.0
  9
$DIMAZIN
 70
     0
  9
$DIMDSEP
 70
    46
  9
$DIMATFIT
 70
     3
  9
$DIMFRAC
 70
     0
  9
$DIMLDRBLK
  1
DOTSMALL
  9
$DIMLUNIT
 70
     2
  9
$DIMLWD
 70
    -2
  9
$DIMLWE
 70
    -2
  9
$DIMTMOVE
 70
     0
  9
$LUNITS
 70
     2
  9
$LUPREC
 70
     1
  9
$SKETCHINC
 40
1.0
  9
$FILLETRAD
 40
5.0
  9
$AUNITS
 70
     0
  9
$AUPREC
 70
     0
  9
$MENU
  1
acad
  9
$ELEVATION
 40
0.0
  9
$PELEVATION
 40
0.0
  9
$THICKNESS
 40
0.0
  9
$LIMCHECK
 70
     0
  9
$CHAMFERA
 40
0.0
  9
$CHAMFERB
 40
0.0
  9
$CHAMFERC
 40
0.0
  9
$CHAMFERD
 40
0.0
  9
$SKPOLY
 70
     0
  9
$TDCREATE
 40
2451376.453362153
  9
$TDUCREATE
 40
2451376.078362153
  9
$TDUPDATE
 40
2455569.654762732
  9
$TDUUPDATE
 40
2455569.279762732
  9
$TDINDWG
 40
2.2499108565
  9
$TDUSRTIMER
 40
2.2499108565
  9
$USRTIMER
 70
     1
  9
$ANGBASE
 50
0.0
  9
$ANGDIR
 70
     0
  9
$PDMODE
 70
     3
  9
$PDSIZE
 40
2.0
  9
$PLINEWID
 40
0.0
  9
$SPLFRAME
 70
     0
  9
$SPLINETYPE
 70
     6
  9
$SPLINESEGS
 70
     8
  9
$HANDSEED
  5
27C7F
  9
$SURFTAB1
 70
     6
  9
$SURFTAB2
 70
     6
  9
$SURFTYPE
 70
     6
  9
$SURFU
 70
     6
  9
$SURFV
 70
     6
  9
$UCSBASE
  2

  9
$UCSNAME
  2

  9
$UCSORG
 10
0.0
 20
0.0
 30
0.0
  9
$UCSXDIR
 10
1.0
 20
0.0
 30
0.0
  9
$UCSYDIR
 10
0.0
 20
1.0
 30
0.0
  9
$UCSORTHOREF
  2

  9
$UCSORTHOVIEW
 70
     0
  9
$UCSORGTOP
 10
0.0
 20
0.0
 30
0.0
  9
$UCSORGBOTTOM
 10
0.0
 20
0.0
 30
0.0
  9
$UCSORGLEFT
 10
0.0
 20
0.0
 30
0.0
  9
$UCSORGRIGHT
 10
0.0
 20
0.0
 30
0.0
  9
$UCSORGFRONT
 10
0.0
 20
0.0
 30
0.0
  9
$UCSORGBACK
 10
0.0
 20
0.0
 30
0.0
  9
$PUCSBASE
  2

  9
$PUCSNAME
  2

  9
$PUCSORG
 10
0.0
 20
0.0
 30
0.0
  9
$PUCSXDIR
 10
1.0
 20
0.0
 30
0.0
  9
$PUCSYDIR
 10
0.0
 20
1.0
 30
0.0
  9
$PUCSORTHOREF
  2

  9
$PUCSORTHOVIEW
 70
     0
  9
$PUCSORGTOP
 10
0.0
 20
0.0
 30
0.0
  9
$PUCSORGBOTTOM
 10
0.0
 20
0.0
 30
0.0
  9
$PUCSORGLEFT
 10
0.0
 20
0.0
 30
0.0
  9
$PUCSORGRIGHT
 10
0.0
 20
0.0
 30
0.0
  9
$PUCSORGFRONT
 10
0.0
 20
0.0
 30
0.0
  9
$PUCSORGBACK
 10
0.0
 20
0.0
 30
0.0
  9
$USERI1
 70
     0
  9
$USERI2
 70
     0
  9
$USERI3
 70
     0
  9
$USERI4
 70
     0
  9
$USERI5
 70
     0
  9
$USERR1
 40
0.0
  9
$USERR2
 40
0.0
  9
$USERR3
 40
0.0
  9
$USERR4
 40
0.0
  9
$USERR5
 40
0.0
  9
$WORLDVIEW
 70
     1
  9
$SHADEDGE
 70
     3
  9
$SHADEDIF
 70
    70
  9
$TILEMODE
 70
     1
  9
$MAXACTVP
 70
    16
  9
$PINSBASE
 10
0.0
 20
0.0
 30
0.0
  9
$PLIMCHECK
 70
     0
  9
$PEXTMIN
 10
1.000000000000000E+20
 20
1.000000000000000E+20
 30
1.000000000000000E+20
  9
$PEXTMAX
 10
-1.000000000000000E+20
 20
-1.000000000000000E+20
 30
-1.000000000000000E+20
  9
$PLIMMIN
 10
0.0
 20
0.0
  9
$PLIMMAX
 10
420.0
 20
297.0
  9
$UNITMODE
 70
     0
  9
$VISRETAIN
 70
     0
  9
$PLINEGEN
 70
     0
  9
$PSLTSCALE
 70
     0
  9
$TREEDEPTH
 70
  3020
  9
$CMLSTYLE
  2
STANDARD
  9
$CMLJUST
 70
     0
  9
$CMLSCALE
 40
1.0
  9
$PROXYGRAPHICS
 70
     1
  9
$MEASUREMENT
 70
     1
  9
$CELWEIGHT
370
    -1
  9
$ENDCAPS
280
     0
  9
$JOINSTYLE
280
     0
  9
$LWDISPLAY
290
     0
  9
$INSUNITS
 70
     0
  9
$HYPERLINKBASE
  1

  9
$STYLESHEET
  1
inaba.ctb
  9
$XEDIT
290
     1
  9
$CEPSNTYPE
380
     0
  9
$PSTYLEMODE
290
     1
  9
$FINGERPRINTGUID
  2
{8A9045F4-6790-4200-B653-50126A12A1CF}
  9
$VERSIONGUID
  2
{065E055E-BAF0-4E93-8C01-7E539F497114}
  9
$EXTNAMES
290
     1
  9
$PSVPSCALE
 40
0.0
  9
$OLESTARTUP
290
     0
  0
ENDSEC
  0
SECTION
  2
CLASSES
  0
CLASS
  1
DICTIONARYVAR
  2
AcDbDictionaryVar
  3
ObjectDBX Classes
 90
        0
280
     0
281
     0
  0
CLASS
  1
ACDBDICTIONARYWDFLT
  2
AcDbDictionaryWithDefault
  3
ObjectDBX Classes
 90
        0
280
     0
281
     0
  0
CLASS
  1
ACDBPLACEHOLDER
  2
AcDbPlaceHolder
  3
ObjectDBX Classes
 90
        0
280
     0
281
     0
  0
CLASS
  1
LAYOUT
  2
AcDbLayout
  3
ObjectDBX Classes
 90
        0
280
     0
281
     0
  0
ENDSEC
  0
SECTION
  2
TABLES
  0
TABLE
  2
VPORT
  5
746D
330
0
100
AcDbSymbolTable
 70
     2
  0
VPORT
  5
27C77
330
746D
100
AcDbSymbolTableRecord
100
AcDbViewportTableRecord
  2
*Active
 70
     0
 10
0.0
 20
0.0
 11
1.0
 21
1.0
 12
14182.64980720952
 22
7131.091122078446
 13
0.0
 23
0.0
 14
500.0
 24
500.0
 15
500.0
 25
500.0
 16
0.0
 26
0.0
 36
1.0
 17
0.0
 27
0.0
 37
0.0
 40
14398.68530272136
 41
2.234800838574423
 42
50.0
 43
0.0
 44
0.0
 50
0.0
 51
0.0
 71
     0
 72
     0
 73
     1
 74
     0
 75
     0
 76
     0
 77
     0
 78
     0
281
     0
 65
     1
110
0.0
120
0.0
130
0.0
111
1.0
121
0.0
131
0.0
112
0.0
122
1.0
132
0.0
 79
     0
146
0.0
  0
ENDTAB
  0
TABLE
  2
LTYPE
  5
746A
330
0
100
AcDbSymbolTable
 70
     4
  0
LTYPE
  5
7477
330
746A
100
AcDbSymbolTableRecord
100
AcDbLinetypeTableRecord
  2
BYBLOCK
 70
     0
  3

 72
    65
 73
     0
 40
0.0
  0
LTYPE
  5
7478
330
746A
100
AcDbSymbolTableRecord
100
AcDbLinetypeTableRecord
  2
BYLAYER
 70
     0
  3

 72
    65
 73
     0
 40
0.0
  0
LTYPE
  5
7479
330
746A
100
AcDbSymbolTableRecord
100
AcDbLinetypeTableRecord
  2
CONTINUOUS
 70
     0
  3
Solid line
 72
    65
 73
     0
 40
0.0
  0
LTYPE
  5
7816
330
746A
100
AcDbSymbolTableRecord
100
AcDbLinetypeTableRecord
  2
CENTER
 70
     0
  3
____ _ ____ _ ____ _ ____ _ ____ _ ____ _ ____ 
 72
    65
 73
     4
 40
2.0
 49
1.25
 74
     0
 49
-0.25
 74
     0
 49
0.25
 74
     0
 49
-0.25
 74
     0
  0
LTYPE
  5
781A
330
746A
100
AcDbSymbolTableRecord
100
AcDbLinetypeTableRecord
  2
HIDDEN
 70
     0
  3
__ __ __ __ __ __ __ __ __ __ __ __ __ __ __ __
 72
    65
 73
     2
 40
0.375
 49
0.25
 74
     0
 49
-0.125
 74
     0
  0
LTYPE
  5
781B
330
746A
100
AcDbSymbolTableRecord
100
AcDbLinetypeTableRecord
  2
PHANTOM
 70
     0
  3
______  __  __  ______  __  __  ______  __  __ 
 72
    65
 73
     6
 40
2.5
 49
1.25
 74
     0
 49
-0.25
 74
     0
 49
0.25
 74
     0
 49
-0.25
 74
     0
 49
0.25
 74
     0
 49
-0.25
 74
     0
  0
ENDTAB
  0
TABLE
  2
LAYER
  5
7467
102
{ACAD_XDICTIONARY
360
2678E
102
}
330
0
100
AcDbSymbolTable
 70
    12
  0
LAYER
  5
7474
330
7467
100
AcDbSymbolTableRecord
100
AcDbLayerTableRecord
  2
0
 70
     0
 62
     7
  6
CONTINUOUS
370
    -3
390
1BE95
  0
LAYER
  5
DEB2
330
7467
100
AcDbSymbolTableRecord
100
AcDbLayerTableRecord
  2
センター
 70
     0
 62
     3
  6
CENTER
370
    -3
390
1BE95
  0
LAYER
  5
DEB3
330
7467
100
AcDbSymbolTableRecord
100
AcDbLayerTableRecord
  2
寸法
 70
     0
 62
     4
  6
CONTINUOUS
370
    -3
390
1BE95
  0
LAYER
  5
DEB4
330
7467
100
AcDbSymbolTableRecord
100
AcDbLayerTableRecord
  2
部品1
 70
     0
 62
     7
  6
CONTINUOUS
370
    -3
390
1BE95
  0
LAYER
  5
DEB5
330
7467
100
AcDbSymbolTableRecord
100
AcDbLayerTableRecord
  2
補助
 70
     0
 62
    -1
  6
CONTINUOUS
370
    -3
390
1BE95
  0
LAYER
  5
DEB6
330
7467
100
AcDbSymbolTableRecord
100
AcDbLayerTableRecord
  2
文字
 70
     0
 62
     7
  6
CONTINUOUS
370
    -3
390
1BE95
  0
LAYER
  5
F255
330
7467
100
AcDbSymbolTableRecord
100
AcDbLayerTableRecord
  2
DEFPOINTS
 70
     0
 62
     7
  6
CONTINUOUS
290
     0
370
    -3
390
1BE95
  0
LAYER
  5
10B54
330
7467
100
AcDbSymbolTableRecord
100
AcDbLayerTableRecord
  2
仕様書枠
 70
     0
 62
   230
  6
CONTINUOUS
370
    -3
390
1BE95
  0
LAYER
  5
1173F
330
7467
100
AcDbSymbolTableRecord
100
AcDbLayerTableRecord
  2
細線
 70
     0
 62
     5
  6
CONTINUOUS
370
    -3
390
1BE95
  0
LAYER
  5
1180C
330
7467
100
AcDbSymbolTableRecord
100
AcDbLayerTableRecord
  2
想像線
 70
     0
 62
     6
  6
PHANTOM
370
    -3
390
1BE95
  0
LAYER
  5
1E63D
330
7467
100
AcDbSymbolTableRecord
100
AcDbLayerTableRecord
  2
点線
 70
     0
 62
     2
  6
HIDDEN
370
    -3
390
1BE95
  0
LAYER
  5
2678C
330
7467
100
AcDbSymbolTableRecord
100
AcDbLayerTableRecord
  2
Ｇ．Ｌ
 70
     0
 62
    30
  6
CONTINUOUS
370
    -3
390
1BE95
  0
ENDTAB
  0
TABLE
  2
STYLE
  5
7468
330
0
100
AcDbSymbolTable
 70
     5
  0
STYLE
  5
7475
330
7468
100
AcDbSymbolTableRecord
100
AcDbTextStyleTableRecord
  2
STANDARD
 70
     0
 40
0.0
 41
1.0
 50
0.0
 71
     0
 42
4.0
  3
txt
  4
C:\AutoCAD LT\bigfont.shx
  0
STYLE
  5
763C
330
7468
100
AcDbSymbolTableRecord
100
AcDbTextStyleTableRecord
  2
MSMINCHO
 70
     0
 40
0.0
 41
1.0
 50
0.0
 71
     0
 42
1.199999999999999
  3
MS PMincho.ttf
  4

1001
ACAD
1000
MS PMincho
1071
    32786
  0
STYLE
  5
F706
330
7468
100
AcDbSymbolTableRecord
100
AcDbTextStyleTableRecord
  2
STYLE1
 70
     0
 40
0.0
 41
1.0
 50
0.0
 71
     0
 42
150.0
  3
isocp.shx
  4
bigfont.shx
  0
STYLE
  5
103BF
330
7468
100
AcDbSymbolTableRecord
100
AcDbTextStyleTableRecord
  2
STYLE2
 70
     0
 40
0.0
 41
1.0
 50
0.0
 71
     0
 42
100.0
  3
MS PGothic.ttf
  4

1001
ACAD
1000
MS PGothic
1071
    32818
  0
STYLE
  5
2678D
330
7468
100
AcDbSymbolTableRecord
100
AcDbTextStyleTableRecord
  2
STYLE3
 70
     0
 40
0.0
 41
1.0
 50
0.0
 71
     0
 42
100.0
  3
DFPGothic-EB.ttf
  4

1001
ACAD
1000
DFPGothic-EB
1071
    32818
  0
ENDTAB
  0
TABLE
  2
VIEW
  5
746B
330
0
100
AcDbSymbolTable
 70
     0
  0
ENDTAB
  0
TABLE
  2
UCS
  5
746C
330
0
100
AcDbSymbolTable
 70
     0
  0
ENDTAB
  0
TABLE
  2
APPID
  5
746E
330
0
100
AcDbSymbolTable
 70
     6
  0
APPID
  5
7476
330
746E
100
AcDbSymbolTableRecord
100
AcDbRegAppTableRecord
  2
ACAD
 70
     0
  0
APPID
  5
DEA9
330
746E
100
AcDbSymbolTableRecord
100
AcDbRegAppTableRecord
  2
CONTENTBLOCKICON
 70
     0
  0
APPID
  5
DEAA
330
746E
100
AcDbSymbolTableRecord
100
AcDbRegAppTableRecord
  2
CONTENTBLOCKDESCRIPTION
 70
     0
  0
APPID
  5
E71D
330
746E
100
AcDbSymbolTableRecord
100
AcDbRegAppTableRecord
  2
CONTENTTABDATA
 70
     0
  0
APPID
  5
E71E
330
746E
100
AcDbSymbolTableRecord
100
AcDbRegAppTableRecord
  2
CONTENTCURRENTTAB
 70
     0
  0
APPID
  5
F3BA
330
746E
100
AcDbSymbolTableRecord
100
AcDbRegAppTableRecord
  2
DRAWINGVARIABLESXDATA
 70
     0
  0
ENDTAB
  0
TABLE
  2
DIMSTYLE
  5
746F
330
0
100
AcDbSymbolTable
 70
     4
100
AcDbDimStyleTable
 71
     3
340
F71F
340
24575
340
214DF
  0
DIMSTYLE
105
F71F
102
{ACAD_REACTORS
330
27628
330
27629
330
2762A
330
27660
330
27661
330
27662
330
27663
330
27664
330
27665
330
27666
330
27667
330
278F1
330
2790B
102
}
330
746F
100
AcDbSymbolTableRecord
100
AcDbDimStyleTableRecord
  2
INABA_S50G
 70
     0
 40
0.0
 41
125.0
 42
25.0
 43
7.0
 44
75.0
 73
     0
 74
     0
 77
     3
 78
     8
140
150.0
141
0.0
143
0.0394
147
25.0
172
     1
173
     1
174
     1
178
     7
271
     1
340
F706
341
F770
343
F770
344
F770
  0
DIMSTYLE
105
214DF
330
746F
100
AcDbSymbolTableRecord
100
AcDbDimStyleTableRecord
  2
INABA_S50G詳細用
 70
     0
 40
0.0
 41
125.0
 42
25.0
 43
7.0
 44
35.0
 73
     0
 74
     0
 77
     3
 78
     8
140
150.0
141
0.0
143
0.0394
144
0.5
147
25.0
172
     1
173
     1
178
     7
271
     1
272
     1
340
F706
341
11750
343
F770
344
F770
  0
DIMSTYLE
105
24575
330
746F
100
AcDbSymbolTableRecord
100
AcDbDimStyleTableRecord
  2
INABA_S50G詳細S20用
 70
     0
 40
0.0
 41
125.0
 42
25.0
 43
7.0
 44
35.0
 73
     0
 74
     0
 77
     3
 78
     8
140
150.0
141
0.0
143
0.0394
144
0.4
147
25.0
172
     1
173
     1
178
     7
271
     1
272
     1
340
F706
341
11750
343
F770
344
F770
  0
DIMSTYLE
105
26E97
102
{ACAD_REACTORS
330
27AF9
330
27AFC
330
27B55
330
27B68
102
}
330
746F
100
AcDbSymbolTableRecord
100
AcDbDimStyleTableRecord
  2
INABA_S40G
 70
     0
 40
40.0
 41
2.5
 42
0.5
 43
7.0
 44
1.5
 73
     0
 74
     0
 77
     3
 78
     8
140
3.0
141
0.0
143
0.0394
147
1.0
172
     1
173
     1
174
     1
178
     7
271
     1
288
     1
340
F706
341
F770
343
F770
344
F770
  0
ENDTAB
  0
TABLE
  2
BLOCK_RECORD
  5
7466
330
0
100
AcDbSymbolTable
 70
    29
  0
BLOCK_RECORD
  5
747D
330
7466
100
AcDbSymbolTableRecord
100
AcDbBlockTableRecord
  2
*MODEL_SPACE
340
1BE9A
  0
BLOCK_RECORD
  5
747A
330
7466
100
AcDbSymbolTableRecord
100
AcDbBlockTableRecord
  2
*PAPER_SPACE
340
1BE9B
  0
BLOCK_RECORD
  5
ECB3
330
7466
100
AcDbSymbolTableRecord
100
AcDbBlockTableRecord
  2
作図枠S50
340
0
310
2800000020000000200000000100040000000000000200000000000000000000000000000000000000000000000080000080000000808000800000008000800080800000C0C0C000808080000000FF0000FF000000FFFF00FF000000FF00FF00FFFF0000FFFFFF00FFFFFFFFFFFFFFFFFFFFFFFFFFFFFFFFFFFFFFFFFFFFFF
310
FFFFFFFFFFFFFFFFFFFFFFFFFFFFFFFFFFFFFFFFFFFFFFFFFFFFFFFFFFFFFFFFFFFFFFFFFFFFFFFFFFFFFFFFFFFFFFFFFFFFFFFFFFFFFFFFFFFFFFFFFFFFFFFFFFFFFFFFFFFFFFFFFF999999999999999999999999999999999FFFFFFFFFFFFFFFFFFFFFFFFFFFFFF99FFFFFFFFFFFFFFFFFFFFFFFFFFFFFF99FFFFFFFFFFF
310
FFFFFFFFFFFFFFFFFFF99FFFFFFFFFFFFFFFFFFFFFFFFFFFFFF99FFFFFFFFFFFFFFFFFFFFFFFFFFFFFF99FFFFFFFFFFFFFFFFFFFFFFFFFFFFFF99FFFFFFFFFFFFFFFFFFFFFFFFFFFFFF99FFFFFFFFFFFFFFFFFFFFFFFFFFFFFF99FFFFFFFFFFFFFFFFFFFFFFFFFFFFFF99FFFFFFFFFFFFFFFFFFFFFFFFFFFFFF99FFFFFFFFF
310
FFFFFFFFFFFFFFFFFFFFF99FFFFFFFFFFFFFFFFFFFFFFFFFFFFFF99FFFFFFFFFFFFFFFFFFFFFFFFFFFFFF99FFFFFFFFFFFFFFFFFFFFFFFFFFFFFF99FFFFFFFFFFFFFFFFFFFFFFFFFFFFFF99FFFFFFFFFFFFFFFFFFFFFFFFFFFFFF99FFFFFFFFFFFFFFFFFFFFFFFFFFFFFF99FFFFFFFFFFFFFFFFFFFFF99999999999FFFFFFF
310
FFFFFFFFFFFFFF9FFFFFFFFF99999999999999999999999FFFFFFFFFFFFFFFFFFFFFFFFFFFFFFFFFFFFFFFFFFFFFFFFFFFFFFFFFFFFFFFFFFFFFFFFFFFFFFFFFFFFFFFFFFFFFFFFFFFFFFFFFFFFFFFFFFFFFFFFFFFFFFFFFFFFFFFFFFFFFFFFFFFFFFFFFFFFFFFFFFFFFFFFF
102
{BLKREFS
331
F235
102
}
  0
BLOCK_RECORD
  5
F770
330
7466
100
AcDbSymbolTableRecord
100
AcDbBlockTableRecord
  2
_DOTSMALL
340
0
102
{BLKREFS
331
27378
331
27379
331
27381
331
27382
331
2738A
331
2738B
331
27808
331
27809
331
27811
331
27812
331
2781A
331
2781B
331
2784F
331
27850
331
27859
331
2785A
331
2786B
331
2786C
331
27874
331
27875
331
27886
331
27887
331
27892
331
27893
331
2789A
331
2789B
331
278DC
331
278DD
331
278F8
331
278F9
331
27912
331
27913
331
2792B
331
2792C
331
2794F
331
27950
331
27937
331
27938
331
27943
331
27944
331
27C49
331
27C4A
331
27C52
331
27C53
331
27C5B
331
27C5C
331
27C64
331
27C65
102
}
  0
BLOCK_RECORD
  5
11750
330
7466
100
AcDbSymbolTableRecord
100
AcDbBlockTableRecord
  2
_NONE
340
0
  0
BLOCK_RECORD
  5
228B7
330
7466
100
AcDbSymbolTableRecord
100
AcDbBlockTableRecord
  2
_Open
340
0
  0
BLOCK_RECORD
  5
26658
330
7466
100
AcDbSymbolTableRecord
100
AcDbBlockTableRecord
  2
A$C1BA55281
340
0
  0
BLOCK_RECORD
  5
2769F
330
7466
100
AcDbSymbolTableRecord
100
AcDbBlockTableRecord
  2
*D8
340
0
  0
BLOCK_RECORD
  5
276AB
330
7466
100
AcDbSymbolTableRecord
100
AcDbBlockTableRecord
  2
*D9
340
0
  0
BLOCK_RECORD
  5
276B7
330
7466
100
AcDbSymbolTableRecord
100
AcDbBlockTableRecord
  2
*D10
340
0
  0
BLOCK_RECORD
  5
276EA
330
7466
100
AcDbSymbolTableRecord
100
AcDbBlockTableRecord
  2
*D11
340
0
  0
BLOCK_RECORD
  5
276F6
330
7466
100
AcDbSymbolTableRecord
100
AcDbBlockTableRecord
  2
*D12
340
0
  0
BLOCK_RECORD
  5
27702
330
7466
100
AcDbSymbolTableRecord
100
AcDbBlockTableRecord
  2
*D13
340
0
  0
BLOCK_RECORD
  5
27710
330
7466
100
AcDbSymbolTableRecord
100
AcDbBlockTableRecord
  2
*D14
340
0
  0
BLOCK_RECORD
  5
2771C
330
7466
100
AcDbSymbolTableRecord
100
AcDbBlockTableRecord
  2
*D15
340
0
  0
BLOCK_RECORD
  5
2772A
330
7466
100
AcDbSymbolTableRecord
100
AcDbBlockTableRecord
  2
*D16
340
0
  0
BLOCK_RECORD
  5
27738
330
7466
100
AcDbSymbolTableRecord
100
AcDbBlockTableRecord
  2
*D17
340
0
  0
BLOCK_RECORD
  5
27744
330
7466
100
AcDbSymbolTableRecord
100
AcDbBlockTableRecord
  2
*D18
340
0
  0
BLOCK_RECORD
  5
278F2
330
7466
100
AcDbSymbolTableRecord
100
AcDbBlockTableRecord
  2
*D19
340
0
  0
BLOCK_RECORD
  5
2790C
330
7466
100
AcDbSymbolTableRecord
100
AcDbBlockTableRecord
  2
*D20
340
0
  0
BLOCK_RECORD
  5
27C16
330
7466
100
AcDbSymbolTableRecord
100
AcDbBlockTableRecord
  2
*D25
340
0
  0
BLOCK_RECORD
  5
27C22
330
7466
100
AcDbSymbolTableRecord
100
AcDbBlockTableRecord
  2
*D26
340
0
  0
BLOCK_RECORD
  5
27C2E
330
7466
100
AcDbSymbolTableRecord
100
AcDbBlockTableRecord
  2
*D27
340
0
  0
BLOCK_RECORD
  5
27C3A
330
7466
100
AcDbSymbolTableRecord
100
AcDbBlockTableRecord
  2
*D28
340
0
  0
ENDTAB
  0
ENDSEC
  0
SECTION
  2
BLOCKS
  0
BLOCK
  5
7489
330
747D
100
AcDbEntity
  8
0
100
AcDbBlockBegin
  2
*MODEL_SPACE
 70
     0
 10
0.0
 20
0.0
 30
0.0
  3
*MODEL_SPACE
  1

  0
ENDBLK
  5
748A
330
747D
100
AcDbEntity
  8
0
100
AcDbBlockEnd
  0
BLOCK
  5
7487
330
747A
100
AcDbEntity
 67
     1
  8
0
100
AcDbBlockBegin
  2
*PAPER_SPACE
 70
     0
 10
0.0
 20
0.0
 30
0.0
  3
*PAPER_SPACE
  1

  0
ENDBLK
  5
7488
330
747A
100
AcDbEntity
 67
     1
  8
0
100
AcDbBlockEnd
  0
BLOCK
  5
ECB4
330
ECB3
100
AcDbEntity
  8
0
100
AcDbBlockBegin
  2
作図枠S50
 70
     0
 10
0.0
 20
0.0
 30
0.0
  3
作図枠S50
  1

  4
作図領域枠 縮尺 1/50
  0
LINE
  5
ECB5
330
ECB3
100
AcDbEntity
  8
補助
100
AcDbLine
 10
14364.0
 20
14262.0
 30
0.0
 11
174.9999999999993
 21
14262.0
 31
0.0
  0
LINE
  5
ECB6
330
ECB3
100
AcDbEntity
  8
補助
100
AcDbLine
 10
174.9999999999993
 20
14262.0
 30
0.0
 11
174.9999999999993
 21
1520.0
 31
0.0
  0
LINE
  5
ECB7
330
ECB3
100
AcDbEntity
  8
補助
100
AcDbLine
 10
174.9999999999993
 20
1520.0
 30
0.0
 11
20384.0
 21
1520.0
 31
0.0
  0
LINE
  5
ECB8
330
ECB3
100
AcDbEntity
  8
補助
100
AcDbLine
 10
20384.0
 20
1520.0
 30
0.0
 11
20384.0
 21
13042.0
 31
0.0
  0
LINE
  5
ECB9
330
ECB3
100
AcDbEntity
  8
補助
100
AcDbLine
 10
20384.0
 20
13042.0
 30
0.0
 11
14364.0
 21
13042.0
 31
0.0
  0
LINE
  5
ECBA
330
ECB3
100
AcDbEntity
  8
補助
100
AcDbLine
 10
14364.0
 20
13042.0
 30
0.0
 11
14364.0
 21
14262.0
 31
0.0
  0
ENDBLK
  5
ECBB
330
ECB3
100
AcDbEntity
  8
0
100
AcDbBlockEnd
  0
BLOCK
  5
F771
330
F770
100
AcDbEntity
  8
0
 48
50.0
100
AcDbBlockBegin
  2
_DOTSMALL
 70
     0
 10
0.0
 20
0.0
 30
0.0
  3
_DOTSMALL
  1

  0
LWPOLYLINE
  5
F772
330
F770
100
AcDbEntity
  8
0
  6
ByBlock
 62
     0
 48
50.0
100
AcDbPolyline
 90
        2
 70
     1
 43
0.5
 10
-0.0625
 20
0.0
 42
1.0
 10
0.0625
 20
0.0
 42
1.0
  0
ENDBLK
  5
F776
330
F770
100
AcDbEntity
  8
0
 48
50.0
100
AcDbBlockEnd
  0
BLOCK
  5
11752
330
11750
100
AcDbEntity
  8
0
 48
50.0
100
AcDbBlockBegin
  2
_NONE
 70
     0
 10
0.0
 20
0.0
 30
0.0
  3
_NONE
  1

  0
CIRCLE
  5
11751
330
11750
100
AcDbEntity
  8
0
  6
ByBlock
 62
     0
 48
50.0
100
AcDbCircle
 10
0.0
 20
0.0
 30
0.0
 40
0.25
  0
ENDBLK
  5
11753
330
11750
100
AcDbEntity
  8
0
 48
50.0
100
AcDbBlockEnd
  0
BLOCK
  5
228BB
330
228B7
100
AcDbEntity
  8
0
 48
50.0
100
AcDbBlockBegin
  2
_Open
 70
     0
 10
0.0
 20
0.0
 30
0.0
  3
_Open
  1

  0
LINE
  5
228B8
330
228B7
100
AcDbEntity
  8
0
  6
ByBlock
 62
     0
370
    -2
100
AcDbLine
 10
-1.0
 20
0.1666666666666666
 30
0.0
 11
0.0
 21
0.0
 31
0.0
  0
LINE
  5
228B9
330
228B7
100
AcDbEntity
  8
0
  6
ByBlock
 62
     0
370
    -2
100
AcDbLine
 10
-1.0
 20
-0.1666666666666666
 30
0.0
 11
0.0
 21
0.0
 31
0.0
  0
LINE
  5
228BA
330
228B7
100
AcDbEntity
  8
0
  6
ByBlock
 62
     0
370
    -2
100
AcDbLine
 10
0.0
 20
0.0
 30
0.0
 11
-1.0
 21
0.0
 31
0.0
  0
ENDBLK
  5
228BC
330
228B7
100
AcDbEntity
  8
0
 48
50.0
100
AcDbBlockEnd
  0
BLOCK
  5
26659
330
26658
100
AcDbEntity
  8
0
 48
50.0
100
AcDbBlockBegin
  2
A$C1BA55281
 70
     0
 10
0.0
 20
0.0
 30
0.0
  3
A$C1BA55281
  1

  0
LINE
  5
2665A
330
26658
100
AcDbEntity
  8
細線
100
AcDbLine
 10
646.0422180577734
 20
299.9999987719807
 30
0.0
 11
446.0422180577752
 21
499.9999987719802
 31
0.0
  0
LINE
  5
2665B
330
26658
100
AcDbEntity
  8
Ｇ．Ｌ
100
AcDbLine
 10
0.0000102186186268
 20
299.9999987719807
 30
0.0
 11
1368.538394350012
 21
299.9999987719807
 31
0.0
  0
LINE
  5
2665C
330
26658
100
AcDbEntity
  8
部品1
100
AcDbLine
 10
300.0000102186186
 20
499.9999987719802
 30
0.0
 11
700.0000102186167
 21
499.9999987719802
 31
0.0
  0
LINE
  5
2665D
330
26658
100
AcDbEntity
  8
部品1
100
AcDbLine
 10
200.0000102186168
 20
199.9999987719775
 30
0.0
 11
800.0000102186177
 21
199.9999987719802
 31
0.0
  0
LINE
  5
2665E
330
26658
100
AcDbEntity
  8
部品1
100
AcDbLine
 10
200.0000102186168
 20
-0.0000012280233932
 30
0.0
 11
800.0000102186177
 21
-0.0000012280206647
 31
0.0
  0
LINE
  5
2665F
330
26658
100
AcDbEntity
  8
細線
100
AcDbLine
 10
270.6127686791824
 20
199.9999987719777
 30
0.0
 11
370.6127686791824
 21
299.9999987719805
 31
0.0
  0
LINE
  5
26660
330
26658
100
AcDbEntity
  8
細線
100
AcDbLine
 10
327.1813111741085
 20
199.9999987719782
 30
0.0
 11
427.1813111741058
 21
299.9999987719807
 31
0.0
  0
LINE
  5
26661
330
26658
100
AcDbEntity
  8
細線
100
AcDbLine
 10
298.8970399266473
 20
199.9999987719802
 30
0.0
 11
398.8970399266436
 21
299.9999987719807
 31
0.0
  0
LINE
  5
26662
330
26658
100
AcDbEntity
  8
部品1
100
AcDbLine
 10
200.0000102186168
 20
-0.0000012280233932
 30
0.0
 11
200.0000102186168
 21
299.9999987719807
 31
0.0
  0
LINE
  5
26663
330
26658
100
AcDbEntity
  8
細線
100
AcDbLine
 10
200.0000102186168
 20
199.9999987719775
 30
0.0
 11
253.5898487048417
 21
-0.0000012280261217
 31
0.0
  0
LINE
  5
26664
330
26658
100
AcDbEntity
  8
細線
100
AcDbLine
 10
240.1923890832841
 20
49.99999877197751
 30
0.0
 11
226.7949294617283
 21
-0.0000012280233932
 31
0.0
  0
LINE
  5
26665
330
26658
100
AcDbEntity
  8
細線
100
AcDbLine
 10
226.7949294617283
 20
199.9999987719775
 30
0.0
 11
213.3974698401744
 21
149.9999987719766
 31
0.0
  0
LINE
  5
26666
330
26658
100
AcDbEntity
  8
細線
100
AcDbLine
 10
300.0000102186186
 20
199.9999987719775
 30
0.0
 11
353.5898487048398
 21
-0.0000012280261217
 31
0.0
  0
LINE
  5
26667
330
26658
100
AcDbEntity
  8
細線
100
AcDbLine
 10
400.0000102186167
 20
199.9999987719802
 30
0.0
 11
453.5898487048398
 21
-0.0000012280233932
 31
0.0
  0
LINE
  5
26668
330
26658
100
AcDbEntity
  8
細線
100
AcDbLine
 10
340.1923890832859
 20
49.99999877197751
 30
0.0
 11
326.7949294617283
 21
-0.0000012280233932
 31
0.0
  0
LINE
  5
26669
330
26658
100
AcDbEntity
  8
細線
100
AcDbLine
 10
440.192389083284
 20
49.99999877198025
 30
0.0
 11
426.7949294617301
 21
-0.0000012280206647
 31
0.0
  0
LINE
  5
2666A
330
26658
100
AcDbEntity
  8
細線
100
AcDbLine
 10
326.7949294617283
 20
199.9999987719775
 30
0.0
 11
313.3974698401726
 21
149.9999987719766
 31
0.0
  0
LINE
  5
2666B
330
26658
100
AcDbEntity
  8
細線
100
AcDbLine
 10
426.7949294617301
 20
199.9999987719802
 30
0.0
 11
413.3974698401726
 21
149.9999987719807
 31
0.0
  0
LINE
  5
2666C
330
26658
100
AcDbEntity
  8
細線
100
AcDbLine
 10
419.7680480780782
 20
299.9999987719807
 30
0.0
 11
300.0000102186186
 21
419.7680366314409
 31
0.0
  0
LINE
  5
2666D
330
26658
100
AcDbEntity
  8
部品1
100
AcDbLine
 10
300.0000102186186
 20
299.9999987719807
 30
0.0
 11
300.0000102186186
 21
499.9999987719802
 31
0.0
  0
LINE
  5
2666E
330
26658
100
AcDbEntity
  8
細線
100
AcDbLine
 10
462.1944549492709
 20
299.9999987719807
 30
0.0
 11
300.0000102186177
 21
462.194443502633
 31
0.0
  0
MTEXT
  5
2666F
102
{ACAD_REACTORS
330
26670
102
}
330
26658
100
AcDbEntity
  8
寸法
 62
     7
 48
50.0
100
AcDbMText
 10
728.9227685106716
 20
821.432899623403
 30
0.0
 40
150.0
 41
1.0
 71
     4
 72
     1
  1
\A1;C.B
  7
STYLE1
 73
     1
 44
1.0
1001
ACAD
1000
MTEXTBEGIN
1070
    73
1070
     1
1070
    44
1040
1.0
1070
    74
1070
     0
1000
MTEXTEND
  0
LEADER
  5
26670
330
26658
100
AcDbEntity
  8
寸法
 48
50.0
100
AcDbLeader
  3
INABA_S50G
 73
     0
 74
     0
 75
     1
 40
150.0
 41
231.9898538650463
 76
     3
 10
500.0000102186176
 20
499.9999987719802
 30
0.0
 10
578.9227685106716
 20
721.432899623403
 30
0.0
 10
703.9227685106716
 20
721.432899623403
 30
0.0
340
2666F
1001
ACAD
1000
DSTYLE
1002
{
1070
    40
1040
1.0
1002
}
  0
LINE
  5
26671
330
26658
100
AcDbEntity
  8
文字
 48
50.0
100
AcDbLine
 10
1023.74179387398
 20
428.9872899549959
 30
0.0
 11
875.8807454884063
 21
428.9872899549959
 31
0.0
  0
LINE
  5
26672
330
26658
100
AcDbEntity
  8
文字
 48
50.0
100
AcDbLine
 10
875.8807454884063
 20
428.9872899549959
 30
0.0
 11
949.8112696811931
 21
300.9358658228894
 31
0.0
  0
LINE
  5
26673
330
26658
100
AcDbEntity
  8
細線
100
AcDbLine
 10
570.6127686791842
 20
199.9999987719791
 30
0.0
 11
670.6127686791814
 21
299.9999987719807
 31
0.0
  0
LINE
  5
26674
330
26658
100
AcDbEntity
  8
細線
100
AcDbLine
 10
627.1813111741066
 20
199.9999987719795
 30
0.0
 11
727.1813111741048
 21
299.9999987719807
 31
0.0
  0
LINE
  5
26675
330
26658
100
AcDbEntity
  8
細線
100
AcDbLine
 10
598.8970399266472
 20
199.9999987719802
 30
0.0
 11
698.8970399266436
 21
299.9999987719807
 31
0.0
  0
LINE
  5
26676
330
26658
100
AcDbEntity
  8
部品1
100
AcDbLine
 10
800.0000102186177
 20
299.9999987719807
 30
0.0
 11
800.0000102186177
 21
-0.0000012280206647
 31
0.0
  0
LINE
  5
26677
330
26658
100
AcDbEntity
  8
細線
100
AcDbLine
 10
500.0000102186167
 20
199.9999987719802
 30
0.0
 11
553.5898487048416
 21
-0.0000012280233932
 31
0.0
  0
LINE
  5
26678
330
26658
100
AcDbEntity
  8
細線
100
AcDbLine
 10
600.0000102186186
 20
199.9999987719802
 30
0.0
 11
653.5898487048398
 21
-0.0000012280233932
 31
0.0
  0
LINE
  5
26679
330
26658
100
AcDbEntity
  8
細線
100
AcDbLine
 10
540.192389083284
 20
49.99999877198025
 30
0.0
 11
526.7949294617283
 21
-0.0000012280206647
 31
0.0
  0
LINE
  5
2667A
330
26658
100
AcDbEntity
  8
細線
100
AcDbLine
 10
640.1923890832859
 20
49.99999877198025
 30
0.0
 11
626.7949294617283
 21
-0.0000012280206647
 31
0.0
  0
LINE
  5
2667B
330
26658
100
AcDbEntity
  8
細線
100
AcDbLine
 10
526.7949294617283
 20
199.9999987719802
 30
0.0
 11
513.3974698401743
 21
149.9999987719807
 31
0.0
  0
LINE
  5
2667C
330
26658
100
AcDbEntity
  8
細線
100
AcDbLine
 10
626.7949294617283
 20
199.9999987719802
 30
0.0
 11
613.3974698401726
 21
149.9999987719807
 31
0.0
  0
LINE
  5
2667D
330
26658
100
AcDbEntity
  8
細線
100
AcDbLine
 10
700.0000102186167
 20
199.9999987719802
 30
0.0
 11
753.5898487048398
 21
-0.0000012280206647
 31
0.0
  0
LINE
  5
2667E
330
26658
100
AcDbEntity
  8
細線
100
AcDbLine
 10
740.192389083284
 20
49.99999877198025
 30
0.0
 11
726.7949294617301
 21
-0.0000012280206647
 31
0.0
  0
LINE
  5
2667F
330
26658
100
AcDbEntity
  8
細線
100
AcDbLine
 10
726.7949294617301
 20
199.9999987719802
 30
0.0
 11
713.3974698401726
 21
149.9999987719807
 31
0.0
  0
LINE
  5
26680
330
26658
100
AcDbEntity
  8
細線
100
AcDbLine
 10
688.468624928967
 20
299.9999987719809
 30
0.0
 11
488.4686249289679
 21
499.9999987719802
 31
0.0
  0
LINE
  5
26681
330
26658
100
AcDbEntity
  8
部品1
100
AcDbLine
 10
700.0000102186167
 20
499.9999987719802
 30
0.0
 11
700.0000102186167
 21
299.9999987719807
 31
0.0
  0
TEXT
  5
26682
330
26658
100
AcDbEntity
  8
部品1
100
AcDbText
 10
1044.344543432127
 20
322.7965089842533
 30
0.0
 40
150.0
  1
G.L
  7
STYLE1
100
AcDbText
  0
LINE
  5
26683
330
26658
100
AcDbEntity
  8
文字
 48
50.0
100
AcDbLine
 10
949.8112696811922
 20
300.9358658228889
 30
0.0
 11
1023.74179387398
 21
428.9872899549959
 31
0.0
  0
ENDBLK
  5
26684
330
26658
100
AcDbEntity
  8
0
 48
50.0
100
AcDbBlockEnd
  0
BLOCK
  5
276A9
330
2769F
100
AcDbEntity
  8
0
 48
50.0
100
AcDbBlockBegin
  2
*D8
 70
     1
 10
0.0
 20
0.0
 30
0.0
  3
*D8
  1

  0
LINE
  5
27868
330
2769F
100
AcDbEntity
  8
寸法
 62
     0
 48
50.0
370
    -2
100
AcDbLine
 10
10494.84202293515
 20
9767.293497389733
 30
0.0
 11
10692.71953507782
 21
9767.293497389733
 31
0.0
  0
LINE
  5
27869
330
2769F
100
AcDbEntity
  8
寸法
 62
     0
 48
50.0
370
    -2
100
AcDbLine
 10
10494.84202293515
 20
8896.293497389732
 30
0.0
 11
10692.71953507782
 21
8896.293497389732
 31
0.0
  0
LINE
  5
2786A
330
2769F
100
AcDbEntity
  8
寸法
 62
     0
 48
50.0
370
    -2
100
AcDbLine
 10
10617.71953507782
 20
9767.293497389733
 30
0.0
 11
10617.71953507782
 21
8896.293497389732
 31
0.0
  0
INSERT
  5
2786B
330
2769F
100
AcDbEntity
  8
寸法
 62
     0
 48
50.0
370
    -2
100
AcDbBlockReference
  2
_DOTSMALL
 10
10617.71953507782
 20
9767.293497389733
 30
0.0
 41
125.0
 42
125.0
 43
125.0
 50
90.0
  0
INSERT
  5
2786C
330
2769F
100
AcDbEntity
  8
寸法
 62
     0
 48
50.0
370
    -2
100
AcDbBlockReference
  2
_DOTSMALL
 10
10617.71953507782
 20
8896.293497389732
 30
0.0
 41
125.0
 42
125.0
 43
125.0
 50
270.0
  0
MTEXT
  5
2786D
330
2769F
100
AcDbEntity
  8
寸法
 62
     7
 48
50.0
100
AcDbMText
 10
10517.71953507781
 20
9331.793497389734
 30
0.0
 40
150.0
 41
0.0
 71
     5
 72
     1
  1
\A1;871
  7
STYLE1
 11
0.0000000000000001
 21
1.0
 31
0.0
 73
     1
 44
1.0
1001
ACAD
1000
MTEXTBEGIN
1070
    73
1070
     1
1070
    44
1040
1.0
1070
    74
1070
     0
1000
MTEXTEND
  0
POINT
  5
2786E
330
2769F
100
AcDbEntity
  8
DEFPOINTS
 62
     0
 48
50.0
100
AcDbPoint
 10
10469.84202293515
 20
9767.293497389733
 30
0.0
  0
POINT
  5
2786F
330
2769F
100
AcDbEntity
  8
DEFPOINTS
 62
     0
 48
50.0
100
AcDbPoint
 10
10469.84202293515
 20
8896.293497389732
 30
0.0
  0
POINT
  5
27870
330
2769F
100
AcDbEntity
  8
DEFPOINTS
 62
     0
 48
50.0
100
AcDbPoint
 10
10617.71953507782
 20
8896.293497389732
 30
0.0
  0
ENDBLK
  5
276AA
330
2769F
100
AcDbEntity
  8
0
 48
50.0
100
AcDbBlockEnd
  0
BLOCK
  5
276B5
330
276AB
100
AcDbEntity
  8
0
 48
50.0
100
AcDbBlockBegin
  2
*D9
 70
     1
 10
0.0
 20
0.0
 30
0.0
  3
*D9
  1

  0
LINE
  5
27883
330
276AB
100
AcDbEntity
  8
寸法
 62
     0
 48
50.0
370
    -2
100
AcDbLine
 10
10494.84202293515
 20
8896.293497389732
 30
0.0
 11
10692.71953507782
 21
8896.293497389732
 31
0.0
  0
LINE
  5
27884
330
276AB
100
AcDbEntity
  8
寸法
 62
     0
 48
50.0
370
    -2
100
AcDbLine
 10
10494.84202293515
 20
8006.29349738973
 30
0.0
 11
10692.71953507782
 21
8006.29349738973
 31
0.0
  0
LINE
  5
27885
330
276AB
100
AcDbEntity
  8
寸法
 62
     0
 48
50.0
370
    -2
100
AcDbLine
 10
10617.71953507782
 20
8896.293497389732
 30
0.0
 11
10617.71953507782
 21
8006.29349738973
 31
0.0
  0
INSERT
  5
27886
330
276AB
100
AcDbEntity
  8
寸法
 62
     0
 48
50.0
370
    -2
100
AcDbBlockReference
  2
_DOTSMALL
 10
10617.71953507782
 20
8896.293497389732
 30
0.0
 41
125.0
 42
125.0
 43
125.0
 50
90.0
  0
INSERT
  5
27887
330
276AB
100
AcDbEntity
  8
寸法
 62
     0
 48
50.0
370
    -2
100
AcDbBlockReference
  2
_DOTSMALL
 10
10617.71953507782
 20
8006.29349738973
 30
0.0
 41
125.0
 42
125.0
 43
125.0
 50
270.0
  0
MTEXT
  5
27888
330
276AB
100
AcDbEntity
  8
寸法
 62
     7
 48
50.0
100
AcDbMText
 10
10517.71953507781
 20
8451.293497389734
 30
0.0
 40
150.0
 41
0.0
 71
     5
 72
     1
  1
\A1;890
  7
STYLE1
 11
0.0000000000000001
 21
1.0
 31
0.0
 73
     1
 44
1.0
1001
ACAD
1000
MTEXTBEGIN
1070
    73
1070
     1
1070
    44
1040
1.0
1070
    74
1070
     0
1000
MTEXTEND
  0
POINT
  5
27889
330
276AB
100
AcDbEntity
  8
DEFPOINTS
 62
     0
 48
50.0
100
AcDbPoint
 10
10469.84202293515
 20
8896.293497389732
 30
0.0
  0
POINT
  5
2788A
330
276AB
100
AcDbEntity
  8
DEFPOINTS
 62
     0
 48
50.0
100
AcDbPoint
 10
10469.84202293515
 20
8006.29349738973
 30
0.0
  0
POINT
  5
2788B
330
276AB
100
AcDbEntity
  8
DEFPOINTS
 62
     0
 48
50.0
100
AcDbPoint
 10
10617.71953507782
 20
8006.29349738973
 30
0.0
  0
ENDBLK
  5
276B6
330
276AB
100
AcDbEntity
  8
0
 48
50.0
100
AcDbBlockEnd
  0
BLOCK
  5
276C1
330
276B7
100
AcDbEntity
  8
0
 48
50.0
100
AcDbBlockBegin
  2
*D10
 70
     1
 10
0.0
 20
0.0
 30
0.0
  3
*D10
  1

  0
LINE
  5
27871
330
276B7
100
AcDbEntity
  8
寸法
 62
     0
 48
50.0
370
    -2
100
AcDbLine
 10
10494.84202293515
 20
8006.29349738973
 30
0.0
 11
10692.71953507782
 21
8006.29349738973
 31
0.0
  0
LINE
  5
27872
330
276B7
100
AcDbEntity
  8
寸法
 62
     0
 48
50.0
370
    -2
100
AcDbLine
 10
10494.84202293515
 20
7135.293497389731
 30
0.0
 11
10692.71953507782
 21
7135.293497389731
 31
0.0
  0
LINE
  5
27873
330
276B7
100
AcDbEntity
  8
寸法
 62
     0
 48
50.0
370
    -2
100
AcDbLine
 10
10617.71953507782
 20
8006.29349738973
 30
0.0
 11
10617.71953507782
 21
7135.293497389731
 31
0.0
  0
INSERT
  5
27874
330
276B7
100
AcDbEntity
  8
寸法
 62
     0
 48
50.0
370
    -2
100
AcDbBlockReference
  2
_DOTSMALL
 10
10617.71953507782
 20
8006.29349738973
 30
0.0
 41
125.0
 42
125.0
 43
125.0
 50
90.0
  0
INSERT
  5
27875
330
276B7
100
AcDbEntity
  8
寸法
 62
     0
 48
50.0
370
    -2
100
AcDbBlockReference
  2
_DOTSMALL
 10
10617.71953507782
 20
7135.293497389731
 30
0.0
 41
125.0
 42
125.0
 43
125.0
 50
270.0
  0
MTEXT
  5
27876
330
276B7
100
AcDbEntity
  8
寸法
 62
     7
 48
50.0
100
AcDbMText
 10
10517.71953507781
 20
7570.793497389733
 30
0.0
 40
150.0
 41
0.0
 71
     5
 72
     1
  1
\A1;871
  7
STYLE1
 11
0.0000000000000001
 21
1.0
 31
0.0
 73
     1
 44
1.0
1001
ACAD
1000
MTEXTBEGIN
1070
    73
1070
     1
1070
    44
1040
1.0
1070
    74
1070
     0
1000
MTEXTEND
  0
POINT
  5
27877
330
276B7
100
AcDbEntity
  8
DEFPOINTS
 62
     0
 48
50.0
100
AcDbPoint
 10
10469.84202293515
 20
8006.29349738973
 30
0.0
  0
POINT
  5
27878
330
276B7
100
AcDbEntity
  8
DEFPOINTS
 62
     0
 48
50.0
100
AcDbPoint
 10
10469.84202293515
 20
7135.293497389731
 30
0.0
  0
POINT
  5
27879
330
276B7
100
AcDbEntity
  8
DEFPOINTS
 62
     0
 48
50.0
100
AcDbPoint
 10
10617.71953507782
 20
7135.293497389731
 30
0.0
  0
ENDBLK
  5
276C2
330
276B7
100
AcDbEntity
  8
0
 48
50.0
100
AcDbBlockEnd
  0
BLOCK
  5
276F4
330
276EA
100
AcDbEntity
  8
0
 48
50.0
100
AcDbBlockBegin
  2
*D11
 70
     1
 10
0.0
 20
0.0
 30
0.0
  3
*D11
  1

  0
LINE
  5
27897
330
276EA
100
AcDbEntity
  8
寸法
 62
     0
 48
50.0
370
    -2
100
AcDbLine
 10
10374.84202293515
 20
9792.293497389733
 30
0.0
 11
10374.84202293515
 21
10149.43854355818
 31
0.0
  0
LINE
  5
27898
330
276EA
100
AcDbEntity
  8
寸法
 62
     0
 48
50.0
370
    -2
100
AcDbLine
 10
11060.84202293515
 20
10082.79648850989
 30
0.0
 11
11060.84202293515
 21
9999.438543558186
 31
0.0
  0
LINE
  5
27899
330
276EA
100
AcDbEntity
  8
寸法
 62
     0
 48
50.0
370
    -2
100
AcDbLine
 10
10374.84202293515
 20
10074.43854355818
 30
0.0
 11
11060.84202293515
 21
10074.43854355818
 31
0.0
  0
INSERT
  5
2789A
330
276EA
100
AcDbEntity
  8
寸法
 62
     0
 48
50.0
370
    -2
100
AcDbBlockReference
  2
_DOTSMALL
 10
10374.84202293515
 20
10074.43854355818
 30
0.0
 41
125.0
 42
125.0
 43
125.0
 50
180.0
  0
INSERT
  5
2789B
330
276EA
100
AcDbEntity
  8
寸法
 62
     0
 48
50.0
370
    -2
100
AcDbBlockReference
  2
_DOTSMALL
 10
11060.84202293515
 20
10074.43854355818
 30
0.0
 41
125.0
 42
125.0
 43
125.0
  0
MTEXT
  5
2789C
330
276EA
100
AcDbEntity
  8
寸法
 62
     7
 48
50.0
100
AcDbMText
 10
10717.84202293515
 20
10174.43854355818
 30
0.0
 40
150.0
 41
0.0
 71
     5
 72
     1
  1
\A1;686
  7
STYLE1
 73
     1
 44
1.0
1001
ACAD
1000
MTEXTBEGIN
1070
    73
1070
     1
1070
    44
1040
1.0
1070
    74
1070
     0
1000
MTEXTEND
  0
POINT
  5
2789D
330
276EA
100
AcDbEntity
  8
DEFPOINTS
 62
     0
 48
50.0
100
AcDbPoint
 10
10374.84202293515
 20
9767.293497389733
 30
0.0
  0
POINT
  5
2789E
330
276EA
100
AcDbEntity
  8
DEFPOINTS
 62
     0
 48
50.0
100
AcDbPoint
 10
11060.84202293515
 20
10107.79648850989
 30
0.0
  0
POINT
  5
2789F
330
276EA
100
AcDbEntity
  8
DEFPOINTS
 62
     0
 48
50.0
100
AcDbPoint
 10
11060.84202293515
 20
10074.43854355818
 30
0.0
  0
ENDBLK
  5
276F5
330
276EA
100
AcDbEntity
  8
0
 48
50.0
100
AcDbBlockEnd
  0
BLOCK
  5
27700
330
276F6
100
AcDbEntity
  8
0
 48
50.0
100
AcDbBlockBegin
  2
*D12
 70
     1
 10
0.0
 20
0.0
 30
0.0
  3
*D12
  1

  0
LINE
  5
2780E
330
276F6
100
AcDbEntity
  8
寸法
 62
     0
 48
50.0
370
    -2
100
AcDbLine
 10
9688.842022935153
 20
9861.293497389732
 30
0.0
 11
9688.842022935153
 21
10149.43854355818
 31
0.0
  0
LINE
  5
2780F
330
276F6
100
AcDbEntity
  8
寸法
 62
     0
 48
50.0
370
    -2
100
AcDbLine
 10
10374.84202293515
 20
9792.293497389733
 30
0.0
 11
10374.84202293515
 21
10149.43854355818
 31
0.0
  0
LINE
  5
27810
330
276F6
100
AcDbEntity
  8
寸法
 62
     0
 48
50.0
370
    -2
100
AcDbLine
 10
9688.842022935153
 20
10074.43854355818
 30
0.0
 11
10374.84202293515
 21
10074.43854355818
 31
0.0
  0
INSERT
  5
27811
330
276F6
100
AcDbEntity
  8
寸法
 62
     0
 48
50.0
370
    -2
100
AcDbBlockReference
  2
_DOTSMALL
 10
9688.842022935153
 20
10074.43854355818
 30
0.0
 41
125.0
 42
125.0
 43
125.0
 50
180.0
  0
INSERT
  5
27812
330
276F6
100
AcDbEntity
  8
寸法
 62
     0
 48
50.0
370
    -2
100
AcDbBlockReference
  2
_DOTSMALL
 10
10374.84202293515
 20
10074.43854355818
 30
0.0
 41
125.0
 42
125.0
 43
125.0
  0
MTEXT
  5
27813
330
276F6
100
AcDbEntity
  8
寸法
 62
     7
 48
50.0
100
AcDbMText
 10
10031.84202293515
 20
10174.43854355818
 30
0.0
 40
150.0
 41
0.0
 71
     5
 72
     1
  1
\A1;686
  7
STYLE1
 73
     1
 44
1.0
1001
ACAD
1000
MTEXTBEGIN
1070
    73
1070
     1
1070
    44
1040
1.0
1070
    74
1070
     0
1000
MTEXTEND
  0
POINT
  5
27814
330
276F6
100
AcDbEntity
  8
DEFPOINTS
 62
     0
 48
50.0
100
AcDbPoint
 10
9688.842022935153
 20
9836.293497389732
 30
0.0
  0
POINT
  5
27815
330
276F6
100
AcDbEntity
  8
DEFPOINTS
 62
     0
 48
50.0
100
AcDbPoint
 10
10374.84202293515
 20
9767.293497389733
 30
0.0
  0
POINT
  5
27816
330
276F6
100
AcDbEntity
  8
DEFPOINTS
 62
     0
 48
50.0
100
AcDbPoint
 10
10374.84202293515
 20
10074.43854355818
 30
0.0
  0
ENDBLK
  5
27701
330
276F6
100
AcDbEntity
  8
0
 48
50.0
100
AcDbBlockEnd
  0
BLOCK
  5
2770E
330
27702
100
AcDbEntity
  8
0
 48
50.0
100
AcDbBlockBegin
  2
*D13
 70
     1
 10
0.0
 20
0.0
 30
0.0
  3
*D13
  1

  0
LINE
  5
278D7
330
27702
100
AcDbEntity
  8
寸法
 62
     0
 48
50.0
370
    -2
100
AcDbLine
 10
9663.842022935153
 20
7135.293497389731
 30
0.0
 11
8739.306426849887
 21
7135.293497389731
 31
0.0
  0
LINE
  5
278D8
330
27702
100
AcDbEntity
  8
寸法
 62
     0
 48
50.0
370
    -2
100
AcDbLine
 10
9614.842022935153
 20
7075.293497389733
 30
0.0
 11
8739.306426849887
 21
7075.293497389733
 31
0.0
  0
LINE
  5
278D9
330
27702
100
AcDbEntity
  8
寸法
 62
     0
 48
50.0
370
    -2
100
AcDbLine
 10
8814.306426849887
 20
7135.293497389731
 30
0.0
 11
8814.306426849887
 21
7260.293497389731
 31
0.0
  0
LINE
  5
278DA
330
27702
100
AcDbEntity
  8
寸法
 62
     0
 48
50.0
370
    -2
100
AcDbLine
 10
8814.306426849887
 20
7075.293497389733
 30
0.0
 11
8814.306426849887
 21
6950.293497389733
 31
0.0
  0
LINE
  5
278DB
330
27702
100
AcDbEntity
  8
寸法
 62
     0
 48
50.0
370
    -2
100
AcDbLine
 10
8814.306426849887
 20
7135.293497389731
 30
0.0
 11
8814.306426849887
 21
7075.293497389733
 31
0.0
  0
INSERT
  5
278DC
330
27702
100
AcDbEntity
  8
寸法
 62
     0
 48
50.0
370
    -2
100
AcDbBlockReference
  2
_DOTSMALL
 10
8814.306426849887
 20
7135.293497389731
 30
0.0
 41
125.0
 42
125.0
 43
125.0
 50
270.0
  0
INSERT
  5
278DD
330
27702
100
AcDbEntity
  8
寸法
 62
     0
 48
50.0
370
    -2
100
AcDbBlockReference
  2
_DOTSMALL
 10
8814.306426849887
 20
7075.293497389733
 30
0.0
 41
125.0
 42
125.0
 43
125.0
 50
90.0
  0
MTEXT
  5
278DE
330
27702
100
AcDbEntity
  8
寸法
 62
     7
 48
50.0
100
AcDbMText
 10
8714.306426849885
 20
7105.293497389732
 30
0.0
 40
150.0
 41
0.0
 71
     5
 72
     1
  1
\A1;b
  7
STYLE1
 11
0.0000000000000001
 21
1.0
 31
0.0
 73
     1
 44
1.0
1001
ACAD
1000
MTEXTBEGIN
1070
    73
1070
     1
1070
    44
1040
1.0
1070
    74
1070
     0
1000
MTEXTEND
  0
POINT
  5
278DF
330
27702
100
AcDbEntity
  8
DEFPOINTS
 62
     0
 48
50.0
100
AcDbPoint
 10
9688.842022935153
 20
7135.293497389731
 30
0.0
  0
POINT
  5
278E0
330
27702
100
AcDbEntity
  8
DEFPOINTS
 62
     0
 48
50.0
100
AcDbPoint
 10
9639.842022935154
 20
7075.293497389733
 30
0.0
  0
POINT
  5
278E1
330
27702
100
AcDbEntity
  8
DEFPOINTS
 62
     0
 48
50.0
100
AcDbPoint
 10
8814.306426849887
 20
7075.293497389733
 30
0.0
  0
ENDBLK
  5
2770F
330
27702
100
AcDbEntity
  8
0
 48
50.0
100
AcDbBlockEnd
  0
BLOCK
  5
2771A
330
27710
100
AcDbEntity
  8
0
 48
50.0
100
AcDbBlockBegin
  2
*D14
 70
     1
 10
0.0
 20
0.0
 30
0.0
  3
*D14
  1

  0
LINE
  5
27817
330
27710
100
AcDbEntity
  8
寸法
 62
     0
 48
50.0
370
    -2
100
AcDbLine
 10
9663.842022935153
 20
9767.293497389733
 30
0.0
 11
8739.306426849887
 21
9767.293497389733
 31
0.0
  0
LINE
  5
27818
330
27710
100
AcDbEntity
  8
寸法
 62
     0
 48
50.0
370
    -2
100
AcDbLine
 10
9663.842022935153
 20
7135.293497389731
 30
0.0
 11
8739.306426849887
 21
7135.293497389731
 31
0.0
  0
LINE
  5
27819
330
27710
100
AcDbEntity
  8
寸法
 62
     0
 48
50.0
370
    -2
100
AcDbLine
 10
8814.306426849887
 20
9767.293497389733
 30
0.0
 11
8814.306426849887
 21
7135.293497389731
 31
0.0
  0
INSERT
  5
2781A
330
27710
100
AcDbEntity
  8
寸法
 62
     0
 48
50.0
370
    -2
100
AcDbBlockReference
  2
_DOTSMALL
 10
8814.306426849887
 20
9767.293497389733
 30
0.0
 41
125.0
 42
125.0
 43
125.0
 50
90.0
  0
INSERT
  5
2781B
330
27710
100
AcDbEntity
  8
寸法
 62
     0
 48
50.0
370
    -2
100
AcDbBlockReference
  2
_DOTSMALL
 10
8814.306426849887
 20
7135.293497389731
 30
0.0
 41
125.0
 42
125.0
 43
125.0
 50
270.0
  0
MTEXT
  5
2781C
330
27710
100
AcDbEntity
  8
寸法
 62
     7
 48
50.0
100
AcDbMText
 10
8714.291663070358
 20
8451.293497389734
 30
0.0
 40
150.0
 41
0.0
 71
     5
 72
     1
  1
\A1;2632
  7
STYLE1
 11
0.0000000000000001
 21
1.0
 31
0.0
 73
     1
 44
1.0
1001
ACAD
1000
MTEXTBEGIN
1070
    73
1070
     1
1070
    44
1040
1.0
1070
    74
1070
     0
1000
MTEXTEND
  0
POINT
  5
2781D
330
27710
100
AcDbEntity
  8
DEFPOINTS
 62
     0
 48
50.0
100
AcDbPoint
 10
9688.842022935153
 20
9767.293497389733
 30
0.0
  0
POINT
  5
2781E
330
27710
100
AcDbEntity
  8
DEFPOINTS
 62
     0
 48
50.0
100
AcDbPoint
 10
9688.842022935153
 20
7135.293497389731
 30
0.0
  0
POINT
  5
2781F
330
27710
100
AcDbEntity
  8
DEFPOINTS
 62
     0
 48
50.0
100
AcDbPoint
 10
8814.306426849887
 20
7135.293497389731
 30
0.0
  0
ENDBLK
  5
2771B
330
27710
100
AcDbEntity
  8
0
 48
50.0
100
AcDbBlockEnd
  0
BLOCK
  5
27728
330
2771C
100
AcDbEntity
  8
0
 48
50.0
100
AcDbBlockBegin
  2
*D15
 70
     1
 10
0.0
 20
0.0
 30
0.0
  3
*D15
  1

  0
LINE
  5
27854
330
2771C
100
AcDbEntity
  8
寸法
 62
     0
 48
50.0
370
    -2
100
AcDbLine
 10
9614.842022935153
 20
9847.293497389733
 30
0.0
 11
8739.306426849887
 21
9847.293497389733
 31
0.0
  0
LINE
  5
27855
330
2771C
100
AcDbEntity
  8
寸法
 62
     0
 48
50.0
370
    -2
100
AcDbLine
 10
9663.842022935153
 20
9767.293497389733
 30
0.0
 11
8739.306426849887
 21
9767.293497389733
 31
0.0
  0
LINE
  5
27856
330
2771C
100
AcDbEntity
  8
寸法
 62
     0
 48
50.0
370
    -2
100
AcDbLine
 10
8814.306426849887
 20
9847.293497389733
 30
0.0
 11
8814.306426849887
 21
9972.293497389733
 31
0.0
  0
LINE
  5
27857
330
2771C
100
AcDbEntity
  8
寸法
 62
     0
 48
50.0
370
    -2
100
AcDbLine
 10
8814.306426849887
 20
9767.293497389733
 30
0.0
 11
8814.306426849887
 21
9642.293497389733
 31
0.0
  0
LINE
  5
27858
330
2771C
100
AcDbEntity
  8
寸法
 62
     0
 48
50.0
370
    -2
100
AcDbLine
 10
8814.306426849887
 20
9847.293497389733
 30
0.0
 11
8814.306426849887
 21
9767.293497389733
 31
0.0
  0
INSERT
  5
27859
330
2771C
100
AcDbEntity
  8
寸法
 62
     0
 48
50.0
370
    -2
100
AcDbBlockReference
  2
_DOTSMALL
 10
8814.306426849887
 20
9847.293497389733
 30
0.0
 41
125.0
 42
125.0
 43
125.0
 50
270.0
  0
INSERT
  5
2785A
330
2771C
100
AcDbEntity
  8
寸法
 62
     0
 48
50.0
370
    -2
100
AcDbBlockReference
  2
_DOTSMALL
 10
8814.306426849887
 20
9767.293497389733
 30
0.0
 41
125.0
 42
125.0
 43
125.0
 50
90.0
  0
MTEXT
  5
2785B
330
2771C
100
AcDbEntity
  8
寸法
 62
     7
 48
50.0
100
AcDbMText
 10
8714.306426849885
 20
9807.293497389734
 30
0.0
 40
150.0
 41
0.0
 71
     5
 72
     1
  1
\A1;c
  7
STYLE1
 11
0.0000000000000001
 21
1.0
 31
0.0
 73
     1
 44
1.0
1001
ACAD
1000
MTEXTBEGIN
1070
    73
1070
     1
1070
    44
1040
1.0
1070
    74
1070
     0
1000
MTEXTEND
  0
POINT
  5
2785C
330
2771C
100
AcDbEntity
  8
DEFPOINTS
 62
     0
 48
50.0
100
AcDbPoint
 10
9639.842022935154
 20
9847.293497389733
 30
0.0
  0
POINT
  5
2785D
330
2771C
100
AcDbEntity
  8
DEFPOINTS
 62
     0
 48
50.0
100
AcDbPoint
 10
9688.842022935153
 20
9767.293497389733
 30
0.0
  0
POINT
  5
2785E
330
2771C
100
AcDbEntity
  8
DEFPOINTS
 62
     0
 48
50.0
100
AcDbPoint
 10
8814.306426849887
 20
9767.293497389733
 30
0.0
  0
ENDBLK
  5
27729
330
2771C
100
AcDbEntity
  8
0
 48
50.0
100
AcDbBlockEnd
  0
BLOCK
  5
27736
330
2772A
100
AcDbEntity
  8
0
 48
50.0
100
AcDbBlockBegin
  2
*D16
 70
     1
 10
0.0
 20
0.0
 30
0.0
  3
*D16
  1

  0
LINE
  5
27849
330
2772A
100
AcDbEntity
  8
寸法
 62
     0
 48
50.0
370
    -2
100
AcDbLine
 10
9688.842022935153
 20
9792.293497389733
 30
0.0
 11
9688.842022935153
 21
10423.29947963004
 31
0.0
  0
LINE
  5
2784A
330
2772A
100
AcDbEntity
  8
寸法
 62
     0
 48
50.0
370
    -2
100
AcDbLine
 10
9639.842022935154
 20
9852.293497389732
 30
0.0
 11
9639.842022935154
 21
10423.29947963004
 31
0.0
  0
LINE
  5
2784B
330
2772A
100
AcDbEntity
  8
寸法
 62
     0
 48
50.0
370
    -2
100
AcDbLine
 10
9688.842022935153
 20
10348.29947963004
 30
0.0
 11
9813.842022935153
 21
10348.29947963004
 31
0.0
  0
LINE
  5
2784C
330
2772A
100
AcDbEntity
  8
寸法
 62
     0
 48
50.0
370
    -2
100
AcDbLine
 10
9639.842022935154
 20
10348.29947963004
 30
0.0
 11
9514.842022935154
 21
10348.29947963004
 31
0.0
  0
MTEXT
  5
2784D
330
2772A
100
AcDbEntity
  8
寸法
 62
     7
 48
50.0
100
AcDbMText
 10
9577.342022935154
 20
10448.29947963004
 30
0.0
 40
150.0
 41
0.0
 71
     5
 72
     1
  1
\A1;a
  7
STYLE1
 73
     1
 44
1.0
1001
ACAD
1000
MTEXTBEGIN
1070
    73
1070
     1
1070
    44
1040
1.0
1070
    74
1070
     0
1000
MTEXTEND
  0
LINE
  5
2784E
330
2772A
100
AcDbEntity
  8
寸法
 62
     0
 48
50.0
370
    -2
100
AcDbLine
 10
9688.842022935153
 20
10348.29947963004
 30
0.0
 11
9639.842022935154
 21
10348.29947963004
 31
0.0
  0
INSERT
  5
2784F
330
2772A
100
AcDbEntity
  8
寸法
 62
     0
 48
50.0
370
    -2
100
AcDbBlockReference
  2
_DOTSMALL
 10
9688.842022935153
 20
10348.29947963004
 30
0.0
 41
125.0
 42
125.0
 43
125.0
 50
180.0
  0
INSERT
  5
27850
330
2772A
100
AcDbEntity
  8
寸法
 62
     0
 48
50.0
370
    -2
100
AcDbBlockReference
  2
_DOTSMALL
 10
9639.842022935154
 20
10348.29947963004
 30
0.0
 41
125.0
 42
125.0
 43
125.0
  0
POINT
  5
27851
330
2772A
100
AcDbEntity
  8
DEFPOINTS
 62
     0
 48
50.0
100
AcDbPoint
 10
9688.842022935153
 20
9767.293497389733
 30
0.0
  0
POINT
  5
27852
330
2772A
100
AcDbEntity
  8
DEFPOINTS
 62
     0
 48
50.0
100
AcDbPoint
 10
9639.842022935154
 20
9827.293497389732
 30
0.0
  0
POINT
  5
27853
330
2772A
100
AcDbEntity
  8
DEFPOINTS
 62
     0
 48
50.0
100
AcDbPoint
 10
9639.842022935154
 20
10348.29947963004
 30
0.0
  0
ENDBLK
  5
27737
330
2772A
100
AcDbEntity
  8
0
 48
50.0
100
AcDbBlockEnd
  0
BLOCK
  5
27742
330
27738
100
AcDbEntity
  8
0
 48
50.0
100
AcDbBlockBegin
  2
*D17
 70
     1
 10
0.0
 20
0.0
 30
0.0
  3
*D17
  1

  0
LINE
  5
27805
330
27738
100
AcDbEntity
  8
寸法
 62
     0
 48
50.0
370
    -2
100
AcDbLine
 10
11060.84202293515
 20
9792.293497389733
 30
0.0
 11
11060.84202293515
 21
10423.29947963004
 31
0.0
  0
LINE
  5
27806
330
27738
100
AcDbEntity
  8
寸法
 62
     0
 48
50.0
370
    -2
100
AcDbLine
 10
9688.842022935153
 20
9792.293497389733
 30
0.0
 11
9688.842022935153
 21
10423.29947963004
 31
0.0
  0
LINE
  5
27807
330
27738
100
AcDbEntity
  8
寸法
 62
     0
 48
50.0
370
    -2
100
AcDbLine
 10
11060.84202293515
 20
10348.29947963004
 30
0.0
 11
9688.842022935153
 21
10348.29947963004
 31
0.0
  0
INSERT
  5
27808
330
27738
100
AcDbEntity
  8
寸法
 62
     0
 48
50.0
370
    -2
100
AcDbBlockReference
  2
_DOTSMALL
 10
11060.84202293515
 20
10348.29947963004
 30
0.0
 41
125.0
 42
125.0
 43
125.0
  0
INSERT
  5
27809
330
27738
100
AcDbEntity
  8
寸法
 62
     0
 48
50.0
370
    -2
100
AcDbBlockReference
  2
_DOTSMALL
 10
9688.842022935153
 20
10348.29947963004
 30
0.0
 41
125.0
 42
125.0
 43
125.0
 50
180.0
  0
MTEXT
  5
2780A
330
27738
100
AcDbEntity
  8
寸法
 62
     7
 48
50.0
100
AcDbMText
 10
10374.84202293515
 20
10448.31424340957
 30
0.0
 40
150.0
 41
0.0
 71
     5
 72
     1
  1
\A1;1372
  7
STYLE1
 73
     1
 44
1.0
1001
ACAD
1000
MTEXTBEGIN
1070
    73
1070
     1
1070
    44
1040
1.0
1070
    74
1070
     0
1000
MTEXTEND
  0
POINT
  5
2780B
330
27738
100
AcDbEntity
  8
DEFPOINTS
 62
     0
 48
50.0
100
AcDbPoint
 10
11060.84202293515
 20
9767.293497389733
 30
0.0
  0
POINT
  5
2780C
330
27738
100
AcDbEntity
  8
DEFPOINTS
 62
     0
 48
50.0
100
AcDbPoint
 10
9688.842022935153
 20
9767.293497389733
 30
0.0
  0
POINT
  5
2780D
330
27738
100
AcDbEntity
  8
DEFPOINTS
 62
     0
 48
50.0
100
AcDbPoint
 10
9688.842022935153
 20
10348.29947963004
 30
0.0
  0
ENDBLK
  5
27743
330
27738
100
AcDbEntity
  8
0
 48
50.0
100
AcDbBlockEnd
  0
BLOCK
  5
27750
330
27744
100
AcDbEntity
  8
0
 48
50.0
100
AcDbBlockBegin
  2
*D18
 70
     1
 10
0.0
 20
0.0
 30
0.0
  3
*D18
  1

  0
LINE
  5
2788C
330
27744
100
AcDbEntity
  8
寸法
 62
     0
 48
50.0
370
    -2
100
AcDbLine
 10
11109.84202293515
 20
9861.293497389734
 30
0.0
 11
11109.84202293515
 21
10423.29947963004
 31
0.0
  0
LINE
  5
2788D
330
27744
100
AcDbEntity
  8
寸法
 62
     0
 48
50.0
370
    -2
100
AcDbLine
 10
11060.84202293515
 20
9792.293497389733
 30
0.0
 11
11060.84202293515
 21
10423.29947963004
 31
0.0
  0
LINE
  5
2788E
330
27744
100
AcDbEntity
  8
寸法
 62
     0
 48
50.0
370
    -2
100
AcDbLine
 10
11109.84202293515
 20
10348.29947963004
 30
0.0
 11
11234.84202293515
 21
10348.29947963004
 31
0.0
  0
LINE
  5
2788F
330
27744
100
AcDbEntity
  8
寸法
 62
     0
 48
50.0
370
    -2
100
AcDbLine
 10
11060.84202293515
 20
10348.29947963004
 30
0.0
 11
10935.84202293515
 21
10348.29947963004
 31
0.0
  0
MTEXT
  5
27890
330
27744
100
AcDbEntity
  8
寸法
 62
     7
 48
50.0
100
AcDbMText
 10
11172.34202293515
 20
10448.29947963004
 30
0.0
 40
150.0
 41
0.0
 71
     5
 72
     1
  1
\A1;a
  7
STYLE1
 73
     1
 44
1.0
1001
ACAD
1000
MTEXTBEGIN
1070
    73
1070
     1
1070
    44
1040
1.0
1070
    74
1070
     0
1000
MTEXTEND
  0
LINE
  5
27891
330
27744
100
AcDbEntity
  8
寸法
 62
     0
 48
50.0
370
    -2
100
AcDbLine
 10
11109.84202293515
 20
10348.29947963004
 30
0.0
 11
11060.84202293515
 21
10348.29947963004
 31
0.0
  0
INSERT
  5
27892
330
27744
100
AcDbEntity
  8
寸法
 62
     0
 48
50.0
370
    -2
100
AcDbBlockReference
  2
_DOTSMALL
 10
11109.84202293515
 20
10348.29947963004
 30
0.0
 41
125.0
 42
125.0
 43
125.0
 50
180.0
  0
INSERT
  5
27893
330
27744
100
AcDbEntity
  8
寸法
 62
     0
 48
50.0
370
    -2
100
AcDbBlockReference
  2
_DOTSMALL
 10
11060.84202293515
 20
10348.29947963004
 30
0.0
 41
125.0
 42
125.0
 43
125.0
  0
POINT
  5
27894
330
27744
100
AcDbEntity
  8
DEFPOINTS
 62
     0
 48
50.0
100
AcDbPoint
 10
11109.84202293515
 20
9836.293497389734
 30
0.0
  0
POINT
  5
27895
330
27744
100
AcDbEntity
  8
DEFPOINTS
 62
     0
 48
50.0
100
AcDbPoint
 10
11060.84202293515
 20
9767.293497389733
 30
0.0
  0
POINT
  5
27896
330
27744
100
AcDbEntity
  8
DEFPOINTS
 62
     0
 48
50.0
100
AcDbPoint
 10
11060.84202293515
 20
10348.29947963004
 30
0.0
  0
ENDBLK
  5
27751
330
27744
100
AcDbEntity
  8
0
 48
50.0
100
AcDbBlockEnd
  0
BLOCK
  5
278FE
330
278F2
100
AcDbEntity
  8
0
 48
50.0
100
AcDbBlockBegin
  2
*D19
 70
     1
 10
0.0
 20
0.0
 30
0.0
  3
*D19
  1

  0
LINE
  5
278F3
330
278F2
100
AcDbEntity
  8
寸法
 62
     0
 48
50.0
370
    -2
100
AcDbLine
 10
11185.84202293515
 20
7035.293497389732
 30
0.0
 11
11496.05428905892
 21
7035.293497389732
 31
0.0
  0
LINE
  5
278F4
330
278F2
100
AcDbEntity
  8
寸法
 62
     0
 48
50.0
370
    -2
100
AcDbLine
 10
11185.84202293515
 20
7235.293497389732
 30
0.0
 11
11496.05428905892
 21
7235.293497389732
 31
0.0
  0
LINE
  5
278F5
330
278F2
100
AcDbEntity
  8
寸法
 62
     0
 48
50.0
370
    -2
100
AcDbLine
 10
11421.05428905892
 20
7035.293497389732
 30
0.0
 11
11421.05428905892
 21
6910.293497389732
 31
0.0
  0
LINE
  5
278F6
330
278F2
100
AcDbEntity
  8
寸法
 62
     0
 48
50.0
370
    -2
100
AcDbLine
 10
11421.05428905892
 20
7235.293497389732
 30
0.0
 11
11421.05428905892
 21
7360.293497389732
 31
0.0
  0
LINE
  5
278F7
330
278F2
100
AcDbEntity
  8
寸法
 62
     0
 48
50.0
370
    -2
100
AcDbLine
 10
11421.05428905892
 20
7035.293497389732
 30
0.0
 11
11421.05428905892
 21
7235.293497389732
 31
0.0
  0
INSERT
  5
278F8
330
278F2
100
AcDbEntity
  8
寸法
 62
     0
 48
50.0
370
    -2
100
AcDbBlockReference
  2
_DOTSMALL
 10
11421.05428905892
 20
7035.293497389732
 30
0.0
 41
125.0
 42
125.0
 43
125.0
 50
90.0
  0
INSERT
  5
278F9
330
278F2
100
AcDbEntity
  8
寸法
 62
     0
 48
50.0
370
    -2
100
AcDbBlockReference
  2
_DOTSMALL
 10
11421.05428905892
 20
7235.293497389732
 30
0.0
 41
125.0
 42
125.0
 43
125.0
 50
270.0
  0
MTEXT
  5
278FA
330
278F2
100
AcDbEntity
  8
寸法
 62
     7
 48
50.0
100
AcDbMText
 10
11321.03952527939
 20
7135.293497389733
 30
0.0
 40
150.0
 41
0.0
 71
     5
 72
     1
  1
\A1;200
  7
STYLE1
 11
0.0000000000000001
 21
1.0
 31
0.0
 73
     1
 44
1.0
1001
ACAD
1000
MTEXTBEGIN
1070
    73
1070
     1
1070
    44
1040
1.0
1070
    74
1070
     0
1000
MTEXTEND
  0
POINT
  5
278FB
330
278F2
100
AcDbEntity
  8
DEFPOINTS
 62
     0
 48
50.0
100
AcDbPoint
 10
11160.84202293515
 20
7035.293497389732
 30
0.0
  0
POINT
  5
278FC
330
278F2
100
AcDbEntity
  8
DEFPOINTS
 62
     0
 48
50.0
100
AcDbPoint
 10
11160.84202293515
 20
7235.293497389732
 30
0.0
  0
POINT
  5
278FD
330
278F2
100
AcDbEntity
  8
DEFPOINTS
 62
     0
 48
50.0
100
AcDbPoint
 10
11421.05428905892
 20
7235.293497389732
 30
0.0
  0
ENDBLK
  5
278FF
330
278F2
100
AcDbEntity
  8
0
 48
50.0
100
AcDbBlockEnd
  0
BLOCK
  5
27918
330
2790C
100
AcDbEntity
  8
0
 48
50.0
100
AcDbBlockBegin
  2
*D20
 70
     1
 10
0.0
 20
0.0
 30
0.0
  3
*D20
  1

  0
LINE
  5
2790D
330
2790C
100
AcDbEntity
  8
寸法
 62
     0
 48
50.0
370
    -2
100
AcDbLine
 10
10960.84202293515
 20
7010.293497389731
 30
0.0
 11
10960.84202293515
 21
6604.687794469381
 31
0.0
  0
LINE
  5
2790E
330
2790C
100
AcDbEntity
  8
寸法
 62
     0
 48
50.0
370
    -2
100
AcDbLine
 10
11160.84202293516
 20
7010.293497389733
 30
0.0
 11
11160.84202293516
 21
6604.687794469381
 31
0.0
  0
LINE
  5
2790F
330
2790C
100
AcDbEntity
  8
寸法
 62
     0
 48
50.0
370
    -2
100
AcDbLine
 10
10960.84202293515
 20
6679.68779446938
 30
0.0
 11
10835.84202293515
 21
6679.68779446938
 31
0.0
  0
LINE
  5
27910
330
2790C
100
AcDbEntity
  8
寸法
 62
     0
 48
50.0
370
    -2
100
AcDbLine
 10
11160.84202293516
 20
6679.68779446938
 30
0.0
 11
11285.84202293515
 21
6679.68779446938
 31
0.0
  0
LINE
  5
27911
330
2790C
100
AcDbEntity
  8
寸法
 62
     0
 48
50.0
370
    -2
100
AcDbLine
 10
10960.84202293515
 20
6679.68779446938
 30
0.0
 11
11160.84202293516
 21
6679.68779446938
 31
0.0
  0
INSERT
  5
27912
330
2790C
100
AcDbEntity
  8
寸法
 62
     0
 48
50.0
370
    -2
100
AcDbBlockReference
  2
_DOTSMALL
 10
10960.84202293515
 20
6679.68779446938
 30
0.0
 41
125.0
 42
125.0
 43
125.0
  0
INSERT
  5
27913
330
2790C
100
AcDbEntity
  8
寸法
 62
     0
 48
50.0
370
    -2
100
AcDbBlockReference
  2
_DOTSMALL
 10
11160.84202293516
 20
6679.68779446938
 30
0.0
 41
125.0
 42
125.0
 43
125.0
 50
180.0
  0
MTEXT
  5
27914
330
2790C
100
AcDbEntity
  8
寸法
 62
     7
 48
50.0
100
AcDbMText
 10
11060.84202293516
 20
6779.702558248908
 30
0.0
 40
150.0
 41
0.0
 71
     5
 72
     1
  1
\A1;200
  7
STYLE1
 73
     1
 44
1.0
1001
ACAD
1000
MTEXTBEGIN
1070
    73
1070
     1
1070
    44
1040
1.0
1070
    74
1070
     0
1000
MTEXTEND
  0
POINT
  5
27915
330
2790C
100
AcDbEntity
  8
DEFPOINTS
 62
     0
 48
50.0
100
AcDbPoint
 10
10960.84202293515
 20
7035.293497389732
 30
0.0
  0
POINT
  5
27916
330
2790C
100
AcDbEntity
  8
DEFPOINTS
 62
     0
 48
50.0
100
AcDbPoint
 10
11160.84202293516
 20
7035.293497389734
 30
0.0
  0
POINT
  5
27917
330
2790C
100
AcDbEntity
  8
DEFPOINTS
 62
     0
 48
50.0
100
AcDbPoint
 10
11160.84202293516
 20
6679.68779446938
 30
0.0
  0
ENDBLK
  5
27919
330
2790C
100
AcDbEntity
  8
0
 48
50.0
100
AcDbBlockEnd
  0
BLOCK
  5
27C20
330
27C16
100
AcDbEntity
  8
0
 48
50.0
100
AcDbBlockBegin
  2
*D25
 70
     1
 10
0.0
 20
0.0
 30
0.0
  3
*D25
  1

  0
LINE
  5
27C46
330
27C16
100
AcDbEntity
  8
寸法
 62
     0
 48
50.0
370
    -2
100
AcDbLine
 10
8705.29422979246
 20
2706.848907756468
 30
0.0
 11
9067.786535460971
 21
2706.848907756468
 31
0.0
  0
LINE
  5
27C47
330
27C16
100
AcDbEntity
  8
寸法
 62
     0
 48
50.0
370
    -2
100
AcDbLine
 10
8705.29422979246
 20
2446.848907756468
 30
0.0
 11
9067.786535460971
 21
2446.848907756468
 31
0.0
  0
LINE
  5
27C48
330
27C16
100
AcDbEntity
  8
寸法
 62
     0
 48
50.0
370
    -2
100
AcDbLine
 10
9007.78653546097
 20
2706.848907756468
 30
0.0
 11
9007.78653546097
 21
2446.848907756468
 31
0.0
  0
INSERT
  5
27C49
330
27C16
100
AcDbEntity
  8
寸法
 62
     0
 48
50.0
370
    -2
100
AcDbBlockReference
  2
_DOTSMALL
 10
9007.78653546097
 20
2706.848907756468
 30
0.0
 41
100.0
 42
100.0
 43
100.0
 50
90.0
  0
INSERT
  5
27C4A
330
27C16
100
AcDbEntity
  8
寸法
 62
     0
 48
50.0
370
    -2
100
AcDbBlockReference
  2
_DOTSMALL
 10
9007.78653546097
 20
2446.848907756468
 30
0.0
 41
100.0
 42
100.0
 43
100.0
 50
270.0
  0
MTEXT
  5
27C4B
330
27C16
100
AcDbEntity
  8
寸法
 62
     7
 48
50.0
100
AcDbMText
 10
8907.786535460971
 20
2576.84890775647
 30
0.0
 40
120.0
 41
0.0
 71
     5
 72
     1
  1
\A1;a
  7
STYLE1
 11
0.0000000000000001
 21
1.0
 31
0.0
 73
     1
 44
1.0
1001
ACAD
1000
MTEXTBEGIN
1070
    73
1070
     1
1070
    44
1040
1.0
1070
    74
1070
     0
1000
MTEXTEND
  0
POINT
  5
27C4C
330
27C16
100
AcDbEntity
  8
DEFPOINTS
 62
     0
 48
50.0
100
AcDbPoint
 10
8685.294229792459
 20
2706.848907756468
 30
0.0
  0
POINT
  5
27C4D
330
27C16
100
AcDbEntity
  8
DEFPOINTS
 62
     0
 48
50.0
100
AcDbPoint
 10
8685.294229792459
 20
2446.848907756468
 30
0.0
  0
POINT
  5
27C4E
330
27C16
100
AcDbEntity
  8
DEFPOINTS
 62
     0
 48
50.0
100
AcDbPoint
 10
9007.78653546097
 20
2446.848907756468
 30
0.0
  0
ENDBLK
  5
27C21
330
27C16
100
AcDbEntity
  8
0
 48
50.0
100
AcDbBlockEnd
  0
BLOCK
  5
27C2C
330
27C22
100
AcDbEntity
  8
0
 48
50.0
100
AcDbBlockBegin
  2
*D26
 70
     1
 10
0.0
 20
0.0
 30
0.0
  3
*D26
  1

  0
LINE
  5
27C4F
330
27C22
100
AcDbEntity
  8
寸法
 62
     0
 48
50.0
370
    -2
100
AcDbLine
 10
8145.294229792456
 20
2446.848907756468
 30
0.0
 11
7983.965558594268
 21
2446.848907756468
 31
0.0
  0
LINE
  5
27C50
330
27C22
100
AcDbEntity
  8
寸法
 62
     0
 48
50.0
370
    -2
100
AcDbLine
 10
8340.294229792457
 20
1926.848907756466
 30
0.0
 11
7983.965558594268
 21
1926.848907756466
 31
0.0
  0
LINE
  5
27C51
330
27C22
100
AcDbEntity
  8
寸法
 62
     0
 48
50.0
370
    -2
100
AcDbLine
 10
8043.965558594269
 20
2446.848907756468
 30
0.0
 11
8043.965558594267
 21
1926.848907756466
 31
0.0
  0
INSERT
  5
27C52
330
27C22
100
AcDbEntity
  8
寸法
 62
     0
 48
50.0
370
    -2
100
AcDbBlockReference
  2
_DOTSMALL
 10
8043.965558594269
 20
2446.848907756468
 30
0.0
 41
100.0
 42
100.0
 43
100.0
 50
90.0
  0
INSERT
  5
27C53
330
27C22
100
AcDbEntity
  8
寸法
 62
     0
 48
50.0
370
    -2
100
AcDbBlockReference
  2
_DOTSMALL
 10
8043.965558594267
 20
1926.848907756466
 30
0.0
 41
100.0
 42
100.0
 43
100.0
 50
270.0
  0
MTEXT
  5
27C54
330
27C22
100
AcDbEntity
  8
寸法
 62
     7
 48
50.0
100
AcDbMText
 10
7943.953747570645
 20
2170.760930807144
 30
0.0
 40
120.0
 41
0.0
 71
     5
 72
     1
  1
\A1;200
  7
STYLE1
 11
0.0000000000000001
 21
1.0
 31
0.0
 73
     1
 44
1.0
1001
ACAD
1000
MTEXTBEGIN
1070
    73
1070
     1
1070
    44
1040
1.0
1070
    74
1070
     0
1000
MTEXTEND
  0
POINT
  5
27C55
330
27C22
100
AcDbEntity
  8
DEFPOINTS
 62
     0
 48
50.0
100
AcDbPoint
 10
8165.294229792456
 20
2446.848907756468
 30
0.0
  0
POINT
  5
27C56
330
27C22
100
AcDbEntity
  8
DEFPOINTS
 62
     0
 48
50.0
100
AcDbPoint
 10
8360.294229792456
 20
1926.848907756466
 30
0.0
  0
POINT
  5
27C57
330
27C22
100
AcDbEntity
  8
DEFPOINTS
 62
     0
 48
50.0
100
AcDbPoint
 10
8043.965558594267
 20
1926.848907756466
 30
0.0
  0
ENDBLK
  5
27C2D
330
27C22
100
AcDbEntity
  8
0
 48
50.0
100
AcDbBlockEnd
  0
BLOCK
  5
27C38
330
27C2E
100
AcDbEntity
  8
0
 48
50.0
100
AcDbBlockBegin
  2
*D27
 70
     1
 10
0.0
 20
0.0
 30
0.0
  3
*D27
  1

  0
LINE
  5
27C58
330
27C2E
100
AcDbEntity
  8
寸法
 62
     0
 48
50.0
370
    -2
100
AcDbLine
 10
12752.84318671893
 20
2836.848907756468
 30
0.0
 11
13056.26940655118
 21
2836.848907756468
 31
0.0
  0
LINE
  5
27C59
330
27C2E
100
AcDbEntity
  8
寸法
 62
     0
 48
50.0
370
    -2
100
AcDbLine
 10
12791.69876723636
 20
2446.848907756468
 30
0.0
 11
13056.26940655118
 21
2446.848907756468
 31
0.0
  0
LINE
  5
27C5A
330
27C2E
100
AcDbEntity
  8
寸法
 62
     0
 48
50.0
370
    -2
100
AcDbLine
 10
12996.26940655118
 20
2836.848907756468
 30
0.0
 11
12996.26940655118
 21
2446.848907756468
 31
0.0
  0
INSERT
  5
27C5B
330
27C2E
100
AcDbEntity
  8
寸法
 62
     0
 48
50.0
370
    -2
100
AcDbBlockReference
  2
_DOTSMALL
 10
12996.26940655118
 20
2836.848907756468
 30
0.0
 41
100.0
 42
100.0
 43
100.0
 50
90.0
  0
INSERT
  5
27C5C
330
27C2E
100
AcDbEntity
  8
寸法
 62
     0
 48
50.0
370
    -2
100
AcDbBlockReference
  2
_DOTSMALL
 10
12996.26940655118
 20
2446.848907756468
 30
0.0
 41
100.0
 42
100.0
 43
100.0
 50
270.0
  0
MTEXT
  5
27C5D
330
27C2E
100
AcDbEntity
  8
寸法
 62
     7
 48
50.0
100
AcDbMText
 10
12896.26940655118
 20
2641.84890775647
 30
0.0
 40
120.0
 41
0.0
 71
     5
 72
     1
  1
\A1;c
  7
STYLE1
 11
0.0000000000000001
 21
1.0
 31
0.0
 73
     1
 44
1.0
1001
ACAD
1000
MTEXTBEGIN
1070
    73
1070
     1
1070
    44
1040
1.0
1070
    74
1070
     0
1000
MTEXTEND
  0
POINT
  5
27C5E
330
27C2E
100
AcDbEntity
  8
DEFPOINTS
 62
     0
 48
50.0
100
AcDbPoint
 10
12732.84318671893
 20
2836.848907756468
 30
0.0
  0
POINT
  5
27C5F
330
27C2E
100
AcDbEntity
  8
DEFPOINTS
 62
     0
 48
50.0
100
AcDbPoint
 10
12771.69876723636
 20
2446.848907756468
 30
0.0
  0
POINT
  5
27C60
330
27C2E
100
AcDbEntity
  8
DEFPOINTS
 62
     0
 48
50.0
100
AcDbPoint
 10
12996.26940655118
 20
2446.848907756468
 30
0.0
  0
ENDBLK
  5
27C39
330
27C2E
100
AcDbEntity
  8
0
 48
50.0
100
AcDbBlockEnd
  0
BLOCK
  5
27C44
330
27C3A
100
AcDbEntity
  8
0
 48
50.0
100
AcDbBlockBegin
  2
*D28
 70
     1
 10
0.0
 20
0.0
 30
0.0
  3
*D28
  1

  0
LINE
  5
27C61
330
27C3A
100
AcDbEntity
  8
寸法
 62
     0
 48
50.0
370
    -2
100
AcDbLine
 10
10802.98237314664
 20
2706.84890775647
 30
0.0
 11
11131.85959484842
 21
2706.84890775647
 31
0.0
  0
LINE
  5
27C62
330
27C3A
100
AcDbEntity
  8
寸法
 62
     0
 48
50.0
370
    -2
100
AcDbLine
 10
10828.26638110948
 20
2446.848907756468
 30
0.0
 11
11131.85959484842
 21
2446.848907756468
 31
0.0
  0
LINE
  5
27C63
330
27C3A
100
AcDbEntity
  8
寸法
 62
     0
 48
50.0
370
    -2
100
AcDbLine
 10
11071.85959484842
 20
2706.84890775647
 30
0.0
 11
11071.85959484842
 21
2446.848907756468
 31
0.0
  0
INSERT
  5
27C64
330
27C3A
100
AcDbEntity
  8
寸法
 62
     0
 48
50.0
370
    -2
100
AcDbBlockReference
  2
_DOTSMALL
 10
11071.85959484842
 20
2706.84890775647
 30
0.0
 41
100.0
 42
100.0
 43
100.0
 50
90.0
  0
INSERT
  5
27C65
330
27C3A
100
AcDbEntity
  8
寸法
 62
     0
 48
50.0
370
    -2
100
AcDbBlockReference
  2
_DOTSMALL
 10
11071.85959484842
 20
2446.848907756468
 30
0.0
 41
100.0
 42
100.0
 43
100.0
 50
270.0
  0
MTEXT
  5
27C66
330
27C3A
100
AcDbEntity
  8
寸法
 62
     7
 48
50.0
100
AcDbMText
 10
10971.85959484842
 20
2576.848907756471
 30
0.0
 40
120.0
 41
0.0
 71
     5
 72
     1
  1
\A1;b
  7
STYLE1
 11
0.0000000000000001
 21
1.0
 31
0.0
 73
     1
 44
1.0
1001
ACAD
1000
MTEXTBEGIN
1070
    73
1070
     1
1070
    44
1040
1.0
1070
    74
1070
     0
1000
MTEXTEND
  0
POINT
  5
27C67
330
27C3A
100
AcDbEntity
  8
DEFPOINTS
 62
     0
 48
50.0
100
AcDbPoint
 10
10782.98237314664
 20
2706.84890775647
 30
0.0
  0
POINT
  5
27C68
330
27C3A
100
AcDbEntity
  8
DEFPOINTS
 62
     0
 48
50.0
100
AcDbPoint
 10
10808.26638110948
 20
2446.848907756468
 30
0.0
  0
POINT
  5
27C69
330
27C3A
100
AcDbEntity
  8
DEFPOINTS
 62
     0
 48
50.0
100
AcDbPoint
 10
11071.85959484842
 20
2446.848907756468
 30
0.0
  0
ENDBLK
  5
27C45
330
27C3A
100
AcDbEntity
  8
0
 48
50.0
100
AcDbBlockEnd
  0
ENDSEC
  0
SECTION
  2
ENTITIES
  0
MTEXT
  5
763F
330
747D
100
AcDbEntity
  8
0
100
AcDbMText
 10
302.846345836809
 20
280.1983726409901
 30
0.0
 40
3.5
 41
5.323721266742722
 71
     1
 72
     5
  1

  7
MSMINCHO
 73
     1
 44
1.0
1001
ACAD
1000
MTEXTBEGIN
1070
    73
1070
     1
1070
    44
1040
1.0
1070
    74
1070
     0
1000
MTEXTEND
  0
INSERT
  5
F235
330
747D
100
AcDbEntity
  8
0
100
AcDbBlockReference
  2
作図枠S50
 10
0.0
 20
0.0
 30
0.0
  0
LINE
  5
10B56
330
747D
100
AcDbEntity
  8
補助
  6
PHANTOM
 62
   230
 48
50.0
100
AcDbLine
 10
175.0
 20
0.0
 30
0.0
 11
174.9999999999993
 21
14262.0
 31
0.0
  0
LINE
  5
10B57
330
747D
100
AcDbEntity
  8
補助
  6
PHANTOM
 62
   230
 48
50.0
100
AcDbLine
 10
174.9999999999993
 20
14262.0
 30
0.0
 11
20384.0
 21
14262.0
 31
0.0
  0
LINE
  5
10B5C
330
747D
100
AcDbEntity
  8
仕様書枠
 48
50.0
100
AcDbLine
 10
20384.0
 20
1500.0
 30
0.0
 11
20384.0
 21
-0.0000000000001137
 31
0.0
  0
LINE
  5
10B5D
330
747D
100
AcDbEntity
  8
仕様書枠
 48
50.0
100
AcDbLine
 10
175.0
 20
0.0
 30
0.0
 11
20384.0
 21
-0.0000000000001137
 31
0.0
  0
LINE
  5
10B5E
330
747D
100
AcDbEntity
  8
補助
  6
PHANTOM
 62
   230
 48
50.0
100
AcDbLine
 10
20384.0
 20
14262.0
 30
0.0
 11
20384.0
 21
1500.0
 31
0.0
  0
LINE
  5
10B6C
330
747D
100
AcDbEntity
  8
仕様書枠
 48
50.0
100
AcDbLine
 10
16384.0
 20
1500.0
 30
0.0
 11
20384.0
 21
1500.0
 31
0.0
  0
LINE
  5
10B6D
330
747D
100
AcDbEntity
  8
補助
  6
PHANTOM
 62
   230
 48
50.0
100
AcDbLine
 10
16384.0
 20
14262.0
 30
0.0
 11
16384.0
 21
6000.0
 31
0.0
  0
LINE
  5
10B6F
330
747D
100
AcDbEntity
  8
補助
  6
PHANTOM
 62
   230
 48
50.0
100
AcDbLine
 10
16384.0
 20
6000.0
 30
0.0
 11
20384.0
 21
6000.0
 31
0.0
  0
LINE
  5
10B72
330
747D
100
AcDbEntity
  8
文字
 62
     7
 48
50.0
100
AcDbLine
 10
16484.0
 20
500.0
 30
0.0
 11
20284.0
 21
500.0
 31
0.0
  0
TEXT
  5
10B73
330
747D
100
AcDbEntity
  8
文字
 62
     7
 48
50.0
100
AcDbText
 10
16453.72382072112
 20
1118.863259287425
 30
0.0
 40
250.0
  1
基 礎 図
  7
STYLE2
100
AcDbText
  0
LINE
  5
10B7B
330
747D
100
AcDbEntity
  8
仕様書枠
 48
50.0
100
AcDbLine
 10
16384.0
 20
1000.0
 30
0.0
 11
17814.0
 21
1000.0
 31
0.0
  0
LINE
  5
10B88
330
747D
100
AcDbEntity
  8
仕様書枠
  6
Continuous
 48
50.0
100
AcDbLine
 10
17814.0
 20
1500.0
 30
0.0
 11
17814.0
 21
1000.0
 31
0.0
  0
TEXT
  5
10BB0
330
747D
100
AcDbEntity
  8
文字
 62
     7
 48
50.0
100
AcDbText
 10
18011.04151481741
 20
604.8708912389265
 30
0.0
 40
200.0
  1
ＦＸＮ-１３２６ＨＹ
  7
STYLE2
100
AcDbText
  0
TEXT
  5
17483
330
747D
100
AcDbEntity
  8
文字
 62
     7
 48
50.0
100
AcDbText
 10
16511.75668531126
 20
270.5931184260625
 30
0.0
 40
100.0
  1
※寒冷地等は、地域の実情に合わせた基礎にしてください。
  7
STYLE2
100
AcDbText
  0
LINE
  5
17484
330
747D
100
AcDbEntity
  8
仕様書枠
  6
Continuous
 48
50.0
100
AcDbLine
 10
16384.00000503976
 20
1499.999992498709
 30
0.0
 11
16384.00000503976
 21
-0.0000075012905659
 31
0.0
  0
TEXT
  5
1A873
330
747D
100
AcDbEntity
  8
文字
 62
     7
 48
50.0
100
AcDbText
 10
18155.16479652749
 20
1289.447132864036
 30
0.0
 40
125.0
  1
NO.48      <縮尺> S=1/50
  7
STYLE2
100
AcDbText
  0
TEXT
  5
1A874
330
747D
100
AcDbEntity
  8
文字
 62
     7
 48
50.0
100
AcDbText
 10
18286.2300055311
 20
1089.955080760453
 30
0.0
 40
125.0
  1
～一般型・多雪地型～
  7
STYLE2
100
AcDbText
  0
TEXT
  5
1A875
330
747D
100
AcDbEntity
  8
文字
 62
     7
 48
50.0
100
AcDbText
 10
16501.79587498051
 20
596.5925826289069
 30
0.0
 40
200.0
  1
機種名
  7
STYLE2
100
AcDbText
  0
DIMENSION
  5
27628
330
747D
100
AcDbEntity
  8
寸法
 48
50.0
100
AcDbDimension
  2
*D8
 10
10617.71953507782
 20
8896.293497389732
 30
0.0
 11
10517.71953507781
 21
9331.793497389734
 31
0.0
 70
    32
 71
     5
 42
871.0
  3
INABA_S50G
100
AcDbAlignedDimension
 13
10469.84202293515
 23
9767.293497389733
 33
0.0
 14
10469.84202293515
 24
8896.293497389732
 34
0.0
 50
90.0
100
AcDbRotatedDimension
1001
ACAD
1000
DSTYLE
1002
{
1070
    40
1040
1.0
1070
   279
1070
     1
1070
   341
1005
0
1002
}
  0
DIMENSION
  5
27629
330
747D
100
AcDbEntity
  8
寸法
 48
50.0
100
AcDbDimension
  2
*D9
 10
10617.71953507782
 20
8006.29349738973
 30
0.0
 11
10517.71953507781
 21
8451.293497389734
 31
0.0
 70
    32
 71
     5
 42
890.0000000000009
  3
INABA_S50G
100
AcDbAlignedDimension
 13
10469.84202293515
 23
8896.293497389732
 33
0.0
 14
10469.84202293515
 24
8006.29349738973
 34
0.0
 50
90.0
100
AcDbRotatedDimension
1001
ACAD
1000
DSTYLE
1002
{
1070
    40
1040
1.0
1070
   279
1070
     1
1070
   341
1005
0
1002
}
  0
DIMENSION
  5
2762A
330
747D
100
AcDbEntity
  8
寸法
 48
50.0
100
AcDbDimension
  2
*D10
 10
10617.71953507782
 20
7135.293497389731
 30
0.0
 11
10517.71953507781
 21
7570.793497389733
 31
0.0
 70
    32
 71
     5
 42
871.0
  3
INABA_S50G
100
AcDbAlignedDimension
 13
10469.84202293515
 23
8006.29349738973
 33
0.0
 14
10469.84202293515
 24
7135.293497389731
 34
0.0
 50
90.0
100
AcDbRotatedDimension
1001
ACAD
1000
DSTYLE
1002
{
1070
    40
1040
1.0
1070
   279
1070
     1
1070
   341
1005
0
1002
}
  0
TEXT
  5
27653
330
747D
100
AcDbEntity
  8
部品1
 48
50.0
100
AcDbText
 10
11427.86447077131
 20
7517.20748620873
 30
0.0
 40
100.0
  1
(a=50,b=60,c=80)
  7
STYLE1
100
AcDbText
  0
TEXT
  5
27654
330
747D
100
AcDbEntity
  8
文字
 48
50.0
100
AcDbText
 10
11100.2130941014
 20
9092.591492846002
 30
0.0
 40
150.0
  1
100x190x390
  7
STYLE1
100
AcDbText
  0
MTEXT
  5
27655
102
{ACAD_REACTORS
330
27656
102
}
330
747D
100
AcDbEntity
  8
部品1
 62
     7
 48
50.0
100
AcDbMText
 10
13202.32067333697
 20
10354.29439667148
 30
0.0
 40
150.0
 41
0.0
 71
     6
 72
     1
  1
組立後　　　　　　\P現場打コンクリート
  7
STYLE1
 73
     1
 44
1.0
1001
ACAD
1000
MTEXTBEGIN
1070
    73
1070
     1
1070
    44
1040
1.0
1070
    74
1070
     0
1000
MTEXTEND
  0
LEADER
  5
27656
330
747D
100
AcDbEntity
  8
寸法
 48
50.0
100
AcDbLeader
  3
INABA_S50G
 71
     0
 73
     0
 74
     0
 75
     1
 40
400.0
 41
1617.5
 76
     3
 10
11160.84202293515
 20
9767.293497389733
 30
0.0
 10
11444.06378674828
 20
10105.71921214839
 30
0.0
 10
11569.06378674828
 20
10105.71921214839
 30
0.0
340
27655
213
9.24311341131397
223
-23.57518452308432
233
0.0
1001
ACAD
1000
DSTYLE
1002
{
1070
   341
1005
11750
1070
    40
1040
1.0
1070
   343
1005
11750
1070
   344
1005
11750
1002
}
  0
MTEXT
  5
27657
330
747D
100
AcDbEntity
  8
部品1
 62
     7
 48
50.0
100
AcDbMText
 10
12327.02927953257
 20
9954.876605749442
 30
0.0
 40
150.0
 41
0.0
 71
     6
 72
     1
  1
深サ:200
  7
STYLE1
 73
     1
 44
1.0
1001
ACAD
1000
MTEXTBEGIN
1070
    73
1070
     1
1070
    44
1040
1.0
1070
    74
1070
     0
1000
MTEXTEND
  0
LINE
  5
27658
330
747D
100
AcDbEntity
  8
点線
 48
10.0
100
AcDbLine
 10
10960.84202293515
 20
9867.293497389733
 30
0.0
 11
10960.84202293515
 21
9667.293497389733
 31
0.0
  0
LINE
  5
27659
330
747D
100
AcDbEntity
  8
点線
 48
10.0
100
AcDbLine
 10
10960.84202293515
 20
9667.293497389733
 30
0.0
 11
11160.84202293515
 21
9667.293497389733
 31
0.0
  0
LINE
  5
2765A
330
747D
100
AcDbEntity
  8
点線
 48
10.0
100
AcDbLine
 10
11160.84202293515
 20
9667.293497389733
 30
0.0
 11
11160.84202293515
 21
9867.293497389733
 31
0.0
  0
LINE
  5
2765B
330
747D
100
AcDbEntity
  8
点線
 48
10.0
100
AcDbLine
 10
11160.84202293515
 20
9867.293497389733
 30
0.0
 11
10960.84202293515
 21
9867.293497389733
 31
0.0
  0
LINE
  5
2765C
330
747D
100
AcDbEntity
  8
点線
 48
10.0
100
AcDbLine
 10
9788.842022935153
 20
9867.293497389733
 30
0.0
 11
9588.842022935152
 21
9867.293497389733
 31
0.0
  0
LINE
  5
2765D
330
747D
100
AcDbEntity
  8
点線
 48
10.0
100
AcDbLine
 10
9788.842022935153
 20
9667.293497389733
 30
0.0
 11
9788.842022935153
 21
9867.293497389733
 31
0.0
  0
LINE
  5
2765E
330
747D
100
AcDbEntity
  8
点線
 48
10.0
100
AcDbLine
 10
9588.842022935152
 20
9667.293497389733
 30
0.0
 11
9788.842022935153
 21
9667.293497389733
 31
0.0
  0
LINE
  5
2765F
330
747D
100
AcDbEntity
  8
点線
 48
10.0
100
AcDbLine
 10
9588.842022935152
 20
9867.293497389733
 30
0.0
 11
9588.842022935152
 21
9667.293497389733
 31
0.0
  0
DIMENSION
  5
27660
330
747D
100
AcDbEntity
  8
寸法
 48
50.0
100
AcDbDimension
  2
*D11
 10
11060.84202293515
 20
10074.43854355818
 30
0.0
 11
10717.84202293515
 21
10174.43854355818
 31
0.0
 70
    32
 71
     5
 42
686.0000000000036
  3
INABA_S50G
100
AcDbAlignedDimension
 13
10374.84202293515
 23
9767.293497389733
 33
0.0
 14
11060.84202293515
 24
10107.79648850989
 34
0.0
100
AcDbRotatedDimension
1001
ACAD
1000
DSTYLE
1002
{
1070
    40
1040
1.0
1070
   279
1070
     1
1070
   341
1005
0
1002
}
  0
DIMENSION
  5
27661
330
747D
100
AcDbEntity
  8
寸法
 48
50.0
100
AcDbDimension
  2
*D12
 10
10374.84202293515
 20
10074.43854355818
 30
0.0
 11
10031.84202293515
 21
10174.43854355818
 31
0.0
 70
    32
 71
     5
 42
686.0
  3
INABA_S50G
100
AcDbAlignedDimension
 13
9688.842022935153
 23
9836.293497389732
 33
0.0
 14
10374.84202293515
 24
9767.293497389733
 34
0.0
100
AcDbRotatedDimension
1001
ACAD
1000
DSTYLE
1002
{
1070
    40
1040
1.0
1070
   341
1005
0
1002
}
  0
DIMENSION
  5
27662
330
747D
100
AcDbEntity
  8
寸法
 48
50.0
100
AcDbDimension
  2
*D13
 10
8814.306426849887
 20
7075.293497389733
 30
0.0
 11
8714.306426849885
 21
7105.293497389732
 31
0.0
 70
    32
  1
b
 71
     5
 42
60.0
  3
INABA_S50G
100
AcDbAlignedDimension
 13
9688.842022935153
 23
7135.293497389731
 33
0.0
 14
9639.842022935154
 24
7075.293497389733
 34
0.0
 50
90.0
100
AcDbRotatedDimension
1001
ACAD
1000
DSTYLE
1002
{
1070
    40
1040
1.0
1070
   279
1070
     1
1070
   341
1005
0
1002
}
  0
DIMENSION
  5
27663
330
747D
100
AcDbEntity
  8
寸法
 48
50.0
100
AcDbDimension
  2
*D14
 10
8814.306426849887
 20
7135.293497389731
 30
0.0
 11
8714.291663070358
 21
8451.293497389734
 31
0.0
 70
    32
 71
     5
 42
2632.0
  3
INABA_S50G
100
AcDbAlignedDimension
 13
9688.842022935153
 23
9767.293497389733
 33
0.0
 14
9688.842022935153
 24
7135.293497389731
 34
0.0
 50
90.0
100
AcDbRotatedDimension
1001
ACAD
1000
DSTYLE
1002
{
1070
    40
1040
1.0
1070
   279
1070
     1
1070
   341
1005
0
1002
}
  0
DIMENSION
  5
27664
330
747D
100
AcDbEntity
  8
寸法
 48
50.0
100
AcDbDimension
  2
*D15
 10
8814.306426849887
 20
9767.293497389733
 30
0.0
 11
8714.306426849885
 21
9807.293497389734
 31
0.0
 70
    32
  1
c
 71
     5
 42
80.0
  3
INABA_S50G
100
AcDbAlignedDimension
 13
9639.842022935154
 23
9847.293497389733
 33
0.0
 14
9688.842022935153
 24
9767.293497389733
 34
0.0
 50
90.0
100
AcDbRotatedDimension
1001
ACAD
1000
DSTYLE
1002
{
1070
    40
1040
1.0
1070
   341
1005
0
1002
}
  0
DIMENSION
  5
27665
330
747D
100
AcDbEntity
  8
寸法
 48
50.0
100
AcDbDimension
  2
*D16
 10
9639.842022935154
 20
10348.29947963004
 30
0.0
 11
9577.342022935154
 21
10348.29947963004
 31
0.0
 70
   160
  1
a
 71
     5
 42
49.0
  3
INABA_S50G
100
AcDbAlignedDimension
 13
9688.842022935153
 23
9767.293497389733
 33
0.0
 14
9639.842022935154
 24
9827.293497389732
 34
0.0
100
AcDbRotatedDimension
1001
ACAD
1000
DSTYLE
1002
{
1070
    40
1040
1.0
1070
   279
1070
     1
1070
   341
1005
0
1002
}
  0
DIMENSION
  5
27666
330
747D
100
AcDbEntity
  8
寸法
 48
50.0
100
AcDbDimension
  2
*D17
 10
9688.842022935153
 20
10348.29947963004
 30
0.0
 11
10374.84202293515
 21
10448.31424340957
 31
0.0
 70
    32
 71
     5
 42
1372.000000000003
  3
INABA_S50G
100
AcDbAlignedDimension
 13
11060.84202293515
 23
9767.293497389733
 33
0.0
 14
9688.842022935153
 24
9767.293497389733
 34
0.0
100
AcDbRotatedDimension
1001
ACAD
1000
DSTYLE
1002
{
1070
    40
1040
1.0
1070
   279
1070
     1
1070
   341
1005
0
1002
}
  0
DIMENSION
  5
27667
330
747D
100
AcDbEntity
  8
寸法
 48
50.0
100
AcDbDimension
  2
*D18
 10
11060.84202293515
 20
10348.29947963004
 30
0.0
 11
11172.34202293515
 21
10348.29947963004
 31
0.0
 70
   160
  1
a
 71
     5
 42
49.0
  3
INABA_S50G
100
AcDbAlignedDimension
 13
11109.84202293515
 23
9836.293497389734
 33
0.0
 14
11060.84202293515
 24
9767.293497389733
 34
0.0
100
AcDbRotatedDimension
1001
ACAD
1000
DSTYLE
1002
{
1070
    40
1040
1.0
1070
   279
1070
     1
1070
   341
1005
0
1002
}
  0
LINE
  5
27668
330
747D
100
AcDbEntity
  8
想像線
 48
10.0
100
AcDbLine
 10
9639.842022935154
 20
7075.293497389733
 30
0.0
 11
11109.84202293515
 21
7075.293497389733
 31
0.0
  0
LINE
  5
27669
330
747D
100
AcDbEntity
  8
想像線
 48
10.0
100
AcDbLine
 10
9639.842022935154
 20
9847.293497389733
 30
0.0
 11
11109.84202293515
 21
9847.293497389733
 31
0.0
  0
LINE
  5
2766A
330
747D
100
AcDbEntity
  8
想像線
 48
10.0
100
AcDbLine
 10
9639.842022935154
 20
9847.293497389733
 30
0.0
 11
9639.842022935154
 21
7075.293497389733
 31
0.0
  0
LINE
  5
2766B
330
747D
100
AcDbEntity
  8
想像線
 48
10.0
100
AcDbLine
 10
11109.84202293515
 20
9847.293497389733
 30
0.0
 11
11109.84202293515
 21
7075.293497389733
 31
0.0
  0
TEXT
  5
2766C
330
747D
100
AcDbEntity
  8
部品1
 48
50.0
100
AcDbText
 10
9843.139099396163
 20
6872.455589197144
 30
0.0
 40
150.0
  1
シャッター面
  7
STYLE1
 72
     1
 11
10373.13909939616
 21
6852.455589197145
 31
0.0
100
AcDbText
 73
     1
  0
TEXT
  5
2766D
330
747D
100
AcDbEntity
  8
部品1
 48
50.0
100
AcDbText
 10
11326.4888266254
 20
7638.810173803077
 30
0.0
 40
100.0
  1
※a,bは屋根の出幅です。
  7
STYLE1
100
AcDbText
  0
MTEXT
  5
2766E
102
{ACAD_REACTORS
330
2766F
102
}
330
747D
100
AcDbEntity
  8
部品1
 62
     7
 48
50.0
100
AcDbMText
 10
12289.55240080229
 20
7863.057781265074
 30
0.0
 40
150.0
 41
0.0
 71
     6
 72
     1
  1
\A1;屋根の外寸
  7
STYLE1
 73
     1
 44
1.0
1001
ACAD
1000
MTEXTBEGIN
1070
    73
1070
     1
1070
    44
1040
1.0
1070
    74
1070
     0
1000
MTEXTEND
  0
LEADER
  5
2766F
330
747D
100
AcDbEntity
  8
寸法
 48
50.0
100
AcDbLeader
  3
INABA_S50G
 71
     0
 73
     0
 74
     0
 75
     1
 40
150.0
 41
840.0
 76
     3
 10
11109.84202293515
 20
8158.075173224863
 30
0.0
 10
11299.55240080229
 20
7763.057781265074
 30
0.0
 10
11424.55240080229
 20
7763.057781265074
 30
0.0
340
2766E
1001
ACAD
1000
DSTYLE
1002
{
1070
   341
1005
11750
1070
    40
1040
1.0
1070
   343
1005
11750
1070
   344
1005
11750
1002
}
  0
MTEXT
  5
27670
102
{ACAD_REACTORS
330
27671
102
}
330
747D
100
AcDbEntity
  8
部品1
 62
     7
 48
50.0
100
AcDbMText
 10
11235.04083769697
 20
9397.726933777375
 30
0.0
 40
150.0
 41
0.0
 71
     4
 72
     1
  1
\A1;C.B
  7
STYLE1
 73
     1
 44
1.0
1001
ACAD
1000
MTEXTBEGIN
1070
    73
1070
     1
1070
    44
1040
1.0
1070
    74
1070
     0
1000
MTEXTEND
  0
LEADER
  5
27671
330
747D
100
AcDbEntity
  8
寸法
 48
50.0
100
AcDbLeader
  3
INABA_S50G
 71
     0
 73
     0
 74
     0
 75
     1
 40
150.0
 41
231.9898538650463
 76
     3
 10
11017.83355487266
 20
9582.716988528488
 30
0.0
 10
11085.04083769697
 20
9297.726933777374
 30
0.0
 10
11210.04083769697
 20
9297.726933777374
 30
0.0
340
27670
1001
ACAD
1000
DSTYLE
1002
{
1070
   341
1005
11750
1070
    40
1040
1.0
1070
   343
1005
11750
1070
   344
1005
11750
1002
}
  0
LINE
  5
27672
330
747D
100
AcDbEntity
  8
部品1
 48
50.0
100
AcDbLine
 10
10279.84202293515
 20
7135.293497389731
 30
0.0
 11
10279.84202293515
 21
7325.293497389733
 31
0.0
  0
LINE
  5
27673
330
747D
100
AcDbEntity
  8
部品1
 48
50.0
100
AcDbLine
 10
10279.84202293515
 20
7325.293497389733
 30
0.0
 11
10469.84202293515
 21
7325.293497389733
 31
0.0
  0
LINE
  5
27674
330
747D
100
AcDbEntity
  8
部品1
 48
50.0
100
AcDbLine
 10
10469.84202293515
 20
7135.293497389731
 30
0.0
 11
10279.84202293515
 21
7135.293497389731
 31
0.0
  0
LINE
  5
27675
330
747D
100
AcDbEntity
  8
部品1
 48
50.0
100
AcDbLine
 10
10469.84202293515
 20
7325.293497389733
 30
0.0
 11
10469.84202293515
 21
7135.293497389731
 31
0.0
  0
LINE
  5
27676
330
747D
100
AcDbEntity
  8
部品1
 48
50.0
100
AcDbLine
 10
10279.84202293515
 20
9577.293497389732
 30
0.0
 11
10279.84202293515
 21
9767.293497389733
 31
0.0
  0
LINE
  5
27677
330
747D
100
AcDbEntity
  8
部品1
 48
50.0
100
AcDbLine
 10
10279.84202293515
 20
9767.293497389733
 30
0.0
 11
10469.84202293515
 21
9767.293497389733
 31
0.0
  0
LINE
  5
27678
330
747D
100
AcDbEntity
  8
部品1
 48
50.0
100
AcDbLine
 10
10469.84202293515
 20
9577.293497389732
 30
0.0
 11
10279.84202293515
 21
9577.293497389732
 31
0.0
  0
LINE
  5
27679
330
747D
100
AcDbEntity
  8
部品1
 48
50.0
100
AcDbLine
 10
10469.84202293515
 20
9767.293497389733
 30
0.0
 11
10469.84202293515
 21
9577.293497389732
 31
0.0
  0
LINE
  5
2767A
330
747D
100
AcDbEntity
  8
部品1
 48
50.0
100
AcDbLine
 10
10870.84202293515
 20
8987.293497389718
 30
0.0
 11
11060.84202293515
 21
8987.293497389718
 31
0.0
  0
LINE
  5
2767B
330
747D
100
AcDbEntity
  8
部品1
 48
50.0
100
AcDbLine
 10
11060.84202293515
 20
8987.293497389718
 30
0.0
 11
11060.84202293515
 21
8797.293497389716
 31
0.0
  0
LINE
  5
2767C
330
747D
100
AcDbEntity
  8
部品1
 48
50.0
100
AcDbLine
 10
11060.84202293515
 20
8797.293497389716
 30
0.0
 11
10870.84202293515
 21
8797.293497389716
 31
0.0
  0
LINE
  5
2767D
330
747D
100
AcDbEntity
  8
部品1
 48
50.0
100
AcDbLine
 10
10870.84202293515
 20
8797.293497389716
 30
0.0
 11
10870.84202293515
 21
8987.293497389718
 31
0.0
  0
LINE
  5
2767E
330
747D
100
AcDbEntity
  8
部品1
 48
50.0
100
AcDbLine
 10
10870.84202293515
 20
7917.293497389715
 30
0.0
 11
10870.84202293515
 21
8107.293497389717
 31
0.0
  0
LINE
  5
2767F
330
747D
100
AcDbEntity
  8
部品1
 48
50.0
100
AcDbLine
 10
11060.84202293515
 20
7917.293497389715
 30
0.0
 11
10870.84202293515
 21
7917.293497389715
 31
0.0
  0
LINE
  5
27680
330
747D
100
AcDbEntity
  8
部品1
 48
50.0
100
AcDbLine
 10
11060.84202293515
 20
8107.293497389717
 30
0.0
 11
11060.84202293515
 21
7917.293497389715
 31
0.0
  0
LINE
  5
27681
330
747D
100
AcDbEntity
  8
部品1
 48
50.0
100
AcDbLine
 10
10870.84202293515
 20
8107.293497389717
 30
0.0
 11
11060.84202293515
 21
8107.293497389717
 31
0.0
  0
LINE
  5
27682
330
747D
100
AcDbEntity
  8
部品1
 48
50.0
100
AcDbLine
 10
9688.842022935153
 20
8107.293497389717
 30
0.0
 11
9878.842022935153
 21
8107.293497389717
 31
0.0
  0
LINE
  5
27683
330
747D
100
AcDbEntity
  8
部品1
 48
50.0
100
AcDbLine
 10
9878.842022935153
 20
8107.293497389717
 30
0.0
 11
9878.842022935153
 21
7917.293497389715
 31
0.0
  0
LINE
  5
27684
330
747D
100
AcDbEntity
  8
部品1
 48
50.0
100
AcDbLine
 10
9878.842022935153
 20
7917.293497389715
 30
0.0
 11
9688.842022935153
 21
7917.293497389715
 31
0.0
  0
LINE
  5
27685
330
747D
100
AcDbEntity
  8
部品1
 48
50.0
100
AcDbLine
 10
9688.842022935153
 20
7917.293497389715
 30
0.0
 11
9688.842022935153
 21
8107.293497389717
 31
0.0
  0
LINE
  5
27686
330
747D
100
AcDbEntity
  8
部品1
 48
50.0
100
AcDbLine
 10
9688.842022935153
 20
8797.293497389716
 30
0.0
 11
9688.842022935153
 21
8987.293497389718
 31
0.0
  0
LINE
  5
27687
330
747D
100
AcDbEntity
  8
部品1
 48
50.0
100
AcDbLine
 10
9878.842022935153
 20
8797.293497389716
 30
0.0
 11
9688.842022935153
 21
8797.293497389716
 31
0.0
  0
LINE
  5
27688
330
747D
100
AcDbEntity
  8
部品1
 48
50.0
100
AcDbLine
 10
9878.842022935153
 20
8987.293497389718
 30
0.0
 11
9878.842022935153
 21
8797.293497389716
 31
0.0
  0
LINE
  5
27689
330
747D
100
AcDbEntity
  8
部品1
 48
50.0
100
AcDbLine
 10
9688.842022935153
 20
8987.293497389718
 30
0.0
 11
9878.842022935153
 21
8987.293497389718
 31
0.0
  0
LINE
  5
2768A
330
747D
100
AcDbEntity
  8
部品1
 48
50.0
100
AcDbLine
 10
10279.84202293515
 20
8207.293497389716
 30
0.0
 11
10469.84202293515
 21
8207.293497389716
 31
0.0
  0
LINE
  5
2768B
330
747D
100
AcDbEntity
  8
部品1
 48
50.0
100
AcDbLine
 10
10469.84202293515
 20
8207.293497389716
 30
0.0
 11
10469.84202293515
 21
7817.293497389716
 31
0.0
  0
LINE
  5
2768C
330
747D
100
AcDbEntity
  8
部品1
 48
50.0
100
AcDbLine
 10
10469.84202293515
 20
7817.293497389716
 30
0.0
 11
10279.84202293515
 21
7817.293497389716
 31
0.0
  0
LINE
  5
2768D
330
747D
100
AcDbEntity
  8
部品1
 48
50.0
100
AcDbLine
 10
10279.84202293515
 20
7817.293497389716
 30
0.0
 11
10279.84202293515
 21
8207.293497389716
 31
0.0
  0
LINE
  5
2768E
330
747D
100
AcDbEntity
  8
部品1
 48
50.0
100
AcDbLine
 10
10279.84202293515
 20
8697.293497389717
 30
0.0
 11
10279.84202293515
 21
9087.293497389717
 31
0.0
  0
LINE
  5
2768F
330
747D
100
AcDbEntity
  8
部品1
 48
50.0
100
AcDbLine
 10
10469.84202293515
 20
8697.293497389717
 30
0.0
 11
10279.84202293515
 21
8697.293497389717
 31
0.0
  0
LINE
  5
27690
330
747D
100
AcDbEntity
  8
部品1
 48
50.0
100
AcDbLine
 10
10469.84202293515
 20
9087.293497389717
 30
0.0
 11
10469.84202293515
 21
8697.293497389717
 31
0.0
  0
LINE
  5
27691
330
747D
100
AcDbEntity
  8
部品1
 48
50.0
100
AcDbLine
 10
10279.84202293515
 20
9087.293497389717
 30
0.0
 11
10469.84202293515
 21
9087.293497389717
 31
0.0
  0
LINE
  5
27692
330
747D
100
AcDbEntity
  8
部品1
 48
50.0
100
AcDbLine
 10
11060.84202293515
 20
9767.293497389733
 30
0.0
 11
11060.84202293515
 21
9577.293497389732
 31
0.0
  0
LINE
  5
27693
330
747D
100
AcDbEntity
  8
部品1
 48
50.0
100
AcDbLine
 10
11060.84202293515
 20
9577.293497389732
 30
0.0
 11
10670.84202293515
 21
9577.293497389732
 31
0.0
  0
LINE
  5
27694
330
747D
100
AcDbEntity
  8
部品1
 48
50.0
100
AcDbLine
 10
10670.84202293515
 20
9577.293497389732
 30
0.0
 11
10670.84202293515
 21
9767.293497389733
 31
0.0
  0
LINE
  5
27695
330
747D
100
AcDbEntity
  8
部品1
 48
50.0
100
AcDbLine
 10
10670.84202293515
 20
9767.293497389733
 30
0.0
 11
11060.84202293515
 21
9767.293497389733
 31
0.0
  0
LINE
  5
27696
330
747D
100
AcDbEntity
  8
部品1
 48
50.0
100
AcDbLine
 10
9688.842022935153
 20
9767.293497389733
 30
0.0
 11
10078.84202293515
 21
9767.293497389733
 31
0.0
  0
LINE
  5
27697
330
747D
100
AcDbEntity
  8
部品1
 48
50.0
100
AcDbLine
 10
9688.842022935153
 20
9577.293497389732
 30
0.0
 11
9688.842022935153
 21
9767.293497389733
 31
0.0
  0
LINE
  5
27698
330
747D
100
AcDbEntity
  8
部品1
 48
50.0
100
AcDbLine
 10
10078.84202293515
 20
9577.293497389732
 30
0.0
 11
9688.842022935153
 21
9577.293497389732
 31
0.0
  0
LINE
  5
27699
330
747D
100
AcDbEntity
  8
部品1
 48
50.0
100
AcDbLine
 10
10078.84202293515
 20
9767.293497389733
 30
0.0
 11
10078.84202293515
 21
9577.293497389732
 31
0.0
  0
LINE
  5
278C6
330
747D
100
AcDbEntity
  8
部品1
 48
50.0
100
AcDbLine
 10
10670.84202293515
 20
7135.293497389731
 30
0.0
 11
10670.84202293515
 21
7325.293497389733
 31
0.0
  0
LINE
  5
278C7
330
747D
100
AcDbEntity
  8
部品1
 48
50.0
100
AcDbLine
 10
11060.84202293515
 20
7325.293497389733
 30
0.0
 11
11060.84202293515
 21
7135.293497389731
 31
0.0
  0
LINE
  5
278C8
330
747D
100
AcDbEntity
  8
部品1
 48
50.0
100
AcDbLine
 10
11060.84202293515
 20
7135.293497389731
 30
0.0
 11
10670.84202293515
 21
7135.293497389731
 31
0.0
  0
LINE
  5
278C9
330
747D
100
AcDbEntity
  8
部品1
 48
50.0
100
AcDbLine
 10
10670.84202293515
 20
7325.293497389733
 30
0.0
 11
11060.84202293515
 21
7325.293497389733
 31
0.0
  0
LINE
  5
278CA
330
747D
100
AcDbEntity
  8
部品1
 48
50.0
100
AcDbLine
 10
10078.84202293515
 20
7325.293497389733
 30
0.0
 11
10078.84202293515
 21
7135.293497389731
 31
0.0
  0
LINE
  5
278CB
330
747D
100
AcDbEntity
  8
部品1
 48
50.0
100
AcDbLine
 10
9688.842022935153
 20
7135.293497389731
 30
0.0
 11
9688.842022935153
 21
7325.293497389733
 31
0.0
  0
LINE
  5
278CD
330
747D
100
AcDbEntity
  8
部品1
 48
50.0
100
AcDbLine
 10
10078.84202293515
 20
7135.293497389731
 30
0.0
 11
9688.842022935153
 21
7135.293497389731
 31
0.0
  0
LINE
  5
278CE
330
747D
100
AcDbEntity
  8
部品1
 48
50.0
100
AcDbLine
 10
9688.842022935153
 20
7325.293497389733
 30
0.0
 11
10078.84202293515
 21
7325.293497389733
 31
0.0
  0
LINE
  5
278CF
330
747D
100
AcDbEntity
  8
点線
 48
10.0
100
AcDbLine
 10
9588.842022935152
 20
7235.293497389732
 30
0.0
 11
9588.842022935152
 21
7035.293497389732
 31
0.0
  0
LINE
  5
278D0
330
747D
100
AcDbEntity
  8
点線
 48
10.0
100
AcDbLine
 10
9788.842022935153
 20
7035.293497389732
 30
0.0
 11
9788.842022935153
 21
7235.293497389732
 31
0.0
  0
LINE
  5
278D1
330
747D
100
AcDbEntity
  8
点線
 48
10.0
100
AcDbLine
 10
9588.842022935152
 20
7035.293497389732
 30
0.0
 11
9788.842022935153
 21
7035.293497389732
 31
0.0
  0
LINE
  5
278D2
330
747D
100
AcDbEntity
  8
点線
 48
10.0
100
AcDbLine
 10
9788.842022935153
 20
7235.293497389732
 30
0.0
 11
9588.842022935152
 21
7235.293497389732
 31
0.0
  0
LINE
  5
278D3
330
747D
100
AcDbEntity
  8
点線
 48
10.0
100
AcDbLine
 10
11160.84202293515
 20
7035.293497389732
 30
0.0
 11
11160.84202293515
 21
7235.293497389732
 31
0.0
  0
LINE
  5
278D4
330
747D
100
AcDbEntity
  8
点線
 48
10.0
100
AcDbLine
 10
10960.84202293515
 20
7235.293497389732
 30
0.0
 11
10960.84202293515
 21
7035.293497389732
 31
0.0
  0
LINE
  5
278D5
330
747D
100
AcDbEntity
  8
点線
 48
10.0
100
AcDbLine
 10
10960.84202293515
 20
7035.293497389732
 30
0.0
 11
11160.84202293515
 21
7035.293497389732
 31
0.0
  0
LINE
  5
278D6
330
747D
100
AcDbEntity
  8
点線
 48
10.0
100
AcDbLine
 10
11160.84202293515
 20
7235.293497389732
 30
0.0
 11
10960.84202293515
 21
7235.293497389732
 31
0.0
  0
DIMENSION
  5
278F1
330
747D
100
AcDbEntity
  8
寸法
 48
50.0
100
AcDbDimension
  2
*D19
 10
11421.05428905892
 20
7235.293497389732
 30
0.0
 11
11321.03952527939
 21
7135.293497389733
 31
0.0
 70
    32
 71
     5
 42
200.0
  3
INABA_S50G
100
AcDbAlignedDimension
 13
11160.84202293515
 23
7035.293497389732
 33
0.0
 14
11160.84202293515
 24
7235.293497389732
 34
0.0
 50
90.0
100
AcDbRotatedDimension
1001
ACAD
1000
DSTYLE
1002
{
1070
    40
1040
1.0
1002
}
  0
DIMENSION
  5
2790B
330
747D
100
AcDbEntity
  8
寸法
 48
50.0
100
AcDbDimension
  2
*D20
 10
11160.84202293516
 20
6679.68779446938
 30
0.0
 11
11060.84202293516
 21
6779.702558248908
 31
0.0
 70
    32
 71
     5
 42
200.0000000000018
  3
INABA_S50G
100
AcDbAlignedDimension
 13
10960.84202293515
 23
7035.293497389732
 33
0.0
 14
11160.84202293516
 24
7035.293497389734
 34
0.0
100
AcDbRotatedDimension
1001
ACAD
1000
DSTYLE
1002
{
1070
    40
1040
1.0
1002
}
  0
LINE
  5
27AB8
330
747D
100
AcDbEntity
  8
部品1
 48
50.0
100
AcDbLine
 10
5587.774216850295
 20
3719.859883861187
 30
0.0
 11
13907.77421685029
 21
3719.859883861187
 31
0.0
  0
LINE
  5
27AB9
330
747D
100
AcDbEntity
  8
部品1
 48
50.0
100
AcDbLine
 10
13907.77421685029
 20
4031.859883861186
 30
0.0
 11
7667.774216850296
 21
4031.859883861186
 31
0.0
  0
LINE
  5
27ABA
330
747D
100
AcDbEntity
  8
部品1
 48
50.0
100
AcDbLine
 10
13907.77421685029
 20
4343.859883861187
 30
0.0
 11
5587.774216850295
 21
4343.859883861188
 31
0.0
  0
LINE
  5
27ABB
330
747D
100
AcDbEntity
  8
部品1
 48
50.0
100
AcDbLine
 10
5587.774216850295
 20
1223.859883861187
 30
0.0
 11
13907.77421685029
 21
1223.859883861187
 31
0.0
  0
TEXT
  5
27ABC
330
747D
100
AcDbEntity
  8
部品1
100
AcDbText
 10
9817.619728142595
 20
4102.14284284474
 30
0.0
 40
156.0
  1
アンカー部詳細
  7
STYLE2
100
AcDbText
  0
LINE
  5
27ABD
330
747D
100
AcDbEntity
  8
Ｇ．Ｌ
100
AcDbLine
 10
9839.435617892821
 20
2446.848907756467
 30
0.0
 11
11742.68142828638
 21
2446.848907756467
 31
0.0
  0
LINE
  5
27ABE
330
747D
100
AcDbEntity
  8
細線
 48
10.0
100
AcDbLine
 10
10117.65665107202
 20
2047.855251215398
 30
0.0
 11
10516.65030761306
 21
2446.848907756467
 31
0.0
  0
LINE
  5
27ABF
330
747D
100
AcDbEntity
  8
部品1
100
AcDbLine
 10
9839.435617892814
 20
2706.84890775647
 30
0.0
 11
10651.22451352201
 21
2706.84890775647
 31
0.0
  0
LINE
  5
27AC0
330
747D
100
AcDbEntity
  8
部品1
100
AcDbLine
 10
9839.435617892814
 20
2836.848907756472
 30
0.0
 11
10626.26638110949
 21
2836.84890775647
 31
0.0
  0
LINE
  5
27AC1
330
747D
100
AcDbEntity
  8
部品1
100
AcDbLine
 10
9839.435617892814
 20
2829.048907756473
 30
0.0
 11
10663.70357972826
 21
2829.048907756473
 31
0.0
  0
LINE
  5
27AC2
330
747D
100
AcDbEntity
  8
細線
100
AcDbLine
 10
10627.50736210175
 20
2474.601089237669
 30
0.0
 11
10395.25954358295
 21
2706.848907756466
 31
0.0
  0
LINE
  5
27AC3
330
747D
100
AcDbEntity
  8
細線
100
AcDbLine
 10
10632.61784097348
 20
2524.644939298491
 30
0.0
 11
10450.4138725155
 21
2706.848907756466
 31
0.0
  0
TEXT
  5
27AC4
330
747D
100
AcDbEntity
  8
部品1
100
AcDbText
 10
9863.691651273471
 20
1839.962526662428
 30
0.0
 40
104.0
  1
b寸法：100～120mmに対応
  7
STYLE2
100
AcDbText
  0
TEXT
  5
27AC5
330
747D
100
AcDbEntity
  8
部品1
100
AcDbText
 10
9869.600742182564
 20
1650.674647874548
 30
0.0
 40
104.0
  1
\U+203BオールアンカーM10(市販品)
  7
STYLE2
100
AcDbText
  0
TEXT
  5
27AC6
330
747D
100
AcDbEntity
  8
部品1
100
AcDbText
 10
9871.373469455292
 20
1456.068587268488
 30
0.0
 40
104.0
  1
  が4本必要になります。
  7
STYLE2
100
AcDbText
  0
LEADER
  5
27AC7
330
747D
100
AcDbEntity
  8
寸法
 48
50.0
100
AcDbLeader
  3
INABA_S50G
 71
     0
 73
     0
 74
     0
 75
     1
 40
156.0
 41
241.269448019648
 76
     3
 10
6530.110092596792
 20
2706.848907756468
 30
0.0
 10
6776.952749939322
 20
2991.056400907866
 30
0.0
 10
6901.952749939322
 20
2991.056400907866
 30
0.0
340
27AC8
213
88.05124360030459
223
0.0
233
0.0
1001
ACAD
1000
DSTYLE
1002
{
1070
    40
1040
1.0
1002
}
  0
MTEXT
  5
27AC8
102
{ACAD_REACTORS
330
27AC7
102
}
330
747D
100
AcDbEntity
  8
寸法
 62
     7
 48
50.0
100
AcDbMText
 10
6838.901506339017
 20
3094.056400907867
 30
0.0
 40
156.0
 41
1.3
 71
     4
 72
     1
  1
\A1;C.B
  7
STYLE1
 73
     1
 44
1.0
1001
ACAD
1000
MTEXTBEGIN
1070
    73
1070
     1
1070
    44
1040
1.0
1070
    74
1070
     0
1000
MTEXTEND
  0
LINE
  5
27AC9
330
747D
100
AcDbEntity
  8
部品1
 48
50.0
100
AcDbLine
 10
5587.774216850295
 20
4343.859883861187
 30
0.0
 11
5587.774216850295
 21
1223.859883861187
 31
0.0
  0
LINE
  5
27ACA
330
747D
100
AcDbEntity
  8
部品1
 48
50.0
100
AcDbLine
 10
9747.774216850295
 20
4031.859883861186
 30
0.0
 11
9747.774216850295
 21
1223.859883861187
 31
0.0
  0
LINE
  5
27ACB
330
747D
100
AcDbEntity
  8
部品1
 48
50.0
100
AcDbLine
 10
7667.774216850296
 20
4343.859883861187
 30
0.0
 11
7667.774216850296
 21
1223.859883861187
 31
0.0
  0
LINE
  5
27ACC
330
747D
100
AcDbEntity
  8
部品1
100
AcDbLine
 10
8685.294229792457
 20
3486.848907756465
 30
0.0
 11
8685.294229792457
 21
2446.848907756467
 31
0.0
  0
LINE
  5
27ACD
330
747D
100
AcDbEntity
  8
部品1
100
AcDbLine
 10
8685.294229792457
 20
2788.748907756468
 30
0.0
 11
8685.294229792459
 21
2402.18801744088
 31
0.0
  0
LINE
  5
27ACE
330
747D
100
AcDbEntity
  8
部品1
100
AcDbLine
 10
8581.294229792456
 20
2790.048907756467
 30
0.0
 11
8581.294229792456
 21
2402.18801744088
 31
0.0
  0
CIRCLE
  5
27ACF
330
747D
100
AcDbEntity
  8
部品1
100
AcDbCircle
 10
8633.294229792456
 20
2764.048907756467
 30
0.0
 40
20.8
  0
LINE
  5
27AD0
330
747D
100
AcDbEntity
  8
Ｇ．Ｌ
100
AcDbLine
 10
5710.978784737868
 20
2446.84890775647
 30
0.0
 11
7571.140053707975
 21
2446.84890775647
 31
0.0
  0
TEXT
  5
27AD1
330
747D
100
AcDbEntity
  8
部品1
100
AcDbText
 10
7080.338506224446
 20
2457.126761939046
 30
0.0
 40
156.0
  1
▽G.L
  7
STYLE1
100
AcDbText
  0
LINE
  5
27AD2
330
747D
100
AcDbEntity
  8
部品1
100
AcDbLine
 10
6270.110092596791
 20
2706.848907756466
 30
0.0
 11
6790.110092596788
 21
2706.848907756466
 31
0.0
  0
LINE
  5
27AD3
330
747D
100
AcDbEntity
  8
部品1
100
AcDbLine
 10
6140.110092596787
 20
2316.848907756467
 30
0.0
 11
6920.110092596788
 21
2316.848907756467
 31
0.0
  0
LINE
  5
27AD4
330
747D
100
AcDbEntity
  8
部品1
100
AcDbLine
 10
6140.110092596787
 20
2056.848907756463
 30
0.0
 11
6920.110092596788
 21
2056.848907756466
 31
0.0
  0
LINE
  5
27AD5
330
747D
100
AcDbEntity
  8
細線
100
AcDbLine
 10
6480.96287074664
 20
2446.84890775647
 30
0.0
 11
6270.110092596787
 21
2657.701685906319
 31
0.0
  0
LINE
  5
27AD6
330
747D
100
AcDbEntity
  8
細線
100
AcDbLine
 10
6305.445783838928
 20
2316.848907756467
 30
0.0
 11
6435.445783838925
 21
2446.84890775647
 31
0.0
  0
LINE
  5
27AD7
330
747D
100
AcDbEntity
  8
細線
100
AcDbLine
 10
6425.808541814091
 20
2446.84890775647
 30
0.0
 11
6270.110092596791
 21
2602.547356973766
 31
0.0
  0
LINE
  5
27AD8
330
747D
100
AcDbEntity
  8
細線
100
AcDbLine
 10
6268.676231217228
 20
2316.848907756467
 30
0.0
 11
6398.676231217222
 21
2446.84890775647
 31
0.0
  0
LINE
  5
27AD9
330
747D
100
AcDbEntity
  8
細線
100
AcDbLine
 10
6270.110092596791
 20
2316.848907756467
 30
0.0
 11
6339.776882628878
 21
2056.848907756459
 31
0.0
  0
LINE
  5
27ADA
330
747D
100
AcDbEntity
  8
細線
100
AcDbLine
 10
6140.110092596787
 20
2316.848907756467
 30
0.0
 11
6209.776882628881
 21
2056.848907756459
 31
0.0
  0
LINE
  5
27ADB
330
747D
100
AcDbEntity
  8
部品1
100
AcDbLine
 10
6140.110092596787
 20
2056.848907756463
 30
0.0
 11
6140.110092596787
 21
2446.84890775647
 31
0.0
  0
LINE
  5
27ADC
330
747D
100
AcDbEntity
  8
細線
100
AcDbLine
 10
6192.360185120855
 20
2121.848907756467
 30
0.0
 11
6174.943487612832
 21
2056.848907756463
 31
0.0
  0
LINE
  5
27ADD
330
747D
100
AcDbEntity
  8
細線
100
AcDbLine
 10
6322.360185120858
 20
2121.848907756467
 30
0.0
 11
6304.943487612832
 21
2056.848907756463
 31
0.0
  0
LINE
  5
27ADE
330
747D
100
AcDbEntity
  8
部品1
100
AcDbLine
 10
6270.110092596791
 20
2446.84890775647
 30
0.0
 11
6270.110092596791
 21
2706.848907756466
 31
0.0
  0
LINE
  5
27ADF
330
747D
100
AcDbEntity
  8
細線
100
AcDbLine
 10
6174.943487612832
 20
2316.848907756467
 30
0.0
 11
6157.526790104814
 21
2251.848907756463
 31
0.0
  0
LINE
  5
27AE0
330
747D
100
AcDbEntity
  8
細線
100
AcDbLine
 10
6231.906678595525
 20
2316.848907756467
 30
0.0
 11
6361.906678595525
 21
2446.84890775647
 31
0.0
  0
LINE
  5
27AE1
330
747D
100
AcDbEntity
  8
細線
100
AcDbLine
 10
6304.943487612832
 20
2316.848907756467
 30
0.0
 11
6287.52679010481
 21
2251.848907756463
 31
0.0
  0
LINE
  5
27AE2
330
747D
100
AcDbEntity
  8
細線
100
AcDbLine
 10
6400.110092596787
 20
2316.848907756467
 30
0.0
 11
6469.776882628877
 21
2056.848907756463
 31
0.0
  0
LINE
  5
27AE3
330
747D
100
AcDbEntity
  8
細線
100
AcDbLine
 10
6530.110092596787
 20
2316.848907756467
 30
0.0
 11
6599.776882628882
 21
2056.848907756463
 31
0.0
  0
LINE
  5
27AE4
330
747D
100
AcDbEntity
  8
細線
100
AcDbLine
 10
6790.110092596788
 20
2316.848907756467
 30
0.0
 11
6859.776882628877
 21
2056.848907756466
 31
0.0
  0
LINE
  5
27AE5
330
747D
100
AcDbEntity
  8
細線
100
AcDbLine
 10
6660.110092596791
 20
2316.848907756467
 30
0.0
 11
6729.776882628877
 21
2056.848907756463
 31
0.0
  0
LINE
  5
27AE6
330
747D
100
AcDbEntity
  8
部品1
100
AcDbLine
 10
6920.110092596788
 20
2446.84890775647
 30
0.0
 11
6920.110092596788
 21
2056.848907756466
 31
0.0
  0
LINE
  5
27AE7
330
747D
100
AcDbEntity
  8
細線
100
AcDbLine
 10
6452.360185120856
 20
2121.848907756467
 30
0.0
 11
6434.943487612835
 21
2056.848907756466
 31
0.0
  0
LINE
  5
27AE8
330
747D
100
AcDbEntity
  8
細線
100
AcDbLine
 10
6582.360185120855
 20
2121.848907756467
 30
0.0
 11
6564.943487612833
 21
2056.848907756466
 31
0.0
  0
LINE
  5
27AE9
330
747D
100
AcDbEntity
  8
細線
100
AcDbLine
 10
6712.360185120859
 20
2121.848907756467
 30
0.0
 11
6694.943487612832
 21
2056.848907756466
 31
0.0
  0
LINE
  5
27AEA
330
747D
100
AcDbEntity
  8
細線
100
AcDbLine
 10
6842.360185120854
 20
2121.848907756467
 30
0.0
 11
6824.943487612836
 21
2056.848907756466
 31
0.0
  0
LINE
  5
27AEB
330
747D
100
AcDbEntity
  8
細線
100
AcDbLine
 10
6695.445783838924
 20
2316.848907756467
 30
0.0
 11
6825.445783838924
 21
2446.84890775647
 31
0.0
  0
LINE
  5
27AEC
330
747D
100
AcDbEntity
  8
細線
100
AcDbLine
 10
6824.943487612836
 20
2316.848907756467
 30
0.0
 11
6807.526790104811
 21
2251.84890775647
 31
0.0
  0
LINE
  5
27AED
330
747D
100
AcDbEntity
  8
細線
100
AcDbLine
 10
6719.964962787694
 20
2446.84890775647
 30
0.0
 11
6459.964962787697
 21
2706.848907756466
 31
0.0
  0
LINE
  5
27AEE
330
747D
100
AcDbEntity
  8
細線
100
AcDbLine
 10
6775.119291720243
 20
2446.84890775647
 30
0.0
 11
6515.119291720246
 21
2706.848907756466
 31
0.0
  0
LINE
  5
27AEF
330
747D
100
AcDbEntity
  8
部品1
100
AcDbLine
 10
6790.110092596788
 20
2706.848907756466
 30
0.0
 11
6790.110092596788
 21
2446.84890775647
 31
0.0
  0
LINE
  5
27AF0
330
747D
100
AcDbEntity
  8
細線
100
AcDbLine
 10
6434.943487612835
 20
2316.848907756467
 30
0.0
 11
6417.52679010481
 21
2251.84890775647
 31
0.0
  0
LINE
  5
27AF1
330
747D
100
AcDbEntity
  8
細線
100
AcDbLine
 10
6564.943487612833
 20
2316.848907756467
 30
0.0
 11
6547.526790104814
 21
2251.84890775647
 31
0.0
  0
LINE
  5
27AF2
330
747D
100
AcDbEntity
  8
細線
100
AcDbLine
 10
6621.906678595526
 20
2316.848907756467
 30
0.0
 11
6751.906678595521
 21
2446.84890775647
 31
0.0
  0
LINE
  5
27AF3
330
747D
100
AcDbEntity
  8
細線
100
AcDbLine
 10
6658.676231217228
 20
2316.848907756467
 30
0.0
 11
6788.676231217221
 21
2446.84890775647
 31
0.0
  0
LINE
  5
27AF4
330
747D
100
AcDbEntity
  8
細線
100
AcDbLine
 10
6694.943487612832
 20
2316.848907756467
 30
0.0
 11
6677.52679010481
 21
2251.84890775647
 31
0.0
  0
LINE
  5
27AF5
330
747D
100
AcDbEntity
  8
細線
  6
HIDDEN
 48
10.0
100
AcDbLine
 10
8730.438977364995
 20
1926.84890775647
 30
0.0
 11
8880.294229792452
 21
2076.70416018393
 31
0.0
  0
LINE
  5
27AF6
330
747D
100
AcDbEntity
  8
細線
  6
HIDDEN
 48
10.0
100
AcDbLine
 10
8693.669424743296
 20
1926.84890775647
 30
0.0
 11
8880.294229792456
 21
2113.47371280563
 31
0.0
  0
LINE
  5
27AF7
330
747D
100
AcDbEntity
  8
細線
  6
HIDDEN
 48
10.0
100
AcDbLine
 10
8767.208529986699
 20
1926.84890775647
 30
0.0
 11
8880.294229792452
 21
2039.934607562227
 31
0.0
  0
LINE
  5
27AF8
330
747D
100
AcDbEntity
  8
Ｇ．Ｌ
100
AcDbLine
 10
8685.294229792457
 20
2446.848907756467
 30
0.0
 11
9663.019344702298
 21
2446.848907756467
 31
0.0
  0
DIMENSION
  5
27AF9
330
747D
100
AcDbEntity
  8
寸法
 48
50.0
100
AcDbDimension
  2
*D25
 10
9007.78653546097
 20
2446.848907756468
 30
0.0
 11
8907.786535460971
 21
2576.84890775647
 31
0.0
 70
    32
  1
a
 71
     5
 42
260.0
  3
INABA_S40G
100
AcDbAlignedDimension
 13
8685.294229792459
 23
2706.848907756468
 33
0.0
 14
8685.294229792459
 24
2446.848907756468
 34
0.0
 50
90.0
100
AcDbRotatedDimension
1001
ACAD
1000
DSTYLE
1002
{
1070
   174
1070
     0
1070
   272
1070
     1
1070
   288
1070
     0
1070
   341
1005
0
1002
}
  0
TEXT
  5
27AFA
330
747D
100
AcDbEntity
  8
部品1
100
AcDbText
 10
7845.288278313922
 20
1486.57866112631
 30
0.0
 40
104.0
  1
a寸法：100～150mmに対応
  7
STYLE2
100
AcDbText
  0
LINE
  5
27AFB
330
747D
100
AcDbEntity
  8
部品1
 48
50.0
100
AcDbLine
 10
8880.294229792452
 20
1926.84890775647
 30
0.0
 11
8360.294229792456
 21
1926.848907756466
 31
0.0
  0
DIMENSION
  5
27AFC
330
747D
100
AcDbEntity
  8
寸法
 48
50.0
100
AcDbDimension
  2
*D26
 10
8043.965558594267
 20
1926.848907756466
 30
0.0
 11
8043.965558594267
 21
2170.760930807144
 31
0.0
 70
   160
  1
200
 71
     5
 42
520.0000000000016
  3
INABA_S40G
100
AcDbAlignedDimension
 13
8165.294229792456
 23
2446.848907756468
 33
0.0
 14
8360.294229792456
 24
1926.848907756466
 34
0.0
 50
90.0
100
AcDbRotatedDimension
1001
ACAD
1000
DSTYLE
1002
{
1070
   174
1070
     0
1070
   272
1070
     1
1070
   288
1070
     0
1070
   341
1005
0
1002
}
  0
LINE
  5
27AFD
330
747D
100
AcDbEntity
  8
Ｇ．Ｌ
100
AcDbLine
 10
7755.463466575784
 20
2446.848907756467
 30
0.0
 11
8581.294229792456
 21
2446.848907756467
 31
0.0
  0
LINE
  5
27AFE
330
747D
100
AcDbEntity
  8
部品1
100
AcDbLine
 10
7755.463466575784
 20
2706.848907756466
 30
0.0
 11
8581.294229792456
 21
2706.848907756466
 31
0.0
  0
LINE
  5
27AFF
330
747D
100
AcDbEntity
  8
細線
  6
HIDDEN
 48
10.0
100
AcDbLine
 10
8360.294229792456
 20
2111.360065692605
 30
0.0
 11
8572.535253531659
 21
2323.601089431821
 31
0.0
  0
LINE
  5
27B00
330
747D
100
AcDbEntity
  8
細線
  6
HIDDEN
 48
10.0
100
AcDbLine
 10
8360.294229792456
 20
2148.129618314304
 30
0.0
 11
8576.717223787245
 21
2364.552612309097
 31
0.0
  0
LINE
  5
27B01
330
747D
100
AcDbEntity
  8
細線
  6
HIDDEN
 48
10.0
100
AcDbLine
 10
8360.294229792456
 20
2074.590513070905
 30
0.0
 11
8568.353283276069
 21
2282.649566554537
 31
0.0
  0
LINE
  5
27B02
330
747D
100
AcDbEntity
  8
部品1
100
AcDbLine
 10
8580.128430081968
 20
2397.956506665039
 30
0.0
 11
8542.294229792457
 21
2027.468907756468
 31
0.0
  0
LINE
  5
27B03
330
747D
100
AcDbEntity
  8
部品1
100
AcDbLine
 10
8686.460029502951
 20
2397.956506665039
 30
0.0
 11
8724.294229792457
 21
2027.468907756468
 31
0.0
  0
LINE
  5
27B04
330
747D
100
AcDbEntity
  8
部品1
 48
50.0
100
AcDbLine
 10
8360.294229792456
 20
1926.848907756466
 30
0.0
 11
8360.294229792456
 21
2446.848907756467
 31
0.0
  0
LINE
  5
27B05
330
747D
100
AcDbEntity
  8
部品1
100
AcDbLine
 10
8542.294229792457
 20
2027.468907756468
 30
0.0
 11
8724.294229792457
 21
2027.468907756468
 31
0.0
  0
LINE
  5
27B06
330
747D
100
AcDbEntity
  8
部品1
100
AcDbLine
 10
8542.294229792457
 20
2011.868907756467
 30
0.0
 11
8724.294229792457
 21
2011.868907756467
 31
0.0
  0
LINE
  5
27B07
330
747D
100
AcDbEntity
  8
部品1
100
AcDbLine
 10
8542.294229792457
 20
2027.468907756466
 30
0.0
 11
8542.294229792457
 21
2011.868907756467
 31
0.0
  0
LINE
  5
27B08
330
747D
100
AcDbEntity
  8
細線
100
AcDbLine
 10
8613.794229792457
 20
2043.06890775647
 30
0.0
 11
8652.794229792457
 21
2043.068907756464
 31
0.0
  0
LINE
  5
27B09
330
747D
100
AcDbEntity
  8
細線
100
AcDbLine
 10
8613.794229792457
 20
2050.86890775647
 30
0.0
 11
8652.794229792457
 21
2050.868907756463
 31
0.0
  0
LINE
  5
27B0A
330
747D
100
AcDbEntity
  8
細線
100
AcDbLine
 10
8613.794229792457
 20
2102.86890775647
 30
0.0
 11
8652.794229792457
 21
2102.868907756463
 31
0.0
  0
LINE
  5
27B0B
330
747D
100
AcDbEntity
  8
細線
100
AcDbLine
 10
8613.794229792457
 20
2095.068907756471
 30
0.0
 11
8652.794229792457
 21
2095.068907756464
 31
0.0
  0
LINE
  5
27B0C
330
747D
100
AcDbEntity
  8
細線
100
AcDbLine
 10
8613.794229792457
 20
2050.86890775647
 30
0.0
 11
8613.794229792457
 21
2043.068907756464
 31
0.0
  0
LINE
  5
27B0D
330
747D
100
AcDbEntity
  8
細線
100
AcDbLine
 10
8613.794229792457
 20
2102.86890775647
 30
0.0
 11
8613.794229792457
 21
2095.068907756464
 31
0.0
  0
LINE
  5
27B0E
330
747D
100
AcDbEntity
  8
細線
100
AcDbLine
 10
8652.794229792457
 20
2050.868907756463
 30
0.0
 11
8652.794229792457
 21
2043.068907756462
 31
0.0
  0
LINE
  5
27B0F
330
747D
100
AcDbEntity
  8
細線
100
AcDbLine
 10
8652.794229792457
 20
2102.86890775646
 30
0.0
 11
8652.794229792457
 21
2095.068907756461
 31
0.0
  0
LINE
  5
27B10
330
747D
100
AcDbEntity
  8
部品1
100
AcDbLine
 10
8724.294229792457
 20
2027.468907756468
 30
0.0
 11
8724.294229792457
 21
2011.868907756467
 31
0.0
  0
LINE
  5
27B11
330
747D
100
AcDbEntity
  8
細線
100
AcDbLine
 10
8571.28739226592
 20
2446.848907756467
 30
0.0
 11
8311.287392265921
 21
2706.848907756466
 31
0.0
  0
LINE
  5
27B12
330
747D
100
AcDbEntity
  8
細線
100
AcDbLine
 10
8581.294229792456
 20
2491.996399162483
 30
0.0
 11
8366.441721198469
 21
2706.848907756466
 31
0.0
  0
LINE
  5
27B13
330
747D
100
AcDbEntity
  8
細線
100
AcDbLine
 10
8332.285300224866
 20
2446.848907756467
 30
0.0
 11
8165.294229792456
 21
2613.839978188877
 31
0.0
  0
LINE
  5
27B14
330
747D
100
AcDbEntity
  8
部品1
100
AcDbLine
 10
8165.294229792456
 20
2446.848907756467
 30
0.0
 11
8165.294229792456
 21
2706.848907756466
 31
0.0
  0
LINE
  5
27B15
330
747D
100
AcDbEntity
  8
細線
100
AcDbLine
 10
8277.130971292313
 20
2446.848907756467
 30
0.0
 11
8165.294229792456
 21
2558.685649256327
 31
0.0
  0
LINE
  5
27B16
330
747D
100
AcDbEntity
  8
部品1
100
AcDbLine
 10
8593.064507116775
 20
2409.668907756466
 30
0.0
 11
8673.523952468139
 21
2409.668907756459
 31
0.0
  0
ARC
  5
27B17
330
747D
100
AcDbEntity
  8
部品1
100
AcDbCircle
 10
8593.064507116775
 20
2396.668907756466
 30
0.0
 40
13.0
100
AcDbArc
 50
90.0
 51
174.3157584018239
  0
CIRCLE
  5
27B18
330
747D
100
AcDbEntity
  8
細線
100
AcDbCircle
 10
8633.294229792456
 20
2380.548907756467
 30
0.0
 40
20.8
  0
LINE
  5
27B19
330
747D
100
AcDbEntity
  8
細線
100
AcDbLine
 10
8613.794229792457
 20
2290.068907756469
 30
0.0
 11
8615.094229792456
 21
2290.068907756469
 31
0.0
  0
LINE
  5
27B1A
330
747D
100
AcDbEntity
  8
細線
100
AcDbLine
 10
8613.794229792457
 20
2297.868907756471
 30
0.0
 11
8652.794229792457
 21
2297.868907756463
 31
0.0
  0
ARC
  5
27B1B
330
747D
100
AcDbEntity
  8
細線
100
AcDbCircle
 10
8633.294229792456
 20
2329.068907756462
 30
0.0
 40
10.4
100
AcDbArc
 50
180.0
 51
0.0
  0
LINE
  5
27B1C
330
747D
100
AcDbEntity
  8
細線
100
AcDbLine
 10
8613.794229792457
 20
2297.868907756471
 30
0.0
 11
8613.794229792457
 21
2290.068907756464
 31
0.0
  0
LINE
  5
27B1D
330
747D
100
AcDbEntity
  8
細線
100
AcDbLine
 10
8613.794229792457
 20
2296.04890775646
 30
0.0
 11
8652.794229792457
 21
2296.048907756467
 31
0.0
  0
LINE
  5
27B1E
330
747D
100
AcDbEntity
  8
細線
100
AcDbLine
 10
8623.054267105763
 20
2274.468907756455
 30
0.0
 11
8643.534192479156
 21
2274.468907756462
 31
0.0
  0
LINE
  5
27B1F
330
747D
100
AcDbEntity
  8
細線
100
AcDbLine
 10
8615.094229792456
 20
2296.04890775646
 30
0.0
 11
8615.094229792456
 21
2290.068907756464
 31
0.0
  0
LINE
  5
27B20
330
747D
100
AcDbEntity
  8
細線
100
AcDbLine
 10
8615.094229792456
 20
2290.068907756462
 30
0.0
 11
8618.009526105009
 21
2278.407722506269
 31
0.0
  0
ARC
  5
27B21
330
747D
100
AcDbEntity
  8
細線
100
AcDbCircle
 10
8623.054267105763
 20
2279.668907756459
 30
0.0
 40
5.2
100
AcDbArc
 50
194.0362434679821
 51
270.0
  0
LINE
  5
27B22
330
747D
100
AcDbEntity
  8
細線
100
AcDbLine
 10
8651.494229792458
 20
2296.048907756464
 30
0.0
 11
8651.494229792458
 21
2290.068907756464
 31
0.0
  0
LINE
  5
27B23
330
747D
100
AcDbEntity
  8
細線
100
AcDbLine
 10
8651.494229792458
 20
2290.068907756462
 30
0.0
 11
8648.578933479905
 21
2278.407722506269
 31
0.0
  0
ARC
  5
27B24
330
747D
100
AcDbEntity
  8
細線
100
AcDbCircle
 10
8643.534192479156
 20
2279.668907756459
 30
0.0
 40
5.2
100
AcDbArc
 50
270.0
 51
345.9637565320164
  0
LINE
  5
27B25
330
747D
100
AcDbEntity
  8
細線
100
AcDbLine
 10
8652.794229792457
 20
2297.868907756463
 30
0.0
 11
8652.794229792457
 21
2290.068907756462
 31
0.0
  0
LINE
  5
27B26
330
747D
100
AcDbEntity
  8
細線
100
AcDbLine
 10
8651.494229792458
 20
2290.068907756469
 30
0.0
 11
8652.794229792457
 21
2290.068907756464
 31
0.0
  0
LINE
  5
27B27
330
747D
100
AcDbEntity
  8
細線
100
AcDbLine
 10
8643.694229792455
 20
2362.535579357751
 30
0.0
 11
8643.694229792455
 21
2329.068907756462
 31
0.0
  0
LINE
  5
27B28
330
747D
100
AcDbEntity
  8
細線
100
AcDbLine
 10
8622.894229792459
 20
2362.535579357751
 30
0.0
 11
8622.894229792459
 21
2329.068907756462
 31
0.0
  0
LINE
  5
27B29
330
747D
100
AcDbEntity
  8
細線
  6
HIDDEN
 48
10.0
100
AcDbLine
 10
8685.294229792457
 20
2436.360065692621
 30
0.0
 11
8695.783071856306
 21
2446.848907756467
 31
0.0
  0
LINE
  5
27B2A
330
747D
100
AcDbEntity
  8
細線
  6
HIDDEN
 48
10.0
100
AcDbLine
 10
8686.005909146409
 20
2400.302192424883
 30
0.0
 11
8732.552624477998
 21
2446.84890775647
 31
0.0
  0
ARC
  5
27B2B
330
747D
100
AcDbEntity
  8
部品1
100
AcDbCircle
 10
8673.523952468139
 20
2396.668907756459
 30
0.0
 40
13.0
100
AcDbArc
 50
5.684241598176082
 51
90.0
  0
CIRCLE
  5
27B2C
330
747D
100
AcDbEntity
  8
細線
100
AcDbCircle
 10
8633.294229792456
 20
2582.048907756471
 30
0.0
 40
7.8
  0
CIRCLE
  5
27B2D
330
747D
100
AcDbEntity
  8
細線
100
AcDbCircle
 10
8633.294229792456
 20
2582.048907756471
 30
0.0
 40
9.099999999999999
  0
ARC
  5
27B2E
330
747D
100
AcDbEntity
  8
細線
100
AcDbCircle
 10
8633.294229792456
 20
2725.048907756467
 30
0.0
 40
10.4
100
AcDbArc
 50
0.0
 51
180.0
  0
ARC
  5
27B2F
330
747D
100
AcDbEntity
  8
細線
100
AcDbCircle
 10
8633.294229792456
 20
2673.048907756467
 30
0.0
 40
10.4
100
AcDbArc
 50
180.0
 51
0.0
  0
LINE
  5
27B30
330
747D
100
AcDbEntity
  8
細線
100
AcDbLine
 10
8622.894229792459
 20
2725.048907756467
 30
0.0
 11
8622.894229792459
 21
2673.048907756467
 31
0.0
  0
LINE
  5
27B31
330
747D
100
AcDbEntity
  8
細線
100
AcDbLine
 10
8643.694229792455
 20
2725.048907756467
 30
0.0
 11
8643.694229792455
 21
2673.048907756467
 31
0.0
  0
LINE
  5
27B32
330
747D
100
AcDbEntity
  8
部品1
 48
50.0
100
AcDbLine
 10
8880.294229792456
 20
2446.848907756467
 30
0.0
 11
8880.294229792452
 21
1926.84890775647
 31
0.0
  0
TEXT
  5
27B33
330
747D
100
AcDbEntity
  8
部品1
100
AcDbText
 10
9185.226840982949
 20
2457.126761939042
 30
0.0
 40
156.0
  1
▽G.L
  7
STYLE1
100
AcDbText
  0
LINE
  5
27B34
330
747D
100
AcDbEntity
  8
細線
 48
10.0
100
AcDbLine
 10
10080.88709845032
 20
2047.855251215398
 30
0.0
 11
10479.88075499137
 21
2446.848907756467
 31
0.0
  0
LINE
  5
27B35
330
747D
100
AcDbEntity
  8
細線
 48
10.0
100
AcDbLine
 10
10044.11754582862
 20
2047.855251215398
 30
0.0
 11
10443.11120236968
 21
2446.848907756467
 31
0.0
  0
LINE
  5
27B36
330
747D
100
AcDbEntity
  8
細線
 48
10.0
100
AcDbLine
 10
9839.435617892814
 20
2397.829228788294
 30
0.0
 11
9888.455296860994
 21
2446.848907756467
 31
0.0
  0
LINE
  5
27B37
330
747D
100
AcDbEntity
  8
細線
 48
10.0
100
AcDbLine
 10
9839.435617892821
 20
2324.290123544903
 30
0.0
 11
9961.994402104371
 21
2446.848907756467
 31
0.0
  0
LINE
  5
27B38
330
747D
100
AcDbEntity
  8
細線
 48
10.0
100
AcDbLine
 10
9839.435617892821
 20
2361.0596761666
 30
0.0
 11
9925.224849482679
 21
2446.848907756467
 31
0.0
  0
LINE
  5
27B39
330
747D
100
AcDbEntity
  8
細線
100
AcDbLine
 10
10361.10312260934
 20
2446.848907756467
 30
0.0
 11
10249.26638110948
 21
2558.685649256327
 31
0.0
  0
LINE
  5
27B3A
330
747D
100
AcDbEntity
  8
細線
100
AcDbLine
 10
10416.25745154189
 20
2446.848907756467
 30
0.0
 11
10249.26638110948
 21
2613.839978188877
 31
0.0
  0
LINE
  5
27B3B
330
747D
100
AcDbEntity
  8
部品1
100
AcDbLine
 10
10249.26638110948
 20
2446.848907756467
 30
0.0
 11
10249.26638110948
 21
2706.84890775647
 31
0.0
  0
TEXT
  5
27B3C
330
747D
100
AcDbEntity
  8
部品1
100
AcDbText
 10
6193.054244156535
 20
3964.223766193005
 30
0.0
 40
156.0
  1
基礎詳細
  7
STYLE2
100
AcDbText
  0
TEXT
  5
27B3D
330
747D
100
AcDbEntity
  8
部品1
100
AcDbText
 10
7943.573586720434
 20
3795.630535104751
 30
0.0
 40
156.0
  1
地盤が土の場合
  7
STYLE2
100
AcDbText
  0
LINE
  5
27B3E
330
747D
100
AcDbEntity
  8
部品1
100
AcDbLine
 10
7755.463466575784
 20
2829.048907756467
 30
0.0
 11
8685.294229792457
 21
2829.048907756467
 31
0.0
  0
LINE
  5
27B3F
330
747D
100
AcDbEntity
  8
部品1
100
AcDbLine
 10
7755.463466575784
 20
2836.84890775647
 30
0.0
 11
8542.294229792457
 21
2836.848907756468
 31
0.0
  0
LINE
  5
27B40
330
747D
100
AcDbEntity
  8
細線
 48
50.0
100
AcDbLine
 10
7976.794229792457
 20
3486.848907756465
 30
0.0
 11
7976.794229792457
 21
2836.848907756468
 31
0.0
  0
LINE
  5
27B41
330
747D
100
AcDbEntity
  8
細線
 48
50.0
100
AcDbLine
 10
8015.794229792456
 20
3486.848907756465
 30
0.0
 11
8015.794229792456
 21
2836.848907756468
 31
0.0
  0
LINE
  5
27B42
330
747D
100
AcDbEntity
  8
細線
 48
50.0
100
AcDbLine
 10
8379.794229792457
 20
3486.848907756465
 30
0.0
 11
8379.794229792457
 21
2836.848907756468
 31
0.0
  0
LINE
  5
27B43
330
747D
100
AcDbEntity
  8
細線
 48
50.0
100
AcDbLine
 10
8340.794229792455
 20
3486.848907756465
 30
0.0
 11
8340.794229792455
 21
2836.848907756468
 31
0.0
  0
LINE
  5
27B44
330
747D
100
AcDbEntity
  8
部品1
100
AcDbLine
 10
8542.294229792457
 20
3486.848907756465
 30
0.0
 11
8542.29422979246
 21
2829.048907756471
 31
0.0
  0
LINE
  5
27B45
330
747D
100
AcDbEntity
  8
部品1
100
AcDbLine
 10
8594.294229792456
 20
2803.048907756467
 30
0.0
 11
8672.294229792456
 21
2803.048907756467
 31
0.0
  0
ARC
  5
27B46
330
747D
100
AcDbEntity
  8
部品1
100
AcDbCircle
 10
8594.294229792456
 20
2790.048907756467
 30
0.0
 40
13.0
100
AcDbArc
 50
90.0
 51
180.0
  0
ARC
  5
27B47
330
747D
100
AcDbEntity
  8
部品1
100
AcDbCircle
 10
8672.294229792456
 20
2790.048907756467
 30
0.0
 40
13.0
100
AcDbArc
 50
0.0
 51
90.0
  0
LINE
  5
27B48
330
747D
100
AcDbEntity
  8
細線
 48
50.0
100
AcDbLine
 10
10463.76638110948
 20
3486.848907756467
 30
0.0
 11
10463.76638110948
 21
2836.84890775647
 31
0.0
  0
LINE
  5
27B49
330
747D
100
AcDbEntity
  8
細線
 48
50.0
100
AcDbLine
 10
10424.76638110948
 20
3486.848907756467
 30
0.0
 11
10424.76638110948
 21
2836.84890775647
 31
0.0
  0
LINE
  5
27B4A
330
747D
100
AcDbEntity
  8
細線
 48
50.0
100
AcDbLine
 10
10099.76638110948
 20
3486.848907756467
 30
0.0
 11
10099.76638110948
 21
2836.84890775647
 31
0.0
  0
LINE
  5
27B4B
330
747D
100
AcDbEntity
  8
細線
 48
50.0
100
AcDbLine
 10
10060.76638110948
 20
3486.848907756467
 30
0.0
 11
10060.76638110948
 21
2836.84890775647
 31
0.0
  0
LINE
  5
27B4C
330
747D
100
AcDbEntity
  8
部品1
 48
50.0
100
AcDbLine
 10
11827.77421685029
 20
3719.859883861187
 30
0.0
 11
11827.77421685029
 21
1223.859883861187
 31
0.0
  0
LINE
  5
27B4D
330
747D
100
AcDbEntity
  8
部品1
100
AcDbLine
 10
10770.43218081998
 20
2832.936506665041
 30
0.0
 11
10808.26638110948
 21
2462.448907756469
 31
0.0
  0
LINE
  5
27B4E
330
747D
100
AcDbEntity
  8
部品1
100
AcDbLine
 10
10664.100581399
 20
2832.936506665041
 30
0.0
 11
10626.26638110948
 21
2462.448907756469
 31
0.0
  0
CIRCLE
  5
27B4F
330
747D
100
AcDbEntity
  8
部品1
100
AcDbCircle
 10
10717.26638110948
 20
2764.048907756467
 30
0.0
 40
20.8
  0
LINE
  5
27B50
330
747D
100
AcDbEntity
  8
細線
100
AcDbLine
 10
10706.86638110948
 20
2816.048907756465
 30
0.0
 11
10706.86638110948
 21
2782.062236155185
 31
0.0
  0
LINE
  5
27B51
330
747D
100
AcDbEntity
  8
細線
100
AcDbLine
 10
10727.66638110948
 20
2816.048907756465
 30
0.0
 11
10727.66638110948
 21
2782.062236155185
 31
0.0
  0
LINE
  5
27B52
330
747D
100
AcDbEntity
  8
細線
100
AcDbLine
 10
12590.93974822863
 20
2474.601089237669
 30
0.0
 11
12228.69192970982
 21
2836.848907756468
 31
0.0
  0
LINE
  5
27B53
330
747D
100
AcDbEntity
  8
細線
100
AcDbLine
 10
12596.05022710035
 20
2524.644939298491
 30
0.0
 11
12283.84625864238
 21
2836.848907756468
 31
0.0
  0
LINE
  5
27B54
330
747D
100
AcDbEntity
  8
部品1
100
AcDbLine
 10
12212.69876723636
 20
2446.848907756463
 30
0.0
 11
12212.69876723636
 21
2836.848907756468
 31
0.0
  0
DIMENSION
  5
27B55
330
747D
100
AcDbEntity
  8
寸法
 48
50.0
100
AcDbDimension
  2
*D27
 10
12996.26940655118
 20
2446.848907756468
 30
0.0
 11
12896.26940655118
 21
2641.84890775647
 31
0.0
 70
    32
  1
c
 71
     5
 42
390.0
  3
INABA_S40G
100
AcDbAlignedDimension
 13
12732.84318671893
 23
2836.848907756468
 33
0.0
 14
12771.69876723636
 24
2446.848907756468
 34
0.0
 50
90.0
100
AcDbRotatedDimension
1001
ACAD
1000
DSTYLE
1002
{
1070
   174
1070
     0
1070
   272
1070
     1
1070
   288
1070
     0
1070
   341
1005
0
1002
}
  0
LINE
  5
27B56
330
747D
100
AcDbEntity
  8
部品1
100
AcDbLine
 10
12627.53296752587
 20
2832.936506665037
 30
0.0
 11
12589.69876723636
 21
2462.448907756469
 31
0.0
  0
LINE
  5
27B57
330
747D
100
AcDbEntity
  8
部品1
100
AcDbLine
 10
12733.86456694685
 20
2832.936506665037
 30
0.0
 11
12771.69876723636
 21
2462.448907756469
 31
0.0
  0
LINE
  5
27B58
330
747D
100
AcDbEntity
  8
細線
100
AcDbLine
 10
12618.1956355445
 20
2741.501622895397
 30
0.0
 11
12522.84835068344
 21
2836.848907756468
 31
0.0
  0
LINE
  5
27B59
330
747D
100
AcDbEntity
  8
細線
100
AcDbLine
 10
12670.29876723636
 20
2816.048907756464
 30
0.0
 11
12670.29876723636
 21
2781.542236155185
 31
0.0
  0
LINE
  5
27B5A
330
747D
100
AcDbEntity
  8
細線
100
AcDbLine
 10
12691.09876723636
 20
2816.048907756464
 30
0.0
 11
12691.09876723636
 21
2781.542236155185
 31
0.0
  0
CIRCLE
  5
27B5B
330
747D
100
AcDbEntity
  8
部品1
100
AcDbCircle
 10
12680.69876723636
 20
2763.528907756465
 30
0.0
 40
20.8
  0
LINE
  5
27B5C
330
747D
100
AcDbEntity
  8
部品1
 48
50.0
100
AcDbLine
 10
13907.77421685029
 20
4343.859883861188
 30
0.0
 11
13907.77421685029
 21
1223.859883861187
 31
0.0
  0
LINE
  5
27B5D
330
747D
100
AcDbEntity
  8
Ｇ．Ｌ
100
AcDbLine
 10
11923.06215139804
 20
2446.848907756467
 30
0.0
 11
13801.42136400473
 21
2446.848907756467
 31
0.0
  0
TEXT
  5
27B5E
330
747D
100
AcDbEntity
  8
部品1
100
AcDbText
 10
11890.82304915549
 20
1839.962526662428
 30
0.0
 40
104.0
  1
c寸法：135～175,190mmに対応
  7
STYLE2
100
AcDbText
  0
TEXT
  5
27B5F
330
747D
100
AcDbEntity
  8
部品1
100
AcDbText
 10
11896.14123097368
 20
1650.674647874548
 30
0.0
 40
104.0
  1
\U+203BオールアンカーM10(市販品)
  7
STYLE2
100
AcDbText
  0
TEXT
  5
27B60
330
747D
100
AcDbEntity
  8
部品1
100
AcDbText
 10
11897.9139582464
 20
1456.068587268488
 30
0.0
 40
104.0
  1
  が4本必要になります。
  7
STYLE2
100
AcDbText
  0
LINE
  5
27B61
330
747D
100
AcDbEntity
  8
細線
 48
10.0
100
AcDbLine
 10
11226.96846208935
 20
2047.855251215398
 30
0.0
 11
11625.96211863041
 21
2446.848907756467
 31
0.0
  0
LINE
  5
27B62
330
747D
100
AcDbEntity
  8
細線
 48
10.0
100
AcDbLine
 10
11190.19890946765
 20
2047.855251215398
 30
0.0
 11
11589.19256600871
 21
2446.848907756467
 31
0.0
  0
LINE
  5
27B63
330
747D
100
AcDbEntity
  8
細線
 48
10.0
100
AcDbLine
 10
11153.42935684595
 20
2047.855251215398
 30
0.0
 11
11552.42301338701
 21
2446.848907756467
 31
0.0
  0
TEXT
  5
27B64
330
747D
100
AcDbEntity
  8
部品1
100
AcDbText
 10
11256.10234535837
 20
2457.126761939042
 30
0.0
 40
156.0
  1
▽G.L
  7
STYLE1
100
AcDbText
  0
LINE
  5
27B65
330
747D
100
AcDbEntity
  8
細線
 48
10.0
100
AcDbLine
 10
10635.54300395899
 20
2047.855251215398
 30
0.0
 11
11034.53666050004
 21
2446.848907756467
 31
0.0
  0
LINE
  5
27B66
330
747D
100
AcDbEntity
  8
細線
 48
10.0
100
AcDbLine
 10
10598.77345133729
 20
2047.855251215398
 30
0.0
 11
10997.76710787834
 21
2446.848907756467
 31
0.0
  0
LINE
  5
27B67
330
747D
100
AcDbEntity
  8
細線
 48
10.0
100
AcDbLine
 10
10672.31255658069
 20
2047.855251215398
 30
0.0
 11
11071.30621312175
 21
2446.848907756467
 31
0.0
  0
DIMENSION
  5
27B68
330
747D
100
AcDbEntity
  8
寸法
 48
50.0
100
AcDbDimension
  2
*D28
 10
11071.85959484842
 20
2446.848907756468
 30
0.0
 11
10971.85959484842
 21
2576.848907756471
 31
0.0
 70
    32
  1
b
 71
     5
 42
260.0000000000018
  3
INABA_S40G
100
AcDbAlignedDimension
 13
10782.98237314664
 23
2706.84890775647
 33
0.0
 14
10808.26638110948
 24
2446.848907756468
 34
0.0
 50
90.0
100
AcDbRotatedDimension
1001
ACAD
1000
DSTYLE
1002
{
1070
   174
1070
     0
1070
   272
1070
     1
1070
   288
1070
     0
1070
   341
1005
0
1002
}
  0
LINE
  5
27B69
330
747D
100
AcDbEntity
  8
部品1
100
AcDbLine
 10
10704.26638110948
 20
2466.348907756466
 30
0.0
 11
10704.26638110948
 21
2514.448907756469
 31
0.0
  0
LINE
  5
27B6A
330
747D
100
AcDbEntity
  8
部品1
100
AcDbLine
 10
10730.26638110948
 20
2466.348907756466
 30
0.0
 11
10730.26638110948
 21
2514.448907756469
 31
0.0
  0
LINE
  5
27B6B
330
747D
100
AcDbEntity
  8
部品1
100
AcDbLine
 10
10626.26638110948
 20
2462.448907756469
 30
0.0
 11
10808.26638110948
 21
2462.448907756469
 31
0.0
  0
LINE
  5
27B6C
330
747D
100
AcDbEntity
  8
部品1
100
AcDbLine
 10
10626.26638110948
 20
2446.848907756467
 30
0.0
 11
10808.26638110948
 21
2446.848907756467
 31
0.0
  0
LINE
  5
27B6D
330
747D
100
AcDbEntity
  8
部品1
100
AcDbLine
 10
10678.26638110948
 20
2466.348907756466
 30
0.0
 11
10756.26638110948
 21
2466.348907756474
 31
0.0
  0
LINE
  5
27B6E
330
747D
100
AcDbEntity
  8
部品1
100
AcDbLine
 10
10695.16638110948
 20
2487.148907756469
 30
0.0
 11
10739.36638110948
 21
2487.148907756469
 31
0.0
  0
LINE
  5
27B6F
330
747D
100
AcDbEntity
  8
部品1
100
AcDbLine
 10
10691.26638110948
 20
2483.248907756472
 30
0.0
 11
10743.26638110948
 21
2483.248907756472
 31
0.0
  0
ARC
  5
27B70
330
747D
100
AcDbEntity
  8
部品1
100
AcDbCircle
 10
10717.26638110948
 20
2455.833684569405
 30
0.0
 40
30.34129961614032
100
AcDbArc
 50
64.63020194521458
 51
115.3697980547854
  0
LINE
  5
27B71
330
747D
100
AcDbEntity
  8
部品1
100
AcDbLine
 10
10696.46638110949
 20
2348.828907756468
 30
0.0
 11
10706.75131917931
 21
2347.286167045997
 31
0.0
  0
LINE
  5
27B72
330
747D
100
AcDbEntity
  8
部品1
100
AcDbLine
 10
10697.62343664234
 20
2356.54261130884
 30
0.0
 11
10707.90837471217
 21
2354.999870598364
 31
0.0
  0
LINE
  5
27B73
330
747D
100
AcDbEntity
  8
部品1
100
AcDbLine
 10
10698.78049217519
 20
2364.256314861214
 30
0.0
 11
10709.06543024502
 21
2362.713574150737
 31
0.0
  0
LINE
  5
27B74
330
747D
100
AcDbEntity
  8
部品1
100
AcDbLine
 10
10699.93754770804
 20
2371.970018413582
 30
0.0
 11
10710.22248577788
 21
2370.427277703107
 31
0.0
  0
LINE
  5
27B75
330
747D
100
AcDbEntity
  8
部品1
100
AcDbLine
 10
10701.0946032409
 20
2379.683721965958
 30
0.0
 11
10711.37954131073
 21
2378.140981255485
 31
0.0
  0
LINE
  5
27B76
330
747D
100
AcDbEntity
  8
部品1
100
AcDbLine
 10
10702.25165877375
 20
2387.397425518328
 30
0.0
 11
10712.53659684358
 21
2385.854684807851
 31
0.0
  0
LINE
  5
27B77
330
747D
100
AcDbEntity
  8
部品1
100
AcDbLine
 10
10703.40871430661
 20
2395.111129070702
 30
0.0
 11
10713.69365237644
 21
2393.568388360225
 31
0.0
  0
LINE
  5
27B78
330
747D
100
AcDbEntity
  8
部品1
100
AcDbLine
 10
10626.26638110948
 20
2462.448907756469
 30
0.0
 11
10626.26638110948
 21
2446.848907756467
 31
0.0
  0
LINE
  5
27B79
330
747D
100
AcDbEntity
  8
部品1
100
AcDbLine
 10
10697.76638110948
 20
2488.968907756472
 30
0.0
 11
10704.26638110948
 21
2488.968907756472
 31
0.0
  0
LINE
  5
27B7A
330
747D
100
AcDbEntity
  8
部品1
100
AcDbLine
 10
10697.76638110948
 20
2488.968907756472
 30
0.0
 11
10697.76638110948
 21
2487.148907756469
 31
0.0
  0
LINE
  5
27B7B
330
747D
100
AcDbEntity
  8
部品1
100
AcDbLine
 10
10691.26638110948
 20
2466.348907756466
 30
0.0
 11
10691.26638110948
 21
2483.248907756472
 31
0.0
  0
LINE
  5
27B7C
330
747D
100
AcDbEntity
  8
部品1
100
AcDbLine
 10
10695.16638110948
 20
2487.148907756469
 30
0.0
 11
10691.26638110948
 21
2483.248907756472
 31
0.0
  0
LINE
  5
27B7D
330
747D
100
AcDbEntity
  8
部品1
100
AcDbLine
 10
10678.26638110948
 20
2462.448907756469
 30
0.0
 11
10678.26638110948
 21
2466.348907756466
 31
0.0
  0
ARC
  5
27B7E
330
747D
100
AcDbEntity
  8
部品1
100
AcDbCircle
 10
10697.76638110948
 20
2477.379726529056
 30
0.0
 40
8.757698800495116
100
AcDbArc
 50
42.08048849858188
 51
137.9195115014181
  0
LINE
  5
27B7F
330
747D
100
AcDbEntity
  8
部品1
100
AcDbLine
 10
10704.26638110948
 20
2446.848907756467
 30
0.0
 11
10704.26638110948
 21
2400.82890775647
 31
0.0
  0
LINE
  5
27B80
330
747D
100
AcDbEntity
  8
部品1
100
AcDbLine
 10
10704.26638110948
 20
2400.82890775647
 30
0.0
 11
10696.46638110949
 21
2348.828907756468
 31
0.0
  0
LINE
  5
27B81
330
747D
100
AcDbEntity
  8
部品1
100
AcDbLine
 10
10808.26638110948
 20
2462.448907756469
 30
0.0
 11
10808.26638110948
 21
2446.848907756467
 31
0.0
  0
LINE
  5
27B82
330
747D
100
AcDbEntity
  8
部品1
100
AcDbLine
 10
10736.76638110948
 20
2488.968907756465
 30
0.0
 11
10736.76638110948
 21
2487.148907756469
 31
0.0
  0
LINE
  5
27B83
330
747D
100
AcDbEntity
  8
部品1
100
AcDbLine
 10
10743.26638110948
 20
2466.348907756474
 30
0.0
 11
10743.26638110948
 21
2483.248907756472
 31
0.0
  0
LINE
  5
27B84
330
747D
100
AcDbEntity
  8
部品1
100
AcDbLine
 10
10739.36638110948
 20
2487.148907756469
 30
0.0
 11
10743.26638110948
 21
2483.248907756472
 31
0.0
  0
LINE
  5
27B85
330
747D
100
AcDbEntity
  8
部品1
100
AcDbLine
 10
10756.26638110948
 20
2462.448907756469
 30
0.0
 11
10756.26638110948
 21
2466.348907756481
 31
0.0
  0
LINE
  5
27B86
330
747D
100
AcDbEntity
  8
部品1
100
AcDbLine
 10
10730.26638110948
 20
2488.968907756472
 30
0.0
 11
10736.76638110948
 21
2488.968907756472
 31
0.0
  0
ARC
  5
27B87
330
747D
100
AcDbEntity
  8
部品1
100
AcDbCircle
 10
10736.76638110948
 20
2477.379726529056
 30
0.0
 40
8.757698800495116
100
AcDbArc
 50
42.08048849858188
 51
137.9195115014181
  0
LINE
  5
27B88
330
747D
100
AcDbEntity
  8
部品1
100
AcDbLine
 10
10730.26638110948
 20
2446.848907756467
 30
0.0
 11
10730.26638110948
 21
2400.82890775647
 31
0.0
  0
LINE
  5
27B89
330
747D
100
AcDbEntity
  8
部品1
100
AcDbLine
 10
10714.78273028588
 20
2400.82890775647
 30
0.0
 11
10719.75003193308
 21
2400.82890775647
 31
0.0
  0
LINE
  5
27B8A
330
747D
100
AcDbEntity
  8
部品1
100
AcDbLine
 10
10738.06638110948
 20
2348.828907756468
 30
0.0
 11
10730.26638110948
 21
2400.82890775647
 31
0.0
  0
LINE
  5
27B8B
330
747D
100
AcDbEntity
  8
部品1
100
AcDbLine
 10
10714.78273028588
 20
2400.82890775647
 30
0.0
 11
10706.75131917931
 21
2347.286167045997
 31
0.0
  0
LINE
  5
27B8C
330
747D
100
AcDbEntity
  8
部品1
100
AcDbLine
 10
10727.78144303965
 20
2347.286167045997
 30
0.0
 11
10719.75003193308
 21
2400.82890775647
 31
0.0
  0
LINE
  5
27B8D
330
747D
100
AcDbEntity
  8
部品1
100
AcDbLine
 10
10727.78144303965
 20
2347.286167045997
 30
0.0
 11
10738.06638110948
 21
2348.828907756468
 31
0.0
  0
LINE
  5
27B8E
330
747D
100
AcDbEntity
  8
部品1
100
AcDbLine
 10
10726.62438750679
 20
2354.999870598364
 30
0.0
 11
10736.90932557663
 21
2356.54261130884
 31
0.0
  0
LINE
  5
27B8F
330
747D
100
AcDbEntity
  8
部品1
100
AcDbLine
 10
10725.46733197395
 20
2362.713574150737
 30
0.0
 11
10735.75227004377
 21
2364.256314861214
 31
0.0
  0
LINE
  5
27B90
330
747D
100
AcDbEntity
  8
部品1
100
AcDbLine
 10
10724.31027644109
 20
2370.427277703107
 30
0.0
 11
10734.59521451092
 21
2371.970018413582
 31
0.0
  0
LINE
  5
27B91
330
747D
100
AcDbEntity
  8
部品1
100
AcDbLine
 10
10723.15322090824
 20
2378.140981255485
 30
0.0
 11
10733.43815897807
 21
2379.683721965958
 31
0.0
  0
LINE
  5
27B92
330
747D
100
AcDbEntity
  8
部品1
100
AcDbLine
 10
10721.99616537538
 20
2385.854684807851
 30
0.0
 11
10732.28110344521
 21
2387.397425518328
 31
0.0
  0
LINE
  5
27B93
330
747D
100
AcDbEntity
  8
部品1
100
AcDbLine
 10
10720.83910984253
 20
2393.568388360225
 30
0.0
 11
10731.12404791235
 21
2395.111129070702
 31
0.0
  0
LINE
  5
27B94
330
747D
100
AcDbEntity
  8
部品1
100
AcDbLine
 10
10697.76638110948
 20
2533.168907756473
 30
0.0
 11
10736.76638110948
 21
2533.168907756473
 31
0.0
  0
LINE
  5
27B95
330
747D
100
AcDbEntity
  8
部品1
100
AcDbLine
 10
10697.76638110948
 20
2540.968907756473
 30
0.0
 11
10736.76638110948
 21
2540.968907756473
 31
0.0
  0
LINE
  5
27B96
330
747D
100
AcDbEntity
  8
部品1
100
AcDbLine
 10
10704.26638110948
 20
2514.448907756469
 30
0.0
 11
10730.26638110948
 21
2514.448907756469
 31
0.0
  0
LINE
  5
27B97
330
747D
100
AcDbEntity
  8
細線
100
AcDbLine
 10
10697.76638110948
 20
2732.84890775647
 30
0.0
 11
10736.76638110948
 21
2732.84890775647
 31
0.0
  0
LINE
  5
27B98
330
747D
100
AcDbEntity
  8
細線
100
AcDbLine
 10
10697.76638110948
 20
2725.048907756471
 30
0.0
 11
10736.76638110948
 21
2725.048907756471
 31
0.0
  0
LINE
  5
27B99
330
747D
100
AcDbEntity
  8
部品1
100
AcDbLine
 10
10697.76638110948
 20
2540.968907756473
 30
0.0
 11
10697.76638110948
 21
2533.168907756473
 31
0.0
  0
LINE
  5
27B9A
330
747D
100
AcDbEntity
  8
細線
100
AcDbLine
 10
10697.76638110948
 20
2732.84890775647
 30
0.0
 11
10697.76638110948
 21
2725.048907756471
 31
0.0
  0
LINE
  5
27B9B
330
747D
100
AcDbEntity
  8
部品1
100
AcDbLine
 10
10736.76638110948
 20
2540.968907756465
 30
0.0
 11
10736.76638110948
 21
2533.168907756466
 31
0.0
  0
LINE
  5
27B9C
330
747D
100
AcDbEntity
  8
部品1
100
AcDbLine
 10
10708.16638110948
 20
2530.377672587227
 30
0.0
 11
10726.36638110948
 21
2530.377672587227
 31
0.0
  0
LINE
  5
27B9D
330
747D
100
AcDbEntity
  8
部品1
100
AcDbLine
 10
10710.76638110948
 20
2514.448907756469
 30
0.0
 11
10710.76638110948
 21
2525.177672587226
 31
0.0
  0
LINE
  5
27B9E
330
747D
100
AcDbEntity
  8
部品1
100
AcDbLine
 10
10723.76638110948
 20
2514.448907756469
 30
0.0
 11
10723.76638110948
 21
2525.177672587226
 31
0.0
  0
LINE
  5
27B9F
330
747D
100
AcDbEntity
  8
部品1
100
AcDbLine
 10
10708.16638110948
 20
2525.177672587226
 30
0.0
 11
10708.16638110948
 21
2530.377672587227
 31
0.0
  0
LINE
  5
27BA0
330
747D
100
AcDbEntity
  8
部品1
100
AcDbLine
 10
10726.36638110948
 20
2525.177672587226
 30
0.0
 11
10726.36638110948
 21
2530.377672587227
 31
0.0
  0
LINE
  5
27BA1
330
747D
100
AcDbEntity
  8
部品1
100
AcDbLine
 10
10708.16638110948
 20
2525.177672587226
 30
0.0
 11
10726.36638110948
 21
2525.177672587226
 31
0.0
  0
LINE
  5
27BA2
330
747D
100
AcDbEntity
  8
細線
100
AcDbLine
 10
10736.76638110948
 20
2732.848907756463
 30
0.0
 11
10736.76638110948
 21
2725.048907756463
 31
0.0
  0
LINE
  5
27BA3
330
747D
100
AcDbEntity
  8
細線
 48
10.0
100
AcDbLine
 10
11923.06215139804
 20
2290.157155372883
 30
0.0
 11
12079.75390378161
 21
2446.848907756467
 31
0.0
  0
LINE
  5
27BA4
330
747D
100
AcDbEntity
  8
細線
 48
10.0
100
AcDbLine
 10
11923.06215139804
 20
2326.92670799458
 30
0.0
 11
12042.98435115992
 21
2446.848907756467
 31
0.0
  0
LINE
  5
27BA5
330
747D
100
AcDbEntity
  8
細線
 48
10.0
100
AcDbLine
 10
11923.06215139804
 20
2363.696260616271
 30
0.0
 11
12006.21479853823
 21
2446.848907756467
 31
0.0
  0
LINE
  5
27BA6
330
747D
100
AcDbEntity
  8
細線
 48
10.0
100
AcDbLine
 10
12790.07205825793
 20
2047.855251215398
 30
0.0
 11
13189.06571479899
 21
2446.84890775647
 31
0.0
  0
LINE
  5
27BA7
330
747D
100
AcDbEntity
  8
細線
 48
10.0
100
AcDbLine
 10
12753.30250563623
 20
2047.855251215398
 30
0.0
 11
13152.29616217729
 21
2446.848907756467
 31
0.0
  0
LINE
  5
27BA8
330
747D
100
AcDbEntity
  8
細線
 48
10.0
100
AcDbLine
 10
12716.53295301454
 20
2047.855251215398
 30
0.0
 11
13115.52660955559
 21
2446.848907756467
 31
0.0
  0
LINE
  5
27BA9
330
747D
100
AcDbEntity
  8
細線
 48
10.0
100
AcDbLine
 10
12161.87704750587
 20
2047.855251215398
 30
0.0
 11
12560.87070404692
 21
2446.84890775647
 31
0.0
  0
LINE
  5
27BAA
330
747D
100
AcDbEntity
  8
細線
 48
10.0
100
AcDbLine
 10
12198.64660012756
 20
2047.855251215398
 30
0.0
 11
12597.64025666861
 21
2446.848907756467
 31
0.0
  0
LINE
  5
27BAB
330
747D
100
AcDbEntity
  8
細線
 48
10.0
100
AcDbLine
 10
12235.41615274927
 20
2047.855251215398
 30
0.0
 11
12634.4098092903
 21
2446.848907756467
 31
0.0
  0
LINE
  5
27BAC
330
747D
100
AcDbEntity
  8
細線
100
AcDbLine
 10
12379.68983766877
 20
2446.848907756467
 30
0.0
 11
12212.69876723636
 21
2613.839978188877
 31
0.0
  0
LINE
  5
27BAD
330
747D
100
AcDbEntity
  8
細線
100
AcDbLine
 10
12324.53550873622
 20
2446.848907756467
 30
0.0
 11
12212.69876723636
 21
2558.685649256327
 31
0.0
  0
LINE
  5
27BAE
330
747D
100
AcDbEntity
  8
部品1
100
AcDbLine
 10
12693.69876723636
 20
2466.348907756466
 30
0.0
 11
12693.69876723636
 21
2514.448907756469
 31
0.0
  0
LINE
  5
27BAF
330
747D
100
AcDbEntity
  8
部品1
100
AcDbLine
 10
12667.69876723636
 20
2466.348907756466
 30
0.0
 11
12667.69876723636
 21
2514.448907756469
 31
0.0
  0
LINE
  5
27BB0
330
747D
100
AcDbEntity
  8
部品1
100
AcDbLine
 10
12589.69876723636
 20
2462.448907756469
 30
0.0
 11
12771.69876723636
 21
2462.448907756469
 31
0.0
  0
LINE
  5
27BB1
330
747D
100
AcDbEntity
  8
部品1
100
AcDbLine
 10
12589.69876723636
 20
2446.848907756467
 30
0.0
 11
12771.69876723636
 21
2446.848907756467
 31
0.0
  0
LINE
  5
27BB2
330
747D
100
AcDbEntity
  8
部品1
100
AcDbLine
 10
12691.21382916653
 20
2347.286167045993
 30
0.0
 11
12683.18241805996
 21
2400.828907756466
 31
0.0
  0
LINE
  5
27BB3
330
747D
100
AcDbEntity
  8
部品1
100
AcDbLine
 10
12678.21511641276
 20
2400.828907756466
 30
0.0
 11
12670.18370530619
 21
2347.286167045993
 31
0.0
  0
LINE
  5
27BB4
330
747D
100
AcDbEntity
  8
部品1
100
AcDbLine
 10
12701.49876723636
 20
2348.828907756466
 30
0.0
 11
12693.69876723636
 21
2400.828907756466
 31
0.0
  0
LINE
  5
27BB5
330
747D
100
AcDbEntity
  8
部品1
100
AcDbLine
 10
12667.69876723636
 20
2400.828907756466
 30
0.0
 11
12659.89876723636
 21
2348.828907756466
 31
0.0
  0
LINE
  5
27BB6
330
747D
100
AcDbEntity
  8
部品1
100
AcDbLine
 10
12688.89971810082
 20
2362.713574150734
 30
0.0
 11
12699.18465617065
 21
2364.25631486121
 31
0.0
  0
LINE
  5
27BB7
330
747D
100
AcDbEntity
  8
部品1
100
AcDbLine
 10
12690.05677363367
 20
2354.999870598364
 30
0.0
 11
12700.3417117035
 21
2356.54261130884
 31
0.0
  0
LINE
  5
27BB8
330
747D
100
AcDbEntity
  8
部品1
100
AcDbLine
 10
12662.21287830207
 20
2364.25631486121
 30
0.0
 11
12672.4978163719
 21
2362.713574150734
 31
0.0
  0
LINE
  5
27BB9
330
747D
100
AcDbEntity
  8
部品1
100
AcDbLine
 10
12661.05582276921
 20
2356.54261130884
 30
0.0
 11
12671.34076083905
 21
2354.999870598364
 31
0.0
  0
LINE
  5
27BBA
330
747D
100
AcDbEntity
  8
部品1
100
AcDbLine
 10
12691.21382916653
 20
2347.286167045993
 30
0.0
 11
12701.49876723636
 21
2348.828907756466
 31
0.0
  0
LINE
  5
27BBB
330
747D
100
AcDbEntity
  8
部品1
100
AcDbLine
 10
12659.89876723636
 20
2348.828907756466
 30
0.0
 11
12670.18370530619
 21
2347.286167045993
 31
0.0
  0
LINE
  5
27BBC
330
747D
100
AcDbEntity
  8
部品1
100
AcDbLine
 10
12589.69876723636
 20
2462.448907756469
 30
0.0
 11
12589.69876723636
 21
2446.848907756467
 31
0.0
  0
LINE
  5
27BBD
330
747D
100
AcDbEntity
  8
部品1
100
AcDbLine
 10
12661.19876723636
 20
2488.968907756469
 30
0.0
 11
12667.69876723636
 21
2488.968907756469
 31
0.0
  0
LINE
  5
27BBE
330
747D
100
AcDbEntity
  8
部品1
100
AcDbLine
 10
12661.19876723636
 20
2488.968907756469
 30
0.0
 11
12661.19876723636
 21
2487.148907756462
 31
0.0
  0
LINE
  5
27BBF
330
747D
100
AcDbEntity
  8
部品1
100
AcDbLine
 10
12700.19876723636
 20
2488.968907756465
 30
0.0
 11
12700.19876723636
 21
2487.148907756468
 31
0.0
  0
LINE
  5
27BC0
330
747D
100
AcDbEntity
  8
部品1
100
AcDbLine
 10
12661.19876723636
 20
2487.148907756468
 30
0.0
 11
12700.19876723636
 21
2487.148907756468
 31
0.0
  0
LINE
  5
27BC1
330
747D
100
AcDbEntity
  8
部品1
100
AcDbLine
 10
12684.2714959694
 20
2393.568388360222
 30
0.0
 11
12694.55643403923
 21
2395.111129070698
 31
0.0
  0
LINE
  5
27BC2
330
747D
100
AcDbEntity
  8
部品1
100
AcDbLine
 10
12685.42855150226
 20
2385.854684807851
 30
0.0
 11
12695.71348957209
 21
2387.397425518328
 31
0.0
  0
LINE
  5
27BC3
330
747D
100
AcDbEntity
  8
部品1
100
AcDbLine
 10
12686.58560703511
 20
2378.140981255483
 30
0.0
 11
12696.87054510495
 21
2379.683721965954
 31
0.0
  0
LINE
  5
27BC4
330
747D
100
AcDbEntity
  8
部品1
100
AcDbLine
 10
12687.74266256796
 20
2370.427277703107
 30
0.0
 11
12698.0276006378
 21
2371.97001841358
 31
0.0
  0
LINE
  5
27BC5
330
747D
100
AcDbEntity
  8
部品1
100
AcDbLine
 10
12666.84110043349
 20
2395.111129070698
 30
0.0
 11
12677.12603850331
 21
2393.568388360222
 31
0.0
  0
LINE
  5
27BC6
330
747D
100
AcDbEntity
  8
部品1
100
AcDbLine
 10
12665.68404490063
 20
2387.397425518328
 30
0.0
 11
12675.96898297046
 21
2385.854684807851
 31
0.0
  0
LINE
  5
27BC7
330
747D
100
AcDbEntity
  8
部品1
100
AcDbLine
 10
12664.52698936778
 20
2379.683721965954
 30
0.0
 11
12674.81192743761
 21
2378.140981255483
 31
0.0
  0
LINE
  5
27BC8
330
747D
100
AcDbEntity
  8
部品1
100
AcDbLine
 10
12663.36993383492
 20
2371.97001841358
 30
0.0
 11
12673.65487190476
 21
2370.427277703107
 31
0.0
  0
LINE
  5
27BC9
330
747D
100
AcDbEntity
  8
部品1
100
AcDbLine
 10
12678.21511641276
 20
2400.828907756466
 30
0.0
 11
12683.18241805996
 21
2400.828907756466
 31
0.0
  0
LINE
  5
27BCA
330
747D
100
AcDbEntity
  8
部品1
100
AcDbLine
 10
12693.69876723636
 20
2446.848907756467
 30
0.0
 11
12693.69876723636
 21
2400.828907756466
 31
0.0
  0
LINE
  5
27BCB
330
747D
100
AcDbEntity
  8
部品1
100
AcDbLine
 10
12667.69876723636
 20
2446.848907756467
 30
0.0
 11
12667.69876723636
 21
2400.828907756466
 31
0.0
  0
ARC
  5
27BCC
330
747D
100
AcDbEntity
  8
部品1
100
AcDbCircle
 10
12680.69876723636
 20
2455.833684569405
 30
0.0
 40
30.34129961614032
100
AcDbArc
 50
64.63020194521458
 51
115.3697980547854
  0
ARC
  5
27BCD
330
747D
100
AcDbEntity
  8
部品1
100
AcDbCircle
 10
12700.19876723636
 20
2477.379726529054
 30
0.0
 40
8.757698800495116
100
AcDbArc
 50
42.08048849858188
 51
137.9195115014181
  0
ARC
  5
27BCE
330
747D
100
AcDbEntity
  8
部品1
100
AcDbCircle
 10
12661.19876723636
 20
2477.379726529054
 30
0.0
 40
8.757698800495116
100
AcDbArc
 50
42.08048849858188
 51
137.9195115014181
  0
LINE
  5
27BCF
330
747D
100
AcDbEntity
  8
部品1
100
AcDbLine
 10
12654.69876723636
 20
2483.248907756468
 30
0.0
 11
12706.69876723636
 21
2483.248907756468
 31
0.0
  0
LINE
  5
27BD0
330
747D
100
AcDbEntity
  8
部品1
100
AcDbLine
 10
12693.69876723636
 20
2488.968907756469
 30
0.0
 11
12700.19876723636
 21
2488.968907756469
 31
0.0
  0
LINE
  5
27BD1
330
747D
100
AcDbEntity
  8
部品1
100
AcDbLine
 10
12661.19876723636
 20
2488.968907756469
 30
0.0
 11
12667.69876723636
 21
2488.968907756469
 31
0.0
  0
LINE
  5
27BD2
330
747D
100
AcDbEntity
  8
部品1
100
AcDbLine
 10
12706.69876723636
 20
2466.348907756474
 30
0.0
 11
12706.69876723636
 21
2483.248907756468
 31
0.0
  0
LINE
  5
27BD3
330
747D
100
AcDbEntity
  8
部品1
100
AcDbLine
 10
12654.69876723636
 20
2466.348907756466
 30
0.0
 11
12654.69876723636
 21
2483.248907756468
 31
0.0
  0
LINE
  5
27BD4
330
747D
100
AcDbEntity
  8
部品1
100
AcDbLine
 10
12719.69876723636
 20
2462.448907756469
 30
0.0
 11
12719.69876723636
 21
2466.348907756477
 31
0.0
  0
LINE
  5
27BD5
330
747D
100
AcDbEntity
  8
部品1
100
AcDbLine
 10
12641.69876723636
 20
2462.448907756469
 30
0.0
 11
12641.69876723636
 21
2466.348907756466
 31
0.0
  0
LINE
  5
27BD6
330
747D
100
AcDbEntity
  8
部品1
100
AcDbLine
 10
12641.69876723636
 20
2466.348907756466
 30
0.0
 11
12719.69876723636
 21
2466.348907756474
 31
0.0
  0
LINE
  5
27BD7
330
747D
100
AcDbEntity
  8
部品1
100
AcDbLine
 10
12700.19876723636
 20
2488.968907756465
 30
0.0
 11
12700.19876723636
 21
2487.148907756468
 31
0.0
  0
LINE
  5
27BD8
330
747D
100
AcDbEntity
  8
部品1
100
AcDbLine
 10
12661.19876723636
 20
2488.968907756469
 30
0.0
 11
12661.19876723636
 21
2487.148907756468
 31
0.0
  0
LINE
  5
27BD9
330
747D
100
AcDbEntity
  8
部品1
100
AcDbLine
 10
12702.79876723636
 20
2487.148907756468
 30
0.0
 11
12706.69876723636
 21
2483.248907756468
 31
0.0
  0
LINE
  5
27BDA
330
747D
100
AcDbEntity
  8
部品1
100
AcDbLine
 10
12658.59876723636
 20
2487.148907756468
 30
0.0
 11
12702.79876723636
 21
2487.148907756468
 31
0.0
  0
LINE
  5
27BDB
330
747D
100
AcDbEntity
  8
部品1
100
AcDbLine
 10
12658.59876723636
 20
2487.148907756468
 30
0.0
 11
12654.69876723636
 21
2483.248907756468
 31
0.0
  0
LINE
  5
27BDC
330
747D
100
AcDbEntity
  8
部品1
100
AcDbLine
 10
12693.69876723636
 20
2488.968907756469
 30
0.0
 11
12700.19876723636
 21
2488.968907756469
 31
0.0
  0
LINE
  5
27BDD
330
747D
100
AcDbEntity
  8
部品1
100
AcDbLine
 10
12771.69876723636
 20
2462.448907756469
 30
0.0
 11
12771.69876723636
 21
2446.848907756467
 31
0.0
  0
LINE
  5
27BDE
330
747D
100
AcDbEntity
  8
部品1
100
AcDbLine
 10
12661.19876723636
 20
2533.16890775647
 30
0.0
 11
12700.19876723636
 21
2533.16890775647
 31
0.0
  0
LINE
  5
27BDF
330
747D
100
AcDbEntity
  8
部品1
100
AcDbLine
 10
12661.19876723636
 20
2540.968907756469
 30
0.0
 11
12700.19876723636
 21
2540.968907756469
 31
0.0
  0
LINE
  5
27BE0
330
747D
100
AcDbEntity
  8
部品1
100
AcDbLine
 10
12661.19876723636
 20
2540.968907756469
 30
0.0
 11
12661.19876723636
 21
2533.16890775647
 31
0.0
  0
LINE
  5
27BE1
330
747D
100
AcDbEntity
  8
部品1
100
AcDbLine
 10
12700.19876723636
 20
2540.968907756465
 30
0.0
 11
12700.19876723636
 21
2533.168907756466
 31
0.0
  0
LINE
  5
27BE2
330
747D
100
AcDbEntity
  8
部品1
100
AcDbLine
 10
12689.79876723636
 20
2525.177672587226
 30
0.0
 11
12689.79876723636
 21
2530.377672587225
 31
0.0
  0
LINE
  5
27BE3
330
747D
100
AcDbEntity
  8
部品1
100
AcDbLine
 10
12671.59876723636
 20
2525.177672587226
 30
0.0
 11
12671.59876723636
 21
2530.377672587225
 31
0.0
  0
LINE
  5
27BE4
330
747D
100
AcDbEntity
  8
部品1
100
AcDbLine
 10
12687.19876723636
 20
2514.448907756469
 30
0.0
 11
12687.19876723636
 21
2525.177672587226
 31
0.0
  0
LINE
  5
27BE5
330
747D
100
AcDbEntity
  8
部品1
100
AcDbLine
 10
12674.19876723636
 20
2514.448907756469
 30
0.0
 11
12674.19876723636
 21
2525.177672587226
 31
0.0
  0
LINE
  5
27BE6
330
747D
100
AcDbEntity
  8
部品1
100
AcDbLine
 10
12671.59876723636
 20
2525.177672587226
 30
0.0
 11
12689.79876723636
 21
2525.177672587226
 31
0.0
  0
LINE
  5
27BE7
330
747D
100
AcDbEntity
  8
部品1
100
AcDbLine
 10
12667.69876723636
 20
2514.448907756469
 30
0.0
 11
12693.69876723636
 21
2514.448907756469
 31
0.0
  0
LINE
  5
27BE8
330
747D
100
AcDbEntity
  8
部品1
100
AcDbLine
 10
12671.59876723636
 20
2530.377672587225
 30
0.0
 11
12689.79876723636
 21
2530.377672587225
 31
0.0
  0
LINE
  5
27BE9
330
747D
100
AcDbEntity
  8
部品1
100
AcDbLine
 10
12700.19876723636
 20
2540.968907756465
 30
0.0
 11
12700.19876723636
 21
2533.168907756466
 31
0.0
  0
LINE
  5
27BEA
330
747D
100
AcDbEntity
  8
部品1
100
AcDbLine
 10
12661.19876723636
 20
2540.968907756469
 30
0.0
 11
12661.19876723636
 21
2533.16890775647
 31
0.0
  0
LINE
  5
27BEB
330
747D
100
AcDbEntity
  8
部品1
100
AcDbLine
 10
12661.19876723636
 20
2540.968907756469
 30
0.0
 11
12700.19876723636
 21
2540.968907756469
 31
0.0
  0
LINE
  5
27BEC
330
747D
100
AcDbEntity
  8
部品1
100
AcDbLine
 10
12661.19876723636
 20
2533.16890775647
 30
0.0
 11
12700.19876723636
 21
2533.16890775647
 31
0.0
  0
LINE
  5
27BED
330
747D
100
AcDbEntity
  8
細線
100
AcDbLine
 10
12661.19876723636
 20
2725.048907756467
 30
0.0
 11
12700.19876723636
 21
2725.048907756467
 31
0.0
  0
LINE
  5
27BEE
330
747D
100
AcDbEntity
  8
細線
100
AcDbLine
 10
12661.19876723636
 20
2732.848907756467
 30
0.0
 11
12700.19876723636
 21
2732.848907756467
 31
0.0
  0
LINE
  5
27BEF
330
747D
100
AcDbEntity
  8
細線
100
AcDbLine
 10
12661.19876723636
 20
2732.848907756467
 30
0.0
 11
12661.19876723636
 21
2725.048907756467
 31
0.0
  0
LINE
  5
27BF0
330
747D
100
AcDbEntity
  8
細線
100
AcDbLine
 10
12700.19876723636
 20
2732.848907756463
 30
0.0
 11
12700.19876723636
 21
2725.048907756463
 31
0.0
  0
LINE
  5
27BF1
330
747D
100
AcDbEntity
  8
細線
 48
10.0
100
AcDbLine
 10
13344.7279637666
 20
2047.855251215398
 30
0.0
 11
13743.72162030767
 21
2446.848907756467
 31
0.0
  0
LINE
  5
27BF2
330
747D
100
AcDbEntity
  8
細線
 48
10.0
100
AcDbLine
 10
13307.9584111449
 20
2047.855251215398
 30
0.0
 11
13706.95206768595
 21
2446.848907756467
 31
0.0
  0
LINE
  5
27BF3
330
747D
100
AcDbEntity
  8
細線
 48
10.0
100
AcDbLine
 10
13271.1888585232
 20
2047.855251215398
 30
0.0
 11
13670.18251506426
 21
2446.848907756467
 31
0.0
  0
TEXT
  5
27BF4
330
747D
100
AcDbEntity
  8
部品1
100
AcDbText
 10
13317.79007228368
 20
2457.126761939042
 30
0.0
 40
156.0
  1
▽G.L
  7
STYLE1
100
AcDbText
  0
LINE
  5
27BF5
330
747D
100
AcDbEntity
  8
部品1
100
AcDbLine
 10
11923.06215139804
 20
2836.848907756468
 30
0.0
 11
12628.55434775379
 21
2836.84890775647
 31
0.0
  0
LINE
  5
27BF6
330
747D
100
AcDbEntity
  8
部品1
100
AcDbLine
 10
11923.06215139804
 20
2966.84890775647
 30
0.0
 11
12589.69876723637
 21
2966.84890775647
 31
0.0
  0
LINE
  5
27BF7
330
747D
100
AcDbEntity
  8
部品1
100
AcDbLine
 10
11923.06215139804
 20
2959.048907756471
 30
0.0
 11
12628.69876723637
 21
2959.048907756471
 31
0.0
  0
TEXT
  5
27BF8
330
747D
100
AcDbEntity
  8
部品1
100
AcDbText
 10
10737.52243194915
 20
3792.485748217219
 30
0.0
 40
156.0
  1
地盤がコンクリートの場合
  7
STYLE2
100
AcDbText
  0
LINE
  5
27BF9
330
747D
100
AcDbEntity
  8
部品1
100
AcDbLine
 10
10626.26638110949
 20
3486.848907756467
 30
0.0
 11
10626.26638110949
 21
2829.048907756473
 31
0.0
  0
LINE
  5
27BFA
330
747D
100
AcDbEntity
  8
部品1
100
AcDbLine
 10
10769.26638110949
 20
3486.848907756467
 30
0.0
 11
10769.26638110949
 21
2837.168017440876
 31
0.0
  0
LINE
  5
27BFB
330
747D
100
AcDbEntity
  8
部品1
100
AcDbLine
 10
10677.0366584338
 20
2844.648907756468
 30
0.0
 11
10757.49610378517
 21
2844.648907756466
 31
0.0
  0
ARC
  5
27BFC
330
747D
100
AcDbEntity
  8
部品1
100
AcDbCircle
 10
10677.0366584338
 20
2831.64890775647
 30
0.0
 40
13.0
100
AcDbArc
 50
90.0
 51
174.3157584018239
  0
ARC
  5
27BFD
330
747D
100
AcDbEntity
  8
細線
100
AcDbCircle
 10
10717.26638110948
 20
2816.048907756465
 30
0.0
 40
10.4
100
AcDbArc
 50
0.0
 51
180.0
  0
ARC
  5
27BFE
330
747D
100
AcDbEntity
  8
部品1
100
AcDbCircle
 10
10757.49610378517
 20
2831.648907756466
 30
0.0
 40
13.0
100
AcDbArc
 50
5.684241598176082
 51
90.0
  0
LINE
  5
27BFF
330
747D
100
AcDbEntity
  8
細線
 48
50.0
100
AcDbLine
 10
12024.19876723636
 20
3616.848907756465
 30
0.0
 11
12024.19876723636
 21
2966.84890775647
 31
0.0
  0
LINE
  5
27C00
330
747D
100
AcDbEntity
  8
細線
 48
50.0
100
AcDbLine
 10
12063.19876723636
 20
3616.848907756465
 30
0.0
 11
12063.19876723636
 21
2966.84890775647
 31
0.0
  0
LINE
  5
27C01
330
747D
100
AcDbEntity
  8
部品1
100
AcDbLine
 10
12589.69876723637
 20
3616.848907756465
 30
0.0
 11
12589.69876723637
 21
2959.048907756471
 31
0.0
  0
LINE
  5
27C02
330
747D
100
AcDbEntity
  8
部品1
100
AcDbLine
 10
12732.69876723637
 20
3616.848907756465
 30
0.0
 11
12732.69876723637
 21
2967.168017440876
 31
0.0
  0
LINE
  5
27C03
330
747D
100
AcDbEntity
  8
細線
 48
50.0
100
AcDbLine
 10
12388.19876723636
 20
3616.848907756465
 30
0.0
 11
12388.19876723636
 21
2966.84890775647
 31
0.0
  0
LINE
  5
27C04
330
747D
100
AcDbEntity
  8
細線
 48
50.0
100
AcDbLine
 10
12427.19876723636
 20
3616.848907756465
 30
0.0
 11
12427.19876723636
 21
2966.84890775647
 31
0.0
  0
LINE
  5
27C05
330
747D
100
AcDbEntity
  8
細線
100
AcDbLine
 10
12623.30611441623
 20
2791.545472956221
 30
0.0
 11
12578.00267961598
 21
2836.848907756468
 31
0.0
  0
LINE
  5
27C06
330
747D
100
AcDbEntity
  8
部品1
100
AcDbLine
 10
12641.69876723636
 20
2984.528907756465
 30
0.0
 11
12719.69876723636
 21
2984.52890775647
 31
0.0
  0
ARC
  5
27C07
330
747D
100
AcDbEntity
  8
部品1
100
AcDbCircle
 10
12641.69876723636
 20
2971.528907756465
 30
0.0
 40
13.0
100
AcDbArc
 50
90.0
 51
180.0
  0
ARC
  5
27C08
330
747D
100
AcDbEntity
  8
部品1
100
AcDbCircle
 10
12719.69876723636
 20
2971.528907756471
 30
0.0
 40
13.0
100
AcDbArc
 50
0.0
 51
90.0
  0
ARC
  5
27C09
330
747D
100
AcDbEntity
  8
部品1
100
AcDbCircle
 10
12680.69876723636
 20
2906.528907756465
 30
0.0
 40
10.4
100
AcDbArc
 50
28.00674301449114
 51
151.9932569855088
  0
CIRCLE
  5
27C0A
330
747D
100
AcDbEntity
  8
部品1
100
AcDbCircle
 10
12680.69876723636
 20
2892.748907756468
 30
0.0
 40
20.8
  0
CIRCLE
  5
27C0B
330
747D
100
AcDbEntity
  8
細線
100
AcDbCircle
 10
12680.69876723636
 20
2945.528907756465
 30
0.0
 40
10.4
  0
ARC
  5
27C0C
330
747D
100
AcDbEntity
  8
細線
100
AcDbCircle
 10
12680.69876723636
 20
2816.048907756464
 30
0.0
 40
10.4
100
AcDbArc
 50
0.0
 51
180.0
  0
LINE
  5
27C0D
330
747D
100
AcDbEntity
  8
部品1
100
AcDbLine
 10
12640.46904456067
 20
2844.648907756468
 30
0.0
 11
12720.92848991204
 21
2844.648907756462
 31
0.0
  0
ARC
  5
27C0E
330
747D
100
AcDbEntity
  8
部品1
100
AcDbCircle
 10
12640.46904456067
 20
2831.648907756468
 30
0.0
 40
13.0
100
AcDbArc
 50
90.0
 51
174.3157584018239
  0
ARC
  5
27C0F
330
747D
100
AcDbEntity
  8
部品1
100
AcDbCircle
 10
12720.92848991204
 20
2831.648907756462
 30
0.0
 40
13.0
100
AcDbArc
 50
5.684241598176082
 51
90.0
  0
ARC
  5
27C10
330
747D
100
AcDbEntity
  8
部品1
100
AcDbCircle
 10
12680.69876723636
 20
2854.528907756465
 30
0.0
 40
10.4
100
AcDbArc
 50
180.0
 51
251.8051276613344
  0
ARC
  5
27C11
330
747D
100
AcDbEntity
  8
部品1
100
AcDbCircle
 10
12680.69876723636
 20
2854.528907756465
 30
0.0
 40
10.4
100
AcDbArc
 50
288.1948723386656
 51
0.0
  0
LINE
  5
27C12
330
747D
100
AcDbEntity
  8
部品1
100
AcDbLine
 10
12628.69876723636
 20
2971.528907756465
 30
0.0
 11
12628.69876723636
 21
2837.168017440876
 31
0.0
  0
LINE
  5
27C13
330
747D
100
AcDbEntity
  8
部品1
100
AcDbLine
 10
12732.69876723636
 20
2971.528907756471
 30
0.0
 11
12732.69876723636
 21
2837.168017440883
 31
0.0
  0
LINE
  5
27C14
330
747D
100
AcDbEntity
  8
部品1
100
AcDbLine
 10
12691.09876723636
 20
2874.73557935775
 30
0.0
 11
12691.09876723636
 21
2854.528907756465
 31
0.0
  0
LINE
  5
27C15
330
747D
100
AcDbEntity
  8
部品1
100
AcDbLine
 10
12670.29876723636
 20
2874.73557935775
 30
0.0
 11
12670.29876723636
 21
2854.528907756465
 31
0.0
  0
ENDSEC
  0
SECTION
  2
OBJECTS
  0
DICTIONARY
  5
7471
330
0
100
AcDbDictionary
281
     1
  3
ACAD_COLOR
350
1BE97
  3
ACAD_GROUP
350
7472
  3
ACAD_LAYOUT
350
1BE98
  3
ACAD_MATERIAL
350
1BE96
  3
ACAD_MLINESTYLE
350
7473
  3
ACAD_PLOTSETTINGS
350
1BE99
  3
ACAD_PLOTSTYLENAME
350
1BE94
  3
AcadDim
350
2230C
  3
ACDBHEADERROUNDTRIPXREC
350
27C78
  3
ACDBVARIABLEDICTIONARY
350
141CA
  3
CONTENTDICTIONARY
350
E71C
  3
DRAWINGVARIABLESDICT
350
F3B9
  0
DICTIONARY
  5
2678E
330
7467
100
AcDbDictionary
280
     1
281
     1
  3
ACAD_LAYERSTATES
360
2678F
  0
DICTIONARY
  5
1BE97
102
{ACAD_REACTORS
330
7471
102
}
330
7471
100
AcDbDictionary
281
     1
  0
DICTIONARY
  5
7472
102
{ACAD_REACTORS
330
7471
102
}
330
7471
100
AcDbDictionary
281
     1
  0
DICTIONARY
  5
1BE98
102
{ACAD_REACTORS
330
7471
102
}
330
7471
100
AcDbDictionary
281
     1
  3
Model
350
1BE9A
  3
レイアウト1
350
1BE9B
  0
DICTIONARY
  5
1BE96
102
{ACAD_REACTORS
330
7471
102
}
330
7471
100
AcDbDictionary
281
     1
  0
DICTIONARY
  5
7473
102
{ACAD_REACTORS
330
7471
102
}
330
7471
100
AcDbDictionary
281
     1
  3
STANDARD
350
7480
  0
DICTIONARY
  5
1BE99
102
{ACAD_REACTORS
330
7471
102
}
330
7471
100
AcDbDictionary
281
     1
  0
ACDBDICTIONARYWDFLT
  5
1BE94
102
{ACAD_REACTORS
330
7471
102
}
330
7471
100
AcDbDictionary
281
     1
  3
Normal
350
1BE95
100
AcDbDictionaryWithDefault
340
1BE95
  0
XRECORD
  5
2230C
102
{ACAD_REACTORS
330
7471
102
}
330
7471
100
AcDbXrecord
280
     1
 90
   990106
  3
DOTSMALL
 60
     0
 61
     0
 62
     4
 63
     4
 64
     1
 65
     0
 66
     0
 67
     2
 68
     0
 69
     0
 70
     0
 71
     0
 72
     0
 40
0.0
170
     2
340
0
  0
DICTIONARY
  5
27C78
102
{ACAD_REACTORS
330
7471
102
}
330
7471
100
AcDbDictionary
281
     1
  3
COLORDICT
350
27C7A
  3
MATERIALDICT
350
27C79
  0
DICTIONARY
  5
141CA
102
{ACAD_REACTORS
330
7471
102
}
330
7471
100
AcDbDictionary
281
     1
  3
DIMASSOC
350
27C75
  3
PROJECTNAME
350
27C76
  3
SORTENTS
350
141CB
  0
DICTIONARY
  5
E71C
102
{ACAD_REACTORS
330
7471
102
}
330
7471
100
AcDbDictionary
281
     1
  0
DICTIONARY
  5
F3B9
102
{ACAD_REACTORS
330
7471
102
}
330
7471
100
AcDbDictionary
281
     1
1001
DRAWINGVARIABLESXDATA
1000
POLARMODE
1000
1
  0
DICTIONARY
  5
2678F
102
{ACAD_REACTORS
330
2678E
102
}
330
2678E
100
AcDbDictionary
281
     1
  0
LAYOUT
  5
1BE9A
102
{ACAD_XDICTIONARY
360
27C7B
102
}
102
{ACAD_REACTORS
330
1BE98
102
}
330
1BE98
100
AcDbPlotSettings
  1

  2
EPSON LP-8100
  4
A3
  6

 40
5.873749732971191
 41
5.873747825622558
 42
5.873748779296875
 43
5.873748779296875
 44
297.0106506347656
 45
419.9466552734374
 46
0.0
 47
0.0
 48
0.0
 49
0.0
140
0.0
141
0.0
142
1.0
143
50.0
 70
 11952
 72
     1
 73
     1
 74
     2
  7
inaba.ctb
 75
    25
147
0.02
148
0.0
149
0.0
100
AcDbLayout
  1
Model
 70
     1
 71
     0
 10
0.0
 20
0.0
 11
12.0
 21
9.0
 12
0.0
 22
0.0
 32
0.0
 14
0.0
 24
0.0
 34
0.0
 15
0.0
 25
0.0
 35
0.0
146
0.0
 13
0.0
 23
0.0
 33
0.0
 16
1.0
 26
0.0
 36
0.0
 17
0.0
 27
1.0
 37
0.0
 76
     0
330
747D
  0
LAYOUT
  5
1BE9B
102
{ACAD_XDICTIONARY
360
27C7D
102
}
102
{ACAD_REACTORS
330
1BE98
102
}
330
1BE98
100
AcDbPlotSettings
  1

  2
EPSON LP-7000C
  4

  6

 40
0.0
 41
0.0
 42
0.0
 43
0.0
 44
0.0
 45
0.0
 46
0.0
 47
0.0
 48
0.0
 49
0.0
140
0.0
141
0.0
142
1.0
143
1.0
 70
   688
 72
     0
 73
     0
 74
     5
  7
inaba.ctb
 75
    16
147
1.0
148
0.0
149
0.0
100
AcDbLayout
  1
レイアウト1
 70
     0
 71
     1
 10
0.0
 20
0.0
 11
420.0
 21
297.0
 12
0.0
 22
0.0
 32
0.0
 14
1.000000000000000E+20
 24
1.000000000000000E+20
 34
1.000000000000000E+20
 15
-1.000000000000000E+20
 25
-1.000000000000000E+20
 35
-1.000000000000000E+20
146
0.0
 13
0.0
 23
0.0
 33
0.0
 16
1.0
 26
0.0
 36
0.0
 17
0.0
 27
1.0
 37
0.0
 76
     0
330
747A
  0
MLINESTYLE
  5
7480
102
{ACAD_REACTORS
330
7473
102
}
330
7473
100
AcDbMlineStyle
  2
STANDARD
 70
     0
  3

 62
     0
 51
90.0
 52
90.0
 71
     2
 49
0.5
 62
   256
  6
BYLAYER
 49
-0.5
 62
   256
  6
BYLAYER
  0
ACDBPLACEHOLDER
  5
1BE95
102
{ACAD_REACTORS
330
1BE94
102
}
330
1BE94
  0
XRECORD
  5
27C7A
102
{ACAD_REACTORS
330
27C78
102
}
330
27C78
100
AcDbXrecord
280
     1
340
1BE97
  0
XRECORD
  5
27C79
102
{ACAD_REACTORS
330
27C78
102
}
330
27C78
100
AcDbXrecord
280
     1
340
1BE96
  0
DICTIONARYVAR
  5
27C75
102
{ACAD_REACTORS
330
141CA
102
}
330
141CA
100
DictionaryVariables
280
     0
  1
1
  0
DICTIONARYVAR
  5
27C76
102
{ACAD_REACTORS
330
141CA
102
}
330
141CA
100
DictionaryVariables
280
     0
  1

  0
DICTIONARYVAR
  5
141CB
102
{ACAD_REACTORS
330
141CA
102
}
330
141CA
100
DictionaryVariables
280
     0
  1
96
  0
DICTIONARY
  5
27C7B
330
1BE9A
100
AcDbDictionary
280
     1
281
     1
  3
ACAD_XREC_ROUNDTRIP
360
27C7C
  0
DICTIONARY
  5
27C7D
330
1BE9B
100
AcDbDictionary
280
     1
281
     1
  3
ACAD_XREC_ROUNDTRIP
360
27C7E
  0
XRECORD
  5
27C7C
102
{ACAD_REACTORS
330
27C7B
102
}
330
27C7B
100
AcDbXrecord
280
     1
102
SHADEPLOT
 70
     0
102
SHADEPLOTRESLEVEL
 70
     2
102
SHADEPLOTCUSTOMDPI
 70
   300
  0
XRECORD
  5
27C7E
102
{ACAD_REACTORS
330
27C7D
102
}
330
27C7D
100
AcDbXrecord
280
     1
102
SHADEPLOT
 70
     0
102
SHADEPLOTRESLEVEL
 70
     2
102
SHADEPLOTCUSTOMDPI
 70
   300
  0
ENDSEC
  0
EOF
