  0
SECTION
  2
HEADER
  9
$ACADVER
  1
AC1015
  9
$ACADMAINTVER
 70
    20
  9
$DWGCODEPAGE
  3
ANSI_932
  9
$INSBASE
 10
0.0
 20
0.0
 30
0.0
  9
$EXTMIN
 10
104.3976124660112
 20
-0.1354724391712807
 30
-0.0000000000000077
  9
$EXTMAX
 10
12231.24392539175
 20
8557.44510397587
 30
0.0000000000000076
  9
$LIMMIN
 10
0.0
 20
0.0
  9
$LIMMAX
 10
12600.0
 20
8910.0
  9
$ORTHOMODE
 70
     0
  9
$REGENMODE
 70
     1
  9
$FILLMODE
 70
     1
  9
$QTEXTMODE
 70
     0
  9
$MIRRTEXT
 70
     1
  9
$LTSCALE
 40
3.0
  9
$ATTMODE
 70
     1
  9
$TEXTSIZE
 40
100.0
  9
$TRACEWID
 40
1.0
  9
$TEXTSTYLE
  7
STYLE3
  9
$CLAYER
  8
部品1
  9
$CELTYPE
  6
BYLAYER
  9
$CECOLOR
 62
   256
  9
$CELTSCALE
 40
50.0
  9
$DISPSILH
 70
     0
  9
$DIMSCALE
 40
30.0
  9
$DIMASZ
 40
2.5
  9
$DIMEXO
 40
0.5
  9
$DIMDLI
 40
7.0
  9
$DIMRND
 40
0.0
  9
$DIMDLE
 40
0.0
  9
$DIMEXE
 40
1.5
  9
$DIMTP
 40
0.0
  9
$DIMTM
 40
0.0
  9
$DIMTXT
 40
3.0
  9
$DIMCEN
 40
0.0
  9
$DIMTSZ
 40
0.0
  9
$DIMTOL
 70
     0
  9
$DIMLIM
 70
     0
  9
$DIMTIH
 70
     0
  9
$DIMTOH
 70
     0
  9
$DIMSE1
 70
     0
  9
$DIMSE2
 70
     0
  9
$DIMTAD
 70
     3
  9
$DIMZIN
 70
     8
  9
$DIMBLK
  1

  9
$DIMASO
 70
     1
  9
$DIMSHO
 70
     1
  9
$DIMPOST
  1

  9
$DIMAPOST
  1

  9
$DIMALT
 70
     0
  9
$DIMALTD
 70
     2
  9
$DIMALTF
 40
0.0394
  9
$DIMLFAC
 40
1.0
  9
$DIMTOFL
 70
     1
  9
$DIMTVP
 40
0.0
  9
$DIMTIX
 70
     1
  9
$DIMSOXD
 70
     1
  9
$DIMSAH
 70
     1
  9
$DIMBLK1
  1
DOTSMALL
  9
$DIMBLK2
  1
DOTSMALL
  9
$DIMSTYLE
  2
INABA_S30G
  9
$DIMCLRD
 70
     0
  9
$DIMCLRE
 70
     0
  9
$DIMCLRT
 70
     7
  9
$DIMTFAC
 40
1.0
  9
$DIMGAP
 40
1.0
  9
$DIMJUST
 70
     0
  9
$DIMSD1
 70
     0
  9
$DIMSD2
 70
     0
  9
$DIMTOLJ
 70
     1
  9
$DIMTZIN
 70
     0
  9
$DIMALTZ
 70
     0
  9
$DIMALTTZ
 70
     0
  9
$DIMUPT
 70
     0
  9
$DIMDEC
 70
     1
  9
$DIMTDEC
 70
     4
  9
$DIMALTU
 70
     2
  9
$DIMALTTD
 70
     2
  9
$DIMTXSTY
  7
STYLE1
  9
$DIMAUNIT
 70
     0
  9
$DIMADEC
 70
     0
  9
$DIMALTRND
 40
0.0
  9
$DIMAZIN
 70
     0
  9
$DIMDSEP
 70
    46
  9
$DIMATFIT
 70
     3
  9
$DIMFRAC
 70
     0
  9
$DIMLDRBLK
  1

  9
$DIMLUNIT
 70
     2
  9
$DIMLWD
 70
    -2
  9
$DIMLWE
 70
    -2
  9
$DIMTMOVE
 70
     0
  9
$LUNITS
 70
     2
  9
$LUPREC
 70
     1
  9
$SKETCHINC
 40
1.0
  9
$FILLETRAD
 40
10.0
  9
$AUNITS
 70
     0
  9
$AUPREC
 70
     0
  9
$MENU
  1
acad
  9
$ELEVATION
 40
0.0
  9
$PELEVATION
 40
0.0
  9
$THICKNESS
 40
0.0
  9
$LIMCHECK
 70
     0
  9
$CHAMFERA
 40
10.0
  9
$CHAMFERB
 40
10.0
  9
$CHAMFERC
 40
0.0
  9
$CHAMFERD
 40
0.0
  9
$SKPOLY
 70
     0
  9
$TDCREATE
 40
2451225.538602894
  9
$TDUCREATE
 40
2451225.163602894
  9
$TDUPDATE
 40
2457326.720779398
  9
$TDUUPDATE
 40
2457326.345779398
  9
$TDINDWG
 40
0.3010927546
  9
$TDUSRTIMER
 40
0.3010927546
  9
$USRTIMER
 70
     1
  9
$ANGBASE
 50
0.0
  9
$ANGDIR
 70
     0
  9
$PDMODE
 70
     3
  9
$PDSIZE
 40
2.0
  9
$PLINEWID
 40
0.0
  9
$SPLFRAME
 70
     0
  9
$SPLINETYPE
 70
     6
  9
$SPLINESEGS
 70
     8
  9
$HANDSEED
  5
15798
  9
$SURFTAB1
 70
     6
  9
$SURFTAB2
 70
     6
  9
$SURFTYPE
 70
     6
  9
$SURFU
 70
     6
  9
$SURFV
 70
     6
  9
$UCSBASE
  2

  9
$UCSNAME
  2

  9
$UCSORG
 10
0.0
 20
0.0
 30
0.0
  9
$UCSXDIR
 10
1.0
 20
0.0
 30
0.0
  9
$UCSYDIR
 10
0.0
 20
1.0
 30
0.0
  9
$UCSORTHOREF
  2

  9
$UCSORTHOVIEW
 70
     0
  9
$UCSORGTOP
 10
0.0
 20
0.0
 30
0.0
  9
$UCSORGBOTTOM
 10
0.0
 20
0.0
 30
0.0
  9
$UCSORGLEFT
 10
0.0
 20
0.0
 30
0.0
  9
$UCSORGRIGHT
 10
0.0
 20
0.0
 30
0.0
  9
$UCSORGFRONT
 10
0.0
 20
0.0
 30
0.0
  9
$UCSORGBACK
 10
0.0
 20
0.0
 30
0.0
  9
$PUCSBASE
  2

  9
$PUCSNAME
  2

  9
$PUCSORG
 10
0.0
 20
0.0
 30
0.0
  9
$PUCSXDIR
 10
1.0
 20
0.0
 30
0.0
  9
$PUCSYDIR
 10
0.0
 20
1.0
 30
0.0
  9
$PUCSORTHOREF
  2

  9
$PUCSORTHOVIEW
 70
     0
  9
$PUCSORGTOP
 10
0.0
 20
0.0
 30
0.0
  9
$PUCSORGBOTTOM
 10
0.0
 20
0.0
 30
0.0
  9
$PUCSORGLEFT
 10
0.0
 20
0.0
 30
0.0
  9
$PUCSORGRIGHT
 10
0.0
 20
0.0
 30
0.0
  9
$PUCSORGFRONT
 10
0.0
 20
0.0
 30
0.0
  9
$PUCSORGBACK
 10
0.0
 20
0.0
 30
0.0
  9
$USERI1
 70
     0
  9
$USERI2
 70
     0
  9
$USERI3
 70
     0
  9
$USERI4
 70
     0
  9
$USERI5
 70
     0
  9
$USERR1
 40
0.0
  9
$USERR2
 40
0.0
  9
$USERR3
 40
0.0
  9
$USERR4
 40
0.0
  9
$USERR5
 40
0.0
  9
$WORLDVIEW
 70
     1
  9
$SHADEDGE
 70
     3
  9
$SHADEDIF
 70
    70
  9
$TILEMODE
 70
     1
  9
$MAXACTVP
 70
    16
  9
$PINSBASE
 10
0.0
 20
0.0
 30
0.0
  9
$PLIMCHECK
 70
     0
  9
$PEXTMIN
 10
1.000000000000000E+20
 20
1.000000000000000E+20
 30
1.000000000000000E+20
  9
$PEXTMAX
 10
-1.000000000000000E+20
 20
-1.000000000000000E+20
 30
-1.000000000000000E+20
  9
$PLIMMIN
 10
0.0
 20
0.0
  9
$PLIMMAX
 10
420.0
 20
297.0
  9
$UNITMODE
 70
     0
  9
$VISRETAIN
 70
     0
  9
$PLINEGEN
 70
     0
  9
$PSLTSCALE
 70
     0
  9
$TREEDEPTH
 70
  3020
  9
$CMLSTYLE
  2
STANDARD
  9
$CMLJUST
 70
     0
  9
$CMLSCALE
 40
1.0
  9
$PROXYGRAPHICS
 70
     1
  9
$MEASUREMENT
 70
     1
  9
$CELWEIGHT
370
    -1
  9
$ENDCAPS
280
     0
  9
$JOINSTYLE
280
     0
  9
$LWDISPLAY
290
     0
  9
$INSUNITS
 70
     0
  9
$HYPERLINKBASE
  1

  9
$STYLESHEET
  1
inaba.ctb
  9
$XEDIT
290
     1
  9
$CEPSNTYPE
380
     0
  9
$PSTYLEMODE
290
     1
  9
$FINGERPRINTGUID
  2
{6B76327E-8F17-4C3D-957A-4CD1CD00B66A}
  9
$VERSIONGUID
  2
{CFD3D7CF-8718-4876-9BE0-0DF95AB836F3}
  9
$EXTNAMES
290
     1
  9
$PSVPSCALE
 40
0.0
  9
$OLESTARTUP
290
     0
  0
ENDSEC
  0
SECTION
  2
CLASSES
  0
CLASS
  1
ACDBDICTIONARYWDFLT
  2
AcDbDictionaryWithDefault
  3
ObjectDBX Classes
 90
        0
280
     0
281
     0
  0
CLASS
  1
MATERIAL
  2
AcDbMaterial
  3
ObjectDBX Classes
 90
     1153
280
     0
281
     0
  0
CLASS
  1
VISUALSTYLE
  2
AcDbVisualStyle
  3
ObjectDBX Classes
 90
     4095
280
     0
281
     0
  0
CLASS
  1
TABLESTYLE
  2
AcDbTableStyle
  3
ObjectDBX Classes
 90
     4095
280
     0
281
     0
  0
CLASS
  1
SCALE
  2
AcDbScale
  3
ObjectDBX Classes
 90
     1153
280
     0
281
     0
  0
CLASS
  1
MLEADERSTYLE
  2
AcDbMLeaderStyle
  3
ACDB_MLEADERSTYLE_CLASS
 90
     4095
280
     0
281
     0
  0
CLASS
  1
ACDBSECTIONVIEWSTYLE
  2
AcDbSectionViewStyle
  3
ObjectDBX Classes
 90
     1025
280
     0
281
     0
  0
CLASS
  1
ACDBDETAILVIEWSTYLE
  2
AcDbDetailViewStyle
  3
ObjectDBX Classes
 90
     1025
280
     0
281
     0
  0
CLASS
  1
SORTENTSTABLE
  2
AcDbSortentsTable
  3
ObjectDBX Classes
 90
        0
280
     0
281
     0
  0
CLASS
  1
DICTIONARYVAR
  2
AcDbDictionaryVar
  3
ObjectDBX Classes
 90
        0
280
     0
281
     0
  0
CLASS
  1
CELLSTYLEMAP
  2
AcDbCellStyleMap
  3
ObjectDBX Classes
 90
     1152
280
     0
281
     0
  0
CLASS
  1
ACDBPLACEHOLDER
  2
AcDbPlaceHolder
  3
ObjectDBX Classes
 90
        0
280
     0
281
     0
  0
CLASS
  1
LAYOUT
  2
AcDbLayout
  3
ObjectDBX Classes
 90
        0
280
     0
281
     0
  0
ENDSEC
  0
SECTION
  2
TABLES
  0
TABLE
  2
VPORT
  5
746D
330
0
100
AcDbSymbolTable
 70
     1
  0
VPORT
  5
1485F
330
746D
100
AcDbSymbolTableRecord
100
AcDbViewportTableRecord
  2
*Active
 70
     0
 10
0.0
 20
0.0
 11
1.0
 21
1.0
 12
6753.077060719613
 22
4454.728307254012
 13
0.0
 23
0.0
 14
10.0
 24
10.0
 15
10.0
 25
10.0
 16
0.0
 26
0.0
 36
1.0
 17
0.0
 27
0.0
 37
0.0
 40
8978.649449584906
 41
1.686382393397524
 42
50.0
 43
0.0
 44
0.0
 50
0.0
 51
0.0
 71
     0
 72
     0
 73
     1
 74
     0
 75
     0
 76
     0
 77
     0
 78
     0
281
     0
 65
     1
110
0.0
120
0.0
130
0.0
111
1.0
121
0.0
131
0.0
112
0.0
122
1.0
132
0.0
 79
     0
146
0.0
1001
ACAD_NAV_VCDISPLAY
1070
     3
  0
ENDTAB
  0
TABLE
  2
LTYPE
  5
746A
330
0
100
AcDbSymbolTable
 70
     4
  0
LTYPE
  5
7477
330
746A
100
AcDbSymbolTableRecord
100
AcDbLinetypeTableRecord
  2
BYBLOCK
 70
     0
  3

 72
    65
 73
     0
 40
0.0
  0
LTYPE
  5
7478
330
746A
100
AcDbSymbolTableRecord
100
AcDbLinetypeTableRecord
  2
BYLAYER
 70
     0
  3

 72
    65
 73
     0
 40
0.0
  0
LTYPE
  5
7479
330
746A
100
AcDbSymbolTableRecord
100
AcDbLinetypeTableRecord
  2
CONTINUOUS
 70
     0
  3
Solid line
 72
    65
 73
     0
 40
0.0
  0
LTYPE
  5
7816
330
746A
100
AcDbSymbolTableRecord
100
AcDbLinetypeTableRecord
  2
CENTER
 70
     0
  3
____ _ ____ _ ____ _ ____ _ ____ _ ____ _ ____ 
 72
    65
 73
     4
 40
2.0
 49
1.25
 74
     0
 49
-0.25
 74
     0
 49
0.25
 74
     0
 49
-0.25
 74
     0
  0
LTYPE
  5
781A
330
746A
100
AcDbSymbolTableRecord
100
AcDbLinetypeTableRecord
  2
HIDDEN
 70
     0
  3
__ __ __ __ __ __ __ __ __ __ __ __ __ __ __ __
 72
    65
 73
     2
 40
0.375
 49
0.25
 74
     0
 49
-0.125
 74
     0
  0
LTYPE
  5
781B
330
746A
100
AcDbSymbolTableRecord
100
AcDbLinetypeTableRecord
  2
PHANTOM
 70
     0
  3
______  __  __  ______  __  __  ______  __  __ 
 72
    65
 73
     6
 40
2.5
 49
1.25
 74
     0
 49
-0.25
 74
     0
 49
0.25
 74
     0
 49
-0.25
 74
     0
 49
0.25
 74
     0
 49
-0.25
 74
     0
  0
ENDTAB
  0
TABLE
  2
LAYER
  5
7467
102
{ACAD_XDICTIONARY
360
146F9
102
}
330
0
100
AcDbSymbolTable
 70
    11
  0
LAYER
  5
7474
102
{ACAD_XDICTIONARY
360
14F38
102
}
330
7467
100
AcDbSymbolTableRecord
100
AcDbLayerTableRecord
  2
0
 70
     0
 62
     7
  6
CONTINUOUS
370
    -3
390
146EB
  0
LAYER
  5
DEB2
102
{ACAD_XDICTIONARY
360
14F3A
102
}
330
7467
100
AcDbSymbolTableRecord
100
AcDbLayerTableRecord
  2
センター
 70
     0
 62
     3
  6
CENTER
370
    -3
390
146EB
  0
LAYER
  5
DEB3
102
{ACAD_XDICTIONARY
360
14F3C
102
}
330
7467
100
AcDbSymbolTableRecord
100
AcDbLayerTableRecord
  2
寸法
 70
     0
 62
     4
  6
CONTINUOUS
370
    -3
390
146EB
  0
LAYER
  5
DEB4
102
{ACAD_XDICTIONARY
360
14F3E
102
}
330
7467
100
AcDbSymbolTableRecord
100
AcDbLayerTableRecord
  2
部品1
 70
     0
 62
     7
  6
CONTINUOUS
370
    -3
390
146EB
  0
LAYER
  5
DEB5
102
{ACAD_XDICTIONARY
360
14F40
102
}
330
7467
100
AcDbSymbolTableRecord
100
AcDbLayerTableRecord
  2
補助
 70
     0
 62
    -1
  6
CONTINUOUS
370
    -3
390
146EB
  0
LAYER
  5
DEB6
102
{ACAD_XDICTIONARY
360
14F42
102
}
330
7467
100
AcDbSymbolTableRecord
100
AcDbLayerTableRecord
  2
文字
 70
     0
 62
     7
  6
CONTINUOUS
370
    -3
390
146EB
  0
LAYER
  5
F255
330
7467
100
AcDbSymbolTableRecord
100
AcDbLayerTableRecord
  2
DEFPOINTS
 70
     0
 62
     7
  6
CONTINUOUS
290
     0
370
    -3
390
146EB
  0
LAYER
  5
10B54
102
{ACAD_XDICTIONARY
360
14F44
102
}
330
7467
100
AcDbSymbolTableRecord
100
AcDbLayerTableRecord
  2
仕様書枠
 70
     0
 62
   230
  6
CONTINUOUS
370
    -3
390
146EB
  0
LAYER
  5
11729
102
{ACAD_XDICTIONARY
360
14F46
102
}
330
7467
100
AcDbSymbolTableRecord
100
AcDbLayerTableRecord
  2
Ｇ．Ｌ
 70
     0
 62
    30
  6
CONTINUOUS
370
    -3
390
146EB
  0
LAYER
  5
1173F
102
{ACAD_XDICTIONARY
360
14F48
102
}
330
7467
100
AcDbSymbolTableRecord
100
AcDbLayerTableRecord
  2
細線
 70
     0
 62
     5
  6
CONTINUOUS
370
    -3
390
146EB
  0
LAYER
  5
11740
102
{ACAD_XDICTIONARY
360
14F4A
102
}
330
7467
100
AcDbSymbolTableRecord
100
AcDbLayerTableRecord
  2
点線
 70
     0
 62
     2
  6
HIDDEN
370
    -3
390
146EB
  0
ENDTAB
  0
TABLE
  2
STYLE
  5
7468
330
0
100
AcDbSymbolTable
 70
     6
  0
STYLE
  5
7475
330
7468
100
AcDbSymbolTableRecord
100
AcDbTextStyleTableRecord
  2
STANDARD
 70
     0
 40
0.0
 41
1.0
 50
0.0
 71
     0
 42
4.0
  3
txt
  4
C:\AutoCAD LT\bigfont.shx
  0
STYLE
  5
763C
330
7468
100
AcDbSymbolTableRecord
100
AcDbTextStyleTableRecord
  2
MSMINCHO
 70
     0
 40
0.0
 41
1.0
 50
0.0
 71
     0
 42
1.199999999999999
  3
C:\AutoCAD LT\msminch2.TTF
  4

  0
STYLE
  5
F706
330
7468
100
AcDbSymbolTableRecord
100
AcDbTextStyleTableRecord
  2
STYLE1
 70
     0
 40
0.0
 41
1.0
 50
0.0
 71
     0
 42
4.0
  3
isocp.shx
  4
bigfont.shx
  0
STYLE
  5
103BF
330
7468
100
AcDbSymbolTableRecord
100
AcDbTextStyleTableRecord
  2
STYLE2
 70
     0
 40
0.0
 41
1.0
 50
0.0
 71
     0
 42
100.0
  3
MS PGothic.ttf
  4

1001
ACAD
1000
MS PGothic
1071
    32818
  0
STYLE
  5
10BAA
330
7468
100
AcDbSymbolTableRecord
100
AcDbTextStyleTableRecord
  2
STYLE3
 70
     0
 40
0.0
 41
1.0
 50
0.0
 71
     0
 42
100.0
  3
MS PGothic.ttf
  4

1001
ACAD
1000
MS PGothic
1071
    32818
  0
ENDTAB
  0
TABLE
  2
VIEW
  5
746B
330
0
100
AcDbSymbolTable
 70
     0
  0
ENDTAB
  0
TABLE
  2
UCS
  5
746C
330
0
100
AcDbSymbolTable
 70
     0
  0
ENDTAB
  0
TABLE
  2
APPID
  5
746E
330
0
100
AcDbSymbolTable
 70
    11
  0
APPID
  5
7476
330
746E
100
AcDbSymbolTableRecord
100
AcDbRegAppTableRecord
  2
ACAD
 70
     0
  0
APPID
  5
DEA9
330
746E
100
AcDbSymbolTableRecord
100
AcDbRegAppTableRecord
  2
CONTENTBLOCKICON
 70
     0
  0
APPID
  5
DEAA
330
746E
100
AcDbSymbolTableRecord
100
AcDbRegAppTableRecord
  2
CONTENTBLOCKDESCRIPTION
 70
     0
  0
APPID
  5
E71D
330
746E
100
AcDbSymbolTableRecord
100
AcDbRegAppTableRecord
  2
CONTENTTABDATA
 70
     0
  0
APPID
  5
E71E
330
746E
100
AcDbSymbolTableRecord
100
AcDbRegAppTableRecord
  2
CONTENTCURRENTTAB
 70
     0
  0
APPID
  5
F3BA
330
746E
100
AcDbSymbolTableRecord
100
AcDbRegAppTableRecord
  2
DRAWINGVARIABLESXDATA
 70
     0
  0
APPID
  5
148B5
330
746E
100
AcDbSymbolTableRecord
100
AcDbRegAppTableRecord
  2
ACAD_NAV_VCDISPLAY
 70
     0
  0
APPID
  5
1491A
330
746E
100
AcDbSymbolTableRecord
100
AcDbRegAppTableRecord
  2
ACAD_EXEMPT_FROM_CAD_STANDARDS
 70
     0
  0
APPID
  5
1532F
330
746E
100
AcDbSymbolTableRecord
100
AcDbRegAppTableRecord
  2
AcadAnnoMonitorAlertIconDisabled
 70
     0
  0
APPID
  5
15726
330
746E
100
AcDbSymbolTableRecord
100
AcDbRegAppTableRecord
  2
ACAD_PSEXT
 70
     0
  0
APPID
  5
15793
330
746E
100
AcDbSymbolTableRecord
100
AcDbRegAppTableRecord
  2
ACAD_MLEADERVER
 70
     0
  0
ENDTAB
  0
TABLE
  2
DIMSTYLE
  5
746F
330
0
100
AcDbSymbolTable
 70
     5
100
AcDbDimStyleTable
 71
     1
340
F71F
  0
DIMSTYLE
105
7484
330
746F
100
AcDbSymbolTableRecord
100
AcDbDimStyleTableRecord
  2
JIS
 70
     0
 41
2.5
 42
1.0
 43
7.0
 44
1.0
 73
     0
 74
     0
 77
     1
 78
     8
140
2.5
141
0.0
143
0.0394
147
0.0
172
     1
174
     1
175
     1
340
7475
  0
DIMSTYLE
105
F236
330
746F
100
AcDbSymbolTableRecord
100
AcDbDimStyleTableRecord
  2
INABA_S30
 70
     0
 40
30.0
 41
2.5
 42
0.5
 43
7.0
 44
1.5
 73
     0
 74
     0
 77
     3
 78
     8
140
3.0
141
0.0
143
0.0394
147
1.0
172
     1
173
     1
174
     1
175
     1
178
     7
289
     0
340
7475
341
DEAC
343
DEAC
344
DEAC
  0
DIMSTYLE
105
F71F
102
{ACAD_REACTORS
330
1324C
330
12FB4
330
12F50
330
132B6
330
12F4F
330
13D64
330
14682
330
15271
330
15272
330
1554A
330
155AB
330
155C2
330
155C3
330
155C4
330
155C5
102
}
330
746F
100
AcDbSymbolTableRecord
100
AcDbDimStyleTableRecord
  2
INABA_S30G
 70
     0
 40
30.0
 41
2.5
 42
0.5
 43
7.0
 44
1.5
 73
     0
 74
     0
 77
     3
 78
     8
140
3.0
141
0.0
143
0.0394
147
1.0
172
     1
173
     1
174
     1
175
     1
178
     7
271
     1
340
F706
341
F770
343
F770
344
F770
  0
DIMSTYLE
105
118AC
330
746F
100
AcDbSymbolTableRecord
100
AcDbDimStyleTableRecord
  2
INABA_S80
 70
     0
 40
80.0
 41
0.5
 42
0.2
 43
6.0
 44
0.5
 73
     0
 74
     0
 77
     3
 78
     8
140
2.5
141
0.0
143
0.0394
147
0.8
172
     1
173
     1
174
     1
175
     1
178
     5
271
     2
272
     2
289
     2
340
7475
341
F744
343
F744
344
F744
  0
ENDTAB
  0
TABLE
  2
BLOCK_RECORD
  5
7466
330
0
100
AcDbSymbolTable
 70
    20
  0
BLOCK_RECORD
  5
747D
102
{ACAD_XDICTIONARY
360
153FF
102
}
330
7466
100
AcDbSymbolTableRecord
100
AcDbBlockTableRecord
  2
*MODEL_SPACE
340
146F0
  0
BLOCK_RECORD
  5
747A
330
7466
100
AcDbSymbolTableRecord
100
AcDbBlockTableRecord
  2
*PAPER_SPACE
340
146F1
  0
BLOCK_RECORD
  5
DEAC
330
7466
100
AcDbSymbolTableRecord
100
AcDbBlockTableRecord
  2
_OPEN
340
0
  0
BLOCK_RECORD
  5
ECB3
330
7466
100
AcDbSymbolTableRecord
100
AcDbBlockTableRecord
  2
作図枠S50
340
0
310
2800000020000000200000000100040000000000000200000000000000000000000000000000000000000000000080000080000000808000800000008000800080800000C0C0C000808080000000FF0000FF000000FFFF00FF000000FF00FF00FFFF0000FFFFFF00FFFFFFFFFFFFFFFFFFFFFFFFFFFFFFFFFFFFFFFFFFFFFF
310
FFFFFFFFFFFFFFFFFFFFFFFFFFFFFFFFFFFFFFFFFFFFFFFFFFFFFFFFFFFFFFFFFFFFFFFFFFFFFFFFFFFFFFFFFFFFFFFFFFFFFFFFFFFFFFFFFFFFFFFFFFFFFFFFFFFFFFFFFFFFFFFFFF999999999999999999999999999999999FFFFFFFFFFFFFFFFFFFFFFFFFFFFFF99FFFFFFFFFFFFFFFFFFFFFFFFFFFFFF99FFFFFFFFFFF
310
FFFFFFFFFFFFFFFFFFF99FFFFFFFFFFFFFFFFFFFFFFFFFFFFFF99FFFFFFFFFFFFFFFFFFFFFFFFFFFFFF99FFFFFFFFFFFFFFFFFFFFFFFFFFFFFF99FFFFFFFFFFFFFFFFFFFFFFFFFFFFFF99FFFFFFFFFFFFFFFFFFFFFFFFFFFFFF99FFFFFFFFFFFFFFFFFFFFFFFFFFFFFF99FFFFFFFFFFFFFFFFFFFFFFFFFFFFFF99FFFFFFFFF
310
FFFFFFFFFFFFFFFFFFFFF99FFFFFFFFFFFFFFFFFFFFFFFFFFFFFF99FFFFFFFFFFFFFFFFFFFFFFFFFFFFFF99FFFFFFFFFFFFFFFFFFFFFFFFFFFFFF99FFFFFFFFFFFFFFFFFFFFFFFFFFFFFF99FFFFFFFFFFFFFFFFFFFFFFFFFFFFFF99FFFFFFFFFFFFFFFFFFFFFFFFFFFFFF99FFFFFFFFFFFFFFFFFFFFF99999999999FFFFFFF
310
FFFFFFFFFFFFFF9FFFFFFFFF99999999999999999999999FFFFFFFFFFFFFFFFFFFFFFFFFFFFFFFFFFFFFFFFFFFFFFFFFFFFFFFFFFFFFFFFFFFFFFFFFFFFFFFFFFFFFFFFFFFFFFFFFFFFFFFFFFFFFFFFFFFFFFFFFFFFFFFFFFFFFFFFFFFFFFFFFFFFFFFFFFFFFFFFFFFFFFFFF
102
{BLKREFS
331
F235
102
}
  0
BLOCK_RECORD
  5
F744
330
7466
100
AcDbSymbolTableRecord
100
AcDbBlockTableRecord
  2
_DOT
340
0
  0
BLOCK_RECORD
  5
F770
330
7466
100
AcDbSymbolTableRecord
100
AcDbBlockTableRecord
  2
_DOTSMALL
340
0
102
{BLKREFS
331
151FA
331
151FB
331
15216
331
15217
331
1521F
331
15220
331
1534E
331
1534F
331
15360
331
15361
331
15396
331
15397
331
156C6
331
156C7
331
156CE
331
156CF
331
156D7
331
156D8
331
156E0
331
156E1
331
156EB
331
156EC
331
156F6
331
156F7
331
15700
331
15701
331
15708
331
1570F
102
}
  0
BLOCK_RECORD
  5
1344A
330
7466
100
AcDbSymbolTableRecord
100
AcDbBlockTableRecord
  2
*D4
340
0
  0
BLOCK_RECORD
  5
13456
330
7466
100
AcDbSymbolTableRecord
100
AcDbBlockTableRecord
  2
*D5
340
0
  0
BLOCK_RECORD
  5
1346D
330
7466
100
AcDbSymbolTableRecord
100
AcDbBlockTableRecord
  2
*D6
340
0
  0
BLOCK_RECORD
  5
134A6
330
7466
100
AcDbSymbolTableRecord
100
AcDbBlockTableRecord
  2
*D7
340
0
  0
BLOCK_RECORD
  5
134B1
330
7466
100
AcDbSymbolTableRecord
100
AcDbBlockTableRecord
  2
*D8
340
0
  0
BLOCK_RECORD
  5
13DBA
330
7466
100
AcDbSymbolTableRecord
100
AcDbBlockTableRecord
  2
*D9
340
0
  0
BLOCK_RECORD
  5
14683
330
7466
100
AcDbSymbolTableRecord
100
AcDbBlockTableRecord
  2
*D10
340
0
  0
BLOCK_RECORD
  5
15273
330
7466
100
AcDbSymbolTableRecord
100
AcDbBlockTableRecord
  2
*D11
340
0
  0
BLOCK_RECORD
  5
1527D
330
7466
100
AcDbSymbolTableRecord
100
AcDbBlockTableRecord
  2
*D12
340
0
  0
BLOCK_RECORD
  5
1563C
330
7466
100
AcDbSymbolTableRecord
100
AcDbBlockTableRecord
  2
*D13
340
0
  0
BLOCK_RECORD
  5
15648
330
7466
100
AcDbSymbolTableRecord
100
AcDbBlockTableRecord
  2
*D14
340
0
  0
BLOCK_RECORD
  5
15654
330
7466
100
AcDbSymbolTableRecord
100
AcDbBlockTableRecord
  2
*D15
340
0
  0
BLOCK_RECORD
  5
15660
330
7466
100
AcDbSymbolTableRecord
100
AcDbBlockTableRecord
  2
*D16
340
0
  0
BLOCK_RECORD
  5
1566C
330
7466
100
AcDbSymbolTableRecord
100
AcDbBlockTableRecord
  2
*D17
340
0
  0
BLOCK_RECORD
  5
1567A
330
7466
100
AcDbSymbolTableRecord
100
AcDbBlockTableRecord
  2
*D18
340
0
  0
ENDTAB
  0
ENDSEC
  0
SECTION
  2
BLOCKS
  0
BLOCK
  5
7489
330
747D
100
AcDbEntity
  8
0
100
AcDbBlockBegin
  2
*MODEL_SPACE
 70
     0
 10
0.0
 20
0.0
 30
0.0
  3
*MODEL_SPACE
  1

  0
ENDBLK
  5
748A
330
747D
100
AcDbEntity
  8
0
100
AcDbBlockEnd
  0
BLOCK
  5
7487
330
747A
100
AcDbEntity
 67
     1
  8
0
100
AcDbBlockBegin
  2
*PAPER_SPACE
 70
     0
 10
0.0
 20
0.0
 30
0.0
  3
*PAPER_SPACE
  1

  0
ENDBLK
  5
7488
330
747A
100
AcDbEntity
 67
     1
  8
0
100
AcDbBlockEnd
  0
BLOCK
  5
DEAD
330
DEAC
100
AcDbEntity
  8
0
100
AcDbBlockBegin
  2
_OPEN
 70
     0
 10
0.0
 20
0.0
 30
0.0
  3
_OPEN
  1

  0
LINE
  5
DEAE
330
DEAC
100
AcDbEntity
  8
0
  6
ByBlock
 62
     0
100
AcDbLine
 10
-1.0
 20
0.1666666666666666
 30
0.0
 11
0.0
 21
0.0
 31
0.0
  0
LINE
  5
DEAF
330
DEAC
100
AcDbEntity
  8
0
  6
ByBlock
 62
     0
100
AcDbLine
 10
0.0
 20
0.0
 30
0.0
 11
-1.0
 21
-0.1666666666666666
 31
0.0
  0
LINE
  5
DEB0
330
DEAC
100
AcDbEntity
  8
0
  6
ByBlock
 62
     0
100
AcDbLine
 10
0.0
 20
0.0
 30
0.0
 11
-1.0
 21
0.0
 31
0.0
  0
ENDBLK
  5
DEB1
330
DEAC
100
AcDbEntity
  8
0
100
AcDbBlockEnd
  0
BLOCK
  5
ECB4
330
ECB3
100
AcDbEntity
  8
0
100
AcDbBlockBegin
  2
作図枠S50
 70
     0
 10
0.0
 20
0.0
 30
0.0
  3
作図枠S50
  1

  4
作図領域枠 縮尺 1/50
  0
LINE
  5
ECB5
330
ECB3
100
AcDbEntity
  8
補助
100
AcDbLine
 10
14364.0
 20
14262.0
 30
0.0
 11
174.9999999999993
 21
14262.0
 31
0.0
  0
LINE
  5
ECB6
330
ECB3
100
AcDbEntity
  8
補助
100
AcDbLine
 10
174.9999999999993
 20
14262.0
 30
0.0
 11
174.9999999999993
 21
1520.0
 31
0.0
  0
LINE
  5
ECB7
330
ECB3
100
AcDbEntity
  8
補助
100
AcDbLine
 10
174.9999999999993
 20
1520.0
 30
0.0
 11
20384.0
 21
1520.0
 31
0.0
  0
LINE
  5
ECB8
330
ECB3
100
AcDbEntity
  8
補助
100
AcDbLine
 10
20384.0
 20
1520.0
 30
0.0
 11
20384.0
 21
13042.0
 31
0.0
  0
LINE
  5
ECB9
330
ECB3
100
AcDbEntity
  8
補助
100
AcDbLine
 10
20384.0
 20
13042.0
 30
0.0
 11
14364.0
 21
13042.0
 31
0.0
  0
LINE
  5
ECBA
330
ECB3
100
AcDbEntity
  8
補助
100
AcDbLine
 10
14364.0
 20
13042.0
 30
0.0
 11
14364.0
 21
14262.0
 31
0.0
  0
ENDBLK
  5
ECBB
330
ECB3
100
AcDbEntity
  8
0
100
AcDbBlockEnd
  0
BLOCK
  5
F745
330
F744
100
AcDbEntity
  8
0
 48
50.0
100
AcDbBlockBegin
  2
_DOT
 70
     0
 10
0.0
 20
0.0
 30
0.0
  3
_DOT
  1

  0
LWPOLYLINE
  5
F746
330
F744
100
AcDbEntity
  8
0
  6
ByBlock
 62
     0
 48
50.0
100
AcDbPolyline
 90
        2
 70
     1
 43
0.5
 10
-0.25
 20
0.0
 42
1.0
 10
0.25
 20
0.0
 42
1.0
  0
LINE
  5
F74A
330
F744
100
AcDbEntity
  8
0
  6
ByBlock
 62
     0
 48
50.0
100
AcDbLine
 10
-0.5
 20
0.0
 30
0.0
 11
-1.0
 21
0.0
 31
0.0
  0
ENDBLK
  5
F74B
330
F744
100
AcDbEntity
  8
0
 48
50.0
100
AcDbBlockEnd
  0
BLOCK
  5
F771
330
F770
100
AcDbEntity
  8
0
 48
50.0
100
AcDbBlockBegin
  2
_DOTSMALL
 70
     0
 10
0.0
 20
0.0
 30
0.0
  3
_DOTSMALL
  1

  0
LWPOLYLINE
  5
F772
330
F770
100
AcDbEntity
  8
0
  6
ByBlock
 62
     0
 48
50.0
100
AcDbPolyline
 90
        2
 70
     1
 43
0.5
 10
-0.0625
 20
0.0
 42
1.0
 10
0.0625
 20
0.0
 42
1.0
  0
ENDBLK
  5
F776
330
F770
100
AcDbEntity
  8
0
 48
50.0
100
AcDbBlockEnd
  0
BLOCK
  5
14645
330
1344A
100
AcDbEntity
  8
0
 48
50.0
100
AcDbBlockBegin
  2
*D4
 70
     1
 10
0.0
 20
0.0
 30
0.0
  3
*D4
  1

  0
LINE
  5
1535D
330
1344A
100
AcDbEntity
  8
寸法
 62
     0
 48
50.0
370
    -2
100
AcDbLine
 10
718.6778302588045
 20
4081.450581124186
 30
0.0
 11
718.6778302588045
 21
4955.957606075109
 31
0.0
  0
LINE
  5
1535E
330
1344A
100
AcDbEntity
  8
寸法
 62
     0
 48
50.0
370
    -2
100
AcDbLine
 10
7718.677830258808
 20
4081.450581124181
 30
0.0
 11
7718.677830258808
 21
4955.957606075109
 31
0.0
  0
LINE
  5
1535F
330
1344A
100
AcDbEntity
  8
寸法
 62
     0
 48
50.0
370
    -2
100
AcDbLine
 10
718.6778302588045
 20
4910.957606075109
 30
0.0
 11
7718.677830258808
 21
4910.957606075109
 31
0.0
  0
INSERT
  5
15360
330
1344A
100
AcDbEntity
  8
寸法
 62
     0
 48
50.0
370
    -2
100
AcDbBlockReference
  2
_DOTSMALL
 10
718.6778302588045
 20
4910.957606075109
 30
0.0
 41
75.0
 42
75.0
 43
75.0
 50
180.0
  0
INSERT
  5
15361
330
1344A
100
AcDbEntity
  8
寸法
 62
     0
 48
50.0
370
    -2
100
AcDbBlockReference
  2
_DOTSMALL
 10
7718.677830258808
 20
4910.957606075109
 30
0.0
 41
75.0
 42
75.0
 43
75.0
  0
MTEXT
  5
15362
330
1344A
100
AcDbEntity
  8
寸法
 62
     7
 48
50.0
100
AcDbMText
 10
4218.677830258807
 20
4985.966464342825
 30
0.0
 40
90.0
 41
0.0
 71
     5
 72
     1
  1
\A1;N X 3250 + 500
  7
STYLE1
 73
     1
 44
1.0
1001
ACAD
1000
MTEXTBEGIN
1070
    73
1070
     1
1070
    44
1040
1.0
1070
    74
1070
     0
1000
MTEXTEND
  0
POINT
  5
15363
330
1344A
100
AcDbEntity
  8
DEFPOINTS
 62
     0
 48
50.0
100
AcDbPoint
 10
718.6778302588045
 20
4066.450581124185
 30
0.0
  0
POINT
  5
15364
330
1344A
100
AcDbEntity
  8
DEFPOINTS
 62
     0
 48
50.0
100
AcDbPoint
 10
7718.677830258808
 20
4066.450581124181
 30
0.0
  0
POINT
  5
15365
330
1344A
100
AcDbEntity
  8
DEFPOINTS
 62
     0
 48
50.0
100
AcDbPoint
 10
7718.677830258808
 20
4910.957606075109
 30
0.0
  0
ENDBLK
  5
1464F
330
1344A
100
AcDbEntity
  8
0
 48
50.0
100
AcDbBlockEnd
  0
BLOCK
  5
1463A
330
13456
100
AcDbEntity
  8
0
 48
50.0
100
AcDbBlockBegin
  2
*D5
 70
     1
 10
0.0
 20
0.0
 30
0.0
  3
*D5
  1

  0
LINE
  5
15393
330
13456
100
AcDbEntity
  8
寸法
 62
     0
 48
50.0
370
    -2
100
AcDbLine
 10
968.6778302588045
 20
3985.897875741638
 30
0.0
 11
968.6778302588045
 21
4646.702425425576
 31
0.0
  0
LINE
  5
15394
330
13456
100
AcDbEntity
  8
寸法
 62
     0
 48
50.0
370
    -2
100
AcDbLine
 10
7468.677830258808
 20
3985.897875741633
 30
0.0
 11
7468.677830258808
 21
4646.702425425576
 31
0.0
  0
LINE
  5
15395
330
13456
100
AcDbEntity
  8
寸法
 62
     0
 48
50.0
370
    -2
100
AcDbLine
 10
968.6778302588045
 20
4601.702425425576
 30
0.0
 11
7468.677830258808
 21
4601.702425425576
 31
0.0
  0
INSERT
  5
15396
330
13456
100
AcDbEntity
  8
寸法
 62
     0
 48
50.0
370
    -2
100
AcDbBlockReference
  2
_DOTSMALL
 10
968.6778302588045
 20
4601.702425425576
 30
0.0
 41
75.0
 42
75.0
 43
75.0
 50
180.0
  0
INSERT
  5
15397
330
13456
100
AcDbEntity
  8
寸法
 62
     0
 48
50.0
370
    -2
100
AcDbBlockReference
  2
_DOTSMALL
 10
7468.677830258808
 20
4601.702425425576
 30
0.0
 41
75.0
 42
75.0
 43
75.0
  0
MTEXT
  5
15398
330
13456
100
AcDbEntity
  8
寸法
 62
     7
 48
50.0
100
AcDbMText
 10
4218.677830258807
 20
4676.711283693292
 30
0.0
 40
90.0
 41
0.0
 71
     5
 72
     1
  1
\A1;N X 3250
  7
STYLE1
 73
     1
 44
1.0
1001
ACAD
1000
MTEXTBEGIN
1070
    73
1070
     1
1070
    44
1040
1.0
1070
    74
1070
     0
1000
MTEXTEND
  0
POINT
  5
15399
330
13456
100
AcDbEntity
  8
DEFPOINTS
 62
     0
 48
50.0
100
AcDbPoint
 10
968.6778302588045
 20
3970.897875741638
 30
0.0
  0
POINT
  5
1539A
330
13456
100
AcDbEntity
  8
DEFPOINTS
 62
     0
 48
50.0
100
AcDbPoint
 10
7468.677830258808
 20
3970.897875741633
 30
0.0
  0
POINT
  5
1539B
330
13456
100
AcDbEntity
  8
DEFPOINTS
 62
     0
 48
50.0
100
AcDbPoint
 10
7468.677830258808
 20
4601.702425425576
 30
0.0
  0
ENDBLK
  5
14644
330
13456
100
AcDbEntity
  8
0
 48
50.0
100
AcDbBlockEnd
  0
BLOCK
  5
13E0A
330
1346D
100
AcDbEntity
  8
0
 48
50.0
100
AcDbBlockBegin
  2
*D6
 70
     1
 10
0.0
 20
0.0
 30
0.0
  3
*D6
  1

  0
LINE
  5
151F6
330
1346D
100
AcDbEntity
  8
寸法
 62
     0
 48
50.0
370
    -2
100
AcDbLine
 10
718.6778302588045
 20
4081.450581124186
 30
0.0
 11
718.6778302588045
 21
4646.702425425582
 31
0.0
  0
LINE
  5
151F7
330
1346D
100
AcDbEntity
  8
寸法
 62
     0
 48
50.0
370
    -2
100
AcDbLine
 10
968.6778302588045
 20
3985.897875741638
 30
0.0
 11
968.6778302588045
 21
4646.702425425582
 31
0.0
  0
LINE
  5
151F8
330
1346D
100
AcDbEntity
  8
寸法
 62
     0
 48
50.0
370
    -2
100
AcDbLine
 10
968.6778302588045
 20
4601.702425425582
 30
0.0
 11
718.6778302588045
 21
4601.702425425582
 31
0.0
  0
LINE
  5
151F9
330
1346D
100
AcDbEntity
  8
寸法
 62
     0
 48
50.0
370
    -2
100
AcDbLine
 10
718.6778302588045
 20
4601.702425425582
 30
0.0
 11
419.3215310462058
 21
4601.702425425582
 31
0.0
  0
INSERT
  5
151FA
330
1346D
100
AcDbEntity
  8
寸法
 62
     0
 48
50.0
370
    -2
100
AcDbBlockReference
  2
_DOTSMALL
 10
968.6778302588045
 20
4601.702425425582
 30
0.0
 41
75.0
 42
75.0
 43
75.0
  0
INSERT
  5
151FB
330
1346D
100
AcDbEntity
  8
寸法
 62
     0
 48
50.0
370
    -2
100
AcDbBlockReference
  2
_DOTSMALL
 10
718.6778302588045
 20
4601.702425425582
 30
0.0
 41
75.0
 42
75.0
 43
75.0
 50
180.0
  0
MTEXT
  5
151FC
330
1346D
100
AcDbEntity
  8
寸法
 62
     7
 48
50.0
100
AcDbMText
 10
531.4996806525051
 20
4676.711283693299
 30
0.0
 40
90.0
 41
0.0
 71
     5
 72
     1
  1
\A1;250
  7
STYLE1
 73
     1
 44
1.0
1001
ACAD
1000
MTEXTBEGIN
1070
    73
1070
     1
1070
    44
1040
1.0
1070
    74
1070
     0
1000
MTEXTEND
  0
POINT
  5
151FD
330
1346D
100
AcDbEntity
  8
DEFPOINTS
 62
     0
 48
50.0
100
AcDbPoint
 10
718.6778302588045
 20
4066.450581124185
 30
0.0
  0
POINT
  5
151FE
330
1346D
100
AcDbEntity
  8
DEFPOINTS
 62
     0
 48
50.0
100
AcDbPoint
 10
968.6778302588045
 20
3970.897875741638
 30
0.0
  0
POINT
  5
151FF
330
1346D
100
AcDbEntity
  8
DEFPOINTS
 62
     0
 48
50.0
100
AcDbPoint
 10
968.6778302588045
 20
4601.702425425582
 30
0.0
  0
ENDBLK
  5
13E15
330
1346D
100
AcDbEntity
  8
0
 48
50.0
100
AcDbBlockEnd
  0
BLOCK
  5
1462F
330
134A6
100
AcDbEntity
  8
0
 48
50.0
100
AcDbBlockBegin
  2
*D7
 70
     1
 10
0.0
 20
0.0
 30
0.0
  3
*D7
  1

  0
LINE
  5
156FD
330
134A6
100
AcDbEntity
  8
寸法
 62
     0
 48
50.0
370
    -2
100
AcDbLine
 10
4218.677830258807
 20
1695.562576328023
 30
0.0
 11
4218.677830258807
 21
1469.610538984611
 31
0.0
  0
LINE
  5
156FE
330
134A6
100
AcDbEntity
  8
寸法
 62
     0
 48
50.0
370
    -2
100
AcDbLine
 10
7468.677830258808
 20
1695.562576328018
 30
0.0
 11
7468.677830258808
 21
1469.610538984611
 31
0.0
  0
LINE
  5
156FF
330
134A6
100
AcDbEntity
  8
寸法
 62
     0
 48
50.0
370
    -2
100
AcDbLine
 10
4218.677830258807
 20
1514.610538984611
 30
0.0
 11
7468.677830258808
 21
1514.610538984611
 31
0.0
  0
INSERT
  5
15700
330
134A6
100
AcDbEntity
  8
寸法
 62
     0
 48
50.0
370
    -2
100
AcDbBlockReference
  2
_DOTSMALL
 10
4218.677830258807
 20
1514.610538984611
 30
0.0
 41
75.0
 42
75.0
 43
75.0
 50
180.0
  0
INSERT
  5
15701
330
134A6
100
AcDbEntity
  8
寸法
 62
     0
 48
50.0
370
    -2
100
AcDbBlockReference
  2
_DOTSMALL
 10
7468.677830258808
 20
1514.610538984611
 30
0.0
 41
75.0
 42
75.0
 43
75.0
  0
MTEXT
  5
15702
330
134A6
100
AcDbEntity
  8
寸法
 62
     7
 48
50.0
100
AcDbMText
 10
5843.677830258808
 20
1589.619397252327
 30
0.0
 40
90.0
 41
0.0
 71
     5
 72
     1
  1
\A1;3250
  7
STYLE1
 73
     1
 44
1.0
1001
ACAD
1000
MTEXTBEGIN
1070
    73
1070
     1
1070
    44
1040
1.0
1070
    74
1070
     0
1000
MTEXTEND
  0
POINT
  5
15703
330
134A6
100
AcDbEntity
  8
DEFPOINTS
 62
     0
 48
50.0
100
AcDbPoint
 10
4218.677830258807
 20
1710.562576328023
 30
0.0
  0
POINT
  5
15704
330
134A6
100
AcDbEntity
  8
DEFPOINTS
 62
     0
 48
50.0
100
AcDbPoint
 10
7468.677830258808
 20
1710.562576328018
 30
0.0
  0
POINT
  5
15705
330
134A6
100
AcDbEntity
  8
DEFPOINTS
 62
     0
 48
50.0
100
AcDbPoint
 10
7468.677830258808
 20
1514.610538984611
 30
0.0
  0
ENDBLK
  5
14639
330
134A6
100
AcDbEntity
  8
0
 48
50.0
100
AcDbBlockEnd
  0
BLOCK
  5
13E37
330
134B1
100
AcDbEntity
  8
0
 48
50.0
100
AcDbBlockBegin
  2
*D8
 70
     1
 10
0.0
 20
0.0
 30
0.0
  3
*D8
  1

  0
LINE
  5
15212
330
134B1
100
AcDbEntity
  8
寸法
 62
     0
 48
50.0
370
    -2
100
AcDbLine
 10
7468.677830258808
 20
3985.897875741633
 30
0.0
 11
7468.677830258808
 21
4646.702425425576
 31
0.0
  0
LINE
  5
15213
330
134B1
100
AcDbEntity
  8
寸法
 62
     0
 48
50.0
370
    -2
100
AcDbLine
 10
7718.677830258808
 20
4081.450581124181
 30
0.0
 11
7718.677830258808
 21
4646.702425425576
 31
0.0
  0
LINE
  5
15214
330
134B1
100
AcDbEntity
  8
寸法
 62
     0
 48
50.0
370
    -2
100
AcDbLine
 10
7468.677830258808
 20
4601.702425425576
 30
0.0
 11
7718.677830258808
 21
4601.702425425576
 31
0.0
  0
LINE
  5
15215
330
134B1
100
AcDbEntity
  8
寸法
 62
     0
 48
50.0
370
    -2
100
AcDbLine
 10
7718.677830258808
 20
4601.702425425576
 30
0.0
 11
8122.581927745148
 21
4601.702425425576
 31
0.0
  0
INSERT
  5
15216
330
134B1
100
AcDbEntity
  8
寸法
 62
     0
 48
50.0
370
    -2
100
AcDbBlockReference
  2
_DOTSMALL
 10
7468.677830258808
 20
4601.702425425576
 30
0.0
 41
75.0
 42
75.0
 43
75.0
 50
180.0
  0
INSERT
  5
15217
330
134B1
100
AcDbEntity
  8
寸法
 62
     0
 48
50.0
370
    -2
100
AcDbBlockReference
  2
_DOTSMALL
 10
7718.677830258808
 20
4601.702425425576
 30
0.0
 41
75.0
 42
75.0
 43
75.0
  0
MTEXT
  5
15218
330
134B1
100
AcDbEntity
  8
寸法
 62
     7
 48
50.0
100
AcDbMText
 10
8010.403778138849
 20
4676.711283693292
 30
0.0
 40
90.0
 41
0.0
 71
     5
 72
     1
  1
\A1;250
  7
STYLE1
 73
     1
 44
1.0
1001
ACAD
1000
MTEXTBEGIN
1070
    73
1070
     1
1070
    44
1040
1.0
1070
    74
1070
     0
1000
MTEXTEND
  0
POINT
  5
15219
330
134B1
100
AcDbEntity
  8
DEFPOINTS
 62
     0
 48
50.0
100
AcDbPoint
 10
7468.677830258808
 20
3970.897875741633
 30
0.0
  0
POINT
  5
1521A
330
134B1
100
AcDbEntity
  8
DEFPOINTS
 62
     0
 48
50.0
100
AcDbPoint
 10
7718.677830258808
 20
4066.450581124181
 30
0.0
  0
POINT
  5
1521B
330
134B1
100
AcDbEntity
  8
DEFPOINTS
 62
     0
 48
50.0
100
AcDbPoint
 10
7718.677830258808
 20
4601.702425425576
 30
0.0
  0
ENDBLK
  5
13E42
330
134B1
100
AcDbEntity
  8
0
 48
50.0
100
AcDbBlockEnd
  0
BLOCK
  5
13DFF
330
13DBA
100
AcDbEntity
  8
0
 48
50.0
100
AcDbBlockBegin
  2
*D9
 70
     1
 10
0.0
 20
0.0
 30
0.0
  3
*D9
  1

  0
LINE
  5
1521C
330
13DBA
100
AcDbEntity
  8
寸法
 62
     0
 48
50.0
370
    -2
100
AcDbLine
 10
7718.677830258805
 20
7921.447238448386
 30
0.0
 11
8387.167364783687
 21
7921.447238448386
 31
0.0
  0
LINE
  5
1521D
330
13DBA
100
AcDbEntity
  8
寸法
 62
     0
 48
50.0
370
    -2
100
AcDbLine
 10
7718.677830258805
 20
5921.447238448383
 30
0.0
 11
8387.167364783687
 21
5921.447238448383
 31
0.0
  0
LINE
  5
1521E
330
13DBA
100
AcDbEntity
  8
寸法
 62
     0
 48
50.0
370
    -2
100
AcDbLine
 10
8342.167364783687
 20
7921.447238448386
 30
0.0
 11
8342.167364783687
 21
5921.447238448383
 31
0.0
  0
INSERT
  5
1521F
330
13DBA
100
AcDbEntity
  8
寸法
 62
     0
 48
50.0
370
    -2
100
AcDbBlockReference
  2
_DOTSMALL
 10
8342.167364783687
 20
7921.447238448386
 30
0.0
 41
75.0
 42
75.0
 43
75.0
 50
90.0
  0
INSERT
  5
15220
330
13DBA
100
AcDbEntity
  8
寸法
 62
     0
 48
50.0
370
    -2
100
AcDbBlockReference
  2
_DOTSMALL
 10
8342.167364783687
 20
5921.447238448383
 30
0.0
 41
75.0
 42
75.0
 43
75.0
 50
270.0
  0
MTEXT
  5
15221
330
13DBA
100
AcDbEntity
  8
寸法
 62
     7
 48
50.0
100
AcDbMText
 10
8267.158506515968
 20
6921.447238448384
 30
0.0
 40
90.0
 41
0.0
 71
     5
 72
     1
  1
\A1;2000
  7
STYLE1
 11
0.0000000000000001
 21
1.0
 31
0.0
 73
     1
 44
1.0
1001
ACAD
1000
MTEXTBEGIN
1070
    73
1070
     1
1070
    44
1040
1.0
1070
    74
1070
     0
1000
MTEXTEND
  0
POINT
  5
15222
330
13DBA
100
AcDbEntity
  8
DEFPOINTS
 62
     0
 48
50.0
100
AcDbPoint
 10
7703.677830258804
 20
7921.447238448386
 30
0.0
  0
POINT
  5
15223
330
13DBA
100
AcDbEntity
  8
DEFPOINTS
 62
     0
 48
50.0
100
AcDbPoint
 10
7703.677830258804
 20
5921.447238448383
 30
0.0
  0
POINT
  5
15224
330
13DBA
100
AcDbEntity
  8
DEFPOINTS
 62
     0
 48
50.0
100
AcDbPoint
 10
8342.167364783687
 20
5921.447238448383
 30
0.0
  0
ENDBLK
  5
13E09
330
13DBA
100
AcDbEntity
  8
0
 48
50.0
100
AcDbBlockEnd
  0
BLOCK
  5
1469A
330
14683
100
AcDbEntity
  8
0
 48
50.0
100
AcDbBlockBegin
  2
*D10
 70
     1
 10
0.0
 20
0.0
 30
0.0
  3
*D10
  1

  0
LINE
  5
1534B
330
14683
100
AcDbEntity
  8
寸法
 62
     0
 48
50.0
370
    -2
100
AcDbLine
 10
718.677830258805
 20
7921.447238448381
 30
0.0
 11
718.677830258805
 21
8301.091035740652
 31
0.0
  0
LINE
  5
1534C
330
14683
100
AcDbEntity
  8
寸法
 62
     0
 48
50.0
370
    -2
100
AcDbLine
 10
7718.677830258805
 20
7920.978717162715
 30
0.0
 11
7718.677830258805
 21
8301.091035740652
 31
0.0
  0
LINE
  5
1534D
330
14683
100
AcDbEntity
  8
寸法
 62
     0
 48
50.0
370
    -2
100
AcDbLine
 10
718.677830258805
 20
8256.091035740652
 30
0.0
 11
7718.677830258805
 21
8256.091035740652
 31
0.0
  0
INSERT
  5
1534E
330
14683
100
AcDbEntity
  8
寸法
 62
     0
 48
50.0
370
    -2
100
AcDbBlockReference
  2
_DOTSMALL
 10
718.677830258805
 20
8256.091035740652
 30
0.0
 41
75.0
 42
75.0
 43
75.0
 50
180.0
  0
INSERT
  5
1534F
330
14683
100
AcDbEntity
  8
寸法
 62
     0
 48
50.0
370
    -2
100
AcDbBlockReference
  2
_DOTSMALL
 10
7718.677830258805
 20
8256.091035740652
 30
0.0
 41
75.0
 42
75.0
 43
75.0
  0
MTEXT
  5
15350
330
14683
100
AcDbEntity
  8
寸法
 62
     7
 48
50.0
100
AcDbMText
 10
4218.677830258804
 20
8331.099894008367
 30
0.0
 40
90.0
 41
0.0
 71
     5
 72
     1
  1
\A1;N X 3250 + 500
  7
STYLE1
 73
     1
 44
1.0
1001
ACAD
1000
MTEXTBEGIN
1070
    73
1070
     1
1070
    44
1040
1.0
1070
    74
1070
     0
1000
MTEXTEND
  0
POINT
  5
15351
330
14683
100
AcDbEntity
  8
DEFPOINTS
 62
     0
 48
50.0
100
AcDbPoint
 10
718.677830258805
 20
7906.447238448382
 30
0.0
  0
POINT
  5
15352
330
14683
100
AcDbEntity
  8
DEFPOINTS
 62
     0
 48
50.0
100
AcDbPoint
 10
7718.677830258805
 20
7905.978717162716
 30
0.0
  0
POINT
  5
15353
330
14683
100
AcDbEntity
  8
DEFPOINTS
 62
     0
 48
50.0
100
AcDbPoint
 10
7718.677830258805
 20
8256.091035740652
 30
0.0
  0
ENDBLK
  5
146A4
330
14683
100
AcDbEntity
  8
0
 48
50.0
100
AcDbBlockEnd
  0
BLOCK
  5
15274
330
15273
100
AcDbEntity
  8
0
 48
50.0
100
AcDbBlockBegin
  2
*D11
 70
     1
 10
0.0
 20
0.0
 30
0.0
  3
*D11
  1

  0
LINE
  5
15706
330
15273
100
AcDbEntity
  8
寸法
 62
     0
 48
50.0
370
    -2
100
AcDbLine
 10
4218.677830258807
 20
1695.562576328023
 30
0.0
 11
4218.677830258807
 21
1469.610538984616
 31
0.0
  0
LINE
  5
15707
330
15273
100
AcDbEntity
  8
寸法
 62
     0
 48
50.0
370
    -2
100
AcDbLine
 10
4218.677830258807
 20
1514.610538984616
 30
0.0
 11
2866.951892153151
 21
1514.610538984616
 31
0.0
  0
INSERT
  5
15708
330
15273
100
AcDbEntity
  8
寸法
 62
     0
 48
50.0
370
    -2
100
AcDbBlockReference
  2
_DOTSMALL
 10
4218.677830258807
 20
1514.610538984616
 30
0.0
 41
75.0
 42
75.0
 43
75.0
  0
MTEXT
  5
15709
330
15273
100
AcDbEntity
  8
寸法
 62
     7
 48
50.0
100
AcDbMText
 10
3009.487325224018
 20
1589.619397252332
 30
0.0
 40
90.0
 41
0.0
 71
     5
 72
     1
  1
\A1;3250
  7
STYLE1
 73
     1
 44
1.0
1001
ACAD
1000
MTEXTBEGIN
1070
    73
1070
     1
1070
    44
1040
1.0
1070
    74
1070
     0
1000
MTEXTEND
  0
POINT
  5
1570A
330
15273
100
AcDbEntity
  8
DEFPOINTS
 62
     0
 48
50.0
100
AcDbPoint
 10
968.6778302588045
 20
1710.562576328023
 30
0.0
  0
POINT
  5
1570B
330
15273
100
AcDbEntity
  8
DEFPOINTS
 62
     0
 48
50.0
100
AcDbPoint
 10
4218.677830258807
 20
1710.562576328023
 30
0.0
  0
POINT
  5
1570C
330
15273
100
AcDbEntity
  8
DEFPOINTS
 62
     0
 48
50.0
100
AcDbPoint
 10
4218.677830258807
 20
1514.610538984616
 30
0.0
  0
ENDBLK
  5
15275
330
15273
100
AcDbEntity
  8
0
 48
50.0
100
AcDbBlockEnd
  0
BLOCK
  5
1527E
330
1527D
100
AcDbEntity
  8
0
 48
50.0
100
AcDbBlockBegin
  2
*D12
 70
     1
 10
0.0
 20
0.0
 30
0.0
  3
*D12
  1

  0
LINE
  5
1570D
330
1527D
100
AcDbEntity
  8
寸法
 62
     0
 48
50.0
370
    -2
100
AcDbLine
 10
968.6778302588054
 20
1695.562576328023
 30
0.0
 11
968.6778302588054
 21
1466.062951825057
 31
0.0
  0
LINE
  5
1570E
330
1527D
100
AcDbEntity
  8
寸法
 62
     0
 48
50.0
370
    -2
100
AcDbLine
 10
968.6778302588054
 20
1511.062951825057
 30
0.0
 11
2397.414364946051
 21
1511.062951825057
 31
0.0
  0
INSERT
  5
1570F
330
1527D
100
AcDbEntity
  8
寸法
 62
     0
 48
50.0
370
    -2
100
AcDbBlockReference
  2
_DOTSMALL
 10
968.6778302588054
 20
1511.062951825057
 30
0.0
 41
75.0
 42
75.0
 43
75.0
 50
180.0
  0
MTEXT
  5
15710
330
1527D
100
AcDbEntity
  8
寸法
 62
     7
 48
50.0
100
AcDbMText
 10
2254.878931875185
 20
1586.071810092774
 30
0.0
 40
90.0
 41
0.0
 71
     5
 72
     1
  1
\A1;3250
  7
STYLE1
 73
     1
 44
1.0
1001
ACAD
1000
MTEXTBEGIN
1070
    73
1070
     1
1070
    44
1040
1.0
1070
    74
1070
     0
1000
MTEXTEND
  0
POINT
  5
15711
330
1527D
100
AcDbEntity
  8
DEFPOINTS
 62
     0
 48
50.0
100
AcDbPoint
 10
4218.677830258807
 20
1710.562576328023
 30
0.0
  0
POINT
  5
15712
330
1527D
100
AcDbEntity
  8
DEFPOINTS
 62
     0
 48
50.0
100
AcDbPoint
 10
968.6778302588054
 20
1710.562576328023
 30
0.0
  0
POINT
  5
15713
330
1527D
100
AcDbEntity
  8
DEFPOINTS
 62
     0
 48
50.0
100
AcDbPoint
 10
968.6778302588054
 20
1511.062951825057
 30
0.0
  0
ENDBLK
  5
1527F
330
1527D
100
AcDbEntity
  8
0
 48
50.0
100
AcDbBlockEnd
  0
BLOCK
  5
1563D
330
1563C
100
AcDbEntity
  8
0
 48
50.0
100
AcDbBlockBegin
  2
*D13
 70
     1
 10
0.0
 20
0.0
 30
0.0
  3
*D13
  1

  0
LINE
  5
156C2
330
1563C
100
AcDbEntity
  8
寸法
 62
     0
 48
50.0
370
    -2
100
AcDbLine
 10
9328.881624104385
 20
4082.038116080243
 30
0.0
 11
8989.865203845369
 21
4095.598772890603
 31
0.0
  0
LINE
  5
156C3
330
1563C
100
AcDbEntity
  8
寸法
 62
     0
 48
50.0
370
    -2
100
AcDbLine
 10
9349.113449908889
 20
3977.646076141592
 30
0.0
 11
8985.728511876262
 21
3992.181473662897
 31
0.0
  0
LINE
  5
156C4
330
1563C
100
AcDbEntity
  8
寸法
 62
     0
 48
50.0
370
    -2
100
AcDbLine
 10
9034.829246987849
 20
4093.800211164905
 30
0.0
 11
9030.692555018742
 21
3990.382911937198
 31
0.0
  0
MTEXT
  5
156C5
330
1563C
100
AcDbEntity
  8
寸法
 62
     7
 48
50.0
100
AcDbMText
 10
8957.82082909916
 20
4055.937868106008
 30
0.0
 40
90.0
 41
0.0
 71
     5
 72
     1
  1
\A1;103.5
  7
STYLE1
 11
0.0399680383488711
 21
0.9992009587217895
 31
0.0
 73
     1
 44
1.0
1001
ACAD
1000
MTEXTBEGIN
1070
    73
1070
     1
1070
    44
1040
1.0
1070
    74
1070
     0
1000
MTEXTEND
  0
INSERT
  5
156C6
330
1563C
100
AcDbEntity
  8
寸法
 62
     0
 48
50.0
370
    -2
100
AcDbBlockReference
  2
_DOTSMALL
 10
9034.829246987849
 20
4093.800211164905
 30
0.0
 41
75.0
 42
75.0
 43
75.0
 50
87.70938995736154
  0
INSERT
  5
156C7
330
1563C
100
AcDbEntity
  8
寸法
 62
     0
 48
50.0
370
    -2
100
AcDbBlockReference
  2
_DOTSMALL
 10
9030.692555018742
 20
3990.382911937198
 30
0.0
 41
75.0
 42
75.0
 43
75.0
 50
267.7093899573615
  0
POINT
  5
156C8
330
1563C
100
AcDbEntity
  8
DEFPOINTS
 62
     0
 48
50.0
100
AcDbPoint
 10
9343.869638485212
 20
4081.438595505009
 30
0.0
  0
POINT
  5
156C9
330
1563C
100
AcDbEntity
  8
DEFPOINTS
 62
     0
 48
50.0
100
AcDbPoint
 10
9364.101464289717
 20
3977.046555566357
 30
0.0
  0
POINT
  5
156CA
330
1563C
100
AcDbEntity
  8
DEFPOINTS
 62
     0
 48
50.0
100
AcDbPoint
 10
9030.692555018744
 20
3990.382911937196
 30
0.0
  0
ENDBLK
  5
1563E
330
1563C
100
AcDbEntity
  8
0
 48
50.0
100
AcDbBlockEnd
  0
BLOCK
  5
15649
330
15648
100
AcDbEntity
  8
0
 48
50.0
100
AcDbBlockBegin
  2
*D14
 70
     1
 10
0.0
 20
0.0
 30
0.0
  3
*D14
  1

  0
LINE
  5
156CB
330
15648
100
AcDbEntity
  8
寸法
 62
     0
 48
50.0
370
    -2
100
AcDbLine
 10
9328.270117909964
 20
4081.450581124182
 30
0.0
 11
9328.270117909964
 21
4951.270106075109
 31
0.0
  0
LINE
  5
156CC
330
15648
100
AcDbEntity
  8
寸法
 62
     0
 48
50.0
370
    -2
100
AcDbLine
 10
11328.27011790996
 20
4002.650581124181
 30
0.0
 11
11328.27011790996
 21
4951.270106075109
 31
0.0
  0
LINE
  5
156CD
330
15648
100
AcDbEntity
  8
寸法
 62
     0
 48
50.0
370
    -2
100
AcDbLine
 10
9328.270117909964
 20
4906.270106075108
 30
0.0
 11
11328.27011790996
 21
4906.270106075108
 31
0.0
  0
INSERT
  5
156CE
330
15648
100
AcDbEntity
  8
寸法
 62
     0
 48
50.0
370
    -2
100
AcDbBlockReference
  2
_DOTSMALL
 10
9328.270117909964
 20
4906.270106075108
 30
0.0
 41
75.0
 42
75.0
 43
75.0
 50
180.0
  0
INSERT
  5
156CF
330
15648
100
AcDbEntity
  8
寸法
 62
     0
 48
50.0
370
    -2
100
AcDbBlockReference
  2
_DOTSMALL
 10
11328.27011790996
 20
4906.270106075108
 30
0.0
 41
75.0
 42
75.0
 43
75.0
  0
MTEXT
  5
156D0
330
15648
100
AcDbEntity
  8
寸法
 62
     7
 48
50.0
100
AcDbMText
 10
10328.27011790996
 20
4981.278964342825
 30
0.0
 40
90.0
 41
0.0
 71
     5
 72
     1
  1
\A1;2000
  7
STYLE1
 73
     1
 44
1.0
1001
ACAD
1000
MTEXTBEGIN
1070
    73
1070
     1
1070
    44
1040
1.0
1070
    74
1070
     0
1000
MTEXTEND
  0
POINT
  5
156D1
330
15648
100
AcDbEntity
  8
DEFPOINTS
 62
     0
 48
50.0
100
AcDbPoint
 10
9328.270117909964
 20
4066.450581124182
 30
0.0
  0
POINT
  5
156D2
330
15648
100
AcDbEntity
  8
DEFPOINTS
 62
     0
 48
50.0
100
AcDbPoint
 10
11328.27011790996
 20
3987.650581124182
 30
0.0
  0
POINT
  5
156D3
330
15648
100
AcDbEntity
  8
DEFPOINTS
 62
     0
 48
50.0
100
AcDbPoint
 10
11328.27011790996
 20
4906.270106075108
 30
0.0
  0
ENDBLK
  5
1564A
330
15648
100
AcDbEntity
  8
0
 48
50.0
100
AcDbBlockEnd
  0
BLOCK
  5
15655
330
15654
100
AcDbEntity
  8
0
 48
50.0
100
AcDbBlockBegin
  2
*D15
 70
     1
 10
0.0
 20
0.0
 30
0.0
  3
*D15
  1

  0
LINE
  5
156D4
330
15654
100
AcDbEntity
  8
寸法
 62
     0
 48
50.0
370
    -2
100
AcDbLine
 10
9313.270117909963
 20
4082.062576328018
 30
0.0
 11
8675.39500944961
 21
4082.062576328019
 31
0.0
  0
LINE
  5
156D5
330
15654
100
AcDbEntity
  8
寸法
 62
     0
 48
50.0
370
    -2
100
AcDbLine
 10
9313.270117909963
 20
1880.562576328018
 30
0.0
 11
8675.39500944961
 21
1880.562576328018
 31
0.0
  0
LINE
  5
156D6
330
15654
100
AcDbEntity
  8
寸法
 62
     0
 48
50.0
370
    -2
100
AcDbLine
 10
8720.39500944961
 20
4082.062576328019
 30
0.0
 11
8720.39500944961
 21
1880.562576328018
 31
0.0
  0
INSERT
  5
156D7
330
15654
100
AcDbEntity
  8
寸法
 62
     0
 48
50.0
370
    -2
100
AcDbBlockReference
  2
_DOTSMALL
 10
8720.39500944961
 20
4082.062576328019
 30
0.0
 41
75.0
 42
75.0
 43
75.0
 50
90.0
  0
INSERT
  5
156D8
330
15654
100
AcDbEntity
  8
寸法
 62
     0
 48
50.0
370
    -2
100
AcDbBlockReference
  2
_DOTSMALL
 10
8720.39500944961
 20
1880.562576328018
 30
0.0
 41
75.0
 42
75.0
 43
75.0
 50
270.0
  0
MTEXT
  5
156D9
330
15654
100
AcDbEntity
  8
寸法
 62
     7
 48
50.0
100
AcDbMText
 10
8645.386151181893
 20
2981.312576328019
 30
0.0
 40
90.0
 41
0.0
 71
     5
 72
     1
  1
\A1;2201.5
  7
STYLE1
 11
0.0000000000000001
 21
1.0
 31
0.0
 73
     1
 44
1.0
1001
ACAD
1000
MTEXTBEGIN
1070
    73
1070
     1
1070
    44
1040
1.0
1070
    74
1070
     0
1000
MTEXTEND
  0
POINT
  5
156DA
330
15654
100
AcDbEntity
  8
DEFPOINTS
 62
     0
 48
50.0
100
AcDbPoint
 10
9328.270117909964
 20
4082.062576328018
 30
0.0
  0
POINT
  5
156DB
330
15654
100
AcDbEntity
  8
DEFPOINTS
 62
     0
 48
50.0
100
AcDbPoint
 10
9328.270117909964
 20
1880.562576328018
 30
0.0
  0
POINT
  5
156DC
330
15654
100
AcDbEntity
  8
DEFPOINTS
 62
     0
 48
50.0
100
AcDbPoint
 10
8720.39500944961
 20
1880.562576328018
 30
0.0
  0
ENDBLK
  5
15656
330
15654
100
AcDbEntity
  8
0
 48
50.0
100
AcDbBlockEnd
  0
BLOCK
  5
15661
330
15660
100
AcDbEntity
  8
0
 48
50.0
100
AcDbBlockBegin
  2
*D16
 70
     1
 10
0.0
 20
0.0
 30
0.0
  3
*D16
  1

  0
LINE
  5
156DD
330
15660
100
AcDbEntity
  8
寸法
 62
     0
 48
50.0
370
    -2
100
AcDbLine
 10
11627.81086103942
 20
1880.562576328018
 30
0.0
 11
11748.90757038456
 21
1880.562576328018
 31
0.0
  0
LINE
  5
156DE
330
15660
100
AcDbEntity
  8
寸法
 62
     0
 48
50.0
370
    -2
100
AcDbLine
 10
11343.27011790996
 20
4002.650581124181
 30
0.0
 11
11748.90757038456
 21
4002.650581124181
 31
0.0
  0
LINE
  5
156DF
330
15660
100
AcDbEntity
  8
寸法
 62
     0
 48
50.0
370
    -2
100
AcDbLine
 10
11703.90757038456
 20
1880.562576328018
 30
0.0
 11
11703.90757038456
 21
4002.650581124181
 31
0.0
  0
INSERT
  5
156E0
330
15660
100
AcDbEntity
  8
寸法
 62
     0
 48
50.0
370
    -2
100
AcDbBlockReference
  2
_DOTSMALL
 10
11703.90757038456
 20
1880.562576328018
 30
0.0
 41
75.0
 42
75.0
 43
75.0
 50
270.0
  0
INSERT
  5
156E1
330
15660
100
AcDbEntity
  8
寸法
 62
     0
 48
50.0
370
    -2
100
AcDbBlockReference
  2
_DOTSMALL
 10
11703.90757038456
 20
4002.650581124181
 30
0.0
 41
75.0
 42
75.0
 43
75.0
 50
90.0
  0
MTEXT
  5
156E2
330
15660
100
AcDbEntity
  8
寸法
 62
     7
 48
50.0
100
AcDbMText
 10
11628.89871211684
 20
2991.672581441363
 30
0.0
 40
90.0
 41
0.0
 71
     5
 72
     1
  1
\A1;2121.5
  7
STYLE1
 11
0.0000000000000001
 21
1.0
 31
0.0
 73
     1
 44
1.0
1001
ACAD
1000
MTEXTBEGIN
1070
    73
1070
     1
1070
    44
1040
1.0
1070
    74
1070
     0
1000
MTEXTEND
  0
POINT
  5
156E3
330
15660
100
AcDbEntity
  8
DEFPOINTS
 62
     0
 48
50.0
100
AcDbPoint
 10
11612.81086103942
 20
1880.562576328018
 30
0.0
  0
POINT
  5
156E4
330
15660
100
AcDbEntity
  8
DEFPOINTS
 62
     0
 48
50.0
100
AcDbPoint
 10
11328.27011790996
 20
4002.650581124181
 30
0.0
  0
POINT
  5
156E5
330
15660
100
AcDbEntity
  8
DEFPOINTS
 62
     0
 48
50.0
100
AcDbPoint
 10
11703.90757038456
 20
4002.650581124181
 30
0.0
  0
ENDBLK
  5
15662
330
15660
100
AcDbEntity
  8
0
 48
50.0
100
AcDbBlockEnd
  0
BLOCK
  5
1566D
330
1566C
100
AcDbEntity
  8
0
 48
50.0
100
AcDbBlockBegin
  2
*D17
 70
     1
 10
0.0
 20
0.0
 30
0.0
  3
*D17
  1

  0
LINE
  5
156E6
330
1566C
100
AcDbEntity
  8
寸法
 62
     0
 48
50.0
370
    -2
100
AcDbLine
 10
9313.270117909963
 20
1830.562576328018
 30
0.0
 11
8675.39500944961
 21
1830.562576328018
 31
0.0
  0
LINE
  5
156E7
330
1566C
100
AcDbEntity
  8
寸法
 62
     0
 48
50.0
370
    -2
100
AcDbLine
 10
10268.27011790996
 20
1880.562576328018
 30
0.0
 11
8675.39500944961
 21
1880.562576328018
 31
0.0
  0
LINE
  5
156E8
330
1566C
100
AcDbEntity
  8
寸法
 62
     0
 48
50.0
370
    -2
100
AcDbLine
 10
8720.39500944961
 20
1880.562576328018
 30
0.0
 11
8720.39500944961
 21
1955.562576328018
 31
0.0
  0
LINE
  5
156E9
330
1566C
100
AcDbEntity
  8
寸法
 62
     0
 48
50.0
370
    -2
100
AcDbLine
 10
8720.39500944961
 20
1830.562576328018
 30
0.0
 11
8720.39500944961
 21
1521.491710186284
 31
0.0
  0
LINE
  5
156EA
330
1566C
100
AcDbEntity
  8
寸法
 62
     0
 48
50.0
370
    -2
100
AcDbLine
 10
8720.39500944961
 20
1880.562576328018
 30
0.0
 11
8720.39500944961
 21
1830.562576328018
 31
0.0
  0
INSERT
  5
156EB
330
1566C
100
AcDbEntity
  8
寸法
 62
     0
 48
50.0
370
    -2
100
AcDbBlockReference
  2
_DOTSMALL
 10
8720.39500944961
 20
1880.562576328018
 30
0.0
 41
75.0
 42
75.0
 43
75.0
 50
270.0
  0
INSERT
  5
156EC
330
1566C
100
AcDbEntity
  8
寸法
 62
     0
 48
50.0
370
    -2
100
AcDbBlockReference
  2
_DOTSMALL
 10
8720.39500944961
 20
1830.562576328018
 30
0.0
 41
75.0
 42
75.0
 43
75.0
 50
90.0
  0
MTEXT
  5
156ED
330
1566C
100
AcDbEntity
  8
寸法
 62
     7
 48
50.0
100
AcDbMText
 10
8645.395009449611
 20
1601.027143257152
 30
0.0
 40
90.0
 41
0.0
 71
     5
 72
     1
  1
\A1;50
  7
STYLE1
 11
0.0000000000000001
 21
1.0
 31
0.0
 73
     1
 44
1.0
1001
ACAD
1000
MTEXTBEGIN
1070
    73
1070
     1
1070
    44
1040
1.0
1070
    74
1070
     0
1000
MTEXTEND
  0
POINT
  5
156EE
330
1566C
100
AcDbEntity
  8
DEFPOINTS
 62
     0
 48
50.0
100
AcDbPoint
 10
9328.270117909964
 20
1830.562576328018
 30
0.0
  0
POINT
  5
156EF
330
1566C
100
AcDbEntity
  8
DEFPOINTS
 62
     0
 48
50.0
100
AcDbPoint
 10
10283.27011790996
 20
1880.562576328018
 30
0.0
  0
POINT
  5
156F0
330
1566C
100
AcDbEntity
  8
DEFPOINTS
 62
     0
 48
50.0
100
AcDbPoint
 10
8720.39500944961
 20
1880.562576328018
 30
0.0
  0
ENDBLK
  5
1566E
330
1566C
100
AcDbEntity
  8
0
 48
50.0
100
AcDbBlockEnd
  0
BLOCK
  5
1567B
330
1567A
100
AcDbEntity
  8
0
 48
50.0
100
AcDbBlockBegin
  2
*D18
 70
     1
 10
0.0
 20
0.0
 30
0.0
  3
*D18
  1

  0
LINE
  5
156F1
330
1567A
100
AcDbEntity
  8
寸法
 62
     0
 48
50.0
370
    -2
100
AcDbLine
 10
10388.27011790996
 20
1880.562576328018
 30
0.0
 11
11748.90757038456
 21
1880.562576328018
 31
0.0
  0
LINE
  5
156F2
330
1567A
100
AcDbEntity
  8
寸法
 62
     0
 48
50.0
370
    -2
100
AcDbLine
 10
11343.27011790996
 20
1830.562576328018
 30
0.0
 11
11748.90757038456
 21
1830.562576328018
 31
0.0
  0
LINE
  5
156F3
330
1567A
100
AcDbEntity
  8
寸法
 62
     0
 48
50.0
370
    -2
100
AcDbLine
 10
11703.90757038456
 20
1880.562576328018
 30
0.0
 11
11703.90757038456
 21
1955.562576328018
 31
0.0
  0
LINE
  5
156F4
330
1567A
100
AcDbEntity
  8
寸法
 62
     0
 48
50.0
370
    -2
100
AcDbLine
 10
11703.90757038456
 20
1830.562576328018
 30
0.0
 11
11703.90757038456
 21
1521.491710186284
 31
0.0
  0
LINE
  5
156F5
330
1567A
100
AcDbEntity
  8
寸法
 62
     0
 48
50.0
370
    -2
100
AcDbLine
 10
11703.90757038456
 20
1880.562576328018
 30
0.0
 11
11703.90757038456
 21
1830.562576328018
 31
0.0
  0
INSERT
  5
156F6
330
1567A
100
AcDbEntity
  8
寸法
 62
     0
 48
50.0
370
    -2
100
AcDbBlockReference
  2
_DOTSMALL
 10
11703.90757038456
 20
1880.562576328018
 30
0.0
 41
75.0
 42
75.0
 43
75.0
 50
270.0
  0
INSERT
  5
156F7
330
1567A
100
AcDbEntity
  8
寸法
 62
     0
 48
50.0
370
    -2
100
AcDbBlockReference
  2
_DOTSMALL
 10
11703.90757038456
 20
1830.562576328018
 30
0.0
 41
75.0
 42
75.0
 43
75.0
 50
90.0
  0
MTEXT
  5
156F8
330
1567A
100
AcDbEntity
  8
寸法
 62
     7
 48
50.0
100
AcDbMText
 10
11628.90757038456
 20
1601.027143257152
 30
0.0
 40
90.0
 41
0.0
 71
     5
 72
     1
  1
\A1;50
  7
STYLE1
 11
0.0000000000000001
 21
1.0
 31
0.0
 73
     1
 44
1.0
1001
ACAD
1000
MTEXTBEGIN
1070
    73
1070
     1
1070
    44
1040
1.0
1070
    74
1070
     0
1000
MTEXTEND
  0
POINT
  5
156F9
330
1567A
100
AcDbEntity
  8
DEFPOINTS
 62
     0
 48
50.0
100
AcDbPoint
 10
10373.27011790996
 20
1880.562576328018
 30
0.0
  0
POINT
  5
156FA
330
1567A
100
AcDbEntity
  8
DEFPOINTS
 62
     0
 48
50.0
100
AcDbPoint
 10
11328.27011790996
 20
1830.562576328018
 30
0.0
  0
POINT
  5
156FB
330
1567A
100
AcDbEntity
  8
DEFPOINTS
 62
     0
 48
50.0
100
AcDbPoint
 10
11703.90757038456
 20
1830.562576328018
 30
0.0
  0
ENDBLK
  5
1567C
330
1567A
100
AcDbEntity
  8
0
 48
50.0
100
AcDbBlockEnd
  0
ENDSEC
  0
SECTION
  2
ENTITIES
  0
MTEXT
  5
763F
330
747D
100
AcDbEntity
  8
0
100
AcDbMText
 10
302.846345836809
 20
280.1983726409901
 30
0.0
 40
3.5
 41
5.323721266742722
 71
     1
 72
     5
  1

  7
MSMINCHO
 73
     1
 44
1.0
1001
ACAD
1000
MTEXTBEGIN
1070
    73
1070
     1
1070
    44
1040
1.0
1070
    74
1070
     0
1000
MTEXTEND
  0
INSERT
  5
F235
330
747D
100
AcDbEntity
  8
0
100
AcDbBlockReference
  2
作図枠S50
 10
0.0
 20
0.0
 30
0.0
 41
0.6000000000000001
 42
0.6000000000000001
 43
0.6000000000000001
  0
LINE
  5
10B56
330
747D
100
AcDbEntity
  8
補助
  6
PHANTOM
 62
   230
 48
50.0
100
AcDbLine
 10
105.0
 20
0.0
 30
0.0
 11
104.9999999999996
 21
8557.199999999999
 31
0.0
  0
LINE
  5
10B57
330
747D
100
AcDbEntity
  8
補助
  6
PHANTOM
 62
   230
 48
50.0
100
AcDbLine
 10
104.9999999999996
 20
8557.199999999999
 30
0.0
 11
12230.4
 21
8557.199999999999
 31
0.0
  0
LINE
  5
10B5E
330
747D
100
AcDbEntity
  8
補助
  6
PHANTOM
 62
   230
 48
50.0
100
AcDbLine
 10
12230.4
 20
8557.199999999999
 30
0.0
 11
12230.4
 21
900.0
 31
0.0
  0
LINE
  5
10B6D
330
747D
100
AcDbEntity
  8
補助
  6
PHANTOM
 62
   230
 48
50.0
100
AcDbLine
 10
9830.400000000002
 20
8557.199999999999
 30
0.0
 11
9830.400000000002
 21
3600.0
 31
0.0
  0
DIMENSION
  5
12F4F
330
747D
100
AcDbEntity
  8
寸法
 48
50.0
100
AcDbDimension
  2
*D4
 10
7718.677830258808
 20
4910.957606075109
 30
0.0
 11
4218.677830258807
 21
4985.966464342825
 31
0.0
 70
    32
  1
N X 3250 + 500
 71
     5
 42
7000.000000000004
  3
INABA_S30G
100
AcDbAlignedDimension
 13
718.6778302588045
 23
4066.450581124185
 33
0.0
 14
7718.677830258808
 24
4066.450581124181
 34
0.0
100
AcDbRotatedDimension
  0
DIMENSION
  5
12F50
330
747D
100
AcDbEntity
  8
寸法
 48
50.0
100
AcDbDimension
  2
*D5
 10
7468.677830258808
 20
4601.702425425576
 30
0.0
 11
4218.677830258807
 21
4676.711283693292
 31
0.0
 70
    32
  1
N X 3250
 71
     5
 42
6500.000000000004
  3
INABA_S30G
100
AcDbAlignedDimension
 13
968.6778302588045
 23
3970.897875741638
 33
0.0
 14
7468.677830258808
 24
3970.897875741633
 34
0.0
100
AcDbRotatedDimension
  0
LINE
  5
12F56
330
747D
100
AcDbEntity
  8
部品1
 48
50.0
100
AcDbLine
 10
7708.677830258809
 20
1880.562576328018
 30
0.0
 11
728.6778302588047
 21
1880.562576328023
 31
0.0
  0
LINE
  5
12F57
330
747D
100
AcDbEntity
  8
Ｇ．Ｌ
 48
50.0
100
AcDbLine
 10
211.2180740498916
 20
1830.562576328022
 30
0.0
 11
12112.38056579419
 21
1830.562576328023
 31
0.0
  0
LINE
  5
12F58
330
747D
100
AcDbEntity
  8
細線
 48
50.0
100
AcDbLine
 10
7668.459214157405
 20
4002.407532190143
 30
0.0
 11
768.8964463602078
 21
4002.407532190148
 31
0.0
  0
LINE
  5
12F59
330
747D
100
AcDbEntity
  8
細線
 48
50.0
100
AcDbLine
 10
7665.09760759739
 20
4014.027143629729
 30
0.0
 11
772.2580529202259
 21
4014.027143629736
 31
0.0
  0
LINE
  5
12F5A
330
747D
100
AcDbEntity
  8
細線
 48
50.0
100
AcDbLine
 10
7670.304101958284
 20
4038.276767503647
 30
0.0
 11
767.0515585593366
 21
4038.276767503653
 31
0.0
  0
LINE
  5
12F5B
330
747D
100
AcDbEntity
  8
細線
 48
50.0
100
AcDbLine
 10
7676.30159636737
 20
4049.89637894323
 30
0.0
 11
761.054064150243
 21
4049.896378943237
 31
0.0
  0
LINE
  5
12F5C
330
747D
100
AcDbEntity
  8
部品1
 48
50.0
100
AcDbLine
 10
7678.677830258809
 20
3977.046555566357
 30
0.0
 11
758.6778302588045
 21
3977.046555566363
 31
0.0
  0
LINE
  5
12F5D
330
747D
100
AcDbEntity
  8
部品1
 48
50.0
100
AcDbLine
 10
7703.677830258809
 20
4081.450581124182
 30
0.0
 11
733.6778302588045
 21
4081.450581124188
 31
0.0
  0
LINE
  5
12F6B
330
747D
100
AcDbEntity
  8
部品1
 48
50.0
100
AcDbLine
 10
7436.677830258808
 20
3909.969012140661
 30
0.0
 11
4250.677830258807
 21
3909.969012140661
 31
0.0
  0
LINE
  5
12F6C
330
747D
100
AcDbEntity
  8
部品1
 48
50.0
100
AcDbLine
 10
7436.988846299536
 20
3969.96901214066
 30
0.0
 11
4250.366814218084
 21
3969.96901214066
 31
0.0
  0
LINE
  5
12F6D
330
747D
100
AcDbEntity
  8
部品1
 48
50.0
100
AcDbLine
 10
7436.677830258808
 20
3939.307144620489
 30
0.0
 11
4250.677830258807
 21
3939.307144620489
 31
0.0
  0
LINE
  5
12F70
330
747D
100
AcDbEntity
  8
部品1
 48
50.0
100
AcDbLine
 10
781.6778302588045
 20
3977.046555566363
 30
0.0
 11
781.6778302588045
 21
3900.228017808711
 31
0.0
  0
LINE
  5
12F73
330
747D
100
AcDbEntity
  8
部品1
 48
50.0
100
AcDbLine
 10
719.2533678616582
 20
3985.516841724654
 30
0.0
 11
739.445213729281
 21
3914.741082286203
 31
0.0
  0
LINE
  5
12F7C
330
747D
100
AcDbEntity
  8
部品1
 48
50.0
100
AcDbLine
 10
718.6778302588046
 20
1870.562576328023
 30
0.0
 11
718.6778302588045
 21
1830.562576328023
 31
0.0
  0
LINE
  5
12F86
330
747D
100
AcDbEntity
  8
部品1
 48
50.0
100
AcDbLine
 10
936.6778302588045
 20
3909.969012140661
 30
0.0
 11
781.6778302588045
 21
3909.969012140661
 31
0.0
  0
LINE
  5
12F87
330
747D
100
AcDbEntity
  8
部品1
 48
50.0
100
AcDbLine
 10
936.6778302588045
 20
3900.228017808711
 30
0.0
 11
758.6778302588045
 21
3900.228017808711
 31
0.0
  0
ARC
  5
12F88
330
747D
100
AcDbEntity
  8
部品1
 48
50.0
100
AcDbCircle
 10
758.6778302588045
 20
3920.22801780871
 30
0.0
 40
20.0
100
AcDbArc
 50
195.9230900765473
 51
270.0
  0
DIMENSION
  5
12FB4
330
747D
100
AcDbEntity
  8
寸法
 48
50.0
100
AcDbDimension
  2
*D6
 10
968.6778302588045
 20
4601.702425425582
 30
0.0
 11
531.4996806525051
 21
4601.702425425582
 31
0.0
 70
   160
 71
     5
 42
250.0
  3
INABA_S30G
100
AcDbAlignedDimension
 13
718.6778302588045
 23
4066.450581124185
 33
0.0
 14
968.6778302588045
 24
3970.897875741638
 34
0.0
100
AcDbRotatedDimension
  0
LINE
  5
12FB5
330
747D
100
AcDbEntity
  8
部品1
 48
50.0
100
AcDbLine
 10
936.6778302588045
 20
3969.969012140658
 30
0.0
 11
781.6778302588045
 21
3969.969012140658
 31
0.0
  0
LINE
  5
12FB6
330
747D
100
AcDbEntity
  8
部品1
 48
50.0
100
AcDbLine
 10
936.6778302588045
 20
3939.307144620489
 30
0.0
 11
781.6778302588045
 21
3939.307144620489
 31
0.0
  0
LINE
  5
12FB7
330
747D
100
AcDbEntity
  8
部品1
 48
50.0
100
AcDbLine
 10
718.6778302588045
 20
4066.450581124185
 30
0.0
 11
718.6778302588045
 21
3989.632043366532
 31
0.0
  0
ARC
  5
12FB8
330
747D
100
AcDbEntity
  8
部品1
 48
50.0
100
AcDbCircle
 10
733.6778302588045
 20
3989.632043366532
 30
0.0
 40
15.0
100
AcDbArc
 50
180.0
 51
195.9230900765452
  0
ARC
  5
12FB9
330
747D
100
AcDbEntity
  8
細線
 48
50.0
100
AcDbCircle
 10
772.2580529202259
 20
4017.027143629735
 30
0.0
 40
3.0
100
AcDbArc
 50
195.9230900765461
 51
270.0
  0
ARC
  5
12FBA
330
747D
100
AcDbEntity
  8
細線
 48
50.0
100
AcDbCircle
 10
767.0515585593366
 20
4035.276767503653
 30
0.0
 40
3.0
100
AcDbArc
 50
90.0
 51
195.9230900765467
  0
ARC
  5
12FBB
330
747D
100
AcDbEntity
  8
細線
 48
50.0
100
AcDbCircle
 10
768.8964463602078
 20
4012.407532190148
 30
0.0
 40
10.0
100
AcDbArc
 50
195.9230900765466
 51
270.0
  0
ARC
  5
12FBC
330
747D
100
AcDbEntity
  8
細線
 48
50.0
100
AcDbCircle
 10
761.054064150243
 20
4039.896378943237
 30
0.0
 40
10.0
100
AcDbArc
 50
90.0
 51
195.9230900765467
  0
LINE
  5
12FBD
330
747D
100
AcDbEntity
  8
細線
 48
50.0
100
AcDbLine
 10
764.1666660799073
 20
4034.453727175279
 30
0.0
 11
769.3731604407966
 21
4016.20410330136
 31
0.0
  0
LINE
  5
12FBE
330
747D
100
AcDbEntity
  8
細線
 48
50.0
100
AcDbLine
 10
751.4377558854812
 20
4037.152911181984
 30
0.0
 11
759.2801380954461
 21
4009.664064428895
 31
0.0
  0
ARC
  5
12FBF
330
747D
100
AcDbEntity
  8
部品1
 48
50.0
100
AcDbCircle
 10
758.6778302588045
 20
3997.046555566362
 30
0.0
 40
20.0
100
AcDbArc
 50
195.9230900765473
 51
270.0
  0
LINE
  5
12FC0
330
747D
100
AcDbEntity
  8
部品1
 48
50.0
100
AcDbLine
 10
719.2533678616582
 20
4062.335379482306
 30
0.0
 11
739.445213729281
 21
3991.559620043857
 31
0.0
  0
ARC
  5
12FC1
330
747D
100
AcDbEntity
  8
部品1
 48
50.0
100
AcDbCircle
 10
733.6778302588045
 20
4066.450581124185
 30
0.0
 40
15.0
100
AcDbArc
 50
90.0
 51
195.9230900765452
  0
LINE
  5
12FC2
330
747D
100
AcDbEntity
  8
部品1
 48
50.0
100
AcDbLine
 10
781.6778302588045
 20
4081.450581124188
 30
0.0
 11
781.6778302588045
 21
3977.046555566363
 31
0.0
  0
LWPOLYLINE
  5
12FC8
330
747D
100
AcDbEntity
  8
部品1
100
AcDbPolyline
 90
        4
 70
     1
 43
0.0
 10
3922.212628107546
 20
1334.534755452346
 10
4569.244003388071
 20
1334.534755452346
 10
4569.244003388071
 20
1142.014599635206
 10
3922.212628107546
 20
1142.014599635206
  0
TEXT
  5
12FC9
330
747D
100
AcDbEntity
  8
仕様書枠
 62
     7
 48
50.0
100
AcDbText
 10
3953.627704869076
 20
1180.670031102165
 30
0.0
 40
112.0
  1
正 面 図
  7
STYLE2
100
AcDbText
  0
LINE
  5
13248
330
747D
100
AcDbEntity
  8
部品1
 48
50.0
100
AcDbLine
 10
7655.677830258809
 20
3977.046555566357
 30
0.0
 11
7655.677830258809
 21
3900.228017808705
 31
0.0
  0
LINE
  5
13249
330
747D
100
AcDbEntity
  8
部品1
 48
50.0
100
AcDbLine
 10
7718.102292655955
 20
3985.516841724649
 30
0.0
 11
7697.910446788336
 21
3914.741082286198
 31
0.0
  0
DIMENSION
  5
1324C
330
747D
100
AcDbEntity
  8
寸法
 48
50.0
100
AcDbDimension
  2
*D7
 10
7468.677830258808
 20
1514.610538984611
 30
0.0
 11
5843.677830258808
 21
1514.610538984611
 31
0.0
 70
   160
 71
     5
 42
3250.000000000001
  3
INABA_S30G
100
AcDbAlignedDimension
 13
4218.677830258807
 23
1710.562576328023
 33
0.0
 14
7468.677830258808
 24
1710.562576328018
 34
0.0
100
AcDbRotatedDimension
  0
LINE
  5
1324E
330
747D
100
AcDbEntity
  8
部品1
 48
50.0
100
AcDbLine
 10
7436.677830258808
 20
3900.228017808704
 30
0.0
 11
4250.677830258807
 21
3900.228017808709
 31
0.0
  0
LINE
  5
13297
330
747D
100
AcDbEntity
  8
部品1
 48
50.0
100
AcDbLine
 10
7718.677830258808
 20
1870.562576328018
 30
0.0
 11
7718.677830258808
 21
1830.562576328018
 31
0.0
  0
LINE
  5
13298
330
747D
100
AcDbEntity
  8
部品1
 48
50.0
100
AcDbLine
 10
7655.677830258809
 20
3909.969012140656
 30
0.0
 11
7500.677830258808
 21
3909.969012140654
 31
0.0
  0
LINE
  5
13299
330
747D
100
AcDbEntity
  8
部品1
 48
50.0
100
AcDbLine
 10
7678.677830258809
 20
3900.228017808705
 30
0.0
 11
7500.677830258808
 21
3900.228017808704
 31
0.0
  0
ARC
  5
132AD
330
747D
100
AcDbEntity
  8
部品1
 48
50.0
100
AcDbCircle
 10
7678.677830258809
 20
3920.228017808705
 30
0.0
 40
20.0
100
AcDbArc
 50
270.0
 51
344.0769099234523
  0
LINE
  5
132B1
330
747D
100
AcDbEntity
  8
細線
 48
50.0
100
AcDbLine
 10
4208.677830258808
 20
3977.046555566363
 30
0.0
 11
4208.677830258808
 21
4081.450581124188
 31
0.0
  0
DIMENSION
  5
132B6
330
747D
100
AcDbEntity
  8
寸法
 48
50.0
100
AcDbDimension
  2
*D8
 10
7718.677830258808
 20
4601.702425425576
 30
0.0
 11
8010.403778138849
 21
4601.702425425576
 31
0.0
 70
   160
 71
     5
 42
250.0
  3
INABA_S30G
100
AcDbAlignedDimension
 13
7468.677830258808
 23
3970.897875741633
 33
0.0
 14
7718.677830258808
 24
4066.450581124181
 34
0.0
100
AcDbRotatedDimension
  0
LINE
  5
132B7
330
747D
100
AcDbEntity
  8
部品1
 48
50.0
100
AcDbLine
 10
7655.677830258809
 20
3969.969012140652
 30
0.0
 11
7500.677830258808
 21
3969.969012140652
 31
0.0
  0
LINE
  5
132B8
330
747D
100
AcDbEntity
  8
部品1
 48
50.0
100
AcDbLine
 10
7655.677830258809
 20
3939.307144620484
 30
0.0
 11
7500.677830258808
 21
3939.307144620484
 31
0.0
  0
ARC
  5
132BE
330
747D
100
AcDbEntity
  8
部品1
 48
50.0
100
AcDbCircle
 10
7703.677830258809
 20
3989.632043366527
 30
0.0
 40
15.0
100
AcDbArc
 50
344.0769099234546
 51
0.0
  0
LINE
  5
132BF
330
747D
100
AcDbEntity
  8
部品1
 48
50.0
100
AcDbLine
 10
7718.677830258808
 20
4066.450581124181
 30
0.0
 11
7718.677830258808
 21
3989.632043366527
 31
0.0
  0
ARC
  5
132C0
330
747D
100
AcDbEntity
  8
細線
 48
50.0
100
AcDbCircle
 10
7665.09760759739
 20
4017.027143629729
 30
0.0
 40
3.0
100
AcDbArc
 50
270.0
 51
344.0769099234522
  0
ARC
  5
132C1
330
747D
100
AcDbEntity
  8
細線
 48
50.0
100
AcDbCircle
 10
7670.304101958284
 20
4035.276767503647
 30
0.0
 40
3.0
100
AcDbArc
 50
344.0769099234533
 51
90.0
  0
ARC
  5
132C2
330
747D
100
AcDbEntity
  8
細線
 48
50.0
100
AcDbCircle
 10
7668.459214157405
 20
4012.407532190143
 30
0.0
 40
10.0
100
AcDbArc
 50
270.0
 51
344.0769099234531
  0
ARC
  5
132C3
330
747D
100
AcDbEntity
  8
細線
 48
50.0
100
AcDbCircle
 10
7676.30159636737
 20
4039.89637894323
 30
0.0
 40
10.0
100
AcDbArc
 50
344.0769099234533
 51
90.0
  0
LINE
  5
132C4
330
747D
100
AcDbEntity
  8
細線
 48
50.0
100
AcDbLine
 10
7685.917904632136
 20
4037.152911181977
 30
0.0
 11
7678.075522422166
 21
4009.66406442889
 31
0.0
  0
LINE
  5
132C5
330
747D
100
AcDbEntity
  8
細線
 48
50.0
100
AcDbLine
 10
7673.188994437713
 20
4034.453727175273
 30
0.0
 11
7667.982500076821
 21
4016.204103301355
 31
0.0
  0
LINE
  5
132C6
330
747D
100
AcDbEntity
  8
部品1
 48
50.0
100
AcDbLine
 10
7718.102292655955
 20
4062.3353794823
 30
0.0
 11
7697.910446788336
 21
3991.559620043851
 31
0.0
  0
ARC
  5
132C7
330
747D
100
AcDbEntity
  8
部品1
 48
50.0
100
AcDbCircle
 10
7678.677830258809
 20
3997.046555566356
 30
0.0
 40
20.0
100
AcDbArc
 50
270.0
 51
344.0769099234523
  0
ARC
  5
132C8
330
747D
100
AcDbEntity
  8
部品1
 48
50.0
100
AcDbCircle
 10
7703.677830258809
 20
4066.450581124181
 30
0.0
 40
15.0
100
AcDbArc
 50
344.0769099234546
 51
90.0
  0
LINE
  5
132C9
330
747D
100
AcDbEntity
  8
部品1
 48
50.0
100
AcDbLine
 10
7655.677830258809
 20
4081.450581124182
 30
0.0
 11
7655.677830258809
 21
3977.046555566357
 31
0.0
  0
LINE
  5
13A2F
330
747D
100
AcDbEntity
  8
部品1
 48
50.0
100
AcDbLine
 10
7703.677830258804
 20
7921.447238448381
 30
0.0
 11
733.677830258805
 21
7921.447238448381
 31
0.0
  0
LINE
  5
13A35
330
747D
100
AcDbEntity
  8
部品1
 48
50.0
100
AcDbLine
 10
781.6778302588049
 20
7817.947238448386
 30
0.0
 11
7655.677830258804
 21
7817.947238448387
 31
0.0
  0
LINE
  5
13A36
330
747D
100
AcDbEntity
  8
点線
 48
50.0
100
AcDbLine
 10
3896.608043216961
 20
7713.947238448382
 30
0.0
 11
7679.677830258807
 21
7713.94723844839
 31
0.0
  0
LINE
  5
13A37
330
747D
100
AcDbEntity
  8
点線
 48
50.0
100
AcDbLine
 10
3914.024740724983
 20
7648.947238448382
 30
0.0
 11
7679.677830258805
 21
7648.947238448387
 31
0.0
  0
LINE
  5
13A38
330
747D
100
AcDbEntity
  8
点線
 48
50.0
100
AcDbLine
 10
4123.387045053312
 20
6898.947238448385
 30
0.0
 11
7679.677830258805
 21
6898.947238448386
 31
0.0
  0
LINE
  5
13A39
330
747D
100
AcDbEntity
  8
点線
 48
50.0
100
AcDbLine
 10
4079.702100297369
 20
6963.947238448382
 30
0.0
 11
7679.677830258805
 21
6963.947238448385
 31
0.0
  0
LINE
  5
13A3A
330
747D
100
AcDbEntity
  8
点線
 48
50.0
100
AcDbLine
 10
4298.531831863644
 20
6213.947238448389
 30
0.0
 11
7679.677830258805
 21
6213.947238448387
 31
0.0
  0
LINE
  5
13A3B
330
747D
100
AcDbEntity
  8
点線
 48
50.0
100
AcDbLine
 10
4315.948529371666
 20
6148.947238448386
 30
0.0
 11
7679.677830258805
 21
6148.947238448386
 31
0.0
  0
LINE
  5
13A3C
330
747D
100
AcDbEntity
  8
部品1
 48
50.0
100
AcDbLine
 10
781.6778302588049
 20
6014.947238448385
 30
0.0
 11
7655.677830258804
 21
6014.947238448387
 31
0.0
  0
LINE
  5
13A3D
330
747D
100
AcDbEntity
  8
部品1
 48
50.0
100
AcDbLine
 10
733.677830258805
 20
5921.447238448386
 30
0.0
 11
7703.677830258804
 21
5921.447238448383
 31
0.0
  0
LINE
  5
13A3F
330
747D
100
AcDbEntity
  8
部品1
 48
50.0
100
AcDbLine
 10
4116.112076586786
 20
6894.747033445888
 30
0.0
 11
4417.099349514415
 21
5771.447238448382
 31
0.0
  0
LINE
  5
13A54
330
747D
100
AcDbEntity
  8
部品1
 48
50.0
100
AcDbLine
 10
938.677830258805
 20
6898.947238448385
 30
0.0
 11
938.677830258805
 21
6213.947238448385
 31
0.0
  0
LINE
  5
13A55
330
747D
100
AcDbEntity
  8
部品1
 48
50.0
100
AcDbLine
 10
998.6778302588049
 20
6898.947238448385
 30
0.0
 11
998.6778302588049
 21
6213.947238448385
 31
0.0
  0
LINE
  5
13A56
330
747D
100
AcDbEntity
  8
部品1
 48
50.0
100
AcDbLine
 10
803.677830258805
 20
7817.947238448382
 30
0.0
 11
803.677830258805
 21
6014.947238448382
 31
0.0
  0
LINE
  5
13A5D
330
747D
100
AcDbEntity
  8
部品1
 48
50.0
100
AcDbLine
 10
781.6778302588049
 20
7921.447238448381
 30
0.0
 11
781.6778302588049
 21
5921.447238448386
 31
0.0
  0
LINE
  5
13A5E
330
747D
100
AcDbEntity
  8
部品1
 48
50.0
100
AcDbLine
 10
718.677830258805
 20
7906.447238448382
 30
0.0
 11
718.677830258805
 21
5936.447238448382
 31
0.0
  0
LINE
  5
13A5F
330
747D
100
AcDbEntity
  8
部品1
 48
50.0
100
AcDbLine
 10
803.677830258805
 20
6148.947238448386
 30
0.0
 11
4315.948529371666
 21
6148.947238448386
 31
0.0
  0
LINE
  5
13A60
330
747D
100
AcDbEntity
  8
部品1
 48
50.0
100
AcDbLine
 10
803.677830258805
 20
6213.947238448385
 30
0.0
 11
4298.53183186364
 21
6213.947238448385
 31
0.0
  0
LINE
  5
13A61
330
747D
100
AcDbEntity
  8
部品1
 48
50.0
100
AcDbLine
 10
803.677830258805
 20
6193.947238448386
 30
0.0
 11
4303.890815712263
 21
6193.947238448386
 31
0.0
  0
ARC
  5
13A62
330
747D
100
AcDbEntity
  8
部品1
 48
50.0
100
AcDbCircle
 10
733.677830258805
 20
5936.447238448382
 30
0.0
 40
15.0
100
AcDbArc
 50
180.0
 51
270.0
  0
LINE
  5
13A63
330
747D
100
AcDbEntity
  8
点線
 48
18.0
100
AcDbLine
 10
757.6778302588045
 20
6148.947238448386
 30
0.0
 11
803.677830258805
 21
6148.947238448386
 31
0.0
  0
LINE
  5
13A64
330
747D
100
AcDbEntity
  8
点線
 48
18.0
100
AcDbLine
 10
757.6778302588045
 20
6213.947238448386
 30
0.0
 11
803.677830258805
 21
6213.947238448385
 31
0.0
  0
LINE
  5
13A65
330
747D
100
AcDbEntity
  8
部品1
 48
50.0
100
AcDbLine
 10
718.677830258805
 20
5984.447238448385
 30
0.0
 11
781.6778302588049
 21
5984.447238448385
 31
0.0
  0
ARC
  5
13A66
330
747D
100
AcDbEntity
  8
部品1
 48
50.0
100
AcDbCircle
 10
990.6778302588049
 20
6113.947238448382
 30
0.0
 40
10.0
100
AcDbArc
 50
270.0
 51
0.0
  0
ARC
  5
13A67
330
747D
100
AcDbEntity
  8
部品1
 48
50.0
100
AcDbCircle
 10
946.677830258805
 20
6113.947238448385
 30
0.0
 40
10.0
100
AcDbArc
 50
180.0
 51
270.0
  0
LINE
  5
13A68
330
747D
100
AcDbEntity
  8
部品1
 48
50.0
100
AcDbLine
 10
946.677830258805
 20
6103.947238448385
 30
0.0
 11
990.6778302588049
 21
6103.947238448381
 31
0.0
  0
LINE
  5
13A69
330
747D
100
AcDbEntity
  8
部品1
 48
50.0
100
AcDbLine
 10
1000.677830258805
 20
6148.947238448386
 30
0.0
 11
1000.677830258805
 21
6113.947238448382
 31
0.0
  0
LINE
  5
13A6A
330
747D
100
AcDbEntity
  8
部品1
 48
50.0
100
AcDbLine
 10
936.677830258805
 20
6148.947238448386
 30
0.0
 11
936.677830258805
 21
6113.947238448385
 31
0.0
  0
LINE
  5
13A6D
330
747D
100
AcDbEntity
  8
部品1
 48
50.0
100
AcDbLine
 10
4208.677830258808
 20
6014.947238448385
 30
0.0
 11
4208.677830258804
 21
5921.447238448382
 31
0.0
  0
LINE
  5
13A74
330
747D
100
AcDbEntity
  8
部品1
 48
50.0
100
AcDbLine
 10
803.677830258805
 20
6898.947238448385
 30
0.0
 11
4123.387045053312
 21
6898.947238448385
 31
0.0
  0
LINE
  5
13A75
330
747D
100
AcDbEntity
  8
部品1
 48
50.0
100
AcDbLine
 10
803.677830258805
 20
6963.947238448382
 30
0.0
 11
4079.702100297369
 21
6963.947238448385
 31
0.0
  0
LINE
  5
13A76
330
747D
100
AcDbEntity
  8
部品1
 48
50.0
100
AcDbLine
 10
803.677830258805
 20
7648.947238448385
 30
0.0
 11
3914.024740724983
 21
7648.947238448389
 31
0.0
  0
LINE
  5
13A77
330
747D
100
AcDbEntity
  8
部品1
 48
50.0
100
AcDbLine
 10
803.677830258805
 20
7713.947238448385
 30
0.0
 11
3896.608043216961
 21
7713.947238448385
 31
0.0
  0
LINE
  5
13A78
330
747D
100
AcDbEntity
  8
部品1
 48
50.0
100
AcDbLine
 10
803.677830258805
 20
7693.947238448385
 30
0.0
 11
3901.967027065579
 21
7693.947238448385
 31
0.0
  0
LINE
  5
13A79
330
747D
100
AcDbEntity
  8
部品1
 48
50.0
100
AcDbLine
 10
803.677830258805
 20
6943.947238448382
 30
0.0
 11
4045.061084145991
 21
6943.947238448385
 31
0.0
  0
LINE
  5
13A94
330
747D
100
AcDbEntity
  8
部品1
 48
50.0
100
AcDbLine
 10
998.6778302588049
 20
7648.947238448385
 30
0.0
 11
998.6778302588049
 21
6963.947238448382
 31
0.0
  0
LINE
  5
13A95
330
747D
100
AcDbEntity
  8
部品1
 48
50.0
100
AcDbLine
 10
938.677830258805
 20
7648.947238448385
 30
0.0
 11
938.677830258805
 21
6963.947238448382
 31
0.0
  0
LINE
  5
13A96
330
747D
100
AcDbEntity
  8
点線
 48
18.0
100
AcDbLine
 10
757.6778302588047
 20
6963.947238448382
 30
0.0
 11
803.677830258805
 21
6963.947238448382
 31
0.0
  0
LINE
  5
13A97
330
747D
100
AcDbEntity
  8
点線
 48
18.0
100
AcDbLine
 10
757.6778302588047
 20
6898.947238448386
 30
0.0
 11
803.677830258805
 21
6898.947238448385
 31
0.0
  0
LINE
  5
13A98
330
747D
100
AcDbEntity
  8
点線
 48
18.0
100
AcDbLine
 10
757.6778302588049
 20
7648.947238448385
 30
0.0
 11
803.677830258805
 21
7648.947238448385
 31
0.0
  0
LINE
  5
13A99
330
747D
100
AcDbEntity
  8
点線
 48
18.0
100
AcDbLine
 10
757.6778302588049
 20
7713.947238448387
 30
0.0
 11
803.677830258805
 21
7713.947238448385
 31
0.0
  0
ARC
  5
13A9A
330
747D
100
AcDbEntity
  8
部品1
 48
50.0
100
AcDbCircle
 10
990.6778302588049
 20
7728.947238448386
 30
0.0
 40
10.0
100
AcDbArc
 50
0.0
 51
90.0
  0
ARC
  5
13A9B
330
747D
100
AcDbEntity
  8
部品1
 48
50.0
100
AcDbCircle
 10
946.677830258805
 20
7728.947238448386
 30
0.0
 40
10.0
100
AcDbArc
 50
90.0
 51
180.0000000000005
  0
LINE
  5
13A9C
330
747D
100
AcDbEntity
  8
部品1
 48
50.0
100
AcDbLine
 10
946.677830258805
 20
7738.947238448385
 30
0.0
 11
990.6778302588049
 21
7738.947238448385
 31
0.0
  0
LINE
  5
13A9D
330
747D
100
AcDbEntity
  8
部品1
 48
50.0
100
AcDbLine
 10
1000.677830258805
 20
7728.947238448386
 30
0.0
 11
1000.677830258805
 21
7713.947238448385
 31
0.0
  0
LINE
  5
13A9E
330
747D
100
AcDbEntity
  8
部品1
 48
50.0
100
AcDbLine
 10
936.677830258805
 20
7728.947238448386
 30
0.0
 11
936.677830258805
 21
7713.947238448385
 31
0.0
  0
ARC
  5
13AA1
330
747D
100
AcDbEntity
  8
部品1
 48
50.0
100
AcDbCircle
 10
733.677830258805
 20
7906.447238448382
 30
0.0
 40
15.0
100
AcDbArc
 50
90.0
 51
180.0
  0
LINE
  5
13AA2
330
747D
100
AcDbEntity
  8
部品1
 48
50.0
100
AcDbLine
 10
718.677830258805
 20
7858.447238448381
 30
0.0
 11
781.6778302588049
 21
7858.447238448381
 31
0.0
  0
LINE
  5
13AD9
330
747D
100
AcDbEntity
  8
部品1
 48
50.0
100
AcDbLine
 10
3800.816206922834
 20
8071.447238448381
 30
0.0
 11
4095.176101260435
 21
6972.881157069853
 31
0.0
  0
LINE
  5
13ADA
330
747D
100
AcDbEntity
  8
部品1
 48
50.0
100
AcDbLine
 10
4052.177830258805
 20
7817.947238448386
 30
0.0
 11
4052.177830258805
 21
7133.352889085545
 31
0.0
  0
LINE
  5
13ADB
330
747D
100
AcDbEntity
  8
部品1
 48
50.0
100
AcDbLine
 10
4075.177830258804
 20
7817.947238448386
 30
0.0
 11
4075.177830258804
 21
7047.51572051146
 31
0.0
  0
LINE
  5
13ADC
330
747D
100
AcDbEntity
  8
部品1
 48
50.0
100
AcDbLine
 10
4075.177830258804
 20
6961.335149923733
 30
0.0
 11
4075.177830258804
 21
6918.990476159925
 31
0.0
  0
LINE
  5
13ADD
330
747D
100
AcDbEntity
  8
部品1
 48
50.0
100
AcDbLine
 10
4052.177830258805
 20
6948.056093732368
 30
0.0
 11
4052.177830258805
 21
6918.990476159925
 31
0.0
  0
LINE
  5
13ADE
330
747D
100
AcDbEntity
  8
部品1
 48
50.0
100
AcDbLine
 10
4158.102951117873
 20
6918.990476159921
 30
0.0
 11
4116.112076586786
 21
6894.747033445892
 31
0.0
  0
LINE
  5
13ADF
330
747D
100
AcDbEntity
  8
部品1
 48
50.0
100
AcDbLine
 10
4001.83470386996
 20
6918.990476159921
 30
0.0
 11
4158.102951117873
 21
6918.990476159921
 31
0.0
  0
LINE
  5
13AE0
330
747D
100
AcDbEntity
  8
部品1
 48
50.0
100
AcDbLine
 10
4001.834703869956
 20
6918.990476159925
 30
0.0
 11
4095.176101260435
 21
6972.881157069853
 31
0.0
  0
LINE
  5
13AEC
330
747D
100
AcDbEntity
  8
部品1
 48
50.0
100
AcDbLine
 10
4228.677830258808
 20
7817.947238448386
 30
0.0
 11
4228.677830258805
 21
7921.447238448388
 31
0.0
  0
LWPOLYLINE
  5
13C02
330
747D
100
AcDbEntity
  8
部品1
100
AcDbPolyline
 90
        4
 70
     1
 43
0.0
 10
3857.486475024624
 20
5569.236416622199
 10
4504.517850305147
 20
5569.236416622199
 10
4504.517850305147
 20
5376.716260805061
 10
3857.486475024624
 20
5376.716260805061
  0
TEXT
  5
13C03
330
747D
100
AcDbEntity
  8
仕様書枠
 62
     7
 48
50.0
100
AcDbText
 10
3888.901551786153
 20
5415.371692272017
 30
0.0
 40
112.0
  1
平 面 図
  7
STYLE2
100
AcDbText
  0
LINE
  5
13CB1
330
747D
100
AcDbEntity
  8
部品1
 48
50.0
100
AcDbLine
 10
4362.177830258804
 20
7817.947238448386
 30
0.0
 11
4362.177830258804
 21
6014.947238448385
 31
0.0
  0
LINE
  5
13CB4
330
747D
100
AcDbEntity
  8
細線
 48
50.0
100
AcDbLine
 10
4248.677830258804
 20
7817.947238448386
 30
0.0
 11
4248.677830258804
 21
6400.004905398261
 31
0.0
  0
LINE
  5
13CB5
330
747D
100
AcDbEntity
  8
細線
 48
50.0
100
AcDbLine
 10
4188.677830258805
 20
7817.947238448386
 30
0.0
 11
4188.677830258805
 21
6623.927953852393
 31
0.0
  0
LINE
  5
13CB7
330
747D
100
AcDbEntity
  8
部品1
 48
50.0
100
AcDbLine
 10
4385.177830258804
 20
7817.947238448386
 30
0.0
 11
4385.177830258804
 21
6014.947238448385
 31
0.0
  0
LINE
  5
13CE3
330
747D
100
AcDbEntity
  8
細線
 48
50.0
100
AcDbLine
 10
4651.677830258804
 20
7817.947238448386
 30
0.0
 11
4651.677830258804
 21
6014.947238448385
 31
0.0
  0
LINE
  5
13CE4
330
747D
100
AcDbEntity
  8
細線
 48
50.0
100
AcDbLine
 10
4606.677830258805
 20
7817.947238448386
 30
0.0
 11
4606.677830258805
 21
6014.947238448385
 31
0.0
  0
LINE
  5
13CE5
330
747D
100
AcDbEntity
  8
細線
 48
50.0
100
AcDbLine
 10
4533.677830258804
 20
7817.947238448386
 30
0.0
 11
4533.677830258804
 21
6014.947238448385
 31
0.0
  0
LINE
  5
13CE6
330
747D
100
AcDbEntity
  8
細線
 48
50.0
100
AcDbLine
 10
4578.677830258804
 20
7817.947238448386
 30
0.0
 11
4578.677830258804
 21
6014.947238448385
 31
0.0
  0
LINE
  5
13CE7
330
747D
100
AcDbEntity
  8
部品1
 48
50.0
100
AcDbLine
 10
4782.177830258804
 20
7817.947238448386
 30
0.0
 11
4782.177830258804
 21
6014.947238448385
 31
0.0
  0
ARC
  5
13CEF
330
747D
100
AcDbEntity
  8
部品1
 48
50.0
100
AcDbCircle
 10
4240.677830258804
 20
6113.947238448385
 30
0.0
 40
10.0
100
AcDbArc
 50
270.0
 51
0.0000000000000254
  0
ARC
  5
13CF0
330
747D
100
AcDbEntity
  8
部品1
 48
50.0
100
AcDbCircle
 10
4196.677830258805
 20
6113.947238448385
 30
0.0
 40
10.0
100
AcDbArc
 50
180.0
 51
270.0
  0
LINE
  5
13CF1
330
747D
100
AcDbEntity
  8
部品1
 48
50.0
100
AcDbLine
 10
4250.677830258804
 20
6148.947238448386
 30
0.0
 11
4250.677830258804
 21
6113.947238448385
 31
0.0
  0
LINE
  5
13CF2
330
747D
100
AcDbEntity
  8
部品1
 48
50.0
100
AcDbLine
 10
4186.677830258804
 20
6148.947238448386
 30
0.0
 11
4186.677830258804
 21
6113.947238448385
 31
0.0
  0
LINE
  5
13CF3
330
747D
100
AcDbEntity
  8
部品1
 48
50.0
100
AcDbLine
 10
4196.677830258805
 20
6103.947238448385
 30
0.0
 11
4240.677830258804
 21
6103.947238448385
 31
0.0
  0
ARC
  5
13D4A
330
747D
100
AcDbEntity
  8
点線
 48
18.0
100
AcDbCircle
 10
4240.677830258804
 20
7728.947238448386
 30
0.0
 40
10.0
100
AcDbArc
 50
0.0
 51
90.0
  0
ARC
  5
13D4B
330
747D
100
AcDbEntity
  8
点線
 48
18.0
100
AcDbCircle
 10
4196.677830258805
 20
7728.947238448386
 30
0.0
 40
10.0
100
AcDbArc
 50
90.0
 51
180.0
  0
LINE
  5
13D4C
330
747D
100
AcDbEntity
  8
点線
 48
18.0
100
AcDbLine
 10
4250.677830258804
 20
7728.947238448386
 30
0.0
 11
4250.677830258804
 21
7713.947238448385
 31
0.0
  0
LINE
  5
13D4D
330
747D
100
AcDbEntity
  8
点線
 48
18.0
100
AcDbLine
 10
4186.677830258804
 20
7728.947238448386
 30
0.0
 11
4186.677830258804
 21
7713.947238448385
 31
0.0
  0
LINE
  5
13D4E
330
747D
100
AcDbEntity
  8
点線
 48
18.0
100
AcDbLine
 10
4196.677830258805
 20
7738.947238448385
 30
0.0
 11
4240.677830258804
 21
7738.947238448385
 31
0.0
  0
DIMENSION
  5
13D64
330
747D
100
AcDbEntity
  8
寸法
 48
50.0
100
AcDbDimension
  2
*D9
 10
8342.167364783687
 20
5921.447238448383
 30
0.0
 11
8342.167364783685
 21
6921.447238448384
 31
0.0
 70
   160
 71
     5
 42
2000.000000000005
  3
INABA_S30G
100
AcDbAlignedDimension
 13
7703.677830258804
 23
7921.447238448386
 33
0.0
 14
7703.677830258804
 24
5921.447238448383
 34
0.0
 50
90.0
100
AcDbRotatedDimension
  0
LINE
  5
13D65
330
747D
100
AcDbEntity
  8
点線
 48
50.0
100
AcDbLine
 10
7438.677830258804
 20
6898.947238448387
 30
0.0
 11
7438.677830258804
 21
6213.94723844839
 31
0.0
  0
LINE
  5
13D66
330
747D
100
AcDbEntity
  8
点線
 48
50.0
100
AcDbLine
 10
7498.677830258805
 20
6898.947238448387
 30
0.0
 11
7498.677830258805
 21
6213.94723844839
 31
0.0
  0
LINE
  5
13D6B
330
747D
100
AcDbEntity
  8
細線
 48
50.0
100
AcDbLine
 10
5838.677830258805
 20
7817.947238448386
 30
0.0
 11
5838.677830258805
 21
6014.947238448385
 31
0.0
  0
LINE
  5
13D6C
330
747D
100
AcDbEntity
  8
細線
 48
50.0
100
AcDbLine
 10
5793.677830258804
 20
7817.947238448386
 30
0.0
 11
5793.677830258804
 21
6014.947238448385
 31
0.0
  0
LINE
  5
13D6D
330
747D
100
AcDbEntity
  8
細線
 48
50.0
100
AcDbLine
 10
5866.677830258804
 20
7817.947238448386
 30
0.0
 11
5866.677830258804
 21
6014.947238448385
 31
0.0
  0
LINE
  5
13D6E
330
747D
100
AcDbEntity
  8
細線
 48
50.0
100
AcDbLine
 10
5911.677830258804
 20
7817.947238448386
 30
0.0
 11
5911.677830258804
 21
6014.947238448385
 31
0.0
  0
LINE
  5
13D6F
330
747D
100
AcDbEntity
  8
細線
 48
50.0
100
AcDbLine
 10
7411.677830258804
 20
7817.947238448387
 30
0.0
 11
7411.677830258804
 21
6014.947238448387
 31
0.0
  0
LINE
  5
13D70
330
747D
100
AcDbEntity
  8
細線
 48
50.0
100
AcDbLine
 10
7338.677830258804
 20
7817.947238448387
 30
0.0
 11
7338.677830258804
 21
6014.947238448387
 31
0.0
  0
LINE
  5
13D71
330
747D
100
AcDbEntity
  8
細線
 48
50.0
100
AcDbLine
 10
6758.677830258804
 20
7817.947238448387
 30
0.0
 11
6758.677830258804
 21
6014.947238448387
 31
0.0
  0
LINE
  5
13D72
330
747D
100
AcDbEntity
  8
細線
 48
50.0
100
AcDbLine
 10
6831.677830258804
 20
7817.947238448387
 30
0.0
 11
6831.677830258804
 21
6014.947238448387
 31
0.0
  0
LINE
  5
13D73
330
747D
100
AcDbEntity
  8
細線
 48
50.0
100
AcDbLine
 10
7293.677830258805
 20
7817.947238448387
 30
0.0
 11
7293.677830258805
 21
6014.947238448387
 31
0.0
  0
LINE
  5
13D74
330
747D
100
AcDbEntity
  8
細線
 48
50.0
100
AcDbLine
 10
6713.677830258804
 20
7817.947238448387
 30
0.0
 11
6713.677830258804
 21
6014.947238448387
 31
0.0
  0
LINE
  5
13D75
330
747D
100
AcDbEntity
  8
細線
 48
50.0
100
AcDbLine
 10
7366.677830258804
 20
7817.947238448387
 30
0.0
 11
7366.677830258804
 21
6014.947238448387
 31
0.0
  0
LINE
  5
13D76
330
747D
100
AcDbEntity
  8
細線
 48
50.0
100
AcDbLine
 10
6786.677830258804
 20
7817.947238448387
 30
0.0
 11
6786.677830258804
 21
6014.947238448387
 31
0.0
  0
LINE
  5
13D77
330
747D
100
AcDbEntity
  8
部品1
 48
50.0
100
AcDbLine
 10
7622.177830258805
 20
7817.947238448387
 30
0.0
 11
7622.177830258805
 21
6014.947238448387
 31
0.0
  0
LINE
  5
13D78
330
747D
100
AcDbEntity
  8
部品1
 48
50.0
100
AcDbLine
 10
7042.177830258805
 20
7817.947238448387
 30
0.0
 11
7042.177830258805
 21
6014.947238448387
 31
0.0
  0
LINE
  5
13D79
330
747D
100
AcDbEntity
  8
部品1
 48
50.0
100
AcDbLine
 10
6462.177830258804
 20
7817.947238448387
 30
0.0
 11
6462.177830258804
 21
6014.947238448387
 31
0.0
  0
LINE
  5
13D7B
330
747D
100
AcDbEntity
  8
部品1
 48
50.0
100
AcDbLine
 10
7645.177830258806
 20
7817.947238448387
 30
0.0
 11
7645.177830258806
 21
6014.947238448387
 31
0.0
  0
LINE
  5
13D7C
330
747D
100
AcDbEntity
  8
部品1
 48
50.0
100
AcDbLine
 10
7065.177830258804
 20
7817.947238448387
 30
0.0
 11
7065.177830258804
 21
6014.947238448387
 31
0.0
  0
LINE
  5
13D7D
330
747D
100
AcDbEntity
  8
部品1
 48
50.0
100
AcDbLine
 10
6485.177830258805
 20
7817.947238448387
 30
0.0
 11
6485.177830258805
 21
6014.947238448387
 31
0.0
  0
LINE
  5
13D7F
330
747D
100
AcDbEntity
  8
部品1
 48
50.0
100
AcDbLine
 10
4805.177830258805
 20
7817.947238448386
 30
0.0
 11
4805.177830258805
 21
6014.947238448385
 31
0.0
  0
LINE
  5
13D80
330
747D
100
AcDbEntity
  8
部品1
 48
50.0
100
AcDbLine
 10
7655.677830258804
 20
7921.447238448384
 30
0.0
 11
7655.677830258804
 21
5921.447238448386
 31
0.0
  0
LINE
  5
13D81
330
747D
100
AcDbEntity
  8
部品1
 48
50.0
100
AcDbLine
 10
7718.677830258805
 20
7906.447238448388
 30
0.0
 11
7718.677830258805
 21
5936.447238448383
 31
0.0
  0
ARC
  5
13D82
330
747D
100
AcDbEntity
  8
点線
 48
18.0
100
AcDbCircle
 10
7490.677830258805
 20
6113.947238448391
 30
0.0
 40
10.0
100
AcDbArc
 50
270.0
 51
0.0
  0
ARC
  5
13D83
330
747D
100
AcDbEntity
  8
点線
 48
18.0
100
AcDbCircle
 10
7446.677830258805
 20
6113.947238448387
 30
0.0
 40
10.0
100
AcDbArc
 50
180.0
 51
270.0
  0
LINE
  5
13D84
330
747D
100
AcDbEntity
  8
点線
 48
18.0
100
AcDbLine
 10
7446.677830258805
 20
6103.947238448387
 30
0.0
 11
7490.677830258805
 21
6103.947238448391
 31
0.0
  0
LINE
  5
13D85
330
747D
100
AcDbEntity
  8
点線
 48
18.0
100
AcDbLine
 10
7436.677830258805
 20
6148.947238448391
 30
0.0
 11
7436.677830258805
 21
6113.947238448387
 31
0.0
  0
LINE
  5
13D86
330
747D
100
AcDbEntity
  8
点線
 48
18.0
100
AcDbLine
 10
7500.677830258805
 20
6148.947238448391
 30
0.0
 11
7500.677830258805
 21
6113.947238448391
 31
0.0
  0
ARC
  5
13D87
330
747D
100
AcDbEntity
  8
部品1
 48
50.0
100
AcDbCircle
 10
7703.677830258804
 20
5936.447238448383
 30
0.0
 40
15.0
100
AcDbArc
 50
270.0
 51
0.0
  0
LINE
  5
13D88
330
747D
100
AcDbEntity
  8
部品1
 48
50.0
100
AcDbLine
 10
7655.677830258804
 20
5984.447238448387
 30
0.0
 11
7718.677830258805
 21
5984.447238448387
 31
0.0
  0
LINE
  5
13D8F
330
747D
100
AcDbEntity
  8
点線
 48
50.0
100
AcDbLine
 10
7438.677830258804
 20
7648.947238448387
 30
0.0
 11
7438.677830258804
 21
6963.947238448387
 31
0.0
  0
LINE
  5
13D90
330
747D
100
AcDbEntity
  8
点線
 48
50.0
100
AcDbLine
 10
7498.677830258805
 20
7648.947238448387
 30
0.0
 11
7498.677830258805
 21
6963.947238448387
 31
0.0
  0
ARC
  5
13D91
330
747D
100
AcDbEntity
  8
点線
 48
18.0
100
AcDbCircle
 10
7490.677830258805
 20
7728.947238448387
 30
0.0
 40
10.0
100
AcDbArc
 50
0.0
 51
90.0
  0
ARC
  5
13D92
330
747D
100
AcDbEntity
  8
点線
 48
18.0
100
AcDbCircle
 10
7446.677830258805
 20
7728.947238448387
 30
0.0
 40
10.0
100
AcDbArc
 50
90.0
 51
180.0
  0
LINE
  5
13D93
330
747D
100
AcDbEntity
  8
点線
 48
18.0
100
AcDbLine
 10
7446.677830258805
 20
7738.947238448386
 30
0.0
 11
7490.677830258805
 21
7738.947238448386
 31
0.0
  0
LINE
  5
13D94
330
747D
100
AcDbEntity
  8
点線
 48
18.0
100
AcDbLine
 10
7500.677830258805
 20
7728.947238448387
 30
0.0
 11
7500.677830258805
 21
7713.947238448387
 31
0.0
  0
LINE
  5
13D95
330
747D
100
AcDbEntity
  8
点線
 48
18.0
100
AcDbLine
 10
7436.677830258805
 20
7728.947238448387
 30
0.0
 11
7436.677830258805
 21
7713.947238448387
 31
0.0
  0
ARC
  5
13D9F
330
747D
100
AcDbEntity
  8
部品1
 48
50.0
100
AcDbCircle
 10
7703.677830258804
 20
7906.447238448388
 30
0.0
 40
15.0
100
AcDbArc
 50
0.0
 51
90.0
  0
LINE
  5
13DA0
330
747D
100
AcDbEntity
  8
部品1
 48
50.0
100
AcDbLine
 10
7655.677830258804
 20
7858.447238448388
 30
0.0
 11
7718.677830258805
 21
7858.447238448388
 31
0.0
  0
LINE
  5
143B2
330
747D
100
AcDbEntity
  8
部品1
 48
50.0
100
AcDbLine
 10
4186.988846299533
 20
3969.96901214066
 30
0.0
 11
1000.677830258804
 21
3969.96901214066
 31
0.0
  0
LINE
  5
143B4
330
747D
100
AcDbEntity
  8
部品1
 48
50.0
100
AcDbLine
 10
4186.677830258807
 20
3909.969012140661
 30
0.0
 11
1000.677830258804
 21
3909.969012140661
 31
0.0
  0
LINE
  5
143B6
330
747D
100
AcDbEntity
  8
部品1
 48
50.0
100
AcDbLine
 10
4186.677830258807
 20
3939.307144620489
 30
0.0
 11
1000.677830258804
 21
3939.307144620489
 31
0.0
  0
LINE
  5
143BA
330
747D
100
AcDbEntity
  8
部品1
 48
50.0
100
AcDbLine
 10
4186.677830258807
 20
3900.228017808711
 30
0.0
 11
1000.677830258804
 21
3900.228017808711
 31
0.0
  0
LINE
  5
143BB
330
747D
100
AcDbEntity
  8
部品1
 48
50.0
100
AcDbLine
 10
936.6778302588045
 20
3900.228017808711
 30
0.0
 11
758.6778302588045
 21
3900.228017808711
 31
0.0
  0
LINE
  5
145A7
330
747D
100
AcDbEntity
  8
細線
 48
50.0
100
AcDbLine
 10
7219.583515449501
 20
1830.562576328018
 30
0.0
 11
7269.583515449501
 21
1880.562576328018
 31
0.0
  0
LINE
  5
145A8
330
747D
100
AcDbEntity
  8
細線
 48
50.0
100
AcDbLine
 10
7192.642735449505
 20
1830.562576328018
 30
0.0
 11
7242.642735449504
 21
1880.562576328018
 31
0.0
  0
LINE
  5
145A9
330
747D
100
AcDbEntity
  8
細線
 48
50.0
100
AcDbLine
 10
7246.524295449503
 20
1830.562576328018
 30
0.0
 11
7296.524295449502
 21
1880.562576328018
 31
0.0
  0
LINE
  5
145AA
330
747D
100
AcDbEntity
  8
部品1
 48
50.0
100
AcDbLine
 10
6065.177830258805
 20
7817.947238448387
 30
0.0
 11
6065.177830258805
 21
6014.947238448387
 31
0.0
  0
LINE
  5
145AB
330
747D
100
AcDbEntity
  8
部品1
 48
50.0
100
AcDbLine
 10
6042.177830258804
 20
7817.947238448387
 30
0.0
 11
6042.177830258804
 21
6014.947238448387
 31
0.0
  0
LINE
  5
145AC
330
747D
100
AcDbEntity
  8
細線
 48
50.0
100
AcDbLine
 10
6331.677830258804
 20
7817.947238448387
 30
0.0
 11
6331.677830258804
 21
6014.947238448387
 31
0.0
  0
LINE
  5
145AD
330
747D
100
AcDbEntity
  8
細線
 48
50.0
100
AcDbLine
 10
6286.677830258804
 20
7817.947238448387
 30
0.0
 11
6286.677830258804
 21
6014.947238448387
 31
0.0
  0
LINE
  5
145AE
330
747D
100
AcDbEntity
  8
細線
 48
50.0
100
AcDbLine
 10
6213.677830258805
 20
7817.947238448387
 30
0.0
 11
6213.677830258805
 21
6014.947238448387
 31
0.0
  0
LINE
  5
145AF
330
747D
100
AcDbEntity
  8
細線
 48
50.0
100
AcDbLine
 10
6258.677830258804
 20
7817.947238448387
 30
0.0
 11
6258.677830258804
 21
6014.947238448387
 31
0.0
  0
LINE
  5
145DE
330
747D
100
AcDbEntity
  8
仕様書枠
 48
50.0
100
AcDbLine
 10
105.0000000000018
 20
0.0
 30
0.0
 11
12230.4
 21
0.0
 31
0.0
  0
LINE
  5
145F5
330
747D
100
AcDbEntity
  8
補助
  6
PHANTOM
 62
   230
 48
50.0
100
AcDbLine
 10
11930.4
 20
8182.200000000003
 30
0.0
 11
11930.4
 21
6457.2
 31
0.0
  0
LINE
  5
145F6
330
747D
100
AcDbEntity
  8
補助
  6
PHANTOM
 62
   230
 48
50.0
100
AcDbLine
 10
9380.400000000003
 20
8182.199999999999
 30
0.0
 11
9380.400000000003
 21
6457.2
 31
0.0
  0
LINE
  5
145F7
330
747D
100
AcDbEntity
  8
補助
  6
PHANTOM
 62
   230
 48
50.0
100
AcDbLine
 10
9380.400000000003
 20
6457.2
 30
0.0
 11
11930.4
 21
6457.2
 31
0.0
  0
LINE
  5
145F9
330
747D
100
AcDbEntity
  8
補助
  6
PHANTOM
 62
   230
 48
50.0
100
AcDbLine
 10
9380.400000000003
 20
8182.199999999999
 30
0.0
 11
11930.4
 21
8182.200000000003
 31
0.0
  0
DIMENSION
  5
14682
330
747D
100
AcDbEntity
  8
寸法
 48
50.0
100
AcDbDimension
  2
*D10
 10
7718.677830258805
 20
8256.091035740652
 30
0.0
 11
4218.677830258804
 21
8331.099894008367
 31
0.0
 70
    32
  1
N X 3250 + 500
 71
     5
 42
7000.0
  3
INABA_S30G
100
AcDbAlignedDimension
 13
718.677830258805
 23
7906.447238448382
 33
0.0
 14
7718.677830258805
 24
7905.978717162716
 34
0.0
100
AcDbRotatedDimension
  0
LINE
  5
146A6
330
747D
100
AcDbEntity
  8
補助
  6
PHANTOM
 62
   230
 48
50.0
100
AcDbLine
 10
9380.400000000003
 20
6767.200000000001
 30
0.0
 11
11930.4
 21
6767.200000000002
 31
0.0
  0
TEXT
  5
14741
330
747D
100
AcDbEntity
  8
文字
 62
     7
 48
50.0
100
AcDbText
 10
9907.054008162901
 20
171.4076431926769
 30
0.0
 40
75.0
  1
○間口奥行寸法は柱芯寸法です。
  7
STYLE2
100
AcDbText
  0
TEXT
  5
14743
330
747D
100
AcDbEntity
  8
仕様書枠
 62
     7
 48
50.0
100
AcDbText
 10
10984.92759423544
 20
362.9225347433557
 30
0.0
 40
120.0
  1
BYN-３３L
  7
STYLE3
100
AcDbText
  0
TEXT
  5
14745
330
747D
100
AcDbEntity
  8
仕様書枠
 62
     7
 48
50.0
100
AcDbText
 10
9901.077524988314
 20
357.9555495773438
 30
0.0
 40
120.0
  1
機種名
  7
STYLE2
100
AcDbText
  0
LINE
  5
14746
330
747D
100
AcDbEntity
  8
仕様書枠
 48
50.0
100
AcDbLine
 10
9830.400000000002
 20
600.0
 30
0.0
 11
10688.4
 21
600.0
 31
0.0
  0
TEXT
  5
14747
330
747D
100
AcDbEntity
  8
仕様書枠
 62
     7
 48
50.0
100
AcDbText
 10
9872.234292432679
 20
671.3179555724555
 30
0.0
 40
150.0
  1
外 形 図
  7
STYLE2
100
AcDbText
  0
LINE
  5
14748
330
747D
100
AcDbEntity
  8
仕様書枠
  6
Continuous
 48
50.0
100
AcDbLine
 10
10688.4
 20
900.0
 30
0.0
 11
10688.4
 21
600.0
 31
0.0
  0
LINE
  5
14749
330
747D
100
AcDbEntity
  8
仕様書枠
  6
Continuous
 48
50.0
100
AcDbLine
 10
10688.4
 20
900.0
 30
0.0
 11
10688.4
 21
600.0
 31
0.0
  0
LINE
  5
1474A
330
747D
100
AcDbEntity
  8
仕様書枠
 48
50.0
100
AcDbLine
 10
9830.400000000002
 20
900.0
 30
0.0
 11
12230.4
 21
900.0
 31
0.0
  0
LINE
  5
1474B
330
747D
100
AcDbEntity
  8
仕様書枠
 62
     7
 48
50.0
100
AcDbLine
 10
9890.400000000001
 20
300.0
 30
0.0
 11
12170.4
 21
300.0
 31
0.0
  0
LINE
  5
1474C
330
747D
100
AcDbEntity
  8
仕様書枠
  6
Continuous
 48
50.0
100
AcDbLine
 10
9830.400000000002
 20
900.0
 30
0.0
 11
9830.400000000002
 21
0.0
 31
0.0
  0
LINE
  5
1474D
330
747D
100
AcDbEntity
  8
仕様書枠
 48
50.0
100
AcDbLine
 10
12230.4
 20
900.0
 30
0.0
 11
12230.4
 21
0.0
 31
0.0
  0
LINE
  5
1474E
330
747D
100
AcDbEntity
  8
仕様書枠
 48
50.0
100
AcDbLine
 10
9830.400000000002
 20
900.0
 30
0.0
 11
12230.4
 21
900.0
 31
0.0
  0
LINE
  5
1474F
330
747D
100
AcDbEntity
  8
仕様書枠
 48
50.0
100
AcDbLine
 10
9830.400000000002
 20
900.0
 30
0.0
 11
12230.4
 21
900.0
 31
0.0
  0
TEXT
  5
14750
330
747D
100
AcDbEntity
  8
文字
 62
     7
 48
50.0
100
AcDbText
 10
9478.533405355218
 20
6818.753268667581
 30
0.0
 40
81.11400000000001
  1
9
  7
STYLE1
100
AcDbText
  0
TEXT
  5
14751
330
747D
100
AcDbEntity
  8
文字
 62
     7
 48
50.0
100
AcDbText
 10
9731.550575975818
 20
7232.434668667583
 30
0.0
 40
81.11400000000001
  1
梁中屋根板
  7
STYLE1
100
AcDbText
  0
TEXT
  5
14752
330
747D
100
AcDbEntity
  8
文字
 62
     7
 48
50.0
100
AcDbText
 10
10855.39650188426
 20
7232.434668667583
 30
0.0
 40
81.11400000000001
  1
Y10            1.0
  7
STYLE1
100
AcDbText
  0
LINE
  5
14753
330
747D
100
AcDbEntity
  8
部品1
100
AcDbLine
 10
11913.43968492464
 20
7207.764862831455
 30
0.0
 11
9363.439684924639
 21
7207.764862831455
 31
0.0
  0
TEXT
  5
14754
330
747D
100
AcDbEntity
  8
文字
 62
     7
 48
50.0
100
AcDbText
 10
9731.550575975818
 20
7370.32846866758
 30
0.0
 40
81.11400000000001
  1
妻板
  7
STYLE1
100
AcDbText
  0
LINE
  5
14755
330
747D
100
AcDbEntity
  8
部品1
100
AcDbLine
 10
11913.43968492464
 20
6931.977262831455
 30
0.0
 11
9363.439684924639
 21
6931.977262831455
 31
0.0
  0
TEXT
  5
14756
330
747D
100
AcDbEntity
  8
文字
 62
     7
 48
50.0
100
AcDbText
 10
9444.98505575393
 20
6680.859468667583
 30
0.0
 40
81.11400000000001
  1
PZ→一般構造用角形鋼管(JIS G 3466)
 41
0.9
  7
STYLE1
100
AcDbText
  0
TEXT
  5
14757
330
747D
100
AcDbEntity
  8
文字
 62
     7
 48
50.0
100
AcDbText
 10
9444.985055753763
 20
6405.07186866758
 30
0.0
 40
81.11400000000001
  1
Y10→溶融亜鉛-5％アルミニウム合金めっき鋼板(JIS G 3317)
 41
0.9
  7
STYLE1
100
AcDbText
  0
TEXT
  5
14758
330
747D
100
AcDbEntity
  8
文字
 62
     7
 48
50.0
100
AcDbText
 10
9444.985055753772
 20
6542.965668667583
 30
0.0
 40
81.11400000000001
  1
F12→溶融亜鉛めっき鋼板(JIS G 3302)
  7
STYLE1
100
AcDbText
  0
TEXT
  5
14759
330
747D
100
AcDbEntity
  8
文字
 62
     7
 48
50.0
100
AcDbText
 10
9731.550575975818
 20
6818.753268667584
 30
0.0
 40
81.11400000000001
  1
雨とい(別売)
  7
STYLE1
100
AcDbText
  0
TEXT
  5
1475A
330
747D
100
AcDbEntity
  8
文字
 62
     7
 48
50.0
100
AcDbText
 10
9731.550575975816
 20
7921.903668667578
 30
0.0
 40
81.11400000000001
  1
プレート
  7
STYLE1
100
AcDbText
  0
TEXT
  5
1475B
330
747D
100
AcDbEntity
  8
文字
 62
     7
 48
50.0
100
AcDbText
 10
9731.550575975818
 20
7094.540868667583
 30
0.0
 40
81.11400000000001
  1
屋根パネル
  7
STYLE1
100
AcDbText
  0
LINE
  5
1475C
330
747D
100
AcDbEntity
  8
部品1
100
AcDbLine
 10
11913.43968492464
 20
6794.083462831455
 30
0.0
 11
9363.439684924641
 21
6794.083462831458
 31
0.0
  0
LINE
  5
1475D
330
747D
100
AcDbEntity
  8
部品1
100
AcDbLine
 10
11913.43968492464
 20
8173.021462831455
 30
0.0
 11
9363.439684924639
 21
8173.021462831455
 31
0.0
  0
LINE
  5
1475E
330
747D
100
AcDbEntity
  8
部品1
100
AcDbLine
 10
11913.43968492464
 20
6380.402062831453
 30
0.0
 11
11913.43968492464
 21
8173.021462831455
 31
0.0
  0
LINE
  5
1475F
330
747D
100
AcDbEntity
  8
部品1
100
AcDbLine
 10
10678.88460492464
 20
8173.021462831451
 30
0.0
 11
10678.88460492464
 21
6794.083462831455
 31
0.0
  0
LINE
  5
14760
330
747D
100
AcDbEntity
  8
部品1
100
AcDbLine
 10
9656.180915204814
 20
8173.021462831455
 30
0.0
 11
9656.180915204824
 21
6794.083462831456
 31
0.0
  0
LINE
  5
14761
330
747D
100
AcDbEntity
  8
部品1
100
AcDbLine
 10
11913.43968492464
 20
8035.127662831452
 30
0.0
 11
9363.439684924639
 21
8035.127662831454
 31
0.0
  0
LINE
  5
14762
330
747D
100
AcDbEntity
  8
部品1
100
AcDbLine
 10
11913.43968492464
 20
7759.340062831455
 30
0.0
 11
9363.439684924639
 21
7759.340062831454
 31
0.0
  0
LINE
  5
14763
330
747D
100
AcDbEntity
  8
部品1
100
AcDbLine
 10
11913.43968492464
 20
7897.233862831455
 30
0.0
 11
9363.439684924639
 21
7897.233862831455
 31
0.0
  0
LINE
  5
14764
330
747D
100
AcDbEntity
  8
部品1
100
AcDbLine
 10
11913.43968492464
 20
7483.552462831453
 30
0.0
 11
9363.439684924641
 21
7483.552462831453
 31
0.0
  0
LINE
  5
14765
330
747D
100
AcDbEntity
  8
部品1
100
AcDbLine
 10
11913.43968492464
 20
7345.658662831453
 30
0.0
 11
9363.439684924641
 21
7345.658662831453
 31
0.0
  0
LINE
  5
14766
330
747D
100
AcDbEntity
  8
部品1
100
AcDbLine
 10
11913.43968492464
 20
7621.446262831454
 30
0.0
 11
9363.439684924641
 21
7621.446262831454
 31
0.0
  0
TEXT
  5
14767
330
747D
100
AcDbEntity
  8
文字
 62
     7
 48
50.0
100
AcDbText
 10
9418.6995522557
 20
8059.797468667579
 30
0.0
 40
81.11400000000001
  1
品番
  7
STYLE1
100
AcDbText
  0
TEXT
  5
14768
330
747D
100
AcDbEntity
  8
文字
 62
     7
 48
50.0
100
AcDbText
 10
9478.533405355221
 20
7921.903668667579
 30
0.0
 40
81.11400000000001
  1
1
  7
STYLE1
100
AcDbText
  0
TEXT
  5
14769
330
747D
100
AcDbEntity
  8
文字
 62
     7
 48
50.0
100
AcDbText
 10
9478.533405355221
 20
7784.009868667581
 30
0.0
 40
81.11400000000001
  1
2
  7
STYLE1
100
AcDbText
  0
TEXT
  5
1476A
330
747D
100
AcDbEntity
  8
文字
 62
     7
 48
50.0
100
AcDbText
 10
9478.533405355221
 20
7508.222268667579
 30
0.0
 40
81.11400000000001
  1
4
  7
STYLE1
100
AcDbText
  0
TEXT
  5
1476B
330
747D
100
AcDbEntity
  8
文字
 62
     7
 48
50.0
100
AcDbText
 10
9478.533405355221
 20
7646.11606866758
 30
0.0
 40
81.11400000000001
  1
3
  7
STYLE1
100
AcDbText
  0
TEXT
  5
1476C
330
747D
100
AcDbEntity
  8
文字
 62
     7
 48
50.0
100
AcDbText
 10
9871.675540422367
 20
8059.797468667579
 30
0.0
 40
81.11400000000001
  1
部　　品　　名
  7
STYLE1
100
AcDbText
  0
TEXT
  5
1476D
330
747D
100
AcDbEntity
  8
文字
 62
     7
 48
50.0
100
AcDbText
 10
10739.39382073255
 20
8059.797468667579
 30
0.0
 40
81.11400000000001
  1
材料（材質）　　単位mm
  7
STYLE1
100
AcDbText
  0
TEXT
  5
1476E
330
747D
100
AcDbEntity
  8
文字
 62
     7
 48
50.0
100
AcDbText
 10
9731.550575975814
 20
7784.00986866758
 30
0.0
 40
81.11400000000001
  1
柱
  7
STYLE1
100
AcDbText
  0
TEXT
  5
1476F
330
747D
100
AcDbEntity
  8
文字
 62
     7
 48
50.0
100
AcDbText
 10
9731.55057597582
 20
7646.116068667582
 30
0.0
 40
81.11400000000001
  1
梁
  7
STYLE1
100
AcDbText
  0
TEXT
  5
14770
330
747D
100
AcDbEntity
  8
文字
 62
     7
 48
50.0
100
AcDbText
 10
9731.550575975818
 20
6956.647068667582
 30
0.0
 40
81.11400000000001
  1
鼻隠シ
  7
STYLE1
100
AcDbText
  0
TEXT
  5
14771
330
747D
100
AcDbEntity
  8
文字
 62
     7
 48
50.0
100
AcDbText
 10
9478.533405355221
 20
7370.328468667579
 30
0.0
 40
81.11400000000001
  1
5
  7
STYLE1
100
AcDbText
  0
TEXT
  5
14772
330
747D
100
AcDbEntity
  8
文字
 62
     7
 48
50.0
100
AcDbText
 10
9478.533405355216
 20
6956.64706866758
 30
0.0
 40
81.11400000000001
  1
8
  7
STYLE1
100
AcDbText
  0
TEXT
  5
14773
330
747D
100
AcDbEntity
  8
文字
 62
     7
 48
50.0
100
AcDbText
 10
9478.533405355216
 20
7094.54086866758
 30
0.0
 40
81.11400000000001
  1
7
  7
STYLE1
100
AcDbText
  0
TEXT
  5
14774
330
747D
100
AcDbEntity
  8
文字
 62
     7
 48
50.0
100
AcDbText
 10
9478.533405355221
 20
7232.434668667579
 30
0.0
 40
81.11400000000001
  1
6
  7
STYLE1
100
AcDbText
  0
LINE
  5
14775
330
747D
100
AcDbEntity
  8
部品1
100
AcDbLine
 10
11913.43968492464
 20
6518.295862831452
 30
0.0
 11
9363.439684924639
 21
6518.295862831452
 31
0.0
  0
LINE
  5
14776
330
747D
100
AcDbEntity
  8
部品1
100
AcDbLine
 10
11913.43968492464
 20
6380.402062831453
 30
0.0
 11
9363.439684924641
 21
6380.402062831453
 31
0.0
  0
LINE
  5
14777
330
747D
100
AcDbEntity
  8
部品1
100
AcDbLine
 10
11913.43968492464
 20
7069.871062831454
 30
0.0
 11
9363.439684924639
 21
7069.871062831454
 31
0.0
  0
LINE
  5
14778
330
747D
100
AcDbEntity
  8
部品1
100
AcDbLine
 10
11913.43968492464
 20
6656.189662831454
 30
0.0
 11
9363.439684924641
 21
6656.189662831455
 31
0.0
  0
TEXT
  5
14779
330
747D
100
AcDbEntity
  8
文字
 62
     7
 48
50.0
100
AcDbText
 10
10871.48140647464
 20
7784.00986866758
 30
0.0
 40
81.11400000000001
  1
PZ            2.3
  7
STYLE1
100
AcDbText
  0
TEXT
  5
1477A
330
747D
100
AcDbEntity
  8
文字
 62
     7
 48
50.0
100
AcDbText
 10
10871.48140647464
 20
6818.753268667579
 30
0.0
 40
81.11400000000001
  1
硬質塩化ビニール
  7
STYLE1
100
AcDbText
  0
LINE
  5
1477B
330
747D
100
AcDbEntity
  8
部品1
100
AcDbLine
 10
9363.439684924641
 20
8173.021462831455
 30
0.0
 11
9363.439684924642
 21
6380.402062831454
 31
0.0
  0
TEXT
  5
1477C
330
747D
100
AcDbEntity
  8
文字
 62
     7
 48
50.0
100
AcDbText
 10
10871.48140647464
 20
7508.22226866758
 30
0.0
 40
81.11400000000001
  1
F12            1.6
  7
STYLE1
100
AcDbText
  0
TEXT
  5
1477D
330
747D
100
AcDbEntity
  8
文字
 62
     7
 48
50.0
100
AcDbText
 10
9731.55057597582
 20
7508.22226866758
 30
0.0
 40
81.11400000000001
  1
母屋
  7
STYLE1
100
AcDbText
  0
TEXT
  5
1477E
330
747D
100
AcDbEntity
  8
文字
 62
     7
 48
50.0
100
AcDbText
 10
10871.48140647463
 20
7646.116068667582
 30
0.0
 40
81.11400000000001
  1
PZ            2.3
  7
STYLE1
100
AcDbText
  0
TEXT
  5
1477F
330
747D
100
AcDbEntity
  8
文字
 62
     7
 48
50.0
100
AcDbText
 10
10855.39650188426
 20
7094.540868667583
 30
0.0
 40
81.11400000000001
  1
Y10            0.5
  7
STYLE1
100
AcDbText
  0
TEXT
  5
14780
330
747D
100
AcDbEntity
  8
文字
 62
     7
 48
50.0
100
AcDbText
 10
10855.39650188426
 20
7370.32846866758
 30
0.0
 40
81.11400000000001
  1
Y10            0.7
  7
STYLE1
100
AcDbText
  0
TEXT
  5
14781
330
747D
100
AcDbEntity
  8
文字
 62
     7
 48
50.0
100
AcDbText
 10
10855.39650188426
 20
6956.647068667582
 30
0.0
 40
81.11400000000001
  1
Y10            0.7
  7
STYLE1
100
AcDbText
  0
TEXT
  5
14782
330
747D
100
AcDbEntity
  8
文字
 62
     7
 48
50.0
100
AcDbText
 10
10871.48140647464
 20
7921.903668667578
 30
0.0
 40
81.11400000000001
  1
F12            2.3
  7
STYLE1
100
AcDbText
  0
LINE
  5
147A4
330
747D
100
AcDbEntity
  8
点線
 48
50.0
100
AcDbLine
 10
3901.967027065579
 20
7693.947238448385
 30
0.0
 11
7679.677830258805
 21
7693.947238448385
 31
0.0
  0
LINE
  5
147A5
330
747D
100
AcDbEntity
  8
点線
 48
50.0
100
AcDbLine
 10
4045.061084145991
 20
6943.947238448385
 30
0.0
 11
7679.677830258805
 21
6943.947238448385
 31
0.0
  0
LINE
  5
147A6
330
747D
100
AcDbEntity
  8
点線
 48
50.0
100
AcDbLine
 10
4303.890815712263
 20
6193.947238448386
 30
0.0
 11
7679.677830258805
 21
6193.947238448384
 31
0.0
  0
LINE
  5
147A7
330
747D
100
AcDbEntity
  8
点線
 48
18.0
100
AcDbLine
 10
803.677830258805
 20
7693.947238448385
 30
0.0
 11
757.6778302588049
 21
7693.947238448385
 31
0.0
  0
LINE
  5
147A8
330
747D
100
AcDbEntity
  8
点線
 48
18.0
100
AcDbLine
 10
803.677830258805
 20
6943.947238448382
 30
0.0
 11
757.6778302588047
 21
6943.947238448382
 31
0.0
  0
LINE
  5
147A9
330
747D
100
AcDbEntity
  8
点線
 48
18.0
100
AcDbLine
 10
803.677830258805
 20
6193.947238448386
 30
0.0
 11
757.6778302588045
 21
6193.947238448386
 31
0.0
  0
LINE
  5
147AA
330
747D
100
AcDbEntity
  8
点線
 48
18.0
100
AcDbLine
 10
936.677830258805
 20
7713.947238448385
 30
0.0
 11
936.677830258805
 21
7693.947238448385
 31
0.0
  0
LINE
  5
147AB
330
747D
100
AcDbEntity
  8
点線
 48
18.0
100
AcDbLine
 10
1000.677830258805
 20
7713.947238448385
 30
0.0
 11
1000.677830258805
 21
7693.947238448385
 31
0.0
  0
LINE
  5
147AC
330
747D
100
AcDbEntity
  8
点線
 48
18.0
100
AcDbLine
 10
938.677830258805
 20
7648.947238448385
 30
0.0
 11
938.677830258805
 21
7693.947238448385
 31
0.0
  0
LINE
  5
147AD
330
747D
100
AcDbEntity
  8
点線
 48
18.0
100
AcDbLine
 10
998.6778302588049
 20
7648.947238448385
 30
0.0
 11
998.6778302588049
 21
7693.947238448385
 31
0.0
  0
LINE
  5
147AE
330
747D
100
AcDbEntity
  8
点線
 48
18.0
100
AcDbLine
 10
938.677830258805
 20
6213.947238448385
 30
0.0
 11
938.677830258805
 21
6148.947238448386
 31
0.0
  0
LINE
  5
147AF
330
747D
100
AcDbEntity
  8
点線
 48
18.0
100
AcDbLine
 10
998.6778302588049
 20
6213.947238448385
 30
0.0
 11
998.6778302588049
 21
6148.947238448386
 31
0.0
  0
LINE
  5
147B0
330
747D
100
AcDbEntity
  8
点線
 48
18.0
100
AcDbLine
 10
938.677830258805
 20
6963.947238448382
 30
0.0
 11
938.677830258805
 21
6898.947238448385
 31
0.0
  0
LINE
  5
147B1
330
747D
100
AcDbEntity
  8
点線
 48
18.0
100
AcDbLine
 10
998.6778302588049
 20
6963.947238448382
 30
0.0
 11
998.6778302588049
 21
6898.947238448385
 31
0.0
  0
LINE
  5
147B4
330
747D
100
AcDbEntity
  8
点線
 48
18.0
100
AcDbLine
 10
4188.677830258805
 20
6148.947238448386
 30
0.0
 11
4188.677830258805
 21
6213.947238448384
 31
0.0
  0
LINE
  5
147B5
330
747D
100
AcDbEntity
  8
点線
 48
18.0
100
AcDbLine
 10
4248.677830258804
 20
6213.947238448384
 30
0.0
 11
4248.677830258804
 21
6148.947238448386
 31
0.0
  0
LINE
  5
147B9
330
747D
100
AcDbEntity
  8
部品1
 48
50.0
100
AcDbLine
 10
4218.677830258804
 20
6148.947238448386
 30
0.0
 11
4218.677830258804
 21
6213.947238448385
 31
0.0
  0
LINE
  5
147BA
330
747D
100
AcDbEntity
  8
点線
 48
18.0
100
AcDbLine
 10
4218.677830258804
 20
7648.947238448383
 30
0.0
 11
4218.677830258804
 21
7713.947238448382
 31
0.0
  0
LINE
  5
147BB
330
747D
100
AcDbEntity
  8
点線
 48
18.0
100
AcDbLine
 10
4218.677830258804
 20
6898.947238448385
 30
0.0
 11
4218.677830258804
 21
6963.947238448381
 31
0.0
  0
LINE
  5
14814
330
747D
100
AcDbEntity
  8
センター
 48
50.0
100
AcDbLine
 10
968.6778302588045
 20
2100.562576328023
 30
0.0
 11
968.6778302588045
 21
1710.562576328023
 31
0.0
  0
LINE
  5
14815
330
747D
100
AcDbEntity
  8
センター
 48
50.0
100
AcDbLine
 10
4218.677830258807
 20
2100.562576328023
 30
0.0
 11
4218.677830258807
 21
1710.562576328023
 31
0.0
  0
LINE
  5
14816
330
747D
100
AcDbEntity
  8
センター
 48
50.0
100
AcDbLine
 10
7468.677830258808
 20
2100.562576328018
 30
0.0
 11
7468.677830258808
 21
1710.562576328018
 31
0.0
  0
LINE
  5
14842
330
747D
100
AcDbEntity
  8
部品1
 48
50.0
100
AcDbLine
 10
4218.677830258804
 20
3977.04655556636
 30
0.0
 11
4218.677830258804
 21
3970.897875741638
 31
0.0
  0
LINE
  5
1484E
330
747D
100
AcDbEntity
  8
点線
 48
18.0
100
AcDbLine
 10
7679.677830258805
 20
7713.94723844839
 30
0.0
 11
7679.677830258805
 21
7648.947238448387
 31
0.0
  0
LINE
  5
1484F
330
747D
100
AcDbEntity
  8
点線
 48
18.0
100
AcDbLine
 10
757.6778302588052
 20
7713.947238448387
 30
0.0
 11
757.6778302588052
 21
7648.947238448385
 31
0.0
  0
LINE
  5
14850
330
747D
100
AcDbEntity
  8
点線
 48
18.0
100
AcDbLine
 10
757.6778302588049
 20
6963.947238448382
 30
0.0
 11
757.6778302588047
 21
6898.947238448385
 31
0.0
  0
LINE
  5
14851
330
747D
100
AcDbEntity
  8
点線
 48
18.0
100
AcDbLine
 10
757.6778302588045
 20
6213.947238448386
 30
0.0
 11
757.6778302588045
 21
6148.947238448385
 31
0.0
  0
LINE
  5
14853
330
747D
100
AcDbEntity
  8
点線
 48
18.0
100
AcDbLine
 10
7679.677830258803
 20
6963.947238448383
 30
0.0
 11
7679.677830258803
 21
6898.947238448386
 31
0.0
  0
LINE
  5
14854
330
747D
100
AcDbEntity
  8
点線
 48
18.0
100
AcDbLine
 10
7679.677830258802
 20
6213.947238448387
 30
0.0
 11
7679.677830258802
 21
6148.947238448386
 31
0.0
  0
LINE
  5
14B5B
330
747D
100
AcDbEntity
  8
部品1
 48
50.0
100
AcDbLine
 10
7500.677830258808
 20
3968.897875741637
 30
0.0
 11
7500.677830258808
 21
3909.348694766933
 31
0.0
  0
LINE
  5
14B5C
330
747D
100
AcDbEntity
  8
部品1
 48
50.0
100
AcDbLine
 10
7436.677830258808
 20
3968.897875741637
 30
0.0
 11
7436.677830258808
 21
3909.348694766933
 31
0.0
  0
LINE
  5
14B5D
330
747D
100
AcDbEntity
  8
部品1
 48
50.0
100
AcDbLine
 10
7513.67783025881
 20
3548.431828606204
 30
0.0
 11
7513.67783025881
 21
1880.562576328022
 31
0.0
  0
LINE
  5
14B5E
330
747D
100
AcDbEntity
  8
部品1
 48
50.0
100
AcDbLine
 10
7423.677830258809
 20
3548.431828606204
 30
0.0
 11
7423.677830258809
 21
1880.562576328022
 31
0.0
  0
LINE
  5
14B62
330
747D
100
AcDbEntity
  8
点線
 48
18.0
100
AcDbLine
 10
7513.67783025881
 20
1880.562576328022
 30
0.0
 11
7513.67783025881
 21
1830.562576328022
 31
0.0
  0
LINE
  5
14B63
330
747D
100
AcDbEntity
  8
点線
 48
18.0
100
AcDbLine
 10
7423.677830258809
 20
1880.562576328022
 30
0.0
 11
7423.677830258809
 21
1830.562576328022
 31
0.0
  0
ARC
  5
14B67
330
747D
100
AcDbEntity
  8
部品1
 48
50.0
100
AcDbCircle
 10
7498.647754911151
 20
3865.301258266919
 30
0.0
 40
2.0
100
AcDbArc
 50
270.0
 51
0.0
  0
LINE
  5
14B68
330
747D
100
AcDbEntity
  8
部品1
 48
50.0
100
AcDbLine
 10
7500.647754911151
 20
3909.003156253742
 30
0.0
 11
7500.647754911151
 21
3865.301258266919
 31
0.0
  0
LINE
  5
14B69
330
747D
100
AcDbEntity
  8
部品1
 48
50.0
100
AcDbLine
 10
7498.647754911151
 20
3863.301258266918
 30
0.0
 11
7488.64775491115
 21
3863.301258266918
 31
0.0
  0
LINE
  5
14B6A
330
747D
100
AcDbEntity
  8
細線
 48
50.0
100
AcDbLine
 10
7500.677830258808
 20
3922.897875741639
 30
0.0
 11
7436.677830258808
 21
3922.897875741637
 31
0.0
  0
LINE
  5
14B6B
330
747D
100
AcDbEntity
  8
細線
 48
50.0
100
AcDbLine
 10
7500.677830258808
 20
3932.897875741639
 30
0.0
 11
7436.677830258808
 21
3932.897875741637
 31
0.0
  0
ARC
  5
14B6C
330
747D
100
AcDbEntity
  8
部品1
 48
50.0
100
AcDbCircle
 10
7438.67783025881
 20
3909.348694766933
 30
0.0
 40
2.0
100
AcDbArc
 50
180.0
 51
270.0
  0
ARC
  5
14B6D
330
747D
100
AcDbEntity
  8
部品1
 48
50.0
100
AcDbCircle
 10
7498.677830258809
 20
3909.348694766933
 30
0.0
 40
2.0
100
AcDbArc
 50
270.0
 51
0.0
  0
LINE
  5
14B6E
330
747D
100
AcDbEntity
  8
部品1
 48
50.0
100
AcDbLine
 10
7498.677830258809
 20
3907.348694766934
 30
0.0
 11
7438.67783025881
 21
3907.348694766934
 31
0.0
  0
LINE
  5
14B6F
330
747D
100
AcDbEntity
  8
部品1
 48
50.0
100
AcDbLine
 10
7448.677830258809
 20
3698.431828606209
 30
0.0
 11
7418.677830258809
 21
3698.431828606209
 31
0.0
  0
LINE
  5
14B70
330
747D
100
AcDbEntity
  8
部品1
 48
50.0
100
AcDbLine
 10
7488.67783025881
 20
3907.348694766935
 30
0.0
 11
7488.67783025881
 21
3548.431828606207
 31
0.0
  0
LINE
  5
14B71
330
747D
100
AcDbEntity
  8
部品1
 48
50.0
100
AcDbLine
 10
7448.677830258809
 20
3907.348694766935
 30
0.0
 11
7448.677830258809
 21
3548.431828606207
 31
0.0
  0
LINE
  5
14B72
330
747D
100
AcDbEntity
  8
部品1
 48
50.0
100
AcDbLine
 10
7518.677830258809
 20
3548.431828606207
 30
0.0
 11
7518.677830258809
 21
3698.431828606209
 31
0.0
  0
LINE
  5
14B73
330
747D
100
AcDbEntity
  8
部品1
 48
50.0
100
AcDbLine
 10
7418.677830258809
 20
3548.431828606207
 30
0.0
 11
7418.677830258809
 21
3698.431828606209
 31
0.0
  0
LINE
  5
14B74
330
747D
100
AcDbEntity
  8
部品1
 48
50.0
100
AcDbLine
 10
7468.677830258809
 20
3907.348694766935
 30
0.0
 11
7468.677830258809
 21
3548.431828606207
 31
0.0
  0
LINE
  5
14B75
330
747D
100
AcDbEntity
  8
部品1
 48
50.0
100
AcDbLine
 10
7518.677830258808
 20
3548.431828606206
 30
0.0
 11
7418.677830258809
 21
3548.431828606204
 31
0.0
  0
LINE
  5
14B76
330
747D
100
AcDbEntity
  8
部品1
 48
50.0
100
AcDbLine
 10
7518.677830258809
 20
3698.431828606209
 30
0.0
 11
7488.67783025881
 21
3698.431828606209
 31
0.0
  0
LINE
  5
14B7B
330
747D
100
AcDbEntity
  8
細線
 48
50.0
100
AcDbLine
 10
7500.677830258808
 20
3944.897875741639
 30
0.0
 11
7436.677830258808
 21
3944.897875741637
 31
0.0
  0
LINE
  5
14B7C
330
747D
100
AcDbEntity
  8
細線
 48
50.0
100
AcDbLine
 10
7500.677830258808
 20
3954.897875741637
 30
0.0
 11
7436.677830258808
 21
3954.897875741637
 31
0.0
  0
ARC
  5
14B7D
330
747D
100
AcDbEntity
  8
部品1
 48
50.0
100
AcDbCircle
 10
7498.677830258809
 20
3968.897875741637
 30
0.0
 40
2.0
100
AcDbArc
 50
0.0
 51
90.0
  0
ARC
  5
14B7E
330
747D
100
AcDbEntity
  8
部品1
 48
50.0
100
AcDbCircle
 10
7438.67783025881
 20
3968.897875741637
 30
0.0
 40
2.0
100
AcDbArc
 50
90.0
 51
180.0
  0
LINE
  5
14B7F
330
747D
100
AcDbEntity
  8
部品1
 48
50.0
100
AcDbLine
 10
7498.677830258809
 20
3970.897875741638
 30
0.0
 11
7438.67783025881
 21
3970.897875741638
 31
0.0
  0
ARC
  5
14C82
330
747D
100
AcDbEntity
  8
部品1
 48
50.0
100
AcDbCircle
 10
7438.707905606467
 20
3865.301258266919
 30
0.0
 40
2.0
100
AcDbArc
 50
180.0
 51
270.0
  0
LINE
  5
14C83
330
747D
100
AcDbEntity
  8
部品1
 48
50.0
100
AcDbLine
 10
7436.707905606468
 20
3909.003156253742
 30
0.0
 11
7436.707905606468
 21
3865.301258266919
 31
0.0
  0
LINE
  5
14C84
330
747D
100
AcDbEntity
  8
部品1
 48
50.0
100
AcDbLine
 10
7438.707905606467
 20
3863.301258266918
 30
0.0
 11
7448.707905606467
 21
3863.301258266918
 31
0.0
  0
LINE
  5
14EFE
330
747D
100
AcDbEntity
  8
部品1
 48
50.0
100
AcDbLine
 10
4250.677830258808
 20
3968.897875741637
 30
0.0
 11
4250.677830258808
 21
3909.348694766933
 31
0.0
  0
LINE
  5
14EFF
330
747D
100
AcDbEntity
  8
部品1
 48
50.0
100
AcDbLine
 10
4186.677830258809
 20
3968.897875741637
 30
0.0
 11
4186.677830258809
 21
3909.348694766933
 31
0.0
  0
LINE
  5
14F00
330
747D
100
AcDbEntity
  8
部品1
 48
50.0
100
AcDbLine
 10
4263.677830258809
 20
3548.431828606204
 30
0.0
 11
4263.677830258809
 21
1880.562576328022
 31
0.0
  0
LINE
  5
14F01
330
747D
100
AcDbEntity
  8
部品1
 48
50.0
100
AcDbLine
 10
4173.677830258809
 20
3548.431828606204
 30
0.0
 11
4173.677830258809
 21
1880.562576328022
 31
0.0
  0
LINE
  5
14F02
330
747D
100
AcDbEntity
  8
点線
 48
18.0
100
AcDbLine
 10
4263.677830258809
 20
1880.562576328022
 30
0.0
 11
4263.677830258809
 21
1830.562576328022
 31
0.0
  0
LINE
  5
14F03
330
747D
100
AcDbEntity
  8
点線
 48
18.0
100
AcDbLine
 10
4173.677830258809
 20
1880.562576328022
 30
0.0
 11
4173.677830258809
 21
1830.562576328022
 31
0.0
  0
ARC
  5
14F04
330
747D
100
AcDbEntity
  8
部品1
 48
50.0
100
AcDbCircle
 10
4248.64775491115
 20
3865.301258266919
 30
0.0
 40
2.0
100
AcDbArc
 50
270.0
 51
0.0
  0
LINE
  5
14F05
330
747D
100
AcDbEntity
  8
部品1
 48
50.0
100
AcDbLine
 10
4250.647754911151
 20
3909.003156253742
 30
0.0
 11
4250.647754911151
 21
3865.301258266919
 31
0.0
  0
LINE
  5
14F06
330
747D
100
AcDbEntity
  8
部品1
 48
50.0
100
AcDbLine
 10
4248.64775491115
 20
3863.301258266918
 30
0.0
 11
4238.64775491115
 21
3863.301258266918
 31
0.0
  0
LINE
  5
14F07
330
747D
100
AcDbEntity
  8
細線
 48
50.0
100
AcDbLine
 10
4250.677830258808
 20
3922.897875741639
 30
0.0
 11
4186.677830258809
 21
3922.897875741637
 31
0.0
  0
LINE
  5
14F08
330
747D
100
AcDbEntity
  8
細線
 48
50.0
100
AcDbLine
 10
4250.677830258808
 20
3932.897875741639
 30
0.0
 11
4186.677830258809
 21
3932.897875741637
 31
0.0
  0
ARC
  5
14F09
330
747D
100
AcDbEntity
  8
部品1
 48
50.0
100
AcDbCircle
 10
4188.677830258809
 20
3909.348694766933
 30
0.0
 40
2.0
100
AcDbArc
 50
180.0
 51
270.0
  0
ARC
  5
14F0A
330
747D
100
AcDbEntity
  8
部品1
 48
50.0
100
AcDbCircle
 10
4248.677830258809
 20
3909.348694766933
 30
0.0
 40
2.0
100
AcDbArc
 50
270.0
 51
0.0
  0
LINE
  5
14F0B
330
747D
100
AcDbEntity
  8
部品1
 48
50.0
100
AcDbLine
 10
4248.677830258809
 20
3907.348694766934
 30
0.0
 11
4188.677830258809
 21
3907.348694766934
 31
0.0
  0
LINE
  5
14F0C
330
747D
100
AcDbEntity
  8
部品1
 48
50.0
100
AcDbLine
 10
4198.677830258809
 20
3698.431828606209
 30
0.0
 11
4168.677830258809
 21
3698.431828606209
 31
0.0
  0
LINE
  5
14F0D
330
747D
100
AcDbEntity
  8
部品1
 48
50.0
100
AcDbLine
 10
4238.677830258809
 20
3907.348694766935
 30
0.0
 11
4238.677830258809
 21
3548.431828606207
 31
0.0
  0
LINE
  5
14F0E
330
747D
100
AcDbEntity
  8
部品1
 48
50.0
100
AcDbLine
 10
4198.677830258809
 20
3907.348694766935
 30
0.0
 11
4198.677830258809
 21
3548.431828606207
 31
0.0
  0
LINE
  5
14F0F
330
747D
100
AcDbEntity
  8
部品1
 48
50.0
100
AcDbLine
 10
4268.677830258808
 20
3548.431828606207
 30
0.0
 11
4268.677830258808
 21
3698.431828606209
 31
0.0
  0
LINE
  5
14F10
330
747D
100
AcDbEntity
  8
部品1
 48
50.0
100
AcDbLine
 10
4168.677830258809
 20
3548.431828606207
 30
0.0
 11
4168.677830258809
 21
3698.431828606209
 31
0.0
  0
LINE
  5
14F11
330
747D
100
AcDbEntity
  8
部品1
 48
50.0
100
AcDbLine
 10
4218.677830258808
 20
3907.348694766935
 30
0.0
 11
4218.677830258808
 21
3548.431828606207
 31
0.0
  0
LINE
  5
14F12
330
747D
100
AcDbEntity
  8
部品1
 48
50.0
100
AcDbLine
 10
4268.677830258808
 20
3548.431828606206
 30
0.0
 11
4168.677830258809
 21
3548.431828606204
 31
0.0
  0
LINE
  5
14F13
330
747D
100
AcDbEntity
  8
部品1
 48
50.0
100
AcDbLine
 10
4268.677830258808
 20
3698.431828606209
 30
0.0
 11
4238.677830258809
 21
3698.431828606209
 31
0.0
  0
LINE
  5
14F14
330
747D
100
AcDbEntity
  8
細線
 48
50.0
100
AcDbLine
 10
4250.677830258808
 20
3944.897875741639
 30
0.0
 11
4186.677830258809
 21
3944.897875741637
 31
0.0
  0
LINE
  5
14F15
330
747D
100
AcDbEntity
  8
細線
 48
50.0
100
AcDbLine
 10
4250.677830258808
 20
3954.897875741637
 30
0.0
 11
4186.677830258809
 21
3954.897875741637
 31
0.0
  0
ARC
  5
14F16
330
747D
100
AcDbEntity
  8
部品1
 48
50.0
100
AcDbCircle
 10
4248.677830258809
 20
3968.897875741637
 30
0.0
 40
2.0
100
AcDbArc
 50
0.0
 51
90.0
  0
ARC
  5
14F17
330
747D
100
AcDbEntity
  8
部品1
 48
50.0
100
AcDbCircle
 10
4188.677830258809
 20
3968.897875741637
 30
0.0
 40
2.0
100
AcDbArc
 50
90.0
 51
180.0
  0
LINE
  5
14F18
330
747D
100
AcDbEntity
  8
部品1
 48
50.0
100
AcDbLine
 10
4248.677830258809
 20
3970.897875741638
 30
0.0
 11
4188.677830258809
 21
3970.897875741638
 31
0.0
  0
ARC
  5
14F19
330
747D
100
AcDbEntity
  8
部品1
 48
50.0
100
AcDbCircle
 10
4188.707905606467
 20
3865.301258266919
 30
0.0
 40
2.0
100
AcDbArc
 50
180.0
 51
270.0
  0
LINE
  5
14F1A
330
747D
100
AcDbEntity
  8
部品1
 48
50.0
100
AcDbLine
 10
4186.707905606467
 20
3909.003156253742
 30
0.0
 11
4186.707905606467
 21
3865.301258266919
 31
0.0
  0
LINE
  5
14F1B
330
747D
100
AcDbEntity
  8
部品1
 48
50.0
100
AcDbLine
 10
4188.707905606467
 20
3863.301258266918
 30
0.0
 11
4198.707905606467
 21
3863.301258266918
 31
0.0
  0
LINE
  5
14F1C
330
747D
100
AcDbEntity
  8
部品1
 48
50.0
100
AcDbLine
 10
1000.677830258809
 20
3968.897875741637
 30
0.0
 11
1000.677830258809
 21
3909.348694766933
 31
0.0
  0
LINE
  5
14F1D
330
747D
100
AcDbEntity
  8
部品1
 48
50.0
100
AcDbLine
 10
936.6778302588091
 20
3968.897875741637
 30
0.0
 11
936.6778302588091
 21
3909.348694766933
 31
0.0
  0
LINE
  5
14F1E
330
747D
100
AcDbEntity
  8
部品1
 48
50.0
100
AcDbLine
 10
1013.677830258809
 20
3548.431828606204
 30
0.0
 11
1013.677830258809
 21
1880.562576328022
 31
0.0
  0
LINE
  5
14F1F
330
747D
100
AcDbEntity
  8
部品1
 48
50.0
100
AcDbLine
 10
923.677830258809
 20
3548.431828606204
 30
0.0
 11
923.677830258809
 21
1880.562576328022
 31
0.0
  0
ARC
  5
14F20
330
747D
100
AcDbEntity
  8
部品1
 48
50.0
100
AcDbCircle
 10
998.6477549111505
 20
3865.301258266919
 30
0.0
 40
2.0
100
AcDbArc
 50
270.0
 51
0.0
  0
LINE
  5
14F21
330
747D
100
AcDbEntity
  8
部品1
 48
50.0
100
AcDbLine
 10
1000.64775491115
 20
3909.003156253742
 30
0.0
 11
1000.64775491115
 21
3865.301258266919
 31
0.0
  0
LINE
  5
14F22
330
747D
100
AcDbEntity
  8
部品1
 48
50.0
100
AcDbLine
 10
998.6477549111505
 20
3863.301258266918
 30
0.0
 11
988.6477549111505
 21
3863.301258266918
 31
0.0
  0
LINE
  5
14F23
330
747D
100
AcDbEntity
  8
細線
 48
50.0
100
AcDbLine
 10
1000.677830258809
 20
3922.897875741639
 30
0.0
 11
936.6778302588091
 21
3922.897875741637
 31
0.0
  0
LINE
  5
14F24
330
747D
100
AcDbEntity
  8
細線
 48
50.0
100
AcDbLine
 10
1000.677830258809
 20
3932.897875741639
 30
0.0
 11
936.6778302588091
 21
3932.897875741637
 31
0.0
  0
ARC
  5
14F25
330
747D
100
AcDbEntity
  8
部品1
 48
50.0
100
AcDbCircle
 10
938.6778302588091
 20
3909.348694766933
 30
0.0
 40
2.0
100
AcDbArc
 50
180.0
 51
270.0
  0
ARC
  5
14F26
330
747D
100
AcDbEntity
  8
部品1
 48
50.0
100
AcDbCircle
 10
998.677830258809
 20
3909.348694766933
 30
0.0
 40
2.0
100
AcDbArc
 50
270.0
 51
0.0
  0
LINE
  5
14F27
330
747D
100
AcDbEntity
  8
部品1
 48
50.0
100
AcDbLine
 10
998.677830258809
 20
3907.348694766934
 30
0.0
 11
938.6778302588091
 21
3907.348694766934
 31
0.0
  0
LINE
  5
14F28
330
747D
100
AcDbEntity
  8
部品1
 48
50.0
100
AcDbLine
 10
948.677830258809
 20
3698.431828606209
 30
0.0
 11
918.6778302588091
 21
3698.431828606209
 31
0.0
  0
LINE
  5
14F29
330
747D
100
AcDbEntity
  8
部品1
 48
50.0
100
AcDbLine
 10
988.6778302588091
 20
3907.348694766935
 30
0.0
 11
988.6778302588091
 21
3548.431828606207
 31
0.0
  0
LINE
  5
14F2A
330
747D
100
AcDbEntity
  8
部品1
 48
50.0
100
AcDbLine
 10
948.677830258809
 20
3907.348694766935
 30
0.0
 11
948.677830258809
 21
3548.431828606207
 31
0.0
  0
LINE
  5
14F2B
330
747D
100
AcDbEntity
  8
部品1
 48
50.0
100
AcDbLine
 10
1018.677830258809
 20
3548.431828606207
 30
0.0
 11
1018.677830258809
 21
3698.431828606209
 31
0.0
  0
LINE
  5
14F2C
330
747D
100
AcDbEntity
  8
部品1
 48
50.0
100
AcDbLine
 10
918.6778302588091
 20
3548.431828606207
 30
0.0
 11
918.6778302588091
 21
3698.431828606209
 31
0.0
  0
LINE
  5
14F2D
330
747D
100
AcDbEntity
  8
部品1
 48
50.0
100
AcDbLine
 10
968.6778302588091
 20
3907.348694766935
 30
0.0
 11
968.6778302588091
 21
3548.431828606207
 31
0.0
  0
LINE
  5
14F2E
330
747D
100
AcDbEntity
  8
部品1
 48
50.0
100
AcDbLine
 10
1018.677830258808
 20
3548.431828606206
 30
0.0
 11
918.6778302588091
 21
3548.431828606204
 31
0.0
  0
LINE
  5
14F2F
330
747D
100
AcDbEntity
  8
部品1
 48
50.0
100
AcDbLine
 10
1018.677830258809
 20
3698.431828606209
 30
0.0
 11
988.6778302588091
 21
3698.431828606209
 31
0.0
  0
LINE
  5
14F30
330
747D
100
AcDbEntity
  8
細線
 48
50.0
100
AcDbLine
 10
1000.677830258809
 20
3944.897875741639
 30
0.0
 11
936.6778302588091
 21
3944.897875741637
 31
0.0
  0
LINE
  5
14F31
330
747D
100
AcDbEntity
  8
細線
 48
50.0
100
AcDbLine
 10
1000.677830258809
 20
3954.897875741637
 30
0.0
 11
936.6778302588091
 21
3954.897875741637
 31
0.0
  0
ARC
  5
14F32
330
747D
100
AcDbEntity
  8
部品1
 48
50.0
100
AcDbCircle
 10
998.677830258809
 20
3968.897875741637
 30
0.0
 40
2.0
100
AcDbArc
 50
0.0
 51
90.0
  0
ARC
  5
14F33
330
747D
100
AcDbEntity
  8
部品1
 48
50.0
100
AcDbCircle
 10
938.6778302588091
 20
3968.897875741637
 30
0.0
 40
2.0
100
AcDbArc
 50
90.0
 51
180.0
  0
LINE
  5
14F34
330
747D
100
AcDbEntity
  8
部品1
 48
50.0
100
AcDbLine
 10
998.677830258809
 20
3970.897875741638
 30
0.0
 11
938.6778302588091
 21
3970.897875741638
 31
0.0
  0
ARC
  5
14F35
330
747D
100
AcDbEntity
  8
部品1
 48
50.0
100
AcDbCircle
 10
938.7079056064676
 20
3865.301258266919
 30
0.0
 40
2.0
100
AcDbArc
 50
180.0
 51
270.0
  0
LINE
  5
14F36
330
747D
100
AcDbEntity
  8
部品1
 48
50.0
100
AcDbLine
 10
936.7079056064676
 20
3909.003156253742
 30
0.0
 11
936.7079056064676
 21
3865.301258266919
 31
0.0
  0
LINE
  5
14F37
330
747D
100
AcDbEntity
  8
部品1
 48
50.0
100
AcDbLine
 10
938.7079056064676
 20
3863.301258266918
 30
0.0
 11
948.7079056064676
 21
3863.301258266918
 31
0.0
  0
LINE
  5
14FE9
330
747D
100
AcDbEntity
  8
細線
 48
50.0
100
AcDbLine
 10
4998.677830258805
 20
7817.947238448386
 30
0.0
 11
4998.677830258805
 21
6014.947238448385
 31
0.0
  0
LINE
  5
14FEA
330
747D
100
AcDbEntity
  8
細線
 48
50.0
100
AcDbLine
 10
4953.677830258804
 20
7817.947238448386
 30
0.0
 11
4953.677830258804
 21
6014.947238448385
 31
0.0
  0
LINE
  5
14FEB
330
747D
100
AcDbEntity
  8
細線
 48
50.0
100
AcDbLine
 10
5026.677830258805
 20
7817.947238448386
 30
0.0
 11
5026.677830258805
 21
6014.947238448385
 31
0.0
  0
LINE
  5
14FEC
330
747D
100
AcDbEntity
  8
細線
 48
50.0
100
AcDbLine
 10
5071.677830258805
 20
7817.947238448386
 30
0.0
 11
5071.677830258805
 21
6014.947238448385
 31
0.0
  0
LINE
  5
14FED
330
747D
100
AcDbEntity
  8
部品1
 48
50.0
100
AcDbLine
 10
5645.177830258805
 20
7817.947238448387
 30
0.0
 11
5645.177830258805
 21
6014.947238448387
 31
0.0
  0
LINE
  5
14FEE
330
747D
100
AcDbEntity
  8
部品1
 48
50.0
100
AcDbLine
 10
5622.177830258805
 20
7817.947238448387
 30
0.0
 11
5622.177830258805
 21
6014.947238448387
 31
0.0
  0
LINE
  5
15111
330
747D
100
AcDbEntity
  8
細線
 48
50.0
100
AcDbLine
 10
6019.583515449501
 20
1830.562576328018
 30
0.0
 11
6069.583515449501
 21
1880.562576328018
 31
0.0
  0
LINE
  5
15112
330
747D
100
AcDbEntity
  8
細線
 48
50.0
100
AcDbLine
 10
5992.642735449504
 20
1830.562576328018
 30
0.0
 11
6042.642735449504
 21
1880.562576328018
 31
0.0
  0
LINE
  5
15113
330
747D
100
AcDbEntity
  8
細線
 48
50.0
100
AcDbLine
 10
6046.524295449502
 20
1830.562576328018
 30
0.0
 11
6096.524295449502
 21
1880.562576328018
 31
0.0
  0
LINE
  5
15114
330
747D
100
AcDbEntity
  8
細線
 48
50.0
100
AcDbLine
 10
4819.583515449501
 20
1830.562576328018
 30
0.0
 11
4869.583515449502
 21
1880.562576328018
 31
0.0
  0
LINE
  5
15115
330
747D
100
AcDbEntity
  8
細線
 48
50.0
100
AcDbLine
 10
4792.642735449504
 20
1830.562576328018
 30
0.0
 11
4842.642735449505
 21
1880.562576328018
 31
0.0
  0
LINE
  5
15116
330
747D
100
AcDbEntity
  8
細線
 48
50.0
100
AcDbLine
 10
4846.524295449502
 20
1830.562576328018
 30
0.0
 11
4896.524295449502
 21
1880.562576328018
 31
0.0
  0
LINE
  5
15117
330
747D
100
AcDbEntity
  8
細線
 48
50.0
100
AcDbLine
 10
1080.648202636299
 20
1830.562576328019
 30
0.0
 11
1130.648202636299
 21
1880.562576328019
 31
0.0
  0
LINE
  5
15118
330
747D
100
AcDbEntity
  8
細線
 48
50.0
100
AcDbLine
 10
1053.707422636302
 20
1830.562576328019
 30
0.0
 11
1103.707422636302
 21
1880.562576328019
 31
0.0
  0
LINE
  5
15119
330
747D
100
AcDbEntity
  8
細線
 48
50.0
100
AcDbLine
 10
1107.5889826363
 20
1830.562576328019
 30
0.0
 11
1157.5889826363
 21
1880.562576328019
 31
0.0
  0
LINE
  5
1511A
330
747D
100
AcDbEntity
  8
細線
 48
50.0
100
AcDbLine
 10
2280.648202636299
 20
1830.562576328019
 30
0.0
 11
2330.648202636299
 21
1880.562576328019
 31
0.0
  0
LINE
  5
1511B
330
747D
100
AcDbEntity
  8
細線
 48
50.0
100
AcDbLine
 10
2253.707422636302
 20
1830.562576328019
 30
0.0
 11
2303.707422636302
 21
1880.562576328019
 31
0.0
  0
LINE
  5
1511C
330
747D
100
AcDbEntity
  8
細線
 48
50.0
100
AcDbLine
 10
2307.5889826363
 20
1830.562576328019
 30
0.0
 11
2357.5889826363
 21
1880.562576328019
 31
0.0
  0
LINE
  5
1511D
330
747D
100
AcDbEntity
  8
細線
 48
50.0
100
AcDbLine
 10
3480.648202636299
 20
1830.562576328019
 30
0.0
 11
3530.648202636299
 21
1880.562576328019
 31
0.0
  0
LINE
  5
1511E
330
747D
100
AcDbEntity
  8
細線
 48
50.0
100
AcDbLine
 10
3453.707422636302
 20
1830.562576328019
 30
0.0
 11
3503.707422636302
 21
1880.562576328019
 31
0.0
  0
LINE
  5
1511F
330
747D
100
AcDbEntity
  8
細線
 48
50.0
100
AcDbLine
 10
3507.5889826363
 20
1830.562576328019
 30
0.0
 11
3557.5889826363
 21
1880.562576328019
 31
0.0
  0
LINE
  5
15120
330
747D
100
AcDbEntity
  8
部品1
 48
50.0
100
AcDbLine
 10
5202.177830258804
 20
7817.947238448386
 30
0.0
 11
5202.177830258804
 21
6014.947238448385
 31
0.0
  0
LINE
  5
15121
330
747D
100
AcDbEntity
  8
部品1
 48
50.0
100
AcDbLine
 10
5225.177830258804
 20
7817.947238448386
 30
0.0
 11
5225.177830258804
 21
6014.947238448385
 31
0.0
  0
LINE
  5
15122
330
747D
100
AcDbEntity
  8
細線
 48
50.0
100
AcDbLine
 10
5418.677830258804
 20
7817.947238448386
 30
0.0
 11
5418.677830258804
 21
6014.947238448385
 31
0.0
  0
LINE
  5
15123
330
747D
100
AcDbEntity
  8
細線
 48
50.0
100
AcDbLine
 10
5373.677830258805
 20
7817.947238448386
 30
0.0
 11
5373.677830258805
 21
6014.947238448385
 31
0.0
  0
LINE
  5
15124
330
747D
100
AcDbEntity
  8
細線
 48
50.0
100
AcDbLine
 10
5446.677830258805
 20
7817.947238448386
 30
0.0
 11
5446.677830258805
 21
6014.947238448385
 31
0.0
  0
LINE
  5
15125
330
747D
100
AcDbEntity
  8
細線
 48
50.0
100
AcDbLine
 10
5491.677830258804
 20
7817.947238448386
 30
0.0
 11
5491.677830258804
 21
6014.947238448385
 31
0.0
  0
SPLINE
  5
15251
330
747D
100
AcDbEntity
  8
部品1
 48
50.0
100
AcDbSpline
210
0.0
220
0.0
230
1.0
 70
  1064
 71
     3
 72
    10
 73
     6
 74
     4
 42
0.000000001
 43
0.0000000001
 44
0.0000000001
 40
0.0
 40
0.0
 40
0.0
 40
0.0
 40
147.8767566010009
 40
301.8091093202477
 40
466.5049223087734
 40
466.5049223087734
 40
466.5049223087734
 40
466.5049223087734
 10
2644.235833690203
 20
6986.670753086902
 30
0.0
 10
2721.117516185037
 20
6977.766319429064
 30
0.0
 10
2878.029208395165
 20
6959.592812969733
 30
0.0
 10
2555.215798450822
 20
6857.072228330389
 30
0.0
 10
2725.058418120196
 20
6838.437139618186
 30
0.0
 10
2812.848423327089
 20
6828.804842740876
 30
0.0
 11
2644.235833690203
 21
6986.670753086902
 31
0.0
 11
2787.073811998972
 21
6948.397432150573
 31
0.0
 11
2653.764484079798
 21
6871.431255790949
 31
0.0
 11
2812.848423327089
 21
6828.804842740876
 31
0.0
  0
LINE
  5
15252
330
747D
100
AcDbEntity
  8
部品1
 48
50.0
100
AcDbLine
 10
2414.789521573917
 20
8013.910791172223
 30
0.0
 11
3004.277744922385
 21
5813.910791172225
 31
0.0
  0
LINE
  5
1526F
330
747D
100
AcDbEntity
  8
部品1
 48
50.0
100
AcDbLine
 10
2253.266672192816
 20
4181.450581124187
 30
0.0
 11
2909.980133817071
 21
1730.562576328022
 31
0.0
  0
SPLINE
  5
15270
330
747D
100
AcDbEntity
  8
部品1
 48
50.0
100
AcDbSpline
210
0.0
220
0.0
230
1.0
 70
  1064
 71
     3
 72
    10
 73
     6
 74
     4
 42
0.000000001
 43
0.0000000001
 44
0.0000000001
 40
0.0
 40
0.0
 40
0.0
 40
0.0
 40
147.8767566010009
 40
301.8091093202477
 40
466.5049223087734
 40
466.5049223087734
 40
466.5049223087734
 40
466.5049223087734
 10
2543.675813662419
 20
2926.694166519133
 30
0.0
 10
2620.557496157253
 20
2917.789732861294
 30
0.0
 10
2777.46918836738
 20
2899.616226401963
 30
0.0
 10
2454.655778423038
 20
2797.09564176262
 30
0.0
 10
2624.498398092412
 20
2778.460553050417
 30
0.0
 10
2712.288403299305
 20
2768.828256173108
 30
0.0
 11
2543.675813662419
 21
2926.694166519133
 31
0.0
 11
2686.513791971188
 21
2888.420845582804
 31
0.0
 11
2553.204464052014
 21
2811.454669223181
 31
0.0
 11
2712.288403299305
 21
2768.828256173108
 31
0.0
  0
DIMENSION
  5
15271
330
747D
100
AcDbEntity
  8
寸法
 48
50.0
100
AcDbDimension
  2
*D11
 10
4218.677830258807
 20
1514.610538984616
 30
0.0
 11
3009.487325224018
 21
1514.610538984616
 31
0.0
 70
   160
 71
     5
 42
3250.000000000003
  3
INABA_S30G
100
AcDbAlignedDimension
 13
968.6778302588045
 23
1710.562576328023
 33
0.0
 14
4218.677830258807
 24
1710.562576328023
 34
0.0
100
AcDbRotatedDimension
1001
ACAD
1000
DSTYLE
1002
{
1070
    75
1070
     1
1070
   281
1070
     1
1002
}
  0
DIMENSION
  5
15272
330
747D
100
AcDbEntity
  8
寸法
 48
50.0
100
AcDbDimension
  2
*D12
 10
968.6778302588054
 20
1511.062951825057
 30
0.0
 11
2254.878931875185
 21
1511.062951825057
 31
0.0
 70
   160
 71
     5
 42
3250.000000000002
  3
INABA_S30G
100
AcDbAlignedDimension
 13
4218.677830258807
 23
1710.562576328023
 33
0.0
 14
968.6778302588054
 24
1710.562576328023
 34
0.0
 50
180.0
100
AcDbRotatedDimension
1001
ACAD
1000
DSTYLE
1002
{
1070
    75
1070
     1
1070
   281
1070
     1
1002
}
  0
LINE
  5
152A5
330
747D
100
AcDbEntity
  8
点線
 48
18.0
100
AcDbLine
 10
1013.677830258809
 20
1880.562576328022
 30
0.0
 11
1013.677830258809
 21
1830.562576328022
 31
0.0
  0
LINE
  5
152A6
330
747D
100
AcDbEntity
  8
点線
 48
18.0
100
AcDbLine
 10
923.677830258809
 20
1880.562576328022
 30
0.0
 11
923.677830258809
 21
1830.562576328022
 31
0.0
  0
LINE
  5
153C6
330
747D
100
AcDbEntity
  8
部品1
 48
50.0
100
AcDbLine
 10
4188.677830258805
 20
6623.927953852391
 30
0.0
 11
4188.677830258805
 21
6213.947238448384
 31
0.0
  0
LINE
  5
153C7
330
747D
100
AcDbEntity
  8
部品1
 48
50.0
100
AcDbLine
 10
4248.677830258804
 20
6400.004905398259
 30
0.0
 11
4248.677830258804
 21
6213.947238448384
 31
0.0
  0
TEXT
  5
153E2
330
747D
100
AcDbEntity
  8
文字
 62
     7
 48
50.0
100
AcDbText
 10
11348.29473734573
 20
773.6682797184214
 30
0.0
 40
75.0
  1
   <縮尺> S=1/30
  7
STYLE2
100
AcDbText
  0
TEXT
  5
153E3
330
747D
100
AcDbEntity
  8
仕様書枠
 62
     7
 48
50.0
100
AcDbText
 10
11614.14543937977
 20
628.6895453046891
 30
0.0
 40
75.0
  1
～一般型～
  7
STYLE2
100
AcDbText
  0
TEXT
  5
153F4
330
747D
100
AcDbEntity
  8
部品1
 48
50.0
100
AcDbText
 10
5201.255697124373
 20
5548.817306627385
 30
0.0
 40
120.0
  1
⑦
  7
STYLE2
100
AcDbText
  0
TEXT
  5
153F5
330
747D
100
AcDbEntity
  8
部品1
 48
50.0
100
AcDbText
 10
4709.483961247872
 20
5556.557967656535
 30
0.0
 40
120.0
  1
⑥
  7
STYLE2
100
AcDbText
  0
LINE
  5
153F6
330
747D
100
AcDbEntity
  8
寸法
 48
50.0
100
AcDbLine
 10
4304.658443290954
 20
6406.527216707161
 30
0.0
 11
4756.473071258649
 21
5688.400172114351
 31
0.0
  0
LINE
  5
153F7
330
747D
100
AcDbEntity
  8
寸法
 48
50.0
100
AcDbLine
 10
1467.893287622377
 20
5688.400172114351
 30
0.0
 11
1576.558251473801
 21
5973.627135450357
 31
0.0
  0
TEXT
  5
153F8
330
747D
100
AcDbEntity
  8
部品1
 48
50.0
100
AcDbText
 10
1342.837234317083
 20
5549.487076344806
 30
0.0
 40
120.0
  1
⑧
  7
STYLE2
100
AcDbText
  0
TEXT
  5
153F9
330
747D
100
AcDbEntity
  8
部品1
 48
50.0
100
AcDbText
 10
348.1926146457404
 20
7375.036835556165
 30
0.0
 40
120.0
  1
③
  7
STYLE2
100
AcDbText
  0
LINE
  5
153FA
330
747D
100
AcDbEntity
  8
寸法
 48
50.0
100
AcDbLine
 10
505.1953144274262
 20
7395.640877233573
 30
0.0
 11
969.3278067337073
 21
7140.723527947156
 31
0.0
  0
TEXT
  5
153FB
330
747D
100
AcDbEntity
  8
部品1
 48
50.0
100
AcDbText
 10
336.8241087778824
 20
6644.274144580257
 30
0.0
 40
120.0
  1
④
  7
STYLE2
100
AcDbText
  0
LINE
  5
153FC
330
747D
100
AcDbEntity
  8
寸法
 48
50.0
100
AcDbLine
 10
502.6547218091418
 20
6723.208236041424
 30
0.0
 11
873.187093950592
 21
6909.372979141963
 31
0.0
  0
LINE
  5
153FD
330
747D
100
AcDbEntity
  8
寸法
 48
50.0
100
AcDbLine
 10
5258.25401593542
 20
5688.400172114351
 30
0.0
 11
5127.365871196971
 21
6081.748608073926
 31
0.0
  0
LINE
  5
153FE
330
747D
100
AcDbEntity
  8
部品1
 48
50.0
100
AcDbLine
 10
7708.677830258809
 20
1880.562576328018
 30
0.0
 11
7718.677830258808
 21
1870.562576328018
 31
0.0
  0
LINE
  5
15401
330
747D
100
AcDbEntity
  8
部品1
 48
50.0
100
AcDbLine
 10
718.6778302588046
 20
1870.562576328023
 30
0.0
 11
728.6778302588047
 21
1880.562576328023
 31
0.0
  0
LWPOLYLINE
  5
15548
330
747D
100
AcDbEntity
  8
部品1
100
AcDbPolyline
 90
        4
 70
     1
 43
0.0
 10
10099.08353184661
 20
1334.534755452345
 10
10746.11490712714
 20
1334.534755452345
 10
10746.11490712714
 20
1142.014599635205
 10
10099.08353184661
 20
1142.014599635205
  0
TEXT
  5
15549
330
747D
100
AcDbEntity
  8
仕様書枠
 62
     7
 48
50.0
100
AcDbText
 10
10130.49860860815
 20
1180.670031102163
 30
0.0
 40
112.0
  1
側 面 図
  7
STYLE2
100
AcDbText
  0
DIMENSION
  5
1554A
330
747D
100
AcDbEntity
  8
寸法
 48
50.0
100
AcDbDimension
  2
*D13
 10
9030.692555018744
 20
3990.382911937196
 30
0.0
 11
9032.760901003294
 21
4052.940265229842
 31
0.0
 70
   160
 71
     5
 42
103.5000000000018
 51
2.290610042638495
  3
INABA_S30G
100
AcDbAlignedDimension
 13
9343.869638485212
 23
4081.438595505008
 33
0.0
 14
9364.101464289717
 24
3977.046555566357
 34
0.0
 50
87.70938995736051
100
AcDbRotatedDimension
1001
ACAD
1000
DSTYLE
1002
{
1070
   279
1070
     1
1002
}
  0
LINE
  5
1554B
330
747D
100
AcDbEntity
  8
部品1
 48
50.0
100
AcDbLine
 10
9512.739350913379
 20
3964.809746433056
 30
0.0
 11
9523.653604153409
 21
3916.04829606438
 31
0.0
  0
LINE
  5
1554C
330
747D
100
AcDbEntity
  8
細線
 48
50.0
100
AcDbLine
 10
11293.8634737686
 20
3958.552410122878
 30
0.0
 11
11284.7610793448
 21
3931.894914532924
 31
0.0
  0
LINE
  5
1554D
330
747D
100
AcDbEntity
  8
部品1
 48
50.0
100
AcDbLine
 10
11265.90799246655
 20
4004.557061345754
 30
0.0
 11
11261.77130049744
 21
3901.139762118051
 31
0.0
  0
LINE
  5
1554E
330
747D
100
AcDbEntity
  8
部品1
 48
50.0
100
AcDbLine
 10
11327.46539262752
 20
3982.803502035396
 30
0.0
 11
11303.8917813157
 21
3913.765245690325
 31
0.0
  0
LINE
  5
1554F
330
747D
100
AcDbEntity
  8
細線
 48
50.0
100
AcDbLine
 10
9375.62377997594
 20
4001.105255105173
 30
0.0
 11
11274.89788248294
 21
3925.134291004894
 31
0.0
  0
LINE
  5
15550
330
747D
100
AcDbEntity
  8
部品1
 48
50.0
100
AcDbLine
 10
10307.78649825617
 20
3939.299154207699
 30
0.0
 11
10305.30847987854
 21
3877.348694766949
 31
0.0
  0
LINE
  5
15551
330
747D
100
AcDbEntity
  8
部品1
 48
50.0
100
AcDbLine
 10
10348.75373756376
 20
3937.660464635398
 30
0.0
 11
10346.27571918613
 21
3875.710005194647
 31
0.0
  0
LINE
  5
15552
330
747D
100
AcDbEntity
  8
部品1
 48
50.0
100
AcDbLine
 10
9598.753737563759
 20
3967.660464635398
 30
0.0
 11
9596.275719186127
 21
3905.710005194647
 31
0.0
  0
LINE
  5
15553
330
747D
100
AcDbEntity
  8
部品1
 48
50.0
100
AcDbLine
 10
9557.786498256168
 20
3969.299154207699
 30
0.0
 11
9555.308479878538
 21
3907.348694766949
 31
0.0
  0
LINE
  5
15554
330
747D
100
AcDbEntity
  8
部品1
 48
50.0
100
AcDbLine
 10
9364.101464289717
 20
3977.046555566359
 30
0.0
 11
11284.16538759198
 21
3900.243998634268
 31
0.0
  0
LINE
  5
15555
330
747D
100
AcDbEntity
  8
細線
 48
50.0
100
AcDbLine
 10
10594.48621934392
 20
1830.562576328018
 30
0.0
 11
10641.75140645844
 21
1877.827763442532
 31
0.0
  0
LINE
  5
15556
330
747D
100
AcDbEntity
  8
細線
 48
50.0
100
AcDbLine
 10
10567.54543934392
 20
1830.562576328018
 30
0.0
 11
10615.07736685448
 21
1878.094503838573
 31
0.0
  0
LINE
  5
15557
330
747D
100
AcDbEntity
  8
部品1
 48
50.0
100
AcDbLine
 10
11318.27061787246
 20
1871.062571328392
 30
0.0
 11
10373.27011790996
 21
1880.562576328018
 31
0.0
  0
LINE
  5
15558
330
747D
100
AcDbEntity
  8
部品1
 48
50.0
100
AcDbLine
 10
11193.27011790996
 20
3852.060422000174
 30
0.0
 11
10432.74890931042
 21
3573.43348837045
 31
0.0
  0
LINE
  5
15559
330
747D
100
AcDbEntity
  8
部品1
 48
50.0
100
AcDbLine
 10
10453.27011790996
 20
3487.051931123295
 30
0.0
 11
10453.27011790996
 21
1962.099725102279
 31
0.0
  0
LINE
  5
1555A
330
747D
100
AcDbEntity
  8
部品1
 48
50.0
100
AcDbLine
 10
10393.27011790996
 20
3517.051931123296
 30
0.0
 11
10393.27011790996
 21
1962.099725102281
 31
0.0
  0
LINE
  5
1555B
330
747D
100
AcDbEntity
  8
部品1
 48
50.0
100
AcDbLine
 10
10373.27011790996
 20
3548.431828606203
 30
0.0
 11
10373.27011790996
 21
1880.562576328018
 31
0.0
  0
LINE
  5
1555C
330
747D
100
AcDbEntity
  8
部品1
 48
50.0
100
AcDbLine
 10
10283.27011790996
 20
3548.431828606202
 30
0.0
 11
10283.27011790996
 21
1880.562576328018
 31
0.0
  0
LINE
  5
1555D
330
747D
100
AcDbEntity
  8
部品1
 48
50.0
100
AcDbLine
 10
9338.269617947462
 20
1871.062571328392
 30
0.0
 11
10283.27011790996
 21
1880.562576328018
 31
0.0
  0
LINE
  5
1555E
330
747D
100
AcDbEntity
  8
細線
 48
50.0
100
AcDbLine
 10
9417.677778268476
 20
1830.562576328018
 30
0.0
 11
9459.388966756945
 21
1872.273764816486
 31
0.0
  0
LINE
  5
1555F
330
747D
100
AcDbEntity
  8
細線
 48
50.0
100
AcDbLine
 10
9471.559338268479
 20
1830.562576328018
 30
0.0
 11
9513.814784938764
 21
1872.818022998305
 31
0.0
  0
LINE
  5
15560
330
747D
100
AcDbEntity
  8
細線
 48
50.0
100
AcDbLine
 10
9444.618558268478
 20
1830.562576328018
 30
0.0
 11
9486.601875847849
 21
1872.545893907395
 31
0.0
  0
LINE
  5
15561
330
747D
100
AcDbEntity
  8
部品1
 48
50.0
100
AcDbLine
 10
9338.269617947462
 20
1871.062571328392
 30
0.0
 11
9328.270117909964
 21
1860.962576328017
 31
0.0
  0
LINE
  5
15562
330
747D
100
AcDbEntity
  8
部品1
 48
50.0
100
AcDbLine
 10
9328.270117909964
 20
1860.962576328017
 30
0.0
 11
9328.270117909964
 21
1830.562576328018
 31
0.0
  0
LINE
  5
15563
330
747D
100
AcDbEntity
  8
細線
 48
50.0
100
AcDbLine
 10
10091.19699898545
 20
1830.562576328018
 30
0.0
 11
10139.7114119256
 21
1879.076989268173
 31
0.0
  0
LINE
  5
15564
330
747D
100
AcDbEntity
  8
細線
 48
50.0
100
AcDbLine
 10
10064.25621898545
 20
1830.562576328018
 30
0.0
 11
10112.49850283469
 21
1878.804860177264
 31
0.0
  0
LINE
  5
15565
330
747D
100
AcDbEntity
  8
細線
 48
50.0
100
AcDbLine
 10
10118.13777898545
 20
1830.562576328018
 30
0.0
 11
10166.92432101651
 21
1879.349118359082
 31
0.0
  0
LINE
  5
15566
330
747D
100
AcDbEntity
  8
部品1
 48
50.0
100
AcDbLine
 10
10373.27011790998
 20
1880.562576328018
 30
0.0
 11
10283.27011790996
 21
1880.562576328017
 31
0.0
  0
LINE
  5
15567
330
747D
100
AcDbEntity
  8
部品1
 48
50.0
100
AcDbLine
 10
10373.27011790998
 20
1880.562576328018
 30
0.0
 11
10283.27011790996
 21
1880.562576328017
 31
0.0
  0
LINE
  5
15568
330
747D
100
AcDbEntity
  8
点線
 48
18.0
100
AcDbLine
 10
10283.27011790996
 20
1880.562576328018
 30
0.0
 11
10283.27011790996
 21
1830.562576328018
 31
0.0
  0
LINE
  5
15569
330
747D
100
AcDbEntity
  8
点線
 48
18.0
100
AcDbLine
 10
10373.27011790996
 20
1880.562576328018
 30
0.0
 11
10373.27011790996
 21
1830.562576328018
 31
0.0
  0
LINE
  5
1556A
330
747D
100
AcDbEntity
  8
部品1
 48
50.0
100
AcDbLine
 10
10454.77011790996
 20
2017.099725102281
 30
0.0
 11
10454.77011790996
 21
1997.099725102281
 31
0.0
  0
CIRCLE
  5
1556B
330
747D
100
AcDbEntity
  8
細線
 48
50.0
100
AcDbCircle
 10
10383.27011790996
 20
2007.099725102281
 30
0.0
 40
6.5
  0
LWPOLYLINE
  5
1556C
330
747D
100
AcDbEntity
  8
細線
 48
50.0
100
AcDbPolyline
 90
        6
 70
     1
 43
0.0
 10
10388.27011790996
 20
2009.986476448229
 10
10383.27011790996
 20
2012.873227794178
 10
10378.27011790996
 20
2009.986476448229
 10
10378.27011790996
 20
2004.212973756333
 10
10383.27011790996
 20
2001.326222410385
 10
10388.27011790996
 20
2004.212973756333
  0
LINE
  5
1556D
330
747D
100
AcDbEntity
  8
部品1
 48
50.0
100
AcDbLine
 10
10454.77011790996
 20
2017.099725102281
 30
0.0
 11
10373.27011790996
 21
2017.099725102281
 31
0.0
  0
LINE
  5
1556E
330
747D
100
AcDbEntity
  8
部品1
 48
50.0
100
AcDbLine
 10
10454.77011790996
 20
1997.099725102281
 30
0.0
 11
10373.27011790996
 21
1997.099725102281
 31
0.0
  0
LINE
  5
1556F
330
747D
100
AcDbEntity
  8
細線
 48
50.0
100
AcDbLine
 10
10453.27011790996
 20
1987.099725102279
 30
0.0
 11
10393.27011790996
 21
1987.099725102281
 31
0.0
  0
LINE
  5
15570
330
747D
100
AcDbEntity
  8
部品1
 48
50.0
100
AcDbLine
 10
10474.88304818805
 20
1954.233261805796
 30
0.0
 11
10460.08636312241
 21
1898.960681704365
 31
0.0
  0
LINE
  5
15571
330
747D
100
AcDbEntity
  8
細線
 48
50.0
100
AcDbLine
 10
10453.27011790996
 20
1962.099725102279
 30
0.0
 11
10432.74890931042
 21
1905.718167855127
 31
0.0
  0
ARC
  5
15572
330
747D
100
AcDbEntity
  8
部品1
 48
50.0
100
AcDbCircle
 10
10453.27011790996
 20
1962.099725102281
 30
0.0
 40
60.0
100
AcDbArc
 50
180.0
 51
250.0000000000104
  0
LINE
  5
15573
330
747D
100
AcDbEntity
  8
部品1
 48
50.0
100
AcDbLine
 10
10453.27011790996
 20
1962.099725102279
 30
0.0
 11
10474.88304818805
 21
1954.233261805796
 31
0.0
  0
LINE
  5
15574
330
747D
100
AcDbEntity
  8
部品1
 48
50.0
100
AcDbLine
 10
10433.77496974041
 20
1908.537245717485
 30
0.0
 11
10460.08636312241
 21
1898.960681704363
 31
0.0
  0
LINE
  5
15575
330
747D
100
AcDbEntity
  8
部品1
 48
50.0
100
AcDbLine
 10
10283.27011790996
 20
1880.562576328017
 30
0.0
 11
10373.27011790998
 21
1880.562576328018
 31
0.0
  0
LINE
  5
15576
330
747D
100
AcDbEntity
  8
寸法
 48
50.0
100
AcDbLine
 10
10317.1349919951
 20
3053.479328790708
 30
0.0
 11
9994.813229509292
 21
2950.961752276536
 31
0.0
  0
TEXT
  5
15577
330
747D
100
AcDbEntity
  8
部品1
 48
50.0
100
AcDbText
 10
9831.299492988488
 20
2859.633061031461
 30
0.0
 40
120.0
  1
②
  7
STYLE2
100
AcDbText
  0
LINE
  5
15578
330
747D
100
AcDbEntity
  8
寸法
 48
50.0
100
AcDbLine
 10
10152.0026688535
 20
3717.204366634967
 30
0.0
 11
9915.511695725731
 21
3528.724526267487
 31
0.0
  0
LINE
  5
15579
330
747D
100
AcDbEntity
  8
部品1
 48
50.0
100
AcDbLine
 10
9596.355655262824
 20
3907.708407112089
 30
0.0
 11
9988.957245570805
 21
3892.004343499769
 31
0.0
  0
TEXT
  5
1557A
330
747D
100
AcDbEntity
  8
部品1
 48
50.0
100
AcDbText
 10
9761.478121743968
 20
3423.513162927392
 30
0.0
 40
120.0
  1
①
  7
STYLE2
100
AcDbText
  0
LINE
  5
1557B
330
747D
100
AcDbEntity
  8
部品1
 48
50.0
100
AcDbLine
 10
9533.012461374255
 20
3908.240535507098
 30
0.0
 11
9555.308479878538
 21
3907.348694766929
 31
0.0
  0
ARC
  5
1557C
330
747D
100
AcDbEntity
  8
部品1
 48
50.0
100
AcDbCircle
 10
9533.412141757745
 20
3918.232545094316
 30
0.0
 40
10.0
100
AcDbArc
 50
192.6165368012865
 51
267.7093899573605
  0
LINE
  5
1557D
330
747D
100
AcDbEntity
  8
部品1
 48
50.0
100
AcDbLine
 10
9555.308479878538
 20
3907.348694766949
 30
0.0
 11
9596.275719186127
 21
3905.710005194645
 31
0.0
  0
LINE
  5
1557E
330
747D
100
AcDbEntity
  8
部品1
 48
50.0
100
AcDbLine
 10
10122.50271981028
 20
3886.662524530191
 30
0.0
 11
10305.38841595523
 21
3879.347096684392
 31
0.0
  0
LINE
  5
1557F
330
747D
100
AcDbEntity
  8
部品1
 48
50.0
100
AcDbLine
 10
10283.27011790996
 20
3548.431828606202
 30
0.0
 11
10373.27011790996
 21
3548.431828606203
 31
0.0
  0
CIRCLE
  5
15580
330
747D
100
AcDbEntity
  8
細線
 48
50.0
100
AcDbCircle
 10
10383.27011790996
 20
3497.051931123296
 30
0.0
 40
6.5
  0
LWPOLYLINE
  5
15581
330
747D
100
AcDbEntity
  8
細線
 48
50.0
100
AcDbPolyline
 90
        6
 70
     1
 43
0.0
 10
10388.27011790996
 20
3499.938682469245
 10
10383.27011790996
 20
3502.825433815193
 10
10378.27011790996
 20
3499.938682469245
 10
10378.27011790996
 20
3494.165179777348
 10
10383.27011790996
 20
3491.2784284314
 10
10388.27011790996
 20
3494.165179777348
  0
LINE
  5
15582
330
747D
100
AcDbEntity
  8
部品1
 48
50.0
100
AcDbLine
 10
10454.77011790996
 20
3507.051931123296
 30
0.0
 11
10454.77011790996
 21
3487.051931123295
 31
0.0
  0
LINE
  5
15583
330
747D
100
AcDbEntity
  8
部品1
 48
50.0
100
AcDbLine
 10
10454.77011790996
 20
3487.051931123295
 30
0.0
 11
10373.27011790996
 21
3487.051931123295
 31
0.0
  0
LINE
  5
15584
330
747D
100
AcDbEntity
  8
部品1
 48
50.0
100
AcDbLine
 10
10454.77011790996
 20
3507.051931123296
 30
0.0
 11
10373.27011790996
 21
3507.051931123296
 31
0.0
  0
LINE
  5
15585
330
747D
100
AcDbEntity
  8
細線
 48
50.0
100
AcDbLine
 10
10476.76243342961
 20
3525.602434706437
 30
0.0
 11
10456.24122483007
 21
3581.983991953591
 31
0.0
  0
LINE
  5
15586
330
747D
100
AcDbEntity
  8
細線
 48
50.0
100
AcDbLine
 10
10453.27011790996
 20
3517.051931123296
 30
0.0
 11
10393.27011790996
 21
3517.051931123296
 31
0.0
  0
ARC
  5
15587
330
747D
100
AcDbEntity
  8
部品1
 48
50.0
100
AcDbCircle
 10
10453.27011790996
 20
3517.051931123296
 30
0.0
 40
60.0
100
AcDbArc
 50
109.9999999999896
 51
180.0
  0
LINE
  5
15588
330
747D
100
AcDbEntity
  8
部品1
 48
50.0
100
AcDbLine
 10
10453.27011790996
 20
3517.051931123296
 30
0.0
 11
10453.27011790996
 21
3507.051931123296
 31
0.0
  0
LINE
  5
15589
330
747D
100
AcDbEntity
  8
部品1
 48
50.0
100
AcDbLine
 10
10346.35565526283
 20
3877.708407112089
 30
0.0
 11
10524.64630186142
 21
3870.576781248146
 31
0.0
  0
LINE
  5
1558A
330
747D
100
AcDbEntity
  8
部品1
 48
50.0
100
AcDbLine
 10
10305.30847987854
 20
3877.348694766947
 30
0.0
 11
10346.27571918613
 21
3875.710005194644
 31
0.0
  0
LINE
  5
1558B
330
747D
100
AcDbEntity
  8
細線
 48
50.0
100
AcDbLine
 10
11268.0054400609
 20
1830.562576328018
 30
0.0
 11
11308.6021200396
 21
1871.159256306721
 31
0.0
  0
LINE
  5
1558C
330
747D
100
AcDbEntity
  8
細線
 48
50.0
100
AcDbLine
 10
11241.0646600609
 20
1830.562576328018
 30
0.0
 11
11281.92808043564
 21
1871.42599670276
 31
0.0
  0
LINE
  5
1558D
330
747D
100
AcDbEntity
  8
細線
 48
50.0
100
AcDbLine
 10
10621.42699934393
 20
1830.562576328018
 30
0.0
 11
10668.4254460624
 21
1877.561023046493
 31
0.0
  0
LINE
  5
1558E
330
747D
100
AcDbEntity
  8
細線
 48
50.0
100
AcDbLine
 10
11214.1238800609
 20
1830.562576328018
 30
0.0
 11
11255.25404083168
 21
1871.6927370988
 31
0.0
  0
LINE
  5
1558F
330
747D
100
AcDbEntity
  8
部品1
 48
50.0
100
AcDbLine
 10
11328.27011790996
 20
1860.962576328017
 30
0.0
 11
11328.27011790996
 21
1830.562576328018
 31
0.0
  0
LINE
  5
15590
330
747D
100
AcDbEntity
  8
部品1
 48
50.0
100
AcDbLine
 10
11318.27061787246
 20
1871.062571328392
 30
0.0
 11
11328.27011790996
 21
1860.962576328017
 31
0.0
  0
LINE
  5
15591
330
747D
100
AcDbEntity
  8
部品1
 48
50.0
100
AcDbLine
 10
10644.48719970761
 20
3865.7831453343
 30
0.0
 11
11055.38841595523
 21
3849.347096684392
 31
0.0
  0
LINE
  5
15592
330
747D
100
AcDbEntity
  8
細線
 48
50.0
100
AcDbLine
 10
11193.27011790996
 20
3877.060422000167
 30
0.0
 11
11253.27011790996
 21
3877.060422000165
 31
0.0
  0
LINE
  5
15593
330
747D
100
AcDbEntity
  8
細線
 48
50.0
100
AcDbLine
 10
11193.27011790996
 20
3852.060422000172
 30
0.0
 11
11213.7913265095
 21
3795.678864753015
 31
0.0
  0
LINE
  5
15594
330
747D
100
AcDbEntity
  8
部品1
 48
50.0
100
AcDbLine
 10
11108.56432895256
 20
3755.783103142373
 30
0.0
 11
11089.77047653684
 21
3748.94270027586
 31
0.0
  0
LWPOLYLINE
  5
15595
330
747D
100
AcDbEntity
  8
細線
 48
50.0
100
AcDbPolyline
 90
        6
 70
     1
 43
0.0
 10
11079.71296249692
 20
3822.43767544126
 10
11074.71296249692
 20
3825.324426787208
 10
11069.71296249692
 20
3822.43767544126
 10
11069.71296249692
 20
3816.664172749364
 10
11074.71296249692
 20
3813.777421403415
 10
11079.71296249692
 20
3816.664172749364
  0
CIRCLE
  5
15596
330
747D
100
AcDbEntity
  8
細線
 48
50.0
100
AcDbCircle
 10
11074.71296249692
 20
3819.55092409531
 30
0.0
 40
6.5
  0
ARC
  5
15597
330
747D
100
AcDbEntity
  8
部品1
 48
50.0
100
AcDbCircle
 10
11065.05693286148
 20
3825.614016679104
 30
0.0
 40
3.0
100
AcDbArc
 50
109.9999999999896
 51
200.0000000000103
  0
LINE
  5
15598
330
747D
100
AcDbEntity
  8
部品1
 48
50.0
100
AcDbLine
 10
11065.07546047033
 20
3828.813293494664
 30
0.0
 11
11064.0308724315
 21
3828.433094541462
 31
0.0
  0
LINE
  5
15599
330
747D
100
AcDbEntity
  8
部品1
 48
50.0
100
AcDbLine
 10
11074.71296249692
 20
3819.55092409531
 30
0.0
 11
11074.71296249692
 21
3819.55092409531
 31
0.0
  0
LINE
  5
1559A
330
747D
100
AcDbEntity
  8
部品1
 48
50.0
100
AcDbLine
 10
11084.78371450948
 20
3821.119804345503
 30
0.0
 11
11108.56432895256
 21
3755.783103142373
 31
0.0
  0
LINE
  5
1559B
330
747D
100
AcDbEntity
  8
部品1
 48
50.0
100
AcDbLine
 10
11062.23785499912
 20
3824.587956249128
 30
0.0
 11
11089.77047653684
 21
3748.94270027586
 31
0.0
  0
ARC
  5
1559C
330
747D
100
AcDbEntity
  8
部品1
 48
50.0
100
AcDbCircle
 10
11074.75293053526
 20
3820.550125054032
 30
0.0
 40
10.0
100
AcDbArc
 50
177.7093899573614
 51
357.7093899573615
  0
LINE
  5
1559D
330
747D
100
AcDbEntity
  8
部品1
 48
50.0
100
AcDbLine
 10
11085.78410911955
 20
3846.12966959731
 30
0.0
 11
11084.70497208413
 21
3819.151243711823
 31
0.0
  0
LINE
  5
1559E
330
747D
100
AcDbEntity
  8
部品1
 48
50.0
100
AcDbLine
 10
11065.80008994512
 20
3846.929030364287
 30
0.0
 11
11064.7209529097
 21
3819.950604478799
 31
0.0
  0
ARC
  5
1559F
330
747D
100
AcDbEntity
  8
部品1
 48
50.0
100
AcDbCircle
 10
11193.27011790996
 20
3852.060422000169
 30
0.0
 40
60.0
100
AcDbArc
 50
289.9999999999896
 51
0.0
  0
LINE
  5
155A0
330
747D
100
AcDbEntity
  8
部品1
 48
50.0
100
AcDbLine
 10
11253.27011790996
 20
3901.479809421547
 30
0.0
 11
11253.27011790996
 21
3852.060422000169
 31
0.0
  0
LINE
  5
155A1
330
747D
100
AcDbEntity
  8
部品1
 48
50.0
100
AcDbLine
 10
11193.27011790996
 20
3903.879809421548
 30
0.0
 11
11193.27011790996
 21
3852.060422000172
 31
0.0
  0
ARC
  5
155A2
330
747D
100
AcDbEntity
  8
部品1
 48
50.0
100
AcDbCircle
 10
11118.9714180739
 20
3854.810174041693
 30
0.0
 40
10.0
100
AcDbArc
 50
267.7093899573605
 51
342.8022431134319
  0
LINE
  5
155A3
330
747D
100
AcDbEntity
  8
部品1
 48
50.0
100
AcDbLine
 10
11118.57173769041
 20
3844.818164454474
 30
0.0
 11
11096.27571918613
 21
3845.710005194646
 31
0.0
  0
LINE
  5
155A4
330
747D
100
AcDbEntity
  8
部品1
 48
50.0
100
AcDbLine
 10
11143.29838541227
 20
3899.587385053126
 30
0.0
 11
11128.52431745666
 21
3851.853467532273
 31
0.0
  0
ARC
  5
155A5
330
747D
100
AcDbEntity
  8
部品1
 48
50.0
100
AcDbCircle
 10
11138.52193572089
 20
3901.065738307835
 30
0.0
 40
5.0
100
AcDbArc
 50
342.8022431134319
 51
87.70938995736051
  0
LINE
  5
155A6
330
747D
100
AcDbEntity
  8
部品1
 48
50.0
100
AcDbLine
 10
11055.30847987854
 20
3847.348694766951
 30
0.0
 11
11096.27571918613
 21
3845.710005194646
 31
0.0
  0
LINE
  5
155A7
330
747D
100
AcDbEntity
  8
部品1
 48
50.0
100
AcDbLine
 10
11098.75373756376
 20
3907.660464635398
 30
0.0
 11
11096.27571918613
 21
3845.710005194646
 31
0.0
  0
LINE
  5
155A8
330
747D
100
AcDbEntity
  8
部品1
 48
50.0
100
AcDbLine
 10
11057.78649825617
 20
3909.299154207702
 30
0.0
 11
11055.30847987854
 21
3847.348694766949
 31
0.0
  0
ARC
  5
155A9
330
747D
100
AcDbEntity
  8
細線
 48
50.0
100
AcDbCircle
 10
11275.29756286643
 20
3935.126300592113
 30
0.0
 40
10.0
100
AcDbArc
 50
267.7093899573605
 51
341.1471589320524
  0
ARC
  5
155AA
330
747D
100
AcDbEntity
  8
部品1
 48
50.0
100
AcDbCircle
 10
11284.96474835895
 20
3920.228017808705
 30
0.0
 40
20.0
100
AcDbArc
 50
267.7093899573605
 51
341.1471589320524
  0
DIMENSION
  5
155AB
330
747D
100
AcDbEntity
  8
寸法
 48
50.0
100
AcDbDimension
  2
*D14
 10
11328.27011790996
 20
4906.270106075108
 30
0.0
 11
10328.27011790996
 21
4981.278964342825
 31
0.0
 70
    32
 71
     5
 42
2000.0
  3
INABA_S30G
100
AcDbAlignedDimension
 13
9328.270117909964
 23
4066.450581124182
 33
0.0
 14
11328.27011790996
 24
3987.650581124182
 34
0.0
100
AcDbRotatedDimension
  0
LINE
  5
155AC
330
747D
100
AcDbEntity
  8
細線
 48
50.0
100
AcDbLine
 10
9369.94225346161
 20
4048.370101137765
 30
0.0
 11
11284.79963767371
 21
3971.775805769283
 31
0.0
  0
LINE
  5
155AD
330
747D
100
AcDbEntity
  8
細線
 48
50.0
100
AcDbLine
 10
9374.969597585016
 20
4036.659811049892
 30
0.0
 11
11278.80914552364
 21
3960.506229132348
 31
0.0
  0
LINE
  5
155AE
330
747D
100
AcDbEntity
  8
細線
 48
50.0
100
AcDbLine
 10
9379.050380875797
 20
4012.477387392123
 30
0.0
 11
11272.50107434434
 21
3936.739359653378
 31
0.0
  0
LINE
  5
155AF
330
747D
100
AcDbEntity
  8
部品1
 48
50.0
100
AcDbLine
 10
9343.869638485198
 20
4081.43859550501
 30
0.0
 11
11313.8696384852
 21
4002.638595505009
 31
0.0
  0
LINE
  5
155B0
330
747D
100
AcDbEntity
  8
寸法
 48
50.0
100
AcDbLine
 10
9552.940262726782
 20
4053.222195217855
 30
0.0
 11
9207.673374876312
 21
4403.836152470866
 31
0.0
  0
TEXT
  5
155B1
330
747D
100
AcDbEntity
  8
部品1
 48
50.0
100
AcDbText
 10
9056.315635117549
 20
4396.246359413379
 30
0.0
 40
120.0
  1
⑤
  7
STYLE2
100
AcDbText
  0
ARC
  5
155B2
330
747D
100
AcDbEntity
  8
部品1
 48
50.0
100
AcDbCircle
 10
9517.618619715552
 20
3965.901870948025
 30
0.0
 40
5.0
100
AcDbArc
 50
87.70938995736051
 51
192.6165368012865
  0
ARC
  5
155B3
330
747D
100
AcDbEntity
  8
細線
 48
50.0
100
AcDbCircle
 10
9376.02346035943
 20
4011.097264692394
 30
0.0
 40
10.0
100
AcDbArc
 50
193.3635800495691
 51
267.7093899573605
  0
ARC
  5
155B4
330
747D
100
AcDbEntity
  8
細線
 48
50.0
100
AcDbCircle
 10
9369.54257307812
 20
4038.37809155055
 30
0.0
 40
10.0
100
AcDbArc
 50
87.70938995736051
 51
193.3635800495691
  0
ARC
  5
155B5
330
747D
100
AcDbEntity
  8
細線
 48
50.0
100
AcDbCircle
 10
9379.170284990843
 20
4015.474990268288
 30
0.0
 40
3.0
100
AcDbArc
 50
193.3635800495691
 51
267.7093899573605
  0
ARC
  5
155B6
330
747D
100
AcDbEntity
  8
細線
 48
50.0
100
AcDbCircle
 10
9374.849693469968
 20
4033.662208173725
 30
0.0
 40
3.0
100
AcDbArc
 50
87.70938995736051
 51
193.3635800495563
  0
LINE
  5
155B7
330
747D
100
AcDbEntity
  8
細線
 48
50.0
100
AcDbLine
 10
9371.93092449463
 20
4032.968819632841
 30
0.0
 11
9376.251516015509
 21
4014.781601727402
 31
0.0
  0
LINE
  5
155B8
330
747D
100
AcDbEntity
  8
細線
 48
50.0
100
AcDbLine
 10
9359.813343160341
 20
4036.066796414266
 30
0.0
 11
9366.294230441651
 21
4008.785969556108
 31
0.0
  0
LINE
  5
155B9
330
747D
100
AcDbEntity
  8
部品1
 48
50.0
100
AcDbLine
 10
9391.831284503838
 20
4079.520129664265
 30
0.0
 11
9387.694592534728
 21
3976.10283043656
 31
0.0
  0
LINE
  5
155BA
330
747D
100
AcDbEntity
  8
部品1
 48
50.0
100
AcDbLine
 10
9328.676273033295
 20
4062.983638419756
 30
0.0
 11
9345.44236522114
 21
3992.407984468227
 31
0.0
  0
ARC
  5
155BB
330
747D
100
AcDbEntity
  8
部品1
 48
50.0
100
AcDbCircle
 10
9343.270117909964
 20
4066.450581124182
 30
0.0
 40
15.0
100
AcDbArc
 50
87.70938995736051
 51
193.3635800495563
  0
ARC
  5
155BC
330
747D
100
AcDbEntity
  8
部品1
 48
50.0
100
AcDbCircle
 10
9364.900825056695
 20
3997.030574740794
 30
0.0
 40
20.0
100
AcDbArc
 50
193.3635800495563
 51
267.7093899573605
  0
ARC
  5
155BD
330
747D
100
AcDbEntity
  8
細線
 48
50.0
100
AcDbCircle
 10
11272.62097845939
 20
3939.736962529543
 30
0.0
 40
3.0
100
AcDbArc
 50
267.7093899573605
 51
341.1471589320524
  0
ARC
  5
155BE
330
747D
100
AcDbEntity
  8
細線
 48
50.0
100
AcDbCircle
 10
11278.68924140859
 20
3957.508626256183
 30
0.0
 40
3.0
100
AcDbArc
 50
341.1471589320524
 51
87.70938995736051
  0
ARC
  5
155BF
330
747D
100
AcDbEntity
  8
細線
 48
50.0
100
AcDbCircle
 10
11284.39995729023
 20
3961.783796182067
 30
0.0
 40
10.0
100
AcDbArc
 50
341.1471589320524
 51
87.70938995736051
  0
LINE
  5
155C0
330
747D
100
AcDbEntity
  8
細線
 48
50.0
100
AcDbLine
 10
11281.5282963521
 20
3956.539210438426
 30
0.0
 11
11275.4600334029
 21
3938.767546711787
 31
0.0
  0
ARC
  5
155C1
330
747D
100
AcDbEntity
  8
部品1
 48
50.0
100
AcDbCircle
 10
11313.27011790996
 20
3987.650581124182
 30
0.0
 40
15.0
100
AcDbArc
 50
341.1471589320524
 51
87.70938995736051
  0
DIMENSION
  5
155C2
330
747D
100
AcDbEntity
  8
寸法
 48
50.0
100
AcDbDimension
  2
*D15
 10
8720.39500944961
 20
1880.562576328018
 30
0.0
 11
8720.39500944961
 21
2981.312576328019
 31
0.0
 70
   160
 71
     5
 42
2201.500000000001
  3
INABA_S30G
100
AcDbAlignedDimension
 13
9328.270117909964
 23
4082.062576328018
 33
0.0
 14
9328.270117909964
 24
1880.562576328018
 34
0.0
 50
90.0
100
AcDbRotatedDimension
  0
DIMENSION
  5
155C3
330
747D
100
AcDbEntity
  8
寸法
 48
50.0
100
AcDbDimension
  2
*D16
 10
11703.90757038456
 20
4002.650581124181
 30
0.0
 11
11703.90757038456
 21
2991.672581441363
 31
0.0
 70
   160
  1
2121.5
 71
     5
 42
2122.088004796164
  3
INABA_S30G
100
AcDbAlignedDimension
 13
11612.81086103942
 23
1880.562576328018
 33
0.0
 14
11328.27011790996
 24
4002.650581124181
 34
0.0
 50
90.0
100
AcDbRotatedDimension
  0
DIMENSION
  5
155C4
330
747D
100
AcDbEntity
  8
寸法
 48
50.0
100
AcDbDimension
  2
*D17
 10
8720.39500944961
 20
1880.562576328018
 30
0.0
 11
8720.39500944961
 21
1601.027143257152
 31
0.0
 70
   160
 71
     5
 42
50.00000000000023
  3
INABA_S30G
100
AcDbAlignedDimension
 13
9328.270117909964
 23
1830.562576328018
 33
0.0
 14
10283.27011790996
 24
1880.562576328018
 34
0.0
 50
90.0
100
AcDbRotatedDimension
  0
DIMENSION
  5
155C5
330
747D
100
AcDbEntity
  8
寸法
 48
50.0
100
AcDbDimension
  2
*D18
 10
11703.90757038456
 20
1830.562576328018
 30
0.0
 11
11703.90757038456
 21
1601.027143257152
 31
0.0
 70
   160
 71
     5
 42
50.0
  3
INABA_S30G
100
AcDbAlignedDimension
 13
10373.27011790996
 23
1880.562576328018
 33
0.0
 14
11328.27011790996
 24
1830.562576328018
 34
0.0
 50
90.0
100
AcDbRotatedDimension
  0
TEXT
  5
155C6
330
747D
100
AcDbEntity
  8
部品1
 48
50.0
100
AcDbText
 10
10689.31824619922
 20
2739.156775525036
 30
0.0
 40
120.0
  1
⑨
  7
STYLE2
100
AcDbText
  0
LINE
  5
155C7
330
747D
100
AcDbEntity
  8
寸法
 48
50.0
100
AcDbLine
 10
10424.19874617373
 20
2869.446433548749
 30
0.0
 11
10698.2589189426
 21
2816.194779334884
 31
0.0
  0
TEXT
  5
155C8
330
747D
100
AcDbEntity
  8
部品1
 48
50.0
100
AcDbText
 10
10882.97910165681
 20
2722.946583362416
 30
0.0
 40
80.0
  1
(別売)
  7
STYLE2
100
AcDbText
  0
LINE
  5
155C9
330
747D
100
AcDbEntity
  8
部品1
 48
50.0
100
AcDbLine
 10
11213.7913265095
 20
3795.67886475302
 30
0.0
 11
11108.13255701142
 21
3756.969386800984
 31
0.0
  0
LINE
  5
155CA
330
747D
100
AcDbEntity
  8
部品1
 48
50.0
100
AcDbLine
 10
11089.35314714919
 20
3750.089303344895
 30
0.0
 11
10453.27011790996
 21
3517.051931123296
 31
0.0
  0
LINE
  5
155CB
330
747D
100
AcDbEntity
  8
部品1
100
AcDbLine
 10
10326.47011794682
 20
3698.431828606203
 30
0.0
 11
10282.8801178731
 21
3698.431828606203
 31
0.0
  0
LINE
  5
155CC
330
747D
100
AcDbEntity
  8
部品1
100
AcDbLine
 10
10282.8801178731
 20
3698.431828606203
 30
0.0
 11
10280.5701178731
 21
3698.431828606203
 31
0.0
  0
LINE
  5
155CD
330
747D
100
AcDbEntity
  8
部品1
100
AcDbLine
 10
9989.801199861727
 20
3889.414348994259
 30
0.0
 11
10122.40119986171
 21
3884.114348996249
 31
0.0
  0
ARC
  5
155CE
330
747D
100
AcDbEntity
  8
部品1
100
AcDbCircle
 10
9960.665071569049
 20
3940.384743552844
 30
0.0
 40
9.999999999994312
100
AcDbArc
 50
87.71111557794203
 51
220.5571249050827
  0
LINE
  5
155CF
330
747D
100
AcDbEntity
  8
部品1
100
AcDbLine
 10
10067.04331423138
 20
3946.140807593541
 30
0.0
 11
9961.064451015397
 21
3950.376765173003
 31
0.0
  0
ARC
  5
155D0
330
747D
100
AcDbEntity
  8
部品1
100
AcDbCircle
 10
10066.24455533868
 20
3926.156764353218
 30
0.0
 40
19.99999999999334
100
AcDbArc
 50
40.5571249050827
 51
87.71111557794203
  0
LINE
  5
155D1
330
747D
100
AcDbEntity
  8
部品1
100
AcDbLine
 10
10121.73199404003
 20
3892.079818969481
 30
0.0
 11
10081.43971687034
 21
3939.160881625322
 31
0.0
  0
ARC
  5
155D2
330
747D
100
AcDbEntity
  8
部品1
100
AcDbCircle
 10
10119.45271981028
 20
3890.129201378672
 30
0.0
 40
2.999999999998155
100
AcDbArc
 50
359.9999999998176
 51
40.55712490492545
  0
LINE
  5
155D3
330
747D
100
AcDbEntity
  8
部品1
100
AcDbLine
 10
9953.067490803221
 20
3933.882684916798
 30
0.0
 11
9989.122057102104
 21
3891.753338695007
 31
0.0
  0
LINE
  5
155D4
330
747D
100
AcDbEntity
  8
部品1
100
AcDbLine
 10
10122.45271981028
 20
3884.112289752453
 30
0.0
 11
10122.45271981027
 21
3890.129201378664
 31
0.0
  0
LINE
  5
155D5
330
747D
100
AcDbEntity
  8
部品1
100
AcDbLine
 10
10122.45271981028
 20
3884.112289752453
 30
0.0
 11
10122.40119986171
 21
3884.114348996249
 31
0.0
  0
SPLINE
  5
155D6
330
747D
100
AcDbEntity
  8
部品1
100
AcDbSpline
210
0.0
220
0.0
230
1.0
 70
     8
 71
     3
 72
    11
 73
     7
 74
     0
 42
0.000000001
 43
0.0000000001
 40
0.0
 40
0.0
 40
0.0
 40
0.0
 40
0.0502701813548495
 40
0.0502701813548495
 40
0.0502701813548495
 40
0.0559553392065037
 40
0.0559553392065037
 40
0.0559553392065037
 40
0.0559553392065037
 10
10121.8449536723
 20
3884.036693275754
 30
0.0
 10
10121.84300469723
 20
3884.06714454029
 30
0.0
 10
10121.84212090838
 20
3884.097142119973
 30
0.0
 10
10121.84229934517
 20
3884.126680172429
 30
0.0
 10
10121.84231952495
 20
3884.130020691328
 30
0.0
 10
10121.8423532904
 20
3884.133355332959
 30
0.0
 10
10121.84240061341
 20
3884.136684109483
 30
0.0
  0
ARC
  5
155D7
330
747D
100
AcDbEntity
  8
部品1
100
AcDbCircle
 10
10122.84033711188
 20
3884.132671441048
 30
0.0
 40
1.000000000011771
100
AcDbArc
 50
185.5076218310824
 51
310.5571249035757
  0
LINE
  5
155D8
330
747D
100
AcDbEntity
  8
部品1
100
AcDbLine
 10
10123.59798949036
 20
3883.464866785074
 30
0.0
 11
10123.49054297548
 21
3883.372913364438
 31
0.0
  0
ARC
  5
155D9
330
747D
100
AcDbEntity
  8
部品1
100
AcDbCircle
 10
10282.07011794682
 20
3698.431828606203
 30
0.0
 40
3.000000000001078
100
AcDbArc
 50
134.0144086829467
 51
179.9999999999739
  0
LINE
  5
155DA
330
747D
100
AcDbEntity
  8
部品1
100
AcDbLine
 10
10263.77011790996
 20
3566.354674121937
 30
0.0
 11
9989.247670111062
 21
3887.130998349555
 31
0.0
  0
LINE
  5
155DB
330
747D
100
AcDbEntity
  8
部品1
100
AcDbLine
 10
10125.35303064726
 20
3884.966842330003
 30
0.0
 11
10123.59798949036
 21
3883.464866785074
 31
0.0
  0
LINE
  5
155DC
330
747D
100
AcDbEntity
  8
部品1
100
AcDbLine
 10
10125.35303064726
 20
3884.966842330003
 30
0.0
 11
10281.87049041441
 21
3702.077989982568
 31
0.0
  0
ARC
  5
155DD
330
747D
100
AcDbEntity
  8
細線
100
AcDbCircle
 10
10055.98204013109
 20
3863.750746864061
 30
0.0
 40
2.999999999999984
100
AcDbArc
 50
40.5571249050827
 51
87.71111557877643
  0
ARC
  5
155DE
330
747D
100
AcDbEntity
  8
細線
100
AcDbCircle
 10
10098.22964221129
 20
3862.062117218961
 30
0.0
 40
3.000000000000087
100
AcDbArc
 50
87.71111557877643
 51
220.5571249050827
  0
LINE
  5
155DF
330
747D
100
AcDbEntity
  8
細線
100
AcDbLine
 10
10262.14939210285
 20
3627.460489596334
 30
0.0
 11
10058.26131436083
 21
3865.701364454876
 31
0.0
  0
LINE
  5
155E0
330
747D
100
AcDbEntity
  8
細線
100
AcDbLine
 10
10106.52641128648
 20
3864.7328921608
 30
0.0
 11
10098.34945604515
 21
3865.059723705013
 31
0.0
  0
ARC
  5
155E1
330
747D
100
AcDbEntity
  8
細線
100
AcDbCircle
 10
10047.80508488976
 20
3864.077578408273
 30
0.0
 40
3.000000000000184
100
AcDbArc
 50
87.71111557877643
 51
220.5571249050827
  0
ARC
  5
155E2
330
747D
100
AcDbEntity
  8
細線
100
AcDbCircle
 10
10106.40659745262
 20
3861.735285674749
 30
0.0
 40
3.000000000000184
100
AcDbArc
 50
40.5571249050827
 51
87.71111557877643
  0
LINE
  5
155E3
330
747D
100
AcDbEntity
  8
細線
100
AcDbLine
 10
10045.52581066001
 20
3862.126960817457
 30
0.0
 11
10257.59084364335
 21
3614.331407765135
 31
0.0
  0
ARC
  5
155E4
330
747D
100
AcDbEntity
  8
細線
100
AcDbCircle
 10
10259.8701178731
 20
3625.509872005519
 30
0.0
 40
3.000000000000113
100
AcDbArc
 50
0.0
 51
40.5571249050827
  0
LINE
  5
155E5
330
747D
100
AcDbEntity
  8
細線
100
AcDbLine
 10
10262.14939210285
 20
3684.365543935336
 30
0.0
 11
10108.68587168237
 21
3863.685903265566
 31
0.0
  0
LINE
  5
155E6
330
747D
100
AcDbEntity
  8
細線
100
AcDbLine
 10
10262.8701178731
 20
3616.28202535595
 30
0.0
 11
10262.8701178731
 21
3625.509872005519
 31
0.0
  0
LINE
  5
155E7
330
747D
100
AcDbEntity
  8
細線
100
AcDbLine
 10
10095.95036798154
 20
3860.111499628146
 30
0.0
 11
10257.59084364335
 21
3671.236462104135
 31
0.0
  0
ARC
  5
155E8
330
747D
100
AcDbEntity
  8
細線
100
AcDbCircle
 10
10259.8701178731
 20
3673.187079694952
 30
0.0
 40
3.000000000000076
100
AcDbArc
 50
220.5571249050827
 51
0.0
  0
ARC
  5
155E9
330
747D
100
AcDbEntity
  8
細線
100
AcDbCircle
 10
10259.8701178731
 20
3682.414926344519
 30
0.0
 40
2.999999999999971
100
AcDbArc
 50
0.0
 51
40.5571249050827
  0
LINE
  5
155EA
330
747D
100
AcDbEntity
  8
細線
100
AcDbLine
 10
10056.10185396495
 20
3866.748353350112
 30
0.0
 11
10047.92489872362
 21
3867.075184894324
 31
0.0
  0
ARC
  5
155EB
330
747D
100
AcDbEntity
  8
細線
100
AcDbCircle
 10
10259.8701178731
 20
3616.28202535595
 30
0.0
 40
3.000000000000113
100
AcDbArc
 50
220.5571249050827
 51
0.0
  0
LINE
  5
155EC
330
747D
100
AcDbEntity
  8
細線
100
AcDbLine
 10
10262.8701178731
 20
3673.187079694952
 30
0.0
 11
10262.8701178731
 21
3682.414926344519
 31
0.0
  0
LINE
  5
155ED
330
747D
100
AcDbEntity
  8
部品1
100
AcDbLine
 10
9989.247670111062
 20
3887.130998349555
 30
0.0
 11
9989.227125075897
 21
3887.155004986949
 31
0.0
  0
LINE
  5
155EE
330
747D
100
AcDbEntity
  8
部品1
100
AcDbLine
 10
9988.530636684936
 20
3887.968843664664
 30
0.0
 11
9990.201019740235
 21
3889.398368260055
 31
0.0
  0
LINE
  5
155EF
330
747D
100
AcDbEntity
  8
部品1
100
AcDbLine
 10
9989.227125075897
 20
3887.155004986949
 30
0.0
 11
9988.530636684936
 21
3887.968843664664
 31
0.0
  0
LINE
  5
155F0
330
747D
100
AcDbEntity
  8
部品1
100
AcDbLine
 10
10280.36063668624
 20
3546.968843663432
 30
0.0
 11
10282.07011777243
 21
3548.431828605902
 31
0.0
  0
LINE
  5
155F1
330
747D
100
AcDbEntity
  8
部品1
100
AcDbLine
 10
10280.36063668624
 20
3546.968843663432
 30
0.0
 11
10279.1086047336
 21
3548.431828606203
 31
0.0
  0
LINE
  5
155F2
330
747D
100
AcDbEntity
  8
部品1
100
AcDbLine
 10
10375.9701178731
 20
3698.431828606203
 30
0.0
 11
10373.6601178731
 21
3698.431828606203
 31
0.0
  0
ARC
  5
155F3
330
747D
100
AcDbEntity
  8
部品1
100
AcDbCircle
 10
10580.58341997573
 20
3905.120747431037
 30
0.0
 40
19.99999999999973
100
AcDbArc
 50
87.71111557804633
 51
139.4428750949173
  0
LINE
  5
155F4
330
747D
100
AcDbEntity
  8
部品1
100
AcDbLine
 10
10581.38217886839
 20
3925.104790671367
 30
0.0
 11
10673.31960335799
 21
3921.430067068365
 31
0.0
  0
ARC
  5
155F5
330
747D
100
AcDbEntity
  8
部品1
100
AcDbCircle
 10
10672.92022391166
 20
3911.438045448208
 30
0.0
 40
9.999999999995324
100
AcDbArc
 50
317.4108945522052
 51
87.71111557804633
  0
LINE
  5
155F6
330
747D
100
AcDbEntity
  8
部品1
100
AcDbLine
 10
10680.28248170105
 20
3904.670685531486
 30
0.0
 11
10644.36942973045
 21
3865.600627212554
 31
0.0
  0
LINE
  5
155F7
330
747D
100
AcDbEntity
  8
部品1
100
AcDbLine
 10
10565.38825844407
 20
3918.124864703144
 30
0.0
 11
10522.66241119145
 21
3868.200203382752
 31
0.0
  0
SPLINE
  5
155F8
330
747D
100
AcDbEntity
  8
部品1
100
AcDbSpline
210
0.0
220
0.0
230
1.0
 70
     8
 71
     3
 72
     8
 73
     4
 74
     0
 42
0.000000001
 43
0.0000000001
 40
0.0
 40
0.0
 40
0.0
 40
0.0
 40
0.1419610605075158
 40
0.1419610605075158
 40
0.1419610605075158
 40
0.1419610605075158
 10
10644.36942973045
 20
3865.600627212554
 30
0.0
 10
10644.34510449268
 20
3865.514143322347
 30
0.0
 10
10644.3207822047
 20
3865.427678881338
 30
0.0
 10
10644.29648393512
 20
3865.341778821497
 30
0.0
  0
LINE
  5
155F9
330
747D
100
AcDbEntity
  8
部品1
100
AcDbLine
 10
10523.67840033735
 20
3868.159203394574
 30
0.0
 11
10643.85697984679
 21
3863.309426840473
 31
0.0
  0
LINE
  5
155FA
330
747D
100
AcDbEntity
  8
部品1
100
AcDbLine
 10
10644.29653074283
 20
3865.342938727377
 30
0.0
 11
10644.21388765217
 21
3863.295023915146
 31
0.0
  0
LINE
  5
155FB
330
747D
100
AcDbEntity
  8
部品1
100
AcDbLine
 10
10644.21388765217
 20
3863.295023915146
 30
0.0
 11
10643.85697984679
 21
3863.309426840473
 31
0.0
  0
LINE
  5
155FC
330
747D
100
AcDbEntity
  8
部品1
100
AcDbLine
 10
10520.23096557361
 20
3870.600195783159
 30
0.0
 11
10520.13822513164
 21
3868.302066280624
 31
0.0
  0
LINE
  5
155FD
330
747D
100
AcDbEntity
  8
部品1
100
AcDbLine
 10
10523.67840033735
 20
3868.159203394574
 30
0.0
 11
10520.13822513164
 21
3868.302066280624
 31
0.0
  0
LINE
  5
155FE
330
747D
100
AcDbEntity
  8
部品1
100
AcDbLine
 10
10524.56660514938
 20
3870.425232131172
 30
0.0
 11
10520.23096557361
 21
3870.600195783159
 31
0.0
  0
ARC
  5
155FF
330
747D
100
AcDbEntity
  8
部品1
100
AcDbCircle
 10
10374.4701178731
 20
3698.431828606206
 30
0.0
 40
3.000000000000086
100
AcDbArc
 50
359.999999999974
 51
47.39739526192024
  0
ARC
  5
15600
330
747D
100
AcDbEntity
  8
部品1
100
AcDbCircle
 10
10520.40011786908
 20
3868.631828606449
 30
0.0
 40
1.800000000007715
100
AcDbArc
 50
229.4580329478141
 51
346.7993931776425
  0
ARC
  5
15601
330
747D
100
AcDbEntity
  8
部品1
100
AcDbCircle
 10
10644.30011787171
 20
3863.631828606876
 30
0.0
 40
1.800000000000023
100
AcDbArc
 50
188.9016199670775
 51
227.5933020675286
  0
LINE
  5
15602
330
747D
100
AcDbEntity
  8
部品1
100
AcDbLine
 10
10645.02169892343
 20
3861.011550098812
 30
0.0
 11
10392.77011790996
 21
3566.351818361948
 31
0.0
  0
LINE
  5
15603
330
747D
100
AcDbEntity
  8
部品1
100
AcDbLine
 10
10374.65464781223
 20
3702.035520726449
 30
0.0
 11
10517.42541382516
 21
3868.808689973665
 31
0.0
  0
ARC
  5
15604
330
747D
100
AcDbEntity
  8
細線
100
AcDbCircle
 10
10592.61751259563
 20
3845.159203394574
 30
0.0
 40
3.000000000000113
100
AcDbArc
 50
319.433910289159
 51
90.0
  0
LINE
  5
15605
330
747D
100
AcDbEntity
  8
細線
100
AcDbLine
 10
10401.25908687083
 20
3617.016811275503
 30
0.0
 11
10594.89648159337
 21
3843.208229200134
 31
0.0
  0
ARC
  5
15606
330
747D
100
AcDbEntity
  8
細線
100
AcDbCircle
 10
10587.94135448568
 20
3838.159203394574
 30
0.0
 40
10.0
100
AcDbArc
 50
90.0
 51
139.433910289159
  0
LINE
  5
15607
330
747D
100
AcDbEntity
  8
細線
100
AcDbLine
 10
10580.3447911599
 20
3844.662450709371
 30
0.0
 11
10396.70114887537
 21
3630.14491962657
 31
0.0
  0
ARC
  5
15608
330
747D
100
AcDbEntity
  8
細線
100
AcDbCircle
 10
10543.91127740315
 20
3845.159203394574
 30
0.0
 40
3.000000000000113
100
AcDbArc
 50
319.433910289159
 51
90.0
  0
LINE
  5
15609
330
747D
100
AcDbEntity
  8
細線
100
AcDbLine
 10
10401.25908687083
 20
3673.911464375669
 30
0.0
 11
10546.19024640088
 21
3843.208229200134
 31
0.0
  0
LINE
  5
1560A
330
747D
100
AcDbEntity
  8
細線
100
AcDbLine
 10
10395.9801178731
 20
3628.193945432131
 30
0.0
 11
10395.9801178731
 21
3618.967785469942
 31
0.0
  0
ARC
  5
1560B
330
747D
100
AcDbEntity
  8
細線
100
AcDbCircle
 10
10398.9801178731
 20
3675.862438570108
 30
0.0
 40
2.999999999999971
100
AcDbArc
 50
179.9999999999739
 51
319.433910289159
  0
LINE
  5
1560C
330
747D
100
AcDbEntity
  8
細線
100
AcDbLine
 10
10543.91127740315
 20
3848.159203394574
 30
0.0
 11
10539.2351192932
 21
3848.159203394574
 31
0.0
  0
ARC
  5
1560D
330
747D
100
AcDbEntity
  8
細線
100
AcDbCircle
 10
10539.2351192932
 20
3838.159203394574
 30
0.0
 40
10.0
100
AcDbArc
 50
90.0
 51
139.433910289159
  0
LINE
  5
1560E
330
747D
100
AcDbEntity
  8
細線
100
AcDbLine
 10
10395.9801178731
 20
3685.088598532297
 30
0.0
 11
10395.9801178731
 21
3675.862438570108
 31
0.0
  0
LINE
  5
1560F
330
747D
100
AcDbEntity
  8
細線
100
AcDbLine
 10
10531.63855596742
 20
3844.662450709371
 30
0.0
 11
10396.70114887537
 21
3687.039572726736
 31
0.0
  0
ARC
  5
15610
330
747D
100
AcDbEntity
  8
細線
100
AcDbCircle
 10
10398.9801178731
 20
3685.088598532297
 30
0.0
 40
2.99999999999998
100
AcDbArc
 50
139.433910289159
 51
180.0
  0
ARC
  5
15611
330
747D
100
AcDbEntity
  8
細線
100
AcDbCircle
 10
10398.9801178731
 20
3628.193945432131
 30
0.0
 40
2.99999999999998
100
AcDbArc
 50
139.433910289159
 51
180.0
  0
ARC
  5
15612
330
747D
100
AcDbEntity
  8
細線
100
AcDbCircle
 10
10398.9801178731
 20
3618.967785469941
 30
0.0
 40
2.999999999999971
100
AcDbArc
 50
179.9999999999739
 51
319.433910289159
  0
LINE
  5
15613
330
747D
100
AcDbEntity
  8
細線
100
AcDbLine
 10
10592.61751259563
 20
3848.159203394574
 30
0.0
 11
10587.94135448568
 21
3848.159203394574
 31
0.0
  0
LINE
  5
15614
330
747D
100
AcDbEntity
  8
部品1
100
AcDbLine
 10
10376.69830210356
 20
3547.578033416723
 30
0.0
 11
10377.42921699695
 21
3548.431828606203
 31
0.0
  0
LINE
  5
15615
330
747D
100
AcDbEntity
  8
部品1
100
AcDbLine
 10
10375.70096817018
 20
3548.431828606207
 30
0.0
 11
10376.69830210356
 21
3547.578033416723
 31
0.0
  0
LINE
  5
15616
330
747D
100
AcDbEntity
  8
部品1
100
AcDbLine
 10
10644.26397846468
 20
3863.663137485417
 30
0.0
 11
10646.01118802961
 21
3862.167390603014
 31
0.0
  0
LINE
  5
15617
330
747D
100
AcDbEntity
  8
部品1
100
AcDbLine
 10
10645.02169892343
 20
3861.011550098812
 30
0.0
 11
10646.01118802961
 21
3862.167390603014
 31
0.0
  0
LINE
  5
15618
330
747D
100
AcDbEntity
  8
部品1
100
AcDbLine
 10
10643.09459689974
 20
3862.297161276904
 30
0.0
 11
10643.95769532555
 21
3863.305362492488
 31
0.0
  0
LINE
  5
15619
330
747D
100
AcDbEntity
  8
部品1
100
AcDbLine
 10
10644.22699963344
 20
3863.61994182952
 30
0.0
 11
10644.26397846468
 21
3863.663137485417
 31
0.0
  0
LINE
  5
1561A
330
747D
100
AcDbEntity
  8
部品1
100
AcDbLine
 10
10644.265408321
 20
3863.664807727002
 30
0.0
 11
10646.01261788593
 21
3862.169060844598
 31
0.0
  0
LINE
  5
1561B
330
747D
100
AcDbEntity
  8
部品1
100
AcDbLine
 10
10646.01118802961
 20
3862.167390603014
 30
0.0
 11
10646.01261788593
 21
3862.169060844598
 31
0.0
  0
LINE
  5
1561C
330
747D
100
AcDbEntity
  8
部品1
100
AcDbLine
 10
10644.26397846468
 20
3863.663137485417
 30
0.0
 11
10644.265408321
 21
3863.664807727002
 31
0.0
  0
LINE
  5
1561D
330
747D
100
AcDbEntity
  8
部品1
 48
2.0
100
AcDbLine
 10
10278.27011790996
 20
3548.431828606203
 30
0.0
 11
10263.77011790996
 21
3564.931828606204
 31
0.0
  0
LINE
  5
1561E
330
747D
100
AcDbEntity
  8
部品1
 48
2.0
100
AcDbLine
 10
10378.27011790996
 20
3548.431828606203
 30
0.0
 11
10392.77011790996
 21
3564.931828606204
 31
0.0
  0
LINE
  5
1561F
330
747D
100
AcDbEntity
  8
部品1
 48
2.0
100
AcDbLine
 10
10378.27011790996
 20
3698.431828606203
 30
0.0
 11
10378.27011790996
 21
3548.431828606203
 31
0.0
  0
LINE
  5
15620
330
747D
100
AcDbEntity
  8
部品1
 48
2.0
100
AcDbLine
 10
10278.27011790996
 20
3548.431828606203
 30
0.0
 11
10278.27011790996
 21
3698.431828606203
 31
0.0
  0
LINE
  5
15621
330
747D
100
AcDbEntity
  8
部品1
 48
2.0
100
AcDbLine
 10
10278.27011790996
 20
3548.431828606203
 30
0.0
 11
10378.27011790996
 21
3548.431828606203
 31
0.0
  0
LINE
  5
15622
330
747D
100
AcDbEntity
  8
部品1
 48
2.0
100
AcDbLine
 10
10267.77011790996
 20
3698.431828606203
 30
0.0
 11
10388.77011790996
 21
3698.431828606203
 31
0.0
  0
LINE
  5
15623
330
747D
100
AcDbEntity
  8
部品1
 48
2.0
100
AcDbLine
 10
10263.77011790996
 20
3564.931828606204
 30
0.0
 11
10263.77011790996
 21
3694.431828606204
 31
0.0
  0
LINE
  5
15624
330
747D
100
AcDbEntity
  8
部品1
 48
2.0
100
AcDbLine
 10
10392.77011790996
 20
3694.431828606204
 30
0.0
 11
10392.77011790996
 21
3564.931828606204
 31
0.0
  0
ARC
  5
15625
330
747D
100
AcDbEntity
  8
部品1
 48
2.0
100
AcDbCircle
 10
10388.77011790996
 20
3694.431828606204
 30
0.0
 40
4.0
100
AcDbArc
 50
0.0
 51
90.0
  0
ARC
  5
15626
330
747D
100
AcDbEntity
  8
部品1
 48
2.0
100
AcDbCircle
 10
10267.77011790996
 20
3694.431828606204
 30
0.0
 40
4.0
100
AcDbArc
 50
90.0
 51
180.0
  0
CIRCLE
  5
15627
330
747D
100
AcDbEntity
  8
細線
 48
50.0
100
AcDbCircle
 10
10015.77011794682
 20
3920.931828605903
 30
0.0
 40
9.0
  0
LWPOLYLINE
  5
15628
330
747D
100
AcDbEntity
  8
細線
 48
50.0
100
AcDbPolyline
 90
        6
 70
     1
 43
0.0
 10
10009.27011794682
 20
3917.179051856172
 10
10015.77011794682
 20
3913.42627510644
 10
10022.27011794682
 20
3917.179051856172
 10
10022.27011794682
 20
3924.684605355637
 10
10015.77011794682
 20
3928.437382105368
 10
10009.27011794682
 20
3924.684605355637
  0
CIRCLE
  5
15629
330
747D
100
AcDbEntity
  8
細線
 48
50.0
100
AcDbCircle
 10
10075.77011794682
 20
3918.531828605902
 30
0.0
 40
9.0
  0
LWPOLYLINE
  5
1562A
330
747D
100
AcDbEntity
  8
細線
 48
50.0
100
AcDbPolyline
 90
        6
 70
     1
 43
0.0
 10
10069.27011794682
 20
3914.779051856172
 10
10075.77011794682
 20
3911.026275106439
 10
10082.27011794682
 20
3914.779051856172
 10
10082.27011794682
 20
3922.284605355636
 10
10075.77011794682
 20
3926.037382105369
 10
10069.27011794682
 20
3922.284605355636
  0
CIRCLE
  5
1562B
330
747D
100
AcDbEntity
  8
細線
 48
50.0
100
AcDbCircle
 10
10580.7701178731
 20
3898.331828606208
 30
0.0
 40
9.0
  0
LWPOLYLINE
  5
1562C
330
747D
100
AcDbEntity
  8
細線
 48
50.0
100
AcDbPolyline
 90
        6
 70
     1
 43
0.0
 10
10574.2701178731
 20
3894.579051856477
 10
10580.7701178731
 20
3890.826275106745
 10
10587.2701178731
 20
3894.579051856477
 10
10587.2701178731
 20
3902.084605355942
 10
10580.7701178731
 20
3905.837382105674
 10
10574.2701178731
 20
3902.084605355942
  0
CIRCLE
  5
1562D
330
747D
100
AcDbEntity
  8
細線
 48
50.0
100
AcDbCircle
 10
10640.7701178731
 20
3895.931828606207
 30
0.0
 40
9.0
  0
LWPOLYLINE
  5
1562E
330
747D
100
AcDbEntity
  8
細線
 48
50.0
100
AcDbPolyline
 90
        6
 70
     1
 43
0.0
 10
10634.2701178731
 20
3892.179051856477
 10
10640.7701178731
 20
3888.426275106745
 10
10647.2701178731
 20
3892.179051856477
 10
10647.2701178731
 20
3899.684605355941
 10
10640.7701178731
 20
3903.437382105673
 10
10634.2701178731
 20
3899.684605355941
  0
CIRCLE
  5
1562F
330
747D
100
AcDbEntity
  8
細線
 48
50.0
100
AcDbCircle
 10
10328.27011790996
 20
3680.431828606204
 30
0.0
 40
9.0
  0
LWPOLYLINE
  5
15630
330
747D
100
AcDbEntity
  8
細線
 48
50.0
100
AcDbPolyline
 90
        6
 70
     1
 43
0.0
 10
10321.77011790996
 20
3676.679051856473
 10
10328.27011790996
 20
3672.926275106741
 10
10334.77011790996
 20
3676.679051856473
 10
10334.77011790996
 20
3684.184605355937
 10
10328.27011790996
 20
3687.93738210567
 10
10321.77011790996
 20
3684.184605355937
  0
CIRCLE
  5
15631
330
747D
100
AcDbEntity
  8
細線
 48
50.0
100
AcDbCircle
 10
10328.27011790996
 20
3623.431828606204
 30
0.0
 40
9.0
  0
LWPOLYLINE
  5
15632
330
747D
100
AcDbEntity
  8
細線
 48
50.0
100
AcDbPolyline
 90
        6
 70
     1
 43
0.0
 10
10321.77011790996
 20
3619.679051856473
 10
10328.27011790996
 20
3615.926275106741
 10
10334.77011790996
 20
3619.679051856473
 10
10334.77011790996
 20
3627.184605355938
 10
10328.27011790996
 20
3630.93738210567
 10
10321.77011790996
 20
3627.184605355938
  0
CIRCLE
  5
15633
330
747D
100
AcDbEntity
  8
細線
 48
50.0
100
AcDbCircle
 10
10328.27011790996
 20
3566.431828606204
 30
0.0
 40
9.0
  0
LWPOLYLINE
  5
15634
330
747D
100
AcDbEntity
  8
細線
 48
50.0
100
AcDbPolyline
 90
        6
 70
     1
 43
0.0
 10
10321.77011790996
 20
3562.679051856473
 10
10328.27011790996
 20
3558.926275106741
 10
10334.77011790996
 20
3562.679051856473
 10
10334.77011790996
 20
3570.184605355938
 10
10328.27011790996
 20
3573.93738210567
 10
10321.77011790996
 20
3570.184605355938
  0
LINE
  5
15635
330
747D
100
AcDbEntity
  8
部品1
 48
50.0
100
AcDbLine
 10
9989.122057102104
 20
3891.753338695007
 30
0.0
 11
9989.797543036381
 21
3889.519107301173
 31
0.0
  0
LINE
  5
15636
330
747D
100
AcDbEntity
  8
部品1
 48
50.0
100
AcDbLine
 10
9989.797543036381
 20
3889.519107301173
 30
0.0
 11
9989.801199861727
 21
3889.414348994259
 31
0.0
  0
LINE
  5
15637
330
747D
100
AcDbEntity
  8
部品1
 48
50.0
100
AcDbLine
 10
9991.737115526238
 20
3889.336970766371
 30
0.0
 11
9989.247670111062
 21
3887.130998349555
 31
0.0
  0
LINE
  5
15638
330
747D
100
AcDbEntity
  8
部品1
 48
50.0
100
AcDbLine
 10
10517.42541382516
 20
3868.808689973665
 30
0.0
 11
10519.23010915081
 21
3867.263954489727
 31
0.0
  0
LINE
  5
15639
330
747D
100
AcDbEntity
  8
部品1
 48
50.0
100
AcDbLine
 10
10645.02169892343
 20
3861.011550098812
 30
0.0
 11
10643.08621819529
 21
3862.302750890723
 31
0.0
  0
LINE
  5
1563A
330
747D
100
AcDbEntity
  8
部品1
 48
50.0
100
AcDbLine
 10
10374.65464781223
 20
3702.035520726449
 30
0.0
 11
10376.50084617174
 21
3700.640027550389
 31
0.0
  0
LINE
  5
1563B
330
747D
100
AcDbEntity
  8
部品1
 48
50.0
100
AcDbLine
 10
10279.98560020487
 20
3700.589323863095
 30
0.0
 11
10281.87049041441
 21
3702.077989982568
 31
0.0
  0
TEXT
  5
1572E
330
747D
100
AcDbEntity
  8
部品1
 48
50.0
100
AcDbText
 10
217.0770499399059
 20
1841.914348049037
 30
0.0
 40
100.0
  1
▽G.L
  7
STYLE2
100
AcDbText
  0
ENDSEC
  0
SECTION
  2
OBJECTS
  0
DICTIONARY
  5
7471
330
0
100
AcDbDictionary
281
     1
  3
ACAD_CIP_PREVIOUS_PRODUCT_INFO
350
148B3
  3
ACAD_COLOR
350
146ED
  3
ACAD_DETAILVIEWSTYLE
350
148AA
  3
ACAD_GROUP
350
7472
  3
ACAD_LAYOUT
350
146EE
  3
ACAD_MATERIAL
350
146EC
  3
ACAD_MLEADERSTYLE
350
148A6
  3
ACAD_MLINESTYLE
350
7473
  3
ACAD_PLOTSETTINGS
350
146EF
  3
ACAD_PLOTSTYLENAME
350
146EA
  3
ACAD_SCALELIST
350
14894
  3
ACAD_SECTIONVIEWSTYLE
350
148A8
  3
ACAD_TABLESTYLE
350
14892
  3
ACAD_VISUALSTYLE
350
14879
  3
ACDB_RECOMPOSE_DATA
350
1574F
  3
AcDbVariableDictionary
350
14F51
  3
AcDsDecomposeData
350
15756
  3
CONTENTDICTIONARY
350
E71C
  3
DRAWINGVARIABLESDICT
350
F3B9
  3
DWGPROPS
350
15750
  0
DICTIONARY
  5
146F9
330
7467
100
AcDbDictionary
280
     1
281
     1
  3
ACAD_LAYERFILTERS
360
147A3
  3
ACAD_LAYERSTATES
360
146FA
  0
DICTIONARY
  5
14F38
330
7474
100
AcDbDictionary
280
     1
281
     1
  3
ADSK_XREC_LAYER_RECONCILED
360
14F39
  0
DICTIONARY
  5
14F3A
330
DEB2
100
AcDbDictionary
280
     1
281
     1
  3
ADSK_XREC_LAYER_RECONCILED
360
14F3B
  0
DICTIONARY
  5
14F3C
330
DEB3
100
AcDbDictionary
280
     1
281
     1
  3
ADSK_XREC_LAYER_RECONCILED
360
14F3D
  0
DICTIONARY
  5
14F3E
330
DEB4
100
AcDbDictionary
280
     1
281
     1
  3
ADSK_XREC_LAYER_RECONCILED
360
14F3F
  0
DICTIONARY
  5
14F40
330
DEB5
100
AcDbDictionary
280
     1
281
     1
  3
ADSK_XREC_LAYER_RECONCILED
360
14F41
  0
DICTIONARY
  5
14F42
330
DEB6
100
AcDbDictionary
280
     1
281
     1
  3
ADSK_XREC_LAYER_RECONCILED
360
14F43
  0
DICTIONARY
  5
14F44
330
10B54
100
AcDbDictionary
280
     1
281
     1
  3
ADSK_XREC_LAYER_RECONCILED
360
14F45
  0
DICTIONARY
  5
14F46
330
11729
100
AcDbDictionary
280
     1
281
     1
  3
ADSK_XREC_LAYER_RECONCILED
360
14F47
  0
DICTIONARY
  5
14F48
330
1173F
100
AcDbDictionary
280
     1
281
     1
  3
ADSK_XREC_LAYER_RECONCILED
360
14F49
  0
DICTIONARY
  5
14F4A
330
11740
100
AcDbDictionary
280
     1
281
     1
  3
ADSK_XREC_LAYER_RECONCILED
360
14F4B
  0
DICTIONARY
  5
153FF
330
747D
100
AcDbDictionary
280
     1
281
     1
  3
ACAD_SORTENTS
360
15400
  0
XRECORD
  5
148B3
102
{ACAD_REACTORS
330
7471
102
}
330
7471
100
AcDbXrecord
280
     1
300
ACDLT
300
2014
300
ACDLT_F_S
  0
DICTIONARY
  5
146ED
102
{ACAD_REACTORS
330
7471
102
}
330
7471
100
AcDbDictionary
281
     1
  0
DICTIONARY
  5
148AA
102
{ACAD_REACTORS
330
7471
102
}
330
7471
100
AcDbDictionary
281
     1
  3
Metric50
350
148AB
  0
DICTIONARY
  5
7472
102
{ACAD_REACTORS
330
7471
102
}
330
7471
100
AcDbDictionary
281
     1
  0
DICTIONARY
  5
146EE
102
{ACAD_REACTORS
330
7471
102
}
330
7471
100
AcDbDictionary
281
     1
  3
Model
350
146F0
  3
レイアウト1
350
146F1
  0
DICTIONARY
  5
146EC
102
{ACAD_REACTORS
330
7471
102
}
330
7471
100
AcDbDictionary
281
     1
  3
ByBlock
350
14869
  3
ByLayer
350
14861
  3
Global
350
14871
  0
DICTIONARY
  5
148A6
102
{ACAD_REACTORS
330
7471
102
}
330
7471
100
AcDbDictionary
281
     1
  3
Standard
350
148A7
  0
DICTIONARY
  5
7473
102
{ACAD_REACTORS
330
7471
102
}
330
7471
100
AcDbDictionary
281
     1
  3
STANDARD
350
7480
  0
DICTIONARY
  5
146EF
102
{ACAD_REACTORS
330
7471
102
}
330
7471
100
AcDbDictionary
281
     1
  0
ACDBDICTIONARYWDFLT
  5
146EA
102
{ACAD_REACTORS
330
7471
102
}
330
7471
100
AcDbDictionary
281
     1
  3
Normal
350
146EB
100
AcDbDictionaryWithDefault
340
146EB
  0
DICTIONARY
  5
14894
102
{ACAD_REACTORS
330
7471
102
}
330
7471
100
AcDbDictionary
281
     1
  3
A0
350
14895
  3
A1
350
14896
  3
A2
350
14897
  3
A3
350
14898
  3
A4
350
14899
  3
A5
350
1489A
  3
A6
350
1489B
  3
A7
350
1489C
  3
A8
350
1489D
  3
A9
350
1489E
  3
B0
350
1489F
  3
B1
350
148A0
  3
B2
350
148A1
  3
B3
350
148A2
  3
B4
350
148A3
  3
B5
350
148A4
  3
B6
350
148A5
  0
DICTIONARY
  5
148A8
102
{ACAD_REACTORS
330
7471
102
}
330
7471
100
AcDbDictionary
281
     1
  3
Metric50
350
148A9
  0
DICTIONARY
  5
14892
102
{ACAD_REACTORS
330
7471
102
}
330
7471
100
AcDbDictionary
281
     1
  3
Standard
350
14893
  0
DICTIONARY
  5
14879
102
{ACAD_REACTORS
330
7471
102
}
330
7471
100
AcDbDictionary
281
     1
  3
2dWireframe
350
1487F
  3
Basic
350
1487E
  3
Brighten
350
14885
  3
ColorChange
350
14889
  3
Conceptual
350
14882
  3
Dim
350
14884
  3
EdgeColorOff
350
14891
  3
Facepattern
350
14888
  3
Flat
350
1487A
  3
FlatWithEdges
350
1487B
  3
Gouraud
350
1487C
  3
GouraudWithEdges
350
1487D
  3
Hidden
350
14881
  3
JitterOff
350
1488F
  3
Linepattern
350
14887
  3
OverhangOff
350
14890
  3
Realistic
350
14883
  3
Shaded
350
1488E
  3
Shaded with edges
350
1488D
  3
Shades of Gray
350
1488A
  3
Sketchy
350
1488B
  3
Thicken
350
14886
  3
Wireframe
350
14880
  3
X-Ray
350
1488C
  0
XRECORD
  5
1574F
102
{ACAD_REACTORS
330
7471
102
}
330
7471
100
AcDbXrecord
280
     1
 90
        1
330
14893
  0
DICTIONARY
  5
14F51
102
{ACAD_REACTORS
330
7471
102
}
330
7471
100
AcDbDictionary
281
     1
  3
CANNOSCALE
350
14F57
  3
CMLEADERSTYLE
350
14F53
  3
CTABLESTYLE
350
14F52
  3
CVIEWDETAILSTYLE
350
14F54
  3
CVIEWSECTIONSTYLE
350
14F55
  3
DIMASSOC
350
1574C
  3
INDEXCTL
350
1574A
  3
LAYEREVAL
350
14F59
  3
LAYERNOTIFY
350
14F5A
  3
LIGHTINGUNITS
350
14F58
  3
MSLTSCALE
350
14F56
  3
SORTENTS
350
15749
  3
XCLIPFRAME
350
1574B
  0
DICTIONARY
  5
15756
102
{ACAD_REACTORS
330
7471
102
}
330
7471
100
AcDbDictionary
281
     1
  3
AcDsRecords
350
15758
  3
AcDsSchemas
350
15757
1001
ACAD
1070
     2
  0
DICTIONARY
  5
E71C
102
{ACAD_REACTORS
330
7471
102
}
330
7471
100
AcDbDictionary
281
     1
  0
DICTIONARY
  5
F3B9
102
{ACAD_REACTORS
330
7471
102
}
330
7471
100
AcDbDictionary
281
     1
1001
DRAWINGVARIABLESXDATA
1000
POLARMODE
1000
1
  0
XRECORD
  5
15750
102
{ACAD_REACTORS
330
7471
102
}
330
7471
100
AcDbXrecord
280
     1
  1
DWGPROPS COOKIE
  2

  3

  4

  6

  7

  8
ishizaki
  9

300
=
301
=
302
=
303
=
304
=
305
=
306
=
307
=
308
=
309
=
 40
0.3010898611111111
 41
2451225.538602894
 42
2457326.720779398
  1

 90
        0
  0
DICTIONARY
  5
147A3
102
{ACAD_REACTORS
330
146F9
102
}
330
146F9
100
AcDbDictionary
281
     1
  0
DICTIONARY
  5
146FA
102
{ACAD_REACTORS
330
146F9
102
}
330
146F9
100
AcDbDictionary
281
     1
  0
XRECORD
  5
14F39
102
{ACAD_REACTORS
330
14F38
102
}
330
14F38
100
AcDbXrecord
280
     1
290
     1
  0
XRECORD
  5
14F3B
102
{ACAD_REACTORS
330
14F3A
102
}
330
14F3A
100
AcDbXrecord
280
     1
290
     1
  0
XRECORD
  5
14F3D
102
{ACAD_REACTORS
330
14F3C
102
}
330
14F3C
100
AcDbXrecord
280
     1
290
     1
  0
XRECORD
  5
14F3F
102
{ACAD_REACTORS
330
14F3E
102
}
330
14F3E
100
AcDbXrecord
280
     1
290
     1
  0
XRECORD
  5
14F41
102
{ACAD_REACTORS
330
14F40
102
}
330
14F40
100
AcDbXrecord
280
     1
290
     1
  0
XRECORD
  5
14F43
102
{ACAD_REACTORS
330
14F42
102
}
330
14F42
100
AcDbXrecord
280
     1
290
     1
  0
XRECORD
  5
14F45
102
{ACAD_REACTORS
330
14F44
102
}
330
14F44
100
AcDbXrecord
280
     1
290
     1
  0
XRECORD
  5
14F47
102
{ACAD_REACTORS
330
14F46
102
}
330
14F46
100
AcDbXrecord
280
     1
290
     1
  0
XRECORD
  5
14F49
102
{ACAD_REACTORS
330
14F48
102
}
330
14F48
100
AcDbXrecord
280
     1
290
     1
  0
XRECORD
  5
14F4B
102
{ACAD_REACTORS
330
14F4A
102
}
330
14F4A
100
AcDbXrecord
280
     1
290
     1
  0
SORTENTSTABLE
  5
15400
102
{ACAD_REACTORS
330
153FF
102
}
330
153FF
100
AcDbSortentsTable
330
747D
331
F235
  5
F235
331
13D70
  5
13D72
331
13CB1
  5
13CB5
331
14F0B
  5
14F0D
331
1484E
  5
14850
331
14B5C
  5
14B5E
331
15270
  5
15272
331
13D78
  5
13D7B
331
14F13
  5
14F15
331
13D80
  5
13D82
331
13A9A
  5
13A9C
331
145AE
  5
145DE
331
1474C
  5
1474E
331
14F1B
  5
14F1D
331
14B6C
  5
14B6E
331
147AB
  5
147AD
331
145DE
  5
145F6
331
14754
  5
14756
331
13D88
  5
13D90
331
13AA2
  5
13ADA
331
14B74
  5
14B76
331
153C7
  5
153E3
331
145F6
  5
145F9
331
1475C
  5
1475E
331
10B56
  5
10B56
331
13299
  5
132B1
331
10B5E
  5
10B5E
331
12FBA
  5
12FBB
331
132B1
  5
132B7
331
12F5B
  5
12F5C
331
12FC2
  5
12FC8
331
13CF1
  5
13CF3
331
13ADA
  5
13ADC
331
13D90
  5
13D92
331
14FEA
  5
14FEC
331
14F23
  5
14F25
331
14B7C
  5
14B7E
331
14764
  5
14766
331
13A63
  5
13A65
331
15112
  5
15114
331
14F2B
  5
14F2D
331
153F9
  5
153FB
331
14C84
  5
14D86
331
13DA0
  5
143B4
331
1476C
  5
1476E
331
1511A
  5
1511C
331
14F33
  5
14F35
331
15401
  5
12F57
331
15251
  5
1526F
331
14774
  5
14776
331
13C02
  5
13CB1
331
14F04
  5
14F06
331
15122
  5
15124
331
1477C
  5
1477E
331
12F6B
  5
12F6C
331
132C1
  5
132C3
331
132C9
  5
132CB
331
12F73
  5
12F7C
331
13A38
  5
13A3A
331
763F
  5
763F
331
13D71
  5
13D73
331
14F0C
  5
14F0E
331
14B5D
  5
14B62
331
1484F
  5
14851
331
15271
  5
152A5
331
145A7
  5
145A9
331
13D79
  5
13D7C
331
14745
  5
14747
331
14F14
  5
14F16
331
145AF
  5
145F5
331
13D81
  5
13D83
331
13A9B
  5
13A9D
331
1474D
  5
1474F
331
147A4
  5
147A6
331
14F1C
  5
14F1E
331
14B6D
  5
14B6F
331
147AC
  5
147AE
331
14755
  5
14757
331
14B75
  5
14B7B
331
145F7
  5
14682
331
1475D
  5
1475F
331
10B57
  5
10B57
331
12FBB
  5
12FBC
331
12F5C
  5
12F5D
331
153E2
  5
153F4
331
147B0
  5
147B4
331
13D91
  5
13D93
331
13ADB
  5
13ADD
331
13CF2
  5
13D4A
331
14FEB
  5
14FED
331
14F24
  5
14F26
331
14B7D
  5
14B7F
331
14765
  5
14767
331
13D4A
  5
13D4C
331
146A6
  5
14743
331
13A64
  5
13A66
331
15113
  5
15115
331
14F2C
  5
14F2E
331
153FA
  5
153FC
331
1476D
  5
1476F
331
1511B
  5
1511D
331
14F34
  5
14F36
331
15252
  5
15270
331
13C03
  5
13CB4
331
14775
  5
14777
331
13A74
  5
13A76
331
14F05
  5
14F07
331
15123
  5
15125
331
1477D
  5
1477F
331
12F6C
  5
12F6D
331
132C2
  5
132C4
331
13A39
  5
13A3B
331
12F7C
  5
12F86
331
13D72
  5
13D74
331
14F0D
  5
14F0F
331
14850
  5
14853
331
14B5E
  5
14B63
331
15272
  5
152A6
331
13CE3
  5
13CE5
331
13A94
  5
13A96
331
145A8
  5
145AA
331
14746
  5
14748
331
14F15
  5
14F17
331
147A5
  5
147A7
331
13D82
  5
13D84
331
13A9C
  5
13A9E
331
1474E
  5
14750
331
14F1D
  5
14F1F
331
14B6E
  5
14B70
331
14756
  5
14758
331
147AD
  5
147AF
331
14B76
  5
14B7C
331
1475E
  5
14760
331
12FB4
  5
12FB5
331
12FBC
  5
12FBD
331
12F5D
  5
12F6B
331
153E3
  5
153F5
331
147B1
  5
147B5
331
13CF3
  5
13D4B
331
13ADC
  5
13ADE
331
13D92
  5
13D94
331
13A5D
  5
13A5F
331
14FEC
  5
14FEE
331
14F25
  5
14F27
331
14B7E
  5
14C82
331
147B9
  5
147BB
331
14766
  5
14768
331
13D4B
  5
13D4D
331
13A65
  5
13A67
331
15114
  5
15116
331
14F2D
  5
14F2F
331
153FB
  5
153FD
331
13AEC
  5
13C03
331
1476E
  5
14770
331
13A6D
  5
13A75
331
1511C
  5
1511E
331
14EFE
  5
14F00
331
14F35
  5
14F37
331
13D6B
  5
13D6D
331
14776
  5
14778
331
13A75
  5
13A77
331
14F06
  5
14F08
331
15124
  5
15251
331
1477E
  5
14780
331
12F6D
  5
12F70
331
132C3
  5
132C5
331
1324C
  5
1324E
331
13A3A
  5
13A3C
331
13D73
  5
13D75
331
13CB4
  5
13CB7
331
14F0E
  5
14F10
331
14851
  5
14854
331
145A9
  5
145AB
331
13CE4
  5
13CE6
331
13A95
  5
13A97
331
13D7B
  5
13D7D
331
14747
  5
14749
331
14F16
  5
14F18
331
14B67
  5
14B69
331
1474F
  5
14751
331
13D83
  5
13D85
331
13A9D
  5
13AA1
331
147A6
  5
147A8
331
14F1E
  5
14F20
331
14B6F
  5
14B71
331
147AE
  5
147B0
331
14757
  5
14759
331
1475F
  5
14761
331
12FB5
  5
12FB6
331
12FBD
  5
12FBE
331
12F56
  5
12F56
331
13ADD
  5
13ADF
331
13D93
  5
13D95
331
145F9
  5
146A6
331
13A5E
  5
13A60
331
14FED
  5
15111
331
14F26
  5
14F28
331
14B7F
  5
14C83
331
153F4
  5
153F6
331
147BA
  5
14814
331
14767
  5
14769
331
13D4C
  5
13D4E
331
13A66
  5
13A68
331
15115
  5
15117
331
14F2E
  5
14F30
331
153FC
  5
153FE
331
1476F
  5
14771
331
13D64
  5
13D66
331
143B2
  5
143B6
331
1511D
  5
1511F
331
14EFF
  5
14F01
331
14F36
  5
14FE9
331
14842
  5
1484F
331
143BA
  5
145A7
331
13D6C
  5
13D6E
331
14777
  5
14779
331
13A76
  5
13A78
331
14F07
  5
14F09
331
15125
  5
15252
331
1477F
  5
14781
331
132C4
  5
132C6
331
13A3B
  5
13A3D
331
12F86
  5
12F87
331
13D74
  5
13D76
331
14F0F
  5
14F11
331
13CB5
  5
13CE3
331
13D7C
  5
13D7F
331
13CE5
  5
13CE7
331
14F17
  5
14F19
331
14B68
  5
14B6A
331
13A96
  5
13A98
331
145AA
  5
145AC
331
14748
  5
1474A
331
147A7
  5
147A9
331
13D84
  5
13D86
331
14F1F
  5
14F21
331
14B70
  5
14B72
331
13A9E
  5
13AA2
331
14750
  5
14752
331
14758
  5
1475A
331
147AF
  5
147B1
331
12FB6
  5
12FB7
331
12F4F
  5
12F4F
331
132AD
  5
132B6
331
12FBE
  5
12FBF
331
12F57
  5
12F58
331
14760
  5
14762
331
14FEE
  5
15112
331
14F27
  5
14F29
331
153F5
  5
153F7
331
147BB
  5
14815
331
13A5F
  5
13A61
331
13ADE
  5
13AE0
331
13D94
  5
13D9F
331
14768
  5
1476A
331
15116
  5
15118
331
13D4D
  5
13D64
331
14F2F
  5
14F31
331
153FD
  5
15401
331
13A67
  5
13A69
331
1511E
  5
15120
331
14F00
  5
14F02
331
14F37
  5
14FEA
331
13D65
  5
13D6B
331
14770
  5
14772
331
14778
  5
1477A
331
13D6D
  5
13D6F
331
13A77
  5
13A79
331
143BB
  5
145A8
331
132C5
  5
132C7
331
1324E
  5
13297
331
13A3C
  5
13A3F
331
13A54
  5
13A56
331
12F87
  5
12F88
331
14F08
  5
14F0A
331
14780
  5
14782
331
13D75
  5
13D77
331
14741
  5
14745
331
14853
  5
14B5B
331
14F10
  5
14F12
331
14749
  5
1474B
331
145AB
  5
145AD
331
13D7D
  5
13D80
331
13A97
  5
13A99
331
13CE6
  5
13CEF
331
14682
  5
14741
331
14B69
  5
14B6B
331
14F18
  5
14F1A
331
147A8
  5
147AA
331
14B71
  5
14B73
331
152A5
  5
153C6
331
13D85
  5
13D87
331
14751
  5
14753
331
14759
  5
1475B
331
12F50
  5
12F50
331
12FB7
  5
12FB8
331
132B6
  5
132B8
331
12FBF
  5
12FC0
331
12F58
  5
12F59
331
132BE
  5
132C0
331
147B4
  5
147B9
331
14F20
  5
14F22
331
13ADF
  5
13AEC
331
13A60
  5
13A62
331
13D95
  5
13DA0
331
14761
  5
14763
331
153F6
  5
153F8
331
14F28
  5
14F2A
331
14769
  5
1476B
331
13D4E
  5
13D65
331
13A68
  5
13A6A
331
15117
  5
15119
331
14814
  5
14816
331
14F30
  5
14F32
331
153FE
  5
13299
331
14771
  5
14773
331
13D66
  5
13D6C
331
143B4
  5
143BA
331
14F01
  5
14F03
331
1511F
  5
15121
331
13D6E
  5
13D70
331
14779
  5
1477B
331
13A35
  5
13A37
331
12F70
  5
12F73
331
132C6
  5
132C8
331
13A3D
  5
13A54
331
13297
  5
13298
331
13A55
  5
13A5D
331
13A78
  5
13A94
331
14F09
  5
14F0B
331
14781
  5
147A4
331
13D76
  5
13D78
331
13CB7
  5
13CE4
331
14854
  5
14B5C
331
14B62
  5
14B67
331
14F11
  5
14F13
331
13CE7
  5
13CF0
331
13A98
  5
13A9A
331
145AC
  5
145AE
331
1474A
  5
1474C
331
14F19
  5
14F1B
331
14B6A
  5
14B6C
331
147A9
  5
147AB
331
152A6
  5
153C7
331
13D86
  5
13D88
331
13CEF
  5
13CF1
331
14752
  5
14754
331
14B72
  5
14B74
331
1475A
  5
1475C
331
12F88
  5
12FB4
331
12FB8
  5
12FB9
331
12FC0
  5
12FC1
331
12F59
  5
12F5A
331
132B7
  5
132BE
331
132BF
  5
132C1
331
14F21
  5
14F23
331
147B5
  5
147BA
331
13A61
  5
13A63
331
13AE0
  5
13C02
331
14762
  5
14764
331
14F29
  5
14F2B
331
153F7
  5
153F9
331
14C82
  5
14C84
331
1476A
  5
1476C
331
13A69
  5
13A6D
331
15118
  5
1511A
331
14F31
  5
14F33
331
14815
  5
14842
331
14772
  5
14774
331
15120
  5
15122
331
14F02
  5
14F04
331
1526F
  5
15271
331
13D6F
  5
13D71
331
1477A
  5
1477C
331
12FC8
  5
12FC9
331
132C7
  5
132C9
331
13248
  5
13249
331
13A36
  5
13A38
331
13A56
  5
13A5E
331
13A79
  5
13A95
331
14F0A
  5
14F0C
331
14B5B
  5
14B5D
331
14782
  5
147A5
331
13D77
  5
13D79
331
14743
  5
14746
331
14F12
  5
14F14
331
14B63
  5
14B68
331
145AD
  5
145AF
331
13D7F
  5
13D81
331
13A99
  5
13A9B
331
1474B
  5
1474D
331
14F1A
  5
14F1C
331
14B6B
  5
14B6D
331
147AA
  5
147AC
331
153C6
  5
153E2
331
13D87
  5
13D8F
331
13AA1
  5
13AD9
331
14753
  5
14755
331
14B73
  5
14B75
331
13D8F
  5
13D91
331
145F5
  5
145F7
331
1475B
  5
1475D
331
13298
  5
132AD
331
10B6D
  5
10B6D
331
12FB9
  5
12FBA
331
132B8
  5
132BF
331
12FC1
  5
12FC2
331
12F5A
  5
12F5B
331
13A2F
  5
13A36
331
13AD9
  5
13ADB
331
13CF0
  5
13CF2
331
14FE9
  5
14FEB
331
14F22
  5
14F24
331
14B7B
  5
14B7D
331
14763
  5
14765
331
13A62
  5
13A64
331
15111
  5
15113
331
14F2A
  5
14F2C
331
153F8
  5
153FA
331
14C83
  5
14D85
331
1476B
  5
1476D
331
13D9F
  5
143B2
331
13A6A
  5
13A74
331
15119
  5
1511B
331
14F32
  5
14F34
331
14816
  5
1484E
331
143B6
  5
143BB
331
14773
  5
14775
331
14F03
  5
14F05
331
15121
  5
15123
331
1477B
  5
1477D
331
12FC9
  5
13248
331
132C0
  5
132C2
331
13A37
  5
13A39
331
13249
  5
1324C
331
132C8
  5
132CA
331
13A3F
  5
13A55
  0
ACDBDETAILVIEWSTYLE
  5
148AB
102
{ACAD_XDICTIONARY
360
14F4E
102
}
102
{ACAD_REACTORS
330
148AA
102
}
330
148AA
100
AcDbModelDocViewStyle
 70
     0
  3
Metric50
290
     0
100
AcDbDetailViewStyle
 70
     0
 71
     0
 90
        3
 71
     1
340
7475
 40
5.0
340
0
 40
5.0
300

 40
0.0
280
     1
 71
     2
340
7479
 90
       25
 71
     3
340
7475
 40
5.0
 90
        0
 40
15.0
 90
        1
300
%<\AcVar ViewDetailId>% (%<\AcVar ViewScale \f "%sn">%)
 71
     4
340
7479
 90
       25
340
7479
 90
       25
280
     0
  0
LAYOUT
  5
146F0
102
{ACAD_XDICTIONARY
360
1575B
102
}
102
{ACAD_REACTORS
330
146EE
102
}
330
146EE
100
AcDbPlotSettings
  1

  2
Microsoft XPS Document Writer
  4
A4
  6

 40
3.174999952316284
 41
3.174999952316284
 42
3.175003051757812
 43
3.17498779296875
 44
210.0156707763672
 45
297.0106506347656
 46
0.0
 47
0.0
 48
0.0
 49
0.0
140
0.0
141
0.0
142
1.0
143
52.09317352319417
 70
 11952
 72
     1
 73
     1
 74
     0
  7

 75
     0
147
0.0191963731976275
148
817.6411134145665
149
34.59641753844153
100
AcDbLayout
  1
Model
 70
     1
 71
     0
 10
0.0
 20
0.0
 11
12.0
 21
9.0
 12
0.0
 22
0.0
 32
0.0
 14
0.0
 24
0.0
 34
0.0
 15
0.0
 25
0.0
 35
0.0
146
0.0
 13
0.0
 23
0.0
 33
0.0
 16
1.0
 26
0.0
 36
0.0
 17
0.0
 27
1.0
 37
0.0
 76
     0
330
747D
331
1485F
1001
ACAD_PSEXT
1000
Microsoft XPS Document Writer
1000
Microsoft XPS Document Writer
1000
XPSPort:
1000

1070
     0
  0
LAYOUT
  5
146F1
102
{ACAD_XDICTIONARY
360
1575D
102
}
102
{ACAD_REACTORS
330
146EE
102
}
330
146EE
100
AcDbPlotSettings
  1

  2
Microsoft XPS Document Writer
  4

  6

 40
0.0
 41
0.0
 42
0.0
 43
0.0
 44
0.0
 45
0.0
 46
0.0
 47
0.0
 48
0.0
 49
0.0
140
0.0
141
0.0
142
1.0
143
1.0
 70
   688
 72
     0
 73
     0
 74
     5
  7

 75
    16
147
1.0
148
0.0
149
0.0
100
AcDbLayout
  1
レイアウト1
 70
     0
 71
     1
 10
0.0
 20
0.0
 11
420.0
 21
297.0
 12
0.0
 22
0.0
 32
0.0
 14
1.000000000000000E+20
 24
1.000000000000000E+20
 34
1.000000000000000E+20
 15
-1.000000000000000E+20
 25
-1.000000000000000E+20
 35
-1.000000000000000E+20
146
0.0
 13
0.0
 23
0.0
 33
0.0
 16
1.0
 26
0.0
 36
0.0
 17
0.0
 27
1.0
 37
0.0
 76
     0
330
747A
  0
MATERIAL
  5
14869
102
{ACAD_XDICTIONARY
360
1486A
102
}
102
{ACAD_REACTORS
330
146EC
102
}
330
146EC
100
AcDbMaterial
  1
ByBlock
 72
     0
 43
0.0208333333333333
 43
0.0
 43
0.0
 43
0.0
 43
0.0
 43
0.0208333333333333
 43
0.0
 43
0.0
 43
0.0
 43
0.0
 43
1.0
 43
0.0
 43
0.0
 43
0.0
 43
0.0
 43
1.0
 77
     0
 47
0.0208333333333333
 47
0.0
 47
0.0
 47
0.0
 47
0.0
 47
0.0208333333333333
 47
0.0
 47
0.0
 47
0.0
 47
0.0
 47
1.0
 47
0.0
 47
0.0
 47
0.0
 47
0.0
 47
1.0
171
     0
 49
0.0208333333333333
 49
0.0
 49
0.0
 49
0.0
 49
0.0
 49
0.0208333333333333
 49
0.0
 49
0.0
 49
0.0
 49
0.0
 49
1.0
 49
0.0
 49
0.0
 49
0.0
 49
0.0
 49
1.0
175
     0
142
0.0208333333333333
142
0.0
142
0.0
142
0.0
142
0.0
142
0.0208333333333333
142
0.0
142
0.0
142
0.0
142
0.0
142
1.0
142
0.0
142
0.0
142
0.0
142
0.0
142
1.0
179
     0
144
0.0208333333333333
144
0.0
144
0.0
144
0.0
144
0.0
144
0.0208333333333333
144
0.0
144
0.0
144
0.0
144
0.0
144
1.0
144
0.0
144
0.0
144
0.0
144
0.0
144
1.0
147
0.0208333333333333
147
0.0
147
0.0
147
0.0
147
0.0
147
0.0208333333333333
147
0.0
147
0.0
147
0.0
147
0.0
147
1.0
147
0.0
147
0.0
147
0.0
147
0.0
147
1.0
  0
MATERIAL
  5
14861
102
{ACAD_XDICTIONARY
360
14862
102
}
102
{ACAD_REACTORS
330
146EC
102
}
330
146EC
100
AcDbMaterial
  1
ByLayer
 72
     0
 43
0.0208333333333333
 43
0.0
 43
0.0
 43
0.0
 43
0.0
 43
0.0208333333333333
 43
0.0
 43
0.0
 43
0.0
 43
0.0
 43
1.0
 43
0.0
 43
0.0
 43
0.0
 43
0.0
 43
1.0
 77
     0
 47
0.0208333333333333
 47
0.0
 47
0.0
 47
0.0
 47
0.0
 47
0.0208333333333333
 47
0.0
 47
0.0
 47
0.0
 47
0.0
 47
1.0
 47
0.0
 47
0.0
 47
0.0
 47
0.0
 47
1.0
171
     0
 49
0.0208333333333333
 49
0.0
 49
0.0
 49
0.0
 49
0.0
 49
0.0208333333333333
 49
0.0
 49
0.0
 49
0.0
 49
0.0
 49
1.0
 49
0.0
 49
0.0
 49
0.0
 49
0.0
 49
1.0
175
     0
142
0.0208333333333333
142
0.0
142
0.0
142
0.0
142
0.0
142
0.0208333333333333
142
0.0
142
0.0
142
0.0
142
0.0
142
1.0
142
0.0
142
0.0
142
0.0
142
0.0
142
1.0
179
     0
144
0.0208333333333333
144
0.0
144
0.0
144
0.0
144
0.0
144
0.0208333333333333
144
0.0
144
0.0
144
0.0
144
0.0
144
1.0
144
0.0
144
0.0
144
0.0
144
0.0
144
1.0
147
0.0208333333333333
147
0.0
147
0.0
147
0.0
147
0.0
147
0.0208333333333333
147
0.0
147
0.0
147
0.0
147
0.0
147
1.0
147
0.0
147
0.0
147
0.0
147
0.0
147
1.0
  0
MATERIAL
  5
14871
102
{ACAD_XDICTIONARY
360
14872
102
}
102
{ACAD_REACTORS
330
146EC
102
}
330
146EC
100
AcDbMaterial
  1
Global
 72
     0
 43
0.0208333333333333
 43
0.0
 43
0.0
 43
0.0
 43
0.0
 43
0.0208333333333333
 43
0.0
 43
0.0
 43
0.0
 43
0.0
 43
1.0
 43
0.0
 43
0.0
 43
0.0
 43
0.0
 43
1.0
 77
     0
 47
0.0208333333333333
 47
0.0
 47
0.0
 47
0.0
 47
0.0
 47
0.0208333333333333
 47
0.0
 47
0.0
 47
0.0
 47
0.0
 47
1.0
 47
0.0
 47
0.0
 47
0.0
 47
0.0
 47
1.0
171
     0
 49
0.0208333333333333
 49
0.0
 49
0.0
 49
0.0
 49
0.0
 49
0.0208333333333333
 49
0.0
 49
0.0
 49
0.0
 49
0.0
 49
1.0
 49
0.0
 49
0.0
 49
0.0
 49
0.0
 49
1.0
175
     0
142
0.0208333333333333
142
0.0
142
0.0
142
0.0
142
0.0
142
0.0208333333333333
142
0.0
142
0.0
142
0.0
142
0.0
142
1.0
142
0.0
142
0.0
142
0.0
142
0.0
142
1.0
179
     0
144
0.0208333333333333
144
0.0
144
0.0
144
0.0
144
0.0
144
0.0208333333333333
144
0.0
144
0.0
144
0.0
144
0.0
144
1.0
144
0.0
144
0.0
144
0.0
144
0.0
144
1.0
147
0.0208333333333333
147
0.0
147
0.0
147
0.0
147
0.0
147
0.0208333333333333
147
0.0
147
0.0
147
0.0
147
0.0
147
1.0
147
0.0
147
0.0
147
0.0
147
0.0
147
1.0
  0
MLEADERSTYLE
  5
148A7
102
{ACAD_XDICTIONARY
360
15794
102
}
102
{ACAD_REACTORS
330
148A6
102
}
330
148A6
100
AcDbMLeaderStyle
170
     2
171
     1
172
     0
 90
        2
 40
0.0
 41
0.0
173
     1
 91
-1056964608
340
7477
 92
       -2
290
     1
 42
2.0
291
     1
 43
0.36
  3
Standard
 44
4.0
300

342
7475
174
     1
178
     6
175
     1
176
     0
 93
-1056964608
 45
4.0
292
     0
297
     0
 46
4.0
 94
-1056964608
 47
1.0
 49
1.0
140
1.0
293
     1
141
0.0
294
     1
177
     0
142
1.0
295
     0
296
     0
143
0.125
1001
ACAD_MLEADERVER
1070
     2
  0
MLINESTYLE
  5
7480
102
{ACAD_REACTORS
330
7473
102
}
330
7473
100
AcDbMlineStyle
  2
STANDARD
 70
     0
  3

 62
     0
 51
90.0
 52
90.0
 71
     2
 49
0.5
 62
   256
  6
BYLAYER
 49
-0.5
 62
   256
  6
BYLAYER
  0
ACDBPLACEHOLDER
  5
146EB
102
{ACAD_REACTORS
330
146EA
102
}
330
146EA
  0
SCALE
  5
14895
102
{ACAD_REACTORS
330
14894
102
}
330
14894
100
AcDbScale
 70
     0
300
1:1
140
1.0
141
1.0
290
     1
  0
SCALE
  5
14896
102
{ACAD_REACTORS
330
14894
102
}
330
14894
100
AcDbScale
 70
     0
300
1:2
140
1.0
141
2.0
290
     0
  0
SCALE
  5
14897
102
{ACAD_REACTORS
330
14894
102
}
330
14894
100
AcDbScale
 70
     0
300
1:4
140
1.0
141
4.0
290
     0
  0
SCALE
  5
14898
102
{ACAD_REACTORS
330
14894
102
}
330
14894
100
AcDbScale
 70
     0
300
1:5
140
1.0
141
5.0
290
     0
  0
SCALE
  5
14899
102
{ACAD_REACTORS
330
14894
102
}
330
14894
100
AcDbScale
 70
     0
300
1:8
140
1.0
141
8.0
290
     0
  0
SCALE
  5
1489A
102
{ACAD_REACTORS
330
14894
102
}
330
14894
100
AcDbScale
 70
     0
300
1:10
140
1.0
141
10.0
290
     0
  0
SCALE
  5
1489B
102
{ACAD_REACTORS
330
14894
102
}
330
14894
100
AcDbScale
 70
     0
300
1:16
140
1.0
141
16.0
290
     0
  0
SCALE
  5
1489C
102
{ACAD_REACTORS
330
14894
102
}
330
14894
100
AcDbScale
 70
     0
300
1:20
140
1.0
141
20.0
290
     0
  0
SCALE
  5
1489D
102
{ACAD_REACTORS
330
14894
102
}
330
14894
100
AcDbScale
 70
     0
300
1:30
140
1.0
141
30.0
290
     0
  0
SCALE
  5
1489E
102
{ACAD_REACTORS
330
14894
102
}
330
14894
100
AcDbScale
 70
     0
300
1:40
140
1.0
141
40.0
290
     0
  0
SCALE
  5
1489F
102
{ACAD_REACTORS
330
14894
102
}
330
14894
100
AcDbScale
 70
     0
300
1:50
140
1.0
141
50.0
290
     0
  0
SCALE
  5
148A0
102
{ACAD_REACTORS
330
14894
102
}
330
14894
100
AcDbScale
 70
     0
300
1:100
140
1.0
141
100.0
290
     0
  0
SCALE
  5
148A1
102
{ACAD_REACTORS
330
14894
102
}
330
14894
100
AcDbScale
 70
     0
300
2:1
140
2.0
141
1.0
290
     0
  0
SCALE
  5
148A2
102
{ACAD_REACTORS
330
14894
102
}
330
14894
100
AcDbScale
 70
     0
300
4:1
140
4.0
141
1.0
290
     0
  0
SCALE
  5
148A3
102
{ACAD_REACTORS
330
14894
102
}
330
14894
100
AcDbScale
 70
     0
300
8:1
140
8.0
141
1.0
290
     0
  0
SCALE
  5
148A4
102
{ACAD_REACTORS
330
14894
102
}
330
14894
100
AcDbScale
 70
     0
300
10:1
140
10.0
141
1.0
290
     0
  0
SCALE
  5
148A5
102
{ACAD_REACTORS
330
14894
102
}
330
14894
100
AcDbScale
 70
     0
300
100:1
140
100.0
141
1.0
290
     0
  0
ACDBSECTIONVIEWSTYLE
  5
148A9
102
{ACAD_XDICTIONARY
360
14F4C
102
}
102
{ACAD_REACTORS
330
148A8
102
}
330
148A8
100
AcDbModelDocViewStyle
 70
     0
  3
Metric50
290
     0
100
AcDbSectionViewStyle
 70
     0
 71
     0
 90
      102
 71
     1
340
7475
 40
5.0
340
0
340
0
 40
5.0
300
I, O, Q, S, X, Z
 40
10.0
 90
        0
 40
2.5
 90
        0
 71
     2
340
7479
 90
       25
340
7479
 90
       50
 40
5.0
 40
2.5
 40
5.0
 71
     3
340
7475
 40
5.0
 90
        0
 40
15.0
 90
        1
300
%<\AcVar ViewSectionStartId>%-%<\AcVar ViewSectionEndId>% (%<\AcVar ViewScale \f "%sn">%)
 71
     4
300
ANSI31
 40
1.0
 90
        0
290
     0
290
     0
 90
        6
 40
0.0
 40
1.570796326794896
 40
0.2617993877991494
 40
1.308996938995747
 40
-0.2617993877991494
 40
1.832595714594046
  0
TABLESTYLE
  5
14893
102
{ACAD_XDICTIONARY
360
1574D
102
}
102
{ACAD_REACTORS
330
14892
102
}
330
14892
100
AcDbTableStyle
  3
Standard
 70
     0
 71
     0
 40
1.5
 41
1.5
280
     0
281
     0
  7
STANDARD
140
4.5
170
     2
 62
     0
 63
     7
283
     0
274
    -2
284
     1
 64
     0
275
    -2
285
     1
 65
     0
276
    -2
286
     1
 66
     0
277
    -2
287
     1
 67
     0
278
    -2
288
     1
 68
     0
279
    -2
289
     1
 69
     0
  7
STANDARD
140
6.0
170
     5
 62
     0
 63
     7
283
     0
274
    -2
284
     1
 64
     0
275
    -2
285
     1
 65
     0
276
    -2
286
     1
 66
     0
277
    -2
287
     1
 67
     0
278
    -2
288
     1
 68
     0
279
    -2
289
     1
 69
     0
  7
STANDARD
140
4.5
170
     5
 62
     0
 63
     7
283
     0
274
    -2
284
     1
 64
     0
275
    -2
285
     1
 65
     0
276
    -2
286
     1
 66
     0
277
    -2
287
     1
 67
     0
278
    -2
288
     1
 68
     0
279
    -2
289
     1
 69
     0
  0
VISUALSTYLE
  5
1487F
102
{ACAD_XDICTIONARY
360
1576C
102
}
102
{ACAD_REACTORS
330
14879
102
}
330
14879
100
AcDbVisualStyle
  2
2dWireframe
 70
     4
 71
     0
 72
     2
 73
     0
 90
        0
 40
-0.6
 41
-30.0
 62
     5
 63
     7
 74
     1
 91
        4
 64
     7
 65
   257
 75
     1
175
     1
 42
1.0
 92
        0
 66
   257
 43
1.0
 76
     1
 77
     6
 78
     2
 67
     7
 79
     5
170
     0
171
     0
290
     0
174
     0
 93
        1
 44
0.0
173
     0
291
     0
 45
0.0
1001
ACAD
1000
AcDbSavedByObjectVersion
1070
     0
  0
VISUALSTYLE
  5
1487E
102
{ACAD_XDICTIONARY
360
1576A
102
}
102
{ACAD_REACTORS
330
14879
102
}
330
14879
100
AcDbVisualStyle
  2
Basic
 70
     7
 71
     1
 72
     0
 73
     1
 90
        0
 40
-0.6
 41
-30.0
 62
     5
 63
     7
 74
     0
 91
        4
 64
     7
 65
   257
 75
     1
175
     1
 42
1.0
 92
        8
 66
     7
 43
1.0
 76
     1
 77
     6
 78
     2
 67
     7
 79
     5
170
     0
171
     0
290
     0
174
     0
 93
        1
 44
0.0
173
     0
291
     1
 45
0.0
1001
ACAD
1000
AcDbSavedByObjectVersion
1070
     0
  0
VISUALSTYLE
  5
14885
102
{ACAD_XDICTIONARY
360
15778
102
}
102
{ACAD_REACTORS
330
14879
102
}
330
14879
100
AcDbVisualStyle
  2
Brighten
 70
    12
 71
     2
 72
     2
 73
     0
 90
        0
 40
-0.6
 41
-30.0
 62
     5
 63
     7
 74
     1
 91
        4
 64
     7
 65
   257
 75
     1
175
     1
 42
1.0
 92
        8
 66
     7
 43
1.0
 76
     1
 77
     6
 78
     2
 67
     7
 79
     5
170
     0
171
     0
290
     0
174
     0
 93
        1
 44
50.0
173
     0
291
     1
 45
0.0
1001
ACAD
1000
AcDbSavedByObjectVersion
1070
     0
  0
VISUALSTYLE
  5
14889
102
{ACAD_XDICTIONARY
360
15780
102
}
102
{ACAD_REACTORS
330
14879
102
}
330
14879
100
AcDbVisualStyle
  2
ColorChange
 70
    16
 71
     2
 72
     2
 73
     3
 90
        0
 40
-0.6
 41
-30.0
 62
     5
 63
     8
 74
     1
 91
        4
 64
     7
 65
   257
 75
     1
175
     1
 42
1.0
 92
        8
 66
     8
 43
1.0
 76
     1
 77
     6
 78
     2
 67
     7
 79
     5
170
     0
171
     0
290
     0
174
     0
 93
        1
 44
0.0
173
     0
291
     1
 45
0.0
1001
ACAD
1000
AcDbSavedByObjectVersion
1070
     0
  0
VISUALSTYLE
  5
14882
102
{ACAD_XDICTIONARY
360
15772
102
}
102
{ACAD_REACTORS
330
14879
102
}
330
14879
100
AcDbVisualStyle
  2
Conceptual
 70
     9
 71
     3
 72
     2
 73
     0
 90
        0
 40
-0.6
 41
-30.0
 62
     5
 63
     7
 74
     2
 91
        2
 64
     7
 65
   257
 75
     1
175
     1
 42
179.0
 92
        8
 66
     7
 43
1.0
 76
     1
 77
     6
 78
     2
 67
     7
 79
     3
170
     0
171
     0
290
     0
174
     0
 93
        1
 44
0.0
173
     0
291
     0
 45
0.0
1001
ACAD
1000
AcDbSavedByObjectVersion
1070
     0
  0
VISUALSTYLE
  5
14884
102
{ACAD_XDICTIONARY
360
15776
102
}
102
{ACAD_REACTORS
330
14879
102
}
330
14879
100
AcDbVisualStyle
  2
Dim
 70
    11
 71
     2
 72
     2
 73
     0
 90
        0
 40
-0.6
 41
-30.0
 62
     5
 63
     7
 74
     1
 91
        4
 64
     7
 65
   257
 75
     1
175
     1
 42
1.0
 92
        8
 66
     7
 43
1.0
 76
     1
 77
     6
 78
     2
 67
     7
 79
     5
170
     0
171
     0
290
     0
174
     0
 93
        1
 44
-50.0
173
     0
291
     1
 45
0.0
1001
ACAD
1000
AcDbSavedByObjectVersion
1070
     0
  0
VISUALSTYLE
  5
14891
102
{ACAD_XDICTIONARY
360
15790
102
}
102
{ACAD_REACTORS
330
14879
102
}
330
14879
100
AcDbVisualStyle
  2
EdgeColorOff
 70
    22
 71
     2
 72
     2
 73
     0
 90
        0
 40
-0.6
 41
-30.0
 62
     5
 63
     7
 74
     1
 91
        4
 64
     7
 65
   257
 75
     1
175
     1
 42
1.0
 92
        8
 66
     7
 43
1.0
 76
     1
 77
     6
 78
     2
 67
     7
 79
     5
170
     0
171
     0
290
     0
174
     0
 93
        1
 44
0.0
173
     0
291
     1
 45
0.0
1001
ACAD
1000
AcDbSavedByObjectVersion
1070
     0
  0
VISUALSTYLE
  5
14888
102
{ACAD_XDICTIONARY
360
1577E
102
}
102
{ACAD_REACTORS
330
14879
102
}
330
14879
100
AcDbVisualStyle
  2
Facepattern
 70
    15
 71
     2
 72
     2
 73
     0
 90
        0
 40
-0.6
 41
-30.0
 62
     5
 63
     7
 74
     1
 91
        4
 64
     7
 65
   257
 75
     1
175
     1
 42
1.0
 92
        8
 66
     7
 43
1.0
 76
     1
 77
     6
 78
     2
 67
     7
 79
     5
170
     0
171
     0
290
     0
174
     0
 93
        1
 44
0.0
173
     0
291
     1
 45
0.0
1001
ACAD
1000
AcDbSavedByObjectVersion
1070
     0
  0
VISUALSTYLE
  5
1487A
102
{ACAD_XDICTIONARY
360
15762
102
}
102
{ACAD_REACTORS
330
14879
102
}
330
14879
100
AcDbVisualStyle
  2
Flat
 70
     0
 71
     2
 72
     1
 73
     1
 90
        2
 40
-0.6
 41
30.0
 62
     5
 63
     7
 74
     0
 91
        0
 64
     7
 65
   257
 75
     1
175
     1
 42
1.0
 92
        8
 66
     7
 43
1.0
 76
     1
 77
     6
 78
     2
 67
     7
 79
     5
170
     0
171
     0
290
     0
174
     0
 93
       13
 44
0.0
173
     0
291
     1
 45
0.0
1001
ACAD
1000
AcDbSavedByObjectVersion
1070
     0
  0
VISUALSTYLE
  5
1487B
102
{ACAD_XDICTIONARY
360
15764
102
}
102
{ACAD_REACTORS
330
14879
102
}
330
14879
100
AcDbVisualStyle
  2
FlatWithEdges
 70
     1
 71
     2
 72
     1
 73
     1
 90
        2
 40
-0.6
 41
30.0
 62
     5
 63
     7
 74
     1
 91
        0
 64
     7
 65
   257
 75
     1
175
     1
 42
1.0
 92
        0
 66
   257
 43
1.0
 76
     1
 77
     6
 78
     2
 67
     7
 79
     5
170
     0
171
     0
290
     0
174
     0
 93
       13
 44
0.0
173
     0
291
     1
 45
0.0
1001
ACAD
1000
AcDbSavedByObjectVersion
1070
     0
  0
VISUALSTYLE
  5
1487C
102
{ACAD_XDICTIONARY
360
15766
102
}
102
{ACAD_REACTORS
330
14879
102
}
330
14879
100
AcDbVisualStyle
  2
Gouraud
 70
     2
 71
     2
 72
     2
 73
     1
 90
        2
 40
-0.6
 41
30.0
 62
     5
 63
     7
 74
     0
 91
        0
 64
     7
 65
   257
 75
     1
175
     1
 42
1.0
 92
        0
 66
     7
 43
1.0
 76
     1
 77
     6
 78
     2
 67
     7
 79
     5
170
     0
171
     0
290
     0
174
     0
 93
       13
 44
0.0
173
     0
291
     1
 45
0.0
1001
ACAD
1000
AcDbSavedByObjectVersion
1070
     0
  0
VISUALSTYLE
  5
1487D
102
{ACAD_XDICTIONARY
360
15768
102
}
102
{ACAD_REACTORS
330
14879
102
}
330
14879
100
AcDbVisualStyle
  2
GouraudWithEdges
 70
     3
 71
     2
 72
     2
 73
     1
 90
        2
 40
-0.6
 41
30.0
 62
     5
 63
     7
 74
     1
 91
        0
 64
     7
 65
   257
 75
     1
175
     1
 42
1.0
 92
        0
 66
   257
 43
1.0
 76
     1
 77
     6
 78
     2
 67
     7
 79
     5
170
     0
171
     0
290
     0
174
     0
 93
       13
 44
0.0
173
     0
291
     1
 45
0.0
1001
ACAD
1000
AcDbSavedByObjectVersion
1070
     0
  0
VISUALSTYLE
  5
14881
102
{ACAD_XDICTIONARY
360
15770
102
}
102
{ACAD_REACTORS
330
14879
102
}
330
14879
100
AcDbVisualStyle
  2
Hidden
 70
     6
 71
     1
 72
     2
 73
     2
 90
        0
 40
-0.6
 41
-30.0
 62
     5
 63
     7
 74
     2
 91
        2
 64
     7
 65
   257
 75
     2
175
     1
 42
40.0
 92
        0
 66
   257
 43
1.0
 76
     1
 77
     6
 78
     2
 67
     7
 79
     3
170
     0
171
     0
290
     0
174
     0
 93
        1
 44
0.0
173
     0
291
     0
 45
0.0
1001
ACAD
1000
AcDbSavedByObjectVersion
1070
     0
  0
VISUALSTYLE
  5
1488F
102
{ACAD_XDICTIONARY
360
1578C
102
}
102
{ACAD_REACTORS
330
14879
102
}
330
14879
100
AcDbVisualStyle
  2
JitterOff
 70
    20
 71
     2
 72
     2
 73
     0
 90
        0
 40
-0.6
 41
-30.0
 62
     5
 63
     7
 74
     1
 91
        4
 64
     7
 65
   257
 75
     1
175
     1
 42
1.0
 92
       10
 66
     7
 43
1.0
 76
     1
 77
     6
 78
     2
 67
     7
 79
     5
170
     0
171
     0
290
     0
174
     0
 93
        1
 44
0.0
173
     0
291
     1
 45
0.0
1001
ACAD
1000
AcDbSavedByObjectVersion
1070
     0
  0
VISUALSTYLE
  5
14887
102
{ACAD_XDICTIONARY
360
1577C
102
}
102
{ACAD_REACTORS
330
14879
102
}
330
14879
100
AcDbVisualStyle
  2
Linepattern
 70
    14
 71
     2
 72
     2
 73
     0
 90
        0
 40
-0.6
 41
-30.0
 62
     5
 63
     7
 74
     1
 91
        4
 64
     7
 65
   257
 75
     7
175
     7
 42
1.0
 92
        8
 66
     7
 43
1.0
 76
     1
 77
     6
 78
     2
 67
     7
 79
     5
170
     0
171
     0
290
     0
174
     0
 93
        1
 44
0.0
173
     0
291
     1
 45
0.0
1001
ACAD
1000
AcDbSavedByObjectVersion
1070
     0
  0
VISUALSTYLE
  5
14890
102
{ACAD_XDICTIONARY
360
1578E
102
}
102
{ACAD_REACTORS
330
14879
102
}
330
14879
100
AcDbVisualStyle
  2
OverhangOff
 70
    21
 71
     2
 72
     2
 73
     0
 90
        0
 40
-0.6
 41
-30.0
 62
     5
 63
     7
 74
     1
 91
        4
 64
     7
 65
   257
 75
     1
175
     1
 42
1.0
 92
        9
 66
     7
 43
1.0
 76
     1
 77
     6
 78
     2
 67
     7
 79
     5
170
     0
171
     0
290
     0
174
     0
 93
        1
 44
0.0
173
     0
291
     1
 45
0.0
1001
ACAD
1000
AcDbSavedByObjectVersion
1070
     0
  0
VISUALSTYLE
  5
14883
102
{ACAD_XDICTIONARY
360
15774
102
}
102
{ACAD_REACTORS
330
14879
102
}
330
14879
100
AcDbVisualStyle
  2
Realistic
 70
     8
 71
     2
 72
     3
 73
     0
 90
        2
 40
-0.6
 41
30.0
 62
     5
 63
     7
 74
     0
 91
        0
 64
     7
 65
   257
 75
     1
175
     1
 42
1.0
 92
        8
 66
   257
 43
1.0
 76
     1
 77
     6
 78
     2
 67
     7
 79
     3
170
     0
171
     0
290
     0
174
     0
 93
       13
 44
0.0
173
     0
291
     0
 45
0.0
1001
ACAD
1000
AcDbSavedByObjectVersion
1070
     0
  0
VISUALSTYLE
  5
1488E
102
{ACAD_XDICTIONARY
360
1578A
102
}
102
{ACAD_REACTORS
330
14879
102
}
330
14879
100
AcDbVisualStyle
  2
Shaded
 70
    27
 71
     2
 72
     2
 73
     1
 90
        2
 40
-0.6
 41
30.0
 62
     5
 63
     7
 74
     0
 91
        4
 64
     7
 65
   257
 75
     1
175
     1
 42
1.0
 92
        8
 66
   257
 43
1.0
 76
     1
 77
     6
 78
     2
 67
     8
 79
     3
170
     0
171
     0
290
     0
174
     0
 93
        5
 44
0.0
173
     0
291
     0
 45
0.0
1001
ACAD
1000
AcDbSavedByObjectVersion
1070
     0
  0
VISUALSTYLE
  5
1488D
102
{ACAD_XDICTIONARY
360
15788
102
}
102
{ACAD_REACTORS
330
14879
102
}
330
14879
100
AcDbVisualStyle
  2
Shaded with edges
 70
    26
 71
     2
 72
     2
 73
     1
 90
        2
 40
-0.6
 41
30.0
 62
     5
 63
     7
 74
     1
 91
       10
 64
     7
 65
   257
 75
     2
175
     1
 42
1.0
 92
        8
 66
   257
 43
1.0
 76
     1
 77
     6
 78
     2
 67
     7
 79
     3
170
     0
171
     0
290
     0
174
     0
 93
        5
 44
0.0
173
     0
291
     0
 45
0.0
1001
ACAD
1000
AcDbSavedByObjectVersion
1070
     0
  0
VISUALSTYLE
  5
1488A
102
{ACAD_XDICTIONARY
360
15782
102
}
102
{ACAD_REACTORS
330
14879
102
}
330
14879
100
AcDbVisualStyle
  2
Shades of Gray
 70
    23
 71
     2
 72
     2
 73
     3
 90
        0
 40
-0.6
 41
-30.0
 62
     5
 63
     7
 74
     2
 91
        2
 64
     7
 65
     7
 75
     1
175
     1
 42
40.0
 92
        8
 66
     7
 43
1.0
 76
     1
 77
     6
 78
     2
 67
     7
 79
     3
170
     0
171
     0
290
     0
174
     0
 93
        1
 44
0.0
173
     0
291
     0
 45
0.0
1001
ACAD
1000
AcDbSavedByObjectVersion
1070
     0
  0
VISUALSTYLE
  5
1488B
102
{ACAD_XDICTIONARY
360
15784
102
}
102
{ACAD_REACTORS
330
14879
102
}
330
14879
100
AcDbVisualStyle
  2
Sketchy
 70
    24
 71
     1
 72
     2
 73
     2
 90
        0
 40
-0.6
 41
-30.0
 62
     5
 63
     7
 74
     2
 91
        2
 64
     7
 65
     7
 75
     1
175
     1
 42
40.0
 92
       11
 66
     7
 43
1.0
 76
     1
 77
     6
 78
     2
 67
     7
 79
     6
170
     0
171
     0
290
     0
174
     0
 93
        1
 44
0.0
173
     0
291
     0
 45
0.0
1001
ACAD
1000
AcDbSavedByObjectVersion
1070
     0
  0
VISUALSTYLE
  5
14886
102
{ACAD_XDICTIONARY
360
1577A
102
}
102
{ACAD_REACTORS
330
14879
102
}
330
14879
100
AcDbVisualStyle
  2
Thicken
 70
    13
 71
     2
 72
     2
 73
     0
 90
        0
 40
-0.6
 41
-30.0
 62
     5
 63
     7
 74
     1
 91
        4
 64
     7
 65
   257
 75
     1
175
     1
 42
1.0
 92
       12
 66
     7
 43
1.0
 76
     1
 77
     6
 78
     2
 67
     7
 79
     5
170
     0
171
     0
290
     0
174
     0
 93
        1
 44
0.0
173
     0
291
     1
 45
0.0
1001
ACAD
1000
AcDbSavedByObjectVersion
1070
     0
  0
VISUALSTYLE
  5
14880
102
{ACAD_XDICTIONARY
360
1576E
102
}
102
{ACAD_REACTORS
330
14879
102
}
330
14879
100
AcDbVisualStyle
  2
Wireframe
 70
     5
 71
     0
 72
     2
 73
     0
 90
        0
 40
-0.6
 41
-30.0
 62
     5
 63
     7
 74
     1
 91
        4
 64
     7
 65
   257
 75
     1
175
     1
 42
1.0
 92
        0
 66
   257
 43
1.0
 76
     1
 77
     6
 78
     2
 67
     7
 79
     3
170
     0
171
     0
290
     0
174
     0
 93
        1
 44
0.0
173
     0
291
     0
 45
0.0
1001
ACAD
1000
AcDbSavedByObjectVersion
1070
     0
  0
VISUALSTYLE
  5
1488C
102
{ACAD_XDICTIONARY
360
15786
102
}
102
{ACAD_REACTORS
330
14879
102
}
330
14879
100
AcDbVisualStyle
  2
X-Ray
 70
    25
 71
     2
 72
     2
 73
     1
 90
        1
 40
0.5
 41
-30.0
 62
     5
 63
     7
 74
     1
 91
        0
 64
     7
 65
   257
 75
     1
175
     1
 42
1.0
 92
        8
 66
     7
 43
1.0
 76
     1
 77
     6
 78
     2
 67
     7
 79
     3
170
     0
171
     0
290
     0
174
     0
 93
       13
 44
0.0
173
     0
291
     0
 45
0.0
1001
ACAD
1000
AcDbSavedByObjectVersion
1070
     0
  0
DICTIONARYVAR
  5
14F57
102
{ACAD_REACTORS
330
14F51
102
}
330
14F51
100
DictionaryVariables
280
     0
  1
1:1
  0
DICTIONARYVAR
  5
14F53
102
{ACAD_REACTORS
330
14F51
102
}
330
14F51
100
DictionaryVariables
280
     0
  1
STANDARD
  0
DICTIONARYVAR
  5
14F52
102
{ACAD_REACTORS
330
14F51
102
}
330
14F51
100
DictionaryVariables
280
     0
  1
STANDARD
  0
DICTIONARYVAR
  5
14F54
102
{ACAD_REACTORS
330
14F51
102
}
330
14F51
100
DictionaryVariables
280
     0
  1
Metric50
  0
DICTIONARYVAR
  5
14F55
102
{ACAD_REACTORS
330
14F51
102
}
330
14F51
100
DictionaryVariables
280
     0
  1
Metric50
  0
DICTIONARYVAR
  5
1574C
102
{ACAD_REACTORS
330
14F51
102
}
330
14F51
100
DictionaryVariables
280
     0
  1
1
  0
DICTIONARYVAR
  5
1574A
102
{ACAD_REACTORS
330
14F51
102
}
330
14F51
100
DictionaryVariables
280
     0
  1
0
  0
DICTIONARYVAR
  5
14F59
102
{ACAD_REACTORS
330
14F51
102
}
330
14F51
100
DictionaryVariables
280
     0
  1
1
  0
DICTIONARYVAR
  5
14F5A
102
{ACAD_REACTORS
330
14F51
102
}
330
14F51
100
DictionaryVariables
280
     0
  1
15
  0
DICTIONARYVAR
  5
14F58
102
{ACAD_REACTORS
330
14F51
102
}
330
14F51
100
DictionaryVariables
280
     0
  1
0
  0
DICTIONARYVAR
  5
14F56
102
{ACAD_REACTORS
330
14F51
102
}
330
14F51
100
DictionaryVariables
280
     0
  1
0
  0
DICTIONARYVAR
  5
15749
102
{ACAD_REACTORS
330
14F51
102
}
330
14F51
100
DictionaryVariables
280
     0
  1
127
  0
DICTIONARYVAR
  5
1574B
102
{ACAD_REACTORS
330
14F51
102
}
330
14F51
100
DictionaryVariables
280
     0
  1
0
  0
DICTIONARY
  5
15758
102
{ACAD_REACTORS
330
15756
102
}
330
15756
100
AcDbDictionary
281
     1
  0
DICTIONARY
  5
15757
102
{ACAD_REACTORS
330
15756
102
}
330
15756
100
AcDbDictionary
281
     1
  3
2130169608
350
15751
  3
2130169616
350
15752
  3
2130169624
350
15753
  3
2130169632
350
15754
  3
2130169640
350
15755
  0
DICTIONARY
  5
14F4E
330
148AB
100
AcDbDictionary
280
     1
281
     1
  3
ACAD_XREC_ROUNDTRIP
360
15797
  0
DICTIONARY
  5
1575B
330
146F0
100
AcDbDictionary
280
     1
281
     1
  3
ACAD_XREC_ROUNDTRIP
360
1575C
  0
DICTIONARY
  5
1575D
330
146F1
100
AcDbDictionary
280
     1
281
     1
  3
ACAD_XREC_ROUNDTRIP
360
1575E
  0
DICTIONARY
  5
1486A
330
14869
100
AcDbDictionary
280
     1
281
     1
  3
ACAD_XREC_ROUNDTRIP
360
15760
  3
BUMPTILE
360
1486C
  3
DIFFUSETILE
360
1486B
  3
OPACITYTILE
360
1486F
  3
REFLECTIONTILE
360
1486E
  3
REFRACTIONTILE
360
14870
  3
SPECULARTILE
360
1486D
  0
DICTIONARY
  5
14862
330
14861
100
AcDbDictionary
280
     1
281
     1
  3
ACAD_XREC_ROUNDTRIP
360
1575F
  3
BUMPTILE
360
14864
  3
DIFFUSETILE
360
14863
  3
OPACITYTILE
360
14867
  3
REFLECTIONTILE
360
14866
  3
REFRACTIONTILE
360
14868
  3
SPECULARTILE
360
14865
  0
DICTIONARY
  5
14872
330
14871
100
AcDbDictionary
280
     1
281
     1
  3
ACAD_XREC_ROUNDTRIP
360
15761
  3
BUMPTILE
360
14874
  3
DIFFUSETILE
360
14873
  3
OPACITYTILE
360
14877
  3
REFLECTIONTILE
360
14876
  3
REFRACTIONTILE
360
14878
  3
SPECULARTILE
360
14875
  0
DICTIONARY
  5
15794
330
148A7
100
AcDbDictionary
280
     1
281
     1
  3
ACAD_XREC_ROUNDTRIP
360
15795
  0
DICTIONARY
  5
14F4C
330
148A9
100
AcDbDictionary
280
     1
281
     1
  3
ACAD_XREC_ROUNDTRIP
360
15796
  0
DICTIONARY
  5
1574D
330
14893
100
AcDbDictionary
280
     1
281
     1
  3
ACAD_ROUNDTRIP_2008_TABLESTYLE_CELLSTYLEMAP
360
1574E
  3
ACAD_XREC_ROUNDTRIP
360
15792
  0
DICTIONARY
  5
1576C
330
1487F
100
AcDbDictionary
280
     1
281
     1
  3
ACAD_XREC_ROUNDTRIP
360
1576D
  0
DICTIONARY
  5
1576A
330
1487E
100
AcDbDictionary
280
     1
281
     1
  3
ACAD_XREC_ROUNDTRIP
360
1576B
  0
DICTIONARY
  5
15778
330
14885
100
AcDbDictionary
280
     1
281
     1
  3
ACAD_XREC_ROUNDTRIP
360
15779
  0
DICTIONARY
  5
15780
330
14889
100
AcDbDictionary
280
     1
281
     1
  3
ACAD_XREC_ROUNDTRIP
360
15781
  0
DICTIONARY
  5
15772
330
14882
100
AcDbDictionary
280
     1
281
     1
  3
ACAD_XREC_ROUNDTRIP
360
15773
  0
DICTIONARY
  5
15776
330
14884
100
AcDbDictionary
280
     1
281
     1
  3
ACAD_XREC_ROUNDTRIP
360
15777
  0
DICTIONARY
  5
15790
330
14891
100
AcDbDictionary
280
     1
281
     1
  3
ACAD_XREC_ROUNDTRIP
360
15791
  0
DICTIONARY
  5
1577E
330
14888
100
AcDbDictionary
280
     1
281
     1
  3
ACAD_XREC_ROUNDTRIP
360
1577F
  0
DICTIONARY
  5
15762
330
1487A
100
AcDbDictionary
280
     1
281
     1
  3
ACAD_XREC_ROUNDTRIP
360
15763
  0
DICTIONARY
  5
15764
330
1487B
100
AcDbDictionary
280
     1
281
     1
  3
ACAD_XREC_ROUNDTRIP
360
15765
  0
DICTIONARY
  5
15766
330
1487C
100
AcDbDictionary
280
     1
281
     1
  3
ACAD_XREC_ROUNDTRIP
360
15767
  0
DICTIONARY
  5
15768
330
1487D
100
AcDbDictionary
280
     1
281
     1
  3
ACAD_XREC_ROUNDTRIP
360
15769
  0
DICTIONARY
  5
15770
330
14881
100
AcDbDictionary
280
     1
281
     1
  3
ACAD_XREC_ROUNDTRIP
360
15771
  0
DICTIONARY
  5
1578C
330
1488F
100
AcDbDictionary
280
     1
281
     1
  3
ACAD_XREC_ROUNDTRIP
360
1578D
  0
DICTIONARY
  5
1577C
330
14887
100
AcDbDictionary
280
     1
281
     1
  3
ACAD_XREC_ROUNDTRIP
360
1577D
  0
DICTIONARY
  5
1578E
330
14890
100
AcDbDictionary
280
     1
281
     1
  3
ACAD_XREC_ROUNDTRIP
360
1578F
  0
DICTIONARY
  5
15774
330
14883
100
AcDbDictionary
280
     1
281
     1
  3
ACAD_XREC_ROUNDTRIP
360
15775
  0
DICTIONARY
  5
1578A
330
1488E
100
AcDbDictionary
280
     1
281
     1
  3
ACAD_XREC_ROUNDTRIP
360
1578B
  0
DICTIONARY
  5
15788
330
1488D
100
AcDbDictionary
280
     1
281
     1
  3
ACAD_XREC_ROUNDTRIP
360
15789
  0
DICTIONARY
  5
15782
330
1488A
100
AcDbDictionary
280
     1
281
     1
  3
ACAD_XREC_ROUNDTRIP
360
15783
  0
DICTIONARY
  5
15784
330
1488B
100
AcDbDictionary
280
     1
281
     1
  3
ACAD_XREC_ROUNDTRIP
360
15785
  0
DICTIONARY
  5
1577A
330
14886
100
AcDbDictionary
280
     1
281
     1
  3
ACAD_XREC_ROUNDTRIP
360
1577B
  0
DICTIONARY
  5
1576E
330
14880
100
AcDbDictionary
280
     1
281
     1
  3
ACAD_XREC_ROUNDTRIP
360
1576F
  0
DICTIONARY
  5
15786
330
1488C
100
AcDbDictionary
280
     1
281
     1
  3
ACAD_XREC_ROUNDTRIP
360
15787
  0
XRECORD
  5
15751
102
{ACAD_REACTORS
330
15757
102
}
330
15757
100
AcDbXrecord
280
     1
  1
AcDb_Thumbnail_Schema
102
{ATTRRECORD
341
15752
  2
AcDbDs::TreatedAsObjectData
280
     1
291
     1
102
ATTRRECORD}
102
{ATTRRECORD
341
15753
  2
AcDbDs::Legacy
280
     1
291
     1
102
ATTRRECORD}
  2
AcDbDs::ID
280
    10
 91
        8
102
{ATTRRECORD
341
15754
  2
AcDs:Indexable
280
     1
291
     1
102
ATTRRECORD}
102
{ATTRRECORD
341
15755
  2
AcDbDs::HandleAttribute
280
     7
282
     1
102
ATTRRECORD}
  2
Thumbnail_Data
280
    15
 91
        0
  0
XRECORD
  5
15752
102
{ACAD_REACTORS
330
15757
102
}
330
15757
100
AcDbXrecord
280
     1
  1
AcDbDs::TreatedAsObjectDataSchema
  2
AcDbDs::TreatedAsObjectData
280
     1
 91
        0
  0
XRECORD
  5
15753
102
{ACAD_REACTORS
330
15757
102
}
330
15757
100
AcDbXrecord
280
     1
  1
AcDbDs::LegacySchema
  2
AcDbDs::Legacy
280
     1
 91
        0
  0
XRECORD
  5
15754
102
{ACAD_REACTORS
330
15757
102
}
330
15757
100
AcDbXrecord
280
     1
  1
AcDbDs::IndexedPropertySchema
  2
AcDs:Indexable
280
     1
 91
        0
  0
XRECORD
  5
15755
102
{ACAD_REACTORS
330
15757
102
}
330
15757
100
AcDbXrecord
280
     1
  1
AcDbDs::HandleAttributeSchema
  2
AcDbDs::HandleAttribute
280
     7
 91
        1
284
     1
  0
XRECORD
  5
15797
102
{ACAD_REACTORS
330
14F4E
102
}
330
14F4E
100
AcDbXrecord
280
     1
102
DISPLAYNAME
  1
Metric50
102
FLAGS
 90
        0
  0
XRECORD
  5
1575C
102
{ACAD_REACTORS
330
1575B
102
}
330
1575B
100
AcDbXrecord
280
     1
102
SHADEPLOT
 70
     0
102
SHADEPLOTRESLEVEL
 70
     2
102
SHADEPLOTCUSTOMDPI
 70
   300
  0
XRECORD
  5
1575E
102
{ACAD_REACTORS
330
1575D
102
}
330
1575D
100
AcDbXrecord
280
     1
102
SHADEPLOT
 70
     0
102
SHADEPLOTRESLEVEL
 70
     2
102
SHADEPLOTCUSTOMDPI
 70
   300
  0
XRECORD
  5
15760
102
{ACAD_REACTORS
330
1486A
102
}
330
1486A
100
AcDbXrecord
280
     1
102
MATERIAL
148
0.0
149
0.0
149
0.0
 93
        0
 94
      127
282
     0
 72
     0
 77
     0
171
     0
175
     0
179
     0
273
     0
  0
XRECORD
  5
1486C
102
{ACAD_REACTORS
330
1486A
102
}
330
1486A
100
AcDbXrecord
280
     1
270
     1
271
     1
  0
XRECORD
  5
1486B
102
{ACAD_REACTORS
330
1486A
102
}
330
1486A
100
AcDbXrecord
280
     1
270
     1
271
     1
  0
XRECORD
  5
1486F
102
{ACAD_REACTORS
330
1486A
102
}
330
1486A
100
AcDbXrecord
280
     1
270
     1
271
     1
  0
XRECORD
  5
1486E
102
{ACAD_REACTORS
330
1486A
102
}
330
1486A
100
AcDbXrecord
280
     1
270
     1
271
     1
  0
XRECORD
  5
14870
102
{ACAD_REACTORS
330
1486A
102
}
330
1486A
100
AcDbXrecord
280
     1
270
     1
271
     1
  0
XRECORD
  5
1486D
102
{ACAD_REACTORS
330
1486A
102
}
330
1486A
100
AcDbXrecord
280
     1
270
     1
271
     1
  0
XRECORD
  5
1575F
102
{ACAD_REACTORS
330
14862
102
}
330
14862
100
AcDbXrecord
280
     1
102
MATERIAL
148
0.0
149
0.0
149
0.0
 93
        0
 94
      127
282
     0
 72
     0
 77
     0
171
     0
175
     0
179
     0
273
     0
  0
XRECORD
  5
14864
102
{ACAD_REACTORS
330
14862
102
}
330
14862
100
AcDbXrecord
280
     1
270
     1
271
     1
  0
XRECORD
  5
14863
102
{ACAD_REACTORS
330
14862
102
}
330
14862
100
AcDbXrecord
280
     1
270
     1
271
     1
  0
XRECORD
  5
14867
102
{ACAD_REACTORS
330
14862
102
}
330
14862
100
AcDbXrecord
280
     1
270
     1
271
     1
  0
XRECORD
  5
14866
102
{ACAD_REACTORS
330
14862
102
}
330
14862
100
AcDbXrecord
280
     1
270
     1
271
     1
  0
XRECORD
  5
14868
102
{ACAD_REACTORS
330
14862
102
}
330
14862
100
AcDbXrecord
280
     1
270
     1
271
     1
  0
XRECORD
  5
14865
102
{ACAD_REACTORS
330
14862
102
}
330
14862
100
AcDbXrecord
280
     1
270
     1
271
     1
  0
XRECORD
  5
15761
102
{ACAD_REACTORS
330
14872
102
}
330
14872
100
AcDbXrecord
280
     1
102
MATERIAL
148
0.0
149
0.0
149
0.0
 93
        0
 94
      127
282
     0
 72
     0
 77
     0
171
     0
175
     0
179
     0
273
     0
  0
XRECORD
  5
14874
102
{ACAD_REACTORS
330
14872
102
}
330
14872
100
AcDbXrecord
280
     1
270
     1
271
     1
  0
XRECORD
  5
14873
102
{ACAD_REACTORS
330
14872
102
}
330
14872
100
AcDbXrecord
280
     1
270
     1
271
     1
  0
XRECORD
  5
14877
102
{ACAD_REACTORS
330
14872
102
}
330
14872
100
AcDbXrecord
280
     1
270
     1
271
     1
  0
XRECORD
  5
14876
102
{ACAD_REACTORS
330
14872
102
}
330
14872
100
AcDbXrecord
280
     1
270
     1
271
     1
  0
XRECORD
  5
14878
102
{ACAD_REACTORS
330
14872
102
}
330
14872
100
AcDbXrecord
280
     1
270
     1
271
     1
  0
XRECORD
  5
14875
102
{ACAD_REACTORS
330
14872
102
}
330
14872
100
AcDbXrecord
280
     1
270
     1
271
     1
  0
XRECORD
  5
15795
102
{ACAD_REACTORS
330
15794
102
}
330
15794
100
AcDbXrecord
280
     1
102
ACAD_ROUNDTRIP_2012_MLEADER_STYLE
298
     1
  0
XRECORD
  5
15796
102
{ACAD_REACTORS
330
14F4C
102
}
330
14F4C
100
AcDbXrecord
280
     1
102
DISPLAYNAME
  1
Metric50
102
FLAGS
 90
        0
  0
CELLSTYLEMAP
  5
1574E
102
{ACAD_REACTORS
330
1574D
102
}
330
1574D
100
AcDbCellStyleMap
 90
        3
300
CELLSTYLE
  1
TABLEFORMAT_BEGIN
 90
        5
170
     1
 91
        0
 92
    32768
 62
   257
 93
        1
300
CONTENTFORMAT
  1
CONTENTFORMAT_BEGIN
 90
        0
 91
        0
 92
      512
 93
        0
300

 40
0.0
140
1.0
 94
        5
 62
     0
340
7475
144
6.0
309
CONTENTFORMAT_END
171
     1
301
MARGIN
  1
CELLMARGIN_BEGIN
 40
1.5
 40
1.5
 40
1.5
 40
1.5
 40
4.5
 40
4.5
309
CELLMARGIN_END
 94
        6
 95
        1
302
GRIDFORMAT
  1
GRIDFORMAT_BEGIN
 90
        0
 91
        1
 62
     0
 92
       -2
340
0
 93
        0
 40
1.125
309
GRIDFORMAT_END
 95
        2
302
GRIDFORMAT
  1
GRIDFORMAT_BEGIN
 90
        0
 91
        1
 62
     0
 92
       -2
340
0
 93
        0
 40
1.125
309
GRIDFORMAT_END
 95
        4
302
GRIDFORMAT
  1
GRIDFORMAT_BEGIN
 90
        0
 91
        1
 62
     0
 92
       -2
340
0
 93
        0
 40
1.125
309
GRIDFORMAT_END
 95
        8
302
GRIDFORMAT
  1
GRIDFORMAT_BEGIN
 90
        0
 91
        1
 62
     0
 92
       -2
340
0
 93
        0
 40
1.125
309
GRIDFORMAT_END
 95
       16
302
GRIDFORMAT
  1
GRIDFORMAT_BEGIN
 90
        0
 91
        1
 62
     0
 92
       -2
340
0
 93
        0
 40
1.125
309
GRIDFORMAT_END
 95
       32
302
GRIDFORMAT
  1
GRIDFORMAT_BEGIN
 90
        0
 91
        1
 62
     0
 92
       -2
340
0
 93
        0
 40
1.125
309
GRIDFORMAT_END
309
TABLEFORMAT_END
  1
CELLSTYLE_BEGIN
 90
        1
 91
        1
300
_TITLE
309
CELLSTYLE_END
300
CELLSTYLE
  1
TABLEFORMAT_BEGIN
 90
        5
170
     1
 91
        0
 92
        0
 62
   257
 93
        1
300
CONTENTFORMAT
  1
CONTENTFORMAT_BEGIN
 90
        0
 91
        0
 92
      512
 93
        0
300

 40
0.0
140
1.0
 94
        5
 62
     0
340
7475
144
4.5
309
CONTENTFORMAT_END
171
     1
301
MARGIN
  1
CELLMARGIN_BEGIN
 40
1.5
 40
1.5
 40
1.5
 40
1.5
 40
4.5
 40
4.5
309
CELLMARGIN_END
 94
        6
 95
        1
302
GRIDFORMAT
  1
GRIDFORMAT_BEGIN
 90
        0
 91
        1
 62
     0
 92
       -2
340
0
 93
        0
 40
1.125
309
GRIDFORMAT_END
 95
        2
302
GRIDFORMAT
  1
GRIDFORMAT_BEGIN
 90
        0
 91
        1
 62
     0
 92
       -2
340
0
 93
        0
 40
1.125
309
GRIDFORMAT_END
 95
        4
302
GRIDFORMAT
  1
GRIDFORMAT_BEGIN
 90
        0
 91
        1
 62
     0
 92
       -2
340
0
 93
        0
 40
1.125
309
GRIDFORMAT_END
 95
        8
302
GRIDFORMAT
  1
GRIDFORMAT_BEGIN
 90
        0
 91
        1
 62
     0
 92
       -2
340
0
 93
        0
 40
1.125
309
GRIDFORMAT_END
 95
       16
302
GRIDFORMAT
  1
GRIDFORMAT_BEGIN
 90
        0
 91
        1
 62
     0
 92
       -2
340
0
 93
        0
 40
1.125
309
GRIDFORMAT_END
 95
       32
302
GRIDFORMAT
  1
GRIDFORMAT_BEGIN
 90
        0
 91
        1
 62
     0
 92
       -2
340
0
 93
        0
 40
1.125
309
GRIDFORMAT_END
309
TABLEFORMAT_END
  1
CELLSTYLE_BEGIN
 90
        2
 91
        1
300
_HEADER
309
CELLSTYLE_END
300
CELLSTYLE
  1
TABLEFORMAT_BEGIN
 90
        5
170
     1
 91
        0
 92
        0
 62
   257
 93
        1
300
CONTENTFORMAT
  1
CONTENTFORMAT_BEGIN
 90
        0
 91
        0
 92
      512
 93
        0
300

 40
0.0
140
1.0
 94
        2
 62
     0
340
7475
144
4.5
309
CONTENTFORMAT_END
171
     1
301
MARGIN
  1
CELLMARGIN_BEGIN
 40
1.5
 40
1.5
 40
1.5
 40
1.5
 40
4.5
 40
4.5
309
CELLMARGIN_END
 94
        6
 95
        1
302
GRIDFORMAT
  1
GRIDFORMAT_BEGIN
 90
        0
 91
        1
 62
     0
 92
       -2
340
0
 93
        0
 40
1.125
309
GRIDFORMAT_END
 95
        2
302
GRIDFORMAT
  1
GRIDFORMAT_BEGIN
 90
        0
 91
        1
 62
     0
 92
       -2
340
0
 93
        0
 40
1.125
309
GRIDFORMAT_END
 95
        4
302
GRIDFORMAT
  1
GRIDFORMAT_BEGIN
 90
        0
 91
        1
 62
     0
 92
       -2
340
0
 93
        0
 40
1.125
309
GRIDFORMAT_END
 95
        8
302
GRIDFORMAT
  1
GRIDFORMAT_BEGIN
 90
        0
 91
        1
 62
     0
 92
       -2
340
0
 93
        0
 40
1.125
309
GRIDFORMAT_END
 95
       16
302
GRIDFORMAT
  1
GRIDFORMAT_BEGIN
 90
        0
 91
        1
 62
     0
 92
       -2
340
0
 93
        0
 40
1.125
309
GRIDFORMAT_END
 95
       32
302
GRIDFORMAT
  1
GRIDFORMAT_BEGIN
 90
        0
 91
        1
 62
     0
 92
       -2
340
0
 93
        0
 40
1.125
309
GRIDFORMAT_END
309
TABLEFORMAT_END
  1
CELLSTYLE_BEGIN
 90
        3
 91
        2
300
_DATA
309
CELLSTYLE_END
  0
XRECORD
  5
15792
102
{ACAD_REACTORS
330
1574D
102
}
330
1574D
100
AcDbXrecord
280
     1
102
ACAD_ROUNDTRIP_PRE2007_TABLESTYLE
 90
      512
 91
        0
  1

 92
      512
 93
        0
  2

 94
      512
 95
        0
  3

  0
XRECORD
  5
1576D
102
{ACAD_REACTORS
330
1576C
102
}
330
1576C
100
AcDbXrecord
280
     1
102
RTVSPost2010Prop28
280
     1
102
RTVSPost2010PropOp28
 70
     1
102
RTVSPost2010Prop29
280
     1
102
RTVSPost2010PropOp29
 70
     1
102
RTVSPost2010Prop30
280
     0
102
RTVSPost2010PropOp30
 70
     1
102
RTVSPost2010Prop31
280
     0
102
RTVSPost2010PropOp31
 70
     1
102
RTVSPost2010Prop32
280
     0
102
RTVSPost2010PropOp32
 70
     1
102
RTVSPost2010Prop33
280
     0
102
RTVSPost2010PropOp33
 70
     1
102
RTVSPost2010Prop34
280
     0
102
RTVSPost2010PropOp34
 70
     1
102
RTVSPost2010Prop35
280
     0
102
RTVSPost2010PropOp35
 70
     1
102
RTVSPost2010Prop36
280
     0
102
RTVSPost2010PropOp36
 70
     1
102
RTVSPost2010Prop37
 90
       50
102
RTVSPost2010PropOp37
 70
     1
102
RTVSPost2010Prop38
140
0.0
102
RTVSPost2010PropOp38
 70
     1
102
RTVSPost2010Prop39
140
1.0
102
RTVSPost2010PropOp39
 70
     1
102
RTVSPost2010Prop40
 90
        0
102
RTVSPost2010PropOp40
 70
     1
102
RTVSPost2010Prop41ColorIndex
 90
       18
102
RTVSPost2010Prop41ColorRGB
 90
        0
102
RTVSPost2010PropOp41
 70
     1
102
RTVSPost2010Prop42
 90
       50
102
RTVSPost2010PropOp42
 70
     1
102
RTVSPost2010Prop43
 90
        3
102
RTVSPost2010PropOp43
 70
     1
102
RTVSPost2010Prop44ColorIndex
 90
        5
102
RTVSPost2010Prop44ColorRGB
 90
      255
102
RTVSPost2010PropOp44
 70
     1
102
RTVSPost2010Prop45
280
     0
102
RTVSPost2010PropOp45
 70
     1
102
RTVSPost2010Prop46
 90
       50
102
RTVSPost2010PropOp46
 70
     1
102
RTVSPost2010Prop47
 90
       50
102
RTVSPost2010PropOp47
 70
     1
102
RTVSPost2010Prop48
 90
       50
102
RTVSPost2010PropOp48
 70
     1
102
RTVSPost2010Prop49
280
     0
102
RTVSPost2010PropOp49
 70
     1
102
RTVSPost2010Prop50
 90
       50
102
RTVSPost2010PropOp50
 70
     1
102
RTVSPost2010Prop51ColorIndex
 90
      256
102
RTVSPost2010Prop51ColorRGB
 90
-16777216
102
RTVSPost2010PropOp51
 70
     0
102
RTVSPost2010Prop52
140
1.0
102
RTVSPost2010PropOp52
 70
     0
102
RTVSPost2010Prop53
 90
        2
102
RTVSPost2010PropOp53
 70
     1
102
RTVSPost2010Prop54
  1
strokes_ogs.tif
102
RTVSPost2010PropOp54
 70
     1
102
RTVSPost2010Prop55
280
     0
102
RTVSPost2010PropOp55
 70
     1
102
RTVSPost2010Prop56
140
1.0
102
RTVSPost2010PropOp56
 70
     1
102
RTVSPost2010Prop57
140
1.0
102
RTVSPost2010PropOp57
 70
     1
102
RTVSPropertyOp0
 70
     1
102
RTVSPropertyOp1
 70
     1
102
RTVSPropertyOp2
 70
     1
102
RTVSPropertyOp3
 70
     1
102
RTVSPropertyOp4
 70
     1
102
RTVSPropertyOp5
 70
     1
102
RTVSPropertyOp6
 70
     1
102
RTVSPropertyOp7
 70
     1
102
RTVSPropertyOp8
 70
     1
102
RTVSPropertyOp9
 70
     1
102
RTVSPropertyOp10
 70
     1
102
RTVSPropertyOp11
 70
     1
102
RTVSPropertyOp12
 70
     1
102
RTVSPropertyOp13
 70
     1
102
RTVSPropertyOp14
 70
     1
102
RTVSPropertyOp15
 70
     1
102
RTVSPropertyOp16
 70
     1
102
RTVSPropertyOp17
 70
     1
102
RTVSPropertyOp18
 70
     1
102
RTVSPropertyOp19
 70
     1
102
RTVSPropertyOp20
 70
     1
102
RTVSPropertyOp21
 70
     1
102
RTVSPropertyOp22
 70
     1
102
RTVSPropertyOp23
 70
     1
102
RTVSPropertyOp24
 70
     1
102
RTVSPropertyOp25
 70
     1
102
RTVSPropertyOp26
 70
     1
102
RTVSPropertyOp27
 70
     1
102
RTVSPropertyOp28
 70
     1
102
RTVSPropertyOp29
 70
     1
102
RTVSPropertyOp30
 70
     1
102
RTVSPropertyOp31
 70
     1
102
RTVSPropertyOp32
 70
     1
102
RTVSPropertyOp33
 70
     1
102
RTVSPropertyOp34
 70
     1
102
RTVSPropertyOp35
 70
     1
102
RTVSPropertyOp36
 70
     1
102
RTVSPropertyOp37
 70
     1
102
RTVSPropertyOp38
 70
     1
102
RTVSPropertyOp39
 70
     1
102
RTVSPropertyOp40
 70
     1
102
RTVSPropertyOp41
 70
     1
102
RTVSPropertyOp42
 70
     1
102
RTVSPropertyOp43
 70
     1
102
RTVSPropertyOp44
 70
     1
102
RTVSPropertyOp45
 70
     1
102
RTVSPropertyOp46
 70
     1
102
RTVSPropertyOp47
 70
     1
102
RTVSPropertyOp48
 70
     1
102
RTVSPropertyOp49
 70
     1
102
RTVSPropertyOp50
 70
     1
102
RTVSPropertyOp51
 70
     0
102
RTVSPropertyOp52
 70
     0
102
RTVSPropertyOp53
 70
     1
102
RTVSPropertyOp54
 70
     1
102
RTVSPropertyOp55
 70
     1
102
RTVSPropertyOp56
 70
     1
102
RTVSPropertyOp57
 70
     1
102
RTVSPropertyOp58
 70
     1
102
RTVSPropertyOp59
 70
     1
102
RTVSPropertyOp60
 70
     1
102
RTVSPropertyOp61
 70
     1
102
RTVSPropertyOp62
 70
     1
  0
XRECORD
  5
1576B
102
{ACAD_REACTORS
330
1576A
102
}
330
1576A
100
AcDbXrecord
280
     1
102
RTVSPost2010Prop28
280
     0
102
RTVSPost2010PropOp28
 70
     1
102
RTVSPost2010Prop29
280
     1
102
RTVSPost2010PropOp29
 70
     1
102
RTVSPost2010Prop30
280
     1
102
RTVSPost2010PropOp30
 70
     1
102
RTVSPost2010Prop31
280
     0
102
RTVSPost2010PropOp31
 70
     1
102
RTVSPost2010Prop32
280
     0
102
RTVSPost2010PropOp32
 70
     1
102
RTVSPost2010Prop33
280
     0
102
RTVSPost2010PropOp33
 70
     1
102
RTVSPost2010Prop34
280
     0
102
RTVSPost2010PropOp34
 70
     1
102
RTVSPost2010Prop35
280
     0
102
RTVSPost2010PropOp35
 70
     1
102
RTVSPost2010Prop36
280
     0
102
RTVSPost2010PropOp36
 70
     1
102
RTVSPost2010Prop37
 90
       50
102
RTVSPost2010PropOp37
 70
     1
102
RTVSPost2010Prop38
140
0.0
102
RTVSPost2010PropOp38
 70
     1
102
RTVSPost2010Prop39
140
1.0
102
RTVSPost2010PropOp39
 70
     1
102
RTVSPost2010Prop40
 90
        0
102
RTVSPost2010PropOp40
 70
     1
102
RTVSPost2010Prop41ColorIndex
 90
       18
102
RTVSPost2010Prop41ColorRGB
 90
        0
102
RTVSPost2010PropOp41
 70
     1
102
RTVSPost2010Prop42
 90
       50
102
RTVSPost2010PropOp42
 70
     1
102
RTVSPost2010Prop43
 90
        3
102
RTVSPost2010PropOp43
 70
     1
102
RTVSPost2010Prop44ColorIndex
 90
        5
102
RTVSPost2010Prop44ColorRGB
 90
      255
102
RTVSPost2010PropOp44
 70
     1
102
RTVSPost2010Prop45
280
     0
102
RTVSPost2010PropOp45
 70
     1
102
RTVSPost2010Prop46
 90
       50
102
RTVSPost2010PropOp46
 70
     1
102
RTVSPost2010Prop47
 90
       50
102
RTVSPost2010PropOp47
 70
     1
102
RTVSPost2010Prop48
 90
       50
102
RTVSPost2010PropOp48
 70
     1
102
RTVSPost2010Prop49
280
     0
102
RTVSPost2010PropOp49
 70
     1
102
RTVSPost2010Prop50
 90
       50
102
RTVSPost2010PropOp50
 70
     1
102
RTVSPost2010Prop51ColorIndex
 90
      256
102
RTVSPost2010Prop51ColorRGB
 90
-16777216
102
RTVSPost2010PropOp51
 70
     0
102
RTVSPost2010Prop52
140
1.0
102
RTVSPost2010PropOp52
 70
     0
102
RTVSPost2010Prop53
 90
        2
102
RTVSPost2010PropOp53
 70
     1
102
RTVSPost2010Prop54
  1
strokes_ogs.tif
102
RTVSPost2010PropOp54
 70
     1
102
RTVSPost2010Prop55
280
     0
102
RTVSPost2010PropOp55
 70
     1
102
RTVSPost2010Prop56
140
1.0
102
RTVSPost2010PropOp56
 70
     1
102
RTVSPost2010Prop57
140
1.0
102
RTVSPost2010PropOp57
 70
     1
102
RTVSPropertyOp0
 70
     1
102
RTVSPropertyOp1
 70
     1
102
RTVSPropertyOp2
 70
     1
102
RTVSPropertyOp3
 70
     1
102
RTVSPropertyOp4
 70
     1
102
RTVSPropertyOp5
 70
     1
102
RTVSPropertyOp6
 70
     1
102
RTVSPropertyOp7
 70
     1
102
RTVSPropertyOp8
 70
     1
102
RTVSPropertyOp9
 70
     1
102
RTVSPropertyOp10
 70
     1
102
RTVSPropertyOp11
 70
     1
102
RTVSPropertyOp12
 70
     1
102
RTVSPropertyOp13
 70
     1
102
RTVSPropertyOp14
 70
     1
102
RTVSPropertyOp15
 70
     1
102
RTVSPropertyOp16
 70
     1
102
RTVSPropertyOp17
 70
     1
102
RTVSPropertyOp18
 70
     1
102
RTVSPropertyOp19
 70
     1
102
RTVSPropertyOp20
 70
     1
102
RTVSPropertyOp21
 70
     1
102
RTVSPropertyOp22
 70
     1
102
RTVSPropertyOp23
 70
     1
102
RTVSPropertyOp24
 70
     1
102
RTVSPropertyOp25
 70
     1
102
RTVSPropertyOp26
 70
     1
102
RTVSPropertyOp27
 70
     1
102
RTVSPropertyOp28
 70
     1
102
RTVSPropertyOp29
 70
     1
102
RTVSPropertyOp30
 70
     1
102
RTVSPropertyOp31
 70
     1
102
RTVSPropertyOp32
 70
     1
102
RTVSPropertyOp33
 70
     1
102
RTVSPropertyOp34
 70
     1
102
RTVSPropertyOp35
 70
     1
102
RTVSPropertyOp36
 70
     1
102
RTVSPropertyOp37
 70
     1
102
RTVSPropertyOp38
 70
     1
102
RTVSPropertyOp39
 70
     1
102
RTVSPropertyOp40
 70
     1
102
RTVSPropertyOp41
 70
     1
102
RTVSPropertyOp42
 70
     1
102
RTVSPropertyOp43
 70
     1
102
RTVSPropertyOp44
 70
     1
102
RTVSPropertyOp45
 70
     1
102
RTVSPropertyOp46
 70
     1
102
RTVSPropertyOp47
 70
     1
102
RTVSPropertyOp48
 70
     1
102
RTVSPropertyOp49
 70
     1
102
RTVSPropertyOp50
 70
     1
102
RTVSPropertyOp51
 70
     0
102
RTVSPropertyOp52
 70
     0
102
RTVSPropertyOp53
 70
     1
102
RTVSPropertyOp54
 70
     1
102
RTVSPropertyOp55
 70
     1
102
RTVSPropertyOp56
 70
     1
102
RTVSPropertyOp57
 70
     1
102
RTVSPropertyOp58
 70
     1
102
RTVSPropertyOp59
 70
     1
102
RTVSPropertyOp60
 70
     1
102
RTVSPropertyOp61
 70
     1
102
RTVSPropertyOp62
 70
     1
  0
XRECORD
  5
15779
102
{ACAD_REACTORS
330
15778
102
}
330
15778
100
AcDbXrecord
280
     1
102
RTVSPost2010Prop28
280
     0
102
RTVSPost2010PropOp28
 70
     1
102
RTVSPost2010Prop29
280
     1
102
RTVSPost2010PropOp29
 70
     1
102
RTVSPost2010Prop30
280
     1
102
RTVSPost2010PropOp30
 70
     1
102
RTVSPost2010Prop31
280
     0
102
RTVSPost2010PropOp31
 70
     1
102
RTVSPost2010Prop32
280
     0
102
RTVSPost2010PropOp32
 70
     1
102
RTVSPost2010Prop33
280
     0
102
RTVSPost2010PropOp33
 70
     1
102
RTVSPost2010Prop34
280
     0
102
RTVSPost2010PropOp34
 70
     1
102
RTVSPost2010Prop35
280
     0
102
RTVSPost2010PropOp35
 70
     1
102
RTVSPost2010Prop36
280
     0
102
RTVSPost2010PropOp36
 70
     1
102
RTVSPost2010Prop37
 90
       50
102
RTVSPost2010PropOp37
 70
     1
102
RTVSPost2010Prop38
140
0.0
102
RTVSPost2010PropOp38
 70
     1
102
RTVSPost2010Prop39
140
1.0
102
RTVSPost2010PropOp39
 70
     1
102
RTVSPost2010Prop40
 90
        0
102
RTVSPost2010PropOp40
 70
     1
102
RTVSPost2010Prop41ColorIndex
 90
       18
102
RTVSPost2010Prop41ColorRGB
 90
        0
102
RTVSPost2010PropOp41
 70
     1
102
RTVSPost2010Prop42
 90
       50
102
RTVSPost2010PropOp42
 70
     1
102
RTVSPost2010Prop43
 90
        3
102
RTVSPost2010PropOp43
 70
     1
102
RTVSPost2010Prop44ColorIndex
 90
        5
102
RTVSPost2010Prop44ColorRGB
 90
      255
102
RTVSPost2010PropOp44
 70
     1
102
RTVSPost2010Prop45
280
     0
102
RTVSPost2010PropOp45
 70
     1
102
RTVSPost2010Prop46
 90
       50
102
RTVSPost2010PropOp46
 70
     1
102
RTVSPost2010Prop47
 90
       50
102
RTVSPost2010PropOp47
 70
     1
102
RTVSPost2010Prop48
 90
       50
102
RTVSPost2010PropOp48
 70
     1
102
RTVSPost2010Prop49
280
     0
102
RTVSPost2010PropOp49
 70
     1
102
RTVSPost2010Prop50
 90
       50
102
RTVSPost2010PropOp50
 70
     1
102
RTVSPost2010Prop51ColorIndex
 90
      256
102
RTVSPost2010Prop51ColorRGB
 90
-16777216
102
RTVSPost2010PropOp51
 70
     0
102
RTVSPost2010Prop52
140
1.0
102
RTVSPost2010PropOp52
 70
     0
102
RTVSPost2010Prop53
 90
        2
102
RTVSPost2010PropOp53
 70
     1
102
RTVSPost2010Prop54
  1
strokes_ogs.tif
102
RTVSPost2010PropOp54
 70
     1
102
RTVSPost2010Prop55
280
     0
102
RTVSPost2010PropOp55
 70
     1
102
RTVSPost2010Prop56
140
1.0
102
RTVSPost2010PropOp56
 70
     1
102
RTVSPost2010Prop57
140
1.0
102
RTVSPost2010PropOp57
 70
     1
102
RTVSPropertyOp0
 70
     1
102
RTVSPropertyOp1
 70
     1
102
RTVSPropertyOp2
 70
     1
102
RTVSPropertyOp3
 70
     1
102
RTVSPropertyOp4
 70
     1
102
RTVSPropertyOp5
 70
     1
102
RTVSPropertyOp6
 70
     1
102
RTVSPropertyOp7
 70
     1
102
RTVSPropertyOp8
 70
     1
102
RTVSPropertyOp9
 70
     1
102
RTVSPropertyOp10
 70
     1
102
RTVSPropertyOp11
 70
     1
102
RTVSPropertyOp12
 70
     1
102
RTVSPropertyOp13
 70
     1
102
RTVSPropertyOp14
 70
     1
102
RTVSPropertyOp15
 70
     1
102
RTVSPropertyOp16
 70
     1
102
RTVSPropertyOp17
 70
     1
102
RTVSPropertyOp18
 70
     1
102
RTVSPropertyOp19
 70
     1
102
RTVSPropertyOp20
 70
     1
102
RTVSPropertyOp21
 70
     1
102
RTVSPropertyOp22
 70
     1
102
RTVSPropertyOp23
 70
     1
102
RTVSPropertyOp24
 70
     1
102
RTVSPropertyOp25
 70
     1
102
RTVSPropertyOp26
 70
     1
102
RTVSPropertyOp27
 70
     1
102
RTVSPropertyOp28
 70
     1
102
RTVSPropertyOp29
 70
     1
102
RTVSPropertyOp30
 70
     1
102
RTVSPropertyOp31
 70
     1
102
RTVSPropertyOp32
 70
     1
102
RTVSPropertyOp33
 70
     1
102
RTVSPropertyOp34
 70
     1
102
RTVSPropertyOp35
 70
     1
102
RTVSPropertyOp36
 70
     1
102
RTVSPropertyOp37
 70
     1
102
RTVSPropertyOp38
 70
     1
102
RTVSPropertyOp39
 70
     1
102
RTVSPropertyOp40
 70
     1
102
RTVSPropertyOp41
 70
     1
102
RTVSPropertyOp42
 70
     1
102
RTVSPropertyOp43
 70
     1
102
RTVSPropertyOp44
 70
     1
102
RTVSPropertyOp45
 70
     1
102
RTVSPropertyOp46
 70
     1
102
RTVSPropertyOp47
 70
     1
102
RTVSPropertyOp48
 70
     1
102
RTVSPropertyOp49
 70
     1
102
RTVSPropertyOp50
 70
     1
102
RTVSPropertyOp51
 70
     0
102
RTVSPropertyOp52
 70
     0
102
RTVSPropertyOp53
 70
     1
102
RTVSPropertyOp54
 70
     1
102
RTVSPropertyOp55
 70
     1
102
RTVSPropertyOp56
 70
     1
102
RTVSPropertyOp57
 70
     1
102
RTVSPropertyOp58
 70
     1
102
RTVSPropertyOp59
 70
     1
102
RTVSPropertyOp60
 70
     1
102
RTVSPropertyOp61
 70
     1
102
RTVSPropertyOp62
 70
     1
  0
XRECORD
  5
15781
102
{ACAD_REACTORS
330
15780
102
}
330
15780
100
AcDbXrecord
280
     1
102
RTVSPost2010Prop28
280
     0
102
RTVSPost2010PropOp28
 70
     1
102
RTVSPost2010Prop29
280
     1
102
RTVSPost2010PropOp29
 70
     1
102
RTVSPost2010Prop30
280
     1
102
RTVSPost2010PropOp30
 70
     1
102
RTVSPost2010Prop31
280
     0
102
RTVSPost2010PropOp31
 70
     1
102
RTVSPost2010Prop32
280
     0
102
RTVSPost2010PropOp32
 70
     1
102
RTVSPost2010Prop33
280
     0
102
RTVSPost2010PropOp33
 70
     1
102
RTVSPost2010Prop34
280
     0
102
RTVSPost2010PropOp34
 70
     1
102
RTVSPost2010Prop35
280
     0
102
RTVSPost2010PropOp35
 70
     1
102
RTVSPost2010Prop36
280
     0
102
RTVSPost2010PropOp36
 70
     1
102
RTVSPost2010Prop37
 90
       50
102
RTVSPost2010PropOp37
 70
     1
102
RTVSPost2010Prop38
140
0.0
102
RTVSPost2010PropOp38
 70
     1
102
RTVSPost2010Prop39
140
1.0
102
RTVSPost2010PropOp39
 70
     1
102
RTVSPost2010Prop40
 90
        0
102
RTVSPost2010PropOp40
 70
     1
102
RTVSPost2010Prop41ColorIndex
 90
       18
102
RTVSPost2010Prop41ColorRGB
 90
        0
102
RTVSPost2010PropOp41
 70
     1
102
RTVSPost2010Prop42
 90
       50
102
RTVSPost2010PropOp42
 70
     1
102
RTVSPost2010Prop43
 90
        3
102
RTVSPost2010PropOp43
 70
     1
102
RTVSPost2010Prop44ColorIndex
 90
        5
102
RTVSPost2010Prop44ColorRGB
 90
      255
102
RTVSPost2010PropOp44
 70
     1
102
RTVSPost2010Prop45
280
     0
102
RTVSPost2010PropOp45
 70
     1
102
RTVSPost2010Prop46
 90
       50
102
RTVSPost2010PropOp46
 70
     1
102
RTVSPost2010Prop47
 90
       50
102
RTVSPost2010PropOp47
 70
     1
102
RTVSPost2010Prop48
 90
       50
102
RTVSPost2010PropOp48
 70
     1
102
RTVSPost2010Prop49
280
     0
102
RTVSPost2010PropOp49
 70
     1
102
RTVSPost2010Prop50
 90
       50
102
RTVSPost2010PropOp50
 70
     1
102
RTVSPost2010Prop51ColorIndex
 90
      256
102
RTVSPost2010Prop51ColorRGB
 90
-16777216
102
RTVSPost2010PropOp51
 70
     0
102
RTVSPost2010Prop52
140
1.0
102
RTVSPost2010PropOp52
 70
     0
102
RTVSPost2010Prop53
 90
        2
102
RTVSPost2010PropOp53
 70
     1
102
RTVSPost2010Prop54
  1
strokes_ogs.tif
102
RTVSPost2010PropOp54
 70
     1
102
RTVSPost2010Prop55
280
     0
102
RTVSPost2010PropOp55
 70
     1
102
RTVSPost2010Prop56
140
1.0
102
RTVSPost2010PropOp56
 70
     1
102
RTVSPost2010Prop57
140
1.0
102
RTVSPost2010PropOp57
 70
     1
102
RTVSPropertyOp0
 70
     1
102
RTVSPropertyOp1
 70
     1
102
RTVSPropertyOp2
 70
     1
102
RTVSPropertyOp3
 70
     1
102
RTVSPropertyOp4
 70
     1
102
RTVSPropertyOp5
 70
     1
102
RTVSPropertyOp6
 70
     1
102
RTVSPropertyOp7
 70
     1
102
RTVSPropertyOp8
 70
     1
102
RTVSPropertyOp9
 70
     1
102
RTVSPropertyOp10
 70
     1
102
RTVSPropertyOp11
 70
     1
102
RTVSPropertyOp12
 70
     1
102
RTVSPropertyOp13
 70
     1
102
RTVSPropertyOp14
 70
     1
102
RTVSPropertyOp15
 70
     1
102
RTVSPropertyOp16
 70
     1
102
RTVSPropertyOp17
 70
     1
102
RTVSPropertyOp18
 70
     1
102
RTVSPropertyOp19
 70
     1
102
RTVSPropertyOp20
 70
     1
102
RTVSPropertyOp21
 70
     1
102
RTVSPropertyOp22
 70
     1
102
RTVSPropertyOp23
 70
     1
102
RTVSPropertyOp24
 70
     1
102
RTVSPropertyOp25
 70
     1
102
RTVSPropertyOp26
 70
     1
102
RTVSPropertyOp27
 70
     1
102
RTVSPropertyOp28
 70
     1
102
RTVSPropertyOp29
 70
     1
102
RTVSPropertyOp30
 70
     1
102
RTVSPropertyOp31
 70
     1
102
RTVSPropertyOp32
 70
     1
102
RTVSPropertyOp33
 70
     1
102
RTVSPropertyOp34
 70
     1
102
RTVSPropertyOp35
 70
     1
102
RTVSPropertyOp36
 70
     1
102
RTVSPropertyOp37
 70
     1
102
RTVSPropertyOp38
 70
     1
102
RTVSPropertyOp39
 70
     1
102
RTVSPropertyOp40
 70
     1
102
RTVSPropertyOp41
 70
     1
102
RTVSPropertyOp42
 70
     1
102
RTVSPropertyOp43
 70
     1
102
RTVSPropertyOp44
 70
     1
102
RTVSPropertyOp45
 70
     1
102
RTVSPropertyOp46
 70
     1
102
RTVSPropertyOp47
 70
     1
102
RTVSPropertyOp48
 70
     1
102
RTVSPropertyOp49
 70
     1
102
RTVSPropertyOp50
 70
     1
102
RTVSPropertyOp51
 70
     0
102
RTVSPropertyOp52
 70
     0
102
RTVSPropertyOp53
 70
     1
102
RTVSPropertyOp54
 70
     1
102
RTVSPropertyOp55
 70
     1
102
RTVSPropertyOp56
 70
     1
102
RTVSPropertyOp57
 70
     1
102
RTVSPropertyOp58
 70
     1
102
RTVSPropertyOp59
 70
     1
102
RTVSPropertyOp60
 70
     1
102
RTVSPropertyOp61
 70
     1
102
RTVSPropertyOp62
 70
     1
  0
XRECORD
  5
15773
102
{ACAD_REACTORS
330
15772
102
}
330
15772
100
AcDbXrecord
280
     1
102
RTVSPost2010Prop28
280
     0
102
RTVSPost2010PropOp28
 70
     1
102
RTVSPost2010Prop29
280
     1
102
RTVSPost2010PropOp29
 70
     1
102
RTVSPost2010Prop30
280
     1
102
RTVSPost2010PropOp30
 70
     1
102
RTVSPost2010Prop31
280
     0
102
RTVSPost2010PropOp31
 70
     1
102
RTVSPost2010Prop32
280
     0
102
RTVSPost2010PropOp32
 70
     1
102
RTVSPost2010Prop33
280
     0
102
RTVSPost2010PropOp33
 70
     1
102
RTVSPost2010Prop34
280
     0
102
RTVSPost2010PropOp34
 70
     1
102
RTVSPost2010Prop35
280
     0
102
RTVSPost2010PropOp35
 70
     1
102
RTVSPost2010Prop36
280
     0
102
RTVSPost2010PropOp36
 70
     1
102
RTVSPost2010Prop37
 90
       50
102
RTVSPost2010PropOp37
 70
     1
102
RTVSPost2010Prop38
140
0.0
102
RTVSPost2010PropOp38
 70
     1
102
RTVSPost2010Prop39
140
1.0
102
RTVSPost2010PropOp39
 70
     1
102
RTVSPost2010Prop40
 90
        0
102
RTVSPost2010PropOp40
 70
     1
102
RTVSPost2010Prop41ColorIndex
 90
       18
102
RTVSPost2010Prop41ColorRGB
 90
        0
102
RTVSPost2010PropOp41
 70
     1
102
RTVSPost2010Prop42
 90
       50
102
RTVSPost2010PropOp42
 70
     1
102
RTVSPost2010Prop43
 90
        3
102
RTVSPost2010PropOp43
 70
     1
102
RTVSPost2010Prop44ColorIndex
 90
        5
102
RTVSPost2010Prop44ColorRGB
 90
      255
102
RTVSPost2010PropOp44
 70
     1
102
RTVSPost2010Prop45
280
     0
102
RTVSPost2010PropOp45
 70
     1
102
RTVSPost2010Prop46
 90
       50
102
RTVSPost2010PropOp46
 70
     1
102
RTVSPost2010Prop47
 90
       50
102
RTVSPost2010PropOp47
 70
     1
102
RTVSPost2010Prop48
 90
       50
102
RTVSPost2010PropOp48
 70
     1
102
RTVSPost2010Prop49
280
     0
102
RTVSPost2010PropOp49
 70
     1
102
RTVSPost2010Prop50
 90
       50
102
RTVSPost2010PropOp50
 70
     1
102
RTVSPost2010Prop51ColorIndex
 90
      256
102
RTVSPost2010Prop51ColorRGB
 90
-16777216
102
RTVSPost2010PropOp51
 70
     0
102
RTVSPost2010Prop52
140
1.0
102
RTVSPost2010PropOp52
 70
     0
102
RTVSPost2010Prop53
 90
        2
102
RTVSPost2010PropOp53
 70
     1
102
RTVSPost2010Prop54
  1
strokes_ogs.tif
102
RTVSPost2010PropOp54
 70
     1
102
RTVSPost2010Prop55
280
     0
102
RTVSPost2010PropOp55
 70
     1
102
RTVSPost2010Prop56
140
1.0
102
RTVSPost2010PropOp56
 70
     1
102
RTVSPost2010Prop57
140
1.0
102
RTVSPost2010PropOp57
 70
     1
102
RTVSPropertyOp0
 70
     1
102
RTVSPropertyOp1
 70
     1
102
RTVSPropertyOp2
 70
     1
102
RTVSPropertyOp3
 70
     1
102
RTVSPropertyOp4
 70
     1
102
RTVSPropertyOp5
 70
     1
102
RTVSPropertyOp6
 70
     1
102
RTVSPropertyOp7
 70
     1
102
RTVSPropertyOp8
 70
     1
102
RTVSPropertyOp9
 70
     1
102
RTVSPropertyOp10
 70
     1
102
RTVSPropertyOp11
 70
     1
102
RTVSPropertyOp12
 70
     1
102
RTVSPropertyOp13
 70
     1
102
RTVSPropertyOp14
 70
     1
102
RTVSPropertyOp15
 70
     1
102
RTVSPropertyOp16
 70
     1
102
RTVSPropertyOp17
 70
     1
102
RTVSPropertyOp18
 70
     1
102
RTVSPropertyOp19
 70
     1
102
RTVSPropertyOp20
 70
     1
102
RTVSPropertyOp21
 70
     1
102
RTVSPropertyOp22
 70
     1
102
RTVSPropertyOp23
 70
     1
102
RTVSPropertyOp24
 70
     1
102
RTVSPropertyOp25
 70
     1
102
RTVSPropertyOp26
 70
     1
102
RTVSPropertyOp27
 70
     1
102
RTVSPropertyOp28
 70
     1
102
RTVSPropertyOp29
 70
     1
102
RTVSPropertyOp30
 70
     1
102
RTVSPropertyOp31
 70
     1
102
RTVSPropertyOp32
 70
     1
102
RTVSPropertyOp33
 70
     1
102
RTVSPropertyOp34
 70
     1
102
RTVSPropertyOp35
 70
     1
102
RTVSPropertyOp36
 70
     1
102
RTVSPropertyOp37
 70
     1
102
RTVSPropertyOp38
 70
     1
102
RTVSPropertyOp39
 70
     1
102
RTVSPropertyOp40
 70
     1
102
RTVSPropertyOp41
 70
     1
102
RTVSPropertyOp42
 70
     1
102
RTVSPropertyOp43
 70
     1
102
RTVSPropertyOp44
 70
     1
102
RTVSPropertyOp45
 70
     1
102
RTVSPropertyOp46
 70
     1
102
RTVSPropertyOp47
 70
     1
102
RTVSPropertyOp48
 70
     1
102
RTVSPropertyOp49
 70
     1
102
RTVSPropertyOp50
 70
     1
102
RTVSPropertyOp51
 70
     0
102
RTVSPropertyOp52
 70
     0
102
RTVSPropertyOp53
 70
     1
102
RTVSPropertyOp54
 70
     1
102
RTVSPropertyOp55
 70
     1
102
RTVSPropertyOp56
 70
     1
102
RTVSPropertyOp57
 70
     1
102
RTVSPropertyOp58
 70
     1
102
RTVSPropertyOp59
 70
     1
102
RTVSPropertyOp60
 70
     1
102
RTVSPropertyOp61
 70
     1
102
RTVSPropertyOp62
 70
     1
  0
XRECORD
  5
15777
102
{ACAD_REACTORS
330
15776
102
}
330
15776
100
AcDbXrecord
280
     1
102
RTVSPost2010Prop28
280
     0
102
RTVSPost2010PropOp28
 70
     1
102
RTVSPost2010Prop29
280
     1
102
RTVSPost2010PropOp29
 70
     1
102
RTVSPost2010Prop30
280
     1
102
RTVSPost2010PropOp30
 70
     1
102
RTVSPost2010Prop31
280
     0
102
RTVSPost2010PropOp31
 70
     1
102
RTVSPost2010Prop32
280
     0
102
RTVSPost2010PropOp32
 70
     1
102
RTVSPost2010Prop33
280
     0
102
RTVSPost2010PropOp33
 70
     1
102
RTVSPost2010Prop34
280
     0
102
RTVSPost2010PropOp34
 70
     1
102
RTVSPost2010Prop35
280
     0
102
RTVSPost2010PropOp35
 70
     1
102
RTVSPost2010Prop36
280
     0
102
RTVSPost2010PropOp36
 70
     1
102
RTVSPost2010Prop37
 90
       50
102
RTVSPost2010PropOp37
 70
     1
102
RTVSPost2010Prop38
140
0.0
102
RTVSPost2010PropOp38
 70
     1
102
RTVSPost2010Prop39
140
1.0
102
RTVSPost2010PropOp39
 70
     1
102
RTVSPost2010Prop40
 90
        0
102
RTVSPost2010PropOp40
 70
     1
102
RTVSPost2010Prop41ColorIndex
 90
       18
102
RTVSPost2010Prop41ColorRGB
 90
        0
102
RTVSPost2010PropOp41
 70
     1
102
RTVSPost2010Prop42
 90
       50
102
RTVSPost2010PropOp42
 70
     1
102
RTVSPost2010Prop43
 90
        3
102
RTVSPost2010PropOp43
 70
     1
102
RTVSPost2010Prop44ColorIndex
 90
        5
102
RTVSPost2010Prop44ColorRGB
 90
      255
102
RTVSPost2010PropOp44
 70
     1
102
RTVSPost2010Prop45
280
     0
102
RTVSPost2010PropOp45
 70
     1
102
RTVSPost2010Prop46
 90
       50
102
RTVSPost2010PropOp46
 70
     1
102
RTVSPost2010Prop47
 90
       50
102
RTVSPost2010PropOp47
 70
     1
102
RTVSPost2010Prop48
 90
       50
102
RTVSPost2010PropOp48
 70
     1
102
RTVSPost2010Prop49
280
     0
102
RTVSPost2010PropOp49
 70
     1
102
RTVSPost2010Prop50
 90
       50
102
RTVSPost2010PropOp50
 70
     1
102
RTVSPost2010Prop51ColorIndex
 90
      256
102
RTVSPost2010Prop51ColorRGB
 90
-16777216
102
RTVSPost2010PropOp51
 70
     0
102
RTVSPost2010Prop52
140
1.0
102
RTVSPost2010PropOp52
 70
     0
102
RTVSPost2010Prop53
 90
        2
102
RTVSPost2010PropOp53
 70
     1
102
RTVSPost2010Prop54
  1
strokes_ogs.tif
102
RTVSPost2010PropOp54
 70
     1
102
RTVSPost2010Prop55
280
     0
102
RTVSPost2010PropOp55
 70
     1
102
RTVSPost2010Prop56
140
1.0
102
RTVSPost2010PropOp56
 70
     1
102
RTVSPost2010Prop57
140
1.0
102
RTVSPost2010PropOp57
 70
     1
102
RTVSPropertyOp0
 70
     1
102
RTVSPropertyOp1
 70
     1
102
RTVSPropertyOp2
 70
     1
102
RTVSPropertyOp3
 70
     1
102
RTVSPropertyOp4
 70
     1
102
RTVSPropertyOp5
 70
     1
102
RTVSPropertyOp6
 70
     1
102
RTVSPropertyOp7
 70
     1
102
RTVSPropertyOp8
 70
     1
102
RTVSPropertyOp9
 70
     1
102
RTVSPropertyOp10
 70
     1
102
RTVSPropertyOp11
 70
     1
102
RTVSPropertyOp12
 70
     1
102
RTVSPropertyOp13
 70
     1
102
RTVSPropertyOp14
 70
     1
102
RTVSPropertyOp15
 70
     1
102
RTVSPropertyOp16
 70
     1
102
RTVSPropertyOp17
 70
     1
102
RTVSPropertyOp18
 70
     1
102
RTVSPropertyOp19
 70
     1
102
RTVSPropertyOp20
 70
     1
102
RTVSPropertyOp21
 70
     1
102
RTVSPropertyOp22
 70
     1
102
RTVSPropertyOp23
 70
     1
102
RTVSPropertyOp24
 70
     1
102
RTVSPropertyOp25
 70
     1
102
RTVSPropertyOp26
 70
     1
102
RTVSPropertyOp27
 70
     1
102
RTVSPropertyOp28
 70
     1
102
RTVSPropertyOp29
 70
     1
102
RTVSPropertyOp30
 70
     1
102
RTVSPropertyOp31
 70
     1
102
RTVSPropertyOp32
 70
     1
102
RTVSPropertyOp33
 70
     1
102
RTVSPropertyOp34
 70
     1
102
RTVSPropertyOp35
 70
     1
102
RTVSPropertyOp36
 70
     1
102
RTVSPropertyOp37
 70
     1
102
RTVSPropertyOp38
 70
     1
102
RTVSPropertyOp39
 70
     1
102
RTVSPropertyOp40
 70
     1
102
RTVSPropertyOp41
 70
     1
102
RTVSPropertyOp42
 70
     1
102
RTVSPropertyOp43
 70
     1
102
RTVSPropertyOp44
 70
     1
102
RTVSPropertyOp45
 70
     1
102
RTVSPropertyOp46
 70
     1
102
RTVSPropertyOp47
 70
     1
102
RTVSPropertyOp48
 70
     1
102
RTVSPropertyOp49
 70
     1
102
RTVSPropertyOp50
 70
     1
102
RTVSPropertyOp51
 70
     0
102
RTVSPropertyOp52
 70
     0
102
RTVSPropertyOp53
 70
     1
102
RTVSPropertyOp54
 70
     1
102
RTVSPropertyOp55
 70
     1
102
RTVSPropertyOp56
 70
     1
102
RTVSPropertyOp57
 70
     1
102
RTVSPropertyOp58
 70
     1
102
RTVSPropertyOp59
 70
     1
102
RTVSPropertyOp60
 70
     1
102
RTVSPropertyOp61
 70
     1
102
RTVSPropertyOp62
 70
     1
  0
XRECORD
  5
15791
102
{ACAD_REACTORS
330
15790
102
}
330
15790
100
AcDbXrecord
280
     1
102
RTVSPost2010Prop28
280
     0
102
RTVSPost2010PropOp28
 70
     0
102
RTVSPost2010Prop29
280
     1
102
RTVSPost2010PropOp29
 70
     0
102
RTVSPost2010Prop30
280
     1
102
RTVSPost2010PropOp30
 70
     0
102
RTVSPost2010Prop31
280
     0
102
RTVSPost2010PropOp31
 70
     0
102
RTVSPost2010Prop32
280
     0
102
RTVSPost2010PropOp32
 70
     0
102
RTVSPost2010Prop33
280
     0
102
RTVSPost2010PropOp33
 70
     0
102
RTVSPost2010Prop34
280
     0
102
RTVSPost2010PropOp34
 70
     0
102
RTVSPost2010Prop35
280
     0
102
RTVSPost2010PropOp35
 70
     0
102
RTVSPost2010Prop36
280
     0
102
RTVSPost2010PropOp36
 70
     0
102
RTVSPost2010Prop37
 90
       50
102
RTVSPost2010PropOp37
 70
     0
102
RTVSPost2010Prop38
140
0.0
102
RTVSPost2010PropOp38
 70
     0
102
RTVSPost2010Prop39
140
1.0
102
RTVSPost2010PropOp39
 70
     0
102
RTVSPost2010Prop40
 90
        0
102
RTVSPost2010PropOp40
 70
     0
102
RTVSPost2010Prop41ColorIndex
 90
       18
102
RTVSPost2010Prop41ColorRGB
 90
        0
102
RTVSPost2010PropOp41
 70
     0
102
RTVSPost2010Prop42
 90
       50
102
RTVSPost2010PropOp42
 70
     0
102
RTVSPost2010Prop43
 90
        3
102
RTVSPost2010PropOp43
 70
     0
102
RTVSPost2010Prop44ColorIndex
 90
        5
102
RTVSPost2010Prop44ColorRGB
 90
      255
102
RTVSPost2010PropOp44
 70
     0
102
RTVSPost2010Prop45
280
     0
102
RTVSPost2010PropOp45
 70
     0
102
RTVSPost2010Prop46
 90
       50
102
RTVSPost2010PropOp46
 70
     0
102
RTVSPost2010Prop47
 90
       50
102
RTVSPost2010PropOp47
 70
     0
102
RTVSPost2010Prop48
 90
       50
102
RTVSPost2010PropOp48
 70
     0
102
RTVSPost2010Prop49
280
     0
102
RTVSPost2010PropOp49
 70
     0
102
RTVSPost2010Prop50
 90
       50
102
RTVSPost2010PropOp50
 70
     0
102
RTVSPost2010Prop51ColorIndex
 90
      256
102
RTVSPost2010Prop51ColorRGB
 90
-16777216
102
RTVSPost2010PropOp51
 70
     0
102
RTVSPost2010Prop52
140
1.0
102
RTVSPost2010PropOp52
 70
     0
102
RTVSPost2010Prop53
 90
        2
102
RTVSPost2010PropOp53
 70
     0
102
RTVSPost2010Prop54
  1
strokes_ogs.tif
102
RTVSPost2010PropOp54
 70
     0
102
RTVSPost2010Prop55
280
     0
102
RTVSPost2010PropOp55
 70
     0
102
RTVSPost2010Prop56
140
1.0
102
RTVSPost2010PropOp56
 70
     0
102
RTVSPost2010Prop57
140
1.0
102
RTVSPost2010PropOp57
 70
     0
102
RTVSPropertyOp0
 70
     0
102
RTVSPropertyOp1
 70
     0
102
RTVSPropertyOp2
 70
     0
102
RTVSPropertyOp3
 70
     0
102
RTVSPropertyOp4
 70
     0
102
RTVSPropertyOp5
 70
     0
102
RTVSPropertyOp6
 70
     0
102
RTVSPropertyOp7
 70
     0
102
RTVSPropertyOp8
 70
     0
102
RTVSPropertyOp9
 70
     0
102
RTVSPropertyOp10
 70
     0
102
RTVSPropertyOp11
 70
     0
102
RTVSPropertyOp12
 70
     0
102
RTVSPropertyOp13
 70
     0
102
RTVSPropertyOp14
 70
     2
102
RTVSPropertyOp15
 70
     0
102
RTVSPropertyOp16
 70
     0
102
RTVSPropertyOp17
 70
     0
102
RTVSPropertyOp18
 70
     0
102
RTVSPropertyOp19
 70
     0
102
RTVSPropertyOp20
 70
     0
102
RTVSPropertyOp21
 70
     0
102
RTVSPropertyOp22
 70
     0
102
RTVSPropertyOp23
 70
     0
102
RTVSPropertyOp24
 70
     0
102
RTVSPropertyOp25
 70
     0
102
RTVSPropertyOp26
 70
     0
102
RTVSPropertyOp27
 70
     0
102
RTVSPropertyOp28
 70
     0
102
RTVSPropertyOp29
 70
     0
102
RTVSPropertyOp30
 70
     0
102
RTVSPropertyOp31
 70
     0
102
RTVSPropertyOp32
 70
     0
102
RTVSPropertyOp33
 70
     0
102
RTVSPropertyOp34
 70
     0
102
RTVSPropertyOp35
 70
     0
102
RTVSPropertyOp36
 70
     0
102
RTVSPropertyOp37
 70
     0
102
RTVSPropertyOp38
 70
     0
102
RTVSPropertyOp39
 70
     0
102
RTVSPropertyOp40
 70
     0
102
RTVSPropertyOp41
 70
     0
102
RTVSPropertyOp42
 70
     0
102
RTVSPropertyOp43
 70
     0
102
RTVSPropertyOp44
 70
     0
102
RTVSPropertyOp45
 70
     0
102
RTVSPropertyOp46
 70
     0
102
RTVSPropertyOp47
 70
     0
102
RTVSPropertyOp48
 70
     0
102
RTVSPropertyOp49
 70
     0
102
RTVSPropertyOp50
 70
     0
102
RTVSPropertyOp51
 70
     0
102
RTVSPropertyOp52
 70
     0
102
RTVSPropertyOp53
 70
     0
102
RTVSPropertyOp54
 70
     0
102
RTVSPropertyOp55
 70
     0
102
RTVSPropertyOp56
 70
     0
102
RTVSPropertyOp57
 70
     0
102
RTVSPropertyOp58
 70
     1
102
RTVSPropertyOp59
 70
     1
102
RTVSPropertyOp60
 70
     1
102
RTVSPropertyOp61
 70
     1
102
RTVSPropertyOp62
 70
     1
  0
XRECORD
  5
1577F
102
{ACAD_REACTORS
330
1577E
102
}
330
1577E
100
AcDbXrecord
280
     1
102
RTVSPost2010Prop28
280
     0
102
RTVSPost2010PropOp28
 70
     1
102
RTVSPost2010Prop29
280
     1
102
RTVSPost2010PropOp29
 70
     1
102
RTVSPost2010Prop30
280
     1
102
RTVSPost2010PropOp30
 70
     1
102
RTVSPost2010Prop31
280
     0
102
RTVSPost2010PropOp31
 70
     1
102
RTVSPost2010Prop32
280
     0
102
RTVSPost2010PropOp32
 70
     1
102
RTVSPost2010Prop33
280
     0
102
RTVSPost2010PropOp33
 70
     1
102
RTVSPost2010Prop34
280
     0
102
RTVSPost2010PropOp34
 70
     1
102
RTVSPost2010Prop35
280
     0
102
RTVSPost2010PropOp35
 70
     1
102
RTVSPost2010Prop36
280
     0
102
RTVSPost2010PropOp36
 70
     1
102
RTVSPost2010Prop37
 90
       50
102
RTVSPost2010PropOp37
 70
     1
102
RTVSPost2010Prop38
140
0.0
102
RTVSPost2010PropOp38
 70
     1
102
RTVSPost2010Prop39
140
1.0
102
RTVSPost2010PropOp39
 70
     1
102
RTVSPost2010Prop40
 90
        0
102
RTVSPost2010PropOp40
 70
     1
102
RTVSPost2010Prop41ColorIndex
 90
       18
102
RTVSPost2010Prop41ColorRGB
 90
        0
102
RTVSPost2010PropOp41
 70
     1
102
RTVSPost2010Prop42
 90
       50
102
RTVSPost2010PropOp42
 70
     1
102
RTVSPost2010Prop43
 90
        3
102
RTVSPost2010PropOp43
 70
     1
102
RTVSPost2010Prop44ColorIndex
 90
        5
102
RTVSPost2010Prop44ColorRGB
 90
      255
102
RTVSPost2010PropOp44
 70
     1
102
RTVSPost2010Prop45
280
     0
102
RTVSPost2010PropOp45
 70
     1
102
RTVSPost2010Prop46
 90
       50
102
RTVSPost2010PropOp46
 70
     1
102
RTVSPost2010Prop47
 90
       50
102
RTVSPost2010PropOp47
 70
     1
102
RTVSPost2010Prop48
 90
       50
102
RTVSPost2010PropOp48
 70
     1
102
RTVSPost2010Prop49
280
     0
102
RTVSPost2010PropOp49
 70
     1
102
RTVSPost2010Prop50
 90
       50
102
RTVSPost2010PropOp50
 70
     1
102
RTVSPost2010Prop51ColorIndex
 90
      256
102
RTVSPost2010Prop51ColorRGB
 90
-16777216
102
RTVSPost2010PropOp51
 70
     0
102
RTVSPost2010Prop52
140
1.0
102
RTVSPost2010PropOp52
 70
     0
102
RTVSPost2010Prop53
 90
        2
102
RTVSPost2010PropOp53
 70
     1
102
RTVSPost2010Prop54
  1
strokes_ogs.tif
102
RTVSPost2010PropOp54
 70
     1
102
RTVSPost2010Prop55
280
     0
102
RTVSPost2010PropOp55
 70
     1
102
RTVSPost2010Prop56
140
1.0
102
RTVSPost2010PropOp56
 70
     1
102
RTVSPost2010Prop57
140
1.0
102
RTVSPost2010PropOp57
 70
     1
102
RTVSPropertyOp0
 70
     1
102
RTVSPropertyOp1
 70
     1
102
RTVSPropertyOp2
 70
     1
102
RTVSPropertyOp3
 70
     1
102
RTVSPropertyOp4
 70
     1
102
RTVSPropertyOp5
 70
     1
102
RTVSPropertyOp6
 70
     1
102
RTVSPropertyOp7
 70
     1
102
RTVSPropertyOp8
 70
     1
102
RTVSPropertyOp9
 70
     1
102
RTVSPropertyOp10
 70
     1
102
RTVSPropertyOp11
 70
     1
102
RTVSPropertyOp12
 70
     1
102
RTVSPropertyOp13
 70
     1
102
RTVSPropertyOp14
 70
     1
102
RTVSPropertyOp15
 70
     1
102
RTVSPropertyOp16
 70
     1
102
RTVSPropertyOp17
 70
     1
102
RTVSPropertyOp18
 70
     1
102
RTVSPropertyOp19
 70
     1
102
RTVSPropertyOp20
 70
     1
102
RTVSPropertyOp21
 70
     1
102
RTVSPropertyOp22
 70
     1
102
RTVSPropertyOp23
 70
     1
102
RTVSPropertyOp24
 70
     1
102
RTVSPropertyOp25
 70
     1
102
RTVSPropertyOp26
 70
     1
102
RTVSPropertyOp27
 70
     1
102
RTVSPropertyOp28
 70
     1
102
RTVSPropertyOp29
 70
     1
102
RTVSPropertyOp30
 70
     1
102
RTVSPropertyOp31
 70
     1
102
RTVSPropertyOp32
 70
     1
102
RTVSPropertyOp33
 70
     1
102
RTVSPropertyOp34
 70
     1
102
RTVSPropertyOp35
 70
     1
102
RTVSPropertyOp36
 70
     1
102
RTVSPropertyOp37
 70
     1
102
RTVSPropertyOp38
 70
     1
102
RTVSPropertyOp39
 70
     1
102
RTVSPropertyOp40
 70
     1
102
RTVSPropertyOp41
 70
     1
102
RTVSPropertyOp42
 70
     1
102
RTVSPropertyOp43
 70
     1
102
RTVSPropertyOp44
 70
     1
102
RTVSPropertyOp45
 70
     1
102
RTVSPropertyOp46
 70
     1
102
RTVSPropertyOp47
 70
     1
102
RTVSPropertyOp48
 70
     1
102
RTVSPropertyOp49
 70
     1
102
RTVSPropertyOp50
 70
     1
102
RTVSPropertyOp51
 70
     0
102
RTVSPropertyOp52
 70
     0
102
RTVSPropertyOp53
 70
     1
102
RTVSPropertyOp54
 70
     1
102
RTVSPropertyOp55
 70
     1
102
RTVSPropertyOp56
 70
     1
102
RTVSPropertyOp57
 70
     1
102
RTVSPropertyOp58
 70
     1
102
RTVSPropertyOp59
 70
     1
102
RTVSPropertyOp60
 70
     1
102
RTVSPropertyOp61
 70
     1
102
RTVSPropertyOp62
 70
     1
  0
XRECORD
  5
15763
102
{ACAD_REACTORS
330
15762
102
}
330
15762
100
AcDbXrecord
280
     1
102
RTVSPost2010Prop28
280
     0
102
RTVSPost2010PropOp28
 70
     1
102
RTVSPost2010Prop29
280
     1
102
RTVSPost2010PropOp29
 70
     1
102
RTVSPost2010Prop30
280
     1
102
RTVSPost2010PropOp30
 70
     1
102
RTVSPost2010Prop31
280
     0
102
RTVSPost2010PropOp31
 70
     1
102
RTVSPost2010Prop32
280
     0
102
RTVSPost2010PropOp32
 70
     1
102
RTVSPost2010Prop33
280
     0
102
RTVSPost2010PropOp33
 70
     1
102
RTVSPost2010Prop34
280
     0
102
RTVSPost2010PropOp34
 70
     1
102
RTVSPost2010Prop35
280
     0
102
RTVSPost2010PropOp35
 70
     1
102
RTVSPost2010Prop36
280
     0
102
RTVSPost2010PropOp36
 70
     1
102
RTVSPost2010Prop37
 90
       50
102
RTVSPost2010PropOp37
 70
     1
102
RTVSPost2010Prop38
140
0.0
102
RTVSPost2010PropOp38
 70
     1
102
RTVSPost2010Prop39
140
1.0
102
RTVSPost2010PropOp39
 70
     1
102
RTVSPost2010Prop40
 90
        0
102
RTVSPost2010PropOp40
 70
     1
102
RTVSPost2010Prop41ColorIndex
 90
       18
102
RTVSPost2010Prop41ColorRGB
 90
        0
102
RTVSPost2010PropOp41
 70
     1
102
RTVSPost2010Prop42
 90
       50
102
RTVSPost2010PropOp42
 70
     1
102
RTVSPost2010Prop43
 90
        3
102
RTVSPost2010PropOp43
 70
     1
102
RTVSPost2010Prop44ColorIndex
 90
        5
102
RTVSPost2010Prop44ColorRGB
 90
      255
102
RTVSPost2010PropOp44
 70
     1
102
RTVSPost2010Prop45
280
     0
102
RTVSPost2010PropOp45
 70
     1
102
RTVSPost2010Prop46
 90
       50
102
RTVSPost2010PropOp46
 70
     1
102
RTVSPost2010Prop47
 90
       50
102
RTVSPost2010PropOp47
 70
     1
102
RTVSPost2010Prop48
 90
       50
102
RTVSPost2010PropOp48
 70
     1
102
RTVSPost2010Prop49
280
     0
102
RTVSPost2010PropOp49
 70
     1
102
RTVSPost2010Prop50
 90
       50
102
RTVSPost2010PropOp50
 70
     1
102
RTVSPost2010Prop51ColorIndex
 90
      256
102
RTVSPost2010Prop51ColorRGB
 90
-16777216
102
RTVSPost2010PropOp51
 70
     0
102
RTVSPost2010Prop52
140
1.0
102
RTVSPost2010PropOp52
 70
     0
102
RTVSPost2010Prop53
 90
        2
102
RTVSPost2010PropOp53
 70
     1
102
RTVSPost2010Prop54
  1
strokes_ogs.tif
102
RTVSPost2010PropOp54
 70
     1
102
RTVSPost2010Prop55
280
     0
102
RTVSPost2010PropOp55
 70
     1
102
RTVSPost2010Prop56
140
1.0
102
RTVSPost2010PropOp56
 70
     1
102
RTVSPost2010Prop57
140
1.0
102
RTVSPost2010PropOp57
 70
     1
102
RTVSPropertyOp0
 70
     1
102
RTVSPropertyOp1
 70
     1
102
RTVSPropertyOp2
 70
     1
102
RTVSPropertyOp3
 70
     1
102
RTVSPropertyOp4
 70
     1
102
RTVSPropertyOp5
 70
     1
102
RTVSPropertyOp6
 70
     1
102
RTVSPropertyOp7
 70
     1
102
RTVSPropertyOp8
 70
     1
102
RTVSPropertyOp9
 70
     1
102
RTVSPropertyOp10
 70
     1
102
RTVSPropertyOp11
 70
     1
102
RTVSPropertyOp12
 70
     1
102
RTVSPropertyOp13
 70
     1
102
RTVSPropertyOp14
 70
     1
102
RTVSPropertyOp15
 70
     1
102
RTVSPropertyOp16
 70
     1
102
RTVSPropertyOp17
 70
     1
102
RTVSPropertyOp18
 70
     1
102
RTVSPropertyOp19
 70
     1
102
RTVSPropertyOp20
 70
     1
102
RTVSPropertyOp21
 70
     1
102
RTVSPropertyOp22
 70
     1
102
RTVSPropertyOp23
 70
     1
102
RTVSPropertyOp24
 70
     1
102
RTVSPropertyOp25
 70
     1
102
RTVSPropertyOp26
 70
     1
102
RTVSPropertyOp27
 70
     1
102
RTVSPropertyOp28
 70
     1
102
RTVSPropertyOp29
 70
     1
102
RTVSPropertyOp30
 70
     1
102
RTVSPropertyOp31
 70
     1
102
RTVSPropertyOp32
 70
     1
102
RTVSPropertyOp33
 70
     1
102
RTVSPropertyOp34
 70
     1
102
RTVSPropertyOp35
 70
     1
102
RTVSPropertyOp36
 70
     1
102
RTVSPropertyOp37
 70
     1
102
RTVSPropertyOp38
 70
     1
102
RTVSPropertyOp39
 70
     1
102
RTVSPropertyOp40
 70
     1
102
RTVSPropertyOp41
 70
     1
102
RTVSPropertyOp42
 70
     1
102
RTVSPropertyOp43
 70
     1
102
RTVSPropertyOp44
 70
     1
102
RTVSPropertyOp45
 70
     1
102
RTVSPropertyOp46
 70
     1
102
RTVSPropertyOp47
 70
     1
102
RTVSPropertyOp48
 70
     1
102
RTVSPropertyOp49
 70
     1
102
RTVSPropertyOp50
 70
     1
102
RTVSPropertyOp51
 70
     0
102
RTVSPropertyOp52
 70
     0
102
RTVSPropertyOp53
 70
     1
102
RTVSPropertyOp54
 70
     1
102
RTVSPropertyOp55
 70
     1
102
RTVSPropertyOp56
 70
     1
102
RTVSPropertyOp57
 70
     1
102
RTVSPropertyOp58
 70
     1
102
RTVSPropertyOp59
 70
     1
102
RTVSPropertyOp60
 70
     1
102
RTVSPropertyOp61
 70
     1
102
RTVSPropertyOp62
 70
     1
  0
XRECORD
  5
15765
102
{ACAD_REACTORS
330
15764
102
}
330
15764
100
AcDbXrecord
280
     1
102
RTVSPost2010Prop28
280
     0
102
RTVSPost2010PropOp28
 70
     1
102
RTVSPost2010Prop29
280
     1
102
RTVSPost2010PropOp29
 70
     1
102
RTVSPost2010Prop30
280
     1
102
RTVSPost2010PropOp30
 70
     1
102
RTVSPost2010Prop31
280
     0
102
RTVSPost2010PropOp31
 70
     1
102
RTVSPost2010Prop32
280
     0
102
RTVSPost2010PropOp32
 70
     1
102
RTVSPost2010Prop33
280
     0
102
RTVSPost2010PropOp33
 70
     1
102
RTVSPost2010Prop34
280
     0
102
RTVSPost2010PropOp34
 70
     1
102
RTVSPost2010Prop35
280
     0
102
RTVSPost2010PropOp35
 70
     1
102
RTVSPost2010Prop36
280
     0
102
RTVSPost2010PropOp36
 70
     1
102
RTVSPost2010Prop37
 90
       50
102
RTVSPost2010PropOp37
 70
     1
102
RTVSPost2010Prop38
140
0.0
102
RTVSPost2010PropOp38
 70
     1
102
RTVSPost2010Prop39
140
1.0
102
RTVSPost2010PropOp39
 70
     1
102
RTVSPost2010Prop40
 90
        0
102
RTVSPost2010PropOp40
 70
     1
102
RTVSPost2010Prop41ColorIndex
 90
       18
102
RTVSPost2010Prop41ColorRGB
 90
        0
102
RTVSPost2010PropOp41
 70
     1
102
RTVSPost2010Prop42
 90
       50
102
RTVSPost2010PropOp42
 70
     1
102
RTVSPost2010Prop43
 90
        3
102
RTVSPost2010PropOp43
 70
     1
102
RTVSPost2010Prop44ColorIndex
 90
        5
102
RTVSPost2010Prop44ColorRGB
 90
      255
102
RTVSPost2010PropOp44
 70
     1
102
RTVSPost2010Prop45
280
     0
102
RTVSPost2010PropOp45
 70
     1
102
RTVSPost2010Prop46
 90
       50
102
RTVSPost2010PropOp46
 70
     1
102
RTVSPost2010Prop47
 90
       50
102
RTVSPost2010PropOp47
 70
     1
102
RTVSPost2010Prop48
 90
       50
102
RTVSPost2010PropOp48
 70
     1
102
RTVSPost2010Prop49
280
     0
102
RTVSPost2010PropOp49
 70
     1
102
RTVSPost2010Prop50
 90
       50
102
RTVSPost2010PropOp50
 70
     1
102
RTVSPost2010Prop51ColorIndex
 90
      256
102
RTVSPost2010Prop51ColorRGB
 90
-16777216
102
RTVSPost2010PropOp51
 70
     0
102
RTVSPost2010Prop52
140
1.0
102
RTVSPost2010PropOp52
 70
     0
102
RTVSPost2010Prop53
 90
        2
102
RTVSPost2010PropOp53
 70
     1
102
RTVSPost2010Prop54
  1
strokes_ogs.tif
102
RTVSPost2010PropOp54
 70
     1
102
RTVSPost2010Prop55
280
     0
102
RTVSPost2010PropOp55
 70
     1
102
RTVSPost2010Prop56
140
1.0
102
RTVSPost2010PropOp56
 70
     1
102
RTVSPost2010Prop57
140
1.0
102
RTVSPost2010PropOp57
 70
     1
102
RTVSPropertyOp0
 70
     1
102
RTVSPropertyOp1
 70
     1
102
RTVSPropertyOp2
 70
     1
102
RTVSPropertyOp3
 70
     1
102
RTVSPropertyOp4
 70
     1
102
RTVSPropertyOp5
 70
     1
102
RTVSPropertyOp6
 70
     1
102
RTVSPropertyOp7
 70
     1
102
RTVSPropertyOp8
 70
     1
102
RTVSPropertyOp9
 70
     1
102
RTVSPropertyOp10
 70
     1
102
RTVSPropertyOp11
 70
     1
102
RTVSPropertyOp12
 70
     1
102
RTVSPropertyOp13
 70
     1
102
RTVSPropertyOp14
 70
     1
102
RTVSPropertyOp15
 70
     1
102
RTVSPropertyOp16
 70
     1
102
RTVSPropertyOp17
 70
     1
102
RTVSPropertyOp18
 70
     1
102
RTVSPropertyOp19
 70
     1
102
RTVSPropertyOp20
 70
     1
102
RTVSPropertyOp21
 70
     1
102
RTVSPropertyOp22
 70
     1
102
RTVSPropertyOp23
 70
     1
102
RTVSPropertyOp24
 70
     1
102
RTVSPropertyOp25
 70
     1
102
RTVSPropertyOp26
 70
     1
102
RTVSPropertyOp27
 70
     1
102
RTVSPropertyOp28
 70
     1
102
RTVSPropertyOp29
 70
     1
102
RTVSPropertyOp30
 70
     1
102
RTVSPropertyOp31
 70
     1
102
RTVSPropertyOp32
 70
     1
102
RTVSPropertyOp33
 70
     1
102
RTVSPropertyOp34
 70
     1
102
RTVSPropertyOp35
 70
     1
102
RTVSPropertyOp36
 70
     1
102
RTVSPropertyOp37
 70
     1
102
RTVSPropertyOp38
 70
     1
102
RTVSPropertyOp39
 70
     1
102
RTVSPropertyOp40
 70
     1
102
RTVSPropertyOp41
 70
     1
102
RTVSPropertyOp42
 70
     1
102
RTVSPropertyOp43
 70
     1
102
RTVSPropertyOp44
 70
     1
102
RTVSPropertyOp45
 70
     1
102
RTVSPropertyOp46
 70
     1
102
RTVSPropertyOp47
 70
     1
102
RTVSPropertyOp48
 70
     1
102
RTVSPropertyOp49
 70
     1
102
RTVSPropertyOp50
 70
     1
102
RTVSPropertyOp51
 70
     0
102
RTVSPropertyOp52
 70
     0
102
RTVSPropertyOp53
 70
     1
102
RTVSPropertyOp54
 70
     1
102
RTVSPropertyOp55
 70
     1
102
RTVSPropertyOp56
 70
     1
102
RTVSPropertyOp57
 70
     1
102
RTVSPropertyOp58
 70
     1
102
RTVSPropertyOp59
 70
     1
102
RTVSPropertyOp60
 70
     1
102
RTVSPropertyOp61
 70
     1
102
RTVSPropertyOp62
 70
     1
  0
XRECORD
  5
15767
102
{ACAD_REACTORS
330
15766
102
}
330
15766
100
AcDbXrecord
280
     1
102
RTVSPost2010Prop28
280
     0
102
RTVSPost2010PropOp28
 70
     1
102
RTVSPost2010Prop29
280
     1
102
RTVSPost2010PropOp29
 70
     1
102
RTVSPost2010Prop30
280
     1
102
RTVSPost2010PropOp30
 70
     1
102
RTVSPost2010Prop31
280
     0
102
RTVSPost2010PropOp31
 70
     1
102
RTVSPost2010Prop32
280
     0
102
RTVSPost2010PropOp32
 70
     1
102
RTVSPost2010Prop33
280
     0
102
RTVSPost2010PropOp33
 70
     1
102
RTVSPost2010Prop34
280
     0
102
RTVSPost2010PropOp34
 70
     1
102
RTVSPost2010Prop35
280
     0
102
RTVSPost2010PropOp35
 70
     1
102
RTVSPost2010Prop36
280
     0
102
RTVSPost2010PropOp36
 70
     1
102
RTVSPost2010Prop37
 90
       50
102
RTVSPost2010PropOp37
 70
     1
102
RTVSPost2010Prop38
140
0.0
102
RTVSPost2010PropOp38
 70
     1
102
RTVSPost2010Prop39
140
1.0
102
RTVSPost2010PropOp39
 70
     1
102
RTVSPost2010Prop40
 90
        0
102
RTVSPost2010PropOp40
 70
     1
102
RTVSPost2010Prop41ColorIndex
 90
       18
102
RTVSPost2010Prop41ColorRGB
 90
        0
102
RTVSPost2010PropOp41
 70
     1
102
RTVSPost2010Prop42
 90
       50
102
RTVSPost2010PropOp42
 70
     1
102
RTVSPost2010Prop43
 90
        3
102
RTVSPost2010PropOp43
 70
     1
102
RTVSPost2010Prop44ColorIndex
 90
        5
102
RTVSPost2010Prop44ColorRGB
 90
      255
102
RTVSPost2010PropOp44
 70
     1
102
RTVSPost2010Prop45
280
     0
102
RTVSPost2010PropOp45
 70
     1
102
RTVSPost2010Prop46
 90
       50
102
RTVSPost2010PropOp46
 70
     1
102
RTVSPost2010Prop47
 90
       50
102
RTVSPost2010PropOp47
 70
     1
102
RTVSPost2010Prop48
 90
       50
102
RTVSPost2010PropOp48
 70
     1
102
RTVSPost2010Prop49
280
     0
102
RTVSPost2010PropOp49
 70
     1
102
RTVSPost2010Prop50
 90
       50
102
RTVSPost2010PropOp50
 70
     1
102
RTVSPost2010Prop51ColorIndex
 90
      256
102
RTVSPost2010Prop51ColorRGB
 90
-16777216
102
RTVSPost2010PropOp51
 70
     0
102
RTVSPost2010Prop52
140
1.0
102
RTVSPost2010PropOp52
 70
     0
102
RTVSPost2010Prop53
 90
        2
102
RTVSPost2010PropOp53
 70
     1
102
RTVSPost2010Prop54
  1
strokes_ogs.tif
102
RTVSPost2010PropOp54
 70
     1
102
RTVSPost2010Prop55
280
     0
102
RTVSPost2010PropOp55
 70
     1
102
RTVSPost2010Prop56
140
1.0
102
RTVSPost2010PropOp56
 70
     1
102
RTVSPost2010Prop57
140
1.0
102
RTVSPost2010PropOp57
 70
     1
102
RTVSPropertyOp0
 70
     1
102
RTVSPropertyOp1
 70
     1
102
RTVSPropertyOp2
 70
     1
102
RTVSPropertyOp3
 70
     1
102
RTVSPropertyOp4
 70
     1
102
RTVSPropertyOp5
 70
     1
102
RTVSPropertyOp6
 70
     1
102
RTVSPropertyOp7
 70
     1
102
RTVSPropertyOp8
 70
     1
102
RTVSPropertyOp9
 70
     1
102
RTVSPropertyOp10
 70
     1
102
RTVSPropertyOp11
 70
     1
102
RTVSPropertyOp12
 70
     1
102
RTVSPropertyOp13
 70
     1
102
RTVSPropertyOp14
 70
     1
102
RTVSPropertyOp15
 70
     1
102
RTVSPropertyOp16
 70
     1
102
RTVSPropertyOp17
 70
     1
102
RTVSPropertyOp18
 70
     1
102
RTVSPropertyOp19
 70
     1
102
RTVSPropertyOp20
 70
     1
102
RTVSPropertyOp21
 70
     1
102
RTVSPropertyOp22
 70
     1
102
RTVSPropertyOp23
 70
     1
102
RTVSPropertyOp24
 70
     1
102
RTVSPropertyOp25
 70
     1
102
RTVSPropertyOp26
 70
     1
102
RTVSPropertyOp27
 70
     1
102
RTVSPropertyOp28
 70
     1
102
RTVSPropertyOp29
 70
     1
102
RTVSPropertyOp30
 70
     1
102
RTVSPropertyOp31
 70
     1
102
RTVSPropertyOp32
 70
     1
102
RTVSPropertyOp33
 70
     1
102
RTVSPropertyOp34
 70
     1
102
RTVSPropertyOp35
 70
     1
102
RTVSPropertyOp36
 70
     1
102
RTVSPropertyOp37
 70
     1
102
RTVSPropertyOp38
 70
     1
102
RTVSPropertyOp39
 70
     1
102
RTVSPropertyOp40
 70
     1
102
RTVSPropertyOp41
 70
     1
102
RTVSPropertyOp42
 70
     1
102
RTVSPropertyOp43
 70
     1
102
RTVSPropertyOp44
 70
     1
102
RTVSPropertyOp45
 70
     1
102
RTVSPropertyOp46
 70
     1
102
RTVSPropertyOp47
 70
     1
102
RTVSPropertyOp48
 70
     1
102
RTVSPropertyOp49
 70
     1
102
RTVSPropertyOp50
 70
     1
102
RTVSPropertyOp51
 70
     0
102
RTVSPropertyOp52
 70
     0
102
RTVSPropertyOp53
 70
     1
102
RTVSPropertyOp54
 70
     1
102
RTVSPropertyOp55
 70
     1
102
RTVSPropertyOp56
 70
     1
102
RTVSPropertyOp57
 70
     1
102
RTVSPropertyOp58
 70
     1
102
RTVSPropertyOp59
 70
     1
102
RTVSPropertyOp60
 70
     1
102
RTVSPropertyOp61
 70
     1
102
RTVSPropertyOp62
 70
     1
  0
XRECORD
  5
15769
102
{ACAD_REACTORS
330
15768
102
}
330
15768
100
AcDbXrecord
280
     1
102
RTVSPost2010Prop28
280
     0
102
RTVSPost2010PropOp28
 70
     1
102
RTVSPost2010Prop29
280
     1
102
RTVSPost2010PropOp29
 70
     1
102
RTVSPost2010Prop30
280
     1
102
RTVSPost2010PropOp30
 70
     1
102
RTVSPost2010Prop31
280
     0
102
RTVSPost2010PropOp31
 70
     1
102
RTVSPost2010Prop32
280
     0
102
RTVSPost2010PropOp32
 70
     1
102
RTVSPost2010Prop33
280
     0
102
RTVSPost2010PropOp33
 70
     1
102
RTVSPost2010Prop34
280
     0
102
RTVSPost2010PropOp34
 70
     1
102
RTVSPost2010Prop35
280
     0
102
RTVSPost2010PropOp35
 70
     1
102
RTVSPost2010Prop36
280
     0
102
RTVSPost2010PropOp36
 70
     1
102
RTVSPost2010Prop37
 90
       50
102
RTVSPost2010PropOp37
 70
     1
102
RTVSPost2010Prop38
140
0.0
102
RTVSPost2010PropOp38
 70
     1
102
RTVSPost2010Prop39
140
1.0
102
RTVSPost2010PropOp39
 70
     1
102
RTVSPost2010Prop40
 90
        0
102
RTVSPost2010PropOp40
 70
     1
102
RTVSPost2010Prop41ColorIndex
 90
       18
102
RTVSPost2010Prop41ColorRGB
 90
        0
102
RTVSPost2010PropOp41
 70
     1
102
RTVSPost2010Prop42
 90
       50
102
RTVSPost2010PropOp42
 70
     1
102
RTVSPost2010Prop43
 90
        3
102
RTVSPost2010PropOp43
 70
     1
102
RTVSPost2010Prop44ColorIndex
 90
        5
102
RTVSPost2010Prop44ColorRGB
 90
      255
102
RTVSPost2010PropOp44
 70
     1
102
RTVSPost2010Prop45
280
     0
102
RTVSPost2010PropOp45
 70
     1
102
RTVSPost2010Prop46
 90
       50
102
RTVSPost2010PropOp46
 70
     1
102
RTVSPost2010Prop47
 90
       50
102
RTVSPost2010PropOp47
 70
     1
102
RTVSPost2010Prop48
 90
       50
102
RTVSPost2010PropOp48
 70
     1
102
RTVSPost2010Prop49
280
     0
102
RTVSPost2010PropOp49
 70
     1
102
RTVSPost2010Prop50
 90
       50
102
RTVSPost2010PropOp50
 70
     1
102
RTVSPost2010Prop51ColorIndex
 90
      256
102
RTVSPost2010Prop51ColorRGB
 90
-16777216
102
RTVSPost2010PropOp51
 70
     0
102
RTVSPost2010Prop52
140
1.0
102
RTVSPost2010PropOp52
 70
     0
102
RTVSPost2010Prop53
 90
        2
102
RTVSPost2010PropOp53
 70
     1
102
RTVSPost2010Prop54
  1
strokes_ogs.tif
102
RTVSPost2010PropOp54
 70
     1
102
RTVSPost2010Prop55
280
     0
102
RTVSPost2010PropOp55
 70
     1
102
RTVSPost2010Prop56
140
1.0
102
RTVSPost2010PropOp56
 70
     1
102
RTVSPost2010Prop57
140
1.0
102
RTVSPost2010PropOp57
 70
     1
102
RTVSPropertyOp0
 70
     1
102
RTVSPropertyOp1
 70
     1
102
RTVSPropertyOp2
 70
     1
102
RTVSPropertyOp3
 70
     1
102
RTVSPropertyOp4
 70
     1
102
RTVSPropertyOp5
 70
     1
102
RTVSPropertyOp6
 70
     1
102
RTVSPropertyOp7
 70
     1
102
RTVSPropertyOp8
 70
     1
102
RTVSPropertyOp9
 70
     1
102
RTVSPropertyOp10
 70
     1
102
RTVSPropertyOp11
 70
     1
102
RTVSPropertyOp12
 70
     1
102
RTVSPropertyOp13
 70
     1
102
RTVSPropertyOp14
 70
     1
102
RTVSPropertyOp15
 70
     1
102
RTVSPropertyOp16
 70
     1
102
RTVSPropertyOp17
 70
     1
102
RTVSPropertyOp18
 70
     1
102
RTVSPropertyOp19
 70
     1
102
RTVSPropertyOp20
 70
     1
102
RTVSPropertyOp21
 70
     1
102
RTVSPropertyOp22
 70
     1
102
RTVSPropertyOp23
 70
     1
102
RTVSPropertyOp24
 70
     1
102
RTVSPropertyOp25
 70
     1
102
RTVSPropertyOp26
 70
     1
102
RTVSPropertyOp27
 70
     1
102
RTVSPropertyOp28
 70
     1
102
RTVSPropertyOp29
 70
     1
102
RTVSPropertyOp30
 70
     1
102
RTVSPropertyOp31
 70
     1
102
RTVSPropertyOp32
 70
     1
102
RTVSPropertyOp33
 70
     1
102
RTVSPropertyOp34
 70
     1
102
RTVSPropertyOp35
 70
     1
102
RTVSPropertyOp36
 70
     1
102
RTVSPropertyOp37
 70
     1
102
RTVSPropertyOp38
 70
     1
102
RTVSPropertyOp39
 70
     1
102
RTVSPropertyOp40
 70
     1
102
RTVSPropertyOp41
 70
     1
102
RTVSPropertyOp42
 70
     1
102
RTVSPropertyOp43
 70
     1
102
RTVSPropertyOp44
 70
     1
102
RTVSPropertyOp45
 70
     1
102
RTVSPropertyOp46
 70
     1
102
RTVSPropertyOp47
 70
     1
102
RTVSPropertyOp48
 70
     1
102
RTVSPropertyOp49
 70
     1
102
RTVSPropertyOp50
 70
     1
102
RTVSPropertyOp51
 70
     0
102
RTVSPropertyOp52
 70
     0
102
RTVSPropertyOp53
 70
     1
102
RTVSPropertyOp54
 70
     1
102
RTVSPropertyOp55
 70
     1
102
RTVSPropertyOp56
 70
     1
102
RTVSPropertyOp57
 70
     1
102
RTVSPropertyOp58
 70
     1
102
RTVSPropertyOp59
 70
     1
102
RTVSPropertyOp60
 70
     1
102
RTVSPropertyOp61
 70
     1
102
RTVSPropertyOp62
 70
     1
  0
XRECORD
  5
15771
102
{ACAD_REACTORS
330
15770
102
}
330
15770
100
AcDbXrecord
280
     1
102
RTVSPost2010Prop28
280
     0
102
RTVSPost2010PropOp28
 70
     1
102
RTVSPost2010Prop29
280
     1
102
RTVSPost2010PropOp29
 70
     1
102
RTVSPost2010Prop30
280
     1
102
RTVSPost2010PropOp30
 70
     1
102
RTVSPost2010Prop31
280
     0
102
RTVSPost2010PropOp31
 70
     1
102
RTVSPost2010Prop32
280
     0
102
RTVSPost2010PropOp32
 70
     1
102
RTVSPost2010Prop33
280
     0
102
RTVSPost2010PropOp33
 70
     1
102
RTVSPost2010Prop34
280
     0
102
RTVSPost2010PropOp34
 70
     1
102
RTVSPost2010Prop35
280
     0
102
RTVSPost2010PropOp35
 70
     1
102
RTVSPost2010Prop36
280
     0
102
RTVSPost2010PropOp36
 70
     1
102
RTVSPost2010Prop37
 90
       50
102
RTVSPost2010PropOp37
 70
     1
102
RTVSPost2010Prop38
140
0.0
102
RTVSPost2010PropOp38
 70
     1
102
RTVSPost2010Prop39
140
1.0
102
RTVSPost2010PropOp39
 70
     1
102
RTVSPost2010Prop40
 90
        0
102
RTVSPost2010PropOp40
 70
     1
102
RTVSPost2010Prop41ColorIndex
 90
       18
102
RTVSPost2010Prop41ColorRGB
 90
        0
102
RTVSPost2010PropOp41
 70
     1
102
RTVSPost2010Prop42
 90
       50
102
RTVSPost2010PropOp42
 70
     1
102
RTVSPost2010Prop43
 90
        3
102
RTVSPost2010PropOp43
 70
     1
102
RTVSPost2010Prop44ColorIndex
 90
        5
102
RTVSPost2010Prop44ColorRGB
 90
      255
102
RTVSPost2010PropOp44
 70
     1
102
RTVSPost2010Prop45
280
     0
102
RTVSPost2010PropOp45
 70
     1
102
RTVSPost2010Prop46
 90
       50
102
RTVSPost2010PropOp46
 70
     1
102
RTVSPost2010Prop47
 90
       50
102
RTVSPost2010PropOp47
 70
     1
102
RTVSPost2010Prop48
 90
       50
102
RTVSPost2010PropOp48
 70
     1
102
RTVSPost2010Prop49
280
     0
102
RTVSPost2010PropOp49
 70
     1
102
RTVSPost2010Prop50
 90
       50
102
RTVSPost2010PropOp50
 70
     1
102
RTVSPost2010Prop51ColorIndex
 90
      256
102
RTVSPost2010Prop51ColorRGB
 90
-16777216
102
RTVSPost2010PropOp51
 70
     0
102
RTVSPost2010Prop52
140
1.0
102
RTVSPost2010PropOp52
 70
     0
102
RTVSPost2010Prop53
 90
        2
102
RTVSPost2010PropOp53
 70
     1
102
RTVSPost2010Prop54
  1
strokes_ogs.tif
102
RTVSPost2010PropOp54
 70
     1
102
RTVSPost2010Prop55
280
     0
102
RTVSPost2010PropOp55
 70
     1
102
RTVSPost2010Prop56
140
1.0
102
RTVSPost2010PropOp56
 70
     1
102
RTVSPost2010Prop57
140
1.0
102
RTVSPost2010PropOp57
 70
     1
102
RTVSPropertyOp0
 70
     1
102
RTVSPropertyOp1
 70
     1
102
RTVSPropertyOp2
 70
     1
102
RTVSPropertyOp3
 70
     1
102
RTVSPropertyOp4
 70
     1
102
RTVSPropertyOp5
 70
     1
102
RTVSPropertyOp6
 70
     1
102
RTVSPropertyOp7
 70
     1
102
RTVSPropertyOp8
 70
     1
102
RTVSPropertyOp9
 70
     1
102
RTVSPropertyOp10
 70
     1
102
RTVSPropertyOp11
 70
     1
102
RTVSPropertyOp12
 70
     1
102
RTVSPropertyOp13
 70
     1
102
RTVSPropertyOp14
 70
     1
102
RTVSPropertyOp15
 70
     1
102
RTVSPropertyOp16
 70
     1
102
RTVSPropertyOp17
 70
     1
102
RTVSPropertyOp18
 70
     1
102
RTVSPropertyOp19
 70
     1
102
RTVSPropertyOp20
 70
     1
102
RTVSPropertyOp21
 70
     1
102
RTVSPropertyOp22
 70
     1
102
RTVSPropertyOp23
 70
     1
102
RTVSPropertyOp24
 70
     1
102
RTVSPropertyOp25
 70
     1
102
RTVSPropertyOp26
 70
     1
102
RTVSPropertyOp27
 70
     1
102
RTVSPropertyOp28
 70
     1
102
RTVSPropertyOp29
 70
     1
102
RTVSPropertyOp30
 70
     1
102
RTVSPropertyOp31
 70
     1
102
RTVSPropertyOp32
 70
     1
102
RTVSPropertyOp33
 70
     1
102
RTVSPropertyOp34
 70
     1
102
RTVSPropertyOp35
 70
     1
102
RTVSPropertyOp36
 70
     1
102
RTVSPropertyOp37
 70
     1
102
RTVSPropertyOp38
 70
     1
102
RTVSPropertyOp39
 70
     1
102
RTVSPropertyOp40
 70
     1
102
RTVSPropertyOp41
 70
     1
102
RTVSPropertyOp42
 70
     1
102
RTVSPropertyOp43
 70
     1
102
RTVSPropertyOp44
 70
     1
102
RTVSPropertyOp45
 70
     1
102
RTVSPropertyOp46
 70
     1
102
RTVSPropertyOp47
 70
     1
102
RTVSPropertyOp48
 70
     1
102
RTVSPropertyOp49
 70
     1
102
RTVSPropertyOp50
 70
     1
102
RTVSPropertyOp51
 70
     0
102
RTVSPropertyOp52
 70
     0
102
RTVSPropertyOp53
 70
     1
102
RTVSPropertyOp54
 70
     1
102
RTVSPropertyOp55
 70
     1
102
RTVSPropertyOp56
 70
     1
102
RTVSPropertyOp57
 70
     1
102
RTVSPropertyOp58
 70
     1
102
RTVSPropertyOp59
 70
     1
102
RTVSPropertyOp60
 70
     1
102
RTVSPropertyOp61
 70
     1
102
RTVSPropertyOp62
 70
     1
  0
XRECORD
  5
1578D
102
{ACAD_REACTORS
330
1578C
102
}
330
1578C
100
AcDbXrecord
280
     1
102
RTVSPost2010Prop28
280
     0
102
RTVSPost2010PropOp28
 70
     0
102
RTVSPost2010Prop29
280
     1
102
RTVSPost2010PropOp29
 70
     0
102
RTVSPost2010Prop30
280
     1
102
RTVSPost2010PropOp30
 70
     0
102
RTVSPost2010Prop31
280
     0
102
RTVSPost2010PropOp31
 70
     0
102
RTVSPost2010Prop32
280
     0
102
RTVSPost2010PropOp32
 70
     0
102
RTVSPost2010Prop33
280
     0
102
RTVSPost2010PropOp33
 70
     0
102
RTVSPost2010Prop34
280
     0
102
RTVSPost2010PropOp34
 70
     0
102
RTVSPost2010Prop35
280
     0
102
RTVSPost2010PropOp35
 70
     0
102
RTVSPost2010Prop36
280
     0
102
RTVSPost2010PropOp36
 70
     0
102
RTVSPost2010Prop37
 90
       50
102
RTVSPost2010PropOp37
 70
     0
102
RTVSPost2010Prop38
140
0.0
102
RTVSPost2010PropOp38
 70
     0
102
RTVSPost2010Prop39
140
1.0
102
RTVSPost2010PropOp39
 70
     0
102
RTVSPost2010Prop40
 90
        0
102
RTVSPost2010PropOp40
 70
     0
102
RTVSPost2010Prop41ColorIndex
 90
       18
102
RTVSPost2010Prop41ColorRGB
 90
        0
102
RTVSPost2010PropOp41
 70
     0
102
RTVSPost2010Prop42
 90
       50
102
RTVSPost2010PropOp42
 70
     0
102
RTVSPost2010Prop43
 90
        3
102
RTVSPost2010PropOp43
 70
     0
102
RTVSPost2010Prop44ColorIndex
 90
        5
102
RTVSPost2010Prop44ColorRGB
 90
      255
102
RTVSPost2010PropOp44
 70
     0
102
RTVSPost2010Prop45
280
     0
102
RTVSPost2010PropOp45
 70
     0
102
RTVSPost2010Prop46
 90
       50
102
RTVSPost2010PropOp46
 70
     0
102
RTVSPost2010Prop47
 90
       50
102
RTVSPost2010PropOp47
 70
     0
102
RTVSPost2010Prop48
 90
       50
102
RTVSPost2010PropOp48
 70
     0
102
RTVSPost2010Prop49
280
     0
102
RTVSPost2010PropOp49
 70
     0
102
RTVSPost2010Prop50
 90
       50
102
RTVSPost2010PropOp50
 70
     0
102
RTVSPost2010Prop51ColorIndex
 90
      256
102
RTVSPost2010Prop51ColorRGB
 90
-16777216
102
RTVSPost2010PropOp51
 70
     0
102
RTVSPost2010Prop52
140
1.0
102
RTVSPost2010PropOp52
 70
     0
102
RTVSPost2010Prop53
 90
        2
102
RTVSPost2010PropOp53
 70
     0
102
RTVSPost2010Prop54
  1
strokes_ogs.tif
102
RTVSPost2010PropOp54
 70
     0
102
RTVSPost2010Prop55
280
     0
102
RTVSPost2010PropOp55
 70
     0
102
RTVSPost2010Prop56
140
1.0
102
RTVSPost2010PropOp56
 70
     0
102
RTVSPost2010Prop57
140
1.0
102
RTVSPost2010PropOp57
 70
     0
102
RTVSPropertyOp0
 70
     0
102
RTVSPropertyOp1
 70
     0
102
RTVSPropertyOp2
 70
     0
102
RTVSPropertyOp3
 70
     0
102
RTVSPropertyOp4
 70
     0
102
RTVSPropertyOp5
 70
     0
102
RTVSPropertyOp6
 70
     0
102
RTVSPropertyOp7
 70
     0
102
RTVSPropertyOp8
 70
     0
102
RTVSPropertyOp9
 70
     0
102
RTVSPropertyOp10
 70
     0
102
RTVSPropertyOp11
 70
     0
102
RTVSPropertyOp12
 70
     0
102
RTVSPropertyOp13
 70
     0
102
RTVSPropertyOp14
 70
     2
102
RTVSPropertyOp15
 70
     0
102
RTVSPropertyOp16
 70
     0
102
RTVSPropertyOp17
 70
     0
102
RTVSPropertyOp18
 70
     0
102
RTVSPropertyOp19
 70
     0
102
RTVSPropertyOp20
 70
     0
102
RTVSPropertyOp21
 70
     0
102
RTVSPropertyOp22
 70
     0
102
RTVSPropertyOp23
 70
     0
102
RTVSPropertyOp24
 70
     0
102
RTVSPropertyOp25
 70
     0
102
RTVSPropertyOp26
 70
     0
102
RTVSPropertyOp27
 70
     0
102
RTVSPropertyOp28
 70
     0
102
RTVSPropertyOp29
 70
     0
102
RTVSPropertyOp30
 70
     0
102
RTVSPropertyOp31
 70
     0
102
RTVSPropertyOp32
 70
     0
102
RTVSPropertyOp33
 70
     0
102
RTVSPropertyOp34
 70
     0
102
RTVSPropertyOp35
 70
     0
102
RTVSPropertyOp36
 70
     0
102
RTVSPropertyOp37
 70
     0
102
RTVSPropertyOp38
 70
     0
102
RTVSPropertyOp39
 70
     0
102
RTVSPropertyOp40
 70
     0
102
RTVSPropertyOp41
 70
     0
102
RTVSPropertyOp42
 70
     0
102
RTVSPropertyOp43
 70
     0
102
RTVSPropertyOp44
 70
     0
102
RTVSPropertyOp45
 70
     0
102
RTVSPropertyOp46
 70
     0
102
RTVSPropertyOp47
 70
     0
102
RTVSPropertyOp48
 70
     0
102
RTVSPropertyOp49
 70
     0
102
RTVSPropertyOp50
 70
     0
102
RTVSPropertyOp51
 70
     0
102
RTVSPropertyOp52
 70
     0
102
RTVSPropertyOp53
 70
     0
102
RTVSPropertyOp54
 70
     0
102
RTVSPropertyOp55
 70
     0
102
RTVSPropertyOp56
 70
     0
102
RTVSPropertyOp57
 70
     0
102
RTVSPropertyOp58
 70
     1
102
RTVSPropertyOp59
 70
     1
102
RTVSPropertyOp60
 70
     1
102
RTVSPropertyOp61
 70
     1
102
RTVSPropertyOp62
 70
     1
  0
XRECORD
  5
1577D
102
{ACAD_REACTORS
330
1577C
102
}
330
1577C
100
AcDbXrecord
280
     1
102
RTVSPost2010Prop28
280
     0
102
RTVSPost2010PropOp28
 70
     1
102
RTVSPost2010Prop29
280
     1
102
RTVSPost2010PropOp29
 70
     1
102
RTVSPost2010Prop30
280
     1
102
RTVSPost2010PropOp30
 70
     1
102
RTVSPost2010Prop31
280
     0
102
RTVSPost2010PropOp31
 70
     1
102
RTVSPost2010Prop32
280
     0
102
RTVSPost2010PropOp32
 70
     1
102
RTVSPost2010Prop33
280
     0
102
RTVSPost2010PropOp33
 70
     1
102
RTVSPost2010Prop34
280
     0
102
RTVSPost2010PropOp34
 70
     1
102
RTVSPost2010Prop35
280
     0
102
RTVSPost2010PropOp35
 70
     1
102
RTVSPost2010Prop36
280
     0
102
RTVSPost2010PropOp36
 70
     1
102
RTVSPost2010Prop37
 90
       50
102
RTVSPost2010PropOp37
 70
     1
102
RTVSPost2010Prop38
140
0.0
102
RTVSPost2010PropOp38
 70
     1
102
RTVSPost2010Prop39
140
1.0
102
RTVSPost2010PropOp39
 70
     1
102
RTVSPost2010Prop40
 90
        0
102
RTVSPost2010PropOp40
 70
     1
102
RTVSPost2010Prop41ColorIndex
 90
       18
102
RTVSPost2010Prop41ColorRGB
 90
        0
102
RTVSPost2010PropOp41
 70
     1
102
RTVSPost2010Prop42
 90
       50
102
RTVSPost2010PropOp42
 70
     1
102
RTVSPost2010Prop43
 90
        3
102
RTVSPost2010PropOp43
 70
     1
102
RTVSPost2010Prop44ColorIndex
 90
        5
102
RTVSPost2010Prop44ColorRGB
 90
      255
102
RTVSPost2010PropOp44
 70
     1
102
RTVSPost2010Prop45
280
     0
102
RTVSPost2010PropOp45
 70
     1
102
RTVSPost2010Prop46
 90
       50
102
RTVSPost2010PropOp46
 70
     1
102
RTVSPost2010Prop47
 90
       50
102
RTVSPost2010PropOp47
 70
     1
102
RTVSPost2010Prop48
 90
       50
102
RTVSPost2010PropOp48
 70
     1
102
RTVSPost2010Prop49
280
     0
102
RTVSPost2010PropOp49
 70
     1
102
RTVSPost2010Prop50
 90
       50
102
RTVSPost2010PropOp50
 70
     1
102
RTVSPost2010Prop51ColorIndex
 90
      256
102
RTVSPost2010Prop51ColorRGB
 90
-16777216
102
RTVSPost2010PropOp51
 70
     0
102
RTVSPost2010Prop52
140
1.0
102
RTVSPost2010PropOp52
 70
     0
102
RTVSPost2010Prop53
 90
        2
102
RTVSPost2010PropOp53
 70
     1
102
RTVSPost2010Prop54
  1
strokes_ogs.tif
102
RTVSPost2010PropOp54
 70
     1
102
RTVSPost2010Prop55
280
     0
102
RTVSPost2010PropOp55
 70
     1
102
RTVSPost2010Prop56
140
1.0
102
RTVSPost2010PropOp56
 70
     1
102
RTVSPost2010Prop57
140
1.0
102
RTVSPost2010PropOp57
 70
     1
102
RTVSPropertyOp0
 70
     1
102
RTVSPropertyOp1
 70
     1
102
RTVSPropertyOp2
 70
     1
102
RTVSPropertyOp3
 70
     1
102
RTVSPropertyOp4
 70
     1
102
RTVSPropertyOp5
 70
     1
102
RTVSPropertyOp6
 70
     1
102
RTVSPropertyOp7
 70
     1
102
RTVSPropertyOp8
 70
     1
102
RTVSPropertyOp9
 70
     1
102
RTVSPropertyOp10
 70
     1
102
RTVSPropertyOp11
 70
     1
102
RTVSPropertyOp12
 70
     1
102
RTVSPropertyOp13
 70
     1
102
RTVSPropertyOp14
 70
     1
102
RTVSPropertyOp15
 70
     1
102
RTVSPropertyOp16
 70
     1
102
RTVSPropertyOp17
 70
     1
102
RTVSPropertyOp18
 70
     1
102
RTVSPropertyOp19
 70
     1
102
RTVSPropertyOp20
 70
     1
102
RTVSPropertyOp21
 70
     1
102
RTVSPropertyOp22
 70
     1
102
RTVSPropertyOp23
 70
     1
102
RTVSPropertyOp24
 70
     1
102
RTVSPropertyOp25
 70
     1
102
RTVSPropertyOp26
 70
     1
102
RTVSPropertyOp27
 70
     1
102
RTVSPropertyOp28
 70
     1
102
RTVSPropertyOp29
 70
     1
102
RTVSPropertyOp30
 70
     1
102
RTVSPropertyOp31
 70
     1
102
RTVSPropertyOp32
 70
     1
102
RTVSPropertyOp33
 70
     1
102
RTVSPropertyOp34
 70
     1
102
RTVSPropertyOp35
 70
     1
102
RTVSPropertyOp36
 70
     1
102
RTVSPropertyOp37
 70
     1
102
RTVSPropertyOp38
 70
     1
102
RTVSPropertyOp39
 70
     1
102
RTVSPropertyOp40
 70
     1
102
RTVSPropertyOp41
 70
     1
102
RTVSPropertyOp42
 70
     1
102
RTVSPropertyOp43
 70
     1
102
RTVSPropertyOp44
 70
     1
102
RTVSPropertyOp45
 70
     1
102
RTVSPropertyOp46
 70
     1
102
RTVSPropertyOp47
 70
     1
102
RTVSPropertyOp48
 70
     1
102
RTVSPropertyOp49
 70
     1
102
RTVSPropertyOp50
 70
     1
102
RTVSPropertyOp51
 70
     0
102
RTVSPropertyOp52
 70
     0
102
RTVSPropertyOp53
 70
     1
102
RTVSPropertyOp54
 70
     1
102
RTVSPropertyOp55
 70
     1
102
RTVSPropertyOp56
 70
     1
102
RTVSPropertyOp57
 70
     1
102
RTVSPropertyOp58
 70
     1
102
RTVSPropertyOp59
 70
     1
102
RTVSPropertyOp60
 70
     1
102
RTVSPropertyOp61
 70
     1
102
RTVSPropertyOp62
 70
     1
  0
XRECORD
  5
1578F
102
{ACAD_REACTORS
330
1578E
102
}
330
1578E
100
AcDbXrecord
280
     1
102
RTVSPost2010Prop28
280
     0
102
RTVSPost2010PropOp28
 70
     0
102
RTVSPost2010Prop29
280
     1
102
RTVSPost2010PropOp29
 70
     0
102
RTVSPost2010Prop30
280
     1
102
RTVSPost2010PropOp30
 70
     0
102
RTVSPost2010Prop31
280
     0
102
RTVSPost2010PropOp31
 70
     0
102
RTVSPost2010Prop32
280
     0
102
RTVSPost2010PropOp32
 70
     0
102
RTVSPost2010Prop33
280
     0
102
RTVSPost2010PropOp33
 70
     0
102
RTVSPost2010Prop34
280
     0
102
RTVSPost2010PropOp34
 70
     0
102
RTVSPost2010Prop35
280
     0
102
RTVSPost2010PropOp35
 70
     0
102
RTVSPost2010Prop36
280
     0
102
RTVSPost2010PropOp36
 70
     0
102
RTVSPost2010Prop37
 90
       50
102
RTVSPost2010PropOp37
 70
     0
102
RTVSPost2010Prop38
140
0.0
102
RTVSPost2010PropOp38
 70
     0
102
RTVSPost2010Prop39
140
1.0
102
RTVSPost2010PropOp39
 70
     0
102
RTVSPost2010Prop40
 90
        0
102
RTVSPost2010PropOp40
 70
     0
102
RTVSPost2010Prop41ColorIndex
 90
       18
102
RTVSPost2010Prop41ColorRGB
 90
        0
102
RTVSPost2010PropOp41
 70
     0
102
RTVSPost2010Prop42
 90
       50
102
RTVSPost2010PropOp42
 70
     0
102
RTVSPost2010Prop43
 90
        3
102
RTVSPost2010PropOp43
 70
     0
102
RTVSPost2010Prop44ColorIndex
 90
        5
102
RTVSPost2010Prop44ColorRGB
 90
      255
102
RTVSPost2010PropOp44
 70
     0
102
RTVSPost2010Prop45
280
     0
102
RTVSPost2010PropOp45
 70
     0
102
RTVSPost2010Prop46
 90
       50
102
RTVSPost2010PropOp46
 70
     0
102
RTVSPost2010Prop47
 90
       50
102
RTVSPost2010PropOp47
 70
     0
102
RTVSPost2010Prop48
 90
       50
102
RTVSPost2010PropOp48
 70
     0
102
RTVSPost2010Prop49
280
     0
102
RTVSPost2010PropOp49
 70
     0
102
RTVSPost2010Prop50
 90
       50
102
RTVSPost2010PropOp50
 70
     0
102
RTVSPost2010Prop51ColorIndex
 90
      256
102
RTVSPost2010Prop51ColorRGB
 90
-16777216
102
RTVSPost2010PropOp51
 70
     0
102
RTVSPost2010Prop52
140
1.0
102
RTVSPost2010PropOp52
 70
     0
102
RTVSPost2010Prop53
 90
        2
102
RTVSPost2010PropOp53
 70
     0
102
RTVSPost2010Prop54
  1
strokes_ogs.tif
102
RTVSPost2010PropOp54
 70
     0
102
RTVSPost2010Prop55
280
     0
102
RTVSPost2010PropOp55
 70
     0
102
RTVSPost2010Prop56
140
1.0
102
RTVSPost2010PropOp56
 70
     0
102
RTVSPost2010Prop57
140
1.0
102
RTVSPost2010PropOp57
 70
     0
102
RTVSPropertyOp0
 70
     0
102
RTVSPropertyOp1
 70
     0
102
RTVSPropertyOp2
 70
     0
102
RTVSPropertyOp3
 70
     0
102
RTVSPropertyOp4
 70
     0
102
RTVSPropertyOp5
 70
     0
102
RTVSPropertyOp6
 70
     0
102
RTVSPropertyOp7
 70
     0
102
RTVSPropertyOp8
 70
     0
102
RTVSPropertyOp9
 70
     0
102
RTVSPropertyOp10
 70
     0
102
RTVSPropertyOp11
 70
     0
102
RTVSPropertyOp12
 70
     0
102
RTVSPropertyOp13
 70
     0
102
RTVSPropertyOp14
 70
     2
102
RTVSPropertyOp15
 70
     0
102
RTVSPropertyOp16
 70
     0
102
RTVSPropertyOp17
 70
     0
102
RTVSPropertyOp18
 70
     0
102
RTVSPropertyOp19
 70
     0
102
RTVSPropertyOp20
 70
     0
102
RTVSPropertyOp21
 70
     0
102
RTVSPropertyOp22
 70
     0
102
RTVSPropertyOp23
 70
     0
102
RTVSPropertyOp24
 70
     0
102
RTVSPropertyOp25
 70
     0
102
RTVSPropertyOp26
 70
     0
102
RTVSPropertyOp27
 70
     0
102
RTVSPropertyOp28
 70
     0
102
RTVSPropertyOp29
 70
     0
102
RTVSPropertyOp30
 70
     0
102
RTVSPropertyOp31
 70
     0
102
RTVSPropertyOp32
 70
     0
102
RTVSPropertyOp33
 70
     0
102
RTVSPropertyOp34
 70
     0
102
RTVSPropertyOp35
 70
     0
102
RTVSPropertyOp36
 70
     0
102
RTVSPropertyOp37
 70
     0
102
RTVSPropertyOp38
 70
     0
102
RTVSPropertyOp39
 70
     0
102
RTVSPropertyOp40
 70
     0
102
RTVSPropertyOp41
 70
     0
102
RTVSPropertyOp42
 70
     0
102
RTVSPropertyOp43
 70
     0
102
RTVSPropertyOp44
 70
     0
102
RTVSPropertyOp45
 70
     0
102
RTVSPropertyOp46
 70
     0
102
RTVSPropertyOp47
 70
     0
102
RTVSPropertyOp48
 70
     0
102
RTVSPropertyOp49
 70
     0
102
RTVSPropertyOp50
 70
     0
102
RTVSPropertyOp51
 70
     0
102
RTVSPropertyOp52
 70
     0
102
RTVSPropertyOp53
 70
     0
102
RTVSPropertyOp54
 70
     0
102
RTVSPropertyOp55
 70
     0
102
RTVSPropertyOp56
 70
     0
102
RTVSPropertyOp57
 70
     0
102
RTVSPropertyOp58
 70
     1
102
RTVSPropertyOp59
 70
     1
102
RTVSPropertyOp60
 70
     1
102
RTVSPropertyOp61
 70
     1
102
RTVSPropertyOp62
 70
     1
  0
XRECORD
  5
15775
102
{ACAD_REACTORS
330
15774
102
}
330
15774
100
AcDbXrecord
280
     1
102
RTVSPost2010Prop28
280
     0
102
RTVSPost2010PropOp28
 70
     1
102
RTVSPost2010Prop29
280
     1
102
RTVSPost2010PropOp29
 70
     1
102
RTVSPost2010Prop30
280
     1
102
RTVSPost2010PropOp30
 70
     1
102
RTVSPost2010Prop31
280
     0
102
RTVSPost2010PropOp31
 70
     1
102
RTVSPost2010Prop32
280
     0
102
RTVSPost2010PropOp32
 70
     1
102
RTVSPost2010Prop33
280
     0
102
RTVSPost2010PropOp33
 70
     1
102
RTVSPost2010Prop34
280
     0
102
RTVSPost2010PropOp34
 70
     1
102
RTVSPost2010Prop35
280
     0
102
RTVSPost2010PropOp35
 70
     1
102
RTVSPost2010Prop36
280
     0
102
RTVSPost2010PropOp36
 70
     1
102
RTVSPost2010Prop37
 90
       50
102
RTVSPost2010PropOp37
 70
     1
102
RTVSPost2010Prop38
140
0.0
102
RTVSPost2010PropOp38
 70
     1
102
RTVSPost2010Prop39
140
1.0
102
RTVSPost2010PropOp39
 70
     1
102
RTVSPost2010Prop40
 90
        0
102
RTVSPost2010PropOp40
 70
     1
102
RTVSPost2010Prop41ColorIndex
 90
       18
102
RTVSPost2010Prop41ColorRGB
 90
        0
102
RTVSPost2010PropOp41
 70
     1
102
RTVSPost2010Prop42
 90
       50
102
RTVSPost2010PropOp42
 70
     1
102
RTVSPost2010Prop43
 90
        3
102
RTVSPost2010PropOp43
 70
     1
102
RTVSPost2010Prop44ColorIndex
 90
        5
102
RTVSPost2010Prop44ColorRGB
 90
      255
102
RTVSPost2010PropOp44
 70
     1
102
RTVSPost2010Prop45
280
     0
102
RTVSPost2010PropOp45
 70
     1
102
RTVSPost2010Prop46
 90
       50
102
RTVSPost2010PropOp46
 70
     1
102
RTVSPost2010Prop47
 90
       50
102
RTVSPost2010PropOp47
 70
     1
102
RTVSPost2010Prop48
 90
       50
102
RTVSPost2010PropOp48
 70
     1
102
RTVSPost2010Prop49
280
     0
102
RTVSPost2010PropOp49
 70
     1
102
RTVSPost2010Prop50
 90
       50
102
RTVSPost2010PropOp50
 70
     1
102
RTVSPost2010Prop51ColorIndex
 90
      256
102
RTVSPost2010Prop51ColorRGB
 90
-16777216
102
RTVSPost2010PropOp51
 70
     0
102
RTVSPost2010Prop52
140
1.0
102
RTVSPost2010PropOp52
 70
     0
102
RTVSPost2010Prop53
 90
        2
102
RTVSPost2010PropOp53
 70
     1
102
RTVSPost2010Prop54
  1
strokes_ogs.tif
102
RTVSPost2010PropOp54
 70
     1
102
RTVSPost2010Prop55
280
     0
102
RTVSPost2010PropOp55
 70
     1
102
RTVSPost2010Prop56
140
1.0
102
RTVSPost2010PropOp56
 70
     1
102
RTVSPost2010Prop57
140
1.0
102
RTVSPost2010PropOp57
 70
     1
102
RTVSPropertyOp0
 70
     1
102
RTVSPropertyOp1
 70
     1
102
RTVSPropertyOp2
 70
     1
102
RTVSPropertyOp3
 70
     1
102
RTVSPropertyOp4
 70
     1
102
RTVSPropertyOp5
 70
     1
102
RTVSPropertyOp6
 70
     1
102
RTVSPropertyOp7
 70
     1
102
RTVSPropertyOp8
 70
     1
102
RTVSPropertyOp9
 70
     1
102
RTVSPropertyOp10
 70
     1
102
RTVSPropertyOp11
 70
     1
102
RTVSPropertyOp12
 70
     1
102
RTVSPropertyOp13
 70
     1
102
RTVSPropertyOp14
 70
     1
102
RTVSPropertyOp15
 70
     1
102
RTVSPropertyOp16
 70
     1
102
RTVSPropertyOp17
 70
     1
102
RTVSPropertyOp18
 70
     1
102
RTVSPropertyOp19
 70
     1
102
RTVSPropertyOp20
 70
     1
102
RTVSPropertyOp21
 70
     1
102
RTVSPropertyOp22
 70
     1
102
RTVSPropertyOp23
 70
     1
102
RTVSPropertyOp24
 70
     1
102
RTVSPropertyOp25
 70
     1
102
RTVSPropertyOp26
 70
     1
102
RTVSPropertyOp27
 70
     1
102
RTVSPropertyOp28
 70
     1
102
RTVSPropertyOp29
 70
     1
102
RTVSPropertyOp30
 70
     1
102
RTVSPropertyOp31
 70
     1
102
RTVSPropertyOp32
 70
     1
102
RTVSPropertyOp33
 70
     1
102
RTVSPropertyOp34
 70
     1
102
RTVSPropertyOp35
 70
     1
102
RTVSPropertyOp36
 70
     1
102
RTVSPropertyOp37
 70
     1
102
RTVSPropertyOp38
 70
     1
102
RTVSPropertyOp39
 70
     1
102
RTVSPropertyOp40
 70
     1
102
RTVSPropertyOp41
 70
     1
102
RTVSPropertyOp42
 70
     1
102
RTVSPropertyOp43
 70
     1
102
RTVSPropertyOp44
 70
     1
102
RTVSPropertyOp45
 70
     1
102
RTVSPropertyOp46
 70
     1
102
RTVSPropertyOp47
 70
     1
102
RTVSPropertyOp48
 70
     1
102
RTVSPropertyOp49
 70
     1
102
RTVSPropertyOp50
 70
     1
102
RTVSPropertyOp51
 70
     0
102
RTVSPropertyOp52
 70
     0
102
RTVSPropertyOp53
 70
     1
102
RTVSPropertyOp54
 70
     1
102
RTVSPropertyOp55
 70
     1
102
RTVSPropertyOp56
 70
     1
102
RTVSPropertyOp57
 70
     1
102
RTVSPropertyOp58
 70
     1
102
RTVSPropertyOp59
 70
     1
102
RTVSPropertyOp60
 70
     1
102
RTVSPropertyOp61
 70
     1
102
RTVSPropertyOp62
 70
     1
  0
XRECORD
  5
1578B
102
{ACAD_REACTORS
330
1578A
102
}
330
1578A
100
AcDbXrecord
280
     1
102
RTVSPost2010Prop28
280
     0
102
RTVSPost2010PropOp28
 70
     1
102
RTVSPost2010Prop29
280
     1
102
RTVSPost2010PropOp29
 70
     1
102
RTVSPost2010Prop30
280
     1
102
RTVSPost2010PropOp30
 70
     1
102
RTVSPost2010Prop31
280
     0
102
RTVSPost2010PropOp31
 70
     1
102
RTVSPost2010Prop32
280
     0
102
RTVSPost2010PropOp32
 70
     1
102
RTVSPost2010Prop33
280
     0
102
RTVSPost2010PropOp33
 70
     1
102
RTVSPost2010Prop34
280
     0
102
RTVSPost2010PropOp34
 70
     1
102
RTVSPost2010Prop35
280
     0
102
RTVSPost2010PropOp35
 70
     1
102
RTVSPost2010Prop36
280
     0
102
RTVSPost2010PropOp36
 70
     1
102
RTVSPost2010Prop37
 90
       50
102
RTVSPost2010PropOp37
 70
     1
102
RTVSPost2010Prop38
140
0.0
102
RTVSPost2010PropOp38
 70
     1
102
RTVSPost2010Prop39
140
1.0
102
RTVSPost2010PropOp39
 70
     1
102
RTVSPost2010Prop40
 90
        0
102
RTVSPost2010PropOp40
 70
     1
102
RTVSPost2010Prop41ColorIndex
 90
       18
102
RTVSPost2010Prop41ColorRGB
 90
        0
102
RTVSPost2010PropOp41
 70
     1
102
RTVSPost2010Prop42
 90
       50
102
RTVSPost2010PropOp42
 70
     1
102
RTVSPost2010Prop43
 90
        3
102
RTVSPost2010PropOp43
 70
     1
102
RTVSPost2010Prop44ColorIndex
 90
        5
102
RTVSPost2010Prop44ColorRGB
 90
      255
102
RTVSPost2010PropOp44
 70
     1
102
RTVSPost2010Prop45
280
     0
102
RTVSPost2010PropOp45
 70
     1
102
RTVSPost2010Prop46
 90
       50
102
RTVSPost2010PropOp46
 70
     1
102
RTVSPost2010Prop47
 90
       50
102
RTVSPost2010PropOp47
 70
     1
102
RTVSPost2010Prop48
 90
       50
102
RTVSPost2010PropOp48
 70
     1
102
RTVSPost2010Prop49
280
     0
102
RTVSPost2010PropOp49
 70
     1
102
RTVSPost2010Prop50
 90
       50
102
RTVSPost2010PropOp50
 70
     1
102
RTVSPost2010Prop51ColorIndex
 90
      256
102
RTVSPost2010Prop51ColorRGB
 90
-16777216
102
RTVSPost2010PropOp51
 70
     0
102
RTVSPost2010Prop52
140
1.0
102
RTVSPost2010PropOp52
 70
     0
102
RTVSPost2010Prop53
 90
        2
102
RTVSPost2010PropOp53
 70
     1
102
RTVSPost2010Prop54
  1
strokes_ogs.tif
102
RTVSPost2010PropOp54
 70
     1
102
RTVSPost2010Prop55
280
     0
102
RTVSPost2010PropOp55
 70
     1
102
RTVSPost2010Prop56
140
1.0
102
RTVSPost2010PropOp56
 70
     1
102
RTVSPost2010Prop57
140
1.0
102
RTVSPost2010PropOp57
 70
     1
102
RTVSPropertyOp0
 70
     1
102
RTVSPropertyOp1
 70
     1
102
RTVSPropertyOp2
 70
     1
102
RTVSPropertyOp3
 70
     1
102
RTVSPropertyOp4
 70
     1
102
RTVSPropertyOp5
 70
     1
102
RTVSPropertyOp6
 70
     1
102
RTVSPropertyOp7
 70
     1
102
RTVSPropertyOp8
 70
     1
102
RTVSPropertyOp9
 70
     1
102
RTVSPropertyOp10
 70
     1
102
RTVSPropertyOp11
 70
     1
102
RTVSPropertyOp12
 70
     1
102
RTVSPropertyOp13
 70
     1
102
RTVSPropertyOp14
 70
     1
102
RTVSPropertyOp15
 70
     1
102
RTVSPropertyOp16
 70
     1
102
RTVSPropertyOp17
 70
     1
102
RTVSPropertyOp18
 70
     1
102
RTVSPropertyOp19
 70
     1
102
RTVSPropertyOp20
 70
     1
102
RTVSPropertyOp21
 70
     1
102
RTVSPropertyOp22
 70
     1
102
RTVSPropertyOp23
 70
     1
102
RTVSPropertyOp24
 70
     1
102
RTVSPropertyOp25
 70
     1
102
RTVSPropertyOp26
 70
     1
102
RTVSPropertyOp27
 70
     1
102
RTVSPropertyOp28
 70
     1
102
RTVSPropertyOp29
 70
     1
102
RTVSPropertyOp30
 70
     1
102
RTVSPropertyOp31
 70
     1
102
RTVSPropertyOp32
 70
     1
102
RTVSPropertyOp33
 70
     1
102
RTVSPropertyOp34
 70
     1
102
RTVSPropertyOp35
 70
     1
102
RTVSPropertyOp36
 70
     1
102
RTVSPropertyOp37
 70
     1
102
RTVSPropertyOp38
 70
     1
102
RTVSPropertyOp39
 70
     1
102
RTVSPropertyOp40
 70
     1
102
RTVSPropertyOp41
 70
     1
102
RTVSPropertyOp42
 70
     1
102
RTVSPropertyOp43
 70
     1
102
RTVSPropertyOp44
 70
     1
102
RTVSPropertyOp45
 70
     1
102
RTVSPropertyOp46
 70
     1
102
RTVSPropertyOp47
 70
     1
102
RTVSPropertyOp48
 70
     1
102
RTVSPropertyOp49
 70
     1
102
RTVSPropertyOp50
 70
     1
102
RTVSPropertyOp51
 70
     0
102
RTVSPropertyOp52
 70
     0
102
RTVSPropertyOp53
 70
     1
102
RTVSPropertyOp54
 70
     1
102
RTVSPropertyOp55
 70
     1
102
RTVSPropertyOp56
 70
     1
102
RTVSPropertyOp57
 70
     1
102
RTVSPropertyOp58
 70
     1
102
RTVSPropertyOp59
 70
     1
102
RTVSPropertyOp60
 70
     1
102
RTVSPropertyOp61
 70
     1
102
RTVSPropertyOp62
 70
     1
  0
XRECORD
  5
15789
102
{ACAD_REACTORS
330
15788
102
}
330
15788
100
AcDbXrecord
280
     1
102
RTVSPost2010Prop28
280
     0
102
RTVSPost2010PropOp28
 70
     1
102
RTVSPost2010Prop29
280
     1
102
RTVSPost2010PropOp29
 70
     1
102
RTVSPost2010Prop30
280
     1
102
RTVSPost2010PropOp30
 70
     1
102
RTVSPost2010Prop31
280
     0
102
RTVSPost2010PropOp31
 70
     1
102
RTVSPost2010Prop32
280
     0
102
RTVSPost2010PropOp32
 70
     1
102
RTVSPost2010Prop33
280
     0
102
RTVSPost2010PropOp33
 70
     1
102
RTVSPost2010Prop34
280
     0
102
RTVSPost2010PropOp34
 70
     1
102
RTVSPost2010Prop35
280
     0
102
RTVSPost2010PropOp35
 70
     1
102
RTVSPost2010Prop36
280
     0
102
RTVSPost2010PropOp36
 70
     1
102
RTVSPost2010Prop37
 90
       50
102
RTVSPost2010PropOp37
 70
     1
102
RTVSPost2010Prop38
140
0.0
102
RTVSPost2010PropOp38
 70
     1
102
RTVSPost2010Prop39
140
1.0
102
RTVSPost2010PropOp39
 70
     1
102
RTVSPost2010Prop40
 90
        0
102
RTVSPost2010PropOp40
 70
     1
102
RTVSPost2010Prop41ColorIndex
 90
       18
102
RTVSPost2010Prop41ColorRGB
 90
        0
102
RTVSPost2010PropOp41
 70
     1
102
RTVSPost2010Prop42
 90
       50
102
RTVSPost2010PropOp42
 70
     1
102
RTVSPost2010Prop43
 90
        3
102
RTVSPost2010PropOp43
 70
     1
102
RTVSPost2010Prop44ColorIndex
 90
        5
102
RTVSPost2010Prop44ColorRGB
 90
      255
102
RTVSPost2010PropOp44
 70
     1
102
RTVSPost2010Prop45
280
     0
102
RTVSPost2010PropOp45
 70
     1
102
RTVSPost2010Prop46
 90
       50
102
RTVSPost2010PropOp46
 70
     1
102
RTVSPost2010Prop47
 90
       50
102
RTVSPost2010PropOp47
 70
     1
102
RTVSPost2010Prop48
 90
       50
102
RTVSPost2010PropOp48
 70
     1
102
RTVSPost2010Prop49
280
     0
102
RTVSPost2010PropOp49
 70
     1
102
RTVSPost2010Prop50
 90
       50
102
RTVSPost2010PropOp50
 70
     1
102
RTVSPost2010Prop51ColorIndex
 90
      256
102
RTVSPost2010Prop51ColorRGB
 90
-16777216
102
RTVSPost2010PropOp51
 70
     0
102
RTVSPost2010Prop52
140
1.0
102
RTVSPost2010PropOp52
 70
     0
102
RTVSPost2010Prop53
 90
        2
102
RTVSPost2010PropOp53
 70
     1
102
RTVSPost2010Prop54
  1
strokes_ogs.tif
102
RTVSPost2010PropOp54
 70
     1
102
RTVSPost2010Prop55
280
     0
102
RTVSPost2010PropOp55
 70
     1
102
RTVSPost2010Prop56
140
1.0
102
RTVSPost2010PropOp56
 70
     1
102
RTVSPost2010Prop57
140
1.0
102
RTVSPost2010PropOp57
 70
     1
102
RTVSPropertyOp0
 70
     1
102
RTVSPropertyOp1
 70
     1
102
RTVSPropertyOp2
 70
     1
102
RTVSPropertyOp3
 70
     1
102
RTVSPropertyOp4
 70
     1
102
RTVSPropertyOp5
 70
     1
102
RTVSPropertyOp6
 70
     1
102
RTVSPropertyOp7
 70
     1
102
RTVSPropertyOp8
 70
     1
102
RTVSPropertyOp9
 70
     1
102
RTVSPropertyOp10
 70
     1
102
RTVSPropertyOp11
 70
     1
102
RTVSPropertyOp12
 70
     1
102
RTVSPropertyOp13
 70
     1
102
RTVSPropertyOp14
 70
     1
102
RTVSPropertyOp15
 70
     1
102
RTVSPropertyOp16
 70
     1
102
RTVSPropertyOp17
 70
     1
102
RTVSPropertyOp18
 70
     1
102
RTVSPropertyOp19
 70
     1
102
RTVSPropertyOp20
 70
     1
102
RTVSPropertyOp21
 70
     1
102
RTVSPropertyOp22
 70
     1
102
RTVSPropertyOp23
 70
     1
102
RTVSPropertyOp24
 70
     1
102
RTVSPropertyOp25
 70
     1
102
RTVSPropertyOp26
 70
     1
102
RTVSPropertyOp27
 70
     1
102
RTVSPropertyOp28
 70
     1
102
RTVSPropertyOp29
 70
     1
102
RTVSPropertyOp30
 70
     1
102
RTVSPropertyOp31
 70
     1
102
RTVSPropertyOp32
 70
     1
102
RTVSPropertyOp33
 70
     1
102
RTVSPropertyOp34
 70
     1
102
RTVSPropertyOp35
 70
     1
102
RTVSPropertyOp36
 70
     1
102
RTVSPropertyOp37
 70
     1
102
RTVSPropertyOp38
 70
     1
102
RTVSPropertyOp39
 70
     1
102
RTVSPropertyOp40
 70
     1
102
RTVSPropertyOp41
 70
     1
102
RTVSPropertyOp42
 70
     1
102
RTVSPropertyOp43
 70
     1
102
RTVSPropertyOp44
 70
     1
102
RTVSPropertyOp45
 70
     1
102
RTVSPropertyOp46
 70
     1
102
RTVSPropertyOp47
 70
     1
102
RTVSPropertyOp48
 70
     1
102
RTVSPropertyOp49
 70
     1
102
RTVSPropertyOp50
 70
     1
102
RTVSPropertyOp51
 70
     0
102
RTVSPropertyOp52
 70
     0
102
RTVSPropertyOp53
 70
     1
102
RTVSPropertyOp54
 70
     1
102
RTVSPropertyOp55
 70
     1
102
RTVSPropertyOp56
 70
     1
102
RTVSPropertyOp57
 70
     1
102
RTVSPropertyOp58
 70
     1
102
RTVSPropertyOp59
 70
     1
102
RTVSPropertyOp60
 70
     1
102
RTVSPropertyOp61
 70
     1
102
RTVSPropertyOp62
 70
     1
  0
XRECORD
  5
15783
102
{ACAD_REACTORS
330
15782
102
}
330
15782
100
AcDbXrecord
280
     1
102
RTVSPost2010Prop28
280
     0
102
RTVSPost2010PropOp28
 70
     1
102
RTVSPost2010Prop29
280
     1
102
RTVSPost2010PropOp29
 70
     1
102
RTVSPost2010Prop30
280
     1
102
RTVSPost2010PropOp30
 70
     1
102
RTVSPost2010Prop31
280
     0
102
RTVSPost2010PropOp31
 70
     1
102
RTVSPost2010Prop32
280
     0
102
RTVSPost2010PropOp32
 70
     1
102
RTVSPost2010Prop33
280
     0
102
RTVSPost2010PropOp33
 70
     1
102
RTVSPost2010Prop34
280
     0
102
RTVSPost2010PropOp34
 70
     1
102
RTVSPost2010Prop35
280
     0
102
RTVSPost2010PropOp35
 70
     1
102
RTVSPost2010Prop36
280
     0
102
RTVSPost2010PropOp36
 70
     1
102
RTVSPost2010Prop37
 90
       50
102
RTVSPost2010PropOp37
 70
     1
102
RTVSPost2010Prop38
140
0.0
102
RTVSPost2010PropOp38
 70
     1
102
RTVSPost2010Prop39
140
1.0
102
RTVSPost2010PropOp39
 70
     1
102
RTVSPost2010Prop40
 90
        0
102
RTVSPost2010PropOp40
 70
     1
102
RTVSPost2010Prop41ColorIndex
 90
       18
102
RTVSPost2010Prop41ColorRGB
 90
        0
102
RTVSPost2010PropOp41
 70
     1
102
RTVSPost2010Prop42
 90
       50
102
RTVSPost2010PropOp42
 70
     1
102
RTVSPost2010Prop43
 90
        3
102
RTVSPost2010PropOp43
 70
     1
102
RTVSPost2010Prop44ColorIndex
 90
        5
102
RTVSPost2010Prop44ColorRGB
 90
      255
102
RTVSPost2010PropOp44
 70
     1
102
RTVSPost2010Prop45
280
     0
102
RTVSPost2010PropOp45
 70
     1
102
RTVSPost2010Prop46
 90
       50
102
RTVSPost2010PropOp46
 70
     1
102
RTVSPost2010Prop47
 90
       50
102
RTVSPost2010PropOp47
 70
     1
102
RTVSPost2010Prop48
 90
       50
102
RTVSPost2010PropOp48
 70
     1
102
RTVSPost2010Prop49
280
     0
102
RTVSPost2010PropOp49
 70
     1
102
RTVSPost2010Prop50
 90
       50
102
RTVSPost2010PropOp50
 70
     1
102
RTVSPost2010Prop51ColorIndex
 90
      256
102
RTVSPost2010Prop51ColorRGB
 90
-16777216
102
RTVSPost2010PropOp51
 70
     0
102
RTVSPost2010Prop52
140
1.0
102
RTVSPost2010PropOp52
 70
     0
102
RTVSPost2010Prop53
 90
        2
102
RTVSPost2010PropOp53
 70
     1
102
RTVSPost2010Prop54
  1
strokes_ogs.tif
102
RTVSPost2010PropOp54
 70
     1
102
RTVSPost2010Prop55
280
     0
102
RTVSPost2010PropOp55
 70
     1
102
RTVSPost2010Prop56
140
1.0
102
RTVSPost2010PropOp56
 70
     1
102
RTVSPost2010Prop57
140
1.0
102
RTVSPost2010PropOp57
 70
     1
102
RTVSPropertyOp0
 70
     1
102
RTVSPropertyOp1
 70
     1
102
RTVSPropertyOp2
 70
     1
102
RTVSPropertyOp3
 70
     1
102
RTVSPropertyOp4
 70
     1
102
RTVSPropertyOp5
 70
     1
102
RTVSPropertyOp6
 70
     1
102
RTVSPropertyOp7
 70
     1
102
RTVSPropertyOp8
 70
     1
102
RTVSPropertyOp9
 70
     1
102
RTVSPropertyOp10
 70
     1
102
RTVSPropertyOp11
 70
     1
102
RTVSPropertyOp12
 70
     1
102
RTVSPropertyOp13
 70
     1
102
RTVSPropertyOp14
 70
     1
102
RTVSPropertyOp15
 70
     1
102
RTVSPropertyOp16
 70
     1
102
RTVSPropertyOp17
 70
     1
102
RTVSPropertyOp18
 70
     1
102
RTVSPropertyOp19
 70
     1
102
RTVSPropertyOp20
 70
     1
102
RTVSPropertyOp21
 70
     1
102
RTVSPropertyOp22
 70
     1
102
RTVSPropertyOp23
 70
     1
102
RTVSPropertyOp24
 70
     1
102
RTVSPropertyOp25
 70
     1
102
RTVSPropertyOp26
 70
     1
102
RTVSPropertyOp27
 70
     1
102
RTVSPropertyOp28
 70
     1
102
RTVSPropertyOp29
 70
     1
102
RTVSPropertyOp30
 70
     1
102
RTVSPropertyOp31
 70
     1
102
RTVSPropertyOp32
 70
     1
102
RTVSPropertyOp33
 70
     1
102
RTVSPropertyOp34
 70
     1
102
RTVSPropertyOp35
 70
     1
102
RTVSPropertyOp36
 70
     1
102
RTVSPropertyOp37
 70
     1
102
RTVSPropertyOp38
 70
     1
102
RTVSPropertyOp39
 70
     1
102
RTVSPropertyOp40
 70
     1
102
RTVSPropertyOp41
 70
     1
102
RTVSPropertyOp42
 70
     1
102
RTVSPropertyOp43
 70
     1
102
RTVSPropertyOp44
 70
     1
102
RTVSPropertyOp45
 70
     1
102
RTVSPropertyOp46
 70
     1
102
RTVSPropertyOp47
 70
     1
102
RTVSPropertyOp48
 70
     1
102
RTVSPropertyOp49
 70
     1
102
RTVSPropertyOp50
 70
     1
102
RTVSPropertyOp51
 70
     0
102
RTVSPropertyOp52
 70
     0
102
RTVSPropertyOp53
 70
     1
102
RTVSPropertyOp54
 70
     1
102
RTVSPropertyOp55
 70
     1
102
RTVSPropertyOp56
 70
     1
102
RTVSPropertyOp57
 70
     1
102
RTVSPropertyOp58
 70
     1
102
RTVSPropertyOp59
 70
     1
102
RTVSPropertyOp60
 70
     1
102
RTVSPropertyOp61
 70
     1
102
RTVSPropertyOp62
 70
     1
  0
XRECORD
  5
15785
102
{ACAD_REACTORS
330
15784
102
}
330
15784
100
AcDbXrecord
280
     1
102
RTVSPost2010Prop28
280
     0
102
RTVSPost2010PropOp28
 70
     1
102
RTVSPost2010Prop29
280
     1
102
RTVSPost2010PropOp29
 70
     1
102
RTVSPost2010Prop30
280
     1
102
RTVSPost2010PropOp30
 70
     1
102
RTVSPost2010Prop31
280
     0
102
RTVSPost2010PropOp31
 70
     1
102
RTVSPost2010Prop32
280
     0
102
RTVSPost2010PropOp32
 70
     1
102
RTVSPost2010Prop33
280
     0
102
RTVSPost2010PropOp33
 70
     1
102
RTVSPost2010Prop34
280
     0
102
RTVSPost2010PropOp34
 70
     1
102
RTVSPost2010Prop35
280
     0
102
RTVSPost2010PropOp35
 70
     1
102
RTVSPost2010Prop36
280
     0
102
RTVSPost2010PropOp36
 70
     1
102
RTVSPost2010Prop37
 90
       50
102
RTVSPost2010PropOp37
 70
     1
102
RTVSPost2010Prop38
140
0.0
102
RTVSPost2010PropOp38
 70
     1
102
RTVSPost2010Prop39
140
1.0
102
RTVSPost2010PropOp39
 70
     1
102
RTVSPost2010Prop40
 90
        0
102
RTVSPost2010PropOp40
 70
     1
102
RTVSPost2010Prop41ColorIndex
 90
       18
102
RTVSPost2010Prop41ColorRGB
 90
        0
102
RTVSPost2010PropOp41
 70
     1
102
RTVSPost2010Prop42
 90
       50
102
RTVSPost2010PropOp42
 70
     1
102
RTVSPost2010Prop43
 90
        3
102
RTVSPost2010PropOp43
 70
     1
102
RTVSPost2010Prop44ColorIndex
 90
        5
102
RTVSPost2010Prop44ColorRGB
 90
      255
102
RTVSPost2010PropOp44
 70
     1
102
RTVSPost2010Prop45
280
     0
102
RTVSPost2010PropOp45
 70
     1
102
RTVSPost2010Prop46
 90
       50
102
RTVSPost2010PropOp46
 70
     1
102
RTVSPost2010Prop47
 90
       50
102
RTVSPost2010PropOp47
 70
     1
102
RTVSPost2010Prop48
 90
       50
102
RTVSPost2010PropOp48
 70
     1
102
RTVSPost2010Prop49
280
     0
102
RTVSPost2010PropOp49
 70
     1
102
RTVSPost2010Prop50
 90
       50
102
RTVSPost2010PropOp50
 70
     1
102
RTVSPost2010Prop51ColorIndex
 90
      256
102
RTVSPost2010Prop51ColorRGB
 90
-16777216
102
RTVSPost2010PropOp51
 70
     0
102
RTVSPost2010Prop52
140
1.0
102
RTVSPost2010PropOp52
 70
     0
102
RTVSPost2010Prop53
 90
        2
102
RTVSPost2010PropOp53
 70
     1
102
RTVSPost2010Prop54
  1
strokes_ogs.tif
102
RTVSPost2010PropOp54
 70
     1
102
RTVSPost2010Prop55
280
     0
102
RTVSPost2010PropOp55
 70
     1
102
RTVSPost2010Prop56
140
1.0
102
RTVSPost2010PropOp56
 70
     1
102
RTVSPost2010Prop57
140
1.0
102
RTVSPost2010PropOp57
 70
     1
102
RTVSPropertyOp0
 70
     1
102
RTVSPropertyOp1
 70
     1
102
RTVSPropertyOp2
 70
     1
102
RTVSPropertyOp3
 70
     1
102
RTVSPropertyOp4
 70
     1
102
RTVSPropertyOp5
 70
     1
102
RTVSPropertyOp6
 70
     1
102
RTVSPropertyOp7
 70
     1
102
RTVSPropertyOp8
 70
     1
102
RTVSPropertyOp9
 70
     1
102
RTVSPropertyOp10
 70
     1
102
RTVSPropertyOp11
 70
     1
102
RTVSPropertyOp12
 70
     1
102
RTVSPropertyOp13
 70
     1
102
RTVSPropertyOp14
 70
     1
102
RTVSPropertyOp15
 70
     1
102
RTVSPropertyOp16
 70
     1
102
RTVSPropertyOp17
 70
     1
102
RTVSPropertyOp18
 70
     1
102
RTVSPropertyOp19
 70
     1
102
RTVSPropertyOp20
 70
     1
102
RTVSPropertyOp21
 70
     1
102
RTVSPropertyOp22
 70
     1
102
RTVSPropertyOp23
 70
     1
102
RTVSPropertyOp24
 70
     1
102
RTVSPropertyOp25
 70
     1
102
RTVSPropertyOp26
 70
     1
102
RTVSPropertyOp27
 70
     1
102
RTVSPropertyOp28
 70
     1
102
RTVSPropertyOp29
 70
     1
102
RTVSPropertyOp30
 70
     1
102
RTVSPropertyOp31
 70
     1
102
RTVSPropertyOp32
 70
     1
102
RTVSPropertyOp33
 70
     1
102
RTVSPropertyOp34
 70
     1
102
RTVSPropertyOp35
 70
     1
102
RTVSPropertyOp36
 70
     1
102
RTVSPropertyOp37
 70
     1
102
RTVSPropertyOp38
 70
     1
102
RTVSPropertyOp39
 70
     1
102
RTVSPropertyOp40
 70
     1
102
RTVSPropertyOp41
 70
     1
102
RTVSPropertyOp42
 70
     1
102
RTVSPropertyOp43
 70
     1
102
RTVSPropertyOp44
 70
     1
102
RTVSPropertyOp45
 70
     1
102
RTVSPropertyOp46
 70
     1
102
RTVSPropertyOp47
 70
     1
102
RTVSPropertyOp48
 70
     1
102
RTVSPropertyOp49
 70
     1
102
RTVSPropertyOp50
 70
     1
102
RTVSPropertyOp51
 70
     0
102
RTVSPropertyOp52
 70
     0
102
RTVSPropertyOp53
 70
     1
102
RTVSPropertyOp54
 70
     1
102
RTVSPropertyOp55
 70
     1
102
RTVSPropertyOp56
 70
     1
102
RTVSPropertyOp57
 70
     1
102
RTVSPropertyOp58
 70
     1
102
RTVSPropertyOp59
 70
     1
102
RTVSPropertyOp60
 70
     1
102
RTVSPropertyOp61
 70
     1
102
RTVSPropertyOp62
 70
     1
  0
XRECORD
  5
1577B
102
{ACAD_REACTORS
330
1577A
102
}
330
1577A
100
AcDbXrecord
280
     1
102
RTVSPost2010Prop28
280
     0
102
RTVSPost2010PropOp28
 70
     1
102
RTVSPost2010Prop29
280
     1
102
RTVSPost2010PropOp29
 70
     1
102
RTVSPost2010Prop30
280
     1
102
RTVSPost2010PropOp30
 70
     1
102
RTVSPost2010Prop31
280
     0
102
RTVSPost2010PropOp31
 70
     1
102
RTVSPost2010Prop32
280
     0
102
RTVSPost2010PropOp32
 70
     1
102
RTVSPost2010Prop33
280
     0
102
RTVSPost2010PropOp33
 70
     1
102
RTVSPost2010Prop34
280
     0
102
RTVSPost2010PropOp34
 70
     1
102
RTVSPost2010Prop35
280
     0
102
RTVSPost2010PropOp35
 70
     1
102
RTVSPost2010Prop36
280
     0
102
RTVSPost2010PropOp36
 70
     1
102
RTVSPost2010Prop37
 90
       50
102
RTVSPost2010PropOp37
 70
     1
102
RTVSPost2010Prop38
140
0.0
102
RTVSPost2010PropOp38
 70
     1
102
RTVSPost2010Prop39
140
1.0
102
RTVSPost2010PropOp39
 70
     1
102
RTVSPost2010Prop40
 90
        0
102
RTVSPost2010PropOp40
 70
     1
102
RTVSPost2010Prop41ColorIndex
 90
       18
102
RTVSPost2010Prop41ColorRGB
 90
        0
102
RTVSPost2010PropOp41
 70
     1
102
RTVSPost2010Prop42
 90
       50
102
RTVSPost2010PropOp42
 70
     1
102
RTVSPost2010Prop43
 90
        3
102
RTVSPost2010PropOp43
 70
     1
102
RTVSPost2010Prop44ColorIndex
 90
        5
102
RTVSPost2010Prop44ColorRGB
 90
      255
102
RTVSPost2010PropOp44
 70
     1
102
RTVSPost2010Prop45
280
     0
102
RTVSPost2010PropOp45
 70
     1
102
RTVSPost2010Prop46
 90
       50
102
RTVSPost2010PropOp46
 70
     1
102
RTVSPost2010Prop47
 90
       50
102
RTVSPost2010PropOp47
 70
     1
102
RTVSPost2010Prop48
 90
       50
102
RTVSPost2010PropOp48
 70
     1
102
RTVSPost2010Prop49
280
     0
102
RTVSPost2010PropOp49
 70
     1
102
RTVSPost2010Prop50
 90
       50
102
RTVSPost2010PropOp50
 70
     1
102
RTVSPost2010Prop51ColorIndex
 90
      256
102
RTVSPost2010Prop51ColorRGB
 90
-16777216
102
RTVSPost2010PropOp51
 70
     0
102
RTVSPost2010Prop52
140
1.0
102
RTVSPost2010PropOp52
 70
     0
102
RTVSPost2010Prop53
 90
        2
102
RTVSPost2010PropOp53
 70
     1
102
RTVSPost2010Prop54
  1
strokes_ogs.tif
102
RTVSPost2010PropOp54
 70
     1
102
RTVSPost2010Prop55
280
     0
102
RTVSPost2010PropOp55
 70
     1
102
RTVSPost2010Prop56
140
1.0
102
RTVSPost2010PropOp56
 70
     1
102
RTVSPost2010Prop57
140
1.0
102
RTVSPost2010PropOp57
 70
     1
102
RTVSPropertyOp0
 70
     1
102
RTVSPropertyOp1
 70
     1
102
RTVSPropertyOp2
 70
     1
102
RTVSPropertyOp3
 70
     1
102
RTVSPropertyOp4
 70
     1
102
RTVSPropertyOp5
 70
     1
102
RTVSPropertyOp6
 70
     1
102
RTVSPropertyOp7
 70
     1
102
RTVSPropertyOp8
 70
     1
102
RTVSPropertyOp9
 70
     1
102
RTVSPropertyOp10
 70
     1
102
RTVSPropertyOp11
 70
     1
102
RTVSPropertyOp12
 70
     1
102
RTVSPropertyOp13
 70
     1
102
RTVSPropertyOp14
 70
     1
102
RTVSPropertyOp15
 70
     1
102
RTVSPropertyOp16
 70
     1
102
RTVSPropertyOp17
 70
     1
102
RTVSPropertyOp18
 70
     1
102
RTVSPropertyOp19
 70
     1
102
RTVSPropertyOp20
 70
     1
102
RTVSPropertyOp21
 70
     1
102
RTVSPropertyOp22
 70
     1
102
RTVSPropertyOp23
 70
     1
102
RTVSPropertyOp24
 70
     1
102
RTVSPropertyOp25
 70
     1
102
RTVSPropertyOp26
 70
     1
102
RTVSPropertyOp27
 70
     1
102
RTVSPropertyOp28
 70
     1
102
RTVSPropertyOp29
 70
     1
102
RTVSPropertyOp30
 70
     1
102
RTVSPropertyOp31
 70
     1
102
RTVSPropertyOp32
 70
     1
102
RTVSPropertyOp33
 70
     1
102
RTVSPropertyOp34
 70
     1
102
RTVSPropertyOp35
 70
     1
102
RTVSPropertyOp36
 70
     1
102
RTVSPropertyOp37
 70
     1
102
RTVSPropertyOp38
 70
     1
102
RTVSPropertyOp39
 70
     1
102
RTVSPropertyOp40
 70
     1
102
RTVSPropertyOp41
 70
     1
102
RTVSPropertyOp42
 70
     1
102
RTVSPropertyOp43
 70
     1
102
RTVSPropertyOp44
 70
     1
102
RTVSPropertyOp45
 70
     1
102
RTVSPropertyOp46
 70
     1
102
RTVSPropertyOp47
 70
     1
102
RTVSPropertyOp48
 70
     1
102
RTVSPropertyOp49
 70
     1
102
RTVSPropertyOp50
 70
     1
102
RTVSPropertyOp51
 70
     0
102
RTVSPropertyOp52
 70
     0
102
RTVSPropertyOp53
 70
     1
102
RTVSPropertyOp54
 70
     1
102
RTVSPropertyOp55
 70
     1
102
RTVSPropertyOp56
 70
     1
102
RTVSPropertyOp57
 70
     1
102
RTVSPropertyOp58
 70
     1
102
RTVSPropertyOp59
 70
     1
102
RTVSPropertyOp60
 70
     1
102
RTVSPropertyOp61
 70
     1
102
RTVSPropertyOp62
 70
     1
  0
XRECORD
  5
1576F
102
{ACAD_REACTORS
330
1576E
102
}
330
1576E
100
AcDbXrecord
280
     1
102
RTVSPost2010Prop28
280
     0
102
RTVSPost2010PropOp28
 70
     1
102
RTVSPost2010Prop29
280
     1
102
RTVSPost2010PropOp29
 70
     1
102
RTVSPost2010Prop30
280
     1
102
RTVSPost2010PropOp30
 70
     1
102
RTVSPost2010Prop31
280
     0
102
RTVSPost2010PropOp31
 70
     1
102
RTVSPost2010Prop32
280
     0
102
RTVSPost2010PropOp32
 70
     1
102
RTVSPost2010Prop33
280
     0
102
RTVSPost2010PropOp33
 70
     1
102
RTVSPost2010Prop34
280
     0
102
RTVSPost2010PropOp34
 70
     1
102
RTVSPost2010Prop35
280
     0
102
RTVSPost2010PropOp35
 70
     1
102
RTVSPost2010Prop36
280
     0
102
RTVSPost2010PropOp36
 70
     1
102
RTVSPost2010Prop37
 90
       50
102
RTVSPost2010PropOp37
 70
     1
102
RTVSPost2010Prop38
140
0.0
102
RTVSPost2010PropOp38
 70
     1
102
RTVSPost2010Prop39
140
1.0
102
RTVSPost2010PropOp39
 70
     1
102
RTVSPost2010Prop40
 90
        0
102
RTVSPost2010PropOp40
 70
     1
102
RTVSPost2010Prop41ColorIndex
 90
       18
102
RTVSPost2010Prop41ColorRGB
 90
        0
102
RTVSPost2010PropOp41
 70
     1
102
RTVSPost2010Prop42
 90
       50
102
RTVSPost2010PropOp42
 70
     1
102
RTVSPost2010Prop43
 90
        3
102
RTVSPost2010PropOp43
 70
     1
102
RTVSPost2010Prop44ColorIndex
 90
        5
102
RTVSPost2010Prop44ColorRGB
 90
      255
102
RTVSPost2010PropOp44
 70
     1
102
RTVSPost2010Prop45
280
     0
102
RTVSPost2010PropOp45
 70
     1
102
RTVSPost2010Prop46
 90
       50
102
RTVSPost2010PropOp46
 70
     1
102
RTVSPost2010Prop47
 90
       50
102
RTVSPost2010PropOp47
 70
     1
102
RTVSPost2010Prop48
 90
       50
102
RTVSPost2010PropOp48
 70
     1
102
RTVSPost2010Prop49
280
     0
102
RTVSPost2010PropOp49
 70
     1
102
RTVSPost2010Prop50
 90
       50
102
RTVSPost2010PropOp50
 70
     1
102
RTVSPost2010Prop51ColorIndex
 90
      256
102
RTVSPost2010Prop51ColorRGB
 90
-16777216
102
RTVSPost2010PropOp51
 70
     0
102
RTVSPost2010Prop52
140
1.0
102
RTVSPost2010PropOp52
 70
     0
102
RTVSPost2010Prop53
 90
        2
102
RTVSPost2010PropOp53
 70
     1
102
RTVSPost2010Prop54
  1
strokes_ogs.tif
102
RTVSPost2010PropOp54
 70
     1
102
RTVSPost2010Prop55
280
     0
102
RTVSPost2010PropOp55
 70
     1
102
RTVSPost2010Prop56
140
1.0
102
RTVSPost2010PropOp56
 70
     1
102
RTVSPost2010Prop57
140
1.0
102
RTVSPost2010PropOp57
 70
     1
102
RTVSPropertyOp0
 70
     1
102
RTVSPropertyOp1
 70
     1
102
RTVSPropertyOp2
 70
     1
102
RTVSPropertyOp3
 70
     1
102
RTVSPropertyOp4
 70
     1
102
RTVSPropertyOp5
 70
     1
102
RTVSPropertyOp6
 70
     1
102
RTVSPropertyOp7
 70
     1
102
RTVSPropertyOp8
 70
     1
102
RTVSPropertyOp9
 70
     1
102
RTVSPropertyOp10
 70
     1
102
RTVSPropertyOp11
 70
     1
102
RTVSPropertyOp12
 70
     1
102
RTVSPropertyOp13
 70
     1
102
RTVSPropertyOp14
 70
     1
102
RTVSPropertyOp15
 70
     1
102
RTVSPropertyOp16
 70
     1
102
RTVSPropertyOp17
 70
     1
102
RTVSPropertyOp18
 70
     1
102
RTVSPropertyOp19
 70
     1
102
RTVSPropertyOp20
 70
     1
102
RTVSPropertyOp21
 70
     1
102
RTVSPropertyOp22
 70
     1
102
RTVSPropertyOp23
 70
     1
102
RTVSPropertyOp24
 70
     1
102
RTVSPropertyOp25
 70
     1
102
RTVSPropertyOp26
 70
     1
102
RTVSPropertyOp27
 70
     1
102
RTVSPropertyOp28
 70
     1
102
RTVSPropertyOp29
 70
     1
102
RTVSPropertyOp30
 70
     1
102
RTVSPropertyOp31
 70
     1
102
RTVSPropertyOp32
 70
     1
102
RTVSPropertyOp33
 70
     1
102
RTVSPropertyOp34
 70
     1
102
RTVSPropertyOp35
 70
     1
102
RTVSPropertyOp36
 70
     1
102
RTVSPropertyOp37
 70
     1
102
RTVSPropertyOp38
 70
     1
102
RTVSPropertyOp39
 70
     1
102
RTVSPropertyOp40
 70
     1
102
RTVSPropertyOp41
 70
     1
102
RTVSPropertyOp42
 70
     1
102
RTVSPropertyOp43
 70
     1
102
RTVSPropertyOp44
 70
     1
102
RTVSPropertyOp45
 70
     1
102
RTVSPropertyOp46
 70
     1
102
RTVSPropertyOp47
 70
     1
102
RTVSPropertyOp48
 70
     1
102
RTVSPropertyOp49
 70
     1
102
RTVSPropertyOp50
 70
     1
102
RTVSPropertyOp51
 70
     0
102
RTVSPropertyOp52
 70
     0
102
RTVSPropertyOp53
 70
     1
102
RTVSPropertyOp54
 70
     1
102
RTVSPropertyOp55
 70
     1
102
RTVSPropertyOp56
 70
     1
102
RTVSPropertyOp57
 70
     1
102
RTVSPropertyOp58
 70
     1
102
RTVSPropertyOp59
 70
     1
102
RTVSPropertyOp60
 70
     1
102
RTVSPropertyOp61
 70
     1
102
RTVSPropertyOp62
 70
     1
  0
XRECORD
  5
15787
102
{ACAD_REACTORS
330
15786
102
}
330
15786
100
AcDbXrecord
280
     1
102
RTVSPost2010Prop28
280
     0
102
RTVSPost2010PropOp28
 70
     1
102
RTVSPost2010Prop29
280
     1
102
RTVSPost2010PropOp29
 70
     1
102
RTVSPost2010Prop30
280
     1
102
RTVSPost2010PropOp30
 70
     1
102
RTVSPost2010Prop31
280
     0
102
RTVSPost2010PropOp31
 70
     1
102
RTVSPost2010Prop32
280
     0
102
RTVSPost2010PropOp32
 70
     1
102
RTVSPost2010Prop33
280
     0
102
RTVSPost2010PropOp33
 70
     1
102
RTVSPost2010Prop34
280
     0
102
RTVSPost2010PropOp34
 70
     1
102
RTVSPost2010Prop35
280
     0
102
RTVSPost2010PropOp35
 70
     1
102
RTVSPost2010Prop36
280
     0
102
RTVSPost2010PropOp36
 70
     1
102
RTVSPost2010Prop37
 90
       50
102
RTVSPost2010PropOp37
 70
     1
102
RTVSPost2010Prop38
140
0.0
102
RTVSPost2010PropOp38
 70
     1
102
RTVSPost2010Prop39
140
1.0
102
RTVSPost2010PropOp39
 70
     1
102
RTVSPost2010Prop40
 90
        0
102
RTVSPost2010PropOp40
 70
     1
102
RTVSPost2010Prop41ColorIndex
 90
       18
102
RTVSPost2010Prop41ColorRGB
 90
        0
102
RTVSPost2010PropOp41
 70
     1
102
RTVSPost2010Prop42
 90
       50
102
RTVSPost2010PropOp42
 70
     1
102
RTVSPost2010Prop43
 90
        3
102
RTVSPost2010PropOp43
 70
     1
102
RTVSPost2010Prop44ColorIndex
 90
        5
102
RTVSPost2010Prop44ColorRGB
 90
      255
102
RTVSPost2010PropOp44
 70
     1
102
RTVSPost2010Prop45
280
     0
102
RTVSPost2010PropOp45
 70
     1
102
RTVSPost2010Prop46
 90
       50
102
RTVSPost2010PropOp46
 70
     1
102
RTVSPost2010Prop47
 90
       50
102
RTVSPost2010PropOp47
 70
     1
102
RTVSPost2010Prop48
 90
       50
102
RTVSPost2010PropOp48
 70
     1
102
RTVSPost2010Prop49
280
     0
102
RTVSPost2010PropOp49
 70
     1
102
RTVSPost2010Prop50
 90
       50
102
RTVSPost2010PropOp50
 70
     1
102
RTVSPost2010Prop51ColorIndex
 90
      256
102
RTVSPost2010Prop51ColorRGB
 90
-16777216
102
RTVSPost2010PropOp51
 70
     0
102
RTVSPost2010Prop52
140
1.0
102
RTVSPost2010PropOp52
 70
     0
102
RTVSPost2010Prop53
 90
        2
102
RTVSPost2010PropOp53
 70
     1
102
RTVSPost2010Prop54
  1
strokes_ogs.tif
102
RTVSPost2010PropOp54
 70
     1
102
RTVSPost2010Prop55
280
     0
102
RTVSPost2010PropOp55
 70
     1
102
RTVSPost2010Prop56
140
1.0
102
RTVSPost2010PropOp56
 70
     1
102
RTVSPost2010Prop57
140
1.0
102
RTVSPost2010PropOp57
 70
     1
102
RTVSPropertyOp0
 70
     1
102
RTVSPropertyOp1
 70
     1
102
RTVSPropertyOp2
 70
     1
102
RTVSPropertyOp3
 70
     1
102
RTVSPropertyOp4
 70
     1
102
RTVSPropertyOp5
 70
     1
102
RTVSPropertyOp6
 70
     1
102
RTVSPropertyOp7
 70
     1
102
RTVSPropertyOp8
 70
     1
102
RTVSPropertyOp9
 70
     1
102
RTVSPropertyOp10
 70
     1
102
RTVSPropertyOp11
 70
     1
102
RTVSPropertyOp12
 70
     1
102
RTVSPropertyOp13
 70
     1
102
RTVSPropertyOp14
 70
     1
102
RTVSPropertyOp15
 70
     1
102
RTVSPropertyOp16
 70
     1
102
RTVSPropertyOp17
 70
     1
102
RTVSPropertyOp18
 70
     1
102
RTVSPropertyOp19
 70
     1
102
RTVSPropertyOp20
 70
     1
102
RTVSPropertyOp21
 70
     1
102
RTVSPropertyOp22
 70
     1
102
RTVSPropertyOp23
 70
     1
102
RTVSPropertyOp24
 70
     1
102
RTVSPropertyOp25
 70
     1
102
RTVSPropertyOp26
 70
     1
102
RTVSPropertyOp27
 70
     1
102
RTVSPropertyOp28
 70
     1
102
RTVSPropertyOp29
 70
     1
102
RTVSPropertyOp30
 70
     1
102
RTVSPropertyOp31
 70
     1
102
RTVSPropertyOp32
 70
     1
102
RTVSPropertyOp33
 70
     1
102
RTVSPropertyOp34
 70
     1
102
RTVSPropertyOp35
 70
     1
102
RTVSPropertyOp36
 70
     1
102
RTVSPropertyOp37
 70
     1
102
RTVSPropertyOp38
 70
     1
102
RTVSPropertyOp39
 70
     1
102
RTVSPropertyOp40
 70
     1
102
RTVSPropertyOp41
 70
     1
102
RTVSPropertyOp42
 70
     1
102
RTVSPropertyOp43
 70
     1
102
RTVSPropertyOp44
 70
     1
102
RTVSPropertyOp45
 70
     1
102
RTVSPropertyOp46
 70
     1
102
RTVSPropertyOp47
 70
     1
102
RTVSPropertyOp48
 70
     1
102
RTVSPropertyOp49
 70
     1
102
RTVSPropertyOp50
 70
     1
102
RTVSPropertyOp51
 70
     0
102
RTVSPropertyOp52
 70
     0
102
RTVSPropertyOp53
 70
     1
102
RTVSPropertyOp54
 70
     1
102
RTVSPropertyOp55
 70
     1
102
RTVSPropertyOp56
 70
     1
102
RTVSPropertyOp57
 70
     1
102
RTVSPropertyOp58
 70
     1
102
RTVSPropertyOp59
 70
     1
102
RTVSPropertyOp60
 70
     1
102
RTVSPropertyOp61
 70
     1
102
RTVSPropertyOp62
 70
     1
  0
ENDSEC
  0
EOF
