  0
SECTION
  2
HEADER
  9
$ACADVER
  1
AC1015
  9
$ACADMAINTVER
 70
    20
  9
$DWGCODEPAGE
  3
ANSI_932
  9
$INSBASE
 10
0.0
 20
0.0
 30
0.0
  9
$EXTMIN
 10
104.3976124660112
 20
-0.6796753198723309
 30
-0.000000000000013
  9
$EXTMAX
 10
12231.24392539175
 20
8557.4504696644
 30
0.0000000000000023
  9
$LIMMIN
 10
0.0
 20
0.0
  9
$LIMMAX
 10
12600.0
 20
8910.0
  9
$ORTHOMODE
 70
     0
  9
$REGENMODE
 70
     1
  9
$FILLMODE
 70
     1
  9
$QTEXTMODE
 70
     0
  9
$MIRRTEXT
 70
     1
  9
$LTSCALE
 40
3.0
  9
$ATTMODE
 70
     1
  9
$TEXTSIZE
 40
100.0
  9
$TRACEWID
 40
1.0
  9
$TEXTSTYLE
  7
STYLE3
  9
$CLAYER
  8
部品1
  9
$CELTYPE
  6
BYLAYER
  9
$CECOLOR
 62
   256
  9
$CELTSCALE
 40
50.0
  9
$DISPSILH
 70
     0
  9
$DIMSCALE
 40
30.0
  9
$DIMASZ
 40
2.5
  9
$DIMEXO
 40
0.5
  9
$DIMDLI
 40
7.0
  9
$DIMRND
 40
0.0
  9
$DIMDLE
 40
0.0
  9
$DIMEXE
 40
1.5
  9
$DIMTP
 40
0.0
  9
$DIMTM
 40
0.0
  9
$DIMTXT
 40
3.0
  9
$DIMCEN
 40
0.0
  9
$DIMTSZ
 40
0.0
  9
$DIMTOL
 70
     0
  9
$DIMLIM
 70
     0
  9
$DIMTIH
 70
     0
  9
$DIMTOH
 70
     0
  9
$DIMSE1
 70
     0
  9
$DIMSE2
 70
     0
  9
$DIMTAD
 70
     3
  9
$DIMZIN
 70
     8
  9
$DIMBLK
  1

  9
$DIMASO
 70
     1
  9
$DIMSHO
 70
     1
  9
$DIMPOST
  1

  9
$DIMAPOST
  1

  9
$DIMALT
 70
     0
  9
$DIMALTD
 70
     2
  9
$DIMALTF
 40
0.0394
  9
$DIMLFAC
 40
1.0
  9
$DIMTOFL
 70
     1
  9
$DIMTVP
 40
0.0
  9
$DIMTIX
 70
     1
  9
$DIMSOXD
 70
     1
  9
$DIMSAH
 70
     1
  9
$DIMBLK1
  1
DOTSMALL
  9
$DIMBLK2
  1
DOTSMALL
  9
$DIMSTYLE
  2
INABA_S30G
  9
$DIMCLRD
 70
     0
  9
$DIMCLRE
 70
     0
  9
$DIMCLRT
 70
     7
  9
$DIMTFAC
 40
1.0
  9
$DIMGAP
 40
1.0
  9
$DIMJUST
 70
     0
  9
$DIMSD1
 70
     0
  9
$DIMSD2
 70
     0
  9
$DIMTOLJ
 70
     1
  9
$DIMTZIN
 70
     0
  9
$DIMALTZ
 70
     0
  9
$DIMALTTZ
 70
     0
  9
$DIMUPT
 70
     0
  9
$DIMDEC
 70
     1
  9
$DIMTDEC
 70
     4
  9
$DIMALTU
 70
     2
  9
$DIMALTTD
 70
     2
  9
$DIMTXSTY
  7
STYLE1
  9
$DIMAUNIT
 70
     0
  9
$DIMADEC
 70
     0
  9
$DIMALTRND
 40
0.0
  9
$DIMAZIN
 70
     0
  9
$DIMDSEP
 70
    46
  9
$DIMATFIT
 70
     3
  9
$DIMFRAC
 70
     0
  9
$DIMLDRBLK
  1

  9
$DIMLUNIT
 70
     2
  9
$DIMLWD
 70
    -2
  9
$DIMLWE
 70
    -2
  9
$DIMTMOVE
 70
     0
  9
$LUNITS
 70
     2
  9
$LUPREC
 70
     1
  9
$SKETCHINC
 40
1.0
  9
$FILLETRAD
 40
10.0
  9
$AUNITS
 70
     0
  9
$AUPREC
 70
     0
  9
$MENU
  1
acad
  9
$ELEVATION
 40
0.0
  9
$PELEVATION
 40
0.0
  9
$THICKNESS
 40
0.0
  9
$LIMCHECK
 70
     0
  9
$CHAMFERA
 40
10.0
  9
$CHAMFERB
 40
10.0
  9
$CHAMFERC
 40
0.0
  9
$CHAMFERD
 40
0.0
  9
$SKPOLY
 70
     0
  9
$TDCREATE
 40
2451225.538602894
  9
$TDUCREATE
 40
2451225.163602894
  9
$TDUPDATE
 40
2457326.722669178
  9
$TDUUPDATE
 40
2457326.347669178
  9
$TDINDWG
 40
0.2997282060
  9
$TDUSRTIMER
 40
0.2997282060
  9
$USRTIMER
 70
     1
  9
$ANGBASE
 50
0.0
  9
$ANGDIR
 70
     0
  9
$PDMODE
 70
     3
  9
$PDSIZE
 40
2.0
  9
$PLINEWID
 40
0.0
  9
$SPLFRAME
 70
     0
  9
$SPLINETYPE
 70
     6
  9
$SPLINESEGS
 70
     8
  9
$HANDSEED
  5
154B5
  9
$SURFTAB1
 70
     6
  9
$SURFTAB2
 70
     6
  9
$SURFTYPE
 70
     6
  9
$SURFU
 70
     6
  9
$SURFV
 70
     6
  9
$UCSBASE
  2

  9
$UCSNAME
  2

  9
$UCSORG
 10
0.0
 20
0.0
 30
0.0
  9
$UCSXDIR
 10
1.0
 20
0.0
 30
0.0
  9
$UCSYDIR
 10
0.0
 20
1.0
 30
0.0
  9
$UCSORTHOREF
  2

  9
$UCSORTHOVIEW
 70
     0
  9
$UCSORGTOP
 10
0.0
 20
0.0
 30
0.0
  9
$UCSORGBOTTOM
 10
0.0
 20
0.0
 30
0.0
  9
$UCSORGLEFT
 10
0.0
 20
0.0
 30
0.0
  9
$UCSORGRIGHT
 10
0.0
 20
0.0
 30
0.0
  9
$UCSORGFRONT
 10
0.0
 20
0.0
 30
0.0
  9
$UCSORGBACK
 10
0.0
 20
0.0
 30
0.0
  9
$PUCSBASE
  2

  9
$PUCSNAME
  2

  9
$PUCSORG
 10
0.0
 20
0.0
 30
0.0
  9
$PUCSXDIR
 10
1.0
 20
0.0
 30
0.0
  9
$PUCSYDIR
 10
0.0
 20
1.0
 30
0.0
  9
$PUCSORTHOREF
  2

  9
$PUCSORTHOVIEW
 70
     0
  9
$PUCSORGTOP
 10
0.0
 20
0.0
 30
0.0
  9
$PUCSORGBOTTOM
 10
0.0
 20
0.0
 30
0.0
  9
$PUCSORGLEFT
 10
0.0
 20
0.0
 30
0.0
  9
$PUCSORGRIGHT
 10
0.0
 20
0.0
 30
0.0
  9
$PUCSORGFRONT
 10
0.0
 20
0.0
 30
0.0
  9
$PUCSORGBACK
 10
0.0
 20
0.0
 30
0.0
  9
$USERI1
 70
     0
  9
$USERI2
 70
     0
  9
$USERI3
 70
     0
  9
$USERI4
 70
     0
  9
$USERI5
 70
     0
  9
$USERR1
 40
0.0
  9
$USERR2
 40
0.0
  9
$USERR3
 40
0.0
  9
$USERR4
 40
0.0
  9
$USERR5
 40
0.0
  9
$WORLDVIEW
 70
     1
  9
$SHADEDGE
 70
     3
  9
$SHADEDIF
 70
    70
  9
$TILEMODE
 70
     1
  9
$MAXACTVP
 70
    16
  9
$PINSBASE
 10
0.0
 20
0.0
 30
0.0
  9
$PLIMCHECK
 70
     0
  9
$PEXTMIN
 10
1.000000000000000E+20
 20
1.000000000000000E+20
 30
1.000000000000000E+20
  9
$PEXTMAX
 10
-1.000000000000000E+20
 20
-1.000000000000000E+20
 30
-1.000000000000000E+20
  9
$PLIMMIN
 10
0.0
 20
0.0
  9
$PLIMMAX
 10
420.0
 20
297.0
  9
$UNITMODE
 70
     0
  9
$VISRETAIN
 70
     0
  9
$PLINEGEN
 70
     0
  9
$PSLTSCALE
 70
     0
  9
$TREEDEPTH
 70
  3020
  9
$CMLSTYLE
  2
STANDARD
  9
$CMLJUST
 70
     0
  9
$CMLSCALE
 40
1.0
  9
$PROXYGRAPHICS
 70
     1
  9
$MEASUREMENT
 70
     1
  9
$CELWEIGHT
370
    -1
  9
$ENDCAPS
280
     0
  9
$JOINSTYLE
280
     0
  9
$LWDISPLAY
290
     0
  9
$INSUNITS
 70
     0
  9
$HYPERLINKBASE
  1

  9
$STYLESHEET
  1
inaba.ctb
  9
$XEDIT
290
     1
  9
$CEPSNTYPE
380
     0
  9
$PSTYLEMODE
290
     1
  9
$FINGERPRINTGUID
  2
{6B76327E-8F17-4C3D-957A-4CD1CD00B66A}
  9
$VERSIONGUID
  2
{7C082BE2-76D9-46F6-8BC1-DF46A8B4EB62}
  9
$EXTNAMES
290
     1
  9
$PSVPSCALE
 40
0.0
  9
$OLESTARTUP
290
     0
  0
ENDSEC
  0
SECTION
  2
CLASSES
  0
CLASS
  1
ACDBDICTIONARYWDFLT
  2
AcDbDictionaryWithDefault
  3
ObjectDBX Classes
 90
        0
280
     0
281
     0
  0
CLASS
  1
MATERIAL
  2
AcDbMaterial
  3
ObjectDBX Classes
 90
     1153
280
     0
281
     0
  0
CLASS
  1
VISUALSTYLE
  2
AcDbVisualStyle
  3
ObjectDBX Classes
 90
     4095
280
     0
281
     0
  0
CLASS
  1
TABLESTYLE
  2
AcDbTableStyle
  3
ObjectDBX Classes
 90
     4095
280
     0
281
     0
  0
CLASS
  1
SCALE
  2
AcDbScale
  3
ObjectDBX Classes
 90
     1153
280
     0
281
     0
  0
CLASS
  1
MLEADERSTYLE
  2
AcDbMLeaderStyle
  3
ACDB_MLEADERSTYLE_CLASS
 90
     4095
280
     0
281
     0
  0
CLASS
  1
ACDBSECTIONVIEWSTYLE
  2
AcDbSectionViewStyle
  3
ObjectDBX Classes
 90
     1025
280
     0
281
     0
  0
CLASS
  1
ACDBDETAILVIEWSTYLE
  2
AcDbDetailViewStyle
  3
ObjectDBX Classes
 90
     1025
280
     0
281
     0
  0
CLASS
  1
SORTENTSTABLE
  2
AcDbSortentsTable
  3
ObjectDBX Classes
 90
        0
280
     0
281
     0
  0
CLASS
  1
DICTIONARYVAR
  2
AcDbDictionaryVar
  3
ObjectDBX Classes
 90
        0
280
     0
281
     0
  0
CLASS
  1
CELLSTYLEMAP
  2
AcDbCellStyleMap
  3
ObjectDBX Classes
 90
     1152
280
     0
281
     0
  0
CLASS
  1
ACDBPLACEHOLDER
  2
AcDbPlaceHolder
  3
ObjectDBX Classes
 90
        0
280
     0
281
     0
  0
CLASS
  1
LAYOUT
  2
AcDbLayout
  3
ObjectDBX Classes
 90
        0
280
     0
281
     0
  0
ENDSEC
  0
SECTION
  2
TABLES
  0
TABLE
  2
VPORT
  5
746D
330
0
100
AcDbSymbolTable
 70
     1
  0
VPORT
  5
1485F
330
746D
100
AcDbSymbolTableRecord
100
AcDbViewportTableRecord
  2
*Active
 70
     0
 10
0.0
 20
0.0
 11
1.0
 21
1.0
 12
6753.070165139907
 22
4454.796113999796
 13
0.0
 23
0.0
 14
10.0
 24
10.0
 15
10.0
 25
10.0
 16
0.0
 26
0.0
 36
1.0
 17
0.0
 27
0.0
 37
0.0
 40
8982.519683352057
 41
1.686382393397524
 42
50.0
 43
0.0
 44
0.0
 50
0.0
 51
0.0
 71
     0
 72
     0
 73
     1
 74
     0
 75
     0
 76
     0
 77
     0
 78
     0
281
     0
 65
     1
110
0.0
120
0.0
130
0.0
111
1.0
121
0.0
131
0.0
112
0.0
122
1.0
132
0.0
 79
     0
146
0.0
1001
ACAD_NAV_VCDISPLAY
1070
     3
  0
ENDTAB
  0
TABLE
  2
LTYPE
  5
746A
330
0
100
AcDbSymbolTable
 70
     4
  0
LTYPE
  5
7477
330
746A
100
AcDbSymbolTableRecord
100
AcDbLinetypeTableRecord
  2
BYBLOCK
 70
     0
  3

 72
    65
 73
     0
 40
0.0
  0
LTYPE
  5
7478
330
746A
100
AcDbSymbolTableRecord
100
AcDbLinetypeTableRecord
  2
BYLAYER
 70
     0
  3

 72
    65
 73
     0
 40
0.0
  0
LTYPE
  5
7479
330
746A
100
AcDbSymbolTableRecord
100
AcDbLinetypeTableRecord
  2
CONTINUOUS
 70
     0
  3
Solid line
 72
    65
 73
     0
 40
0.0
  0
LTYPE
  5
7816
330
746A
100
AcDbSymbolTableRecord
100
AcDbLinetypeTableRecord
  2
CENTER
 70
     0
  3
____ _ ____ _ ____ _ ____ _ ____ _ ____ _ ____ 
 72
    65
 73
     4
 40
2.0
 49
1.25
 74
     0
 49
-0.25
 74
     0
 49
0.25
 74
     0
 49
-0.25
 74
     0
  0
LTYPE
  5
781A
330
746A
100
AcDbSymbolTableRecord
100
AcDbLinetypeTableRecord
  2
HIDDEN
 70
     0
  3
__ __ __ __ __ __ __ __ __ __ __ __ __ __ __ __
 72
    65
 73
     2
 40
0.375
 49
0.25
 74
     0
 49
-0.125
 74
     0
  0
LTYPE
  5
781B
330
746A
100
AcDbSymbolTableRecord
100
AcDbLinetypeTableRecord
  2
PHANTOM
 70
     0
  3
______  __  __  ______  __  __  ______  __  __ 
 72
    65
 73
     6
 40
2.5
 49
1.25
 74
     0
 49
-0.25
 74
     0
 49
0.25
 74
     0
 49
-0.25
 74
     0
 49
0.25
 74
     0
 49
-0.25
 74
     0
  0
ENDTAB
  0
TABLE
  2
LAYER
  5
7467
102
{ACAD_XDICTIONARY
360
146F9
102
}
330
0
100
AcDbSymbolTable
 70
    11
  0
LAYER
  5
7474
102
{ACAD_XDICTIONARY
360
14F38
102
}
330
7467
100
AcDbSymbolTableRecord
100
AcDbLayerTableRecord
  2
0
 70
     0
 62
     7
  6
CONTINUOUS
370
    -3
390
146EB
  0
LAYER
  5
DEB2
102
{ACAD_XDICTIONARY
360
14F3A
102
}
330
7467
100
AcDbSymbolTableRecord
100
AcDbLayerTableRecord
  2
センター
 70
     0
 62
     3
  6
CENTER
370
    -3
390
146EB
  0
LAYER
  5
DEB3
102
{ACAD_XDICTIONARY
360
14F3C
102
}
330
7467
100
AcDbSymbolTableRecord
100
AcDbLayerTableRecord
  2
寸法
 70
     0
 62
     4
  6
CONTINUOUS
370
    -3
390
146EB
  0
LAYER
  5
DEB4
102
{ACAD_XDICTIONARY
360
14F3E
102
}
330
7467
100
AcDbSymbolTableRecord
100
AcDbLayerTableRecord
  2
部品1
 70
     0
 62
     7
  6
CONTINUOUS
370
    -3
390
146EB
  0
LAYER
  5
DEB5
102
{ACAD_XDICTIONARY
360
14F40
102
}
330
7467
100
AcDbSymbolTableRecord
100
AcDbLayerTableRecord
  2
補助
 70
     0
 62
    -1
  6
CONTINUOUS
370
    -3
390
146EB
  0
LAYER
  5
DEB6
102
{ACAD_XDICTIONARY
360
14F42
102
}
330
7467
100
AcDbSymbolTableRecord
100
AcDbLayerTableRecord
  2
文字
 70
     0
 62
     7
  6
CONTINUOUS
370
    -3
390
146EB
  0
LAYER
  5
F255
330
7467
100
AcDbSymbolTableRecord
100
AcDbLayerTableRecord
  2
DEFPOINTS
 70
     0
 62
     7
  6
CONTINUOUS
290
     0
370
    -3
390
146EB
  0
LAYER
  5
10B54
102
{ACAD_XDICTIONARY
360
14F44
102
}
330
7467
100
AcDbSymbolTableRecord
100
AcDbLayerTableRecord
  2
仕様書枠
 70
     0
 62
   230
  6
CONTINUOUS
370
    -3
390
146EB
  0
LAYER
  5
11729
102
{ACAD_XDICTIONARY
360
14F46
102
}
330
7467
100
AcDbSymbolTableRecord
100
AcDbLayerTableRecord
  2
Ｇ．Ｌ
 70
     0
 62
    30
  6
CONTINUOUS
370
    -3
390
146EB
  0
LAYER
  5
1173F
102
{ACAD_XDICTIONARY
360
14F48
102
}
330
7467
100
AcDbSymbolTableRecord
100
AcDbLayerTableRecord
  2
細線
 70
     0
 62
     5
  6
CONTINUOUS
370
    -3
390
146EB
  0
LAYER
  5
11740
102
{ACAD_XDICTIONARY
360
14F4A
102
}
330
7467
100
AcDbSymbolTableRecord
100
AcDbLayerTableRecord
  2
点線
 70
     0
 62
     2
  6
HIDDEN
370
    -3
390
146EB
  0
ENDTAB
  0
TABLE
  2
STYLE
  5
7468
330
0
100
AcDbSymbolTable
 70
     7
  0
STYLE
  5
7475
330
7468
100
AcDbSymbolTableRecord
100
AcDbTextStyleTableRecord
  2
STANDARD
 70
     0
 40
0.0
 41
1.0
 50
0.0
 71
     0
 42
4.0
  3
txt
  4
C:\AutoCAD LT\bigfont.shx
  0
STYLE
  5
763C
330
7468
100
AcDbSymbolTableRecord
100
AcDbTextStyleTableRecord
  2
MSMINCHO
 70
     0
 40
0.0
 41
1.0
 50
0.0
 71
     0
 42
1.199999999999999
  3
C:\AutoCAD LT\msminch2.TTF
  4

  0
STYLE
  5
F706
330
7468
100
AcDbSymbolTableRecord
100
AcDbTextStyleTableRecord
  2
STYLE1
 70
     0
 40
0.0
 41
1.0
 50
0.0
 71
     0
 42
4.0
  3
isocp.shx
  4
bigfont.shx
  0
STYLE
  5
103BF
330
7468
100
AcDbSymbolTableRecord
100
AcDbTextStyleTableRecord
  2
STYLE2
 70
     0
 40
0.0
 41
1.0
 50
0.0
 71
     0
 42
100.0
  3
MS PGothic.ttf
  4

1001
ACAD
1000
MS PGothic
1071
    32818
  0
STYLE
  5
10BAA
330
7468
100
AcDbSymbolTableRecord
100
AcDbTextStyleTableRecord
  2
STYLE3
 70
     0
 40
0.0
 41
1.0
 50
0.0
 71
     0
 42
100.0
  3
MS PGothic.ttf
  4

1001
ACAD
1000
MS PGothic
1071
    32818
  0
ENDTAB
  0
TABLE
  2
VIEW
  5
746B
330
0
100
AcDbSymbolTable
 70
     0
  0
ENDTAB
  0
TABLE
  2
UCS
  5
746C
330
0
100
AcDbSymbolTable
 70
     0
  0
ENDTAB
  0
TABLE
  2
APPID
  5
746E
330
0
100
AcDbSymbolTable
 70
    10
  0
APPID
  5
7476
330
746E
100
AcDbSymbolTableRecord
100
AcDbRegAppTableRecord
  2
ACAD
 70
     0
  0
APPID
  5
DEA9
330
746E
100
AcDbSymbolTableRecord
100
AcDbRegAppTableRecord
  2
CONTENTBLOCKICON
 70
     0
  0
APPID
  5
DEAA
330
746E
100
AcDbSymbolTableRecord
100
AcDbRegAppTableRecord
  2
CONTENTBLOCKDESCRIPTION
 70
     0
  0
APPID
  5
E71D
330
746E
100
AcDbSymbolTableRecord
100
AcDbRegAppTableRecord
  2
CONTENTTABDATA
 70
     0
  0
APPID
  5
E71E
330
746E
100
AcDbSymbolTableRecord
100
AcDbRegAppTableRecord
  2
CONTENTCURRENTTAB
 70
     0
  0
APPID
  5
F3BA
330
746E
100
AcDbSymbolTableRecord
100
AcDbRegAppTableRecord
  2
DRAWINGVARIABLESXDATA
 70
     0
  0
APPID
  5
148B5
330
746E
100
AcDbSymbolTableRecord
100
AcDbRegAppTableRecord
  2
ACAD_NAV_VCDISPLAY
 70
     0
  0
APPID
  5
1491A
330
746E
100
AcDbSymbolTableRecord
100
AcDbRegAppTableRecord
  2
ACAD_EXEMPT_FROM_CAD_STANDARDS
 70
     0
  0
APPID
  5
153D1
330
746E
100
AcDbSymbolTableRecord
100
AcDbRegAppTableRecord
  2
ACAD_PSEXT
 70
     0
  0
APPID
  5
154B0
330
746E
100
AcDbSymbolTableRecord
100
AcDbRegAppTableRecord
  2
ACAD_MLEADERVER
 70
     0
  0
ENDTAB
  0
TABLE
  2
DIMSTYLE
  5
746F
330
0
100
AcDbSymbolTable
 70
     6
100
AcDbDimStyleTable
 71
     1
340
F71F
  0
DIMSTYLE
105
7484
330
746F
100
AcDbSymbolTableRecord
100
AcDbDimStyleTableRecord
  2
JIS
 70
     0
 41
2.5
 42
1.0
 43
7.0
 44
1.0
 73
     0
 74
     0
 77
     1
 78
     8
140
2.5
141
0.0
143
0.0394
147
0.0
172
     1
174
     1
175
     1
340
7475
  0
DIMSTYLE
105
F236
330
746F
100
AcDbSymbolTableRecord
100
AcDbDimStyleTableRecord
  2
INABA_S30
 70
     0
 40
30.0
 41
2.5
 42
0.5
 43
7.0
 44
1.5
 73
     0
 74
     0
 77
     3
 78
     8
140
3.0
141
0.0
143
0.0394
147
1.0
172
     1
173
     1
174
     1
175
     1
178
     7
289
     0
340
7475
341
DEAC
343
DEAC
344
DEAC
  0
DIMSTYLE
105
F71F
102
{ACAD_REACTORS
330
1324C
330
131EF
330
12FB4
330
12F50
330
132B6
330
12F4F
330
13D64
330
14682
330
15238
330
15299
330
152B0
330
152B1
330
152B2
330
152B3
102
}
330
746F
100
AcDbSymbolTableRecord
100
AcDbDimStyleTableRecord
  2
INABA_S30G
 70
     0
 40
30.0
 41
2.5
 42
0.5
 43
7.0
 44
1.5
 73
     0
 74
     0
 77
     3
 78
     8
140
3.0
141
0.0
143
0.0394
147
1.0
172
     1
173
     1
174
     1
175
     1
178
     7
271
     1
340
F706
341
F770
343
F770
344
F770
  0
DIMSTYLE
105
118AC
330
746F
100
AcDbSymbolTableRecord
100
AcDbDimStyleTableRecord
  2
INABA_S80
 70
     0
 40
80.0
 41
0.5
 42
0.2
 43
6.0
 44
0.5
 73
     0
 74
     0
 77
     3
 78
     8
140
2.5
141
0.0
143
0.0394
147
0.8
172
     1
173
     1
174
     1
175
     1
178
     5
271
     2
272
     2
289
     2
340
7475
341
F744
343
F744
344
F744
  0
ENDTAB
  0
TABLE
  2
BLOCK_RECORD
  5
7466
330
0
100
AcDbSymbolTable
 70
    20
  0
BLOCK_RECORD
  5
747D
102
{ACAD_XDICTIONARY
360
153B1
102
}
330
7466
100
AcDbSymbolTableRecord
100
AcDbBlockTableRecord
  2
*MODEL_SPACE
340
146F0
  0
BLOCK_RECORD
  5
747A
330
7466
100
AcDbSymbolTableRecord
100
AcDbBlockTableRecord
  2
*PAPER_SPACE
340
146F1
  0
BLOCK_RECORD
  5
DEAC
330
7466
100
AcDbSymbolTableRecord
100
AcDbBlockTableRecord
  2
_OPEN
340
0
  0
BLOCK_RECORD
  5
ECB3
330
7466
100
AcDbSymbolTableRecord
100
AcDbBlockTableRecord
  2
作図枠S50
340
0
310
2800000020000000200000000100040000000000000200000000000000000000000000000000000000000000000080000080000000808000800000008000800080800000C0C0C000808080000000FF0000FF000000FFFF00FF000000FF00FF00FFFF0000FFFFFF00FFFFFFFFFFFFFFFFFFFFFFFFFFFFFFFFFFFFFFFFFFFFFF
310
FFFFFFFFFFFFFFFFFFFFFFFFFFFFFFFFFFFFFFFFFFFFFFFFFFFFFFFFFFFFFFFFFFFFFFFFFFFFFFFFFFFFFFFFFFFFFFFFFFFFFFFFFFFFFFFFFFFFFFFFFFFFFFFFFFFFFFFFFFFFFFFFFF999999999999999999999999999999999FFFFFFFFFFFFFFFFFFFFFFFFFFFFFF99FFFFFFFFFFFFFFFFFFFFFFFFFFFFFF99FFFFFFFFFFF
310
FFFFFFFFFFFFFFFFFFF99FFFFFFFFFFFFFFFFFFFFFFFFFFFFFF99FFFFFFFFFFFFFFFFFFFFFFFFFFFFFF99FFFFFFFFFFFFFFFFFFFFFFFFFFFFFF99FFFFFFFFFFFFFFFFFFFFFFFFFFFFFF99FFFFFFFFFFFFFFFFFFFFFFFFFFFFFF99FFFFFFFFFFFFFFFFFFFFFFFFFFFFFF99FFFFFFFFFFFFFFFFFFFFFFFFFFFFFF99FFFFFFFFF
310
FFFFFFFFFFFFFFFFFFFFF99FFFFFFFFFFFFFFFFFFFFFFFFFFFFFF99FFFFFFFFFFFFFFFFFFFFFFFFFFFFFF99FFFFFFFFFFFFFFFFFFFFFFFFFFFFFF99FFFFFFFFFFFFFFFFFFFFFFFFFFFFFF99FFFFFFFFFFFFFFFFFFFFFFFFFFFFFF99FFFFFFFFFFFFFFFFFFFFFFFFFFFFFF99FFFFFFFFFFFFFFFFFFFFF99999999999FFFFFFF
310
FFFFFFFFFFFFFF9FFFFFFFFF99999999999999999999999FFFFFFFFFFFFFFFFFFFFFFFFFFFFFFFFFFFFFFFFFFFFFFFFFFFFFFFFFFFFFFFFFFFFFFFFFFFFFFFFFFFFFFFFFFFFFFFFFFFFFFFFFFFFFFFFFFFFFFFFFFFFFFFFFFFFFFFFFFFFFFFFFFFFFFFFFFFFFFFFFFFFFFFFF
102
{BLKREFS
331
F235
102
}
  0
BLOCK_RECORD
  5
F744
330
7466
100
AcDbSymbolTableRecord
100
AcDbBlockTableRecord
  2
_DOT
340
0
  0
BLOCK_RECORD
  5
F770
330
7466
100
AcDbSymbolTableRecord
100
AcDbBlockTableRecord
  2
_DOTSMALL
340
0
102
{BLKREFS
331
15009
331
1500A
331
15012
331
15013
331
1501C
331
1501D
331
15038
331
15039
331
15041
331
15042
331
1504A
331
1504B
331
1537A
331
1537B
331
15382
331
15383
331
1538B
331
1538C
331
15394
331
15395
331
1539F
331
153A0
331
153AA
331
153AB
331
15423
331
15424
331
1542C
331
1542D
102
}
  0
BLOCK_RECORD
  5
1344A
330
7466
100
AcDbSymbolTableRecord
100
AcDbBlockTableRecord
  2
*D4
340
0
  0
BLOCK_RECORD
  5
13456
330
7466
100
AcDbSymbolTableRecord
100
AcDbBlockTableRecord
  2
*D5
340
0
  0
BLOCK_RECORD
  5
1346D
330
7466
100
AcDbSymbolTableRecord
100
AcDbBlockTableRecord
  2
*D6
340
0
  0
BLOCK_RECORD
  5
1349B
330
7466
100
AcDbSymbolTableRecord
100
AcDbBlockTableRecord
  2
*D7
340
0
  0
BLOCK_RECORD
  5
134A6
330
7466
100
AcDbSymbolTableRecord
100
AcDbBlockTableRecord
  2
*D8
340
0
  0
BLOCK_RECORD
  5
134B1
330
7466
100
AcDbSymbolTableRecord
100
AcDbBlockTableRecord
  2
*D9
340
0
  0
BLOCK_RECORD
  5
13DBA
330
7466
100
AcDbSymbolTableRecord
100
AcDbBlockTableRecord
  2
*D10
340
0
  0
BLOCK_RECORD
  5
14683
330
7466
100
AcDbSymbolTableRecord
100
AcDbBlockTableRecord
  2
*D11
340
0
  0
BLOCK_RECORD
  5
1532A
330
7466
100
AcDbSymbolTableRecord
100
AcDbBlockTableRecord
  2
*D12
340
0
  0
BLOCK_RECORD
  5
15336
330
7466
100
AcDbSymbolTableRecord
100
AcDbBlockTableRecord
  2
*D13
340
0
  0
BLOCK_RECORD
  5
15342
330
7466
100
AcDbSymbolTableRecord
100
AcDbBlockTableRecord
  2
*D14
340
0
  0
BLOCK_RECORD
  5
1534E
330
7466
100
AcDbSymbolTableRecord
100
AcDbBlockTableRecord
  2
*D15
340
0
  0
BLOCK_RECORD
  5
1535A
330
7466
100
AcDbSymbolTableRecord
100
AcDbBlockTableRecord
  2
*D16
340
0
  0
BLOCK_RECORD
  5
15368
330
7466
100
AcDbSymbolTableRecord
100
AcDbBlockTableRecord
  2
*D17
340
0
  0
ENDTAB
  0
ENDSEC
  0
SECTION
  2
BLOCKS
  0
BLOCK
  5
7489
330
747D
100
AcDbEntity
  8
0
100
AcDbBlockBegin
  2
*MODEL_SPACE
 70
     0
 10
0.0
 20
0.0
 30
0.0
  3
*MODEL_SPACE
  1

  0
ENDBLK
  5
748A
330
747D
100
AcDbEntity
  8
0
100
AcDbBlockEnd
  0
BLOCK
  5
7487
330
747A
100
AcDbEntity
 67
     1
  8
0
100
AcDbBlockBegin
  2
*PAPER_SPACE
 70
     0
 10
0.0
 20
0.0
 30
0.0
  3
*PAPER_SPACE
  1

  0
ENDBLK
  5
7488
330
747A
100
AcDbEntity
 67
     1
  8
0
100
AcDbBlockEnd
  0
BLOCK
  5
DEAD
330
DEAC
100
AcDbEntity
  8
0
100
AcDbBlockBegin
  2
_OPEN
 70
     0
 10
0.0
 20
0.0
 30
0.0
  3
_OPEN
  1

  0
LINE
  5
DEAE
330
DEAC
100
AcDbEntity
  8
0
  6
ByBlock
 62
     0
100
AcDbLine
 10
-1.0
 20
0.1666666666666666
 30
0.0
 11
0.0
 21
0.0
 31
0.0
  0
LINE
  5
DEAF
330
DEAC
100
AcDbEntity
  8
0
  6
ByBlock
 62
     0
100
AcDbLine
 10
0.0
 20
0.0
 30
0.0
 11
-1.0
 21
-0.1666666666666666
 31
0.0
  0
LINE
  5
DEB0
330
DEAC
100
AcDbEntity
  8
0
  6
ByBlock
 62
     0
100
AcDbLine
 10
0.0
 20
0.0
 30
0.0
 11
-1.0
 21
0.0
 31
0.0
  0
ENDBLK
  5
DEB1
330
DEAC
100
AcDbEntity
  8
0
100
AcDbBlockEnd
  0
BLOCK
  5
ECB4
330
ECB3
100
AcDbEntity
  8
0
100
AcDbBlockBegin
  2
作図枠S50
 70
     0
 10
0.0
 20
0.0
 30
0.0
  3
作図枠S50
  1

  4
作図領域枠 縮尺 1/50
  0
LINE
  5
ECB5
330
ECB3
100
AcDbEntity
  8
補助
100
AcDbLine
 10
14364.0
 20
14262.0
 30
0.0
 11
174.9999999999993
 21
14262.0
 31
0.0
  0
LINE
  5
ECB6
330
ECB3
100
AcDbEntity
  8
補助
100
AcDbLine
 10
174.9999999999993
 20
14262.0
 30
0.0
 11
174.9999999999993
 21
1520.0
 31
0.0
  0
LINE
  5
ECB7
330
ECB3
100
AcDbEntity
  8
補助
100
AcDbLine
 10
174.9999999999993
 20
1520.0
 30
0.0
 11
20384.0
 21
1520.0
 31
0.0
  0
LINE
  5
ECB8
330
ECB3
100
AcDbEntity
  8
補助
100
AcDbLine
 10
20384.0
 20
1520.0
 30
0.0
 11
20384.0
 21
13042.0
 31
0.0
  0
LINE
  5
ECB9
330
ECB3
100
AcDbEntity
  8
補助
100
AcDbLine
 10
20384.0
 20
13042.0
 30
0.0
 11
14364.0
 21
13042.0
 31
0.0
  0
LINE
  5
ECBA
330
ECB3
100
AcDbEntity
  8
補助
100
AcDbLine
 10
14364.0
 20
13042.0
 30
0.0
 11
14364.0
 21
14262.0
 31
0.0
  0
ENDBLK
  5
ECBB
330
ECB3
100
AcDbEntity
  8
0
100
AcDbBlockEnd
  0
BLOCK
  5
F745
330
F744
100
AcDbEntity
  8
0
 48
50.0
100
AcDbBlockBegin
  2
_DOT
 70
     0
 10
0.0
 20
0.0
 30
0.0
  3
_DOT
  1

  0
LWPOLYLINE
  5
F746
330
F744
100
AcDbEntity
  8
0
  6
ByBlock
 62
     0
 48
50.0
100
AcDbPolyline
 90
        2
 70
     1
 43
0.5
 10
-0.25
 20
0.0
 42
1.0
 10
0.25
 20
0.0
 42
1.0
  0
LINE
  5
F74A
330
F744
100
AcDbEntity
  8
0
  6
ByBlock
 62
     0
 48
50.0
100
AcDbLine
 10
-0.5
 20
0.0
 30
0.0
 11
-1.0
 21
0.0
 31
0.0
  0
ENDBLK
  5
F74B
330
F744
100
AcDbEntity
  8
0
 48
50.0
100
AcDbBlockEnd
  0
BLOCK
  5
F771
330
F770
100
AcDbEntity
  8
0
 48
50.0
100
AcDbBlockBegin
  2
_DOTSMALL
 70
     0
 10
0.0
 20
0.0
 30
0.0
  3
_DOTSMALL
  1

  0
LWPOLYLINE
  5
F772
330
F770
100
AcDbEntity
  8
0
  6
ByBlock
 62
     0
 48
50.0
100
AcDbPolyline
 90
        2
 70
     1
 43
0.5
 10
-0.0625
 20
0.0
 42
1.0
 10
0.0625
 20
0.0
 42
1.0
  0
ENDBLK
  5
F776
330
F770
100
AcDbEntity
  8
0
 48
50.0
100
AcDbBlockEnd
  0
BLOCK
  5
14645
330
1344A
100
AcDbEntity
  8
0
 48
50.0
100
AcDbBlockBegin
  2
*D4
 70
     1
 10
0.0
 20
0.0
 30
0.0
  3
*D4
  1

  0
LINE
  5
15006
330
1344A
100
AcDbEntity
  8
寸法
 62
     0
 48
50.0
370
    -2
100
AcDbLine
 10
873.3120197244188
 20
4081.450581124186
 30
0.0
 11
873.3120197244188
 21
4955.957606075109
 31
0.0
  0
LINE
  5
15007
330
1344A
100
AcDbEntity
  8
寸法
 62
     0
 48
50.0
370
    -2
100
AcDbLine
 10
7033.312019724423
 20
4081.450581124181
 30
0.0
 11
7033.312019724423
 21
4955.957606075109
 31
0.0
  0
LINE
  5
15008
330
1344A
100
AcDbEntity
  8
寸法
 62
     0
 48
50.0
370
    -2
100
AcDbLine
 10
873.3120197244188
 20
4910.957606075109
 30
0.0
 11
7033.312019724423
 21
4910.957606075109
 31
0.0
  0
INSERT
  5
15009
330
1344A
100
AcDbEntity
  8
寸法
 62
     0
 48
50.0
370
    -2
100
AcDbBlockReference
  2
_DOTSMALL
 10
873.3120197244188
 20
4910.957606075109
 30
0.0
 41
75.0
 42
75.0
 43
75.0
 50
180.0
  0
INSERT
  5
1500A
330
1344A
100
AcDbEntity
  8
寸法
 62
     0
 48
50.0
370
    -2
100
AcDbBlockReference
  2
_DOTSMALL
 10
7033.312019724423
 20
4910.957606075109
 30
0.0
 41
75.0
 42
75.0
 43
75.0
  0
MTEXT
  5
1500B
330
1344A
100
AcDbEntity
  8
寸法
 62
     7
 48
50.0
100
AcDbMText
 10
3953.312019724421
 20
4985.957606075109
 30
0.0
 40
90.0
 41
0.0
 71
     5
 72
     1
  1
\A1;6160
  7
STYLE1
 73
     1
 44
1.0
1001
ACAD
1000
MTEXTBEGIN
1070
    73
1070
     1
1070
    44
1040
1.0
1070
    74
1070
     0
1000
MTEXTEND
  0
POINT
  5
1500C
330
1344A
100
AcDbEntity
  8
DEFPOINTS
 62
     0
 48
50.0
100
AcDbPoint
 10
873.3120197244188
 20
4066.450581124185
 30
0.0
  0
POINT
  5
1500D
330
1344A
100
AcDbEntity
  8
DEFPOINTS
 62
     0
 48
50.0
100
AcDbPoint
 10
7033.312019724423
 20
4066.450581124181
 30
0.0
  0
POINT
  5
1500E
330
1344A
100
AcDbEntity
  8
DEFPOINTS
 62
     0
 48
50.0
100
AcDbPoint
 10
7033.312019724423
 20
4910.957606075109
 30
0.0
  0
ENDBLK
  5
1464F
330
1344A
100
AcDbEntity
  8
0
 48
50.0
100
AcDbBlockEnd
  0
BLOCK
  5
1463A
330
13456
100
AcDbEntity
  8
0
 48
50.0
100
AcDbBlockBegin
  2
*D5
 70
     1
 10
0.0
 20
0.0
 30
0.0
  3
*D5
  1

  0
LINE
  5
1500F
330
13456
100
AcDbEntity
  8
寸法
 62
     0
 48
50.0
370
    -2
100
AcDbLine
 10
1123.312019724419
 20
3985.897875741638
 30
0.0
 11
1123.312019724419
 21
4646.702425425576
 31
0.0
  0
LINE
  5
15010
330
13456
100
AcDbEntity
  8
寸法
 62
     0
 48
50.0
370
    -2
100
AcDbLine
 10
6783.312019724423
 20
3985.897875741633
 30
0.0
 11
6783.312019724423
 21
4646.702425425576
 31
0.0
  0
LINE
  5
15011
330
13456
100
AcDbEntity
  8
寸法
 62
     0
 48
50.0
370
    -2
100
AcDbLine
 10
1123.312019724419
 20
4601.702425425576
 30
0.0
 11
6783.312019724423
 21
4601.702425425576
 31
0.0
  0
INSERT
  5
15012
330
13456
100
AcDbEntity
  8
寸法
 62
     0
 48
50.0
370
    -2
100
AcDbBlockReference
  2
_DOTSMALL
 10
1123.312019724419
 20
4601.702425425576
 30
0.0
 41
75.0
 42
75.0
 43
75.0
 50
180.0
  0
INSERT
  5
15013
330
13456
100
AcDbEntity
  8
寸法
 62
     0
 48
50.0
370
    -2
100
AcDbBlockReference
  2
_DOTSMALL
 10
6783.312019724423
 20
4601.702425425576
 30
0.0
 41
75.0
 42
75.0
 43
75.0
  0
MTEXT
  5
15014
330
13456
100
AcDbEntity
  8
寸法
 62
     7
 48
50.0
100
AcDbMText
 10
3953.312019724421
 20
4676.702425425577
 30
0.0
 40
90.0
 41
0.0
 71
     5
 72
     1
  1
\A1;5660
  7
STYLE1
 73
     1
 44
1.0
1001
ACAD
1000
MTEXTBEGIN
1070
    73
1070
     1
1070
    44
1040
1.0
1070
    74
1070
     0
1000
MTEXTEND
  0
POINT
  5
15015
330
13456
100
AcDbEntity
  8
DEFPOINTS
 62
     0
 48
50.0
100
AcDbPoint
 10
1123.312019724419
 20
3970.897875741638
 30
0.0
  0
POINT
  5
15016
330
13456
100
AcDbEntity
  8
DEFPOINTS
 62
     0
 48
50.0
100
AcDbPoint
 10
6783.312019724423
 20
3970.897875741633
 30
0.0
  0
POINT
  5
15017
330
13456
100
AcDbEntity
  8
DEFPOINTS
 62
     0
 48
50.0
100
AcDbPoint
 10
6783.312019724423
 20
4601.702425425576
 30
0.0
  0
ENDBLK
  5
14644
330
13456
100
AcDbEntity
  8
0
 48
50.0
100
AcDbBlockEnd
  0
BLOCK
  5
13E0A
330
1346D
100
AcDbEntity
  8
0
 48
50.0
100
AcDbBlockBegin
  2
*D6
 70
     1
 10
0.0
 20
0.0
 30
0.0
  3
*D6
  1

  0
LINE
  5
15018
330
1346D
100
AcDbEntity
  8
寸法
 62
     0
 48
50.0
370
    -2
100
AcDbLine
 10
873.3120197244188
 20
4081.450581124186
 30
0.0
 11
873.3120197244188
 21
4646.702425425582
 31
0.0
  0
LINE
  5
15019
330
1346D
100
AcDbEntity
  8
寸法
 62
     0
 48
50.0
370
    -2
100
AcDbLine
 10
1123.312019724419
 20
3985.897875741638
 30
0.0
 11
1123.312019724419
 21
4646.702425425582
 31
0.0
  0
LINE
  5
1501A
330
1346D
100
AcDbEntity
  8
寸法
 62
     0
 48
50.0
370
    -2
100
AcDbLine
 10
1123.312019724419
 20
4601.702425425582
 30
0.0
 11
873.3120197244188
 21
4601.702425425582
 31
0.0
  0
LINE
  5
1501B
330
1346D
100
AcDbEntity
  8
寸法
 62
     0
 48
50.0
370
    -2
100
AcDbLine
 10
873.3120197244188
 20
4601.702425425582
 30
0.0
 11
573.9557205118201
 21
4601.702425425582
 31
0.0
  0
INSERT
  5
1501C
330
1346D
100
AcDbEntity
  8
寸法
 62
     0
 48
50.0
370
    -2
100
AcDbBlockReference
  2
_DOTSMALL
 10
1123.312019724419
 20
4601.702425425582
 30
0.0
 41
75.0
 42
75.0
 43
75.0
  0
INSERT
  5
1501D
330
1346D
100
AcDbEntity
  8
寸法
 62
     0
 48
50.0
370
    -2
100
AcDbBlockReference
  2
_DOTSMALL
 10
873.3120197244188
 20
4601.702425425582
 30
0.0
 41
75.0
 42
75.0
 43
75.0
 50
180.0
  0
MTEXT
  5
1501E
330
1346D
100
AcDbEntity
  8
寸法
 62
     7
 48
50.0
100
AcDbMText
 10
686.1338701181193
 20
4676.711283693299
 30
0.0
 40
90.0
 41
0.0
 71
     5
 72
     1
  1
\A1;250
  7
STYLE1
 73
     1
 44
1.0
1001
ACAD
1000
MTEXTBEGIN
1070
    73
1070
     1
1070
    44
1040
1.0
1070
    74
1070
     0
1000
MTEXTEND
  0
POINT
  5
1501F
330
1346D
100
AcDbEntity
  8
DEFPOINTS
 62
     0
 48
50.0
100
AcDbPoint
 10
873.3120197244188
 20
4066.450581124185
 30
0.0
  0
POINT
  5
15020
330
1346D
100
AcDbEntity
  8
DEFPOINTS
 62
     0
 48
50.0
100
AcDbPoint
 10
1123.312019724419
 20
3970.897875741638
 30
0.0
  0
POINT
  5
15021
330
1346D
100
AcDbEntity
  8
DEFPOINTS
 62
     0
 48
50.0
100
AcDbPoint
 10
1123.312019724419
 20
4601.702425425582
 30
0.0
  0
ENDBLK
  5
13E15
330
1346D
100
AcDbEntity
  8
0
 48
50.0
100
AcDbBlockEnd
  0
BLOCK
  5
14624
330
1349B
100
AcDbEntity
  8
0
 48
50.0
100
AcDbBlockBegin
  2
*D7
 70
     1
 10
0.0
 20
0.0
 30
0.0
  3
*D7
  1

  0
LINE
  5
15420
330
1349B
100
AcDbEntity
  8
寸法
 62
     0
 48
50.0
370
    -2
100
AcDbLine
 10
1123.312019724419
 20
1695.562576328023
 30
0.0
 11
1123.312019724419
 21
1499.131163629002
 31
0.0
  0
LINE
  5
15421
330
1349B
100
AcDbEntity
  8
寸法
 62
     0
 48
50.0
370
    -2
100
AcDbLine
 10
3953.312019724421
 20
1695.562576328023
 30
0.0
 11
3953.312019724421
 21
1499.131163629002
 31
0.0
  0
LINE
  5
15422
330
1349B
100
AcDbEntity
  8
寸法
 62
     0
 48
50.0
370
    -2
100
AcDbLine
 10
1123.312019724419
 20
1544.131163629002
 30
0.0
 11
3953.312019724421
 21
1544.131163629002
 31
0.0
  0
INSERT
  5
15423
330
1349B
100
AcDbEntity
  8
寸法
 62
     0
 48
50.0
370
    -2
100
AcDbBlockReference
  2
_DOTSMALL
 10
1123.312019724419
 20
1544.131163629002
 30
0.0
 41
75.0
 42
75.0
 43
75.0
 50
180.0
  0
INSERT
  5
15424
330
1349B
100
AcDbEntity
  8
寸法
 62
     0
 48
50.0
370
    -2
100
AcDbBlockReference
  2
_DOTSMALL
 10
3953.312019724421
 20
1544.131163629002
 30
0.0
 41
75.0
 42
75.0
 43
75.0
  0
MTEXT
  5
15425
330
1349B
100
AcDbEntity
  8
寸法
 62
     7
 48
50.0
100
AcDbMText
 10
2538.312019724421
 20
1619.140021896719
 30
0.0
 40
90.0
 41
0.0
 71
     5
 72
     1
  1
\A1;2830
  7
STYLE1
 73
     1
 44
1.0
1001
ACAD
1000
MTEXTBEGIN
1070
    73
1070
     1
1070
    44
1040
1.0
1070
    74
1070
     0
1000
MTEXTEND
  0
POINT
  5
15426
330
1349B
100
AcDbEntity
  8
DEFPOINTS
 62
     0
 48
50.0
100
AcDbPoint
 10
1123.312019724419
 20
1710.562576328023
 30
0.0
  0
POINT
  5
15427
330
1349B
100
AcDbEntity
  8
DEFPOINTS
 62
     0
 48
50.0
100
AcDbPoint
 10
3953.312019724421
 20
1710.562576328023
 30
0.0
  0
POINT
  5
15428
330
1349B
100
AcDbEntity
  8
DEFPOINTS
 62
     0
 48
50.0
100
AcDbPoint
 10
3953.312019724421
 20
1544.131163629002
 30
0.0
  0
ENDBLK
  5
1462E
330
1349B
100
AcDbEntity
  8
0
 48
50.0
100
AcDbBlockEnd
  0
BLOCK
  5
1462F
330
134A6
100
AcDbEntity
  8
0
 48
50.0
100
AcDbBlockBegin
  2
*D8
 70
     1
 10
0.0
 20
0.0
 30
0.0
  3
*D8
  1

  0
LINE
  5
15429
330
134A6
100
AcDbEntity
  8
寸法
 62
     0
 48
50.0
370
    -2
100
AcDbLine
 10
3953.312019724421
 20
1695.562576328023
 30
0.0
 11
3953.312019724421
 21
1499.131163628997
 31
0.0
  0
LINE
  5
1542A
330
134A6
100
AcDbEntity
  8
寸法
 62
     0
 48
50.0
370
    -2
100
AcDbLine
 10
6783.312019724423
 20
1695.562576328018
 30
0.0
 11
6783.312019724423
 21
1499.131163628997
 31
0.0
  0
LINE
  5
1542B
330
134A6
100
AcDbEntity
  8
寸法
 62
     0
 48
50.0
370
    -2
100
AcDbLine
 10
3953.312019724421
 20
1544.131163628997
 30
0.0
 11
6783.312019724423
 21
1544.131163628997
 31
0.0
  0
INSERT
  5
1542C
330
134A6
100
AcDbEntity
  8
寸法
 62
     0
 48
50.0
370
    -2
100
AcDbBlockReference
  2
_DOTSMALL
 10
3953.312019724421
 20
1544.131163628997
 30
0.0
 41
75.0
 42
75.0
 43
75.0
 50
180.0
  0
INSERT
  5
1542D
330
134A6
100
AcDbEntity
  8
寸法
 62
     0
 48
50.0
370
    -2
100
AcDbBlockReference
  2
_DOTSMALL
 10
6783.312019724423
 20
1544.131163628997
 30
0.0
 41
75.0
 42
75.0
 43
75.0
  0
MTEXT
  5
1542E
330
134A6
100
AcDbEntity
  8
寸法
 62
     7
 48
50.0
100
AcDbMText
 10
5368.312019724423
 20
1619.140021896714
 30
0.0
 40
90.0
 41
0.0
 71
     5
 72
     1
  1
\A1;2830
  7
STYLE1
 73
     1
 44
1.0
1001
ACAD
1000
MTEXTBEGIN
1070
    73
1070
     1
1070
    44
1040
1.0
1070
    74
1070
     0
1000
MTEXTEND
  0
POINT
  5
1542F
330
134A6
100
AcDbEntity
  8
DEFPOINTS
 62
     0
 48
50.0
100
AcDbPoint
 10
3953.312019724421
 20
1710.562576328023
 30
0.0
  0
POINT
  5
15430
330
134A6
100
AcDbEntity
  8
DEFPOINTS
 62
     0
 48
50.0
100
AcDbPoint
 10
6783.312019724423
 20
1710.562576328018
 30
0.0
  0
POINT
  5
15431
330
134A6
100
AcDbEntity
  8
DEFPOINTS
 62
     0
 48
50.0
100
AcDbPoint
 10
6783.312019724423
 20
1544.131163628997
 30
0.0
  0
ENDBLK
  5
14639
330
134A6
100
AcDbEntity
  8
0
 48
50.0
100
AcDbBlockEnd
  0
BLOCK
  5
13E37
330
134B1
100
AcDbEntity
  8
0
 48
50.0
100
AcDbBlockBegin
  2
*D9
 70
     1
 10
0.0
 20
0.0
 30
0.0
  3
*D9
  1

  0
LINE
  5
15034
330
134B1
100
AcDbEntity
  8
寸法
 62
     0
 48
50.0
370
    -2
100
AcDbLine
 10
6783.312019724423
 20
3985.897875741633
 30
0.0
 11
6783.312019724423
 21
4646.702425425576
 31
0.0
  0
LINE
  5
15035
330
134B1
100
AcDbEntity
  8
寸法
 62
     0
 48
50.0
370
    -2
100
AcDbLine
 10
7033.312019724423
 20
4081.450581124181
 30
0.0
 11
7033.312019724423
 21
4646.702425425576
 31
0.0
  0
LINE
  5
15036
330
134B1
100
AcDbEntity
  8
寸法
 62
     0
 48
50.0
370
    -2
100
AcDbLine
 10
6783.312019724423
 20
4601.702425425576
 30
0.0
 11
7033.312019724423
 21
4601.702425425576
 31
0.0
  0
LINE
  5
15037
330
134B1
100
AcDbEntity
  8
寸法
 62
     0
 48
50.0
370
    -2
100
AcDbLine
 10
7033.312019724423
 20
4601.702425425576
 30
0.0
 11
7437.216117210763
 21
4601.702425425576
 31
0.0
  0
INSERT
  5
15038
330
134B1
100
AcDbEntity
  8
寸法
 62
     0
 48
50.0
370
    -2
100
AcDbBlockReference
  2
_DOTSMALL
 10
6783.312019724423
 20
4601.702425425576
 30
0.0
 41
75.0
 42
75.0
 43
75.0
 50
180.0
  0
INSERT
  5
15039
330
134B1
100
AcDbEntity
  8
寸法
 62
     0
 48
50.0
370
    -2
100
AcDbBlockReference
  2
_DOTSMALL
 10
7033.312019724423
 20
4601.702425425576
 30
0.0
 41
75.0
 42
75.0
 43
75.0
  0
MTEXT
  5
1503A
330
134B1
100
AcDbEntity
  8
寸法
 62
     7
 48
50.0
100
AcDbMText
 10
7325.037967604463
 20
4676.711283693292
 30
0.0
 40
90.0
 41
0.0
 71
     5
 72
     1
  1
\A1;250
  7
STYLE1
 73
     1
 44
1.0
1001
ACAD
1000
MTEXTBEGIN
1070
    73
1070
     1
1070
    44
1040
1.0
1070
    74
1070
     0
1000
MTEXTEND
  0
POINT
  5
1503B
330
134B1
100
AcDbEntity
  8
DEFPOINTS
 62
     0
 48
50.0
100
AcDbPoint
 10
6783.312019724423
 20
3970.897875741633
 30
0.0
  0
POINT
  5
1503C
330
134B1
100
AcDbEntity
  8
DEFPOINTS
 62
     0
 48
50.0
100
AcDbPoint
 10
7033.312019724423
 20
4066.450581124181
 30
0.0
  0
POINT
  5
1503D
330
134B1
100
AcDbEntity
  8
DEFPOINTS
 62
     0
 48
50.0
100
AcDbPoint
 10
7033.312019724423
 20
4601.702425425576
 30
0.0
  0
ENDBLK
  5
13E42
330
134B1
100
AcDbEntity
  8
0
 48
50.0
100
AcDbBlockEnd
  0
BLOCK
  5
13DFF
330
13DBA
100
AcDbEntity
  8
0
 48
50.0
100
AcDbBlockBegin
  2
*D10
 70
     1
 10
0.0
 20
0.0
 30
0.0
  3
*D10
  1

  0
LINE
  5
1503E
330
13DBA
100
AcDbEntity
  8
寸法
 62
     0
 48
50.0
370
    -2
100
AcDbLine
 10
7033.312019724418
 20
7921.447238448386
 30
0.0
 11
7701.801554249302
 21
7921.447238448386
 31
0.0
  0
LINE
  5
1503F
330
13DBA
100
AcDbEntity
  8
寸法
 62
     0
 48
50.0
370
    -2
100
AcDbLine
 10
7033.312019724418
 20
5921.447238448383
 30
0.0
 11
7701.8015542493
 21
5921.447238448383
 31
0.0
  0
LINE
  5
15040
330
13DBA
100
AcDbEntity
  8
寸法
 62
     0
 48
50.0
370
    -2
100
AcDbLine
 10
7656.801554249302
 20
7921.447238448386
 30
0.0
 11
7656.8015542493
 21
5921.447238448383
 31
0.0
  0
INSERT
  5
15041
330
13DBA
100
AcDbEntity
  8
寸法
 62
     0
 48
50.0
370
    -2
100
AcDbBlockReference
  2
_DOTSMALL
 10
7656.801554249302
 20
7921.447238448386
 30
0.0
 41
75.0
 42
75.0
 43
75.0
 50
90.0
  0
INSERT
  5
15042
330
13DBA
100
AcDbEntity
  8
寸法
 62
     0
 48
50.0
370
    -2
100
AcDbBlockReference
  2
_DOTSMALL
 10
7656.8015542493
 20
5921.447238448383
 30
0.0
 41
75.0
 42
75.0
 43
75.0
 50
270.0
  0
MTEXT
  5
15043
330
13DBA
100
AcDbEntity
  8
寸法
 62
     7
 48
50.0
100
AcDbMText
 10
7581.792695981583
 20
6921.447238448384
 30
0.0
 40
90.0
 41
0.0
 71
     5
 72
     1
  1
\A1;2000
  7
STYLE1
 11
0.0000000000000001
 21
1.0
 31
0.0
 73
     1
 44
1.0
1001
ACAD
1000
MTEXTBEGIN
1070
    73
1070
     1
1070
    44
1040
1.0
1070
    74
1070
     0
1000
MTEXTEND
  0
POINT
  5
15044
330
13DBA
100
AcDbEntity
  8
DEFPOINTS
 62
     0
 48
50.0
100
AcDbPoint
 10
7018.312019724419
 20
7921.447238448386
 30
0.0
  0
POINT
  5
15045
330
13DBA
100
AcDbEntity
  8
DEFPOINTS
 62
     0
 48
50.0
100
AcDbPoint
 10
7018.312019724419
 20
5921.447238448383
 30
0.0
  0
POINT
  5
15046
330
13DBA
100
AcDbEntity
  8
DEFPOINTS
 62
     0
 48
50.0
100
AcDbPoint
 10
7656.8015542493
 20
5921.447238448383
 30
0.0
  0
ENDBLK
  5
13E09
330
13DBA
100
AcDbEntity
  8
0
 48
50.0
100
AcDbBlockEnd
  0
BLOCK
  5
1469A
330
14683
100
AcDbEntity
  8
0
 48
50.0
100
AcDbBlockBegin
  2
*D11
 70
     1
 10
0.0
 20
0.0
 30
0.0
  3
*D11
  1

  0
LINE
  5
15047
330
14683
100
AcDbEntity
  8
寸法
 62
     0
 48
50.0
370
    -2
100
AcDbLine
 10
873.3120197244193
 20
7921.447238448381
 30
0.0
 11
873.3120197244193
 21
8301.091035740652
 31
0.0
  0
LINE
  5
15048
330
14683
100
AcDbEntity
  8
寸法
 62
     0
 48
50.0
370
    -2
100
AcDbLine
 10
7033.312019724418
 20
7920.978717162715
 30
0.0
 11
7033.312019724418
 21
8301.091035740652
 31
0.0
  0
LINE
  5
15049
330
14683
100
AcDbEntity
  8
寸法
 62
     0
 48
50.0
370
    -2
100
AcDbLine
 10
873.3120197244193
 20
8256.091035740652
 30
0.0
 11
7033.312019724418
 21
8256.091035740652
 31
0.0
  0
INSERT
  5
1504A
330
14683
100
AcDbEntity
  8
寸法
 62
     0
 48
50.0
370
    -2
100
AcDbBlockReference
  2
_DOTSMALL
 10
873.3120197244193
 20
8256.091035740652
 30
0.0
 41
75.0
 42
75.0
 43
75.0
 50
180.0
  0
INSERT
  5
1504B
330
14683
100
AcDbEntity
  8
寸法
 62
     0
 48
50.0
370
    -2
100
AcDbBlockReference
  2
_DOTSMALL
 10
7033.312019724418
 20
8256.091035740652
 30
0.0
 41
75.0
 42
75.0
 43
75.0
  0
MTEXT
  5
1504C
330
14683
100
AcDbEntity
  8
寸法
 62
     7
 48
50.0
100
AcDbMText
 10
3953.312019724419
 20
8331.091035740653
 30
0.0
 40
90.0
 41
0.0
 71
     5
 72
     1
  1
\A1;6160
  7
STYLE1
 73
     1
 44
1.0
1001
ACAD
1000
MTEXTBEGIN
1070
    73
1070
     1
1070
    44
1040
1.0
1070
    74
1070
     0
1000
MTEXTEND
  0
POINT
  5
1504D
330
14683
100
AcDbEntity
  8
DEFPOINTS
 62
     0
 48
50.0
100
AcDbPoint
 10
873.3120197244193
 20
7906.447238448382
 30
0.0
  0
POINT
  5
1504E
330
14683
100
AcDbEntity
  8
DEFPOINTS
 62
     0
 48
50.0
100
AcDbPoint
 10
7033.312019724418
 20
7905.978717162716
 30
0.0
  0
POINT
  5
1504F
330
14683
100
AcDbEntity
  8
DEFPOINTS
 62
     0
 48
50.0
100
AcDbPoint
 10
7033.312019724418
 20
8256.091035740652
 30
0.0
  0
ENDBLK
  5
146A4
330
14683
100
AcDbEntity
  8
0
 48
50.0
100
AcDbBlockEnd
  0
BLOCK
  5
1532B
330
1532A
100
AcDbEntity
  8
0
 48
50.0
100
AcDbBlockBegin
  2
*D12
 70
     1
 10
0.0
 20
0.0
 30
0.0
  3
*D12
  1

  0
LINE
  5
15376
330
1532A
100
AcDbEntity
  8
寸法
 62
     0
 48
50.0
370
    -2
100
AcDbLine
 10
8876.601040363603
 20
4082.038116080243
 30
0.0
 11
8537.584620104585
 21
4095.598772890604
 31
0.0
  0
LINE
  5
15377
330
1532A
100
AcDbEntity
  8
寸法
 62
     0
 48
50.0
370
    -2
100
AcDbLine
 10
8896.832866168109
 20
3977.646076141592
 30
0.0
 11
8533.447928135476
 21
3992.181473662898
 31
0.0
  0
LINE
  5
15378
330
1532A
100
AcDbEntity
  8
寸法
 62
     0
 48
50.0
370
    -2
100
AcDbLine
 10
8582.548663247065
 20
4093.800211164905
 30
0.0
 11
8578.411971277956
 21
3990.382911937198
 31
0.0
  0
MTEXT
  5
15379
330
1532A
100
AcDbEntity
  8
寸法
 62
     7
 48
50.0
100
AcDbMText
 10
8505.54024535838
 20
4055.937868106007
 30
0.0
 40
90.0
 41
0.0
 71
     5
 72
     1
  1
\A1;103.5
  7
STYLE1
 11
0.0399680383488711
 21
0.9992009587217895
 31
0.0
 73
     1
 44
1.0
1001
ACAD
1000
MTEXTBEGIN
1070
    73
1070
     1
1070
    44
1040
1.0
1070
    74
1070
     0
1000
MTEXTEND
  0
INSERT
  5
1537A
330
1532A
100
AcDbEntity
  8
寸法
 62
     0
 48
50.0
370
    -2
100
AcDbBlockReference
  2
_DOTSMALL
 10
8582.548663247065
 20
4093.800211164905
 30
0.0
 41
75.0
 42
75.0
 43
75.0
 50
87.70938995736154
  0
INSERT
  5
1537B
330
1532A
100
AcDbEntity
  8
寸法
 62
     0
 48
50.0
370
    -2
100
AcDbBlockReference
  2
_DOTSMALL
 10
8578.411971277956
 20
3990.382911937198
 30
0.0
 41
75.0
 42
75.0
 43
75.0
 50
267.7093899573615
  0
POINT
  5
1537C
330
1532A
100
AcDbEntity
  8
DEFPOINTS
 62
     0
 48
50.0
100
AcDbPoint
 10
8891.589054744432
 20
4081.438595505009
 30
0.0
  0
POINT
  5
1537D
330
1532A
100
AcDbEntity
  8
DEFPOINTS
 62
     0
 48
50.0
100
AcDbPoint
 10
8911.820880548937
 20
3977.046555566357
 30
0.0
  0
POINT
  5
1537E
330
1532A
100
AcDbEntity
  8
DEFPOINTS
 62
     0
 48
50.0
100
AcDbPoint
 10
8578.41197127796
 20
3990.382911937196
 30
0.0
  0
ENDBLK
  5
1532C
330
1532A
100
AcDbEntity
  8
0
 48
50.0
100
AcDbBlockEnd
  0
BLOCK
  5
15337
330
15336
100
AcDbEntity
  8
0
 48
50.0
100
AcDbBlockBegin
  2
*D13
 70
     1
 10
0.0
 20
0.0
 30
0.0
  3
*D13
  1

  0
LINE
  5
1537F
330
15336
100
AcDbEntity
  8
寸法
 62
     0
 48
50.0
370
    -2
100
AcDbLine
 10
8875.989534169184
 20
4081.450581124182
 30
0.0
 11
8875.989534169184
 21
4951.270106075109
 31
0.0
  0
LINE
  5
15380
330
15336
100
AcDbEntity
  8
寸法
 62
     0
 48
50.0
370
    -2
100
AcDbLine
 10
10875.98953416918
 20
4002.650581124181
 30
0.0
 11
10875.98953416918
 21
4951.270106075109
 31
0.0
  0
LINE
  5
15381
330
15336
100
AcDbEntity
  8
寸法
 62
     0
 48
50.0
370
    -2
100
AcDbLine
 10
8875.989534169184
 20
4906.270106075108
 30
0.0
 11
10875.98953416918
 21
4906.270106075108
 31
0.0
  0
INSERT
  5
15382
330
15336
100
AcDbEntity
  8
寸法
 62
     0
 48
50.0
370
    -2
100
AcDbBlockReference
  2
_DOTSMALL
 10
8875.989534169184
 20
4906.270106075108
 30
0.0
 41
75.0
 42
75.0
 43
75.0
 50
180.0
  0
INSERT
  5
15383
330
15336
100
AcDbEntity
  8
寸法
 62
     0
 48
50.0
370
    -2
100
AcDbBlockReference
  2
_DOTSMALL
 10
10875.98953416918
 20
4906.270106075108
 30
0.0
 41
75.0
 42
75.0
 43
75.0
  0
MTEXT
  5
15384
330
15336
100
AcDbEntity
  8
寸法
 62
     7
 48
50.0
100
AcDbMText
 10
9875.989534169185
 20
4981.278964342825
 30
0.0
 40
90.0
 41
0.0
 71
     5
 72
     1
  1
\A1;2000
  7
STYLE1
 73
     1
 44
1.0
1001
ACAD
1000
MTEXTBEGIN
1070
    73
1070
     1
1070
    44
1040
1.0
1070
    74
1070
     0
1000
MTEXTEND
  0
POINT
  5
15385
330
15336
100
AcDbEntity
  8
DEFPOINTS
 62
     0
 48
50.0
100
AcDbPoint
 10
8875.989534169184
 20
4066.450581124182
 30
0.0
  0
POINT
  5
15386
330
15336
100
AcDbEntity
  8
DEFPOINTS
 62
     0
 48
50.0
100
AcDbPoint
 10
10875.98953416918
 20
3987.650581124182
 30
0.0
  0
POINT
  5
15387
330
15336
100
AcDbEntity
  8
DEFPOINTS
 62
     0
 48
50.0
100
AcDbPoint
 10
10875.98953416918
 20
4906.270106075108
 30
0.0
  0
ENDBLK
  5
15338
330
15336
100
AcDbEntity
  8
0
 48
50.0
100
AcDbBlockEnd
  0
BLOCK
  5
15343
330
15342
100
AcDbEntity
  8
0
 48
50.0
100
AcDbBlockBegin
  2
*D14
 70
     1
 10
0.0
 20
0.0
 30
0.0
  3
*D14
  1

  0
LINE
  5
15388
330
15342
100
AcDbEntity
  8
寸法
 62
     0
 48
50.0
370
    -2
100
AcDbLine
 10
8860.989534169185
 20
4082.062576328018
 30
0.0
 11
8223.11442570883
 21
4082.062576328018
 31
0.0
  0
LINE
  5
15389
330
15342
100
AcDbEntity
  8
寸法
 62
     0
 48
50.0
370
    -2
100
AcDbLine
 10
8860.989534169185
 20
1880.562576328018
 30
0.0
 11
8223.11442570883
 21
1880.562576328018
 31
0.0
  0
LINE
  5
1538A
330
15342
100
AcDbEntity
  8
寸法
 62
     0
 48
50.0
370
    -2
100
AcDbLine
 10
8268.11442570883
 20
4082.062576328018
 30
0.0
 11
8268.11442570883
 21
1880.562576328018
 31
0.0
  0
INSERT
  5
1538B
330
15342
100
AcDbEntity
  8
寸法
 62
     0
 48
50.0
370
    -2
100
AcDbBlockReference
  2
_DOTSMALL
 10
8268.11442570883
 20
4082.062576328018
 30
0.0
 41
75.0
 42
75.0
 43
75.0
 50
90.0
  0
INSERT
  5
1538C
330
15342
100
AcDbEntity
  8
寸法
 62
     0
 48
50.0
370
    -2
100
AcDbBlockReference
  2
_DOTSMALL
 10
8268.11442570883
 20
1880.562576328018
 30
0.0
 41
75.0
 42
75.0
 43
75.0
 50
270.0
  0
MTEXT
  5
1538D
330
15342
100
AcDbEntity
  8
寸法
 62
     7
 48
50.0
100
AcDbMText
 10
8193.105567441113
 20
2981.312576328019
 30
0.0
 40
90.0
 41
0.0
 71
     5
 72
     1
  1
\A1;2201.5
  7
STYLE1
 11
0.0000000000000001
 21
1.0
 31
0.0
 73
     1
 44
1.0
1001
ACAD
1000
MTEXTBEGIN
1070
    73
1070
     1
1070
    44
1040
1.0
1070
    74
1070
     0
1000
MTEXTEND
  0
POINT
  5
1538E
330
15342
100
AcDbEntity
  8
DEFPOINTS
 62
     0
 48
50.0
100
AcDbPoint
 10
8875.989534169184
 20
4082.062576328018
 30
0.0
  0
POINT
  5
1538F
330
15342
100
AcDbEntity
  8
DEFPOINTS
 62
     0
 48
50.0
100
AcDbPoint
 10
8875.989534169184
 20
1880.562576328018
 30
0.0
  0
POINT
  5
15390
330
15342
100
AcDbEntity
  8
DEFPOINTS
 62
     0
 48
50.0
100
AcDbPoint
 10
8268.11442570883
 20
1880.562576328018
 30
0.0
  0
ENDBLK
  5
15344
330
15342
100
AcDbEntity
  8
0
 48
50.0
100
AcDbBlockEnd
  0
BLOCK
  5
1534F
330
1534E
100
AcDbEntity
  8
0
 48
50.0
100
AcDbBlockBegin
  2
*D15
 70
     1
 10
0.0
 20
0.0
 30
0.0
  3
*D15
  1

  0
LINE
  5
15391
330
1534E
100
AcDbEntity
  8
寸法
 62
     0
 48
50.0
370
    -2
100
AcDbLine
 10
11175.53027729864
 20
1880.562576328018
 30
0.0
 11
11296.62698664378
 21
1880.562576328018
 31
0.0
  0
LINE
  5
15392
330
1534E
100
AcDbEntity
  8
寸法
 62
     0
 48
50.0
370
    -2
100
AcDbLine
 10
10890.98953416918
 20
4002.650581124181
 30
0.0
 11
11296.62698664378
 21
4002.650581124181
 31
0.0
  0
LINE
  5
15393
330
1534E
100
AcDbEntity
  8
寸法
 62
     0
 48
50.0
370
    -2
100
AcDbLine
 10
11251.62698664378
 20
1880.562576328018
 30
0.0
 11
11251.62698664378
 21
4002.650581124181
 31
0.0
  0
INSERT
  5
15394
330
1534E
100
AcDbEntity
  8
寸法
 62
     0
 48
50.0
370
    -2
100
AcDbBlockReference
  2
_DOTSMALL
 10
11251.62698664378
 20
1880.562576328018
 30
0.0
 41
75.0
 42
75.0
 43
75.0
 50
270.0
  0
INSERT
  5
15395
330
1534E
100
AcDbEntity
  8
寸法
 62
     0
 48
50.0
370
    -2
100
AcDbBlockReference
  2
_DOTSMALL
 10
11251.62698664378
 20
4002.650581124181
 30
0.0
 41
75.0
 42
75.0
 43
75.0
 50
90.0
  0
MTEXT
  5
15396
330
1534E
100
AcDbEntity
  8
寸法
 62
     7
 48
50.0
100
AcDbMText
 10
11176.61812837606
 20
2991.672581441363
 30
0.0
 40
90.0
 41
0.0
 71
     5
 72
     1
  1
\A1;2121.5
  7
STYLE1
 11
0.0000000000000001
 21
1.0
 31
0.0
 73
     1
 44
1.0
1001
ACAD
1000
MTEXTBEGIN
1070
    73
1070
     1
1070
    44
1040
1.0
1070
    74
1070
     0
1000
MTEXTEND
  0
POINT
  5
15397
330
1534E
100
AcDbEntity
  8
DEFPOINTS
 62
     0
 48
50.0
100
AcDbPoint
 10
11160.53027729865
 20
1880.562576328018
 30
0.0
  0
POINT
  5
15398
330
1534E
100
AcDbEntity
  8
DEFPOINTS
 62
     0
 48
50.0
100
AcDbPoint
 10
10875.98953416918
 20
4002.650581124181
 30
0.0
  0
POINT
  5
15399
330
1534E
100
AcDbEntity
  8
DEFPOINTS
 62
     0
 48
50.0
100
AcDbPoint
 10
11251.62698664378
 20
4002.650581124181
 30
0.0
  0
ENDBLK
  5
15350
330
1534E
100
AcDbEntity
  8
0
 48
50.0
100
AcDbBlockEnd
  0
BLOCK
  5
1535B
330
1535A
100
AcDbEntity
  8
0
 48
50.0
100
AcDbBlockBegin
  2
*D16
 70
     1
 10
0.0
 20
0.0
 30
0.0
  3
*D16
  1

  0
LINE
  5
1539A
330
1535A
100
AcDbEntity
  8
寸法
 62
     0
 48
50.0
370
    -2
100
AcDbLine
 10
8860.989534169185
 20
1830.562576328018
 30
0.0
 11
8223.11442570883
 21
1830.562576328018
 31
0.0
  0
LINE
  5
1539B
330
1535A
100
AcDbEntity
  8
寸法
 62
     0
 48
50.0
370
    -2
100
AcDbLine
 10
9815.989534169185
 20
1880.562576328018
 30
0.0
 11
8223.11442570883
 21
1880.562576328018
 31
0.0
  0
LINE
  5
1539C
330
1535A
100
AcDbEntity
  8
寸法
 62
     0
 48
50.0
370
    -2
100
AcDbLine
 10
8268.11442570883
 20
1880.562576328018
 30
0.0
 11
8268.11442570883
 21
1955.562576328018
 31
0.0
  0
LINE
  5
1539D
330
1535A
100
AcDbEntity
  8
寸法
 62
     0
 48
50.0
370
    -2
100
AcDbLine
 10
8268.11442570883
 20
1830.562576328018
 30
0.0
 11
8268.11442570883
 21
1521.491710186284
 31
0.0
  0
LINE
  5
1539E
330
1535A
100
AcDbEntity
  8
寸法
 62
     0
 48
50.0
370
    -2
100
AcDbLine
 10
8268.11442570883
 20
1880.562576328018
 30
0.0
 11
8268.11442570883
 21
1830.562576328018
 31
0.0
  0
INSERT
  5
1539F
330
1535A
100
AcDbEntity
  8
寸法
 62
     0
 48
50.0
370
    -2
100
AcDbBlockReference
  2
_DOTSMALL
 10
8268.11442570883
 20
1880.562576328018
 30
0.0
 41
75.0
 42
75.0
 43
75.0
 50
270.0
  0
INSERT
  5
153A0
330
1535A
100
AcDbEntity
  8
寸法
 62
     0
 48
50.0
370
    -2
100
AcDbBlockReference
  2
_DOTSMALL
 10
8268.11442570883
 20
1830.562576328018
 30
0.0
 41
75.0
 42
75.0
 43
75.0
 50
90.0
  0
MTEXT
  5
153A1
330
1535A
100
AcDbEntity
  8
寸法
 62
     7
 48
50.0
100
AcDbMText
 10
8193.114425708831
 20
1601.027143257152
 30
0.0
 40
90.0
 41
0.0
 71
     5
 72
     1
  1
\A1;50
  7
STYLE1
 11
0.0000000000000001
 21
1.0
 31
0.0
 73
     1
 44
1.0
1001
ACAD
1000
MTEXTBEGIN
1070
    73
1070
     1
1070
    44
1040
1.0
1070
    74
1070
     0
1000
MTEXTEND
  0
POINT
  5
153A2
330
1535A
100
AcDbEntity
  8
DEFPOINTS
 62
     0
 48
50.0
100
AcDbPoint
 10
8875.989534169184
 20
1830.562576328018
 30
0.0
  0
POINT
  5
153A3
330
1535A
100
AcDbEntity
  8
DEFPOINTS
 62
     0
 48
50.0
100
AcDbPoint
 10
9830.989534169184
 20
1880.562576328018
 30
0.0
  0
POINT
  5
153A4
330
1535A
100
AcDbEntity
  8
DEFPOINTS
 62
     0
 48
50.0
100
AcDbPoint
 10
8268.11442570883
 20
1880.562576328018
 30
0.0
  0
ENDBLK
  5
1535C
330
1535A
100
AcDbEntity
  8
0
 48
50.0
100
AcDbBlockEnd
  0
BLOCK
  5
15369
330
15368
100
AcDbEntity
  8
0
 48
50.0
100
AcDbBlockBegin
  2
*D17
 70
     1
 10
0.0
 20
0.0
 30
0.0
  3
*D17
  1

  0
LINE
  5
153A5
330
15368
100
AcDbEntity
  8
寸法
 62
     0
 48
50.0
370
    -2
100
AcDbLine
 10
9935.989534169186
 20
1880.562576328018
 30
0.0
 11
11296.62698664378
 21
1880.562576328018
 31
0.0
  0
LINE
  5
153A6
330
15368
100
AcDbEntity
  8
寸法
 62
     0
 48
50.0
370
    -2
100
AcDbLine
 10
10890.98953416918
 20
1830.562576328018
 30
0.0
 11
11296.62698664378
 21
1830.562576328018
 31
0.0
  0
LINE
  5
153A7
330
15368
100
AcDbEntity
  8
寸法
 62
     0
 48
50.0
370
    -2
100
AcDbLine
 10
11251.62698664378
 20
1880.562576328018
 30
0.0
 11
11251.62698664378
 21
1955.562576328018
 31
0.0
  0
LINE
  5
153A8
330
15368
100
AcDbEntity
  8
寸法
 62
     0
 48
50.0
370
    -2
100
AcDbLine
 10
11251.62698664378
 20
1830.562576328018
 30
0.0
 11
11251.62698664378
 21
1521.491710186284
 31
0.0
  0
LINE
  5
153A9
330
15368
100
AcDbEntity
  8
寸法
 62
     0
 48
50.0
370
    -2
100
AcDbLine
 10
11251.62698664378
 20
1880.562576328018
 30
0.0
 11
11251.62698664378
 21
1830.562576328018
 31
0.0
  0
INSERT
  5
153AA
330
15368
100
AcDbEntity
  8
寸法
 62
     0
 48
50.0
370
    -2
100
AcDbBlockReference
  2
_DOTSMALL
 10
11251.62698664378
 20
1880.562576328018
 30
0.0
 41
75.0
 42
75.0
 43
75.0
 50
270.0
  0
INSERT
  5
153AB
330
15368
100
AcDbEntity
  8
寸法
 62
     0
 48
50.0
370
    -2
100
AcDbBlockReference
  2
_DOTSMALL
 10
11251.62698664378
 20
1830.562576328018
 30
0.0
 41
75.0
 42
75.0
 43
75.0
 50
90.0
  0
MTEXT
  5
153AC
330
15368
100
AcDbEntity
  8
寸法
 62
     7
 48
50.0
100
AcDbMText
 10
11176.62698664378
 20
1601.027143257152
 30
0.0
 40
90.0
 41
0.0
 71
     5
 72
     1
  1
\A1;50
  7
STYLE1
 11
0.0000000000000001
 21
1.0
 31
0.0
 73
     1
 44
1.0
1001
ACAD
1000
MTEXTBEGIN
1070
    73
1070
     1
1070
    44
1040
1.0
1070
    74
1070
     0
1000
MTEXTEND
  0
POINT
  5
153AD
330
15368
100
AcDbEntity
  8
DEFPOINTS
 62
     0
 48
50.0
100
AcDbPoint
 10
9920.989534169185
 20
1880.562576328018
 30
0.0
  0
POINT
  5
153AE
330
15368
100
AcDbEntity
  8
DEFPOINTS
 62
     0
 48
50.0
100
AcDbPoint
 10
10875.98953416918
 20
1830.562576328018
 30
0.0
  0
POINT
  5
153AF
330
15368
100
AcDbEntity
  8
DEFPOINTS
 62
     0
 48
50.0
100
AcDbPoint
 10
11251.62698664378
 20
1830.562576328018
 30
0.0
  0
ENDBLK
  5
1536A
330
15368
100
AcDbEntity
  8
0
 48
50.0
100
AcDbBlockEnd
  0
ENDSEC
  0
SECTION
  2
ENTITIES
  0
MTEXT
  5
763F
330
747D
100
AcDbEntity
  8
0
100
AcDbMText
 10
302.846345836809
 20
280.1983726409901
 30
0.0
 40
3.5
 41
5.323721266742722
 71
     1
 72
     5
  1

  7
MSMINCHO
 73
     1
 44
1.0
1001
ACAD
1000
MTEXTBEGIN
1070
    73
1070
     1
1070
    44
1040
1.0
1070
    74
1070
     0
1000
MTEXTEND
  0
INSERT
  5
F235
330
747D
100
AcDbEntity
  8
0
100
AcDbBlockReference
  2
作図枠S50
 10
0.0
 20
0.0
 30
0.0
 41
0.6000000000000001
 42
0.6000000000000001
 43
0.6000000000000001
  0
LINE
  5
10B56
330
747D
100
AcDbEntity
  8
補助
  6
PHANTOM
 62
   230
 48
50.0
100
AcDbLine
 10
105.0
 20
0.0
 30
0.0
 11
104.9999999999996
 21
8557.199999999999
 31
0.0
  0
LINE
  5
10B57
330
747D
100
AcDbEntity
  8
補助
  6
PHANTOM
 62
   230
 48
50.0
100
AcDbLine
 10
104.9999999999996
 20
8557.199999999999
 30
0.0
 11
12230.4
 21
8557.199999999999
 31
0.0
  0
LINE
  5
10B5E
330
747D
100
AcDbEntity
  8
補助
  6
PHANTOM
 62
   230
 48
50.0
100
AcDbLine
 10
12230.4
 20
8557.199999999999
 30
0.0
 11
12230.4
 21
900.0
 31
0.0
  0
LINE
  5
10B6D
330
747D
100
AcDbEntity
  8
補助
  6
PHANTOM
 62
   230
 48
50.0
100
AcDbLine
 10
9830.400000000002
 20
8557.199999999999
 30
0.0
 11
9830.400000000002
 21
3600.0
 31
0.0
  0
DIMENSION
  5
12F4F
330
747D
100
AcDbEntity
  8
寸法
 48
50.0
100
AcDbDimension
  2
*D4
 10
7033.312019724423
 20
4910.957606075109
 30
0.0
 11
3953.312019724421
 21
4985.957606075109
 31
0.0
 70
    32
 71
     5
 42
6160.000000000003
  3
INABA_S30G
100
AcDbAlignedDimension
 13
873.3120197244188
 23
4066.450581124185
 33
0.0
 14
7033.312019724423
 24
4066.450581124181
 34
0.0
100
AcDbRotatedDimension
  0
DIMENSION
  5
12F50
330
747D
100
AcDbEntity
  8
寸法
 48
50.0
100
AcDbDimension
  2
*D5
 10
6783.312019724423
 20
4601.702425425576
 30
0.0
 11
3953.312019724421
 21
4676.702425425577
 31
0.0
 70
    32
 71
     5
 42
5660.000000000003
  3
INABA_S30G
100
AcDbAlignedDimension
 13
1123.312019724419
 23
3970.897875741638
 33
0.0
 14
6783.312019724423
 24
3970.897875741633
 34
0.0
100
AcDbRotatedDimension
  0
LINE
  5
12F56
330
747D
100
AcDbEntity
  8
部品1
 48
50.0
100
AcDbLine
 10
7023.312019724421
 20
1880.562576328018
 30
0.0
 11
883.3120197244189
 21
1880.562576328023
 31
0.0
  0
LINE
  5
12F57
330
747D
100
AcDbEntity
  8
Ｇ．Ｌ
 48
50.0
100
AcDbLine
 10
354.5272126587442
 20
1830.562576328022
 30
0.0
 11
12088.1873072228
 21
1830.562576328023
 31
0.0
  0
LINE
  5
12F58
330
747D
100
AcDbEntity
  8
細線
 48
50.0
100
AcDbLine
 10
6983.093403623019
 20
4002.407532190143
 30
0.0
 11
923.5306358258222
 21
4002.407532190148
 31
0.0
  0
LINE
  5
12F59
330
747D
100
AcDbEntity
  8
細線
 48
50.0
100
AcDbLine
 10
6979.731797063005
 20
4014.027143629729
 30
0.0
 11
926.8922423858402
 21
4014.027143629736
 31
0.0
  0
LINE
  5
12F5A
330
747D
100
AcDbEntity
  8
細線
 48
50.0
100
AcDbLine
 10
6984.938291423897
 20
4038.276767503647
 30
0.0
 11
921.685748024951
 21
4038.276767503653
 31
0.0
  0
LINE
  5
12F5B
330
747D
100
AcDbEntity
  8
細線
 48
50.0
100
AcDbLine
 10
6990.935785832984
 20
4049.89637894323
 30
0.0
 11
915.6882536158573
 21
4049.896378943237
 31
0.0
  0
LINE
  5
12F5C
330
747D
100
AcDbEntity
  8
部品1
 48
50.0
100
AcDbLine
 10
6993.312019724422
 20
3977.046555566357
 30
0.0
 11
913.3120197244188
 21
3977.046555566363
 31
0.0
  0
LINE
  5
12F5D
330
747D
100
AcDbEntity
  8
部品1
 48
50.0
100
AcDbLine
 10
7018.312019724422
 20
4081.450581124182
 30
0.0
 11
888.3120197244188
 21
4081.450581124188
 31
0.0
  0
LINE
  5
12F6B
330
747D
100
AcDbEntity
  8
部品1
 48
50.0
100
AcDbLine
 10
6751.312019724422
 20
3909.969012140661
 30
0.0
 11
3985.312019724423
 21
3909.969012140661
 31
0.0
  0
LINE
  5
12F6C
330
747D
100
AcDbEntity
  8
部品1
 48
50.0
100
AcDbLine
 10
6751.623035765151
 20
3969.96901214066
 30
0.0
 11
3985.001003683699
 21
3969.96901214066
 31
0.0
  0
LINE
  5
12F6D
330
747D
100
AcDbEntity
  8
部品1
 48
50.0
100
AcDbLine
 10
6751.312019724422
 20
3939.307144620489
 30
0.0
 11
3985.312019724423
 21
3939.307144620489
 31
0.0
  0
LINE
  5
12F70
330
747D
100
AcDbEntity
  8
部品1
 48
50.0
100
AcDbLine
 10
936.3120197244189
 20
3977.046555566363
 30
0.0
 11
936.3120197244189
 21
3900.228017808711
 31
0.0
  0
LINE
  5
12F73
330
747D
100
AcDbEntity
  8
部品1
 48
50.0
100
AcDbLine
 10
873.8875573272725
 20
3985.516841724654
 30
0.0
 11
894.0794031948954
 21
3914.741082286203
 31
0.0
  0
LINE
  5
12F7C
330
747D
100
AcDbEntity
  8
部品1
 48
50.0
100
AcDbLine
 10
873.312019724419
 20
1870.562576328023
 30
0.0
 11
873.3120197244188
 21
1830.562576328023
 31
0.0
  0
LINE
  5
12F86
330
747D
100
AcDbEntity
  8
部品1
 48
50.0
100
AcDbLine
 10
1091.312019724419
 20
3909.969012140661
 30
0.0
 11
936.3120197244189
 21
3909.969012140661
 31
0.0
  0
LINE
  5
12F87
330
747D
100
AcDbEntity
  8
部品1
 48
50.0
100
AcDbLine
 10
1091.312019724419
 20
3900.228017808711
 30
0.0
 11
913.3120197244188
 21
3900.228017808711
 31
0.0
  0
ARC
  5
12F88
330
747D
100
AcDbEntity
  8
部品1
 48
50.0
100
AcDbCircle
 10
913.3120197244188
 20
3920.22801780871
 30
0.0
 40
20.0
100
AcDbArc
 50
195.9230900765475
 51
270.0
  0
DIMENSION
  5
12FB4
330
747D
100
AcDbEntity
  8
寸法
 48
50.0
100
AcDbDimension
  2
*D6
 10
1123.312019724419
 20
4601.702425425582
 30
0.0
 11
686.1338701181193
 21
4601.702425425582
 31
0.0
 70
   160
 71
     5
 42
250.0
  3
INABA_S30G
100
AcDbAlignedDimension
 13
873.3120197244188
 23
4066.450581124185
 33
0.0
 14
1123.312019724419
 24
3970.897875741638
 34
0.0
100
AcDbRotatedDimension
  0
LINE
  5
12FB5
330
747D
100
AcDbEntity
  8
部品1
 48
50.0
100
AcDbLine
 10
1091.312019724419
 20
3969.969012140658
 30
0.0
 11
936.3120197244189
 21
3969.969012140658
 31
0.0
  0
LINE
  5
12FB6
330
747D
100
AcDbEntity
  8
部品1
 48
50.0
100
AcDbLine
 10
1091.312019724419
 20
3939.307144620489
 30
0.0
 11
936.3120197244189
 21
3939.307144620489
 31
0.0
  0
LINE
  5
12FB7
330
747D
100
AcDbEntity
  8
部品1
 48
50.0
100
AcDbLine
 10
873.3120197244188
 20
4066.450581124185
 30
0.0
 11
873.3120197244188
 21
3989.632043366532
 31
0.0
  0
ARC
  5
12FB8
330
747D
100
AcDbEntity
  8
部品1
 48
50.0
100
AcDbCircle
 10
888.3120197244188
 20
3989.632043366532
 30
0.0
 40
15.0
100
AcDbArc
 50
180.0
 51
195.9230900765452
  0
ARC
  5
12FB9
330
747D
100
AcDbEntity
  8
細線
 48
50.0
100
AcDbCircle
 10
926.8922423858402
 20
4017.027143629735
 30
0.0
 40
3.0
100
AcDbArc
 50
195.9230900765463
 51
270.0
  0
ARC
  5
12FBA
330
747D
100
AcDbEntity
  8
細線
 48
50.0
100
AcDbCircle
 10
921.685748024951
 20
4035.276767503653
 30
0.0
 40
3.0
100
AcDbArc
 50
90.0
 51
195.9230900765468
  0
ARC
  5
12FBB
330
747D
100
AcDbEntity
  8
細線
 48
50.0
100
AcDbCircle
 10
923.5306358258222
 20
4012.407532190148
 30
0.0
 40
10.0
100
AcDbArc
 50
195.9230900765466
 51
270.0
  0
ARC
  5
12FBC
330
747D
100
AcDbEntity
  8
細線
 48
50.0
100
AcDbCircle
 10
915.6882536158573
 20
4039.896378943237
 30
0.0
 40
10.0
100
AcDbArc
 50
90.0
 51
195.9230900765468
  0
LINE
  5
12FBD
330
747D
100
AcDbEntity
  8
細線
 48
50.0
100
AcDbLine
 10
918.8008555455217
 20
4034.453727175279
 30
0.0
 11
924.0073499064109
 21
4016.20410330136
 31
0.0
  0
LINE
  5
12FBE
330
747D
100
AcDbEntity
  8
細線
 48
50.0
100
AcDbLine
 10
906.0719453510955
 20
4037.152911181984
 30
0.0
 11
913.9143275610605
 21
4009.664064428895
 31
0.0
  0
ARC
  5
12FBF
330
747D
100
AcDbEntity
  8
部品1
 48
50.0
100
AcDbCircle
 10
913.3120197244188
 20
3997.046555566362
 30
0.0
 40
20.0
100
AcDbArc
 50
195.9230900765475
 51
270.0
  0
LINE
  5
12FC0
330
747D
100
AcDbEntity
  8
部品1
 48
50.0
100
AcDbLine
 10
873.8875573272725
 20
4062.335379482306
 30
0.0
 11
894.0794031948954
 21
3991.559620043857
 31
0.0
  0
ARC
  5
12FC1
330
747D
100
AcDbEntity
  8
部品1
 48
50.0
100
AcDbCircle
 10
888.3120197244188
 20
4066.450581124185
 30
0.0
 40
15.0
100
AcDbArc
 50
90.0
 51
195.9230900765452
  0
LINE
  5
12FC2
330
747D
100
AcDbEntity
  8
部品1
 48
50.0
100
AcDbLine
 10
936.3120197244189
 20
4081.450581124188
 30
0.0
 11
936.3120197244189
 21
3977.046555566363
 31
0.0
  0
LWPOLYLINE
  5
12FC8
330
747D
100
AcDbEntity
  8
部品1
100
AcDbPolyline
 90
        4
 70
     1
 43
0.0
 10
3656.84681757316
 20
1334.534755452346
 10
4303.878192853686
 20
1334.534755452346
 10
4303.878192853686
 20
1142.014599635206
 10
3656.84681757316
 20
1142.014599635206
  0
TEXT
  5
12FC9
330
747D
100
AcDbEntity
  8
仕様書枠
 62
     7
 48
50.0
100
AcDbText
 10
3688.26189433469
 20
1180.670031102165
 30
0.0
 40
112.0
  1
正 面 図
  7
STYLE2
100
AcDbText
  0
DIMENSION
  5
131EF
330
747D
100
AcDbEntity
  8
寸法
 48
50.0
100
AcDbDimension
  2
*D7
 10
3953.312019724421
 20
1544.131163629002
 30
0.0
 11
2538.312019724421
 21
1544.131163629002
 31
0.0
 70
   160
 71
     5
 42
2830.000000000003
  3
INABA_S30G
100
AcDbAlignedDimension
 13
1123.312019724419
 23
1710.562576328023
 33
0.0
 14
3953.312019724421
 24
1710.562576328023
 34
0.0
100
AcDbRotatedDimension
  0
LINE
  5
13248
330
747D
100
AcDbEntity
  8
部品1
 48
50.0
100
AcDbLine
 10
6970.312019724423
 20
3977.046555566357
 30
0.0
 11
6970.312019724423
 21
3900.228017808705
 31
0.0
  0
LINE
  5
13249
330
747D
100
AcDbEntity
  8
部品1
 48
50.0
100
AcDbLine
 10
7032.73648212157
 20
3985.516841724649
 30
0.0
 11
7012.544636253949
 21
3914.741082286198
 31
0.0
  0
DIMENSION
  5
1324C
330
747D
100
AcDbEntity
  8
寸法
 48
50.0
100
AcDbDimension
  2
*D8
 10
6783.312019724423
 20
1544.131163628997
 30
0.0
 11
5368.312019724423
 21
1544.131163628997
 31
0.0
 70
   160
 71
     5
 42
2830.000000000001
  3
INABA_S30G
100
AcDbAlignedDimension
 13
3953.312019724421
 23
1710.562576328023
 33
0.0
 14
6783.312019724423
 24
1710.562576328018
 34
0.0
100
AcDbRotatedDimension
  0
LINE
  5
1324E
330
747D
100
AcDbEntity
  8
部品1
 48
50.0
100
AcDbLine
 10
6751.312019724422
 20
3900.228017808704
 30
0.0
 11
3985.312019724423
 21
3900.228017808709
 31
0.0
  0
LINE
  5
13284
330
747D
100
AcDbEntity
  8
細線
 48
50.0
100
AcDbLine
 10
5241.060823481149
 20
1830.56257632802
 30
0.0
 11
5291.060823481148
 21
1880.56257632802
 31
0.0
  0
LINE
  5
13285
330
747D
100
AcDbEntity
  8
細線
 48
50.0
100
AcDbLine
 10
5214.120043481151
 20
1830.56257632802
 30
0.0
 11
5264.120043481151
 21
1880.56257632802
 31
0.0
  0
LINE
  5
13286
330
747D
100
AcDbEntity
  8
細線
 48
50.0
100
AcDbLine
 10
5268.001603481149
 20
1830.56257632802
 30
0.0
 11
5318.001603481149
 21
1880.56257632802
 31
0.0
  0
LINE
  5
13297
330
747D
100
AcDbEntity
  8
部品1
 48
50.0
100
AcDbLine
 10
7033.312019724421
 20
1870.562576328017
 30
0.0
 11
7033.312019724423
 21
1830.562576328018
 31
0.0
  0
LINE
  5
13298
330
747D
100
AcDbEntity
  8
部品1
 48
50.0
100
AcDbLine
 10
6970.312019724423
 20
3909.969012140656
 30
0.0
 11
6815.312019724422
 21
3909.969012140654
 31
0.0
  0
LINE
  5
13299
330
747D
100
AcDbEntity
  8
部品1
 48
50.0
100
AcDbLine
 10
6993.312019724422
 20
3900.228017808705
 30
0.0
 11
6815.312019724422
 21
3900.228017808704
 31
0.0
  0
ARC
  5
132AD
330
747D
100
AcDbEntity
  8
部品1
 48
50.0
100
AcDbCircle
 10
6993.312019724422
 20
3920.228017808705
 30
0.0
 40
20.0
100
AcDbArc
 50
270.0
 51
344.0769099234521
  0
LINE
  5
132B1
330
747D
100
AcDbEntity
  8
細線
 48
50.0
100
AcDbLine
 10
3943.312019724423
 20
3977.046555566363
 30
0.0
 11
3943.312019724423
 21
4081.450581124188
 31
0.0
  0
DIMENSION
  5
132B6
330
747D
100
AcDbEntity
  8
寸法
 48
50.0
100
AcDbDimension
  2
*D9
 10
7033.312019724423
 20
4601.702425425576
 30
0.0
 11
7325.037967604463
 21
4601.702425425576
 31
0.0
 70
   160
 71
     5
 42
250.0
  3
INABA_S30G
100
AcDbAlignedDimension
 13
6783.312019724423
 23
3970.897875741633
 33
0.0
 14
7033.312019724423
 24
4066.450581124181
 34
0.0
100
AcDbRotatedDimension
  0
LINE
  5
132B7
330
747D
100
AcDbEntity
  8
部品1
 48
50.0
100
AcDbLine
 10
6970.312019724423
 20
3969.969012140652
 30
0.0
 11
6815.312019724422
 21
3969.969012140652
 31
0.0
  0
LINE
  5
132B8
330
747D
100
AcDbEntity
  8
部品1
 48
50.0
100
AcDbLine
 10
6970.312019724423
 20
3939.307144620484
 30
0.0
 11
6815.312019724422
 21
3939.307144620484
 31
0.0
  0
ARC
  5
132BE
330
747D
100
AcDbEntity
  8
部品1
 48
50.0
100
AcDbCircle
 10
7018.312019724422
 20
3989.632043366527
 30
0.0
 40
15.0
100
AcDbArc
 50
344.0769099234545
 51
0.0
  0
LINE
  5
132BF
330
747D
100
AcDbEntity
  8
部品1
 48
50.0
100
AcDbLine
 10
7033.312019724423
 20
4066.450581124181
 30
0.0
 11
7033.312019724423
 21
3989.632043366527
 31
0.0
  0
ARC
  5
132C0
330
747D
100
AcDbEntity
  8
細線
 48
50.0
100
AcDbCircle
 10
6979.731797063005
 20
4017.027143629729
 30
0.0
 40
3.0
100
AcDbArc
 50
270.0
 51
344.076909923452
  0
ARC
  5
132C1
330
747D
100
AcDbEntity
  8
細線
 48
50.0
100
AcDbCircle
 10
6984.938291423897
 20
4035.276767503647
 30
0.0
 40
3.0
100
AcDbArc
 50
344.0769099234533
 51
90.0
  0
ARC
  5
132C2
330
747D
100
AcDbEntity
  8
細線
 48
50.0
100
AcDbCircle
 10
6983.093403623019
 20
4012.407532190143
 30
0.0
 40
10.0
100
AcDbArc
 50
270.0
 51
344.076909923453
  0
ARC
  5
132C3
330
747D
100
AcDbEntity
  8
細線
 48
50.0
100
AcDbCircle
 10
6990.935785832984
 20
4039.89637894323
 30
0.0
 40
10.0
100
AcDbArc
 50
344.0769099234533
 51
90.0
  0
LINE
  5
132C4
330
747D
100
AcDbEntity
  8
細線
 48
50.0
100
AcDbLine
 10
7000.552094097749
 20
4037.152911181977
 30
0.0
 11
6992.709711887781
 21
4009.66406442889
 31
0.0
  0
LINE
  5
132C5
330
747D
100
AcDbEntity
  8
細線
 48
50.0
100
AcDbLine
 10
6987.823183903327
 20
4034.453727175273
 30
0.0
 11
6982.616689542433
 21
4016.204103301355
 31
0.0
  0
LINE
  5
132C6
330
747D
100
AcDbEntity
  8
部品1
 48
50.0
100
AcDbLine
 10
7032.73648212157
 20
4062.3353794823
 30
0.0
 11
7012.544636253949
 21
3991.559620043851
 31
0.0
  0
ARC
  5
132C7
330
747D
100
AcDbEntity
  8
部品1
 48
50.0
100
AcDbCircle
 10
6993.312019724422
 20
3997.046555566356
 30
0.0
 40
20.0
100
AcDbArc
 50
270.0
 51
344.0769099234521
  0
ARC
  5
132C8
330
747D
100
AcDbEntity
  8
部品1
 48
50.0
100
AcDbCircle
 10
7018.312019724422
 20
4066.450581124181
 30
0.0
 40
15.0
100
AcDbArc
 50
344.0769099234545
 51
90.0
  0
LINE
  5
132C9
330
747D
100
AcDbEntity
  8
部品1
 48
50.0
100
AcDbLine
 10
6970.312019724423
 20
4081.450581124182
 30
0.0
 11
6970.312019724423
 21
3977.046555566357
 31
0.0
  0
LINE
  5
13667
330
747D
100
AcDbEntity
  8
細線
 48
50.0
100
AcDbLine
 10
3920.963162047192
 20
1830.562576328023
 30
0.0
 11
3970.963162047192
 21
1880.562576328023
 31
0.0
  0
LINE
  5
13668
330
747D
100
AcDbEntity
  8
細線
 48
50.0
100
AcDbLine
 10
3947.903942047189
 20
1830.562576328023
 30
0.0
 11
3997.903942047189
 21
1880.562576328023
 31
0.0
  0
LINE
  5
13669
330
747D
100
AcDbEntity
  8
細線
 48
50.0
100
AcDbLine
 10
3974.84472204719
 20
1830.562576328023
 30
0.0
 11
4024.84472204719
 21
1880.562576328023
 31
0.0
  0
LINE
  5
13676
330
747D
100
AcDbEntity
  8
細線
 48
50.0
100
AcDbLine
 10
2627.806280613232
 20
1830.562576328023
 30
0.0
 11
2677.806280613232
 21
1880.562576328023
 31
0.0
  0
LINE
  5
13677
330
747D
100
AcDbEntity
  8
細線
 48
50.0
100
AcDbLine
 10
2654.747060613229
 20
1830.562576328023
 30
0.0
 11
2704.747060613229
 21
1880.562576328023
 31
0.0
  0
LINE
  5
13678
330
747D
100
AcDbEntity
  8
細線
 48
50.0
100
AcDbLine
 10
2681.68784061323
 20
1830.562576328023
 30
0.0
 11
2731.68784061323
 21
1880.562576328023
 31
0.0
  0
LINE
  5
13A2F
330
747D
100
AcDbEntity
  8
部品1
 48
50.0
100
AcDbLine
 10
7018.312019724419
 20
7921.447238448381
 30
0.0
 11
888.3120197244194
 21
7921.447238448381
 31
0.0
  0
LINE
  5
13A35
330
747D
100
AcDbEntity
  8
部品1
 48
50.0
100
AcDbLine
 10
936.3120197244192
 20
7817.947238448386
 30
0.0
 11
6970.312019724419
 21
7817.947238448387
 31
0.0
  0
LINE
  5
13A36
330
747D
100
AcDbEntity
  8
点線
 48
50.0
100
AcDbLine
 10
3631.242232682575
 20
7713.947238448382
 30
0.0
 11
6994.312019724421
 21
7713.94723844839
 31
0.0
  0
LINE
  5
13A37
330
747D
100
AcDbEntity
  8
点線
 48
50.0
100
AcDbLine
 10
3648.658930190598
 20
7648.947238448382
 30
0.0
 11
6994.312019724418
 21
7648.947238448387
 31
0.0
  0
LINE
  5
13A38
330
747D
100
AcDbEntity
  8
点線
 48
50.0
100
AcDbLine
 10
3858.021234518928
 20
6898.947238448385
 30
0.0
 11
6994.312019724418
 21
6898.947238448386
 31
0.0
  0
LINE
  5
13A39
330
747D
100
AcDbEntity
  8
点線
 48
50.0
100
AcDbLine
 10
3814.336289762984
 20
6963.947238448382
 30
0.0
 11
6994.312019724418
 21
6963.947238448385
 31
0.0
  0
LINE
  5
13A3A
330
747D
100
AcDbEntity
  8
点線
 48
50.0
100
AcDbLine
 10
4033.166021329258
 20
6213.947238448389
 30
0.0
 11
6994.312019724418
 21
6213.947238448387
 31
0.0
  0
LINE
  5
13A3B
330
747D
100
AcDbEntity
  8
点線
 48
50.0
100
AcDbLine
 10
4050.582718837281
 20
6148.947238448386
 30
0.0
 11
6994.312019724418
 21
6148.947238448386
 31
0.0
  0
LINE
  5
13A3C
330
747D
100
AcDbEntity
  8
部品1
 48
50.0
100
AcDbLine
 10
936.3120197244192
 20
6014.947238448385
 30
0.0
 11
6970.312019724419
 21
6014.947238448387
 31
0.0
  0
LINE
  5
13A3D
330
747D
100
AcDbEntity
  8
部品1
 48
50.0
100
AcDbLine
 10
888.3120197244194
 20
5921.447238448386
 30
0.0
 11
7018.312019724419
 21
5921.447238448383
 31
0.0
  0
LINE
  5
13A3F
330
747D
100
AcDbEntity
  8
部品1
 48
50.0
100
AcDbLine
 10
3850.746266052402
 20
6894.747033445888
 30
0.0
 11
4151.73353898003
 21
5771.447238448382
 31
0.0
  0
LINE
  5
13A54
330
747D
100
AcDbEntity
  8
部品1
 48
50.0
100
AcDbLine
 10
1093.312019724419
 20
6898.947238448385
 30
0.0
 11
1093.312019724419
 21
6213.947238448385
 31
0.0
  0
LINE
  5
13A55
330
747D
100
AcDbEntity
  8
部品1
 48
50.0
100
AcDbLine
 10
1153.312019724419
 20
6898.947238448385
 30
0.0
 11
1153.312019724419
 21
6213.947238448385
 31
0.0
  0
LINE
  5
13A56
330
747D
100
AcDbEntity
  8
部品1
 48
50.0
100
AcDbLine
 10
958.3120197244193
 20
7817.947238448382
 30
0.0
 11
958.3120197244193
 21
6014.947238448382
 31
0.0
  0
LINE
  5
13A5D
330
747D
100
AcDbEntity
  8
部品1
 48
50.0
100
AcDbLine
 10
936.3120197244192
 20
7921.447238448381
 30
0.0
 11
936.3120197244192
 21
5921.447238448386
 31
0.0
  0
LINE
  5
13A5E
330
747D
100
AcDbEntity
  8
部品1
 48
50.0
100
AcDbLine
 10
873.3120197244193
 20
7906.447238448382
 30
0.0
 11
873.3120197244193
 21
5936.447238448382
 31
0.0
  0
LINE
  5
13A5F
330
747D
100
AcDbEntity
  8
部品1
 48
50.0
100
AcDbLine
 10
958.3120197244193
 20
6148.947238448386
 30
0.0
 11
4050.582718837281
 21
6148.947238448386
 31
0.0
  0
LINE
  5
13A60
330
747D
100
AcDbEntity
  8
部品1
 48
50.0
100
AcDbLine
 10
958.3120197244193
 20
6213.947238448385
 30
0.0
 11
4033.166021329255
 21
6213.947238448385
 31
0.0
  0
LINE
  5
13A61
330
747D
100
AcDbEntity
  8
部品1
 48
50.0
100
AcDbLine
 10
958.3120197244193
 20
6193.947238448386
 30
0.0
 11
4038.525005177876
 21
6193.947238448386
 31
0.0
  0
ARC
  5
13A62
330
747D
100
AcDbEntity
  8
部品1
 48
50.0
100
AcDbCircle
 10
888.3120197244194
 20
5936.447238448382
 30
0.0
 40
15.0
100
AcDbArc
 50
180.0
 51
270.0
  0
LINE
  5
13A63
330
747D
100
AcDbEntity
  8
点線
 48
18.0
100
AcDbLine
 10
912.3120197244189
 20
6148.947238448386
 30
0.0
 11
958.3120197244193
 21
6148.947238448386
 31
0.0
  0
LINE
  5
13A64
330
747D
100
AcDbEntity
  8
点線
 48
18.0
100
AcDbLine
 10
912.3120197244189
 20
6213.947238448386
 30
0.0
 11
958.3120197244193
 21
6213.947238448385
 31
0.0
  0
LINE
  5
13A65
330
747D
100
AcDbEntity
  8
部品1
 48
50.0
100
AcDbLine
 10
873.3120197244193
 20
5984.447238448385
 30
0.0
 11
936.3120197244192
 21
5984.447238448385
 31
0.0
  0
ARC
  5
13A66
330
747D
100
AcDbEntity
  8
部品1
 48
50.0
100
AcDbCircle
 10
1145.312019724419
 20
6113.947238448382
 30
0.0
 40
10.0
100
AcDbArc
 50
270.0
 51
0.0
  0
ARC
  5
13A67
330
747D
100
AcDbEntity
  8
部品1
 48
50.0
100
AcDbCircle
 10
1101.312019724419
 20
6113.947238448385
 30
0.0
 40
10.0
100
AcDbArc
 50
180.0
 51
270.0
  0
LINE
  5
13A68
330
747D
100
AcDbEntity
  8
部品1
 48
50.0
100
AcDbLine
 10
1101.312019724419
 20
6103.947238448385
 30
0.0
 11
1145.312019724419
 21
6103.947238448381
 31
0.0
  0
LINE
  5
13A69
330
747D
100
AcDbEntity
  8
部品1
 48
50.0
100
AcDbLine
 10
1155.312019724419
 20
6148.947238448386
 30
0.0
 11
1155.312019724419
 21
6113.947238448382
 31
0.0
  0
LINE
  5
13A6A
330
747D
100
AcDbEntity
  8
部品1
 48
50.0
100
AcDbLine
 10
1091.312019724419
 20
6148.947238448386
 30
0.0
 11
1091.312019724419
 21
6113.947238448385
 31
0.0
  0
LINE
  5
13A6D
330
747D
100
AcDbEntity
  8
部品1
 48
50.0
100
AcDbLine
 10
3943.312019724423
 20
6014.947238448385
 30
0.0
 11
3943.31201972442
 21
5921.447238448382
 31
0.0
  0
LINE
  5
13A74
330
747D
100
AcDbEntity
  8
部品1
 48
50.0
100
AcDbLine
 10
958.3120197244193
 20
6898.947238448385
 30
0.0
 11
3858.021234518928
 21
6898.947238448385
 31
0.0
  0
LINE
  5
13A75
330
747D
100
AcDbEntity
  8
部品1
 48
50.0
100
AcDbLine
 10
958.3120197244193
 20
6963.947238448382
 30
0.0
 11
3814.336289762984
 21
6963.947238448385
 31
0.0
  0
LINE
  5
13A76
330
747D
100
AcDbEntity
  8
部品1
 48
50.0
100
AcDbLine
 10
958.3120197244193
 20
7648.947238448385
 30
0.0
 11
3648.658930190598
 21
7648.947238448389
 31
0.0
  0
LINE
  5
13A77
330
747D
100
AcDbEntity
  8
部品1
 48
50.0
100
AcDbLine
 10
958.3120197244193
 20
7713.947238448385
 30
0.0
 11
3631.242232682575
 21
7713.947238448385
 31
0.0
  0
LINE
  5
13A78
330
747D
100
AcDbEntity
  8
部品1
 48
50.0
100
AcDbLine
 10
958.3120197244193
 20
7693.947238448385
 30
0.0
 11
3636.601216531194
 21
7693.947238448385
 31
0.0
  0
LINE
  5
13A79
330
747D
100
AcDbEntity
  8
部品1
 48
50.0
100
AcDbLine
 10
958.3120197244193
 20
6943.947238448382
 30
0.0
 11
3779.695273611606
 21
6943.947238448385
 31
0.0
  0
LINE
  5
13A94
330
747D
100
AcDbEntity
  8
部品1
 48
50.0
100
AcDbLine
 10
1153.312019724419
 20
7648.947238448385
 30
0.0
 11
1153.312019724419
 21
6963.947238448382
 31
0.0
  0
LINE
  5
13A95
330
747D
100
AcDbEntity
  8
部品1
 48
50.0
100
AcDbLine
 10
1093.312019724419
 20
7648.947238448385
 30
0.0
 11
1093.312019724419
 21
6963.947238448382
 31
0.0
  0
LINE
  5
13A96
330
747D
100
AcDbEntity
  8
点線
 48
18.0
100
AcDbLine
 10
912.312019724419
 20
6963.947238448382
 30
0.0
 11
958.3120197244193
 21
6963.947238448382
 31
0.0
  0
LINE
  5
13A97
330
747D
100
AcDbEntity
  8
点線
 48
18.0
100
AcDbLine
 10
912.312019724419
 20
6898.947238448386
 30
0.0
 11
958.3120197244193
 21
6898.947238448385
 31
0.0
  0
LINE
  5
13A98
330
747D
100
AcDbEntity
  8
点線
 48
18.0
100
AcDbLine
 10
912.3120197244192
 20
7648.947238448385
 30
0.0
 11
958.3120197244193
 21
7648.947238448385
 31
0.0
  0
LINE
  5
13A99
330
747D
100
AcDbEntity
  8
点線
 48
18.0
100
AcDbLine
 10
912.3120197244192
 20
7713.947238448387
 30
0.0
 11
958.3120197244193
 21
7713.947238448385
 31
0.0
  0
ARC
  5
13A9A
330
747D
100
AcDbEntity
  8
部品1
 48
50.0
100
AcDbCircle
 10
1145.312019724419
 20
7728.947238448386
 30
0.0
 40
10.0
100
AcDbArc
 50
0.0
 51
90.0
  0
ARC
  5
13A9B
330
747D
100
AcDbEntity
  8
部品1
 48
50.0
100
AcDbCircle
 10
1101.312019724419
 20
7728.947238448386
 30
0.0
 40
10.0
100
AcDbArc
 50
90.0
 51
180.0000000000005
  0
LINE
  5
13A9C
330
747D
100
AcDbEntity
  8
部品1
 48
50.0
100
AcDbLine
 10
1101.312019724419
 20
7738.947238448385
 30
0.0
 11
1145.312019724419
 21
7738.947238448385
 31
0.0
  0
LINE
  5
13A9D
330
747D
100
AcDbEntity
  8
部品1
 48
50.0
100
AcDbLine
 10
1155.312019724419
 20
7728.947238448386
 30
0.0
 11
1155.312019724419
 21
7713.947238448385
 31
0.0
  0
LINE
  5
13A9E
330
747D
100
AcDbEntity
  8
部品1
 48
50.0
100
AcDbLine
 10
1091.312019724419
 20
7728.947238448386
 30
0.0
 11
1091.312019724419
 21
7713.947238448385
 31
0.0
  0
ARC
  5
13AA1
330
747D
100
AcDbEntity
  8
部品1
 48
50.0
100
AcDbCircle
 10
888.3120197244194
 20
7906.447238448382
 30
0.0
 40
15.0
100
AcDbArc
 50
90.0
 51
180.0
  0
LINE
  5
13AA2
330
747D
100
AcDbEntity
  8
部品1
 48
50.0
100
AcDbLine
 10
873.3120197244193
 20
7858.447238448381
 30
0.0
 11
936.3120197244192
 21
7858.447238448381
 31
0.0
  0
LINE
  5
13AD9
330
747D
100
AcDbEntity
  8
部品1
 48
50.0
100
AcDbLine
 10
3535.450396388448
 20
8071.447238448381
 30
0.0
 11
3829.810290726049
 21
6972.881157069853
 31
0.0
  0
LINE
  5
13ADA
330
747D
100
AcDbEntity
  8
部品1
 48
50.0
100
AcDbLine
 10
3786.81201972442
 20
7817.947238448386
 30
0.0
 11
3786.81201972442
 21
7133.352889085545
 31
0.0
  0
LINE
  5
13ADB
330
747D
100
AcDbEntity
  8
部品1
 48
50.0
100
AcDbLine
 10
3809.812019724419
 20
7817.947238448386
 30
0.0
 11
3809.812019724419
 21
7047.51572051146
 31
0.0
  0
LINE
  5
13ADC
330
747D
100
AcDbEntity
  8
部品1
 48
50.0
100
AcDbLine
 10
3809.812019724419
 20
6961.335149923733
 30
0.0
 11
3809.812019724419
 21
6918.990476159925
 31
0.0
  0
LINE
  5
13ADD
330
747D
100
AcDbEntity
  8
部品1
 48
50.0
100
AcDbLine
 10
3786.81201972442
 20
6948.056093732368
 30
0.0
 11
3786.81201972442
 21
6918.990476159925
 31
0.0
  0
LINE
  5
13ADE
330
747D
100
AcDbEntity
  8
部品1
 48
50.0
100
AcDbLine
 10
3892.737140583488
 20
6918.990476159921
 30
0.0
 11
3850.746266052402
 21
6894.747033445892
 31
0.0
  0
LINE
  5
13ADF
330
747D
100
AcDbEntity
  8
部品1
 48
50.0
100
AcDbLine
 10
3736.468893335575
 20
6918.990476159921
 30
0.0
 11
3892.737140583488
 21
6918.990476159921
 31
0.0
  0
LINE
  5
13AE0
330
747D
100
AcDbEntity
  8
部品1
 48
50.0
100
AcDbLine
 10
3736.468893335571
 20
6918.990476159925
 30
0.0
 11
3829.810290726049
 21
6972.881157069853
 31
0.0
  0
LINE
  5
13AEC
330
747D
100
AcDbEntity
  8
部品1
 48
50.0
100
AcDbLine
 10
3963.312019724423
 20
7817.947238448386
 30
0.0
 11
3963.312019724419
 21
7921.447238448388
 31
0.0
  0
LWPOLYLINE
  5
13C02
330
747D
100
AcDbEntity
  8
部品1
100
AcDbPolyline
 90
        4
 70
     1
 43
0.0
 10
3592.120664490238
 20
5569.236416622199
 10
4239.152039770763
 20
5569.236416622199
 10
4239.152039770763
 20
5376.716260805061
 10
3592.120664490238
 20
5376.716260805061
  0
TEXT
  5
13C03
330
747D
100
AcDbEntity
  8
仕様書枠
 62
     7
 48
50.0
100
AcDbText
 10
3623.535741251767
 20
5415.371692272017
 30
0.0
 40
112.0
  1
平 面 図
  7
STYLE2
100
AcDbText
  0
LINE
  5
13CB1
330
747D
100
AcDbEntity
  8
部品1
 48
50.0
100
AcDbLine
 10
4096.812019724419
 20
7817.947238448386
 30
0.0
 11
4096.812019724419
 21
6014.947238448385
 31
0.0
  0
LINE
  5
13CB4
330
747D
100
AcDbEntity
  8
細線
 48
50.0
100
AcDbLine
 10
3983.312019724419
 20
7817.947238448386
 30
0.0
 11
3983.312019724419
 21
6400.004905398262
 31
0.0
  0
LINE
  5
13CB5
330
747D
100
AcDbEntity
  8
細線
 48
50.0
100
AcDbLine
 10
3923.31201972442
 20
7817.947238448386
 30
0.0
 11
3923.31201972442
 21
6623.927953852391
 31
0.0
  0
LINE
  5
13CB7
330
747D
100
AcDbEntity
  8
部品1
 48
50.0
100
AcDbLine
 10
4119.812019724419
 20
7817.947238448386
 30
0.0
 11
4119.812019724419
 21
6014.947238448385
 31
0.0
  0
LINE
  5
13CE3
330
747D
100
AcDbEntity
  8
細線
 48
50.0
100
AcDbLine
 10
4386.312019724419
 20
7817.947238448386
 30
0.0
 11
4386.312019724419
 21
6014.947238448385
 31
0.0
  0
LINE
  5
13CE4
330
747D
100
AcDbEntity
  8
細線
 48
50.0
100
AcDbLine
 10
4341.312019724418
 20
7817.947238448386
 30
0.0
 11
4341.312019724418
 21
6014.947238448385
 31
0.0
  0
LINE
  5
13CE5
330
747D
100
AcDbEntity
  8
細線
 48
50.0
100
AcDbLine
 10
4268.312019724418
 20
7817.947238448386
 30
0.0
 11
4268.312019724418
 21
6014.947238448385
 31
0.0
  0
LINE
  5
13CE6
330
747D
100
AcDbEntity
  8
細線
 48
50.0
100
AcDbLine
 10
4313.312019724419
 20
7817.947238448386
 30
0.0
 11
4313.312019724419
 21
6014.947238448385
 31
0.0
  0
LINE
  5
13CE7
330
747D
100
AcDbEntity
  8
部品1
 48
50.0
100
AcDbLine
 10
4516.812019724419
 20
7817.947238448386
 30
0.0
 11
4516.812019724419
 21
6014.947238448385
 31
0.0
  0
ARC
  5
13CEF
330
747D
100
AcDbEntity
  8
部品1
 48
50.0
100
AcDbCircle
 10
3975.31201972442
 20
6113.947238448385
 30
0.0
 40
10.0
100
AcDbArc
 50
270.0
 51
0.0000000000000254
  0
ARC
  5
13CF0
330
747D
100
AcDbEntity
  8
部品1
 48
50.0
100
AcDbCircle
 10
3931.312019724419
 20
6113.947238448385
 30
0.0
 40
10.0
100
AcDbArc
 50
180.0
 51
270.0
  0
LINE
  5
13CF1
330
747D
100
AcDbEntity
  8
部品1
 48
50.0
100
AcDbLine
 10
3985.31201972442
 20
6148.947238448386
 30
0.0
 11
3985.31201972442
 21
6113.947238448385
 31
0.0
  0
LINE
  5
13CF2
330
747D
100
AcDbEntity
  8
部品1
 48
50.0
100
AcDbLine
 10
3921.31201972442
 20
6148.947238448386
 30
0.0
 11
3921.31201972442
 21
6113.947238448385
 31
0.0
  0
LINE
  5
13CF3
330
747D
100
AcDbEntity
  8
部品1
 48
50.0
100
AcDbLine
 10
3931.312019724419
 20
6103.947238448385
 30
0.0
 11
3975.31201972442
 21
6103.947238448385
 31
0.0
  0
ARC
  5
13D4A
330
747D
100
AcDbEntity
  8
点線
 48
18.0
100
AcDbCircle
 10
3975.31201972442
 20
7728.947238448386
 30
0.0
 40
10.0
100
AcDbArc
 50
0.0
 51
90.0
  0
ARC
  5
13D4B
330
747D
100
AcDbEntity
  8
点線
 48
18.0
100
AcDbCircle
 10
3931.312019724419
 20
7728.947238448386
 30
0.0
 40
10.0
100
AcDbArc
 50
90.0
 51
180.0
  0
LINE
  5
13D4C
330
747D
100
AcDbEntity
  8
点線
 48
18.0
100
AcDbLine
 10
3985.31201972442
 20
7728.947238448386
 30
0.0
 11
3985.31201972442
 21
7713.947238448385
 31
0.0
  0
LINE
  5
13D4D
330
747D
100
AcDbEntity
  8
点線
 48
18.0
100
AcDbLine
 10
3921.31201972442
 20
7728.947238448386
 30
0.0
 11
3921.31201972442
 21
7713.947238448385
 31
0.0
  0
LINE
  5
13D4E
330
747D
100
AcDbEntity
  8
点線
 48
18.0
100
AcDbLine
 10
3931.312019724419
 20
7738.947238448385
 30
0.0
 11
3975.31201972442
 21
7738.947238448385
 31
0.0
  0
DIMENSION
  5
13D64
330
747D
100
AcDbEntity
  8
寸法
 48
50.0
100
AcDbDimension
  2
*D10
 10
7656.8015542493
 20
5921.447238448383
 30
0.0
 11
7656.8015542493
 21
6921.447238448384
 31
0.0
 70
   160
 71
     5
 42
2000.000000000005
  3
INABA_S30G
100
AcDbAlignedDimension
 13
7018.312019724419
 23
7921.447238448386
 33
0.0
 14
7018.312019724419
 24
5921.447238448383
 34
0.0
 50
90.0
100
AcDbRotatedDimension
  0
LINE
  5
13D65
330
747D
100
AcDbEntity
  8
点線
 48
50.0
100
AcDbLine
 10
6753.312019724418
 20
6898.947238448387
 30
0.0
 11
6753.312019724418
 21
6213.94723844839
 31
0.0
  0
LINE
  5
13D66
330
747D
100
AcDbEntity
  8
点線
 48
50.0
100
AcDbLine
 10
6813.31201972442
 20
6898.947238448387
 30
0.0
 11
6813.31201972442
 21
6213.94723844839
 31
0.0
  0
LINE
  5
13D6B
330
747D
100
AcDbEntity
  8
細線
 48
50.0
100
AcDbLine
 10
5153.312019724419
 20
7817.947238448386
 30
0.0
 11
5153.312019724419
 21
6014.947238448385
 31
0.0
  0
LINE
  5
13D6C
330
747D
100
AcDbEntity
  8
細線
 48
50.0
100
AcDbLine
 10
5108.312019724419
 20
7817.947238448386
 30
0.0
 11
5108.312019724419
 21
6014.947238448385
 31
0.0
  0
LINE
  5
13D6D
330
747D
100
AcDbEntity
  8
細線
 48
50.0
100
AcDbLine
 10
5181.312019724419
 20
7817.947238448386
 30
0.0
 11
5181.312019724419
 21
6014.947238448385
 31
0.0
  0
LINE
  5
13D6E
330
747D
100
AcDbEntity
  8
細線
 48
50.0
100
AcDbLine
 10
5226.312019724419
 20
7817.947238448386
 30
0.0
 11
5226.312019724419
 21
6014.947238448385
 31
0.0
  0
LINE
  5
13D6F
330
747D
100
AcDbEntity
  8
細線
 48
50.0
100
AcDbLine
 10
6726.312019724419
 20
7817.947238448387
 30
0.0
 11
6726.312019724419
 21
6014.947238448387
 31
0.0
  0
LINE
  5
13D70
330
747D
100
AcDbEntity
  8
細線
 48
50.0
100
AcDbLine
 10
6653.312019724419
 20
7817.947238448387
 30
0.0
 11
6653.312019724419
 21
6014.947238448387
 31
0.0
  0
LINE
  5
13D71
330
747D
100
AcDbEntity
  8
細線
 48
50.0
100
AcDbLine
 10
6073.312019724419
 20
7817.947238448387
 30
0.0
 11
6073.312019724419
 21
6014.947238448387
 31
0.0
  0
LINE
  5
13D72
330
747D
100
AcDbEntity
  8
細線
 48
50.0
100
AcDbLine
 10
6146.312019724419
 20
7817.947238448387
 30
0.0
 11
6146.312019724419
 21
6014.947238448387
 31
0.0
  0
LINE
  5
13D73
330
747D
100
AcDbEntity
  8
細線
 48
50.0
100
AcDbLine
 10
6608.312019724419
 20
7817.947238448387
 30
0.0
 11
6608.312019724419
 21
6014.947238448387
 31
0.0
  0
LINE
  5
13D74
330
747D
100
AcDbEntity
  8
細線
 48
50.0
100
AcDbLine
 10
6028.312019724419
 20
7817.947238448387
 30
0.0
 11
6028.312019724419
 21
6014.947238448387
 31
0.0
  0
LINE
  5
13D75
330
747D
100
AcDbEntity
  8
細線
 48
50.0
100
AcDbLine
 10
6681.312019724419
 20
7817.947238448387
 30
0.0
 11
6681.312019724419
 21
6014.947238448387
 31
0.0
  0
LINE
  5
13D76
330
747D
100
AcDbEntity
  8
細線
 48
50.0
100
AcDbLine
 10
6101.312019724419
 20
7817.947238448387
 30
0.0
 11
6101.312019724419
 21
6014.947238448387
 31
0.0
  0
LINE
  5
13D77
330
747D
100
AcDbEntity
  8
部品1
 48
50.0
100
AcDbLine
 10
6936.81201972442
 20
7817.947238448387
 30
0.0
 11
6936.81201972442
 21
6014.947238448387
 31
0.0
  0
LINE
  5
13D78
330
747D
100
AcDbEntity
  8
部品1
 48
50.0
100
AcDbLine
 10
6356.812019724419
 20
7817.947238448387
 30
0.0
 11
6356.812019724419
 21
6014.947238448387
 31
0.0
  0
LINE
  5
13D79
330
747D
100
AcDbEntity
  8
部品1
 48
50.0
100
AcDbLine
 10
5776.812019724419
 20
7817.947238448387
 30
0.0
 11
5776.812019724419
 21
6014.947238448387
 31
0.0
  0
LINE
  5
13D7B
330
747D
100
AcDbEntity
  8
部品1
 48
50.0
100
AcDbLine
 10
6959.812019724418
 20
7817.947238448387
 30
0.0
 11
6959.812019724418
 21
6014.947238448387
 31
0.0
  0
LINE
  5
13D7C
330
747D
100
AcDbEntity
  8
部品1
 48
50.0
100
AcDbLine
 10
6379.812019724418
 20
7817.947238448387
 30
0.0
 11
6379.812019724418
 21
6014.947238448387
 31
0.0
  0
LINE
  5
13D7D
330
747D
100
AcDbEntity
  8
部品1
 48
50.0
100
AcDbLine
 10
5799.812019724419
 20
7817.947238448387
 30
0.0
 11
5799.812019724419
 21
6014.947238448387
 31
0.0
  0
LINE
  5
13D7F
330
747D
100
AcDbEntity
  8
部品1
 48
50.0
100
AcDbLine
 10
4539.812019724418
 20
7817.947238448386
 30
0.0
 11
4539.812019724418
 21
6014.947238448385
 31
0.0
  0
LINE
  5
13D80
330
747D
100
AcDbEntity
  8
部品1
 48
50.0
100
AcDbLine
 10
6970.312019724419
 20
7921.447238448384
 30
0.0
 11
6970.312019724419
 21
5921.447238448386
 31
0.0
  0
LINE
  5
13D81
330
747D
100
AcDbEntity
  8
部品1
 48
50.0
100
AcDbLine
 10
7033.312019724418
 20
7906.447238448388
 30
0.0
 11
7033.312019724418
 21
5936.447238448383
 31
0.0
  0
ARC
  5
13D82
330
747D
100
AcDbEntity
  8
点線
 48
18.0
100
AcDbCircle
 10
6805.312019724418
 20
6113.947238448391
 30
0.0
 40
10.0
100
AcDbArc
 50
270.0
 51
0.0
  0
ARC
  5
13D83
330
747D
100
AcDbEntity
  8
点線
 48
18.0
100
AcDbCircle
 10
6761.312019724418
 20
6113.947238448387
 30
0.0
 40
10.0
100
AcDbArc
 50
180.0
 51
270.0
  0
LINE
  5
13D84
330
747D
100
AcDbEntity
  8
点線
 48
18.0
100
AcDbLine
 10
6761.312019724418
 20
6103.947238448387
 30
0.0
 11
6805.312019724418
 21
6103.947238448391
 31
0.0
  0
LINE
  5
13D85
330
747D
100
AcDbEntity
  8
点線
 48
18.0
100
AcDbLine
 10
6751.312019724419
 20
6148.947238448391
 30
0.0
 11
6751.312019724419
 21
6113.947238448387
 31
0.0
  0
LINE
  5
13D86
330
747D
100
AcDbEntity
  8
点線
 48
18.0
100
AcDbLine
 10
6815.312019724419
 20
6148.947238448391
 30
0.0
 11
6815.312019724419
 21
6113.947238448391
 31
0.0
  0
ARC
  5
13D87
330
747D
100
AcDbEntity
  8
部品1
 48
50.0
100
AcDbCircle
 10
7018.312019724419
 20
5936.447238448383
 30
0.0
 40
15.0
100
AcDbArc
 50
270.0
 51
0.0
  0
LINE
  5
13D88
330
747D
100
AcDbEntity
  8
部品1
 48
50.0
100
AcDbLine
 10
6970.312019724419
 20
5984.447238448387
 30
0.0
 11
7033.312019724418
 21
5984.447238448387
 31
0.0
  0
LINE
  5
13D8F
330
747D
100
AcDbEntity
  8
点線
 48
50.0
100
AcDbLine
 10
6753.312019724418
 20
7648.947238448387
 30
0.0
 11
6753.312019724418
 21
6963.947238448387
 31
0.0
  0
LINE
  5
13D90
330
747D
100
AcDbEntity
  8
点線
 48
50.0
100
AcDbLine
 10
6813.31201972442
 20
7648.947238448387
 30
0.0
 11
6813.31201972442
 21
6963.947238448387
 31
0.0
  0
ARC
  5
13D91
330
747D
100
AcDbEntity
  8
点線
 48
18.0
100
AcDbCircle
 10
6805.312019724418
 20
7728.947238448387
 30
0.0
 40
10.0
100
AcDbArc
 50
0.0
 51
90.0
  0
ARC
  5
13D92
330
747D
100
AcDbEntity
  8
点線
 48
18.0
100
AcDbCircle
 10
6761.312019724418
 20
7728.947238448387
 30
0.0
 40
10.0
100
AcDbArc
 50
90.0
 51
180.0
  0
LINE
  5
13D93
330
747D
100
AcDbEntity
  8
点線
 48
18.0
100
AcDbLine
 10
6761.312019724418
 20
7738.947238448386
 30
0.0
 11
6805.312019724418
 21
7738.947238448386
 31
0.0
  0
LINE
  5
13D94
330
747D
100
AcDbEntity
  8
点線
 48
18.0
100
AcDbLine
 10
6815.312019724419
 20
7728.947238448387
 30
0.0
 11
6815.312019724419
 21
7713.947238448387
 31
0.0
  0
LINE
  5
13D95
330
747D
100
AcDbEntity
  8
点線
 48
18.0
100
AcDbLine
 10
6751.312019724419
 20
7728.947238448387
 30
0.0
 11
6751.312019724419
 21
7713.947238448387
 31
0.0
  0
ARC
  5
13D9F
330
747D
100
AcDbEntity
  8
部品1
 48
50.0
100
AcDbCircle
 10
7018.312019724419
 20
7906.447238448388
 30
0.0
 40
15.0
100
AcDbArc
 50
0.0
 51
90.0
  0
LINE
  5
13DA0
330
747D
100
AcDbEntity
  8
部品1
 48
50.0
100
AcDbLine
 10
6970.312019724419
 20
7858.447238448388
 30
0.0
 11
7033.312019724418
 21
7858.447238448388
 31
0.0
  0
LINE
  5
143B2
330
747D
100
AcDbEntity
  8
部品1
 48
50.0
100
AcDbLine
 10
3921.623035765147
 20
3969.96901214066
 30
0.0
 11
1155.312019724419
 21
3969.96901214066
 31
0.0
  0
LINE
  5
143B4
330
747D
100
AcDbEntity
  8
部品1
 48
50.0
100
AcDbLine
 10
3921.312019724422
 20
3909.969012140661
 30
0.0
 11
1155.312019724419
 21
3909.969012140661
 31
0.0
  0
LINE
  5
143B6
330
747D
100
AcDbEntity
  8
部品1
 48
50.0
100
AcDbLine
 10
3921.312019724422
 20
3939.307144620489
 30
0.0
 11
1155.312019724419
 21
3939.307144620489
 31
0.0
  0
LINE
  5
143BA
330
747D
100
AcDbEntity
  8
部品1
 48
50.0
100
AcDbLine
 10
3921.312019724422
 20
3900.228017808711
 30
0.0
 11
1155.312019724419
 21
3900.228017808711
 31
0.0
  0
LINE
  5
143BB
330
747D
100
AcDbEntity
  8
部品1
 48
50.0
100
AcDbLine
 10
1091.312019724419
 20
3900.228017808711
 30
0.0
 11
913.3120197244188
 21
3900.228017808711
 31
0.0
  0
LINE
  5
145A1
330
747D
100
AcDbEntity
  8
細線
 48
50.0
100
AcDbLine
 10
1388.53095917927
 20
1830.562576328021
 30
0.0
 11
1438.53095917927
 21
1880.562576328021
 31
0.0
  0
LINE
  5
145A2
330
747D
100
AcDbEntity
  8
細線
 48
50.0
100
AcDbLine
 10
1334.649399179268
 20
1830.562576328021
 30
0.0
 11
1384.649399179268
 21
1880.562576328021
 31
0.0
  0
LINE
  5
145A3
330
747D
100
AcDbEntity
  8
細線
 48
50.0
100
AcDbLine
 10
1361.590179179269
 20
1830.562576328021
 30
0.0
 11
1411.590179179269
 21
1880.562576328021
 31
0.0
  0
LINE
  5
145A7
330
747D
100
AcDbEntity
  8
細線
 48
50.0
100
AcDbLine
 10
6534.217704915116
 20
1830.562576328018
 30
0.0
 11
6584.217704915116
 21
1880.562576328018
 31
0.0
  0
LINE
  5
145A8
330
747D
100
AcDbEntity
  8
細線
 48
50.0
100
AcDbLine
 10
6507.276924915119
 20
1830.562576328018
 30
0.0
 11
6557.276924915119
 21
1880.562576328018
 31
0.0
  0
LINE
  5
145A9
330
747D
100
AcDbEntity
  8
細線
 48
50.0
100
AcDbLine
 10
6561.158484915117
 20
1830.562576328018
 30
0.0
 11
6611.158484915117
 21
1880.562576328018
 31
0.0
  0
LINE
  5
145AA
330
747D
100
AcDbEntity
  8
部品1
 48
50.0
100
AcDbLine
 10
5379.812019724418
 20
7817.947238448387
 30
0.0
 11
5379.812019724418
 21
6014.947238448387
 31
0.0
  0
LINE
  5
145AB
330
747D
100
AcDbEntity
  8
部品1
 48
50.0
100
AcDbLine
 10
5356.812019724419
 20
7817.947238448387
 30
0.0
 11
5356.812019724419
 21
6014.947238448387
 31
0.0
  0
LINE
  5
145AC
330
747D
100
AcDbEntity
  8
細線
 48
50.0
100
AcDbLine
 10
5646.312019724419
 20
7817.947238448387
 30
0.0
 11
5646.312019724419
 21
6014.947238448387
 31
0.0
  0
LINE
  5
145AD
330
747D
100
AcDbEntity
  8
細線
 48
50.0
100
AcDbLine
 10
5601.312019724419
 20
7817.947238448387
 30
0.0
 11
5601.312019724419
 21
6014.947238448387
 31
0.0
  0
LINE
  5
145AE
330
747D
100
AcDbEntity
  8
細線
 48
50.0
100
AcDbLine
 10
5528.312019724419
 20
7817.947238448387
 30
0.0
 11
5528.312019724419
 21
6014.947238448387
 31
0.0
  0
LINE
  5
145AF
330
747D
100
AcDbEntity
  8
細線
 48
50.0
100
AcDbLine
 10
5573.312019724419
 20
7817.947238448387
 30
0.0
 11
5573.312019724419
 21
6014.947238448387
 31
0.0
  0
LINE
  5
145DE
330
747D
100
AcDbEntity
  8
仕様書枠
 48
50.0
100
AcDbLine
 10
105.0000000000018
 20
0.0
 30
0.0
 11
12230.4
 21
0.0
 31
0.0
  0
LINE
  5
145F5
330
747D
100
AcDbEntity
  8
補助
  6
PHANTOM
 62
   230
 48
50.0
100
AcDbLine
 10
11930.4
 20
8182.200000000003
 30
0.0
 11
11930.4
 21
6457.2
 31
0.0
  0
LINE
  5
145F6
330
747D
100
AcDbEntity
  8
補助
  6
PHANTOM
 62
   230
 48
50.0
100
AcDbLine
 10
9380.400000000003
 20
8182.199999999999
 30
0.0
 11
9380.400000000003
 21
6457.2
 31
0.0
  0
LINE
  5
145F7
330
747D
100
AcDbEntity
  8
補助
  6
PHANTOM
 62
   230
 48
50.0
100
AcDbLine
 10
9380.400000000003
 20
6457.2
 30
0.0
 11
11930.4
 21
6457.2
 31
0.0
  0
LINE
  5
145F9
330
747D
100
AcDbEntity
  8
補助
  6
PHANTOM
 62
   230
 48
50.0
100
AcDbLine
 10
9380.400000000003
 20
8182.199999999999
 30
0.0
 11
11930.4
 21
8182.200000000003
 31
0.0
  0
DIMENSION
  5
14682
330
747D
100
AcDbEntity
  8
寸法
 48
50.0
100
AcDbDimension
  2
*D11
 10
7033.312019724418
 20
8256.091035740652
 30
0.0
 11
3953.312019724419
 21
8331.091035740653
 31
0.0
 70
    32
 71
     5
 42
6160.0
  3
INABA_S30G
100
AcDbAlignedDimension
 13
873.3120197244193
 23
7906.447238448382
 33
0.0
 14
7033.312019724418
 24
7905.978717162716
 34
0.0
100
AcDbRotatedDimension
  0
LINE
  5
146A6
330
747D
100
AcDbEntity
  8
補助
  6
PHANTOM
 62
   230
 48
50.0
100
AcDbLine
 10
9380.400000000003
 20
6767.200000000001
 30
0.0
 11
11930.4
 21
6767.200000000002
 31
0.0
  0
TEXT
  5
14741
330
747D
100
AcDbEntity
  8
文字
 62
     7
 48
50.0
100
AcDbText
 10
9907.054008162901
 20
171.4076431926769
 30
0.0
 40
75.0
  1
○間口奥行寸法は柱芯寸法です。
  7
STYLE2
100
AcDbText
  0
TEXT
  5
14743
330
747D
100
AcDbEntity
  8
仕様書枠
 62
     7
 48
50.0
100
AcDbText
 10
10984.92759423544
 20
362.9225347433557
 30
0.0
 40
120.0
  1
BYN-２８L-２
  7
STYLE3
100
AcDbText
  0
TEXT
  5
14745
330
747D
100
AcDbEntity
  8
仕様書枠
 62
     7
 48
50.0
100
AcDbText
 10
9901.077524988314
 20
357.9555495773438
 30
0.0
 40
120.0
  1
機種名
  7
STYLE2
100
AcDbText
  0
LINE
  5
14746
330
747D
100
AcDbEntity
  8
仕様書枠
 48
50.0
100
AcDbLine
 10
9830.400000000002
 20
600.0
 30
0.0
 11
10688.4
 21
600.0
 31
0.0
  0
TEXT
  5
14747
330
747D
100
AcDbEntity
  8
仕様書枠
 62
     7
 48
50.0
100
AcDbText
 10
9872.234292432679
 20
671.3179555724555
 30
0.0
 40
150.0
  1
外 形 図
  7
STYLE2
100
AcDbText
  0
LINE
  5
14748
330
747D
100
AcDbEntity
  8
仕様書枠
  6
Continuous
 48
50.0
100
AcDbLine
 10
10688.4
 20
900.0
 30
0.0
 11
10688.4
 21
600.0
 31
0.0
  0
LINE
  5
14749
330
747D
100
AcDbEntity
  8
仕様書枠
  6
Continuous
 48
50.0
100
AcDbLine
 10
10688.4
 20
900.0
 30
0.0
 11
10688.4
 21
600.0
 31
0.0
  0
LINE
  5
1474A
330
747D
100
AcDbEntity
  8
仕様書枠
 48
50.0
100
AcDbLine
 10
9830.400000000002
 20
900.0
 30
0.0
 11
12230.4
 21
900.0
 31
0.0
  0
LINE
  5
1474B
330
747D
100
AcDbEntity
  8
仕様書枠
 62
     7
 48
50.0
100
AcDbLine
 10
9890.400000000001
 20
300.0
 30
0.0
 11
12170.4
 21
300.0
 31
0.0
  0
LINE
  5
1474C
330
747D
100
AcDbEntity
  8
仕様書枠
  6
Continuous
 48
50.0
100
AcDbLine
 10
9830.400000000002
 20
900.0
 30
0.0
 11
9830.400000000002
 21
0.0
 31
0.0
  0
LINE
  5
1474D
330
747D
100
AcDbEntity
  8
仕様書枠
 48
50.0
100
AcDbLine
 10
12230.4
 20
900.0
 30
0.0
 11
12230.4
 21
0.0
 31
0.0
  0
LINE
  5
1474E
330
747D
100
AcDbEntity
  8
仕様書枠
 48
50.0
100
AcDbLine
 10
9830.400000000002
 20
900.0
 30
0.0
 11
12230.4
 21
900.0
 31
0.0
  0
LINE
  5
1474F
330
747D
100
AcDbEntity
  8
仕様書枠
 48
50.0
100
AcDbLine
 10
9830.400000000002
 20
900.0
 30
0.0
 11
12230.4
 21
900.0
 31
0.0
  0
TEXT
  5
14750
330
747D
100
AcDbEntity
  8
文字
 62
     7
 48
50.0
100
AcDbText
 10
9478.533405355218
 20
6818.753268667581
 30
0.0
 40
81.11400000000001
  1
9
  7
STYLE1
100
AcDbText
  0
TEXT
  5
14751
330
747D
100
AcDbEntity
  8
文字
 62
     7
 48
50.0
100
AcDbText
 10
9731.550575975818
 20
7232.434668667583
 30
0.0
 40
81.11400000000001
  1
梁中屋根板
  7
STYLE1
100
AcDbText
  0
TEXT
  5
14752
330
747D
100
AcDbEntity
  8
文字
 62
     7
 48
50.0
100
AcDbText
 10
10855.39650188426
 20
7232.434668667583
 30
0.0
 40
81.11400000000001
  1
Y10            1.0
  7
STYLE1
100
AcDbText
  0
LINE
  5
14753
330
747D
100
AcDbEntity
  8
部品1
100
AcDbLine
 10
11913.43968492464
 20
7207.764862831455
 30
0.0
 11
9363.439684924639
 21
7207.764862831455
 31
0.0
  0
TEXT
  5
14754
330
747D
100
AcDbEntity
  8
文字
 62
     7
 48
50.0
100
AcDbText
 10
9731.550575975818
 20
7370.32846866758
 30
0.0
 40
81.11400000000001
  1
妻板
  7
STYLE1
100
AcDbText
  0
LINE
  5
14755
330
747D
100
AcDbEntity
  8
部品1
100
AcDbLine
 10
11913.43968492464
 20
6931.977262831455
 30
0.0
 11
9363.439684924639
 21
6931.977262831455
 31
0.0
  0
TEXT
  5
14756
330
747D
100
AcDbEntity
  8
文字
 62
     7
 48
50.0
100
AcDbText
 10
9444.98505575393
 20
6680.859468667583
 30
0.0
 40
81.11400000000001
  1
PZ→一般構造用角形鋼管(JIS G 3466)
 41
0.9
  7
STYLE1
100
AcDbText
  0
TEXT
  5
14757
330
747D
100
AcDbEntity
  8
文字
 62
     7
 48
50.0
100
AcDbText
 10
9444.985055753763
 20
6405.07186866758
 30
0.0
 40
81.11400000000001
  1
Y10→溶融亜鉛-5％アルミニウム合金めっき鋼板(JIS G 3317)
 41
0.9
  7
STYLE1
100
AcDbText
  0
TEXT
  5
14758
330
747D
100
AcDbEntity
  8
文字
 62
     7
 48
50.0
100
AcDbText
 10
9444.985055753772
 20
6542.965668667583
 30
0.0
 40
81.11400000000001
  1
F12→溶融亜鉛めっき鋼板(JIS G 3302)
  7
STYLE1
100
AcDbText
  0
TEXT
  5
14759
330
747D
100
AcDbEntity
  8
文字
 62
     7
 48
50.0
100
AcDbText
 10
9731.550575975818
 20
6818.753268667584
 30
0.0
 40
81.11400000000001
  1
雨とい(別売)
  7
STYLE1
100
AcDbText
  0
TEXT
  5
1475A
330
747D
100
AcDbEntity
  8
文字
 62
     7
 48
50.0
100
AcDbText
 10
9731.550575975816
 20
7921.903668667578
 30
0.0
 40
81.11400000000001
  1
プレート
  7
STYLE1
100
AcDbText
  0
TEXT
  5
1475B
330
747D
100
AcDbEntity
  8
文字
 62
     7
 48
50.0
100
AcDbText
 10
9731.550575975818
 20
7094.540868667583
 30
0.0
 40
81.11400000000001
  1
屋根パネル
  7
STYLE1
100
AcDbText
  0
LINE
  5
1475C
330
747D
100
AcDbEntity
  8
部品1
100
AcDbLine
 10
11913.43968492464
 20
6794.083462831455
 30
0.0
 11
9363.439684924641
 21
6794.083462831458
 31
0.0
  0
LINE
  5
1475D
330
747D
100
AcDbEntity
  8
部品1
100
AcDbLine
 10
11913.43968492464
 20
8173.021462831455
 30
0.0
 11
9363.439684924639
 21
8173.021462831455
 31
0.0
  0
LINE
  5
1475E
330
747D
100
AcDbEntity
  8
部品1
100
AcDbLine
 10
11913.43968492464
 20
6380.402062831453
 30
0.0
 11
11913.43968492464
 21
8173.021462831455
 31
0.0
  0
LINE
  5
1475F
330
747D
100
AcDbEntity
  8
部品1
100
AcDbLine
 10
10678.88460492464
 20
8173.021462831451
 30
0.0
 11
10678.88460492464
 21
6794.083462831455
 31
0.0
  0
LINE
  5
14760
330
747D
100
AcDbEntity
  8
部品1
100
AcDbLine
 10
9656.180915204814
 20
8173.021462831455
 30
0.0
 11
9656.180915204824
 21
6794.083462831456
 31
0.0
  0
LINE
  5
14761
330
747D
100
AcDbEntity
  8
部品1
100
AcDbLine
 10
11913.43968492464
 20
8035.127662831452
 30
0.0
 11
9363.439684924639
 21
8035.127662831454
 31
0.0
  0
LINE
  5
14762
330
747D
100
AcDbEntity
  8
部品1
100
AcDbLine
 10
11913.43968492464
 20
7759.340062831455
 30
0.0
 11
9363.439684924639
 21
7759.340062831454
 31
0.0
  0
LINE
  5
14763
330
747D
100
AcDbEntity
  8
部品1
100
AcDbLine
 10
11913.43968492464
 20
7897.233862831455
 30
0.0
 11
9363.439684924639
 21
7897.233862831455
 31
0.0
  0
LINE
  5
14764
330
747D
100
AcDbEntity
  8
部品1
100
AcDbLine
 10
11913.43968492464
 20
7483.552462831453
 30
0.0
 11
9363.439684924641
 21
7483.552462831453
 31
0.0
  0
LINE
  5
14765
330
747D
100
AcDbEntity
  8
部品1
100
AcDbLine
 10
11913.43968492464
 20
7345.658662831453
 30
0.0
 11
9363.439684924641
 21
7345.658662831453
 31
0.0
  0
LINE
  5
14766
330
747D
100
AcDbEntity
  8
部品1
100
AcDbLine
 10
11913.43968492464
 20
7621.446262831454
 30
0.0
 11
9363.439684924641
 21
7621.446262831454
 31
0.0
  0
TEXT
  5
14767
330
747D
100
AcDbEntity
  8
文字
 62
     7
 48
50.0
100
AcDbText
 10
9418.6995522557
 20
8059.797468667579
 30
0.0
 40
81.11400000000001
  1
品番
  7
STYLE1
100
AcDbText
  0
TEXT
  5
14768
330
747D
100
AcDbEntity
  8
文字
 62
     7
 48
50.0
100
AcDbText
 10
9478.533405355221
 20
7921.903668667579
 30
0.0
 40
81.11400000000001
  1
1
  7
STYLE1
100
AcDbText
  0
TEXT
  5
14769
330
747D
100
AcDbEntity
  8
文字
 62
     7
 48
50.0
100
AcDbText
 10
9478.533405355221
 20
7784.009868667581
 30
0.0
 40
81.11400000000001
  1
2
  7
STYLE1
100
AcDbText
  0
TEXT
  5
1476A
330
747D
100
AcDbEntity
  8
文字
 62
     7
 48
50.0
100
AcDbText
 10
9478.533405355221
 20
7508.222268667579
 30
0.0
 40
81.11400000000001
  1
4
  7
STYLE1
100
AcDbText
  0
TEXT
  5
1476B
330
747D
100
AcDbEntity
  8
文字
 62
     7
 48
50.0
100
AcDbText
 10
9478.533405355221
 20
7646.11606866758
 30
0.0
 40
81.11400000000001
  1
3
  7
STYLE1
100
AcDbText
  0
TEXT
  5
1476C
330
747D
100
AcDbEntity
  8
文字
 62
     7
 48
50.0
100
AcDbText
 10
9871.675540422367
 20
8059.797468667579
 30
0.0
 40
81.11400000000001
  1
部　　品　　名
  7
STYLE1
100
AcDbText
  0
TEXT
  5
1476D
330
747D
100
AcDbEntity
  8
文字
 62
     7
 48
50.0
100
AcDbText
 10
10739.39382073255
 20
8059.797468667579
 30
0.0
 40
81.11400000000001
  1
材料（材質）　　単位mm
  7
STYLE1
100
AcDbText
  0
TEXT
  5
1476E
330
747D
100
AcDbEntity
  8
文字
 62
     7
 48
50.0
100
AcDbText
 10
9731.550575975814
 20
7784.00986866758
 30
0.0
 40
81.11400000000001
  1
柱
  7
STYLE1
100
AcDbText
  0
TEXT
  5
1476F
330
747D
100
AcDbEntity
  8
文字
 62
     7
 48
50.0
100
AcDbText
 10
9731.55057597582
 20
7646.116068667582
 30
0.0
 40
81.11400000000001
  1
梁
  7
STYLE1
100
AcDbText
  0
TEXT
  5
14770
330
747D
100
AcDbEntity
  8
文字
 62
     7
 48
50.0
100
AcDbText
 10
9731.550575975818
 20
6956.647068667582
 30
0.0
 40
81.11400000000001
  1
鼻隠シ
  7
STYLE1
100
AcDbText
  0
TEXT
  5
14771
330
747D
100
AcDbEntity
  8
文字
 62
     7
 48
50.0
100
AcDbText
 10
9478.533405355221
 20
7370.328468667579
 30
0.0
 40
81.11400000000001
  1
5
  7
STYLE1
100
AcDbText
  0
TEXT
  5
14772
330
747D
100
AcDbEntity
  8
文字
 62
     7
 48
50.0
100
AcDbText
 10
9478.533405355216
 20
6956.64706866758
 30
0.0
 40
81.11400000000001
  1
8
  7
STYLE1
100
AcDbText
  0
TEXT
  5
14773
330
747D
100
AcDbEntity
  8
文字
 62
     7
 48
50.0
100
AcDbText
 10
9478.533405355216
 20
7094.54086866758
 30
0.0
 40
81.11400000000001
  1
7
  7
STYLE1
100
AcDbText
  0
TEXT
  5
14774
330
747D
100
AcDbEntity
  8
文字
 62
     7
 48
50.0
100
AcDbText
 10
9478.533405355221
 20
7232.434668667579
 30
0.0
 40
81.11400000000001
  1
6
  7
STYLE1
100
AcDbText
  0
LINE
  5
14775
330
747D
100
AcDbEntity
  8
部品1
100
AcDbLine
 10
11913.43968492464
 20
6518.295862831452
 30
0.0
 11
9363.439684924639
 21
6518.295862831452
 31
0.0
  0
LINE
  5
14776
330
747D
100
AcDbEntity
  8
部品1
100
AcDbLine
 10
11913.43968492464
 20
6380.402062831453
 30
0.0
 11
9363.439684924641
 21
6380.402062831453
 31
0.0
  0
LINE
  5
14777
330
747D
100
AcDbEntity
  8
部品1
100
AcDbLine
 10
11913.43968492464
 20
7069.871062831454
 30
0.0
 11
9363.439684924639
 21
7069.871062831454
 31
0.0
  0
LINE
  5
14778
330
747D
100
AcDbEntity
  8
部品1
100
AcDbLine
 10
11913.43968492464
 20
6656.189662831454
 30
0.0
 11
9363.439684924641
 21
6656.189662831455
 31
0.0
  0
TEXT
  5
14779
330
747D
100
AcDbEntity
  8
文字
 62
     7
 48
50.0
100
AcDbText
 10
10871.48140647464
 20
7784.00986866758
 30
0.0
 40
81.11400000000001
  1
PZ            2.3
  7
STYLE1
100
AcDbText
  0
TEXT
  5
1477A
330
747D
100
AcDbEntity
  8
文字
 62
     7
 48
50.0
100
AcDbText
 10
10871.48140647464
 20
6818.753268667579
 30
0.0
 40
81.11400000000001
  1
硬質塩化ビニール
  7
STYLE1
100
AcDbText
  0
LINE
  5
1477B
330
747D
100
AcDbEntity
  8
部品1
100
AcDbLine
 10
9363.439684924641
 20
8173.021462831455
 30
0.0
 11
9363.439684924642
 21
6380.402062831454
 31
0.0
  0
TEXT
  5
1477C
330
747D
100
AcDbEntity
  8
文字
 62
     7
 48
50.0
100
AcDbText
 10
10871.48140647464
 20
7508.22226866758
 30
0.0
 40
81.11400000000001
  1
F12            1.6
  7
STYLE1
100
AcDbText
  0
TEXT
  5
1477D
330
747D
100
AcDbEntity
  8
文字
 62
     7
 48
50.0
100
AcDbText
 10
9731.55057597582
 20
7508.22226866758
 30
0.0
 40
81.11400000000001
  1
母屋
  7
STYLE1
100
AcDbText
  0
TEXT
  5
1477E
330
747D
100
AcDbEntity
  8
文字
 62
     7
 48
50.0
100
AcDbText
 10
10871.48140647463
 20
7646.116068667582
 30
0.0
 40
81.11400000000001
  1
PZ            2.3
  7
STYLE1
100
AcDbText
  0
TEXT
  5
1477F
330
747D
100
AcDbEntity
  8
文字
 62
     7
 48
50.0
100
AcDbText
 10
10855.39650188426
 20
7094.540868667583
 30
0.0
 40
81.11400000000001
  1
Y10            0.5
  7
STYLE1
100
AcDbText
  0
TEXT
  5
14780
330
747D
100
AcDbEntity
  8
文字
 62
     7
 48
50.0
100
AcDbText
 10
10855.39650188426
 20
7370.32846866758
 30
0.0
 40
81.11400000000001
  1
Y10            0.7
  7
STYLE1
100
AcDbText
  0
TEXT
  5
14781
330
747D
100
AcDbEntity
  8
文字
 62
     7
 48
50.0
100
AcDbText
 10
10855.39650188426
 20
6956.647068667582
 30
0.0
 40
81.11400000000001
  1
Y10            0.7
  7
STYLE1
100
AcDbText
  0
TEXT
  5
14782
330
747D
100
AcDbEntity
  8
文字
 62
     7
 48
50.0
100
AcDbText
 10
10871.48140647464
 20
7921.903668667578
 30
0.0
 40
81.11400000000001
  1
F12            2.3
  7
STYLE1
100
AcDbText
  0
LINE
  5
147A4
330
747D
100
AcDbEntity
  8
点線
 48
50.0
100
AcDbLine
 10
3636.601216531194
 20
7693.947238448385
 30
0.0
 11
6994.31201972442
 21
7693.947238448385
 31
0.0
  0
LINE
  5
147A5
330
747D
100
AcDbEntity
  8
点線
 48
50.0
100
AcDbLine
 10
3779.695273611606
 20
6943.947238448385
 30
0.0
 11
6994.31201972442
 21
6943.947238448385
 31
0.0
  0
LINE
  5
147A6
330
747D
100
AcDbEntity
  8
点線
 48
50.0
100
AcDbLine
 10
4038.525005177876
 20
6193.947238448386
 30
0.0
 11
6994.312019724418
 21
6193.947238448384
 31
0.0
  0
LINE
  5
147A7
330
747D
100
AcDbEntity
  8
点線
 48
18.0
100
AcDbLine
 10
958.3120197244193
 20
7693.947238448385
 30
0.0
 11
912.3120197244192
 21
7693.947238448385
 31
0.0
  0
LINE
  5
147A8
330
747D
100
AcDbEntity
  8
点線
 48
18.0
100
AcDbLine
 10
958.3120197244193
 20
6943.947238448382
 30
0.0
 11
912.312019724419
 21
6943.947238448382
 31
0.0
  0
LINE
  5
147A9
330
747D
100
AcDbEntity
  8
点線
 48
18.0
100
AcDbLine
 10
958.3120197244193
 20
6193.947238448386
 30
0.0
 11
912.3120197244189
 21
6193.947238448386
 31
0.0
  0
LINE
  5
147AA
330
747D
100
AcDbEntity
  8
点線
 48
18.0
100
AcDbLine
 10
1091.312019724419
 20
7713.947238448385
 30
0.0
 11
1091.312019724419
 21
7693.947238448385
 31
0.0
  0
LINE
  5
147AB
330
747D
100
AcDbEntity
  8
点線
 48
18.0
100
AcDbLine
 10
1155.312019724419
 20
7713.947238448385
 30
0.0
 11
1155.312019724419
 21
7693.947238448385
 31
0.0
  0
LINE
  5
147AC
330
747D
100
AcDbEntity
  8
点線
 48
18.0
100
AcDbLine
 10
1093.312019724419
 20
7648.947238448385
 30
0.0
 11
1093.312019724419
 21
7693.947238448385
 31
0.0
  0
LINE
  5
147AD
330
747D
100
AcDbEntity
  8
点線
 48
18.0
100
AcDbLine
 10
1153.312019724419
 20
7648.947238448385
 30
0.0
 11
1153.312019724419
 21
7693.947238448385
 31
0.0
  0
LINE
  5
147AE
330
747D
100
AcDbEntity
  8
点線
 48
18.0
100
AcDbLine
 10
1093.312019724419
 20
6213.947238448385
 30
0.0
 11
1093.312019724419
 21
6148.947238448386
 31
0.0
  0
LINE
  5
147AF
330
747D
100
AcDbEntity
  8
点線
 48
18.0
100
AcDbLine
 10
1153.312019724419
 20
6213.947238448385
 30
0.0
 11
1153.312019724419
 21
6148.947238448386
 31
0.0
  0
LINE
  5
147B0
330
747D
100
AcDbEntity
  8
点線
 48
18.0
100
AcDbLine
 10
1093.312019724419
 20
6963.947238448382
 30
0.0
 11
1093.312019724419
 21
6898.947238448385
 31
0.0
  0
LINE
  5
147B1
330
747D
100
AcDbEntity
  8
点線
 48
18.0
100
AcDbLine
 10
1153.312019724419
 20
6963.947238448382
 30
0.0
 11
1153.312019724419
 21
6898.947238448385
 31
0.0
  0
LINE
  5
147B4
330
747D
100
AcDbEntity
  8
点線
 48
18.0
100
AcDbLine
 10
3923.31201972442
 20
6148.947238448386
 30
0.0
 11
3923.31201972442
 21
6213.947238448384
 31
0.0
  0
LINE
  5
147B5
330
747D
100
AcDbEntity
  8
点線
 48
18.0
100
AcDbLine
 10
3983.312019724419
 20
6213.947238448384
 30
0.0
 11
3983.312019724419
 21
6148.947238448386
 31
0.0
  0
LINE
  5
147B9
330
747D
100
AcDbEntity
  8
部品1
 48
50.0
100
AcDbLine
 10
3953.31201972442
 20
6148.947238448386
 30
0.0
 11
3953.31201972442
 21
6213.947238448385
 31
0.0
  0
LINE
  5
147BA
330
747D
100
AcDbEntity
  8
点線
 48
18.0
100
AcDbLine
 10
3953.312019724419
 20
7648.947238448383
 30
0.0
 11
3953.312019724419
 21
7713.947238448382
 31
0.0
  0
LINE
  5
147BB
330
747D
100
AcDbEntity
  8
点線
 48
18.0
100
AcDbLine
 10
3953.312019724418
 20
6898.947238448385
 30
0.0
 11
3953.312019724419
 21
6963.947238448381
 31
0.0
  0
LINE
  5
14814
330
747D
100
AcDbEntity
  8
センター
 48
50.0
100
AcDbLine
 10
1123.312019724419
 20
2100.562576328023
 30
0.0
 11
1123.312019724419
 21
1710.562576328023
 31
0.0
  0
LINE
  5
14815
330
747D
100
AcDbEntity
  8
センター
 48
50.0
100
AcDbLine
 10
3953.312019724423
 20
2100.562576328023
 30
0.0
 11
3953.312019724423
 21
1710.562576328023
 31
0.0
  0
LINE
  5
14816
330
747D
100
AcDbEntity
  8
センター
 48
50.0
100
AcDbLine
 10
6783.312019724423
 20
2100.562576328018
 30
0.0
 11
6783.312019724423
 21
1710.562576328018
 31
0.0
  0
LINE
  5
14842
330
747D
100
AcDbEntity
  8
部品1
 48
50.0
100
AcDbLine
 10
3953.312019724419
 20
3977.04655556636
 30
0.0
 11
3953.312019724419
 21
3970.897875741638
 31
0.0
  0
LINE
  5
1484E
330
747D
100
AcDbEntity
  8
点線
 48
18.0
100
AcDbLine
 10
6994.312019724418
 20
7713.94723844839
 30
0.0
 11
6994.312019724418
 21
7648.947238448387
 31
0.0
  0
LINE
  5
1484F
330
747D
100
AcDbEntity
  8
点線
 48
18.0
100
AcDbLine
 10
912.3120197244196
 20
7713.947238448387
 30
0.0
 11
912.3120197244196
 21
7648.947238448385
 31
0.0
  0
LINE
  5
14850
330
747D
100
AcDbEntity
  8
点線
 48
18.0
100
AcDbLine
 10
912.3120197244192
 20
6963.947238448382
 30
0.0
 11
912.312019724419
 21
6898.947238448385
 31
0.0
  0
LINE
  5
14851
330
747D
100
AcDbEntity
  8
点線
 48
18.0
100
AcDbLine
 10
912.3120197244189
 20
6213.947238448386
 30
0.0
 11
912.3120197244189
 21
6148.947238448385
 31
0.0
  0
LINE
  5
14853
330
747D
100
AcDbEntity
  8
点線
 48
18.0
100
AcDbLine
 10
6994.312019724418
 20
6963.947238448383
 30
0.0
 11
6994.312019724418
 21
6898.947238448386
 31
0.0
  0
LINE
  5
14854
330
747D
100
AcDbEntity
  8
点線
 48
18.0
100
AcDbLine
 10
6994.312019724417
 20
6213.947238448387
 30
0.0
 11
6994.312019724417
 21
6148.947238448386
 31
0.0
  0
LINE
  5
14B5B
330
747D
100
AcDbEntity
  8
部品1
 48
50.0
100
AcDbLine
 10
6815.312019724423
 20
3968.897875741637
 30
0.0
 11
6815.312019724423
 21
3909.348694766933
 31
0.0
  0
LINE
  5
14B5C
330
747D
100
AcDbEntity
  8
部品1
 48
50.0
100
AcDbLine
 10
6751.312019724423
 20
3968.897875741637
 30
0.0
 11
6751.312019724423
 21
3909.348694766933
 31
0.0
  0
LINE
  5
14B5D
330
747D
100
AcDbEntity
  8
部品1
 48
50.0
100
AcDbLine
 10
6828.312019724423
 20
3548.431828606204
 30
0.0
 11
6828.312019724423
 21
1880.562576328022
 31
0.0
  0
LINE
  5
14B5E
330
747D
100
AcDbEntity
  8
部品1
 48
50.0
100
AcDbLine
 10
6738.312019724424
 20
3548.431828606204
 30
0.0
 11
6738.312019724424
 21
1880.562576328022
 31
0.0
  0
LINE
  5
14B62
330
747D
100
AcDbEntity
  8
点線
 48
18.0
100
AcDbLine
 10
6828.312019724423
 20
1880.562576328022
 30
0.0
 11
6828.312019724423
 21
1830.562576328022
 31
0.0
  0
LINE
  5
14B63
330
747D
100
AcDbEntity
  8
点線
 48
18.0
100
AcDbLine
 10
6738.312019724424
 20
1880.562576328022
 30
0.0
 11
6738.312019724424
 21
1830.562576328022
 31
0.0
  0
ARC
  5
14B67
330
747D
100
AcDbEntity
  8
部品1
 48
50.0
100
AcDbCircle
 10
6813.281944376765
 20
3865.301258266919
 30
0.0
 40
2.0
100
AcDbArc
 50
270.0
 51
0.0
  0
LINE
  5
14B68
330
747D
100
AcDbEntity
  8
部品1
 48
50.0
100
AcDbLine
 10
6815.281944376765
 20
3909.003156253742
 30
0.0
 11
6815.281944376765
 21
3865.301258266919
 31
0.0
  0
LINE
  5
14B69
330
747D
100
AcDbEntity
  8
部品1
 48
50.0
100
AcDbLine
 10
6813.281944376765
 20
3863.301258266918
 30
0.0
 11
6803.281944376765
 21
3863.301258266918
 31
0.0
  0
LINE
  5
14B6A
330
747D
100
AcDbEntity
  8
細線
 48
50.0
100
AcDbLine
 10
6815.312019724423
 20
3922.897875741639
 30
0.0
 11
6751.312019724423
 21
3922.897875741637
 31
0.0
  0
LINE
  5
14B6B
330
747D
100
AcDbEntity
  8
細線
 48
50.0
100
AcDbLine
 10
6815.312019724423
 20
3932.897875741639
 30
0.0
 11
6751.312019724423
 21
3932.897875741637
 31
0.0
  0
ARC
  5
14B6C
330
747D
100
AcDbEntity
  8
部品1
 48
50.0
100
AcDbCircle
 10
6753.312019724423
 20
3909.348694766933
 30
0.0
 40
2.0
100
AcDbArc
 50
180.0
 51
270.0
  0
ARC
  5
14B6D
330
747D
100
AcDbEntity
  8
部品1
 48
50.0
100
AcDbCircle
 10
6813.312019724424
 20
3909.348694766933
 30
0.0
 40
2.0
100
AcDbArc
 50
270.0
 51
0.0
  0
LINE
  5
14B6E
330
747D
100
AcDbEntity
  8
部品1
 48
50.0
100
AcDbLine
 10
6813.312019724424
 20
3907.348694766934
 30
0.0
 11
6753.312019724423
 21
3907.348694766934
 31
0.0
  0
LINE
  5
14B6F
330
747D
100
AcDbEntity
  8
部品1
 48
50.0
100
AcDbLine
 10
6763.312019724423
 20
3698.431828606209
 30
0.0
 11
6733.312019724424
 21
3698.431828606209
 31
0.0
  0
LINE
  5
14B70
330
747D
100
AcDbEntity
  8
部品1
 48
50.0
100
AcDbLine
 10
6803.312019724423
 20
3907.348694766935
 30
0.0
 11
6803.312019724423
 21
3548.431828606207
 31
0.0
  0
LINE
  5
14B71
330
747D
100
AcDbEntity
  8
部品1
 48
50.0
100
AcDbLine
 10
6763.312019724423
 20
3907.348694766935
 30
0.0
 11
6763.312019724423
 21
3548.431828606207
 31
0.0
  0
LINE
  5
14B72
330
747D
100
AcDbEntity
  8
部品1
 48
50.0
100
AcDbLine
 10
6833.312019724424
 20
3548.431828606207
 30
0.0
 11
6833.312019724424
 21
3698.431828606209
 31
0.0
  0
LINE
  5
14B73
330
747D
100
AcDbEntity
  8
部品1
 48
50.0
100
AcDbLine
 10
6733.312019724424
 20
3548.431828606207
 30
0.0
 11
6733.312019724424
 21
3698.431828606209
 31
0.0
  0
LINE
  5
14B74
330
747D
100
AcDbEntity
  8
部品1
 48
50.0
100
AcDbLine
 10
6783.312019724424
 20
3907.348694766935
 30
0.0
 11
6783.312019724424
 21
3548.431828606207
 31
0.0
  0
LINE
  5
14B75
330
747D
100
AcDbEntity
  8
部品1
 48
50.0
100
AcDbLine
 10
6833.312019724423
 20
3548.431828606206
 30
0.0
 11
6733.312019724424
 21
3548.431828606204
 31
0.0
  0
LINE
  5
14B76
330
747D
100
AcDbEntity
  8
部品1
 48
50.0
100
AcDbLine
 10
6833.312019724424
 20
3698.431828606209
 30
0.0
 11
6803.312019724423
 21
3698.431828606209
 31
0.0
  0
LINE
  5
14B7B
330
747D
100
AcDbEntity
  8
細線
 48
50.0
100
AcDbLine
 10
6815.312019724423
 20
3944.897875741639
 30
0.0
 11
6751.312019724423
 21
3944.897875741637
 31
0.0
  0
LINE
  5
14B7C
330
747D
100
AcDbEntity
  8
細線
 48
50.0
100
AcDbLine
 10
6815.312019724423
 20
3954.897875741637
 30
0.0
 11
6751.312019724423
 21
3954.897875741637
 31
0.0
  0
ARC
  5
14B7D
330
747D
100
AcDbEntity
  8
部品1
 48
50.0
100
AcDbCircle
 10
6813.312019724424
 20
3968.897875741637
 30
0.0
 40
2.0
100
AcDbArc
 50
0.0
 51
90.0
  0
ARC
  5
14B7E
330
747D
100
AcDbEntity
  8
部品1
 48
50.0
100
AcDbCircle
 10
6753.312019724423
 20
3968.897875741637
 30
0.0
 40
2.0
100
AcDbArc
 50
90.0
 51
180.0
  0
LINE
  5
14B7F
330
747D
100
AcDbEntity
  8
部品1
 48
50.0
100
AcDbLine
 10
6813.312019724424
 20
3970.897875741638
 30
0.0
 11
6753.312019724423
 21
3970.897875741638
 31
0.0
  0
ARC
  5
14C82
330
747D
100
AcDbEntity
  8
部品1
 48
50.0
100
AcDbCircle
 10
6753.342095072082
 20
3865.301258266919
 30
0.0
 40
2.0
100
AcDbArc
 50
180.0
 51
270.0
  0
LINE
  5
14C83
330
747D
100
AcDbEntity
  8
部品1
 48
50.0
100
AcDbLine
 10
6751.342095072081
 20
3909.003156253742
 30
0.0
 11
6751.342095072081
 21
3865.301258266919
 31
0.0
  0
LINE
  5
14C84
330
747D
100
AcDbEntity
  8
部品1
 48
50.0
100
AcDbLine
 10
6753.342095072082
 20
3863.301258266918
 30
0.0
 11
6763.342095072082
 21
3863.301258266918
 31
0.0
  0
LINE
  5
14EFE
330
747D
100
AcDbEntity
  8
部品1
 48
50.0
100
AcDbLine
 10
3985.312019724424
 20
3968.897875741637
 30
0.0
 11
3985.312019724424
 21
3909.348694766933
 31
0.0
  0
LINE
  5
14EFF
330
747D
100
AcDbEntity
  8
部品1
 48
50.0
100
AcDbLine
 10
3921.312019724424
 20
3968.897875741637
 30
0.0
 11
3921.312019724424
 21
3909.348694766933
 31
0.0
  0
LINE
  5
14F00
330
747D
100
AcDbEntity
  8
部品1
 48
50.0
100
AcDbLine
 10
3998.312019724423
 20
3548.431828606204
 30
0.0
 11
3998.312019724423
 21
1880.562576328022
 31
0.0
  0
LINE
  5
14F01
330
747D
100
AcDbEntity
  8
部品1
 48
50.0
100
AcDbLine
 10
3908.312019724423
 20
3548.431828606204
 30
0.0
 11
3908.312019724423
 21
1880.562576328022
 31
0.0
  0
LINE
  5
14F02
330
747D
100
AcDbEntity
  8
点線
 48
18.0
100
AcDbLine
 10
3998.312019724423
 20
1880.562576328022
 30
0.0
 11
3998.312019724423
 21
1830.562576328022
 31
0.0
  0
LINE
  5
14F03
330
747D
100
AcDbEntity
  8
点線
 48
18.0
100
AcDbLine
 10
3908.312019724423
 20
1880.562576328022
 30
0.0
 11
3908.312019724423
 21
1830.562576328022
 31
0.0
  0
ARC
  5
14F04
330
747D
100
AcDbEntity
  8
部品1
 48
50.0
100
AcDbCircle
 10
3983.281944376765
 20
3865.301258266919
 30
0.0
 40
2.0
100
AcDbArc
 50
270.0
 51
0.0
  0
LINE
  5
14F05
330
747D
100
AcDbEntity
  8
部品1
 48
50.0
100
AcDbLine
 10
3985.281944376765
 20
3909.003156253742
 30
0.0
 11
3985.281944376765
 21
3865.301258266919
 31
0.0
  0
LINE
  5
14F06
330
747D
100
AcDbEntity
  8
部品1
 48
50.0
100
AcDbLine
 10
3983.281944376765
 20
3863.301258266918
 30
0.0
 11
3973.281944376765
 21
3863.301258266918
 31
0.0
  0
LINE
  5
14F07
330
747D
100
AcDbEntity
  8
細線
 48
50.0
100
AcDbLine
 10
3985.312019724424
 20
3922.897875741639
 30
0.0
 11
3921.312019724424
 21
3922.897875741637
 31
0.0
  0
LINE
  5
14F08
330
747D
100
AcDbEntity
  8
細線
 48
50.0
100
AcDbLine
 10
3985.312019724424
 20
3932.897875741639
 30
0.0
 11
3921.312019724424
 21
3932.897875741637
 31
0.0
  0
ARC
  5
14F09
330
747D
100
AcDbEntity
  8
部品1
 48
50.0
100
AcDbCircle
 10
3923.312019724424
 20
3909.348694766933
 30
0.0
 40
2.0
100
AcDbArc
 50
180.0
 51
270.0
  0
ARC
  5
14F0A
330
747D
100
AcDbEntity
  8
部品1
 48
50.0
100
AcDbCircle
 10
3983.312019724424
 20
3909.348694766933
 30
0.0
 40
2.0
100
AcDbArc
 50
270.0
 51
0.0
  0
LINE
  5
14F0B
330
747D
100
AcDbEntity
  8
部品1
 48
50.0
100
AcDbLine
 10
3983.312019724424
 20
3907.348694766934
 30
0.0
 11
3923.312019724424
 21
3907.348694766934
 31
0.0
  0
LINE
  5
14F0C
330
747D
100
AcDbEntity
  8
部品1
 48
50.0
100
AcDbLine
 10
3933.312019724424
 20
3698.431828606209
 30
0.0
 11
3903.312019724424
 21
3698.431828606209
 31
0.0
  0
LINE
  5
14F0D
330
747D
100
AcDbEntity
  8
部品1
 48
50.0
100
AcDbLine
 10
3973.312019724423
 20
3907.348694766935
 30
0.0
 11
3973.312019724423
 21
3548.431828606207
 31
0.0
  0
LINE
  5
14F0E
330
747D
100
AcDbEntity
  8
部品1
 48
50.0
100
AcDbLine
 10
3933.312019724424
 20
3907.348694766935
 30
0.0
 11
3933.312019724424
 21
3548.431828606207
 31
0.0
  0
LINE
  5
14F0F
330
747D
100
AcDbEntity
  8
部品1
 48
50.0
100
AcDbLine
 10
4003.312019724424
 20
3548.431828606207
 30
0.0
 11
4003.312019724424
 21
3698.431828606209
 31
0.0
  0
LINE
  5
14F10
330
747D
100
AcDbEntity
  8
部品1
 48
50.0
100
AcDbLine
 10
3903.312019724424
 20
3548.431828606207
 30
0.0
 11
3903.312019724424
 21
3698.431828606209
 31
0.0
  0
LINE
  5
14F11
330
747D
100
AcDbEntity
  8
部品1
 48
50.0
100
AcDbLine
 10
3953.312019724424
 20
3907.348694766935
 30
0.0
 11
3953.312019724424
 21
3548.431828606207
 31
0.0
  0
LINE
  5
14F12
330
747D
100
AcDbEntity
  8
部品1
 48
50.0
100
AcDbLine
 10
4003.312019724422
 20
3548.431828606206
 30
0.0
 11
3903.312019724424
 21
3548.431828606204
 31
0.0
  0
LINE
  5
14F13
330
747D
100
AcDbEntity
  8
部品1
 48
50.0
100
AcDbLine
 10
4003.312019724424
 20
3698.431828606209
 30
0.0
 11
3973.312019724423
 21
3698.431828606209
 31
0.0
  0
LINE
  5
14F14
330
747D
100
AcDbEntity
  8
細線
 48
50.0
100
AcDbLine
 10
3985.312019724424
 20
3944.897875741639
 30
0.0
 11
3921.312019724424
 21
3944.897875741637
 31
0.0
  0
LINE
  5
14F15
330
747D
100
AcDbEntity
  8
細線
 48
50.0
100
AcDbLine
 10
3985.312019724424
 20
3954.897875741637
 30
0.0
 11
3921.312019724424
 21
3954.897875741637
 31
0.0
  0
ARC
  5
14F16
330
747D
100
AcDbEntity
  8
部品1
 48
50.0
100
AcDbCircle
 10
3983.312019724424
 20
3968.897875741637
 30
0.0
 40
2.0
100
AcDbArc
 50
0.0
 51
90.0
  0
ARC
  5
14F17
330
747D
100
AcDbEntity
  8
部品1
 48
50.0
100
AcDbCircle
 10
3923.312019724424
 20
3968.897875741637
 30
0.0
 40
2.0
100
AcDbArc
 50
90.0
 51
180.0
  0
LINE
  5
14F18
330
747D
100
AcDbEntity
  8
部品1
 48
50.0
100
AcDbLine
 10
3983.312019724424
 20
3970.897875741638
 30
0.0
 11
3923.312019724424
 21
3970.897875741638
 31
0.0
  0
ARC
  5
14F19
330
747D
100
AcDbEntity
  8
部品1
 48
50.0
100
AcDbCircle
 10
3923.342095072082
 20
3865.301258266919
 30
0.0
 40
2.0
100
AcDbArc
 50
180.0
 51
270.0
  0
LINE
  5
14F1A
330
747D
100
AcDbEntity
  8
部品1
 48
50.0
100
AcDbLine
 10
3921.342095072083
 20
3909.003156253742
 30
0.0
 11
3921.342095072083
 21
3865.301258266919
 31
0.0
  0
LINE
  5
14F1B
330
747D
100
AcDbEntity
  8
部品1
 48
50.0
100
AcDbLine
 10
3923.342095072082
 20
3863.301258266918
 30
0.0
 11
3933.342095072082
 21
3863.301258266918
 31
0.0
  0
LINE
  5
14F1C
330
747D
100
AcDbEntity
  8
部品1
 48
50.0
100
AcDbLine
 10
1155.312019724423
 20
3968.897875741637
 30
0.0
 11
1155.312019724423
 21
3909.348694766933
 31
0.0
  0
LINE
  5
14F1D
330
747D
100
AcDbEntity
  8
部品1
 48
50.0
100
AcDbLine
 10
1091.312019724423
 20
3968.897875741637
 30
0.0
 11
1091.312019724423
 21
3909.348694766933
 31
0.0
  0
LINE
  5
14F1E
330
747D
100
AcDbEntity
  8
部品1
 48
50.0
100
AcDbLine
 10
1168.312019724423
 20
3548.431828606204
 30
0.0
 11
1168.312019724423
 21
1880.562576328022
 31
0.0
  0
LINE
  5
14F1F
330
747D
100
AcDbEntity
  8
部品1
 48
50.0
100
AcDbLine
 10
1078.312019724423
 20
3548.431828606204
 30
0.0
 11
1078.312019724423
 21
1880.562576328022
 31
0.0
  0
ARC
  5
14F20
330
747D
100
AcDbEntity
  8
部品1
 48
50.0
100
AcDbCircle
 10
1153.281944376765
 20
3865.301258266919
 30
0.0
 40
2.0
100
AcDbArc
 50
270.0
 51
0.0
  0
LINE
  5
14F21
330
747D
100
AcDbEntity
  8
部品1
 48
50.0
100
AcDbLine
 10
1155.281944376765
 20
3909.003156253742
 30
0.0
 11
1155.281944376765
 21
3865.301258266919
 31
0.0
  0
LINE
  5
14F22
330
747D
100
AcDbEntity
  8
部品1
 48
50.0
100
AcDbLine
 10
1153.281944376765
 20
3863.301258266918
 30
0.0
 11
1143.281944376765
 21
3863.301258266918
 31
0.0
  0
LINE
  5
14F23
330
747D
100
AcDbEntity
  8
細線
 48
50.0
100
AcDbLine
 10
1155.312019724423
 20
3922.897875741639
 30
0.0
 11
1091.312019724423
 21
3922.897875741637
 31
0.0
  0
LINE
  5
14F24
330
747D
100
AcDbEntity
  8
細線
 48
50.0
100
AcDbLine
 10
1155.312019724423
 20
3932.897875741639
 30
0.0
 11
1091.312019724423
 21
3932.897875741637
 31
0.0
  0
ARC
  5
14F25
330
747D
100
AcDbEntity
  8
部品1
 48
50.0
100
AcDbCircle
 10
1093.312019724423
 20
3909.348694766933
 30
0.0
 40
2.0
100
AcDbArc
 50
180.0
 51
270.0
  0
ARC
  5
14F26
330
747D
100
AcDbEntity
  8
部品1
 48
50.0
100
AcDbCircle
 10
1153.312019724423
 20
3909.348694766933
 30
0.0
 40
2.0
100
AcDbArc
 50
270.0
 51
0.0
  0
LINE
  5
14F27
330
747D
100
AcDbEntity
  8
部品1
 48
50.0
100
AcDbLine
 10
1153.312019724423
 20
3907.348694766934
 30
0.0
 11
1093.312019724423
 21
3907.348694766934
 31
0.0
  0
LINE
  5
14F28
330
747D
100
AcDbEntity
  8
部品1
 48
50.0
100
AcDbLine
 10
1103.312019724423
 20
3698.431828606209
 30
0.0
 11
1073.312019724423
 21
3698.431828606209
 31
0.0
  0
LINE
  5
14F29
330
747D
100
AcDbEntity
  8
部品1
 48
50.0
100
AcDbLine
 10
1143.312019724423
 20
3907.348694766935
 30
0.0
 11
1143.312019724423
 21
3548.431828606207
 31
0.0
  0
LINE
  5
14F2A
330
747D
100
AcDbEntity
  8
部品1
 48
50.0
100
AcDbLine
 10
1103.312019724423
 20
3907.348694766935
 30
0.0
 11
1103.312019724423
 21
3548.431828606207
 31
0.0
  0
LINE
  5
14F2B
330
747D
100
AcDbEntity
  8
部品1
 48
50.0
100
AcDbLine
 10
1173.312019724423
 20
3548.431828606207
 30
0.0
 11
1173.312019724423
 21
3698.431828606209
 31
0.0
  0
LINE
  5
14F2C
330
747D
100
AcDbEntity
  8
部品1
 48
50.0
100
AcDbLine
 10
1073.312019724423
 20
3548.431828606207
 30
0.0
 11
1073.312019724423
 21
3698.431828606209
 31
0.0
  0
LINE
  5
14F2D
330
747D
100
AcDbEntity
  8
部品1
 48
50.0
100
AcDbLine
 10
1123.312019724423
 20
3907.348694766935
 30
0.0
 11
1123.312019724423
 21
3548.431828606207
 31
0.0
  0
LINE
  5
14F2E
330
747D
100
AcDbEntity
  8
部品1
 48
50.0
100
AcDbLine
 10
1173.312019724422
 20
3548.431828606206
 30
0.0
 11
1073.312019724423
 21
3548.431828606204
 31
0.0
  0
LINE
  5
14F2F
330
747D
100
AcDbEntity
  8
部品1
 48
50.0
100
AcDbLine
 10
1173.312019724423
 20
3698.431828606209
 30
0.0
 11
1143.312019724423
 21
3698.431828606209
 31
0.0
  0
LINE
  5
14F30
330
747D
100
AcDbEntity
  8
細線
 48
50.0
100
AcDbLine
 10
1155.312019724423
 20
3944.897875741639
 30
0.0
 11
1091.312019724423
 21
3944.897875741637
 31
0.0
  0
LINE
  5
14F31
330
747D
100
AcDbEntity
  8
細線
 48
50.0
100
AcDbLine
 10
1155.312019724423
 20
3954.897875741637
 30
0.0
 11
1091.312019724423
 21
3954.897875741637
 31
0.0
  0
ARC
  5
14F32
330
747D
100
AcDbEntity
  8
部品1
 48
50.0
100
AcDbCircle
 10
1153.312019724423
 20
3968.897875741637
 30
0.0
 40
2.0
100
AcDbArc
 50
0.0
 51
90.0
  0
ARC
  5
14F33
330
747D
100
AcDbEntity
  8
部品1
 48
50.0
100
AcDbCircle
 10
1093.312019724423
 20
3968.897875741637
 30
0.0
 40
2.0
100
AcDbArc
 50
90.0
 51
180.0
  0
LINE
  5
14F34
330
747D
100
AcDbEntity
  8
部品1
 48
50.0
100
AcDbLine
 10
1153.312019724423
 20
3970.897875741638
 30
0.0
 11
1093.312019724423
 21
3970.897875741638
 31
0.0
  0
ARC
  5
14F35
330
747D
100
AcDbEntity
  8
部品1
 48
50.0
100
AcDbCircle
 10
1093.342095072082
 20
3865.301258266919
 30
0.0
 40
2.0
100
AcDbArc
 50
180.0
 51
270.0
  0
LINE
  5
14F36
330
747D
100
AcDbEntity
  8
部品1
 48
50.0
100
AcDbLine
 10
1091.342095072082
 20
3909.003156253742
 30
0.0
 11
1091.342095072082
 21
3865.301258266919
 31
0.0
  0
LINE
  5
14F37
330
747D
100
AcDbEntity
  8
部品1
 48
50.0
100
AcDbLine
 10
1093.342095072082
 20
3863.301258266918
 30
0.0
 11
1103.342095072082
 21
3863.301258266918
 31
0.0
  0
LINE
  5
14FE9
330
747D
100
AcDbEntity
  8
細線
 48
50.0
100
AcDbLine
 10
4733.312019724419
 20
7817.947238448386
 30
0.0
 11
4733.312019724419
 21
6014.947238448385
 31
0.0
  0
LINE
  5
14FEA
330
747D
100
AcDbEntity
  8
細線
 48
50.0
100
AcDbLine
 10
4688.312019724419
 20
7817.947238448386
 30
0.0
 11
4688.312019724419
 21
6014.947238448385
 31
0.0
  0
LINE
  5
14FEB
330
747D
100
AcDbEntity
  8
細線
 48
50.0
100
AcDbLine
 10
4761.312019724419
 20
7817.947238448386
 30
0.0
 11
4761.312019724419
 21
6014.947238448385
 31
0.0
  0
LINE
  5
14FEC
330
747D
100
AcDbEntity
  8
細線
 48
50.0
100
AcDbLine
 10
4806.312019724419
 20
7817.947238448386
 30
0.0
 11
4806.312019724419
 21
6014.947238448385
 31
0.0
  0
LINE
  5
14FED
330
747D
100
AcDbEntity
  8
部品1
 48
50.0
100
AcDbLine
 10
4959.812019724419
 20
7817.947238448387
 30
0.0
 11
4959.812019724419
 21
6014.947238448387
 31
0.0
  0
LINE
  5
14FEE
330
747D
100
AcDbEntity
  8
部品1
 48
50.0
100
AcDbLine
 10
4936.812019724419
 20
7817.947238448387
 30
0.0
 11
4936.812019724419
 21
6014.947238448387
 31
0.0
  0
LINE
  5
150A2
330
747D
100
AcDbEntity
  8
部品1
 48
50.0
100
AcDbLine
 10
3923.312019724419
 20
6623.927953852396
 30
0.0
 11
3923.312019724419
 21
6213.947238448385
 31
0.0
  0
LINE
  5
150A3
330
747D
100
AcDbEntity
  8
部品1
 48
50.0
100
AcDbLine
 10
3983.312019724419
 20
6400.004905398262
 30
0.0
 11
3983.312019724419
 21
6213.947238448385
 31
0.0
  0
LINE
  5
150A4
330
747D
100
AcDbEntity
  8
点線
 48
18.0
100
AcDbLine
 10
1168.312019724423
 20
1880.562576328022
 30
0.0
 11
1168.312019724423
 21
1830.562576328022
 31
0.0
  0
LINE
  5
150A5
330
747D
100
AcDbEntity
  8
点線
 48
18.0
100
AcDbLine
 10
1078.312019724423
 20
1880.562576328022
 30
0.0
 11
1078.312019724423
 21
1830.562576328022
 31
0.0
  0
TEXT
  5
150E6
330
747D
100
AcDbEntity
  8
部品1
 48
50.0
100
AcDbText
 10
4949.547150405317
 20
5548.817306627385
 30
0.0
 40
120.0
  1
⑦
  7
STYLE2
100
AcDbText
  0
TEXT
  5
150E7
330
747D
100
AcDbEntity
  8
部品1
 48
50.0
100
AcDbText
 10
4457.775414528816
 20
5556.557967656535
 30
0.0
 40
120.0
  1
⑥
  7
STYLE2
100
AcDbText
  0
LINE
  5
150E8
330
747D
100
AcDbEntity
  8
寸法
 48
50.0
100
AcDbLine
 10
4052.949896571899
 20
6406.527216707161
 30
0.0
 11
4504.764524539594
 21
5688.400172114351
 31
0.0
  0
LINE
  5
150E9
330
747D
100
AcDbEntity
  8
寸法
 48
50.0
100
AcDbLine
 10
1622.527477087992
 20
5688.400172114351
 30
0.0
 11
1731.192440939416
 21
5973.627135450357
 31
0.0
  0
TEXT
  5
150EA
330
747D
100
AcDbEntity
  8
部品1
 48
50.0
100
AcDbText
 10
1497.471423782698
 20
5549.487076344806
 30
0.0
 40
120.0
  1
⑧
  7
STYLE2
100
AcDbText
  0
TEXT
  5
150EB
330
747D
100
AcDbEntity
  8
部品1
 48
50.0
100
AcDbText
 10
502.8268041113546
 20
7375.036835556165
 30
0.0
 40
120.0
  1
③
  7
STYLE2
100
AcDbText
  0
LINE
  5
150EC
330
747D
100
AcDbEntity
  8
寸法
 48
50.0
100
AcDbLine
 10
659.8295038930404
 20
7395.640877233573
 30
0.0
 11
1123.961996199321
 21
7140.723527947156
 31
0.0
  0
TEXT
  5
150ED
330
747D
100
AcDbEntity
  8
部品1
 48
50.0
100
AcDbText
 10
491.4582982434967
 20
6644.274144580257
 30
0.0
 40
120.0
  1
④
  7
STYLE2
100
AcDbText
  0
LINE
  5
150EE
330
747D
100
AcDbEntity
  8
寸法
 48
50.0
100
AcDbLine
 10
657.2889112747561
 20
6723.208236041424
 30
0.0
 11
1027.821283416206
 21
6909.372979141963
 31
0.0
  0
LINE
  5
150EF
330
747D
100
AcDbEntity
  8
寸法
 48
50.0
100
AcDbLine
 10
5006.545469216364
 20
5688.400172114351
 30
0.0
 11
4875.657324477915
 21
6081.748608073926
 31
0.0
  0
LWPOLYLINE
  5
15236
330
747D
100
AcDbEntity
  8
部品1
100
AcDbPolyline
 90
        4
 70
     1
 43
0.0
 10
9646.802948105836
 20
1334.534755452345
 10
10293.83432338636
 20
1334.534755452345
 10
10293.83432338636
 20
1142.014599635205
 10
9646.802948105836
 20
1142.014599635205
  0
TEXT
  5
15237
330
747D
100
AcDbEntity
  8
仕様書枠
 62
     7
 48
50.0
100
AcDbText
 10
9678.218024867369
 20
1180.670031102163
 30
0.0
 40
112.0
  1
側 面 図
  7
STYLE2
100
AcDbText
  0
DIMENSION
  5
15238
330
747D
100
AcDbEntity
  8
寸法
 48
50.0
100
AcDbDimension
  2
*D12
 10
8578.41197127796
 20
3990.382911937196
 30
0.0
 11
8580.480317262514
 21
4052.940265229842
 31
0.0
 70
   160
 71
     5
 42
103.5000000000018
 51
2.290610042638495
  3
INABA_S30G
100
AcDbAlignedDimension
 13
8891.589054744432
 23
4081.438595505008
 33
0.0
 14
8911.820880548937
 24
3977.046555566357
 34
0.0
 50
87.70938995736043
100
AcDbRotatedDimension
1001
ACAD
1000
DSTYLE
1002
{
1070
   279
1070
     1
1002
}
  0
LINE
  5
15239
330
747D
100
AcDbEntity
  8
部品1
 48
50.0
100
AcDbLine
 10
9060.458767172601
 20
3964.809746433056
 30
0.0
 11
9071.373020412629
 21
3916.04829606438
 31
0.0
  0
LINE
  5
1523A
330
747D
100
AcDbEntity
  8
細線
 48
50.0
100
AcDbLine
 10
10841.58289002782
 20
3958.552410122878
 30
0.0
 11
10832.48049560403
 21
3931.894914532924
 31
0.0
  0
LINE
  5
1523B
330
747D
100
AcDbEntity
  8
部品1
 48
50.0
100
AcDbLine
 10
10813.62740872577
 20
4004.557061345754
 30
0.0
 11
10809.49071675666
 21
3901.139762118051
 31
0.0
  0
LINE
  5
1523C
330
747D
100
AcDbEntity
  8
部品1
 48
50.0
100
AcDbLine
 10
10875.18480888674
 20
3982.803502035396
 30
0.0
 11
10851.61119757492
 21
3913.765245690325
 31
0.0
  0
LINE
  5
1523D
330
747D
100
AcDbEntity
  8
細線
 48
50.0
100
AcDbLine
 10
8923.34319623516
 20
4001.105255105173
 30
0.0
 11
10822.61729874216
 21
3925.134291004894
 31
0.0
  0
LINE
  5
1523E
330
747D
100
AcDbEntity
  8
部品1
 48
50.0
100
AcDbLine
 10
9855.50591451539
 20
3939.299154207699
 30
0.0
 11
9853.02789613776
 21
3877.348694766949
 31
0.0
  0
LINE
  5
1523F
330
747D
100
AcDbEntity
  8
部品1
 48
50.0
100
AcDbLine
 10
9896.473153822979
 20
3937.660464635398
 30
0.0
 11
9893.995135445351
 21
3875.710005194647
 31
0.0
  0
LINE
  5
15240
330
747D
100
AcDbEntity
  8
部品1
 48
50.0
100
AcDbLine
 10
9146.473153822979
 20
3967.660464635398
 30
0.0
 11
9143.995135445349
 21
3905.710005194647
 31
0.0
  0
LINE
  5
15241
330
747D
100
AcDbEntity
  8
部品1
 48
50.0
100
AcDbLine
 10
9105.50591451539
 20
3969.299154207699
 30
0.0
 11
9103.027896137758
 21
3907.348694766949
 31
0.0
  0
LINE
  5
15242
330
747D
100
AcDbEntity
  8
部品1
 48
50.0
100
AcDbLine
 10
8911.820880548937
 20
3977.046555566359
 30
0.0
 11
10831.88480385119
 21
3900.243998634268
 31
0.0
  0
LINE
  5
15243
330
747D
100
AcDbEntity
  8
細線
 48
50.0
100
AcDbLine
 10
10142.20563560314
 20
1830.562576328018
 30
0.0
 11
10189.47082271766
 21
1877.827763442532
 31
0.0
  0
LINE
  5
15244
330
747D
100
AcDbEntity
  8
細線
 48
50.0
100
AcDbLine
 10
10115.26485560314
 20
1830.562576328018
 30
0.0
 11
10162.7967831137
 21
1878.094503838573
 31
0.0
  0
LINE
  5
15245
330
747D
100
AcDbEntity
  8
部品1
 48
50.0
100
AcDbLine
 10
10865.99003413168
 20
1871.062571328392
 30
0.0
 11
9920.989534169185
 21
1880.562576328018
 31
0.0
  0
LINE
  5
15246
330
747D
100
AcDbEntity
  8
部品1
 48
50.0
100
AcDbLine
 10
10740.98953416918
 20
3852.060422000174
 30
0.0
 11
9980.468325569644
 21
3573.43348837045
 31
0.0
  0
LINE
  5
15247
330
747D
100
AcDbEntity
  8
部品1
 48
50.0
100
AcDbLine
 10
10000.98953416918
 20
3487.051931123295
 30
0.0
 11
10000.98953416918
 21
1962.099725102279
 31
0.0
  0
LINE
  5
15248
330
747D
100
AcDbEntity
  8
部品1
 48
50.0
100
AcDbLine
 10
9940.989534169185
 20
3517.051931123296
 30
0.0
 11
9940.989534169185
 21
1962.099725102281
 31
0.0
  0
LINE
  5
15249
330
747D
100
AcDbEntity
  8
部品1
 48
50.0
100
AcDbLine
 10
9920.989534169185
 20
3548.431828606203
 30
0.0
 11
9920.989534169185
 21
1880.562576328018
 31
0.0
  0
LINE
  5
1524A
330
747D
100
AcDbEntity
  8
部品1
 48
50.0
100
AcDbLine
 10
9830.989534169184
 20
3548.431828606202
 30
0.0
 11
9830.989534169184
 21
1880.562576328018
 31
0.0
  0
LINE
  5
1524B
330
747D
100
AcDbEntity
  8
部品1
 48
50.0
100
AcDbLine
 10
8885.989034206684
 20
1871.062571328392
 30
0.0
 11
9830.989534169184
 21
1880.562576328018
 31
0.0
  0
LINE
  5
1524C
330
747D
100
AcDbEntity
  8
細線
 48
50.0
100
AcDbLine
 10
8965.397194527698
 20
1830.562576328018
 30
0.0
 11
9007.108383016166
 21
1872.273764816486
 31
0.0
  0
LINE
  5
1524D
330
747D
100
AcDbEntity
  8
細線
 48
50.0
100
AcDbLine
 10
9019.278754527698
 20
1830.562576328018
 30
0.0
 11
9061.534201197984
 21
1872.818022998305
 31
0.0
  0
LINE
  5
1524E
330
747D
100
AcDbEntity
  8
細線
 48
50.0
100
AcDbLine
 10
8992.337974527698
 20
1830.562576328018
 30
0.0
 11
9034.321292107071
 21
1872.545893907395
 31
0.0
  0
LINE
  5
1524F
330
747D
100
AcDbEntity
  8
部品1
 48
50.0
100
AcDbLine
 10
8885.989034206684
 20
1871.062571328392
 30
0.0
 11
8875.989534169184
 21
1860.962576328017
 31
0.0
  0
LINE
  5
15250
330
747D
100
AcDbEntity
  8
部品1
 48
50.0
100
AcDbLine
 10
8875.989534169184
 20
1860.962576328017
 30
0.0
 11
8875.989534169184
 21
1830.562576328018
 31
0.0
  0
LINE
  5
15251
330
747D
100
AcDbEntity
  8
細線
 48
50.0
100
AcDbLine
 10
9638.916415244676
 20
1830.562576328018
 30
0.0
 11
9687.430828184824
 21
1879.076989268173
 31
0.0
  0
LINE
  5
15252
330
747D
100
AcDbEntity
  8
細線
 48
50.0
100
AcDbLine
 10
9611.975635244675
 20
1830.562576328018
 30
0.0
 11
9660.217919093916
 21
1878.804860177264
 31
0.0
  0
LINE
  5
15253
330
747D
100
AcDbEntity
  8
細線
 48
50.0
100
AcDbLine
 10
9665.857195244676
 20
1830.562576328018
 30
0.0
 11
9714.643737275736
 21
1879.349118359082
 31
0.0
  0
LINE
  5
15254
330
747D
100
AcDbEntity
  8
部品1
 48
50.0
100
AcDbLine
 10
9920.9895341692
 20
1880.562576328018
 30
0.0
 11
9830.989534169184
 21
1880.562576328017
 31
0.0
  0
LINE
  5
15255
330
747D
100
AcDbEntity
  8
部品1
 48
50.0
100
AcDbLine
 10
9920.9895341692
 20
1880.562576328018
 30
0.0
 11
9830.989534169184
 21
1880.562576328017
 31
0.0
  0
LINE
  5
15256
330
747D
100
AcDbEntity
  8
点線
 48
18.0
100
AcDbLine
 10
9830.989534169184
 20
1880.562576328018
 30
0.0
 11
9830.989534169184
 21
1830.562576328018
 31
0.0
  0
LINE
  5
15257
330
747D
100
AcDbEntity
  8
点線
 48
18.0
100
AcDbLine
 10
9920.989534169185
 20
1880.562576328018
 30
0.0
 11
9920.989534169185
 21
1830.562576328018
 31
0.0
  0
LINE
  5
15258
330
747D
100
AcDbEntity
  8
部品1
 48
50.0
100
AcDbLine
 10
10002.48953416918
 20
2017.099725102281
 30
0.0
 11
10002.48953416918
 21
1997.099725102281
 31
0.0
  0
CIRCLE
  5
15259
330
747D
100
AcDbEntity
  8
細線
 48
50.0
100
AcDbCircle
 10
9930.989534169185
 20
2007.099725102281
 30
0.0
 40
6.5
  0
LWPOLYLINE
  5
1525A
330
747D
100
AcDbEntity
  8
細線
 48
50.0
100
AcDbPolyline
 90
        6
 70
     1
 43
0.0
 10
9935.989534169186
 20
2009.986476448229
 10
9930.989534169185
 20
2012.873227794178
 10
9925.989534169184
 20
2009.986476448229
 10
9925.989534169184
 20
2004.212973756333
 10
9930.989534169185
 20
2001.326222410385
 10
9935.989534169186
 20
2004.212973756333
  0
LINE
  5
1525B
330
747D
100
AcDbEntity
  8
部品1
 48
50.0
100
AcDbLine
 10
10002.48953416918
 20
2017.099725102281
 30
0.0
 11
9920.989534169185
 21
2017.099725102281
 31
0.0
  0
LINE
  5
1525C
330
747D
100
AcDbEntity
  8
部品1
 48
50.0
100
AcDbLine
 10
10002.48953416918
 20
1997.099725102281
 30
0.0
 11
9920.989534169185
 21
1997.099725102281
 31
0.0
  0
LINE
  5
1525D
330
747D
100
AcDbEntity
  8
細線
 48
50.0
100
AcDbLine
 10
10000.98953416918
 20
1987.099725102279
 30
0.0
 11
9940.989534169188
 21
1987.099725102281
 31
0.0
  0
LINE
  5
1525E
330
747D
100
AcDbEntity
  8
部品1
 48
50.0
100
AcDbLine
 10
10022.60246444727
 20
1954.233261805796
 30
0.0
 11
10007.80577938163
 21
1898.960681704365
 31
0.0
  0
LINE
  5
1525F
330
747D
100
AcDbEntity
  8
細線
 48
50.0
100
AcDbLine
 10
10000.98953416918
 20
1962.099725102279
 30
0.0
 11
9980.468325569647
 21
1905.718167855127
 31
0.0
  0
ARC
  5
15260
330
747D
100
AcDbEntity
  8
部品1
 48
50.0
100
AcDbCircle
 10
10000.98953416918
 20
1962.099725102281
 30
0.0
 40
60.0
100
AcDbArc
 50
180.0
 51
250.0000000000108
  0
LINE
  5
15261
330
747D
100
AcDbEntity
  8
部品1
 48
50.0
100
AcDbLine
 10
10000.98953416918
 20
1962.099725102279
 30
0.0
 11
10022.60246444727
 21
1954.233261805796
 31
0.0
  0
LINE
  5
15262
330
747D
100
AcDbEntity
  8
部品1
 48
50.0
100
AcDbLine
 10
9981.494385999631
 20
1908.537245717485
 30
0.0
 11
10007.80577938163
 21
1898.960681704363
 31
0.0
  0
LINE
  5
15263
330
747D
100
AcDbEntity
  8
部品1
 48
50.0
100
AcDbLine
 10
9830.989534169184
 20
1880.562576328017
 30
0.0
 11
9920.9895341692
 21
1880.562576328018
 31
0.0
  0
LINE
  5
15264
330
747D
100
AcDbEntity
  8
寸法
 48
50.0
100
AcDbLine
 10
9864.85440825432
 20
3053.479328790708
 30
0.0
 11
9542.532645768512
 21
2950.961752276536
 31
0.0
  0
TEXT
  5
15265
330
747D
100
AcDbEntity
  8
部品1
 48
50.0
100
AcDbText
 10
9379.01890924771
 20
2859.633061031461
 30
0.0
 40
120.0
  1
②
  7
STYLE2
100
AcDbText
  0
LINE
  5
15266
330
747D
100
AcDbEntity
  8
寸法
 48
50.0
100
AcDbLine
 10
9699.722085112725
 20
3717.204366634967
 30
0.0
 11
9463.231111984951
 21
3528.724526267487
 31
0.0
  0
LINE
  5
15267
330
747D
100
AcDbEntity
  8
部品1
 48
50.0
100
AcDbLine
 10
9144.075071522046
 20
3907.708407112089
 30
0.0
 11
9536.676661830025
 21
3892.004343499769
 31
0.0
  0
TEXT
  5
15268
330
747D
100
AcDbEntity
  8
部品1
 48
50.0
100
AcDbText
 10
9309.197538003187
 20
3423.513162927392
 30
0.0
 40
120.0
  1
①
  7
STYLE2
100
AcDbText
  0
LINE
  5
15269
330
747D
100
AcDbEntity
  8
部品1
 48
50.0
100
AcDbLine
 10
9080.731877633477
 20
3908.240535507098
 30
0.0
 11
9103.027896137758
 21
3907.348694766929
 31
0.0
  0
ARC
  5
1526A
330
747D
100
AcDbEntity
  8
部品1
 48
50.0
100
AcDbCircle
 10
9081.131558016965
 20
3918.232545094316
 30
0.0
 40
10.0
100
AcDbArc
 50
192.6165368012866
 51
267.7093899573604
  0
LINE
  5
1526B
330
747D
100
AcDbEntity
  8
部品1
 48
50.0
100
AcDbLine
 10
9103.027896137758
 20
3907.348694766949
 30
0.0
 11
9143.995135445349
 21
3905.710005194645
 31
0.0
  0
LINE
  5
1526C
330
747D
100
AcDbEntity
  8
部品1
 48
50.0
100
AcDbLine
 10
9670.222136069501
 20
3886.662524530191
 30
0.0
 11
9853.107832214456
 21
3879.347096684392
 31
0.0
  0
LINE
  5
1526D
330
747D
100
AcDbEntity
  8
部品1
 48
50.0
100
AcDbLine
 10
9830.989534169184
 20
3548.431828606202
 30
0.0
 11
9920.989534169185
 21
3548.431828606203
 31
0.0
  0
CIRCLE
  5
1526E
330
747D
100
AcDbEntity
  8
細線
 48
50.0
100
AcDbCircle
 10
9930.989534169185
 20
3497.051931123296
 30
0.0
 40
6.5
  0
LWPOLYLINE
  5
1526F
330
747D
100
AcDbEntity
  8
細線
 48
50.0
100
AcDbPolyline
 90
        6
 70
     1
 43
0.0
 10
9935.989534169186
 20
3499.938682469245
 10
9930.989534169185
 20
3502.825433815193
 10
9925.989534169184
 20
3499.938682469245
 10
9925.989534169184
 20
3494.165179777348
 10
9930.989534169185
 20
3491.2784284314
 10
9935.989534169186
 20
3494.165179777348
  0
LINE
  5
15270
330
747D
100
AcDbEntity
  8
部品1
 48
50.0
100
AcDbLine
 10
10002.48953416918
 20
3507.051931123296
 30
0.0
 11
10002.48953416918
 21
3487.051931123295
 31
0.0
  0
LINE
  5
15271
330
747D
100
AcDbEntity
  8
部品1
 48
50.0
100
AcDbLine
 10
10002.48953416918
 20
3487.051931123295
 30
0.0
 11
9920.989534169185
 21
3487.051931123295
 31
0.0
  0
LINE
  5
15272
330
747D
100
AcDbEntity
  8
部品1
 48
50.0
100
AcDbLine
 10
10002.48953416918
 20
3507.051931123296
 30
0.0
 11
9920.989534169185
 21
3507.051931123296
 31
0.0
  0
LINE
  5
15273
330
747D
100
AcDbEntity
  8
細線
 48
50.0
100
AcDbLine
 10
10024.48184968883
 20
3525.602434706437
 30
0.0
 11
10003.96064108929
 21
3581.983991953591
 31
0.0
  0
LINE
  5
15274
330
747D
100
AcDbEntity
  8
細線
 48
50.0
100
AcDbLine
 10
10000.98953416918
 20
3517.051931123296
 30
0.0
 11
9940.989534169185
 21
3517.051931123296
 31
0.0
  0
ARC
  5
15275
330
747D
100
AcDbEntity
  8
部品1
 48
50.0
100
AcDbCircle
 10
10000.98953416918
 20
3517.051931123296
 30
0.0
 40
60.0
100
AcDbArc
 50
109.9999999999892
 51
180.0
  0
LINE
  5
15276
330
747D
100
AcDbEntity
  8
部品1
 48
50.0
100
AcDbLine
 10
10000.98953416918
 20
3517.051931123296
 30
0.0
 11
10000.98953416918
 21
3507.051931123296
 31
0.0
  0
LINE
  5
15277
330
747D
100
AcDbEntity
  8
部品1
 48
50.0
100
AcDbLine
 10
9894.075071522053
 20
3877.708407112089
 30
0.0
 11
10072.36571812064
 21
3870.576781248146
 31
0.0
  0
LINE
  5
15278
330
747D
100
AcDbEntity
  8
部品1
 48
50.0
100
AcDbLine
 10
9853.02789613776
 20
3877.348694766947
 30
0.0
 11
9893.995135445356
 21
3875.710005194644
 31
0.0
  0
LINE
  5
15279
330
747D
100
AcDbEntity
  8
細線
 48
50.0
100
AcDbLine
 10
10815.72485632012
 20
1830.562576328018
 30
0.0
 11
10856.32153629882
 21
1871.159256306721
 31
0.0
  0
LINE
  5
1527A
330
747D
100
AcDbEntity
  8
細線
 48
50.0
100
AcDbLine
 10
10788.78407632012
 20
1830.562576328018
 30
0.0
 11
10829.64749669486
 21
1871.42599670276
 31
0.0
  0
LINE
  5
1527B
330
747D
100
AcDbEntity
  8
細線
 48
50.0
100
AcDbLine
 10
10169.14641560314
 20
1830.562576328018
 30
0.0
 11
10216.14486232162
 21
1877.561023046493
 31
0.0
  0
LINE
  5
1527C
330
747D
100
AcDbEntity
  8
細線
 48
50.0
100
AcDbLine
 10
10761.84329632012
 20
1830.562576328018
 30
0.0
 11
10802.9734570909
 21
1871.6927370988
 31
0.0
  0
LINE
  5
1527D
330
747D
100
AcDbEntity
  8
部品1
 48
50.0
100
AcDbLine
 10
10875.98953416918
 20
1860.962576328017
 30
0.0
 11
10875.98953416918
 21
1830.562576328018
 31
0.0
  0
LINE
  5
1527E
330
747D
100
AcDbEntity
  8
部品1
 48
50.0
100
AcDbLine
 10
10865.99003413168
 20
1871.062571328392
 30
0.0
 11
10875.98953416918
 21
1860.962576328017
 31
0.0
  0
LINE
  5
1527F
330
747D
100
AcDbEntity
  8
部品1
 48
50.0
100
AcDbLine
 10
10192.20661596683
 20
3865.7831453343
 30
0.0
 11
10603.10783221446
 21
3849.347096684392
 31
0.0
  0
LINE
  5
15280
330
747D
100
AcDbEntity
  8
細線
 48
50.0
100
AcDbLine
 10
10740.98953416918
 20
3877.060422000167
 30
0.0
 11
10800.98953416918
 21
3877.060422000165
 31
0.0
  0
LINE
  5
15281
330
747D
100
AcDbEntity
  8
細線
 48
50.0
100
AcDbLine
 10
10740.98953416918
 20
3852.060422000172
 30
0.0
 11
10761.51074276872
 21
3795.678864753015
 31
0.0
  0
LINE
  5
15282
330
747D
100
AcDbEntity
  8
部品1
 48
50.0
100
AcDbLine
 10
10656.28374521178
 20
3755.783103142373
 30
0.0
 11
10637.48989279606
 21
3748.94270027586
 31
0.0
  0
LWPOLYLINE
  5
15283
330
747D
100
AcDbEntity
  8
細線
 48
50.0
100
AcDbPolyline
 90
        6
 70
     1
 43
0.0
 10
10627.43237875614
 20
3822.43767544126
 10
10622.43237875614
 20
3825.324426787208
 10
10617.43237875614
 20
3822.43767544126
 10
10617.43237875614
 20
3816.664172749364
 10
10622.43237875614
 20
3813.777421403415
 10
10627.43237875614
 20
3816.664172749364
  0
CIRCLE
  5
15284
330
747D
100
AcDbEntity
  8
細線
 48
50.0
100
AcDbCircle
 10
10622.43237875614
 20
3819.55092409531
 30
0.0
 40
6.5
  0
ARC
  5
15285
330
747D
100
AcDbEntity
  8
部品1
 48
50.0
100
AcDbCircle
 10
10612.7763491207
 20
3825.614016679104
 30
0.0
 40
3.0
100
AcDbArc
 50
109.9999999999892
 51
200.0000000000104
  0
LINE
  5
15286
330
747D
100
AcDbEntity
  8
部品1
 48
50.0
100
AcDbLine
 10
10612.79487672955
 20
3828.813293494664
 30
0.0
 11
10611.75028869073
 21
3828.433094541462
 31
0.0
  0
LINE
  5
15287
330
747D
100
AcDbEntity
  8
部品1
 48
50.0
100
AcDbLine
 10
10622.43237875614
 20
3819.55092409531
 30
0.0
 11
10622.43237875614
 21
3819.55092409531
 31
0.0
  0
LINE
  5
15288
330
747D
100
AcDbEntity
  8
部品1
 48
50.0
100
AcDbLine
 10
10632.5031307687
 20
3821.119804345503
 30
0.0
 11
10656.28374521178
 21
3755.783103142373
 31
0.0
  0
LINE
  5
15289
330
747D
100
AcDbEntity
  8
部品1
 48
50.0
100
AcDbLine
 10
10609.95727125835
 20
3824.587956249128
 30
0.0
 11
10637.48989279606
 21
3748.94270027586
 31
0.0
  0
ARC
  5
1528A
330
747D
100
AcDbEntity
  8
部品1
 48
50.0
100
AcDbCircle
 10
10622.47234679448
 20
3820.550125054032
 30
0.0
 40
10.0
100
AcDbArc
 50
177.7093899573614
 51
357.7093899573615
  0
LINE
  5
1528B
330
747D
100
AcDbEntity
  8
部品1
 48
50.0
100
AcDbLine
 10
10633.50352537877
 20
3846.12966959731
 30
0.0
 11
10632.42438834335
 21
3819.151243711823
 31
0.0
  0
LINE
  5
1528C
330
747D
100
AcDbEntity
  8
部品1
 48
50.0
100
AcDbLine
 10
10613.51950620434
 20
3846.929030364287
 30
0.0
 11
10612.44036916892
 21
3819.950604478799
 31
0.0
  0
ARC
  5
1528D
330
747D
100
AcDbEntity
  8
部品1
 48
50.0
100
AcDbCircle
 10
10740.98953416918
 20
3852.060422000169
 30
0.0
 40
60.0
100
AcDbArc
 50
289.9999999999892
 51
0.0
  0
LINE
  5
1528E
330
747D
100
AcDbEntity
  8
部品1
 48
50.0
100
AcDbLine
 10
10800.98953416918
 20
3901.479809421547
 30
0.0
 11
10800.98953416918
 21
3852.060422000169
 31
0.0
  0
LINE
  5
1528F
330
747D
100
AcDbEntity
  8
部品1
 48
50.0
100
AcDbLine
 10
10740.98953416918
 20
3903.879809421548
 30
0.0
 11
10740.98953416918
 21
3852.060422000172
 31
0.0
  0
ARC
  5
15290
330
747D
100
AcDbEntity
  8
部品1
 48
50.0
100
AcDbCircle
 10
10666.69083433312
 20
3854.810174041693
 30
0.0
 40
10.0
100
AcDbArc
 50
267.7093899573604
 51
342.8022431134319
  0
LINE
  5
15291
330
747D
100
AcDbEntity
  8
部品1
 48
50.0
100
AcDbLine
 10
10666.29115394963
 20
3844.818164454474
 30
0.0
 11
10643.99513544535
 21
3845.710005194646
 31
0.0
  0
LINE
  5
15292
330
747D
100
AcDbEntity
  8
部品1
 48
50.0
100
AcDbLine
 10
10691.01780167149
 20
3899.587385053126
 30
0.0
 11
10676.24373371588
 21
3851.853467532273
 31
0.0
  0
ARC
  5
15293
330
747D
100
AcDbEntity
  8
部品1
 48
50.0
100
AcDbCircle
 10
10686.24135198011
 20
3901.065738307835
 30
0.0
 40
5.0
100
AcDbArc
 50
342.8022431134319
 51
87.70938995736043
  0
LINE
  5
15294
330
747D
100
AcDbEntity
  8
部品1
 48
50.0
100
AcDbLine
 10
10603.02789613776
 20
3847.348694766951
 30
0.0
 11
10643.99513544535
 21
3845.710005194646
 31
0.0
  0
LINE
  5
15295
330
747D
100
AcDbEntity
  8
部品1
 48
50.0
100
AcDbLine
 10
10646.47315382298
 20
3907.660464635398
 30
0.0
 11
10643.99513544535
 21
3845.710005194646
 31
0.0
  0
LINE
  5
15296
330
747D
100
AcDbEntity
  8
部品1
 48
50.0
100
AcDbLine
 10
10605.50591451539
 20
3909.299154207702
 30
0.0
 11
10603.02789613776
 21
3847.348694766949
 31
0.0
  0
ARC
  5
15297
330
747D
100
AcDbEntity
  8
細線
 48
50.0
100
AcDbCircle
 10
10823.01697912565
 20
3935.126300592113
 30
0.0
 40
10.0
100
AcDbArc
 50
267.7093899573604
 51
341.1471589320522
  0
ARC
  5
15298
330
747D
100
AcDbEntity
  8
部品1
 48
50.0
100
AcDbCircle
 10
10832.68416461817
 20
3920.228017808705
 30
0.0
 40
20.0
100
AcDbArc
 50
267.7093899573604
 51
341.1471589320522
  0
DIMENSION
  5
15299
330
747D
100
AcDbEntity
  8
寸法
 48
50.0
100
AcDbDimension
  2
*D13
 10
10875.98953416918
 20
4906.270106075108
 30
0.0
 11
9875.989534169185
 21
4981.278964342825
 31
0.0
 70
    32
 71
     5
 42
2000.0
  3
INABA_S30G
100
AcDbAlignedDimension
 13
8875.989534169184
 23
4066.450581124182
 33
0.0
 14
10875.98953416918
 24
3987.650581124182
 34
0.0
100
AcDbRotatedDimension
  0
LINE
  5
1529A
330
747D
100
AcDbEntity
  8
細線
 48
50.0
100
AcDbLine
 10
8917.66166972083
 20
4048.370101137765
 30
0.0
 11
10832.51905393294
 21
3971.775805769283
 31
0.0
  0
LINE
  5
1529B
330
747D
100
AcDbEntity
  8
細線
 48
50.0
100
AcDbLine
 10
8922.689013844236
 20
4036.659811049892
 30
0.0
 11
10826.52856178286
 21
3960.506229132348
 31
0.0
  0
LINE
  5
1529C
330
747D
100
AcDbEntity
  8
細線
 48
50.0
100
AcDbLine
 10
8926.769797135017
 20
4012.477387392123
 30
0.0
 11
10820.22049060356
 21
3936.739359653378
 31
0.0
  0
LINE
  5
1529D
330
747D
100
AcDbEntity
  8
部品1
 48
50.0
100
AcDbLine
 10
8891.589054744418
 20
4081.43859550501
 30
0.0
 11
10861.58905474442
 21
4002.638595505009
 31
0.0
  0
LINE
  5
1529E
330
747D
100
AcDbEntity
  8
寸法
 48
50.0
100
AcDbLine
 10
9100.659678986001
 20
4053.222195217855
 30
0.0
 11
8755.392791135532
 21
4403.836152470866
 31
0.0
  0
TEXT
  5
1529F
330
747D
100
AcDbEntity
  8
部品1
 48
50.0
100
AcDbText
 10
8604.03505137677
 20
4396.246359413379
 30
0.0
 40
120.0
  1
⑤
  7
STYLE2
100
AcDbText
  0
ARC
  5
152A0
330
747D
100
AcDbEntity
  8
部品1
 48
50.0
100
AcDbCircle
 10
9065.338035974772
 20
3965.901870948025
 30
0.0
 40
5.0
100
AcDbArc
 50
87.70938995736043
 51
192.6165368012866
  0
ARC
  5
152A1
330
747D
100
AcDbEntity
  8
細線
 48
50.0
100
AcDbCircle
 10
8923.74287661865
 20
4011.097264692394
 30
0.0
 40
10.0
100
AcDbArc
 50
193.3635800495691
 51
267.7093899573604
  0
ARC
  5
152A2
330
747D
100
AcDbEntity
  8
細線
 48
50.0
100
AcDbCircle
 10
8917.26198933734
 20
4038.37809155055
 30
0.0
 40
10.0
100
AcDbArc
 50
87.70938995736043
 51
193.3635800495691
  0
ARC
  5
152A3
330
747D
100
AcDbEntity
  8
細線
 48
50.0
100
AcDbCircle
 10
8926.889701250065
 20
4015.474990268288
 30
0.0
 40
3.0
100
AcDbArc
 50
193.3635800495691
 51
267.7093899573604
  0
ARC
  5
152A4
330
747D
100
AcDbEntity
  8
細線
 48
50.0
100
AcDbCircle
 10
8922.56910972919
 20
4033.662208173725
 30
0.0
 40
3.0
100
AcDbArc
 50
87.70938995736043
 51
193.3635800495564
  0
LINE
  5
152A5
330
747D
100
AcDbEntity
  8
細線
 48
50.0
100
AcDbLine
 10
8919.650340753852
 20
4032.968819632841
 30
0.0
 11
8923.97093227473
 21
4014.781601727402
 31
0.0
  0
LINE
  5
152A6
330
747D
100
AcDbEntity
  8
細線
 48
50.0
100
AcDbLine
 10
8907.532759419563
 20
4036.066796414266
 30
0.0
 11
8914.013646700871
 21
4008.785969556108
 31
0.0
  0
LINE
  5
152A7
330
747D
100
AcDbEntity
  8
部品1
 48
50.0
100
AcDbLine
 10
8939.550700763058
 20
4079.520129664265
 30
0.0
 11
8935.414008793948
 21
3976.10283043656
 31
0.0
  0
LINE
  5
152A8
330
747D
100
AcDbEntity
  8
部品1
 48
50.0
100
AcDbLine
 10
8876.395689292516
 20
4062.983638419756
 30
0.0
 11
8893.161781480362
 21
3992.407984468227
 31
0.0
  0
ARC
  5
152A9
330
747D
100
AcDbEntity
  8
部品1
 48
50.0
100
AcDbCircle
 10
8890.989534169184
 20
4066.450581124182
 30
0.0
 40
15.0
100
AcDbArc
 50
87.70938995736043
 51
193.3635800495564
  0
ARC
  5
152AA
330
747D
100
AcDbEntity
  8
部品1
 48
50.0
100
AcDbCircle
 10
8912.620241315915
 20
3997.030574740794
 30
0.0
 40
20.0
100
AcDbArc
 50
193.3635800495564
 51
267.7093899573604
  0
ARC
  5
152AB
330
747D
100
AcDbEntity
  8
細線
 48
50.0
100
AcDbCircle
 10
10820.34039471861
 20
3939.736962529543
 30
0.0
 40
3.0
100
AcDbArc
 50
267.7093899573604
 51
341.1471589320522
  0
ARC
  5
152AC
330
747D
100
AcDbEntity
  8
細線
 48
50.0
100
AcDbCircle
 10
10826.40865766781
 20
3957.508626256183
 30
0.0
 40
3.0
100
AcDbArc
 50
341.1471589320522
 51
87.70938995736043
  0
ARC
  5
152AD
330
747D
100
AcDbEntity
  8
細線
 48
50.0
100
AcDbCircle
 10
10832.11937354945
 20
3961.783796182067
 30
0.0
 40
10.0
100
AcDbArc
 50
341.1471589320522
 51
87.70938995736043
  0
LINE
  5
152AE
330
747D
100
AcDbEntity
  8
細線
 48
50.0
100
AcDbLine
 10
10829.24771261132
 20
3956.539210438426
 30
0.0
 11
10823.17944966212
 21
3938.767546711787
 31
0.0
  0
ARC
  5
152AF
330
747D
100
AcDbEntity
  8
部品1
 48
50.0
100
AcDbCircle
 10
10860.98953416918
 20
3987.650581124182
 30
0.0
 40
15.0
100
AcDbArc
 50
341.1471589320522
 51
87.70938995736043
  0
DIMENSION
  5
152B0
330
747D
100
AcDbEntity
  8
寸法
 48
50.0
100
AcDbDimension
  2
*D14
 10
8268.11442570883
 20
1880.562576328018
 30
0.0
 11
8268.11442570883
 21
2981.312576328019
 31
0.0
 70
   160
 71
     5
 42
2201.5
  3
INABA_S30G
100
AcDbAlignedDimension
 13
8875.989534169184
 23
4082.062576328018
 33
0.0
 14
8875.989534169184
 24
1880.562576328018
 34
0.0
 50
90.0
100
AcDbRotatedDimension
  0
DIMENSION
  5
152B1
330
747D
100
AcDbEntity
  8
寸法
 48
50.0
100
AcDbDimension
  2
*D15
 10
11251.62698664378
 20
4002.650581124181
 30
0.0
 11
11251.62698664378
 21
2991.672581441363
 31
0.0
 70
   160
  1
2121.5
 71
     5
 42
2122.088004796163
  3
INABA_S30G
100
AcDbAlignedDimension
 13
11160.53027729865
 23
1880.562576328018
 33
0.0
 14
10875.98953416918
 24
4002.650581124181
 34
0.0
 50
90.0
100
AcDbRotatedDimension
  0
DIMENSION
  5
152B2
330
747D
100
AcDbEntity
  8
寸法
 48
50.0
100
AcDbDimension
  2
*D16
 10
8268.11442570883
 20
1880.562576328018
 30
0.0
 11
8268.11442570883
 21
1601.027143257152
 31
0.0
 70
   160
 71
     5
 42
50.00000000000023
  3
INABA_S30G
100
AcDbAlignedDimension
 13
8875.989534169184
 23
1830.562576328018
 33
0.0
 14
9830.989534169184
 24
1880.562576328018
 34
0.0
 50
90.0
100
AcDbRotatedDimension
  0
DIMENSION
  5
152B3
330
747D
100
AcDbEntity
  8
寸法
 48
50.0
100
AcDbDimension
  2
*D17
 10
11251.62698664378
 20
1830.562576328018
 30
0.0
 11
11251.62698664378
 21
1601.027143257152
 31
0.0
 70
   160
 71
     5
 42
50.0
  3
INABA_S30G
100
AcDbAlignedDimension
 13
9920.989534169185
 23
1880.562576328018
 33
0.0
 14
10875.98953416918
 24
1830.562576328018
 34
0.0
 50
90.0
100
AcDbRotatedDimension
  0
TEXT
  5
152B4
330
747D
100
AcDbEntity
  8
部品1
 48
50.0
100
AcDbText
 10
10237.03766245844
 20
2739.156775525036
 30
0.0
 40
120.0
  1
⑨
  7
STYLE2
100
AcDbText
  0
LINE
  5
152B5
330
747D
100
AcDbEntity
  8
寸法
 48
50.0
100
AcDbLine
 10
9971.918162432951
 20
2869.446433548749
 30
0.0
 11
10245.97833520182
 21
2816.194779334884
 31
0.0
  0
TEXT
  5
152B6
330
747D
100
AcDbEntity
  8
部品1
 48
50.0
100
AcDbText
 10
10430.69851791603
 20
2722.946583362416
 30
0.0
 40
80.0
  1
(別売)
  7
STYLE2
100
AcDbText
  0
LINE
  5
152B7
330
747D
100
AcDbEntity
  8
部品1
 48
50.0
100
AcDbLine
 10
10761.51074276872
 20
3795.67886475302
 30
0.0
 11
10655.85197327065
 21
3756.969386800984
 31
0.0
  0
LINE
  5
152B8
330
747D
100
AcDbEntity
  8
部品1
 48
50.0
100
AcDbLine
 10
10637.07256340841
 20
3750.089303344895
 30
0.0
 11
10000.98953416918
 21
3517.051931123296
 31
0.0
  0
LINE
  5
152B9
330
747D
100
AcDbEntity
  8
部品1
100
AcDbLine
 10
9874.189534206042
 20
3698.431828606203
 30
0.0
 11
9830.599534132325
 21
3698.431828606203
 31
0.0
  0
LINE
  5
152BA
330
747D
100
AcDbEntity
  8
部品1
100
AcDbLine
 10
9830.599534132325
 20
3698.431828606203
 30
0.0
 11
9828.289534132323
 21
3698.431828606203
 31
0.0
  0
LINE
  5
152BB
330
747D
100
AcDbEntity
  8
部品1
100
AcDbLine
 10
9537.520616120946
 20
3889.414348994259
 30
0.0
 11
9670.120616120938
 21
3884.114348996249
 31
0.0
  0
ARC
  5
152BC
330
747D
100
AcDbEntity
  8
部品1
100
AcDbCircle
 10
9508.384487828269
 20
3940.384743552844
 30
0.0
 40
9.999999999994312
100
AcDbArc
 50
87.71111557794206
 51
220.5571249050825
  0
LINE
  5
152BD
330
747D
100
AcDbEntity
  8
部品1
100
AcDbLine
 10
9614.762730490605
 20
3946.140807593541
 30
0.0
 11
9508.783867274619
 21
3950.376765173003
 31
0.0
  0
ARC
  5
152BE
330
747D
100
AcDbEntity
  8
部品1
100
AcDbCircle
 10
9613.963971597907
 20
3926.156764353218
 30
0.0
 40
19.99999999999334
100
AcDbArc
 50
40.55712490508248
 51
87.71111557794206
  0
LINE
  5
152BF
330
747D
100
AcDbEntity
  8
部品1
100
AcDbLine
 10
9669.451410299254
 20
3892.079818969481
 30
0.0
 11
9629.159133129565
 21
3939.160881625322
 31
0.0
  0
ARC
  5
152C0
330
747D
100
AcDbEntity
  8
部品1
100
AcDbCircle
 10
9667.172136069503
 20
3890.129201378672
 30
0.0
 40
2.999999999998155
100
AcDbArc
 50
359.9999999998176
 51
40.55712490492563
  0
LINE
  5
152C1
330
747D
100
AcDbEntity
  8
部品1
100
AcDbLine
 10
9500.78690706244
 20
3933.882684916798
 30
0.0
 11
9536.841473361326
 21
3891.753338695007
 31
0.0
  0
LINE
  5
152C2
330
747D
100
AcDbEntity
  8
部品1
100
AcDbLine
 10
9670.172136069503
 20
3884.112289752453
 30
0.0
 11
9670.172136069497
 21
3890.129201378664
 31
0.0
  0
LINE
  5
152C3
330
747D
100
AcDbEntity
  8
部品1
100
AcDbLine
 10
9670.172136069503
 20
3884.112289752453
 30
0.0
 11
9670.120616120938
 21
3884.114348996249
 31
0.0
  0
SPLINE
  5
152C4
330
747D
100
AcDbEntity
  8
部品1
100
AcDbSpline
210
0.0
220
0.0
230
1.0
 70
     8
 71
     3
 72
    11
 73
     7
 74
     0
 42
0.000000001
 43
0.0000000001
 40
0.0
 40
0.0
 40
0.0
 40
0.0
 40
0.0502701813548495
 40
0.0502701813548495
 40
0.0502701813548495
 40
0.0559553392065037
 40
0.0559553392065037
 40
0.0559553392065037
 40
0.0559553392065037
 10
9669.564369931519
 20
3884.036693275754
 30
0.0
 10
9669.562420956452
 20
3884.06714454029
 30
0.0
 10
9669.5615371676
 20
3884.097142119973
 30
0.0
 10
9669.561715604395
 20
3884.126680172429
 30
0.0
 10
9669.561735784178
 20
3884.130020691328
 30
0.0
 10
9669.561769549625
 20
3884.133355332959
 30
0.0
 10
9669.561816872633
 20
3884.136684109483
 30
0.0
  0
ARC
  5
152C5
330
747D
100
AcDbEntity
  8
部品1
100
AcDbCircle
 10
9670.559753371108
 20
3884.132671441048
 30
0.0
 40
1.000000000011771
100
AcDbArc
 50
185.5076218310825
 51
310.5571249035762
  0
LINE
  5
152C6
330
747D
100
AcDbEntity
  8
部品1
100
AcDbLine
 10
9671.317405749578
 20
3883.464866785074
 30
0.0
 11
9671.209959234701
 21
3883.372913364438
 31
0.0
  0
ARC
  5
152C7
330
747D
100
AcDbEntity
  8
部品1
100
AcDbCircle
 10
9829.789534206044
 20
3698.431828606203
 30
0.0
 40
3.000000000001078
100
AcDbArc
 50
134.0144086829471
 51
179.9999999999739
  0
LINE
  5
152C8
330
747D
100
AcDbEntity
  8
部品1
100
AcDbLine
 10
9811.489534169185
 20
3566.354674121937
 30
0.0
 11
9536.96708637028
 21
3887.130998349555
 31
0.0
  0
LINE
  5
152C9
330
747D
100
AcDbEntity
  8
部品1
100
AcDbLine
 10
9673.072446906486
 20
3884.966842330003
 30
0.0
 11
9671.317405749578
 21
3883.464866785074
 31
0.0
  0
LINE
  5
152CA
330
747D
100
AcDbEntity
  8
部品1
100
AcDbLine
 10
9673.072446906486
 20
3884.966842330003
 30
0.0
 11
9829.589906673632
 21
3702.077989982568
 31
0.0
  0
ARC
  5
152CB
330
747D
100
AcDbEntity
  8
細線
100
AcDbCircle
 10
9603.701456390311
 20
3863.750746864061
 30
0.0
 40
2.999999999999984
100
AcDbArc
 50
40.55712490508248
 51
87.7111155787762
  0
ARC
  5
152CC
330
747D
100
AcDbEntity
  8
細線
100
AcDbCircle
 10
9645.94905847051
 20
3862.062117218961
 30
0.0
 40
3.000000000000087
100
AcDbArc
 50
87.7111155787762
 51
220.5571249050825
  0
LINE
  5
152CD
330
747D
100
AcDbEntity
  8
細線
100
AcDbLine
 10
9809.868808362073
 20
3627.460489596334
 30
0.0
 11
9605.980730620057
 21
3865.701364454876
 31
0.0
  0
LINE
  5
152CE
330
747D
100
AcDbEntity
  8
細線
100
AcDbLine
 10
9654.2458275457
 20
3864.7328921608
 30
0.0
 11
9646.068872304372
 21
3865.059723705013
 31
0.0
  0
ARC
  5
152CF
330
747D
100
AcDbEntity
  8
細線
100
AcDbCircle
 10
9595.524501148979
 20
3864.077578408273
 30
0.0
 40
3.000000000000184
100
AcDbArc
 50
87.7111155787762
 51
220.5571249050825
  0
ARC
  5
152D0
330
747D
100
AcDbEntity
  8
細線
100
AcDbCircle
 10
9654.126013711842
 20
3861.735285674749
 30
0.0
 40
3.000000000000184
100
AcDbArc
 50
40.55712490508248
 51
87.7111155787762
  0
LINE
  5
152D1
330
747D
100
AcDbEntity
  8
細線
100
AcDbLine
 10
9593.245226919229
 20
3862.126960817457
 30
0.0
 11
9805.310259902574
 21
3614.331407765135
 31
0.0
  0
ARC
  5
152D2
330
747D
100
AcDbEntity
  8
細線
100
AcDbCircle
 10
9807.589534132324
 20
3625.509872005519
 30
0.0
 40
3.000000000000113
100
AcDbArc
 50
0.0
 51
40.55712490508248
  0
LINE
  5
152D3
330
747D
100
AcDbEntity
  8
細線
100
AcDbLine
 10
9809.868808362073
 20
3684.365543935336
 30
0.0
 11
9656.405287941591
 21
3863.685903265566
 31
0.0
  0
LINE
  5
152D4
330
747D
100
AcDbEntity
  8
細線
100
AcDbLine
 10
9810.589534132324
 20
3616.28202535595
 30
0.0
 11
9810.589534132324
 21
3625.509872005519
 31
0.0
  0
LINE
  5
152D5
330
747D
100
AcDbEntity
  8
細線
100
AcDbLine
 10
9643.66978424076
 20
3860.111499628146
 30
0.0
 11
9805.310259902574
 21
3671.236462104135
 31
0.0
  0
ARC
  5
152D6
330
747D
100
AcDbEntity
  8
細線
100
AcDbCircle
 10
9807.589534132324
 20
3673.187079694952
 30
0.0
 40
3.000000000000076
100
AcDbArc
 50
220.5571249050825
 51
0.0
  0
ARC
  5
152D7
330
747D
100
AcDbEntity
  8
細線
100
AcDbCircle
 10
9807.589534132324
 20
3682.414926344519
 30
0.0
 40
2.999999999999971
100
AcDbArc
 50
0.0
 51
40.55712490508248
  0
LINE
  5
152D8
330
747D
100
AcDbEntity
  8
細線
100
AcDbLine
 10
9603.82127022417
 20
3866.748353350112
 30
0.0
 11
9595.644314982841
 21
3867.075184894324
 31
0.0
  0
ARC
  5
152D9
330
747D
100
AcDbEntity
  8
細線
100
AcDbCircle
 10
9807.589534132324
 20
3616.28202535595
 30
0.0
 40
3.000000000000113
100
AcDbArc
 50
220.5571249050825
 51
0.0
  0
LINE
  5
152DA
330
747D
100
AcDbEntity
  8
細線
100
AcDbLine
 10
9810.589534132324
 20
3673.187079694952
 30
0.0
 11
9810.589534132324
 21
3682.414926344519
 31
0.0
  0
LINE
  5
152DB
330
747D
100
AcDbEntity
  8
部品1
100
AcDbLine
 10
9536.96708637028
 20
3887.130998349555
 30
0.0
 11
9536.946541335117
 21
3887.155004986949
 31
0.0
  0
LINE
  5
152DC
330
747D
100
AcDbEntity
  8
部品1
100
AcDbLine
 10
9536.250052944158
 20
3887.968843664664
 30
0.0
 11
9537.920435999454
 21
3889.398368260055
 31
0.0
  0
LINE
  5
152DD
330
747D
100
AcDbEntity
  8
部品1
100
AcDbLine
 10
9536.946541335117
 20
3887.155004986949
 30
0.0
 11
9536.250052944158
 21
3887.968843664664
 31
0.0
  0
LINE
  5
152DE
330
747D
100
AcDbEntity
  8
部品1
100
AcDbLine
 10
9828.080052945466
 20
3546.968843663432
 30
0.0
 11
9829.78953403165
 21
3548.431828605902
 31
0.0
  0
LINE
  5
152DF
330
747D
100
AcDbEntity
  8
部品1
100
AcDbLine
 10
9828.080052945466
 20
3546.968843663432
 30
0.0
 11
9826.828020992824
 21
3548.431828606203
 31
0.0
  0
LINE
  5
152E0
330
747D
100
AcDbEntity
  8
部品1
100
AcDbLine
 10
9923.689534132321
 20
3698.431828606203
 30
0.0
 11
9921.379534132325
 21
3698.431828606203
 31
0.0
  0
ARC
  5
152E1
330
747D
100
AcDbEntity
  8
部品1
100
AcDbCircle
 10
10128.30283623496
 20
3905.120747431037
 30
0.0
 40
19.99999999999973
100
AcDbArc
 50
87.71111557804619
 51
139.4428750949175
  0
LINE
  5
152E2
330
747D
100
AcDbEntity
  8
部品1
100
AcDbLine
 10
10129.10159512761
 20
3925.104790671367
 30
0.0
 11
10221.03901961721
 21
3921.430067068365
 31
0.0
  0
ARC
  5
152E3
330
747D
100
AcDbEntity
  8
部品1
100
AcDbCircle
 10
10220.63964017088
 20
3911.438045448208
 30
0.0
 40
9.999999999995324
100
AcDbArc
 50
317.4108945522051
 51
87.71111557804619
  0
LINE
  5
152E4
330
747D
100
AcDbEntity
  8
部品1
100
AcDbLine
 10
10228.00189796027
 20
3904.670685531486
 30
0.0
 11
10192.08884598967
 21
3865.600627212554
 31
0.0
  0
LINE
  5
152E5
330
747D
100
AcDbEntity
  8
部品1
100
AcDbLine
 10
10113.10767470329
 20
3918.124864703144
 30
0.0
 11
10070.38182745068
 21
3868.200203382752
 31
0.0
  0
SPLINE
  5
152E6
330
747D
100
AcDbEntity
  8
部品1
100
AcDbSpline
210
0.0
220
0.0
230
1.0
 70
     8
 71
     3
 72
     8
 73
     4
 74
     0
 42
0.000000001
 43
0.0000000001
 40
0.0
 40
0.0
 40
0.0
 40
0.0
 40
0.1419610605075158
 40
0.1419610605075158
 40
0.1419610605075158
 40
0.1419610605075158
 10
10192.08884598967
 20
3865.600627212554
 30
0.0
 10
10192.0645207519
 20
3865.514143322347
 30
0.0
 10
10192.04019846392
 20
3865.427678881338
 30
0.0
 10
10192.01590019434
 20
3865.341778821497
 30
0.0
  0
LINE
  5
152E7
330
747D
100
AcDbEntity
  8
部品1
100
AcDbLine
 10
10071.39781659658
 20
3868.159203394574
 30
0.0
 11
10191.57639610602
 21
3863.309426840473
 31
0.0
  0
LINE
  5
152E8
330
747D
100
AcDbEntity
  8
部品1
100
AcDbLine
 10
10192.01594700205
 20
3865.342938727377
 30
0.0
 11
10191.93330391139
 21
3863.295023915146
 31
0.0
  0
LINE
  5
152E9
330
747D
100
AcDbEntity
  8
部品1
100
AcDbLine
 10
10191.93330391139
 20
3863.295023915146
 30
0.0
 11
10191.57639610602
 21
3863.309426840473
 31
0.0
  0
LINE
  5
152EA
330
747D
100
AcDbEntity
  8
部品1
100
AcDbLine
 10
10067.95038183283
 20
3870.600195783159
 30
0.0
 11
10067.85764139086
 21
3868.302066280624
 31
0.0
  0
LINE
  5
152EB
330
747D
100
AcDbEntity
  8
部品1
100
AcDbLine
 10
10071.39781659658
 20
3868.159203394574
 30
0.0
 11
10067.85764139086
 21
3868.302066280624
 31
0.0
  0
LINE
  5
152EC
330
747D
100
AcDbEntity
  8
部品1
100
AcDbLine
 10
10072.2860214086
 20
3870.425232131172
 30
0.0
 11
10067.95038183283
 21
3870.600195783159
 31
0.0
  0
ARC
  5
152ED
330
747D
100
AcDbEntity
  8
部品1
100
AcDbCircle
 10
9922.189534132318
 20
3698.431828606206
 30
0.0
 40
3.000000000000086
100
AcDbArc
 50
359.999999999974
 51
47.39739526192021
  0
ARC
  5
152EE
330
747D
100
AcDbEntity
  8
部品1
100
AcDbCircle
 10
10068.1195341283
 20
3868.631828606449
 30
0.0
 40
1.800000000007715
100
AcDbArc
 50
229.4580329478139
 51
346.7993931776425
  0
ARC
  5
152EF
330
747D
100
AcDbEntity
  8
部品1
100
AcDbCircle
 10
10192.01953413093
 20
3863.631828606876
 30
0.0
 40
1.800000000000023
100
AcDbArc
 50
188.9016199670776
 51
227.5933020675288
  0
LINE
  5
152F0
330
747D
100
AcDbEntity
  8
部品1
100
AcDbLine
 10
10192.74111518265
 20
3861.011550098812
 30
0.0
 11
9940.489534169184
 21
3566.351818361948
 31
0.0
  0
LINE
  5
152F1
330
747D
100
AcDbEntity
  8
部品1
100
AcDbLine
 10
9922.374064071449
 20
3702.035520726449
 30
0.0
 11
10065.14483008438
 21
3868.808689973665
 31
0.0
  0
ARC
  5
152F2
330
747D
100
AcDbEntity
  8
細線
100
AcDbCircle
 10
10140.33692885485
 20
3845.159203394574
 30
0.0
 40
3.000000000000113
100
AcDbArc
 50
319.4339102891592
 51
90.0
  0
LINE
  5
152F3
330
747D
100
AcDbEntity
  8
細線
100
AcDbLine
 10
9948.978503130057
 20
3617.016811275503
 30
0.0
 11
10142.61589785259
 21
3843.208229200134
 31
0.0
  0
ARC
  5
152F4
330
747D
100
AcDbEntity
  8
細線
100
AcDbCircle
 10
10135.6607707449
 20
3838.159203394574
 30
0.0
 40
10.0
100
AcDbArc
 50
90.0
 51
139.4339102891592
  0
LINE
  5
152F5
330
747D
100
AcDbEntity
  8
細線
100
AcDbLine
 10
10128.06420741912
 20
3844.662450709371
 30
0.0
 11
9944.420565134596
 21
3630.14491962657
 31
0.0
  0
ARC
  5
152F6
330
747D
100
AcDbEntity
  8
細線
100
AcDbCircle
 10
10091.63069366237
 20
3845.159203394574
 30
0.0
 40
3.000000000000113
100
AcDbArc
 50
319.4339102891592
 51
90.0
  0
LINE
  5
152F7
330
747D
100
AcDbEntity
  8
細線
100
AcDbLine
 10
9948.978503130057
 20
3673.911464375669
 30
0.0
 11
10093.9096626601
 21
3843.208229200134
 31
0.0
  0
LINE
  5
152F8
330
747D
100
AcDbEntity
  8
細線
100
AcDbLine
 10
9943.699534132324
 20
3628.193945432131
 30
0.0
 11
9943.699534132324
 21
3618.967785469942
 31
0.0
  0
ARC
  5
152F9
330
747D
100
AcDbEntity
  8
細線
100
AcDbCircle
 10
9946.699534132328
 20
3675.862438570108
 30
0.0
 40
2.999999999999971
100
AcDbArc
 50
179.9999999999739
 51
319.4339102891592
  0
LINE
  5
152FA
330
747D
100
AcDbEntity
  8
細線
100
AcDbLine
 10
10091.63069366237
 20
3848.159203394574
 30
0.0
 11
10086.95453555242
 21
3848.159203394574
 31
0.0
  0
ARC
  5
152FB
330
747D
100
AcDbEntity
  8
細線
100
AcDbCircle
 10
10086.95453555242
 20
3838.159203394574
 30
0.0
 40
10.0
100
AcDbArc
 50
90.0
 51
139.4339102891592
  0
LINE
  5
152FC
330
747D
100
AcDbEntity
  8
細線
100
AcDbLine
 10
9943.699534132324
 20
3685.088598532297
 30
0.0
 11
9943.699534132324
 21
3675.862438570108
 31
0.0
  0
LINE
  5
152FD
330
747D
100
AcDbEntity
  8
細線
100
AcDbLine
 10
10079.35797222664
 20
3844.662450709371
 30
0.0
 11
9944.420565134596
 21
3687.039572726736
 31
0.0
  0
ARC
  5
152FE
330
747D
100
AcDbEntity
  8
細線
100
AcDbCircle
 10
9946.699534132328
 20
3685.088598532297
 30
0.0
 40
2.99999999999998
100
AcDbArc
 50
139.4339102891592
 51
180.0
  0
ARC
  5
152FF
330
747D
100
AcDbEntity
  8
細線
100
AcDbCircle
 10
9946.699534132328
 20
3628.193945432131
 30
0.0
 40
2.99999999999998
100
AcDbArc
 50
139.4339102891592
 51
180.0
  0
ARC
  5
15300
330
747D
100
AcDbEntity
  8
細線
100
AcDbCircle
 10
9946.699534132328
 20
3618.967785469941
 30
0.0
 40
2.999999999999971
100
AcDbArc
 50
179.9999999999739
 51
319.4339102891592
  0
LINE
  5
15301
330
747D
100
AcDbEntity
  8
細線
100
AcDbLine
 10
10140.33692885485
 20
3848.159203394574
 30
0.0
 11
10135.6607707449
 21
3848.159203394574
 31
0.0
  0
LINE
  5
15302
330
747D
100
AcDbEntity
  8
部品1
100
AcDbLine
 10
9924.41771836278
 20
3547.578033416723
 30
0.0
 11
9925.148633256171
 21
3548.431828606203
 31
0.0
  0
LINE
  5
15303
330
747D
100
AcDbEntity
  8
部品1
100
AcDbLine
 10
9923.420384429405
 20
3548.431828606207
 30
0.0
 11
9924.41771836278
 21
3547.578033416723
 31
0.0
  0
LINE
  5
15304
330
747D
100
AcDbEntity
  8
部品1
100
AcDbLine
 10
10191.9833947239
 20
3863.663137485417
 30
0.0
 11
10193.73060428883
 21
3862.167390603014
 31
0.0
  0
LINE
  5
15305
330
747D
100
AcDbEntity
  8
部品1
100
AcDbLine
 10
10192.74111518265
 20
3861.011550098812
 30
0.0
 11
10193.73060428883
 21
3862.167390603014
 31
0.0
  0
LINE
  5
15306
330
747D
100
AcDbEntity
  8
部品1
100
AcDbLine
 10
10190.81401315896
 20
3862.297161276904
 30
0.0
 11
10191.67711158477
 21
3863.305362492488
 31
0.0
  0
LINE
  5
15307
330
747D
100
AcDbEntity
  8
部品1
100
AcDbLine
 10
10191.94641589266
 20
3863.61994182952
 30
0.0
 11
10191.9833947239
 21
3863.663137485417
 31
0.0
  0
LINE
  5
15308
330
747D
100
AcDbEntity
  8
部品1
100
AcDbLine
 10
10191.98482458023
 20
3863.664807727002
 30
0.0
 11
10193.73203414515
 21
3862.169060844598
 31
0.0
  0
LINE
  5
15309
330
747D
100
AcDbEntity
  8
部品1
100
AcDbLine
 10
10193.73060428883
 20
3862.167390603014
 30
0.0
 11
10193.73203414515
 21
3862.169060844598
 31
0.0
  0
LINE
  5
1530A
330
747D
100
AcDbEntity
  8
部品1
100
AcDbLine
 10
10191.9833947239
 20
3863.663137485417
 30
0.0
 11
10191.98482458023
 21
3863.664807727002
 31
0.0
  0
LINE
  5
1530B
330
747D
100
AcDbEntity
  8
部品1
 48
2.0
100
AcDbLine
 10
9825.989534169185
 20
3548.431828606203
 30
0.0
 11
9811.489534169185
 21
3564.931828606204
 31
0.0
  0
LINE
  5
1530C
330
747D
100
AcDbEntity
  8
部品1
 48
2.0
100
AcDbLine
 10
9925.989534169184
 20
3548.431828606203
 30
0.0
 11
9940.489534169184
 21
3564.931828606204
 31
0.0
  0
LINE
  5
1530D
330
747D
100
AcDbEntity
  8
部品1
 48
2.0
100
AcDbLine
 10
9925.989534169184
 20
3698.431828606203
 30
0.0
 11
9925.989534169184
 21
3548.431828606203
 31
0.0
  0
LINE
  5
1530E
330
747D
100
AcDbEntity
  8
部品1
 48
2.0
100
AcDbLine
 10
9825.989534169185
 20
3548.431828606203
 30
0.0
 11
9825.989534169185
 21
3698.431828606203
 31
0.0
  0
LINE
  5
1530F
330
747D
100
AcDbEntity
  8
部品1
 48
2.0
100
AcDbLine
 10
9825.989534169185
 20
3548.431828606203
 30
0.0
 11
9925.989534169184
 21
3548.431828606203
 31
0.0
  0
LINE
  5
15310
330
747D
100
AcDbEntity
  8
部品1
 48
2.0
100
AcDbLine
 10
9815.489534169184
 20
3698.431828606203
 30
0.0
 11
9936.489534169185
 21
3698.431828606203
 31
0.0
  0
LINE
  5
15311
330
747D
100
AcDbEntity
  8
部品1
 48
2.0
100
AcDbLine
 10
9811.489534169185
 20
3564.931828606204
 30
0.0
 11
9811.489534169185
 21
3694.431828606204
 31
0.0
  0
LINE
  5
15312
330
747D
100
AcDbEntity
  8
部品1
 48
2.0
100
AcDbLine
 10
9940.489534169184
 20
3694.431828606204
 30
0.0
 11
9940.489534169184
 21
3564.931828606204
 31
0.0
  0
ARC
  5
15313
330
747D
100
AcDbEntity
  8
部品1
 48
2.0
100
AcDbCircle
 10
9936.489534169185
 20
3694.431828606204
 30
0.0
 40
4.0
100
AcDbArc
 50
0.0
 51
90.0
  0
ARC
  5
15314
330
747D
100
AcDbEntity
  8
部品1
 48
2.0
100
AcDbCircle
 10
9815.489534169184
 20
3694.431828606204
 30
0.0
 40
4.0
100
AcDbArc
 50
90.0
 51
180.0
  0
CIRCLE
  5
15315
330
747D
100
AcDbEntity
  8
細線
 48
50.0
100
AcDbCircle
 10
9563.489534206041
 20
3920.931828605903
 30
0.0
 40
9.0
  0
LWPOLYLINE
  5
15316
330
747D
100
AcDbEntity
  8
細線
 48
50.0
100
AcDbPolyline
 90
        6
 70
     1
 43
0.0
 10
9556.98953420604
 20
3917.179051856172
 10
9563.489534206041
 20
3913.42627510644
 10
9569.989534206042
 20
3917.179051856172
 10
9569.989534206042
 20
3924.684605355637
 10
9563.489534206041
 20
3928.437382105368
 10
9556.98953420604
 20
3924.684605355637
  0
CIRCLE
  5
15317
330
747D
100
AcDbEntity
  8
細線
 48
50.0
100
AcDbCircle
 10
9623.489534206042
 20
3918.531828605902
 30
0.0
 40
9.0
  0
LWPOLYLINE
  5
15318
330
747D
100
AcDbEntity
  8
細線
 48
50.0
100
AcDbPolyline
 90
        6
 70
     1
 43
0.0
 10
9616.989534206041
 20
3914.779051856172
 10
9623.489534206042
 20
3911.026275106439
 10
9629.989534206041
 20
3914.779051856172
 10
9629.989534206041
 20
3922.284605355636
 10
9623.489534206042
 20
3926.037382105369
 10
9616.989534206041
 20
3922.284605355636
  0
CIRCLE
  5
15319
330
747D
100
AcDbEntity
  8
細線
 48
50.0
100
AcDbCircle
 10
10128.48953413232
 20
3898.331828606208
 30
0.0
 40
9.0
  0
LWPOLYLINE
  5
1531A
330
747D
100
AcDbEntity
  8
細線
 48
50.0
100
AcDbPolyline
 90
        6
 70
     1
 43
0.0
 10
10121.98953413232
 20
3894.579051856477
 10
10128.48953413232
 20
3890.826275106745
 10
10134.98953413232
 20
3894.579051856477
 10
10134.98953413232
 20
3902.084605355942
 10
10128.48953413232
 20
3905.837382105674
 10
10121.98953413232
 20
3902.084605355942
  0
CIRCLE
  5
1531B
330
747D
100
AcDbEntity
  8
細線
 48
50.0
100
AcDbCircle
 10
10188.48953413232
 20
3895.931828606207
 30
0.0
 40
9.0
  0
LWPOLYLINE
  5
1531C
330
747D
100
AcDbEntity
  8
細線
 48
50.0
100
AcDbPolyline
 90
        6
 70
     1
 43
0.0
 10
10181.98953413232
 20
3892.179051856477
 10
10188.48953413232
 20
3888.426275106745
 10
10194.98953413232
 20
3892.179051856477
 10
10194.98953413232
 20
3899.684605355941
 10
10188.48953413232
 20
3903.437382105673
 10
10181.98953413232
 20
3899.684605355941
  0
CIRCLE
  5
1531D
330
747D
100
AcDbEntity
  8
細線
 48
50.0
100
AcDbCircle
 10
9875.989534169185
 20
3680.431828606204
 30
0.0
 40
9.0
  0
LWPOLYLINE
  5
1531E
330
747D
100
AcDbEntity
  8
細線
 48
50.0
100
AcDbPolyline
 90
        6
 70
     1
 43
0.0
 10
9869.489534169185
 20
3676.679051856473
 10
9875.989534169185
 20
3672.926275106741
 10
9882.489534169184
 20
3676.679051856473
 10
9882.489534169184
 20
3684.184605355937
 10
9875.989534169185
 20
3687.93738210567
 10
9869.489534169185
 20
3684.184605355937
  0
CIRCLE
  5
1531F
330
747D
100
AcDbEntity
  8
細線
 48
50.0
100
AcDbCircle
 10
9875.989534169185
 20
3623.431828606204
 30
0.0
 40
9.0
  0
LWPOLYLINE
  5
15320
330
747D
100
AcDbEntity
  8
細線
 48
50.0
100
AcDbPolyline
 90
        6
 70
     1
 43
0.0
 10
9869.489534169185
 20
3619.679051856473
 10
9875.989534169185
 20
3615.926275106741
 10
9882.489534169184
 20
3619.679051856473
 10
9882.489534169184
 20
3627.184605355938
 10
9875.989534169185
 20
3630.93738210567
 10
9869.489534169185
 20
3627.184605355938
  0
CIRCLE
  5
15321
330
747D
100
AcDbEntity
  8
細線
 48
50.0
100
AcDbCircle
 10
9875.989534169185
 20
3566.431828606204
 30
0.0
 40
9.0
  0
LWPOLYLINE
  5
15322
330
747D
100
AcDbEntity
  8
細線
 48
50.0
100
AcDbPolyline
 90
        6
 70
     1
 43
0.0
 10
9869.489534169185
 20
3562.679051856473
 10
9875.989534169185
 20
3558.926275106741
 10
9882.489534169184
 20
3562.679051856473
 10
9882.489534169184
 20
3570.184605355938
 10
9875.989534169185
 20
3573.93738210567
 10
9869.489534169185
 20
3570.184605355938
  0
LINE
  5
15323
330
747D
100
AcDbEntity
  8
部品1
 48
50.0
100
AcDbLine
 10
9536.841473361326
 20
3891.753338695007
 30
0.0
 11
9537.516959295601
 21
3889.519107301173
 31
0.0
  0
LINE
  5
15324
330
747D
100
AcDbEntity
  8
部品1
 48
50.0
100
AcDbLine
 10
9537.516959295601
 20
3889.519107301173
 30
0.0
 11
9537.520616120946
 21
3889.414348994259
 31
0.0
  0
LINE
  5
15325
330
747D
100
AcDbEntity
  8
部品1
 48
50.0
100
AcDbLine
 10
9539.456531785457
 20
3889.336970766371
 30
0.0
 11
9536.96708637028
 21
3887.130998349555
 31
0.0
  0
LINE
  5
15326
330
747D
100
AcDbEntity
  8
部品1
 48
50.0
100
AcDbLine
 10
10065.14483008438
 20
3868.808689973665
 30
0.0
 11
10066.94952541003
 21
3867.263954489727
 31
0.0
  0
LINE
  5
15327
330
747D
100
AcDbEntity
  8
部品1
 48
50.0
100
AcDbLine
 10
10192.74111518265
 20
3861.011550098812
 30
0.0
 11
10190.8056344545
 21
3862.302750890723
 31
0.0
  0
LINE
  5
15328
330
747D
100
AcDbEntity
  8
部品1
 48
50.0
100
AcDbLine
 10
9922.374064071449
 20
3702.035520726449
 30
0.0
 11
9924.220262430962
 21
3700.640027550389
 31
0.0
  0
LINE
  5
15329
330
747D
100
AcDbEntity
  8
部品1
 48
50.0
100
AcDbLine
 10
9827.705016464097
 20
3700.589323863095
 30
0.0
 11
9829.589906673632
 21
3702.077989982568
 31
0.0
  0
LINE
  5
153B3
330
747D
100
AcDbEntity
  8
部品1
 48
50.0
100
AcDbLine
 10
7023.312019724421
 20
1880.562576328018
 30
0.0
 11
7033.312019724421
 21
1870.562576328017
 31
0.0
  0
LINE
  5
153B4
330
747D
100
AcDbEntity
  8
部品1
 48
50.0
100
AcDbLine
 10
883.3120197244189
 20
1880.562576328023
 30
0.0
 11
873.312019724419
 21
1870.562576328023
 31
0.0
  0
TEXT
  5
153BD
330
747D
100
AcDbEntity
  8
文字
 62
     7
 48
50.0
100
AcDbText
 10
11348.29473734573
 20
773.6682797184214
 30
0.0
 40
75.0
  1
   <縮尺> S=1/30
  7
STYLE2
100
AcDbText
  0
TEXT
  5
153BE
330
747D
100
AcDbEntity
  8
仕様書枠
 62
     7
 48
50.0
100
AcDbText
 10
11614.14543937977
 20
628.6895453046891
 30
0.0
 40
75.0
  1
～一般型～
  7
STYLE2
100
AcDbText
  0
TEXT
  5
153D9
330
747D
100
AcDbEntity
  8
部品1
 48
50.0
100
AcDbText
 10
360.3861885487586
 20
1841.914348049037
 30
0.0
 40
100.0
  1
▽G.L
  7
STYLE2
100
AcDbText
  0
ENDSEC
  0
SECTION
  2
OBJECTS
  0
DICTIONARY
  5
7471
330
0
100
AcDbDictionary
281
     1
  3
ACAD_CIP_PREVIOUS_PRODUCT_INFO
350
148B3
  3
ACAD_COLOR
350
146ED
  3
ACAD_DETAILVIEWSTYLE
350
148AA
  3
ACAD_GROUP
350
7472
  3
ACAD_LAYOUT
350
146EE
  3
ACAD_MATERIAL
350
146EC
  3
ACAD_MLEADERSTYLE
350
148A6
  3
ACAD_MLINESTYLE
350
7473
  3
ACAD_PLOTSETTINGS
350
146EF
  3
ACAD_PLOTSTYLENAME
350
146EA
  3
ACAD_SCALELIST
350
14894
  3
ACAD_SECTIONVIEWSTYLE
350
148A8
  3
ACAD_TABLESTYLE
350
14892
  3
ACAD_VISUALSTYLE
350
14879
  3
ACDB_RECOMPOSE_DATA
350
1546C
  3
AcDbVariableDictionary
350
14F51
  3
AcDsDecomposeData
350
15473
  3
CONTENTDICTIONARY
350
E71C
  3
DRAWINGVARIABLESDICT
350
F3B9
  3
DWGPROPS
350
1546D
  0
DICTIONARY
  5
146F9
330
7467
100
AcDbDictionary
280
     1
281
     1
  3
ACAD_LAYERFILTERS
360
147A3
  3
ACAD_LAYERSTATES
360
146FA
  0
DICTIONARY
  5
14F38
330
7474
100
AcDbDictionary
280
     1
281
     1
  3
ADSK_XREC_LAYER_RECONCILED
360
14F39
  0
DICTIONARY
  5
14F3A
330
DEB2
100
AcDbDictionary
280
     1
281
     1
  3
ADSK_XREC_LAYER_RECONCILED
360
14F3B
  0
DICTIONARY
  5
14F3C
330
DEB3
100
AcDbDictionary
280
     1
281
     1
  3
ADSK_XREC_LAYER_RECONCILED
360
14F3D
  0
DICTIONARY
  5
14F3E
330
DEB4
100
AcDbDictionary
280
     1
281
     1
  3
ADSK_XREC_LAYER_RECONCILED
360
14F3F
  0
DICTIONARY
  5
14F40
330
DEB5
100
AcDbDictionary
280
     1
281
     1
  3
ADSK_XREC_LAYER_RECONCILED
360
14F41
  0
DICTIONARY
  5
14F42
330
DEB6
100
AcDbDictionary
280
     1
281
     1
  3
ADSK_XREC_LAYER_RECONCILED
360
14F43
  0
DICTIONARY
  5
14F44
330
10B54
100
AcDbDictionary
280
     1
281
     1
  3
ADSK_XREC_LAYER_RECONCILED
360
14F45
  0
DICTIONARY
  5
14F46
330
11729
100
AcDbDictionary
280
     1
281
     1
  3
ADSK_XREC_LAYER_RECONCILED
360
14F47
  0
DICTIONARY
  5
14F48
330
1173F
100
AcDbDictionary
280
     1
281
     1
  3
ADSK_XREC_LAYER_RECONCILED
360
14F49
  0
DICTIONARY
  5
14F4A
330
11740
100
AcDbDictionary
280
     1
281
     1
  3
ADSK_XREC_LAYER_RECONCILED
360
14F4B
  0
DICTIONARY
  5
153B1
330
747D
100
AcDbDictionary
280
     1
281
     1
  3
ACAD_SORTENTS
360
153B2
  0
XRECORD
  5
148B3
102
{ACAD_REACTORS
330
7471
102
}
330
7471
100
AcDbXrecord
280
     1
300
ACDLT
300
2014
300
ACDLT_F_S
  0
DICTIONARY
  5
146ED
102
{ACAD_REACTORS
330
7471
102
}
330
7471
100
AcDbDictionary
281
     1
  0
DICTIONARY
  5
148AA
102
{ACAD_REACTORS
330
7471
102
}
330
7471
100
AcDbDictionary
281
     1
  3
Metric50
350
148AB
  0
DICTIONARY
  5
7472
102
{ACAD_REACTORS
330
7471
102
}
330
7471
100
AcDbDictionary
281
     1
  0
DICTIONARY
  5
146EE
102
{ACAD_REACTORS
330
7471
102
}
330
7471
100
AcDbDictionary
281
     1
  3
Model
350
146F0
  3
レイアウト1
350
146F1
  0
DICTIONARY
  5
146EC
102
{ACAD_REACTORS
330
7471
102
}
330
7471
100
AcDbDictionary
281
     1
  3
ByBlock
350
14869
  3
ByLayer
350
14861
  3
Global
350
14871
  0
DICTIONARY
  5
148A6
102
{ACAD_REACTORS
330
7471
102
}
330
7471
100
AcDbDictionary
281
     1
  3
Standard
350
148A7
  0
DICTIONARY
  5
7473
102
{ACAD_REACTORS
330
7471
102
}
330
7471
100
AcDbDictionary
281
     1
  3
STANDARD
350
7480
  0
DICTIONARY
  5
146EF
102
{ACAD_REACTORS
330
7471
102
}
330
7471
100
AcDbDictionary
281
     1
  0
ACDBDICTIONARYWDFLT
  5
146EA
102
{ACAD_REACTORS
330
7471
102
}
330
7471
100
AcDbDictionary
281
     1
  3
Normal
350
146EB
100
AcDbDictionaryWithDefault
340
146EB
  0
DICTIONARY
  5
14894
102
{ACAD_REACTORS
330
7471
102
}
330
7471
100
AcDbDictionary
281
     1
  3
A0
350
14895
  3
A1
350
14896
  3
A2
350
14897
  3
A3
350
14898
  3
A4
350
14899
  3
A5
350
1489A
  3
A6
350
1489B
  3
A7
350
1489C
  3
A8
350
1489D
  3
A9
350
1489E
  3
B0
350
1489F
  3
B1
350
148A0
  3
B2
350
148A1
  3
B3
350
148A2
  3
B4
350
148A3
  3
B5
350
148A4
  3
B6
350
148A5
  0
DICTIONARY
  5
148A8
102
{ACAD_REACTORS
330
7471
102
}
330
7471
100
AcDbDictionary
281
     1
  3
Metric50
350
148A9
  0
DICTIONARY
  5
14892
102
{ACAD_REACTORS
330
7471
102
}
330
7471
100
AcDbDictionary
281
     1
  3
Standard
350
14893
  0
DICTIONARY
  5
14879
102
{ACAD_REACTORS
330
7471
102
}
330
7471
100
AcDbDictionary
281
     1
  3
2dWireframe
350
1487F
  3
Basic
350
1487E
  3
Brighten
350
14885
  3
ColorChange
350
14889
  3
Conceptual
350
14882
  3
Dim
350
14884
  3
EdgeColorOff
350
14891
  3
Facepattern
350
14888
  3
Flat
350
1487A
  3
FlatWithEdges
350
1487B
  3
Gouraud
350
1487C
  3
GouraudWithEdges
350
1487D
  3
Hidden
350
14881
  3
JitterOff
350
1488F
  3
Linepattern
350
14887
  3
OverhangOff
350
14890
  3
Realistic
350
14883
  3
Shaded
350
1488E
  3
Shaded with edges
350
1488D
  3
Shades of Gray
350
1488A
  3
Sketchy
350
1488B
  3
Thicken
350
14886
  3
Wireframe
350
14880
  3
X-Ray
350
1488C
  0
XRECORD
  5
1546C
102
{ACAD_REACTORS
330
7471
102
}
330
7471
100
AcDbXrecord
280
     1
 90
        1
330
14893
  0
DICTIONARY
  5
14F51
102
{ACAD_REACTORS
330
7471
102
}
330
7471
100
AcDbDictionary
281
     1
  3
CANNOSCALE
350
14F57
  3
CMLEADERSTYLE
350
14F53
  3
CTABLESTYLE
350
14F52
  3
CVIEWDETAILSTYLE
350
14F54
  3
CVIEWSECTIONSTYLE
350
14F55
  3
DIMASSOC
350
15469
  3
INDEXCTL
350
15467
  3
LAYEREVAL
350
14F59
  3
LAYERNOTIFY
350
14F5A
  3
LIGHTINGUNITS
350
14F58
  3
MSLTSCALE
350
14F56
  3
SORTENTS
350
15466
  3
XCLIPFRAME
350
15468
  0
DICTIONARY
  5
15473
102
{ACAD_REACTORS
330
7471
102
}
330
7471
100
AcDbDictionary
281
     1
  3
AcDsRecords
350
15475
  3
AcDsSchemas
350
15474
1001
ACAD
1070
     2
  0
DICTIONARY
  5
E71C
102
{ACAD_REACTORS
330
7471
102
}
330
7471
100
AcDbDictionary
281
     1
  0
DICTIONARY
  5
F3B9
102
{ACAD_REACTORS
330
7471
102
}
330
7471
100
AcDbDictionary
281
     1
1001
DRAWINGVARIABLESXDATA
1000
POLARMODE
1000
1
  0
XRECORD
  5
1546D
102
{ACAD_REACTORS
330
7471
102
}
330
7471
100
AcDbXrecord
280
     1
  1
DWGPROPS COOKIE
  2

  3

  4

  6

  7

  8
ishizaki
  9

300
=
301
=
302
=
303
=
304
=
305
=
306
=
307
=
308
=
309
=
 40
0.2997262384259259
 41
2451225.538602894
 42
2457326.722669178
  1

 90
        0
  0
DICTIONARY
  5
147A3
102
{ACAD_REACTORS
330
146F9
102
}
330
146F9
100
AcDbDictionary
281
     1
  0
DICTIONARY
  5
146FA
102
{ACAD_REACTORS
330
146F9
102
}
330
146F9
100
AcDbDictionary
281
     1
  0
XRECORD
  5
14F39
102
{ACAD_REACTORS
330
14F38
102
}
330
14F38
100
AcDbXrecord
280
     1
290
     1
  0
XRECORD
  5
14F3B
102
{ACAD_REACTORS
330
14F3A
102
}
330
14F3A
100
AcDbXrecord
280
     1
290
     1
  0
XRECORD
  5
14F3D
102
{ACAD_REACTORS
330
14F3C
102
}
330
14F3C
100
AcDbXrecord
280
     1
290
     1
  0
XRECORD
  5
14F3F
102
{ACAD_REACTORS
330
14F3E
102
}
330
14F3E
100
AcDbXrecord
280
     1
290
     1
  0
XRECORD
  5
14F41
102
{ACAD_REACTORS
330
14F40
102
}
330
14F40
100
AcDbXrecord
280
     1
290
     1
  0
XRECORD
  5
14F43
102
{ACAD_REACTORS
330
14F42
102
}
330
14F42
100
AcDbXrecord
280
     1
290
     1
  0
XRECORD
  5
14F45
102
{ACAD_REACTORS
330
14F44
102
}
330
14F44
100
AcDbXrecord
280
     1
290
     1
  0
XRECORD
  5
14F47
102
{ACAD_REACTORS
330
14F46
102
}
330
14F46
100
AcDbXrecord
280
     1
290
     1
  0
XRECORD
  5
14F49
102
{ACAD_REACTORS
330
14F48
102
}
330
14F48
100
AcDbXrecord
280
     1
290
     1
  0
XRECORD
  5
14F4B
102
{ACAD_REACTORS
330
14F4A
102
}
330
14F4A
100
AcDbXrecord
280
     1
290
     1
  0
SORTENTSTABLE
  5
153B2
102
{ACAD_REACTORS
330
153B1
102
}
330
153B1
100
AcDbSortentsTable
330
747D
331
1477C
  5
1477F
331
14F00
  5
14F03
331
14853
  5
14B5C
331
14F08
  5
14F0B
331
150ED
  5
15236
331
14B69
  5
14B6C
331
147A4
  5
147A7
331
14F10
  5
14F13
331
147AC
  5
147AF
331
14F18
  5
14F1B
331
15258
  5
1525B
331
13D7B
  5
13D7F
331
13CB4
  5
13CE3
331
145A9
  5
145AC
331
13A95
  5
13A98
331
13A36
  5
13A39
331
15260
  5
15263
331
1529F
  5
152A2
331
152D6
  5
152D9
331
15315
  5
15318
331
13CE4
  5
13CE7
331
13D83
  5
13D86
331
14747
  5
1474A
331
13A9D
  5
13AA2
331
152DE
  5
152E1
331
15268
  5
1526B
331
152A7
  5
152AA
331
1531D
  5
15320
331
1474F
  5
14752
331
13A56
  5
13A5F
331
152AF
  5
152B2
331
15270
  5
15273
331
152E6
  5
152E9
331
15325
  5
15328
331
14757
  5
1475A
331
13A5E
  5
13A61
331
152EE
  5
152F1
331
12FB4
  5
12FB5
331
12FBC
  5
12FBD
331
12F5D
  5
12F5D
331
1475D
  5
14760
331
147B4
  5
147BA
331
14B71
  5
14B74
331
14F20
  5
14F23
331
14765
  5
14768
331
14F28
  5
14F2B
331
14F30
  5
14F33
331
1476D
  5
14770
331
14814
  5
14842
331
14775
  5
14778
331
15239
  5
1523C
331
15278
  5
1527B
331
13D93
  5
13D9F
331
13ADD
  5
13AE0
331
13D4C
  5
13D64
331
145F9
  5
14741
331
13A66
  5
13A69
331
152B7
  5
152BA
331
15241
  5
15244
331
15280
  5
15283
331
152F6
  5
152F9
331
143B2
  5
143BA
331
13D64
  5
13D6B
331
13677
  5
13A35
331
152BF
  5
152C2
331
15288
  5
1528B
331
15249
  5
1524C
331
152FE
  5
15301
331
153B3
  5
132AD
331
143BA
  5
145A2
331
13D6C
  5
13D6F
331
13A76
  5
13A79
331
15306
  5
15309
331
15251
  5
15254
331
15290
  5
15293
331
152C7
  5
152CA
331
145A2
  5
145A8
331
13D74
  5
13D77
331
13A2F
  5
13A37
331
152CF
  5
152D2
331
1530E
  5
15311
331
12F6D
  5
12F6D
331
132C3
  5
132C6
331
1324C
  5
1324E
331
14F01
  5
14F04
331
1477D
  5
14780
331
14F09
  5
14F0C
331
14B62
  5
14B68
331
14854
  5
14B5D
331
150E6
  5
150E9
331
14F11
  5
14F14
331
147A5
  5
147A8
331
14B6A
  5
14B6D
331
150EE
  5
15237
331
14F19
  5
14F1C
331
147AD
  5
147B0
331
15236
  5
15239
331
15298
  5
1529B
331
15259
  5
1525C
331
145AA
  5
145AD
331
13CB5
  5
13CE4
331
13D7C
  5
13D80
331
13A96
  5
13A99
331
13A37
  5
13A3A
331
152A0
  5
152A3
331
15261
  5
15264
331
152D7
  5
152DA
331
15316
  5
15319
331
13D84
  5
13D87
331
13CE5
  5
13CEF
331
14748
  5
1474B
331
13A9E
  5
13AD9
331
1531E
  5
15321
331
13A3F
  5
13A56
331
152DF
  5
152E2
331
152A8
  5
152AB
331
15269
  5
1526C
331
14750
  5
14753
331
15326
  5
15329
331
15271
  5
15274
331
152E7
  5
152EA
331
13A5F
  5
13A62
331
152EF
  5
152F2
331
13284
  5
13285
331
12FB5
  5
12FB6
331
12F56
  5
12F56
331
12FBD
  5
12FBE
331
14F21
  5
14F24
331
14B72
  5
14B75
331
1475E
  5
14761
331
147B5
  5
147BB
331
14F29
  5
14F2C
331
14766
  5
14769
331
14F31
  5
14F34
331
1476E
  5
14771
331
14815
  5
1484E
331
14C82
  5
14EFE
331
14776
  5
14779
331
13668
  5
13677
331
152B0
  5
152B3
331
1523A
  5
1523D
331
15279
  5
1527C
331
13D4D
  5
13D65
331
13ADE
  5
13AEC
331
13D94
  5
13DA0
331
13A67
  5
13A6A
331
152B8
  5
152BB
331
15242
  5
15245
331
15281
  5
15284
331
152F7
  5
152FA
331
13D65
  5
13D6C
331
152FF
  5
15302
331
13678
  5
13A36
331
15289
  5
1528C
331
1524A
  5
1524D
331
152C0
  5
152C3
331
153B4
  5
12F86
331
143BB
  5
145A3
331
13D6D
  5
13D70
331
13A77
  5
13A94
331
15307
  5
1530A
331
15291
  5
15294
331
15252
  5
15255
331
152C8
  5
152CB
331
13D75
  5
13D78
331
145A3
  5
145A9
331
1530F
  5
15312
331
132C4
  5
132C7
331
12F86
  5
12F87
331
1477E
  5
14781
331
14B5B
  5
14B5E
331
14F02
  5
14F05
331
14B63
  5
14B69
331
14F0A
  5
14F0D
331
150E7
  5
150EA
331
147A6
  5
147A9
331
14B6B
  5
14B6E
331
14F12
  5
14F15
331
150EF
  5
15238
331
147AE
  5
147B1
331
14F1A
  5
14F1D
331
15237
  5
1523A
331
1525A
  5
1525D
331
15299
  5
1529C
331
152D0
  5
152D3
331
145AB
  5
145AE
331
13D7D
  5
13D81
331
14741
  5
14744
331
13A97
  5
13A9A
331
13A38
  5
13A3B
331
15262
  5
15265
331
152A1
  5
152A4
331
152D8
  5
152DB
331
15317
  5
1531A
331
14749
  5
1474C
331
13CE6
  5
13CF0
331
13D85
  5
13D88
331
1531F
  5
15322
331
152A9
  5
152AC
331
1526A
  5
1526D
331
152E0
  5
152E3
331
14751
  5
14754
331
14682
  5
14742
331
152E8
  5
152EB
331
15272
  5
15275
331
15327
  5
153B0
331
13285
  5
13286
331
12F4F
  5
12F4F
331
12FB6
  5
12FB7
331
12F57
  5
12F57
331
12FBE
  5
12FBF
331
132AD
  5
132B7
331
1475F
  5
14762
331
14B73
  5
14B76
331
14F22
  5
14F25
331
14FE9
  5
14FEC
331
14767
  5
1476A
331
14B7B
  5
14B7E
331
14F2A
  5
14F2D
331
14C83
  5
14EFF
331
1476F
  5
14772
331
14816
  5
1484F
331
14F32
  5
14F35
331
14777
  5
1477A
331
13A60
  5
13A63
331
13669
  5
13678
331
1523B
  5
1523E
331
1527A
  5
1527D
331
152B1
  5
152B4
331
152F0
  5
152F3
331
13D95
  5
143B2
331
13ADF
  5
13C02
331
13D4E
  5
13D66
331
13A68
  5
13A6D
331
152B9
  5
152BC
331
15243
  5
15246
331
15282
  5
15285
331
152F8
  5
152FB
331
13D66
  5
13D6D
331
143B4
  5
143BB
331
15300
  5
15303
331
1524B
  5
1524E
331
1528A
  5
1528D
331
152C1
  5
152C4
331
13D6E
  5
13D71
331
13A78
  5
13A95
331
15308
  5
1530B
331
15253
  5
15256
331
15292
  5
15295
331
152C9
  5
152CC
331
13D76
  5
13D79
331
132C5
  5
132C8
331
1324E
  5
13284
331
12F87
  5
12F88
331
14B5C
  5
14B62
331
1477F
  5
14782
331
1484E
  5
14851
331
14F03
  5
14F06
331
14F0B
  5
14F0E
331
150E8
  5
150EB
331
147A7
  5
147AA
331
14B6C
  5
14B6F
331
14F13
  5
14F16
331
147AF
  5
147B4
331
14F1B
  5
14F1E
331
1529A
  5
1529D
331
1525B
  5
1525E
331
152D1
  5
152D4
331
15310
  5
15313
331
13CB7
  5
13CE5
331
145AC
  5
145AF
331
13A98
  5
13A9B
331
15318
  5
1531B
331
13A39
  5
13A3C
331
15263
  5
15266
331
152A2
  5
152A5
331
152D9
  5
152DC
331
1474A
  5
1474D
331
13D86
  5
13D8F
331
13CE7
  5
13CF1
331
15320
  5
15323
331
152AA
  5
152AD
331
1526B
  5
1526E
331
152E1
  5
152E4
331
14752
  5
14755
331
13CEF
  5
13CF2
331
15273
  5
15276
331
152E9
  5
152EC
331
13286
  5
13297
331
12FB7
  5
12FB8
331
12F50
  5
12F50
331
12F58
  5
12F58
331
12FBF
  5
12FC0
331
14758
  5
1475B
331
14B74
  5
14B7B
331
14760
  5
14763
331
14F23
  5
14F26
331
14FEA
  5
14FED
331
14B7C
  5
14B7F
331
14768
  5
1476B
331
14F2B
  5
14F2E
331
14770
  5
14773
331
14C84
  5
14F00
331
14F33
  5
14F36
331
15328
  5
153B3
331
13A61
  5
13A64
331
1523C
  5
1523F
331
1527B
  5
1527E
331
152B2
  5
152B5
331
152F1
  5
152F4
331
13AE0
  5
13C03
331
13A69
  5
13A74
331
152BA
  5
152BD
331
15244
  5
15247
331
15283
  5
15286
331
152F9
  5
152FC
331
1524C
  5
1524F
331
1528B
  5
1528E
331
152C2
  5
152C5
331
15301
  5
15304
331
13D6F
  5
13D72
331
13A79
  5
13A96
331
15254
  5
15257
331
15293
  5
15296
331
152CA
  5
152CD
331
15309
  5
1530C
331
13D77
  5
13D7B
331
132B6
  5
132BE
331
12F70
  5
12F70
331
131EF
  5
13248
331
132BE
  5
132C1
331
132C6
  5
132C9
331
14778
  5
1477B
331
14B5D
  5
14B63
331
14780
  5
147A4
331
1484F
  5
14853
331
14F04
  5
14F07
331
14F0C
  5
14F0F
331
150E9
  5
150EC
331
147A8
  5
147AB
331
14B6D
  5
14B70
331
14F14
  5
14F17
331
14F1C
  5
14F1F
331
1525C
  5
1525F
331
1529B
  5
1529E
331
152D2
  5
152D5
331
15311
  5
15314
331
145AD
  5
145DE
331
15319
  5
1531C
331
152DA
  5
152DD
331
13A99
  5
13A9C
331
15264
  5
15267
331
152A3
  5
152A6
331
13A3A
  5
13A3D
331
13D7F
  5
13D82
331
14743
  5
14746
331
1474B
  5
1474E
331
15321
  5
15324
331
152AB
  5
152AE
331
1526C
  5
1526F
331
152E2
  5
152E5
331
13AA1
  5
13ADA
331
13D87
  5
13D90
331
152EA
  5
152ED
331
15274
  5
15277
331
13CF0
  5
13CF3
331
13D8F
  5
13D92
331
145F5
  5
145F9
331
14753
  5
14756
331
12F88
  5
12FB4
331
13297
  5
13298
331
12FB8
  5
12FB9
331
12F59
  5
12F59
331
12FC0
  5
12FC1
331
147B0
  5
147B5
331
14759
  5
1475C
331
14761
  5
14764
331
14B75
  5
14B7C
331
14F24
  5
14F27
331
14FEB
  5
14FEE
331
14769
  5
1476C
331
14B7D
  5
14C82
331
14F2C
  5
14F2F
331
14771
  5
14774
331
14F34
  5
14F37
331
150A2
  5
150A5
331
15329
  5
153B4
331
152F2
  5
152F5
331
13AD9
  5
13ADC
331
1523D
  5
15240
331
1527C
  5
1527F
331
152B3
  5
152B6
331
13A62
  5
13A65
331
152FA
  5
152FD
331
152BB
  5
152BE
331
15245
  5
15248
331
15284
  5
15287
331
13A6A
  5
13A75
331
1524D
  5
15250
331
1528C
  5
1528F
331
152C3
  5
152C6
331
15302
  5
15305
331
13D9F
  5
143B4
331
143B6
  5
145A1
331
152CB
  5
152CE
331
15255
  5
15258
331
15294
  5
15297
331
1530A
  5
1530D
331
13D70
  5
13D73
331
12FC8
  5
12FC9
331
132B7
  5
132BF
331
132BF
  5
132C2
331
13248
  5
13249
331
132C7
  5
13667
331
14779
  5
1477C
331
14B5E
  5
14B67
331
14781
  5
147A5
331
14850
  5
14854
331
14F05
  5
14F08
331
14F0D
  5
14F10
331
150EA
  5
150ED
331
147A9
  5
147AC
331
14B6E
  5
14B71
331
14F15
  5
14F18
331
14F1D
  5
14F20
331
1525D
  5
15260
331
1529C
  5
1529F
331
152D3
  5
152D6
331
15312
  5
15315
331
13CB1
  5
13CB7
331
13D78
  5
13D7C
331
1531A
  5
1531D
331
152DB
  5
152DE
331
15265
  5
15268
331
152A4
  5
152A7
331
13A3B
  5
13A3F
331
13A9A
  5
13A9D
331
13D80
  5
13D83
331
145AE
  5
145F5
331
15322
  5
15325
331
1526D
  5
15270
331
152AC
  5
152AF
331
152E3
  5
152E6
331
13AA2
  5
13ADB
331
13D88
  5
13D91
331
145DE
  5
145F7
331
1474C
  5
1474F
331
15275
  5
15278
331
152EB
  5
152EE
331
13CF1
  5
13D4A
331
145F6
  5
14682
331
14754
  5
14757
331
12FB9
  5
12FBA
331
10B6D
  5
10B6D
331
13298
  5
132B1
331
12F5A
  5
12F5A
331
12FC1
  5
12FC2
331
1475A
  5
1475D
331
147B1
  5
147B9
331
147B9
  5
14814
331
14762
  5
14765
331
14B76
  5
14B7D
331
14F25
  5
14F28
331
14FEC
  5
150A2
331
14B7E
  5
14C83
331
1476A
  5
1476D
331
14F2D
  5
14F30
331
14772
  5
14775
331
14F35
  5
14FE9
331
150A3
  5
150E6
331
14EFE
  5
14F01
331
152F3
  5
152F6
331
1523E
  5
15241
331
1527D
  5
15280
331
152B4
  5
152B7
331
13A63
  5
13A66
331
13ADA
  5
13ADD
331
13D90
  5
13D93
331
152BC
  5
152BF
331
15246
  5
15249
331
15285
  5
15288
331
152FB
  5
152FE
331
1524E
  5
15251
331
1528D
  5
15290
331
152C4
  5
152C7
331
15303
  5
15306
331
13DA0
  5
143B6
331
15256
  5
15259
331
15295
  5
15298
331
152CC
  5
152CF
331
1530B
  5
1530E
331
13C02
  5
13CB4
331
13D71
  5
13D74
331
145A7
  5
145AA
331
12FC9
  5
131EF
331
132B8
  5
132C0
331
13249
  5
1324C
331
132C0
  5
132C3
331
13667
  5
13676
331
132C8
  5
13668
331
1477A
  5
1477D
331
14851
  5
14B5B
331
14782
  5
147A6
331
14F06
  5
14F09
331
150EB
  5
150EE
331
14B67
  5
14B6A
331
14F0E
  5
14F11
331
147AA
  5
147AD
331
14B6F
  5
14B72
331
14F16
  5
14F19
331
14F1E
  5
14F21
331
1525E
  5
15261
331
1529D
  5
152A0
331
152D4
  5
152D7
331
15313
  5
15316
331
13D79
  5
13D7D
331
145AF
  5
145F6
331
1531B
  5
1531E
331
152DC
  5
152DF
331
13A9B
  5
13A9E
331
15266
  5
15269
331
152A5
  5
152A8
331
13A3C
  5
13A54
331
13D81
  5
13D84
331
14745
  5
14748
331
152E4
  5
152E7
331
15323
  5
15326
331
13A54
  5
13A5D
331
1474D
  5
14750
331
152AD
  5
152B0
331
1526E
  5
15271
331
F235
  5
F235
331
152EC
  5
152EF
331
15276
  5
15279
331
13CF2
  5
13D4B
331
145F7
  5
146A6
331
14755
  5
14758
331
10B56
  5
10B56
331
10B5E
  5
10B5E
331
13299
  5
132B6
331
12FBA
  5
12FBB
331
12FC2
  5
12FC8
331
12F5B
  5
12F5B
331
1475B
  5
1475E
331
14763
  5
14766
331
147BA
  5
14815
331
14F26
  5
14F29
331
14FED
  5
150A3
331
1476B
  5
1476E
331
14B7F
  5
14C84
331
14F2E
  5
14F31
331
14842
  5
14850
331
14773
  5
14776
331
14F36
  5
14FEA
331
150A4
  5
150E7
331
14EFF
  5
14F02
331
13D91
  5
13D94
331
152F4
  5
152F7
331
13ADB
  5
13ADE
331
1523F
  5
15242
331
1527E
  5
15281
331
152B5
  5
152B8
331
13A64
  5
13A67
331
13D4A
  5
13D4D
331
152BD
  5
152C0
331
15247
  5
1524A
331
15286
  5
15289
331
152FC
  5
152FF
331
146A6
  5
14743
331
15304
  5
15307
331
1524F
  5
15252
331
1528E
  5
15291
331
152C5
  5
152C8
331
13A74
  5
13A77
331
152CD
  5
152D0
331
15257
  5
1525A
331
15296
  5
15299
331
1530C
  5
1530F
331
13C03
  5
13CB5
331
13D72
  5
13D75
331
132B1
  5
132B8
331
12F6B
  5
12F6B
331
12F73
  5
12F73
331
132C1
  5
132C4
331
132C9
  5
13669
331
1477B
  5
1477E
331
14F07
  5
14F0A
331
150EC
  5
150EF
331
14B68
  5
14B6B
331
14F0F
  5
14F12
331
147AB
  5
147AE
331
14F17
  5
14F1A
331
14F1F
  5
14F22
331
15314
  5
15317
331
145A8
  5
145AB
331
152D5
  5
152D8
331
1529E
  5
152A1
331
1525F
  5
15262
331
13A35
  5
13A38
331
13A94
  5
13A97
331
13D82
  5
13D85
331
1531C
  5
1531F
331
13CE3
  5
13CE6
331
152DD
  5
152E0
331
15267
  5
1526A
331
152A6
  5
152A9
331
13A3D
  5
13A55
331
13A9C
  5
13AA1
331
14746
  5
14749
331
15324
  5
15327
331
152E5
  5
152E8
331
1474E
  5
14751
331
152AE
  5
152B1
331
13A55
  5
13A5E
331
1526F
  5
15272
331
763F
  5
763F
331
152ED
  5
152F0
331
13CF3
  5
13D4C
331
15277
  5
1527A
331
13A5D
  5
13A60
331
14756
  5
14759
331
10B57
  5
10B57
331
12FBB
  5
12FBC
331
12F5C
  5
12F5C
331
1475C
  5
1475F
331
14B70
  5
14B73
331
147BB
  5
14816
331
14764
  5
14767
331
14F27
  5
14F2A
331
14FEE
  5
150A4
331
1476C
  5
1476F
331
14F2F
  5
14F32
331
14774
  5
14777
331
14F37
  5
14FEB
331
15238
  5
1523B
331
150A5
  5
150E8
331
13D4B
  5
13D4E
331
152F5
  5
152F8
331
152B6
  5
152B9
331
15240
  5
15243
331
1527F
  5
15282
331
13A65
  5
13A68
331
13ADC
  5
13ADF
331
13D92
  5
13D95
331
152FD
  5
15300
331
152BE
  5
152C1
331
15287
  5
1528A
331
15248
  5
1524B
331
13676
  5
13A2F
331
13A6D
  5
13A76
331
15305
  5
15308
331
13AEC
  5
13CB1
331
15250
  5
15253
331
1528F
  5
15292
331
152C6
  5
152C9
331
13A75
  5
13A78
331
13D6B
  5
13D6E
331
1530D
  5
15310
331
15297
  5
1529A
331
152CE
  5
152D1
331
13D73
  5
13D76
331
145A1
  5
145A7
331
12F6C
  5
12F6C
331
132C2
  5
132C5
331
12F7C
  5
12F7C
  0
ACDBDETAILVIEWSTYLE
  5
148AB
102
{ACAD_XDICTIONARY
360
14F4E
102
}
102
{ACAD_REACTORS
330
148AA
102
}
330
148AA
100
AcDbModelDocViewStyle
 70
     0
  3
Metric50
290
     0
100
AcDbDetailViewStyle
 70
     0
 71
     0
 90
        3
 71
     1
340
7475
 40
5.0
340
0
 40
5.0
300

 40
0.0
280
     1
 71
     2
340
7479
 90
       25
 71
     3
340
7475
 40
5.0
 90
        0
 40
15.0
 90
        1
300
%<\AcVar ViewDetailId>% (%<\AcVar ViewScale \f "%sn">%)
 71
     4
340
7479
 90
       25
340
7479
 90
       25
280
     0
  0
LAYOUT
  5
146F0
102
{ACAD_XDICTIONARY
360
15478
102
}
102
{ACAD_REACTORS
330
146EE
102
}
330
146EE
100
AcDbPlotSettings
  1

  2
Microsoft XPS Document Writer
  4
A4
  6

 40
3.174999952316284
 41
3.174999952316284
 42
3.175003051757812
 43
3.17498779296875
 44
210.0156707763672
 45
297.0106506347656
 46
0.0
 47
0.0
 48
0.0
 49
0.0
140
0.0
141
0.0
142
1.0
143
52.09819160070857
 70
 11952
 72
     1
 73
     1
 74
     0
  7

 75
     0
147
0.0191945242104411
148
818.377287862655
149
34.96106245441479
100
AcDbLayout
  1
Model
 70
     1
 71
     0
 10
0.0
 20
0.0
 11
12.0
 21
9.0
 12
0.0
 22
0.0
 32
0.0
 14
0.0
 24
0.0
 34
0.0
 15
0.0
 25
0.0
 35
0.0
146
0.0
 13
0.0
 23
0.0
 33
0.0
 16
1.0
 26
0.0
 36
0.0
 17
0.0
 27
1.0
 37
0.0
 76
     0
330
747D
331
1485F
1001
ACAD_PSEXT
1000
Microsoft XPS Document Writer
1000
Microsoft XPS Document Writer
1000
XPSPort:
1000

1070
     0
  0
LAYOUT
  5
146F1
102
{ACAD_XDICTIONARY
360
1547A
102
}
102
{ACAD_REACTORS
330
146EE
102
}
330
146EE
100
AcDbPlotSettings
  1

  2
Microsoft XPS Document Writer
  4

  6

 40
0.0
 41
0.0
 42
0.0
 43
0.0
 44
0.0
 45
0.0
 46
0.0
 47
0.0
 48
0.0
 49
0.0
140
0.0
141
0.0
142
1.0
143
1.0
 70
   688
 72
     0
 73
     0
 74
     5
  7

 75
    16
147
1.0
148
0.0
149
0.0
100
AcDbLayout
  1
レイアウト1
 70
     0
 71
     1
 10
0.0
 20
0.0
 11
420.0
 21
297.0
 12
0.0
 22
0.0
 32
0.0
 14
1.000000000000000E+20
 24
1.000000000000000E+20
 34
1.000000000000000E+20
 15
-1.000000000000000E+20
 25
-1.000000000000000E+20
 35
-1.000000000000000E+20
146
0.0
 13
0.0
 23
0.0
 33
0.0
 16
1.0
 26
0.0
 36
0.0
 17
0.0
 27
1.0
 37
0.0
 76
     0
330
747A
  0
MATERIAL
  5
14869
102
{ACAD_XDICTIONARY
360
1486A
102
}
102
{ACAD_REACTORS
330
146EC
102
}
330
146EC
100
AcDbMaterial
  1
ByBlock
 72
     0
 43
0.0208333333333333
 43
0.0
 43
0.0
 43
0.0
 43
0.0
 43
0.0208333333333333
 43
0.0
 43
0.0
 43
0.0
 43
0.0
 43
1.0
 43
0.0
 43
0.0
 43
0.0
 43
0.0
 43
1.0
 77
     0
 47
0.0208333333333333
 47
0.0
 47
0.0
 47
0.0
 47
0.0
 47
0.0208333333333333
 47
0.0
 47
0.0
 47
0.0
 47
0.0
 47
1.0
 47
0.0
 47
0.0
 47
0.0
 47
0.0
 47
1.0
171
     0
 49
0.0208333333333333
 49
0.0
 49
0.0
 49
0.0
 49
0.0
 49
0.0208333333333333
 49
0.0
 49
0.0
 49
0.0
 49
0.0
 49
1.0
 49
0.0
 49
0.0
 49
0.0
 49
0.0
 49
1.0
175
     0
142
0.0208333333333333
142
0.0
142
0.0
142
0.0
142
0.0
142
0.0208333333333333
142
0.0
142
0.0
142
0.0
142
0.0
142
1.0
142
0.0
142
0.0
142
0.0
142
0.0
142
1.0
179
     0
144
0.0208333333333333
144
0.0
144
0.0
144
0.0
144
0.0
144
0.0208333333333333
144
0.0
144
0.0
144
0.0
144
0.0
144
1.0
144
0.0
144
0.0
144
0.0
144
0.0
144
1.0
147
0.0208333333333333
147
0.0
147
0.0
147
0.0
147
0.0
147
0.0208333333333333
147
0.0
147
0.0
147
0.0
147
0.0
147
1.0
147
0.0
147
0.0
147
0.0
147
0.0
147
1.0
  0
MATERIAL
  5
14861
102
{ACAD_XDICTIONARY
360
14862
102
}
102
{ACAD_REACTORS
330
146EC
102
}
330
146EC
100
AcDbMaterial
  1
ByLayer
 72
     0
 43
0.0208333333333333
 43
0.0
 43
0.0
 43
0.0
 43
0.0
 43
0.0208333333333333
 43
0.0
 43
0.0
 43
0.0
 43
0.0
 43
1.0
 43
0.0
 43
0.0
 43
0.0
 43
0.0
 43
1.0
 77
     0
 47
0.0208333333333333
 47
0.0
 47
0.0
 47
0.0
 47
0.0
 47
0.0208333333333333
 47
0.0
 47
0.0
 47
0.0
 47
0.0
 47
1.0
 47
0.0
 47
0.0
 47
0.0
 47
0.0
 47
1.0
171
     0
 49
0.0208333333333333
 49
0.0
 49
0.0
 49
0.0
 49
0.0
 49
0.0208333333333333
 49
0.0
 49
0.0
 49
0.0
 49
0.0
 49
1.0
 49
0.0
 49
0.0
 49
0.0
 49
0.0
 49
1.0
175
     0
142
0.0208333333333333
142
0.0
142
0.0
142
0.0
142
0.0
142
0.0208333333333333
142
0.0
142
0.0
142
0.0
142
0.0
142
1.0
142
0.0
142
0.0
142
0.0
142
0.0
142
1.0
179
     0
144
0.0208333333333333
144
0.0
144
0.0
144
0.0
144
0.0
144
0.0208333333333333
144
0.0
144
0.0
144
0.0
144
0.0
144
1.0
144
0.0
144
0.0
144
0.0
144
0.0
144
1.0
147
0.0208333333333333
147
0.0
147
0.0
147
0.0
147
0.0
147
0.0208333333333333
147
0.0
147
0.0
147
0.0
147
0.0
147
1.0
147
0.0
147
0.0
147
0.0
147
0.0
147
1.0
  0
MATERIAL
  5
14871
102
{ACAD_XDICTIONARY
360
14872
102
}
102
{ACAD_REACTORS
330
146EC
102
}
330
146EC
100
AcDbMaterial
  1
Global
 72
     0
 43
0.0208333333333333
 43
0.0
 43
0.0
 43
0.0
 43
0.0
 43
0.0208333333333333
 43
0.0
 43
0.0
 43
0.0
 43
0.0
 43
1.0
 43
0.0
 43
0.0
 43
0.0
 43
0.0
 43
1.0
 77
     0
 47
0.0208333333333333
 47
0.0
 47
0.0
 47
0.0
 47
0.0
 47
0.0208333333333333
 47
0.0
 47
0.0
 47
0.0
 47
0.0
 47
1.0
 47
0.0
 47
0.0
 47
0.0
 47
0.0
 47
1.0
171
     0
 49
0.0208333333333333
 49
0.0
 49
0.0
 49
0.0
 49
0.0
 49
0.0208333333333333
 49
0.0
 49
0.0
 49
0.0
 49
0.0
 49
1.0
 49
0.0
 49
0.0
 49
0.0
 49
0.0
 49
1.0
175
     0
142
0.0208333333333333
142
0.0
142
0.0
142
0.0
142
0.0
142
0.0208333333333333
142
0.0
142
0.0
142
0.0
142
0.0
142
1.0
142
0.0
142
0.0
142
0.0
142
0.0
142
1.0
179
     0
144
0.0208333333333333
144
0.0
144
0.0
144
0.0
144
0.0
144
0.0208333333333333
144
0.0
144
0.0
144
0.0
144
0.0
144
1.0
144
0.0
144
0.0
144
0.0
144
0.0
144
1.0
147
0.0208333333333333
147
0.0
147
0.0
147
0.0
147
0.0
147
0.0208333333333333
147
0.0
147
0.0
147
0.0
147
0.0
147
1.0
147
0.0
147
0.0
147
0.0
147
0.0
147
1.0
  0
MLEADERSTYLE
  5
148A7
102
{ACAD_XDICTIONARY
360
154B1
102
}
102
{ACAD_REACTORS
330
148A6
102
}
330
148A6
100
AcDbMLeaderStyle
170
     2
171
     1
172
     0
 90
        2
 40
0.0
 41
0.0
173
     1
 91
-1056964608
340
7477
 92
       -2
290
     1
 42
2.0
291
     1
 43
0.36
  3
Standard
 44
4.0
300

342
7475
174
     1
178
     6
175
     1
176
     0
 93
-1056964608
 45
4.0
292
     0
297
     0
 46
4.0
 94
-1056964608
 47
1.0
 49
1.0
140
1.0
293
     1
141
0.0
294
     1
177
     0
142
1.0
295
     0
296
     0
143
0.125
1001
ACAD_MLEADERVER
1070
     2
  0
MLINESTYLE
  5
7480
102
{ACAD_REACTORS
330
7473
102
}
330
7473
100
AcDbMlineStyle
  2
STANDARD
 70
     0
  3

 62
     0
 51
90.0
 52
90.0
 71
     2
 49
0.5
 62
   256
  6
BYLAYER
 49
-0.5
 62
   256
  6
BYLAYER
  0
ACDBPLACEHOLDER
  5
146EB
102
{ACAD_REACTORS
330
146EA
102
}
330
146EA
  0
SCALE
  5
14895
102
{ACAD_REACTORS
330
14894
102
}
330
14894
100
AcDbScale
 70
     0
300
1:1
140
1.0
141
1.0
290
     1
  0
SCALE
  5
14896
102
{ACAD_REACTORS
330
14894
102
}
330
14894
100
AcDbScale
 70
     0
300
1:2
140
1.0
141
2.0
290
     0
  0
SCALE
  5
14897
102
{ACAD_REACTORS
330
14894
102
}
330
14894
100
AcDbScale
 70
     0
300
1:4
140
1.0
141
4.0
290
     0
  0
SCALE
  5
14898
102
{ACAD_REACTORS
330
14894
102
}
330
14894
100
AcDbScale
 70
     0
300
1:5
140
1.0
141
5.0
290
     0
  0
SCALE
  5
14899
102
{ACAD_REACTORS
330
14894
102
}
330
14894
100
AcDbScale
 70
     0
300
1:8
140
1.0
141
8.0
290
     0
  0
SCALE
  5
1489A
102
{ACAD_REACTORS
330
14894
102
}
330
14894
100
AcDbScale
 70
     0
300
1:10
140
1.0
141
10.0
290
     0
  0
SCALE
  5
1489B
102
{ACAD_REACTORS
330
14894
102
}
330
14894
100
AcDbScale
 70
     0
300
1:16
140
1.0
141
16.0
290
     0
  0
SCALE
  5
1489C
102
{ACAD_REACTORS
330
14894
102
}
330
14894
100
AcDbScale
 70
     0
300
1:20
140
1.0
141
20.0
290
     0
  0
SCALE
  5
1489D
102
{ACAD_REACTORS
330
14894
102
}
330
14894
100
AcDbScale
 70
     0
300
1:30
140
1.0
141
30.0
290
     0
  0
SCALE
  5
1489E
102
{ACAD_REACTORS
330
14894
102
}
330
14894
100
AcDbScale
 70
     0
300
1:40
140
1.0
141
40.0
290
     0
  0
SCALE
  5
1489F
102
{ACAD_REACTORS
330
14894
102
}
330
14894
100
AcDbScale
 70
     0
300
1:50
140
1.0
141
50.0
290
     0
  0
SCALE
  5
148A0
102
{ACAD_REACTORS
330
14894
102
}
330
14894
100
AcDbScale
 70
     0
300
1:100
140
1.0
141
100.0
290
     0
  0
SCALE
  5
148A1
102
{ACAD_REACTORS
330
14894
102
}
330
14894
100
AcDbScale
 70
     0
300
2:1
140
2.0
141
1.0
290
     0
  0
SCALE
  5
148A2
102
{ACAD_REACTORS
330
14894
102
}
330
14894
100
AcDbScale
 70
     0
300
4:1
140
4.0
141
1.0
290
     0
  0
SCALE
  5
148A3
102
{ACAD_REACTORS
330
14894
102
}
330
14894
100
AcDbScale
 70
     0
300
8:1
140
8.0
141
1.0
290
     0
  0
SCALE
  5
148A4
102
{ACAD_REACTORS
330
14894
102
}
330
14894
100
AcDbScale
 70
     0
300
10:1
140
10.0
141
1.0
290
     0
  0
SCALE
  5
148A5
102
{ACAD_REACTORS
330
14894
102
}
330
14894
100
AcDbScale
 70
     0
300
100:1
140
100.0
141
1.0
290
     0
  0
ACDBSECTIONVIEWSTYLE
  5
148A9
102
{ACAD_XDICTIONARY
360
14F4C
102
}
102
{ACAD_REACTORS
330
148A8
102
}
330
148A8
100
AcDbModelDocViewStyle
 70
     0
  3
Metric50
290
     0
100
AcDbSectionViewStyle
 70
     0
 71
     0
 90
      102
 71
     1
340
7475
 40
5.0
340
0
340
0
 40
5.0
300
I, O, Q, S, X, Z
 40
10.0
 90
        0
 40
2.5
 90
        0
 71
     2
340
7479
 90
       25
340
7479
 90
       50
 40
5.0
 40
2.5
 40
5.0
 71
     3
340
7475
 40
5.0
 90
        0
 40
15.0
 90
        1
300
%<\AcVar ViewSectionStartId>%-%<\AcVar ViewSectionEndId>% (%<\AcVar ViewScale \f "%sn">%)
 71
     4
300
ANSI31
 40
1.0
 90
        0
290
     0
290
     0
 90
        6
 40
0.0
 40
1.570796326794896
 40
0.2617993877991494
 40
1.308996938995747
 40
-0.2617993877991494
 40
1.832595714594046
  0
TABLESTYLE
  5
14893
102
{ACAD_XDICTIONARY
360
1546A
102
}
102
{ACAD_REACTORS
330
14892
102
}
330
14892
100
AcDbTableStyle
  3
Standard
 70
     0
 71
     0
 40
1.5
 41
1.5
280
     0
281
     0
  7
STANDARD
140
4.5
170
     2
 62
     0
 63
     7
283
     0
274
    -2
284
     1
 64
     0
275
    -2
285
     1
 65
     0
276
    -2
286
     1
 66
     0
277
    -2
287
     1
 67
     0
278
    -2
288
     1
 68
     0
279
    -2
289
     1
 69
     0
  7
STANDARD
140
6.0
170
     5
 62
     0
 63
     7
283
     0
274
    -2
284
     1
 64
     0
275
    -2
285
     1
 65
     0
276
    -2
286
     1
 66
     0
277
    -2
287
     1
 67
     0
278
    -2
288
     1
 68
     0
279
    -2
289
     1
 69
     0
  7
STANDARD
140
4.5
170
     5
 62
     0
 63
     7
283
     0
274
    -2
284
     1
 64
     0
275
    -2
285
     1
 65
     0
276
    -2
286
     1
 66
     0
277
    -2
287
     1
 67
     0
278
    -2
288
     1
 68
     0
279
    -2
289
     1
 69
     0
  0
VISUALSTYLE
  5
1487F
102
{ACAD_XDICTIONARY
360
15489
102
}
102
{ACAD_REACTORS
330
14879
102
}
330
14879
100
AcDbVisualStyle
  2
2dWireframe
 70
     4
 71
     0
 72
     2
 73
     0
 90
        0
 40
-0.6
 41
-30.0
 62
     5
 63
     7
 74
     1
 91
        4
 64
     7
 65
   257
 75
     1
175
     1
 42
1.0
 92
        0
 66
   257
 43
1.0
 76
     1
 77
     6
 78
     2
 67
     7
 79
     5
170
     0
171
     0
290
     0
174
     0
 93
        1
 44
0.0
173
     0
291
     0
 45
0.0
1001
ACAD
1000
AcDbSavedByObjectVersion
1070
     0
  0
VISUALSTYLE
  5
1487E
102
{ACAD_XDICTIONARY
360
15487
102
}
102
{ACAD_REACTORS
330
14879
102
}
330
14879
100
AcDbVisualStyle
  2
Basic
 70
     7
 71
     1
 72
     0
 73
     1
 90
        0
 40
-0.6
 41
-30.0
 62
     5
 63
     7
 74
     0
 91
        4
 64
     7
 65
   257
 75
     1
175
     1
 42
1.0
 92
        8
 66
     7
 43
1.0
 76
     1
 77
     6
 78
     2
 67
     7
 79
     5
170
     0
171
     0
290
     0
174
     0
 93
        1
 44
0.0
173
     0
291
     1
 45
0.0
1001
ACAD
1000
AcDbSavedByObjectVersion
1070
     0
  0
VISUALSTYLE
  5
14885
102
{ACAD_XDICTIONARY
360
15495
102
}
102
{ACAD_REACTORS
330
14879
102
}
330
14879
100
AcDbVisualStyle
  2
Brighten
 70
    12
 71
     2
 72
     2
 73
     0
 90
        0
 40
-0.6
 41
-30.0
 62
     5
 63
     7
 74
     1
 91
        4
 64
     7
 65
   257
 75
     1
175
     1
 42
1.0
 92
        8
 66
     7
 43
1.0
 76
     1
 77
     6
 78
     2
 67
     7
 79
     5
170
     0
171
     0
290
     0
174
     0
 93
        1
 44
50.0
173
     0
291
     1
 45
0.0
1001
ACAD
1000
AcDbSavedByObjectVersion
1070
     0
  0
VISUALSTYLE
  5
14889
102
{ACAD_XDICTIONARY
360
1549D
102
}
102
{ACAD_REACTORS
330
14879
102
}
330
14879
100
AcDbVisualStyle
  2
ColorChange
 70
    16
 71
     2
 72
     2
 73
     3
 90
        0
 40
-0.6
 41
-30.0
 62
     5
 63
     8
 74
     1
 91
        4
 64
     7
 65
   257
 75
     1
175
     1
 42
1.0
 92
        8
 66
     8
 43
1.0
 76
     1
 77
     6
 78
     2
 67
     7
 79
     5
170
     0
171
     0
290
     0
174
     0
 93
        1
 44
0.0
173
     0
291
     1
 45
0.0
1001
ACAD
1000
AcDbSavedByObjectVersion
1070
     0
  0
VISUALSTYLE
  5
14882
102
{ACAD_XDICTIONARY
360
1548F
102
}
102
{ACAD_REACTORS
330
14879
102
}
330
14879
100
AcDbVisualStyle
  2
Conceptual
 70
     9
 71
     3
 72
     2
 73
     0
 90
        0
 40
-0.6
 41
-30.0
 62
     5
 63
     7
 74
     2
 91
        2
 64
     7
 65
   257
 75
     1
175
     1
 42
179.0
 92
        8
 66
     7
 43
1.0
 76
     1
 77
     6
 78
     2
 67
     7
 79
     3
170
     0
171
     0
290
     0
174
     0
 93
        1
 44
0.0
173
     0
291
     0
 45
0.0
1001
ACAD
1000
AcDbSavedByObjectVersion
1070
     0
  0
VISUALSTYLE
  5
14884
102
{ACAD_XDICTIONARY
360
15493
102
}
102
{ACAD_REACTORS
330
14879
102
}
330
14879
100
AcDbVisualStyle
  2
Dim
 70
    11
 71
     2
 72
     2
 73
     0
 90
        0
 40
-0.6
 41
-30.0
 62
     5
 63
     7
 74
     1
 91
        4
 64
     7
 65
   257
 75
     1
175
     1
 42
1.0
 92
        8
 66
     7
 43
1.0
 76
     1
 77
     6
 78
     2
 67
     7
 79
     5
170
     0
171
     0
290
     0
174
     0
 93
        1
 44
-50.0
173
     0
291
     1
 45
0.0
1001
ACAD
1000
AcDbSavedByObjectVersion
1070
     0
  0
VISUALSTYLE
  5
14891
102
{ACAD_XDICTIONARY
360
154AD
102
}
102
{ACAD_REACTORS
330
14879
102
}
330
14879
100
AcDbVisualStyle
  2
EdgeColorOff
 70
    22
 71
     2
 72
     2
 73
     0
 90
        0
 40
-0.6
 41
-30.0
 62
     5
 63
     7
 74
     1
 91
        4
 64
     7
 65
   257
 75
     1
175
     1
 42
1.0
 92
        8
 66
     7
 43
1.0
 76
     1
 77
     6
 78
     2
 67
     7
 79
     5
170
     0
171
     0
290
     0
174
     0
 93
        1
 44
0.0
173
     0
291
     1
 45
0.0
1001
ACAD
1000
AcDbSavedByObjectVersion
1070
     0
  0
VISUALSTYLE
  5
14888
102
{ACAD_XDICTIONARY
360
1549B
102
}
102
{ACAD_REACTORS
330
14879
102
}
330
14879
100
AcDbVisualStyle
  2
Facepattern
 70
    15
 71
     2
 72
     2
 73
     0
 90
        0
 40
-0.6
 41
-30.0
 62
     5
 63
     7
 74
     1
 91
        4
 64
     7
 65
   257
 75
     1
175
     1
 42
1.0
 92
        8
 66
     7
 43
1.0
 76
     1
 77
     6
 78
     2
 67
     7
 79
     5
170
     0
171
     0
290
     0
174
     0
 93
        1
 44
0.0
173
     0
291
     1
 45
0.0
1001
ACAD
1000
AcDbSavedByObjectVersion
1070
     0
  0
VISUALSTYLE
  5
1487A
102
{ACAD_XDICTIONARY
360
1547F
102
}
102
{ACAD_REACTORS
330
14879
102
}
330
14879
100
AcDbVisualStyle
  2
Flat
 70
     0
 71
     2
 72
     1
 73
     1
 90
        2
 40
-0.6
 41
30.0
 62
     5
 63
     7
 74
     0
 91
        0
 64
     7
 65
   257
 75
     1
175
     1
 42
1.0
 92
        8
 66
     7
 43
1.0
 76
     1
 77
     6
 78
     2
 67
     7
 79
     5
170
     0
171
     0
290
     0
174
     0
 93
       13
 44
0.0
173
     0
291
     1
 45
0.0
1001
ACAD
1000
AcDbSavedByObjectVersion
1070
     0
  0
VISUALSTYLE
  5
1487B
102
{ACAD_XDICTIONARY
360
15481
102
}
102
{ACAD_REACTORS
330
14879
102
}
330
14879
100
AcDbVisualStyle
  2
FlatWithEdges
 70
     1
 71
     2
 72
     1
 73
     1
 90
        2
 40
-0.6
 41
30.0
 62
     5
 63
     7
 74
     1
 91
        0
 64
     7
 65
   257
 75
     1
175
     1
 42
1.0
 92
        0
 66
   257
 43
1.0
 76
     1
 77
     6
 78
     2
 67
     7
 79
     5
170
     0
171
     0
290
     0
174
     0
 93
       13
 44
0.0
173
     0
291
     1
 45
0.0
1001
ACAD
1000
AcDbSavedByObjectVersion
1070
     0
  0
VISUALSTYLE
  5
1487C
102
{ACAD_XDICTIONARY
360
15483
102
}
102
{ACAD_REACTORS
330
14879
102
}
330
14879
100
AcDbVisualStyle
  2
Gouraud
 70
     2
 71
     2
 72
     2
 73
     1
 90
        2
 40
-0.6
 41
30.0
 62
     5
 63
     7
 74
     0
 91
        0
 64
     7
 65
   257
 75
     1
175
     1
 42
1.0
 92
        0
 66
     7
 43
1.0
 76
     1
 77
     6
 78
     2
 67
     7
 79
     5
170
     0
171
     0
290
     0
174
     0
 93
       13
 44
0.0
173
     0
291
     1
 45
0.0
1001
ACAD
1000
AcDbSavedByObjectVersion
1070
     0
  0
VISUALSTYLE
  5
1487D
102
{ACAD_XDICTIONARY
360
15485
102
}
102
{ACAD_REACTORS
330
14879
102
}
330
14879
100
AcDbVisualStyle
  2
GouraudWithEdges
 70
     3
 71
     2
 72
     2
 73
     1
 90
        2
 40
-0.6
 41
30.0
 62
     5
 63
     7
 74
     1
 91
        0
 64
     7
 65
   257
 75
     1
175
     1
 42
1.0
 92
        0
 66
   257
 43
1.0
 76
     1
 77
     6
 78
     2
 67
     7
 79
     5
170
     0
171
     0
290
     0
174
     0
 93
       13
 44
0.0
173
     0
291
     1
 45
0.0
1001
ACAD
1000
AcDbSavedByObjectVersion
1070
     0
  0
VISUALSTYLE
  5
14881
102
{ACAD_XDICTIONARY
360
1548D
102
}
102
{ACAD_REACTORS
330
14879
102
}
330
14879
100
AcDbVisualStyle
  2
Hidden
 70
     6
 71
     1
 72
     2
 73
     2
 90
        0
 40
-0.6
 41
-30.0
 62
     5
 63
     7
 74
     2
 91
        2
 64
     7
 65
   257
 75
     2
175
     1
 42
40.0
 92
        0
 66
   257
 43
1.0
 76
     1
 77
     6
 78
     2
 67
     7
 79
     3
170
     0
171
     0
290
     0
174
     0
 93
        1
 44
0.0
173
     0
291
     0
 45
0.0
1001
ACAD
1000
AcDbSavedByObjectVersion
1070
     0
  0
VISUALSTYLE
  5
1488F
102
{ACAD_XDICTIONARY
360
154A9
102
}
102
{ACAD_REACTORS
330
14879
102
}
330
14879
100
AcDbVisualStyle
  2
JitterOff
 70
    20
 71
     2
 72
     2
 73
     0
 90
        0
 40
-0.6
 41
-30.0
 62
     5
 63
     7
 74
     1
 91
        4
 64
     7
 65
   257
 75
     1
175
     1
 42
1.0
 92
       10
 66
     7
 43
1.0
 76
     1
 77
     6
 78
     2
 67
     7
 79
     5
170
     0
171
     0
290
     0
174
     0
 93
        1
 44
0.0
173
     0
291
     1
 45
0.0
1001
ACAD
1000
AcDbSavedByObjectVersion
1070
     0
  0
VISUALSTYLE
  5
14887
102
{ACAD_XDICTIONARY
360
15499
102
}
102
{ACAD_REACTORS
330
14879
102
}
330
14879
100
AcDbVisualStyle
  2
Linepattern
 70
    14
 71
     2
 72
     2
 73
     0
 90
        0
 40
-0.6
 41
-30.0
 62
     5
 63
     7
 74
     1
 91
        4
 64
     7
 65
   257
 75
     7
175
     7
 42
1.0
 92
        8
 66
     7
 43
1.0
 76
     1
 77
     6
 78
     2
 67
     7
 79
     5
170
     0
171
     0
290
     0
174
     0
 93
        1
 44
0.0
173
     0
291
     1
 45
0.0
1001
ACAD
1000
AcDbSavedByObjectVersion
1070
     0
  0
VISUALSTYLE
  5
14890
102
{ACAD_XDICTIONARY
360
154AB
102
}
102
{ACAD_REACTORS
330
14879
102
}
330
14879
100
AcDbVisualStyle
  2
OverhangOff
 70
    21
 71
     2
 72
     2
 73
     0
 90
        0
 40
-0.6
 41
-30.0
 62
     5
 63
     7
 74
     1
 91
        4
 64
     7
 65
   257
 75
     1
175
     1
 42
1.0
 92
        9
 66
     7
 43
1.0
 76
     1
 77
     6
 78
     2
 67
     7
 79
     5
170
     0
171
     0
290
     0
174
     0
 93
        1
 44
0.0
173
     0
291
     1
 45
0.0
1001
ACAD
1000
AcDbSavedByObjectVersion
1070
     0
  0
VISUALSTYLE
  5
14883
102
{ACAD_XDICTIONARY
360
15491
102
}
102
{ACAD_REACTORS
330
14879
102
}
330
14879
100
AcDbVisualStyle
  2
Realistic
 70
     8
 71
     2
 72
     3
 73
     0
 90
        2
 40
-0.6
 41
30.0
 62
     5
 63
     7
 74
     0
 91
        0
 64
     7
 65
   257
 75
     1
175
     1
 42
1.0
 92
        8
 66
   257
 43
1.0
 76
     1
 77
     6
 78
     2
 67
     7
 79
     3
170
     0
171
     0
290
     0
174
     0
 93
       13
 44
0.0
173
     0
291
     0
 45
0.0
1001
ACAD
1000
AcDbSavedByObjectVersion
1070
     0
  0
VISUALSTYLE
  5
1488E
102
{ACAD_XDICTIONARY
360
154A7
102
}
102
{ACAD_REACTORS
330
14879
102
}
330
14879
100
AcDbVisualStyle
  2
Shaded
 70
    27
 71
     2
 72
     2
 73
     1
 90
        2
 40
-0.6
 41
30.0
 62
     5
 63
     7
 74
     0
 91
        4
 64
     7
 65
   257
 75
     1
175
     1
 42
1.0
 92
        8
 66
   257
 43
1.0
 76
     1
 77
     6
 78
     2
 67
     8
 79
     3
170
     0
171
     0
290
     0
174
     0
 93
        5
 44
0.0
173
     0
291
     0
 45
0.0
1001
ACAD
1000
AcDbSavedByObjectVersion
1070
     0
  0
VISUALSTYLE
  5
1488D
102
{ACAD_XDICTIONARY
360
154A5
102
}
102
{ACAD_REACTORS
330
14879
102
}
330
14879
100
AcDbVisualStyle
  2
Shaded with edges
 70
    26
 71
     2
 72
     2
 73
     1
 90
        2
 40
-0.6
 41
30.0
 62
     5
 63
     7
 74
     1
 91
       10
 64
     7
 65
   257
 75
     2
175
     1
 42
1.0
 92
        8
 66
   257
 43
1.0
 76
     1
 77
     6
 78
     2
 67
     7
 79
     3
170
     0
171
     0
290
     0
174
     0
 93
        5
 44
0.0
173
     0
291
     0
 45
0.0
1001
ACAD
1000
AcDbSavedByObjectVersion
1070
     0
  0
VISUALSTYLE
  5
1488A
102
{ACAD_XDICTIONARY
360
1549F
102
}
102
{ACAD_REACTORS
330
14879
102
}
330
14879
100
AcDbVisualStyle
  2
Shades of Gray
 70
    23
 71
     2
 72
     2
 73
     3
 90
        0
 40
-0.6
 41
-30.0
 62
     5
 63
     7
 74
     2
 91
        2
 64
     7
 65
     7
 75
     1
175
     1
 42
40.0
 92
        8
 66
     7
 43
1.0
 76
     1
 77
     6
 78
     2
 67
     7
 79
     3
170
     0
171
     0
290
     0
174
     0
 93
        1
 44
0.0
173
     0
291
     0
 45
0.0
1001
ACAD
1000
AcDbSavedByObjectVersion
1070
     0
  0
VISUALSTYLE
  5
1488B
102
{ACAD_XDICTIONARY
360
154A1
102
}
102
{ACAD_REACTORS
330
14879
102
}
330
14879
100
AcDbVisualStyle
  2
Sketchy
 70
    24
 71
     1
 72
     2
 73
     2
 90
        0
 40
-0.6
 41
-30.0
 62
     5
 63
     7
 74
     2
 91
        2
 64
     7
 65
     7
 75
     1
175
     1
 42
40.0
 92
       11
 66
     7
 43
1.0
 76
     1
 77
     6
 78
     2
 67
     7
 79
     6
170
     0
171
     0
290
     0
174
     0
 93
        1
 44
0.0
173
     0
291
     0
 45
0.0
1001
ACAD
1000
AcDbSavedByObjectVersion
1070
     0
  0
VISUALSTYLE
  5
14886
102
{ACAD_XDICTIONARY
360
15497
102
}
102
{ACAD_REACTORS
330
14879
102
}
330
14879
100
AcDbVisualStyle
  2
Thicken
 70
    13
 71
     2
 72
     2
 73
     0
 90
        0
 40
-0.6
 41
-30.0
 62
     5
 63
     7
 74
     1
 91
        4
 64
     7
 65
   257
 75
     1
175
     1
 42
1.0
 92
       12
 66
     7
 43
1.0
 76
     1
 77
     6
 78
     2
 67
     7
 79
     5
170
     0
171
     0
290
     0
174
     0
 93
        1
 44
0.0
173
     0
291
     1
 45
0.0
1001
ACAD
1000
AcDbSavedByObjectVersion
1070
     0
  0
VISUALSTYLE
  5
14880
102
{ACAD_XDICTIONARY
360
1548B
102
}
102
{ACAD_REACTORS
330
14879
102
}
330
14879
100
AcDbVisualStyle
  2
Wireframe
 70
     5
 71
     0
 72
     2
 73
     0
 90
        0
 40
-0.6
 41
-30.0
 62
     5
 63
     7
 74
     1
 91
        4
 64
     7
 65
   257
 75
     1
175
     1
 42
1.0
 92
        0
 66
   257
 43
1.0
 76
     1
 77
     6
 78
     2
 67
     7
 79
     3
170
     0
171
     0
290
     0
174
     0
 93
        1
 44
0.0
173
     0
291
     0
 45
0.0
1001
ACAD
1000
AcDbSavedByObjectVersion
1070
     0
  0
VISUALSTYLE
  5
1488C
102
{ACAD_XDICTIONARY
360
154A3
102
}
102
{ACAD_REACTORS
330
14879
102
}
330
14879
100
AcDbVisualStyle
  2
X-Ray
 70
    25
 71
     2
 72
     2
 73
     1
 90
        1
 40
0.5
 41
-30.0
 62
     5
 63
     7
 74
     1
 91
        0
 64
     7
 65
   257
 75
     1
175
     1
 42
1.0
 92
        8
 66
     7
 43
1.0
 76
     1
 77
     6
 78
     2
 67
     7
 79
     3
170
     0
171
     0
290
     0
174
     0
 93
       13
 44
0.0
173
     0
291
     0
 45
0.0
1001
ACAD
1000
AcDbSavedByObjectVersion
1070
     0
  0
DICTIONARYVAR
  5
14F57
102
{ACAD_REACTORS
330
14F51
102
}
330
14F51
100
DictionaryVariables
280
     0
  1
1:1
  0
DICTIONARYVAR
  5
14F53
102
{ACAD_REACTORS
330
14F51
102
}
330
14F51
100
DictionaryVariables
280
     0
  1
STANDARD
  0
DICTIONARYVAR
  5
14F52
102
{ACAD_REACTORS
330
14F51
102
}
330
14F51
100
DictionaryVariables
280
     0
  1
STANDARD
  0
DICTIONARYVAR
  5
14F54
102
{ACAD_REACTORS
330
14F51
102
}
330
14F51
100
DictionaryVariables
280
     0
  1
Metric50
  0
DICTIONARYVAR
  5
14F55
102
{ACAD_REACTORS
330
14F51
102
}
330
14F51
100
DictionaryVariables
280
     0
  1
Metric50
  0
DICTIONARYVAR
  5
15469
102
{ACAD_REACTORS
330
14F51
102
}
330
14F51
100
DictionaryVariables
280
     0
  1
1
  0
DICTIONARYVAR
  5
15467
102
{ACAD_REACTORS
330
14F51
102
}
330
14F51
100
DictionaryVariables
280
     0
  1
0
  0
DICTIONARYVAR
  5
14F59
102
{ACAD_REACTORS
330
14F51
102
}
330
14F51
100
DictionaryVariables
280
     0
  1
1
  0
DICTIONARYVAR
  5
14F5A
102
{ACAD_REACTORS
330
14F51
102
}
330
14F51
100
DictionaryVariables
280
     0
  1
15
  0
DICTIONARYVAR
  5
14F58
102
{ACAD_REACTORS
330
14F51
102
}
330
14F51
100
DictionaryVariables
280
     0
  1
0
  0
DICTIONARYVAR
  5
14F56
102
{ACAD_REACTORS
330
14F51
102
}
330
14F51
100
DictionaryVariables
280
     0
  1
0
  0
DICTIONARYVAR
  5
15466
102
{ACAD_REACTORS
330
14F51
102
}
330
14F51
100
DictionaryVariables
280
     0
  1
127
  0
DICTIONARYVAR
  5
15468
102
{ACAD_REACTORS
330
14F51
102
}
330
14F51
100
DictionaryVariables
280
     0
  1
0
  0
DICTIONARY
  5
15475
102
{ACAD_REACTORS
330
15473
102
}
330
15473
100
AcDbDictionary
281
     1
  0
DICTIONARY
  5
15474
102
{ACAD_REACTORS
330
15473
102
}
330
15473
100
AcDbDictionary
281
     1
  3
2130431792
350
1546E
  3
2130431800
350
1546F
  3
2130431808
350
15470
  3
2130431816
350
15471
  3
2130431824
350
15472
  0
DICTIONARY
  5
14F4E
330
148AB
100
AcDbDictionary
280
     1
281
     1
  3
ACAD_XREC_ROUNDTRIP
360
154B4
  0
DICTIONARY
  5
15478
330
146F0
100
AcDbDictionary
280
     1
281
     1
  3
ACAD_XREC_ROUNDTRIP
360
15479
  0
DICTIONARY
  5
1547A
330
146F1
100
AcDbDictionary
280
     1
281
     1
  3
ACAD_XREC_ROUNDTRIP
360
1547B
  0
DICTIONARY
  5
1486A
330
14869
100
AcDbDictionary
280
     1
281
     1
  3
ACAD_XREC_ROUNDTRIP
360
1547D
  3
BUMPTILE
360
1486C
  3
DIFFUSETILE
360
1486B
  3
OPACITYTILE
360
1486F
  3
REFLECTIONTILE
360
1486E
  3
REFRACTIONTILE
360
14870
  3
SPECULARTILE
360
1486D
  0
DICTIONARY
  5
14862
330
14861
100
AcDbDictionary
280
     1
281
     1
  3
ACAD_XREC_ROUNDTRIP
360
1547C
  3
BUMPTILE
360
14864
  3
DIFFUSETILE
360
14863
  3
OPACITYTILE
360
14867
  3
REFLECTIONTILE
360
14866
  3
REFRACTIONTILE
360
14868
  3
SPECULARTILE
360
14865
  0
DICTIONARY
  5
14872
330
14871
100
AcDbDictionary
280
     1
281
     1
  3
ACAD_XREC_ROUNDTRIP
360
1547E
  3
BUMPTILE
360
14874
  3
DIFFUSETILE
360
14873
  3
OPACITYTILE
360
14877
  3
REFLECTIONTILE
360
14876
  3
REFRACTIONTILE
360
14878
  3
SPECULARTILE
360
14875
  0
DICTIONARY
  5
154B1
330
148A7
100
AcDbDictionary
280
     1
281
     1
  3
ACAD_XREC_ROUNDTRIP
360
154B2
  0
DICTIONARY
  5
14F4C
330
148A9
100
AcDbDictionary
280
     1
281
     1
  3
ACAD_XREC_ROUNDTRIP
360
154B3
  0
DICTIONARY
  5
1546A
330
14893
100
AcDbDictionary
280
     1
281
     1
  3
ACAD_ROUNDTRIP_2008_TABLESTYLE_CELLSTYLEMAP
360
1546B
  3
ACAD_XREC_ROUNDTRIP
360
154AF
  0
DICTIONARY
  5
15489
330
1487F
100
AcDbDictionary
280
     1
281
     1
  3
ACAD_XREC_ROUNDTRIP
360
1548A
  0
DICTIONARY
  5
15487
330
1487E
100
AcDbDictionary
280
     1
281
     1
  3
ACAD_XREC_ROUNDTRIP
360
15488
  0
DICTIONARY
  5
15495
330
14885
100
AcDbDictionary
280
     1
281
     1
  3
ACAD_XREC_ROUNDTRIP
360
15496
  0
DICTIONARY
  5
1549D
330
14889
100
AcDbDictionary
280
     1
281
     1
  3
ACAD_XREC_ROUNDTRIP
360
1549E
  0
DICTIONARY
  5
1548F
330
14882
100
AcDbDictionary
280
     1
281
     1
  3
ACAD_XREC_ROUNDTRIP
360
15490
  0
DICTIONARY
  5
15493
330
14884
100
AcDbDictionary
280
     1
281
     1
  3
ACAD_XREC_ROUNDTRIP
360
15494
  0
DICTIONARY
  5
154AD
330
14891
100
AcDbDictionary
280
     1
281
     1
  3
ACAD_XREC_ROUNDTRIP
360
154AE
  0
DICTIONARY
  5
1549B
330
14888
100
AcDbDictionary
280
     1
281
     1
  3
ACAD_XREC_ROUNDTRIP
360
1549C
  0
DICTIONARY
  5
1547F
330
1487A
100
AcDbDictionary
280
     1
281
     1
  3
ACAD_XREC_ROUNDTRIP
360
15480
  0
DICTIONARY
  5
15481
330
1487B
100
AcDbDictionary
280
     1
281
     1
  3
ACAD_XREC_ROUNDTRIP
360
15482
  0
DICTIONARY
  5
15483
330
1487C
100
AcDbDictionary
280
     1
281
     1
  3
ACAD_XREC_ROUNDTRIP
360
15484
  0
DICTIONARY
  5
15485
330
1487D
100
AcDbDictionary
280
     1
281
     1
  3
ACAD_XREC_ROUNDTRIP
360
15486
  0
DICTIONARY
  5
1548D
330
14881
100
AcDbDictionary
280
     1
281
     1
  3
ACAD_XREC_ROUNDTRIP
360
1548E
  0
DICTIONARY
  5
154A9
330
1488F
100
AcDbDictionary
280
     1
281
     1
  3
ACAD_XREC_ROUNDTRIP
360
154AA
  0
DICTIONARY
  5
15499
330
14887
100
AcDbDictionary
280
     1
281
     1
  3
ACAD_XREC_ROUNDTRIP
360
1549A
  0
DICTIONARY
  5
154AB
330
14890
100
AcDbDictionary
280
     1
281
     1
  3
ACAD_XREC_ROUNDTRIP
360
154AC
  0
DICTIONARY
  5
15491
330
14883
100
AcDbDictionary
280
     1
281
     1
  3
ACAD_XREC_ROUNDTRIP
360
15492
  0
DICTIONARY
  5
154A7
330
1488E
100
AcDbDictionary
280
     1
281
     1
  3
ACAD_XREC_ROUNDTRIP
360
154A8
  0
DICTIONARY
  5
154A5
330
1488D
100
AcDbDictionary
280
     1
281
     1
  3
ACAD_XREC_ROUNDTRIP
360
154A6
  0
DICTIONARY
  5
1549F
330
1488A
100
AcDbDictionary
280
     1
281
     1
  3
ACAD_XREC_ROUNDTRIP
360
154A0
  0
DICTIONARY
  5
154A1
330
1488B
100
AcDbDictionary
280
     1
281
     1
  3
ACAD_XREC_ROUNDTRIP
360
154A2
  0
DICTIONARY
  5
15497
330
14886
100
AcDbDictionary
280
     1
281
     1
  3
ACAD_XREC_ROUNDTRIP
360
15498
  0
DICTIONARY
  5
1548B
330
14880
100
AcDbDictionary
280
     1
281
     1
  3
ACAD_XREC_ROUNDTRIP
360
1548C
  0
DICTIONARY
  5
154A3
330
1488C
100
AcDbDictionary
280
     1
281
     1
  3
ACAD_XREC_ROUNDTRIP
360
154A4
  0
XRECORD
  5
1546E
102
{ACAD_REACTORS
330
15474
102
}
330
15474
100
AcDbXrecord
280
     1
  1
AcDb_Thumbnail_Schema
102
{ATTRRECORD
341
1546F
  2
AcDbDs::TreatedAsObjectData
280
     1
291
     1
102
ATTRRECORD}
102
{ATTRRECORD
341
15470
  2
AcDbDs::Legacy
280
     1
291
     1
102
ATTRRECORD}
  2
AcDbDs::ID
280
    10
 91
        8
102
{ATTRRECORD
341
15471
  2
AcDs:Indexable
280
     1
291
     1
102
ATTRRECORD}
102
{ATTRRECORD
341
15472
  2
AcDbDs::HandleAttribute
280
     7
282
     1
102
ATTRRECORD}
  2
Thumbnail_Data
280
    15
 91
        0
  0
XRECORD
  5
1546F
102
{ACAD_REACTORS
330
15474
102
}
330
15474
100
AcDbXrecord
280
     1
  1
AcDbDs::TreatedAsObjectDataSchema
  2
AcDbDs::TreatedAsObjectData
280
     1
 91
        0
  0
XRECORD
  5
15470
102
{ACAD_REACTORS
330
15474
102
}
330
15474
100
AcDbXrecord
280
     1
  1
AcDbDs::LegacySchema
  2
AcDbDs::Legacy
280
     1
 91
        0
  0
XRECORD
  5
15471
102
{ACAD_REACTORS
330
15474
102
}
330
15474
100
AcDbXrecord
280
     1
  1
AcDbDs::IndexedPropertySchema
  2
AcDs:Indexable
280
     1
 91
        0
  0
XRECORD
  5
15472
102
{ACAD_REACTORS
330
15474
102
}
330
15474
100
AcDbXrecord
280
     1
  1
AcDbDs::HandleAttributeSchema
  2
AcDbDs::HandleAttribute
280
     7
 91
        1
284
     1
  0
XRECORD
  5
154B4
102
{ACAD_REACTORS
330
14F4E
102
}
330
14F4E
100
AcDbXrecord
280
     1
102
DISPLAYNAME
  1
Metric50
102
FLAGS
 90
        0
  0
XRECORD
  5
15479
102
{ACAD_REACTORS
330
15478
102
}
330
15478
100
AcDbXrecord
280
     1
102
SHADEPLOT
 70
     0
102
SHADEPLOTRESLEVEL
 70
     2
102
SHADEPLOTCUSTOMDPI
 70
   300
  0
XRECORD
  5
1547B
102
{ACAD_REACTORS
330
1547A
102
}
330
1547A
100
AcDbXrecord
280
     1
102
SHADEPLOT
 70
     0
102
SHADEPLOTRESLEVEL
 70
     2
102
SHADEPLOTCUSTOMDPI
 70
   300
  0
XRECORD
  5
1547D
102
{ACAD_REACTORS
330
1486A
102
}
330
1486A
100
AcDbXrecord
280
     1
102
MATERIAL
148
0.0
149
0.0
149
0.0
 93
        0
 94
      127
282
     0
 72
     0
 77
     0
171
     0
175
     0
179
     0
273
     0
  0
XRECORD
  5
1486C
102
{ACAD_REACTORS
330
1486A
102
}
330
1486A
100
AcDbXrecord
280
     1
270
     1
271
     1
  0
XRECORD
  5
1486B
102
{ACAD_REACTORS
330
1486A
102
}
330
1486A
100
AcDbXrecord
280
     1
270
     1
271
     1
  0
XRECORD
  5
1486F
102
{ACAD_REACTORS
330
1486A
102
}
330
1486A
100
AcDbXrecord
280
     1
270
     1
271
     1
  0
XRECORD
  5
1486E
102
{ACAD_REACTORS
330
1486A
102
}
330
1486A
100
AcDbXrecord
280
     1
270
     1
271
     1
  0
XRECORD
  5
14870
102
{ACAD_REACTORS
330
1486A
102
}
330
1486A
100
AcDbXrecord
280
     1
270
     1
271
     1
  0
XRECORD
  5
1486D
102
{ACAD_REACTORS
330
1486A
102
}
330
1486A
100
AcDbXrecord
280
     1
270
     1
271
     1
  0
XRECORD
  5
1547C
102
{ACAD_REACTORS
330
14862
102
}
330
14862
100
AcDbXrecord
280
     1
102
MATERIAL
148
0.0
149
0.0
149
0.0
 93
        0
 94
      127
282
     0
 72
     0
 77
     0
171
     0
175
     0
179
     0
273
     0
  0
XRECORD
  5
14864
102
{ACAD_REACTORS
330
14862
102
}
330
14862
100
AcDbXrecord
280
     1
270
     1
271
     1
  0
XRECORD
  5
14863
102
{ACAD_REACTORS
330
14862
102
}
330
14862
100
AcDbXrecord
280
     1
270
     1
271
     1
  0
XRECORD
  5
14867
102
{ACAD_REACTORS
330
14862
102
}
330
14862
100
AcDbXrecord
280
     1
270
     1
271
     1
  0
XRECORD
  5
14866
102
{ACAD_REACTORS
330
14862
102
}
330
14862
100
AcDbXrecord
280
     1
270
     1
271
     1
  0
XRECORD
  5
14868
102
{ACAD_REACTORS
330
14862
102
}
330
14862
100
AcDbXrecord
280
     1
270
     1
271
     1
  0
XRECORD
  5
14865
102
{ACAD_REACTORS
330
14862
102
}
330
14862
100
AcDbXrecord
280
     1
270
     1
271
     1
  0
XRECORD
  5
1547E
102
{ACAD_REACTORS
330
14872
102
}
330
14872
100
AcDbXrecord
280
     1
102
MATERIAL
148
0.0
149
0.0
149
0.0
 93
        0
 94
      127
282
     0
 72
     0
 77
     0
171
     0
175
     0
179
     0
273
     0
  0
XRECORD
  5
14874
102
{ACAD_REACTORS
330
14872
102
}
330
14872
100
AcDbXrecord
280
     1
270
     1
271
     1
  0
XRECORD
  5
14873
102
{ACAD_REACTORS
330
14872
102
}
330
14872
100
AcDbXrecord
280
     1
270
     1
271
     1
  0
XRECORD
  5
14877
102
{ACAD_REACTORS
330
14872
102
}
330
14872
100
AcDbXrecord
280
     1
270
     1
271
     1
  0
XRECORD
  5
14876
102
{ACAD_REACTORS
330
14872
102
}
330
14872
100
AcDbXrecord
280
     1
270
     1
271
     1
  0
XRECORD
  5
14878
102
{ACAD_REACTORS
330
14872
102
}
330
14872
100
AcDbXrecord
280
     1
270
     1
271
     1
  0
XRECORD
  5
14875
102
{ACAD_REACTORS
330
14872
102
}
330
14872
100
AcDbXrecord
280
     1
270
     1
271
     1
  0
XRECORD
  5
154B2
102
{ACAD_REACTORS
330
154B1
102
}
330
154B1
100
AcDbXrecord
280
     1
102
ACAD_ROUNDTRIP_2012_MLEADER_STYLE
298
     1
  0
XRECORD
  5
154B3
102
{ACAD_REACTORS
330
14F4C
102
}
330
14F4C
100
AcDbXrecord
280
     1
102
DISPLAYNAME
  1
Metric50
102
FLAGS
 90
        0
  0
CELLSTYLEMAP
  5
1546B
102
{ACAD_REACTORS
330
1546A
102
}
330
1546A
100
AcDbCellStyleMap
 90
        3
300
CELLSTYLE
  1
TABLEFORMAT_BEGIN
 90
        5
170
     1
 91
        0
 92
    32768
 62
   257
 93
        1
300
CONTENTFORMAT
  1
CONTENTFORMAT_BEGIN
 90
        0
 91
        0
 92
      512
 93
        0
300

 40
0.0
140
1.0
 94
        5
 62
     0
340
7475
144
6.0
309
CONTENTFORMAT_END
171
     1
301
MARGIN
  1
CELLMARGIN_BEGIN
 40
1.5
 40
1.5
 40
1.5
 40
1.5
 40
4.5
 40
4.5
309
CELLMARGIN_END
 94
        6
 95
        1
302
GRIDFORMAT
  1
GRIDFORMAT_BEGIN
 90
        0
 91
        1
 62
     0
 92
       -2
340
0
 93
        0
 40
1.125
309
GRIDFORMAT_END
 95
        2
302
GRIDFORMAT
  1
GRIDFORMAT_BEGIN
 90
        0
 91
        1
 62
     0
 92
       -2
340
0
 93
        0
 40
1.125
309
GRIDFORMAT_END
 95
        4
302
GRIDFORMAT
  1
GRIDFORMAT_BEGIN
 90
        0
 91
        1
 62
     0
 92
       -2
340
0
 93
        0
 40
1.125
309
GRIDFORMAT_END
 95
        8
302
GRIDFORMAT
  1
GRIDFORMAT_BEGIN
 90
        0
 91
        1
 62
     0
 92
       -2
340
0
 93
        0
 40
1.125
309
GRIDFORMAT_END
 95
       16
302
GRIDFORMAT
  1
GRIDFORMAT_BEGIN
 90
        0
 91
        1
 62
     0
 92
       -2
340
0
 93
        0
 40
1.125
309
GRIDFORMAT_END
 95
       32
302
GRIDFORMAT
  1
GRIDFORMAT_BEGIN
 90
        0
 91
        1
 62
     0
 92
       -2
340
0
 93
        0
 40
1.125
309
GRIDFORMAT_END
309
TABLEFORMAT_END
  1
CELLSTYLE_BEGIN
 90
        1
 91
        1
300
_TITLE
309
CELLSTYLE_END
300
CELLSTYLE
  1
TABLEFORMAT_BEGIN
 90
        5
170
     1
 91
        0
 92
        0
 62
   257
 93
        1
300
CONTENTFORMAT
  1
CONTENTFORMAT_BEGIN
 90
        0
 91
        0
 92
      512
 93
        0
300

 40
0.0
140
1.0
 94
        5
 62
     0
340
7475
144
4.5
309
CONTENTFORMAT_END
171
     1
301
MARGIN
  1
CELLMARGIN_BEGIN
 40
1.5
 40
1.5
 40
1.5
 40
1.5
 40
4.5
 40
4.5
309
CELLMARGIN_END
 94
        6
 95
        1
302
GRIDFORMAT
  1
GRIDFORMAT_BEGIN
 90
        0
 91
        1
 62
     0
 92
       -2
340
0
 93
        0
 40
1.125
309
GRIDFORMAT_END
 95
        2
302
GRIDFORMAT
  1
GRIDFORMAT_BEGIN
 90
        0
 91
        1
 62
     0
 92
       -2
340
0
 93
        0
 40
1.125
309
GRIDFORMAT_END
 95
        4
302
GRIDFORMAT
  1
GRIDFORMAT_BEGIN
 90
        0
 91
        1
 62
     0
 92
       -2
340
0
 93
        0
 40
1.125
309
GRIDFORMAT_END
 95
        8
302
GRIDFORMAT
  1
GRIDFORMAT_BEGIN
 90
        0
 91
        1
 62
     0
 92
       -2
340
0
 93
        0
 40
1.125
309
GRIDFORMAT_END
 95
       16
302
GRIDFORMAT
  1
GRIDFORMAT_BEGIN
 90
        0
 91
        1
 62
     0
 92
       -2
340
0
 93
        0
 40
1.125
309
GRIDFORMAT_END
 95
       32
302
GRIDFORMAT
  1
GRIDFORMAT_BEGIN
 90
        0
 91
        1
 62
     0
 92
       -2
340
0
 93
        0
 40
1.125
309
GRIDFORMAT_END
309
TABLEFORMAT_END
  1
CELLSTYLE_BEGIN
 90
        2
 91
        1
300
_HEADER
309
CELLSTYLE_END
300
CELLSTYLE
  1
TABLEFORMAT_BEGIN
 90
        5
170
     1
 91
        0
 92
        0
 62
   257
 93
        1
300
CONTENTFORMAT
  1
CONTENTFORMAT_BEGIN
 90
        0
 91
        0
 92
      512
 93
        0
300

 40
0.0
140
1.0
 94
        2
 62
     0
340
7475
144
4.5
309
CONTENTFORMAT_END
171
     1
301
MARGIN
  1
CELLMARGIN_BEGIN
 40
1.5
 40
1.5
 40
1.5
 40
1.5
 40
4.5
 40
4.5
309
CELLMARGIN_END
 94
        6
 95
        1
302
GRIDFORMAT
  1
GRIDFORMAT_BEGIN
 90
        0
 91
        1
 62
     0
 92
       -2
340
0
 93
        0
 40
1.125
309
GRIDFORMAT_END
 95
        2
302
GRIDFORMAT
  1
GRIDFORMAT_BEGIN
 90
        0
 91
        1
 62
     0
 92
       -2
340
0
 93
        0
 40
1.125
309
GRIDFORMAT_END
 95
        4
302
GRIDFORMAT
  1
GRIDFORMAT_BEGIN
 90
        0
 91
        1
 62
     0
 92
       -2
340
0
 93
        0
 40
1.125
309
GRIDFORMAT_END
 95
        8
302
GRIDFORMAT
  1
GRIDFORMAT_BEGIN
 90
        0
 91
        1
 62
     0
 92
       -2
340
0
 93
        0
 40
1.125
309
GRIDFORMAT_END
 95
       16
302
GRIDFORMAT
  1
GRIDFORMAT_BEGIN
 90
        0
 91
        1
 62
     0
 92
       -2
340
0
 93
        0
 40
1.125
309
GRIDFORMAT_END
 95
       32
302
GRIDFORMAT
  1
GRIDFORMAT_BEGIN
 90
        0
 91
        1
 62
     0
 92
       -2
340
0
 93
        0
 40
1.125
309
GRIDFORMAT_END
309
TABLEFORMAT_END
  1
CELLSTYLE_BEGIN
 90
        3
 91
        2
300
_DATA
309
CELLSTYLE_END
  0
XRECORD
  5
154AF
102
{ACAD_REACTORS
330
1546A
102
}
330
1546A
100
AcDbXrecord
280
     1
102
ACAD_ROUNDTRIP_PRE2007_TABLESTYLE
 90
      512
 91
        0
  1

 92
      512
 93
        0
  2

 94
      512
 95
        0
  3

  0
XRECORD
  5
1548A
102
{ACAD_REACTORS
330
15489
102
}
330
15489
100
AcDbXrecord
280
     1
102
RTVSPost2010Prop28
280
     1
102
RTVSPost2010PropOp28
 70
     1
102
RTVSPost2010Prop29
280
     1
102
RTVSPost2010PropOp29
 70
     1
102
RTVSPost2010Prop30
280
     0
102
RTVSPost2010PropOp30
 70
     1
102
RTVSPost2010Prop31
280
     0
102
RTVSPost2010PropOp31
 70
     1
102
RTVSPost2010Prop32
280
     0
102
RTVSPost2010PropOp32
 70
     1
102
RTVSPost2010Prop33
280
     0
102
RTVSPost2010PropOp33
 70
     1
102
RTVSPost2010Prop34
280
     0
102
RTVSPost2010PropOp34
 70
     1
102
RTVSPost2010Prop35
280
     0
102
RTVSPost2010PropOp35
 70
     1
102
RTVSPost2010Prop36
280
     0
102
RTVSPost2010PropOp36
 70
     1
102
RTVSPost2010Prop37
 90
       50
102
RTVSPost2010PropOp37
 70
     1
102
RTVSPost2010Prop38
140
0.0
102
RTVSPost2010PropOp38
 70
     1
102
RTVSPost2010Prop39
140
1.0
102
RTVSPost2010PropOp39
 70
     1
102
RTVSPost2010Prop40
 90
        0
102
RTVSPost2010PropOp40
 70
     1
102
RTVSPost2010Prop41ColorIndex
 90
       18
102
RTVSPost2010Prop41ColorRGB
 90
        0
102
RTVSPost2010PropOp41
 70
     1
102
RTVSPost2010Prop42
 90
       50
102
RTVSPost2010PropOp42
 70
     1
102
RTVSPost2010Prop43
 90
        3
102
RTVSPost2010PropOp43
 70
     1
102
RTVSPost2010Prop44ColorIndex
 90
        5
102
RTVSPost2010Prop44ColorRGB
 90
      255
102
RTVSPost2010PropOp44
 70
     1
102
RTVSPost2010Prop45
280
     0
102
RTVSPost2010PropOp45
 70
     1
102
RTVSPost2010Prop46
 90
       50
102
RTVSPost2010PropOp46
 70
     1
102
RTVSPost2010Prop47
 90
       50
102
RTVSPost2010PropOp47
 70
     1
102
RTVSPost2010Prop48
 90
       50
102
RTVSPost2010PropOp48
 70
     1
102
RTVSPost2010Prop49
280
     0
102
RTVSPost2010PropOp49
 70
     1
102
RTVSPost2010Prop50
 90
       50
102
RTVSPost2010PropOp50
 70
     1
102
RTVSPost2010Prop51ColorIndex
 90
      256
102
RTVSPost2010Prop51ColorRGB
 90
-16777216
102
RTVSPost2010PropOp51
 70
     0
102
RTVSPost2010Prop52
140
1.0
102
RTVSPost2010PropOp52
 70
     0
102
RTVSPost2010Prop53
 90
        2
102
RTVSPost2010PropOp53
 70
     1
102
RTVSPost2010Prop54
  1
strokes_ogs.tif
102
RTVSPost2010PropOp54
 70
     1
102
RTVSPost2010Prop55
280
     0
102
RTVSPost2010PropOp55
 70
     1
102
RTVSPost2010Prop56
140
1.0
102
RTVSPost2010PropOp56
 70
     1
102
RTVSPost2010Prop57
140
1.0
102
RTVSPost2010PropOp57
 70
     1
102
RTVSPropertyOp0
 70
     1
102
RTVSPropertyOp1
 70
     1
102
RTVSPropertyOp2
 70
     1
102
RTVSPropertyOp3
 70
     1
102
RTVSPropertyOp4
 70
     1
102
RTVSPropertyOp5
 70
     1
102
RTVSPropertyOp6
 70
     1
102
RTVSPropertyOp7
 70
     1
102
RTVSPropertyOp8
 70
     1
102
RTVSPropertyOp9
 70
     1
102
RTVSPropertyOp10
 70
     1
102
RTVSPropertyOp11
 70
     1
102
RTVSPropertyOp12
 70
     1
102
RTVSPropertyOp13
 70
     1
102
RTVSPropertyOp14
 70
     1
102
RTVSPropertyOp15
 70
     1
102
RTVSPropertyOp16
 70
     1
102
RTVSPropertyOp17
 70
     1
102
RTVSPropertyOp18
 70
     1
102
RTVSPropertyOp19
 70
     1
102
RTVSPropertyOp20
 70
     1
102
RTVSPropertyOp21
 70
     1
102
RTVSPropertyOp22
 70
     1
102
RTVSPropertyOp23
 70
     1
102
RTVSPropertyOp24
 70
     1
102
RTVSPropertyOp25
 70
     1
102
RTVSPropertyOp26
 70
     1
102
RTVSPropertyOp27
 70
     1
102
RTVSPropertyOp28
 70
     1
102
RTVSPropertyOp29
 70
     1
102
RTVSPropertyOp30
 70
     1
102
RTVSPropertyOp31
 70
     1
102
RTVSPropertyOp32
 70
     1
102
RTVSPropertyOp33
 70
     1
102
RTVSPropertyOp34
 70
     1
102
RTVSPropertyOp35
 70
     1
102
RTVSPropertyOp36
 70
     1
102
RTVSPropertyOp37
 70
     1
102
RTVSPropertyOp38
 70
     1
102
RTVSPropertyOp39
 70
     1
102
RTVSPropertyOp40
 70
     1
102
RTVSPropertyOp41
 70
     1
102
RTVSPropertyOp42
 70
     1
102
RTVSPropertyOp43
 70
     1
102
RTVSPropertyOp44
 70
     1
102
RTVSPropertyOp45
 70
     1
102
RTVSPropertyOp46
 70
     1
102
RTVSPropertyOp47
 70
     1
102
RTVSPropertyOp48
 70
     1
102
RTVSPropertyOp49
 70
     1
102
RTVSPropertyOp50
 70
     1
102
RTVSPropertyOp51
 70
     0
102
RTVSPropertyOp52
 70
     0
102
RTVSPropertyOp53
 70
     1
102
RTVSPropertyOp54
 70
     1
102
RTVSPropertyOp55
 70
     1
102
RTVSPropertyOp56
 70
     1
102
RTVSPropertyOp57
 70
     1
102
RTVSPropertyOp58
 70
     1
102
RTVSPropertyOp59
 70
     1
102
RTVSPropertyOp60
 70
     1
102
RTVSPropertyOp61
 70
     1
102
RTVSPropertyOp62
 70
     1
  0
XRECORD
  5
15488
102
{ACAD_REACTORS
330
15487
102
}
330
15487
100
AcDbXrecord
280
     1
102
RTVSPost2010Prop28
280
     0
102
RTVSPost2010PropOp28
 70
     1
102
RTVSPost2010Prop29
280
     1
102
RTVSPost2010PropOp29
 70
     1
102
RTVSPost2010Prop30
280
     1
102
RTVSPost2010PropOp30
 70
     1
102
RTVSPost2010Prop31
280
     0
102
RTVSPost2010PropOp31
 70
     1
102
RTVSPost2010Prop32
280
     0
102
RTVSPost2010PropOp32
 70
     1
102
RTVSPost2010Prop33
280
     0
102
RTVSPost2010PropOp33
 70
     1
102
RTVSPost2010Prop34
280
     0
102
RTVSPost2010PropOp34
 70
     1
102
RTVSPost2010Prop35
280
     0
102
RTVSPost2010PropOp35
 70
     1
102
RTVSPost2010Prop36
280
     0
102
RTVSPost2010PropOp36
 70
     1
102
RTVSPost2010Prop37
 90
       50
102
RTVSPost2010PropOp37
 70
     1
102
RTVSPost2010Prop38
140
0.0
102
RTVSPost2010PropOp38
 70
     1
102
RTVSPost2010Prop39
140
1.0
102
RTVSPost2010PropOp39
 70
     1
102
RTVSPost2010Prop40
 90
        0
102
RTVSPost2010PropOp40
 70
     1
102
RTVSPost2010Prop41ColorIndex
 90
       18
102
RTVSPost2010Prop41ColorRGB
 90
        0
102
RTVSPost2010PropOp41
 70
     1
102
RTVSPost2010Prop42
 90
       50
102
RTVSPost2010PropOp42
 70
     1
102
RTVSPost2010Prop43
 90
        3
102
RTVSPost2010PropOp43
 70
     1
102
RTVSPost2010Prop44ColorIndex
 90
        5
102
RTVSPost2010Prop44ColorRGB
 90
      255
102
RTVSPost2010PropOp44
 70
     1
102
RTVSPost2010Prop45
280
     0
102
RTVSPost2010PropOp45
 70
     1
102
RTVSPost2010Prop46
 90
       50
102
RTVSPost2010PropOp46
 70
     1
102
RTVSPost2010Prop47
 90
       50
102
RTVSPost2010PropOp47
 70
     1
102
RTVSPost2010Prop48
 90
       50
102
RTVSPost2010PropOp48
 70
     1
102
RTVSPost2010Prop49
280
     0
102
RTVSPost2010PropOp49
 70
     1
102
RTVSPost2010Prop50
 90
       50
102
RTVSPost2010PropOp50
 70
     1
102
RTVSPost2010Prop51ColorIndex
 90
      256
102
RTVSPost2010Prop51ColorRGB
 90
-16777216
102
RTVSPost2010PropOp51
 70
     0
102
RTVSPost2010Prop52
140
1.0
102
RTVSPost2010PropOp52
 70
     0
102
RTVSPost2010Prop53
 90
        2
102
RTVSPost2010PropOp53
 70
     1
102
RTVSPost2010Prop54
  1
strokes_ogs.tif
102
RTVSPost2010PropOp54
 70
     1
102
RTVSPost2010Prop55
280
     0
102
RTVSPost2010PropOp55
 70
     1
102
RTVSPost2010Prop56
140
1.0
102
RTVSPost2010PropOp56
 70
     1
102
RTVSPost2010Prop57
140
1.0
102
RTVSPost2010PropOp57
 70
     1
102
RTVSPropertyOp0
 70
     1
102
RTVSPropertyOp1
 70
     1
102
RTVSPropertyOp2
 70
     1
102
RTVSPropertyOp3
 70
     1
102
RTVSPropertyOp4
 70
     1
102
RTVSPropertyOp5
 70
     1
102
RTVSPropertyOp6
 70
     1
102
RTVSPropertyOp7
 70
     1
102
RTVSPropertyOp8
 70
     1
102
RTVSPropertyOp9
 70
     1
102
RTVSPropertyOp10
 70
     1
102
RTVSPropertyOp11
 70
     1
102
RTVSPropertyOp12
 70
     1
102
RTVSPropertyOp13
 70
     1
102
RTVSPropertyOp14
 70
     1
102
RTVSPropertyOp15
 70
     1
102
RTVSPropertyOp16
 70
     1
102
RTVSPropertyOp17
 70
     1
102
RTVSPropertyOp18
 70
     1
102
RTVSPropertyOp19
 70
     1
102
RTVSPropertyOp20
 70
     1
102
RTVSPropertyOp21
 70
     1
102
RTVSPropertyOp22
 70
     1
102
RTVSPropertyOp23
 70
     1
102
RTVSPropertyOp24
 70
     1
102
RTVSPropertyOp25
 70
     1
102
RTVSPropertyOp26
 70
     1
102
RTVSPropertyOp27
 70
     1
102
RTVSPropertyOp28
 70
     1
102
RTVSPropertyOp29
 70
     1
102
RTVSPropertyOp30
 70
     1
102
RTVSPropertyOp31
 70
     1
102
RTVSPropertyOp32
 70
     1
102
RTVSPropertyOp33
 70
     1
102
RTVSPropertyOp34
 70
     1
102
RTVSPropertyOp35
 70
     1
102
RTVSPropertyOp36
 70
     1
102
RTVSPropertyOp37
 70
     1
102
RTVSPropertyOp38
 70
     1
102
RTVSPropertyOp39
 70
     1
102
RTVSPropertyOp40
 70
     1
102
RTVSPropertyOp41
 70
     1
102
RTVSPropertyOp42
 70
     1
102
RTVSPropertyOp43
 70
     1
102
RTVSPropertyOp44
 70
     1
102
RTVSPropertyOp45
 70
     1
102
RTVSPropertyOp46
 70
     1
102
RTVSPropertyOp47
 70
     1
102
RTVSPropertyOp48
 70
     1
102
RTVSPropertyOp49
 70
     1
102
RTVSPropertyOp50
 70
     1
102
RTVSPropertyOp51
 70
     0
102
RTVSPropertyOp52
 70
     0
102
RTVSPropertyOp53
 70
     1
102
RTVSPropertyOp54
 70
     1
102
RTVSPropertyOp55
 70
     1
102
RTVSPropertyOp56
 70
     1
102
RTVSPropertyOp57
 70
     1
102
RTVSPropertyOp58
 70
     1
102
RTVSPropertyOp59
 70
     1
102
RTVSPropertyOp60
 70
     1
102
RTVSPropertyOp61
 70
     1
102
RTVSPropertyOp62
 70
     1
  0
XRECORD
  5
15496
102
{ACAD_REACTORS
330
15495
102
}
330
15495
100
AcDbXrecord
280
     1
102
RTVSPost2010Prop28
280
     0
102
RTVSPost2010PropOp28
 70
     1
102
RTVSPost2010Prop29
280
     1
102
RTVSPost2010PropOp29
 70
     1
102
RTVSPost2010Prop30
280
     1
102
RTVSPost2010PropOp30
 70
     1
102
RTVSPost2010Prop31
280
     0
102
RTVSPost2010PropOp31
 70
     1
102
RTVSPost2010Prop32
280
     0
102
RTVSPost2010PropOp32
 70
     1
102
RTVSPost2010Prop33
280
     0
102
RTVSPost2010PropOp33
 70
     1
102
RTVSPost2010Prop34
280
     0
102
RTVSPost2010PropOp34
 70
     1
102
RTVSPost2010Prop35
280
     0
102
RTVSPost2010PropOp35
 70
     1
102
RTVSPost2010Prop36
280
     0
102
RTVSPost2010PropOp36
 70
     1
102
RTVSPost2010Prop37
 90
       50
102
RTVSPost2010PropOp37
 70
     1
102
RTVSPost2010Prop38
140
0.0
102
RTVSPost2010PropOp38
 70
     1
102
RTVSPost2010Prop39
140
1.0
102
RTVSPost2010PropOp39
 70
     1
102
RTVSPost2010Prop40
 90
        0
102
RTVSPost2010PropOp40
 70
     1
102
RTVSPost2010Prop41ColorIndex
 90
       18
102
RTVSPost2010Prop41ColorRGB
 90
        0
102
RTVSPost2010PropOp41
 70
     1
102
RTVSPost2010Prop42
 90
       50
102
RTVSPost2010PropOp42
 70
     1
102
RTVSPost2010Prop43
 90
        3
102
RTVSPost2010PropOp43
 70
     1
102
RTVSPost2010Prop44ColorIndex
 90
        5
102
RTVSPost2010Prop44ColorRGB
 90
      255
102
RTVSPost2010PropOp44
 70
     1
102
RTVSPost2010Prop45
280
     0
102
RTVSPost2010PropOp45
 70
     1
102
RTVSPost2010Prop46
 90
       50
102
RTVSPost2010PropOp46
 70
     1
102
RTVSPost2010Prop47
 90
       50
102
RTVSPost2010PropOp47
 70
     1
102
RTVSPost2010Prop48
 90
       50
102
RTVSPost2010PropOp48
 70
     1
102
RTVSPost2010Prop49
280
     0
102
RTVSPost2010PropOp49
 70
     1
102
RTVSPost2010Prop50
 90
       50
102
RTVSPost2010PropOp50
 70
     1
102
RTVSPost2010Prop51ColorIndex
 90
      256
102
RTVSPost2010Prop51ColorRGB
 90
-16777216
102
RTVSPost2010PropOp51
 70
     0
102
RTVSPost2010Prop52
140
1.0
102
RTVSPost2010PropOp52
 70
     0
102
RTVSPost2010Prop53
 90
        2
102
RTVSPost2010PropOp53
 70
     1
102
RTVSPost2010Prop54
  1
strokes_ogs.tif
102
RTVSPost2010PropOp54
 70
     1
102
RTVSPost2010Prop55
280
     0
102
RTVSPost2010PropOp55
 70
     1
102
RTVSPost2010Prop56
140
1.0
102
RTVSPost2010PropOp56
 70
     1
102
RTVSPost2010Prop57
140
1.0
102
RTVSPost2010PropOp57
 70
     1
102
RTVSPropertyOp0
 70
     1
102
RTVSPropertyOp1
 70
     1
102
RTVSPropertyOp2
 70
     1
102
RTVSPropertyOp3
 70
     1
102
RTVSPropertyOp4
 70
     1
102
RTVSPropertyOp5
 70
     1
102
RTVSPropertyOp6
 70
     1
102
RTVSPropertyOp7
 70
     1
102
RTVSPropertyOp8
 70
     1
102
RTVSPropertyOp9
 70
     1
102
RTVSPropertyOp10
 70
     1
102
RTVSPropertyOp11
 70
     1
102
RTVSPropertyOp12
 70
     1
102
RTVSPropertyOp13
 70
     1
102
RTVSPropertyOp14
 70
     1
102
RTVSPropertyOp15
 70
     1
102
RTVSPropertyOp16
 70
     1
102
RTVSPropertyOp17
 70
     1
102
RTVSPropertyOp18
 70
     1
102
RTVSPropertyOp19
 70
     1
102
RTVSPropertyOp20
 70
     1
102
RTVSPropertyOp21
 70
     1
102
RTVSPropertyOp22
 70
     1
102
RTVSPropertyOp23
 70
     1
102
RTVSPropertyOp24
 70
     1
102
RTVSPropertyOp25
 70
     1
102
RTVSPropertyOp26
 70
     1
102
RTVSPropertyOp27
 70
     1
102
RTVSPropertyOp28
 70
     1
102
RTVSPropertyOp29
 70
     1
102
RTVSPropertyOp30
 70
     1
102
RTVSPropertyOp31
 70
     1
102
RTVSPropertyOp32
 70
     1
102
RTVSPropertyOp33
 70
     1
102
RTVSPropertyOp34
 70
     1
102
RTVSPropertyOp35
 70
     1
102
RTVSPropertyOp36
 70
     1
102
RTVSPropertyOp37
 70
     1
102
RTVSPropertyOp38
 70
     1
102
RTVSPropertyOp39
 70
     1
102
RTVSPropertyOp40
 70
     1
102
RTVSPropertyOp41
 70
     1
102
RTVSPropertyOp42
 70
     1
102
RTVSPropertyOp43
 70
     1
102
RTVSPropertyOp44
 70
     1
102
RTVSPropertyOp45
 70
     1
102
RTVSPropertyOp46
 70
     1
102
RTVSPropertyOp47
 70
     1
102
RTVSPropertyOp48
 70
     1
102
RTVSPropertyOp49
 70
     1
102
RTVSPropertyOp50
 70
     1
102
RTVSPropertyOp51
 70
     0
102
RTVSPropertyOp52
 70
     0
102
RTVSPropertyOp53
 70
     1
102
RTVSPropertyOp54
 70
     1
102
RTVSPropertyOp55
 70
     1
102
RTVSPropertyOp56
 70
     1
102
RTVSPropertyOp57
 70
     1
102
RTVSPropertyOp58
 70
     1
102
RTVSPropertyOp59
 70
     1
102
RTVSPropertyOp60
 70
     1
102
RTVSPropertyOp61
 70
     1
102
RTVSPropertyOp62
 70
     1
  0
XRECORD
  5
1549E
102
{ACAD_REACTORS
330
1549D
102
}
330
1549D
100
AcDbXrecord
280
     1
102
RTVSPost2010Prop28
280
     0
102
RTVSPost2010PropOp28
 70
     1
102
RTVSPost2010Prop29
280
     1
102
RTVSPost2010PropOp29
 70
     1
102
RTVSPost2010Prop30
280
     1
102
RTVSPost2010PropOp30
 70
     1
102
RTVSPost2010Prop31
280
     0
102
RTVSPost2010PropOp31
 70
     1
102
RTVSPost2010Prop32
280
     0
102
RTVSPost2010PropOp32
 70
     1
102
RTVSPost2010Prop33
280
     0
102
RTVSPost2010PropOp33
 70
     1
102
RTVSPost2010Prop34
280
     0
102
RTVSPost2010PropOp34
 70
     1
102
RTVSPost2010Prop35
280
     0
102
RTVSPost2010PropOp35
 70
     1
102
RTVSPost2010Prop36
280
     0
102
RTVSPost2010PropOp36
 70
     1
102
RTVSPost2010Prop37
 90
       50
102
RTVSPost2010PropOp37
 70
     1
102
RTVSPost2010Prop38
140
0.0
102
RTVSPost2010PropOp38
 70
     1
102
RTVSPost2010Prop39
140
1.0
102
RTVSPost2010PropOp39
 70
     1
102
RTVSPost2010Prop40
 90
        0
102
RTVSPost2010PropOp40
 70
     1
102
RTVSPost2010Prop41ColorIndex
 90
       18
102
RTVSPost2010Prop41ColorRGB
 90
        0
102
RTVSPost2010PropOp41
 70
     1
102
RTVSPost2010Prop42
 90
       50
102
RTVSPost2010PropOp42
 70
     1
102
RTVSPost2010Prop43
 90
        3
102
RTVSPost2010PropOp43
 70
     1
102
RTVSPost2010Prop44ColorIndex
 90
        5
102
RTVSPost2010Prop44ColorRGB
 90
      255
102
RTVSPost2010PropOp44
 70
     1
102
RTVSPost2010Prop45
280
     0
102
RTVSPost2010PropOp45
 70
     1
102
RTVSPost2010Prop46
 90
       50
102
RTVSPost2010PropOp46
 70
     1
102
RTVSPost2010Prop47
 90
       50
102
RTVSPost2010PropOp47
 70
     1
102
RTVSPost2010Prop48
 90
       50
102
RTVSPost2010PropOp48
 70
     1
102
RTVSPost2010Prop49
280
     0
102
RTVSPost2010PropOp49
 70
     1
102
RTVSPost2010Prop50
 90
       50
102
RTVSPost2010PropOp50
 70
     1
102
RTVSPost2010Prop51ColorIndex
 90
      256
102
RTVSPost2010Prop51ColorRGB
 90
-16777216
102
RTVSPost2010PropOp51
 70
     0
102
RTVSPost2010Prop52
140
1.0
102
RTVSPost2010PropOp52
 70
     0
102
RTVSPost2010Prop53
 90
        2
102
RTVSPost2010PropOp53
 70
     1
102
RTVSPost2010Prop54
  1
strokes_ogs.tif
102
RTVSPost2010PropOp54
 70
     1
102
RTVSPost2010Prop55
280
     0
102
RTVSPost2010PropOp55
 70
     1
102
RTVSPost2010Prop56
140
1.0
102
RTVSPost2010PropOp56
 70
     1
102
RTVSPost2010Prop57
140
1.0
102
RTVSPost2010PropOp57
 70
     1
102
RTVSPropertyOp0
 70
     1
102
RTVSPropertyOp1
 70
     1
102
RTVSPropertyOp2
 70
     1
102
RTVSPropertyOp3
 70
     1
102
RTVSPropertyOp4
 70
     1
102
RTVSPropertyOp5
 70
     1
102
RTVSPropertyOp6
 70
     1
102
RTVSPropertyOp7
 70
     1
102
RTVSPropertyOp8
 70
     1
102
RTVSPropertyOp9
 70
     1
102
RTVSPropertyOp10
 70
     1
102
RTVSPropertyOp11
 70
     1
102
RTVSPropertyOp12
 70
     1
102
RTVSPropertyOp13
 70
     1
102
RTVSPropertyOp14
 70
     1
102
RTVSPropertyOp15
 70
     1
102
RTVSPropertyOp16
 70
     1
102
RTVSPropertyOp17
 70
     1
102
RTVSPropertyOp18
 70
     1
102
RTVSPropertyOp19
 70
     1
102
RTVSPropertyOp20
 70
     1
102
RTVSPropertyOp21
 70
     1
102
RTVSPropertyOp22
 70
     1
102
RTVSPropertyOp23
 70
     1
102
RTVSPropertyOp24
 70
     1
102
RTVSPropertyOp25
 70
     1
102
RTVSPropertyOp26
 70
     1
102
RTVSPropertyOp27
 70
     1
102
RTVSPropertyOp28
 70
     1
102
RTVSPropertyOp29
 70
     1
102
RTVSPropertyOp30
 70
     1
102
RTVSPropertyOp31
 70
     1
102
RTVSPropertyOp32
 70
     1
102
RTVSPropertyOp33
 70
     1
102
RTVSPropertyOp34
 70
     1
102
RTVSPropertyOp35
 70
     1
102
RTVSPropertyOp36
 70
     1
102
RTVSPropertyOp37
 70
     1
102
RTVSPropertyOp38
 70
     1
102
RTVSPropertyOp39
 70
     1
102
RTVSPropertyOp40
 70
     1
102
RTVSPropertyOp41
 70
     1
102
RTVSPropertyOp42
 70
     1
102
RTVSPropertyOp43
 70
     1
102
RTVSPropertyOp44
 70
     1
102
RTVSPropertyOp45
 70
     1
102
RTVSPropertyOp46
 70
     1
102
RTVSPropertyOp47
 70
     1
102
RTVSPropertyOp48
 70
     1
102
RTVSPropertyOp49
 70
     1
102
RTVSPropertyOp50
 70
     1
102
RTVSPropertyOp51
 70
     0
102
RTVSPropertyOp52
 70
     0
102
RTVSPropertyOp53
 70
     1
102
RTVSPropertyOp54
 70
     1
102
RTVSPropertyOp55
 70
     1
102
RTVSPropertyOp56
 70
     1
102
RTVSPropertyOp57
 70
     1
102
RTVSPropertyOp58
 70
     1
102
RTVSPropertyOp59
 70
     1
102
RTVSPropertyOp60
 70
     1
102
RTVSPropertyOp61
 70
     1
102
RTVSPropertyOp62
 70
     1
  0
XRECORD
  5
15490
102
{ACAD_REACTORS
330
1548F
102
}
330
1548F
100
AcDbXrecord
280
     1
102
RTVSPost2010Prop28
280
     0
102
RTVSPost2010PropOp28
 70
     1
102
RTVSPost2010Prop29
280
     1
102
RTVSPost2010PropOp29
 70
     1
102
RTVSPost2010Prop30
280
     1
102
RTVSPost2010PropOp30
 70
     1
102
RTVSPost2010Prop31
280
     0
102
RTVSPost2010PropOp31
 70
     1
102
RTVSPost2010Prop32
280
     0
102
RTVSPost2010PropOp32
 70
     1
102
RTVSPost2010Prop33
280
     0
102
RTVSPost2010PropOp33
 70
     1
102
RTVSPost2010Prop34
280
     0
102
RTVSPost2010PropOp34
 70
     1
102
RTVSPost2010Prop35
280
     0
102
RTVSPost2010PropOp35
 70
     1
102
RTVSPost2010Prop36
280
     0
102
RTVSPost2010PropOp36
 70
     1
102
RTVSPost2010Prop37
 90
       50
102
RTVSPost2010PropOp37
 70
     1
102
RTVSPost2010Prop38
140
0.0
102
RTVSPost2010PropOp38
 70
     1
102
RTVSPost2010Prop39
140
1.0
102
RTVSPost2010PropOp39
 70
     1
102
RTVSPost2010Prop40
 90
        0
102
RTVSPost2010PropOp40
 70
     1
102
RTVSPost2010Prop41ColorIndex
 90
       18
102
RTVSPost2010Prop41ColorRGB
 90
        0
102
RTVSPost2010PropOp41
 70
     1
102
RTVSPost2010Prop42
 90
       50
102
RTVSPost2010PropOp42
 70
     1
102
RTVSPost2010Prop43
 90
        3
102
RTVSPost2010PropOp43
 70
     1
102
RTVSPost2010Prop44ColorIndex
 90
        5
102
RTVSPost2010Prop44ColorRGB
 90
      255
102
RTVSPost2010PropOp44
 70
     1
102
RTVSPost2010Prop45
280
     0
102
RTVSPost2010PropOp45
 70
     1
102
RTVSPost2010Prop46
 90
       50
102
RTVSPost2010PropOp46
 70
     1
102
RTVSPost2010Prop47
 90
       50
102
RTVSPost2010PropOp47
 70
     1
102
RTVSPost2010Prop48
 90
       50
102
RTVSPost2010PropOp48
 70
     1
102
RTVSPost2010Prop49
280
     0
102
RTVSPost2010PropOp49
 70
     1
102
RTVSPost2010Prop50
 90
       50
102
RTVSPost2010PropOp50
 70
     1
102
RTVSPost2010Prop51ColorIndex
 90
      256
102
RTVSPost2010Prop51ColorRGB
 90
-16777216
102
RTVSPost2010PropOp51
 70
     0
102
RTVSPost2010Prop52
140
1.0
102
RTVSPost2010PropOp52
 70
     0
102
RTVSPost2010Prop53
 90
        2
102
RTVSPost2010PropOp53
 70
     1
102
RTVSPost2010Prop54
  1
strokes_ogs.tif
102
RTVSPost2010PropOp54
 70
     1
102
RTVSPost2010Prop55
280
     0
102
RTVSPost2010PropOp55
 70
     1
102
RTVSPost2010Prop56
140
1.0
102
RTVSPost2010PropOp56
 70
     1
102
RTVSPost2010Prop57
140
1.0
102
RTVSPost2010PropOp57
 70
     1
102
RTVSPropertyOp0
 70
     1
102
RTVSPropertyOp1
 70
     1
102
RTVSPropertyOp2
 70
     1
102
RTVSPropertyOp3
 70
     1
102
RTVSPropertyOp4
 70
     1
102
RTVSPropertyOp5
 70
     1
102
RTVSPropertyOp6
 70
     1
102
RTVSPropertyOp7
 70
     1
102
RTVSPropertyOp8
 70
     1
102
RTVSPropertyOp9
 70
     1
102
RTVSPropertyOp10
 70
     1
102
RTVSPropertyOp11
 70
     1
102
RTVSPropertyOp12
 70
     1
102
RTVSPropertyOp13
 70
     1
102
RTVSPropertyOp14
 70
     1
102
RTVSPropertyOp15
 70
     1
102
RTVSPropertyOp16
 70
     1
102
RTVSPropertyOp17
 70
     1
102
RTVSPropertyOp18
 70
     1
102
RTVSPropertyOp19
 70
     1
102
RTVSPropertyOp20
 70
     1
102
RTVSPropertyOp21
 70
     1
102
RTVSPropertyOp22
 70
     1
102
RTVSPropertyOp23
 70
     1
102
RTVSPropertyOp24
 70
     1
102
RTVSPropertyOp25
 70
     1
102
RTVSPropertyOp26
 70
     1
102
RTVSPropertyOp27
 70
     1
102
RTVSPropertyOp28
 70
     1
102
RTVSPropertyOp29
 70
     1
102
RTVSPropertyOp30
 70
     1
102
RTVSPropertyOp31
 70
     1
102
RTVSPropertyOp32
 70
     1
102
RTVSPropertyOp33
 70
     1
102
RTVSPropertyOp34
 70
     1
102
RTVSPropertyOp35
 70
     1
102
RTVSPropertyOp36
 70
     1
102
RTVSPropertyOp37
 70
     1
102
RTVSPropertyOp38
 70
     1
102
RTVSPropertyOp39
 70
     1
102
RTVSPropertyOp40
 70
     1
102
RTVSPropertyOp41
 70
     1
102
RTVSPropertyOp42
 70
     1
102
RTVSPropertyOp43
 70
     1
102
RTVSPropertyOp44
 70
     1
102
RTVSPropertyOp45
 70
     1
102
RTVSPropertyOp46
 70
     1
102
RTVSPropertyOp47
 70
     1
102
RTVSPropertyOp48
 70
     1
102
RTVSPropertyOp49
 70
     1
102
RTVSPropertyOp50
 70
     1
102
RTVSPropertyOp51
 70
     0
102
RTVSPropertyOp52
 70
     0
102
RTVSPropertyOp53
 70
     1
102
RTVSPropertyOp54
 70
     1
102
RTVSPropertyOp55
 70
     1
102
RTVSPropertyOp56
 70
     1
102
RTVSPropertyOp57
 70
     1
102
RTVSPropertyOp58
 70
     1
102
RTVSPropertyOp59
 70
     1
102
RTVSPropertyOp60
 70
     1
102
RTVSPropertyOp61
 70
     1
102
RTVSPropertyOp62
 70
     1
  0
XRECORD
  5
15494
102
{ACAD_REACTORS
330
15493
102
}
330
15493
100
AcDbXrecord
280
     1
102
RTVSPost2010Prop28
280
     0
102
RTVSPost2010PropOp28
 70
     1
102
RTVSPost2010Prop29
280
     1
102
RTVSPost2010PropOp29
 70
     1
102
RTVSPost2010Prop30
280
     1
102
RTVSPost2010PropOp30
 70
     1
102
RTVSPost2010Prop31
280
     0
102
RTVSPost2010PropOp31
 70
     1
102
RTVSPost2010Prop32
280
     0
102
RTVSPost2010PropOp32
 70
     1
102
RTVSPost2010Prop33
280
     0
102
RTVSPost2010PropOp33
 70
     1
102
RTVSPost2010Prop34
280
     0
102
RTVSPost2010PropOp34
 70
     1
102
RTVSPost2010Prop35
280
     0
102
RTVSPost2010PropOp35
 70
     1
102
RTVSPost2010Prop36
280
     0
102
RTVSPost2010PropOp36
 70
     1
102
RTVSPost2010Prop37
 90
       50
102
RTVSPost2010PropOp37
 70
     1
102
RTVSPost2010Prop38
140
0.0
102
RTVSPost2010PropOp38
 70
     1
102
RTVSPost2010Prop39
140
1.0
102
RTVSPost2010PropOp39
 70
     1
102
RTVSPost2010Prop40
 90
        0
102
RTVSPost2010PropOp40
 70
     1
102
RTVSPost2010Prop41ColorIndex
 90
       18
102
RTVSPost2010Prop41ColorRGB
 90
        0
102
RTVSPost2010PropOp41
 70
     1
102
RTVSPost2010Prop42
 90
       50
102
RTVSPost2010PropOp42
 70
     1
102
RTVSPost2010Prop43
 90
        3
102
RTVSPost2010PropOp43
 70
     1
102
RTVSPost2010Prop44ColorIndex
 90
        5
102
RTVSPost2010Prop44ColorRGB
 90
      255
102
RTVSPost2010PropOp44
 70
     1
102
RTVSPost2010Prop45
280
     0
102
RTVSPost2010PropOp45
 70
     1
102
RTVSPost2010Prop46
 90
       50
102
RTVSPost2010PropOp46
 70
     1
102
RTVSPost2010Prop47
 90
       50
102
RTVSPost2010PropOp47
 70
     1
102
RTVSPost2010Prop48
 90
       50
102
RTVSPost2010PropOp48
 70
     1
102
RTVSPost2010Prop49
280
     0
102
RTVSPost2010PropOp49
 70
     1
102
RTVSPost2010Prop50
 90
       50
102
RTVSPost2010PropOp50
 70
     1
102
RTVSPost2010Prop51ColorIndex
 90
      256
102
RTVSPost2010Prop51ColorRGB
 90
-16777216
102
RTVSPost2010PropOp51
 70
     0
102
RTVSPost2010Prop52
140
1.0
102
RTVSPost2010PropOp52
 70
     0
102
RTVSPost2010Prop53
 90
        2
102
RTVSPost2010PropOp53
 70
     1
102
RTVSPost2010Prop54
  1
strokes_ogs.tif
102
RTVSPost2010PropOp54
 70
     1
102
RTVSPost2010Prop55
280
     0
102
RTVSPost2010PropOp55
 70
     1
102
RTVSPost2010Prop56
140
1.0
102
RTVSPost2010PropOp56
 70
     1
102
RTVSPost2010Prop57
140
1.0
102
RTVSPost2010PropOp57
 70
     1
102
RTVSPropertyOp0
 70
     1
102
RTVSPropertyOp1
 70
     1
102
RTVSPropertyOp2
 70
     1
102
RTVSPropertyOp3
 70
     1
102
RTVSPropertyOp4
 70
     1
102
RTVSPropertyOp5
 70
     1
102
RTVSPropertyOp6
 70
     1
102
RTVSPropertyOp7
 70
     1
102
RTVSPropertyOp8
 70
     1
102
RTVSPropertyOp9
 70
     1
102
RTVSPropertyOp10
 70
     1
102
RTVSPropertyOp11
 70
     1
102
RTVSPropertyOp12
 70
     1
102
RTVSPropertyOp13
 70
     1
102
RTVSPropertyOp14
 70
     1
102
RTVSPropertyOp15
 70
     1
102
RTVSPropertyOp16
 70
     1
102
RTVSPropertyOp17
 70
     1
102
RTVSPropertyOp18
 70
     1
102
RTVSPropertyOp19
 70
     1
102
RTVSPropertyOp20
 70
     1
102
RTVSPropertyOp21
 70
     1
102
RTVSPropertyOp22
 70
     1
102
RTVSPropertyOp23
 70
     1
102
RTVSPropertyOp24
 70
     1
102
RTVSPropertyOp25
 70
     1
102
RTVSPropertyOp26
 70
     1
102
RTVSPropertyOp27
 70
     1
102
RTVSPropertyOp28
 70
     1
102
RTVSPropertyOp29
 70
     1
102
RTVSPropertyOp30
 70
     1
102
RTVSPropertyOp31
 70
     1
102
RTVSPropertyOp32
 70
     1
102
RTVSPropertyOp33
 70
     1
102
RTVSPropertyOp34
 70
     1
102
RTVSPropertyOp35
 70
     1
102
RTVSPropertyOp36
 70
     1
102
RTVSPropertyOp37
 70
     1
102
RTVSPropertyOp38
 70
     1
102
RTVSPropertyOp39
 70
     1
102
RTVSPropertyOp40
 70
     1
102
RTVSPropertyOp41
 70
     1
102
RTVSPropertyOp42
 70
     1
102
RTVSPropertyOp43
 70
     1
102
RTVSPropertyOp44
 70
     1
102
RTVSPropertyOp45
 70
     1
102
RTVSPropertyOp46
 70
     1
102
RTVSPropertyOp47
 70
     1
102
RTVSPropertyOp48
 70
     1
102
RTVSPropertyOp49
 70
     1
102
RTVSPropertyOp50
 70
     1
102
RTVSPropertyOp51
 70
     0
102
RTVSPropertyOp52
 70
     0
102
RTVSPropertyOp53
 70
     1
102
RTVSPropertyOp54
 70
     1
102
RTVSPropertyOp55
 70
     1
102
RTVSPropertyOp56
 70
     1
102
RTVSPropertyOp57
 70
     1
102
RTVSPropertyOp58
 70
     1
102
RTVSPropertyOp59
 70
     1
102
RTVSPropertyOp60
 70
     1
102
RTVSPropertyOp61
 70
     1
102
RTVSPropertyOp62
 70
     1
  0
XRECORD
  5
154AE
102
{ACAD_REACTORS
330
154AD
102
}
330
154AD
100
AcDbXrecord
280
     1
102
RTVSPost2010Prop28
280
     0
102
RTVSPost2010PropOp28
 70
     0
102
RTVSPost2010Prop29
280
     1
102
RTVSPost2010PropOp29
 70
     0
102
RTVSPost2010Prop30
280
     1
102
RTVSPost2010PropOp30
 70
     0
102
RTVSPost2010Prop31
280
     0
102
RTVSPost2010PropOp31
 70
     0
102
RTVSPost2010Prop32
280
     0
102
RTVSPost2010PropOp32
 70
     0
102
RTVSPost2010Prop33
280
     0
102
RTVSPost2010PropOp33
 70
     0
102
RTVSPost2010Prop34
280
     0
102
RTVSPost2010PropOp34
 70
     0
102
RTVSPost2010Prop35
280
     0
102
RTVSPost2010PropOp35
 70
     0
102
RTVSPost2010Prop36
280
     0
102
RTVSPost2010PropOp36
 70
     0
102
RTVSPost2010Prop37
 90
       50
102
RTVSPost2010PropOp37
 70
     0
102
RTVSPost2010Prop38
140
0.0
102
RTVSPost2010PropOp38
 70
     0
102
RTVSPost2010Prop39
140
1.0
102
RTVSPost2010PropOp39
 70
     0
102
RTVSPost2010Prop40
 90
        0
102
RTVSPost2010PropOp40
 70
     0
102
RTVSPost2010Prop41ColorIndex
 90
       18
102
RTVSPost2010Prop41ColorRGB
 90
        0
102
RTVSPost2010PropOp41
 70
     0
102
RTVSPost2010Prop42
 90
       50
102
RTVSPost2010PropOp42
 70
     0
102
RTVSPost2010Prop43
 90
        3
102
RTVSPost2010PropOp43
 70
     0
102
RTVSPost2010Prop44ColorIndex
 90
        5
102
RTVSPost2010Prop44ColorRGB
 90
      255
102
RTVSPost2010PropOp44
 70
     0
102
RTVSPost2010Prop45
280
     0
102
RTVSPost2010PropOp45
 70
     0
102
RTVSPost2010Prop46
 90
       50
102
RTVSPost2010PropOp46
 70
     0
102
RTVSPost2010Prop47
 90
       50
102
RTVSPost2010PropOp47
 70
     0
102
RTVSPost2010Prop48
 90
       50
102
RTVSPost2010PropOp48
 70
     0
102
RTVSPost2010Prop49
280
     0
102
RTVSPost2010PropOp49
 70
     0
102
RTVSPost2010Prop50
 90
       50
102
RTVSPost2010PropOp50
 70
     0
102
RTVSPost2010Prop51ColorIndex
 90
      256
102
RTVSPost2010Prop51ColorRGB
 90
-16777216
102
RTVSPost2010PropOp51
 70
     0
102
RTVSPost2010Prop52
140
1.0
102
RTVSPost2010PropOp52
 70
     0
102
RTVSPost2010Prop53
 90
        2
102
RTVSPost2010PropOp53
 70
     0
102
RTVSPost2010Prop54
  1
strokes_ogs.tif
102
RTVSPost2010PropOp54
 70
     0
102
RTVSPost2010Prop55
280
     0
102
RTVSPost2010PropOp55
 70
     0
102
RTVSPost2010Prop56
140
1.0
102
RTVSPost2010PropOp56
 70
     0
102
RTVSPost2010Prop57
140
1.0
102
RTVSPost2010PropOp57
 70
     0
102
RTVSPropertyOp0
 70
     0
102
RTVSPropertyOp1
 70
     0
102
RTVSPropertyOp2
 70
     0
102
RTVSPropertyOp3
 70
     0
102
RTVSPropertyOp4
 70
     0
102
RTVSPropertyOp5
 70
     0
102
RTVSPropertyOp6
 70
     0
102
RTVSPropertyOp7
 70
     0
102
RTVSPropertyOp8
 70
     0
102
RTVSPropertyOp9
 70
     0
102
RTVSPropertyOp10
 70
     0
102
RTVSPropertyOp11
 70
     0
102
RTVSPropertyOp12
 70
     0
102
RTVSPropertyOp13
 70
     0
102
RTVSPropertyOp14
 70
     2
102
RTVSPropertyOp15
 70
     0
102
RTVSPropertyOp16
 70
     0
102
RTVSPropertyOp17
 70
     0
102
RTVSPropertyOp18
 70
     0
102
RTVSPropertyOp19
 70
     0
102
RTVSPropertyOp20
 70
     0
102
RTVSPropertyOp21
 70
     0
102
RTVSPropertyOp22
 70
     0
102
RTVSPropertyOp23
 70
     0
102
RTVSPropertyOp24
 70
     0
102
RTVSPropertyOp25
 70
     0
102
RTVSPropertyOp26
 70
     0
102
RTVSPropertyOp27
 70
     0
102
RTVSPropertyOp28
 70
     0
102
RTVSPropertyOp29
 70
     0
102
RTVSPropertyOp30
 70
     0
102
RTVSPropertyOp31
 70
     0
102
RTVSPropertyOp32
 70
     0
102
RTVSPropertyOp33
 70
     0
102
RTVSPropertyOp34
 70
     0
102
RTVSPropertyOp35
 70
     0
102
RTVSPropertyOp36
 70
     0
102
RTVSPropertyOp37
 70
     0
102
RTVSPropertyOp38
 70
     0
102
RTVSPropertyOp39
 70
     0
102
RTVSPropertyOp40
 70
     0
102
RTVSPropertyOp41
 70
     0
102
RTVSPropertyOp42
 70
     0
102
RTVSPropertyOp43
 70
     0
102
RTVSPropertyOp44
 70
     0
102
RTVSPropertyOp45
 70
     0
102
RTVSPropertyOp46
 70
     0
102
RTVSPropertyOp47
 70
     0
102
RTVSPropertyOp48
 70
     0
102
RTVSPropertyOp49
 70
     0
102
RTVSPropertyOp50
 70
     0
102
RTVSPropertyOp51
 70
     0
102
RTVSPropertyOp52
 70
     0
102
RTVSPropertyOp53
 70
     0
102
RTVSPropertyOp54
 70
     0
102
RTVSPropertyOp55
 70
     0
102
RTVSPropertyOp56
 70
     0
102
RTVSPropertyOp57
 70
     0
102
RTVSPropertyOp58
 70
     1
102
RTVSPropertyOp59
 70
     1
102
RTVSPropertyOp60
 70
     1
102
RTVSPropertyOp61
 70
     1
102
RTVSPropertyOp62
 70
     1
  0
XRECORD
  5
1549C
102
{ACAD_REACTORS
330
1549B
102
}
330
1549B
100
AcDbXrecord
280
     1
102
RTVSPost2010Prop28
280
     0
102
RTVSPost2010PropOp28
 70
     1
102
RTVSPost2010Prop29
280
     1
102
RTVSPost2010PropOp29
 70
     1
102
RTVSPost2010Prop30
280
     1
102
RTVSPost2010PropOp30
 70
     1
102
RTVSPost2010Prop31
280
     0
102
RTVSPost2010PropOp31
 70
     1
102
RTVSPost2010Prop32
280
     0
102
RTVSPost2010PropOp32
 70
     1
102
RTVSPost2010Prop33
280
     0
102
RTVSPost2010PropOp33
 70
     1
102
RTVSPost2010Prop34
280
     0
102
RTVSPost2010PropOp34
 70
     1
102
RTVSPost2010Prop35
280
     0
102
RTVSPost2010PropOp35
 70
     1
102
RTVSPost2010Prop36
280
     0
102
RTVSPost2010PropOp36
 70
     1
102
RTVSPost2010Prop37
 90
       50
102
RTVSPost2010PropOp37
 70
     1
102
RTVSPost2010Prop38
140
0.0
102
RTVSPost2010PropOp38
 70
     1
102
RTVSPost2010Prop39
140
1.0
102
RTVSPost2010PropOp39
 70
     1
102
RTVSPost2010Prop40
 90
        0
102
RTVSPost2010PropOp40
 70
     1
102
RTVSPost2010Prop41ColorIndex
 90
       18
102
RTVSPost2010Prop41ColorRGB
 90
        0
102
RTVSPost2010PropOp41
 70
     1
102
RTVSPost2010Prop42
 90
       50
102
RTVSPost2010PropOp42
 70
     1
102
RTVSPost2010Prop43
 90
        3
102
RTVSPost2010PropOp43
 70
     1
102
RTVSPost2010Prop44ColorIndex
 90
        5
102
RTVSPost2010Prop44ColorRGB
 90
      255
102
RTVSPost2010PropOp44
 70
     1
102
RTVSPost2010Prop45
280
     0
102
RTVSPost2010PropOp45
 70
     1
102
RTVSPost2010Prop46
 90
       50
102
RTVSPost2010PropOp46
 70
     1
102
RTVSPost2010Prop47
 90
       50
102
RTVSPost2010PropOp47
 70
     1
102
RTVSPost2010Prop48
 90
       50
102
RTVSPost2010PropOp48
 70
     1
102
RTVSPost2010Prop49
280
     0
102
RTVSPost2010PropOp49
 70
     1
102
RTVSPost2010Prop50
 90
       50
102
RTVSPost2010PropOp50
 70
     1
102
RTVSPost2010Prop51ColorIndex
 90
      256
102
RTVSPost2010Prop51ColorRGB
 90
-16777216
102
RTVSPost2010PropOp51
 70
     0
102
RTVSPost2010Prop52
140
1.0
102
RTVSPost2010PropOp52
 70
     0
102
RTVSPost2010Prop53
 90
        2
102
RTVSPost2010PropOp53
 70
     1
102
RTVSPost2010Prop54
  1
strokes_ogs.tif
102
RTVSPost2010PropOp54
 70
     1
102
RTVSPost2010Prop55
280
     0
102
RTVSPost2010PropOp55
 70
     1
102
RTVSPost2010Prop56
140
1.0
102
RTVSPost2010PropOp56
 70
     1
102
RTVSPost2010Prop57
140
1.0
102
RTVSPost2010PropOp57
 70
     1
102
RTVSPropertyOp0
 70
     1
102
RTVSPropertyOp1
 70
     1
102
RTVSPropertyOp2
 70
     1
102
RTVSPropertyOp3
 70
     1
102
RTVSPropertyOp4
 70
     1
102
RTVSPropertyOp5
 70
     1
102
RTVSPropertyOp6
 70
     1
102
RTVSPropertyOp7
 70
     1
102
RTVSPropertyOp8
 70
     1
102
RTVSPropertyOp9
 70
     1
102
RTVSPropertyOp10
 70
     1
102
RTVSPropertyOp11
 70
     1
102
RTVSPropertyOp12
 70
     1
102
RTVSPropertyOp13
 70
     1
102
RTVSPropertyOp14
 70
     1
102
RTVSPropertyOp15
 70
     1
102
RTVSPropertyOp16
 70
     1
102
RTVSPropertyOp17
 70
     1
102
RTVSPropertyOp18
 70
     1
102
RTVSPropertyOp19
 70
     1
102
RTVSPropertyOp20
 70
     1
102
RTVSPropertyOp21
 70
     1
102
RTVSPropertyOp22
 70
     1
102
RTVSPropertyOp23
 70
     1
102
RTVSPropertyOp24
 70
     1
102
RTVSPropertyOp25
 70
     1
102
RTVSPropertyOp26
 70
     1
102
RTVSPropertyOp27
 70
     1
102
RTVSPropertyOp28
 70
     1
102
RTVSPropertyOp29
 70
     1
102
RTVSPropertyOp30
 70
     1
102
RTVSPropertyOp31
 70
     1
102
RTVSPropertyOp32
 70
     1
102
RTVSPropertyOp33
 70
     1
102
RTVSPropertyOp34
 70
     1
102
RTVSPropertyOp35
 70
     1
102
RTVSPropertyOp36
 70
     1
102
RTVSPropertyOp37
 70
     1
102
RTVSPropertyOp38
 70
     1
102
RTVSPropertyOp39
 70
     1
102
RTVSPropertyOp40
 70
     1
102
RTVSPropertyOp41
 70
     1
102
RTVSPropertyOp42
 70
     1
102
RTVSPropertyOp43
 70
     1
102
RTVSPropertyOp44
 70
     1
102
RTVSPropertyOp45
 70
     1
102
RTVSPropertyOp46
 70
     1
102
RTVSPropertyOp47
 70
     1
102
RTVSPropertyOp48
 70
     1
102
RTVSPropertyOp49
 70
     1
102
RTVSPropertyOp50
 70
     1
102
RTVSPropertyOp51
 70
     0
102
RTVSPropertyOp52
 70
     0
102
RTVSPropertyOp53
 70
     1
102
RTVSPropertyOp54
 70
     1
102
RTVSPropertyOp55
 70
     1
102
RTVSPropertyOp56
 70
     1
102
RTVSPropertyOp57
 70
     1
102
RTVSPropertyOp58
 70
     1
102
RTVSPropertyOp59
 70
     1
102
RTVSPropertyOp60
 70
     1
102
RTVSPropertyOp61
 70
     1
102
RTVSPropertyOp62
 70
     1
  0
XRECORD
  5
15480
102
{ACAD_REACTORS
330
1547F
102
}
330
1547F
100
AcDbXrecord
280
     1
102
RTVSPost2010Prop28
280
     0
102
RTVSPost2010PropOp28
 70
     1
102
RTVSPost2010Prop29
280
     1
102
RTVSPost2010PropOp29
 70
     1
102
RTVSPost2010Prop30
280
     1
102
RTVSPost2010PropOp30
 70
     1
102
RTVSPost2010Prop31
280
     0
102
RTVSPost2010PropOp31
 70
     1
102
RTVSPost2010Prop32
280
     0
102
RTVSPost2010PropOp32
 70
     1
102
RTVSPost2010Prop33
280
     0
102
RTVSPost2010PropOp33
 70
     1
102
RTVSPost2010Prop34
280
     0
102
RTVSPost2010PropOp34
 70
     1
102
RTVSPost2010Prop35
280
     0
102
RTVSPost2010PropOp35
 70
     1
102
RTVSPost2010Prop36
280
     0
102
RTVSPost2010PropOp36
 70
     1
102
RTVSPost2010Prop37
 90
       50
102
RTVSPost2010PropOp37
 70
     1
102
RTVSPost2010Prop38
140
0.0
102
RTVSPost2010PropOp38
 70
     1
102
RTVSPost2010Prop39
140
1.0
102
RTVSPost2010PropOp39
 70
     1
102
RTVSPost2010Prop40
 90
        0
102
RTVSPost2010PropOp40
 70
     1
102
RTVSPost2010Prop41ColorIndex
 90
       18
102
RTVSPost2010Prop41ColorRGB
 90
        0
102
RTVSPost2010PropOp41
 70
     1
102
RTVSPost2010Prop42
 90
       50
102
RTVSPost2010PropOp42
 70
     1
102
RTVSPost2010Prop43
 90
        3
102
RTVSPost2010PropOp43
 70
     1
102
RTVSPost2010Prop44ColorIndex
 90
        5
102
RTVSPost2010Prop44ColorRGB
 90
      255
102
RTVSPost2010PropOp44
 70
     1
102
RTVSPost2010Prop45
280
     0
102
RTVSPost2010PropOp45
 70
     1
102
RTVSPost2010Prop46
 90
       50
102
RTVSPost2010PropOp46
 70
     1
102
RTVSPost2010Prop47
 90
       50
102
RTVSPost2010PropOp47
 70
     1
102
RTVSPost2010Prop48
 90
       50
102
RTVSPost2010PropOp48
 70
     1
102
RTVSPost2010Prop49
280
     0
102
RTVSPost2010PropOp49
 70
     1
102
RTVSPost2010Prop50
 90
       50
102
RTVSPost2010PropOp50
 70
     1
102
RTVSPost2010Prop51ColorIndex
 90
      256
102
RTVSPost2010Prop51ColorRGB
 90
-16777216
102
RTVSPost2010PropOp51
 70
     0
102
RTVSPost2010Prop52
140
1.0
102
RTVSPost2010PropOp52
 70
     0
102
RTVSPost2010Prop53
 90
        2
102
RTVSPost2010PropOp53
 70
     1
102
RTVSPost2010Prop54
  1
strokes_ogs.tif
102
RTVSPost2010PropOp54
 70
     1
102
RTVSPost2010Prop55
280
     0
102
RTVSPost2010PropOp55
 70
     1
102
RTVSPost2010Prop56
140
1.0
102
RTVSPost2010PropOp56
 70
     1
102
RTVSPost2010Prop57
140
1.0
102
RTVSPost2010PropOp57
 70
     1
102
RTVSPropertyOp0
 70
     1
102
RTVSPropertyOp1
 70
     1
102
RTVSPropertyOp2
 70
     1
102
RTVSPropertyOp3
 70
     1
102
RTVSPropertyOp4
 70
     1
102
RTVSPropertyOp5
 70
     1
102
RTVSPropertyOp6
 70
     1
102
RTVSPropertyOp7
 70
     1
102
RTVSPropertyOp8
 70
     1
102
RTVSPropertyOp9
 70
     1
102
RTVSPropertyOp10
 70
     1
102
RTVSPropertyOp11
 70
     1
102
RTVSPropertyOp12
 70
     1
102
RTVSPropertyOp13
 70
     1
102
RTVSPropertyOp14
 70
     1
102
RTVSPropertyOp15
 70
     1
102
RTVSPropertyOp16
 70
     1
102
RTVSPropertyOp17
 70
     1
102
RTVSPropertyOp18
 70
     1
102
RTVSPropertyOp19
 70
     1
102
RTVSPropertyOp20
 70
     1
102
RTVSPropertyOp21
 70
     1
102
RTVSPropertyOp22
 70
     1
102
RTVSPropertyOp23
 70
     1
102
RTVSPropertyOp24
 70
     1
102
RTVSPropertyOp25
 70
     1
102
RTVSPropertyOp26
 70
     1
102
RTVSPropertyOp27
 70
     1
102
RTVSPropertyOp28
 70
     1
102
RTVSPropertyOp29
 70
     1
102
RTVSPropertyOp30
 70
     1
102
RTVSPropertyOp31
 70
     1
102
RTVSPropertyOp32
 70
     1
102
RTVSPropertyOp33
 70
     1
102
RTVSPropertyOp34
 70
     1
102
RTVSPropertyOp35
 70
     1
102
RTVSPropertyOp36
 70
     1
102
RTVSPropertyOp37
 70
     1
102
RTVSPropertyOp38
 70
     1
102
RTVSPropertyOp39
 70
     1
102
RTVSPropertyOp40
 70
     1
102
RTVSPropertyOp41
 70
     1
102
RTVSPropertyOp42
 70
     1
102
RTVSPropertyOp43
 70
     1
102
RTVSPropertyOp44
 70
     1
102
RTVSPropertyOp45
 70
     1
102
RTVSPropertyOp46
 70
     1
102
RTVSPropertyOp47
 70
     1
102
RTVSPropertyOp48
 70
     1
102
RTVSPropertyOp49
 70
     1
102
RTVSPropertyOp50
 70
     1
102
RTVSPropertyOp51
 70
     0
102
RTVSPropertyOp52
 70
     0
102
RTVSPropertyOp53
 70
     1
102
RTVSPropertyOp54
 70
     1
102
RTVSPropertyOp55
 70
     1
102
RTVSPropertyOp56
 70
     1
102
RTVSPropertyOp57
 70
     1
102
RTVSPropertyOp58
 70
     1
102
RTVSPropertyOp59
 70
     1
102
RTVSPropertyOp60
 70
     1
102
RTVSPropertyOp61
 70
     1
102
RTVSPropertyOp62
 70
     1
  0
XRECORD
  5
15482
102
{ACAD_REACTORS
330
15481
102
}
330
15481
100
AcDbXrecord
280
     1
102
RTVSPost2010Prop28
280
     0
102
RTVSPost2010PropOp28
 70
     1
102
RTVSPost2010Prop29
280
     1
102
RTVSPost2010PropOp29
 70
     1
102
RTVSPost2010Prop30
280
     1
102
RTVSPost2010PropOp30
 70
     1
102
RTVSPost2010Prop31
280
     0
102
RTVSPost2010PropOp31
 70
     1
102
RTVSPost2010Prop32
280
     0
102
RTVSPost2010PropOp32
 70
     1
102
RTVSPost2010Prop33
280
     0
102
RTVSPost2010PropOp33
 70
     1
102
RTVSPost2010Prop34
280
     0
102
RTVSPost2010PropOp34
 70
     1
102
RTVSPost2010Prop35
280
     0
102
RTVSPost2010PropOp35
 70
     1
102
RTVSPost2010Prop36
280
     0
102
RTVSPost2010PropOp36
 70
     1
102
RTVSPost2010Prop37
 90
       50
102
RTVSPost2010PropOp37
 70
     1
102
RTVSPost2010Prop38
140
0.0
102
RTVSPost2010PropOp38
 70
     1
102
RTVSPost2010Prop39
140
1.0
102
RTVSPost2010PropOp39
 70
     1
102
RTVSPost2010Prop40
 90
        0
102
RTVSPost2010PropOp40
 70
     1
102
RTVSPost2010Prop41ColorIndex
 90
       18
102
RTVSPost2010Prop41ColorRGB
 90
        0
102
RTVSPost2010PropOp41
 70
     1
102
RTVSPost2010Prop42
 90
       50
102
RTVSPost2010PropOp42
 70
     1
102
RTVSPost2010Prop43
 90
        3
102
RTVSPost2010PropOp43
 70
     1
102
RTVSPost2010Prop44ColorIndex
 90
        5
102
RTVSPost2010Prop44ColorRGB
 90
      255
102
RTVSPost2010PropOp44
 70
     1
102
RTVSPost2010Prop45
280
     0
102
RTVSPost2010PropOp45
 70
     1
102
RTVSPost2010Prop46
 90
       50
102
RTVSPost2010PropOp46
 70
     1
102
RTVSPost2010Prop47
 90
       50
102
RTVSPost2010PropOp47
 70
     1
102
RTVSPost2010Prop48
 90
       50
102
RTVSPost2010PropOp48
 70
     1
102
RTVSPost2010Prop49
280
     0
102
RTVSPost2010PropOp49
 70
     1
102
RTVSPost2010Prop50
 90
       50
102
RTVSPost2010PropOp50
 70
     1
102
RTVSPost2010Prop51ColorIndex
 90
      256
102
RTVSPost2010Prop51ColorRGB
 90
-16777216
102
RTVSPost2010PropOp51
 70
     0
102
RTVSPost2010Prop52
140
1.0
102
RTVSPost2010PropOp52
 70
     0
102
RTVSPost2010Prop53
 90
        2
102
RTVSPost2010PropOp53
 70
     1
102
RTVSPost2010Prop54
  1
strokes_ogs.tif
102
RTVSPost2010PropOp54
 70
     1
102
RTVSPost2010Prop55
280
     0
102
RTVSPost2010PropOp55
 70
     1
102
RTVSPost2010Prop56
140
1.0
102
RTVSPost2010PropOp56
 70
     1
102
RTVSPost2010Prop57
140
1.0
102
RTVSPost2010PropOp57
 70
     1
102
RTVSPropertyOp0
 70
     1
102
RTVSPropertyOp1
 70
     1
102
RTVSPropertyOp2
 70
     1
102
RTVSPropertyOp3
 70
     1
102
RTVSPropertyOp4
 70
     1
102
RTVSPropertyOp5
 70
     1
102
RTVSPropertyOp6
 70
     1
102
RTVSPropertyOp7
 70
     1
102
RTVSPropertyOp8
 70
     1
102
RTVSPropertyOp9
 70
     1
102
RTVSPropertyOp10
 70
     1
102
RTVSPropertyOp11
 70
     1
102
RTVSPropertyOp12
 70
     1
102
RTVSPropertyOp13
 70
     1
102
RTVSPropertyOp14
 70
     1
102
RTVSPropertyOp15
 70
     1
102
RTVSPropertyOp16
 70
     1
102
RTVSPropertyOp17
 70
     1
102
RTVSPropertyOp18
 70
     1
102
RTVSPropertyOp19
 70
     1
102
RTVSPropertyOp20
 70
     1
102
RTVSPropertyOp21
 70
     1
102
RTVSPropertyOp22
 70
     1
102
RTVSPropertyOp23
 70
     1
102
RTVSPropertyOp24
 70
     1
102
RTVSPropertyOp25
 70
     1
102
RTVSPropertyOp26
 70
     1
102
RTVSPropertyOp27
 70
     1
102
RTVSPropertyOp28
 70
     1
102
RTVSPropertyOp29
 70
     1
102
RTVSPropertyOp30
 70
     1
102
RTVSPropertyOp31
 70
     1
102
RTVSPropertyOp32
 70
     1
102
RTVSPropertyOp33
 70
     1
102
RTVSPropertyOp34
 70
     1
102
RTVSPropertyOp35
 70
     1
102
RTVSPropertyOp36
 70
     1
102
RTVSPropertyOp37
 70
     1
102
RTVSPropertyOp38
 70
     1
102
RTVSPropertyOp39
 70
     1
102
RTVSPropertyOp40
 70
     1
102
RTVSPropertyOp41
 70
     1
102
RTVSPropertyOp42
 70
     1
102
RTVSPropertyOp43
 70
     1
102
RTVSPropertyOp44
 70
     1
102
RTVSPropertyOp45
 70
     1
102
RTVSPropertyOp46
 70
     1
102
RTVSPropertyOp47
 70
     1
102
RTVSPropertyOp48
 70
     1
102
RTVSPropertyOp49
 70
     1
102
RTVSPropertyOp50
 70
     1
102
RTVSPropertyOp51
 70
     0
102
RTVSPropertyOp52
 70
     0
102
RTVSPropertyOp53
 70
     1
102
RTVSPropertyOp54
 70
     1
102
RTVSPropertyOp55
 70
     1
102
RTVSPropertyOp56
 70
     1
102
RTVSPropertyOp57
 70
     1
102
RTVSPropertyOp58
 70
     1
102
RTVSPropertyOp59
 70
     1
102
RTVSPropertyOp60
 70
     1
102
RTVSPropertyOp61
 70
     1
102
RTVSPropertyOp62
 70
     1
  0
XRECORD
  5
15484
102
{ACAD_REACTORS
330
15483
102
}
330
15483
100
AcDbXrecord
280
     1
102
RTVSPost2010Prop28
280
     0
102
RTVSPost2010PropOp28
 70
     1
102
RTVSPost2010Prop29
280
     1
102
RTVSPost2010PropOp29
 70
     1
102
RTVSPost2010Prop30
280
     1
102
RTVSPost2010PropOp30
 70
     1
102
RTVSPost2010Prop31
280
     0
102
RTVSPost2010PropOp31
 70
     1
102
RTVSPost2010Prop32
280
     0
102
RTVSPost2010PropOp32
 70
     1
102
RTVSPost2010Prop33
280
     0
102
RTVSPost2010PropOp33
 70
     1
102
RTVSPost2010Prop34
280
     0
102
RTVSPost2010PropOp34
 70
     1
102
RTVSPost2010Prop35
280
     0
102
RTVSPost2010PropOp35
 70
     1
102
RTVSPost2010Prop36
280
     0
102
RTVSPost2010PropOp36
 70
     1
102
RTVSPost2010Prop37
 90
       50
102
RTVSPost2010PropOp37
 70
     1
102
RTVSPost2010Prop38
140
0.0
102
RTVSPost2010PropOp38
 70
     1
102
RTVSPost2010Prop39
140
1.0
102
RTVSPost2010PropOp39
 70
     1
102
RTVSPost2010Prop40
 90
        0
102
RTVSPost2010PropOp40
 70
     1
102
RTVSPost2010Prop41ColorIndex
 90
       18
102
RTVSPost2010Prop41ColorRGB
 90
        0
102
RTVSPost2010PropOp41
 70
     1
102
RTVSPost2010Prop42
 90
       50
102
RTVSPost2010PropOp42
 70
     1
102
RTVSPost2010Prop43
 90
        3
102
RTVSPost2010PropOp43
 70
     1
102
RTVSPost2010Prop44ColorIndex
 90
        5
102
RTVSPost2010Prop44ColorRGB
 90
      255
102
RTVSPost2010PropOp44
 70
     1
102
RTVSPost2010Prop45
280
     0
102
RTVSPost2010PropOp45
 70
     1
102
RTVSPost2010Prop46
 90
       50
102
RTVSPost2010PropOp46
 70
     1
102
RTVSPost2010Prop47
 90
       50
102
RTVSPost2010PropOp47
 70
     1
102
RTVSPost2010Prop48
 90
       50
102
RTVSPost2010PropOp48
 70
     1
102
RTVSPost2010Prop49
280
     0
102
RTVSPost2010PropOp49
 70
     1
102
RTVSPost2010Prop50
 90
       50
102
RTVSPost2010PropOp50
 70
     1
102
RTVSPost2010Prop51ColorIndex
 90
      256
102
RTVSPost2010Prop51ColorRGB
 90
-16777216
102
RTVSPost2010PropOp51
 70
     0
102
RTVSPost2010Prop52
140
1.0
102
RTVSPost2010PropOp52
 70
     0
102
RTVSPost2010Prop53
 90
        2
102
RTVSPost2010PropOp53
 70
     1
102
RTVSPost2010Prop54
  1
strokes_ogs.tif
102
RTVSPost2010PropOp54
 70
     1
102
RTVSPost2010Prop55
280
     0
102
RTVSPost2010PropOp55
 70
     1
102
RTVSPost2010Prop56
140
1.0
102
RTVSPost2010PropOp56
 70
     1
102
RTVSPost2010Prop57
140
1.0
102
RTVSPost2010PropOp57
 70
     1
102
RTVSPropertyOp0
 70
     1
102
RTVSPropertyOp1
 70
     1
102
RTVSPropertyOp2
 70
     1
102
RTVSPropertyOp3
 70
     1
102
RTVSPropertyOp4
 70
     1
102
RTVSPropertyOp5
 70
     1
102
RTVSPropertyOp6
 70
     1
102
RTVSPropertyOp7
 70
     1
102
RTVSPropertyOp8
 70
     1
102
RTVSPropertyOp9
 70
     1
102
RTVSPropertyOp10
 70
     1
102
RTVSPropertyOp11
 70
     1
102
RTVSPropertyOp12
 70
     1
102
RTVSPropertyOp13
 70
     1
102
RTVSPropertyOp14
 70
     1
102
RTVSPropertyOp15
 70
     1
102
RTVSPropertyOp16
 70
     1
102
RTVSPropertyOp17
 70
     1
102
RTVSPropertyOp18
 70
     1
102
RTVSPropertyOp19
 70
     1
102
RTVSPropertyOp20
 70
     1
102
RTVSPropertyOp21
 70
     1
102
RTVSPropertyOp22
 70
     1
102
RTVSPropertyOp23
 70
     1
102
RTVSPropertyOp24
 70
     1
102
RTVSPropertyOp25
 70
     1
102
RTVSPropertyOp26
 70
     1
102
RTVSPropertyOp27
 70
     1
102
RTVSPropertyOp28
 70
     1
102
RTVSPropertyOp29
 70
     1
102
RTVSPropertyOp30
 70
     1
102
RTVSPropertyOp31
 70
     1
102
RTVSPropertyOp32
 70
     1
102
RTVSPropertyOp33
 70
     1
102
RTVSPropertyOp34
 70
     1
102
RTVSPropertyOp35
 70
     1
102
RTVSPropertyOp36
 70
     1
102
RTVSPropertyOp37
 70
     1
102
RTVSPropertyOp38
 70
     1
102
RTVSPropertyOp39
 70
     1
102
RTVSPropertyOp40
 70
     1
102
RTVSPropertyOp41
 70
     1
102
RTVSPropertyOp42
 70
     1
102
RTVSPropertyOp43
 70
     1
102
RTVSPropertyOp44
 70
     1
102
RTVSPropertyOp45
 70
     1
102
RTVSPropertyOp46
 70
     1
102
RTVSPropertyOp47
 70
     1
102
RTVSPropertyOp48
 70
     1
102
RTVSPropertyOp49
 70
     1
102
RTVSPropertyOp50
 70
     1
102
RTVSPropertyOp51
 70
     0
102
RTVSPropertyOp52
 70
     0
102
RTVSPropertyOp53
 70
     1
102
RTVSPropertyOp54
 70
     1
102
RTVSPropertyOp55
 70
     1
102
RTVSPropertyOp56
 70
     1
102
RTVSPropertyOp57
 70
     1
102
RTVSPropertyOp58
 70
     1
102
RTVSPropertyOp59
 70
     1
102
RTVSPropertyOp60
 70
     1
102
RTVSPropertyOp61
 70
     1
102
RTVSPropertyOp62
 70
     1
  0
XRECORD
  5
15486
102
{ACAD_REACTORS
330
15485
102
}
330
15485
100
AcDbXrecord
280
     1
102
RTVSPost2010Prop28
280
     0
102
RTVSPost2010PropOp28
 70
     1
102
RTVSPost2010Prop29
280
     1
102
RTVSPost2010PropOp29
 70
     1
102
RTVSPost2010Prop30
280
     1
102
RTVSPost2010PropOp30
 70
     1
102
RTVSPost2010Prop31
280
     0
102
RTVSPost2010PropOp31
 70
     1
102
RTVSPost2010Prop32
280
     0
102
RTVSPost2010PropOp32
 70
     1
102
RTVSPost2010Prop33
280
     0
102
RTVSPost2010PropOp33
 70
     1
102
RTVSPost2010Prop34
280
     0
102
RTVSPost2010PropOp34
 70
     1
102
RTVSPost2010Prop35
280
     0
102
RTVSPost2010PropOp35
 70
     1
102
RTVSPost2010Prop36
280
     0
102
RTVSPost2010PropOp36
 70
     1
102
RTVSPost2010Prop37
 90
       50
102
RTVSPost2010PropOp37
 70
     1
102
RTVSPost2010Prop38
140
0.0
102
RTVSPost2010PropOp38
 70
     1
102
RTVSPost2010Prop39
140
1.0
102
RTVSPost2010PropOp39
 70
     1
102
RTVSPost2010Prop40
 90
        0
102
RTVSPost2010PropOp40
 70
     1
102
RTVSPost2010Prop41ColorIndex
 90
       18
102
RTVSPost2010Prop41ColorRGB
 90
        0
102
RTVSPost2010PropOp41
 70
     1
102
RTVSPost2010Prop42
 90
       50
102
RTVSPost2010PropOp42
 70
     1
102
RTVSPost2010Prop43
 90
        3
102
RTVSPost2010PropOp43
 70
     1
102
RTVSPost2010Prop44ColorIndex
 90
        5
102
RTVSPost2010Prop44ColorRGB
 90
      255
102
RTVSPost2010PropOp44
 70
     1
102
RTVSPost2010Prop45
280
     0
102
RTVSPost2010PropOp45
 70
     1
102
RTVSPost2010Prop46
 90
       50
102
RTVSPost2010PropOp46
 70
     1
102
RTVSPost2010Prop47
 90
       50
102
RTVSPost2010PropOp47
 70
     1
102
RTVSPost2010Prop48
 90
       50
102
RTVSPost2010PropOp48
 70
     1
102
RTVSPost2010Prop49
280
     0
102
RTVSPost2010PropOp49
 70
     1
102
RTVSPost2010Prop50
 90
       50
102
RTVSPost2010PropOp50
 70
     1
102
RTVSPost2010Prop51ColorIndex
 90
      256
102
RTVSPost2010Prop51ColorRGB
 90
-16777216
102
RTVSPost2010PropOp51
 70
     0
102
RTVSPost2010Prop52
140
1.0
102
RTVSPost2010PropOp52
 70
     0
102
RTVSPost2010Prop53
 90
        2
102
RTVSPost2010PropOp53
 70
     1
102
RTVSPost2010Prop54
  1
strokes_ogs.tif
102
RTVSPost2010PropOp54
 70
     1
102
RTVSPost2010Prop55
280
     0
102
RTVSPost2010PropOp55
 70
     1
102
RTVSPost2010Prop56
140
1.0
102
RTVSPost2010PropOp56
 70
     1
102
RTVSPost2010Prop57
140
1.0
102
RTVSPost2010PropOp57
 70
     1
102
RTVSPropertyOp0
 70
     1
102
RTVSPropertyOp1
 70
     1
102
RTVSPropertyOp2
 70
     1
102
RTVSPropertyOp3
 70
     1
102
RTVSPropertyOp4
 70
     1
102
RTVSPropertyOp5
 70
     1
102
RTVSPropertyOp6
 70
     1
102
RTVSPropertyOp7
 70
     1
102
RTVSPropertyOp8
 70
     1
102
RTVSPropertyOp9
 70
     1
102
RTVSPropertyOp10
 70
     1
102
RTVSPropertyOp11
 70
     1
102
RTVSPropertyOp12
 70
     1
102
RTVSPropertyOp13
 70
     1
102
RTVSPropertyOp14
 70
     1
102
RTVSPropertyOp15
 70
     1
102
RTVSPropertyOp16
 70
     1
102
RTVSPropertyOp17
 70
     1
102
RTVSPropertyOp18
 70
     1
102
RTVSPropertyOp19
 70
     1
102
RTVSPropertyOp20
 70
     1
102
RTVSPropertyOp21
 70
     1
102
RTVSPropertyOp22
 70
     1
102
RTVSPropertyOp23
 70
     1
102
RTVSPropertyOp24
 70
     1
102
RTVSPropertyOp25
 70
     1
102
RTVSPropertyOp26
 70
     1
102
RTVSPropertyOp27
 70
     1
102
RTVSPropertyOp28
 70
     1
102
RTVSPropertyOp29
 70
     1
102
RTVSPropertyOp30
 70
     1
102
RTVSPropertyOp31
 70
     1
102
RTVSPropertyOp32
 70
     1
102
RTVSPropertyOp33
 70
     1
102
RTVSPropertyOp34
 70
     1
102
RTVSPropertyOp35
 70
     1
102
RTVSPropertyOp36
 70
     1
102
RTVSPropertyOp37
 70
     1
102
RTVSPropertyOp38
 70
     1
102
RTVSPropertyOp39
 70
     1
102
RTVSPropertyOp40
 70
     1
102
RTVSPropertyOp41
 70
     1
102
RTVSPropertyOp42
 70
     1
102
RTVSPropertyOp43
 70
     1
102
RTVSPropertyOp44
 70
     1
102
RTVSPropertyOp45
 70
     1
102
RTVSPropertyOp46
 70
     1
102
RTVSPropertyOp47
 70
     1
102
RTVSPropertyOp48
 70
     1
102
RTVSPropertyOp49
 70
     1
102
RTVSPropertyOp50
 70
     1
102
RTVSPropertyOp51
 70
     0
102
RTVSPropertyOp52
 70
     0
102
RTVSPropertyOp53
 70
     1
102
RTVSPropertyOp54
 70
     1
102
RTVSPropertyOp55
 70
     1
102
RTVSPropertyOp56
 70
     1
102
RTVSPropertyOp57
 70
     1
102
RTVSPropertyOp58
 70
     1
102
RTVSPropertyOp59
 70
     1
102
RTVSPropertyOp60
 70
     1
102
RTVSPropertyOp61
 70
     1
102
RTVSPropertyOp62
 70
     1
  0
XRECORD
  5
1548E
102
{ACAD_REACTORS
330
1548D
102
}
330
1548D
100
AcDbXrecord
280
     1
102
RTVSPost2010Prop28
280
     0
102
RTVSPost2010PropOp28
 70
     1
102
RTVSPost2010Prop29
280
     1
102
RTVSPost2010PropOp29
 70
     1
102
RTVSPost2010Prop30
280
     1
102
RTVSPost2010PropOp30
 70
     1
102
RTVSPost2010Prop31
280
     0
102
RTVSPost2010PropOp31
 70
     1
102
RTVSPost2010Prop32
280
     0
102
RTVSPost2010PropOp32
 70
     1
102
RTVSPost2010Prop33
280
     0
102
RTVSPost2010PropOp33
 70
     1
102
RTVSPost2010Prop34
280
     0
102
RTVSPost2010PropOp34
 70
     1
102
RTVSPost2010Prop35
280
     0
102
RTVSPost2010PropOp35
 70
     1
102
RTVSPost2010Prop36
280
     0
102
RTVSPost2010PropOp36
 70
     1
102
RTVSPost2010Prop37
 90
       50
102
RTVSPost2010PropOp37
 70
     1
102
RTVSPost2010Prop38
140
0.0
102
RTVSPost2010PropOp38
 70
     1
102
RTVSPost2010Prop39
140
1.0
102
RTVSPost2010PropOp39
 70
     1
102
RTVSPost2010Prop40
 90
        0
102
RTVSPost2010PropOp40
 70
     1
102
RTVSPost2010Prop41ColorIndex
 90
       18
102
RTVSPost2010Prop41ColorRGB
 90
        0
102
RTVSPost2010PropOp41
 70
     1
102
RTVSPost2010Prop42
 90
       50
102
RTVSPost2010PropOp42
 70
     1
102
RTVSPost2010Prop43
 90
        3
102
RTVSPost2010PropOp43
 70
     1
102
RTVSPost2010Prop44ColorIndex
 90
        5
102
RTVSPost2010Prop44ColorRGB
 90
      255
102
RTVSPost2010PropOp44
 70
     1
102
RTVSPost2010Prop45
280
     0
102
RTVSPost2010PropOp45
 70
     1
102
RTVSPost2010Prop46
 90
       50
102
RTVSPost2010PropOp46
 70
     1
102
RTVSPost2010Prop47
 90
       50
102
RTVSPost2010PropOp47
 70
     1
102
RTVSPost2010Prop48
 90
       50
102
RTVSPost2010PropOp48
 70
     1
102
RTVSPost2010Prop49
280
     0
102
RTVSPost2010PropOp49
 70
     1
102
RTVSPost2010Prop50
 90
       50
102
RTVSPost2010PropOp50
 70
     1
102
RTVSPost2010Prop51ColorIndex
 90
      256
102
RTVSPost2010Prop51ColorRGB
 90
-16777216
102
RTVSPost2010PropOp51
 70
     0
102
RTVSPost2010Prop52
140
1.0
102
RTVSPost2010PropOp52
 70
     0
102
RTVSPost2010Prop53
 90
        2
102
RTVSPost2010PropOp53
 70
     1
102
RTVSPost2010Prop54
  1
strokes_ogs.tif
102
RTVSPost2010PropOp54
 70
     1
102
RTVSPost2010Prop55
280
     0
102
RTVSPost2010PropOp55
 70
     1
102
RTVSPost2010Prop56
140
1.0
102
RTVSPost2010PropOp56
 70
     1
102
RTVSPost2010Prop57
140
1.0
102
RTVSPost2010PropOp57
 70
     1
102
RTVSPropertyOp0
 70
     1
102
RTVSPropertyOp1
 70
     1
102
RTVSPropertyOp2
 70
     1
102
RTVSPropertyOp3
 70
     1
102
RTVSPropertyOp4
 70
     1
102
RTVSPropertyOp5
 70
     1
102
RTVSPropertyOp6
 70
     1
102
RTVSPropertyOp7
 70
     1
102
RTVSPropertyOp8
 70
     1
102
RTVSPropertyOp9
 70
     1
102
RTVSPropertyOp10
 70
     1
102
RTVSPropertyOp11
 70
     1
102
RTVSPropertyOp12
 70
     1
102
RTVSPropertyOp13
 70
     1
102
RTVSPropertyOp14
 70
     1
102
RTVSPropertyOp15
 70
     1
102
RTVSPropertyOp16
 70
     1
102
RTVSPropertyOp17
 70
     1
102
RTVSPropertyOp18
 70
     1
102
RTVSPropertyOp19
 70
     1
102
RTVSPropertyOp20
 70
     1
102
RTVSPropertyOp21
 70
     1
102
RTVSPropertyOp22
 70
     1
102
RTVSPropertyOp23
 70
     1
102
RTVSPropertyOp24
 70
     1
102
RTVSPropertyOp25
 70
     1
102
RTVSPropertyOp26
 70
     1
102
RTVSPropertyOp27
 70
     1
102
RTVSPropertyOp28
 70
     1
102
RTVSPropertyOp29
 70
     1
102
RTVSPropertyOp30
 70
     1
102
RTVSPropertyOp31
 70
     1
102
RTVSPropertyOp32
 70
     1
102
RTVSPropertyOp33
 70
     1
102
RTVSPropertyOp34
 70
     1
102
RTVSPropertyOp35
 70
     1
102
RTVSPropertyOp36
 70
     1
102
RTVSPropertyOp37
 70
     1
102
RTVSPropertyOp38
 70
     1
102
RTVSPropertyOp39
 70
     1
102
RTVSPropertyOp40
 70
     1
102
RTVSPropertyOp41
 70
     1
102
RTVSPropertyOp42
 70
     1
102
RTVSPropertyOp43
 70
     1
102
RTVSPropertyOp44
 70
     1
102
RTVSPropertyOp45
 70
     1
102
RTVSPropertyOp46
 70
     1
102
RTVSPropertyOp47
 70
     1
102
RTVSPropertyOp48
 70
     1
102
RTVSPropertyOp49
 70
     1
102
RTVSPropertyOp50
 70
     1
102
RTVSPropertyOp51
 70
     0
102
RTVSPropertyOp52
 70
     0
102
RTVSPropertyOp53
 70
     1
102
RTVSPropertyOp54
 70
     1
102
RTVSPropertyOp55
 70
     1
102
RTVSPropertyOp56
 70
     1
102
RTVSPropertyOp57
 70
     1
102
RTVSPropertyOp58
 70
     1
102
RTVSPropertyOp59
 70
     1
102
RTVSPropertyOp60
 70
     1
102
RTVSPropertyOp61
 70
     1
102
RTVSPropertyOp62
 70
     1
  0
XRECORD
  5
154AA
102
{ACAD_REACTORS
330
154A9
102
}
330
154A9
100
AcDbXrecord
280
     1
102
RTVSPost2010Prop28
280
     0
102
RTVSPost2010PropOp28
 70
     0
102
RTVSPost2010Prop29
280
     1
102
RTVSPost2010PropOp29
 70
     0
102
RTVSPost2010Prop30
280
     1
102
RTVSPost2010PropOp30
 70
     0
102
RTVSPost2010Prop31
280
     0
102
RTVSPost2010PropOp31
 70
     0
102
RTVSPost2010Prop32
280
     0
102
RTVSPost2010PropOp32
 70
     0
102
RTVSPost2010Prop33
280
     0
102
RTVSPost2010PropOp33
 70
     0
102
RTVSPost2010Prop34
280
     0
102
RTVSPost2010PropOp34
 70
     0
102
RTVSPost2010Prop35
280
     0
102
RTVSPost2010PropOp35
 70
     0
102
RTVSPost2010Prop36
280
     0
102
RTVSPost2010PropOp36
 70
     0
102
RTVSPost2010Prop37
 90
       50
102
RTVSPost2010PropOp37
 70
     0
102
RTVSPost2010Prop38
140
0.0
102
RTVSPost2010PropOp38
 70
     0
102
RTVSPost2010Prop39
140
1.0
102
RTVSPost2010PropOp39
 70
     0
102
RTVSPost2010Prop40
 90
        0
102
RTVSPost2010PropOp40
 70
     0
102
RTVSPost2010Prop41ColorIndex
 90
       18
102
RTVSPost2010Prop41ColorRGB
 90
        0
102
RTVSPost2010PropOp41
 70
     0
102
RTVSPost2010Prop42
 90
       50
102
RTVSPost2010PropOp42
 70
     0
102
RTVSPost2010Prop43
 90
        3
102
RTVSPost2010PropOp43
 70
     0
102
RTVSPost2010Prop44ColorIndex
 90
        5
102
RTVSPost2010Prop44ColorRGB
 90
      255
102
RTVSPost2010PropOp44
 70
     0
102
RTVSPost2010Prop45
280
     0
102
RTVSPost2010PropOp45
 70
     0
102
RTVSPost2010Prop46
 90
       50
102
RTVSPost2010PropOp46
 70
     0
102
RTVSPost2010Prop47
 90
       50
102
RTVSPost2010PropOp47
 70
     0
102
RTVSPost2010Prop48
 90
       50
102
RTVSPost2010PropOp48
 70
     0
102
RTVSPost2010Prop49
280
     0
102
RTVSPost2010PropOp49
 70
     0
102
RTVSPost2010Prop50
 90
       50
102
RTVSPost2010PropOp50
 70
     0
102
RTVSPost2010Prop51ColorIndex
 90
      256
102
RTVSPost2010Prop51ColorRGB
 90
-16777216
102
RTVSPost2010PropOp51
 70
     0
102
RTVSPost2010Prop52
140
1.0
102
RTVSPost2010PropOp52
 70
     0
102
RTVSPost2010Prop53
 90
        2
102
RTVSPost2010PropOp53
 70
     0
102
RTVSPost2010Prop54
  1
strokes_ogs.tif
102
RTVSPost2010PropOp54
 70
     0
102
RTVSPost2010Prop55
280
     0
102
RTVSPost2010PropOp55
 70
     0
102
RTVSPost2010Prop56
140
1.0
102
RTVSPost2010PropOp56
 70
     0
102
RTVSPost2010Prop57
140
1.0
102
RTVSPost2010PropOp57
 70
     0
102
RTVSPropertyOp0
 70
     0
102
RTVSPropertyOp1
 70
     0
102
RTVSPropertyOp2
 70
     0
102
RTVSPropertyOp3
 70
     0
102
RTVSPropertyOp4
 70
     0
102
RTVSPropertyOp5
 70
     0
102
RTVSPropertyOp6
 70
     0
102
RTVSPropertyOp7
 70
     0
102
RTVSPropertyOp8
 70
     0
102
RTVSPropertyOp9
 70
     0
102
RTVSPropertyOp10
 70
     0
102
RTVSPropertyOp11
 70
     0
102
RTVSPropertyOp12
 70
     0
102
RTVSPropertyOp13
 70
     0
102
RTVSPropertyOp14
 70
     2
102
RTVSPropertyOp15
 70
     0
102
RTVSPropertyOp16
 70
     0
102
RTVSPropertyOp17
 70
     0
102
RTVSPropertyOp18
 70
     0
102
RTVSPropertyOp19
 70
     0
102
RTVSPropertyOp20
 70
     0
102
RTVSPropertyOp21
 70
     0
102
RTVSPropertyOp22
 70
     0
102
RTVSPropertyOp23
 70
     0
102
RTVSPropertyOp24
 70
     0
102
RTVSPropertyOp25
 70
     0
102
RTVSPropertyOp26
 70
     0
102
RTVSPropertyOp27
 70
     0
102
RTVSPropertyOp28
 70
     0
102
RTVSPropertyOp29
 70
     0
102
RTVSPropertyOp30
 70
     0
102
RTVSPropertyOp31
 70
     0
102
RTVSPropertyOp32
 70
     0
102
RTVSPropertyOp33
 70
     0
102
RTVSPropertyOp34
 70
     0
102
RTVSPropertyOp35
 70
     0
102
RTVSPropertyOp36
 70
     0
102
RTVSPropertyOp37
 70
     0
102
RTVSPropertyOp38
 70
     0
102
RTVSPropertyOp39
 70
     0
102
RTVSPropertyOp40
 70
     0
102
RTVSPropertyOp41
 70
     0
102
RTVSPropertyOp42
 70
     0
102
RTVSPropertyOp43
 70
     0
102
RTVSPropertyOp44
 70
     0
102
RTVSPropertyOp45
 70
     0
102
RTVSPropertyOp46
 70
     0
102
RTVSPropertyOp47
 70
     0
102
RTVSPropertyOp48
 70
     0
102
RTVSPropertyOp49
 70
     0
102
RTVSPropertyOp50
 70
     0
102
RTVSPropertyOp51
 70
     0
102
RTVSPropertyOp52
 70
     0
102
RTVSPropertyOp53
 70
     0
102
RTVSPropertyOp54
 70
     0
102
RTVSPropertyOp55
 70
     0
102
RTVSPropertyOp56
 70
     0
102
RTVSPropertyOp57
 70
     0
102
RTVSPropertyOp58
 70
     1
102
RTVSPropertyOp59
 70
     1
102
RTVSPropertyOp60
 70
     1
102
RTVSPropertyOp61
 70
     1
102
RTVSPropertyOp62
 70
     1
  0
XRECORD
  5
1549A
102
{ACAD_REACTORS
330
15499
102
}
330
15499
100
AcDbXrecord
280
     1
102
RTVSPost2010Prop28
280
     0
102
RTVSPost2010PropOp28
 70
     1
102
RTVSPost2010Prop29
280
     1
102
RTVSPost2010PropOp29
 70
     1
102
RTVSPost2010Prop30
280
     1
102
RTVSPost2010PropOp30
 70
     1
102
RTVSPost2010Prop31
280
     0
102
RTVSPost2010PropOp31
 70
     1
102
RTVSPost2010Prop32
280
     0
102
RTVSPost2010PropOp32
 70
     1
102
RTVSPost2010Prop33
280
     0
102
RTVSPost2010PropOp33
 70
     1
102
RTVSPost2010Prop34
280
     0
102
RTVSPost2010PropOp34
 70
     1
102
RTVSPost2010Prop35
280
     0
102
RTVSPost2010PropOp35
 70
     1
102
RTVSPost2010Prop36
280
     0
102
RTVSPost2010PropOp36
 70
     1
102
RTVSPost2010Prop37
 90
       50
102
RTVSPost2010PropOp37
 70
     1
102
RTVSPost2010Prop38
140
0.0
102
RTVSPost2010PropOp38
 70
     1
102
RTVSPost2010Prop39
140
1.0
102
RTVSPost2010PropOp39
 70
     1
102
RTVSPost2010Prop40
 90
        0
102
RTVSPost2010PropOp40
 70
     1
102
RTVSPost2010Prop41ColorIndex
 90
       18
102
RTVSPost2010Prop41ColorRGB
 90
        0
102
RTVSPost2010PropOp41
 70
     1
102
RTVSPost2010Prop42
 90
       50
102
RTVSPost2010PropOp42
 70
     1
102
RTVSPost2010Prop43
 90
        3
102
RTVSPost2010PropOp43
 70
     1
102
RTVSPost2010Prop44ColorIndex
 90
        5
102
RTVSPost2010Prop44ColorRGB
 90
      255
102
RTVSPost2010PropOp44
 70
     1
102
RTVSPost2010Prop45
280
     0
102
RTVSPost2010PropOp45
 70
     1
102
RTVSPost2010Prop46
 90
       50
102
RTVSPost2010PropOp46
 70
     1
102
RTVSPost2010Prop47
 90
       50
102
RTVSPost2010PropOp47
 70
     1
102
RTVSPost2010Prop48
 90
       50
102
RTVSPost2010PropOp48
 70
     1
102
RTVSPost2010Prop49
280
     0
102
RTVSPost2010PropOp49
 70
     1
102
RTVSPost2010Prop50
 90
       50
102
RTVSPost2010PropOp50
 70
     1
102
RTVSPost2010Prop51ColorIndex
 90
      256
102
RTVSPost2010Prop51ColorRGB
 90
-16777216
102
RTVSPost2010PropOp51
 70
     0
102
RTVSPost2010Prop52
140
1.0
102
RTVSPost2010PropOp52
 70
     0
102
RTVSPost2010Prop53
 90
        2
102
RTVSPost2010PropOp53
 70
     1
102
RTVSPost2010Prop54
  1
strokes_ogs.tif
102
RTVSPost2010PropOp54
 70
     1
102
RTVSPost2010Prop55
280
     0
102
RTVSPost2010PropOp55
 70
     1
102
RTVSPost2010Prop56
140
1.0
102
RTVSPost2010PropOp56
 70
     1
102
RTVSPost2010Prop57
140
1.0
102
RTVSPost2010PropOp57
 70
     1
102
RTVSPropertyOp0
 70
     1
102
RTVSPropertyOp1
 70
     1
102
RTVSPropertyOp2
 70
     1
102
RTVSPropertyOp3
 70
     1
102
RTVSPropertyOp4
 70
     1
102
RTVSPropertyOp5
 70
     1
102
RTVSPropertyOp6
 70
     1
102
RTVSPropertyOp7
 70
     1
102
RTVSPropertyOp8
 70
     1
102
RTVSPropertyOp9
 70
     1
102
RTVSPropertyOp10
 70
     1
102
RTVSPropertyOp11
 70
     1
102
RTVSPropertyOp12
 70
     1
102
RTVSPropertyOp13
 70
     1
102
RTVSPropertyOp14
 70
     1
102
RTVSPropertyOp15
 70
     1
102
RTVSPropertyOp16
 70
     1
102
RTVSPropertyOp17
 70
     1
102
RTVSPropertyOp18
 70
     1
102
RTVSPropertyOp19
 70
     1
102
RTVSPropertyOp20
 70
     1
102
RTVSPropertyOp21
 70
     1
102
RTVSPropertyOp22
 70
     1
102
RTVSPropertyOp23
 70
     1
102
RTVSPropertyOp24
 70
     1
102
RTVSPropertyOp25
 70
     1
102
RTVSPropertyOp26
 70
     1
102
RTVSPropertyOp27
 70
     1
102
RTVSPropertyOp28
 70
     1
102
RTVSPropertyOp29
 70
     1
102
RTVSPropertyOp30
 70
     1
102
RTVSPropertyOp31
 70
     1
102
RTVSPropertyOp32
 70
     1
102
RTVSPropertyOp33
 70
     1
102
RTVSPropertyOp34
 70
     1
102
RTVSPropertyOp35
 70
     1
102
RTVSPropertyOp36
 70
     1
102
RTVSPropertyOp37
 70
     1
102
RTVSPropertyOp38
 70
     1
102
RTVSPropertyOp39
 70
     1
102
RTVSPropertyOp40
 70
     1
102
RTVSPropertyOp41
 70
     1
102
RTVSPropertyOp42
 70
     1
102
RTVSPropertyOp43
 70
     1
102
RTVSPropertyOp44
 70
     1
102
RTVSPropertyOp45
 70
     1
102
RTVSPropertyOp46
 70
     1
102
RTVSPropertyOp47
 70
     1
102
RTVSPropertyOp48
 70
     1
102
RTVSPropertyOp49
 70
     1
102
RTVSPropertyOp50
 70
     1
102
RTVSPropertyOp51
 70
     0
102
RTVSPropertyOp52
 70
     0
102
RTVSPropertyOp53
 70
     1
102
RTVSPropertyOp54
 70
     1
102
RTVSPropertyOp55
 70
     1
102
RTVSPropertyOp56
 70
     1
102
RTVSPropertyOp57
 70
     1
102
RTVSPropertyOp58
 70
     1
102
RTVSPropertyOp59
 70
     1
102
RTVSPropertyOp60
 70
     1
102
RTVSPropertyOp61
 70
     1
102
RTVSPropertyOp62
 70
     1
  0
XRECORD
  5
154AC
102
{ACAD_REACTORS
330
154AB
102
}
330
154AB
100
AcDbXrecord
280
     1
102
RTVSPost2010Prop28
280
     0
102
RTVSPost2010PropOp28
 70
     0
102
RTVSPost2010Prop29
280
     1
102
RTVSPost2010PropOp29
 70
     0
102
RTVSPost2010Prop30
280
     1
102
RTVSPost2010PropOp30
 70
     0
102
RTVSPost2010Prop31
280
     0
102
RTVSPost2010PropOp31
 70
     0
102
RTVSPost2010Prop32
280
     0
102
RTVSPost2010PropOp32
 70
     0
102
RTVSPost2010Prop33
280
     0
102
RTVSPost2010PropOp33
 70
     0
102
RTVSPost2010Prop34
280
     0
102
RTVSPost2010PropOp34
 70
     0
102
RTVSPost2010Prop35
280
     0
102
RTVSPost2010PropOp35
 70
     0
102
RTVSPost2010Prop36
280
     0
102
RTVSPost2010PropOp36
 70
     0
102
RTVSPost2010Prop37
 90
       50
102
RTVSPost2010PropOp37
 70
     0
102
RTVSPost2010Prop38
140
0.0
102
RTVSPost2010PropOp38
 70
     0
102
RTVSPost2010Prop39
140
1.0
102
RTVSPost2010PropOp39
 70
     0
102
RTVSPost2010Prop40
 90
        0
102
RTVSPost2010PropOp40
 70
     0
102
RTVSPost2010Prop41ColorIndex
 90
       18
102
RTVSPost2010Prop41ColorRGB
 90
        0
102
RTVSPost2010PropOp41
 70
     0
102
RTVSPost2010Prop42
 90
       50
102
RTVSPost2010PropOp42
 70
     0
102
RTVSPost2010Prop43
 90
        3
102
RTVSPost2010PropOp43
 70
     0
102
RTVSPost2010Prop44ColorIndex
 90
        5
102
RTVSPost2010Prop44ColorRGB
 90
      255
102
RTVSPost2010PropOp44
 70
     0
102
RTVSPost2010Prop45
280
     0
102
RTVSPost2010PropOp45
 70
     0
102
RTVSPost2010Prop46
 90
       50
102
RTVSPost2010PropOp46
 70
     0
102
RTVSPost2010Prop47
 90
       50
102
RTVSPost2010PropOp47
 70
     0
102
RTVSPost2010Prop48
 90
       50
102
RTVSPost2010PropOp48
 70
     0
102
RTVSPost2010Prop49
280
     0
102
RTVSPost2010PropOp49
 70
     0
102
RTVSPost2010Prop50
 90
       50
102
RTVSPost2010PropOp50
 70
     0
102
RTVSPost2010Prop51ColorIndex
 90
      256
102
RTVSPost2010Prop51ColorRGB
 90
-16777216
102
RTVSPost2010PropOp51
 70
     0
102
RTVSPost2010Prop52
140
1.0
102
RTVSPost2010PropOp52
 70
     0
102
RTVSPost2010Prop53
 90
        2
102
RTVSPost2010PropOp53
 70
     0
102
RTVSPost2010Prop54
  1
strokes_ogs.tif
102
RTVSPost2010PropOp54
 70
     0
102
RTVSPost2010Prop55
280
     0
102
RTVSPost2010PropOp55
 70
     0
102
RTVSPost2010Prop56
140
1.0
102
RTVSPost2010PropOp56
 70
     0
102
RTVSPost2010Prop57
140
1.0
102
RTVSPost2010PropOp57
 70
     0
102
RTVSPropertyOp0
 70
     0
102
RTVSPropertyOp1
 70
     0
102
RTVSPropertyOp2
 70
     0
102
RTVSPropertyOp3
 70
     0
102
RTVSPropertyOp4
 70
     0
102
RTVSPropertyOp5
 70
     0
102
RTVSPropertyOp6
 70
     0
102
RTVSPropertyOp7
 70
     0
102
RTVSPropertyOp8
 70
     0
102
RTVSPropertyOp9
 70
     0
102
RTVSPropertyOp10
 70
     0
102
RTVSPropertyOp11
 70
     0
102
RTVSPropertyOp12
 70
     0
102
RTVSPropertyOp13
 70
     0
102
RTVSPropertyOp14
 70
     2
102
RTVSPropertyOp15
 70
     0
102
RTVSPropertyOp16
 70
     0
102
RTVSPropertyOp17
 70
     0
102
RTVSPropertyOp18
 70
     0
102
RTVSPropertyOp19
 70
     0
102
RTVSPropertyOp20
 70
     0
102
RTVSPropertyOp21
 70
     0
102
RTVSPropertyOp22
 70
     0
102
RTVSPropertyOp23
 70
     0
102
RTVSPropertyOp24
 70
     0
102
RTVSPropertyOp25
 70
     0
102
RTVSPropertyOp26
 70
     0
102
RTVSPropertyOp27
 70
     0
102
RTVSPropertyOp28
 70
     0
102
RTVSPropertyOp29
 70
     0
102
RTVSPropertyOp30
 70
     0
102
RTVSPropertyOp31
 70
     0
102
RTVSPropertyOp32
 70
     0
102
RTVSPropertyOp33
 70
     0
102
RTVSPropertyOp34
 70
     0
102
RTVSPropertyOp35
 70
     0
102
RTVSPropertyOp36
 70
     0
102
RTVSPropertyOp37
 70
     0
102
RTVSPropertyOp38
 70
     0
102
RTVSPropertyOp39
 70
     0
102
RTVSPropertyOp40
 70
     0
102
RTVSPropertyOp41
 70
     0
102
RTVSPropertyOp42
 70
     0
102
RTVSPropertyOp43
 70
     0
102
RTVSPropertyOp44
 70
     0
102
RTVSPropertyOp45
 70
     0
102
RTVSPropertyOp46
 70
     0
102
RTVSPropertyOp47
 70
     0
102
RTVSPropertyOp48
 70
     0
102
RTVSPropertyOp49
 70
     0
102
RTVSPropertyOp50
 70
     0
102
RTVSPropertyOp51
 70
     0
102
RTVSPropertyOp52
 70
     0
102
RTVSPropertyOp53
 70
     0
102
RTVSPropertyOp54
 70
     0
102
RTVSPropertyOp55
 70
     0
102
RTVSPropertyOp56
 70
     0
102
RTVSPropertyOp57
 70
     0
102
RTVSPropertyOp58
 70
     1
102
RTVSPropertyOp59
 70
     1
102
RTVSPropertyOp60
 70
     1
102
RTVSPropertyOp61
 70
     1
102
RTVSPropertyOp62
 70
     1
  0
XRECORD
  5
15492
102
{ACAD_REACTORS
330
15491
102
}
330
15491
100
AcDbXrecord
280
     1
102
RTVSPost2010Prop28
280
     0
102
RTVSPost2010PropOp28
 70
     1
102
RTVSPost2010Prop29
280
     1
102
RTVSPost2010PropOp29
 70
     1
102
RTVSPost2010Prop30
280
     1
102
RTVSPost2010PropOp30
 70
     1
102
RTVSPost2010Prop31
280
     0
102
RTVSPost2010PropOp31
 70
     1
102
RTVSPost2010Prop32
280
     0
102
RTVSPost2010PropOp32
 70
     1
102
RTVSPost2010Prop33
280
     0
102
RTVSPost2010PropOp33
 70
     1
102
RTVSPost2010Prop34
280
     0
102
RTVSPost2010PropOp34
 70
     1
102
RTVSPost2010Prop35
280
     0
102
RTVSPost2010PropOp35
 70
     1
102
RTVSPost2010Prop36
280
     0
102
RTVSPost2010PropOp36
 70
     1
102
RTVSPost2010Prop37
 90
       50
102
RTVSPost2010PropOp37
 70
     1
102
RTVSPost2010Prop38
140
0.0
102
RTVSPost2010PropOp38
 70
     1
102
RTVSPost2010Prop39
140
1.0
102
RTVSPost2010PropOp39
 70
     1
102
RTVSPost2010Prop40
 90
        0
102
RTVSPost2010PropOp40
 70
     1
102
RTVSPost2010Prop41ColorIndex
 90
       18
102
RTVSPost2010Prop41ColorRGB
 90
        0
102
RTVSPost2010PropOp41
 70
     1
102
RTVSPost2010Prop42
 90
       50
102
RTVSPost2010PropOp42
 70
     1
102
RTVSPost2010Prop43
 90
        3
102
RTVSPost2010PropOp43
 70
     1
102
RTVSPost2010Prop44ColorIndex
 90
        5
102
RTVSPost2010Prop44ColorRGB
 90
      255
102
RTVSPost2010PropOp44
 70
     1
102
RTVSPost2010Prop45
280
     0
102
RTVSPost2010PropOp45
 70
     1
102
RTVSPost2010Prop46
 90
       50
102
RTVSPost2010PropOp46
 70
     1
102
RTVSPost2010Prop47
 90
       50
102
RTVSPost2010PropOp47
 70
     1
102
RTVSPost2010Prop48
 90
       50
102
RTVSPost2010PropOp48
 70
     1
102
RTVSPost2010Prop49
280
     0
102
RTVSPost2010PropOp49
 70
     1
102
RTVSPost2010Prop50
 90
       50
102
RTVSPost2010PropOp50
 70
     1
102
RTVSPost2010Prop51ColorIndex
 90
      256
102
RTVSPost2010Prop51ColorRGB
 90
-16777216
102
RTVSPost2010PropOp51
 70
     0
102
RTVSPost2010Prop52
140
1.0
102
RTVSPost2010PropOp52
 70
     0
102
RTVSPost2010Prop53
 90
        2
102
RTVSPost2010PropOp53
 70
     1
102
RTVSPost2010Prop54
  1
strokes_ogs.tif
102
RTVSPost2010PropOp54
 70
     1
102
RTVSPost2010Prop55
280
     0
102
RTVSPost2010PropOp55
 70
     1
102
RTVSPost2010Prop56
140
1.0
102
RTVSPost2010PropOp56
 70
     1
102
RTVSPost2010Prop57
140
1.0
102
RTVSPost2010PropOp57
 70
     1
102
RTVSPropertyOp0
 70
     1
102
RTVSPropertyOp1
 70
     1
102
RTVSPropertyOp2
 70
     1
102
RTVSPropertyOp3
 70
     1
102
RTVSPropertyOp4
 70
     1
102
RTVSPropertyOp5
 70
     1
102
RTVSPropertyOp6
 70
     1
102
RTVSPropertyOp7
 70
     1
102
RTVSPropertyOp8
 70
     1
102
RTVSPropertyOp9
 70
     1
102
RTVSPropertyOp10
 70
     1
102
RTVSPropertyOp11
 70
     1
102
RTVSPropertyOp12
 70
     1
102
RTVSPropertyOp13
 70
     1
102
RTVSPropertyOp14
 70
     1
102
RTVSPropertyOp15
 70
     1
102
RTVSPropertyOp16
 70
     1
102
RTVSPropertyOp17
 70
     1
102
RTVSPropertyOp18
 70
     1
102
RTVSPropertyOp19
 70
     1
102
RTVSPropertyOp20
 70
     1
102
RTVSPropertyOp21
 70
     1
102
RTVSPropertyOp22
 70
     1
102
RTVSPropertyOp23
 70
     1
102
RTVSPropertyOp24
 70
     1
102
RTVSPropertyOp25
 70
     1
102
RTVSPropertyOp26
 70
     1
102
RTVSPropertyOp27
 70
     1
102
RTVSPropertyOp28
 70
     1
102
RTVSPropertyOp29
 70
     1
102
RTVSPropertyOp30
 70
     1
102
RTVSPropertyOp31
 70
     1
102
RTVSPropertyOp32
 70
     1
102
RTVSPropertyOp33
 70
     1
102
RTVSPropertyOp34
 70
     1
102
RTVSPropertyOp35
 70
     1
102
RTVSPropertyOp36
 70
     1
102
RTVSPropertyOp37
 70
     1
102
RTVSPropertyOp38
 70
     1
102
RTVSPropertyOp39
 70
     1
102
RTVSPropertyOp40
 70
     1
102
RTVSPropertyOp41
 70
     1
102
RTVSPropertyOp42
 70
     1
102
RTVSPropertyOp43
 70
     1
102
RTVSPropertyOp44
 70
     1
102
RTVSPropertyOp45
 70
     1
102
RTVSPropertyOp46
 70
     1
102
RTVSPropertyOp47
 70
     1
102
RTVSPropertyOp48
 70
     1
102
RTVSPropertyOp49
 70
     1
102
RTVSPropertyOp50
 70
     1
102
RTVSPropertyOp51
 70
     0
102
RTVSPropertyOp52
 70
     0
102
RTVSPropertyOp53
 70
     1
102
RTVSPropertyOp54
 70
     1
102
RTVSPropertyOp55
 70
     1
102
RTVSPropertyOp56
 70
     1
102
RTVSPropertyOp57
 70
     1
102
RTVSPropertyOp58
 70
     1
102
RTVSPropertyOp59
 70
     1
102
RTVSPropertyOp60
 70
     1
102
RTVSPropertyOp61
 70
     1
102
RTVSPropertyOp62
 70
     1
  0
XRECORD
  5
154A8
102
{ACAD_REACTORS
330
154A7
102
}
330
154A7
100
AcDbXrecord
280
     1
102
RTVSPost2010Prop28
280
     0
102
RTVSPost2010PropOp28
 70
     1
102
RTVSPost2010Prop29
280
     1
102
RTVSPost2010PropOp29
 70
     1
102
RTVSPost2010Prop30
280
     1
102
RTVSPost2010PropOp30
 70
     1
102
RTVSPost2010Prop31
280
     0
102
RTVSPost2010PropOp31
 70
     1
102
RTVSPost2010Prop32
280
     0
102
RTVSPost2010PropOp32
 70
     1
102
RTVSPost2010Prop33
280
     0
102
RTVSPost2010PropOp33
 70
     1
102
RTVSPost2010Prop34
280
     0
102
RTVSPost2010PropOp34
 70
     1
102
RTVSPost2010Prop35
280
     0
102
RTVSPost2010PropOp35
 70
     1
102
RTVSPost2010Prop36
280
     0
102
RTVSPost2010PropOp36
 70
     1
102
RTVSPost2010Prop37
 90
       50
102
RTVSPost2010PropOp37
 70
     1
102
RTVSPost2010Prop38
140
0.0
102
RTVSPost2010PropOp38
 70
     1
102
RTVSPost2010Prop39
140
1.0
102
RTVSPost2010PropOp39
 70
     1
102
RTVSPost2010Prop40
 90
        0
102
RTVSPost2010PropOp40
 70
     1
102
RTVSPost2010Prop41ColorIndex
 90
       18
102
RTVSPost2010Prop41ColorRGB
 90
        0
102
RTVSPost2010PropOp41
 70
     1
102
RTVSPost2010Prop42
 90
       50
102
RTVSPost2010PropOp42
 70
     1
102
RTVSPost2010Prop43
 90
        3
102
RTVSPost2010PropOp43
 70
     1
102
RTVSPost2010Prop44ColorIndex
 90
        5
102
RTVSPost2010Prop44ColorRGB
 90
      255
102
RTVSPost2010PropOp44
 70
     1
102
RTVSPost2010Prop45
280
     0
102
RTVSPost2010PropOp45
 70
     1
102
RTVSPost2010Prop46
 90
       50
102
RTVSPost2010PropOp46
 70
     1
102
RTVSPost2010Prop47
 90
       50
102
RTVSPost2010PropOp47
 70
     1
102
RTVSPost2010Prop48
 90
       50
102
RTVSPost2010PropOp48
 70
     1
102
RTVSPost2010Prop49
280
     0
102
RTVSPost2010PropOp49
 70
     1
102
RTVSPost2010Prop50
 90
       50
102
RTVSPost2010PropOp50
 70
     1
102
RTVSPost2010Prop51ColorIndex
 90
      256
102
RTVSPost2010Prop51ColorRGB
 90
-16777216
102
RTVSPost2010PropOp51
 70
     0
102
RTVSPost2010Prop52
140
1.0
102
RTVSPost2010PropOp52
 70
     0
102
RTVSPost2010Prop53
 90
        2
102
RTVSPost2010PropOp53
 70
     1
102
RTVSPost2010Prop54
  1
strokes_ogs.tif
102
RTVSPost2010PropOp54
 70
     1
102
RTVSPost2010Prop55
280
     0
102
RTVSPost2010PropOp55
 70
     1
102
RTVSPost2010Prop56
140
1.0
102
RTVSPost2010PropOp56
 70
     1
102
RTVSPost2010Prop57
140
1.0
102
RTVSPost2010PropOp57
 70
     1
102
RTVSPropertyOp0
 70
     1
102
RTVSPropertyOp1
 70
     1
102
RTVSPropertyOp2
 70
     1
102
RTVSPropertyOp3
 70
     1
102
RTVSPropertyOp4
 70
     1
102
RTVSPropertyOp5
 70
     1
102
RTVSPropertyOp6
 70
     1
102
RTVSPropertyOp7
 70
     1
102
RTVSPropertyOp8
 70
     1
102
RTVSPropertyOp9
 70
     1
102
RTVSPropertyOp10
 70
     1
102
RTVSPropertyOp11
 70
     1
102
RTVSPropertyOp12
 70
     1
102
RTVSPropertyOp13
 70
     1
102
RTVSPropertyOp14
 70
     1
102
RTVSPropertyOp15
 70
     1
102
RTVSPropertyOp16
 70
     1
102
RTVSPropertyOp17
 70
     1
102
RTVSPropertyOp18
 70
     1
102
RTVSPropertyOp19
 70
     1
102
RTVSPropertyOp20
 70
     1
102
RTVSPropertyOp21
 70
     1
102
RTVSPropertyOp22
 70
     1
102
RTVSPropertyOp23
 70
     1
102
RTVSPropertyOp24
 70
     1
102
RTVSPropertyOp25
 70
     1
102
RTVSPropertyOp26
 70
     1
102
RTVSPropertyOp27
 70
     1
102
RTVSPropertyOp28
 70
     1
102
RTVSPropertyOp29
 70
     1
102
RTVSPropertyOp30
 70
     1
102
RTVSPropertyOp31
 70
     1
102
RTVSPropertyOp32
 70
     1
102
RTVSPropertyOp33
 70
     1
102
RTVSPropertyOp34
 70
     1
102
RTVSPropertyOp35
 70
     1
102
RTVSPropertyOp36
 70
     1
102
RTVSPropertyOp37
 70
     1
102
RTVSPropertyOp38
 70
     1
102
RTVSPropertyOp39
 70
     1
102
RTVSPropertyOp40
 70
     1
102
RTVSPropertyOp41
 70
     1
102
RTVSPropertyOp42
 70
     1
102
RTVSPropertyOp43
 70
     1
102
RTVSPropertyOp44
 70
     1
102
RTVSPropertyOp45
 70
     1
102
RTVSPropertyOp46
 70
     1
102
RTVSPropertyOp47
 70
     1
102
RTVSPropertyOp48
 70
     1
102
RTVSPropertyOp49
 70
     1
102
RTVSPropertyOp50
 70
     1
102
RTVSPropertyOp51
 70
     0
102
RTVSPropertyOp52
 70
     0
102
RTVSPropertyOp53
 70
     1
102
RTVSPropertyOp54
 70
     1
102
RTVSPropertyOp55
 70
     1
102
RTVSPropertyOp56
 70
     1
102
RTVSPropertyOp57
 70
     1
102
RTVSPropertyOp58
 70
     1
102
RTVSPropertyOp59
 70
     1
102
RTVSPropertyOp60
 70
     1
102
RTVSPropertyOp61
 70
     1
102
RTVSPropertyOp62
 70
     1
  0
XRECORD
  5
154A6
102
{ACAD_REACTORS
330
154A5
102
}
330
154A5
100
AcDbXrecord
280
     1
102
RTVSPost2010Prop28
280
     0
102
RTVSPost2010PropOp28
 70
     1
102
RTVSPost2010Prop29
280
     1
102
RTVSPost2010PropOp29
 70
     1
102
RTVSPost2010Prop30
280
     1
102
RTVSPost2010PropOp30
 70
     1
102
RTVSPost2010Prop31
280
     0
102
RTVSPost2010PropOp31
 70
     1
102
RTVSPost2010Prop32
280
     0
102
RTVSPost2010PropOp32
 70
     1
102
RTVSPost2010Prop33
280
     0
102
RTVSPost2010PropOp33
 70
     1
102
RTVSPost2010Prop34
280
     0
102
RTVSPost2010PropOp34
 70
     1
102
RTVSPost2010Prop35
280
     0
102
RTVSPost2010PropOp35
 70
     1
102
RTVSPost2010Prop36
280
     0
102
RTVSPost2010PropOp36
 70
     1
102
RTVSPost2010Prop37
 90
       50
102
RTVSPost2010PropOp37
 70
     1
102
RTVSPost2010Prop38
140
0.0
102
RTVSPost2010PropOp38
 70
     1
102
RTVSPost2010Prop39
140
1.0
102
RTVSPost2010PropOp39
 70
     1
102
RTVSPost2010Prop40
 90
        0
102
RTVSPost2010PropOp40
 70
     1
102
RTVSPost2010Prop41ColorIndex
 90
       18
102
RTVSPost2010Prop41ColorRGB
 90
        0
102
RTVSPost2010PropOp41
 70
     1
102
RTVSPost2010Prop42
 90
       50
102
RTVSPost2010PropOp42
 70
     1
102
RTVSPost2010Prop43
 90
        3
102
RTVSPost2010PropOp43
 70
     1
102
RTVSPost2010Prop44ColorIndex
 90
        5
102
RTVSPost2010Prop44ColorRGB
 90
      255
102
RTVSPost2010PropOp44
 70
     1
102
RTVSPost2010Prop45
280
     0
102
RTVSPost2010PropOp45
 70
     1
102
RTVSPost2010Prop46
 90
       50
102
RTVSPost2010PropOp46
 70
     1
102
RTVSPost2010Prop47
 90
       50
102
RTVSPost2010PropOp47
 70
     1
102
RTVSPost2010Prop48
 90
       50
102
RTVSPost2010PropOp48
 70
     1
102
RTVSPost2010Prop49
280
     0
102
RTVSPost2010PropOp49
 70
     1
102
RTVSPost2010Prop50
 90
       50
102
RTVSPost2010PropOp50
 70
     1
102
RTVSPost2010Prop51ColorIndex
 90
      256
102
RTVSPost2010Prop51ColorRGB
 90
-16777216
102
RTVSPost2010PropOp51
 70
     0
102
RTVSPost2010Prop52
140
1.0
102
RTVSPost2010PropOp52
 70
     0
102
RTVSPost2010Prop53
 90
        2
102
RTVSPost2010PropOp53
 70
     1
102
RTVSPost2010Prop54
  1
strokes_ogs.tif
102
RTVSPost2010PropOp54
 70
     1
102
RTVSPost2010Prop55
280
     0
102
RTVSPost2010PropOp55
 70
     1
102
RTVSPost2010Prop56
140
1.0
102
RTVSPost2010PropOp56
 70
     1
102
RTVSPost2010Prop57
140
1.0
102
RTVSPost2010PropOp57
 70
     1
102
RTVSPropertyOp0
 70
     1
102
RTVSPropertyOp1
 70
     1
102
RTVSPropertyOp2
 70
     1
102
RTVSPropertyOp3
 70
     1
102
RTVSPropertyOp4
 70
     1
102
RTVSPropertyOp5
 70
     1
102
RTVSPropertyOp6
 70
     1
102
RTVSPropertyOp7
 70
     1
102
RTVSPropertyOp8
 70
     1
102
RTVSPropertyOp9
 70
     1
102
RTVSPropertyOp10
 70
     1
102
RTVSPropertyOp11
 70
     1
102
RTVSPropertyOp12
 70
     1
102
RTVSPropertyOp13
 70
     1
102
RTVSPropertyOp14
 70
     1
102
RTVSPropertyOp15
 70
     1
102
RTVSPropertyOp16
 70
     1
102
RTVSPropertyOp17
 70
     1
102
RTVSPropertyOp18
 70
     1
102
RTVSPropertyOp19
 70
     1
102
RTVSPropertyOp20
 70
     1
102
RTVSPropertyOp21
 70
     1
102
RTVSPropertyOp22
 70
     1
102
RTVSPropertyOp23
 70
     1
102
RTVSPropertyOp24
 70
     1
102
RTVSPropertyOp25
 70
     1
102
RTVSPropertyOp26
 70
     1
102
RTVSPropertyOp27
 70
     1
102
RTVSPropertyOp28
 70
     1
102
RTVSPropertyOp29
 70
     1
102
RTVSPropertyOp30
 70
     1
102
RTVSPropertyOp31
 70
     1
102
RTVSPropertyOp32
 70
     1
102
RTVSPropertyOp33
 70
     1
102
RTVSPropertyOp34
 70
     1
102
RTVSPropertyOp35
 70
     1
102
RTVSPropertyOp36
 70
     1
102
RTVSPropertyOp37
 70
     1
102
RTVSPropertyOp38
 70
     1
102
RTVSPropertyOp39
 70
     1
102
RTVSPropertyOp40
 70
     1
102
RTVSPropertyOp41
 70
     1
102
RTVSPropertyOp42
 70
     1
102
RTVSPropertyOp43
 70
     1
102
RTVSPropertyOp44
 70
     1
102
RTVSPropertyOp45
 70
     1
102
RTVSPropertyOp46
 70
     1
102
RTVSPropertyOp47
 70
     1
102
RTVSPropertyOp48
 70
     1
102
RTVSPropertyOp49
 70
     1
102
RTVSPropertyOp50
 70
     1
102
RTVSPropertyOp51
 70
     0
102
RTVSPropertyOp52
 70
     0
102
RTVSPropertyOp53
 70
     1
102
RTVSPropertyOp54
 70
     1
102
RTVSPropertyOp55
 70
     1
102
RTVSPropertyOp56
 70
     1
102
RTVSPropertyOp57
 70
     1
102
RTVSPropertyOp58
 70
     1
102
RTVSPropertyOp59
 70
     1
102
RTVSPropertyOp60
 70
     1
102
RTVSPropertyOp61
 70
     1
102
RTVSPropertyOp62
 70
     1
  0
XRECORD
  5
154A0
102
{ACAD_REACTORS
330
1549F
102
}
330
1549F
100
AcDbXrecord
280
     1
102
RTVSPost2010Prop28
280
     0
102
RTVSPost2010PropOp28
 70
     1
102
RTVSPost2010Prop29
280
     1
102
RTVSPost2010PropOp29
 70
     1
102
RTVSPost2010Prop30
280
     1
102
RTVSPost2010PropOp30
 70
     1
102
RTVSPost2010Prop31
280
     0
102
RTVSPost2010PropOp31
 70
     1
102
RTVSPost2010Prop32
280
     0
102
RTVSPost2010PropOp32
 70
     1
102
RTVSPost2010Prop33
280
     0
102
RTVSPost2010PropOp33
 70
     1
102
RTVSPost2010Prop34
280
     0
102
RTVSPost2010PropOp34
 70
     1
102
RTVSPost2010Prop35
280
     0
102
RTVSPost2010PropOp35
 70
     1
102
RTVSPost2010Prop36
280
     0
102
RTVSPost2010PropOp36
 70
     1
102
RTVSPost2010Prop37
 90
       50
102
RTVSPost2010PropOp37
 70
     1
102
RTVSPost2010Prop38
140
0.0
102
RTVSPost2010PropOp38
 70
     1
102
RTVSPost2010Prop39
140
1.0
102
RTVSPost2010PropOp39
 70
     1
102
RTVSPost2010Prop40
 90
        0
102
RTVSPost2010PropOp40
 70
     1
102
RTVSPost2010Prop41ColorIndex
 90
       18
102
RTVSPost2010Prop41ColorRGB
 90
        0
102
RTVSPost2010PropOp41
 70
     1
102
RTVSPost2010Prop42
 90
       50
102
RTVSPost2010PropOp42
 70
     1
102
RTVSPost2010Prop43
 90
        3
102
RTVSPost2010PropOp43
 70
     1
102
RTVSPost2010Prop44ColorIndex
 90
        5
102
RTVSPost2010Prop44ColorRGB
 90
      255
102
RTVSPost2010PropOp44
 70
     1
102
RTVSPost2010Prop45
280
     0
102
RTVSPost2010PropOp45
 70
     1
102
RTVSPost2010Prop46
 90
       50
102
RTVSPost2010PropOp46
 70
     1
102
RTVSPost2010Prop47
 90
       50
102
RTVSPost2010PropOp47
 70
     1
102
RTVSPost2010Prop48
 90
       50
102
RTVSPost2010PropOp48
 70
     1
102
RTVSPost2010Prop49
280
     0
102
RTVSPost2010PropOp49
 70
     1
102
RTVSPost2010Prop50
 90
       50
102
RTVSPost2010PropOp50
 70
     1
102
RTVSPost2010Prop51ColorIndex
 90
      256
102
RTVSPost2010Prop51ColorRGB
 90
-16777216
102
RTVSPost2010PropOp51
 70
     0
102
RTVSPost2010Prop52
140
1.0
102
RTVSPost2010PropOp52
 70
     0
102
RTVSPost2010Prop53
 90
        2
102
RTVSPost2010PropOp53
 70
     1
102
RTVSPost2010Prop54
  1
strokes_ogs.tif
102
RTVSPost2010PropOp54
 70
     1
102
RTVSPost2010Prop55
280
     0
102
RTVSPost2010PropOp55
 70
     1
102
RTVSPost2010Prop56
140
1.0
102
RTVSPost2010PropOp56
 70
     1
102
RTVSPost2010Prop57
140
1.0
102
RTVSPost2010PropOp57
 70
     1
102
RTVSPropertyOp0
 70
     1
102
RTVSPropertyOp1
 70
     1
102
RTVSPropertyOp2
 70
     1
102
RTVSPropertyOp3
 70
     1
102
RTVSPropertyOp4
 70
     1
102
RTVSPropertyOp5
 70
     1
102
RTVSPropertyOp6
 70
     1
102
RTVSPropertyOp7
 70
     1
102
RTVSPropertyOp8
 70
     1
102
RTVSPropertyOp9
 70
     1
102
RTVSPropertyOp10
 70
     1
102
RTVSPropertyOp11
 70
     1
102
RTVSPropertyOp12
 70
     1
102
RTVSPropertyOp13
 70
     1
102
RTVSPropertyOp14
 70
     1
102
RTVSPropertyOp15
 70
     1
102
RTVSPropertyOp16
 70
     1
102
RTVSPropertyOp17
 70
     1
102
RTVSPropertyOp18
 70
     1
102
RTVSPropertyOp19
 70
     1
102
RTVSPropertyOp20
 70
     1
102
RTVSPropertyOp21
 70
     1
102
RTVSPropertyOp22
 70
     1
102
RTVSPropertyOp23
 70
     1
102
RTVSPropertyOp24
 70
     1
102
RTVSPropertyOp25
 70
     1
102
RTVSPropertyOp26
 70
     1
102
RTVSPropertyOp27
 70
     1
102
RTVSPropertyOp28
 70
     1
102
RTVSPropertyOp29
 70
     1
102
RTVSPropertyOp30
 70
     1
102
RTVSPropertyOp31
 70
     1
102
RTVSPropertyOp32
 70
     1
102
RTVSPropertyOp33
 70
     1
102
RTVSPropertyOp34
 70
     1
102
RTVSPropertyOp35
 70
     1
102
RTVSPropertyOp36
 70
     1
102
RTVSPropertyOp37
 70
     1
102
RTVSPropertyOp38
 70
     1
102
RTVSPropertyOp39
 70
     1
102
RTVSPropertyOp40
 70
     1
102
RTVSPropertyOp41
 70
     1
102
RTVSPropertyOp42
 70
     1
102
RTVSPropertyOp43
 70
     1
102
RTVSPropertyOp44
 70
     1
102
RTVSPropertyOp45
 70
     1
102
RTVSPropertyOp46
 70
     1
102
RTVSPropertyOp47
 70
     1
102
RTVSPropertyOp48
 70
     1
102
RTVSPropertyOp49
 70
     1
102
RTVSPropertyOp50
 70
     1
102
RTVSPropertyOp51
 70
     0
102
RTVSPropertyOp52
 70
     0
102
RTVSPropertyOp53
 70
     1
102
RTVSPropertyOp54
 70
     1
102
RTVSPropertyOp55
 70
     1
102
RTVSPropertyOp56
 70
     1
102
RTVSPropertyOp57
 70
     1
102
RTVSPropertyOp58
 70
     1
102
RTVSPropertyOp59
 70
     1
102
RTVSPropertyOp60
 70
     1
102
RTVSPropertyOp61
 70
     1
102
RTVSPropertyOp62
 70
     1
  0
XRECORD
  5
154A2
102
{ACAD_REACTORS
330
154A1
102
}
330
154A1
100
AcDbXrecord
280
     1
102
RTVSPost2010Prop28
280
     0
102
RTVSPost2010PropOp28
 70
     1
102
RTVSPost2010Prop29
280
     1
102
RTVSPost2010PropOp29
 70
     1
102
RTVSPost2010Prop30
280
     1
102
RTVSPost2010PropOp30
 70
     1
102
RTVSPost2010Prop31
280
     0
102
RTVSPost2010PropOp31
 70
     1
102
RTVSPost2010Prop32
280
     0
102
RTVSPost2010PropOp32
 70
     1
102
RTVSPost2010Prop33
280
     0
102
RTVSPost2010PropOp33
 70
     1
102
RTVSPost2010Prop34
280
     0
102
RTVSPost2010PropOp34
 70
     1
102
RTVSPost2010Prop35
280
     0
102
RTVSPost2010PropOp35
 70
     1
102
RTVSPost2010Prop36
280
     0
102
RTVSPost2010PropOp36
 70
     1
102
RTVSPost2010Prop37
 90
       50
102
RTVSPost2010PropOp37
 70
     1
102
RTVSPost2010Prop38
140
0.0
102
RTVSPost2010PropOp38
 70
     1
102
RTVSPost2010Prop39
140
1.0
102
RTVSPost2010PropOp39
 70
     1
102
RTVSPost2010Prop40
 90
        0
102
RTVSPost2010PropOp40
 70
     1
102
RTVSPost2010Prop41ColorIndex
 90
       18
102
RTVSPost2010Prop41ColorRGB
 90
        0
102
RTVSPost2010PropOp41
 70
     1
102
RTVSPost2010Prop42
 90
       50
102
RTVSPost2010PropOp42
 70
     1
102
RTVSPost2010Prop43
 90
        3
102
RTVSPost2010PropOp43
 70
     1
102
RTVSPost2010Prop44ColorIndex
 90
        5
102
RTVSPost2010Prop44ColorRGB
 90
      255
102
RTVSPost2010PropOp44
 70
     1
102
RTVSPost2010Prop45
280
     0
102
RTVSPost2010PropOp45
 70
     1
102
RTVSPost2010Prop46
 90
       50
102
RTVSPost2010PropOp46
 70
     1
102
RTVSPost2010Prop47
 90
       50
102
RTVSPost2010PropOp47
 70
     1
102
RTVSPost2010Prop48
 90
       50
102
RTVSPost2010PropOp48
 70
     1
102
RTVSPost2010Prop49
280
     0
102
RTVSPost2010PropOp49
 70
     1
102
RTVSPost2010Prop50
 90
       50
102
RTVSPost2010PropOp50
 70
     1
102
RTVSPost2010Prop51ColorIndex
 90
      256
102
RTVSPost2010Prop51ColorRGB
 90
-16777216
102
RTVSPost2010PropOp51
 70
     0
102
RTVSPost2010Prop52
140
1.0
102
RTVSPost2010PropOp52
 70
     0
102
RTVSPost2010Prop53
 90
        2
102
RTVSPost2010PropOp53
 70
     1
102
RTVSPost2010Prop54
  1
strokes_ogs.tif
102
RTVSPost2010PropOp54
 70
     1
102
RTVSPost2010Prop55
280
     0
102
RTVSPost2010PropOp55
 70
     1
102
RTVSPost2010Prop56
140
1.0
102
RTVSPost2010PropOp56
 70
     1
102
RTVSPost2010Prop57
140
1.0
102
RTVSPost2010PropOp57
 70
     1
102
RTVSPropertyOp0
 70
     1
102
RTVSPropertyOp1
 70
     1
102
RTVSPropertyOp2
 70
     1
102
RTVSPropertyOp3
 70
     1
102
RTVSPropertyOp4
 70
     1
102
RTVSPropertyOp5
 70
     1
102
RTVSPropertyOp6
 70
     1
102
RTVSPropertyOp7
 70
     1
102
RTVSPropertyOp8
 70
     1
102
RTVSPropertyOp9
 70
     1
102
RTVSPropertyOp10
 70
     1
102
RTVSPropertyOp11
 70
     1
102
RTVSPropertyOp12
 70
     1
102
RTVSPropertyOp13
 70
     1
102
RTVSPropertyOp14
 70
     1
102
RTVSPropertyOp15
 70
     1
102
RTVSPropertyOp16
 70
     1
102
RTVSPropertyOp17
 70
     1
102
RTVSPropertyOp18
 70
     1
102
RTVSPropertyOp19
 70
     1
102
RTVSPropertyOp20
 70
     1
102
RTVSPropertyOp21
 70
     1
102
RTVSPropertyOp22
 70
     1
102
RTVSPropertyOp23
 70
     1
102
RTVSPropertyOp24
 70
     1
102
RTVSPropertyOp25
 70
     1
102
RTVSPropertyOp26
 70
     1
102
RTVSPropertyOp27
 70
     1
102
RTVSPropertyOp28
 70
     1
102
RTVSPropertyOp29
 70
     1
102
RTVSPropertyOp30
 70
     1
102
RTVSPropertyOp31
 70
     1
102
RTVSPropertyOp32
 70
     1
102
RTVSPropertyOp33
 70
     1
102
RTVSPropertyOp34
 70
     1
102
RTVSPropertyOp35
 70
     1
102
RTVSPropertyOp36
 70
     1
102
RTVSPropertyOp37
 70
     1
102
RTVSPropertyOp38
 70
     1
102
RTVSPropertyOp39
 70
     1
102
RTVSPropertyOp40
 70
     1
102
RTVSPropertyOp41
 70
     1
102
RTVSPropertyOp42
 70
     1
102
RTVSPropertyOp43
 70
     1
102
RTVSPropertyOp44
 70
     1
102
RTVSPropertyOp45
 70
     1
102
RTVSPropertyOp46
 70
     1
102
RTVSPropertyOp47
 70
     1
102
RTVSPropertyOp48
 70
     1
102
RTVSPropertyOp49
 70
     1
102
RTVSPropertyOp50
 70
     1
102
RTVSPropertyOp51
 70
     0
102
RTVSPropertyOp52
 70
     0
102
RTVSPropertyOp53
 70
     1
102
RTVSPropertyOp54
 70
     1
102
RTVSPropertyOp55
 70
     1
102
RTVSPropertyOp56
 70
     1
102
RTVSPropertyOp57
 70
     1
102
RTVSPropertyOp58
 70
     1
102
RTVSPropertyOp59
 70
     1
102
RTVSPropertyOp60
 70
     1
102
RTVSPropertyOp61
 70
     1
102
RTVSPropertyOp62
 70
     1
  0
XRECORD
  5
15498
102
{ACAD_REACTORS
330
15497
102
}
330
15497
100
AcDbXrecord
280
     1
102
RTVSPost2010Prop28
280
     0
102
RTVSPost2010PropOp28
 70
     1
102
RTVSPost2010Prop29
280
     1
102
RTVSPost2010PropOp29
 70
     1
102
RTVSPost2010Prop30
280
     1
102
RTVSPost2010PropOp30
 70
     1
102
RTVSPost2010Prop31
280
     0
102
RTVSPost2010PropOp31
 70
     1
102
RTVSPost2010Prop32
280
     0
102
RTVSPost2010PropOp32
 70
     1
102
RTVSPost2010Prop33
280
     0
102
RTVSPost2010PropOp33
 70
     1
102
RTVSPost2010Prop34
280
     0
102
RTVSPost2010PropOp34
 70
     1
102
RTVSPost2010Prop35
280
     0
102
RTVSPost2010PropOp35
 70
     1
102
RTVSPost2010Prop36
280
     0
102
RTVSPost2010PropOp36
 70
     1
102
RTVSPost2010Prop37
 90
       50
102
RTVSPost2010PropOp37
 70
     1
102
RTVSPost2010Prop38
140
0.0
102
RTVSPost2010PropOp38
 70
     1
102
RTVSPost2010Prop39
140
1.0
102
RTVSPost2010PropOp39
 70
     1
102
RTVSPost2010Prop40
 90
        0
102
RTVSPost2010PropOp40
 70
     1
102
RTVSPost2010Prop41ColorIndex
 90
       18
102
RTVSPost2010Prop41ColorRGB
 90
        0
102
RTVSPost2010PropOp41
 70
     1
102
RTVSPost2010Prop42
 90
       50
102
RTVSPost2010PropOp42
 70
     1
102
RTVSPost2010Prop43
 90
        3
102
RTVSPost2010PropOp43
 70
     1
102
RTVSPost2010Prop44ColorIndex
 90
        5
102
RTVSPost2010Prop44ColorRGB
 90
      255
102
RTVSPost2010PropOp44
 70
     1
102
RTVSPost2010Prop45
280
     0
102
RTVSPost2010PropOp45
 70
     1
102
RTVSPost2010Prop46
 90
       50
102
RTVSPost2010PropOp46
 70
     1
102
RTVSPost2010Prop47
 90
       50
102
RTVSPost2010PropOp47
 70
     1
102
RTVSPost2010Prop48
 90
       50
102
RTVSPost2010PropOp48
 70
     1
102
RTVSPost2010Prop49
280
     0
102
RTVSPost2010PropOp49
 70
     1
102
RTVSPost2010Prop50
 90
       50
102
RTVSPost2010PropOp50
 70
     1
102
RTVSPost2010Prop51ColorIndex
 90
      256
102
RTVSPost2010Prop51ColorRGB
 90
-16777216
102
RTVSPost2010PropOp51
 70
     0
102
RTVSPost2010Prop52
140
1.0
102
RTVSPost2010PropOp52
 70
     0
102
RTVSPost2010Prop53
 90
        2
102
RTVSPost2010PropOp53
 70
     1
102
RTVSPost2010Prop54
  1
strokes_ogs.tif
102
RTVSPost2010PropOp54
 70
     1
102
RTVSPost2010Prop55
280
     0
102
RTVSPost2010PropOp55
 70
     1
102
RTVSPost2010Prop56
140
1.0
102
RTVSPost2010PropOp56
 70
     1
102
RTVSPost2010Prop57
140
1.0
102
RTVSPost2010PropOp57
 70
     1
102
RTVSPropertyOp0
 70
     1
102
RTVSPropertyOp1
 70
     1
102
RTVSPropertyOp2
 70
     1
102
RTVSPropertyOp3
 70
     1
102
RTVSPropertyOp4
 70
     1
102
RTVSPropertyOp5
 70
     1
102
RTVSPropertyOp6
 70
     1
102
RTVSPropertyOp7
 70
     1
102
RTVSPropertyOp8
 70
     1
102
RTVSPropertyOp9
 70
     1
102
RTVSPropertyOp10
 70
     1
102
RTVSPropertyOp11
 70
     1
102
RTVSPropertyOp12
 70
     1
102
RTVSPropertyOp13
 70
     1
102
RTVSPropertyOp14
 70
     1
102
RTVSPropertyOp15
 70
     1
102
RTVSPropertyOp16
 70
     1
102
RTVSPropertyOp17
 70
     1
102
RTVSPropertyOp18
 70
     1
102
RTVSPropertyOp19
 70
     1
102
RTVSPropertyOp20
 70
     1
102
RTVSPropertyOp21
 70
     1
102
RTVSPropertyOp22
 70
     1
102
RTVSPropertyOp23
 70
     1
102
RTVSPropertyOp24
 70
     1
102
RTVSPropertyOp25
 70
     1
102
RTVSPropertyOp26
 70
     1
102
RTVSPropertyOp27
 70
     1
102
RTVSPropertyOp28
 70
     1
102
RTVSPropertyOp29
 70
     1
102
RTVSPropertyOp30
 70
     1
102
RTVSPropertyOp31
 70
     1
102
RTVSPropertyOp32
 70
     1
102
RTVSPropertyOp33
 70
     1
102
RTVSPropertyOp34
 70
     1
102
RTVSPropertyOp35
 70
     1
102
RTVSPropertyOp36
 70
     1
102
RTVSPropertyOp37
 70
     1
102
RTVSPropertyOp38
 70
     1
102
RTVSPropertyOp39
 70
     1
102
RTVSPropertyOp40
 70
     1
102
RTVSPropertyOp41
 70
     1
102
RTVSPropertyOp42
 70
     1
102
RTVSPropertyOp43
 70
     1
102
RTVSPropertyOp44
 70
     1
102
RTVSPropertyOp45
 70
     1
102
RTVSPropertyOp46
 70
     1
102
RTVSPropertyOp47
 70
     1
102
RTVSPropertyOp48
 70
     1
102
RTVSPropertyOp49
 70
     1
102
RTVSPropertyOp50
 70
     1
102
RTVSPropertyOp51
 70
     0
102
RTVSPropertyOp52
 70
     0
102
RTVSPropertyOp53
 70
     1
102
RTVSPropertyOp54
 70
     1
102
RTVSPropertyOp55
 70
     1
102
RTVSPropertyOp56
 70
     1
102
RTVSPropertyOp57
 70
     1
102
RTVSPropertyOp58
 70
     1
102
RTVSPropertyOp59
 70
     1
102
RTVSPropertyOp60
 70
     1
102
RTVSPropertyOp61
 70
     1
102
RTVSPropertyOp62
 70
     1
  0
XRECORD
  5
1548C
102
{ACAD_REACTORS
330
1548B
102
}
330
1548B
100
AcDbXrecord
280
     1
102
RTVSPost2010Prop28
280
     0
102
RTVSPost2010PropOp28
 70
     1
102
RTVSPost2010Prop29
280
     1
102
RTVSPost2010PropOp29
 70
     1
102
RTVSPost2010Prop30
280
     1
102
RTVSPost2010PropOp30
 70
     1
102
RTVSPost2010Prop31
280
     0
102
RTVSPost2010PropOp31
 70
     1
102
RTVSPost2010Prop32
280
     0
102
RTVSPost2010PropOp32
 70
     1
102
RTVSPost2010Prop33
280
     0
102
RTVSPost2010PropOp33
 70
     1
102
RTVSPost2010Prop34
280
     0
102
RTVSPost2010PropOp34
 70
     1
102
RTVSPost2010Prop35
280
     0
102
RTVSPost2010PropOp35
 70
     1
102
RTVSPost2010Prop36
280
     0
102
RTVSPost2010PropOp36
 70
     1
102
RTVSPost2010Prop37
 90
       50
102
RTVSPost2010PropOp37
 70
     1
102
RTVSPost2010Prop38
140
0.0
102
RTVSPost2010PropOp38
 70
     1
102
RTVSPost2010Prop39
140
1.0
102
RTVSPost2010PropOp39
 70
     1
102
RTVSPost2010Prop40
 90
        0
102
RTVSPost2010PropOp40
 70
     1
102
RTVSPost2010Prop41ColorIndex
 90
       18
102
RTVSPost2010Prop41ColorRGB
 90
        0
102
RTVSPost2010PropOp41
 70
     1
102
RTVSPost2010Prop42
 90
       50
102
RTVSPost2010PropOp42
 70
     1
102
RTVSPost2010Prop43
 90
        3
102
RTVSPost2010PropOp43
 70
     1
102
RTVSPost2010Prop44ColorIndex
 90
        5
102
RTVSPost2010Prop44ColorRGB
 90
      255
102
RTVSPost2010PropOp44
 70
     1
102
RTVSPost2010Prop45
280
     0
102
RTVSPost2010PropOp45
 70
     1
102
RTVSPost2010Prop46
 90
       50
102
RTVSPost2010PropOp46
 70
     1
102
RTVSPost2010Prop47
 90
       50
102
RTVSPost2010PropOp47
 70
     1
102
RTVSPost2010Prop48
 90
       50
102
RTVSPost2010PropOp48
 70
     1
102
RTVSPost2010Prop49
280
     0
102
RTVSPost2010PropOp49
 70
     1
102
RTVSPost2010Prop50
 90
       50
102
RTVSPost2010PropOp50
 70
     1
102
RTVSPost2010Prop51ColorIndex
 90
      256
102
RTVSPost2010Prop51ColorRGB
 90
-16777216
102
RTVSPost2010PropOp51
 70
     0
102
RTVSPost2010Prop52
140
1.0
102
RTVSPost2010PropOp52
 70
     0
102
RTVSPost2010Prop53
 90
        2
102
RTVSPost2010PropOp53
 70
     1
102
RTVSPost2010Prop54
  1
strokes_ogs.tif
102
RTVSPost2010PropOp54
 70
     1
102
RTVSPost2010Prop55
280
     0
102
RTVSPost2010PropOp55
 70
     1
102
RTVSPost2010Prop56
140
1.0
102
RTVSPost2010PropOp56
 70
     1
102
RTVSPost2010Prop57
140
1.0
102
RTVSPost2010PropOp57
 70
     1
102
RTVSPropertyOp0
 70
     1
102
RTVSPropertyOp1
 70
     1
102
RTVSPropertyOp2
 70
     1
102
RTVSPropertyOp3
 70
     1
102
RTVSPropertyOp4
 70
     1
102
RTVSPropertyOp5
 70
     1
102
RTVSPropertyOp6
 70
     1
102
RTVSPropertyOp7
 70
     1
102
RTVSPropertyOp8
 70
     1
102
RTVSPropertyOp9
 70
     1
102
RTVSPropertyOp10
 70
     1
102
RTVSPropertyOp11
 70
     1
102
RTVSPropertyOp12
 70
     1
102
RTVSPropertyOp13
 70
     1
102
RTVSPropertyOp14
 70
     1
102
RTVSPropertyOp15
 70
     1
102
RTVSPropertyOp16
 70
     1
102
RTVSPropertyOp17
 70
     1
102
RTVSPropertyOp18
 70
     1
102
RTVSPropertyOp19
 70
     1
102
RTVSPropertyOp20
 70
     1
102
RTVSPropertyOp21
 70
     1
102
RTVSPropertyOp22
 70
     1
102
RTVSPropertyOp23
 70
     1
102
RTVSPropertyOp24
 70
     1
102
RTVSPropertyOp25
 70
     1
102
RTVSPropertyOp26
 70
     1
102
RTVSPropertyOp27
 70
     1
102
RTVSPropertyOp28
 70
     1
102
RTVSPropertyOp29
 70
     1
102
RTVSPropertyOp30
 70
     1
102
RTVSPropertyOp31
 70
     1
102
RTVSPropertyOp32
 70
     1
102
RTVSPropertyOp33
 70
     1
102
RTVSPropertyOp34
 70
     1
102
RTVSPropertyOp35
 70
     1
102
RTVSPropertyOp36
 70
     1
102
RTVSPropertyOp37
 70
     1
102
RTVSPropertyOp38
 70
     1
102
RTVSPropertyOp39
 70
     1
102
RTVSPropertyOp40
 70
     1
102
RTVSPropertyOp41
 70
     1
102
RTVSPropertyOp42
 70
     1
102
RTVSPropertyOp43
 70
     1
102
RTVSPropertyOp44
 70
     1
102
RTVSPropertyOp45
 70
     1
102
RTVSPropertyOp46
 70
     1
102
RTVSPropertyOp47
 70
     1
102
RTVSPropertyOp48
 70
     1
102
RTVSPropertyOp49
 70
     1
102
RTVSPropertyOp50
 70
     1
102
RTVSPropertyOp51
 70
     0
102
RTVSPropertyOp52
 70
     0
102
RTVSPropertyOp53
 70
     1
102
RTVSPropertyOp54
 70
     1
102
RTVSPropertyOp55
 70
     1
102
RTVSPropertyOp56
 70
     1
102
RTVSPropertyOp57
 70
     1
102
RTVSPropertyOp58
 70
     1
102
RTVSPropertyOp59
 70
     1
102
RTVSPropertyOp60
 70
     1
102
RTVSPropertyOp61
 70
     1
102
RTVSPropertyOp62
 70
     1
  0
XRECORD
  5
154A4
102
{ACAD_REACTORS
330
154A3
102
}
330
154A3
100
AcDbXrecord
280
     1
102
RTVSPost2010Prop28
280
     0
102
RTVSPost2010PropOp28
 70
     1
102
RTVSPost2010Prop29
280
     1
102
RTVSPost2010PropOp29
 70
     1
102
RTVSPost2010Prop30
280
     1
102
RTVSPost2010PropOp30
 70
     1
102
RTVSPost2010Prop31
280
     0
102
RTVSPost2010PropOp31
 70
     1
102
RTVSPost2010Prop32
280
     0
102
RTVSPost2010PropOp32
 70
     1
102
RTVSPost2010Prop33
280
     0
102
RTVSPost2010PropOp33
 70
     1
102
RTVSPost2010Prop34
280
     0
102
RTVSPost2010PropOp34
 70
     1
102
RTVSPost2010Prop35
280
     0
102
RTVSPost2010PropOp35
 70
     1
102
RTVSPost2010Prop36
280
     0
102
RTVSPost2010PropOp36
 70
     1
102
RTVSPost2010Prop37
 90
       50
102
RTVSPost2010PropOp37
 70
     1
102
RTVSPost2010Prop38
140
0.0
102
RTVSPost2010PropOp38
 70
     1
102
RTVSPost2010Prop39
140
1.0
102
RTVSPost2010PropOp39
 70
     1
102
RTVSPost2010Prop40
 90
        0
102
RTVSPost2010PropOp40
 70
     1
102
RTVSPost2010Prop41ColorIndex
 90
       18
102
RTVSPost2010Prop41ColorRGB
 90
        0
102
RTVSPost2010PropOp41
 70
     1
102
RTVSPost2010Prop42
 90
       50
102
RTVSPost2010PropOp42
 70
     1
102
RTVSPost2010Prop43
 90
        3
102
RTVSPost2010PropOp43
 70
     1
102
RTVSPost2010Prop44ColorIndex
 90
        5
102
RTVSPost2010Prop44ColorRGB
 90
      255
102
RTVSPost2010PropOp44
 70
     1
102
RTVSPost2010Prop45
280
     0
102
RTVSPost2010PropOp45
 70
     1
102
RTVSPost2010Prop46
 90
       50
102
RTVSPost2010PropOp46
 70
     1
102
RTVSPost2010Prop47
 90
       50
102
RTVSPost2010PropOp47
 70
     1
102
RTVSPost2010Prop48
 90
       50
102
RTVSPost2010PropOp48
 70
     1
102
RTVSPost2010Prop49
280
     0
102
RTVSPost2010PropOp49
 70
     1
102
RTVSPost2010Prop50
 90
       50
102
RTVSPost2010PropOp50
 70
     1
102
RTVSPost2010Prop51ColorIndex
 90
      256
102
RTVSPost2010Prop51ColorRGB
 90
-16777216
102
RTVSPost2010PropOp51
 70
     0
102
RTVSPost2010Prop52
140
1.0
102
RTVSPost2010PropOp52
 70
     0
102
RTVSPost2010Prop53
 90
        2
102
RTVSPost2010PropOp53
 70
     1
102
RTVSPost2010Prop54
  1
strokes_ogs.tif
102
RTVSPost2010PropOp54
 70
     1
102
RTVSPost2010Prop55
280
     0
102
RTVSPost2010PropOp55
 70
     1
102
RTVSPost2010Prop56
140
1.0
102
RTVSPost2010PropOp56
 70
     1
102
RTVSPost2010Prop57
140
1.0
102
RTVSPost2010PropOp57
 70
     1
102
RTVSPropertyOp0
 70
     1
102
RTVSPropertyOp1
 70
     1
102
RTVSPropertyOp2
 70
     1
102
RTVSPropertyOp3
 70
     1
102
RTVSPropertyOp4
 70
     1
102
RTVSPropertyOp5
 70
     1
102
RTVSPropertyOp6
 70
     1
102
RTVSPropertyOp7
 70
     1
102
RTVSPropertyOp8
 70
     1
102
RTVSPropertyOp9
 70
     1
102
RTVSPropertyOp10
 70
     1
102
RTVSPropertyOp11
 70
     1
102
RTVSPropertyOp12
 70
     1
102
RTVSPropertyOp13
 70
     1
102
RTVSPropertyOp14
 70
     1
102
RTVSPropertyOp15
 70
     1
102
RTVSPropertyOp16
 70
     1
102
RTVSPropertyOp17
 70
     1
102
RTVSPropertyOp18
 70
     1
102
RTVSPropertyOp19
 70
     1
102
RTVSPropertyOp20
 70
     1
102
RTVSPropertyOp21
 70
     1
102
RTVSPropertyOp22
 70
     1
102
RTVSPropertyOp23
 70
     1
102
RTVSPropertyOp24
 70
     1
102
RTVSPropertyOp25
 70
     1
102
RTVSPropertyOp26
 70
     1
102
RTVSPropertyOp27
 70
     1
102
RTVSPropertyOp28
 70
     1
102
RTVSPropertyOp29
 70
     1
102
RTVSPropertyOp30
 70
     1
102
RTVSPropertyOp31
 70
     1
102
RTVSPropertyOp32
 70
     1
102
RTVSPropertyOp33
 70
     1
102
RTVSPropertyOp34
 70
     1
102
RTVSPropertyOp35
 70
     1
102
RTVSPropertyOp36
 70
     1
102
RTVSPropertyOp37
 70
     1
102
RTVSPropertyOp38
 70
     1
102
RTVSPropertyOp39
 70
     1
102
RTVSPropertyOp40
 70
     1
102
RTVSPropertyOp41
 70
     1
102
RTVSPropertyOp42
 70
     1
102
RTVSPropertyOp43
 70
     1
102
RTVSPropertyOp44
 70
     1
102
RTVSPropertyOp45
 70
     1
102
RTVSPropertyOp46
 70
     1
102
RTVSPropertyOp47
 70
     1
102
RTVSPropertyOp48
 70
     1
102
RTVSPropertyOp49
 70
     1
102
RTVSPropertyOp50
 70
     1
102
RTVSPropertyOp51
 70
     0
102
RTVSPropertyOp52
 70
     0
102
RTVSPropertyOp53
 70
     1
102
RTVSPropertyOp54
 70
     1
102
RTVSPropertyOp55
 70
     1
102
RTVSPropertyOp56
 70
     1
102
RTVSPropertyOp57
 70
     1
102
RTVSPropertyOp58
 70
     1
102
RTVSPropertyOp59
 70
     1
102
RTVSPropertyOp60
 70
     1
102
RTVSPropertyOp61
 70
     1
102
RTVSPropertyOp62
 70
     1
  0
ENDSEC
  0
EOF
