  0
SECTION
  2
HEADER
  9
$ACADVER
  1
AC1015
  9
$ACADMAINTVER
 70
    20
  9
$DWGCODEPAGE
  3
ANSI_932
  9
$INSBASE
 10
0.0
 20
0.0
 30
0.0
  9
$EXTMIN
 10
104.3976124660112
 20
-0.6794886015886732
 30
-0.0000000000000053
  9
$EXTMAX
 10
12232.2052291038
 20
8557.423578426435
 30
0.0000000000000099
  9
$LIMMIN
 10
0.0
 20
0.0
  9
$LIMMAX
 10
12600.0
 20
8910.0
  9
$ORTHOMODE
 70
     0
  9
$REGENMODE
 70
     1
  9
$FILLMODE
 70
     1
  9
$QTEXTMODE
 70
     0
  9
$MIRRTEXT
 70
     1
  9
$LTSCALE
 40
3.0
  9
$ATTMODE
 70
     1
  9
$TEXTSIZE
 40
100.0
  9
$TRACEWID
 40
1.0
  9
$TEXTSTYLE
  7
STYLE3
  9
$CLAYER
  8
部品1
  9
$CELTYPE
  6
BYLAYER
  9
$CECOLOR
 62
   256
  9
$CELTSCALE
 40
50.0
  9
$DISPSILH
 70
     0
  9
$DIMSCALE
 40
30.0
  9
$DIMASZ
 40
2.5
  9
$DIMEXO
 40
0.5
  9
$DIMDLI
 40
7.0
  9
$DIMRND
 40
0.0
  9
$DIMDLE
 40
0.0
  9
$DIMEXE
 40
1.5
  9
$DIMTP
 40
0.0
  9
$DIMTM
 40
0.0
  9
$DIMTXT
 40
3.0
  9
$DIMCEN
 40
0.0
  9
$DIMTSZ
 40
0.0
  9
$DIMTOL
 70
     0
  9
$DIMLIM
 70
     0
  9
$DIMTIH
 70
     0
  9
$DIMTOH
 70
     0
  9
$DIMSE1
 70
     0
  9
$DIMSE2
 70
     0
  9
$DIMTAD
 70
     3
  9
$DIMZIN
 70
     8
  9
$DIMBLK
  1

  9
$DIMASO
 70
     1
  9
$DIMSHO
 70
     1
  9
$DIMPOST
  1

  9
$DIMAPOST
  1

  9
$DIMALT
 70
     0
  9
$DIMALTD
 70
     2
  9
$DIMALTF
 40
0.0394
  9
$DIMLFAC
 40
1.0
  9
$DIMTOFL
 70
     1
  9
$DIMTVP
 40
0.0
  9
$DIMTIX
 70
     1
  9
$DIMSOXD
 70
     1
  9
$DIMSAH
 70
     1
  9
$DIMBLK1
  1
DOTSMALL
  9
$DIMBLK2
  1
DOTSMALL
  9
$DIMSTYLE
  2
INABA_S30G
  9
$DIMCLRD
 70
     0
  9
$DIMCLRE
 70
     0
  9
$DIMCLRT
 70
     7
  9
$DIMTFAC
 40
1.0
  9
$DIMGAP
 40
1.0
  9
$DIMJUST
 70
     0
  9
$DIMSD1
 70
     0
  9
$DIMSD2
 70
     0
  9
$DIMTOLJ
 70
     1
  9
$DIMTZIN
 70
     0
  9
$DIMALTZ
 70
     0
  9
$DIMALTTZ
 70
     0
  9
$DIMUPT
 70
     0
  9
$DIMDEC
 70
     1
  9
$DIMTDEC
 70
     4
  9
$DIMALTU
 70
     2
  9
$DIMALTTD
 70
     2
  9
$DIMTXSTY
  7
STYLE1
  9
$DIMAUNIT
 70
     0
  9
$DIMADEC
 70
     0
  9
$DIMALTRND
 40
0.0
  9
$DIMAZIN
 70
     0
  9
$DIMDSEP
 70
    46
  9
$DIMATFIT
 70
     3
  9
$DIMFRAC
 70
     0
  9
$DIMLDRBLK
  1

  9
$DIMLUNIT
 70
     2
  9
$DIMLWD
 70
    -2
  9
$DIMLWE
 70
    -2
  9
$DIMTMOVE
 70
     0
  9
$LUNITS
 70
     2
  9
$LUPREC
 70
     1
  9
$SKETCHINC
 40
1.0
  9
$FILLETRAD
 40
10.0
  9
$AUNITS
 70
     0
  9
$AUPREC
 70
     0
  9
$MENU
  1
acad
  9
$ELEVATION
 40
0.0
  9
$PELEVATION
 40
0.0
  9
$THICKNESS
 40
0.0
  9
$LIMCHECK
 70
     0
  9
$CHAMFERA
 40
10.0
  9
$CHAMFERB
 40
10.0
  9
$CHAMFERC
 40
0.0
  9
$CHAMFERD
 40
0.0
  9
$SKPOLY
 70
     0
  9
$TDCREATE
 40
2451225.538602894
  9
$TDUCREATE
 40
2451225.163602894
  9
$TDUPDATE
 40
2457326.723452720
  9
$TDUUPDATE
 40
2457326.348452720
  9
$TDINDWG
 40
0.6866201157
  9
$TDUSRTIMER
 40
0.6866201157
  9
$USRTIMER
 70
     1
  9
$ANGBASE
 50
0.0
  9
$ANGDIR
 70
     0
  9
$PDMODE
 70
     3
  9
$PDSIZE
 40
2.0
  9
$PLINEWID
 40
0.0
  9
$SPLFRAME
 70
     0
  9
$SPLINETYPE
 70
     6
  9
$SPLINESEGS
 70
     8
  9
$HANDSEED
  5
1564E
  9
$SURFTAB1
 70
     6
  9
$SURFTAB2
 70
     6
  9
$SURFTYPE
 70
     6
  9
$SURFU
 70
     6
  9
$SURFV
 70
     6
  9
$UCSBASE
  2

  9
$UCSNAME
  2

  9
$UCSORG
 10
0.0
 20
0.0
 30
0.0
  9
$UCSXDIR
 10
1.0
 20
0.0
 30
0.0
  9
$UCSYDIR
 10
0.0
 20
1.0
 30
0.0
  9
$UCSORTHOREF
  2

  9
$UCSORTHOVIEW
 70
     0
  9
$UCSORGTOP
 10
0.0
 20
0.0
 30
0.0
  9
$UCSORGBOTTOM
 10
0.0
 20
0.0
 30
0.0
  9
$UCSORGLEFT
 10
0.0
 20
0.0
 30
0.0
  9
$UCSORGRIGHT
 10
0.0
 20
0.0
 30
0.0
  9
$UCSORGFRONT
 10
0.0
 20
0.0
 30
0.0
  9
$UCSORGBACK
 10
0.0
 20
0.0
 30
0.0
  9
$PUCSBASE
  2

  9
$PUCSNAME
  2

  9
$PUCSORG
 10
0.0
 20
0.0
 30
0.0
  9
$PUCSXDIR
 10
1.0
 20
0.0
 30
0.0
  9
$PUCSYDIR
 10
0.0
 20
1.0
 30
0.0
  9
$PUCSORTHOREF
  2

  9
$PUCSORTHOVIEW
 70
     0
  9
$PUCSORGTOP
 10
0.0
 20
0.0
 30
0.0
  9
$PUCSORGBOTTOM
 10
0.0
 20
0.0
 30
0.0
  9
$PUCSORGLEFT
 10
0.0
 20
0.0
 30
0.0
  9
$PUCSORGRIGHT
 10
0.0
 20
0.0
 30
0.0
  9
$PUCSORGFRONT
 10
0.0
 20
0.0
 30
0.0
  9
$PUCSORGBACK
 10
0.0
 20
0.0
 30
0.0
  9
$USERI1
 70
     0
  9
$USERI2
 70
     0
  9
$USERI3
 70
     0
  9
$USERI4
 70
     0
  9
$USERI5
 70
     0
  9
$USERR1
 40
0.0
  9
$USERR2
 40
0.0
  9
$USERR3
 40
0.0
  9
$USERR4
 40
0.0
  9
$USERR5
 40
0.0
  9
$WORLDVIEW
 70
     1
  9
$SHADEDGE
 70
     3
  9
$SHADEDIF
 70
    70
  9
$TILEMODE
 70
     1
  9
$MAXACTVP
 70
    16
  9
$PINSBASE
 10
0.0
 20
0.0
 30
0.0
  9
$PLIMCHECK
 70
     0
  9
$PEXTMIN
 10
1.000000000000000E+20
 20
1.000000000000000E+20
 30
1.000000000000000E+20
  9
$PEXTMAX
 10
-1.000000000000000E+20
 20
-1.000000000000000E+20
 30
-1.000000000000000E+20
  9
$PLIMMIN
 10
0.0
 20
0.0
  9
$PLIMMAX
 10
420.0
 20
297.0
  9
$UNITMODE
 70
     0
  9
$VISRETAIN
 70
     0
  9
$PLINEGEN
 70
     0
  9
$PSLTSCALE
 70
     0
  9
$TREEDEPTH
 70
  3020
  9
$CMLSTYLE
  2
STANDARD
  9
$CMLJUST
 70
     0
  9
$CMLSCALE
 40
1.0
  9
$PROXYGRAPHICS
 70
     1
  9
$MEASUREMENT
 70
     1
  9
$CELWEIGHT
370
    -1
  9
$ENDCAPS
280
     0
  9
$JOINSTYLE
280
     0
  9
$LWDISPLAY
290
     0
  9
$INSUNITS
 70
     0
  9
$HYPERLINKBASE
  1

  9
$STYLESHEET
  1
inaba.ctb
  9
$XEDIT
290
     1
  9
$CEPSNTYPE
380
     0
  9
$PSTYLEMODE
290
     1
  9
$FINGERPRINTGUID
  2
{7F9F24F8-EFAE-4F98-8D6C-163DD23B5B88}
  9
$VERSIONGUID
  2
{9BD7D9F1-599E-4F39-B5D8-64344958BB92}
  9
$EXTNAMES
290
     1
  9
$PSVPSCALE
 40
0.0
  9
$OLESTARTUP
290
     0
  0
ENDSEC
  0
SECTION
  2
CLASSES
  0
CLASS
  1
ACDBDICTIONARYWDFLT
  2
AcDbDictionaryWithDefault
  3
ObjectDBX Classes
 90
        0
280
     0
281
     0
  0
CLASS
  1
MATERIAL
  2
AcDbMaterial
  3
ObjectDBX Classes
 90
     1153
280
     0
281
     0
  0
CLASS
  1
VISUALSTYLE
  2
AcDbVisualStyle
  3
ObjectDBX Classes
 90
     4095
280
     0
281
     0
  0
CLASS
  1
TABLESTYLE
  2
AcDbTableStyle
  3
ObjectDBX Classes
 90
     4095
280
     0
281
     0
  0
CLASS
  1
SCALE
  2
AcDbScale
  3
ObjectDBX Classes
 90
     1153
280
     0
281
     0
  0
CLASS
  1
MLEADERSTYLE
  2
AcDbMLeaderStyle
  3
ACDB_MLEADERSTYLE_CLASS
 90
     4095
280
     0
281
     0
  0
CLASS
  1
ACDBSECTIONVIEWSTYLE
  2
AcDbSectionViewStyle
  3
ObjectDBX Classes
 90
     1025
280
     0
281
     0
  0
CLASS
  1
ACDBDETAILVIEWSTYLE
  2
AcDbDetailViewStyle
  3
ObjectDBX Classes
 90
     1025
280
     0
281
     0
  0
CLASS
  1
SORTENTSTABLE
  2
AcDbSortentsTable
  3
ObjectDBX Classes
 90
        0
280
     0
281
     0
  0
CLASS
  1
DICTIONARYVAR
  2
AcDbDictionaryVar
  3
ObjectDBX Classes
 90
        0
280
     0
281
     0
  0
CLASS
  1
CELLSTYLEMAP
  2
AcDbCellStyleMap
  3
ObjectDBX Classes
 90
     1152
280
     0
281
     0
  0
CLASS
  1
ACDBPLACEHOLDER
  2
AcDbPlaceHolder
  3
ObjectDBX Classes
 90
        0
280
     0
281
     0
  0
CLASS
  1
LAYOUT
  2
AcDbLayout
  3
ObjectDBX Classes
 90
        0
280
     0
281
     0
  0
ENDSEC
  0
SECTION
  2
TABLES
  0
TABLE
  2
VPORT
  5
746D
330
0
100
AcDbSymbolTable
 70
     1
  0
VPORT
  5
14947
330
746D
100
AcDbSymbolTableRecord
100
AcDbViewportTableRecord
  2
*Active
 70
     0
 10
0.0
 20
0.0
 11
1.0
 21
1.0
 12
6753.104723738275
 22
4454.456286720058
 13
0.0
 23
0.0
 14
10.0
 24
10.0
 15
10.0
 25
10.0
 16
0.0
 26
0.0
 36
1.0
 17
0.0
 27
0.0
 37
0.0
 40
8984.59446020608
 41
1.686382393397524
 42
50.0
 43
0.0
 44
0.0
 50
0.0
 51
0.0
 71
     0
 72
     0
 73
     1
 74
     0
 75
     0
 76
     0
 77
     0
 78
     0
281
     0
 65
     1
110
0.0
120
0.0
130
0.0
111
1.0
121
0.0
131
0.0
112
0.0
122
1.0
132
0.0
 79
     0
146
0.0
1001
ACAD_NAV_VCDISPLAY
1070
     3
  0
ENDTAB
  0
TABLE
  2
LTYPE
  5
746A
330
0
100
AcDbSymbolTable
 70
     5
  0
LTYPE
  5
7477
330
746A
100
AcDbSymbolTableRecord
100
AcDbLinetypeTableRecord
  2
BYBLOCK
 70
     0
  3

 72
    65
 73
     0
 40
0.0
  0
LTYPE
  5
7478
330
746A
100
AcDbSymbolTableRecord
100
AcDbLinetypeTableRecord
  2
BYLAYER
 70
     0
  3

 72
    65
 73
     0
 40
0.0
  0
LTYPE
  5
7479
330
746A
100
AcDbSymbolTableRecord
100
AcDbLinetypeTableRecord
  2
CONTINUOUS
 70
     0
  3
Solid line
 72
    65
 73
     0
 40
0.0
  0
LTYPE
  5
7816
330
746A
100
AcDbSymbolTableRecord
100
AcDbLinetypeTableRecord
  2
CENTER
 70
     0
  3
____ _ ____ _ ____ _ ____ _ ____ _ ____ _ ____ 
 72
    65
 73
     4
 40
2.0
 49
1.25
 74
     0
 49
-0.25
 74
     0
 49
0.25
 74
     0
 49
-0.25
 74
     0
  0
LTYPE
  5
781A
330
746A
100
AcDbSymbolTableRecord
100
AcDbLinetypeTableRecord
  2
HIDDEN
 70
     0
  3
__ __ __ __ __ __ __ __ __ __ __ __ __ __ __ __
 72
    65
 73
     2
 40
0.375
 49
0.25
 74
     0
 49
-0.125
 74
     0
  0
LTYPE
  5
781B
330
746A
100
AcDbSymbolTableRecord
100
AcDbLinetypeTableRecord
  2
PHANTOM
 70
     0
  3
______  __  __  ______  __  __  ______  __  __ 
 72
    65
 73
     6
 40
2.5
 49
1.25
 74
     0
 49
-0.25
 74
     0
 49
0.25
 74
     0
 49
-0.25
 74
     0
 49
0.25
 74
     0
 49
-0.25
 74
     0
  0
LTYPE
  5
14A55
330
746A
100
AcDbSymbolTableRecord
100
AcDbLinetypeTableRecord
  2
GAS_LINE
 70
     0
  3
Gas line ----GAS----GAS----GAS----GAS----GAS---
 72
    65
 73
     3
 40
24.13
 49
12.7
 74
     0
 49
-5.08
 74
     2
 75
     0
340
7475
 46
2.54
 50
0.0
 44
-2.54
 45
-1.27
  9
GAS
 49
-6.349999999999999
 74
     0
  0
ENDTAB
  0
TABLE
  2
LAYER
  5
7467
102
{ACAD_XDICTIONARY
360
1478D
102
}
330
0
100
AcDbSymbolTable
 70
    12
  0
LAYER
  5
7474
102
{ACAD_XDICTIONARY
360
149D0
102
}
330
7467
100
AcDbSymbolTableRecord
100
AcDbLayerTableRecord
  2
0
 70
     0
 62
     7
  6
CONTINUOUS
370
    -3
390
1477E
  0
LAYER
  5
DEB2
102
{ACAD_XDICTIONARY
360
149D2
102
}
330
7467
100
AcDbSymbolTableRecord
100
AcDbLayerTableRecord
  2
センター
 70
     0
 62
     3
  6
CENTER
370
    -3
390
1477E
  0
LAYER
  5
DEB3
102
{ACAD_XDICTIONARY
360
149D4
102
}
330
7467
100
AcDbSymbolTableRecord
100
AcDbLayerTableRecord
  2
寸法
 70
     0
 62
     4
  6
CONTINUOUS
370
    -3
390
1477E
  0
LAYER
  5
DEB4
102
{ACAD_XDICTIONARY
360
149D6
102
}
330
7467
100
AcDbSymbolTableRecord
100
AcDbLayerTableRecord
  2
部品1
 70
     0
 62
     7
  6
CONTINUOUS
370
    -3
390
1477E
  0
LAYER
  5
DEB5
102
{ACAD_XDICTIONARY
360
149D8
102
}
330
7467
100
AcDbSymbolTableRecord
100
AcDbLayerTableRecord
  2
補助
 70
     0
 62
    -1
  6
CONTINUOUS
370
    -3
390
1477E
  0
LAYER
  5
DEB6
102
{ACAD_XDICTIONARY
360
149DA
102
}
330
7467
100
AcDbSymbolTableRecord
100
AcDbLayerTableRecord
  2
文字
 70
     0
 62
     7
  6
CONTINUOUS
370
    -3
390
1477E
  0
LAYER
  5
F255
330
7467
100
AcDbSymbolTableRecord
100
AcDbLayerTableRecord
  2
DEFPOINTS
 70
     0
 62
     7
  6
CONTINUOUS
290
     0
370
    -3
390
1477E
  0
LAYER
  5
10B54
102
{ACAD_XDICTIONARY
360
149DC
102
}
330
7467
100
AcDbSymbolTableRecord
100
AcDbLayerTableRecord
  2
仕様書枠
 70
     0
 62
   230
  6
CONTINUOUS
370
    -3
390
1477E
  0
LAYER
  5
11729
102
{ACAD_XDICTIONARY
360
149DE
102
}
330
7467
100
AcDbSymbolTableRecord
100
AcDbLayerTableRecord
  2
Ｇ．Ｌ
 70
     0
 62
    30
  6
CONTINUOUS
370
    -3
390
1477E
  0
LAYER
  5
1173F
102
{ACAD_XDICTIONARY
360
149E0
102
}
330
7467
100
AcDbSymbolTableRecord
100
AcDbLayerTableRecord
  2
細線
 70
     0
 62
     5
  6
CONTINUOUS
370
    -3
390
1477E
  0
LAYER
  5
11740
102
{ACAD_XDICTIONARY
360
149E2
102
}
330
7467
100
AcDbSymbolTableRecord
100
AcDbLayerTableRecord
  2
点線
 70
     0
 62
     2
  6
HIDDEN
370
    -3
390
1477E
  0
LAYER
  5
14BF3
330
7467
100
AcDbSymbolTableRecord
100
AcDbLayerTableRecord
  2
隠れ線HIDDEN
 70
     0
 62
     2
  6
HIDDEN
370
    -3
390
1477E
  0
ENDTAB
  0
TABLE
  2
STYLE
  5
7468
330
0
100
AcDbSymbolTable
 70
     7
  0
STYLE
  5
7475
330
7468
100
AcDbSymbolTableRecord
100
AcDbTextStyleTableRecord
  2
STANDARD
 70
     0
 40
0.0
 41
1.0
 50
0.0
 71
     0
 42
4.0
  3
txt
  4
C:\AutoCAD LT\bigfont.shx
  0
STYLE
  5
763C
330
7468
100
AcDbSymbolTableRecord
100
AcDbTextStyleTableRecord
  2
MSMINCHO
 70
     0
 40
0.0
 41
1.0
 50
0.0
 71
     0
 42
1.199999999999999
  3
C:\AutoCAD LT\msminch2.TTF
  4

  0
STYLE
  5
F706
330
7468
100
AcDbSymbolTableRecord
100
AcDbTextStyleTableRecord
  2
STYLE1
 70
     0
 40
0.0
 41
1.0
 50
0.0
 71
     0
 42
4.0
  3
isocp.shx
  4
bigfont.shx
  0
STYLE
  5
103BF
330
7468
100
AcDbSymbolTableRecord
100
AcDbTextStyleTableRecord
  2
STYLE2
 70
     0
 40
0.0
 41
1.0
 50
0.0
 71
     0
 42
100.0
  3
MS PGothic.ttf
  4

1001
ACAD
1000
MS PGothic
1071
    32818
  0
STYLE
  5
10BAA
330
7468
100
AcDbSymbolTableRecord
100
AcDbTextStyleTableRecord
  2
STYLE3
 70
     0
 40
0.0
 41
1.0
 50
0.0
 71
     0
 42
100.0
  3
DFPGothic-EB.ttf
  4

1001
ACAD
1000
DFPGothic-EB
1071
    32818
  0
STYLE
  5
1478C
330
7468
100
AcDbSymbolTableRecord
100
AcDbTextStyleTableRecord
  2
MSGOTHIC
 70
     0
 40
0.0
 41
1.0
 50
0.0
 71
     0
 42
3.5
  3
MS PGothic.ttf
  4

1001
ACAD
1000
MS PGothic
1071
    32818
  0
ENDTAB
  0
TABLE
  2
VIEW
  5
746B
330
0
100
AcDbSymbolTable
 70
     0
  0
ENDTAB
  0
TABLE
  2
UCS
  5
746C
330
0
100
AcDbSymbolTable
 70
     0
  0
ENDTAB
  0
TABLE
  2
APPID
  5
746E
330
0
100
AcDbSymbolTable
 70
    10
  0
APPID
  5
7476
330
746E
100
AcDbSymbolTableRecord
100
AcDbRegAppTableRecord
  2
ACAD
 70
     0
  0
APPID
  5
DEA9
330
746E
100
AcDbSymbolTableRecord
100
AcDbRegAppTableRecord
  2
CONTENTBLOCKICON
 70
     0
  0
APPID
  5
DEAA
330
746E
100
AcDbSymbolTableRecord
100
AcDbRegAppTableRecord
  2
CONTENTBLOCKDESCRIPTION
 70
     0
  0
APPID
  5
E71D
330
746E
100
AcDbSymbolTableRecord
100
AcDbRegAppTableRecord
  2
CONTENTTABDATA
 70
     0
  0
APPID
  5
E71E
330
746E
100
AcDbSymbolTableRecord
100
AcDbRegAppTableRecord
  2
CONTENTCURRENTTAB
 70
     0
  0
APPID
  5
F3BA
330
746E
100
AcDbSymbolTableRecord
100
AcDbRegAppTableRecord
  2
DRAWINGVARIABLESXDATA
 70
     0
  0
APPID
  5
1499E
330
746E
100
AcDbSymbolTableRecord
100
AcDbRegAppTableRecord
  2
ACAD_EXEMPT_FROM_CAD_STANDARDS
 70
     0
  0
APPID
  5
149C4
330
746E
100
AcDbSymbolTableRecord
100
AcDbRegAppTableRecord
  2
ACAD_NAV_VCDISPLAY
 70
     0
  0
APPID
  5
149C5
330
746E
100
AcDbSymbolTableRecord
100
AcDbRegAppTableRecord
  2
ACAD_PSEXT
 70
     0
  0
APPID
  5
15649
330
746E
100
AcDbSymbolTableRecord
100
AcDbRegAppTableRecord
  2
ACAD_MLEADERVER
 70
     0
  0
ENDTAB
  0
TABLE
  2
DIMSTYLE
  5
746F
330
0
100
AcDbSymbolTable
 70
     6
100
AcDbDimStyleTable
 71
     1
340
F71F
  0
DIMSTYLE
105
7484
330
746F
100
AcDbSymbolTableRecord
100
AcDbDimStyleTableRecord
  2
JIS
 70
     0
 41
2.5
 42
1.0
 43
7.0
 44
1.0
 73
     0
 74
     0
 77
     1
 78
     8
140
2.5
141
0.0
143
0.0394
147
0.0
172
     1
174
     1
175
     1
340
7475
  0
DIMSTYLE
105
F236
330
746F
100
AcDbSymbolTableRecord
100
AcDbDimStyleTableRecord
  2
INABA_S30
 70
     0
 40
30.0
 41
2.5
 42
0.5
 43
7.0
 44
1.5
 73
     0
 74
     0
 77
     3
 78
     8
140
3.0
141
0.0
143
0.0394
147
1.0
172
     1
173
     1
174
     1
175
     1
178
     7
289
     0
340
7475
341
DEAC
343
DEAC
344
DEAC
  0
DIMSTYLE
105
F71F
102
{ACAD_REACTORS
330
12FB4
330
12F50
330
132B6
330
12F4F
330
13D64
330
14711
330
1524A
330
152AB
330
152C2
330
152C3
330
152C4
330
152C5
330
1552D
102
}
330
746F
100
AcDbSymbolTableRecord
100
AcDbDimStyleTableRecord
  2
INABA_S30G
 70
     0
 40
30.0
 41
2.5
 42
0.5
 43
7.0
 44
1.5
 73
     0
 74
     0
 77
     3
 78
     8
140
3.0
141
0.0
143
0.0394
147
1.0
172
     1
173
     1
174
     1
175
     1
178
     7
271
     1
340
F706
341
F770
343
F770
344
F770
  0
DIMSTYLE
105
118AC
330
746F
100
AcDbSymbolTableRecord
100
AcDbDimStyleTableRecord
  2
INABA_S80
 70
     0
 40
80.0
 41
0.5
 42
0.2
 43
6.0
 44
0.5
 73
     0
 74
     0
 77
     3
 78
     8
140
2.5
141
0.0
143
0.0394
147
0.8
172
     1
173
     1
174
     1
175
     1
178
     5
271
     2
272
     2
289
     2
340
7475
341
F744
343
F744
344
F744
  0
DIMSTYLE
105
14A56
330
746F
100
AcDbSymbolTableRecord
100
AcDbDimStyleTableRecord
  2
INABA_S3
 70
     0
 41
5.0
 42
1.5
 43
7.0
 44
1.0
 73
     0
 74
     0
 77
     3
 78
     8
140
9.0
141
0.0
143
0.0394
147
1.0
172
     1
173
     1
174
     1
175
     1
178
     7
289
     0
340
7475
341
DEAC
343
DEAC
344
DEAC
  0
ENDTAB
  0
TABLE
  2
BLOCK_RECORD
  5
7466
330
0
100
AcDbSymbolTable
 70
    29
  0
BLOCK_RECORD
  5
747D
102
{ACAD_XDICTIONARY
360
149AB
102
}
330
7466
100
AcDbSymbolTableRecord
100
AcDbBlockTableRecord
  2
*MODEL_SPACE
340
14783
  0
BLOCK_RECORD
  5
747A
330
7466
100
AcDbSymbolTableRecord
100
AcDbBlockTableRecord
  2
*PAPER_SPACE
340
14784
  0
BLOCK_RECORD
  5
DEAC
330
7466
100
AcDbSymbolTableRecord
100
AcDbBlockTableRecord
  2
_OPEN
340
0
  0
BLOCK_RECORD
  5
ECB3
330
7466
100
AcDbSymbolTableRecord
100
AcDbBlockTableRecord
  2
作図枠S50
340
0
310
2800000020000000200000000100040000000000000200000000000000000000000000000000000000000000000080000080000000808000800000008000800080800000C0C0C000808080000000FF0000FF000000FFFF00FF000000FF00FF00FFFF0000FFFFFF00FFFFFFFFFFFFFFFFFFFFFFFFFFFFFFFFFFFFFFFFFFFFFF
310
FFFFFFFFFFFFFFFFFFFFFFFFFFFFFFFFFFFFFFFFFFFFFFFFFFFFFFFFFFFFFFFFFFFFFFFFFFFFFFFFFFFFFFFFFFFFFFFFFFFFFFFFFFFFFFFFFFFFFFFFFFFFFFFFFFFFFFFFFFFFFFFFFF999999999999999999999999999999999FFFFFFFFFFFFFFFFFFFFFFFFFFFFFF99FFFFFFFFFFFFFFFFFFFFFFFFFFFFFF99FFFFFFFFFFF
310
FFFFFFFFFFFFFFFFFFF99FFFFFFFFFFFFFFFFFFFFFFFFFFFFFF99FFFFFFFFFFFFFFFFFFFFFFFFFFFFFF99FFFFFFFFFFFFFFFFFFFFFFFFFFFFFF99FFFFFFFFFFFFFFFFFFFFFFFFFFFFFF99FFFFFFFFFFFFFFFFFFFFFFFFFFFFFF99FFFFFFFFFFFFFFFFFFFFFFFFFFFFFF99FFFFFFFFFFFFFFFFFFFFFFFFFFFFFF99FFFFFFFFF
310
FFFFFFFFFFFFFFFFFFFFF99FFFFFFFFFFFFFFFFFFFFFFFFFFFFFF99FFFFFFFFFFFFFFFFFFFFFFFFFFFFFF99FFFFFFFFFFFFFFFFFFFFFFFFFFFFFF99FFFFFFFFFFFFFFFFFFFFFFFFFFFFFF99FFFFFFFFFFFFFFFFFFFFFFFFFFFFFF99FFFFFFFFFFFFFFFFFFFFFFFFFFFFFF99FFFFFFFFFFFFFFFFFFFFF99999999999FFFFFFF
310
FFFFFFFFFFFFFF9FFFFFFFFF99999999999999999999999FFFFFFFFFFFFFFFFFFFFFFFFFFFFFFFFFFFFFFFFFFFFFFFFFFFFFFFFFFFFFFFFFFFFFFFFFFFFFFFFFFFFFFFFFFFFFFFFFFFFFFFFFFFFFFFFFFFFFFFFFFFFFFFFFFFFFFFFFFFFFFFFFFFFFFFFFFFFFFFFFFFFFFFFF
102
{BLKREFS
331
F235
102
}
  0
BLOCK_RECORD
  5
F744
330
7466
100
AcDbSymbolTableRecord
100
AcDbBlockTableRecord
  2
_DOT
340
0
  0
BLOCK_RECORD
  5
F770
330
7466
100
AcDbSymbolTableRecord
100
AcDbBlockTableRecord
  2
_DOTSMALL
340
0
102
{BLKREFS
331
13E3C
331
13E3D
331
14925
331
14926
331
14F7B
331
14F7C
331
14F84
331
14F85
331
14F8E
331
14F8F
331
14FA9
331
14FAA
331
1538C
331
1538D
331
15394
331
15395
331
1539D
331
1539E
331
153A6
331
153A7
331
153B1
331
153B2
331
153BC
331
153BD
331
153C7
331
153C8
331
153D4
331
153D5
331
153DF
331
153E0
331
153EB
331
153EC
331
153F7
331
153F8
331
15405
331
15406
331
15413
331
15414
331
1554F
331
15550
102
}
  0
BLOCK_RECORD
  5
1344A
330
7466
100
AcDbSymbolTableRecord
100
AcDbBlockTableRecord
  2
*D4
340
0
  0
BLOCK_RECORD
  5
13456
330
7466
100
AcDbSymbolTableRecord
100
AcDbBlockTableRecord
  2
*D5
340
0
  0
BLOCK_RECORD
  5
1346D
330
7466
100
AcDbSymbolTableRecord
100
AcDbBlockTableRecord
  2
*D6
340
0
  0
BLOCK_RECORD
  5
134B1
330
7466
100
AcDbSymbolTableRecord
100
AcDbBlockTableRecord
  2
*D7
340
0
  0
BLOCK_RECORD
  5
13DBA
330
7466
100
AcDbSymbolTableRecord
100
AcDbBlockTableRecord
  2
*D8
340
0
  0
BLOCK_RECORD
  5
14705
330
7466
100
AcDbSymbolTableRecord
100
AcDbBlockTableRecord
  2
*D9
340
0
  0
BLOCK_RECORD
  5
14874
330
7466
100
AcDbSymbolTableRecord
100
AcDbBlockTableRecord
  2
A$C644A28E3
340
0
  0
BLOCK_RECORD
  5
1533C
330
7466
100
AcDbSymbolTableRecord
100
AcDbBlockTableRecord
  2
*D11
340
0
  0
BLOCK_RECORD
  5
15348
330
7466
100
AcDbSymbolTableRecord
100
AcDbBlockTableRecord
  2
*D12
340
0
  0
BLOCK_RECORD
  5
15354
330
7466
100
AcDbSymbolTableRecord
100
AcDbBlockTableRecord
  2
*D13
340
0
  0
BLOCK_RECORD
  5
15360
330
7466
100
AcDbSymbolTableRecord
100
AcDbBlockTableRecord
  2
*D14
340
0
  0
BLOCK_RECORD
  5
1536C
330
7466
100
AcDbSymbolTableRecord
100
AcDbBlockTableRecord
  2
*D15
340
0
  0
BLOCK_RECORD
  5
1537A
330
7466
100
AcDbSymbolTableRecord
100
AcDbBlockTableRecord
  2
*D16
340
0
  0
BLOCK_RECORD
  5
153C2
330
7466
100
AcDbSymbolTableRecord
100
AcDbBlockTableRecord
  2
*D17
340
0
  0
BLOCK_RECORD
  5
153CE
330
7466
100
AcDbSymbolTableRecord
100
AcDbBlockTableRecord
  2
*D18
340
0
  0
BLOCK_RECORD
  5
153DA
330
7466
100
AcDbSymbolTableRecord
100
AcDbBlockTableRecord
  2
*D19
340
0
  0
BLOCK_RECORD
  5
153E6
330
7466
100
AcDbSymbolTableRecord
100
AcDbBlockTableRecord
  2
*D20
340
0
  0
BLOCK_RECORD
  5
153F2
330
7466
100
AcDbSymbolTableRecord
100
AcDbBlockTableRecord
  2
*D21
340
0
  0
BLOCK_RECORD
  5
153FE
330
7466
100
AcDbSymbolTableRecord
100
AcDbBlockTableRecord
  2
*D22
340
0
  0
BLOCK_RECORD
  5
1540C
330
7466
100
AcDbSymbolTableRecord
100
AcDbBlockTableRecord
  2
*D23
340
0
  0
BLOCK_RECORD
  5
1541A
102
{ACAD_XDICTIONARY
360
15512
102
}
330
7466
100
AcDbSymbolTableRecord
100
AcDbBlockTableRecord
  2
A$C1B6C4AC1
340
0
  0
BLOCK_RECORD
  5
1552E
330
7466
100
AcDbSymbolTableRecord
100
AcDbBlockTableRecord
  2
*D25
340
0
  0
BLOCK_RECORD
  5
15556
102
{ACAD_XDICTIONARY
360
1555F
102
}
330
7466
100
AcDbSymbolTableRecord
100
AcDbBlockTableRecord
  2
A$C2E0E56F6
340
0
  0
BLOCK_RECORD
  5
15563
102
{ACAD_XDICTIONARY
360
1556C
102
}
330
7466
100
AcDbSymbolTableRecord
100
AcDbBlockTableRecord
  2
A$C2F8D0837
340
0
  0
ENDTAB
  0
ENDSEC
  0
SECTION
  2
BLOCKS
  0
BLOCK
  5
7489
330
747D
100
AcDbEntity
  8
0
100
AcDbBlockBegin
  2
*MODEL_SPACE
 70
     0
 10
0.0
 20
0.0
 30
0.0
  3
*MODEL_SPACE
  1

  0
ENDBLK
  5
748A
330
747D
100
AcDbEntity
  8
0
100
AcDbBlockEnd
  0
BLOCK
  5
7487
330
747A
100
AcDbEntity
 67
     1
  8
0
100
AcDbBlockBegin
  2
*PAPER_SPACE
 70
     0
 10
0.0
 20
0.0
 30
0.0
  3
*PAPER_SPACE
  1

  0
ENDBLK
  5
7488
330
747A
100
AcDbEntity
 67
     1
  8
0
100
AcDbBlockEnd
  0
BLOCK
  5
DEAD
330
DEAC
100
AcDbEntity
  8
0
100
AcDbBlockBegin
  2
_OPEN
 70
     0
 10
0.0
 20
0.0
 30
0.0
  3
_OPEN
  1

  0
LINE
  5
DEAE
330
DEAC
100
AcDbEntity
  8
0
  6
ByBlock
 62
     0
100
AcDbLine
 10
-1.0
 20
0.1666666666666666
 30
0.0
 11
0.0
 21
0.0
 31
0.0
  0
LINE
  5
DEAF
330
DEAC
100
AcDbEntity
  8
0
  6
ByBlock
 62
     0
100
AcDbLine
 10
0.0
 20
0.0
 30
0.0
 11
-1.0
 21
-0.1666666666666666
 31
0.0
  0
LINE
  5
DEB0
330
DEAC
100
AcDbEntity
  8
0
  6
ByBlock
 62
     0
100
AcDbLine
 10
0.0
 20
0.0
 30
0.0
 11
-1.0
 21
0.0
 31
0.0
  0
ENDBLK
  5
DEB1
330
DEAC
100
AcDbEntity
  8
0
100
AcDbBlockEnd
  0
BLOCK
  5
ECB4
330
ECB3
100
AcDbEntity
  8
0
100
AcDbBlockBegin
  2
作図枠S50
 70
     0
 10
0.0
 20
0.0
 30
0.0
  3
作図枠S50
  1

  4
作図領域枠 縮尺 1/50
  0
LINE
  5
ECB5
330
ECB3
100
AcDbEntity
  8
補助
100
AcDbLine
 10
14364.0
 20
14262.0
 30
0.0
 11
174.9999999999993
 21
14262.0
 31
0.0
  0
LINE
  5
ECB6
330
ECB3
100
AcDbEntity
  8
補助
100
AcDbLine
 10
174.9999999999993
 20
14262.0
 30
0.0
 11
174.9999999999993
 21
1520.0
 31
0.0
  0
LINE
  5
ECB7
330
ECB3
100
AcDbEntity
  8
補助
100
AcDbLine
 10
174.9999999999993
 20
1520.0
 30
0.0
 11
20384.0
 21
1520.0
 31
0.0
  0
LINE
  5
ECB8
330
ECB3
100
AcDbEntity
  8
補助
100
AcDbLine
 10
20384.0
 20
1520.0
 30
0.0
 11
20384.0
 21
13042.0
 31
0.0
  0
LINE
  5
ECB9
330
ECB3
100
AcDbEntity
  8
補助
100
AcDbLine
 10
20384.0
 20
13042.0
 30
0.0
 11
14364.0
 21
13042.0
 31
0.0
  0
LINE
  5
ECBA
330
ECB3
100
AcDbEntity
  8
補助
100
AcDbLine
 10
14364.0
 20
13042.0
 30
0.0
 11
14364.0
 21
14262.0
 31
0.0
  0
ENDBLK
  5
ECBB
330
ECB3
100
AcDbEntity
  8
0
100
AcDbBlockEnd
  0
BLOCK
  5
F745
330
F744
100
AcDbEntity
  8
0
 48
50.0
100
AcDbBlockBegin
  2
_DOT
 70
     0
 10
0.0
 20
0.0
 30
0.0
  3
_DOT
  1

  0
LWPOLYLINE
  5
F746
330
F744
100
AcDbEntity
  8
0
  6
ByBlock
 62
     0
 48
50.0
100
AcDbPolyline
 90
        2
 70
     1
 43
0.5
 10
-0.25
 20
0.0
 42
1.0
 10
0.25
 20
0.0
 42
1.0
  0
LINE
  5
F74A
330
F744
100
AcDbEntity
  8
0
  6
ByBlock
 62
     0
 48
50.0
100
AcDbLine
 10
-0.5
 20
0.0
 30
0.0
 11
-1.0
 21
0.0
 31
0.0
  0
ENDBLK
  5
F74B
330
F744
100
AcDbEntity
  8
0
 48
50.0
100
AcDbBlockEnd
  0
BLOCK
  5
F771
330
F770
100
AcDbEntity
  8
0
 48
50.0
100
AcDbBlockBegin
  2
_DOTSMALL
 70
     0
 10
0.0
 20
0.0
 30
0.0
  3
_DOTSMALL
  1

  0
LWPOLYLINE
  5
F772
330
F770
100
AcDbEntity
  8
0
  6
ByBlock
 62
     0
 48
50.0
100
AcDbPolyline
 90
        2
 70
     1
 43
0.5
 10
-0.0625
 20
0.0
 42
1.0
 10
0.0625
 20
0.0
 42
1.0
  0
ENDBLK
  5
F776
330
F770
100
AcDbEntity
  8
0
 48
50.0
100
AcDbBlockEnd
  0
BLOCK
  5
14656
330
1344A
100
AcDbEntity
  8
0
 48
50.0
100
AcDbBlockBegin
  2
*D4
 70
     1
 10
0.0
 20
0.0
 30
0.0
  3
*D4
  1

  0
LINE
  5
14F78
330
1344A
100
AcDbEntity
  8
寸法
 62
     0
 48
50.0
370
    -2
100
AcDbLine
 10
2427.862646115603
 20
4081.450581124186
 30
0.0
 11
2427.862646115603
 21
4955.957606075116
 31
0.0
  0
LINE
  5
14F79
330
1344A
100
AcDbEntity
  8
寸法
 62
     0
 48
50.0
370
    -2
100
AcDbLine
 10
5757.862646115606
 20
4081.450581124185
 30
0.0
 11
5757.862646115606
 21
4955.957606075116
 31
0.0
  0
LINE
  5
14F7A
330
1344A
100
AcDbEntity
  8
寸法
 62
     0
 48
50.0
370
    -2
100
AcDbLine
 10
2427.862646115603
 20
4910.957606075115
 30
0.0
 11
5757.862646115606
 21
4910.957606075115
 31
0.0
  0
INSERT
  5
14F7B
330
1344A
100
AcDbEntity
  8
寸法
 62
     0
 48
50.0
370
    -2
100
AcDbBlockReference
  2
_DOTSMALL
 10
2427.862646115603
 20
4910.957606075115
 30
0.0
 41
75.0
 42
75.0
 43
75.0
 50
180.0
  0
INSERT
  5
14F7C
330
1344A
100
AcDbEntity
  8
寸法
 62
     0
 48
50.0
370
    -2
100
AcDbBlockReference
  2
_DOTSMALL
 10
5757.862646115606
 20
4910.957606075115
 30
0.0
 41
75.0
 42
75.0
 43
75.0
  0
MTEXT
  5
14F7D
330
1344A
100
AcDbEntity
  8
寸法
 62
     7
 48
50.0
100
AcDbMText
 10
4092.862646115604
 20
4985.957606075115
 30
0.0
 40
90.0
 41
0.0
 71
     5
 72
     1
  1
\A1;3330
  7
STYLE1
 73
     1
 44
1.0
1001
ACAD
1000
MTEXTBEGIN
1070
    73
1070
     1
1070
    44
1040
1.0
1070
    74
1070
     0
1000
MTEXTEND
  0
POINT
  5
14F7E
330
1344A
100
AcDbEntity
  8
DEFPOINTS
 62
     0
 48
50.0
100
AcDbPoint
 10
2427.862646115603
 20
4066.450581124186
 30
0.0
  0
POINT
  5
14F7F
330
1344A
100
AcDbEntity
  8
DEFPOINTS
 62
     0
 48
50.0
100
AcDbPoint
 10
5757.862646115606
 20
4066.450581124185
 30
0.0
  0
POINT
  5
14F80
330
1344A
100
AcDbEntity
  8
DEFPOINTS
 62
     0
 48
50.0
100
AcDbPoint
 10
5757.862646115606
 20
4910.957606075115
 30
0.0
  0
ENDBLK
  5
14660
330
1344A
100
AcDbEntity
  8
0
 48
50.0
100
AcDbBlockEnd
  0
BLOCK
  5
1464B
330
13456
100
AcDbEntity
  8
0
 48
50.0
100
AcDbBlockBegin
  2
*D5
 70
     1
 10
0.0
 20
0.0
 30
0.0
  3
*D5
  1

  0
LINE
  5
14F81
330
13456
100
AcDbEntity
  8
寸法
 62
     0
 48
50.0
370
    -2
100
AcDbLine
 10
2677.862646115603
 20
3985.897875741639
 30
0.0
 11
2677.862646115603
 21
4646.702425425583
 31
0.0
  0
LINE
  5
14F82
330
13456
100
AcDbEntity
  8
寸法
 62
     0
 48
50.0
370
    -2
100
AcDbLine
 10
5507.862646115606
 20
3985.897875741637
 30
0.0
 11
5507.862646115606
 21
4646.702425425583
 31
0.0
  0
LINE
  5
14F83
330
13456
100
AcDbEntity
  8
寸法
 62
     0
 48
50.0
370
    -2
100
AcDbLine
 10
2677.862646115603
 20
4601.702425425583
 30
0.0
 11
5507.862646115606
 21
4601.702425425583
 31
0.0
  0
INSERT
  5
14F84
330
13456
100
AcDbEntity
  8
寸法
 62
     0
 48
50.0
370
    -2
100
AcDbBlockReference
  2
_DOTSMALL
 10
2677.862646115603
 20
4601.702425425583
 30
0.0
 41
75.0
 42
75.0
 43
75.0
 50
180.0
  0
INSERT
  5
14F85
330
13456
100
AcDbEntity
  8
寸法
 62
     0
 48
50.0
370
    -2
100
AcDbBlockReference
  2
_DOTSMALL
 10
5507.862646115606
 20
4601.702425425583
 30
0.0
 41
75.0
 42
75.0
 43
75.0
  0
MTEXT
  5
14F86
330
13456
100
AcDbEntity
  8
寸法
 62
     7
 48
50.0
100
AcDbMText
 10
4092.862646115604
 20
4676.7112836933
 30
0.0
 40
90.0
 41
0.0
 71
     5
 72
     1
  1
\A1;2830
  7
STYLE1
 73
     1
 44
1.0
1001
ACAD
1000
MTEXTBEGIN
1070
    73
1070
     1
1070
    44
1040
1.0
1070
    74
1070
     0
1000
MTEXTEND
  0
POINT
  5
14F87
330
13456
100
AcDbEntity
  8
DEFPOINTS
 62
     0
 48
50.0
100
AcDbPoint
 10
2677.862646115603
 20
3970.897875741638
 30
0.0
  0
POINT
  5
14F88
330
13456
100
AcDbEntity
  8
DEFPOINTS
 62
     0
 48
50.0
100
AcDbPoint
 10
5507.862646115606
 20
3970.897875741638
 30
0.0
  0
POINT
  5
14F89
330
13456
100
AcDbEntity
  8
DEFPOINTS
 62
     0
 48
50.0
100
AcDbPoint
 10
5507.862646115606
 20
4601.702425425583
 30
0.0
  0
ENDBLK
  5
14655
330
13456
100
AcDbEntity
  8
0
 48
50.0
100
AcDbBlockEnd
  0
BLOCK
  5
13E0A
330
1346D
100
AcDbEntity
  8
0
 48
50.0
100
AcDbBlockBegin
  2
*D6
 70
     1
 10
0.0
 20
0.0
 30
0.0
  3
*D6
  1

  0
LINE
  5
14F8A
330
1346D
100
AcDbEntity
  8
寸法
 62
     0
 48
50.0
370
    -2
100
AcDbLine
 10
2427.862646115603
 20
4081.450581124186
 30
0.0
 11
2427.862646115603
 21
4646.702425425583
 31
0.0
  0
LINE
  5
14F8B
330
1346D
100
AcDbEntity
  8
寸法
 62
     0
 48
50.0
370
    -2
100
AcDbLine
 10
2677.862646115603
 20
3985.897875741639
 30
0.0
 11
2677.862646115603
 21
4646.702425425583
 31
0.0
  0
LINE
  5
14F8C
330
1346D
100
AcDbEntity
  8
寸法
 62
     0
 48
50.0
370
    -2
100
AcDbLine
 10
2677.862646115603
 20
4601.702425425583
 30
0.0
 11
2427.862646115603
 21
4601.702425425583
 31
0.0
  0
LINE
  5
14F8D
330
1346D
100
AcDbEntity
  8
寸法
 62
     0
 48
50.0
370
    -2
100
AcDbLine
 10
2427.862646115603
 20
4601.702425425583
 30
0.0
 11
2128.506346903004
 21
4601.702425425583
 31
0.0
  0
INSERT
  5
14F8E
330
1346D
100
AcDbEntity
  8
寸法
 62
     0
 48
50.0
370
    -2
100
AcDbBlockReference
  2
_DOTSMALL
 10
2677.862646115603
 20
4601.702425425583
 30
0.0
 41
75.0
 42
75.0
 43
75.0
  0
INSERT
  5
14F8F
330
1346D
100
AcDbEntity
  8
寸法
 62
     0
 48
50.0
370
    -2
100
AcDbBlockReference
  2
_DOTSMALL
 10
2427.862646115603
 20
4601.702425425583
 30
0.0
 41
75.0
 42
75.0
 43
75.0
 50
180.0
  0
MTEXT
  5
14F90
330
1346D
100
AcDbEntity
  8
寸法
 62
     7
 48
50.0
100
AcDbMText
 10
2240.684496509303
 20
4676.7112836933
 30
0.0
 40
90.0
 41
0.0
 71
     5
 72
     1
  1
\A1;250
  7
STYLE1
 73
     1
 44
1.0
1001
ACAD
1000
MTEXTBEGIN
1070
    73
1070
     1
1070
    44
1040
1.0
1070
    74
1070
     0
1000
MTEXTEND
  0
POINT
  5
14F91
330
1346D
100
AcDbEntity
  8
DEFPOINTS
 62
     0
 48
50.0
100
AcDbPoint
 10
2427.862646115603
 20
4066.450581124186
 30
0.0
  0
POINT
  5
14F92
330
1346D
100
AcDbEntity
  8
DEFPOINTS
 62
     0
 48
50.0
100
AcDbPoint
 10
2677.862646115603
 20
3970.897875741638
 30
0.0
  0
POINT
  5
14F93
330
1346D
100
AcDbEntity
  8
DEFPOINTS
 62
     0
 48
50.0
100
AcDbPoint
 10
2677.862646115603
 20
4601.702425425583
 30
0.0
  0
ENDBLK
  5
13E15
330
1346D
100
AcDbEntity
  8
0
 48
50.0
100
AcDbBlockEnd
  0
BLOCK
  5
13E37
330
134B1
100
AcDbEntity
  8
0
 48
50.0
100
AcDbBlockBegin
  2
*D7
 70
     1
 10
0.0
 20
0.0
 30
0.0
  3
*D7
  1

  0
LINE
  5
13E38
330
134B1
100
AcDbEntity
  8
0
  6
ByBlock
 62
     0
 48
50.0
100
AcDbLine
 10
7481.8621856143
 20
5246.814793541216
 30
0.0
 11
7481.8621856143
 21
5907.61934322516
 31
0.0
  0
LINE
  5
13E39
330
134B1
100
AcDbEntity
  8
0
  6
ByBlock
 62
     0
 48
50.0
100
AcDbLine
 10
7731.8621856143
 20
5342.367498923764
 30
0.0
 11
7731.8621856143
 21
5907.61934322516
 31
0.0
  0
LINE
  5
13E3A
330
134B1
100
AcDbEntity
  8
0
  6
ByBlock
 62
     0
 48
50.0
100
AcDbLine
 10
7481.8621856143
 20
5862.61934322516
 30
0.0
 11
7731.8621856143
 21
5862.61934322516
 31
0.0
  0
LINE
  5
13E3B
330
134B1
100
AcDbEntity
  8
0
  6
ByBlock
 62
     0
 48
50.0
100
AcDbLine
 10
7731.8621856143
 20
5862.61934322516
 30
0.0
 11
8135.76628310064
 21
5862.61934322516
 31
0.0
  0
INSERT
  5
13E3C
330
134B1
100
AcDbEntity
  8
0
  6
ByBlock
 62
     0
 48
50.0
100
AcDbBlockReference
  2
_DOTSMALL
 10
7481.8621856143
 20
5862.61934322516
 30
0.0
 41
75.0
 42
75.0
 43
75.0
 50
180.0
  0
INSERT
  5
13E3D
330
134B1
100
AcDbEntity
  8
0
  6
ByBlock
 62
     0
 48
50.0
100
AcDbBlockReference
  2
_DOTSMALL
 10
7731.8621856143
 20
5862.61934322516
 30
0.0
 41
75.0
 42
75.0
 43
75.0
  0
MTEXT
  5
13E3E
330
134B1
100
AcDbEntity
  8
0
  6
ByBlock
 62
     7
 48
50.0
100
AcDbMText
 10
8023.588133494341
 20
5937.628201492877
 30
0.0
 40
90.0
 41
0.0
 71
     5
 72
     1
  1
\A1;250
  7
STYLE1
 73
     1
 44
1.0
1001
ACAD
1000
MTEXTBEGIN
1070
    73
1070
     1
1070
    44
1040
1.0
1070
    74
1070
     0
1000
MTEXTEND
  0
POINT
  5
13E3F
330
134B1
100
AcDbEntity
  8
DEFPOINTS
  6
ByBlock
 62
     0
 48
50.0
100
AcDbPoint
 10
7481.8621856143
 20
5231.814793541216
 30
0.0
  0
POINT
  5
13E40
330
134B1
100
AcDbEntity
  8
DEFPOINTS
  6
ByBlock
 62
     0
 48
50.0
100
AcDbPoint
 10
7731.8621856143
 20
5327.367498923764
 30
0.0
  0
POINT
  5
13E41
330
134B1
100
AcDbEntity
  8
DEFPOINTS
  6
ByBlock
 62
     0
 48
50.0
100
AcDbPoint
 10
7731.8621856143
 20
5862.61934322516
 30
0.0
  0
ENDBLK
  5
13E42
330
134B1
100
AcDbEntity
  8
0
 48
50.0
100
AcDbBlockEnd
  0
BLOCK
  5
13DFF
330
13DBA
100
AcDbEntity
  8
0
 48
50.0
100
AcDbBlockBegin
  2
*D8
 70
     1
 10
0.0
 20
0.0
 30
0.0
  3
*D8
  1

  0
LINE
  5
14922
330
13DBA
100
AcDbEntity
  8
寸法
 62
     0
 48
50.0
370
    -2
100
AcDbLine
 10
5757.862646115602
 20
7921.447238448386
 30
0.0
 11
6426.352180640484
 21
7921.447238448384
 31
0.0
  0
LINE
  5
14923
330
13DBA
100
AcDbEntity
  8
寸法
 62
     0
 48
50.0
370
    -2
100
AcDbLine
 10
5757.862646115602
 20
5921.447238448382
 30
0.0
 11
6426.352180640484
 21
5921.44723844838
 31
0.0
  0
LINE
  5
14924
330
13DBA
100
AcDbEntity
  8
寸法
 62
     0
 48
50.0
370
    -2
100
AcDbLine
 10
6381.352180640484
 20
7921.447238448384
 30
0.0
 11
6381.352180640483
 21
5921.44723844838
 31
0.0
  0
INSERT
  5
14925
330
13DBA
100
AcDbEntity
  8
寸法
 62
     0
 48
50.0
370
    -2
100
AcDbBlockReference
  2
_DOTSMALL
 10
6381.352180640484
 20
7921.447238448384
 30
0.0
 41
75.0
 42
75.0
 43
75.0
 50
90.0
  0
INSERT
  5
14926
330
13DBA
100
AcDbEntity
  8
寸法
 62
     0
 48
50.0
370
    -2
100
AcDbBlockReference
  2
_DOTSMALL
 10
6381.352180640483
 20
5921.44723844838
 30
0.0
 41
75.0
 42
75.0
 43
75.0
 50
270.0
  0
MTEXT
  5
14927
330
13DBA
100
AcDbEntity
  8
寸法
 62
     7
 48
50.0
100
AcDbMText
 10
6306.343322372766
 20
6921.447238448381
 30
0.0
 40
90.0
 41
0.0
 71
     5
 72
     1
  1
\A1;2000
  7
STYLE1
 11
0.0000000000000001
 21
1.0
 31
0.0
 73
     1
 44
1.0
1001
ACAD
1000
MTEXTBEGIN
1070
    73
1070
     1
1070
    44
1040
1.0
1070
    74
1070
     0
1000
MTEXTEND
  0
POINT
  5
14928
330
13DBA
100
AcDbEntity
  8
DEFPOINTS
 62
     0
 48
50.0
100
AcDbPoint
 10
5742.862646115602
 20
7921.447238448386
 30
0.0
  0
POINT
  5
14929
330
13DBA
100
AcDbEntity
  8
DEFPOINTS
 62
     0
 48
50.0
100
AcDbPoint
 10
5742.862646115602
 20
5921.447238448382
 30
0.0
  0
POINT
  5
1492A
330
13DBA
100
AcDbEntity
  8
DEFPOINTS
 62
     0
 48
50.0
100
AcDbPoint
 10
6381.352180640483
 20
5921.44723844838
 30
0.0
  0
ENDBLK
  5
13E09
330
13DBA
100
AcDbEntity
  8
0
 48
50.0
100
AcDbBlockEnd
  0
BLOCK
  5
14712
330
14705
100
AcDbEntity
  8
0
 48
50.0
100
AcDbBlockBegin
  2
*D9
 70
     1
 10
0.0
 20
0.0
 30
0.0
  3
*D9
  1

  0
LINE
  5
14FA6
330
14705
100
AcDbEntity
  8
寸法
 62
     0
 48
50.0
370
    -2
100
AcDbLine
 10
2427.869964974296
 20
7921.915759734051
 30
0.0
 11
2427.869964974296
 21
8301.559557026321
 31
0.0
  0
LINE
  5
14FA7
330
14705
100
AcDbEntity
  8
寸法
 62
     0
 48
50.0
370
    -2
100
AcDbLine
 10
5757.862646115602
 20
7921.447238448386
 30
0.0
 11
5757.862646115602
 21
8301.559557026321
 31
0.0
  0
LINE
  5
14FA8
330
14705
100
AcDbEntity
  8
寸法
 62
     0
 48
50.0
370
    -2
100
AcDbLine
 10
2427.869964974296
 20
8256.559557026321
 30
0.0
 11
5757.862646115602
 21
8256.559557026321
 31
0.0
  0
INSERT
  5
14FA9
330
14705
100
AcDbEntity
  8
寸法
 62
     0
 48
50.0
370
    -2
100
AcDbBlockReference
  2
_DOTSMALL
 10
2427.869964974296
 20
8256.559557026321
 30
0.0
 41
75.0
 42
75.0
 43
75.0
 50
180.0
  0
INSERT
  5
14FAA
330
14705
100
AcDbEntity
  8
寸法
 62
     0
 48
50.0
370
    -2
100
AcDbBlockReference
  2
_DOTSMALL
 10
5757.862646115602
 20
8256.559557026321
 30
0.0
 41
75.0
 42
75.0
 43
75.0
  0
MTEXT
  5
14FAB
330
14705
100
AcDbEntity
  8
寸法
 62
     7
 48
50.0
100
AcDbMText
 10
4092.866305544949
 20
8331.559557026322
 30
0.0
 40
90.0
 41
0.0
 71
     5
 72
     1
  1
\A1;3330
  7
STYLE1
 73
     1
 44
1.0
1001
ACAD
1000
MTEXTBEGIN
1070
    73
1070
     1
1070
    44
1040
1.0
1070
    74
1070
     0
1000
MTEXTEND
  0
POINT
  5
14FAC
330
14705
100
AcDbEntity
  8
DEFPOINTS
 62
     0
 48
50.0
100
AcDbPoint
 10
2427.869964974296
 20
7906.915759734051
 30
0.0
  0
POINT
  5
14FAD
330
14705
100
AcDbEntity
  8
DEFPOINTS
 62
     0
 48
50.0
100
AcDbPoint
 10
5757.862646115602
 20
7906.447238448385
 30
0.0
  0
POINT
  5
14FAE
330
14705
100
AcDbEntity
  8
DEFPOINTS
 62
     0
 48
50.0
100
AcDbPoint
 10
5757.862646115602
 20
8256.559557026321
 30
0.0
  0
ENDBLK
  5
1471C
330
14705
100
AcDbEntity
  8
0
 48
50.0
100
AcDbBlockEnd
  0
BLOCK
  5
14875
330
14874
100
AcDbEntity
  8
0
 48
50.0
100
AcDbBlockBegin
  2
A$C644A28E3
 70
     0
 10
0.0
 20
0.0
 30
0.0
  3
A$C644A28E3
  1

  0
ARC
  5
14876
330
14874
100
AcDbEntity
  8
部品1
 48
50.0
100
AcDbCircle
 10
53.99999260842742
 20
10.0000017156417
 30
0.0
 40
10.0
100
AcDbArc
 50
270.0000000000021
 51
0.0
  0
ARC
  5
14877
330
14874
100
AcDbEntity
  8
部品1
 48
50.0
100
AcDbCircle
 10
9.999992608427419
 20
10.00000171563806
 30
0.0
 40
10.0
100
AcDbArc
 50
180.0
 51
270.0000000000009
  0
LINE
  5
14878
330
14874
100
AcDbEntity
  8
部品1
 48
50.0
100
AcDbLine
 10
9.999992608427419
 20
0.0000017156380636
 30
0.0
 11
53.99999260842742
 21
0.0000017156417016
 31
0.0
  0
LINE
  5
14879
330
14874
100
AcDbEntity
  8
部品1
 48
50.0
100
AcDbLine
 10
63.99999260842742
 20
45.00000171563806
 30
0.0
 11
63.99999260842742
 21
10.0000017156417
 31
0.0
  0
LINE
  5
1487A
330
14874
100
AcDbEntity
  8
部品1
 48
50.0
100
AcDbLine
 10
-0.0000073915725807
 20
45.00000171563806
 30
0.0
 11
-0.0000073915725807
 21
10.00000171563806
 31
0.0
  0
ENDBLK
  5
1487B
330
14874
100
AcDbEntity
  8
0
 48
50.0
100
AcDbBlockEnd
  0
BLOCK
  5
1533D
330
1533C
100
AcDbEntity
  8
0
 48
50.0
100
AcDbBlockBegin
  2
*D11
 70
     1
 10
0.0
 20
0.0
 30
0.0
  3
*D11
  1

  0
LINE
  5
15388
330
1533C
100
AcDbEntity
  8
寸法
 62
     0
 48
50.0
370
    -2
100
AcDbLine
 10
7601.151666754791
 20
4082.038116080247
 30
0.0
 11
7262.13524649577
 21
4095.598772890609
 31
0.0
  0
LINE
  5
15389
330
1533C
100
AcDbEntity
  8
寸法
 62
     0
 48
50.0
370
    -2
100
AcDbLine
 10
7621.383492559295
 20
3977.646076141596
 30
0.0
 11
7257.998554526662
 21
3992.181473662901
 31
0.0
  0
LINE
  5
1538A
330
1533C
100
AcDbEntity
  8
寸法
 62
     0
 48
50.0
370
    -2
100
AcDbLine
 10
7307.099289638251
 20
4093.800211164909
 30
0.0
 11
7302.962597669142
 21
3990.382911937202
 31
0.0
  0
MTEXT
  5
1538B
330
1533C
100
AcDbEntity
  8
寸法
 62
     7
 48
50.0
100
AcDbMText
 10
7230.090871749563
 20
4055.937868106011
 30
0.0
 40
90.0
 41
0.0
 71
     5
 72
     1
  1
\A1;103.5
  7
STYLE1
 11
0.0399680383488711
 21
0.9992009587217895
 31
0.0
 73
     1
 44
1.0
1001
ACAD
1000
MTEXTBEGIN
1070
    73
1070
     1
1070
    44
1040
1.0
1070
    74
1070
     0
1000
MTEXTEND
  0
INSERT
  5
1538C
330
1533C
100
AcDbEntity
  8
寸法
 62
     0
 48
50.0
370
    -2
100
AcDbBlockReference
  2
_DOTSMALL
 10
7307.099289638251
 20
4093.800211164909
 30
0.0
 41
75.0
 42
75.0
 43
75.0
 50
87.70938995736154
  0
INSERT
  5
1538D
330
1533C
100
AcDbEntity
  8
寸法
 62
     0
 48
50.0
370
    -2
100
AcDbBlockReference
  2
_DOTSMALL
 10
7302.962597669142
 20
3990.382911937202
 30
0.0
 41
75.0
 42
75.0
 43
75.0
 50
267.7093899573615
  0
POINT
  5
1538E
330
1533C
100
AcDbEntity
  8
DEFPOINTS
 62
     0
 48
50.0
100
AcDbPoint
 10
7616.139681135618
 20
4081.438595505012
 30
0.0
  0
POINT
  5
1538F
330
1533C
100
AcDbEntity
  8
DEFPOINTS
 62
     0
 48
50.0
100
AcDbPoint
 10
7636.371506940122
 20
3977.046555566361
 30
0.0
  0
POINT
  5
15390
330
1533C
100
AcDbEntity
  8
DEFPOINTS
 62
     0
 48
50.0
100
AcDbPoint
 10
7302.962597669143
 20
3990.3829119372
 30
0.0
  0
ENDBLK
  5
1533E
330
1533C
100
AcDbEntity
  8
0
 48
50.0
100
AcDbBlockEnd
  0
BLOCK
  5
15349
330
15348
100
AcDbEntity
  8
0
 48
50.0
100
AcDbBlockBegin
  2
*D12
 70
     1
 10
0.0
 20
0.0
 30
0.0
  3
*D12
  1

  0
LINE
  5
15391
330
15348
100
AcDbEntity
  8
寸法
 62
     0
 48
50.0
370
    -2
100
AcDbLine
 10
7600.540160560369
 20
4081.450581124187
 30
0.0
 11
7600.540160560369
 21
4951.270106075114
 31
0.0
  0
LINE
  5
15392
330
15348
100
AcDbEntity
  8
寸法
 62
     0
 48
50.0
370
    -2
100
AcDbLine
 10
9600.54016056037
 20
4002.650581124186
 30
0.0
 11
9600.54016056037
 21
4951.270106075114
 31
0.0
  0
LINE
  5
15393
330
15348
100
AcDbEntity
  8
寸法
 62
     0
 48
50.0
370
    -2
100
AcDbLine
 10
7600.540160560369
 20
4906.270106075113
 30
0.0
 11
9600.54016056037
 21
4906.270106075113
 31
0.0
  0
INSERT
  5
15394
330
15348
100
AcDbEntity
  8
寸法
 62
     0
 48
50.0
370
    -2
100
AcDbBlockReference
  2
_DOTSMALL
 10
7600.540160560369
 20
4906.270106075113
 30
0.0
 41
75.0
 42
75.0
 43
75.0
 50
180.0
  0
INSERT
  5
15395
330
15348
100
AcDbEntity
  8
寸法
 62
     0
 48
50.0
370
    -2
100
AcDbBlockReference
  2
_DOTSMALL
 10
9600.54016056037
 20
4906.270106075113
 30
0.0
 41
75.0
 42
75.0
 43
75.0
  0
MTEXT
  5
15396
330
15348
100
AcDbEntity
  8
寸法
 62
     7
 48
50.0
100
AcDbMText
 10
8600.540160560369
 20
4981.27896434283
 30
0.0
 40
90.0
 41
0.0
 71
     5
 72
     1
  1
\A1;2000
  7
STYLE1
 73
     1
 44
1.0
1001
ACAD
1000
MTEXTBEGIN
1070
    73
1070
     1
1070
    44
1040
1.0
1070
    74
1070
     0
1000
MTEXTEND
  0
POINT
  5
15397
330
15348
100
AcDbEntity
  8
DEFPOINTS
 62
     0
 48
50.0
100
AcDbPoint
 10
7600.540160560369
 20
4066.450581124187
 30
0.0
  0
POINT
  5
15398
330
15348
100
AcDbEntity
  8
DEFPOINTS
 62
     0
 48
50.0
100
AcDbPoint
 10
9600.54016056037
 20
3987.650581124186
 30
0.0
  0
POINT
  5
15399
330
15348
100
AcDbEntity
  8
DEFPOINTS
 62
     0
 48
50.0
100
AcDbPoint
 10
9600.54016056037
 20
4906.270106075113
 30
0.0
  0
ENDBLK
  5
1534A
330
15348
100
AcDbEntity
  8
0
 48
50.0
100
AcDbBlockEnd
  0
BLOCK
  5
15355
330
15354
100
AcDbEntity
  8
0
 48
50.0
100
AcDbBlockBegin
  2
*D13
 70
     1
 10
0.0
 20
0.0
 30
0.0
  3
*D13
  1

  0
LINE
  5
1539A
330
15354
100
AcDbEntity
  8
寸法
 62
     0
 48
50.0
370
    -2
100
AcDbLine
 10
7585.540160560369
 20
4082.062576328023
 30
0.0
 11
6947.665052100015
 21
4082.062576328024
 31
0.0
  0
LINE
  5
1539B
330
15354
100
AcDbEntity
  8
寸法
 62
     0
 48
50.0
370
    -2
100
AcDbLine
 10
7585.540160560369
 20
1880.562576328022
 30
0.0
 11
6947.665052100015
 21
1880.562576328022
 31
0.0
  0
LINE
  5
1539C
330
15354
100
AcDbEntity
  8
寸法
 62
     0
 48
50.0
370
    -2
100
AcDbLine
 10
6992.665052100015
 20
4082.062576328024
 30
0.0
 11
6992.665052100015
 21
1880.562576328022
 31
0.0
  0
INSERT
  5
1539D
330
15354
100
AcDbEntity
  8
寸法
 62
     0
 48
50.0
370
    -2
100
AcDbBlockReference
  2
_DOTSMALL
 10
6992.665052100015
 20
4082.062576328024
 30
0.0
 41
75.0
 42
75.0
 43
75.0
 50
90.0
  0
INSERT
  5
1539E
330
15354
100
AcDbEntity
  8
寸法
 62
     0
 48
50.0
370
    -2
100
AcDbBlockReference
  2
_DOTSMALL
 10
6992.665052100015
 20
1880.562576328022
 30
0.0
 41
75.0
 42
75.0
 43
75.0
 50
270.0
  0
MTEXT
  5
1539F
330
15354
100
AcDbEntity
  8
寸法
 62
     7
 48
50.0
100
AcDbMText
 10
6917.656193832299
 20
2981.312576328022
 30
0.0
 40
90.0
 41
0.0
 71
     5
 72
     1
  1
\A1;2201.5
  7
STYLE1
 11
0.0000000000000001
 21
1.0
 31
0.0
 73
     1
 44
1.0
1001
ACAD
1000
MTEXTBEGIN
1070
    73
1070
     1
1070
    44
1040
1.0
1070
    74
1070
     0
1000
MTEXTEND
  0
POINT
  5
153A0
330
15354
100
AcDbEntity
  8
DEFPOINTS
 62
     0
 48
50.0
100
AcDbPoint
 10
7600.540160560369
 20
4082.062576328023
 30
0.0
  0
POINT
  5
153A1
330
15354
100
AcDbEntity
  8
DEFPOINTS
 62
     0
 48
50.0
100
AcDbPoint
 10
7600.540160560369
 20
1880.562576328022
 30
0.0
  0
POINT
  5
153A2
330
15354
100
AcDbEntity
  8
DEFPOINTS
 62
     0
 48
50.0
100
AcDbPoint
 10
6992.665052100015
 20
1880.562576328022
 30
0.0
  0
ENDBLK
  5
15356
330
15354
100
AcDbEntity
  8
0
 48
50.0
100
AcDbBlockEnd
  0
BLOCK
  5
15361
330
15360
100
AcDbEntity
  8
0
 48
50.0
100
AcDbBlockBegin
  2
*D14
 70
     1
 10
0.0
 20
0.0
 30
0.0
  3
*D14
  1

  0
LINE
  5
153A3
330
15360
100
AcDbEntity
  8
寸法
 62
     0
 48
50.0
370
    -2
100
AcDbLine
 10
9900.080903689833
 20
1880.562576328022
 30
0.0
 11
10021.17761303496
 21
1880.562576328022
 31
0.0
  0
LINE
  5
153A4
330
15360
100
AcDbEntity
  8
寸法
 62
     0
 48
50.0
370
    -2
100
AcDbLine
 10
9615.540160560371
 20
4002.650581124186
 30
0.0
 11
10021.17761303496
 21
4002.650581124186
 31
0.0
  0
LINE
  5
153A5
330
15360
100
AcDbEntity
  8
寸法
 62
     0
 48
50.0
370
    -2
100
AcDbLine
 10
9976.177613034964
 20
1880.562576328022
 30
0.0
 11
9976.177613034964
 21
4002.650581124186
 31
0.0
  0
INSERT
  5
153A6
330
15360
100
AcDbEntity
  8
寸法
 62
     0
 48
50.0
370
    -2
100
AcDbBlockReference
  2
_DOTSMALL
 10
9976.177613034964
 20
1880.562576328022
 30
0.0
 41
75.0
 42
75.0
 43
75.0
 50
270.0
  0
INSERT
  5
153A7
330
15360
100
AcDbEntity
  8
寸法
 62
     0
 48
50.0
370
    -2
100
AcDbBlockReference
  2
_DOTSMALL
 10
9976.177613034964
 20
4002.650581124186
 30
0.0
 41
75.0
 42
75.0
 43
75.0
 50
90.0
  0
MTEXT
  5
153A8
330
15360
100
AcDbEntity
  8
寸法
 62
     7
 48
50.0
100
AcDbMText
 10
9901.168754767248
 20
2991.672581441367
 30
0.0
 40
90.0
 41
0.0
 71
     5
 72
     1
  1
\A1;2121.5
  7
STYLE1
 11
0.0000000000000001
 21
1.0
 31
0.0
 73
     1
 44
1.0
1001
ACAD
1000
MTEXTBEGIN
1070
    73
1070
     1
1070
    44
1040
1.0
1070
    74
1070
     0
1000
MTEXTEND
  0
POINT
  5
153A9
330
15360
100
AcDbEntity
  8
DEFPOINTS
 62
     0
 48
50.0
100
AcDbPoint
 10
9885.080903689832
 20
1880.562576328022
 30
0.0
  0
POINT
  5
153AA
330
15360
100
AcDbEntity
  8
DEFPOINTS
 62
     0
 48
50.0
100
AcDbPoint
 10
9600.54016056037
 20
4002.650581124186
 30
0.0
  0
POINT
  5
153AB
330
15360
100
AcDbEntity
  8
DEFPOINTS
 62
     0
 48
50.0
100
AcDbPoint
 10
9976.177613034964
 20
4002.650581124186
 30
0.0
  0
ENDBLK
  5
15362
330
15360
100
AcDbEntity
  8
0
 48
50.0
100
AcDbBlockEnd
  0
BLOCK
  5
1536D
330
1536C
100
AcDbEntity
  8
0
 48
50.0
100
AcDbBlockBegin
  2
*D15
 70
     1
 10
0.0
 20
0.0
 30
0.0
  3
*D15
  1

  0
LINE
  5
153AC
330
1536C
100
AcDbEntity
  8
寸法
 62
     0
 48
50.0
370
    -2
100
AcDbLine
 10
7585.540160560369
 20
1830.562576328022
 30
0.0
 11
6947.665052100015
 21
1830.562576328022
 31
0.0
  0
LINE
  5
153AD
330
1536C
100
AcDbEntity
  8
寸法
 62
     0
 48
50.0
370
    -2
100
AcDbLine
 10
8540.54016056037
 20
1880.562576328022
 30
0.0
 11
6947.665052100015
 21
1880.562576328022
 31
0.0
  0
LINE
  5
153AE
330
1536C
100
AcDbEntity
  8
寸法
 62
     0
 48
50.0
370
    -2
100
AcDbLine
 10
6992.665052100015
 20
1880.562576328022
 30
0.0
 11
6992.665052100015
 21
1955.562576328022
 31
0.0
  0
LINE
  5
153AF
330
1536C
100
AcDbEntity
  8
寸法
 62
     0
 48
50.0
370
    -2
100
AcDbLine
 10
6992.665052100015
 20
1830.562576328022
 30
0.0
 11
6992.665052100015
 21
1521.491710186289
 31
0.0
  0
LINE
  5
153B0
330
1536C
100
AcDbEntity
  8
寸法
 62
     0
 48
50.0
370
    -2
100
AcDbLine
 10
6992.665052100015
 20
1880.562576328022
 30
0.0
 11
6992.665052100015
 21
1830.562576328022
 31
0.0
  0
INSERT
  5
153B1
330
1536C
100
AcDbEntity
  8
寸法
 62
     0
 48
50.0
370
    -2
100
AcDbBlockReference
  2
_DOTSMALL
 10
6992.665052100015
 20
1880.562576328022
 30
0.0
 41
75.0
 42
75.0
 43
75.0
 50
270.0
  0
INSERT
  5
153B2
330
1536C
100
AcDbEntity
  8
寸法
 62
     0
 48
50.0
370
    -2
100
AcDbBlockReference
  2
_DOTSMALL
 10
6992.665052100015
 20
1830.562576328022
 30
0.0
 41
75.0
 42
75.0
 43
75.0
 50
90.0
  0
MTEXT
  5
153B3
330
1536C
100
AcDbEntity
  8
寸法
 62
     7
 48
50.0
100
AcDbMText
 10
6917.665052100016
 20
1601.027143257156
 30
0.0
 40
90.0
 41
0.0
 71
     5
 72
     1
  1
\A1;50
  7
STYLE1
 11
0.0000000000000001
 21
1.0
 31
0.0
 73
     1
 44
1.0
1001
ACAD
1000
MTEXTBEGIN
1070
    73
1070
     1
1070
    44
1040
1.0
1070
    74
1070
     0
1000
MTEXTEND
  0
POINT
  5
153B4
330
1536C
100
AcDbEntity
  8
DEFPOINTS
 62
     0
 48
50.0
100
AcDbPoint
 10
7600.540160560369
 20
1830.562576328022
 30
0.0
  0
POINT
  5
153B5
330
1536C
100
AcDbEntity
  8
DEFPOINTS
 62
     0
 48
50.0
100
AcDbPoint
 10
8555.540160560369
 20
1880.562576328022
 30
0.0
  0
POINT
  5
153B6
330
1536C
100
AcDbEntity
  8
DEFPOINTS
 62
     0
 48
50.0
100
AcDbPoint
 10
6992.665052100015
 20
1880.562576328022
 30
0.0
  0
ENDBLK
  5
1536E
330
1536C
100
AcDbEntity
  8
0
 48
50.0
100
AcDbBlockEnd
  0
BLOCK
  5
1537B
330
1537A
100
AcDbEntity
  8
0
 48
50.0
100
AcDbBlockBegin
  2
*D16
 70
     1
 10
0.0
 20
0.0
 30
0.0
  3
*D16
  1

  0
LINE
  5
153B7
330
1537A
100
AcDbEntity
  8
寸法
 62
     0
 48
50.0
370
    -2
100
AcDbLine
 10
8660.540160560369
 20
1880.562576328022
 30
0.0
 11
10021.17761303496
 21
1880.562576328022
 31
0.0
  0
LINE
  5
153B8
330
1537A
100
AcDbEntity
  8
寸法
 62
     0
 48
50.0
370
    -2
100
AcDbLine
 10
9615.540160560371
 20
1830.562576328022
 30
0.0
 11
10021.17761303496
 21
1830.562576328022
 31
0.0
  0
LINE
  5
153B9
330
1537A
100
AcDbEntity
  8
寸法
 62
     0
 48
50.0
370
    -2
100
AcDbLine
 10
9976.177613034964
 20
1880.562576328022
 30
0.0
 11
9976.177613034964
 21
1955.562576328022
 31
0.0
  0
LINE
  5
153BA
330
1537A
100
AcDbEntity
  8
寸法
 62
     0
 48
50.0
370
    -2
100
AcDbLine
 10
9976.177613034964
 20
1830.562576328022
 30
0.0
 11
9976.177613034964
 21
1521.491710186288
 31
0.0
  0
LINE
  5
153BB
330
1537A
100
AcDbEntity
  8
寸法
 62
     0
 48
50.0
370
    -2
100
AcDbLine
 10
9976.177613034964
 20
1880.562576328022
 30
0.0
 11
9976.177613034964
 21
1830.562576328022
 31
0.0
  0
INSERT
  5
153BC
330
1537A
100
AcDbEntity
  8
寸法
 62
     0
 48
50.0
370
    -2
100
AcDbBlockReference
  2
_DOTSMALL
 10
9976.177613034964
 20
1880.562576328022
 30
0.0
 41
75.0
 42
75.0
 43
75.0
 50
270.0
  0
INSERT
  5
153BD
330
1537A
100
AcDbEntity
  8
寸法
 62
     0
 48
50.0
370
    -2
100
AcDbBlockReference
  2
_DOTSMALL
 10
9976.177613034964
 20
1830.562576328022
 30
0.0
 41
75.0
 42
75.0
 43
75.0
 50
90.0
  0
MTEXT
  5
153BE
330
1537A
100
AcDbEntity
  8
寸法
 62
     7
 48
50.0
100
AcDbMText
 10
9901.177613034965
 20
1601.027143257155
 30
0.0
 40
90.0
 41
0.0
 71
     5
 72
     1
  1
\A1;50
  7
STYLE1
 11
0.0000000000000001
 21
1.0
 31
0.0
 73
     1
 44
1.0
1001
ACAD
1000
MTEXTBEGIN
1070
    73
1070
     1
1070
    44
1040
1.0
1070
    74
1070
     0
1000
MTEXTEND
  0
POINT
  5
153BF
330
1537A
100
AcDbEntity
  8
DEFPOINTS
 62
     0
 48
50.0
100
AcDbPoint
 10
8645.54016056037
 20
1880.562576328022
 30
0.0
  0
POINT
  5
153C0
330
1537A
100
AcDbEntity
  8
DEFPOINTS
 62
     0
 48
50.0
100
AcDbPoint
 10
9600.54016056037
 20
1830.562576328022
 30
0.0
  0
POINT
  5
153C1
330
1537A
100
AcDbEntity
  8
DEFPOINTS
 62
     0
 48
50.0
100
AcDbPoint
 10
9976.177613034964
 20
1830.562576328022
 30
0.0
  0
ENDBLK
  5
1537C
330
1537A
100
AcDbEntity
  8
0
 48
50.0
100
AcDbBlockEnd
  0
BLOCK
  5
153C3
330
153C2
100
AcDbEntity
  8
0
 48
50.0
100
AcDbBlockBegin
  2
*D17
 70
     1
 10
0.0
 20
0.0
 30
0.0
  3
*D17
  1

  0
LINE
  5
153C4
330
153C2
100
AcDbEntity
  8
寸法
 62
     0
 48
50.0
370
    -2
100
AcDbLine
 10
3097.862646115603
 20
1695.562576328023
 30
0.0
 11
3097.862646115603
 21
1469.610538984618
 31
0.0
  0
LINE
  5
153C5
330
153C2
100
AcDbEntity
  8
寸法
 62
     0
 48
50.0
370
    -2
100
AcDbLine
 10
5507.862646115605
 20
1695.562576328022
 30
0.0
 11
5507.862646115605
 21
1469.610538984618
 31
0.0
  0
LINE
  5
153C6
330
153C2
100
AcDbEntity
  8
寸法
 62
     0
 48
50.0
370
    -2
100
AcDbLine
 10
3097.862646115603
 20
1514.610538984618
 30
0.0
 11
5507.862646115605
 21
1514.610538984618
 31
0.0
  0
INSERT
  5
153C7
330
153C2
100
AcDbEntity
  8
寸法
 62
     0
 48
50.0
370
    -2
100
AcDbBlockReference
  2
_DOTSMALL
 10
3097.862646115603
 20
1514.610538984618
 30
0.0
 41
75.0
 42
75.0
 43
75.0
 50
180.0
  0
INSERT
  5
153C8
330
153C2
100
AcDbEntity
  8
寸法
 62
     0
 48
50.0
370
    -2
100
AcDbBlockReference
  2
_DOTSMALL
 10
5507.862646115605
 20
1514.610538984618
 30
0.0
 41
75.0
 42
75.0
 43
75.0
  0
MTEXT
  5
153C9
330
153C2
100
AcDbEntity
  8
寸法
 62
     7
 48
50.0
100
AcDbMText
 10
4302.862646115603
 20
1589.619397252334
 30
0.0
 40
90.0
 41
0.0
 71
     5
 72
     1
  1
\A1;2410
  7
STYLE1
 73
     1
 44
1.0
1001
ACAD
1000
MTEXTBEGIN
1070
    73
1070
     1
1070
    44
1040
1.0
1070
    74
1070
     0
1000
MTEXTEND
  0
POINT
  5
153CA
330
153C2
100
AcDbEntity
  8
DEFPOINTS
 62
     0
 48
50.0
100
AcDbPoint
 10
3097.862646115603
 20
1710.562576328024
 30
0.0
  0
POINT
  5
153CB
330
153C2
100
AcDbEntity
  8
DEFPOINTS
 62
     0
 48
50.0
100
AcDbPoint
 10
5507.862646115605
 20
1710.562576328022
 30
0.0
  0
POINT
  5
153CC
330
153C2
100
AcDbEntity
  8
DEFPOINTS
 62
     0
 48
50.0
100
AcDbPoint
 10
5507.862646115605
 20
1514.610538984618
 30
0.0
  0
ENDBLK
  5
153CD
330
153C2
100
AcDbEntity
  8
0
 48
50.0
100
AcDbBlockEnd
  0
BLOCK
  5
153CF
330
153CE
100
AcDbEntity
  8
0
 48
50.0
100
AcDbBlockBegin
  2
*D18
 70
     1
 10
0.0
 20
0.0
 30
0.0
  3
*D18
  1

  0
LINE
  5
153D0
330
153CE
100
AcDbEntity
  8
寸法
 62
     0
 48
50.0
370
    -2
100
AcDbLine
 10
7601.151666754791
 20
4082.038116080247
 30
0.0
 11
7262.13524649577
 21
4095.598772890609
 31
0.0
  0
LINE
  5
153D1
330
153CE
100
AcDbEntity
  8
寸法
 62
     0
 48
50.0
370
    -2
100
AcDbLine
 10
7621.383492559295
 20
3977.646076141596
 30
0.0
 11
7257.998554526661
 21
3992.181473662901
 31
0.0
  0
LINE
  5
153D2
330
153CE
100
AcDbEntity
  8
寸法
 62
     0
 48
50.0
370
    -2
100
AcDbLine
 10
7307.099289638249
 20
4093.800211164909
 30
0.0
 11
7302.962597669142
 21
3990.382911937202
 31
0.0
  0
MTEXT
  5
153D3
330
153CE
100
AcDbEntity
  8
寸法
 62
     7
 48
50.0
100
AcDbMText
 10
7230.090871749563
 20
4055.937868106011
 30
0.0
 40
90.0
 41
0.0
 71
     5
 72
     1
  1
\A1;103.5
  7
STYLE1
 11
0.0399680383488711
 21
0.9992009587217895
 31
0.0
 73
     1
 44
1.0
1001
ACAD
1000
MTEXTBEGIN
1070
    73
1070
     1
1070
    44
1040
1.0
1070
    74
1070
     0
1000
MTEXTEND
  0
INSERT
  5
153D4
330
153CE
100
AcDbEntity
  8
寸法
 62
     0
 48
50.0
370
    -2
100
AcDbBlockReference
  2
_DOTSMALL
 10
7307.099289638249
 20
4093.800211164909
 30
0.0
 41
75.0
 42
75.0
 43
75.0
 50
87.70938995736154
  0
INSERT
  5
153D5
330
153CE
100
AcDbEntity
  8
寸法
 62
     0
 48
50.0
370
    -2
100
AcDbBlockReference
  2
_DOTSMALL
 10
7302.962597669142
 20
3990.382911937202
 30
0.0
 41
75.0
 42
75.0
 43
75.0
 50
267.7093899573615
  0
POINT
  5
153D6
330
153CE
100
AcDbEntity
  8
DEFPOINTS
 62
     0
 48
50.0
100
AcDbPoint
 10
7616.139681135618
 20
4081.438595505012
 30
0.0
  0
POINT
  5
153D7
330
153CE
100
AcDbEntity
  8
DEFPOINTS
 62
     0
 48
50.0
100
AcDbPoint
 10
7636.371506940122
 20
3977.046555566361
 30
0.0
  0
POINT
  5
153D8
330
153CE
100
AcDbEntity
  8
DEFPOINTS
 62
     0
 48
50.0
100
AcDbPoint
 10
7302.962597669142
 20
3990.3829119372
 30
0.0
  0
ENDBLK
  5
153D9
330
153CE
100
AcDbEntity
  8
0
 48
50.0
100
AcDbBlockEnd
  0
BLOCK
  5
153DB
330
153DA
100
AcDbEntity
  8
0
 48
50.0
100
AcDbBlockBegin
  2
*D19
 70
     1
 10
0.0
 20
0.0
 30
0.0
  3
*D19
  1

  0
LINE
  5
153DC
330
153DA
100
AcDbEntity
  8
0
  6
ByBlock
 62
     0
 48
50.0
100
AcDbLine
 10
10199.1662998724
 20
5342.367498923766
 30
0.0
 11
10199.1662998724
 21
6212.187023874692
 31
0.0
  0
LINE
  5
153DD
330
153DA
100
AcDbEntity
  8
0
  6
ByBlock
 62
     0
 48
50.0
100
AcDbLine
 10
12199.1662998724
 20
5263.567498923765
 30
0.0
 11
12199.1662998724
 21
6212.187023874692
 31
0.0
  0
LINE
  5
153DE
330
153DA
100
AcDbEntity
  8
0
  6
ByBlock
 62
     0
 48
50.0
100
AcDbLine
 10
10199.1662998724
 20
6167.187023874692
 30
0.0
 11
12199.1662998724
 21
6167.187023874692
 31
0.0
  0
INSERT
  5
153DF
330
153DA
100
AcDbEntity
  8
0
  6
ByBlock
 62
     0
 48
50.0
100
AcDbBlockReference
  2
_DOTSMALL
 10
10199.1662998724
 20
6167.187023874692
 30
0.0
 41
75.0
 42
75.0
 43
75.0
 50
180.0
  0
INSERT
  5
153E0
330
153DA
100
AcDbEntity
  8
0
  6
ByBlock
 62
     0
 48
50.0
100
AcDbBlockReference
  2
_DOTSMALL
 10
12199.1662998724
 20
6167.187023874692
 30
0.0
 41
75.0
 42
75.0
 43
75.0
  0
MTEXT
  5
153E1
330
153DA
100
AcDbEntity
  8
0
  6
ByBlock
 62
     7
 48
50.0
100
AcDbMText
 10
11199.1662998724
 20
6242.195882142409
 30
0.0
 40
90.0
 41
0.0
 71
     5
 72
     1
  1
\A1;2000
  7
STYLE1
 73
     1
 44
1.0
1001
ACAD
1000
MTEXTBEGIN
1070
    73
1070
     1
1070
    44
1040
1.0
1070
    74
1070
     0
1000
MTEXTEND
  0
POINT
  5
153E2
330
153DA
100
AcDbEntity
  8
DEFPOINTS
  6
ByBlock
 62
     0
 48
50.0
100
AcDbPoint
 10
10199.1662998724
 20
5327.367498923766
 30
0.0
  0
POINT
  5
153E3
330
153DA
100
AcDbEntity
  8
DEFPOINTS
  6
ByBlock
 62
     0
 48
50.0
100
AcDbPoint
 10
12199.1662998724
 20
5248.567498923765
 30
0.0
  0
POINT
  5
153E4
330
153DA
100
AcDbEntity
  8
DEFPOINTS
  6
ByBlock
 62
     0
 48
50.0
100
AcDbPoint
 10
12199.1662998724
 20
6167.187023874692
 30
0.0
  0
ENDBLK
  5
153E5
330
153DA
100
AcDbEntity
  8
0
 48
50.0
100
AcDbBlockEnd
  0
BLOCK
  5
153E7
330
153E6
100
AcDbEntity
  8
0
 48
50.0
100
AcDbBlockBegin
  2
*D20
 70
     1
 10
0.0
 20
0.0
 30
0.0
  3
*D20
  1

  0
LINE
  5
153E8
330
153E6
100
AcDbEntity
  8
0
  6
ByBlock
 62
     0
 48
50.0
100
AcDbLine
 10
9100.103549311356
 20
4082.062576328023
 30
0.0
 11
8462.228440851003
 21
4082.062576328023
 31
0.0
  0
LINE
  5
153E9
330
153E6
100
AcDbEntity
  8
0
  6
ByBlock
 62
     0
 48
50.0
100
AcDbLine
 10
9100.103549311356
 20
1880.562576328022
 30
0.0
 11
8462.228440851003
 21
1880.562576328022
 31
0.0
  0
LINE
  5
153EA
330
153E6
100
AcDbEntity
  8
0
  6
ByBlock
 62
     0
 48
50.0
100
AcDbLine
 10
8507.228440851003
 20
4082.062576328023
 30
0.0
 11
8507.228440851003
 21
1880.562576328022
 31
0.0
  0
INSERT
  5
153EB
330
153E6
100
AcDbEntity
  8
0
  6
ByBlock
 62
     0
 48
50.0
100
AcDbBlockReference
  2
_DOTSMALL
 10
8507.228440851003
 20
4082.062576328023
 30
0.0
 41
75.0
 42
75.0
 43
75.0
 50
90.0
  0
INSERT
  5
153EC
330
153E6
100
AcDbEntity
  8
0
  6
ByBlock
 62
     0
 48
50.0
100
AcDbBlockReference
  2
_DOTSMALL
 10
8507.228440851003
 20
1880.562576328022
 30
0.0
 41
75.0
 42
75.0
 43
75.0
 50
270.0
  0
MTEXT
  5
153ED
330
153E6
100
AcDbEntity
  8
0
  6
ByBlock
 62
     7
 48
50.0
100
AcDbMText
 10
8432.219582583286
 20
2981.312576328022
 30
0.0
 40
90.0
 41
0.0
 71
     5
 72
     1
  1
\A1;2201.5
  7
STYLE1
 11
0.0000000000000001
 21
1.0
 31
0.0
 73
     1
 44
1.0
1001
ACAD
1000
MTEXTBEGIN
1070
    73
1070
     1
1070
    44
1040
1.0
1070
    74
1070
     0
1000
MTEXTEND
  0
POINT
  5
153EE
330
153E6
100
AcDbEntity
  8
DEFPOINTS
  6
ByBlock
 62
     0
 48
50.0
100
AcDbPoint
 10
9115.103549311355
 20
4082.062576328023
 30
0.0
  0
POINT
  5
153EF
330
153E6
100
AcDbEntity
  8
DEFPOINTS
  6
ByBlock
 62
     0
 48
50.0
100
AcDbPoint
 10
9115.103549311355
 20
1880.562576328022
 30
0.0
  0
POINT
  5
153F0
330
153E6
100
AcDbEntity
  8
DEFPOINTS
  6
ByBlock
 62
     0
 48
50.0
100
AcDbPoint
 10
8507.228440851003
 20
1880.562576328022
 30
0.0
  0
ENDBLK
  5
153F1
330
153E6
100
AcDbEntity
  8
0
 48
50.0
100
AcDbBlockEnd
  0
BLOCK
  5
153F3
330
153F2
100
AcDbEntity
  8
0
 48
50.0
100
AcDbBlockBegin
  2
*D21
 70
     1
 10
0.0
 20
0.0
 30
0.0
  3
*D21
  1

  0
LINE
  5
153F4
330
153F2
100
AcDbEntity
  8
0
  6
ByBlock
 62
     0
 48
50.0
100
AcDbLine
 10
11414.64429244082
 20
1880.562576328022
 30
0.0
 11
11535.74100178595
 21
1880.562576328022
 31
0.0
  0
LINE
  5
153F5
330
153F2
100
AcDbEntity
  8
0
  6
ByBlock
 62
     0
 48
50.0
100
AcDbLine
 10
11130.10354931135
 20
4002.650581124186
 30
0.0
 11
11535.74100178595
 21
4002.650581124185
 31
0.0
  0
LINE
  5
153F6
330
153F2
100
AcDbEntity
  8
0
  6
ByBlock
 62
     0
 48
50.0
100
AcDbLine
 10
11490.74100178595
 20
1880.562576328022
 30
0.0
 11
11490.74100178595
 21
4002.650581124185
 31
0.0
  0
INSERT
  5
153F7
330
153F2
100
AcDbEntity
  8
0
  6
ByBlock
 62
     0
 48
50.0
100
AcDbBlockReference
  2
_DOTSMALL
 10
11490.74100178595
 20
1880.562576328022
 30
0.0
 41
75.0
 42
75.0
 43
75.0
 50
270.0
  0
INSERT
  5
153F8
330
153F2
100
AcDbEntity
  8
0
  6
ByBlock
 62
     0
 48
50.0
100
AcDbBlockReference
  2
_DOTSMALL
 10
11490.74100178595
 20
4002.650581124185
 30
0.0
 41
75.0
 42
75.0
 43
75.0
 50
90.0
  0
MTEXT
  5
153F9
330
153F2
100
AcDbEntity
  8
0
  6
ByBlock
 62
     7
 48
50.0
100
AcDbMText
 10
11415.73214351823
 20
2991.672581441367
 30
0.0
 40
90.0
 41
0.0
 71
     5
 72
     1
  1
\A1;2121.5
  7
STYLE1
 11
0.0000000000000001
 21
1.0
 31
0.0
 73
     1
 44
1.0
1001
ACAD
1000
MTEXTBEGIN
1070
    73
1070
     1
1070
    44
1040
1.0
1070
    74
1070
     0
1000
MTEXTEND
  0
POINT
  5
153FA
330
153F2
100
AcDbEntity
  8
DEFPOINTS
  6
ByBlock
 62
     0
 48
50.0
100
AcDbPoint
 10
11399.64429244082
 20
1880.562576328022
 30
0.0
  0
POINT
  5
153FB
330
153F2
100
AcDbEntity
  8
DEFPOINTS
  6
ByBlock
 62
     0
 48
50.0
100
AcDbPoint
 10
11115.10354931135
 20
4002.650581124186
 30
0.0
  0
POINT
  5
153FC
330
153F2
100
AcDbEntity
  8
DEFPOINTS
  6
ByBlock
 62
     0
 48
50.0
100
AcDbPoint
 10
11490.74100178595
 20
4002.650581124185
 30
0.0
  0
ENDBLK
  5
153FD
330
153F2
100
AcDbEntity
  8
0
 48
50.0
100
AcDbBlockEnd
  0
BLOCK
  5
153FF
330
153FE
100
AcDbEntity
  8
0
 48
50.0
100
AcDbBlockBegin
  2
*D22
 70
     1
 10
0.0
 20
0.0
 30
0.0
  3
*D22
  1

  0
LINE
  5
15400
330
153FE
100
AcDbEntity
  8
寸法
 62
     0
 48
50.0
370
    -2
100
AcDbLine
 10
7585.540160560369
 20
1830.562576328022
 30
0.0
 11
6947.665052100015
 21
1830.562576328022
 31
0.0
  0
LINE
  5
15401
330
153FE
100
AcDbEntity
  8
寸法
 62
     0
 48
50.0
370
    -2
100
AcDbLine
 10
8540.54016056037
 20
1880.562576328022
 30
0.0
 11
6947.665052100015
 21
1880.562576328022
 31
0.0
  0
LINE
  5
15402
330
153FE
100
AcDbEntity
  8
寸法
 62
     0
 48
50.0
370
    -2
100
AcDbLine
 10
6992.665052100015
 20
1880.562576328022
 30
0.0
 11
6992.665052100015
 21
1955.562576328022
 31
0.0
  0
LINE
  5
15403
330
153FE
100
AcDbEntity
  8
寸法
 62
     0
 48
50.0
370
    -2
100
AcDbLine
 10
6992.665052100015
 20
1830.562576328022
 30
0.0
 11
6992.665052100015
 21
1521.491710186289
 31
0.0
  0
LINE
  5
15404
330
153FE
100
AcDbEntity
  8
寸法
 62
     0
 48
50.0
370
    -2
100
AcDbLine
 10
6992.665052100015
 20
1880.562576328022
 30
0.0
 11
6992.665052100015
 21
1830.562576328022
 31
0.0
  0
INSERT
  5
15405
330
153FE
100
AcDbEntity
  8
寸法
 62
     0
 48
50.0
370
    -2
100
AcDbBlockReference
  2
_DOTSMALL
 10
6992.665052100015
 20
1880.562576328022
 30
0.0
 41
75.0
 42
75.0
 43
75.0
 50
270.0
  0
INSERT
  5
15406
330
153FE
100
AcDbEntity
  8
寸法
 62
     0
 48
50.0
370
    -2
100
AcDbBlockReference
  2
_DOTSMALL
 10
6992.665052100015
 20
1830.562576328022
 30
0.0
 41
75.0
 42
75.0
 43
75.0
 50
90.0
  0
MTEXT
  5
15407
330
153FE
100
AcDbEntity
  8
寸法
 62
     7
 48
50.0
100
AcDbMText
 10
6917.665052100016
 20
1601.027143257156
 30
0.0
 40
90.0
 41
0.0
 71
     5
 72
     1
  1
\A1;50
  7
STYLE1
 11
0.0000000000000001
 21
1.0
 31
0.0
 73
     1
 44
1.0
1001
ACAD
1000
MTEXTBEGIN
1070
    73
1070
     1
1070
    44
1040
1.0
1070
    74
1070
     0
1000
MTEXTEND
  0
POINT
  5
15408
330
153FE
100
AcDbEntity
  8
DEFPOINTS
 62
     0
 48
50.0
100
AcDbPoint
 10
7600.540160560369
 20
1830.562576328022
 30
0.0
  0
POINT
  5
15409
330
153FE
100
AcDbEntity
  8
DEFPOINTS
 62
     0
 48
50.0
100
AcDbPoint
 10
8555.540160560369
 20
1880.562576328022
 30
0.0
  0
POINT
  5
1540A
330
153FE
100
AcDbEntity
  8
DEFPOINTS
 62
     0
 48
50.0
100
AcDbPoint
 10
6992.665052100015
 20
1880.562576328022
 30
0.0
  0
ENDBLK
  5
1540B
330
153FE
100
AcDbEntity
  8
0
 48
50.0
100
AcDbBlockEnd
  0
BLOCK
  5
1540D
330
1540C
100
AcDbEntity
  8
0
 48
50.0
100
AcDbBlockBegin
  2
*D23
 70
     1
 10
0.0
 20
0.0
 30
0.0
  3
*D23
  1

  0
LINE
  5
1540E
330
1540C
100
AcDbEntity
  8
寸法
 62
     0
 48
50.0
370
    -2
100
AcDbLine
 10
8660.540160560369
 20
1880.562576328022
 30
0.0
 11
10021.17761303496
 21
1880.562576328022
 31
0.0
  0
LINE
  5
1540F
330
1540C
100
AcDbEntity
  8
寸法
 62
     0
 48
50.0
370
    -2
100
AcDbLine
 10
9615.540160560371
 20
1830.562576328022
 30
0.0
 11
10021.17761303496
 21
1830.562576328022
 31
0.0
  0
LINE
  5
15410
330
1540C
100
AcDbEntity
  8
寸法
 62
     0
 48
50.0
370
    -2
100
AcDbLine
 10
9976.177613034964
 20
1880.562576328022
 30
0.0
 11
9976.177613034964
 21
1955.562576328022
 31
0.0
  0
LINE
  5
15411
330
1540C
100
AcDbEntity
  8
寸法
 62
     0
 48
50.0
370
    -2
100
AcDbLine
 10
9976.177613034964
 20
1830.562576328022
 30
0.0
 11
9976.177613034964
 21
1521.491710186288
 31
0.0
  0
LINE
  5
15412
330
1540C
100
AcDbEntity
  8
寸法
 62
     0
 48
50.0
370
    -2
100
AcDbLine
 10
9976.177613034964
 20
1880.562576328022
 30
0.0
 11
9976.177613034964
 21
1830.562576328022
 31
0.0
  0
INSERT
  5
15413
330
1540C
100
AcDbEntity
  8
寸法
 62
     0
 48
50.0
370
    -2
100
AcDbBlockReference
  2
_DOTSMALL
 10
9976.177613034964
 20
1880.562576328022
 30
0.0
 41
75.0
 42
75.0
 43
75.0
 50
270.0
  0
INSERT
  5
15414
330
1540C
100
AcDbEntity
  8
寸法
 62
     0
 48
50.0
370
    -2
100
AcDbBlockReference
  2
_DOTSMALL
 10
9976.177613034964
 20
1830.562576328022
 30
0.0
 41
75.0
 42
75.0
 43
75.0
 50
90.0
  0
MTEXT
  5
15415
330
1540C
100
AcDbEntity
  8
寸法
 62
     7
 48
50.0
100
AcDbMText
 10
9901.177613034965
 20
1601.027143257156
 30
0.0
 40
90.0
 41
0.0
 71
     5
 72
     1
  1
\A1;50
  7
STYLE1
 11
0.0000000000000001
 21
1.0
 31
0.0
 73
     1
 44
1.0
1001
ACAD
1000
MTEXTBEGIN
1070
    73
1070
     1
1070
    44
1040
1.0
1070
    74
1070
     0
1000
MTEXTEND
  0
POINT
  5
15416
330
1540C
100
AcDbEntity
  8
DEFPOINTS
 62
     0
 48
50.0
100
AcDbPoint
 10
8645.54016056037
 20
1880.562576328022
 30
0.0
  0
POINT
  5
15417
330
1540C
100
AcDbEntity
  8
DEFPOINTS
 62
     0
 48
50.0
100
AcDbPoint
 10
9600.54016056037
 20
1830.562576328022
 30
0.0
  0
POINT
  5
15418
330
1540C
100
AcDbEntity
  8
DEFPOINTS
 62
     0
 48
50.0
100
AcDbPoint
 10
9976.177613034964
 20
1830.562576328022
 30
0.0
  0
ENDBLK
  5
15419
330
1540C
100
AcDbEntity
  8
0
 48
50.0
100
AcDbBlockEnd
  0
BLOCK
  5
15514
330
1541A
100
AcDbEntity
  8
0
 48
50.0
100
AcDbBlockBegin
  2
A$C1B6C4AC1
 70
     0
 10
0.0
 20
0.0
 30
0.0
  3
A$C1B6C4AC1
  1

  0
LWPOLYLINE
  5
1541B
330
1541A
100
AcDbEntity
  8
部品1
100
AcDbPolyline
 90
        4
 70
     1
 43
0.0
 10
856.379221369446
 20
-441.6758214041435
 10
1503.410596649971
 20
-441.6758214041435
 10
1503.410596649971
 20
-634.1959772212837
 10
856.379221369446
 20
-634.1959772212837
  0
TEXT
  5
1541C
330
1541A
100
AcDbEntity
  8
仕様書枠
 62
     7
 48
50.0
100
AcDbText
 10
887.7942981309752
 20
-595.5405457543244
 30
0.0
 40
112.0
  1
正 面 図
  7
STYLE2
100
AcDbText
  0
DIMENSION
  5
1541D
330
1541A
100
AcDbEntity
  8
寸法
 48
50.0
100
AcDbDimension
  2
*D17
 10
2365.000000000003
 20
-315.9520373434045
 30
0.0
 11
1160.000000000001
 21
-315.9520373434045
 31
0.0
 12
-3142.862646115603
 22
-1830.562576328022
 32
0.0
 70
   128
 71
     5
 42
2410.000000000003
  3
INABA_S30G
100
AcDbAlignedDimension
 13
-45.0
 23
-119.9999999999988
 33
0.0
 14
2365.000000000003
 24
-120.0000000000002
 34
0.0
100
AcDbRotatedDimension
  0
LWPOLYLINE
  5
1541E
330
1541A
100
AcDbEntity
  8
部品1
100
AcDbPolyline
 90
        4
 70
     1
 43
0.0
 10
5228.490928381418
 20
-496.0278208756728
 10
5875.522303661945
 20
-496.0278208756728
 10
5875.522303661945
 20
-688.547976692813
 10
5228.490928381418
 20
-688.547976692813
  0
TEXT
  5
1541F
330
1541A
100
AcDbEntity
  8
仕様書枠
 62
     7
 48
50.0
100
AcDbText
 10
5259.90600514295
 20
-649.8925452258547
 30
0.0
 40
112.0
  1
側 面 図
  7
STYLE2
100
AcDbText
  0
DIMENSION
  5
15420
330
1541A
100
AcDbEntity
  8
寸法
 48
50.0
100
AcDbDimension
  2
*D18
 10
4160.099951553539
 20
2159.820335609177
 30
0.0
 11
4162.168297538093
 21
2222.377688901823
 31
0.0
 12
-3142.862646115603
 22
-1830.562576328022
 32
0.0
 70
   128
 71
     5
 42
103.5000000000018
 51
2.290610042638495
  3
INABA_S30G
100
AcDbAlignedDimension
 13
4473.277035020014
 23
2250.87601917699
 33
0.0
 14
4493.508860824519
 24
2146.483979238339
 34
0.0
 50
87.70938995736043
100
AcDbRotatedDimension
1001
ACAD
1000
DSTYLE
1002
{
1070
   279
1070
     1
1002
}
  0
LINE
  5
15421
330
1541A
100
AcDbEntity
  8
部品1
 48
50.0
100
AcDbLine
 10
4642.146747448182
 20
2134.247170105038
 30
0.0
 11
4653.061000688211
 21
2085.485719736362
 31
0.0
  0
LINE
  5
15422
330
1541A
100
AcDbEntity
  8
細線
 48
50.0
100
AcDbLine
 10
6423.270870303406
 20
2127.98983379486
 30
0.0
 11
6414.16847587961
 21
2101.332338204906
 31
0.0
  0
LINE
  5
15423
330
1541A
100
AcDbEntity
  8
部品1
 48
50.0
100
AcDbLine
 10
6395.315389001352
 20
2173.994485017736
 30
0.0
 11
6391.178697032241
 21
2070.577185790033
 31
0.0
  0
LINE
  5
15424
330
1541A
100
AcDbEntity
  8
部品1
 48
50.0
100
AcDbLine
 10
6456.872789162327
 20
2152.240925707378
 30
0.0
 11
6433.299177850509
 21
2083.202669362307
 31
0.0
  0
LINE
  5
15425
330
1541A
100
AcDbEntity
  8
細線
 48
50.0
100
AcDbLine
 10
4505.031176510743
 20
2170.542678777156
 30
0.0
 11
6404.305279017745
 21
2094.571714676877
 31
0.0
  0
LINE
  5
15426
330
1541A
100
AcDbEntity
  8
部品1
 48
50.0
100
AcDbLine
 10
5437.193894790972
 20
2108.736577879681
 30
0.0
 11
5434.715876413341
 21
2046.786118438931
 31
0.0
  0
LINE
  5
15427
330
1541A
100
AcDbEntity
  8
部品1
 48
50.0
100
AcDbLine
 10
5478.161134098561
 20
2107.09788830738
 30
0.0
 11
5475.683115720933
 21
2045.147428866628
 31
0.0
  0
LINE
  5
15428
330
1541A
100
AcDbEntity
  8
部品1
 48
50.0
100
AcDbLine
 10
4728.161134098561
 20
2137.09788830738
 30
0.0
 11
4725.683115720929
 21
2075.147428866629
 31
0.0
  0
LINE
  5
15429
330
1541A
100
AcDbEntity
  8
部品1
 48
50.0
100
AcDbLine
 10
4687.193894790971
 20
2138.736577879681
 30
0.0
 11
4684.715876413341
 21
2076.786118438931
 31
0.0
  0
LINE
  5
1542A
330
1541A
100
AcDbEntity
  8
部品1
 48
50.0
100
AcDbLine
 10
4493.508860824519
 20
2146.483979238341
 30
0.0
 11
6413.572784126779
 21
2069.68142230625
 31
0.0
  0
LINE
  5
1542B
330
1541A
100
AcDbEntity
  8
細線
 48
50.0
100
AcDbLine
 10
5723.893615878728
 20
-0.0000000000002274
 30
0.0
 11
5771.158802993245
 21
47.26518711451421
 31
0.0
  0
LINE
  5
1542C
330
1541A
100
AcDbEntity
  8
細線
 48
50.0
100
AcDbLine
 10
5696.952835878727
 20
-0.0000000000002274
 30
0.0
 11
5744.484763389281
 21
47.53192751055462
 31
0.0
  0
LINE
  5
1542D
330
1541A
100
AcDbEntity
  8
部品1
 48
50.0
100
AcDbLine
 10
6447.678014407268
 20
40.4999950003746
 30
0.0
 11
5502.677514444767
 21
50.0
 31
0.0
  0
LINE
  5
1542E
330
1541A
100
AcDbEntity
  8
部品1
 48
50.0
100
AcDbLine
 10
6322.677514444766
 20
2021.497845672155
 30
0.0
 11
5562.156305845226
 21
1742.870912042431
 31
0.0
  0
LINE
  5
1542F
330
1541A
100
AcDbEntity
  8
部品1
 48
50.0
100
AcDbLine
 10
5582.677514444767
 20
1656.489354795278
 30
0.0
 11
5582.677514444767
 21
131.5371487742611
 31
0.0
  0
LINE
  5
15430
330
1541A
100
AcDbEntity
  8
部品1
 48
50.0
100
AcDbLine
 10
5522.677514444766
 20
1686.489354795278
 30
0.0
 11
5522.677514444766
 21
131.5371487742629
 31
0.0
  0
LINE
  5
15431
330
1541A
100
AcDbEntity
  8
部品1
 48
50.0
100
AcDbLine
 10
5502.677514444767
 20
1717.869252278185
 30
0.0
 11
5502.677514444767
 21
49.99999999999977
 31
0.0
  0
LINE
  5
15432
330
1541A
100
AcDbEntity
  8
部品1
 48
50.0
100
AcDbLine
 10
5412.677514444766
 20
1717.869252278183
 30
0.0
 11
5412.677514444766
 21
49.99999999999977
 31
0.0
  0
LINE
  5
15433
330
1541A
100
AcDbEntity
  8
部品1
 48
50.0
100
AcDbLine
 10
4467.677014482265
 20
40.4999950003746
 30
0.0
 11
5412.677514444766
 21
50.0
 31
0.0
  0
LINE
  5
15434
330
1541A
100
AcDbEntity
  8
細線
 48
50.0
100
AcDbLine
 10
4547.085174803279
 20
-0.0000000000002274
 30
0.0
 11
4588.796363291748
 21
41.71118848846776
 31
0.0
  0
LINE
  5
15435
330
1541A
100
AcDbEntity
  8
細線
 48
50.0
100
AcDbLine
 10
4600.96673480328
 20
-0.0000000000002274
 30
0.0
 11
4643.222181473567
 21
42.25544667028657
 31
0.0
  0
LINE
  5
15436
330
1541A
100
AcDbEntity
  8
細線
 48
50.0
100
AcDbLine
 10
4574.02595480328
 20
-0.0000000000002274
 30
0.0
 11
4616.009272382652
 21
41.98331757937717
 31
0.0
  0
LINE
  5
15437
330
1541A
100
AcDbEntity
  8
部品1
 48
50.0
100
AcDbLine
 10
4467.677014482265
 20
40.4999950003746
 30
0.0
 11
4457.677514444767
 21
30.39999999999941
 31
0.0
  0
LINE
  5
15438
330
1541A
100
AcDbEntity
  8
部品1
 48
50.0
100
AcDbLine
 10
4457.677514444767
 20
30.39999999999941
 30
0.0
 11
4457.677514444767
 21
-0.0000000000002274
 31
0.0
  0
LINE
  5
15439
330
1541A
100
AcDbEntity
  8
細線
 48
50.0
100
AcDbLine
 10
5220.604395520258
 20
-0.0000000000002274
 30
0.0
 11
5269.118808460406
 21
48.5144129401549
 31
0.0
  0
LINE
  5
1543A
330
1541A
100
AcDbEntity
  8
細線
 48
50.0
100
AcDbLine
 10
5193.663615520257
 20
-0.0000000000002274
 30
0.0
 11
5241.905899369498
 21
48.24228384924549
 31
0.0
  0
LINE
  5
1543B
330
1541A
100
AcDbEntity
  8
細線
 48
50.0
100
AcDbLine
 10
5247.545175520258
 20
-0.0000000000002274
 30
0.0
 11
5296.331717551318
 21
48.7865420310643
 31
0.0
  0
LINE
  5
1543C
330
1541A
100
AcDbEntity
  8
部品1
 48
50.0
100
AcDbLine
 10
5502.67751444478
 20
50.0
 30
0.0
 11
5412.677514444766
 21
49.99999999999954
 31
0.0
  0
LINE
  5
1543D
330
1541A
100
AcDbEntity
  8
部品1
 48
50.0
100
AcDbLine
 10
5502.67751444478
 20
50.0
 30
0.0
 11
5412.677514444766
 21
49.99999999999954
 31
0.0
  0
LINE
  5
1543E
330
1541A
100
AcDbEntity
  8
点線
 48
18.0
100
AcDbLine
 10
5412.677514444766
 20
49.99999999999977
 30
0.0
 11
5412.677514444766
 21
-0.0000000000002274
 31
0.0
  0
LINE
  5
1543F
330
1541A
100
AcDbEntity
  8
点線
 48
18.0
100
AcDbLine
 10
5502.677514444767
 20
49.99999999999977
 30
0.0
 11
5502.677514444767
 21
-0.0000000000002274
 31
0.0
  0
LINE
  5
15440
330
1541A
100
AcDbEntity
  8
部品1
 48
50.0
100
AcDbLine
 10
5584.177514444767
 20
186.5371487742629
 30
0.0
 11
5584.177514444767
 21
166.5371487742629
 31
0.0
  0
CIRCLE
  5
15441
330
1541A
100
AcDbEntity
  8
細線
 48
50.0
100
AcDbCircle
 10
5512.677514444766
 20
176.5371487742629
 30
0.0
 40
6.5
  0
LWPOLYLINE
  5
15442
330
1541A
100
AcDbEntity
  8
細線
 48
50.0
100
AcDbPolyline
 90
        6
 70
     1
 43
0.0
 10
5517.677514444766
 20
179.4239001202111
 10
5512.677514444766
 20
182.3106514661592
 10
5507.677514444766
 20
179.4239001202111
 10
5507.677514444766
 20
173.6503974283148
 10
5512.677514444766
 20
170.7636460823666
 10
5517.677514444766
 20
173.6503974283148
  0
LINE
  5
15443
330
1541A
100
AcDbEntity
  8
部品1
 48
50.0
100
AcDbLine
 10
5584.177514444767
 20
186.5371487742629
 30
0.0
 11
5502.677514444767
 21
186.5371487742629
 31
0.0
  0
LINE
  5
15444
330
1541A
100
AcDbEntity
  8
部品1
 48
50.0
100
AcDbLine
 10
5584.177514444767
 20
166.5371487742629
 30
0.0
 11
5502.677514444767
 21
166.5371487742629
 31
0.0
  0
LINE
  5
15445
330
1541A
100
AcDbEntity
  8
細線
 48
50.0
100
AcDbLine
 10
5582.677514444767
 20
156.5371487742611
 30
0.0
 11
5522.67751444477
 21
156.5371487742629
 31
0.0
  0
LINE
  5
15446
330
1541A
100
AcDbEntity
  8
部品1
 48
50.0
100
AcDbLine
 10
5604.290444722852
 20
123.6706854777783
 30
0.0
 11
5589.493759657212
 21
68.39810537634708
 31
0.0
  0
LINE
  5
15447
330
1541A
100
AcDbEntity
  8
細線
 48
50.0
100
AcDbLine
 10
5582.677514444767
 20
131.5371487742611
 30
0.0
 11
5562.156305845229
 21
75.15559152710898
 31
0.0
  0
ARC
  5
15448
330
1541A
100
AcDbEntity
  8
部品1
 48
50.0
100
AcDbCircle
 10
5582.677514444767
 20
131.5371487742629
 30
0.0
 40
60.0
100
AcDbArc
 50
180.0
 51
250.0000000000108
  0
LINE
  5
15449
330
1541A
100
AcDbEntity
  8
部品1
 48
50.0
100
AcDbLine
 10
5582.677514444767
 20
131.5371487742611
 30
0.0
 11
5604.290444722852
 21
123.6706854777783
 31
0.0
  0
LINE
  5
1544A
330
1541A
100
AcDbEntity
  8
部品1
 48
50.0
100
AcDbLine
 10
5563.182366275214
 20
77.9746693894665
 30
0.0
 11
5589.493759657219
 21
68.39810537634526
 31
0.0
  0
LINE
  5
1544B
330
1541A
100
AcDbEntity
  8
部品1
 48
50.0
100
AcDbLine
 10
5412.677514444765
 20
49.99999999999954
 30
0.0
 11
5502.67751444478
 21
50.0
 31
0.0
  0
LINE
  5
1544C
330
1541A
100
AcDbEntity
  8
寸法
 48
50.0
100
AcDbLine
 10
5446.542388529902
 20
1222.91675246269
 30
0.0
 11
5124.220626044094
 21
1120.399175948517
 31
0.0
  0
TEXT
  5
1544D
330
1541A
100
AcDbEntity
  8
部品1
 48
50.0
100
AcDbText
 10
4960.70688952329
 20
1029.070484703443
 30
0.0
 40
120.0
  1
②
  7
STYLE2
100
AcDbText
  0
LINE
  5
1544E
330
1541A
100
AcDbEntity
  8
寸法
 48
50.0
100
AcDbLine
 10
5281.410065388306
 20
1886.641790306948
 30
0.0
 11
5044.919092260533
 21
1698.161949939469
 31
0.0
  0
LINE
  5
1544F
330
1541A
100
AcDbEntity
  8
部品1
 48
50.0
100
AcDbLine
 10
4725.763051797627
 20
2077.145830784072
 30
0.0
 11
5118.364642105604
 21
2061.441767171752
 31
0.0
  0
TEXT
  5
15450
330
1541A
100
AcDbEntity
  8
部品1
 48
50.0
100
AcDbText
 10
4890.88551827877
 20
1592.950586599374
 30
0.0
 40
120.0
  1
①
  7
STYLE2
100
AcDbText
  0
LINE
  5
15451
330
1541A
100
AcDbEntity
  8
部品1
 48
50.0
100
AcDbLine
 10
4662.419857909058
 20
2077.67795917908
 30
0.0
 11
4684.715876413341
 21
2076.786118438911
 31
0.0
  0
ARC
  5
15452
330
1541A
100
AcDbEntity
  8
部品1
 48
50.0
100
AcDbCircle
 10
4662.819538292547
 20
2087.669968766299
 30
0.0
 40
10.0
100
AcDbArc
 50
192.6165368012923
 51
267.7093899573604
  0
LINE
  5
15453
330
1541A
100
AcDbEntity
  8
部品1
 48
50.0
100
AcDbLine
 10
4684.715876413341
 20
2076.786118438931
 30
0.0
 11
4725.683115720929
 21
2075.147428866627
 31
0.0
  0
LINE
  5
15454
330
1541A
100
AcDbEntity
  8
部品1
 48
50.0
100
AcDbLine
 10
5251.91011634508
 20
2056.099948202174
 30
0.0
 11
5434.795812490039
 21
2048.784520356374
 31
0.0
  0
LINE
  5
15455
330
1541A
100
AcDbEntity
  8
部品1
 48
50.0
100
AcDbLine
 10
5412.677514444766
 20
1717.869252278183
 30
0.0
 11
5502.677514444767
 21
1717.869252278185
 31
0.0
  0
CIRCLE
  5
15456
330
1541A
100
AcDbEntity
  8
細線
 48
50.0
100
AcDbCircle
 10
5512.677514444766
 20
1666.489354795277
 30
0.0
 40
6.5
  0
LWPOLYLINE
  5
15457
330
1541A
100
AcDbEntity
  8
細線
 48
50.0
100
AcDbPolyline
 90
        6
 70
     1
 43
0.0
 10
5517.677514444766
 20
1669.376106141227
 10
5512.677514444766
 20
1672.262857487175
 10
5507.677514444766
 20
1669.376106141227
 10
5507.677514444766
 20
1663.60260344933
 10
5512.677514444766
 20
1660.715852103382
 10
5517.677514444766
 20
1663.60260344933
  0
LINE
  5
15458
330
1541A
100
AcDbEntity
  8
部品1
 48
50.0
100
AcDbLine
 10
5584.177514444767
 20
1676.489354795277
 30
0.0
 11
5584.177514444767
 21
1656.489354795278
 31
0.0
  0
LINE
  5
15459
330
1541A
100
AcDbEntity
  8
部品1
 48
50.0
100
AcDbLine
 10
5584.177514444767
 20
1656.489354795278
 30
0.0
 11
5502.677514444767
 21
1656.489354795278
 31
0.0
  0
LINE
  5
1545A
330
1541A
100
AcDbEntity
  8
部品1
 48
50.0
100
AcDbLine
 10
5584.177514444767
 20
1676.489354795277
 30
0.0
 11
5502.677514444767
 21
1676.489354795277
 31
0.0
  0
LINE
  5
1545B
330
1541A
100
AcDbEntity
  8
細線
 48
50.0
100
AcDbLine
 10
5606.169829964414
 20
1695.039858378419
 30
0.0
 11
5585.648621364875
 21
1751.421415625573
 31
0.0
  0
LINE
  5
1545C
330
1541A
100
AcDbEntity
  8
細線
 48
50.0
100
AcDbLine
 10
5582.677514444767
 20
1686.489354795278
 30
0.0
 11
5522.677514444766
 21
1686.489354795278
 31
0.0
  0
ARC
  5
1545D
330
1541A
100
AcDbEntity
  8
部品1
 48
50.0
100
AcDbCircle
 10
5582.677514444767
 20
1686.489354795278
 30
0.0
 40
60.0
100
AcDbArc
 50
109.9999999999892
 51
180.0
  0
LINE
  5
1545E
330
1541A
100
AcDbEntity
  8
部品1
 48
50.0
100
AcDbLine
 10
5582.677514444767
 20
1686.489354795278
 30
0.0
 11
5582.677514444767
 21
1676.489354795277
 31
0.0
  0
LINE
  5
1545F
330
1541A
100
AcDbEntity
  8
部品1
 48
50.0
100
AcDbLine
 10
5475.763051797635
 20
2047.145830784071
 30
0.0
 11
5654.053698396225
 21
2040.014204920129
 31
0.0
  0
LINE
  5
15460
330
1541A
100
AcDbEntity
  8
部品1
 48
50.0
100
AcDbLine
 10
5434.715876413341
 20
2046.786118438929
 30
0.0
 11
5475.683115720937
 21
2045.147428866627
 31
0.0
  0
LINE
  5
15461
330
1541A
100
AcDbEntity
  8
細線
 48
50.0
100
AcDbLine
 10
6397.412836595707
 20
-0.0000000000002274
 30
0.0
 11
6438.00951657441
 21
40.5966799787027
 31
0.0
  0
LINE
  5
15462
330
1541A
100
AcDbEntity
  8
細線
 48
50.0
100
AcDbLine
 10
6370.472056595706
 20
-0.0000000000002274
 30
0.0
 11
6411.335476970449
 21
40.86342037474219
 31
0.0
  0
LINE
  5
15463
330
1541A
100
AcDbEntity
  8
細線
 48
50.0
100
AcDbLine
 10
5750.83439587873
 20
-0.0000000000002274
 30
0.0
 11
5797.832842597202
 21
46.99844671847472
 31
0.0
  0
LINE
  5
15464
330
1541A
100
AcDbEntity
  8
細線
 48
50.0
100
AcDbLine
 10
6343.531276595705
 20
-0.0000000000002274
 30
0.0
 11
6384.661437366488
 21
41.13016077078168
 31
0.0
  0
LINE
  5
15465
330
1541A
100
AcDbEntity
  8
部品1
 48
50.0
100
AcDbLine
 10
6457.677514444767
 20
30.39999999999941
 30
0.0
 11
6457.677514444767
 21
-0.0000000000002274
 31
0.0
  0
LINE
  5
15466
330
1541A
100
AcDbEntity
  8
部品1
 48
50.0
100
AcDbLine
 10
6447.678014407268
 20
40.4999950003746
 30
0.0
 11
6457.677514444767
 21
30.39999999999941
 31
0.0
  0
LINE
  5
15467
330
1541A
100
AcDbEntity
  8
部品1
 48
50.0
100
AcDbLine
 10
5773.894596242416
 20
2035.220569006282
 30
0.0
 11
6184.795812490039
 21
2018.784520356374
 31
0.0
  0
LINE
  5
15468
330
1541A
100
AcDbEntity
  8
細線
 48
50.0
100
AcDbLine
 10
6322.677514444766
 20
2046.497845672149
 30
0.0
 11
6382.677514444763
 21
2046.497845672147
 31
0.0
  0
LINE
  5
15469
330
1541A
100
AcDbEntity
  8
細線
 48
50.0
100
AcDbLine
 10
6322.677514444766
 20
2021.497845672155
 30
0.0
 11
6343.198723044304
 21
1965.116288424997
 31
0.0
  0
LINE
  5
1546A
330
1541A
100
AcDbEntity
  8
部品1
 48
50.0
100
AcDbLine
 10
6237.97172548736
 20
1925.220526814355
 30
0.0
 11
6219.177873071647
 21
1918.380123947841
 31
0.0
  0
LWPOLYLINE
  5
1546B
330
1541A
100
AcDbEntity
  8
細線
 48
50.0
100
AcDbPolyline
 90
        6
 70
     1
 43
0.0
 10
6209.120359031722
 20
1991.875099113241
 10
6204.120359031723
 20
1994.761850459189
 10
6199.120359031723
 20
1991.875099113241
 10
6199.120359031723
 20
1986.101596421345
 10
6204.120359031723
 20
1983.214845075397
 10
6209.120359031722
 20
1986.101596421345
  0
CIRCLE
  5
1546C
330
1541A
100
AcDbEntity
  8
細線
 48
50.0
100
AcDbCircle
 10
6204.120359031723
 20
1988.988347767292
 30
0.0
 40
6.5
  0
ARC
  5
1546D
330
1541A
100
AcDbEntity
  8
部品1
 48
50.0
100
AcDbCircle
 10
6194.464329396286
 20
1995.051440351086
 30
0.0
 40
3.0
100
AcDbArc
 50
109.9999999999892
 51
200.0000000000015
  0
LINE
  5
1546E
330
1541A
100
AcDbEntity
  8
部品1
 48
50.0
100
AcDbLine
 10
6194.482857005131
 20
1998.250717166645
 30
0.0
 11
6193.43826896631
 21
1997.870518213443
 31
0.0
  0
LINE
  5
1546F
330
1541A
100
AcDbEntity
  8
部品1
 48
50.0
100
AcDbLine
 10
6204.120359031723
 20
1988.988347767292
 30
0.0
 11
6204.120359031723
 21
1988.988347767292
 31
0.0
  0
LINE
  5
15470
330
1541A
100
AcDbEntity
  8
部品1
 48
50.0
100
AcDbLine
 10
6214.19111104428
 20
1990.557228017485
 30
0.0
 11
6237.97172548736
 21
1925.220526814355
 31
0.0
  0
LINE
  5
15471
330
1541A
100
AcDbEntity
  8
部品1
 48
50.0
100
AcDbLine
 10
6191.645251533929
 20
1994.025379921109
 30
0.0
 11
6219.177873071647
 21
1918.380123947841
 31
0.0
  0
ARC
  5
15472
330
1541A
100
AcDbEntity
  8
部品1
 48
50.0
100
AcDbCircle
 10
6204.160327070065
 20
1989.987548726014
 30
0.0
 40
10.0
100
AcDbArc
 50
177.7093899573604
 51
357.7093899573605
  0
LINE
  5
15473
330
1541A
100
AcDbEntity
  8
部品1
 48
50.0
100
AcDbLine
 10
6215.191505654354
 20
2015.567093269292
 30
0.0
 11
6214.112368618938
 21
1988.588667383805
 31
0.0
  0
LINE
  5
15474
330
1541A
100
AcDbEntity
  8
部品1
 48
50.0
100
AcDbLine
 10
6195.207486479921
 20
2016.36645403627
 30
0.0
 11
6194.1283494445
 21
1989.388028150781
 31
0.0
  0
ARC
  5
15475
330
1541A
100
AcDbEntity
  8
部品1
 48
50.0
100
AcDbCircle
 10
6322.677514444762
 20
2021.497845672151
 30
0.0
 40
60.0
100
AcDbArc
 50
289.9999999999892
 51
0.0
  0
LINE
  5
15476
330
1541A
100
AcDbEntity
  8
部品1
 48
50.0
100
AcDbLine
 10
6382.677514444766
 20
2070.917233093529
 30
0.0
 11
6382.677514444763
 21
2021.497845672151
 31
0.0
  0
LINE
  5
15477
330
1541A
100
AcDbEntity
  8
部品1
 48
50.0
100
AcDbLine
 10
6322.677514444766
 20
2073.31723309353
 30
0.0
 11
6322.677514444766
 21
2021.497845672155
 31
0.0
  0
ARC
  5
15478
330
1541A
100
AcDbEntity
  8
部品1
 48
50.0
100
AcDbCircle
 10
6248.378814608706
 20
2024.247597713674
 30
0.0
 40
10.0
100
AcDbArc
 50
267.7093899573604
 51
342.8022431134319
  0
LINE
  5
15479
330
1541A
100
AcDbEntity
  8
部品1
 48
50.0
100
AcDbLine
 10
6247.979134225216
 20
2014.255588126456
 30
0.0
 11
6225.683115720937
 21
2015.147428866629
 31
0.0
  0
LINE
  5
1547A
330
1541A
100
AcDbEntity
  8
部品1
 48
50.0
100
AcDbLine
 10
6272.70578194707
 20
2069.024808725107
 30
0.0
 11
6257.931713991466
 21
2021.290891204255
 31
0.0
  0
ARC
  5
1547B
330
1541A
100
AcDbEntity
  8
部品1
 48
50.0
100
AcDbCircle
 10
6267.929332255691
 20
2070.503161979817
 30
0.0
 40
5.0
100
AcDbArc
 50
342.8022431134319
 51
87.70938995736043
  0
LINE
  5
1547C
330
1541A
100
AcDbEntity
  8
部品1
 48
50.0
100
AcDbLine
 10
6184.715876413341
 20
2016.786118438933
 30
0.0
 11
6225.683115720937
 21
2015.147428866629
 31
0.0
  0
LINE
  5
1547D
330
1541A
100
AcDbEntity
  8
部品1
 48
50.0
100
AcDbLine
 10
6228.161134098561
 20
2077.097888307381
 30
0.0
 11
6225.683115720933
 21
2015.147428866629
 31
0.0
  0
LINE
  5
1547E
330
1541A
100
AcDbEntity
  8
部品1
 48
50.0
100
AcDbLine
 10
6187.193894790972
 20
2078.736577879685
 30
0.0
 11
6184.715876413341
 21
2016.786118438931
 31
0.0
  0
ARC
  5
1547F
330
1541A
100
AcDbEntity
  8
細線
 48
50.0
100
AcDbCircle
 10
6404.704959401235
 20
2104.563724264095
 30
0.0
 40
10.0
100
AcDbArc
 50
267.7093899573604
 51
341.1471589320606
  0
ARC
  5
15480
330
1541A
100
AcDbEntity
  8
部品1
 48
50.0
100
AcDbCircle
 10
6414.372144893757
 20
2089.665441480687
 30
0.0
 40
20.0
100
AcDbArc
 50
267.7093899573604
 51
341.1471589320606
  0
DIMENSION
  5
15481
330
1541A
100
AcDbEntity
  8
寸法
 48
50.0
100
AcDbDimension
  2
*D19
 10
6457.677514444767
 20
3075.707529747091
 30
0.0
 11
5457.677514444767
 21
3150.716388014807
 31
0.0
 12
-5741.488785427639
 22
-3091.479494127602
 32
0.0
 71
     5
 42
-1.0
  3
INABA_S30G
100
AcDbAlignedDimension
 13
4457.677514444767
 23
2235.888004796165
 33
0.0
 14
6457.677514444767
 24
2157.088004796164
 34
0.0
100
AcDbRotatedDimension
  0
LINE
  5
15482
330
1541A
100
AcDbEntity
  8
細線
 48
50.0
100
AcDbLine
 10
4499.349649996412
 20
2217.807524809749
 30
0.0
 11
6414.20703420852
 21
2141.213229441266
 31
0.0
  0
LINE
  5
15483
330
1541A
100
AcDbEntity
  8
細線
 48
50.0
100
AcDbLine
 10
4504.376994119818
 20
2206.097234721874
 30
0.0
 11
6408.216542058442
 21
2129.94365280433
 31
0.0
  0
LINE
  5
15484
330
1541A
100
AcDbEntity
  8
細線
 48
50.0
100
AcDbLine
 10
4508.457777410599
 20
2181.914811064106
 30
0.0
 11
6401.908470879144
 21
2106.17678332536
 31
0.0
  0
LINE
  5
15485
330
1541A
100
AcDbEntity
  8
部品1
 48
50.0
100
AcDbLine
 10
4473.277035019999
 20
2250.876019176993
 30
0.0
 11
6443.27703502
 21
2172.076019176992
 31
0.0
  0
LINE
  5
15486
330
1541A
100
AcDbEntity
  8
寸法
 48
50.0
100
AcDbLine
 10
4682.347659261583
 20
2222.659618889837
 30
0.0
 11
4337.080771411114
 21
2573.273576142849
 31
0.0
  0
TEXT
  5
15487
330
1541A
100
AcDbEntity
  8
部品1
 48
50.0
100
AcDbText
 10
4185.723031652351
 20
2565.683783085362
 30
0.0
 40
120.0
  1
⑤
  7
STYLE2
100
AcDbText
  0
ARC
  5
15488
330
1541A
100
AcDbEntity
  8
部品1
 48
50.0
100
AcDbCircle
 10
4647.026016250353
 20
2135.339294620008
 30
0.0
 40
5.0
100
AcDbArc
 50
87.70938995736043
 51
192.6165368012923
  0
ARC
  5
15489
330
1541A
100
AcDbEntity
  8
細線
 48
50.0
100
AcDbCircle
 10
4505.430856894231
 20
2180.534688364376
 30
0.0
 40
10.0
100
AcDbArc
 50
193.363580049563
 51
267.7093899573604
  0
ARC
  5
1548A
330
1541A
100
AcDbEntity
  8
細線
 48
50.0
100
AcDbCircle
 10
4498.949969612923
 20
2207.815515222534
 30
0.0
 40
10.0
100
AcDbArc
 50
87.70938995736043
 51
193.363580049563
  0
ARC
  5
1548B
330
1541A
100
AcDbEntity
  8
細線
 48
50.0
100
AcDbCircle
 10
4508.577681525646
 20
2184.91241394027
 30
0.0
 40
3.0
100
AcDbArc
 50
193.363580049563
 51
267.7093899573604
  0
ARC
  5
1548C
330
1541A
100
AcDbEntity
  8
細線
 48
50.0
100
AcDbCircle
 10
4504.257090004771
 20
2203.099631845708
 30
0.0
 40
3.0
100
AcDbArc
 50
87.70938995736043
 51
193.3635800495504
  0
LINE
  5
1548D
330
1541A
100
AcDbEntity
  8
細線
 48
50.0
100
AcDbLine
 10
4501.338321029433
 20
2202.406243304824
 30
0.0
 11
4505.658912550312
 21
2184.219025399385
 31
0.0
  0
LINE
  5
1548E
330
1541A
100
AcDbEntity
  8
細線
 48
50.0
100
AcDbLine
 10
4489.220739695144
 20
2205.504220086248
 30
0.0
 11
4495.701626976453
 21
2178.22339322809
 31
0.0
  0
LINE
  5
1548F
330
1541A
100
AcDbEntity
  8
部品1
 48
50.0
100
AcDbLine
 10
4521.23868103864
 20
2248.957553336248
 30
0.0
 11
4517.10198906953
 21
2145.540254108542
 31
0.0
  0
LINE
  5
15490
330
1541A
100
AcDbEntity
  8
部品1
 48
50.0
100
AcDbLine
 10
4458.083669568098
 20
2232.421062091738
 30
0.0
 11
4474.849761755943
 21
2161.845408140209
 31
0.0
  0
ARC
  5
15491
330
1541A
100
AcDbEntity
  8
部品1
 48
50.0
100
AcDbCircle
 10
4472.677514444766
 20
2235.888004796165
 30
0.0
 40
15.0
100
AcDbArc
 50
87.70938995736043
 51
193.3635800495504
  0
ARC
  5
15492
330
1541A
100
AcDbEntity
  8
部品1
 48
50.0
100
AcDbCircle
 10
4494.308221591498
 20
2166.467998412776
 30
0.0
 40
20.0
100
AcDbArc
 50
193.3635800495504
 51
267.7093899573604
  0
ARC
  5
15493
330
1541A
100
AcDbEntity
  8
細線
 48
50.0
100
AcDbCircle
 10
6402.028374994191
 20
2109.174386201525
 30
0.0
 40
3.0
100
AcDbArc
 50
267.7093899573604
 51
341.1471589320606
  0
ARC
  5
15494
330
1541A
100
AcDbEntity
  8
細線
 48
50.0
100
AcDbCircle
 10
6408.096637943394
 20
2126.946049928165
 30
0.0
 40
3.0
100
AcDbArc
 50
341.1471589320606
 51
87.70938995736043
  0
ARC
  5
15495
330
1541A
100
AcDbEntity
  8
細線
 48
50.0
100
AcDbCircle
 10
6413.807353825031
 20
2131.221219854049
 30
0.0
 40
10.0
100
AcDbArc
 50
341.1471589320606
 51
87.70938995736043
  0
LINE
  5
15496
330
1541A
100
AcDbEntity
  8
細線
 48
50.0
100
AcDbLine
 10
6410.935692886905
 20
2125.976634110408
 30
0.0
 11
6404.867429937701
 21
2108.204970383769
 31
0.0
  0
ARC
  5
15497
330
1541A
100
AcDbEntity
  8
部品1
 48
50.0
100
AcDbCircle
 10
6442.677514444766
 20
2157.088004796164
 30
0.0
 40
15.0
100
AcDbArc
 50
341.1471589320606
 51
87.70938995736043
  0
DIMENSION
  5
15498
330
1541A
100
AcDbEntity
  8
寸法
 48
50.0
100
AcDbDimension
  2
*D20
 10
3849.802405984412
 20
50.0
 30
0.0
 11
3849.802405984412
 21
1150.75
 31
0.0
 12
-4657.426034866589
 22
-1830.562576328022
 32
0.0
 70
   128
 71
     5
 42
-1.0
  3
INABA_S30G
100
AcDbAlignedDimension
 13
4457.677514444767
 23
2251.500000000001
 33
0.0
 14
4457.677514444767
 24
50.0
 34
0.0
 50
90.0
100
AcDbRotatedDimension
  0
DIMENSION
  5
15499
330
1541A
100
AcDbEntity
  8
寸法
 48
50.0
100
AcDbDimension
  2
*D21
 10
6833.314966919362
 20
2172.088004796163
 30
0.0
 11
6833.314966919362
 21
1161.110005113344
 31
0.0
 12
-4657.426034866589
 22
-1830.562576328022
 32
0.0
 70
   128
  1
2121.5
 71
     5
 42
-1.0
  3
INABA_S30G
100
AcDbAlignedDimension
 13
6742.218257574229
 23
49.99999999999977
 33
0.0
 14
6457.677514444767
 24
2172.088004796163
 34
0.0
 50
90.0
100
AcDbRotatedDimension
  0
DIMENSION
  5
1549A
330
1541A
100
AcDbEntity
  8
寸法
 48
50.0
100
AcDbDimension
  2
*D22
 10
3849.802405984412
 20
50.0
 30
0.0
 11
3849.802405984412
 21
-229.5354330708662
 31
0.0
 12
-3142.862646115603
 22
-1830.562576328022
 32
0.0
 70
   128
 71
     5
 42
50.00000000000023
  3
INABA_S30G
100
AcDbAlignedDimension
 13
4457.677514444767
 23
-0.0000000000002274
 33
0.0
 14
5412.677514444766
 24
49.99999999999977
 34
0.0
 50
90.0
100
AcDbRotatedDimension
  0
DIMENSION
  5
1549B
330
1541A
100
AcDbEntity
  8
寸法
 48
50.0
100
AcDbDimension
  2
*D23
 10
6833.314966919362
 20
-0.0000000000004547
 30
0.0
 11
6833.314966919362
 21
-229.5354330708665
 31
0.0
 12
-3142.862646115603
 22
-1830.562576328022
 32
0.0
 70
   128
 71
     5
 42
50.0
  3
INABA_S30G
100
AcDbAlignedDimension
 13
5502.677514444767
 23
50.0
 33
0.0
 14
6457.677514444767
 24
-0.0000000000002274
 34
0.0
 50
90.0
100
AcDbRotatedDimension
  0
TEXT
  5
1549C
330
1541A
100
AcDbEntity
  8
部品1
 48
50.0
100
AcDbText
 10
5818.725642734021
 20
908.5941991970173
 30
0.0
 40
120.0
  1
⑧
  7
STYLE2
100
AcDbText
  0
LINE
  5
1549D
330
1541A
100
AcDbEntity
  8
寸法
 48
50.0
100
AcDbLine
 10
5553.606142708532
 20
1038.883857220731
 30
0.0
 11
5827.666315477403
 21
985.6322030068657
 31
0.0
  0
TEXT
  5
1549E
330
1541A
100
AcDbEntity
  8
部品1
 48
50.0
100
AcDbText
 10
6012.386498191611
 20
892.3840070343974
 30
0.0
 40
80.0
  1
(別売)
  7
STYLE2
100
AcDbText
  0
LINE
  5
1549F
330
1541A
100
AcDbEntity
  8
部品1
 48
50.0
100
AcDbLine
 10
6343.198723044308
 20
1965.116288425001
 30
0.0
 11
6237.539953546228
 21
1926.406810472965
 31
0.0
  0
LINE
  5
154A0
330
1541A
100
AcDbEntity
  8
部品1
 48
50.0
100
AcDbLine
 10
6218.760543683996
 20
1919.526727016878
 30
0.0
 11
5582.677514444767
 21
1686.489354795278
 31
0.0
  0
LINE
  5
154A1
330
1541A
100
AcDbEntity
  8
部品1
100
AcDbLine
 10
5455.877514481624
 20
1867.869252278185
 30
0.0
 11
5412.287514407905
 21
1867.869252278185
 31
0.0
  0
LINE
  5
154A2
330
1541A
100
AcDbEntity
  8
部品1
100
AcDbLine
 10
5412.287514407905
 20
1867.869252278185
 30
0.0
 11
5409.977514407904
 21
1867.869252278185
 31
0.0
  0
LINE
  5
154A3
330
1541A
100
AcDbEntity
  8
部品1
100
AcDbLine
 10
5119.208596396527
 20
2058.851772666241
 30
0.0
 11
5251.80859639652
 21
2053.551772668231
 31
0.0
  0
ARC
  5
154A4
330
1541A
100
AcDbEntity
  8
部品1
100
AcDbCircle
 10
5090.072468103851
 20
2109.822167224827
 30
0.0
 40
9.999999999994312
100
AcDbArc
 50
87.71111557794206
 51
220.5571249050825
  0
LINE
  5
154A5
330
1541A
100
AcDbEntity
  8
部品1
100
AcDbLine
 10
5196.450710766187
 20
2115.578231265523
 30
0.0
 11
5090.471847550198
 21
2119.814188844985
 31
0.0
  0
ARC
  5
154A6
330
1541A
100
AcDbEntity
  8
部品1
100
AcDbCircle
 10
5195.651951873486
 20
2095.5941880252
 30
0.0
 40
19.99999999999334
100
AcDbArc
 50
40.55712490508248
 51
87.71111557794206
  0
LINE
  5
154A7
330
1541A
100
AcDbEntity
  8
部品1
100
AcDbLine
 10
5251.139390574834
 20
2061.517242641464
 30
0.0
 11
5210.847113405144
 21
2108.598305297304
 31
0.0
  0
ARC
  5
154A8
330
1541A
100
AcDbEntity
  8
部品1
100
AcDbCircle
 10
5248.860116345083
 20
2059.566625050655
 30
0.0
 40
2.999999999998155
100
AcDbArc
 50
359.9999999998176
 51
40.55712490492563
  0
LINE
  5
154A9
330
1541A
100
AcDbEntity
  8
部品1
100
AcDbLine
 10
5082.47488733802
 20
2103.32010858878
 30
0.0
 11
5118.529453636906
 21
2061.19076236699
 31
0.0
  0
LINE
  5
154AA
330
1541A
100
AcDbEntity
  8
部品1
100
AcDbLine
 10
5251.860116345083
 20
2053.549713424435
 30
0.0
 11
5251.860116345079
 21
2059.566625050646
 31
0.0
  0
LINE
  5
154AB
330
1541A
100
AcDbEntity
  8
部品1
100
AcDbLine
 10
5251.860116345083
 20
2053.549713424435
 30
0.0
 11
5251.80859639652
 21
2053.551772668231
 31
0.0
  0
SPLINE
  5
154AC
330
1541A
100
AcDbEntity
  8
部品1
100
AcDbSpline
210
0.0
220
0.0
230
1.0
 70
     8
 71
     3
 72
    11
 73
     7
 74
     0
 42
0.000000001
 43
0.0000000001
 40
0.0
 40
0.0
 40
0.0
 40
0.0
 40
0.0502701813548495
 40
0.0502701813548495
 40
0.0502701813548495
 40
0.0559553392065037
 40
0.0559553392065037
 40
0.0559553392065037
 40
0.0559553392065037
 10
5251.252350207099
 20
2053.474116947737
 30
0.0
 10
5251.250401232034
 20
2053.504568212272
 30
0.0
 10
5251.249517443182
 20
2053.534565791955
 30
0.0
 10
5251.249695879976
 20
2053.564103844411
 30
0.0
 10
5251.249716059759
 20
2053.567444363309
 30
0.0
 10
5251.249749825208
 20
2053.570779004941
 30
0.0
 10
5251.249797148215
 20
2053.574107781466
 30
0.0
  0
ARC
  5
154AD
330
1541A
100
AcDbEntity
  8
部品1
100
AcDbCircle
 10
5252.24773364669
 20
2053.57009511303
 30
0.0
 40
1.000000000011771
100
AcDbArc
 50
185.5076218310825
 51
310.5571249036044
  0
LINE
  5
154AE
330
1541A
100
AcDbEntity
  8
部品1
100
AcDbLine
 10
5253.00538602516
 20
2052.902290457057
 30
0.0
 11
5252.897939510282
 21
2052.810337036421
 31
0.0
  0
ARC
  5
154AF
330
1541A
100
AcDbEntity
  8
部品1
100
AcDbCircle
 10
5411.477514481624
 20
1867.869252278184
 30
0.0
 40
3.000000000001078
100
AcDbArc
 50
134.014408682984
 51
179.9999999999739
  0
LINE
  5
154B0
330
1541A
100
AcDbEntity
  8
部品1
100
AcDbLine
 10
5393.177514444767
 20
1735.792097793919
 30
0.0
 11
5118.655066645861
 21
2056.568422021537
 31
0.0
  0
LINE
  5
154B1
330
1541A
100
AcDbEntity
  8
部品1
100
AcDbLine
 10
5254.760427182066
 20
2054.404266001985
 30
0.0
 11
5253.00538602516
 21
2052.902290457057
 31
0.0
  0
LINE
  5
154B2
330
1541A
100
AcDbEntity
  8
部品1
100
AcDbLine
 10
5254.760427182066
 20
2054.404266001985
 30
0.0
 11
5411.277886949213
 21
1871.51541365455
 31
0.0
  0
ARC
  5
154B3
330
1541A
100
AcDbEntity
  8
細線
100
AcDbCircle
 10
5185.38943666589
 20
2033.188170536043
 30
0.0
 40
2.999999999999984
100
AcDbArc
 50
40.55712490508248
 51
87.7111155787762
  0
ARC
  5
154B4
330
1541A
100
AcDbEntity
  8
細線
100
AcDbCircle
 10
5227.637038746092
 20
2031.499540890943
 30
0.0
 40
3.000000000000087
100
AcDbArc
 50
87.7111155787762
 51
220.5571249050825
  0
LINE
  5
154B5
330
1541A
100
AcDbEntity
  8
細線
100
AcDbLine
 10
5391.556788637653
 20
1796.897913268316
 30
0.0
 11
5187.668710895639
 21
2035.138788126858
 31
0.0
  0
LINE
  5
154B6
330
1541A
100
AcDbEntity
  8
細線
100
AcDbLine
 10
5235.933807821282
 20
2034.170315832782
 30
0.0
 11
5227.756852579954
 21
2034.497147376995
 31
0.0
  0
ARC
  5
154B7
330
1541A
100
AcDbEntity
  8
細線
100
AcDbCircle
 10
5177.212481424561
 20
2033.515002080255
 30
0.0
 40
3.000000000000184
100
AcDbArc
 50
87.7111155787762
 51
220.5571249050825
  0
ARC
  5
154B8
330
1541A
100
AcDbEntity
  8
細線
100
AcDbCircle
 10
5235.81399398742
 20
2031.17270934673
 30
0.0
 40
3.000000000000184
100
AcDbArc
 50
40.55712490508248
 51
87.7111155787762
  0
LINE
  5
154B9
330
1541A
100
AcDbEntity
  8
細線
100
AcDbLine
 10
5174.933207194811
 20
2031.564384489439
 30
0.0
 11
5386.998240178155
 21
1783.768831437117
 31
0.0
  0
ARC
  5
154BA
330
1541A
100
AcDbEntity
  8
細線
100
AcDbCircle
 10
5389.277514407903
 20
1794.9472956775
 30
0.0
 40
3.000000000000113
100
AcDbArc
 50
0.0
 51
40.55712490508248
  0
LINE
  5
154BB
330
1541A
100
AcDbEntity
  8
細線
100
AcDbLine
 10
5391.556788637653
 20
1853.802967607318
 30
0.0
 11
5238.09326821717
 21
2033.123326937548
 31
0.0
  0
LINE
  5
154BC
330
1541A
100
AcDbEntity
  8
細線
100
AcDbLine
 10
5392.277514407905
 20
1785.719449027932
 30
0.0
 11
5392.277514407905
 21
1794.9472956775
 31
0.0
  0
LINE
  5
154BD
330
1541A
100
AcDbEntity
  8
細線
100
AcDbLine
 10
5225.357764516342
 20
2029.548923300128
 30
0.0
 11
5386.998240178155
 21
1840.673885776117
 31
0.0
  0
ARC
  5
154BE
330
1541A
100
AcDbEntity
  8
細線
100
AcDbCircle
 10
5389.277514407903
 20
1842.624503366934
 30
0.0
 40
3.000000000000076
100
AcDbArc
 50
220.5571249050825
 51
0.0
  0
ARC
  5
154BF
330
1541A
100
AcDbEntity
  8
細線
100
AcDbCircle
 10
5389.277514407903
 20
1851.852350016501
 30
0.0
 40
2.999999999999971
100
AcDbArc
 50
0.0
 51
40.55712490508248
  0
LINE
  5
154C0
330
1541A
100
AcDbEntity
  8
細線
100
AcDbLine
 10
5185.509250499752
 20
2036.185777022094
 30
0.0
 11
5177.332295258423
 21
2036.512608566306
 31
0.0
  0
ARC
  5
154C1
330
1541A
100
AcDbEntity
  8
細線
100
AcDbCircle
 10
5389.277514407903
 20
1785.719449027932
 30
0.0
 40
3.000000000000113
100
AcDbArc
 50
220.5571249050825
 51
0.0
  0
LINE
  5
154C2
330
1541A
100
AcDbEntity
  8
細線
100
AcDbLine
 10
5392.277514407905
 20
1842.624503366934
 30
0.0
 11
5392.277514407905
 21
1851.852350016501
 31
0.0
  0
LINE
  5
154C3
330
1541A
100
AcDbEntity
  8
部品1
100
AcDbLine
 10
5118.655066645861
 20
2056.568422021537
 30
0.0
 11
5118.634521610697
 21
2056.592428658931
 31
0.0
  0
LINE
  5
154C4
330
1541A
100
AcDbEntity
  8
部品1
100
AcDbLine
 10
5117.938033219736
 20
2057.406267336646
 30
0.0
 11
5119.608416275037
 21
2058.835791932037
 31
0.0
  0
LINE
  5
154C5
330
1541A
100
AcDbEntity
  8
部品1
100
AcDbLine
 10
5118.634521610697
 20
2056.592428658931
 30
0.0
 11
5117.938033219736
 21
2057.406267336646
 31
0.0
  0
LINE
  5
154C6
330
1541A
100
AcDbEntity
  8
部品1
100
AcDbLine
 10
5409.768033221045
 20
1716.406267335414
 30
0.0
 11
5411.47751430723
 21
1717.869252277884
 31
0.0
  0
LINE
  5
154C7
330
1541A
100
AcDbEntity
  8
部品1
100
AcDbLine
 10
5409.768033221045
 20
1716.406267335414
 30
0.0
 11
5408.516001268406
 21
1717.869252278185
 31
0.0
  0
LINE
  5
154C8
330
1541A
100
AcDbEntity
  8
部品1
100
AcDbLine
 10
5505.377514407904
 20
1867.869252278185
 30
0.0
 11
5503.067514407906
 21
1867.869252278185
 31
0.0
  0
ARC
  5
154C9
330
1541A
100
AcDbEntity
  8
部品1
100
AcDbCircle
 10
5709.99081651054
 20
2074.558171103018
 30
0.0
 40
19.99999999999973
100
AcDbArc
 50
87.71111557804619
 51
139.4428750949175
  0
LINE
  5
154CA
330
1541A
100
AcDbEntity
  8
部品1
100
AcDbLine
 10
5710.789575403191
 20
2094.542214343349
 30
0.0
 11
5802.726999892794
 21
2090.867490740348
 31
0.0
  0
ARC
  5
154CB
330
1541A
100
AcDbEntity
  8
部品1
100
AcDbCircle
 10
5802.327620446466
 20
2080.87546912019
 30
0.0
 40
9.999999999995324
100
AcDbArc
 50
317.4108945522051
 51
87.71111557804619
  0
LINE
  5
154CC
330
1541A
100
AcDbEntity
  8
部品1
100
AcDbLine
 10
5809.689878235857
 20
2074.108109203468
 30
0.0
 11
5773.776826265256
 21
2035.038050884536
 31
0.0
  0
LINE
  5
154CD
330
1541A
100
AcDbEntity
  8
部品1
100
AcDbLine
 10
5694.795654978879
 20
2087.562288375126
 30
0.0
 11
5652.06980772626
 21
2037.637627054733
 31
0.0
  0
SPLINE
  5
154CE
330
1541A
100
AcDbEntity
  8
部品1
100
AcDbSpline
210
0.0
220
0.0
230
1.0
 70
     8
 71
     3
 72
     8
 73
     4
 74
     0
 42
0.000000001
 43
0.0000000001
 40
0.0
 40
0.0
 40
0.0
 40
0.0
 40
0.1419610605075158
 40
0.1419610605075158
 40
0.1419610605075158
 40
0.1419610605075158
 10
5773.776826265256
 20
2035.038050884536
 30
0.0
 10
5773.752501027478
 20
2034.951566994329
 30
0.0
 10
5773.728178739505
 20
2034.865102553319
 30
0.0
 10
5773.70388046992
 20
2034.779202493479
 30
0.0
  0
LINE
  5
154CF
330
1541A
100
AcDbEntity
  8
部品1
100
AcDbLine
 10
5653.085796872161
 20
2037.596627066556
 30
0.0
 11
5773.2643763816
 21
2032.746850512455
 31
0.0
  0
LINE
  5
154D0
330
1541A
100
AcDbEntity
  8
部品1
100
AcDbLine
 10
5773.703927277633
 20
2034.780362399358
 30
0.0
 11
5773.621284186977
 21
2032.732447587128
 31
0.0
  0
LINE
  5
154D1
330
1541A
100
AcDbEntity
  8
部品1
100
AcDbLine
 10
5773.621284186977
 20
2032.732447587128
 30
0.0
 11
5773.2643763816
 21
2032.746850512455
 31
0.0
  0
LINE
  5
154D2
330
1541A
100
AcDbEntity
  8
部品1
100
AcDbLine
 10
5649.638362108416
 20
2040.037619455141
 30
0.0
 11
5649.545621666445
 21
2037.739489952606
 31
0.0
  0
LINE
  5
154D3
330
1541A
100
AcDbEntity
  8
部品1
100
AcDbLine
 10
5653.085796872161
 20
2037.596627066556
 30
0.0
 11
5649.545621666445
 21
2037.739489952606
 31
0.0
  0
LINE
  5
154D4
330
1541A
100
AcDbEntity
  8
部品1
100
AcDbLine
 10
5653.974001684185
 20
2039.862655803153
 30
0.0
 11
5649.638362108416
 21
2040.03761945514
 31
0.0
  0
ARC
  5
154D5
330
1541A
100
AcDbEntity
  8
部品1
100
AcDbCircle
 10
5503.8775144079
 20
1867.869252278187
 30
0.0
 40
3.000000000000086
100
AcDbArc
 50
359.999999999974
 51
47.39739526195704
  0
ARC
  5
154D6
330
1541A
100
AcDbEntity
  8
部品1
100
AcDbCircle
 10
5649.807514403884
 20
2038.069252278431
 30
0.0
 40
1.800000000007715
100
AcDbArc
 50
229.4580329478139
 51
346.7993931776425
  0
ARC
  5
154D7
330
1541A
100
AcDbEntity
  8
部品1
100
AcDbCircle
 10
5773.707514406516
 20
2033.069252278857
 30
0.0
 40
1.800000000000023
100
AcDbArc
 50
188.9016199670776
 51
227.5933020675288
  0
LINE
  5
154D8
330
1541A
100
AcDbEntity
  8
部品1
100
AcDbLine
 10
5774.429095458231
 20
2030.448973770794
 30
0.0
 11
5522.177514444766
 21
1735.789242033928
 31
0.0
  0
LINE
  5
154D9
330
1541A
100
AcDbEntity
  8
部品1
100
AcDbLine
 10
5504.062044347032
 20
1871.472944398431
 30
0.0
 11
5646.832810359962
 21
2038.246113645647
 31
0.0
  0
ARC
  5
154DA
330
1541A
100
AcDbEntity
  8
細線
100
AcDbCircle
 10
5722.024909130436
 20
2014.596627066556
 30
0.0
 40
3.000000000000113
100
AcDbArc
 50
319.4339102891959
 51
90.0
  0
LINE
  5
154DB
330
1541A
100
AcDbEntity
  8
細線
100
AcDbLine
 10
5530.666483405639
 20
1786.454234947484
 30
0.0
 11
5724.303878128171
 21
2012.645652872116
 31
0.0
  0
ARC
  5
154DC
330
1541A
100
AcDbEntity
  8
細線
100
AcDbCircle
 10
5717.348751020486
 20
2007.596627066556
 30
0.0
 40
10.0
100
AcDbArc
 50
90.0
 51
139.4339102891959
  0
LINE
  5
154DD
330
1541A
100
AcDbEntity
  8
細線
100
AcDbLine
 10
5709.752187694705
 20
2014.099874381353
 30
0.0
 11
5526.108545410177
 21
1799.582343298552
 31
0.0
  0
ARC
  5
154DE
330
1541A
100
AcDbEntity
  8
細線
100
AcDbCircle
 10
5673.318673937952
 20
2014.596627066556
 30
0.0
 40
3.000000000000113
100
AcDbArc
 50
319.4339102891959
 51
90.0
  0
LINE
  5
154DF
330
1541A
100
AcDbEntity
  8
細線
100
AcDbLine
 10
5530.666483405639
 20
1843.348888047651
 30
0.0
 11
5675.597642935688
 21
2012.645652872116
 31
0.0
  0
LINE
  5
154E0
330
1541A
100
AcDbEntity
  8
細線
100
AcDbLine
 10
5525.387514407906
 20
1797.631369104112
 30
0.0
 11
5525.387514407906
 21
1788.405209141924
 31
0.0
  0
ARC
  5
154E1
330
1541A
100
AcDbEntity
  8
細線
100
AcDbCircle
 10
5528.38751440791
 20
1845.29986224209
 30
0.0
 40
2.999999999999971
100
AcDbArc
 50
179.9999999999739
 51
319.4339102891959
  0
LINE
  5
154E2
330
1541A
100
AcDbEntity
  8
細線
100
AcDbLine
 10
5673.318673937952
 20
2017.596627066556
 30
0.0
 11
5668.642515828007
 21
2017.596627066556
 31
0.0
  0
ARC
  5
154E3
330
1541A
100
AcDbEntity
  8
細線
100
AcDbCircle
 10
5668.642515828007
 20
2007.596627066556
 30
0.0
 40
10.0
100
AcDbArc
 50
90.0
 51
139.4339102891959
  0
LINE
  5
154E4
330
1541A
100
AcDbEntity
  8
細線
100
AcDbLine
 10
5525.387514407906
 20
1854.526022204279
 30
0.0
 11
5525.387514407906
 21
1845.29986224209
 31
0.0
  0
LINE
  5
154E5
330
1541A
100
AcDbEntity
  8
細線
100
AcDbLine
 10
5661.045952502226
 20
2014.099874381353
 30
0.0
 11
5526.108545410177
 21
1856.476996398718
 31
0.0
  0
ARC
  5
154E6
330
1541A
100
AcDbEntity
  8
細線
100
AcDbCircle
 10
5528.38751440791
 20
1854.526022204279
 30
0.0
 40
2.99999999999998
100
AcDbArc
 50
139.4339102891959
 51
180.0
  0
ARC
  5
154E7
330
1541A
100
AcDbEntity
  8
細線
100
AcDbCircle
 10
5528.38751440791
 20
1797.631369104112
 30
0.0
 40
2.99999999999998
100
AcDbArc
 50
139.4339102891959
 51
180.0
  0
ARC
  5
154E8
330
1541A
100
AcDbEntity
  8
細線
100
AcDbCircle
 10
5528.38751440791
 20
1788.405209141923
 30
0.0
 40
2.999999999999971
100
AcDbArc
 50
179.9999999999739
 51
319.4339102891959
  0
LINE
  5
154E9
330
1541A
100
AcDbEntity
  8
細線
100
AcDbLine
 10
5722.024909130436
 20
2017.596627066556
 30
0.0
 11
5717.348751020486
 21
2017.596627066556
 31
0.0
  0
LINE
  5
154EA
330
1541A
100
AcDbEntity
  8
部品1
100
AcDbLine
 10
5506.105698638362
 20
1717.015457088705
 30
0.0
 11
5506.836613531751
 21
1717.869252278185
 31
0.0
  0
LINE
  5
154EB
330
1541A
100
AcDbEntity
  8
部品1
100
AcDbLine
 10
5505.108364704988
 20
1717.869252278189
 30
0.0
 11
5506.105698638362
 21
1717.015457088705
 31
0.0
  0
LINE
  5
154EC
330
1541A
100
AcDbEntity
  8
部品1
100
AcDbLine
 10
5773.671374999484
 20
2033.100561157399
 30
0.0
 11
5775.418584564413
 21
2031.604814274996
 31
0.0
  0
LINE
  5
154ED
330
1541A
100
AcDbEntity
  8
部品1
100
AcDbLine
 10
5774.429095458231
 20
2030.448973770794
 30
0.0
 11
5775.418584564413
 21
2031.604814274996
 31
0.0
  0
LINE
  5
154EE
330
1541A
100
AcDbEntity
  8
部品1
100
AcDbLine
 10
5772.501993434542
 20
2031.734584948886
 30
0.0
 11
5773.365091860352
 21
2032.742786164469
 31
0.0
  0
LINE
  5
154EF
330
1541A
100
AcDbEntity
  8
部品1
100
AcDbLine
 10
5773.634396168246
 20
2033.057365501502
 30
0.0
 11
5773.671374999484
 21
2033.100561157399
 31
0.0
  0
LINE
  5
154F0
330
1541A
100
AcDbEntity
  8
部品1
100
AcDbLine
 10
5773.672804855809
 20
2033.102231398984
 30
0.0
 11
5775.420014420738
 21
2031.60648451658
 31
0.0
  0
LINE
  5
154F1
330
1541A
100
AcDbEntity
  8
部品1
100
AcDbLine
 10
5775.418584564413
 20
2031.604814274996
 30
0.0
 11
5775.420014420738
 21
2031.60648451658
 31
0.0
  0
LINE
  5
154F2
330
1541A
100
AcDbEntity
  8
部品1
100
AcDbLine
 10
5773.671374999484
 20
2033.100561157399
 30
0.0
 11
5773.672804855809
 21
2033.102231398984
 31
0.0
  0
LINE
  5
154F3
330
1541A
100
AcDbEntity
  8
部品1
 48
2.0
100
AcDbLine
 10
5407.677514444767
 20
1717.869252278185
 30
0.0
 11
5393.177514444767
 21
1734.369252278185
 31
0.0
  0
LINE
  5
154F4
330
1541A
100
AcDbEntity
  8
部品1
 48
2.0
100
AcDbLine
 10
5507.677514444766
 20
1717.869252278185
 30
0.0
 11
5522.177514444766
 21
1734.369252278185
 31
0.0
  0
LINE
  5
154F5
330
1541A
100
AcDbEntity
  8
部品1
 48
2.0
100
AcDbLine
 10
5507.677514444766
 20
1867.869252278185
 30
0.0
 11
5507.677514444766
 21
1717.869252278185
 31
0.0
  0
LINE
  5
154F6
330
1541A
100
AcDbEntity
  8
部品1
 48
2.0
100
AcDbLine
 10
5407.677514444767
 20
1717.869252278185
 30
0.0
 11
5407.677514444767
 21
1867.869252278185
 31
0.0
  0
LINE
  5
154F7
330
1541A
100
AcDbEntity
  8
部品1
 48
2.0
100
AcDbLine
 10
5407.677514444767
 20
1717.869252278185
 30
0.0
 11
5507.677514444766
 21
1717.869252278185
 31
0.0
  0
LINE
  5
154F8
330
1541A
100
AcDbEntity
  8
部品1
 48
2.0
100
AcDbLine
 10
5397.177514444766
 20
1867.869252278185
 30
0.0
 11
5518.177514444767
 21
1867.869252278185
 31
0.0
  0
LINE
  5
154F9
330
1541A
100
AcDbEntity
  8
部品1
 48
2.0
100
AcDbLine
 10
5393.177514444767
 20
1734.369252278185
 30
0.0
 11
5393.177514444767
 21
1863.869252278185
 31
0.0
  0
LINE
  5
154FA
330
1541A
100
AcDbEntity
  8
部品1
 48
2.0
100
AcDbLine
 10
5522.177514444766
 20
1863.869252278185
 30
0.0
 11
5522.177514444766
 21
1734.369252278185
 31
0.0
  0
ARC
  5
154FB
330
1541A
100
AcDbEntity
  8
部品1
 48
2.0
100
AcDbCircle
 10
5518.177514444767
 20
1863.869252278185
 30
0.0
 40
4.0
100
AcDbArc
 50
0.0
 51
90.0
  0
ARC
  5
154FC
330
1541A
100
AcDbEntity
  8
部品1
 48
2.0
100
AcDbCircle
 10
5397.177514444766
 20
1863.869252278185
 30
0.0
 40
4.0
100
AcDbArc
 50
90.0
 51
180.0
  0
CIRCLE
  5
154FD
330
1541A
100
AcDbEntity
  8
細線
 48
50.0
100
AcDbCircle
 10
5145.177514481623
 20
2090.369252277885
 30
0.0
 40
9.0
  0
LWPOLYLINE
  5
154FE
330
1541A
100
AcDbEntity
  8
細線
 48
50.0
100
AcDbPolyline
 90
        6
 70
     1
 43
0.0
 10
5138.677514481623
 20
2086.616475528154
 10
5145.177514481623
 20
2082.863698778422
 10
5151.677514481622
 20
2086.616475528154
 10
5151.677514481622
 20
2094.122029027619
 10
5145.177514481623
 20
2097.874805777351
 10
5138.677514481623
 20
2094.122029027619
  0
CIRCLE
  5
154FF
330
1541A
100
AcDbEntity
  8
細線
 48
50.0
100
AcDbCircle
 10
5205.177514481623
 20
2087.969252277884
 30
0.0
 40
9.0
  0
LWPOLYLINE
  5
15500
330
1541A
100
AcDbEntity
  8
細線
 48
50.0
100
AcDbPolyline
 90
        6
 70
     1
 43
0.0
 10
5198.677514481623
 20
2084.216475528154
 10
5205.177514481623
 20
2080.463698778422
 10
5211.677514481623
 20
2084.216475528154
 10
5211.677514481623
 20
2091.722029027618
 10
5205.177514481623
 20
2095.47480577735
 10
5198.677514481623
 20
2091.722029027618
  0
CIRCLE
  5
15501
330
1541A
100
AcDbEntity
  8
細線
 48
50.0
100
AcDbCircle
 10
5710.177514407906
 20
2067.769252278189
 30
0.0
 40
9.0
  0
LWPOLYLINE
  5
15502
330
1541A
100
AcDbEntity
  8
細線
 48
50.0
100
AcDbPolyline
 90
        6
 70
     1
 43
0.0
 10
5703.677514407907
 20
2064.016475528459
 10
5710.177514407906
 20
2060.263698778726
 10
5716.677514407907
 20
2064.016475528459
 10
5716.677514407907
 20
2071.522029027923
 10
5710.177514407906
 20
2075.274805777655
 10
5703.677514407907
 20
2071.522029027923
  0
CIRCLE
  5
15503
330
1541A
100
AcDbEntity
  8
細線
 48
50.0
100
AcDbCircle
 10
5770.177514407906
 20
2065.369252278189
 30
0.0
 40
9.0
  0
LWPOLYLINE
  5
15504
330
1541A
100
AcDbEntity
  8
細線
 48
50.0
100
AcDbPolyline
 90
        6
 70
     1
 43
0.0
 10
5763.677514407906
 20
2061.616475528459
 10
5770.177514407906
 20
2057.863698778727
 10
5776.677514407907
 20
2061.616475528459
 10
5776.677514407907
 20
2069.122029027923
 10
5770.177514407906
 20
2072.874805777656
 10
5763.677514407906
 20
2069.122029027923
  0
CIRCLE
  5
15505
330
1541A
100
AcDbEntity
  8
細線
 48
50.0
100
AcDbCircle
 10
5457.677514444767
 20
1849.869252278185
 30
0.0
 40
9.0
  0
LWPOLYLINE
  5
15506
330
1541A
100
AcDbEntity
  8
細線
 48
50.0
100
AcDbPolyline
 90
        6
 70
     1
 43
0.0
 10
5451.177514444767
 20
1846.116475528455
 10
5457.677514444767
 20
1842.363698778723
 10
5464.177514444767
 20
1846.116475528455
 10
5464.177514444767
 20
1853.622029027919
 10
5457.677514444767
 20
1857.374805777652
 10
5451.177514444767
 20
1853.622029027919
  0
CIRCLE
  5
15507
330
1541A
100
AcDbEntity
  8
細線
 48
50.0
100
AcDbCircle
 10
5457.677514444767
 20
1792.869252278185
 30
0.0
 40
9.0
  0
LWPOLYLINE
  5
15508
330
1541A
100
AcDbEntity
  8
細線
 48
50.0
100
AcDbPolyline
 90
        6
 70
     1
 43
0.0
 10
5451.177514444767
 20
1789.116475528455
 10
5457.677514444767
 20
1785.363698778723
 10
5464.177514444767
 20
1789.116475528455
 10
5464.177514444767
 20
1796.622029027919
 10
5457.677514444767
 20
1800.374805777652
 10
5451.177514444767
 20
1796.622029027919
  0
CIRCLE
  5
15509
330
1541A
100
AcDbEntity
  8
細線
 48
50.0
100
AcDbCircle
 10
5457.677514444767
 20
1735.869252278185
 30
0.0
 40
9.0
  0
LWPOLYLINE
  5
1550A
330
1541A
100
AcDbEntity
  8
細線
 48
50.0
100
AcDbPolyline
 90
        6
 70
     1
 43
0.0
 10
5451.177514444767
 20
1732.116475528455
 10
5457.677514444767
 20
1728.363698778723
 10
5464.177514444767
 20
1732.116475528455
 10
5464.177514444767
 20
1739.622029027919
 10
5457.677514444767
 20
1743.374805777652
 10
5451.177514444767
 20
1739.622029027919
  0
LINE
  5
1550B
330
1541A
100
AcDbEntity
  8
部品1
 48
50.0
100
AcDbLine
 10
5118.529453636906
 20
2061.19076236699
 30
0.0
 11
5119.204939571183
 21
2058.956530973155
 31
0.0
  0
LINE
  5
1550C
330
1541A
100
AcDbEntity
  8
部品1
 48
50.0
100
AcDbLine
 10
5119.204939571183
 20
2058.956530973155
 30
0.0
 11
5119.208596396527
 21
2058.851772666241
 31
0.0
  0
LINE
  5
1550D
330
1541A
100
AcDbEntity
  8
部品1
 48
50.0
100
AcDbLine
 10
5121.144512061038
 20
2058.774394438352
 30
0.0
 11
5118.655066645861
 21
2056.568422021537
 31
0.0
  0
LINE
  5
1550E
330
1541A
100
AcDbEntity
  8
部品1
 48
50.0
100
AcDbLine
 10
5646.832810359962
 20
2038.246113645647
 30
0.0
 11
5648.637505685613
 21
2036.701378161708
 31
0.0
  0
LINE
  5
1550F
330
1541A
100
AcDbEntity
  8
部品1
 48
50.0
100
AcDbLine
 10
5774.429095458231
 20
2030.448973770794
 30
0.0
 11
5772.493614730089
 21
2031.740174562704
 31
0.0
  0
LINE
  5
15510
330
1541A
100
AcDbEntity
  8
部品1
 48
50.0
100
AcDbLine
 10
5504.062044347032
 20
1871.472944398431
 30
0.0
 11
5505.908242706541
 21
1870.077451222371
 31
0.0
  0
LINE
  5
15511
330
1541A
100
AcDbEntity
  8
部品1
 48
50.0
100
AcDbLine
 10
5409.392996739677
 20
1870.026747535077
 30
0.0
 11
5411.277886949213
 21
1871.51541365455
 31
0.0
  0
ENDBLK
  5
15515
330
1541A
100
AcDbEntity
  8
0
 48
50.0
100
AcDbBlockEnd
  0
BLOCK
  5
1552F
330
1552E
100
AcDbEntity
  8
0
 48
50.0
100
AcDbBlockBegin
  2
*D25
 70
     1
 10
0.0
 20
0.0
 30
0.0
  3
*D25
  1

  0
LINE
  5
1554C
330
1552E
100
AcDbEntity
  8
寸法
 62
     0
 48
50.0
370
    -2
100
AcDbLine
 10
2677.862646115603
 20
1695.562576328025
 30
0.0
 11
2677.862646115603
 21
1469.610538984619
 31
0.0
  0
LINE
  5
1554D
330
1552E
100
AcDbEntity
  8
寸法
 62
     0
 48
50.0
370
    -2
100
AcDbLine
 10
5507.862646115605
 20
1695.562576328023
 30
0.0
 11
5507.862646115605
 21
1469.610538984619
 31
0.0
  0
LINE
  5
1554E
330
1552E
100
AcDbEntity
  8
寸法
 62
     0
 48
50.0
370
    -2
100
AcDbLine
 10
2677.862646115603
 20
1514.610538984619
 30
0.0
 11
5507.862646115605
 21
1514.610538984619
 31
0.0
  0
INSERT
  5
1554F
330
1552E
100
AcDbEntity
  8
寸法
 62
     0
 48
50.0
370
    -2
100
AcDbBlockReference
  2
_DOTSMALL
 10
2677.862646115603
 20
1514.610538984619
 30
0.0
 41
75.0
 42
75.0
 43
75.0
 50
180.0
  0
INSERT
  5
15550
330
1552E
100
AcDbEntity
  8
寸法
 62
     0
 48
50.0
370
    -2
100
AcDbBlockReference
  2
_DOTSMALL
 10
5507.862646115605
 20
1514.610538984619
 30
0.0
 41
75.0
 42
75.0
 43
75.0
  0
MTEXT
  5
15551
330
1552E
100
AcDbEntity
  8
寸法
 62
     7
 48
50.0
100
AcDbMText
 10
4092.862646115604
 20
1589.619397252335
 30
0.0
 40
90.0
 41
0.0
 71
     5
 72
     1
  1
\A1;2830
  7
STYLE1
 73
     1
 44
1.0
1001
ACAD
1000
MTEXTBEGIN
1070
    73
1070
     1
1070
    44
1040
1.0
1070
    74
1070
     0
1000
MTEXTEND
  0
POINT
  5
15552
330
1552E
100
AcDbEntity
  8
DEFPOINTS
 62
     0
 48
50.0
100
AcDbPoint
 10
2677.862646115603
 20
1710.562576328024
 30
0.0
  0
POINT
  5
15553
330
1552E
100
AcDbEntity
  8
DEFPOINTS
 62
     0
 48
50.0
100
AcDbPoint
 10
5507.862646115605
 20
1710.562576328023
 30
0.0
  0
POINT
  5
15554
330
1552E
100
AcDbEntity
  8
DEFPOINTS
 62
     0
 48
50.0
100
AcDbPoint
 10
5507.862646115605
 20
1514.610538984619
 30
0.0
  0
ENDBLK
  5
15530
330
1552E
100
AcDbEntity
  8
0
 48
50.0
100
AcDbBlockEnd
  0
BLOCK
  5
15561
330
15556
100
AcDbEntity
  8
0
 48
50.0
100
AcDbBlockBegin
  2
A$C2E0E56F6
 70
     0
 10
0.0
 20
0.0
 30
0.0
  3
A$C2E0E56F6
  1

  0
TEXT
  5
15557
330
15556
100
AcDbEntity
  8
部品1
 48
50.0
100
AcDbText
 10
1955.635849557125
 20
-1412.674354838911
 30
0.0
 40
120.0
  1
⑥
  7
STYLE2
100
AcDbText
  0
LINE
  5
15558
330
15556
100
AcDbEntity
  8
寸法
 48
50.0
100
AcDbLine
 10
510.3038199105021
 20
-1325.186883357536
 30
0.0
 11
637.4622308182006
 21
-991.4177813365313
 31
0.0
  0
TEXT
  5
15559
330
15556
100
AcDbEntity
  8
部品1
 48
50.0
100
AcDbText
 10
385.2477666052082
 20
-1464.099979127081
 30
0.0
 40
120.0
  1
⑦
  7
STYLE2
100
AcDbText
  0
LINE
  5
1555A
330
15556
100
AcDbEntity
  8
寸法
 48
50.0
100
AcDbLine
 10
2013.750710472021
 20
-1275.547066334032
 30
0.0
 11
1882.862565733572
 21
-882.1986303744569
 31
0.0
  0
TEXT
  5
1555B
330
15556
100
AcDbEntity
  8
部品1
 48
50.0
100
AcDbText
 10
-590.4852156130646
 20
411.0895971077834
 30
0.0
 40
120.0
  1
③
  7
STYLE2
100
AcDbText
  0
LINE
  5
1555C
330
15556
100
AcDbEntity
  8
寸法
 48
50.0
100
AcDbLine
 10
-433.4825158313788
 20
431.6936387851919
 30
0.0
 11
30.64997647490236
 21
176.7762894987754
 31
0.0
  0
TEXT
  5
1555D
330
15556
100
AcDbEntity
  8
部品1
 48
50.0
100
AcDbText
 10
-601.8537214809225
 20
-319.6730938681239
 30
0.0
 40
120.0
  1
④
  7
STYLE2
100
AcDbText
  0
LINE
  5
1555E
330
15556
100
AcDbEntity
  8
寸法
 48
50.0
100
AcDbLine
 10
-436.0231084496631
 20
-240.7390024069564
 30
0.0
 11
-65.49073630821294
 21
-54.57425930641694
 31
0.0
  0
ENDBLK
  5
15562
330
15556
100
AcDbEntity
  8
0
 48
50.0
100
AcDbBlockEnd
  0
BLOCK
  5
1556E
330
15563
100
AcDbEntity
  8
0
 48
50.0
100
AcDbBlockBegin
  2
A$C2F8D0837
 70
     0
 10
0.0
 20
0.0
 30
0.0
  3
A$C2F8D0837
  1

  0
TEXT
  5
15564
330
15563
100
AcDbEntity
  8
部品1
 48
50.0
100
AcDbText
 10
1895.635849557126
 20
-1412.674354838911
 30
0.0
 40
120.0
  1
⑥
  7
STYLE2
100
AcDbText
  0
LINE
  5
15565
330
15563
100
AcDbEntity
  8
寸法
 48
50.0
100
AcDbLine
 10
450.3038199105021
 20
-1325.186883357536
 30
0.0
 11
577.4622308182006
 21
-991.4177813365313
 31
0.0
  0
TEXT
  5
15566
330
15563
100
AcDbEntity
  8
部品1
 48
50.0
100
AcDbText
 10
325.2477666052082
 20
-1464.099979127081
 30
0.0
 40
120.0
  1
⑦
  7
STYLE2
100
AcDbText
  0
LINE
  5
15567
330
15563
100
AcDbEntity
  8
寸法
 48
50.0
100
AcDbLine
 10
1953.750710472021
 20
-1275.547066334032
 30
0.0
 11
1822.862565733572
 21
-882.1986303744569
 31
0.0
  0
TEXT
  5
15568
330
15563
100
AcDbEntity
  8
部品1
 48
50.0
100
AcDbText
 10
-650.4852156130645
 20
411.0895971077834
 30
0.0
 40
120.0
  1
③
  7
STYLE2
100
AcDbText
  0
LINE
  5
15569
330
15563
100
AcDbEntity
  8
寸法
 48
50.0
100
AcDbLine
 10
-493.4825158313787
 20
431.6936387851919
 30
0.0
 11
-29.35002352509764
 21
176.7762894987754
 31
0.0
  0
TEXT
  5
1556A
330
15563
100
AcDbEntity
  8
部品1
 48
50.0
100
AcDbText
 10
-661.8537214809225
 20
-319.6730938681239
 30
0.0
 40
120.0
  1
④
  7
STYLE2
100
AcDbText
  0
LINE
  5
1556B
330
15563
100
AcDbEntity
  8
寸法
 48
50.0
100
AcDbLine
 10
-496.0231084496631
 20
-240.7390024069564
 30
0.0
 11
-125.4907363082129
 21
-54.57425930641694
 31
0.0
  0
ENDBLK
  5
1556F
330
15563
100
AcDbEntity
  8
0
 48
50.0
100
AcDbBlockEnd
  0
ENDSEC
  0
SECTION
  2
ENTITIES
  0
MTEXT
  5
763F
330
747D
100
AcDbEntity
  8
0
100
AcDbMText
 10
302.846345836809
 20
280.1983726409901
 30
0.0
 40
3.5
 41
5.323721266742722
 71
     1
 72
     5
  1

  7
MSMINCHO
 73
     1
 44
1.0
1001
ACAD
1000
MTEXTBEGIN
1070
    73
1070
     1
1070
    44
1040
1.0
1070
    74
1070
     0
1000
MTEXTEND
  0
INSERT
  5
F235
330
747D
100
AcDbEntity
  8
0
100
AcDbBlockReference
  2
作図枠S50
 10
0.0
 20
0.0
 30
0.0
 41
0.6000000000000001
 42
0.6000000000000001
 43
0.6000000000000001
  0
LINE
  5
10B56
330
747D
100
AcDbEntity
  8
補助
  6
PHANTOM
 62
   230
 48
50.0
100
AcDbLine
 10
105.0
 20
0.0
 30
0.0
 11
104.9999999999996
 21
8557.199999999999
 31
0.0
  0
LINE
  5
10B57
330
747D
100
AcDbEntity
  8
補助
  6
PHANTOM
 62
   230
 48
50.0
100
AcDbLine
 10
104.9999999999996
 20
8557.199999999999
 30
0.0
 11
12230.4
 21
8557.199999999999
 31
0.0
  0
LINE
  5
10B5E
330
747D
100
AcDbEntity
  8
補助
  6
PHANTOM
 62
   230
 48
50.0
100
AcDbLine
 10
12230.4
 20
8557.199999999999
 30
0.0
 11
12230.4
 21
900.0
 31
0.0
  0
LINE
  5
12F4D
330
747D
100
AcDbEntity
  8
仕様書枠
 48
50.0
100
AcDbLine
 10
105.0000000000018
 20
0.0
 30
0.0
 11
12230.4
 21
0.0
 31
0.0
  0
DIMENSION
  5
12F4F
330
747D
100
AcDbEntity
  8
寸法
 48
50.0
100
AcDbDimension
  2
*D4
 10
5757.862646115606
 20
4910.957606075115
 30
0.0
 11
4092.862646115604
 21
4985.957606075115
 31
0.0
 70
    32
 71
     5
 42
3330.000000000004
  3
INABA_S30G
100
AcDbAlignedDimension
 13
2427.862646115603
 23
4066.450581124186
 33
0.0
 14
5757.862646115606
 24
4066.450581124185
 34
0.0
100
AcDbRotatedDimension
  0
DIMENSION
  5
12F50
330
747D
100
AcDbEntity
  8
寸法
 48
50.0
100
AcDbDimension
  2
*D5
 10
5507.862646115606
 20
4601.702425425583
 30
0.0
 11
4092.862646115604
 21
4676.7112836933
 31
0.0
 70
    32
 71
     5
 42
2830.000000000003
  3
INABA_S30G
100
AcDbAlignedDimension
 13
2677.862646115603
 23
3970.897875741638
 33
0.0
 14
5507.862646115606
 24
3970.897875741638
 34
0.0
100
AcDbRotatedDimension
  0
LINE
  5
12F56
330
747D
100
AcDbEntity
  8
部品1
 48
50.0
100
AcDbLine
 10
5747.862646115606
 20
1880.562576328022
 30
0.0
 11
2437.862646115603
 21
1880.562576328023
 31
0.0
  0
LINE
  5
12F57
330
747D
100
AcDbEntity
  8
Ｇ．Ｌ
 48
50.0
100
AcDbLine
 10
1748.282671209718
 20
1830.562576328022
 30
0.0
 11
10392.73793361398
 21
1830.562576328022
 31
0.0
  0
LINE
  5
12F58
330
747D
100
AcDbEntity
  8
細線
 48
50.0
100
AcDbLine
 10
5707.644030014203
 20
4002.407532190146
 30
0.0
 11
2478.081262217006
 21
4002.407532190148
 31
0.0
  0
LINE
  5
12F59
330
747D
100
AcDbEntity
  8
細線
 48
50.0
100
AcDbLine
 10
5704.282423454189
 20
4014.027143629733
 30
0.0
 11
2481.442868777024
 21
4014.027143629737
 31
0.0
  0
LINE
  5
12F5A
330
747D
100
AcDbEntity
  8
細線
 48
50.0
100
AcDbLine
 10
5709.488917815082
 20
4038.276767503652
 30
0.0
 11
2476.236374416135
 21
4038.276767503653
 31
0.0
  0
LINE
  5
12F5B
330
747D
100
AcDbEntity
  8
細線
 48
50.0
100
AcDbLine
 10
5715.486412224168
 20
4049.896378943234
 30
0.0
 11
2470.238880007042
 21
4049.896378943238
 31
0.0
  0
LINE
  5
12F5C
330
747D
100
AcDbEntity
  8
部品1
 48
50.0
100
AcDbLine
 10
5717.862646115606
 20
3977.046555566361
 30
0.0
 11
2467.862646115603
 21
3977.046555566363
 31
0.0
  0
LINE
  5
12F5D
330
747D
100
AcDbEntity
  8
部品1
 48
50.0
100
AcDbLine
 10
5742.862646115606
 20
4081.450581124187
 30
0.0
 11
2442.862646115603
 21
4081.450581124189
 31
0.0
  0
LINE
  5
12F70
330
747D
100
AcDbEntity
  8
部品1
 48
50.0
100
AcDbLine
 10
2490.862646115603
 20
3977.046555566363
 30
0.0
 11
2490.862646115603
 21
3900.228017808711
 31
0.0
  0
LINE
  5
12F71
330
747D
100
AcDbEntity
  8
部品1
 48
50.0
100
AcDbLine
 10
2645.862646115603
 20
3968.897875741639
 30
0.0
 11
2645.862646115603
 21
3909.348694766935
 31
0.0
  0
LINE
  5
12F72
330
747D
100
AcDbEntity
  8
部品1
 48
50.0
100
AcDbLine
 10
2709.862646115603
 20
3968.897875741639
 30
0.0
 11
2709.862646115603
 21
3909.348694766935
 31
0.0
  0
LINE
  5
12F73
330
747D
100
AcDbEntity
  8
部品1
 48
50.0
100
AcDbLine
 10
2428.438183718457
 20
3985.516841724655
 30
0.0
 11
2448.630029586079
 21
3914.741082286204
 31
0.0
  0
LINE
  5
12F77
330
747D
100
AcDbEntity
  8
部品1
 48
50.0
100
AcDbLine
 10
2722.862646115603
 20
3548.431828606206
 30
0.0
 11
2722.862646115603
 21
1880.562576328023
 31
0.0
  0
LINE
  5
12F78
330
747D
100
AcDbEntity
  8
部品1
 48
50.0
100
AcDbLine
 10
2632.862646115607
 20
3548.431828606206
 30
0.0
 11
2632.862646115603
 21
1880.562576328023
 31
0.0
  0
LINE
  5
12F7C
330
747D
100
AcDbEntity
  8
部品1
 48
50.0
100
AcDbLine
 10
2427.862646115603
 20
1870.562576328023
 30
0.0
 11
2427.862646115603
 21
1830.562576328023
 31
0.0
  0
LINE
  5
12F82
330
747D
100
AcDbEntity
  8
点線
 48
18.0
100
AcDbLine
 10
2722.862646115603
 20
1880.562576328023
 30
0.0
 11
2722.862646115603
 21
1830.562576328023
 31
0.0
  0
LINE
  5
12F83
330
747D
100
AcDbEntity
  8
点線
 48
18.0
100
AcDbLine
 10
2632.862646115603
 20
1880.562576328023
 30
0.0
 11
2632.862646115603
 21
1830.562576328023
 31
0.0
  0
LINE
  5
12F86
330
747D
100
AcDbEntity
  8
部品1
 48
50.0
100
AcDbLine
 10
2645.862646115603
 20
3909.969012140662
 30
0.0
 11
2490.862646115603
 21
3909.969012140662
 31
0.0
  0
LINE
  5
12F87
330
747D
100
AcDbEntity
  8
部品1
 48
50.0
100
AcDbLine
 10
2645.862646115603
 20
3900.228017808711
 30
0.0
 11
2467.862646115603
 21
3900.228017808711
 31
0.0
  0
ARC
  5
12F88
330
747D
100
AcDbEntity
  8
部品1
 48
50.0
100
AcDbCircle
 10
2467.862646115603
 20
3920.228017808711
 30
0.0
 40
20.0
100
AcDbArc
 50
195.9230900765477
 51
270.0
  0
ARC
  5
12F89
330
747D
100
AcDbEntity
  8
部品1
 48
50.0
100
AcDbCircle
 10
2647.862646115603
 20
3909.348694766935
 30
0.0
 40
2.0
100
AcDbArc
 50
180.0000000000017
 51
270.0
  0
ARC
  5
12F8A
330
747D
100
AcDbEntity
  8
部品1
 48
50.0
100
AcDbCircle
 10
2707.862646115603
 20
3909.348694766935
 30
0.0
 40
2.0
100
AcDbArc
 50
270.0
 51
0.000000000000007
  0
LINE
  5
12F8B
330
747D
100
AcDbEntity
  8
部品1
 48
50.0
100
AcDbLine
 10
2647.862646115603
 20
3907.348694766935
 30
0.0
 11
2707.862646115603
 21
3907.348694766935
 31
0.0
  0
LINE
  5
12F8C
330
747D
100
AcDbEntity
  8
細線
 48
50.0
100
AcDbLine
 10
2645.862646115603
 20
3932.89787574164
 30
0.0
 11
2709.862646115603
 21
3932.897875741639
 31
0.0
  0
LINE
  5
12F8D
330
747D
100
AcDbEntity
  8
細線
 48
50.0
100
AcDbLine
 10
2645.862646115603
 20
3922.897875741641
 30
0.0
 11
2709.862646115603
 21
3922.897875741639
 31
0.0
  0
LINE
  5
12F8E
330
747D
100
AcDbEntity
  8
部品1
 48
50.0
100
AcDbLine
 10
2627.862646115607
 20
3698.431828606209
 30
0.0
 11
2657.862646115606
 21
3698.431828606209
 31
0.0
  0
LINE
  5
12F91
330
747D
100
AcDbEntity
  8
部品1
 48
50.0
100
AcDbLine
 10
2627.862646115607
 20
3548.431828606208
 30
0.0
 11
2627.862646115607
 21
3698.431828606209
 31
0.0
  0
LINE
  5
12F93
330
747D
100
AcDbEntity
  8
部品1
 48
50.0
100
AcDbLine
 10
2727.862646115603
 20
3548.431828606208
 30
0.0
 11
2727.862646115603
 21
3698.431828606209
 31
0.0
  0
LINE
  5
12F94
330
747D
100
AcDbEntity
  8
部品1
 48
50.0
100
AcDbLine
 10
2627.862646115607
 20
3548.431828606207
 30
0.0
 11
2727.862646115602
 21
3548.431828606206
 31
0.0
  0
LINE
  5
12F95
330
747D
100
AcDbEntity
  8
部品1
 48
50.0
100
AcDbLine
 10
2697.862646115606
 20
3698.431828606209
 30
0.0
 11
2727.862646115603
 21
3698.431828606209
 31
0.0
  0
LINE
  5
12F97
330
747D
100
AcDbEntity
  8
部品1
 48
50.0
100
AcDbLine
 10
2657.862646115603
 20
3907.348694766937
 30
0.0
 11
2657.862646115603
 21
3548.431828606208
 31
0.0
  0
LINE
  5
12F98
330
747D
100
AcDbEntity
  8
部品1
 48
50.0
100
AcDbLine
 10
2697.862646115603
 20
3907.348694766937
 30
0.0
 11
2697.862646115603
 21
3548.431828606208
 31
0.0
  0
LINE
  5
12F99
330
747D
100
AcDbEntity
  8
部品1
 48
50.0
100
AcDbLine
 10
2677.862646115603
 20
3907.348694766937
 30
0.0
 11
2677.862646115603
 21
3548.431828606208
 31
0.0
  0
DIMENSION
  5
12FB4
330
747D
100
AcDbEntity
  8
寸法
 48
50.0
100
AcDbDimension
  2
*D6
 10
2677.862646115603
 20
4601.702425425583
 30
0.0
 11
2240.684496509303
 21
4601.702425425583
 31
0.0
 70
   160
 71
     5
 42
250.0
  3
INABA_S30G
100
AcDbAlignedDimension
 13
2427.862646115603
 23
4066.450581124186
 33
0.0
 14
2677.862646115603
 24
3970.897875741638
 34
0.0
100
AcDbRotatedDimension
  0
LINE
  5
12FB5
330
747D
100
AcDbEntity
  8
部品1
 48
50.0
100
AcDbLine
 10
2645.862646115603
 20
3969.969012140659
 30
0.0
 11
2490.862646115603
 21
3969.969012140659
 31
0.0
  0
LINE
  5
12FB6
330
747D
100
AcDbEntity
  8
部品1
 48
50.0
100
AcDbLine
 10
2645.862646115603
 20
3939.30714462049
 30
0.0
 11
2490.862646115603
 21
3939.30714462049
 31
0.0
  0
LINE
  5
12FB7
330
747D
100
AcDbEntity
  8
部品1
 48
50.0
100
AcDbLine
 10
2427.862646115603
 20
4066.450581124186
 30
0.0
 11
2427.862646115603
 21
3989.632043366533
 31
0.0
  0
ARC
  5
12FB8
330
747D
100
AcDbEntity
  8
部品1
 48
50.0
100
AcDbCircle
 10
2442.862646115603
 20
3989.632043366533
 30
0.0
 40
15.0
100
AcDbArc
 50
180.0
 51
195.9230900765452
  0
ARC
  5
12FB9
330
747D
100
AcDbEntity
  8
細線
 48
50.0
100
AcDbCircle
 10
2481.442868777024
 20
4017.027143629735
 30
0.0
 40
3.0
100
AcDbArc
 50
195.9230900765464
 51
270.0
  0
ARC
  5
12FBA
330
747D
100
AcDbEntity
  8
細線
 48
50.0
100
AcDbCircle
 10
2476.236374416135
 20
4035.276767503654
 30
0.0
 40
3.0
100
AcDbArc
 50
90.0
 51
195.9230900765469
  0
ARC
  5
12FBB
330
747D
100
AcDbEntity
  8
細線
 48
50.0
100
AcDbCircle
 10
2478.081262217006
 20
4012.407532190148
 30
0.0
 40
10.0
100
AcDbArc
 50
195.9230900765468
 51
270.0
  0
ARC
  5
12FBC
330
747D
100
AcDbEntity
  8
細線
 48
50.0
100
AcDbCircle
 10
2470.238880007042
 20
4039.896378943238
 30
0.0
 40
10.0
100
AcDbArc
 50
90.0
 51
195.9230900765469
  0
LINE
  5
12FBD
330
747D
100
AcDbEntity
  8
細線
 48
50.0
100
AcDbLine
 10
2473.351481936706
 20
4034.453727175279
 30
0.0
 11
2478.557976297595
 21
4016.204103301361
 31
0.0
  0
LINE
  5
12FBE
330
747D
100
AcDbEntity
  8
細線
 48
50.0
100
AcDbLine
 10
2460.62257174228
 20
4037.152911181985
 30
0.0
 11
2468.464953952244
 21
4009.664064428895
 31
0.0
  0
ARC
  5
12FBF
330
747D
100
AcDbEntity
  8
部品1
 48
50.0
100
AcDbCircle
 10
2467.862646115603
 20
3997.046555566363
 30
0.0
 40
20.0
100
AcDbArc
 50
195.9230900765477
 51
270.0
  0
LINE
  5
12FC0
330
747D
100
AcDbEntity
  8
部品1
 48
50.0
100
AcDbLine
 10
2428.438183718457
 20
4062.335379482306
 30
0.0
 11
2448.630029586079
 21
3991.559620043857
 31
0.0
  0
ARC
  5
12FC1
330
747D
100
AcDbEntity
  8
部品1
 48
50.0
100
AcDbCircle
 10
2442.862646115603
 20
4066.450581124186
 30
0.0
 40
15.0
100
AcDbArc
 50
90.0
 51
195.9230900765452
  0
LINE
  5
12FC2
330
747D
100
AcDbEntity
  8
部品1
 48
50.0
100
AcDbLine
 10
2490.862646115603
 20
4081.450581124189
 30
0.0
 11
2490.862646115603
 21
3977.046555566363
 31
0.0
  0
ARC
  5
12FC3
330
747D
100
AcDbEntity
  8
部品1
 48
50.0
100
AcDbCircle
 10
2647.862646115603
 20
3968.897875741639
 30
0.0
 40
2.0
100
AcDbArc
 50
90.0
 51
180.0
  0
ARC
  5
12FC4
330
747D
100
AcDbEntity
  8
部品1
 48
50.0
100
AcDbCircle
 10
2707.862646115603
 20
3968.897875741639
 30
0.0
 40
2.0
100
AcDbArc
 50
0.000000000000007
 51
90.0
  0
LINE
  5
12FC5
330
747D
100
AcDbEntity
  8
部品1
 48
50.0
100
AcDbLine
 10
2647.862646115603
 20
3970.897875741638
 30
0.0
 11
2707.862646115603
 21
3970.897875741638
 31
0.0
  0
LINE
  5
12FC6
330
747D
100
AcDbEntity
  8
細線
 48
50.0
100
AcDbLine
 10
2645.862646115603
 20
3954.897875741639
 30
0.0
 11
2709.862646115603
 21
3954.897875741639
 31
0.0
  0
LINE
  5
12FC7
330
747D
100
AcDbEntity
  8
細線
 48
50.0
100
AcDbLine
 10
2645.862646115603
 20
3944.897875741641
 30
0.0
 11
2709.862646115603
 21
3944.897875741638
 31
0.0
  0
LINE
  5
131F0
330
747D
100
AcDbEntity
  8
部品1
 48
50.0
100
AcDbLine
 10
5475.862646115605
 20
3900.22801780871
 30
0.0
 11
2709.862646115603
 21
3900.228017808709
 31
0.0
  0
LINE
  5
13248
330
747D
100
AcDbEntity
  8
部品1
 48
50.0
100
AcDbLine
 10
5694.862646115606
 20
3977.046555566361
 30
0.0
 11
5694.862646115606
 21
3900.22801780871
 31
0.0
  0
LINE
  5
13249
330
747D
100
AcDbEntity
  8
部品1
 48
50.0
100
AcDbLine
 10
5757.287108512753
 20
3985.516841724653
 30
0.0
 11
5737.095262645134
 21
3914.741082286202
 31
0.0
  0
LINE
  5
1324A
330
747D
100
AcDbEntity
  8
部品1
 48
50.0
100
AcDbLine
 10
5539.862646115606
 20
3968.897875741637
 30
0.0
 11
5539.862646115606
 21
3909.348694766933
 31
0.0
  0
LINE
  5
1324B
330
747D
100
AcDbEntity
  8
部品1
 48
50.0
100
AcDbLine
 10
5475.862646115606
 20
3968.897875741637
 30
0.0
 11
5475.862646115606
 21
3909.348694766933
 31
0.0
  0
LINE
  5
13282
330
747D
100
AcDbEntity
  8
部品1
 48
50.0
100
AcDbLine
 10
5552.862646115606
 20
3548.431828606204
 30
0.0
 11
5552.862646115606
 21
1880.562576328022
 31
0.0
  0
LINE
  5
13283
330
747D
100
AcDbEntity
  8
部品1
 48
50.0
100
AcDbLine
 10
5462.862646115606
 20
3548.431828606204
 30
0.0
 11
5462.862646115606
 21
1880.562576328022
 31
0.0
  0
LINE
  5
13284
330
747D
100
AcDbEntity
  8
細線
 48
50.0
100
AcDbLine
 10
4042.862646115603
 20
1830.562576328023
 30
0.0
 11
4092.862646115603
 21
1880.562576328023
 31
0.0
  0
LINE
  5
13285
330
747D
100
AcDbEntity
  8
細線
 48
50.0
100
AcDbLine
 10
4015.921866115605
 20
1830.562576328023
 30
0.0
 11
4065.921866115605
 21
1880.562576328023
 31
0.0
  0
LINE
  5
13286
330
747D
100
AcDbEntity
  8
細線
 48
50.0
100
AcDbLine
 10
4069.803426115604
 20
1830.562576328023
 30
0.0
 11
4119.803426115604
 21
1880.562576328023
 31
0.0
  0
LINE
  5
13292
330
747D
100
AcDbEntity
  8
点線
 48
18.0
100
AcDbLine
 10
5552.862646115606
 20
1880.562576328022
 30
0.0
 11
5552.862646115606
 21
1830.562576328022
 31
0.0
  0
LINE
  5
13293
330
747D
100
AcDbEntity
  8
点線
 48
18.0
100
AcDbLine
 10
5462.862646115606
 20
1880.562576328022
 30
0.0
 11
5462.862646115606
 21
1830.562576328022
 31
0.0
  0
LINE
  5
13297
330
747D
100
AcDbEntity
  8
部品1
 48
50.0
100
AcDbLine
 10
5757.862646115606
 20
1870.562576328022
 30
0.0
 11
5757.862646115606
 21
1830.562576328022
 31
0.0
  0
LINE
  5
13298
330
747D
100
AcDbEntity
  8
部品1
 48
50.0
100
AcDbLine
 10
5694.862646115606
 20
3909.96901214066
 30
0.0
 11
5539.862646115606
 21
3909.969012140658
 31
0.0
  0
LINE
  5
13299
330
747D
100
AcDbEntity
  8
部品1
 48
50.0
100
AcDbLine
 10
5717.862646115606
 20
3900.22801780871
 30
0.0
 11
5539.862646115606
 21
3900.228017808708
 31
0.0
  0
ARC
  5
1329A
330
747D
100
AcDbEntity
  8
部品1
 48
50.0
100
AcDbCircle
 10
5537.832570767948
 20
3865.301258266919
 30
0.0
 40
2.0
100
AcDbArc
 50
270.0
 51
0.0
  0
LINE
  5
1329D
330
747D
100
AcDbEntity
  8
部品1
 48
50.0
100
AcDbLine
 10
5539.832570767948
 20
3909.003156253742
 30
0.0
 11
5539.832570767948
 21
3865.301258266919
 31
0.0
  0
LINE
  5
1329F
330
747D
100
AcDbEntity
  8
部品1
 48
50.0
100
AcDbLine
 10
5537.832570767948
 20
3863.301258266918
 30
0.0
 11
5527.832570767948
 21
3863.301258266918
 31
0.0
  0
LINE
  5
132A0
330
747D
100
AcDbEntity
  8
細線
 48
50.0
100
AcDbLine
 10
5539.862646115606
 20
3922.897875741639
 30
0.0
 11
5475.862646115606
 21
3922.897875741637
 31
0.0
  0
LINE
  5
132A1
330
747D
100
AcDbEntity
  8
細線
 48
50.0
100
AcDbLine
 10
5539.862646115606
 20
3932.897875741639
 30
0.0
 11
5475.862646115606
 21
3932.897875741637
 31
0.0
  0
ARC
  5
132A2
330
747D
100
AcDbEntity
  8
部品1
 48
50.0
100
AcDbCircle
 10
5477.862646115607
 20
3909.348694766933
 30
0.0
 40
2.0
100
AcDbArc
 50
180.0
 51
270.0
  0
ARC
  5
132A3
330
747D
100
AcDbEntity
  8
部品1
 48
50.0
100
AcDbCircle
 10
5537.862646115606
 20
3909.348694766933
 30
0.0
 40
2.0
100
AcDbArc
 50
270.0
 51
359.9999999999983
  0
LINE
  5
132A4
330
747D
100
AcDbEntity
  8
部品1
 48
50.0
100
AcDbLine
 10
5537.862646115606
 20
3907.348694766934
 30
0.0
 11
5477.862646115607
 21
3907.348694766934
 31
0.0
  0
LINE
  5
132A5
330
747D
100
AcDbEntity
  8
部品1
 48
50.0
100
AcDbLine
 10
5487.862646115607
 20
3698.431828606209
 30
0.0
 11
5457.862646115606
 21
3698.431828606209
 31
0.0
  0
LINE
  5
132A6
330
747D
100
AcDbEntity
  8
部品1
 48
50.0
100
AcDbLine
 10
5527.862646115607
 20
3907.348694766935
 30
0.0
 11
5527.862646115607
 21
3548.431828606207
 31
0.0
  0
LINE
  5
132A7
330
747D
100
AcDbEntity
  8
部品1
 48
50.0
100
AcDbLine
 10
5487.862646115607
 20
3907.348694766935
 30
0.0
 11
5487.862646115607
 21
3548.431828606207
 31
0.0
  0
LINE
  5
132A8
330
747D
100
AcDbEntity
  8
部品1
 48
50.0
100
AcDbLine
 10
5557.862646115606
 20
3548.431828606207
 30
0.0
 11
5557.862646115606
 21
3698.431828606209
 31
0.0
  0
LINE
  5
132A9
330
747D
100
AcDbEntity
  8
部品1
 48
50.0
100
AcDbLine
 10
5457.862646115606
 20
3548.431828606207
 30
0.0
 11
5457.862646115606
 21
3698.431828606209
 31
0.0
  0
LINE
  5
132AA
330
747D
100
AcDbEntity
  8
部品1
 48
50.0
100
AcDbLine
 10
5507.862646115606
 20
3907.348694766935
 30
0.0
 11
5507.862646115606
 21
3548.431828606207
 31
0.0
  0
LINE
  5
132AB
330
747D
100
AcDbEntity
  8
部品1
 48
50.0
100
AcDbLine
 10
5557.862646115605
 20
3548.431828606206
 30
0.0
 11
5457.862646115606
 21
3548.431828606204
 31
0.0
  0
LINE
  5
132AC
330
747D
100
AcDbEntity
  8
部品1
 48
50.0
100
AcDbLine
 10
5557.862646115606
 20
3698.431828606209
 30
0.0
 11
5527.862646115607
 21
3698.431828606209
 31
0.0
  0
ARC
  5
132AD
330
747D
100
AcDbEntity
  8
部品1
 48
50.0
100
AcDbCircle
 10
5717.862646115606
 20
3920.228017808709
 30
0.0
 40
20.0
100
AcDbArc
 50
270.0
 51
344.0769099234519
  0
DIMENSION
  5
132B6
330
747D
100
AcDbEntity
  8
寸法
 48
50.0
100
AcDbDimension
  2
*D7
 10
5757.862646115606
 20
4601.702425425581
 30
0.0
 11
6049.588593995647
 21
4601.702425425581
 31
0.0
 12
-1973.999539498694
 22
-1260.916917799579
 32
0.0
 70
   160
 71
     5
 42
-1.0
  3
INABA_S30G
100
AcDbAlignedDimension
 13
5507.862646115606
 23
3970.897875741638
 33
0.0
 14
5757.862646115606
 24
4066.450581124185
 34
0.0
100
AcDbRotatedDimension
  0
LINE
  5
132B7
330
747D
100
AcDbEntity
  8
部品1
 48
50.0
100
AcDbLine
 10
5694.862646115606
 20
3969.969012140657
 30
0.0
 11
5539.862646115606
 21
3969.969012140657
 31
0.0
  0
LINE
  5
132B8
330
747D
100
AcDbEntity
  8
部品1
 48
50.0
100
AcDbLine
 10
5694.862646115606
 20
3939.307144620489
 30
0.0
 11
5539.862646115606
 21
3939.307144620489
 31
0.0
  0
LINE
  5
132B9
330
747D
100
AcDbEntity
  8
細線
 48
50.0
100
AcDbLine
 10
5539.862646115606
 20
3944.897875741639
 30
0.0
 11
5475.862646115606
 21
3944.897875741637
 31
0.0
  0
LINE
  5
132BA
330
747D
100
AcDbEntity
  8
細線
 48
50.0
100
AcDbLine
 10
5539.862646115606
 20
3954.897875741637
 30
0.0
 11
5475.862646115606
 21
3954.897875741637
 31
0.0
  0
ARC
  5
132BB
330
747D
100
AcDbEntity
  8
部品1
 48
50.0
100
AcDbCircle
 10
5537.862646115606
 20
3968.897875741637
 30
0.0
 40
2.0
100
AcDbArc
 50
0.0
 51
90.0
  0
ARC
  5
132BC
330
747D
100
AcDbEntity
  8
部品1
 48
50.0
100
AcDbCircle
 10
5477.862646115607
 20
3968.897875741637
 30
0.0
 40
2.0
100
AcDbArc
 50
90.0
 51
180.0
  0
LINE
  5
132BD
330
747D
100
AcDbEntity
  8
部品1
 48
50.0
100
AcDbLine
 10
5537.862646115606
 20
3970.897875741638
 30
0.0
 11
5477.862646115607
 21
3970.897875741638
 31
0.0
  0
ARC
  5
132BE
330
747D
100
AcDbEntity
  8
部品1
 48
50.0
100
AcDbCircle
 10
5742.862646115606
 20
3989.632043366532
 30
0.0
 40
15.0
100
AcDbArc
 50
344.0769099234545
 51
0.0
  0
LINE
  5
132BF
330
747D
100
AcDbEntity
  8
部品1
 48
50.0
100
AcDbLine
 10
5757.862646115606
 20
4066.450581124185
 30
0.0
 11
5757.862646115606
 21
3989.632043366532
 31
0.0
  0
ARC
  5
132C0
330
747D
100
AcDbEntity
  8
細線
 48
50.0
100
AcDbCircle
 10
5704.282423454189
 20
4017.027143629733
 30
0.0
 40
3.0
100
AcDbArc
 50
270.0
 51
344.0769099234517
  0
ARC
  5
132C1
330
747D
100
AcDbEntity
  8
細線
 48
50.0
100
AcDbCircle
 10
5709.488917815082
 20
4035.276767503652
 30
0.0
 40
3.0
100
AcDbArc
 50
344.0769099234531
 51
90.0
  0
ARC
  5
132C2
330
747D
100
AcDbEntity
  8
細線
 48
50.0
100
AcDbCircle
 10
5707.644030014203
 20
4012.407532190147
 30
0.0
 40
10.0
100
AcDbArc
 50
270.0
 51
344.0769099234529
  0
ARC
  5
132C3
330
747D
100
AcDbEntity
  8
細線
 48
50.0
100
AcDbCircle
 10
5715.486412224168
 20
4039.896378943234
 30
0.0
 40
10.0
100
AcDbArc
 50
344.0769099234531
 51
90.0
  0
LINE
  5
132C4
330
747D
100
AcDbEntity
  8
細線
 48
50.0
100
AcDbLine
 10
5725.102720488933
 20
4037.152911181982
 30
0.0
 11
5717.260338278965
 21
4009.664064428895
 31
0.0
  0
LINE
  5
132C5
330
747D
100
AcDbEntity
  8
細線
 48
50.0
100
AcDbLine
 10
5712.373810294511
 20
4034.453727175278
 30
0.0
 11
5707.167315933618
 21
4016.204103301359
 31
0.0
  0
LINE
  5
132C6
330
747D
100
AcDbEntity
  8
部品1
 48
50.0
100
AcDbLine
 10
5757.287108512753
 20
4062.335379482305
 30
0.0
 11
5737.095262645134
 21
3991.559620043856
 31
0.0
  0
ARC
  5
132C7
330
747D
100
AcDbEntity
  8
部品1
 48
50.0
100
AcDbCircle
 10
5717.862646115606
 20
3997.046555566362
 30
0.0
 40
20.0
100
AcDbArc
 50
270.0
 51
344.0769099234519
  0
ARC
  5
132C8
330
747D
100
AcDbEntity
  8
部品1
 48
50.0
100
AcDbCircle
 10
5742.862646115606
 20
4066.450581124185
 30
0.0
 40
15.0
100
AcDbArc
 50
344.0769099234545
 51
90.0
  0
LINE
  5
132C9
330
747D
100
AcDbEntity
  8
部品1
 48
50.0
100
AcDbLine
 10
5694.862646115606
 20
4081.450581124187
 30
0.0
 11
5694.862646115606
 21
3977.046555566361
 31
0.0
  0
LINE
  5
13A2F
330
747D
100
AcDbEntity
  8
部品1
 48
50.0
100
AcDbLine
 10
5322.862646115602
 20
7921.447238448381
 30
0.0
 11
2442.862646115602
 21
7921.447238448381
 31
0.0
  0
LINE
  5
13A34
330
747D
100
AcDbEntity
  8
部品1
 48
50.0
100
AcDbLine
 10
2442.862646115602
 20
7921.447238448386
 30
0.0
 11
5742.862646115602
 21
7921.447238448386
 31
0.0
  0
LINE
  5
13A35
330
747D
100
AcDbEntity
  8
部品1
 48
50.0
100
AcDbLine
 10
2490.862646115602
 20
7817.947238448389
 30
0.0
 11
5694.862646115602
 21
7817.947238448386
 31
0.0
  0
LINE
  5
13A36
330
747D
100
AcDbEntity
  8
点線
 48
50.0
100
AcDbLine
 10
3770.792859073757
 20
7713.947238448382
 30
0.0
 11
5718.862646115602
 21
7713.947238448383
 31
0.0
  0
LINE
  5
13A37
330
747D
100
AcDbEntity
  8
点線
 48
50.0
100
AcDbLine
 10
3788.209556581779
 20
7648.947238448383
 30
0.0
 11
5718.862646115603
 21
7648.947238448385
 31
0.0
  0
LINE
  5
13A38
330
747D
100
AcDbEntity
  8
点線
 48
50.0
100
AcDbLine
 10
3997.571860910108
 20
6898.947238448385
 30
0.0
 11
5718.862646115601
 21
6898.947238448385
 31
0.0
  0
LINE
  5
13A39
330
747D
100
AcDbEntity
  8
点線
 48
50.0
100
AcDbLine
 10
3953.886916154163
 20
6963.947238448383
 30
0.0
 11
5718.862646115602
 21
6963.947238448385
 31
0.0
  0
LINE
  5
13A3A
330
747D
100
AcDbEntity
  8
点線
 48
50.0
100
AcDbLine
 10
4172.716647720437
 20
6213.947238448387
 30
0.0
 11
5718.862646115602
 21
6213.947238448384
 31
0.0
  0
LINE
  5
13A3B
330
747D
100
AcDbEntity
  8
点線
 48
50.0
100
AcDbLine
 10
4190.133345228463
 20
6148.947238448385
 30
0.0
 11
5718.862646115603
 21
6148.947238448386
 31
0.0
  0
LINE
  5
13A3C
330
747D
100
AcDbEntity
  8
部品1
 48
50.0
100
AcDbLine
 10
2490.862646115602
 20
6014.947238448389
 30
0.0
 11
5694.862646115602
 21
6014.947238448385
 31
0.0
  0
LINE
  5
13A3D
330
747D
100
AcDbEntity
  8
部品1
 48
50.0
100
AcDbLine
 10
2442.862646115602
 20
5921.447238448389
 30
0.0
 11
5742.862646115602
 21
5921.447238448382
 31
0.0
  0
LINE
  5
13A3F
330
747D
100
AcDbEntity
  8
部品1
 48
50.0
100
AcDbLine
 10
3990.296892443585
 20
6894.747033445888
 30
0.0
 11
4291.284165371212
 21
5771.447238448381
 31
0.0
  0
LINE
  5
13A54
330
747D
100
AcDbEntity
  8
部品1
 48
50.0
100
AcDbLine
 10
2647.862646115602
 20
6898.947238448389
 30
0.0
 11
2647.862646115602
 21
6213.947238448389
 31
0.0
  0
LINE
  5
13A55
330
747D
100
AcDbEntity
  8
部品1
 48
50.0
100
AcDbLine
 10
2707.862646115602
 20
6898.947238448389
 30
0.0
 11
2707.862646115602
 21
6213.947238448389
 31
0.0
  0
LINE
  5
13A56
330
747D
100
AcDbEntity
  8
部品1
 48
50.0
100
AcDbLine
 10
2512.862646115602
 20
7817.947238448386
 30
0.0
 11
2512.862646115602
 21
6014.947238448385
 31
0.0
  0
LINE
  5
13A5D
330
747D
100
AcDbEntity
  8
部品1
 48
50.0
100
AcDbLine
 10
2490.862646115602
 20
7921.447238448386
 30
0.0
 11
2490.862646115602
 21
5921.447238448389
 31
0.0
  0
LINE
  5
13A5E
330
747D
100
AcDbEntity
  8
部品1
 48
50.0
100
AcDbLine
 10
2427.862646115602
 20
7906.447238448385
 30
0.0
 11
2427.862646115602
 21
5936.447238448385
 31
0.0
  0
LINE
  5
13A5F
330
747D
100
AcDbEntity
  8
部品1
 48
50.0
100
AcDbLine
 10
2512.862646115602
 20
6148.947238448389
 30
0.0
 11
4190.133345228462
 21
6148.947238448386
 31
0.0
  0
LINE
  5
13A60
330
747D
100
AcDbEntity
  8
部品1
 48
50.0
100
AcDbLine
 10
2512.862646115602
 20
6213.947238448389
 30
0.0
 11
4172.716647720437
 21
6213.947238448388
 31
0.0
  0
LINE
  5
13A61
330
747D
100
AcDbEntity
  8
部品1
 48
50.0
100
AcDbLine
 10
2512.862646115602
 20
6193.947238448389
 30
0.0
 11
4178.075631569059
 21
6193.94723844839
 31
0.0
  0
ARC
  5
13A62
330
747D
100
AcDbEntity
  8
部品1
 48
50.0
100
AcDbCircle
 10
2442.862646115602
 20
5936.447238448385
 30
0.0
 40
15.0
100
AcDbArc
 50
180.0
 51
270.0
  0
LINE
  5
13A63
330
747D
100
AcDbEntity
  8
点線
 48
18.0
100
AcDbLine
 10
2466.862646115601
 20
6148.947238448388
 30
0.0
 11
2512.862646115602
 21
6148.947238448389
 31
0.0
  0
LINE
  5
13A64
330
747D
100
AcDbEntity
  8
点線
 48
18.0
100
AcDbLine
 10
2466.862646115601
 20
6213.947238448388
 30
0.0
 11
2512.862646115602
 21
6213.947238448389
 31
0.0
  0
LINE
  5
13A65
330
747D
100
AcDbEntity
  8
部品1
 48
50.0
100
AcDbLine
 10
2427.862646115602
 20
5984.447238448389
 30
0.0
 11
2490.862646115602
 21
5984.447238448389
 31
0.0
  0
ARC
  5
13A66
330
747D
100
AcDbEntity
  8
部品1
 48
50.0
100
AcDbCircle
 10
2699.862646115602
 20
6113.947238448385
 30
0.0
 40
10.0
100
AcDbArc
 50
270.0
 51
0.0
  0
ARC
  5
13A67
330
747D
100
AcDbEntity
  8
部品1
 48
50.0
100
AcDbCircle
 10
2655.862646115602
 20
6113.947238448389
 30
0.0
 40
10.0
100
AcDbArc
 50
180.0
 51
270.0
  0
LINE
  5
13A68
330
747D
100
AcDbEntity
  8
部品1
 48
50.0
100
AcDbLine
 10
2655.862646115602
 20
6103.947238448388
 30
0.0
 11
2699.862646115602
 21
6103.947238448385
 31
0.0
  0
LINE
  5
13A69
330
747D
100
AcDbEntity
  8
部品1
 48
50.0
100
AcDbLine
 10
2709.862646115602
 20
6148.947238448389
 30
0.0
 11
2709.862646115602
 21
6113.947238448385
 31
0.0
  0
LINE
  5
13A6A
330
747D
100
AcDbEntity
  8
部品1
 48
50.0
100
AcDbLine
 10
2645.862646115602
 20
6148.947238448389
 30
0.0
 11
2645.862646115602
 21
6113.947238448389
 31
0.0
  0
LINE
  5
13A74
330
747D
100
AcDbEntity
  8
部品1
 48
50.0
100
AcDbLine
 10
2512.862646115602
 20
6898.947238448389
 30
0.0
 11
3997.571860910117
 21
6898.947238448387
 31
0.0
  0
LINE
  5
13A75
330
747D
100
AcDbEntity
  8
部品1
 48
50.0
100
AcDbLine
 10
2512.862646115602
 20
6963.947238448385
 30
0.0
 11
3953.886916154166
 21
6963.947238448387
 31
0.0
  0
LINE
  5
13A76
330
747D
100
AcDbEntity
  8
部品1
 48
50.0
100
AcDbLine
 10
2512.862646115602
 20
7648.947238448389
 30
0.0
 11
3788.209556581777
 21
7648.947238448394
 31
0.0
  0
LINE
  5
13A77
330
747D
100
AcDbEntity
  8
部品1
 48
50.0
100
AcDbLine
 10
2512.862646115602
 20
7713.94723844839
 30
0.0
 11
3770.792859073755
 21
7713.94723844839
 31
0.0
  0
LINE
  5
13A78
330
747D
100
AcDbEntity
  8
部品1
 48
50.0
100
AcDbLine
 10
2512.862646115602
 20
7693.947238448389
 30
0.0
 11
3776.151842922376
 21
7693.947238448389
 31
0.0
  0
LINE
  5
13A79
330
747D
100
AcDbEntity
  8
部品1
 48
50.0
100
AcDbLine
 10
2512.862646115602
 20
6943.947238448385
 30
0.0
 11
3919.245900002789
 21
6943.947238448387
 31
0.0
  0
LINE
  5
13A94
330
747D
100
AcDbEntity
  8
部品1
 48
50.0
100
AcDbLine
 10
2707.862646115602
 20
7648.947238448389
 30
0.0
 11
2707.862646115602
 21
6963.947238448385
 31
0.0
  0
LINE
  5
13A95
330
747D
100
AcDbEntity
  8
部品1
 48
50.0
100
AcDbLine
 10
2647.862646115602
 20
7648.947238448389
 30
0.0
 11
2647.862646115602
 21
6963.947238448385
 31
0.0
  0
LINE
  5
13A96
330
747D
100
AcDbEntity
  8
点線
 48
18.0
100
AcDbLine
 10
2466.862646115601
 20
6963.947238448385
 30
0.0
 11
2512.862646115602
 21
6963.947238448385
 31
0.0
  0
LINE
  5
13A97
330
747D
100
AcDbEntity
  8
点線
 48
18.0
100
AcDbLine
 10
2466.862646115601
 20
6898.94723844839
 30
0.0
 11
2512.862646115602
 21
6898.947238448389
 31
0.0
  0
LINE
  5
13A98
330
747D
100
AcDbEntity
  8
点線
 48
18.0
100
AcDbLine
 10
2466.862646115601
 20
7648.947238448387
 30
0.0
 11
2512.862646115602
 21
7648.947238448389
 31
0.0
  0
LINE
  5
13A99
330
747D
100
AcDbEntity
  8
点線
 48
18.0
100
AcDbLine
 10
2466.862646115601
 20
7713.947238448388
 30
0.0
 11
2512.862646115602
 21
7713.94723844839
 31
0.0
  0
ARC
  5
13A9A
330
747D
100
AcDbEntity
  8
部品1
 48
50.0
100
AcDbCircle
 10
2699.862646115602
 20
7728.947238448388
 30
0.0
 40
10.0
100
AcDbArc
 50
0.0
 51
90.0
  0
ARC
  5
13A9B
330
747D
100
AcDbEntity
  8
部品1
 48
50.0
100
AcDbCircle
 10
2655.862646115602
 20
7728.947238448388
 30
0.0
 40
10.0
100
AcDbArc
 50
90.0
 51
180.0000000000005
  0
LINE
  5
13A9C
330
747D
100
AcDbEntity
  8
部品1
 48
50.0
100
AcDbLine
 10
2655.862646115602
 20
7738.947238448389
 30
0.0
 11
2699.862646115602
 21
7738.947238448389
 31
0.0
  0
LINE
  5
13A9D
330
747D
100
AcDbEntity
  8
部品1
 48
50.0
100
AcDbLine
 10
2709.862646115602
 20
7728.947238448388
 30
0.0
 11
2709.862646115602
 21
7713.94723844839
 31
0.0
  0
LINE
  5
13A9E
330
747D
100
AcDbEntity
  8
部品1
 48
50.0
100
AcDbLine
 10
2645.862646115602
 20
7728.947238448388
 30
0.0
 11
2645.862646115602
 21
7713.94723844839
 31
0.0
  0
ARC
  5
13AA1
330
747D
100
AcDbEntity
  8
部品1
 48
50.0
100
AcDbCircle
 10
2442.862646115602
 20
7906.447238448385
 30
0.0
 40
15.0
100
AcDbArc
 50
90.00000000000003
 51
180.0
  0
LINE
  5
13AA2
330
747D
100
AcDbEntity
  8
部品1
 48
50.0
100
AcDbLine
 10
2427.862646115602
 20
7858.447238448386
 30
0.0
 11
2490.862646115602
 21
7858.447238448386
 31
0.0
  0
LINE
  5
13AD9
330
747D
100
AcDbEntity
  8
部品1
 48
50.0
100
AcDbLine
 10
3675.001022779631
 20
8071.447238448381
 30
0.0
 11
3969.360917117232
 21
6972.881157069853
 31
0.0
  0
LINE
  5
13ADE
330
747D
100
AcDbEntity
  8
部品1
 48
50.0
100
AcDbLine
 10
4032.28776697467
 20
6918.990476159921
 30
0.0
 11
3990.296892443585
 21
6894.747033445892
 31
0.0
  0
LINE
  5
13ADF
330
747D
100
AcDbEntity
  8
部品1
 48
50.0
100
AcDbLine
 10
3876.019519726757
 20
6918.990476159921
 30
0.0
 11
4032.28776697467
 21
6918.990476159921
 31
0.0
  0
LINE
  5
13AE0
330
747D
100
AcDbEntity
  8
部品1
 48
50.0
100
AcDbLine
 10
3876.019519726753
 20
6918.990476159923
 30
0.0
 11
3969.360917117232
 21
6972.881157069853
 31
0.0
  0
LWPOLYLINE
  5
13C02
330
747D
100
AcDbEntity
  8
部品1
100
AcDbPolyline
 90
        4
 70
     1
 43
0.0
 10
3731.671290881421
 20
5569.236416622199
 10
4378.702666161945
 20
5569.236416622199
 10
4378.702666161945
 20
5376.71626080506
 10
3731.671290881421
 20
5376.71626080506
  0
TEXT
  5
13C03
330
747D
100
AcDbEntity
  8
仕様書枠
 62
     7
 48
50.0
100
AcDbText
 10
3763.08636764295
 20
5415.371692272017
 30
0.0
 40
112.0
  1
平 面 図
  7
STYLE2
100
AcDbText
  0
DIMENSION
  5
13D64
330
747D
100
AcDbEntity
  8
寸法
 48
50.0
100
AcDbDimension
  2
*D8
 10
6381.352180640483
 20
5921.44723844838
 30
0.0
 11
6381.352180640483
 21
6921.447238448381
 31
0.0
 70
   160
 71
     5
 42
2000.000000000003
  3
INABA_S30G
100
AcDbAlignedDimension
 13
5742.862646115602
 23
7921.447238448386
 33
0.0
 14
5742.862646115602
 24
5921.447238448382
 34
0.0
 50
90.0
100
AcDbRotatedDimension
  0
LINE
  5
13D65
330
747D
100
AcDbEntity
  8
点線
 48
50.0
100
AcDbLine
 10
5477.862646115602
 20
6898.947238448385
 30
0.0
 11
5477.862646115602
 21
6213.947238448389
 31
0.0
  0
LINE
  5
13D66
330
747D
100
AcDbEntity
  8
点線
 48
50.0
100
AcDbLine
 10
5537.862646115602
 20
6898.947238448385
 30
0.0
 11
5537.862646115602
 21
6213.947238448389
 31
0.0
  0
LINE
  5
13D6F
330
747D
100
AcDbEntity
  8
細線
 48
50.0
100
AcDbLine
 10
5450.862646115602
 20
7817.947238448386
 30
0.0
 11
5450.862646115602
 21
6014.947238448385
 31
0.0
  0
LINE
  5
13D70
330
747D
100
AcDbEntity
  8
細線
 48
50.0
100
AcDbLine
 10
5377.862646115602
 20
7817.947238448386
 30
0.0
 11
5377.862646115602
 21
6014.947238448385
 31
0.0
  0
LINE
  5
13D71
330
747D
100
AcDbEntity
  8
細線
 48
50.0
100
AcDbLine
 10
4797.862646115602
 20
7817.947238448386
 30
0.0
 11
4797.862646115602
 21
6014.947238448385
 31
0.0
  0
LINE
  5
13D72
330
747D
100
AcDbEntity
  8
細線
 48
50.0
100
AcDbLine
 10
4870.862646115602
 20
7817.947238448386
 30
0.0
 11
4870.862646115602
 21
6014.947238448385
 31
0.0
  0
LINE
  5
13D73
330
747D
100
AcDbEntity
  8
細線
 48
50.0
100
AcDbLine
 10
5332.862646115602
 20
7817.947238448386
 30
0.0
 11
5332.862646115602
 21
6014.947238448385
 31
0.0
  0
LINE
  5
13D74
330
747D
100
AcDbEntity
  8
細線
 48
50.0
100
AcDbLine
 10
4752.862646115601
 20
7817.947238448386
 30
0.0
 11
4752.862646115601
 21
6014.947238448385
 31
0.0
  0
LINE
  5
13D75
330
747D
100
AcDbEntity
  8
細線
 48
50.0
100
AcDbLine
 10
5405.862646115601
 20
7817.947238448386
 30
0.0
 11
5405.862646115601
 21
6014.947238448385
 31
0.0
  0
LINE
  5
13D76
330
747D
100
AcDbEntity
  8
細線
 48
50.0
100
AcDbLine
 10
4825.862646115602
 20
7817.947238448386
 30
0.0
 11
4825.862646115602
 21
6014.947238448385
 31
0.0
  0
LINE
  5
13D77
330
747D
100
AcDbEntity
  8
部品1
 48
50.0
100
AcDbLine
 10
5661.362646115602
 20
7817.947238448386
 30
0.0
 11
5661.362646115602
 21
6014.947238448385
 31
0.0
  0
LINE
  5
13D78
330
747D
100
AcDbEntity
  8
部品1
 48
50.0
100
AcDbLine
 10
5081.362646115602
 20
7817.947238448386
 30
0.0
 11
5081.362646115602
 21
6014.947238448385
 31
0.0
  0
LINE
  5
13D79
330
747D
100
AcDbEntity
  8
部品1
 48
50.0
100
AcDbLine
 10
4501.362646115602
 20
7817.947238448386
 30
0.0
 11
4501.362646115602
 21
6014.947238448385
 31
0.0
  0
LINE
  5
13D7B
330
747D
100
AcDbEntity
  8
部品1
 48
50.0
100
AcDbLine
 10
5684.362646115602
 20
7817.947238448386
 30
0.0
 11
5684.362646115602
 21
6014.947238448385
 31
0.0
  0
LINE
  5
13D7C
330
747D
100
AcDbEntity
  8
部品1
 48
50.0
100
AcDbLine
 10
5104.362646115601
 20
7817.947238448386
 30
0.0
 11
5104.362646115601
 21
6014.947238448385
 31
0.0
  0
LINE
  5
13D7D
330
747D
100
AcDbEntity
  8
部品1
 48
50.0
100
AcDbLine
 10
4524.362646115601
 20
7817.947238448386
 30
0.0
 11
4524.362646115601
 21
6014.947238448385
 31
0.0
  0
LINE
  5
13D80
330
747D
100
AcDbEntity
  8
部品1
 48
50.0
100
AcDbLine
 10
5694.862646115602
 20
7921.447238448381
 30
0.0
 11
5694.862646115602
 21
5921.447238448386
 31
0.0
  0
LINE
  5
13D81
330
747D
100
AcDbEntity
  8
部品1
 48
50.0
100
AcDbLine
 10
5757.862646115602
 20
7906.447238448385
 30
0.0
 11
5757.862646115602
 21
5936.447238448382
 31
0.0
  0
ARC
  5
13D82
330
747D
100
AcDbEntity
  8
点線
 48
18.0
100
AcDbCircle
 10
5529.862646115602
 20
6113.947238448389
 30
0.0
 40
10.0
100
AcDbArc
 50
270.0000000000009
 51
0.0
  0
ARC
  5
13D83
330
747D
100
AcDbEntity
  8
点線
 48
18.0
100
AcDbCircle
 10
5485.862646115602
 20
6113.947238448385
 30
0.0
 40
10.0
100
AcDbArc
 50
180.0
 51
270.0000000000008
  0
LINE
  5
13D84
330
747D
100
AcDbEntity
  8
点線
 48
18.0
100
AcDbLine
 10
5485.862646115602
 20
6103.947238448385
 30
0.0
 11
5529.862646115602
 21
6103.947238448388
 31
0.0
  0
LINE
  5
13D85
330
747D
100
AcDbEntity
  8
点線
 48
18.0
100
AcDbLine
 10
5475.862646115602
 20
6148.947238448389
 30
0.0
 11
5475.862646115602
 21
6113.947238448385
 31
0.0
  0
LINE
  5
13D86
330
747D
100
AcDbEntity
  8
点線
 48
18.0
100
AcDbLine
 10
5539.862646115602
 20
6148.947238448389
 30
0.0
 11
5539.862646115602
 21
6113.947238448389
 31
0.0
  0
ARC
  5
13D87
330
747D
100
AcDbEntity
  8
部品1
 48
50.0
100
AcDbCircle
 10
5742.862646115602
 20
5936.447238448382
 30
0.0
 40
15.0
100
AcDbArc
 50
270.0
 51
0.0
  0
LINE
  5
13D88
330
747D
100
AcDbEntity
  8
部品1
 48
50.0
100
AcDbLine
 10
5694.862646115602
 20
5984.447238448385
 30
0.0
 11
5757.862646115602
 21
5984.447238448385
 31
0.0
  0
LINE
  5
13D8F
330
747D
100
AcDbEntity
  8
点線
 48
50.0
100
AcDbLine
 10
5477.862646115602
 20
7648.947238448385
 30
0.0
 11
5477.862646115602
 21
6963.947238448385
 31
0.0
  0
LINE
  5
13D90
330
747D
100
AcDbEntity
  8
点線
 48
50.0
100
AcDbLine
 10
5537.862646115602
 20
7648.947238448385
 30
0.0
 11
5537.862646115602
 21
6963.947238448385
 31
0.0
  0
ARC
  5
13D91
330
747D
100
AcDbEntity
  8
点線
 48
18.0
100
AcDbCircle
 10
5529.862646115602
 20
7728.947238448386
 30
0.0
 40
10.0
100
AcDbArc
 50
0.0
 51
90.0
  0
ARC
  5
13D92
330
747D
100
AcDbEntity
  8
点線
 48
18.0
100
AcDbCircle
 10
5485.862646115602
 20
7728.947238448386
 30
0.0
 40
10.0
100
AcDbArc
 50
90.0
 51
180.0
  0
LINE
  5
13D93
330
747D
100
AcDbEntity
  8
点線
 48
18.0
100
AcDbLine
 10
5485.862646115602
 20
7738.947238448385
 30
0.0
 11
5529.862646115602
 21
7738.947238448385
 31
0.0
  0
LINE
  5
13D94
330
747D
100
AcDbEntity
  8
点線
 48
18.0
100
AcDbLine
 10
5539.862646115602
 20
7728.947238448386
 30
0.0
 11
5539.862646115602
 21
7713.947238448385
 31
0.0
  0
LINE
  5
13D95
330
747D
100
AcDbEntity
  8
点線
 48
18.0
100
AcDbLine
 10
5475.862646115602
 20
7728.947238448386
 30
0.0
 11
5475.862646115602
 21
7713.947238448385
 31
0.0
  0
ARC
  5
13D9F
330
747D
100
AcDbEntity
  8
部品1
 48
50.0
100
AcDbCircle
 10
5742.862646115602
 20
7906.447238448385
 30
0.0
 40
15.0
100
AcDbArc
 50
0.0
 51
90.0
  0
LINE
  5
13DA0
330
747D
100
AcDbEntity
  8
部品1
 48
50.0
100
AcDbLine
 10
5694.862646115602
 20
7858.447238448386
 30
0.0
 11
5757.862646115602
 21
7858.447238448386
 31
0.0
  0
LINE
  5
143B2
330
747D
100
AcDbEntity
  8
部品1
 48
50.0
100
AcDbLine
 10
5476.17366215633
 20
3969.969012140659
 30
0.0
 11
2709.862646115603
 21
3969.96901214066
 31
0.0
  0
LINE
  5
143B4
330
747D
100
AcDbEntity
  8
部品1
 48
50.0
100
AcDbLine
 10
5475.862646115606
 20
3909.96901214066
 30
0.0
 11
2709.862646115603
 21
3909.969012140662
 31
0.0
  0
LINE
  5
143B6
330
747D
100
AcDbEntity
  8
部品1
 48
50.0
100
AcDbLine
 10
5475.862646115606
 20
3939.307144620489
 30
0.0
 11
2709.862646115603
 21
3939.30714462049
 31
0.0
  0
LINE
  5
145A7
330
747D
100
AcDbEntity
  8
細線
 48
50.0
100
AcDbLine
 10
5258.768331306299
 20
1830.562576328022
 30
0.0
 11
5308.7683313063
 21
1880.562576328022
 31
0.0
  0
LINE
  5
145A8
330
747D
100
AcDbEntity
  8
細線
 48
50.0
100
AcDbLine
 10
5231.827551306302
 20
1830.562576328022
 30
0.0
 11
5281.827551306303
 21
1880.562576328022
 31
0.0
  0
LINE
  5
145A9
330
747D
100
AcDbEntity
  8
細線
 48
50.0
100
AcDbLine
 10
5285.7091113063
 20
1830.562576328022
 30
0.0
 11
5335.7091113063
 21
1880.562576328022
 31
0.0
  0
LINE
  5
145AA
330
747D
100
AcDbEntity
  8
部品1
 48
50.0
100
AcDbLine
 10
4104.362646115601
 20
7817.947238448386
 30
0.0
 11
4104.362646115606
 21
6469.047845338266
 31
0.0
  0
LINE
  5
145AB
330
747D
100
AcDbEntity
  8
部品1
 48
50.0
100
AcDbLine
 10
4081.362646115602
 20
7817.947238448386
 30
0.0
 11
4081.362646115603
 21
6554.885013912365
 31
0.0
  0
LINE
  5
145AC
330
747D
100
AcDbEntity
  8
細線
 48
50.0
100
AcDbLine
 10
4370.862646115602
 20
7817.947238448386
 30
0.0
 11
4370.862646115603
 21
6014.947238448385
 31
0.0
  0
LINE
  5
145AD
330
747D
100
AcDbEntity
  8
細線
 48
50.0
100
AcDbLine
 10
4325.862646115601
 20
7817.947238448386
 30
0.0
 11
4325.862646115602
 21
6014.947238448387
 31
0.0
  0
LINE
  5
145AE
330
747D
100
AcDbEntity
  8
細線
 48
50.0
100
AcDbLine
 10
4252.862646115601
 20
7817.947238448386
 30
0.0
 11
4252.862646115601
 21
6014.947238448386
 31
0.0
  0
LINE
  5
145AF
330
747D
100
AcDbEntity
  8
細線
 48
50.0
100
AcDbLine
 10
4297.862646115602
 20
7817.947238448386
 30
0.0
 11
4297.862646115602
 21
6014.947238448386
 31
0.0
  0
LINE
  5
14616
330
747D
100
AcDbEntity
  8
細線
 48
50.0
100
AcDbLine
 10
2853.897740924912
 20
1830.562576328022
 30
0.0
 11
2903.897740924912
 21
1880.562576328022
 31
0.0
  0
LINE
  5
14617
330
747D
100
AcDbEntity
  8
細線
 48
50.0
100
AcDbLine
 10
2800.016180924914
 20
1830.562576328022
 30
0.0
 11
2850.016180924914
 21
1880.562576328022
 31
0.0
  0
LINE
  5
14618
330
747D
100
AcDbEntity
  8
細線
 48
50.0
100
AcDbLine
 10
2826.956960924911
 20
1830.562576328022
 30
0.0
 11
2876.956960924911
 21
1880.562576328022
 31
0.0
  0
LINE
  5
14625
330
747D
100
AcDbEntity
  8
補助
  6
PHANTOM
 62
   230
 48
50.0
100
AcDbLine
 10
9380.400000000003
 20
8182.199999999999
 30
0.0
 11
11930.4
 21
8182.200000000003
 31
0.0
  0
LINE
  5
14626
330
747D
100
AcDbEntity
  8
補助
  6
PHANTOM
 62
   230
 48
50.0
100
AcDbLine
 10
9380.400000000003
 20
6457.2
 30
0.0
 11
11930.4
 21
6457.2
 31
0.0
  0
LINE
  5
14627
330
747D
100
AcDbEntity
  8
補助
  6
PHANTOM
 62
   230
 48
50.0
100
AcDbLine
 10
9380.400000000003
 20
8182.199999999999
 30
0.0
 11
9380.400000000003
 21
6457.2
 31
0.0
  0
LINE
  5
14628
330
747D
100
AcDbEntity
  8
補助
  6
PHANTOM
 62
   230
 48
50.0
100
AcDbLine
 10
11930.4
 20
8182.200000000003
 30
0.0
 11
11930.4
 21
6457.2
 31
0.0
  0
LINE
  5
14703
330
747D
100
AcDbEntity
  8
補助
  6
PHANTOM
 62
   230
 48
50.0
100
AcDbLine
 10
9380.400000000003
 20
6924.2
 30
0.0
 11
11930.4
 21
6924.200000000003
 31
0.0
  0
DIMENSION
  5
14711
330
747D
100
AcDbEntity
  8
寸法
 48
50.0
100
AcDbDimension
  2
*D9
 10
5757.862646115602
 20
8256.559557026321
 30
0.0
 11
4092.866305544949
 21
8331.559557026322
 31
0.0
 70
    32
 71
     5
 42
3329.992681141306
  3
INABA_S30G
100
AcDbAlignedDimension
 13
2427.869964974296
 23
7906.915759734051
 33
0.0
 14
5757.862646115602
 24
7906.447238448385
 34
0.0
100
AcDbRotatedDimension
  0
TEXT
  5
147D0
330
747D
100
AcDbEntity
  8
文字
 62
     7
 48
50.0
100
AcDbText
 10
9907.054008162901
 20
171.4076431926769
 30
0.0
 40
75.0
  1
○間口奥行寸法は柱芯寸法です。 
  7
STYLE2
100
AcDbText
  0
LINE
  5
147D1
330
747D
100
AcDbEntity
  8
仕様書枠
  6
Continuous
 48
50.0
100
AcDbLine
 10
10688.4
 20
900.0
 30
0.0
 11
10688.4
 21
600.0
 31
0.0
  0
LINE
  5
147D3
330
747D
100
AcDbEntity
  8
仕様書枠
 48
50.0
100
AcDbLine
 10
12230.4
 20
900.0
 30
0.0
 11
12230.4
 21
0.0
 31
0.0
  0
LINE
  5
147D4
330
747D
100
AcDbEntity
  8
仕様書枠
  6
Continuous
 48
50.0
100
AcDbLine
 10
10688.4
 20
900.0
 30
0.0
 11
10688.4
 21
600.0
 31
0.0
  0
TEXT
  5
147D6
330
747D
100
AcDbEntity
  8
仕様書枠
 62
     7
 48
50.0
100
AcDbText
 10
10984.92759423544
 20
362.922534743356
 30
0.0
 40
120.0
  1
BYN-２８
  7
MSGOTHIC
100
AcDbText
  0
LINE
  5
147D7
330
747D
100
AcDbEntity
  8
仕様書枠
  6
Continuous
 48
50.0
100
AcDbLine
 10
9830.400000000002
 20
900.0
 30
0.0
 11
9830.400000000002
 21
0.0
 31
0.0
  0
LINE
  5
147D8
330
747D
100
AcDbEntity
  8
仕様書枠
 48
50.0
100
AcDbLine
 10
9830.400000000002
 20
600.0
 30
0.0
 11
10688.4
 21
600.0
 31
0.0
  0
TEXT
  5
147D9
330
747D
100
AcDbEntity
  8
仕様書枠
 62
     7
 48
50.0
100
AcDbText
 10
9901.077524988314
 20
357.9555495773441
 30
0.0
 40
120.0
  1
機種名
  7
STYLE2
100
AcDbText
  0
TEXT
  5
147DA
330
747D
100
AcDbEntity
  8
仕様書枠
 62
     7
 48
50.0
100
AcDbText
 10
9872.234292432679
 20
671.3179555724553
 30
0.0
 40
150.0
  1
外 形 図
  7
STYLE2
100
AcDbText
  0
LINE
  5
147DB
330
747D
100
AcDbEntity
  8
仕様書枠
 62
     7
 48
50.0
100
AcDbLine
 10
9890.400000000001
 20
300.0
 30
0.0
 11
12170.4
 21
300.0
 31
0.0
  0
LINE
  5
147DC
330
747D
100
AcDbEntity
  8
仕様書枠
 48
50.0
100
AcDbLine
 10
9830.400000000002
 20
900.0
 30
0.0
 11
12230.4
 21
900.0
 31
0.0
  0
LINE
  5
147DD
330
747D
100
AcDbEntity
  8
仕様書枠
 48
50.0
100
AcDbLine
 10
9830.400000000002
 20
900.0
 30
0.0
 11
12230.4
 21
900.0
 31
0.0
  0
LINE
  5
14845
330
747D
100
AcDbEntity
  8
点線
 48
18.0
100
AcDbLine
 10
2645.862646115602
 20
7713.94723844839
 30
0.0
 11
2645.862646115602
 21
7693.947238448389
 31
0.0
  0
LINE
  5
14846
330
747D
100
AcDbEntity
  8
点線
 48
18.0
100
AcDbLine
 10
2709.862646115602
 20
7713.94723844839
 30
0.0
 11
2709.862646115602
 21
7693.947238448389
 31
0.0
  0
LINE
  5
14847
330
747D
100
AcDbEntity
  8
点線
 48
18.0
100
AcDbLine
 10
2647.862646115602
 20
7648.94723844839
 30
0.0
 11
2647.862646115602
 21
7693.947238448389
 31
0.0
  0
LINE
  5
14848
330
747D
100
AcDbEntity
  8
点線
 48
18.0
100
AcDbLine
 10
2707.862646115602
 20
7648.947238448389
 30
0.0
 11
2707.862646115602
 21
7693.947238448389
 31
0.0
  0
LINE
  5
1486A
330
747D
100
AcDbEntity
  8
点線
 48
18.0
100
AcDbLine
 10
2466.862646115601
 20
7693.947238448387
 30
0.0
 11
2512.862646115602
 21
7693.947238448389
 31
0.0
  0
LINE
  5
1486B
330
747D
100
AcDbEntity
  8
点線
 48
18.0
100
AcDbLine
 10
2466.862646115601
 20
6943.947238448385
 30
0.0
 11
2512.862646115602
 21
6943.947238448385
 31
0.0
  0
LINE
  5
1486C
330
747D
100
AcDbEntity
  8
点線
 48
18.0
100
AcDbLine
 10
2466.862646115601
 20
6193.947238448387
 30
0.0
 11
2512.862646115602
 21
6193.947238448389
 31
0.0
  0
LINE
  5
1486D
330
747D
100
AcDbEntity
  8
点線
 48
18.0
100
AcDbLine
 10
2647.862646115602
 20
6963.947238448385
 30
0.0
 11
2647.862646115602
 21
6898.947238448389
 31
0.0
  0
LINE
  5
1486E
330
747D
100
AcDbEntity
  8
点線
 48
18.0
100
AcDbLine
 10
2707.862646115602
 20
6963.947238448385
 30
0.0
 11
2707.862646115602
 21
6898.947238448389
 31
0.0
  0
LINE
  5
1486F
330
747D
100
AcDbEntity
  8
点線
 48
18.0
100
AcDbLine
 10
2647.862646115602
 20
6213.947238448389
 30
0.0
 11
2647.862646115602
 21
6148.947238448389
 31
0.0
  0
LINE
  5
14870
330
747D
100
AcDbEntity
  8
点線
 48
18.0
100
AcDbLine
 10
2707.862646115602
 20
6213.947238448389
 30
0.0
 11
2707.862646115602
 21
6148.947238448389
 31
0.0
  0
LINE
  5
14891
330
747D
100
AcDbEntity
  8
点線
 48
50.0
100
AcDbLine
 10
3776.151842922378
 20
7693.947238448389
 30
0.0
 11
5718.862646115602
 21
7693.947238448389
 31
0.0
  0
LINE
  5
14892
330
747D
100
AcDbEntity
  8
点線
 48
50.0
100
AcDbLine
 10
3919.245900002789
 20
6943.947238448387
 30
0.0
 11
5718.862646115602
 21
6943.947238448387
 31
0.0
  0
LINE
  5
14893
330
747D
100
AcDbEntity
  8
点線
 48
50.0
100
AcDbLine
 10
4178.075631569059
 20
6193.94723844839
 30
0.0
 11
5718.862646115602
 21
6193.947238448391
 31
0.0
  0
LINE
  5
148C6
330
747D
100
AcDbEntity
  8
センター
 48
50.0
100
AcDbLine
 10
2677.862646115603
 20
1710.562576328024
 30
0.0
 11
2677.862646115603
 21
2100.562576328024
 31
0.0
  0
LINE
  5
148CC
330
747D
100
AcDbEntity
  8
センター
 48
50.0
100
AcDbLine
 10
5507.862646115605
 20
1710.562576328022
 30
0.0
 11
5507.862646115605
 21
2100.562576328022
 31
0.0
  0
LINE
  5
14937
330
747D
100
AcDbEntity
  8
点線
 48
18.0
100
AcDbLine
 10
2466.862646115601
 20
7713.947238448388
 30
0.0
 11
2466.862646115601
 21
7648.947238448387
 31
0.0
  0
LINE
  5
14938
330
747D
100
AcDbEntity
  8
点線
 48
18.0
100
AcDbLine
 10
2466.862646115601
 20
6963.947238448385
 30
0.0
 11
2466.862646115601
 21
6898.94723844839
 31
0.0
  0
LINE
  5
14939
330
747D
100
AcDbEntity
  8
点線
 48
18.0
100
AcDbLine
 10
2466.862646115601
 20
6213.947238448388
 30
0.0
 11
2466.862646115601
 21
6148.947238448388
 31
0.0
  0
LINE
  5
1493A
330
747D
100
AcDbEntity
  8
点線
 48
18.0
100
AcDbLine
 10
5718.862646115602
 20
7713.947238448383
 30
0.0
 11
5718.862646115603
 21
7648.947238448385
 31
0.0
  0
LINE
  5
1493B
330
747D
100
AcDbEntity
  8
点線
 48
18.0
100
AcDbLine
 10
5718.862646115602
 20
6963.947238448385
 30
0.0
 11
5718.862646115602
 21
6898.947238448385
 31
0.0
  0
LINE
  5
1493C
330
747D
100
AcDbEntity
  8
点線
 48
18.0
100
AcDbLine
 10
5718.862646115602
 20
6213.947238448384
 30
0.0
 11
5718.862646115603
 21
6148.947238448386
 31
0.0
  0
ARC
  5
14ECF
330
747D
100
AcDbEntity
  8
部品1
 48
50.0
100
AcDbCircle
 10
5477.892721463265
 20
3865.301258266919
 30
0.0
 40
2.0
100
AcDbArc
 50
180.0
 51
270.0
  0
LINE
  5
14ED0
330
747D
100
AcDbEntity
  8
部品1
 48
50.0
100
AcDbLine
 10
5475.892721463265
 20
3909.003156253742
 30
0.0
 11
5475.892721463265
 21
3865.301258266919
 31
0.0
  0
LINE
  5
14ED1
330
747D
100
AcDbEntity
  8
部品1
 48
50.0
100
AcDbLine
 10
5477.892721463265
 20
3863.301258266918
 30
0.0
 11
5487.892721463265
 21
3863.301258266918
 31
0.0
  0
ARC
  5
14ED2
330
747D
100
AcDbEntity
  8
部品1
 48
50.0
100
AcDbCircle
 10
2647.892721463261
 20
3865.301258266919
 30
0.0
 40
2.0
100
AcDbArc
 50
180.0
 51
270.0
  0
LINE
  5
14ED3
330
747D
100
AcDbEntity
  8
部品1
 48
50.0
100
AcDbLine
 10
2645.892721463261
 20
3909.003156253742
 30
0.0
 11
2645.892721463261
 21
3865.301258266919
 31
0.0
  0
LINE
  5
14ED4
330
747D
100
AcDbEntity
  8
部品1
 48
50.0
100
AcDbLine
 10
2647.892721463261
 20
3863.301258266918
 30
0.0
 11
2657.892721463261
 21
3863.301258266918
 31
0.0
  0
ARC
  5
14ED5
330
747D
100
AcDbEntity
  8
部品1
 48
50.0
100
AcDbCircle
 10
2707.832570767945
 20
3865.301258266919
 30
0.0
 40
2.0
100
AcDbArc
 50
270.0
 51
0.000000000000007
  0
LINE
  5
14ED6
330
747D
100
AcDbEntity
  8
部品1
 48
50.0
100
AcDbLine
 10
2709.832570767944
 20
3909.003156253742
 30
0.0
 11
2709.832570767944
 21
3865.301258266919
 31
0.0
  0
LINE
  5
14ED7
330
747D
100
AcDbEntity
  8
部品1
 48
50.0
100
AcDbLine
 10
2707.832570767945
 20
3863.301258266918
 30
0.0
 11
2697.832570767944
 21
3863.301258266918
 31
0.0
  0
TEXT
  5
14EDE
330
747D
100
AcDbEntity
  8
文字
 62
     7
 48
50.0
100
AcDbText
 10
12230.45811700669
 20
-0.4196977354381489
 30
0.0
 40
1.0
  1
ai
  7
STYLE2
100
AcDbText
  0
LINE
  5
14FB2
330
747D
100
AcDbEntity
  8
細線
 48
50.0
100
AcDbLine
 10
3950.862646115602
 20
7817.947238448386
 30
0.0
 11
3950.862646115603
 21
7041.917644300109
 31
0.0
  0
LINE
  5
14FB3
330
747D
100
AcDbEntity
  8
細線
 48
50.0
100
AcDbLine
 10
3905.862646115602
 20
7817.947238448386
 30
0.0
 11
3905.862646115603
 21
7209.859930640708
 31
0.0
  0
LINE
  5
14FB4
330
747D
100
AcDbEntity
  8
細線
 48
50.0
100
AcDbLine
 10
3832.862646115602
 20
7817.947238448386
 30
0.0
 11
3832.862646115602
 21
7482.299639593236
 31
0.0
  0
LINE
  5
14FB5
330
747D
100
AcDbEntity
  8
細線
 48
50.0
100
AcDbLine
 10
3877.862646115602
 20
7817.947238448386
 30
0.0
 11
3877.862646115602
 21
7314.357353252638
 31
0.0
  0
TEXT
  5
1507A
330
747D
100
AcDbEntity
  8
文字
 62
     7
 48
50.0
100
AcDbText
 10
9743.785364340261
 20
7377.453731331458
 30
0.0
 40
81.11400000000001
  1
妻板
  7
STYLE1
100
AcDbText
  0
LINE
  5
1507B
330
747D
100
AcDbEntity
  8
部品1
100
AcDbLine
 10
11925.67447328908
 20
7076.996325495334
 30
0.0
 11
9375.674473289082
 21
7076.996325495334
 31
0.0
  0
TEXT
  5
1507C
330
747D
100
AcDbEntity
  8
文字
 62
     7
 48
50.0
100
AcDbText
 10
9457.219844118371
 20
6825.878531331461
 30
0.0
 40
81.11400000000001
  1
PZ→一般構造用角形鋼管(JIS G 3466)
 41
0.9
  7
STYLE1
100
AcDbText
  0
TEXT
  5
1507D
330
747D
100
AcDbEntity
  8
文字
 62
     7
 48
50.0
100
AcDbText
 10
9457.219844118206
 20
6550.090931331459
 30
0.0
 40
81.11400000000001
  1
Y10→溶融亜鉛-5％アルミニウム合金めっき鋼板(JIS G 3317)
 41
0.9
  7
STYLE1
100
AcDbText
  0
TEXT
  5
1507E
330
747D
100
AcDbEntity
  8
文字
 62
     7
 48
50.0
100
AcDbText
 10
9457.219844118215
 20
6687.984731331461
 30
0.0
 40
81.11400000000001
  1
F12→溶融亜鉛めっき鋼板(JIS G 3302)
  7
STYLE1
100
AcDbText
  0
TEXT
  5
1507F
330
747D
100
AcDbEntity
  8
文字
 62
     7
 48
50.0
100
AcDbText
 10
9743.785364340261
 20
6963.772331331462
 30
0.0
 40
81.11400000000001
  1
雨とい(別売)
  7
STYLE1
100
AcDbText
  0
TEXT
  5
15080
330
747D
100
AcDbEntity
  8
文字
 62
     7
 48
50.0
100
AcDbText
 10
9743.785364340261
 20
7929.028931331457
 30
0.0
 40
81.11400000000001
  1
プレート
  7
STYLE1
100
AcDbText
  0
TEXT
  5
15081
330
747D
100
AcDbEntity
  8
文字
 62
     7
 48
50.0
100
AcDbText
 10
9743.785364340261
 20
7239.559931331462
 30
0.0
 40
81.11400000000001
  1
屋根パネル
  7
STYLE1
100
AcDbText
  0
LINE
  5
15082
330
747D
100
AcDbEntity
  8
部品1
100
AcDbLine
 10
11925.67447328908
 20
6939.102525495333
 30
0.0
 11
9375.674473289084
 21
6939.102525495336
 31
0.0
  0
LINE
  5
15083
330
747D
100
AcDbEntity
  8
部品1
100
AcDbLine
 10
11925.67447328908
 20
8180.146725495331
 30
0.0
 11
9375.674473289082
 21
8180.146725495331
 31
0.0
  0
LINE
  5
15084
330
747D
100
AcDbEntity
  8
部品1
100
AcDbLine
 10
11925.67447328908
 20
6525.421125495333
 30
0.0
 11
11925.67447328908
 21
8180.146725495331
 31
0.0
  0
LINE
  5
15085
330
747D
100
AcDbEntity
  8
部品1
100
AcDbLine
 10
10691.11939328909
 20
8180.146725495331
 30
0.0
 11
10691.11939328909
 21
6939.102525495333
 31
0.0
  0
LINE
  5
15086
330
747D
100
AcDbEntity
  8
部品1
100
AcDbLine
 10
9668.415703569259
 20
8180.146725495331
 30
0.0
 11
9668.415703569268
 21
6939.102525495335
 31
0.0
  0
LINE
  5
15087
330
747D
100
AcDbEntity
  8
部品1
100
AcDbLine
 10
11925.67447328908
 20
8042.252925495331
 30
0.0
 11
9375.674473289082
 21
8042.252925495333
 31
0.0
  0
LINE
  5
15088
330
747D
100
AcDbEntity
  8
部品1
100
AcDbLine
 10
11925.67447328908
 20
7766.465325495335
 30
0.0
 11
9375.674473289082
 21
7766.465325495333
 31
0.0
  0
LINE
  5
15089
330
747D
100
AcDbEntity
  8
部品1
100
AcDbLine
 10
11925.67447328908
 20
7904.359125495332
 30
0.0
 11
9375.674473289082
 21
7904.359125495332
 31
0.0
  0
LINE
  5
1508A
330
747D
100
AcDbEntity
  8
部品1
100
AcDbLine
 10
11925.67447328908
 20
7490.677725495331
 30
0.0
 11
9375.674473289084
 21
7490.677725495331
 31
0.0
  0
LINE
  5
1508B
330
747D
100
AcDbEntity
  8
部品1
100
AcDbLine
 10
11925.67447328908
 20
7352.783925495334
 30
0.0
 11
9375.674473289084
 21
7352.783925495334
 31
0.0
  0
LINE
  5
1508C
330
747D
100
AcDbEntity
  8
部品1
100
AcDbLine
 10
11925.67447328908
 20
7628.571525495333
 30
0.0
 11
9375.674473289084
 21
7628.571525495333
 31
0.0
  0
TEXT
  5
1508D
330
747D
100
AcDbEntity
  8
文字
 62
     7
 48
50.0
100
AcDbText
 10
9430.934340620142
 20
8066.922731331457
 30
0.0
 40
81.11400000000001
  1
品番
  7
STYLE1
100
AcDbText
  0
TEXT
  5
1508E
330
747D
100
AcDbEntity
  8
文字
 62
     7
 48
50.0
100
AcDbText
 10
9490.768193719665
 20
7929.028931331457
 30
0.0
 40
81.11400000000001
  1
1
  7
STYLE1
100
AcDbText
  0
TEXT
  5
1508F
330
747D
100
AcDbEntity
  8
文字
 62
     7
 48
50.0
100
AcDbText
 10
9490.768193719665
 20
7791.13513133146
 30
0.0
 40
81.11400000000001
  1
2
  7
STYLE1
100
AcDbText
  0
TEXT
  5
15090
330
747D
100
AcDbEntity
  8
文字
 62
     7
 48
50.0
100
AcDbText
 10
9490.768193719665
 20
7515.347531331459
 30
0.0
 40
81.11400000000001
  1
4
  7
STYLE1
100
AcDbText
  0
TEXT
  5
15091
330
747D
100
AcDbEntity
  8
文字
 62
     7
 48
50.0
100
AcDbText
 10
9490.768193719665
 20
7653.241331331457
 30
0.0
 40
81.11400000000001
  1
3
  7
STYLE1
100
AcDbText
  0
TEXT
  5
15092
330
747D
100
AcDbEntity
  8
文字
 62
     7
 48
50.0
100
AcDbText
 10
9883.910328786811
 20
8066.922731331457
 30
0.0
 40
81.11400000000001
  1
部　　品　　名
  7
STYLE1
100
AcDbText
  0
TEXT
  5
15093
330
747D
100
AcDbEntity
  8
文字
 62
     7
 48
50.0
100
AcDbText
 10
10751.62860909699
 20
8066.922731331457
 30
0.0
 40
81.11400000000001
  1
材料（材質）　　単位mm
  7
STYLE1
100
AcDbText
  0
TEXT
  5
15094
330
747D
100
AcDbEntity
  8
文字
 62
     7
 48
50.0
100
AcDbText
 10
9743.785364340258
 20
7791.13513133146
 30
0.0
 40
81.11400000000001
  1
柱
  7
STYLE1
100
AcDbText
  0
TEXT
  5
15095
330
747D
100
AcDbEntity
  8
文字
 62
     7
 48
50.0
100
AcDbText
 10
9743.785364340263
 20
7653.241331331461
 30
0.0
 40
81.11400000000001
  1
梁
  7
STYLE1
100
AcDbText
  0
TEXT
  5
15096
330
747D
100
AcDbEntity
  8
文字
 62
     7
 48
50.0
100
AcDbText
 10
9743.785364340261
 20
7101.666131331461
 30
0.0
 40
81.11400000000001
  1
鼻隠シ
  7
STYLE1
100
AcDbText
  0
TEXT
  5
15097
330
747D
100
AcDbEntity
  8
文字
 62
     7
 48
50.0
100
AcDbText
 10
9490.768193719665
 20
7377.453731331456
 30
0.0
 40
81.11400000000001
  1
5
  7
STYLE1
100
AcDbText
  0
TEXT
  5
15098
330
747D
100
AcDbEntity
  8
文字
 62
     7
 48
50.0
100
AcDbText
 10
9490.768193719659
 20
6963.772331331459
 30
0.0
 40
81.11400000000001
  1
8
  7
STYLE1
100
AcDbText
  0
TEXT
  5
15099
330
747D
100
AcDbEntity
  8
文字
 62
     7
 48
50.0
100
AcDbText
 10
9490.768193719659
 20
7101.666131331459
 30
0.0
 40
81.11400000000001
  1
7
  7
STYLE1
100
AcDbText
  0
TEXT
  5
1509A
330
747D
100
AcDbEntity
  8
文字
 62
     7
 48
50.0
100
AcDbText
 10
9490.768193719665
 20
7239.559931331459
 30
0.0
 40
81.11400000000001
  1
6
  7
STYLE1
100
AcDbText
  0
LINE
  5
1509B
330
747D
100
AcDbEntity
  8
部品1
100
AcDbLine
 10
11925.67447328908
 20
6663.314925495331
 30
0.0
 11
9375.674473289082
 21
6663.314925495331
 31
0.0
  0
LINE
  5
1509C
330
747D
100
AcDbEntity
  8
部品1
100
AcDbLine
 10
11925.67447328908
 20
6525.421125495333
 30
0.0
 11
9375.674473289084
 21
6525.421125495333
 31
0.0
  0
LINE
  5
1509D
330
747D
100
AcDbEntity
  8
部品1
100
AcDbLine
 10
11925.67447328908
 20
7214.890125495333
 30
0.0
 11
9375.674473289082
 21
7214.890125495333
 31
0.0
  0
LINE
  5
1509E
330
747D
100
AcDbEntity
  8
部品1
100
AcDbLine
 10
11925.67447328908
 20
6801.208725495333
 30
0.0
 11
9375.674473289084
 21
6801.208725495334
 31
0.0
  0
TEXT
  5
1509F
330
747D
100
AcDbEntity
  8
文字
 62
     7
 48
50.0
100
AcDbText
 10
10883.71619483908
 20
7791.13513133146
 30
0.0
 40
81.11400000000001
  1
PZ            2.3
  7
STYLE1
100
AcDbText
  0
TEXT
  5
150A0
330
747D
100
AcDbEntity
  8
文字
 62
     7
 48
50.0
100
AcDbText
 10
10883.71619483909
 20
6963.772331331458
 30
0.0
 40
81.11400000000001
  1
硬質塩化ビニール
  7
STYLE1
100
AcDbText
  0
LINE
  5
150A1
330
747D
100
AcDbEntity
  8
部品1
100
AcDbLine
 10
9375.674473289084
 20
8180.146725495331
 30
0.0
 11
9375.674473289084
 21
6525.421125495333
 31
0.0
  0
TEXT
  5
150A2
330
747D
100
AcDbEntity
  8
文字
 62
     7
 48
50.0
100
AcDbText
 10
10883.71619483909
 20
7515.34753133146
 30
0.0
 40
81.11400000000001
  1
F12            1.6
  7
STYLE1
100
AcDbText
  0
TEXT
  5
150A3
330
747D
100
AcDbEntity
  8
文字
 62
     7
 48
50.0
100
AcDbText
 10
9743.785364340263
 20
7515.34753133146
 30
0.0
 40
81.11400000000001
  1
母屋
  7
STYLE1
100
AcDbText
  0
TEXT
  5
150A4
330
747D
100
AcDbEntity
  8
文字
 62
     7
 48
50.0
100
AcDbText
 10
10883.71619483908
 20
7653.241331331461
 30
0.0
 40
81.11400000000001
  1
PZ            2.3
  7
STYLE1
100
AcDbText
  0
TEXT
  5
150A5
330
747D
100
AcDbEntity
  8
文字
 62
     7
 48
50.0
100
AcDbText
 10
10867.6312902487
 20
7239.559931331462
 30
0.0
 40
81.11400000000001
  1
Y10            0.5
  7
STYLE1
100
AcDbText
  0
TEXT
  5
150A6
330
747D
100
AcDbEntity
  8
文字
 62
     7
 48
50.0
100
AcDbText
 10
10867.6312902487
 20
7377.453731331458
 30
0.0
 40
81.11400000000001
  1
Y10            0.7
  7
STYLE1
100
AcDbText
  0
TEXT
  5
150A7
330
747D
100
AcDbEntity
  8
文字
 62
     7
 48
50.0
100
AcDbText
 10
10867.6312902487
 20
7101.666131331461
 30
0.0
 40
81.11400000000001
  1
Y10            0.7
  7
STYLE1
100
AcDbText
  0
TEXT
  5
150A8
330
747D
100
AcDbEntity
  8
文字
 62
     7
 48
50.0
100
AcDbText
 10
10883.71619483908
 20
7929.028931331457
 30
0.0
 40
81.11400000000001
  1
F12            2.3
  7
STYLE1
100
AcDbText
  0
TEXT
  5
150D7
330
747D
100
AcDbEntity
  8
文字
 62
     7
 48
50.0
100
AcDbText
 10
11348.29473734573
 20
773.6682797184214
 30
0.0
 40
75.0
  1
   <縮尺> S=1/30
  7
STYLE2
100
AcDbText
  0
TEXT
  5
150D8
330
747D
100
AcDbEntity
  8
仕様書枠
 62
     7
 48
50.0
100
AcDbText
 10
11614.14543937977
 20
628.6895453046891
 30
0.0
 40
75.0
  1
～一般型～
  7
STYLE2
100
AcDbText
  0
LWPOLYLINE
  5
15248
330
747D
100
AcDbEntity
  8
部品1
100
AcDbPolyline
 90
        4
 70
     1
 43
0.0
 10
8371.353574497021
 20
1334.534755452349
 10
9018.384949777548
 20
1334.534755452349
 10
9018.384949777548
 20
1142.014599635209
 10
8371.353574497021
 20
1142.014599635209
  0
TEXT
  5
15249
330
747D
100
AcDbEntity
  8
仕様書枠
 62
     7
 48
50.0
100
AcDbText
 10
8402.768651258552
 20
1180.670031102167
 30
0.0
 40
112.0
  1
側 面 図
  7
STYLE2
100
AcDbText
  0
DIMENSION
  5
1524A
330
747D
100
AcDbEntity
  8
寸法
 48
50.0
100
AcDbDimension
  2
*D11
 10
7302.962597669143
 20
3990.3829119372
 30
0.0
 11
7305.030943653695
 21
4052.940265229845
 31
0.0
 70
   160
 71
     5
 42
103.5000000000018
 51
2.290610042638495
  3
INABA_S30G
100
AcDbAlignedDimension
 13
7616.139681135617
 23
4081.438595505012
 33
0.0
 14
7636.371506940122
 24
3977.046555566361
 34
0.0
 50
87.70938995736043
100
AcDbRotatedDimension
1001
ACAD
1000
DSTYLE
1002
{
1070
   279
1070
     1
1002
}
  0
LINE
  5
1524B
330
747D
100
AcDbEntity
  8
部品1
 48
50.0
100
AcDbLine
 10
7785.009393563786
 20
3964.80974643306
 30
0.0
 11
7795.923646803814
 21
3916.048296064384
 31
0.0
  0
LINE
  5
1524C
330
747D
100
AcDbEntity
  8
細線
 48
50.0
100
AcDbLine
 10
9566.133516419009
 20
3958.552410122882
 30
0.0
 11
9557.031121995214
 21
3931.894914532928
 31
0.0
  0
LINE
  5
1524D
330
747D
100
AcDbEntity
  8
部品1
 48
50.0
100
AcDbLine
 10
9538.178035116954
 20
4004.557061345758
 30
0.0
 11
9534.041343147846
 21
3901.139762118055
 31
0.0
  0
LINE
  5
1524E
330
747D
100
AcDbEntity
  8
部品1
 48
50.0
100
AcDbLine
 10
9599.73543527793
 20
3982.8035020354
 30
0.0
 11
9576.161823966112
 21
3913.765245690329
 31
0.0
  0
LINE
  5
1524F
330
747D
100
AcDbEntity
  8
細線
 48
50.0
100
AcDbLine
 10
7647.893822626345
 20
4001.105255105178
 30
0.0
 11
9547.167925133349
 21
3925.134291004899
 31
0.0
  0
LINE
  5
15250
330
747D
100
AcDbEntity
  8
部品1
 48
50.0
100
AcDbLine
 10
8580.056540906575
 20
3939.299154207704
 30
0.0
 11
8577.578522528943
 21
3877.348694766953
 31
0.0
  0
LINE
  5
15251
330
747D
100
AcDbEntity
  8
部品1
 48
50.0
100
AcDbLine
 10
8621.023780214164
 20
3937.660464635403
 30
0.0
 11
8618.545761836536
 21
3875.710005194651
 31
0.0
  0
LINE
  5
15252
330
747D
100
AcDbEntity
  8
部品1
 48
50.0
100
AcDbLine
 10
7871.023780214163
 20
3967.660464635403
 30
0.0
 11
7868.545761836533
 21
3905.710005194651
 31
0.0
  0
LINE
  5
15253
330
747D
100
AcDbEntity
  8
部品1
 48
50.0
100
AcDbLine
 10
7830.056540906575
 20
3969.299154207703
 30
0.0
 11
7827.578522528944
 21
3907.348694766954
 31
0.0
  0
LINE
  5
15254
330
747D
100
AcDbEntity
  8
部品1
 48
50.0
100
AcDbLine
 10
7636.371506940122
 20
3977.046555566364
 30
0.0
 11
9556.435430242382
 21
3900.243998634272
 31
0.0
  0
LINE
  5
15255
330
747D
100
AcDbEntity
  8
細線
 48
50.0
100
AcDbLine
 10
8866.75626199433
 20
1830.562576328022
 30
0.0
 11
8914.021449108849
 21
1877.827763442536
 31
0.0
  0
LINE
  5
15256
330
747D
100
AcDbEntity
  8
細線
 48
50.0
100
AcDbLine
 10
8839.81548199433
 20
1830.562576328022
 30
0.0
 11
8887.347409504885
 21
1878.094503838577
 31
0.0
  0
LINE
  5
15257
330
747D
100
AcDbEntity
  8
部品1
 48
50.0
100
AcDbLine
 10
9590.54066052287
 20
1871.062571328397
 30
0.0
 11
8645.54016056037
 21
1880.562576328022
 31
0.0
  0
LINE
  5
15258
330
747D
100
AcDbEntity
  8
部品1
 48
50.0
100
AcDbLine
 10
9465.540160560371
 20
3852.060422000177
 30
0.0
 11
8705.018951960829
 21
3573.433488370454
 31
0.0
  0
LINE
  5
15259
330
747D
100
AcDbEntity
  8
部品1
 48
50.0
100
AcDbLine
 10
8725.540160560369
 20
3487.0519311233
 30
0.0
 11
8725.540160560369
 21
1962.099725102283
 31
0.0
  0
LINE
  5
1525A
330
747D
100
AcDbEntity
  8
部品1
 48
50.0
100
AcDbLine
 10
8665.54016056037
 20
3517.0519311233
 30
0.0
 11
8665.54016056037
 21
1962.099725102285
 31
0.0
  0
LINE
  5
1525B
330
747D
100
AcDbEntity
  8
部品1
 48
50.0
100
AcDbLine
 10
8645.54016056037
 20
3548.431828606208
 30
0.0
 11
8645.54016056037
 21
1880.562576328022
 31
0.0
  0
LINE
  5
1525C
330
747D
100
AcDbEntity
  8
部品1
 48
50.0
100
AcDbLine
 10
8555.540160560369
 20
3548.431828606207
 30
0.0
 11
8555.540160560369
 21
1880.562576328022
 31
0.0
  0
LINE
  5
1525D
330
747D
100
AcDbEntity
  8
部品1
 48
50.0
100
AcDbLine
 10
7610.539660597869
 20
1871.062571328397
 30
0.0
 11
8555.540160560369
 21
1880.562576328022
 31
0.0
  0
LINE
  5
1525E
330
747D
100
AcDbEntity
  8
細線
 48
50.0
100
AcDbLine
 10
7689.947820918881
 20
1830.562576328022
 30
0.0
 11
7731.65900940735
 21
1872.27376481649
 31
0.0
  0
LINE
  5
1525F
330
747D
100
AcDbEntity
  8
細線
 48
50.0
100
AcDbLine
 10
7743.829380918883
 20
1830.562576328022
 30
0.0
 11
7786.08482758917
 21
1872.818022998309
 31
0.0
  0
LINE
  5
15260
330
747D
100
AcDbEntity
  8
細線
 48
50.0
100
AcDbLine
 10
7716.888600918882
 20
1830.562576328022
 30
0.0
 11
7758.871918498255
 21
1872.545893907399
 31
0.0
  0
LINE
  5
15261
330
747D
100
AcDbEntity
  8
部品1
 48
50.0
100
AcDbLine
 10
7610.539660597869
 20
1871.062571328397
 30
0.0
 11
7600.540160560369
 21
1860.962576328022
 31
0.0
  0
LINE
  5
15262
330
747D
100
AcDbEntity
  8
部品1
 48
50.0
100
AcDbLine
 10
7600.540160560369
 20
1860.962576328022
 30
0.0
 11
7600.540160560369
 21
1830.562576328022
 31
0.0
  0
LINE
  5
15263
330
747D
100
AcDbEntity
  8
細線
 48
50.0
100
AcDbLine
 10
8363.46704163586
 20
1830.562576328022
 30
0.0
 11
8411.981454576009
 21
1879.076989268177
 31
0.0
  0
LINE
  5
15264
330
747D
100
AcDbEntity
  8
細線
 48
50.0
100
AcDbLine
 10
8336.526261635858
 20
1830.562576328022
 30
0.0
 11
8384.768545485101
 21
1878.804860177268
 31
0.0
  0
LINE
  5
15265
330
747D
100
AcDbEntity
  8
細線
 48
50.0
100
AcDbLine
 10
8390.407821635861
 20
1830.562576328022
 30
0.0
 11
8439.194363666921
 21
1879.349118359087
 31
0.0
  0
LINE
  5
15266
330
747D
100
AcDbEntity
  8
部品1
 48
50.0
100
AcDbLine
 10
8645.540160560383
 20
1880.562576328022
 30
0.0
 11
8555.540160560369
 21
1880.562576328022
 31
0.0
  0
LINE
  5
15267
330
747D
100
AcDbEntity
  8
部品1
 48
50.0
100
AcDbLine
 10
8645.540160560383
 20
1880.562576328022
 30
0.0
 11
8555.540160560369
 21
1880.562576328022
 31
0.0
  0
LINE
  5
15268
330
747D
100
AcDbEntity
  8
点線
 48
18.0
100
AcDbLine
 10
8555.540160560369
 20
1880.562576328022
 30
0.0
 11
8555.540160560369
 21
1830.562576328022
 31
0.0
  0
LINE
  5
15269
330
747D
100
AcDbEntity
  8
点線
 48
18.0
100
AcDbLine
 10
8645.54016056037
 20
1880.562576328022
 30
0.0
 11
8645.54016056037
 21
1830.562576328022
 31
0.0
  0
LINE
  5
1526A
330
747D
100
AcDbEntity
  8
部品1
 48
50.0
100
AcDbLine
 10
8727.040160560369
 20
2017.099725102285
 30
0.0
 11
8727.040160560369
 21
1997.099725102285
 31
0.0
  0
CIRCLE
  5
1526B
330
747D
100
AcDbEntity
  8
細線
 48
50.0
100
AcDbCircle
 10
8655.540160560368
 20
2007.099725102285
 30
0.0
 40
6.5
  0
LWPOLYLINE
  5
1526C
330
747D
100
AcDbEntity
  8
細線
 48
50.0
100
AcDbPolyline
 90
        6
 70
     1
 43
0.0
 10
8660.540160560369
 20
2009.986476448233
 10
8655.540160560368
 20
2012.873227794182
 10
8650.540160560369
 20
2009.986476448233
 10
8650.540160560369
 20
2004.212973756337
 10
8655.540160560368
 20
2001.326222410389
 10
8660.540160560369
 20
2004.212973756337
  0
LINE
  5
1526D
330
747D
100
AcDbEntity
  8
部品1
 48
50.0
100
AcDbLine
 10
8727.040160560369
 20
2017.099725102285
 30
0.0
 11
8645.54016056037
 21
2017.099725102285
 31
0.0
  0
LINE
  5
1526E
330
747D
100
AcDbEntity
  8
部品1
 48
50.0
100
AcDbLine
 10
8727.040160560369
 20
1997.099725102285
 30
0.0
 11
8645.54016056037
 21
1997.099725102285
 31
0.0
  0
LINE
  5
1526F
330
747D
100
AcDbEntity
  8
細線
 48
50.0
100
AcDbLine
 10
8725.540160560369
 20
1987.099725102283
 30
0.0
 11
8665.540160560373
 21
1987.099725102285
 31
0.0
  0
LINE
  5
15270
330
747D
100
AcDbEntity
  8
部品1
 48
50.0
100
AcDbLine
 10
8747.153090838457
 20
1954.2332618058
 30
0.0
 11
8732.356405772815
 21
1898.960681704369
 31
0.0
  0
LINE
  5
15271
330
747D
100
AcDbEntity
  8
細線
 48
50.0
100
AcDbLine
 10
8725.540160560369
 20
1962.099725102283
 30
0.0
 11
8705.018951960832
 21
1905.718167855131
 31
0.0
  0
ARC
  5
15272
330
747D
100
AcDbEntity
  8
部品1
 48
50.0
100
AcDbCircle
 10
8725.540160560369
 20
1962.099725102285
 30
0.0
 40
60.0
100
AcDbArc
 50
180.0
 51
250.0000000000108
  0
LINE
  5
15273
330
747D
100
AcDbEntity
  8
部品1
 48
50.0
100
AcDbLine
 10
8725.540160560369
 20
1962.099725102283
 30
0.0
 11
8747.153090838457
 21
1954.2332618058
 31
0.0
  0
LINE
  5
15274
330
747D
100
AcDbEntity
  8
部品1
 48
50.0
100
AcDbLine
 10
8706.045012390815
 20
1908.537245717489
 30
0.0
 11
8732.356405772822
 21
1898.960681704367
 31
0.0
  0
LINE
  5
15275
330
747D
100
AcDbEntity
  8
部品1
 48
50.0
100
AcDbLine
 10
8555.540160560367
 20
1880.562576328022
 30
0.0
 11
8645.540160560383
 21
1880.562576328022
 31
0.0
  0
LINE
  5
15276
330
747D
100
AcDbEntity
  8
寸法
 48
50.0
100
AcDbLine
 10
8589.405034645505
 20
3053.479328790713
 30
0.0
 11
8267.083272159696
 21
2950.961752276541
 31
0.0
  0
TEXT
  5
15277
330
747D
100
AcDbEntity
  8
部品1
 48
50.0
100
AcDbText
 10
8103.569535638893
 20
2859.633061031465
 30
0.0
 40
120.0
  1
②
  7
STYLE2
100
AcDbText
  0
LINE
  5
15278
330
747D
100
AcDbEntity
  8
寸法
 48
50.0
100
AcDbLine
 10
8424.272711503908
 20
3717.204366634971
 30
0.0
 11
8187.781738376136
 21
3528.724526267492
 31
0.0
  0
LINE
  5
15279
330
747D
100
AcDbEntity
  8
部品1
 48
50.0
100
AcDbLine
 10
7868.62569791323
 20
3907.708407112094
 30
0.0
 11
8261.227288221208
 21
3892.004343499774
 31
0.0
  0
TEXT
  5
1527A
330
747D
100
AcDbEntity
  8
部品1
 48
50.0
100
AcDbText
 10
8033.748164394372
 20
3423.513162927397
 30
0.0
 40
120.0
  1
①
  7
STYLE2
100
AcDbText
  0
LINE
  5
1527B
330
747D
100
AcDbEntity
  8
部品1
 48
50.0
100
AcDbLine
 10
7805.28250402466
 20
3908.240535507103
 30
0.0
 11
7827.578522528944
 21
3907.348694766934
 31
0.0
  0
ARC
  5
1527C
330
747D
100
AcDbEntity
  8
部品1
 48
50.0
100
AcDbCircle
 10
7805.68218440815
 20
3918.232545094321
 30
0.0
 40
10.0
100
AcDbArc
 50
192.6165368012866
 51
267.7093899573604
  0
LINE
  5
1527D
330
747D
100
AcDbEntity
  8
部品1
 48
50.0
100
AcDbLine
 10
7827.578522528944
 20
3907.348694766954
 30
0.0
 11
7868.545761836533
 21
3905.710005194649
 31
0.0
  0
LINE
  5
1527E
330
747D
100
AcDbEntity
  8
部品1
 48
50.0
100
AcDbLine
 10
8394.772762460682
 20
3886.662524530196
 30
0.0
 11
8577.658458605641
 21
3879.347096684396
 31
0.0
  0
LINE
  5
1527F
330
747D
100
AcDbEntity
  8
部品1
 48
50.0
100
AcDbLine
 10
8555.540160560369
 20
3548.431828606207
 30
0.0
 11
8645.54016056037
 21
3548.431828606208
 31
0.0
  0
CIRCLE
  5
15280
330
747D
100
AcDbEntity
  8
細線
 48
50.0
100
AcDbCircle
 10
8655.540160560368
 20
3497.051931123301
 30
0.0
 40
6.5
  0
LWPOLYLINE
  5
15281
330
747D
100
AcDbEntity
  8
細線
 48
50.0
100
AcDbPolyline
 90
        6
 70
     1
 43
0.0
 10
8660.540160560369
 20
3499.938682469249
 10
8655.540160560368
 20
3502.825433815198
 10
8650.540160560369
 20
3499.938682469249
 10
8650.540160560369
 20
3494.165179777353
 10
8655.540160560368
 20
3491.278428431405
 10
8660.540160560369
 20
3494.165179777353
  0
LINE
  5
15282
330
747D
100
AcDbEntity
  8
部品1
 48
50.0
100
AcDbLine
 10
8727.040160560369
 20
3507.0519311233
 30
0.0
 11
8727.040160560369
 21
3487.0519311233
 31
0.0
  0
LINE
  5
15283
330
747D
100
AcDbEntity
  8
部品1
 48
50.0
100
AcDbLine
 10
8727.040160560369
 20
3487.0519311233
 30
0.0
 11
8645.54016056037
 21
3487.0519311233
 31
0.0
  0
LINE
  5
15284
330
747D
100
AcDbEntity
  8
部品1
 48
50.0
100
AcDbLine
 10
8727.040160560369
 20
3507.0519311233
 30
0.0
 11
8645.54016056037
 21
3507.0519311233
 31
0.0
  0
LINE
  5
15285
330
747D
100
AcDbEntity
  8
細線
 48
50.0
100
AcDbLine
 10
8749.032476080017
 20
3525.602434706441
 30
0.0
 11
8728.511267480476
 21
3581.983991953595
 31
0.0
  0
LINE
  5
15286
330
747D
100
AcDbEntity
  8
細線
 48
50.0
100
AcDbLine
 10
8725.540160560369
 20
3517.0519311233
 30
0.0
 11
8665.54016056037
 21
3517.0519311233
 31
0.0
  0
ARC
  5
15287
330
747D
100
AcDbEntity
  8
部品1
 48
50.0
100
AcDbCircle
 10
8725.540160560369
 20
3517.0519311233
 30
0.0
 40
60.0
100
AcDbArc
 50
109.9999999999892
 51
180.0
  0
LINE
  5
15288
330
747D
100
AcDbEntity
  8
部品1
 48
50.0
100
AcDbLine
 10
8725.540160560369
 20
3517.0519311233
 30
0.0
 11
8725.540160560369
 21
3507.0519311233
 31
0.0
  0
LINE
  5
15289
330
747D
100
AcDbEntity
  8
部品1
 48
50.0
100
AcDbLine
 10
8618.625697913238
 20
3877.708407112094
 30
0.0
 11
8796.916344511828
 21
3870.576781248151
 31
0.0
  0
LINE
  5
1528A
330
747D
100
AcDbEntity
  8
部品1
 48
50.0
100
AcDbLine
 10
8577.578522528943
 20
3877.348694766952
 30
0.0
 11
8618.545761836541
 21
3875.71000519465
 31
0.0
  0
LINE
  5
1528B
330
747D
100
AcDbEntity
  8
細線
 48
50.0
100
AcDbLine
 10
9540.27548271131
 20
1830.562576328022
 30
0.0
 11
9580.872162690011
 21
1871.159256306725
 31
0.0
  0
LINE
  5
1528C
330
747D
100
AcDbEntity
  8
細線
 48
50.0
100
AcDbLine
 10
9513.334702711309
 20
1830.562576328022
 30
0.0
 11
9554.198123086051
 21
1871.425996702764
 31
0.0
  0
LINE
  5
1528D
330
747D
100
AcDbEntity
  8
細線
 48
50.0
100
AcDbLine
 10
8893.697041994332
 20
1830.562576328022
 30
0.0
 11
8940.695488712805
 21
1877.561023046497
 31
0.0
  0
LINE
  5
1528E
330
747D
100
AcDbEntity
  8
細線
 48
50.0
100
AcDbLine
 10
9486.393922711307
 20
1830.562576328022
 30
0.0
 11
9527.52408348209
 21
1871.692737098804
 31
0.0
  0
LINE
  5
1528F
330
747D
100
AcDbEntity
  8
部品1
 48
50.0
100
AcDbLine
 10
9600.54016056037
 20
1860.962576328022
 30
0.0
 11
9600.54016056037
 21
1830.562576328022
 31
0.0
  0
LINE
  5
15290
330
747D
100
AcDbEntity
  8
部品1
 48
50.0
100
AcDbLine
 10
9590.54066052287
 20
1871.062571328397
 30
0.0
 11
9600.54016056037
 21
1860.962576328022
 31
0.0
  0
LINE
  5
15291
330
747D
100
AcDbEntity
  8
部品1
 48
50.0
100
AcDbLine
 10
8916.757242358018
 20
3865.783145334305
 30
0.0
 11
9327.658458605641
 21
3849.347096684397
 31
0.0
  0
LINE
  5
15292
330
747D
100
AcDbEntity
  8
細線
 48
50.0
100
AcDbLine
 10
9465.540160560371
 20
3877.060422000172
 30
0.0
 11
9525.540160560366
 21
3877.06042200017
 31
0.0
  0
LINE
  5
15293
330
747D
100
AcDbEntity
  8
細線
 48
50.0
100
AcDbLine
 10
9465.540160560371
 20
3852.060422000177
 30
0.0
 11
9486.061369159907
 21
3795.67886475302
 31
0.0
  0
LINE
  5
15294
330
747D
100
AcDbEntity
  8
部品1
 48
50.0
100
AcDbLine
 10
9380.834371602963
 20
3755.783103142377
 30
0.0
 11
9362.040519187249
 21
3748.942700275864
 31
0.0
  0
LWPOLYLINE
  5
15295
330
747D
100
AcDbEntity
  8
細線
 48
50.0
100
AcDbPolyline
 90
        6
 70
     1
 43
0.0
 10
9351.983005147324
 20
3822.437675441264
 10
9346.983005147325
 20
3825.324426787213
 10
9341.983005147325
 20
3822.437675441264
 10
9341.983005147325
 20
3816.664172749368
 10
9346.983005147325
 20
3813.77742140342
 10
9351.983005147324
 20
3816.664172749368
  0
CIRCLE
  5
15296
330
747D
100
AcDbEntity
  8
細線
 48
50.0
100
AcDbCircle
 10
9346.983005147325
 20
3819.550924095315
 30
0.0
 40
6.5
  0
ARC
  5
15297
330
747D
100
AcDbEntity
  8
部品1
 48
50.0
100
AcDbCircle
 10
9337.32697551189
 20
3825.614016679109
 30
0.0
 40
3.0
100
AcDbArc
 50
109.9999999999892
 51
200.0000000000104
  0
LINE
  5
15298
330
747D
100
AcDbEntity
  8
部品1
 48
50.0
100
AcDbLine
 10
9337.345503120735
 20
3828.813293494668
 30
0.0
 11
9336.300915081912
 21
3828.433094541466
 31
0.0
  0
LINE
  5
15299
330
747D
100
AcDbEntity
  8
部品1
 48
50.0
100
AcDbLine
 10
9346.983005147325
 20
3819.550924095315
 30
0.0
 11
9346.983005147325
 21
3819.550924095315
 31
0.0
  0
LINE
  5
1529A
330
747D
100
AcDbEntity
  8
部品1
 48
50.0
100
AcDbLine
 10
9357.053757159883
 20
3821.119804345508
 30
0.0
 11
9380.834371602963
 21
3755.783103142377
 31
0.0
  0
LINE
  5
1529B
330
747D
100
AcDbEntity
  8
部品1
 48
50.0
100
AcDbLine
 10
9334.507897649531
 20
3824.587956249132
 30
0.0
 11
9362.040519187249
 21
3748.942700275864
 31
0.0
  0
ARC
  5
1529C
330
747D
100
AcDbEntity
  8
部品1
 48
50.0
100
AcDbCircle
 10
9347.022973185667
 20
3820.550125054037
 30
0.0
 40
10.0
100
AcDbArc
 50
177.7093899573614
 51
357.7093899573615
  0
LINE
  5
1529D
330
747D
100
AcDbEntity
  8
部品1
 48
50.0
100
AcDbLine
 10
9358.054151769957
 20
3846.129669597314
 30
0.0
 11
9356.97501473454
 21
3819.151243711827
 31
0.0
  0
LINE
  5
1529E
330
747D
100
AcDbEntity
  8
部品1
 48
50.0
100
AcDbLine
 10
9338.070132595523
 20
3846.929030364292
 30
0.0
 11
9336.990995560103
 21
3819.950604478803
 31
0.0
  0
ARC
  5
1529F
330
747D
100
AcDbEntity
  8
部品1
 48
50.0
100
AcDbCircle
 10
9465.540160560365
 20
3852.060422000174
 30
0.0
 40
60.0
100
AcDbArc
 50
289.9999999999892
 51
0.0
  0
LINE
  5
152A0
330
747D
100
AcDbEntity
  8
部品1
 48
50.0
100
AcDbLine
 10
9525.540160560369
 20
3901.479809421552
 30
0.0
 11
9525.540160560366
 21
3852.060422000174
 31
0.0
  0
LINE
  5
152A1
330
747D
100
AcDbEntity
  8
部品1
 48
50.0
100
AcDbLine
 10
9465.540160560371
 20
3903.879809421553
 30
0.0
 11
9465.540160560371
 21
3852.060422000177
 31
0.0
  0
ARC
  5
152A2
330
747D
100
AcDbEntity
  8
部品1
 48
50.0
100
AcDbCircle
 10
9391.241460724307
 20
3854.810174041697
 30
0.0
 40
10.0
100
AcDbArc
 50
267.7093899573604
 51
342.8022431134319
  0
LINE
  5
152A3
330
747D
100
AcDbEntity
  8
部品1
 48
50.0
100
AcDbLine
 10
9390.841780340819
 20
3844.818164454478
 30
0.0
 11
9368.545761836541
 21
3845.710005194651
 31
0.0
  0
LINE
  5
152A4
330
747D
100
AcDbEntity
  8
部品1
 48
50.0
100
AcDbLine
 10
9415.568428062675
 20
3899.58738505313
 30
0.0
 11
9400.794360107068
 21
3851.853467532277
 31
0.0
  0
ARC
  5
152A5
330
747D
100
AcDbEntity
  8
部品1
 48
50.0
100
AcDbCircle
 10
9410.791978371292
 20
3901.06573830784
 30
0.0
 40
5.0
100
AcDbArc
 50
342.8022431134319
 51
87.70938995736043
  0
LINE
  5
152A6
330
747D
100
AcDbEntity
  8
部品1
 48
50.0
100
AcDbLine
 10
9327.578522528943
 20
3847.348694766956
 30
0.0
 11
9368.545761836541
 21
3845.710005194651
 31
0.0
  0
LINE
  5
152A7
330
747D
100
AcDbEntity
  8
部品1
 48
50.0
100
AcDbLine
 10
9371.023780214164
 20
3907.660464635403
 30
0.0
 11
9368.545761836536
 21
3845.710005194651
 31
0.0
  0
LINE
  5
152A8
330
747D
100
AcDbEntity
  8
部品1
 48
50.0
100
AcDbLine
 10
9330.056540906575
 20
3909.299154207707
 30
0.0
 11
9327.578522528943
 21
3847.348694766953
 31
0.0
  0
ARC
  5
152A9
330
747D
100
AcDbEntity
  8
細線
 48
50.0
100
AcDbCircle
 10
9547.567605516837
 20
3935.126300592118
 30
0.0
 40
10.0
100
AcDbArc
 50
267.7093899573604
 51
341.1471589320522
  0
ARC
  5
152AA
330
747D
100
AcDbEntity
  8
部品1
 48
50.0
100
AcDbCircle
 10
9557.23479100936
 20
3920.228017808709
 30
0.0
 40
20.0
100
AcDbArc
 50
267.7093899573604
 51
341.1471589320522
  0
DIMENSION
  5
152AB
330
747D
100
AcDbEntity
  8
寸法
 48
50.0
100
AcDbDimension
  2
*D12
 10
9600.54016056037
 20
4906.270106075113
 30
0.0
 11
8600.540160560369
 21
4981.27896434283
 31
0.0
 70
    32
 71
     5
 42
2000.0
  3
INABA_S30G
100
AcDbAlignedDimension
 13
7600.540160560369
 23
4066.450581124187
 33
0.0
 14
9600.54016056037
 24
3987.650581124186
 34
0.0
100
AcDbRotatedDimension
  0
LINE
  5
152AC
330
747D
100
AcDbEntity
  8
細線
 48
50.0
100
AcDbLine
 10
7642.212296112015
 20
4048.370101137771
 30
0.0
 11
9557.069680324124
 21
3971.775805769289
 31
0.0
  0
LINE
  5
152AD
330
747D
100
AcDbEntity
  8
細線
 48
50.0
100
AcDbLine
 10
7647.239640235421
 20
4036.659811049896
 30
0.0
 11
9551.079188174044
 21
3960.506229132352
 31
0.0
  0
LINE
  5
152AE
330
747D
100
AcDbEntity
  8
細線
 48
50.0
100
AcDbLine
 10
7651.320423526202
 20
4012.477387392127
 30
0.0
 11
9544.771116994747
 21
3936.739359653382
 31
0.0
  0
LINE
  5
152AF
330
747D
100
AcDbEntity
  8
部品1
 48
50.0
100
AcDbLine
 10
7616.139681135603
 20
4081.438595505015
 30
0.0
 11
9586.139681135604
 21
4002.638595505014
 31
0.0
  0
LINE
  5
152B0
330
747D
100
AcDbEntity
  8
寸法
 48
50.0
100
AcDbLine
 10
7825.210305377186
 20
4053.222195217858
 30
0.0
 11
7479.943417526716
 21
4403.83615247087
 31
0.0
  0
TEXT
  5
152B1
330
747D
100
AcDbEntity
  8
部品1
 48
50.0
100
AcDbText
 10
7328.585677767954
 20
4396.246359413384
 30
0.0
 40
120.0
  1
⑤
  7
STYLE2
100
AcDbText
  0
ARC
  5
152B2
330
747D
100
AcDbEntity
  8
部品1
 48
50.0
100
AcDbCircle
 10
7789.888662365957
 20
3965.90187094803
 30
0.0
 40
5.0
100
AcDbArc
 50
87.70938995736043
 51
192.6165368012866
  0
ARC
  5
152B3
330
747D
100
AcDbEntity
  8
細線
 48
50.0
100
AcDbCircle
 10
7648.293503009835
 20
4011.097264692398
 30
0.0
 40
10.0
100
AcDbArc
 50
193.3635800495691
 51
267.7093899573604
  0
ARC
  5
152B4
330
747D
100
AcDbEntity
  8
細線
 48
50.0
100
AcDbCircle
 10
7641.812615728525
 20
4038.378091550556
 30
0.0
 40
10.0
100
AcDbArc
 50
87.70938995736043
 51
193.3635800495691
  0
ARC
  5
152B5
330
747D
100
AcDbEntity
  8
細線
 48
50.0
100
AcDbCircle
 10
7651.44032764125
 20
4015.474990268292
 30
0.0
 40
3.0
100
AcDbArc
 50
193.3635800495691
 51
267.7093899573604
  0
ARC
  5
152B6
330
747D
100
AcDbEntity
  8
細線
 48
50.0
100
AcDbCircle
 10
7647.119736120373
 20
4033.662208173729
 30
0.0
 40
3.0
100
AcDbArc
 50
87.70938995736043
 51
193.3635800495564
  0
LINE
  5
152B7
330
747D
100
AcDbEntity
  8
細線
 48
50.0
100
AcDbLine
 10
7644.200967145036
 20
4032.968819632846
 30
0.0
 11
7648.521558665914
 21
4014.781601727407
 31
0.0
  0
LINE
  5
152B8
330
747D
100
AcDbEntity
  8
細線
 48
50.0
100
AcDbLine
 10
7632.083385810748
 20
4036.06679641427
 30
0.0
 11
7638.564273092055
 21
4008.785969556113
 31
0.0
  0
LINE
  5
152B9
330
747D
100
AcDbEntity
  8
部品1
 48
50.0
100
AcDbLine
 10
7664.101327154243
 20
4079.52012966427
 30
0.0
 11
7659.964635185133
 21
3976.102830436565
 31
0.0
  0
LINE
  5
152BA
330
747D
100
AcDbEntity
  8
部品1
 48
50.0
100
AcDbLine
 10
7600.946315683701
 20
4062.983638419761
 30
0.0
 11
7617.712407871547
 21
3992.407984468231
 31
0.0
  0
ARC
  5
152BB
330
747D
100
AcDbEntity
  8
部品1
 48
50.0
100
AcDbCircle
 10
7615.54016056037
 20
4066.450581124187
 30
0.0
 40
15.0
100
AcDbArc
 50
87.70938995736043
 51
193.3635800495564
  0
ARC
  5
152BC
330
747D
100
AcDbEntity
  8
部品1
 48
50.0
100
AcDbCircle
 10
7637.1708677071
 20
3997.030574740799
 30
0.0
 40
20.0
100
AcDbArc
 50
193.3635800495564
 51
267.7093899573604
  0
ARC
  5
152BD
330
747D
100
AcDbEntity
  8
細線
 48
50.0
100
AcDbCircle
 10
9544.891021109794
 20
3939.736962529547
 30
0.0
 40
3.0
100
AcDbArc
 50
267.7093899573604
 51
341.1471589320522
  0
ARC
  5
152BE
330
747D
100
AcDbEntity
  8
細線
 48
50.0
100
AcDbCircle
 10
9550.959284058997
 20
3957.508626256188
 30
0.0
 40
3.0
100
AcDbArc
 50
341.1471589320522
 51
87.70938995736043
  0
ARC
  5
152BF
330
747D
100
AcDbEntity
  8
細線
 48
50.0
100
AcDbCircle
 10
9556.669999940634
 20
3961.783796182072
 30
0.0
 40
10.0
100
AcDbArc
 50
341.1471589320522
 51
87.70938995736043
  0
LINE
  5
152C0
330
747D
100
AcDbEntity
  8
細線
 48
50.0
100
AcDbLine
 10
9553.798339002508
 20
3956.53921043843
 30
0.0
 11
9547.730076053303
 21
3938.767546711792
 31
0.0
  0
ARC
  5
152C1
330
747D
100
AcDbEntity
  8
部品1
 48
50.0
100
AcDbCircle
 10
9585.540160560368
 20
3987.650581124186
 30
0.0
 40
15.0
100
AcDbArc
 50
341.1471589320522
 51
87.70938995736043
  0
DIMENSION
  5
152C2
330
747D
100
AcDbEntity
  8
寸法
 48
50.0
100
AcDbDimension
  2
*D13
 10
6992.665052100015
 20
1880.562576328022
 30
0.0
 11
6992.665052100015
 21
2981.312576328022
 31
0.0
 70
   160
 71
     5
 42
2201.500000000001
  3
INABA_S30G
100
AcDbAlignedDimension
 13
7600.540160560369
 23
4082.062576328023
 33
0.0
 14
7600.540160560369
 24
1880.562576328022
 34
0.0
 50
90.0
100
AcDbRotatedDimension
  0
DIMENSION
  5
152C3
330
747D
100
AcDbEntity
  8
寸法
 48
50.0
100
AcDbDimension
  2
*D14
 10
9976.177613034964
 20
4002.650581124186
 30
0.0
 11
9976.177613034964
 21
2991.672581441367
 31
0.0
 70
   160
  1
2121.5
 71
     5
 42
2122.088004796164
  3
INABA_S30G
100
AcDbAlignedDimension
 13
9885.080903689832
 23
1880.562576328022
 33
0.0
 14
9600.54016056037
 24
4002.650581124186
 34
0.0
 50
90.0
100
AcDbRotatedDimension
  0
DIMENSION
  5
152C4
330
747D
100
AcDbEntity
  8
寸法
 48
50.0
100
AcDbDimension
  2
*D15
 10
6992.665052100015
 20
1880.562576328022
 30
0.0
 11
6992.665052100015
 21
1601.027143257156
 31
0.0
 70
   160
 71
     5
 42
50.00000000000023
  3
INABA_S30G
100
AcDbAlignedDimension
 13
7600.540160560369
 23
1830.562576328022
 33
0.0
 14
8555.540160560369
 24
1880.562576328022
 34
0.0
 50
90.0
100
AcDbRotatedDimension
  0
DIMENSION
  5
152C5
330
747D
100
AcDbEntity
  8
寸法
 48
50.0
100
AcDbDimension
  2
*D16
 10
9976.177613034964
 20
1830.562576328022
 30
0.0
 11
9976.177613034964
 21
1601.027143257155
 31
0.0
 70
   160
 71
     5
 42
50.0
  3
INABA_S30G
100
AcDbAlignedDimension
 13
8645.54016056037
 23
1880.562576328022
 33
0.0
 14
9600.54016056037
 24
1830.562576328022
 34
0.0
 50
90.0
100
AcDbRotatedDimension
  0
TEXT
  5
152C6
330
747D
100
AcDbEntity
  8
部品1
 48
50.0
100
AcDbText
 10
8961.588288849624
 20
2739.15677552504
 30
0.0
 40
120.0
  1
⑧
  7
STYLE2
100
AcDbText
  0
LINE
  5
152C7
330
747D
100
AcDbEntity
  8
寸法
 48
50.0
100
AcDbLine
 10
8696.468788824136
 20
2869.446433548754
 30
0.0
 11
8970.528961593005
 21
2816.194779334889
 31
0.0
  0
TEXT
  5
152C8
330
747D
100
AcDbEntity
  8
部品1
 48
50.0
100
AcDbText
 10
9155.249144307214
 20
2722.94658336242
 30
0.0
 40
80.0
  1
(別売)
  7
STYLE2
100
AcDbText
  0
LINE
  5
152C9
330
747D
100
AcDbEntity
  8
部品1
 48
50.0
100
AcDbLine
 10
9486.06136915991
 20
3795.678864753023
 30
0.0
 11
9380.402599661831
 21
3756.969386800987
 31
0.0
  0
LINE
  5
152CA
330
747D
100
AcDbEntity
  8
部品1
 48
50.0
100
AcDbLine
 10
9361.623189799599
 20
3750.0893033449
 30
0.0
 11
8725.540160560369
 21
3517.0519311233
 31
0.0
  0
LINE
  5
152CB
330
747D
100
AcDbEntity
  8
部品1
100
AcDbLine
 10
8598.740160597227
 20
3698.431828606209
 30
0.0
 11
8555.150160523508
 21
3698.431828606209
 31
0.0
  0
LINE
  5
152CC
330
747D
100
AcDbEntity
  8
部品1
100
AcDbLine
 10
8555.150160523508
 20
3698.431828606209
 30
0.0
 11
8552.840160523507
 21
3698.431828606209
 31
0.0
  0
LINE
  5
152CD
330
747D
100
AcDbEntity
  8
部品1
100
AcDbLine
 10
8262.07124251213
 20
3889.414348994264
 30
0.0
 11
8394.671242512123
 21
3884.114348996254
 31
0.0
  0
ARC
  5
152CE
330
747D
100
AcDbEntity
  8
部品1
100
AcDbCircle
 10
8232.935114219454
 20
3940.384743552849
 30
0.0
 40
9.999999999994312
100
AcDbArc
 50
87.71111557794206
 51
220.5571249050825
  0
LINE
  5
152CF
330
747D
100
AcDbEntity
  8
部品1
100
AcDbLine
 10
8339.31335688179
 20
3946.140807593545
 30
0.0
 11
8233.3344936658
 21
3950.376765173008
 31
0.0
  0
ARC
  5
152D0
330
747D
100
AcDbEntity
  8
部品1
100
AcDbCircle
 10
8338.514597989089
 20
3926.156764353223
 30
0.0
 40
19.99999999999334
100
AcDbArc
 50
40.55712490508248
 51
87.71111557794206
  0
LINE
  5
152D1
330
747D
100
AcDbEntity
  8
部品1
100
AcDbLine
 10
8394.002036690437
 20
3892.079818969487
 30
0.0
 11
8353.709759520747
 21
3939.160881625327
 31
0.0
  0
ARC
  5
152D2
330
747D
100
AcDbEntity
  8
部品1
100
AcDbCircle
 10
8391.722762460686
 20
3890.129201378677
 30
0.0
 40
2.999999999998155
100
AcDbArc
 50
359.9999999998176
 51
40.55712490492563
  0
LINE
  5
152D3
330
747D
100
AcDbEntity
  8
部品1
100
AcDbLine
 10
8225.337533453624
 20
3933.882684916803
 30
0.0
 11
8261.39209975251
 21
3891.753338695012
 31
0.0
  0
LINE
  5
152D4
330
747D
100
AcDbEntity
  8
部品1
100
AcDbLine
 10
8394.722762460686
 20
3884.112289752458
 30
0.0
 11
8394.722762460682
 21
3890.129201378668
 31
0.0
  0
LINE
  5
152D5
330
747D
100
AcDbEntity
  8
部品1
100
AcDbLine
 10
8394.722762460686
 20
3884.112289752458
 30
0.0
 11
8394.671242512123
 21
3884.114348996254
 31
0.0
  0
SPLINE
  5
152D6
330
747D
100
AcDbEntity
  8
部品1
100
AcDbSpline
210
0.0
220
0.0
230
1.0
 70
     8
 71
     3
 72
    11
 73
     7
 74
     0
 42
0.000000001
 43
0.0000000001
 40
0.0
 40
0.0
 40
0.0
 40
0.0
 40
0.0502701813548495
 40
0.0502701813548495
 40
0.0502701813548495
 40
0.0559553392065037
 40
0.0559553392065037
 40
0.0559553392065037
 40
0.0559553392065037
 10
8394.114996322702
 20
3884.036693275759
 30
0.0
 10
8394.113047347637
 20
3884.067144540294
 30
0.0
 10
8394.112163558785
 20
3884.097142119978
 30
0.0
 10
8394.112341995578
 20
3884.126680172433
 30
0.0
 10
8394.112362175361
 20
3884.130020691331
 30
0.0
 10
8394.11239594081
 20
3884.133355332963
 30
0.0
 10
8394.112443263818
 20
3884.136684109488
 30
0.0
  0
ARC
  5
152D7
330
747D
100
AcDbEntity
  8
部品1
100
AcDbCircle
 10
8395.110379762293
 20
3884.132671441053
 30
0.0
 40
1.000000000011771
100
AcDbArc
 50
185.5076218310825
 51
310.5571249035762
  0
LINE
  5
152D8
330
747D
100
AcDbEntity
  8
部品1
100
AcDbLine
 10
8395.868032140763
 20
3883.464866785079
 30
0.0
 11
8395.760585625884
 21
3883.372913364443
 31
0.0
  0
ARC
  5
152D9
330
747D
100
AcDbEntity
  8
部品1
100
AcDbCircle
 10
8554.340160597226
 20
3698.431828606207
 30
0.0
 40
3.000000000001078
100
AcDbArc
 50
134.0144086829562
 51
179.9999999999739
  0
LINE
  5
152DA
330
747D
100
AcDbEntity
  8
部品1
100
AcDbLine
 10
8536.04016056037
 20
3566.354674121941
 30
0.0
 11
8261.517712761465
 21
3887.130998349559
 31
0.0
  0
LINE
  5
152DB
330
747D
100
AcDbEntity
  8
部品1
100
AcDbLine
 10
8397.623073297669
 20
3884.966842330007
 30
0.0
 11
8395.868032140763
 21
3883.464866785079
 31
0.0
  0
LINE
  5
152DC
330
747D
100
AcDbEntity
  8
部品1
100
AcDbLine
 10
8397.623073297669
 20
3884.966842330007
 30
0.0
 11
8554.140533064815
 21
3702.077989982572
 31
0.0
  0
ARC
  5
152DD
330
747D
100
AcDbEntity
  8
細線
100
AcDbCircle
 10
8328.252082781494
 20
3863.750746864065
 30
0.0
 40
2.999999999999984
100
AcDbArc
 50
40.55712490508248
 51
87.7111155787762
  0
ARC
  5
152DE
330
747D
100
AcDbEntity
  8
細線
100
AcDbCircle
 10
8370.499684861695
 20
3862.062117218966
 30
0.0
 40
3.000000000000087
100
AcDbArc
 50
87.7111155787762
 51
220.5571249050825
  0
LINE
  5
152DF
330
747D
100
AcDbEntity
  8
細線
100
AcDbLine
 10
8534.419434753257
 20
3627.460489596339
 30
0.0
 11
8330.531357011242
 21
3865.70136445488
 31
0.0
  0
LINE
  5
152E0
330
747D
100
AcDbEntity
  8
細線
100
AcDbLine
 10
8378.796453936883
 20
3864.732892160804
 30
0.0
 11
8370.619498695557
 21
3865.059723705017
 31
0.0
  0
ARC
  5
152E1
330
747D
100
AcDbEntity
  8
細線
100
AcDbCircle
 10
8320.075127540164
 20
3864.077578408277
 30
0.0
 40
3.000000000000184
100
AcDbArc
 50
87.7111155787762
 51
220.5571249050825
  0
ARC
  5
152E2
330
747D
100
AcDbEntity
  8
細線
100
AcDbCircle
 10
8378.676640103023
 20
3861.735285674753
 30
0.0
 40
3.000000000000184
100
AcDbArc
 50
40.55712490508248
 51
87.7111155787762
  0
LINE
  5
152E3
330
747D
100
AcDbEntity
  8
細線
100
AcDbLine
 10
8317.795853310414
 20
3862.126960817461
 30
0.0
 11
8529.860886293759
 21
3614.33140776514
 31
0.0
  0
ARC
  5
152E4
330
747D
100
AcDbEntity
  8
細線
100
AcDbCircle
 10
8532.140160523507
 20
3625.509872005523
 30
0.0
 40
3.000000000000113
100
AcDbArc
 50
0.0
 51
40.55712490508248
  0
LINE
  5
152E5
330
747D
100
AcDbEntity
  8
細線
100
AcDbLine
 10
8534.419434753257
 20
3684.365543935341
 30
0.0
 11
8380.955914332773
 21
3863.68590326557
 31
0.0
  0
LINE
  5
152E6
330
747D
100
AcDbEntity
  8
細線
100
AcDbLine
 10
8535.140160523509
 20
3616.282025355955
 30
0.0
 11
8535.140160523509
 21
3625.509872005523
 31
0.0
  0
LINE
  5
152E7
330
747D
100
AcDbEntity
  8
細線
100
AcDbLine
 10
8368.220410631945
 20
3860.11149962815
 30
0.0
 11
8529.860886293759
 21
3671.23646210414
 31
0.0
  0
ARC
  5
152E8
330
747D
100
AcDbEntity
  8
細線
100
AcDbCircle
 10
8532.140160523507
 20
3673.187079694957
 30
0.0
 40
3.000000000000076
100
AcDbArc
 50
220.5571249050825
 51
0.0
  0
ARC
  5
152E9
330
747D
100
AcDbEntity
  8
細線
100
AcDbCircle
 10
8532.140160523507
 20
3682.414926344524
 30
0.0
 40
2.999999999999971
100
AcDbArc
 50
0.0
 51
40.55712490508248
  0
LINE
  5
152EA
330
747D
100
AcDbEntity
  8
細線
100
AcDbLine
 10
8328.371896615355
 20
3866.748353350116
 30
0.0
 11
8320.194941374026
 21
3867.075184894328
 31
0.0
  0
ARC
  5
152EB
330
747D
100
AcDbEntity
  8
細線
100
AcDbCircle
 10
8532.140160523507
 20
3616.282025355955
 30
0.0
 40
3.000000000000113
100
AcDbArc
 50
220.5571249050825
 51
0.0
  0
LINE
  5
152EC
330
747D
100
AcDbEntity
  8
細線
100
AcDbLine
 10
8535.140160523509
 20
3673.187079694957
 30
0.0
 11
8535.140160523509
 21
3682.414926344524
 31
0.0
  0
LINE
  5
152ED
330
747D
100
AcDbEntity
  8
部品1
100
AcDbLine
 10
8261.517712761465
 20
3887.130998349559
 30
0.0
 11
8261.4971677263
 21
3887.155004986953
 31
0.0
  0
LINE
  5
152EE
330
747D
100
AcDbEntity
  8
部品1
100
AcDbLine
 10
8260.800679335339
 20
3887.968843664668
 30
0.0
 11
8262.471062390639
 21
3889.398368260059
 31
0.0
  0
LINE
  5
152EF
330
747D
100
AcDbEntity
  8
部品1
100
AcDbLine
 10
8261.4971677263
 20
3887.155004986953
 30
0.0
 11
8260.800679335339
 21
3887.968843664668
 31
0.0
  0
LINE
  5
152F0
330
747D
100
AcDbEntity
  8
部品1
100
AcDbLine
 10
8552.630679336648
 20
3546.968843663437
 30
0.0
 11
8554.340160422833
 21
3548.431828605907
 31
0.0
  0
LINE
  5
152F1
330
747D
100
AcDbEntity
  8
部品1
100
AcDbLine
 10
8552.630679336648
 20
3546.968843663437
 30
0.0
 11
8551.378647384009
 21
3548.431828606208
 31
0.0
  0
LINE
  5
152F2
330
747D
100
AcDbEntity
  8
部品1
100
AcDbLine
 10
8648.240160523506
 20
3698.431828606209
 30
0.0
 11
8645.930160523509
 21
3698.431828606209
 31
0.0
  0
ARC
  5
152F3
330
747D
100
AcDbEntity
  8
部品1
100
AcDbCircle
 10
8852.853462626143
 20
3905.12074743104
 30
0.0
 40
19.99999999999973
100
AcDbArc
 50
87.71111557804619
 51
139.4428750949175
  0
LINE
  5
152F4
330
747D
100
AcDbEntity
  8
部品1
100
AcDbLine
 10
8853.652221518794
 20
3925.104790671372
 30
0.0
 11
8945.589646008397
 21
3921.43006706837
 31
0.0
  0
ARC
  5
152F5
330
747D
100
AcDbEntity
  8
部品1
100
AcDbCircle
 10
8945.19026656207
 20
3911.438045448213
 30
0.0
 40
9.999999999995324
100
AcDbArc
 50
317.4108945522051
 51
87.71111557804619
  0
LINE
  5
152F6
330
747D
100
AcDbEntity
  8
部品1
100
AcDbLine
 10
8952.55252435146
 20
3904.670685531491
 30
0.0
 11
8916.639472380859
 21
3865.600627212559
 31
0.0
  0
LINE
  5
152F7
330
747D
100
AcDbEntity
  8
部品1
100
AcDbLine
 10
8837.658301094482
 20
3918.124864703148
 30
0.0
 11
8794.932453841862
 21
3868.200203382755
 31
0.0
  0
SPLINE
  5
152F8
330
747D
100
AcDbEntity
  8
部品1
100
AcDbSpline
210
0.0
220
0.0
230
1.0
 70
     8
 71
     3
 72
     8
 73
     4
 74
     0
 42
0.000000001
 43
0.0000000001
 40
0.0
 40
0.0
 40
0.0
 40
0.0
 40
0.1419610605075158
 40
0.1419610605075158
 40
0.1419610605075158
 40
0.1419610605075158
 10
8916.639472380859
 20
3865.600627212559
 30
0.0
 10
8916.615147143081
 20
3865.514143322352
 30
0.0
 10
8916.590824855108
 20
3865.427678881341
 30
0.0
 10
8916.566526585523
 20
3865.341778821501
 30
0.0
  0
LINE
  5
152F9
330
747D
100
AcDbEntity
  8
部品1
100
AcDbLine
 10
8795.948442987763
 20
3868.159203394578
 30
0.0
 11
8916.127022497203
 21
3863.309426840477
 31
0.0
  0
LINE
  5
152FA
330
747D
100
AcDbEntity
  8
部品1
100
AcDbLine
 10
8916.566573393238
 20
3865.34293872738
 30
0.0
 11
8916.483930302581
 21
3863.295023915151
 31
0.0
  0
LINE
  5
152FB
330
747D
100
AcDbEntity
  8
部品1
100
AcDbLine
 10
8916.483930302581
 20
3863.295023915151
 30
0.0
 11
8916.127022497203
 21
3863.309426840477
 31
0.0
  0
LINE
  5
152FC
330
747D
100
AcDbEntity
  8
部品1
100
AcDbLine
 10
8792.50100822402
 20
3870.600195783163
 30
0.0
 11
8792.408267782048
 21
3868.302066280628
 31
0.0
  0
LINE
  5
152FD
330
747D
100
AcDbEntity
  8
部品1
100
AcDbLine
 10
8795.948442987763
 20
3868.159203394578
 30
0.0
 11
8792.408267782048
 21
3868.302066280628
 31
0.0
  0
LINE
  5
152FE
330
747D
100
AcDbEntity
  8
部品1
100
AcDbLine
 10
8796.836647799787
 20
3870.425232131175
 30
0.0
 11
8792.50100822402
 21
3870.600195783163
 31
0.0
  0
ARC
  5
152FF
330
747D
100
AcDbEntity
  8
部品1
100
AcDbCircle
 10
8646.740160523503
 20
3698.431828606209
 30
0.0
 40
3.000000000000086
100
AcDbArc
 50
359.999999999974
 51
47.39739526192904
  0
ARC
  5
15300
330
747D
100
AcDbEntity
  8
部品1
100
AcDbCircle
 10
8792.670160519486
 20
3868.631828606453
 30
0.0
 40
1.800000000007715
100
AcDbArc
 50
229.4580329478139
 51
346.7993931776425
  0
ARC
  5
15301
330
747D
100
AcDbEntity
  8
部品1
100
AcDbCircle
 10
8916.570160522118
 20
3863.631828606879
 30
0.0
 40
1.800000000000023
100
AcDbArc
 50
188.9016199670776
 51
227.5933020675288
  0
LINE
  5
15302
330
747D
100
AcDbEntity
  8
部品1
100
AcDbLine
 10
8917.291741573833
 20
3861.011550098817
 30
0.0
 11
8665.040160560369
 21
3566.351818361951
 31
0.0
  0
LINE
  5
15303
330
747D
100
AcDbEntity
  8
部品1
100
AcDbLine
 10
8646.924690462634
 20
3702.035520726453
 30
0.0
 11
8789.695456475566
 21
3868.808689973669
 31
0.0
  0
ARC
  5
15304
330
747D
100
AcDbEntity
  8
細線
100
AcDbCircle
 10
8864.887555246038
 20
3845.159203394578
 30
0.0
 40
3.000000000000113
100
AcDbArc
 50
319.4339102891691
 51
90.0
  0
LINE
  5
15305
330
747D
100
AcDbEntity
  8
細線
100
AcDbLine
 10
8673.52912952124
 20
3617.016811275507
 30
0.0
 11
8867.166524243774
 21
3843.208229200139
 31
0.0
  0
ARC
  5
15306
330
747D
100
AcDbEntity
  8
細線
100
AcDbCircle
 10
8860.211397136088
 20
3838.159203394578
 30
0.0
 40
10.0
100
AcDbArc
 50
90.0
 51
139.4339102891691
  0
LINE
  5
15307
330
747D
100
AcDbEntity
  8
細線
100
AcDbLine
 10
8852.614833810308
 20
3844.662450709376
 30
0.0
 11
8668.97119152578
 21
3630.144919626574
 31
0.0
  0
ARC
  5
15308
330
747D
100
AcDbEntity
  8
細線
100
AcDbCircle
 10
8816.181320053555
 20
3845.159203394578
 30
0.0
 40
3.000000000000113
100
AcDbArc
 50
319.4339102891691
 51
90.0
  0
LINE
  5
15309
330
747D
100
AcDbEntity
  8
細線
100
AcDbLine
 10
8673.52912952124
 20
3673.911464375673
 30
0.0
 11
8818.460289051291
 21
3843.208229200139
 31
0.0
  0
LINE
  5
1530A
330
747D
100
AcDbEntity
  8
細線
100
AcDbLine
 10
8668.250160523509
 20
3628.193945432135
 30
0.0
 11
8668.250160523509
 21
3618.967785469946
 31
0.0
  0
ARC
  5
1530B
330
747D
100
AcDbEntity
  8
細線
100
AcDbCircle
 10
8671.250160523511
 20
3675.862438570113
 30
0.0
 40
2.999999999999971
100
AcDbArc
 50
179.9999999999739
 51
319.4339102891691
  0
LINE
  5
1530C
330
747D
100
AcDbEntity
  8
細線
100
AcDbLine
 10
8816.181320053555
 20
3848.159203394578
 30
0.0
 11
8811.505161943609
 21
3848.159203394578
 31
0.0
  0
ARC
  5
1530D
330
747D
100
AcDbEntity
  8
細線
100
AcDbCircle
 10
8811.505161943609
 20
3838.159203394578
 30
0.0
 40
10.0
100
AcDbArc
 50
90.0
 51
139.4339102891691
  0
LINE
  5
1530E
330
747D
100
AcDbEntity
  8
細線
100
AcDbLine
 10
8668.250160523509
 20
3685.088598532301
 30
0.0
 11
8668.250160523509
 21
3675.862438570113
 31
0.0
  0
LINE
  5
1530F
330
747D
100
AcDbEntity
  8
細線
100
AcDbLine
 10
8803.908598617828
 20
3844.662450709376
 30
0.0
 11
8668.97119152578
 21
3687.039572726741
 31
0.0
  0
ARC
  5
15310
330
747D
100
AcDbEntity
  8
細線
100
AcDbCircle
 10
8671.250160523511
 20
3685.088598532301
 30
0.0
 40
2.99999999999998
100
AcDbArc
 50
139.4339102891691
 51
180.0
  0
ARC
  5
15311
330
747D
100
AcDbEntity
  8
細線
100
AcDbCircle
 10
8671.250160523511
 20
3628.193945432135
 30
0.0
 40
2.99999999999998
100
AcDbArc
 50
139.4339102891691
 51
180.0
  0
ARC
  5
15312
330
747D
100
AcDbEntity
  8
細線
100
AcDbCircle
 10
8671.250160523511
 20
3618.967785469946
 30
0.0
 40
2.999999999999971
100
AcDbArc
 50
179.9999999999739
 51
319.4339102891691
  0
LINE
  5
15313
330
747D
100
AcDbEntity
  8
細線
100
AcDbLine
 10
8864.887555246038
 20
3848.159203394578
 30
0.0
 11
8860.211397136088
 21
3848.159203394578
 31
0.0
  0
LINE
  5
15314
330
747D
100
AcDbEntity
  8
部品1
100
AcDbLine
 10
8648.968344753965
 20
3547.578033416728
 30
0.0
 11
8649.699259647354
 21
3548.431828606208
 31
0.0
  0
LINE
  5
15315
330
747D
100
AcDbEntity
  8
部品1
100
AcDbLine
 10
8647.97101082059
 20
3548.431828606212
 30
0.0
 11
8648.968344753965
 21
3547.578033416728
 31
0.0
  0
LINE
  5
15316
330
747D
100
AcDbEntity
  8
部品1
100
AcDbLine
 10
8916.534021115088
 20
3863.663137485422
 30
0.0
 11
8918.281230680015
 21
3862.167390603018
 31
0.0
  0
LINE
  5
15317
330
747D
100
AcDbEntity
  8
部品1
100
AcDbLine
 10
8917.291741573833
 20
3861.011550098817
 30
0.0
 11
8918.281230680015
 21
3862.167390603018
 31
0.0
  0
LINE
  5
15318
330
747D
100
AcDbEntity
  8
部品1
100
AcDbLine
 10
8915.364639550146
 20
3862.297161276909
 30
0.0
 11
8916.227737975955
 21
3863.305362492491
 31
0.0
  0
LINE
  5
15319
330
747D
100
AcDbEntity
  8
部品1
100
AcDbLine
 10
8916.497042283848
 20
3863.619941829525
 30
0.0
 11
8916.534021115088
 21
3863.663137485422
 31
0.0
  0
LINE
  5
1531A
330
747D
100
AcDbEntity
  8
部品1
100
AcDbLine
 10
8916.535450971412
 20
3863.664807727006
 30
0.0
 11
8918.282660536339
 21
3862.169060844602
 31
0.0
  0
LINE
  5
1531B
330
747D
100
AcDbEntity
  8
部品1
100
AcDbLine
 10
8918.281230680015
 20
3862.167390603018
 30
0.0
 11
8918.282660536339
 21
3862.169060844602
 31
0.0
  0
LINE
  5
1531C
330
747D
100
AcDbEntity
  8
部品1
100
AcDbLine
 10
8916.534021115088
 20
3863.663137485422
 30
0.0
 11
8916.535450971412
 21
3863.664807727006
 31
0.0
  0
LINE
  5
1531D
330
747D
100
AcDbEntity
  8
部品1
 48
2.0
100
AcDbLine
 10
8550.54016056037
 20
3548.431828606208
 30
0.0
 11
8536.04016056037
 21
3564.931828606209
 31
0.0
  0
LINE
  5
1531E
330
747D
100
AcDbEntity
  8
部品1
 48
2.0
100
AcDbLine
 10
8650.540160560369
 20
3548.431828606208
 30
0.0
 11
8665.040160560369
 21
3564.931828606209
 31
0.0
  0
LINE
  5
1531F
330
747D
100
AcDbEntity
  8
部品1
 48
2.0
100
AcDbLine
 10
8650.540160560369
 20
3698.431828606209
 30
0.0
 11
8650.540160560369
 21
3548.431828606208
 31
0.0
  0
LINE
  5
15320
330
747D
100
AcDbEntity
  8
部品1
 48
2.0
100
AcDbLine
 10
8550.54016056037
 20
3548.431828606208
 30
0.0
 11
8550.54016056037
 21
3698.431828606209
 31
0.0
  0
LINE
  5
15321
330
747D
100
AcDbEntity
  8
部品1
 48
2.0
100
AcDbLine
 10
8550.54016056037
 20
3548.431828606208
 30
0.0
 11
8650.540160560369
 21
3548.431828606208
 31
0.0
  0
LINE
  5
15322
330
747D
100
AcDbEntity
  8
部品1
 48
2.0
100
AcDbLine
 10
8540.040160560369
 20
3698.431828606209
 30
0.0
 11
8661.04016056037
 21
3698.431828606209
 31
0.0
  0
LINE
  5
15323
330
747D
100
AcDbEntity
  8
部品1
 48
2.0
100
AcDbLine
 10
8536.04016056037
 20
3564.931828606209
 30
0.0
 11
8536.04016056037
 21
3694.431828606208
 31
0.0
  0
LINE
  5
15324
330
747D
100
AcDbEntity
  8
部品1
 48
2.0
100
AcDbLine
 10
8665.040160560369
 20
3694.431828606208
 30
0.0
 11
8665.040160560369
 21
3564.931828606209
 31
0.0
  0
ARC
  5
15325
330
747D
100
AcDbEntity
  8
部品1
 48
2.0
100
AcDbCircle
 10
8661.04016056037
 20
3694.431828606208
 30
0.0
 40
4.0
100
AcDbArc
 50
0.0
 51
90.0
  0
ARC
  5
15326
330
747D
100
AcDbEntity
  8
部品1
 48
2.0
100
AcDbCircle
 10
8540.040160560369
 20
3694.431828606208
 30
0.0
 40
4.0
100
AcDbArc
 50
90.0
 51
180.0
  0
CIRCLE
  5
15327
330
747D
100
AcDbEntity
  8
細線
 48
50.0
100
AcDbCircle
 10
8288.040160597224
 20
3920.931828605907
 30
0.0
 40
9.0
  0
LWPOLYLINE
  5
15328
330
747D
100
AcDbEntity
  8
細線
 48
50.0
100
AcDbPolyline
 90
        6
 70
     1
 43
0.0
 10
8281.540160597225
 20
3917.179051856177
 10
8288.040160597224
 20
3913.426275106445
 10
8294.540160597227
 20
3917.179051856177
 10
8294.540160597227
 20
3924.684605355641
 10
8288.040160597224
 20
3928.437382105374
 10
8281.540160597225
 20
3924.684605355641
  0
CIRCLE
  5
15329
330
747D
100
AcDbEntity
  8
細線
 48
50.0
100
AcDbCircle
 10
8348.040160597227
 20
3918.531828605907
 30
0.0
 40
9.0
  0
LWPOLYLINE
  5
1532A
330
747D
100
AcDbEntity
  8
細線
 48
50.0
100
AcDbPolyline
 90
        6
 70
     1
 43
0.0
 10
8341.540160597226
 20
3914.779051856177
 10
8348.040160597227
 20
3911.026275106444
 10
8354.540160597226
 20
3914.779051856177
 10
8354.540160597226
 20
3922.28460535564
 10
8348.040160597227
 20
3926.037382105373
 10
8341.540160597226
 20
3922.28460535564
  0
CIRCLE
  5
1532B
330
747D
100
AcDbEntity
  8
細線
 48
50.0
100
AcDbCircle
 10
8853.04016052351
 20
3898.331828606212
 30
0.0
 40
9.0
  0
LWPOLYLINE
  5
1532C
330
747D
100
AcDbEntity
  8
細線
 48
50.0
100
AcDbPolyline
 90
        6
 70
     1
 43
0.0
 10
8846.54016052351
 20
3894.579051856482
 10
8853.04016052351
 20
3890.826275106749
 10
8859.54016052351
 20
3894.579051856482
 10
8859.54016052351
 20
3902.084605355945
 10
8853.04016052351
 20
3905.837382105678
 10
8846.54016052351
 20
3902.084605355945
  0
CIRCLE
  5
1532D
330
747D
100
AcDbEntity
  8
細線
 48
50.0
100
AcDbCircle
 10
8913.040160523509
 20
3895.931828606212
 30
0.0
 40
9.0
  0
LWPOLYLINE
  5
1532E
330
747D
100
AcDbEntity
  8
細線
 48
50.0
100
AcDbPolyline
 90
        6
 70
     1
 43
0.0
 10
8906.54016052351
 20
3892.179051856481
 10
8913.040160523509
 20
3888.426275106749
 10
8919.540160523508
 20
3892.179051856481
 10
8919.540160523508
 20
3899.684605355946
 10
8913.040160523509
 20
3903.437382105678
 10
8906.54016052351
 20
3899.684605355946
  0
CIRCLE
  5
1532F
330
747D
100
AcDbEntity
  8
細線
 48
50.0
100
AcDbCircle
 10
8600.540160560369
 20
3680.431828606208
 30
0.0
 40
9.0
  0
LWPOLYLINE
  5
15330
330
747D
100
AcDbEntity
  8
細線
 48
50.0
100
AcDbPolyline
 90
        6
 70
     1
 43
0.0
 10
8594.04016056037
 20
3676.679051856478
 10
8600.540160560369
 20
3672.926275106745
 10
8607.040160560369
 20
3676.679051856478
 10
8607.040160560369
 20
3684.184605355942
 10
8600.540160560369
 20
3687.937382105675
 10
8594.04016056037
 20
3684.184605355942
  0
CIRCLE
  5
15331
330
747D
100
AcDbEntity
  8
細線
 48
50.0
100
AcDbCircle
 10
8600.540160560369
 20
3623.431828606209
 30
0.0
 40
9.0
  0
LWPOLYLINE
  5
15332
330
747D
100
AcDbEntity
  8
細線
 48
50.0
100
AcDbPolyline
 90
        6
 70
     1
 43
0.0
 10
8594.04016056037
 20
3619.679051856478
 10
8600.540160560369
 20
3615.926275106745
 10
8607.040160560369
 20
3619.679051856478
 10
8607.040160560369
 20
3627.184605355942
 10
8600.540160560369
 20
3630.937382105674
 10
8594.04016056037
 20
3627.184605355942
  0
CIRCLE
  5
15333
330
747D
100
AcDbEntity
  8
細線
 48
50.0
100
AcDbCircle
 10
8600.540160560369
 20
3566.431828606209
 30
0.0
 40
9.0
  0
LWPOLYLINE
  5
15334
330
747D
100
AcDbEntity
  8
細線
 48
50.0
100
AcDbPolyline
 90
        6
 70
     1
 43
0.0
 10
8594.04016056037
 20
3562.679051856477
 10
8600.540160560369
 20
3558.926275106745
 10
8607.040160560369
 20
3562.679051856477
 10
8607.040160560369
 20
3570.184605355942
 10
8600.540160560369
 20
3573.937382105675
 10
8594.04016056037
 20
3570.184605355942
  0
LINE
  5
15335
330
747D
100
AcDbEntity
  8
部品1
 48
50.0
100
AcDbLine
 10
8261.39209975251
 20
3891.753338695012
 30
0.0
 11
8262.067585686786
 21
3889.519107301178
 31
0.0
  0
LINE
  5
15336
330
747D
100
AcDbEntity
  8
部品1
 48
50.0
100
AcDbLine
 10
8262.067585686786
 20
3889.519107301178
 30
0.0
 11
8262.07124251213
 21
3889.414348994264
 31
0.0
  0
LINE
  5
15337
330
747D
100
AcDbEntity
  8
部品1
 48
50.0
100
AcDbLine
 10
8264.00715817664
 20
3889.336970766374
 30
0.0
 11
8261.517712761465
 21
3887.130998349559
 31
0.0
  0
LINE
  5
15338
330
747D
100
AcDbEntity
  8
部品1
 48
50.0
100
AcDbLine
 10
8789.695456475566
 20
3868.808689973669
 30
0.0
 11
8791.500151801216
 21
3867.263954489732
 31
0.0
  0
LINE
  5
15339
330
747D
100
AcDbEntity
  8
部品1
 48
50.0
100
AcDbLine
 10
8917.291741573833
 20
3861.011550098817
 30
0.0
 11
8915.356260845692
 21
3862.302750890727
 31
0.0
  0
LINE
  5
1533A
330
747D
100
AcDbEntity
  8
部品1
 48
50.0
100
AcDbLine
 10
8646.924690462634
 20
3702.035520726453
 30
0.0
 11
8648.770888822145
 21
3700.640027550393
 31
0.0
  0
LINE
  5
1533B
330
747D
100
AcDbEntity
  8
部品1
 48
50.0
100
AcDbLine
 10
8552.25564285528
 20
3700.5893238631
 30
0.0
 11
8554.140533064815
 21
3702.077989982572
 31
0.0
  0
LWPOLYLINE
  5
1552B
330
747D
100
AcDbEntity
  8
部品1
100
AcDbPolyline
 90
        4
 70
     1
 43
0.0
 10
3769.346958475342
 20
1334.53475545235
 10
4416.378333755867
 20
1334.53475545235
 10
4416.378333755867
 20
1142.01459963521
 10
3769.346958475342
 20
1142.01459963521
  0
TEXT
  5
1552C
330
747D
100
AcDbEntity
  8
仕様書枠
 62
     7
 48
50.0
100
AcDbText
 10
3800.762035236871
 20
1180.670031102169
 30
0.0
 40
112.0
  1
正 面 図
  7
STYLE2
100
AcDbText
  0
DIMENSION
  5
1552D
330
747D
100
AcDbEntity
  8
寸法
 48
50.0
100
AcDbDimension
  2
*D25
 10
5507.862646115605
 20
1514.610538984619
 30
0.0
 11
4092.862646115604
 21
1514.610538984619
 31
0.0
 70
   160
 71
     5
 42
2830.000000000003
  3
INABA_S30G
100
AcDbAlignedDimension
 13
2677.862646115603
 23
1710.562576328024
 33
0.0
 14
5507.862646115605
 24
1710.562576328023
 34
0.0
100
AcDbRotatedDimension
  0
TEXT
  5
15571
330
747D
100
AcDbEntity
  8
部品1
 48
50.0
100
AcDbText
 10
4735.741823387878
 20
5551.272883609474
 30
0.0
 40
120.0
  1
⑥
  7
STYLE2
100
AcDbText
  0
LINE
  5
15572
330
747D
100
AcDbEntity
  8
寸法
 48
50.0
100
AcDbLine
 10
3158.166466026104
 20
5638.760355090848
 30
0.0
 11
3285.324876933803
 21
5972.529457111853
 31
0.0
  0
TEXT
  5
15573
330
747D
100
AcDbEntity
  8
部品1
 48
50.0
100
AcDbText
 10
3033.11041272081
 20
5499.847259321303
 30
0.0
 40
120.0
  1
⑦
  7
STYLE2
100
AcDbText
  0
LINE
  5
15574
330
747D
100
AcDbEntity
  8
寸法
 48
50.0
100
AcDbLine
 10
4793.856684302773
 20
5688.400172114353
 30
0.0
 11
4662.968539564324
 21
6081.748608073929
 31
0.0
  0
TEXT
  5
15575
330
747D
100
AcDbEntity
  8
部品1
 48
50.0
100
AcDbText
 10
2057.377430502537
 20
7375.036835556169
 30
0.0
 40
120.0
  1
③
  7
STYLE2
100
AcDbText
  0
LINE
  5
15576
330
747D
100
AcDbEntity
  8
寸法
 48
50.0
100
AcDbLine
 10
2214.380130284223
 20
7395.640877233578
 30
0.0
 11
2678.512622590504
 21
7140.723527947161
 31
0.0
  0
TEXT
  5
15577
330
747D
100
AcDbEntity
  8
部品1
 48
50.0
100
AcDbText
 10
2046.008924634679
 20
6644.274144580261
 30
0.0
 40
120.0
  1
④
  7
STYLE2
100
AcDbText
  0
LINE
  5
15578
330
747D
100
AcDbEntity
  8
寸法
 48
50.0
100
AcDbLine
 10
2211.839537665939
 20
6723.208236041429
 30
0.0
 11
2582.371909807389
 21
6909.372979141969
 31
0.0
  0
LINE
  5
155B4
330
747D
100
AcDbEntity
  8
部品1
 48
50.0
100
AcDbLine
 10
5747.862646115606
 20
1880.562576328022
 30
0.0
 11
5757.862646115606
 21
1870.562576328022
 31
0.0
  0
LINE
  5
155B5
330
747D
100
AcDbEntity
  8
部品1
 48
50.0
100
AcDbLine
 10
2427.862646115603
 20
1870.562576328023
 30
0.0
 11
2437.862646115603
 21
1880.562576328023
 31
0.0
  0
TEXT
  5
155D0
330
747D
100
AcDbEntity
  8
部品1
 48
50.0
100
AcDbText
 10
1754.141647099733
 20
1841.914348049038
 30
0.0
 40
100.0
  1
▽G.L
  7
STYLE2
100
AcDbText
  0
ENDSEC
  0
SECTION
  2
OBJECTS
  0
DICTIONARY
  5
7471
330
0
100
AcDbDictionary
281
     1
  3
ACAD_CIP_PREVIOUS_PRODUCT_INFO
350
1499C
  3
ACAD_COLOR
350
14780
  3
ACAD_DETAILVIEWSTYLE
350
14992
  3
ACAD_GROUP
350
7472
  3
ACAD_LAYOUT
350
14781
  3
ACAD_MATERIAL
350
1477F
  3
ACAD_MLEADERSTYLE
350
1498E
  3
ACAD_MLINESTYLE
350
7473
  3
ACAD_PLOTSETTINGS
350
14782
  3
ACAD_PLOTSTYLENAME
350
1477D
  3
ACAD_SCALELIST
350
1497C
  3
ACAD_SECTIONVIEWSTYLE
350
14990
  3
ACAD_TABLESTYLE
350
1497A
  3
ACAD_VISUALSTYLE
350
14961
  3
ACDB_RECOMPOSE_DATA
350
15605
  3
AcDbVariableDictionary
350
149F0
  3
AcDsDecomposeData
350
1560C
  3
CONTENTDICTIONARY
350
E71C
  3
DRAWINGVARIABLESDICT
350
F3B9
  3
DWGPROPS
350
15606
  0
DICTIONARY
  5
1478D
330
7467
100
AcDbDictionary
280
     1
281
     1
  3
ACAD_LAYERFILTERS
360
14844
  3
ACAD_LAYERSTATES
360
1478E
  0
DICTIONARY
  5
149D0
330
7474
100
AcDbDictionary
280
     1
281
     1
  3
ADSK_XREC_LAYER_RECONCILED
360
149D1
  0
DICTIONARY
  5
149D2
330
DEB2
100
AcDbDictionary
280
     1
281
     1
  3
ADSK_XREC_LAYER_RECONCILED
360
149D3
  0
DICTIONARY
  5
149D4
330
DEB3
100
AcDbDictionary
280
     1
281
     1
  3
ADSK_XREC_LAYER_RECONCILED
360
149D5
  0
DICTIONARY
  5
149D6
330
DEB4
100
AcDbDictionary
280
     1
281
     1
  3
ADSK_XREC_LAYER_RECONCILED
360
149D7
  0
DICTIONARY
  5
149D8
330
DEB5
100
AcDbDictionary
280
     1
281
     1
  3
ADSK_XREC_LAYER_RECONCILED
360
149D9
  0
DICTIONARY
  5
149DA
330
DEB6
100
AcDbDictionary
280
     1
281
     1
  3
ADSK_XREC_LAYER_RECONCILED
360
149DB
  0
DICTIONARY
  5
149DC
330
10B54
100
AcDbDictionary
280
     1
281
     1
  3
ADSK_XREC_LAYER_RECONCILED
360
149DD
  0
DICTIONARY
  5
149DE
330
11729
100
AcDbDictionary
280
     1
281
     1
  3
ADSK_XREC_LAYER_RECONCILED
360
149DF
  0
DICTIONARY
  5
149E0
330
1173F
100
AcDbDictionary
280
     1
281
     1
  3
ADSK_XREC_LAYER_RECONCILED
360
149E1
  0
DICTIONARY
  5
149E2
330
11740
100
AcDbDictionary
280
     1
281
     1
  3
ADSK_XREC_LAYER_RECONCILED
360
149E3
  0
DICTIONARY
  5
149AB
330
747D
100
AcDbDictionary
280
     1
281
     1
  3
ACAD_SORTENTS
360
149AC
  0
DICTIONARY
  5
15512
330
1541A
100
AcDbDictionary
280
     1
281
     1
  3
ACAD_SORTENTS
360
15513
  0
DICTIONARY
  5
1555F
330
15556
100
AcDbDictionary
280
     1
281
     1
  3
ACAD_SORTENTS
360
15560
  0
DICTIONARY
  5
1556C
330
15563
100
AcDbDictionary
280
     1
281
     1
  3
ACAD_SORTENTS
360
1556D
  0
XRECORD
  5
1499C
102
{ACAD_REACTORS
330
7471
102
}
330
7471
100
AcDbXrecord
280
     1
300
ACDLT
300
2014
300
ACDLT_F_S
  0
DICTIONARY
  5
14780
102
{ACAD_REACTORS
330
7471
102
}
330
7471
100
AcDbDictionary
281
     1
  0
DICTIONARY
  5
14992
102
{ACAD_REACTORS
330
7471
102
}
330
7471
100
AcDbDictionary
281
     1
  3
Metric50
350
14993
  0
DICTIONARY
  5
7472
102
{ACAD_REACTORS
330
7471
102
}
330
7471
100
AcDbDictionary
281
     1
  0
DICTIONARY
  5
14781
102
{ACAD_REACTORS
330
7471
102
}
330
7471
100
AcDbDictionary
281
     1
  3
Model
350
14783
  3
レイアウト1
350
14784
  0
DICTIONARY
  5
1477F
102
{ACAD_REACTORS
330
7471
102
}
330
7471
100
AcDbDictionary
281
     1
  3
ByBlock
350
14951
  3
ByLayer
350
14949
  3
Global
350
14959
  0
DICTIONARY
  5
1498E
102
{ACAD_REACTORS
330
7471
102
}
330
7471
100
AcDbDictionary
281
     1
  3
Standard
350
1498F
  0
DICTIONARY
  5
7473
102
{ACAD_REACTORS
330
7471
102
}
330
7471
100
AcDbDictionary
281
     1
  3
STANDARD
350
7480
  0
DICTIONARY
  5
14782
102
{ACAD_REACTORS
330
7471
102
}
330
7471
100
AcDbDictionary
281
     1
  0
ACDBDICTIONARYWDFLT
  5
1477D
102
{ACAD_REACTORS
330
7471
102
}
330
7471
100
AcDbDictionary
281
     1
  3
Normal
350
1477E
100
AcDbDictionaryWithDefault
340
1477E
  0
DICTIONARY
  5
1497C
102
{ACAD_REACTORS
330
7471
102
}
330
7471
100
AcDbDictionary
281
     1
  3
A0
350
1497D
  3
A1
350
1497E
  3
A2
350
1497F
  3
A3
350
14980
  3
A4
350
14981
  3
A5
350
14982
  3
A6
350
14983
  3
A7
350
14984
  3
A8
350
14985
  3
A9
350
14986
  3
B0
350
14987
  3
B1
350
14988
  3
B2
350
14989
  3
B3
350
1498A
  3
B4
350
1498B
  3
B5
350
1498C
  3
B6
350
1498D
  0
DICTIONARY
  5
14990
102
{ACAD_REACTORS
330
7471
102
}
330
7471
100
AcDbDictionary
281
     1
  3
Metric50
350
14991
  0
DICTIONARY
  5
1497A
102
{ACAD_REACTORS
330
7471
102
}
330
7471
100
AcDbDictionary
281
     1
  3
Standard
350
1497B
  0
DICTIONARY
  5
14961
102
{ACAD_REACTORS
330
7471
102
}
330
7471
100
AcDbDictionary
281
     1
  3
2dWireframe
350
14967
  3
Basic
350
14966
  3
Brighten
350
1496D
  3
ColorChange
350
14971
  3
Conceptual
350
1496A
  3
Dim
350
1496C
  3
EdgeColorOff
350
14979
  3
Facepattern
350
14970
  3
Flat
350
14962
  3
FlatWithEdges
350
14963
  3
Gouraud
350
14964
  3
GouraudWithEdges
350
14965
  3
Hidden
350
14969
  3
JitterOff
350
14977
  3
Linepattern
350
1496F
  3
OverhangOff
350
14978
  3
Realistic
350
1496B
  3
Shaded
350
14976
  3
Shaded with edges
350
14975
  3
Shades of Gray
350
14972
  3
Sketchy
350
14973
  3
Thicken
350
1496E
  3
Wireframe
350
14968
  3
X-Ray
350
14974
  0
XRECORD
  5
15605
102
{ACAD_REACTORS
330
7471
102
}
330
7471
100
AcDbXrecord
280
     1
 90
        1
330
1497B
  0
DICTIONARY
  5
149F0
102
{ACAD_REACTORS
330
7471
102
}
330
7471
100
AcDbDictionary
281
     1
  3
CANNOSCALE
350
149F6
  3
CMLEADERSTYLE
350
149F2
  3
CTABLESTYLE
350
149F1
  3
CVIEWDETAILSTYLE
350
149F3
  3
CVIEWSECTIONSTYLE
350
149F4
  3
DIMASSOC
350
15602
  3
INDEXCTL
350
15600
  3
LAYEREVAL
350
149F8
  3
LAYERNOTIFY
350
149F9
  3
LIGHTINGUNITS
350
149F7
  3
MSLTSCALE
350
149F5
  3
SORTENTS
350
155FF
  3
XCLIPFRAME
350
15601
  0
DICTIONARY
  5
1560C
102
{ACAD_REACTORS
330
7471
102
}
330
7471
100
AcDbDictionary
281
     1
  3
AcDsRecords
350
1560E
  3
AcDsSchemas
350
1560D
1001
ACAD
1070
     2
  0
DICTIONARY
  5
E71C
102
{ACAD_REACTORS
330
7471
102
}
330
7471
100
AcDbDictionary
281
     1
  0
DICTIONARY
  5
F3B9
102
{ACAD_REACTORS
330
7471
102
}
330
7471
100
AcDbDictionary
281
     1
1001
DRAWINGVARIABLESXDATA
1000
POLARMODE
1000
1
  0
XRECORD
  5
15606
102
{ACAD_REACTORS
330
7471
102
}
330
7471
100
AcDbXrecord
280
     1
  1
DWGPROPS COOKIE
  2

  3

  4

  6

  7

  8
ishizaki
  9

300
=
301
=
302
=
303
=
304
=
305
=
306
=
307
=
308
=
309
=
 40
0.6866180439814816
 41
2451225.538602894
 42
2457326.72345272
  1

 90
        0
  0
DICTIONARY
  5
14844
102
{ACAD_REACTORS
330
1478D
102
}
330
1478D
100
AcDbDictionary
281
     1
  0
DICTIONARY
  5
1478E
102
{ACAD_REACTORS
330
1478D
102
}
330
1478D
100
AcDbDictionary
281
     1
  0
XRECORD
  5
149D1
102
{ACAD_REACTORS
330
149D0
102
}
330
149D0
100
AcDbXrecord
280
     1
290
     1
  0
XRECORD
  5
149D3
102
{ACAD_REACTORS
330
149D2
102
}
330
149D2
100
AcDbXrecord
280
     1
290
     1
  0
XRECORD
  5
149D5
102
{ACAD_REACTORS
330
149D4
102
}
330
149D4
100
AcDbXrecord
280
     1
290
     1
  0
XRECORD
  5
149D7
102
{ACAD_REACTORS
330
149D6
102
}
330
149D6
100
AcDbXrecord
280
     1
290
     1
  0
XRECORD
  5
149D9
102
{ACAD_REACTORS
330
149D8
102
}
330
149D8
100
AcDbXrecord
280
     1
290
     1
  0
XRECORD
  5
149DB
102
{ACAD_REACTORS
330
149DA
102
}
330
149DA
100
AcDbXrecord
280
     1
290
     1
  0
XRECORD
  5
149DD
102
{ACAD_REACTORS
330
149DC
102
}
330
149DC
100
AcDbXrecord
280
     1
290
     1
  0
XRECORD
  5
149DF
102
{ACAD_REACTORS
330
149DE
102
}
330
149DE
100
AcDbXrecord
280
     1
290
     1
  0
XRECORD
  5
149E1
102
{ACAD_REACTORS
330
149E0
102
}
330
149E0
100
AcDbXrecord
280
     1
290
     1
  0
XRECORD
  5
149E3
102
{ACAD_REACTORS
330
149E2
102
}
330
149E2
100
AcDbXrecord
280
     1
290
     1
  0
SORTENTSTABLE
  5
149AC
102
{ACAD_REACTORS
330
149AB
102
}
330
149AB
100
AcDbSortentsTable
330
747D
331
15320
  5
15322
331
148C6
  5
14938
331
15328
  5
1532A
331
1529C
  5
1529E
331
15265
  5
15267
331
152DB
  5
152DD
331
1509E
  5
150A0
331
152E3
  5
152E5
331
1526D
  5
1526F
331
152A4
  5
152A6
331
12F86
  5
12F87
331
132BC
  5
132BE
331
150A6
  5
150A8
331
14ED0
  5
14ED3
331
152EB
  5
152ED
331
13A3B
  5
13A3D
331
152AC
  5
152AE
331
132C4
  5
132C6
331
15275
  5
15277
331
12F8E
  5
12F91
331
13285
  5
13286
331
152B4
  5
152B6
331
15573
  5
15575
331
1552C
  5
15571
331
13A55
  5
13A5D
331
13D7B
  5
13D7D
331
145A9
  5
145AB
331
13A5D
  5
13A5F
331
13D83
  5
13D85
331
15330
  5
15332
331
152F1
  5
152F3
331
13A65
  5
13A67
331
14847
  5
1486B
331
15338
  5
1533A
331
13D93
  5
13D95
331
152F9
  5
152FB
331
15301
  5
15303
331
1486F
  5
14892
331
15309
  5
1530B
331
152BC
  5
152BE
331
1527D
  5
1527F
331
12F4F
  5
12F4F
331
1507F
  5
15081
331
152C4
  5
152C6
331
15285
  5
15287
331
1524E
  5
15250
331
12FB6
  5
12FB7
331
12F57
  5
12F58
331
1329D
  5
132A0
331
15087
  5
15089
331
152CC
  5
152CE
331
1528D
  5
1528F
331
15256
  5
15258
331
12FBE
  5
12FBF
331
132A5
  5
132A7
331
1508F
  5
15091
331
152D4
  5
152D6
331
15295
  5
15297
331
1525E
  5
15260
331
12FC6
  5
12FC7
331
12F77
  5
12F78
331
132AD
  5
132B7
331
15097
  5
15099
331
13D64
  5
13D66
331
13A75
  5
13A77
331
143B2
  5
143B6
331
15311
  5
15313
331
13D74
  5
13D76
331
13A95
  5
13A97
331
147D0
  5
147D4
331
13A9D
  5
13AA1
331
15319
  5
1531B
331
15321
  5
15323
331
15329
  5
1532B
331
1529D
  5
1529F
331
15266
  5
15268
331
152DC
  5
152DE
331
1509F
  5
150A1
331
152E4
  5
152E6
331
13A34
  5
13A36
331
1526E
  5
15270
331
152A5
  5
152A7
331
12F87
  5
12F88
331
132BD
  5
132BF
331
150A7
  5
150D7
331
14ED1
  5
14ED4
331
152EC
  5
152EE
331
13A3C
  5
13A3F
331
152AD
  5
152AF
331
132C5
  5
132C7
331
15276
  5
15278
331
13286
  5
13292
331
152B5
  5
152B7
331
12F97
  5
12F98
331
150D7
  5
15248
331
15574
  5
15576
331
1552D
  5
15572
331
155B4
  5
13299
331
147D8
  5
147DB
331
13A56
  5
13A5E
331
13D7C
  5
13D80
331
145AA
  5
145AC
331
14711
  5
147D2
331
13A5E
  5
13A60
331
13D84
  5
13D86
331
15331
  5
15333
331
152F2
  5
152F4
331
14848
  5
1486C
331
13A66
  5
13A68
331
15339
  5
1533B
331
152FA
  5
152FC
331
13D94
  5
13D9F
331
15302
  5
15304
331
14937
  5
1493A
331
1530A
  5
1530C
331
152BD
  5
152BF
331
1527E
  5
15280
331
12F50
  5
12F50
331
15080
  5
15082
331
152C5
  5
152C7
331
15286
  5
15288
331
1524F
  5
15251
331
12FB7
  5
12FB8
331
12F58
  5
12F59
331
15088
  5
1508A
331
152CD
  5
152CF
331
1528E
  5
15290
331
15257
  5
15259
331
12FBF
  5
12FC0
331
12F70
  5
12F71
331
132A6
  5
132A8
331
15090
  5
15092
331
152D5
  5
152D7
331
15296
  5
15298
331
1525F
  5
15261
331
12FC7
  5
131F0
331
14870
  5
14893
331
13D65
  5
13D6F
331
13A76
  5
13A78
331
15312
  5
15314
331
147D1
  5
147D5
331
13D75
  5
13D77
331
13A96
  5
13A98
331
1531A
  5
1531C
331
13A9E
  5
13AA2
331
15322
  5
15324
331
1532A
  5
1532C
331
12F78
  5
12F7C
331
15098
  5
1509A
331
152DD
  5
152DF
331
1529E
  5
152A0
331
15267
  5
15269
331
132B6
  5
132B8
331
150A0
  5
150A2
331
152E5
  5
152E7
331
13A35
  5
13A37
331
1526F
  5
15271
331
152A6
  5
152A8
331
150A8
  5
150D8
331
12F88
  5
12F89
331
132BE
  5
132C0
331
14ED2
  5
14ED5
331
152ED
  5
152EF
331
13A3D
  5
13A54
331
15277
  5
15279
331
152AE
  5
152B0
331
132C6
  5
132C8
331
152B6
  5
152B8
331
15575
  5
15577
331
F235
  5
F235
331
155B5
  5
12F57
331
147D9
  5
147DC
331
145AB
  5
145AD
331
13D7D
  5
13D81
331
13D85
  5
13D87
331
13ADE
  5
13AE0
331
13A5F
  5
13A61
331
15332
  5
15334
331
152F3
  5
152F5
331
13A67
  5
13A69
331
1533A
  5
1552B
331
152FB
  5
152FD
331
13D95
  5
13DA0
331
15303
  5
15305
331
1530B
  5
1530D
331
12F98
  5
12F99
331
150D8
  5
15249
331
13297
  5
13298
331
152BE
  5
152C0
331
15081
  5
15083
331
15248
  5
1524A
331
1527F
  5
15281
331
1329F
  5
132A1
331
152C6
  5
152C8
331
12FB8
  5
12FB9
331
12F59
  5
12F5A
331
15089
  5
1508B
331
15250
  5
15252
331
15287
  5
15289
331
132A7
  5
132A9
331
152CE
  5
152D0
331
12FC0
  5
12FC1
331
15091
  5
15093
331
12F71
  5
12F72
331
15258
  5
1525A
331
1528F
  5
15291
331
152D6
  5
152D8
331
15297
  5
15299
331
14938
  5
1493B
331
13D66
  5
13D70
331
13A77
  5
13A79
331
143B4
  5
145A7
331
15313
  5
15315
331
14891
  5
148C6
331
13D76
  5
13D78
331
13A97
  5
13A99
331
1531B
  5
1531D
331
15323
  5
15325
331
1532B
  5
1532D
331
131F0
  5
13248
331
15099
  5
1509B
331
15260
  5
15262
331
132B7
  5
132B9
331
152DE
  5
152E0
331
13248
  5
13249
331
150A1
  5
150A3
331
15268
  5
1526A
331
1529F
  5
152A1
331
13A36
  5
13A38
331
132BF
  5
132C1
331
152E6
  5
152E8
331
12F89
  5
12F8A
331
14FB2
  5
14FB4
331
14ED3
  5
14ED6
331
15270
  5
15272
331
152A7
  5
152A9
331
132C7
  5
132C9
331
152EE
  5
152F0
331
12F91
  5
12F93
331
152AF
  5
152B1
331
152B7
  5
152B9
331
763F
  5
763F
331
15576
  5
15578
331
147DA
  5
147DD
331
14703
  5
147D1
331
145AC
  5
145AE
331
13D86
  5
13D88
331
13A60
  5
13A62
331
13ADF
  5
13C02
331
15333
  5
15335
331
152F4
  5
152F6
331
13A68
  5
13A6A
331
1533B
  5
1552C
331
152FC
  5
152FE
331
1486A
  5
1486D
331
15304
  5
15306
331
1530C
  5
1530E
331
12F99
  5
12FB4
331
1507A
  5
1507C
331
15278
  5
1527A
331
13298
  5
1329A
331
152BF
  5
152C1
331
15082
  5
15084
331
15249
  5
1524B
331
15280
  5
15282
331
132A0
  5
132A2
331
152C7
  5
152C9
331
12FB9
  5
12FBA
331
12F5A
  5
12F5B
331
1508A
  5
1508C
331
15251
  5
15253
331
15288
  5
1528A
331
132A8
  5
132AA
331
12FC1
  5
12FC2
331
15290
  5
15292
331
15092
  5
15094
331
12F72
  5
12F73
331
15259
  5
1525B
331
152CF
  5
152D1
331
152D7
  5
152D9
331
14939
  5
1493C
331
13A78
  5
13A94
331
13D6F
  5
13D71
331
15314
  5
15316
331
147D3
  5
147D7
331
14892
  5
148CC
331
13D77
  5
13D79
331
13A98
  5
13A9A
331
1531C
  5
1531E
331
15324
  5
15326
331
1532C
  5
1532E
331
15298
  5
1529A
331
1509A
  5
1509C
331
15261
  5
15263
331
152DF
  5
152E1
331
13A2F
  5
13A35
331
152A0
  5
152A2
331
132B8
  5
132BA
331
15269
  5
1526B
331
12F82
  5
12F83
331
13249
  5
1324A
331
150A2
  5
150A4
331
152E7
  5
152E9
331
13A37
  5
13A39
331
152A8
  5
152AA
331
15271
  5
15273
331
14FB3
  5
14FB5
331
14ED4
  5
14ED7
331
12F8A
  5
12F8B
331
132C0
  5
132C2
331
152EF
  5
152F1
331
13A3F
  5
13A55
331
152B0
  5
152B2
331
132C8
  5
13A2F
331
15577
  5
155B4
331
147DB
  5
147DE
331
145AD
  5
14616
331
13D87
  5
13D8F
331
13A61
  5
13A63
331
13AE0
  5
13C03
331
15334
  5
15336
331
13A69
  5
13A74
331
13D8F
  5
13D91
331
152F5
  5
152F7
331
1486B
  5
1486E
331
14625
  5
14628
331
152FD
  5
152FF
331
15305
  5
15307
331
1530D
  5
1530F
331
152B8
  5
152BA
331
1507B
  5
1507D
331
15279
  5
1527B
331
10B56
  5
10B56
331
152C0
  5
152C2
331
1524A
  5
1524C
331
15281
  5
15283
331
15083
  5
15085
331
10B5E
  5
10B5E
331
13299
  5
1329D
331
152C8
  5
152CA
331
15289
  5
1528B
331
15252
  5
15254
331
12F5B
  5
12F5C
331
12FBA
  5
12FBB
331
132A1
  5
132A3
331
1508B
  5
1508D
331
152D0
  5
152D2
331
15291
  5
15293
331
1525A
  5
1525C
331
12FC2
  5
12FC3
331
15093
  5
15095
331
12F73
  5
12F75
331
132A9
  5
132AB
331
1493A
  5
149A1
331
13A79
  5
13A95
331
13D9F
  5
143B2
331
143B6
  5
145A8
331
13D70
  5
13D72
331
15315
  5
15317
331
13A99
  5
13A9B
331
147D4
  5
147D8
331
14893
  5
14937
331
1531D
  5
1531F
331
15325
  5
15327
331
1532D
  5
1532F
331
15299
  5
1529B
331
15262
  5
15264
331
152D8
  5
152DA
331
1509B
  5
1509D
331
152E0
  5
152E2
331
152A1
  5
152A3
331
132B9
  5
132BB
331
1526A
  5
1526C
331
150A3
  5
150A5
331
12F83
  5
12F86
331
1324A
  5
1324B
331
152E8
  5
152EA
331
13A38
  5
13A3A
331
152A9
  5
152AB
331
132C1
  5
132C3
331
15272
  5
15274
331
14FB4
  5
1507A
331
14ED5
  5
14ED8
331
12F8B
  5
12F8C
331
13282
  5
13283
331
152B1
  5
152B3
331
12F93
  5
12F94
331
132C9
  5
13A34
331
15578
  5
155B5
331
13D78
  5
13D7B
331
13AA1
  5
13AD9
331
145AE
  5
14617
331
13D80
  5
13D82
331
13AD9
  5
13ADF
331
147DC
  5
14846
331
14616
  5
14625
331
13A62
  5
13A64
331
13D88
  5
13D90
331
15335
  5
15337
331
13A6A
  5
13A75
331
13D90
  5
13D92
331
152F6
  5
152F8
331
152FE
  5
15300
331
14626
  5
14703
331
1486C
  5
1486F
331
15306
  5
15308
331
1530E
  5
15310
331
152B9
  5
152BB
331
1507C
  5
1507E
331
1527A
  5
1527C
331
10B57
  5
10B57
331
13292
  5
13293
331
152C1
  5
152C3
331
1524B
  5
1524D
331
15282
  5
15284
331
15084
  5
15086
331
1329A
  5
1329F
331
152C9
  5
152CB
331
1528A
  5
1528C
331
15253
  5
15255
331
12FBB
  5
12FBC
331
12F5C
  5
12F5D
331
132A2
  5
132A4
331
1508C
  5
1508E
331
152D1
  5
152D3
331
15292
  5
15294
331
1525B
  5
1525D
331
15094
  5
15096
331
12FC3
  5
12FC4
331
132AA
  5
132AC
331
13DA0
  5
143B4
331
1493B
  5
14ED0
331
13D71
  5
13D73
331
145A7
  5
145A9
331
13A9A
  5
13A9C
331
15316
  5
15318
331
1531E
  5
15320
331
15326
  5
15328
331
1532E
  5
15330
331
1529A
  5
1529C
331
15263
  5
15265
331
152D9
  5
152DB
331
12F7C
  5
12F82
331
1509C
  5
1509E
331
152E1
  5
152E3
331
152A2
  5
152A4
331
132BA
  5
132BC
331
1526B
  5
1526D
331
150A4
  5
150A6
331
1324B
  5
13282
331
152E9
  5
152EB
331
13A39
  5
13A3B
331
152AA
  5
152AC
331
132C2
  5
132C4
331
15273
  5
15275
331
14FB5
  5
1507B
331
14ED6
  5
14EE1
331
12F8C
  5
12F8D
331
13283
  5
13284
331
152B2
  5
152B4
331
14EDE
  5
14FB3
331
12F94
  5
12F95
331
15571
  5
15573
331
13D79
  5
13D7C
331
13AA2
  5
13ADE
331
145AF
  5
14618
331
13D81
  5
13D83
331
147DD
  5
14847
331
148CC
  5
14939
331
14617
  5
14626
331
13A63
  5
13A65
331
14845
  5
14848
331
15336
  5
15338
331
13D91
  5
13D93
331
13C02
  5
13D64
331
152F7
  5
152F9
331
152FF
  5
15301
331
14627
  5
14711
331
1486D
  5
14870
331
15307
  5
15309
331
1530F
  5
15311
331
152BA
  5
152BC
331
1527B
  5
1527D
331
12F4D
  5
12F4D
331
13293
  5
13297
331
1507D
  5
1507F
331
152C2
  5
152C4
331
15283
  5
15285
331
1524C
  5
1524E
331
15085
  5
15087
331
12FB4
  5
12FB5
331
152CA
  5
152CC
331
1528B
  5
1528D
331
15254
  5
15256
331
12F5D
  5
12F70
331
12FBC
  5
12FBD
331
132A3
  5
132A5
331
1508D
  5
1508F
331
152D2
  5
152D4
331
15293
  5
15295
331
1525C
  5
1525E
331
15095
  5
15097
331
12FC4
  5
12FC5
331
132AB
  5
132AD
331
1493C
  5
14ED1
331
13D72
  5
13D74
331
15317
  5
15319
331
13A9B
  5
13A9D
331
147D6
  5
147D9
331
1531F
  5
15321
331
15327
  5
15329
331
1532F
  5
15331
331
1529B
  5
1529D
331
15264
  5
15266
331
152DA
  5
152DC
331
1509D
  5
1509F
331
152E2
  5
152E4
331
1526C
  5
1526E
331
152A3
  5
152A5
331
150A5
  5
150A7
331
132BB
  5
132BD
331
14ECF
  5
14ED2
331
152EA
  5
152EC
331
13A3A
  5
13A3C
331
152AB
  5
152AD
331
132C3
  5
132C5
331
15274
  5
15276
331
12F8D
  5
12F8E
331
13284
  5
13285
331
14ED7
  5
14FB2
331
152B3
  5
152B5
331
12F95
  5
12F97
331
15572
  5
15574
331
1552B
  5
1552D
331
145A8
  5
145AA
331
13A54
  5
13A56
331
13D82
  5
13D84
331
152F0
  5
152F2
331
14618
  5
14627
331
13A64
  5
13A66
331
14846
  5
1486A
331
15337
  5
15339
331
13D92
  5
13D94
331
13C03
  5
13D65
331
152F8
  5
152FA
331
15300
  5
15302
331
1486E
  5
14891
331
15308
  5
1530A
331
152BB
  5
152BD
331
1527C
  5
1527E
331
1507E
  5
15080
331
152C3
  5
152C5
331
15284
  5
15286
331
1524D
  5
1524F
331
12FB5
  5
12FB6
331
15086
  5
15088
331
12F56
  5
12F56
331
152CB
  5
152CD
331
1528C
  5
1528E
331
132A4
  5
132A6
331
15255
  5
15257
331
12FBD
  5
12FBE
331
1508E
  5
15090
331
152D3
  5
152D5
331
15294
  5
15296
331
132AC
  5
132B6
331
1525D
  5
1525F
331
12FC5
  5
12FC6
331
15096
  5
15098
331
13A74
  5
13A76
331
14628
  5
147D0
331
13D73
  5
13D75
331
13A94
  5
13A96
331
15310
  5
15312
331
15318
  5
1531A
331
13A9C
  5
13A9E
331
147D7
  5
147DA
  0
SORTENTSTABLE
  5
15513
102
{ACAD_REACTORS
330
15512
102
}
330
15512
100
AcDbSortentsTable
330
1541A
  0
SORTENTSTABLE
  5
15560
102
{ACAD_REACTORS
330
1555F
102
}
330
1555F
100
AcDbSortentsTable
330
15556
  0
SORTENTSTABLE
  5
1556D
102
{ACAD_REACTORS
330
1556C
102
}
330
1556C
100
AcDbSortentsTable
330
15563
  0
ACDBDETAILVIEWSTYLE
  5
14993
102
{ACAD_XDICTIONARY
360
149ED
102
}
102
{ACAD_REACTORS
330
14992
102
}
330
14992
100
AcDbModelDocViewStyle
 70
     0
  3
Metric50
290
     0
100
AcDbDetailViewStyle
 70
     0
 71
     0
 90
        3
 71
     1
340
7475
 40
5.0
340
0
 40
5.0
300

 40
0.0
280
     1
 71
     2
340
7479
 90
       25
 71
     3
340
7475
 40
5.0
 90
        0
 40
15.0
 90
        1
300
%<\AcVar ViewDetailId>% (%<\AcVar ViewScale \f "%sn">%)
 71
     4
340
7479
 90
       25
340
7479
 90
       25
280
     0
  0
LAYOUT
  5
14783
102
{ACAD_XDICTIONARY
360
15611
102
}
102
{ACAD_REACTORS
330
14781
102
}
330
14781
100
AcDbPlotSettings
  1

  2
Microsoft XPS Document Writer
  4
A4
  6

 40
3.174999952316284
 41
3.174999952316284
 42
3.175003051757812
 43
3.17498779296875
 44
210.0156707763672
 45
297.0106506347656
 46
0.0
 47
0.0
 48
0.0
 49
0.0
140
0.0
141
0.0
142
1.0
143
52.12766584541089
 70
 11952
 72
     1
 73
     1
 74
     0
  7

 75
     0
147
0.0191836711615975
148
822.626231015959
149
37.84094338298201
100
AcDbLayout
  1
Model
 70
     1
 71
     0
 10
0.0
 20
0.0
 11
12.0
 21
9.0
 12
0.0
 22
0.0
 32
0.0
 14
0.0
 24
0.0
 34
0.0
 15
0.0
 25
0.0
 35
0.0
146
0.0
 13
0.0
 23
0.0
 33
0.0
 16
1.0
 26
0.0
 36
0.0
 17
0.0
 27
1.0
 37
0.0
 76
     0
330
747D
331
14947
1001
ACAD_PSEXT
1000
Microsoft XPS Document Writer
1000
Microsoft XPS Document Writer
1000
XPSPort:
1000

1070
     0
  0
LAYOUT
  5
14784
102
{ACAD_XDICTIONARY
360
15613
102
}
102
{ACAD_REACTORS
330
14781
102
}
330
14781
100
AcDbPlotSettings
  1

  2
Microsoft XPS Document Writer
  4

  6

 40
0.0
 41
0.0
 42
0.0
 43
0.0
 44
0.0
 45
0.0
 46
0.0
 47
0.0
 48
0.0
 49
0.0
140
0.0
141
0.0
142
1.0
143
1.0
 70
   688
 72
     0
 73
     0
 74
     5
  7

 75
    16
147
1.0
148
0.0
149
0.0
100
AcDbLayout
  1
レイアウト1
 70
     0
 71
     1
 10
0.0
 20
0.0
 11
420.0
 21
297.0
 12
0.0
 22
0.0
 32
0.0
 14
1.000000000000000E+20
 24
1.000000000000000E+20
 34
1.000000000000000E+20
 15
-1.000000000000000E+20
 25
-1.000000000000000E+20
 35
-1.000000000000000E+20
146
0.0
 13
0.0
 23
0.0
 33
0.0
 16
1.0
 26
0.0
 36
0.0
 17
0.0
 27
1.0
 37
0.0
 76
     0
330
747A
  0
MATERIAL
  5
14951
102
{ACAD_XDICTIONARY
360
14952
102
}
102
{ACAD_REACTORS
330
1477F
102
}
330
1477F
100
AcDbMaterial
  1
ByBlock
 72
     0
 43
0.0208333333333333
 43
0.0
 43
0.0
 43
0.0
 43
0.0
 43
0.0208333333333333
 43
0.0
 43
0.0
 43
0.0
 43
0.0
 43
1.0
 43
0.0
 43
0.0
 43
0.0
 43
0.0
 43
1.0
 77
     0
 47
0.0208333333333333
 47
0.0
 47
0.0
 47
0.0
 47
0.0
 47
0.0208333333333333
 47
0.0
 47
0.0
 47
0.0
 47
0.0
 47
1.0
 47
0.0
 47
0.0
 47
0.0
 47
0.0
 47
1.0
171
     0
 49
0.0208333333333333
 49
0.0
 49
0.0
 49
0.0
 49
0.0
 49
0.0208333333333333
 49
0.0
 49
0.0
 49
0.0
 49
0.0
 49
1.0
 49
0.0
 49
0.0
 49
0.0
 49
0.0
 49
1.0
175
     0
142
0.0208333333333333
142
0.0
142
0.0
142
0.0
142
0.0
142
0.0208333333333333
142
0.0
142
0.0
142
0.0
142
0.0
142
1.0
142
0.0
142
0.0
142
0.0
142
0.0
142
1.0
179
     0
144
0.0208333333333333
144
0.0
144
0.0
144
0.0
144
0.0
144
0.0208333333333333
144
0.0
144
0.0
144
0.0
144
0.0
144
1.0
144
0.0
144
0.0
144
0.0
144
0.0
144
1.0
147
0.0208333333333333
147
0.0
147
0.0
147
0.0
147
0.0
147
0.0208333333333333
147
0.0
147
0.0
147
0.0
147
0.0
147
1.0
147
0.0
147
0.0
147
0.0
147
0.0
147
1.0
  0
MATERIAL
  5
14949
102
{ACAD_XDICTIONARY
360
1494A
102
}
102
{ACAD_REACTORS
330
1477F
102
}
330
1477F
100
AcDbMaterial
  1
ByLayer
 72
     0
 43
0.0208333333333333
 43
0.0
 43
0.0
 43
0.0
 43
0.0
 43
0.0208333333333333
 43
0.0
 43
0.0
 43
0.0
 43
0.0
 43
1.0
 43
0.0
 43
0.0
 43
0.0
 43
0.0
 43
1.0
 77
     0
 47
0.0208333333333333
 47
0.0
 47
0.0
 47
0.0
 47
0.0
 47
0.0208333333333333
 47
0.0
 47
0.0
 47
0.0
 47
0.0
 47
1.0
 47
0.0
 47
0.0
 47
0.0
 47
0.0
 47
1.0
171
     0
 49
0.0208333333333333
 49
0.0
 49
0.0
 49
0.0
 49
0.0
 49
0.0208333333333333
 49
0.0
 49
0.0
 49
0.0
 49
0.0
 49
1.0
 49
0.0
 49
0.0
 49
0.0
 49
0.0
 49
1.0
175
     0
142
0.0208333333333333
142
0.0
142
0.0
142
0.0
142
0.0
142
0.0208333333333333
142
0.0
142
0.0
142
0.0
142
0.0
142
1.0
142
0.0
142
0.0
142
0.0
142
0.0
142
1.0
179
     0
144
0.0208333333333333
144
0.0
144
0.0
144
0.0
144
0.0
144
0.0208333333333333
144
0.0
144
0.0
144
0.0
144
0.0
144
1.0
144
0.0
144
0.0
144
0.0
144
0.0
144
1.0
147
0.0208333333333333
147
0.0
147
0.0
147
0.0
147
0.0
147
0.0208333333333333
147
0.0
147
0.0
147
0.0
147
0.0
147
1.0
147
0.0
147
0.0
147
0.0
147
0.0
147
1.0
  0
MATERIAL
  5
14959
102
{ACAD_XDICTIONARY
360
1495A
102
}
102
{ACAD_REACTORS
330
1477F
102
}
330
1477F
100
AcDbMaterial
  1
Global
 72
     0
 43
0.0208333333333333
 43
0.0
 43
0.0
 43
0.0
 43
0.0
 43
0.0208333333333333
 43
0.0
 43
0.0
 43
0.0
 43
0.0
 43
1.0
 43
0.0
 43
0.0
 43
0.0
 43
0.0
 43
1.0
 77
     0
 47
0.0208333333333333
 47
0.0
 47
0.0
 47
0.0
 47
0.0
 47
0.0208333333333333
 47
0.0
 47
0.0
 47
0.0
 47
0.0
 47
1.0
 47
0.0
 47
0.0
 47
0.0
 47
0.0
 47
1.0
171
     0
 49
0.0208333333333333
 49
0.0
 49
0.0
 49
0.0
 49
0.0
 49
0.0208333333333333
 49
0.0
 49
0.0
 49
0.0
 49
0.0
 49
1.0
 49
0.0
 49
0.0
 49
0.0
 49
0.0
 49
1.0
175
     0
142
0.0208333333333333
142
0.0
142
0.0
142
0.0
142
0.0
142
0.0208333333333333
142
0.0
142
0.0
142
0.0
142
0.0
142
1.0
142
0.0
142
0.0
142
0.0
142
0.0
142
1.0
179
     0
144
0.0208333333333333
144
0.0
144
0.0
144
0.0
144
0.0
144
0.0208333333333333
144
0.0
144
0.0
144
0.0
144
0.0
144
1.0
144
0.0
144
0.0
144
0.0
144
0.0
144
1.0
147
0.0208333333333333
147
0.0
147
0.0
147
0.0
147
0.0
147
0.0208333333333333
147
0.0
147
0.0
147
0.0
147
0.0
147
1.0
147
0.0
147
0.0
147
0.0
147
0.0
147
1.0
  0
MLEADERSTYLE
  5
1498F
102
{ACAD_XDICTIONARY
360
1564A
102
}
102
{ACAD_REACTORS
330
1498E
102
}
330
1498E
100
AcDbMLeaderStyle
170
     2
171
     1
172
     0
 90
        2
 40
0.0
 41
0.0
173
     1
 91
-1056964608
340
7477
 92
       -2
290
     1
 42
2.0
291
     1
 43
0.36
  3
Standard
 44
4.0
300

342
7475
174
     1
178
     6
175
     1
176
     0
 93
-1056964608
 45
4.0
292
     0
297
     0
 46
4.0
 94
-1056964608
 47
1.0
 49
1.0
140
1.0
293
     1
141
0.0
294
     1
177
     0
142
1.0
295
     0
296
     0
143
0.125
1001
ACAD_MLEADERVER
1070
     2
  0
MLINESTYLE
  5
7480
102
{ACAD_REACTORS
330
7473
102
}
330
7473
100
AcDbMlineStyle
  2
STANDARD
 70
     0
  3

 62
     0
 51
90.0
 52
90.0
 71
     2
 49
0.5
 62
   256
  6
BYLAYER
 49
-0.5
 62
   256
  6
BYLAYER
  0
ACDBPLACEHOLDER
  5
1477E
102
{ACAD_REACTORS
330
1477D
102
}
330
1477D
  0
SCALE
  5
1497D
102
{ACAD_REACTORS
330
1497C
102
}
330
1497C
100
AcDbScale
 70
     0
300
1:1
140
1.0
141
1.0
290
     1
  0
SCALE
  5
1497E
102
{ACAD_REACTORS
330
1497C
102
}
330
1497C
100
AcDbScale
 70
     0
300
1:2
140
1.0
141
2.0
290
     0
  0
SCALE
  5
1497F
102
{ACAD_REACTORS
330
1497C
102
}
330
1497C
100
AcDbScale
 70
     0
300
1:4
140
1.0
141
4.0
290
     0
  0
SCALE
  5
14980
102
{ACAD_REACTORS
330
1497C
102
}
330
1497C
100
AcDbScale
 70
     0
300
1:5
140
1.0
141
5.0
290
     0
  0
SCALE
  5
14981
102
{ACAD_REACTORS
330
1497C
102
}
330
1497C
100
AcDbScale
 70
     0
300
1:8
140
1.0
141
8.0
290
     0
  0
SCALE
  5
14982
102
{ACAD_REACTORS
330
1497C
102
}
330
1497C
100
AcDbScale
 70
     0
300
1:10
140
1.0
141
10.0
290
     0
  0
SCALE
  5
14983
102
{ACAD_REACTORS
330
1497C
102
}
330
1497C
100
AcDbScale
 70
     0
300
1:16
140
1.0
141
16.0
290
     0
  0
SCALE
  5
14984
102
{ACAD_REACTORS
330
1497C
102
}
330
1497C
100
AcDbScale
 70
     0
300
1:20
140
1.0
141
20.0
290
     0
  0
SCALE
  5
14985
102
{ACAD_REACTORS
330
1497C
102
}
330
1497C
100
AcDbScale
 70
     0
300
1:30
140
1.0
141
30.0
290
     0
  0
SCALE
  5
14986
102
{ACAD_REACTORS
330
1497C
102
}
330
1497C
100
AcDbScale
 70
     0
300
1:40
140
1.0
141
40.0
290
     0
  0
SCALE
  5
14987
102
{ACAD_REACTORS
330
1497C
102
}
330
1497C
100
AcDbScale
 70
     0
300
1:50
140
1.0
141
50.0
290
     0
  0
SCALE
  5
14988
102
{ACAD_REACTORS
330
1497C
102
}
330
1497C
100
AcDbScale
 70
     0
300
1:100
140
1.0
141
100.0
290
     0
  0
SCALE
  5
14989
102
{ACAD_REACTORS
330
1497C
102
}
330
1497C
100
AcDbScale
 70
     0
300
2:1
140
2.0
141
1.0
290
     0
  0
SCALE
  5
1498A
102
{ACAD_REACTORS
330
1497C
102
}
330
1497C
100
AcDbScale
 70
     0
300
4:1
140
4.0
141
1.0
290
     0
  0
SCALE
  5
1498B
102
{ACAD_REACTORS
330
1497C
102
}
330
1497C
100
AcDbScale
 70
     0
300
8:1
140
8.0
141
1.0
290
     0
  0
SCALE
  5
1498C
102
{ACAD_REACTORS
330
1497C
102
}
330
1497C
100
AcDbScale
 70
     0
300
10:1
140
10.0
141
1.0
290
     0
  0
SCALE
  5
1498D
102
{ACAD_REACTORS
330
1497C
102
}
330
1497C
100
AcDbScale
 70
     0
300
100:1
140
100.0
141
1.0
290
     0
  0
ACDBSECTIONVIEWSTYLE
  5
14991
102
{ACAD_XDICTIONARY
360
149EB
102
}
102
{ACAD_REACTORS
330
14990
102
}
330
14990
100
AcDbModelDocViewStyle
 70
     0
  3
Metric50
290
     0
100
AcDbSectionViewStyle
 70
     0
 71
     0
 90
      102
 71
     1
340
7475
 40
5.0
340
0
340
0
 40
5.0
300
I, O, Q, S, X, Z
 40
10.0
 90
        0
 40
2.5
 90
        0
 71
     2
340
7479
 90
       25
340
7479
 90
       50
 40
5.0
 40
2.5
 40
5.0
 71
     3
340
7475
 40
5.0
 90
        0
 40
15.0
 90
        1
300
%<\AcVar ViewSectionStartId>%-%<\AcVar ViewSectionEndId>% (%<\AcVar ViewScale \f "%sn">%)
 71
     4
300
ANSI31
 40
1.0
 90
        0
290
     0
290
     0
 90
        6
 40
0.0
 40
1.570796326794896
 40
0.2617993877991494
 40
1.308996938995747
 40
-0.2617993877991494
 40
1.832595714594046
  0
TABLESTYLE
  5
1497B
102
{ACAD_XDICTIONARY
360
15603
102
}
102
{ACAD_REACTORS
330
1497A
102
}
330
1497A
100
AcDbTableStyle
  3
Standard
 70
     0
 71
     0
 40
1.5
 41
1.5
280
     0
281
     0
  7
STANDARD
140
4.5
170
     2
 62
     0
 63
     7
283
     0
274
    -2
284
     1
 64
     0
275
    -2
285
     1
 65
     0
276
    -2
286
     1
 66
     0
277
    -2
287
     1
 67
     0
278
    -2
288
     1
 68
     0
279
    -2
289
     1
 69
     0
  7
STANDARD
140
6.0
170
     5
 62
     0
 63
     7
283
     0
274
    -2
284
     1
 64
     0
275
    -2
285
     1
 65
     0
276
    -2
286
     1
 66
     0
277
    -2
287
     1
 67
     0
278
    -2
288
     1
 68
     0
279
    -2
289
     1
 69
     0
  7
STANDARD
140
4.5
170
     5
 62
     0
 63
     7
283
     0
274
    -2
284
     1
 64
     0
275
    -2
285
     1
 65
     0
276
    -2
286
     1
 66
     0
277
    -2
287
     1
 67
     0
278
    -2
288
     1
 68
     0
279
    -2
289
     1
 69
     0
  0
VISUALSTYLE
  5
14967
102
{ACAD_XDICTIONARY
360
15622
102
}
102
{ACAD_REACTORS
330
14961
102
}
330
14961
100
AcDbVisualStyle
  2
2dWireframe
 70
     4
 71
     0
 72
     2
 73
     0
 90
        0
 40
-0.6
 41
-30.0
 62
     5
 63
     7
 74
     1
 91
        4
 64
     7
 65
   257
 75
     1
175
     1
 42
1.0
 92
        0
 66
   257
 43
1.0
 76
     1
 77
     6
 78
     2
 67
     7
 79
     5
170
     0
171
     0
290
     0
174
     0
 93
        1
 44
0.0
173
     0
291
     0
 45
0.0
1001
ACAD
1000
AcDbSavedByObjectVersion
1070
     0
  0
VISUALSTYLE
  5
14966
102
{ACAD_XDICTIONARY
360
15620
102
}
102
{ACAD_REACTORS
330
14961
102
}
330
14961
100
AcDbVisualStyle
  2
Basic
 70
     7
 71
     1
 72
     0
 73
     1
 90
        0
 40
-0.6
 41
-30.0
 62
     5
 63
     7
 74
     0
 91
        4
 64
     7
 65
   257
 75
     1
175
     1
 42
1.0
 92
        8
 66
     7
 43
1.0
 76
     1
 77
     6
 78
     2
 67
     7
 79
     5
170
     0
171
     0
290
     0
174
     0
 93
        1
 44
0.0
173
     0
291
     1
 45
0.0
1001
ACAD
1000
AcDbSavedByObjectVersion
1070
     0
  0
VISUALSTYLE
  5
1496D
102
{ACAD_XDICTIONARY
360
1562E
102
}
102
{ACAD_REACTORS
330
14961
102
}
330
14961
100
AcDbVisualStyle
  2
Brighten
 70
    12
 71
     2
 72
     2
 73
     0
 90
        0
 40
-0.6
 41
-30.0
 62
     5
 63
     7
 74
     1
 91
        4
 64
     7
 65
   257
 75
     1
175
     1
 42
1.0
 92
        8
 66
     7
 43
1.0
 76
     1
 77
     6
 78
     2
 67
     7
 79
     5
170
     0
171
     0
290
     0
174
     0
 93
        1
 44
50.0
173
     0
291
     1
 45
0.0
1001
ACAD
1000
AcDbSavedByObjectVersion
1070
     0
  0
VISUALSTYLE
  5
14971
102
{ACAD_XDICTIONARY
360
15636
102
}
102
{ACAD_REACTORS
330
14961
102
}
330
14961
100
AcDbVisualStyle
  2
ColorChange
 70
    16
 71
     2
 72
     2
 73
     3
 90
        0
 40
-0.6
 41
-30.0
 62
     5
 63
     8
 74
     1
 91
        4
 64
     7
 65
   257
 75
     1
175
     1
 42
1.0
 92
        8
 66
     8
 43
1.0
 76
     1
 77
     6
 78
     2
 67
     7
 79
     5
170
     0
171
     0
290
     0
174
     0
 93
        1
 44
0.0
173
     0
291
     1
 45
0.0
1001
ACAD
1000
AcDbSavedByObjectVersion
1070
     0
  0
VISUALSTYLE
  5
1496A
102
{ACAD_XDICTIONARY
360
15628
102
}
102
{ACAD_REACTORS
330
14961
102
}
330
14961
100
AcDbVisualStyle
  2
Conceptual
 70
     9
 71
     3
 72
     2
 73
     0
 90
        0
 40
-0.6
 41
-30.0
 62
     5
 63
     7
 74
     2
 91
        2
 64
     7
 65
   257
 75
     1
175
     1
 42
179.0
 92
        8
 66
     7
 43
1.0
 76
     1
 77
     6
 78
     2
 67
     7
 79
     3
170
     0
171
     0
290
     0
174
     0
 93
        1
 44
0.0
173
     0
291
     0
 45
0.0
1001
ACAD
1000
AcDbSavedByObjectVersion
1070
     0
  0
VISUALSTYLE
  5
1496C
102
{ACAD_XDICTIONARY
360
1562C
102
}
102
{ACAD_REACTORS
330
14961
102
}
330
14961
100
AcDbVisualStyle
  2
Dim
 70
    11
 71
     2
 72
     2
 73
     0
 90
        0
 40
-0.6
 41
-30.0
 62
     5
 63
     7
 74
     1
 91
        4
 64
     7
 65
   257
 75
     1
175
     1
 42
1.0
 92
        8
 66
     7
 43
1.0
 76
     1
 77
     6
 78
     2
 67
     7
 79
     5
170
     0
171
     0
290
     0
174
     0
 93
        1
 44
-50.0
173
     0
291
     1
 45
0.0
1001
ACAD
1000
AcDbSavedByObjectVersion
1070
     0
  0
VISUALSTYLE
  5
14979
102
{ACAD_XDICTIONARY
360
15646
102
}
102
{ACAD_REACTORS
330
14961
102
}
330
14961
100
AcDbVisualStyle
  2
EdgeColorOff
 70
    22
 71
     2
 72
     2
 73
     0
 90
        0
 40
-0.6
 41
-30.0
 62
     5
 63
     7
 74
     1
 91
        4
 64
     7
 65
   257
 75
     1
175
     1
 42
1.0
 92
        8
 66
     7
 43
1.0
 76
     1
 77
     6
 78
     2
 67
     7
 79
     5
170
     0
171
     0
290
     0
174
     0
 93
        1
 44
0.0
173
     0
291
     1
 45
0.0
1001
ACAD
1000
AcDbSavedByObjectVersion
1070
     0
  0
VISUALSTYLE
  5
14970
102
{ACAD_XDICTIONARY
360
15634
102
}
102
{ACAD_REACTORS
330
14961
102
}
330
14961
100
AcDbVisualStyle
  2
Facepattern
 70
    15
 71
     2
 72
     2
 73
     0
 90
        0
 40
-0.6
 41
-30.0
 62
     5
 63
     7
 74
     1
 91
        4
 64
     7
 65
   257
 75
     1
175
     1
 42
1.0
 92
        8
 66
     7
 43
1.0
 76
     1
 77
     6
 78
     2
 67
     7
 79
     5
170
     0
171
     0
290
     0
174
     0
 93
        1
 44
0.0
173
     0
291
     1
 45
0.0
1001
ACAD
1000
AcDbSavedByObjectVersion
1070
     0
  0
VISUALSTYLE
  5
14962
102
{ACAD_XDICTIONARY
360
15618
102
}
102
{ACAD_REACTORS
330
14961
102
}
330
14961
100
AcDbVisualStyle
  2
Flat
 70
     0
 71
     2
 72
     1
 73
     1
 90
        2
 40
-0.6
 41
30.0
 62
     5
 63
     7
 74
     0
 91
        0
 64
     7
 65
   257
 75
     1
175
     1
 42
1.0
 92
        8
 66
     7
 43
1.0
 76
     1
 77
     6
 78
     2
 67
     7
 79
     5
170
     0
171
     0
290
     0
174
     0
 93
       13
 44
0.0
173
     0
291
     1
 45
0.0
1001
ACAD
1000
AcDbSavedByObjectVersion
1070
     0
  0
VISUALSTYLE
  5
14963
102
{ACAD_XDICTIONARY
360
1561A
102
}
102
{ACAD_REACTORS
330
14961
102
}
330
14961
100
AcDbVisualStyle
  2
FlatWithEdges
 70
     1
 71
     2
 72
     1
 73
     1
 90
        2
 40
-0.6
 41
30.0
 62
     5
 63
     7
 74
     1
 91
        0
 64
     7
 65
   257
 75
     1
175
     1
 42
1.0
 92
        0
 66
   257
 43
1.0
 76
     1
 77
     6
 78
     2
 67
     7
 79
     5
170
     0
171
     0
290
     0
174
     0
 93
       13
 44
0.0
173
     0
291
     1
 45
0.0
1001
ACAD
1000
AcDbSavedByObjectVersion
1070
     0
  0
VISUALSTYLE
  5
14964
102
{ACAD_XDICTIONARY
360
1561C
102
}
102
{ACAD_REACTORS
330
14961
102
}
330
14961
100
AcDbVisualStyle
  2
Gouraud
 70
     2
 71
     2
 72
     2
 73
     1
 90
        2
 40
-0.6
 41
30.0
 62
     5
 63
     7
 74
     0
 91
        0
 64
     7
 65
   257
 75
     1
175
     1
 42
1.0
 92
        0
 66
     7
 43
1.0
 76
     1
 77
     6
 78
     2
 67
     7
 79
     5
170
     0
171
     0
290
     0
174
     0
 93
       13
 44
0.0
173
     0
291
     1
 45
0.0
1001
ACAD
1000
AcDbSavedByObjectVersion
1070
     0
  0
VISUALSTYLE
  5
14965
102
{ACAD_XDICTIONARY
360
1561E
102
}
102
{ACAD_REACTORS
330
14961
102
}
330
14961
100
AcDbVisualStyle
  2
GouraudWithEdges
 70
     3
 71
     2
 72
     2
 73
     1
 90
        2
 40
-0.6
 41
30.0
 62
     5
 63
     7
 74
     1
 91
        0
 64
     7
 65
   257
 75
     1
175
     1
 42
1.0
 92
        0
 66
   257
 43
1.0
 76
     1
 77
     6
 78
     2
 67
     7
 79
     5
170
     0
171
     0
290
     0
174
     0
 93
       13
 44
0.0
173
     0
291
     1
 45
0.0
1001
ACAD
1000
AcDbSavedByObjectVersion
1070
     0
  0
VISUALSTYLE
  5
14969
102
{ACAD_XDICTIONARY
360
15626
102
}
102
{ACAD_REACTORS
330
14961
102
}
330
14961
100
AcDbVisualStyle
  2
Hidden
 70
     6
 71
     1
 72
     2
 73
     2
 90
        0
 40
-0.6
 41
-30.0
 62
     5
 63
     7
 74
     2
 91
        2
 64
     7
 65
   257
 75
     2
175
     1
 42
40.0
 92
        0
 66
   257
 43
1.0
 76
     1
 77
     6
 78
     2
 67
     7
 79
     3
170
     0
171
     0
290
     0
174
     0
 93
        1
 44
0.0
173
     0
291
     0
 45
0.0
1001
ACAD
1000
AcDbSavedByObjectVersion
1070
     0
  0
VISUALSTYLE
  5
14977
102
{ACAD_XDICTIONARY
360
15642
102
}
102
{ACAD_REACTORS
330
14961
102
}
330
14961
100
AcDbVisualStyle
  2
JitterOff
 70
    20
 71
     2
 72
     2
 73
     0
 90
        0
 40
-0.6
 41
-30.0
 62
     5
 63
     7
 74
     1
 91
        4
 64
     7
 65
   257
 75
     1
175
     1
 42
1.0
 92
       10
 66
     7
 43
1.0
 76
     1
 77
     6
 78
     2
 67
     7
 79
     5
170
     0
171
     0
290
     0
174
     0
 93
        1
 44
0.0
173
     0
291
     1
 45
0.0
1001
ACAD
1000
AcDbSavedByObjectVersion
1070
     0
  0
VISUALSTYLE
  5
1496F
102
{ACAD_XDICTIONARY
360
15632
102
}
102
{ACAD_REACTORS
330
14961
102
}
330
14961
100
AcDbVisualStyle
  2
Linepattern
 70
    14
 71
     2
 72
     2
 73
     0
 90
        0
 40
-0.6
 41
-30.0
 62
     5
 63
     7
 74
     1
 91
        4
 64
     7
 65
   257
 75
     7
175
     7
 42
1.0
 92
        8
 66
     7
 43
1.0
 76
     1
 77
     6
 78
     2
 67
     7
 79
     5
170
     0
171
     0
290
     0
174
     0
 93
        1
 44
0.0
173
     0
291
     1
 45
0.0
1001
ACAD
1000
AcDbSavedByObjectVersion
1070
     0
  0
VISUALSTYLE
  5
14978
102
{ACAD_XDICTIONARY
360
15644
102
}
102
{ACAD_REACTORS
330
14961
102
}
330
14961
100
AcDbVisualStyle
  2
OverhangOff
 70
    21
 71
     2
 72
     2
 73
     0
 90
        0
 40
-0.6
 41
-30.0
 62
     5
 63
     7
 74
     1
 91
        4
 64
     7
 65
   257
 75
     1
175
     1
 42
1.0
 92
        9
 66
     7
 43
1.0
 76
     1
 77
     6
 78
     2
 67
     7
 79
     5
170
     0
171
     0
290
     0
174
     0
 93
        1
 44
0.0
173
     0
291
     1
 45
0.0
1001
ACAD
1000
AcDbSavedByObjectVersion
1070
     0
  0
VISUALSTYLE
  5
1496B
102
{ACAD_XDICTIONARY
360
1562A
102
}
102
{ACAD_REACTORS
330
14961
102
}
330
14961
100
AcDbVisualStyle
  2
Realistic
 70
     8
 71
     2
 72
     3
 73
     0
 90
        2
 40
-0.6
 41
30.0
 62
     5
 63
     7
 74
     0
 91
        0
 64
     7
 65
   257
 75
     1
175
     1
 42
1.0
 92
        8
 66
   257
 43
1.0
 76
     1
 77
     6
 78
     2
 67
     7
 79
     3
170
     0
171
     0
290
     0
174
     0
 93
       13
 44
0.0
173
     0
291
     0
 45
0.0
1001
ACAD
1000
AcDbSavedByObjectVersion
1070
     0
  0
VISUALSTYLE
  5
14976
102
{ACAD_XDICTIONARY
360
15640
102
}
102
{ACAD_REACTORS
330
14961
102
}
330
14961
100
AcDbVisualStyle
  2
Shaded
 70
    27
 71
     2
 72
     2
 73
     1
 90
        2
 40
-0.6
 41
30.0
 62
     5
 63
     7
 74
     0
 91
        4
 64
     7
 65
   257
 75
     1
175
     1
 42
1.0
 92
        8
 66
   257
 43
1.0
 76
     1
 77
     6
 78
     2
 67
     8
 79
     3
170
     0
171
     0
290
     0
174
     0
 93
        5
 44
0.0
173
     0
291
     0
 45
0.0
1001
ACAD
1000
AcDbSavedByObjectVersion
1070
     0
  0
VISUALSTYLE
  5
14975
102
{ACAD_XDICTIONARY
360
1563E
102
}
102
{ACAD_REACTORS
330
14961
102
}
330
14961
100
AcDbVisualStyle
  2
Shaded with edges
 70
    26
 71
     2
 72
     2
 73
     1
 90
        2
 40
-0.6
 41
30.0
 62
     5
 63
     7
 74
     1
 91
       10
 64
     7
 65
   257
 75
     2
175
     1
 42
1.0
 92
        8
 66
   257
 43
1.0
 76
     1
 77
     6
 78
     2
 67
     7
 79
     3
170
     0
171
     0
290
     0
174
     0
 93
        5
 44
0.0
173
     0
291
     0
 45
0.0
1001
ACAD
1000
AcDbSavedByObjectVersion
1070
     0
  0
VISUALSTYLE
  5
14972
102
{ACAD_XDICTIONARY
360
15638
102
}
102
{ACAD_REACTORS
330
14961
102
}
330
14961
100
AcDbVisualStyle
  2
Shades of Gray
 70
    23
 71
     2
 72
     2
 73
     3
 90
        0
 40
-0.6
 41
-30.0
 62
     5
 63
     7
 74
     2
 91
        2
 64
     7
 65
     7
 75
     1
175
     1
 42
40.0
 92
        8
 66
     7
 43
1.0
 76
     1
 77
     6
 78
     2
 67
     7
 79
     3
170
     0
171
     0
290
     0
174
     0
 93
        1
 44
0.0
173
     0
291
     0
 45
0.0
1001
ACAD
1000
AcDbSavedByObjectVersion
1070
     0
  0
VISUALSTYLE
  5
14973
102
{ACAD_XDICTIONARY
360
1563A
102
}
102
{ACAD_REACTORS
330
14961
102
}
330
14961
100
AcDbVisualStyle
  2
Sketchy
 70
    24
 71
     1
 72
     2
 73
     2
 90
        0
 40
-0.6
 41
-30.0
 62
     5
 63
     7
 74
     2
 91
        2
 64
     7
 65
     7
 75
     1
175
     1
 42
40.0
 92
       11
 66
     7
 43
1.0
 76
     1
 77
     6
 78
     2
 67
     7
 79
     6
170
     0
171
     0
290
     0
174
     0
 93
        1
 44
0.0
173
     0
291
     0
 45
0.0
1001
ACAD
1000
AcDbSavedByObjectVersion
1070
     0
  0
VISUALSTYLE
  5
1496E
102
{ACAD_XDICTIONARY
360
15630
102
}
102
{ACAD_REACTORS
330
14961
102
}
330
14961
100
AcDbVisualStyle
  2
Thicken
 70
    13
 71
     2
 72
     2
 73
     0
 90
        0
 40
-0.6
 41
-30.0
 62
     5
 63
     7
 74
     1
 91
        4
 64
     7
 65
   257
 75
     1
175
     1
 42
1.0
 92
       12
 66
     7
 43
1.0
 76
     1
 77
     6
 78
     2
 67
     7
 79
     5
170
     0
171
     0
290
     0
174
     0
 93
        1
 44
0.0
173
     0
291
     1
 45
0.0
1001
ACAD
1000
AcDbSavedByObjectVersion
1070
     0
  0
VISUALSTYLE
  5
14968
102
{ACAD_XDICTIONARY
360
15624
102
}
102
{ACAD_REACTORS
330
14961
102
}
330
14961
100
AcDbVisualStyle
  2
Wireframe
 70
     5
 71
     0
 72
     2
 73
     0
 90
        0
 40
-0.6
 41
-30.0
 62
     5
 63
     7
 74
     1
 91
        4
 64
     7
 65
   257
 75
     1
175
     1
 42
1.0
 92
        0
 66
   257
 43
1.0
 76
     1
 77
     6
 78
     2
 67
     7
 79
     3
170
     0
171
     0
290
     0
174
     0
 93
        1
 44
0.0
173
     0
291
     0
 45
0.0
1001
ACAD
1000
AcDbSavedByObjectVersion
1070
     0
  0
VISUALSTYLE
  5
14974
102
{ACAD_XDICTIONARY
360
1563C
102
}
102
{ACAD_REACTORS
330
14961
102
}
330
14961
100
AcDbVisualStyle
  2
X-Ray
 70
    25
 71
     2
 72
     2
 73
     1
 90
        1
 40
0.5
 41
-30.0
 62
     5
 63
     7
 74
     1
 91
        0
 64
     7
 65
   257
 75
     1
175
     1
 42
1.0
 92
        8
 66
     7
 43
1.0
 76
     1
 77
     6
 78
     2
 67
     7
 79
     3
170
     0
171
     0
290
     0
174
     0
 93
       13
 44
0.0
173
     0
291
     0
 45
0.0
1001
ACAD
1000
AcDbSavedByObjectVersion
1070
     0
  0
DICTIONARYVAR
  5
149F6
102
{ACAD_REACTORS
330
149F0
102
}
330
149F0
100
DictionaryVariables
280
     0
  1
1:1
  0
DICTIONARYVAR
  5
149F2
102
{ACAD_REACTORS
330
149F0
102
}
330
149F0
100
DictionaryVariables
280
     0
  1
STANDARD
  0
DICTIONARYVAR
  5
149F1
102
{ACAD_REACTORS
330
149F0
102
}
330
149F0
100
DictionaryVariables
280
     0
  1
STANDARD
  0
DICTIONARYVAR
  5
149F3
102
{ACAD_REACTORS
330
149F0
102
}
330
149F0
100
DictionaryVariables
280
     0
  1
Metric50
  0
DICTIONARYVAR
  5
149F4
102
{ACAD_REACTORS
330
149F0
102
}
330
149F0
100
DictionaryVariables
280
     0
  1
Metric50
  0
DICTIONARYVAR
  5
15602
102
{ACAD_REACTORS
330
149F0
102
}
330
149F0
100
DictionaryVariables
280
     0
  1
1
  0
DICTIONARYVAR
  5
15600
102
{ACAD_REACTORS
330
149F0
102
}
330
149F0
100
DictionaryVariables
280
     0
  1
0
  0
DICTIONARYVAR
  5
149F8
102
{ACAD_REACTORS
330
149F0
102
}
330
149F0
100
DictionaryVariables
280
     0
  1
1
  0
DICTIONARYVAR
  5
149F9
102
{ACAD_REACTORS
330
149F0
102
}
330
149F0
100
DictionaryVariables
280
     0
  1
15
  0
DICTIONARYVAR
  5
149F7
102
{ACAD_REACTORS
330
149F0
102
}
330
149F0
100
DictionaryVariables
280
     0
  1
0
  0
DICTIONARYVAR
  5
149F5
102
{ACAD_REACTORS
330
149F0
102
}
330
149F0
100
DictionaryVariables
280
     0
  1
0
  0
DICTIONARYVAR
  5
155FF
102
{ACAD_REACTORS
330
149F0
102
}
330
149F0
100
DictionaryVariables
280
     0
  1
127
  0
DICTIONARYVAR
  5
15601
102
{ACAD_REACTORS
330
149F0
102
}
330
149F0
100
DictionaryVariables
280
     0
  1
0
  0
DICTIONARY
  5
1560E
102
{ACAD_REACTORS
330
1560C
102
}
330
1560C
100
AcDbDictionary
281
     1
  0
DICTIONARY
  5
1560D
102
{ACAD_REACTORS
330
1560C
102
}
330
1560C
100
AcDbDictionary
281
     1
  3
2130552248
350
15607
  3
2130552256
350
15608
  3
2130552264
350
15609
  3
2130552272
350
1560A
  3
2130552280
350
1560B
  0
DICTIONARY
  5
149ED
330
14993
100
AcDbDictionary
280
     1
281
     1
  3
ACAD_XREC_ROUNDTRIP
360
1564D
  0
DICTIONARY
  5
15611
330
14783
100
AcDbDictionary
280
     1
281
     1
  3
ACAD_XREC_ROUNDTRIP
360
15612
  0
DICTIONARY
  5
15613
330
14784
100
AcDbDictionary
280
     1
281
     1
  3
ACAD_XREC_ROUNDTRIP
360
15614
  0
DICTIONARY
  5
14952
330
14951
100
AcDbDictionary
280
     1
281
     1
  3
ACAD_XREC_ROUNDTRIP
360
15616
  3
BUMPTILE
360
14954
  3
DIFFUSETILE
360
14953
  3
OPACITYTILE
360
14957
  3
REFLECTIONTILE
360
14956
  3
REFRACTIONTILE
360
14958
  3
SPECULARTILE
360
14955
  0
DICTIONARY
  5
1494A
330
14949
100
AcDbDictionary
280
     1
281
     1
  3
ACAD_XREC_ROUNDTRIP
360
15615
  3
BUMPTILE
360
1494C
  3
DIFFUSETILE
360
1494B
  3
OPACITYTILE
360
1494F
  3
REFLECTIONTILE
360
1494E
  3
REFRACTIONTILE
360
14950
  3
SPECULARTILE
360
1494D
  0
DICTIONARY
  5
1495A
330
14959
100
AcDbDictionary
280
     1
281
     1
  3
ACAD_XREC_ROUNDTRIP
360
15617
  3
BUMPTILE
360
1495C
  3
DIFFUSETILE
360
1495B
  3
OPACITYTILE
360
1495F
  3
REFLECTIONTILE
360
1495E
  3
REFRACTIONTILE
360
14960
  3
SPECULARTILE
360
1495D
  0
DICTIONARY
  5
1564A
330
1498F
100
AcDbDictionary
280
     1
281
     1
  3
ACAD_XREC_ROUNDTRIP
360
1564B
  0
DICTIONARY
  5
149EB
330
14991
100
AcDbDictionary
280
     1
281
     1
  3
ACAD_XREC_ROUNDTRIP
360
1564C
  0
DICTIONARY
  5
15603
330
1497B
100
AcDbDictionary
280
     1
281
     1
  3
ACAD_ROUNDTRIP_2008_TABLESTYLE_CELLSTYLEMAP
360
15604
  3
ACAD_XREC_ROUNDTRIP
360
15648
  0
DICTIONARY
  5
15622
330
14967
100
AcDbDictionary
280
     1
281
     1
  3
ACAD_XREC_ROUNDTRIP
360
15623
  0
DICTIONARY
  5
15620
330
14966
100
AcDbDictionary
280
     1
281
     1
  3
ACAD_XREC_ROUNDTRIP
360
15621
  0
DICTIONARY
  5
1562E
330
1496D
100
AcDbDictionary
280
     1
281
     1
  3
ACAD_XREC_ROUNDTRIP
360
1562F
  0
DICTIONARY
  5
15636
330
14971
100
AcDbDictionary
280
     1
281
     1
  3
ACAD_XREC_ROUNDTRIP
360
15637
  0
DICTIONARY
  5
15628
330
1496A
100
AcDbDictionary
280
     1
281
     1
  3
ACAD_XREC_ROUNDTRIP
360
15629
  0
DICTIONARY
  5
1562C
330
1496C
100
AcDbDictionary
280
     1
281
     1
  3
ACAD_XREC_ROUNDTRIP
360
1562D
  0
DICTIONARY
  5
15646
330
14979
100
AcDbDictionary
280
     1
281
     1
  3
ACAD_XREC_ROUNDTRIP
360
15647
  0
DICTIONARY
  5
15634
330
14970
100
AcDbDictionary
280
     1
281
     1
  3
ACAD_XREC_ROUNDTRIP
360
15635
  0
DICTIONARY
  5
15618
330
14962
100
AcDbDictionary
280
     1
281
     1
  3
ACAD_XREC_ROUNDTRIP
360
15619
  0
DICTIONARY
  5
1561A
330
14963
100
AcDbDictionary
280
     1
281
     1
  3
ACAD_XREC_ROUNDTRIP
360
1561B
  0
DICTIONARY
  5
1561C
330
14964
100
AcDbDictionary
280
     1
281
     1
  3
ACAD_XREC_ROUNDTRIP
360
1561D
  0
DICTIONARY
  5
1561E
330
14965
100
AcDbDictionary
280
     1
281
     1
  3
ACAD_XREC_ROUNDTRIP
360
1561F
  0
DICTIONARY
  5
15626
330
14969
100
AcDbDictionary
280
     1
281
     1
  3
ACAD_XREC_ROUNDTRIP
360
15627
  0
DICTIONARY
  5
15642
330
14977
100
AcDbDictionary
280
     1
281
     1
  3
ACAD_XREC_ROUNDTRIP
360
15643
  0
DICTIONARY
  5
15632
330
1496F
100
AcDbDictionary
280
     1
281
     1
  3
ACAD_XREC_ROUNDTRIP
360
15633
  0
DICTIONARY
  5
15644
330
14978
100
AcDbDictionary
280
     1
281
     1
  3
ACAD_XREC_ROUNDTRIP
360
15645
  0
DICTIONARY
  5
1562A
330
1496B
100
AcDbDictionary
280
     1
281
     1
  3
ACAD_XREC_ROUNDTRIP
360
1562B
  0
DICTIONARY
  5
15640
330
14976
100
AcDbDictionary
280
     1
281
     1
  3
ACAD_XREC_ROUNDTRIP
360
15641
  0
DICTIONARY
  5
1563E
330
14975
100
AcDbDictionary
280
     1
281
     1
  3
ACAD_XREC_ROUNDTRIP
360
1563F
  0
DICTIONARY
  5
15638
330
14972
100
AcDbDictionary
280
     1
281
     1
  3
ACAD_XREC_ROUNDTRIP
360
15639
  0
DICTIONARY
  5
1563A
330
14973
100
AcDbDictionary
280
     1
281
     1
  3
ACAD_XREC_ROUNDTRIP
360
1563B
  0
DICTIONARY
  5
15630
330
1496E
100
AcDbDictionary
280
     1
281
     1
  3
ACAD_XREC_ROUNDTRIP
360
15631
  0
DICTIONARY
  5
15624
330
14968
100
AcDbDictionary
280
     1
281
     1
  3
ACAD_XREC_ROUNDTRIP
360
15625
  0
DICTIONARY
  5
1563C
330
14974
100
AcDbDictionary
280
     1
281
     1
  3
ACAD_XREC_ROUNDTRIP
360
1563D
  0
XRECORD
  5
15607
102
{ACAD_REACTORS
330
1560D
102
}
330
1560D
100
AcDbXrecord
280
     1
  1
AcDb_Thumbnail_Schema
102
{ATTRRECORD
341
15608
  2
AcDbDs::TreatedAsObjectData
280
     1
291
     1
102
ATTRRECORD}
102
{ATTRRECORD
341
15609
  2
AcDbDs::Legacy
280
     1
291
     1
102
ATTRRECORD}
  2
AcDbDs::ID
280
    10
 91
        8
102
{ATTRRECORD
341
1560A
  2
AcDs:Indexable
280
     1
291
     1
102
ATTRRECORD}
102
{ATTRRECORD
341
1560B
  2
AcDbDs::HandleAttribute
280
     7
282
     1
102
ATTRRECORD}
  2
Thumbnail_Data
280
    15
 91
        0
  0
XRECORD
  5
15608
102
{ACAD_REACTORS
330
1560D
102
}
330
1560D
100
AcDbXrecord
280
     1
  1
AcDbDs::TreatedAsObjectDataSchema
  2
AcDbDs::TreatedAsObjectData
280
     1
 91
        0
  0
XRECORD
  5
15609
102
{ACAD_REACTORS
330
1560D
102
}
330
1560D
100
AcDbXrecord
280
     1
  1
AcDbDs::LegacySchema
  2
AcDbDs::Legacy
280
     1
 91
        0
  0
XRECORD
  5
1560A
102
{ACAD_REACTORS
330
1560D
102
}
330
1560D
100
AcDbXrecord
280
     1
  1
AcDbDs::IndexedPropertySchema
  2
AcDs:Indexable
280
     1
 91
        0
  0
XRECORD
  5
1560B
102
{ACAD_REACTORS
330
1560D
102
}
330
1560D
100
AcDbXrecord
280
     1
  1
AcDbDs::HandleAttributeSchema
  2
AcDbDs::HandleAttribute
280
     7
 91
        1
284
     1
  0
XRECORD
  5
1564D
102
{ACAD_REACTORS
330
149ED
102
}
330
149ED
100
AcDbXrecord
280
     1
102
DISPLAYNAME
  1
Metric50
102
FLAGS
 90
        0
  0
XRECORD
  5
15612
102
{ACAD_REACTORS
330
15611
102
}
330
15611
100
AcDbXrecord
280
     1
102
SHADEPLOT
 70
     0
102
SHADEPLOTRESLEVEL
 70
     2
102
SHADEPLOTCUSTOMDPI
 70
   300
  0
XRECORD
  5
15614
102
{ACAD_REACTORS
330
15613
102
}
330
15613
100
AcDbXrecord
280
     1
102
SHADEPLOT
 70
     0
102
SHADEPLOTRESLEVEL
 70
     2
102
SHADEPLOTCUSTOMDPI
 70
   300
  0
XRECORD
  5
15616
102
{ACAD_REACTORS
330
14952
102
}
330
14952
100
AcDbXrecord
280
     1
102
MATERIAL
148
0.0
149
0.0
149
0.0
 93
        0
 94
      127
282
     0
 72
     0
 77
     0
171
     0
175
     0
179
     0
273
     0
  0
XRECORD
  5
14954
102
{ACAD_REACTORS
330
14952
102
}
330
14952
100
AcDbXrecord
280
     1
270
     1
271
     1
  0
XRECORD
  5
14953
102
{ACAD_REACTORS
330
14952
102
}
330
14952
100
AcDbXrecord
280
     1
270
     1
271
     1
  0
XRECORD
  5
14957
102
{ACAD_REACTORS
330
14952
102
}
330
14952
100
AcDbXrecord
280
     1
270
     1
271
     1
  0
XRECORD
  5
14956
102
{ACAD_REACTORS
330
14952
102
}
330
14952
100
AcDbXrecord
280
     1
270
     1
271
     1
  0
XRECORD
  5
14958
102
{ACAD_REACTORS
330
14952
102
}
330
14952
100
AcDbXrecord
280
     1
270
     1
271
     1
  0
XRECORD
  5
14955
102
{ACAD_REACTORS
330
14952
102
}
330
14952
100
AcDbXrecord
280
     1
270
     1
271
     1
  0
XRECORD
  5
15615
102
{ACAD_REACTORS
330
1494A
102
}
330
1494A
100
AcDbXrecord
280
     1
102
MATERIAL
148
0.0
149
0.0
149
0.0
 93
        0
 94
      127
282
     0
 72
     0
 77
     0
171
     0
175
     0
179
     0
273
     0
  0
XRECORD
  5
1494C
102
{ACAD_REACTORS
330
1494A
102
}
330
1494A
100
AcDbXrecord
280
     1
270
     1
271
     1
  0
XRECORD
  5
1494B
102
{ACAD_REACTORS
330
1494A
102
}
330
1494A
100
AcDbXrecord
280
     1
270
     1
271
     1
  0
XRECORD
  5
1494F
102
{ACAD_REACTORS
330
1494A
102
}
330
1494A
100
AcDbXrecord
280
     1
270
     1
271
     1
  0
XRECORD
  5
1494E
102
{ACAD_REACTORS
330
1494A
102
}
330
1494A
100
AcDbXrecord
280
     1
270
     1
271
     1
  0
XRECORD
  5
14950
102
{ACAD_REACTORS
330
1494A
102
}
330
1494A
100
AcDbXrecord
280
     1
270
     1
271
     1
  0
XRECORD
  5
1494D
102
{ACAD_REACTORS
330
1494A
102
}
330
1494A
100
AcDbXrecord
280
     1
270
     1
271
     1
  0
XRECORD
  5
15617
102
{ACAD_REACTORS
330
1495A
102
}
330
1495A
100
AcDbXrecord
280
     1
102
MATERIAL
148
0.0
149
0.0
149
0.0
 93
        0
 94
      127
282
     0
 72
     0
 77
     0
171
     0
175
     0
179
     0
273
     0
  0
XRECORD
  5
1495C
102
{ACAD_REACTORS
330
1495A
102
}
330
1495A
100
AcDbXrecord
280
     1
270
     1
271
     1
  0
XRECORD
  5
1495B
102
{ACAD_REACTORS
330
1495A
102
}
330
1495A
100
AcDbXrecord
280
     1
270
     1
271
     1
  0
XRECORD
  5
1495F
102
{ACAD_REACTORS
330
1495A
102
}
330
1495A
100
AcDbXrecord
280
     1
270
     1
271
     1
  0
XRECORD
  5
1495E
102
{ACAD_REACTORS
330
1495A
102
}
330
1495A
100
AcDbXrecord
280
     1
270
     1
271
     1
  0
XRECORD
  5
14960
102
{ACAD_REACTORS
330
1495A
102
}
330
1495A
100
AcDbXrecord
280
     1
270
     1
271
     1
  0
XRECORD
  5
1495D
102
{ACAD_REACTORS
330
1495A
102
}
330
1495A
100
AcDbXrecord
280
     1
270
     1
271
     1
  0
XRECORD
  5
1564B
102
{ACAD_REACTORS
330
1564A
102
}
330
1564A
100
AcDbXrecord
280
     1
102
ACAD_ROUNDTRIP_2012_MLEADER_STYLE
298
     1
  0
XRECORD
  5
1564C
102
{ACAD_REACTORS
330
149EB
102
}
330
149EB
100
AcDbXrecord
280
     1
102
DISPLAYNAME
  1
Metric50
102
FLAGS
 90
        0
  0
CELLSTYLEMAP
  5
15604
102
{ACAD_REACTORS
330
15603
102
}
330
15603
100
AcDbCellStyleMap
 90
        3
300
CELLSTYLE
  1
TABLEFORMAT_BEGIN
 90
        5
170
     1
 91
        0
 92
    32768
 62
   257
 93
        1
300
CONTENTFORMAT
  1
CONTENTFORMAT_BEGIN
 90
        0
 91
        0
 92
      512
 93
        0
300

 40
0.0
140
1.0
 94
        5
 62
     0
340
7475
144
6.0
309
CONTENTFORMAT_END
171
     1
301
MARGIN
  1
CELLMARGIN_BEGIN
 40
1.5
 40
1.5
 40
1.5
 40
1.5
 40
4.5
 40
4.5
309
CELLMARGIN_END
 94
        6
 95
        1
302
GRIDFORMAT
  1
GRIDFORMAT_BEGIN
 90
        0
 91
        1
 62
     0
 92
       -2
340
0
 93
        0
 40
1.125
309
GRIDFORMAT_END
 95
        2
302
GRIDFORMAT
  1
GRIDFORMAT_BEGIN
 90
        0
 91
        1
 62
     0
 92
       -2
340
0
 93
        0
 40
1.125
309
GRIDFORMAT_END
 95
        4
302
GRIDFORMAT
  1
GRIDFORMAT_BEGIN
 90
        0
 91
        1
 62
     0
 92
       -2
340
0
 93
        0
 40
1.125
309
GRIDFORMAT_END
 95
        8
302
GRIDFORMAT
  1
GRIDFORMAT_BEGIN
 90
        0
 91
        1
 62
     0
 92
       -2
340
0
 93
        0
 40
1.125
309
GRIDFORMAT_END
 95
       16
302
GRIDFORMAT
  1
GRIDFORMAT_BEGIN
 90
        0
 91
        1
 62
     0
 92
       -2
340
0
 93
        0
 40
1.125
309
GRIDFORMAT_END
 95
       32
302
GRIDFORMAT
  1
GRIDFORMAT_BEGIN
 90
        0
 91
        1
 62
     0
 92
       -2
340
0
 93
        0
 40
1.125
309
GRIDFORMAT_END
309
TABLEFORMAT_END
  1
CELLSTYLE_BEGIN
 90
        1
 91
        1
300
_TITLE
309
CELLSTYLE_END
300
CELLSTYLE
  1
TABLEFORMAT_BEGIN
 90
        5
170
     1
 91
        0
 92
        0
 62
   257
 93
        1
300
CONTENTFORMAT
  1
CONTENTFORMAT_BEGIN
 90
        0
 91
        0
 92
      512
 93
        0
300

 40
0.0
140
1.0
 94
        5
 62
     0
340
7475
144
4.5
309
CONTENTFORMAT_END
171
     1
301
MARGIN
  1
CELLMARGIN_BEGIN
 40
1.5
 40
1.5
 40
1.5
 40
1.5
 40
4.5
 40
4.5
309
CELLMARGIN_END
 94
        6
 95
        1
302
GRIDFORMAT
  1
GRIDFORMAT_BEGIN
 90
        0
 91
        1
 62
     0
 92
       -2
340
0
 93
        0
 40
1.125
309
GRIDFORMAT_END
 95
        2
302
GRIDFORMAT
  1
GRIDFORMAT_BEGIN
 90
        0
 91
        1
 62
     0
 92
       -2
340
0
 93
        0
 40
1.125
309
GRIDFORMAT_END
 95
        4
302
GRIDFORMAT
  1
GRIDFORMAT_BEGIN
 90
        0
 91
        1
 62
     0
 92
       -2
340
0
 93
        0
 40
1.125
309
GRIDFORMAT_END
 95
        8
302
GRIDFORMAT
  1
GRIDFORMAT_BEGIN
 90
        0
 91
        1
 62
     0
 92
       -2
340
0
 93
        0
 40
1.125
309
GRIDFORMAT_END
 95
       16
302
GRIDFORMAT
  1
GRIDFORMAT_BEGIN
 90
        0
 91
        1
 62
     0
 92
       -2
340
0
 93
        0
 40
1.125
309
GRIDFORMAT_END
 95
       32
302
GRIDFORMAT
  1
GRIDFORMAT_BEGIN
 90
        0
 91
        1
 62
     0
 92
       -2
340
0
 93
        0
 40
1.125
309
GRIDFORMAT_END
309
TABLEFORMAT_END
  1
CELLSTYLE_BEGIN
 90
        2
 91
        1
300
_HEADER
309
CELLSTYLE_END
300
CELLSTYLE
  1
TABLEFORMAT_BEGIN
 90
        5
170
     1
 91
        0
 92
        0
 62
   257
 93
        1
300
CONTENTFORMAT
  1
CONTENTFORMAT_BEGIN
 90
        0
 91
        0
 92
      512
 93
        0
300

 40
0.0
140
1.0
 94
        2
 62
     0
340
7475
144
4.5
309
CONTENTFORMAT_END
171
     1
301
MARGIN
  1
CELLMARGIN_BEGIN
 40
1.5
 40
1.5
 40
1.5
 40
1.5
 40
4.5
 40
4.5
309
CELLMARGIN_END
 94
        6
 95
        1
302
GRIDFORMAT
  1
GRIDFORMAT_BEGIN
 90
        0
 91
        1
 62
     0
 92
       -2
340
0
 93
        0
 40
1.125
309
GRIDFORMAT_END
 95
        2
302
GRIDFORMAT
  1
GRIDFORMAT_BEGIN
 90
        0
 91
        1
 62
     0
 92
       -2
340
0
 93
        0
 40
1.125
309
GRIDFORMAT_END
 95
        4
302
GRIDFORMAT
  1
GRIDFORMAT_BEGIN
 90
        0
 91
        1
 62
     0
 92
       -2
340
0
 93
        0
 40
1.125
309
GRIDFORMAT_END
 95
        8
302
GRIDFORMAT
  1
GRIDFORMAT_BEGIN
 90
        0
 91
        1
 62
     0
 92
       -2
340
0
 93
        0
 40
1.125
309
GRIDFORMAT_END
 95
       16
302
GRIDFORMAT
  1
GRIDFORMAT_BEGIN
 90
        0
 91
        1
 62
     0
 92
       -2
340
0
 93
        0
 40
1.125
309
GRIDFORMAT_END
 95
       32
302
GRIDFORMAT
  1
GRIDFORMAT_BEGIN
 90
        0
 91
        1
 62
     0
 92
       -2
340
0
 93
        0
 40
1.125
309
GRIDFORMAT_END
309
TABLEFORMAT_END
  1
CELLSTYLE_BEGIN
 90
        3
 91
        2
300
_DATA
309
CELLSTYLE_END
  0
XRECORD
  5
15648
102
{ACAD_REACTORS
330
15603
102
}
330
15603
100
AcDbXrecord
280
     1
102
ACAD_ROUNDTRIP_PRE2007_TABLESTYLE
 90
      512
 91
        0
  1

 92
      512
 93
        0
  2

 94
      512
 95
        0
  3

  0
XRECORD
  5
15623
102
{ACAD_REACTORS
330
15622
102
}
330
15622
100
AcDbXrecord
280
     1
102
RTVSPost2010Prop28
280
     1
102
RTVSPost2010PropOp28
 70
     1
102
RTVSPost2010Prop29
280
     1
102
RTVSPost2010PropOp29
 70
     1
102
RTVSPost2010Prop30
280
     0
102
RTVSPost2010PropOp30
 70
     1
102
RTVSPost2010Prop31
280
     0
102
RTVSPost2010PropOp31
 70
     1
102
RTVSPost2010Prop32
280
     0
102
RTVSPost2010PropOp32
 70
     1
102
RTVSPost2010Prop33
280
     0
102
RTVSPost2010PropOp33
 70
     1
102
RTVSPost2010Prop34
280
     0
102
RTVSPost2010PropOp34
 70
     1
102
RTVSPost2010Prop35
280
     0
102
RTVSPost2010PropOp35
 70
     1
102
RTVSPost2010Prop36
280
     0
102
RTVSPost2010PropOp36
 70
     1
102
RTVSPost2010Prop37
 90
       50
102
RTVSPost2010PropOp37
 70
     1
102
RTVSPost2010Prop38
140
0.0
102
RTVSPost2010PropOp38
 70
     1
102
RTVSPost2010Prop39
140
1.0
102
RTVSPost2010PropOp39
 70
     1
102
RTVSPost2010Prop40
 90
        0
102
RTVSPost2010PropOp40
 70
     1
102
RTVSPost2010Prop41ColorIndex
 90
       18
102
RTVSPost2010Prop41ColorRGB
 90
        0
102
RTVSPost2010PropOp41
 70
     1
102
RTVSPost2010Prop42
 90
       50
102
RTVSPost2010PropOp42
 70
     1
102
RTVSPost2010Prop43
 90
        3
102
RTVSPost2010PropOp43
 70
     1
102
RTVSPost2010Prop44ColorIndex
 90
        5
102
RTVSPost2010Prop44ColorRGB
 90
      255
102
RTVSPost2010PropOp44
 70
     1
102
RTVSPost2010Prop45
280
     0
102
RTVSPost2010PropOp45
 70
     1
102
RTVSPost2010Prop46
 90
       50
102
RTVSPost2010PropOp46
 70
     1
102
RTVSPost2010Prop47
 90
       50
102
RTVSPost2010PropOp47
 70
     1
102
RTVSPost2010Prop48
 90
       50
102
RTVSPost2010PropOp48
 70
     1
102
RTVSPost2010Prop49
280
     0
102
RTVSPost2010PropOp49
 70
     1
102
RTVSPost2010Prop50
 90
       50
102
RTVSPost2010PropOp50
 70
     1
102
RTVSPost2010Prop51ColorIndex
 90
      256
102
RTVSPost2010Prop51ColorRGB
 90
-16777216
102
RTVSPost2010PropOp51
 70
     0
102
RTVSPost2010Prop52
140
1.0
102
RTVSPost2010PropOp52
 70
     0
102
RTVSPost2010Prop53
 90
        2
102
RTVSPost2010PropOp53
 70
     1
102
RTVSPost2010Prop54
  1
strokes_ogs.tif
102
RTVSPost2010PropOp54
 70
     1
102
RTVSPost2010Prop55
280
     0
102
RTVSPost2010PropOp55
 70
     1
102
RTVSPost2010Prop56
140
1.0
102
RTVSPost2010PropOp56
 70
     1
102
RTVSPost2010Prop57
140
1.0
102
RTVSPost2010PropOp57
 70
     1
102
RTVSPropertyOp0
 70
     1
102
RTVSPropertyOp1
 70
     1
102
RTVSPropertyOp2
 70
     1
102
RTVSPropertyOp3
 70
     1
102
RTVSPropertyOp4
 70
     1
102
RTVSPropertyOp5
 70
     1
102
RTVSPropertyOp6
 70
     1
102
RTVSPropertyOp7
 70
     1
102
RTVSPropertyOp8
 70
     1
102
RTVSPropertyOp9
 70
     1
102
RTVSPropertyOp10
 70
     1
102
RTVSPropertyOp11
 70
     1
102
RTVSPropertyOp12
 70
     1
102
RTVSPropertyOp13
 70
     1
102
RTVSPropertyOp14
 70
     1
102
RTVSPropertyOp15
 70
     1
102
RTVSPropertyOp16
 70
     1
102
RTVSPropertyOp17
 70
     1
102
RTVSPropertyOp18
 70
     1
102
RTVSPropertyOp19
 70
     1
102
RTVSPropertyOp20
 70
     1
102
RTVSPropertyOp21
 70
     1
102
RTVSPropertyOp22
 70
     1
102
RTVSPropertyOp23
 70
     1
102
RTVSPropertyOp24
 70
     1
102
RTVSPropertyOp25
 70
     1
102
RTVSPropertyOp26
 70
     1
102
RTVSPropertyOp27
 70
     1
102
RTVSPropertyOp28
 70
     1
102
RTVSPropertyOp29
 70
     1
102
RTVSPropertyOp30
 70
     1
102
RTVSPropertyOp31
 70
     1
102
RTVSPropertyOp32
 70
     1
102
RTVSPropertyOp33
 70
     1
102
RTVSPropertyOp34
 70
     1
102
RTVSPropertyOp35
 70
     1
102
RTVSPropertyOp36
 70
     1
102
RTVSPropertyOp37
 70
     1
102
RTVSPropertyOp38
 70
     1
102
RTVSPropertyOp39
 70
     1
102
RTVSPropertyOp40
 70
     1
102
RTVSPropertyOp41
 70
     1
102
RTVSPropertyOp42
 70
     1
102
RTVSPropertyOp43
 70
     1
102
RTVSPropertyOp44
 70
     1
102
RTVSPropertyOp45
 70
     1
102
RTVSPropertyOp46
 70
     1
102
RTVSPropertyOp47
 70
     1
102
RTVSPropertyOp48
 70
     1
102
RTVSPropertyOp49
 70
     1
102
RTVSPropertyOp50
 70
     1
102
RTVSPropertyOp51
 70
     0
102
RTVSPropertyOp52
 70
     0
102
RTVSPropertyOp53
 70
     1
102
RTVSPropertyOp54
 70
     1
102
RTVSPropertyOp55
 70
     1
102
RTVSPropertyOp56
 70
     1
102
RTVSPropertyOp57
 70
     1
102
RTVSPropertyOp58
 70
     1
102
RTVSPropertyOp59
 70
     1
102
RTVSPropertyOp60
 70
     1
102
RTVSPropertyOp61
 70
     1
102
RTVSPropertyOp62
 70
     1
  0
XRECORD
  5
15621
102
{ACAD_REACTORS
330
15620
102
}
330
15620
100
AcDbXrecord
280
     1
102
RTVSPost2010Prop28
280
     0
102
RTVSPost2010PropOp28
 70
     1
102
RTVSPost2010Prop29
280
     1
102
RTVSPost2010PropOp29
 70
     1
102
RTVSPost2010Prop30
280
     1
102
RTVSPost2010PropOp30
 70
     1
102
RTVSPost2010Prop31
280
     0
102
RTVSPost2010PropOp31
 70
     1
102
RTVSPost2010Prop32
280
     0
102
RTVSPost2010PropOp32
 70
     1
102
RTVSPost2010Prop33
280
     0
102
RTVSPost2010PropOp33
 70
     1
102
RTVSPost2010Prop34
280
     0
102
RTVSPost2010PropOp34
 70
     1
102
RTVSPost2010Prop35
280
     0
102
RTVSPost2010PropOp35
 70
     1
102
RTVSPost2010Prop36
280
     0
102
RTVSPost2010PropOp36
 70
     1
102
RTVSPost2010Prop37
 90
       50
102
RTVSPost2010PropOp37
 70
     1
102
RTVSPost2010Prop38
140
0.0
102
RTVSPost2010PropOp38
 70
     1
102
RTVSPost2010Prop39
140
1.0
102
RTVSPost2010PropOp39
 70
     1
102
RTVSPost2010Prop40
 90
        0
102
RTVSPost2010PropOp40
 70
     1
102
RTVSPost2010Prop41ColorIndex
 90
       18
102
RTVSPost2010Prop41ColorRGB
 90
        0
102
RTVSPost2010PropOp41
 70
     1
102
RTVSPost2010Prop42
 90
       50
102
RTVSPost2010PropOp42
 70
     1
102
RTVSPost2010Prop43
 90
        3
102
RTVSPost2010PropOp43
 70
     1
102
RTVSPost2010Prop44ColorIndex
 90
        5
102
RTVSPost2010Prop44ColorRGB
 90
      255
102
RTVSPost2010PropOp44
 70
     1
102
RTVSPost2010Prop45
280
     0
102
RTVSPost2010PropOp45
 70
     1
102
RTVSPost2010Prop46
 90
       50
102
RTVSPost2010PropOp46
 70
     1
102
RTVSPost2010Prop47
 90
       50
102
RTVSPost2010PropOp47
 70
     1
102
RTVSPost2010Prop48
 90
       50
102
RTVSPost2010PropOp48
 70
     1
102
RTVSPost2010Prop49
280
     0
102
RTVSPost2010PropOp49
 70
     1
102
RTVSPost2010Prop50
 90
       50
102
RTVSPost2010PropOp50
 70
     1
102
RTVSPost2010Prop51ColorIndex
 90
      256
102
RTVSPost2010Prop51ColorRGB
 90
-16777216
102
RTVSPost2010PropOp51
 70
     0
102
RTVSPost2010Prop52
140
1.0
102
RTVSPost2010PropOp52
 70
     0
102
RTVSPost2010Prop53
 90
        2
102
RTVSPost2010PropOp53
 70
     1
102
RTVSPost2010Prop54
  1
strokes_ogs.tif
102
RTVSPost2010PropOp54
 70
     1
102
RTVSPost2010Prop55
280
     0
102
RTVSPost2010PropOp55
 70
     1
102
RTVSPost2010Prop56
140
1.0
102
RTVSPost2010PropOp56
 70
     1
102
RTVSPost2010Prop57
140
1.0
102
RTVSPost2010PropOp57
 70
     1
102
RTVSPropertyOp0
 70
     1
102
RTVSPropertyOp1
 70
     1
102
RTVSPropertyOp2
 70
     1
102
RTVSPropertyOp3
 70
     1
102
RTVSPropertyOp4
 70
     1
102
RTVSPropertyOp5
 70
     1
102
RTVSPropertyOp6
 70
     1
102
RTVSPropertyOp7
 70
     1
102
RTVSPropertyOp8
 70
     1
102
RTVSPropertyOp9
 70
     1
102
RTVSPropertyOp10
 70
     1
102
RTVSPropertyOp11
 70
     1
102
RTVSPropertyOp12
 70
     1
102
RTVSPropertyOp13
 70
     1
102
RTVSPropertyOp14
 70
     1
102
RTVSPropertyOp15
 70
     1
102
RTVSPropertyOp16
 70
     1
102
RTVSPropertyOp17
 70
     1
102
RTVSPropertyOp18
 70
     1
102
RTVSPropertyOp19
 70
     1
102
RTVSPropertyOp20
 70
     1
102
RTVSPropertyOp21
 70
     1
102
RTVSPropertyOp22
 70
     1
102
RTVSPropertyOp23
 70
     1
102
RTVSPropertyOp24
 70
     1
102
RTVSPropertyOp25
 70
     1
102
RTVSPropertyOp26
 70
     1
102
RTVSPropertyOp27
 70
     1
102
RTVSPropertyOp28
 70
     1
102
RTVSPropertyOp29
 70
     1
102
RTVSPropertyOp30
 70
     1
102
RTVSPropertyOp31
 70
     1
102
RTVSPropertyOp32
 70
     1
102
RTVSPropertyOp33
 70
     1
102
RTVSPropertyOp34
 70
     1
102
RTVSPropertyOp35
 70
     1
102
RTVSPropertyOp36
 70
     1
102
RTVSPropertyOp37
 70
     1
102
RTVSPropertyOp38
 70
     1
102
RTVSPropertyOp39
 70
     1
102
RTVSPropertyOp40
 70
     1
102
RTVSPropertyOp41
 70
     1
102
RTVSPropertyOp42
 70
     1
102
RTVSPropertyOp43
 70
     1
102
RTVSPropertyOp44
 70
     1
102
RTVSPropertyOp45
 70
     1
102
RTVSPropertyOp46
 70
     1
102
RTVSPropertyOp47
 70
     1
102
RTVSPropertyOp48
 70
     1
102
RTVSPropertyOp49
 70
     1
102
RTVSPropertyOp50
 70
     1
102
RTVSPropertyOp51
 70
     0
102
RTVSPropertyOp52
 70
     0
102
RTVSPropertyOp53
 70
     1
102
RTVSPropertyOp54
 70
     1
102
RTVSPropertyOp55
 70
     1
102
RTVSPropertyOp56
 70
     1
102
RTVSPropertyOp57
 70
     1
102
RTVSPropertyOp58
 70
     1
102
RTVSPropertyOp59
 70
     1
102
RTVSPropertyOp60
 70
     1
102
RTVSPropertyOp61
 70
     1
102
RTVSPropertyOp62
 70
     1
  0
XRECORD
  5
1562F
102
{ACAD_REACTORS
330
1562E
102
}
330
1562E
100
AcDbXrecord
280
     1
102
RTVSPost2010Prop28
280
     0
102
RTVSPost2010PropOp28
 70
     1
102
RTVSPost2010Prop29
280
     1
102
RTVSPost2010PropOp29
 70
     1
102
RTVSPost2010Prop30
280
     1
102
RTVSPost2010PropOp30
 70
     1
102
RTVSPost2010Prop31
280
     0
102
RTVSPost2010PropOp31
 70
     1
102
RTVSPost2010Prop32
280
     0
102
RTVSPost2010PropOp32
 70
     1
102
RTVSPost2010Prop33
280
     0
102
RTVSPost2010PropOp33
 70
     1
102
RTVSPost2010Prop34
280
     0
102
RTVSPost2010PropOp34
 70
     1
102
RTVSPost2010Prop35
280
     0
102
RTVSPost2010PropOp35
 70
     1
102
RTVSPost2010Prop36
280
     0
102
RTVSPost2010PropOp36
 70
     1
102
RTVSPost2010Prop37
 90
       50
102
RTVSPost2010PropOp37
 70
     1
102
RTVSPost2010Prop38
140
0.0
102
RTVSPost2010PropOp38
 70
     1
102
RTVSPost2010Prop39
140
1.0
102
RTVSPost2010PropOp39
 70
     1
102
RTVSPost2010Prop40
 90
        0
102
RTVSPost2010PropOp40
 70
     1
102
RTVSPost2010Prop41ColorIndex
 90
       18
102
RTVSPost2010Prop41ColorRGB
 90
        0
102
RTVSPost2010PropOp41
 70
     1
102
RTVSPost2010Prop42
 90
       50
102
RTVSPost2010PropOp42
 70
     1
102
RTVSPost2010Prop43
 90
        3
102
RTVSPost2010PropOp43
 70
     1
102
RTVSPost2010Prop44ColorIndex
 90
        5
102
RTVSPost2010Prop44ColorRGB
 90
      255
102
RTVSPost2010PropOp44
 70
     1
102
RTVSPost2010Prop45
280
     0
102
RTVSPost2010PropOp45
 70
     1
102
RTVSPost2010Prop46
 90
       50
102
RTVSPost2010PropOp46
 70
     1
102
RTVSPost2010Prop47
 90
       50
102
RTVSPost2010PropOp47
 70
     1
102
RTVSPost2010Prop48
 90
       50
102
RTVSPost2010PropOp48
 70
     1
102
RTVSPost2010Prop49
280
     0
102
RTVSPost2010PropOp49
 70
     1
102
RTVSPost2010Prop50
 90
       50
102
RTVSPost2010PropOp50
 70
     1
102
RTVSPost2010Prop51ColorIndex
 90
      256
102
RTVSPost2010Prop51ColorRGB
 90
-16777216
102
RTVSPost2010PropOp51
 70
     0
102
RTVSPost2010Prop52
140
1.0
102
RTVSPost2010PropOp52
 70
     0
102
RTVSPost2010Prop53
 90
        2
102
RTVSPost2010PropOp53
 70
     1
102
RTVSPost2010Prop54
  1
strokes_ogs.tif
102
RTVSPost2010PropOp54
 70
     1
102
RTVSPost2010Prop55
280
     0
102
RTVSPost2010PropOp55
 70
     1
102
RTVSPost2010Prop56
140
1.0
102
RTVSPost2010PropOp56
 70
     1
102
RTVSPost2010Prop57
140
1.0
102
RTVSPost2010PropOp57
 70
     1
102
RTVSPropertyOp0
 70
     1
102
RTVSPropertyOp1
 70
     1
102
RTVSPropertyOp2
 70
     1
102
RTVSPropertyOp3
 70
     1
102
RTVSPropertyOp4
 70
     1
102
RTVSPropertyOp5
 70
     1
102
RTVSPropertyOp6
 70
     1
102
RTVSPropertyOp7
 70
     1
102
RTVSPropertyOp8
 70
     1
102
RTVSPropertyOp9
 70
     1
102
RTVSPropertyOp10
 70
     1
102
RTVSPropertyOp11
 70
     1
102
RTVSPropertyOp12
 70
     1
102
RTVSPropertyOp13
 70
     1
102
RTVSPropertyOp14
 70
     1
102
RTVSPropertyOp15
 70
     1
102
RTVSPropertyOp16
 70
     1
102
RTVSPropertyOp17
 70
     1
102
RTVSPropertyOp18
 70
     1
102
RTVSPropertyOp19
 70
     1
102
RTVSPropertyOp20
 70
     1
102
RTVSPropertyOp21
 70
     1
102
RTVSPropertyOp22
 70
     1
102
RTVSPropertyOp23
 70
     1
102
RTVSPropertyOp24
 70
     1
102
RTVSPropertyOp25
 70
     1
102
RTVSPropertyOp26
 70
     1
102
RTVSPropertyOp27
 70
     1
102
RTVSPropertyOp28
 70
     1
102
RTVSPropertyOp29
 70
     1
102
RTVSPropertyOp30
 70
     1
102
RTVSPropertyOp31
 70
     1
102
RTVSPropertyOp32
 70
     1
102
RTVSPropertyOp33
 70
     1
102
RTVSPropertyOp34
 70
     1
102
RTVSPropertyOp35
 70
     1
102
RTVSPropertyOp36
 70
     1
102
RTVSPropertyOp37
 70
     1
102
RTVSPropertyOp38
 70
     1
102
RTVSPropertyOp39
 70
     1
102
RTVSPropertyOp40
 70
     1
102
RTVSPropertyOp41
 70
     1
102
RTVSPropertyOp42
 70
     1
102
RTVSPropertyOp43
 70
     1
102
RTVSPropertyOp44
 70
     1
102
RTVSPropertyOp45
 70
     1
102
RTVSPropertyOp46
 70
     1
102
RTVSPropertyOp47
 70
     1
102
RTVSPropertyOp48
 70
     1
102
RTVSPropertyOp49
 70
     1
102
RTVSPropertyOp50
 70
     1
102
RTVSPropertyOp51
 70
     0
102
RTVSPropertyOp52
 70
     0
102
RTVSPropertyOp53
 70
     1
102
RTVSPropertyOp54
 70
     1
102
RTVSPropertyOp55
 70
     1
102
RTVSPropertyOp56
 70
     1
102
RTVSPropertyOp57
 70
     1
102
RTVSPropertyOp58
 70
     1
102
RTVSPropertyOp59
 70
     1
102
RTVSPropertyOp60
 70
     1
102
RTVSPropertyOp61
 70
     1
102
RTVSPropertyOp62
 70
     1
  0
XRECORD
  5
15637
102
{ACAD_REACTORS
330
15636
102
}
330
15636
100
AcDbXrecord
280
     1
102
RTVSPost2010Prop28
280
     0
102
RTVSPost2010PropOp28
 70
     1
102
RTVSPost2010Prop29
280
     1
102
RTVSPost2010PropOp29
 70
     1
102
RTVSPost2010Prop30
280
     1
102
RTVSPost2010PropOp30
 70
     1
102
RTVSPost2010Prop31
280
     0
102
RTVSPost2010PropOp31
 70
     1
102
RTVSPost2010Prop32
280
     0
102
RTVSPost2010PropOp32
 70
     1
102
RTVSPost2010Prop33
280
     0
102
RTVSPost2010PropOp33
 70
     1
102
RTVSPost2010Prop34
280
     0
102
RTVSPost2010PropOp34
 70
     1
102
RTVSPost2010Prop35
280
     0
102
RTVSPost2010PropOp35
 70
     1
102
RTVSPost2010Prop36
280
     0
102
RTVSPost2010PropOp36
 70
     1
102
RTVSPost2010Prop37
 90
       50
102
RTVSPost2010PropOp37
 70
     1
102
RTVSPost2010Prop38
140
0.0
102
RTVSPost2010PropOp38
 70
     1
102
RTVSPost2010Prop39
140
1.0
102
RTVSPost2010PropOp39
 70
     1
102
RTVSPost2010Prop40
 90
        0
102
RTVSPost2010PropOp40
 70
     1
102
RTVSPost2010Prop41ColorIndex
 90
       18
102
RTVSPost2010Prop41ColorRGB
 90
        0
102
RTVSPost2010PropOp41
 70
     1
102
RTVSPost2010Prop42
 90
       50
102
RTVSPost2010PropOp42
 70
     1
102
RTVSPost2010Prop43
 90
        3
102
RTVSPost2010PropOp43
 70
     1
102
RTVSPost2010Prop44ColorIndex
 90
        5
102
RTVSPost2010Prop44ColorRGB
 90
      255
102
RTVSPost2010PropOp44
 70
     1
102
RTVSPost2010Prop45
280
     0
102
RTVSPost2010PropOp45
 70
     1
102
RTVSPost2010Prop46
 90
       50
102
RTVSPost2010PropOp46
 70
     1
102
RTVSPost2010Prop47
 90
       50
102
RTVSPost2010PropOp47
 70
     1
102
RTVSPost2010Prop48
 90
       50
102
RTVSPost2010PropOp48
 70
     1
102
RTVSPost2010Prop49
280
     0
102
RTVSPost2010PropOp49
 70
     1
102
RTVSPost2010Prop50
 90
       50
102
RTVSPost2010PropOp50
 70
     1
102
RTVSPost2010Prop51ColorIndex
 90
      256
102
RTVSPost2010Prop51ColorRGB
 90
-16777216
102
RTVSPost2010PropOp51
 70
     0
102
RTVSPost2010Prop52
140
1.0
102
RTVSPost2010PropOp52
 70
     0
102
RTVSPost2010Prop53
 90
        2
102
RTVSPost2010PropOp53
 70
     1
102
RTVSPost2010Prop54
  1
strokes_ogs.tif
102
RTVSPost2010PropOp54
 70
     1
102
RTVSPost2010Prop55
280
     0
102
RTVSPost2010PropOp55
 70
     1
102
RTVSPost2010Prop56
140
1.0
102
RTVSPost2010PropOp56
 70
     1
102
RTVSPost2010Prop57
140
1.0
102
RTVSPost2010PropOp57
 70
     1
102
RTVSPropertyOp0
 70
     1
102
RTVSPropertyOp1
 70
     1
102
RTVSPropertyOp2
 70
     1
102
RTVSPropertyOp3
 70
     1
102
RTVSPropertyOp4
 70
     1
102
RTVSPropertyOp5
 70
     1
102
RTVSPropertyOp6
 70
     1
102
RTVSPropertyOp7
 70
     1
102
RTVSPropertyOp8
 70
     1
102
RTVSPropertyOp9
 70
     1
102
RTVSPropertyOp10
 70
     1
102
RTVSPropertyOp11
 70
     1
102
RTVSPropertyOp12
 70
     1
102
RTVSPropertyOp13
 70
     1
102
RTVSPropertyOp14
 70
     1
102
RTVSPropertyOp15
 70
     1
102
RTVSPropertyOp16
 70
     1
102
RTVSPropertyOp17
 70
     1
102
RTVSPropertyOp18
 70
     1
102
RTVSPropertyOp19
 70
     1
102
RTVSPropertyOp20
 70
     1
102
RTVSPropertyOp21
 70
     1
102
RTVSPropertyOp22
 70
     1
102
RTVSPropertyOp23
 70
     1
102
RTVSPropertyOp24
 70
     1
102
RTVSPropertyOp25
 70
     1
102
RTVSPropertyOp26
 70
     1
102
RTVSPropertyOp27
 70
     1
102
RTVSPropertyOp28
 70
     1
102
RTVSPropertyOp29
 70
     1
102
RTVSPropertyOp30
 70
     1
102
RTVSPropertyOp31
 70
     1
102
RTVSPropertyOp32
 70
     1
102
RTVSPropertyOp33
 70
     1
102
RTVSPropertyOp34
 70
     1
102
RTVSPropertyOp35
 70
     1
102
RTVSPropertyOp36
 70
     1
102
RTVSPropertyOp37
 70
     1
102
RTVSPropertyOp38
 70
     1
102
RTVSPropertyOp39
 70
     1
102
RTVSPropertyOp40
 70
     1
102
RTVSPropertyOp41
 70
     1
102
RTVSPropertyOp42
 70
     1
102
RTVSPropertyOp43
 70
     1
102
RTVSPropertyOp44
 70
     1
102
RTVSPropertyOp45
 70
     1
102
RTVSPropertyOp46
 70
     1
102
RTVSPropertyOp47
 70
     1
102
RTVSPropertyOp48
 70
     1
102
RTVSPropertyOp49
 70
     1
102
RTVSPropertyOp50
 70
     1
102
RTVSPropertyOp51
 70
     0
102
RTVSPropertyOp52
 70
     0
102
RTVSPropertyOp53
 70
     1
102
RTVSPropertyOp54
 70
     1
102
RTVSPropertyOp55
 70
     1
102
RTVSPropertyOp56
 70
     1
102
RTVSPropertyOp57
 70
     1
102
RTVSPropertyOp58
 70
     1
102
RTVSPropertyOp59
 70
     1
102
RTVSPropertyOp60
 70
     1
102
RTVSPropertyOp61
 70
     1
102
RTVSPropertyOp62
 70
     1
  0
XRECORD
  5
15629
102
{ACAD_REACTORS
330
15628
102
}
330
15628
100
AcDbXrecord
280
     1
102
RTVSPost2010Prop28
280
     0
102
RTVSPost2010PropOp28
 70
     1
102
RTVSPost2010Prop29
280
     1
102
RTVSPost2010PropOp29
 70
     1
102
RTVSPost2010Prop30
280
     1
102
RTVSPost2010PropOp30
 70
     1
102
RTVSPost2010Prop31
280
     0
102
RTVSPost2010PropOp31
 70
     1
102
RTVSPost2010Prop32
280
     0
102
RTVSPost2010PropOp32
 70
     1
102
RTVSPost2010Prop33
280
     0
102
RTVSPost2010PropOp33
 70
     1
102
RTVSPost2010Prop34
280
     0
102
RTVSPost2010PropOp34
 70
     1
102
RTVSPost2010Prop35
280
     0
102
RTVSPost2010PropOp35
 70
     1
102
RTVSPost2010Prop36
280
     0
102
RTVSPost2010PropOp36
 70
     1
102
RTVSPost2010Prop37
 90
       50
102
RTVSPost2010PropOp37
 70
     1
102
RTVSPost2010Prop38
140
0.0
102
RTVSPost2010PropOp38
 70
     1
102
RTVSPost2010Prop39
140
1.0
102
RTVSPost2010PropOp39
 70
     1
102
RTVSPost2010Prop40
 90
        0
102
RTVSPost2010PropOp40
 70
     1
102
RTVSPost2010Prop41ColorIndex
 90
       18
102
RTVSPost2010Prop41ColorRGB
 90
        0
102
RTVSPost2010PropOp41
 70
     1
102
RTVSPost2010Prop42
 90
       50
102
RTVSPost2010PropOp42
 70
     1
102
RTVSPost2010Prop43
 90
        3
102
RTVSPost2010PropOp43
 70
     1
102
RTVSPost2010Prop44ColorIndex
 90
        5
102
RTVSPost2010Prop44ColorRGB
 90
      255
102
RTVSPost2010PropOp44
 70
     1
102
RTVSPost2010Prop45
280
     0
102
RTVSPost2010PropOp45
 70
     1
102
RTVSPost2010Prop46
 90
       50
102
RTVSPost2010PropOp46
 70
     1
102
RTVSPost2010Prop47
 90
       50
102
RTVSPost2010PropOp47
 70
     1
102
RTVSPost2010Prop48
 90
       50
102
RTVSPost2010PropOp48
 70
     1
102
RTVSPost2010Prop49
280
     0
102
RTVSPost2010PropOp49
 70
     1
102
RTVSPost2010Prop50
 90
       50
102
RTVSPost2010PropOp50
 70
     1
102
RTVSPost2010Prop51ColorIndex
 90
      256
102
RTVSPost2010Prop51ColorRGB
 90
-16777216
102
RTVSPost2010PropOp51
 70
     0
102
RTVSPost2010Prop52
140
1.0
102
RTVSPost2010PropOp52
 70
     0
102
RTVSPost2010Prop53
 90
        2
102
RTVSPost2010PropOp53
 70
     1
102
RTVSPost2010Prop54
  1
strokes_ogs.tif
102
RTVSPost2010PropOp54
 70
     1
102
RTVSPost2010Prop55
280
     0
102
RTVSPost2010PropOp55
 70
     1
102
RTVSPost2010Prop56
140
1.0
102
RTVSPost2010PropOp56
 70
     1
102
RTVSPost2010Prop57
140
1.0
102
RTVSPost2010PropOp57
 70
     1
102
RTVSPropertyOp0
 70
     1
102
RTVSPropertyOp1
 70
     1
102
RTVSPropertyOp2
 70
     1
102
RTVSPropertyOp3
 70
     1
102
RTVSPropertyOp4
 70
     1
102
RTVSPropertyOp5
 70
     1
102
RTVSPropertyOp6
 70
     1
102
RTVSPropertyOp7
 70
     1
102
RTVSPropertyOp8
 70
     1
102
RTVSPropertyOp9
 70
     1
102
RTVSPropertyOp10
 70
     1
102
RTVSPropertyOp11
 70
     1
102
RTVSPropertyOp12
 70
     1
102
RTVSPropertyOp13
 70
     1
102
RTVSPropertyOp14
 70
     1
102
RTVSPropertyOp15
 70
     1
102
RTVSPropertyOp16
 70
     1
102
RTVSPropertyOp17
 70
     1
102
RTVSPropertyOp18
 70
     1
102
RTVSPropertyOp19
 70
     1
102
RTVSPropertyOp20
 70
     1
102
RTVSPropertyOp21
 70
     1
102
RTVSPropertyOp22
 70
     1
102
RTVSPropertyOp23
 70
     1
102
RTVSPropertyOp24
 70
     1
102
RTVSPropertyOp25
 70
     1
102
RTVSPropertyOp26
 70
     1
102
RTVSPropertyOp27
 70
     1
102
RTVSPropertyOp28
 70
     1
102
RTVSPropertyOp29
 70
     1
102
RTVSPropertyOp30
 70
     1
102
RTVSPropertyOp31
 70
     1
102
RTVSPropertyOp32
 70
     1
102
RTVSPropertyOp33
 70
     1
102
RTVSPropertyOp34
 70
     1
102
RTVSPropertyOp35
 70
     1
102
RTVSPropertyOp36
 70
     1
102
RTVSPropertyOp37
 70
     1
102
RTVSPropertyOp38
 70
     1
102
RTVSPropertyOp39
 70
     1
102
RTVSPropertyOp40
 70
     1
102
RTVSPropertyOp41
 70
     1
102
RTVSPropertyOp42
 70
     1
102
RTVSPropertyOp43
 70
     1
102
RTVSPropertyOp44
 70
     1
102
RTVSPropertyOp45
 70
     1
102
RTVSPropertyOp46
 70
     1
102
RTVSPropertyOp47
 70
     1
102
RTVSPropertyOp48
 70
     1
102
RTVSPropertyOp49
 70
     1
102
RTVSPropertyOp50
 70
     1
102
RTVSPropertyOp51
 70
     0
102
RTVSPropertyOp52
 70
     0
102
RTVSPropertyOp53
 70
     1
102
RTVSPropertyOp54
 70
     1
102
RTVSPropertyOp55
 70
     1
102
RTVSPropertyOp56
 70
     1
102
RTVSPropertyOp57
 70
     1
102
RTVSPropertyOp58
 70
     1
102
RTVSPropertyOp59
 70
     1
102
RTVSPropertyOp60
 70
     1
102
RTVSPropertyOp61
 70
     1
102
RTVSPropertyOp62
 70
     1
  0
XRECORD
  5
1562D
102
{ACAD_REACTORS
330
1562C
102
}
330
1562C
100
AcDbXrecord
280
     1
102
RTVSPost2010Prop28
280
     0
102
RTVSPost2010PropOp28
 70
     1
102
RTVSPost2010Prop29
280
     1
102
RTVSPost2010PropOp29
 70
     1
102
RTVSPost2010Prop30
280
     1
102
RTVSPost2010PropOp30
 70
     1
102
RTVSPost2010Prop31
280
     0
102
RTVSPost2010PropOp31
 70
     1
102
RTVSPost2010Prop32
280
     0
102
RTVSPost2010PropOp32
 70
     1
102
RTVSPost2010Prop33
280
     0
102
RTVSPost2010PropOp33
 70
     1
102
RTVSPost2010Prop34
280
     0
102
RTVSPost2010PropOp34
 70
     1
102
RTVSPost2010Prop35
280
     0
102
RTVSPost2010PropOp35
 70
     1
102
RTVSPost2010Prop36
280
     0
102
RTVSPost2010PropOp36
 70
     1
102
RTVSPost2010Prop37
 90
       50
102
RTVSPost2010PropOp37
 70
     1
102
RTVSPost2010Prop38
140
0.0
102
RTVSPost2010PropOp38
 70
     1
102
RTVSPost2010Prop39
140
1.0
102
RTVSPost2010PropOp39
 70
     1
102
RTVSPost2010Prop40
 90
        0
102
RTVSPost2010PropOp40
 70
     1
102
RTVSPost2010Prop41ColorIndex
 90
       18
102
RTVSPost2010Prop41ColorRGB
 90
        0
102
RTVSPost2010PropOp41
 70
     1
102
RTVSPost2010Prop42
 90
       50
102
RTVSPost2010PropOp42
 70
     1
102
RTVSPost2010Prop43
 90
        3
102
RTVSPost2010PropOp43
 70
     1
102
RTVSPost2010Prop44ColorIndex
 90
        5
102
RTVSPost2010Prop44ColorRGB
 90
      255
102
RTVSPost2010PropOp44
 70
     1
102
RTVSPost2010Prop45
280
     0
102
RTVSPost2010PropOp45
 70
     1
102
RTVSPost2010Prop46
 90
       50
102
RTVSPost2010PropOp46
 70
     1
102
RTVSPost2010Prop47
 90
       50
102
RTVSPost2010PropOp47
 70
     1
102
RTVSPost2010Prop48
 90
       50
102
RTVSPost2010PropOp48
 70
     1
102
RTVSPost2010Prop49
280
     0
102
RTVSPost2010PropOp49
 70
     1
102
RTVSPost2010Prop50
 90
       50
102
RTVSPost2010PropOp50
 70
     1
102
RTVSPost2010Prop51ColorIndex
 90
      256
102
RTVSPost2010Prop51ColorRGB
 90
-16777216
102
RTVSPost2010PropOp51
 70
     0
102
RTVSPost2010Prop52
140
1.0
102
RTVSPost2010PropOp52
 70
     0
102
RTVSPost2010Prop53
 90
        2
102
RTVSPost2010PropOp53
 70
     1
102
RTVSPost2010Prop54
  1
strokes_ogs.tif
102
RTVSPost2010PropOp54
 70
     1
102
RTVSPost2010Prop55
280
     0
102
RTVSPost2010PropOp55
 70
     1
102
RTVSPost2010Prop56
140
1.0
102
RTVSPost2010PropOp56
 70
     1
102
RTVSPost2010Prop57
140
1.0
102
RTVSPost2010PropOp57
 70
     1
102
RTVSPropertyOp0
 70
     1
102
RTVSPropertyOp1
 70
     1
102
RTVSPropertyOp2
 70
     1
102
RTVSPropertyOp3
 70
     1
102
RTVSPropertyOp4
 70
     1
102
RTVSPropertyOp5
 70
     1
102
RTVSPropertyOp6
 70
     1
102
RTVSPropertyOp7
 70
     1
102
RTVSPropertyOp8
 70
     1
102
RTVSPropertyOp9
 70
     1
102
RTVSPropertyOp10
 70
     1
102
RTVSPropertyOp11
 70
     1
102
RTVSPropertyOp12
 70
     1
102
RTVSPropertyOp13
 70
     1
102
RTVSPropertyOp14
 70
     1
102
RTVSPropertyOp15
 70
     1
102
RTVSPropertyOp16
 70
     1
102
RTVSPropertyOp17
 70
     1
102
RTVSPropertyOp18
 70
     1
102
RTVSPropertyOp19
 70
     1
102
RTVSPropertyOp20
 70
     1
102
RTVSPropertyOp21
 70
     1
102
RTVSPropertyOp22
 70
     1
102
RTVSPropertyOp23
 70
     1
102
RTVSPropertyOp24
 70
     1
102
RTVSPropertyOp25
 70
     1
102
RTVSPropertyOp26
 70
     1
102
RTVSPropertyOp27
 70
     1
102
RTVSPropertyOp28
 70
     1
102
RTVSPropertyOp29
 70
     1
102
RTVSPropertyOp30
 70
     1
102
RTVSPropertyOp31
 70
     1
102
RTVSPropertyOp32
 70
     1
102
RTVSPropertyOp33
 70
     1
102
RTVSPropertyOp34
 70
     1
102
RTVSPropertyOp35
 70
     1
102
RTVSPropertyOp36
 70
     1
102
RTVSPropertyOp37
 70
     1
102
RTVSPropertyOp38
 70
     1
102
RTVSPropertyOp39
 70
     1
102
RTVSPropertyOp40
 70
     1
102
RTVSPropertyOp41
 70
     1
102
RTVSPropertyOp42
 70
     1
102
RTVSPropertyOp43
 70
     1
102
RTVSPropertyOp44
 70
     1
102
RTVSPropertyOp45
 70
     1
102
RTVSPropertyOp46
 70
     1
102
RTVSPropertyOp47
 70
     1
102
RTVSPropertyOp48
 70
     1
102
RTVSPropertyOp49
 70
     1
102
RTVSPropertyOp50
 70
     1
102
RTVSPropertyOp51
 70
     0
102
RTVSPropertyOp52
 70
     0
102
RTVSPropertyOp53
 70
     1
102
RTVSPropertyOp54
 70
     1
102
RTVSPropertyOp55
 70
     1
102
RTVSPropertyOp56
 70
     1
102
RTVSPropertyOp57
 70
     1
102
RTVSPropertyOp58
 70
     1
102
RTVSPropertyOp59
 70
     1
102
RTVSPropertyOp60
 70
     1
102
RTVSPropertyOp61
 70
     1
102
RTVSPropertyOp62
 70
     1
  0
XRECORD
  5
15647
102
{ACAD_REACTORS
330
15646
102
}
330
15646
100
AcDbXrecord
280
     1
102
RTVSPost2010Prop28
280
     0
102
RTVSPost2010PropOp28
 70
     0
102
RTVSPost2010Prop29
280
     1
102
RTVSPost2010PropOp29
 70
     0
102
RTVSPost2010Prop30
280
     1
102
RTVSPost2010PropOp30
 70
     0
102
RTVSPost2010Prop31
280
     0
102
RTVSPost2010PropOp31
 70
     0
102
RTVSPost2010Prop32
280
     0
102
RTVSPost2010PropOp32
 70
     0
102
RTVSPost2010Prop33
280
     0
102
RTVSPost2010PropOp33
 70
     0
102
RTVSPost2010Prop34
280
     0
102
RTVSPost2010PropOp34
 70
     0
102
RTVSPost2010Prop35
280
     0
102
RTVSPost2010PropOp35
 70
     0
102
RTVSPost2010Prop36
280
     0
102
RTVSPost2010PropOp36
 70
     0
102
RTVSPost2010Prop37
 90
       50
102
RTVSPost2010PropOp37
 70
     0
102
RTVSPost2010Prop38
140
0.0
102
RTVSPost2010PropOp38
 70
     0
102
RTVSPost2010Prop39
140
1.0
102
RTVSPost2010PropOp39
 70
     0
102
RTVSPost2010Prop40
 90
        0
102
RTVSPost2010PropOp40
 70
     0
102
RTVSPost2010Prop41ColorIndex
 90
       18
102
RTVSPost2010Prop41ColorRGB
 90
        0
102
RTVSPost2010PropOp41
 70
     0
102
RTVSPost2010Prop42
 90
       50
102
RTVSPost2010PropOp42
 70
     0
102
RTVSPost2010Prop43
 90
        3
102
RTVSPost2010PropOp43
 70
     0
102
RTVSPost2010Prop44ColorIndex
 90
        5
102
RTVSPost2010Prop44ColorRGB
 90
      255
102
RTVSPost2010PropOp44
 70
     0
102
RTVSPost2010Prop45
280
     0
102
RTVSPost2010PropOp45
 70
     0
102
RTVSPost2010Prop46
 90
       50
102
RTVSPost2010PropOp46
 70
     0
102
RTVSPost2010Prop47
 90
       50
102
RTVSPost2010PropOp47
 70
     0
102
RTVSPost2010Prop48
 90
       50
102
RTVSPost2010PropOp48
 70
     0
102
RTVSPost2010Prop49
280
     0
102
RTVSPost2010PropOp49
 70
     0
102
RTVSPost2010Prop50
 90
       50
102
RTVSPost2010PropOp50
 70
     0
102
RTVSPost2010Prop51ColorIndex
 90
      256
102
RTVSPost2010Prop51ColorRGB
 90
-16777216
102
RTVSPost2010PropOp51
 70
     0
102
RTVSPost2010Prop52
140
1.0
102
RTVSPost2010PropOp52
 70
     0
102
RTVSPost2010Prop53
 90
        2
102
RTVSPost2010PropOp53
 70
     0
102
RTVSPost2010Prop54
  1
strokes_ogs.tif
102
RTVSPost2010PropOp54
 70
     0
102
RTVSPost2010Prop55
280
     0
102
RTVSPost2010PropOp55
 70
     0
102
RTVSPost2010Prop56
140
1.0
102
RTVSPost2010PropOp56
 70
     0
102
RTVSPost2010Prop57
140
1.0
102
RTVSPost2010PropOp57
 70
     0
102
RTVSPropertyOp0
 70
     0
102
RTVSPropertyOp1
 70
     0
102
RTVSPropertyOp2
 70
     0
102
RTVSPropertyOp3
 70
     0
102
RTVSPropertyOp4
 70
     0
102
RTVSPropertyOp5
 70
     0
102
RTVSPropertyOp6
 70
     0
102
RTVSPropertyOp7
 70
     0
102
RTVSPropertyOp8
 70
     0
102
RTVSPropertyOp9
 70
     0
102
RTVSPropertyOp10
 70
     0
102
RTVSPropertyOp11
 70
     0
102
RTVSPropertyOp12
 70
     0
102
RTVSPropertyOp13
 70
     0
102
RTVSPropertyOp14
 70
     2
102
RTVSPropertyOp15
 70
     0
102
RTVSPropertyOp16
 70
     0
102
RTVSPropertyOp17
 70
     0
102
RTVSPropertyOp18
 70
     0
102
RTVSPropertyOp19
 70
     0
102
RTVSPropertyOp20
 70
     0
102
RTVSPropertyOp21
 70
     0
102
RTVSPropertyOp22
 70
     0
102
RTVSPropertyOp23
 70
     0
102
RTVSPropertyOp24
 70
     0
102
RTVSPropertyOp25
 70
     0
102
RTVSPropertyOp26
 70
     0
102
RTVSPropertyOp27
 70
     0
102
RTVSPropertyOp28
 70
     0
102
RTVSPropertyOp29
 70
     0
102
RTVSPropertyOp30
 70
     0
102
RTVSPropertyOp31
 70
     0
102
RTVSPropertyOp32
 70
     0
102
RTVSPropertyOp33
 70
     0
102
RTVSPropertyOp34
 70
     0
102
RTVSPropertyOp35
 70
     0
102
RTVSPropertyOp36
 70
     0
102
RTVSPropertyOp37
 70
     0
102
RTVSPropertyOp38
 70
     0
102
RTVSPropertyOp39
 70
     0
102
RTVSPropertyOp40
 70
     0
102
RTVSPropertyOp41
 70
     0
102
RTVSPropertyOp42
 70
     0
102
RTVSPropertyOp43
 70
     0
102
RTVSPropertyOp44
 70
     0
102
RTVSPropertyOp45
 70
     0
102
RTVSPropertyOp46
 70
     0
102
RTVSPropertyOp47
 70
     0
102
RTVSPropertyOp48
 70
     0
102
RTVSPropertyOp49
 70
     0
102
RTVSPropertyOp50
 70
     0
102
RTVSPropertyOp51
 70
     0
102
RTVSPropertyOp52
 70
     0
102
RTVSPropertyOp53
 70
     0
102
RTVSPropertyOp54
 70
     0
102
RTVSPropertyOp55
 70
     0
102
RTVSPropertyOp56
 70
     0
102
RTVSPropertyOp57
 70
     0
102
RTVSPropertyOp58
 70
     1
102
RTVSPropertyOp59
 70
     1
102
RTVSPropertyOp60
 70
     1
102
RTVSPropertyOp61
 70
     1
102
RTVSPropertyOp62
 70
     1
  0
XRECORD
  5
15635
102
{ACAD_REACTORS
330
15634
102
}
330
15634
100
AcDbXrecord
280
     1
102
RTVSPost2010Prop28
280
     0
102
RTVSPost2010PropOp28
 70
     1
102
RTVSPost2010Prop29
280
     1
102
RTVSPost2010PropOp29
 70
     1
102
RTVSPost2010Prop30
280
     1
102
RTVSPost2010PropOp30
 70
     1
102
RTVSPost2010Prop31
280
     0
102
RTVSPost2010PropOp31
 70
     1
102
RTVSPost2010Prop32
280
     0
102
RTVSPost2010PropOp32
 70
     1
102
RTVSPost2010Prop33
280
     0
102
RTVSPost2010PropOp33
 70
     1
102
RTVSPost2010Prop34
280
     0
102
RTVSPost2010PropOp34
 70
     1
102
RTVSPost2010Prop35
280
     0
102
RTVSPost2010PropOp35
 70
     1
102
RTVSPost2010Prop36
280
     0
102
RTVSPost2010PropOp36
 70
     1
102
RTVSPost2010Prop37
 90
       50
102
RTVSPost2010PropOp37
 70
     1
102
RTVSPost2010Prop38
140
0.0
102
RTVSPost2010PropOp38
 70
     1
102
RTVSPost2010Prop39
140
1.0
102
RTVSPost2010PropOp39
 70
     1
102
RTVSPost2010Prop40
 90
        0
102
RTVSPost2010PropOp40
 70
     1
102
RTVSPost2010Prop41ColorIndex
 90
       18
102
RTVSPost2010Prop41ColorRGB
 90
        0
102
RTVSPost2010PropOp41
 70
     1
102
RTVSPost2010Prop42
 90
       50
102
RTVSPost2010PropOp42
 70
     1
102
RTVSPost2010Prop43
 90
        3
102
RTVSPost2010PropOp43
 70
     1
102
RTVSPost2010Prop44ColorIndex
 90
        5
102
RTVSPost2010Prop44ColorRGB
 90
      255
102
RTVSPost2010PropOp44
 70
     1
102
RTVSPost2010Prop45
280
     0
102
RTVSPost2010PropOp45
 70
     1
102
RTVSPost2010Prop46
 90
       50
102
RTVSPost2010PropOp46
 70
     1
102
RTVSPost2010Prop47
 90
       50
102
RTVSPost2010PropOp47
 70
     1
102
RTVSPost2010Prop48
 90
       50
102
RTVSPost2010PropOp48
 70
     1
102
RTVSPost2010Prop49
280
     0
102
RTVSPost2010PropOp49
 70
     1
102
RTVSPost2010Prop50
 90
       50
102
RTVSPost2010PropOp50
 70
     1
102
RTVSPost2010Prop51ColorIndex
 90
      256
102
RTVSPost2010Prop51ColorRGB
 90
-16777216
102
RTVSPost2010PropOp51
 70
     0
102
RTVSPost2010Prop52
140
1.0
102
RTVSPost2010PropOp52
 70
     0
102
RTVSPost2010Prop53
 90
        2
102
RTVSPost2010PropOp53
 70
     1
102
RTVSPost2010Prop54
  1
strokes_ogs.tif
102
RTVSPost2010PropOp54
 70
     1
102
RTVSPost2010Prop55
280
     0
102
RTVSPost2010PropOp55
 70
     1
102
RTVSPost2010Prop56
140
1.0
102
RTVSPost2010PropOp56
 70
     1
102
RTVSPost2010Prop57
140
1.0
102
RTVSPost2010PropOp57
 70
     1
102
RTVSPropertyOp0
 70
     1
102
RTVSPropertyOp1
 70
     1
102
RTVSPropertyOp2
 70
     1
102
RTVSPropertyOp3
 70
     1
102
RTVSPropertyOp4
 70
     1
102
RTVSPropertyOp5
 70
     1
102
RTVSPropertyOp6
 70
     1
102
RTVSPropertyOp7
 70
     1
102
RTVSPropertyOp8
 70
     1
102
RTVSPropertyOp9
 70
     1
102
RTVSPropertyOp10
 70
     1
102
RTVSPropertyOp11
 70
     1
102
RTVSPropertyOp12
 70
     1
102
RTVSPropertyOp13
 70
     1
102
RTVSPropertyOp14
 70
     1
102
RTVSPropertyOp15
 70
     1
102
RTVSPropertyOp16
 70
     1
102
RTVSPropertyOp17
 70
     1
102
RTVSPropertyOp18
 70
     1
102
RTVSPropertyOp19
 70
     1
102
RTVSPropertyOp20
 70
     1
102
RTVSPropertyOp21
 70
     1
102
RTVSPropertyOp22
 70
     1
102
RTVSPropertyOp23
 70
     1
102
RTVSPropertyOp24
 70
     1
102
RTVSPropertyOp25
 70
     1
102
RTVSPropertyOp26
 70
     1
102
RTVSPropertyOp27
 70
     1
102
RTVSPropertyOp28
 70
     1
102
RTVSPropertyOp29
 70
     1
102
RTVSPropertyOp30
 70
     1
102
RTVSPropertyOp31
 70
     1
102
RTVSPropertyOp32
 70
     1
102
RTVSPropertyOp33
 70
     1
102
RTVSPropertyOp34
 70
     1
102
RTVSPropertyOp35
 70
     1
102
RTVSPropertyOp36
 70
     1
102
RTVSPropertyOp37
 70
     1
102
RTVSPropertyOp38
 70
     1
102
RTVSPropertyOp39
 70
     1
102
RTVSPropertyOp40
 70
     1
102
RTVSPropertyOp41
 70
     1
102
RTVSPropertyOp42
 70
     1
102
RTVSPropertyOp43
 70
     1
102
RTVSPropertyOp44
 70
     1
102
RTVSPropertyOp45
 70
     1
102
RTVSPropertyOp46
 70
     1
102
RTVSPropertyOp47
 70
     1
102
RTVSPropertyOp48
 70
     1
102
RTVSPropertyOp49
 70
     1
102
RTVSPropertyOp50
 70
     1
102
RTVSPropertyOp51
 70
     0
102
RTVSPropertyOp52
 70
     0
102
RTVSPropertyOp53
 70
     1
102
RTVSPropertyOp54
 70
     1
102
RTVSPropertyOp55
 70
     1
102
RTVSPropertyOp56
 70
     1
102
RTVSPropertyOp57
 70
     1
102
RTVSPropertyOp58
 70
     1
102
RTVSPropertyOp59
 70
     1
102
RTVSPropertyOp60
 70
     1
102
RTVSPropertyOp61
 70
     1
102
RTVSPropertyOp62
 70
     1
  0
XRECORD
  5
15619
102
{ACAD_REACTORS
330
15618
102
}
330
15618
100
AcDbXrecord
280
     1
102
RTVSPost2010Prop28
280
     0
102
RTVSPost2010PropOp28
 70
     1
102
RTVSPost2010Prop29
280
     1
102
RTVSPost2010PropOp29
 70
     1
102
RTVSPost2010Prop30
280
     1
102
RTVSPost2010PropOp30
 70
     1
102
RTVSPost2010Prop31
280
     0
102
RTVSPost2010PropOp31
 70
     1
102
RTVSPost2010Prop32
280
     0
102
RTVSPost2010PropOp32
 70
     1
102
RTVSPost2010Prop33
280
     0
102
RTVSPost2010PropOp33
 70
     1
102
RTVSPost2010Prop34
280
     0
102
RTVSPost2010PropOp34
 70
     1
102
RTVSPost2010Prop35
280
     0
102
RTVSPost2010PropOp35
 70
     1
102
RTVSPost2010Prop36
280
     0
102
RTVSPost2010PropOp36
 70
     1
102
RTVSPost2010Prop37
 90
       50
102
RTVSPost2010PropOp37
 70
     1
102
RTVSPost2010Prop38
140
0.0
102
RTVSPost2010PropOp38
 70
     1
102
RTVSPost2010Prop39
140
1.0
102
RTVSPost2010PropOp39
 70
     1
102
RTVSPost2010Prop40
 90
        0
102
RTVSPost2010PropOp40
 70
     1
102
RTVSPost2010Prop41ColorIndex
 90
       18
102
RTVSPost2010Prop41ColorRGB
 90
        0
102
RTVSPost2010PropOp41
 70
     1
102
RTVSPost2010Prop42
 90
       50
102
RTVSPost2010PropOp42
 70
     1
102
RTVSPost2010Prop43
 90
        3
102
RTVSPost2010PropOp43
 70
     1
102
RTVSPost2010Prop44ColorIndex
 90
        5
102
RTVSPost2010Prop44ColorRGB
 90
      255
102
RTVSPost2010PropOp44
 70
     1
102
RTVSPost2010Prop45
280
     0
102
RTVSPost2010PropOp45
 70
     1
102
RTVSPost2010Prop46
 90
       50
102
RTVSPost2010PropOp46
 70
     1
102
RTVSPost2010Prop47
 90
       50
102
RTVSPost2010PropOp47
 70
     1
102
RTVSPost2010Prop48
 90
       50
102
RTVSPost2010PropOp48
 70
     1
102
RTVSPost2010Prop49
280
     0
102
RTVSPost2010PropOp49
 70
     1
102
RTVSPost2010Prop50
 90
       50
102
RTVSPost2010PropOp50
 70
     1
102
RTVSPost2010Prop51ColorIndex
 90
      256
102
RTVSPost2010Prop51ColorRGB
 90
-16777216
102
RTVSPost2010PropOp51
 70
     0
102
RTVSPost2010Prop52
140
1.0
102
RTVSPost2010PropOp52
 70
     0
102
RTVSPost2010Prop53
 90
        2
102
RTVSPost2010PropOp53
 70
     1
102
RTVSPost2010Prop54
  1
strokes_ogs.tif
102
RTVSPost2010PropOp54
 70
     1
102
RTVSPost2010Prop55
280
     0
102
RTVSPost2010PropOp55
 70
     1
102
RTVSPost2010Prop56
140
1.0
102
RTVSPost2010PropOp56
 70
     1
102
RTVSPost2010Prop57
140
1.0
102
RTVSPost2010PropOp57
 70
     1
102
RTVSPropertyOp0
 70
     1
102
RTVSPropertyOp1
 70
     1
102
RTVSPropertyOp2
 70
     1
102
RTVSPropertyOp3
 70
     1
102
RTVSPropertyOp4
 70
     1
102
RTVSPropertyOp5
 70
     1
102
RTVSPropertyOp6
 70
     1
102
RTVSPropertyOp7
 70
     1
102
RTVSPropertyOp8
 70
     1
102
RTVSPropertyOp9
 70
     1
102
RTVSPropertyOp10
 70
     1
102
RTVSPropertyOp11
 70
     1
102
RTVSPropertyOp12
 70
     1
102
RTVSPropertyOp13
 70
     1
102
RTVSPropertyOp14
 70
     1
102
RTVSPropertyOp15
 70
     1
102
RTVSPropertyOp16
 70
     1
102
RTVSPropertyOp17
 70
     1
102
RTVSPropertyOp18
 70
     1
102
RTVSPropertyOp19
 70
     1
102
RTVSPropertyOp20
 70
     1
102
RTVSPropertyOp21
 70
     1
102
RTVSPropertyOp22
 70
     1
102
RTVSPropertyOp23
 70
     1
102
RTVSPropertyOp24
 70
     1
102
RTVSPropertyOp25
 70
     1
102
RTVSPropertyOp26
 70
     1
102
RTVSPropertyOp27
 70
     1
102
RTVSPropertyOp28
 70
     1
102
RTVSPropertyOp29
 70
     1
102
RTVSPropertyOp30
 70
     1
102
RTVSPropertyOp31
 70
     1
102
RTVSPropertyOp32
 70
     1
102
RTVSPropertyOp33
 70
     1
102
RTVSPropertyOp34
 70
     1
102
RTVSPropertyOp35
 70
     1
102
RTVSPropertyOp36
 70
     1
102
RTVSPropertyOp37
 70
     1
102
RTVSPropertyOp38
 70
     1
102
RTVSPropertyOp39
 70
     1
102
RTVSPropertyOp40
 70
     1
102
RTVSPropertyOp41
 70
     1
102
RTVSPropertyOp42
 70
     1
102
RTVSPropertyOp43
 70
     1
102
RTVSPropertyOp44
 70
     1
102
RTVSPropertyOp45
 70
     1
102
RTVSPropertyOp46
 70
     1
102
RTVSPropertyOp47
 70
     1
102
RTVSPropertyOp48
 70
     1
102
RTVSPropertyOp49
 70
     1
102
RTVSPropertyOp50
 70
     1
102
RTVSPropertyOp51
 70
     0
102
RTVSPropertyOp52
 70
     0
102
RTVSPropertyOp53
 70
     1
102
RTVSPropertyOp54
 70
     1
102
RTVSPropertyOp55
 70
     1
102
RTVSPropertyOp56
 70
     1
102
RTVSPropertyOp57
 70
     1
102
RTVSPropertyOp58
 70
     1
102
RTVSPropertyOp59
 70
     1
102
RTVSPropertyOp60
 70
     1
102
RTVSPropertyOp61
 70
     1
102
RTVSPropertyOp62
 70
     1
  0
XRECORD
  5
1561B
102
{ACAD_REACTORS
330
1561A
102
}
330
1561A
100
AcDbXrecord
280
     1
102
RTVSPost2010Prop28
280
     0
102
RTVSPost2010PropOp28
 70
     1
102
RTVSPost2010Prop29
280
     1
102
RTVSPost2010PropOp29
 70
     1
102
RTVSPost2010Prop30
280
     1
102
RTVSPost2010PropOp30
 70
     1
102
RTVSPost2010Prop31
280
     0
102
RTVSPost2010PropOp31
 70
     1
102
RTVSPost2010Prop32
280
     0
102
RTVSPost2010PropOp32
 70
     1
102
RTVSPost2010Prop33
280
     0
102
RTVSPost2010PropOp33
 70
     1
102
RTVSPost2010Prop34
280
     0
102
RTVSPost2010PropOp34
 70
     1
102
RTVSPost2010Prop35
280
     0
102
RTVSPost2010PropOp35
 70
     1
102
RTVSPost2010Prop36
280
     0
102
RTVSPost2010PropOp36
 70
     1
102
RTVSPost2010Prop37
 90
       50
102
RTVSPost2010PropOp37
 70
     1
102
RTVSPost2010Prop38
140
0.0
102
RTVSPost2010PropOp38
 70
     1
102
RTVSPost2010Prop39
140
1.0
102
RTVSPost2010PropOp39
 70
     1
102
RTVSPost2010Prop40
 90
        0
102
RTVSPost2010PropOp40
 70
     1
102
RTVSPost2010Prop41ColorIndex
 90
       18
102
RTVSPost2010Prop41ColorRGB
 90
        0
102
RTVSPost2010PropOp41
 70
     1
102
RTVSPost2010Prop42
 90
       50
102
RTVSPost2010PropOp42
 70
     1
102
RTVSPost2010Prop43
 90
        3
102
RTVSPost2010PropOp43
 70
     1
102
RTVSPost2010Prop44ColorIndex
 90
        5
102
RTVSPost2010Prop44ColorRGB
 90
      255
102
RTVSPost2010PropOp44
 70
     1
102
RTVSPost2010Prop45
280
     0
102
RTVSPost2010PropOp45
 70
     1
102
RTVSPost2010Prop46
 90
       50
102
RTVSPost2010PropOp46
 70
     1
102
RTVSPost2010Prop47
 90
       50
102
RTVSPost2010PropOp47
 70
     1
102
RTVSPost2010Prop48
 90
       50
102
RTVSPost2010PropOp48
 70
     1
102
RTVSPost2010Prop49
280
     0
102
RTVSPost2010PropOp49
 70
     1
102
RTVSPost2010Prop50
 90
       50
102
RTVSPost2010PropOp50
 70
     1
102
RTVSPost2010Prop51ColorIndex
 90
      256
102
RTVSPost2010Prop51ColorRGB
 90
-16777216
102
RTVSPost2010PropOp51
 70
     0
102
RTVSPost2010Prop52
140
1.0
102
RTVSPost2010PropOp52
 70
     0
102
RTVSPost2010Prop53
 90
        2
102
RTVSPost2010PropOp53
 70
     1
102
RTVSPost2010Prop54
  1
strokes_ogs.tif
102
RTVSPost2010PropOp54
 70
     1
102
RTVSPost2010Prop55
280
     0
102
RTVSPost2010PropOp55
 70
     1
102
RTVSPost2010Prop56
140
1.0
102
RTVSPost2010PropOp56
 70
     1
102
RTVSPost2010Prop57
140
1.0
102
RTVSPost2010PropOp57
 70
     1
102
RTVSPropertyOp0
 70
     1
102
RTVSPropertyOp1
 70
     1
102
RTVSPropertyOp2
 70
     1
102
RTVSPropertyOp3
 70
     1
102
RTVSPropertyOp4
 70
     1
102
RTVSPropertyOp5
 70
     1
102
RTVSPropertyOp6
 70
     1
102
RTVSPropertyOp7
 70
     1
102
RTVSPropertyOp8
 70
     1
102
RTVSPropertyOp9
 70
     1
102
RTVSPropertyOp10
 70
     1
102
RTVSPropertyOp11
 70
     1
102
RTVSPropertyOp12
 70
     1
102
RTVSPropertyOp13
 70
     1
102
RTVSPropertyOp14
 70
     1
102
RTVSPropertyOp15
 70
     1
102
RTVSPropertyOp16
 70
     1
102
RTVSPropertyOp17
 70
     1
102
RTVSPropertyOp18
 70
     1
102
RTVSPropertyOp19
 70
     1
102
RTVSPropertyOp20
 70
     1
102
RTVSPropertyOp21
 70
     1
102
RTVSPropertyOp22
 70
     1
102
RTVSPropertyOp23
 70
     1
102
RTVSPropertyOp24
 70
     1
102
RTVSPropertyOp25
 70
     1
102
RTVSPropertyOp26
 70
     1
102
RTVSPropertyOp27
 70
     1
102
RTVSPropertyOp28
 70
     1
102
RTVSPropertyOp29
 70
     1
102
RTVSPropertyOp30
 70
     1
102
RTVSPropertyOp31
 70
     1
102
RTVSPropertyOp32
 70
     1
102
RTVSPropertyOp33
 70
     1
102
RTVSPropertyOp34
 70
     1
102
RTVSPropertyOp35
 70
     1
102
RTVSPropertyOp36
 70
     1
102
RTVSPropertyOp37
 70
     1
102
RTVSPropertyOp38
 70
     1
102
RTVSPropertyOp39
 70
     1
102
RTVSPropertyOp40
 70
     1
102
RTVSPropertyOp41
 70
     1
102
RTVSPropertyOp42
 70
     1
102
RTVSPropertyOp43
 70
     1
102
RTVSPropertyOp44
 70
     1
102
RTVSPropertyOp45
 70
     1
102
RTVSPropertyOp46
 70
     1
102
RTVSPropertyOp47
 70
     1
102
RTVSPropertyOp48
 70
     1
102
RTVSPropertyOp49
 70
     1
102
RTVSPropertyOp50
 70
     1
102
RTVSPropertyOp51
 70
     0
102
RTVSPropertyOp52
 70
     0
102
RTVSPropertyOp53
 70
     1
102
RTVSPropertyOp54
 70
     1
102
RTVSPropertyOp55
 70
     1
102
RTVSPropertyOp56
 70
     1
102
RTVSPropertyOp57
 70
     1
102
RTVSPropertyOp58
 70
     1
102
RTVSPropertyOp59
 70
     1
102
RTVSPropertyOp60
 70
     1
102
RTVSPropertyOp61
 70
     1
102
RTVSPropertyOp62
 70
     1
  0
XRECORD
  5
1561D
102
{ACAD_REACTORS
330
1561C
102
}
330
1561C
100
AcDbXrecord
280
     1
102
RTVSPost2010Prop28
280
     0
102
RTVSPost2010PropOp28
 70
     1
102
RTVSPost2010Prop29
280
     1
102
RTVSPost2010PropOp29
 70
     1
102
RTVSPost2010Prop30
280
     1
102
RTVSPost2010PropOp30
 70
     1
102
RTVSPost2010Prop31
280
     0
102
RTVSPost2010PropOp31
 70
     1
102
RTVSPost2010Prop32
280
     0
102
RTVSPost2010PropOp32
 70
     1
102
RTVSPost2010Prop33
280
     0
102
RTVSPost2010PropOp33
 70
     1
102
RTVSPost2010Prop34
280
     0
102
RTVSPost2010PropOp34
 70
     1
102
RTVSPost2010Prop35
280
     0
102
RTVSPost2010PropOp35
 70
     1
102
RTVSPost2010Prop36
280
     0
102
RTVSPost2010PropOp36
 70
     1
102
RTVSPost2010Prop37
 90
       50
102
RTVSPost2010PropOp37
 70
     1
102
RTVSPost2010Prop38
140
0.0
102
RTVSPost2010PropOp38
 70
     1
102
RTVSPost2010Prop39
140
1.0
102
RTVSPost2010PropOp39
 70
     1
102
RTVSPost2010Prop40
 90
        0
102
RTVSPost2010PropOp40
 70
     1
102
RTVSPost2010Prop41ColorIndex
 90
       18
102
RTVSPost2010Prop41ColorRGB
 90
        0
102
RTVSPost2010PropOp41
 70
     1
102
RTVSPost2010Prop42
 90
       50
102
RTVSPost2010PropOp42
 70
     1
102
RTVSPost2010Prop43
 90
        3
102
RTVSPost2010PropOp43
 70
     1
102
RTVSPost2010Prop44ColorIndex
 90
        5
102
RTVSPost2010Prop44ColorRGB
 90
      255
102
RTVSPost2010PropOp44
 70
     1
102
RTVSPost2010Prop45
280
     0
102
RTVSPost2010PropOp45
 70
     1
102
RTVSPost2010Prop46
 90
       50
102
RTVSPost2010PropOp46
 70
     1
102
RTVSPost2010Prop47
 90
       50
102
RTVSPost2010PropOp47
 70
     1
102
RTVSPost2010Prop48
 90
       50
102
RTVSPost2010PropOp48
 70
     1
102
RTVSPost2010Prop49
280
     0
102
RTVSPost2010PropOp49
 70
     1
102
RTVSPost2010Prop50
 90
       50
102
RTVSPost2010PropOp50
 70
     1
102
RTVSPost2010Prop51ColorIndex
 90
      256
102
RTVSPost2010Prop51ColorRGB
 90
-16777216
102
RTVSPost2010PropOp51
 70
     0
102
RTVSPost2010Prop52
140
1.0
102
RTVSPost2010PropOp52
 70
     0
102
RTVSPost2010Prop53
 90
        2
102
RTVSPost2010PropOp53
 70
     1
102
RTVSPost2010Prop54
  1
strokes_ogs.tif
102
RTVSPost2010PropOp54
 70
     1
102
RTVSPost2010Prop55
280
     0
102
RTVSPost2010PropOp55
 70
     1
102
RTVSPost2010Prop56
140
1.0
102
RTVSPost2010PropOp56
 70
     1
102
RTVSPost2010Prop57
140
1.0
102
RTVSPost2010PropOp57
 70
     1
102
RTVSPropertyOp0
 70
     1
102
RTVSPropertyOp1
 70
     1
102
RTVSPropertyOp2
 70
     1
102
RTVSPropertyOp3
 70
     1
102
RTVSPropertyOp4
 70
     1
102
RTVSPropertyOp5
 70
     1
102
RTVSPropertyOp6
 70
     1
102
RTVSPropertyOp7
 70
     1
102
RTVSPropertyOp8
 70
     1
102
RTVSPropertyOp9
 70
     1
102
RTVSPropertyOp10
 70
     1
102
RTVSPropertyOp11
 70
     1
102
RTVSPropertyOp12
 70
     1
102
RTVSPropertyOp13
 70
     1
102
RTVSPropertyOp14
 70
     1
102
RTVSPropertyOp15
 70
     1
102
RTVSPropertyOp16
 70
     1
102
RTVSPropertyOp17
 70
     1
102
RTVSPropertyOp18
 70
     1
102
RTVSPropertyOp19
 70
     1
102
RTVSPropertyOp20
 70
     1
102
RTVSPropertyOp21
 70
     1
102
RTVSPropertyOp22
 70
     1
102
RTVSPropertyOp23
 70
     1
102
RTVSPropertyOp24
 70
     1
102
RTVSPropertyOp25
 70
     1
102
RTVSPropertyOp26
 70
     1
102
RTVSPropertyOp27
 70
     1
102
RTVSPropertyOp28
 70
     1
102
RTVSPropertyOp29
 70
     1
102
RTVSPropertyOp30
 70
     1
102
RTVSPropertyOp31
 70
     1
102
RTVSPropertyOp32
 70
     1
102
RTVSPropertyOp33
 70
     1
102
RTVSPropertyOp34
 70
     1
102
RTVSPropertyOp35
 70
     1
102
RTVSPropertyOp36
 70
     1
102
RTVSPropertyOp37
 70
     1
102
RTVSPropertyOp38
 70
     1
102
RTVSPropertyOp39
 70
     1
102
RTVSPropertyOp40
 70
     1
102
RTVSPropertyOp41
 70
     1
102
RTVSPropertyOp42
 70
     1
102
RTVSPropertyOp43
 70
     1
102
RTVSPropertyOp44
 70
     1
102
RTVSPropertyOp45
 70
     1
102
RTVSPropertyOp46
 70
     1
102
RTVSPropertyOp47
 70
     1
102
RTVSPropertyOp48
 70
     1
102
RTVSPropertyOp49
 70
     1
102
RTVSPropertyOp50
 70
     1
102
RTVSPropertyOp51
 70
     0
102
RTVSPropertyOp52
 70
     0
102
RTVSPropertyOp53
 70
     1
102
RTVSPropertyOp54
 70
     1
102
RTVSPropertyOp55
 70
     1
102
RTVSPropertyOp56
 70
     1
102
RTVSPropertyOp57
 70
     1
102
RTVSPropertyOp58
 70
     1
102
RTVSPropertyOp59
 70
     1
102
RTVSPropertyOp60
 70
     1
102
RTVSPropertyOp61
 70
     1
102
RTVSPropertyOp62
 70
     1
  0
XRECORD
  5
1561F
102
{ACAD_REACTORS
330
1561E
102
}
330
1561E
100
AcDbXrecord
280
     1
102
RTVSPost2010Prop28
280
     0
102
RTVSPost2010PropOp28
 70
     1
102
RTVSPost2010Prop29
280
     1
102
RTVSPost2010PropOp29
 70
     1
102
RTVSPost2010Prop30
280
     1
102
RTVSPost2010PropOp30
 70
     1
102
RTVSPost2010Prop31
280
     0
102
RTVSPost2010PropOp31
 70
     1
102
RTVSPost2010Prop32
280
     0
102
RTVSPost2010PropOp32
 70
     1
102
RTVSPost2010Prop33
280
     0
102
RTVSPost2010PropOp33
 70
     1
102
RTVSPost2010Prop34
280
     0
102
RTVSPost2010PropOp34
 70
     1
102
RTVSPost2010Prop35
280
     0
102
RTVSPost2010PropOp35
 70
     1
102
RTVSPost2010Prop36
280
     0
102
RTVSPost2010PropOp36
 70
     1
102
RTVSPost2010Prop37
 90
       50
102
RTVSPost2010PropOp37
 70
     1
102
RTVSPost2010Prop38
140
0.0
102
RTVSPost2010PropOp38
 70
     1
102
RTVSPost2010Prop39
140
1.0
102
RTVSPost2010PropOp39
 70
     1
102
RTVSPost2010Prop40
 90
        0
102
RTVSPost2010PropOp40
 70
     1
102
RTVSPost2010Prop41ColorIndex
 90
       18
102
RTVSPost2010Prop41ColorRGB
 90
        0
102
RTVSPost2010PropOp41
 70
     1
102
RTVSPost2010Prop42
 90
       50
102
RTVSPost2010PropOp42
 70
     1
102
RTVSPost2010Prop43
 90
        3
102
RTVSPost2010PropOp43
 70
     1
102
RTVSPost2010Prop44ColorIndex
 90
        5
102
RTVSPost2010Prop44ColorRGB
 90
      255
102
RTVSPost2010PropOp44
 70
     1
102
RTVSPost2010Prop45
280
     0
102
RTVSPost2010PropOp45
 70
     1
102
RTVSPost2010Prop46
 90
       50
102
RTVSPost2010PropOp46
 70
     1
102
RTVSPost2010Prop47
 90
       50
102
RTVSPost2010PropOp47
 70
     1
102
RTVSPost2010Prop48
 90
       50
102
RTVSPost2010PropOp48
 70
     1
102
RTVSPost2010Prop49
280
     0
102
RTVSPost2010PropOp49
 70
     1
102
RTVSPost2010Prop50
 90
       50
102
RTVSPost2010PropOp50
 70
     1
102
RTVSPost2010Prop51ColorIndex
 90
      256
102
RTVSPost2010Prop51ColorRGB
 90
-16777216
102
RTVSPost2010PropOp51
 70
     0
102
RTVSPost2010Prop52
140
1.0
102
RTVSPost2010PropOp52
 70
     0
102
RTVSPost2010Prop53
 90
        2
102
RTVSPost2010PropOp53
 70
     1
102
RTVSPost2010Prop54
  1
strokes_ogs.tif
102
RTVSPost2010PropOp54
 70
     1
102
RTVSPost2010Prop55
280
     0
102
RTVSPost2010PropOp55
 70
     1
102
RTVSPost2010Prop56
140
1.0
102
RTVSPost2010PropOp56
 70
     1
102
RTVSPost2010Prop57
140
1.0
102
RTVSPost2010PropOp57
 70
     1
102
RTVSPropertyOp0
 70
     1
102
RTVSPropertyOp1
 70
     1
102
RTVSPropertyOp2
 70
     1
102
RTVSPropertyOp3
 70
     1
102
RTVSPropertyOp4
 70
     1
102
RTVSPropertyOp5
 70
     1
102
RTVSPropertyOp6
 70
     1
102
RTVSPropertyOp7
 70
     1
102
RTVSPropertyOp8
 70
     1
102
RTVSPropertyOp9
 70
     1
102
RTVSPropertyOp10
 70
     1
102
RTVSPropertyOp11
 70
     1
102
RTVSPropertyOp12
 70
     1
102
RTVSPropertyOp13
 70
     1
102
RTVSPropertyOp14
 70
     1
102
RTVSPropertyOp15
 70
     1
102
RTVSPropertyOp16
 70
     1
102
RTVSPropertyOp17
 70
     1
102
RTVSPropertyOp18
 70
     1
102
RTVSPropertyOp19
 70
     1
102
RTVSPropertyOp20
 70
     1
102
RTVSPropertyOp21
 70
     1
102
RTVSPropertyOp22
 70
     1
102
RTVSPropertyOp23
 70
     1
102
RTVSPropertyOp24
 70
     1
102
RTVSPropertyOp25
 70
     1
102
RTVSPropertyOp26
 70
     1
102
RTVSPropertyOp27
 70
     1
102
RTVSPropertyOp28
 70
     1
102
RTVSPropertyOp29
 70
     1
102
RTVSPropertyOp30
 70
     1
102
RTVSPropertyOp31
 70
     1
102
RTVSPropertyOp32
 70
     1
102
RTVSPropertyOp33
 70
     1
102
RTVSPropertyOp34
 70
     1
102
RTVSPropertyOp35
 70
     1
102
RTVSPropertyOp36
 70
     1
102
RTVSPropertyOp37
 70
     1
102
RTVSPropertyOp38
 70
     1
102
RTVSPropertyOp39
 70
     1
102
RTVSPropertyOp40
 70
     1
102
RTVSPropertyOp41
 70
     1
102
RTVSPropertyOp42
 70
     1
102
RTVSPropertyOp43
 70
     1
102
RTVSPropertyOp44
 70
     1
102
RTVSPropertyOp45
 70
     1
102
RTVSPropertyOp46
 70
     1
102
RTVSPropertyOp47
 70
     1
102
RTVSPropertyOp48
 70
     1
102
RTVSPropertyOp49
 70
     1
102
RTVSPropertyOp50
 70
     1
102
RTVSPropertyOp51
 70
     0
102
RTVSPropertyOp52
 70
     0
102
RTVSPropertyOp53
 70
     1
102
RTVSPropertyOp54
 70
     1
102
RTVSPropertyOp55
 70
     1
102
RTVSPropertyOp56
 70
     1
102
RTVSPropertyOp57
 70
     1
102
RTVSPropertyOp58
 70
     1
102
RTVSPropertyOp59
 70
     1
102
RTVSPropertyOp60
 70
     1
102
RTVSPropertyOp61
 70
     1
102
RTVSPropertyOp62
 70
     1
  0
XRECORD
  5
15627
102
{ACAD_REACTORS
330
15626
102
}
330
15626
100
AcDbXrecord
280
     1
102
RTVSPost2010Prop28
280
     0
102
RTVSPost2010PropOp28
 70
     1
102
RTVSPost2010Prop29
280
     1
102
RTVSPost2010PropOp29
 70
     1
102
RTVSPost2010Prop30
280
     1
102
RTVSPost2010PropOp30
 70
     1
102
RTVSPost2010Prop31
280
     0
102
RTVSPost2010PropOp31
 70
     1
102
RTVSPost2010Prop32
280
     0
102
RTVSPost2010PropOp32
 70
     1
102
RTVSPost2010Prop33
280
     0
102
RTVSPost2010PropOp33
 70
     1
102
RTVSPost2010Prop34
280
     0
102
RTVSPost2010PropOp34
 70
     1
102
RTVSPost2010Prop35
280
     0
102
RTVSPost2010PropOp35
 70
     1
102
RTVSPost2010Prop36
280
     0
102
RTVSPost2010PropOp36
 70
     1
102
RTVSPost2010Prop37
 90
       50
102
RTVSPost2010PropOp37
 70
     1
102
RTVSPost2010Prop38
140
0.0
102
RTVSPost2010PropOp38
 70
     1
102
RTVSPost2010Prop39
140
1.0
102
RTVSPost2010PropOp39
 70
     1
102
RTVSPost2010Prop40
 90
        0
102
RTVSPost2010PropOp40
 70
     1
102
RTVSPost2010Prop41ColorIndex
 90
       18
102
RTVSPost2010Prop41ColorRGB
 90
        0
102
RTVSPost2010PropOp41
 70
     1
102
RTVSPost2010Prop42
 90
       50
102
RTVSPost2010PropOp42
 70
     1
102
RTVSPost2010Prop43
 90
        3
102
RTVSPost2010PropOp43
 70
     1
102
RTVSPost2010Prop44ColorIndex
 90
        5
102
RTVSPost2010Prop44ColorRGB
 90
      255
102
RTVSPost2010PropOp44
 70
     1
102
RTVSPost2010Prop45
280
     0
102
RTVSPost2010PropOp45
 70
     1
102
RTVSPost2010Prop46
 90
       50
102
RTVSPost2010PropOp46
 70
     1
102
RTVSPost2010Prop47
 90
       50
102
RTVSPost2010PropOp47
 70
     1
102
RTVSPost2010Prop48
 90
       50
102
RTVSPost2010PropOp48
 70
     1
102
RTVSPost2010Prop49
280
     0
102
RTVSPost2010PropOp49
 70
     1
102
RTVSPost2010Prop50
 90
       50
102
RTVSPost2010PropOp50
 70
     1
102
RTVSPost2010Prop51ColorIndex
 90
      256
102
RTVSPost2010Prop51ColorRGB
 90
-16777216
102
RTVSPost2010PropOp51
 70
     0
102
RTVSPost2010Prop52
140
1.0
102
RTVSPost2010PropOp52
 70
     0
102
RTVSPost2010Prop53
 90
        2
102
RTVSPost2010PropOp53
 70
     1
102
RTVSPost2010Prop54
  1
strokes_ogs.tif
102
RTVSPost2010PropOp54
 70
     1
102
RTVSPost2010Prop55
280
     0
102
RTVSPost2010PropOp55
 70
     1
102
RTVSPost2010Prop56
140
1.0
102
RTVSPost2010PropOp56
 70
     1
102
RTVSPost2010Prop57
140
1.0
102
RTVSPost2010PropOp57
 70
     1
102
RTVSPropertyOp0
 70
     1
102
RTVSPropertyOp1
 70
     1
102
RTVSPropertyOp2
 70
     1
102
RTVSPropertyOp3
 70
     1
102
RTVSPropertyOp4
 70
     1
102
RTVSPropertyOp5
 70
     1
102
RTVSPropertyOp6
 70
     1
102
RTVSPropertyOp7
 70
     1
102
RTVSPropertyOp8
 70
     1
102
RTVSPropertyOp9
 70
     1
102
RTVSPropertyOp10
 70
     1
102
RTVSPropertyOp11
 70
     1
102
RTVSPropertyOp12
 70
     1
102
RTVSPropertyOp13
 70
     1
102
RTVSPropertyOp14
 70
     1
102
RTVSPropertyOp15
 70
     1
102
RTVSPropertyOp16
 70
     1
102
RTVSPropertyOp17
 70
     1
102
RTVSPropertyOp18
 70
     1
102
RTVSPropertyOp19
 70
     1
102
RTVSPropertyOp20
 70
     1
102
RTVSPropertyOp21
 70
     1
102
RTVSPropertyOp22
 70
     1
102
RTVSPropertyOp23
 70
     1
102
RTVSPropertyOp24
 70
     1
102
RTVSPropertyOp25
 70
     1
102
RTVSPropertyOp26
 70
     1
102
RTVSPropertyOp27
 70
     1
102
RTVSPropertyOp28
 70
     1
102
RTVSPropertyOp29
 70
     1
102
RTVSPropertyOp30
 70
     1
102
RTVSPropertyOp31
 70
     1
102
RTVSPropertyOp32
 70
     1
102
RTVSPropertyOp33
 70
     1
102
RTVSPropertyOp34
 70
     1
102
RTVSPropertyOp35
 70
     1
102
RTVSPropertyOp36
 70
     1
102
RTVSPropertyOp37
 70
     1
102
RTVSPropertyOp38
 70
     1
102
RTVSPropertyOp39
 70
     1
102
RTVSPropertyOp40
 70
     1
102
RTVSPropertyOp41
 70
     1
102
RTVSPropertyOp42
 70
     1
102
RTVSPropertyOp43
 70
     1
102
RTVSPropertyOp44
 70
     1
102
RTVSPropertyOp45
 70
     1
102
RTVSPropertyOp46
 70
     1
102
RTVSPropertyOp47
 70
     1
102
RTVSPropertyOp48
 70
     1
102
RTVSPropertyOp49
 70
     1
102
RTVSPropertyOp50
 70
     1
102
RTVSPropertyOp51
 70
     0
102
RTVSPropertyOp52
 70
     0
102
RTVSPropertyOp53
 70
     1
102
RTVSPropertyOp54
 70
     1
102
RTVSPropertyOp55
 70
     1
102
RTVSPropertyOp56
 70
     1
102
RTVSPropertyOp57
 70
     1
102
RTVSPropertyOp58
 70
     1
102
RTVSPropertyOp59
 70
     1
102
RTVSPropertyOp60
 70
     1
102
RTVSPropertyOp61
 70
     1
102
RTVSPropertyOp62
 70
     1
  0
XRECORD
  5
15643
102
{ACAD_REACTORS
330
15642
102
}
330
15642
100
AcDbXrecord
280
     1
102
RTVSPost2010Prop28
280
     0
102
RTVSPost2010PropOp28
 70
     0
102
RTVSPost2010Prop29
280
     1
102
RTVSPost2010PropOp29
 70
     0
102
RTVSPost2010Prop30
280
     1
102
RTVSPost2010PropOp30
 70
     0
102
RTVSPost2010Prop31
280
     0
102
RTVSPost2010PropOp31
 70
     0
102
RTVSPost2010Prop32
280
     0
102
RTVSPost2010PropOp32
 70
     0
102
RTVSPost2010Prop33
280
     0
102
RTVSPost2010PropOp33
 70
     0
102
RTVSPost2010Prop34
280
     0
102
RTVSPost2010PropOp34
 70
     0
102
RTVSPost2010Prop35
280
     0
102
RTVSPost2010PropOp35
 70
     0
102
RTVSPost2010Prop36
280
     0
102
RTVSPost2010PropOp36
 70
     0
102
RTVSPost2010Prop37
 90
       50
102
RTVSPost2010PropOp37
 70
     0
102
RTVSPost2010Prop38
140
0.0
102
RTVSPost2010PropOp38
 70
     0
102
RTVSPost2010Prop39
140
1.0
102
RTVSPost2010PropOp39
 70
     0
102
RTVSPost2010Prop40
 90
        0
102
RTVSPost2010PropOp40
 70
     0
102
RTVSPost2010Prop41ColorIndex
 90
       18
102
RTVSPost2010Prop41ColorRGB
 90
        0
102
RTVSPost2010PropOp41
 70
     0
102
RTVSPost2010Prop42
 90
       50
102
RTVSPost2010PropOp42
 70
     0
102
RTVSPost2010Prop43
 90
        3
102
RTVSPost2010PropOp43
 70
     0
102
RTVSPost2010Prop44ColorIndex
 90
        5
102
RTVSPost2010Prop44ColorRGB
 90
      255
102
RTVSPost2010PropOp44
 70
     0
102
RTVSPost2010Prop45
280
     0
102
RTVSPost2010PropOp45
 70
     0
102
RTVSPost2010Prop46
 90
       50
102
RTVSPost2010PropOp46
 70
     0
102
RTVSPost2010Prop47
 90
       50
102
RTVSPost2010PropOp47
 70
     0
102
RTVSPost2010Prop48
 90
       50
102
RTVSPost2010PropOp48
 70
     0
102
RTVSPost2010Prop49
280
     0
102
RTVSPost2010PropOp49
 70
     0
102
RTVSPost2010Prop50
 90
       50
102
RTVSPost2010PropOp50
 70
     0
102
RTVSPost2010Prop51ColorIndex
 90
      256
102
RTVSPost2010Prop51ColorRGB
 90
-16777216
102
RTVSPost2010PropOp51
 70
     0
102
RTVSPost2010Prop52
140
1.0
102
RTVSPost2010PropOp52
 70
     0
102
RTVSPost2010Prop53
 90
        2
102
RTVSPost2010PropOp53
 70
     0
102
RTVSPost2010Prop54
  1
strokes_ogs.tif
102
RTVSPost2010PropOp54
 70
     0
102
RTVSPost2010Prop55
280
     0
102
RTVSPost2010PropOp55
 70
     0
102
RTVSPost2010Prop56
140
1.0
102
RTVSPost2010PropOp56
 70
     0
102
RTVSPost2010Prop57
140
1.0
102
RTVSPost2010PropOp57
 70
     0
102
RTVSPropertyOp0
 70
     0
102
RTVSPropertyOp1
 70
     0
102
RTVSPropertyOp2
 70
     0
102
RTVSPropertyOp3
 70
     0
102
RTVSPropertyOp4
 70
     0
102
RTVSPropertyOp5
 70
     0
102
RTVSPropertyOp6
 70
     0
102
RTVSPropertyOp7
 70
     0
102
RTVSPropertyOp8
 70
     0
102
RTVSPropertyOp9
 70
     0
102
RTVSPropertyOp10
 70
     0
102
RTVSPropertyOp11
 70
     0
102
RTVSPropertyOp12
 70
     0
102
RTVSPropertyOp13
 70
     0
102
RTVSPropertyOp14
 70
     2
102
RTVSPropertyOp15
 70
     0
102
RTVSPropertyOp16
 70
     0
102
RTVSPropertyOp17
 70
     0
102
RTVSPropertyOp18
 70
     0
102
RTVSPropertyOp19
 70
     0
102
RTVSPropertyOp20
 70
     0
102
RTVSPropertyOp21
 70
     0
102
RTVSPropertyOp22
 70
     0
102
RTVSPropertyOp23
 70
     0
102
RTVSPropertyOp24
 70
     0
102
RTVSPropertyOp25
 70
     0
102
RTVSPropertyOp26
 70
     0
102
RTVSPropertyOp27
 70
     0
102
RTVSPropertyOp28
 70
     0
102
RTVSPropertyOp29
 70
     0
102
RTVSPropertyOp30
 70
     0
102
RTVSPropertyOp31
 70
     0
102
RTVSPropertyOp32
 70
     0
102
RTVSPropertyOp33
 70
     0
102
RTVSPropertyOp34
 70
     0
102
RTVSPropertyOp35
 70
     0
102
RTVSPropertyOp36
 70
     0
102
RTVSPropertyOp37
 70
     0
102
RTVSPropertyOp38
 70
     0
102
RTVSPropertyOp39
 70
     0
102
RTVSPropertyOp40
 70
     0
102
RTVSPropertyOp41
 70
     0
102
RTVSPropertyOp42
 70
     0
102
RTVSPropertyOp43
 70
     0
102
RTVSPropertyOp44
 70
     0
102
RTVSPropertyOp45
 70
     0
102
RTVSPropertyOp46
 70
     0
102
RTVSPropertyOp47
 70
     0
102
RTVSPropertyOp48
 70
     0
102
RTVSPropertyOp49
 70
     0
102
RTVSPropertyOp50
 70
     0
102
RTVSPropertyOp51
 70
     0
102
RTVSPropertyOp52
 70
     0
102
RTVSPropertyOp53
 70
     0
102
RTVSPropertyOp54
 70
     0
102
RTVSPropertyOp55
 70
     0
102
RTVSPropertyOp56
 70
     0
102
RTVSPropertyOp57
 70
     0
102
RTVSPropertyOp58
 70
     1
102
RTVSPropertyOp59
 70
     1
102
RTVSPropertyOp60
 70
     1
102
RTVSPropertyOp61
 70
     1
102
RTVSPropertyOp62
 70
     1
  0
XRECORD
  5
15633
102
{ACAD_REACTORS
330
15632
102
}
330
15632
100
AcDbXrecord
280
     1
102
RTVSPost2010Prop28
280
     0
102
RTVSPost2010PropOp28
 70
     1
102
RTVSPost2010Prop29
280
     1
102
RTVSPost2010PropOp29
 70
     1
102
RTVSPost2010Prop30
280
     1
102
RTVSPost2010PropOp30
 70
     1
102
RTVSPost2010Prop31
280
     0
102
RTVSPost2010PropOp31
 70
     1
102
RTVSPost2010Prop32
280
     0
102
RTVSPost2010PropOp32
 70
     1
102
RTVSPost2010Prop33
280
     0
102
RTVSPost2010PropOp33
 70
     1
102
RTVSPost2010Prop34
280
     0
102
RTVSPost2010PropOp34
 70
     1
102
RTVSPost2010Prop35
280
     0
102
RTVSPost2010PropOp35
 70
     1
102
RTVSPost2010Prop36
280
     0
102
RTVSPost2010PropOp36
 70
     1
102
RTVSPost2010Prop37
 90
       50
102
RTVSPost2010PropOp37
 70
     1
102
RTVSPost2010Prop38
140
0.0
102
RTVSPost2010PropOp38
 70
     1
102
RTVSPost2010Prop39
140
1.0
102
RTVSPost2010PropOp39
 70
     1
102
RTVSPost2010Prop40
 90
        0
102
RTVSPost2010PropOp40
 70
     1
102
RTVSPost2010Prop41ColorIndex
 90
       18
102
RTVSPost2010Prop41ColorRGB
 90
        0
102
RTVSPost2010PropOp41
 70
     1
102
RTVSPost2010Prop42
 90
       50
102
RTVSPost2010PropOp42
 70
     1
102
RTVSPost2010Prop43
 90
        3
102
RTVSPost2010PropOp43
 70
     1
102
RTVSPost2010Prop44ColorIndex
 90
        5
102
RTVSPost2010Prop44ColorRGB
 90
      255
102
RTVSPost2010PropOp44
 70
     1
102
RTVSPost2010Prop45
280
     0
102
RTVSPost2010PropOp45
 70
     1
102
RTVSPost2010Prop46
 90
       50
102
RTVSPost2010PropOp46
 70
     1
102
RTVSPost2010Prop47
 90
       50
102
RTVSPost2010PropOp47
 70
     1
102
RTVSPost2010Prop48
 90
       50
102
RTVSPost2010PropOp48
 70
     1
102
RTVSPost2010Prop49
280
     0
102
RTVSPost2010PropOp49
 70
     1
102
RTVSPost2010Prop50
 90
       50
102
RTVSPost2010PropOp50
 70
     1
102
RTVSPost2010Prop51ColorIndex
 90
      256
102
RTVSPost2010Prop51ColorRGB
 90
-16777216
102
RTVSPost2010PropOp51
 70
     0
102
RTVSPost2010Prop52
140
1.0
102
RTVSPost2010PropOp52
 70
     0
102
RTVSPost2010Prop53
 90
        2
102
RTVSPost2010PropOp53
 70
     1
102
RTVSPost2010Prop54
  1
strokes_ogs.tif
102
RTVSPost2010PropOp54
 70
     1
102
RTVSPost2010Prop55
280
     0
102
RTVSPost2010PropOp55
 70
     1
102
RTVSPost2010Prop56
140
1.0
102
RTVSPost2010PropOp56
 70
     1
102
RTVSPost2010Prop57
140
1.0
102
RTVSPost2010PropOp57
 70
     1
102
RTVSPropertyOp0
 70
     1
102
RTVSPropertyOp1
 70
     1
102
RTVSPropertyOp2
 70
     1
102
RTVSPropertyOp3
 70
     1
102
RTVSPropertyOp4
 70
     1
102
RTVSPropertyOp5
 70
     1
102
RTVSPropertyOp6
 70
     1
102
RTVSPropertyOp7
 70
     1
102
RTVSPropertyOp8
 70
     1
102
RTVSPropertyOp9
 70
     1
102
RTVSPropertyOp10
 70
     1
102
RTVSPropertyOp11
 70
     1
102
RTVSPropertyOp12
 70
     1
102
RTVSPropertyOp13
 70
     1
102
RTVSPropertyOp14
 70
     1
102
RTVSPropertyOp15
 70
     1
102
RTVSPropertyOp16
 70
     1
102
RTVSPropertyOp17
 70
     1
102
RTVSPropertyOp18
 70
     1
102
RTVSPropertyOp19
 70
     1
102
RTVSPropertyOp20
 70
     1
102
RTVSPropertyOp21
 70
     1
102
RTVSPropertyOp22
 70
     1
102
RTVSPropertyOp23
 70
     1
102
RTVSPropertyOp24
 70
     1
102
RTVSPropertyOp25
 70
     1
102
RTVSPropertyOp26
 70
     1
102
RTVSPropertyOp27
 70
     1
102
RTVSPropertyOp28
 70
     1
102
RTVSPropertyOp29
 70
     1
102
RTVSPropertyOp30
 70
     1
102
RTVSPropertyOp31
 70
     1
102
RTVSPropertyOp32
 70
     1
102
RTVSPropertyOp33
 70
     1
102
RTVSPropertyOp34
 70
     1
102
RTVSPropertyOp35
 70
     1
102
RTVSPropertyOp36
 70
     1
102
RTVSPropertyOp37
 70
     1
102
RTVSPropertyOp38
 70
     1
102
RTVSPropertyOp39
 70
     1
102
RTVSPropertyOp40
 70
     1
102
RTVSPropertyOp41
 70
     1
102
RTVSPropertyOp42
 70
     1
102
RTVSPropertyOp43
 70
     1
102
RTVSPropertyOp44
 70
     1
102
RTVSPropertyOp45
 70
     1
102
RTVSPropertyOp46
 70
     1
102
RTVSPropertyOp47
 70
     1
102
RTVSPropertyOp48
 70
     1
102
RTVSPropertyOp49
 70
     1
102
RTVSPropertyOp50
 70
     1
102
RTVSPropertyOp51
 70
     0
102
RTVSPropertyOp52
 70
     0
102
RTVSPropertyOp53
 70
     1
102
RTVSPropertyOp54
 70
     1
102
RTVSPropertyOp55
 70
     1
102
RTVSPropertyOp56
 70
     1
102
RTVSPropertyOp57
 70
     1
102
RTVSPropertyOp58
 70
     1
102
RTVSPropertyOp59
 70
     1
102
RTVSPropertyOp60
 70
     1
102
RTVSPropertyOp61
 70
     1
102
RTVSPropertyOp62
 70
     1
  0
XRECORD
  5
15645
102
{ACAD_REACTORS
330
15644
102
}
330
15644
100
AcDbXrecord
280
     1
102
RTVSPost2010Prop28
280
     0
102
RTVSPost2010PropOp28
 70
     0
102
RTVSPost2010Prop29
280
     1
102
RTVSPost2010PropOp29
 70
     0
102
RTVSPost2010Prop30
280
     1
102
RTVSPost2010PropOp30
 70
     0
102
RTVSPost2010Prop31
280
     0
102
RTVSPost2010PropOp31
 70
     0
102
RTVSPost2010Prop32
280
     0
102
RTVSPost2010PropOp32
 70
     0
102
RTVSPost2010Prop33
280
     0
102
RTVSPost2010PropOp33
 70
     0
102
RTVSPost2010Prop34
280
     0
102
RTVSPost2010PropOp34
 70
     0
102
RTVSPost2010Prop35
280
     0
102
RTVSPost2010PropOp35
 70
     0
102
RTVSPost2010Prop36
280
     0
102
RTVSPost2010PropOp36
 70
     0
102
RTVSPost2010Prop37
 90
       50
102
RTVSPost2010PropOp37
 70
     0
102
RTVSPost2010Prop38
140
0.0
102
RTVSPost2010PropOp38
 70
     0
102
RTVSPost2010Prop39
140
1.0
102
RTVSPost2010PropOp39
 70
     0
102
RTVSPost2010Prop40
 90
        0
102
RTVSPost2010PropOp40
 70
     0
102
RTVSPost2010Prop41ColorIndex
 90
       18
102
RTVSPost2010Prop41ColorRGB
 90
        0
102
RTVSPost2010PropOp41
 70
     0
102
RTVSPost2010Prop42
 90
       50
102
RTVSPost2010PropOp42
 70
     0
102
RTVSPost2010Prop43
 90
        3
102
RTVSPost2010PropOp43
 70
     0
102
RTVSPost2010Prop44ColorIndex
 90
        5
102
RTVSPost2010Prop44ColorRGB
 90
      255
102
RTVSPost2010PropOp44
 70
     0
102
RTVSPost2010Prop45
280
     0
102
RTVSPost2010PropOp45
 70
     0
102
RTVSPost2010Prop46
 90
       50
102
RTVSPost2010PropOp46
 70
     0
102
RTVSPost2010Prop47
 90
       50
102
RTVSPost2010PropOp47
 70
     0
102
RTVSPost2010Prop48
 90
       50
102
RTVSPost2010PropOp48
 70
     0
102
RTVSPost2010Prop49
280
     0
102
RTVSPost2010PropOp49
 70
     0
102
RTVSPost2010Prop50
 90
       50
102
RTVSPost2010PropOp50
 70
     0
102
RTVSPost2010Prop51ColorIndex
 90
      256
102
RTVSPost2010Prop51ColorRGB
 90
-16777216
102
RTVSPost2010PropOp51
 70
     0
102
RTVSPost2010Prop52
140
1.0
102
RTVSPost2010PropOp52
 70
     0
102
RTVSPost2010Prop53
 90
        2
102
RTVSPost2010PropOp53
 70
     0
102
RTVSPost2010Prop54
  1
strokes_ogs.tif
102
RTVSPost2010PropOp54
 70
     0
102
RTVSPost2010Prop55
280
     0
102
RTVSPost2010PropOp55
 70
     0
102
RTVSPost2010Prop56
140
1.0
102
RTVSPost2010PropOp56
 70
     0
102
RTVSPost2010Prop57
140
1.0
102
RTVSPost2010PropOp57
 70
     0
102
RTVSPropertyOp0
 70
     0
102
RTVSPropertyOp1
 70
     0
102
RTVSPropertyOp2
 70
     0
102
RTVSPropertyOp3
 70
     0
102
RTVSPropertyOp4
 70
     0
102
RTVSPropertyOp5
 70
     0
102
RTVSPropertyOp6
 70
     0
102
RTVSPropertyOp7
 70
     0
102
RTVSPropertyOp8
 70
     0
102
RTVSPropertyOp9
 70
     0
102
RTVSPropertyOp10
 70
     0
102
RTVSPropertyOp11
 70
     0
102
RTVSPropertyOp12
 70
     0
102
RTVSPropertyOp13
 70
     0
102
RTVSPropertyOp14
 70
     2
102
RTVSPropertyOp15
 70
     0
102
RTVSPropertyOp16
 70
     0
102
RTVSPropertyOp17
 70
     0
102
RTVSPropertyOp18
 70
     0
102
RTVSPropertyOp19
 70
     0
102
RTVSPropertyOp20
 70
     0
102
RTVSPropertyOp21
 70
     0
102
RTVSPropertyOp22
 70
     0
102
RTVSPropertyOp23
 70
     0
102
RTVSPropertyOp24
 70
     0
102
RTVSPropertyOp25
 70
     0
102
RTVSPropertyOp26
 70
     0
102
RTVSPropertyOp27
 70
     0
102
RTVSPropertyOp28
 70
     0
102
RTVSPropertyOp29
 70
     0
102
RTVSPropertyOp30
 70
     0
102
RTVSPropertyOp31
 70
     0
102
RTVSPropertyOp32
 70
     0
102
RTVSPropertyOp33
 70
     0
102
RTVSPropertyOp34
 70
     0
102
RTVSPropertyOp35
 70
     0
102
RTVSPropertyOp36
 70
     0
102
RTVSPropertyOp37
 70
     0
102
RTVSPropertyOp38
 70
     0
102
RTVSPropertyOp39
 70
     0
102
RTVSPropertyOp40
 70
     0
102
RTVSPropertyOp41
 70
     0
102
RTVSPropertyOp42
 70
     0
102
RTVSPropertyOp43
 70
     0
102
RTVSPropertyOp44
 70
     0
102
RTVSPropertyOp45
 70
     0
102
RTVSPropertyOp46
 70
     0
102
RTVSPropertyOp47
 70
     0
102
RTVSPropertyOp48
 70
     0
102
RTVSPropertyOp49
 70
     0
102
RTVSPropertyOp50
 70
     0
102
RTVSPropertyOp51
 70
     0
102
RTVSPropertyOp52
 70
     0
102
RTVSPropertyOp53
 70
     0
102
RTVSPropertyOp54
 70
     0
102
RTVSPropertyOp55
 70
     0
102
RTVSPropertyOp56
 70
     0
102
RTVSPropertyOp57
 70
     0
102
RTVSPropertyOp58
 70
     1
102
RTVSPropertyOp59
 70
     1
102
RTVSPropertyOp60
 70
     1
102
RTVSPropertyOp61
 70
     1
102
RTVSPropertyOp62
 70
     1
  0
XRECORD
  5
1562B
102
{ACAD_REACTORS
330
1562A
102
}
330
1562A
100
AcDbXrecord
280
     1
102
RTVSPost2010Prop28
280
     0
102
RTVSPost2010PropOp28
 70
     1
102
RTVSPost2010Prop29
280
     1
102
RTVSPost2010PropOp29
 70
     1
102
RTVSPost2010Prop30
280
     1
102
RTVSPost2010PropOp30
 70
     1
102
RTVSPost2010Prop31
280
     0
102
RTVSPost2010PropOp31
 70
     1
102
RTVSPost2010Prop32
280
     0
102
RTVSPost2010PropOp32
 70
     1
102
RTVSPost2010Prop33
280
     0
102
RTVSPost2010PropOp33
 70
     1
102
RTVSPost2010Prop34
280
     0
102
RTVSPost2010PropOp34
 70
     1
102
RTVSPost2010Prop35
280
     0
102
RTVSPost2010PropOp35
 70
     1
102
RTVSPost2010Prop36
280
     0
102
RTVSPost2010PropOp36
 70
     1
102
RTVSPost2010Prop37
 90
       50
102
RTVSPost2010PropOp37
 70
     1
102
RTVSPost2010Prop38
140
0.0
102
RTVSPost2010PropOp38
 70
     1
102
RTVSPost2010Prop39
140
1.0
102
RTVSPost2010PropOp39
 70
     1
102
RTVSPost2010Prop40
 90
        0
102
RTVSPost2010PropOp40
 70
     1
102
RTVSPost2010Prop41ColorIndex
 90
       18
102
RTVSPost2010Prop41ColorRGB
 90
        0
102
RTVSPost2010PropOp41
 70
     1
102
RTVSPost2010Prop42
 90
       50
102
RTVSPost2010PropOp42
 70
     1
102
RTVSPost2010Prop43
 90
        3
102
RTVSPost2010PropOp43
 70
     1
102
RTVSPost2010Prop44ColorIndex
 90
        5
102
RTVSPost2010Prop44ColorRGB
 90
      255
102
RTVSPost2010PropOp44
 70
     1
102
RTVSPost2010Prop45
280
     0
102
RTVSPost2010PropOp45
 70
     1
102
RTVSPost2010Prop46
 90
       50
102
RTVSPost2010PropOp46
 70
     1
102
RTVSPost2010Prop47
 90
       50
102
RTVSPost2010PropOp47
 70
     1
102
RTVSPost2010Prop48
 90
       50
102
RTVSPost2010PropOp48
 70
     1
102
RTVSPost2010Prop49
280
     0
102
RTVSPost2010PropOp49
 70
     1
102
RTVSPost2010Prop50
 90
       50
102
RTVSPost2010PropOp50
 70
     1
102
RTVSPost2010Prop51ColorIndex
 90
      256
102
RTVSPost2010Prop51ColorRGB
 90
-16777216
102
RTVSPost2010PropOp51
 70
     0
102
RTVSPost2010Prop52
140
1.0
102
RTVSPost2010PropOp52
 70
     0
102
RTVSPost2010Prop53
 90
        2
102
RTVSPost2010PropOp53
 70
     1
102
RTVSPost2010Prop54
  1
strokes_ogs.tif
102
RTVSPost2010PropOp54
 70
     1
102
RTVSPost2010Prop55
280
     0
102
RTVSPost2010PropOp55
 70
     1
102
RTVSPost2010Prop56
140
1.0
102
RTVSPost2010PropOp56
 70
     1
102
RTVSPost2010Prop57
140
1.0
102
RTVSPost2010PropOp57
 70
     1
102
RTVSPropertyOp0
 70
     1
102
RTVSPropertyOp1
 70
     1
102
RTVSPropertyOp2
 70
     1
102
RTVSPropertyOp3
 70
     1
102
RTVSPropertyOp4
 70
     1
102
RTVSPropertyOp5
 70
     1
102
RTVSPropertyOp6
 70
     1
102
RTVSPropertyOp7
 70
     1
102
RTVSPropertyOp8
 70
     1
102
RTVSPropertyOp9
 70
     1
102
RTVSPropertyOp10
 70
     1
102
RTVSPropertyOp11
 70
     1
102
RTVSPropertyOp12
 70
     1
102
RTVSPropertyOp13
 70
     1
102
RTVSPropertyOp14
 70
     1
102
RTVSPropertyOp15
 70
     1
102
RTVSPropertyOp16
 70
     1
102
RTVSPropertyOp17
 70
     1
102
RTVSPropertyOp18
 70
     1
102
RTVSPropertyOp19
 70
     1
102
RTVSPropertyOp20
 70
     1
102
RTVSPropertyOp21
 70
     1
102
RTVSPropertyOp22
 70
     1
102
RTVSPropertyOp23
 70
     1
102
RTVSPropertyOp24
 70
     1
102
RTVSPropertyOp25
 70
     1
102
RTVSPropertyOp26
 70
     1
102
RTVSPropertyOp27
 70
     1
102
RTVSPropertyOp28
 70
     1
102
RTVSPropertyOp29
 70
     1
102
RTVSPropertyOp30
 70
     1
102
RTVSPropertyOp31
 70
     1
102
RTVSPropertyOp32
 70
     1
102
RTVSPropertyOp33
 70
     1
102
RTVSPropertyOp34
 70
     1
102
RTVSPropertyOp35
 70
     1
102
RTVSPropertyOp36
 70
     1
102
RTVSPropertyOp37
 70
     1
102
RTVSPropertyOp38
 70
     1
102
RTVSPropertyOp39
 70
     1
102
RTVSPropertyOp40
 70
     1
102
RTVSPropertyOp41
 70
     1
102
RTVSPropertyOp42
 70
     1
102
RTVSPropertyOp43
 70
     1
102
RTVSPropertyOp44
 70
     1
102
RTVSPropertyOp45
 70
     1
102
RTVSPropertyOp46
 70
     1
102
RTVSPropertyOp47
 70
     1
102
RTVSPropertyOp48
 70
     1
102
RTVSPropertyOp49
 70
     1
102
RTVSPropertyOp50
 70
     1
102
RTVSPropertyOp51
 70
     0
102
RTVSPropertyOp52
 70
     0
102
RTVSPropertyOp53
 70
     1
102
RTVSPropertyOp54
 70
     1
102
RTVSPropertyOp55
 70
     1
102
RTVSPropertyOp56
 70
     1
102
RTVSPropertyOp57
 70
     1
102
RTVSPropertyOp58
 70
     1
102
RTVSPropertyOp59
 70
     1
102
RTVSPropertyOp60
 70
     1
102
RTVSPropertyOp61
 70
     1
102
RTVSPropertyOp62
 70
     1
  0
XRECORD
  5
15641
102
{ACAD_REACTORS
330
15640
102
}
330
15640
100
AcDbXrecord
280
     1
102
RTVSPost2010Prop28
280
     0
102
RTVSPost2010PropOp28
 70
     1
102
RTVSPost2010Prop29
280
     1
102
RTVSPost2010PropOp29
 70
     1
102
RTVSPost2010Prop30
280
     1
102
RTVSPost2010PropOp30
 70
     1
102
RTVSPost2010Prop31
280
     0
102
RTVSPost2010PropOp31
 70
     1
102
RTVSPost2010Prop32
280
     0
102
RTVSPost2010PropOp32
 70
     1
102
RTVSPost2010Prop33
280
     0
102
RTVSPost2010PropOp33
 70
     1
102
RTVSPost2010Prop34
280
     0
102
RTVSPost2010PropOp34
 70
     1
102
RTVSPost2010Prop35
280
     0
102
RTVSPost2010PropOp35
 70
     1
102
RTVSPost2010Prop36
280
     0
102
RTVSPost2010PropOp36
 70
     1
102
RTVSPost2010Prop37
 90
       50
102
RTVSPost2010PropOp37
 70
     1
102
RTVSPost2010Prop38
140
0.0
102
RTVSPost2010PropOp38
 70
     1
102
RTVSPost2010Prop39
140
1.0
102
RTVSPost2010PropOp39
 70
     1
102
RTVSPost2010Prop40
 90
        0
102
RTVSPost2010PropOp40
 70
     1
102
RTVSPost2010Prop41ColorIndex
 90
       18
102
RTVSPost2010Prop41ColorRGB
 90
        0
102
RTVSPost2010PropOp41
 70
     1
102
RTVSPost2010Prop42
 90
       50
102
RTVSPost2010PropOp42
 70
     1
102
RTVSPost2010Prop43
 90
        3
102
RTVSPost2010PropOp43
 70
     1
102
RTVSPost2010Prop44ColorIndex
 90
        5
102
RTVSPost2010Prop44ColorRGB
 90
      255
102
RTVSPost2010PropOp44
 70
     1
102
RTVSPost2010Prop45
280
     0
102
RTVSPost2010PropOp45
 70
     1
102
RTVSPost2010Prop46
 90
       50
102
RTVSPost2010PropOp46
 70
     1
102
RTVSPost2010Prop47
 90
       50
102
RTVSPost2010PropOp47
 70
     1
102
RTVSPost2010Prop48
 90
       50
102
RTVSPost2010PropOp48
 70
     1
102
RTVSPost2010Prop49
280
     0
102
RTVSPost2010PropOp49
 70
     1
102
RTVSPost2010Prop50
 90
       50
102
RTVSPost2010PropOp50
 70
     1
102
RTVSPost2010Prop51ColorIndex
 90
      256
102
RTVSPost2010Prop51ColorRGB
 90
-16777216
102
RTVSPost2010PropOp51
 70
     0
102
RTVSPost2010Prop52
140
1.0
102
RTVSPost2010PropOp52
 70
     0
102
RTVSPost2010Prop53
 90
        2
102
RTVSPost2010PropOp53
 70
     1
102
RTVSPost2010Prop54
  1
strokes_ogs.tif
102
RTVSPost2010PropOp54
 70
     1
102
RTVSPost2010Prop55
280
     0
102
RTVSPost2010PropOp55
 70
     1
102
RTVSPost2010Prop56
140
1.0
102
RTVSPost2010PropOp56
 70
     1
102
RTVSPost2010Prop57
140
1.0
102
RTVSPost2010PropOp57
 70
     1
102
RTVSPropertyOp0
 70
     1
102
RTVSPropertyOp1
 70
     1
102
RTVSPropertyOp2
 70
     1
102
RTVSPropertyOp3
 70
     1
102
RTVSPropertyOp4
 70
     1
102
RTVSPropertyOp5
 70
     1
102
RTVSPropertyOp6
 70
     1
102
RTVSPropertyOp7
 70
     1
102
RTVSPropertyOp8
 70
     1
102
RTVSPropertyOp9
 70
     1
102
RTVSPropertyOp10
 70
     1
102
RTVSPropertyOp11
 70
     1
102
RTVSPropertyOp12
 70
     1
102
RTVSPropertyOp13
 70
     1
102
RTVSPropertyOp14
 70
     1
102
RTVSPropertyOp15
 70
     1
102
RTVSPropertyOp16
 70
     1
102
RTVSPropertyOp17
 70
     1
102
RTVSPropertyOp18
 70
     1
102
RTVSPropertyOp19
 70
     1
102
RTVSPropertyOp20
 70
     1
102
RTVSPropertyOp21
 70
     1
102
RTVSPropertyOp22
 70
     1
102
RTVSPropertyOp23
 70
     1
102
RTVSPropertyOp24
 70
     1
102
RTVSPropertyOp25
 70
     1
102
RTVSPropertyOp26
 70
     1
102
RTVSPropertyOp27
 70
     1
102
RTVSPropertyOp28
 70
     1
102
RTVSPropertyOp29
 70
     1
102
RTVSPropertyOp30
 70
     1
102
RTVSPropertyOp31
 70
     1
102
RTVSPropertyOp32
 70
     1
102
RTVSPropertyOp33
 70
     1
102
RTVSPropertyOp34
 70
     1
102
RTVSPropertyOp35
 70
     1
102
RTVSPropertyOp36
 70
     1
102
RTVSPropertyOp37
 70
     1
102
RTVSPropertyOp38
 70
     1
102
RTVSPropertyOp39
 70
     1
102
RTVSPropertyOp40
 70
     1
102
RTVSPropertyOp41
 70
     1
102
RTVSPropertyOp42
 70
     1
102
RTVSPropertyOp43
 70
     1
102
RTVSPropertyOp44
 70
     1
102
RTVSPropertyOp45
 70
     1
102
RTVSPropertyOp46
 70
     1
102
RTVSPropertyOp47
 70
     1
102
RTVSPropertyOp48
 70
     1
102
RTVSPropertyOp49
 70
     1
102
RTVSPropertyOp50
 70
     1
102
RTVSPropertyOp51
 70
     0
102
RTVSPropertyOp52
 70
     0
102
RTVSPropertyOp53
 70
     1
102
RTVSPropertyOp54
 70
     1
102
RTVSPropertyOp55
 70
     1
102
RTVSPropertyOp56
 70
     1
102
RTVSPropertyOp57
 70
     1
102
RTVSPropertyOp58
 70
     1
102
RTVSPropertyOp59
 70
     1
102
RTVSPropertyOp60
 70
     1
102
RTVSPropertyOp61
 70
     1
102
RTVSPropertyOp62
 70
     1
  0
XRECORD
  5
1563F
102
{ACAD_REACTORS
330
1563E
102
}
330
1563E
100
AcDbXrecord
280
     1
102
RTVSPost2010Prop28
280
     0
102
RTVSPost2010PropOp28
 70
     1
102
RTVSPost2010Prop29
280
     1
102
RTVSPost2010PropOp29
 70
     1
102
RTVSPost2010Prop30
280
     1
102
RTVSPost2010PropOp30
 70
     1
102
RTVSPost2010Prop31
280
     0
102
RTVSPost2010PropOp31
 70
     1
102
RTVSPost2010Prop32
280
     0
102
RTVSPost2010PropOp32
 70
     1
102
RTVSPost2010Prop33
280
     0
102
RTVSPost2010PropOp33
 70
     1
102
RTVSPost2010Prop34
280
     0
102
RTVSPost2010PropOp34
 70
     1
102
RTVSPost2010Prop35
280
     0
102
RTVSPost2010PropOp35
 70
     1
102
RTVSPost2010Prop36
280
     0
102
RTVSPost2010PropOp36
 70
     1
102
RTVSPost2010Prop37
 90
       50
102
RTVSPost2010PropOp37
 70
     1
102
RTVSPost2010Prop38
140
0.0
102
RTVSPost2010PropOp38
 70
     1
102
RTVSPost2010Prop39
140
1.0
102
RTVSPost2010PropOp39
 70
     1
102
RTVSPost2010Prop40
 90
        0
102
RTVSPost2010PropOp40
 70
     1
102
RTVSPost2010Prop41ColorIndex
 90
       18
102
RTVSPost2010Prop41ColorRGB
 90
        0
102
RTVSPost2010PropOp41
 70
     1
102
RTVSPost2010Prop42
 90
       50
102
RTVSPost2010PropOp42
 70
     1
102
RTVSPost2010Prop43
 90
        3
102
RTVSPost2010PropOp43
 70
     1
102
RTVSPost2010Prop44ColorIndex
 90
        5
102
RTVSPost2010Prop44ColorRGB
 90
      255
102
RTVSPost2010PropOp44
 70
     1
102
RTVSPost2010Prop45
280
     0
102
RTVSPost2010PropOp45
 70
     1
102
RTVSPost2010Prop46
 90
       50
102
RTVSPost2010PropOp46
 70
     1
102
RTVSPost2010Prop47
 90
       50
102
RTVSPost2010PropOp47
 70
     1
102
RTVSPost2010Prop48
 90
       50
102
RTVSPost2010PropOp48
 70
     1
102
RTVSPost2010Prop49
280
     0
102
RTVSPost2010PropOp49
 70
     1
102
RTVSPost2010Prop50
 90
       50
102
RTVSPost2010PropOp50
 70
     1
102
RTVSPost2010Prop51ColorIndex
 90
      256
102
RTVSPost2010Prop51ColorRGB
 90
-16777216
102
RTVSPost2010PropOp51
 70
     0
102
RTVSPost2010Prop52
140
1.0
102
RTVSPost2010PropOp52
 70
     0
102
RTVSPost2010Prop53
 90
        2
102
RTVSPost2010PropOp53
 70
     1
102
RTVSPost2010Prop54
  1
strokes_ogs.tif
102
RTVSPost2010PropOp54
 70
     1
102
RTVSPost2010Prop55
280
     0
102
RTVSPost2010PropOp55
 70
     1
102
RTVSPost2010Prop56
140
1.0
102
RTVSPost2010PropOp56
 70
     1
102
RTVSPost2010Prop57
140
1.0
102
RTVSPost2010PropOp57
 70
     1
102
RTVSPropertyOp0
 70
     1
102
RTVSPropertyOp1
 70
     1
102
RTVSPropertyOp2
 70
     1
102
RTVSPropertyOp3
 70
     1
102
RTVSPropertyOp4
 70
     1
102
RTVSPropertyOp5
 70
     1
102
RTVSPropertyOp6
 70
     1
102
RTVSPropertyOp7
 70
     1
102
RTVSPropertyOp8
 70
     1
102
RTVSPropertyOp9
 70
     1
102
RTVSPropertyOp10
 70
     1
102
RTVSPropertyOp11
 70
     1
102
RTVSPropertyOp12
 70
     1
102
RTVSPropertyOp13
 70
     1
102
RTVSPropertyOp14
 70
     1
102
RTVSPropertyOp15
 70
     1
102
RTVSPropertyOp16
 70
     1
102
RTVSPropertyOp17
 70
     1
102
RTVSPropertyOp18
 70
     1
102
RTVSPropertyOp19
 70
     1
102
RTVSPropertyOp20
 70
     1
102
RTVSPropertyOp21
 70
     1
102
RTVSPropertyOp22
 70
     1
102
RTVSPropertyOp23
 70
     1
102
RTVSPropertyOp24
 70
     1
102
RTVSPropertyOp25
 70
     1
102
RTVSPropertyOp26
 70
     1
102
RTVSPropertyOp27
 70
     1
102
RTVSPropertyOp28
 70
     1
102
RTVSPropertyOp29
 70
     1
102
RTVSPropertyOp30
 70
     1
102
RTVSPropertyOp31
 70
     1
102
RTVSPropertyOp32
 70
     1
102
RTVSPropertyOp33
 70
     1
102
RTVSPropertyOp34
 70
     1
102
RTVSPropertyOp35
 70
     1
102
RTVSPropertyOp36
 70
     1
102
RTVSPropertyOp37
 70
     1
102
RTVSPropertyOp38
 70
     1
102
RTVSPropertyOp39
 70
     1
102
RTVSPropertyOp40
 70
     1
102
RTVSPropertyOp41
 70
     1
102
RTVSPropertyOp42
 70
     1
102
RTVSPropertyOp43
 70
     1
102
RTVSPropertyOp44
 70
     1
102
RTVSPropertyOp45
 70
     1
102
RTVSPropertyOp46
 70
     1
102
RTVSPropertyOp47
 70
     1
102
RTVSPropertyOp48
 70
     1
102
RTVSPropertyOp49
 70
     1
102
RTVSPropertyOp50
 70
     1
102
RTVSPropertyOp51
 70
     0
102
RTVSPropertyOp52
 70
     0
102
RTVSPropertyOp53
 70
     1
102
RTVSPropertyOp54
 70
     1
102
RTVSPropertyOp55
 70
     1
102
RTVSPropertyOp56
 70
     1
102
RTVSPropertyOp57
 70
     1
102
RTVSPropertyOp58
 70
     1
102
RTVSPropertyOp59
 70
     1
102
RTVSPropertyOp60
 70
     1
102
RTVSPropertyOp61
 70
     1
102
RTVSPropertyOp62
 70
     1
  0
XRECORD
  5
15639
102
{ACAD_REACTORS
330
15638
102
}
330
15638
100
AcDbXrecord
280
     1
102
RTVSPost2010Prop28
280
     0
102
RTVSPost2010PropOp28
 70
     1
102
RTVSPost2010Prop29
280
     1
102
RTVSPost2010PropOp29
 70
     1
102
RTVSPost2010Prop30
280
     1
102
RTVSPost2010PropOp30
 70
     1
102
RTVSPost2010Prop31
280
     0
102
RTVSPost2010PropOp31
 70
     1
102
RTVSPost2010Prop32
280
     0
102
RTVSPost2010PropOp32
 70
     1
102
RTVSPost2010Prop33
280
     0
102
RTVSPost2010PropOp33
 70
     1
102
RTVSPost2010Prop34
280
     0
102
RTVSPost2010PropOp34
 70
     1
102
RTVSPost2010Prop35
280
     0
102
RTVSPost2010PropOp35
 70
     1
102
RTVSPost2010Prop36
280
     0
102
RTVSPost2010PropOp36
 70
     1
102
RTVSPost2010Prop37
 90
       50
102
RTVSPost2010PropOp37
 70
     1
102
RTVSPost2010Prop38
140
0.0
102
RTVSPost2010PropOp38
 70
     1
102
RTVSPost2010Prop39
140
1.0
102
RTVSPost2010PropOp39
 70
     1
102
RTVSPost2010Prop40
 90
        0
102
RTVSPost2010PropOp40
 70
     1
102
RTVSPost2010Prop41ColorIndex
 90
       18
102
RTVSPost2010Prop41ColorRGB
 90
        0
102
RTVSPost2010PropOp41
 70
     1
102
RTVSPost2010Prop42
 90
       50
102
RTVSPost2010PropOp42
 70
     1
102
RTVSPost2010Prop43
 90
        3
102
RTVSPost2010PropOp43
 70
     1
102
RTVSPost2010Prop44ColorIndex
 90
        5
102
RTVSPost2010Prop44ColorRGB
 90
      255
102
RTVSPost2010PropOp44
 70
     1
102
RTVSPost2010Prop45
280
     0
102
RTVSPost2010PropOp45
 70
     1
102
RTVSPost2010Prop46
 90
       50
102
RTVSPost2010PropOp46
 70
     1
102
RTVSPost2010Prop47
 90
       50
102
RTVSPost2010PropOp47
 70
     1
102
RTVSPost2010Prop48
 90
       50
102
RTVSPost2010PropOp48
 70
     1
102
RTVSPost2010Prop49
280
     0
102
RTVSPost2010PropOp49
 70
     1
102
RTVSPost2010Prop50
 90
       50
102
RTVSPost2010PropOp50
 70
     1
102
RTVSPost2010Prop51ColorIndex
 90
      256
102
RTVSPost2010Prop51ColorRGB
 90
-16777216
102
RTVSPost2010PropOp51
 70
     0
102
RTVSPost2010Prop52
140
1.0
102
RTVSPost2010PropOp52
 70
     0
102
RTVSPost2010Prop53
 90
        2
102
RTVSPost2010PropOp53
 70
     1
102
RTVSPost2010Prop54
  1
strokes_ogs.tif
102
RTVSPost2010PropOp54
 70
     1
102
RTVSPost2010Prop55
280
     0
102
RTVSPost2010PropOp55
 70
     1
102
RTVSPost2010Prop56
140
1.0
102
RTVSPost2010PropOp56
 70
     1
102
RTVSPost2010Prop57
140
1.0
102
RTVSPost2010PropOp57
 70
     1
102
RTVSPropertyOp0
 70
     1
102
RTVSPropertyOp1
 70
     1
102
RTVSPropertyOp2
 70
     1
102
RTVSPropertyOp3
 70
     1
102
RTVSPropertyOp4
 70
     1
102
RTVSPropertyOp5
 70
     1
102
RTVSPropertyOp6
 70
     1
102
RTVSPropertyOp7
 70
     1
102
RTVSPropertyOp8
 70
     1
102
RTVSPropertyOp9
 70
     1
102
RTVSPropertyOp10
 70
     1
102
RTVSPropertyOp11
 70
     1
102
RTVSPropertyOp12
 70
     1
102
RTVSPropertyOp13
 70
     1
102
RTVSPropertyOp14
 70
     1
102
RTVSPropertyOp15
 70
     1
102
RTVSPropertyOp16
 70
     1
102
RTVSPropertyOp17
 70
     1
102
RTVSPropertyOp18
 70
     1
102
RTVSPropertyOp19
 70
     1
102
RTVSPropertyOp20
 70
     1
102
RTVSPropertyOp21
 70
     1
102
RTVSPropertyOp22
 70
     1
102
RTVSPropertyOp23
 70
     1
102
RTVSPropertyOp24
 70
     1
102
RTVSPropertyOp25
 70
     1
102
RTVSPropertyOp26
 70
     1
102
RTVSPropertyOp27
 70
     1
102
RTVSPropertyOp28
 70
     1
102
RTVSPropertyOp29
 70
     1
102
RTVSPropertyOp30
 70
     1
102
RTVSPropertyOp31
 70
     1
102
RTVSPropertyOp32
 70
     1
102
RTVSPropertyOp33
 70
     1
102
RTVSPropertyOp34
 70
     1
102
RTVSPropertyOp35
 70
     1
102
RTVSPropertyOp36
 70
     1
102
RTVSPropertyOp37
 70
     1
102
RTVSPropertyOp38
 70
     1
102
RTVSPropertyOp39
 70
     1
102
RTVSPropertyOp40
 70
     1
102
RTVSPropertyOp41
 70
     1
102
RTVSPropertyOp42
 70
     1
102
RTVSPropertyOp43
 70
     1
102
RTVSPropertyOp44
 70
     1
102
RTVSPropertyOp45
 70
     1
102
RTVSPropertyOp46
 70
     1
102
RTVSPropertyOp47
 70
     1
102
RTVSPropertyOp48
 70
     1
102
RTVSPropertyOp49
 70
     1
102
RTVSPropertyOp50
 70
     1
102
RTVSPropertyOp51
 70
     0
102
RTVSPropertyOp52
 70
     0
102
RTVSPropertyOp53
 70
     1
102
RTVSPropertyOp54
 70
     1
102
RTVSPropertyOp55
 70
     1
102
RTVSPropertyOp56
 70
     1
102
RTVSPropertyOp57
 70
     1
102
RTVSPropertyOp58
 70
     1
102
RTVSPropertyOp59
 70
     1
102
RTVSPropertyOp60
 70
     1
102
RTVSPropertyOp61
 70
     1
102
RTVSPropertyOp62
 70
     1
  0
XRECORD
  5
1563B
102
{ACAD_REACTORS
330
1563A
102
}
330
1563A
100
AcDbXrecord
280
     1
102
RTVSPost2010Prop28
280
     0
102
RTVSPost2010PropOp28
 70
     1
102
RTVSPost2010Prop29
280
     1
102
RTVSPost2010PropOp29
 70
     1
102
RTVSPost2010Prop30
280
     1
102
RTVSPost2010PropOp30
 70
     1
102
RTVSPost2010Prop31
280
     0
102
RTVSPost2010PropOp31
 70
     1
102
RTVSPost2010Prop32
280
     0
102
RTVSPost2010PropOp32
 70
     1
102
RTVSPost2010Prop33
280
     0
102
RTVSPost2010PropOp33
 70
     1
102
RTVSPost2010Prop34
280
     0
102
RTVSPost2010PropOp34
 70
     1
102
RTVSPost2010Prop35
280
     0
102
RTVSPost2010PropOp35
 70
     1
102
RTVSPost2010Prop36
280
     0
102
RTVSPost2010PropOp36
 70
     1
102
RTVSPost2010Prop37
 90
       50
102
RTVSPost2010PropOp37
 70
     1
102
RTVSPost2010Prop38
140
0.0
102
RTVSPost2010PropOp38
 70
     1
102
RTVSPost2010Prop39
140
1.0
102
RTVSPost2010PropOp39
 70
     1
102
RTVSPost2010Prop40
 90
        0
102
RTVSPost2010PropOp40
 70
     1
102
RTVSPost2010Prop41ColorIndex
 90
       18
102
RTVSPost2010Prop41ColorRGB
 90
        0
102
RTVSPost2010PropOp41
 70
     1
102
RTVSPost2010Prop42
 90
       50
102
RTVSPost2010PropOp42
 70
     1
102
RTVSPost2010Prop43
 90
        3
102
RTVSPost2010PropOp43
 70
     1
102
RTVSPost2010Prop44ColorIndex
 90
        5
102
RTVSPost2010Prop44ColorRGB
 90
      255
102
RTVSPost2010PropOp44
 70
     1
102
RTVSPost2010Prop45
280
     0
102
RTVSPost2010PropOp45
 70
     1
102
RTVSPost2010Prop46
 90
       50
102
RTVSPost2010PropOp46
 70
     1
102
RTVSPost2010Prop47
 90
       50
102
RTVSPost2010PropOp47
 70
     1
102
RTVSPost2010Prop48
 90
       50
102
RTVSPost2010PropOp48
 70
     1
102
RTVSPost2010Prop49
280
     0
102
RTVSPost2010PropOp49
 70
     1
102
RTVSPost2010Prop50
 90
       50
102
RTVSPost2010PropOp50
 70
     1
102
RTVSPost2010Prop51ColorIndex
 90
      256
102
RTVSPost2010Prop51ColorRGB
 90
-16777216
102
RTVSPost2010PropOp51
 70
     0
102
RTVSPost2010Prop52
140
1.0
102
RTVSPost2010PropOp52
 70
     0
102
RTVSPost2010Prop53
 90
        2
102
RTVSPost2010PropOp53
 70
     1
102
RTVSPost2010Prop54
  1
strokes_ogs.tif
102
RTVSPost2010PropOp54
 70
     1
102
RTVSPost2010Prop55
280
     0
102
RTVSPost2010PropOp55
 70
     1
102
RTVSPost2010Prop56
140
1.0
102
RTVSPost2010PropOp56
 70
     1
102
RTVSPost2010Prop57
140
1.0
102
RTVSPost2010PropOp57
 70
     1
102
RTVSPropertyOp0
 70
     1
102
RTVSPropertyOp1
 70
     1
102
RTVSPropertyOp2
 70
     1
102
RTVSPropertyOp3
 70
     1
102
RTVSPropertyOp4
 70
     1
102
RTVSPropertyOp5
 70
     1
102
RTVSPropertyOp6
 70
     1
102
RTVSPropertyOp7
 70
     1
102
RTVSPropertyOp8
 70
     1
102
RTVSPropertyOp9
 70
     1
102
RTVSPropertyOp10
 70
     1
102
RTVSPropertyOp11
 70
     1
102
RTVSPropertyOp12
 70
     1
102
RTVSPropertyOp13
 70
     1
102
RTVSPropertyOp14
 70
     1
102
RTVSPropertyOp15
 70
     1
102
RTVSPropertyOp16
 70
     1
102
RTVSPropertyOp17
 70
     1
102
RTVSPropertyOp18
 70
     1
102
RTVSPropertyOp19
 70
     1
102
RTVSPropertyOp20
 70
     1
102
RTVSPropertyOp21
 70
     1
102
RTVSPropertyOp22
 70
     1
102
RTVSPropertyOp23
 70
     1
102
RTVSPropertyOp24
 70
     1
102
RTVSPropertyOp25
 70
     1
102
RTVSPropertyOp26
 70
     1
102
RTVSPropertyOp27
 70
     1
102
RTVSPropertyOp28
 70
     1
102
RTVSPropertyOp29
 70
     1
102
RTVSPropertyOp30
 70
     1
102
RTVSPropertyOp31
 70
     1
102
RTVSPropertyOp32
 70
     1
102
RTVSPropertyOp33
 70
     1
102
RTVSPropertyOp34
 70
     1
102
RTVSPropertyOp35
 70
     1
102
RTVSPropertyOp36
 70
     1
102
RTVSPropertyOp37
 70
     1
102
RTVSPropertyOp38
 70
     1
102
RTVSPropertyOp39
 70
     1
102
RTVSPropertyOp40
 70
     1
102
RTVSPropertyOp41
 70
     1
102
RTVSPropertyOp42
 70
     1
102
RTVSPropertyOp43
 70
     1
102
RTVSPropertyOp44
 70
     1
102
RTVSPropertyOp45
 70
     1
102
RTVSPropertyOp46
 70
     1
102
RTVSPropertyOp47
 70
     1
102
RTVSPropertyOp48
 70
     1
102
RTVSPropertyOp49
 70
     1
102
RTVSPropertyOp50
 70
     1
102
RTVSPropertyOp51
 70
     0
102
RTVSPropertyOp52
 70
     0
102
RTVSPropertyOp53
 70
     1
102
RTVSPropertyOp54
 70
     1
102
RTVSPropertyOp55
 70
     1
102
RTVSPropertyOp56
 70
     1
102
RTVSPropertyOp57
 70
     1
102
RTVSPropertyOp58
 70
     1
102
RTVSPropertyOp59
 70
     1
102
RTVSPropertyOp60
 70
     1
102
RTVSPropertyOp61
 70
     1
102
RTVSPropertyOp62
 70
     1
  0
XRECORD
  5
15631
102
{ACAD_REACTORS
330
15630
102
}
330
15630
100
AcDbXrecord
280
     1
102
RTVSPost2010Prop28
280
     0
102
RTVSPost2010PropOp28
 70
     1
102
RTVSPost2010Prop29
280
     1
102
RTVSPost2010PropOp29
 70
     1
102
RTVSPost2010Prop30
280
     1
102
RTVSPost2010PropOp30
 70
     1
102
RTVSPost2010Prop31
280
     0
102
RTVSPost2010PropOp31
 70
     1
102
RTVSPost2010Prop32
280
     0
102
RTVSPost2010PropOp32
 70
     1
102
RTVSPost2010Prop33
280
     0
102
RTVSPost2010PropOp33
 70
     1
102
RTVSPost2010Prop34
280
     0
102
RTVSPost2010PropOp34
 70
     1
102
RTVSPost2010Prop35
280
     0
102
RTVSPost2010PropOp35
 70
     1
102
RTVSPost2010Prop36
280
     0
102
RTVSPost2010PropOp36
 70
     1
102
RTVSPost2010Prop37
 90
       50
102
RTVSPost2010PropOp37
 70
     1
102
RTVSPost2010Prop38
140
0.0
102
RTVSPost2010PropOp38
 70
     1
102
RTVSPost2010Prop39
140
1.0
102
RTVSPost2010PropOp39
 70
     1
102
RTVSPost2010Prop40
 90
        0
102
RTVSPost2010PropOp40
 70
     1
102
RTVSPost2010Prop41ColorIndex
 90
       18
102
RTVSPost2010Prop41ColorRGB
 90
        0
102
RTVSPost2010PropOp41
 70
     1
102
RTVSPost2010Prop42
 90
       50
102
RTVSPost2010PropOp42
 70
     1
102
RTVSPost2010Prop43
 90
        3
102
RTVSPost2010PropOp43
 70
     1
102
RTVSPost2010Prop44ColorIndex
 90
        5
102
RTVSPost2010Prop44ColorRGB
 90
      255
102
RTVSPost2010PropOp44
 70
     1
102
RTVSPost2010Prop45
280
     0
102
RTVSPost2010PropOp45
 70
     1
102
RTVSPost2010Prop46
 90
       50
102
RTVSPost2010PropOp46
 70
     1
102
RTVSPost2010Prop47
 90
       50
102
RTVSPost2010PropOp47
 70
     1
102
RTVSPost2010Prop48
 90
       50
102
RTVSPost2010PropOp48
 70
     1
102
RTVSPost2010Prop49
280
     0
102
RTVSPost2010PropOp49
 70
     1
102
RTVSPost2010Prop50
 90
       50
102
RTVSPost2010PropOp50
 70
     1
102
RTVSPost2010Prop51ColorIndex
 90
      256
102
RTVSPost2010Prop51ColorRGB
 90
-16777216
102
RTVSPost2010PropOp51
 70
     0
102
RTVSPost2010Prop52
140
1.0
102
RTVSPost2010PropOp52
 70
     0
102
RTVSPost2010Prop53
 90
        2
102
RTVSPost2010PropOp53
 70
     1
102
RTVSPost2010Prop54
  1
strokes_ogs.tif
102
RTVSPost2010PropOp54
 70
     1
102
RTVSPost2010Prop55
280
     0
102
RTVSPost2010PropOp55
 70
     1
102
RTVSPost2010Prop56
140
1.0
102
RTVSPost2010PropOp56
 70
     1
102
RTVSPost2010Prop57
140
1.0
102
RTVSPost2010PropOp57
 70
     1
102
RTVSPropertyOp0
 70
     1
102
RTVSPropertyOp1
 70
     1
102
RTVSPropertyOp2
 70
     1
102
RTVSPropertyOp3
 70
     1
102
RTVSPropertyOp4
 70
     1
102
RTVSPropertyOp5
 70
     1
102
RTVSPropertyOp6
 70
     1
102
RTVSPropertyOp7
 70
     1
102
RTVSPropertyOp8
 70
     1
102
RTVSPropertyOp9
 70
     1
102
RTVSPropertyOp10
 70
     1
102
RTVSPropertyOp11
 70
     1
102
RTVSPropertyOp12
 70
     1
102
RTVSPropertyOp13
 70
     1
102
RTVSPropertyOp14
 70
     1
102
RTVSPropertyOp15
 70
     1
102
RTVSPropertyOp16
 70
     1
102
RTVSPropertyOp17
 70
     1
102
RTVSPropertyOp18
 70
     1
102
RTVSPropertyOp19
 70
     1
102
RTVSPropertyOp20
 70
     1
102
RTVSPropertyOp21
 70
     1
102
RTVSPropertyOp22
 70
     1
102
RTVSPropertyOp23
 70
     1
102
RTVSPropertyOp24
 70
     1
102
RTVSPropertyOp25
 70
     1
102
RTVSPropertyOp26
 70
     1
102
RTVSPropertyOp27
 70
     1
102
RTVSPropertyOp28
 70
     1
102
RTVSPropertyOp29
 70
     1
102
RTVSPropertyOp30
 70
     1
102
RTVSPropertyOp31
 70
     1
102
RTVSPropertyOp32
 70
     1
102
RTVSPropertyOp33
 70
     1
102
RTVSPropertyOp34
 70
     1
102
RTVSPropertyOp35
 70
     1
102
RTVSPropertyOp36
 70
     1
102
RTVSPropertyOp37
 70
     1
102
RTVSPropertyOp38
 70
     1
102
RTVSPropertyOp39
 70
     1
102
RTVSPropertyOp40
 70
     1
102
RTVSPropertyOp41
 70
     1
102
RTVSPropertyOp42
 70
     1
102
RTVSPropertyOp43
 70
     1
102
RTVSPropertyOp44
 70
     1
102
RTVSPropertyOp45
 70
     1
102
RTVSPropertyOp46
 70
     1
102
RTVSPropertyOp47
 70
     1
102
RTVSPropertyOp48
 70
     1
102
RTVSPropertyOp49
 70
     1
102
RTVSPropertyOp50
 70
     1
102
RTVSPropertyOp51
 70
     0
102
RTVSPropertyOp52
 70
     0
102
RTVSPropertyOp53
 70
     1
102
RTVSPropertyOp54
 70
     1
102
RTVSPropertyOp55
 70
     1
102
RTVSPropertyOp56
 70
     1
102
RTVSPropertyOp57
 70
     1
102
RTVSPropertyOp58
 70
     1
102
RTVSPropertyOp59
 70
     1
102
RTVSPropertyOp60
 70
     1
102
RTVSPropertyOp61
 70
     1
102
RTVSPropertyOp62
 70
     1
  0
XRECORD
  5
15625
102
{ACAD_REACTORS
330
15624
102
}
330
15624
100
AcDbXrecord
280
     1
102
RTVSPost2010Prop28
280
     0
102
RTVSPost2010PropOp28
 70
     1
102
RTVSPost2010Prop29
280
     1
102
RTVSPost2010PropOp29
 70
     1
102
RTVSPost2010Prop30
280
     1
102
RTVSPost2010PropOp30
 70
     1
102
RTVSPost2010Prop31
280
     0
102
RTVSPost2010PropOp31
 70
     1
102
RTVSPost2010Prop32
280
     0
102
RTVSPost2010PropOp32
 70
     1
102
RTVSPost2010Prop33
280
     0
102
RTVSPost2010PropOp33
 70
     1
102
RTVSPost2010Prop34
280
     0
102
RTVSPost2010PropOp34
 70
     1
102
RTVSPost2010Prop35
280
     0
102
RTVSPost2010PropOp35
 70
     1
102
RTVSPost2010Prop36
280
     0
102
RTVSPost2010PropOp36
 70
     1
102
RTVSPost2010Prop37
 90
       50
102
RTVSPost2010PropOp37
 70
     1
102
RTVSPost2010Prop38
140
0.0
102
RTVSPost2010PropOp38
 70
     1
102
RTVSPost2010Prop39
140
1.0
102
RTVSPost2010PropOp39
 70
     1
102
RTVSPost2010Prop40
 90
        0
102
RTVSPost2010PropOp40
 70
     1
102
RTVSPost2010Prop41ColorIndex
 90
       18
102
RTVSPost2010Prop41ColorRGB
 90
        0
102
RTVSPost2010PropOp41
 70
     1
102
RTVSPost2010Prop42
 90
       50
102
RTVSPost2010PropOp42
 70
     1
102
RTVSPost2010Prop43
 90
        3
102
RTVSPost2010PropOp43
 70
     1
102
RTVSPost2010Prop44ColorIndex
 90
        5
102
RTVSPost2010Prop44ColorRGB
 90
      255
102
RTVSPost2010PropOp44
 70
     1
102
RTVSPost2010Prop45
280
     0
102
RTVSPost2010PropOp45
 70
     1
102
RTVSPost2010Prop46
 90
       50
102
RTVSPost2010PropOp46
 70
     1
102
RTVSPost2010Prop47
 90
       50
102
RTVSPost2010PropOp47
 70
     1
102
RTVSPost2010Prop48
 90
       50
102
RTVSPost2010PropOp48
 70
     1
102
RTVSPost2010Prop49
280
     0
102
RTVSPost2010PropOp49
 70
     1
102
RTVSPost2010Prop50
 90
       50
102
RTVSPost2010PropOp50
 70
     1
102
RTVSPost2010Prop51ColorIndex
 90
      256
102
RTVSPost2010Prop51ColorRGB
 90
-16777216
102
RTVSPost2010PropOp51
 70
     0
102
RTVSPost2010Prop52
140
1.0
102
RTVSPost2010PropOp52
 70
     0
102
RTVSPost2010Prop53
 90
        2
102
RTVSPost2010PropOp53
 70
     1
102
RTVSPost2010Prop54
  1
strokes_ogs.tif
102
RTVSPost2010PropOp54
 70
     1
102
RTVSPost2010Prop55
280
     0
102
RTVSPost2010PropOp55
 70
     1
102
RTVSPost2010Prop56
140
1.0
102
RTVSPost2010PropOp56
 70
     1
102
RTVSPost2010Prop57
140
1.0
102
RTVSPost2010PropOp57
 70
     1
102
RTVSPropertyOp0
 70
     1
102
RTVSPropertyOp1
 70
     1
102
RTVSPropertyOp2
 70
     1
102
RTVSPropertyOp3
 70
     1
102
RTVSPropertyOp4
 70
     1
102
RTVSPropertyOp5
 70
     1
102
RTVSPropertyOp6
 70
     1
102
RTVSPropertyOp7
 70
     1
102
RTVSPropertyOp8
 70
     1
102
RTVSPropertyOp9
 70
     1
102
RTVSPropertyOp10
 70
     1
102
RTVSPropertyOp11
 70
     1
102
RTVSPropertyOp12
 70
     1
102
RTVSPropertyOp13
 70
     1
102
RTVSPropertyOp14
 70
     1
102
RTVSPropertyOp15
 70
     1
102
RTVSPropertyOp16
 70
     1
102
RTVSPropertyOp17
 70
     1
102
RTVSPropertyOp18
 70
     1
102
RTVSPropertyOp19
 70
     1
102
RTVSPropertyOp20
 70
     1
102
RTVSPropertyOp21
 70
     1
102
RTVSPropertyOp22
 70
     1
102
RTVSPropertyOp23
 70
     1
102
RTVSPropertyOp24
 70
     1
102
RTVSPropertyOp25
 70
     1
102
RTVSPropertyOp26
 70
     1
102
RTVSPropertyOp27
 70
     1
102
RTVSPropertyOp28
 70
     1
102
RTVSPropertyOp29
 70
     1
102
RTVSPropertyOp30
 70
     1
102
RTVSPropertyOp31
 70
     1
102
RTVSPropertyOp32
 70
     1
102
RTVSPropertyOp33
 70
     1
102
RTVSPropertyOp34
 70
     1
102
RTVSPropertyOp35
 70
     1
102
RTVSPropertyOp36
 70
     1
102
RTVSPropertyOp37
 70
     1
102
RTVSPropertyOp38
 70
     1
102
RTVSPropertyOp39
 70
     1
102
RTVSPropertyOp40
 70
     1
102
RTVSPropertyOp41
 70
     1
102
RTVSPropertyOp42
 70
     1
102
RTVSPropertyOp43
 70
     1
102
RTVSPropertyOp44
 70
     1
102
RTVSPropertyOp45
 70
     1
102
RTVSPropertyOp46
 70
     1
102
RTVSPropertyOp47
 70
     1
102
RTVSPropertyOp48
 70
     1
102
RTVSPropertyOp49
 70
     1
102
RTVSPropertyOp50
 70
     1
102
RTVSPropertyOp51
 70
     0
102
RTVSPropertyOp52
 70
     0
102
RTVSPropertyOp53
 70
     1
102
RTVSPropertyOp54
 70
     1
102
RTVSPropertyOp55
 70
     1
102
RTVSPropertyOp56
 70
     1
102
RTVSPropertyOp57
 70
     1
102
RTVSPropertyOp58
 70
     1
102
RTVSPropertyOp59
 70
     1
102
RTVSPropertyOp60
 70
     1
102
RTVSPropertyOp61
 70
     1
102
RTVSPropertyOp62
 70
     1
  0
XRECORD
  5
1563D
102
{ACAD_REACTORS
330
1563C
102
}
330
1563C
100
AcDbXrecord
280
     1
102
RTVSPost2010Prop28
280
     0
102
RTVSPost2010PropOp28
 70
     1
102
RTVSPost2010Prop29
280
     1
102
RTVSPost2010PropOp29
 70
     1
102
RTVSPost2010Prop30
280
     1
102
RTVSPost2010PropOp30
 70
     1
102
RTVSPost2010Prop31
280
     0
102
RTVSPost2010PropOp31
 70
     1
102
RTVSPost2010Prop32
280
     0
102
RTVSPost2010PropOp32
 70
     1
102
RTVSPost2010Prop33
280
     0
102
RTVSPost2010PropOp33
 70
     1
102
RTVSPost2010Prop34
280
     0
102
RTVSPost2010PropOp34
 70
     1
102
RTVSPost2010Prop35
280
     0
102
RTVSPost2010PropOp35
 70
     1
102
RTVSPost2010Prop36
280
     0
102
RTVSPost2010PropOp36
 70
     1
102
RTVSPost2010Prop37
 90
       50
102
RTVSPost2010PropOp37
 70
     1
102
RTVSPost2010Prop38
140
0.0
102
RTVSPost2010PropOp38
 70
     1
102
RTVSPost2010Prop39
140
1.0
102
RTVSPost2010PropOp39
 70
     1
102
RTVSPost2010Prop40
 90
        0
102
RTVSPost2010PropOp40
 70
     1
102
RTVSPost2010Prop41ColorIndex
 90
       18
102
RTVSPost2010Prop41ColorRGB
 90
        0
102
RTVSPost2010PropOp41
 70
     1
102
RTVSPost2010Prop42
 90
       50
102
RTVSPost2010PropOp42
 70
     1
102
RTVSPost2010Prop43
 90
        3
102
RTVSPost2010PropOp43
 70
     1
102
RTVSPost2010Prop44ColorIndex
 90
        5
102
RTVSPost2010Prop44ColorRGB
 90
      255
102
RTVSPost2010PropOp44
 70
     1
102
RTVSPost2010Prop45
280
     0
102
RTVSPost2010PropOp45
 70
     1
102
RTVSPost2010Prop46
 90
       50
102
RTVSPost2010PropOp46
 70
     1
102
RTVSPost2010Prop47
 90
       50
102
RTVSPost2010PropOp47
 70
     1
102
RTVSPost2010Prop48
 90
       50
102
RTVSPost2010PropOp48
 70
     1
102
RTVSPost2010Prop49
280
     0
102
RTVSPost2010PropOp49
 70
     1
102
RTVSPost2010Prop50
 90
       50
102
RTVSPost2010PropOp50
 70
     1
102
RTVSPost2010Prop51ColorIndex
 90
      256
102
RTVSPost2010Prop51ColorRGB
 90
-16777216
102
RTVSPost2010PropOp51
 70
     0
102
RTVSPost2010Prop52
140
1.0
102
RTVSPost2010PropOp52
 70
     0
102
RTVSPost2010Prop53
 90
        2
102
RTVSPost2010PropOp53
 70
     1
102
RTVSPost2010Prop54
  1
strokes_ogs.tif
102
RTVSPost2010PropOp54
 70
     1
102
RTVSPost2010Prop55
280
     0
102
RTVSPost2010PropOp55
 70
     1
102
RTVSPost2010Prop56
140
1.0
102
RTVSPost2010PropOp56
 70
     1
102
RTVSPost2010Prop57
140
1.0
102
RTVSPost2010PropOp57
 70
     1
102
RTVSPropertyOp0
 70
     1
102
RTVSPropertyOp1
 70
     1
102
RTVSPropertyOp2
 70
     1
102
RTVSPropertyOp3
 70
     1
102
RTVSPropertyOp4
 70
     1
102
RTVSPropertyOp5
 70
     1
102
RTVSPropertyOp6
 70
     1
102
RTVSPropertyOp7
 70
     1
102
RTVSPropertyOp8
 70
     1
102
RTVSPropertyOp9
 70
     1
102
RTVSPropertyOp10
 70
     1
102
RTVSPropertyOp11
 70
     1
102
RTVSPropertyOp12
 70
     1
102
RTVSPropertyOp13
 70
     1
102
RTVSPropertyOp14
 70
     1
102
RTVSPropertyOp15
 70
     1
102
RTVSPropertyOp16
 70
     1
102
RTVSPropertyOp17
 70
     1
102
RTVSPropertyOp18
 70
     1
102
RTVSPropertyOp19
 70
     1
102
RTVSPropertyOp20
 70
     1
102
RTVSPropertyOp21
 70
     1
102
RTVSPropertyOp22
 70
     1
102
RTVSPropertyOp23
 70
     1
102
RTVSPropertyOp24
 70
     1
102
RTVSPropertyOp25
 70
     1
102
RTVSPropertyOp26
 70
     1
102
RTVSPropertyOp27
 70
     1
102
RTVSPropertyOp28
 70
     1
102
RTVSPropertyOp29
 70
     1
102
RTVSPropertyOp30
 70
     1
102
RTVSPropertyOp31
 70
     1
102
RTVSPropertyOp32
 70
     1
102
RTVSPropertyOp33
 70
     1
102
RTVSPropertyOp34
 70
     1
102
RTVSPropertyOp35
 70
     1
102
RTVSPropertyOp36
 70
     1
102
RTVSPropertyOp37
 70
     1
102
RTVSPropertyOp38
 70
     1
102
RTVSPropertyOp39
 70
     1
102
RTVSPropertyOp40
 70
     1
102
RTVSPropertyOp41
 70
     1
102
RTVSPropertyOp42
 70
     1
102
RTVSPropertyOp43
 70
     1
102
RTVSPropertyOp44
 70
     1
102
RTVSPropertyOp45
 70
     1
102
RTVSPropertyOp46
 70
     1
102
RTVSPropertyOp47
 70
     1
102
RTVSPropertyOp48
 70
     1
102
RTVSPropertyOp49
 70
     1
102
RTVSPropertyOp50
 70
     1
102
RTVSPropertyOp51
 70
     0
102
RTVSPropertyOp52
 70
     0
102
RTVSPropertyOp53
 70
     1
102
RTVSPropertyOp54
 70
     1
102
RTVSPropertyOp55
 70
     1
102
RTVSPropertyOp56
 70
     1
102
RTVSPropertyOp57
 70
     1
102
RTVSPropertyOp58
 70
     1
102
RTVSPropertyOp59
 70
     1
102
RTVSPropertyOp60
 70
     1
102
RTVSPropertyOp61
 70
     1
102
RTVSPropertyOp62
 70
     1
  0
ENDSEC
  0
EOF
