  0
SECTION
  2
HEADER
  9
$ACADVER
  1
AC1015
  9
$ACADMAINTVER
 70
    20
  9
$DWGCODEPAGE
  3
ANSI_932
  9
$INSBASE
 10
0.0
 20
0.0
 30
0.0
  9
$EXTMIN
 10
104.9999999999996
 20
-0.0000000000000682
 30
0.0
  9
$EXTMAX
 10
12230.4
 20
8557.199999999999
 30
0.0
  9
$LIMMIN
 10
0.0
 20
0.0
  9
$LIMMAX
 10
12600.0
 20
8910.0
  9
$ORTHOMODE
 70
     0
  9
$REGENMODE
 70
     1
  9
$FILLMODE
 70
     1
  9
$QTEXTMODE
 70
     0
  9
$MIRRTEXT
 70
     1
  9
$LTSCALE
 40
20.0
  9
$ATTMODE
 70
     1
  9
$TEXTSIZE
 40
90.0
  9
$TRACEWID
 40
1.0
  9
$TEXTSTYLE
  7
STYLE3
  9
$CLAYER
  8
0
  9
$CELTYPE
  6
BYLAYER
  9
$CECOLOR
 62
   256
  9
$CELTSCALE
 40
50.0
  9
$DISPSILH
 70
     0
  9
$DIMSCALE
 40
30.0
  9
$DIMASZ
 40
2.5
  9
$DIMEXO
 40
0.5
  9
$DIMDLI
 40
7.0
  9
$DIMRND
 40
0.0
  9
$DIMDLE
 40
0.0
  9
$DIMEXE
 40
1.5
  9
$DIMTP
 40
0.0
  9
$DIMTM
 40
0.0
  9
$DIMTXT
 40
3.0
  9
$DIMCEN
 40
-0.1
  9
$DIMTSZ
 40
0.0
  9
$DIMTOL
 70
     0
  9
$DIMLIM
 70
     0
  9
$DIMTIH
 70
     0
  9
$DIMTOH
 70
     0
  9
$DIMSE1
 70
     0
  9
$DIMSE2
 70
     0
  9
$DIMTAD
 70
     3
  9
$DIMZIN
 70
     8
  9
$DIMBLK
  1

  9
$DIMASO
 70
     1
  9
$DIMSHO
 70
     1
  9
$DIMPOST
  1

  9
$DIMAPOST
  1

  9
$DIMALT
 70
     0
  9
$DIMALTD
 70
     2
  9
$DIMALTF
 40
0.0394
  9
$DIMLFAC
 40
1.0
  9
$DIMTOFL
 70
     1
  9
$DIMTVP
 40
0.0
  9
$DIMTIX
 70
     1
  9
$DIMSOXD
 70
     0
  9
$DIMSAH
 70
     1
  9
$DIMBLK1
  1
DOTSMALL
  9
$DIMBLK2
  1
DOTSMALL
  9
$DIMSTYLE
  2
INABA_S30G
  9
$DIMCLRD
 70
     0
  9
$DIMCLRE
 70
     0
  9
$DIMCLRT
 70
     7
  9
$DIMTFAC
 40
1.0
  9
$DIMGAP
 40
1.0
  9
$DIMJUST
 70
     0
  9
$DIMSD1
 70
     0
  9
$DIMSD2
 70
     0
  9
$DIMTOLJ
 70
     1
  9
$DIMTZIN
 70
     0
  9
$DIMALTZ
 70
     0
  9
$DIMALTTZ
 70
     0
  9
$DIMUPT
 70
     1
  9
$DIMDEC
 70
     1
  9
$DIMTDEC
 70
     4
  9
$DIMALTU
 70
     2
  9
$DIMALTTD
 70
     2
  9
$DIMTXSTY
  7
STYLE1
  9
$DIMAUNIT
 70
     0
  9
$DIMADEC
 70
     0
  9
$DIMALTRND
 40
0.0
  9
$DIMAZIN
 70
     0
  9
$DIMDSEP
 70
    46
  9
$DIMATFIT
 70
     3
  9
$DIMFRAC
 70
     0
  9
$DIMLDRBLK
  1

  9
$DIMLUNIT
 70
     2
  9
$DIMLWD
 70
    -2
  9
$DIMLWE
 70
    -2
  9
$DIMTMOVE
 70
     2
  9
$LUNITS
 70
     2
  9
$LUPREC
 70
     1
  9
$SKETCHINC
 40
1.0
  9
$FILLETRAD
 40
10.0
  9
$AUNITS
 70
     0
  9
$AUPREC
 70
     0
  9
$MENU
  1
acad
  9
$ELEVATION
 40
0.0
  9
$PELEVATION
 40
0.0
  9
$THICKNESS
 40
0.0
  9
$LIMCHECK
 70
     0
  9
$CHAMFERA
 40
0.0
  9
$CHAMFERB
 40
0.0
  9
$CHAMFERC
 40
0.0
  9
$CHAMFERD
 40
0.0
  9
$SKPOLY
 70
     0
  9
$TDCREATE
 40
2451605.424024074
  9
$TDUCREATE
 40
2451605.049024074
  9
$TDUPDATE
 40
2459492.387373993
  9
$TDUUPDATE
 40
2459492.012373993
  9
$TDINDWG
 40
0.5295101157
  9
$TDUSRTIMER
 40
0.5295101157
  9
$USRTIMER
 70
     1
  9
$ANGBASE
 50
0.0
  9
$ANGDIR
 70
     0
  9
$PDMODE
 70
     3
  9
$PDSIZE
 40
2.0
  9
$PLINEWID
 40
0.0
  9
$SPLFRAME
 70
     0
  9
$SPLINETYPE
 70
     6
  9
$SPLINESEGS
 70
     8
  9
$HANDSEED
  5
15081
  9
$SURFTAB1
 70
     6
  9
$SURFTAB2
 70
     6
  9
$SURFTYPE
 70
     6
  9
$SURFU
 70
     6
  9
$SURFV
 70
     6
  9
$UCSBASE
  2

  9
$UCSNAME
  2

  9
$UCSORG
 10
0.0
 20
0.0
 30
0.0
  9
$UCSXDIR
 10
1.0
 20
0.0
 30
0.0
  9
$UCSYDIR
 10
0.0
 20
1.0
 30
0.0
  9
$UCSORTHOREF
  2

  9
$UCSORTHOVIEW
 70
     0
  9
$UCSORGTOP
 10
0.0
 20
0.0
 30
0.0
  9
$UCSORGBOTTOM
 10
0.0
 20
0.0
 30
0.0
  9
$UCSORGLEFT
 10
0.0
 20
0.0
 30
0.0
  9
$UCSORGRIGHT
 10
0.0
 20
0.0
 30
0.0
  9
$UCSORGFRONT
 10
0.0
 20
0.0
 30
0.0
  9
$UCSORGBACK
 10
0.0
 20
0.0
 30
0.0
  9
$PUCSBASE
  2

  9
$PUCSNAME
  2

  9
$PUCSORG
 10
0.0
 20
0.0
 30
0.0
  9
$PUCSXDIR
 10
1.0
 20
0.0
 30
0.0
  9
$PUCSYDIR
 10
0.0
 20
1.0
 30
0.0
  9
$PUCSORTHOREF
  2

  9
$PUCSORTHOVIEW
 70
     0
  9
$PUCSORGTOP
 10
0.0
 20
0.0
 30
0.0
  9
$PUCSORGBOTTOM
 10
0.0
 20
0.0
 30
0.0
  9
$PUCSORGLEFT
 10
0.0
 20
0.0
 30
0.0
  9
$PUCSORGRIGHT
 10
0.0
 20
0.0
 30
0.0
  9
$PUCSORGFRONT
 10
0.0
 20
0.0
 30
0.0
  9
$PUCSORGBACK
 10
0.0
 20
0.0
 30
0.0
  9
$USERI1
 70
     0
  9
$USERI2
 70
     0
  9
$USERI3
 70
     0
  9
$USERI4
 70
     0
  9
$USERI5
 70
     0
  9
$USERR1
 40
0.0
  9
$USERR2
 40
0.0
  9
$USERR3
 40
0.0
  9
$USERR4
 40
0.0
  9
$USERR5
 40
0.0
  9
$WORLDVIEW
 70
     1
  9
$SHADEDGE
 70
     3
  9
$SHADEDIF
 70
    70
  9
$TILEMODE
 70
     1
  9
$MAXACTVP
 70
    16
  9
$PINSBASE
 10
0.0
 20
0.0
 30
0.0
  9
$PLIMCHECK
 70
     0
  9
$PEXTMIN
 10
1.000000000000000E+20
 20
1.000000000000000E+20
 30
1.000000000000000E+20
  9
$PEXTMAX
 10
-1.000000000000000E+20
 20
-1.000000000000000E+20
 30
-1.000000000000000E+20
  9
$PLIMMIN
 10
0.0
 20
0.0
  9
$PLIMMAX
 10
420.0
 20
297.0
  9
$UNITMODE
 70
     0
  9
$VISRETAIN
 70
     0
  9
$PLINEGEN
 70
     0
  9
$PSLTSCALE
 70
     0
  9
$TREEDEPTH
 70
  3020
  9
$CMLSTYLE
  2
STANDARD
  9
$CMLJUST
 70
     0
  9
$CMLSCALE
 40
1.0
  9
$PROXYGRAPHICS
 70
     1
  9
$MEASUREMENT
 70
     1
  9
$CELWEIGHT
370
    -1
  9
$ENDCAPS
280
     0
  9
$JOINSTYLE
280
     0
  9
$LWDISPLAY
290
     0
  9
$INSUNITS
 70
     0
  9
$HYPERLINKBASE
  1

  9
$STYLESHEET
  1
inaba.ctb
  9
$XEDIT
290
     1
  9
$CEPSNTYPE
380
     0
  9
$PSTYLEMODE
290
     1
  9
$FINGERPRINTGUID
  2
{D739226C-1792-48E7-A6F4-BE6BA8014891}
  9
$VERSIONGUID
  2
{4D0E43DA-508C-4806-BF01-90DDE8435F2F}
  9
$EXTNAMES
290
     1
  9
$PSVPSCALE
 40
0.0
  9
$OLESTARTUP
290
     0
  0
ENDSEC
  0
SECTION
  2
CLASSES
  0
CLASS
  1
ACDBDICTIONARYWDFLT
  2
AcDbDictionaryWithDefault
  3
ObjectDBX Classes
 90
        0
280
     0
281
     0
  0
CLASS
  1
MATERIAL
  2
AcDbMaterial
  3
ObjectDBX Classes
 90
     1153
280
     0
281
     0
  0
CLASS
  1
VISUALSTYLE
  2
AcDbVisualStyle
  3
ObjectDBX Classes
 90
     4095
280
     0
281
     0
  0
CLASS
  1
TABLESTYLE
  2
AcDbTableStyle
  3
ObjectDBX Classes
 90
     4095
280
     0
281
     0
  0
CLASS
  1
SCALE
  2
AcDbScale
  3
ObjectDBX Classes
 90
     1153
280
     0
281
     0
  0
CLASS
  1
MLEADERSTYLE
  2
AcDbMLeaderStyle
  3
ACDB_MLEADERSTYLE_CLASS
 90
     4095
280
     0
281
     0
  0
CLASS
  1
ACDBSECTIONVIEWSTYLE
  2
AcDbSectionViewStyle
  3
ObjectDBX Classes
 90
     1025
280
     0
281
     0
  0
CLASS
  1
ACDBDETAILVIEWSTYLE
  2
AcDbDetailViewStyle
  3
ObjectDBX Classes
 90
     1025
280
     0
281
     0
  0
CLASS
  1
SORTENTSTABLE
  2
AcDbSortentsTable
  3
ObjectDBX Classes
 90
        0
280
     0
281
     0
  0
CLASS
  1
DICTIONARYVAR
  2
AcDbDictionaryVar
  3
ObjectDBX Classes
 90
        0
280
     0
281
     0
  0
CLASS
  1
CELLSTYLEMAP
  2
AcDbCellStyleMap
  3
ObjectDBX Classes
 90
     1152
280
     0
281
     0
  0
CLASS
  1
ACDBPLACEHOLDER
  2
AcDbPlaceHolder
  3
ObjectDBX Classes
 90
        0
280
     0
281
     0
  0
CLASS
  1
LAYOUT
  2
AcDbLayout
  3
ObjectDBX Classes
 90
        0
280
     0
281
     0
  0
ENDSEC
  0
SECTION
  2
TABLES
  0
TABLE
  2
VPORT
  5
746D
330
0
100
AcDbSymbolTable
 70
     1
  0
VPORT
  5
142BC
330
746D
100
AcDbSymbolTableRecord
100
AcDbViewportTableRecord
  2
*Active
 70
     0
 10
0.0
 20
0.0
 11
1.0
 21
1.0
 12
6398.652148286043
 22
4278.456238228174
 13
0.0
 23
0.0
 14
10.0
 24
10.0
 15
10.0
 25
10.0
 16
0.0
 26
0.0
 36
1.0
 17
0.0
 27
0.0
 37
0.0
 40
8628.999468395107
 41
1.663434903047091
 42
50.0
 43
0.0
 44
0.0
 50
0.0
 51
0.0
 71
     0
 72
     0
 73
     1
 74
     0
 75
     0
 76
     0
 77
     0
 78
     0
281
     0
 65
     1
110
0.0
120
0.0
130
0.0
111
1.0
121
0.0
131
0.0
112
0.0
122
1.0
132
0.0
 79
     0
146
0.0
1001
ACAD_NAV_VCDISPLAY
1070
     3
  0
ENDTAB
  0
TABLE
  2
LTYPE
  5
746A
330
0
100
AcDbSymbolTable
 70
     4
  0
LTYPE
  5
7477
330
746A
100
AcDbSymbolTableRecord
100
AcDbLinetypeTableRecord
  2
BYBLOCK
 70
     0
  3

 72
    65
 73
     0
 40
0.0
  0
LTYPE
  5
7478
330
746A
100
AcDbSymbolTableRecord
100
AcDbLinetypeTableRecord
  2
BYLAYER
 70
     0
  3

 72
    65
 73
     0
 40
0.0
  0
LTYPE
  5
7479
330
746A
100
AcDbSymbolTableRecord
100
AcDbLinetypeTableRecord
  2
CONTINUOUS
 70
     0
  3
Solid line
 72
    65
 73
     0
 40
0.0
  0
LTYPE
  5
7816
330
746A
100
AcDbSymbolTableRecord
100
AcDbLinetypeTableRecord
  2
CENTER
 70
     0
  3
____ _ ____ _ ____ _ ____ _ ____ _ ____ _ ____ 
 72
    65
 73
     4
 40
2.0
 49
1.25
 74
     0
 49
-0.25
 74
     0
 49
0.25
 74
     0
 49
-0.25
 74
     0
  0
LTYPE
  5
781A
330
746A
100
AcDbSymbolTableRecord
100
AcDbLinetypeTableRecord
  2
HIDDEN
 70
     0
  3
__ __ __ __ __ __ __ __ __ __ __ __ __ __ __ __
 72
    65
 73
     2
 40
0.375
 49
0.25
 74
     0
 49
-0.125
 74
     0
  0
LTYPE
  5
781B
330
746A
100
AcDbSymbolTableRecord
100
AcDbLinetypeTableRecord
  2
PHANTOM
 70
     0
  3
______  __  __  ______  __  __  ______  __  __ 
 72
    65
 73
     6
 40
2.5
 49
1.25
 74
     0
 49
-0.25
 74
     0
 49
0.25
 74
     0
 49
-0.25
 74
     0
 49
0.25
 74
     0
 49
-0.25
 74
     0
  0
ENDTAB
  0
TABLE
  2
LAYER
  5
7467
102
{ACAD_XDICTIONARY
360
1435F
102
}
330
0
100
AcDbSymbolTable
 70
    11
  0
LAYER
  5
7474
102
{ACAD_XDICTIONARY
360
14818
102
}
330
7467
100
AcDbSymbolTableRecord
100
AcDbLayerTableRecord
  2
0
 70
     0
 62
     7
  6
CONTINUOUS
370
    -3
390
13B3E
  0
LAYER
  5
DEB2
102
{ACAD_XDICTIONARY
360
1481A
102
}
330
7467
100
AcDbSymbolTableRecord
100
AcDbLayerTableRecord
  2
センター
 70
     0
 62
     3
  6
CENTER
370
    -3
390
13B3E
  0
LAYER
  5
DEB3
102
{ACAD_XDICTIONARY
360
1481C
102
}
330
7467
100
AcDbSymbolTableRecord
100
AcDbLayerTableRecord
  2
寸法
 70
     0
 62
     4
  6
CONTINUOUS
370
    -3
390
13B3E
  0
LAYER
  5
DEB4
102
{ACAD_XDICTIONARY
360
1481E
102
}
330
7467
100
AcDbSymbolTableRecord
100
AcDbLayerTableRecord
  2
部品1
 70
     0
 62
     7
  6
CONTINUOUS
370
    -3
390
13B3E
  0
LAYER
  5
DEB5
102
{ACAD_XDICTIONARY
360
14820
102
}
330
7467
100
AcDbSymbolTableRecord
100
AcDbLayerTableRecord
  2
補助
 70
     0
 62
    -1
  6
CONTINUOUS
370
    -3
390
13B3E
  0
LAYER
  5
DEB6
102
{ACAD_XDICTIONARY
360
14822
102
}
330
7467
100
AcDbSymbolTableRecord
100
AcDbLayerTableRecord
  2
文字
 70
     0
 62
     7
  6
CONTINUOUS
370
    -3
390
13B3E
  0
LAYER
  5
F255
330
7467
100
AcDbSymbolTableRecord
100
AcDbLayerTableRecord
  2
DEFPOINTS
 70
     0
 62
     7
  6
CONTINUOUS
290
     0
370
    -3
390
13B3E
  0
LAYER
  5
10B54
102
{ACAD_XDICTIONARY
360
14824
102
}
330
7467
100
AcDbSymbolTableRecord
100
AcDbLayerTableRecord
  2
仕様書枠
 70
     0
 62
   230
  6
CONTINUOUS
370
    -3
390
13B3E
  0
LAYER
  5
11729
102
{ACAD_XDICTIONARY
360
14826
102
}
330
7467
100
AcDbSymbolTableRecord
100
AcDbLayerTableRecord
  2
Ｇ．Ｌ
 70
     0
 62
    30
  6
CONTINUOUS
370
    -3
390
13B3E
  0
LAYER
  5
1173F
102
{ACAD_XDICTIONARY
360
14828
102
}
330
7467
100
AcDbSymbolTableRecord
100
AcDbLayerTableRecord
  2
細線
 70
     0
 62
     5
  6
CONTINUOUS
370
    -3
390
13B3E
  0
LAYER
  5
11740
102
{ACAD_XDICTIONARY
360
1482A
102
}
330
7467
100
AcDbSymbolTableRecord
100
AcDbLayerTableRecord
  2
点線
 70
     0
 62
     2
  6
HIDDEN
370
    -3
390
13B3E
  0
ENDTAB
  0
TABLE
  2
STYLE
  5
7468
330
0
100
AcDbSymbolTable
 70
     4
  0
STYLE
  5
7475
330
7468
100
AcDbSymbolTableRecord
100
AcDbTextStyleTableRecord
  2
STANDARD
 70
     0
 40
0.0
 41
1.0
 50
0.0
 71
     0
 42
4.0
  3
txt
  4
C:\AutoCAD LT\bigfont.shx
  0
STYLE
  5
F706
330
7468
100
AcDbSymbolTableRecord
100
AcDbTextStyleTableRecord
  2
STYLE1
 70
     0
 40
0.0
 41
1.0
 50
0.0
 71
     0
 42
4.0
  3
isocp.shx
  4
bigfont.shx
  0
STYLE
  5
103BF
330
7468
100
AcDbSymbolTableRecord
100
AcDbTextStyleTableRecord
  2
STYLE2
 70
     0
 40
0.0
 41
1.0
 50
0.0
 71
     0
 42
100.0
  3

  4

1001
ACAD
1000
MS PGothic
1071
    32818
  0
STYLE
  5
10BAA
330
7468
100
AcDbSymbolTableRecord
100
AcDbTextStyleTableRecord
  2
STYLE3
 70
     0
 40
0.0
 41
1.0
 50
0.0
 71
     0
 42
90.0
  3

  4

1001
ACAD
1000
MS PGothic
1071
    32818
  0
ENDTAB
  0
TABLE
  2
VIEW
  5
746B
330
0
100
AcDbSymbolTable
 70
     0
  0
ENDTAB
  0
TABLE
  2
UCS
  5
746C
330
0
100
AcDbSymbolTable
 70
     0
  0
ENDTAB
  0
TABLE
  2
APPID
  5
746E
330
0
100
AcDbSymbolTable
 70
    10
  0
APPID
  5
7476
330
746E
100
AcDbSymbolTableRecord
100
AcDbRegAppTableRecord
  2
ACAD
 70
     0
  0
APPID
  5
DEA9
330
746E
100
AcDbSymbolTableRecord
100
AcDbRegAppTableRecord
  2
CONTENTBLOCKICON
 70
     0
  0
APPID
  5
DEAA
330
746E
100
AcDbSymbolTableRecord
100
AcDbRegAppTableRecord
  2
CONTENTBLOCKDESCRIPTION
 70
     0
  0
APPID
  5
E71D
330
746E
100
AcDbSymbolTableRecord
100
AcDbRegAppTableRecord
  2
CONTENTTABDATA
 70
     0
  0
APPID
  5
E71E
330
746E
100
AcDbSymbolTableRecord
100
AcDbRegAppTableRecord
  2
CONTENTCURRENTTAB
 70
     0
  0
APPID
  5
F3BA
330
746E
100
AcDbSymbolTableRecord
100
AcDbRegAppTableRecord
  2
DRAWINGVARIABLESXDATA
 70
     0
  0
APPID
  5
1435E
330
746E
100
AcDbSymbolTableRecord
100
AcDbRegAppTableRecord
  2
ACAD_NAV_VCDISPLAY
 70
     0
  0
APPID
  5
14816
330
746E
100
AcDbSymbolTableRecord
100
AcDbRegAppTableRecord
  2
ACAD_EXEMPT_FROM_CAD_STANDARDS
 70
     0
  0
APPID
  5
14EAD
330
746E
100
AcDbSymbolTableRecord
100
AcDbRegAppTableRecord
  2
ACAD_PSEXT
 70
     0
  0
APPID
  5
1507C
330
746E
100
AcDbSymbolTableRecord
100
AcDbRegAppTableRecord
  2
ACAD_MLEADERVER
 70
     0
  0
ENDTAB
  0
TABLE
  2
DIMSTYLE
  5
746F
330
0
100
AcDbSymbolTable
 70
     4
100
AcDbDimStyleTable
 71
     2
340
F71F
340
13C3E
  0
DIMSTYLE
105
7484
330
746F
100
AcDbSymbolTableRecord
100
AcDbDimStyleTableRecord
  2
JIS
 70
     0
 41
2.5
 42
1.0
 43
7.0
 44
1.0
 73
     0
 74
     0
 77
     1
 78
     8
140
2.5
141
0.0
143
0.0394
147
0.0
172
     1
174
     1
175
     1
340
7475
  0
DIMSTYLE
105
F71F
102
{ACAD_REACTORS
330
12DFB
330
12F1D
330
12F1E
330
12FC2
330
13AE0
330
13AE5
330
11AA7
330
11AB4
330
11B57
330
11B5D
330
11B60
330
11B6A
102
}
330
746F
100
AcDbSymbolTableRecord
100
AcDbDimStyleTableRecord
  2
INABA_S30G
 70
     0
 40
30.0
 41
2.5
 42
0.5
 43
7.0
 44
1.5
 73
     0
 74
     0
 77
     3
 78
     8
140
3.0
141
0.0
143
0.0394
147
1.0
172
     1
173
     1
174
     1
178
     7
271
     1
340
F706
341
F770
343
F770
344
F770
  0
DIMSTYLE
105
131F6
330
746F
100
AcDbSymbolTableRecord
100
AcDbDimStyleTableRecord
  2
INABA_S50G
 70
     0
 40
0.0
 41
125.0
 42
25.0
 43
7.0
 44
75.0
 73
     0
 74
     0
 77
     3
 78
     8
140
150.0
141
0.0
143
0.0394
147
25.0
172
     1
173
     1
174
     1
178
     7
271
     1
340
F706
341
F770
343
F770
344
F770
  0
DIMSTYLE
105
13C3E
102
{ACAD_REACTORS
330
13EF0
330
1444E
330
1444F
330
144B3
330
144C5
330
144C7
102
}
330
746F
100
AcDbSymbolTableRecord
100
AcDbDimStyleTableRecord
  2
INABA_S30G詳細用20
 70
     0
 40
30.0
 41
2.5
 42
0.5
 43
7.0
 44
1.5
 73
     0
 74
     0
 77
     3
 78
     8
140
3.0
141
0.0
143
0.0394
144
0.6666666667
147
1.0
172
     1
173
     1
174
     1
178
     7
271
     0
272
     0
340
F706
341
F770
343
F770
344
F770
  0
ENDTAB
  0
TABLE
  2
BLOCK_RECORD
  5
7466
330
0
100
AcDbSymbolTable
 70
    47
  0
BLOCK_RECORD
  5
747D
102
{ACAD_XDICTIONARY
360
145C1
102
}
330
7466
100
AcDbSymbolTableRecord
100
AcDbBlockTableRecord
  2
*MODEL_SPACE
340
13B43
  0
BLOCK_RECORD
  5
747A
330
7466
100
AcDbSymbolTableRecord
100
AcDbBlockTableRecord
  2
*PAPER_SPACE
340
13B44
  0
BLOCK_RECORD
  5
F770
330
7466
100
AcDbSymbolTableRecord
100
AcDbBlockTableRecord
  2
_DOTSMALL
340
0
102
{BLKREFS
331
14F77
331
14F78
331
14F80
331
14F81
331
14F89
331
14F8A
331
14F92
331
14F93
331
14F9B
331
14F9C
331
14FA4
331
14FA5
331
14FAD
331
14FAE
331
14FB6
331
14FB7
331
14FBF
331
14FC0
331
14FC8
331
14FC9
331
14FD1
331
14FD2
331
14FDA
331
14FDB
331
14FE3
331
14FE4
331
14FED
331
14FEE
331
14FF6
331
14FF7
331
15000
331
15001
331
1500A
331
1500B
331
15014
331
15015
102
}
  0
BLOCK_RECORD
  5
11C4F
330
7466
100
AcDbSymbolTableRecord
100
AcDbBlockTableRecord
  2
*D1
340
0
  0
BLOCK_RECORD
  5
11C72
330
7466
100
AcDbSymbolTableRecord
100
AcDbBlockTableRecord
  2
*D2
340
0
  0
BLOCK_RECORD
  5
11D01
330
7466
100
AcDbSymbolTableRecord
100
AcDbBlockTableRecord
  2
*D3
340
0
  0
BLOCK_RECORD
  5
11D18
330
7466
100
AcDbSymbolTableRecord
100
AcDbBlockTableRecord
  2
*D4
340
0
  0
BLOCK_RECORD
  5
11D25
330
7466
100
AcDbSymbolTableRecord
100
AcDbBlockTableRecord
  2
*D5
340
0
  0
BLOCK_RECORD
  5
11D32
330
7466
100
AcDbSymbolTableRecord
100
AcDbBlockTableRecord
  2
*D6
340
0
  0
BLOCK_RECORD
  5
12E00
330
7466
100
AcDbSymbolTableRecord
100
AcDbBlockTableRecord
  2
*D14
340
0
  0
BLOCK_RECORD
  5
12F1F
330
7466
100
AcDbSymbolTableRecord
100
AcDbBlockTableRecord
  2
*D17
340
0
  0
BLOCK_RECORD
  5
12F2B
330
7466
100
AcDbSymbolTableRecord
100
AcDbBlockTableRecord
  2
*D18
340
0
  0
BLOCK_RECORD
  5
12FC3
330
7466
100
AcDbSymbolTableRecord
100
AcDbBlockTableRecord
  2
*D20
340
0
  0
BLOCK_RECORD
  5
13AE8
330
7466
100
AcDbSymbolTableRecord
100
AcDbBlockTableRecord
  2
*D25
340
0
  0
BLOCK_RECORD
  5
13AF4
330
7466
100
AcDbSymbolTableRecord
100
AcDbBlockTableRecord
  2
*D26
340
0
  0
BLOCK_RECORD
  5
13B4C
330
7466
100
AcDbSymbolTableRecord
100
AcDbBlockTableRecord
  2
_None
340
0
  0
BLOCK_RECORD
  5
14075
330
7466
100
AcDbSymbolTableRecord
100
AcDbBlockTableRecord
  2
*D28
340
0
  0
BLOCK_RECORD
  5
14509
330
7466
100
AcDbSymbolTableRecord
100
AcDbBlockTableRecord
  2
*D41
340
0
  0
BLOCK_RECORD
  5
14516
330
7466
100
AcDbSymbolTableRecord
100
AcDbBlockTableRecord
  2
*D42
340
0
  0
BLOCK_RECORD
  5
14522
330
7466
100
AcDbSymbolTableRecord
100
AcDbBlockTableRecord
  2
*D43
340
0
  0
BLOCK_RECORD
  5
1452F
330
7466
100
AcDbSymbolTableRecord
100
AcDbBlockTableRecord
  2
*D44
340
0
  0
BLOCK_RECORD
  5
1453C
330
7466
100
AcDbSymbolTableRecord
100
AcDbBlockTableRecord
  2
*D45
340
0
  0
ENDTAB
  0
ENDSEC
  0
SECTION
  2
BLOCKS
  0
BLOCK
  5
7489
330
747D
100
AcDbEntity
  8
0
100
AcDbBlockBegin
  2
*MODEL_SPACE
 70
     0
 10
0.0
 20
0.0
 30
0.0
  3
*MODEL_SPACE
  1

  0
ENDBLK
  5
748A
330
747D
100
AcDbEntity
  8
0
100
AcDbBlockEnd
  0
BLOCK
  5
7487
330
747A
100
AcDbEntity
 67
     1
  8
0
100
AcDbBlockBegin
  2
*PAPER_SPACE
 70
     0
 10
0.0
 20
0.0
 30
0.0
  3
*PAPER_SPACE
  1

  0
ENDBLK
  5
7488
330
747A
100
AcDbEntity
 67
     1
  8
0
100
AcDbBlockEnd
  0
BLOCK
  5
F771
330
F770
100
AcDbEntity
  8
0
 48
50.0
100
AcDbBlockBegin
  2
_DOTSMALL
 70
     0
 10
0.0
 20
0.0
 30
0.0
  3
_DOTSMALL
  1

  0
LWPOLYLINE
  5
F772
330
F770
100
AcDbEntity
  8
0
  6
ByBlock
 62
     0
 48
50.0
100
AcDbPolyline
 90
        2
 70
     1
 43
0.5
 10
-0.0625
 20
0.0
 42
1.0
 10
0.0625
 20
0.0
 42
1.0
  0
ENDBLK
  5
F776
330
F770
100
AcDbEntity
  8
0
 48
50.0
100
AcDbBlockEnd
  0
BLOCK
  5
12F37
330
11C4F
100
AcDbEntity
  8
0
 48
50.0
100
AcDbBlockBegin
  2
*D1
 70
     1
 10
0.0
 20
0.0
 30
0.0
  3
*D1
  1

  0
LINE
  5
14F74
330
11C4F
100
AcDbEntity
  8
寸法
 62
     0
 48
50.0
370
    -2
100
AcDbLine
 10
1067.540000335097
 20
5278.6
 30
0.0
 11
574.4542573151014
 21
5278.6
 31
0.0
  0
LINE
  5
14F75
330
11C4F
100
AcDbEntity
  8
寸法
 62
     0
 48
50.0
370
    -2
100
AcDbLine
 10
1067.540000335097
 20
3278.6
 30
0.0
 11
574.454257315101
 21
3278.600000000001
 31
0.0
  0
LINE
  5
14F76
330
11C4F
100
AcDbEntity
  8
寸法
 62
     0
 48
50.0
370
    -2
100
AcDbLine
 10
619.4542573151014
 20
5278.6
 30
0.0
 11
619.454257315101
 21
3278.600000000001
 31
0.0
  0
INSERT
  5
14F77
330
11C4F
100
AcDbEntity
  8
寸法
 62
     0
 48
50.0
370
    -2
100
AcDbBlockReference
  2
_DOTSMALL
 10
619.4542573151014
 20
5278.6
 30
0.0
 41
75.0
 42
75.0
 43
75.0
 50
90.0
  0
INSERT
  5
14F78
330
11C4F
100
AcDbEntity
  8
寸法
 62
     0
 48
50.0
370
    -2
100
AcDbBlockReference
  2
_DOTSMALL
 10
619.454257315101
 20
3278.600000000001
 30
0.0
 41
75.0
 42
75.0
 43
75.0
 50
270.0
  0
MTEXT
  5
14F79
330
11C4F
100
AcDbEntity
  8
寸法
 62
     7
 48
50.0
100
AcDbMText
 10
544.445399047384
 20
4278.599999999999
 30
0.0
 40
90.0
 41
0.0
 71
     5
 72
     1
  1
\A1;基礎寸法 2000
  7
STYLE1
 11
0.0000000000000001
 21
1.0
 31
0.0
 73
     1
 44
1.0
1001
ACAD
1000
MTEXTBEGIN
1070
    73
1070
     1
1070
    44
1040
1.0
1070
    74
1070
     0
1000
MTEXTEND
  0
POINT
  5
14F7A
330
11C4F
100
AcDbEntity
  8
DEFPOINTS
 62
     0
 48
50.0
100
AcDbPoint
 10
1082.540000335097
 20
5278.6
 30
0.0
  0
POINT
  5
14F7B
330
11C4F
100
AcDbEntity
  8
DEFPOINTS
 62
     0
 48
50.0
100
AcDbPoint
 10
1082.540000335097
 20
3278.6
 30
0.0
  0
POINT
  5
14F7C
330
11C4F
100
AcDbEntity
  8
DEFPOINTS
 62
     0
 48
50.0
100
AcDbPoint
 10
619.454257315101
 20
3278.600000000001
 30
0.0
  0
ENDBLK
  5
12F41
330
11C4F
100
AcDbEntity
  8
0
 48
50.0
100
AcDbBlockEnd
  0
BLOCK
  5
12AC2
330
11C72
100
AcDbEntity
  8
0
 48
50.0
100
AcDbBlockBegin
  2
*D2
 70
     1
 10
0.0
 20
0.0
 30
0.0
  3
*D2
  1

  0
LINE
  5
14F7D
330
11C72
100
AcDbEntity
  8
寸法
 62
     0
 48
50.0
370
    -2
100
AcDbLine
 10
1067.540000335097
 20
4278.600000000002
 30
0.0
 11
787.0233171713136
 21
4278.600000000002
 31
0.0
  0
LINE
  5
14F7E
330
11C72
100
AcDbEntity
  8
寸法
 62
     0
 48
50.0
370
    -2
100
AcDbLine
 10
1067.540000335097
 20
3278.6
 30
0.0
 11
787.0233171713135
 21
3278.600000000001
 31
0.0
  0
LINE
  5
14F7F
330
11C72
100
AcDbEntity
  8
寸法
 62
     0
 48
50.0
370
    -2
100
AcDbLine
 10
832.0233171713137
 20
4278.600000000002
 30
0.0
 11
832.0233171713134
 21
3278.600000000001
 31
0.0
  0
INSERT
  5
14F80
330
11C72
100
AcDbEntity
  8
寸法
 62
     0
 48
50.0
370
    -2
100
AcDbBlockReference
  2
_DOTSMALL
 10
832.0233171713137
 20
4278.600000000002
 30
0.0
 41
75.0
 42
75.0
 43
75.0
 50
90.0
  0
INSERT
  5
14F81
330
11C72
100
AcDbEntity
  8
寸法
 62
     0
 48
50.0
370
    -2
100
AcDbBlockReference
  2
_DOTSMALL
 10
832.0233171713134
 20
3278.600000000001
 30
0.0
 41
75.0
 42
75.0
 43
75.0
 50
270.0
  0
MTEXT
  5
14F82
330
11C72
100
AcDbEntity
  8
寸法
 62
     7
 48
50.0
100
AcDbMText
 10
757.0233171713129
 20
3778.600000000002
 30
0.0
 40
90.0
 41
0.0
 71
     5
 72
     1
  1
\A1;1000
  7
STYLE1
 11
0.0000000000000001
 21
1.0
 31
0.0
 73
     1
 44
1.0
1001
ACAD
1000
MTEXTBEGIN
1070
    73
1070
     1
1070
    44
1040
1.0
1070
    74
1070
     0
1000
MTEXTEND
  0
POINT
  5
14F83
330
11C72
100
AcDbEntity
  8
DEFPOINTS
 62
     0
 48
50.0
100
AcDbPoint
 10
1082.540000335097
 20
4278.600000000002
 30
0.0
  0
POINT
  5
14F84
330
11C72
100
AcDbEntity
  8
DEFPOINTS
 62
     0
 48
50.0
100
AcDbPoint
 10
1082.540000335097
 20
3278.6
 30
0.0
  0
POINT
  5
14F85
330
11C72
100
AcDbEntity
  8
DEFPOINTS
 62
     0
 48
50.0
100
AcDbPoint
 10
832.0233171713134
 20
3278.600000000001
 30
0.0
  0
ENDBLK
  5
12ACC
330
11C72
100
AcDbEntity
  8
0
 48
50.0
100
AcDbBlockEnd
  0
BLOCK
  5
12FA1
330
11D01
100
AcDbEntity
  8
0
 48
50.0
100
AcDbBlockBegin
  2
*D3
 70
     1
 10
0.0
 20
0.0
 30
0.0
  3
*D3
  1

  0
LINE
  5
14F86
330
11D01
100
AcDbEntity
  8
寸法
 62
     0
 48
50.0
370
    -2
100
AcDbLine
 10
1082.540000335097
 20
5293.600000000001
 30
0.0
 11
1082.540000335097
 21
5970.089333105425
 31
0.0
  0
LINE
  5
14F87
330
11D01
100
AcDbEntity
  8
寸法
 62
     0
 48
50.0
370
    -2
100
AcDbLine
 10
8082.540000335097
 20
5293.600000000001
 30
0.0
 11
8082.540000335097
 21
5970.089333105425
 31
0.0
  0
LINE
  5
14F88
330
11D01
100
AcDbEntity
  8
寸法
 62
     0
 48
50.0
370
    -2
100
AcDbLine
 10
1082.540000335097
 20
5925.089333105425
 30
0.0
 11
8082.540000335097
 21
5925.089333105425
 31
0.0
  0
INSERT
  5
14F89
330
11D01
100
AcDbEntity
  8
寸法
 62
     0
 48
50.0
370
    -2
100
AcDbBlockReference
  2
_DOTSMALL
 10
1082.540000335097
 20
5925.089333105425
 30
0.0
 41
75.0
 42
75.0
 43
75.0
 50
180.0
  0
INSERT
  5
14F8A
330
11D01
100
AcDbEntity
  8
寸法
 62
     0
 48
50.0
370
    -2
100
AcDbBlockReference
  2
_DOTSMALL
 10
8082.540000335097
 20
5925.089333105425
 30
0.0
 41
75.0
 42
75.0
 43
75.0
  0
MTEXT
  5
14F8B
330
11D01
100
AcDbEntity
  8
寸法
 62
     7
 48
50.0
100
AcDbMText
 10
4582.540000335097
 20
6000.089333105425
 30
0.0
 40
90.0
 41
0.0
 71
     5
 72
     1
  1
\A1;基礎寸法 7000
  7
STYLE1
 73
     1
 44
1.0
1001
ACAD
1000
MTEXTBEGIN
1070
    73
1070
     1
1070
    44
1040
1.0
1070
    74
1070
     0
1000
MTEXTEND
  0
POINT
  5
14F8C
330
11D01
100
AcDbEntity
  8
DEFPOINTS
 62
     0
 48
50.0
100
AcDbPoint
 10
1082.540000335097
 20
5278.6
 30
0.0
  0
POINT
  5
14F8D
330
11D01
100
AcDbEntity
  8
DEFPOINTS
 62
     0
 48
50.0
100
AcDbPoint
 10
8082.540000335097
 20
5278.6
 30
0.0
  0
POINT
  5
14F8E
330
11D01
100
AcDbEntity
  8
DEFPOINTS
 62
     0
 48
50.0
100
AcDbPoint
 10
8082.540000335097
 20
5925.089333105425
 30
0.0
  0
ENDBLK
  5
12FAB
330
11D01
100
AcDbEntity
  8
0
 48
50.0
100
AcDbBlockEnd
  0
BLOCK
  5
12E0C
330
11D18
100
AcDbEntity
  8
0
 48
50.0
100
AcDbBlockBegin
  2
*D4
 70
     1
 10
0.0
 20
0.0
 30
0.0
  3
*D4
  1

  0
LINE
  5
14F8F
330
11D18
100
AcDbEntity
  8
寸法
 62
     0
 48
50.0
370
    -2
100
AcDbLine
 10
1082.540000335097
 20
5293.600000000001
 30
0.0
 11
1082.540000335097
 21
5776.052294131106
 31
0.0
  0
LINE
  5
14F90
330
11D18
100
AcDbEntity
  8
寸法
 62
     0
 48
50.0
370
    -2
100
AcDbLine
 10
1332.540000335097
 20
4543.6
 30
0.0
 11
1332.540000335097
 21
5776.052294131106
 31
0.0
  0
LINE
  5
14F91
330
11D18
100
AcDbEntity
  8
寸法
 62
     0
 48
50.0
370
    -2
100
AcDbLine
 10
1082.540000335097
 20
5731.052294131107
 30
0.0
 11
1332.540000335097
 21
5731.052294131107
 31
0.0
  0
INSERT
  5
14F92
330
11D18
100
AcDbEntity
  8
寸法
 62
     0
 48
50.0
370
    -2
100
AcDbBlockReference
  2
_DOTSMALL
 10
1082.540000335097
 20
5731.052294131107
 30
0.0
 41
75.0
 42
75.0
 43
75.0
 50
180.0
  0
INSERT
  5
14F93
330
11D18
100
AcDbEntity
  8
寸法
 62
     0
 48
50.0
370
    -2
100
AcDbBlockReference
  2
_DOTSMALL
 10
1332.540000335097
 20
5731.052294131107
 30
0.0
 41
75.0
 42
75.0
 43
75.0
  0
MTEXT
  5
14F94
330
11D18
100
AcDbEntity
  8
寸法
 62
     7
 48
50.0
100
AcDbMText
 10
1207.540000335097
 20
5806.061152398823
 30
0.0
 40
90.0
 41
0.0
 71
     5
 72
     1
  1
\A1;250
  7
STYLE1
 73
     1
 44
1.0
1001
ACAD
1000
MTEXTBEGIN
1070
    73
1070
     1
1070
    44
1040
1.0
1070
    74
1070
     0
1000
MTEXTEND
  0
POINT
  5
14F95
330
11D18
100
AcDbEntity
  8
DEFPOINTS
 62
     0
 48
50.0
100
AcDbPoint
 10
1082.540000335097
 20
5278.6
 30
0.0
  0
POINT
  5
14F96
330
11D18
100
AcDbEntity
  8
DEFPOINTS
 62
     0
 48
50.0
100
AcDbPoint
 10
1332.540000335097
 20
4528.599999999999
 30
0.0
  0
POINT
  5
14F97
330
11D18
100
AcDbEntity
  8
DEFPOINTS
 62
     0
 48
50.0
100
AcDbPoint
 10
1332.540000335097
 20
5731.052294131107
 30
0.0
  0
ENDBLK
  5
12E16
330
11D18
100
AcDbEntity
  8
0
 48
50.0
100
AcDbBlockEnd
  0
BLOCK
  5
12AB7
330
11D25
100
AcDbEntity
  8
0
 48
50.0
100
AcDbBlockBegin
  2
*D5
 70
     1
 10
0.0
 20
0.0
 30
0.0
  3
*D5
  1

  0
LINE
  5
14F98
330
11D25
100
AcDbEntity
  8
寸法
 62
     0
 48
50.0
370
    -2
100
AcDbLine
 10
1067.540000335097
 20
5278.6
 30
0.0
 11
787.0233171713138
 21
5278.6
 31
0.0
  0
LINE
  5
14F99
330
11D25
100
AcDbEntity
  8
寸法
 62
     0
 48
50.0
370
    -2
100
AcDbLine
 10
1067.540000335097
 20
4278.600000000001
 30
0.0
 11
787.0233171713135
 21
4278.600000000001
 31
0.0
  0
LINE
  5
14F9A
330
11D25
100
AcDbEntity
  8
寸法
 62
     0
 48
50.0
370
    -2
100
AcDbLine
 10
832.0233171713137
 20
5278.6
 30
0.0
 11
832.0233171713136
 21
4278.600000000001
 31
0.0
  0
INSERT
  5
14F9B
330
11D25
100
AcDbEntity
  8
寸法
 62
     0
 48
50.0
370
    -2
100
AcDbBlockReference
  2
_DOTSMALL
 10
832.0233171713137
 20
5278.6
 30
0.0
 41
75.0
 42
75.0
 43
75.0
 50
90.0
  0
INSERT
  5
14F9C
330
11D25
100
AcDbEntity
  8
寸法
 62
     0
 48
50.0
370
    -2
100
AcDbBlockReference
  2
_DOTSMALL
 10
832.0233171713136
 20
4278.600000000001
 30
0.0
 41
75.0
 42
75.0
 43
75.0
 50
270.0
  0
MTEXT
  5
14F9D
330
11D25
100
AcDbEntity
  8
寸法
 62
     7
 48
50.0
100
AcDbMText
 10
757.0233171713129
 20
4778.599999999999
 30
0.0
 40
90.0
 41
0.0
 71
     5
 72
     1
  1
\A1;1000
  7
STYLE1
 11
0.0000000000000001
 21
1.0
 31
0.0
 73
     1
 44
1.0
1001
ACAD
1000
MTEXTBEGIN
1070
    73
1070
     1
1070
    44
1040
1.0
1070
    74
1070
     0
1000
MTEXTEND
  0
POINT
  5
14F9E
330
11D25
100
AcDbEntity
  8
DEFPOINTS
 62
     0
 48
50.0
100
AcDbPoint
 10
1082.540000335097
 20
5278.6
 30
0.0
  0
POINT
  5
14F9F
330
11D25
100
AcDbEntity
  8
DEFPOINTS
 62
     0
 48
50.0
100
AcDbPoint
 10
1082.540000335097
 20
4278.600000000001
 30
0.0
  0
POINT
  5
14FA0
330
11D25
100
AcDbEntity
  8
DEFPOINTS
 62
     0
 48
50.0
100
AcDbPoint
 10
832.0233171713136
 20
4278.600000000001
 30
0.0
  0
ENDBLK
  5
12AC1
330
11D25
100
AcDbEntity
  8
0
 48
50.0
100
AcDbBlockEnd
  0
BLOCK
  5
12BDD
330
11D32
100
AcDbEntity
  8
0
 48
50.0
100
AcDbBlockBegin
  2
*D6
 70
     1
 10
0.0
 20
0.0
 30
0.0
  3
*D6
  1

  0
LINE
  5
14FA1
330
11D32
100
AcDbEntity
  8
寸法
 62
     0
 48
50.0
370
    -2
100
AcDbLine
 10
7832.540000335097
 20
5363.600000000001
 30
0.0
 11
7832.540000335097
 21
5776.649529476014
 31
0.0
  0
LINE
  5
14FA2
330
11D32
100
AcDbEntity
  8
寸法
 62
     0
 48
50.0
370
    -2
100
AcDbLine
 10
8082.540000335097
 20
5293.600000000001
 30
0.0
 11
8082.540000335097
 21
5776.649529476014
 31
0.0
  0
LINE
  5
14FA3
330
11D32
100
AcDbEntity
  8
寸法
 62
     0
 48
50.0
370
    -2
100
AcDbLine
 10
7832.540000335097
 20
5731.649529476014
 30
0.0
 11
8082.540000335097
 21
5731.649529476014
 31
0.0
  0
INSERT
  5
14FA4
330
11D32
100
AcDbEntity
  8
寸法
 62
     0
 48
50.0
370
    -2
100
AcDbBlockReference
  2
_DOTSMALL
 10
7832.540000335097
 20
5731.649529476014
 30
0.0
 41
75.0
 42
75.0
 43
75.0
 50
180.0
  0
INSERT
  5
14FA5
330
11D32
100
AcDbEntity
  8
寸法
 62
     0
 48
50.0
370
    -2
100
AcDbBlockReference
  2
_DOTSMALL
 10
8082.540000335097
 20
5731.649529476014
 30
0.0
 41
75.0
 42
75.0
 43
75.0
  0
MTEXT
  5
14FA6
330
11D32
100
AcDbEntity
  8
寸法
 62
     7
 48
50.0
100
AcDbMText
 10
7957.540000335097
 20
5806.65838774373
 30
0.0
 40
90.0
 41
0.0
 71
     5
 72
     1
  1
\A1;250
  7
STYLE1
 73
     1
 44
1.0
1001
ACAD
1000
MTEXTBEGIN
1070
    73
1070
     1
1070
    44
1040
1.0
1070
    74
1070
     0
1000
MTEXTEND
  0
POINT
  5
14FA7
330
11D32
100
AcDbEntity
  8
DEFPOINTS
 62
     0
 48
50.0
100
AcDbPoint
 10
7832.540000335097
 20
5348.600000000001
 30
0.0
  0
POINT
  5
14FA8
330
11D32
100
AcDbEntity
  8
DEFPOINTS
 62
     0
 48
50.0
100
AcDbPoint
 10
8082.540000335097
 20
5278.6
 30
0.0
  0
POINT
  5
14FA9
330
11D32
100
AcDbEntity
  8
DEFPOINTS
 62
     0
 48
50.0
100
AcDbPoint
 10
8082.540000335097
 20
5731.649529476014
 30
0.0
  0
ENDBLK
  5
12BE7
330
11D32
100
AcDbEntity
  8
0
 48
50.0
100
AcDbBlockEnd
  0
BLOCK
  5
13B0B
330
12E00
100
AcDbEntity
  8
0
 48
50.0
100
AcDbBlockBegin
  2
*D14
 70
     1
 10
0.0
 20
0.0
 30
0.0
  3
*D14
  1

  0
LINE
  5
14FAA
330
12E00
100
AcDbEntity
  8
寸法
 62
     0
 48
50.0
370
    -2
100
AcDbLine
 10
4582.540000335097
 20
4543.6
 30
0.0
 11
4582.540000335097
 21
5776.052294131106
 31
0.0
  0
LINE
  5
14FAB
330
12E00
100
AcDbEntity
  8
寸法
 62
     0
 48
50.0
370
    -2
100
AcDbLine
 10
7832.540000335097
 20
4961.389361299994
 30
0.0
 11
7832.540000335097
 21
5776.052294131106
 31
0.0
  0
LINE
  5
14FAC
330
12E00
100
AcDbEntity
  8
寸法
 62
     0
 48
50.0
370
    -2
100
AcDbLine
 10
4582.540000335097
 20
5731.052294131107
 30
0.0
 11
7832.540000335097
 21
5731.052294131107
 31
0.0
  0
INSERT
  5
14FAD
330
12E00
100
AcDbEntity
  8
寸法
 62
     0
 48
50.0
370
    -2
100
AcDbBlockReference
  2
_DOTSMALL
 10
4582.540000335097
 20
5731.052294131107
 30
0.0
 41
75.0
 42
75.0
 43
75.0
 50
180.0
  0
INSERT
  5
14FAE
330
12E00
100
AcDbEntity
  8
寸法
 62
     0
 48
50.0
370
    -2
100
AcDbBlockReference
  2
_DOTSMALL
 10
7832.540000335097
 20
5731.052294131107
 30
0.0
 41
75.0
 42
75.0
 43
75.0
  0
MTEXT
  5
14FAF
330
12E00
100
AcDbEntity
  8
寸法
 62
     7
 48
50.0
100
AcDbMText
 10
6207.540000335097
 20
5806.061152398823
 30
0.0
 40
90.0
 41
0.0
 71
     5
 72
     1
  1
\A1;3250
  7
STYLE1
 73
     1
 44
1.0
1001
ACAD
1000
MTEXTBEGIN
1070
    73
1070
     1
1070
    44
1040
1.0
1070
    74
1070
     0
1000
MTEXTEND
  0
POINT
  5
14FB0
330
12E00
100
AcDbEntity
  8
DEFPOINTS
 62
     0
 48
50.0
100
AcDbPoint
 10
4582.540000335097
 20
4528.599999999999
 30
0.0
  0
POINT
  5
14FB1
330
12E00
100
AcDbEntity
  8
DEFPOINTS
 62
     0
 48
50.0
100
AcDbPoint
 10
7832.540000335097
 20
4946.389361299995
 30
0.0
  0
POINT
  5
14FB2
330
12E00
100
AcDbEntity
  8
DEFPOINTS
 62
     0
 48
50.0
100
AcDbPoint
 10
7832.540000335097
 20
5731.052294131107
 30
0.0
  0
ENDBLK
  5
13B15
330
12E00
100
AcDbEntity
  8
0
 48
50.0
100
AcDbBlockEnd
  0
BLOCK
  5
12F20
330
12F1F
100
AcDbEntity
  8
0
 48
50.0
100
AcDbBlockBegin
  2
*D17
 70
     1
 10
0.0
 20
0.0
 30
0.0
  3
*D17
  1

  0
LINE
  5
14FB3
330
12F1F
100
AcDbEntity
  8
寸法
 62
     0
 48
50.0
370
    -2
100
AcDbLine
 10
8097.540000335097
 20
5278.6
 30
0.0
 11
8609.814222698714
 21
5278.6
 31
0.0
  0
LINE
  5
14FB4
330
12F1F
100
AcDbEntity
  8
寸法
 62
     0
 48
50.0
370
    -2
100
AcDbLine
 10
8097.540000335097
 20
3278.6
 30
0.0
 11
8609.814222698711
 21
3278.6
 31
0.0
  0
LINE
  5
14FB5
330
12F1F
100
AcDbEntity
  8
寸法
 62
     0
 48
50.0
370
    -2
100
AcDbLine
 10
8564.814222698712
 20
5278.6
 30
0.0
 11
8564.814222698712
 21
3278.6
 31
0.0
  0
INSERT
  5
14FB6
330
12F1F
100
AcDbEntity
  8
寸法
 62
     0
 48
50.0
370
    -2
100
AcDbBlockReference
  2
_DOTSMALL
 10
8564.814222698712
 20
5278.6
 30
0.0
 41
75.0
 42
75.0
 43
75.0
 50
90.0
  0
INSERT
  5
14FB7
330
12F1F
100
AcDbEntity
  8
寸法
 62
     0
 48
50.0
370
    -2
100
AcDbBlockReference
  2
_DOTSMALL
 10
8564.814222698712
 20
3278.6
 30
0.0
 41
75.0
 42
75.0
 43
75.0
 50
270.0
  0
MTEXT
  5
14FB8
330
12F1F
100
AcDbEntity
  8
寸法
 62
     7
 48
50.0
100
AcDbMText
 10
8489.805364430996
 20
4278.600000000001
 30
0.0
 40
90.0
 41
0.0
 71
     5
 72
     1
  1
\A1;屋根寸法 2000
  7
STYLE1
 11
0.0000000000000001
 21
1.0
 31
0.0
 73
     1
 44
1.0
1001
ACAD
1000
MTEXTBEGIN
1070
    73
1070
     1
1070
    44
1040
1.0
1070
    74
1070
     0
1000
MTEXTEND
  0
POINT
  5
14FB9
330
12F1F
100
AcDbEntity
  8
DEFPOINTS
 62
     0
 48
50.0
100
AcDbPoint
 10
8082.540000335097
 20
5278.6
 30
0.0
  0
POINT
  5
14FBA
330
12F1F
100
AcDbEntity
  8
DEFPOINTS
 62
     0
 48
50.0
100
AcDbPoint
 10
8082.540000335097
 20
3278.6
 30
0.0
  0
POINT
  5
14FBB
330
12F1F
100
AcDbEntity
  8
DEFPOINTS
 62
     0
 48
50.0
100
AcDbPoint
 10
8564.814222698712
 20
3278.6
 30
0.0
  0
ENDBLK
  5
12F2A
330
12F1F
100
AcDbEntity
  8
0
 48
50.0
100
AcDbBlockEnd
  0
BLOCK
  5
12FAC
330
12F2B
100
AcDbEntity
  8
0
 48
50.0
100
AcDbBlockBegin
  2
*D18
 70
     1
 10
0.0
 20
0.0
 30
0.0
  3
*D18
  1

  0
LINE
  5
14FBC
330
12F2B
100
AcDbEntity
  8
寸法
 62
     0
 48
50.0
370
    -2
100
AcDbLine
 10
1082.540000335097
 20
3263.6
 30
0.0
 11
1082.540000335097
 21
2843.828295403291
 31
0.0
  0
LINE
  5
14FBD
330
12F2B
100
AcDbEntity
  8
寸法
 62
     0
 48
50.0
370
    -2
100
AcDbLine
 10
8082.540000335097
 20
3263.6
 30
0.0
 11
8082.540000335097
 21
2843.828295403291
 31
0.0
  0
LINE
  5
14FBE
330
12F2B
100
AcDbEntity
  8
寸法
 62
     0
 48
50.0
370
    -2
100
AcDbLine
 10
1082.540000335097
 20
2888.828295403291
 30
0.0
 11
8082.540000335097
 21
2888.828295403291
 31
0.0
  0
INSERT
  5
14FBF
330
12F2B
100
AcDbEntity
  8
寸法
 62
     0
 48
50.0
370
    -2
100
AcDbBlockReference
  2
_DOTSMALL
 10
1082.540000335097
 20
2888.828295403291
 30
0.0
 41
75.0
 42
75.0
 43
75.0
 50
180.0
  0
INSERT
  5
14FC0
330
12F2B
100
AcDbEntity
  8
寸法
 62
     0
 48
50.0
370
    -2
100
AcDbBlockReference
  2
_DOTSMALL
 10
8082.540000335097
 20
2888.828295403291
 30
0.0
 41
75.0
 42
75.0
 43
75.0
  0
MTEXT
  5
14FC1
330
12F2B
100
AcDbEntity
  8
寸法
 62
     7
 48
50.0
100
AcDbMText
 10
4582.540000335097
 20
2963.828295403292
 30
0.0
 40
90.0
 41
0.0
 71
     5
 72
     1
  1
\A1;屋根寸法 7000
  7
STYLE1
 73
     1
 44
1.0
1001
ACAD
1000
MTEXTBEGIN
1070
    73
1070
     1
1070
    44
1040
1.0
1070
    74
1070
     0
1000
MTEXTEND
  0
POINT
  5
14FC2
330
12F2B
100
AcDbEntity
  8
DEFPOINTS
 62
     0
 48
50.0
100
AcDbPoint
 10
1082.540000335097
 20
3278.6
 30
0.0
  0
POINT
  5
14FC3
330
12F2B
100
AcDbEntity
  8
DEFPOINTS
 62
     0
 48
50.0
100
AcDbPoint
 10
8082.540000335097
 20
3278.6
 30
0.0
  0
POINT
  5
14FC4
330
12F2B
100
AcDbEntity
  8
DEFPOINTS
 62
     0
 48
50.0
100
AcDbPoint
 10
8082.540000335097
 20
2888.828295403291
 30
0.0
  0
ENDBLK
  5
12FB6
330
12F2B
100
AcDbEntity
  8
0
 48
50.0
100
AcDbBlockEnd
  0
BLOCK
  5
12FC4
330
12FC3
100
AcDbEntity
  8
0
 48
50.0
100
AcDbBlockBegin
  2
*D20
 70
     1
 10
0.0
 20
0.0
 30
0.0
  3
*D20
  1

  0
LINE
  5
14FC5
330
12FC3
100
AcDbEntity
  8
寸法
 62
     0
 48
50.0
370
    -2
100
AcDbLine
 10
1332.540000335097
 20
4543.6
 30
0.0
 11
1332.540000335097
 21
5776.052294131106
 31
0.0
  0
LINE
  5
14FC6
330
12FC3
100
AcDbEntity
  8
寸法
 62
     0
 48
50.0
370
    -2
100
AcDbLine
 10
4582.540000335097
 20
4832.14501737092
 30
0.0
 11
4582.540000335097
 21
5776.052294131106
 31
0.0
  0
LINE
  5
14FC7
330
12FC3
100
AcDbEntity
  8
寸法
 62
     0
 48
50.0
370
    -2
100
AcDbLine
 10
1332.540000335097
 20
5731.052294131107
 30
0.0
 11
4582.540000335097
 21
5731.052294131107
 31
0.0
  0
INSERT
  5
14FC8
330
12FC3
100
AcDbEntity
  8
寸法
 62
     0
 48
50.0
370
    -2
100
AcDbBlockReference
  2
_DOTSMALL
 10
1332.540000335097
 20
5731.052294131107
 30
0.0
 41
75.0
 42
75.0
 43
75.0
 50
180.0
  0
INSERT
  5
14FC9
330
12FC3
100
AcDbEntity
  8
寸法
 62
     0
 48
50.0
370
    -2
100
AcDbBlockReference
  2
_DOTSMALL
 10
4582.540000335097
 20
5731.052294131107
 30
0.0
 41
75.0
 42
75.0
 43
75.0
  0
MTEXT
  5
14FCA
330
12FC3
100
AcDbEntity
  8
寸法
 62
     7
 48
50.0
100
AcDbMText
 10
2957.540000335097
 20
5806.061152398823
 30
0.0
 40
90.0
 41
0.0
 71
     5
 72
     1
  1
\A1;3250
  7
STYLE1
 73
     1
 44
1.0
1001
ACAD
1000
MTEXTBEGIN
1070
    73
1070
     1
1070
    44
1040
1.0
1070
    74
1070
     0
1000
MTEXTEND
  0
POINT
  5
14FCB
330
12FC3
100
AcDbEntity
  8
DEFPOINTS
 62
     0
 48
50.0
100
AcDbPoint
 10
1332.540000335097
 20
4528.599999999999
 30
0.0
  0
POINT
  5
14FCC
330
12FC3
100
AcDbEntity
  8
DEFPOINTS
 62
     0
 48
50.0
100
AcDbPoint
 10
4582.540000335097
 20
4817.14501737092
 30
0.0
  0
POINT
  5
14FCD
330
12FC3
100
AcDbEntity
  8
DEFPOINTS
 62
     0
 48
50.0
100
AcDbPoint
 10
4582.540000335097
 20
5731.052294131107
 30
0.0
  0
ENDBLK
  5
12FCE
330
12FC3
100
AcDbEntity
  8
0
 48
50.0
100
AcDbBlockEnd
  0
BLOCK
  5
13AE9
330
13AE8
100
AcDbEntity
  8
0
 48
50.0
100
AcDbBlockBegin
  2
*D25
 70
     1
 10
0.0
 20
0.0
 30
0.0
  3
*D25
  1

  0
LINE
  5
14FCE
330
13AE8
100
AcDbEntity
  8
寸法
 62
     0
 48
50.0
370
    -2
100
AcDbLine
 10
7482.540000335096
 20
4643.599999999998
 30
0.0
 11
7482.540000335096
 21
4871.389361299995
 31
0.0
  0
LINE
  5
14FCF
330
13AE8
100
AcDbEntity
  8
寸法
 62
     0
 48
50.0
370
    -2
100
AcDbLine
 10
8182.540000335096
 20
4643.599999999998
 30
0.0
 11
8182.540000335096
 21
4871.389361299995
 31
0.0
  0
LINE
  5
14FD0
330
13AE8
100
AcDbEntity
  8
寸法
 62
     0
 48
50.0
370
    -2
100
AcDbLine
 10
7482.540000335096
 20
4826.389361299995
 30
0.0
 11
8182.540000335096
 21
4826.389361299995
 31
0.0
  0
INSERT
  5
14FD1
330
13AE8
100
AcDbEntity
  8
寸法
 62
     0
 48
50.0
370
    -2
100
AcDbBlockReference
  2
_DOTSMALL
 10
7482.540000335096
 20
4826.389361299995
 30
0.0
 41
75.0
 42
75.0
 43
75.0
 50
180.0
  0
INSERT
  5
14FD2
330
13AE8
100
AcDbEntity
  8
寸法
 62
     0
 48
50.0
370
    -2
100
AcDbBlockReference
  2
_DOTSMALL
 10
8182.540000335096
 20
4826.389361299995
 30
0.0
 41
75.0
 42
75.0
 43
75.0
  0
MTEXT
  5
14FD3
330
13AE8
100
AcDbEntity
  8
寸法
 62
     7
 48
50.0
100
AcDbMText
 10
7832.540000335097
 20
4901.389361299994
 30
0.0
 40
90.0
 41
0.0
 71
     5
 72
     1
  1
\A1;700
  7
STYLE1
 73
     1
 44
1.0
1001
ACAD
1000
MTEXTBEGIN
1070
    73
1070
     1
1070
    44
1040
1.0
1070
    74
1070
     0
1000
MTEXTEND
  0
POINT
  5
14FD4
330
13AE8
100
AcDbEntity
  8
DEFPOINTS
 62
     0
 48
50.0
100
AcDbPoint
 10
7482.540000335096
 20
4628.599999999998
 30
0.0
  0
POINT
  5
14FD5
330
13AE8
100
AcDbEntity
  8
DEFPOINTS
 62
     0
 48
50.0
100
AcDbPoint
 10
8182.540000335096
 20
4628.599999999998
 30
0.0
  0
POINT
  5
14FD6
330
13AE8
100
AcDbEntity
  8
DEFPOINTS
 62
     0
 48
50.0
100
AcDbPoint
 10
8182.540000335096
 20
4826.389361299995
 30
0.0
  0
ENDBLK
  5
13AF3
330
13AE8
100
AcDbEntity
  8
0
 48
50.0
100
AcDbBlockEnd
  0
BLOCK
  5
13AF5
330
13AF4
100
AcDbEntity
  8
0
 48
50.0
100
AcDbBlockBegin
  2
*D26
 70
     1
 10
0.0
 20
0.0
 30
0.0
  3
*D26
  1

  0
LINE
  5
14FD7
330
13AF4
100
AcDbEntity
  8
寸法
 62
     0
 48
50.0
370
    -2
100
AcDbLine
 10
7467.540000335097
 20
4628.599999999998
 30
0.0
 11
7260.225497050917
 21
4628.599999999998
 31
0.0
  0
LINE
  5
14FD8
330
13AF4
100
AcDbEntity
  8
寸法
 62
     0
 48
50.0
370
    -2
100
AcDbLine
 10
7467.540000335097
 20
3928.599999999999
 30
0.0
 11
7260.225497050917
 21
3928.599999999999
 31
0.0
  0
LINE
  5
14FD9
330
13AF4
100
AcDbEntity
  8
寸法
 62
     0
 48
50.0
370
    -2
100
AcDbLine
 10
7305.225497050916
 20
4628.599999999998
 30
0.0
 11
7305.225497050916
 21
3928.599999999999
 31
0.0
  0
INSERT
  5
14FDA
330
13AF4
100
AcDbEntity
  8
寸法
 62
     0
 48
50.0
370
    -2
100
AcDbBlockReference
  2
_DOTSMALL
 10
7305.225497050916
 20
4628.599999999998
 30
0.0
 41
75.0
 42
75.0
 43
75.0
 50
90.0
  0
INSERT
  5
14FDB
330
13AF4
100
AcDbEntity
  8
寸法
 62
     0
 48
50.0
370
    -2
100
AcDbBlockReference
  2
_DOTSMALL
 10
7305.225497050916
 20
3928.599999999999
 30
0.0
 41
75.0
 42
75.0
 43
75.0
 50
270.0
  0
MTEXT
  5
14FDC
330
13AF4
100
AcDbEntity
  8
寸法
 62
     7
 48
50.0
100
AcDbMText
 10
7230.225497050915
 20
4278.599999999999
 30
0.0
 40
90.0
 41
0.0
 71
     5
 72
     1
  1
\A1;700
  7
STYLE1
 11
0.0000000000000001
 21
1.0
 31
0.0
 73
     1
 44
1.0
1001
ACAD
1000
MTEXTBEGIN
1070
    73
1070
     1
1070
    44
1040
1.0
1070
    74
1070
     0
1000
MTEXTEND
  0
POINT
  5
14FDD
330
13AF4
100
AcDbEntity
  8
DEFPOINTS
 62
     0
 48
50.0
100
AcDbPoint
 10
7482.540000335096
 20
4628.599999999998
 30
0.0
  0
POINT
  5
14FDE
330
13AF4
100
AcDbEntity
  8
DEFPOINTS
 62
     0
 48
50.0
100
AcDbPoint
 10
7482.540000335096
 20
3928.599999999999
 30
0.0
  0
POINT
  5
14FDF
330
13AF4
100
AcDbEntity
  8
DEFPOINTS
 62
     0
 48
50.0
100
AcDbPoint
 10
7305.225497050916
 20
3928.599999999999
 30
0.0
  0
ENDBLK
  5
13AFF
330
13AF4
100
AcDbEntity
  8
0
 48
50.0
100
AcDbBlockEnd
  0
BLOCK
  5
13B4D
330
13B4C
100
AcDbEntity
  8
0
 48
50.0
100
AcDbBlockBegin
  2
_None
 70
     0
 10
0.0
 20
0.0
 30
0.0
  3
_None
  1

  0
ENDBLK
  5
13B4E
330
13B4C
100
AcDbEntity
  8
0
 48
50.0
100
AcDbBlockEnd
  0
BLOCK
  5
1407F
330
14075
100
AcDbEntity
  8
0
 48
50.0
100
AcDbBlockBegin
  2
*D28
 70
     1
 10
0.0
 20
0.0
 30
0.0
  3
*D28
  1

  0
LINE
  5
14FE0
330
14075
100
AcDbEntity
  8
寸法
 62
     0
 48
50.0
370
    -2
100
AcDbLine
 10
9916.058412970304
 20
3998.987740604326
 30
0.0
 11
9916.058412970304
 21
3716.937668045912
 31
0.0
  0
LINE
  5
14FE1
330
14075
100
AcDbEntity
  8
寸法
 62
     0
 48
50.0
370
    -2
100
AcDbLine
 10
10966.0584129703
 20
3998.987740604326
 30
0.0
 11
10966.0584129703
 21
3716.937668045912
 31
0.0
  0
LINE
  5
14FE2
330
14075
100
AcDbEntity
  8
寸法
 62
     0
 48
50.0
370
    -2
100
AcDbLine
 10
9916.058412970304
 20
3761.937668045912
 30
0.0
 11
10966.0584129703
 21
3761.937668045912
 31
0.0
  0
INSERT
  5
14FE3
330
14075
100
AcDbEntity
  8
寸法
 62
     0
 48
50.0
370
    -2
100
AcDbBlockReference
  2
_DOTSMALL
 10
9916.058412970304
 20
3761.937668045912
 30
0.0
 41
75.0
 42
75.0
 43
75.0
 50
180.0
  0
INSERT
  5
14FE4
330
14075
100
AcDbEntity
  8
寸法
 62
     0
 48
50.0
370
    -2
100
AcDbBlockReference
  2
_DOTSMALL
 10
10966.0584129703
 20
3761.937668045912
 30
0.0
 41
75.0
 42
75.0
 43
75.0
  0
MTEXT
  5
14FE5
330
14075
100
AcDbEntity
  8
寸法
 62
     7
 48
50.0
100
AcDbMText
 10
10441.0584129703
 20
3836.937668045912
 30
0.0
 40
90.0
 41
0.0
 71
     5
 72
     1
  1
\A1;700
  7
STYLE1
 73
     1
 44
1.0
1001
ACAD
1000
MTEXTBEGIN
1070
    73
1070
     1
1070
    44
1040
1.0
1070
    74
1070
     0
1000
MTEXTEND
  0
POINT
  5
14FE6
330
14075
100
AcDbEntity
  8
DEFPOINTS
 62
     0
 48
50.0
100
AcDbPoint
 10
9916.058412970304
 20
4013.987740604325
 30
0.0
  0
POINT
  5
14FE7
330
14075
100
AcDbEntity
  8
DEFPOINTS
 62
     0
 48
50.0
100
AcDbPoint
 10
10966.0584129703
 20
4013.987740604325
 30
0.0
  0
POINT
  5
14FE8
330
14075
100
AcDbEntity
  8
DEFPOINTS
 62
     0
 48
50.0
100
AcDbPoint
 10
10966.0584129703
 20
3761.937668045912
 30
0.0
  0
ENDBLK
  5
14080
330
14075
100
AcDbEntity
  8
0
 48
50.0
100
AcDbBlockEnd
  0
BLOCK
  5
1450A
330
14509
100
AcDbEntity
  8
0
 48
50.0
100
AcDbBlockBegin
  2
*D41
 70
     1
 10
0.0
 20
0.0
 30
0.0
  3
*D41
  1

  0
LINE
  5
14FE9
330
14509
100
AcDbEntity
  8
寸法
 62
     0
 48
50.0
370
    -2
100
AcDbLine
 10
11101.0584129703
 20
4214.987740604325
 30
0.0
 11
11670.76701330147
 21
4214.987740604325
 31
0.0
  0
LINE
  5
14FEA
330
14509
100
AcDbEntity
  8
寸法
 62
     0
 48
50.0
370
    -2
100
AcDbLine
 10
11101.0584129703
 20
4139.987740604325
 30
0.0
 11
11670.76701330147
 21
4139.987740604325
 31
0.0
  0
LINE
  5
14FEB
330
14509
100
AcDbEntity
  8
寸法
 62
     0
 48
50.0
370
    -2
100
AcDbLine
 10
11625.76701330147
 20
4214.987740604325
 30
0.0
 11
11625.76701330147
 21
4139.987740604325
 31
0.0
  0
LINE
  5
14FEC
330
14509
100
AcDbEntity
  8
寸法
 62
     0
 48
50.0
370
    -2
100
AcDbLine
 10
11625.76701330147
 20
4139.987740604325
 30
0.0
 11
11625.76701330146
 21
3880.749650053143
 31
0.0
  0
INSERT
  5
14FED
330
14509
100
AcDbEntity
  8
寸法
 62
     0
 48
50.0
370
    -2
100
AcDbBlockReference
  2
_DOTSMALL
 10
11625.76701330147
 20
4214.987740604325
 30
0.0
 41
75.0
 42
75.0
 43
75.0
 50
90.0
  0
INSERT
  5
14FEE
330
14509
100
AcDbEntity
  8
寸法
 62
     0
 48
50.0
370
    -2
100
AcDbBlockReference
  2
_DOTSMALL
 10
11625.76701330147
 20
4139.987740604325
 30
0.0
 41
75.0
 42
75.0
 43
75.0
 50
270.0
  0
MTEXT
  5
14FEF
330
14509
100
AcDbEntity
  8
寸法
 62
     7
 48
50.0
100
AcDbMText
 10
11550.76701330147
 20
3960.285083124012
 30
0.0
 40
90.0
 41
0.0
 71
     5
 72
     1
  1
\A1;50
  7
STYLE1
 11
0.0000000000000001
 21
1.0
 31
0.0
 73
     1
 44
1.0
1001
ACAD
1000
MTEXTBEGIN
1070
    73
1070
     1
1070
    44
1040
1.0
1070
    74
1070
     0
1000
MTEXTEND
  0
POINT
  5
14FF0
330
14509
100
AcDbEntity
  8
DEFPOINTS
 62
     0
 48
50.0
100
AcDbPoint
 10
11086.0584129703
 20
4214.987740604325
 30
0.0
  0
POINT
  5
14FF1
330
14509
100
AcDbEntity
  8
DEFPOINTS
 62
     0
 48
50.0
100
AcDbPoint
 10
11086.0584129703
 20
4139.987740604325
 30
0.0
  0
POINT
  5
14FF2
330
14509
100
AcDbEntity
  8
DEFPOINTS
 62
     0
 48
50.0
100
AcDbPoint
 10
11625.76701330147
 20
4139.987740604325
 30
0.0
  0
ENDBLK
  5
1450B
330
14509
100
AcDbEntity
  8
0
 48
50.0
100
AcDbBlockEnd
  0
BLOCK
  5
14517
330
14516
100
AcDbEntity
  8
0
 48
50.0
100
AcDbBlockBegin
  2
*D42
 70
     1
 10
0.0
 20
0.0
 30
0.0
  3
*D42
  1

  0
LINE
  5
14FF3
330
14516
100
AcDbEntity
  8
寸法
 62
     0
 48
50.0
370
    -2
100
AcDbLine
 10
11335.24663175222
 20
5039.434593786843
 30
0.0
 11
11670.76701330147
 21
5039.434593786843
 31
0.0
  0
LINE
  5
14FF4
330
14516
100
AcDbEntity
  8
寸法
 62
     0
 48
50.0
370
    -2
100
AcDbLine
 10
11101.0584129703
 20
4214.987740604325
 30
0.0
 11
11670.76701330147
 21
4214.987740604325
 31
0.0
  0
LINE
  5
14FF5
330
14516
100
AcDbEntity
  8
寸法
 62
     0
 48
50.0
370
    -2
100
AcDbLine
 10
11625.76701330146
 20
5039.434593786843
 30
0.0
 11
11625.76701330146
 21
4214.987740604325
 31
0.0
  0
INSERT
  5
14FF6
330
14516
100
AcDbEntity
  8
寸法
 62
     0
 48
50.0
370
    -2
100
AcDbBlockReference
  2
_DOTSMALL
 10
11625.76701330146
 20
5039.434593786843
 30
0.0
 41
75.0
 42
75.0
 43
75.0
 50
90.0
  0
INSERT
  5
14FF7
330
14516
100
AcDbEntity
  8
寸法
 62
     0
 48
50.0
370
    -2
100
AcDbBlockReference
  2
_DOTSMALL
 10
11625.76701330146
 20
4214.987740604325
 30
0.0
 41
75.0
 42
75.0
 43
75.0
 50
270.0
  0
MTEXT
  5
14FF8
330
14516
100
AcDbEntity
  8
寸法
 62
     7
 48
50.0
100
AcDbMText
 10
11550.76701330146
 20
4627.211167195586
 30
0.0
 40
90.0
 41
0.0
 71
     5
 72
     1
  1
\A1;550
  7
STYLE1
 11
0.0000000000000001
 21
1.0
 31
0.0
 73
     1
 44
1.0
1001
ACAD
1000
MTEXTBEGIN
1070
    73
1070
     1
1070
    44
1040
1.0
1070
    74
1070
     0
1000
MTEXTEND
  0
POINT
  5
14FF9
330
14516
100
AcDbEntity
  8
DEFPOINTS
 62
     0
 48
50.0
100
AcDbPoint
 10
11320.24663175222
 20
5039.434593786843
 30
0.0
  0
POINT
  5
14FFA
330
14516
100
AcDbEntity
  8
DEFPOINTS
 62
     0
 48
50.0
100
AcDbPoint
 10
11086.0584129703
 20
4214.987740604325
 30
0.0
  0
POINT
  5
14FFB
330
14516
100
AcDbEntity
  8
DEFPOINTS
 62
     0
 48
50.0
100
AcDbPoint
 10
11625.76701330146
 20
4214.987740604325
 30
0.0
  0
ENDBLK
  5
14518
330
14516
100
AcDbEntity
  8
0
 48
50.0
100
AcDbBlockEnd
  0
BLOCK
  5
14523
330
14522
100
AcDbEntity
  8
0
 48
50.0
100
AcDbBlockBegin
  2
*D43
 70
     1
 10
0.0
 20
0.0
 30
0.0
  3
*D43
  1

  0
LINE
  5
14FFC
330
14522
100
AcDbEntity
  8
寸法
 62
     0
 48
50.0
370
    -2
100
AcDbLine
 10
11193.26120085994
 20
5114.434593786842
 30
0.0
 11
11670.76701330147
 21
5114.434593786842
 31
0.0
  0
LINE
  5
14FFD
330
14522
100
AcDbEntity
  8
寸法
 62
     0
 48
50.0
370
    -2
100
AcDbLine
 10
11335.24663175222
 20
5039.434593786843
 30
0.0
 11
11670.76701330147
 21
5039.434593786843
 31
0.0
  0
LINE
  5
14FFE
330
14522
100
AcDbEntity
  8
寸法
 62
     0
 48
50.0
370
    -2
100
AcDbLine
 10
11625.76701330147
 20
5039.434593786843
 30
0.0
 11
11625.76701330147
 21
5114.434593786842
 31
0.0
  0
LINE
  5
14FFF
330
14522
100
AcDbEntity
  8
寸法
 62
     0
 48
50.0
370
    -2
100
AcDbLine
 10
11625.76701330147
 20
5114.434593786842
 30
0.0
 11
11625.76701330147
 21
5402.833987888387
 31
0.0
  0
INSERT
  5
15000
330
14522
100
AcDbEntity
  8
寸法
 62
     0
 48
50.0
370
    -2
100
AcDbBlockReference
  2
_DOTSMALL
 10
11625.76701330147
 20
5039.434593786843
 30
0.0
 41
75.0
 42
75.0
 43
75.0
 50
270.0
  0
INSERT
  5
15001
330
14522
100
AcDbEntity
  8
寸法
 62
     0
 48
50.0
370
    -2
100
AcDbBlockReference
  2
_DOTSMALL
 10
11625.76701330147
 20
5114.434593786842
 30
0.0
 41
75.0
 42
75.0
 43
75.0
 50
90.0
  0
MTEXT
  5
15002
330
14522
100
AcDbEntity
  8
寸法
 62
     7
 48
50.0
100
AcDbMText
 10
11550.76701330147
 20
5323.298554817522
 30
0.0
 40
90.0
 41
0.0
 71
     5
 72
     1
  1
\A1;50
  7
STYLE1
 11
0.0000000000000001
 21
1.0
 31
0.0
 73
     1
 44
1.0
1001
ACAD
1000
MTEXTBEGIN
1070
    73
1070
     1
1070
    44
1040
1.0
1070
    74
1070
     0
1000
MTEXTEND
  0
POINT
  5
15003
330
14522
100
AcDbEntity
  8
DEFPOINTS
 62
     0
 48
50.0
100
AcDbPoint
 10
11178.26120085994
 20
5114.434593786842
 30
0.0
  0
POINT
  5
15004
330
14522
100
AcDbEntity
  8
DEFPOINTS
 62
     0
 48
50.0
100
AcDbPoint
 10
11320.24663175222
 20
5039.434593786843
 30
0.0
  0
POINT
  5
15005
330
14522
100
AcDbEntity
  8
DEFPOINTS
 62
     0
 48
50.0
100
AcDbPoint
 10
11625.76701330147
 20
5039.434593786843
 30
0.0
  0
ENDBLK
  5
14524
330
14522
100
AcDbEntity
  8
0
 48
50.0
100
AcDbBlockEnd
  0
BLOCK
  5
14530
330
1452F
100
AcDbEntity
  8
0
 48
50.0
100
AcDbBlockBegin
  2
*D44
 70
     1
 10
0.0
 20
0.0
 30
0.0
  3
*D44
  1

  0
LINE
  5
15006
330
1452F
100
AcDbEntity
  8
寸法
 62
     0
 48
50.0
370
    -2
100
AcDbLine
 10
9627.916122599339
 20
4964.434593786844
 30
0.0
 11
9407.785787389093
 21
4964.434593786844
 31
0.0
  0
LINE
  5
15007
330
1452F
100
AcDbEntity
  8
寸法
 62
     0
 48
50.0
370
    -2
100
AcDbLine
 10
9627.916122599339
 20
4814.434593786844
 30
0.0
 11
9407.785787389093
 21
4814.434593786844
 31
0.0
  0
LINE
  5
15008
330
1452F
100
AcDbEntity
  8
寸法
 62
     0
 48
50.0
370
    -2
100
AcDbLine
 10
9452.785787389094
 20
4964.434593786844
 30
0.0
 11
9452.785787389094
 21
4814.434593786844
 31
0.0
  0
LINE
  5
15009
330
1452F
100
AcDbEntity
  8
寸法
 62
     0
 48
50.0
370
    -2
100
AcDbLine
 10
9452.785787389094
 20
4814.434593786844
 30
0.0
 11
9452.785787389094
 21
4535.363727645111
 31
0.0
  0
INSERT
  5
1500A
330
1452F
100
AcDbEntity
  8
寸法
 62
     0
 48
50.0
370
    -2
100
AcDbBlockReference
  2
_DOTSMALL
 10
9452.785787389094
 20
4964.434593786844
 30
0.0
 41
75.0
 42
75.0
 43
75.0
 50
90.0
  0
INSERT
  5
1500B
330
1452F
100
AcDbEntity
  8
寸法
 62
     0
 48
50.0
370
    -2
100
AcDbBlockReference
  2
_DOTSMALL
 10
9452.785787389094
 20
4814.434593786844
 30
0.0
 41
75.0
 42
75.0
 43
75.0
 50
270.0
  0
MTEXT
  5
1500C
330
1452F
100
AcDbEntity
  8
寸法
 62
     7
 48
50.0
100
AcDbMText
 10
9377.785787389091
 20
4637.399160715978
 30
0.0
 40
90.0
 41
0.0
 71
     5
 72
     1
  1
\A1;100
  7
STYLE1
 11
0.0000000000000001
 21
1.0
 31
0.0
 73
     1
 44
1.0
1001
ACAD
1000
MTEXTBEGIN
1070
    73
1070
     1
1070
    44
1040
1.0
1070
    74
1070
     0
1000
MTEXTEND
  0
POINT
  5
1500D
330
1452F
100
AcDbEntity
  8
DEFPOINTS
 62
     0
 48
50.0
100
AcDbPoint
 10
9642.91612259934
 20
4964.434593786844
 30
0.0
  0
POINT
  5
1500E
330
1452F
100
AcDbEntity
  8
DEFPOINTS
 62
     0
 48
50.0
100
AcDbPoint
 10
9642.91612259934
 20
4814.434593786844
 30
0.0
  0
POINT
  5
1500F
330
1452F
100
AcDbEntity
  8
DEFPOINTS
 62
     0
 48
50.0
100
AcDbPoint
 10
9452.785787389094
 20
4814.434593786844
 30
0.0
  0
ENDBLK
  5
14531
330
1452F
100
AcDbEntity
  8
0
 48
50.0
100
AcDbBlockEnd
  0
BLOCK
  5
1453D
330
1453C
100
AcDbEntity
  8
0
 48
50.0
100
AcDbBlockBegin
  2
*D45
 70
     1
 10
0.0
 20
0.0
 30
0.0
  3
*D45
  1

  0
LINE
  5
15010
330
1453C
100
AcDbEntity
  8
寸法
 62
     0
 48
50.0
370
    -2
100
AcDbLine
 10
9627.916122599343
 20
5114.434593786842
 30
0.0
 11
9407.785787389093
 21
5114.434593786842
 31
0.0
  0
LINE
  5
15011
330
1453C
100
AcDbEntity
  8
寸法
 62
     0
 48
50.0
370
    -2
100
AcDbLine
 10
9617.674115427558
 20
4964.434593786842
 30
0.0
 11
9407.785787389093
 21
4964.434593786842
 31
0.0
  0
LINE
  5
15012
330
1453C
100
AcDbEntity
  8
寸法
 62
     0
 48
50.0
370
    -2
100
AcDbLine
 10
9452.785787389094
 20
4964.434593786842
 30
0.0
 11
9452.785787389094
 21
5114.434593786842
 31
0.0
  0
LINE
  5
15013
330
1453C
100
AcDbEntity
  8
寸法
 62
     0
 48
50.0
370
    -2
100
AcDbLine
 10
9452.785787389094
 20
5114.434593786842
 30
0.0
 11
9452.785787389094
 21
5393.505459928575
 31
0.0
  0
INSERT
  5
15014
330
1453C
100
AcDbEntity
  8
寸法
 62
     0
 48
50.0
370
    -2
100
AcDbBlockReference
  2
_DOTSMALL
 10
9452.785787389094
 20
4964.434593786842
 30
0.0
 41
75.0
 42
75.0
 43
75.0
 50
270.0
  0
INSERT
  5
15015
330
1453C
100
AcDbEntity
  8
寸法
 62
     0
 48
50.0
370
    -2
100
AcDbBlockReference
  2
_DOTSMALL
 10
9452.785787389094
 20
5114.434593786842
 30
0.0
 41
75.0
 42
75.0
 43
75.0
 50
90.0
  0
MTEXT
  5
15016
330
1453C
100
AcDbEntity
  8
寸法
 62
     7
 48
50.0
100
AcDbMText
 10
9377.785787389091
 20
5291.47002685771
 30
0.0
 40
90.0
 41
0.0
 71
     5
 72
     1
  1
\A1;100
  7
STYLE1
 11
0.0000000000000001
 21
1.0
 31
0.0
 73
     1
 44
1.0
1001
ACAD
1000
MTEXTBEGIN
1070
    73
1070
     1
1070
    44
1040
1.0
1070
    74
1070
     0
1000
MTEXTEND
  0
POINT
  5
15017
330
1453C
100
AcDbEntity
  8
DEFPOINTS
 62
     0
 48
50.0
100
AcDbPoint
 10
9642.916122599341
 20
5114.434593786842
 30
0.0
  0
POINT
  5
15018
330
1453C
100
AcDbEntity
  8
DEFPOINTS
 62
     0
 48
50.0
100
AcDbPoint
 10
9632.674115427557
 20
4964.434593786842
 30
0.0
  0
POINT
  5
15019
330
1453C
100
AcDbEntity
  8
DEFPOINTS
 62
     0
 48
50.0
100
AcDbPoint
 10
9452.785787389094
 20
4964.434593786842
 30
0.0
  0
ENDBLK
  5
1453E
330
1453C
100
AcDbEntity
  8
0
 48
50.0
100
AcDbBlockEnd
  0
ENDSEC
  0
SECTION
  2
ENTITIES
  0
LINE
  5
10B56
330
747D
100
AcDbEntity
  8
補助
  6
PHANTOM
 62
   230
 48
50.0
100
AcDbLine
 10
105.0
 20
0.0
 30
0.0
 11
104.9999999999996
 21
8557.199999999999
 31
0.0
  0
LINE
  5
10B57
330
747D
100
AcDbEntity
  8
補助
  6
PHANTOM
 62
   230
 48
50.0
100
AcDbLine
 10
104.9999999999996
 20
8557.199999999999
 30
0.0
 11
12230.4
 21
8557.199999999999
 31
0.0
  0
LINE
  5
10B5D
330
747D
100
AcDbEntity
  8
仕様書枠
 48
50.0
100
AcDbLine
 10
105.0
 20
0.0
 30
0.0
 11
12230.4
 21
-0.0000000000000682
 31
0.0
  0
LINE
  5
10B5E
330
747D
100
AcDbEntity
  8
補助
  6
PHANTOM
 62
   230
 48
50.0
100
AcDbLine
 10
12230.4
 20
8557.199999999999
 30
0.0
 11
12230.4
 21
900.0
 31
0.0
  0
LINE
  5
10B6D
330
747D
100
AcDbEntity
  8
補助
  6
PHANTOM
 62
   230
 48
50.0
100
AcDbLine
 10
9830.400000000002
 20
8557.199999999999
 30
0.0
 11
9830.400000000002
 21
3600.0
 31
0.0
  0
LINE
  5
10B6F
330
747D
100
AcDbEntity
  8
補助
  6
PHANTOM
 62
   230
 48
50.0
100
AcDbLine
 10
9830.400000000002
 20
3600.0
 30
0.0
 11
12230.4
 21
3600.0
 31
0.0
  0
LINE
  5
11AA1
330
747D
100
AcDbEntity
  8
点線
 48
30.0
100
AcDbLine
 10
1082.540000335097
 20
5278.6
 30
0.0
 11
1082.540000335097
 21
3278.6
 31
0.0
  0
MTEXT
  5
11AA2
330
747D
100
AcDbEntity
  8
寸法
 62
     7
 48
50.0
100
AcDbMText
 10
6244.724100938768
 20
3932.887178094792
 30
0.0
 40
90.0
 41
0.0
 71
     4
 72
     1
  1
\A1;水勾配 1/100 
  7
STYLE1
 11
0.0000000000000001
 21
1.0
 31
0.0
 73
     1
 44
1.0
1001
ACAD
1000
MTEXTBEGIN
1070
    73
1070
     1
1070
    44
1040
1.0
1070
    74
1070
     0
1000
MTEXTEND
  0
LINE
  5
11AA3
330
747D
100
AcDbEntity
  8
文字
 48
50.0
100
AcDbLine
 10
6339.162037004573
 20
4168.423162065123
 30
0.0
 11
6339.162037004573
 21
3531.910762603184
 31
0.0
  0
DIMENSION
  5
11AA7
330
747D
100
AcDbEntity
  8
寸法
 48
50.0
100
AcDbDimension
  2
*D1
 10
619.454257315101
 20
3278.600000000001
 30
0.0
 11
544.445399047384
 21
4278.599999999999
 31
0.0
 70
    32
  1
基礎寸法 <>
 71
     5
 42
2000.0
  3
INABA_S30G
100
AcDbAlignedDimension
 13
1082.540000335097
 23
5278.6
 33
0.0
 14
1082.540000335097
 24
3278.6
 34
0.0
 50
90.0
100
AcDbRotatedDimension
  0
LINE
  5
11AAA
330
747D
100
AcDbEntity
  8
点線
 48
30.0
100
AcDbLine
 10
8082.540000335097
 20
3278.6
 30
0.0
 11
8082.540000335097
 21
5278.6
 31
0.0
  0
LINE
  5
11AB2
330
747D
100
AcDbEntity
  8
センター
 48
10.0
100
AcDbLine
 10
1082.540000335097
 20
4278.600000000001
 30
0.0
 11
1582.540000335097
 21
4278.599999999999
 31
0.0
  0
DIMENSION
  5
11AB4
330
747D
100
AcDbEntity
  8
寸法
 48
50.0
100
AcDbDimension
  2
*D2
 10
832.0233171713134
 20
3278.600000000001
 30
0.0
 11
757.0233171713129
 21
3778.600000000002
 31
0.0
 70
    32
 71
     5
 42
1000.000000000001
  3
INABA_S30G
100
AcDbAlignedDimension
 13
1082.540000335097
 23
4278.600000000002
 33
0.0
 14
1082.540000335097
 24
3278.6
 34
0.0
 50
90.0
100
AcDbRotatedDimension
  0
LINE
  5
11AB8
330
747D
100
AcDbEntity
  8
センター
 48
10.0
100
AcDbLine
 10
1332.540000335097
 20
4528.599999999999
 30
0.0
 11
1332.540000335097
 21
4028.599999999999
 31
0.0
  0
LINE
  5
11B2E
330
747D
100
AcDbEntity
  8
文字
 48
50.0
100
AcDbLine
 10
6339.162037004573
 20
3531.910762603184
 30
0.0
 11
6306.313754171759
 21
3654.502223076637
 31
0.0
  0
LINE
  5
11B2F
330
747D
100
AcDbEntity
  8
文字
 48
50.0
100
AcDbLine
 10
6339.162037004573
 20
3531.910762603184
 30
0.0
 11
6372.010319837387
 21
3654.502223076637
 31
0.0
  0
LINE
  5
11B38
330
747D
100
AcDbEntity
  8
センター
 48
10.0
100
AcDbLine
 10
7832.540000335097
 20
4028.600000000001
 30
0.0
 11
7832.540000335097
 21
4528.600000000002
 31
0.0
  0
LINE
  5
11B3C
330
747D
100
AcDbEntity
  8
センター
 48
10.0
100
AcDbLine
 10
7582.540000335097
 20
4278.600000000001
 30
0.0
 11
8082.540000335097
 21
4278.599999999999
 31
0.0
  0
DIMENSION
  5
11B57
330
747D
100
AcDbEntity
  8
寸法
 48
50.0
100
AcDbDimension
  2
*D3
 10
8082.540000335097
 20
5925.089333105425
 30
0.0
 11
4582.540000335097
 21
6000.089333105425
 31
0.0
 70
    32
  1
基礎寸法 <>
 71
     5
 42
7000.0
  3
INABA_S30G
100
AcDbAlignedDimension
 13
1082.540000335097
 23
5278.6
 33
0.0
 14
8082.540000335097
 24
5278.6
 34
0.0
100
AcDbRotatedDimension
  0
LINE
  5
11B5C
330
747D
100
AcDbEntity
  8
点線
 48
30.0
100
AcDbLine
 10
8082.540000335097
 20
5278.6
 30
0.0
 11
1082.540000335097
 21
5278.6
 31
0.0
  0
DIMENSION
  5
11B5D
330
747D
100
AcDbEntity
  8
寸法
 48
50.0
100
AcDbDimension
  2
*D4
 10
1332.540000335097
 20
5731.052294131107
 30
0.0
 11
1207.540000335097
 21
5806.061152398823
 31
0.0
 70
    32
 71
     5
 42
250.0
  3
INABA_S30G
100
AcDbAlignedDimension
 13
1082.540000335097
 23
5278.6
 33
0.0
 14
1332.540000335097
 24
4528.599999999999
 34
0.0
100
AcDbRotatedDimension
  0
DIMENSION
  5
11B60
330
747D
100
AcDbEntity
  8
寸法
 48
50.0
100
AcDbDimension
  2
*D5
 10
832.0233171713136
 20
4278.600000000001
 30
0.0
 11
757.0233171713129
 21
4778.599999999999
 31
0.0
 70
    32
 71
     5
 42
999.9999999999991
  3
INABA_S30G
100
AcDbAlignedDimension
 13
1082.540000335097
 23
5278.6
 33
0.0
 14
1082.540000335097
 24
4278.600000000001
 34
0.0
 50
90.0
100
AcDbRotatedDimension
  0
DIMENSION
  5
11B6A
330
747D
100
AcDbEntity
  8
寸法
 48
50.0
100
AcDbDimension
  2
*D6
 10
8082.540000335097
 20
5731.649529476014
 30
0.0
 11
7957.540000335097
 21
5806.65838774373
 31
0.0
 70
    32
 71
     5
 42
250.0
  3
INABA_S30G
100
AcDbAlignedDimension
 13
7832.540000335097
 23
5348.600000000001
 33
0.0
 14
8082.540000335097
 24
5278.6
 34
0.0
100
AcDbRotatedDimension
  0
MTEXT
  5
11B6B
330
747D
100
AcDbEntity
  8
寸法
 62
     7
 48
50.0
100
AcDbMText
 10
6717.322973290724
 20
3395.8800458675
 30
0.0
 40
90.0
 41
0.0
 71
     4
 72
     1
  1
\A1;床コンクリート打コテ押エ
  7
STYLE1
 73
     1
 44
1.0
1001
ACAD
1000
MTEXTBEGIN
1070
    73
1070
     1
1070
    44
1040
1.0
1070
    74
1070
     0
1000
MTEXTEND
  0
LINE
  5
129F5
330
747D
100
AcDbEntity
  8
寸法
 48
50.0
100
AcDbLine
 10
1332.540000335097
 20
3969.701037519869
 30
0.0
 11
1332.540000335097
 21
4028.599999999999
 31
0.0
  0
LINE
  5
129FA
330
747D
100
AcDbEntity
  8
センター
 48
10.0
100
AcDbLine
 10
6391.65549705689
 20
4278.599999999999
 30
0.0
 11
7156.933542392856
 21
4278.599999999999
 31
0.0
  0
LINE
  5
129FB
330
747D
100
AcDbEntity
  8
文字
 48
50.0
100
AcDbLine
 10
6339.162037004573
 20
4388.776837934877
 30
0.0
 11
6339.162037004573
 21
5025.289237396817
 31
0.0
  0
LINE
  5
129FC
330
747D
100
AcDbEntity
  8
文字
 48
50.0
100
AcDbLine
 10
6339.162037004573
 20
5025.289237396817
 30
0.0
 11
6306.313754171759
 21
4902.697776923364
 31
0.0
  0
LINE
  5
129FD
330
747D
100
AcDbEntity
  8
文字
 48
50.0
100
AcDbLine
 10
6339.162037004573
 20
5025.289237396817
 30
0.0
 11
6372.010319837387
 21
4902.697776923364
 31
0.0
  0
DIMENSION
  5
12DFB
330
747D
100
AcDbEntity
  8
寸法
 48
50.0
100
AcDbDimension
  2
*D14
 10
7832.540000335097
 20
5731.052294131107
 30
0.0
 11
6207.540000335097
 21
5806.061152398823
 31
0.0
 70
    32
 71
     5
 42
3250.0
  3
INABA_S30G
100
AcDbAlignedDimension
 13
4582.540000335097
 23
4528.599999999999
 33
0.0
 14
7832.540000335097
 24
4946.389361299995
 34
0.0
100
AcDbRotatedDimension
1001
ACAD
1000
DSTYLE
1002
{
1002
}
  0
LINE
  5
12E1F
330
747D
100
AcDbEntity
  8
センター
 48
10.0
100
AcDbLine
 10
4582.540000335097
 20
4528.599999999999
 30
0.0
 11
4582.540000335097
 21
4028.599999999999
 31
0.0
  0
LINE
  5
12E20
330
747D
100
AcDbEntity
  8
センター
 48
10.0
100
AcDbLine
 10
4332.540000335097
 20
4278.600000000001
 30
0.0
 11
4832.540000335097
 21
4278.599999999999
 31
0.0
  0
LINE
  5
12E24
330
747D
100
AcDbEntity
  8
センター
 48
10.0
100
AcDbLine
 10
4832.540000335097
 20
4278.599999999999
 30
0.0
 11
6140.682459126991
 21
4278.599999999999
 31
0.0
  0
LINE
  5
12E63
330
747D
100
AcDbEntity
  8
センター
 48
10.0
100
AcDbLine
 10
1582.540000335097
 20
4278.599999999999
 30
0.0
 11
4332.540000335097
 21
4278.599999999999
 31
0.0
  0
LINE
  5
12E64
330
747D
100
AcDbEntity
  8
点線
 48
30.0
100
AcDbLine
 10
1082.540000335097
 20
3278.6
 30
0.0
 11
8082.540000335097
 21
3278.6
 31
0.0
  0
DIMENSION
  5
12F1D
330
747D
100
AcDbEntity
  8
寸法
 48
50.0
100
AcDbDimension
  2
*D17
 10
8564.814222698712
 20
3278.6
 30
0.0
 11
8489.805364430996
 21
4278.600000000001
 31
0.0
 70
    32
  1
屋根寸法 <>
 71
     5
 42
2000.0
  3
INABA_S30G
100
AcDbAlignedDimension
 13
8082.540000335097
 23
5278.6
 33
0.0
 14
8082.540000335097
 24
3278.6
 34
0.0
 50
90.0
100
AcDbRotatedDimension
1001
ACAD
1000
DSTYLE
1002
{
1070
   141
1040
-0.1
1070
   279
1070
     2
1070
   288
1070
     1
1002
}
  0
DIMENSION
  5
12F1E
330
747D
100
AcDbEntity
  8
寸法
 48
50.0
100
AcDbDimension
  2
*D18
 10
8082.540000335097
 20
2888.828295403291
 30
0.0
 11
4582.540000335097
 21
2888.828295403291
 31
0.0
 70
   160
  1
屋根寸法 <>
 71
     5
 42
7000.0
  3
INABA_S30G
100
AcDbAlignedDimension
 13
1082.540000335097
 23
3278.6
 33
0.0
 14
8082.540000335097
 24
3278.6
 34
0.0
100
AcDbRotatedDimension
  0
DIMENSION
  5
12FC2
330
747D
100
AcDbEntity
  8
寸法
 48
50.0
100
AcDbDimension
  2
*D20
 10
4582.540000335097
 20
5731.052294131107
 30
0.0
 11
2957.540000335097
 21
5806.061152398823
 31
0.0
 70
    32
 71
     5
 42
3250.0
  3
INABA_S30G
100
AcDbAlignedDimension
 13
1332.540000335097
 23
4528.599999999999
 33
0.0
 14
4582.540000335097
 24
4817.14501737092
 34
0.0
100
AcDbRotatedDimension
1001
ACAD
1000
DSTYLE
1002
{
1002
}
  0
DIMENSION
  5
13AE0
330
747D
100
AcDbEntity
  8
寸法
 48
50.0
100
AcDbDimension
  2
*D25
 10
8182.540000335096
 20
4826.389361299995
 30
0.0
 11
7832.540000335097
 21
4826.389361299995
 31
0.0
 70
   160
 71
     5
 42
700.0
  3
INABA_S30G
100
AcDbAlignedDimension
 13
7482.540000335096
 23
4628.599999999998
 33
0.0
 14
8182.540000335096
 24
4628.599999999998
 34
0.0
100
AcDbRotatedDimension
  0
LINE
  5
13AE1
330
747D
100
AcDbEntity
  8
文字
 48
50.0
100
AcDbLine
 10
7482.540000335096
 20
4628.599999999998
 30
0.0
 11
8182.540000335096
 21
4628.599999999998
 31
0.0
  0
LINE
  5
13AE2
330
747D
100
AcDbEntity
  8
文字
 48
50.0
100
AcDbLine
 10
8182.540000335096
 20
4628.599999999998
 30
0.0
 11
8182.540000335096
 21
3928.599999999999
 31
0.0
  0
LINE
  5
13AE3
330
747D
100
AcDbEntity
  8
文字
 48
50.0
100
AcDbLine
 10
7482.540000335096
 20
3928.599999999999
 30
0.0
 11
8182.540000335096
 21
3928.599999999999
 31
0.0
  0
LINE
  5
13AE4
330
747D
100
AcDbEntity
  8
文字
 48
50.0
100
AcDbLine
 10
7482.540000335096
 20
4628.599999999998
 30
0.0
 11
7482.540000335096
 21
3928.599999999999
 31
0.0
  0
DIMENSION
  5
13AE5
330
747D
100
AcDbEntity
  8
寸法
 48
50.0
100
AcDbDimension
  2
*D26
 10
7305.225497050916
 20
3928.599999999999
 30
0.0
 11
7230.225497050915
 21
4278.599999999999
 31
0.0
 70
    32
 71
     5
 42
700.0
  3
INABA_S30G
100
AcDbAlignedDimension
 13
7482.540000335096
 23
4628.599999999998
 33
0.0
 14
7482.540000335096
 24
3928.599999999999
 34
0.0
 50
90.0
100
AcDbRotatedDimension
  0
LEADER
  5
13AE6
330
747D
100
AcDbEntity
  8
寸法
 48
50.0
100
AcDbLeader
  3
INABA_S30G
 73
     0
 75
     1
 40
90.0
 41
84.0
 76
     3
 10
7811.648834224603
 20
4233.599999999998
 30
0.0
 10
7705.663942045859
 20
3721.378263064324
 30
0.0
 10
7630.66394204586
 20
3721.378263064324
 30
0.0
340
13AE7
1001
ACAD
1000
DSTYLE
1002
{
1070
   341
1005
0
1070
   343
1005
0
1070
   344
1005
0
1002
}
  0
MTEXT
  5
13AE7
102
{ACAD_REACTORS
330
13AE6
102
}
330
747D
100
AcDbEntity
  8
寸法
 62
     7
 48
50.0
100
AcDbMText
 10
7600.663942045859
 20
3796.378263064324
 30
0.0
 40
90.0
 41
0.0
 71
     6
 72
     1
  1
\A1;柱
  7
STYLE1
 73
     1
 44
1.0
1001
ACAD
1000
MTEXTBEGIN
1070
    73
1070
     1
1070
    44
1040
1.0
1070
    74
1070
     0
1000
MTEXTEND
  0
LINE
  5
13B16
330
747D
100
AcDbEntity
  8
文字
 48
50.0
100
AcDbLine
 10
4932.540000335097
 20
4628.6
 30
0.0
 11
4932.540000335097
 21
3928.6
 31
0.0
  0
LINE
  5
13B17
330
747D
100
AcDbEntity
  8
文字
 48
50.0
100
AcDbLine
 10
4232.540000335097
 20
4628.6
 30
0.0
 11
4932.540000335097
 21
4628.6
 31
0.0
  0
LINE
  5
13B18
330
747D
100
AcDbEntity
  8
文字
 48
50.0
100
AcDbLine
 10
4232.540000335097
 20
4628.6
 30
0.0
 11
4232.540000335097
 21
3928.6
 31
0.0
  0
LINE
  5
13B19
330
747D
100
AcDbEntity
  8
文字
 48
50.0
100
AcDbLine
 10
4232.540000335097
 20
3928.6
 30
0.0
 11
4932.540000335097
 21
3928.6
 31
0.0
  0
LINE
  5
13B1A
330
747D
100
AcDbEntity
  8
文字
 48
50.0
100
AcDbLine
 10
982.5400003350969
 20
4628.6
 30
0.0
 11
1682.540000335097
 21
4628.6
 31
0.0
  0
LINE
  5
13B1B
330
747D
100
AcDbEntity
  8
文字
 48
50.0
100
AcDbLine
 10
1682.540000335097
 20
4628.6
 30
0.0
 11
1682.540000335097
 21
3928.6
 31
0.0
  0
LINE
  5
13B1C
330
747D
100
AcDbEntity
  8
寸法
 48
50.0
100
AcDbLine
 10
1332.540000335097
 20
4737.49896248013
 30
0.0
 11
1586.673831084017
 21
4737.49896248013
 31
0.0
  0
LINE
  5
13B1D
330
747D
100
AcDbEntity
  8
寸法
 48
50.0
100
AcDbLine
 10
1478.940460501038
 20
4766.366032125723
 30
0.0
 11
1478.940460501038
 21
4700.431413204173
 31
0.0
  0
LINE
  5
13B1E
330
747D
100
AcDbEntity
  8
寸法
 48
50.0
100
AcDbLine
 10
1586.673831084017
 20
4737.49896248013
 30
0.0
 11
1478.940460501038
 21
4766.366032125723
 31
0.0
  0
MTEXT
  5
13B1F
330
747D
100
AcDbEntity
  8
寸法
 62
     7
 48
50.0
100
AcDbMText
 10
1632.404520172627
 20
4754.433489678354
 30
0.0
 40
90.0
 41
0.0
 71
     4
 72
     1
  1
B
  7
STYLE1
 73
     1
 44
1.0
1001
ACAD
1000
MTEXTBEGIN
1070
    73
1070
     1
1070
    44
1040
1.0
1070
    74
1070
     0
1000
MTEXTEND
  0
LINE
  5
13B20
330
747D
100
AcDbEntity
  8
文字
 48
50.0
100
AcDbLine
 10
982.5400003350969
 20
3928.6
 30
0.0
 11
1682.540000335097
 21
3928.6
 31
0.0
  0
LINE
  5
13B21
330
747D
100
AcDbEntity
  8
文字
 48
50.0
100
AcDbLine
 10
982.5400003350969
 20
4628.6
 30
0.0
 11
982.5400003350969
 21
3928.6
 31
0.0
  0
LINE
  5
13B22
330
747D
100
AcDbEntity
  8
寸法
 48
50.0
100
AcDbLine
 10
1332.540000335097
 20
3819.70103751987
 30
0.0
 11
1586.673831084017
 21
3819.70103751987
 31
0.0
  0
LINE
  5
13B23
330
747D
100
AcDbEntity
  8
寸法
 48
50.0
100
AcDbLine
 10
1332.540000335097
 20
3819.70103751987
 30
0.0
 11
1332.540000335097
 21
4028.599999999999
 31
0.0
  0
LINE
  5
13B24
330
747D
100
AcDbEntity
  8
寸法
 48
50.0
100
AcDbLine
 10
1478.940460501038
 20
3790.833967874278
 30
0.0
 11
1478.940460501038
 21
3856.76858679583
 31
0.0
  0
LINE
  5
13B25
330
747D
100
AcDbEntity
  8
寸法
 48
50.0
100
AcDbLine
 10
1586.673831084017
 20
3819.70103751987
 30
0.0
 11
1478.940460501038
 21
3790.833967874278
 31
0.0
  0
MTEXT
  5
13B26
330
747D
100
AcDbEntity
  8
寸法
 62
     7
 48
50.0
100
AcDbMText
 10
1631.145891313943
 20
3822.47383451195
 30
0.0
 40
90.0
 41
0.0
 71
     4
 72
     1
  1
B'
  7
STYLE1
 73
     1
 44
1.0
1001
ACAD
1000
MTEXTBEGIN
1070
    73
1070
     1
1070
    44
1040
1.0
1070
    74
1070
     0
1000
MTEXTEND
  0
LINE
  5
13E36
330
747D
100
AcDbEntity
  8
仕様書枠
  6
Continuous
 48
50.0
100
AcDbLine
 10
9830.400000000002
 20
900.0
 30
0.0
 11
9830.400000000002
 21
-0.0000000000000092
 31
0.0
  0
LINE
  5
13E37
330
747D
100
AcDbEntity
  8
仕様書枠
 48
50.0
100
AcDbLine
 10
12230.4
 20
900.0
 30
0.0
 11
12230.4
 21
-0.0000000000000227
 31
0.0
  0
LINE
  5
13E38
330
747D
100
AcDbEntity
  8
仕様書枠
 48
50.0
100
AcDbLine
 10
9830.400000000002
 20
900.0
 30
0.0
 11
12230.4
 21
900.0
 31
0.0
  0
LINE
  5
13E39
330
747D
100
AcDbEntity
  8
文字
 62
     7
 48
50.0
100
AcDbLine
 10
9890.400000000001
 20
300.0
 30
0.0
 11
12170.4
 21
300.0
 31
0.0
  0
TEXT
  5
13E3A
330
747D
100
AcDbEntity
  8
文字
 62
     7
 48
50.0
100
AcDbText
 10
9872.234292432677
 20
671.3179555724553
 30
0.0
 40
150.0
  1
基 礎 図
  7
STYLE2
100
AcDbText
  0
TEXT
  5
13E3B
330
747D
100
AcDbEntity
  8
文字
 62
     7
 48
50.0
100
AcDbText
 10
9901.077524988313
 20
357.9555495773442
 30
0.0
 40
120.0
  1
機種名
  7
STYLE2
100
AcDbText
  0
TEXT
  5
13E3C
330
747D
100
AcDbEntity
  8
文字
 62
     7
 48
50.0
100
AcDbText
 10
9907.054008162901
 20
171.4076431926763
 30
0.0
 40
60.0
  1
○間口寸法は柱芯寸法です。
  7
STYLE2
100
AcDbText
  0
TEXT
  5
13E3D
330
747D
100
AcDbEntity
  8
文字
 62
     7
 48
50.0
100
AcDbText
 10
9907.054008162901
 20
57.07076030737012
 30
0.0
 40
60.0
  1
○寒冷地等は、地域の実情に合わせた基礎にしてください。
  7
STYLE2
100
AcDbText
  0
LINE
  5
13E3F
330
747D
100
AcDbEntity
  8
仕様書枠
 48
50.0
100
AcDbLine
 10
9830.400000000002
 20
600.0
 30
0.0
 11
10688.4
 21
600.0
 31
0.0
  0
LINE
  5
13E40
330
747D
100
AcDbEntity
  8
仕様書枠
  6
Continuous
 48
50.0
100
AcDbLine
 10
10688.4
 20
900.0
 30
0.0
 11
10688.4
 21
600.0
 31
0.0
  0
TEXT
  5
13E41
330
747D
100
AcDbEntity
  8
文字
 62
     7
 48
50.0
100
AcDbText
 10
10951.9835159712
 20
362.922534743356
 30
0.0
 40
120.0
  1
BＹN-３３L-２
  7
STYLE3
100
AcDbText
  0
LINE
  5
13E43
330
747D
100
AcDbEntity
  8
文字
 48
50.0
100
AcDbLine
 10
10968.57056129399
 20
3368.678018364371
 30
0.0
 11
10968.57056129399
 21
3190.178018364372
 31
0.0
  0
LINE
  5
13E44
330
747D
100
AcDbEntity
  8
文字
 48
50.0
100
AcDbLine
 10
9935.186790660475
 20
3368.678018364371
 30
0.0
 11
9935.186790660475
 21
3190.178018364372
 31
0.0
  0
TEXT
  5
13E45
330
747D
100
AcDbEntity
  8
文字
 62
     7
 48
50.0
100
AcDbText
 10
9988.454636590649
 20
3236.16485114307
 30
0.0
 40
90.0
  1
Ｂ-Ｂ' 断面　1/20
  7
STYLE2
100
AcDbText
  0
LINE
  5
13E46
330
747D
100
AcDbEntity
  8
文字
 48
50.0
100
AcDbLine
 10
9935.186790660475
 20
3190.178018364372
 30
0.0
 11
10968.570561294
 21
3190.178018364372
 31
0.0
  0
LINE
  5
13E47
330
747D
100
AcDbEntity
  8
文字
 48
50.0
100
AcDbLine
 10
9935.186790660475
 20
3368.678018364371
 30
0.0
 11
10968.570561294
 21
3368.678018364371
 31
0.0
  0
DIMENSION
  5
13EF0
330
747D
100
AcDbEntity
  8
寸法
 48
50.0
100
AcDbDimension
  2
*D28
 10
10966.0584129703
 20
3761.937668045912
 30
0.0
 11
10441.0584129703
 21
3836.937668045912
 31
0.0
 70
    32
 71
     5
 42
700.000000035
  3
INABA_S30G詳細用20
100
AcDbAlignedDimension
 13
9916.058412970304
 23
4013.987740604325
 33
0.0
 14
10966.0584129703
 24
4013.987740604325
 34
0.0
100
AcDbRotatedDimension
  0
TEXT
  5
14438
330
747D
100
AcDbEntity
  8
文字
 48
50.0
100
AcDbText
 10
10570.68806814263
 20
5337.938961741225
 30
0.0
 40
72.0
  1
水勾配
 41
0.8
  7
STYLE1
100
AcDbText
  0
TEXT
  5
14439
330
747D
100
AcDbEntity
  8
文字
 48
50.0
100
AcDbText
 10
10000.70937262062
 20
5337.938961741225
 30
0.0
 40
72.0
  1
水勾配
 41
0.8
  7
STYLE1
100
AcDbText
  0
LINE
  5
1443A
330
747D
100
AcDbEntity
  8
部品1
 48
50.0
100
AcDbLine
 10
11320.24663175222
 20
5079.234593786839
 30
0.0
 11
11320.24663175222
 21
4964.434593786842
 31
0.0
  0
LINE
  5
1443B
330
747D
100
AcDbEntity
  8
細線
 48
50.0
100
AcDbLine
 10
11331.11866248784
 20
4964.434593786842
 30
0.0
 11
11340.27528756825
 21
4943.434593786842
 31
0.0
  0
LINE
  5
1443C
330
747D
100
AcDbEntity
  8
文字
 48
50.0
100
AcDbLine
 10
11098.1393410536
 20
5179.775674461428
 30
0.0
 11
11029.48812318847
 21
5161.380636075053
 31
0.0
  0
LINE
  5
1443D
330
747D
100
AcDbEntity
  8
文字
 48
50.0
100
AcDbLine
 10
11098.1393410536
 20
5179.775674461428
 30
0.0
 11
11029.48812318847
 21
5198.170712847804
 31
0.0
  0
LINE
  5
1443E
330
747D
100
AcDbEntity
  8
細線
 48
50.0
100
AcDbLine
 10
11225.52053321619
 20
4964.434593786844
 30
0.0
 11
11320.24663175222
 21
5059.160692322876
 31
0.0
  0
LINE
  5
1443F
330
747D
100
AcDbEntity
  8
細線
 48
50.0
100
AcDbLine
 10
11207.70144233029
 20
4964.434593786842
 30
0.0
 11
11320.24663175222
 21
5076.979783208779
 31
0.0
  0
LINE
  5
14440
330
747D
100
AcDbEntity
  8
細線
 48
50.0
100
AcDbLine
 10
11247.11866248784
 20
4964.434593786842
 30
0.0
 11
11256.27528756826
 21
4943.434593786844
 31
0.0
  0
LINE
  5
14441
330
747D
100
AcDbEntity
  8
細線
 48
50.0
100
AcDbLine
 10
11178.26120085994
 20
4959.880755390567
 30
0.0
 11
11179.91866248785
 21
4964.434593786842
 31
0.0
  0
LINE
  5
14442
330
747D
100
AcDbEntity
  8
細線
 48
50.0
100
AcDbLine
 10
11079.11866248784
 20
4964.434593786842
 30
0.0
 11
11088.27528756826
 21
4943.434593786842
 31
0.0
  0
LINE
  5
14443
330
747D
100
AcDbEntity
  8
部品1
 48
50.0
100
AcDbLine
 10
11178.26120085994
 20
5107.434593786842
 30
0.0
 11
11295.04663175223
 21
5104.434593786842
 31
0.0
  0
LINE
  5
14444
330
747D
100
AcDbEntity
  8
部品1
 48
50.0
100
AcDbLine
 10
11178.26120085994
 20
4964.434593786842
 30
0.0
 11
11360.75497139477
 21
4964.434593786842
 31
0.0
  0
LINE
  5
14445
330
747D
100
AcDbEntity
  8
部品1
 48
50.0
100
AcDbLine
 10
11320.24663175222
 20
5079.234593786841
 30
0.0
 11
11295.04663175223
 21
5104.434593786842
 31
0.0
  0
LINE
  5
14446
330
747D
100
AcDbEntity
  8
細線
 48
50.0
100
AcDbLine
 10
11243.33962410209
 20
4964.434593786842
 30
0.0
 11
11320.24663175222
 21
5041.341601436982
 31
0.0
  0
LINE
  5
14447
330
747D
100
AcDbEntity
  8
細線
 48
50.0
100
AcDbLine
 10
11125.32312734792
 20
4814.434593786844
 30
0.0
 11
11154.26120085994
 21
4893.941297323652
 31
0.0
  0
LINE
  5
14448
330
747D
100
AcDbEntity
  8
部品1
 48
50.0
100
AcDbLine
 10
11178.26120085994
 20
4814.434593786844
 30
0.0
 11
11360.75497139477
 21
4814.434593786844
 31
0.0
  0
LINE
  5
14449
330
747D
100
AcDbEntity
  8
部品1
 48
50.0
100
AcDbLine
 10
11154.26120085994
 20
5135.649081882252
 30
0.0
 11
11154.26120085994
 21
4773.553439590617
 31
0.0
  0
LINE
  5
1444A
330
747D
100
AcDbEntity
  8
部品1
 48
50.0
100
AcDbLine
 10
11178.26120085994
 20
5135.649081882252
 30
0.0
 11
11178.26120085994
 21
4773.553439590617
 31
0.0
  0
LINE
  5
1444B
330
747D
100
AcDbEntity
  8
細線
 48
50.0
100
AcDbLine
 10
11293.32312734792
 20
4814.434593786844
 30
0.0
 11
11347.91866248785
 21
4964.434593786842
 31
0.0
  0
LINE
  5
1444C
330
747D
100
AcDbEntity
  8
細線
 48
50.0
100
AcDbLine
 10
11209.32312734792
 20
4814.434593786844
 30
0.0
 11
11263.91866248785
 21
4964.434593786842
 31
0.0
  0
LINE
  5
1444D
330
747D
100
AcDbEntity
  8
部品1
 48
50.0
100
AcDbLine
 10
11086.0584129703
 20
4013.987740604325
 30
0.0
 11
11086.0584129703
 21
4214.987740604325
 31
0.0
  0
DIMENSION
  5
1444E
330
747D
100
AcDbEntity
  8
寸法
 48
50.0
100
AcDbDimension
  2
*D41
 10
11625.76701330147
 20
4139.987740604325
 30
0.0
 11
11625.76701330146
 21
3960.285083124012
 31
0.0
 70
   160
 71
     5
 42
50.0000000025
  3
INABA_S30G詳細用20
100
AcDbAlignedDimension
 13
11086.0584129703
 23
4214.987740604325
 33
0.0
 14
11086.0584129703
 24
4139.987740604325
 34
0.0
 50
90.0
100
AcDbRotatedDimension
  0
DIMENSION
  5
1444F
330
747D
100
AcDbEntity
  8
寸法
 48
50.0
100
AcDbDimension
  2
*D42
 10
11625.76701330146
 20
4214.987740604325
 30
0.0
 11
11550.76701330146
 21
4627.211167195586
 31
0.0
 70
    32
 71
     5
 42
549.6312354824939
  3
INABA_S30G詳細用20
100
AcDbAlignedDimension
 13
11320.24663175222
 23
5039.434593786843
 33
0.0
 14
11086.0584129703
 24
4214.987740604325
 34
0.0
 50
90.0
100
AcDbRotatedDimension
  0
LINE
  5
14450
330
747D
100
AcDbEntity
  8
細線
 48
50.0
100
AcDbLine
 10
10995.11866248784
 20
4964.434593786842
 30
0.0
 11
11004.27528756826
 21
4943.434593786842
 31
0.0
  0
LINE
  5
14451
330
747D
100
AcDbEntity
  8
細線
 48
50.0
100
AcDbLine
 10
10722.2517456234
 20
4964.434593786842
 30
0.0
 11
10872.2517456234
 21
5114.434593786842
 31
0.0
  0
LINE
  5
14452
330
747D
100
AcDbEntity
  8
部品1
 48
50.0
100
AcDbLine
 10
10529.55841297031
 20
5135.434593786842
 30
0.0
 11
10550.5584129703
 21
5114.434593786842
 31
0.0
  0
LINE
  5
14453
330
747D
100
AcDbEntity
  8
部品1
 48
50.0
100
AcDbLine
 10
10508.5584129703
 20
5135.434593786842
 30
0.0
 11
10529.5584129703
 21
5135.434593786842
 31
0.0
  0
LINE
  5
14454
330
747D
100
AcDbEntity
  8
細線
 48
50.0
100
AcDbLine
 10
10508.5584129703
 20
4988.329139612428
 30
0.0
 11
10634.66386714471
 21
5114.434593786842
 31
0.0
  0
LINE
  5
14455
330
747D
100
AcDbEntity
  8
細線
 48
50.0
100
AcDbLine
 10
10508.5584129703
 20
5006.14823049833
 30
0.0
 11
10616.84477625881
 21
5114.434593786842
 31
0.0
  0
LINE
  5
14456
330
747D
100
AcDbEntity
  8
細線
 48
50.0
100
AcDbLine
 10
10508.5584129703
 20
5023.967321384228
 30
0.0
 11
10599.02568537291
 21
5114.434593786842
 31
0.0
  0
LINE
  5
14457
330
747D
100
AcDbEntity
  8
細線
 48
50.0
100
AcDbLine
 10
10704.4326547375
 20
4964.434593786844
 30
0.0
 11
10854.4326547375
 21
5114.434593786842
 31
0.0
  0
LINE
  5
14458
330
747D
100
AcDbEntity
  8
細線
 48
50.0
100
AcDbLine
 10
10686.6135638516
 20
4964.434593786842
 30
0.0
 11
10836.6135638516
 21
5114.434593786842
 31
0.0
  0
LINE
  5
14459
330
747D
100
AcDbEntity
  8
細線
 48
50.0
100
AcDbLine
 10
10966.05841297031
 20
4580.615502900925
 30
0.0
 11
10582.2393220844
 21
4964.434593786842
 31
0.0
  0
LINE
  5
1445A
330
747D
100
AcDbEntity
  8
細線
 48
50.0
100
AcDbLine
 10
10966.0584129703
 20
4598.434593786848
 30
0.0
 11
10600.0584129703
 21
4964.434593786842
 31
0.0
  0
LINE
  5
1445B
330
747D
100
AcDbEntity
  8
細線
 48
50.0
100
AcDbLine
 10
10966.05841297031
 20
4616.253684672746
 30
0.0
 11
10617.87750385621
 21
4964.434593786843
 31
0.0
  0
LINE
  5
1445C
330
747D
100
AcDbEntity
  8
細線
 48
50.0
100
AcDbLine
 10
10966.05841297031
 20
4838.434593786857
 30
0.0
 11
11011.91866248784
 21
4964.434593786842
 31
0.0
  0
LINE
  5
1445D
330
747D
100
AcDbEntity
  8
部品1
 48
50.0
100
AcDbLine
 10
10352.5584129703
 20
5135.434593786842
 30
0.0
 11
10331.5584129703
 21
5114.434593786842
 31
0.0
  0
LINE
  5
1445E
330
747D
100
AcDbEntity
  8
部品1
 48
50.0
100
AcDbLine
 10
10352.5584129703
 20
5135.434593786842
 30
0.0
 11
10373.5584129703
 21
5135.434593786842
 31
0.0
  0
LINE
  5
1445F
330
747D
100
AcDbEntity
  8
細線
 48
50.0
100
AcDbLine
 10
10373.5584129703
 20
4953.346715308164
 30
0.0
 11
10362.47053449162
 21
4964.434593786842
 31
0.0
  0
LINE
  5
14460
330
747D
100
AcDbEntity
  8
細線
 48
50.0
100
AcDbLine
 10
10206.75689778014
 20
4964.434593786842
 30
0.0
 11
10373.5584129703
 21
5131.236108977009
 31
0.0
  0
LINE
  5
14461
330
747D
100
AcDbEntity
  8
細線
 48
50.0
100
AcDbLine
 10
10224.57598866604
 20
4964.434593786842
 30
0.0
 11
10373.5584129703
 21
5113.417018091103
 31
0.0
  0
LINE
  5
14462
330
747D
100
AcDbEntity
  8
細線
 48
50.0
100
AcDbLine
 10
9986.988110187361
 20
4964.434593786843
 30
0.0
 11
10136.98811018736
 21
5114.434593786842
 31
0.0
  0
LINE
  5
14463
330
747D
100
AcDbEntity
  8
細線
 48
50.0
100
AcDbLine
 10
9969.169019301459
 20
4964.434593786843
 30
0.0
 11
10119.16901930145
 21
5114.434593786842
 31
0.0
  0
LINE
  5
14464
330
747D
100
AcDbEntity
  8
細線
 48
50.0
100
AcDbLine
 10
10188.93780689424
 20
4964.434593786843
 30
0.0
 11
10359.93780689424
 21
5135.434593786842
 31
0.0
  0
LINE
  5
14465
330
747D
100
AcDbEntity
  8
細線
 48
50.0
100
AcDbLine
 10
9887.120339458274
 20
4814.434593786844
 30
0.0
 11
9916.058412970301
 21
4893.941297323652
 31
0.0
  0
LINE
  5
14466
330
747D
100
AcDbEntity
  8
細線
 48
50.0
100
AcDbLine
 10
9894.663765596408
 20
4835.15998676669
 30
0.0
 11
9903.700653842143
 21
4814.434593786844
 31
0.0
  0
LINE
  5
14467
330
747D
100
AcDbEntity
  8
細線
 48
50.0
100
AcDbLine
 10
10373.5584129703
 20
4935.527624422262
 30
0.0
 11
10344.65144360572
 21
4964.434593786842
 31
0.0
  0
LINE
  5
14468
330
747D
100
AcDbEntity
  8
細線
 48
50.0
100
AcDbLine
 10
10373.5584129703
 20
4733.57792771538
 30
0.0
 11
10142.70174689884
 21
4964.434593786842
 31
0.0
  0
LINE
  5
14469
330
747D
100
AcDbEntity
  8
細線
 48
50.0
100
AcDbLine
 10
10373.5584129703
 20
4715.758836829484
 30
0.0
 11
10124.88265601294
 21
4964.434593786843
 31
0.0
  0
LINE
  5
1446A
330
747D
100
AcDbEntity
  8
細線
 48
50.0
100
AcDbLine
 10
10373.5584129703
 20
4697.939745943582
 30
0.0
 11
10107.06356512704
 21
4964.434593786842
 31
0.0
  0
CIRCLE
  5
1446B
330
747D
100
AcDbEntity
  8
部品1
 48
5.0
100
AcDbCircle
 10
10765.05841297031
 20
4427.683169091603
 30
0.0
 40
8.4
  0
LINE
  5
1446C
330
747D
100
AcDbEntity
  8
部品1
 48
50.0
100
AcDbLine
 10
10788.6834129703
 20
4402.483169091602
 30
0.0
 11
10788.6834129703
 21
4419.283169091604
 31
0.0
  0
LINE
  5
1446D
330
747D
100
AcDbEntity
  8
細線
 48
50.0
100
AcDbLine
 10
10732.61866248784
 20
4139.987740604325
 30
0.0
 11
10741.77528756825
 21
4118.987740604325
 31
0.0
  0
LINE
  5
1446E
330
747D
100
AcDbEntity
  8
細線
 48
50.0
100
AcDbLine
 10
10816.61866248784
 20
4139.987740604325
 30
0.0
 11
10825.77528756825
 21
4118.987740604325
 31
0.0
  0
LINE
  5
1446F
330
747D
100
AcDbEntity
  8
細線
 48
50.0
100
AcDbLine
 10
10863.62871575324
 20
4214.987740604325
 30
0.0
 11
10788.62871575324
 21
4139.987740604325
 31
0.0
  0
LINE
  5
14470
330
747D
100
AcDbEntity
  8
細線
 48
50.0
100
AcDbLine
 10
10881.44780663914
 20
4214.987740604325
 30
0.0
 11
10806.44780663914
 21
4139.987740604325
 31
0.0
  0
LINE
  5
14471
330
747D
100
AcDbEntity
  8
細線
 48
50.0
100
AcDbLine
 10
10899.26689752504
 20
4214.987740604325
 30
0.0
 11
10824.26689752504
 21
4139.987740604325
 31
0.0
  0
CIRCLE
  5
14472
330
747D
100
AcDbEntity
  8
部品1
 48
5.0
100
AcDbCircle
 10
10549.05841297031
 20
4427.683169091603
 30
0.0
 40
8.4
  0
LINE
  5
14473
330
747D
100
AcDbEntity
  8
細線
 48
50.0
100
AcDbLine
 10
10648.61866248784
 20
4139.987740604325
 30
0.0
 11
10657.77528756825
 21
4118.987740604325
 31
0.0
  0
LINE
  5
14474
330
747D
100
AcDbEntity
  8
細線
 48
50.0
100
AcDbLine
 10
10480.61866248784
 20
4139.987740604325
 30
0.0
 11
10489.77528756825
 21
4118.987740604325
 31
0.0
  0
LINE
  5
14475
330
747D
100
AcDbEntity
  8
細線
 48
50.0
100
AcDbLine
 10
10564.61866248784
 20
4139.987740604325
 30
0.0
 11
10573.77528756825
 21
4118.987740604325
 31
0.0
  0
LINE
  5
14476
330
747D
100
AcDbEntity
  8
細線
 48
50.0
100
AcDbLine
 10
10626.04083727456
 20
4214.987740604325
 30
0.0
 11
10551.04083727456
 21
4139.987740604325
 31
0.0
  0
LINE
  5
14477
330
747D
100
AcDbEntity
  8
細線
 48
50.0
100
AcDbLine
 10
10643.85992816046
 20
4214.987740604325
 30
0.0
 11
10568.85992816046
 21
4139.987740604325
 31
0.0
  0
LINE
  5
14478
330
747D
100
AcDbEntity
  8
細線
 48
50.0
100
AcDbLine
 10
10661.67901904637
 20
4214.987740604325
 30
0.0
 11
10586.67901904636
 21
4139.987740604325
 31
0.0
  0
LINE
  5
14479
330
747D
100
AcDbEntity
  8
細線
 48
50.0
100
AcDbLine
 10
10795.20178788989
 20
4034.987740604325
 30
0.0
 11
10804.3584129703
 21
4013.987740604325
 31
0.0
  0
LINE
  5
1447A
330
747D
100
AcDbEntity
  8
細線
 48
50.0
100
AcDbLine
 10
10627.20178788989
 20
4034.987740604325
 30
0.0
 11
10636.3584129703
 21
4013.987740604325
 31
0.0
  0
LINE
  5
1447B
330
747D
100
AcDbEntity
  8
細線
 48
50.0
100
AcDbLine
 10
10543.20178788989
 20
4034.987740604325
 30
0.0
 11
10552.3584129703
 21
4013.987740604325
 31
0.0
  0
LINE
  5
1447C
330
747D
100
AcDbEntity
  8
細線
 48
50.0
100
AcDbLine
 10
10711.20178788989
 20
4034.987740604325
 30
0.0
 11
10720.3584129703
 21
4013.987740604325
 31
0.0
  0
LINE
  5
1447D
330
747D
100
AcDbEntity
  8
細線
 48
50.0
100
AcDbLine
 10
10535.5584129703
 20
4013.987740604325
 30
0.0
 11
10581.41866248784
 21
4139.987740604325
 31
0.0
  0
LINE
  5
1447E
330
747D
100
AcDbEntity
  8
細線
 48
50.0
100
AcDbLine
 10
10619.5584129703
 20
4013.987740604325
 30
0.0
 11
10665.41866248784
 21
4139.987740604325
 31
0.0
  0
LINE
  5
1447F
330
747D
100
AcDbEntity
  8
細線
 48
50.0
100
AcDbLine
 10
10703.5584129703
 20
4013.987740604325
 30
0.0
 11
10749.41866248784
 21
4139.987740604325
 31
0.0
  0
LINE
  5
14480
330
747D
100
AcDbEntity
  8
細線
 48
50.0
100
AcDbLine
 10
10787.5584129703
 20
4013.987740604325
 30
0.0
 11
10833.41866248784
 21
4139.987740604325
 31
0.0
  0
CIRCLE
  5
14481
330
747D
100
AcDbEntity
  8
部品1
 48
50.0
100
AcDbCircle
 10
10441.0584129703
 20
4327.487740604325
 30
0.0
 40
8.4
  0
CIRCLE
  5
14482
330
747D
100
AcDbEntity
  8
部品1
 48
5.0
100
AcDbCircle
 10
10333.05841297031
 20
4427.683169091603
 30
0.0
 40
8.4
  0
LINE
  5
14483
330
747D
100
AcDbEntity
  8
細線
 48
50.0
100
AcDbLine
 10
10396.61866248784
 20
4139.987740604325
 30
0.0
 11
10405.77528756825
 21
4118.987740604325
 31
0.0
  0
LINE
  5
14484
330
747D
100
AcDbEntity
  8
細線
 48
50.0
100
AcDbLine
 10
10228.61866248784
 20
4139.987740604325
 30
0.0
 11
10237.77528756825
 21
4118.987740604325
 31
0.0
  0
LINE
  5
14485
330
747D
100
AcDbEntity
  8
細線
 48
50.0
100
AcDbLine
 10
10312.61866248784
 20
4139.987740604325
 30
0.0
 11
10321.77528756825
 21
4118.987740604325
 31
0.0
  0
LINE
  5
14486
330
747D
100
AcDbEntity
  8
細線
 48
50.0
100
AcDbLine
 10
10406.27204968179
 20
4214.987740604325
 30
0.0
 11
10331.27204968179
 21
4139.987740604325
 31
0.0
  0
LINE
  5
14487
330
747D
100
AcDbEntity
  8
細線
 48
50.0
100
AcDbLine
 10
10388.45295879589
 20
4214.987740604325
 30
0.0
 11
10313.45295879588
 21
4139.987740604325
 31
0.0
  0
LINE
  5
14488
330
747D
100
AcDbEntity
  8
細線
 48
50.0
100
AcDbLine
 10
10424.09114056769
 20
4214.987740604325
 30
0.0
 11
10349.09114056769
 21
4139.987740604325
 31
0.0
  0
CIRCLE
  5
14489
330
747D
100
AcDbEntity
  8
部品1
 48
5.0
100
AcDbCircle
 10
10117.05841297031
 20
4427.683169091603
 30
0.0
 40
8.4
  0
LINE
  5
1448A
330
747D
100
AcDbEntity
  8
部品1
 48
50.0
100
AcDbLine
 10
10093.4334129703
 20
4402.483169091603
 30
0.0
 11
10093.4334129703
 21
4419.283169091603
 31
0.0
  0
LINE
  5
1448B
330
747D
100
AcDbEntity
  8
細線
 48
50.0
100
AcDbLine
 10
10144.61866248784
 20
4139.987740604325
 30
0.0
 11
10153.77528756825
 21
4118.987740604325
 31
0.0
  0
LINE
  5
1448C
330
747D
100
AcDbEntity
  8
細線
 48
50.0
100
AcDbLine
 10
10186.50326208901
 20
4214.987740604325
 30
0.0
 11
10111.50326208901
 21
4139.987740604325
 31
0.0
  0
LINE
  5
1448D
330
747D
100
AcDbEntity
  8
細線
 48
50.0
100
AcDbLine
 10
10060.61866248784
 20
4139.987740604325
 30
0.0
 11
10069.77528756825
 21
4118.987740604325
 31
0.0
  0
LINE
  5
1448E
330
747D
100
AcDbEntity
  8
細線
 48
50.0
100
AcDbLine
 10
10150.86508031721
 20
4214.987740604325
 30
0.0
 11
10075.86508031721
 21
4139.987740604325
 31
0.0
  0
LINE
  5
1448F
330
747D
100
AcDbEntity
  8
細線
 48
50.0
100
AcDbLine
 10
10168.68417120311
 20
4214.987740604325
 30
0.0
 11
10093.68417120311
 21
4139.987740604325
 31
0.0
  0
LINE
  5
14490
330
747D
100
AcDbEntity
  8
細線
 48
50.0
100
AcDbLine
 10
10375.20178788989
 20
4034.987740604325
 30
0.0
 11
10384.3584129703
 21
4013.987740604325
 31
0.0
  0
LINE
  5
14491
330
747D
100
AcDbEntity
  8
細線
 48
50.0
100
AcDbLine
 10
10459.20178788989
 20
4034.987740604325
 30
0.0
 11
10468.3584129703
 21
4013.987740604325
 31
0.0
  0
LINE
  5
14492
330
747D
100
AcDbEntity
  8
細線
 48
50.0
100
AcDbLine
 10
10291.20178788989
 20
4034.987740604325
 30
0.0
 11
10300.3584129703
 21
4013.987740604325
 31
0.0
  0
LINE
  5
14493
330
747D
100
AcDbEntity
  8
細線
 48
50.0
100
AcDbLine
 10
10123.20178788989
 20
4034.987740604325
 30
0.0
 11
10132.3584129703
 21
4013.987740604325
 31
0.0
  0
LINE
  5
14494
330
747D
100
AcDbEntity
  8
細線
 48
50.0
100
AcDbLine
 10
10207.20178788989
 20
4034.987740604325
 30
0.0
 11
10216.3584129703
 21
4013.987740604325
 31
0.0
  0
LINE
  5
14495
330
747D
100
AcDbEntity
  8
細線
 48
50.0
100
AcDbLine
 10
10039.20178788989
 20
4034.987740604325
 30
0.0
 11
10048.3584129703
 21
4013.987740604325
 31
0.0
  0
LINE
  5
14496
330
747D
100
AcDbEntity
  8
細線
 48
50.0
100
AcDbLine
 10
10283.5584129703
 20
4013.987740604325
 30
0.0
 11
10329.41866248784
 21
4139.987740604325
 31
0.0
  0
LINE
  5
14497
330
747D
100
AcDbEntity
  8
細線
 48
50.0
100
AcDbLine
 10
10115.5584129703
 20
4013.987740604325
 30
0.0
 11
10161.41866248784
 21
4139.987740604325
 31
0.0
  0
LINE
  5
14498
330
747D
100
AcDbEntity
  8
細線
 48
50.0
100
AcDbLine
 10
10199.5584129703
 20
4013.987740604325
 30
0.0
 11
10245.41866248784
 21
4139.987740604325
 31
0.0
  0
LINE
  5
14499
330
747D
100
AcDbEntity
  8
細線
 48
50.0
100
AcDbLine
 10
10367.5584129703
 20
4013.987740604325
 30
0.0
 11
10413.41866248784
 21
4139.987740604325
 31
0.0
  0
LINE
  5
1449A
330
747D
100
AcDbEntity
  8
細線
 48
50.0
100
AcDbLine
 10
10031.5584129703
 20
4013.987740604325
 30
0.0
 11
10077.41866248784
 21
4139.987740604325
 31
0.0
  0
LINE
  5
1449B
330
747D
100
AcDbEntity
  8
細線
 48
50.0
100
AcDbLine
 10
10451.5584129703
 20
4013.987740604325
 30
0.0
 11
10497.41866248784
 21
4139.987740604325
 31
0.0
  0
LINE
  5
1449C
330
747D
100
AcDbEntity
  8
部品1
 48
50.0
100
AcDbLine
 10
10381.0584129703
 20
4214.987740604325
 30
0.0
 11
10501.0584129703
 21
4214.987740604325
 31
0.0
  0
LINE
  5
1449D
330
747D
100
AcDbEntity
  8
部品1
 48
50.0
100
AcDbLine
 10
10093.4334129703
 20
4419.283169091603
 30
0.0
 11
10788.6834129703
 21
4419.283169091604
 31
0.0
  0
LINE
  5
1449E
330
747D
100
AcDbEntity
  8
部品1
 48
50.0
100
AcDbLine
 10
10093.4334129703
 20
4402.483169091602
 30
0.0
 11
10788.6834129703
 21
4402.483169091603
 31
0.0
  0
LINE
  5
1449F
330
747D
100
AcDbEntity
  8
部品1
 48
50.0
100
AcDbLine
 10
10966.0584129703
 20
4214.987740604325
 30
0.0
 11
10966.05841297031
 21
4964.434593786842
 31
0.0
  0
LINE
  5
144A0
330
747D
100
AcDbEntity
  8
部品1
 48
50.0
100
AcDbLine
 10
9916.058412970304
 20
4964.434593786843
 30
0.0
 11
9916.058412970304
 21
4214.987740604325
 31
0.0
  0
LINE
  5
144A1
330
747D
100
AcDbEntity
  8
細線
 48
50.0
100
AcDbLine
 10
10966.0584129703
 20
4343.027624422267
 30
0.0
 11
10508.5584129703
 21
4800.527624422261
 31
0.0
  0
LINE
  5
144A2
330
747D
100
AcDbEntity
  8
細線
 48
50.0
100
AcDbLine
 10
10966.0584129703
 20
4360.846715308158
 30
0.0
 11
10508.5584129703
 21
4818.346715308162
 31
0.0
  0
LINE
  5
144A3
330
747D
100
AcDbEntity
  8
細線
 48
50.0
100
AcDbLine
 10
10966.0584129703
 20
4378.665806194046
 30
0.0
 11
10508.5584129703
 21
4836.165806194069
 31
0.0
  0
LINE
  5
144A4
330
747D
100
AcDbEntity
  8
細線
 48
50.0
100
AcDbLine
 10
10654.56072160266
 20
4214.987740604325
 30
0.0
 11
10503.99005375961
 21
4365.55840844737
 31
0.0
  0
LINE
  5
144A5
330
747D
100
AcDbEntity
  8
細線
 48
50.0
100
AcDbLine
 10
10636.74163071677
 20
4214.987740604325
 30
0.0
 11
10501.0584129703
 21
4350.670958350795
 31
0.0
  0
LINE
  5
144A6
330
747D
100
AcDbEntity
  8
細線
 48
50.0
100
AcDbLine
 10
10618.92253983087
 20
4214.987740604325
 30
0.0
 11
10501.0584129703
 21
4332.851867464893
 31
0.0
  0
LINE
  5
144A7
330
747D
100
AcDbEntity
  8
細線
 48
50.0
100
AcDbLine
 10
10381.33466135219
 20
4214.987740604325
 30
0.0
 11
10381.0584129703
 21
4215.263988986215
 31
0.0
  0
LINE
  5
144A8
330
747D
100
AcDbEntity
  8
細線
 48
50.0
100
AcDbLine
 10
11041.32312734791
 20
4814.434593786844
 30
0.0
 11
11095.91866248784
 21
4964.434593786842
 31
0.0
  0
LINE
  5
144A9
330
747D
100
AcDbEntity
  8
部品1
 48
50.0
100
AcDbLine
 10
10966.05841297031
 20
4814.434593786844
 30
0.0
 11
11154.26120085994
 21
4814.434593786844
 31
0.0
  0
LINE
  5
144AA
330
747D
100
AcDbEntity
  8
部品1
 48
50.0
100
AcDbLine
 10
10508.5584129703
 20
4964.434593786842
 30
0.0
 11
11154.26120085994
 21
4964.434593786842
 31
0.0
  0
LINE
  5
144AB
330
747D
100
AcDbEntity
  8
部品1
 48
50.0
100
AcDbLine
 10
10550.5584129703
 20
5114.434593786842
 30
0.0
 11
11154.26120085994
 21
5114.434593786842
 31
0.0
  0
LEADER
  5
144AC
330
747D
100
AcDbEntity
  8
寸法
 48
50.0
100
AcDbLeader
  3
INABA_S30G詳細用20
 73
     0
 74
     0
 75
     1
 76
     3
 10
10441.0584129703
 20
4327.487740604325
 30
0.0
 10
10924.17596965226
 20
4619.751025001413
 30
0.0
 10
10999.17596965226
 20
4619.751025001413
 30
0.0
1001
ACAD
1000
DSTYLE
1002
{
1070
   341
1005
13B4C
1002
}
  0
MTEXT
  5
144AD
102
{ACAD_REACTORS
330
144AC
102
}
330
747D
100
AcDbEntity
  8
寸法
 62
     7
 48
50.0
100
AcDbMText
 10
11024.19734724233
 20
4679.032819605559
 30
0.0
 40
90.0
 41
0.0
 71
     4
 72
     1
  1
\A1;ｶﾝｻﾞｼ
  7
STYLE1
 73
     1
 44
1.0
1001
ACAD
1000
MTEXTBEGIN
1070
    73
1070
     1
1070
    44
1040
1.0
1070
    74
1070
     0
1000
MTEXTEND
  0
LINE
  5
144AE
330
747D
100
AcDbEntity
  8
文字
 48
50.0
100
AcDbLine
 10
11098.1393410536
 20
5179.775674461428
 30
0.0
 11
10519.64224314964
 21
5179.775674461428
 31
0.0
  0
LINE
  5
144AF
330
747D
100
AcDbEntity
  8
細線
 48
50.0
100
AcDbLine
 10
11027.70144233029
 20
4964.434593786842
 30
0.0
 11
11154.26120085994
 21
5090.994352316498
 31
0.0
  0
LINE
  5
144B0
330
747D
100
AcDbEntity
  8
細線
 48
50.0
100
AcDbLine
 10
11045.52053321619
 20
4964.434593786844
 30
0.0
 11
11154.26120085994
 21
5073.175261430595
 31
0.0
  0
LINE
  5
144B1
330
747D
100
AcDbEntity
  8
細線
 48
50.0
100
AcDbLine
 10
11063.33962410209
 20
4964.434593786842
 30
0.0
 11
11154.26120085994
 21
5055.356170544699
 31
0.0
  0
LINE
  5
144B2
330
747D
100
AcDbEntity
  8
センター
 48
10.0
100
AcDbLine
 10
10441.0584129703
 20
5380.809912149552
 30
0.0
 11
10441.0584129703
 21
4176.904328150966
 31
0.0
  0
DIMENSION
  5
144B3
330
747D
100
AcDbEntity
  8
寸法
 48
50.0
100
AcDbDimension
  2
*D43
 10
11625.76701330147
 20
5039.434593786843
 30
0.0
 11
11625.76701330146
 21
5323.298554817522
 31
0.0
 70
   160
 71
     5
 42
50.00000000249879
  3
INABA_S30G詳細用20
100
AcDbAlignedDimension
 13
11178.26120085994
 23
5114.434593786842
 33
0.0
 14
11320.24663175222
 24
5039.434593786843
 34
0.0
 50
90.0
100
AcDbRotatedDimension
  0
TEXT
  5
144B4
330
747D
100
AcDbEntity
  8
文字
 48
50.0
100
AcDbText
 10
10000.70937262062
 20
5235.348459741255
 30
0.0
 40
72.0
  1
１／１００
 41
0.8
  7
STYLE1
100
AcDbText
  0
TEXT
  5
144B5
330
747D
100
AcDbEntity
  8
文字
 48
50.0
100
AcDbText
 10
10570.68806814263
 20
5235.348459741255
 30
0.0
 40
72.0
  1
１／１００
 41
0.8
  7
STYLE1
100
AcDbText
  0
LINE
  5
144B6
330
747D
100
AcDbEntity
  8
部品1
 48
10.0
100
AcDbLine
 10
10508.5584129703
 20
5323.485545549321
 30
0.0
 11
10508.5584129703
 21
4214.987740604325
 31
0.0
  0
LINE
  5
144B7
330
747D
100
AcDbEntity
  8
部品1
 48
10.0
100
AcDbLine
 10
10373.5584129703
 20
5323.485545549321
 30
0.0
 11
10373.5584129703
 21
4214.987740604325
 31
0.0
  0
LINE
  5
144B8
330
747D
100
AcDbEntity
  8
文字
 48
50.0
100
AcDbLine
 10
9783.977484886996
 20
5179.775674461428
 30
0.0
 11
9852.628702752133
 21
5161.380636075053
 31
0.0
  0
LINE
  5
144B9
330
747D
100
AcDbEntity
  8
文字
 48
50.0
100
AcDbLine
 10
9783.977484886996
 20
5179.775674461428
 30
0.0
 11
9852.628702752133
 21
5198.170712847804
 31
0.0
  0
LINE
  5
144BA
330
747D
100
AcDbEntity
  8
細線
 48
50.0
100
AcDbLine
 10
9756.915874598201
 20
4964.434593786842
 30
0.0
 11
9766.07249967861
 21
4943.434593786844
 31
0.0
  0
LINE
  5
144BB
330
747D
100
AcDbEntity
  8
細線
 48
50.0
100
AcDbLine
 10
9840.915874598202
 20
4964.434593786842
 30
0.0
 11
9850.07249967861
 21
4943.434593786844
 31
0.0
  0
LINE
  5
144BC
330
747D
100
AcDbEntity
  8
細線
 48
50.0
100
AcDbLine
 10
9672.915874598201
 20
4964.434593786842
 30
0.0
 11
9682.072499678611
 21
4943.434593786842
 31
0.0
  0
LINE
  5
144BD
330
747D
100
AcDbEntity
  8
細線
 48
50.0
100
AcDbLine
 10
9642.91612259934
 20
4974.588666449312
 30
0.0
 11
9782.762049936874
 21
5114.434593786842
 31
0.0
  0
LINE
  5
144BE
330
747D
100
AcDbEntity
  8
細線
 48
50.0
100
AcDbLine
 10
9650.581140822771
 20
4964.434593786844
 30
0.0
 11
9800.581140822767
 21
5114.434593786842
 31
0.0
  0
LINE
  5
144BF
330
747D
100
AcDbEntity
  8
細線
 48
50.0
100
AcDbLine
 10
9668.400231708673
 20
4964.434593786844
 30
0.0
 11
9818.400231708672
 21
5114.434593786842
 31
0.0
  0
LINE
  5
144C0
330
747D
100
AcDbEntity
  8
細線
 48
50.0
100
AcDbLine
 10
9810.663765596409
 20
4835.15998676669
 30
0.0
 11
9819.700653842151
 21
4814.434593786844
 31
0.0
  0
LINE
  5
144C1
330
747D
100
AcDbEntity
  8
細線
 48
50.0
100
AcDbLine
 10
9726.663765596407
 20
4835.15998676669
 30
0.0
 11
9735.700653842151
 21
4814.434593786844
 31
0.0
  0
LINE
  5
144C2
330
747D
100
AcDbEntity
  8
細線
 48
50.0
100
AcDbLine
 10
9642.916122599338
 20
4835.853331933886
 30
0.0
 11
9689.715874598205
 21
4964.434593786842
 31
0.0
  0
LINE
  5
144C3
330
747D
100
AcDbEntity
  8
細線
 48
50.0
100
AcDbLine
 10
9803.120339458274
 20
4814.434593786844
 30
0.0
 11
9857.715874598204
 21
4964.434593786842
 31
0.0
  0
LINE
  5
144C4
330
747D
100
AcDbEntity
  8
細線
 48
50.0
100
AcDbLine
 10
9719.120339458275
 20
4814.434593786844
 30
0.0
 11
9773.715874598202
 21
4964.434593786842
 31
0.0
  0
DIMENSION
  5
144C5
330
747D
100
AcDbEntity
  8
寸法
 48
50.0
100
AcDbDimension
  2
*D44
 10
9452.785787389094
 20
4814.434593786844
 30
0.0
 11
9452.785787389093
 21
4637.399160715978
 31
0.0
 70
   160
 71
     5
 42
100.000000005
  3
INABA_S30G詳細用20
100
AcDbAlignedDimension
 13
9642.91612259934
 23
4964.434593786844
 33
0.0
 14
9642.91612259934
 24
4814.434593786844
 34
0.0
 50
90.0
100
AcDbRotatedDimension
  0
LINE
  5
144C6
330
747D
100
AcDbEntity
  8
部品1
 48
50.0
100
AcDbLine
 10
9796.058412970303
 20
4214.987740604325
 30
0.0
 11
9796.058412970303
 21
4013.987740604325
 31
0.0
  0
DIMENSION
  5
144C7
330
747D
100
AcDbEntity
  8
寸法
 48
50.0
100
AcDbDimension
  2
*D45
 10
9452.785787389094
 20
4964.434593786842
 30
0.0
 11
9452.785787389093
 21
5291.47002685771
 31
0.0
 70
   160
 71
     5
 42
100.000000005
  3
INABA_S30G詳細用20
100
AcDbAlignedDimension
 13
9642.916122599341
 23
5114.434593786842
 33
0.0
 14
9632.674115427557
 24
4964.434593786842
 34
0.0
 50
90.0
100
AcDbRotatedDimension
  0
LINE
  5
144C8
330
747D
100
AcDbEntity
  8
部品1
 48
50.0
100
AcDbLine
 10
9916.058412970301
 20
4814.434593786844
 30
0.0
 11
9642.91612259934
 21
4814.434593786844
 31
0.0
  0
LINE
  5
144C9
330
747D
100
AcDbEntity
  8
部品1
 48
50.0
100
AcDbLine
 10
9796.058412970303
 20
4013.987740604325
 30
0.0
 11
11086.0584129703
 21
4013.987740604325
 31
0.0
  0
LINE
  5
144CA
330
747D
100
AcDbEntity
  8
部品1
 48
50.0
100
AcDbLine
 10
9796.058412970303
 20
4139.987740604325
 30
0.0
 11
11086.0584129703
 21
4139.987740604325
 31
0.0
  0
LINE
  5
144CB
330
747D
100
AcDbEntity
  8
部品1
 48
50.0
100
AcDbLine
 10
9796.058412970303
 20
4214.987740604325
 30
0.0
 11
11086.0584129703
 21
4214.987740604325
 31
0.0
  0
LINE
  5
144CC
330
747D
100
AcDbEntity
  8
文字
 48
50.0
100
AcDbLine
 10
9783.977484886996
 20
5179.775674461428
 30
0.0
 11
10362.47458279096
 21
5179.775674461428
 31
0.0
  0
LINE
  5
144CD
330
747D
100
AcDbEntity
  8
細線
 48
50.0
100
AcDbLine
 10
9951.349928415552
 20
4964.434593786843
 30
0.0
 11
10101.34992841556
 21
5114.434593786842
 31
0.0
  0
LINE
  5
144CE
330
747D
100
AcDbEntity
  8
部品1
 48
50.0
100
AcDbLine
 10
9642.916122599341
 20
5114.434593786842
 30
0.0
 11
10331.5584129703
 21
5114.434593786842
 31
0.0
  0
LINE
  5
144CF
330
747D
100
AcDbEntity
  8
部品1
 48
50.0
100
AcDbLine
 10
9642.91612259934
 20
4964.434593786844
 30
0.0
 11
10373.5584129703
 21
4964.434593786842
 31
0.0
  0
MTEXT
  5
144D1
330
747D
100
AcDbEntity
  8
部品1
 62
     7
 48
5.0
100
AcDbMText
 10
9701.324297104939
 20
4329.197631843825
 30
0.0
 40
90.0
 41
0.0
 71
     6
 72
     1
  1
\A1;4-D10両方向共
  7
STYLE1
 73
     1
 44
1.0
1001
ACAD
1000
MTEXTBEGIN
1070
    73
1070
     1
1070
    44
1040
1.0
1070
    74
1070
     0
1000
MTEXTEND
  0
LINE
  5
144D2
330
747D
100
AcDbEntity
  8
Ｇ．Ｌ
 48
50.0
100
AcDbLine
 10
11320.24663175222
 20
5039.434593786843
 30
0.0
 11
12103.43153827756
 21
5039.434593786842
 31
0.0
  0
MTEXT
  5
144D3
330
747D
100
AcDbEntity
  8
寸法
 62
     7
 48
50.0
100
AcDbMText
 10
11766.32472145544
 20
5105.599878525416
 30
0.0
 40
90.0
 41
1.0
 71
     4
 72
     1
  1
▽G.L
  7
STYLE2
 73
     1
 44
1.0
1001
ACAD
1000
MTEXTBEGIN
1070
    73
1070
     1
1070
    44
1040
1.0
1070
    74
1070
     0
1000
MTEXTEND
  0
LINE
  5
144D5
330
747D
100
AcDbEntity
  8
細線
 48
50.0
100
AcDbLine
 10
11039.5584129703
 20
4013.987740604325
 30
0.0
 11
11085.41866248784
 21
4139.987740604325
 31
0.0
  0
LINE
  5
144D6
330
747D
100
AcDbEntity
  8
細線
 48
50.0
100
AcDbLine
 10
10955.5584129703
 20
4013.987740604325
 30
0.0
 11
11001.41866248784
 21
4139.987740604325
 31
0.0
  0
LINE
  5
144D7
330
747D
100
AcDbEntity
  8
細線
 48
50.0
100
AcDbLine
 10
10963.20178788989
 20
4034.987740604325
 30
0.0
 11
10972.3584129703
 21
4013.987740604325
 31
0.0
  0
LINE
  5
144D8
330
747D
100
AcDbEntity
  8
細線
 48
50.0
100
AcDbLine
 10
10879.20178788989
 20
4034.987740604325
 30
0.0
 11
10888.3584129703
 21
4013.987740604325
 31
0.0
  0
LINE
  5
144D9
330
747D
100
AcDbEntity
  8
細線
 48
50.0
100
AcDbLine
 10
11047.20178788989
 20
4034.987740604325
 30
0.0
 11
11056.3584129703
 21
4013.987740604325
 31
0.0
  0
LINE
  5
144DA
330
747D
100
AcDbEntity
  8
細線
 48
50.0
100
AcDbLine
 10
10900.61866248784
 20
4139.987740604325
 30
0.0
 11
10909.77528756825
 21
4118.987740604325
 31
0.0
  0
LINE
  5
144DB
330
747D
100
AcDbEntity
  8
細線
 48
50.0
100
AcDbLine
 10
11068.61866248784
 20
4139.987740604325
 30
0.0
 11
11077.77528756825
 21
4118.987740604325
 31
0.0
  0
LINE
  5
144DC
330
747D
100
AcDbEntity
  8
細線
 48
50.0
100
AcDbLine
 10
10984.61866248784
 20
4139.987740604325
 30
0.0
 11
10993.77528756825
 21
4118.987740604325
 31
0.0
  0
LINE
  5
144DD
330
747D
100
AcDbEntity
  8
細線
 48
50.0
100
AcDbLine
 10
10871.5584129703
 20
4013.987740604325
 30
0.0
 11
10917.41866248784
 21
4139.987740604325
 31
0.0
  0
LINE
  5
144DE
330
747D
100
AcDbEntity
  8
細線
 48
50.0
100
AcDbLine
 10
9863.558412970306
 20
4013.987740604325
 30
0.0
 11
9909.418662487846
 21
4139.987740604325
 31
0.0
  0
LINE
  5
144DF
330
747D
100
AcDbEntity
  8
細線
 48
50.0
100
AcDbLine
 10
9947.558412970307
 20
4013.987740604325
 30
0.0
 11
9993.418662487847
 21
4139.987740604325
 31
0.0
  0
LINE
  5
144E0
330
747D
100
AcDbEntity
  8
細線
 48
50.0
100
AcDbLine
 10
9871.201787889894
 20
4034.987740604325
 30
0.0
 11
9880.358412970306
 21
4013.987740604325
 31
0.0
  0
LINE
  5
144E1
330
747D
100
AcDbEntity
  8
細線
 48
50.0
100
AcDbLine
 10
9955.201787889896
 20
4034.987740604325
 30
0.0
 11
9964.358412970305
 21
4013.987740604325
 31
0.0
  0
LINE
  5
144E2
330
747D
100
AcDbEntity
  8
細線
 48
50.0
100
AcDbLine
 10
9808.618662487845
 20
4139.987740604325
 30
0.0
 11
9817.775287568252
 21
4118.987740604325
 31
0.0
  0
LINE
  5
144E3
330
747D
100
AcDbEntity
  8
細線
 48
50.0
100
AcDbLine
 10
9976.618662487844
 20
4139.987740604325
 30
0.0
 11
9985.775287568253
 21
4118.987740604325
 31
0.0
  0
LINE
  5
144E4
330
747D
100
AcDbEntity
  8
細線
 48
50.0
100
AcDbLine
 10
9892.618662487842
 20
4139.987740604325
 30
0.0
 11
9901.775287568254
 21
4118.987740604325
 31
0.0
  0
LINE
  5
144E5
330
747D
100
AcDbEntity
  8
細線
 48
50.0
100
AcDbLine
 10
9796.058412970303
 20
4014.675767027234
 30
0.0
 11
9796.358412970306
 21
4013.987740604325
 31
0.0
  0
LINE
  5
144E6
330
747D
100
AcDbEntity
  8
細線
 48
50.0
100
AcDbLine
 10
9796.058412970303
 20
4059.321118025319
 30
0.0
 11
9825.418662487846
 21
4139.987740604325
 31
0.0
  0
LINE
  5
144E7
330
747D
100
AcDbEntity
  8
細線
 48
50.0
100
AcDbLine
 10
11086.0584129703
 20
4164.191377570912
 30
0.0
 11
11061.85477600371
 21
4139.987740604325
 31
0.0
  0
LINE
  5
144E8
330
747D
100
AcDbEntity
  8
細線
 48
50.0
100
AcDbLine
 10
11086.0584129703
 20
4182.010468456808
 30
0.0
 11
11044.03568511781
 21
4139.987740604325
 31
0.0
  0
LINE
  5
144E9
330
747D
100
AcDbEntity
  8
細線
 48
50.0
100
AcDbLine
 10
11086.0584129703
 20
4199.829559342712
 30
0.0
 11
11026.21659423191
 21
4139.987740604325
 31
0.0
  0
LINE
  5
144EA
330
747D
100
AcDbEntity
  8
細線
 48
50.0
100
AcDbLine
 10
9931.096292724436
 20
4214.987740604325
 30
0.0
 11
9856.096292724435
 21
4139.987740604325
 31
0.0
  0
LINE
  5
144EB
330
747D
100
AcDbEntity
  8
細線
 48
50.0
100
AcDbLine
 10
9913.277201838532
 20
4214.987740604325
 30
0.0
 11
9838.277201838531
 21
4139.987740604325
 31
0.0
  0
LINE
  5
144EC
330
747D
100
AcDbEntity
  8
細線
 48
50.0
100
AcDbLine
 10
9948.915383610332
 20
4214.987740604325
 30
0.0
 11
9873.915383610334
 21
4139.987740604325
 31
0.0
  0
LINE
  5
144ED
330
747D
100
AcDbEntity
  8
細線
 48
50.0
100
AcDbLine
 10
9642.91612259934
 20
4834.581225813277
 30
0.0
 11
9651.700653842153
 21
4814.434593786844
 31
0.0
  0
LINE
  5
144EE
330
747D
100
AcDbEntity
  8
細線
 48
50.0
100
AcDbLine
 10
10966.05841297031
 20
4832.426550708155
 30
0.0
 11
10973.9034417318
 21
4814.434593786844
 31
0.0
  0
LINE
  5
144EF
330
747D
100
AcDbEntity
  8
細線
 48
50.0
100
AcDbLine
 10
11048.86655348606
 20
4835.15998676669
 30
0.0
 11
11057.9034417318
 21
4814.434593786844
 31
0.0
  0
LINE
  5
144F0
330
747D
100
AcDbEntity
  8
細線
 48
50.0
100
AcDbLine
 10
11132.86655348606
 20
4835.15998676669
 30
0.0
 11
11141.9034417318
 21
4814.434593786844
 31
0.0
  0
LINE
  5
144F1
330
747D
100
AcDbEntity
  8
細線
 48
50.0
100
AcDbLine
 10
11216.86655348606
 20
4835.15998676669
 30
0.0
 11
11225.90344173179
 21
4814.434593786844
 31
0.0
  0
LINE
  5
144F2
330
747D
100
AcDbEntity
  8
細線
 48
50.0
100
AcDbLine
 10
11300.86655348605
 20
4835.15998676669
 30
0.0
 11
11309.90344173179
 21
4814.434593786844
 31
0.0
  0
LINE
  5
144F3
330
747D
100
AcDbEntity
  8
細線
 48
50.0
100
AcDbLine
 10
10966.05841297031
 20
4853.841563151448
 30
0.0
 11
10855.46538233492
 21
4964.434593786843
 31
0.0
  0
LINE
  5
144F4
330
747D
100
AcDbEntity
  8
細線
 48
50.0
100
AcDbLine
 10
10966.05841297031
 20
4836.02247226555
 30
0.0
 11
10837.64629144901
 21
4964.434593786842
 31
0.0
  0
LINE
  5
144F5
330
747D
100
AcDbEntity
  8
細線
 48
50.0
100
AcDbLine
 10
10966.05841297031
 20
4818.203381379628
 30
0.0
 11
10819.8272005631
 21
4964.434593786842
 31
0.0
  0
LINE
  5
144F6
330
747D
100
AcDbEntity
  8
細線
 48
50.0
100
AcDbLine
 10
10143.74678287351
 20
4214.987740604325
 30
0.0
 11
9916.058412970304
 21
4442.676110507532
 31
0.0
  0
LINE
  5
144F7
330
747D
100
AcDbEntity
  8
細線
 48
50.0
100
AcDbLine
 10
10161.56587375942
 20
4214.987740604325
 30
0.0
 11
9916.058412970302
 21
4460.495201393434
 31
0.0
  0
LINE
  5
144F8
330
747D
100
AcDbEntity
  8
細線
 48
50.0
100
AcDbLine
 10
10179.38496464529
 20
4214.987740604325
 30
0.0
 11
9916.058412970302
 21
4478.314292279327
 31
0.0
  0
LINE
  5
144F9
330
747D
100
AcDbEntity
  8
細線
 48
50.0
100
AcDbLine
 10
10373.5584129703
 20
4495.990049236687
 30
0.0
 11
9916.058412970302
 21
4953.490049236705
 31
0.0
  0
LINE
  5
144FA
330
747D
100
AcDbEntity
  8
細線
 48
50.0
100
AcDbLine
 10
10373.5584129703
 20
4478.170958350795
 30
0.0
 11
9916.058412970304
 21
4935.670958350795
 31
0.0
  0
LINE
  5
144FB
330
747D
100
AcDbEntity
  8
細線
 48
50.0
100
AcDbLine
 10
10373.5584129703
 20
4460.351867464899
 30
0.0
 11
9916.058412970306
 21
4917.851867464904
 31
0.0
  0
LINE
  5
144FC
330
747D
100
AcDbEntity
  8
細線
 48
50.0
100
AcDbLine
 10
10892.14860008136
 20
4214.987740604325
 30
0.0
 11
10704.65317159408
 21
4402.483169091603
 31
0.0
  0
LINE
  5
144FD
330
747D
100
AcDbEntity
  8
細線
 48
50.0
100
AcDbLine
 10
10687.85317159407
 20
4419.283169091604
 30
0.0
 11
10508.5584129703
 21
4598.577927715374
 31
0.0
  0
LINE
  5
144FE
330
747D
100
AcDbEntity
  8
細線
 48
50.0
100
AcDbLine
 10
10874.32950919546
 20
4214.987740604325
 30
0.0
 11
10686.83408070818
 21
4402.483169091603
 31
0.0
  0
LINE
  5
144FF
330
747D
100
AcDbEntity
  8
細線
 48
50.0
100
AcDbLine
 10
10670.03408070818
 20
4419.283169091604
 30
0.0
 11
10508.5584129703
 21
4580.758836829478
 31
0.0
  0
LINE
  5
14500
330
747D
100
AcDbEntity
  8
細線
 48
50.0
100
AcDbLine
 10
10764.02950919546
 20
4325.287740604328
 30
0.0
 11
10763.95698521803
 21
4325.360264581756
 31
0.0
  0
LINE
  5
14501
330
747D
100
AcDbEntity
  8
細線
 48
50.0
100
AcDbLine
 10
10856.51041830955
 20
4214.987740604325
 30
0.0
 11
10669.01498982228
 21
4402.483169091603
 31
0.0
  0
LINE
  5
14502
330
747D
100
AcDbEntity
  8
細線
 48
50.0
100
AcDbLine
 10
10652.21498982227
 20
4419.283169091604
 30
0.0
 11
10508.5584129703
 21
4562.939745943578
 31
0.0
  0
LINE
  5
14503
330
747D
100
AcDbEntity
  8
細線
 48
50.0
100
AcDbLine
 10
10381.0584129703
 20
4250.902170758001
 30
0.0
 11
10229.47741463671
 21
4402.483169091602
 31
0.0
  0
LINE
  5
14504
330
747D
100
AcDbEntity
  8
細線
 48
50.0
100
AcDbLine
 10
10212.67741463671
 20
4419.283169091603
 30
0.0
 11
9916.058412970302
 21
4715.902170758024
 31
0.0
  0
LINE
  5
14505
330
747D
100
AcDbEntity
  8
細線
 48
50.0
100
AcDbLine
 10
10381.0584129703
 20
4215.263988986216
 30
0.0
 11
10193.83923286492
 21
4402.483169091602
 31
0.0
  0
LINE
  5
14506
330
747D
100
AcDbEntity
  8
細線
 48
50.0
100
AcDbLine
 10
10177.03923286491
 20
4419.283169091603
 30
0.0
 11
9916.058412970304
 21
4680.263988986221
 31
0.0
  0
LINE
  5
14507
330
747D
100
AcDbEntity
  8
細線
 48
50.0
100
AcDbLine
 10
10381.0584129703
 20
4233.083079872128
 30
0.0
 11
10211.65832375082
 21
4402.483169091602
 31
0.0
  0
LINE
  5
14508
330
747D
100
AcDbEntity
  8
細線
 48
50.0
100
AcDbLine
 10
10194.85832375082
 20
4419.283169091603
 30
0.0
 11
9916.058412970302
 21
4698.083079872116
 31
0.0
  0
LINE
  5
145C0
330
747D
100
AcDbEntity
  8
文字
 48
50.0
100
AcDbLine
 10
7877.540000335097
 20
4323.599999999998
 30
0.0
 11
7787.540000335098
 21
4323.599999999998
 31
0.0
  0
LINE
  5
145C3
330
747D
100
AcDbEntity
  8
文字
 48
50.0
100
AcDbLine
 10
7877.540000335097
 20
4323.599999999998
 30
0.0
 11
7877.540000335097
 21
4233.599999999998
 31
0.0
  0
LINE
  5
145C4
330
747D
100
AcDbEntity
  8
文字
 48
50.0
100
AcDbLine
 10
7877.540000335097
 20
4233.599999999998
 30
0.0
 11
7787.540000335096
 21
4233.599999999998
 31
0.0
  0
LINE
  5
145C5
330
747D
100
AcDbEntity
  8
文字
 48
50.0
100
AcDbLine
 10
7787.540000335098
 20
4323.599999999998
 30
0.0
 11
7787.540000335096
 21
4233.599999999998
 31
0.0
  0
LINE
  5
145C6
330
747D
100
AcDbEntity
  8
文字
 48
50.0
100
AcDbLine
 10
4537.540000335098
 20
4323.599999999998
 30
0.0
 11
4537.540000335096
 21
4233.599999999997
 31
0.0
  0
LINE
  5
145C7
330
747D
100
AcDbEntity
  8
文字
 48
50.0
100
AcDbLine
 10
4627.540000335097
 20
4323.599999999998
 30
0.0
 11
4627.540000335097
 21
4233.599999999997
 31
0.0
  0
LINE
  5
145C8
330
747D
100
AcDbEntity
  8
文字
 48
50.0
100
AcDbLine
 10
4627.540000335097
 20
4233.599999999997
 30
0.0
 11
4537.540000335096
 21
4233.599999999997
 31
0.0
  0
LINE
  5
145C9
330
747D
100
AcDbEntity
  8
文字
 48
50.0
100
AcDbLine
 10
4627.540000335097
 20
4323.599999999998
 30
0.0
 11
4537.540000335098
 21
4323.599999999998
 31
0.0
  0
LINE
  5
145CA
330
747D
100
AcDbEntity
  8
文字
 48
50.0
100
AcDbLine
 10
1287.540000335098
 20
4323.599999999998
 30
0.0
 11
1287.540000335096
 21
4233.599999999997
 31
0.0
  0
LINE
  5
145CB
330
747D
100
AcDbEntity
  8
文字
 48
50.0
100
AcDbLine
 10
1377.540000335097
 20
4323.599999999998
 30
0.0
 11
1377.540000335097
 21
4233.599999999997
 31
0.0
  0
LINE
  5
145CC
330
747D
100
AcDbEntity
  8
文字
 48
50.0
100
AcDbLine
 10
1377.540000335097
 20
4233.599999999997
 30
0.0
 11
1287.540000335096
 21
4233.599999999997
 31
0.0
  0
LINE
  5
145CD
330
747D
100
AcDbEntity
  8
文字
 48
50.0
100
AcDbLine
 10
1377.540000335097
 20
4323.599999999998
 30
0.0
 11
1287.540000335098
 21
4323.599999999998
 31
0.0
  0
TEXT
  5
14E53
330
747D
100
AcDbEntity
  8
文字
 62
     7
 48
50.0
100
AcDbText
 10
11458.26988761371
 20
773.6682797184214
 30
0.0
 40
75.0
  1
 <縮尺> S=1/30
  7
STYLE2
100
AcDbText
  0
TEXT
  5
14E54
330
747D
100
AcDbEntity
  8
文字
 62
     7
 48
50.0
100
AcDbText
 10
11579.67013626876
 20
628.6895453046891
 30
0.0
 40
75.0
  1
～一般型～
  7
STYLE2
100
AcDbText
  0
LEADER
  5
14E77
330
747D
100
AcDbEntity
  8
寸法
 48
50.0
100
AcDbLeader
  3
INABA_S30G
 71
     0
 76
     3
 10
10117.05841297031
 20
4427.683169091603
 30
0.0
 10
9714.959586701745
 20
4252.245093667721
 30
0.0
 10
8978.270079743158
 20
4252.245093667721
 30
0.0
1001
ACAD
1000
DSTYLE
1002
{
1070
   147
1040
1.0
1070
    77
1070
     0
1002
}
  0
ENDSEC
  0
SECTION
  2
OBJECTS
  0
DICTIONARY
  5
7471
330
0
100
AcDbDictionary
281
     1
  3
ACAD_CIP_PREVIOUS_PRODUCT_INFO
350
14310
  3
ACAD_COLOR
350
13B40
  3
ACAD_DETAILVIEWSTYLE
350
14307
  3
ACAD_GROUP
350
7472
  3
ACAD_LAYOUT
350
13B41
  3
ACAD_MATERIAL
350
13B3F
  3
ACAD_MLEADERSTYLE
350
14303
  3
ACAD_MLINESTYLE
350
7473
  3
ACAD_PLOTSETTINGS
350
13B42
  3
ACAD_PLOTSTYLENAME
350
13B3D
  3
ACAD_SCALELIST
350
142F1
  3
ACAD_SECTIONVIEWSTYLE
350
14305
  3
ACAD_TABLESTYLE
350
142EF
  3
ACAD_VISUALSTYLE
350
142D6
  3
ACDB_RECOMPOSE_DATA
350
15039
  3
AcDbVariableDictionary
350
14831
  3
AcDsDecomposeData
350
15040
  3
CONTENTDICTIONARY
350
E71C
  3
DRAWINGVARIABLESDICT
350
F3B9
  3
DWGPROPS
350
1503A
  0
DICTIONARY
  5
1435F
330
7467
100
AcDbDictionary
280
     1
281
     1
  3
ACAD_LAYERSTATES
360
14360
  0
DICTIONARY
  5
14818
330
7474
100
AcDbDictionary
280
     1
281
     1
  3
ADSK_XREC_LAYER_RECONCILED
360
14819
  0
DICTIONARY
  5
1481A
330
DEB2
100
AcDbDictionary
280
     1
281
     1
  3
ADSK_XREC_LAYER_RECONCILED
360
1481B
  0
DICTIONARY
  5
1481C
330
DEB3
100
AcDbDictionary
280
     1
281
     1
  3
ADSK_XREC_LAYER_RECONCILED
360
1481D
  0
DICTIONARY
  5
1481E
330
DEB4
100
AcDbDictionary
280
     1
281
     1
  3
ADSK_XREC_LAYER_RECONCILED
360
1481F
  0
DICTIONARY
  5
14820
330
DEB5
100
AcDbDictionary
280
     1
281
     1
  3
ADSK_XREC_LAYER_RECONCILED
360
14821
  0
DICTIONARY
  5
14822
330
DEB6
100
AcDbDictionary
280
     1
281
     1
  3
ADSK_XREC_LAYER_RECONCILED
360
14823
  0
DICTIONARY
  5
14824
330
10B54
100
AcDbDictionary
280
     1
281
     1
  3
ADSK_XREC_LAYER_RECONCILED
360
14825
  0
DICTIONARY
  5
14826
330
11729
100
AcDbDictionary
280
     1
281
     1
  3
ADSK_XREC_LAYER_RECONCILED
360
14827
  0
DICTIONARY
  5
14828
330
1173F
100
AcDbDictionary
280
     1
281
     1
  3
ADSK_XREC_LAYER_RECONCILED
360
14829
  0
DICTIONARY
  5
1482A
330
11740
100
AcDbDictionary
280
     1
281
     1
  3
ADSK_XREC_LAYER_RECONCILED
360
1482B
  0
DICTIONARY
  5
145C1
330
747D
100
AcDbDictionary
280
     1
281
     1
  3
ACAD_SORTENTS
360
145C2
  0
XRECORD
  5
14310
102
{ACAD_REACTORS
330
7471
102
}
330
7471
100
AcDbXrecord
280
     1
300
ACDLT
300
2014
300
ACDLT_F_S
  0
DICTIONARY
  5
13B40
102
{ACAD_REACTORS
330
7471
102
}
330
7471
100
AcDbDictionary
281
     1
  0
DICTIONARY
  5
14307
102
{ACAD_REACTORS
330
7471
102
}
330
7471
100
AcDbDictionary
281
     1
  3
Metric50
350
14308
  0
DICTIONARY
  5
7472
102
{ACAD_REACTORS
330
7471
102
}
330
7471
100
AcDbDictionary
281
     1
  0
DICTIONARY
  5
13B41
102
{ACAD_REACTORS
330
7471
102
}
330
7471
100
AcDbDictionary
281
     1
  3
Model
350
13B43
  3
レイアウト1
350
13B44
  0
DICTIONARY
  5
13B3F
102
{ACAD_REACTORS
330
7471
102
}
330
7471
100
AcDbDictionary
281
     1
  3
ByBlock
350
142C6
  3
ByLayer
350
142BE
  3
Global
350
142CE
  0
DICTIONARY
  5
14303
102
{ACAD_REACTORS
330
7471
102
}
330
7471
100
AcDbDictionary
281
     1
  3
Standard
350
14304
  0
DICTIONARY
  5
7473
102
{ACAD_REACTORS
330
7471
102
}
330
7471
100
AcDbDictionary
281
     1
  3
STANDARD
350
7480
  0
DICTIONARY
  5
13B42
102
{ACAD_REACTORS
330
7471
102
}
330
7471
100
AcDbDictionary
281
     1
  0
ACDBDICTIONARYWDFLT
  5
13B3D
102
{ACAD_REACTORS
330
7471
102
}
330
7471
100
AcDbDictionary
281
     1
  3
Normal
350
13B3E
100
AcDbDictionaryWithDefault
340
13B3E
  0
DICTIONARY
  5
142F1
102
{ACAD_REACTORS
330
7471
102
}
330
7471
100
AcDbDictionary
281
     1
  3
A0
350
142F2
  3
A1
350
142F3
  3
A2
350
142F4
  3
A3
350
142F5
  3
A4
350
142F6
  3
A5
350
142F7
  3
A6
350
142F8
  3
A7
350
142F9
  3
A8
350
142FA
  3
A9
350
142FB
  3
B0
350
142FC
  3
B1
350
142FD
  3
B2
350
142FE
  3
B3
350
142FF
  3
B4
350
14300
  3
B5
350
14301
  3
B6
350
14302
  0
DICTIONARY
  5
14305
102
{ACAD_REACTORS
330
7471
102
}
330
7471
100
AcDbDictionary
281
     1
  3
Metric50
350
14306
  0
DICTIONARY
  5
142EF
102
{ACAD_REACTORS
330
7471
102
}
330
7471
100
AcDbDictionary
281
     1
  3
Standard
350
142F0
  0
DICTIONARY
  5
142D6
102
{ACAD_REACTORS
330
7471
102
}
330
7471
100
AcDbDictionary
281
     1
  3
2dWireframe
350
142DC
  3
Basic
350
142DB
  3
Brighten
350
142E2
  3
ColorChange
350
142E6
  3
Conceptual
350
142DF
  3
Dim
350
142E1
  3
EdgeColorOff
350
142EE
  3
Facepattern
350
142E5
  3
Flat
350
142D7
  3
FlatWithEdges
350
142D8
  3
Gouraud
350
142D9
  3
GouraudWithEdges
350
142DA
  3
Hidden
350
142DE
  3
JitterOff
350
142EC
  3
Linepattern
350
142E4
  3
OverhangOff
350
142ED
  3
Realistic
350
142E0
  3
Shaded
350
142EB
  3
Shaded with edges
350
142EA
  3
Shades of Gray
350
142E7
  3
Sketchy
350
142E8
  3
Thicken
350
142E3
  3
Wireframe
350
142DD
  3
X-Ray
350
142E9
  0
XRECORD
  5
15039
102
{ACAD_REACTORS
330
7471
102
}
330
7471
100
AcDbXrecord
280
     1
 90
        1
330
12F1D
330
142F0
  0
DICTIONARY
  5
14831
102
{ACAD_REACTORS
330
7471
102
}
330
7471
100
AcDbDictionary
281
     1
  3
CANNOSCALE
350
14837
  3
CMLEADERSTYLE
350
14833
  3
CTABLESTYLE
350
14832
  3
CVIEWDETAILSTYLE
350
14834
  3
CVIEWSECTIONSTYLE
350
14835
  3
DIMASSOC
350
14EB9
  3
INDEXCTL
350
14EB7
  3
LAYEREVAL
350
14839
  3
LAYERNOTIFY
350
1483A
  3
LIGHTINGUNITS
350
14838
  3
MSLTSCALE
350
14836
  3
SORTENTS
350
14EB6
  3
XCLIPFRAME
350
14EB8
  0
DICTIONARY
  5
15040
102
{ACAD_REACTORS
330
7471
102
}
330
7471
100
AcDbDictionary
281
     1
  3
AcDsRecords
350
15042
  3
AcDsSchemas
350
15041
1001
ACAD
1070
     2
  0
DICTIONARY
  5
E71C
102
{ACAD_REACTORS
330
7471
102
}
330
7471
100
AcDbDictionary
281
     1
  0
DICTIONARY
  5
F3B9
102
{ACAD_REACTORS
330
7471
102
}
330
7471
100
AcDbDictionary
281
     1
1001
DRAWINGVARIABLESXDATA
1000
POLARMODE
1000
1
  0
XRECORD
  5
1503A
102
{ACAD_REACTORS
330
7471
102
}
330
7471
100
AcDbXrecord
280
     1
  1
DWGPROPS COOKIE
  2

  3

  4

  6

  7

  8
maekawa
  9

300
=
301
=
302
=
303
=
304
=
305
=
306
=
307
=
308
=
309
=
 40
0.529509039351852
 41
2451605.424024074
 42
2459492.387373993
  1

 90
        0
  0
DICTIONARY
  5
14360
102
{ACAD_REACTORS
330
1435F
102
}
330
1435F
100
AcDbDictionary
281
     1
  0
XRECORD
  5
14819
102
{ACAD_REACTORS
330
14818
102
}
330
14818
100
AcDbXrecord
280
     1
290
     1
  0
XRECORD
  5
1481B
102
{ACAD_REACTORS
330
1481A
102
}
330
1481A
100
AcDbXrecord
280
     1
290
     1
  0
XRECORD
  5
1481D
102
{ACAD_REACTORS
330
1481C
102
}
330
1481C
100
AcDbXrecord
280
     1
290
     1
  0
XRECORD
  5
1481F
102
{ACAD_REACTORS
330
1481E
102
}
330
1481E
100
AcDbXrecord
280
     1
290
     1
  0
XRECORD
  5
14821
102
{ACAD_REACTORS
330
14820
102
}
330
14820
100
AcDbXrecord
280
     1
290
     1
  0
XRECORD
  5
14823
102
{ACAD_REACTORS
330
14822
102
}
330
14822
100
AcDbXrecord
280
     1
290
     1
  0
XRECORD
  5
14825
102
{ACAD_REACTORS
330
14824
102
}
330
14824
100
AcDbXrecord
280
     1
290
     1
  0
XRECORD
  5
14827
102
{ACAD_REACTORS
330
14826
102
}
330
14826
100
AcDbXrecord
280
     1
290
     1
  0
XRECORD
  5
14829
102
{ACAD_REACTORS
330
14828
102
}
330
14828
100
AcDbXrecord
280
     1
290
     1
  0
XRECORD
  5
1482B
102
{ACAD_REACTORS
330
1482A
102
}
330
1482A
100
AcDbXrecord
280
     1
290
     1
  0
SORTENTSTABLE
  5
145C2
102
{ACAD_REACTORS
330
145C1
102
}
330
145C1
100
AcDbSortentsTable
330
747D
331
129FB
  5
12AD3
331
11B60
  5
129FA
331
144E7
  5
144EB
331
144E3
  5
144E7
331
144A4
  5
144A8
331
144DF
  5
144E3
331
144A0
  5
144A4
331
1446D
  5
14471
331
1449C
  5
144A0
331
144DB
  5
144DF
331
14469
  5
1446D
331
14498
  5
1449C
331
14465
  5
14469
331
14461
  5
14465
331
12E24
  5
12E64
331
12E20
  5
12E56
331
11B5C
  5
11B6B
331
11AA7
  5
11AA7
331
11AA3
  5
11AA3
331
144D7
  5
144DB
331
14494
  5
14498
331
144D3
  5
144D8
331
145C5
  5
11B37
331
14506
  5
145C3
331
144CF
  5
144D3
331
14490
  5
14494
331
1445D
  5
14461
331
1448C
  5
14490
331
144CB
  5
144CF
331
14502
  5
14506
331
14459
  5
1445D
331
14488
  5
1448C
331
13E46
  5
13E4A
331
14455
  5
14459
331
13AE4
  5
13B16
331
13B23
  5
13E36
331
14451
  5
14455
331
13AE0
  5
13AE4
331
13B1F
  5
13B23
331
13E3A
  5
13E3E
331
13B1B
  5
13B1F
331
144C7
  5
144CB
331
144C3
  5
144C7
331
144FE
  5
14502
331
144BF
  5
144C3
331
144FA
  5
144FE
331
1444D
  5
14451
331
144BB
  5
144BF
331
14449
  5
1444D
331
13B17
  5
13B1B
331
14484
  5
14488
331
14445
  5
14449
331
14480
  5
14484
331
14441
  5
14445
331
13E36
  5
13E3A
331
11B2E
  5
11B2E
331
10B6F
  5
10B6F
331
144F6
  5
144FA
331
144B7
  5
144BB
331
144B3
  5
144B7
331
144F2
  5
144F6
331
144EE
  5
144F2
331
144AF
  5
144B3
331
1443D
  5
14441
331
1447C
  5
14480
331
144AB
  5
144AF
331
144EA
  5
144EE
331
14478
  5
1447C
331
14439
  5
1443D
331
14474
  5
14478
331
14470
  5
14474
331
12E63
  5
12F1D
331
129FA
  5
12AD2
331
11B6B
  5
129FC
331
11AB2
  5
11AB2
331
10B57
  5
10B57
331
11AAA
  5
11AAA
331
144E6
  5
144EA
331
144A7
  5
144AB
331
144A3
  5
144A7
331
144E2
  5
144E6
331
144DE
  5
144E2
331
1449F
  5
144A3
331
144DA
  5
144DE
331
1449B
  5
1449F
331
1446C
  5
14470
331
14468
  5
1446C
331
12F1E
  5
13A91
331
14464
  5
14468
331
14460
  5
14464
331
12E1F
  5
12E24
331
11AA2
  5
11AA2
331
11B57
  5
11B6A
331
144D6
  5
144DA
331
14497
  5
1449B
331
144D2
  5
144D7
331
14493
  5
14497
331
145C4
  5
11B57
331
14505
  5
145C0
331
144CE
  5
144D2
331
1448F
  5
14493
331
145C0
  5
11B60
331
1448B
  5
1448F
331
144CA
  5
144CE
331
14501
  5
14505
331
1445C
  5
14460
331
13E45
  5
13E49
331
13AE7
  5
13B19
331
13B26
  5
13E39
331
14458
  5
1445C
331
13E41
  5
13E45
331
13AE3
  5
13AE7
331
13B22
  5
13B26
331
14454
  5
14458
331
13E3D
  5
13E41
331
13B1E
  5
13B22
331
14450
  5
14454
331
13E39
  5
13E3D
331
13B1A
  5
13B1E
331
144C6
  5
144CA
331
144C2
  5
144C6
331
144FD
  5
14501
331
144BE
  5
144C2
331
144F9
  5
144FD
331
144BA
  5
144BE
331
1444C
  5
14450
331
14487
  5
1448B
331
13B16
  5
13B1A
331
14448
  5
1444C
331
14483
  5
14487
331
14444
  5
14448
331
14440
  5
14444
331
12DFB
  5
12E1C
331
144F5
  5
144F9
331
144B6
  5
144BA
331
144B2
  5
144B6
331
144F1
  5
144F5
331
144ED
  5
144F1
331
144AE
  5
144B2
331
1447F
  5
14483
331
144E9
  5
144ED
331
144AA
  5
144AE
331
1443C
  5
14440
331
1447B
  5
1447F
331
14477
  5
1447B
331
14438
  5
1443C
331
14473
  5
14477
331
129FD
  5
12AD5
331
10B5E
  5
10B5E
331
11B6A
  5
129FB
331
129F5
  5
129FD
331
10B56
  5
10B56
331
144E5
  5
144E9
331
144A6
  5
144AA
331
144E1
  5
144E5
331
144A2
  5
144A6
331
1449E
  5
144A2
331
144DD
  5
144E1
331
1446F
  5
14473
331
144D9
  5
144DD
331
1449A
  5
1449E
331
1446B
  5
1446F
331
14467
  5
1446B
331
12F1D
  5
13A90
331
14463
  5
14467
331
13EF0
  5
13F26
331
11AA1
  5
11AA1
331
14496
  5
1449A
331
144D5
  5
144D9
331
14508
  5
145C5
331
144D1
  5
144D6
331
14492
  5
14496
331
145C3
  5
11B3A
331
144CD
  5
144D1
331
1448E
  5
14492
331
14504
  5
14508
331
1445F
  5
14463
331
14500
  5
14504
331
144C9
  5
144CD
331
1448A
  5
1448E
331
1445B
  5
1445F
331
13E44
  5
13E48
331
13AE6
  5
13B18
331
13B25
  5
13E38
331
14457
  5
1445B
331
13E40
  5
13E44
331
13AE2
  5
13AE6
331
13B21
  5
13B25
331
14453
  5
14457
331
13E3C
  5
13E40
331
13B1D
  5
13B21
331
13E38
  5
13E3C
331
13B19
  5
13B1D
331
11B3C
  5
11B5C
331
11B38
  5
11B3C
331
144C5
  5
144C9
331
144C1
  5
144C5
331
144FC
  5
14500
331
144BD
  5
144C1
331
1444F
  5
14453
331
144F8
  5
144FC
331
144B9
  5
144BD
331
1444B
  5
1444F
331
14486
  5
1448A
331
14447
  5
1444B
331
14482
  5
14486
331
14443
  5
14447
331
10B6D
  5
10B6D
331
11AB8
  5
11AB8
331
144F4
  5
144F8
331
144B5
  5
144B9
331
144F0
  5
144F4
331
144B1
  5
144B5
331
1447E
  5
14482
331
1443F
  5
14443
331
144AD
  5
144B1
331
144EC
  5
144F0
331
144E8
  5
144EC
331
1447A
  5
1447E
331
1443B
  5
1443F
331
144A9
  5
144AD
331
14476
  5
1447A
331
14472
  5
14476
331
129FC
  5
12AD4
331
10B5D
  5
10B5D
331
11AB4
  5
11AB4
331
144A5
  5
144A9
331
144E4
  5
144E8
331
144E0
  5
144E4
331
144A1
  5
144A5
331
144DC
  5
144E0
331
1446E
  5
14472
331
1449D
  5
144A1
331
144D8
  5
144DC
331
1446A
  5
1446E
331
14499
  5
1449D
331
14466
  5
1446A
331
14462
  5
14466
331
11B5D
  5
129F5
331
14495
  5
14499
331
14507
  5
145C4
331
14491
  5
14495
331
144CC
  5
144D0
331
1445E
  5
14462
331
1448D
  5
14491
331
14503
  5
14507
331
144C8
  5
144CC
331
13E47
  5
13E4B
331
1445A
  5
1445E
331
14489
  5
1448D
331
13E43
  5
13E47
331
13AE5
  5
13B17
331
13B24
  5
13E37
331
14456
  5
1445A
331
13E3F
  5
13E43
331
13AE1
  5
13AE5
331
13B20
  5
13B24
331
14452
  5
14456
331
13E3B
  5
13E3F
331
13B1C
  5
13B20
331
13B18
  5
13B1C
331
12FC2
  5
13A93
331
144C4
  5
144C8
331
144FF
  5
14503
331
144C0
  5
144C4
331
144FB
  5
144FF
331
1444E
  5
14452
331
144BC
  5
144C0
331
1444A
  5
1444E
331
144B8
  5
144BC
331
14485
  5
14489
331
14446
  5
1444A
331
14481
  5
14485
331
13E37
  5
13E3B
331
14442
  5
14446
331
11B2F
  5
11B2F
331
144F7
  5
144FB
331
144B4
  5
144B8
331
144F3
  5
144F7
331
144EF
  5
144F3
331
144B0
  5
144B4
331
144EB
  5
144EF
331
1443E
  5
14442
331
1447D
  5
14481
331
144AC
  5
144B0
331
14479
  5
1447D
331
1443A
  5
1443E
331
144A8
  5
144AC
331
14475
  5
14479
331
14471
  5
14475
331
12E64
  5
12F1E
  0
ACDBDETAILVIEWSTYLE
  5
14308
102
{ACAD_XDICTIONARY
360
1482E
102
}
102
{ACAD_REACTORS
330
14307
102
}
330
14307
100
AcDbModelDocViewStyle
 70
     0
  3
Metric50
290
     0
100
AcDbDetailViewStyle
 70
     0
 71
     0
 90
        3
 71
     1
340
7475
 40
5.0
340
0
 40
5.0
300

 40
0.0
280
     1
 71
     2
340
7479
 90
       25
 71
     3
340
7475
 40
5.0
 90
        0
 40
15.0
 90
        1
300
%<\AcVar ViewDetailId>% (%<\AcVar ViewScale \f "%sn">%)
 71
     4
340
7479
 90
       25
340
7479
 90
       25
280
     0
  0
LAYOUT
  5
13B43
102
{ACAD_XDICTIONARY
360
15044
102
}
102
{ACAD_REACTORS
330
13B41
102
}
330
13B41
100
AcDbPlotSettings
  1

  2
Microsoft XPS Document Writer
  4
A4
  6

 40
3.174999952316284
 41
3.174999952316284
 42
3.175003051757812
 43
3.17498779296875
 44
210.0156707763672
 45
297.0106506347656
 46
0.0
 47
0.0
 48
0.0
 49
0.0
140
0.0
141
0.0
142
1.0
143
52.13806325790616
 70
 11952
 72
     1
 73
     1
 74
     0
  7

 75
     0
147
0.0191798455392062
148
241.4413710122681
149
38.26106978716689
100
AcDbLayout
  1
Model
 70
     1
 71
     0
 10
0.0
 20
0.0
 11
12.0
 21
9.0
 12
0.0
 22
0.0
 32
0.0
 14
0.0
 24
0.0
 34
0.0
 15
0.0
 25
0.0
 35
0.0
146
0.0
 13
0.0
 23
0.0
 33
0.0
 16
1.0
 26
0.0
 36
0.0
 17
0.0
 27
1.0
 37
0.0
 76
     0
330
747D
331
142BC
1001
ACAD_PSEXT
1000
Microsoft XPS Document Writer
1000
Microsoft XPS Document Writer
1000
XPSPort:
1000

1070
     0
  0
LAYOUT
  5
13B44
102
{ACAD_XDICTIONARY
360
15046
102
}
102
{ACAD_REACTORS
330
13B41
102
}
330
13B41
100
AcDbPlotSettings
  1

  2
Microsoft XPS Document Writer
  4

  6

 40
0.0
 41
0.0
 42
0.0
 43
0.0
 44
0.0
 45
0.0
 46
0.0
 47
0.0
 48
0.0
 49
0.0
140
0.0
141
0.0
142
1.0
143
1.0
 70
   688
 72
     0
 73
     0
 74
     5
  7

 75
    16
147
1.0
148
0.0
149
0.0
100
AcDbLayout
  1
レイアウト1
 70
     0
 71
     1
 10
0.0
 20
0.0
 11
420.0
 21
297.0
 12
0.0
 22
0.0
 32
0.0
 14
1.000000000000000E+20
 24
1.000000000000000E+20
 34
1.000000000000000E+20
 15
-1.000000000000000E+20
 25
-1.000000000000000E+20
 35
-1.000000000000000E+20
146
0.0
 13
0.0
 23
0.0
 33
0.0
 16
1.0
 26
0.0
 36
0.0
 17
0.0
 27
1.0
 37
0.0
 76
     0
330
747A
  0
MATERIAL
  5
142C6
102
{ACAD_XDICTIONARY
360
142C7
102
}
102
{ACAD_REACTORS
330
13B3F
102
}
330
13B3F
100
AcDbMaterial
  1
ByBlock
 72
     0
 43
0.0208333333333333
 43
0.0
 43
0.0
 43
0.0
 43
0.0
 43
0.0208333333333333
 43
0.0
 43
0.0
 43
0.0
 43
0.0
 43
1.0
 43
0.0
 43
0.0
 43
0.0
 43
0.0
 43
1.0
 77
     0
 47
0.0208333333333333
 47
0.0
 47
0.0
 47
0.0
 47
0.0
 47
0.0208333333333333
 47
0.0
 47
0.0
 47
0.0
 47
0.0
 47
1.0
 47
0.0
 47
0.0
 47
0.0
 47
0.0
 47
1.0
171
     0
 49
0.0208333333333333
 49
0.0
 49
0.0
 49
0.0
 49
0.0
 49
0.0208333333333333
 49
0.0
 49
0.0
 49
0.0
 49
0.0
 49
1.0
 49
0.0
 49
0.0
 49
0.0
 49
0.0
 49
1.0
175
     0
142
0.0208333333333333
142
0.0
142
0.0
142
0.0
142
0.0
142
0.0208333333333333
142
0.0
142
0.0
142
0.0
142
0.0
142
1.0
142
0.0
142
0.0
142
0.0
142
0.0
142
1.0
179
     0
144
0.0208333333333333
144
0.0
144
0.0
144
0.0
144
0.0
144
0.0208333333333333
144
0.0
144
0.0
144
0.0
144
0.0
144
1.0
144
0.0
144
0.0
144
0.0
144
0.0
144
1.0
147
0.0208333333333333
147
0.0
147
0.0
147
0.0
147
0.0
147
0.0208333333333333
147
0.0
147
0.0
147
0.0
147
0.0
147
1.0
147
0.0
147
0.0
147
0.0
147
0.0
147
1.0
  0
MATERIAL
  5
142BE
102
{ACAD_XDICTIONARY
360
142BF
102
}
102
{ACAD_REACTORS
330
13B3F
102
}
330
13B3F
100
AcDbMaterial
  1
ByLayer
 72
     0
 43
0.0208333333333333
 43
0.0
 43
0.0
 43
0.0
 43
0.0
 43
0.0208333333333333
 43
0.0
 43
0.0
 43
0.0
 43
0.0
 43
1.0
 43
0.0
 43
0.0
 43
0.0
 43
0.0
 43
1.0
 77
     0
 47
0.0208333333333333
 47
0.0
 47
0.0
 47
0.0
 47
0.0
 47
0.0208333333333333
 47
0.0
 47
0.0
 47
0.0
 47
0.0
 47
1.0
 47
0.0
 47
0.0
 47
0.0
 47
0.0
 47
1.0
171
     0
 49
0.0208333333333333
 49
0.0
 49
0.0
 49
0.0
 49
0.0
 49
0.0208333333333333
 49
0.0
 49
0.0
 49
0.0
 49
0.0
 49
1.0
 49
0.0
 49
0.0
 49
0.0
 49
0.0
 49
1.0
175
     0
142
0.0208333333333333
142
0.0
142
0.0
142
0.0
142
0.0
142
0.0208333333333333
142
0.0
142
0.0
142
0.0
142
0.0
142
1.0
142
0.0
142
0.0
142
0.0
142
0.0
142
1.0
179
     0
144
0.0208333333333333
144
0.0
144
0.0
144
0.0
144
0.0
144
0.0208333333333333
144
0.0
144
0.0
144
0.0
144
0.0
144
1.0
144
0.0
144
0.0
144
0.0
144
0.0
144
1.0
147
0.0208333333333333
147
0.0
147
0.0
147
0.0
147
0.0
147
0.0208333333333333
147
0.0
147
0.0
147
0.0
147
0.0
147
1.0
147
0.0
147
0.0
147
0.0
147
0.0
147
1.0
  0
MATERIAL
  5
142CE
102
{ACAD_XDICTIONARY
360
142CF
102
}
102
{ACAD_REACTORS
330
13B3F
102
}
330
13B3F
100
AcDbMaterial
  1
Global
 72
     0
 43
0.0208333333333333
 43
0.0
 43
0.0
 43
0.0
 43
0.0
 43
0.0208333333333333
 43
0.0
 43
0.0
 43
0.0
 43
0.0
 43
1.0
 43
0.0
 43
0.0
 43
0.0
 43
0.0
 43
1.0
 77
     0
 47
0.0208333333333333
 47
0.0
 47
0.0
 47
0.0
 47
0.0
 47
0.0208333333333333
 47
0.0
 47
0.0
 47
0.0
 47
0.0
 47
1.0
 47
0.0
 47
0.0
 47
0.0
 47
0.0
 47
1.0
171
     0
 49
0.0208333333333333
 49
0.0
 49
0.0
 49
0.0
 49
0.0
 49
0.0208333333333333
 49
0.0
 49
0.0
 49
0.0
 49
0.0
 49
1.0
 49
0.0
 49
0.0
 49
0.0
 49
0.0
 49
1.0
175
     0
142
0.0208333333333333
142
0.0
142
0.0
142
0.0
142
0.0
142
0.0208333333333333
142
0.0
142
0.0
142
0.0
142
0.0
142
1.0
142
0.0
142
0.0
142
0.0
142
0.0
142
1.0
179
     0
144
0.0208333333333333
144
0.0
144
0.0
144
0.0
144
0.0
144
0.0208333333333333
144
0.0
144
0.0
144
0.0
144
0.0
144
1.0
144
0.0
144
0.0
144
0.0
144
0.0
144
1.0
147
0.0208333333333333
147
0.0
147
0.0
147
0.0
147
0.0
147
0.0208333333333333
147
0.0
147
0.0
147
0.0
147
0.0
147
1.0
147
0.0
147
0.0
147
0.0
147
0.0
147
1.0
  0
MLEADERSTYLE
  5
14304
102
{ACAD_XDICTIONARY
360
1507D
102
}
102
{ACAD_REACTORS
330
14303
102
}
330
14303
100
AcDbMLeaderStyle
170
     2
171
     1
172
     0
 90
        2
 40
0.0
 41
0.0
173
     1
 91
-1056964608
340
7477
 92
       -2
290
     1
 42
2.0
291
     1
 43
0.36
  3
Standard
 44
4.0
300

342
7475
174
     1
178
     6
175
     1
176
     0
 93
-1056964608
 45
4.0
292
     0
297
     0
 46
4.0
 94
-1056964608
 47
1.0
 49
1.0
140
1.0
293
     1
141
0.0
294
     1
177
     0
142
1.0
295
     0
296
     0
143
0.125
1001
ACAD_MLEADERVER
1070
     2
  0
MLINESTYLE
  5
7480
102
{ACAD_REACTORS
330
7473
102
}
330
7473
100
AcDbMlineStyle
  2
STANDARD
 70
     0
  3

 62
     0
 51
90.0
 52
90.0
 71
     2
 49
0.5
 62
   256
  6
BYLAYER
 49
-0.5
 62
   256
  6
BYLAYER
  0
ACDBPLACEHOLDER
  5
13B3E
102
{ACAD_REACTORS
330
13B3D
102
}
330
13B3D
  0
SCALE
  5
142F2
102
{ACAD_REACTORS
330
142F1
102
}
330
142F1
100
AcDbScale
 70
     0
300
1:1
140
1.0
141
1.0
290
     1
  0
SCALE
  5
142F3
102
{ACAD_REACTORS
330
142F1
102
}
330
142F1
100
AcDbScale
 70
     0
300
1:2
140
1.0
141
2.0
290
     0
  0
SCALE
  5
142F4
102
{ACAD_REACTORS
330
142F1
102
}
330
142F1
100
AcDbScale
 70
     0
300
1:4
140
1.0
141
4.0
290
     0
  0
SCALE
  5
142F5
102
{ACAD_REACTORS
330
142F1
102
}
330
142F1
100
AcDbScale
 70
     0
300
1:5
140
1.0
141
5.0
290
     0
  0
SCALE
  5
142F6
102
{ACAD_REACTORS
330
142F1
102
}
330
142F1
100
AcDbScale
 70
     0
300
1:8
140
1.0
141
8.0
290
     0
  0
SCALE
  5
142F7
102
{ACAD_REACTORS
330
142F1
102
}
330
142F1
100
AcDbScale
 70
     0
300
1:10
140
1.0
141
10.0
290
     0
  0
SCALE
  5
142F8
102
{ACAD_REACTORS
330
142F1
102
}
330
142F1
100
AcDbScale
 70
     0
300
1:16
140
1.0
141
16.0
290
     0
  0
SCALE
  5
142F9
102
{ACAD_REACTORS
330
142F1
102
}
330
142F1
100
AcDbScale
 70
     0
300
1:20
140
1.0
141
20.0
290
     0
  0
SCALE
  5
142FA
102
{ACAD_REACTORS
330
142F1
102
}
330
142F1
100
AcDbScale
 70
     0
300
1:30
140
1.0
141
30.0
290
     0
  0
SCALE
  5
142FB
102
{ACAD_REACTORS
330
142F1
102
}
330
142F1
100
AcDbScale
 70
     0
300
1:40
140
1.0
141
40.0
290
     0
  0
SCALE
  5
142FC
102
{ACAD_REACTORS
330
142F1
102
}
330
142F1
100
AcDbScale
 70
     0
300
1:50
140
1.0
141
50.0
290
     0
  0
SCALE
  5
142FD
102
{ACAD_REACTORS
330
142F1
102
}
330
142F1
100
AcDbScale
 70
     0
300
1:100
140
1.0
141
100.0
290
     0
  0
SCALE
  5
142FE
102
{ACAD_REACTORS
330
142F1
102
}
330
142F1
100
AcDbScale
 70
     0
300
2:1
140
2.0
141
1.0
290
     0
  0
SCALE
  5
142FF
102
{ACAD_REACTORS
330
142F1
102
}
330
142F1
100
AcDbScale
 70
     0
300
4:1
140
4.0
141
1.0
290
     0
  0
SCALE
  5
14300
102
{ACAD_REACTORS
330
142F1
102
}
330
142F1
100
AcDbScale
 70
     0
300
8:1
140
8.0
141
1.0
290
     0
  0
SCALE
  5
14301
102
{ACAD_REACTORS
330
142F1
102
}
330
142F1
100
AcDbScale
 70
     0
300
10:1
140
10.0
141
1.0
290
     0
  0
SCALE
  5
14302
102
{ACAD_REACTORS
330
142F1
102
}
330
142F1
100
AcDbScale
 70
     0
300
100:1
140
100.0
141
1.0
290
     0
  0
ACDBSECTIONVIEWSTYLE
  5
14306
102
{ACAD_XDICTIONARY
360
1482C
102
}
102
{ACAD_REACTORS
330
14305
102
}
330
14305
100
AcDbModelDocViewStyle
 70
     0
  3
Metric50
290
     0
100
AcDbSectionViewStyle
 70
     0
 71
     0
 90
      102
 71
     1
340
7475
 40
5.0
340
0
340
0
 40
5.0
300
I, O, Q, S, X, Z
 40
10.0
 90
        0
 40
2.5
 90
        0
 71
     2
340
7479
 90
       25
340
7479
 90
       50
 40
5.0
 40
2.5
 40
5.0
 71
     3
340
7475
 40
5.0
 90
        0
 40
15.0
 90
        1
300
%<\AcVar ViewSectionStartId>%-%<\AcVar ViewSectionEndId>% (%<\AcVar ViewScale \f "%sn">%)
 71
     4
300
ANSI31
 40
1.0
 90
        0
290
     0
290
     0
 90
        6
 40
0.0
 40
1.570796326794896
 40
0.2617993877991494
 40
1.308996938995747
 40
-0.2617993877991494
 40
1.832595714594046
  0
TABLESTYLE
  5
142F0
102
{ACAD_XDICTIONARY
360
15037
102
}
102
{ACAD_REACTORS
330
142EF
102
}
330
142EF
100
AcDbTableStyle
  3
Standard
 70
     0
 71
     0
 40
1.5
 41
1.5
280
     0
281
     0
  7
STANDARD
140
4.5
170
     2
 62
     0
 63
     7
283
     0
274
    -2
284
     1
 64
     0
275
    -2
285
     1
 65
     0
276
    -2
286
     1
 66
     0
277
    -2
287
     1
 67
     0
278
    -2
288
     1
 68
     0
279
    -2
289
     1
 69
     0
  7
STANDARD
140
6.0
170
     5
 62
     0
 63
     7
283
     0
274
    -2
284
     1
 64
     0
275
    -2
285
     1
 65
     0
276
    -2
286
     1
 66
     0
277
    -2
287
     1
 67
     0
278
    -2
288
     1
 68
     0
279
    -2
289
     1
 69
     0
  7
STANDARD
140
4.5
170
     5
 62
     0
 63
     7
283
     0
274
    -2
284
     1
 64
     0
275
    -2
285
     1
 65
     0
276
    -2
286
     1
 66
     0
277
    -2
287
     1
 67
     0
278
    -2
288
     1
 68
     0
279
    -2
289
     1
 69
     0
  0
VISUALSTYLE
  5
142DC
102
{ACAD_XDICTIONARY
360
15055
102
}
102
{ACAD_REACTORS
330
142D6
102
}
330
142D6
100
AcDbVisualStyle
  2
2dWireframe
 70
     4
 71
     0
 72
     2
 73
     0
 90
        0
 40
-0.6
 41
-30.0
 62
     5
 63
     7
 74
     1
 91
        4
 64
     7
 65
   257
 75
     1
175
     1
 42
1.0
 92
        0
 66
   257
 43
1.0
 76
     1
 77
     6
 78
     2
 67
     7
 79
     5
170
     0
171
     0
290
     0
174
     0
 93
        1
 44
0.0
173
     0
291
     0
 45
0.0
1001
ACAD
1000
AcDbSavedByObjectVersion
1070
     0
  0
VISUALSTYLE
  5
142DB
102
{ACAD_XDICTIONARY
360
15053
102
}
102
{ACAD_REACTORS
330
142D6
102
}
330
142D6
100
AcDbVisualStyle
  2
Basic
 70
     7
 71
     1
 72
     0
 73
     1
 90
        0
 40
-0.6
 41
-30.0
 62
     5
 63
     7
 74
     0
 91
        4
 64
     7
 65
   257
 75
     1
175
     1
 42
1.0
 92
        8
 66
     7
 43
1.0
 76
     1
 77
     6
 78
     2
 67
     7
 79
     5
170
     0
171
     0
290
     0
174
     0
 93
        1
 44
0.0
173
     0
291
     1
 45
0.0
1001
ACAD
1000
AcDbSavedByObjectVersion
1070
     0
  0
VISUALSTYLE
  5
142E2
102
{ACAD_XDICTIONARY
360
15061
102
}
102
{ACAD_REACTORS
330
142D6
102
}
330
142D6
100
AcDbVisualStyle
  2
Brighten
 70
    12
 71
     2
 72
     2
 73
     0
 90
        0
 40
-0.6
 41
-30.0
 62
     5
 63
     7
 74
     1
 91
        4
 64
     7
 65
   257
 75
     1
175
     1
 42
1.0
 92
        8
 66
     7
 43
1.0
 76
     1
 77
     6
 78
     2
 67
     7
 79
     5
170
     0
171
     0
290
     0
174
     0
 93
        1
 44
50.0
173
     0
291
     1
 45
0.0
1001
ACAD
1000
AcDbSavedByObjectVersion
1070
     0
  0
VISUALSTYLE
  5
142E6
102
{ACAD_XDICTIONARY
360
15069
102
}
102
{ACAD_REACTORS
330
142D6
102
}
330
142D6
100
AcDbVisualStyle
  2
ColorChange
 70
    16
 71
     2
 72
     2
 73
     3
 90
        0
 40
-0.6
 41
-30.0
 62
     5
 63
     8
 74
     1
 91
        4
 64
     7
 65
   257
 75
     1
175
     1
 42
1.0
 92
        8
 66
     8
 43
1.0
 76
     1
 77
     6
 78
     2
 67
     7
 79
     5
170
     0
171
     0
290
     0
174
     0
 93
        1
 44
0.0
173
     0
291
     1
 45
0.0
1001
ACAD
1000
AcDbSavedByObjectVersion
1070
     0
  0
VISUALSTYLE
  5
142DF
102
{ACAD_XDICTIONARY
360
1505B
102
}
102
{ACAD_REACTORS
330
142D6
102
}
330
142D6
100
AcDbVisualStyle
  2
Conceptual
 70
     9
 71
     3
 72
     2
 73
     0
 90
        0
 40
-0.6
 41
-30.0
 62
     5
 63
     7
 74
     2
 91
        2
 64
     7
 65
   257
 75
     1
175
     1
 42
179.0
 92
        8
 66
     7
 43
1.0
 76
     1
 77
     6
 78
     2
 67
     7
 79
     3
170
     0
171
     0
290
     0
174
     0
 93
        1
 44
0.0
173
     0
291
     0
 45
0.0
1001
ACAD
1000
AcDbSavedByObjectVersion
1070
     0
  0
VISUALSTYLE
  5
142E1
102
{ACAD_XDICTIONARY
360
1505F
102
}
102
{ACAD_REACTORS
330
142D6
102
}
330
142D6
100
AcDbVisualStyle
  2
Dim
 70
    11
 71
     2
 72
     2
 73
     0
 90
        0
 40
-0.6
 41
-30.0
 62
     5
 63
     7
 74
     1
 91
        4
 64
     7
 65
   257
 75
     1
175
     1
 42
1.0
 92
        8
 66
     7
 43
1.0
 76
     1
 77
     6
 78
     2
 67
     7
 79
     5
170
     0
171
     0
290
     0
174
     0
 93
        1
 44
-50.0
173
     0
291
     1
 45
0.0
1001
ACAD
1000
AcDbSavedByObjectVersion
1070
     0
  0
VISUALSTYLE
  5
142EE
102
{ACAD_XDICTIONARY
360
15079
102
}
102
{ACAD_REACTORS
330
142D6
102
}
330
142D6
100
AcDbVisualStyle
  2
EdgeColorOff
 70
    22
 71
     2
 72
     2
 73
     0
 90
        0
 40
-0.6
 41
-30.0
 62
     5
 63
     7
 74
     1
 91
        4
 64
     7
 65
   257
 75
     1
175
     1
 42
1.0
 92
        8
 66
     7
 43
1.0
 76
     1
 77
     6
 78
     2
 67
     7
 79
     5
170
     0
171
     0
290
     0
174
     0
 93
        1
 44
0.0
173
     0
291
     1
 45
0.0
1001
ACAD
1000
AcDbSavedByObjectVersion
1070
     0
  0
VISUALSTYLE
  5
142E5
102
{ACAD_XDICTIONARY
360
15067
102
}
102
{ACAD_REACTORS
330
142D6
102
}
330
142D6
100
AcDbVisualStyle
  2
Facepattern
 70
    15
 71
     2
 72
     2
 73
     0
 90
        0
 40
-0.6
 41
-30.0
 62
     5
 63
     7
 74
     1
 91
        4
 64
     7
 65
   257
 75
     1
175
     1
 42
1.0
 92
        8
 66
     7
 43
1.0
 76
     1
 77
     6
 78
     2
 67
     7
 79
     5
170
     0
171
     0
290
     0
174
     0
 93
        1
 44
0.0
173
     0
291
     1
 45
0.0
1001
ACAD
1000
AcDbSavedByObjectVersion
1070
     0
  0
VISUALSTYLE
  5
142D7
102
{ACAD_XDICTIONARY
360
1504B
102
}
102
{ACAD_REACTORS
330
142D6
102
}
330
142D6
100
AcDbVisualStyle
  2
Flat
 70
     0
 71
     2
 72
     1
 73
     1
 90
        2
 40
-0.6
 41
30.0
 62
     5
 63
     7
 74
     0
 91
        0
 64
     7
 65
   257
 75
     1
175
     1
 42
1.0
 92
        8
 66
     7
 43
1.0
 76
     1
 77
     6
 78
     2
 67
     7
 79
     5
170
     0
171
     0
290
     0
174
     0
 93
       13
 44
0.0
173
     0
291
     1
 45
0.0
1001
ACAD
1000
AcDbSavedByObjectVersion
1070
     0
  0
VISUALSTYLE
  5
142D8
102
{ACAD_XDICTIONARY
360
1504D
102
}
102
{ACAD_REACTORS
330
142D6
102
}
330
142D6
100
AcDbVisualStyle
  2
FlatWithEdges
 70
     1
 71
     2
 72
     1
 73
     1
 90
        2
 40
-0.6
 41
30.0
 62
     5
 63
     7
 74
     1
 91
        0
 64
     7
 65
   257
 75
     1
175
     1
 42
1.0
 92
        0
 66
   257
 43
1.0
 76
     1
 77
     6
 78
     2
 67
     7
 79
     5
170
     0
171
     0
290
     0
174
     0
 93
       13
 44
0.0
173
     0
291
     1
 45
0.0
1001
ACAD
1000
AcDbSavedByObjectVersion
1070
     0
  0
VISUALSTYLE
  5
142D9
102
{ACAD_XDICTIONARY
360
1504F
102
}
102
{ACAD_REACTORS
330
142D6
102
}
330
142D6
100
AcDbVisualStyle
  2
Gouraud
 70
     2
 71
     2
 72
     2
 73
     1
 90
        2
 40
-0.6
 41
30.0
 62
     5
 63
     7
 74
     0
 91
        0
 64
     7
 65
   257
 75
     1
175
     1
 42
1.0
 92
        0
 66
     7
 43
1.0
 76
     1
 77
     6
 78
     2
 67
     7
 79
     5
170
     0
171
     0
290
     0
174
     0
 93
       13
 44
0.0
173
     0
291
     1
 45
0.0
1001
ACAD
1000
AcDbSavedByObjectVersion
1070
     0
  0
VISUALSTYLE
  5
142DA
102
{ACAD_XDICTIONARY
360
15051
102
}
102
{ACAD_REACTORS
330
142D6
102
}
330
142D6
100
AcDbVisualStyle
  2
GouraudWithEdges
 70
     3
 71
     2
 72
     2
 73
     1
 90
        2
 40
-0.6
 41
30.0
 62
     5
 63
     7
 74
     1
 91
        0
 64
     7
 65
   257
 75
     1
175
     1
 42
1.0
 92
        0
 66
   257
 43
1.0
 76
     1
 77
     6
 78
     2
 67
     7
 79
     5
170
     0
171
     0
290
     0
174
     0
 93
       13
 44
0.0
173
     0
291
     1
 45
0.0
1001
ACAD
1000
AcDbSavedByObjectVersion
1070
     0
  0
VISUALSTYLE
  5
142DE
102
{ACAD_XDICTIONARY
360
15059
102
}
102
{ACAD_REACTORS
330
142D6
102
}
330
142D6
100
AcDbVisualStyle
  2
Hidden
 70
     6
 71
     1
 72
     2
 73
     2
 90
        0
 40
-0.6
 41
-30.0
 62
     5
 63
     7
 74
     2
 91
        2
 64
     7
 65
   257
 75
     2
175
     1
 42
40.0
 92
        0
 66
   257
 43
1.0
 76
     1
 77
     6
 78
     2
 67
     7
 79
     3
170
     0
171
     0
290
     0
174
     0
 93
        1
 44
0.0
173
     0
291
     0
 45
0.0
1001
ACAD
1000
AcDbSavedByObjectVersion
1070
     0
  0
VISUALSTYLE
  5
142EC
102
{ACAD_XDICTIONARY
360
15075
102
}
102
{ACAD_REACTORS
330
142D6
102
}
330
142D6
100
AcDbVisualStyle
  2
JitterOff
 70
    20
 71
     2
 72
     2
 73
     0
 90
        0
 40
-0.6
 41
-30.0
 62
     5
 63
     7
 74
     1
 91
        4
 64
     7
 65
   257
 75
     1
175
     1
 42
1.0
 92
       10
 66
     7
 43
1.0
 76
     1
 77
     6
 78
     2
 67
     7
 79
     5
170
     0
171
     0
290
     0
174
     0
 93
        1
 44
0.0
173
     0
291
     1
 45
0.0
1001
ACAD
1000
AcDbSavedByObjectVersion
1070
     0
  0
VISUALSTYLE
  5
142E4
102
{ACAD_XDICTIONARY
360
15065
102
}
102
{ACAD_REACTORS
330
142D6
102
}
330
142D6
100
AcDbVisualStyle
  2
Linepattern
 70
    14
 71
     2
 72
     2
 73
     0
 90
        0
 40
-0.6
 41
-30.0
 62
     5
 63
     7
 74
     1
 91
        4
 64
     7
 65
   257
 75
     7
175
     7
 42
1.0
 92
        8
 66
     7
 43
1.0
 76
     1
 77
     6
 78
     2
 67
     7
 79
     5
170
     0
171
     0
290
     0
174
     0
 93
        1
 44
0.0
173
     0
291
     1
 45
0.0
1001
ACAD
1000
AcDbSavedByObjectVersion
1070
     0
  0
VISUALSTYLE
  5
142ED
102
{ACAD_XDICTIONARY
360
15077
102
}
102
{ACAD_REACTORS
330
142D6
102
}
330
142D6
100
AcDbVisualStyle
  2
OverhangOff
 70
    21
 71
     2
 72
     2
 73
     0
 90
        0
 40
-0.6
 41
-30.0
 62
     5
 63
     7
 74
     1
 91
        4
 64
     7
 65
   257
 75
     1
175
     1
 42
1.0
 92
        9
 66
     7
 43
1.0
 76
     1
 77
     6
 78
     2
 67
     7
 79
     5
170
     0
171
     0
290
     0
174
     0
 93
        1
 44
0.0
173
     0
291
     1
 45
0.0
1001
ACAD
1000
AcDbSavedByObjectVersion
1070
     0
  0
VISUALSTYLE
  5
142E0
102
{ACAD_XDICTIONARY
360
1505D
102
}
102
{ACAD_REACTORS
330
142D6
102
}
330
142D6
100
AcDbVisualStyle
  2
Realistic
 70
     8
 71
     2
 72
     3
 73
     0
 90
        2
 40
-0.6
 41
30.0
 62
     5
 63
     7
 74
     0
 91
        0
 64
     7
 65
   257
 75
     1
175
     1
 42
1.0
 92
        8
 66
   257
 43
1.0
 76
     1
 77
     6
 78
     2
 67
     7
 79
     3
170
     0
171
     0
290
     0
174
     0
 93
       13
 44
0.0
173
     0
291
     0
 45
0.0
1001
ACAD
1000
AcDbSavedByObjectVersion
1070
     0
  0
VISUALSTYLE
  5
142EB
102
{ACAD_XDICTIONARY
360
15073
102
}
102
{ACAD_REACTORS
330
142D6
102
}
330
142D6
100
AcDbVisualStyle
  2
Shaded
 70
    27
 71
     2
 72
     2
 73
     1
 90
        2
 40
-0.6
 41
30.0
 62
     5
 63
     7
 74
     0
 91
        4
 64
     7
 65
   257
 75
     1
175
     1
 42
1.0
 92
        8
 66
   257
 43
1.0
 76
     1
 77
     6
 78
     2
 67
     8
 79
     3
170
     0
171
     0
290
     0
174
     0
 93
        5
 44
0.0
173
     0
291
     0
 45
0.0
1001
ACAD
1000
AcDbSavedByObjectVersion
1070
     0
  0
VISUALSTYLE
  5
142EA
102
{ACAD_XDICTIONARY
360
15071
102
}
102
{ACAD_REACTORS
330
142D6
102
}
330
142D6
100
AcDbVisualStyle
  2
Shaded with edges
 70
    26
 71
     2
 72
     2
 73
     1
 90
        2
 40
-0.6
 41
30.0
 62
     5
 63
     7
 74
     1
 91
       10
 64
     7
 65
   257
 75
     2
175
     1
 42
1.0
 92
        8
 66
   257
 43
1.0
 76
     1
 77
     6
 78
     2
 67
     7
 79
     3
170
     0
171
     0
290
     0
174
     0
 93
        5
 44
0.0
173
     0
291
     0
 45
0.0
1001
ACAD
1000
AcDbSavedByObjectVersion
1070
     0
  0
VISUALSTYLE
  5
142E7
102
{ACAD_XDICTIONARY
360
1506B
102
}
102
{ACAD_REACTORS
330
142D6
102
}
330
142D6
100
AcDbVisualStyle
  2
Shades of Gray
 70
    23
 71
     2
 72
     2
 73
     3
 90
        0
 40
-0.6
 41
-30.0
 62
     5
 63
     7
 74
     2
 91
        2
 64
     7
 65
     7
 75
     1
175
     1
 42
40.0
 92
        8
 66
     7
 43
1.0
 76
     1
 77
     6
 78
     2
 67
     7
 79
     3
170
     0
171
     0
290
     0
174
     0
 93
        1
 44
0.0
173
     0
291
     0
 45
0.0
1001
ACAD
1000
AcDbSavedByObjectVersion
1070
     0
  0
VISUALSTYLE
  5
142E8
102
{ACAD_XDICTIONARY
360
1506D
102
}
102
{ACAD_REACTORS
330
142D6
102
}
330
142D6
100
AcDbVisualStyle
  2
Sketchy
 70
    24
 71
     1
 72
     2
 73
     2
 90
        0
 40
-0.6
 41
-30.0
 62
     5
 63
     7
 74
     2
 91
        2
 64
     7
 65
     7
 75
     1
175
     1
 42
40.0
 92
       11
 66
     7
 43
1.0
 76
     1
 77
     6
 78
     2
 67
     7
 79
     6
170
     0
171
     0
290
     0
174
     0
 93
        1
 44
0.0
173
     0
291
     0
 45
0.0
1001
ACAD
1000
AcDbSavedByObjectVersion
1070
     0
  0
VISUALSTYLE
  5
142E3
102
{ACAD_XDICTIONARY
360
15063
102
}
102
{ACAD_REACTORS
330
142D6
102
}
330
142D6
100
AcDbVisualStyle
  2
Thicken
 70
    13
 71
     2
 72
     2
 73
     0
 90
        0
 40
-0.6
 41
-30.0
 62
     5
 63
     7
 74
     1
 91
        4
 64
     7
 65
   257
 75
     1
175
     1
 42
1.0
 92
       12
 66
     7
 43
1.0
 76
     1
 77
     6
 78
     2
 67
     7
 79
     5
170
     0
171
     0
290
     0
174
     0
 93
        1
 44
0.0
173
     0
291
     1
 45
0.0
1001
ACAD
1000
AcDbSavedByObjectVersion
1070
     0
  0
VISUALSTYLE
  5
142DD
102
{ACAD_XDICTIONARY
360
15057
102
}
102
{ACAD_REACTORS
330
142D6
102
}
330
142D6
100
AcDbVisualStyle
  2
Wireframe
 70
     5
 71
     0
 72
     2
 73
     0
 90
        0
 40
-0.6
 41
-30.0
 62
     5
 63
     7
 74
     1
 91
        4
 64
     7
 65
   257
 75
     1
175
     1
 42
1.0
 92
        0
 66
   257
 43
1.0
 76
     1
 77
     6
 78
     2
 67
     7
 79
     3
170
     0
171
     0
290
     0
174
     0
 93
        1
 44
0.0
173
     0
291
     0
 45
0.0
1001
ACAD
1000
AcDbSavedByObjectVersion
1070
     0
  0
VISUALSTYLE
  5
142E9
102
{ACAD_XDICTIONARY
360
1506F
102
}
102
{ACAD_REACTORS
330
142D6
102
}
330
142D6
100
AcDbVisualStyle
  2
X-Ray
 70
    25
 71
     2
 72
     2
 73
     1
 90
        1
 40
0.5
 41
-30.0
 62
     5
 63
     7
 74
     1
 91
        0
 64
     7
 65
   257
 75
     1
175
     1
 42
1.0
 92
        8
 66
     7
 43
1.0
 76
     1
 77
     6
 78
     2
 67
     7
 79
     3
170
     0
171
     0
290
     0
174
     0
 93
       13
 44
0.0
173
     0
291
     0
 45
0.0
1001
ACAD
1000
AcDbSavedByObjectVersion
1070
     0
  0
DICTIONARYVAR
  5
14837
102
{ACAD_REACTORS
330
14831
102
}
330
14831
100
DictionaryVariables
280
     0
  1
1:1
  0
DICTIONARYVAR
  5
14833
102
{ACAD_REACTORS
330
14831
102
}
330
14831
100
DictionaryVariables
280
     0
  1
STANDARD
  0
DICTIONARYVAR
  5
14832
102
{ACAD_REACTORS
330
14831
102
}
330
14831
100
DictionaryVariables
280
     0
  1
STANDARD
  0
DICTIONARYVAR
  5
14834
102
{ACAD_REACTORS
330
14831
102
}
330
14831
100
DictionaryVariables
280
     0
  1
Metric50
  0
DICTIONARYVAR
  5
14835
102
{ACAD_REACTORS
330
14831
102
}
330
14831
100
DictionaryVariables
280
     0
  1
Metric50
  0
DICTIONARYVAR
  5
14EB9
102
{ACAD_REACTORS
330
14831
102
}
330
14831
100
DictionaryVariables
280
     0
  1
1
  0
DICTIONARYVAR
  5
14EB7
102
{ACAD_REACTORS
330
14831
102
}
330
14831
100
DictionaryVariables
280
     0
  1
0
  0
DICTIONARYVAR
  5
14839
102
{ACAD_REACTORS
330
14831
102
}
330
14831
100
DictionaryVariables
280
     0
  1
1
  0
DICTIONARYVAR
  5
1483A
102
{ACAD_REACTORS
330
14831
102
}
330
14831
100
DictionaryVariables
280
     0
  1
15
  0
DICTIONARYVAR
  5
14838
102
{ACAD_REACTORS
330
14831
102
}
330
14831
100
DictionaryVariables
280
     0
  1
0
  0
DICTIONARYVAR
  5
14836
102
{ACAD_REACTORS
330
14831
102
}
330
14831
100
DictionaryVariables
280
     0
  1
0
  0
DICTIONARYVAR
  5
14EB6
102
{ACAD_REACTORS
330
14831
102
}
330
14831
100
DictionaryVariables
280
     0
  1
127
  0
DICTIONARYVAR
  5
14EB8
102
{ACAD_REACTORS
330
14831
102
}
330
14831
100
DictionaryVariables
280
     0
  1
0
  0
DICTIONARY
  5
15042
102
{ACAD_REACTORS
330
15040
102
}
330
15040
100
AcDbDictionary
281
     1
  0
DICTIONARY
  5
15041
102
{ACAD_REACTORS
330
15040
102
}
330
15040
100
AcDbDictionary
281
     1
  3
140686432536112
350
1503B
  3
140686432536128
350
1503C
  3
140686432536144
350
1503D
  3
140686432536160
350
1503E
  3
140686432536176
350
1503F
  0
DICTIONARY
  5
1482E
330
14308
100
AcDbDictionary
280
     1
281
     1
  3
ACAD_XREC_ROUNDTRIP
360
15080
  0
DICTIONARY
  5
15044
330
13B43
100
AcDbDictionary
280
     1
281
     1
  3
ACAD_XREC_ROUNDTRIP
360
15045
  0
DICTIONARY
  5
15046
330
13B44
100
AcDbDictionary
280
     1
281
     1
  3
ACAD_XREC_ROUNDTRIP
360
15047
  0
DICTIONARY
  5
142C7
330
142C6
100
AcDbDictionary
280
     1
281
     1
  3
ACAD_XREC_ROUNDTRIP
360
15049
  3
BUMPTILE
360
142C9
  3
DIFFUSETILE
360
142C8
  3
OPACITYTILE
360
142CC
  3
REFLECTIONTILE
360
142CB
  3
REFRACTIONTILE
360
142CD
  3
SPECULARTILE
360
142CA
  0
DICTIONARY
  5
142BF
330
142BE
100
AcDbDictionary
280
     1
281
     1
  3
ACAD_XREC_ROUNDTRIP
360
15048
  3
BUMPTILE
360
142C1
  3
DIFFUSETILE
360
142C0
  3
OPACITYTILE
360
142C4
  3
REFLECTIONTILE
360
142C3
  3
REFRACTIONTILE
360
142C5
  3
SPECULARTILE
360
142C2
  0
DICTIONARY
  5
142CF
330
142CE
100
AcDbDictionary
280
     1
281
     1
  3
ACAD_XREC_ROUNDTRIP
360
1504A
  3
BUMPTILE
360
142D1
  3
DIFFUSETILE
360
142D0
  3
OPACITYTILE
360
142D4
  3
REFLECTIONTILE
360
142D3
  3
REFRACTIONTILE
360
142D5
  3
SPECULARTILE
360
142D2
  0
DICTIONARY
  5
1507D
330
14304
100
AcDbDictionary
280
     1
281
     1
  3
ACAD_XREC_ROUNDTRIP
360
1507E
  0
DICTIONARY
  5
1482C
330
14306
100
AcDbDictionary
280
     1
281
     1
  3
ACAD_XREC_ROUNDTRIP
360
1507F
  0
DICTIONARY
  5
15037
330
142F0
100
AcDbDictionary
280
     1
281
     1
  3
ACAD_ROUNDTRIP_2008_TABLESTYLE_CELLSTYLEMAP
360
15038
  3
ACAD_XREC_ROUNDTRIP
360
1507B
  0
DICTIONARY
  5
15055
330
142DC
100
AcDbDictionary
280
     1
281
     1
  3
ACAD_XREC_ROUNDTRIP
360
15056
  0
DICTIONARY
  5
15053
330
142DB
100
AcDbDictionary
280
     1
281
     1
  3
ACAD_XREC_ROUNDTRIP
360
15054
  0
DICTIONARY
  5
15061
330
142E2
100
AcDbDictionary
280
     1
281
     1
  3
ACAD_XREC_ROUNDTRIP
360
15062
  0
DICTIONARY
  5
15069
330
142E6
100
AcDbDictionary
280
     1
281
     1
  3
ACAD_XREC_ROUNDTRIP
360
1506A
  0
DICTIONARY
  5
1505B
330
142DF
100
AcDbDictionary
280
     1
281
     1
  3
ACAD_XREC_ROUNDTRIP
360
1505C
  0
DICTIONARY
  5
1505F
330
142E1
100
AcDbDictionary
280
     1
281
     1
  3
ACAD_XREC_ROUNDTRIP
360
15060
  0
DICTIONARY
  5
15079
330
142EE
100
AcDbDictionary
280
     1
281
     1
  3
ACAD_XREC_ROUNDTRIP
360
1507A
  0
DICTIONARY
  5
15067
330
142E5
100
AcDbDictionary
280
     1
281
     1
  3
ACAD_XREC_ROUNDTRIP
360
15068
  0
DICTIONARY
  5
1504B
330
142D7
100
AcDbDictionary
280
     1
281
     1
  3
ACAD_XREC_ROUNDTRIP
360
1504C
  0
DICTIONARY
  5
1504D
330
142D8
100
AcDbDictionary
280
     1
281
     1
  3
ACAD_XREC_ROUNDTRIP
360
1504E
  0
DICTIONARY
  5
1504F
330
142D9
100
AcDbDictionary
280
     1
281
     1
  3
ACAD_XREC_ROUNDTRIP
360
15050
  0
DICTIONARY
  5
15051
330
142DA
100
AcDbDictionary
280
     1
281
     1
  3
ACAD_XREC_ROUNDTRIP
360
15052
  0
DICTIONARY
  5
15059
330
142DE
100
AcDbDictionary
280
     1
281
     1
  3
ACAD_XREC_ROUNDTRIP
360
1505A
  0
DICTIONARY
  5
15075
330
142EC
100
AcDbDictionary
280
     1
281
     1
  3
ACAD_XREC_ROUNDTRIP
360
15076
  0
DICTIONARY
  5
15065
330
142E4
100
AcDbDictionary
280
     1
281
     1
  3
ACAD_XREC_ROUNDTRIP
360
15066
  0
DICTIONARY
  5
15077
330
142ED
100
AcDbDictionary
280
     1
281
     1
  3
ACAD_XREC_ROUNDTRIP
360
15078
  0
DICTIONARY
  5
1505D
330
142E0
100
AcDbDictionary
280
     1
281
     1
  3
ACAD_XREC_ROUNDTRIP
360
1505E
  0
DICTIONARY
  5
15073
330
142EB
100
AcDbDictionary
280
     1
281
     1
  3
ACAD_XREC_ROUNDTRIP
360
15074
  0
DICTIONARY
  5
15071
330
142EA
100
AcDbDictionary
280
     1
281
     1
  3
ACAD_XREC_ROUNDTRIP
360
15072
  0
DICTIONARY
  5
1506B
330
142E7
100
AcDbDictionary
280
     1
281
     1
  3
ACAD_XREC_ROUNDTRIP
360
1506C
  0
DICTIONARY
  5
1506D
330
142E8
100
AcDbDictionary
280
     1
281
     1
  3
ACAD_XREC_ROUNDTRIP
360
1506E
  0
DICTIONARY
  5
15063
330
142E3
100
AcDbDictionary
280
     1
281
     1
  3
ACAD_XREC_ROUNDTRIP
360
15064
  0
DICTIONARY
  5
15057
330
142DD
100
AcDbDictionary
280
     1
281
     1
  3
ACAD_XREC_ROUNDTRIP
360
15058
  0
DICTIONARY
  5
1506F
330
142E9
100
AcDbDictionary
280
     1
281
     1
  3
ACAD_XREC_ROUNDTRIP
360
15070
  0
XRECORD
  5
1503B
102
{ACAD_REACTORS
330
15041
102
}
330
15041
100
AcDbXrecord
280
     1
  1
AcDb_Thumbnail_Schema
102
{ATTRRECORD
341
1503C
  2
AcDbDs::TreatedAsObjectData
280
     1
291
     1
102
ATTRRECORD}
102
{ATTRRECORD
341
1503D
  2
AcDbDs::Legacy
280
     1
291
     1
102
ATTRRECORD}
  2
AcDbDs::ID
280
    10
 91
        8
102
{ATTRRECORD
341
1503E
  2
AcDs:Indexable
280
     1
291
     1
102
ATTRRECORD}
102
{ATTRRECORD
341
1503F
  2
AcDbDs::HandleAttribute
280
     7
282
     1
102
ATTRRECORD}
  2
Thumbnail_Data
280
    15
 91
        0
  0
XRECORD
  5
1503C
102
{ACAD_REACTORS
330
15041
102
}
330
15041
100
AcDbXrecord
280
     1
  1
AcDbDs::TreatedAsObjectDataSchema
  2
AcDbDs::TreatedAsObjectData
280
     1
 91
        0
  0
XRECORD
  5
1503D
102
{ACAD_REACTORS
330
15041
102
}
330
15041
100
AcDbXrecord
280
     1
  1
AcDbDs::LegacySchema
  2
AcDbDs::Legacy
280
     1
 91
        0
  0
XRECORD
  5
1503E
102
{ACAD_REACTORS
330
15041
102
}
330
15041
100
AcDbXrecord
280
     1
  1
AcDbDs::IndexedPropertySchema
  2
AcDs:Indexable
280
     1
 91
        0
  0
XRECORD
  5
1503F
102
{ACAD_REACTORS
330
15041
102
}
330
15041
100
AcDbXrecord
280
     1
  1
AcDbDs::HandleAttributeSchema
  2
AcDbDs::HandleAttribute
280
     7
 91
        1
284
     1
  0
XRECORD
  5
15080
102
{ACAD_REACTORS
330
1482E
102
}
330
1482E
100
AcDbXrecord
280
     1
102
DISPLAYNAME
  1
Metric50
102
FLAGS
 90
        0
  0
XRECORD
  5
15045
102
{ACAD_REACTORS
330
15044
102
}
330
15044
100
AcDbXrecord
280
     1
102
SHADEPLOT
 70
     0
102
SHADEPLOTRESLEVEL
 70
     2
102
SHADEPLOTCUSTOMDPI
 70
   300
  0
XRECORD
  5
15047
102
{ACAD_REACTORS
330
15046
102
}
330
15046
100
AcDbXrecord
280
     1
102
SHADEPLOT
 70
     0
102
SHADEPLOTRESLEVEL
 70
     2
102
SHADEPLOTCUSTOMDPI
 70
   300
  0
XRECORD
  5
15049
102
{ACAD_REACTORS
330
142C7
102
}
330
142C7
100
AcDbXrecord
280
     1
102
MATERIAL
148
0.0
149
0.0
149
0.0
 93
        0
 94
      127
282
     0
 72
     0
 77
     0
171
     0
175
     0
179
     0
273
     0
  0
XRECORD
  5
142C9
102
{ACAD_REACTORS
330
142C7
102
}
330
142C7
100
AcDbXrecord
280
     1
270
     1
271
     1
  0
XRECORD
  5
142C8
102
{ACAD_REACTORS
330
142C7
102
}
330
142C7
100
AcDbXrecord
280
     1
270
     1
271
     1
  0
XRECORD
  5
142CC
102
{ACAD_REACTORS
330
142C7
102
}
330
142C7
100
AcDbXrecord
280
     1
270
     1
271
     1
  0
XRECORD
  5
142CB
102
{ACAD_REACTORS
330
142C7
102
}
330
142C7
100
AcDbXrecord
280
     1
270
     1
271
     1
  0
XRECORD
  5
142CD
102
{ACAD_REACTORS
330
142C7
102
}
330
142C7
100
AcDbXrecord
280
     1
270
     1
271
     1
  0
XRECORD
  5
142CA
102
{ACAD_REACTORS
330
142C7
102
}
330
142C7
100
AcDbXrecord
280
     1
270
     1
271
     1
  0
XRECORD
  5
15048
102
{ACAD_REACTORS
330
142BF
102
}
330
142BF
100
AcDbXrecord
280
     1
102
MATERIAL
148
0.0
149
0.0
149
0.0
 93
        0
 94
      127
282
     0
 72
     0
 77
     0
171
     0
175
     0
179
     0
273
     0
  0
XRECORD
  5
142C1
102
{ACAD_REACTORS
330
142BF
102
}
330
142BF
100
AcDbXrecord
280
     1
270
     1
271
     1
  0
XRECORD
  5
142C0
102
{ACAD_REACTORS
330
142BF
102
}
330
142BF
100
AcDbXrecord
280
     1
270
     1
271
     1
  0
XRECORD
  5
142C4
102
{ACAD_REACTORS
330
142BF
102
}
330
142BF
100
AcDbXrecord
280
     1
270
     1
271
     1
  0
XRECORD
  5
142C3
102
{ACAD_REACTORS
330
142BF
102
}
330
142BF
100
AcDbXrecord
280
     1
270
     1
271
     1
  0
XRECORD
  5
142C5
102
{ACAD_REACTORS
330
142BF
102
}
330
142BF
100
AcDbXrecord
280
     1
270
     1
271
     1
  0
XRECORD
  5
142C2
102
{ACAD_REACTORS
330
142BF
102
}
330
142BF
100
AcDbXrecord
280
     1
270
     1
271
     1
  0
XRECORD
  5
1504A
102
{ACAD_REACTORS
330
142CF
102
}
330
142CF
100
AcDbXrecord
280
     1
102
MATERIAL
148
0.0
149
0.0
149
0.0
 93
        0
 94
      127
282
     0
 72
     0
 77
     0
171
     0
175
     0
179
     0
273
     0
  0
XRECORD
  5
142D1
102
{ACAD_REACTORS
330
142CF
102
}
330
142CF
100
AcDbXrecord
280
     1
270
     1
271
     1
  0
XRECORD
  5
142D0
102
{ACAD_REACTORS
330
142CF
102
}
330
142CF
100
AcDbXrecord
280
     1
270
     1
271
     1
  0
XRECORD
  5
142D4
102
{ACAD_REACTORS
330
142CF
102
}
330
142CF
100
AcDbXrecord
280
     1
270
     1
271
     1
  0
XRECORD
  5
142D3
102
{ACAD_REACTORS
330
142CF
102
}
330
142CF
100
AcDbXrecord
280
     1
270
     1
271
     1
  0
XRECORD
  5
142D5
102
{ACAD_REACTORS
330
142CF
102
}
330
142CF
100
AcDbXrecord
280
     1
270
     1
271
     1
  0
XRECORD
  5
142D2
102
{ACAD_REACTORS
330
142CF
102
}
330
142CF
100
AcDbXrecord
280
     1
270
     1
271
     1
  0
XRECORD
  5
1507E
102
{ACAD_REACTORS
330
1507D
102
}
330
1507D
100
AcDbXrecord
280
     1
102
ACAD_ROUNDTRIP_2012_MLEADER_STYLE
298
     1
  0
XRECORD
  5
1507F
102
{ACAD_REACTORS
330
1482C
102
}
330
1482C
100
AcDbXrecord
280
     1
102
DISPLAYNAME
  1
Metric50
102
FLAGS
 90
        0
  0
CELLSTYLEMAP
  5
15038
102
{ACAD_REACTORS
330
15037
102
}
330
15037
100
AcDbCellStyleMap
 90
        3
300
CELLSTYLE
  1
TABLEFORMAT_BEGIN
 90
        5
170
     1
 91
        0
 92
    32768
 62
   257
 93
        1
300
CONTENTFORMAT
  1
CONTENTFORMAT_BEGIN
 90
        0
 91
        0
 92
      512
 93
        0
300

 40
0.0
140
1.0
 94
        5
 62
     0
340
7475
144
6.0
309
CONTENTFORMAT_END
171
     1
301
MARGIN
  1
CELLMARGIN_BEGIN
 40
1.5
 40
1.5
 40
1.5
 40
1.5
 40
4.5
 40
4.5
309
CELLMARGIN_END
 94
        6
 95
        1
302
GRIDFORMAT
  1
GRIDFORMAT_BEGIN
 90
        0
 91
        1
 62
     0
 92
       -2
340
0
 93
        0
 40
1.125
309
GRIDFORMAT_END
 95
        2
302
GRIDFORMAT
  1
GRIDFORMAT_BEGIN
 90
        0
 91
        1
 62
     0
 92
       -2
340
0
 93
        0
 40
1.125
309
GRIDFORMAT_END
 95
        4
302
GRIDFORMAT
  1
GRIDFORMAT_BEGIN
 90
        0
 91
        1
 62
     0
 92
       -2
340
0
 93
        0
 40
1.125
309
GRIDFORMAT_END
 95
        8
302
GRIDFORMAT
  1
GRIDFORMAT_BEGIN
 90
        0
 91
        1
 62
     0
 92
       -2
340
0
 93
        0
 40
1.125
309
GRIDFORMAT_END
 95
       16
302
GRIDFORMAT
  1
GRIDFORMAT_BEGIN
 90
        0
 91
        1
 62
     0
 92
       -2
340
0
 93
        0
 40
1.125
309
GRIDFORMAT_END
 95
       32
302
GRIDFORMAT
  1
GRIDFORMAT_BEGIN
 90
        0
 91
        1
 62
     0
 92
       -2
340
0
 93
        0
 40
1.125
309
GRIDFORMAT_END
309
TABLEFORMAT_END
  1
CELLSTYLE_BEGIN
 90
        1
 91
        1
300
_TITLE
309
CELLSTYLE_END
300
CELLSTYLE
  1
TABLEFORMAT_BEGIN
 90
        5
170
     1
 91
        0
 92
        0
 62
   257
 93
        1
300
CONTENTFORMAT
  1
CONTENTFORMAT_BEGIN
 90
        0
 91
        0
 92
      512
 93
        0
300

 40
0.0
140
1.0
 94
        5
 62
     0
340
7475
144
4.5
309
CONTENTFORMAT_END
171
     1
301
MARGIN
  1
CELLMARGIN_BEGIN
 40
1.5
 40
1.5
 40
1.5
 40
1.5
 40
4.5
 40
4.5
309
CELLMARGIN_END
 94
        6
 95
        1
302
GRIDFORMAT
  1
GRIDFORMAT_BEGIN
 90
        0
 91
        1
 62
     0
 92
       -2
340
0
 93
        0
 40
1.125
309
GRIDFORMAT_END
 95
        2
302
GRIDFORMAT
  1
GRIDFORMAT_BEGIN
 90
        0
 91
        1
 62
     0
 92
       -2
340
0
 93
        0
 40
1.125
309
GRIDFORMAT_END
 95
        4
302
GRIDFORMAT
  1
GRIDFORMAT_BEGIN
 90
        0
 91
        1
 62
     0
 92
       -2
340
0
 93
        0
 40
1.125
309
GRIDFORMAT_END
 95
        8
302
GRIDFORMAT
  1
GRIDFORMAT_BEGIN
 90
        0
 91
        1
 62
     0
 92
       -2
340
0
 93
        0
 40
1.125
309
GRIDFORMAT_END
 95
       16
302
GRIDFORMAT
  1
GRIDFORMAT_BEGIN
 90
        0
 91
        1
 62
     0
 92
       -2
340
0
 93
        0
 40
1.125
309
GRIDFORMAT_END
 95
       32
302
GRIDFORMAT
  1
GRIDFORMAT_BEGIN
 90
        0
 91
        1
 62
     0
 92
       -2
340
0
 93
        0
 40
1.125
309
GRIDFORMAT_END
309
TABLEFORMAT_END
  1
CELLSTYLE_BEGIN
 90
        2
 91
        1
300
_HEADER
309
CELLSTYLE_END
300
CELLSTYLE
  1
TABLEFORMAT_BEGIN
 90
        5
170
     1
 91
        0
 92
        0
 62
   257
 93
        1
300
CONTENTFORMAT
  1
CONTENTFORMAT_BEGIN
 90
        0
 91
        0
 92
      512
 93
        0
300

 40
0.0
140
1.0
 94
        2
 62
     0
340
7475
144
4.5
309
CONTENTFORMAT_END
171
     1
301
MARGIN
  1
CELLMARGIN_BEGIN
 40
1.5
 40
1.5
 40
1.5
 40
1.5
 40
4.5
 40
4.5
309
CELLMARGIN_END
 94
        6
 95
        1
302
GRIDFORMAT
  1
GRIDFORMAT_BEGIN
 90
        0
 91
        1
 62
     0
 92
       -2
340
0
 93
        0
 40
1.125
309
GRIDFORMAT_END
 95
        2
302
GRIDFORMAT
  1
GRIDFORMAT_BEGIN
 90
        0
 91
        1
 62
     0
 92
       -2
340
0
 93
        0
 40
1.125
309
GRIDFORMAT_END
 95
        4
302
GRIDFORMAT
  1
GRIDFORMAT_BEGIN
 90
        0
 91
        1
 62
     0
 92
       -2
340
0
 93
        0
 40
1.125
309
GRIDFORMAT_END
 95
        8
302
GRIDFORMAT
  1
GRIDFORMAT_BEGIN
 90
        0
 91
        1
 62
     0
 92
       -2
340
0
 93
        0
 40
1.125
309
GRIDFORMAT_END
 95
       16
302
GRIDFORMAT
  1
GRIDFORMAT_BEGIN
 90
        0
 91
        1
 62
     0
 92
       -2
340
0
 93
        0
 40
1.125
309
GRIDFORMAT_END
 95
       32
302
GRIDFORMAT
  1
GRIDFORMAT_BEGIN
 90
        0
 91
        1
 62
     0
 92
       -2
340
0
 93
        0
 40
1.125
309
GRIDFORMAT_END
309
TABLEFORMAT_END
  1
CELLSTYLE_BEGIN
 90
        3
 91
        2
300
_DATA
309
CELLSTYLE_END
  0
XRECORD
  5
1507B
102
{ACAD_REACTORS
330
15037
102
}
330
15037
100
AcDbXrecord
280
     1
102
ACAD_ROUNDTRIP_PRE2007_TABLESTYLE
 90
      512
 91
        0
  1

 92
      512
 93
        0
  2

 94
      512
 95
        0
  3

  0
XRECORD
  5
15056
102
{ACAD_REACTORS
330
15055
102
}
330
15055
100
AcDbXrecord
280
     1
102
RTVSPost2010Prop28
280
     1
102
RTVSPost2010PropOp28
 70
     1
102
RTVSPost2010Prop29
280
     1
102
RTVSPost2010PropOp29
 70
     1
102
RTVSPost2010Prop30
280
     0
102
RTVSPost2010PropOp30
 70
     1
102
RTVSPost2010Prop31
280
     0
102
RTVSPost2010PropOp31
 70
     1
102
RTVSPost2010Prop32
280
     0
102
RTVSPost2010PropOp32
 70
     1
102
RTVSPost2010Prop33
280
     0
102
RTVSPost2010PropOp33
 70
     1
102
RTVSPost2010Prop34
280
     0
102
RTVSPost2010PropOp34
 70
     1
102
RTVSPost2010Prop35
280
     0
102
RTVSPost2010PropOp35
 70
     1
102
RTVSPost2010Prop36
280
     0
102
RTVSPost2010PropOp36
 70
     1
102
RTVSPost2010Prop37
 90
       50
102
RTVSPost2010PropOp37
 70
     1
102
RTVSPost2010Prop38
140
0.0
102
RTVSPost2010PropOp38
 70
     1
102
RTVSPost2010Prop39
140
1.0
102
RTVSPost2010PropOp39
 70
     1
102
RTVSPost2010Prop40
 90
        0
102
RTVSPost2010PropOp40
 70
     1
102
RTVSPost2010Prop41ColorIndex
 90
       18
102
RTVSPost2010Prop41ColorRGB
 90
        0
102
RTVSPost2010PropOp41
 70
     1
102
RTVSPost2010Prop42
 90
       50
102
RTVSPost2010PropOp42
 70
     1
102
RTVSPost2010Prop43
 90
        3
102
RTVSPost2010PropOp43
 70
     1
102
RTVSPost2010Prop44ColorIndex
 90
        5
102
RTVSPost2010Prop44ColorRGB
 90
      255
102
RTVSPost2010PropOp44
 70
     1
102
RTVSPost2010Prop45
280
     0
102
RTVSPost2010PropOp45
 70
     1
102
RTVSPost2010Prop46
 90
       50
102
RTVSPost2010PropOp46
 70
     1
102
RTVSPost2010Prop47
 90
       50
102
RTVSPost2010PropOp47
 70
     1
102
RTVSPost2010Prop48
 90
       50
102
RTVSPost2010PropOp48
 70
     1
102
RTVSPost2010Prop49
280
     0
102
RTVSPost2010PropOp49
 70
     1
102
RTVSPost2010Prop50
 90
       50
102
RTVSPost2010PropOp50
 70
     1
102
RTVSPost2010Prop51ColorIndex
 90
      256
102
RTVSPost2010Prop51ColorRGB
 90
-16777216
102
RTVSPost2010PropOp51
 70
     0
102
RTVSPost2010Prop52
140
1.0
102
RTVSPost2010PropOp52
 70
     0
102
RTVSPost2010Prop53
 90
        2
102
RTVSPost2010PropOp53
 70
     1
102
RTVSPost2010Prop54
  1
strokes_ogs.tif
102
RTVSPost2010PropOp54
 70
     1
102
RTVSPost2010Prop55
280
     0
102
RTVSPost2010PropOp55
 70
     1
102
RTVSPost2010Prop56
140
1.0
102
RTVSPost2010PropOp56
 70
     1
102
RTVSPost2010Prop57
140
1.0
102
RTVSPost2010PropOp57
 70
     1
102
RTVSPropertyOp0
 70
     1
102
RTVSPropertyOp1
 70
     1
102
RTVSPropertyOp2
 70
     1
102
RTVSPropertyOp3
 70
     1
102
RTVSPropertyOp4
 70
     1
102
RTVSPropertyOp5
 70
     1
102
RTVSPropertyOp6
 70
     1
102
RTVSPropertyOp7
 70
     1
102
RTVSPropertyOp8
 70
     1
102
RTVSPropertyOp9
 70
     1
102
RTVSPropertyOp10
 70
     1
102
RTVSPropertyOp11
 70
     1
102
RTVSPropertyOp12
 70
     1
102
RTVSPropertyOp13
 70
     1
102
RTVSPropertyOp14
 70
     1
102
RTVSPropertyOp15
 70
     1
102
RTVSPropertyOp16
 70
     1
102
RTVSPropertyOp17
 70
     1
102
RTVSPropertyOp18
 70
     1
102
RTVSPropertyOp19
 70
     1
102
RTVSPropertyOp20
 70
     1
102
RTVSPropertyOp21
 70
     1
102
RTVSPropertyOp22
 70
     1
102
RTVSPropertyOp23
 70
     1
102
RTVSPropertyOp24
 70
     1
102
RTVSPropertyOp25
 70
     1
102
RTVSPropertyOp26
 70
     1
102
RTVSPropertyOp27
 70
     1
102
RTVSPropertyOp28
 70
     1
102
RTVSPropertyOp29
 70
     1
102
RTVSPropertyOp30
 70
     1
102
RTVSPropertyOp31
 70
     1
102
RTVSPropertyOp32
 70
     1
102
RTVSPropertyOp33
 70
     1
102
RTVSPropertyOp34
 70
     1
102
RTVSPropertyOp35
 70
     1
102
RTVSPropertyOp36
 70
     1
102
RTVSPropertyOp37
 70
     1
102
RTVSPropertyOp38
 70
     1
102
RTVSPropertyOp39
 70
     1
102
RTVSPropertyOp40
 70
     1
102
RTVSPropertyOp41
 70
     1
102
RTVSPropertyOp42
 70
     1
102
RTVSPropertyOp43
 70
     1
102
RTVSPropertyOp44
 70
     1
102
RTVSPropertyOp45
 70
     1
102
RTVSPropertyOp46
 70
     1
102
RTVSPropertyOp47
 70
     1
102
RTVSPropertyOp48
 70
     1
102
RTVSPropertyOp49
 70
     1
102
RTVSPropertyOp50
 70
     1
102
RTVSPropertyOp51
 70
     0
102
RTVSPropertyOp52
 70
     0
102
RTVSPropertyOp53
 70
     1
102
RTVSPropertyOp54
 70
     1
102
RTVSPropertyOp55
 70
     1
102
RTVSPropertyOp56
 70
     1
102
RTVSPropertyOp57
 70
     1
102
RTVSPropertyOp58
 70
     1
102
RTVSPropertyOp59
 70
     1
102
RTVSPropertyOp60
 70
     1
102
RTVSPropertyOp61
 70
     1
102
RTVSPropertyOp62
 70
     1
  0
XRECORD
  5
15054
102
{ACAD_REACTORS
330
15053
102
}
330
15053
100
AcDbXrecord
280
     1
102
RTVSPost2010Prop28
280
     0
102
RTVSPost2010PropOp28
 70
     1
102
RTVSPost2010Prop29
280
     1
102
RTVSPost2010PropOp29
 70
     1
102
RTVSPost2010Prop30
280
     1
102
RTVSPost2010PropOp30
 70
     1
102
RTVSPost2010Prop31
280
     0
102
RTVSPost2010PropOp31
 70
     1
102
RTVSPost2010Prop32
280
     0
102
RTVSPost2010PropOp32
 70
     1
102
RTVSPost2010Prop33
280
     0
102
RTVSPost2010PropOp33
 70
     1
102
RTVSPost2010Prop34
280
     0
102
RTVSPost2010PropOp34
 70
     1
102
RTVSPost2010Prop35
280
     0
102
RTVSPost2010PropOp35
 70
     1
102
RTVSPost2010Prop36
280
     0
102
RTVSPost2010PropOp36
 70
     1
102
RTVSPost2010Prop37
 90
       50
102
RTVSPost2010PropOp37
 70
     1
102
RTVSPost2010Prop38
140
0.0
102
RTVSPost2010PropOp38
 70
     1
102
RTVSPost2010Prop39
140
1.0
102
RTVSPost2010PropOp39
 70
     1
102
RTVSPost2010Prop40
 90
        0
102
RTVSPost2010PropOp40
 70
     1
102
RTVSPost2010Prop41ColorIndex
 90
       18
102
RTVSPost2010Prop41ColorRGB
 90
        0
102
RTVSPost2010PropOp41
 70
     1
102
RTVSPost2010Prop42
 90
       50
102
RTVSPost2010PropOp42
 70
     1
102
RTVSPost2010Prop43
 90
        3
102
RTVSPost2010PropOp43
 70
     1
102
RTVSPost2010Prop44ColorIndex
 90
        5
102
RTVSPost2010Prop44ColorRGB
 90
      255
102
RTVSPost2010PropOp44
 70
     1
102
RTVSPost2010Prop45
280
     0
102
RTVSPost2010PropOp45
 70
     1
102
RTVSPost2010Prop46
 90
       50
102
RTVSPost2010PropOp46
 70
     1
102
RTVSPost2010Prop47
 90
       50
102
RTVSPost2010PropOp47
 70
     1
102
RTVSPost2010Prop48
 90
       50
102
RTVSPost2010PropOp48
 70
     1
102
RTVSPost2010Prop49
280
     0
102
RTVSPost2010PropOp49
 70
     1
102
RTVSPost2010Prop50
 90
       50
102
RTVSPost2010PropOp50
 70
     1
102
RTVSPost2010Prop51ColorIndex
 90
      256
102
RTVSPost2010Prop51ColorRGB
 90
-16777216
102
RTVSPost2010PropOp51
 70
     0
102
RTVSPost2010Prop52
140
1.0
102
RTVSPost2010PropOp52
 70
     0
102
RTVSPost2010Prop53
 90
        2
102
RTVSPost2010PropOp53
 70
     1
102
RTVSPost2010Prop54
  1
strokes_ogs.tif
102
RTVSPost2010PropOp54
 70
     1
102
RTVSPost2010Prop55
280
     0
102
RTVSPost2010PropOp55
 70
     1
102
RTVSPost2010Prop56
140
1.0
102
RTVSPost2010PropOp56
 70
     1
102
RTVSPost2010Prop57
140
1.0
102
RTVSPost2010PropOp57
 70
     1
102
RTVSPropertyOp0
 70
     1
102
RTVSPropertyOp1
 70
     1
102
RTVSPropertyOp2
 70
     1
102
RTVSPropertyOp3
 70
     1
102
RTVSPropertyOp4
 70
     1
102
RTVSPropertyOp5
 70
     1
102
RTVSPropertyOp6
 70
     1
102
RTVSPropertyOp7
 70
     1
102
RTVSPropertyOp8
 70
     1
102
RTVSPropertyOp9
 70
     1
102
RTVSPropertyOp10
 70
     1
102
RTVSPropertyOp11
 70
     1
102
RTVSPropertyOp12
 70
     1
102
RTVSPropertyOp13
 70
     1
102
RTVSPropertyOp14
 70
     1
102
RTVSPropertyOp15
 70
     1
102
RTVSPropertyOp16
 70
     1
102
RTVSPropertyOp17
 70
     1
102
RTVSPropertyOp18
 70
     1
102
RTVSPropertyOp19
 70
     1
102
RTVSPropertyOp20
 70
     1
102
RTVSPropertyOp21
 70
     1
102
RTVSPropertyOp22
 70
     1
102
RTVSPropertyOp23
 70
     1
102
RTVSPropertyOp24
 70
     1
102
RTVSPropertyOp25
 70
     1
102
RTVSPropertyOp26
 70
     1
102
RTVSPropertyOp27
 70
     1
102
RTVSPropertyOp28
 70
     1
102
RTVSPropertyOp29
 70
     1
102
RTVSPropertyOp30
 70
     1
102
RTVSPropertyOp31
 70
     1
102
RTVSPropertyOp32
 70
     1
102
RTVSPropertyOp33
 70
     1
102
RTVSPropertyOp34
 70
     1
102
RTVSPropertyOp35
 70
     1
102
RTVSPropertyOp36
 70
     1
102
RTVSPropertyOp37
 70
     1
102
RTVSPropertyOp38
 70
     1
102
RTVSPropertyOp39
 70
     1
102
RTVSPropertyOp40
 70
     1
102
RTVSPropertyOp41
 70
     1
102
RTVSPropertyOp42
 70
     1
102
RTVSPropertyOp43
 70
     1
102
RTVSPropertyOp44
 70
     1
102
RTVSPropertyOp45
 70
     1
102
RTVSPropertyOp46
 70
     1
102
RTVSPropertyOp47
 70
     1
102
RTVSPropertyOp48
 70
     1
102
RTVSPropertyOp49
 70
     1
102
RTVSPropertyOp50
 70
     1
102
RTVSPropertyOp51
 70
     0
102
RTVSPropertyOp52
 70
     0
102
RTVSPropertyOp53
 70
     1
102
RTVSPropertyOp54
 70
     1
102
RTVSPropertyOp55
 70
     1
102
RTVSPropertyOp56
 70
     1
102
RTVSPropertyOp57
 70
     1
102
RTVSPropertyOp58
 70
     1
102
RTVSPropertyOp59
 70
     1
102
RTVSPropertyOp60
 70
     1
102
RTVSPropertyOp61
 70
     1
102
RTVSPropertyOp62
 70
     1
  0
XRECORD
  5
15062
102
{ACAD_REACTORS
330
15061
102
}
330
15061
100
AcDbXrecord
280
     1
102
RTVSPost2010Prop28
280
     0
102
RTVSPost2010PropOp28
 70
     1
102
RTVSPost2010Prop29
280
     1
102
RTVSPost2010PropOp29
 70
     1
102
RTVSPost2010Prop30
280
     1
102
RTVSPost2010PropOp30
 70
     1
102
RTVSPost2010Prop31
280
     0
102
RTVSPost2010PropOp31
 70
     1
102
RTVSPost2010Prop32
280
     0
102
RTVSPost2010PropOp32
 70
     1
102
RTVSPost2010Prop33
280
     0
102
RTVSPost2010PropOp33
 70
     1
102
RTVSPost2010Prop34
280
     0
102
RTVSPost2010PropOp34
 70
     1
102
RTVSPost2010Prop35
280
     0
102
RTVSPost2010PropOp35
 70
     1
102
RTVSPost2010Prop36
280
     0
102
RTVSPost2010PropOp36
 70
     1
102
RTVSPost2010Prop37
 90
       50
102
RTVSPost2010PropOp37
 70
     1
102
RTVSPost2010Prop38
140
0.0
102
RTVSPost2010PropOp38
 70
     1
102
RTVSPost2010Prop39
140
1.0
102
RTVSPost2010PropOp39
 70
     1
102
RTVSPost2010Prop40
 90
        0
102
RTVSPost2010PropOp40
 70
     1
102
RTVSPost2010Prop41ColorIndex
 90
       18
102
RTVSPost2010Prop41ColorRGB
 90
        0
102
RTVSPost2010PropOp41
 70
     1
102
RTVSPost2010Prop42
 90
       50
102
RTVSPost2010PropOp42
 70
     1
102
RTVSPost2010Prop43
 90
        3
102
RTVSPost2010PropOp43
 70
     1
102
RTVSPost2010Prop44ColorIndex
 90
        5
102
RTVSPost2010Prop44ColorRGB
 90
      255
102
RTVSPost2010PropOp44
 70
     1
102
RTVSPost2010Prop45
280
     0
102
RTVSPost2010PropOp45
 70
     1
102
RTVSPost2010Prop46
 90
       50
102
RTVSPost2010PropOp46
 70
     1
102
RTVSPost2010Prop47
 90
       50
102
RTVSPost2010PropOp47
 70
     1
102
RTVSPost2010Prop48
 90
       50
102
RTVSPost2010PropOp48
 70
     1
102
RTVSPost2010Prop49
280
     0
102
RTVSPost2010PropOp49
 70
     1
102
RTVSPost2010Prop50
 90
       50
102
RTVSPost2010PropOp50
 70
     1
102
RTVSPost2010Prop51ColorIndex
 90
      256
102
RTVSPost2010Prop51ColorRGB
 90
-16777216
102
RTVSPost2010PropOp51
 70
     0
102
RTVSPost2010Prop52
140
1.0
102
RTVSPost2010PropOp52
 70
     0
102
RTVSPost2010Prop53
 90
        2
102
RTVSPost2010PropOp53
 70
     1
102
RTVSPost2010Prop54
  1
strokes_ogs.tif
102
RTVSPost2010PropOp54
 70
     1
102
RTVSPost2010Prop55
280
     0
102
RTVSPost2010PropOp55
 70
     1
102
RTVSPost2010Prop56
140
1.0
102
RTVSPost2010PropOp56
 70
     1
102
RTVSPost2010Prop57
140
1.0
102
RTVSPost2010PropOp57
 70
     1
102
RTVSPropertyOp0
 70
     1
102
RTVSPropertyOp1
 70
     1
102
RTVSPropertyOp2
 70
     1
102
RTVSPropertyOp3
 70
     1
102
RTVSPropertyOp4
 70
     1
102
RTVSPropertyOp5
 70
     1
102
RTVSPropertyOp6
 70
     1
102
RTVSPropertyOp7
 70
     1
102
RTVSPropertyOp8
 70
     1
102
RTVSPropertyOp9
 70
     1
102
RTVSPropertyOp10
 70
     1
102
RTVSPropertyOp11
 70
     1
102
RTVSPropertyOp12
 70
     1
102
RTVSPropertyOp13
 70
     1
102
RTVSPropertyOp14
 70
     1
102
RTVSPropertyOp15
 70
     1
102
RTVSPropertyOp16
 70
     1
102
RTVSPropertyOp17
 70
     1
102
RTVSPropertyOp18
 70
     1
102
RTVSPropertyOp19
 70
     1
102
RTVSPropertyOp20
 70
     1
102
RTVSPropertyOp21
 70
     1
102
RTVSPropertyOp22
 70
     1
102
RTVSPropertyOp23
 70
     1
102
RTVSPropertyOp24
 70
     1
102
RTVSPropertyOp25
 70
     1
102
RTVSPropertyOp26
 70
     1
102
RTVSPropertyOp27
 70
     1
102
RTVSPropertyOp28
 70
     1
102
RTVSPropertyOp29
 70
     1
102
RTVSPropertyOp30
 70
     1
102
RTVSPropertyOp31
 70
     1
102
RTVSPropertyOp32
 70
     1
102
RTVSPropertyOp33
 70
     1
102
RTVSPropertyOp34
 70
     1
102
RTVSPropertyOp35
 70
     1
102
RTVSPropertyOp36
 70
     1
102
RTVSPropertyOp37
 70
     1
102
RTVSPropertyOp38
 70
     1
102
RTVSPropertyOp39
 70
     1
102
RTVSPropertyOp40
 70
     1
102
RTVSPropertyOp41
 70
     1
102
RTVSPropertyOp42
 70
     1
102
RTVSPropertyOp43
 70
     1
102
RTVSPropertyOp44
 70
     1
102
RTVSPropertyOp45
 70
     1
102
RTVSPropertyOp46
 70
     1
102
RTVSPropertyOp47
 70
     1
102
RTVSPropertyOp48
 70
     1
102
RTVSPropertyOp49
 70
     1
102
RTVSPropertyOp50
 70
     1
102
RTVSPropertyOp51
 70
     0
102
RTVSPropertyOp52
 70
     0
102
RTVSPropertyOp53
 70
     1
102
RTVSPropertyOp54
 70
     1
102
RTVSPropertyOp55
 70
     1
102
RTVSPropertyOp56
 70
     1
102
RTVSPropertyOp57
 70
     1
102
RTVSPropertyOp58
 70
     1
102
RTVSPropertyOp59
 70
     1
102
RTVSPropertyOp60
 70
     1
102
RTVSPropertyOp61
 70
     1
102
RTVSPropertyOp62
 70
     1
  0
XRECORD
  5
1506A
102
{ACAD_REACTORS
330
15069
102
}
330
15069
100
AcDbXrecord
280
     1
102
RTVSPost2010Prop28
280
     0
102
RTVSPost2010PropOp28
 70
     1
102
RTVSPost2010Prop29
280
     1
102
RTVSPost2010PropOp29
 70
     1
102
RTVSPost2010Prop30
280
     1
102
RTVSPost2010PropOp30
 70
     1
102
RTVSPost2010Prop31
280
     0
102
RTVSPost2010PropOp31
 70
     1
102
RTVSPost2010Prop32
280
     0
102
RTVSPost2010PropOp32
 70
     1
102
RTVSPost2010Prop33
280
     0
102
RTVSPost2010PropOp33
 70
     1
102
RTVSPost2010Prop34
280
     0
102
RTVSPost2010PropOp34
 70
     1
102
RTVSPost2010Prop35
280
     0
102
RTVSPost2010PropOp35
 70
     1
102
RTVSPost2010Prop36
280
     0
102
RTVSPost2010PropOp36
 70
     1
102
RTVSPost2010Prop37
 90
       50
102
RTVSPost2010PropOp37
 70
     1
102
RTVSPost2010Prop38
140
0.0
102
RTVSPost2010PropOp38
 70
     1
102
RTVSPost2010Prop39
140
1.0
102
RTVSPost2010PropOp39
 70
     1
102
RTVSPost2010Prop40
 90
        0
102
RTVSPost2010PropOp40
 70
     1
102
RTVSPost2010Prop41ColorIndex
 90
       18
102
RTVSPost2010Prop41ColorRGB
 90
        0
102
RTVSPost2010PropOp41
 70
     1
102
RTVSPost2010Prop42
 90
       50
102
RTVSPost2010PropOp42
 70
     1
102
RTVSPost2010Prop43
 90
        3
102
RTVSPost2010PropOp43
 70
     1
102
RTVSPost2010Prop44ColorIndex
 90
        5
102
RTVSPost2010Prop44ColorRGB
 90
      255
102
RTVSPost2010PropOp44
 70
     1
102
RTVSPost2010Prop45
280
     0
102
RTVSPost2010PropOp45
 70
     1
102
RTVSPost2010Prop46
 90
       50
102
RTVSPost2010PropOp46
 70
     1
102
RTVSPost2010Prop47
 90
       50
102
RTVSPost2010PropOp47
 70
     1
102
RTVSPost2010Prop48
 90
       50
102
RTVSPost2010PropOp48
 70
     1
102
RTVSPost2010Prop49
280
     0
102
RTVSPost2010PropOp49
 70
     1
102
RTVSPost2010Prop50
 90
       50
102
RTVSPost2010PropOp50
 70
     1
102
RTVSPost2010Prop51ColorIndex
 90
      256
102
RTVSPost2010Prop51ColorRGB
 90
-16777216
102
RTVSPost2010PropOp51
 70
     0
102
RTVSPost2010Prop52
140
1.0
102
RTVSPost2010PropOp52
 70
     0
102
RTVSPost2010Prop53
 90
        2
102
RTVSPost2010PropOp53
 70
     1
102
RTVSPost2010Prop54
  1
strokes_ogs.tif
102
RTVSPost2010PropOp54
 70
     1
102
RTVSPost2010Prop55
280
     0
102
RTVSPost2010PropOp55
 70
     1
102
RTVSPost2010Prop56
140
1.0
102
RTVSPost2010PropOp56
 70
     1
102
RTVSPost2010Prop57
140
1.0
102
RTVSPost2010PropOp57
 70
     1
102
RTVSPropertyOp0
 70
     1
102
RTVSPropertyOp1
 70
     1
102
RTVSPropertyOp2
 70
     1
102
RTVSPropertyOp3
 70
     1
102
RTVSPropertyOp4
 70
     1
102
RTVSPropertyOp5
 70
     1
102
RTVSPropertyOp6
 70
     1
102
RTVSPropertyOp7
 70
     1
102
RTVSPropertyOp8
 70
     1
102
RTVSPropertyOp9
 70
     1
102
RTVSPropertyOp10
 70
     1
102
RTVSPropertyOp11
 70
     1
102
RTVSPropertyOp12
 70
     1
102
RTVSPropertyOp13
 70
     1
102
RTVSPropertyOp14
 70
     1
102
RTVSPropertyOp15
 70
     1
102
RTVSPropertyOp16
 70
     1
102
RTVSPropertyOp17
 70
     1
102
RTVSPropertyOp18
 70
     1
102
RTVSPropertyOp19
 70
     1
102
RTVSPropertyOp20
 70
     1
102
RTVSPropertyOp21
 70
     1
102
RTVSPropertyOp22
 70
     1
102
RTVSPropertyOp23
 70
     1
102
RTVSPropertyOp24
 70
     1
102
RTVSPropertyOp25
 70
     1
102
RTVSPropertyOp26
 70
     1
102
RTVSPropertyOp27
 70
     1
102
RTVSPropertyOp28
 70
     1
102
RTVSPropertyOp29
 70
     1
102
RTVSPropertyOp30
 70
     1
102
RTVSPropertyOp31
 70
     1
102
RTVSPropertyOp32
 70
     1
102
RTVSPropertyOp33
 70
     1
102
RTVSPropertyOp34
 70
     1
102
RTVSPropertyOp35
 70
     1
102
RTVSPropertyOp36
 70
     1
102
RTVSPropertyOp37
 70
     1
102
RTVSPropertyOp38
 70
     1
102
RTVSPropertyOp39
 70
     1
102
RTVSPropertyOp40
 70
     1
102
RTVSPropertyOp41
 70
     1
102
RTVSPropertyOp42
 70
     1
102
RTVSPropertyOp43
 70
     1
102
RTVSPropertyOp44
 70
     1
102
RTVSPropertyOp45
 70
     1
102
RTVSPropertyOp46
 70
     1
102
RTVSPropertyOp47
 70
     1
102
RTVSPropertyOp48
 70
     1
102
RTVSPropertyOp49
 70
     1
102
RTVSPropertyOp50
 70
     1
102
RTVSPropertyOp51
 70
     0
102
RTVSPropertyOp52
 70
     0
102
RTVSPropertyOp53
 70
     1
102
RTVSPropertyOp54
 70
     1
102
RTVSPropertyOp55
 70
     1
102
RTVSPropertyOp56
 70
     1
102
RTVSPropertyOp57
 70
     1
102
RTVSPropertyOp58
 70
     1
102
RTVSPropertyOp59
 70
     1
102
RTVSPropertyOp60
 70
     1
102
RTVSPropertyOp61
 70
     1
102
RTVSPropertyOp62
 70
     1
  0
XRECORD
  5
1505C
102
{ACAD_REACTORS
330
1505B
102
}
330
1505B
100
AcDbXrecord
280
     1
102
RTVSPost2010Prop28
280
     0
102
RTVSPost2010PropOp28
 70
     1
102
RTVSPost2010Prop29
280
     1
102
RTVSPost2010PropOp29
 70
     1
102
RTVSPost2010Prop30
280
     1
102
RTVSPost2010PropOp30
 70
     1
102
RTVSPost2010Prop31
280
     0
102
RTVSPost2010PropOp31
 70
     1
102
RTVSPost2010Prop32
280
     0
102
RTVSPost2010PropOp32
 70
     1
102
RTVSPost2010Prop33
280
     0
102
RTVSPost2010PropOp33
 70
     1
102
RTVSPost2010Prop34
280
     0
102
RTVSPost2010PropOp34
 70
     1
102
RTVSPost2010Prop35
280
     0
102
RTVSPost2010PropOp35
 70
     1
102
RTVSPost2010Prop36
280
     0
102
RTVSPost2010PropOp36
 70
     1
102
RTVSPost2010Prop37
 90
       50
102
RTVSPost2010PropOp37
 70
     1
102
RTVSPost2010Prop38
140
0.0
102
RTVSPost2010PropOp38
 70
     1
102
RTVSPost2010Prop39
140
1.0
102
RTVSPost2010PropOp39
 70
     1
102
RTVSPost2010Prop40
 90
        0
102
RTVSPost2010PropOp40
 70
     1
102
RTVSPost2010Prop41ColorIndex
 90
       18
102
RTVSPost2010Prop41ColorRGB
 90
        0
102
RTVSPost2010PropOp41
 70
     1
102
RTVSPost2010Prop42
 90
       50
102
RTVSPost2010PropOp42
 70
     1
102
RTVSPost2010Prop43
 90
        3
102
RTVSPost2010PropOp43
 70
     1
102
RTVSPost2010Prop44ColorIndex
 90
        5
102
RTVSPost2010Prop44ColorRGB
 90
      255
102
RTVSPost2010PropOp44
 70
     1
102
RTVSPost2010Prop45
280
     0
102
RTVSPost2010PropOp45
 70
     1
102
RTVSPost2010Prop46
 90
       50
102
RTVSPost2010PropOp46
 70
     1
102
RTVSPost2010Prop47
 90
       50
102
RTVSPost2010PropOp47
 70
     1
102
RTVSPost2010Prop48
 90
       50
102
RTVSPost2010PropOp48
 70
     1
102
RTVSPost2010Prop49
280
     0
102
RTVSPost2010PropOp49
 70
     1
102
RTVSPost2010Prop50
 90
       50
102
RTVSPost2010PropOp50
 70
     1
102
RTVSPost2010Prop51ColorIndex
 90
      256
102
RTVSPost2010Prop51ColorRGB
 90
-16777216
102
RTVSPost2010PropOp51
 70
     0
102
RTVSPost2010Prop52
140
1.0
102
RTVSPost2010PropOp52
 70
     0
102
RTVSPost2010Prop53
 90
        2
102
RTVSPost2010PropOp53
 70
     1
102
RTVSPost2010Prop54
  1
strokes_ogs.tif
102
RTVSPost2010PropOp54
 70
     1
102
RTVSPost2010Prop55
280
     0
102
RTVSPost2010PropOp55
 70
     1
102
RTVSPost2010Prop56
140
1.0
102
RTVSPost2010PropOp56
 70
     1
102
RTVSPost2010Prop57
140
1.0
102
RTVSPost2010PropOp57
 70
     1
102
RTVSPropertyOp0
 70
     1
102
RTVSPropertyOp1
 70
     1
102
RTVSPropertyOp2
 70
     1
102
RTVSPropertyOp3
 70
     1
102
RTVSPropertyOp4
 70
     1
102
RTVSPropertyOp5
 70
     1
102
RTVSPropertyOp6
 70
     1
102
RTVSPropertyOp7
 70
     1
102
RTVSPropertyOp8
 70
     1
102
RTVSPropertyOp9
 70
     1
102
RTVSPropertyOp10
 70
     1
102
RTVSPropertyOp11
 70
     1
102
RTVSPropertyOp12
 70
     1
102
RTVSPropertyOp13
 70
     1
102
RTVSPropertyOp14
 70
     1
102
RTVSPropertyOp15
 70
     1
102
RTVSPropertyOp16
 70
     1
102
RTVSPropertyOp17
 70
     1
102
RTVSPropertyOp18
 70
     1
102
RTVSPropertyOp19
 70
     1
102
RTVSPropertyOp20
 70
     1
102
RTVSPropertyOp21
 70
     1
102
RTVSPropertyOp22
 70
     1
102
RTVSPropertyOp23
 70
     1
102
RTVSPropertyOp24
 70
     1
102
RTVSPropertyOp25
 70
     1
102
RTVSPropertyOp26
 70
     1
102
RTVSPropertyOp27
 70
     1
102
RTVSPropertyOp28
 70
     1
102
RTVSPropertyOp29
 70
     1
102
RTVSPropertyOp30
 70
     1
102
RTVSPropertyOp31
 70
     1
102
RTVSPropertyOp32
 70
     1
102
RTVSPropertyOp33
 70
     1
102
RTVSPropertyOp34
 70
     1
102
RTVSPropertyOp35
 70
     1
102
RTVSPropertyOp36
 70
     1
102
RTVSPropertyOp37
 70
     1
102
RTVSPropertyOp38
 70
     1
102
RTVSPropertyOp39
 70
     1
102
RTVSPropertyOp40
 70
     1
102
RTVSPropertyOp41
 70
     1
102
RTVSPropertyOp42
 70
     1
102
RTVSPropertyOp43
 70
     1
102
RTVSPropertyOp44
 70
     1
102
RTVSPropertyOp45
 70
     1
102
RTVSPropertyOp46
 70
     1
102
RTVSPropertyOp47
 70
     1
102
RTVSPropertyOp48
 70
     1
102
RTVSPropertyOp49
 70
     1
102
RTVSPropertyOp50
 70
     1
102
RTVSPropertyOp51
 70
     0
102
RTVSPropertyOp52
 70
     0
102
RTVSPropertyOp53
 70
     1
102
RTVSPropertyOp54
 70
     1
102
RTVSPropertyOp55
 70
     1
102
RTVSPropertyOp56
 70
     1
102
RTVSPropertyOp57
 70
     1
102
RTVSPropertyOp58
 70
     1
102
RTVSPropertyOp59
 70
     1
102
RTVSPropertyOp60
 70
     1
102
RTVSPropertyOp61
 70
     1
102
RTVSPropertyOp62
 70
     1
  0
XRECORD
  5
15060
102
{ACAD_REACTORS
330
1505F
102
}
330
1505F
100
AcDbXrecord
280
     1
102
RTVSPost2010Prop28
280
     0
102
RTVSPost2010PropOp28
 70
     1
102
RTVSPost2010Prop29
280
     1
102
RTVSPost2010PropOp29
 70
     1
102
RTVSPost2010Prop30
280
     1
102
RTVSPost2010PropOp30
 70
     1
102
RTVSPost2010Prop31
280
     0
102
RTVSPost2010PropOp31
 70
     1
102
RTVSPost2010Prop32
280
     0
102
RTVSPost2010PropOp32
 70
     1
102
RTVSPost2010Prop33
280
     0
102
RTVSPost2010PropOp33
 70
     1
102
RTVSPost2010Prop34
280
     0
102
RTVSPost2010PropOp34
 70
     1
102
RTVSPost2010Prop35
280
     0
102
RTVSPost2010PropOp35
 70
     1
102
RTVSPost2010Prop36
280
     0
102
RTVSPost2010PropOp36
 70
     1
102
RTVSPost2010Prop37
 90
       50
102
RTVSPost2010PropOp37
 70
     1
102
RTVSPost2010Prop38
140
0.0
102
RTVSPost2010PropOp38
 70
     1
102
RTVSPost2010Prop39
140
1.0
102
RTVSPost2010PropOp39
 70
     1
102
RTVSPost2010Prop40
 90
        0
102
RTVSPost2010PropOp40
 70
     1
102
RTVSPost2010Prop41ColorIndex
 90
       18
102
RTVSPost2010Prop41ColorRGB
 90
        0
102
RTVSPost2010PropOp41
 70
     1
102
RTVSPost2010Prop42
 90
       50
102
RTVSPost2010PropOp42
 70
     1
102
RTVSPost2010Prop43
 90
        3
102
RTVSPost2010PropOp43
 70
     1
102
RTVSPost2010Prop44ColorIndex
 90
        5
102
RTVSPost2010Prop44ColorRGB
 90
      255
102
RTVSPost2010PropOp44
 70
     1
102
RTVSPost2010Prop45
280
     0
102
RTVSPost2010PropOp45
 70
     1
102
RTVSPost2010Prop46
 90
       50
102
RTVSPost2010PropOp46
 70
     1
102
RTVSPost2010Prop47
 90
       50
102
RTVSPost2010PropOp47
 70
     1
102
RTVSPost2010Prop48
 90
       50
102
RTVSPost2010PropOp48
 70
     1
102
RTVSPost2010Prop49
280
     0
102
RTVSPost2010PropOp49
 70
     1
102
RTVSPost2010Prop50
 90
       50
102
RTVSPost2010PropOp50
 70
     1
102
RTVSPost2010Prop51ColorIndex
 90
      256
102
RTVSPost2010Prop51ColorRGB
 90
-16777216
102
RTVSPost2010PropOp51
 70
     0
102
RTVSPost2010Prop52
140
1.0
102
RTVSPost2010PropOp52
 70
     0
102
RTVSPost2010Prop53
 90
        2
102
RTVSPost2010PropOp53
 70
     1
102
RTVSPost2010Prop54
  1
strokes_ogs.tif
102
RTVSPost2010PropOp54
 70
     1
102
RTVSPost2010Prop55
280
     0
102
RTVSPost2010PropOp55
 70
     1
102
RTVSPost2010Prop56
140
1.0
102
RTVSPost2010PropOp56
 70
     1
102
RTVSPost2010Prop57
140
1.0
102
RTVSPost2010PropOp57
 70
     1
102
RTVSPropertyOp0
 70
     1
102
RTVSPropertyOp1
 70
     1
102
RTVSPropertyOp2
 70
     1
102
RTVSPropertyOp3
 70
     1
102
RTVSPropertyOp4
 70
     1
102
RTVSPropertyOp5
 70
     1
102
RTVSPropertyOp6
 70
     1
102
RTVSPropertyOp7
 70
     1
102
RTVSPropertyOp8
 70
     1
102
RTVSPropertyOp9
 70
     1
102
RTVSPropertyOp10
 70
     1
102
RTVSPropertyOp11
 70
     1
102
RTVSPropertyOp12
 70
     1
102
RTVSPropertyOp13
 70
     1
102
RTVSPropertyOp14
 70
     1
102
RTVSPropertyOp15
 70
     1
102
RTVSPropertyOp16
 70
     1
102
RTVSPropertyOp17
 70
     1
102
RTVSPropertyOp18
 70
     1
102
RTVSPropertyOp19
 70
     1
102
RTVSPropertyOp20
 70
     1
102
RTVSPropertyOp21
 70
     1
102
RTVSPropertyOp22
 70
     1
102
RTVSPropertyOp23
 70
     1
102
RTVSPropertyOp24
 70
     1
102
RTVSPropertyOp25
 70
     1
102
RTVSPropertyOp26
 70
     1
102
RTVSPropertyOp27
 70
     1
102
RTVSPropertyOp28
 70
     1
102
RTVSPropertyOp29
 70
     1
102
RTVSPropertyOp30
 70
     1
102
RTVSPropertyOp31
 70
     1
102
RTVSPropertyOp32
 70
     1
102
RTVSPropertyOp33
 70
     1
102
RTVSPropertyOp34
 70
     1
102
RTVSPropertyOp35
 70
     1
102
RTVSPropertyOp36
 70
     1
102
RTVSPropertyOp37
 70
     1
102
RTVSPropertyOp38
 70
     1
102
RTVSPropertyOp39
 70
     1
102
RTVSPropertyOp40
 70
     1
102
RTVSPropertyOp41
 70
     1
102
RTVSPropertyOp42
 70
     1
102
RTVSPropertyOp43
 70
     1
102
RTVSPropertyOp44
 70
     1
102
RTVSPropertyOp45
 70
     1
102
RTVSPropertyOp46
 70
     1
102
RTVSPropertyOp47
 70
     1
102
RTVSPropertyOp48
 70
     1
102
RTVSPropertyOp49
 70
     1
102
RTVSPropertyOp50
 70
     1
102
RTVSPropertyOp51
 70
     0
102
RTVSPropertyOp52
 70
     0
102
RTVSPropertyOp53
 70
     1
102
RTVSPropertyOp54
 70
     1
102
RTVSPropertyOp55
 70
     1
102
RTVSPropertyOp56
 70
     1
102
RTVSPropertyOp57
 70
     1
102
RTVSPropertyOp58
 70
     1
102
RTVSPropertyOp59
 70
     1
102
RTVSPropertyOp60
 70
     1
102
RTVSPropertyOp61
 70
     1
102
RTVSPropertyOp62
 70
     1
  0
XRECORD
  5
1507A
102
{ACAD_REACTORS
330
15079
102
}
330
15079
100
AcDbXrecord
280
     1
102
RTVSPost2010Prop28
280
     0
102
RTVSPost2010PropOp28
 70
     0
102
RTVSPost2010Prop29
280
     1
102
RTVSPost2010PropOp29
 70
     0
102
RTVSPost2010Prop30
280
     1
102
RTVSPost2010PropOp30
 70
     0
102
RTVSPost2010Prop31
280
     0
102
RTVSPost2010PropOp31
 70
     0
102
RTVSPost2010Prop32
280
     0
102
RTVSPost2010PropOp32
 70
     0
102
RTVSPost2010Prop33
280
     0
102
RTVSPost2010PropOp33
 70
     0
102
RTVSPost2010Prop34
280
     0
102
RTVSPost2010PropOp34
 70
     0
102
RTVSPost2010Prop35
280
     0
102
RTVSPost2010PropOp35
 70
     0
102
RTVSPost2010Prop36
280
     0
102
RTVSPost2010PropOp36
 70
     0
102
RTVSPost2010Prop37
 90
       50
102
RTVSPost2010PropOp37
 70
     0
102
RTVSPost2010Prop38
140
0.0
102
RTVSPost2010PropOp38
 70
     0
102
RTVSPost2010Prop39
140
1.0
102
RTVSPost2010PropOp39
 70
     0
102
RTVSPost2010Prop40
 90
        0
102
RTVSPost2010PropOp40
 70
     0
102
RTVSPost2010Prop41ColorIndex
 90
       18
102
RTVSPost2010Prop41ColorRGB
 90
        0
102
RTVSPost2010PropOp41
 70
     0
102
RTVSPost2010Prop42
 90
       50
102
RTVSPost2010PropOp42
 70
     0
102
RTVSPost2010Prop43
 90
        3
102
RTVSPost2010PropOp43
 70
     0
102
RTVSPost2010Prop44ColorIndex
 90
        5
102
RTVSPost2010Prop44ColorRGB
 90
      255
102
RTVSPost2010PropOp44
 70
     0
102
RTVSPost2010Prop45
280
     0
102
RTVSPost2010PropOp45
 70
     0
102
RTVSPost2010Prop46
 90
       50
102
RTVSPost2010PropOp46
 70
     0
102
RTVSPost2010Prop47
 90
       50
102
RTVSPost2010PropOp47
 70
     0
102
RTVSPost2010Prop48
 90
       50
102
RTVSPost2010PropOp48
 70
     0
102
RTVSPost2010Prop49
280
     0
102
RTVSPost2010PropOp49
 70
     0
102
RTVSPost2010Prop50
 90
       50
102
RTVSPost2010PropOp50
 70
     0
102
RTVSPost2010Prop51ColorIndex
 90
      256
102
RTVSPost2010Prop51ColorRGB
 90
-16777216
102
RTVSPost2010PropOp51
 70
     0
102
RTVSPost2010Prop52
140
1.0
102
RTVSPost2010PropOp52
 70
     0
102
RTVSPost2010Prop53
 90
        2
102
RTVSPost2010PropOp53
 70
     0
102
RTVSPost2010Prop54
  1
strokes_ogs.tif
102
RTVSPost2010PropOp54
 70
     0
102
RTVSPost2010Prop55
280
     0
102
RTVSPost2010PropOp55
 70
     0
102
RTVSPost2010Prop56
140
1.0
102
RTVSPost2010PropOp56
 70
     0
102
RTVSPost2010Prop57
140
1.0
102
RTVSPost2010PropOp57
 70
     0
102
RTVSPropertyOp0
 70
     0
102
RTVSPropertyOp1
 70
     0
102
RTVSPropertyOp2
 70
     0
102
RTVSPropertyOp3
 70
     0
102
RTVSPropertyOp4
 70
     0
102
RTVSPropertyOp5
 70
     0
102
RTVSPropertyOp6
 70
     0
102
RTVSPropertyOp7
 70
     0
102
RTVSPropertyOp8
 70
     0
102
RTVSPropertyOp9
 70
     0
102
RTVSPropertyOp10
 70
     0
102
RTVSPropertyOp11
 70
     0
102
RTVSPropertyOp12
 70
     0
102
RTVSPropertyOp13
 70
     0
102
RTVSPropertyOp14
 70
     2
102
RTVSPropertyOp15
 70
     0
102
RTVSPropertyOp16
 70
     0
102
RTVSPropertyOp17
 70
     0
102
RTVSPropertyOp18
 70
     0
102
RTVSPropertyOp19
 70
     0
102
RTVSPropertyOp20
 70
     0
102
RTVSPropertyOp21
 70
     0
102
RTVSPropertyOp22
 70
     0
102
RTVSPropertyOp23
 70
     0
102
RTVSPropertyOp24
 70
     0
102
RTVSPropertyOp25
 70
     0
102
RTVSPropertyOp26
 70
     0
102
RTVSPropertyOp27
 70
     0
102
RTVSPropertyOp28
 70
     0
102
RTVSPropertyOp29
 70
     0
102
RTVSPropertyOp30
 70
     0
102
RTVSPropertyOp31
 70
     0
102
RTVSPropertyOp32
 70
     0
102
RTVSPropertyOp33
 70
     0
102
RTVSPropertyOp34
 70
     0
102
RTVSPropertyOp35
 70
     0
102
RTVSPropertyOp36
 70
     0
102
RTVSPropertyOp37
 70
     0
102
RTVSPropertyOp38
 70
     0
102
RTVSPropertyOp39
 70
     0
102
RTVSPropertyOp40
 70
     0
102
RTVSPropertyOp41
 70
     0
102
RTVSPropertyOp42
 70
     0
102
RTVSPropertyOp43
 70
     0
102
RTVSPropertyOp44
 70
     0
102
RTVSPropertyOp45
 70
     0
102
RTVSPropertyOp46
 70
     0
102
RTVSPropertyOp47
 70
     0
102
RTVSPropertyOp48
 70
     0
102
RTVSPropertyOp49
 70
     0
102
RTVSPropertyOp50
 70
     0
102
RTVSPropertyOp51
 70
     0
102
RTVSPropertyOp52
 70
     0
102
RTVSPropertyOp53
 70
     0
102
RTVSPropertyOp54
 70
     0
102
RTVSPropertyOp55
 70
     0
102
RTVSPropertyOp56
 70
     0
102
RTVSPropertyOp57
 70
     0
102
RTVSPropertyOp58
 70
     1
102
RTVSPropertyOp59
 70
     1
102
RTVSPropertyOp60
 70
     1
102
RTVSPropertyOp61
 70
     1
102
RTVSPropertyOp62
 70
     1
  0
XRECORD
  5
15068
102
{ACAD_REACTORS
330
15067
102
}
330
15067
100
AcDbXrecord
280
     1
102
RTVSPost2010Prop28
280
     0
102
RTVSPost2010PropOp28
 70
     1
102
RTVSPost2010Prop29
280
     1
102
RTVSPost2010PropOp29
 70
     1
102
RTVSPost2010Prop30
280
     1
102
RTVSPost2010PropOp30
 70
     1
102
RTVSPost2010Prop31
280
     0
102
RTVSPost2010PropOp31
 70
     1
102
RTVSPost2010Prop32
280
     0
102
RTVSPost2010PropOp32
 70
     1
102
RTVSPost2010Prop33
280
     0
102
RTVSPost2010PropOp33
 70
     1
102
RTVSPost2010Prop34
280
     0
102
RTVSPost2010PropOp34
 70
     1
102
RTVSPost2010Prop35
280
     0
102
RTVSPost2010PropOp35
 70
     1
102
RTVSPost2010Prop36
280
     0
102
RTVSPost2010PropOp36
 70
     1
102
RTVSPost2010Prop37
 90
       50
102
RTVSPost2010PropOp37
 70
     1
102
RTVSPost2010Prop38
140
0.0
102
RTVSPost2010PropOp38
 70
     1
102
RTVSPost2010Prop39
140
1.0
102
RTVSPost2010PropOp39
 70
     1
102
RTVSPost2010Prop40
 90
        0
102
RTVSPost2010PropOp40
 70
     1
102
RTVSPost2010Prop41ColorIndex
 90
       18
102
RTVSPost2010Prop41ColorRGB
 90
        0
102
RTVSPost2010PropOp41
 70
     1
102
RTVSPost2010Prop42
 90
       50
102
RTVSPost2010PropOp42
 70
     1
102
RTVSPost2010Prop43
 90
        3
102
RTVSPost2010PropOp43
 70
     1
102
RTVSPost2010Prop44ColorIndex
 90
        5
102
RTVSPost2010Prop44ColorRGB
 90
      255
102
RTVSPost2010PropOp44
 70
     1
102
RTVSPost2010Prop45
280
     0
102
RTVSPost2010PropOp45
 70
     1
102
RTVSPost2010Prop46
 90
       50
102
RTVSPost2010PropOp46
 70
     1
102
RTVSPost2010Prop47
 90
       50
102
RTVSPost2010PropOp47
 70
     1
102
RTVSPost2010Prop48
 90
       50
102
RTVSPost2010PropOp48
 70
     1
102
RTVSPost2010Prop49
280
     0
102
RTVSPost2010PropOp49
 70
     1
102
RTVSPost2010Prop50
 90
       50
102
RTVSPost2010PropOp50
 70
     1
102
RTVSPost2010Prop51ColorIndex
 90
      256
102
RTVSPost2010Prop51ColorRGB
 90
-16777216
102
RTVSPost2010PropOp51
 70
     0
102
RTVSPost2010Prop52
140
1.0
102
RTVSPost2010PropOp52
 70
     0
102
RTVSPost2010Prop53
 90
        2
102
RTVSPost2010PropOp53
 70
     1
102
RTVSPost2010Prop54
  1
strokes_ogs.tif
102
RTVSPost2010PropOp54
 70
     1
102
RTVSPost2010Prop55
280
     0
102
RTVSPost2010PropOp55
 70
     1
102
RTVSPost2010Prop56
140
1.0
102
RTVSPost2010PropOp56
 70
     1
102
RTVSPost2010Prop57
140
1.0
102
RTVSPost2010PropOp57
 70
     1
102
RTVSPropertyOp0
 70
     1
102
RTVSPropertyOp1
 70
     1
102
RTVSPropertyOp2
 70
     1
102
RTVSPropertyOp3
 70
     1
102
RTVSPropertyOp4
 70
     1
102
RTVSPropertyOp5
 70
     1
102
RTVSPropertyOp6
 70
     1
102
RTVSPropertyOp7
 70
     1
102
RTVSPropertyOp8
 70
     1
102
RTVSPropertyOp9
 70
     1
102
RTVSPropertyOp10
 70
     1
102
RTVSPropertyOp11
 70
     1
102
RTVSPropertyOp12
 70
     1
102
RTVSPropertyOp13
 70
     1
102
RTVSPropertyOp14
 70
     1
102
RTVSPropertyOp15
 70
     1
102
RTVSPropertyOp16
 70
     1
102
RTVSPropertyOp17
 70
     1
102
RTVSPropertyOp18
 70
     1
102
RTVSPropertyOp19
 70
     1
102
RTVSPropertyOp20
 70
     1
102
RTVSPropertyOp21
 70
     1
102
RTVSPropertyOp22
 70
     1
102
RTVSPropertyOp23
 70
     1
102
RTVSPropertyOp24
 70
     1
102
RTVSPropertyOp25
 70
     1
102
RTVSPropertyOp26
 70
     1
102
RTVSPropertyOp27
 70
     1
102
RTVSPropertyOp28
 70
     1
102
RTVSPropertyOp29
 70
     1
102
RTVSPropertyOp30
 70
     1
102
RTVSPropertyOp31
 70
     1
102
RTVSPropertyOp32
 70
     1
102
RTVSPropertyOp33
 70
     1
102
RTVSPropertyOp34
 70
     1
102
RTVSPropertyOp35
 70
     1
102
RTVSPropertyOp36
 70
     1
102
RTVSPropertyOp37
 70
     1
102
RTVSPropertyOp38
 70
     1
102
RTVSPropertyOp39
 70
     1
102
RTVSPropertyOp40
 70
     1
102
RTVSPropertyOp41
 70
     1
102
RTVSPropertyOp42
 70
     1
102
RTVSPropertyOp43
 70
     1
102
RTVSPropertyOp44
 70
     1
102
RTVSPropertyOp45
 70
     1
102
RTVSPropertyOp46
 70
     1
102
RTVSPropertyOp47
 70
     1
102
RTVSPropertyOp48
 70
     1
102
RTVSPropertyOp49
 70
     1
102
RTVSPropertyOp50
 70
     1
102
RTVSPropertyOp51
 70
     0
102
RTVSPropertyOp52
 70
     0
102
RTVSPropertyOp53
 70
     1
102
RTVSPropertyOp54
 70
     1
102
RTVSPropertyOp55
 70
     1
102
RTVSPropertyOp56
 70
     1
102
RTVSPropertyOp57
 70
     1
102
RTVSPropertyOp58
 70
     1
102
RTVSPropertyOp59
 70
     1
102
RTVSPropertyOp60
 70
     1
102
RTVSPropertyOp61
 70
     1
102
RTVSPropertyOp62
 70
     1
  0
XRECORD
  5
1504C
102
{ACAD_REACTORS
330
1504B
102
}
330
1504B
100
AcDbXrecord
280
     1
102
RTVSPost2010Prop28
280
     0
102
RTVSPost2010PropOp28
 70
     1
102
RTVSPost2010Prop29
280
     1
102
RTVSPost2010PropOp29
 70
     1
102
RTVSPost2010Prop30
280
     1
102
RTVSPost2010PropOp30
 70
     1
102
RTVSPost2010Prop31
280
     0
102
RTVSPost2010PropOp31
 70
     1
102
RTVSPost2010Prop32
280
     0
102
RTVSPost2010PropOp32
 70
     1
102
RTVSPost2010Prop33
280
     0
102
RTVSPost2010PropOp33
 70
     1
102
RTVSPost2010Prop34
280
     0
102
RTVSPost2010PropOp34
 70
     1
102
RTVSPost2010Prop35
280
     0
102
RTVSPost2010PropOp35
 70
     1
102
RTVSPost2010Prop36
280
     0
102
RTVSPost2010PropOp36
 70
     1
102
RTVSPost2010Prop37
 90
       50
102
RTVSPost2010PropOp37
 70
     1
102
RTVSPost2010Prop38
140
0.0
102
RTVSPost2010PropOp38
 70
     1
102
RTVSPost2010Prop39
140
1.0
102
RTVSPost2010PropOp39
 70
     1
102
RTVSPost2010Prop40
 90
        0
102
RTVSPost2010PropOp40
 70
     1
102
RTVSPost2010Prop41ColorIndex
 90
       18
102
RTVSPost2010Prop41ColorRGB
 90
        0
102
RTVSPost2010PropOp41
 70
     1
102
RTVSPost2010Prop42
 90
       50
102
RTVSPost2010PropOp42
 70
     1
102
RTVSPost2010Prop43
 90
        3
102
RTVSPost2010PropOp43
 70
     1
102
RTVSPost2010Prop44ColorIndex
 90
        5
102
RTVSPost2010Prop44ColorRGB
 90
      255
102
RTVSPost2010PropOp44
 70
     1
102
RTVSPost2010Prop45
280
     0
102
RTVSPost2010PropOp45
 70
     1
102
RTVSPost2010Prop46
 90
       50
102
RTVSPost2010PropOp46
 70
     1
102
RTVSPost2010Prop47
 90
       50
102
RTVSPost2010PropOp47
 70
     1
102
RTVSPost2010Prop48
 90
       50
102
RTVSPost2010PropOp48
 70
     1
102
RTVSPost2010Prop49
280
     0
102
RTVSPost2010PropOp49
 70
     1
102
RTVSPost2010Prop50
 90
       50
102
RTVSPost2010PropOp50
 70
     1
102
RTVSPost2010Prop51ColorIndex
 90
      256
102
RTVSPost2010Prop51ColorRGB
 90
-16777216
102
RTVSPost2010PropOp51
 70
     0
102
RTVSPost2010Prop52
140
1.0
102
RTVSPost2010PropOp52
 70
     0
102
RTVSPost2010Prop53
 90
        2
102
RTVSPost2010PropOp53
 70
     1
102
RTVSPost2010Prop54
  1
strokes_ogs.tif
102
RTVSPost2010PropOp54
 70
     1
102
RTVSPost2010Prop55
280
     0
102
RTVSPost2010PropOp55
 70
     1
102
RTVSPost2010Prop56
140
1.0
102
RTVSPost2010PropOp56
 70
     1
102
RTVSPost2010Prop57
140
1.0
102
RTVSPost2010PropOp57
 70
     1
102
RTVSPropertyOp0
 70
     1
102
RTVSPropertyOp1
 70
     1
102
RTVSPropertyOp2
 70
     1
102
RTVSPropertyOp3
 70
     1
102
RTVSPropertyOp4
 70
     1
102
RTVSPropertyOp5
 70
     1
102
RTVSPropertyOp6
 70
     1
102
RTVSPropertyOp7
 70
     1
102
RTVSPropertyOp8
 70
     1
102
RTVSPropertyOp9
 70
     1
102
RTVSPropertyOp10
 70
     1
102
RTVSPropertyOp11
 70
     1
102
RTVSPropertyOp12
 70
     1
102
RTVSPropertyOp13
 70
     1
102
RTVSPropertyOp14
 70
     1
102
RTVSPropertyOp15
 70
     1
102
RTVSPropertyOp16
 70
     1
102
RTVSPropertyOp17
 70
     1
102
RTVSPropertyOp18
 70
     1
102
RTVSPropertyOp19
 70
     1
102
RTVSPropertyOp20
 70
     1
102
RTVSPropertyOp21
 70
     1
102
RTVSPropertyOp22
 70
     1
102
RTVSPropertyOp23
 70
     1
102
RTVSPropertyOp24
 70
     1
102
RTVSPropertyOp25
 70
     1
102
RTVSPropertyOp26
 70
     1
102
RTVSPropertyOp27
 70
     1
102
RTVSPropertyOp28
 70
     1
102
RTVSPropertyOp29
 70
     1
102
RTVSPropertyOp30
 70
     1
102
RTVSPropertyOp31
 70
     1
102
RTVSPropertyOp32
 70
     1
102
RTVSPropertyOp33
 70
     1
102
RTVSPropertyOp34
 70
     1
102
RTVSPropertyOp35
 70
     1
102
RTVSPropertyOp36
 70
     1
102
RTVSPropertyOp37
 70
     1
102
RTVSPropertyOp38
 70
     1
102
RTVSPropertyOp39
 70
     1
102
RTVSPropertyOp40
 70
     1
102
RTVSPropertyOp41
 70
     1
102
RTVSPropertyOp42
 70
     1
102
RTVSPropertyOp43
 70
     1
102
RTVSPropertyOp44
 70
     1
102
RTVSPropertyOp45
 70
     1
102
RTVSPropertyOp46
 70
     1
102
RTVSPropertyOp47
 70
     1
102
RTVSPropertyOp48
 70
     1
102
RTVSPropertyOp49
 70
     1
102
RTVSPropertyOp50
 70
     1
102
RTVSPropertyOp51
 70
     0
102
RTVSPropertyOp52
 70
     0
102
RTVSPropertyOp53
 70
     1
102
RTVSPropertyOp54
 70
     1
102
RTVSPropertyOp55
 70
     1
102
RTVSPropertyOp56
 70
     1
102
RTVSPropertyOp57
 70
     1
102
RTVSPropertyOp58
 70
     1
102
RTVSPropertyOp59
 70
     1
102
RTVSPropertyOp60
 70
     1
102
RTVSPropertyOp61
 70
     1
102
RTVSPropertyOp62
 70
     1
  0
XRECORD
  5
1504E
102
{ACAD_REACTORS
330
1504D
102
}
330
1504D
100
AcDbXrecord
280
     1
102
RTVSPost2010Prop28
280
     0
102
RTVSPost2010PropOp28
 70
     1
102
RTVSPost2010Prop29
280
     1
102
RTVSPost2010PropOp29
 70
     1
102
RTVSPost2010Prop30
280
     1
102
RTVSPost2010PropOp30
 70
     1
102
RTVSPost2010Prop31
280
     0
102
RTVSPost2010PropOp31
 70
     1
102
RTVSPost2010Prop32
280
     0
102
RTVSPost2010PropOp32
 70
     1
102
RTVSPost2010Prop33
280
     0
102
RTVSPost2010PropOp33
 70
     1
102
RTVSPost2010Prop34
280
     0
102
RTVSPost2010PropOp34
 70
     1
102
RTVSPost2010Prop35
280
     0
102
RTVSPost2010PropOp35
 70
     1
102
RTVSPost2010Prop36
280
     0
102
RTVSPost2010PropOp36
 70
     1
102
RTVSPost2010Prop37
 90
       50
102
RTVSPost2010PropOp37
 70
     1
102
RTVSPost2010Prop38
140
0.0
102
RTVSPost2010PropOp38
 70
     1
102
RTVSPost2010Prop39
140
1.0
102
RTVSPost2010PropOp39
 70
     1
102
RTVSPost2010Prop40
 90
        0
102
RTVSPost2010PropOp40
 70
     1
102
RTVSPost2010Prop41ColorIndex
 90
       18
102
RTVSPost2010Prop41ColorRGB
 90
        0
102
RTVSPost2010PropOp41
 70
     1
102
RTVSPost2010Prop42
 90
       50
102
RTVSPost2010PropOp42
 70
     1
102
RTVSPost2010Prop43
 90
        3
102
RTVSPost2010PropOp43
 70
     1
102
RTVSPost2010Prop44ColorIndex
 90
        5
102
RTVSPost2010Prop44ColorRGB
 90
      255
102
RTVSPost2010PropOp44
 70
     1
102
RTVSPost2010Prop45
280
     0
102
RTVSPost2010PropOp45
 70
     1
102
RTVSPost2010Prop46
 90
       50
102
RTVSPost2010PropOp46
 70
     1
102
RTVSPost2010Prop47
 90
       50
102
RTVSPost2010PropOp47
 70
     1
102
RTVSPost2010Prop48
 90
       50
102
RTVSPost2010PropOp48
 70
     1
102
RTVSPost2010Prop49
280
     0
102
RTVSPost2010PropOp49
 70
     1
102
RTVSPost2010Prop50
 90
       50
102
RTVSPost2010PropOp50
 70
     1
102
RTVSPost2010Prop51ColorIndex
 90
      256
102
RTVSPost2010Prop51ColorRGB
 90
-16777216
102
RTVSPost2010PropOp51
 70
     0
102
RTVSPost2010Prop52
140
1.0
102
RTVSPost2010PropOp52
 70
     0
102
RTVSPost2010Prop53
 90
        2
102
RTVSPost2010PropOp53
 70
     1
102
RTVSPost2010Prop54
  1
strokes_ogs.tif
102
RTVSPost2010PropOp54
 70
     1
102
RTVSPost2010Prop55
280
     0
102
RTVSPost2010PropOp55
 70
     1
102
RTVSPost2010Prop56
140
1.0
102
RTVSPost2010PropOp56
 70
     1
102
RTVSPost2010Prop57
140
1.0
102
RTVSPost2010PropOp57
 70
     1
102
RTVSPropertyOp0
 70
     1
102
RTVSPropertyOp1
 70
     1
102
RTVSPropertyOp2
 70
     1
102
RTVSPropertyOp3
 70
     1
102
RTVSPropertyOp4
 70
     1
102
RTVSPropertyOp5
 70
     1
102
RTVSPropertyOp6
 70
     1
102
RTVSPropertyOp7
 70
     1
102
RTVSPropertyOp8
 70
     1
102
RTVSPropertyOp9
 70
     1
102
RTVSPropertyOp10
 70
     1
102
RTVSPropertyOp11
 70
     1
102
RTVSPropertyOp12
 70
     1
102
RTVSPropertyOp13
 70
     1
102
RTVSPropertyOp14
 70
     1
102
RTVSPropertyOp15
 70
     1
102
RTVSPropertyOp16
 70
     1
102
RTVSPropertyOp17
 70
     1
102
RTVSPropertyOp18
 70
     1
102
RTVSPropertyOp19
 70
     1
102
RTVSPropertyOp20
 70
     1
102
RTVSPropertyOp21
 70
     1
102
RTVSPropertyOp22
 70
     1
102
RTVSPropertyOp23
 70
     1
102
RTVSPropertyOp24
 70
     1
102
RTVSPropertyOp25
 70
     1
102
RTVSPropertyOp26
 70
     1
102
RTVSPropertyOp27
 70
     1
102
RTVSPropertyOp28
 70
     1
102
RTVSPropertyOp29
 70
     1
102
RTVSPropertyOp30
 70
     1
102
RTVSPropertyOp31
 70
     1
102
RTVSPropertyOp32
 70
     1
102
RTVSPropertyOp33
 70
     1
102
RTVSPropertyOp34
 70
     1
102
RTVSPropertyOp35
 70
     1
102
RTVSPropertyOp36
 70
     1
102
RTVSPropertyOp37
 70
     1
102
RTVSPropertyOp38
 70
     1
102
RTVSPropertyOp39
 70
     1
102
RTVSPropertyOp40
 70
     1
102
RTVSPropertyOp41
 70
     1
102
RTVSPropertyOp42
 70
     1
102
RTVSPropertyOp43
 70
     1
102
RTVSPropertyOp44
 70
     1
102
RTVSPropertyOp45
 70
     1
102
RTVSPropertyOp46
 70
     1
102
RTVSPropertyOp47
 70
     1
102
RTVSPropertyOp48
 70
     1
102
RTVSPropertyOp49
 70
     1
102
RTVSPropertyOp50
 70
     1
102
RTVSPropertyOp51
 70
     0
102
RTVSPropertyOp52
 70
     0
102
RTVSPropertyOp53
 70
     1
102
RTVSPropertyOp54
 70
     1
102
RTVSPropertyOp55
 70
     1
102
RTVSPropertyOp56
 70
     1
102
RTVSPropertyOp57
 70
     1
102
RTVSPropertyOp58
 70
     1
102
RTVSPropertyOp59
 70
     1
102
RTVSPropertyOp60
 70
     1
102
RTVSPropertyOp61
 70
     1
102
RTVSPropertyOp62
 70
     1
  0
XRECORD
  5
15050
102
{ACAD_REACTORS
330
1504F
102
}
330
1504F
100
AcDbXrecord
280
     1
102
RTVSPost2010Prop28
280
     0
102
RTVSPost2010PropOp28
 70
     1
102
RTVSPost2010Prop29
280
     1
102
RTVSPost2010PropOp29
 70
     1
102
RTVSPost2010Prop30
280
     1
102
RTVSPost2010PropOp30
 70
     1
102
RTVSPost2010Prop31
280
     0
102
RTVSPost2010PropOp31
 70
     1
102
RTVSPost2010Prop32
280
     0
102
RTVSPost2010PropOp32
 70
     1
102
RTVSPost2010Prop33
280
     0
102
RTVSPost2010PropOp33
 70
     1
102
RTVSPost2010Prop34
280
     0
102
RTVSPost2010PropOp34
 70
     1
102
RTVSPost2010Prop35
280
     0
102
RTVSPost2010PropOp35
 70
     1
102
RTVSPost2010Prop36
280
     0
102
RTVSPost2010PropOp36
 70
     1
102
RTVSPost2010Prop37
 90
       50
102
RTVSPost2010PropOp37
 70
     1
102
RTVSPost2010Prop38
140
0.0
102
RTVSPost2010PropOp38
 70
     1
102
RTVSPost2010Prop39
140
1.0
102
RTVSPost2010PropOp39
 70
     1
102
RTVSPost2010Prop40
 90
        0
102
RTVSPost2010PropOp40
 70
     1
102
RTVSPost2010Prop41ColorIndex
 90
       18
102
RTVSPost2010Prop41ColorRGB
 90
        0
102
RTVSPost2010PropOp41
 70
     1
102
RTVSPost2010Prop42
 90
       50
102
RTVSPost2010PropOp42
 70
     1
102
RTVSPost2010Prop43
 90
        3
102
RTVSPost2010PropOp43
 70
     1
102
RTVSPost2010Prop44ColorIndex
 90
        5
102
RTVSPost2010Prop44ColorRGB
 90
      255
102
RTVSPost2010PropOp44
 70
     1
102
RTVSPost2010Prop45
280
     0
102
RTVSPost2010PropOp45
 70
     1
102
RTVSPost2010Prop46
 90
       50
102
RTVSPost2010PropOp46
 70
     1
102
RTVSPost2010Prop47
 90
       50
102
RTVSPost2010PropOp47
 70
     1
102
RTVSPost2010Prop48
 90
       50
102
RTVSPost2010PropOp48
 70
     1
102
RTVSPost2010Prop49
280
     0
102
RTVSPost2010PropOp49
 70
     1
102
RTVSPost2010Prop50
 90
       50
102
RTVSPost2010PropOp50
 70
     1
102
RTVSPost2010Prop51ColorIndex
 90
      256
102
RTVSPost2010Prop51ColorRGB
 90
-16777216
102
RTVSPost2010PropOp51
 70
     0
102
RTVSPost2010Prop52
140
1.0
102
RTVSPost2010PropOp52
 70
     0
102
RTVSPost2010Prop53
 90
        2
102
RTVSPost2010PropOp53
 70
     1
102
RTVSPost2010Prop54
  1
strokes_ogs.tif
102
RTVSPost2010PropOp54
 70
     1
102
RTVSPost2010Prop55
280
     0
102
RTVSPost2010PropOp55
 70
     1
102
RTVSPost2010Prop56
140
1.0
102
RTVSPost2010PropOp56
 70
     1
102
RTVSPost2010Prop57
140
1.0
102
RTVSPost2010PropOp57
 70
     1
102
RTVSPropertyOp0
 70
     1
102
RTVSPropertyOp1
 70
     1
102
RTVSPropertyOp2
 70
     1
102
RTVSPropertyOp3
 70
     1
102
RTVSPropertyOp4
 70
     1
102
RTVSPropertyOp5
 70
     1
102
RTVSPropertyOp6
 70
     1
102
RTVSPropertyOp7
 70
     1
102
RTVSPropertyOp8
 70
     1
102
RTVSPropertyOp9
 70
     1
102
RTVSPropertyOp10
 70
     1
102
RTVSPropertyOp11
 70
     1
102
RTVSPropertyOp12
 70
     1
102
RTVSPropertyOp13
 70
     1
102
RTVSPropertyOp14
 70
     1
102
RTVSPropertyOp15
 70
     1
102
RTVSPropertyOp16
 70
     1
102
RTVSPropertyOp17
 70
     1
102
RTVSPropertyOp18
 70
     1
102
RTVSPropertyOp19
 70
     1
102
RTVSPropertyOp20
 70
     1
102
RTVSPropertyOp21
 70
     1
102
RTVSPropertyOp22
 70
     1
102
RTVSPropertyOp23
 70
     1
102
RTVSPropertyOp24
 70
     1
102
RTVSPropertyOp25
 70
     1
102
RTVSPropertyOp26
 70
     1
102
RTVSPropertyOp27
 70
     1
102
RTVSPropertyOp28
 70
     1
102
RTVSPropertyOp29
 70
     1
102
RTVSPropertyOp30
 70
     1
102
RTVSPropertyOp31
 70
     1
102
RTVSPropertyOp32
 70
     1
102
RTVSPropertyOp33
 70
     1
102
RTVSPropertyOp34
 70
     1
102
RTVSPropertyOp35
 70
     1
102
RTVSPropertyOp36
 70
     1
102
RTVSPropertyOp37
 70
     1
102
RTVSPropertyOp38
 70
     1
102
RTVSPropertyOp39
 70
     1
102
RTVSPropertyOp40
 70
     1
102
RTVSPropertyOp41
 70
     1
102
RTVSPropertyOp42
 70
     1
102
RTVSPropertyOp43
 70
     1
102
RTVSPropertyOp44
 70
     1
102
RTVSPropertyOp45
 70
     1
102
RTVSPropertyOp46
 70
     1
102
RTVSPropertyOp47
 70
     1
102
RTVSPropertyOp48
 70
     1
102
RTVSPropertyOp49
 70
     1
102
RTVSPropertyOp50
 70
     1
102
RTVSPropertyOp51
 70
     0
102
RTVSPropertyOp52
 70
     0
102
RTVSPropertyOp53
 70
     1
102
RTVSPropertyOp54
 70
     1
102
RTVSPropertyOp55
 70
     1
102
RTVSPropertyOp56
 70
     1
102
RTVSPropertyOp57
 70
     1
102
RTVSPropertyOp58
 70
     1
102
RTVSPropertyOp59
 70
     1
102
RTVSPropertyOp60
 70
     1
102
RTVSPropertyOp61
 70
     1
102
RTVSPropertyOp62
 70
     1
  0
XRECORD
  5
15052
102
{ACAD_REACTORS
330
15051
102
}
330
15051
100
AcDbXrecord
280
     1
102
RTVSPost2010Prop28
280
     0
102
RTVSPost2010PropOp28
 70
     1
102
RTVSPost2010Prop29
280
     1
102
RTVSPost2010PropOp29
 70
     1
102
RTVSPost2010Prop30
280
     1
102
RTVSPost2010PropOp30
 70
     1
102
RTVSPost2010Prop31
280
     0
102
RTVSPost2010PropOp31
 70
     1
102
RTVSPost2010Prop32
280
     0
102
RTVSPost2010PropOp32
 70
     1
102
RTVSPost2010Prop33
280
     0
102
RTVSPost2010PropOp33
 70
     1
102
RTVSPost2010Prop34
280
     0
102
RTVSPost2010PropOp34
 70
     1
102
RTVSPost2010Prop35
280
     0
102
RTVSPost2010PropOp35
 70
     1
102
RTVSPost2010Prop36
280
     0
102
RTVSPost2010PropOp36
 70
     1
102
RTVSPost2010Prop37
 90
       50
102
RTVSPost2010PropOp37
 70
     1
102
RTVSPost2010Prop38
140
0.0
102
RTVSPost2010PropOp38
 70
     1
102
RTVSPost2010Prop39
140
1.0
102
RTVSPost2010PropOp39
 70
     1
102
RTVSPost2010Prop40
 90
        0
102
RTVSPost2010PropOp40
 70
     1
102
RTVSPost2010Prop41ColorIndex
 90
       18
102
RTVSPost2010Prop41ColorRGB
 90
        0
102
RTVSPost2010PropOp41
 70
     1
102
RTVSPost2010Prop42
 90
       50
102
RTVSPost2010PropOp42
 70
     1
102
RTVSPost2010Prop43
 90
        3
102
RTVSPost2010PropOp43
 70
     1
102
RTVSPost2010Prop44ColorIndex
 90
        5
102
RTVSPost2010Prop44ColorRGB
 90
      255
102
RTVSPost2010PropOp44
 70
     1
102
RTVSPost2010Prop45
280
     0
102
RTVSPost2010PropOp45
 70
     1
102
RTVSPost2010Prop46
 90
       50
102
RTVSPost2010PropOp46
 70
     1
102
RTVSPost2010Prop47
 90
       50
102
RTVSPost2010PropOp47
 70
     1
102
RTVSPost2010Prop48
 90
       50
102
RTVSPost2010PropOp48
 70
     1
102
RTVSPost2010Prop49
280
     0
102
RTVSPost2010PropOp49
 70
     1
102
RTVSPost2010Prop50
 90
       50
102
RTVSPost2010PropOp50
 70
     1
102
RTVSPost2010Prop51ColorIndex
 90
      256
102
RTVSPost2010Prop51ColorRGB
 90
-16777216
102
RTVSPost2010PropOp51
 70
     0
102
RTVSPost2010Prop52
140
1.0
102
RTVSPost2010PropOp52
 70
     0
102
RTVSPost2010Prop53
 90
        2
102
RTVSPost2010PropOp53
 70
     1
102
RTVSPost2010Prop54
  1
strokes_ogs.tif
102
RTVSPost2010PropOp54
 70
     1
102
RTVSPost2010Prop55
280
     0
102
RTVSPost2010PropOp55
 70
     1
102
RTVSPost2010Prop56
140
1.0
102
RTVSPost2010PropOp56
 70
     1
102
RTVSPost2010Prop57
140
1.0
102
RTVSPost2010PropOp57
 70
     1
102
RTVSPropertyOp0
 70
     1
102
RTVSPropertyOp1
 70
     1
102
RTVSPropertyOp2
 70
     1
102
RTVSPropertyOp3
 70
     1
102
RTVSPropertyOp4
 70
     1
102
RTVSPropertyOp5
 70
     1
102
RTVSPropertyOp6
 70
     1
102
RTVSPropertyOp7
 70
     1
102
RTVSPropertyOp8
 70
     1
102
RTVSPropertyOp9
 70
     1
102
RTVSPropertyOp10
 70
     1
102
RTVSPropertyOp11
 70
     1
102
RTVSPropertyOp12
 70
     1
102
RTVSPropertyOp13
 70
     1
102
RTVSPropertyOp14
 70
     1
102
RTVSPropertyOp15
 70
     1
102
RTVSPropertyOp16
 70
     1
102
RTVSPropertyOp17
 70
     1
102
RTVSPropertyOp18
 70
     1
102
RTVSPropertyOp19
 70
     1
102
RTVSPropertyOp20
 70
     1
102
RTVSPropertyOp21
 70
     1
102
RTVSPropertyOp22
 70
     1
102
RTVSPropertyOp23
 70
     1
102
RTVSPropertyOp24
 70
     1
102
RTVSPropertyOp25
 70
     1
102
RTVSPropertyOp26
 70
     1
102
RTVSPropertyOp27
 70
     1
102
RTVSPropertyOp28
 70
     1
102
RTVSPropertyOp29
 70
     1
102
RTVSPropertyOp30
 70
     1
102
RTVSPropertyOp31
 70
     1
102
RTVSPropertyOp32
 70
     1
102
RTVSPropertyOp33
 70
     1
102
RTVSPropertyOp34
 70
     1
102
RTVSPropertyOp35
 70
     1
102
RTVSPropertyOp36
 70
     1
102
RTVSPropertyOp37
 70
     1
102
RTVSPropertyOp38
 70
     1
102
RTVSPropertyOp39
 70
     1
102
RTVSPropertyOp40
 70
     1
102
RTVSPropertyOp41
 70
     1
102
RTVSPropertyOp42
 70
     1
102
RTVSPropertyOp43
 70
     1
102
RTVSPropertyOp44
 70
     1
102
RTVSPropertyOp45
 70
     1
102
RTVSPropertyOp46
 70
     1
102
RTVSPropertyOp47
 70
     1
102
RTVSPropertyOp48
 70
     1
102
RTVSPropertyOp49
 70
     1
102
RTVSPropertyOp50
 70
     1
102
RTVSPropertyOp51
 70
     0
102
RTVSPropertyOp52
 70
     0
102
RTVSPropertyOp53
 70
     1
102
RTVSPropertyOp54
 70
     1
102
RTVSPropertyOp55
 70
     1
102
RTVSPropertyOp56
 70
     1
102
RTVSPropertyOp57
 70
     1
102
RTVSPropertyOp58
 70
     1
102
RTVSPropertyOp59
 70
     1
102
RTVSPropertyOp60
 70
     1
102
RTVSPropertyOp61
 70
     1
102
RTVSPropertyOp62
 70
     1
  0
XRECORD
  5
1505A
102
{ACAD_REACTORS
330
15059
102
}
330
15059
100
AcDbXrecord
280
     1
102
RTVSPost2010Prop28
280
     0
102
RTVSPost2010PropOp28
 70
     1
102
RTVSPost2010Prop29
280
     1
102
RTVSPost2010PropOp29
 70
     1
102
RTVSPost2010Prop30
280
     1
102
RTVSPost2010PropOp30
 70
     1
102
RTVSPost2010Prop31
280
     0
102
RTVSPost2010PropOp31
 70
     1
102
RTVSPost2010Prop32
280
     0
102
RTVSPost2010PropOp32
 70
     1
102
RTVSPost2010Prop33
280
     0
102
RTVSPost2010PropOp33
 70
     1
102
RTVSPost2010Prop34
280
     0
102
RTVSPost2010PropOp34
 70
     1
102
RTVSPost2010Prop35
280
     0
102
RTVSPost2010PropOp35
 70
     1
102
RTVSPost2010Prop36
280
     0
102
RTVSPost2010PropOp36
 70
     1
102
RTVSPost2010Prop37
 90
       50
102
RTVSPost2010PropOp37
 70
     1
102
RTVSPost2010Prop38
140
0.0
102
RTVSPost2010PropOp38
 70
     1
102
RTVSPost2010Prop39
140
1.0
102
RTVSPost2010PropOp39
 70
     1
102
RTVSPost2010Prop40
 90
        0
102
RTVSPost2010PropOp40
 70
     1
102
RTVSPost2010Prop41ColorIndex
 90
       18
102
RTVSPost2010Prop41ColorRGB
 90
        0
102
RTVSPost2010PropOp41
 70
     1
102
RTVSPost2010Prop42
 90
       50
102
RTVSPost2010PropOp42
 70
     1
102
RTVSPost2010Prop43
 90
        3
102
RTVSPost2010PropOp43
 70
     1
102
RTVSPost2010Prop44ColorIndex
 90
        5
102
RTVSPost2010Prop44ColorRGB
 90
      255
102
RTVSPost2010PropOp44
 70
     1
102
RTVSPost2010Prop45
280
     0
102
RTVSPost2010PropOp45
 70
     1
102
RTVSPost2010Prop46
 90
       50
102
RTVSPost2010PropOp46
 70
     1
102
RTVSPost2010Prop47
 90
       50
102
RTVSPost2010PropOp47
 70
     1
102
RTVSPost2010Prop48
 90
       50
102
RTVSPost2010PropOp48
 70
     1
102
RTVSPost2010Prop49
280
     0
102
RTVSPost2010PropOp49
 70
     1
102
RTVSPost2010Prop50
 90
       50
102
RTVSPost2010PropOp50
 70
     1
102
RTVSPost2010Prop51ColorIndex
 90
      256
102
RTVSPost2010Prop51ColorRGB
 90
-16777216
102
RTVSPost2010PropOp51
 70
     0
102
RTVSPost2010Prop52
140
1.0
102
RTVSPost2010PropOp52
 70
     0
102
RTVSPost2010Prop53
 90
        2
102
RTVSPost2010PropOp53
 70
     1
102
RTVSPost2010Prop54
  1
strokes_ogs.tif
102
RTVSPost2010PropOp54
 70
     1
102
RTVSPost2010Prop55
280
     0
102
RTVSPost2010PropOp55
 70
     1
102
RTVSPost2010Prop56
140
1.0
102
RTVSPost2010PropOp56
 70
     1
102
RTVSPost2010Prop57
140
1.0
102
RTVSPost2010PropOp57
 70
     1
102
RTVSPropertyOp0
 70
     1
102
RTVSPropertyOp1
 70
     1
102
RTVSPropertyOp2
 70
     1
102
RTVSPropertyOp3
 70
     1
102
RTVSPropertyOp4
 70
     1
102
RTVSPropertyOp5
 70
     1
102
RTVSPropertyOp6
 70
     1
102
RTVSPropertyOp7
 70
     1
102
RTVSPropertyOp8
 70
     1
102
RTVSPropertyOp9
 70
     1
102
RTVSPropertyOp10
 70
     1
102
RTVSPropertyOp11
 70
     1
102
RTVSPropertyOp12
 70
     1
102
RTVSPropertyOp13
 70
     1
102
RTVSPropertyOp14
 70
     1
102
RTVSPropertyOp15
 70
     1
102
RTVSPropertyOp16
 70
     1
102
RTVSPropertyOp17
 70
     1
102
RTVSPropertyOp18
 70
     1
102
RTVSPropertyOp19
 70
     1
102
RTVSPropertyOp20
 70
     1
102
RTVSPropertyOp21
 70
     1
102
RTVSPropertyOp22
 70
     1
102
RTVSPropertyOp23
 70
     1
102
RTVSPropertyOp24
 70
     1
102
RTVSPropertyOp25
 70
     1
102
RTVSPropertyOp26
 70
     1
102
RTVSPropertyOp27
 70
     1
102
RTVSPropertyOp28
 70
     1
102
RTVSPropertyOp29
 70
     1
102
RTVSPropertyOp30
 70
     1
102
RTVSPropertyOp31
 70
     1
102
RTVSPropertyOp32
 70
     1
102
RTVSPropertyOp33
 70
     1
102
RTVSPropertyOp34
 70
     1
102
RTVSPropertyOp35
 70
     1
102
RTVSPropertyOp36
 70
     1
102
RTVSPropertyOp37
 70
     1
102
RTVSPropertyOp38
 70
     1
102
RTVSPropertyOp39
 70
     1
102
RTVSPropertyOp40
 70
     1
102
RTVSPropertyOp41
 70
     1
102
RTVSPropertyOp42
 70
     1
102
RTVSPropertyOp43
 70
     1
102
RTVSPropertyOp44
 70
     1
102
RTVSPropertyOp45
 70
     1
102
RTVSPropertyOp46
 70
     1
102
RTVSPropertyOp47
 70
     1
102
RTVSPropertyOp48
 70
     1
102
RTVSPropertyOp49
 70
     1
102
RTVSPropertyOp50
 70
     1
102
RTVSPropertyOp51
 70
     0
102
RTVSPropertyOp52
 70
     0
102
RTVSPropertyOp53
 70
     1
102
RTVSPropertyOp54
 70
     1
102
RTVSPropertyOp55
 70
     1
102
RTVSPropertyOp56
 70
     1
102
RTVSPropertyOp57
 70
     1
102
RTVSPropertyOp58
 70
     1
102
RTVSPropertyOp59
 70
     1
102
RTVSPropertyOp60
 70
     1
102
RTVSPropertyOp61
 70
     1
102
RTVSPropertyOp62
 70
     1
  0
XRECORD
  5
15076
102
{ACAD_REACTORS
330
15075
102
}
330
15075
100
AcDbXrecord
280
     1
102
RTVSPost2010Prop28
280
     0
102
RTVSPost2010PropOp28
 70
     0
102
RTVSPost2010Prop29
280
     1
102
RTVSPost2010PropOp29
 70
     0
102
RTVSPost2010Prop30
280
     1
102
RTVSPost2010PropOp30
 70
     0
102
RTVSPost2010Prop31
280
     0
102
RTVSPost2010PropOp31
 70
     0
102
RTVSPost2010Prop32
280
     0
102
RTVSPost2010PropOp32
 70
     0
102
RTVSPost2010Prop33
280
     0
102
RTVSPost2010PropOp33
 70
     0
102
RTVSPost2010Prop34
280
     0
102
RTVSPost2010PropOp34
 70
     0
102
RTVSPost2010Prop35
280
     0
102
RTVSPost2010PropOp35
 70
     0
102
RTVSPost2010Prop36
280
     0
102
RTVSPost2010PropOp36
 70
     0
102
RTVSPost2010Prop37
 90
       50
102
RTVSPost2010PropOp37
 70
     0
102
RTVSPost2010Prop38
140
0.0
102
RTVSPost2010PropOp38
 70
     0
102
RTVSPost2010Prop39
140
1.0
102
RTVSPost2010PropOp39
 70
     0
102
RTVSPost2010Prop40
 90
        0
102
RTVSPost2010PropOp40
 70
     0
102
RTVSPost2010Prop41ColorIndex
 90
       18
102
RTVSPost2010Prop41ColorRGB
 90
        0
102
RTVSPost2010PropOp41
 70
     0
102
RTVSPost2010Prop42
 90
       50
102
RTVSPost2010PropOp42
 70
     0
102
RTVSPost2010Prop43
 90
        3
102
RTVSPost2010PropOp43
 70
     0
102
RTVSPost2010Prop44ColorIndex
 90
        5
102
RTVSPost2010Prop44ColorRGB
 90
      255
102
RTVSPost2010PropOp44
 70
     0
102
RTVSPost2010Prop45
280
     0
102
RTVSPost2010PropOp45
 70
     0
102
RTVSPost2010Prop46
 90
       50
102
RTVSPost2010PropOp46
 70
     0
102
RTVSPost2010Prop47
 90
       50
102
RTVSPost2010PropOp47
 70
     0
102
RTVSPost2010Prop48
 90
       50
102
RTVSPost2010PropOp48
 70
     0
102
RTVSPost2010Prop49
280
     0
102
RTVSPost2010PropOp49
 70
     0
102
RTVSPost2010Prop50
 90
       50
102
RTVSPost2010PropOp50
 70
     0
102
RTVSPost2010Prop51ColorIndex
 90
      256
102
RTVSPost2010Prop51ColorRGB
 90
-16777216
102
RTVSPost2010PropOp51
 70
     0
102
RTVSPost2010Prop52
140
1.0
102
RTVSPost2010PropOp52
 70
     0
102
RTVSPost2010Prop53
 90
        2
102
RTVSPost2010PropOp53
 70
     0
102
RTVSPost2010Prop54
  1
strokes_ogs.tif
102
RTVSPost2010PropOp54
 70
     0
102
RTVSPost2010Prop55
280
     0
102
RTVSPost2010PropOp55
 70
     0
102
RTVSPost2010Prop56
140
1.0
102
RTVSPost2010PropOp56
 70
     0
102
RTVSPost2010Prop57
140
1.0
102
RTVSPost2010PropOp57
 70
     0
102
RTVSPropertyOp0
 70
     0
102
RTVSPropertyOp1
 70
     0
102
RTVSPropertyOp2
 70
     0
102
RTVSPropertyOp3
 70
     0
102
RTVSPropertyOp4
 70
     0
102
RTVSPropertyOp5
 70
     0
102
RTVSPropertyOp6
 70
     0
102
RTVSPropertyOp7
 70
     0
102
RTVSPropertyOp8
 70
     0
102
RTVSPropertyOp9
 70
     0
102
RTVSPropertyOp10
 70
     0
102
RTVSPropertyOp11
 70
     0
102
RTVSPropertyOp12
 70
     0
102
RTVSPropertyOp13
 70
     0
102
RTVSPropertyOp14
 70
     2
102
RTVSPropertyOp15
 70
     0
102
RTVSPropertyOp16
 70
     0
102
RTVSPropertyOp17
 70
     0
102
RTVSPropertyOp18
 70
     0
102
RTVSPropertyOp19
 70
     0
102
RTVSPropertyOp20
 70
     0
102
RTVSPropertyOp21
 70
     0
102
RTVSPropertyOp22
 70
     0
102
RTVSPropertyOp23
 70
     0
102
RTVSPropertyOp24
 70
     0
102
RTVSPropertyOp25
 70
     0
102
RTVSPropertyOp26
 70
     0
102
RTVSPropertyOp27
 70
     0
102
RTVSPropertyOp28
 70
     0
102
RTVSPropertyOp29
 70
     0
102
RTVSPropertyOp30
 70
     0
102
RTVSPropertyOp31
 70
     0
102
RTVSPropertyOp32
 70
     0
102
RTVSPropertyOp33
 70
     0
102
RTVSPropertyOp34
 70
     0
102
RTVSPropertyOp35
 70
     0
102
RTVSPropertyOp36
 70
     0
102
RTVSPropertyOp37
 70
     0
102
RTVSPropertyOp38
 70
     0
102
RTVSPropertyOp39
 70
     0
102
RTVSPropertyOp40
 70
     0
102
RTVSPropertyOp41
 70
     0
102
RTVSPropertyOp42
 70
     0
102
RTVSPropertyOp43
 70
     0
102
RTVSPropertyOp44
 70
     0
102
RTVSPropertyOp45
 70
     0
102
RTVSPropertyOp46
 70
     0
102
RTVSPropertyOp47
 70
     0
102
RTVSPropertyOp48
 70
     0
102
RTVSPropertyOp49
 70
     0
102
RTVSPropertyOp50
 70
     0
102
RTVSPropertyOp51
 70
     0
102
RTVSPropertyOp52
 70
     0
102
RTVSPropertyOp53
 70
     0
102
RTVSPropertyOp54
 70
     0
102
RTVSPropertyOp55
 70
     0
102
RTVSPropertyOp56
 70
     0
102
RTVSPropertyOp57
 70
     0
102
RTVSPropertyOp58
 70
     1
102
RTVSPropertyOp59
 70
     1
102
RTVSPropertyOp60
 70
     1
102
RTVSPropertyOp61
 70
     1
102
RTVSPropertyOp62
 70
     1
  0
XRECORD
  5
15066
102
{ACAD_REACTORS
330
15065
102
}
330
15065
100
AcDbXrecord
280
     1
102
RTVSPost2010Prop28
280
     0
102
RTVSPost2010PropOp28
 70
     1
102
RTVSPost2010Prop29
280
     1
102
RTVSPost2010PropOp29
 70
     1
102
RTVSPost2010Prop30
280
     1
102
RTVSPost2010PropOp30
 70
     1
102
RTVSPost2010Prop31
280
     0
102
RTVSPost2010PropOp31
 70
     1
102
RTVSPost2010Prop32
280
     0
102
RTVSPost2010PropOp32
 70
     1
102
RTVSPost2010Prop33
280
     0
102
RTVSPost2010PropOp33
 70
     1
102
RTVSPost2010Prop34
280
     0
102
RTVSPost2010PropOp34
 70
     1
102
RTVSPost2010Prop35
280
     0
102
RTVSPost2010PropOp35
 70
     1
102
RTVSPost2010Prop36
280
     0
102
RTVSPost2010PropOp36
 70
     1
102
RTVSPost2010Prop37
 90
       50
102
RTVSPost2010PropOp37
 70
     1
102
RTVSPost2010Prop38
140
0.0
102
RTVSPost2010PropOp38
 70
     1
102
RTVSPost2010Prop39
140
1.0
102
RTVSPost2010PropOp39
 70
     1
102
RTVSPost2010Prop40
 90
        0
102
RTVSPost2010PropOp40
 70
     1
102
RTVSPost2010Prop41ColorIndex
 90
       18
102
RTVSPost2010Prop41ColorRGB
 90
        0
102
RTVSPost2010PropOp41
 70
     1
102
RTVSPost2010Prop42
 90
       50
102
RTVSPost2010PropOp42
 70
     1
102
RTVSPost2010Prop43
 90
        3
102
RTVSPost2010PropOp43
 70
     1
102
RTVSPost2010Prop44ColorIndex
 90
        5
102
RTVSPost2010Prop44ColorRGB
 90
      255
102
RTVSPost2010PropOp44
 70
     1
102
RTVSPost2010Prop45
280
     0
102
RTVSPost2010PropOp45
 70
     1
102
RTVSPost2010Prop46
 90
       50
102
RTVSPost2010PropOp46
 70
     1
102
RTVSPost2010Prop47
 90
       50
102
RTVSPost2010PropOp47
 70
     1
102
RTVSPost2010Prop48
 90
       50
102
RTVSPost2010PropOp48
 70
     1
102
RTVSPost2010Prop49
280
     0
102
RTVSPost2010PropOp49
 70
     1
102
RTVSPost2010Prop50
 90
       50
102
RTVSPost2010PropOp50
 70
     1
102
RTVSPost2010Prop51ColorIndex
 90
      256
102
RTVSPost2010Prop51ColorRGB
 90
-16777216
102
RTVSPost2010PropOp51
 70
     0
102
RTVSPost2010Prop52
140
1.0
102
RTVSPost2010PropOp52
 70
     0
102
RTVSPost2010Prop53
 90
        2
102
RTVSPost2010PropOp53
 70
     1
102
RTVSPost2010Prop54
  1
strokes_ogs.tif
102
RTVSPost2010PropOp54
 70
     1
102
RTVSPost2010Prop55
280
     0
102
RTVSPost2010PropOp55
 70
     1
102
RTVSPost2010Prop56
140
1.0
102
RTVSPost2010PropOp56
 70
     1
102
RTVSPost2010Prop57
140
1.0
102
RTVSPost2010PropOp57
 70
     1
102
RTVSPropertyOp0
 70
     1
102
RTVSPropertyOp1
 70
     1
102
RTVSPropertyOp2
 70
     1
102
RTVSPropertyOp3
 70
     1
102
RTVSPropertyOp4
 70
     1
102
RTVSPropertyOp5
 70
     1
102
RTVSPropertyOp6
 70
     1
102
RTVSPropertyOp7
 70
     1
102
RTVSPropertyOp8
 70
     1
102
RTVSPropertyOp9
 70
     1
102
RTVSPropertyOp10
 70
     1
102
RTVSPropertyOp11
 70
     1
102
RTVSPropertyOp12
 70
     1
102
RTVSPropertyOp13
 70
     1
102
RTVSPropertyOp14
 70
     1
102
RTVSPropertyOp15
 70
     1
102
RTVSPropertyOp16
 70
     1
102
RTVSPropertyOp17
 70
     1
102
RTVSPropertyOp18
 70
     1
102
RTVSPropertyOp19
 70
     1
102
RTVSPropertyOp20
 70
     1
102
RTVSPropertyOp21
 70
     1
102
RTVSPropertyOp22
 70
     1
102
RTVSPropertyOp23
 70
     1
102
RTVSPropertyOp24
 70
     1
102
RTVSPropertyOp25
 70
     1
102
RTVSPropertyOp26
 70
     1
102
RTVSPropertyOp27
 70
     1
102
RTVSPropertyOp28
 70
     1
102
RTVSPropertyOp29
 70
     1
102
RTVSPropertyOp30
 70
     1
102
RTVSPropertyOp31
 70
     1
102
RTVSPropertyOp32
 70
     1
102
RTVSPropertyOp33
 70
     1
102
RTVSPropertyOp34
 70
     1
102
RTVSPropertyOp35
 70
     1
102
RTVSPropertyOp36
 70
     1
102
RTVSPropertyOp37
 70
     1
102
RTVSPropertyOp38
 70
     1
102
RTVSPropertyOp39
 70
     1
102
RTVSPropertyOp40
 70
     1
102
RTVSPropertyOp41
 70
     1
102
RTVSPropertyOp42
 70
     1
102
RTVSPropertyOp43
 70
     1
102
RTVSPropertyOp44
 70
     1
102
RTVSPropertyOp45
 70
     1
102
RTVSPropertyOp46
 70
     1
102
RTVSPropertyOp47
 70
     1
102
RTVSPropertyOp48
 70
     1
102
RTVSPropertyOp49
 70
     1
102
RTVSPropertyOp50
 70
     1
102
RTVSPropertyOp51
 70
     0
102
RTVSPropertyOp52
 70
     0
102
RTVSPropertyOp53
 70
     1
102
RTVSPropertyOp54
 70
     1
102
RTVSPropertyOp55
 70
     1
102
RTVSPropertyOp56
 70
     1
102
RTVSPropertyOp57
 70
     1
102
RTVSPropertyOp58
 70
     1
102
RTVSPropertyOp59
 70
     1
102
RTVSPropertyOp60
 70
     1
102
RTVSPropertyOp61
 70
     1
102
RTVSPropertyOp62
 70
     1
  0
XRECORD
  5
15078
102
{ACAD_REACTORS
330
15077
102
}
330
15077
100
AcDbXrecord
280
     1
102
RTVSPost2010Prop28
280
     0
102
RTVSPost2010PropOp28
 70
     0
102
RTVSPost2010Prop29
280
     1
102
RTVSPost2010PropOp29
 70
     0
102
RTVSPost2010Prop30
280
     1
102
RTVSPost2010PropOp30
 70
     0
102
RTVSPost2010Prop31
280
     0
102
RTVSPost2010PropOp31
 70
     0
102
RTVSPost2010Prop32
280
     0
102
RTVSPost2010PropOp32
 70
     0
102
RTVSPost2010Prop33
280
     0
102
RTVSPost2010PropOp33
 70
     0
102
RTVSPost2010Prop34
280
     0
102
RTVSPost2010PropOp34
 70
     0
102
RTVSPost2010Prop35
280
     0
102
RTVSPost2010PropOp35
 70
     0
102
RTVSPost2010Prop36
280
     0
102
RTVSPost2010PropOp36
 70
     0
102
RTVSPost2010Prop37
 90
       50
102
RTVSPost2010PropOp37
 70
     0
102
RTVSPost2010Prop38
140
0.0
102
RTVSPost2010PropOp38
 70
     0
102
RTVSPost2010Prop39
140
1.0
102
RTVSPost2010PropOp39
 70
     0
102
RTVSPost2010Prop40
 90
        0
102
RTVSPost2010PropOp40
 70
     0
102
RTVSPost2010Prop41ColorIndex
 90
       18
102
RTVSPost2010Prop41ColorRGB
 90
        0
102
RTVSPost2010PropOp41
 70
     0
102
RTVSPost2010Prop42
 90
       50
102
RTVSPost2010PropOp42
 70
     0
102
RTVSPost2010Prop43
 90
        3
102
RTVSPost2010PropOp43
 70
     0
102
RTVSPost2010Prop44ColorIndex
 90
        5
102
RTVSPost2010Prop44ColorRGB
 90
      255
102
RTVSPost2010PropOp44
 70
     0
102
RTVSPost2010Prop45
280
     0
102
RTVSPost2010PropOp45
 70
     0
102
RTVSPost2010Prop46
 90
       50
102
RTVSPost2010PropOp46
 70
     0
102
RTVSPost2010Prop47
 90
       50
102
RTVSPost2010PropOp47
 70
     0
102
RTVSPost2010Prop48
 90
       50
102
RTVSPost2010PropOp48
 70
     0
102
RTVSPost2010Prop49
280
     0
102
RTVSPost2010PropOp49
 70
     0
102
RTVSPost2010Prop50
 90
       50
102
RTVSPost2010PropOp50
 70
     0
102
RTVSPost2010Prop51ColorIndex
 90
      256
102
RTVSPost2010Prop51ColorRGB
 90
-16777216
102
RTVSPost2010PropOp51
 70
     0
102
RTVSPost2010Prop52
140
1.0
102
RTVSPost2010PropOp52
 70
     0
102
RTVSPost2010Prop53
 90
        2
102
RTVSPost2010PropOp53
 70
     0
102
RTVSPost2010Prop54
  1
strokes_ogs.tif
102
RTVSPost2010PropOp54
 70
     0
102
RTVSPost2010Prop55
280
     0
102
RTVSPost2010PropOp55
 70
     0
102
RTVSPost2010Prop56
140
1.0
102
RTVSPost2010PropOp56
 70
     0
102
RTVSPost2010Prop57
140
1.0
102
RTVSPost2010PropOp57
 70
     0
102
RTVSPropertyOp0
 70
     0
102
RTVSPropertyOp1
 70
     0
102
RTVSPropertyOp2
 70
     0
102
RTVSPropertyOp3
 70
     0
102
RTVSPropertyOp4
 70
     0
102
RTVSPropertyOp5
 70
     0
102
RTVSPropertyOp6
 70
     0
102
RTVSPropertyOp7
 70
     0
102
RTVSPropertyOp8
 70
     0
102
RTVSPropertyOp9
 70
     0
102
RTVSPropertyOp10
 70
     0
102
RTVSPropertyOp11
 70
     0
102
RTVSPropertyOp12
 70
     0
102
RTVSPropertyOp13
 70
     0
102
RTVSPropertyOp14
 70
     2
102
RTVSPropertyOp15
 70
     0
102
RTVSPropertyOp16
 70
     0
102
RTVSPropertyOp17
 70
     0
102
RTVSPropertyOp18
 70
     0
102
RTVSPropertyOp19
 70
     0
102
RTVSPropertyOp20
 70
     0
102
RTVSPropertyOp21
 70
     0
102
RTVSPropertyOp22
 70
     0
102
RTVSPropertyOp23
 70
     0
102
RTVSPropertyOp24
 70
     0
102
RTVSPropertyOp25
 70
     0
102
RTVSPropertyOp26
 70
     0
102
RTVSPropertyOp27
 70
     0
102
RTVSPropertyOp28
 70
     0
102
RTVSPropertyOp29
 70
     0
102
RTVSPropertyOp30
 70
     0
102
RTVSPropertyOp31
 70
     0
102
RTVSPropertyOp32
 70
     0
102
RTVSPropertyOp33
 70
     0
102
RTVSPropertyOp34
 70
     0
102
RTVSPropertyOp35
 70
     0
102
RTVSPropertyOp36
 70
     0
102
RTVSPropertyOp37
 70
     0
102
RTVSPropertyOp38
 70
     0
102
RTVSPropertyOp39
 70
     0
102
RTVSPropertyOp40
 70
     0
102
RTVSPropertyOp41
 70
     0
102
RTVSPropertyOp42
 70
     0
102
RTVSPropertyOp43
 70
     0
102
RTVSPropertyOp44
 70
     0
102
RTVSPropertyOp45
 70
     0
102
RTVSPropertyOp46
 70
     0
102
RTVSPropertyOp47
 70
     0
102
RTVSPropertyOp48
 70
     0
102
RTVSPropertyOp49
 70
     0
102
RTVSPropertyOp50
 70
     0
102
RTVSPropertyOp51
 70
     0
102
RTVSPropertyOp52
 70
     0
102
RTVSPropertyOp53
 70
     0
102
RTVSPropertyOp54
 70
     0
102
RTVSPropertyOp55
 70
     0
102
RTVSPropertyOp56
 70
     0
102
RTVSPropertyOp57
 70
     0
102
RTVSPropertyOp58
 70
     1
102
RTVSPropertyOp59
 70
     1
102
RTVSPropertyOp60
 70
     1
102
RTVSPropertyOp61
 70
     1
102
RTVSPropertyOp62
 70
     1
  0
XRECORD
  5
1505E
102
{ACAD_REACTORS
330
1505D
102
}
330
1505D
100
AcDbXrecord
280
     1
102
RTVSPost2010Prop28
280
     0
102
RTVSPost2010PropOp28
 70
     1
102
RTVSPost2010Prop29
280
     1
102
RTVSPost2010PropOp29
 70
     1
102
RTVSPost2010Prop30
280
     1
102
RTVSPost2010PropOp30
 70
     1
102
RTVSPost2010Prop31
280
     0
102
RTVSPost2010PropOp31
 70
     1
102
RTVSPost2010Prop32
280
     0
102
RTVSPost2010PropOp32
 70
     1
102
RTVSPost2010Prop33
280
     0
102
RTVSPost2010PropOp33
 70
     1
102
RTVSPost2010Prop34
280
     0
102
RTVSPost2010PropOp34
 70
     1
102
RTVSPost2010Prop35
280
     0
102
RTVSPost2010PropOp35
 70
     1
102
RTVSPost2010Prop36
280
     0
102
RTVSPost2010PropOp36
 70
     1
102
RTVSPost2010Prop37
 90
       50
102
RTVSPost2010PropOp37
 70
     1
102
RTVSPost2010Prop38
140
0.0
102
RTVSPost2010PropOp38
 70
     1
102
RTVSPost2010Prop39
140
1.0
102
RTVSPost2010PropOp39
 70
     1
102
RTVSPost2010Prop40
 90
        0
102
RTVSPost2010PropOp40
 70
     1
102
RTVSPost2010Prop41ColorIndex
 90
       18
102
RTVSPost2010Prop41ColorRGB
 90
        0
102
RTVSPost2010PropOp41
 70
     1
102
RTVSPost2010Prop42
 90
       50
102
RTVSPost2010PropOp42
 70
     1
102
RTVSPost2010Prop43
 90
        3
102
RTVSPost2010PropOp43
 70
     1
102
RTVSPost2010Prop44ColorIndex
 90
        5
102
RTVSPost2010Prop44ColorRGB
 90
      255
102
RTVSPost2010PropOp44
 70
     1
102
RTVSPost2010Prop45
280
     0
102
RTVSPost2010PropOp45
 70
     1
102
RTVSPost2010Prop46
 90
       50
102
RTVSPost2010PropOp46
 70
     1
102
RTVSPost2010Prop47
 90
       50
102
RTVSPost2010PropOp47
 70
     1
102
RTVSPost2010Prop48
 90
       50
102
RTVSPost2010PropOp48
 70
     1
102
RTVSPost2010Prop49
280
     0
102
RTVSPost2010PropOp49
 70
     1
102
RTVSPost2010Prop50
 90
       50
102
RTVSPost2010PropOp50
 70
     1
102
RTVSPost2010Prop51ColorIndex
 90
      256
102
RTVSPost2010Prop51ColorRGB
 90
-16777216
102
RTVSPost2010PropOp51
 70
     0
102
RTVSPost2010Prop52
140
1.0
102
RTVSPost2010PropOp52
 70
     0
102
RTVSPost2010Prop53
 90
        2
102
RTVSPost2010PropOp53
 70
     1
102
RTVSPost2010Prop54
  1
strokes_ogs.tif
102
RTVSPost2010PropOp54
 70
     1
102
RTVSPost2010Prop55
280
     0
102
RTVSPost2010PropOp55
 70
     1
102
RTVSPost2010Prop56
140
1.0
102
RTVSPost2010PropOp56
 70
     1
102
RTVSPost2010Prop57
140
1.0
102
RTVSPost2010PropOp57
 70
     1
102
RTVSPropertyOp0
 70
     1
102
RTVSPropertyOp1
 70
     1
102
RTVSPropertyOp2
 70
     1
102
RTVSPropertyOp3
 70
     1
102
RTVSPropertyOp4
 70
     1
102
RTVSPropertyOp5
 70
     1
102
RTVSPropertyOp6
 70
     1
102
RTVSPropertyOp7
 70
     1
102
RTVSPropertyOp8
 70
     1
102
RTVSPropertyOp9
 70
     1
102
RTVSPropertyOp10
 70
     1
102
RTVSPropertyOp11
 70
     1
102
RTVSPropertyOp12
 70
     1
102
RTVSPropertyOp13
 70
     1
102
RTVSPropertyOp14
 70
     1
102
RTVSPropertyOp15
 70
     1
102
RTVSPropertyOp16
 70
     1
102
RTVSPropertyOp17
 70
     1
102
RTVSPropertyOp18
 70
     1
102
RTVSPropertyOp19
 70
     1
102
RTVSPropertyOp20
 70
     1
102
RTVSPropertyOp21
 70
     1
102
RTVSPropertyOp22
 70
     1
102
RTVSPropertyOp23
 70
     1
102
RTVSPropertyOp24
 70
     1
102
RTVSPropertyOp25
 70
     1
102
RTVSPropertyOp26
 70
     1
102
RTVSPropertyOp27
 70
     1
102
RTVSPropertyOp28
 70
     1
102
RTVSPropertyOp29
 70
     1
102
RTVSPropertyOp30
 70
     1
102
RTVSPropertyOp31
 70
     1
102
RTVSPropertyOp32
 70
     1
102
RTVSPropertyOp33
 70
     1
102
RTVSPropertyOp34
 70
     1
102
RTVSPropertyOp35
 70
     1
102
RTVSPropertyOp36
 70
     1
102
RTVSPropertyOp37
 70
     1
102
RTVSPropertyOp38
 70
     1
102
RTVSPropertyOp39
 70
     1
102
RTVSPropertyOp40
 70
     1
102
RTVSPropertyOp41
 70
     1
102
RTVSPropertyOp42
 70
     1
102
RTVSPropertyOp43
 70
     1
102
RTVSPropertyOp44
 70
     1
102
RTVSPropertyOp45
 70
     1
102
RTVSPropertyOp46
 70
     1
102
RTVSPropertyOp47
 70
     1
102
RTVSPropertyOp48
 70
     1
102
RTVSPropertyOp49
 70
     1
102
RTVSPropertyOp50
 70
     1
102
RTVSPropertyOp51
 70
     0
102
RTVSPropertyOp52
 70
     0
102
RTVSPropertyOp53
 70
     1
102
RTVSPropertyOp54
 70
     1
102
RTVSPropertyOp55
 70
     1
102
RTVSPropertyOp56
 70
     1
102
RTVSPropertyOp57
 70
     1
102
RTVSPropertyOp58
 70
     1
102
RTVSPropertyOp59
 70
     1
102
RTVSPropertyOp60
 70
     1
102
RTVSPropertyOp61
 70
     1
102
RTVSPropertyOp62
 70
     1
  0
XRECORD
  5
15074
102
{ACAD_REACTORS
330
15073
102
}
330
15073
100
AcDbXrecord
280
     1
102
RTVSPost2010Prop28
280
     0
102
RTVSPost2010PropOp28
 70
     1
102
RTVSPost2010Prop29
280
     1
102
RTVSPost2010PropOp29
 70
     1
102
RTVSPost2010Prop30
280
     1
102
RTVSPost2010PropOp30
 70
     1
102
RTVSPost2010Prop31
280
     0
102
RTVSPost2010PropOp31
 70
     1
102
RTVSPost2010Prop32
280
     0
102
RTVSPost2010PropOp32
 70
     1
102
RTVSPost2010Prop33
280
     0
102
RTVSPost2010PropOp33
 70
     1
102
RTVSPost2010Prop34
280
     0
102
RTVSPost2010PropOp34
 70
     1
102
RTVSPost2010Prop35
280
     0
102
RTVSPost2010PropOp35
 70
     1
102
RTVSPost2010Prop36
280
     0
102
RTVSPost2010PropOp36
 70
     1
102
RTVSPost2010Prop37
 90
       50
102
RTVSPost2010PropOp37
 70
     1
102
RTVSPost2010Prop38
140
0.0
102
RTVSPost2010PropOp38
 70
     1
102
RTVSPost2010Prop39
140
1.0
102
RTVSPost2010PropOp39
 70
     1
102
RTVSPost2010Prop40
 90
        0
102
RTVSPost2010PropOp40
 70
     1
102
RTVSPost2010Prop41ColorIndex
 90
       18
102
RTVSPost2010Prop41ColorRGB
 90
        0
102
RTVSPost2010PropOp41
 70
     1
102
RTVSPost2010Prop42
 90
       50
102
RTVSPost2010PropOp42
 70
     1
102
RTVSPost2010Prop43
 90
        3
102
RTVSPost2010PropOp43
 70
     1
102
RTVSPost2010Prop44ColorIndex
 90
        5
102
RTVSPost2010Prop44ColorRGB
 90
      255
102
RTVSPost2010PropOp44
 70
     1
102
RTVSPost2010Prop45
280
     0
102
RTVSPost2010PropOp45
 70
     1
102
RTVSPost2010Prop46
 90
       50
102
RTVSPost2010PropOp46
 70
     1
102
RTVSPost2010Prop47
 90
       50
102
RTVSPost2010PropOp47
 70
     1
102
RTVSPost2010Prop48
 90
       50
102
RTVSPost2010PropOp48
 70
     1
102
RTVSPost2010Prop49
280
     0
102
RTVSPost2010PropOp49
 70
     1
102
RTVSPost2010Prop50
 90
       50
102
RTVSPost2010PropOp50
 70
     1
102
RTVSPost2010Prop51ColorIndex
 90
      256
102
RTVSPost2010Prop51ColorRGB
 90
-16777216
102
RTVSPost2010PropOp51
 70
     0
102
RTVSPost2010Prop52
140
1.0
102
RTVSPost2010PropOp52
 70
     0
102
RTVSPost2010Prop53
 90
        2
102
RTVSPost2010PropOp53
 70
     1
102
RTVSPost2010Prop54
  1
strokes_ogs.tif
102
RTVSPost2010PropOp54
 70
     1
102
RTVSPost2010Prop55
280
     0
102
RTVSPost2010PropOp55
 70
     1
102
RTVSPost2010Prop56
140
1.0
102
RTVSPost2010PropOp56
 70
     1
102
RTVSPost2010Prop57
140
1.0
102
RTVSPost2010PropOp57
 70
     1
102
RTVSPropertyOp0
 70
     1
102
RTVSPropertyOp1
 70
     1
102
RTVSPropertyOp2
 70
     1
102
RTVSPropertyOp3
 70
     1
102
RTVSPropertyOp4
 70
     1
102
RTVSPropertyOp5
 70
     1
102
RTVSPropertyOp6
 70
     1
102
RTVSPropertyOp7
 70
     1
102
RTVSPropertyOp8
 70
     1
102
RTVSPropertyOp9
 70
     1
102
RTVSPropertyOp10
 70
     1
102
RTVSPropertyOp11
 70
     1
102
RTVSPropertyOp12
 70
     1
102
RTVSPropertyOp13
 70
     1
102
RTVSPropertyOp14
 70
     1
102
RTVSPropertyOp15
 70
     1
102
RTVSPropertyOp16
 70
     1
102
RTVSPropertyOp17
 70
     1
102
RTVSPropertyOp18
 70
     1
102
RTVSPropertyOp19
 70
     1
102
RTVSPropertyOp20
 70
     1
102
RTVSPropertyOp21
 70
     1
102
RTVSPropertyOp22
 70
     1
102
RTVSPropertyOp23
 70
     1
102
RTVSPropertyOp24
 70
     1
102
RTVSPropertyOp25
 70
     1
102
RTVSPropertyOp26
 70
     1
102
RTVSPropertyOp27
 70
     1
102
RTVSPropertyOp28
 70
     1
102
RTVSPropertyOp29
 70
     1
102
RTVSPropertyOp30
 70
     1
102
RTVSPropertyOp31
 70
     1
102
RTVSPropertyOp32
 70
     1
102
RTVSPropertyOp33
 70
     1
102
RTVSPropertyOp34
 70
     1
102
RTVSPropertyOp35
 70
     1
102
RTVSPropertyOp36
 70
     1
102
RTVSPropertyOp37
 70
     1
102
RTVSPropertyOp38
 70
     1
102
RTVSPropertyOp39
 70
     1
102
RTVSPropertyOp40
 70
     1
102
RTVSPropertyOp41
 70
     1
102
RTVSPropertyOp42
 70
     1
102
RTVSPropertyOp43
 70
     1
102
RTVSPropertyOp44
 70
     1
102
RTVSPropertyOp45
 70
     1
102
RTVSPropertyOp46
 70
     1
102
RTVSPropertyOp47
 70
     1
102
RTVSPropertyOp48
 70
     1
102
RTVSPropertyOp49
 70
     1
102
RTVSPropertyOp50
 70
     1
102
RTVSPropertyOp51
 70
     0
102
RTVSPropertyOp52
 70
     0
102
RTVSPropertyOp53
 70
     1
102
RTVSPropertyOp54
 70
     1
102
RTVSPropertyOp55
 70
     1
102
RTVSPropertyOp56
 70
     1
102
RTVSPropertyOp57
 70
     1
102
RTVSPropertyOp58
 70
     1
102
RTVSPropertyOp59
 70
     1
102
RTVSPropertyOp60
 70
     1
102
RTVSPropertyOp61
 70
     1
102
RTVSPropertyOp62
 70
     1
  0
XRECORD
  5
15072
102
{ACAD_REACTORS
330
15071
102
}
330
15071
100
AcDbXrecord
280
     1
102
RTVSPost2010Prop28
280
     0
102
RTVSPost2010PropOp28
 70
     1
102
RTVSPost2010Prop29
280
     1
102
RTVSPost2010PropOp29
 70
     1
102
RTVSPost2010Prop30
280
     1
102
RTVSPost2010PropOp30
 70
     1
102
RTVSPost2010Prop31
280
     0
102
RTVSPost2010PropOp31
 70
     1
102
RTVSPost2010Prop32
280
     0
102
RTVSPost2010PropOp32
 70
     1
102
RTVSPost2010Prop33
280
     0
102
RTVSPost2010PropOp33
 70
     1
102
RTVSPost2010Prop34
280
     0
102
RTVSPost2010PropOp34
 70
     1
102
RTVSPost2010Prop35
280
     0
102
RTVSPost2010PropOp35
 70
     1
102
RTVSPost2010Prop36
280
     0
102
RTVSPost2010PropOp36
 70
     1
102
RTVSPost2010Prop37
 90
       50
102
RTVSPost2010PropOp37
 70
     1
102
RTVSPost2010Prop38
140
0.0
102
RTVSPost2010PropOp38
 70
     1
102
RTVSPost2010Prop39
140
1.0
102
RTVSPost2010PropOp39
 70
     1
102
RTVSPost2010Prop40
 90
        0
102
RTVSPost2010PropOp40
 70
     1
102
RTVSPost2010Prop41ColorIndex
 90
       18
102
RTVSPost2010Prop41ColorRGB
 90
        0
102
RTVSPost2010PropOp41
 70
     1
102
RTVSPost2010Prop42
 90
       50
102
RTVSPost2010PropOp42
 70
     1
102
RTVSPost2010Prop43
 90
        3
102
RTVSPost2010PropOp43
 70
     1
102
RTVSPost2010Prop44ColorIndex
 90
        5
102
RTVSPost2010Prop44ColorRGB
 90
      255
102
RTVSPost2010PropOp44
 70
     1
102
RTVSPost2010Prop45
280
     0
102
RTVSPost2010PropOp45
 70
     1
102
RTVSPost2010Prop46
 90
       50
102
RTVSPost2010PropOp46
 70
     1
102
RTVSPost2010Prop47
 90
       50
102
RTVSPost2010PropOp47
 70
     1
102
RTVSPost2010Prop48
 90
       50
102
RTVSPost2010PropOp48
 70
     1
102
RTVSPost2010Prop49
280
     0
102
RTVSPost2010PropOp49
 70
     1
102
RTVSPost2010Prop50
 90
       50
102
RTVSPost2010PropOp50
 70
     1
102
RTVSPost2010Prop51ColorIndex
 90
      256
102
RTVSPost2010Prop51ColorRGB
 90
-16777216
102
RTVSPost2010PropOp51
 70
     0
102
RTVSPost2010Prop52
140
1.0
102
RTVSPost2010PropOp52
 70
     0
102
RTVSPost2010Prop53
 90
        2
102
RTVSPost2010PropOp53
 70
     1
102
RTVSPost2010Prop54
  1
strokes_ogs.tif
102
RTVSPost2010PropOp54
 70
     1
102
RTVSPost2010Prop55
280
     0
102
RTVSPost2010PropOp55
 70
     1
102
RTVSPost2010Prop56
140
1.0
102
RTVSPost2010PropOp56
 70
     1
102
RTVSPost2010Prop57
140
1.0
102
RTVSPost2010PropOp57
 70
     1
102
RTVSPropertyOp0
 70
     1
102
RTVSPropertyOp1
 70
     1
102
RTVSPropertyOp2
 70
     1
102
RTVSPropertyOp3
 70
     1
102
RTVSPropertyOp4
 70
     1
102
RTVSPropertyOp5
 70
     1
102
RTVSPropertyOp6
 70
     1
102
RTVSPropertyOp7
 70
     1
102
RTVSPropertyOp8
 70
     1
102
RTVSPropertyOp9
 70
     1
102
RTVSPropertyOp10
 70
     1
102
RTVSPropertyOp11
 70
     1
102
RTVSPropertyOp12
 70
     1
102
RTVSPropertyOp13
 70
     1
102
RTVSPropertyOp14
 70
     1
102
RTVSPropertyOp15
 70
     1
102
RTVSPropertyOp16
 70
     1
102
RTVSPropertyOp17
 70
     1
102
RTVSPropertyOp18
 70
     1
102
RTVSPropertyOp19
 70
     1
102
RTVSPropertyOp20
 70
     1
102
RTVSPropertyOp21
 70
     1
102
RTVSPropertyOp22
 70
     1
102
RTVSPropertyOp23
 70
     1
102
RTVSPropertyOp24
 70
     1
102
RTVSPropertyOp25
 70
     1
102
RTVSPropertyOp26
 70
     1
102
RTVSPropertyOp27
 70
     1
102
RTVSPropertyOp28
 70
     1
102
RTVSPropertyOp29
 70
     1
102
RTVSPropertyOp30
 70
     1
102
RTVSPropertyOp31
 70
     1
102
RTVSPropertyOp32
 70
     1
102
RTVSPropertyOp33
 70
     1
102
RTVSPropertyOp34
 70
     1
102
RTVSPropertyOp35
 70
     1
102
RTVSPropertyOp36
 70
     1
102
RTVSPropertyOp37
 70
     1
102
RTVSPropertyOp38
 70
     1
102
RTVSPropertyOp39
 70
     1
102
RTVSPropertyOp40
 70
     1
102
RTVSPropertyOp41
 70
     1
102
RTVSPropertyOp42
 70
     1
102
RTVSPropertyOp43
 70
     1
102
RTVSPropertyOp44
 70
     1
102
RTVSPropertyOp45
 70
     1
102
RTVSPropertyOp46
 70
     1
102
RTVSPropertyOp47
 70
     1
102
RTVSPropertyOp48
 70
     1
102
RTVSPropertyOp49
 70
     1
102
RTVSPropertyOp50
 70
     1
102
RTVSPropertyOp51
 70
     0
102
RTVSPropertyOp52
 70
     0
102
RTVSPropertyOp53
 70
     1
102
RTVSPropertyOp54
 70
     1
102
RTVSPropertyOp55
 70
     1
102
RTVSPropertyOp56
 70
     1
102
RTVSPropertyOp57
 70
     1
102
RTVSPropertyOp58
 70
     1
102
RTVSPropertyOp59
 70
     1
102
RTVSPropertyOp60
 70
     1
102
RTVSPropertyOp61
 70
     1
102
RTVSPropertyOp62
 70
     1
  0
XRECORD
  5
1506C
102
{ACAD_REACTORS
330
1506B
102
}
330
1506B
100
AcDbXrecord
280
     1
102
RTVSPost2010Prop28
280
     0
102
RTVSPost2010PropOp28
 70
     1
102
RTVSPost2010Prop29
280
     1
102
RTVSPost2010PropOp29
 70
     1
102
RTVSPost2010Prop30
280
     1
102
RTVSPost2010PropOp30
 70
     1
102
RTVSPost2010Prop31
280
     0
102
RTVSPost2010PropOp31
 70
     1
102
RTVSPost2010Prop32
280
     0
102
RTVSPost2010PropOp32
 70
     1
102
RTVSPost2010Prop33
280
     0
102
RTVSPost2010PropOp33
 70
     1
102
RTVSPost2010Prop34
280
     0
102
RTVSPost2010PropOp34
 70
     1
102
RTVSPost2010Prop35
280
     0
102
RTVSPost2010PropOp35
 70
     1
102
RTVSPost2010Prop36
280
     0
102
RTVSPost2010PropOp36
 70
     1
102
RTVSPost2010Prop37
 90
       50
102
RTVSPost2010PropOp37
 70
     1
102
RTVSPost2010Prop38
140
0.0
102
RTVSPost2010PropOp38
 70
     1
102
RTVSPost2010Prop39
140
1.0
102
RTVSPost2010PropOp39
 70
     1
102
RTVSPost2010Prop40
 90
        0
102
RTVSPost2010PropOp40
 70
     1
102
RTVSPost2010Prop41ColorIndex
 90
       18
102
RTVSPost2010Prop41ColorRGB
 90
        0
102
RTVSPost2010PropOp41
 70
     1
102
RTVSPost2010Prop42
 90
       50
102
RTVSPost2010PropOp42
 70
     1
102
RTVSPost2010Prop43
 90
        3
102
RTVSPost2010PropOp43
 70
     1
102
RTVSPost2010Prop44ColorIndex
 90
        5
102
RTVSPost2010Prop44ColorRGB
 90
      255
102
RTVSPost2010PropOp44
 70
     1
102
RTVSPost2010Prop45
280
     0
102
RTVSPost2010PropOp45
 70
     1
102
RTVSPost2010Prop46
 90
       50
102
RTVSPost2010PropOp46
 70
     1
102
RTVSPost2010Prop47
 90
       50
102
RTVSPost2010PropOp47
 70
     1
102
RTVSPost2010Prop48
 90
       50
102
RTVSPost2010PropOp48
 70
     1
102
RTVSPost2010Prop49
280
     0
102
RTVSPost2010PropOp49
 70
     1
102
RTVSPost2010Prop50
 90
       50
102
RTVSPost2010PropOp50
 70
     1
102
RTVSPost2010Prop51ColorIndex
 90
      256
102
RTVSPost2010Prop51ColorRGB
 90
-16777216
102
RTVSPost2010PropOp51
 70
     0
102
RTVSPost2010Prop52
140
1.0
102
RTVSPost2010PropOp52
 70
     0
102
RTVSPost2010Prop53
 90
        2
102
RTVSPost2010PropOp53
 70
     1
102
RTVSPost2010Prop54
  1
strokes_ogs.tif
102
RTVSPost2010PropOp54
 70
     1
102
RTVSPost2010Prop55
280
     0
102
RTVSPost2010PropOp55
 70
     1
102
RTVSPost2010Prop56
140
1.0
102
RTVSPost2010PropOp56
 70
     1
102
RTVSPost2010Prop57
140
1.0
102
RTVSPost2010PropOp57
 70
     1
102
RTVSPropertyOp0
 70
     1
102
RTVSPropertyOp1
 70
     1
102
RTVSPropertyOp2
 70
     1
102
RTVSPropertyOp3
 70
     1
102
RTVSPropertyOp4
 70
     1
102
RTVSPropertyOp5
 70
     1
102
RTVSPropertyOp6
 70
     1
102
RTVSPropertyOp7
 70
     1
102
RTVSPropertyOp8
 70
     1
102
RTVSPropertyOp9
 70
     1
102
RTVSPropertyOp10
 70
     1
102
RTVSPropertyOp11
 70
     1
102
RTVSPropertyOp12
 70
     1
102
RTVSPropertyOp13
 70
     1
102
RTVSPropertyOp14
 70
     1
102
RTVSPropertyOp15
 70
     1
102
RTVSPropertyOp16
 70
     1
102
RTVSPropertyOp17
 70
     1
102
RTVSPropertyOp18
 70
     1
102
RTVSPropertyOp19
 70
     1
102
RTVSPropertyOp20
 70
     1
102
RTVSPropertyOp21
 70
     1
102
RTVSPropertyOp22
 70
     1
102
RTVSPropertyOp23
 70
     1
102
RTVSPropertyOp24
 70
     1
102
RTVSPropertyOp25
 70
     1
102
RTVSPropertyOp26
 70
     1
102
RTVSPropertyOp27
 70
     1
102
RTVSPropertyOp28
 70
     1
102
RTVSPropertyOp29
 70
     1
102
RTVSPropertyOp30
 70
     1
102
RTVSPropertyOp31
 70
     1
102
RTVSPropertyOp32
 70
     1
102
RTVSPropertyOp33
 70
     1
102
RTVSPropertyOp34
 70
     1
102
RTVSPropertyOp35
 70
     1
102
RTVSPropertyOp36
 70
     1
102
RTVSPropertyOp37
 70
     1
102
RTVSPropertyOp38
 70
     1
102
RTVSPropertyOp39
 70
     1
102
RTVSPropertyOp40
 70
     1
102
RTVSPropertyOp41
 70
     1
102
RTVSPropertyOp42
 70
     1
102
RTVSPropertyOp43
 70
     1
102
RTVSPropertyOp44
 70
     1
102
RTVSPropertyOp45
 70
     1
102
RTVSPropertyOp46
 70
     1
102
RTVSPropertyOp47
 70
     1
102
RTVSPropertyOp48
 70
     1
102
RTVSPropertyOp49
 70
     1
102
RTVSPropertyOp50
 70
     1
102
RTVSPropertyOp51
 70
     0
102
RTVSPropertyOp52
 70
     0
102
RTVSPropertyOp53
 70
     1
102
RTVSPropertyOp54
 70
     1
102
RTVSPropertyOp55
 70
     1
102
RTVSPropertyOp56
 70
     1
102
RTVSPropertyOp57
 70
     1
102
RTVSPropertyOp58
 70
     1
102
RTVSPropertyOp59
 70
     1
102
RTVSPropertyOp60
 70
     1
102
RTVSPropertyOp61
 70
     1
102
RTVSPropertyOp62
 70
     1
  0
XRECORD
  5
1506E
102
{ACAD_REACTORS
330
1506D
102
}
330
1506D
100
AcDbXrecord
280
     1
102
RTVSPost2010Prop28
280
     0
102
RTVSPost2010PropOp28
 70
     1
102
RTVSPost2010Prop29
280
     1
102
RTVSPost2010PropOp29
 70
     1
102
RTVSPost2010Prop30
280
     1
102
RTVSPost2010PropOp30
 70
     1
102
RTVSPost2010Prop31
280
     0
102
RTVSPost2010PropOp31
 70
     1
102
RTVSPost2010Prop32
280
     0
102
RTVSPost2010PropOp32
 70
     1
102
RTVSPost2010Prop33
280
     0
102
RTVSPost2010PropOp33
 70
     1
102
RTVSPost2010Prop34
280
     0
102
RTVSPost2010PropOp34
 70
     1
102
RTVSPost2010Prop35
280
     0
102
RTVSPost2010PropOp35
 70
     1
102
RTVSPost2010Prop36
280
     0
102
RTVSPost2010PropOp36
 70
     1
102
RTVSPost2010Prop37
 90
       50
102
RTVSPost2010PropOp37
 70
     1
102
RTVSPost2010Prop38
140
0.0
102
RTVSPost2010PropOp38
 70
     1
102
RTVSPost2010Prop39
140
1.0
102
RTVSPost2010PropOp39
 70
     1
102
RTVSPost2010Prop40
 90
        0
102
RTVSPost2010PropOp40
 70
     1
102
RTVSPost2010Prop41ColorIndex
 90
       18
102
RTVSPost2010Prop41ColorRGB
 90
        0
102
RTVSPost2010PropOp41
 70
     1
102
RTVSPost2010Prop42
 90
       50
102
RTVSPost2010PropOp42
 70
     1
102
RTVSPost2010Prop43
 90
        3
102
RTVSPost2010PropOp43
 70
     1
102
RTVSPost2010Prop44ColorIndex
 90
        5
102
RTVSPost2010Prop44ColorRGB
 90
      255
102
RTVSPost2010PropOp44
 70
     1
102
RTVSPost2010Prop45
280
     0
102
RTVSPost2010PropOp45
 70
     1
102
RTVSPost2010Prop46
 90
       50
102
RTVSPost2010PropOp46
 70
     1
102
RTVSPost2010Prop47
 90
       50
102
RTVSPost2010PropOp47
 70
     1
102
RTVSPost2010Prop48
 90
       50
102
RTVSPost2010PropOp48
 70
     1
102
RTVSPost2010Prop49
280
     0
102
RTVSPost2010PropOp49
 70
     1
102
RTVSPost2010Prop50
 90
       50
102
RTVSPost2010PropOp50
 70
     1
102
RTVSPost2010Prop51ColorIndex
 90
      256
102
RTVSPost2010Prop51ColorRGB
 90
-16777216
102
RTVSPost2010PropOp51
 70
     0
102
RTVSPost2010Prop52
140
1.0
102
RTVSPost2010PropOp52
 70
     0
102
RTVSPost2010Prop53
 90
        2
102
RTVSPost2010PropOp53
 70
     1
102
RTVSPost2010Prop54
  1
strokes_ogs.tif
102
RTVSPost2010PropOp54
 70
     1
102
RTVSPost2010Prop55
280
     0
102
RTVSPost2010PropOp55
 70
     1
102
RTVSPost2010Prop56
140
1.0
102
RTVSPost2010PropOp56
 70
     1
102
RTVSPost2010Prop57
140
1.0
102
RTVSPost2010PropOp57
 70
     1
102
RTVSPropertyOp0
 70
     1
102
RTVSPropertyOp1
 70
     1
102
RTVSPropertyOp2
 70
     1
102
RTVSPropertyOp3
 70
     1
102
RTVSPropertyOp4
 70
     1
102
RTVSPropertyOp5
 70
     1
102
RTVSPropertyOp6
 70
     1
102
RTVSPropertyOp7
 70
     1
102
RTVSPropertyOp8
 70
     1
102
RTVSPropertyOp9
 70
     1
102
RTVSPropertyOp10
 70
     1
102
RTVSPropertyOp11
 70
     1
102
RTVSPropertyOp12
 70
     1
102
RTVSPropertyOp13
 70
     1
102
RTVSPropertyOp14
 70
     1
102
RTVSPropertyOp15
 70
     1
102
RTVSPropertyOp16
 70
     1
102
RTVSPropertyOp17
 70
     1
102
RTVSPropertyOp18
 70
     1
102
RTVSPropertyOp19
 70
     1
102
RTVSPropertyOp20
 70
     1
102
RTVSPropertyOp21
 70
     1
102
RTVSPropertyOp22
 70
     1
102
RTVSPropertyOp23
 70
     1
102
RTVSPropertyOp24
 70
     1
102
RTVSPropertyOp25
 70
     1
102
RTVSPropertyOp26
 70
     1
102
RTVSPropertyOp27
 70
     1
102
RTVSPropertyOp28
 70
     1
102
RTVSPropertyOp29
 70
     1
102
RTVSPropertyOp30
 70
     1
102
RTVSPropertyOp31
 70
     1
102
RTVSPropertyOp32
 70
     1
102
RTVSPropertyOp33
 70
     1
102
RTVSPropertyOp34
 70
     1
102
RTVSPropertyOp35
 70
     1
102
RTVSPropertyOp36
 70
     1
102
RTVSPropertyOp37
 70
     1
102
RTVSPropertyOp38
 70
     1
102
RTVSPropertyOp39
 70
     1
102
RTVSPropertyOp40
 70
     1
102
RTVSPropertyOp41
 70
     1
102
RTVSPropertyOp42
 70
     1
102
RTVSPropertyOp43
 70
     1
102
RTVSPropertyOp44
 70
     1
102
RTVSPropertyOp45
 70
     1
102
RTVSPropertyOp46
 70
     1
102
RTVSPropertyOp47
 70
     1
102
RTVSPropertyOp48
 70
     1
102
RTVSPropertyOp49
 70
     1
102
RTVSPropertyOp50
 70
     1
102
RTVSPropertyOp51
 70
     0
102
RTVSPropertyOp52
 70
     0
102
RTVSPropertyOp53
 70
     1
102
RTVSPropertyOp54
 70
     1
102
RTVSPropertyOp55
 70
     1
102
RTVSPropertyOp56
 70
     1
102
RTVSPropertyOp57
 70
     1
102
RTVSPropertyOp58
 70
     1
102
RTVSPropertyOp59
 70
     1
102
RTVSPropertyOp60
 70
     1
102
RTVSPropertyOp61
 70
     1
102
RTVSPropertyOp62
 70
     1
  0
XRECORD
  5
15064
102
{ACAD_REACTORS
330
15063
102
}
330
15063
100
AcDbXrecord
280
     1
102
RTVSPost2010Prop28
280
     0
102
RTVSPost2010PropOp28
 70
     1
102
RTVSPost2010Prop29
280
     1
102
RTVSPost2010PropOp29
 70
     1
102
RTVSPost2010Prop30
280
     1
102
RTVSPost2010PropOp30
 70
     1
102
RTVSPost2010Prop31
280
     0
102
RTVSPost2010PropOp31
 70
     1
102
RTVSPost2010Prop32
280
     0
102
RTVSPost2010PropOp32
 70
     1
102
RTVSPost2010Prop33
280
     0
102
RTVSPost2010PropOp33
 70
     1
102
RTVSPost2010Prop34
280
     0
102
RTVSPost2010PropOp34
 70
     1
102
RTVSPost2010Prop35
280
     0
102
RTVSPost2010PropOp35
 70
     1
102
RTVSPost2010Prop36
280
     0
102
RTVSPost2010PropOp36
 70
     1
102
RTVSPost2010Prop37
 90
       50
102
RTVSPost2010PropOp37
 70
     1
102
RTVSPost2010Prop38
140
0.0
102
RTVSPost2010PropOp38
 70
     1
102
RTVSPost2010Prop39
140
1.0
102
RTVSPost2010PropOp39
 70
     1
102
RTVSPost2010Prop40
 90
        0
102
RTVSPost2010PropOp40
 70
     1
102
RTVSPost2010Prop41ColorIndex
 90
       18
102
RTVSPost2010Prop41ColorRGB
 90
        0
102
RTVSPost2010PropOp41
 70
     1
102
RTVSPost2010Prop42
 90
       50
102
RTVSPost2010PropOp42
 70
     1
102
RTVSPost2010Prop43
 90
        3
102
RTVSPost2010PropOp43
 70
     1
102
RTVSPost2010Prop44ColorIndex
 90
        5
102
RTVSPost2010Prop44ColorRGB
 90
      255
102
RTVSPost2010PropOp44
 70
     1
102
RTVSPost2010Prop45
280
     0
102
RTVSPost2010PropOp45
 70
     1
102
RTVSPost2010Prop46
 90
       50
102
RTVSPost2010PropOp46
 70
     1
102
RTVSPost2010Prop47
 90
       50
102
RTVSPost2010PropOp47
 70
     1
102
RTVSPost2010Prop48
 90
       50
102
RTVSPost2010PropOp48
 70
     1
102
RTVSPost2010Prop49
280
     0
102
RTVSPost2010PropOp49
 70
     1
102
RTVSPost2010Prop50
 90
       50
102
RTVSPost2010PropOp50
 70
     1
102
RTVSPost2010Prop51ColorIndex
 90
      256
102
RTVSPost2010Prop51ColorRGB
 90
-16777216
102
RTVSPost2010PropOp51
 70
     0
102
RTVSPost2010Prop52
140
1.0
102
RTVSPost2010PropOp52
 70
     0
102
RTVSPost2010Prop53
 90
        2
102
RTVSPost2010PropOp53
 70
     1
102
RTVSPost2010Prop54
  1
strokes_ogs.tif
102
RTVSPost2010PropOp54
 70
     1
102
RTVSPost2010Prop55
280
     0
102
RTVSPost2010PropOp55
 70
     1
102
RTVSPost2010Prop56
140
1.0
102
RTVSPost2010PropOp56
 70
     1
102
RTVSPost2010Prop57
140
1.0
102
RTVSPost2010PropOp57
 70
     1
102
RTVSPropertyOp0
 70
     1
102
RTVSPropertyOp1
 70
     1
102
RTVSPropertyOp2
 70
     1
102
RTVSPropertyOp3
 70
     1
102
RTVSPropertyOp4
 70
     1
102
RTVSPropertyOp5
 70
     1
102
RTVSPropertyOp6
 70
     1
102
RTVSPropertyOp7
 70
     1
102
RTVSPropertyOp8
 70
     1
102
RTVSPropertyOp9
 70
     1
102
RTVSPropertyOp10
 70
     1
102
RTVSPropertyOp11
 70
     1
102
RTVSPropertyOp12
 70
     1
102
RTVSPropertyOp13
 70
     1
102
RTVSPropertyOp14
 70
     1
102
RTVSPropertyOp15
 70
     1
102
RTVSPropertyOp16
 70
     1
102
RTVSPropertyOp17
 70
     1
102
RTVSPropertyOp18
 70
     1
102
RTVSPropertyOp19
 70
     1
102
RTVSPropertyOp20
 70
     1
102
RTVSPropertyOp21
 70
     1
102
RTVSPropertyOp22
 70
     1
102
RTVSPropertyOp23
 70
     1
102
RTVSPropertyOp24
 70
     1
102
RTVSPropertyOp25
 70
     1
102
RTVSPropertyOp26
 70
     1
102
RTVSPropertyOp27
 70
     1
102
RTVSPropertyOp28
 70
     1
102
RTVSPropertyOp29
 70
     1
102
RTVSPropertyOp30
 70
     1
102
RTVSPropertyOp31
 70
     1
102
RTVSPropertyOp32
 70
     1
102
RTVSPropertyOp33
 70
     1
102
RTVSPropertyOp34
 70
     1
102
RTVSPropertyOp35
 70
     1
102
RTVSPropertyOp36
 70
     1
102
RTVSPropertyOp37
 70
     1
102
RTVSPropertyOp38
 70
     1
102
RTVSPropertyOp39
 70
     1
102
RTVSPropertyOp40
 70
     1
102
RTVSPropertyOp41
 70
     1
102
RTVSPropertyOp42
 70
     1
102
RTVSPropertyOp43
 70
     1
102
RTVSPropertyOp44
 70
     1
102
RTVSPropertyOp45
 70
     1
102
RTVSPropertyOp46
 70
     1
102
RTVSPropertyOp47
 70
     1
102
RTVSPropertyOp48
 70
     1
102
RTVSPropertyOp49
 70
     1
102
RTVSPropertyOp50
 70
     1
102
RTVSPropertyOp51
 70
     0
102
RTVSPropertyOp52
 70
     0
102
RTVSPropertyOp53
 70
     1
102
RTVSPropertyOp54
 70
     1
102
RTVSPropertyOp55
 70
     1
102
RTVSPropertyOp56
 70
     1
102
RTVSPropertyOp57
 70
     1
102
RTVSPropertyOp58
 70
     1
102
RTVSPropertyOp59
 70
     1
102
RTVSPropertyOp60
 70
     1
102
RTVSPropertyOp61
 70
     1
102
RTVSPropertyOp62
 70
     1
  0
XRECORD
  5
15058
102
{ACAD_REACTORS
330
15057
102
}
330
15057
100
AcDbXrecord
280
     1
102
RTVSPost2010Prop28
280
     0
102
RTVSPost2010PropOp28
 70
     1
102
RTVSPost2010Prop29
280
     1
102
RTVSPost2010PropOp29
 70
     1
102
RTVSPost2010Prop30
280
     1
102
RTVSPost2010PropOp30
 70
     1
102
RTVSPost2010Prop31
280
     0
102
RTVSPost2010PropOp31
 70
     1
102
RTVSPost2010Prop32
280
     0
102
RTVSPost2010PropOp32
 70
     1
102
RTVSPost2010Prop33
280
     0
102
RTVSPost2010PropOp33
 70
     1
102
RTVSPost2010Prop34
280
     0
102
RTVSPost2010PropOp34
 70
     1
102
RTVSPost2010Prop35
280
     0
102
RTVSPost2010PropOp35
 70
     1
102
RTVSPost2010Prop36
280
     0
102
RTVSPost2010PropOp36
 70
     1
102
RTVSPost2010Prop37
 90
       50
102
RTVSPost2010PropOp37
 70
     1
102
RTVSPost2010Prop38
140
0.0
102
RTVSPost2010PropOp38
 70
     1
102
RTVSPost2010Prop39
140
1.0
102
RTVSPost2010PropOp39
 70
     1
102
RTVSPost2010Prop40
 90
        0
102
RTVSPost2010PropOp40
 70
     1
102
RTVSPost2010Prop41ColorIndex
 90
       18
102
RTVSPost2010Prop41ColorRGB
 90
        0
102
RTVSPost2010PropOp41
 70
     1
102
RTVSPost2010Prop42
 90
       50
102
RTVSPost2010PropOp42
 70
     1
102
RTVSPost2010Prop43
 90
        3
102
RTVSPost2010PropOp43
 70
     1
102
RTVSPost2010Prop44ColorIndex
 90
        5
102
RTVSPost2010Prop44ColorRGB
 90
      255
102
RTVSPost2010PropOp44
 70
     1
102
RTVSPost2010Prop45
280
     0
102
RTVSPost2010PropOp45
 70
     1
102
RTVSPost2010Prop46
 90
       50
102
RTVSPost2010PropOp46
 70
     1
102
RTVSPost2010Prop47
 90
       50
102
RTVSPost2010PropOp47
 70
     1
102
RTVSPost2010Prop48
 90
       50
102
RTVSPost2010PropOp48
 70
     1
102
RTVSPost2010Prop49
280
     0
102
RTVSPost2010PropOp49
 70
     1
102
RTVSPost2010Prop50
 90
       50
102
RTVSPost2010PropOp50
 70
     1
102
RTVSPost2010Prop51ColorIndex
 90
      256
102
RTVSPost2010Prop51ColorRGB
 90
-16777216
102
RTVSPost2010PropOp51
 70
     0
102
RTVSPost2010Prop52
140
1.0
102
RTVSPost2010PropOp52
 70
     0
102
RTVSPost2010Prop53
 90
        2
102
RTVSPost2010PropOp53
 70
     1
102
RTVSPost2010Prop54
  1
strokes_ogs.tif
102
RTVSPost2010PropOp54
 70
     1
102
RTVSPost2010Prop55
280
     0
102
RTVSPost2010PropOp55
 70
     1
102
RTVSPost2010Prop56
140
1.0
102
RTVSPost2010PropOp56
 70
     1
102
RTVSPost2010Prop57
140
1.0
102
RTVSPost2010PropOp57
 70
     1
102
RTVSPropertyOp0
 70
     1
102
RTVSPropertyOp1
 70
     1
102
RTVSPropertyOp2
 70
     1
102
RTVSPropertyOp3
 70
     1
102
RTVSPropertyOp4
 70
     1
102
RTVSPropertyOp5
 70
     1
102
RTVSPropertyOp6
 70
     1
102
RTVSPropertyOp7
 70
     1
102
RTVSPropertyOp8
 70
     1
102
RTVSPropertyOp9
 70
     1
102
RTVSPropertyOp10
 70
     1
102
RTVSPropertyOp11
 70
     1
102
RTVSPropertyOp12
 70
     1
102
RTVSPropertyOp13
 70
     1
102
RTVSPropertyOp14
 70
     1
102
RTVSPropertyOp15
 70
     1
102
RTVSPropertyOp16
 70
     1
102
RTVSPropertyOp17
 70
     1
102
RTVSPropertyOp18
 70
     1
102
RTVSPropertyOp19
 70
     1
102
RTVSPropertyOp20
 70
     1
102
RTVSPropertyOp21
 70
     1
102
RTVSPropertyOp22
 70
     1
102
RTVSPropertyOp23
 70
     1
102
RTVSPropertyOp24
 70
     1
102
RTVSPropertyOp25
 70
     1
102
RTVSPropertyOp26
 70
     1
102
RTVSPropertyOp27
 70
     1
102
RTVSPropertyOp28
 70
     1
102
RTVSPropertyOp29
 70
     1
102
RTVSPropertyOp30
 70
     1
102
RTVSPropertyOp31
 70
     1
102
RTVSPropertyOp32
 70
     1
102
RTVSPropertyOp33
 70
     1
102
RTVSPropertyOp34
 70
     1
102
RTVSPropertyOp35
 70
     1
102
RTVSPropertyOp36
 70
     1
102
RTVSPropertyOp37
 70
     1
102
RTVSPropertyOp38
 70
     1
102
RTVSPropertyOp39
 70
     1
102
RTVSPropertyOp40
 70
     1
102
RTVSPropertyOp41
 70
     1
102
RTVSPropertyOp42
 70
     1
102
RTVSPropertyOp43
 70
     1
102
RTVSPropertyOp44
 70
     1
102
RTVSPropertyOp45
 70
     1
102
RTVSPropertyOp46
 70
     1
102
RTVSPropertyOp47
 70
     1
102
RTVSPropertyOp48
 70
     1
102
RTVSPropertyOp49
 70
     1
102
RTVSPropertyOp50
 70
     1
102
RTVSPropertyOp51
 70
     0
102
RTVSPropertyOp52
 70
     0
102
RTVSPropertyOp53
 70
     1
102
RTVSPropertyOp54
 70
     1
102
RTVSPropertyOp55
 70
     1
102
RTVSPropertyOp56
 70
     1
102
RTVSPropertyOp57
 70
     1
102
RTVSPropertyOp58
 70
     1
102
RTVSPropertyOp59
 70
     1
102
RTVSPropertyOp60
 70
     1
102
RTVSPropertyOp61
 70
     1
102
RTVSPropertyOp62
 70
     1
  0
XRECORD
  5
15070
102
{ACAD_REACTORS
330
1506F
102
}
330
1506F
100
AcDbXrecord
280
     1
102
RTVSPost2010Prop28
280
     0
102
RTVSPost2010PropOp28
 70
     1
102
RTVSPost2010Prop29
280
     1
102
RTVSPost2010PropOp29
 70
     1
102
RTVSPost2010Prop30
280
     1
102
RTVSPost2010PropOp30
 70
     1
102
RTVSPost2010Prop31
280
     0
102
RTVSPost2010PropOp31
 70
     1
102
RTVSPost2010Prop32
280
     0
102
RTVSPost2010PropOp32
 70
     1
102
RTVSPost2010Prop33
280
     0
102
RTVSPost2010PropOp33
 70
     1
102
RTVSPost2010Prop34
280
     0
102
RTVSPost2010PropOp34
 70
     1
102
RTVSPost2010Prop35
280
     0
102
RTVSPost2010PropOp35
 70
     1
102
RTVSPost2010Prop36
280
     0
102
RTVSPost2010PropOp36
 70
     1
102
RTVSPost2010Prop37
 90
       50
102
RTVSPost2010PropOp37
 70
     1
102
RTVSPost2010Prop38
140
0.0
102
RTVSPost2010PropOp38
 70
     1
102
RTVSPost2010Prop39
140
1.0
102
RTVSPost2010PropOp39
 70
     1
102
RTVSPost2010Prop40
 90
        0
102
RTVSPost2010PropOp40
 70
     1
102
RTVSPost2010Prop41ColorIndex
 90
       18
102
RTVSPost2010Prop41ColorRGB
 90
        0
102
RTVSPost2010PropOp41
 70
     1
102
RTVSPost2010Prop42
 90
       50
102
RTVSPost2010PropOp42
 70
     1
102
RTVSPost2010Prop43
 90
        3
102
RTVSPost2010PropOp43
 70
     1
102
RTVSPost2010Prop44ColorIndex
 90
        5
102
RTVSPost2010Prop44ColorRGB
 90
      255
102
RTVSPost2010PropOp44
 70
     1
102
RTVSPost2010Prop45
280
     0
102
RTVSPost2010PropOp45
 70
     1
102
RTVSPost2010Prop46
 90
       50
102
RTVSPost2010PropOp46
 70
     1
102
RTVSPost2010Prop47
 90
       50
102
RTVSPost2010PropOp47
 70
     1
102
RTVSPost2010Prop48
 90
       50
102
RTVSPost2010PropOp48
 70
     1
102
RTVSPost2010Prop49
280
     0
102
RTVSPost2010PropOp49
 70
     1
102
RTVSPost2010Prop50
 90
       50
102
RTVSPost2010PropOp50
 70
     1
102
RTVSPost2010Prop51ColorIndex
 90
      256
102
RTVSPost2010Prop51ColorRGB
 90
-16777216
102
RTVSPost2010PropOp51
 70
     0
102
RTVSPost2010Prop52
140
1.0
102
RTVSPost2010PropOp52
 70
     0
102
RTVSPost2010Prop53
 90
        2
102
RTVSPost2010PropOp53
 70
     1
102
RTVSPost2010Prop54
  1
strokes_ogs.tif
102
RTVSPost2010PropOp54
 70
     1
102
RTVSPost2010Prop55
280
     0
102
RTVSPost2010PropOp55
 70
     1
102
RTVSPost2010Prop56
140
1.0
102
RTVSPost2010PropOp56
 70
     1
102
RTVSPost2010Prop57
140
1.0
102
RTVSPost2010PropOp57
 70
     1
102
RTVSPropertyOp0
 70
     1
102
RTVSPropertyOp1
 70
     1
102
RTVSPropertyOp2
 70
     1
102
RTVSPropertyOp3
 70
     1
102
RTVSPropertyOp4
 70
     1
102
RTVSPropertyOp5
 70
     1
102
RTVSPropertyOp6
 70
     1
102
RTVSPropertyOp7
 70
     1
102
RTVSPropertyOp8
 70
     1
102
RTVSPropertyOp9
 70
     1
102
RTVSPropertyOp10
 70
     1
102
RTVSPropertyOp11
 70
     1
102
RTVSPropertyOp12
 70
     1
102
RTVSPropertyOp13
 70
     1
102
RTVSPropertyOp14
 70
     1
102
RTVSPropertyOp15
 70
     1
102
RTVSPropertyOp16
 70
     1
102
RTVSPropertyOp17
 70
     1
102
RTVSPropertyOp18
 70
     1
102
RTVSPropertyOp19
 70
     1
102
RTVSPropertyOp20
 70
     1
102
RTVSPropertyOp21
 70
     1
102
RTVSPropertyOp22
 70
     1
102
RTVSPropertyOp23
 70
     1
102
RTVSPropertyOp24
 70
     1
102
RTVSPropertyOp25
 70
     1
102
RTVSPropertyOp26
 70
     1
102
RTVSPropertyOp27
 70
     1
102
RTVSPropertyOp28
 70
     1
102
RTVSPropertyOp29
 70
     1
102
RTVSPropertyOp30
 70
     1
102
RTVSPropertyOp31
 70
     1
102
RTVSPropertyOp32
 70
     1
102
RTVSPropertyOp33
 70
     1
102
RTVSPropertyOp34
 70
     1
102
RTVSPropertyOp35
 70
     1
102
RTVSPropertyOp36
 70
     1
102
RTVSPropertyOp37
 70
     1
102
RTVSPropertyOp38
 70
     1
102
RTVSPropertyOp39
 70
     1
102
RTVSPropertyOp40
 70
     1
102
RTVSPropertyOp41
 70
     1
102
RTVSPropertyOp42
 70
     1
102
RTVSPropertyOp43
 70
     1
102
RTVSPropertyOp44
 70
     1
102
RTVSPropertyOp45
 70
     1
102
RTVSPropertyOp46
 70
     1
102
RTVSPropertyOp47
 70
     1
102
RTVSPropertyOp48
 70
     1
102
RTVSPropertyOp49
 70
     1
102
RTVSPropertyOp50
 70
     1
102
RTVSPropertyOp51
 70
     0
102
RTVSPropertyOp52
 70
     0
102
RTVSPropertyOp53
 70
     1
102
RTVSPropertyOp54
 70
     1
102
RTVSPropertyOp55
 70
     1
102
RTVSPropertyOp56
 70
     1
102
RTVSPropertyOp57
 70
     1
102
RTVSPropertyOp58
 70
     1
102
RTVSPropertyOp59
 70
     1
102
RTVSPropertyOp60
 70
     1
102
RTVSPropertyOp61
 70
     1
102
RTVSPropertyOp62
 70
     1
  0
ENDSEC
  0
EOF
