  0
SECTION
  2
HEADER
  9
$ACADVER
  1
AC1015
  9
$ACADMAINTVER
 70
    20
  9
$DWGCODEPAGE
  3
ANSI_932
  9
$INSBASE
 10
0.0
 20
0.0
 30
0.0
  9
$EXTMIN
 10
104.9999999999996
 20
-0.0000000000000682
 30
0.0
  9
$EXTMAX
 10
12230.4
 20
8557.199999999999
 30
0.0
  9
$LIMMIN
 10
0.0
 20
0.0
  9
$LIMMAX
 10
12600.0
 20
8910.0
  9
$ORTHOMODE
 70
     0
  9
$REGENMODE
 70
     1
  9
$FILLMODE
 70
     1
  9
$QTEXTMODE
 70
     0
  9
$MIRRTEXT
 70
     1
  9
$LTSCALE
 40
7.0
  9
$ATTMODE
 70
     1
  9
$TEXTSIZE
 40
100.0
  9
$TRACEWID
 40
1.0
  9
$TEXTSTYLE
  7
STYLE3
  9
$CLAYER
  8
部品1
  9
$CELTYPE
  6
BYLAYER
  9
$CECOLOR
 62
   256
  9
$CELTSCALE
 40
50.0
  9
$DISPSILH
 70
     0
  9
$DIMSCALE
 40
30.0
  9
$DIMASZ
 40
2.5
  9
$DIMEXO
 40
0.5
  9
$DIMDLI
 40
7.0
  9
$DIMRND
 40
0.0
  9
$DIMDLE
 40
0.0
  9
$DIMEXE
 40
1.5
  9
$DIMTP
 40
0.0
  9
$DIMTM
 40
0.0
  9
$DIMTXT
 40
3.0
  9
$DIMCEN
 40
0.0
  9
$DIMTSZ
 40
0.0
  9
$DIMTOL
 70
     0
  9
$DIMLIM
 70
     0
  9
$DIMTIH
 70
     0
  9
$DIMTOH
 70
     0
  9
$DIMSE1
 70
     0
  9
$DIMSE2
 70
     0
  9
$DIMTAD
 70
     3
  9
$DIMZIN
 70
     8
  9
$DIMBLK
  1

  9
$DIMASO
 70
     1
  9
$DIMSHO
 70
     1
  9
$DIMPOST
  1

  9
$DIMAPOST
  1

  9
$DIMALT
 70
     0
  9
$DIMALTD
 70
     2
  9
$DIMALTF
 40
0.0394
  9
$DIMLFAC
 40
1.0
  9
$DIMTOFL
 70
     1
  9
$DIMTVP
 40
0.0
  9
$DIMTIX
 70
     1
  9
$DIMSOXD
 70
     1
  9
$DIMSAH
 70
     1
  9
$DIMBLK1
  1
DOTSMALL
  9
$DIMBLK2
  1
DOTSMALL
  9
$DIMSTYLE
  2
INABA_S30G
  9
$DIMCLRD
 70
     0
  9
$DIMCLRE
 70
     0
  9
$DIMCLRT
 70
     7
  9
$DIMTFAC
 40
1.0
  9
$DIMGAP
 40
1.0
  9
$DIMJUST
 70
     0
  9
$DIMSD1
 70
     0
  9
$DIMSD2
 70
     0
  9
$DIMTOLJ
 70
     1
  9
$DIMTZIN
 70
     0
  9
$DIMALTZ
 70
     0
  9
$DIMALTTZ
 70
     0
  9
$DIMUPT
 70
     0
  9
$DIMDEC
 70
     1
  9
$DIMTDEC
 70
     4
  9
$DIMALTU
 70
     2
  9
$DIMALTTD
 70
     2
  9
$DIMTXSTY
  7
STYLE1
  9
$DIMAUNIT
 70
     0
  9
$DIMADEC
 70
     0
  9
$DIMALTRND
 40
0.0
  9
$DIMAZIN
 70
     0
  9
$DIMDSEP
 70
    46
  9
$DIMATFIT
 70
     3
  9
$DIMFRAC
 70
     0
  9
$DIMLDRBLK
  1

  9
$DIMLUNIT
 70
     2
  9
$DIMLWD
 70
    -2
  9
$DIMLWE
 70
    -2
  9
$DIMTMOVE
 70
     0
  9
$LUNITS
 70
     2
  9
$LUPREC
 70
     1
  9
$SKETCHINC
 40
1.0
  9
$FILLETRAD
 40
5.0
  9
$AUNITS
 70
     0
  9
$AUPREC
 70
     0
  9
$MENU
  1
acad
  9
$ELEVATION
 40
0.0
  9
$PELEVATION
 40
0.0
  9
$THICKNESS
 40
0.0
  9
$LIMCHECK
 70
     0
  9
$CHAMFERA
 40
0.0
  9
$CHAMFERB
 40
0.0
  9
$CHAMFERC
 40
0.0
  9
$CHAMFERD
 40
0.0
  9
$SKPOLY
 70
     0
  9
$TDCREATE
 40
2451074.411873148
  9
$TDUCREATE
 40
2451074.036873148
  9
$TDUPDATE
 40
2457991.382478785
  9
$TDUUPDATE
 40
2457991.007478785
  9
$TDINDWG
 40
0.3009874769
  9
$TDUSRTIMER
 40
0.3009874769
  9
$USRTIMER
 70
     1
  9
$ANGBASE
 50
0.0
  9
$ANGDIR
 70
     0
  9
$PDMODE
 70
     3
  9
$PDSIZE
 40
2.0
  9
$PLINEWID
 40
0.0
  9
$SPLFRAME
 70
     0
  9
$SPLINETYPE
 70
     6
  9
$SPLINESEGS
 70
     8
  9
$HANDSEED
  5
14322
  9
$SURFTAB1
 70
     6
  9
$SURFTAB2
 70
     6
  9
$SURFTYPE
 70
     6
  9
$SURFU
 70
     6
  9
$SURFV
 70
     6
  9
$UCSBASE
  2

  9
$UCSNAME
  2

  9
$UCSORG
 10
0.0
 20
0.0
 30
0.0
  9
$UCSXDIR
 10
1.0
 20
0.0
 30
0.0
  9
$UCSYDIR
 10
0.0
 20
1.0
 30
0.0
  9
$UCSORTHOREF
  2

  9
$UCSORTHOVIEW
 70
     0
  9
$UCSORGTOP
 10
0.0
 20
0.0
 30
0.0
  9
$UCSORGBOTTOM
 10
0.0
 20
0.0
 30
0.0
  9
$UCSORGLEFT
 10
0.0
 20
0.0
 30
0.0
  9
$UCSORGRIGHT
 10
0.0
 20
0.0
 30
0.0
  9
$UCSORGFRONT
 10
0.0
 20
0.0
 30
0.0
  9
$UCSORGBACK
 10
0.0
 20
0.0
 30
0.0
  9
$PUCSBASE
  2

  9
$PUCSNAME
  2

  9
$PUCSORG
 10
0.0
 20
0.0
 30
0.0
  9
$PUCSXDIR
 10
1.0
 20
0.0
 30
0.0
  9
$PUCSYDIR
 10
0.0
 20
1.0
 30
0.0
  9
$PUCSORTHOREF
  2

  9
$PUCSORTHOVIEW
 70
     0
  9
$PUCSORGTOP
 10
0.0
 20
0.0
 30
0.0
  9
$PUCSORGBOTTOM
 10
0.0
 20
0.0
 30
0.0
  9
$PUCSORGLEFT
 10
0.0
 20
0.0
 30
0.0
  9
$PUCSORGRIGHT
 10
0.0
 20
0.0
 30
0.0
  9
$PUCSORGFRONT
 10
0.0
 20
0.0
 30
0.0
  9
$PUCSORGBACK
 10
0.0
 20
0.0
 30
0.0
  9
$USERI1
 70
     0
  9
$USERI2
 70
     0
  9
$USERI3
 70
     0
  9
$USERI4
 70
     0
  9
$USERI5
 70
     0
  9
$USERR1
 40
0.0
  9
$USERR2
 40
0.0
  9
$USERR3
 40
0.0
  9
$USERR4
 40
0.0
  9
$USERR5
 40
0.0
  9
$WORLDVIEW
 70
     1
  9
$SHADEDGE
 70
     3
  9
$SHADEDIF
 70
    70
  9
$TILEMODE
 70
     1
  9
$MAXACTVP
 70
    16
  9
$PINSBASE
 10
0.0
 20
0.0
 30
0.0
  9
$PLIMCHECK
 70
     0
  9
$PEXTMIN
 10
1.000000000000000E+20
 20
1.000000000000000E+20
 30
1.000000000000000E+20
  9
$PEXTMAX
 10
-1.000000000000000E+20
 20
-1.000000000000000E+20
 30
-1.000000000000000E+20
  9
$PLIMMIN
 10
0.0
 20
0.0
  9
$PLIMMAX
 10
420.0
 20
297.0
  9
$UNITMODE
 70
     0
  9
$VISRETAIN
 70
     0
  9
$PLINEGEN
 70
     0
  9
$PSLTSCALE
 70
     0
  9
$TREEDEPTH
 70
  3020
  9
$CMLSTYLE
  2
STANDARD
  9
$CMLJUST
 70
     0
  9
$CMLSCALE
 40
1.0
  9
$PROXYGRAPHICS
 70
     1
  9
$MEASUREMENT
 70
     1
  9
$CELWEIGHT
370
    -1
  9
$ENDCAPS
280
     0
  9
$JOINSTYLE
280
     0
  9
$LWDISPLAY
290
     0
  9
$INSUNITS
 70
     0
  9
$HYPERLINKBASE
  1

  9
$STYLESHEET
  1
inaba.ctb
  9
$XEDIT
290
     1
  9
$CEPSNTYPE
380
     0
  9
$PSTYLEMODE
290
     1
  9
$FINGERPRINTGUID
  2
{58030710-4AF5-403B-8CF3-36A6F6D08186}
  9
$VERSIONGUID
  2
{4EB1F118-E0BE-456C-BCDE-78FFF7AD80BD}
  9
$EXTNAMES
290
     1
  9
$PSVPSCALE
 40
0.0
  9
$OLESTARTUP
290
     0
  0
ENDSEC
  0
SECTION
  2
CLASSES
  0
CLASS
  1
ACDBDICTIONARYWDFLT
  2
AcDbDictionaryWithDefault
  3
ObjectDBX Classes
 90
        0
280
     0
281
     0
  0
CLASS
  1
MATERIAL
  2
AcDbMaterial
  3
ObjectDBX Classes
 90
     1153
280
     0
281
     0
  0
CLASS
  1
VISUALSTYLE
  2
AcDbVisualStyle
  3
ObjectDBX Classes
 90
     4095
280
     0
281
     0
  0
CLASS
  1
TABLESTYLE
  2
AcDbTableStyle
  3
ObjectDBX Classes
 90
     4095
280
     0
281
     0
  0
CLASS
  1
SCALE
  2
AcDbScale
  3
ObjectDBX Classes
 90
     1153
280
     0
281
     0
  0
CLASS
  1
MLEADERSTYLE
  2
AcDbMLeaderStyle
  3
ACDB_MLEADERSTYLE_CLASS
 90
     4095
280
     0
281
     0
  0
CLASS
  1
ACDBSECTIONVIEWSTYLE
  2
AcDbSectionViewStyle
  3
ObjectDBX Classes
 90
     1025
280
     0
281
     0
  0
CLASS
  1
ACDBDETAILVIEWSTYLE
  2
AcDbDetailViewStyle
  3
ObjectDBX Classes
 90
     1025
280
     0
281
     0
  0
CLASS
  1
DICTIONARYVAR
  2
AcDbDictionaryVar
  3
ObjectDBX Classes
 90
        0
280
     0
281
     0
  0
CLASS
  1
CELLSTYLEMAP
  2
AcDbCellStyleMap
  3
ObjectDBX Classes
 90
     1152
280
     0
281
     0
  0
CLASS
  1
ACDBPLACEHOLDER
  2
AcDbPlaceHolder
  3
ObjectDBX Classes
 90
        0
280
     0
281
     0
  0
CLASS
  1
LAYOUT
  2
AcDbLayout
  3
ObjectDBX Classes
 90
        0
280
     0
281
     0
  0
ENDSEC
  0
SECTION
  2
TABLES
  0
TABLE
  2
VPORT
  5
746D
330
0
100
AcDbSymbolTable
 70
     1
  0
VPORT
  5
14246
330
746D
100
AcDbSymbolTableRecord
100
AcDbViewportTableRecord
  2
*Active
 70
     0
 10
0.0
 20
0.0
 11
1.0
 21
1.0
 12
6520.686494453534
 22
4278.654675586539
 13
0.0
 23
0.0
 14
10.0
 24
10.0
 15
10.0
 25
10.0
 16
0.0
 26
0.0
 36
1.0
 17
0.0
 27
0.0
 37
0.0
 40
8623.156167508671
 41
1.531969309462915
 42
50.0
 43
0.0
 44
0.0
 50
0.0
 51
0.0
 71
     0
 72
     0
 73
     1
 74
     0
 75
     0
 76
     0
 77
     0
 78
     0
281
     0
 65
     1
110
0.0
120
0.0
130
0.0
111
1.0
121
0.0
131
0.0
112
0.0
122
1.0
132
0.0
 79
     0
146
0.0
1001
ACAD_NAV_VCDISPLAY
1070
     3
  0
ENDTAB
  0
TABLE
  2
LTYPE
  5
746A
330
0
100
AcDbSymbolTable
 70
     4
  0
LTYPE
  5
7477
330
746A
100
AcDbSymbolTableRecord
100
AcDbLinetypeTableRecord
  2
BYBLOCK
 70
     0
  3

 72
    65
 73
     0
 40
0.0
  0
LTYPE
  5
7478
330
746A
100
AcDbSymbolTableRecord
100
AcDbLinetypeTableRecord
  2
BYLAYER
 70
     0
  3

 72
    65
 73
     0
 40
0.0
  0
LTYPE
  5
7479
330
746A
100
AcDbSymbolTableRecord
100
AcDbLinetypeTableRecord
  2
CONTINUOUS
 70
     0
  3
Solid line
 72
    65
 73
     0
 40
0.0
  0
LTYPE
  5
781A
330
746A
100
AcDbSymbolTableRecord
100
AcDbLinetypeTableRecord
  2
HIDDEN
 70
     0
  3
__ __ __ __ __ __ __ __ __ __ __ __ __ __ __ __
 72
    65
 73
     2
 40
0.375
 49
0.25
 74
     0
 49
-0.125
 74
     0
  0
LTYPE
  5
781B
330
746A
100
AcDbSymbolTableRecord
100
AcDbLinetypeTableRecord
  2
PHANTOM
 70
     0
  3
______  __  __  ______  __  __  ______  __  __ 
 72
    65
 73
     6
 40
2.5
 49
1.25
 74
     0
 49
-0.25
 74
     0
 49
0.25
 74
     0
 49
-0.25
 74
     0
 49
0.25
 74
     0
 49
-0.25
 74
     0
  0
LTYPE
  5
14106
330
746A
100
AcDbSymbolTableRecord
100
AcDbLinetypeTableRecord
  2
CENTER
 70
     0
  3
Center ____ _ ____ _ ____ _ ____ _ ____ _ ____
 72
    65
 73
     4
 40
50.8
 49
31.75
 74
     0
 49
-6.349999999999999
 74
     0
 49
6.349999999999999
 74
     0
 49
-6.349999999999999
 74
     0
  0
ENDTAB
  0
TABLE
  2
LAYER
  5
7467
102
{ACAD_XDICTIONARY
360
13EE6
102
}
330
0
100
AcDbSymbolTable
 70
    11
  0
LAYER
  5
7474
102
{ACAD_XDICTIONARY
360
1429F
102
}
330
7467
100
AcDbSymbolTableRecord
100
AcDbLayerTableRecord
  2
0
 70
     0
 62
     7
  6
CONTINUOUS
370
    -3
390
13EC4
  0
LAYER
  5
DEB3
102
{ACAD_XDICTIONARY
360
142A1
102
}
330
7467
100
AcDbSymbolTableRecord
100
AcDbLayerTableRecord
  2
寸法
 70
     0
 62
     4
  6
CONTINUOUS
370
    -3
390
13EC4
  0
LAYER
  5
DEB4
102
{ACAD_XDICTIONARY
360
142A3
102
}
330
7467
100
AcDbSymbolTableRecord
100
AcDbLayerTableRecord
  2
部品1
 70
     0
 62
     7
  6
CONTINUOUS
370
    -3
390
13EC4
  0
LAYER
  5
DEB5
102
{ACAD_XDICTIONARY
360
142A5
102
}
330
7467
100
AcDbSymbolTableRecord
100
AcDbLayerTableRecord
  2
補助
 70
     0
 62
    -1
  6
CONTINUOUS
370
    -3
390
13EC4
  0
LAYER
  5
DEB6
102
{ACAD_XDICTIONARY
360
142A7
102
}
330
7467
100
AcDbSymbolTableRecord
100
AcDbLayerTableRecord
  2
文字
 70
     0
 62
     7
  6
CONTINUOUS
370
    -3
390
13EC4
  0
LAYER
  5
F255
330
7467
100
AcDbSymbolTableRecord
100
AcDbLayerTableRecord
  2
DEFPOINTS
 70
     0
 62
     7
  6
CONTINUOUS
290
     0
370
    -3
390
13EC4
  0
LAYER
  5
10B54
102
{ACAD_XDICTIONARY
360
142A9
102
}
330
7467
100
AcDbSymbolTableRecord
100
AcDbLayerTableRecord
  2
仕様書枠
 70
     0
 62
   230
  6
CONTINUOUS
370
    -3
390
13EC4
  0
LAYER
  5
11729
102
{ACAD_XDICTIONARY
360
142AB
102
}
330
7467
100
AcDbSymbolTableRecord
100
AcDbLayerTableRecord
  2
Ｇ．Ｌ
 70
     0
 62
    30
  6
CONTINUOUS
370
    -3
390
13EC4
  0
LAYER
  5
1173F
102
{ACAD_XDICTIONARY
360
142AD
102
}
330
7467
100
AcDbSymbolTableRecord
100
AcDbLayerTableRecord
  2
細線
 70
     0
 62
     5
  6
CONTINUOUS
370
    -3
390
13EC4
  0
LAYER
  5
11740
102
{ACAD_XDICTIONARY
360
142AF
102
}
330
7467
100
AcDbSymbolTableRecord
100
AcDbLayerTableRecord
  2
点線
 70
     0
 62
     2
  6
HIDDEN
370
    -3
390
13EC4
  0
LAYER
  5
14107
102
{ACAD_XDICTIONARY
360
142B1
102
}
330
7467
100
AcDbSymbolTableRecord
100
AcDbLayerTableRecord
  2
センター
 70
     0
 62
     3
  6
CENTER
370
    -3
390
13EC4
  0
ENDTAB
  0
TABLE
  2
STYLE
  5
7468
330
0
100
AcDbSymbolTable
 70
     6
  0
STYLE
  5
7475
330
7468
100
AcDbSymbolTableRecord
100
AcDbTextStyleTableRecord
  2
STANDARD
 70
     0
 40
0.0
 41
1.0
 50
0.0
 71
     0
 42
4.0
  3
txt
  4
C:\AutoCAD LT\bigfont.shx
  0
STYLE
  5
763C
330
7468
100
AcDbSymbolTableRecord
100
AcDbTextStyleTableRecord
  2
MSMINCHO
 70
     0
 40
0.0
 41
1.0
 50
0.0
 71
     0
 42
1.199999999999999
  3
C:\AutoCAD LT\msminch2.TTF
  4

  0
STYLE
  5
F706
330
7468
100
AcDbSymbolTableRecord
100
AcDbTextStyleTableRecord
  2
STYLE1
 70
     0
 40
0.0
 41
1.0
 50
0.0
 71
     0
 42
4.0
  3
isocp.shx
  4
bigfont.shx
  0
STYLE
  5
103BF
330
7468
100
AcDbSymbolTableRecord
100
AcDbTextStyleTableRecord
  2
STYLE2
 70
     0
 40
0.0
 41
1.0
 50
0.0
 71
     0
 42
100.0
  3
MS PGothic.ttf
  4

1001
ACAD
1000
MS PGothic
1071
    32818
  0
STYLE
  5
10BAA
330
7468
100
AcDbSymbolTableRecord
100
AcDbTextStyleTableRecord
  2
STYLE3
 70
     0
 40
0.0
 41
1.0
 50
0.0
 71
     0
 42
100.0
  3
MS PGothic.ttf
  4

1001
ACAD
1000
MS PGothic
1071
    32818
  0
STYLE
  5
14105
330
7468
100
AcDbSymbolTableRecord
100
AcDbTextStyleTableRecord
  2

 70
     1
 40
0.0
 41
1.0
 50
0.0
 71
     0
 42
100.0
  3
ltypeshp.shx
  4

  0
ENDTAB
  0
TABLE
  2
VIEW
  5
746B
330
0
100
AcDbSymbolTable
 70
     0
  0
ENDTAB
  0
TABLE
  2
UCS
  5
746C
330
0
100
AcDbSymbolTable
 70
     0
  0
ENDTAB
  0
TABLE
  2
APPID
  5
746E
330
0
100
AcDbSymbolTable
 70
     9
  0
APPID
  5
7476
330
746E
100
AcDbSymbolTableRecord
100
AcDbRegAppTableRecord
  2
ACAD
 70
     0
  0
APPID
  5
DEA9
330
746E
100
AcDbSymbolTableRecord
100
AcDbRegAppTableRecord
  2
CONTENTBLOCKICON
 70
     0
  0
APPID
  5
DEAA
330
746E
100
AcDbSymbolTableRecord
100
AcDbRegAppTableRecord
  2
CONTENTBLOCKDESCRIPTION
 70
     0
  0
APPID
  5
E71D
330
746E
100
AcDbSymbolTableRecord
100
AcDbRegAppTableRecord
  2
CONTENTTABDATA
 70
     0
  0
APPID
  5
E71E
330
746E
100
AcDbSymbolTableRecord
100
AcDbRegAppTableRecord
  2
CONTENTCURRENTTAB
 70
     0
  0
APPID
  5
F3BA
330
746E
100
AcDbSymbolTableRecord
100
AcDbRegAppTableRecord
  2
DRAWINGVARIABLESXDATA
 70
     0
  0
APPID
  5
1429D
330
746E
100
AcDbSymbolTableRecord
100
AcDbRegAppTableRecord
  2
ACAD_EXEMPT_FROM_CAD_STANDARDS
 70
     0
  0
APPID
  5
142BA
330
746E
100
AcDbSymbolTableRecord
100
AcDbRegAppTableRecord
  2
ACAD_NAV_VCDISPLAY
 70
     0
  0
APPID
  5
1431D
330
746E
100
AcDbSymbolTableRecord
100
AcDbRegAppTableRecord
  2
ACAD_MLEADERVER
 70
     0
  0
ENDTAB
  0
TABLE
  2
DIMSTYLE
  5
746F
330
0
100
AcDbSymbolTable
 70
     2
100
AcDbDimStyleTable
 71
     1
340
F71F
  0
DIMSTYLE
105
F71F
102
{ACAD_REACTORS
330
13652
330
13658
330
1366E
330
136D6
330
136FE
330
13700
330
13703
330
13704
330
13705
330
137B1
330
137B2
330
137BB
330
137BE
330
137BF
330
137C0
330
137CD
330
137CE
330
137F5
330
13814
330
13C3F
330
13C4C
330
13CFC
330
13CFD
330
13CFE
330
13CFF
330
13D7C
102
}
330
746F
100
AcDbSymbolTableRecord
100
AcDbDimStyleTableRecord
  2
INABA_S30G
 70
     0
 40
30.0
 41
2.5
 42
0.5
 43
7.0
 44
1.5
 73
     0
 74
     0
 77
     3
 78
     8
140
3.0
141
0.0
143
0.0394
147
1.0
172
     1
173
     1
174
     1
175
     1
178
     7
271
     1
340
F706
341
F770
343
F770
344
F770
  0
DIMSTYLE
105
141D3
330
746F
100
AcDbSymbolTableRecord
100
AcDbDimStyleTableRecord
  2
INABA_S40G
 70
     0
 40
40.0
 41
2.5
 42
0.5
 43
7.0
 44
1.5
 73
     0
 74
     0
 77
     3
 78
     8
140
3.0
141
0.0
143
0.0394
147
1.0
172
     1
173
     1
174
     1
178
     7
271
     1
340
F706
341
F770
343
F770
344
F770
  0
ENDTAB
  0
TABLE
  2
BLOCK_RECORD
  5
7466
330
0
100
AcDbSymbolTable
 70
    30
  0
BLOCK_RECORD
  5
747D
330
7466
100
AcDbSymbolTableRecord
100
AcDbBlockTableRecord
  2
*MODEL_SPACE
340
13EC9
  0
BLOCK_RECORD
  5
747A
330
7466
100
AcDbSymbolTableRecord
100
AcDbBlockTableRecord
  2
*PAPER_SPACE
340
13ECA
  0
BLOCK_RECORD
  5
F770
330
7466
100
AcDbSymbolTableRecord
100
AcDbBlockTableRecord
  2
_DOTSMALL
340
0
102
{BLKREFS
331
1411A
331
1411B
331
14136
331
14137
331
1415B
331
1415C
331
14165
331
14166
331
1416E
331
1416F
331
14178
331
14179
331
14194
331
14195
331
141B2
331
141B3
331
141BB
331
141BC
331
141FC
331
141FD
331
1420E
331
1420F
331
14221
331
14222
331
13A0D
331
13A0E
331
13A18
331
13A19
331
13A23
331
13A24
331
13A50
331
13A51
331
13A5B
331
13A5C
331
13A71
331
13A72
331
13A7F
331
13A80
331
13A8A
331
13A8B
331
13A95
331
13A96
331
13ABF
331
13AC0
331
13B60
331
13B95
331
13B96
331
13C45
331
13C46
331
13D8D
331
13D8E
331
13DA4
331
13DA5
102
}
  0
BLOCK_RECORD
  5
11FE5
330
7466
100
AcDbSymbolTableRecord
100
AcDbBlockTableRecord
  2
A$C644A28E3
340
0
102
{BLKREFS
331
140C9
102
}
  0
BLOCK_RECORD
  5
11FED
330
7466
100
AcDbSymbolTableRecord
100
AcDbBlockTableRecord
  2
A$C0EDA5930
340
0
102
{BLKREFS
331
137DE
331
137E4
331
137E5
331
137E6
331
137E8
331
137E9
331
13815
331
13819
331
13835
331
13836
331
13838
102
}
  0
BLOCK_RECORD
  5
1384A
330
7466
100
AcDbSymbolTableRecord
100
AcDbBlockTableRecord
  2
*D3
340
0
  0
BLOCK_RECORD
  5
13864
330
7466
100
AcDbSymbolTableRecord
100
AcDbBlockTableRecord
  2
*D4
340
0
  0
BLOCK_RECORD
  5
1387C
330
7466
100
AcDbSymbolTableRecord
100
AcDbBlockTableRecord
  2
*D5
340
0
  0
BLOCK_RECORD
  5
138A0
330
7466
100
AcDbSymbolTableRecord
100
AcDbBlockTableRecord
  2
*D6
340
0
  0
BLOCK_RECORD
  5
138AC
330
7466
100
AcDbSymbolTableRecord
100
AcDbBlockTableRecord
  2
*D7
340
0
  0
BLOCK_RECORD
  5
138C4
330
7466
100
AcDbSymbolTableRecord
100
AcDbBlockTableRecord
  2
*D8
340
0
  0
BLOCK_RECORD
  5
138D0
330
7466
100
AcDbSymbolTableRecord
100
AcDbBlockTableRecord
  2
*D9
340
0
  0
BLOCK_RECORD
  5
138DC
330
7466
100
AcDbSymbolTableRecord
100
AcDbBlockTableRecord
  2
*D10
340
0
  0
BLOCK_RECORD
  5
138E8
330
7466
100
AcDbSymbolTableRecord
100
AcDbBlockTableRecord
  2
*D11
340
0
  0
BLOCK_RECORD
  5
138F4
330
7466
100
AcDbSymbolTableRecord
100
AcDbBlockTableRecord
  2
*D12
340
0
  0
BLOCK_RECORD
  5
13900
330
7466
100
AcDbSymbolTableRecord
100
AcDbBlockTableRecord
  2
*D13
340
0
  0
BLOCK_RECORD
  5
1390C
330
7466
100
AcDbSymbolTableRecord
100
AcDbBlockTableRecord
  2
*D14
340
0
  0
BLOCK_RECORD
  5
13918
330
7466
100
AcDbSymbolTableRecord
100
AcDbBlockTableRecord
  2
*D15
340
0
  0
BLOCK_RECORD
  5
13924
330
7466
100
AcDbSymbolTableRecord
100
AcDbBlockTableRecord
  2
*D16
340
0
  0
BLOCK_RECORD
  5
13930
330
7466
100
AcDbSymbolTableRecord
100
AcDbBlockTableRecord
  2
*D17
340
0
  0
BLOCK_RECORD
  5
1393C
330
7466
100
AcDbSymbolTableRecord
100
AcDbBlockTableRecord
  2
*D18
340
0
  0
BLOCK_RECORD
  5
13949
330
7466
100
AcDbSymbolTableRecord
100
AcDbBlockTableRecord
  2
*D19
340
0
  0
BLOCK_RECORD
  5
13955
330
7466
100
AcDbSymbolTableRecord
100
AcDbBlockTableRecord
  2
*D20
340
0
  0
BLOCK_RECORD
  5
13961
330
7466
100
AcDbSymbolTableRecord
100
AcDbBlockTableRecord
  2
*D21
340
0
  0
BLOCK_RECORD
  5
13C33
330
7466
100
AcDbSymbolTableRecord
100
AcDbBlockTableRecord
  2
*D22
340
0
  0
BLOCK_RECORD
  5
13C40
330
7466
100
AcDbSymbolTableRecord
100
AcDbBlockTableRecord
  2
*D23
340
0
  0
BLOCK_RECORD
  5
13C5E
330
7466
100
AcDbSymbolTableRecord
100
AcDbBlockTableRecord
  2
A$C115369B0
340
0
102
{BLKREFS
331
13C6A
102
}
  0
BLOCK_RECORD
  5
13D00
330
7466
100
AcDbSymbolTableRecord
100
AcDbBlockTableRecord
  2
*D25
340
0
  0
BLOCK_RECORD
  5
13D0C
330
7466
100
AcDbSymbolTableRecord
100
AcDbBlockTableRecord
  2
*D26
340
0
  0
BLOCK_RECORD
  5
13D18
330
7466
100
AcDbSymbolTableRecord
100
AcDbBlockTableRecord
  2
*D27
340
0
  0
BLOCK_RECORD
  5
13D25
330
7466
100
AcDbSymbolTableRecord
100
AcDbBlockTableRecord
  2
*D28
340
0
  0
BLOCK_RECORD
  5
13D7D
330
7466
100
AcDbSymbolTableRecord
100
AcDbBlockTableRecord
  2
*D29
340
0
  0
ENDTAB
  0
ENDSEC
  0
SECTION
  2
BLOCKS
  0
BLOCK
  5
7489
330
747D
100
AcDbEntity
  8
0
100
AcDbBlockBegin
  2
*MODEL_SPACE
 70
     0
 10
0.0
 20
0.0
 30
0.0
  3
*MODEL_SPACE
  1

  0
ENDBLK
  5
748A
330
747D
100
AcDbEntity
  8
0
100
AcDbBlockEnd
  0
BLOCK
  5
7487
330
747A
100
AcDbEntity
 67
     1
  8
0
100
AcDbBlockBegin
  2
*PAPER_SPACE
 70
     0
 10
0.0
 20
0.0
 30
0.0
  3
*PAPER_SPACE
  1

  0
ENDBLK
  5
7488
330
747A
100
AcDbEntity
 67
     1
  8
0
100
AcDbBlockEnd
  0
BLOCK
  5
F771
330
F770
100
AcDbEntity
  8
0
 48
50.0
100
AcDbBlockBegin
  2
_DOTSMALL
 70
     0
 10
0.0
 20
0.0
 30
0.0
  3
_DOTSMALL
  1

  0
LWPOLYLINE
  5
F772
330
F770
100
AcDbEntity
  8
0
  6
ByBlock
 62
     0
 48
50.0
100
AcDbPolyline
 90
        2
 70
     1
 43
0.5
 10
-0.0625
 20
0.0
 42
1.0
 10
0.0625
 20
0.0
 42
1.0
  0
ENDBLK
  5
F776
330
F770
100
AcDbEntity
  8
0
 48
50.0
100
AcDbBlockEnd
  0
BLOCK
  5
11FEB
330
11FE5
100
AcDbEntity
  8
0
 48
50.0
100
AcDbBlockBegin
  2
A$C644A28E3
 70
     0
 10
0.0
 20
0.0
 30
0.0
  3
A$C644A28E3
  1

  0
ARC
  5
11FE6
330
11FE5
100
AcDbEntity
  8
部品1
 48
50.0
100
AcDbCircle
 10
53.99999260842742
 20
10.0000017156417
 30
0.0
 40
10.0
100
AcDbArc
 50
270.0000000000021
 51
0.0
  0
ARC
  5
11FE7
330
11FE5
100
AcDbEntity
  8
部品1
 48
50.0
100
AcDbCircle
 10
9.999992608427419
 20
10.00000171563806
 30
0.0
 40
10.0
100
AcDbArc
 50
180.0
 51
270.0000000000009
  0
LINE
  5
11FE8
330
11FE5
100
AcDbEntity
  8
部品1
 48
50.0
100
AcDbLine
 10
9.999992608427419
 20
0.0000017156380636
 30
0.0
 11
53.99999260842742
 21
0.0000017156417016
 31
0.0
  0
LINE
  5
11FE9
330
11FE5
100
AcDbEntity
  8
部品1
 48
50.0
100
AcDbLine
 10
63.99999260842742
 20
45.00000171563806
 30
0.0
 11
63.99999260842742
 21
10.0000017156417
 31
0.0
  0
LINE
  5
11FEA
330
11FE5
100
AcDbEntity
  8
部品1
 48
50.0
100
AcDbLine
 10
-0.0000073915725807
 20
45.00000171563806
 30
0.0
 11
-0.0000073915725807
 21
10.00000171563806
 31
0.0
  0
ENDBLK
  5
11FEC
330
11FE5
100
AcDbEntity
  8
0
 48
50.0
100
AcDbBlockEnd
  0
BLOCK
  5
11FF0
330
11FED
100
AcDbEntity
  8
0
 48
50.0
100
AcDbBlockBegin
  2
A$C0EDA5930
 70
     0
 10
0.0
 20
0.0
 30
0.0
  3
A$C0EDA5930
  1

  0
LWPOLYLINE
  5
11FEE
330
11FED
100
AcDbEntity
  8
細線
 48
50.0
100
AcDbPolyline
 90
        6
 70
     1
 43
0.0
 10
2.499964582253596
 20
5.24718422294427
 10
8.999964582253596
 20
1.494407473212049
 10
15.4999645822536
 20
5.24718422294427
 10
15.4999645822536
 20
12.75273772240871
 10
8.999964582253596
 20
16.50551447214093
 10
2.499964582253596
 20
12.75273772240871
  0
CIRCLE
  5
11FEF
330
11FED
100
AcDbEntity
  8
部品1
 48
50.0
100
AcDbCircle
 10
8.999964582253596
 20
8.99996097267649
 30
0.0
 40
9.0
  0
ENDBLK
  5
11FF1
330
11FED
100
AcDbEntity
  8
0
 48
50.0
100
AcDbBlockEnd
  0
BLOCK
  5
13D9E
330
1384A
100
AcDbEntity
  8
0
 48
50.0
100
AcDbBlockBegin
  2
*D3
 70
     1
 10
0.0
 20
0.0
 30
0.0
  3
*D3
  1

  0
LINE
  5
13D9F
330
1384A
100
AcDbEntity
  8
0
  6
ByBlock
 62
     0
 48
50.0
100
AcDbLine
 10
5207.252486380483
 20
1807.999300294628
 30
0.0
 11
5709.337677446333
 21
1807.999300294628
 31
0.0
  0
LINE
  5
13DA0
330
1384A
100
AcDbEntity
  8
0
  6
ByBlock
 62
     0
 48
50.0
100
AcDbLine
 10
5217.252486380491
 20
1757.99930029463
 30
0.0
 11
5709.337677446333
 21
1757.99930029463
 31
0.0
  0
LINE
  5
13DA1
330
1384A
100
AcDbEntity
  8
0
  6
ByBlock
 62
     0
 48
50.0
100
AcDbLine
 10
5664.337677446333
 20
1757.99930029463
 30
0.0
 11
5664.337677446333
 21
1682.99930029463
 31
0.0
  0
LINE
  5
13DA2
330
1384A
100
AcDbEntity
  8
0
  6
ByBlock
 62
     0
 48
50.0
100
AcDbLine
 10
5664.337677446333
 20
1807.999300294628
 30
0.0
 11
5664.337677446333
 21
2118.581977459983
 31
0.0
  0
LINE
  5
13DA3
330
1384A
100
AcDbEntity
  8
0
  6
ByBlock
 62
     0
 48
50.0
100
AcDbLine
 10
5664.337677446333
 20
1757.99930029463
 30
0.0
 11
5664.337677446333
 21
1807.999300294628
 31
0.0
  0
INSERT
  5
13DA4
330
1384A
100
AcDbEntity
  8
0
  6
ByBlock
 62
     0
 48
50.0
100
AcDbBlockReference
  2
_DOTSMALL
 10
5664.337677446333
 20
1757.99930029463
 30
0.0
 41
75.0
 42
75.0
 43
75.0
 50
90.0
  0
INSERT
  5
13DA5
330
1384A
100
AcDbEntity
  8
0
  6
ByBlock
 62
     0
 48
50.0
100
AcDbBlockReference
  2
_DOTSMALL
 10
5664.337677446333
 20
1807.999300294628
 30
0.0
 41
75.0
 42
75.0
 43
75.0
 50
270.0
  0
MTEXT
  5
13DA6
330
1384A
100
AcDbEntity
  8
0
  6
ByBlock
 62
     7
 48
50.0
100
AcDbMText
 10
5589.337677446334
 20
2039.046544389116
 30
0.0
 40
90.0
 41
0.0
 71
     5
 72
     1
  1
\A1;50
  7
STYLE1
 11
0.0000000000000001
 21
1.0
 31
0.0
 73
     1
 44
1.0
1001
ACAD
1000
MTEXTBEGIN
1070
    73
1070
     1
1070
    44
1040
1.0
1070
    74
1070
     0
1000
MTEXTEND
  0
POINT
  5
13DA7
330
1384A
100
AcDbEntity
  8
DEFPOINTS
  6
ByBlock
 62
     0
 48
50.0
100
AcDbPoint
 10
5192.252486380484
 20
1807.999300294628
 30
0.0
  0
POINT
  5
13DA8
330
1384A
100
AcDbEntity
  8
DEFPOINTS
  6
ByBlock
 62
     0
 48
50.0
100
AcDbPoint
 10
5202.252486380491
 20
1757.99930029463
 30
0.0
  0
POINT
  5
13DA9
330
1384A
100
AcDbEntity
  8
DEFPOINTS
  6
ByBlock
 62
     0
 48
50.0
100
AcDbPoint
 10
5664.337677446333
 20
1757.99930029463
 30
0.0
  0
ENDBLK
  5
13DAA
330
1384A
100
AcDbEntity
  8
0
 48
50.0
100
AcDbBlockEnd
  0
BLOCK
  5
13985
330
13864
100
AcDbEntity
  8
0
 48
50.0
100
AcDbBlockBegin
  2
*D4
 70
     1
 10
0.0
 20
0.0
 30
0.0
  3
*D4
  1

  0
LINE
  5
141F9
330
13864
100
AcDbEntity
  8
寸法
 62
     0
 48
50.0
370
    -2
100
AcDbLine
 10
2372.252488254732
 20
3948.369500068427
 30
0.0
 11
2372.252488254732
 21
4222.028323492053
 31
0.0
  0
LINE
  5
141FA
330
13864
100
AcDbEntity
  8
寸法
 62
     0
 48
50.0
370
    -2
100
AcDbLine
 10
2622.252488254732
 20
3800.700394880208
 30
0.0
 11
2622.252488254732
 21
4222.028323492053
 31
0.0
  0
LINE
  5
141FB
330
13864
100
AcDbEntity
  8
寸法
 62
     0
 48
50.0
370
    -2
100
AcDbLine
 10
2372.252488254732
 20
4177.028323492053
 30
0.0
 11
2622.252488254732
 21
4177.028323492053
 31
0.0
  0
INSERT
  5
141FC
330
13864
100
AcDbEntity
  8
寸法
 62
     0
 48
50.0
370
    -2
100
AcDbBlockReference
  2
_DOTSMALL
 10
2372.252488254732
 20
4177.028323492053
 30
0.0
 41
75.0
 42
75.0
 43
75.0
 50
180.0
  0
INSERT
  5
141FD
330
13864
100
AcDbEntity
  8
寸法
 62
     0
 48
50.0
370
    -2
100
AcDbBlockReference
  2
_DOTSMALL
 10
2622.252488254732
 20
4177.028323492053
 30
0.0
 41
75.0
 42
75.0
 43
75.0
  0
MTEXT
  5
141FE
330
13864
100
AcDbEntity
  8
寸法
 62
     7
 48
50.0
100
AcDbMText
 10
2497.252488254732
 20
4252.03718175977
 30
0.0
 40
90.0
 41
0.0
 71
     5
 72
     1
  1
\A1;250
  7
STYLE1
 73
     1
 44
1.0
1001
ACAD
1000
MTEXTBEGIN
1070
    73
1070
     1
1070
    44
1040
1.0
1070
    74
1070
     0
1000
MTEXTEND
  0
POINT
  5
141FF
330
13864
100
AcDbEntity
  8
DEFPOINTS
 62
     0
 48
50.0
100
AcDbPoint
 10
2372.252488254732
 20
3933.369500068426
 30
0.0
  0
POINT
  5
14200
330
13864
100
AcDbEntity
  8
DEFPOINTS
 62
     0
 48
50.0
100
AcDbPoint
 10
2622.252488254732
 20
3785.700394880208
 30
0.0
  0
POINT
  5
14201
330
13864
100
AcDbEntity
  8
DEFPOINTS
 62
     0
 48
50.0
100
AcDbPoint
 10
2622.252488254732
 20
4177.028323492053
 30
0.0
  0
ENDBLK
  5
1398F
330
13864
100
AcDbEntity
  8
0
 48
50.0
100
AcDbBlockEnd
  0
BLOCK
  5
13B91
330
1387C
100
AcDbEntity
  8
0
 48
50.0
100
AcDbBlockBegin
  2
*D5
 70
     1
 10
0.0
 20
0.0
 30
0.0
  3
*D5
  1

  0
LINE
  5
13B92
330
1387C
100
AcDbEntity
  8
0
  6
ByBlock
 62
     0
 48
50.0
100
AcDbLine
 10
3812.252488151011
 20
1473.019021987516
 30
0.0
 11
3812.252488151011
 21
1282.153504751246
 31
0.0
  0
LINE
  5
13B93
330
1387C
100
AcDbEntity
  8
0
  6
ByBlock
 62
     0
 48
50.0
100
AcDbLine
 10
6192.252486199243
 20
1472.978531432185
 30
0.0
 11
6192.252486199243
 21
1282.153504751246
 31
0.0
  0
LINE
  5
13B94
330
1387C
100
AcDbEntity
  8
0
  6
ByBlock
 62
     0
 48
50.0
100
AcDbLine
 10
3812.252488151011
 20
1327.153504751246
 30
0.0
 11
6192.252486199243
 21
1327.153504751246
 31
0.0
  0
INSERT
  5
13B95
330
1387C
100
AcDbEntity
  8
0
  6
ByBlock
 62
     0
 48
50.0
100
AcDbBlockReference
  2
_DOTSMALL
 10
3812.252488151011
 20
1327.153504751246
 30
0.0
 41
75.0
 42
75.0
 43
75.0
 50
180.0
  0
INSERT
  5
13B96
330
1387C
100
AcDbEntity
  8
0
  6
ByBlock
 62
     0
 48
50.0
100
AcDbBlockReference
  2
_DOTSMALL
 10
6192.252486199243
 20
1327.153504751246
 30
0.0
 41
75.0
 42
75.0
 43
75.0
  0
MTEXT
  5
13B97
330
1387C
100
AcDbEntity
  8
0
  6
ByBlock
 62
     7
 48
50.0
100
AcDbMText
 10
5002.252487175127
 20
1402.162363018962
 30
0.0
 40
90.0
 41
0.0
 71
     5
 72
     1
  1
\A1;2380
  7
STYLE1
 73
     1
 44
1.0
1001
ACAD
1000
MTEXTBEGIN
1070
    73
1070
     1
1070
    44
1040
1.0
1070
    74
1070
     0
1000
MTEXTEND
  0
POINT
  5
13B98
330
1387C
100
AcDbEntity
  8
DEFPOINTS
  6
ByBlock
 62
     0
 48
50.0
100
AcDbPoint
 10
3812.252488151011
 20
1488.019021987517
 30
0.0
  0
POINT
  5
13B99
330
1387C
100
AcDbEntity
  8
DEFPOINTS
  6
ByBlock
 62
     0
 48
50.0
100
AcDbPoint
 10
6192.252486199243
 20
1487.978531432185
 30
0.0
  0
POINT
  5
13B9A
330
1387C
100
AcDbEntity
  8
DEFPOINTS
  6
ByBlock
 62
     0
 48
50.0
100
AcDbPoint
 10
6192.252486199243
 20
1327.153504751246
 30
0.0
  0
ENDBLK
  5
13B9B
330
1387C
100
AcDbEntity
  8
0
 48
50.0
100
AcDbBlockEnd
  0
BLOCK
  5
139BC
330
138A0
100
AcDbEntity
  8
0
 48
50.0
100
AcDbBlockBegin
  2
*D6
 70
     1
 10
0.0
 20
0.0
 30
0.0
  3
*D6
  1

  0
LINE
  5
1420B
330
138A0
100
AcDbEntity
  8
寸法
 62
     0
 48
50.0
370
    -2
100
AcDbLine
 10
5002.252486380488
 20
3800.679114007996
 30
0.0
 11
5002.252486380488
 21
4222.007042619842
 31
0.0
  0
LINE
  5
1420C
330
138A0
100
AcDbEntity
  8
寸法
 62
     0
 48
50.0
370
    -2
100
AcDbLine
 10
5252.252486380488
 20
3948.348219196216
 30
0.0
 11
5252.252486380488
 21
4222.007042619842
 31
0.0
  0
LINE
  5
1420D
330
138A0
100
AcDbEntity
  8
寸法
 62
     0
 48
50.0
370
    -2
100
AcDbLine
 10
5002.252486380488
 20
4177.007042619841
 30
0.0
 11
5252.252486380488
 21
4177.007042619841
 31
0.0
  0
INSERT
  5
1420E
330
138A0
100
AcDbEntity
  8
寸法
 62
     0
 48
50.0
370
    -2
100
AcDbBlockReference
  2
_DOTSMALL
 10
5002.252486380488
 20
4177.007042619841
 30
0.0
 41
75.0
 42
75.0
 43
75.0
 50
180.0
  0
INSERT
  5
1420F
330
138A0
100
AcDbEntity
  8
寸法
 62
     0
 48
50.0
370
    -2
100
AcDbBlockReference
  2
_DOTSMALL
 10
5252.252486380488
 20
4177.007042619841
 30
0.0
 41
75.0
 42
75.0
 43
75.0
  0
MTEXT
  5
14210
330
138A0
100
AcDbEntity
  8
寸法
 62
     7
 48
50.0
100
AcDbMText
 10
5127.252486380488
 20
4252.015900887558
 30
0.0
 40
90.0
 41
0.0
 71
     5
 72
     1
  1
\A1;250
  7
STYLE1
 73
     1
 44
1.0
1001
ACAD
1000
MTEXTBEGIN
1070
    73
1070
     1
1070
    44
1040
1.0
1070
    74
1070
     0
1000
MTEXTEND
  0
POINT
  5
14211
330
138A0
100
AcDbEntity
  8
DEFPOINTS
 62
     0
 48
50.0
100
AcDbPoint
 10
5002.252486380488
 20
3785.679114007996
 30
0.0
  0
POINT
  5
14212
330
138A0
100
AcDbEntity
  8
DEFPOINTS
 62
     0
 48
50.0
100
AcDbPoint
 10
5252.252486380488
 20
3933.348219196215
 30
0.0
  0
POINT
  5
14213
330
138A0
100
AcDbEntity
  8
DEFPOINTS
 62
     0
 48
50.0
100
AcDbPoint
 10
5252.252486380488
 20
4177.007042619841
 30
0.0
  0
ENDBLK
  5
139C6
330
138A0
100
AcDbEntity
  8
0
 48
50.0
100
AcDbBlockEnd
  0
BLOCK
  5
139C7
330
138AC
100
AcDbEntity
  8
0
 48
50.0
100
AcDbBlockBegin
  2
*D7
 70
     1
 10
0.0
 20
0.0
 30
0.0
  3
*D7
  1

  0
LINE
  5
14117
330
138AC
100
AcDbEntity
  8
寸法
 62
     0
 48
50.0
370
    -2
100
AcDbLine
 10
2372.252488332254
 20
7809.627768532554
 30
0.0
 11
2006.580544499714
 21
7809.627768532556
 31
0.0
  0
LINE
  5
14118
330
138AC
100
AcDbEntity
  8
寸法
 62
     0
 48
50.0
370
    -2
100
AcDbLine
 10
2287.252488332258
 20
7572.627768532557
 30
0.0
 11
2006.580544499714
 21
7572.627768532559
 31
0.0
  0
LINE
  5
14119
330
138AC
100
AcDbEntity
  8
寸法
 62
     0
 48
50.0
370
    -2
100
AcDbLine
 10
2051.580544499714
 20
7809.627768532554
 30
0.0
 11
2051.580544499714
 21
7572.627768532557
 31
0.0
  0
INSERT
  5
1411A
330
138AC
100
AcDbEntity
  8
寸法
 62
     0
 48
50.0
370
    -2
100
AcDbBlockReference
  2
_DOTSMALL
 10
2051.580544499714
 20
7809.627768532554
 30
0.0
 41
75.0
 42
75.0
 43
75.0
 50
90.0
  0
INSERT
  5
1411B
330
138AC
100
AcDbEntity
  8
寸法
 62
     0
 48
50.0
370
    -2
100
AcDbBlockReference
  2
_DOTSMALL
 10
2051.580544499714
 20
7572.627768532557
 30
0.0
 41
75.0
 42
75.0
 43
75.0
 50
270.0
  0
MTEXT
  5
1411C
330
138AC
100
AcDbEntity
  8
寸法
 62
     7
 48
50.0
100
AcDbMText
 10
1976.571686231996
 20
7691.127768532554
 30
0.0
 40
90.0
 41
0.0
 71
     5
 72
     1
  1
\A1;237
  7
STYLE1
 11
0.0000000000000001
 21
1.0
 31
0.0
 73
     1
 44
1.0
1001
ACAD
1000
MTEXTBEGIN
1070
    73
1070
     1
1070
    44
1040
1.0
1070
    74
1070
     0
1000
MTEXTEND
  0
POINT
  5
1411D
330
138AC
100
AcDbEntity
  8
DEFPOINTS
 62
     0
 48
50.0
100
AcDbPoint
 10
2387.252488332254
 20
7809.627768532554
 30
0.0
  0
POINT
  5
1411E
330
138AC
100
AcDbEntity
  8
DEFPOINTS
 62
     0
 48
50.0
100
AcDbPoint
 10
2302.252488332257
 20
7572.627768532557
 30
0.0
  0
POINT
  5
1411F
330
138AC
100
AcDbEntity
  8
DEFPOINTS
 62
     0
 48
50.0
100
AcDbPoint
 10
2051.580544499714
 20
7572.627768532557
 30
0.0
  0
ENDBLK
  5
139D1
330
138AC
100
AcDbEntity
  8
0
 48
50.0
100
AcDbBlockEnd
  0
BLOCK
  5
139DD
330
138C4
100
AcDbEntity
  8
0
 48
50.0
100
AcDbBlockBegin
  2
*D8
 70
     1
 10
0.0
 20
0.0
 30
0.0
  3
*D8
  1

  0
LINE
  5
14158
330
138C4
100
AcDbEntity
  8
寸法
 62
     0
 48
50.0
370
    -2
100
AcDbLine
 10
2287.252488332256
 20
6830.627768532562
 30
0.0
 11
2006.580544499714
 21
6830.627768532564
 31
0.0
  0
LINE
  5
14159
330
138C4
100
AcDbEntity
  8
寸法
 62
     0
 48
50.0
370
    -2
100
AcDbLine
 10
2287.252488332256
 20
6088.627768532562
 30
0.0
 11
2006.580544499714
 21
6088.627768532563
 31
0.0
  0
LINE
  5
1415A
330
138C4
100
AcDbEntity
  8
寸法
 62
     0
 48
50.0
370
    -2
100
AcDbLine
 10
2051.580544499714
 20
6830.627768532562
 30
0.0
 11
2051.580544499714
 21
6088.627768532562
 31
0.0
  0
INSERT
  5
1415B
330
138C4
100
AcDbEntity
  8
寸法
 62
     0
 48
50.0
370
    -2
100
AcDbBlockReference
  2
_DOTSMALL
 10
2051.580544499714
 20
6830.627768532562
 30
0.0
 41
75.0
 42
75.0
 43
75.0
 50
90.0
  0
INSERT
  5
1415C
330
138C4
100
AcDbEntity
  8
寸法
 62
     0
 48
50.0
370
    -2
100
AcDbBlockReference
  2
_DOTSMALL
 10
2051.580544499714
 20
6088.627768532562
 30
0.0
 41
75.0
 42
75.0
 43
75.0
 50
270.0
  0
MTEXT
  5
1415D
330
138C4
100
AcDbEntity
  8
寸法
 62
     7
 48
50.0
100
AcDbMText
 10
1976.571686231996
 20
6459.62776853256
 30
0.0
 40
90.0
 41
0.0
 71
     5
 72
     1
  1
\A1;742
  7
STYLE1
 11
0.0000000000000001
 21
1.0
 31
0.0
 73
     1
 44
1.0
1001
ACAD
1000
MTEXTBEGIN
1070
    73
1070
     1
1070
    44
1040
1.0
1070
    74
1070
     0
1000
MTEXTEND
  0
POINT
  5
1415E
330
138C4
100
AcDbEntity
  8
DEFPOINTS
 62
     0
 48
50.0
100
AcDbPoint
 10
2302.252488332256
 20
6830.627768532562
 30
0.0
  0
POINT
  5
1415F
330
138C4
100
AcDbEntity
  8
DEFPOINTS
 62
     0
 48
50.0
100
AcDbPoint
 10
2302.252488332256
 20
6088.627768532562
 30
0.0
  0
POINT
  5
14160
330
138C4
100
AcDbEntity
  8
DEFPOINTS
 62
     0
 48
50.0
100
AcDbPoint
 10
2051.580544499714
 20
6088.627768532562
 30
0.0
  0
ENDBLK
  5
139E7
330
138C4
100
AcDbEntity
  8
0
 48
50.0
100
AcDbBlockEnd
  0
BLOCK
  5
139E8
330
138D0
100
AcDbEntity
  8
0
 48
50.0
100
AcDbBlockBegin
  2
*D9
 70
     1
 10
0.0
 20
0.0
 30
0.0
  3
*D9
  1

  0
LINE
  5
1416B
330
138D0
100
AcDbEntity
  8
寸法
 62
     0
 48
50.0
370
    -2
100
AcDbLine
 10
2287.252488332256
 20
5346.627768532562
 30
0.0
 11
2006.580544499713
 21
5346.627768532563
 31
0.0
  0
LINE
  5
1416C
330
138D0
100
AcDbEntity
  8
寸法
 62
     0
 48
50.0
370
    -2
100
AcDbLine
 10
2372.252488332254
 20
5109.627768532562
 30
0.0
 11
2006.580544499713
 21
5109.627768532563
 31
0.0
  0
LINE
  5
1416D
330
138D0
100
AcDbEntity
  8
寸法
 62
     0
 48
50.0
370
    -2
100
AcDbLine
 10
2051.580544499713
 20
5346.627768532562
 30
0.0
 11
2051.580544499713
 21
5109.627768532562
 31
0.0
  0
INSERT
  5
1416E
330
138D0
100
AcDbEntity
  8
寸法
 62
     0
 48
50.0
370
    -2
100
AcDbBlockReference
  2
_DOTSMALL
 10
2051.580544499713
 20
5346.627768532562
 30
0.0
 41
75.0
 42
75.0
 43
75.0
 50
90.0
  0
INSERT
  5
1416F
330
138D0
100
AcDbEntity
  8
寸法
 62
     0
 48
50.0
370
    -2
100
AcDbBlockReference
  2
_DOTSMALL
 10
2051.580544499713
 20
5109.627768532562
 30
0.0
 41
75.0
 42
75.0
 43
75.0
 50
270.0
  0
MTEXT
  5
14170
330
138D0
100
AcDbEntity
  8
寸法
 62
     7
 48
50.0
100
AcDbMText
 10
1976.571686231995
 20
5228.127768532562
 30
0.0
 40
90.0
 41
0.0
 71
     5
 72
     1
  1
\A1;237
  7
STYLE1
 11
0.0000000000000001
 21
1.0
 31
0.0
 73
     1
 44
1.0
1001
ACAD
1000
MTEXTBEGIN
1070
    73
1070
     1
1070
    44
1040
1.0
1070
    74
1070
     0
1000
MTEXTEND
  0
POINT
  5
14171
330
138D0
100
AcDbEntity
  8
DEFPOINTS
 62
     0
 48
50.0
100
AcDbPoint
 10
2302.252488332256
 20
5346.627768532562
 30
0.0
  0
POINT
  5
14172
330
138D0
100
AcDbEntity
  8
DEFPOINTS
 62
     0
 48
50.0
100
AcDbPoint
 10
2387.252488332254
 20
5109.627768532562
 30
0.0
  0
POINT
  5
14173
330
138D0
100
AcDbEntity
  8
DEFPOINTS
 62
     0
 48
50.0
100
AcDbPoint
 10
2051.580544499713
 20
5109.627768532562
 30
0.0
  0
ENDBLK
  5
139F2
330
138D0
100
AcDbEntity
  8
0
 48
50.0
100
AcDbBlockEnd
  0
BLOCK
  5
139F3
330
138DC
100
AcDbEntity
  8
0
 48
50.0
100
AcDbBlockBegin
  2
*D10
 70
     1
 10
0.0
 20
0.0
 30
0.0
  3
*D10
  1

  0
LINE
  5
14162
330
138DC
100
AcDbEntity
  8
寸法
 62
     0
 48
50.0
370
    -2
100
AcDbLine
 10
2287.252488332256
 20
6088.627768532562
 30
0.0
 11
2006.580544499714
 21
6088.627768532563
 31
0.0
  0
LINE
  5
14163
330
138DC
100
AcDbEntity
  8
寸法
 62
     0
 48
50.0
370
    -2
100
AcDbLine
 10
2287.252488332256
 20
5346.627768532562
 30
0.0
 11
2006.580544499714
 21
5346.627768532563
 31
0.0
  0
LINE
  5
14164
330
138DC
100
AcDbEntity
  8
寸法
 62
     0
 48
50.0
370
    -2
100
AcDbLine
 10
2051.580544499714
 20
6088.627768532562
 30
0.0
 11
2051.580544499714
 21
5346.627768532562
 31
0.0
  0
INSERT
  5
14165
330
138DC
100
AcDbEntity
  8
寸法
 62
     0
 48
50.0
370
    -2
100
AcDbBlockReference
  2
_DOTSMALL
 10
2051.580544499714
 20
6088.627768532562
 30
0.0
 41
75.0
 42
75.0
 43
75.0
 50
90.0
  0
INSERT
  5
14166
330
138DC
100
AcDbEntity
  8
寸法
 62
     0
 48
50.0
370
    -2
100
AcDbBlockReference
  2
_DOTSMALL
 10
2051.580544499714
 20
5346.627768532562
 30
0.0
 41
75.0
 42
75.0
 43
75.0
 50
270.0
  0
MTEXT
  5
14167
330
138DC
100
AcDbEntity
  8
寸法
 62
     7
 48
50.0
100
AcDbMText
 10
1976.571686231996
 20
5717.62776853256
 30
0.0
 40
90.0
 41
0.0
 71
     5
 72
     1
  1
\A1;742
  7
STYLE1
 11
0.0000000000000001
 21
1.0
 31
0.0
 73
     1
 44
1.0
1001
ACAD
1000
MTEXTBEGIN
1070
    73
1070
     1
1070
    44
1040
1.0
1070
    74
1070
     0
1000
MTEXTEND
  0
POINT
  5
14168
330
138DC
100
AcDbEntity
  8
DEFPOINTS
 62
     0
 48
50.0
100
AcDbPoint
 10
2302.252488332256
 20
6088.627768532562
 30
0.0
  0
POINT
  5
14169
330
138DC
100
AcDbEntity
  8
DEFPOINTS
 62
     0
 48
50.0
100
AcDbPoint
 10
2302.252488332256
 20
5346.627768532562
 30
0.0
  0
POINT
  5
1416A
330
138DC
100
AcDbEntity
  8
DEFPOINTS
 62
     0
 48
50.0
100
AcDbPoint
 10
2051.580544499714
 20
5346.627768532562
 30
0.0
  0
ENDBLK
  5
139FD
330
138DC
100
AcDbEntity
  8
0
 48
50.0
100
AcDbBlockEnd
  0
BLOCK
  5
139FE
330
138E8
100
AcDbEntity
  8
0
 48
50.0
100
AcDbBlockBegin
  2
*D11
 70
     1
 10
0.0
 20
0.0
 30
0.0
  3
*D11
  1

  0
LINE
  5
14133
330
138E8
100
AcDbEntity
  8
寸法
 62
     0
 48
50.0
370
    -2
100
AcDbLine
 10
2287.252488332258
 20
7572.627768532557
 30
0.0
 11
2006.580544499714
 21
7572.627768532559
 31
0.0
  0
LINE
  5
14134
330
138E8
100
AcDbEntity
  8
寸法
 62
     0
 48
50.0
370
    -2
100
AcDbLine
 10
2287.252488332256
 20
6830.627768532562
 30
0.0
 11
2006.580544499714
 21
6830.627768532564
 31
0.0
  0
LINE
  5
14135
330
138E8
100
AcDbEntity
  8
寸法
 62
     0
 48
50.0
370
    -2
100
AcDbLine
 10
2051.580544499715
 20
7572.627768532557
 30
0.0
 11
2051.580544499714
 21
6830.627768532562
 31
0.0
  0
INSERT
  5
14136
330
138E8
100
AcDbEntity
  8
寸法
 62
     0
 48
50.0
370
    -2
100
AcDbBlockReference
  2
_DOTSMALL
 10
2051.580544499715
 20
7572.627768532557
 30
0.0
 41
75.0
 42
75.0
 43
75.0
 50
90.0
  0
INSERT
  5
14137
330
138E8
100
AcDbEntity
  8
寸法
 62
     0
 48
50.0
370
    -2
100
AcDbBlockReference
  2
_DOTSMALL
 10
2051.580544499714
 20
6830.627768532562
 30
0.0
 41
75.0
 42
75.0
 43
75.0
 50
270.0
  0
MTEXT
  5
14138
330
138E8
100
AcDbEntity
  8
寸法
 62
     7
 48
50.0
100
AcDbMText
 10
1976.571686231996
 20
7201.627768532562
 30
0.0
 40
90.0
 41
0.0
 71
     5
 72
     1
  1
\A1;742
  7
STYLE1
 11
0.0000000000000001
 21
1.0
 31
0.0
 73
     1
 44
1.0
1001
ACAD
1000
MTEXTBEGIN
1070
    73
1070
     1
1070
    44
1040
1.0
1070
    74
1070
     0
1000
MTEXTEND
  0
POINT
  5
14139
330
138E8
100
AcDbEntity
  8
DEFPOINTS
 62
     0
 48
50.0
100
AcDbPoint
 10
2302.252488332257
 20
7572.627768532557
 30
0.0
  0
POINT
  5
1413A
330
138E8
100
AcDbEntity
  8
DEFPOINTS
 62
     0
 48
50.0
100
AcDbPoint
 10
2302.252488332256
 20
6830.627768532562
 30
0.0
  0
POINT
  5
1413B
330
138E8
100
AcDbEntity
  8
DEFPOINTS
 62
     0
 48
50.0
100
AcDbPoint
 10
2051.580544499714
 20
6830.627768532562
 30
0.0
  0
ENDBLK
  5
13A08
330
138E8
100
AcDbEntity
  8
0
 48
50.0
100
AcDbBlockEnd
  0
BLOCK
  5
13A09
330
138F4
100
AcDbEntity
  8
0
 48
50.0
100
AcDbBlockBegin
  2
*D12
 70
     1
 10
0.0
 20
0.0
 30
0.0
  3
*D12
  1

  0
LINE
  5
13A0A
330
138F4
100
AcDbEntity
  8
0
  6
ByBlock
 62
     0
 48
50.0
100
AcDbLine
 10
9911.510704177789
 20
-5916.183737412082
 30
0.0
 11
9911.510704177789
 21
-5314.575474004698
 31
0.0
  0
LINE
  5
13A0B
330
138F4
100
AcDbEntity
  8
0
  6
ByBlock
 62
     0
 48
50.0
100
AcDbLine
 10
12611.51070417779
 20
-6044.183737412084
 30
0.0
 11
12611.51070417779
 21
-5314.575474004698
 31
0.0
  0
LINE
  5
13A0C
330
138F4
100
AcDbEntity
  8
0
  6
ByBlock
 62
     0
 48
50.0
100
AcDbLine
 10
9911.510704177789
 20
-5359.575474004698
 30
0.0
 11
12611.51070417779
 21
-5359.575474004698
 31
0.0
  0
INSERT
  5
13A0D
330
138F4
100
AcDbEntity
  8
0
  6
ByBlock
 62
     0
 48
50.0
100
AcDbBlockReference
  2
_DOTSMALL
 10
9911.510704177789
 20
-5359.575474004698
 30
0.0
 41
75.0
 42
75.0
 43
75.0
 50
180.0
  0
INSERT
  5
13A0E
330
138F4
100
AcDbEntity
  8
0
  6
ByBlock
 62
     0
 48
50.0
100
AcDbBlockReference
  2
_DOTSMALL
 10
12611.51070417779
 20
-5359.575474004698
 30
0.0
 41
75.0
 42
75.0
 43
75.0
  0
MTEXT
  5
13A0F
330
138F4
100
AcDbEntity
  8
0
  6
ByBlock
 62
     7
 48
50.0
100
AcDbMText
 10
11261.51070417779
 20
-5284.566615736981
 30
0.0
 40
90.0
 41
0.0
 71
     5
 72
     1
  1
\A1;2700
  7
STYLE1
 73
     1
 44
1.0
1001
ACAD
1000
MTEXTBEGIN
1070
    73
1070
     1
1070
    44
1040
1.0
1070
    74
1070
     0
1000
MTEXTEND
  0
POINT
  5
13A10
330
138F4
100
AcDbEntity
  8
DEFPOINTS
  6
ByBlock
 62
     0
 48
50.0
100
AcDbPoint
 10
9911.510704177789
 20
-5931.183737412083
 30
0.0
  0
POINT
  5
13A11
330
138F4
100
AcDbEntity
  8
DEFPOINTS
  6
ByBlock
 62
     0
 48
50.0
100
AcDbPoint
 10
12611.51070417779
 20
-6059.183737412084
 30
0.0
  0
POINT
  5
13A12
330
138F4
100
AcDbEntity
  8
DEFPOINTS
  6
ByBlock
 62
     0
 48
50.0
100
AcDbPoint
 10
12611.51070417779
 20
-5359.575474004698
 30
0.0
  0
ENDBLK
  5
13A13
330
138F4
100
AcDbEntity
  8
0
 48
50.0
100
AcDbBlockEnd
  0
BLOCK
  5
13A14
330
13900
100
AcDbEntity
  8
0
 48
50.0
100
AcDbBlockBegin
  2
*D13
 70
     1
 10
0.0
 20
0.0
 30
0.0
  3
*D13
  1

  0
LINE
  5
13A15
330
13900
100
AcDbEntity
  8
0
  6
ByBlock
 62
     0
 48
50.0
100
AcDbLine
 10
10661.51070417778
 20
-6173.933768456056
 30
0.0
 11
10661.51070417778
 21
-5643.175995086873
 31
0.0
  0
LINE
  5
13A16
330
13900
100
AcDbEntity
  8
0
  6
ByBlock
 62
     0
 48
50.0
100
AcDbLine
 10
12311.51070417779
 20
-6167.618811257277
 30
0.0
 11
12311.51070417779
 21
-5643.175995086873
 31
0.0
  0
LINE
  5
13A17
330
13900
100
AcDbEntity
  8
0
  6
ByBlock
 62
     0
 48
50.0
100
AcDbLine
 10
10661.51070417778
 20
-5688.175995086872
 30
0.0
 11
12311.51070417779
 21
-5688.175995086872
 31
0.0
  0
INSERT
  5
13A18
330
13900
100
AcDbEntity
  8
0
  6
ByBlock
 62
     0
 48
50.0
100
AcDbBlockReference
  2
_DOTSMALL
 10
10661.51070417778
 20
-5688.175995086872
 30
0.0
 41
75.0
 42
75.0
 43
75.0
 50
180.0
  0
INSERT
  5
13A19
330
13900
100
AcDbEntity
  8
0
  6
ByBlock
 62
     0
 48
50.0
100
AcDbBlockReference
  2
_DOTSMALL
 10
12311.51070417779
 20
-5688.175995086872
 30
0.0
 41
75.0
 42
75.0
 43
75.0
  0
MTEXT
  5
13A1A
330
13900
100
AcDbEntity
  8
0
  6
ByBlock
 62
     7
 48
50.0
100
AcDbMText
 10
11486.51070417779
 20
-5613.175995086873
 30
0.0
 40
90.0
 41
0.0
 71
     5
 72
     1
  1
\A1;1650
  7
STYLE1
 73
     1
 44
1.0
1001
ACAD
1000
MTEXTBEGIN
1070
    73
1070
     1
1070
    44
1040
1.0
1070
    74
1070
     0
1000
MTEXTEND
  0
POINT
  5
13A1B
330
13900
100
AcDbEntity
  8
DEFPOINTS
  6
ByBlock
 62
     0
 48
50.0
100
AcDbPoint
 10
10661.51070417778
 20
-6188.933768456056
 30
0.0
  0
POINT
  5
13A1C
330
13900
100
AcDbEntity
  8
DEFPOINTS
  6
ByBlock
 62
     0
 48
50.0
100
AcDbPoint
 10
12311.51070417779
 20
-6182.618811257277
 30
0.0
  0
POINT
  5
13A1D
330
13900
100
AcDbEntity
  8
DEFPOINTS
  6
ByBlock
 62
     0
 48
50.0
100
AcDbPoint
 10
12311.51070417779
 20
-5688.175995086872
 30
0.0
  0
ENDBLK
  5
13A1E
330
13900
100
AcDbEntity
  8
0
 48
50.0
100
AcDbBlockEnd
  0
BLOCK
  5
13A1F
330
1390C
100
AcDbEntity
  8
0
 48
50.0
100
AcDbBlockBegin
  2
*D14
 70
     1
 10
0.0
 20
0.0
 30
0.0
  3
*D14
  1

  0
LINE
  5
13A20
330
1390C
100
AcDbEntity
  8
0
  6
ByBlock
 62
     0
 48
50.0
100
AcDbLine
 10
10662.47739766093
 20
-8392.176548581547
 30
0.0
 11
10662.47739766093
 21
-8592.376575262479
 31
0.0
  0
LINE
  5
13A21
330
1390C
100
AcDbEntity
  8
0
  6
ByBlock
 62
     0
 48
50.0
100
AcDbLine
 10
12312.47739766094
 20
-8392.176548581545
 30
0.0
 11
12312.47739766094
 21
-8592.376575262479
 31
0.0
  0
LINE
  5
13A22
330
1390C
100
AcDbEntity
  8
0
  6
ByBlock
 62
     0
 48
50.0
100
AcDbLine
 10
10662.47739766093
 20
-8547.376575262479
 30
0.0
 11
12312.47739766094
 21
-8547.376575262479
 31
0.0
  0
INSERT
  5
13A23
330
1390C
100
AcDbEntity
  8
0
  6
ByBlock
 62
     0
 48
50.0
100
AcDbBlockReference
  2
_DOTSMALL
 10
10662.47739766093
 20
-8547.376575262479
 30
0.0
 41
75.0
 42
75.0
 43
75.0
 50
180.0
  0
INSERT
  5
13A24
330
1390C
100
AcDbEntity
  8
0
  6
ByBlock
 62
     0
 48
50.0
100
AcDbBlockReference
  2
_DOTSMALL
 10
12312.47739766094
 20
-8547.376575262479
 30
0.0
 41
75.0
 42
75.0
 43
75.0
  0
MTEXT
  5
13A25
330
1390C
100
AcDbEntity
  8
0
  6
ByBlock
 62
     7
 48
50.0
100
AcDbMText
 10
11487.47739766093
 20
-8472.376575262478
 30
0.0
 40
90.0
 41
0.0
 71
     5
 72
     1
  1
\A1;1650
  7
STYLE1
 73
     1
 44
1.0
1001
ACAD
1000
MTEXTBEGIN
1070
    73
1070
     1
1070
    44
1040
1.0
1070
    74
1070
     0
1000
MTEXTEND
  0
POINT
  5
13A26
330
1390C
100
AcDbEntity
  8
DEFPOINTS
  6
ByBlock
 62
     0
 48
50.0
100
AcDbPoint
 10
10662.47739766093
 20
-8377.176548581546
 30
0.0
  0
POINT
  5
13A27
330
1390C
100
AcDbEntity
  8
DEFPOINTS
  6
ByBlock
 62
     0
 48
50.0
100
AcDbPoint
 10
12312.47739766094
 20
-8377.176548581545
 30
0.0
  0
POINT
  5
13A28
330
1390C
100
AcDbEntity
  8
DEFPOINTS
  6
ByBlock
 62
     0
 48
50.0
100
AcDbPoint
 10
12312.47739766094
 20
-8547.376575262479
 30
0.0
  0
ENDBLK
  5
13A29
330
1390C
100
AcDbEntity
  8
0
 48
50.0
100
AcDbBlockEnd
  0
BLOCK
  5
13A91
330
13918
100
AcDbEntity
  8
0
 48
50.0
100
AcDbBlockBegin
  2
*D15
 70
     1
 10
0.0
 20
0.0
 30
0.0
  3
*D15
  1

  0
LINE
  5
13A92
330
13918
100
AcDbEntity
  8
0
  6
ByBlock
 62
     0
 48
50.0
100
AcDbLine
 10
8529.493375004262
 20
-5931.183737412086
 30
0.0
 11
7726.13902661239
 21
-5931.183737412086
 31
0.0
  0
LINE
  5
13A93
330
13918
100
AcDbEntity
  8
0
  6
ByBlock
 62
     0
 48
50.0
100
AcDbLine
 10
8097.656018920327
 20
-8107.17654858155
 30
0.0
 11
7726.139026612388
 21
-8107.17654858155
 31
0.0
  0
LINE
  5
13A94
330
13918
100
AcDbEntity
  8
0
  6
ByBlock
 62
     0
 48
50.0
100
AcDbLine
 10
7771.139026612388
 20
-5931.183737412086
 30
0.0
 11
7771.139026612388
 21
-8107.17654858155
 31
0.0
  0
INSERT
  5
13A95
330
13918
100
AcDbEntity
  8
0
  6
ByBlock
 62
     0
 48
50.0
100
AcDbBlockReference
  2
_DOTSMALL
 10
7771.139026612388
 20
-5931.183737412086
 30
0.0
 41
75.0
 42
75.0
 43
75.0
 50
90.0
  0
INSERT
  5
13A96
330
13918
100
AcDbEntity
  8
0
  6
ByBlock
 62
     0
 48
50.0
100
AcDbBlockReference
  2
_DOTSMALL
 10
7771.139026612388
 20
-8107.17654858155
 30
0.0
 41
75.0
 42
75.0
 43
75.0
 50
270.0
  0
MTEXT
  5
13A97
330
13918
100
AcDbEntity
  8
0
  6
ByBlock
 62
     7
 48
50.0
100
AcDbMText
 10
7696.130168344673
 20
-7019.180142996818
 30
0.0
 40
90.0
 41
0.0
 71
     5
 72
     1
  1
\A1;2176
  7
STYLE1
 11
0.0000000000000001
 21
1.0
 31
0.0
 73
     1
 44
1.0
1001
ACAD
1000
MTEXTBEGIN
1070
    73
1070
     1
1070
    44
1040
1.0
1070
    74
1070
     0
1000
MTEXTEND
  0
POINT
  5
13A98
330
13918
100
AcDbEntity
  8
DEFPOINTS
  6
ByBlock
 62
     0
 48
50.0
100
AcDbPoint
 10
8544.493375004263
 20
-5931.183737412086
 30
0.0
  0
POINT
  5
13A99
330
13918
100
AcDbEntity
  8
DEFPOINTS
  6
ByBlock
 62
     0
 48
50.0
100
AcDbPoint
 10
8112.656018920326
 20
-8107.17654858155
 30
0.0
  0
POINT
  5
13A9A
330
13918
100
AcDbEntity
  8
DEFPOINTS
  6
ByBlock
 62
     0
 48
50.0
100
AcDbPoint
 10
7771.139026612388
 20
-8107.17654858155
 30
0.0
  0
ENDBLK
  5
13A9B
330
13918
100
AcDbEntity
  8
0
 48
50.0
100
AcDbBlockEnd
  0
BLOCK
  5
13A7B
330
13924
100
AcDbEntity
  8
0
 48
50.0
100
AcDbBlockBegin
  2
*D16
 70
     1
 10
0.0
 20
0.0
 30
0.0
  3
*D16
  1

  0
LINE
  5
13A7C
330
13924
100
AcDbEntity
  8
0
  6
ByBlock
 62
     0
 48
50.0
100
AcDbLine
 10
9310.460068487413
 20
-6957.17654858155
 30
0.0
 11
8095.652810424772
 21
-6957.17654858155
 31
0.0
  0
LINE
  5
13A7D
330
13924
100
AcDbEntity
  8
0
  6
ByBlock
 62
     0
 48
50.0
100
AcDbLine
 10
9310.460068487413
 20
-7857.17654858155
 30
0.0
 11
8095.652810424772
 21
-7857.17654858155
 31
0.0
  0
LINE
  5
13A7E
330
13924
100
AcDbEntity
  8
0
  6
ByBlock
 62
     0
 48
50.0
100
AcDbLine
 10
8140.652810424773
 20
-6957.17654858155
 30
0.0
 11
8140.652810424773
 21
-7857.17654858155
 31
0.0
  0
INSERT
  5
13A7F
330
13924
100
AcDbEntity
  8
0
  6
ByBlock
 62
     0
 48
50.0
100
AcDbBlockReference
  2
_DOTSMALL
 10
8140.652810424773
 20
-6957.17654858155
 30
0.0
 41
75.0
 42
75.0
 43
75.0
 50
90.0
  0
INSERT
  5
13A80
330
13924
100
AcDbEntity
  8
0
  6
ByBlock
 62
     0
 48
50.0
100
AcDbBlockReference
  2
_DOTSMALL
 10
8140.652810424773
 20
-7857.17654858155
 30
0.0
 41
75.0
 42
75.0
 43
75.0
 50
270.0
  0
MTEXT
  5
13A81
330
13924
100
AcDbEntity
  8
0
  6
ByBlock
 62
     7
 48
50.0
100
AcDbMText
 10
8065.652810424772
 20
-7407.17654858155
 30
0.0
 40
90.0
 41
0.0
 71
     5
 72
     1
  1
\A1;900
  7
STYLE1
 11
0.0000000000000001
 21
1.0
 31
0.0
 73
     1
 44
1.0
1001
ACAD
1000
MTEXTBEGIN
1070
    73
1070
     1
1070
    44
1040
1.0
1070
    74
1070
     0
1000
MTEXTEND
  0
POINT
  5
13A82
330
13924
100
AcDbEntity
  8
DEFPOINTS
  6
ByBlock
 62
     0
 48
50.0
100
AcDbPoint
 10
9325.460068487414
 20
-6957.17654858155
 30
0.0
  0
POINT
  5
13A83
330
13924
100
AcDbEntity
  8
DEFPOINTS
  6
ByBlock
 62
     0
 48
50.0
100
AcDbPoint
 10
9325.460068487414
 20
-7857.17654858155
 30
0.0
  0
POINT
  5
13A84
330
13924
100
AcDbEntity
  8
DEFPOINTS
  6
ByBlock
 62
     0
 48
50.0
100
AcDbPoint
 10
8140.652810424773
 20
-7857.17654858155
 30
0.0
  0
ENDBLK
  5
13A85
330
13924
100
AcDbEntity
  8
0
 48
50.0
100
AcDbBlockEnd
  0
BLOCK
  5
13A86
330
13930
100
AcDbEntity
  8
0
 48
50.0
100
AcDbBlockBegin
  2
*D17
 70
     1
 10
0.0
 20
0.0
 30
0.0
  3
*D17
  1

  0
LINE
  5
13A87
330
13930
100
AcDbEntity
  8
0
  6
ByBlock
 62
     0
 48
50.0
100
AcDbLine
 10
9310.460068487413
 20
-7857.17654858155
 30
0.0
 11
8095.652810424772
 21
-7857.17654858155
 31
0.0
  0
LINE
  5
13A88
330
13930
100
AcDbEntity
  8
0
  6
ByBlock
 62
     0
 48
50.0
100
AcDbLine
 10
8054.482566410642
 20
-8107.17654858155
 30
0.0
 11
8185.652810424771
 21
-8107.17654858155
 31
0.0
  0
LINE
  5
13A89
330
13930
100
AcDbEntity
  8
0
  6
ByBlock
 62
     0
 48
50.0
100
AcDbLine
 10
8140.652810424773
 20
-7857.17654858155
 30
0.0
 11
8140.652810424773
 21
-8107.17654858155
 31
0.0
  0
INSERT
  5
13A8A
330
13930
100
AcDbEntity
  8
0
  6
ByBlock
 62
     0
 48
50.0
100
AcDbBlockReference
  2
_DOTSMALL
 10
8140.652810424773
 20
-7857.17654858155
 30
0.0
 41
75.0
 42
75.0
 43
75.0
 50
90.0
  0
INSERT
  5
13A8B
330
13930
100
AcDbEntity
  8
0
  6
ByBlock
 62
     0
 48
50.0
100
AcDbBlockReference
  2
_DOTSMALL
 10
8140.652810424773
 20
-8107.17654858155
 30
0.0
 41
75.0
 42
75.0
 43
75.0
 50
270.0
  0
MTEXT
  5
13A8C
330
13930
100
AcDbEntity
  8
0
  6
ByBlock
 62
     7
 48
50.0
100
AcDbMText
 10
8065.643952157056
 20
-7982.17654858155
 30
0.0
 40
90.0
 41
0.0
 71
     5
 72
     1
  1
\A1;250
  7
STYLE1
 11
0.0000000000000001
 21
1.0
 31
0.0
 73
     1
 44
1.0
1001
ACAD
1000
MTEXTBEGIN
1070
    73
1070
     1
1070
    44
1040
1.0
1070
    74
1070
     0
1000
MTEXTEND
  0
POINT
  5
13A8D
330
13930
100
AcDbEntity
  8
DEFPOINTS
  6
ByBlock
 62
     0
 48
50.0
100
AcDbPoint
 10
9325.460068487414
 20
-7857.17654858155
 30
0.0
  0
POINT
  5
13A8E
330
13930
100
AcDbEntity
  8
DEFPOINTS
  6
ByBlock
 62
     0
 48
50.0
100
AcDbPoint
 10
8039.482566410644
 20
-8107.17654858155
 30
0.0
  0
POINT
  5
13A8F
330
13930
100
AcDbEntity
  8
DEFPOINTS
  6
ByBlock
 62
     0
 48
50.0
100
AcDbPoint
 10
8140.652810424773
 20
-8107.17654858155
 30
0.0
  0
ENDBLK
  5
13A90
330
13930
100
AcDbEntity
  8
0
 48
50.0
100
AcDbBlockEnd
  0
BLOCK
  5
13A4B
330
1393C
100
AcDbEntity
  8
0
 48
50.0
100
AcDbBlockBegin
  2
*D18
 70
     1
 10
0.0
 20
0.0
 30
0.0
  3
*D18
  1

  0
LINE
  5
13A4C
330
1393C
100
AcDbEntity
  8
0
  6
ByBlock
 62
     0
 48
50.0
100
AcDbLine
 10
9910.568903410863
 20
-5931.139089079432
 30
0.0
 11
9474.290138393598
 21
-5910.456243923057
 31
0.0
  0
LINE
  5
13A4D
330
1393C
100
AcDbEntity
  8
0
  6
ByBlock
 62
     0
 48
50.0
100
AcDbLine
 10
9912.080571195531
 20
-6046.339909883009
 30
0.0
 11
9468.844402650072
 21
-6025.327232263075
 31
0.0
  0
LINE
  5
13A4E
330
1393C
100
AcDbEntity
  8
0
  6
ByBlock
 62
     0
 48
50.0
100
AcDbLine
 10
9513.7939198266
 20
-6027.458172336628
 30
0.0
 11
9519.239655570128
 21
-5912.587183996611
 31
0.0
  0
LINE
  5
13A4F
330
1393C
100
AcDbEntity
  8
0
  6
ByBlock
 62
     0
 48
50.0
100
AcDbLine
 10
9519.239655570128
 20
-5912.587183996611
 30
0.0
 11
9537.138158209783
 21
-5535.040643941403
 31
0.0
  0
INSERT
  5
13A50
330
1393C
100
AcDbEntity
  8
0
  6
ByBlock
 62
     0
 48
50.0
100
AcDbBlockReference
  2
_DOTSMALL
 10
9513.7939198266
 20
-6027.458172336628
 30
0.0
 41
75.0
 42
75.0
 43
75.0
 50
267.2857877838782
  0
INSERT
  5
13A51
330
1393C
100
AcDbEntity
  8
0
  6
ByBlock
 62
     0
 48
50.0
100
AcDbBlockReference
  2
_DOTSMALL
 10
9519.239655570128
 20
-5912.587183996611
 30
0.0
 41
75.0
 42
75.0
 43
75.0
 50
87.28578778387817
  0
MTEXT
  5
13A52
330
1393C
100
AcDbEntity
  8
0
  6
ByBlock
 62
     7
 48
50.0
100
AcDbMText
 10
9457.730087002317
 20
-5626.246615947302
 30
0.0
 40
90.0
 41
0.0
 71
     5
 72
     1
  1
\A1;115
  7
STYLE1
 11
0.0473542238567545
 21
0.9988781594783841
 31
0.0
 73
     1
 44
1.0
1001
ACAD
1000
MTEXTBEGIN
1070
    73
1070
     1
1070
    44
1040
1.0
1070
    74
1070
     0
1000
MTEXTEND
  0
POINT
  5
13A53
330
1393C
100
AcDbEntity
  8
DEFPOINTS
  6
ByBlock
 62
     0
 48
50.0
100
AcDbPoint
 10
9925.552075803039
 20
-5931.849402437283
 30
0.0
 50
2.714212216121843
  0
POINT
  5
13A54
330
1393C
100
AcDbEntity
  8
DEFPOINTS
  6
ByBlock
 62
     0
 48
50.0
100
AcDbPoint
 10
9927.063743587709
 20
-6047.05022324086
 30
0.0
 50
2.714212216121843
  0
POINT
  5
13A55
330
1393C
100
AcDbEntity
  8
DEFPOINTS
  6
ByBlock
 62
     0
 48
50.0
100
AcDbPoint
 10
9513.7939198266
 20
-6027.458172336628
 30
0.0
 50
2.714212216121843
  0
ENDBLK
  5
13A56
330
1393C
100
AcDbEntity
  8
0
 48
50.0
100
AcDbBlockEnd
  0
BLOCK
  5
13A57
330
13949
100
AcDbEntity
  8
0
 48
50.0
100
AcDbBlockBegin
  2
*D19
 70
     1
 10
0.0
 20
0.0
 30
0.0
  3
*D19
  1

  0
LINE
  5
13A58
330
13949
100
AcDbEntity
  8
0
  6
ByBlock
 62
     0
 48
50.0
100
AcDbLine
 10
9911.510704177789
 20
-5916.183737412082
 30
0.0
 11
9911.510704177789
 21
-5643.175995086873
 31
0.0
  0
LINE
  5
13A59
330
13949
100
AcDbEntity
  8
0
  6
ByBlock
 62
     0
 48
50.0
100
AcDbLine
 10
10661.51070417778
 20
-6173.933768456056
 30
0.0
 11
10661.51070417778
 21
-5643.175995086873
 31
0.0
  0
LINE
  5
13A5A
330
13949
100
AcDbEntity
  8
0
  6
ByBlock
 62
     0
 48
50.0
100
AcDbLine
 10
9911.510704177789
 20
-5688.175995086872
 30
0.0
 11
10661.51070417778
 21
-5688.175995086872
 31
0.0
  0
INSERT
  5
13A5B
330
13949
100
AcDbEntity
  8
0
  6
ByBlock
 62
     0
 48
50.0
100
AcDbBlockReference
  2
_DOTSMALL
 10
9911.510704177789
 20
-5688.175995086872
 30
0.0
 41
75.0
 42
75.0
 43
75.0
 50
180.0
  0
INSERT
  5
13A5C
330
13949
100
AcDbEntity
  8
0
  6
ByBlock
 62
     0
 48
50.0
100
AcDbBlockReference
  2
_DOTSMALL
 10
10661.51070417778
 20
-5688.175995086872
 30
0.0
 41
75.0
 42
75.0
 43
75.0
  0
MTEXT
  5
13A5D
330
13949
100
AcDbEntity
  8
0
  6
ByBlock
 62
     7
 48
50.0
100
AcDbMText
 10
10286.51070417778
 20
-5613.175995086873
 30
0.0
 40
90.0
 41
0.0
 71
     5
 72
     1
  1
\A1;750
  7
STYLE1
 73
     1
 44
1.0
1001
ACAD
1000
MTEXTBEGIN
1070
    73
1070
     1
1070
    44
1040
1.0
1070
    74
1070
     0
1000
MTEXTEND
  0
POINT
  5
13A5E
330
13949
100
AcDbEntity
  8
DEFPOINTS
  6
ByBlock
 62
     0
 48
50.0
100
AcDbPoint
 10
9911.510704177789
 20
-5931.183737412083
 30
0.0
  0
POINT
  5
13A5F
330
13949
100
AcDbEntity
  8
DEFPOINTS
  6
ByBlock
 62
     0
 48
50.0
100
AcDbPoint
 10
10661.51070417778
 20
-6188.933768456056
 30
0.0
  0
POINT
  5
13A60
330
13949
100
AcDbEntity
  8
DEFPOINTS
  6
ByBlock
 62
     0
 48
50.0
100
AcDbPoint
 10
10661.51070417778
 20
-5688.175995086872
 30
0.0
  0
ENDBLK
  5
13A61
330
13949
100
AcDbEntity
  8
0
 48
50.0
100
AcDbBlockEnd
  0
BLOCK
  5
13ABB
330
13955
100
AcDbEntity
  8
0
 48
50.0
100
AcDbBlockBegin
  2
*D20
 70
     1
 10
0.0
 20
0.0
 30
0.0
  3
*D20
  1

  0
LINE
  5
13ABC
330
13955
100
AcDbEntity
  8
0
  6
ByBlock
 62
     0
 48
50.0
100
AcDbLine
 10
11197.81308553901
 20
-11653.11454715797
 30
0.0
 11
11658.67727534142
 21
-11653.11454715797
 31
0.0
  0
LINE
  5
13ABD
330
13955
100
AcDbEntity
  8
0
  6
ByBlock
 62
     0
 48
50.0
100
AcDbLine
 10
11313.00765667853
 20
-13701.10735832744
 30
0.0
 11
11658.67727534142
 21
-13701.10735832744
 31
0.0
  0
LINE
  5
13ABE
330
13955
100
AcDbEntity
  8
0
  6
ByBlock
 62
     0
 48
50.0
100
AcDbLine
 10
11613.67727534142
 20
-11653.11454715797
 30
0.0
 11
11613.67727534142
 21
-13701.10735832744
 31
0.0
  0
INSERT
  5
13ABF
330
13955
100
AcDbEntity
  8
0
  6
ByBlock
 62
     0
 48
50.0
100
AcDbBlockReference
  2
_DOTSMALL
 10
11613.67727534142
 20
-11653.11454715797
 30
0.0
 41
75.0
 42
75.0
 43
75.0
 50
90.0
  0
INSERT
  5
13AC0
330
13955
100
AcDbEntity
  8
0
  6
ByBlock
 62
     0
 48
50.0
100
AcDbBlockReference
  2
_DOTSMALL
 10
11613.67727534142
 20
-13701.10735832744
 30
0.0
 41
75.0
 42
75.0
 43
75.0
 50
270.0
  0
MTEXT
  5
13AC1
330
13955
100
AcDbEntity
  8
0
  6
ByBlock
 62
     7
 48
50.0
100
AcDbMText
 10
11538.6684170737
 20
-12677.1109527427
 30
0.0
 40
90.0
 41
0.0
 71
     5
 72
     1
  1
\A1;2048
  7
STYLE1
 11
0.0000000000000001
 21
1.0
 31
0.0
 73
     1
 44
1.0
1001
ACAD
1000
MTEXTBEGIN
1070
    73
1070
     1
1070
    44
1040
1.0
1070
    74
1070
     0
1000
MTEXTEND
  0
POINT
  5
13AC2
330
13955
100
AcDbEntity
  8
DEFPOINTS
  6
ByBlock
 62
     0
 48
50.0
100
AcDbPoint
 10
11182.813085539
 20
-11653.11454715797
 30
0.0
  0
POINT
  5
13AC3
330
13955
100
AcDbEntity
  8
DEFPOINTS
  6
ByBlock
 62
     0
 48
50.0
100
AcDbPoint
 10
11298.00765667853
 20
-13701.10735832744
 30
0.0
  0
POINT
  5
13AC4
330
13955
100
AcDbEntity
  8
DEFPOINTS
  6
ByBlock
 62
     0
 48
50.0
100
AcDbPoint
 10
11613.67727534142
 20
-13701.10735832744
 30
0.0
  0
ENDBLK
  5
13AC5
330
13955
100
AcDbEntity
  8
0
 48
50.0
100
AcDbBlockEnd
  0
BLOCK
  5
13A6D
330
13961
100
AcDbEntity
  8
0
 48
50.0
100
AcDbBlockBegin
  2
*D21
 70
     1
 10
0.0
 20
0.0
 30
0.0
  3
*D21
  1

  0
LINE
  5
13A6E
330
13961
100
AcDbEntity
  8
0
  6
ByBlock
 62
     0
 48
50.0
100
AcDbLine
 10
12311.51070417779
 20
-6167.618811257277
 30
0.0
 11
12311.51070417779
 21
-5643.175995086873
 31
0.0
  0
LINE
  5
13A6F
330
13961
100
AcDbEntity
  8
0
  6
ByBlock
 62
     0
 48
50.0
100
AcDbLine
 10
12611.51070417779
 20
-6044.183737412084
 30
0.0
 11
12611.51070417779
 21
-5643.175995086873
 31
0.0
  0
LINE
  5
13A70
330
13961
100
AcDbEntity
  8
0
  6
ByBlock
 62
     0
 48
50.0
100
AcDbLine
 10
12311.51070417779
 20
-5688.175995086872
 30
0.0
 11
12611.51070417779
 21
-5688.175995086872
 31
0.0
  0
INSERT
  5
13A71
330
13961
100
AcDbEntity
  8
0
  6
ByBlock
 62
     0
 48
50.0
100
AcDbBlockReference
  2
_DOTSMALL
 10
12311.51070417779
 20
-5688.175995086872
 30
0.0
 41
75.0
 42
75.0
 43
75.0
 50
180.0
  0
INSERT
  5
13A72
330
13961
100
AcDbEntity
  8
0
  6
ByBlock
 62
     0
 48
50.0
100
AcDbBlockReference
  2
_DOTSMALL
 10
12611.51070417779
 20
-5688.175995086872
 30
0.0
 41
75.0
 42
75.0
 43
75.0
  0
MTEXT
  5
13A73
330
13961
100
AcDbEntity
  8
0
  6
ByBlock
 62
     7
 48
50.0
100
AcDbMText
 10
12461.51070417779
 20
-5613.175995086873
 30
0.0
 40
90.0
 41
0.0
 71
     5
 72
     1
  1
\A1;300
  7
STYLE1
 73
     1
 44
1.0
1001
ACAD
1000
MTEXTBEGIN
1070
    73
1070
     1
1070
    44
1040
1.0
1070
    74
1070
     0
1000
MTEXTEND
  0
POINT
  5
13A74
330
13961
100
AcDbEntity
  8
DEFPOINTS
  6
ByBlock
 62
     0
 48
50.0
100
AcDbPoint
 10
12311.51070417779
 20
-6182.618811257277
 30
0.0
  0
POINT
  5
13A75
330
13961
100
AcDbEntity
  8
DEFPOINTS
  6
ByBlock
 62
     0
 48
50.0
100
AcDbPoint
 10
12611.51070417779
 20
-6059.183737412084
 30
0.0
  0
POINT
  5
13A76
330
13961
100
AcDbEntity
  8
DEFPOINTS
  6
ByBlock
 62
     0
 48
50.0
100
AcDbPoint
 10
12611.51070417779
 20
-5688.175995086872
 30
0.0
  0
ENDBLK
  5
13A77
330
13961
100
AcDbEntity
  8
0
 48
50.0
100
AcDbBlockEnd
  0
BLOCK
  5
13C34
330
13C33
100
AcDbEntity
  8
0
 48
50.0
100
AcDbBlockBegin
  2
*D22
 70
     1
 10
0.0
 20
0.0
 30
0.0
  3
*D22
  1

  0
LINE
  5
1421E
330
13C33
100
AcDbEntity
  8
寸法
 62
     0
 48
50.0
370
    -2
100
AcDbLine
 10
2622.252488254732
 20
3800.700394880208
 30
0.0
 11
2622.252488254732
 21
4222.007042619842
 31
0.0
  0
LINE
  5
1421F
330
13C33
100
AcDbEntity
  8
寸法
 62
     0
 48
50.0
370
    -2
100
AcDbLine
 10
5002.252486380488
 20
3800.679114007996
 30
0.0
 11
5002.252486380488
 21
4222.007042619842
 31
0.0
  0
LINE
  5
14220
330
13C33
100
AcDbEntity
  8
寸法
 62
     0
 48
50.0
370
    -2
100
AcDbLine
 10
2622.252488254732
 20
4177.007042619841
 30
0.0
 11
5002.252486380488
 21
4177.007042619841
 31
0.0
  0
INSERT
  5
14221
330
13C33
100
AcDbEntity
  8
寸法
 62
     0
 48
50.0
370
    -2
100
AcDbBlockReference
  2
_DOTSMALL
 10
2622.252488254732
 20
4177.007042619841
 30
0.0
 41
75.0
 42
75.0
 43
75.0
 50
180.0
  0
INSERT
  5
14222
330
13C33
100
AcDbEntity
  8
寸法
 62
     0
 48
50.0
370
    -2
100
AcDbBlockReference
  2
_DOTSMALL
 10
5002.252486380488
 20
4177.007042619841
 30
0.0
 41
75.0
 42
75.0
 43
75.0
  0
MTEXT
  5
14223
330
13C33
100
AcDbEntity
  8
寸法
 62
     7
 48
50.0
100
AcDbMText
 10
3812.25248731761
 20
4252.015900887558
 30
0.0
 40
90.0
 41
0.0
 71
     5
 72
     1
  1
\A1;2380
  7
STYLE1
 73
     1
 44
1.0
1001
ACAD
1000
MTEXTBEGIN
1070
    73
1070
     1
1070
    44
1040
1.0
1070
    74
1070
     0
1000
MTEXTEND
  0
POINT
  5
14224
330
13C33
100
AcDbEntity
  8
DEFPOINTS
 62
     0
 48
50.0
100
AcDbPoint
 10
2622.252488254732
 20
3785.700394880208
 30
0.0
  0
POINT
  5
14225
330
13C33
100
AcDbEntity
  8
DEFPOINTS
 62
     0
 48
50.0
100
AcDbPoint
 10
5002.252486380488
 20
3785.679114007996
 30
0.0
  0
POINT
  5
14226
330
13C33
100
AcDbEntity
  8
DEFPOINTS
 62
     0
 48
50.0
100
AcDbPoint
 10
5002.252486380488
 20
4177.007042619841
 30
0.0
  0
ENDBLK
  5
13C3E
330
13C33
100
AcDbEntity
  8
0
 48
50.0
100
AcDbBlockEnd
  0
BLOCK
  5
13C41
330
13C40
100
AcDbEntity
  8
0
 48
50.0
100
AcDbBlockBegin
  2
*D23
 70
     1
 10
0.0
 20
0.0
 30
0.0
  3
*D23
  1

  0
LINE
  5
13C42
330
13C40
100
AcDbEntity
  8
0
  6
ByBlock
 62
     0
 48
50.0
100
AcDbLine
 10
3562.252488073494
 20
3948.348731205978
 30
0.0
 11
3562.252488073494
 21
4541.192585156447
 31
0.0
  0
LINE
  5
13C43
330
13C40
100
AcDbEntity
  8
0
  6
ByBlock
 62
     0
 48
50.0
100
AcDbLine
 10
6442.25248619925
 20
3948.327450333768
 30
0.0
 11
6442.25248619925
 21
4541.192585156447
 31
0.0
  0
LINE
  5
13C44
330
13C40
100
AcDbEntity
  8
0
  6
ByBlock
 62
     0
 48
50.0
100
AcDbLine
 10
3562.252488073494
 20
4496.192585156446
 30
0.0
 11
6442.25248619925
 21
4496.192585156446
 31
0.0
  0
INSERT
  5
13C45
330
13C40
100
AcDbEntity
  8
0
  6
ByBlock
 62
     0
 48
50.0
100
AcDbBlockReference
  2
_DOTSMALL
 10
3562.252488073494
 20
4496.192585156446
 30
0.0
 41
75.0
 42
75.0
 43
75.0
 50
180.0
  0
INSERT
  5
13C46
330
13C40
100
AcDbEntity
  8
0
  6
ByBlock
 62
     0
 48
50.0
100
AcDbBlockReference
  2
_DOTSMALL
 10
6442.25248619925
 20
4496.192585156446
 30
0.0
 41
75.0
 42
75.0
 43
75.0
  0
MTEXT
  5
13C47
330
13C40
100
AcDbEntity
  8
0
  6
ByBlock
 62
     7
 48
50.0
100
AcDbMText
 10
5002.252487136372
 20
4571.201443424163
 30
0.0
 40
90.0
 41
0.0
 71
     5
 72
     1
  1
\A1;2880
  7
STYLE1
 73
     1
 44
1.0
1001
ACAD
1000
MTEXTBEGIN
1070
    73
1070
     1
1070
    44
1040
1.0
1070
    74
1070
     0
1000
MTEXTEND
  0
POINT
  5
13C48
330
13C40
100
AcDbEntity
  8
DEFPOINTS
  6
ByBlock
 62
     0
 48
50.0
100
AcDbPoint
 10
3562.252488073494
 20
3933.348731205979
 30
0.0
  0
POINT
  5
13C49
330
13C40
100
AcDbEntity
  8
DEFPOINTS
  6
ByBlock
 62
     0
 48
50.0
100
AcDbPoint
 10
6442.25248619925
 20
3933.327450333769
 30
0.0
  0
POINT
  5
13C4A
330
13C40
100
AcDbEntity
  8
DEFPOINTS
  6
ByBlock
 62
     0
 48
50.0
100
AcDbPoint
 10
6442.25248619925
 20
4496.192585156446
 30
0.0
  0
ENDBLK
  5
13C4B
330
13C40
100
AcDbEntity
  8
0
 48
50.0
100
AcDbBlockEnd
  0
BLOCK
  5
13C68
330
13C5E
100
AcDbEntity
  8
0
 48
50.0
100
AcDbBlockBegin
  2
A$C115369B0
 70
     0
 10
0.0
 20
0.0
 30
0.0
  3
A$C115369B0
  1

  0
LINE
  5
13C5F
330
13C5E
100
AcDbEntity
  8
細線
 48
50.0
100
AcDbLine
 10
-0.0000168475608007
 20
-0.0000086716772785
 30
0.0
 11
49.99998315243828
 21
49.99999132832204
 31
0.0
  0
LINE
  5
13C60
330
13C5E
100
AcDbEntity
  8
細線
 48
50.0
100
AcDbLine
 10
26.94076315244138
 20
-0.0000086716770511
 30
0.0
 11
76.94076315244001
 21
49.99999132832204
 31
0.0
  0
LINE
  5
13C61
330
13C5E
100
AcDbEntity
  8
細線
 48
50.0
100
AcDbLine
 10
53.88154315244264
 20
-0.0000086716770511
 30
0.0
 11
103.8815431524408
 21
49.99999132832204
 31
0.0
  0
LINE
  5
13C62
330
13C5E
100
AcDbEntity
  8
細線
 48
50.0
100
AcDbLine
 10
1331.940763152441
 20
-0.0000086716770511
 30
0.0
 11
1381.94076315244
 21
49.99999132832204
 31
0.0
  0
LINE
  5
13C63
330
13C5E
100
AcDbEntity
  8
細線
 48
50.0
100
AcDbLine
 10
1304.999983152439
 20
-0.0000086716772785
 30
0.0
 11
1354.999983152438
 21
49.99999132832204
 31
0.0
  0
LINE
  5
13C64
330
13C5E
100
AcDbEntity
  8
細線
 48
50.0
100
AcDbLine
 10
1358.881543152443
 20
-0.0000086716770511
 30
0.0
 11
1408.881543152441
 21
49.99999132832204
 31
0.0
  0
LINE
  5
13C65
330
13C5E
100
AcDbEntity
  8
細線
 48
50.0
100
AcDbLine
 10
2610.71822085996
 20
-0.0000086716802343
 30
0.0
 11
2660.718220859957
 21
49.99999132831749
 31
0.0
  0
LINE
  5
13C66
330
13C5E
100
AcDbEntity
  8
細線
 48
50.0
100
AcDbLine
 10
2637.659000859957
 20
-0.0000086716802343
 30
0.0
 11
2687.659000859957
 21
49.99999132831749
 31
0.0
  0
LINE
  5
13C67
330
13C5E
100
AcDbEntity
  8
細線
 48
50.0
100
AcDbLine
 10
2664.599780859961
 20
-0.0000086716797796
 30
0.0
 11
2714.599780859957
 21
49.99999132831726
 31
0.0
  0
ENDBLK
  5
13C69
330
13C5E
100
AcDbEntity
  8
0
 48
50.0
100
AcDbBlockEnd
  0
BLOCK
  5
13D32
330
13D00
100
AcDbEntity
  8
0
 48
50.0
100
AcDbBlockBegin
  2
*D25
 70
     1
 10
0.0
 20
0.0
 30
0.0
  3
*D25
  1

  0
LINE
  5
141B8
330
13D00
100
AcDbEntity
  8
寸法
 62
     0
 48
50.0
370
    -2
100
AcDbLine
 10
5222.252488332255
 20
7685.627768532559
 30
0.0
 11
5655.905270186114
 21
7685.627768532559
 31
0.0
  0
LINE
  5
141B9
330
13D00
100
AcDbEntity
  8
寸法
 62
     0
 48
50.0
370
    -2
100
AcDbLine
 10
5222.252488332252
 20
5179.627768532554
 30
0.0
 11
5655.905270186114
 21
5179.627768532554
 31
0.0
  0
LINE
  5
141BA
330
13D00
100
AcDbEntity
  8
寸法
 62
     0
 48
50.0
370
    -2
100
AcDbLine
 10
5610.905270186115
 20
7685.627768532559
 30
0.0
 11
5610.905270186114
 21
5179.627768532554
 31
0.0
  0
INSERT
  5
141BB
330
13D00
100
AcDbEntity
  8
寸法
 62
     0
 48
50.0
370
    -2
100
AcDbBlockReference
  2
_DOTSMALL
 10
5610.905270186115
 20
7685.627768532559
 30
0.0
 41
75.0
 42
75.0
 43
75.0
 50
90.0
  0
INSERT
  5
141BC
330
13D00
100
AcDbEntity
  8
寸法
 62
     0
 48
50.0
370
    -2
100
AcDbBlockReference
  2
_DOTSMALL
 10
5610.905270186114
 20
5179.627768532554
 30
0.0
 41
75.0
 42
75.0
 43
75.0
 50
270.0
  0
MTEXT
  5
141BD
330
13D00
100
AcDbEntity
  8
寸法
 62
     7
 48
50.0
100
AcDbMText
 10
5535.896411918397
 20
6432.627768532558
 30
0.0
 40
90.0
 41
0.0
 71
     5
 72
     1
  1
\A1;2506
  7
STYLE1
 11
0.0000000000000001
 21
1.0
 31
0.0
 73
     1
 44
1.0
1001
ACAD
1000
MTEXTBEGIN
1070
    73
1070
     1
1070
    44
1040
1.0
1070
    74
1070
     0
1000
MTEXTEND
  0
POINT
  5
141BE
330
13D00
100
AcDbEntity
  8
DEFPOINTS
 62
     0
 48
50.0
100
AcDbPoint
 10
5207.252488332255
 20
7685.627768532559
 30
0.0
  0
POINT
  5
141BF
330
13D00
100
AcDbEntity
  8
DEFPOINTS
 62
     0
 48
50.0
100
AcDbPoint
 10
5207.252488332252
 20
5179.627768532554
 30
0.0
  0
POINT
  5
141C0
330
13D00
100
AcDbEntity
  8
DEFPOINTS
 62
     0
 48
50.0
100
AcDbPoint
 10
5610.905270186114
 20
5179.627768532554
 30
0.0
  0
ENDBLK
  5
13D3C
330
13D00
100
AcDbEntity
  8
0
 48
50.0
100
AcDbBlockEnd
  0
BLOCK
  5
13D3D
330
13D0C
100
AcDbEntity
  8
0
 48
50.0
100
AcDbBlockBegin
  2
*D26
 70
     1
 10
0.0
 20
0.0
 30
0.0
  3
*D26
  1

  0
LINE
  5
14191
330
13D0C
100
AcDbEntity
  8
寸法
 62
     0
 48
50.0
370
    -2
100
AcDbLine
 10
5252.252488332253
 20
7809.627768532559
 30
0.0
 11
6011.552467917835
 21
7809.627768532559
 31
0.0
  0
LINE
  5
14192
330
13D0C
100
AcDbEntity
  8
寸法
 62
     0
 48
50.0
370
    -2
100
AcDbLine
 10
5247.252488332247
 20
5109.627768532555
 30
0.0
 11
6011.552467917834
 21
5109.627768532555
 31
0.0
  0
LINE
  5
14193
330
13D0C
100
AcDbEntity
  8
寸法
 62
     0
 48
50.0
370
    -2
100
AcDbLine
 10
5966.552467917836
 20
7809.627768532559
 30
0.0
 11
5966.552467917835
 21
5109.627768532555
 31
0.0
  0
INSERT
  5
14194
330
13D0C
100
AcDbEntity
  8
寸法
 62
     0
 48
50.0
370
    -2
100
AcDbBlockReference
  2
_DOTSMALL
 10
5966.552467917836
 20
7809.627768532559
 30
0.0
 41
75.0
 42
75.0
 43
75.0
 50
90.0
  0
INSERT
  5
14195
330
13D0C
100
AcDbEntity
  8
寸法
 62
     0
 48
50.0
370
    -2
100
AcDbBlockReference
  2
_DOTSMALL
 10
5966.552467917835
 20
5109.627768532555
 30
0.0
 41
75.0
 42
75.0
 43
75.0
 50
270.0
  0
MTEXT
  5
14196
330
13D0C
100
AcDbEntity
  8
寸法
 62
     7
 48
50.0
100
AcDbMText
 10
5891.543609650117
 20
6459.627768532556
 30
0.0
 40
90.0
 41
0.0
 71
     5
 72
     1
  1
\A1;2700
  7
STYLE1
 11
0.0000000000000001
 21
1.0
 31
0.0
 73
     1
 44
1.0
1001
ACAD
1000
MTEXTBEGIN
1070
    73
1070
     1
1070
    44
1040
1.0
1070
    74
1070
     0
1000
MTEXTEND
  0
POINT
  5
14197
330
13D0C
100
AcDbEntity
  8
DEFPOINTS
 62
     0
 48
50.0
100
AcDbPoint
 10
5237.252488332252
 20
7809.627768532559
 30
0.0
  0
POINT
  5
14198
330
13D0C
100
AcDbEntity
  8
DEFPOINTS
 62
     0
 48
50.0
100
AcDbPoint
 10
5232.252488332246
 20
5109.627768532555
 30
0.0
  0
POINT
  5
14199
330
13D0C
100
AcDbEntity
  8
DEFPOINTS
 62
     0
 48
50.0
100
AcDbPoint
 10
5966.552467917835
 20
5109.627768532555
 30
0.0
  0
ENDBLK
  5
13D47
330
13D0C
100
AcDbEntity
  8
0
 48
50.0
100
AcDbBlockEnd
  0
BLOCK
  5
13D48
330
13D18
100
AcDbEntity
  8
0
 48
50.0
100
AcDbBlockBegin
  2
*D27
 70
     1
 10
0.0
 20
0.0
 30
0.0
  3
*D27
  1

  0
LINE
  5
141AE
330
13D18
100
AcDbEntity
  8
寸法
 62
     0
 48
50.0
370
    -2
100
AcDbLine
 10
5252.252488332253
 20
7809.627768532559
 30
0.0
 11
5655.905270186114
 21
7809.627768532559
 31
0.0
  0
LINE
  5
141AF
330
13D18
100
AcDbEntity
  8
寸法
 62
     0
 48
50.0
370
    -2
100
AcDbLine
 10
5222.252488332255
 20
7685.627768532559
 30
0.0
 11
5655.905270186114
 21
7685.627768532559
 31
0.0
  0
LINE
  5
141B0
330
13D18
100
AcDbEntity
  8
寸法
 62
     0
 48
50.0
370
    -2
100
AcDbLine
 10
5610.905270186115
 20
7685.627768532559
 30
0.0
 11
5610.905270186115
 21
7809.627768532559
 31
0.0
  0
LINE
  5
141B1
330
13D18
100
AcDbEntity
  8
寸法
 62
     0
 48
50.0
370
    -2
100
AcDbLine
 10
5610.905270186115
 20
7809.627768532559
 30
0.0
 11
5610.905270186115
 21
8097.627768532559
 31
0.0
  0
INSERT
  5
141B2
330
13D18
100
AcDbEntity
  8
寸法
 62
     0
 48
50.0
370
    -2
100
AcDbBlockReference
  2
_DOTSMALL
 10
5610.905270186115
 20
7685.627768532559
 30
0.0
 41
75.0
 42
75.0
 43
75.0
 50
270.0
  0
INSERT
  5
141B3
330
13D18
100
AcDbEntity
  8
寸法
 62
     0
 48
50.0
370
    -2
100
AcDbBlockReference
  2
_DOTSMALL
 10
5610.905270186115
 20
7809.627768532559
 30
0.0
 41
75.0
 42
75.0
 43
75.0
 50
90.0
  0
MTEXT
  5
141B4
330
13D18
100
AcDbEntity
  8
寸法
 62
     7
 48
50.0
100
AcDbMText
 10
5535.896411918397
 20
7991.12776853256
 30
0.0
 40
90.0
 41
0.0
 71
     5
 72
     1
  1
\A1;124
  7
STYLE1
 11
0.0000000000000001
 21
1.0
 31
0.0
 73
     1
 44
1.0
1001
ACAD
1000
MTEXTBEGIN
1070
    73
1070
     1
1070
    44
1040
1.0
1070
    74
1070
     0
1000
MTEXTEND
  0
POINT
  5
141B5
330
13D18
100
AcDbEntity
  8
DEFPOINTS
 62
     0
 48
50.0
100
AcDbPoint
 10
5237.252488332252
 20
7809.627768532559
 30
0.0
  0
POINT
  5
141B6
330
13D18
100
AcDbEntity
  8
DEFPOINTS
 62
     0
 48
50.0
100
AcDbPoint
 10
5207.252488332255
 20
7685.627768532559
 30
0.0
  0
POINT
  5
141B7
330
13D18
100
AcDbEntity
  8
DEFPOINTS
 62
     0
 48
50.0
100
AcDbPoint
 10
5610.905270186115
 20
7685.627768532559
 30
0.0
  0
ENDBLK
  5
13D53
330
13D18
100
AcDbEntity
  8
0
 48
50.0
100
AcDbBlockEnd
  0
BLOCK
  5
13D54
330
13D25
100
AcDbEntity
  8
0
 48
50.0
100
AcDbBlockBegin
  2
*D28
 70
     1
 10
0.0
 20
0.0
 30
0.0
  3
*D28
  1

  0
LINE
  5
14174
330
13D25
100
AcDbEntity
  8
寸法
 62
     0
 48
50.0
370
    -2
100
AcDbLine
 10
5222.252488332252
 20
5179.627768532554
 30
0.0
 11
5655.905270186114
 21
5179.627768532554
 31
0.0
  0
LINE
  5
14175
330
13D25
100
AcDbEntity
  8
寸法
 62
     0
 48
50.0
370
    -2
100
AcDbLine
 10
5247.252488332252
 20
5109.627768532555
 30
0.0
 11
5655.905270186114
 21
5109.627768532555
 31
0.0
  0
LINE
  5
14176
330
13D25
100
AcDbEntity
  8
寸法
 62
     0
 48
50.0
370
    -2
100
AcDbLine
 10
5610.905270186115
 20
5179.627768532554
 30
0.0
 11
5610.905270186115
 21
5109.627768532555
 31
0.0
  0
LINE
  5
14177
330
13D25
100
AcDbEntity
  8
寸法
 62
     0
 48
50.0
370
    -2
100
AcDbLine
 10
5610.905270186115
 20
5109.627768532555
 30
0.0
 11
5610.905270186115
 21
4875.556902390821
 31
0.0
  0
INSERT
  5
14178
330
13D25
100
AcDbEntity
  8
寸法
 62
     0
 48
50.0
370
    -2
100
AcDbBlockReference
  2
_DOTSMALL
 10
5610.905270186115
 20
5179.627768532554
 30
0.0
 41
75.0
 42
75.0
 43
75.0
 50
90.0
  0
INSERT
  5
14179
330
13D25
100
AcDbEntity
  8
寸法
 62
     0
 48
50.0
370
    -2
100
AcDbBlockReference
  2
_DOTSMALL
 10
5610.905270186115
 20
5109.627768532555
 30
0.0
 41
75.0
 42
75.0
 43
75.0
 50
270.0
  0
MTEXT
  5
1417A
330
13D25
100
AcDbEntity
  8
寸法
 62
     7
 48
50.0
100
AcDbMText
 10
5535.905270186114
 20
4955.092335461689
 30
0.0
 40
90.0
 41
0.0
 71
     5
 72
     1
  1
\A1;70
  7
STYLE1
 11
0.0000000000000001
 21
1.0
 31
0.0
 73
     1
 44
1.0
1001
ACAD
1000
MTEXTBEGIN
1070
    73
1070
     1
1070
    44
1040
1.0
1070
    74
1070
     0
1000
MTEXTEND
  0
POINT
  5
1417B
330
13D25
100
AcDbEntity
  8
DEFPOINTS
 62
     0
 48
50.0
100
AcDbPoint
 10
5207.252488332252
 20
5179.627768532554
 30
0.0
  0
POINT
  5
1417C
330
13D25
100
AcDbEntity
  8
DEFPOINTS
 62
     0
 48
50.0
100
AcDbPoint
 10
5232.252488332252
 20
5109.627768532555
 30
0.0
  0
POINT
  5
1417D
330
13D25
100
AcDbEntity
  8
DEFPOINTS
 62
     0
 48
50.0
100
AcDbPoint
 10
5610.905270186115
 20
5109.627768532555
 30
0.0
  0
ENDBLK
  5
13D5F
330
13D25
100
AcDbEntity
  8
0
 48
50.0
100
AcDbBlockEnd
  0
BLOCK
  5
13D89
330
13D7D
100
AcDbEntity
  8
0
 48
50.0
100
AcDbBlockBegin
  2
*D29
 70
     1
 10
0.0
 20
0.0
 30
0.0
  3
*D29
  1

  0
LINE
  5
13D8A
330
13D7D
100
AcDbEntity
  8
0
  6
ByBlock
 62
     0
 48
50.0
100
AcDbLine
 10
7031.503142130064
 20
750.2381223213035
 30
0.0
 11
6659.986149822124
 21
750.2381223213035
 31
0.0
  0
LINE
  5
13D8B
330
13D7D
100
AcDbEntity
  8
0
  6
ByBlock
 62
     0
 48
50.0
100
AcDbLine
 10
8184.307191697143
 20
480.2381223213035
 30
0.0
 11
6659.986149822124
 21
480.2381223213037
 31
0.0
  0
LINE
  5
13D8C
330
13D7D
100
AcDbEntity
  8
0
  6
ByBlock
 62
     0
 48
50.0
100
AcDbLine
 10
6704.986149822125
 20
750.2381223213035
 30
0.0
 11
6704.986149822125
 21
480.2381223213037
 31
0.0
  0
INSERT
  5
13D8D
330
13D7D
100
AcDbEntity
  8
0
  6
ByBlock
 62
     0
 48
50.0
100
AcDbBlockReference
  2
_DOTSMALL
 10
6704.986149822125
 20
750.2381223213035
 30
0.0
 41
75.0
 42
75.0
 43
75.0
 50
90.0
  0
INSERT
  5
13D8E
330
13D7D
100
AcDbEntity
  8
0
  6
ByBlock
 62
     0
 48
50.0
100
AcDbBlockReference
  2
_DOTSMALL
 10
6704.986149822125
 20
480.2381223213037
 30
0.0
 41
75.0
 42
75.0
 43
75.0
 50
270.0
  0
MTEXT
  5
13D8F
330
13D7D
100
AcDbEntity
  8
0
  6
ByBlock
 62
     7
 48
50.0
100
AcDbMText
 10
6629.977291554408
 20
615.2381223213028
 30
0.0
 40
90.0
 41
0.0
 71
     5
 72
     1
  1
\A1;270
  7
STYLE1
 11
0.0000000000000001
 21
1.0
 31
0.0
 73
     1
 44
1.0
1001
ACAD
1000
MTEXTBEGIN
1070
    73
1070
     1
1070
    44
1040
1.0
1070
    74
1070
     0
1000
MTEXTEND
  0
POINT
  5
13D90
330
13D7D
100
AcDbEntity
  8
DEFPOINTS
  6
ByBlock
 62
     0
 48
50.0
100
AcDbPoint
 10
7046.503142130065
 20
750.2381223213035
 30
0.0
  0
POINT
  5
13D91
330
13D7D
100
AcDbEntity
  8
DEFPOINTS
  6
ByBlock
 62
     0
 48
50.0
100
AcDbPoint
 10
8199.307191697144
 20
480.2381223213035
 30
0.0
  0
POINT
  5
13D92
330
13D7D
100
AcDbEntity
  8
DEFPOINTS
  6
ByBlock
 62
     0
 48
50.0
100
AcDbPoint
 10
6704.986149822125
 20
480.2381223213037
 30
0.0
  0
ENDBLK
  5
13D93
330
13D7D
100
AcDbEntity
  8
0
 48
50.0
100
AcDbBlockEnd
  0
ENDSEC
  0
SECTION
  2
ENTITIES
  0
MTEXT
  5
763F
330
747D
100
AcDbEntity
  8
0
100
AcDbMText
 10
302.846345836809
 20
280.1983726409901
 30
0.0
 40
3.5
 41
5.323721266742722
 71
     1
 72
     5
  1

  7
MSMINCHO
 73
     1
 44
1.0
1001
ACAD
1000
MTEXTBEGIN
1070
    73
1070
     1
1070
    44
1040
1.0
1070
    74
1070
     0
1000
MTEXTEND
  0
LINE
  5
10B56
330
747D
100
AcDbEntity
  8
補助
  6
PHANTOM
 62
   230
 48
50.0
100
AcDbLine
 10
105.0
 20
0.0
 30
0.0
 11
104.9999999999996
 21
8557.199999999999
 31
0.0
  0
LINE
  5
10B57
330
747D
100
AcDbEntity
  8
補助
  6
PHANTOM
 62
   230
 48
50.0
100
AcDbLine
 10
104.9999999999996
 20
8557.199999999999
 30
0.0
 11
12230.4
 21
8557.199999999999
 31
0.0
  0
LINE
  5
10B59
330
747D
100
AcDbEntity
  8
仕様書枠
  6
Continuous
 48
50.0
100
AcDbLine
 10
9830.400000000002
 20
900.0
 30
0.0
 11
9830.400000000002
 21
-0.0000000000000547
 31
0.0
  0
LINE
  5
10B5C
330
747D
100
AcDbEntity
  8
仕様書枠
 48
50.0
100
AcDbLine
 10
12230.4
 20
900.0
 30
0.0
 11
12230.4
 21
-0.0000000000000682
 31
0.0
  0
LINE
  5
10B5D
330
747D
100
AcDbEntity
  8
仕様書枠
 48
50.0
100
AcDbLine
 10
105.0
 20
0.0
 30
0.0
 11
12230.4
 21
-0.0000000000000682
 31
0.0
  0
LINE
  5
10B5E
330
747D
100
AcDbEntity
  8
補助
  6
PHANTOM
 62
   230
 48
50.0
100
AcDbLine
 10
12230.4
 20
8557.199999999999
 30
0.0
 11
12230.4
 21
900.0
 31
0.0
  0
LINE
  5
10B6C
330
747D
100
AcDbEntity
  8
仕様書枠
 48
50.0
100
AcDbLine
 10
9830.400000000002
 20
900.0
 30
0.0
 11
12230.4
 21
900.0
 31
0.0
  0
LINE
  5
10B6D
330
747D
100
AcDbEntity
  8
補助
  6
PHANTOM
 62
   230
 48
50.0
100
AcDbLine
 10
9830.400000000002
 20
8557.199999999999
 30
0.0
 11
9830.400000000002
 21
3600.0
 31
0.0
  0
LINE
  5
10B6F
330
747D
100
AcDbEntity
  8
補助
  6
PHANTOM
 62
   230
 48
50.0
100
AcDbLine
 10
9830.400000000002
 20
3110.960973647383
 30
0.0
 11
12230.4
 21
3110.960973647383
 31
0.0
  0
LINE
  5
10B72
330
747D
100
AcDbEntity
  8
文字
 62
     7
 48
50.0
100
AcDbLine
 10
9890.400000000001
 20
300.0
 30
0.0
 11
12170.4
 21
300.0
 31
0.0
  0
TEXT
  5
10B73
330
747D
100
AcDbEntity
  8
文字
 62
     7
 48
50.0
100
AcDbText
 10
9872.234292432677
 20
671.3179555724553
 30
0.0
 40
150.0
  1
外 形 図
  7
STYLE2
100
AcDbText
  0
TEXT
  5
10B74
330
747D
100
AcDbEntity
  8
文字
 62
     7
 48
50.0
100
AcDbText
 10
9901.077524988313
 20
357.9555495773441
 30
0.0
 40
120.0
  1
機種名
  7
STYLE2
100
AcDbText
  0
TEXT
  5
10B79
330
747D
100
AcDbEntity
  8
文字
 62
     7
 48
50.0
100
AcDbText
 10
10893.0988779165
 20
773.6682797184214
 30
0.0
 40
75.0
  1
NO.02     <縮尺> S=1/30
  7
STYLE2
100
AcDbText
  0
LINE
  5
10B7B
330
747D
100
AcDbEntity
  8
仕様書枠
 48
50.0
100
AcDbLine
 10
9830.400000000002
 20
600.0
 30
0.0
 11
10688.4
 21
600.0
 31
0.0
  0
LINE
  5
10B88
330
747D
100
AcDbEntity
  8
仕様書枠
  6
Continuous
 48
50.0
100
AcDbLine
 10
10688.4
 20
900.0
 30
0.0
 11
10688.4
 21
600.0
 31
0.0
  0
TEXT
  5
10BB0
330
747D
100
AcDbEntity
  8
文字
 62
     7
 48
50.0
100
AcDbText
 10
11015.9126966618
 20
362.9225347433561
 30
0.0
 40
120.0
  1
BF-２４S
  7
STYLE3
100
AcDbText
  0
TEXT
  5
10EA8
330
747D
100
AcDbEntity
  8
文字
 62
     7
 48
50.0
100
AcDbText
 10
11138.71739229687
 20
628.6895453046891
 30
0.0
 40
75.0
  1
～豪雪地型～
  7
STYLE2
100
AcDbText
  0
LINE
  5
13125
330
747D
100
AcDbEntity
  8
補助
  6
PHANTOM
 62
   230
 48
50.0
100
AcDbLine
 10
11930.4
 20
8182.200000000003
 30
0.0
 11
11930.4
 21
6457.2
 31
0.0
  0
LINE
  5
13126
330
747D
100
AcDbEntity
  8
補助
  6
PHANTOM
 62
   230
 48
50.0
100
AcDbLine
 10
9380.400000000003
 20
8182.199999999999
 30
0.0
 11
9380.400000000003
 21
6457.2
 31
0.0
  0
LINE
  5
13127
330
747D
100
AcDbEntity
  8
補助
  6
PHANTOM
 62
   230
 48
50.0
100
AcDbLine
 10
9380.400000000003
 20
6457.2
 30
0.0
 11
11930.4
 21
6457.2
 31
0.0
  0
LINE
  5
13128
330
747D
100
AcDbEntity
  8
補助
  6
PHANTOM
 62
   230
 48
50.0
100
AcDbLine
 10
9380.400000000003
 20
8182.199999999999
 30
0.0
 11
11930.4
 21
8182.200000000003
 31
0.0
  0
DIMENSION
  5
13652
330
747D
100
AcDbEntity
  8
寸法
 48
50.0
100
AcDbDimension
  2
*D3
 10
5664.337677446333
 20
1757.99930029463
 30
0.0
 11
5664.337677446333
 21
2039.046544389116
 31
0.0
 70
   160
 71
     5
 42
-1.0
  3
INABA_S30G
100
AcDbAlignedDimension
 13
5192.252486380484
 23
1807.999300294628
 33
0.0
 14
5202.252486380491
 24
1757.99930029463
 34
0.0
 50
90.0
100
AcDbRotatedDimension
  0
LINE
  5
13653
330
747D
100
AcDbEntity
  8
Ｇ．Ｌ
 48
50.0
100
AcDbLine
 10
2042.733831619366
 20
1758.020581166844
 30
0.0
 11
4585.317442035414
 21
1758.020581166848
 31
0.0
  0
ARC
  5
13655
330
747D
100
AcDbEntity
  8
部品1
 48
50.0
100
AcDbCircle
 10
2389.70056325912
 20
3704.918990636953
 30
0.0
 40
13.0
100
AcDbArc
 50
182.4849043365733
 51
270.0
  0
ARC
  5
13656
330
747D
100
AcDbEntity
  8
部品1
 48
50.0
100
AcDbCircle
 10
2389.70056325912
 20
3831.154095338074
 30
0.0
 40
13.0
100
AcDbArc
 50
182.4849043365733
 51
270.0
  0
ARC
  5
13657
330
747D
100
AcDbEntity
  8
部品1
 48
50.0
100
AcDbCircle
 10
2385.828884600388
 20
3920.369500068427
 30
0.0
 40
13.0
100
AcDbArc
 50
90.00000000000003
 51
182.484904336573
  0
DIMENSION
  5
13658
330
747D
100
AcDbEntity
  8
寸法
 48
50.0
100
AcDbDimension
  2
*D4
 10
2622.252488254732
 20
4177.028323492053
 30
0.0
 11
2497.252488254732
 21
4177.028323492053
 31
0.0
 70
   160
 71
     5
 42
249.9999999999996
  3
INABA_S30G
100
AcDbAlignedDimension
 13
2372.252488254732
 23
3933.369500068426
 33
0.0
 14
2622.252488254732
 24
3785.700394880208
 34
0.0
100
AcDbRotatedDimension
  0
LINE
  5
1365A
330
747D
100
AcDbEntity
  8
細線
 48
50.0
100
AcDbLine
 10
5248.930539196805
 20
3856.800321344073
 30
0.0
 11
2375.574449924961
 21
3856.821268401641
 31
0.0
  0
TEXT
  5
1365C
330
747D
100
AcDbEntity
  8
寸法
 62
     7
 48
50.0
100
AcDbText
 10
2059.287036044537
 20
1781.196312052953
 30
0.0
 40
78.4
  1
▽G.L
100
AcDbText
  0
LINE
  5
1365D
330
747D
100
AcDbEntity
  8
部品1
 48
50.0
100
AcDbLine
 10
2372.841108769948
 20
3793.57076518865
 30
0.0
 11
2376.712787428684
 21
3704.355360458296
 31
0.0
  0
LINE
  5
1365E
330
747D
100
AcDbEntity
  8
部品1
 48
50.0
100
AcDbLine
 10
2372.828884600387
 20
3920.369500068427
 30
0.0
 11
2372.841108769948
 21
3793.57076518865
 31
0.0
  0
LINE
  5
1365F
330
747D
100
AcDbEntity
  8
部品1
 48
50.0
100
AcDbLine
 10
2372.841108769948
 20
3919.805869889768
 30
0.0
 11
2376.712787428684
 21
3830.590465159416
 31
0.0
  0
TEXT
  5
13660
330
747D
100
AcDbEntity
  8
仕様書枠
 62
     7
 48
50.0
100
AcDbText
 10
3528.35543532387
 20
1067.886883327312
 30
0.0
 40
112.0
  1
正 面 図
  7
STYLE2
100
AcDbText
  0
LWPOLYLINE
  5
13661
330
747D
100
AcDbEntity
  8
部品1
100
AcDbPolyline
 90
        4
 70
     1
 43
0.0
 10
3496.940358562341
 20
1221.751607677494
 10
4143.971733842868
 20
1221.751607677494
 10
4143.971733842868
 20
1029.231451860353
 10
3496.940358562341
 20
1029.231451860353
  0
LINE
  5
13662
330
747D
100
AcDbEntity
  8
部品1
 48
50.0
100
AcDbLine
 10
4972.252486380488
 20
2007.99930029463
 30
0.0
 11
2652.252488332256
 21
2008.039790849964
 31
0.0
  0
LINE
  5
13663
330
747D
100
AcDbEntity
  8
部品1
 48
50.0
100
AcDbLine
 10
4972.252486380488
 20
2052.999300294632
 30
0.0
 11
2652.252488332256
 21
2053.039790849964
 31
0.0
  0
LINE
  5
13664
330
747D
100
AcDbEntity
  8
部品1
 48
50.0
100
AcDbLine
 10
4975.252486380487
 20
3785.679114007997
 30
0.0
 11
2649.252488332256
 21
3785.719604563327
 31
0.0
  0
LINE
  5
13665
330
747D
100
AcDbEntity
  8
部品1
 48
50.0
100
AcDbLine
 10
4972.252486380488
 20
2907.999300294634
 30
0.0
 11
2652.252488332256
 21
2908.039790849964
 31
0.0
  0
LINE
  5
13666
330
747D
100
AcDbEntity
  8
部品1
 48
50.0
100
AcDbLine
 10
4972.252486380488
 20
2457.99930029463
 30
0.0
 11
2652.252488332256
 21
2458.039790849964
 31
0.0
  0
LINE
  5
13667
330
747D
100
AcDbEntity
  8
部品1
 48
50.0
100
AcDbLine
 10
4972.252486380488
 20
2862.999300294632
 30
0.0
 11
2652.252488332256
 21
2863.039790849964
 31
0.0
  0
LINE
  5
13668
330
747D
100
AcDbEntity
  8
部品1
 48
50.0
100
AcDbLine
 10
4972.252486380488
 20
2487.99930029463
 30
0.0
 11
2652.252488332256
 21
2488.039790849964
 31
0.0
  0
LINE
  5
13669
330
747D
100
AcDbEntity
  8
部品1
 48
50.0
100
AcDbLine
 10
4972.252486380488
 20
2117.999300294634
 30
0.0
 11
2652.252488332256
 21
2118.039790849964
 31
0.0
  0
LINE
  5
1366A
330
747D
100
AcDbEntity
  8
部品1
 48
50.0
100
AcDbLine
 10
4972.252486380488
 20
2157.999300294632
 30
0.0
 11
2652.252488332256
 21
2158.039790849964
 31
0.0
  0
LINE
  5
1366B
330
747D
100
AcDbEntity
  8
部品1
 48
50.0
100
AcDbLine
 10
4970.252486380488
 20
3678.201294781693
 30
0.0
 11
2654.25248833226
 21
3678.241785337027
 31
0.0
  0
LINE
  5
1366C
330
747D
100
AcDbEntity
  8
部品1
 48
50.0
100
AcDbLine
 10
4970.252486380488
 20
3713.387478840206
 30
0.0
 11
2654.252488332256
 21
3713.427969395498
 31
0.0
  0
LINE
  5
1366D
330
747D
100
AcDbEntity
  8
部品1
 48
50.0
100
AcDbLine
 10
4970.252486380488
 20
3748.56377513652
 30
0.0
 11
2654.252488332256
 21
3748.604265691849
 31
0.0
  0
DIMENSION
  5
1366E
330
747D
100
AcDbEntity
  8
寸法
 48
50.0
100
AcDbDimension
  2
*D5
 10
5002.252486380481
 20
1327.174273613693
 30
0.0
 11
3812.252487356364
 21
1402.183131881409
 31
0.0
 12
-1189.999999818762
 22
0.0207688624473121
 32
0.0
 70
    32
 71
     5
 42
-1.0
  3
INABA_S30G
100
AcDbAlignedDimension
 13
2622.252488332249
 23
1488.039790849964
 33
0.0
 14
5002.252486380481
 24
1487.999300294632
 34
0.0
100
AcDbRotatedDimension
  0
LINE
  5
1366F
330
747D
100
AcDbEntity
  8
部品1
 48
50.0
100
AcDbLine
 10
5238.676090034836
 20
3933.348219196215
 30
0.0
 11
2385.724661693359
 21
3933.369082276545
 31
0.0
  0
LINE
  5
13670
330
747D
100
AcDbEntity
  8
部品1
 48
50.0
100
AcDbLine
 10
5234.804411376103
 20
3818.13281446586
 30
0.0
 11
2389.159944745867
 21
3818.165341293781
 31
0.0
  0
LINE
  5
13675
330
747D
100
AcDbEntity
  8
部品1
 48
50.0
100
AcDbLine
 10
2592.252488254732
 20
3488.764996623407
 30
0.0
 11
2592.252488254732
 21
1808.020581166844
 31
0.0
  0
LINE
  5
13676
330
747D
100
AcDbEntity
  8
部品1
 48
50.0
100
AcDbLine
 10
2652.252488254732
 20
3488.764996623404
 30
0.0
 11
2652.252488254732
 21
1808.020581166844
 31
0.0
  0
LINE
  5
13680
330
747D
100
AcDbEntity
  8
点線
 48
50.0
100
AcDbLine
 10
2652.252488254732
 20
1808.020581166844
 30
0.0
 11
2652.252488254739
 21
1488.020581166844
 31
0.0
  0
LINE
  5
13681
330
747D
100
AcDbEntity
  8
点線
 48
50.0
100
AcDbLine
 10
2592.252488254725
 20
1808.020581166844
 30
0.0
 11
2592.252488254761
 21
1488.020581166844
 31
0.0
  0
LINE
  5
13682
330
747D
100
AcDbEntity
  8
点線
 48
50.0
100
AcDbLine
 10
2592.252488254761
 20
1488.020581166844
 30
0.0
 11
2652.252488254739
 21
1488.020581166844
 31
0.0
  0
LINE
  5
13684
330
747D
100
AcDbEntity
  8
部品1
 48
50.0
100
AcDbLine
 10
2432.252488254725
 20
1808.020581166844
 30
0.0
 11
2422.252488254725
 21
1798.020581166844
 31
0.0
  0
LINE
  5
13686
330
747D
100
AcDbEntity
  8
部品1
 48
50.0
100
AcDbLine
 10
2422.252488254725
 20
1798.020581166844
 30
0.0
 11
2422.252488254725
 21
1758.020581166844
 31
0.0
  0
LINE
  5
13697
330
747D
100
AcDbEntity
  8
部品1
 48
50.0
100
AcDbLine
 10
2527.852227619306
 20
3678.242104024525
 30
0.0
 11
2467.849818117781
 21
3703.232463416111
 31
0.0
  0
LINE
  5
13698
330
747D
100
AcDbEntity
  8
部品1
 48
50.0
100
AcDbLine
 10
2590.252488254732
 20
3780.700394880209
 30
0.0
 11
2590.252488254729
 21
3488.764996623407
 31
0.0
  0
LINE
  5
13699
330
747D
100
AcDbEntity
  8
部品1
 48
50.0
100
AcDbLine
 10
2654.252488254732
 20
3780.700394880207
 30
0.0
 11
2654.252488254739
 21
3488.764996623404
 31
0.0
  0
LINE
  5
1369A
330
747D
100
AcDbEntity
  8
部品1
 48
50.0
100
AcDbLine
 10
2527.852227619306
 20
3678.242104024525
 30
0.0
 11
2590.252488254714
 21
3678.232463416111
 31
0.0
  0
LINE
  5
1369B
330
747D
100
AcDbEntity
  8
部品1
 48
50.0
100
AcDbLine
 10
2649.252488254735
 20
3681.875780038258
 30
0.0
 11
2595.252488254732
 21
3681.875780038258
 31
0.0
  0
LINE
  5
1369C
330
747D
100
AcDbEntity
  8
部品1
 48
50.0
100
AcDbLine
 10
2649.252488254735
 20
3664.264996623405
 30
0.0
 11
2595.252488254732
 21
3664.264996623406
 31
0.0
  0
ARC
  5
1369D
330
747D
100
AcDbEntity
  8
部品1
 48
50.0
100
AcDbCircle
 10
2649.252488254735
 20
3686.875780038258
 30
0.0
 40
5.0
100
AcDbArc
 50
270.0
 51
359.9999999999996
  0
ARC
  5
1369E
330
747D
100
AcDbEntity
  8
部品1
 48
50.0
100
AcDbCircle
 10
2649.252488254735
 20
3669.264996623404
 30
0.0
 40
5.0
100
AcDbArc
 50
269.9999999999991
 51
0.0000000000010305
  0
ARC
  5
1369F
330
747D
100
AcDbEntity
  8
部品1
 48
50.0
100
AcDbCircle
 10
2595.252488254732
 20
3686.875780038258
 30
0.0
 40
5.0
100
AcDbArc
 50
179.9999999999998
 51
269.9999999999991
  0
ARC
  5
136A0
330
747D
100
AcDbEntity
  8
部品1
 48
50.0
100
AcDbCircle
 10
2595.252488254732
 20
3669.264996623406
 30
0.0
 40
5.0
100
AcDbArc
 50
179.9999999999992
 51
269.9999999999992
  0
LINE
  5
136A1
330
747D
100
AcDbEntity
  8
部品1
 48
50.0
100
AcDbLine
 10
2654.252488254732
 20
3488.764996623404
 30
0.0
 11
2590.252488254732
 21
3488.764996623407
 31
0.0
  0
LINE
  5
136A2
330
747D
100
AcDbEntity
  8
細線
 48
50.0
100
AcDbLine
 10
2605.252488254732
 20
3664.264996623406
 30
0.0
 11
2605.252488254728
 21
3488.764996623407
 31
0.0
  0
LINE
  5
136A3
330
747D
100
AcDbEntity
  8
細線
 48
50.0
100
AcDbLine
 10
2610.552488254731
 20
3664.264996623406
 30
0.0
 11
2610.552488254727
 21
3488.764996623407
 31
0.0
  0
LINE
  5
136A4
330
747D
100
AcDbEntity
  8
細線
 48
50.0
100
AcDbLine
 10
2639.252488254736
 20
3664.264996623406
 30
0.0
 11
2639.252488254739
 21
3488.764996623407
 31
0.0
  0
LINE
  5
136A5
330
747D
100
AcDbEntity
  8
細線
 48
50.0
100
AcDbLine
 10
2633.952488254736
 20
3664.264996623406
 30
0.0
 11
2633.952488254736
 21
3488.764996623407
 31
0.0
  0
LINE
  5
136A6
330
747D
100
AcDbEntity
  8
部品1
 48
50.0
100
AcDbLine
 10
2527.845446130729
 20
3748.585056008732
 30
0.0
 11
2590.252488254714
 21
3748.585056008732
 31
0.0
  0
LINE
  5
136A7
330
747D
100
AcDbEntity
  8
部品1
 48
50.0
100
AcDbLine
 10
2527.848837339722
 20
3713.408759712422
 30
0.0
 11
2590.252488254714
 21
3713.408759712419
 31
0.0
  0
LINE
  5
136A8
330
747D
100
AcDbEntity
  8
部品1
 48
50.0
100
AcDbLine
 10
2595.252488254714
 20
3785.700394880207
 30
0.0
 11
2527.841867986225
 21
3785.700394880207
 31
0.0
  0
LINE
  5
136A9
330
747D
100
AcDbEntity
  8
部品1
 48
50.0
100
AcDbLine
 10
2427.838738787344
 20
3818.154095338074
 30
0.0
 11
2427.850908619525
 21
3691.918990636953
 31
0.0
  0
LINE
  5
136AA
330
747D
100
AcDbEntity
  8
部品1
 48
50.0
100
AcDbLine
 10
2527.845446130729
 20
3748.585056008732
 30
0.0
 11
2467.843036629204
 21
3773.575415400318
 31
0.0
  0
LINE
  5
136AB
330
747D
100
AcDbEntity
  8
部品1
 48
50.0
100
AcDbLine
 10
2427.850908619525
 20
3691.918990636953
 30
0.0
 11
2389.70056325912
 21
3691.918990636953
 31
0.0
  0
LINE
  5
136AC
330
747D
100
AcDbEntity
  8
部品1
 48
50.0
100
AcDbLine
 10
2427.852228084014
 20
3703.232463416111
 30
0.0
 11
2467.849818117781
 21
3703.232463416111
 31
0.0
  0
LINE
  5
136AD
330
747D
100
AcDbEntity
  8
部品1
 48
50.0
100
AcDbLine
 10
2427.84883780443
 20
3738.399119104007
 30
0.0
 11
2467.846427838197
 21
3738.399119104007
 31
0.0
  0
LINE
  5
136AE
330
747D
100
AcDbEntity
  8
部品1
 48
50.0
100
AcDbLine
 10
2527.848837339722
 20
3713.408759712421
 30
0.0
 11
2467.846427838197
 21
3738.399119104007
 31
0.0
  0
LINE
  5
136AF
330
747D
100
AcDbEntity
  8
部品1
 48
50.0
100
AcDbLine
 10
2427.841868450933
 20
3810.690754271794
 30
0.0
 11
2467.839458484704
 21
3810.690754271795
 31
0.0
  0
LINE
  5
136B0
330
747D
100
AcDbEntity
  8
部品1
 48
50.0
100
AcDbLine
 10
2427.845446595433
 20
3773.575415400318
 30
0.0
 11
2467.843036629204
 21
3773.575415400318
 31
0.0
  0
LINE
  5
136B1
330
747D
100
AcDbEntity
  8
部品1
 48
50.0
100
AcDbLine
 10
2527.841867986229
 20
3785.700394880207
 30
0.0
 11
2467.839458484704
 21
3810.690754271794
 31
0.0
  0
LINE
  5
136B2
330
747D
100
AcDbEntity
  8
部品1
 48
50.0
100
AcDbLine
 10
2395.252488254732
 20
3933.369500068426
 30
0.0
 11
2395.252488254732
 21
3818.154095338074
 31
0.0
  0
LINE
  5
136B3
330
747D
100
AcDbEntity
  8
部品1
 48
50.0
100
AcDbLine
 10
2649.252488254732
 20
3785.700394880207
 30
0.0
 11
2595.252488254732
 21
3785.700394880209
 31
0.0
  0
ARC
  5
136B4
330
747D
100
AcDbEntity
  8
部品1
 48
50.0
100
AcDbCircle
 10
2649.252488254732
 20
3780.700394880207
 30
0.0
 40
5.0
100
AcDbArc
 50
359.9999999999996
 51
89.99999999999911
  0
ARC
  5
136B5
330
747D
100
AcDbEntity
  8
部品1
 48
50.0
100
AcDbCircle
 10
2595.252488254732
 20
3780.700394880209
 30
0.0
 40
5.0
100
AcDbArc
 50
90.0
 51
180.0
  0
LINE
  5
136C7
330
747D
100
AcDbEntity
  8
部品1
 48
50.0
100
AcDbLine
 10
4972.252486380488
 20
3488.743715751194
 30
0.0
 11
4972.252486380488
 21
1807.999300294628
 31
0.0
  0
LINE
  5
136C8
330
747D
100
AcDbEntity
  8
部品1
 48
50.0
100
AcDbLine
 10
5032.252486380487
 20
3488.743715751194
 30
0.0
 11
5032.252486380487
 21
1807.999300294628
 31
0.0
  0
LINE
  5
136CA
330
747D
100
AcDbEntity
  8
部品1
 48
50.0
100
AcDbLine
 10
3794.752487170873
 20
2118.017705092517
 30
0.0
 11
3794.752487170873
 21
2053.017705092517
 31
0.0
  0
LINE
  5
136CB
330
747D
100
AcDbEntity
  8
部品1
 48
50.0
100
AcDbLine
 10
3829.752487170873
 20
2118.017705092517
 30
0.0
 11
3829.752487170873
 21
2053.017705092517
 31
0.0
  0
LINE
  5
136CE
330
747D
100
AcDbEntity
  8
点線
 48
50.0
100
AcDbLine
 10
5032.252486380487
 20
1807.99930029463
 30
0.0
 11
5032.252486380478
 21
1487.999300294632
 31
0.0
  0
LINE
  5
136CF
330
747D
100
AcDbEntity
  8
点線
 48
50.0
100
AcDbLine
 10
4972.252486380483
 20
1807.99930029463
 30
0.0
 11
4972.252486380505
 21
1487.999300294632
 31
0.0
  0
LINE
  5
136D0
330
747D
100
AcDbEntity
  8
点線
 48
50.0
100
AcDbLine
 10
4972.252486380505
 20
1487.999300294632
 30
0.0
 11
5032.252486380476
 21
1487.999300294632
 31
0.0
  0
LINE
  5
136D4
330
747D
100
AcDbEntity
  8
部品1
 48
50.0
100
AcDbLine
 10
5192.252486380484
 20
1807.999300294628
 30
0.0
 11
5202.252486380483
 21
1797.999300294628
 31
0.0
  0
LINE
  5
136D5
330
747D
100
AcDbEntity
  8
部品1
 48
50.0
100
AcDbLine
 10
5202.252486380483
 20
1797.999300294628
 30
0.0
 11
5202.252486380491
 21
1757.999300294632
 31
0.0
  0
DIMENSION
  5
136D6
330
747D
100
AcDbEntity
  8
寸法
 48
50.0
100
AcDbDimension
  2
*D6
 10
5252.252486380488
 20
4177.007042619841
 30
0.0
 11
5127.252486380488
 21
4177.007042619841
 31
0.0
 70
   160
 71
     5
 42
250.0
  3
INABA_S30G
100
AcDbAlignedDimension
 13
5002.252486380488
 23
3785.679114007996
 33
0.0
 14
5252.252486380488
 24
3933.348219196215
 34
0.0
100
AcDbRotatedDimension
  0
LINE
  5
136D7
330
747D
100
AcDbEntity
  8
部品1
 48
50.0
100
AcDbLine
 10
5096.652747015899
 20
3678.220823152313
 30
0.0
 11
5156.655156517424
 21
3703.211182543897
 31
0.0
  0
LINE
  5
136D8
330
747D
100
AcDbEntity
  8
部品1
 48
50.0
100
AcDbLine
 10
5034.252486380491
 20
3780.679114007995
 30
0.0
 11
5034.252486380495
 21
3488.743715751193
 31
0.0
  0
LINE
  5
136D9
330
747D
100
AcDbEntity
  8
部品1
 48
50.0
100
AcDbLine
 10
4970.252486380488
 20
3780.679114007997
 30
0.0
 11
4970.252486380484
 21
3488.743715751194
 31
0.0
  0
ARC
  5
136DA
330
747D
100
AcDbEntity
  8
部品1
 48
50.0
100
AcDbCircle
 10
5029.252486380491
 20
3669.243715751193
 30
0.0
 40
5.0
100
AcDbArc
 50
269.9999999999991
 51
0.0000000000010305
  0
ARC
  5
136DB
330
747D
100
AcDbEntity
  8
部品1
 48
50.0
100
AcDbCircle
 10
5029.252486380491
 20
3686.854499166044
 30
0.0
 40
5.0
100
AcDbArc
 50
270.0
 51
359.9999999999996
  0
ARC
  5
136DC
330
747D
100
AcDbEntity
  8
部品1
 48
50.0
100
AcDbCircle
 10
4975.252486380487
 20
3669.243715751194
 30
0.0
 40
5.0
100
AcDbArc
 50
179.9999999999992
 51
269.9999999999992
  0
ARC
  5
136DD
330
747D
100
AcDbEntity
  8
部品1
 48
50.0
100
AcDbCircle
 10
4975.252486380487
 20
3686.854499166046
 30
0.0
 40
5.0
100
AcDbArc
 50
179.9999999999998
 51
269.9999999999991
  0
LINE
  5
136DE
330
747D
100
AcDbEntity
  8
部品1
 48
50.0
100
AcDbLine
 10
5029.252486380491
 20
3664.243715751192
 30
0.0
 11
4975.252486380487
 21
3664.243715751194
 31
0.0
  0
LINE
  5
136DF
330
747D
100
AcDbEntity
  8
部品1
 48
50.0
100
AcDbLine
 10
5029.252486380491
 20
3681.854499166044
 30
0.0
 11
4975.252486380487
 21
3681.854499166046
 31
0.0
  0
LINE
  5
136E0
330
747D
100
AcDbEntity
  8
部品1
 48
50.0
100
AcDbLine
 10
5096.652747015899
 20
3678.220823152313
 30
0.0
 11
5034.252486380495
 21
3678.211182543897
 31
0.0
  0
LINE
  5
136E1
330
747D
100
AcDbEntity
  8
部品1
 48
50.0
100
AcDbLine
 10
5034.252486380488
 20
3488.743715751193
 30
0.0
 11
4970.252486380488
 21
3488.743715751194
 31
0.0
  0
LINE
  5
136E2
330
747D
100
AcDbEntity
  8
細線
 48
50.0
100
AcDbLine
 10
5019.252486380491
 20
3664.243715751194
 30
0.0
 11
5019.252486380494
 21
3488.743715751194
 31
0.0
  0
LINE
  5
136E3
330
747D
100
AcDbEntity
  8
細線
 48
50.0
100
AcDbLine
 10
5013.952486380492
 20
3664.243715751194
 30
0.0
 11
5013.952486380496
 21
3488.743715751194
 31
0.0
  0
LINE
  5
136E4
330
747D
100
AcDbEntity
  8
細線
 48
50.0
100
AcDbLine
 10
4990.552486380487
 20
3664.243715751194
 30
0.0
 11
4990.552486380487
 21
3488.743715751194
 31
0.0
  0
LINE
  5
136E5
330
747D
100
AcDbEntity
  8
細線
 48
50.0
100
AcDbLine
 10
4985.252486380487
 20
3664.243715751194
 30
0.0
 11
4985.252486380484
 21
3488.743715751194
 31
0.0
  0
LINE
  5
136E6
330
747D
100
AcDbEntity
  8
部品1
 48
50.0
100
AcDbLine
 10
5096.65952850448
 20
3748.56377513652
 30
0.0
 11
5156.661938006005
 21
3773.554134528104
 31
0.0
  0
LINE
  5
136E7
330
747D
100
AcDbEntity
  8
部品1
 48
50.0
100
AcDbLine
 10
5096.656137295482
 20
3713.387478840208
 30
0.0
 11
5156.658546797007
 21
3738.377838231792
 31
0.0
  0
LINE
  5
136E8
330
747D
100
AcDbEntity
  8
部品1
 48
50.0
100
AcDbLine
 10
5096.66310664898
 20
3785.679114007995
 30
0.0
 11
5156.665516150505
 21
3810.669473399581
 31
0.0
  0
ARC
  5
136E9
330
747D
100
AcDbEntity
  8
部品1
 48
50.0
100
AcDbCircle
 10
5029.252486380491
 20
3780.679114007995
 30
0.0
 40
5.0
100
AcDbArc
 50
359.9999999999996
 51
89.99999999999911
  0
ARC
  5
136EA
330
747D
100
AcDbEntity
  8
部品1
 48
50.0
100
AcDbCircle
 10
4975.252486380487
 20
3780.679114007997
 30
0.0
 40
5.0
100
AcDbArc
 50
90.0
 51
180.0
  0
LINE
  5
136EB
330
747D
100
AcDbEntity
  8
部品1
 48
50.0
100
AcDbLine
 10
5029.252486380491
 20
3785.679114007995
 30
0.0
 11
4975.252486380487
 21
3785.679114007997
 31
0.0
  0
LINE
  5
136EC
330
747D
100
AcDbEntity
  8
部品1
 48
50.0
100
AcDbLine
 10
5096.65952850448
 20
3748.56377513652
 30
0.0
 11
5034.252486380495
 21
3748.56377513652
 31
0.0
  0
LINE
  5
136ED
330
747D
100
AcDbEntity
  8
部品1
 48
50.0
100
AcDbLine
 10
5096.656137295486
 20
3713.387478840208
 30
0.0
 11
5034.252486380495
 21
3713.387478840206
 31
0.0
  0
LINE
  5
136EE
330
747D
100
AcDbEntity
  8
部品1
 48
50.0
100
AcDbLine
 10
5029.252486380491
 20
3785.679114007995
 30
0.0
 11
5096.66310664898
 21
3785.679114007995
 31
0.0
  0
LINE
  5
136EF
330
747D
100
AcDbEntity
  8
部品1
 48
50.0
100
AcDbLine
 10
5196.666235847876
 20
3818.13281446586
 30
0.0
 11
5196.654066015694
 21
3691.897709764738
 31
0.0
  0
LINE
  5
136F0
330
747D
100
AcDbEntity
  8
部品1
 48
50.0
100
AcDbLine
 10
5251.663865865271
 20
3793.54948431644
 30
0.0
 11
5247.792187206539
 21
3704.334079586085
 31
0.0
  0
LINE
  5
136F1
330
747D
100
AcDbEntity
  8
部品1
 48
50.0
100
AcDbLine
 10
5234.804411376103
 20
3691.897709764741
 30
0.0
 11
5196.654066015694
 21
3691.897709764741
 31
0.0
  0
ARC
  5
136F2
330
747D
100
AcDbEntity
  8
部品1
 48
50.0
100
AcDbCircle
 10
5234.804411376103
 20
3704.89770976474
 30
0.0
 40
13.0
100
AcDbArc
 50
270.0
 51
357.5150956634288
  0
LINE
  5
136F3
330
747D
100
AcDbEntity
  8
部品1
 48
50.0
100
AcDbLine
 10
5196.652746551194
 20
3703.211182543897
 30
0.0
 11
5156.655156517424
 21
3703.211182543897
 31
0.0
  0
LINE
  5
136F4
330
747D
100
AcDbEntity
  8
部品1
 48
50.0
100
AcDbLine
 10
5196.656136830778
 20
3738.377838231792
 30
0.0
 11
5156.658546797007
 21
3738.377838231792
 31
0.0
  0
ARC
  5
136F5
330
747D
100
AcDbEntity
  8
部品1
 48
50.0
100
AcDbCircle
 10
5234.804411376103
 20
3831.13281446586
 30
0.0
 40
13.0
100
AcDbArc
 50
270.0
 51
357.5150956634288
  0
LINE
  5
136F6
330
747D
100
AcDbEntity
  8
部品1
 48
50.0
100
AcDbLine
 10
5251.676090034835
 20
3920.348219196216
 30
0.0
 11
5251.663865865271
 21
3793.54948431644
 31
0.0
  0
LINE
  5
136F7
330
747D
100
AcDbEntity
  8
部品1
 48
50.0
100
AcDbLine
 10
5251.663865865271
 20
3919.784589017558
 30
0.0
 11
5247.792187206539
 21
3830.569184287204
 31
0.0
  0
LINE
  5
136F8
330
747D
100
AcDbEntity
  8
部品1
 48
50.0
100
AcDbLine
 10
5196.659528039771
 20
3773.554134528104
 30
0.0
 11
5156.661938006005
 21
3773.554134528104
 31
0.0
  0
LINE
  5
136F9
330
747D
100
AcDbEntity
  8
部品1
 48
50.0
100
AcDbLine
 10
5196.663106184272
 20
3810.669473399581
 30
0.0
 11
5156.665516150505
 21
3810.669473399581
 31
0.0
  0
LINE
  5
136FA
330
747D
100
AcDbEntity
  8
部品1
 48
50.0
100
AcDbLine
 10
5229.252486380488
 20
3933.348219196212
 30
0.0
 11
5229.252486380488
 21
3818.13281446586
 31
0.0
  0
ARC
  5
136FB
330
747D
100
AcDbEntity
  8
部品1
 48
50.0
100
AcDbCircle
 10
5238.676090034836
 20
3920.348219196216
 30
0.0
 40
13.0
100
AcDbArc
 50
357.515095663427
 51
90.0
  0
ARC
  5
136FC
330
747D
100
AcDbEntity
  8
部品1
 48
50.0
100
AcDbCircle
 10
2387.252488332254
 20
7794.627768532556
 30
0.0
 40
15.0
100
AcDbArc
 50
90.0
 51
180.0
  0
LINE
  5
136FD
330
747D
100
AcDbEntity
  8
部品1
 48
50.0
100
AcDbLine
 10
2372.252488332254
 20
7786.627768532556
 30
0.0
 11
2417.252488332254
 21
7786.627768532558
 31
0.0
  0
DIMENSION
  5
136FE
330
747D
100
AcDbEntity
  8
寸法
 48
50.0
100
AcDbDimension
  2
*D7
 10
2051.580544499714
 20
7572.627768532557
 30
0.0
 11
2051.580544499712
 21
7691.127768532554
 31
0.0
 70
   160
 71
     5
 42
236.9999999999982
  3
INABA_S30G
100
AcDbAlignedDimension
 13
2387.252488332254
 23
7809.627768532554
 33
0.0
 14
2302.252488332257
 24
7572.627768532557
 34
0.0
 50
90.0
100
AcDbRotatedDimension
  0
DIMENSION
  5
13700
330
747D
100
AcDbEntity
  8
寸法
 48
50.0
100
AcDbDimension
  2
*D8
 10
2051.580544499714
 20
6088.627768532562
 30
0.0
 11
2051.580544499713
 21
6459.62776853256
 31
0.0
 70
   160
 71
     5
 42
742.0
  3
INABA_S30G
100
AcDbAlignedDimension
 13
2302.252488332256
 23
6830.627768532562
 33
0.0
 14
2302.252488332256
 24
6088.627768532562
 34
0.0
 50
90.0
100
AcDbRotatedDimension
  0
LINE
  5
13701
330
747D
100
AcDbEntity
  8
部品1
 48
50.0
100
AcDbLine
 10
2395.252488332254
 20
5132.627768532562
 30
0.0
 11
2372.252488332254
 21
5132.627768532558
 31
0.0
  0
ARC
  5
13702
330
747D
100
AcDbEntity
  8
部品1
 48
50.0
100
AcDbCircle
 10
2387.252488332254
 20
5124.627768532562
 30
0.0
 40
15.0
100
AcDbArc
 50
180.0
 51
270.0
  0
DIMENSION
  5
13703
330
747D
100
AcDbEntity
  8
寸法
 48
50.0
100
AcDbDimension
  2
*D9
 10
2051.580544499713
 20
5109.627768532562
 30
0.0
 11
2051.580544499712
 21
5228.127768532562
 31
0.0
 70
   160
 71
     5
 42
237.0
  3
INABA_S30G
100
AcDbAlignedDimension
 13
2302.252488332256
 23
5346.627768532562
 33
0.0
 14
2387.252488332254
 24
5109.627768532562
 34
0.0
 50
90.0
100
AcDbRotatedDimension
  0
DIMENSION
  5
13704
330
747D
100
AcDbEntity
  8
寸法
 48
50.0
100
AcDbDimension
  2
*D10
 10
2051.580544499714
 20
5346.627768532562
 30
0.0
 11
2051.580544499713
 21
5717.62776853256
 31
0.0
 70
   160
 71
     5
 42
742.0
  3
INABA_S30G
100
AcDbAlignedDimension
 13
2302.252488332256
 23
6088.627768532562
 33
0.0
 14
2302.252488332256
 24
5346.627768532562
 34
0.0
 50
90.0
100
AcDbRotatedDimension
  0
DIMENSION
  5
13705
330
747D
100
AcDbEntity
  8
寸法
 48
50.0
100
AcDbDimension
  2
*D11
 10
2051.580544499714
 20
6830.627768532562
 30
0.0
 11
2051.580544499713
 21
7201.627768532562
 31
0.0
 70
   160
 71
     5
 42
741.9999999999945
  3
INABA_S30G
100
AcDbAlignedDimension
 13
2302.252488332257
 23
7572.627768532557
 33
0.0
 14
2302.252488332256
 24
6830.627768532562
 34
0.0
 50
90.0
100
AcDbRotatedDimension
  0
LINE
  5
13706
330
747D
100
AcDbEntity
  8
部品1
 48
50.0
100
AcDbLine
 10
2372.252488332254
 20
7794.627768532556
 30
0.0
 11
2372.252488332254
 21
5124.627768532562
 31
0.0
  0
LINE
  5
13707
330
747D
100
AcDbEntity
  8
点線
 48
50.0
100
AcDbLine
 10
3531.90319869906
 20
7615.127768532563
 30
0.0
 11
5222.252488332252
 21
7615.127768532558
 31
0.0
  0
LINE
  5
13708
330
747D
100
AcDbEntity
  8
点線
 48
50.0
100
AcDbLine
 10
3549.319896207083
 20
7550.127768532561
 30
0.0
 11
5222.252488332252
 21
7550.127768532559
 31
0.0
  0
LINE
  5
13709
330
747D
100
AcDbEntity
  8
部品1
 48
50.0
100
AcDbLine
 10
2387.252488332254
 20
7809.627768532554
 30
0.0
 11
3479.787080771207
 21
7809.627768532561
 31
0.0
  0
LINE
  5
1370A
330
747D
100
AcDbEntity
  8
部品1
 48
50.0
100
AcDbLine
 10
2417.252488332254
 20
7685.627768532559
 30
0.0
 11
3513.012780632668
 21
7685.627768532559
 31
0.0
  0
TEXT
  5
1370B
330
747D
100
AcDbEntity
  8
仕様書枠
 62
     7
 48
50.0
100
AcDbText
 10
3514.917921307971
 20
4756.429387508238
 30
0.0
 40
112.0
  1
平 面 図
  7
STYLE2
100
AcDbText
  0
LWPOLYLINE
  5
1370C
330
747D
100
AcDbEntity
  8
部品1
100
AcDbPolyline
 90
        4
 70
     1
 43
0.0
 10
3483.502844546439
 20
4910.29411185842
 10
4130.534219826965
 20
4910.29411185842
 10
4130.534219826965
 20
4717.77395604128
 10
3483.502844546439
 20
4717.77395604128
  0
LINE
  5
1370D
330
747D
100
AcDbEntity
  8
部品1
 48
50.0
100
AcDbLine
 10
3847.120717088277
 20
6438.719974468236
 30
0.0
 11
4243.44227919991
 21
4959.627768532563
 31
0.0
  0
LINE
  5
1370E
330
747D
100
AcDbEntity
  8
点線
 48
50.0
100
AcDbLine
 10
3730.721499482957
 20
6873.127768532562
 30
0.0
 11
5222.252488332252
 21
6873.127768532555
 31
0.0
  0
LINE
  5
1370F
330
747D
100
AcDbEntity
  8
点線
 48
50.0
100
AcDbLine
 10
3748.138196990979
 20
6808.127768532564
 30
0.0
 11
5222.252488332252
 21
6808.127768532559
 31
0.0
  0
LINE
  5
13710
330
747D
100
AcDbEntity
  8
点線
 48
50.0
100
AcDbLine
 10
3929.539800266848
 20
6131.127768532564
 30
0.0
 11
5222.252488332255
 21
6131.127768532562
 31
0.0
  0
LINE
  5
13711
330
747D
100
AcDbEntity
  8
点線
 48
50.0
100
AcDbLine
 10
3946.956497774872
 20
6066.127768532562
 30
0.0
 11
5222.252488332252
 21
6066.127768532559
 31
0.0
  0
LINE
  5
13712
330
747D
100
AcDbEntity
  8
部品1
 48
50.0
100
AcDbLine
 10
2387.252488332254
 20
5109.627768532562
 30
0.0
 11
4203.249900335243
 21
5109.62776853256
 31
0.0
  0
LINE
  5
13713
330
747D
100
AcDbEntity
  8
部品1
 48
50.0
100
AcDbLine
 10
2417.252488332254
 20
5179.627768532558
 30
0.0
 11
4184.493456865063
 21
5179.627768532558
 31
0.0
  0
LINE
  5
13714
330
747D
100
AcDbEntity
  8
部品1
 48
50.0
100
AcDbLine
 10
2442.252488332254
 20
5369.127768532562
 30
0.0
 11
4133.717084899364
 21
5369.127768532564
 31
0.0
  0
LINE
  5
13715
330
747D
100
AcDbEntity
  8
部品1
 48
50.0
100
AcDbLine
 10
2442.252488332254
 20
5324.127768532562
 30
0.0
 11
4145.774798558765
 21
5324.127768532566
 31
0.0
  0
LINE
  5
13716
330
747D
100
AcDbEntity
  8
部品1
 48
50.0
100
AcDbLine
 10
2442.252488332254
 20
5389.127768532558
 30
0.0
 11
4128.358101050742
 21
5389.127768532563
 31
0.0
  0
LINE
  5
13719
330
747D
100
AcDbEntity
  8
部品1
 48
50.0
100
AcDbLine
 10
2417.252488332254
 20
7790.127768532555
 30
0.0
 11
2417.252488332254
 21
5159.627768532562
 31
0.0
  0
LINE
  5
1371A
330
747D
100
AcDbEntity
  8
部品1
 48
50.0
100
AcDbLine
 10
2442.252488332254
 20
7685.627768532559
 30
0.0
 11
2442.252488332254
 21
5179.627768532558
 31
0.0
  0
LINE
  5
1371F
330
747D
100
AcDbEntity
  8
部品1
 48
50.0
100
AcDbLine
 10
3439.594701906538
 20
7959.627768532562
 30
0.0
 11
3816.734908453148
 21
6552.121356123611
 31
0.0
  0
LINE
  5
13722
330
747D
100
AcDbEntity
  8
部品1
 48
50.0
100
AcDbLine
 10
2442.252488332254
 20
6066.127768532562
 30
0.0
 11
3946.95649777487
 21
6066.127768532566
 31
0.0
  0
LINE
  5
13723
330
747D
100
AcDbEntity
  8
部品1
 48
50.0
100
AcDbLine
 10
2442.252488332254
 20
6111.127768532559
 30
0.0
 11
3934.89878411547
 21
6111.127768532566
 31
0.0
  0
LINE
  5
13724
330
747D
100
AcDbEntity
  8
部品1
 48
50.0
100
AcDbLine
 10
2442.252488332254
 20
6131.127768532558
 30
0.0
 11
3929.539800266848
 21
6131.127768532565
 31
0.0
  0
LINE
  5
13727
330
747D
100
AcDbEntity
  8
部品1
 48
50.0
100
AcDbLine
 10
2417.252488332254
 20
5159.627768532558
 30
0.0
 11
2400.252488332254
 21
5159.627768532558
 31
0.0
  0
ARC
  5
13728
330
747D
100
AcDbEntity
  8
部品1
 48
50.0
100
AcDbCircle
 10
2400.252488332254
 20
5154.627768532558
 30
0.0
 40
5.0
100
AcDbArc
 50
90.00000000000003
 51
180.0
  0
LINE
  5
13729
330
747D
100
AcDbEntity
  8
部品1
 48
50.0
100
AcDbLine
 10
2395.252488332254
 20
5154.627768532558
 30
0.0
 11
2395.252488332254
 21
5109.627768532555
 31
0.0
  0
LINE
  5
1372B
330
747D
100
AcDbEntity
  8
点線
 48
6.0
100
AcDbLine
 10
2402.252488332254
 20
5389.127768532563
 30
0.0
 11
2402.252488332254
 21
5324.127768532559
 31
0.0
  0
LINE
  5
1372C
330
747D
100
AcDbEntity
  8
点線
 48
6.0
100
AcDbLine
 10
2402.252488332258
 20
5324.127768532562
 30
0.0
 11
2442.252488332254
 21
5324.127768532562
 31
0.0
  0
LINE
  5
1372D
330
747D
100
AcDbEntity
  8
点線
 48
6.0
100
AcDbLine
 10
2402.252488332258
 20
5389.127768532558
 30
0.0
 11
2442.252488332254
 21
5389.127768532558
 31
0.0
  0
LINE
  5
13730
330
747D
100
AcDbEntity
  8
点線
 48
6.0
100
AcDbLine
 10
2402.252488332254
 20
6131.127768532562
 30
0.0
 11
2402.252488332254
 21
6066.127768532559
 31
0.0
  0
LINE
  5
13731
330
747D
100
AcDbEntity
  8
点線
 48
6.0
100
AcDbLine
 10
2402.252488332258
 20
6066.127768532562
 30
0.0
 11
2442.252488332254
 21
6066.127768532562
 31
0.0
  0
LINE
  5
13732
330
747D
100
AcDbEntity
  8
点線
 48
6.0
100
AcDbLine
 10
2402.252488332258
 20
6131.127768532558
 30
0.0
 11
2442.252488332254
 21
6131.127768532558
 31
0.0
  0
LINE
  5
1373E
330
747D
100
AcDbEntity
  8
部品1
 48
50.0
100
AcDbLine
 10
3723.393511062673
 20
6498.23067521368
 30
0.0
 11
3950.196274373421
 21
6498.230675213683
 31
0.0
  0
LINE
  5
1373F
330
747D
100
AcDbEntity
  8
部品1
 48
50.0
100
AcDbLine
 10
3847.120717088277
 20
6438.719974468233
 30
0.0
 11
3950.196274373421
 21
6498.230675213683
 31
0.0
  0
LINE
  5
13740
330
747D
100
AcDbEntity
  8
部品1
 48
50.0
100
AcDbLine
 10
3723.393511062669
 20
6498.230675213683
 30
0.0
 11
3816.734908453148
 21
6552.121356123611
 31
0.0
  0
LINE
  5
13743
330
747D
100
AcDbEntity
  8
部品1
 48
50.0
100
AcDbLine
 10
2442.252488332254
 20
7595.127768532562
 30
0.0
 11
3537.262182547682
 21
7595.127768532567
 31
0.0
  0
LINE
  5
13744
330
747D
100
AcDbEntity
  8
部品1
 48
50.0
100
AcDbLine
 10
2442.252488332254
 20
7615.127768532556
 30
0.0
 11
3531.90319869906
 21
7615.127768532563
 31
0.0
  0
LINE
  5
13745
330
747D
100
AcDbEntity
  8
部品1
 48
50.0
100
AcDbLine
 10
2442.252488332254
 20
7550.127768532559
 30
0.0
 11
3549.319896207083
 21
7550.127768532561
 31
0.0
  0
LINE
  5
13746
330
747D
100
AcDbEntity
  8
部品1
 48
50.0
100
AcDbLine
 10
2442.252488332254
 20
6873.127768532559
 30
0.0
 11
3730.721499482957
 21
6873.127768532562
 31
0.0
  0
LINE
  5
13747
330
747D
100
AcDbEntity
  8
部品1
 48
50.0
100
AcDbLine
 10
2442.252488332254
 20
6853.127768532562
 30
0.0
 11
3736.080483331579
 21
6853.127768532566
 31
0.0
  0
LINE
  5
13748
330
747D
100
AcDbEntity
  8
部品1
 48
50.0
100
AcDbLine
 10
2442.252488332254
 20
6808.127768532561
 30
0.0
 11
3748.138196990979
 21
6808.127768532566
 31
0.0
  0
LINE
  5
1374B
330
747D
100
AcDbEntity
  8
点線
 48
6.0
100
AcDbLine
 10
2402.252488332258
 20
6873.127768532559
 30
0.0
 11
2442.252488332254
 21
6873.127768532559
 31
0.0
  0
LINE
  5
1374C
330
747D
100
AcDbEntity
  8
点線
 48
6.0
100
AcDbLine
 10
2402.252488332258
 20
6808.127768532561
 30
0.0
 11
2442.252488332254
 21
6808.127768532561
 31
0.0
  0
LINE
  5
1374D
330
747D
100
AcDbEntity
  8
点線
 48
6.0
100
AcDbLine
 10
2402.252488332258
 20
6873.127768532555
 30
0.0
 11
2402.252488332254
 21
6808.127768532559
 31
0.0
  0
LINE
  5
13750
330
747D
100
AcDbEntity
  8
点線
 48
6.0
100
AcDbLine
 10
2402.252488332258
 20
7550.127768532559
 30
0.0
 11
2402.252488332258
 21
7615.127768532558
 31
0.0
  0
LINE
  5
13751
330
747D
100
AcDbEntity
  8
点線
 48
6.0
100
AcDbLine
 10
2402.252488332258
 20
7550.127768532559
 30
0.0
 11
2442.252488332254
 21
7550.127768532559
 31
0.0
  0
LINE
  5
13753
330
747D
100
AcDbEntity
  8
部品1
 48
50.0
100
AcDbLine
 10
2395.252488332254
 20
7790.127768532555
 30
0.0
 11
2417.252488332254
 21
7790.127768532555
 31
0.0
  0
LINE
  5
13754
330
747D
100
AcDbEntity
  8
部品1
 48
50.0
100
AcDbLine
 10
2395.252488332254
 20
7809.627768532554
 30
0.0
 11
2395.252488332254
 21
7786.627768532558
 31
0.0
  0
LINE
  5
13756
330
747D
100
AcDbEntity
  8
点線
 48
6.0
100
AcDbLine
 10
2402.252488332258
 20
7615.127768532556
 30
0.0
 11
2442.252488332254
 21
7615.127768532556
 31
0.0
  0
LINE
  5
13769
330
747D
100
AcDbEntity
  8
点線
 48
50.0
100
AcDbLine
 10
5032.252488332256
 20
6808.127768532554
 30
0.0
 11
5032.252488332256
 21
6131.127768532558
 31
0.0
  0
LINE
  5
1376A
330
747D
100
AcDbEntity
  8
点線
 48
50.0
100
AcDbLine
 10
4972.252488332255
 20
6808.127768532554
 30
0.0
 11
4972.252488332255
 21
6131.127768532558
 31
0.0
  0
LINE
  5
1376B
330
747D
100
AcDbEntity
  8
部品1
 48
50.0
100
AcDbLine
 10
5252.252488332253
 20
7794.627768532558
 30
0.0
 11
5252.25248833226
 21
5124.627768532555
 31
0.0
  0
LINE
  5
1376C
330
747D
100
AcDbEntity
  8
部品1
 48
50.0
100
AcDbLine
 10
5207.252488332255
 20
7790.127768532551
 30
0.0
 11
5207.252488332255
 21
5159.627768532558
 31
0.0
  0
LINE
  5
1376D
330
747D
100
AcDbEntity
  8
部品1
 48
50.0
100
AcDbLine
 10
4600.752488332256
 20
7685.627768532559
 30
0.0
 11
4600.752488332256
 21
5179.627768532562
 31
0.0
  0
LINE
  5
1376E
330
747D
100
AcDbEntity
  8
部品1
 48
50.0
100
AcDbLine
 10
4623.752488332256
 20
7685.627768532559
 30
0.0
 11
4623.752488332256
 21
5179.627768532562
 31
0.0
  0
LINE
  5
1376F
330
747D
100
AcDbEntity
  8
部品1
 48
50.0
100
AcDbLine
 10
5193.752488332256
 20
7685.627768532559
 30
0.0
 11
5193.752488332256
 21
5179.627768532562
 31
0.0
  0
LINE
  5
13770
330
747D
100
AcDbEntity
  8
部品1
 48
50.0
100
AcDbLine
 10
5170.752488332255
 20
7685.627768532559
 30
0.0
 11
5170.752488332255
 21
5179.627768532562
 31
0.0
  0
LINE
  5
13771
330
747D
100
AcDbEntity
  8
部品1
 48
50.0
100
AcDbLine
 10
4852.252488332256
 20
7685.627768532559
 30
0.0
 11
4852.252488332256
 21
5179.627768532558
 31
0.0
  0
LINE
  5
13772
330
747D
100
AcDbEntity
  8
部品1
 48
50.0
100
AcDbLine
 10
4897.252488332256
 20
7685.627768532559
 30
0.0
 11
4897.252488332256
 21
5179.627768532558
 31
0.0
  0
LINE
  5
13773
330
747D
100
AcDbEntity
  8
部品1
 48
50.0
100
AcDbLine
 10
4925.252488332255
 20
7685.627768532559
 30
0.0
 11
4925.252488332255
 21
5179.627768532558
 31
0.0
  0
LINE
  5
13774
330
747D
100
AcDbEntity
  8
部品1
 48
50.0
100
AcDbLine
 10
4970.252488332256
 20
7685.627768532559
 30
0.0
 11
4970.252488332256
 21
5179.627768532558
 31
0.0
  0
LINE
  5
13775
330
747D
100
AcDbEntity
  8
部品1
 48
50.0
100
AcDbLine
 10
4317.252488332256
 20
7685.627768532559
 30
0.0
 11
4317.252488332256
 21
5179.627768532558
 31
0.0
  0
LINE
  5
13776
330
747D
100
AcDbEntity
  8
部品1
 48
50.0
100
AcDbLine
 10
4390.252488332255
 20
7685.627768532559
 30
0.0
 11
4390.252488332255
 21
5179.627768532558
 31
0.0
  0
LINE
  5
13777
330
747D
100
AcDbEntity
  8
部品1
 48
50.0
100
AcDbLine
 10
4272.252488332255
 20
7685.627768532559
 30
0.0
 11
4272.252488332255
 21
5179.627768532558
 31
0.0
  0
LINE
  5
13778
330
747D
100
AcDbEntity
  8
部品1
 48
50.0
100
AcDbLine
 10
4345.252488332255
 20
7685.627768532559
 30
0.0
 11
4345.252488332255
 21
5179.627768532558
 31
0.0
  0
LINE
  5
13779
330
747D
100
AcDbEntity
  8
部品1
 48
50.0
100
AcDbLine
 10
4020.752488332255
 20
7685.627768532559
 30
0.0
 11
4020.752488332255
 21
5790.717382377536
 31
0.0
  0
LINE
  5
1377A
330
747D
100
AcDbEntity
  8
部品1
 48
50.0
100
AcDbLine
 10
4043.752488332255
 20
7685.627768532559
 30
0.0
 11
4043.752488332256
 21
5704.880213803452
 31
0.0
  0
LINE
  5
1377F
330
747D
100
AcDbEntity
  8
部品1
 48
50.0
100
AcDbLine
 10
3772.252488332255
 20
7685.627768532559
 30
0.0
 11
3772.252488332255
 21
6718.132008058407
 31
0.0
  0
LINE
  5
13780
330
747D
100
AcDbEntity
  8
部品1
 48
50.0
100
AcDbLine
 10
3817.252488332255
 20
7685.627768532559
 30
0.0
 11
3817.252488332255
 21
6498.23067521368
 31
0.0
  0
LINE
  5
13781
330
747D
100
AcDbEntity
  8
部品1
 48
50.0
100
AcDbLine
 10
3845.252488332256
 20
7685.627768532559
 30
0.0
 11
3845.252488332256
 21
6498.23067521368
 31
0.0
  0
LINE
  5
13782
330
747D
100
AcDbEntity
  8
部品1
 48
50.0
100
AcDbLine
 10
3890.252488332256
 20
7685.627768532559
 30
0.0
 11
3890.252488332257
 21
6498.230675213682
 31
0.0
  0
LINE
  5
13783
330
747D
100
AcDbEntity
  8
部品1
 48
50.0
100
AcDbLine
 10
3623.752488332255
 20
7685.627768532559
 30
0.0
 11
3623.752488332255
 21
7272.341552982374
 31
0.0
  0
LINE
  5
13785
330
747D
100
AcDbEntity
  8
部品1
 48
50.0
100
AcDbLine
 10
3600.752488332255
 20
7685.627768532559
 30
0.0
 11
3600.752488332255
 21
7358.17872155646
 31
0.0
  0
LINE
  5
1378B
330
747D
100
AcDbEntity
  8
点線
 48
50.0
100
AcDbLine
 10
4128.358101050742
 20
5389.12776853256
 30
0.0
 11
5222.252488332259
 21
5389.127768532555
 31
0.0
  0
LINE
  5
1378C
330
747D
100
AcDbEntity
  8
点線
 48
50.0
100
AcDbLine
 10
4145.774798558766
 20
5324.12776853256
 30
0.0
 11
5222.252488332252
 21
5324.127768532555
 31
0.0
  0
LINE
  5
1378D
330
747D
100
AcDbEntity
  8
点線
 48
50.0
100
AcDbLine
 10
4972.252488332255
 20
6066.127768532559
 30
0.0
 11
4972.252488332255
 21
5389.127768532558
 31
0.0
  0
LINE
  5
1378E
330
747D
100
AcDbEntity
  8
点線
 48
50.0
100
AcDbLine
 10
5032.252488332256
 20
6066.127768532559
 30
0.0
 11
5032.252488332256
 21
5389.127768532558
 31
0.0
  0
LINE
  5
1378F
330
747D
100
AcDbEntity
  8
部品1
 48
50.0
100
AcDbLine
 10
5229.252488332259
 20
5132.627768532562
 30
0.0
 11
5252.25248833226
 21
5132.627768532558
 31
0.0
  0
LINE
  5
13790
330
747D
100
AcDbEntity
  8
部品1
 48
50.0
100
AcDbLine
 10
5207.252488332255
 20
5159.627768532558
 30
0.0
 11
5224.252488332256
 21
5159.627768532558
 31
0.0
  0
ARC
  5
13791
330
747D
100
AcDbEntity
  8
部品1
 48
50.0
100
AcDbCircle
 10
5224.252488332256
 20
5154.627768532558
 30
0.0
 40
5.0
100
AcDbArc
 50
0.0
 51
89.99999999999998
  0
ARC
  5
13792
330
747D
100
AcDbEntity
  8
部品1
 48
50.0
100
AcDbCircle
 10
5237.252488332259
 20
5124.627768532555
 30
0.0
 40
15.0
100
AcDbArc
 50
270.0
 51
0.0000000000000763
  0
LINE
  5
13793
330
747D
100
AcDbEntity
  8
部品1
 48
50.0
100
AcDbLine
 10
5229.252488332256
 20
5154.627768532558
 30
0.0
 11
5229.252488332259
 21
5109.627768532555
 31
0.0
  0
ARC
  5
13794
330
747D
100
AcDbEntity
  8
点線
 48
50.0
100
AcDbCircle
 10
5024.252488332256
 20
5289.127768532566
 30
0.0
 40
10.0
100
AcDbArc
 50
270.0000000000021
 51
0.0
  0
LINE
  5
13795
330
747D
100
AcDbEntity
  8
点線
 48
50.0
100
AcDbLine
 10
5034.252488332256
 20
5324.127768532562
 30
0.0
 11
5034.252488332256
 21
5289.127768532566
 31
0.0
  0
LINE
  5
13796
330
747D
100
AcDbEntity
  8
点線
 48
50.0
100
AcDbLine
 10
4970.252488332256
 20
5324.127768532562
 30
0.0
 11
4970.252488332256
 21
5289.127768532562
 31
0.0
  0
ARC
  5
13797
330
747D
100
AcDbEntity
  8
点線
 48
50.0
100
AcDbCircle
 10
4980.252488332256
 20
5289.127768532562
 30
0.0
 40
10.0
100
AcDbArc
 50
180.0
 51
270.0000000000009
  0
LINE
  5
13798
330
747D
100
AcDbEntity
  8
点線
 48
50.0
100
AcDbLine
 10
4980.252488332256
 20
5279.127768532562
 30
0.0
 11
5024.252488332256
 21
5279.127768532566
 31
0.0
  0
LINE
  5
13799
330
747D
100
AcDbEntity
  8
点線
 48
6.0
100
AcDbLine
 10
5222.252488332259
 20
5389.127768532563
 30
0.0
 11
5222.252488332255
 21
5324.127768532559
 31
0.0
  0
LINE
  5
1379A
330
747D
100
AcDbEntity
  8
点線
 48
6.0
100
AcDbLine
 10
5222.252488332255
 20
6131.127768532562
 30
0.0
 11
5222.252488332255
 21
6066.127768532559
 31
0.0
  0
LINE
  5
1379B
330
747D
100
AcDbEntity
  8
点線
 48
50.0
100
AcDbLine
 10
5032.252488332256
 20
7550.127768532559
 30
0.0
 11
5032.252488332256
 21
6873.127768532559
 31
0.0
  0
LINE
  5
1379C
330
747D
100
AcDbEntity
  8
点線
 48
50.0
100
AcDbLine
 10
4972.252488332255
 20
7550.127768532559
 30
0.0
 11
4972.252488332255
 21
6873.127768532559
 31
0.0
  0
LINE
  5
1379D
330
747D
100
AcDbEntity
  8
点線
 48
6.0
100
AcDbLine
 10
5222.252488332252
 20
6873.127768532555
 30
0.0
 11
5222.252488332252
 21
6808.127768532559
 31
0.0
  0
LINE
  5
1379E
330
747D
100
AcDbEntity
  8
点線
 48
6.0
100
AcDbLine
 10
5222.252488332252
 20
7550.127768532559
 30
0.0
 11
5222.252488332252
 21
7615.127768532558
 31
0.0
  0
ARC
  5
1379F
330
747D
100
AcDbEntity
  8
点線
 48
50.0
100
AcDbCircle
 10
5024.252488332256
 20
7630.127768532552
 30
0.0
 40
10.0
100
AcDbArc
 50
0.0
 51
90.0
  0
LINE
  5
137A0
330
747D
100
AcDbEntity
  8
点線
 48
50.0
100
AcDbLine
 10
5034.252488332256
 20
7615.127768532556
 30
0.0
 11
5034.252488332256
 21
7630.127768532552
 31
0.0
  0
LINE
  5
137A1
330
747D
100
AcDbEntity
  8
点線
 48
50.0
100
AcDbLine
 10
4970.252488332256
 20
7615.127768532556
 30
0.0
 11
4970.252488332256
 21
7630.127768532554
 31
0.0
  0
ARC
  5
137A2
330
747D
100
AcDbEntity
  8
点線
 48
50.0
100
AcDbCircle
 10
4980.252488332256
 20
7630.127768532554
 30
0.0
 40
10.0
100
AcDbArc
 50
90.0
 51
180.0
  0
LINE
  5
137A3
330
747D
100
AcDbEntity
  8
点線
 48
50.0
100
AcDbLine
 10
4980.252488332256
 20
7640.127768532555
 30
0.0
 11
5024.252488332256
 21
7640.127768532551
 31
0.0
  0
ARC
  5
137A4
330
747D
100
AcDbEntity
  8
部品1
 48
50.0
100
AcDbCircle
 10
5237.252488332252
 20
7794.627768532558
 30
0.0
 40
15.0
100
AcDbArc
 50
0.0000000000001018
 51
90.0
  0
LINE
  5
137A5
330
747D
100
AcDbEntity
  8
部品1
 48
50.0
100
AcDbLine
 10
5229.252488332252
 20
7809.627768532554
 30
0.0
 11
5229.252488332252
 21
7786.627768532558
 31
0.0
  0
LINE
  5
137A6
330
747D
100
AcDbEntity
  8
部品1
 48
50.0
100
AcDbLine
 10
5229.252488332256
 20
7790.127768532555
 30
0.0
 11
5207.252488332252
 21
7790.127768532555
 31
0.0
  0
LINE
  5
137A7
330
747D
100
AcDbEntity
  8
部品1
 48
50.0
100
AcDbLine
 10
5252.252488332256
 20
7786.627768532556
 30
0.0
 11
5207.252488332255
 21
7786.627768532558
 31
0.0
  0
TEXT
  5
137A8
330
747D
100
AcDbEntity
  8
仕様書枠
 62
     7
 48
50.0
100
AcDbText
 10
8614.010698190355
 20
1067.134505304333
 30
0.0
 40
112.0
  1
側 面 図
  7
STYLE2
100
AcDbText
  0
LWPOLYLINE
  5
137A9
330
747D
100
AcDbEntity
  8
部品1
100
AcDbPolyline
 90
        4
 70
     1
 43
0.0
 10
8582.595621428827
 20
1220.999229654516
 10
9229.626996709351
 20
1220.999229654516
 10
9229.626996709351
 20
1028.479073837374
 10
8582.595621428827
 20
1028.479073837374
  0
LINE
  5
137AA
330
747D
100
AcDbEntity
  8
部品1
 48
50.0
100
AcDbLine
 10
8286.62719013276
 20
3646.774926565936
 30
0.0
 11
8987.673185594143
 21
3613.540153447767
 31
0.0
  0
LINE
  5
137AB
330
747D
100
AcDbEntity
  8
部品1
 48
50.0
100
AcDbLine
 10
7133.779779203355
 20
1808.039790849966
 30
0.0
 11
9883.779779203345
 21
1808.039790849967
 31
0.0
  0
LINE
  5
137AC
330
747D
100
AcDbEntity
  8
部品1
 48
50.0
100
AcDbLine
 10
8073.779779203396
 20
2008.039790849968
 30
0.0
 11
9663.779779203396
 21
2008.039790849968
 31
0.0
  0
LINE
  5
137AD
330
747D
100
AcDbEntity
  8
部品1
 48
50.0
100
AcDbLine
 10
7306.854457345503
 20
3933.366936994235
 30
0.0
 11
9979.368150303287
 21
3806.66999155031
 31
0.0
  0
LINE
  5
137AE
330
747D
100
AcDbEntity
  8
部品1
 48
50.0
100
AcDbLine
 10
7308.36612513017
 20
3818.16611619066
 30
0.0
 11
9970.830235213895
 21
3691.945595416321
 31
0.0
  0
LINE
  5
137AF
330
747D
100
AcDbEntity
  8
細線
 48
50.0
100
AcDbLine
 10
7295.186137131262
 20
3856.833623068875
 30
0.0
 11
9986.491554195284
 21
3729.245810704358
 31
0.0
  0
LINE
  5
137B0
330
747D
100
AcDbEntity
  8
細線
 48
50.0
100
AcDbLine
 10
7294.816310937337
 20
3868.864632775456
 30
0.0
 11
9987.47672793943
 21
3741.212583376837
 31
0.0
  0
DIMENSION
  5
137B1
330
747D
100
AcDbEntity
  8
寸法
 48
50.0
100
AcDbDimension
  2
*D12
 10
9992.813085720245
 20
4505.640865426816
 30
0.0
 11
10009.83041489377
 21
4580.649723694536
 31
0.0
 12
-2618.697618457544
 22
9865.216339431514
 32
0.0
 70
    32
 71
     5
 42
-1.0
  3
INABA_S30G
100
AcDbAlignedDimension
 13
7292.813085720244
 23
3934.032602019432
 33
0.0
 14
9992.813085720245
 24
3806.03260201943
 34
0.0
100
AcDbRotatedDimension
  0
DIMENSION
  5
137B2
330
747D
100
AcDbEntity
  8
寸法
 48
50.0
100
AcDbDimension
  2
*D13
 10
9692.813085720253
 20
4177.040344344641
 30
0.0
 11
10234.83041489377
 21
4252.040344344645
 31
0.0
 12
-2618.697618457544
 22
9865.216339431514
 32
0.0
 70
    32
 71
     5
 42
-1.0
  3
INABA_S30G
100
AcDbAlignedDimension
 13
8042.81308572024
 23
3676.282570975459
 33
0.0
 14
9692.813085720253
 24
3682.597528174238
 34
0.0
100
AcDbRotatedDimension
  0
LINE
  5
137B3
330
747D
100
AcDbEntity
  8
部品1
 48
50.0
100
AcDbLine
 10
7468.45348160068
 20
3785.674730942434
 30
0.0
 11
9815.317738897554
 21
3674.415980966833
 31
0.0
  0
LINE
  5
137B4
330
747D
100
AcDbEntity
  8
部品1
 48
50.0
100
AcDbLine
 10
8073.779779203396
 20
2908.039790849968
 30
0.0
 11
9663.779779203396
 21
2908.039790849968
 31
0.0
  0
LINE
  5
137B5
330
747D
100
AcDbEntity
  8
細線
 48
50.0
100
AcDbLine
 10
8073.779779203396
 20
2805.039790849967
 30
0.0
 11
9663.779779203396
 21
2805.039790849967
 31
0.0
  0
LINE
  5
137B6
330
747D
100
AcDbEntity
  8
細線
 48
50.0
100
AcDbLine
 10
8073.779779203396
 20
2794.039790849968
 30
0.0
 11
9663.779779203396
 21
2794.039790849968
 31
0.0
  0
LINE
  5
137B7
330
747D
100
AcDbEntity
  8
細線
 48
50.0
100
AcDbLine
 10
8073.779779203396
 20
2111.039790849968
 30
0.0
 11
9663.779779203396
 21
2111.039790849966
 31
0.0
  0
LINE
  5
137B8
330
747D
100
AcDbEntity
  8
細線
 48
50.0
100
AcDbLine
 10
8073.779779203396
 20
2122.039790849968
 30
0.0
 11
9663.779779203396
 21
2122.039790849966
 31
0.0
  0
LINE
  5
137B9
330
747D
100
AcDbEntity
  8
細線
 48
50.0
100
AcDbLine
 10
8073.779779203396
 20
2458.039790849968
 30
0.0
 11
9663.779779203396
 21
2458.039790849968
 31
0.0
  0
LINE
  5
137BA
330
747D
100
AcDbEntity
  8
細線
 48
50.0
100
AcDbLine
 10
8073.779779203396
 20
2452.039790849968
 30
0.0
 11
9663.779779203396
 21
2452.039790849968
 31
0.0
  0
DIMENSION
  5
137BB
330
747D
100
AcDbEntity
  8
寸法
 48
50.0
100
AcDbDimension
  2
*D14
 10
9693.779779203396
 20
1317.839764169036
 30
0.0
 11
10235.79710837692
 21
1392.839764169039
 31
0.0
 12
-2618.697618457544
 22
9865.216339431514
 32
0.0
 70
    32
 71
     5
 42
-1.0
  3
INABA_S30G
100
AcDbAlignedDimension
 13
8043.779779203388
 23
1488.039790849967
 33
0.0
 14
9693.779779203396
 24
1488.039790849969
 34
0.0
100
AcDbRotatedDimension
  0
LINE
  5
137BC
330
747D
100
AcDbEntity
  8
部品1
 48
50.0
100
AcDbLine
 10
8013.779779203392
 20
3488.78420630653
 30
0.0
 11
8013.779779203392
 21
1808.039790849967
 31
0.0
  0
LINE
  5
137BD
330
747D
100
AcDbEntity
  8
部品1
 48
50.0
100
AcDbLine
 10
8073.779779203398
 20
3488.78420630653
 30
0.0
 11
8073.779779203396
 21
1808.039790849967
 31
0.0
  0
DIMENSION
  5
137BE
330
747D
100
AcDbEntity
  8
寸法
 48
50.0
100
AcDbDimension
  2
*D15
 10
6519.458737328371
 20
1758.039790849968
 30
0.0
 11
6444.449879060655
 21
2846.0361964347
 31
0.0
 12
-1251.680289284018
 22
9865.216339431519
 32
0.0
 70
    32
 71
     5
 42
-1.0
  3
INABA_S30G
100
AcDbAlignedDimension
 13
7292.813085720244
 23
3934.032602019432
 33
0.0
 14
6860.975729636308
 24
1758.039790849968
 34
0.0
 50
90.0
100
AcDbRotatedDimension
  0
DIMENSION
  5
137BF
330
747D
100
AcDbEntity
  8
寸法
 48
50.0
100
AcDbDimension
  2
*D16
 10
6888.972521140754
 20
2008.039790849968
 30
0.0
 11
6813.972521140755
 21
2458.039790849968
 31
0.0
 12
-1251.680289284018
 22
9865.216339431519
 32
0.0
 70
    32
 71
     5
 42
-1.0
  3
INABA_S30G
100
AcDbAlignedDimension
 13
8073.779779203396
 23
2908.039790849968
 33
0.0
 14
8073.779779203396
 24
2008.039790849968
 34
0.0
 50
90.0
100
AcDbRotatedDimension
  0
DIMENSION
  5
137C0
330
747D
100
AcDbEntity
  8
寸法
 48
50.0
100
AcDbDimension
  2
*D17
 10
6888.972521140754
 20
1758.039790849968
 30
0.0
 11
6888.972521140754
 21
1883.039790849968
 31
0.0
 12
-1251.680289284018
 22
9865.216339431519
 32
0.0
 70
   160
 71
     5
 42
-1.0
  3
INABA_S30G
100
AcDbAlignedDimension
 13
8073.779779203396
 23
2008.039790849968
 33
0.0
 14
6787.802277126624
 24
1758.039790849968
 34
0.0
 50
90.0
100
AcDbRotatedDimension
  0
LINE
  5
137C1
330
747D
100
AcDbEntity
  8
細線
 48
50.0
100
AcDbLine
 10
7123.779779203371
 20
1761.172893620331
 30
0.0
 11
7220.646676432991
 21
1808.039790849964
 31
0.0
  0
LINE
  5
137C2
330
747D
100
AcDbEntity
  8
細線
 48
50.0
100
AcDbLine
 10
7147.587456433004
 20
1758.039790849968
 30
0.0
 11
7247.587456432992
 21
1808.039790849964
 31
0.0
  0
LINE
  5
137C3
330
747D
100
AcDbEntity
  8
部品1
 48
50.0
100
AcDbLine
 10
7133.779779203355
 20
1808.039790849966
 30
0.0
 11
7123.779779203356
 21
1798.039790849966
 31
0.0
  0
LINE
  5
137C4
330
747D
100
AcDbEntity
  8
部品1
 48
50.0
100
AcDbLine
 10
7123.779779203356
 20
1798.039790849966
 30
0.0
 11
7123.779779203371
 21
1758.039790849968
 31
0.0
  0
LINE
  5
137C5
330
747D
100
AcDbEntity
  8
細線
 48
50.0
100
AcDbLine
 10
7174.528236432997
 20
1758.039790849968
 30
0.0
 11
7274.528236432994
 21
1808.039790849964
 31
0.0
  0
LINE
  5
137C6
330
747D
100
AcDbEntity
  8
点線
 48
50.0
100
AcDbLine
 10
8073.779779203396
 20
1808.039790849967
 30
0.0
 11
8073.779779203366
 21
1488.039790849966
 31
0.0
  0
LINE
  5
137C7
330
747D
100
AcDbEntity
  8
点線
 48
50.0
100
AcDbLine
 10
8013.779779203392
 20
1808.039790849967
 30
0.0
 11
8013.779779203373
 21
1488.039790849966
 31
0.0
  0
LINE
  5
137C8
330
747D
100
AcDbEntity
  8
点線
 48
50.0
100
AcDbLine
 10
8013.779779203373
 20
1488.039790849966
 30
0.0
 11
8073.779779203366
 21
1488.039790849966
 31
0.0
  0
DIMENSION
  5
137CD
330
747D
100
AcDbEntity
  8
寸法
 48
50.0
100
AcDbDimension
  2
*D18
 10
6895.096301369055
 20
3837.758167094886
 30
0.0
 11
6913.948330505651
 21
4235.418156694955
 31
0.0
 12
-2618.697618457544
 22
9865.216339431514
 32
0.0
 70
   160
 71
     5
 42
-1.0
 51
2.714212216121843
  3
INABA_S30G
100
AcDbAlignedDimension
 13
7306.854457345496
 23
3933.366936994231
 33
0.0
 14
7308.366125130163
 24
3818.166116190655
 34
0.0
 50
87.28578778387817
100
AcDbRotatedDimension
  0
DIMENSION
  5
137CE
330
747D
100
AcDbEntity
  8
寸法
 48
50.0
100
AcDbDimension
  2
*D19
 10
8042.81308572024
 20
4177.040344344641
 30
0.0
 11
9034.830414893768
 21
4252.040344344645
 31
0.0
 12
-2618.697618457544
 22
9865.216339431514
 32
0.0
 70
    32
 71
     5
 42
-1.0
  3
INABA_S30G
100
AcDbAlignedDimension
 13
7292.813085720244
 23
3934.032602019432
 33
0.0
 14
8042.81308572024
 24
3676.282570975459
 34
0.0
100
AcDbRotatedDimension
  0
LINE
  5
137CF
330
747D
100
AcDbEntity
  8
部品1
 48
50.0
100
AcDbLine
 10
7544.627190132763
 20
3681.951222862234
 30
0.0
 11
7843.545518986887
 21
3667.780279864705
 31
0.0
  0
LINE
  5
137D0
330
747D
100
AcDbEntity
  8
部品1
 48
50.0
100
AcDbLine
 10
7509.586502748733
 20
3808.626779770224
 30
0.0
 11
7503.578477146435
 21
3681.894989721381
 31
0.0
  0
LINE
  5
137D1
330
747D
100
AcDbEntity
  8
部品1
 48
50.0
100
AcDbLine
 10
7550.540507287362
 20
3806.685256592099
 30
0.0
 11
7544.556158796975
 21
3680.452905623015
 31
0.0
  0
ARC
  5
137D2
330
747D
100
AcDbEntity
  8
部品1
 48
50.0
100
AcDbCircle
 10
7481.76320377405
 20
3692.940426278454
 30
0.0
 40
10.0
100
AcDbArc
 50
192.1929346278251
 51
267.2857877839036
  0
LINE
  5
137D3
330
747D
100
AcDbEntity
  8
部品1
 48
50.0
100
AcDbLine
 10
7503.602154258361
 20
3682.39442880114
 30
0.0
 11
7544.556158796975
 21
3680.452905623012
 31
0.0
  0
LINE
  5
137D4
330
747D
100
AcDbEntity
  8
部品1
 48
50.0
100
AcDbLine
 10
7481.289661535483
 20
3682.95164468367
 30
0.0
 11
7503.578477146452
 21
3681.894989721381
 31
0.0
  0
ARC
  5
137D5
330
747D
100
AcDbEntity
  8
部品1
 48
50.0
100
AcDbCircle
 10
7308.981730040307
 20
3831.151532263879
 30
0.0
 40
13.0
100
AcDbArc
 50
181.7606842901233
 51
267.2857877838783
  0
LINE
  5
137D6
330
747D
100
AcDbEntity
  8
部品1
 48
50.0
100
AcDbLine
 10
7293.244990011523
 20
3919.982097198336
 30
0.0
 11
7295.987867616465
 21
3830.752108541201
 31
0.0
  0
LINE
  5
137D7
330
747D
100
AcDbEntity
  8
部品1
 48
50.0
100
AcDbLine
 10
7315.857531754801
 20
3932.940124577794
 30
0.0
 11
7319.401699446577
 21
3817.642948223067
 31
0.0
  0
ARC
  5
137D8
330
747D
100
AcDbEntity
  8
部品1
 48
50.0
100
AcDbCircle
 10
7306.238852435365
 20
3920.381520921015
 30
0.0
 40
13.0
100
AcDbArc
 50
87.28578778387824
 51
181.760684290123
  0
LINE
  5
137D9
330
747D
100
AcDbEntity
  8
部品1
 48
50.0
100
AcDbLine
 10
7463.329500750591
 20
3779.624318816152
 30
0.0
 11
7471.988784312427
 21
3690.828383620671
 31
0.0
  0
ARC
  5
137DA
330
747D
100
AcDbEntity
  8
部品1
 48
50.0
100
AcDbCircle
 10
7468.216710481399
 20
3780.680340145044
 30
0.0
 40
5.0
100
AcDbArc
 50
87.28578778390007
 51
192.1929346278247
  0
ARC
  5
137DB
330
747D
100
AcDbEntity
  8
部品1
 48
50.0
100
AcDbCircle
 10
7889.779779203398
 20
3541.94973054748
 30
0.0
 40
120.0
100
AcDbArc
 50
0.0
 51
87.28578778387857
  0
LINE
  5
137DC
330
747D
100
AcDbEntity
  8
部品1
 48
50.0
100
AcDbLine
 10
7856.257168453438
 20
3724.742231796143
 30
0.0
 11
8223.879605263867
 21
3707.314205162164
 31
0.0
  0
LINE
  5
137DD
330
747D
100
AcDbEntity
  8
部品1
 48
50.0
100
AcDbLine
 10
7843.37977920339
 20
3664.284206306529
 30
0.0
 11
7845.794844620086
 21
3715.226992439927
 31
0.0
  0
INSERT
  5
137DE
330
747D
100
AcDbEntity
  8
部品1
 48
50.0
100
AcDbBlockReference
  2
A$C0EDA5930
 10
7875.95658162187
 20
3686.850822467417
 30
0.0
  0
LINE
  5
137DF
330
747D
100
AcDbEntity
  8
部品1
 48
50.0
100
AcDbLine
 10
7843.37977920339
 20
3664.284206306529
 30
0.0
 11
7895.462286066209
 21
3661.815109684884
 31
0.0
  0
ARC
  5
137E0
330
747D
100
AcDbEntity
  8
部品1
 48
50.0
100
AcDbCircle
 10
7855.783626214869
 20
3714.753450201359
 30
0.0
 40
10.0
100
AcDbArc
 50
87.28578778387824
 51
177.2857877838809
  0
LINE
  5
137E1
330
747D
100
AcDbEntity
  8
部品1
 48
50.0
100
AcDbLine
 10
8292.540507287354
 20
3771.5089602958
 30
0.0
 11
8286.556158796974
 21
3645.276609326719
 31
0.0
  0
LINE
  5
137E2
330
747D
100
AcDbEntity
  8
部品1
 48
50.0
100
AcDbLine
 10
8251.586502748734
 20
3773.450483473928
 30
0.0
 11
8245.602154258362
 21
3647.218132504847
 31
0.0
  0
LINE
  5
137E3
330
747D
100
AcDbEntity
  8
部品1
 48
50.0
100
AcDbLine
 10
8230.979779203392
 20
3645.909095195417
 30
0.0
 11
8233.394844620084
 21
3696.851881328813
 31
0.0
  0
INSERT
  5
137E4
330
747D
100
AcDbEntity
  8
部品1
 48
50.0
100
AcDbBlockReference
  2
A$C0EDA5930
 10
8193.599836335987
 20
3671.792179280967
 30
0.0
  0
INSERT
  5
137E5
330
747D
100
AcDbEntity
  8
部品1
 48
50.0
100
AcDbBlockReference
  2
A$C0EDA5930
 10
7981.837666526577
 20
3681.831274738601
 30
0.0
  0
INSERT
  5
137E6
330
747D
100
AcDbEntity
  8
部品1
 48
50.0
100
AcDbBlockReference
  2
A$C0EDA5930
 10
8087.718751431282
 20
3676.811727009783
 30
0.0
  0
ARC
  5
137E7
330
747D
100
AcDbEntity
  8
部品1
 48
50.0
100
AcDbCircle
 10
8182.779779203395
 20
3543.076206684024
 30
0.0
 40
105.0
100
AcDbArc
 50
87.28578778387767
 51
180.0
  0
INSERT
  5
137E8
330
747D
100
AcDbEntity
  8
部品1
 48
50.0
100
AcDbBlockReference
  2
A$C0EDA5930
 10
8034.779814621138
 20
3509.784245333853
 30
0.0
  0
INSERT
  5
137E9
330
747D
100
AcDbEntity
  8
部品1
 48
50.0
100
AcDbBlockReference
  2
A$C0EDA5930
 10
8034.779814621138
 20
3594.784245333853
 30
0.0
  0
LINE
  5
137EA
330
747D
100
AcDbEntity
  8
部品1
 48
50.0
100
AcDbLine
 10
8009.779779203391
 20
3488.78420630653
 30
0.0
 11
8077.779779203392
 21
3488.78420630653
 31
0.0
  0
LINE
  5
137EB
330
747D
100
AcDbEntity
  8
部品1
 48
50.0
100
AcDbLine
 10
8009.779779203391
 20
3488.78420630653
 30
0.0
 11
8009.779779203391
 21
3541.94973054748
 31
0.0
  0
LINE
  5
137EC
330
747D
100
AcDbEntity
  8
部品1
 48
50.0
100
AcDbLine
 10
8077.779779203392
 20
3488.78420630653
 30
0.0
 11
8077.779779203394
 21
3543.076206684024
 31
0.0
  0
LINE
  5
137ED
330
747D
100
AcDbEntity
  8
部品1
 48
50.0
100
AcDbLine
 10
8245.602154258362
 20
3647.218132504843
 30
0.0
 11
8286.556158796974
 21
3645.276609326715
 31
0.0
  0
LINE
  5
137EE
330
747D
100
AcDbEntity
  8
部品1
 48
50.0
100
AcDbLine
 10
8231.145518986894
 20
3649.405168753593
 30
0.0
 11
8245.673185594148
 21
3648.716449744062
 31
0.0
  0
LINE
  5
137EF
330
747D
100
AcDbEntity
  8
部品1
 48
50.0
100
AcDbLine
 10
8187.751972708355
 20
3647.958413429255
 30
0.0
 11
8230.979779203392
 21
3645.909095195416
 31
0.0
  0
ARC
  5
137F0
330
747D
100
AcDbEntity
  8
部品1
 48
50.0
100
AcDbCircle
 10
8223.406063025301
 20
3697.32542356738
 30
0.0
 40
10.0
100
AcDbArc
 50
357.2857877838801
 51
87.28578778387818
  0
LINE
  5
137F1
330
747D
100
AcDbEntity
  8
部品1
 48
50.0
100
AcDbLine
 10
9747.779779203348
 20
1900.500402189582
 30
0.0
 11
9747.779779203407
 21
3483.006671804548
 31
0.0
  0
LINE
  5
137F2
330
747D
100
AcDbEntity
  8
部品1
 48
50.0
100
AcDbLine
 10
9807.779779203222
 20
1900.500402189582
 30
0.0
 11
9807.779779203411
 21
3483.006671804548
 31
0.0
  0
LINE
  5
137F3
330
747D
100
AcDbEntity
  8
部品1
 48
50.0
100
AcDbLine
 10
9663.779779203403
 20
3410.561984084305
 30
0.0
 11
9663.779779203403
 21
1808.039790849967
 31
0.0
  0
LINE
  5
137F4
330
747D
100
AcDbEntity
  8
部品1
 48
50.0
100
AcDbLine
 10
9723.779779203397
 20
3410.561984084305
 30
0.0
 11
9723.779779203397
 21
1808.039790849967
 31
0.0
  0
DIMENSION
  5
137F5
330
747D
100
AcDbEntity
  8
寸法
 48
50.0
100
AcDbDimension
  2
*D20
 10
10423.67727552266
 20
1758.039790849968
 30
0.0
 11
10423.67727552266
 21
2782.0361964347
 31
0.0
 12
-1189.999999818762
 22
15459.1471491774
 32
0.0
 70
   160
 71
     5
 42
-1.0
  3
INABA_S30G
100
AcDbAlignedDimension
 13
9992.813085720245
 23
3806.03260201943
 33
0.0
 14
10108.00765685977
 24
1758.039790849968
 34
0.0
 50
90.0
100
AcDbRotatedDimension
  0
LINE
  5
137F9
330
747D
100
AcDbEntity
  8
点線
 48
50.0
100
AcDbLine
 10
9723.779779203397
 20
1808.039790849967
 30
0.0
 11
9723.7797792034
 21
1488.039790849966
 31
0.0
  0
LINE
  5
137FA
330
747D
100
AcDbEntity
  8
点線
 48
50.0
100
AcDbLine
 10
9663.779779203403
 20
1808.039790849967
 30
0.0
 11
9663.779779203302
 21
1488.039790849966
 31
0.0
  0
LINE
  5
137FB
330
747D
100
AcDbEntity
  8
点線
 48
50.0
100
AcDbLine
 10
9663.779779203302
 20
1488.039790849966
 30
0.0
 11
9723.7797792034
 21
1488.039790849966
 31
0.0
  0
LINE
  5
137FC
330
747D
100
AcDbEntity
  8
細線
 48
50.0
100
AcDbLine
 10
9733.901219300902
 20
1758.039790849968
 30
0.0
 11
9833.901219300898
 21
1808.039790849969
 31
0.0
  0
LINE
  5
137FD
330
747D
100
AcDbEntity
  8
細線
 48
50.0
100
AcDbLine
 10
9760.841999300899
 20
1758.039790849968
 30
0.0
 11
9860.841999300898
 21
1808.039790849969
 31
0.0
  0
LINE
  5
137FF
330
747D
100
AcDbEntity
  8
部品1
 48
50.0
100
AcDbLine
 10
9809.779779203401
 20
1900.500402189582
 30
0.0
 11
9745.779779203401
 21
1900.500402189582
 31
0.0
  0
LINE
  5
13800
330
747D
100
AcDbEntity
  8
部品1
 48
50.0
100
AcDbLine
 10
9809.779779203394
 20
1900.500402189582
 30
0.0
 11
9809.779779203401
 21
1878.500402189582
 31
0.0
  0
ARC
  5
13801
330
747D
100
AcDbEntity
  8
部品1
 48
50.0
100
AcDbCircle
 10
9785.779779203403
 20
1868.814619467007
 30
0.0
 40
40.0
100
AcDbArc
 50
180.000000000008
 51
239.365078268689
  0
LINE
  5
13802
330
747D
100
AcDbEntity
  8
部品1
 48
50.0
100
AcDbLine
 10
9745.779779203395
 20
1900.500402189582
 30
0.0
 11
9745.779779203395
 21
1868.814619467007
 31
0.0
  0
LINE
  5
13803
330
747D
100
AcDbEntity
  8
部品1
 48
50.0
100
AcDbLine
 10
9765.472686390229
 20
1834.352615896218
 30
0.0
 11
9765.397141493959
 21
1834.397355194471
 31
0.0
  0
LINE
  5
13804
330
747D
100
AcDbEntity
  8
部品1
 48
50.0
100
AcDbLine
 10
9747.779779203341
 20
1900.500402189582
 30
0.0
 11
9807.779779203215
 21
1900.500402189582
 31
0.0
  0
LINE
  5
13805
330
747D
100
AcDbEntity
  8
部品1
 48
50.0
100
AcDbLine
 10
9723.779779203205
 20
1900.500402189588
 30
0.0
 11
9807.779779203215
 21
1900.500402189582
 31
0.0
  0
LINE
  5
13806
330
747D
100
AcDbEntity
  8
部品1
 48
50.0
100
AcDbLine
 10
9723.779779203393
 20
1916.500402189589
 30
0.0
 11
9807.779779203215
 21
1916.500402189582
 31
0.0
  0
LINE
  5
13807
330
747D
100
AcDbEntity
  8
細線
 48
50.0
100
AcDbLine
 10
9809.779779203404
 20
1878.500402189581
 30
0.0
 11
9765.472686390221
 21
1834.352615896214
 31
0.0
  0
LINE
  5
13808
330
747D
100
AcDbEntity
  8
細線
 48
50.0
100
AcDbLine
 10
9817.165095575806
 20
1871.802245527197
 30
0.0
 11
9780.057166189173
 21
1828.039790849966
 31
0.0
  0
LINE
  5
13809
330
747D
100
AcDbEntity
  8
細線
 48
50.0
100
AcDbLine
 10
9817.165095575809
 20
1871.802245527197
 30
0.0
 11
9808.31661851033
 21
1877.042502302915
 31
0.0
  0
LINE
  5
1380A
330
747D
100
AcDbEntity
  8
細線
 48
50.0
100
AcDbLine
 10
9780.057166189173
 20
1828.039790849967
 30
0.0
 11
9766.935847083303
 21
1835.810515782884
 31
0.0
  0
LINE
  5
1380B
330
747D
100
AcDbEntity
  8
細線
 48
50.0
100
AcDbLine
 10
9723.779779203393
 20
1805.681340931664
 30
0.0
 11
9726.138229121698
 21
1808.039790849966
 31
0.0
  0
LINE
  5
1380C
330
747D
100
AcDbEntity
  8
細線
 48
50.0
100
AcDbLine
 10
9706.9604393009
 20
1758.039790849968
 30
0.0
 11
9806.960439300896
 21
1808.039790849969
 31
0.0
  0
LINE
  5
1380D
330
747D
100
AcDbEntity
  8
部品1
 48
50.0
100
AcDbLine
 10
9883.779779203349
 20
1808.039790849967
 30
0.0
 11
9893.779779203349
 21
1798.039790849967
 31
0.0
  0
LINE
  5
1380E
330
747D
100
AcDbEntity
  8
部品1
 48
50.0
100
AcDbLine
 10
9893.779779203349
 20
1798.039790849967
 30
0.0
 11
9893.779779203349
 21
1758.039790849968
 31
0.0
  0
LINE
  5
1380F
330
747D
100
AcDbEntity
  8
部品1
 48
50.0
100
AcDbLine
 10
9723.779779203393
 20
3394.561984084304
 30
0.0
 11
9807.779779203404
 21
3394.561984084298
 31
0.0
  0
LINE
  5
13810
330
747D
100
AcDbEntity
  8
部品1
 48
50.0
100
AcDbLine
 10
9028.627190132757
 20
3611.598630269637
 30
0.0
 11
9493.545518986904
 21
3589.558057642479
 31
0.0
  0
LINE
  5
13811
330
747D
100
AcDbEntity
  8
部品1
 48
50.0
100
AcDbLine
 10
9034.540507287351
 20
3736.332663999504
 30
0.0
 11
9028.556158796972
 21
3610.100313030422
 31
0.0
  0
LINE
  5
13812
330
747D
100
AcDbEntity
  8
部品1
 48
50.0
100
AcDbLine
 10
8993.586502748733
 20
3738.274187177633
 30
0.0
 11
8987.602154258359
 21
3612.04183620855
 31
0.0
  0
LINE
  5
13813
330
747D
100
AcDbEntity
  8
部品1
 48
50.0
100
AcDbLine
 10
8987.602154258359
 20
3612.041836208546
 30
0.0
 11
9028.556158796972
 21
3610.100313030419
 31
0.0
  0
DIMENSION
  5
13814
330
747D
100
AcDbEntity
  8
寸法
 48
50.0
100
AcDbDimension
  2
*D21
 10
9992.813085720245
 20
4177.040344344641
 30
0.0
 11
9842.81308572025
 21
4177.040344344641
 31
0.0
 12
-2618.697618457544
 22
9865.216339431514
 32
0.0
 70
   160
 71
     5
 42
-1.0
  3
INABA_S30G
100
AcDbAlignedDimension
 13
9692.813085720253
 23
3682.597528174238
 33
0.0
 14
9992.813085720245
 24
3806.03260201943
 34
0.0
100
AcDbRotatedDimension
  0
INSERT
  5
13815
330
747D
100
AcDbEntity
  8
部品1
 48
50.0
100
AcDbBlockReference
  2
A$C0EDA5930
 10
9604.869561862882
 20
3604.887540441175
 30
0.0
  0
LINE
  5
13816
330
747D
100
AcDbEntity
  8
部品1
 48
50.0
100
AcDbLine
 10
9506.25716845345
 20
3646.520009573917
 30
0.0
 11
9715.756126043288
 21
3636.588207140027
 31
0.0
  0
ARC
  5
13817
330
747D
100
AcDbEntity
  8
部品1
 48
50.0
100
AcDbCircle
 10
9539.779779203412
 20
3463.727508325254
 30
0.0
 40
120.0
100
AcDbArc
 50
0.0
 51
87.28578778387857
  0
LINE
  5
13818
330
747D
100
AcDbEntity
  8
部品1
 48
50.0
100
AcDbLine
 10
9493.379779203403
 20
3586.061984084304
 30
0.0
 11
9545.46228606622
 21
3583.59288746266
 31
0.0
  0
INSERT
  5
13819
330
747D
100
AcDbEntity
  8
部品1
 48
50.0
100
AcDbBlockReference
  2
A$C0EDA5930
 10
9524.959309104612
 20
3608.675878349716
 30
0.0
  0
ARC
  5
1381A
330
747D
100
AcDbEntity
  8
部品1
 48
50.0
100
AcDbCircle
 10
9505.783626214881
 20
3636.531227979133
 30
0.0
 40
10.0
100
AcDbArc
 50
87.28578778387824
 51
177.2857877838809
  0
LINE
  5
1381B
330
747D
100
AcDbEntity
  8
部品1
 48
50.0
100
AcDbLine
 10
9493.379779203403
 20
3586.061984084304
 30
0.0
 11
9495.794844620098
 21
3637.0047702177
 31
0.0
  0
LINE
  5
1381C
330
747D
100
AcDbEntity
  8
部品1
 48
50.0
100
AcDbLine
 10
9935.979779203409
 20
3628.274699728167
 30
0.0
 11
9958.479779203415
 21
3692.294061479041
 31
0.0
  0
LINE
  5
1381D
330
747D
100
AcDbEntity
  8
部品1
 48
50.0
100
AcDbLine
 10
9853.479779203411
 20
3697.508876293856
 30
0.0
 11
9875.979779203415
 21
3628.274699728166
 31
0.0
  0
ARC
  5
1381E
330
747D
100
AcDbEntity
  8
部品1
 48
50.0
100
AcDbCircle
 10
9971.445840124033
 20
3704.931011489541
 30
0.0
 40
13.0
100
AcDbArc
 50
267.2857877838783
 51
355.2936942109112
  0
LINE
  5
1381F
330
747D
100
AcDbEntity
  8
部品1
 48
50.0
100
AcDbLine
 10
9735.586502748731
 20
3703.097890881337
 30
0.0
 11
9729.602154258362
 21
3576.865539912253
 31
0.0
  0
LINE
  5
13820
330
747D
100
AcDbEntity
  8
部品1
 48
50.0
100
AcDbLine
 10
9776.54050728737
 20
3701.156367703207
 30
0.0
 11
9770.53248168503
 21
3574.424577654324
 31
0.0
  0
LINE
  5
13821
330
747D
100
AcDbEntity
  8
細線
 48
50.0
100
AcDbLine
 10
9829.642725240658
 20
3510.769931943802
 30
0.0
 11
9785.335632427475
 21
3554.91771823717
 31
0.0
  0
LINE
  5
13822
330
747D
100
AcDbEntity
  8
部品1
 48
50.0
100
AcDbLine
 10
9829.642725240658
 20
3510.769931943802
 30
0.0
 11
9809.779779203415
 21
3499.006671804551
 31
0.0
  0
LINE
  5
13823
330
747D
100
AcDbEntity
  8
部品1
 48
50.0
100
AcDbLine
 10
9875.979779203412
 20
3606.274699728167
 30
0.0
 11
9786.798793120553
 21
3553.459818350503
 31
0.0
  0
LINE
  5
13824
330
747D
100
AcDbEntity
  8
部品1
 48
50.0
100
AcDbLine
 10
9785.335632427473
 20
3554.917718237169
 30
0.0
 11
9765.397141493966
 21
3543.109718799661
 31
0.0
  0
ARC
  5
13825
330
747D
100
AcDbEntity
  8
部品1
 48
50.0
100
AcDbCircle
 10
9785.77977920341
 20
3508.692454527124
 30
0.0
 40
40.0
100
AcDbArc
 50
120.6349217313126
 51
179.9999999999936
  0
LINE
  5
13826
330
747D
100
AcDbEntity
  8
部品1
 48
50.0
100
AcDbLine
 10
9745.779779203408
 20
3499.006671804548
 30
0.0
 11
9745.779779203411
 21
3508.69245452713
 31
0.0
  0
LINE
  5
13827
330
747D
100
AcDbEntity
  8
細線
 48
50.0
100
AcDbLine
 10
9809.779779203411
 20
3483.006671804548
 30
0.0
 11
9745.779779203411
 21
3483.006671804548
 31
0.0
  0
LINE
  5
13828
330
747D
100
AcDbEntity
  8
部品1
 48
50.0
100
AcDbLine
 10
9727.779779203403
 20
3410.561984084303
 30
0.0
 11
9807.779779203404
 21
3410.561984084298
 31
0.0
  0
LINE
  5
13829
330
747D
100
AcDbEntity
  8
部品1
 48
50.0
100
AcDbLine
 10
9809.779779203408
 20
3483.006671804548
 30
0.0
 11
9809.779779203411
 21
3499.006671804548
 31
0.0
  0
LINE
  5
1382A
330
747D
100
AcDbEntity
  8
部品1
 48
50.0
100
AcDbLine
 10
9745.779779203408
 20
3483.006671804548
 30
0.0
 11
9745.779779203408
 21
3499.006671804548
 31
0.0
  0
LINE
  5
1382B
330
747D
100
AcDbEntity
  8
部品1
 48
50.0
100
AcDbLine
 10
9773.468443564166
 20
3636.355023542047
 30
0.0
 11
9770.556158796976
 21
3574.924016734127
 31
0.0
  0
LINE
  5
1382C
330
747D
100
AcDbEntity
  8
部品1
 48
50.0
100
AcDbLine
 10
9819.84635718989
 20
3667.907964140465
 30
0.0
 11
9802.825618357793
 21
3580.329452228846
 31
0.0
  0
LINE
  5
1382D
330
747D
100
AcDbEntity
  8
部品1
 48
50.0
100
AcDbLine
 10
9725.282583804718
 20
3578.453618639623
 30
0.0
 11
9725.282583804721
 21
3626.599425545241
 31
0.0
  0
LINE
  5
1382E
330
747D
100
AcDbEntity
  8
部品1
 48
50.0
100
AcDbLine
 10
9792.821297295978
 20
3573.367922692017
 30
0.0
 11
9770.532481685012
 21
3574.424577654324
 31
0.0
  0
LINE
  5
1382F
330
747D
100
AcDbEntity
  8
部品1
 48
50.0
100
AcDbLine
 10
9729.602154258362
 20
3576.865539912251
 30
0.0
 11
9770.556158796976
 21
3574.924016734124
 31
0.0
  0
LINE
  5
13830
330
747D
100
AcDbEntity
  8
部品1
 48
50.0
100
AcDbLine
 10
9725.282583804718
 20
3578.572004199265
 30
0.0
 11
9729.673185594148
 21
3578.36385715147
 31
0.0
  0
LINE
  5
13831
330
747D
100
AcDbEntity
  8
部品1
 48
50.0
100
AcDbLine
 10
9727.779779203416
 20
3578.453618639623
 30
0.0
 11
9725.282583804718
 21
3578.453618639623
 31
0.0
  0
ARC
  5
13832
330
747D
100
AcDbEntity
  8
部品1
 48
50.0
100
AcDbCircle
 10
9793.294839534546
 20
3583.356704286801
 30
0.0
 40
10.0
100
AcDbArc
 50
267.2857877838496
 51
342.378640939928
  0
ARC
  5
13833
330
747D
100
AcDbEntity
  8
部品1
 48
50.0
100
AcDbCircle
 10
9715.282583804722
 20
3626.599425545243
 30
0.0
 40
10.0
100
AcDbArc
 50
359.9999999999964
 51
87.28578778387785
  0
ARC
  5
13834
330
747D
100
AcDbEntity
  8
部品1
 48
50.0
100
AcDbCircle
 10
9815.080967778268
 20
3669.421590169443
 30
0.0
 40
5.0
100
AcDbArc
 50
342.3786409399284
 51
87.28578778385307
  0
INSERT
  5
13835
330
747D
100
AcDbEntity
  8
部品1
 48
50.0
100
AcDbBlockReference
  2
A$C0EDA5930
 10
9684.779814621151
 20
3516.562023111627
 30
0.0
  0
INSERT
  5
13836
330
747D
100
AcDbEntity
  8
部品1
 48
50.0
100
AcDbBlockReference
  2
A$C0EDA5930
 10
9684.779814621151
 20
3601.099202532633
 30
0.0
  0
LINE
  5
13837
330
747D
100
AcDbEntity
  8
部品1
 48
50.0
100
AcDbLine
 10
9659.779779203404
 20
3410.561984084303
 30
0.0
 11
9659.779779203404
 21
3463.727508325254
 31
0.0
  0
INSERT
  5
13838
330
747D
100
AcDbEntity
  8
部品1
 48
50.0
100
AcDbBlockReference
  2
A$C0EDA5930
 10
9684.779814621151
 20
3431.562023111627
 30
0.0
  0
LINE
  5
13839
330
747D
100
AcDbEntity
  8
部品1
 48
50.0
100
AcDbLine
 10
9659.779779203404
 20
3410.561984084303
 30
0.0
 11
9727.779779203403
 21
3410.561984084303
 31
0.0
  0
LINE
  5
1383A
330
747D
100
AcDbEntity
  8
部品1
 48
50.0
100
AcDbLine
 10
9727.779779203403
 20
3410.561984084303
 30
0.0
 11
9727.779779203416
 21
3578.453618639623
 31
0.0
  0
LINE
  5
1383B
330
747D
100
AcDbEntity
  8
部品1
 48
50.0
100
AcDbLine
 10
9922.023441766974
 20
3567.804176756248
 30
0.0
 11
9828.17956454758
 21
3512.227831830473
 31
0.0
  0
LINE
  5
1383C
330
747D
100
AcDbEntity
  8
細線
 48
50.0
100
AcDbLine
 10
9917.360550630441
 20
3565.042713208134
 30
0.0
 11
9875.979779203412
 21
3606.274699728167
 31
0.0
  0
LINE
  5
1383D
330
747D
100
AcDbEntity
  8
部品1
 48
50.0
100
AcDbLine
 10
9935.979779203409
 20
3606.274699728165
 30
0.0
 11
9935.979779203409
 21
3628.274699728167
 31
0.0
  0
LINE
  5
1383E
330
747D
100
AcDbEntity
  8
部品1
 48
50.0
100
AcDbLine
 10
9935.979779203412
 20
3606.274699728167
 30
0.0
 11
9935.979779203409
 21
3593.089683072888
 31
0.0
  0
LINE
  5
1383F
330
747D
100
AcDbEntity
  8
仕様書枠
 48
50.0
100
AcDbLine
 10
9875.979779203415
 20
3628.274699728166
 30
0.0
 11
9875.979779203415
 21
3628.274699728166
 31
0.0
  0
LINE
  5
13840
330
747D
100
AcDbEntity
  8
部品1
 48
50.0
100
AcDbLine
 10
9875.979779203408
 20
3606.274699728167
 30
0.0
 11
9875.979779203415
 21
3628.274699728166
 31
0.0
  0
LINE
  5
13841
330
747D
100
AcDbEntity
  8
部品1
 48
50.0
100
AcDbLine
 10
9922.023441766974
 20
3567.804176756248
 30
0.0
 11
9922.023441766974
 21
3567.804176756248
 31
0.0
  0
LINE
  5
13842
330
747D
100
AcDbEntity
  8
部品1
 48
50.0
100
AcDbLine
 10
9905.979779203413
 20
3567.804176756251
 30
0.0
 11
9905.979779203407
 21
3567.804176756248
 31
0.0
  0
ARC
  5
13843
330
747D
100
AcDbEntity
  8
部品1
 48
50.0
100
AcDbCircle
 10
9905.979779203407
 20
3593.089683072892
 30
0.0
 40
30.0
100
AcDbArc
 50
296.7694582856564
 51
359.9999999999946
  0
LINE
  5
13844
330
747D
100
AcDbEntity
  8
細線
 48
50.0
100
AcDbLine
 10
9875.979779203412
 20
3628.274699728167
 30
0.0
 11
9935.979779203409
 21
3628.274699728166
 31
0.0
  0
LINE
  5
13845
330
747D
100
AcDbEntity
  8
仕様書枠
 48
50.0
100
AcDbLine
 10
9875.979779203415
 20
3628.274699728166
 30
0.0
 11
9875.979779203415
 21
3628.274699728166
 31
0.0
  0
LINE
  5
13846
330
747D
100
AcDbEntity
  8
部品1
 48
50.0
100
AcDbLine
 10
9905.979779203413
 20
3567.804176756251
 30
0.0
 11
9905.979779203407
 21
3567.804176756248
 31
0.0
  0
LINE
  5
13847
330
747D
100
AcDbEntity
  8
部品1
 48
50.0
100
AcDbLine
 10
9991.708714110766
 20
3792.617948944212
 30
0.0
 11
9984.402008841652
 21
3703.864384956662
 31
0.0
  0
LINE
  5
13848
330
747D
100
AcDbEntity
  8
部品1
 48
50.0
100
AcDbLine
 10
9969.824994817827
 20
3807.122407810359
 30
0.0
 11
9960.383746436383
 21
3692.440836365772
 31
0.0
  0
ARC
  5
13849
330
747D
100
AcDbEntity
  8
部品1
 48
50.0
100
AcDbCircle
 10
9978.752545393149
 20
3793.68457547709
 30
0.0
 40
13.0
100
AcDbArc
 50
355.2936942109123
 51
87.28578778387824
  0
LINE
  5
13AE9
330
747D
100
AcDbEntity
  8
細線
 48
50.0
100
AcDbLine
 10
8493.625117149973
 20
1758.03979084997
 30
0.0
 11
8593.625117149972
 21
1808.03979084997
 31
0.0
  0
LINE
  5
13AEA
330
747D
100
AcDbEntity
  8
細線
 48
50.0
100
AcDbLine
 10
8547.506677149977
 20
1758.03979084997
 30
0.0
 11
8647.506677149969
 21
1808.039790849968
 31
0.0
  0
LINE
  5
13AEB
330
747D
100
AcDbEntity
  8
細線
 48
50.0
100
AcDbLine
 10
8520.565897149973
 20
1758.03979084997
 30
0.0
 11
8620.565897149973
 21
1808.03979084997
 31
0.0
  0
LINE
  5
13B24
330
747D
100
AcDbEntity
  8
部品1
 48
50.0
100
AcDbLine
 10
5192.252486380484
 20
1807.999300294629
 30
0.0
 11
2432.252488254725
 21
1808.020581166844
 31
0.0
  0
LINE
  5
13B35
330
747D
100
AcDbEntity
  8
部品1
 48
50.0
100
AcDbLine
 10
4203.249900335241
 20
5109.627768532559
 30
0.0
 11
5237.252488332259
 21
5109.627768532557
 31
0.0
  0
LINE
  5
13B36
330
747D
100
AcDbEntity
  8
部品1
 48
50.0
100
AcDbLine
 10
4184.493456865063
 20
5179.627768532557
 30
0.0
 11
5207.252488332252
 21
5179.627768532554
 31
0.0
  0
LINE
  5
13B5D
330
747D
100
AcDbEntity
  8
寸法
 48
50.0
100
AcDbLine
 10
2622.25248833225
 20
1473.039790849927
 30
0.0
 11
2622.25248833225
 21
1282.214764168996
 31
0.0
  0
INSERT
  5
13B60
330
747D
100
AcDbEntity
  8
寸法
 48
50.0
100
AcDbBlockReference
  2
_DOTSMALL
 10
2622.25248833225
 20
1327.214764168996
 30
0.0
 41
75.0
 42
75.0
 43
75.0
  0
POINT
  5
13B64
330
747D
100
AcDbEntity
  8
寸法
 48
50.0
100
AcDbPoint
 10
2622.25248833225
 20
1327.214764168996
 30
0.0
  0
LINE
  5
13BDF
330
747D
100
AcDbEntity
  8
細線
 48
50.0
100
AcDbLine
 10
5249.452567741919
 20
3868.829467365277
 30
0.0
 11
2375.052421282484
 21
3868.850416666385
 31
0.0
  0
LINE
  5
13BEA
330
747D
100
AcDbEntity
  8
Ｇ．Ｌ
 48
50.0
100
AcDbLine
 10
4585.355861401603
 20
1758.039790849943
 30
0.0
 11
10556.20496785366
 21
1758.03979084996
 31
0.0
  0
DIMENSION
  5
13C3F
330
747D
100
AcDbEntity
  8
寸法
 48
50.0
100
AcDbDimension
  2
*D22
 10
5002.252486380488
 20
4177.007042619841
 30
0.0
 11
3812.25248731761
 21
4177.007042619841
 31
0.0
 70
   160
 71
     5
 42
2379.999998125756
  3
INABA_S30G
100
AcDbAlignedDimension
 13
2622.252488254732
 23
3785.700394880208
 33
0.0
 14
5002.252486380488
 24
3785.679114007996
 34
0.0
100
AcDbRotatedDimension
  0
DIMENSION
  5
13C4C
330
747D
100
AcDbEntity
  8
寸法
 48
50.0
100
AcDbDimension
  2
*D23
 10
5252.252486380488
 20
4496.213354018894
 30
0.0
 11
3812.25248731761
 21
4571.222212286609
 31
0.0
 12
-1189.999999818762
 22
0.0207688624473121
 32
0.0
 70
    32
 71
     5
 42
-1.0
  3
INABA_S30G
100
AcDbAlignedDimension
 13
2372.252488254732
 23
3933.369500068426
 33
0.0
 14
5252.252486380488
 24
3933.348219196215
 34
0.0
100
AcDbRotatedDimension
  0
LINE
  5
13C4D
330
747D
100
AcDbEntity
  8
部品1
 48
50.0
100
AcDbLine
 10
3479.787080771207
 20
7809.627768532561
 30
0.0
 11
5237.252488332252
 21
7809.627768532559
 31
0.0
  0
LINE
  5
13C4E
330
747D
100
AcDbEntity
  8
部品1
 48
50.0
100
AcDbLine
 10
3513.012780632668
 20
7685.627768532556
 30
0.0
 11
5207.252488332255
 21
7685.627768532559
 31
0.0
  0
INSERT
  5
13C6A
330
747D
100
AcDbEntity
  8
寸法
 48
50.0
100
AcDbBlockReference
  2
A$C115369B0
 10
2439.144817987392
 20
1758.020581166845
 30
0.0
  0
TEXT
  5
13C7C
330
747D
100
AcDbEntity
  8
文字
 62
     7
 48
50.0
100
AcDbText
 10
9907.054008162901
 20
171.4076431926769
 30
0.0
 40
75.0
  1
○間口奥行寸法は柱芯寸法です。   
  7
STYLE2
100
AcDbText
  0
DIMENSION
  5
13CFC
330
747D
100
AcDbEntity
  8
寸法
 48
50.0
100
AcDbDimension
  2
*D25
 10
5610.905270186114
 20
5179.627768532554
 30
0.0
 11
5535.896411918397
 21
6432.627768532558
 31
0.0
 70
    32
 71
     5
 42
2506.000000000004
  3
INABA_S30G
100
AcDbAlignedDimension
 13
5207.252488332255
 23
7685.627768532559
 33
0.0
 14
5207.252488332252
 24
5179.627768532554
 34
0.0
 50
90.0
100
AcDbRotatedDimension
  0
DIMENSION
  5
13CFD
330
747D
100
AcDbEntity
  8
寸法
 48
50.0
100
AcDbDimension
  2
*D26
 10
5966.552467917835
 20
5109.627768532555
 30
0.0
 11
5966.552467917833
 21
6459.627768532556
 31
0.0
 70
   160
 71
     5
 42
2700.000000000004
  3
INABA_S30G
100
AcDbAlignedDimension
 13
5237.252488332252
 23
7809.627768532559
 33
0.0
 14
5232.252488332246
 24
5109.627768532555
 34
0.0
 50
90.0
100
AcDbRotatedDimension
  0
DIMENSION
  5
13CFE
330
747D
100
AcDbEntity
  8
寸法
 48
50.0
100
AcDbDimension
  2
*D27
 10
5610.905270186115
 20
7685.627768532559
 30
0.0
 11
5610.905270186114
 21
7991.12776853256
 31
0.0
 70
   160
 71
     5
 42
124.0
  3
INABA_S30G
100
AcDbAlignedDimension
 13
5237.252488332252
 23
7809.627768532559
 33
0.0
 14
5207.252488332255
 24
7685.627768532559
 34
0.0
 50
90.0
100
AcDbRotatedDimension
  0
DIMENSION
  5
13CFF
330
747D
100
AcDbEntity
  8
寸法
 48
50.0
100
AcDbDimension
  2
*D28
 10
5610.905270186115
 20
5109.627768532555
 30
0.0
 11
5610.905270186114
 21
4955.092335461689
 31
0.0
 70
   160
 71
     5
 42
70.0
  3
INABA_S30G
100
AcDbAlignedDimension
 13
5207.252488332252
 23
5179.627768532554
 33
0.0
 14
5232.252488332252
 24
5109.627768532555
 34
0.0
 50
90.0
100
AcDbRotatedDimension
  0
DIMENSION
  5
13D7C
330
747D
100
AcDbEntity
  8
寸法
 48
50.0
100
AcDbDimension
  2
*D29
 10
6519.458737328354
 20
1488.039790849966
 30
0.0
 11
6519.458737328354
 21
1623.039790849965
 31
0.0
 12
-185.5274124937705
 22
1007.801668528662
 32
0.0
 70
   160
 71
     5
 42
-1.0
  3
INABA_S30G
100
AcDbAlignedDimension
 13
6860.975729636294
 23
1758.039790849966
 33
0.0
 14
8013.779779203373
 24
1488.039790849966
 34
0.0
 50
90.0
100
AcDbRotatedDimension
  0
TEXT
  5
13F23
330
747D
100
AcDbEntity
  8
文字
 62
     7
 48
50.0
100
AcDbText
 10
10888.44172155001
 20
6965.825605836129
 30
0.0
 40
81.11400000000001
  1
F12            2.3
  7
STYLE1
100
AcDbText
  0
TEXT
  5
13F24
330
747D
100
AcDbEntity
  8
文字
 62
     7
 48
50.0
100
AcDbText
 10
10872.35681695962
 20
7103.71940583613
 30
0.0
 40
81.11400000000001
  1
Y10            0.7
  7
STYLE1
100
AcDbText
  0
TEXT
  5
13F25
330
747D
100
AcDbEntity
  8
文字
 62
     7
 48
50.0
100
AcDbText
 10
10872.35681695962
 20
7241.613205836131
 30
0.0
 40
81.11400000000001
  1
Y10            0.7
  7
STYLE1
100
AcDbText
  0
TEXT
  5
13F26
330
747D
100
AcDbEntity
  8
文字
 62
     7
 48
50.0
100
AcDbText
 10
10872.35681695962
 20
7379.50700583613
 30
0.0
 40
81.11400000000001
  1
Y10            0.5
  7
STYLE1
100
AcDbText
  0
TEXT
  5
13F27
330
747D
100
AcDbEntity
  8
文字
 62
     7
 48
50.0
100
AcDbText
 10
10872.35681695962
 20
7517.400805836129
 30
0.0
 40
81.11400000000001
  1
F12            0.6
  7
STYLE1
100
AcDbText
  0
TEXT
  5
13F28
330
747D
100
AcDbEntity
  8
文字
 62
     7
 48
50.0
100
AcDbText
 10
10888.44172155
 20
7793.18840583613
 30
0.0
 40
81.11400000000001
  1
F12            2.3
  7
STYLE1
100
AcDbText
  0
TEXT
  5
13F29
330
747D
100
AcDbEntity
  8
文字
 62
     7
 48
50.0
100
AcDbText
 10
9748.510891051182
 20
7655.294605836129
 30
0.0
 40
81.11400000000001
  1
母屋
  7
STYLE1
100
AcDbText
  0
TEXT
  5
13F2A
330
747D
100
AcDbEntity
  8
文字
 62
     7
 48
50.0
100
AcDbText
 10
10888.44172155001
 20
7655.294605836129
 30
0.0
 40
81.11400000000001
  1
F12            2.3
  7
STYLE1
100
AcDbText
  0
LINE
  5
13F2B
330
747D
100
AcDbEntity
  8
部品1
100
AcDbLine
 10
9380.400000000003
 20
8182.200000000003
 30
0.0
 11
9380.400000000003
 21
6251.686800000005
 31
0.0
  0
TEXT
  5
13F2C
330
747D
100
AcDbEntity
  8
文字
 62
     7
 48
50.0
100
AcDbText
 10
10888.44172155001
 20
6690.038005836129
 30
0.0
 40
81.11400000000001
  1
硬質塩化ビニール
  7
STYLE1
100
AcDbText
  0
TEXT
  5
13F2D
330
747D
100
AcDbEntity
  8
文字
 62
     7
 48
50.0
100
AcDbText
 10
10888.44172155
 20
7931.082205836128
 30
0.0
 40
81.11400000000001
  1
PZ            2.3
  7
STYLE1
100
AcDbText
  0
LINE
  5
13F2E
330
747D
100
AcDbEntity
  8
部品1
100
AcDbLine
 10
11930.4
 20
6251.686800000003
 30
0.0
 11
9380.400000000003
 21
6251.686800000005
 31
0.0
  0
LINE
  5
13F2F
330
747D
100
AcDbEntity
  8
部品1
100
AcDbLine
 10
11930.4
 20
6803.262000000002
 30
0.0
 11
9380.400000000003
 21
6803.262000000003
 31
0.0
  0
LINE
  5
13F30
330
747D
100
AcDbEntity
  8
部品1
100
AcDbLine
 10
11930.4
 20
7216.943400000004
 30
0.0
 11
9380.400000000001
 21
7216.943400000004
 31
0.0
  0
LINE
  5
13F31
330
747D
100
AcDbEntity
  8
部品1
100
AcDbLine
 10
11930.4
 20
6527.474400000002
 30
0.0
 11
9380.400000000003
 21
6527.474400000002
 31
0.0
  0
LINE
  5
13F32
330
747D
100
AcDbEntity
  8
部品1
100
AcDbLine
 10
11930.4
 20
6389.580600000003
 30
0.0
 11
9380.400000000003
 21
6389.580600000005
 31
0.0
  0
LINE
  5
13F33
330
747D
100
AcDbEntity
  8
部品1
100
AcDbLine
 10
11930.4
 20
6665.3682
 30
0.0
 11
9380.400000000001
 21
6665.3682
 31
0.0
  0
TEXT
  5
13F34
330
747D
100
AcDbEntity
  8
文字
 62
     7
 48
50.0
100
AcDbText
 10
9495.493720430586
 20
7241.61320583613
 30
0.0
 40
81.11400000000001
  1
6
  7
STYLE1
100
AcDbText
  0
TEXT
  5
13F35
330
747D
100
AcDbEntity
  8
文字
 62
     7
 48
50.0
100
AcDbText
 10
9495.493720430578
 20
7103.719405836129
 30
0.0
 40
81.11400000000001
  1
7
  7
STYLE1
100
AcDbText
  0
TEXT
  5
13F36
330
747D
100
AcDbEntity
  8
文字
 62
     7
 48
50.0
100
AcDbText
 10
9495.493720430578
 20
6827.931805836128
 30
0.0
 40
81.11400000000001
  1
9
  7
STYLE1
100
AcDbText
  0
TEXT
  5
13F37
330
747D
100
AcDbEntity
  8
文字
 62
     7
 48
50.0
100
AcDbText
 10
9495.493720430578
 20
6965.825605836129
 30
0.0
 40
81.11400000000001
  1
8
  7
STYLE1
100
AcDbText
  0
TEXT
  5
13F38
330
747D
100
AcDbEntity
  8
文字
 62
     7
 48
50.0
100
AcDbText
 10
9477.313762268375
 20
6690.038005836128
 30
0.0
 40
81.11400000000001
  1
10
  7
STYLE1
100
AcDbText
  0
TEXT
  5
13F39
330
747D
100
AcDbEntity
  8
文字
 62
     7
 48
50.0
100
AcDbText
 10
9495.493720430586
 20
7379.507005836128
 30
0.0
 40
81.11400000000001
  1
5
  7
STYLE1
100
AcDbText
  0
TEXT
  5
13F3A
330
747D
100
AcDbEntity
  8
文字
 62
     7
 48
50.0
100
AcDbText
 10
9748.510891051182
 20
7103.71940583613
 30
0.0
 40
81.11400000000001
  1
鼻隠シ
  7
STYLE1
100
AcDbText
  0
TEXT
  5
13F3B
330
747D
100
AcDbEntity
  8
文字
 62
     7
 48
50.0
100
AcDbText
 10
9748.510891051182
 20
7793.18840583613
 30
0.0
 40
81.11400000000001
  1
梁
  7
STYLE1
100
AcDbText
  0
TEXT
  5
13F3C
330
747D
100
AcDbEntity
  8
文字
 62
     7
 48
50.0
100
AcDbText
 10
9748.510891051177
 20
7931.082205836128
 30
0.0
 40
81.11400000000001
  1
柱
  7
STYLE1
100
AcDbText
  0
TEXT
  5
13F3D
330
747D
100
AcDbEntity
  8
文字
 62
     7
 48
50.0
100
AcDbText
 10
10756.35413580791
 20
8068.976005836129
 30
0.0
 40
81.11400000000001
  1
材料（材質）　　単位mm
  7
STYLE1
100
AcDbText
  0
TEXT
  5
13F3E
330
747D
100
AcDbEntity
  8
文字
 62
     7
 48
50.0
100
AcDbText
 10
9888.635855497732
 20
8068.976005836129
 30
0.0
 40
81.11400000000001
  1
部　　品　　名
  7
STYLE1
100
AcDbText
  0
TEXT
  5
13F3F
330
747D
100
AcDbEntity
  8
文字
 62
     7
 48
50.0
100
AcDbText
 10
9495.493720430586
 20
7655.294605836129
 30
0.0
 40
81.11400000000001
  1
3
  7
STYLE1
100
AcDbText
  0
TEXT
  5
13F40
330
747D
100
AcDbEntity
  8
文字
 62
     7
 48
50.0
100
AcDbText
 10
9495.493720430586
 20
7517.400805836129
 30
0.0
 40
81.11400000000001
  1
4
  7
STYLE1
100
AcDbText
  0
TEXT
  5
13F41
330
747D
100
AcDbEntity
  8
文字
 62
     7
 48
50.0
100
AcDbText
 10
9495.493720430586
 20
7793.18840583613
 30
0.0
 40
81.11400000000001
  1
2
  7
STYLE1
100
AcDbText
  0
TEXT
  5
13F42
330
747D
100
AcDbEntity
  8
文字
 62
     7
 48
50.0
100
AcDbText
 10
9495.493720430586
 20
7931.082205836128
 30
0.0
 40
81.11400000000001
  1
1
  7
STYLE1
100
AcDbText
  0
TEXT
  5
13F43
330
747D
100
AcDbEntity
  8
文字
 62
     7
 48
50.0
100
AcDbText
 10
9435.659867331061
 20
8068.976005836129
 30
0.0
 40
81.11400000000001
  1
品番
  7
STYLE1
100
AcDbText
  0
LINE
  5
13F44
330
747D
100
AcDbEntity
  8
部品1
100
AcDbLine
 10
11930.4
 20
7630.624800000004
 30
0.0
 11
9380.400000000003
 21
7630.624800000004
 31
0.0
  0
LINE
  5
13F45
330
747D
100
AcDbEntity
  8
部品1
100
AcDbLine
 10
11930.4
 20
7354.837200000004
 30
0.0
 11
9380.400000000003
 21
7354.837200000004
 31
0.0
  0
LINE
  5
13F46
330
747D
100
AcDbEntity
  8
部品1
100
AcDbLine
 10
11930.4
 20
7492.731000000002
 30
0.0
 11
9380.400000000003
 21
7492.731000000002
 31
0.0
  0
LINE
  5
13F47
330
747D
100
AcDbEntity
  8
部品1
100
AcDbLine
 10
11930.4
 20
7906.412400000004
 30
0.0
 11
9380.400000000001
 21
7906.412400000004
 31
0.0
  0
LINE
  5
13F48
330
747D
100
AcDbEntity
  8
部品1
100
AcDbLine
 10
11930.4
 20
7768.518600000004
 30
0.0
 11
9380.400000000001
 21
7768.518600000003
 31
0.0
  0
LINE
  5
13F49
330
747D
100
AcDbEntity
  8
部品1
100
AcDbLine
 10
11930.4
 20
8044.306200000001
 30
0.0
 11
9380.400000000001
 21
8044.306200000002
 31
0.0
  0
LINE
  5
13F4A
330
747D
100
AcDbEntity
  8
部品1
100
AcDbLine
 10
9673.141230280178
 20
8182.200000000003
 30
0.0
 11
9673.141230280194
 21
6665.368200000002
 31
0.0
  0
LINE
  5
13F4B
330
747D
100
AcDbEntity
  8
部品1
100
AcDbLine
 10
10695.84492000001
 20
8182.199999999999
 30
0.0
 11
10695.84492000001
 21
6665.368200000002
 31
0.0
  0
LINE
  5
13F4C
330
747D
100
AcDbEntity
  8
部品1
100
AcDbLine
 10
11930.4
 20
6251.686800000002
 30
0.0
 11
11930.4
 21
8182.200000000003
 31
0.0
  0
LINE
  5
13F4D
330
747D
100
AcDbEntity
  8
部品1
100
AcDbLine
 10
11930.4
 20
8182.200000000003
 30
0.0
 11
9380.400000000001
 21
8182.200000000003
 31
0.0
  0
LINE
  5
13F4E
330
747D
100
AcDbEntity
  8
部品1
100
AcDbLine
 10
11930.4
 20
6941.155800000004
 30
0.0
 11
9380.400000000003
 21
6941.155800000005
 31
0.0
  0
TEXT
  5
13F4F
330
747D
100
AcDbEntity
  8
文字
 62
     7
 48
50.0
100
AcDbText
 10
9748.510891051184
 20
7517.400805836129
 30
0.0
 40
81.11400000000001
  1
腰パネル
  7
STYLE1
100
AcDbText
  0
TEXT
  5
13F50
330
747D
100
AcDbEntity
  8
文字
 62
     7
 48
50.0
100
AcDbText
 10
9748.510891051182
 20
7379.50700583613
 30
0.0
 40
81.11400000000001
  1
屋根パネル
  7
STYLE1
100
AcDbText
  0
TEXT
  5
13F51
330
747D
100
AcDbEntity
  8
文字
 62
     7
 48
50.0
100
AcDbText
 10
9748.510891051182
 20
6965.825605836129
 30
0.0
 40
81.11400000000001
  1
プレート
  7
STYLE1
100
AcDbText
  0
TEXT
  5
13F52
330
747D
100
AcDbEntity
  8
文字
 62
     7
 48
50.0
100
AcDbText
 10
9748.510891051182
 20
6827.931805836129
 30
0.0
 40
81.11400000000001
  1
車止メ棒
  7
STYLE1
100
AcDbText
  0
TEXT
  5
13F53
330
747D
100
AcDbEntity
  8
文字
 62
     7
 48
50.0
100
AcDbText
 10
9748.510891051182
 20
6690.038005836133
 30
0.0
 40
81.11400000000001
  1
雨とい(別売)
  7
STYLE1
100
AcDbText
  0
TEXT
  5
13F54
330
747D
100
AcDbEntity
  8
文字
 62
     7
 48
50.0
100
AcDbText
 10
9461.945370829132
 20
6414.250405836128
 30
0.0
 40
81.11400000000001
  1
F12→溶融亜鉛めっき鋼板(JIS G 3302)
  7
STYLE1
100
AcDbText
  0
TEXT
  5
13F55
330
747D
100
AcDbEntity
  8
文字
 62
     7
 48
50.0
100
AcDbText
 10
9461.945370829125
 20
6276.356605836127
 30
0.0
 40
81.11400000000001
  1
Y10→溶融亜鉛-5％アルミニウム合金めっき鋼板(JIS G 3317)
 41
0.9
  7
STYLE1
100
AcDbText
  0
TEXT
  5
13F56
330
747D
100
AcDbEntity
  8
文字
 62
     7
 48
50.0
100
AcDbText
 10
9461.945370829289
 20
6552.144205836128
 30
0.0
 40
81.11400000000001
  1
PZ→一般構造用角形鋼管(JIS G 3466)
 41
0.9
  7
STYLE1
100
AcDbText
  0
LINE
  5
13F57
330
747D
100
AcDbEntity
  8
部品1
100
AcDbLine
 10
11930.4
 20
7079.049600000004
 30
0.0
 11
9380.400000000001
 21
7079.049600000004
 31
0.0
  0
TEXT
  5
13F58
330
747D
100
AcDbEntity
  8
文字
 62
     7
 48
50.0
100
AcDbText
 10
9748.510891051182
 20
7241.613205836131
 30
0.0
 40
81.11400000000001
  1
妻板
  7
STYLE1
100
AcDbText
  0
TEXT
  5
13F59
330
747D
100
AcDbEntity
  8
文字
 62
     7
 48
50.0
100
AcDbText
 10
10888.44172155001
 20
6827.931805836129
 30
0.0
 40
81.11400000000001
  1
F12            1.2
  7
STYLE1
100
AcDbText
  0
LINE
  5
13F79
330
747D
100
AcDbEntity
  8
点線
 48
10.0
100
AcDbLine
 10
2522.252488332248
 20
1503.039790849963
 30
0.0
 11
2592.252488332249
 21
1503.039790849963
 31
0.0
  0
LINE
  5
13F7A
330
747D
100
AcDbEntity
  8
点線
 48
10.0
100
AcDbLine
 10
2652.252488332249
 20
1503.039790849965
 30
0.0
 11
2722.252488332248
 21
1503.039790849965
 31
0.0
  0
LINE
  5
13F7B
330
747D
100
AcDbEntity
  8
点線
 48
10.0
100
AcDbLine
 10
2652.252488332249
 20
1513.039790849965
 30
0.0
 11
2722.252488332248
 21
1513.039790849965
 31
0.0
  0
LINE
  5
13F7C
330
747D
100
AcDbEntity
  8
点線
 48
10.0
100
AcDbLine
 10
2522.252488332248
 20
1513.039790849963
 30
0.0
 11
2592.252488332249
 21
1513.039790849963
 31
0.0
  0
LINE
  5
13F7D
330
747D
100
AcDbEntity
  8
点線
 48
10.0
100
AcDbLine
 10
2722.252488332248
 20
1513.039790849965
 30
0.0
 11
2722.252488332248
 21
1503.039790849964
 31
0.0
  0
LINE
  5
13F7E
330
747D
100
AcDbEntity
  8
点線
 48
10.0
100
AcDbLine
 10
2522.252488332248
 20
1513.039790849963
 30
0.0
 11
2522.252488332248
 21
1503.039790849963
 31
0.0
  0
LINE
  5
13F80
330
747D
100
AcDbEntity
  8
点線
 48
10.0
100
AcDbLine
 10
4902.252486457977
 20
1513.018509977751
 30
0.0
 11
4902.252486457977
 21
1503.018509977751
 31
0.0
  0
LINE
  5
13F81
330
747D
100
AcDbEntity
  8
点線
 48
10.0
100
AcDbLine
 10
5102.252486457979
 20
1513.018509977753
 30
0.0
 11
5102.252486457979
 21
1503.018509977752
 31
0.0
  0
LINE
  5
13F82
330
747D
100
AcDbEntity
  8
点線
 48
10.0
100
AcDbLine
 10
4902.252486457977
 20
1513.018509977751
 30
0.0
 11
4972.252486457978
 21
1513.018509977751
 31
0.0
  0
LINE
  5
13F83
330
747D
100
AcDbEntity
  8
点線
 48
10.0
100
AcDbLine
 10
5032.252486457979
 20
1513.018509977753
 30
0.0
 11
5102.252486457979
 21
1513.018509977753
 31
0.0
  0
LINE
  5
13F84
330
747D
100
AcDbEntity
  8
点線
 48
10.0
100
AcDbLine
 10
5032.252486457979
 20
1503.018509977753
 30
0.0
 11
5102.252486457979
 21
1503.018509977753
 31
0.0
  0
LINE
  5
13F85
330
747D
100
AcDbEntity
  8
点線
 48
10.0
100
AcDbLine
 10
4902.252486457977
 20
1503.018509977751
 30
0.0
 11
4972.252486457978
 21
1503.018509977751
 31
0.0
  0
LINE
  5
140C7
330
747D
100
AcDbEntity
  8
部品1
 48
50.0
100
AcDbLine
 10
2592.252488332254
 20
6066.127768532555
 30
0.0
 11
2592.252488332254
 21
5389.127768532553
 31
0.0
  0
LINE
  5
140C8
330
747D
100
AcDbEntity
  8
部品1
 48
50.0
100
AcDbLine
 10
2652.252488332254
 20
6066.127768532555
 30
0.0
 11
2652.252488332254
 21
5389.127768532553
 31
0.0
  0
INSERT
  5
140C9
330
747D
100
AcDbEntity
  8
部品1
 48
50.0
100
AcDbBlockReference
  2
A$C644A28E3
 10
2590.252495723827
 20
5279.127766816919
 30
0.0
  0
LINE
  5
140CA
330
747D
100
AcDbEntity
  8
点線
 48
6.0
100
AcDbLine
 10
2652.252488332254
 20
5389.127768532553
 30
0.0
 11
2652.252488332254
 21
5324.127768532557
 31
0.0
  0
LINE
  5
140CB
330
747D
100
AcDbEntity
  8
点線
 48
6.0
100
AcDbLine
 10
2592.252488332254
 20
5389.127768532553
 30
0.0
 11
2592.252488332254
 21
5324.127768532557
 31
0.0
  0
LINE
  5
140CC
330
747D
100
AcDbEntity
  8
点線
 48
6.0
100
AcDbLine
 10
2652.252488332254
 20
6873.127768532555
 30
0.0
 11
2652.252488332254
 21
6808.127768532552
 31
0.0
  0
LINE
  5
140CD
330
747D
100
AcDbEntity
  8
点線
 48
6.0
100
AcDbLine
 10
2592.252488332254
 20
6873.127768532555
 30
0.0
 11
2592.252488332254
 21
6808.127768532552
 31
0.0
  0
LINE
  5
140CE
330
747D
100
AcDbEntity
  8
部品1
 48
50.0
100
AcDbLine
 10
2652.252488332254
 20
6808.127768532552
 30
0.0
 11
2652.252488332254
 21
6131.127768532555
 31
0.0
  0
LINE
  5
140CF
330
747D
100
AcDbEntity
  8
部品1
 48
50.0
100
AcDbLine
 10
2592.252488332254
 20
6808.127768532552
 30
0.0
 11
2592.252488332254
 21
6131.127768532555
 31
0.0
  0
LINE
  5
140D0
330
747D
100
AcDbEntity
  8
点線
 48
6.0
100
AcDbLine
 10
2652.252488332254
 20
6131.127768532555
 30
0.0
 11
2652.252488332254
 21
6066.127768532555
 31
0.0
  0
LINE
  5
140D1
330
747D
100
AcDbEntity
  8
点線
 48
6.0
100
AcDbLine
 10
2592.252488332254
 20
6131.127768532555
 30
0.0
 11
2592.252488332254
 21
6066.127768532555
 31
0.0
  0
LINE
  5
140D2
330
747D
100
AcDbEntity
  8
部品1
 48
50.0
100
AcDbLine
 10
2592.252488332254
 20
7550.127768532554
 30
0.0
 11
2592.252488332254
 21
6873.127768532555
 31
0.0
  0
LINE
  5
140D3
330
747D
100
AcDbEntity
  8
部品1
 48
50.0
100
AcDbLine
 10
2652.252488332254
 20
7550.127768532554
 30
0.0
 11
2652.252488332254
 21
6873.127768532555
 31
0.0
  0
LINE
  5
140D4
330
747D
100
AcDbEntity
  8
部品1
 48
50.0
100
AcDbLine
 10
2590.252488332254
 20
7615.127768532551
 30
0.0
 11
2590.252488332254
 21
7630.127768532552
 31
0.0
  0
LINE
  5
140D5
330
747D
100
AcDbEntity
  8
部品1
 48
50.0
100
AcDbLine
 10
2654.252488332254
 20
7615.127768532551
 30
0.0
 11
2654.252488332254
 21
7630.127768532547
 31
0.0
  0
LINE
  5
140D6
330
747D
100
AcDbEntity
  8
点線
 48
6.0
100
AcDbLine
 10
2590.252488332254
 20
7595.127768532551
 30
0.0
 11
2590.252488332254
 21
7615.127768532551
 31
0.0
  0
LINE
  5
140D7
330
747D
100
AcDbEntity
  8
点線
 48
6.0
100
AcDbLine
 10
2654.252488332254
 20
7595.127768532551
 30
0.0
 11
2654.252488332254
 21
7615.127768532551
 31
0.0
  0
LINE
  5
140D8
330
747D
100
AcDbEntity
  8
部品1
 48
50.0
100
AcDbLine
 10
2600.252488332254
 20
7640.127768532551
 30
0.0
 11
2644.252488332254
 21
7640.127768532548
 31
0.0
  0
ARC
  5
140D9
330
747D
100
AcDbEntity
  8
部品1
 48
50.0
100
AcDbCircle
 10
2600.252488332254
 20
7630.127768532552
 30
0.0
 40
10.0
100
AcDbArc
 50
90.0
 51
180.0
  0
ARC
  5
140DA
330
747D
100
AcDbEntity
  8
部品1
 48
50.0
100
AcDbCircle
 10
2644.252488332254
 20
7630.127768532547
 30
0.0
 40
10.0
100
AcDbArc
 50
0.0
 51
90.0
  0
LINE
  5
140DB
330
747D
100
AcDbEntity
  8
点線
 48
6.0
100
AcDbLine
 10
2652.252488332254
 20
7595.127768532555
 30
0.0
 11
2652.252488332254
 21
7550.127768532554
 31
0.0
  0
LINE
  5
140DC
330
747D
100
AcDbEntity
  8
点線
 48
6.0
100
AcDbLine
 10
2592.252488332254
 20
7595.127768532555
 30
0.0
 11
2592.252488332254
 21
7550.127768532554
 31
0.0
  0
LINE
  5
140F1
330
747D
100
AcDbEntity
  8
点線
 48
6.0
100
AcDbLine
 10
2442.252488332254
 20
7595.127768532562
 30
0.0
 11
2402.252488332258
 21
7595.127768532562
 31
0.0
  0
LINE
  5
140F2
330
747D
100
AcDbEntity
  8
点線
 48
6.0
100
AcDbLine
 10
2442.252488332254
 20
6853.127768532562
 30
0.0
 11
2402.252488332257
 21
6853.127768532562
 31
0.0
  0
LINE
  5
140F3
330
747D
100
AcDbEntity
  8
点線
 48
6.0
100
AcDbLine
 10
2442.252488332254
 20
6111.127768532559
 30
0.0
 11
2402.252488332254
 21
6111.127768532559
 31
0.0
  0
LINE
  5
140F5
330
747D
100
AcDbEntity
  8
点線
 48
6.0
100
AcDbLine
 10
2442.252488332254
 20
5369.127768532562
 30
0.0
 11
2402.252488332254
 21
5369.127768532562
 31
0.0
  0
LINE
  5
140F6
330
747D
100
AcDbEntity
  8
点線
 48
50.0
100
AcDbLine
 10
3537.262182547682
 20
7595.127768532567
 30
0.0
 11
5222.252488332252
 21
7595.127768532567
 31
0.0
  0
LINE
  5
140F7
330
747D
100
AcDbEntity
  8
点線
 48
50.0
100
AcDbLine
 10
3736.080483331579
 20
6853.127768532566
 30
0.0
 11
5222.252488332252
 21
6853.127768532566
 31
0.0
  0
LINE
  5
140F8
330
747D
100
AcDbEntity
  8
点線
 48
50.0
100
AcDbLine
 10
3934.89878411547
 20
6111.127768532566
 30
0.0
 11
5222.252488332255
 21
6111.127768532566
 31
0.0
  0
LINE
  5
140F9
330
747D
100
AcDbEntity
  8
点線
 48
50.0
100
AcDbLine
 10
4133.717084899363
 20
5369.127768532564
 30
0.0
 11
5222.252488332259
 21
5369.127768532564
 31
0.0
  0
LINE
  5
1410D
330
747D
100
AcDbEntity
  8
センター
 48
0.5
100
AcDbLine
 10
2302.252488332257
 20
7572.627768532557
 30
0.0
 11
2502.252488332258
 21
7572.627768532557
 31
0.0
  0
LINE
  5
14129
330
747D
100
AcDbEntity
  8
センター
 48
0.5
100
AcDbLine
 10
2302.252488332256
 20
6830.627768532562
 30
0.0
 11
2502.252488332256
 21
6830.627768532562
 31
0.0
  0
LINE
  5
1414E
330
747D
100
AcDbEntity
  8
センター
 48
0.5
100
AcDbLine
 10
2302.252488332256
 20
6088.627768532562
 30
0.0
 11
2502.252488332256
 21
6088.627768532562
 31
0.0
  0
LINE
  5
14161
330
747D
100
AcDbEntity
  8
センター
 48
0.5
100
AcDbLine
 10
2302.252488332256
 20
5346.627768532562
 30
0.0
 11
2502.252488332256
 21
5346.627768532562
 31
0.0
  0
LEADER
  5
141DA
330
747D
100
AcDbEntity
  8
寸法
 48
50.0
100
AcDbLeader
  3
INABA_S40G
 71
     0
 73
     0
 74
     0
 75
     1
 40
100.0
 41
213.3333333333333
 76
     3
 10
9777.779779203317
 20
2241.753536997065
 30
0.0
 10
9902.083432252888
 20
2071.067504824977
 30
0.0
 10
9927.083432252889
 20
2071.067504824977
 30
0.0
340
141DB
213
0.068680085692904
223
-14.97618146061723
233
0.0
1001
ACAD
1000
DSTYLE
1002
{
1070
    40
1040
10.0
1070
    77
1070
     3
1002
}
  0
MTEXT
  5
141DB
102
{ACAD_REACTORS
330
141DA
102
}
330
747D
100
AcDbEntity
  8
寸法
 62
     7
 48
50.0
100
AcDbMText
 10
9937.014752167195
 20
2146.043686285595
 30
0.0
 40
100.0
 41
1.0
 71
     4
 72
     1
  1
別売
 73
     1
 44
1.0
1001
ACAD
1000
MTEXTBEGIN
1070
    73
1070
     1
1070
    44
1040
1.0
1070
    74
1070
     0
1000
MTEXTEND
  0
LINE
  5
14231
330
747D
100
AcDbEntity
  8
部品1
 48
50.0
100
AcDbLine
 10
3890.252488332257
 20
6463.622114206572
 30
0.0
 11
3890.252488332256
 21
6277.750012765268
 31
0.0
  0
ENDSEC
  0
SECTION
  2
OBJECTS
  0
DICTIONARY
  5
7471
330
0
100
AcDbDictionary
281
     1
  3
ACAD_CIP_PREVIOUS_PRODUCT_INFO
350
1429B
  3
ACAD_COLOR
350
13EC6
  3
ACAD_DETAILVIEWSTYLE
350
14291
  3
ACAD_GROUP
350
7472
  3
ACAD_LAYOUT
350
13EC7
  3
ACAD_MATERIAL
350
13EC5
  3
ACAD_MLEADERSTYLE
350
1428D
  3
ACAD_MLINESTYLE
350
7473
  3
ACAD_PLOTSETTINGS
350
13EC8
  3
ACAD_PLOTSTYLENAME
350
13EC3
  3
ACAD_SCALELIST
350
1427B
  3
ACAD_SECTIONVIEWSTYLE
350
1428F
  3
ACAD_TABLESTYLE
350
14279
  3
ACAD_VISUALSTYLE
350
14260
  3
ACDB_RECOMPOSE_DATA
350
142D9
  3
AcDbVariableDictionary
350
142C0
  3
AcDsDecomposeData
350
142E0
  3
CONTENTDICTIONARY
350
E71C
  3
DRAWINGVARIABLESDICT
350
F3B9
  3
DWGPROPS
350
142DA
  0
DICTIONARY
  5
13EE6
330
7467
100
AcDbDictionary
280
     1
281
     1
  3
ACAD_LAYERFILTERS
360
14103
  3
ACAD_LAYERSTATES
360
13EE7
  0
DICTIONARY
  5
1429F
330
7474
100
AcDbDictionary
280
     1
281
     1
  3
ADSK_XREC_LAYER_RECONCILED
360
142A0
  0
DICTIONARY
  5
142A1
330
DEB3
100
AcDbDictionary
280
     1
281
     1
  3
ADSK_XREC_LAYER_RECONCILED
360
142A2
  0
DICTIONARY
  5
142A3
330
DEB4
100
AcDbDictionary
280
     1
281
     1
  3
ADSK_XREC_LAYER_RECONCILED
360
142A4
  0
DICTIONARY
  5
142A5
330
DEB5
100
AcDbDictionary
280
     1
281
     1
  3
ADSK_XREC_LAYER_RECONCILED
360
142A6
  0
DICTIONARY
  5
142A7
330
DEB6
100
AcDbDictionary
280
     1
281
     1
  3
ADSK_XREC_LAYER_RECONCILED
360
142A8
  0
DICTIONARY
  5
142A9
330
10B54
100
AcDbDictionary
280
     1
281
     1
  3
ADSK_XREC_LAYER_RECONCILED
360
142AA
  0
DICTIONARY
  5
142AB
330
11729
100
AcDbDictionary
280
     1
281
     1
  3
ADSK_XREC_LAYER_RECONCILED
360
142AC
  0
DICTIONARY
  5
142AD
330
1173F
100
AcDbDictionary
280
     1
281
     1
  3
ADSK_XREC_LAYER_RECONCILED
360
142AE
  0
DICTIONARY
  5
142AF
330
11740
100
AcDbDictionary
280
     1
281
     1
  3
ADSK_XREC_LAYER_RECONCILED
360
142B0
  0
DICTIONARY
  5
142B1
330
14107
100
AcDbDictionary
280
     1
281
     1
  3
ADSK_XREC_LAYER_RECONCILED
360
142B2
  0
XRECORD
  5
1429B
102
{ACAD_REACTORS
330
7471
102
}
330
7471
100
AcDbXrecord
280
     1
300
ACDLT
300
2014
300
ACDLT_F_S
  0
DICTIONARY
  5
13EC6
102
{ACAD_REACTORS
330
7471
102
}
330
7471
100
AcDbDictionary
281
     1
  0
DICTIONARY
  5
14291
102
{ACAD_REACTORS
330
7471
102
}
330
7471
100
AcDbDictionary
281
     1
  3
Metric50
350
14292
  0
DICTIONARY
  5
7472
102
{ACAD_REACTORS
330
7471
102
}
330
7471
100
AcDbDictionary
281
     1
  0
DICTIONARY
  5
13EC7
102
{ACAD_REACTORS
330
7471
102
}
330
7471
100
AcDbDictionary
281
     1
  3
Model
350
13EC9
  3
レイアウト1
350
13ECA
  0
DICTIONARY
  5
13EC5
102
{ACAD_REACTORS
330
7471
102
}
330
7471
100
AcDbDictionary
281
     1
  3
ByBlock
350
14250
  3
ByLayer
350
14248
  3
Global
350
14258
  0
DICTIONARY
  5
1428D
102
{ACAD_REACTORS
330
7471
102
}
330
7471
100
AcDbDictionary
281
     1
  3
Standard
350
1428E
  0
DICTIONARY
  5
7473
102
{ACAD_REACTORS
330
7471
102
}
330
7471
100
AcDbDictionary
281
     1
  3
STANDARD
350
7480
  0
DICTIONARY
  5
13EC8
102
{ACAD_REACTORS
330
7471
102
}
330
7471
100
AcDbDictionary
281
     1
  0
ACDBDICTIONARYWDFLT
  5
13EC3
102
{ACAD_REACTORS
330
7471
102
}
330
7471
100
AcDbDictionary
281
     1
  3
Normal
350
13EC4
100
AcDbDictionaryWithDefault
340
13EC4
  0
DICTIONARY
  5
1427B
102
{ACAD_REACTORS
330
7471
102
}
330
7471
100
AcDbDictionary
281
     1
  3
A0
350
1427C
  3
A1
350
1427D
  3
A2
350
1427E
  3
A3
350
1427F
  3
A4
350
14280
  3
A5
350
14281
  3
A6
350
14282
  3
A7
350
14283
  3
A8
350
14284
  3
A9
350
14285
  3
B0
350
14286
  3
B1
350
14287
  3
B2
350
14288
  3
B3
350
14289
  3
B4
350
1428A
  3
B5
350
1428B
  3
B6
350
1428C
  0
DICTIONARY
  5
1428F
102
{ACAD_REACTORS
330
7471
102
}
330
7471
100
AcDbDictionary
281
     1
  3
Metric50
350
14290
  0
DICTIONARY
  5
14279
102
{ACAD_REACTORS
330
7471
102
}
330
7471
100
AcDbDictionary
281
     1
  3
Standard
350
1427A
  0
DICTIONARY
  5
14260
102
{ACAD_REACTORS
330
7471
102
}
330
7471
100
AcDbDictionary
281
     1
  3
2dWireframe
350
14266
  3
Basic
350
14265
  3
Brighten
350
1426C
  3
ColorChange
350
14270
  3
Conceptual
350
14269
  3
Dim
350
1426B
  3
EdgeColorOff
350
14278
  3
Facepattern
350
1426F
  3
Flat
350
14261
  3
FlatWithEdges
350
14262
  3
Gouraud
350
14263
  3
GouraudWithEdges
350
14264
  3
Hidden
350
14268
  3
JitterOff
350
14276
  3
Linepattern
350
1426E
  3
OverhangOff
350
14277
  3
Realistic
350
1426A
  3
Shaded
350
14275
  3
Shaded with edges
350
14274
  3
Shades of Gray
350
14271
  3
Sketchy
350
14272
  3
Thicken
350
1426D
  3
Wireframe
350
14267
  3
X-Ray
350
14273
  0
XRECORD
  5
142D9
102
{ACAD_REACTORS
330
7471
102
}
330
7471
100
AcDbXrecord
280
     1
 90
        1
330
1427A
  0
DICTIONARY
  5
142C0
102
{ACAD_REACTORS
330
7471
102
}
330
7471
100
AcDbDictionary
281
     1
  3
CANNOSCALE
350
142C6
  3
CMLEADERSTYLE
350
142C2
  3
CTABLESTYLE
350
142C1
  3
CVIEWDETAILSTYLE
350
142C3
  3
CVIEWSECTIONSTYLE
350
142C4
  3
DIMASSOC
350
142D6
  3
INDEXCTL
350
142D4
  3
LAYEREVAL
350
142C8
  3
LAYERNOTIFY
350
142C9
  3
LIGHTINGUNITS
350
142C7
  3
MSLTSCALE
350
142C5
  3
SORTENTS
350
142D3
  3
XCLIPFRAME
350
142D5
  0
DICTIONARY
  5
142E0
102
{ACAD_REACTORS
330
7471
102
}
330
7471
100
AcDbDictionary
281
     1
  3
AcDsRecords
350
142E2
  3
AcDsSchemas
350
142E1
1001
ACAD
1070
     2
  0
DICTIONARY
  5
E71C
102
{ACAD_REACTORS
330
7471
102
}
330
7471
100
AcDbDictionary
281
     1
  0
DICTIONARY
  5
F3B9
102
{ACAD_REACTORS
330
7471
102
}
330
7471
100
AcDbDictionary
281
     1
1001
DRAWINGVARIABLESXDATA
1000
POLARMODE
1000
1
  0
XRECORD
  5
142DA
102
{ACAD_REACTORS
330
7471
102
}
330
7471
100
AcDbXrecord
280
     1
  1
DWGPROPS COOKIE
  2

  3

  4

  6

  7

  8
KAWACHI
  9

300
=
301
=
302
=
303
=
304
=
305
=
306
=
307
=
308
=
309
=
 40
0.3009834606481481
 41
2451074.411873148
 42
2457991.382478785
  1

 90
        0
  0
DICTIONARY
  5
14103
102
{ACAD_REACTORS
330
13EE6
102
}
330
13EE6
100
AcDbDictionary
281
     1
  0
DICTIONARY
  5
13EE7
102
{ACAD_REACTORS
330
13EE6
102
}
330
13EE6
100
AcDbDictionary
281
     1
  0
XRECORD
  5
142A0
102
{ACAD_REACTORS
330
1429F
102
}
330
1429F
100
AcDbXrecord
280
     1
290
     1
  0
XRECORD
  5
142A2
102
{ACAD_REACTORS
330
142A1
102
}
330
142A1
100
AcDbXrecord
280
     1
290
     1
  0
XRECORD
  5
142A4
102
{ACAD_REACTORS
330
142A3
102
}
330
142A3
100
AcDbXrecord
280
     1
290
     1
  0
XRECORD
  5
142A6
102
{ACAD_REACTORS
330
142A5
102
}
330
142A5
100
AcDbXrecord
280
     1
290
     1
  0
XRECORD
  5
142A8
102
{ACAD_REACTORS
330
142A7
102
}
330
142A7
100
AcDbXrecord
280
     1
290
     1
  0
XRECORD
  5
142AA
102
{ACAD_REACTORS
330
142A9
102
}
330
142A9
100
AcDbXrecord
280
     1
290
     1
  0
XRECORD
  5
142AC
102
{ACAD_REACTORS
330
142AB
102
}
330
142AB
100
AcDbXrecord
280
     1
290
     1
  0
XRECORD
  5
142AE
102
{ACAD_REACTORS
330
142AD
102
}
330
142AD
100
AcDbXrecord
280
     1
290
     1
  0
XRECORD
  5
142B0
102
{ACAD_REACTORS
330
142AF
102
}
330
142AF
100
AcDbXrecord
280
     1
290
     1
  0
XRECORD
  5
142B2
102
{ACAD_REACTORS
330
142B1
102
}
330
142B1
100
AcDbXrecord
280
     1
290
     1
  0
ACDBDETAILVIEWSTYLE
  5
14292
102
{ACAD_XDICTIONARY
360
142BD
102
}
102
{ACAD_REACTORS
330
14291
102
}
330
14291
100
AcDbModelDocViewStyle
 70
     0
  3
Metric50
290
     0
100
AcDbDetailViewStyle
 70
     0
 71
     0
 90
        3
 71
     1
340
7475
 40
5.0
340
0
 40
5.0
300

 40
0.0
280
     1
 71
     2
340
7479
 90
       25
 71
     3
340
7475
 40
5.0
 90
        0
 40
15.0
 90
        1
300
%<\AcVar ViewDetailId>% (%<\AcVar ViewScale \f "%sn">%)
 71
     4
340
7479
 90
       25
340
7479
 90
       25
280
     0
  0
LAYOUT
  5
13EC9
102
{ACAD_XDICTIONARY
360
142E5
102
}
102
{ACAD_REACTORS
330
13EC7
102
}
330
13EC7
100
AcDbPlotSettings
  1

  2
iR C3880
  4
A3
  6

 40
5.873749732971191
 41
5.873747825622558
 42
5.873748779296875
 43
5.873748779296875
 44
296.9259948730469
 45
419.9466552734374
 46
0.0
 47
0.0
 48
0.0
 49
0.0
140
0.0
141
0.0
142
1.0
143
30.0
 70
 11952
 72
     1
 73
     1
 74
     2
  7
inaba.ctb
 75
    23
147
0.0333333333333333
148
0.0
149
0.0
100
AcDbLayout
  1
Model
 70
     1
 71
     0
 10
0.0
 20
0.0
 11
12.0
 21
9.0
 12
0.0
 22
0.0
 32
0.0
 14
0.0
 24
0.0
 34
0.0
 15
0.0
 25
0.0
 35
0.0
146
0.0
 13
0.0
 23
0.0
 33
0.0
 16
1.0
 26
0.0
 36
0.0
 17
0.0
 27
1.0
 37
0.0
 76
     0
330
747D
331
14246
  0
LAYOUT
  5
13ECA
102
{ACAD_XDICTIONARY
360
142E7
102
}
102
{ACAD_REACTORS
330
13EC7
102
}
330
13EC7
100
AcDbPlotSettings
  1

  2
自動 EPSON LP-8400FX (TATENO 上)
  4

  6

 40
0.0
 41
0.0
 42
0.0
 43
0.0
 44
0.0
 45
0.0
 46
0.0
 47
0.0
 48
0.0
 49
0.0
140
0.0
141
0.0
142
1.0
143
1.0
 70
   688
 72
     0
 73
     0
 74
     5
  7
inaba.ctb
 75
    16
147
1.0
148
0.0
149
0.0
100
AcDbLayout
  1
レイアウト1
 70
     0
 71
     1
 10
0.0
 20
0.0
 11
420.0
 21
297.0
 12
0.0
 22
0.0
 32
0.0
 14
1.000000000000000E+20
 24
1.000000000000000E+20
 34
1.000000000000000E+20
 15
-1.000000000000000E+20
 25
-1.000000000000000E+20
 35
-1.000000000000000E+20
146
0.0
 13
0.0
 23
0.0
 33
0.0
 16
1.0
 26
0.0
 36
0.0
 17
0.0
 27
1.0
 37
0.0
 76
     0
330
747A
  0
MATERIAL
  5
14250
102
{ACAD_XDICTIONARY
360
14251
102
}
102
{ACAD_REACTORS
330
13EC5
102
}
330
13EC5
100
AcDbMaterial
  1
ByBlock
 72
     0
 43
0.0208333333333333
 43
0.0
 43
0.0
 43
0.0
 43
0.0
 43
0.0208333333333333
 43
0.0
 43
0.0
 43
0.0
 43
0.0
 43
1.0
 43
0.0
 43
0.0
 43
0.0
 43
0.0
 43
1.0
 77
     0
 47
0.0208333333333333
 47
0.0
 47
0.0
 47
0.0
 47
0.0
 47
0.0208333333333333
 47
0.0
 47
0.0
 47
0.0
 47
0.0
 47
1.0
 47
0.0
 47
0.0
 47
0.0
 47
0.0
 47
1.0
171
     0
 49
0.0208333333333333
 49
0.0
 49
0.0
 49
0.0
 49
0.0
 49
0.0208333333333333
 49
0.0
 49
0.0
 49
0.0
 49
0.0
 49
1.0
 49
0.0
 49
0.0
 49
0.0
 49
0.0
 49
1.0
175
     0
142
0.0208333333333333
142
0.0
142
0.0
142
0.0
142
0.0
142
0.0208333333333333
142
0.0
142
0.0
142
0.0
142
0.0
142
1.0
142
0.0
142
0.0
142
0.0
142
0.0
142
1.0
179
     0
144
0.0208333333333333
144
0.0
144
0.0
144
0.0
144
0.0
144
0.0208333333333333
144
0.0
144
0.0
144
0.0
144
0.0
144
1.0
144
0.0
144
0.0
144
0.0
144
0.0
144
1.0
147
0.0208333333333333
147
0.0
147
0.0
147
0.0
147
0.0
147
0.0208333333333333
147
0.0
147
0.0
147
0.0
147
0.0
147
1.0
147
0.0
147
0.0
147
0.0
147
0.0
147
1.0
  0
MATERIAL
  5
14248
102
{ACAD_XDICTIONARY
360
14249
102
}
102
{ACAD_REACTORS
330
13EC5
102
}
330
13EC5
100
AcDbMaterial
  1
ByLayer
 72
     0
 43
0.0208333333333333
 43
0.0
 43
0.0
 43
0.0
 43
0.0
 43
0.0208333333333333
 43
0.0
 43
0.0
 43
0.0
 43
0.0
 43
1.0
 43
0.0
 43
0.0
 43
0.0
 43
0.0
 43
1.0
 77
     0
 47
0.0208333333333333
 47
0.0
 47
0.0
 47
0.0
 47
0.0
 47
0.0208333333333333
 47
0.0
 47
0.0
 47
0.0
 47
0.0
 47
1.0
 47
0.0
 47
0.0
 47
0.0
 47
0.0
 47
1.0
171
     0
 49
0.0208333333333333
 49
0.0
 49
0.0
 49
0.0
 49
0.0
 49
0.0208333333333333
 49
0.0
 49
0.0
 49
0.0
 49
0.0
 49
1.0
 49
0.0
 49
0.0
 49
0.0
 49
0.0
 49
1.0
175
     0
142
0.0208333333333333
142
0.0
142
0.0
142
0.0
142
0.0
142
0.0208333333333333
142
0.0
142
0.0
142
0.0
142
0.0
142
1.0
142
0.0
142
0.0
142
0.0
142
0.0
142
1.0
179
     0
144
0.0208333333333333
144
0.0
144
0.0
144
0.0
144
0.0
144
0.0208333333333333
144
0.0
144
0.0
144
0.0
144
0.0
144
1.0
144
0.0
144
0.0
144
0.0
144
0.0
144
1.0
147
0.0208333333333333
147
0.0
147
0.0
147
0.0
147
0.0
147
0.0208333333333333
147
0.0
147
0.0
147
0.0
147
0.0
147
1.0
147
0.0
147
0.0
147
0.0
147
0.0
147
1.0
  0
MATERIAL
  5
14258
102
{ACAD_XDICTIONARY
360
14259
102
}
102
{ACAD_REACTORS
330
13EC5
102
}
330
13EC5
100
AcDbMaterial
  1
Global
 72
     0
 43
0.0208333333333333
 43
0.0
 43
0.0
 43
0.0
 43
0.0
 43
0.0208333333333333
 43
0.0
 43
0.0
 43
0.0
 43
0.0
 43
1.0
 43
0.0
 43
0.0
 43
0.0
 43
0.0
 43
1.0
 77
     0
 47
0.0208333333333333
 47
0.0
 47
0.0
 47
0.0
 47
0.0
 47
0.0208333333333333
 47
0.0
 47
0.0
 47
0.0
 47
0.0
 47
1.0
 47
0.0
 47
0.0
 47
0.0
 47
0.0
 47
1.0
171
     0
 49
0.0208333333333333
 49
0.0
 49
0.0
 49
0.0
 49
0.0
 49
0.0208333333333333
 49
0.0
 49
0.0
 49
0.0
 49
0.0
 49
1.0
 49
0.0
 49
0.0
 49
0.0
 49
0.0
 49
1.0
175
     0
142
0.0208333333333333
142
0.0
142
0.0
142
0.0
142
0.0
142
0.0208333333333333
142
0.0
142
0.0
142
0.0
142
0.0
142
1.0
142
0.0
142
0.0
142
0.0
142
0.0
142
1.0
179
     0
144
0.0208333333333333
144
0.0
144
0.0
144
0.0
144
0.0
144
0.0208333333333333
144
0.0
144
0.0
144
0.0
144
0.0
144
1.0
144
0.0
144
0.0
144
0.0
144
0.0
144
1.0
147
0.0208333333333333
147
0.0
147
0.0
147
0.0
147
0.0
147
0.0208333333333333
147
0.0
147
0.0
147
0.0
147
0.0
147
1.0
147
0.0
147
0.0
147
0.0
147
0.0
147
1.0
  0
MLEADERSTYLE
  5
1428E
102
{ACAD_XDICTIONARY
360
1431E
102
}
102
{ACAD_REACTORS
330
1428D
102
}
330
1428D
100
AcDbMLeaderStyle
170
     2
171
     1
172
     0
 90
        2
 40
0.0
 41
0.0
173
     1
 91
-1056964608
340
7477
 92
       -2
290
     1
 42
2.0
291
     1
 43
0.36
  3
Standard
 44
4.0
300

342
7475
174
     1
178
     6
175
     1
176
     0
 93
-1056964608
 45
4.0
292
     0
297
     0
 46
4.0
 94
-1056964608
 47
1.0
 49
1.0
140
1.0
293
     1
141
0.0
294
     1
177
     0
142
1.0
295
     0
296
     0
143
0.125
1001
ACAD_MLEADERVER
1070
     2
  0
MLINESTYLE
  5
7480
102
{ACAD_REACTORS
330
7473
102
}
330
7473
100
AcDbMlineStyle
  2
STANDARD
 70
     0
  3

 62
     0
 51
90.0
 52
90.0
 71
     2
 49
0.5
 62
   256
  6
BYLAYER
 49
-0.5
 62
   256
  6
BYLAYER
  0
ACDBPLACEHOLDER
  5
13EC4
102
{ACAD_REACTORS
330
13EC3
102
}
330
13EC3
  0
SCALE
  5
1427C
102
{ACAD_REACTORS
330
1427B
102
}
330
1427B
100
AcDbScale
 70
     0
300
1:1
140
1.0
141
1.0
290
     1
  0
SCALE
  5
1427D
102
{ACAD_REACTORS
330
1427B
102
}
330
1427B
100
AcDbScale
 70
     0
300
1:2
140
1.0
141
2.0
290
     0
  0
SCALE
  5
1427E
102
{ACAD_REACTORS
330
1427B
102
}
330
1427B
100
AcDbScale
 70
     0
300
1:4
140
1.0
141
4.0
290
     0
  0
SCALE
  5
1427F
102
{ACAD_REACTORS
330
1427B
102
}
330
1427B
100
AcDbScale
 70
     0
300
1:5
140
1.0
141
5.0
290
     0
  0
SCALE
  5
14280
102
{ACAD_REACTORS
330
1427B
102
}
330
1427B
100
AcDbScale
 70
     0
300
1:8
140
1.0
141
8.0
290
     0
  0
SCALE
  5
14281
102
{ACAD_REACTORS
330
1427B
102
}
330
1427B
100
AcDbScale
 70
     0
300
1:10
140
1.0
141
10.0
290
     0
  0
SCALE
  5
14282
102
{ACAD_REACTORS
330
1427B
102
}
330
1427B
100
AcDbScale
 70
     0
300
1:16
140
1.0
141
16.0
290
     0
  0
SCALE
  5
14283
102
{ACAD_REACTORS
330
1427B
102
}
330
1427B
100
AcDbScale
 70
     0
300
1:20
140
1.0
141
20.0
290
     0
  0
SCALE
  5
14284
102
{ACAD_REACTORS
330
1427B
102
}
330
1427B
100
AcDbScale
 70
     0
300
1:30
140
1.0
141
30.0
290
     0
  0
SCALE
  5
14285
102
{ACAD_REACTORS
330
1427B
102
}
330
1427B
100
AcDbScale
 70
     0
300
1:40
140
1.0
141
40.0
290
     0
  0
SCALE
  5
14286
102
{ACAD_REACTORS
330
1427B
102
}
330
1427B
100
AcDbScale
 70
     0
300
1:50
140
1.0
141
50.0
290
     0
  0
SCALE
  5
14287
102
{ACAD_REACTORS
330
1427B
102
}
330
1427B
100
AcDbScale
 70
     0
300
1:100
140
1.0
141
100.0
290
     0
  0
SCALE
  5
14288
102
{ACAD_REACTORS
330
1427B
102
}
330
1427B
100
AcDbScale
 70
     0
300
2:1
140
2.0
141
1.0
290
     0
  0
SCALE
  5
14289
102
{ACAD_REACTORS
330
1427B
102
}
330
1427B
100
AcDbScale
 70
     0
300
4:1
140
4.0
141
1.0
290
     0
  0
SCALE
  5
1428A
102
{ACAD_REACTORS
330
1427B
102
}
330
1427B
100
AcDbScale
 70
     0
300
8:1
140
8.0
141
1.0
290
     0
  0
SCALE
  5
1428B
102
{ACAD_REACTORS
330
1427B
102
}
330
1427B
100
AcDbScale
 70
     0
300
10:1
140
10.0
141
1.0
290
     0
  0
SCALE
  5
1428C
102
{ACAD_REACTORS
330
1427B
102
}
330
1427B
100
AcDbScale
 70
     0
300
100:1
140
100.0
141
1.0
290
     0
  0
ACDBSECTIONVIEWSTYLE
  5
14290
102
{ACAD_XDICTIONARY
360
142BB
102
}
102
{ACAD_REACTORS
330
1428F
102
}
330
1428F
100
AcDbModelDocViewStyle
 70
     0
  3
Metric50
290
     0
100
AcDbSectionViewStyle
 70
     0
 71
     0
 90
      102
 71
     1
340
7475
 40
5.0
340
0
340
0
 40
5.0
300
I, O, Q, S, X, Z
 40
10.0
 90
        0
 40
2.5
 90
        0
 71
     2
340
7479
 90
       25
340
7479
 90
       50
 40
5.0
 40
2.5
 40
5.0
 71
     3
340
7475
 40
5.0
 90
        0
 40
15.0
 90
        1
300
%<\AcVar ViewSectionStartId>%-%<\AcVar ViewSectionEndId>% (%<\AcVar ViewScale \f "%sn">%)
 71
     4
300
ANSI31
 40
1.0
 90
        0
290
     0
290
     0
 90
        6
 40
0.0
 40
1.570796326794896
 40
0.2617993877991494
 40
1.308996938995747
 40
-0.2617993877991494
 40
1.832595714594046
  0
TABLESTYLE
  5
1427A
102
{ACAD_XDICTIONARY
360
142D7
102
}
102
{ACAD_REACTORS
330
14279
102
}
330
14279
100
AcDbTableStyle
  3
Standard
 70
     0
 71
     0
 40
1.5
 41
1.5
280
     0
281
     0
  7
STANDARD
140
4.5
170
     2
 62
     0
 63
     7
283
     0
274
    -2
284
     1
 64
     0
275
    -2
285
     1
 65
     0
276
    -2
286
     1
 66
     0
277
    -2
287
     1
 67
     0
278
    -2
288
     1
 68
     0
279
    -2
289
     1
 69
     0
  7
STANDARD
140
6.0
170
     5
 62
     0
 63
     7
283
     0
274
    -2
284
     1
 64
     0
275
    -2
285
     1
 65
     0
276
    -2
286
     1
 66
     0
277
    -2
287
     1
 67
     0
278
    -2
288
     1
 68
     0
279
    -2
289
     1
 69
     0
  7
STANDARD
140
4.5
170
     5
 62
     0
 63
     7
283
     0
274
    -2
284
     1
 64
     0
275
    -2
285
     1
 65
     0
276
    -2
286
     1
 66
     0
277
    -2
287
     1
 67
     0
278
    -2
288
     1
 68
     0
279
    -2
289
     1
 69
     0
  0
VISUALSTYLE
  5
14266
102
{ACAD_XDICTIONARY
360
142F6
102
}
102
{ACAD_REACTORS
330
14260
102
}
330
14260
100
AcDbVisualStyle
  2
2dWireframe
 70
     4
 71
     0
 72
     2
 73
     0
 90
        0
 40
-0.6
 41
-30.0
 62
     5
 63
     7
 74
     1
 91
        4
 64
     7
 65
   257
 75
     1
175
     1
 42
1.0
 92
        0
 66
   257
 43
1.0
 76
     1
 77
     6
 78
     2
 67
     7
 79
     5
170
     0
171
     0
290
     0
174
     0
 93
        1
 44
0.0
173
     0
291
     0
 45
0.0
1001
ACAD
1000
AcDbSavedByObjectVersion
1070
     0
  0
VISUALSTYLE
  5
14265
102
{ACAD_XDICTIONARY
360
142F4
102
}
102
{ACAD_REACTORS
330
14260
102
}
330
14260
100
AcDbVisualStyle
  2
Basic
 70
     7
 71
     1
 72
     0
 73
     1
 90
        0
 40
-0.6
 41
-30.0
 62
     5
 63
     7
 74
     0
 91
        4
 64
     7
 65
   257
 75
     1
175
     1
 42
1.0
 92
        8
 66
     7
 43
1.0
 76
     1
 77
     6
 78
     2
 67
     7
 79
     5
170
     0
171
     0
290
     0
174
     0
 93
        1
 44
0.0
173
     0
291
     1
 45
0.0
1001
ACAD
1000
AcDbSavedByObjectVersion
1070
     0
  0
VISUALSTYLE
  5
1426C
102
{ACAD_XDICTIONARY
360
14302
102
}
102
{ACAD_REACTORS
330
14260
102
}
330
14260
100
AcDbVisualStyle
  2
Brighten
 70
    12
 71
     2
 72
     2
 73
     0
 90
        0
 40
-0.6
 41
-30.0
 62
     5
 63
     7
 74
     1
 91
        4
 64
     7
 65
   257
 75
     1
175
     1
 42
1.0
 92
        8
 66
     7
 43
1.0
 76
     1
 77
     6
 78
     2
 67
     7
 79
     5
170
     0
171
     0
290
     0
174
     0
 93
        1
 44
50.0
173
     0
291
     1
 45
0.0
1001
ACAD
1000
AcDbSavedByObjectVersion
1070
     0
  0
VISUALSTYLE
  5
14270
102
{ACAD_XDICTIONARY
360
1430A
102
}
102
{ACAD_REACTORS
330
14260
102
}
330
14260
100
AcDbVisualStyle
  2
ColorChange
 70
    16
 71
     2
 72
     2
 73
     3
 90
        0
 40
-0.6
 41
-30.0
 62
     5
 63
     8
 74
     1
 91
        4
 64
     7
 65
   257
 75
     1
175
     1
 42
1.0
 92
        8
 66
     8
 43
1.0
 76
     1
 77
     6
 78
     2
 67
     7
 79
     5
170
     0
171
     0
290
     0
174
     0
 93
        1
 44
0.0
173
     0
291
     1
 45
0.0
1001
ACAD
1000
AcDbSavedByObjectVersion
1070
     0
  0
VISUALSTYLE
  5
14269
102
{ACAD_XDICTIONARY
360
142FC
102
}
102
{ACAD_REACTORS
330
14260
102
}
330
14260
100
AcDbVisualStyle
  2
Conceptual
 70
     9
 71
     3
 72
     2
 73
     0
 90
        0
 40
-0.6
 41
-30.0
 62
     5
 63
     7
 74
     2
 91
        2
 64
     7
 65
   257
 75
     1
175
     1
 42
179.0
 92
        8
 66
     7
 43
1.0
 76
     1
 77
     6
 78
     2
 67
     7
 79
     3
170
     0
171
     0
290
     0
174
     0
 93
        1
 44
0.0
173
     0
291
     0
 45
0.0
1001
ACAD
1000
AcDbSavedByObjectVersion
1070
     0
  0
VISUALSTYLE
  5
1426B
102
{ACAD_XDICTIONARY
360
14300
102
}
102
{ACAD_REACTORS
330
14260
102
}
330
14260
100
AcDbVisualStyle
  2
Dim
 70
    11
 71
     2
 72
     2
 73
     0
 90
        0
 40
-0.6
 41
-30.0
 62
     5
 63
     7
 74
     1
 91
        4
 64
     7
 65
   257
 75
     1
175
     1
 42
1.0
 92
        8
 66
     7
 43
1.0
 76
     1
 77
     6
 78
     2
 67
     7
 79
     5
170
     0
171
     0
290
     0
174
     0
 93
        1
 44
-50.0
173
     0
291
     1
 45
0.0
1001
ACAD
1000
AcDbSavedByObjectVersion
1070
     0
  0
VISUALSTYLE
  5
14278
102
{ACAD_XDICTIONARY
360
1431A
102
}
102
{ACAD_REACTORS
330
14260
102
}
330
14260
100
AcDbVisualStyle
  2
EdgeColorOff
 70
    22
 71
     2
 72
     2
 73
     0
 90
        0
 40
-0.6
 41
-30.0
 62
     5
 63
     7
 74
     1
 91
        4
 64
     7
 65
   257
 75
     1
175
     1
 42
1.0
 92
        8
 66
     7
 43
1.0
 76
     1
 77
     6
 78
     2
 67
     7
 79
     5
170
     0
171
     0
290
     0
174
     0
 93
        1
 44
0.0
173
     0
291
     1
 45
0.0
1001
ACAD
1000
AcDbSavedByObjectVersion
1070
     0
  0
VISUALSTYLE
  5
1426F
102
{ACAD_XDICTIONARY
360
14308
102
}
102
{ACAD_REACTORS
330
14260
102
}
330
14260
100
AcDbVisualStyle
  2
Facepattern
 70
    15
 71
     2
 72
     2
 73
     0
 90
        0
 40
-0.6
 41
-30.0
 62
     5
 63
     7
 74
     1
 91
        4
 64
     7
 65
   257
 75
     1
175
     1
 42
1.0
 92
        8
 66
     7
 43
1.0
 76
     1
 77
     6
 78
     2
 67
     7
 79
     5
170
     0
171
     0
290
     0
174
     0
 93
        1
 44
0.0
173
     0
291
     1
 45
0.0
1001
ACAD
1000
AcDbSavedByObjectVersion
1070
     0
  0
VISUALSTYLE
  5
14261
102
{ACAD_XDICTIONARY
360
142EC
102
}
102
{ACAD_REACTORS
330
14260
102
}
330
14260
100
AcDbVisualStyle
  2
Flat
 70
     0
 71
     2
 72
     1
 73
     1
 90
        2
 40
-0.6
 41
30.0
 62
     5
 63
     7
 74
     0
 91
        0
 64
     7
 65
   257
 75
     1
175
     1
 42
1.0
 92
        8
 66
     7
 43
1.0
 76
     1
 77
     6
 78
     2
 67
     7
 79
     5
170
     0
171
     0
290
     0
174
     0
 93
       13
 44
0.0
173
     0
291
     1
 45
0.0
1001
ACAD
1000
AcDbSavedByObjectVersion
1070
     0
  0
VISUALSTYLE
  5
14262
102
{ACAD_XDICTIONARY
360
142EE
102
}
102
{ACAD_REACTORS
330
14260
102
}
330
14260
100
AcDbVisualStyle
  2
FlatWithEdges
 70
     1
 71
     2
 72
     1
 73
     1
 90
        2
 40
-0.6
 41
30.0
 62
     5
 63
     7
 74
     1
 91
        0
 64
     7
 65
   257
 75
     1
175
     1
 42
1.0
 92
        0
 66
   257
 43
1.0
 76
     1
 77
     6
 78
     2
 67
     7
 79
     5
170
     0
171
     0
290
     0
174
     0
 93
       13
 44
0.0
173
     0
291
     1
 45
0.0
1001
ACAD
1000
AcDbSavedByObjectVersion
1070
     0
  0
VISUALSTYLE
  5
14263
102
{ACAD_XDICTIONARY
360
142F0
102
}
102
{ACAD_REACTORS
330
14260
102
}
330
14260
100
AcDbVisualStyle
  2
Gouraud
 70
     2
 71
     2
 72
     2
 73
     1
 90
        2
 40
-0.6
 41
30.0
 62
     5
 63
     7
 74
     0
 91
        0
 64
     7
 65
   257
 75
     1
175
     1
 42
1.0
 92
        0
 66
     7
 43
1.0
 76
     1
 77
     6
 78
     2
 67
     7
 79
     5
170
     0
171
     0
290
     0
174
     0
 93
       13
 44
0.0
173
     0
291
     1
 45
0.0
1001
ACAD
1000
AcDbSavedByObjectVersion
1070
     0
  0
VISUALSTYLE
  5
14264
102
{ACAD_XDICTIONARY
360
142F2
102
}
102
{ACAD_REACTORS
330
14260
102
}
330
14260
100
AcDbVisualStyle
  2
GouraudWithEdges
 70
     3
 71
     2
 72
     2
 73
     1
 90
        2
 40
-0.6
 41
30.0
 62
     5
 63
     7
 74
     1
 91
        0
 64
     7
 65
   257
 75
     1
175
     1
 42
1.0
 92
        0
 66
   257
 43
1.0
 76
     1
 77
     6
 78
     2
 67
     7
 79
     5
170
     0
171
     0
290
     0
174
     0
 93
       13
 44
0.0
173
     0
291
     1
 45
0.0
1001
ACAD
1000
AcDbSavedByObjectVersion
1070
     0
  0
VISUALSTYLE
  5
14268
102
{ACAD_XDICTIONARY
360
142FA
102
}
102
{ACAD_REACTORS
330
14260
102
}
330
14260
100
AcDbVisualStyle
  2
Hidden
 70
     6
 71
     1
 72
     2
 73
     2
 90
        0
 40
-0.6
 41
-30.0
 62
     5
 63
     7
 74
     2
 91
        2
 64
     7
 65
   257
 75
     2
175
     1
 42
40.0
 92
        0
 66
   257
 43
1.0
 76
     1
 77
     6
 78
     2
 67
     7
 79
     3
170
     0
171
     0
290
     0
174
     0
 93
        1
 44
0.0
173
     0
291
     0
 45
0.0
1001
ACAD
1000
AcDbSavedByObjectVersion
1070
     0
  0
VISUALSTYLE
  5
14276
102
{ACAD_XDICTIONARY
360
14316
102
}
102
{ACAD_REACTORS
330
14260
102
}
330
14260
100
AcDbVisualStyle
  2
JitterOff
 70
    20
 71
     2
 72
     2
 73
     0
 90
        0
 40
-0.6
 41
-30.0
 62
     5
 63
     7
 74
     1
 91
        4
 64
     7
 65
   257
 75
     1
175
     1
 42
1.0
 92
       10
 66
     7
 43
1.0
 76
     1
 77
     6
 78
     2
 67
     7
 79
     5
170
     0
171
     0
290
     0
174
     0
 93
        1
 44
0.0
173
     0
291
     1
 45
0.0
1001
ACAD
1000
AcDbSavedByObjectVersion
1070
     0
  0
VISUALSTYLE
  5
1426E
102
{ACAD_XDICTIONARY
360
14306
102
}
102
{ACAD_REACTORS
330
14260
102
}
330
14260
100
AcDbVisualStyle
  2
Linepattern
 70
    14
 71
     2
 72
     2
 73
     0
 90
        0
 40
-0.6
 41
-30.0
 62
     5
 63
     7
 74
     1
 91
        4
 64
     7
 65
   257
 75
     7
175
     7
 42
1.0
 92
        8
 66
     7
 43
1.0
 76
     1
 77
     6
 78
     2
 67
     7
 79
     5
170
     0
171
     0
290
     0
174
     0
 93
        1
 44
0.0
173
     0
291
     1
 45
0.0
1001
ACAD
1000
AcDbSavedByObjectVersion
1070
     0
  0
VISUALSTYLE
  5
14277
102
{ACAD_XDICTIONARY
360
14318
102
}
102
{ACAD_REACTORS
330
14260
102
}
330
14260
100
AcDbVisualStyle
  2
OverhangOff
 70
    21
 71
     2
 72
     2
 73
     0
 90
        0
 40
-0.6
 41
-30.0
 62
     5
 63
     7
 74
     1
 91
        4
 64
     7
 65
   257
 75
     1
175
     1
 42
1.0
 92
        9
 66
     7
 43
1.0
 76
     1
 77
     6
 78
     2
 67
     7
 79
     5
170
     0
171
     0
290
     0
174
     0
 93
        1
 44
0.0
173
     0
291
     1
 45
0.0
1001
ACAD
1000
AcDbSavedByObjectVersion
1070
     0
  0
VISUALSTYLE
  5
1426A
102
{ACAD_XDICTIONARY
360
142FE
102
}
102
{ACAD_REACTORS
330
14260
102
}
330
14260
100
AcDbVisualStyle
  2
Realistic
 70
     8
 71
     2
 72
     3
 73
     0
 90
        2
 40
-0.6
 41
30.0
 62
     5
 63
     7
 74
     0
 91
        0
 64
     7
 65
   257
 75
     1
175
     1
 42
1.0
 92
        8
 66
   257
 43
1.0
 76
     1
 77
     6
 78
     2
 67
     7
 79
     3
170
     0
171
     0
290
     0
174
     0
 93
       13
 44
0.0
173
     0
291
     0
 45
0.0
1001
ACAD
1000
AcDbSavedByObjectVersion
1070
     0
  0
VISUALSTYLE
  5
14275
102
{ACAD_XDICTIONARY
360
14314
102
}
102
{ACAD_REACTORS
330
14260
102
}
330
14260
100
AcDbVisualStyle
  2
Shaded
 70
    27
 71
     2
 72
     2
 73
     1
 90
        2
 40
-0.6
 41
30.0
 62
     5
 63
     7
 74
     0
 91
        4
 64
     7
 65
   257
 75
     1
175
     1
 42
1.0
 92
        8
 66
   257
 43
1.0
 76
     1
 77
     6
 78
     2
 67
     8
 79
     3
170
     0
171
     0
290
     0
174
     0
 93
        5
 44
0.0
173
     0
291
     0
 45
0.0
1001
ACAD
1000
AcDbSavedByObjectVersion
1070
     0
  0
VISUALSTYLE
  5
14274
102
{ACAD_XDICTIONARY
360
14312
102
}
102
{ACAD_REACTORS
330
14260
102
}
330
14260
100
AcDbVisualStyle
  2
Shaded with edges
 70
    26
 71
     2
 72
     2
 73
     1
 90
        2
 40
-0.6
 41
30.0
 62
     5
 63
     7
 74
     1
 91
       10
 64
     7
 65
   257
 75
     2
175
     1
 42
1.0
 92
        8
 66
   257
 43
1.0
 76
     1
 77
     6
 78
     2
 67
     7
 79
     3
170
     0
171
     0
290
     0
174
     0
 93
        5
 44
0.0
173
     0
291
     0
 45
0.0
1001
ACAD
1000
AcDbSavedByObjectVersion
1070
     0
  0
VISUALSTYLE
  5
14271
102
{ACAD_XDICTIONARY
360
1430C
102
}
102
{ACAD_REACTORS
330
14260
102
}
330
14260
100
AcDbVisualStyle
  2
Shades of Gray
 70
    23
 71
     2
 72
     2
 73
     3
 90
        0
 40
-0.6
 41
-30.0
 62
     5
 63
     7
 74
     2
 91
        2
 64
     7
 65
     7
 75
     1
175
     1
 42
40.0
 92
        8
 66
     7
 43
1.0
 76
     1
 77
     6
 78
     2
 67
     7
 79
     3
170
     0
171
     0
290
     0
174
     0
 93
        1
 44
0.0
173
     0
291
     0
 45
0.0
1001
ACAD
1000
AcDbSavedByObjectVersion
1070
     0
  0
VISUALSTYLE
  5
14272
102
{ACAD_XDICTIONARY
360
1430E
102
}
102
{ACAD_REACTORS
330
14260
102
}
330
14260
100
AcDbVisualStyle
  2
Sketchy
 70
    24
 71
     1
 72
     2
 73
     2
 90
        0
 40
-0.6
 41
-30.0
 62
     5
 63
     7
 74
     2
 91
        2
 64
     7
 65
     7
 75
     1
175
     1
 42
40.0
 92
       11
 66
     7
 43
1.0
 76
     1
 77
     6
 78
     2
 67
     7
 79
     6
170
     0
171
     0
290
     0
174
     0
 93
        1
 44
0.0
173
     0
291
     0
 45
0.0
1001
ACAD
1000
AcDbSavedByObjectVersion
1070
     0
  0
VISUALSTYLE
  5
1426D
102
{ACAD_XDICTIONARY
360
14304
102
}
102
{ACAD_REACTORS
330
14260
102
}
330
14260
100
AcDbVisualStyle
  2
Thicken
 70
    13
 71
     2
 72
     2
 73
     0
 90
        0
 40
-0.6
 41
-30.0
 62
     5
 63
     7
 74
     1
 91
        4
 64
     7
 65
   257
 75
     1
175
     1
 42
1.0
 92
       12
 66
     7
 43
1.0
 76
     1
 77
     6
 78
     2
 67
     7
 79
     5
170
     0
171
     0
290
     0
174
     0
 93
        1
 44
0.0
173
     0
291
     1
 45
0.0
1001
ACAD
1000
AcDbSavedByObjectVersion
1070
     0
  0
VISUALSTYLE
  5
14267
102
{ACAD_XDICTIONARY
360
142F8
102
}
102
{ACAD_REACTORS
330
14260
102
}
330
14260
100
AcDbVisualStyle
  2
Wireframe
 70
     5
 71
     0
 72
     2
 73
     0
 90
        0
 40
-0.6
 41
-30.0
 62
     5
 63
     7
 74
     1
 91
        4
 64
     7
 65
   257
 75
     1
175
     1
 42
1.0
 92
        0
 66
   257
 43
1.0
 76
     1
 77
     6
 78
     2
 67
     7
 79
     3
170
     0
171
     0
290
     0
174
     0
 93
        1
 44
0.0
173
     0
291
     0
 45
0.0
1001
ACAD
1000
AcDbSavedByObjectVersion
1070
     0
  0
VISUALSTYLE
  5
14273
102
{ACAD_XDICTIONARY
360
14310
102
}
102
{ACAD_REACTORS
330
14260
102
}
330
14260
100
AcDbVisualStyle
  2
X-Ray
 70
    25
 71
     2
 72
     2
 73
     1
 90
        1
 40
0.5
 41
-30.0
 62
     5
 63
     7
 74
     1
 91
        0
 64
     7
 65
   257
 75
     1
175
     1
 42
1.0
 92
        8
 66
     7
 43
1.0
 76
     1
 77
     6
 78
     2
 67
     7
 79
     3
170
     0
171
     0
290
     0
174
     0
 93
       13
 44
0.0
173
     0
291
     0
 45
0.0
1001
ACAD
1000
AcDbSavedByObjectVersion
1070
     0
  0
DICTIONARYVAR
  5
142C6
102
{ACAD_REACTORS
330
142C0
102
}
330
142C0
100
DictionaryVariables
280
     0
  1
1:1
  0
DICTIONARYVAR
  5
142C2
102
{ACAD_REACTORS
330
142C0
102
}
330
142C0
100
DictionaryVariables
280
     0
  1
STANDARD
  0
DICTIONARYVAR
  5
142C1
102
{ACAD_REACTORS
330
142C0
102
}
330
142C0
100
DictionaryVariables
280
     0
  1
STANDARD
  0
DICTIONARYVAR
  5
142C3
102
{ACAD_REACTORS
330
142C0
102
}
330
142C0
100
DictionaryVariables
280
     0
  1
Metric50
  0
DICTIONARYVAR
  5
142C4
102
{ACAD_REACTORS
330
142C0
102
}
330
142C0
100
DictionaryVariables
280
     0
  1
Metric50
  0
DICTIONARYVAR
  5
142D6
102
{ACAD_REACTORS
330
142C0
102
}
330
142C0
100
DictionaryVariables
280
     0
  1
1
  0
DICTIONARYVAR
  5
142D4
102
{ACAD_REACTORS
330
142C0
102
}
330
142C0
100
DictionaryVariables
280
     0
  1
0
  0
DICTIONARYVAR
  5
142C8
102
{ACAD_REACTORS
330
142C0
102
}
330
142C0
100
DictionaryVariables
280
     0
  1
1
  0
DICTIONARYVAR
  5
142C9
102
{ACAD_REACTORS
330
142C0
102
}
330
142C0
100
DictionaryVariables
280
     0
  1
15
  0
DICTIONARYVAR
  5
142C7
102
{ACAD_REACTORS
330
142C0
102
}
330
142C0
100
DictionaryVariables
280
     0
  1
0
  0
DICTIONARYVAR
  5
142C5
102
{ACAD_REACTORS
330
142C0
102
}
330
142C0
100
DictionaryVariables
280
     0
  1
0
  0
DICTIONARYVAR
  5
142D3
102
{ACAD_REACTORS
330
142C0
102
}
330
142C0
100
DictionaryVariables
280
     0
  1
127
  0
DICTIONARYVAR
  5
142D5
102
{ACAD_REACTORS
330
142C0
102
}
330
142C0
100
DictionaryVariables
280
     0
  1
0
  0
DICTIONARY
  5
142E2
102
{ACAD_REACTORS
330
142E0
102
}
330
142E0
100
AcDbDictionary
281
     1
  0
DICTIONARY
  5
142E1
102
{ACAD_REACTORS
330
142E0
102
}
330
142E0
100
AcDbDictionary
281
     1
  3
2129731480
350
142DB
  3
2129731488
350
142DC
  3
2129731496
350
142DD
  3
2129731504
350
142DE
  3
2129731512
350
142DF
  0
DICTIONARY
  5
142BD
330
14292
100
AcDbDictionary
280
     1
281
     1
  3
ACAD_XREC_ROUNDTRIP
360
14321
  0
DICTIONARY
  5
142E5
330
13EC9
100
AcDbDictionary
280
     1
281
     1
  3
ACAD_XREC_ROUNDTRIP
360
142E6
  0
DICTIONARY
  5
142E7
330
13ECA
100
AcDbDictionary
280
     1
281
     1
  3
ACAD_XREC_ROUNDTRIP
360
142E8
  0
DICTIONARY
  5
14251
330
14250
100
AcDbDictionary
280
     1
281
     1
  3
ACAD_XREC_ROUNDTRIP
360
142EA
  3
BUMPTILE
360
14253
  3
DIFFUSETILE
360
14252
  3
OPACITYTILE
360
14256
  3
REFLECTIONTILE
360
14255
  3
REFRACTIONTILE
360
14257
  3
SPECULARTILE
360
14254
  0
DICTIONARY
  5
14249
330
14248
100
AcDbDictionary
280
     1
281
     1
  3
ACAD_XREC_ROUNDTRIP
360
142E9
  3
BUMPTILE
360
1424B
  3
DIFFUSETILE
360
1424A
  3
OPACITYTILE
360
1424E
  3
REFLECTIONTILE
360
1424D
  3
REFRACTIONTILE
360
1424F
  3
SPECULARTILE
360
1424C
  0
DICTIONARY
  5
14259
330
14258
100
AcDbDictionary
280
     1
281
     1
  3
ACAD_XREC_ROUNDTRIP
360
142EB
  3
BUMPTILE
360
1425B
  3
DIFFUSETILE
360
1425A
  3
OPACITYTILE
360
1425E
  3
REFLECTIONTILE
360
1425D
  3
REFRACTIONTILE
360
1425F
  3
SPECULARTILE
360
1425C
  0
DICTIONARY
  5
1431E
330
1428E
100
AcDbDictionary
280
     1
281
     1
  3
ACAD_XREC_ROUNDTRIP
360
1431F
  0
DICTIONARY
  5
142BB
330
14290
100
AcDbDictionary
280
     1
281
     1
  3
ACAD_XREC_ROUNDTRIP
360
14320
  0
DICTIONARY
  5
142D7
330
1427A
100
AcDbDictionary
280
     1
281
     1
  3
ACAD_ROUNDTRIP_2008_TABLESTYLE_CELLSTYLEMAP
360
142D8
  3
ACAD_XREC_ROUNDTRIP
360
1431C
  0
DICTIONARY
  5
142F6
330
14266
100
AcDbDictionary
280
     1
281
     1
  3
ACAD_XREC_ROUNDTRIP
360
142F7
  0
DICTIONARY
  5
142F4
330
14265
100
AcDbDictionary
280
     1
281
     1
  3
ACAD_XREC_ROUNDTRIP
360
142F5
  0
DICTIONARY
  5
14302
330
1426C
100
AcDbDictionary
280
     1
281
     1
  3
ACAD_XREC_ROUNDTRIP
360
14303
  0
DICTIONARY
  5
1430A
330
14270
100
AcDbDictionary
280
     1
281
     1
  3
ACAD_XREC_ROUNDTRIP
360
1430B
  0
DICTIONARY
  5
142FC
330
14269
100
AcDbDictionary
280
     1
281
     1
  3
ACAD_XREC_ROUNDTRIP
360
142FD
  0
DICTIONARY
  5
14300
330
1426B
100
AcDbDictionary
280
     1
281
     1
  3
ACAD_XREC_ROUNDTRIP
360
14301
  0
DICTIONARY
  5
1431A
330
14278
100
AcDbDictionary
280
     1
281
     1
  3
ACAD_XREC_ROUNDTRIP
360
1431B
  0
DICTIONARY
  5
14308
330
1426F
100
AcDbDictionary
280
     1
281
     1
  3
ACAD_XREC_ROUNDTRIP
360
14309
  0
DICTIONARY
  5
142EC
330
14261
100
AcDbDictionary
280
     1
281
     1
  3
ACAD_XREC_ROUNDTRIP
360
142ED
  0
DICTIONARY
  5
142EE
330
14262
100
AcDbDictionary
280
     1
281
     1
  3
ACAD_XREC_ROUNDTRIP
360
142EF
  0
DICTIONARY
  5
142F0
330
14263
100
AcDbDictionary
280
     1
281
     1
  3
ACAD_XREC_ROUNDTRIP
360
142F1
  0
DICTIONARY
  5
142F2
330
14264
100
AcDbDictionary
280
     1
281
     1
  3
ACAD_XREC_ROUNDTRIP
360
142F3
  0
DICTIONARY
  5
142FA
330
14268
100
AcDbDictionary
280
     1
281
     1
  3
ACAD_XREC_ROUNDTRIP
360
142FB
  0
DICTIONARY
  5
14316
330
14276
100
AcDbDictionary
280
     1
281
     1
  3
ACAD_XREC_ROUNDTRIP
360
14317
  0
DICTIONARY
  5
14306
330
1426E
100
AcDbDictionary
280
     1
281
     1
  3
ACAD_XREC_ROUNDTRIP
360
14307
  0
DICTIONARY
  5
14318
330
14277
100
AcDbDictionary
280
     1
281
     1
  3
ACAD_XREC_ROUNDTRIP
360
14319
  0
DICTIONARY
  5
142FE
330
1426A
100
AcDbDictionary
280
     1
281
     1
  3
ACAD_XREC_ROUNDTRIP
360
142FF
  0
DICTIONARY
  5
14314
330
14275
100
AcDbDictionary
280
     1
281
     1
  3
ACAD_XREC_ROUNDTRIP
360
14315
  0
DICTIONARY
  5
14312
330
14274
100
AcDbDictionary
280
     1
281
     1
  3
ACAD_XREC_ROUNDTRIP
360
14313
  0
DICTIONARY
  5
1430C
330
14271
100
AcDbDictionary
280
     1
281
     1
  3
ACAD_XREC_ROUNDTRIP
360
1430D
  0
DICTIONARY
  5
1430E
330
14272
100
AcDbDictionary
280
     1
281
     1
  3
ACAD_XREC_ROUNDTRIP
360
1430F
  0
DICTIONARY
  5
14304
330
1426D
100
AcDbDictionary
280
     1
281
     1
  3
ACAD_XREC_ROUNDTRIP
360
14305
  0
DICTIONARY
  5
142F8
330
14267
100
AcDbDictionary
280
     1
281
     1
  3
ACAD_XREC_ROUNDTRIP
360
142F9
  0
DICTIONARY
  5
14310
330
14273
100
AcDbDictionary
280
     1
281
     1
  3
ACAD_XREC_ROUNDTRIP
360
14311
  0
XRECORD
  5
142DB
102
{ACAD_REACTORS
330
142E1
102
}
330
142E1
100
AcDbXrecord
280
     1
  1
AcDb_Thumbnail_Schema
102
{ATTRRECORD
341
142DC
  2
AcDbDs::TreatedAsObjectData
280
     1
291
     1
102
ATTRRECORD}
102
{ATTRRECORD
341
142DD
  2
AcDbDs::Legacy
280
     1
291
     1
102
ATTRRECORD}
  2
AcDbDs::ID
280
    10
 91
        8
102
{ATTRRECORD
341
142DE
  2
AcDs:Indexable
280
     1
291
     1
102
ATTRRECORD}
102
{ATTRRECORD
341
142DF
  2
AcDbDs::HandleAttribute
280
     7
282
     1
102
ATTRRECORD}
  2
Thumbnail_Data
280
    15
 91
        0
  0
XRECORD
  5
142DC
102
{ACAD_REACTORS
330
142E1
102
}
330
142E1
100
AcDbXrecord
280
     1
  1
AcDbDs::TreatedAsObjectDataSchema
  2
AcDbDs::TreatedAsObjectData
280
     1
 91
        0
  0
XRECORD
  5
142DD
102
{ACAD_REACTORS
330
142E1
102
}
330
142E1
100
AcDbXrecord
280
     1
  1
AcDbDs::LegacySchema
  2
AcDbDs::Legacy
280
     1
 91
        0
  0
XRECORD
  5
142DE
102
{ACAD_REACTORS
330
142E1
102
}
330
142E1
100
AcDbXrecord
280
     1
  1
AcDbDs::IndexedPropertySchema
  2
AcDs:Indexable
280
     1
 91
        0
  0
XRECORD
  5
142DF
102
{ACAD_REACTORS
330
142E1
102
}
330
142E1
100
AcDbXrecord
280
     1
  1
AcDbDs::HandleAttributeSchema
  2
AcDbDs::HandleAttribute
280
     7
 91
        1
284
     1
  0
XRECORD
  5
14321
102
{ACAD_REACTORS
330
142BD
102
}
330
142BD
100
AcDbXrecord
280
     1
102
DISPLAYNAME
  1
Metric50
102
FLAGS
 90
        0
  0
XRECORD
  5
142E6
102
{ACAD_REACTORS
330
142E5
102
}
330
142E5
100
AcDbXrecord
280
     1
102
SHADEPLOT
 70
     0
102
SHADEPLOTRESLEVEL
 70
     2
102
SHADEPLOTCUSTOMDPI
 70
   300
  0
XRECORD
  5
142E8
102
{ACAD_REACTORS
330
142E7
102
}
330
142E7
100
AcDbXrecord
280
     1
102
SHADEPLOT
 70
     0
102
SHADEPLOTRESLEVEL
 70
     2
102
SHADEPLOTCUSTOMDPI
 70
   300
  0
XRECORD
  5
142EA
102
{ACAD_REACTORS
330
14251
102
}
330
14251
100
AcDbXrecord
280
     1
102
MATERIAL
148
0.0
149
0.0
149
0.0
 93
        0
 94
      127
282
     0
 72
     0
 77
     0
171
     0
175
     0
179
     0
273
     0
  0
XRECORD
  5
14253
102
{ACAD_REACTORS
330
14251
102
}
330
14251
100
AcDbXrecord
280
     1
270
     1
271
     1
  0
XRECORD
  5
14252
102
{ACAD_REACTORS
330
14251
102
}
330
14251
100
AcDbXrecord
280
     1
270
     1
271
     1
  0
XRECORD
  5
14256
102
{ACAD_REACTORS
330
14251
102
}
330
14251
100
AcDbXrecord
280
     1
270
     1
271
     1
  0
XRECORD
  5
14255
102
{ACAD_REACTORS
330
14251
102
}
330
14251
100
AcDbXrecord
280
     1
270
     1
271
     1
  0
XRECORD
  5
14257
102
{ACAD_REACTORS
330
14251
102
}
330
14251
100
AcDbXrecord
280
     1
270
     1
271
     1
  0
XRECORD
  5
14254
102
{ACAD_REACTORS
330
14251
102
}
330
14251
100
AcDbXrecord
280
     1
270
     1
271
     1
  0
XRECORD
  5
142E9
102
{ACAD_REACTORS
330
14249
102
}
330
14249
100
AcDbXrecord
280
     1
102
MATERIAL
148
0.0
149
0.0
149
0.0
 93
        0
 94
      127
282
     0
 72
     0
 77
     0
171
     0
175
     0
179
     0
273
     0
  0
XRECORD
  5
1424B
102
{ACAD_REACTORS
330
14249
102
}
330
14249
100
AcDbXrecord
280
     1
270
     1
271
     1
  0
XRECORD
  5
1424A
102
{ACAD_REACTORS
330
14249
102
}
330
14249
100
AcDbXrecord
280
     1
270
     1
271
     1
  0
XRECORD
  5
1424E
102
{ACAD_REACTORS
330
14249
102
}
330
14249
100
AcDbXrecord
280
     1
270
     1
271
     1
  0
XRECORD
  5
1424D
102
{ACAD_REACTORS
330
14249
102
}
330
14249
100
AcDbXrecord
280
     1
270
     1
271
     1
  0
XRECORD
  5
1424F
102
{ACAD_REACTORS
330
14249
102
}
330
14249
100
AcDbXrecord
280
     1
270
     1
271
     1
  0
XRECORD
  5
1424C
102
{ACAD_REACTORS
330
14249
102
}
330
14249
100
AcDbXrecord
280
     1
270
     1
271
     1
  0
XRECORD
  5
142EB
102
{ACAD_REACTORS
330
14259
102
}
330
14259
100
AcDbXrecord
280
     1
102
MATERIAL
148
0.0
149
0.0
149
0.0
 93
        0
 94
      127
282
     0
 72
     0
 77
     0
171
     0
175
     0
179
     0
273
     0
  0
XRECORD
  5
1425B
102
{ACAD_REACTORS
330
14259
102
}
330
14259
100
AcDbXrecord
280
     1
270
     1
271
     1
  0
XRECORD
  5
1425A
102
{ACAD_REACTORS
330
14259
102
}
330
14259
100
AcDbXrecord
280
     1
270
     1
271
     1
  0
XRECORD
  5
1425E
102
{ACAD_REACTORS
330
14259
102
}
330
14259
100
AcDbXrecord
280
     1
270
     1
271
     1
  0
XRECORD
  5
1425D
102
{ACAD_REACTORS
330
14259
102
}
330
14259
100
AcDbXrecord
280
     1
270
     1
271
     1
  0
XRECORD
  5
1425F
102
{ACAD_REACTORS
330
14259
102
}
330
14259
100
AcDbXrecord
280
     1
270
     1
271
     1
  0
XRECORD
  5
1425C
102
{ACAD_REACTORS
330
14259
102
}
330
14259
100
AcDbXrecord
280
     1
270
     1
271
     1
  0
XRECORD
  5
1431F
102
{ACAD_REACTORS
330
1431E
102
}
330
1431E
100
AcDbXrecord
280
     1
102
ACAD_ROUNDTRIP_2012_MLEADER_STYLE
298
     1
  0
XRECORD
  5
14320
102
{ACAD_REACTORS
330
142BB
102
}
330
142BB
100
AcDbXrecord
280
     1
102
DISPLAYNAME
  1
Metric50
102
FLAGS
 90
        0
  0
CELLSTYLEMAP
  5
142D8
102
{ACAD_REACTORS
330
142D7
102
}
330
142D7
100
AcDbCellStyleMap
 90
        3
300
CELLSTYLE
  1
TABLEFORMAT_BEGIN
 90
        5
170
     1
 91
        0
 92
    32768
 62
   257
 93
        1
300
CONTENTFORMAT
  1
CONTENTFORMAT_BEGIN
 90
        0
 91
        0
 92
      512
 93
        0
300

 40
0.0
140
1.0
 94
        5
 62
     0
340
7475
144
6.0
309
CONTENTFORMAT_END
171
     1
301
MARGIN
  1
CELLMARGIN_BEGIN
 40
1.5
 40
1.5
 40
1.5
 40
1.5
 40
4.5
 40
4.5
309
CELLMARGIN_END
 94
        6
 95
        1
302
GRIDFORMAT
  1
GRIDFORMAT_BEGIN
 90
        0
 91
        1
 62
     0
 92
       -2
340
0
 93
        0
 40
1.125
309
GRIDFORMAT_END
 95
        2
302
GRIDFORMAT
  1
GRIDFORMAT_BEGIN
 90
        0
 91
        1
 62
     0
 92
       -2
340
0
 93
        0
 40
1.125
309
GRIDFORMAT_END
 95
        4
302
GRIDFORMAT
  1
GRIDFORMAT_BEGIN
 90
        0
 91
        1
 62
     0
 92
       -2
340
0
 93
        0
 40
1.125
309
GRIDFORMAT_END
 95
        8
302
GRIDFORMAT
  1
GRIDFORMAT_BEGIN
 90
        0
 91
        1
 62
     0
 92
       -2
340
0
 93
        0
 40
1.125
309
GRIDFORMAT_END
 95
       16
302
GRIDFORMAT
  1
GRIDFORMAT_BEGIN
 90
        0
 91
        1
 62
     0
 92
       -2
340
0
 93
        0
 40
1.125
309
GRIDFORMAT_END
 95
       32
302
GRIDFORMAT
  1
GRIDFORMAT_BEGIN
 90
        0
 91
        1
 62
     0
 92
       -2
340
0
 93
        0
 40
1.125
309
GRIDFORMAT_END
309
TABLEFORMAT_END
  1
CELLSTYLE_BEGIN
 90
        1
 91
        1
300
_TITLE
309
CELLSTYLE_END
300
CELLSTYLE
  1
TABLEFORMAT_BEGIN
 90
        5
170
     1
 91
        0
 92
        0
 62
   257
 93
        1
300
CONTENTFORMAT
  1
CONTENTFORMAT_BEGIN
 90
        0
 91
        0
 92
      512
 93
        0
300

 40
0.0
140
1.0
 94
        5
 62
     0
340
7475
144
4.5
309
CONTENTFORMAT_END
171
     1
301
MARGIN
  1
CELLMARGIN_BEGIN
 40
1.5
 40
1.5
 40
1.5
 40
1.5
 40
4.5
 40
4.5
309
CELLMARGIN_END
 94
        6
 95
        1
302
GRIDFORMAT
  1
GRIDFORMAT_BEGIN
 90
        0
 91
        1
 62
     0
 92
       -2
340
0
 93
        0
 40
1.125
309
GRIDFORMAT_END
 95
        2
302
GRIDFORMAT
  1
GRIDFORMAT_BEGIN
 90
        0
 91
        1
 62
     0
 92
       -2
340
0
 93
        0
 40
1.125
309
GRIDFORMAT_END
 95
        4
302
GRIDFORMAT
  1
GRIDFORMAT_BEGIN
 90
        0
 91
        1
 62
     0
 92
       -2
340
0
 93
        0
 40
1.125
309
GRIDFORMAT_END
 95
        8
302
GRIDFORMAT
  1
GRIDFORMAT_BEGIN
 90
        0
 91
        1
 62
     0
 92
       -2
340
0
 93
        0
 40
1.125
309
GRIDFORMAT_END
 95
       16
302
GRIDFORMAT
  1
GRIDFORMAT_BEGIN
 90
        0
 91
        1
 62
     0
 92
       -2
340
0
 93
        0
 40
1.125
309
GRIDFORMAT_END
 95
       32
302
GRIDFORMAT
  1
GRIDFORMAT_BEGIN
 90
        0
 91
        1
 62
     0
 92
       -2
340
0
 93
        0
 40
1.125
309
GRIDFORMAT_END
309
TABLEFORMAT_END
  1
CELLSTYLE_BEGIN
 90
        2
 91
        1
300
_HEADER
309
CELLSTYLE_END
300
CELLSTYLE
  1
TABLEFORMAT_BEGIN
 90
        5
170
     1
 91
        0
 92
        0
 62
   257
 93
        1
300
CONTENTFORMAT
  1
CONTENTFORMAT_BEGIN
 90
        0
 91
        0
 92
      512
 93
        0
300

 40
0.0
140
1.0
 94
        2
 62
     0
340
7475
144
4.5
309
CONTENTFORMAT_END
171
     1
301
MARGIN
  1
CELLMARGIN_BEGIN
 40
1.5
 40
1.5
 40
1.5
 40
1.5
 40
4.5
 40
4.5
309
CELLMARGIN_END
 94
        6
 95
        1
302
GRIDFORMAT
  1
GRIDFORMAT_BEGIN
 90
        0
 91
        1
 62
     0
 92
       -2
340
0
 93
        0
 40
1.125
309
GRIDFORMAT_END
 95
        2
302
GRIDFORMAT
  1
GRIDFORMAT_BEGIN
 90
        0
 91
        1
 62
     0
 92
       -2
340
0
 93
        0
 40
1.125
309
GRIDFORMAT_END
 95
        4
302
GRIDFORMAT
  1
GRIDFORMAT_BEGIN
 90
        0
 91
        1
 62
     0
 92
       -2
340
0
 93
        0
 40
1.125
309
GRIDFORMAT_END
 95
        8
302
GRIDFORMAT
  1
GRIDFORMAT_BEGIN
 90
        0
 91
        1
 62
     0
 92
       -2
340
0
 93
        0
 40
1.125
309
GRIDFORMAT_END
 95
       16
302
GRIDFORMAT
  1
GRIDFORMAT_BEGIN
 90
        0
 91
        1
 62
     0
 92
       -2
340
0
 93
        0
 40
1.125
309
GRIDFORMAT_END
 95
       32
302
GRIDFORMAT
  1
GRIDFORMAT_BEGIN
 90
        0
 91
        1
 62
     0
 92
       -2
340
0
 93
        0
 40
1.125
309
GRIDFORMAT_END
309
TABLEFORMAT_END
  1
CELLSTYLE_BEGIN
 90
        3
 91
        2
300
_DATA
309
CELLSTYLE_END
  0
XRECORD
  5
1431C
102
{ACAD_REACTORS
330
142D7
102
}
330
142D7
100
AcDbXrecord
280
     1
102
ACAD_ROUNDTRIP_PRE2007_TABLESTYLE
 90
      512
 91
        0
  1

 92
      512
 93
        0
  2

 94
      512
 95
        0
  3

  0
XRECORD
  5
142F7
102
{ACAD_REACTORS
330
142F6
102
}
330
142F6
100
AcDbXrecord
280
     1
102
RTVSPost2010Prop28
280
     1
102
RTVSPost2010PropOp28
 70
     1
102
RTVSPost2010Prop29
280
     1
102
RTVSPost2010PropOp29
 70
     1
102
RTVSPost2010Prop30
280
     0
102
RTVSPost2010PropOp30
 70
     1
102
RTVSPost2010Prop31
280
     0
102
RTVSPost2010PropOp31
 70
     1
102
RTVSPost2010Prop32
280
     0
102
RTVSPost2010PropOp32
 70
     1
102
RTVSPost2010Prop33
280
     0
102
RTVSPost2010PropOp33
 70
     1
102
RTVSPost2010Prop34
280
     0
102
RTVSPost2010PropOp34
 70
     1
102
RTVSPost2010Prop35
280
     0
102
RTVSPost2010PropOp35
 70
     1
102
RTVSPost2010Prop36
280
     0
102
RTVSPost2010PropOp36
 70
     1
102
RTVSPost2010Prop37
 90
       50
102
RTVSPost2010PropOp37
 70
     1
102
RTVSPost2010Prop38
140
0.0
102
RTVSPost2010PropOp38
 70
     1
102
RTVSPost2010Prop39
140
1.0
102
RTVSPost2010PropOp39
 70
     1
102
RTVSPost2010Prop40
 90
        0
102
RTVSPost2010PropOp40
 70
     1
102
RTVSPost2010Prop41ColorIndex
 90
       18
102
RTVSPost2010Prop41ColorRGB
 90
        0
102
RTVSPost2010PropOp41
 70
     1
102
RTVSPost2010Prop42
 90
       50
102
RTVSPost2010PropOp42
 70
     1
102
RTVSPost2010Prop43
 90
        3
102
RTVSPost2010PropOp43
 70
     1
102
RTVSPost2010Prop44ColorIndex
 90
        5
102
RTVSPost2010Prop44ColorRGB
 90
      255
102
RTVSPost2010PropOp44
 70
     1
102
RTVSPost2010Prop45
280
     0
102
RTVSPost2010PropOp45
 70
     1
102
RTVSPost2010Prop46
 90
       50
102
RTVSPost2010PropOp46
 70
     1
102
RTVSPost2010Prop47
 90
       50
102
RTVSPost2010PropOp47
 70
     1
102
RTVSPost2010Prop48
 90
       50
102
RTVSPost2010PropOp48
 70
     1
102
RTVSPost2010Prop49
280
     0
102
RTVSPost2010PropOp49
 70
     1
102
RTVSPost2010Prop50
 90
       50
102
RTVSPost2010PropOp50
 70
     1
102
RTVSPost2010Prop51ColorIndex
 90
      256
102
RTVSPost2010Prop51ColorRGB
 90
-16777216
102
RTVSPost2010PropOp51
 70
     0
102
RTVSPost2010Prop52
140
1.0
102
RTVSPost2010PropOp52
 70
     0
102
RTVSPost2010Prop53
 90
        2
102
RTVSPost2010PropOp53
 70
     1
102
RTVSPost2010Prop54
  1
strokes_ogs.tif
102
RTVSPost2010PropOp54
 70
     1
102
RTVSPost2010Prop55
280
     0
102
RTVSPost2010PropOp55
 70
     1
102
RTVSPost2010Prop56
140
1.0
102
RTVSPost2010PropOp56
 70
     1
102
RTVSPost2010Prop57
140
1.0
102
RTVSPost2010PropOp57
 70
     1
102
RTVSPropertyOp0
 70
     1
102
RTVSPropertyOp1
 70
     1
102
RTVSPropertyOp2
 70
     1
102
RTVSPropertyOp3
 70
     1
102
RTVSPropertyOp4
 70
     1
102
RTVSPropertyOp5
 70
     1
102
RTVSPropertyOp6
 70
     1
102
RTVSPropertyOp7
 70
     1
102
RTVSPropertyOp8
 70
     1
102
RTVSPropertyOp9
 70
     1
102
RTVSPropertyOp10
 70
     1
102
RTVSPropertyOp11
 70
     1
102
RTVSPropertyOp12
 70
     1
102
RTVSPropertyOp13
 70
     1
102
RTVSPropertyOp14
 70
     1
102
RTVSPropertyOp15
 70
     1
102
RTVSPropertyOp16
 70
     1
102
RTVSPropertyOp17
 70
     1
102
RTVSPropertyOp18
 70
     1
102
RTVSPropertyOp19
 70
     1
102
RTVSPropertyOp20
 70
     1
102
RTVSPropertyOp21
 70
     1
102
RTVSPropertyOp22
 70
     1
102
RTVSPropertyOp23
 70
     1
102
RTVSPropertyOp24
 70
     1
102
RTVSPropertyOp25
 70
     1
102
RTVSPropertyOp26
 70
     1
102
RTVSPropertyOp27
 70
     1
102
RTVSPropertyOp28
 70
     1
102
RTVSPropertyOp29
 70
     1
102
RTVSPropertyOp30
 70
     1
102
RTVSPropertyOp31
 70
     1
102
RTVSPropertyOp32
 70
     1
102
RTVSPropertyOp33
 70
     1
102
RTVSPropertyOp34
 70
     1
102
RTVSPropertyOp35
 70
     1
102
RTVSPropertyOp36
 70
     1
102
RTVSPropertyOp37
 70
     1
102
RTVSPropertyOp38
 70
     1
102
RTVSPropertyOp39
 70
     1
102
RTVSPropertyOp40
 70
     1
102
RTVSPropertyOp41
 70
     1
102
RTVSPropertyOp42
 70
     1
102
RTVSPropertyOp43
 70
     1
102
RTVSPropertyOp44
 70
     1
102
RTVSPropertyOp45
 70
     1
102
RTVSPropertyOp46
 70
     1
102
RTVSPropertyOp47
 70
     1
102
RTVSPropertyOp48
 70
     1
102
RTVSPropertyOp49
 70
     1
102
RTVSPropertyOp50
 70
     1
102
RTVSPropertyOp51
 70
     0
102
RTVSPropertyOp52
 70
     0
102
RTVSPropertyOp53
 70
     1
102
RTVSPropertyOp54
 70
     1
102
RTVSPropertyOp55
 70
     1
102
RTVSPropertyOp56
 70
     1
102
RTVSPropertyOp57
 70
     1
102
RTVSPropertyOp58
 70
     1
102
RTVSPropertyOp59
 70
     1
102
RTVSPropertyOp60
 70
     1
102
RTVSPropertyOp61
 70
     1
102
RTVSPropertyOp62
 70
     1
  0
XRECORD
  5
142F5
102
{ACAD_REACTORS
330
142F4
102
}
330
142F4
100
AcDbXrecord
280
     1
102
RTVSPost2010Prop28
280
     0
102
RTVSPost2010PropOp28
 70
     1
102
RTVSPost2010Prop29
280
     1
102
RTVSPost2010PropOp29
 70
     1
102
RTVSPost2010Prop30
280
     1
102
RTVSPost2010PropOp30
 70
     1
102
RTVSPost2010Prop31
280
     0
102
RTVSPost2010PropOp31
 70
     1
102
RTVSPost2010Prop32
280
     0
102
RTVSPost2010PropOp32
 70
     1
102
RTVSPost2010Prop33
280
     0
102
RTVSPost2010PropOp33
 70
     1
102
RTVSPost2010Prop34
280
     0
102
RTVSPost2010PropOp34
 70
     1
102
RTVSPost2010Prop35
280
     0
102
RTVSPost2010PropOp35
 70
     1
102
RTVSPost2010Prop36
280
     0
102
RTVSPost2010PropOp36
 70
     1
102
RTVSPost2010Prop37
 90
       50
102
RTVSPost2010PropOp37
 70
     1
102
RTVSPost2010Prop38
140
0.0
102
RTVSPost2010PropOp38
 70
     1
102
RTVSPost2010Prop39
140
1.0
102
RTVSPost2010PropOp39
 70
     1
102
RTVSPost2010Prop40
 90
        0
102
RTVSPost2010PropOp40
 70
     1
102
RTVSPost2010Prop41ColorIndex
 90
       18
102
RTVSPost2010Prop41ColorRGB
 90
        0
102
RTVSPost2010PropOp41
 70
     1
102
RTVSPost2010Prop42
 90
       50
102
RTVSPost2010PropOp42
 70
     1
102
RTVSPost2010Prop43
 90
        3
102
RTVSPost2010PropOp43
 70
     1
102
RTVSPost2010Prop44ColorIndex
 90
        5
102
RTVSPost2010Prop44ColorRGB
 90
      255
102
RTVSPost2010PropOp44
 70
     1
102
RTVSPost2010Prop45
280
     0
102
RTVSPost2010PropOp45
 70
     1
102
RTVSPost2010Prop46
 90
       50
102
RTVSPost2010PropOp46
 70
     1
102
RTVSPost2010Prop47
 90
       50
102
RTVSPost2010PropOp47
 70
     1
102
RTVSPost2010Prop48
 90
       50
102
RTVSPost2010PropOp48
 70
     1
102
RTVSPost2010Prop49
280
     0
102
RTVSPost2010PropOp49
 70
     1
102
RTVSPost2010Prop50
 90
       50
102
RTVSPost2010PropOp50
 70
     1
102
RTVSPost2010Prop51ColorIndex
 90
      256
102
RTVSPost2010Prop51ColorRGB
 90
-16777216
102
RTVSPost2010PropOp51
 70
     0
102
RTVSPost2010Prop52
140
1.0
102
RTVSPost2010PropOp52
 70
     0
102
RTVSPost2010Prop53
 90
        2
102
RTVSPost2010PropOp53
 70
     1
102
RTVSPost2010Prop54
  1
strokes_ogs.tif
102
RTVSPost2010PropOp54
 70
     1
102
RTVSPost2010Prop55
280
     0
102
RTVSPost2010PropOp55
 70
     1
102
RTVSPost2010Prop56
140
1.0
102
RTVSPost2010PropOp56
 70
     1
102
RTVSPost2010Prop57
140
1.0
102
RTVSPost2010PropOp57
 70
     1
102
RTVSPropertyOp0
 70
     1
102
RTVSPropertyOp1
 70
     1
102
RTVSPropertyOp2
 70
     1
102
RTVSPropertyOp3
 70
     1
102
RTVSPropertyOp4
 70
     1
102
RTVSPropertyOp5
 70
     1
102
RTVSPropertyOp6
 70
     1
102
RTVSPropertyOp7
 70
     1
102
RTVSPropertyOp8
 70
     1
102
RTVSPropertyOp9
 70
     1
102
RTVSPropertyOp10
 70
     1
102
RTVSPropertyOp11
 70
     1
102
RTVSPropertyOp12
 70
     1
102
RTVSPropertyOp13
 70
     1
102
RTVSPropertyOp14
 70
     1
102
RTVSPropertyOp15
 70
     1
102
RTVSPropertyOp16
 70
     1
102
RTVSPropertyOp17
 70
     1
102
RTVSPropertyOp18
 70
     1
102
RTVSPropertyOp19
 70
     1
102
RTVSPropertyOp20
 70
     1
102
RTVSPropertyOp21
 70
     1
102
RTVSPropertyOp22
 70
     1
102
RTVSPropertyOp23
 70
     1
102
RTVSPropertyOp24
 70
     1
102
RTVSPropertyOp25
 70
     1
102
RTVSPropertyOp26
 70
     1
102
RTVSPropertyOp27
 70
     1
102
RTVSPropertyOp28
 70
     1
102
RTVSPropertyOp29
 70
     1
102
RTVSPropertyOp30
 70
     1
102
RTVSPropertyOp31
 70
     1
102
RTVSPropertyOp32
 70
     1
102
RTVSPropertyOp33
 70
     1
102
RTVSPropertyOp34
 70
     1
102
RTVSPropertyOp35
 70
     1
102
RTVSPropertyOp36
 70
     1
102
RTVSPropertyOp37
 70
     1
102
RTVSPropertyOp38
 70
     1
102
RTVSPropertyOp39
 70
     1
102
RTVSPropertyOp40
 70
     1
102
RTVSPropertyOp41
 70
     1
102
RTVSPropertyOp42
 70
     1
102
RTVSPropertyOp43
 70
     1
102
RTVSPropertyOp44
 70
     1
102
RTVSPropertyOp45
 70
     1
102
RTVSPropertyOp46
 70
     1
102
RTVSPropertyOp47
 70
     1
102
RTVSPropertyOp48
 70
     1
102
RTVSPropertyOp49
 70
     1
102
RTVSPropertyOp50
 70
     1
102
RTVSPropertyOp51
 70
     0
102
RTVSPropertyOp52
 70
     0
102
RTVSPropertyOp53
 70
     1
102
RTVSPropertyOp54
 70
     1
102
RTVSPropertyOp55
 70
     1
102
RTVSPropertyOp56
 70
     1
102
RTVSPropertyOp57
 70
     1
102
RTVSPropertyOp58
 70
     1
102
RTVSPropertyOp59
 70
     1
102
RTVSPropertyOp60
 70
     1
102
RTVSPropertyOp61
 70
     1
102
RTVSPropertyOp62
 70
     1
  0
XRECORD
  5
14303
102
{ACAD_REACTORS
330
14302
102
}
330
14302
100
AcDbXrecord
280
     1
102
RTVSPost2010Prop28
280
     0
102
RTVSPost2010PropOp28
 70
     1
102
RTVSPost2010Prop29
280
     1
102
RTVSPost2010PropOp29
 70
     1
102
RTVSPost2010Prop30
280
     1
102
RTVSPost2010PropOp30
 70
     1
102
RTVSPost2010Prop31
280
     0
102
RTVSPost2010PropOp31
 70
     1
102
RTVSPost2010Prop32
280
     0
102
RTVSPost2010PropOp32
 70
     1
102
RTVSPost2010Prop33
280
     0
102
RTVSPost2010PropOp33
 70
     1
102
RTVSPost2010Prop34
280
     0
102
RTVSPost2010PropOp34
 70
     1
102
RTVSPost2010Prop35
280
     0
102
RTVSPost2010PropOp35
 70
     1
102
RTVSPost2010Prop36
280
     0
102
RTVSPost2010PropOp36
 70
     1
102
RTVSPost2010Prop37
 90
       50
102
RTVSPost2010PropOp37
 70
     1
102
RTVSPost2010Prop38
140
0.0
102
RTVSPost2010PropOp38
 70
     1
102
RTVSPost2010Prop39
140
1.0
102
RTVSPost2010PropOp39
 70
     1
102
RTVSPost2010Prop40
 90
        0
102
RTVSPost2010PropOp40
 70
     1
102
RTVSPost2010Prop41ColorIndex
 90
       18
102
RTVSPost2010Prop41ColorRGB
 90
        0
102
RTVSPost2010PropOp41
 70
     1
102
RTVSPost2010Prop42
 90
       50
102
RTVSPost2010PropOp42
 70
     1
102
RTVSPost2010Prop43
 90
        3
102
RTVSPost2010PropOp43
 70
     1
102
RTVSPost2010Prop44ColorIndex
 90
        5
102
RTVSPost2010Prop44ColorRGB
 90
      255
102
RTVSPost2010PropOp44
 70
     1
102
RTVSPost2010Prop45
280
     0
102
RTVSPost2010PropOp45
 70
     1
102
RTVSPost2010Prop46
 90
       50
102
RTVSPost2010PropOp46
 70
     1
102
RTVSPost2010Prop47
 90
       50
102
RTVSPost2010PropOp47
 70
     1
102
RTVSPost2010Prop48
 90
       50
102
RTVSPost2010PropOp48
 70
     1
102
RTVSPost2010Prop49
280
     0
102
RTVSPost2010PropOp49
 70
     1
102
RTVSPost2010Prop50
 90
       50
102
RTVSPost2010PropOp50
 70
     1
102
RTVSPost2010Prop51ColorIndex
 90
      256
102
RTVSPost2010Prop51ColorRGB
 90
-16777216
102
RTVSPost2010PropOp51
 70
     0
102
RTVSPost2010Prop52
140
1.0
102
RTVSPost2010PropOp52
 70
     0
102
RTVSPost2010Prop53
 90
        2
102
RTVSPost2010PropOp53
 70
     1
102
RTVSPost2010Prop54
  1
strokes_ogs.tif
102
RTVSPost2010PropOp54
 70
     1
102
RTVSPost2010Prop55
280
     0
102
RTVSPost2010PropOp55
 70
     1
102
RTVSPost2010Prop56
140
1.0
102
RTVSPost2010PropOp56
 70
     1
102
RTVSPost2010Prop57
140
1.0
102
RTVSPost2010PropOp57
 70
     1
102
RTVSPropertyOp0
 70
     1
102
RTVSPropertyOp1
 70
     1
102
RTVSPropertyOp2
 70
     1
102
RTVSPropertyOp3
 70
     1
102
RTVSPropertyOp4
 70
     1
102
RTVSPropertyOp5
 70
     1
102
RTVSPropertyOp6
 70
     1
102
RTVSPropertyOp7
 70
     1
102
RTVSPropertyOp8
 70
     1
102
RTVSPropertyOp9
 70
     1
102
RTVSPropertyOp10
 70
     1
102
RTVSPropertyOp11
 70
     1
102
RTVSPropertyOp12
 70
     1
102
RTVSPropertyOp13
 70
     1
102
RTVSPropertyOp14
 70
     1
102
RTVSPropertyOp15
 70
     1
102
RTVSPropertyOp16
 70
     1
102
RTVSPropertyOp17
 70
     1
102
RTVSPropertyOp18
 70
     1
102
RTVSPropertyOp19
 70
     1
102
RTVSPropertyOp20
 70
     1
102
RTVSPropertyOp21
 70
     1
102
RTVSPropertyOp22
 70
     1
102
RTVSPropertyOp23
 70
     1
102
RTVSPropertyOp24
 70
     1
102
RTVSPropertyOp25
 70
     1
102
RTVSPropertyOp26
 70
     1
102
RTVSPropertyOp27
 70
     1
102
RTVSPropertyOp28
 70
     1
102
RTVSPropertyOp29
 70
     1
102
RTVSPropertyOp30
 70
     1
102
RTVSPropertyOp31
 70
     1
102
RTVSPropertyOp32
 70
     1
102
RTVSPropertyOp33
 70
     1
102
RTVSPropertyOp34
 70
     1
102
RTVSPropertyOp35
 70
     1
102
RTVSPropertyOp36
 70
     1
102
RTVSPropertyOp37
 70
     1
102
RTVSPropertyOp38
 70
     1
102
RTVSPropertyOp39
 70
     1
102
RTVSPropertyOp40
 70
     1
102
RTVSPropertyOp41
 70
     1
102
RTVSPropertyOp42
 70
     1
102
RTVSPropertyOp43
 70
     1
102
RTVSPropertyOp44
 70
     1
102
RTVSPropertyOp45
 70
     1
102
RTVSPropertyOp46
 70
     1
102
RTVSPropertyOp47
 70
     1
102
RTVSPropertyOp48
 70
     1
102
RTVSPropertyOp49
 70
     1
102
RTVSPropertyOp50
 70
     1
102
RTVSPropertyOp51
 70
     0
102
RTVSPropertyOp52
 70
     0
102
RTVSPropertyOp53
 70
     1
102
RTVSPropertyOp54
 70
     1
102
RTVSPropertyOp55
 70
     1
102
RTVSPropertyOp56
 70
     1
102
RTVSPropertyOp57
 70
     1
102
RTVSPropertyOp58
 70
     1
102
RTVSPropertyOp59
 70
     1
102
RTVSPropertyOp60
 70
     1
102
RTVSPropertyOp61
 70
     1
102
RTVSPropertyOp62
 70
     1
  0
XRECORD
  5
1430B
102
{ACAD_REACTORS
330
1430A
102
}
330
1430A
100
AcDbXrecord
280
     1
102
RTVSPost2010Prop28
280
     0
102
RTVSPost2010PropOp28
 70
     1
102
RTVSPost2010Prop29
280
     1
102
RTVSPost2010PropOp29
 70
     1
102
RTVSPost2010Prop30
280
     1
102
RTVSPost2010PropOp30
 70
     1
102
RTVSPost2010Prop31
280
     0
102
RTVSPost2010PropOp31
 70
     1
102
RTVSPost2010Prop32
280
     0
102
RTVSPost2010PropOp32
 70
     1
102
RTVSPost2010Prop33
280
     0
102
RTVSPost2010PropOp33
 70
     1
102
RTVSPost2010Prop34
280
     0
102
RTVSPost2010PropOp34
 70
     1
102
RTVSPost2010Prop35
280
     0
102
RTVSPost2010PropOp35
 70
     1
102
RTVSPost2010Prop36
280
     0
102
RTVSPost2010PropOp36
 70
     1
102
RTVSPost2010Prop37
 90
       50
102
RTVSPost2010PropOp37
 70
     1
102
RTVSPost2010Prop38
140
0.0
102
RTVSPost2010PropOp38
 70
     1
102
RTVSPost2010Prop39
140
1.0
102
RTVSPost2010PropOp39
 70
     1
102
RTVSPost2010Prop40
 90
        0
102
RTVSPost2010PropOp40
 70
     1
102
RTVSPost2010Prop41ColorIndex
 90
       18
102
RTVSPost2010Prop41ColorRGB
 90
        0
102
RTVSPost2010PropOp41
 70
     1
102
RTVSPost2010Prop42
 90
       50
102
RTVSPost2010PropOp42
 70
     1
102
RTVSPost2010Prop43
 90
        3
102
RTVSPost2010PropOp43
 70
     1
102
RTVSPost2010Prop44ColorIndex
 90
        5
102
RTVSPost2010Prop44ColorRGB
 90
      255
102
RTVSPost2010PropOp44
 70
     1
102
RTVSPost2010Prop45
280
     0
102
RTVSPost2010PropOp45
 70
     1
102
RTVSPost2010Prop46
 90
       50
102
RTVSPost2010PropOp46
 70
     1
102
RTVSPost2010Prop47
 90
       50
102
RTVSPost2010PropOp47
 70
     1
102
RTVSPost2010Prop48
 90
       50
102
RTVSPost2010PropOp48
 70
     1
102
RTVSPost2010Prop49
280
     0
102
RTVSPost2010PropOp49
 70
     1
102
RTVSPost2010Prop50
 90
       50
102
RTVSPost2010PropOp50
 70
     1
102
RTVSPost2010Prop51ColorIndex
 90
      256
102
RTVSPost2010Prop51ColorRGB
 90
-16777216
102
RTVSPost2010PropOp51
 70
     0
102
RTVSPost2010Prop52
140
1.0
102
RTVSPost2010PropOp52
 70
     0
102
RTVSPost2010Prop53
 90
        2
102
RTVSPost2010PropOp53
 70
     1
102
RTVSPost2010Prop54
  1
strokes_ogs.tif
102
RTVSPost2010PropOp54
 70
     1
102
RTVSPost2010Prop55
280
     0
102
RTVSPost2010PropOp55
 70
     1
102
RTVSPost2010Prop56
140
1.0
102
RTVSPost2010PropOp56
 70
     1
102
RTVSPost2010Prop57
140
1.0
102
RTVSPost2010PropOp57
 70
     1
102
RTVSPropertyOp0
 70
     1
102
RTVSPropertyOp1
 70
     1
102
RTVSPropertyOp2
 70
     1
102
RTVSPropertyOp3
 70
     1
102
RTVSPropertyOp4
 70
     1
102
RTVSPropertyOp5
 70
     1
102
RTVSPropertyOp6
 70
     1
102
RTVSPropertyOp7
 70
     1
102
RTVSPropertyOp8
 70
     1
102
RTVSPropertyOp9
 70
     1
102
RTVSPropertyOp10
 70
     1
102
RTVSPropertyOp11
 70
     1
102
RTVSPropertyOp12
 70
     1
102
RTVSPropertyOp13
 70
     1
102
RTVSPropertyOp14
 70
     1
102
RTVSPropertyOp15
 70
     1
102
RTVSPropertyOp16
 70
     1
102
RTVSPropertyOp17
 70
     1
102
RTVSPropertyOp18
 70
     1
102
RTVSPropertyOp19
 70
     1
102
RTVSPropertyOp20
 70
     1
102
RTVSPropertyOp21
 70
     1
102
RTVSPropertyOp22
 70
     1
102
RTVSPropertyOp23
 70
     1
102
RTVSPropertyOp24
 70
     1
102
RTVSPropertyOp25
 70
     1
102
RTVSPropertyOp26
 70
     1
102
RTVSPropertyOp27
 70
     1
102
RTVSPropertyOp28
 70
     1
102
RTVSPropertyOp29
 70
     1
102
RTVSPropertyOp30
 70
     1
102
RTVSPropertyOp31
 70
     1
102
RTVSPropertyOp32
 70
     1
102
RTVSPropertyOp33
 70
     1
102
RTVSPropertyOp34
 70
     1
102
RTVSPropertyOp35
 70
     1
102
RTVSPropertyOp36
 70
     1
102
RTVSPropertyOp37
 70
     1
102
RTVSPropertyOp38
 70
     1
102
RTVSPropertyOp39
 70
     1
102
RTVSPropertyOp40
 70
     1
102
RTVSPropertyOp41
 70
     1
102
RTVSPropertyOp42
 70
     1
102
RTVSPropertyOp43
 70
     1
102
RTVSPropertyOp44
 70
     1
102
RTVSPropertyOp45
 70
     1
102
RTVSPropertyOp46
 70
     1
102
RTVSPropertyOp47
 70
     1
102
RTVSPropertyOp48
 70
     1
102
RTVSPropertyOp49
 70
     1
102
RTVSPropertyOp50
 70
     1
102
RTVSPropertyOp51
 70
     0
102
RTVSPropertyOp52
 70
     0
102
RTVSPropertyOp53
 70
     1
102
RTVSPropertyOp54
 70
     1
102
RTVSPropertyOp55
 70
     1
102
RTVSPropertyOp56
 70
     1
102
RTVSPropertyOp57
 70
     1
102
RTVSPropertyOp58
 70
     1
102
RTVSPropertyOp59
 70
     1
102
RTVSPropertyOp60
 70
     1
102
RTVSPropertyOp61
 70
     1
102
RTVSPropertyOp62
 70
     1
  0
XRECORD
  5
142FD
102
{ACAD_REACTORS
330
142FC
102
}
330
142FC
100
AcDbXrecord
280
     1
102
RTVSPost2010Prop28
280
     0
102
RTVSPost2010PropOp28
 70
     1
102
RTVSPost2010Prop29
280
     1
102
RTVSPost2010PropOp29
 70
     1
102
RTVSPost2010Prop30
280
     1
102
RTVSPost2010PropOp30
 70
     1
102
RTVSPost2010Prop31
280
     0
102
RTVSPost2010PropOp31
 70
     1
102
RTVSPost2010Prop32
280
     0
102
RTVSPost2010PropOp32
 70
     1
102
RTVSPost2010Prop33
280
     0
102
RTVSPost2010PropOp33
 70
     1
102
RTVSPost2010Prop34
280
     0
102
RTVSPost2010PropOp34
 70
     1
102
RTVSPost2010Prop35
280
     0
102
RTVSPost2010PropOp35
 70
     1
102
RTVSPost2010Prop36
280
     0
102
RTVSPost2010PropOp36
 70
     1
102
RTVSPost2010Prop37
 90
       50
102
RTVSPost2010PropOp37
 70
     1
102
RTVSPost2010Prop38
140
0.0
102
RTVSPost2010PropOp38
 70
     1
102
RTVSPost2010Prop39
140
1.0
102
RTVSPost2010PropOp39
 70
     1
102
RTVSPost2010Prop40
 90
        0
102
RTVSPost2010PropOp40
 70
     1
102
RTVSPost2010Prop41ColorIndex
 90
       18
102
RTVSPost2010Prop41ColorRGB
 90
        0
102
RTVSPost2010PropOp41
 70
     1
102
RTVSPost2010Prop42
 90
       50
102
RTVSPost2010PropOp42
 70
     1
102
RTVSPost2010Prop43
 90
        3
102
RTVSPost2010PropOp43
 70
     1
102
RTVSPost2010Prop44ColorIndex
 90
        5
102
RTVSPost2010Prop44ColorRGB
 90
      255
102
RTVSPost2010PropOp44
 70
     1
102
RTVSPost2010Prop45
280
     0
102
RTVSPost2010PropOp45
 70
     1
102
RTVSPost2010Prop46
 90
       50
102
RTVSPost2010PropOp46
 70
     1
102
RTVSPost2010Prop47
 90
       50
102
RTVSPost2010PropOp47
 70
     1
102
RTVSPost2010Prop48
 90
       50
102
RTVSPost2010PropOp48
 70
     1
102
RTVSPost2010Prop49
280
     0
102
RTVSPost2010PropOp49
 70
     1
102
RTVSPost2010Prop50
 90
       50
102
RTVSPost2010PropOp50
 70
     1
102
RTVSPost2010Prop51ColorIndex
 90
      256
102
RTVSPost2010Prop51ColorRGB
 90
-16777216
102
RTVSPost2010PropOp51
 70
     0
102
RTVSPost2010Prop52
140
1.0
102
RTVSPost2010PropOp52
 70
     0
102
RTVSPost2010Prop53
 90
        2
102
RTVSPost2010PropOp53
 70
     1
102
RTVSPost2010Prop54
  1
strokes_ogs.tif
102
RTVSPost2010PropOp54
 70
     1
102
RTVSPost2010Prop55
280
     0
102
RTVSPost2010PropOp55
 70
     1
102
RTVSPost2010Prop56
140
1.0
102
RTVSPost2010PropOp56
 70
     1
102
RTVSPost2010Prop57
140
1.0
102
RTVSPost2010PropOp57
 70
     1
102
RTVSPropertyOp0
 70
     1
102
RTVSPropertyOp1
 70
     1
102
RTVSPropertyOp2
 70
     1
102
RTVSPropertyOp3
 70
     1
102
RTVSPropertyOp4
 70
     1
102
RTVSPropertyOp5
 70
     1
102
RTVSPropertyOp6
 70
     1
102
RTVSPropertyOp7
 70
     1
102
RTVSPropertyOp8
 70
     1
102
RTVSPropertyOp9
 70
     1
102
RTVSPropertyOp10
 70
     1
102
RTVSPropertyOp11
 70
     1
102
RTVSPropertyOp12
 70
     1
102
RTVSPropertyOp13
 70
     1
102
RTVSPropertyOp14
 70
     1
102
RTVSPropertyOp15
 70
     1
102
RTVSPropertyOp16
 70
     1
102
RTVSPropertyOp17
 70
     1
102
RTVSPropertyOp18
 70
     1
102
RTVSPropertyOp19
 70
     1
102
RTVSPropertyOp20
 70
     1
102
RTVSPropertyOp21
 70
     1
102
RTVSPropertyOp22
 70
     1
102
RTVSPropertyOp23
 70
     1
102
RTVSPropertyOp24
 70
     1
102
RTVSPropertyOp25
 70
     1
102
RTVSPropertyOp26
 70
     1
102
RTVSPropertyOp27
 70
     1
102
RTVSPropertyOp28
 70
     1
102
RTVSPropertyOp29
 70
     1
102
RTVSPropertyOp30
 70
     1
102
RTVSPropertyOp31
 70
     1
102
RTVSPropertyOp32
 70
     1
102
RTVSPropertyOp33
 70
     1
102
RTVSPropertyOp34
 70
     1
102
RTVSPropertyOp35
 70
     1
102
RTVSPropertyOp36
 70
     1
102
RTVSPropertyOp37
 70
     1
102
RTVSPropertyOp38
 70
     1
102
RTVSPropertyOp39
 70
     1
102
RTVSPropertyOp40
 70
     1
102
RTVSPropertyOp41
 70
     1
102
RTVSPropertyOp42
 70
     1
102
RTVSPropertyOp43
 70
     1
102
RTVSPropertyOp44
 70
     1
102
RTVSPropertyOp45
 70
     1
102
RTVSPropertyOp46
 70
     1
102
RTVSPropertyOp47
 70
     1
102
RTVSPropertyOp48
 70
     1
102
RTVSPropertyOp49
 70
     1
102
RTVSPropertyOp50
 70
     1
102
RTVSPropertyOp51
 70
     0
102
RTVSPropertyOp52
 70
     0
102
RTVSPropertyOp53
 70
     1
102
RTVSPropertyOp54
 70
     1
102
RTVSPropertyOp55
 70
     1
102
RTVSPropertyOp56
 70
     1
102
RTVSPropertyOp57
 70
     1
102
RTVSPropertyOp58
 70
     1
102
RTVSPropertyOp59
 70
     1
102
RTVSPropertyOp60
 70
     1
102
RTVSPropertyOp61
 70
     1
102
RTVSPropertyOp62
 70
     1
  0
XRECORD
  5
14301
102
{ACAD_REACTORS
330
14300
102
}
330
14300
100
AcDbXrecord
280
     1
102
RTVSPost2010Prop28
280
     0
102
RTVSPost2010PropOp28
 70
     1
102
RTVSPost2010Prop29
280
     1
102
RTVSPost2010PropOp29
 70
     1
102
RTVSPost2010Prop30
280
     1
102
RTVSPost2010PropOp30
 70
     1
102
RTVSPost2010Prop31
280
     0
102
RTVSPost2010PropOp31
 70
     1
102
RTVSPost2010Prop32
280
     0
102
RTVSPost2010PropOp32
 70
     1
102
RTVSPost2010Prop33
280
     0
102
RTVSPost2010PropOp33
 70
     1
102
RTVSPost2010Prop34
280
     0
102
RTVSPost2010PropOp34
 70
     1
102
RTVSPost2010Prop35
280
     0
102
RTVSPost2010PropOp35
 70
     1
102
RTVSPost2010Prop36
280
     0
102
RTVSPost2010PropOp36
 70
     1
102
RTVSPost2010Prop37
 90
       50
102
RTVSPost2010PropOp37
 70
     1
102
RTVSPost2010Prop38
140
0.0
102
RTVSPost2010PropOp38
 70
     1
102
RTVSPost2010Prop39
140
1.0
102
RTVSPost2010PropOp39
 70
     1
102
RTVSPost2010Prop40
 90
        0
102
RTVSPost2010PropOp40
 70
     1
102
RTVSPost2010Prop41ColorIndex
 90
       18
102
RTVSPost2010Prop41ColorRGB
 90
        0
102
RTVSPost2010PropOp41
 70
     1
102
RTVSPost2010Prop42
 90
       50
102
RTVSPost2010PropOp42
 70
     1
102
RTVSPost2010Prop43
 90
        3
102
RTVSPost2010PropOp43
 70
     1
102
RTVSPost2010Prop44ColorIndex
 90
        5
102
RTVSPost2010Prop44ColorRGB
 90
      255
102
RTVSPost2010PropOp44
 70
     1
102
RTVSPost2010Prop45
280
     0
102
RTVSPost2010PropOp45
 70
     1
102
RTVSPost2010Prop46
 90
       50
102
RTVSPost2010PropOp46
 70
     1
102
RTVSPost2010Prop47
 90
       50
102
RTVSPost2010PropOp47
 70
     1
102
RTVSPost2010Prop48
 90
       50
102
RTVSPost2010PropOp48
 70
     1
102
RTVSPost2010Prop49
280
     0
102
RTVSPost2010PropOp49
 70
     1
102
RTVSPost2010Prop50
 90
       50
102
RTVSPost2010PropOp50
 70
     1
102
RTVSPost2010Prop51ColorIndex
 90
      256
102
RTVSPost2010Prop51ColorRGB
 90
-16777216
102
RTVSPost2010PropOp51
 70
     0
102
RTVSPost2010Prop52
140
1.0
102
RTVSPost2010PropOp52
 70
     0
102
RTVSPost2010Prop53
 90
        2
102
RTVSPost2010PropOp53
 70
     1
102
RTVSPost2010Prop54
  1
strokes_ogs.tif
102
RTVSPost2010PropOp54
 70
     1
102
RTVSPost2010Prop55
280
     0
102
RTVSPost2010PropOp55
 70
     1
102
RTVSPost2010Prop56
140
1.0
102
RTVSPost2010PropOp56
 70
     1
102
RTVSPost2010Prop57
140
1.0
102
RTVSPost2010PropOp57
 70
     1
102
RTVSPropertyOp0
 70
     1
102
RTVSPropertyOp1
 70
     1
102
RTVSPropertyOp2
 70
     1
102
RTVSPropertyOp3
 70
     1
102
RTVSPropertyOp4
 70
     1
102
RTVSPropertyOp5
 70
     1
102
RTVSPropertyOp6
 70
     1
102
RTVSPropertyOp7
 70
     1
102
RTVSPropertyOp8
 70
     1
102
RTVSPropertyOp9
 70
     1
102
RTVSPropertyOp10
 70
     1
102
RTVSPropertyOp11
 70
     1
102
RTVSPropertyOp12
 70
     1
102
RTVSPropertyOp13
 70
     1
102
RTVSPropertyOp14
 70
     1
102
RTVSPropertyOp15
 70
     1
102
RTVSPropertyOp16
 70
     1
102
RTVSPropertyOp17
 70
     1
102
RTVSPropertyOp18
 70
     1
102
RTVSPropertyOp19
 70
     1
102
RTVSPropertyOp20
 70
     1
102
RTVSPropertyOp21
 70
     1
102
RTVSPropertyOp22
 70
     1
102
RTVSPropertyOp23
 70
     1
102
RTVSPropertyOp24
 70
     1
102
RTVSPropertyOp25
 70
     1
102
RTVSPropertyOp26
 70
     1
102
RTVSPropertyOp27
 70
     1
102
RTVSPropertyOp28
 70
     1
102
RTVSPropertyOp29
 70
     1
102
RTVSPropertyOp30
 70
     1
102
RTVSPropertyOp31
 70
     1
102
RTVSPropertyOp32
 70
     1
102
RTVSPropertyOp33
 70
     1
102
RTVSPropertyOp34
 70
     1
102
RTVSPropertyOp35
 70
     1
102
RTVSPropertyOp36
 70
     1
102
RTVSPropertyOp37
 70
     1
102
RTVSPropertyOp38
 70
     1
102
RTVSPropertyOp39
 70
     1
102
RTVSPropertyOp40
 70
     1
102
RTVSPropertyOp41
 70
     1
102
RTVSPropertyOp42
 70
     1
102
RTVSPropertyOp43
 70
     1
102
RTVSPropertyOp44
 70
     1
102
RTVSPropertyOp45
 70
     1
102
RTVSPropertyOp46
 70
     1
102
RTVSPropertyOp47
 70
     1
102
RTVSPropertyOp48
 70
     1
102
RTVSPropertyOp49
 70
     1
102
RTVSPropertyOp50
 70
     1
102
RTVSPropertyOp51
 70
     0
102
RTVSPropertyOp52
 70
     0
102
RTVSPropertyOp53
 70
     1
102
RTVSPropertyOp54
 70
     1
102
RTVSPropertyOp55
 70
     1
102
RTVSPropertyOp56
 70
     1
102
RTVSPropertyOp57
 70
     1
102
RTVSPropertyOp58
 70
     1
102
RTVSPropertyOp59
 70
     1
102
RTVSPropertyOp60
 70
     1
102
RTVSPropertyOp61
 70
     1
102
RTVSPropertyOp62
 70
     1
  0
XRECORD
  5
1431B
102
{ACAD_REACTORS
330
1431A
102
}
330
1431A
100
AcDbXrecord
280
     1
102
RTVSPost2010Prop28
280
     0
102
RTVSPost2010PropOp28
 70
     0
102
RTVSPost2010Prop29
280
     1
102
RTVSPost2010PropOp29
 70
     0
102
RTVSPost2010Prop30
280
     1
102
RTVSPost2010PropOp30
 70
     0
102
RTVSPost2010Prop31
280
     0
102
RTVSPost2010PropOp31
 70
     0
102
RTVSPost2010Prop32
280
     0
102
RTVSPost2010PropOp32
 70
     0
102
RTVSPost2010Prop33
280
     0
102
RTVSPost2010PropOp33
 70
     0
102
RTVSPost2010Prop34
280
     0
102
RTVSPost2010PropOp34
 70
     0
102
RTVSPost2010Prop35
280
     0
102
RTVSPost2010PropOp35
 70
     0
102
RTVSPost2010Prop36
280
     0
102
RTVSPost2010PropOp36
 70
     0
102
RTVSPost2010Prop37
 90
       50
102
RTVSPost2010PropOp37
 70
     0
102
RTVSPost2010Prop38
140
0.0
102
RTVSPost2010PropOp38
 70
     0
102
RTVSPost2010Prop39
140
1.0
102
RTVSPost2010PropOp39
 70
     0
102
RTVSPost2010Prop40
 90
        0
102
RTVSPost2010PropOp40
 70
     0
102
RTVSPost2010Prop41ColorIndex
 90
       18
102
RTVSPost2010Prop41ColorRGB
 90
        0
102
RTVSPost2010PropOp41
 70
     0
102
RTVSPost2010Prop42
 90
       50
102
RTVSPost2010PropOp42
 70
     0
102
RTVSPost2010Prop43
 90
        3
102
RTVSPost2010PropOp43
 70
     0
102
RTVSPost2010Prop44ColorIndex
 90
        5
102
RTVSPost2010Prop44ColorRGB
 90
      255
102
RTVSPost2010PropOp44
 70
     0
102
RTVSPost2010Prop45
280
     0
102
RTVSPost2010PropOp45
 70
     0
102
RTVSPost2010Prop46
 90
       50
102
RTVSPost2010PropOp46
 70
     0
102
RTVSPost2010Prop47
 90
       50
102
RTVSPost2010PropOp47
 70
     0
102
RTVSPost2010Prop48
 90
       50
102
RTVSPost2010PropOp48
 70
     0
102
RTVSPost2010Prop49
280
     0
102
RTVSPost2010PropOp49
 70
     0
102
RTVSPost2010Prop50
 90
       50
102
RTVSPost2010PropOp50
 70
     0
102
RTVSPost2010Prop51ColorIndex
 90
      256
102
RTVSPost2010Prop51ColorRGB
 90
-16777216
102
RTVSPost2010PropOp51
 70
     0
102
RTVSPost2010Prop52
140
1.0
102
RTVSPost2010PropOp52
 70
     0
102
RTVSPost2010Prop53
 90
        2
102
RTVSPost2010PropOp53
 70
     0
102
RTVSPost2010Prop54
  1
strokes_ogs.tif
102
RTVSPost2010PropOp54
 70
     0
102
RTVSPost2010Prop55
280
     0
102
RTVSPost2010PropOp55
 70
     0
102
RTVSPost2010Prop56
140
1.0
102
RTVSPost2010PropOp56
 70
     0
102
RTVSPost2010Prop57
140
1.0
102
RTVSPost2010PropOp57
 70
     0
102
RTVSPropertyOp0
 70
     0
102
RTVSPropertyOp1
 70
     0
102
RTVSPropertyOp2
 70
     0
102
RTVSPropertyOp3
 70
     0
102
RTVSPropertyOp4
 70
     0
102
RTVSPropertyOp5
 70
     0
102
RTVSPropertyOp6
 70
     0
102
RTVSPropertyOp7
 70
     0
102
RTVSPropertyOp8
 70
     0
102
RTVSPropertyOp9
 70
     0
102
RTVSPropertyOp10
 70
     0
102
RTVSPropertyOp11
 70
     0
102
RTVSPropertyOp12
 70
     0
102
RTVSPropertyOp13
 70
     0
102
RTVSPropertyOp14
 70
     2
102
RTVSPropertyOp15
 70
     0
102
RTVSPropertyOp16
 70
     0
102
RTVSPropertyOp17
 70
     0
102
RTVSPropertyOp18
 70
     0
102
RTVSPropertyOp19
 70
     0
102
RTVSPropertyOp20
 70
     0
102
RTVSPropertyOp21
 70
     0
102
RTVSPropertyOp22
 70
     0
102
RTVSPropertyOp23
 70
     0
102
RTVSPropertyOp24
 70
     0
102
RTVSPropertyOp25
 70
     0
102
RTVSPropertyOp26
 70
     0
102
RTVSPropertyOp27
 70
     0
102
RTVSPropertyOp28
 70
     0
102
RTVSPropertyOp29
 70
     0
102
RTVSPropertyOp30
 70
     0
102
RTVSPropertyOp31
 70
     0
102
RTVSPropertyOp32
 70
     0
102
RTVSPropertyOp33
 70
     0
102
RTVSPropertyOp34
 70
     0
102
RTVSPropertyOp35
 70
     0
102
RTVSPropertyOp36
 70
     0
102
RTVSPropertyOp37
 70
     0
102
RTVSPropertyOp38
 70
     0
102
RTVSPropertyOp39
 70
     0
102
RTVSPropertyOp40
 70
     0
102
RTVSPropertyOp41
 70
     0
102
RTVSPropertyOp42
 70
     0
102
RTVSPropertyOp43
 70
     0
102
RTVSPropertyOp44
 70
     0
102
RTVSPropertyOp45
 70
     0
102
RTVSPropertyOp46
 70
     0
102
RTVSPropertyOp47
 70
     0
102
RTVSPropertyOp48
 70
     0
102
RTVSPropertyOp49
 70
     0
102
RTVSPropertyOp50
 70
     0
102
RTVSPropertyOp51
 70
     0
102
RTVSPropertyOp52
 70
     0
102
RTVSPropertyOp53
 70
     0
102
RTVSPropertyOp54
 70
     0
102
RTVSPropertyOp55
 70
     0
102
RTVSPropertyOp56
 70
     0
102
RTVSPropertyOp57
 70
     0
102
RTVSPropertyOp58
 70
     1
102
RTVSPropertyOp59
 70
     1
102
RTVSPropertyOp60
 70
     1
102
RTVSPropertyOp61
 70
     1
102
RTVSPropertyOp62
 70
     1
  0
XRECORD
  5
14309
102
{ACAD_REACTORS
330
14308
102
}
330
14308
100
AcDbXrecord
280
     1
102
RTVSPost2010Prop28
280
     0
102
RTVSPost2010PropOp28
 70
     1
102
RTVSPost2010Prop29
280
     1
102
RTVSPost2010PropOp29
 70
     1
102
RTVSPost2010Prop30
280
     1
102
RTVSPost2010PropOp30
 70
     1
102
RTVSPost2010Prop31
280
     0
102
RTVSPost2010PropOp31
 70
     1
102
RTVSPost2010Prop32
280
     0
102
RTVSPost2010PropOp32
 70
     1
102
RTVSPost2010Prop33
280
     0
102
RTVSPost2010PropOp33
 70
     1
102
RTVSPost2010Prop34
280
     0
102
RTVSPost2010PropOp34
 70
     1
102
RTVSPost2010Prop35
280
     0
102
RTVSPost2010PropOp35
 70
     1
102
RTVSPost2010Prop36
280
     0
102
RTVSPost2010PropOp36
 70
     1
102
RTVSPost2010Prop37
 90
       50
102
RTVSPost2010PropOp37
 70
     1
102
RTVSPost2010Prop38
140
0.0
102
RTVSPost2010PropOp38
 70
     1
102
RTVSPost2010Prop39
140
1.0
102
RTVSPost2010PropOp39
 70
     1
102
RTVSPost2010Prop40
 90
        0
102
RTVSPost2010PropOp40
 70
     1
102
RTVSPost2010Prop41ColorIndex
 90
       18
102
RTVSPost2010Prop41ColorRGB
 90
        0
102
RTVSPost2010PropOp41
 70
     1
102
RTVSPost2010Prop42
 90
       50
102
RTVSPost2010PropOp42
 70
     1
102
RTVSPost2010Prop43
 90
        3
102
RTVSPost2010PropOp43
 70
     1
102
RTVSPost2010Prop44ColorIndex
 90
        5
102
RTVSPost2010Prop44ColorRGB
 90
      255
102
RTVSPost2010PropOp44
 70
     1
102
RTVSPost2010Prop45
280
     0
102
RTVSPost2010PropOp45
 70
     1
102
RTVSPost2010Prop46
 90
       50
102
RTVSPost2010PropOp46
 70
     1
102
RTVSPost2010Prop47
 90
       50
102
RTVSPost2010PropOp47
 70
     1
102
RTVSPost2010Prop48
 90
       50
102
RTVSPost2010PropOp48
 70
     1
102
RTVSPost2010Prop49
280
     0
102
RTVSPost2010PropOp49
 70
     1
102
RTVSPost2010Prop50
 90
       50
102
RTVSPost2010PropOp50
 70
     1
102
RTVSPost2010Prop51ColorIndex
 90
      256
102
RTVSPost2010Prop51ColorRGB
 90
-16777216
102
RTVSPost2010PropOp51
 70
     0
102
RTVSPost2010Prop52
140
1.0
102
RTVSPost2010PropOp52
 70
     0
102
RTVSPost2010Prop53
 90
        2
102
RTVSPost2010PropOp53
 70
     1
102
RTVSPost2010Prop54
  1
strokes_ogs.tif
102
RTVSPost2010PropOp54
 70
     1
102
RTVSPost2010Prop55
280
     0
102
RTVSPost2010PropOp55
 70
     1
102
RTVSPost2010Prop56
140
1.0
102
RTVSPost2010PropOp56
 70
     1
102
RTVSPost2010Prop57
140
1.0
102
RTVSPost2010PropOp57
 70
     1
102
RTVSPropertyOp0
 70
     1
102
RTVSPropertyOp1
 70
     1
102
RTVSPropertyOp2
 70
     1
102
RTVSPropertyOp3
 70
     1
102
RTVSPropertyOp4
 70
     1
102
RTVSPropertyOp5
 70
     1
102
RTVSPropertyOp6
 70
     1
102
RTVSPropertyOp7
 70
     1
102
RTVSPropertyOp8
 70
     1
102
RTVSPropertyOp9
 70
     1
102
RTVSPropertyOp10
 70
     1
102
RTVSPropertyOp11
 70
     1
102
RTVSPropertyOp12
 70
     1
102
RTVSPropertyOp13
 70
     1
102
RTVSPropertyOp14
 70
     1
102
RTVSPropertyOp15
 70
     1
102
RTVSPropertyOp16
 70
     1
102
RTVSPropertyOp17
 70
     1
102
RTVSPropertyOp18
 70
     1
102
RTVSPropertyOp19
 70
     1
102
RTVSPropertyOp20
 70
     1
102
RTVSPropertyOp21
 70
     1
102
RTVSPropertyOp22
 70
     1
102
RTVSPropertyOp23
 70
     1
102
RTVSPropertyOp24
 70
     1
102
RTVSPropertyOp25
 70
     1
102
RTVSPropertyOp26
 70
     1
102
RTVSPropertyOp27
 70
     1
102
RTVSPropertyOp28
 70
     1
102
RTVSPropertyOp29
 70
     1
102
RTVSPropertyOp30
 70
     1
102
RTVSPropertyOp31
 70
     1
102
RTVSPropertyOp32
 70
     1
102
RTVSPropertyOp33
 70
     1
102
RTVSPropertyOp34
 70
     1
102
RTVSPropertyOp35
 70
     1
102
RTVSPropertyOp36
 70
     1
102
RTVSPropertyOp37
 70
     1
102
RTVSPropertyOp38
 70
     1
102
RTVSPropertyOp39
 70
     1
102
RTVSPropertyOp40
 70
     1
102
RTVSPropertyOp41
 70
     1
102
RTVSPropertyOp42
 70
     1
102
RTVSPropertyOp43
 70
     1
102
RTVSPropertyOp44
 70
     1
102
RTVSPropertyOp45
 70
     1
102
RTVSPropertyOp46
 70
     1
102
RTVSPropertyOp47
 70
     1
102
RTVSPropertyOp48
 70
     1
102
RTVSPropertyOp49
 70
     1
102
RTVSPropertyOp50
 70
     1
102
RTVSPropertyOp51
 70
     0
102
RTVSPropertyOp52
 70
     0
102
RTVSPropertyOp53
 70
     1
102
RTVSPropertyOp54
 70
     1
102
RTVSPropertyOp55
 70
     1
102
RTVSPropertyOp56
 70
     1
102
RTVSPropertyOp57
 70
     1
102
RTVSPropertyOp58
 70
     1
102
RTVSPropertyOp59
 70
     1
102
RTVSPropertyOp60
 70
     1
102
RTVSPropertyOp61
 70
     1
102
RTVSPropertyOp62
 70
     1
  0
XRECORD
  5
142ED
102
{ACAD_REACTORS
330
142EC
102
}
330
142EC
100
AcDbXrecord
280
     1
102
RTVSPost2010Prop28
280
     0
102
RTVSPost2010PropOp28
 70
     1
102
RTVSPost2010Prop29
280
     1
102
RTVSPost2010PropOp29
 70
     1
102
RTVSPost2010Prop30
280
     1
102
RTVSPost2010PropOp30
 70
     1
102
RTVSPost2010Prop31
280
     0
102
RTVSPost2010PropOp31
 70
     1
102
RTVSPost2010Prop32
280
     0
102
RTVSPost2010PropOp32
 70
     1
102
RTVSPost2010Prop33
280
     0
102
RTVSPost2010PropOp33
 70
     1
102
RTVSPost2010Prop34
280
     0
102
RTVSPost2010PropOp34
 70
     1
102
RTVSPost2010Prop35
280
     0
102
RTVSPost2010PropOp35
 70
     1
102
RTVSPost2010Prop36
280
     0
102
RTVSPost2010PropOp36
 70
     1
102
RTVSPost2010Prop37
 90
       50
102
RTVSPost2010PropOp37
 70
     1
102
RTVSPost2010Prop38
140
0.0
102
RTVSPost2010PropOp38
 70
     1
102
RTVSPost2010Prop39
140
1.0
102
RTVSPost2010PropOp39
 70
     1
102
RTVSPost2010Prop40
 90
        0
102
RTVSPost2010PropOp40
 70
     1
102
RTVSPost2010Prop41ColorIndex
 90
       18
102
RTVSPost2010Prop41ColorRGB
 90
        0
102
RTVSPost2010PropOp41
 70
     1
102
RTVSPost2010Prop42
 90
       50
102
RTVSPost2010PropOp42
 70
     1
102
RTVSPost2010Prop43
 90
        3
102
RTVSPost2010PropOp43
 70
     1
102
RTVSPost2010Prop44ColorIndex
 90
        5
102
RTVSPost2010Prop44ColorRGB
 90
      255
102
RTVSPost2010PropOp44
 70
     1
102
RTVSPost2010Prop45
280
     0
102
RTVSPost2010PropOp45
 70
     1
102
RTVSPost2010Prop46
 90
       50
102
RTVSPost2010PropOp46
 70
     1
102
RTVSPost2010Prop47
 90
       50
102
RTVSPost2010PropOp47
 70
     1
102
RTVSPost2010Prop48
 90
       50
102
RTVSPost2010PropOp48
 70
     1
102
RTVSPost2010Prop49
280
     0
102
RTVSPost2010PropOp49
 70
     1
102
RTVSPost2010Prop50
 90
       50
102
RTVSPost2010PropOp50
 70
     1
102
RTVSPost2010Prop51ColorIndex
 90
      256
102
RTVSPost2010Prop51ColorRGB
 90
-16777216
102
RTVSPost2010PropOp51
 70
     0
102
RTVSPost2010Prop52
140
1.0
102
RTVSPost2010PropOp52
 70
     0
102
RTVSPost2010Prop53
 90
        2
102
RTVSPost2010PropOp53
 70
     1
102
RTVSPost2010Prop54
  1
strokes_ogs.tif
102
RTVSPost2010PropOp54
 70
     1
102
RTVSPost2010Prop55
280
     0
102
RTVSPost2010PropOp55
 70
     1
102
RTVSPost2010Prop56
140
1.0
102
RTVSPost2010PropOp56
 70
     1
102
RTVSPost2010Prop57
140
1.0
102
RTVSPost2010PropOp57
 70
     1
102
RTVSPropertyOp0
 70
     1
102
RTVSPropertyOp1
 70
     1
102
RTVSPropertyOp2
 70
     1
102
RTVSPropertyOp3
 70
     1
102
RTVSPropertyOp4
 70
     1
102
RTVSPropertyOp5
 70
     1
102
RTVSPropertyOp6
 70
     1
102
RTVSPropertyOp7
 70
     1
102
RTVSPropertyOp8
 70
     1
102
RTVSPropertyOp9
 70
     1
102
RTVSPropertyOp10
 70
     1
102
RTVSPropertyOp11
 70
     1
102
RTVSPropertyOp12
 70
     1
102
RTVSPropertyOp13
 70
     1
102
RTVSPropertyOp14
 70
     1
102
RTVSPropertyOp15
 70
     1
102
RTVSPropertyOp16
 70
     1
102
RTVSPropertyOp17
 70
     1
102
RTVSPropertyOp18
 70
     1
102
RTVSPropertyOp19
 70
     1
102
RTVSPropertyOp20
 70
     1
102
RTVSPropertyOp21
 70
     1
102
RTVSPropertyOp22
 70
     1
102
RTVSPropertyOp23
 70
     1
102
RTVSPropertyOp24
 70
     1
102
RTVSPropertyOp25
 70
     1
102
RTVSPropertyOp26
 70
     1
102
RTVSPropertyOp27
 70
     1
102
RTVSPropertyOp28
 70
     1
102
RTVSPropertyOp29
 70
     1
102
RTVSPropertyOp30
 70
     1
102
RTVSPropertyOp31
 70
     1
102
RTVSPropertyOp32
 70
     1
102
RTVSPropertyOp33
 70
     1
102
RTVSPropertyOp34
 70
     1
102
RTVSPropertyOp35
 70
     1
102
RTVSPropertyOp36
 70
     1
102
RTVSPropertyOp37
 70
     1
102
RTVSPropertyOp38
 70
     1
102
RTVSPropertyOp39
 70
     1
102
RTVSPropertyOp40
 70
     1
102
RTVSPropertyOp41
 70
     1
102
RTVSPropertyOp42
 70
     1
102
RTVSPropertyOp43
 70
     1
102
RTVSPropertyOp44
 70
     1
102
RTVSPropertyOp45
 70
     1
102
RTVSPropertyOp46
 70
     1
102
RTVSPropertyOp47
 70
     1
102
RTVSPropertyOp48
 70
     1
102
RTVSPropertyOp49
 70
     1
102
RTVSPropertyOp50
 70
     1
102
RTVSPropertyOp51
 70
     0
102
RTVSPropertyOp52
 70
     0
102
RTVSPropertyOp53
 70
     1
102
RTVSPropertyOp54
 70
     1
102
RTVSPropertyOp55
 70
     1
102
RTVSPropertyOp56
 70
     1
102
RTVSPropertyOp57
 70
     1
102
RTVSPropertyOp58
 70
     1
102
RTVSPropertyOp59
 70
     1
102
RTVSPropertyOp60
 70
     1
102
RTVSPropertyOp61
 70
     1
102
RTVSPropertyOp62
 70
     1
  0
XRECORD
  5
142EF
102
{ACAD_REACTORS
330
142EE
102
}
330
142EE
100
AcDbXrecord
280
     1
102
RTVSPost2010Prop28
280
     0
102
RTVSPost2010PropOp28
 70
     1
102
RTVSPost2010Prop29
280
     1
102
RTVSPost2010PropOp29
 70
     1
102
RTVSPost2010Prop30
280
     1
102
RTVSPost2010PropOp30
 70
     1
102
RTVSPost2010Prop31
280
     0
102
RTVSPost2010PropOp31
 70
     1
102
RTVSPost2010Prop32
280
     0
102
RTVSPost2010PropOp32
 70
     1
102
RTVSPost2010Prop33
280
     0
102
RTVSPost2010PropOp33
 70
     1
102
RTVSPost2010Prop34
280
     0
102
RTVSPost2010PropOp34
 70
     1
102
RTVSPost2010Prop35
280
     0
102
RTVSPost2010PropOp35
 70
     1
102
RTVSPost2010Prop36
280
     0
102
RTVSPost2010PropOp36
 70
     1
102
RTVSPost2010Prop37
 90
       50
102
RTVSPost2010PropOp37
 70
     1
102
RTVSPost2010Prop38
140
0.0
102
RTVSPost2010PropOp38
 70
     1
102
RTVSPost2010Prop39
140
1.0
102
RTVSPost2010PropOp39
 70
     1
102
RTVSPost2010Prop40
 90
        0
102
RTVSPost2010PropOp40
 70
     1
102
RTVSPost2010Prop41ColorIndex
 90
       18
102
RTVSPost2010Prop41ColorRGB
 90
        0
102
RTVSPost2010PropOp41
 70
     1
102
RTVSPost2010Prop42
 90
       50
102
RTVSPost2010PropOp42
 70
     1
102
RTVSPost2010Prop43
 90
        3
102
RTVSPost2010PropOp43
 70
     1
102
RTVSPost2010Prop44ColorIndex
 90
        5
102
RTVSPost2010Prop44ColorRGB
 90
      255
102
RTVSPost2010PropOp44
 70
     1
102
RTVSPost2010Prop45
280
     0
102
RTVSPost2010PropOp45
 70
     1
102
RTVSPost2010Prop46
 90
       50
102
RTVSPost2010PropOp46
 70
     1
102
RTVSPost2010Prop47
 90
       50
102
RTVSPost2010PropOp47
 70
     1
102
RTVSPost2010Prop48
 90
       50
102
RTVSPost2010PropOp48
 70
     1
102
RTVSPost2010Prop49
280
     0
102
RTVSPost2010PropOp49
 70
     1
102
RTVSPost2010Prop50
 90
       50
102
RTVSPost2010PropOp50
 70
     1
102
RTVSPost2010Prop51ColorIndex
 90
      256
102
RTVSPost2010Prop51ColorRGB
 90
-16777216
102
RTVSPost2010PropOp51
 70
     0
102
RTVSPost2010Prop52
140
1.0
102
RTVSPost2010PropOp52
 70
     0
102
RTVSPost2010Prop53
 90
        2
102
RTVSPost2010PropOp53
 70
     1
102
RTVSPost2010Prop54
  1
strokes_ogs.tif
102
RTVSPost2010PropOp54
 70
     1
102
RTVSPost2010Prop55
280
     0
102
RTVSPost2010PropOp55
 70
     1
102
RTVSPost2010Prop56
140
1.0
102
RTVSPost2010PropOp56
 70
     1
102
RTVSPost2010Prop57
140
1.0
102
RTVSPost2010PropOp57
 70
     1
102
RTVSPropertyOp0
 70
     1
102
RTVSPropertyOp1
 70
     1
102
RTVSPropertyOp2
 70
     1
102
RTVSPropertyOp3
 70
     1
102
RTVSPropertyOp4
 70
     1
102
RTVSPropertyOp5
 70
     1
102
RTVSPropertyOp6
 70
     1
102
RTVSPropertyOp7
 70
     1
102
RTVSPropertyOp8
 70
     1
102
RTVSPropertyOp9
 70
     1
102
RTVSPropertyOp10
 70
     1
102
RTVSPropertyOp11
 70
     1
102
RTVSPropertyOp12
 70
     1
102
RTVSPropertyOp13
 70
     1
102
RTVSPropertyOp14
 70
     1
102
RTVSPropertyOp15
 70
     1
102
RTVSPropertyOp16
 70
     1
102
RTVSPropertyOp17
 70
     1
102
RTVSPropertyOp18
 70
     1
102
RTVSPropertyOp19
 70
     1
102
RTVSPropertyOp20
 70
     1
102
RTVSPropertyOp21
 70
     1
102
RTVSPropertyOp22
 70
     1
102
RTVSPropertyOp23
 70
     1
102
RTVSPropertyOp24
 70
     1
102
RTVSPropertyOp25
 70
     1
102
RTVSPropertyOp26
 70
     1
102
RTVSPropertyOp27
 70
     1
102
RTVSPropertyOp28
 70
     1
102
RTVSPropertyOp29
 70
     1
102
RTVSPropertyOp30
 70
     1
102
RTVSPropertyOp31
 70
     1
102
RTVSPropertyOp32
 70
     1
102
RTVSPropertyOp33
 70
     1
102
RTVSPropertyOp34
 70
     1
102
RTVSPropertyOp35
 70
     1
102
RTVSPropertyOp36
 70
     1
102
RTVSPropertyOp37
 70
     1
102
RTVSPropertyOp38
 70
     1
102
RTVSPropertyOp39
 70
     1
102
RTVSPropertyOp40
 70
     1
102
RTVSPropertyOp41
 70
     1
102
RTVSPropertyOp42
 70
     1
102
RTVSPropertyOp43
 70
     1
102
RTVSPropertyOp44
 70
     1
102
RTVSPropertyOp45
 70
     1
102
RTVSPropertyOp46
 70
     1
102
RTVSPropertyOp47
 70
     1
102
RTVSPropertyOp48
 70
     1
102
RTVSPropertyOp49
 70
     1
102
RTVSPropertyOp50
 70
     1
102
RTVSPropertyOp51
 70
     0
102
RTVSPropertyOp52
 70
     0
102
RTVSPropertyOp53
 70
     1
102
RTVSPropertyOp54
 70
     1
102
RTVSPropertyOp55
 70
     1
102
RTVSPropertyOp56
 70
     1
102
RTVSPropertyOp57
 70
     1
102
RTVSPropertyOp58
 70
     1
102
RTVSPropertyOp59
 70
     1
102
RTVSPropertyOp60
 70
     1
102
RTVSPropertyOp61
 70
     1
102
RTVSPropertyOp62
 70
     1
  0
XRECORD
  5
142F1
102
{ACAD_REACTORS
330
142F0
102
}
330
142F0
100
AcDbXrecord
280
     1
102
RTVSPost2010Prop28
280
     0
102
RTVSPost2010PropOp28
 70
     1
102
RTVSPost2010Prop29
280
     1
102
RTVSPost2010PropOp29
 70
     1
102
RTVSPost2010Prop30
280
     1
102
RTVSPost2010PropOp30
 70
     1
102
RTVSPost2010Prop31
280
     0
102
RTVSPost2010PropOp31
 70
     1
102
RTVSPost2010Prop32
280
     0
102
RTVSPost2010PropOp32
 70
     1
102
RTVSPost2010Prop33
280
     0
102
RTVSPost2010PropOp33
 70
     1
102
RTVSPost2010Prop34
280
     0
102
RTVSPost2010PropOp34
 70
     1
102
RTVSPost2010Prop35
280
     0
102
RTVSPost2010PropOp35
 70
     1
102
RTVSPost2010Prop36
280
     0
102
RTVSPost2010PropOp36
 70
     1
102
RTVSPost2010Prop37
 90
       50
102
RTVSPost2010PropOp37
 70
     1
102
RTVSPost2010Prop38
140
0.0
102
RTVSPost2010PropOp38
 70
     1
102
RTVSPost2010Prop39
140
1.0
102
RTVSPost2010PropOp39
 70
     1
102
RTVSPost2010Prop40
 90
        0
102
RTVSPost2010PropOp40
 70
     1
102
RTVSPost2010Prop41ColorIndex
 90
       18
102
RTVSPost2010Prop41ColorRGB
 90
        0
102
RTVSPost2010PropOp41
 70
     1
102
RTVSPost2010Prop42
 90
       50
102
RTVSPost2010PropOp42
 70
     1
102
RTVSPost2010Prop43
 90
        3
102
RTVSPost2010PropOp43
 70
     1
102
RTVSPost2010Prop44ColorIndex
 90
        5
102
RTVSPost2010Prop44ColorRGB
 90
      255
102
RTVSPost2010PropOp44
 70
     1
102
RTVSPost2010Prop45
280
     0
102
RTVSPost2010PropOp45
 70
     1
102
RTVSPost2010Prop46
 90
       50
102
RTVSPost2010PropOp46
 70
     1
102
RTVSPost2010Prop47
 90
       50
102
RTVSPost2010PropOp47
 70
     1
102
RTVSPost2010Prop48
 90
       50
102
RTVSPost2010PropOp48
 70
     1
102
RTVSPost2010Prop49
280
     0
102
RTVSPost2010PropOp49
 70
     1
102
RTVSPost2010Prop50
 90
       50
102
RTVSPost2010PropOp50
 70
     1
102
RTVSPost2010Prop51ColorIndex
 90
      256
102
RTVSPost2010Prop51ColorRGB
 90
-16777216
102
RTVSPost2010PropOp51
 70
     0
102
RTVSPost2010Prop52
140
1.0
102
RTVSPost2010PropOp52
 70
     0
102
RTVSPost2010Prop53
 90
        2
102
RTVSPost2010PropOp53
 70
     1
102
RTVSPost2010Prop54
  1
strokes_ogs.tif
102
RTVSPost2010PropOp54
 70
     1
102
RTVSPost2010Prop55
280
     0
102
RTVSPost2010PropOp55
 70
     1
102
RTVSPost2010Prop56
140
1.0
102
RTVSPost2010PropOp56
 70
     1
102
RTVSPost2010Prop57
140
1.0
102
RTVSPost2010PropOp57
 70
     1
102
RTVSPropertyOp0
 70
     1
102
RTVSPropertyOp1
 70
     1
102
RTVSPropertyOp2
 70
     1
102
RTVSPropertyOp3
 70
     1
102
RTVSPropertyOp4
 70
     1
102
RTVSPropertyOp5
 70
     1
102
RTVSPropertyOp6
 70
     1
102
RTVSPropertyOp7
 70
     1
102
RTVSPropertyOp8
 70
     1
102
RTVSPropertyOp9
 70
     1
102
RTVSPropertyOp10
 70
     1
102
RTVSPropertyOp11
 70
     1
102
RTVSPropertyOp12
 70
     1
102
RTVSPropertyOp13
 70
     1
102
RTVSPropertyOp14
 70
     1
102
RTVSPropertyOp15
 70
     1
102
RTVSPropertyOp16
 70
     1
102
RTVSPropertyOp17
 70
     1
102
RTVSPropertyOp18
 70
     1
102
RTVSPropertyOp19
 70
     1
102
RTVSPropertyOp20
 70
     1
102
RTVSPropertyOp21
 70
     1
102
RTVSPropertyOp22
 70
     1
102
RTVSPropertyOp23
 70
     1
102
RTVSPropertyOp24
 70
     1
102
RTVSPropertyOp25
 70
     1
102
RTVSPropertyOp26
 70
     1
102
RTVSPropertyOp27
 70
     1
102
RTVSPropertyOp28
 70
     1
102
RTVSPropertyOp29
 70
     1
102
RTVSPropertyOp30
 70
     1
102
RTVSPropertyOp31
 70
     1
102
RTVSPropertyOp32
 70
     1
102
RTVSPropertyOp33
 70
     1
102
RTVSPropertyOp34
 70
     1
102
RTVSPropertyOp35
 70
     1
102
RTVSPropertyOp36
 70
     1
102
RTVSPropertyOp37
 70
     1
102
RTVSPropertyOp38
 70
     1
102
RTVSPropertyOp39
 70
     1
102
RTVSPropertyOp40
 70
     1
102
RTVSPropertyOp41
 70
     1
102
RTVSPropertyOp42
 70
     1
102
RTVSPropertyOp43
 70
     1
102
RTVSPropertyOp44
 70
     1
102
RTVSPropertyOp45
 70
     1
102
RTVSPropertyOp46
 70
     1
102
RTVSPropertyOp47
 70
     1
102
RTVSPropertyOp48
 70
     1
102
RTVSPropertyOp49
 70
     1
102
RTVSPropertyOp50
 70
     1
102
RTVSPropertyOp51
 70
     0
102
RTVSPropertyOp52
 70
     0
102
RTVSPropertyOp53
 70
     1
102
RTVSPropertyOp54
 70
     1
102
RTVSPropertyOp55
 70
     1
102
RTVSPropertyOp56
 70
     1
102
RTVSPropertyOp57
 70
     1
102
RTVSPropertyOp58
 70
     1
102
RTVSPropertyOp59
 70
     1
102
RTVSPropertyOp60
 70
     1
102
RTVSPropertyOp61
 70
     1
102
RTVSPropertyOp62
 70
     1
  0
XRECORD
  5
142F3
102
{ACAD_REACTORS
330
142F2
102
}
330
142F2
100
AcDbXrecord
280
     1
102
RTVSPost2010Prop28
280
     0
102
RTVSPost2010PropOp28
 70
     1
102
RTVSPost2010Prop29
280
     1
102
RTVSPost2010PropOp29
 70
     1
102
RTVSPost2010Prop30
280
     1
102
RTVSPost2010PropOp30
 70
     1
102
RTVSPost2010Prop31
280
     0
102
RTVSPost2010PropOp31
 70
     1
102
RTVSPost2010Prop32
280
     0
102
RTVSPost2010PropOp32
 70
     1
102
RTVSPost2010Prop33
280
     0
102
RTVSPost2010PropOp33
 70
     1
102
RTVSPost2010Prop34
280
     0
102
RTVSPost2010PropOp34
 70
     1
102
RTVSPost2010Prop35
280
     0
102
RTVSPost2010PropOp35
 70
     1
102
RTVSPost2010Prop36
280
     0
102
RTVSPost2010PropOp36
 70
     1
102
RTVSPost2010Prop37
 90
       50
102
RTVSPost2010PropOp37
 70
     1
102
RTVSPost2010Prop38
140
0.0
102
RTVSPost2010PropOp38
 70
     1
102
RTVSPost2010Prop39
140
1.0
102
RTVSPost2010PropOp39
 70
     1
102
RTVSPost2010Prop40
 90
        0
102
RTVSPost2010PropOp40
 70
     1
102
RTVSPost2010Prop41ColorIndex
 90
       18
102
RTVSPost2010Prop41ColorRGB
 90
        0
102
RTVSPost2010PropOp41
 70
     1
102
RTVSPost2010Prop42
 90
       50
102
RTVSPost2010PropOp42
 70
     1
102
RTVSPost2010Prop43
 90
        3
102
RTVSPost2010PropOp43
 70
     1
102
RTVSPost2010Prop44ColorIndex
 90
        5
102
RTVSPost2010Prop44ColorRGB
 90
      255
102
RTVSPost2010PropOp44
 70
     1
102
RTVSPost2010Prop45
280
     0
102
RTVSPost2010PropOp45
 70
     1
102
RTVSPost2010Prop46
 90
       50
102
RTVSPost2010PropOp46
 70
     1
102
RTVSPost2010Prop47
 90
       50
102
RTVSPost2010PropOp47
 70
     1
102
RTVSPost2010Prop48
 90
       50
102
RTVSPost2010PropOp48
 70
     1
102
RTVSPost2010Prop49
280
     0
102
RTVSPost2010PropOp49
 70
     1
102
RTVSPost2010Prop50
 90
       50
102
RTVSPost2010PropOp50
 70
     1
102
RTVSPost2010Prop51ColorIndex
 90
      256
102
RTVSPost2010Prop51ColorRGB
 90
-16777216
102
RTVSPost2010PropOp51
 70
     0
102
RTVSPost2010Prop52
140
1.0
102
RTVSPost2010PropOp52
 70
     0
102
RTVSPost2010Prop53
 90
        2
102
RTVSPost2010PropOp53
 70
     1
102
RTVSPost2010Prop54
  1
strokes_ogs.tif
102
RTVSPost2010PropOp54
 70
     1
102
RTVSPost2010Prop55
280
     0
102
RTVSPost2010PropOp55
 70
     1
102
RTVSPost2010Prop56
140
1.0
102
RTVSPost2010PropOp56
 70
     1
102
RTVSPost2010Prop57
140
1.0
102
RTVSPost2010PropOp57
 70
     1
102
RTVSPropertyOp0
 70
     1
102
RTVSPropertyOp1
 70
     1
102
RTVSPropertyOp2
 70
     1
102
RTVSPropertyOp3
 70
     1
102
RTVSPropertyOp4
 70
     1
102
RTVSPropertyOp5
 70
     1
102
RTVSPropertyOp6
 70
     1
102
RTVSPropertyOp7
 70
     1
102
RTVSPropertyOp8
 70
     1
102
RTVSPropertyOp9
 70
     1
102
RTVSPropertyOp10
 70
     1
102
RTVSPropertyOp11
 70
     1
102
RTVSPropertyOp12
 70
     1
102
RTVSPropertyOp13
 70
     1
102
RTVSPropertyOp14
 70
     1
102
RTVSPropertyOp15
 70
     1
102
RTVSPropertyOp16
 70
     1
102
RTVSPropertyOp17
 70
     1
102
RTVSPropertyOp18
 70
     1
102
RTVSPropertyOp19
 70
     1
102
RTVSPropertyOp20
 70
     1
102
RTVSPropertyOp21
 70
     1
102
RTVSPropertyOp22
 70
     1
102
RTVSPropertyOp23
 70
     1
102
RTVSPropertyOp24
 70
     1
102
RTVSPropertyOp25
 70
     1
102
RTVSPropertyOp26
 70
     1
102
RTVSPropertyOp27
 70
     1
102
RTVSPropertyOp28
 70
     1
102
RTVSPropertyOp29
 70
     1
102
RTVSPropertyOp30
 70
     1
102
RTVSPropertyOp31
 70
     1
102
RTVSPropertyOp32
 70
     1
102
RTVSPropertyOp33
 70
     1
102
RTVSPropertyOp34
 70
     1
102
RTVSPropertyOp35
 70
     1
102
RTVSPropertyOp36
 70
     1
102
RTVSPropertyOp37
 70
     1
102
RTVSPropertyOp38
 70
     1
102
RTVSPropertyOp39
 70
     1
102
RTVSPropertyOp40
 70
     1
102
RTVSPropertyOp41
 70
     1
102
RTVSPropertyOp42
 70
     1
102
RTVSPropertyOp43
 70
     1
102
RTVSPropertyOp44
 70
     1
102
RTVSPropertyOp45
 70
     1
102
RTVSPropertyOp46
 70
     1
102
RTVSPropertyOp47
 70
     1
102
RTVSPropertyOp48
 70
     1
102
RTVSPropertyOp49
 70
     1
102
RTVSPropertyOp50
 70
     1
102
RTVSPropertyOp51
 70
     0
102
RTVSPropertyOp52
 70
     0
102
RTVSPropertyOp53
 70
     1
102
RTVSPropertyOp54
 70
     1
102
RTVSPropertyOp55
 70
     1
102
RTVSPropertyOp56
 70
     1
102
RTVSPropertyOp57
 70
     1
102
RTVSPropertyOp58
 70
     1
102
RTVSPropertyOp59
 70
     1
102
RTVSPropertyOp60
 70
     1
102
RTVSPropertyOp61
 70
     1
102
RTVSPropertyOp62
 70
     1
  0
XRECORD
  5
142FB
102
{ACAD_REACTORS
330
142FA
102
}
330
142FA
100
AcDbXrecord
280
     1
102
RTVSPost2010Prop28
280
     0
102
RTVSPost2010PropOp28
 70
     1
102
RTVSPost2010Prop29
280
     1
102
RTVSPost2010PropOp29
 70
     1
102
RTVSPost2010Prop30
280
     1
102
RTVSPost2010PropOp30
 70
     1
102
RTVSPost2010Prop31
280
     0
102
RTVSPost2010PropOp31
 70
     1
102
RTVSPost2010Prop32
280
     0
102
RTVSPost2010PropOp32
 70
     1
102
RTVSPost2010Prop33
280
     0
102
RTVSPost2010PropOp33
 70
     1
102
RTVSPost2010Prop34
280
     0
102
RTVSPost2010PropOp34
 70
     1
102
RTVSPost2010Prop35
280
     0
102
RTVSPost2010PropOp35
 70
     1
102
RTVSPost2010Prop36
280
     0
102
RTVSPost2010PropOp36
 70
     1
102
RTVSPost2010Prop37
 90
       50
102
RTVSPost2010PropOp37
 70
     1
102
RTVSPost2010Prop38
140
0.0
102
RTVSPost2010PropOp38
 70
     1
102
RTVSPost2010Prop39
140
1.0
102
RTVSPost2010PropOp39
 70
     1
102
RTVSPost2010Prop40
 90
        0
102
RTVSPost2010PropOp40
 70
     1
102
RTVSPost2010Prop41ColorIndex
 90
       18
102
RTVSPost2010Prop41ColorRGB
 90
        0
102
RTVSPost2010PropOp41
 70
     1
102
RTVSPost2010Prop42
 90
       50
102
RTVSPost2010PropOp42
 70
     1
102
RTVSPost2010Prop43
 90
        3
102
RTVSPost2010PropOp43
 70
     1
102
RTVSPost2010Prop44ColorIndex
 90
        5
102
RTVSPost2010Prop44ColorRGB
 90
      255
102
RTVSPost2010PropOp44
 70
     1
102
RTVSPost2010Prop45
280
     0
102
RTVSPost2010PropOp45
 70
     1
102
RTVSPost2010Prop46
 90
       50
102
RTVSPost2010PropOp46
 70
     1
102
RTVSPost2010Prop47
 90
       50
102
RTVSPost2010PropOp47
 70
     1
102
RTVSPost2010Prop48
 90
       50
102
RTVSPost2010PropOp48
 70
     1
102
RTVSPost2010Prop49
280
     0
102
RTVSPost2010PropOp49
 70
     1
102
RTVSPost2010Prop50
 90
       50
102
RTVSPost2010PropOp50
 70
     1
102
RTVSPost2010Prop51ColorIndex
 90
      256
102
RTVSPost2010Prop51ColorRGB
 90
-16777216
102
RTVSPost2010PropOp51
 70
     0
102
RTVSPost2010Prop52
140
1.0
102
RTVSPost2010PropOp52
 70
     0
102
RTVSPost2010Prop53
 90
        2
102
RTVSPost2010PropOp53
 70
     1
102
RTVSPost2010Prop54
  1
strokes_ogs.tif
102
RTVSPost2010PropOp54
 70
     1
102
RTVSPost2010Prop55
280
     0
102
RTVSPost2010PropOp55
 70
     1
102
RTVSPost2010Prop56
140
1.0
102
RTVSPost2010PropOp56
 70
     1
102
RTVSPost2010Prop57
140
1.0
102
RTVSPost2010PropOp57
 70
     1
102
RTVSPropertyOp0
 70
     1
102
RTVSPropertyOp1
 70
     1
102
RTVSPropertyOp2
 70
     1
102
RTVSPropertyOp3
 70
     1
102
RTVSPropertyOp4
 70
     1
102
RTVSPropertyOp5
 70
     1
102
RTVSPropertyOp6
 70
     1
102
RTVSPropertyOp7
 70
     1
102
RTVSPropertyOp8
 70
     1
102
RTVSPropertyOp9
 70
     1
102
RTVSPropertyOp10
 70
     1
102
RTVSPropertyOp11
 70
     1
102
RTVSPropertyOp12
 70
     1
102
RTVSPropertyOp13
 70
     1
102
RTVSPropertyOp14
 70
     1
102
RTVSPropertyOp15
 70
     1
102
RTVSPropertyOp16
 70
     1
102
RTVSPropertyOp17
 70
     1
102
RTVSPropertyOp18
 70
     1
102
RTVSPropertyOp19
 70
     1
102
RTVSPropertyOp20
 70
     1
102
RTVSPropertyOp21
 70
     1
102
RTVSPropertyOp22
 70
     1
102
RTVSPropertyOp23
 70
     1
102
RTVSPropertyOp24
 70
     1
102
RTVSPropertyOp25
 70
     1
102
RTVSPropertyOp26
 70
     1
102
RTVSPropertyOp27
 70
     1
102
RTVSPropertyOp28
 70
     1
102
RTVSPropertyOp29
 70
     1
102
RTVSPropertyOp30
 70
     1
102
RTVSPropertyOp31
 70
     1
102
RTVSPropertyOp32
 70
     1
102
RTVSPropertyOp33
 70
     1
102
RTVSPropertyOp34
 70
     1
102
RTVSPropertyOp35
 70
     1
102
RTVSPropertyOp36
 70
     1
102
RTVSPropertyOp37
 70
     1
102
RTVSPropertyOp38
 70
     1
102
RTVSPropertyOp39
 70
     1
102
RTVSPropertyOp40
 70
     1
102
RTVSPropertyOp41
 70
     1
102
RTVSPropertyOp42
 70
     1
102
RTVSPropertyOp43
 70
     1
102
RTVSPropertyOp44
 70
     1
102
RTVSPropertyOp45
 70
     1
102
RTVSPropertyOp46
 70
     1
102
RTVSPropertyOp47
 70
     1
102
RTVSPropertyOp48
 70
     1
102
RTVSPropertyOp49
 70
     1
102
RTVSPropertyOp50
 70
     1
102
RTVSPropertyOp51
 70
     0
102
RTVSPropertyOp52
 70
     0
102
RTVSPropertyOp53
 70
     1
102
RTVSPropertyOp54
 70
     1
102
RTVSPropertyOp55
 70
     1
102
RTVSPropertyOp56
 70
     1
102
RTVSPropertyOp57
 70
     1
102
RTVSPropertyOp58
 70
     1
102
RTVSPropertyOp59
 70
     1
102
RTVSPropertyOp60
 70
     1
102
RTVSPropertyOp61
 70
     1
102
RTVSPropertyOp62
 70
     1
  0
XRECORD
  5
14317
102
{ACAD_REACTORS
330
14316
102
}
330
14316
100
AcDbXrecord
280
     1
102
RTVSPost2010Prop28
280
     0
102
RTVSPost2010PropOp28
 70
     0
102
RTVSPost2010Prop29
280
     1
102
RTVSPost2010PropOp29
 70
     0
102
RTVSPost2010Prop30
280
     1
102
RTVSPost2010PropOp30
 70
     0
102
RTVSPost2010Prop31
280
     0
102
RTVSPost2010PropOp31
 70
     0
102
RTVSPost2010Prop32
280
     0
102
RTVSPost2010PropOp32
 70
     0
102
RTVSPost2010Prop33
280
     0
102
RTVSPost2010PropOp33
 70
     0
102
RTVSPost2010Prop34
280
     0
102
RTVSPost2010PropOp34
 70
     0
102
RTVSPost2010Prop35
280
     0
102
RTVSPost2010PropOp35
 70
     0
102
RTVSPost2010Prop36
280
     0
102
RTVSPost2010PropOp36
 70
     0
102
RTVSPost2010Prop37
 90
       50
102
RTVSPost2010PropOp37
 70
     0
102
RTVSPost2010Prop38
140
0.0
102
RTVSPost2010PropOp38
 70
     0
102
RTVSPost2010Prop39
140
1.0
102
RTVSPost2010PropOp39
 70
     0
102
RTVSPost2010Prop40
 90
        0
102
RTVSPost2010PropOp40
 70
     0
102
RTVSPost2010Prop41ColorIndex
 90
       18
102
RTVSPost2010Prop41ColorRGB
 90
        0
102
RTVSPost2010PropOp41
 70
     0
102
RTVSPost2010Prop42
 90
       50
102
RTVSPost2010PropOp42
 70
     0
102
RTVSPost2010Prop43
 90
        3
102
RTVSPost2010PropOp43
 70
     0
102
RTVSPost2010Prop44ColorIndex
 90
        5
102
RTVSPost2010Prop44ColorRGB
 90
      255
102
RTVSPost2010PropOp44
 70
     0
102
RTVSPost2010Prop45
280
     0
102
RTVSPost2010PropOp45
 70
     0
102
RTVSPost2010Prop46
 90
       50
102
RTVSPost2010PropOp46
 70
     0
102
RTVSPost2010Prop47
 90
       50
102
RTVSPost2010PropOp47
 70
     0
102
RTVSPost2010Prop48
 90
       50
102
RTVSPost2010PropOp48
 70
     0
102
RTVSPost2010Prop49
280
     0
102
RTVSPost2010PropOp49
 70
     0
102
RTVSPost2010Prop50
 90
       50
102
RTVSPost2010PropOp50
 70
     0
102
RTVSPost2010Prop51ColorIndex
 90
      256
102
RTVSPost2010Prop51ColorRGB
 90
-16777216
102
RTVSPost2010PropOp51
 70
     0
102
RTVSPost2010Prop52
140
1.0
102
RTVSPost2010PropOp52
 70
     0
102
RTVSPost2010Prop53
 90
        2
102
RTVSPost2010PropOp53
 70
     0
102
RTVSPost2010Prop54
  1
strokes_ogs.tif
102
RTVSPost2010PropOp54
 70
     0
102
RTVSPost2010Prop55
280
     0
102
RTVSPost2010PropOp55
 70
     0
102
RTVSPost2010Prop56
140
1.0
102
RTVSPost2010PropOp56
 70
     0
102
RTVSPost2010Prop57
140
1.0
102
RTVSPost2010PropOp57
 70
     0
102
RTVSPropertyOp0
 70
     0
102
RTVSPropertyOp1
 70
     0
102
RTVSPropertyOp2
 70
     0
102
RTVSPropertyOp3
 70
     0
102
RTVSPropertyOp4
 70
     0
102
RTVSPropertyOp5
 70
     0
102
RTVSPropertyOp6
 70
     0
102
RTVSPropertyOp7
 70
     0
102
RTVSPropertyOp8
 70
     0
102
RTVSPropertyOp9
 70
     0
102
RTVSPropertyOp10
 70
     0
102
RTVSPropertyOp11
 70
     0
102
RTVSPropertyOp12
 70
     0
102
RTVSPropertyOp13
 70
     0
102
RTVSPropertyOp14
 70
     2
102
RTVSPropertyOp15
 70
     0
102
RTVSPropertyOp16
 70
     0
102
RTVSPropertyOp17
 70
     0
102
RTVSPropertyOp18
 70
     0
102
RTVSPropertyOp19
 70
     0
102
RTVSPropertyOp20
 70
     0
102
RTVSPropertyOp21
 70
     0
102
RTVSPropertyOp22
 70
     0
102
RTVSPropertyOp23
 70
     0
102
RTVSPropertyOp24
 70
     0
102
RTVSPropertyOp25
 70
     0
102
RTVSPropertyOp26
 70
     0
102
RTVSPropertyOp27
 70
     0
102
RTVSPropertyOp28
 70
     0
102
RTVSPropertyOp29
 70
     0
102
RTVSPropertyOp30
 70
     0
102
RTVSPropertyOp31
 70
     0
102
RTVSPropertyOp32
 70
     0
102
RTVSPropertyOp33
 70
     0
102
RTVSPropertyOp34
 70
     0
102
RTVSPropertyOp35
 70
     0
102
RTVSPropertyOp36
 70
     0
102
RTVSPropertyOp37
 70
     0
102
RTVSPropertyOp38
 70
     0
102
RTVSPropertyOp39
 70
     0
102
RTVSPropertyOp40
 70
     0
102
RTVSPropertyOp41
 70
     0
102
RTVSPropertyOp42
 70
     0
102
RTVSPropertyOp43
 70
     0
102
RTVSPropertyOp44
 70
     0
102
RTVSPropertyOp45
 70
     0
102
RTVSPropertyOp46
 70
     0
102
RTVSPropertyOp47
 70
     0
102
RTVSPropertyOp48
 70
     0
102
RTVSPropertyOp49
 70
     0
102
RTVSPropertyOp50
 70
     0
102
RTVSPropertyOp51
 70
     0
102
RTVSPropertyOp52
 70
     0
102
RTVSPropertyOp53
 70
     0
102
RTVSPropertyOp54
 70
     0
102
RTVSPropertyOp55
 70
     0
102
RTVSPropertyOp56
 70
     0
102
RTVSPropertyOp57
 70
     0
102
RTVSPropertyOp58
 70
     1
102
RTVSPropertyOp59
 70
     1
102
RTVSPropertyOp60
 70
     1
102
RTVSPropertyOp61
 70
     1
102
RTVSPropertyOp62
 70
     1
  0
XRECORD
  5
14307
102
{ACAD_REACTORS
330
14306
102
}
330
14306
100
AcDbXrecord
280
     1
102
RTVSPost2010Prop28
280
     0
102
RTVSPost2010PropOp28
 70
     1
102
RTVSPost2010Prop29
280
     1
102
RTVSPost2010PropOp29
 70
     1
102
RTVSPost2010Prop30
280
     1
102
RTVSPost2010PropOp30
 70
     1
102
RTVSPost2010Prop31
280
     0
102
RTVSPost2010PropOp31
 70
     1
102
RTVSPost2010Prop32
280
     0
102
RTVSPost2010PropOp32
 70
     1
102
RTVSPost2010Prop33
280
     0
102
RTVSPost2010PropOp33
 70
     1
102
RTVSPost2010Prop34
280
     0
102
RTVSPost2010PropOp34
 70
     1
102
RTVSPost2010Prop35
280
     0
102
RTVSPost2010PropOp35
 70
     1
102
RTVSPost2010Prop36
280
     0
102
RTVSPost2010PropOp36
 70
     1
102
RTVSPost2010Prop37
 90
       50
102
RTVSPost2010PropOp37
 70
     1
102
RTVSPost2010Prop38
140
0.0
102
RTVSPost2010PropOp38
 70
     1
102
RTVSPost2010Prop39
140
1.0
102
RTVSPost2010PropOp39
 70
     1
102
RTVSPost2010Prop40
 90
        0
102
RTVSPost2010PropOp40
 70
     1
102
RTVSPost2010Prop41ColorIndex
 90
       18
102
RTVSPost2010Prop41ColorRGB
 90
        0
102
RTVSPost2010PropOp41
 70
     1
102
RTVSPost2010Prop42
 90
       50
102
RTVSPost2010PropOp42
 70
     1
102
RTVSPost2010Prop43
 90
        3
102
RTVSPost2010PropOp43
 70
     1
102
RTVSPost2010Prop44ColorIndex
 90
        5
102
RTVSPost2010Prop44ColorRGB
 90
      255
102
RTVSPost2010PropOp44
 70
     1
102
RTVSPost2010Prop45
280
     0
102
RTVSPost2010PropOp45
 70
     1
102
RTVSPost2010Prop46
 90
       50
102
RTVSPost2010PropOp46
 70
     1
102
RTVSPost2010Prop47
 90
       50
102
RTVSPost2010PropOp47
 70
     1
102
RTVSPost2010Prop48
 90
       50
102
RTVSPost2010PropOp48
 70
     1
102
RTVSPost2010Prop49
280
     0
102
RTVSPost2010PropOp49
 70
     1
102
RTVSPost2010Prop50
 90
       50
102
RTVSPost2010PropOp50
 70
     1
102
RTVSPost2010Prop51ColorIndex
 90
      256
102
RTVSPost2010Prop51ColorRGB
 90
-16777216
102
RTVSPost2010PropOp51
 70
     0
102
RTVSPost2010Prop52
140
1.0
102
RTVSPost2010PropOp52
 70
     0
102
RTVSPost2010Prop53
 90
        2
102
RTVSPost2010PropOp53
 70
     1
102
RTVSPost2010Prop54
  1
strokes_ogs.tif
102
RTVSPost2010PropOp54
 70
     1
102
RTVSPost2010Prop55
280
     0
102
RTVSPost2010PropOp55
 70
     1
102
RTVSPost2010Prop56
140
1.0
102
RTVSPost2010PropOp56
 70
     1
102
RTVSPost2010Prop57
140
1.0
102
RTVSPost2010PropOp57
 70
     1
102
RTVSPropertyOp0
 70
     1
102
RTVSPropertyOp1
 70
     1
102
RTVSPropertyOp2
 70
     1
102
RTVSPropertyOp3
 70
     1
102
RTVSPropertyOp4
 70
     1
102
RTVSPropertyOp5
 70
     1
102
RTVSPropertyOp6
 70
     1
102
RTVSPropertyOp7
 70
     1
102
RTVSPropertyOp8
 70
     1
102
RTVSPropertyOp9
 70
     1
102
RTVSPropertyOp10
 70
     1
102
RTVSPropertyOp11
 70
     1
102
RTVSPropertyOp12
 70
     1
102
RTVSPropertyOp13
 70
     1
102
RTVSPropertyOp14
 70
     1
102
RTVSPropertyOp15
 70
     1
102
RTVSPropertyOp16
 70
     1
102
RTVSPropertyOp17
 70
     1
102
RTVSPropertyOp18
 70
     1
102
RTVSPropertyOp19
 70
     1
102
RTVSPropertyOp20
 70
     1
102
RTVSPropertyOp21
 70
     1
102
RTVSPropertyOp22
 70
     1
102
RTVSPropertyOp23
 70
     1
102
RTVSPropertyOp24
 70
     1
102
RTVSPropertyOp25
 70
     1
102
RTVSPropertyOp26
 70
     1
102
RTVSPropertyOp27
 70
     1
102
RTVSPropertyOp28
 70
     1
102
RTVSPropertyOp29
 70
     1
102
RTVSPropertyOp30
 70
     1
102
RTVSPropertyOp31
 70
     1
102
RTVSPropertyOp32
 70
     1
102
RTVSPropertyOp33
 70
     1
102
RTVSPropertyOp34
 70
     1
102
RTVSPropertyOp35
 70
     1
102
RTVSPropertyOp36
 70
     1
102
RTVSPropertyOp37
 70
     1
102
RTVSPropertyOp38
 70
     1
102
RTVSPropertyOp39
 70
     1
102
RTVSPropertyOp40
 70
     1
102
RTVSPropertyOp41
 70
     1
102
RTVSPropertyOp42
 70
     1
102
RTVSPropertyOp43
 70
     1
102
RTVSPropertyOp44
 70
     1
102
RTVSPropertyOp45
 70
     1
102
RTVSPropertyOp46
 70
     1
102
RTVSPropertyOp47
 70
     1
102
RTVSPropertyOp48
 70
     1
102
RTVSPropertyOp49
 70
     1
102
RTVSPropertyOp50
 70
     1
102
RTVSPropertyOp51
 70
     0
102
RTVSPropertyOp52
 70
     0
102
RTVSPropertyOp53
 70
     1
102
RTVSPropertyOp54
 70
     1
102
RTVSPropertyOp55
 70
     1
102
RTVSPropertyOp56
 70
     1
102
RTVSPropertyOp57
 70
     1
102
RTVSPropertyOp58
 70
     1
102
RTVSPropertyOp59
 70
     1
102
RTVSPropertyOp60
 70
     1
102
RTVSPropertyOp61
 70
     1
102
RTVSPropertyOp62
 70
     1
  0
XRECORD
  5
14319
102
{ACAD_REACTORS
330
14318
102
}
330
14318
100
AcDbXrecord
280
     1
102
RTVSPost2010Prop28
280
     0
102
RTVSPost2010PropOp28
 70
     0
102
RTVSPost2010Prop29
280
     1
102
RTVSPost2010PropOp29
 70
     0
102
RTVSPost2010Prop30
280
     1
102
RTVSPost2010PropOp30
 70
     0
102
RTVSPost2010Prop31
280
     0
102
RTVSPost2010PropOp31
 70
     0
102
RTVSPost2010Prop32
280
     0
102
RTVSPost2010PropOp32
 70
     0
102
RTVSPost2010Prop33
280
     0
102
RTVSPost2010PropOp33
 70
     0
102
RTVSPost2010Prop34
280
     0
102
RTVSPost2010PropOp34
 70
     0
102
RTVSPost2010Prop35
280
     0
102
RTVSPost2010PropOp35
 70
     0
102
RTVSPost2010Prop36
280
     0
102
RTVSPost2010PropOp36
 70
     0
102
RTVSPost2010Prop37
 90
       50
102
RTVSPost2010PropOp37
 70
     0
102
RTVSPost2010Prop38
140
0.0
102
RTVSPost2010PropOp38
 70
     0
102
RTVSPost2010Prop39
140
1.0
102
RTVSPost2010PropOp39
 70
     0
102
RTVSPost2010Prop40
 90
        0
102
RTVSPost2010PropOp40
 70
     0
102
RTVSPost2010Prop41ColorIndex
 90
       18
102
RTVSPost2010Prop41ColorRGB
 90
        0
102
RTVSPost2010PropOp41
 70
     0
102
RTVSPost2010Prop42
 90
       50
102
RTVSPost2010PropOp42
 70
     0
102
RTVSPost2010Prop43
 90
        3
102
RTVSPost2010PropOp43
 70
     0
102
RTVSPost2010Prop44ColorIndex
 90
        5
102
RTVSPost2010Prop44ColorRGB
 90
      255
102
RTVSPost2010PropOp44
 70
     0
102
RTVSPost2010Prop45
280
     0
102
RTVSPost2010PropOp45
 70
     0
102
RTVSPost2010Prop46
 90
       50
102
RTVSPost2010PropOp46
 70
     0
102
RTVSPost2010Prop47
 90
       50
102
RTVSPost2010PropOp47
 70
     0
102
RTVSPost2010Prop48
 90
       50
102
RTVSPost2010PropOp48
 70
     0
102
RTVSPost2010Prop49
280
     0
102
RTVSPost2010PropOp49
 70
     0
102
RTVSPost2010Prop50
 90
       50
102
RTVSPost2010PropOp50
 70
     0
102
RTVSPost2010Prop51ColorIndex
 90
      256
102
RTVSPost2010Prop51ColorRGB
 90
-16777216
102
RTVSPost2010PropOp51
 70
     0
102
RTVSPost2010Prop52
140
1.0
102
RTVSPost2010PropOp52
 70
     0
102
RTVSPost2010Prop53
 90
        2
102
RTVSPost2010PropOp53
 70
     0
102
RTVSPost2010Prop54
  1
strokes_ogs.tif
102
RTVSPost2010PropOp54
 70
     0
102
RTVSPost2010Prop55
280
     0
102
RTVSPost2010PropOp55
 70
     0
102
RTVSPost2010Prop56
140
1.0
102
RTVSPost2010PropOp56
 70
     0
102
RTVSPost2010Prop57
140
1.0
102
RTVSPost2010PropOp57
 70
     0
102
RTVSPropertyOp0
 70
     0
102
RTVSPropertyOp1
 70
     0
102
RTVSPropertyOp2
 70
     0
102
RTVSPropertyOp3
 70
     0
102
RTVSPropertyOp4
 70
     0
102
RTVSPropertyOp5
 70
     0
102
RTVSPropertyOp6
 70
     0
102
RTVSPropertyOp7
 70
     0
102
RTVSPropertyOp8
 70
     0
102
RTVSPropertyOp9
 70
     0
102
RTVSPropertyOp10
 70
     0
102
RTVSPropertyOp11
 70
     0
102
RTVSPropertyOp12
 70
     0
102
RTVSPropertyOp13
 70
     0
102
RTVSPropertyOp14
 70
     2
102
RTVSPropertyOp15
 70
     0
102
RTVSPropertyOp16
 70
     0
102
RTVSPropertyOp17
 70
     0
102
RTVSPropertyOp18
 70
     0
102
RTVSPropertyOp19
 70
     0
102
RTVSPropertyOp20
 70
     0
102
RTVSPropertyOp21
 70
     0
102
RTVSPropertyOp22
 70
     0
102
RTVSPropertyOp23
 70
     0
102
RTVSPropertyOp24
 70
     0
102
RTVSPropertyOp25
 70
     0
102
RTVSPropertyOp26
 70
     0
102
RTVSPropertyOp27
 70
     0
102
RTVSPropertyOp28
 70
     0
102
RTVSPropertyOp29
 70
     0
102
RTVSPropertyOp30
 70
     0
102
RTVSPropertyOp31
 70
     0
102
RTVSPropertyOp32
 70
     0
102
RTVSPropertyOp33
 70
     0
102
RTVSPropertyOp34
 70
     0
102
RTVSPropertyOp35
 70
     0
102
RTVSPropertyOp36
 70
     0
102
RTVSPropertyOp37
 70
     0
102
RTVSPropertyOp38
 70
     0
102
RTVSPropertyOp39
 70
     0
102
RTVSPropertyOp40
 70
     0
102
RTVSPropertyOp41
 70
     0
102
RTVSPropertyOp42
 70
     0
102
RTVSPropertyOp43
 70
     0
102
RTVSPropertyOp44
 70
     0
102
RTVSPropertyOp45
 70
     0
102
RTVSPropertyOp46
 70
     0
102
RTVSPropertyOp47
 70
     0
102
RTVSPropertyOp48
 70
     0
102
RTVSPropertyOp49
 70
     0
102
RTVSPropertyOp50
 70
     0
102
RTVSPropertyOp51
 70
     0
102
RTVSPropertyOp52
 70
     0
102
RTVSPropertyOp53
 70
     0
102
RTVSPropertyOp54
 70
     0
102
RTVSPropertyOp55
 70
     0
102
RTVSPropertyOp56
 70
     0
102
RTVSPropertyOp57
 70
     0
102
RTVSPropertyOp58
 70
     1
102
RTVSPropertyOp59
 70
     1
102
RTVSPropertyOp60
 70
     1
102
RTVSPropertyOp61
 70
     1
102
RTVSPropertyOp62
 70
     1
  0
XRECORD
  5
142FF
102
{ACAD_REACTORS
330
142FE
102
}
330
142FE
100
AcDbXrecord
280
     1
102
RTVSPost2010Prop28
280
     0
102
RTVSPost2010PropOp28
 70
     1
102
RTVSPost2010Prop29
280
     1
102
RTVSPost2010PropOp29
 70
     1
102
RTVSPost2010Prop30
280
     1
102
RTVSPost2010PropOp30
 70
     1
102
RTVSPost2010Prop31
280
     0
102
RTVSPost2010PropOp31
 70
     1
102
RTVSPost2010Prop32
280
     0
102
RTVSPost2010PropOp32
 70
     1
102
RTVSPost2010Prop33
280
     0
102
RTVSPost2010PropOp33
 70
     1
102
RTVSPost2010Prop34
280
     0
102
RTVSPost2010PropOp34
 70
     1
102
RTVSPost2010Prop35
280
     0
102
RTVSPost2010PropOp35
 70
     1
102
RTVSPost2010Prop36
280
     0
102
RTVSPost2010PropOp36
 70
     1
102
RTVSPost2010Prop37
 90
       50
102
RTVSPost2010PropOp37
 70
     1
102
RTVSPost2010Prop38
140
0.0
102
RTVSPost2010PropOp38
 70
     1
102
RTVSPost2010Prop39
140
1.0
102
RTVSPost2010PropOp39
 70
     1
102
RTVSPost2010Prop40
 90
        0
102
RTVSPost2010PropOp40
 70
     1
102
RTVSPost2010Prop41ColorIndex
 90
       18
102
RTVSPost2010Prop41ColorRGB
 90
        0
102
RTVSPost2010PropOp41
 70
     1
102
RTVSPost2010Prop42
 90
       50
102
RTVSPost2010PropOp42
 70
     1
102
RTVSPost2010Prop43
 90
        3
102
RTVSPost2010PropOp43
 70
     1
102
RTVSPost2010Prop44ColorIndex
 90
        5
102
RTVSPost2010Prop44ColorRGB
 90
      255
102
RTVSPost2010PropOp44
 70
     1
102
RTVSPost2010Prop45
280
     0
102
RTVSPost2010PropOp45
 70
     1
102
RTVSPost2010Prop46
 90
       50
102
RTVSPost2010PropOp46
 70
     1
102
RTVSPost2010Prop47
 90
       50
102
RTVSPost2010PropOp47
 70
     1
102
RTVSPost2010Prop48
 90
       50
102
RTVSPost2010PropOp48
 70
     1
102
RTVSPost2010Prop49
280
     0
102
RTVSPost2010PropOp49
 70
     1
102
RTVSPost2010Prop50
 90
       50
102
RTVSPost2010PropOp50
 70
     1
102
RTVSPost2010Prop51ColorIndex
 90
      256
102
RTVSPost2010Prop51ColorRGB
 90
-16777216
102
RTVSPost2010PropOp51
 70
     0
102
RTVSPost2010Prop52
140
1.0
102
RTVSPost2010PropOp52
 70
     0
102
RTVSPost2010Prop53
 90
        2
102
RTVSPost2010PropOp53
 70
     1
102
RTVSPost2010Prop54
  1
strokes_ogs.tif
102
RTVSPost2010PropOp54
 70
     1
102
RTVSPost2010Prop55
280
     0
102
RTVSPost2010PropOp55
 70
     1
102
RTVSPost2010Prop56
140
1.0
102
RTVSPost2010PropOp56
 70
     1
102
RTVSPost2010Prop57
140
1.0
102
RTVSPost2010PropOp57
 70
     1
102
RTVSPropertyOp0
 70
     1
102
RTVSPropertyOp1
 70
     1
102
RTVSPropertyOp2
 70
     1
102
RTVSPropertyOp3
 70
     1
102
RTVSPropertyOp4
 70
     1
102
RTVSPropertyOp5
 70
     1
102
RTVSPropertyOp6
 70
     1
102
RTVSPropertyOp7
 70
     1
102
RTVSPropertyOp8
 70
     1
102
RTVSPropertyOp9
 70
     1
102
RTVSPropertyOp10
 70
     1
102
RTVSPropertyOp11
 70
     1
102
RTVSPropertyOp12
 70
     1
102
RTVSPropertyOp13
 70
     1
102
RTVSPropertyOp14
 70
     1
102
RTVSPropertyOp15
 70
     1
102
RTVSPropertyOp16
 70
     1
102
RTVSPropertyOp17
 70
     1
102
RTVSPropertyOp18
 70
     1
102
RTVSPropertyOp19
 70
     1
102
RTVSPropertyOp20
 70
     1
102
RTVSPropertyOp21
 70
     1
102
RTVSPropertyOp22
 70
     1
102
RTVSPropertyOp23
 70
     1
102
RTVSPropertyOp24
 70
     1
102
RTVSPropertyOp25
 70
     1
102
RTVSPropertyOp26
 70
     1
102
RTVSPropertyOp27
 70
     1
102
RTVSPropertyOp28
 70
     1
102
RTVSPropertyOp29
 70
     1
102
RTVSPropertyOp30
 70
     1
102
RTVSPropertyOp31
 70
     1
102
RTVSPropertyOp32
 70
     1
102
RTVSPropertyOp33
 70
     1
102
RTVSPropertyOp34
 70
     1
102
RTVSPropertyOp35
 70
     1
102
RTVSPropertyOp36
 70
     1
102
RTVSPropertyOp37
 70
     1
102
RTVSPropertyOp38
 70
     1
102
RTVSPropertyOp39
 70
     1
102
RTVSPropertyOp40
 70
     1
102
RTVSPropertyOp41
 70
     1
102
RTVSPropertyOp42
 70
     1
102
RTVSPropertyOp43
 70
     1
102
RTVSPropertyOp44
 70
     1
102
RTVSPropertyOp45
 70
     1
102
RTVSPropertyOp46
 70
     1
102
RTVSPropertyOp47
 70
     1
102
RTVSPropertyOp48
 70
     1
102
RTVSPropertyOp49
 70
     1
102
RTVSPropertyOp50
 70
     1
102
RTVSPropertyOp51
 70
     0
102
RTVSPropertyOp52
 70
     0
102
RTVSPropertyOp53
 70
     1
102
RTVSPropertyOp54
 70
     1
102
RTVSPropertyOp55
 70
     1
102
RTVSPropertyOp56
 70
     1
102
RTVSPropertyOp57
 70
     1
102
RTVSPropertyOp58
 70
     1
102
RTVSPropertyOp59
 70
     1
102
RTVSPropertyOp60
 70
     1
102
RTVSPropertyOp61
 70
     1
102
RTVSPropertyOp62
 70
     1
  0
XRECORD
  5
14315
102
{ACAD_REACTORS
330
14314
102
}
330
14314
100
AcDbXrecord
280
     1
102
RTVSPost2010Prop28
280
     0
102
RTVSPost2010PropOp28
 70
     1
102
RTVSPost2010Prop29
280
     1
102
RTVSPost2010PropOp29
 70
     1
102
RTVSPost2010Prop30
280
     1
102
RTVSPost2010PropOp30
 70
     1
102
RTVSPost2010Prop31
280
     0
102
RTVSPost2010PropOp31
 70
     1
102
RTVSPost2010Prop32
280
     0
102
RTVSPost2010PropOp32
 70
     1
102
RTVSPost2010Prop33
280
     0
102
RTVSPost2010PropOp33
 70
     1
102
RTVSPost2010Prop34
280
     0
102
RTVSPost2010PropOp34
 70
     1
102
RTVSPost2010Prop35
280
     0
102
RTVSPost2010PropOp35
 70
     1
102
RTVSPost2010Prop36
280
     0
102
RTVSPost2010PropOp36
 70
     1
102
RTVSPost2010Prop37
 90
       50
102
RTVSPost2010PropOp37
 70
     1
102
RTVSPost2010Prop38
140
0.0
102
RTVSPost2010PropOp38
 70
     1
102
RTVSPost2010Prop39
140
1.0
102
RTVSPost2010PropOp39
 70
     1
102
RTVSPost2010Prop40
 90
        0
102
RTVSPost2010PropOp40
 70
     1
102
RTVSPost2010Prop41ColorIndex
 90
       18
102
RTVSPost2010Prop41ColorRGB
 90
        0
102
RTVSPost2010PropOp41
 70
     1
102
RTVSPost2010Prop42
 90
       50
102
RTVSPost2010PropOp42
 70
     1
102
RTVSPost2010Prop43
 90
        3
102
RTVSPost2010PropOp43
 70
     1
102
RTVSPost2010Prop44ColorIndex
 90
        5
102
RTVSPost2010Prop44ColorRGB
 90
      255
102
RTVSPost2010PropOp44
 70
     1
102
RTVSPost2010Prop45
280
     0
102
RTVSPost2010PropOp45
 70
     1
102
RTVSPost2010Prop46
 90
       50
102
RTVSPost2010PropOp46
 70
     1
102
RTVSPost2010Prop47
 90
       50
102
RTVSPost2010PropOp47
 70
     1
102
RTVSPost2010Prop48
 90
       50
102
RTVSPost2010PropOp48
 70
     1
102
RTVSPost2010Prop49
280
     0
102
RTVSPost2010PropOp49
 70
     1
102
RTVSPost2010Prop50
 90
       50
102
RTVSPost2010PropOp50
 70
     1
102
RTVSPost2010Prop51ColorIndex
 90
      256
102
RTVSPost2010Prop51ColorRGB
 90
-16777216
102
RTVSPost2010PropOp51
 70
     0
102
RTVSPost2010Prop52
140
1.0
102
RTVSPost2010PropOp52
 70
     0
102
RTVSPost2010Prop53
 90
        2
102
RTVSPost2010PropOp53
 70
     1
102
RTVSPost2010Prop54
  1
strokes_ogs.tif
102
RTVSPost2010PropOp54
 70
     1
102
RTVSPost2010Prop55
280
     0
102
RTVSPost2010PropOp55
 70
     1
102
RTVSPost2010Prop56
140
1.0
102
RTVSPost2010PropOp56
 70
     1
102
RTVSPost2010Prop57
140
1.0
102
RTVSPost2010PropOp57
 70
     1
102
RTVSPropertyOp0
 70
     1
102
RTVSPropertyOp1
 70
     1
102
RTVSPropertyOp2
 70
     1
102
RTVSPropertyOp3
 70
     1
102
RTVSPropertyOp4
 70
     1
102
RTVSPropertyOp5
 70
     1
102
RTVSPropertyOp6
 70
     1
102
RTVSPropertyOp7
 70
     1
102
RTVSPropertyOp8
 70
     1
102
RTVSPropertyOp9
 70
     1
102
RTVSPropertyOp10
 70
     1
102
RTVSPropertyOp11
 70
     1
102
RTVSPropertyOp12
 70
     1
102
RTVSPropertyOp13
 70
     1
102
RTVSPropertyOp14
 70
     1
102
RTVSPropertyOp15
 70
     1
102
RTVSPropertyOp16
 70
     1
102
RTVSPropertyOp17
 70
     1
102
RTVSPropertyOp18
 70
     1
102
RTVSPropertyOp19
 70
     1
102
RTVSPropertyOp20
 70
     1
102
RTVSPropertyOp21
 70
     1
102
RTVSPropertyOp22
 70
     1
102
RTVSPropertyOp23
 70
     1
102
RTVSPropertyOp24
 70
     1
102
RTVSPropertyOp25
 70
     1
102
RTVSPropertyOp26
 70
     1
102
RTVSPropertyOp27
 70
     1
102
RTVSPropertyOp28
 70
     1
102
RTVSPropertyOp29
 70
     1
102
RTVSPropertyOp30
 70
     1
102
RTVSPropertyOp31
 70
     1
102
RTVSPropertyOp32
 70
     1
102
RTVSPropertyOp33
 70
     1
102
RTVSPropertyOp34
 70
     1
102
RTVSPropertyOp35
 70
     1
102
RTVSPropertyOp36
 70
     1
102
RTVSPropertyOp37
 70
     1
102
RTVSPropertyOp38
 70
     1
102
RTVSPropertyOp39
 70
     1
102
RTVSPropertyOp40
 70
     1
102
RTVSPropertyOp41
 70
     1
102
RTVSPropertyOp42
 70
     1
102
RTVSPropertyOp43
 70
     1
102
RTVSPropertyOp44
 70
     1
102
RTVSPropertyOp45
 70
     1
102
RTVSPropertyOp46
 70
     1
102
RTVSPropertyOp47
 70
     1
102
RTVSPropertyOp48
 70
     1
102
RTVSPropertyOp49
 70
     1
102
RTVSPropertyOp50
 70
     1
102
RTVSPropertyOp51
 70
     0
102
RTVSPropertyOp52
 70
     0
102
RTVSPropertyOp53
 70
     1
102
RTVSPropertyOp54
 70
     1
102
RTVSPropertyOp55
 70
     1
102
RTVSPropertyOp56
 70
     1
102
RTVSPropertyOp57
 70
     1
102
RTVSPropertyOp58
 70
     1
102
RTVSPropertyOp59
 70
     1
102
RTVSPropertyOp60
 70
     1
102
RTVSPropertyOp61
 70
     1
102
RTVSPropertyOp62
 70
     1
  0
XRECORD
  5
14313
102
{ACAD_REACTORS
330
14312
102
}
330
14312
100
AcDbXrecord
280
     1
102
RTVSPost2010Prop28
280
     0
102
RTVSPost2010PropOp28
 70
     1
102
RTVSPost2010Prop29
280
     1
102
RTVSPost2010PropOp29
 70
     1
102
RTVSPost2010Prop30
280
     1
102
RTVSPost2010PropOp30
 70
     1
102
RTVSPost2010Prop31
280
     0
102
RTVSPost2010PropOp31
 70
     1
102
RTVSPost2010Prop32
280
     0
102
RTVSPost2010PropOp32
 70
     1
102
RTVSPost2010Prop33
280
     0
102
RTVSPost2010PropOp33
 70
     1
102
RTVSPost2010Prop34
280
     0
102
RTVSPost2010PropOp34
 70
     1
102
RTVSPost2010Prop35
280
     0
102
RTVSPost2010PropOp35
 70
     1
102
RTVSPost2010Prop36
280
     0
102
RTVSPost2010PropOp36
 70
     1
102
RTVSPost2010Prop37
 90
       50
102
RTVSPost2010PropOp37
 70
     1
102
RTVSPost2010Prop38
140
0.0
102
RTVSPost2010PropOp38
 70
     1
102
RTVSPost2010Prop39
140
1.0
102
RTVSPost2010PropOp39
 70
     1
102
RTVSPost2010Prop40
 90
        0
102
RTVSPost2010PropOp40
 70
     1
102
RTVSPost2010Prop41ColorIndex
 90
       18
102
RTVSPost2010Prop41ColorRGB
 90
        0
102
RTVSPost2010PropOp41
 70
     1
102
RTVSPost2010Prop42
 90
       50
102
RTVSPost2010PropOp42
 70
     1
102
RTVSPost2010Prop43
 90
        3
102
RTVSPost2010PropOp43
 70
     1
102
RTVSPost2010Prop44ColorIndex
 90
        5
102
RTVSPost2010Prop44ColorRGB
 90
      255
102
RTVSPost2010PropOp44
 70
     1
102
RTVSPost2010Prop45
280
     0
102
RTVSPost2010PropOp45
 70
     1
102
RTVSPost2010Prop46
 90
       50
102
RTVSPost2010PropOp46
 70
     1
102
RTVSPost2010Prop47
 90
       50
102
RTVSPost2010PropOp47
 70
     1
102
RTVSPost2010Prop48
 90
       50
102
RTVSPost2010PropOp48
 70
     1
102
RTVSPost2010Prop49
280
     0
102
RTVSPost2010PropOp49
 70
     1
102
RTVSPost2010Prop50
 90
       50
102
RTVSPost2010PropOp50
 70
     1
102
RTVSPost2010Prop51ColorIndex
 90
      256
102
RTVSPost2010Prop51ColorRGB
 90
-16777216
102
RTVSPost2010PropOp51
 70
     0
102
RTVSPost2010Prop52
140
1.0
102
RTVSPost2010PropOp52
 70
     0
102
RTVSPost2010Prop53
 90
        2
102
RTVSPost2010PropOp53
 70
     1
102
RTVSPost2010Prop54
  1
strokes_ogs.tif
102
RTVSPost2010PropOp54
 70
     1
102
RTVSPost2010Prop55
280
     0
102
RTVSPost2010PropOp55
 70
     1
102
RTVSPost2010Prop56
140
1.0
102
RTVSPost2010PropOp56
 70
     1
102
RTVSPost2010Prop57
140
1.0
102
RTVSPost2010PropOp57
 70
     1
102
RTVSPropertyOp0
 70
     1
102
RTVSPropertyOp1
 70
     1
102
RTVSPropertyOp2
 70
     1
102
RTVSPropertyOp3
 70
     1
102
RTVSPropertyOp4
 70
     1
102
RTVSPropertyOp5
 70
     1
102
RTVSPropertyOp6
 70
     1
102
RTVSPropertyOp7
 70
     1
102
RTVSPropertyOp8
 70
     1
102
RTVSPropertyOp9
 70
     1
102
RTVSPropertyOp10
 70
     1
102
RTVSPropertyOp11
 70
     1
102
RTVSPropertyOp12
 70
     1
102
RTVSPropertyOp13
 70
     1
102
RTVSPropertyOp14
 70
     1
102
RTVSPropertyOp15
 70
     1
102
RTVSPropertyOp16
 70
     1
102
RTVSPropertyOp17
 70
     1
102
RTVSPropertyOp18
 70
     1
102
RTVSPropertyOp19
 70
     1
102
RTVSPropertyOp20
 70
     1
102
RTVSPropertyOp21
 70
     1
102
RTVSPropertyOp22
 70
     1
102
RTVSPropertyOp23
 70
     1
102
RTVSPropertyOp24
 70
     1
102
RTVSPropertyOp25
 70
     1
102
RTVSPropertyOp26
 70
     1
102
RTVSPropertyOp27
 70
     1
102
RTVSPropertyOp28
 70
     1
102
RTVSPropertyOp29
 70
     1
102
RTVSPropertyOp30
 70
     1
102
RTVSPropertyOp31
 70
     1
102
RTVSPropertyOp32
 70
     1
102
RTVSPropertyOp33
 70
     1
102
RTVSPropertyOp34
 70
     1
102
RTVSPropertyOp35
 70
     1
102
RTVSPropertyOp36
 70
     1
102
RTVSPropertyOp37
 70
     1
102
RTVSPropertyOp38
 70
     1
102
RTVSPropertyOp39
 70
     1
102
RTVSPropertyOp40
 70
     1
102
RTVSPropertyOp41
 70
     1
102
RTVSPropertyOp42
 70
     1
102
RTVSPropertyOp43
 70
     1
102
RTVSPropertyOp44
 70
     1
102
RTVSPropertyOp45
 70
     1
102
RTVSPropertyOp46
 70
     1
102
RTVSPropertyOp47
 70
     1
102
RTVSPropertyOp48
 70
     1
102
RTVSPropertyOp49
 70
     1
102
RTVSPropertyOp50
 70
     1
102
RTVSPropertyOp51
 70
     0
102
RTVSPropertyOp52
 70
     0
102
RTVSPropertyOp53
 70
     1
102
RTVSPropertyOp54
 70
     1
102
RTVSPropertyOp55
 70
     1
102
RTVSPropertyOp56
 70
     1
102
RTVSPropertyOp57
 70
     1
102
RTVSPropertyOp58
 70
     1
102
RTVSPropertyOp59
 70
     1
102
RTVSPropertyOp60
 70
     1
102
RTVSPropertyOp61
 70
     1
102
RTVSPropertyOp62
 70
     1
  0
XRECORD
  5
1430D
102
{ACAD_REACTORS
330
1430C
102
}
330
1430C
100
AcDbXrecord
280
     1
102
RTVSPost2010Prop28
280
     0
102
RTVSPost2010PropOp28
 70
     1
102
RTVSPost2010Prop29
280
     1
102
RTVSPost2010PropOp29
 70
     1
102
RTVSPost2010Prop30
280
     1
102
RTVSPost2010PropOp30
 70
     1
102
RTVSPost2010Prop31
280
     0
102
RTVSPost2010PropOp31
 70
     1
102
RTVSPost2010Prop32
280
     0
102
RTVSPost2010PropOp32
 70
     1
102
RTVSPost2010Prop33
280
     0
102
RTVSPost2010PropOp33
 70
     1
102
RTVSPost2010Prop34
280
     0
102
RTVSPost2010PropOp34
 70
     1
102
RTVSPost2010Prop35
280
     0
102
RTVSPost2010PropOp35
 70
     1
102
RTVSPost2010Prop36
280
     0
102
RTVSPost2010PropOp36
 70
     1
102
RTVSPost2010Prop37
 90
       50
102
RTVSPost2010PropOp37
 70
     1
102
RTVSPost2010Prop38
140
0.0
102
RTVSPost2010PropOp38
 70
     1
102
RTVSPost2010Prop39
140
1.0
102
RTVSPost2010PropOp39
 70
     1
102
RTVSPost2010Prop40
 90
        0
102
RTVSPost2010PropOp40
 70
     1
102
RTVSPost2010Prop41ColorIndex
 90
       18
102
RTVSPost2010Prop41ColorRGB
 90
        0
102
RTVSPost2010PropOp41
 70
     1
102
RTVSPost2010Prop42
 90
       50
102
RTVSPost2010PropOp42
 70
     1
102
RTVSPost2010Prop43
 90
        3
102
RTVSPost2010PropOp43
 70
     1
102
RTVSPost2010Prop44ColorIndex
 90
        5
102
RTVSPost2010Prop44ColorRGB
 90
      255
102
RTVSPost2010PropOp44
 70
     1
102
RTVSPost2010Prop45
280
     0
102
RTVSPost2010PropOp45
 70
     1
102
RTVSPost2010Prop46
 90
       50
102
RTVSPost2010PropOp46
 70
     1
102
RTVSPost2010Prop47
 90
       50
102
RTVSPost2010PropOp47
 70
     1
102
RTVSPost2010Prop48
 90
       50
102
RTVSPost2010PropOp48
 70
     1
102
RTVSPost2010Prop49
280
     0
102
RTVSPost2010PropOp49
 70
     1
102
RTVSPost2010Prop50
 90
       50
102
RTVSPost2010PropOp50
 70
     1
102
RTVSPost2010Prop51ColorIndex
 90
      256
102
RTVSPost2010Prop51ColorRGB
 90
-16777216
102
RTVSPost2010PropOp51
 70
     0
102
RTVSPost2010Prop52
140
1.0
102
RTVSPost2010PropOp52
 70
     0
102
RTVSPost2010Prop53
 90
        2
102
RTVSPost2010PropOp53
 70
     1
102
RTVSPost2010Prop54
  1
strokes_ogs.tif
102
RTVSPost2010PropOp54
 70
     1
102
RTVSPost2010Prop55
280
     0
102
RTVSPost2010PropOp55
 70
     1
102
RTVSPost2010Prop56
140
1.0
102
RTVSPost2010PropOp56
 70
     1
102
RTVSPost2010Prop57
140
1.0
102
RTVSPost2010PropOp57
 70
     1
102
RTVSPropertyOp0
 70
     1
102
RTVSPropertyOp1
 70
     1
102
RTVSPropertyOp2
 70
     1
102
RTVSPropertyOp3
 70
     1
102
RTVSPropertyOp4
 70
     1
102
RTVSPropertyOp5
 70
     1
102
RTVSPropertyOp6
 70
     1
102
RTVSPropertyOp7
 70
     1
102
RTVSPropertyOp8
 70
     1
102
RTVSPropertyOp9
 70
     1
102
RTVSPropertyOp10
 70
     1
102
RTVSPropertyOp11
 70
     1
102
RTVSPropertyOp12
 70
     1
102
RTVSPropertyOp13
 70
     1
102
RTVSPropertyOp14
 70
     1
102
RTVSPropertyOp15
 70
     1
102
RTVSPropertyOp16
 70
     1
102
RTVSPropertyOp17
 70
     1
102
RTVSPropertyOp18
 70
     1
102
RTVSPropertyOp19
 70
     1
102
RTVSPropertyOp20
 70
     1
102
RTVSPropertyOp21
 70
     1
102
RTVSPropertyOp22
 70
     1
102
RTVSPropertyOp23
 70
     1
102
RTVSPropertyOp24
 70
     1
102
RTVSPropertyOp25
 70
     1
102
RTVSPropertyOp26
 70
     1
102
RTVSPropertyOp27
 70
     1
102
RTVSPropertyOp28
 70
     1
102
RTVSPropertyOp29
 70
     1
102
RTVSPropertyOp30
 70
     1
102
RTVSPropertyOp31
 70
     1
102
RTVSPropertyOp32
 70
     1
102
RTVSPropertyOp33
 70
     1
102
RTVSPropertyOp34
 70
     1
102
RTVSPropertyOp35
 70
     1
102
RTVSPropertyOp36
 70
     1
102
RTVSPropertyOp37
 70
     1
102
RTVSPropertyOp38
 70
     1
102
RTVSPropertyOp39
 70
     1
102
RTVSPropertyOp40
 70
     1
102
RTVSPropertyOp41
 70
     1
102
RTVSPropertyOp42
 70
     1
102
RTVSPropertyOp43
 70
     1
102
RTVSPropertyOp44
 70
     1
102
RTVSPropertyOp45
 70
     1
102
RTVSPropertyOp46
 70
     1
102
RTVSPropertyOp47
 70
     1
102
RTVSPropertyOp48
 70
     1
102
RTVSPropertyOp49
 70
     1
102
RTVSPropertyOp50
 70
     1
102
RTVSPropertyOp51
 70
     0
102
RTVSPropertyOp52
 70
     0
102
RTVSPropertyOp53
 70
     1
102
RTVSPropertyOp54
 70
     1
102
RTVSPropertyOp55
 70
     1
102
RTVSPropertyOp56
 70
     1
102
RTVSPropertyOp57
 70
     1
102
RTVSPropertyOp58
 70
     1
102
RTVSPropertyOp59
 70
     1
102
RTVSPropertyOp60
 70
     1
102
RTVSPropertyOp61
 70
     1
102
RTVSPropertyOp62
 70
     1
  0
XRECORD
  5
1430F
102
{ACAD_REACTORS
330
1430E
102
}
330
1430E
100
AcDbXrecord
280
     1
102
RTVSPost2010Prop28
280
     0
102
RTVSPost2010PropOp28
 70
     1
102
RTVSPost2010Prop29
280
     1
102
RTVSPost2010PropOp29
 70
     1
102
RTVSPost2010Prop30
280
     1
102
RTVSPost2010PropOp30
 70
     1
102
RTVSPost2010Prop31
280
     0
102
RTVSPost2010PropOp31
 70
     1
102
RTVSPost2010Prop32
280
     0
102
RTVSPost2010PropOp32
 70
     1
102
RTVSPost2010Prop33
280
     0
102
RTVSPost2010PropOp33
 70
     1
102
RTVSPost2010Prop34
280
     0
102
RTVSPost2010PropOp34
 70
     1
102
RTVSPost2010Prop35
280
     0
102
RTVSPost2010PropOp35
 70
     1
102
RTVSPost2010Prop36
280
     0
102
RTVSPost2010PropOp36
 70
     1
102
RTVSPost2010Prop37
 90
       50
102
RTVSPost2010PropOp37
 70
     1
102
RTVSPost2010Prop38
140
0.0
102
RTVSPost2010PropOp38
 70
     1
102
RTVSPost2010Prop39
140
1.0
102
RTVSPost2010PropOp39
 70
     1
102
RTVSPost2010Prop40
 90
        0
102
RTVSPost2010PropOp40
 70
     1
102
RTVSPost2010Prop41ColorIndex
 90
       18
102
RTVSPost2010Prop41ColorRGB
 90
        0
102
RTVSPost2010PropOp41
 70
     1
102
RTVSPost2010Prop42
 90
       50
102
RTVSPost2010PropOp42
 70
     1
102
RTVSPost2010Prop43
 90
        3
102
RTVSPost2010PropOp43
 70
     1
102
RTVSPost2010Prop44ColorIndex
 90
        5
102
RTVSPost2010Prop44ColorRGB
 90
      255
102
RTVSPost2010PropOp44
 70
     1
102
RTVSPost2010Prop45
280
     0
102
RTVSPost2010PropOp45
 70
     1
102
RTVSPost2010Prop46
 90
       50
102
RTVSPost2010PropOp46
 70
     1
102
RTVSPost2010Prop47
 90
       50
102
RTVSPost2010PropOp47
 70
     1
102
RTVSPost2010Prop48
 90
       50
102
RTVSPost2010PropOp48
 70
     1
102
RTVSPost2010Prop49
280
     0
102
RTVSPost2010PropOp49
 70
     1
102
RTVSPost2010Prop50
 90
       50
102
RTVSPost2010PropOp50
 70
     1
102
RTVSPost2010Prop51ColorIndex
 90
      256
102
RTVSPost2010Prop51ColorRGB
 90
-16777216
102
RTVSPost2010PropOp51
 70
     0
102
RTVSPost2010Prop52
140
1.0
102
RTVSPost2010PropOp52
 70
     0
102
RTVSPost2010Prop53
 90
        2
102
RTVSPost2010PropOp53
 70
     1
102
RTVSPost2010Prop54
  1
strokes_ogs.tif
102
RTVSPost2010PropOp54
 70
     1
102
RTVSPost2010Prop55
280
     0
102
RTVSPost2010PropOp55
 70
     1
102
RTVSPost2010Prop56
140
1.0
102
RTVSPost2010PropOp56
 70
     1
102
RTVSPost2010Prop57
140
1.0
102
RTVSPost2010PropOp57
 70
     1
102
RTVSPropertyOp0
 70
     1
102
RTVSPropertyOp1
 70
     1
102
RTVSPropertyOp2
 70
     1
102
RTVSPropertyOp3
 70
     1
102
RTVSPropertyOp4
 70
     1
102
RTVSPropertyOp5
 70
     1
102
RTVSPropertyOp6
 70
     1
102
RTVSPropertyOp7
 70
     1
102
RTVSPropertyOp8
 70
     1
102
RTVSPropertyOp9
 70
     1
102
RTVSPropertyOp10
 70
     1
102
RTVSPropertyOp11
 70
     1
102
RTVSPropertyOp12
 70
     1
102
RTVSPropertyOp13
 70
     1
102
RTVSPropertyOp14
 70
     1
102
RTVSPropertyOp15
 70
     1
102
RTVSPropertyOp16
 70
     1
102
RTVSPropertyOp17
 70
     1
102
RTVSPropertyOp18
 70
     1
102
RTVSPropertyOp19
 70
     1
102
RTVSPropertyOp20
 70
     1
102
RTVSPropertyOp21
 70
     1
102
RTVSPropertyOp22
 70
     1
102
RTVSPropertyOp23
 70
     1
102
RTVSPropertyOp24
 70
     1
102
RTVSPropertyOp25
 70
     1
102
RTVSPropertyOp26
 70
     1
102
RTVSPropertyOp27
 70
     1
102
RTVSPropertyOp28
 70
     1
102
RTVSPropertyOp29
 70
     1
102
RTVSPropertyOp30
 70
     1
102
RTVSPropertyOp31
 70
     1
102
RTVSPropertyOp32
 70
     1
102
RTVSPropertyOp33
 70
     1
102
RTVSPropertyOp34
 70
     1
102
RTVSPropertyOp35
 70
     1
102
RTVSPropertyOp36
 70
     1
102
RTVSPropertyOp37
 70
     1
102
RTVSPropertyOp38
 70
     1
102
RTVSPropertyOp39
 70
     1
102
RTVSPropertyOp40
 70
     1
102
RTVSPropertyOp41
 70
     1
102
RTVSPropertyOp42
 70
     1
102
RTVSPropertyOp43
 70
     1
102
RTVSPropertyOp44
 70
     1
102
RTVSPropertyOp45
 70
     1
102
RTVSPropertyOp46
 70
     1
102
RTVSPropertyOp47
 70
     1
102
RTVSPropertyOp48
 70
     1
102
RTVSPropertyOp49
 70
     1
102
RTVSPropertyOp50
 70
     1
102
RTVSPropertyOp51
 70
     0
102
RTVSPropertyOp52
 70
     0
102
RTVSPropertyOp53
 70
     1
102
RTVSPropertyOp54
 70
     1
102
RTVSPropertyOp55
 70
     1
102
RTVSPropertyOp56
 70
     1
102
RTVSPropertyOp57
 70
     1
102
RTVSPropertyOp58
 70
     1
102
RTVSPropertyOp59
 70
     1
102
RTVSPropertyOp60
 70
     1
102
RTVSPropertyOp61
 70
     1
102
RTVSPropertyOp62
 70
     1
  0
XRECORD
  5
14305
102
{ACAD_REACTORS
330
14304
102
}
330
14304
100
AcDbXrecord
280
     1
102
RTVSPost2010Prop28
280
     0
102
RTVSPost2010PropOp28
 70
     1
102
RTVSPost2010Prop29
280
     1
102
RTVSPost2010PropOp29
 70
     1
102
RTVSPost2010Prop30
280
     1
102
RTVSPost2010PropOp30
 70
     1
102
RTVSPost2010Prop31
280
     0
102
RTVSPost2010PropOp31
 70
     1
102
RTVSPost2010Prop32
280
     0
102
RTVSPost2010PropOp32
 70
     1
102
RTVSPost2010Prop33
280
     0
102
RTVSPost2010PropOp33
 70
     1
102
RTVSPost2010Prop34
280
     0
102
RTVSPost2010PropOp34
 70
     1
102
RTVSPost2010Prop35
280
     0
102
RTVSPost2010PropOp35
 70
     1
102
RTVSPost2010Prop36
280
     0
102
RTVSPost2010PropOp36
 70
     1
102
RTVSPost2010Prop37
 90
       50
102
RTVSPost2010PropOp37
 70
     1
102
RTVSPost2010Prop38
140
0.0
102
RTVSPost2010PropOp38
 70
     1
102
RTVSPost2010Prop39
140
1.0
102
RTVSPost2010PropOp39
 70
     1
102
RTVSPost2010Prop40
 90
        0
102
RTVSPost2010PropOp40
 70
     1
102
RTVSPost2010Prop41ColorIndex
 90
       18
102
RTVSPost2010Prop41ColorRGB
 90
        0
102
RTVSPost2010PropOp41
 70
     1
102
RTVSPost2010Prop42
 90
       50
102
RTVSPost2010PropOp42
 70
     1
102
RTVSPost2010Prop43
 90
        3
102
RTVSPost2010PropOp43
 70
     1
102
RTVSPost2010Prop44ColorIndex
 90
        5
102
RTVSPost2010Prop44ColorRGB
 90
      255
102
RTVSPost2010PropOp44
 70
     1
102
RTVSPost2010Prop45
280
     0
102
RTVSPost2010PropOp45
 70
     1
102
RTVSPost2010Prop46
 90
       50
102
RTVSPost2010PropOp46
 70
     1
102
RTVSPost2010Prop47
 90
       50
102
RTVSPost2010PropOp47
 70
     1
102
RTVSPost2010Prop48
 90
       50
102
RTVSPost2010PropOp48
 70
     1
102
RTVSPost2010Prop49
280
     0
102
RTVSPost2010PropOp49
 70
     1
102
RTVSPost2010Prop50
 90
       50
102
RTVSPost2010PropOp50
 70
     1
102
RTVSPost2010Prop51ColorIndex
 90
      256
102
RTVSPost2010Prop51ColorRGB
 90
-16777216
102
RTVSPost2010PropOp51
 70
     0
102
RTVSPost2010Prop52
140
1.0
102
RTVSPost2010PropOp52
 70
     0
102
RTVSPost2010Prop53
 90
        2
102
RTVSPost2010PropOp53
 70
     1
102
RTVSPost2010Prop54
  1
strokes_ogs.tif
102
RTVSPost2010PropOp54
 70
     1
102
RTVSPost2010Prop55
280
     0
102
RTVSPost2010PropOp55
 70
     1
102
RTVSPost2010Prop56
140
1.0
102
RTVSPost2010PropOp56
 70
     1
102
RTVSPost2010Prop57
140
1.0
102
RTVSPost2010PropOp57
 70
     1
102
RTVSPropertyOp0
 70
     1
102
RTVSPropertyOp1
 70
     1
102
RTVSPropertyOp2
 70
     1
102
RTVSPropertyOp3
 70
     1
102
RTVSPropertyOp4
 70
     1
102
RTVSPropertyOp5
 70
     1
102
RTVSPropertyOp6
 70
     1
102
RTVSPropertyOp7
 70
     1
102
RTVSPropertyOp8
 70
     1
102
RTVSPropertyOp9
 70
     1
102
RTVSPropertyOp10
 70
     1
102
RTVSPropertyOp11
 70
     1
102
RTVSPropertyOp12
 70
     1
102
RTVSPropertyOp13
 70
     1
102
RTVSPropertyOp14
 70
     1
102
RTVSPropertyOp15
 70
     1
102
RTVSPropertyOp16
 70
     1
102
RTVSPropertyOp17
 70
     1
102
RTVSPropertyOp18
 70
     1
102
RTVSPropertyOp19
 70
     1
102
RTVSPropertyOp20
 70
     1
102
RTVSPropertyOp21
 70
     1
102
RTVSPropertyOp22
 70
     1
102
RTVSPropertyOp23
 70
     1
102
RTVSPropertyOp24
 70
     1
102
RTVSPropertyOp25
 70
     1
102
RTVSPropertyOp26
 70
     1
102
RTVSPropertyOp27
 70
     1
102
RTVSPropertyOp28
 70
     1
102
RTVSPropertyOp29
 70
     1
102
RTVSPropertyOp30
 70
     1
102
RTVSPropertyOp31
 70
     1
102
RTVSPropertyOp32
 70
     1
102
RTVSPropertyOp33
 70
     1
102
RTVSPropertyOp34
 70
     1
102
RTVSPropertyOp35
 70
     1
102
RTVSPropertyOp36
 70
     1
102
RTVSPropertyOp37
 70
     1
102
RTVSPropertyOp38
 70
     1
102
RTVSPropertyOp39
 70
     1
102
RTVSPropertyOp40
 70
     1
102
RTVSPropertyOp41
 70
     1
102
RTVSPropertyOp42
 70
     1
102
RTVSPropertyOp43
 70
     1
102
RTVSPropertyOp44
 70
     1
102
RTVSPropertyOp45
 70
     1
102
RTVSPropertyOp46
 70
     1
102
RTVSPropertyOp47
 70
     1
102
RTVSPropertyOp48
 70
     1
102
RTVSPropertyOp49
 70
     1
102
RTVSPropertyOp50
 70
     1
102
RTVSPropertyOp51
 70
     0
102
RTVSPropertyOp52
 70
     0
102
RTVSPropertyOp53
 70
     1
102
RTVSPropertyOp54
 70
     1
102
RTVSPropertyOp55
 70
     1
102
RTVSPropertyOp56
 70
     1
102
RTVSPropertyOp57
 70
     1
102
RTVSPropertyOp58
 70
     1
102
RTVSPropertyOp59
 70
     1
102
RTVSPropertyOp60
 70
     1
102
RTVSPropertyOp61
 70
     1
102
RTVSPropertyOp62
 70
     1
  0
XRECORD
  5
142F9
102
{ACAD_REACTORS
330
142F8
102
}
330
142F8
100
AcDbXrecord
280
     1
102
RTVSPost2010Prop28
280
     0
102
RTVSPost2010PropOp28
 70
     1
102
RTVSPost2010Prop29
280
     1
102
RTVSPost2010PropOp29
 70
     1
102
RTVSPost2010Prop30
280
     1
102
RTVSPost2010PropOp30
 70
     1
102
RTVSPost2010Prop31
280
     0
102
RTVSPost2010PropOp31
 70
     1
102
RTVSPost2010Prop32
280
     0
102
RTVSPost2010PropOp32
 70
     1
102
RTVSPost2010Prop33
280
     0
102
RTVSPost2010PropOp33
 70
     1
102
RTVSPost2010Prop34
280
     0
102
RTVSPost2010PropOp34
 70
     1
102
RTVSPost2010Prop35
280
     0
102
RTVSPost2010PropOp35
 70
     1
102
RTVSPost2010Prop36
280
     0
102
RTVSPost2010PropOp36
 70
     1
102
RTVSPost2010Prop37
 90
       50
102
RTVSPost2010PropOp37
 70
     1
102
RTVSPost2010Prop38
140
0.0
102
RTVSPost2010PropOp38
 70
     1
102
RTVSPost2010Prop39
140
1.0
102
RTVSPost2010PropOp39
 70
     1
102
RTVSPost2010Prop40
 90
        0
102
RTVSPost2010PropOp40
 70
     1
102
RTVSPost2010Prop41ColorIndex
 90
       18
102
RTVSPost2010Prop41ColorRGB
 90
        0
102
RTVSPost2010PropOp41
 70
     1
102
RTVSPost2010Prop42
 90
       50
102
RTVSPost2010PropOp42
 70
     1
102
RTVSPost2010Prop43
 90
        3
102
RTVSPost2010PropOp43
 70
     1
102
RTVSPost2010Prop44ColorIndex
 90
        5
102
RTVSPost2010Prop44ColorRGB
 90
      255
102
RTVSPost2010PropOp44
 70
     1
102
RTVSPost2010Prop45
280
     0
102
RTVSPost2010PropOp45
 70
     1
102
RTVSPost2010Prop46
 90
       50
102
RTVSPost2010PropOp46
 70
     1
102
RTVSPost2010Prop47
 90
       50
102
RTVSPost2010PropOp47
 70
     1
102
RTVSPost2010Prop48
 90
       50
102
RTVSPost2010PropOp48
 70
     1
102
RTVSPost2010Prop49
280
     0
102
RTVSPost2010PropOp49
 70
     1
102
RTVSPost2010Prop50
 90
       50
102
RTVSPost2010PropOp50
 70
     1
102
RTVSPost2010Prop51ColorIndex
 90
      256
102
RTVSPost2010Prop51ColorRGB
 90
-16777216
102
RTVSPost2010PropOp51
 70
     0
102
RTVSPost2010Prop52
140
1.0
102
RTVSPost2010PropOp52
 70
     0
102
RTVSPost2010Prop53
 90
        2
102
RTVSPost2010PropOp53
 70
     1
102
RTVSPost2010Prop54
  1
strokes_ogs.tif
102
RTVSPost2010PropOp54
 70
     1
102
RTVSPost2010Prop55
280
     0
102
RTVSPost2010PropOp55
 70
     1
102
RTVSPost2010Prop56
140
1.0
102
RTVSPost2010PropOp56
 70
     1
102
RTVSPost2010Prop57
140
1.0
102
RTVSPost2010PropOp57
 70
     1
102
RTVSPropertyOp0
 70
     1
102
RTVSPropertyOp1
 70
     1
102
RTVSPropertyOp2
 70
     1
102
RTVSPropertyOp3
 70
     1
102
RTVSPropertyOp4
 70
     1
102
RTVSPropertyOp5
 70
     1
102
RTVSPropertyOp6
 70
     1
102
RTVSPropertyOp7
 70
     1
102
RTVSPropertyOp8
 70
     1
102
RTVSPropertyOp9
 70
     1
102
RTVSPropertyOp10
 70
     1
102
RTVSPropertyOp11
 70
     1
102
RTVSPropertyOp12
 70
     1
102
RTVSPropertyOp13
 70
     1
102
RTVSPropertyOp14
 70
     1
102
RTVSPropertyOp15
 70
     1
102
RTVSPropertyOp16
 70
     1
102
RTVSPropertyOp17
 70
     1
102
RTVSPropertyOp18
 70
     1
102
RTVSPropertyOp19
 70
     1
102
RTVSPropertyOp20
 70
     1
102
RTVSPropertyOp21
 70
     1
102
RTVSPropertyOp22
 70
     1
102
RTVSPropertyOp23
 70
     1
102
RTVSPropertyOp24
 70
     1
102
RTVSPropertyOp25
 70
     1
102
RTVSPropertyOp26
 70
     1
102
RTVSPropertyOp27
 70
     1
102
RTVSPropertyOp28
 70
     1
102
RTVSPropertyOp29
 70
     1
102
RTVSPropertyOp30
 70
     1
102
RTVSPropertyOp31
 70
     1
102
RTVSPropertyOp32
 70
     1
102
RTVSPropertyOp33
 70
     1
102
RTVSPropertyOp34
 70
     1
102
RTVSPropertyOp35
 70
     1
102
RTVSPropertyOp36
 70
     1
102
RTVSPropertyOp37
 70
     1
102
RTVSPropertyOp38
 70
     1
102
RTVSPropertyOp39
 70
     1
102
RTVSPropertyOp40
 70
     1
102
RTVSPropertyOp41
 70
     1
102
RTVSPropertyOp42
 70
     1
102
RTVSPropertyOp43
 70
     1
102
RTVSPropertyOp44
 70
     1
102
RTVSPropertyOp45
 70
     1
102
RTVSPropertyOp46
 70
     1
102
RTVSPropertyOp47
 70
     1
102
RTVSPropertyOp48
 70
     1
102
RTVSPropertyOp49
 70
     1
102
RTVSPropertyOp50
 70
     1
102
RTVSPropertyOp51
 70
     0
102
RTVSPropertyOp52
 70
     0
102
RTVSPropertyOp53
 70
     1
102
RTVSPropertyOp54
 70
     1
102
RTVSPropertyOp55
 70
     1
102
RTVSPropertyOp56
 70
     1
102
RTVSPropertyOp57
 70
     1
102
RTVSPropertyOp58
 70
     1
102
RTVSPropertyOp59
 70
     1
102
RTVSPropertyOp60
 70
     1
102
RTVSPropertyOp61
 70
     1
102
RTVSPropertyOp62
 70
     1
  0
XRECORD
  5
14311
102
{ACAD_REACTORS
330
14310
102
}
330
14310
100
AcDbXrecord
280
     1
102
RTVSPost2010Prop28
280
     0
102
RTVSPost2010PropOp28
 70
     1
102
RTVSPost2010Prop29
280
     1
102
RTVSPost2010PropOp29
 70
     1
102
RTVSPost2010Prop30
280
     1
102
RTVSPost2010PropOp30
 70
     1
102
RTVSPost2010Prop31
280
     0
102
RTVSPost2010PropOp31
 70
     1
102
RTVSPost2010Prop32
280
     0
102
RTVSPost2010PropOp32
 70
     1
102
RTVSPost2010Prop33
280
     0
102
RTVSPost2010PropOp33
 70
     1
102
RTVSPost2010Prop34
280
     0
102
RTVSPost2010PropOp34
 70
     1
102
RTVSPost2010Prop35
280
     0
102
RTVSPost2010PropOp35
 70
     1
102
RTVSPost2010Prop36
280
     0
102
RTVSPost2010PropOp36
 70
     1
102
RTVSPost2010Prop37
 90
       50
102
RTVSPost2010PropOp37
 70
     1
102
RTVSPost2010Prop38
140
0.0
102
RTVSPost2010PropOp38
 70
     1
102
RTVSPost2010Prop39
140
1.0
102
RTVSPost2010PropOp39
 70
     1
102
RTVSPost2010Prop40
 90
        0
102
RTVSPost2010PropOp40
 70
     1
102
RTVSPost2010Prop41ColorIndex
 90
       18
102
RTVSPost2010Prop41ColorRGB
 90
        0
102
RTVSPost2010PropOp41
 70
     1
102
RTVSPost2010Prop42
 90
       50
102
RTVSPost2010PropOp42
 70
     1
102
RTVSPost2010Prop43
 90
        3
102
RTVSPost2010PropOp43
 70
     1
102
RTVSPost2010Prop44ColorIndex
 90
        5
102
RTVSPost2010Prop44ColorRGB
 90
      255
102
RTVSPost2010PropOp44
 70
     1
102
RTVSPost2010Prop45
280
     0
102
RTVSPost2010PropOp45
 70
     1
102
RTVSPost2010Prop46
 90
       50
102
RTVSPost2010PropOp46
 70
     1
102
RTVSPost2010Prop47
 90
       50
102
RTVSPost2010PropOp47
 70
     1
102
RTVSPost2010Prop48
 90
       50
102
RTVSPost2010PropOp48
 70
     1
102
RTVSPost2010Prop49
280
     0
102
RTVSPost2010PropOp49
 70
     1
102
RTVSPost2010Prop50
 90
       50
102
RTVSPost2010PropOp50
 70
     1
102
RTVSPost2010Prop51ColorIndex
 90
      256
102
RTVSPost2010Prop51ColorRGB
 90
-16777216
102
RTVSPost2010PropOp51
 70
     0
102
RTVSPost2010Prop52
140
1.0
102
RTVSPost2010PropOp52
 70
     0
102
RTVSPost2010Prop53
 90
        2
102
RTVSPost2010PropOp53
 70
     1
102
RTVSPost2010Prop54
  1
strokes_ogs.tif
102
RTVSPost2010PropOp54
 70
     1
102
RTVSPost2010Prop55
280
     0
102
RTVSPost2010PropOp55
 70
     1
102
RTVSPost2010Prop56
140
1.0
102
RTVSPost2010PropOp56
 70
     1
102
RTVSPost2010Prop57
140
1.0
102
RTVSPost2010PropOp57
 70
     1
102
RTVSPropertyOp0
 70
     1
102
RTVSPropertyOp1
 70
     1
102
RTVSPropertyOp2
 70
     1
102
RTVSPropertyOp3
 70
     1
102
RTVSPropertyOp4
 70
     1
102
RTVSPropertyOp5
 70
     1
102
RTVSPropertyOp6
 70
     1
102
RTVSPropertyOp7
 70
     1
102
RTVSPropertyOp8
 70
     1
102
RTVSPropertyOp9
 70
     1
102
RTVSPropertyOp10
 70
     1
102
RTVSPropertyOp11
 70
     1
102
RTVSPropertyOp12
 70
     1
102
RTVSPropertyOp13
 70
     1
102
RTVSPropertyOp14
 70
     1
102
RTVSPropertyOp15
 70
     1
102
RTVSPropertyOp16
 70
     1
102
RTVSPropertyOp17
 70
     1
102
RTVSPropertyOp18
 70
     1
102
RTVSPropertyOp19
 70
     1
102
RTVSPropertyOp20
 70
     1
102
RTVSPropertyOp21
 70
     1
102
RTVSPropertyOp22
 70
     1
102
RTVSPropertyOp23
 70
     1
102
RTVSPropertyOp24
 70
     1
102
RTVSPropertyOp25
 70
     1
102
RTVSPropertyOp26
 70
     1
102
RTVSPropertyOp27
 70
     1
102
RTVSPropertyOp28
 70
     1
102
RTVSPropertyOp29
 70
     1
102
RTVSPropertyOp30
 70
     1
102
RTVSPropertyOp31
 70
     1
102
RTVSPropertyOp32
 70
     1
102
RTVSPropertyOp33
 70
     1
102
RTVSPropertyOp34
 70
     1
102
RTVSPropertyOp35
 70
     1
102
RTVSPropertyOp36
 70
     1
102
RTVSPropertyOp37
 70
     1
102
RTVSPropertyOp38
 70
     1
102
RTVSPropertyOp39
 70
     1
102
RTVSPropertyOp40
 70
     1
102
RTVSPropertyOp41
 70
     1
102
RTVSPropertyOp42
 70
     1
102
RTVSPropertyOp43
 70
     1
102
RTVSPropertyOp44
 70
     1
102
RTVSPropertyOp45
 70
     1
102
RTVSPropertyOp46
 70
     1
102
RTVSPropertyOp47
 70
     1
102
RTVSPropertyOp48
 70
     1
102
RTVSPropertyOp49
 70
     1
102
RTVSPropertyOp50
 70
     1
102
RTVSPropertyOp51
 70
     0
102
RTVSPropertyOp52
 70
     0
102
RTVSPropertyOp53
 70
     1
102
RTVSPropertyOp54
 70
     1
102
RTVSPropertyOp55
 70
     1
102
RTVSPropertyOp56
 70
     1
102
RTVSPropertyOp57
 70
     1
102
RTVSPropertyOp58
 70
     1
102
RTVSPropertyOp59
 70
     1
102
RTVSPropertyOp60
 70
     1
102
RTVSPropertyOp61
 70
     1
102
RTVSPropertyOp62
 70
     1
  0
ENDSEC
  0
EOF
