  0
SECTION
  2
HEADER
  9
$ACADVER
  1
AC1015
  9
$ACADMAINTVER
 70
    20
  9
$DWGCODEPAGE
  3
ANSI_932
  9
$INSBASE
 10
0.0
 20
0.0
 30
0.0
  9
$EXTMIN
 10
139.196816621341
 20
-0.5436960005536094
 30
-0.0000000000000058
  9
$EXTMAX
 10
16308.32523385566
 20
11409.94830329749
 30
0.0000000000000104
  9
$LIMMIN
 10
0.0
 20
0.0
  9
$LIMMAX
 10
16800.0
 20
11880.0
  9
$ORTHOMODE
 70
     1
  9
$REGENMODE
 70
     1
  9
$FILLMODE
 70
     1
  9
$QTEXTMODE
 70
     0
  9
$MIRRTEXT
 70
     1
  9
$LTSCALE
 40
5.0
  9
$ATTMODE
 70
     1
  9
$TEXTSIZE
 40
4.0
  9
$TRACEWID
 40
1.0
  9
$TEXTSTYLE
  7
STYLE1
  9
$CLAYER
  8
部品1
  9
$CELTYPE
  6
BYLAYER
  9
$CECOLOR
 62
   256
  9
$CELTSCALE
 40
50.0
  9
$DISPSILH
 70
     0
  9
$DIMSCALE
 40
40.0
  9
$DIMASZ
 40
2.5
  9
$DIMEXO
 40
0.5
  9
$DIMDLI
 40
7.0
  9
$DIMRND
 40
0.0
  9
$DIMDLE
 40
0.0
  9
$DIMEXE
 40
1.5
  9
$DIMTP
 40
0.0
  9
$DIMTM
 40
0.0
  9
$DIMTXT
 40
3.0
  9
$DIMCEN
 40
0.0
  9
$DIMTSZ
 40
0.0
  9
$DIMTOL
 70
     0
  9
$DIMLIM
 70
     0
  9
$DIMTIH
 70
     0
  9
$DIMTOH
 70
     0
  9
$DIMSE1
 70
     0
  9
$DIMSE2
 70
     0
  9
$DIMTAD
 70
     3
  9
$DIMZIN
 70
     8
  9
$DIMBLK
  1

  9
$DIMASO
 70
     1
  9
$DIMSHO
 70
     1
  9
$DIMPOST
  1

  9
$DIMAPOST
  1

  9
$DIMALT
 70
     0
  9
$DIMALTD
 70
     2
  9
$DIMALTF
 40
0.0394
  9
$DIMLFAC
 40
1.0
  9
$DIMTOFL
 70
     1
  9
$DIMTVP
 40
0.0
  9
$DIMTIX
 70
     1
  9
$DIMSOXD
 70
     0
  9
$DIMSAH
 70
     1
  9
$DIMBLK1
  1
DOTSMALL
  9
$DIMBLK2
  1
DOTSMALL
  9
$DIMSTYLE
  2
INABA_S40G
  9
$DIMCLRD
 70
     0
  9
$DIMCLRE
 70
     0
  9
$DIMCLRT
 70
     7
  9
$DIMTFAC
 40
1.0
  9
$DIMGAP
 40
1.0
  9
$DIMJUST
 70
     0
  9
$DIMSD1
 70
     0
  9
$DIMSD2
 70
     0
  9
$DIMTOLJ
 70
     1
  9
$DIMTZIN
 70
     0
  9
$DIMALTZ
 70
     0
  9
$DIMALTTZ
 70
     0
  9
$DIMUPT
 70
     0
  9
$DIMDEC
 70
     1
  9
$DIMTDEC
 70
     4
  9
$DIMALTU
 70
     2
  9
$DIMALTTD
 70
     2
  9
$DIMTXSTY
  7
STYLE1
  9
$DIMAUNIT
 70
     0
  9
$DIMADEC
 70
     0
  9
$DIMALTRND
 40
0.0
  9
$DIMAZIN
 70
     0
  9
$DIMDSEP
 70
    46
  9
$DIMATFIT
 70
     3
  9
$DIMFRAC
 70
     0
  9
$DIMLDRBLK
  1

  9
$DIMLUNIT
 70
     2
  9
$DIMLWD
 70
    -2
  9
$DIMLWE
 70
    -2
  9
$DIMTMOVE
 70
     0
  9
$LUNITS
 70
     2
  9
$LUPREC
 70
     1
  9
$SKETCHINC
 40
1.0
  9
$FILLETRAD
 40
5.0
  9
$AUNITS
 70
     0
  9
$AUPREC
 70
     0
  9
$MENU
  1
acad
  9
$ELEVATION
 40
0.0
  9
$PELEVATION
 40
0.0
  9
$THICKNESS
 40
0.0
  9
$LIMCHECK
 70
     0
  9
$CHAMFERA
 40
0.0
  9
$CHAMFERB
 40
0.0
  9
$CHAMFERC
 40
0.0
  9
$CHAMFERD
 40
0.0
  9
$SKPOLY
 70
     0
  9
$TDCREATE
 40
2451052.600153125
  9
$TDUCREATE
 40
2451052.225153125
  9
$TDUPDATE
 40
2455091.675922489
  9
$TDUUPDATE
 40
2455091.300922489
  9
$TDINDWG
 40
0.4329490278
  9
$TDUSRTIMER
 40
0.4329490278
  9
$USRTIMER
 70
     1
  9
$ANGBASE
 50
0.0
  9
$ANGDIR
 70
     0
  9
$PDMODE
 70
     3
  9
$PDSIZE
 40
2.0
  9
$PLINEWID
 40
0.0
  9
$SPLFRAME
 70
     0
  9
$SPLINETYPE
 70
     6
  9
$SPLINESEGS
 70
     8
  9
$HANDSEED
  5
13722
  9
$SURFTAB1
 70
     6
  9
$SURFTAB2
 70
     6
  9
$SURFTYPE
 70
     6
  9
$SURFU
 70
     6
  9
$SURFV
 70
     6
  9
$UCSBASE
  2

  9
$UCSNAME
  2

  9
$UCSORG
 10
0.0
 20
0.0
 30
0.0
  9
$UCSXDIR
 10
1.0
 20
0.0
 30
0.0
  9
$UCSYDIR
 10
0.0
 20
1.0
 30
0.0
  9
$UCSORTHOREF
  2

  9
$UCSORTHOVIEW
 70
     0
  9
$UCSORGTOP
 10
0.0
 20
0.0
 30
0.0
  9
$UCSORGBOTTOM
 10
0.0
 20
0.0
 30
0.0
  9
$UCSORGLEFT
 10
0.0
 20
0.0
 30
0.0
  9
$UCSORGRIGHT
 10
0.0
 20
0.0
 30
0.0
  9
$UCSORGFRONT
 10
0.0
 20
0.0
 30
0.0
  9
$UCSORGBACK
 10
0.0
 20
0.0
 30
0.0
  9
$PUCSBASE
  2

  9
$PUCSNAME
  2

  9
$PUCSORG
 10
0.0
 20
0.0
 30
0.0
  9
$PUCSXDIR
 10
1.0
 20
0.0
 30
0.0
  9
$PUCSYDIR
 10
0.0
 20
1.0
 30
0.0
  9
$PUCSORTHOREF
  2

  9
$PUCSORTHOVIEW
 70
     0
  9
$PUCSORGTOP
 10
0.0
 20
0.0
 30
0.0
  9
$PUCSORGBOTTOM
 10
0.0
 20
0.0
 30
0.0
  9
$PUCSORGLEFT
 10
0.0
 20
0.0
 30
0.0
  9
$PUCSORGRIGHT
 10
0.0
 20
0.0
 30
0.0
  9
$PUCSORGFRONT
 10
0.0
 20
0.0
 30
0.0
  9
$PUCSORGBACK
 10
0.0
 20
0.0
 30
0.0
  9
$USERI1
 70
     0
  9
$USERI2
 70
     0
  9
$USERI3
 70
     0
  9
$USERI4
 70
     0
  9
$USERI5
 70
     0
  9
$USERR1
 40
0.0
  9
$USERR2
 40
0.0
  9
$USERR3
 40
0.0
  9
$USERR4
 40
0.0
  9
$USERR5
 40
0.0
  9
$WORLDVIEW
 70
     1
  9
$SHADEDGE
 70
     3
  9
$SHADEDIF
 70
    70
  9
$TILEMODE
 70
     1
  9
$MAXACTVP
 70
    16
  9
$PINSBASE
 10
0.0
 20
0.0
 30
0.0
  9
$PLIMCHECK
 70
     0
  9
$PEXTMIN
 10
1.000000000000000E+20
 20
1.000000000000000E+20
 30
1.000000000000000E+20
  9
$PEXTMAX
 10
-1.000000000000000E+20
 20
-1.000000000000000E+20
 30
-1.000000000000000E+20
  9
$PLIMMIN
 10
0.0
 20
0.0
  9
$PLIMMAX
 10
420.0
 20
297.0
  9
$UNITMODE
 70
     0
  9
$VISRETAIN
 70
     0
  9
$PLINEGEN
 70
     0
  9
$PSLTSCALE
 70
     0
  9
$TREEDEPTH
 70
  3020
  9
$CMLSTYLE
  2
STANDARD
  9
$CMLJUST
 70
     0
  9
$CMLSCALE
 40
1.0
  9
$PROXYGRAPHICS
 70
     1
  9
$MEASUREMENT
 70
     1
  9
$CELWEIGHT
370
    -1
  9
$ENDCAPS
280
     0
  9
$JOINSTYLE
280
     0
  9
$LWDISPLAY
290
     0
  9
$INSUNITS
 70
     0
  9
$HYPERLINKBASE
  1

  9
$STYLESHEET
  1
inaba.ctb
  9
$XEDIT
290
     1
  9
$CEPSNTYPE
380
     0
  9
$PSTYLEMODE
290
     1
  9
$FINGERPRINTGUID
  2
{8D59C436-E5DA-4644-9892-B6064AB37D86}
  9
$VERSIONGUID
  2
{6BF38AB5-D5F2-4F89-9AD4-49D8F31DBE46}
  9
$EXTNAMES
290
     1
  9
$PSVPSCALE
 40
0.0
  9
$OLESTARTUP
290
     0
  0
ENDSEC
  0
SECTION
  2
CLASSES
  0
CLASS
  1
DICTIONARYVAR
  2
AcDbDictionaryVar
  3
ObjectDBX Classes
 90
        0
280
     0
281
     0
  0
CLASS
  1
ACDBDICTIONARYWDFLT
  2
AcDbDictionaryWithDefault
  3
ObjectDBX Classes
 90
        0
280
     0
281
     0
  0
CLASS
  1
ACDBPLACEHOLDER
  2
AcDbPlaceHolder
  3
ObjectDBX Classes
 90
        0
280
     0
281
     0
  0
CLASS
  1
LAYOUT
  2
AcDbLayout
  3
ObjectDBX Classes
 90
        0
280
     0
281
     0
  0
ENDSEC
  0
SECTION
  2
TABLES
  0
TABLE
  2
VPORT
  5
746D
330
0
100
AcDbSymbolTable
 70
     3
  0
VPORT
  5
1371A
330
746D
100
AcDbSymbolTableRecord
100
AcDbViewportTableRecord
  2
*Active
 70
     0
 10
0.0
 20
0.0
 11
1.0
 21
1.0
 12
8223.761025238502
 22
5704.702303648472
 13
0.0
 23
0.0
 14
10.0
 24
10.0
 15
10.0
 25
10.0
 16
0.0
 26
0.0
 36
1.0
 17
0.0
 27
0.0
 37
0.0
 40
11493.07698361142
 41
1.492753623188405
 42
50.0
 43
0.0
 44
0.0
 50
0.0
 51
0.0
 71
     0
 72
     0
 73
     1
 74
     0
 75
     0
 76
     0
 77
     0
 78
     0
281
     0
 65
     1
110
0.0
120
0.0
130
0.0
111
1.0
121
0.0
131
0.0
112
0.0
122
1.0
132
0.0
 79
     0
146
0.0
  0
ENDTAB
  0
TABLE
  2
LTYPE
  5
746A
330
0
100
AcDbSymbolTable
 70
     4
  0
LTYPE
  5
7477
330
746A
100
AcDbSymbolTableRecord
100
AcDbLinetypeTableRecord
  2
BYBLOCK
 70
     0
  3

 72
    65
 73
     0
 40
0.0
  0
LTYPE
  5
7478
330
746A
100
AcDbSymbolTableRecord
100
AcDbLinetypeTableRecord
  2
BYLAYER
 70
     0
  3

 72
    65
 73
     0
 40
0.0
  0
LTYPE
  5
7479
330
746A
100
AcDbSymbolTableRecord
100
AcDbLinetypeTableRecord
  2
CONTINUOUS
 70
     0
  3
Solid line
 72
    65
 73
     0
 40
0.0
  0
LTYPE
  5
7816
330
746A
100
AcDbSymbolTableRecord
100
AcDbLinetypeTableRecord
  2
CENTER
 70
     0
  3
____ _ ____ _ ____ _ ____ _ ____ _ ____ _ ____ 
 72
    65
 73
     4
 40
2.0
 49
1.25
 74
     0
 49
-0.25
 74
     0
 49
0.25
 74
     0
 49
-0.25
 74
     0
  0
LTYPE
  5
781A
330
746A
100
AcDbSymbolTableRecord
100
AcDbLinetypeTableRecord
  2
HIDDEN
 70
     0
  3
__ __ __ __ __ __ __ __ __ __ __ __ __ __ __ __
 72
    65
 73
     2
 40
0.375
 49
0.25
 74
     0
 49
-0.125
 74
     0
  0
LTYPE
  5
781B
330
746A
100
AcDbSymbolTableRecord
100
AcDbLinetypeTableRecord
  2
PHANTOM
 70
     0
  3
______  __  __  ______  __  __  ______  __  __ 
 72
    65
 73
     6
 40
2.5
 49
1.25
 74
     0
 49
-0.25
 74
     0
 49
0.25
 74
     0
 49
-0.25
 74
     0
 49
0.25
 74
     0
 49
-0.25
 74
     0
  0
ENDTAB
  0
TABLE
  2
LAYER
  5
7467
330
0
100
AcDbSymbolTable
 70
    12
  0
LAYER
  5
7474
330
7467
100
AcDbSymbolTableRecord
100
AcDbLayerTableRecord
  2
0
 70
     0
 62
     7
  6
CONTINUOUS
370
    -3
390
12FD3
  0
LAYER
  5
DEB2
330
7467
100
AcDbSymbolTableRecord
100
AcDbLayerTableRecord
  2
センター
 70
     0
 62
     3
  6
CENTER
370
    -3
390
12FD3
  0
LAYER
  5
DEB3
330
7467
100
AcDbSymbolTableRecord
100
AcDbLayerTableRecord
  2
寸法
 70
     0
 62
     4
  6
CONTINUOUS
370
    -3
390
12FD3
  0
LAYER
  5
DEB4
330
7467
100
AcDbSymbolTableRecord
100
AcDbLayerTableRecord
  2
部品1
 70
     0
 62
     7
  6
CONTINUOUS
370
    -3
390
12FD3
  0
LAYER
  5
DEB5
330
7467
100
AcDbSymbolTableRecord
100
AcDbLayerTableRecord
  2
補助
 70
     0
 62
    -1
  6
CONTINUOUS
370
    -3
390
12FD3
  0
LAYER
  5
DEB6
330
7467
100
AcDbSymbolTableRecord
100
AcDbLayerTableRecord
  2
文字
 70
     0
 62
     7
  6
CONTINUOUS
370
    -3
390
12FD3
  0
LAYER
  5
F255
330
7467
100
AcDbSymbolTableRecord
100
AcDbLayerTableRecord
  2
DEFPOINTS
 70
     0
 62
     7
  6
CONTINUOUS
290
     0
370
    -3
390
12FD3
  0
LAYER
  5
10B54
330
7467
100
AcDbSymbolTableRecord
100
AcDbLayerTableRecord
  2
仕様書枠
 70
     0
 62
   230
  6
CONTINUOUS
370
    -3
390
12FD3
  0
LAYER
  5
11729
330
7467
100
AcDbSymbolTableRecord
100
AcDbLayerTableRecord
  2
Ｇ．Ｌ
 70
     0
 62
   230
  6
CONTINUOUS
370
    -3
390
12FD3
  0
LAYER
  5
1173F
330
7467
100
AcDbSymbolTableRecord
100
AcDbLayerTableRecord
  2
細線
 70
     0
 62
     6
  6
CONTINUOUS
370
    -3
390
12FD3
  0
LAYER
  5
11740
330
7467
100
AcDbSymbolTableRecord
100
AcDbLayerTableRecord
  2
点線
 70
     0
 62
     2
  6
HIDDEN
370
    -3
390
12FD3
  0
LAYER
  5
11FF2
330
7467
100
AcDbSymbolTableRecord
100
AcDbLayerTableRecord
  2
想像線
 70
     0
 62
     6
  6
PHANTOM
370
    -3
390
12FD3
  0
ENDTAB
  0
TABLE
  2
STYLE
  5
7468
330
0
100
AcDbSymbolTable
 70
     4
  0
STYLE
  5
7475
330
7468
100
AcDbSymbolTableRecord
100
AcDbTextStyleTableRecord
  2
STANDARD
 70
     0
 40
0.0
 41
1.0
 50
0.0
 71
     0
 42
4.0
  3
txt
  4
C:\AutoCAD LT\bigfont.shx
  0
STYLE
  5
F706
330
7468
100
AcDbSymbolTableRecord
100
AcDbTextStyleTableRecord
  2
STYLE1
 70
     0
 40
0.0
 41
1.0
 50
0.0
 71
     0
 42
4.0
  3
isocp.shx
  4
bigfont.shx
  0
STYLE
  5
103BF
330
7468
100
AcDbSymbolTableRecord
100
AcDbTextStyleTableRecord
  2
STYLE2
 70
     0
 40
0.0
 41
1.0
 50
0.0
 71
     0
 42
100.0
  3
MS PGothic.ttf
  4

1001
ACAD
1000
MS PGothic
1071
    32818
  0
STYLE
  5
10BAA
330
7468
100
AcDbSymbolTableRecord
100
AcDbTextStyleTableRecord
  2
STYLE3
 70
     0
 40
0.0
 41
1.0
 50
0.0
 71
     0
 42
100.0
  3
DFPGothic-EB.ttf
  4

1001
ACAD
1000
DFPGothic-EB
1071
    32818
  0
ENDTAB
  0
TABLE
  2
VIEW
  5
746B
330
0
100
AcDbSymbolTable
 70
     0
  0
ENDTAB
  0
TABLE
  2
UCS
  5
746C
330
0
100
AcDbSymbolTable
 70
     0
  0
ENDTAB
  0
TABLE
  2
APPID
  5
746E
330
0
100
AcDbSymbolTable
 70
     6
  0
APPID
  5
7476
330
746E
100
AcDbSymbolTableRecord
100
AcDbRegAppTableRecord
  2
ACAD
 70
     0
  0
APPID
  5
DEA9
330
746E
100
AcDbSymbolTableRecord
100
AcDbRegAppTableRecord
  2
CONTENTBLOCKICON
 70
     0
  0
APPID
  5
DEAA
330
746E
100
AcDbSymbolTableRecord
100
AcDbRegAppTableRecord
  2
CONTENTBLOCKDESCRIPTION
 70
     0
  0
APPID
  5
E71D
330
746E
100
AcDbSymbolTableRecord
100
AcDbRegAppTableRecord
  2
CONTENTTABDATA
 70
     0
  0
APPID
  5
E71E
330
746E
100
AcDbSymbolTableRecord
100
AcDbRegAppTableRecord
  2
CONTENTCURRENTTAB
 70
     0
  0
APPID
  5
F3BA
330
746E
100
AcDbSymbolTableRecord
100
AcDbRegAppTableRecord
  2
DRAWINGVARIABLESXDATA
 70
     0
  0
ENDTAB
  0
TABLE
  2
DIMSTYLE
  5
746F
330
0
100
AcDbSymbolTable
 70
     5
100
AcDbDimStyleTable
 71
     0
  0
DIMSTYLE
105
7484
330
746F
100
AcDbSymbolTableRecord
100
AcDbDimStyleTableRecord
  2
JIS
 70
     0
 41
2.5
 42
1.0
 43
7.0
 44
1.0
 73
     0
 74
     0
 77
     1
 78
     8
140
2.5
141
0.0
143
0.0394
147
0.0
172
     1
174
     1
175
     1
340
7475
  0
DIMSTYLE
105
F236
330
746F
100
AcDbSymbolTableRecord
100
AcDbDimStyleTableRecord
  2
INABA_S40
 70
     0
 40
40.0
 41
2.5
 42
0.5
 43
7.0
 44
1.5
 73
     0
 74
     0
 77
     3
 78
     8
140
3.0
141
0.0
143
0.0394
147
1.0
172
     1
173
     1
174
     1
175
     1
178
     7
289
     0
340
7475
341
DEAC
343
DEAC
344
DEAC
  0
DIMSTYLE
105
F71F
102
{ACAD_REACTORS
330
1187A
330
11886
330
11892
330
1189E
330
118AB
330
118B8
330
118C5
330
118DA
330
118E6
330
1190F
330
11934
330
121B9
330
121B8
330
12228
330
1222E
330
1222B
330
12291
102
}
330
746F
100
AcDbSymbolTableRecord
100
AcDbDimStyleTableRecord
  2
INABA_S40G
 70
     0
 40
40.0
 41
2.5
 42
0.5
 43
7.0
 44
1.5
 73
     0
 74
     0
 77
     3
 78
     8
140
3.0
141
0.0
143
0.0394
147
1.0
172
     1
173
     1
174
     1
178
     7
271
     1
340
F706
341
F770
343
F770
344
F770
  0
DIMSTYLE
105
11FF3
330
746F
100
AcDbSymbolTableRecord
100
AcDbDimStyleTableRecord
  2
INABA_S50G
 70
     0
 41
125.0
 42
25.0
 43
7.0
 44
75.0
 73
     0
 74
     0
 77
     3
 78
     8
140
150.0
141
0.0
143
0.0394
147
25.0
172
     1
173
     1
174
     1
178
     7
271
     1
340
F706
341
F770
343
F770
344
F770
  0
DIMSTYLE
105
13038
102
{ACAD_REACTORS
330
135CB
330
135D4
330
135D6
330
135E0
330
135E4
330
135E5
330
135E7
102
}
330
746F
100
AcDbSymbolTableRecord
100
AcDbDimStyleTableRecord
  2
INABA_S40G詳細用20
 70
     0
 40
40.0
 41
2.5
 42
0.5
 43
7.0
 44
1.5
 73
     0
 74
     0
 77
     3
 78
     8
140
3.0
141
0.0
143
0.0394
144
0.5
147
1.0
172
     1
173
     1
174
     1
178
     7
271
     0
272
     0
340
F706
341
F770
343
F770
344
F770
  0
ENDTAB
  0
TABLE
  2
BLOCK_RECORD
  5
7466
330
0
100
AcDbSymbolTable
 70
    55
  0
BLOCK_RECORD
  5
747D
330
7466
100
AcDbSymbolTableRecord
100
AcDbBlockTableRecord
  2
*MODEL_SPACE
340
12FD8
  0
BLOCK_RECORD
  5
747A
330
7466
100
AcDbSymbolTableRecord
100
AcDbBlockTableRecord
  2
*PAPER_SPACE
340
12FD9
  0
BLOCK_RECORD
  5
DEAC
330
7466
100
AcDbSymbolTableRecord
100
AcDbBlockTableRecord
  2
_OPEN
340
0
  0
BLOCK_RECORD
  5
F770
330
7466
100
AcDbSymbolTableRecord
100
AcDbBlockTableRecord
  2
_DOTSMALL
340
0
102
{BLKREFS
331
12413
331
12414
331
12427
331
12428
331
1244F
331
12450
331
12445
331
12446
331
1227F
331
12280
331
12C1F
331
12C20
331
12C35
331
12C36
331
120DD
331
120DE
331
12C7C
331
12C7D
331
120F3
331
120F4
331
12C72
331
12C73
331
121E7
331
121E8
331
121DC
331
121DD
331
12C67
331
12C68
331
12C5A
331
12C5B
331
12C4D
331
12C4E
331
122A2
331
122A3
331
131F6
331
131F7
331
131FF
331
13200
331
13208
331
13209
331
13211
331
13212
331
1321A
331
1321B
331
13223
331
13224
331
1322E
331
1322F
331
13283
331
13284
331
1328F
331
13290
331
1325C
331
1325D
331
13268
331
13269
331
13250
331
13251
331
13244
331
13245
331
13276
331
13277
331
13469
331
1346A
331
13472
331
13473
331
1347B
331
1347C
331
13484
331
13485
331
1348D
331
1348E
331
13496
331
13497
331
134A1
331
134A2
331
134F5
331
134F6
331
13501
331
13502
331
134CE
331
134CF
331
134DA
331
134DB
331
134C2
331
134C3
331
134B6
331
134B7
331
134E8
331
134E9
331
136D9
331
136DA
331
136E2
331
136E3
331
136EB
331
136EC
331
136F4
331
136F5
331
136FD
331
136FE
331
13706
331
13707
331
13711
331
13712
102
}
  0
BLOCK_RECORD
  5
1186E
330
7466
100
AcDbSymbolTableRecord
100
AcDbBlockTableRecord
  2
*D2
340
0
  0
BLOCK_RECORD
  5
1187B
330
7466
100
AcDbSymbolTableRecord
100
AcDbBlockTableRecord
  2
*D3
340
0
  0
BLOCK_RECORD
  5
11887
330
7466
100
AcDbSymbolTableRecord
100
AcDbBlockTableRecord
  2
*D4
340
0
  0
BLOCK_RECORD
  5
11893
330
7466
100
AcDbSymbolTableRecord
100
AcDbBlockTableRecord
  2
*D5
340
0
  0
BLOCK_RECORD
  5
1189F
330
7466
100
AcDbSymbolTableRecord
100
AcDbBlockTableRecord
  2
*D6
340
0
  0
BLOCK_RECORD
  5
118AC
330
7466
100
AcDbSymbolTableRecord
100
AcDbBlockTableRecord
  2
*D7
340
0
  0
BLOCK_RECORD
  5
118B9
330
7466
100
AcDbSymbolTableRecord
100
AcDbBlockTableRecord
  2
*D8
340
0
  0
BLOCK_RECORD
  5
118D1
330
7466
100
AcDbSymbolTableRecord
100
AcDbBlockTableRecord
  2
*D9
340
0
  0
BLOCK_RECORD
  5
118DB
330
7466
100
AcDbSymbolTableRecord
100
AcDbBlockTableRecord
  2
*D10
340
0
  0
BLOCK_RECORD
  5
11906
330
7466
100
AcDbSymbolTableRecord
100
AcDbBlockTableRecord
  2
*D11
340
0
  0
BLOCK_RECORD
  5
11928
330
7466
100
AcDbSymbolTableRecord
100
AcDbBlockTableRecord
  2
*D12
340
0
  0
BLOCK_RECORD
  5
121CB
330
7466
100
AcDbSymbolTableRecord
100
AcDbBlockTableRecord
  2
*D13
340
0
  0
BLOCK_RECORD
  5
121D7
330
7466
100
AcDbSymbolTableRecord
100
AcDbBlockTableRecord
  2
*D14
340
0
  0
BLOCK_RECORD
  5
1222F
330
7466
100
AcDbSymbolTableRecord
100
AcDbBlockTableRecord
  2
*D15
340
0
  0
BLOCK_RECORD
  5
1223B
330
7466
100
AcDbSymbolTableRecord
100
AcDbBlockTableRecord
  2
*D16
340
0
  0
BLOCK_RECORD
  5
12249
330
7466
100
AcDbSymbolTableRecord
100
AcDbBlockTableRecord
  2
*D17
340
0
  0
BLOCK_RECORD
  5
12292
330
7466
100
AcDbSymbolTableRecord
100
AcDbBlockTableRecord
  2
*D18
340
0
  0
BLOCK_RECORD
  5
1340E
330
7466
100
AcDbSymbolTableRecord
100
AcDbBlockTableRecord
  2
*D33
340
0
  0
BLOCK_RECORD
  5
1341B
330
7466
100
AcDbSymbolTableRecord
100
AcDbBlockTableRecord
  2
*D34
340
0
  0
BLOCK_RECORD
  5
13427
330
7466
100
AcDbSymbolTableRecord
100
AcDbBlockTableRecord
  2
*D35
340
0
  0
BLOCK_RECORD
  5
13433
330
7466
100
AcDbSymbolTableRecord
100
AcDbBlockTableRecord
  2
*D36
340
0
  0
BLOCK_RECORD
  5
1343F
330
7466
100
AcDbSymbolTableRecord
100
AcDbBlockTableRecord
  2
*D37
340
0
  0
BLOCK_RECORD
  5
1344B
330
7466
100
AcDbSymbolTableRecord
100
AcDbBlockTableRecord
  2
*D38
340
0
  0
BLOCK_RECORD
  5
13457
330
7466
100
AcDbSymbolTableRecord
100
AcDbBlockTableRecord
  2
*D39
340
0
  0
BLOCK_RECORD
  5
134B1
330
7466
100
AcDbSymbolTableRecord
100
AcDbBlockTableRecord
  2
*D40
340
0
  0
BLOCK_RECORD
  5
134BD
330
7466
100
AcDbSymbolTableRecord
100
AcDbBlockTableRecord
  2
*D41
340
0
  0
BLOCK_RECORD
  5
134C9
330
7466
100
AcDbSymbolTableRecord
100
AcDbBlockTableRecord
  2
*D42
340
0
  0
BLOCK_RECORD
  5
134D5
330
7466
100
AcDbSymbolTableRecord
100
AcDbBlockTableRecord
  2
*D43
340
0
  0
BLOCK_RECORD
  5
134E1
330
7466
100
AcDbSymbolTableRecord
100
AcDbBlockTableRecord
  2
*D44
340
0
  0
BLOCK_RECORD
  5
134EF
330
7466
100
AcDbSymbolTableRecord
100
AcDbBlockTableRecord
  2
*D45
340
0
  0
BLOCK_RECORD
  5
134FC
330
7466
100
AcDbSymbolTableRecord
100
AcDbBlockTableRecord
  2
*D46
340
0
  0
BLOCK_RECORD
  5
1367E
330
7466
100
AcDbSymbolTableRecord
100
AcDbBlockTableRecord
  2
*D48
340
0
  0
BLOCK_RECORD
  5
1368B
330
7466
100
AcDbSymbolTableRecord
100
AcDbBlockTableRecord
  2
*D49
340
0
  0
BLOCK_RECORD
  5
13697
330
7466
100
AcDbSymbolTableRecord
100
AcDbBlockTableRecord
  2
*D50
340
0
  0
BLOCK_RECORD
  5
136A3
330
7466
100
AcDbSymbolTableRecord
100
AcDbBlockTableRecord
  2
*D51
340
0
  0
BLOCK_RECORD
  5
136AF
330
7466
100
AcDbSymbolTableRecord
100
AcDbBlockTableRecord
  2
*D52
340
0
  0
BLOCK_RECORD
  5
136BB
330
7466
100
AcDbSymbolTableRecord
100
AcDbBlockTableRecord
  2
*D53
340
0
  0
BLOCK_RECORD
  5
136C7
330
7466
100
AcDbSymbolTableRecord
100
AcDbBlockTableRecord
  2
*D54
340
0
  0
ENDTAB
  0
ENDSEC
  0
SECTION
  2
BLOCKS
  0
BLOCK
  5
7489
330
747D
100
AcDbEntity
  8
0
100
AcDbBlockBegin
  2
*MODEL_SPACE
 70
     0
 10
0.0
 20
0.0
 30
0.0
  3
*MODEL_SPACE
  1

  0
ENDBLK
  5
748A
330
747D
100
AcDbEntity
  8
0
100
AcDbBlockEnd
  0
BLOCK
  5
7487
330
747A
100
AcDbEntity
 67
     1
  8
0
100
AcDbBlockBegin
  2
*PAPER_SPACE
 70
     0
 10
0.0
 20
0.0
 30
0.0
  3
*PAPER_SPACE
  1

  0
ENDBLK
  5
7488
330
747A
100
AcDbEntity
 67
     1
  8
0
100
AcDbBlockEnd
  0
BLOCK
  5
DEAD
330
DEAC
100
AcDbEntity
  8
0
100
AcDbBlockBegin
  2
_OPEN
 70
     0
 10
0.0
 20
0.0
 30
0.0
  3
_OPEN
  1

  0
LINE
  5
DEAE
330
DEAC
100
AcDbEntity
  8
0
  6
ByBlock
 62
     0
100
AcDbLine
 10
-1.0
 20
0.1666666666666666
 30
0.0
 11
0.0
 21
0.0
 31
0.0
  0
LINE
  5
DEAF
330
DEAC
100
AcDbEntity
  8
0
  6
ByBlock
 62
     0
100
AcDbLine
 10
0.0
 20
0.0
 30
0.0
 11
-1.0
 21
-0.1666666666666666
 31
0.0
  0
LINE
  5
DEB0
330
DEAC
100
AcDbEntity
  8
0
  6
ByBlock
 62
     0
100
AcDbLine
 10
0.0
 20
0.0
 30
0.0
 11
-1.0
 21
0.0
 31
0.0
  0
ENDBLK
  5
DEB1
330
DEAC
100
AcDbEntity
  8
0
100
AcDbBlockEnd
  0
BLOCK
  5
F771
330
F770
100
AcDbEntity
  8
0
 48
50.0
100
AcDbBlockBegin
  2
_DOTSMALL
 70
     0
 10
0.0
 20
0.0
 30
0.0
  3
_DOTSMALL
  1

  0
LWPOLYLINE
  5
F772
330
F770
100
AcDbEntity
  8
0
  6
ByBlock
 62
     0
 48
50.0
100
AcDbPolyline
 90
        2
 70
     1
 43
0.5
 10
-0.0625
 20
0.0
 42
1.0
 10
0.0625
 20
0.0
 42
1.0
  0
ENDBLK
  5
F776
330
F770
100
AcDbEntity
  8
0
 48
50.0
100
AcDbBlockEnd
  0
BLOCK
  5
1240F
330
1186E
100
AcDbEntity
  8
0
 48
50.0
100
AcDbBlockBegin
  2
*D2
 70
     1
 10
0.0
 20
0.0
 30
0.0
  3
*D2
  1

  0
LINE
  5
12410
330
1186E
100
AcDbEntity
  8
0
  6
ByBlock
 62
     0
 48
50.0
100
AcDbLine
 10
1755.156574488159
 20
10206.74038870937
 30
0.0
 11
1272.662301917393
 21
10206.74038870937
 31
0.0
  0
LINE
  5
12411
330
1186E
100
AcDbEntity
  8
0
  6
ByBlock
 62
     0
 48
50.0
100
AcDbLine
 10
1705.156574488159
 20
9286.740388709375
 30
0.0
 11
1272.662301917393
 21
9286.740388709375
 31
0.0
  0
LINE
  5
12412
330
1186E
100
AcDbEntity
  8
0
  6
ByBlock
 62
     0
 48
50.0
100
AcDbLine
 10
1332.662301917393
 20
10206.74038870937
 30
0.0
 11
1332.662301917393
 21
9286.740388709375
 31
0.0
  0
INSERT
  5
12413
330
1186E
100
AcDbEntity
  8
0
  6
ByBlock
 62
     0
 48
50.0
100
AcDbBlockReference
  2
_DOTSMALL
 10
1332.662301917393
 20
10206.74038870937
 30
0.0
 41
100.0
 42
100.0
 43
100.0
 50
90.0
  0
INSERT
  5
12414
330
1186E
100
AcDbEntity
  8
0
  6
ByBlock
 62
     0
 48
50.0
100
AcDbBlockReference
  2
_DOTSMALL
 10
1332.662301917393
 20
9286.740388709375
 30
0.0
 41
100.0
 42
100.0
 43
100.0
 50
270.0
  0
MTEXT
  5
12415
330
1186E
100
AcDbEntity
  8
0
  6
ByBlock
 62
     7
 48
50.0
100
AcDbMText
 10
1232.621489352589
 20
9746.740388709376
 30
0.0
 40
120.0
 41
0.0
 71
     5
 72
     1
  1
\A1;920
  7
STYLE1
 11
0.0000000000000001
 21
1.0
 31
0.0
 73
     1
 44
1.0
1001
ACAD
1000
MTEXTBEGIN
1070
    73
1070
     1
1070
    44
1040
1.0
1070
    74
1070
     0
1000
MTEXTEND
  0
POINT
  5
12416
330
1186E
100
AcDbEntity
  8
DEFPOINTS
  6
ByBlock
 62
     0
 48
50.0
100
AcDbPoint
 10
1775.156574488159
 20
10206.74038870937
 30
0.0
  0
POINT
  5
12417
330
1186E
100
AcDbEntity
  8
DEFPOINTS
  6
ByBlock
 62
     0
 48
50.0
100
AcDbPoint
 10
1725.156574488159
 20
9286.740388709375
 30
0.0
  0
POINT
  5
12418
330
1186E
100
AcDbEntity
  8
DEFPOINTS
  6
ByBlock
 62
     0
 48
50.0
100
AcDbPoint
 10
1332.662301917393
 20
9286.740388709375
 30
0.0
  0
ENDBLK
  5
12419
330
1186E
100
AcDbEntity
  8
0
 48
50.0
100
AcDbBlockEnd
  0
BLOCK
  5
12424
330
1187B
100
AcDbEntity
  8
0
 48
50.0
100
AcDbBlockBegin
  2
*D3
 70
     1
 10
0.0
 20
0.0
 30
0.0
  3
*D3
  1

  0
LINE
  5
12425
330
1187B
100
AcDbEntity
  8
0
  6
ByBlock
 62
     0
 48
50.0
100
AcDbLine
 10
1705.156574488159
 20
7636.740388709377
 30
0.0
 11
1272.662301917393
 21
7636.740388709377
 31
0.0
  0
LINE
  5
12426
330
1187B
100
AcDbEntity
  8
0
  6
ByBlock
 62
     0
 48
50.0
100
AcDbLine
 10
1332.662301917393
 20
9286.740388709375
 30
0.0
 11
1332.662301917393
 21
7636.740388709377
 31
0.0
  0
INSERT
  5
12427
330
1187B
100
AcDbEntity
  8
0
  6
ByBlock
 62
     0
 48
50.0
100
AcDbBlockReference
  2
_DOTSMALL
 10
1332.662301917393
 20
9286.740388709375
 30
0.0
 41
100.0
 42
100.0
 43
100.0
 50
90.0
  0
INSERT
  5
12428
330
1187B
100
AcDbEntity
  8
0
  6
ByBlock
 62
     0
 48
50.0
100
AcDbBlockReference
  2
_DOTSMALL
 10
1332.662301917393
 20
7636.740388709377
 30
0.0
 41
100.0
 42
100.0
 43
100.0
 50
270.0
  0
MTEXT
  5
12429
330
1187B
100
AcDbEntity
  8
0
  6
ByBlock
 62
     7
 48
50.0
100
AcDbMText
 10
1232.662301917393
 20
8461.740388709376
 30
0.0
 40
120.0
 41
0.0
 71
     5
 72
     1
  1
\A1;1650
  7
STYLE1
 11
0.0000000000000001
 21
1.0
 31
0.0
 73
     1
 44
1.0
1001
ACAD
1000
MTEXTBEGIN
1070
    73
1070
     1
1070
    44
1040
1.0
1070
    74
1070
     0
1000
MTEXTEND
  0
POINT
  5
1242A
330
1187B
100
AcDbEntity
  8
DEFPOINTS
  6
ByBlock
 62
     0
 48
50.0
100
AcDbPoint
 10
1725.156574488159
 20
9286.740388709375
 30
0.0
  0
POINT
  5
1242B
330
1187B
100
AcDbEntity
  8
DEFPOINTS
  6
ByBlock
 62
     0
 48
50.0
100
AcDbPoint
 10
1725.156574488159
 20
7636.740388709377
 30
0.0
  0
POINT
  5
1242C
330
1187B
100
AcDbEntity
  8
DEFPOINTS
  6
ByBlock
 62
     0
 48
50.0
100
AcDbPoint
 10
1332.662301917393
 20
7636.740388709377
 30
0.0
  0
ENDBLK
  5
1242D
330
1187B
100
AcDbEntity
  8
0
 48
50.0
100
AcDbBlockEnd
  0
BLOCK
  5
1244C
330
11887
100
AcDbEntity
  8
0
 48
50.0
100
AcDbBlockBegin
  2
*D4
 70
     1
 10
0.0
 20
0.0
 30
0.0
  3
*D4
  1

  0
LINE
  5
1244D
330
11887
100
AcDbEntity
  8
0
  6
ByBlock
 62
     0
 48
50.0
100
AcDbLine
 10
1705.156574488159
 20
5986.740388709378
 30
0.0
 11
1272.662301917393
 21
5986.740388709378
 31
0.0
  0
LINE
  5
1244E
330
11887
100
AcDbEntity
  8
0
  6
ByBlock
 62
     0
 48
50.0
100
AcDbLine
 10
1332.662301917393
 20
7636.740388709377
 30
0.0
 11
1332.662301917393
 21
5986.740388709378
 31
0.0
  0
INSERT
  5
1244F
330
11887
100
AcDbEntity
  8
0
  6
ByBlock
 62
     0
 48
50.0
100
AcDbBlockReference
  2
_DOTSMALL
 10
1332.662301917393
 20
7636.740388709377
 30
0.0
 41
100.0
 42
100.0
 43
100.0
 50
90.0
  0
INSERT
  5
12450
330
11887
100
AcDbEntity
  8
0
  6
ByBlock
 62
     0
 48
50.0
100
AcDbBlockReference
  2
_DOTSMALL
 10
1332.662301917393
 20
5986.740388709378
 30
0.0
 41
100.0
 42
100.0
 43
100.0
 50
270.0
  0
MTEXT
  5
12451
330
11887
100
AcDbEntity
  8
0
  6
ByBlock
 62
     7
 48
50.0
100
AcDbMText
 10
1232.662301917393
 20
6811.740388709377
 30
0.0
 40
120.0
 41
0.0
 71
     5
 72
     1
  1
\A1;1650
  7
STYLE1
 11
0.0000000000000001
 21
1.0
 31
0.0
 73
     1
 44
1.0
1001
ACAD
1000
MTEXTBEGIN
1070
    73
1070
     1
1070
    44
1040
1.0
1070
    74
1070
     0
1000
MTEXTEND
  0
POINT
  5
12452
330
11887
100
AcDbEntity
  8
DEFPOINTS
  6
ByBlock
 62
     0
 48
50.0
100
AcDbPoint
 10
1725.156574488159
 20
7636.740388709377
 30
0.0
  0
POINT
  5
12453
330
11887
100
AcDbEntity
  8
DEFPOINTS
  6
ByBlock
 62
     0
 48
50.0
100
AcDbPoint
 10
1725.156574488159
 20
5986.740388709378
 30
0.0
  0
POINT
  5
12454
330
11887
100
AcDbEntity
  8
DEFPOINTS
  6
ByBlock
 62
     0
 48
50.0
100
AcDbPoint
 10
1332.662301917393
 20
5986.740388709378
 30
0.0
  0
ENDBLK
  5
12455
330
11887
100
AcDbEntity
  8
0
 48
50.0
100
AcDbBlockEnd
  0
BLOCK
  5
12442
330
11893
100
AcDbEntity
  8
0
 48
50.0
100
AcDbBlockBegin
  2
*D5
 70
     1
 10
0.0
 20
0.0
 30
0.0
  3
*D5
  1

  0
LINE
  5
12443
330
11893
100
AcDbEntity
  8
0
  6
ByBlock
 62
     0
 48
50.0
100
AcDbLine
 10
1755.156574488159
 20
5066.740388709376
 30
0.0
 11
1272.662301917393
 21
5066.740388709376
 31
0.0
  0
LINE
  5
12444
330
11893
100
AcDbEntity
  8
0
  6
ByBlock
 62
     0
 48
50.0
100
AcDbLine
 10
1332.662301917393
 20
5986.740388709378
 30
0.0
 11
1332.662301917393
 21
5066.740388709376
 31
0.0
  0
INSERT
  5
12445
330
11893
100
AcDbEntity
  8
0
  6
ByBlock
 62
     0
 48
50.0
100
AcDbBlockReference
  2
_DOTSMALL
 10
1332.662301917393
 20
5986.740388709378
 30
0.0
 41
100.0
 42
100.0
 43
100.0
 50
90.0
  0
INSERT
  5
12446
330
11893
100
AcDbEntity
  8
0
  6
ByBlock
 62
     0
 48
50.0
100
AcDbBlockReference
  2
_DOTSMALL
 10
1332.662301917393
 20
5066.740388709376
 30
0.0
 41
100.0
 42
100.0
 43
100.0
 50
270.0
  0
MTEXT
  5
12447
330
11893
100
AcDbEntity
  8
0
  6
ByBlock
 62
     7
 48
50.0
100
AcDbMText
 10
1232.621489352589
 20
5526.740388709377
 30
0.0
 40
120.0
 41
0.0
 71
     5
 72
     1
  1
\A1;920
  7
STYLE1
 11
0.0000000000000001
 21
1.0
 31
0.0
 73
     1
 44
1.0
1001
ACAD
1000
MTEXTBEGIN
1070
    73
1070
     1
1070
    44
1040
1.0
1070
    74
1070
     0
1000
MTEXTEND
  0
POINT
  5
12448
330
11893
100
AcDbEntity
  8
DEFPOINTS
  6
ByBlock
 62
     0
 48
50.0
100
AcDbPoint
 10
1725.156574488159
 20
5986.740388709378
 30
0.0
  0
POINT
  5
12449
330
11893
100
AcDbEntity
  8
DEFPOINTS
  6
ByBlock
 62
     0
 48
50.0
100
AcDbPoint
 10
1775.156574488159
 20
5066.740388709376
 30
0.0
  0
POINT
  5
1244A
330
11893
100
AcDbEntity
  8
DEFPOINTS
  6
ByBlock
 62
     0
 48
50.0
100
AcDbPoint
 10
1332.662301917393
 20
5066.740388709376
 30
0.0
  0
ENDBLK
  5
1244B
330
11893
100
AcDbEntity
  8
0
 48
50.0
100
AcDbBlockEnd
  0
BLOCK
  5
1227B
330
1189F
100
AcDbEntity
  8
0
 48
50.0
100
AcDbBlockBegin
  2
*D6
 70
     1
 10
0.0
 20
0.0
 30
0.0
  3
*D6
  1

  0
LINE
  5
1227C
330
1189F
100
AcDbEntity
  8
0
  6
ByBlock
 62
     0
 48
50.0
100
AcDbLine
 10
1755.156574488159
 20
10206.74038870937
 30
0.0
 11
827.1714181898571
 21
10206.74038870937
 31
0.0
  0
LINE
  5
1227D
330
1189F
100
AcDbEntity
  8
0
  6
ByBlock
 62
     0
 48
50.0
100
AcDbLine
 10
1755.156574488159
 20
5066.740388709376
 30
0.0
 11
827.171418189857
 21
5066.740388709376
 31
0.0
  0
LINE
  5
1227E
330
1189F
100
AcDbEntity
  8
0
  6
ByBlock
 62
     0
 48
50.0
100
AcDbLine
 10
887.1714181898571
 20
10206.74038870937
 30
0.0
 11
887.1714181898569
 21
5066.740388709376
 31
0.0
  0
INSERT
  5
1227F
330
1189F
100
AcDbEntity
  8
0
  6
ByBlock
 62
     0
 48
50.0
100
AcDbBlockReference
  2
_DOTSMALL
 10
887.1714181898571
 20
10206.74038870937
 30
0.0
 41
100.0
 42
100.0
 43
100.0
 50
90.0
  0
INSERT
  5
12280
330
1189F
100
AcDbEntity
  8
0
  6
ByBlock
 62
     0
 48
50.0
100
AcDbBlockReference
  2
_DOTSMALL
 10
887.1714181898569
 20
5066.740388709376
 30
0.0
 41
100.0
 42
100.0
 43
100.0
 50
270.0
  0
MTEXT
  5
12281
330
1189F
100
AcDbEntity
  8
0
  6
ByBlock
 62
     7
 48
50.0
100
AcDbMText
 10
787.171418189857
 20
7636.740388709377
 30
0.0
 40
120.0
 41
0.0
 71
     5
 72
     1
  1
\A1;基礎寸法 5140
  7
STYLE1
 11
0.0000000000000001
 21
1.0
 31
0.0
 73
     1
 44
1.0
1001
ACAD
1000
MTEXTBEGIN
1070
    73
1070
     1
1070
    44
1040
1.0
1070
    74
1070
     0
1000
MTEXTEND
  0
POINT
  5
12282
330
1189F
100
AcDbEntity
  8
DEFPOINTS
  6
ByBlock
 62
     0
 48
50.0
100
AcDbPoint
 10
1775.156574488159
 20
10206.74038870937
 30
0.0
  0
POINT
  5
12283
330
1189F
100
AcDbEntity
  8
DEFPOINTS
  6
ByBlock
 62
     0
 48
50.0
100
AcDbPoint
 10
1775.156574488159
 20
5066.740388709376
 30
0.0
  0
POINT
  5
12284
330
1189F
100
AcDbEntity
  8
DEFPOINTS
  6
ByBlock
 62
     0
 48
50.0
100
AcDbPoint
 10
887.1714181898569
 20
5066.740388709376
 30
0.0
  0
ENDBLK
  5
12285
330
1189F
100
AcDbEntity
  8
0
 48
50.0
100
AcDbBlockEnd
  0
BLOCK
  5
12C1B
330
118AC
100
AcDbEntity
  8
0
 48
50.0
100
AcDbBlockBegin
  2
*D7
 70
     1
 10
0.0
 20
0.0
 30
0.0
  3
*D7
  1

  0
LINE
  5
12C1C
330
118AC
100
AcDbEntity
  8
0
  6
ByBlock
 62
     0
 48
50.0
100
AcDbLine
 10
6733.600000000002
 20
7956.740388709376
 30
0.0
 11
6733.600000000002
 21
8200.635297426982
 31
0.0
  0
LINE
  5
12C1D
330
118AC
100
AcDbEntity
  8
0
  6
ByBlock
 62
     0
 48
50.0
100
AcDbLine
 10
7333.600000000003
 20
7956.740388709376
 30
0.0
 11
7333.600000000003
 21
8200.635297426982
 31
0.0
  0
LINE
  5
12C1E
330
118AC
100
AcDbEntity
  8
0
  6
ByBlock
 62
     0
 48
50.0
100
AcDbLine
 10
6733.600000000002
 20
8140.635297426983
 30
0.0
 11
7333.600000000003
 21
8140.635297426983
 31
0.0
  0
INSERT
  5
12C1F
330
118AC
100
AcDbEntity
  8
0
  6
ByBlock
 62
     0
 48
50.0
100
AcDbBlockReference
  2
_DOTSMALL
 10
6733.600000000002
 20
8140.635297426983
 30
0.0
 41
100.0
 42
100.0
 43
100.0
 50
180.0
  0
INSERT
  5
12C20
330
118AC
100
AcDbEntity
  8
0
  6
ByBlock
 62
     0
 48
50.0
100
AcDbBlockReference
  2
_DOTSMALL
 10
7333.600000000003
 20
8140.635297426983
 30
0.0
 41
100.0
 42
100.0
 43
100.0
  0
MTEXT
  5
12C21
330
118AC
100
AcDbEntity
  8
0
  6
ByBlock
 62
     7
 48
50.0
100
AcDbMText
 10
7033.600000000003
 20
8240.635297426983
 30
0.0
 40
120.0
 41
0.0
 71
     5
 72
     1
  1
\A1;600
  7
STYLE1
 73
     1
 44
1.0
1001
ACAD
1000
MTEXTBEGIN
1070
    73
1070
     1
1070
    44
1040
1.0
1070
    74
1070
     0
1000
MTEXTEND
  0
POINT
  5
12C22
330
118AC
100
AcDbEntity
  8
DEFPOINTS
  6
ByBlock
 62
     0
 48
50.0
100
AcDbPoint
 10
6733.600000000002
 20
7936.740388709376
 30
0.0
  0
POINT
  5
12C23
330
118AC
100
AcDbEntity
  8
DEFPOINTS
  6
ByBlock
 62
     0
 48
50.0
100
AcDbPoint
 10
7333.600000000003
 20
7936.740388709376
 30
0.0
  0
POINT
  5
12C24
330
118AC
100
AcDbEntity
  8
DEFPOINTS
  6
ByBlock
 62
     0
 48
50.0
100
AcDbPoint
 10
7333.600000000003
 20
8140.635297426983
 30
0.0
  0
ENDBLK
  5
12C25
330
118AC
100
AcDbEntity
  8
0
 48
50.0
100
AcDbBlockEnd
  0
BLOCK
  5
12C31
330
118B9
100
AcDbEntity
  8
0
 48
50.0
100
AcDbBlockBegin
  2
*D8
 70
     1
 10
0.0
 20
0.0
 30
0.0
  3
*D8
  1

  0
LINE
  5
12C32
330
118B9
100
AcDbEntity
  8
0
  6
ByBlock
 62
     0
 48
50.0
100
AcDbLine
 10
7353.600000000003
 20
7936.740388709376
 30
0.0
 11
7667.46165700339
 21
7936.740388709376
 31
0.0
  0
LINE
  5
12C33
330
118B9
100
AcDbEntity
  8
0
  6
ByBlock
 62
     0
 48
50.0
100
AcDbLine
 10
7353.600000000003
 20
7336.740388709376
 30
0.0
 11
7667.461657003389
 21
7336.740388709376
 31
0.0
  0
LINE
  5
12C34
330
118B9
100
AcDbEntity
  8
0
  6
ByBlock
 62
     0
 48
50.0
100
AcDbLine
 10
7607.461657003391
 20
7936.740388709376
 30
0.0
 11
7607.46165700339
 21
7336.740388709376
 31
0.0
  0
INSERT
  5
12C35
330
118B9
100
AcDbEntity
  8
0
  6
ByBlock
 62
     0
 48
50.0
100
AcDbBlockReference
  2
_DOTSMALL
 10
7607.461657003391
 20
7936.740388709376
 30
0.0
 41
100.0
 42
100.0
 43
100.0
 50
90.0
  0
INSERT
  5
12C36
330
118B9
100
AcDbEntity
  8
0
  6
ByBlock
 62
     0
 48
50.0
100
AcDbBlockReference
  2
_DOTSMALL
 10
7607.46165700339
 20
7336.740388709376
 30
0.0
 41
100.0
 42
100.0
 43
100.0
 50
270.0
  0
MTEXT
  5
12C37
330
118B9
100
AcDbEntity
  8
0
  6
ByBlock
 62
     7
 48
50.0
100
AcDbMText
 10
7507.461657003391
 20
7636.740388709376
 30
0.0
 40
120.0
 41
0.0
 71
     5
 72
     1
  1
\A1;600
  7
STYLE1
 11
0.0000000000000001
 21
1.0
 31
0.0
 73
     1
 44
1.0
1001
ACAD
1000
MTEXTBEGIN
1070
    73
1070
     1
1070
    44
1040
1.0
1070
    74
1070
     0
1000
MTEXTEND
  0
POINT
  5
12C38
330
118B9
100
AcDbEntity
  8
DEFPOINTS
  6
ByBlock
 62
     0
 48
50.0
100
AcDbPoint
 10
7333.600000000003
 20
7936.740388709376
 30
0.0
  0
POINT
  5
12C39
330
118B9
100
AcDbEntity
  8
DEFPOINTS
  6
ByBlock
 62
     0
 48
50.0
100
AcDbPoint
 10
7333.600000000003
 20
7336.740388709376
 30
0.0
  0
POINT
  5
12C3A
330
118B9
100
AcDbEntity
  8
DEFPOINTS
  6
ByBlock
 62
     0
 48
50.0
100
AcDbPoint
 10
7607.46165700339
 20
7336.740388709376
 30
0.0
  0
ENDBLK
  5
12C3B
330
118B9
100
AcDbEntity
  8
0
 48
50.0
100
AcDbBlockEnd
  0
BLOCK
  5
120D8
330
118D1
100
AcDbEntity
  8
0
 48
50.0
100
AcDbBlockBegin
  2
*D9
 70
     1
 10
0.0
 20
0.0
 30
0.0
  3
*D9
  1

  0
LINE
  5
120D9
330
118D1
100
AcDbEntity
  8
0
  6
ByBlock
 62
     0
 48
50.0
100
AcDbLine
 10
1775.156574488159
 20
5046.740388709377
 30
0.0
 11
1775.156574488159
 21
4639.427037335172
 31
0.0
  0
LINE
  5
120DA
330
118D1
100
AcDbEntity
  8
0
  6
ByBlock
 62
     0
 48
50.0
100
AcDbLine
 10
1975.156574488159
 20
5716.740388709377
 30
0.0
 11
1975.156574488159
 21
4639.427037335172
 31
0.0
  0
LINE
  5
120DB
330
118D1
100
AcDbEntity
  8
0
  6
ByBlock
 62
     0
 48
50.0
100
AcDbLine
 10
1975.156574488159
 20
4699.427037335172
 30
0.0
 11
1775.156574488159
 21
4699.427037335172
 31
0.0
  0
LINE
  5
120DC
330
118D1
100
AcDbEntity
  8
0
  6
ByBlock
 62
     0
 48
50.0
100
AcDbLine
 10
1775.156574488159
 20
4699.427037335172
 30
0.0
 11
1376.014842204694
 21
4699.427037335172
 31
0.0
  0
INSERT
  5
120DD
330
118D1
100
AcDbEntity
  8
0
  6
ByBlock
 62
     0
 48
50.0
100
AcDbBlockReference
  2
_DOTSMALL
 10
1975.156574488159
 20
4699.427037335172
 30
0.0
 41
100.0
 42
100.0
 43
100.0
  0
INSERT
  5
120DE
330
118D1
100
AcDbEntity
  8
0
  6
ByBlock
 62
     0
 48
50.0
100
AcDbBlockReference
  2
_DOTSMALL
 10
1775.156574488159
 20
4699.427037335172
 30
0.0
 41
100.0
 42
100.0
 43
100.0
 50
180.0
  0
MTEXT
  5
120DF
330
118D1
100
AcDbEntity
  8
0
  6
ByBlock
 62
     7
 48
50.0
100
AcDbMText
 10
1525.585708346427
 20
4799.438848358794
 30
0.0
 40
120.0
 41
0.0
 71
     5
 72
     1
  1
\A1;200
  7
STYLE1
 73
     1
 44
1.0
1001
ACAD
1000
MTEXTBEGIN
1070
    73
1070
     1
1070
    44
1040
1.0
1070
    74
1070
     0
1000
MTEXTEND
  0
POINT
  5
120E0
330
118D1
100
AcDbEntity
  8
DEFPOINTS
  6
ByBlock
 62
     0
 48
50.0
100
AcDbPoint
 10
1775.156574488159
 20
5066.740388709376
 30
0.0
  0
POINT
  5
120E1
330
118D1
100
AcDbEntity
  8
DEFPOINTS
  6
ByBlock
 62
     0
 48
50.0
100
AcDbPoint
 10
1975.156574488159
 20
5736.740388709377
 30
0.0
  0
POINT
  5
120E2
330
118D1
100
AcDbEntity
  8
DEFPOINTS
  6
ByBlock
 62
     0
 48
50.0
100
AcDbPoint
 10
1975.156574488159
 20
4699.427037335172
 30
0.0
  0
ENDBLK
  5
120E3
330
118D1
100
AcDbEntity
  8
0
 48
50.0
100
AcDbBlockEnd
  0
BLOCK
  5
12C79
330
118DB
100
AcDbEntity
  8
0
 48
50.0
100
AcDbBlockBegin
  2
*D10
 70
     1
 10
0.0
 20
0.0
 30
0.0
  3
*D10
  1

  0
LINE
  5
12C7A
330
118DB
100
AcDbEntity
  8
0
  6
ByBlock
 62
     0
 48
50.0
100
AcDbLine
 10
9833.600000000004
 20
5716.740388709378
 30
0.0
 11
9833.600000000004
 21
4639.427037335172
 31
0.0
  0
LINE
  5
12C7B
330
118DB
100
AcDbEntity
  8
0
  6
ByBlock
 62
     0
 48
50.0
100
AcDbLine
 10
7033.600000000004
 20
4699.427037335172
 30
0.0
 11
9833.600000000004
 21
4699.427037335172
 31
0.0
  0
INSERT
  5
12C7C
330
118DB
100
AcDbEntity
  8
0
  6
ByBlock
 62
     0
 48
50.0
100
AcDbBlockReference
  2
_DOTSMALL
 10
7033.600000000004
 20
4699.427037335172
 30
0.0
 41
100.0
 42
100.0
 43
100.0
 50
180.0
  0
INSERT
  5
12C7D
330
118DB
100
AcDbEntity
  8
0
  6
ByBlock
 62
     0
 48
50.0
100
AcDbBlockReference
  2
_DOTSMALL
 10
9833.600000000004
 20
4699.427037335172
 30
0.0
 41
100.0
 42
100.0
 43
100.0
  0
MTEXT
  5
12C7E
330
118DB
100
AcDbEntity
  8
0
  6
ByBlock
 62
     7
 48
50.0
100
AcDbMText
 10
8433.600000000003
 20
4799.438848358794
 30
0.0
 40
120.0
 41
0.0
 71
     5
 72
     1
  1
\A1;2800
  7
STYLE1
 73
     1
 44
1.0
1001
ACAD
1000
MTEXTBEGIN
1070
    73
1070
     1
1070
    44
1040
1.0
1070
    74
1070
     0
1000
MTEXTEND
  0
POINT
  5
12C7F
330
118DB
100
AcDbEntity
  8
DEFPOINTS
  6
ByBlock
 62
     0
 48
50.0
100
AcDbPoint
 10
7033.600000000004
 20
5736.740388709377
 30
0.0
  0
POINT
  5
12C80
330
118DB
100
AcDbEntity
  8
DEFPOINTS
  6
ByBlock
 62
     0
 48
50.0
100
AcDbPoint
 10
9833.600000000004
 20
5736.740388709378
 30
0.0
  0
POINT
  5
12C81
330
118DB
100
AcDbEntity
  8
DEFPOINTS
  6
ByBlock
 62
     0
 48
50.0
100
AcDbPoint
 10
9833.600000000004
 20
4699.427037335172
 30
0.0
  0
ENDBLK
  5
12C82
330
118DB
100
AcDbEntity
  8
0
 48
50.0
100
AcDbBlockEnd
  0
BLOCK
  5
120EE
330
11906
100
AcDbEntity
  8
0
 48
50.0
100
AcDbBlockBegin
  2
*D11
 70
     1
 10
0.0
 20
0.0
 30
0.0
  3
*D11
  1

  0
LINE
  5
120EF
330
11906
100
AcDbEntity
  8
0
  6
ByBlock
 62
     0
 48
50.0
100
AcDbLine
 10
4355.156574488159
 20
5716.740388709378
 30
0.0
 11
4355.156574488159
 21
4640.024272680078
 31
0.0
  0
LINE
  5
120F0
330
11906
100
AcDbEntity
  8
0
  6
ByBlock
 62
     0
 48
50.0
100
AcDbLine
 10
4555.156574488159
 20
5046.740388709377
 30
0.0
 11
4555.156574488159
 21
4640.024272680078
 31
0.0
  0
LINE
  5
120F1
330
11906
100
AcDbEntity
  8
0
  6
ByBlock
 62
     0
 48
50.0
100
AcDbLine
 10
4355.156574488159
 20
4700.024272680079
 30
0.0
 11
4555.156574488159
 21
4700.024272680079
 31
0.0
  0
LINE
  5
120F2
330
11906
100
AcDbEntity
  8
0
  6
ByBlock
 62
     0
 48
50.0
100
AcDbLine
 10
4555.156574488159
 20
4700.024272680079
 30
0.0
 11
4954.298306771623
 21
4700.024272680079
 31
0.0
  0
INSERT
  5
120F3
330
11906
100
AcDbEntity
  8
0
  6
ByBlock
 62
     0
 48
50.0
100
AcDbBlockReference
  2
_DOTSMALL
 10
4355.156574488159
 20
4700.024272680079
 30
0.0
 41
100.0
 42
100.0
 43
100.0
 50
180.0
  0
INSERT
  5
120F4
330
11906
100
AcDbEntity
  8
0
  6
ByBlock
 62
     0
 48
50.0
100
AcDbBlockReference
  2
_DOTSMALL
 10
4555.156574488159
 20
4700.024272680079
 30
0.0
 41
100.0
 42
100.0
 43
100.0
  0
MTEXT
  5
120F5
330
11906
100
AcDbEntity
  8
0
  6
ByBlock
 62
     7
 48
50.0
100
AcDbMText
 10
4804.727440629891
 20
4800.036083703701
 30
0.0
 40
120.0
 41
0.0
 71
     5
 72
     1
  1
\A1;200
  7
STYLE1
 73
     1
 44
1.0
1001
ACAD
1000
MTEXTBEGIN
1070
    73
1070
     1
1070
    44
1040
1.0
1070
    74
1070
     0
1000
MTEXTEND
  0
POINT
  5
120F6
330
11906
100
AcDbEntity
  8
DEFPOINTS
  6
ByBlock
 62
     0
 48
50.0
100
AcDbPoint
 10
4355.156574488159
 20
5736.740388709378
 30
0.0
  0
POINT
  5
120F7
330
11906
100
AcDbEntity
  8
DEFPOINTS
  6
ByBlock
 62
     0
 48
50.0
100
AcDbPoint
 10
4555.156574488159
 20
5066.740388709376
 30
0.0
  0
POINT
  5
120F8
330
11906
100
AcDbEntity
  8
DEFPOINTS
  6
ByBlock
 62
     0
 48
50.0
100
AcDbPoint
 10
4555.156574488159
 20
4700.024272680079
 30
0.0
  0
ENDBLK
  5
120F9
330
11906
100
AcDbEntity
  8
0
 48
50.0
100
AcDbBlockEnd
  0
BLOCK
  5
12C6E
330
11928
100
AcDbEntity
  8
0
 48
50.0
100
AcDbBlockBegin
  2
*D12
 70
     1
 10
0.0
 20
0.0
 30
0.0
  3
*D12
  1

  0
LINE
  5
12C6F
330
11928
100
AcDbEntity
  8
0
  6
ByBlock
 62
     0
 48
50.0
100
AcDbLine
 10
6833.600000000004
 20
5046.740388709377
 30
0.0
 11
6833.600000000004
 21
4275.453801511459
 31
0.0
  0
LINE
  5
12C70
330
11928
100
AcDbEntity
  8
0
  6
ByBlock
 62
     0
 48
50.0
100
AcDbLine
 10
10033.6
 20
5046.740388709378
 30
0.0
 11
10033.6
 21
4275.453801511459
 31
0.0
  0
LINE
  5
12C71
330
11928
100
AcDbEntity
  8
0
  6
ByBlock
 62
     0
 48
50.0
100
AcDbLine
 10
6833.600000000004
 20
4335.453801511459
 30
0.0
 11
10033.6
 21
4335.453801511459
 31
0.0
  0
INSERT
  5
12C72
330
11928
100
AcDbEntity
  8
0
  6
ByBlock
 62
     0
 48
50.0
100
AcDbBlockReference
  2
_DOTSMALL
 10
6833.600000000004
 20
4335.453801511459
 30
0.0
 41
100.0
 42
100.0
 43
100.0
 50
180.0
  0
INSERT
  5
12C73
330
11928
100
AcDbEntity
  8
0
  6
ByBlock
 62
     0
 48
50.0
100
AcDbBlockReference
  2
_DOTSMALL
 10
10033.6
 20
4335.453801511459
 30
0.0
 41
100.0
 42
100.0
 43
100.0
  0
MTEXT
  5
12C74
330
11928
100
AcDbEntity
  8
0
  6
ByBlock
 62
     7
 48
50.0
100
AcDbMText
 10
8433.600000000003
 20
4435.465612535081
 30
0.0
 40
120.0
 41
0.0
 71
     5
 72
     1
  1
\A1;基礎寸法 3200
  7
STYLE1
 73
     1
 44
1.0
1001
ACAD
1000
MTEXTBEGIN
1070
    73
1070
     1
1070
    44
1040
1.0
1070
    74
1070
     0
1000
MTEXTEND
  0
POINT
  5
12C75
330
11928
100
AcDbEntity
  8
DEFPOINTS
  6
ByBlock
 62
     0
 48
50.0
100
AcDbPoint
 10
6833.600000000004
 20
5066.740388709376
 30
0.0
  0
POINT
  5
12C76
330
11928
100
AcDbEntity
  8
DEFPOINTS
  6
ByBlock
 62
     0
 48
50.0
100
AcDbPoint
 10
10033.6
 20
5066.740388709377
 30
0.0
  0
POINT
  5
12C77
330
11928
100
AcDbEntity
  8
DEFPOINTS
  6
ByBlock
 62
     0
 48
50.0
100
AcDbPoint
 10
10033.6
 20
4335.453801511459
 30
0.0
  0
ENDBLK
  5
12C78
330
11928
100
AcDbEntity
  8
0
 48
50.0
100
AcDbBlockEnd
  0
BLOCK
  5
121E3
330
121CB
100
AcDbEntity
  8
0
 48
50.0
100
AcDbBlockBegin
  2
*D13
 70
     1
 10
0.0
 20
0.0
 30
0.0
  3
*D13
  1

  0
LINE
  5
121E4
330
121CB
100
AcDbEntity
  8
0
  6
ByBlock
 62
     0
 48
50.0
100
AcDbLine
 10
4625.156574488157
 20
10036.74038870938
 30
0.0
 11
5433.443952340544
 21
10036.74038870938
 31
0.0
  0
LINE
  5
121E5
330
121CB
100
AcDbEntity
  8
0
  6
ByBlock
 62
     0
 48
50.0
100
AcDbLine
 10
4625.156574488155
 20
5236.740388709375
 30
0.0
 11
5433.443952340543
 21
5236.740388709375
 31
0.0
  0
LINE
  5
121E6
330
121CB
100
AcDbEntity
  8
0
  6
ByBlock
 62
     0
 48
50.0
100
AcDbLine
 10
5373.443952340545
 20
10036.74038870938
 30
0.0
 11
5373.443952340544
 21
5236.740388709375
 31
0.0
  0
INSERT
  5
121E7
330
121CB
100
AcDbEntity
  8
0
  6
ByBlock
 62
     0
 48
50.0
100
AcDbBlockReference
  2
_DOTSMALL
 10
5373.443952340545
 20
10036.74038870938
 30
0.0
 41
100.0
 42
100.0
 43
100.0
 50
90.0
  0
INSERT
  5
121E8
330
121CB
100
AcDbEntity
  8
0
  6
ByBlock
 62
     0
 48
50.0
100
AcDbBlockReference
  2
_DOTSMALL
 10
5373.443952340544
 20
5236.740388709375
 30
0.0
 41
100.0
 42
100.0
 43
100.0
 50
270.0
  0
MTEXT
  5
121E9
330
121CB
100
AcDbEntity
  8
0
  6
ByBlock
 62
     7
 48
50.0
100
AcDbMText
 10
5273.443952340545
 20
7636.740388709377
 30
0.0
 40
120.0
 41
0.0
 71
     5
 72
     1
  1
\A1;屋根寸法 4800
  7
STYLE1
 11
0.0000000000000001
 21
1.0
 31
0.0
 73
     1
 44
1.0
1001
ACAD
1000
MTEXTBEGIN
1070
    73
1070
     1
1070
    44
1040
1.0
1070
    74
1070
     0
1000
MTEXTEND
  0
POINT
  5
121EA
330
121CB
100
AcDbEntity
  8
DEFPOINTS
  6
ByBlock
 62
     0
 48
50.0
100
AcDbPoint
 10
4605.156574488157
 20
10036.74038870938
 30
0.0
  0
POINT
  5
121EB
330
121CB
100
AcDbEntity
  8
DEFPOINTS
  6
ByBlock
 62
     0
 48
50.0
100
AcDbPoint
 10
4605.156574488155
 20
5236.740388709375
 30
0.0
  0
POINT
  5
121EC
330
121CB
100
AcDbEntity
  8
DEFPOINTS
  6
ByBlock
 62
     0
 48
50.0
100
AcDbPoint
 10
5373.443952340544
 20
5236.740388709375
 30
0.0
  0
ENDBLK
  5
121ED
330
121CB
100
AcDbEntity
  8
0
 48
50.0
100
AcDbBlockEnd
  0
BLOCK
  5
121D8
330
121D7
100
AcDbEntity
  8
0
 48
50.0
100
AcDbBlockBegin
  2
*D14
 70
     1
 10
0.0
 20
0.0
 30
0.0
  3
*D14
  1

  0
LINE
  5
121D9
330
121D7
100
AcDbEntity
  8
0
  6
ByBlock
 62
     0
 48
50.0
100
AcDbLine
 10
4446.818983031596
 20
13496.09363307662
 30
0.0
 11
4955.998491766223
 21
13496.09363307662
 31
0.0
  0
LINE
  5
121DA
330
121D7
100
AcDbEntity
  8
0
  6
ByBlock
 62
     0
 48
50.0
100
AcDbLine
 10
4446.818983031596
 20
12746.09363307661
 30
0.0
 11
4955.998491766223
 21
12746.09363307661
 31
0.0
  0
LINE
  5
121DB
330
121D7
100
AcDbEntity
  8
0
  6
ByBlock
 62
     0
 48
50.0
100
AcDbLine
 10
4895.998491766222
 20
13496.09363307662
 30
0.0
 11
4895.998491766222
 21
12746.09363307661
 31
0.0
  0
INSERT
  5
121DC
330
121D7
100
AcDbEntity
  8
0
  6
ByBlock
 62
     0
 48
50.0
100
AcDbBlockReference
  2
_DOTSMALL
 10
4895.998491766222
 20
13496.09363307662
 30
0.0
 41
100.0
 42
100.0
 43
100.0
 50
90.0
  0
INSERT
  5
121DD
330
121D7
100
AcDbEntity
  8
0
  6
ByBlock
 62
     0
 48
50.0
100
AcDbBlockReference
  2
_DOTSMALL
 10
4895.998491766222
 20
12746.09363307661
 30
0.0
 41
100.0
 42
100.0
 43
100.0
 50
270.0
  0
MTEXT
  5
121DE
330
121D7
100
AcDbEntity
  8
0
  6
ByBlock
 62
     7
 48
50.0
100
AcDbMText
 10
4795.998491766222
 20
13121.09363307661
 30
0.0
 40
120.0
 41
0.0
 71
     5
 72
     1
  1
\A1;750
  7
STYLE1
 11
0.0000000000000001
 21
1.0
 31
0.0
 73
     1
 44
1.0
1001
ACAD
1000
MTEXTBEGIN
1070
    73
1070
     1
1070
    44
1040
1.0
1070
    74
1070
     0
1000
MTEXTEND
  0
POINT
  5
121DF
330
121D7
100
AcDbEntity
  8
DEFPOINTS
  6
ByBlock
 62
     0
 48
50.0
100
AcDbPoint
 10
4426.818983031597
 20
13496.09363307662
 30
0.0
  0
POINT
  5
121E0
330
121D7
100
AcDbEntity
  8
DEFPOINTS
  6
ByBlock
 62
     0
 48
50.0
100
AcDbPoint
 10
4426.818983031597
 20
12746.09363307661
 30
0.0
  0
POINT
  5
121E1
330
121D7
100
AcDbEntity
  8
DEFPOINTS
  6
ByBlock
 62
     0
 48
50.0
100
AcDbPoint
 10
4895.998491766222
 20
12746.09363307661
 30
0.0
  0
ENDBLK
  5
121E2
330
121D7
100
AcDbEntity
  8
0
 48
50.0
100
AcDbBlockEnd
  0
BLOCK
  5
12C63
330
1222F
100
AcDbEntity
  8
0
 48
50.0
100
AcDbBlockBegin
  2
*D15
 70
     1
 10
0.0
 20
0.0
 30
0.0
  3
*D15
  1

  0
LINE
  5
12C64
330
1222F
100
AcDbEntity
  8
0
  6
ByBlock
 62
     0
 48
50.0
100
AcDbLine
 10
6783.599999999999
 20
10056.74038870938
 30
0.0
 11
6783.599999999999
 21
10962.80501405645
 31
0.0
  0
LINE
  5
12C65
330
1222F
100
AcDbEntity
  8
0
  6
ByBlock
 62
     0
 48
50.0
100
AcDbLine
 10
10083.6
 20
10056.74038870938
 30
0.0
 11
10083.6
 21
10962.80501405645
 31
0.0
  0
LINE
  5
12C66
330
1222F
100
AcDbEntity
  8
0
  6
ByBlock
 62
     0
 48
50.0
100
AcDbLine
 10
6783.599999999999
 20
10902.80501405645
 30
0.0
 11
10083.6
 21
10902.80501405645
 31
0.0
  0
INSERT
  5
12C67
330
1222F
100
AcDbEntity
  8
0
  6
ByBlock
 62
     0
 48
50.0
100
AcDbBlockReference
  2
_DOTSMALL
 10
6783.599999999999
 20
10902.80501405645
 30
0.0
 41
100.0
 42
100.0
 43
100.0
 50
180.0
  0
INSERT
  5
12C68
330
1222F
100
AcDbEntity
  8
0
  6
ByBlock
 62
     0
 48
50.0
100
AcDbBlockReference
  2
_DOTSMALL
 10
10083.6
 20
10902.80501405645
 30
0.0
 41
100.0
 42
100.0
 43
100.0
  0
MTEXT
  5
12C69
330
1222F
100
AcDbEntity
  8
0
  6
ByBlock
 62
     7
 48
50.0
100
AcDbMText
 10
8433.600000000003
 20
11002.80501405645
 30
0.0
 40
120.0
 41
0.0
 71
     5
 72
     1
  1
\A1;屋根寸法 3300
  7
STYLE1
 73
     1
 44
1.0
1001
ACAD
1000
MTEXTBEGIN
1070
    73
1070
     1
1070
    44
1040
1.0
1070
    74
1070
     0
1000
MTEXTEND
  0
POINT
  5
12C6A
330
1222F
100
AcDbEntity
  8
DEFPOINTS
  6
ByBlock
 62
     0
 48
50.0
100
AcDbPoint
 10
6783.599999999999
 20
10036.74038870938
 30
0.0
  0
POINT
  5
12C6B
330
1222F
100
AcDbEntity
  8
DEFPOINTS
  6
ByBlock
 62
     0
 48
50.0
100
AcDbPoint
 10
10083.6
 20
10036.74038870938
 30
0.0
  0
POINT
  5
12C6C
330
1222F
100
AcDbEntity
  8
DEFPOINTS
  6
ByBlock
 62
     0
 48
50.0
100
AcDbPoint
 10
10083.6
 20
10902.80501405645
 30
0.0
  0
ENDBLK
  5
12C6D
330
1222F
100
AcDbEntity
  8
0
 48
50.0
100
AcDbBlockEnd
  0
BLOCK
  5
12C54
330
1223B
100
AcDbEntity
  8
0
 48
50.0
100
AcDbBlockBegin
  2
*D16
 70
     1
 10
0.0
 20
0.0
 30
0.0
  3
*D16
  1

  0
LINE
  5
12C55
330
1223B
100
AcDbEntity
  8
0
  6
ByBlock
 62
     0
 48
50.0
100
AcDbLine
 10
9413.600000000004
 20
9556.740388709378
 30
0.0
 11
9413.600000000004
 21
10669.69661180045
 31
0.0
  0
LINE
  5
12C56
330
1223B
100
AcDbEntity
  8
0
  6
ByBlock
 62
     0
 48
50.0
100
AcDbLine
 10
9663.600000000002
 20
10056.74038870938
 30
0.0
 11
9663.600000000002
 21
10669.69661180045
 31
0.0
  0
LINE
  5
12C57
330
1223B
100
AcDbEntity
  8
0
  6
ByBlock
 62
     0
 48
50.0
100
AcDbLine
 10
9413.600000000004
 20
10609.69661180045
 30
0.0
 11
9313.600000000004
 21
10609.69661180045
 31
0.0
  0
LINE
  5
12C58
330
1223B
100
AcDbEntity
  8
0
  6
ByBlock
 62
     0
 48
50.0
100
AcDbLine
 10
9663.600000000002
 20
10609.69661180045
 30
0.0
 11
9763.600000000003
 21
10609.69661180045
 31
0.0
  0
LINE
  5
12C59
330
1223B
100
AcDbEntity
  8
0
  6
ByBlock
 62
     0
 48
50.0
100
AcDbLine
 10
9413.600000000004
 20
10609.69661180045
 30
0.0
 11
9663.600000000002
 21
10609.69661180045
 31
0.0
  0
INSERT
  5
12C5A
330
1223B
100
AcDbEntity
  8
0
  6
ByBlock
 62
     0
 48
50.0
100
AcDbBlockReference
  2
_DOTSMALL
 10
9413.600000000004
 20
10609.69661180045
 30
0.0
 41
100.0
 42
100.0
 43
100.0
  0
INSERT
  5
12C5B
330
1223B
100
AcDbEntity
  8
0
  6
ByBlock
 62
     0
 48
50.0
100
AcDbBlockReference
  2
_DOTSMALL
 10
9663.600000000002
 20
10609.69661180045
 30
0.0
 41
100.0
 42
100.0
 43
100.0
 50
180.0
  0
MTEXT
  5
12C5C
330
1223B
100
AcDbEntity
  8
0
  6
ByBlock
 62
     7
 48
50.0
100
AcDbMText
 10
9538.600000000002
 20
10709.70842282407
 30
0.0
 40
120.0
 41
0.0
 71
     5
 72
     1
  1
\A1;250
  7
STYLE1
 73
     1
 44
1.0
1001
ACAD
1000
MTEXTBEGIN
1070
    73
1070
     1
1070
    44
1040
1.0
1070
    74
1070
     0
1000
MTEXTEND
  0
POINT
  5
12C5D
330
1223B
100
AcDbEntity
  8
DEFPOINTS
  6
ByBlock
 62
     0
 48
50.0
100
AcDbPoint
 10
9413.600000000004
 20
9536.740388709379
 30
0.0
  0
POINT
  5
12C5E
330
1223B
100
AcDbEntity
  8
DEFPOINTS
  6
ByBlock
 62
     0
 48
50.0
100
AcDbPoint
 10
9663.600000000002
 20
10036.74038870938
 30
0.0
  0
POINT
  5
12C5F
330
1223B
100
AcDbEntity
  8
DEFPOINTS
  6
ByBlock
 62
     0
 48
50.0
100
AcDbPoint
 10
9663.600000000002
 20
10609.69661180045
 30
0.0
  0
ENDBLK
  5
12C60
330
1223B
100
AcDbEntity
  8
0
 48
50.0
100
AcDbBlockEnd
  0
BLOCK
  5
12C47
330
12249
100
AcDbEntity
  8
0
 48
50.0
100
AcDbBlockBegin
  2
*D17
 70
     1
 10
0.0
 20
0.0
 30
0.0
  3
*D17
  1

  0
LINE
  5
12C48
330
12249
100
AcDbEntity
  8
0
  6
ByBlock
 62
     0
 48
50.0
100
AcDbLine
 10
6783.599999999999
 20
10056.74038870938
 30
0.0
 11
6783.599999999999
 21
10669.69661180045
 31
0.0
  0
LINE
  5
12C49
330
12249
100
AcDbEntity
  8
0
  6
ByBlock
 62
     0
 48
50.0
100
AcDbLine
 10
7033.600000000004
 20
9556.740388709375
 30
0.0
 11
7033.600000000004
 21
10669.69661180045
 31
0.0
  0
LINE
  5
12C4A
330
12249
100
AcDbEntity
  8
0
  6
ByBlock
 62
     0
 48
50.0
100
AcDbLine
 10
6783.599999999999
 20
10609.69661180045
 30
0.0
 11
6683.6
 21
10609.69661180045
 31
0.0
  0
LINE
  5
12C4B
330
12249
100
AcDbEntity
  8
0
  6
ByBlock
 62
     0
 48
50.0
100
AcDbLine
 10
7033.600000000004
 20
10609.69661180045
 30
0.0
 11
7133.600000000004
 21
10609.69661180045
 31
0.0
  0
LINE
  5
12C4C
330
12249
100
AcDbEntity
  8
0
  6
ByBlock
 62
     0
 48
50.0
100
AcDbLine
 10
6783.599999999999
 20
10609.69661180045
 30
0.0
 11
7033.600000000004
 21
10609.69661180045
 31
0.0
  0
INSERT
  5
12C4D
330
12249
100
AcDbEntity
  8
0
  6
ByBlock
 62
     0
 48
50.0
100
AcDbBlockReference
  2
_DOTSMALL
 10
6783.599999999999
 20
10609.69661180045
 30
0.0
 41
100.0
 42
100.0
 43
100.0
  0
INSERT
  5
12C4E
330
12249
100
AcDbEntity
  8
0
  6
ByBlock
 62
     0
 48
50.0
100
AcDbBlockReference
  2
_DOTSMALL
 10
7033.600000000004
 20
10609.69661180045
 30
0.0
 41
100.0
 42
100.0
 43
100.0
 50
180.0
  0
MTEXT
  5
12C4F
330
12249
100
AcDbEntity
  8
0
  6
ByBlock
 62
     7
 48
50.0
100
AcDbMText
 10
6908.600000000003
 20
10709.70842282407
 30
0.0
 40
120.0
 41
0.0
 71
     5
 72
     1
  1
\A1;250
  7
STYLE1
 73
     1
 44
1.0
1001
ACAD
1000
MTEXTBEGIN
1070
    73
1070
     1
1070
    44
1040
1.0
1070
    74
1070
     0
1000
MTEXTEND
  0
POINT
  5
12C50
330
12249
100
AcDbEntity
  8
DEFPOINTS
  6
ByBlock
 62
     0
 48
50.0
100
AcDbPoint
 10
6783.599999999999
 20
10036.74038870938
 30
0.0
  0
POINT
  5
12C51
330
12249
100
AcDbEntity
  8
DEFPOINTS
  6
ByBlock
 62
     0
 48
50.0
100
AcDbPoint
 10
7033.600000000004
 20
9536.740388709375
 30
0.0
  0
POINT
  5
12C52
330
12249
100
AcDbEntity
  8
DEFPOINTS
  6
ByBlock
 62
     0
 48
50.0
100
AcDbPoint
 10
7033.600000000004
 20
10609.69661180045
 30
0.0
  0
ENDBLK
  5
12C53
330
12249
100
AcDbEntity
  8
0
 48
50.0
100
AcDbBlockEnd
  0
BLOCK
  5
1229E
330
12292
100
AcDbEntity
  8
0
 48
50.0
100
AcDbBlockBegin
  2
*D18
 70
     1
 10
0.0
 20
0.0
 30
0.0
  3
*D18
  1

  0
LINE
  5
1229F
330
12292
100
AcDbEntity
  8
0
  6
ByBlock
 62
     0
 48
50.0
100
AcDbLine
 10
4625.156574488157
 20
9286.740388709379
 30
0.0
 11
5134.336083222783
 21
9286.740388709379
 31
0.0
  0
LINE
  5
122A0
330
12292
100
AcDbEntity
  8
0
  6
ByBlock
 62
     0
 48
50.0
100
AcDbLine
 10
4625.156574488157
 20
10036.74038870938
 30
0.0
 11
5134.336083222783
 21
10036.74038870938
 31
0.0
  0
LINE
  5
122A1
330
12292
100
AcDbEntity
  8
0
  6
ByBlock
 62
     0
 48
50.0
100
AcDbLine
 10
5074.336083222783
 20
9286.740388709379
 30
0.0
 11
5074.336083222783
 21
10036.74038870938
 31
0.0
  0
INSERT
  5
122A2
330
12292
100
AcDbEntity
  8
0
  6
ByBlock
 62
     0
 48
50.0
100
AcDbBlockReference
  2
_DOTSMALL
 10
5074.336083222783
 20
9286.740388709379
 30
0.0
 41
100.0
 42
100.0
 43
100.0
 50
270.0
  0
INSERT
  5
122A3
330
12292
100
AcDbEntity
  8
0
  6
ByBlock
 62
     0
 48
50.0
100
AcDbBlockReference
  2
_DOTSMALL
 10
5074.336083222783
 20
10036.74038870938
 30
0.0
 41
100.0
 42
100.0
 43
100.0
 50
90.0
  0
MTEXT
  5
122A4
330
12292
100
AcDbEntity
  8
0
  6
ByBlock
 62
     7
 48
50.0
100
AcDbMText
 10
4974.336083222783
 20
9661.740388709379
 30
0.0
 40
120.0
 41
0.0
 71
     5
 72
     1
  1
\A1;750
  7
STYLE1
 11
0.0000000000000001
 21
1.0
 31
0.0
 73
     1
 44
1.0
1001
ACAD
1000
MTEXTBEGIN
1070
    73
1070
     1
1070
    44
1040
1.0
1070
    74
1070
     0
1000
MTEXTEND
  0
POINT
  5
122A5
330
12292
100
AcDbEntity
  8
DEFPOINTS
  6
ByBlock
 62
     0
 48
50.0
100
AcDbPoint
 10
4605.156574488157
 20
9286.740388709379
 30
0.0
  0
POINT
  5
122A6
330
12292
100
AcDbEntity
  8
DEFPOINTS
  6
ByBlock
 62
     0
 48
50.0
100
AcDbPoint
 10
4605.156574488157
 20
10036.74038870938
 30
0.0
  0
POINT
  5
122A7
330
12292
100
AcDbEntity
  8
DEFPOINTS
  6
ByBlock
 62
     0
 48
50.0
100
AcDbPoint
 10
5074.336083222783
 20
10036.74038870938
 30
0.0
  0
ENDBLK
  5
122A8
330
12292
100
AcDbEntity
  8
0
 48
50.0
100
AcDbBlockEnd
  0
BLOCK
  5
13419
330
1340E
100
AcDbEntity
  8
0
 48
50.0
100
AcDbBlockBegin
  2
*D33
 70
     1
 10
0.0
 20
0.0
 30
0.0
  3
*D33
  1

  0
LINE
  5
13465
330
1340E
100
AcDbEntity
  8
寸法
 62
     0
 48
50.0
370
    -2
100
AcDbLine
 10
6343.789827176104
 20
2272.319098397104
 30
0.0
 11
5921.671157149674
 21
2272.319098397104
 31
0.0
  0
LINE
  5
13466
330
1340E
100
AcDbEntity
  8
寸法
 62
     0
 48
50.0
370
    -2
100
AcDbLine
 10
9317.712012910034
 20
2371.653473397105
 30
0.0
 11
5921.671157149674
 21
2371.653473397106
 31
0.0
  0
LINE
  5
13467
330
1340E
100
AcDbEntity
  8
寸法
 62
     0
 48
50.0
370
    -2
100
AcDbLine
 10
5981.671157149674
 20
2272.319098397104
 30
0.0
 11
5981.671157149674
 21
2371.653473397106
 31
0.0
  0
LINE
  5
13468
330
1340E
100
AcDbEntity
  8
寸法
 62
     0
 48
50.0
370
    -2
100
AcDbLine
 10
5981.671157149674
 20
2371.653473397106
 30
0.0
 11
5981.671157149674
 21
2809.106627858645
 31
0.0
  0
INSERT
  5
13469
330
1340E
100
AcDbEntity
  8
寸法
 62
     0
 48
50.0
370
    -2
100
AcDbBlockReference
  2
_DOTSMALL
 10
5981.671157149674
 20
2272.319098397104
 30
0.0
 41
100.0
 42
100.0
 43
100.0
 50
270.0
  0
INSERT
  5
1346A
330
1340E
100
AcDbEntity
  8
寸法
 62
     0
 48
50.0
370
    -2
100
AcDbBlockReference
  2
_DOTSMALL
 10
5981.671157149674
 20
2371.653473397106
 30
0.0
 41
100.0
 42
100.0
 43
100.0
 50
90.0
  0
MTEXT
  5
1346B
330
1340E
100
AcDbEntity
  8
寸法
 62
     7
 48
50.0
100
AcDbMText
 10
5875.671157149673
 20
2655.153871953134
 30
0.0
 40
120.0
 41
0.0
 71
     5
 72
     1
  1
\A1;(50)
  7
STYLE1
 11
0.0000000000000001
 21
1.0
 31
0.0
 73
     1
 44
1.0
1001
ACAD
1000
MTEXTBEGIN
1070
    73
1070
     1
1070
    44
1040
1.0
1070
    74
1070
     0
1000
MTEXTEND
  0
POINT
  5
1346C
330
1340E
100
AcDbEntity
  8
DEFPOINTS
 62
     0
 48
50.0
100
AcDbPoint
 10
6363.789827176105
 20
2272.319098397104
 30
0.0
  0
POINT
  5
1346D
330
1340E
100
AcDbEntity
  8
DEFPOINTS
 62
     0
 48
50.0
100
AcDbPoint
 10
9337.712012910033
 20
2371.653473397105
 30
0.0
  0
POINT
  5
1346E
330
1340E
100
AcDbEntity
  8
DEFPOINTS
 62
     0
 48
50.0
100
AcDbPoint
 10
5981.671157149674
 20
2371.653473397106
 30
0.0
  0
ENDBLK
  5
1341A
330
1340E
100
AcDbEntity
  8
0
 48
50.0
100
AcDbBlockEnd
  0
BLOCK
  5
13425
330
1341B
100
AcDbEntity
  8
0
 48
50.0
100
AcDbBlockBegin
  2
*D34
 70
     1
 10
0.0
 20
0.0
 30
0.0
  3
*D34
  1

  0
LINE
  5
1346F
330
1341B
100
AcDbEntity
  8
寸法
 62
     0
 48
50.0
370
    -2
100
AcDbLine
 10
6343.789827176105
 20
2272.319098397104
 30
0.0
 11
6097.711804370892
 21
2272.319098397104
 31
0.0
  0
LINE
  5
13470
330
1341B
100
AcDbEntity
  8
寸法
 62
     0
 48
50.0
370
    -2
100
AcDbLine
 10
6307.975533552198
 20
2171.778473397104
 30
0.0
 11
6097.711804370892
 21
2171.778473397104
 31
0.0
  0
LINE
  5
13471
330
1341B
100
AcDbEntity
  8
寸法
 62
     0
 48
50.0
370
    -2
100
AcDbLine
 10
6157.711804370893
 20
2272.319098397104
 30
0.0
 11
6157.711804370893
 21
2171.778473397104
 31
0.0
  0
INSERT
  5
13472
330
1341B
100
AcDbEntity
  8
寸法
 62
     0
 48
50.0
370
    -2
100
AcDbBlockReference
  2
_DOTSMALL
 10
6157.711804370893
 20
2272.319098397104
 30
0.0
 41
100.0
 42
100.0
 43
100.0
 50
90.0
  0
INSERT
  5
13473
330
1341B
100
AcDbEntity
  8
寸法
 62
     0
 48
50.0
370
    -2
100
AcDbBlockReference
  2
_DOTSMALL
 10
6157.711804370893
 20
2171.778473397104
 30
0.0
 41
100.0
 42
100.0
 43
100.0
 50
270.0
  0
MTEXT
  5
13474
330
1341B
100
AcDbEntity
  8
寸法
 62
     7
 48
50.0
100
AcDbMText
 10
6057.711804370891
 20
2222.048785897105
 30
0.0
 40
120.0
 41
0.0
 71
     5
 72
     1
  1
\A1;50
  7
STYLE1
 11
0.0000000000000001
 21
1.0
 31
0.0
 73
     1
 44
1.0
1001
ACAD
1000
MTEXTBEGIN
1070
    73
1070
     1
1070
    44
1040
1.0
1070
    74
1070
     0
1000
MTEXTEND
  0
POINT
  5
13475
330
1341B
100
AcDbEntity
  8
DEFPOINTS
 62
     0
 48
50.0
100
AcDbPoint
 10
6363.789827176105
 20
2272.319098397104
 30
0.0
  0
POINT
  5
13476
330
1341B
100
AcDbEntity
  8
DEFPOINTS
 62
     0
 48
50.0
100
AcDbPoint
 10
6327.975533552198
 20
2171.778473397104
 30
0.0
  0
POINT
  5
13477
330
1341B
100
AcDbEntity
  8
DEFPOINTS
 62
     0
 48
50.0
100
AcDbPoint
 10
6157.711804370893
 20
2171.778473397104
 30
0.0
  0
ENDBLK
  5
13426
330
1341B
100
AcDbEntity
  8
0
 48
50.0
100
AcDbBlockEnd
  0
BLOCK
  5
13431
330
13427
100
AcDbEntity
  8
0
 48
50.0
100
AcDbBlockBegin
  2
*D35
 70
     1
 10
0.0
 20
0.0
 30
0.0
  3
*D35
  1

  0
LINE
  5
13478
330
13427
100
AcDbEntity
  8
寸法
 62
     0
 48
50.0
370
    -2
100
AcDbLine
 10
6343.789827176105
 20
2272.319098397104
 30
0.0
 11
5921.671157149674
 21
2272.319098397104
 31
0.0
  0
LINE
  5
13479
330
13427
100
AcDbEntity
  8
寸法
 62
     0
 48
50.0
370
    -2
100
AcDbLine
 10
6851.142525974295
 20
1371.653473397103
 30
0.0
 11
5921.671157149674
 21
1371.653473397103
 31
0.0
  0
LINE
  5
1347A
330
13427
100
AcDbEntity
  8
寸法
 62
     0
 48
50.0
370
    -2
100
AcDbLine
 10
5981.671157149675
 20
2272.319098397104
 30
0.0
 11
5981.671157149674
 21
1371.653473397103
 31
0.0
  0
INSERT
  5
1347B
330
13427
100
AcDbEntity
  8
寸法
 62
     0
 48
50.0
370
    -2
100
AcDbBlockReference
  2
_DOTSMALL
 10
5981.671157149675
 20
2272.319098397104
 30
0.0
 41
100.0
 42
100.0
 43
100.0
 50
90.0
  0
INSERT
  5
1347C
330
13427
100
AcDbEntity
  8
寸法
 62
     0
 48
50.0
370
    -2
100
AcDbBlockReference
  2
_DOTSMALL
 10
5981.671157149674
 20
1371.653473397103
 30
0.0
 41
100.0
 42
100.0
 43
100.0
 50
270.0
  0
MTEXT
  5
1347D
330
13427
100
AcDbEntity
  8
寸法
 62
     7
 48
50.0
100
AcDbMText
 10
5881.671157149674
 20
1821.986285897105
 30
0.0
 40
120.0
 41
0.0
 71
     5
 72
     1
  1
\A1;450
  7
STYLE1
 11
0.0000000000000001
 21
1.0
 31
0.0
 73
     1
 44
1.0
1001
ACAD
1000
MTEXTBEGIN
1070
    73
1070
     1
1070
    44
1040
1.0
1070
    74
1070
     0
1000
MTEXTEND
  0
POINT
  5
1347E
330
13427
100
AcDbEntity
  8
DEFPOINTS
 62
     0
 48
50.0
100
AcDbPoint
 10
6363.789827176105
 20
2272.319098397104
 30
0.0
  0
POINT
  5
1347F
330
13427
100
AcDbEntity
  8
DEFPOINTS
 62
     0
 48
50.0
100
AcDbPoint
 10
6871.142525974295
 20
1371.653473397103
 30
0.0
  0
POINT
  5
13480
330
13427
100
AcDbEntity
  8
DEFPOINTS
 62
     0
 48
50.0
100
AcDbPoint
 10
5981.671157149674
 20
1371.653473397103
 30
0.0
  0
ENDBLK
  5
13432
330
13427
100
AcDbEntity
  8
0
 48
50.0
100
AcDbBlockEnd
  0
BLOCK
  5
1343D
330
13433
100
AcDbEntity
  8
0
 48
50.0
100
AcDbBlockBegin
  2
*D36
 70
     1
 10
0.0
 20
0.0
 30
0.0
  3
*D36
  1

  0
LINE
  5
13481
330
13433
100
AcDbEntity
  8
寸法
 62
     0
 48
50.0
370
    -2
100
AcDbLine
 10
7502.206150475267
 20
1730.799723397104
 30
0.0
 11
6102.345878162889
 21
1730.799723397104
 31
0.0
  0
LINE
  5
13482
330
13433
100
AcDbEntity
  8
寸法
 62
     0
 48
50.0
370
    -2
100
AcDbLine
 10
6851.142525974295
 20
1371.653473397103
 30
0.0
 11
6102.345878162889
 21
1371.653473397103
 31
0.0
  0
LINE
  5
13483
330
13433
100
AcDbEntity
  8
寸法
 62
     0
 48
50.0
370
    -2
100
AcDbLine
 10
6162.34587816289
 20
1730.799723397104
 30
0.0
 11
6162.34587816289
 21
1371.653473397103
 31
0.0
  0
INSERT
  5
13484
330
13433
100
AcDbEntity
  8
寸法
 62
     0
 48
50.0
370
    -2
100
AcDbBlockReference
  2
_DOTSMALL
 10
6162.34587816289
 20
1730.799723397104
 30
0.0
 41
100.0
 42
100.0
 43
100.0
 50
90.0
  0
INSERT
  5
13485
330
13433
100
AcDbEntity
  8
寸法
 62
     0
 48
50.0
370
    -2
100
AcDbBlockReference
  2
_DOTSMALL
 10
6162.34587816289
 20
1371.653473397103
 30
0.0
 41
100.0
 42
100.0
 43
100.0
 50
270.0
  0
MTEXT
  5
13486
330
13433
100
AcDbEntity
  8
寸法
 62
     7
 48
50.0
100
AcDbMText
 10
6062.34587816289
 20
1515.026598397103
 30
0.0
 40
120.0
 41
0.0
 71
     5
 72
     1
  1
\A1;180
  7
STYLE1
 11
0.0000000000000001
 21
1.0
 31
0.0
 73
     1
 44
1.0
1001
ACAD
1000
MTEXTBEGIN
1070
    73
1070
     1
1070
    44
1040
1.0
1070
    74
1070
     0
1000
MTEXTEND
  0
POINT
  5
13487
330
13433
100
AcDbEntity
  8
DEFPOINTS
 62
     0
 48
50.0
100
AcDbPoint
 10
7522.206150475266
 20
1730.799723397104
 30
0.0
  0
POINT
  5
13488
330
13433
100
AcDbEntity
  8
DEFPOINTS
 62
     0
 48
50.0
100
AcDbPoint
 10
6871.142525974295
 20
1371.653473397103
 30
0.0
  0
POINT
  5
13489
330
13433
100
AcDbEntity
  8
DEFPOINTS
 62
     0
 48
50.0
100
AcDbPoint
 10
6162.34587816289
 20
1371.653473397103
 30
0.0
  0
ENDBLK
  5
1343E
330
13433
100
AcDbEntity
  8
0
 48
50.0
100
AcDbBlockEnd
  0
BLOCK
  5
13449
330
1343F
100
AcDbEntity
  8
0
 48
50.0
100
AcDbBlockBegin
  2
*D37
 70
     1
 10
0.0
 20
0.0
 30
0.0
  3
*D37
  1

  0
LINE
  5
1348A
330
1343F
100
AcDbEntity
  8
寸法
 62
     0
 48
50.0
370
    -2
100
AcDbLine
 10
6307.975533552198
 20
2171.778473397104
 30
0.0
 11
6102.34587816289
 21
2171.778473397104
 31
0.0
  0
LINE
  5
1348B
330
1343F
100
AcDbEntity
  8
寸法
 62
     0
 48
50.0
370
    -2
100
AcDbLine
 10
7502.206150475267
 20
1730.799723397104
 30
0.0
 11
6102.345878162889
 21
1730.799723397104
 31
0.0
  0
LINE
  5
1348C
330
1343F
100
AcDbEntity
  8
寸法
 62
     0
 48
50.0
370
    -2
100
AcDbLine
 10
6162.345878162891
 20
2171.778473397104
 30
0.0
 11
6162.34587816289
 21
1730.799723397104
 31
0.0
  0
INSERT
  5
1348D
330
1343F
100
AcDbEntity
  8
寸法
 62
     0
 48
50.0
370
    -2
100
AcDbBlockReference
  2
_DOTSMALL
 10
6162.345878162891
 20
2171.778473397104
 30
0.0
 41
100.0
 42
100.0
 43
100.0
 50
90.0
  0
INSERT
  5
1348E
330
1343F
100
AcDbEntity
  8
寸法
 62
     0
 48
50.0
370
    -2
100
AcDbBlockReference
  2
_DOTSMALL
 10
6162.34587816289
 20
1730.799723397104
 30
0.0
 41
100.0
 42
100.0
 43
100.0
 50
270.0
  0
MTEXT
  5
1348F
330
1343F
100
AcDbEntity
  8
寸法
 62
     7
 48
50.0
100
AcDbMText
 10
6062.334067139268
 20
1951.289098397104
 30
0.0
 40
120.0
 41
0.0
 71
     5
 72
     1
  1
\A1;220
  7
STYLE1
 11
0.0000000000000001
 21
1.0
 31
0.0
 73
     1
 44
1.0
1001
ACAD
1000
MTEXTBEGIN
1070
    73
1070
     1
1070
    44
1040
1.0
1070
    74
1070
     0
1000
MTEXTEND
  0
POINT
  5
13490
330
1343F
100
AcDbEntity
  8
DEFPOINTS
 62
     0
 48
50.0
100
AcDbPoint
 10
6327.975533552198
 20
2171.778473397104
 30
0.0
  0
POINT
  5
13491
330
1343F
100
AcDbEntity
  8
DEFPOINTS
 62
     0
 48
50.0
100
AcDbPoint
 10
7522.206150475266
 20
1730.799723397104
 30
0.0
  0
POINT
  5
13492
330
1343F
100
AcDbEntity
  8
DEFPOINTS
 62
     0
 48
50.0
100
AcDbPoint
 10
6162.34587816289
 20
1730.799723397104
 30
0.0
  0
ENDBLK
  5
1344A
330
1343F
100
AcDbEntity
  8
0
 48
50.0
100
AcDbBlockEnd
  0
BLOCK
  5
13455
330
1344B
100
AcDbEntity
  8
0
 48
50.0
100
AcDbBlockBegin
  2
*D38
 70
     1
 10
0.0
 20
0.0
 30
0.0
  3
*D38
  1

  0
LINE
  5
13493
330
1344B
100
AcDbEntity
  8
寸法
 62
     0
 48
50.0
370
    -2
100
AcDbLine
 10
6967.356645224433
 20
1041.753473397105
 30
0.0
 11
6967.356645224433
 21
719.5662246076198
 31
0.0
  0
LINE
  5
13494
330
1344B
100
AcDbEntity
  8
寸法
 62
     0
 48
50.0
370
    -2
100
AcDbLine
 10
8167.356645224433
 20
1041.753473397105
 30
0.0
 11
8167.356645224433
 21
719.5662246076198
 31
0.0
  0
LINE
  5
13495
330
1344B
100
AcDbEntity
  8
寸法
 62
     0
 48
50.0
370
    -2
100
AcDbLine
 10
6967.356645224433
 20
779.5662246076199
 30
0.0
 11
8167.356645224433
 21
779.5662246076199
 31
0.0
  0
INSERT
  5
13496
330
1344B
100
AcDbEntity
  8
寸法
 62
     0
 48
50.0
370
    -2
100
AcDbBlockReference
  2
_DOTSMALL
 10
6967.356645224433
 20
779.5662246076199
 30
0.0
 41
100.0
 42
100.0
 43
100.0
 50
180.0
  0
INSERT
  5
13497
330
1344B
100
AcDbEntity
  8
寸法
 62
     0
 48
50.0
370
    -2
100
AcDbBlockReference
  2
_DOTSMALL
 10
8167.356645224433
 20
779.5662246076199
 30
0.0
 41
100.0
 42
100.0
 43
100.0
  0
MTEXT
  5
13498
330
1344B
100
AcDbEntity
  8
寸法
 62
     7
 48
50.0
100
AcDbMText
 10
7567.356645224433
 20
879.5662246076199
 30
0.0
 40
120.0
 41
0.0
 71
     5
 72
     1
  1
\A1;600
  7
STYLE1
 73
     1
 44
1.0
1001
ACAD
1000
MTEXTBEGIN
1070
    73
1070
     1
1070
    44
1040
1.0
1070
    74
1070
     0
1000
MTEXTEND
  0
POINT
  5
13499
330
1344B
100
AcDbEntity
  8
DEFPOINTS
 62
     0
 48
50.0
100
AcDbPoint
 10
6967.356645224433
 20
1061.753473397105
 30
0.0
  0
POINT
  5
1349A
330
1344B
100
AcDbEntity
  8
DEFPOINTS
 62
     0
 48
50.0
100
AcDbPoint
 10
8167.356645224433
 20
1061.753473397105
 30
0.0
  0
POINT
  5
1349B
330
1344B
100
AcDbEntity
  8
DEFPOINTS
 62
     0
 48
50.0
100
AcDbPoint
 10
8167.356645224433
 20
779.5662246076199
 30
0.0
  0
ENDBLK
  5
13456
330
1344B
100
AcDbEntity
  8
0
 48
50.0
100
AcDbBlockEnd
  0
BLOCK
  5
13463
330
13457
100
AcDbEntity
  8
0
 48
50.0
100
AcDbBlockBegin
  2
*D39
 70
     1
 10
0.0
 20
0.0
 30
0.0
  3
*D39
  1

  0
LINE
  5
1349C
330
13457
100
AcDbEntity
  8
寸法
 62
     0
 48
50.0
370
    -2
100
AcDbLine
 10
6851.142525974303
 20
1371.653473397103
 30
0.0
 11
5921.671157149674
 21
1371.653473397103
 31
0.0
  0
LINE
  5
1349D
330
13457
100
AcDbEntity
  8
寸法
 62
     0
 48
50.0
370
    -2
100
AcDbLine
 10
6851.142525974295
 20
1271.753473397105
 30
0.0
 11
5921.671157149674
 21
1271.753473397105
 31
0.0
  0
LINE
  5
1349E
330
13457
100
AcDbEntity
  8
寸法
 62
     0
 48
50.0
370
    -2
100
AcDbLine
 10
5981.671157149674
 20
1371.653473397103
 30
0.0
 11
5981.671157149674
 21
1471.653473397103
 31
0.0
  0
LINE
  5
1349F
330
13457
100
AcDbEntity
  8
寸法
 62
     0
 48
50.0
370
    -2
100
AcDbLine
 10
5981.671157149674
 20
1271.753473397105
 30
0.0
 11
5981.671157149674
 21
1171.753473397105
 31
0.0
  0
LINE
  5
134A0
330
13457
100
AcDbEntity
  8
寸法
 62
     0
 48
50.0
370
    -2
100
AcDbLine
 10
5981.671157149674
 20
1371.653473397103
 30
0.0
 11
5981.671157149674
 21
1271.753473397105
 31
0.0
  0
INSERT
  5
134A1
330
13457
100
AcDbEntity
  8
寸法
 62
     0
 48
50.0
370
    -2
100
AcDbBlockReference
  2
_DOTSMALL
 10
5981.671157149674
 20
1371.653473397103
 30
0.0
 41
100.0
 42
100.0
 43
100.0
 50
270.0
  0
INSERT
  5
134A2
330
13457
100
AcDbEntity
  8
寸法
 62
     0
 48
50.0
370
    -2
100
AcDbBlockReference
  2
_DOTSMALL
 10
5981.671157149674
 20
1271.753473397105
 30
0.0
 41
100.0
 42
100.0
 43
100.0
 50
90.0
  0
MTEXT
  5
134A3
330
13457
100
AcDbEntity
  8
寸法
 62
     7
 48
50.0
100
AcDbMText
 10
5881.671157149674
 20
1321.703473397105
 30
0.0
 40
120.0
 41
0.0
 71
     5
 72
     1
  1
\A1;50
  7
STYLE1
 11
0.0000000000000001
 21
1.0
 31
0.0
 73
     1
 44
1.0
1001
ACAD
1000
MTEXTBEGIN
1070
    73
1070
     1
1070
    44
1040
1.0
1070
    74
1070
     0
1000
MTEXTEND
  0
POINT
  5
134A4
330
13457
100
AcDbEntity
  8
DEFPOINTS
 62
     0
 48
50.0
100
AcDbPoint
 10
6871.142525974303
 20
1371.653473397103
 30
0.0
  0
POINT
  5
134A5
330
13457
100
AcDbEntity
  8
DEFPOINTS
 62
     0
 48
50.0
100
AcDbPoint
 10
6871.142525974295
 20
1271.753473397105
 30
0.0
  0
POINT
  5
134A6
330
13457
100
AcDbEntity
  8
DEFPOINTS
 62
     0
 48
50.0
100
AcDbPoint
 10
5981.671157149674
 20
1271.753473397105
 30
0.0
  0
ENDBLK
  5
13464
330
13457
100
AcDbEntity
  8
0
 48
50.0
100
AcDbBlockEnd
  0
BLOCK
  5
134B2
330
134B1
100
AcDbEntity
  8
0
 48
50.0
100
AcDbBlockBegin
  2
*D40
 70
     1
 10
0.0
 20
0.0
 30
0.0
  3
*D40
  1

  0
LINE
  5
134B3
330
134B1
100
AcDbEntity
  8
寸法
 62
     0
 48
50.0
370
    -2
100
AcDbLine
 10
6967.356645224433
 20
1041.753473397105
 30
0.0
 11
6967.356645224433
 21
719.5662246076198
 31
0.0
  0
LINE
  5
134B4
330
134B1
100
AcDbEntity
  8
寸法
 62
     0
 48
50.0
370
    -2
100
AcDbLine
 10
8167.356645224433
 20
1041.753473397105
 30
0.0
 11
8167.356645224433
 21
719.5662246076198
 31
0.0
  0
LINE
  5
134B5
330
134B1
100
AcDbEntity
  8
寸法
 62
     0
 48
50.0
370
    -2
100
AcDbLine
 10
6967.356645224433
 20
779.5662246076199
 30
0.0
 11
8167.356645224433
 21
779.5662246076199
 31
0.0
  0
INSERT
  5
134B6
330
134B1
100
AcDbEntity
  8
寸法
 62
     0
 48
50.0
370
    -2
100
AcDbBlockReference
  2
_DOTSMALL
 10
6967.356645224433
 20
779.5662246076199
 30
0.0
 41
100.0
 42
100.0
 43
100.0
 50
180.0
  0
INSERT
  5
134B7
330
134B1
100
AcDbEntity
  8
寸法
 62
     0
 48
50.0
370
    -2
100
AcDbBlockReference
  2
_DOTSMALL
 10
8167.356645224433
 20
779.5662246076199
 30
0.0
 41
100.0
 42
100.0
 43
100.0
  0
MTEXT
  5
134B8
330
134B1
100
AcDbEntity
  8
寸法
 62
     7
 48
50.0
100
AcDbMText
 10
7567.356645224433
 20
879.5662246076199
 30
0.0
 40
120.0
 41
0.0
 71
     5
 72
     1
  1
\A1;600
  7
STYLE1
 73
     1
 44
1.0
1001
ACAD
1000
MTEXTBEGIN
1070
    73
1070
     1
1070
    44
1040
1.0
1070
    74
1070
     0
1000
MTEXTEND
  0
POINT
  5
134B9
330
134B1
100
AcDbEntity
  8
DEFPOINTS
 62
     0
 48
50.0
100
AcDbPoint
 10
6967.356645224433
 20
1061.753473397105
 30
0.0
  0
POINT
  5
134BA
330
134B1
100
AcDbEntity
  8
DEFPOINTS
 62
     0
 48
50.0
100
AcDbPoint
 10
8167.356645224433
 20
1061.753473397105
 30
0.0
  0
POINT
  5
134BB
330
134B1
100
AcDbEntity
  8
DEFPOINTS
 62
     0
 48
50.0
100
AcDbPoint
 10
8167.356645224433
 20
779.5662246076199
 30
0.0
  0
ENDBLK
  5
134BC
330
134B1
100
AcDbEntity
  8
0
 48
50.0
100
AcDbBlockEnd
  0
BLOCK
  5
134BE
330
134BD
100
AcDbEntity
  8
0
 48
50.0
100
AcDbBlockBegin
  2
*D41
 70
     1
 10
0.0
 20
0.0
 30
0.0
  3
*D41
  1

  0
LINE
  5
134BF
330
134BD
100
AcDbEntity
  8
寸法
 62
     0
 48
50.0
370
    -2
100
AcDbLine
 10
6307.975533552198
 20
2171.778473397104
 30
0.0
 11
6102.34587816289
 21
2171.778473397104
 31
0.0
  0
LINE
  5
134C0
330
134BD
100
AcDbEntity
  8
寸法
 62
     0
 48
50.0
370
    -2
100
AcDbLine
 10
7502.206150475267
 20
1730.799723397104
 30
0.0
 11
6102.345878162889
 21
1730.799723397104
 31
0.0
  0
LINE
  5
134C1
330
134BD
100
AcDbEntity
  8
寸法
 62
     0
 48
50.0
370
    -2
100
AcDbLine
 10
6162.345878162891
 20
2171.778473397104
 30
0.0
 11
6162.34587816289
 21
1730.799723397104
 31
0.0
  0
INSERT
  5
134C2
330
134BD
100
AcDbEntity
  8
寸法
 62
     0
 48
50.0
370
    -2
100
AcDbBlockReference
  2
_DOTSMALL
 10
6162.345878162891
 20
2171.778473397104
 30
0.0
 41
100.0
 42
100.0
 43
100.0
 50
90.0
  0
INSERT
  5
134C3
330
134BD
100
AcDbEntity
  8
寸法
 62
     0
 48
50.0
370
    -2
100
AcDbBlockReference
  2
_DOTSMALL
 10
6162.34587816289
 20
1730.799723397104
 30
0.0
 41
100.0
 42
100.0
 43
100.0
 50
270.0
  0
MTEXT
  5
134C4
330
134BD
100
AcDbEntity
  8
寸法
 62
     7
 48
50.0
100
AcDbMText
 10
6062.334067139268
 20
1951.289098397104
 30
0.0
 40
120.0
 41
0.0
 71
     5
 72
     1
  1
\A1;220
  7
STYLE1
 11
0.0000000000000001
 21
1.0
 31
0.0
 73
     1
 44
1.0
1001
ACAD
1000
MTEXTBEGIN
1070
    73
1070
     1
1070
    44
1040
1.0
1070
    74
1070
     0
1000
MTEXTEND
  0
POINT
  5
134C5
330
134BD
100
AcDbEntity
  8
DEFPOINTS
 62
     0
 48
50.0
100
AcDbPoint
 10
6327.975533552198
 20
2171.778473397104
 30
0.0
  0
POINT
  5
134C6
330
134BD
100
AcDbEntity
  8
DEFPOINTS
 62
     0
 48
50.0
100
AcDbPoint
 10
7522.206150475266
 20
1730.799723397104
 30
0.0
  0
POINT
  5
134C7
330
134BD
100
AcDbEntity
  8
DEFPOINTS
 62
     0
 48
50.0
100
AcDbPoint
 10
6162.34587816289
 20
1730.799723397104
 30
0.0
  0
ENDBLK
  5
134C8
330
134BD
100
AcDbEntity
  8
0
 48
50.0
100
AcDbBlockEnd
  0
BLOCK
  5
134CA
330
134C9
100
AcDbEntity
  8
0
 48
50.0
100
AcDbBlockBegin
  2
*D42
 70
     1
 10
0.0
 20
0.0
 30
0.0
  3
*D42
  1

  0
LINE
  5
134CB
330
134C9
100
AcDbEntity
  8
寸法
 62
     0
 48
50.0
370
    -2
100
AcDbLine
 10
6343.789827176105
 20
2272.319098397104
 30
0.0
 11
5921.671157149674
 21
2272.319098397104
 31
0.0
  0
LINE
  5
134CC
330
134C9
100
AcDbEntity
  8
寸法
 62
     0
 48
50.0
370
    -2
100
AcDbLine
 10
6851.142525974295
 20
1371.653473397103
 30
0.0
 11
5921.671157149674
 21
1371.653473397103
 31
0.0
  0
LINE
  5
134CD
330
134C9
100
AcDbEntity
  8
寸法
 62
     0
 48
50.0
370
    -2
100
AcDbLine
 10
5981.671157149675
 20
2272.319098397104
 30
0.0
 11
5981.671157149674
 21
1371.653473397103
 31
0.0
  0
INSERT
  5
134CE
330
134C9
100
AcDbEntity
  8
寸法
 62
     0
 48
50.0
370
    -2
100
AcDbBlockReference
  2
_DOTSMALL
 10
5981.671157149675
 20
2272.319098397104
 30
0.0
 41
100.0
 42
100.0
 43
100.0
 50
90.0
  0
INSERT
  5
134CF
330
134C9
100
AcDbEntity
  8
寸法
 62
     0
 48
50.0
370
    -2
100
AcDbBlockReference
  2
_DOTSMALL
 10
5981.671157149674
 20
1371.653473397103
 30
0.0
 41
100.0
 42
100.0
 43
100.0
 50
270.0
  0
MTEXT
  5
134D0
330
134C9
100
AcDbEntity
  8
寸法
 62
     7
 48
50.0
100
AcDbMText
 10
5881.671157149674
 20
1821.986285897105
 30
0.0
 40
120.0
 41
0.0
 71
     5
 72
     1
  1
\A1;450
  7
STYLE1
 11
0.0000000000000001
 21
1.0
 31
0.0
 73
     1
 44
1.0
1001
ACAD
1000
MTEXTBEGIN
1070
    73
1070
     1
1070
    44
1040
1.0
1070
    74
1070
     0
1000
MTEXTEND
  0
POINT
  5
134D1
330
134C9
100
AcDbEntity
  8
DEFPOINTS
 62
     0
 48
50.0
100
AcDbPoint
 10
6363.789827176105
 20
2272.319098397104
 30
0.0
  0
POINT
  5
134D2
330
134C9
100
AcDbEntity
  8
DEFPOINTS
 62
     0
 48
50.0
100
AcDbPoint
 10
6871.142525974295
 20
1371.653473397103
 30
0.0
  0
POINT
  5
134D3
330
134C9
100
AcDbEntity
  8
DEFPOINTS
 62
     0
 48
50.0
100
AcDbPoint
 10
5981.671157149674
 20
1371.653473397103
 30
0.0
  0
ENDBLK
  5
134D4
330
134C9
100
AcDbEntity
  8
0
 48
50.0
100
AcDbBlockEnd
  0
BLOCK
  5
134D6
330
134D5
100
AcDbEntity
  8
0
 48
50.0
100
AcDbBlockBegin
  2
*D43
 70
     1
 10
0.0
 20
0.0
 30
0.0
  3
*D43
  1

  0
LINE
  5
134D7
330
134D5
100
AcDbEntity
  8
寸法
 62
     0
 48
50.0
370
    -2
100
AcDbLine
 10
7487.206150475266
 20
1730.799723397104
 30
0.0
 11
6102.345878162889
 21
1730.799723397104
 31
0.0
  0
LINE
  5
134D8
330
134D5
100
AcDbEntity
  8
寸法
 62
     0
 48
50.0
370
    -2
100
AcDbLine
 10
6851.142525974295
 20
1371.653473397103
 30
0.0
 11
6102.345878162889
 21
1371.653473397103
 31
0.0
  0
LINE
  5
134D9
330
134D5
100
AcDbEntity
  8
寸法
 62
     0
 48
50.0
370
    -2
100
AcDbLine
 10
6162.34587816289
 20
1730.799723397104
 30
0.0
 11
6162.34587816289
 21
1371.653473397103
 31
0.0
  0
INSERT
  5
134DA
330
134D5
100
AcDbEntity
  8
寸法
 62
     0
 48
50.0
370
    -2
100
AcDbBlockReference
  2
_DOTSMALL
 10
6162.34587816289
 20
1730.799723397104
 30
0.0
 41
100.0
 42
100.0
 43
100.0
 50
90.0
  0
INSERT
  5
134DB
330
134D5
100
AcDbEntity
  8
寸法
 62
     0
 48
50.0
370
    -2
100
AcDbBlockReference
  2
_DOTSMALL
 10
6162.34587816289
 20
1371.653473397103
 30
0.0
 41
100.0
 42
100.0
 43
100.0
 50
270.0
  0
MTEXT
  5
134DC
330
134D5
100
AcDbEntity
  8
寸法
 62
     7
 48
50.0
100
AcDbMText
 10
6062.34587816289
 20
1515.026598397103
 30
0.0
 40
120.0
 41
0.0
 71
     5
 72
     1
  1
\A1;180
  7
STYLE1
 11
0.0000000000000001
 21
1.0
 31
0.0
 73
     1
 44
1.0
1001
ACAD
1000
MTEXTBEGIN
1070
    73
1070
     1
1070
    44
1040
1.0
1070
    74
1070
     0
1000
MTEXTEND
  0
POINT
  5
134DD
330
134D5
100
AcDbEntity
  8
DEFPOINTS
 62
     0
 48
50.0
100
AcDbPoint
 10
7507.206150475266
 20
1730.799723397104
 30
0.0
  0
POINT
  5
134DE
330
134D5
100
AcDbEntity
  8
DEFPOINTS
 62
     0
 48
50.0
100
AcDbPoint
 10
6871.142525974295
 20
1371.653473397103
 30
0.0
  0
POINT
  5
134DF
330
134D5
100
AcDbEntity
  8
DEFPOINTS
 62
     0
 48
50.0
100
AcDbPoint
 10
6162.34587816289
 20
1371.653473397103
 30
0.0
  0
ENDBLK
  5
134E0
330
134D5
100
AcDbEntity
  8
0
 48
50.0
100
AcDbBlockEnd
  0
BLOCK
  5
134E2
330
134E1
100
AcDbEntity
  8
0
 48
50.0
100
AcDbBlockBegin
  2
*D44
 70
     1
 10
0.0
 20
0.0
 30
0.0
  3
*D44
  1

  0
LINE
  5
134E3
330
134E1
100
AcDbEntity
  8
寸法
 62
     0
 48
50.0
370
    -2
100
AcDbLine
 10
6851.142525974303
 20
1371.653473397103
 30
0.0
 11
5921.671157149674
 21
1371.653473397103
 31
0.0
  0
LINE
  5
134E4
330
134E1
100
AcDbEntity
  8
寸法
 62
     0
 48
50.0
370
    -2
100
AcDbLine
 10
6851.142525974295
 20
1271.753473397105
 30
0.0
 11
5921.671157149674
 21
1271.753473397105
 31
0.0
  0
LINE
  5
134E5
330
134E1
100
AcDbEntity
  8
寸法
 62
     0
 48
50.0
370
    -2
100
AcDbLine
 10
5981.671157149674
 20
1371.653473397103
 30
0.0
 11
5981.671157149674
 21
1471.653473397103
 31
0.0
  0
LINE
  5
134E6
330
134E1
100
AcDbEntity
  8
寸法
 62
     0
 48
50.0
370
    -2
100
AcDbLine
 10
5981.671157149674
 20
1271.753473397105
 30
0.0
 11
5981.671157149674
 21
1171.753473397105
 31
0.0
  0
LINE
  5
134E7
330
134E1
100
AcDbEntity
  8
寸法
 62
     0
 48
50.0
370
    -2
100
AcDbLine
 10
5981.671157149674
 20
1371.653473397103
 30
0.0
 11
5981.671157149674
 21
1271.753473397105
 31
0.0
  0
INSERT
  5
134E8
330
134E1
100
AcDbEntity
  8
寸法
 62
     0
 48
50.0
370
    -2
100
AcDbBlockReference
  2
_DOTSMALL
 10
5981.671157149674
 20
1371.653473397103
 30
0.0
 41
100.0
 42
100.0
 43
100.0
 50
270.0
  0
INSERT
  5
134E9
330
134E1
100
AcDbEntity
  8
寸法
 62
     0
 48
50.0
370
    -2
100
AcDbBlockReference
  2
_DOTSMALL
 10
5981.671157149674
 20
1271.753473397105
 30
0.0
 41
100.0
 42
100.0
 43
100.0
 50
90.0
  0
MTEXT
  5
134EA
330
134E1
100
AcDbEntity
  8
寸法
 62
     7
 48
50.0
100
AcDbMText
 10
5881.671157149674
 20
1321.703473397105
 30
0.0
 40
120.0
 41
0.0
 71
     5
 72
     1
  1
\A1;50
  7
STYLE1
 11
0.0000000000000001
 21
1.0
 31
0.0
 73
     1
 44
1.0
1001
ACAD
1000
MTEXTBEGIN
1070
    73
1070
     1
1070
    44
1040
1.0
1070
    74
1070
     0
1000
MTEXTEND
  0
POINT
  5
134EB
330
134E1
100
AcDbEntity
  8
DEFPOINTS
 62
     0
 48
50.0
100
AcDbPoint
 10
6871.142525974303
 20
1371.653473397103
 30
0.0
  0
POINT
  5
134EC
330
134E1
100
AcDbEntity
  8
DEFPOINTS
 62
     0
 48
50.0
100
AcDbPoint
 10
6871.142525974295
 20
1271.753473397105
 30
0.0
  0
POINT
  5
134ED
330
134E1
100
AcDbEntity
  8
DEFPOINTS
 62
     0
 48
50.0
100
AcDbPoint
 10
5981.671157149674
 20
1271.753473397105
 30
0.0
  0
ENDBLK
  5
134EE
330
134E1
100
AcDbEntity
  8
0
 48
50.0
100
AcDbBlockEnd
  0
BLOCK
  5
134F0
330
134EF
100
AcDbEntity
  8
0
 48
50.0
100
AcDbBlockBegin
  2
*D45
 70
     1
 10
0.0
 20
0.0
 30
0.0
  3
*D45
  1

  0
LINE
  5
134F1
330
134EF
100
AcDbEntity
  8
寸法
 62
     0
 48
50.0
370
    -2
100
AcDbLine
 10
6343.789827176104
 20
2272.319098397104
 30
0.0
 11
5921.671157149674
 21
2272.319098397104
 31
0.0
  0
LINE
  5
134F2
330
134EF
100
AcDbEntity
  8
寸法
 62
     0
 48
50.0
370
    -2
100
AcDbLine
 10
9302.560497758518
 20
2371.50195824559
 30
0.0
 11
5921.671157149674
 21
2371.501958245591
 31
0.0
  0
LINE
  5
134F3
330
134EF
100
AcDbEntity
  8
寸法
 62
     0
 48
50.0
370
    -2
100
AcDbLine
 10
5981.671157149674
 20
2272.319098397104
 30
0.0
 11
5981.671157149674
 21
2371.501958245591
 31
0.0
  0
LINE
  5
134F4
330
134EF
100
AcDbEntity
  8
寸法
 62
     0
 48
50.0
370
    -2
100
AcDbLine
 10
5981.671157149674
 20
2371.501958245591
 30
0.0
 11
5981.671157149674
 21
2809.106627858645
 31
0.0
  0
INSERT
  5
134F5
330
134EF
100
AcDbEntity
  8
寸法
 62
     0
 48
50.0
370
    -2
100
AcDbBlockReference
  2
_DOTSMALL
 10
5981.671157149674
 20
2272.319098397104
 30
0.0
 41
100.0
 42
100.0
 43
100.0
 50
270.0
  0
INSERT
  5
134F6
330
134EF
100
AcDbEntity
  8
寸法
 62
     0
 48
50.0
370
    -2
100
AcDbBlockReference
  2
_DOTSMALL
 10
5981.671157149674
 20
2371.501958245591
 30
0.0
 41
100.0
 42
100.0
 43
100.0
 50
90.0
  0
MTEXT
  5
134F7
330
134EF
100
AcDbEntity
  8
寸法
 62
     7
 48
50.0
100
AcDbMText
 10
5875.671157149673
 20
2655.153871953134
 30
0.0
 40
120.0
 41
0.0
 71
     5
 72
     1
  1
\A1;(50)
  7
STYLE1
 11
0.0000000000000001
 21
1.0
 31
0.0
 73
     1
 44
1.0
1001
ACAD
1000
MTEXTBEGIN
1070
    73
1070
     1
1070
    44
1040
1.0
1070
    74
1070
     0
1000
MTEXTEND
  0
POINT
  5
134F8
330
134EF
100
AcDbEntity
  8
DEFPOINTS
 62
     0
 48
50.0
100
AcDbPoint
 10
6363.789827176105
 20
2272.319098397104
 30
0.0
  0
POINT
  5
134F9
330
134EF
100
AcDbEntity
  8
DEFPOINTS
 62
     0
 48
50.0
100
AcDbPoint
 10
9322.560497758518
 20
2371.50195824559
 30
0.0
  0
POINT
  5
134FA
330
134EF
100
AcDbEntity
  8
DEFPOINTS
 62
     0
 48
50.0
100
AcDbPoint
 10
5981.671157149674
 20
2371.501958245591
 30
0.0
  0
ENDBLK
  5
134FB
330
134EF
100
AcDbEntity
  8
0
 48
50.0
100
AcDbBlockEnd
  0
BLOCK
  5
134FD
330
134FC
100
AcDbEntity
  8
0
 48
50.0
100
AcDbBlockBegin
  2
*D46
 70
     1
 10
0.0
 20
0.0
 30
0.0
  3
*D46
  1

  0
LINE
  5
134FE
330
134FC
100
AcDbEntity
  8
寸法
 62
     0
 48
50.0
370
    -2
100
AcDbLine
 10
6343.789827176105
 20
2272.319098397104
 30
0.0
 11
6097.711804370892
 21
2272.319098397104
 31
0.0
  0
LINE
  5
134FF
330
134FC
100
AcDbEntity
  8
寸法
 62
     0
 48
50.0
370
    -2
100
AcDbLine
 10
6307.975533552198
 20
2171.778473397104
 30
0.0
 11
6097.711804370892
 21
2171.778473397104
 31
0.0
  0
LINE
  5
13500
330
134FC
100
AcDbEntity
  8
寸法
 62
     0
 48
50.0
370
    -2
100
AcDbLine
 10
6157.711804370893
 20
2272.319098397104
 30
0.0
 11
6157.711804370893
 21
2171.778473397104
 31
0.0
  0
INSERT
  5
13501
330
134FC
100
AcDbEntity
  8
寸法
 62
     0
 48
50.0
370
    -2
100
AcDbBlockReference
  2
_DOTSMALL
 10
6157.711804370893
 20
2272.319098397104
 30
0.0
 41
100.0
 42
100.0
 43
100.0
 50
90.0
  0
INSERT
  5
13502
330
134FC
100
AcDbEntity
  8
寸法
 62
     0
 48
50.0
370
    -2
100
AcDbBlockReference
  2
_DOTSMALL
 10
6157.711804370893
 20
2171.778473397104
 30
0.0
 41
100.0
 42
100.0
 43
100.0
 50
270.0
  0
MTEXT
  5
13503
330
134FC
100
AcDbEntity
  8
寸法
 62
     7
 48
50.0
100
AcDbMText
 10
6057.711804370891
 20
2222.048785897105
 30
0.0
 40
120.0
 41
0.0
 71
     5
 72
     1
  1
\A1;50
  7
STYLE1
 11
0.0000000000000001
 21
1.0
 31
0.0
 73
     1
 44
1.0
1001
ACAD
1000
MTEXTBEGIN
1070
    73
1070
     1
1070
    44
1040
1.0
1070
    74
1070
     0
1000
MTEXTEND
  0
POINT
  5
13504
330
134FC
100
AcDbEntity
  8
DEFPOINTS
 62
     0
 48
50.0
100
AcDbPoint
 10
6363.789827176105
 20
2272.319098397104
 30
0.0
  0
POINT
  5
13505
330
134FC
100
AcDbEntity
  8
DEFPOINTS
 62
     0
 48
50.0
100
AcDbPoint
 10
6327.975533552198
 20
2171.778473397104
 30
0.0
  0
POINT
  5
13506
330
134FC
100
AcDbEntity
  8
DEFPOINTS
 62
     0
 48
50.0
100
AcDbPoint
 10
6157.711804370893
 20
2171.778473397104
 30
0.0
  0
ENDBLK
  5
13507
330
134FC
100
AcDbEntity
  8
0
 48
50.0
100
AcDbBlockEnd
  0
BLOCK
  5
13689
330
1367E
100
AcDbEntity
  8
0
 48
50.0
100
AcDbBlockBegin
  2
*D48
 70
     1
 10
0.0
 20
0.0
 30
0.0
  3
*D48
  1

  0
LINE
  5
136D5
330
1367E
100
AcDbEntity
  8
寸法
 62
     0
 48
50.0
370
    -2
100
AcDbLine
 10
6343.789827176104
 20
2272.319098397104
 30
0.0
 11
5921.671157149674
 21
2272.319098397104
 31
0.0
  0
LINE
  5
136D6
330
1367E
100
AcDbEntity
  8
寸法
 62
     0
 48
50.0
370
    -2
100
AcDbLine
 10
9302.560497758518
 20
2371.50195824559
 30
0.0
 11
5921.671157149674
 21
2371.501958245591
 31
0.0
  0
LINE
  5
136D7
330
1367E
100
AcDbEntity
  8
寸法
 62
     0
 48
50.0
370
    -2
100
AcDbLine
 10
5981.671157149674
 20
2272.319098397104
 30
0.0
 11
5981.671157149674
 21
2371.501958245591
 31
0.0
  0
LINE
  5
136D8
330
1367E
100
AcDbEntity
  8
寸法
 62
     0
 48
50.0
370
    -2
100
AcDbLine
 10
5981.671157149674
 20
2371.501958245591
 30
0.0
 11
5981.671157149674
 21
2809.106627858645
 31
0.0
  0
INSERT
  5
136D9
330
1367E
100
AcDbEntity
  8
寸法
 62
     0
 48
50.0
370
    -2
100
AcDbBlockReference
  2
_DOTSMALL
 10
5981.671157149674
 20
2272.319098397104
 30
0.0
 41
100.0
 42
100.0
 43
100.0
 50
270.0
  0
INSERT
  5
136DA
330
1367E
100
AcDbEntity
  8
寸法
 62
     0
 48
50.0
370
    -2
100
AcDbBlockReference
  2
_DOTSMALL
 10
5981.671157149674
 20
2371.501958245591
 30
0.0
 41
100.0
 42
100.0
 43
100.0
 50
90.0
  0
MTEXT
  5
136DB
330
1367E
100
AcDbEntity
  8
寸法
 62
     7
 48
50.0
100
AcDbMText
 10
5875.671157149673
 20
2655.153871953134
 30
0.0
 40
120.0
 41
0.0
 71
     5
 72
     1
  1
\A1;(50)
  7
STYLE1
 11
0.0000000000000001
 21
1.0
 31
0.0
 73
     1
 44
1.0
1001
ACAD
1000
MTEXTBEGIN
1070
    73
1070
     1
1070
    44
1040
1.0
1070
    74
1070
     0
1000
MTEXTEND
  0
POINT
  5
136DC
330
1367E
100
AcDbEntity
  8
DEFPOINTS
 62
     0
 48
50.0
100
AcDbPoint
 10
6363.789827176105
 20
2272.319098397104
 30
0.0
  0
POINT
  5
136DD
330
1367E
100
AcDbEntity
  8
DEFPOINTS
 62
     0
 48
50.0
100
AcDbPoint
 10
9322.560497758518
 20
2371.50195824559
 30
0.0
  0
POINT
  5
136DE
330
1367E
100
AcDbEntity
  8
DEFPOINTS
 62
     0
 48
50.0
100
AcDbPoint
 10
5981.671157149674
 20
2371.501958245591
 30
0.0
  0
ENDBLK
  5
1368A
330
1367E
100
AcDbEntity
  8
0
 48
50.0
100
AcDbBlockEnd
  0
BLOCK
  5
13695
330
1368B
100
AcDbEntity
  8
0
 48
50.0
100
AcDbBlockBegin
  2
*D49
 70
     1
 10
0.0
 20
0.0
 30
0.0
  3
*D49
  1

  0
LINE
  5
136DF
330
1368B
100
AcDbEntity
  8
寸法
 62
     0
 48
50.0
370
    -2
100
AcDbLine
 10
6343.789827176105
 20
2272.319098397104
 30
0.0
 11
6097.711804370892
 21
2272.319098397104
 31
0.0
  0
LINE
  5
136E0
330
1368B
100
AcDbEntity
  8
寸法
 62
     0
 48
50.0
370
    -2
100
AcDbLine
 10
6307.975533552198
 20
2171.778473397104
 30
0.0
 11
6097.711804370892
 21
2171.778473397104
 31
0.0
  0
LINE
  5
136E1
330
1368B
100
AcDbEntity
  8
寸法
 62
     0
 48
50.0
370
    -2
100
AcDbLine
 10
6157.711804370893
 20
2272.319098397104
 30
0.0
 11
6157.711804370893
 21
2171.778473397104
 31
0.0
  0
INSERT
  5
136E2
330
1368B
100
AcDbEntity
  8
寸法
 62
     0
 48
50.0
370
    -2
100
AcDbBlockReference
  2
_DOTSMALL
 10
6157.711804370893
 20
2272.319098397104
 30
0.0
 41
100.0
 42
100.0
 43
100.0
 50
90.0
  0
INSERT
  5
136E3
330
1368B
100
AcDbEntity
  8
寸法
 62
     0
 48
50.0
370
    -2
100
AcDbBlockReference
  2
_DOTSMALL
 10
6157.711804370893
 20
2171.778473397104
 30
0.0
 41
100.0
 42
100.0
 43
100.0
 50
270.0
  0
MTEXT
  5
136E4
330
1368B
100
AcDbEntity
  8
寸法
 62
     7
 48
50.0
100
AcDbMText
 10
6057.711804370891
 20
2222.048785897105
 30
0.0
 40
120.0
 41
0.0
 71
     5
 72
     1
  1
\A1;50
  7
STYLE1
 11
0.0000000000000001
 21
1.0
 31
0.0
 73
     1
 44
1.0
1001
ACAD
1000
MTEXTBEGIN
1070
    73
1070
     1
1070
    44
1040
1.0
1070
    74
1070
     0
1000
MTEXTEND
  0
POINT
  5
136E5
330
1368B
100
AcDbEntity
  8
DEFPOINTS
 62
     0
 48
50.0
100
AcDbPoint
 10
6363.789827176105
 20
2272.319098397104
 30
0.0
  0
POINT
  5
136E6
330
1368B
100
AcDbEntity
  8
DEFPOINTS
 62
     0
 48
50.0
100
AcDbPoint
 10
6327.975533552198
 20
2171.778473397104
 30
0.0
  0
POINT
  5
136E7
330
1368B
100
AcDbEntity
  8
DEFPOINTS
 62
     0
 48
50.0
100
AcDbPoint
 10
6157.711804370893
 20
2171.778473397104
 30
0.0
  0
ENDBLK
  5
13696
330
1368B
100
AcDbEntity
  8
0
 48
50.0
100
AcDbBlockEnd
  0
BLOCK
  5
136A1
330
13697
100
AcDbEntity
  8
0
 48
50.0
100
AcDbBlockBegin
  2
*D50
 70
     1
 10
0.0
 20
0.0
 30
0.0
  3
*D50
  1

  0
LINE
  5
136E8
330
13697
100
AcDbEntity
  8
寸法
 62
     0
 48
50.0
370
    -2
100
AcDbLine
 10
6343.789827176105
 20
2272.319098397104
 30
0.0
 11
5921.671157149674
 21
2272.319098397104
 31
0.0
  0
LINE
  5
136E9
330
13697
100
AcDbEntity
  8
寸法
 62
     0
 48
50.0
370
    -2
100
AcDbLine
 10
6851.142525974295
 20
1371.653473397103
 30
0.0
 11
5921.671157149674
 21
1371.653473397103
 31
0.0
  0
LINE
  5
136EA
330
13697
100
AcDbEntity
  8
寸法
 62
     0
 48
50.0
370
    -2
100
AcDbLine
 10
5981.671157149675
 20
2272.319098397104
 30
0.0
 11
5981.671157149674
 21
1371.653473397103
 31
0.0
  0
INSERT
  5
136EB
330
13697
100
AcDbEntity
  8
寸法
 62
     0
 48
50.0
370
    -2
100
AcDbBlockReference
  2
_DOTSMALL
 10
5981.671157149675
 20
2272.319098397104
 30
0.0
 41
100.0
 42
100.0
 43
100.0
 50
90.0
  0
INSERT
  5
136EC
330
13697
100
AcDbEntity
  8
寸法
 62
     0
 48
50.0
370
    -2
100
AcDbBlockReference
  2
_DOTSMALL
 10
5981.671157149674
 20
1371.653473397103
 30
0.0
 41
100.0
 42
100.0
 43
100.0
 50
270.0
  0
MTEXT
  5
136ED
330
13697
100
AcDbEntity
  8
寸法
 62
     7
 48
50.0
100
AcDbMText
 10
5881.671157149674
 20
1821.986285897105
 30
0.0
 40
120.0
 41
0.0
 71
     5
 72
     1
  1
\A1;450
  7
STYLE1
 11
0.0000000000000001
 21
1.0
 31
0.0
 73
     1
 44
1.0
1001
ACAD
1000
MTEXTBEGIN
1070
    73
1070
     1
1070
    44
1040
1.0
1070
    74
1070
     0
1000
MTEXTEND
  0
POINT
  5
136EE
330
13697
100
AcDbEntity
  8
DEFPOINTS
 62
     0
 48
50.0
100
AcDbPoint
 10
6363.789827176105
 20
2272.319098397104
 30
0.0
  0
POINT
  5
136EF
330
13697
100
AcDbEntity
  8
DEFPOINTS
 62
     0
 48
50.0
100
AcDbPoint
 10
6871.142525974295
 20
1371.653473397103
 30
0.0
  0
POINT
  5
136F0
330
13697
100
AcDbEntity
  8
DEFPOINTS
 62
     0
 48
50.0
100
AcDbPoint
 10
5981.671157149674
 20
1371.653473397103
 30
0.0
  0
ENDBLK
  5
136A2
330
13697
100
AcDbEntity
  8
0
 48
50.0
100
AcDbBlockEnd
  0
BLOCK
  5
136AD
330
136A3
100
AcDbEntity
  8
0
 48
50.0
100
AcDbBlockBegin
  2
*D51
 70
     1
 10
0.0
 20
0.0
 30
0.0
  3
*D51
  1

  0
LINE
  5
136F1
330
136A3
100
AcDbEntity
  8
寸法
 62
     0
 48
50.0
370
    -2
100
AcDbLine
 10
7487.206150475266
 20
1730.799723397104
 30
0.0
 11
6102.345878162889
 21
1730.799723397104
 31
0.0
  0
LINE
  5
136F2
330
136A3
100
AcDbEntity
  8
寸法
 62
     0
 48
50.0
370
    -2
100
AcDbLine
 10
6851.142525974295
 20
1371.653473397103
 30
0.0
 11
6102.345878162889
 21
1371.653473397103
 31
0.0
  0
LINE
  5
136F3
330
136A3
100
AcDbEntity
  8
寸法
 62
     0
 48
50.0
370
    -2
100
AcDbLine
 10
6162.34587816289
 20
1730.799723397104
 30
0.0
 11
6162.34587816289
 21
1371.653473397103
 31
0.0
  0
INSERT
  5
136F4
330
136A3
100
AcDbEntity
  8
寸法
 62
     0
 48
50.0
370
    -2
100
AcDbBlockReference
  2
_DOTSMALL
 10
6162.34587816289
 20
1730.799723397104
 30
0.0
 41
100.0
 42
100.0
 43
100.0
 50
90.0
  0
INSERT
  5
136F5
330
136A3
100
AcDbEntity
  8
寸法
 62
     0
 48
50.0
370
    -2
100
AcDbBlockReference
  2
_DOTSMALL
 10
6162.34587816289
 20
1371.653473397103
 30
0.0
 41
100.0
 42
100.0
 43
100.0
 50
270.0
  0
MTEXT
  5
136F6
330
136A3
100
AcDbEntity
  8
寸法
 62
     7
 48
50.0
100
AcDbMText
 10
6062.34587816289
 20
1515.026598397103
 30
0.0
 40
120.0
 41
0.0
 71
     5
 72
     1
  1
\A1;180
  7
STYLE1
 11
0.0000000000000001
 21
1.0
 31
0.0
 73
     1
 44
1.0
1001
ACAD
1000
MTEXTBEGIN
1070
    73
1070
     1
1070
    44
1040
1.0
1070
    74
1070
     0
1000
MTEXTEND
  0
POINT
  5
136F7
330
136A3
100
AcDbEntity
  8
DEFPOINTS
 62
     0
 48
50.0
100
AcDbPoint
 10
7507.206150475266
 20
1730.799723397104
 30
0.0
  0
POINT
  5
136F8
330
136A3
100
AcDbEntity
  8
DEFPOINTS
 62
     0
 48
50.0
100
AcDbPoint
 10
6871.142525974295
 20
1371.653473397103
 30
0.0
  0
POINT
  5
136F9
330
136A3
100
AcDbEntity
  8
DEFPOINTS
 62
     0
 48
50.0
100
AcDbPoint
 10
6162.34587816289
 20
1371.653473397103
 30
0.0
  0
ENDBLK
  5
136AE
330
136A3
100
AcDbEntity
  8
0
 48
50.0
100
AcDbBlockEnd
  0
BLOCK
  5
136B9
330
136AF
100
AcDbEntity
  8
0
 48
50.0
100
AcDbBlockBegin
  2
*D52
 70
     1
 10
0.0
 20
0.0
 30
0.0
  3
*D52
  1

  0
LINE
  5
136FA
330
136AF
100
AcDbEntity
  8
寸法
 62
     0
 48
50.0
370
    -2
100
AcDbLine
 10
6307.975533552198
 20
2171.778473397104
 30
0.0
 11
6102.34587816289
 21
2171.778473397104
 31
0.0
  0
LINE
  5
136FB
330
136AF
100
AcDbEntity
  8
寸法
 62
     0
 48
50.0
370
    -2
100
AcDbLine
 10
7502.206150475267
 20
1730.799723397104
 30
0.0
 11
6102.345878162889
 21
1730.799723397104
 31
0.0
  0
LINE
  5
136FC
330
136AF
100
AcDbEntity
  8
寸法
 62
     0
 48
50.0
370
    -2
100
AcDbLine
 10
6162.345878162891
 20
2171.778473397104
 30
0.0
 11
6162.34587816289
 21
1730.799723397104
 31
0.0
  0
INSERT
  5
136FD
330
136AF
100
AcDbEntity
  8
寸法
 62
     0
 48
50.0
370
    -2
100
AcDbBlockReference
  2
_DOTSMALL
 10
6162.345878162891
 20
2171.778473397104
 30
0.0
 41
100.0
 42
100.0
 43
100.0
 50
90.0
  0
INSERT
  5
136FE
330
136AF
100
AcDbEntity
  8
寸法
 62
     0
 48
50.0
370
    -2
100
AcDbBlockReference
  2
_DOTSMALL
 10
6162.34587816289
 20
1730.799723397104
 30
0.0
 41
100.0
 42
100.0
 43
100.0
 50
270.0
  0
MTEXT
  5
136FF
330
136AF
100
AcDbEntity
  8
寸法
 62
     7
 48
50.0
100
AcDbMText
 10
6062.334067139268
 20
1951.289098397104
 30
0.0
 40
120.0
 41
0.0
 71
     5
 72
     1
  1
\A1;220
  7
STYLE1
 11
0.0000000000000001
 21
1.0
 31
0.0
 73
     1
 44
1.0
1001
ACAD
1000
MTEXTBEGIN
1070
    73
1070
     1
1070
    44
1040
1.0
1070
    74
1070
     0
1000
MTEXTEND
  0
POINT
  5
13700
330
136AF
100
AcDbEntity
  8
DEFPOINTS
 62
     0
 48
50.0
100
AcDbPoint
 10
6327.975533552198
 20
2171.778473397104
 30
0.0
  0
POINT
  5
13701
330
136AF
100
AcDbEntity
  8
DEFPOINTS
 62
     0
 48
50.0
100
AcDbPoint
 10
7522.206150475266
 20
1730.799723397104
 30
0.0
  0
POINT
  5
13702
330
136AF
100
AcDbEntity
  8
DEFPOINTS
 62
     0
 48
50.0
100
AcDbPoint
 10
6162.34587816289
 20
1730.799723397104
 30
0.0
  0
ENDBLK
  5
136BA
330
136AF
100
AcDbEntity
  8
0
 48
50.0
100
AcDbBlockEnd
  0
BLOCK
  5
136C5
330
136BB
100
AcDbEntity
  8
0
 48
50.0
100
AcDbBlockBegin
  2
*D53
 70
     1
 10
0.0
 20
0.0
 30
0.0
  3
*D53
  1

  0
LINE
  5
13703
330
136BB
100
AcDbEntity
  8
寸法
 62
     0
 48
50.0
370
    -2
100
AcDbLine
 10
6967.356645224433
 20
1041.753473397105
 30
0.0
 11
6967.356645224433
 21
719.5662246076198
 31
0.0
  0
LINE
  5
13704
330
136BB
100
AcDbEntity
  8
寸法
 62
     0
 48
50.0
370
    -2
100
AcDbLine
 10
8167.356645224433
 20
1041.753473397105
 30
0.0
 11
8167.356645224433
 21
719.5662246076198
 31
0.0
  0
LINE
  5
13705
330
136BB
100
AcDbEntity
  8
寸法
 62
     0
 48
50.0
370
    -2
100
AcDbLine
 10
6967.356645224433
 20
779.5662246076199
 30
0.0
 11
8167.356645224433
 21
779.5662246076199
 31
0.0
  0
INSERT
  5
13706
330
136BB
100
AcDbEntity
  8
寸法
 62
     0
 48
50.0
370
    -2
100
AcDbBlockReference
  2
_DOTSMALL
 10
6967.356645224433
 20
779.5662246076199
 30
0.0
 41
100.0
 42
100.0
 43
100.0
 50
180.0
  0
INSERT
  5
13707
330
136BB
100
AcDbEntity
  8
寸法
 62
     0
 48
50.0
370
    -2
100
AcDbBlockReference
  2
_DOTSMALL
 10
8167.356645224433
 20
779.5662246076199
 30
0.0
 41
100.0
 42
100.0
 43
100.0
  0
MTEXT
  5
13708
330
136BB
100
AcDbEntity
  8
寸法
 62
     7
 48
50.0
100
AcDbMText
 10
7567.356645224433
 20
879.5662246076199
 30
0.0
 40
120.0
 41
0.0
 71
     5
 72
     1
  1
\A1;600
  7
STYLE1
 73
     1
 44
1.0
1001
ACAD
1000
MTEXTBEGIN
1070
    73
1070
     1
1070
    44
1040
1.0
1070
    74
1070
     0
1000
MTEXTEND
  0
POINT
  5
13709
330
136BB
100
AcDbEntity
  8
DEFPOINTS
 62
     0
 48
50.0
100
AcDbPoint
 10
6967.356645224433
 20
1061.753473397105
 30
0.0
  0
POINT
  5
1370A
330
136BB
100
AcDbEntity
  8
DEFPOINTS
 62
     0
 48
50.0
100
AcDbPoint
 10
8167.356645224433
 20
1061.753473397105
 30
0.0
  0
POINT
  5
1370B
330
136BB
100
AcDbEntity
  8
DEFPOINTS
 62
     0
 48
50.0
100
AcDbPoint
 10
8167.356645224433
 20
779.5662246076199
 30
0.0
  0
ENDBLK
  5
136C6
330
136BB
100
AcDbEntity
  8
0
 48
50.0
100
AcDbBlockEnd
  0
BLOCK
  5
136D3
330
136C7
100
AcDbEntity
  8
0
 48
50.0
100
AcDbBlockBegin
  2
*D54
 70
     1
 10
0.0
 20
0.0
 30
0.0
  3
*D54
  1

  0
LINE
  5
1370C
330
136C7
100
AcDbEntity
  8
寸法
 62
     0
 48
50.0
370
    -2
100
AcDbLine
 10
6851.142525974303
 20
1371.653473397103
 30
0.0
 11
5921.671157149674
 21
1371.653473397103
 31
0.0
  0
LINE
  5
1370D
330
136C7
100
AcDbEntity
  8
寸法
 62
     0
 48
50.0
370
    -2
100
AcDbLine
 10
6851.142525974295
 20
1271.753473397105
 30
0.0
 11
5921.671157149674
 21
1271.753473397105
 31
0.0
  0
LINE
  5
1370E
330
136C7
100
AcDbEntity
  8
寸法
 62
     0
 48
50.0
370
    -2
100
AcDbLine
 10
5981.671157149674
 20
1371.653473397103
 30
0.0
 11
5981.671157149674
 21
1471.653473397103
 31
0.0
  0
LINE
  5
1370F
330
136C7
100
AcDbEntity
  8
寸法
 62
     0
 48
50.0
370
    -2
100
AcDbLine
 10
5981.671157149674
 20
1271.753473397105
 30
0.0
 11
5981.671157149674
 21
1171.753473397105
 31
0.0
  0
LINE
  5
13710
330
136C7
100
AcDbEntity
  8
寸法
 62
     0
 48
50.0
370
    -2
100
AcDbLine
 10
5981.671157149674
 20
1371.653473397103
 30
0.0
 11
5981.671157149674
 21
1271.753473397105
 31
0.0
  0
INSERT
  5
13711
330
136C7
100
AcDbEntity
  8
寸法
 62
     0
 48
50.0
370
    -2
100
AcDbBlockReference
  2
_DOTSMALL
 10
5981.671157149674
 20
1371.653473397103
 30
0.0
 41
100.0
 42
100.0
 43
100.0
 50
270.0
  0
INSERT
  5
13712
330
136C7
100
AcDbEntity
  8
寸法
 62
     0
 48
50.0
370
    -2
100
AcDbBlockReference
  2
_DOTSMALL
 10
5981.671157149674
 20
1271.753473397105
 30
0.0
 41
100.0
 42
100.0
 43
100.0
 50
90.0
  0
MTEXT
  5
13713
330
136C7
100
AcDbEntity
  8
寸法
 62
     7
 48
50.0
100
AcDbMText
 10
5881.671157149674
 20
1321.703473397105
 30
0.0
 40
120.0
 41
0.0
 71
     5
 72
     1
  1
\A1;50
  7
STYLE1
 11
0.0000000000000001
 21
1.0
 31
0.0
 73
     1
 44
1.0
1001
ACAD
1000
MTEXTBEGIN
1070
    73
1070
     1
1070
    44
1040
1.0
1070
    74
1070
     0
1000
MTEXTEND
  0
POINT
  5
13714
330
136C7
100
AcDbEntity
  8
DEFPOINTS
 62
     0
 48
50.0
100
AcDbPoint
 10
6871.142525974303
 20
1371.653473397103
 30
0.0
  0
POINT
  5
13715
330
136C7
100
AcDbEntity
  8
DEFPOINTS
 62
     0
 48
50.0
100
AcDbPoint
 10
6871.142525974295
 20
1271.753473397105
 30
0.0
  0
POINT
  5
13716
330
136C7
100
AcDbEntity
  8
DEFPOINTS
 62
     0
 48
50.0
100
AcDbPoint
 10
5981.671157149674
 20
1271.753473397105
 30
0.0
  0
ENDBLK
  5
136D4
330
136C7
100
AcDbEntity
  8
0
 48
50.0
100
AcDbBlockEnd
  0
ENDSEC
  0
SECTION
  2
ENTITIES
  0
LINE
  5
10B56
330
747D
100
AcDbEntity
  8
補助
  6
PHANTOM
 62
   230
 48
50.0
100
AcDbLine
 10
140.0
 20
0.0
 30
0.0
 11
139.9999999999995
 21
11409.6
 31
0.0
  0
LINE
  5
10B57
330
747D
100
AcDbEntity
  8
補助
  6
PHANTOM
 62
   230
 48
50.0
100
AcDbLine
 10
139.9999999999995
 20
11409.6
 30
0.0
 11
16307.2
 21
11409.6
 31
0.0
  0
LINE
  5
10B59
330
747D
100
AcDbEntity
  8
仕様書枠
  6
Continuous
 48
50.0
100
AcDbLine
 10
13107.2
 20
1200.0
 30
0.0
 11
13107.2
 21
-0.0000000000000729
 31
0.0
  0
LINE
  5
10B5C
330
747D
100
AcDbEntity
  8
仕様書枠
 48
50.0
100
AcDbLine
 10
16307.2
 20
1200.0
 30
0.0
 11
16307.2
 21
-0.0000000000000909
 31
0.0
  0
LINE
  5
10B5D
330
747D
100
AcDbEntity
  8
仕様書枠
 48
50.0
100
AcDbLine
 10
140.0
 20
0.0
 30
0.0
 11
16307.2
 21
-0.0000000000000909
 31
0.0
  0
LINE
  5
10B5E
330
747D
100
AcDbEntity
  8
補助
  6
PHANTOM
 62
   230
 48
50.0
100
AcDbLine
 10
16307.2
 20
11409.6
 30
0.0
 11
16307.2
 21
1200.0
 31
0.0
  0
LINE
  5
10B6C
330
747D
100
AcDbEntity
  8
仕様書枠
 48
50.0
100
AcDbLine
 10
13107.2
 20
1200.0
 30
0.0
 11
16307.2
 21
1200.0
 31
0.0
  0
LINE
  5
10B6D
330
747D
100
AcDbEntity
  8
補助
  6
PHANTOM
 62
   230
 48
50.0
100
AcDbLine
 10
13107.2
 20
11409.6
 30
0.0
 11
13107.2
 21
4800.0
 31
0.0
  0
LINE
  5
10B6F
330
747D
100
AcDbEntity
  8
補助
  6
PHANTOM
 62
   230
 48
50.0
100
AcDbLine
 10
13107.2
 20
4800.0
 30
0.0
 11
16307.2
 21
4800.0
 31
0.0
  0
LINE
  5
10B72
330
747D
100
AcDbEntity
  8
文字
 62
     7
 48
50.0
100
AcDbLine
 10
13187.2
 20
400.0
 30
0.0
 11
16227.2
 21
400.0
 31
0.0
  0
TEXT
  5
10B73
330
747D
100
AcDbEntity
  8
文字
 48
50.0
100
AcDbText
 10
13162.9790565769
 20
895.0906074299405
 30
0.0
 40
200.0
  1
基 礎 図
  7
STYLE2
100
AcDbText
  0
TEXT
  5
10B74
330
747D
100
AcDbEntity
  8
文字
 48
50.0
100
AcDbText
 10
13201.43669998441
 20
477.2740661031255
 30
0.0
 40
160.0
  1
機種名
  7
STYLE2
100
AcDbText
  0
TEXT
  5
10B75
330
747D
100
AcDbEntity
  8
文字
 48
50.0
100
AcDbText
 10
13209.4053442172
 20
228.5435242569016
 30
0.0
 40
100.0
  1
○間口奥行寸法は柱芯寸法です。
  7
STYLE2
100
AcDbText
  0
LINE
  5
10B7B
330
747D
100
AcDbEntity
  8
仕様書枠
 48
50.0
100
AcDbLine
 10
13107.2
 20
800.0
 30
0.0
 11
14251.2
 21
800.0
 31
0.0
  0
LINE
  5
10B88
330
747D
100
AcDbEntity
  8
仕様書枠
  6
Continuous
 48
50.0
100
AcDbLine
 10
14251.2
 20
1200.0
 30
0.0
 11
14251.2
 21
800.0
 31
0.0
  0
TEXT
  5
10EA8
330
747D
100
AcDbEntity
  8
文字
 48
50.0
100
AcDbText
 10
14835.6504045085
 20
838.2527270729188
 30
0.0
 40
100.0
  1
～一般型～
  7
STYLE2
100
AcDbText
  0
LINE
  5
11793
330
747D
100
AcDbEntity
  8
点線
 48
50.0
100
AcDbLine
 10
6623.600000000002
 20
10206.74038870937
 30
0.0
 11
6623.600000000002
 21
5066.740388709376
 31
0.0
  0
LINE
  5
11794
330
747D
100
AcDbEntity
  8
点線
 48
50.0
100
AcDbLine
 10
6623.600000000002
 20
5066.740388709376
 30
0.0
 11
9823.600000000002
 21
5066.740388709376
 31
0.0
  0
LINE
  5
11795
330
747D
100
AcDbEntity
  8
点線
 48
50.0
100
AcDbLine
 10
9823.600000000002
 20
5066.740388709376
 30
0.0
 11
9823.600000000002
 21
10206.74038870937
 31
0.0
  0
LINE
  5
11796
330
747D
100
AcDbEntity
  8
点線
 48
50.0
100
AcDbLine
 10
9823.600000000002
 20
10206.74038870937
 30
0.0
 11
6623.600000000002
 21
10206.74038870937
 31
0.0
  0
LINE
  5
1179D
330
747D
100
AcDbEntity
  8
センター
 48
50.0
100
AcDbLine
 10
9873.600000000001
 20
9286.740388709375
 30
0.0
 11
9373.600000000005
 21
9286.740388709375
 31
0.0
  0
LINE
  5
1179E
330
747D
100
AcDbEntity
  8
センター
 48
50.0
100
AcDbLine
 10
6573.600000000002
 20
5986.740388709378
 30
0.0
 11
7073.600000000002
 21
5986.740388709377
 31
0.0
  0
LINE
  5
117A1
330
747D
100
AcDbEntity
  8
センター
 48
50.0
100
AcDbLine
 10
6573.600000000002
 20
7636.740388709377
 30
0.0
 11
7073.600000000002
 21
7636.740388709377
 31
0.0
  0
LINE
  5
117A3
330
747D
100
AcDbEntity
  8
センター
 48
50.0
100
AcDbLine
 10
6823.600000000002
 20
9536.740388709375
 30
0.0
 11
6823.600000000002
 21
9036.740388709377
 31
0.0
  0
LINE
  5
117A5
330
747D
100
AcDbEntity
  8
センター
 48
50.0
100
AcDbLine
 10
9623.600000000003
 20
5736.740388709378
 30
0.0
 11
9623.600000000003
 21
6236.740388709378
 31
0.0
  0
LINE
  5
117C4
330
747D
100
AcDbEntity
  8
文字
 48
50.0
100
AcDbLine
 10
6853.600000000003
 20
9316.740388709375
 30
0.0
 11
6793.600000000002
 21
9316.740388709375
 31
0.0
  0
LINE
  5
117C5
330
747D
100
AcDbEntity
  8
文字
 48
50.0
100
AcDbLine
 10
6853.600000000003
 20
9256.740388709374
 30
0.0
 11
6793.600000000002
 21
9256.740388709374
 31
0.0
  0
LINE
  5
117C6
330
747D
100
AcDbEntity
  8
文字
 48
50.0
100
AcDbLine
 10
6793.600000000002
 20
9316.740388709376
 30
0.0
 11
6793.600000000002
 21
9256.740388709374
 31
0.0
  0
LINE
  5
117C7
330
747D
100
AcDbEntity
  8
文字
 48
50.0
100
AcDbLine
 10
6853.600000000003
 20
9316.740388709376
 30
0.0
 11
6853.600000000003
 21
9256.740388709374
 31
0.0
  0
LINE
  5
117C8
330
747D
100
AcDbEntity
  8
文字
 48
50.0
100
AcDbLine
 10
9653.600000000004
 20
9316.740388709376
 30
0.0
 11
9653.600000000004
 21
9256.740388709374
 31
0.0
  0
LINE
  5
117C9
330
747D
100
AcDbEntity
  8
文字
 48
50.0
100
AcDbLine
 10
9593.600000000002
 20
9316.740388709376
 30
0.0
 11
9593.600000000002
 21
9256.740388709374
 31
0.0
  0
LINE
  5
117CA
330
747D
100
AcDbEntity
  8
文字
 48
50.0
100
AcDbLine
 10
9653.600000000004
 20
9256.740388709374
 30
0.0
 11
9593.600000000002
 21
9256.740388709374
 31
0.0
  0
LINE
  5
117CB
330
747D
100
AcDbEntity
  8
文字
 48
50.0
100
AcDbLine
 10
9653.600000000004
 20
9316.740388709375
 30
0.0
 11
9593.600000000002
 21
9316.740388709375
 31
0.0
  0
LINE
  5
117CC
330
747D
100
AcDbEntity
  8
文字
 48
50.0
100
AcDbLine
 10
6853.600000000003
 20
7666.740388709375
 30
0.0
 11
6853.600000000003
 21
7606.740388709375
 31
0.0
  0
LINE
  5
117CD
330
747D
100
AcDbEntity
  8
文字
 48
50.0
100
AcDbLine
 10
6793.600000000002
 20
7666.740388709375
 30
0.0
 11
6793.600000000002
 21
7606.740388709375
 31
0.0
  0
LINE
  5
117CE
330
747D
100
AcDbEntity
  8
文字
 48
50.0
100
AcDbLine
 10
6853.600000000003
 20
7606.740388709375
 30
0.0
 11
6793.600000000002
 21
7606.740388709375
 31
0.0
  0
LINE
  5
117CF
330
747D
100
AcDbEntity
  8
文字
 48
50.0
100
AcDbLine
 10
6853.600000000003
 20
7666.740388709375
 30
0.0
 11
6793.600000000002
 21
7666.740388709375
 31
0.0
  0
LINE
  5
117D0
330
747D
100
AcDbEntity
  8
文字
 48
50.0
100
AcDbLine
 10
9653.600000000004
 20
7666.740388709377
 30
0.0
 11
9653.600000000004
 21
7606.740388709375
 31
0.0
  0
LINE
  5
117D1
330
747D
100
AcDbEntity
  8
文字
 48
50.0
100
AcDbLine
 10
9593.600000000002
 20
7666.740388709377
 30
0.0
 11
9593.600000000002
 21
7606.740388709375
 31
0.0
  0
LINE
  5
117D2
330
747D
100
AcDbEntity
  8
文字
 48
50.0
100
AcDbLine
 10
9653.600000000004
 20
7606.740388709375
 30
0.0
 11
9593.600000000002
 21
7606.740388709375
 31
0.0
  0
LINE
  5
117D3
330
747D
100
AcDbEntity
  8
文字
 48
50.0
100
AcDbLine
 10
9653.600000000004
 20
7666.740388709375
 30
0.0
 11
9593.600000000002
 21
7666.740388709375
 31
0.0
  0
LINE
  5
117D4
330
747D
100
AcDbEntity
  8
文字
 48
50.0
100
AcDbLine
 10
6853.600000000003
 20
6016.740388709377
 30
0.0
 11
6853.600000000003
 21
5956.740388709375
 31
0.0
  0
LINE
  5
117D5
330
747D
100
AcDbEntity
  8
文字
 48
50.0
100
AcDbLine
 10
6793.600000000002
 20
6016.740388709377
 30
0.0
 11
6793.600000000002
 21
5956.740388709375
 31
0.0
  0
LINE
  5
117D6
330
747D
100
AcDbEntity
  8
文字
 48
50.0
100
AcDbLine
 10
6853.600000000003
 20
5956.740388709375
 30
0.0
 11
6793.600000000002
 21
5956.740388709375
 31
0.0
  0
LINE
  5
117D7
330
747D
100
AcDbEntity
  8
文字
 48
50.0
100
AcDbLine
 10
6853.600000000003
 20
6016.740388709376
 30
0.0
 11
6793.600000000002
 21
6016.740388709376
 31
0.0
  0
LINE
  5
117D8
330
747D
100
AcDbEntity
  8
文字
 48
50.0
100
AcDbLine
 10
9653.600000000004
 20
6016.740388709377
 30
0.0
 11
9653.600000000004
 21
5956.740388709375
 31
0.0
  0
LINE
  5
117D9
330
747D
100
AcDbEntity
  8
文字
 48
50.0
100
AcDbLine
 10
9593.600000000002
 20
6016.740388709377
 30
0.0
 11
9593.600000000002
 21
5956.740388709375
 31
0.0
  0
LINE
  5
117DA
330
747D
100
AcDbEntity
  8
文字
 48
50.0
100
AcDbLine
 10
9653.600000000004
 20
5956.740388709375
 30
0.0
 11
9593.600000000002
 21
5956.740388709375
 31
0.0
  0
LINE
  5
117DB
330
747D
100
AcDbEntity
  8
文字
 48
50.0
100
AcDbLine
 10
9653.600000000004
 20
6016.740388709376
 30
0.0
 11
9593.600000000002
 21
6016.740388709376
 31
0.0
  0
LINE
  5
117F0
330
747D
100
AcDbEntity
  8
センター
 48
50.0
100
AcDbLine
 10
7073.600000000002
 20
9286.740388709375
 30
0.0
 11
6573.600000000002
 21
9286.740388709375
 31
0.0
  0
LINE
  5
117F1
330
747D
100
AcDbEntity
  8
センター
 48
50.0
100
AcDbLine
 10
9623.600000000005
 20
9036.740388709377
 30
0.0
 11
9623.600000000003
 21
9536.740388709379
 31
0.0
  0
LINE
  5
117F2
330
747D
100
AcDbEntity
  8
センター
 48
50.0
100
AcDbLine
 10
6823.600000000002
 20
7886.740388709377
 30
0.0
 11
6823.600000000002
 21
7386.740388709378
 31
0.0
  0
LINE
  5
117F3
330
747D
100
AcDbEntity
  8
センター
 48
50.0
100
AcDbLine
 10
9373.600000000001
 20
7636.740388709377
 30
0.0
 11
9873.600000000003
 21
7636.740388709378
 31
0.0
  0
LINE
  5
117F4
330
747D
100
AcDbEntity
  8
センター
 48
50.0
100
AcDbLine
 10
6823.600000000002
 20
6236.740388709377
 30
0.0
 11
6823.600000000002
 21
5736.740388709377
 31
0.0
  0
LINE
  5
117F5
330
747D
100
AcDbEntity
  8
センター
 48
50.0
100
AcDbLine
 10
9623.600000000005
 20
7386.740388709377
 30
0.0
 11
9623.600000000005
 21
7886.740388709378
 31
0.0
  0
LINE
  5
117F6
330
747D
100
AcDbEntity
  8
センター
 48
50.0
100
AcDbLine
 10
9373.600000000001
 20
5986.740388709378
 30
0.0
 11
9873.600000000003
 21
5986.740388709377
 31
0.0
  0
DIMENSION
  5
1187A
330
747D
100
AcDbEntity
  8
寸法
 48
50.0
100
AcDbDimension
  2
*D2
 10
6181.105727429236
 20
9286.740388709375
 30
0.0
 11
6081.064914864432
 21
9746.740388709376
 31
0.0
 12
4848.443425511843
 22
0.0
 32
0.0
 70
    32
 71
     5
 42
-1.0
  3
INABA_S40G
100
AcDbAlignedDimension
 13
6623.600000000002
 23
10206.74038870937
 33
0.0
 14
6573.600000000002
 24
9286.740388709375
 34
0.0
 50
90.0
100
AcDbRotatedDimension
  0
DIMENSION
  5
11886
330
747D
100
AcDbEntity
  8
寸法
 48
50.0
100
AcDbDimension
  2
*D3
 10
6181.105727429236
 20
7636.740388709377
 30
0.0
 11
6081.105727429235
 21
8461.740388709376
 31
0.0
 12
4848.443425511843
 22
0.0
 32
0.0
 70
    32
 71
     5
 42
-1.0
  3
INABA_S40G
100
AcDbAlignedDimension
 13
6573.600000000002
 23
9286.740388709375
 33
0.0
 14
6573.600000000002
 24
7636.740388709377
 34
0.0
 50
90.0
100
AcDbRotatedDimension
1001
ACAD
1000
DSTYLE
1002
{
1070
    75
1070
     1
1070
   279
1070
     1
1002
}
  0
DIMENSION
  5
11892
330
747D
100
AcDbEntity
  8
寸法
 48
50.0
100
AcDbDimension
  2
*D4
 10
6181.105727429236
 20
5986.740388709378
 30
0.0
 11
6081.105727429235
 21
6811.740388709377
 31
0.0
 12
4848.443425511843
 22
0.0
 32
0.0
 70
    32
 71
     5
 42
-1.0
  3
INABA_S40G
100
AcDbAlignedDimension
 13
6573.600000000002
 23
7636.740388709377
 33
0.0
 14
6573.600000000002
 24
5986.740388709378
 34
0.0
 50
90.0
100
AcDbRotatedDimension
1001
ACAD
1000
DSTYLE
1002
{
1070
    75
1070
     1
1070
   279
1070
     1
1002
}
  0
DIMENSION
  5
1189E
330
747D
100
AcDbEntity
  8
寸法
 48
50.0
100
AcDbDimension
  2
*D5
 10
6181.105727429236
 20
5066.740388709376
 30
0.0
 11
6081.064914864432
 21
5526.740388709377
 31
0.0
 12
4848.443425511843
 22
0.0
 32
0.0
 70
    32
 71
     5
 42
-1.0
  3
INABA_S40G
100
AcDbAlignedDimension
 13
6573.600000000002
 23
5986.740388709378
 33
0.0
 14
6623.600000000002
 24
5066.740388709376
 34
0.0
 50
90.0
100
AcDbRotatedDimension
1001
ACAD
1000
DSTYLE
1002
{
1070
    75
1070
     1
1070
   279
1070
     1
1002
}
  0
DIMENSION
  5
118AB
330
747D
100
AcDbEntity
  8
寸法
 48
50.0
100
AcDbDimension
  2
*D6
 10
5735.6148437017
 20
5066.740388709376
 30
0.0
 11
5635.614843701699
 21
7636.740388709377
 31
0.0
 12
4848.443425511843
 22
0.0
 32
0.0
 70
    32
  1
基礎寸法 <>
 71
     5
 42
-1.0
  3
INABA_S40G
100
AcDbAlignedDimension
 13
6623.600000000002
 23
10206.74038870937
 33
0.0
 14
6623.600000000002
 24
5066.740388709376
 34
0.0
 50
90.0
100
AcDbRotatedDimension
  0
DIMENSION
  5
118B8
330
747D
100
AcDbEntity
  8
寸法
 48
50.0
100
AcDbDimension
  2
*D7
 10
9923.6
 20
8140.635297426983
 30
0.0
 11
9203.599999999999
 21
8240.635297426983
 31
0.0
 12
2589.999999999998
 22
0.0
 32
0.0
 70
    32
 71
     5
 42
-1.0
  3
INABA_S40G
100
AcDbAlignedDimension
 13
9323.6
 23
7936.740388709376
 33
0.0
 14
9923.6
 24
7936.740388709376
 34
0.0
100
AcDbRotatedDimension
  0
DIMENSION
  5
118C5
330
747D
100
AcDbEntity
  8
寸法
 48
50.0
100
AcDbDimension
  2
*D8
 10
10197.46165700339
 20
7336.740388709376
 30
0.0
 11
9677.461657003389
 21
7636.740388709376
 31
0.0
 12
2589.999999999998
 22
0.0
 32
0.0
 70
    32
 71
     5
 42
-1.0
  3
INABA_S40G
100
AcDbAlignedDimension
 13
9923.6
 23
7936.740388709376
 33
0.0
 14
9923.6
 24
7336.740388709376
 34
0.0
 50
90.0
100
AcDbRotatedDimension
  0
DIMENSION
  5
118DA
330
747D
100
AcDbEntity
  8
寸法
 48
50.0
100
AcDbDimension
  2
*D9
 10
6823.600000000002
 20
4699.427037335172
 30
0.0
 11
6374.02913385827
 21
4699.427037335172
 31
0.0
 12
4848.443425511843
 22
0.0
 32
0.0
 70
   160
 71
     5
 42
-1.0
  3
INABA_S40G
100
AcDbAlignedDimension
 13
6623.600000000002
 23
5066.740388709376
 33
0.0
 14
6823.600000000002
 24
5736.740388709377
 34
0.0
100
AcDbRotatedDimension
  0
DIMENSION
  5
118E6
330
747D
100
AcDbEntity
  8
寸法
 48
50.0
100
AcDbDimension
  2
*D10
 10
9623.600000000003
 20
4699.427037335172
 30
0.0
 11
8223.600000000002
 21
4799.438848358794
 31
0.0
 12
-210.0000000000018
 22
0.0
 32
0.0
 70
    32
 71
     5
 42
-1.0
  3
INABA_S40G
100
AcDbAlignedDimension
 13
6823.600000000002
 23
5736.740388709377
 33
0.0
 14
9623.600000000003
 24
5736.740388709378
 34
0.0
100
AcDbRotatedDimension
1001
ACAD
1000
DSTYLE
1002
{
1070
    75
1070
     1
1070
   279
1070
     1
1002
}
  0
DIMENSION
  5
1190F
330
747D
100
AcDbEntity
  8
寸法
 48
50.0
100
AcDbDimension
  2
*D11
 10
9823.600000000002
 20
4700.024272680079
 30
0.0
 11
10073.17086614173
 21
4700.024272680079
 31
0.0
 12
5268.443425511843
 22
0.0
 32
0.0
 70
   160
 71
     5
 42
-1.0
  3
INABA_S40G
100
AcDbAlignedDimension
 13
9623.600000000003
 23
5736.740388709378
 33
0.0
 14
9823.600000000002
 24
5066.740388709376
 34
0.0
100
AcDbRotatedDimension
  0
DIMENSION
  5
11934
330
747D
100
AcDbEntity
  8
寸法
 48
50.0
100
AcDbDimension
  2
*D12
 10
9823.600000000002
 20
4335.453801511459
 30
0.0
 11
8223.600000000002
 21
4435.465612535081
 31
0.0
 12
-210.0000000000018
 22
0.0
 32
0.0
 70
    32
  1
基礎寸法 <>
 71
     5
 42
-1.0
  3
INABA_S40G
100
AcDbAlignedDimension
 13
6623.600000000002
 23
5066.740388709376
 33
0.0
 14
9823.600000000002
 24
5066.740388709377
 34
0.0
100
AcDbRotatedDimension
  0
LEADER
  5
11935
330
747D
100
AcDbEntity
  8
寸法
 48
50.0
100
AcDbLeader
  3
INABA_S40
 73
     0
 75
     1
 40
120.0
 41
144.0
 76
     3
 10
9623.600000000001
 20
7636.740388709377
 30
0.0
 10
9247.164338860491
 20
7143.277037240911
 30
0.0
 10
9147.164338860491
 20
7143.277037240911
 30
0.0
340
11936
  0
MTEXT
  5
11936
102
{ACAD_REACTORS
330
11935
102
}
330
747D
100
AcDbEntity
  8
寸法
 62
     7
 48
50.0
100
AcDbMText
 10
9107.16433886049
 20
7243.277037240911
 30
0.0
 40
120.0
 41
0.0
 71
     6
 72
     1
  1
\A1;柱
  7
STYLE1
 73
     1
 44
1.0
1001
ACAD
1000
MTEXTBEGIN
1070
    73
1070
     1
1070
    44
1040
1.0
1070
    74
1070
     0
1000
MTEXTEND
  0
MTEXT
  5
11B0C
330
747D
100
AcDbEntity
  8
寸法
 62
     7
 48
50.0
100
AcDbMText
 10
7414.577540237198
 20
9753.355387444379
 30
0.0
 40
120.0
 41
0.0
 71
     4
 72
     1
  1
\A1;床コンクリート打コテ押エ
  7
STYLE1
 73
     1
 44
1.0
1001
ACAD
1000
MTEXTBEGIN
1070
    73
1070
     1
1070
    44
1040
1.0
1070
    74
1070
     0
1000
MTEXTEND
  0
LINE
  5
11B0E
330
747D
100
AcDbEntity
  8
文字
 48
50.0
100
AcDbLine
 10
8223.600000000002
 20
8173.244330328811
 30
0.0
 11
8223.600000000002
 21
9531.021536520398
 31
0.0
  0
LINE
  5
11B10
330
747D
100
AcDbEntity
  8
文字
 48
50.0
100
AcDbLine
 10
8223.600000000002
 20
7100.236447089942
 30
0.0
 11
8223.600000000002
 21
5742.459240898356
 31
0.0
  0
LINE
  5
11B12
330
747D
100
AcDbEntity
  8
文字
 48
50.0
100
AcDbLine
 10
8223.600000000002
 20
5742.459240898356
 30
0.0
 11
8267.397710443754
 21
5905.914521529627
 31
0.0
  0
LINE
  5
11B13
330
747D
100
AcDbEntity
  8
文字
 48
50.0
100
AcDbLine
 10
8223.600000000002
 20
5742.459240898356
 30
0.0
 11
8179.802289556249
 21
5905.914521529627
 31
0.0
  0
LINE
  5
11B14
330
747D
100
AcDbEntity
  8
文字
 48
50.0
100
AcDbLine
 10
8223.600000000002
 20
9531.021536520398
 30
0.0
 11
8267.397710443754
 21
9367.566255889128
 31
0.0
  0
LINE
  5
11B15
330
747D
100
AcDbEntity
  8
文字
 48
50.0
100
AcDbLine
 10
8223.600000000002
 20
9531.021536520398
 30
0.0
 11
8179.802289556249
 21
9367.566255889128
 31
0.0
  0
MTEXT
  5
11B41
330
747D
100
AcDbEntity
  8
寸法
 62
     7
 48
50.0
100
AcDbMText
 10
8105.038478816812
 20
8177.470253112604
 30
0.0
 40
120.0
 41
0.0
 71
     4
 72
     1
  1
\A1;水勾配１／１００ 
  7
STYLE1
 11
0.0000000000000001
 21
1.0
 31
0.0
 73
     1
 44
1.0
1001
ACAD
1000
MTEXTBEGIN
1070
    73
1070
     1
1070
    44
1040
1.0
1070
    74
1070
     0
1000
MTEXTEND
  0
MTEXT
  5
11B43
330
747D
100
AcDbEntity
  8
寸法
 62
     7
 48
50.0
100
AcDbMText
 10
8105.038478816812
 20
5964.486169097829
 30
0.0
 40
120.0
 41
0.0
 71
     4
 72
     1
  1
\A1;水勾配１／１００ 
  7
STYLE1
 11
0.0000000000000001
 21
1.0
 31
0.0
 73
     1
 44
1.0
1001
ACAD
1000
MTEXTBEGIN
1070
    73
1070
     1
1070
    44
1040
1.0
1070
    74
1070
     0
1000
MTEXTEND
  0
LINE
  5
11EDB
330
747D
100
AcDbEntity
  8
寸法
 48
50.0
100
AcDbLine
 10
6823.600000000002
 20
9036.740388709379
 30
0.0
 11
6823.600000000002
 21
7886.740388709377
 31
0.0
  0
LINE
  5
11EE0
330
747D
100
AcDbEntity
  8
寸法
 48
50.0
100
AcDbLine
 10
6823.600000000002
 20
7386.740388709378
 30
0.0
 11
6823.600000000002
 21
7037.984839121637
 31
0.0
  0
LINE
  5
11EE1
330
747D
100
AcDbEntity
  8
寸法
 48
50.0
100
AcDbLine
 10
6823.600000000002
 20
7037.984839121637
 30
0.0
 11
7426.712002219833
 21
7037.984839121637
 31
0.0
  0
LINE
  5
11EE2
330
747D
100
AcDbEntity
  8
寸法
 48
50.0
100
AcDbLine
 10
7426.712002219833
 20
7037.984839121637
 30
0.0
 11
7247.156384581536
 21
6989.873056378984
 31
0.0
  0
LINE
  5
11EE3
330
747D
100
AcDbEntity
  8
寸法
 48
50.0
100
AcDbLine
 10
7247.156384581536
 20
6989.873056378984
 30
0.0
 11
7247.156384581536
 21
7099.764087914905
 31
0.0
  0
LINE
  5
11EEC
330
747D
100
AcDbEntity
  8
寸法
 48
50.0
100
AcDbLine
 10
6823.600000000002
 20
9536.740388709375
 30
0.0
 11
6823.600000000002
 21
10427.32477625326
 31
0.0
  0
LINE
  5
11EED
330
747D
100
AcDbEntity
  8
寸法
 48
50.0
100
AcDbLine
 10
6823.600000000002
 20
10427.32477625326
 30
0.0
 11
7426.712002219833
 21
10427.32477625326
 31
0.0
  0
LINE
  5
11EEE
330
747D
100
AcDbEntity
  8
寸法
 48
50.0
100
AcDbLine
 10
7426.712002219833
 20
10427.32477625326
 30
0.0
 11
7247.156384581536
 21
10475.43655899591
 31
0.0
  0
LINE
  5
11EEF
330
747D
100
AcDbEntity
  8
寸法
 48
50.0
100
AcDbLine
 10
7247.156384581536
 20
10475.43655899591
 30
0.0
 11
7247.156384581536
 21
10365.54552745999
 31
0.0
  0
MTEXT
  5
11EF1
330
747D
100
AcDbEntity
  8
寸法
 62
     7
 48
50.0
100
AcDbMText
 10
7503.385222400478
 20
7051.535119830258
 30
0.0
 40
120.0
 41
0.0
 71
     4
 72
     1
  1
A'
  7
STYLE1
 73
     1
 44
1.0
1001
ACAD
1000
MTEXTBEGIN
1070
    73
1070
     1
1070
    44
1040
1.0
1070
    74
1070
     0
1000
MTEXTEND
  0
MTEXT
  5
11EF2
330
747D
100
AcDbEntity
  8
寸法
 62
     7
 48
50.0
100
AcDbMText
 10
7503.385222400478
 20
10440.87505696188
 30
0.0
 40
120.0
 41
0.0
 71
     4
 72
     1
  1
A
  7
STYLE1
 73
     1
 44
1.0
1001
ACAD
1000
MTEXTBEGIN
1070
    73
1070
     1
1070
    44
1040
1.0
1070
    74
1070
     0
1000
MTEXTEND
  0
TEXT
  5
11F11
330
747D
100
AcDbEntity
  8
仕様書枠
 62
     7
 48
50.0
100
AcDbText
 10
14518.37944936722
 20
1031.557706291228
 30
0.0
 40
100.0
  1
NO.2     <縮尺> S=1/40
  7
STYLE2
100
AcDbText
  0
DIMENSION
  5
121B8
330
747D
100
AcDbEntity
  8
寸法
 48
50.0
100
AcDbDimension
  2
*D14
 10
10342.77950873462
 20
5236.740388709375
 30
0.0
 11
9822.779508734626
 21
5611.740388709375
 31
0.0
 12
5446.781016968404
 22
-7509.353244367241
 32
0.0
 70
    32
 71
     5
 42
-1.0
  3
INABA_S40G
100
AcDbAlignedDimension
 13
9873.600000000001
 23
5986.740388709375
 33
0.0
 14
9873.600000000001
 24
5236.740388709375
 34
0.0
 50
90.0
100
AcDbRotatedDimension
1001
ACAD
1000
DSTYLE
1002
{
1002
}
  0
DIMENSION
  5
121B9
330
747D
100
AcDbEntity
  8
寸法
 48
50.0
100
AcDbDimension
  2
*D13
 10
10641.88737785239
 20
5236.740388709375
 30
0.0
 11
10121.88737785238
 21
7636.740388709377
 31
0.0
 12
5268.443425511843
 22
0.0
 32
0.0
 70
    32
  1
屋根寸法 <>
 71
     5
 42
-1.0
  3
INABA_S40G
100
AcDbAlignedDimension
 13
9873.600000000001
 23
10036.74038870938
 33
0.0
 14
9873.599999999999
 24
5236.740388709375
 34
0.0
 50
90.0
100
AcDbRotatedDimension
  0
LINE
  5
121BA
330
747D
100
AcDbEntity
  8
想像線
 48
50.0
100
AcDbLine
 10
9873.600000000001
 20
5236.740388709375
 30
0.0
 11
9873.600000000001
 21
10036.74038870938
 31
0.0
  0
LINE
  5
121BB
330
747D
100
AcDbEntity
  8
想像線
 48
50.0
100
AcDbLine
 10
8853.6
 20
5236.740388709375
 30
0.0
 11
9873.599999999999
 21
5236.740388709375
 31
0.0
  0
DIMENSION
  5
12228
330
747D
100
AcDbEntity
  8
寸法
 48
50.0
100
AcDbDimension
  2
*D15
 10
9873.600000000001
 20
10902.80501405645
 30
0.0
 11
8223.600000000001
 21
11002.80501405645
 31
0.0
 12
-210.0000000000018
 22
0.0
 32
0.0
 70
    32
  1
屋根寸法 <>
 71
     5
 42
-1.0
  3
INABA_S40G
100
AcDbAlignedDimension
 13
6573.599999999998
 23
10036.74038870938
 33
0.0
 14
9873.600000000001
 24
10036.74038870938
 34
0.0
100
AcDbRotatedDimension
  0
LINE
  5
12229
330
747D
100
AcDbEntity
  8
想像線
 48
50.0
100
AcDbLine
 10
6573.599999999998
 20
10036.74038870938
 30
0.0
 11
9873.600000000001
 21
10036.74038870938
 31
0.0
  0
LINE
  5
1222A
330
747D
100
AcDbEntity
  8
想像線
 48
50.0
100
AcDbLine
 10
6573.599999999998
 20
9379.224908776665
 30
0.0
 11
6573.599999999998
 21
10036.74038870938
 31
0.0
  0
DIMENSION
  5
1222B
330
747D
100
AcDbEntity
  8
寸法
 48
50.0
100
AcDbDimension
  2
*D17
 10
6823.600000000002
 20
10609.69661180045
 30
0.0
 11
6698.6
 21
10709.70842282407
 31
0.0
 12
-210.0000000000018
 22
0.0
 32
0.0
 70
    32
 71
     5
 42
-1.0
  3
INABA_S40G
100
AcDbAlignedDimension
 13
6573.599999999998
 23
10036.74038870938
 33
0.0
 14
6823.600000000002
 24
9536.740388709375
 34
0.0
100
AcDbRotatedDimension
  0
LEADER
  5
1222C
330
747D
100
AcDbEntity
  8
寸法
 48
50.0
100
AcDbLeader
  3
INABA_S50G
 73
     0
 74
     0
 75
     1
 40
120.0
 41
683.3137084989848
 76
     3
 10
8149.636065931417
 20
10036.74038870938
 30
0.0
 10
8272.7987358234
 20
10363.74901617458
 30
0.0
 10
8397.7987358234
 20
10363.74901617458
 30
0.0
340
1222D
1001
ACAD
1000
DSTYLE
1002
{
1070
   341
1005
0
1070
    40
1040
1.0
1070
   343
1005
0
1070
   344
1005
0
1002
}
  0
MTEXT
  5
1222D
102
{ACAD_REACTORS
330
1222C
102
}
330
747D
100
AcDbEntity
  8
部品1
 62
     7
 48
50.0
100
AcDbMText
 10
8422.7987358234
 20
10448.74901617458
 30
0.0
 40
120.0
 41
0.0
 71
     4
 72
     1
  1
\A1;屋根の外寸
  7
STYLE1
 73
     1
 44
1.0
1001
ACAD
1000
MTEXTBEGIN
1070
    73
1070
     1
1070
    44
1040
1.0
1070
    74
1070
     0
1000
MTEXTEND
  0
DIMENSION
  5
1222E
330
747D
100
AcDbEntity
  8
寸法
 48
50.0
100
AcDbDimension
  2
*D16
 10
9873.600000000001
 20
10609.69661180045
 30
0.0
 11
9328.599999999999
 21
10709.70842282407
 31
0.0
 12
209.9999999999982
 22
0.0
 32
0.0
 70
    32
 71
     5
 42
-1.0
  3
INABA_S40G
100
AcDbAlignedDimension
 13
9623.600000000003
 23
9536.740388709379
 33
0.0
 14
9873.600000000001
 24
10036.74038870938
 34
0.0
100
AcDbRotatedDimension
1001
ACAD
1000
DSTYLE
1002
{
1002
}
  0
DIMENSION
  5
12291
330
747D
100
AcDbEntity
  8
寸法
 48
50.0
100
AcDbDimension
  2
*D18
 10
10342.77950873462
 20
10036.74038870938
 30
0.0
 11
9822.779508734626
 21
9661.740388709379
 31
0.0
 12
5268.443425511843
 22
0.0
 32
0.0
 70
    32
 71
     5
 42
-1.0
  3
INABA_S40G
100
AcDbAlignedDimension
 13
9873.600000000001
 23
9286.740388709379
 33
0.0
 14
9873.600000000001
 24
10036.74038870938
 34
0.0
 50
90.0
100
AcDbRotatedDimension
1001
ACAD
1000
DSTYLE
1002
{
1002
}
  0
TEXT
  5
12469
330
747D
100
AcDbEntity
  8
寸法
 62
     7
100
AcDbText
 10
12995.6997453858
 20
1973.585205285743
 30
0.0
 40
120.0
  1
（注意）
  7
STYLE1
100
AcDbText
  0
TEXT
  5
1246A
330
747D
100
AcDbEntity
  8
寸法
 62
     7
100
AcDbText
 10
12995.6997453858
 20
1773.585205285743
 30
0.0
 40
120.0
  1
   基礎寸法は標準施工を示します。
  7
STYLE1
100
AcDbText
  0
TEXT
  5
1246B
330
747D
100
AcDbEntity
  8
寸法
 62
     7
100
AcDbText
 10
12995.6997453858
 20
1573.585205285743
 30
0.0
 40
120.0
  1
   地域の実情に合わせて設計してください。 
  7
STYLE1
100
AcDbText
  0
LINE
  5
12BD6
330
747D
100
AcDbEntity
  8
部品1
 48
50.0
100
AcDbLine
 10
6523.600000000001
 20
6286.740388709377
 30
0.0
 11
6523.600000000001
 21
5686.740388709377
 31
0.0
  0
LINE
  5
12BD7
330
747D
100
AcDbEntity
  8
部品1
 48
50.0
100
AcDbLine
 10
6523.600000000001
 20
5686.740388709377
 30
0.0
 11
7123.600000000002
 21
5686.740388709377
 31
0.0
  0
LINE
  5
12BD8
330
747D
100
AcDbEntity
  8
部品1
 48
50.0
100
AcDbLine
 10
7123.600000000002
 20
5686.740388709377
 30
0.0
 11
7123.600000000002
 21
6286.740388709377
 31
0.0
  0
LINE
  5
12BD9
330
747D
100
AcDbEntity
  8
部品1
 48
50.0
100
AcDbLine
 10
7123.600000000002
 20
6286.740388709377
 30
0.0
 11
6523.600000000001
 21
6286.740388709377
 31
0.0
  0
LINE
  5
12BDB
330
747D
100
AcDbEntity
  8
部品1
 48
50.0
100
AcDbLine
 10
9323.600000000002
 20
6286.740388709377
 30
0.0
 11
9323.600000000002
 21
5686.740388709377
 31
0.0
  0
LINE
  5
12BDC
330
747D
100
AcDbEntity
  8
部品1
 48
50.0
100
AcDbLine
 10
9923.600000000002
 20
6286.740388709377
 30
0.0
 11
9323.600000000002
 21
6286.740388709377
 31
0.0
  0
LINE
  5
12BDD
330
747D
100
AcDbEntity
  8
部品1
 48
50.0
100
AcDbLine
 10
9923.600000000002
 20
5686.740388709377
 30
0.0
 11
9923.600000000002
 21
6286.740388709377
 31
0.0
  0
LINE
  5
12BDE
330
747D
100
AcDbEntity
  8
部品1
 48
50.0
100
AcDbLine
 10
9323.600000000002
 20
5686.740388709377
 30
0.0
 11
9923.600000000002
 21
5686.740388709377
 31
0.0
  0
LINE
  5
12BDF
330
747D
100
AcDbEntity
  8
部品1
 48
50.0
100
AcDbLine
 10
9323.6
 20
7936.740388709376
 30
0.0
 11
9323.6
 21
7336.740388709376
 31
0.0
  0
LINE
  5
12BE0
330
747D
100
AcDbEntity
  8
部品1
 48
50.0
100
AcDbLine
 10
9923.6
 20
7936.740388709376
 30
0.0
 11
9323.6
 21
7936.740388709376
 31
0.0
  0
LINE
  5
12BE1
330
747D
100
AcDbEntity
  8
部品1
 48
50.0
100
AcDbLine
 10
9923.6
 20
7336.740388709376
 30
0.0
 11
9923.6
 21
7936.740388709376
 31
0.0
  0
LINE
  5
12BE2
330
747D
100
AcDbEntity
  8
部品1
 48
50.0
100
AcDbLine
 10
9323.6
 20
7336.740388709376
 30
0.0
 11
9923.6
 21
7336.740388709376
 31
0.0
  0
LINE
  5
12BE3
330
747D
100
AcDbEntity
  8
部品1
 48
50.0
100
AcDbLine
 10
7123.6
 20
7336.740388709376
 30
0.0
 11
7123.6
 21
7936.740388709376
 31
0.0
  0
LINE
  5
12BE4
330
747D
100
AcDbEntity
  8
部品1
 48
50.0
100
AcDbLine
 10
7123.6
 20
7936.740388709376
 30
0.0
 11
6523.6
 21
7936.740388709376
 31
0.0
  0
LINE
  5
12BE5
330
747D
100
AcDbEntity
  8
部品1
 48
50.0
100
AcDbLine
 10
6523.6
 20
7936.740388709376
 30
0.0
 11
6523.6
 21
7336.740388709376
 31
0.0
  0
LINE
  5
12BE6
330
747D
100
AcDbEntity
  8
部品1
 48
50.0
100
AcDbLine
 10
6523.6
 20
7336.740388709376
 30
0.0
 11
7123.6
 21
7336.740388709376
 31
0.0
  0
LINE
  5
12BE7
330
747D
100
AcDbEntity
  8
部品1
 48
50.0
100
AcDbLine
 10
9923.600000000005
 20
8986.740388709376
 30
0.0
 11
9923.600000000005
 21
9586.740388709376
 31
0.0
  0
LINE
  5
12BE8
330
747D
100
AcDbEntity
  8
部品1
 48
50.0
100
AcDbLine
 10
9323.600000000004
 20
8986.740388709376
 30
0.0
 11
9923.600000000005
 21
8986.740388709376
 31
0.0
  0
LINE
  5
12BE9
330
747D
100
AcDbEntity
  8
部品1
 48
50.0
100
AcDbLine
 10
9923.600000000005
 20
9586.740388709376
 30
0.0
 11
9323.600000000004
 21
9586.740388709376
 31
0.0
  0
LINE
  5
12BEA
330
747D
100
AcDbEntity
  8
部品1
 48
50.0
100
AcDbLine
 10
9323.600000000004
 20
9586.740388709376
 30
0.0
 11
9323.600000000004
 21
8986.740388709376
 31
0.0
  0
LINE
  5
12BEB
330
747D
100
AcDbEntity
  8
部品1
 48
50.0
100
AcDbLine
 10
7123.600000000005
 20
8986.740388709376
 30
0.0
 11
7123.600000000005
 21
9586.740388709376
 31
0.0
  0
LINE
  5
12BEC
330
747D
100
AcDbEntity
  8
部品1
 48
50.0
100
AcDbLine
 10
7123.600000000005
 20
9586.740388709376
 30
0.0
 11
6523.600000000005
 21
9586.740388709376
 31
0.0
  0
LINE
  5
12BED
330
747D
100
AcDbEntity
  8
部品1
 48
50.0
100
AcDbLine
 10
6523.600000000005
 20
9586.740388709376
 30
0.0
 11
6523.600000000005
 21
8986.740388709376
 31
0.0
  0
LINE
  5
12BEE
330
747D
100
AcDbEntity
  8
部品1
 48
50.0
100
AcDbLine
 10
6523.600000000005
 20
8986.740388709376
 30
0.0
 11
7123.600000000005
 21
8986.740388709376
 31
0.0
  0
TEXT
  5
1319A
330
747D
100
AcDbEntity
  8
文字
 62
     7
 48
50.0
100
AcDbText
 10
14747.8113764045
 20
483.8967129911414
 30
0.0
 40
160.0
  1
BＦ-２８V
  7
STYLE2
100
AcDbText
  0
HATCH
  5
135C5
330
747D
100
AcDbEntity
  8
細線
 48
50.0
100
AcDbHatch
 10
0.0
 20
0.0
 30
0.0
210
0.0
220
0.0
230
1.0
  2
PLAST
 70
     0
 71
     0
 91
        5
 92
        7
 72
     0
 73
     1
 93
        6
 10
10354.9548933749
 20
2362.480397697104
 10
9563.586884749872
 20
2371.480910386698
 10
9533.313991906684
 20
2401.753803229881
 10
9503.213662073909
 20
2401.753803229882
 10
9503.213662073909
 20
2171.778473397103
 10
10354.95489337491
 20
2171.778473397103
 97
        0
 92
        7
 72
     0
 73
     1
 93
        6
 10
9382.912672575582
 20
2401.753803229882
 10
9352.81234274281
 20
2401.753803229881
 10
9322.560497758514
 20
2371.50195824559
 10
8531.17144127459
 20
2363.588067680751
 10
8531.171441274588
 20
2171.778473397103
 10
9382.912672575582
 20
2171.778473397103
 97
        0
 92
        7
 72
     0
 73
     1
 93
        6
 10
8479.248371274591
 20
2363.068836980751
 10
7687.593561154648
 20
2355.152288879551
 10
7657.607469806372
 20
2385.138380227838
 10
7627.507139973592
 20
2385.138380227838
 10
7627.507139973592
 20
2171.778473397104
 10
8479.248371274595
 20
2171.778473397104
 97
        0
 92
        7
 72
     0
 73
     1
 93
        6
 10
7507.206150475266
 20
2385.138380227838
 10
7477.105820642489
 20
2385.138380227838
 10
7444.690700689548
 20
2352.723260274901
 10
6800.550727849851
 20
2346.281860546503
 10
6800.550727849851
 20
2171.778473397103
 10
7507.206150475266
 20
2171.778473397104
 97
        0
 92
        7
 72
     0
 73
     1
 93
        5
 10
6748.627657849849
 20
2345.762629846503
 10
6435.610521715038
 20
2342.632458485155
 10
6363.789827176105
 20
2272.319098397103
 10
6363.789827176105
 20
2171.778473397104
 10
6748.627657849846
 20
2171.778473397104
 97
        0
 75
     0
 76
     1
 52
45.0
 41
60.0
 77
     0
 78
     3
 53
45.0
 43
0.0
 44
0.0
 45
-269.4076836320746
 46
269.4076836320746
 79
     0
 53
45.0
 43
-33.67596045400933
 44
33.67596045400933
 45
-269.4076836320746
 46
269.4076836320746
 79
     0
 53
45.0
 43
-67.35192090801866
 44
67.35192090801866
 45
-269.4076836320746
 46
269.4076836320746
 79
     0
 47
4.770536170264612
 98
        5
 10
9676.443011882701
 20
2249.655522388206
 10
9056.026287161541
 20
2278.278737214747
 10
8091.994110641818
 20
2259.1966118372
 10
7223.410664075069
 20
2278.278737214747
 10
6588.676583922584
 20
2249.655522388206
  0
LINE
  5
135C6
330
747D
100
AcDbEntity
  8
細線
 48
50.0
100
AcDbLine
 10
8396.813658530623
 20
1904.635869400447
 30
0.0
 11
8479.248371274596
 21
2131.123381243741
 31
0.0
  0
LINE
  5
135C7
330
747D
100
AcDbEntity
  8
部品1
 48
50.0
100
AcDbLine
 10
7687.593561154651
 20
2355.152288879551
 30
0.0
 11
8479.248371274591
 21
2363.068836980751
 31
0.0
  0
LINE
  5
135C8
330
747D
100
AcDbEntity
  8
部品1
 48
50.0
100
AcDbLine
 10
7627.507139973594
 20
2171.778473397103
 30
0.0
 11
8479.248371274591
 21
2171.778473397103
 31
0.0
  0
LINE
  5
135C9
330
747D
100
AcDbEntity
  8
部品1
 48
50.0
100
AcDbLine
 10
9266.564750487665
 20
2531.099169784787
 30
0.0
 11
8146.139304852786
 21
2522.790247627517
 31
0.0
  0
MTEXT
  5
135CA
330
747D
100
AcDbEntity
  8
寸法
 62
     7
 48
50.0
100
AcDbMText
 10
8167.134188600142
 20
2639.512223180492
 30
0.0
 40
120.0
 41
0.0
 71
     4
 72
     1
  1
\A1;水勾配１／１００ 
  7
STYLE1
 73
     1
 44
1.0
1001
ACAD
1000
MTEXTBEGIN
1070
    73
1070
     1
1070
    44
1040
1.0
1070
    74
1070
     0
1000
MTEXTEND
  0
DIMENSION
  5
135CB
330
747D
100
AcDbEntity
  8
寸法
 48
50.0
100
AcDbDimension
  2
*D48
 10
5981.671157149674
 20
2371.501958245591
 30
0.0
 11
5981.671157149673
 21
2655.153871953134
 31
0.0
 70
   160
  1
(<>)
 71
     5
 42
49.59142992424358
  3
INABA_S40G詳細用20
100
AcDbAlignedDimension
 13
6363.789827176105
 23
2272.319098397104
 33
0.0
 14
9322.560497758518
 24
2371.50195824559
 34
0.0
 50
90.0
100
AcDbRotatedDimension
  0
LINE
  5
135CC
330
747D
100
AcDbEntity
  8
部品1
 48
50.0
100
AcDbLine
 10
8167.356645224435
 20
1904.635869400447
 30
0.0
 11
8479.248371274591
 21
1904.635869400447
 31
0.0
  0
LEADER
  5
135CD
330
747D
100
AcDbEntity
  8
寸法
 48
50.0
100
AcDbLeader
  3
INABA_S40G詳細用20
 71
     0
 73
     0
 74
     0
 75
     1
 40
120.0
 41
550.0
 76
     3
 10
7567.356645224437
 20
1791.000383062655
 30
0.0
 10
8042.039573354584
 20
1494.397056148721
 30
0.0
 10
8142.039573354585
 20
1494.397056148721
 30
0.0
  0
MTEXT
  5
135CE
102
{ACAD_REACTORS
330
135CD
102
}
330
747D
100
AcDbEntity
  8
寸法
 62
     7
 48
50.0
100
AcDbMText
 10
8182.039573354584
 20
1594.397056148721
 30
0.0
 40
120.0
 41
0.0
 71
     4
 72
     1
  1
\A1;カンザシ 
  7
STYLE1
 73
     1
 44
1.0
1001
ACAD
1000
MTEXTBEGIN
1070
    73
1070
     1
1070
    44
1040
1.0
1070
    74
1070
     0
1000
MTEXTEND
  0
LINE
  5
135CF
330
747D
100
AcDbEntity
  8
部品1
 48
100.0
100
AcDbLine
 10
7430.882479959493
 20
3519.746835418324
 30
0.0
 11
9016.317520040507
 21
3519.746835418324
 31
0.0
  0
TEXT
  5
135D0
330
747D
100
AcDbEntity
  8
部品1
 48
100.0
100
AcDbText
 10
7489.996858427514
 20
3239.473899836655
 30
0.0
 40
138.46152
  1
基礎断面図 1/20
  7
STYLE2
100
AcDbText
  0
LINE
  5
135D1
330
747D
100
AcDbEntity
  8
部品1
 48
100.0
100
AcDbLine
 10
7430.882479959493
 20
3127.439195418325
 30
0.0
 11
9016.317520040507
 21
3127.439195418325
 31
0.0
  0
TEXT
  5
135D2
330
747D
100
AcDbEntity
  8
部品1
 48
100.0
100
AcDbText
 10
7723.137946626582
 20
351.0056814446116
 30
0.0
 40
138.46152
  1
A-A'断面
  7
STYLE2
100
AcDbText
  0
LWPOLYLINE
  5
135D3
330
747D
100
AcDbEntity
  8
部品1
 48
100.0
100
AcDbPolyline
 90
        6
 70
     0
 43
0.0
 10
7430.882479959493
 20
3323.593015418325
 10
4479.038562473961
 20
3323.593015418325
 10
4479.038562473961
 20
238.9709770262789
 10
11968.16143752604
 20
238.9709770262789
 10
11968.16143752604
 20
3323.593015418325
 10
9016.317520040507
 20
3323.593015418325
  0
DIMENSION
  5
135D4
330
747D
100
AcDbEntity
  8
寸法
 48
50.0
100
AcDbDimension
  2
*D49
 10
6157.711804370893
 20
2171.778473397104
 30
0.0
 11
6157.711804370891
 21
2222.048785897105
 31
0.0
 70
   160
 71
     5
 42
50.27031250000004
  3
INABA_S40G詳細用20
100
AcDbAlignedDimension
 13
6363.789827176105
 23
2272.319098397104
 33
0.0
 14
6327.975533552198
 24
2171.778473397104
 34
0.0
 50
90.0
100
AcDbRotatedDimension
  0
LINE
  5
135D5
330
747D
100
AcDbEntity
  8
部品1
 48
50.0
100
AcDbLine
 10
6363.789827176103
 20
2171.778473397103
 30
0.0
 11
6363.789827176105
 21
2272.319098397104
 31
0.0
  0
DIMENSION
  5
135D6
330
747D
100
AcDbEntity
  8
寸法
 48
50.0
100
AcDbDimension
  2
*D50
 10
5981.671157149674
 20
1371.653473397103
 30
0.0
 11
5881.671157149674
 21
1821.986285897105
 31
0.0
 70
    32
 71
     5
 42
450.3328125000003
  3
INABA_S40G詳細用20
100
AcDbAlignedDimension
 13
6363.789827176105
 23
2272.319098397104
 33
0.0
 14
6871.142525974295
 24
1371.653473397103
 34
0.0
 50
90.0
100
AcDbRotatedDimension
  0
LINE
  5
135D7
330
747D
100
AcDbEntity
  8
部品1
 48
50.0
100
AcDbLine
 10
6748.627657849846
 20
2421.939754832522
 30
0.0
 11
6748.627657849846
 21
1841.716830795493
 31
0.0
  0
LINE
  5
135D8
330
747D
100
AcDbEntity
  8
部品1
 48
50.0
100
AcDbLine
 10
6800.550727849851
 20
2421.939754832522
 30
0.0
 11
6800.550727849851
 21
1841.716830795493
 31
0.0
  0
LINE
  5
135D9
330
747D
100
AcDbEntity
  8
部品1
 48
50.0
100
AcDbLine
 10
7627.507139973592
 20
1730.799723397104
 30
0.0
 11
7627.507139973592
 21
2556.934212383462
 31
0.0
  0
LINE
  5
135DA
330
747D
100
AcDbEntity
  8
部品1
 48
50.0
100
AcDbLine
 10
7507.206150475266
 20
2556.934212383462
 30
0.0
 11
7507.206150475266
 21
1730.799723397104
 31
0.0
  0
HATCH
  5
135DB
330
747D
100
AcDbEntity
  8
細線
 48
50.0
100
AcDbHatch
 10
0.0
 20
0.0
 30
0.0
210
0.0
220
0.0
230
1.0
  2
PLAST
 70
     0
 71
     0
 91
        2
 92
        7
 72
     0
 73
     1
 93
        8
 10
8167.356645224433
 20
2171.778473397103
 10
7627.507139973594
 20
2171.778473397103
 10
7627.507139973592
 20
1730.799723397104
 10
7507.206150475266
 20
1730.799723397104
 10
7507.206150475266
 20
2171.778473397104
 10
6967.35664522443
 20
2171.778473397103
 10
6967.35664522443
 20
1371.653473397103
 10
8167.356645224433
 20
1371.653473397103
 97
        0
 92
       22
 72
     1
 73
     1
 93
       20
 10
7971.356645224422
 20
1537.253473397106
 42
-0.4142135623731332
 10
7957.356645224422
 20
1523.253473397105
 42
0.0
 10
7996.731645224421
 20
1523.253473397105
 42
0.0
 10
7996.731645224421
 20
1495.253473397103
 42
0.0
 10
7137.981645224423
 20
1495.253473397106
 42
0.0
 10
7137.98164522442
 20
1523.253473397106
 42
0.0
 10
7177.356645224422
 20
1523.253473397106
 42
-0.4142135623731046
 10
7163.356645224422
 20
1537.253473397106
 42
-1.0
 10
7191.356645224423
 20
1537.253473397106
 42
-0.4142135623730951
 10
7177.356645224422
 20
1523.253473397106
 42
0.0
 10
7437.356645224422
 20
1523.253473397106
 42
-0.4142135623731094
 10
7423.356645224422
 20
1537.253473397106
 42
-1.0
 10
7451.356645224421
 20
1537.253473397106
 42
-0.4142135623731094
 10
7437.356645224422
 20
1523.253473397106
 42
0.0
 10
7697.356645224423
 20
1523.253473397105
 42
-0.4142135623731189
 10
7683.356645224423
 20
1537.253473397106
 42
-1.0
 10
7711.356645224423
 20
1537.253473397106
 42
-0.4142135623731189
 10
7697.356645224423
 20
1523.253473397105
 42
0.0
 10
7957.356645224422
 20
1523.253473397105
 42
-0.4142135623731332
 10
7943.356645224422
 20
1537.253473397106
 42
-1.0
 97
        0
 75
     0
 76
     1
 52
315.0
 41
60.0
 77
     0
 78
     3
 53
315.0
 43
0.0
 44
0.0
 45
269.4076836320747
 46
269.4076836320746
 79
     0
 53
315.0
 43
33.67596045400933
 44
33.67596045400932
 45
269.4076836320747
 46
269.4076836320746
 79
     0
 53
315.0
 43
67.35192090801866
 44
67.35192090801864
 45
269.4076836320747
 46
269.4076836320746
 79
     0
 47
3.228008460117151
 98
        2
 10
7827.483671423215
 20
2033.438737927943
 10
7827.483671423215
 20
2033.438737927943
  0
HATCH
  5
135DC
330
747D
100
AcDbEntity
  8
細線
 48
50.0
100
AcDbHatch
 10
0.0
 20
0.0
 30
0.0
210
0.0
220
0.0
230
1.0
  2
PLAST
 70
     0
 71
     0
 91
        1
 92
        7
 72
     0
 73
     1
 93
        4
 10
8263.570764474556
 20
1371.653473397103
 10
6871.142525974295
 20
1371.653473397103
 10
6871.142525974295
 20
1271.753473397105
 10
8263.570764474556
 20
1271.753473397105
 97
        0
 75
     0
 76
     1
 52
45.0
 41
60.0
 77
     0
 78
     3
 53
45.0
 43
0.0
 44
0.0
 45
-269.4076836320746
 46
269.4076836320746
 79
     0
 53
45.0
 43
-33.67596045400933
 44
33.67596045400933
 45
-269.4076836320746
 46
269.4076836320746
 79
     0
 53
45.0
 43
-67.35192090801866
 44
67.35192090801866
 45
-269.4076836320746
 46
269.4076836320746
 79
     0
 47
2.021456610930475
 98
        1
 10
8049.316621317405
 20
1348.963404449929
  0
LINE
  5
135DD
330
747D
100
AcDbEntity
  8
部品1
 48
50.0
100
AcDbLine
 10
6800.55072784985
 20
2171.778473397103
 30
0.0
 11
7507.206150475268
 21
2171.778473397104
 31
0.0
  0
LINE
  5
135DE
330
747D
100
AcDbEntity
  8
細線
 48
50.0
100
AcDbLine
 10
7024.856645224438
 20
1061.753473397105
 30
0.0
 11
7101.290394420338
 21
1271.753473397103
 31
0.0
  0
LINE
  5
135DF
330
747D
100
AcDbEntity
  8
細線
 48
50.0
100
AcDbLine
 10
7073.290394420339
 20
1271.753473397103
 30
0.0
 11
7088.551436221019
 21
1236.753473397105
 31
0.0
  0
DIMENSION
  5
135E0
330
747D
100
AcDbEntity
  8
寸法
 48
50.0
100
AcDbDimension
  2
*D51
 10
6162.34587816289
 20
1371.653473397103
 30
0.0
 11
6162.34587816289
 21
1515.026598397103
 31
0.0
 70
   160
 71
     5
 42
179.5731250000003
  3
INABA_S40G詳細用20
100
AcDbAlignedDimension
 13
7507.206150475266
 23
1730.799723397104
 33
0.0
 14
6871.142525974295
 24
1371.653473397103
 34
0.0
 50
90.0
100
AcDbRotatedDimension
  0
LINE
  5
135E1
330
747D
100
AcDbEntity
  8
部品1
 48
50.0
100
AcDbLine
 10
6871.142525974298
 20
1271.753473397105
 30
0.0
 11
8263.570764474556
 21
1271.753473397105
 31
0.0
  0
LINE
  5
135E2
330
747D
100
AcDbEntity
  8
部品1
 48
50.0
100
AcDbLine
 10
6871.142525974298
 20
1061.753473397105
 30
0.0
 11
8263.570764474556
 21
1061.753473397105
 31
0.0
  0
LINE
  5
135E3
330
747D
100
AcDbEntity
  8
部品1
 48
50.0
100
AcDbLine
 10
6871.142525974295
 20
1371.653473397103
 30
0.0
 11
8263.570764474556
 21
1371.653473397103
 31
0.0
  0
DIMENSION
  5
135E4
330
747D
100
AcDbEntity
  8
寸法
 48
50.0
100
AcDbDimension
  2
*D52
 10
6162.34587816289
 20
1730.799723397104
 30
0.0
 11
6062.334067139268
 21
1951.289098397104
 31
0.0
 70
    32
 71
     5
 42
220.489375
  3
INABA_S40G詳細用20
100
AcDbAlignedDimension
 13
6327.975533552198
 23
2171.778473397104
 33
0.0
 14
7522.206150475266
 24
1730.799723397104
 34
0.0
 50
90.0
100
AcDbRotatedDimension
  0
DIMENSION
  5
135E5
330
747D
100
AcDbEntity
  8
寸法
 48
50.0
100
AcDbDimension
  2
*D53
 10
8167.356645224433
 20
779.5662246076199
 30
0.0
 11
7567.356645224433
 21
879.5662246076199
 31
0.0
 70
    32
 71
     5
 42
600.0000000000004
  3
INABA_S40G詳細用20
100
AcDbAlignedDimension
 13
6967.356645224433
 23
1061.753473397105
 33
0.0
 14
8167.356645224433
 24
1061.753473397105
 34
0.0
100
AcDbRotatedDimension
  0
LINE
  5
135E6
330
747D
100
AcDbEntity
  8
部品1
 48
50.0
100
AcDbLine
 10
6871.142525974295
 20
1371.653473397103
 30
0.0
 11
6871.142525974295
 21
1061.753473397105
 31
0.0
  0
DIMENSION
  5
135E7
330
747D
100
AcDbEntity
  8
寸法
 48
50.0
100
AcDbDimension
  2
*D54
 10
5981.671157149674
 20
1271.753473397105
 30
0.0
 11
5881.671157149674
 21
1321.703473397105
 31
0.0
 70
    32
 71
     5
 42
49.94999999999925
  3
INABA_S40G詳細用20
100
AcDbAlignedDimension
 13
6871.142525974303
 23
1371.653473397103
 33
0.0
 14
6871.142525974295
 24
1271.753473397105
 34
0.0
 50
90.0
100
AcDbRotatedDimension
  0
LINE
  5
135E8
330
747D
100
AcDbEntity
  8
細線
 48
50.0
100
AcDbLine
 10
6897.595603423757
 20
1096.753473397105
 30
0.0
 11
6912.856645224438
 21
1061.753473397105
 31
0.0
  0
LINE
  5
135E9
330
747D
100
AcDbEntity
  8
細線
 48
50.0
100
AcDbLine
 10
6884.856645224438
 20
1061.753473397105
 30
0.0
 11
6961.290394420339
 21
1271.753473397103
 31
0.0
  0
LINE
  5
135EA
330
747D
100
AcDbEntity
  8
細線
 48
50.0
100
AcDbLine
 10
7037.595603423756
 20
1096.753473397105
 30
0.0
 11
7052.856645224436
 21
1061.753473397105
 31
0.0
  0
LINE
  5
135EB
330
747D
100
AcDbEntity
  8
細線
 48
50.0
100
AcDbLine
 10
6933.290394420339
 20
1271.753473397103
 30
0.0
 11
6948.55143622102
 21
1236.753473397105
 31
0.0
  0
LINE
  5
135EC
330
747D
100
AcDbEntity
  8
細線
 48
50.0
100
AcDbLine
 10
6369.555001964011
 20
1904.635869400448
 30
0.0
 11
6466.786958123155
 21
2171.778473397104
 31
0.0
  0
LINE
  5
135ED
330
747D
100
AcDbEntity
  8
部品1
 48
50.0
100
AcDbLine
 10
6327.975533552186
 20
2171.778473397103
 30
0.0
 11
6748.627657849846
 21
2171.778473397103
 31
0.0
  0
LINE
  5
135EE
330
747D
100
AcDbEntity
  8
部品1
 48
50.0
100
AcDbLine
 10
6327.975533552187
 20
1904.635869400447
 30
0.0
 11
6748.627657849846
 21
1904.635869400447
 31
0.0
  0
LINE
  5
135EF
330
747D
100
AcDbEntity
  8
部品1
 48
50.0
100
AcDbLine
 10
6327.975533552198
 20
2171.778473397104
 30
0.0
 11
6327.975533552187
 21
1904.635869400447
 31
0.0
  0
LINE
  5
135F0
330
747D
100
AcDbEntity
  8
細線
 48
50.0
100
AcDbLine
 10
6380.534997866067
 20
1934.736199233222
 30
0.0
 11
6393.659637631564
 21
1904.635869400447
 31
0.0
  0
LINE
  5
135F1
330
747D
100
AcDbEntity
  8
部品1
 48
50.0
100
AcDbLine
 10
6967.356645224433
 20
1371.653473397103
 30
0.0
 11
6967.356645224431
 21
2171.778473397103
 31
0.0
  0
LINE
  5
135F2
330
747D
100
AcDbEntity
  8
細線
 48
50.0
100
AcDbLine
 10
6572.280867620671
 20
1904.635869400448
 30
0.0
 11
6669.512823779817
 21
2171.778473397105
 31
0.0
  0
LINE
  5
135F3
330
747D
100
AcDbEntity
  8
細線
 48
50.0
100
AcDbLine
 10
6583.260863522728
 20
1934.736199233222
 30
0.0
 11
6596.385503288225
 21
1904.635869400447
 31
0.0
  0
LINE
  5
135F4
330
747D
100
AcDbEntity
  8
細線
 48
50.0
100
AcDbLine
 10
6442.645092865091
 20
2171.778473397104
 30
0.0
 11
6455.803307681155
 21
2141.601141824525
 31
0.0
  0
LINE
  5
135F5
330
747D
100
AcDbEntity
  8
細線
 48
50.0
100
AcDbLine
 10
6645.370958521751
 20
2171.778473397104
 30
0.0
 11
6658.529173337817
 21
2141.601141824525
 31
0.0
  0
LINE
  5
135F6
330
747D
100
AcDbEntity
  8
細線
 48
50.0
100
AcDbLine
 10
6800.550727849854
 20
1974.817417691123
 30
0.0
 11
6872.238689436478
 21
2171.778473397104
 31
0.0
  0
LINE
  5
135F7
330
747D
100
AcDbEntity
  8
部品1
 48
50.0
100
AcDbLine
 10
6800.550727849851
 20
1904.635869400447
 30
0.0
 11
6967.356645224431
 21
1904.635869400447
 31
0.0
  0
LINE
  5
135F8
330
747D
100
AcDbEntity
  8
細線
 48
50.0
100
AcDbLine
 10
6848.096824178414
 20
2171.778473397104
 30
0.0
 11
6861.255038994478
 21
2141.601141824525
 31
0.0
  0
LINE
  5
135F9
330
747D
100
AcDbEntity
  8
部品1
 48
50.0
100
AcDbLine
 10
8263.570764474556
 20
1371.653473397103
 30
0.0
 11
8263.570764474556
 21
1061.753473397105
 31
0.0
  0
LINE
  5
135FA
330
747D
100
AcDbEntity
  8
細線
 48
50.0
100
AcDbLine
 10
7724.856645224438
 20
1061.753473397105
 30
0.0
 11
7801.290394420338
 21
1271.753473397105
 31
0.0
  0
LINE
  5
135FB
330
747D
100
AcDbEntity
  8
細線
 48
50.0
100
AcDbLine
 10
7737.595603423756
 20
1096.753473397105
 30
0.0
 11
7752.856645224436
 21
1061.753473397105
 31
0.0
  0
LINE
  5
135FC
330
747D
100
AcDbEntity
  8
細線
 48
50.0
100
AcDbLine
 10
7164.856645224436
 20
1061.753473397105
 30
0.0
 11
7241.290394420338
 21
1271.753473397105
 31
0.0
  0
LINE
  5
135FD
330
747D
100
AcDbEntity
  8
細線
 48
50.0
100
AcDbLine
 10
7177.595603423757
 20
1096.753473397105
 30
0.0
 11
7192.856645224437
 21
1061.753473397105
 31
0.0
  0
LINE
  5
135FE
330
747D
100
AcDbEntity
  8
細線
 48
50.0
100
AcDbLine
 10
7304.856645224437
 20
1061.753473397105
 30
0.0
 11
7381.290394420338
 21
1271.753473397105
 31
0.0
  0
LINE
  5
135FF
330
747D
100
AcDbEntity
  8
細線
 48
50.0
100
AcDbLine
 10
7317.595603423756
 20
1096.753473397105
 30
0.0
 11
7332.856645224437
 21
1061.753473397105
 31
0.0
  0
LINE
  5
13600
330
747D
100
AcDbEntity
  8
細線
 48
50.0
100
AcDbLine
 10
7213.290394420337
 20
1271.753473397105
 30
0.0
 11
7228.551436221019
 21
1236.753473397105
 31
0.0
  0
LINE
  5
13601
330
747D
100
AcDbEntity
  8
細線
 48
50.0
100
AcDbLine
 10
7353.290394420338
 20
1271.753473397105
 30
0.0
 11
7368.551436221018
 21
1236.753473397105
 31
0.0
  0
LINE
  5
13602
330
747D
100
AcDbEntity
  8
細線
 48
50.0
100
AcDbLine
 10
7584.856645224437
 20
1061.753473397106
 30
0.0
 11
7661.290394420338
 21
1271.753473397106
 31
0.0
  0
LINE
  5
13603
330
747D
100
AcDbEntity
  8
細線
 48
50.0
100
AcDbLine
 10
7597.595603423757
 20
1096.753473397106
 30
0.0
 11
7612.856645224437
 21
1061.753473397106
 31
0.0
  0
LINE
  5
13604
330
747D
100
AcDbEntity
  8
細線
 48
50.0
100
AcDbLine
 10
7444.856645224437
 20
1061.753473397106
 30
0.0
 11
7521.290394420337
 21
1271.753473397105
 31
0.0
  0
LINE
  5
13605
330
747D
100
AcDbEntity
  8
細線
 48
50.0
100
AcDbLine
 10
7457.595603423756
 20
1096.753473397106
 30
0.0
 11
7472.856645224436
 21
1061.753473397106
 31
0.0
  0
LINE
  5
13606
330
747D
100
AcDbEntity
  8
細線
 48
50.0
100
AcDbLine
 10
7493.290394420339
 20
1271.753473397105
 30
0.0
 11
7508.551436221019
 21
1236.753473397106
 31
0.0
  0
LINE
  5
13607
330
747D
100
AcDbEntity
  8
細線
 48
50.0
100
AcDbLine
 10
7633.290394420338
 20
1271.753473397106
 30
0.0
 11
7648.551436221019
 21
1236.753473397106
 31
0.0
  0
LINE
  5
13608
330
747D
100
AcDbEntity
  8
細線
 48
50.0
100
AcDbLine
 10
8004.856645224437
 20
1061.753473397106
 30
0.0
 11
8081.290394420339
 21
1271.753473397106
 31
0.0
  0
LINE
  5
13609
330
747D
100
AcDbEntity
  8
細線
 48
50.0
100
AcDbLine
 10
8017.595603423755
 20
1096.753473397106
 30
0.0
 11
8032.856645224438
 21
1061.753473397106
 31
0.0
  0
LINE
  5
1360A
330
747D
100
AcDbEntity
  8
細線
 48
50.0
100
AcDbLine
 10
7864.856645224437
 20
1061.753473397106
 30
0.0
 11
7941.290394420338
 21
1271.753473397105
 31
0.0
  0
LINE
  5
1360B
330
747D
100
AcDbEntity
  8
細線
 48
50.0
100
AcDbLine
 10
7877.595603423756
 20
1096.753473397106
 30
0.0
 11
7892.856645224437
 21
1061.753473397106
 31
0.0
  0
LINE
  5
1360C
330
747D
100
AcDbEntity
  8
細線
 48
50.0
100
AcDbLine
 10
7773.290394420339
 20
1271.753473397105
 30
0.0
 11
7788.551436221019
 21
1236.753473397105
 31
0.0
  0
LINE
  5
1360D
330
747D
100
AcDbEntity
  8
細線
 48
50.0
100
AcDbLine
 10
8053.290394420338
 20
1271.753473397106
 30
0.0
 11
8068.551436221019
 21
1236.753473397106
 31
0.0
  0
LINE
  5
1360E
330
747D
100
AcDbEntity
  8
細線
 48
50.0
100
AcDbLine
 10
7913.290394420338
 20
1271.753473397105
 30
0.0
 11
7928.551436221019
 21
1236.753473397106
 31
0.0
  0
LINE
  5
1360F
330
747D
100
AcDbEntity
  8
細線
 48
50.0
100
AcDbLine
 10
8144.856645224436
 20
1061.753473397105
 30
0.0
 11
8221.290394420323
 21
1271.753473397104
 31
0.0
  0
LINE
  5
13610
330
747D
100
AcDbEntity
  8
細線
 48
50.0
100
AcDbLine
 10
8157.595603423756
 20
1096.753473397105
 30
0.0
 11
8172.856645224436
 21
1061.753473397105
 31
0.0
  0
LINE
  5
13611
330
747D
100
AcDbEntity
  8
細線
 48
50.0
100
AcDbLine
 10
8193.290394420325
 20
1271.753473397106
 30
0.0
 11
8208.551436221005
 21
1236.753473397106
 31
0.0
  0
LINE
  5
13612
330
747D
100
AcDbEntity
  8
部品1
 48
50.0
100
AcDbLine
 10
7996.731645224421
 20
1495.253473397103
 30
0.0
 11
7137.981645224423
 21
1495.253473397106
 31
0.0
  0
LINE
  5
13613
330
747D
100
AcDbEntity
  8
部品1
 48
50.0
100
AcDbLine
 10
7996.731645224421
 20
1523.253473397105
 30
0.0
 11
7137.981645224423
 21
1523.253473397106
 31
0.0
  0
CIRCLE
  5
13614
330
747D
100
AcDbEntity
  8
部品1
 48
5.0
100
AcDbCircle
 10
7177.356645224422
 20
1537.253473397106
 30
0.0
 40
14.0
  0
LINE
  5
13615
330
747D
100
AcDbEntity
  8
部品1
 48
50.0
100
AcDbLine
 10
7137.981645224423
 20
1495.253473397103
 30
0.0
 11
7137.981645224423
 21
1523.253473397106
 31
0.0
  0
CIRCLE
  5
13616
330
747D
100
AcDbEntity
  8
部品1
 48
5.0
100
AcDbCircle
 10
7697.356645224423
 20
1537.253473397106
 30
0.0
 40
14.0
  0
CIRCLE
  5
13617
330
747D
100
AcDbEntity
  8
部品1
 48
5.0
100
AcDbCircle
 10
7437.356645224422
 20
1537.253473397106
 30
0.0
 40
14.0
  0
LINE
  5
13618
330
747D
100
AcDbEntity
  8
部品1
 48
5.0
100
AcDbLine
 10
7507.206150475266
 20
1730.799723397104
 30
0.0
 11
7627.507139973592
 21
1730.799723397104
 31
0.0
  0
CIRCLE
  5
13619
330
747D
100
AcDbEntity
  8
部品1
 48
50.0
100
AcDbCircle
 10
7567.356645224437
 20
1791.000383062655
 30
0.0
 40
12.0401319331104
  0
LINE
  5
1361A
330
747D
100
AcDbEntity
  8
部品1
 48
50.0
100
AcDbLine
 10
8167.356645224433
 20
1371.653473397103
 30
0.0
 11
8167.356645224433
 21
2171.778473397103
 31
0.0
  0
CIRCLE
  5
1361B
330
747D
100
AcDbEntity
  8
部品1
 48
5.0
100
AcDbCircle
 10
7957.356645224422
 20
1537.253473397106
 30
0.0
 40
14.0
  0
LINE
  5
1361C
330
747D
100
AcDbEntity
  8
部品1
 48
50.0
100
AcDbLine
 10
7996.731645224421
 20
1495.253473397106
 30
0.0
 11
7996.731645224421
 21
1523.253473397105
 31
0.0
  0
LINE
  5
1361D
330
747D
100
AcDbEntity
  8
細線
 48
50.0
100
AcDbLine
 10
8194.087792873961
 20
1904.635869400447
 30
0.0
 11
8291.319749033107
 21
2171.778473397104
 31
0.0
  0
LINE
  5
1361E
330
747D
100
AcDbEntity
  8
細線
 48
50.0
100
AcDbLine
 10
8205.067788776018
 20
1934.736199233222
 30
0.0
 11
8218.192428541515
 21
1904.635869400447
 31
0.0
  0
LINE
  5
1361F
330
747D
100
AcDbEntity
  8
細線
 48
50.0
100
AcDbLine
 10
8267.17788377504
 20
2171.778473397104
 30
0.0
 11
8280.336098591105
 21
2141.601141824525
 31
0.0
  0
LINE
  5
13620
330
747D
100
AcDbEntity
  8
Ｇ．Ｌ
 48
50.0
100
AcDbLine
 10
5506.227576651132
 20
2272.319098397104
 30
0.0
 11
6363.789827176102
 21
2272.319098397104
 31
0.0
  0
MTEXT
  5
13621
330
747D
100
AcDbEntity
  8
寸法
 62
     7
 48
50.0
100
AcDbMText
 10
5522.027965284028
 20
2347.642611346253
 30
0.0
 40
120.0
 41
0.0
 71
     4
 72
     1
  1
▽G.L
  7
STYLE1
 73
     1
 44
1.0
1001
ACAD
1000
MTEXTBEGIN
1070
    73
1070
     1
1070
    44
1040
1.0
1070
    74
1070
     0
1000
MTEXTEND
  0
LINE
  5
13622
330
747D
100
AcDbEntity
  8
部品1
 48
50.0
100
AcDbLine
 10
6800.550727849851
 20
2346.281860546504
 30
0.0
 11
7444.690700689548
 21
2352.723260274901
 31
0.0
  0
LINE
  5
13623
330
747D
100
AcDbEntity
  8
部品1
 48
50.0
100
AcDbLine
 10
6363.789827176105
 20
2272.319098397104
 30
0.0
 11
6435.610521715038
 21
2342.632458485155
 31
0.0
  0
LINE
  5
13624
330
747D
100
AcDbEntity
  8
部品1
 48
50.0
100
AcDbLine
 10
6435.610521715038
 20
2342.632458485155
 30
0.0
 11
6748.627657849848
 21
2345.762629846504
 31
0.0
  0
LINE
  5
13625
330
747D
100
AcDbEntity
  8
部品1
 48
100.0
100
AcDbLine
 10
7430.882479959493
 20
3519.746835418326
 30
0.0
 11
7430.882479959493
 21
3127.439195418326
 31
0.0
  0
LINE
  5
13626
330
747D
100
AcDbEntity
  8
部品1
 48
50.0
100
AcDbLine
 10
7477.105820642496
 20
2385.138380227838
 30
0.0
 11
7507.206150475266
 21
2385.138380227838
 31
0.0
  0
LINE
  5
13627
330
747D
100
AcDbEntity
  8
部品1
 48
50.0
100
AcDbLine
 10
7477.105820642488
 20
2385.138380227838
 30
0.0
 11
7444.690700689548
 21
2352.723260274901
 31
0.0
  0
LINE
  5
13628
330
747D
100
AcDbEntity
  8
部品1
 48
50.0
100
AcDbLine
 10
7627.507139973592
 20
2385.138380227838
 30
0.0
 11
7657.607469806364
 21
2385.138380227838
 31
0.0
  0
LINE
  5
13629
330
747D
100
AcDbEntity
  8
部品1
 48
50.0
100
AcDbLine
 10
7657.607469806371
 20
2385.138380227838
 30
0.0
 11
7687.593561154648
 21
2355.15228887955
 31
0.0
  0
LINE
  5
1362A
330
747D
100
AcDbEntity
  8
部品1
 48
50.0
100
AcDbLine
 10
8146.139304852786
 20
2522.790247627517
 30
0.0
 11
8215.129189751021
 21
2533.941815635307
 31
0.0
  0
LINE
  5
1362B
330
747D
100
AcDbEntity
  8
部品1
 48
50.0
100
AcDbLine
 10
8146.139304852786
 20
2522.790247627517
 30
0.0
 11
8215.364972692066
 21
2513.210654759934
 31
0.0
  0
LINE
  5
1362C
330
747D
100
AcDbEntity
  8
部品1
 48
50.0
100
AcDbLine
 10
9382.912672575582
 20
2556.934212383462
 30
0.0
 11
9382.912672575582
 21
1730.799723397104
 31
0.0
  0
LINE
  5
1362D
330
747D
100
AcDbEntity
  8
部品1
 48
50.0
100
AcDbLine
 10
9503.213662073909
 20
1730.799723397104
 30
0.0
 11
9503.213662073909
 21
2556.934212383462
 31
0.0
  0
LINE
  5
1362E
330
747D
100
AcDbEntity
  8
部品1
 48
50.0
100
AcDbLine
 10
8479.248371274591
 20
2421.939754832522
 30
0.0
 11
8479.248371274591
 21
1841.716830795493
 31
0.0
  0
LINE
  5
1362F
330
747D
100
AcDbEntity
  8
部品1
 48
50.0
100
AcDbLine
 10
8531.17144127459
 20
2421.939754832522
 30
0.0
 11
8531.17144127459
 21
1841.716830795493
 31
0.0
  0
LEADER
  5
13630
330
747D
100
AcDbEntity
  8
寸法
 48
5.0
100
AcDbLeader
  3
INABA_S40G詳細用20
 71
     0
 73
     0
 74
     0
 75
     1
 40
121.669047558312
 41
937.9999999999999
 76
     3
 10
9833.063167324738
 20
1537.253473397106
 30
0.0
 10
10078.9575592602
 20
1147.751905860606
 30
0.0
 10
10178.9575592602
 20
1147.751905860606
 30
0.0
  0
MTEXT
  5
13631
102
{ACAD_REACTORS
330
13630
102
}
330
747D
100
AcDbEntity
  8
部品1
 62
     7
 48
5.0
100
AcDbMText
 10
10218.9575592602
 20
1248.586429639761
 30
0.0
 40
120.0
 41
0.0
 71
     4
 72
     1
  1
\A1;4-D10両方向共
  7
STYLE1
 73
     1
 44
1.0
1001
ACAD
1000
MTEXTBEGIN
1070
    73
1070
     1
1070
    44
1040
1.0
1070
    74
1070
     0
1000
MTEXTEND
  0
HATCH
  5
13632
330
747D
100
AcDbEntity
  8
細線
 48
50.0
100
AcDbHatch
 10
0.0
 20
0.0
 30
0.0
210
0.0
220
0.0
230
1.0
  2
PLAST
 70
     0
 71
     0
 91
        2
 92
        7
 72
     0
 73
     1
 93
        8
 10
10043.06316732474
 20
2171.778473397103
 10
9503.213662073905
 20
2171.778473397103
 10
9503.213662073909
 20
1730.799723397104
 10
9382.912672575582
 20
1730.799723397104
 10
9382.912672575582
 20
2171.778473397103
 10
8843.063167324746
 20
2171.778473397103
 10
8843.063167324746
 20
1371.653473397103
 10
10043.06316732475
 20
1371.653473397103
 97
        0
 92
       22
 72
     1
 73
     1
 93
       20
 10
9587.063167324737
 20
1537.253473397106
 42
-0.4142135623731189
 10
9573.063167324738
 20
1523.253473397105
 42
0.0
 10
9833.063167324738
 20
1523.253473397105
 42
-0.4142135623731332
 10
9819.063167324737
 20
1537.253473397106
 42
-1.0
 10
9847.063167324737
 20
1537.253473397106
 42
-0.4142135623731332
 10
9833.063167324738
 20
1523.253473397105
 42
0.0
 10
9872.438167324737
 20
1523.253473397105
 42
0.0
 10
9872.438167324737
 20
1495.253473397102
 42
0.0
 10
9013.688167324737
 20
1495.253473397106
 42
0.0
 10
9013.688167324737
 20
1523.253473397106
 42
0.0
 10
9053.063167324737
 20
1523.253473397106
 42
-0.4142135623731046
 10
9039.063167324737
 20
1537.253473397106
 42
-1.0
 10
9067.063167324738
 20
1537.253473397106
 42
-0.4142135623730951
 10
9053.063167324737
 20
1523.253473397106
 42
0.0
 10
9313.063167324738
 20
1523.253473397106
 42
-0.4142135623731094
 10
9299.063167324737
 20
1537.253473397106
 42
-1.0
 10
9327.063167324737
 20
1537.253473397106
 42
-0.4142135623731094
 10
9313.063167324738
 20
1523.253473397106
 42
0.0
 10
9573.063167324738
 20
1523.253473397105
 42
-0.4142135623731189
 10
9559.063167324737
 20
1537.253473397106
 42
-1.0
 97
        0
 75
     0
 76
     1
 52
315.0
 41
60.0
 77
     0
 78
     3
 53
315.0
 43
0.0
 44
0.0
 45
269.4076836320747
 46
269.4076836320746
 79
     0
 53
315.0
 43
33.67596045400933
 44
33.67596045400932
 45
269.4076836320747
 46
269.4076836320746
 79
     0
 53
315.0
 43
67.35192090801866
 44
67.35192090801864
 45
269.4076836320747
 46
269.4076836320746
 79
     0
 47
4.770536170264612
 98
        2
 10
9647.808420859298
 20
1925.259069847281
 10
9647.808420859298
 20
1925.259069847281
  0
LINE
  5
13633
330
747D
100
AcDbEntity
  8
部品1
 48
50.0
100
AcDbLine
 10
9872.438167324737
 20
1523.253473397105
 30
0.0
 11
9013.688167324737
 21
1523.253473397106
 31
0.0
  0
LINE
  5
13634
330
747D
100
AcDbEntity
  8
部品1
 48
50.0
100
AcDbLine
 10
9872.438167324737
 20
1495.253473397103
 30
0.0
 11
9013.688167324737
 21
1495.253473397106
 31
0.0
  0
LINE
  5
13635
330
747D
100
AcDbEntity
  8
部品1
 48
50.0
100
AcDbLine
 10
8746.849048074611
 20
1371.653473397103
 30
0.0
 11
10139.27728657487
 21
1371.653473397103
 31
0.0
  0
LINE
  5
13636
330
747D
100
AcDbEntity
  8
部品1
 48
50.0
100
AcDbLine
 10
8746.849048074611
 20
1061.753473397105
 30
0.0
 11
10139.27728657487
 21
1061.753473397105
 31
0.0
  0
LINE
  5
13637
330
747D
100
AcDbEntity
  8
部品1
 48
50.0
100
AcDbLine
 10
8746.849048074611
 20
1271.753473397105
 30
0.0
 11
10139.27728657487
 21
1271.753473397105
 31
0.0
  0
HATCH
  5
13638
330
747D
100
AcDbEntity
  8
細線
 48
50.0
100
AcDbHatch
 10
0.0
 20
0.0
 30
0.0
210
0.0
220
0.0
230
1.0
  2
PLAST
 70
     0
 71
     0
 91
        1
 92
        7
 72
     0
 73
     1
 93
        4
 10
10139.27728657487
 20
1371.653473397103
 10
8746.849048074611
 20
1371.653473397103
 10
8746.849048074611
 20
1271.753473397105
 10
10139.27728657487
 20
1271.753473397105
 97
        0
 75
     0
 76
     1
 52
45.0
 41
60.0
 77
     0
 78
     3
 53
45.0
 43
1875.706522100314
 44
0.0
 45
-269.4076836320746
 46
269.4076836320746
 79
     0
 53
45.0
 43
1842.030561646305
 44
33.67596045400933
 45
-269.4076836320746
 46
269.4076836320746
 79
     0
 53
45.0
 43
1808.354601192295
 44
67.35192090801866
 45
-269.4076836320746
 46
269.4076836320746
 79
     0
 47
2.021456610930475
 98
        1
 10
9925.023143417718
 20
1348.963404449929
  0
LINE
  5
13639
330
747D
100
AcDbEntity
  8
部品1
 48
50.0
100
AcDbLine
 10
9503.213662073909
 20
2171.778473397103
 30
0.0
 11
10354.95489337491
 21
2171.778473397103
 31
0.0
  0
LINE
  5
1363A
330
747D
100
AcDbEntity
  8
部品1
 48
50.0
100
AcDbLine
 10
8746.849048074611
 20
1371.653473397103
 30
0.0
 11
8746.849048074611
 21
1061.753473397105
 31
0.0
  0
LINE
  5
1363B
330
747D
100
AcDbEntity
  8
細線
 48
50.0
100
AcDbLine
 10
9053.302125524071
 20
1096.753473397105
 30
0.0
 11
9068.563167324752
 21
1061.753473397105
 31
0.0
  0
LINE
  5
1363C
330
747D
100
AcDbEntity
  8
細線
 48
50.0
100
AcDbLine
 10
9040.563167324751
 20
1061.753473397105
 30
0.0
 11
9116.996916520653
 21
1271.753473397105
 31
0.0
  0
LINE
  5
1363D
330
747D
100
AcDbEntity
  8
細線
 48
50.0
100
AcDbLine
 10
8913.30212552407
 20
1096.753473397105
 30
0.0
 11
8928.563167324751
 21
1061.753473397105
 31
0.0
  0
LINE
  5
1363E
330
747D
100
AcDbEntity
  8
細線
 48
50.0
100
AcDbLine
 10
8760.563167324752
 20
1061.753473397105
 30
0.0
 11
8836.996916520652
 21
1271.753473397103
 31
0.0
  0
LINE
  5
1363F
330
747D
100
AcDbEntity
  8
細線
 48
50.0
100
AcDbLine
 10
8773.302125524072
 20
1096.753473397105
 30
0.0
 11
8788.563167324751
 21
1061.753473397105
 31
0.0
  0
LINE
  5
13640
330
747D
100
AcDbEntity
  8
細線
 48
50.0
100
AcDbLine
 10
8900.563167324753
 20
1061.753473397105
 30
0.0
 11
8976.996916520652
 21
1271.753473397103
 31
0.0
  0
LINE
  5
13641
330
747D
100
AcDbEntity
  8
細線
 48
50.0
100
AcDbLine
 10
8808.996916520653
 20
1271.753473397103
 30
0.0
 11
8824.257958321334
 21
1236.753473397105
 31
0.0
  0
LINE
  5
13642
330
747D
100
AcDbEntity
  8
細線
 48
50.0
100
AcDbLine
 10
8948.996916520654
 20
1271.753473397103
 30
0.0
 11
8964.257958321333
 21
1236.753473397105
 31
0.0
  0
LINE
  5
13643
330
747D
100
AcDbEntity
  8
細線
 48
50.0
100
AcDbLine
 10
9320.563167324753
 20
1061.753473397106
 30
0.0
 11
9396.996916520654
 21
1271.753473397105
 31
0.0
  0
LINE
  5
13644
330
747D
100
AcDbEntity
  8
細線
 48
50.0
100
AcDbLine
 10
9333.30212552407
 20
1096.753473397106
 30
0.0
 11
9348.563167324753
 21
1061.753473397106
 31
0.0
  0
LINE
  5
13645
330
747D
100
AcDbEntity
  8
細線
 48
50.0
100
AcDbLine
 10
9193.302125524072
 20
1096.753473397105
 30
0.0
 11
9208.563167324752
 21
1061.753473397105
 31
0.0
  0
LINE
  5
13646
330
747D
100
AcDbEntity
  8
細線
 48
50.0
100
AcDbLine
 10
9180.563167324752
 20
1061.753473397105
 30
0.0
 11
9256.996916520654
 21
1271.753473397105
 31
0.0
  0
LINE
  5
13647
330
747D
100
AcDbEntity
  8
細線
 48
50.0
100
AcDbLine
 10
9088.996916520654
 20
1271.753473397105
 30
0.0
 11
9104.257958321333
 21
1236.753473397105
 31
0.0
  0
LINE
  5
13648
330
747D
100
AcDbEntity
  8
細線
 48
50.0
100
AcDbLine
 10
9368.996916520654
 20
1271.753473397105
 30
0.0
 11
9384.257958321333
 21
1236.753473397106
 31
0.0
  0
LINE
  5
13649
330
747D
100
AcDbEntity
  8
細線
 48
50.0
100
AcDbLine
 10
9228.996916520653
 20
1271.753473397105
 30
0.0
 11
9244.257958321334
 21
1236.753473397105
 31
0.0
  0
LINE
  5
1364A
330
747D
100
AcDbEntity
  8
細線
 48
50.0
100
AcDbLine
 10
9473.302125524071
 20
1096.753473397106
 30
0.0
 11
9488.563167324752
 21
1061.753473397106
 31
0.0
  0
LINE
  5
1364B
330
747D
100
AcDbEntity
  8
細線
 48
50.0
100
AcDbLine
 10
9460.563167324751
 20
1061.753473397106
 30
0.0
 11
9536.996916520653
 21
1271.753473397106
 31
0.0
  0
LINE
  5
1364C
330
747D
100
AcDbEntity
  8
細線
 48
50.0
100
AcDbLine
 10
9613.302125524072
 20
1096.753473397105
 30
0.0
 11
9628.563167324752
 21
1061.753473397105
 31
0.0
  0
LINE
  5
1364D
330
747D
100
AcDbEntity
  8
細線
 48
50.0
100
AcDbLine
 10
9600.563167324752
 20
1061.753473397105
 30
0.0
 11
9676.996916520653
 21
1271.753473397105
 31
0.0
  0
LINE
  5
1364E
330
747D
100
AcDbEntity
  8
細線
 48
50.0
100
AcDbLine
 10
9508.996916520652
 20
1271.753473397106
 30
0.0
 11
9524.257958321333
 21
1236.753473397106
 31
0.0
  0
LINE
  5
1364F
330
747D
100
AcDbEntity
  8
細線
 48
50.0
100
AcDbLine
 10
9648.996916520653
 20
1271.753473397105
 30
0.0
 11
9664.257958321334
 21
1236.753473397105
 31
0.0
  0
CIRCLE
  5
13650
330
747D
100
AcDbEntity
  8
部品1
 48
5.0
100
AcDbCircle
 10
9053.063167324737
 20
1537.253473397106
 30
0.0
 40
14.0
  0
LINE
  5
13651
330
747D
100
AcDbEntity
  8
部品1
 48
50.0
100
AcDbLine
 10
9382.912672575582
 20
2171.778473397103
 30
0.0
 11
8531.17144127459
 21
2171.778473397103
 31
0.0
  0
LINE
  5
13652
330
747D
100
AcDbEntity
  8
部品1
 48
50.0
100
AcDbLine
 10
8843.063167324748
 20
1371.653473397103
 30
0.0
 11
8843.063167324746
 21
2171.778473397103
 31
0.0
  0
LINE
  5
13653
330
747D
100
AcDbEntity
  8
部品1
 48
50.0
100
AcDbLine
 10
9013.688167324737
 20
1495.253473397103
 30
0.0
 11
9013.688167324737
 21
1523.253473397106
 31
0.0
  0
LINE
  5
13654
330
747D
100
AcDbEntity
  8
部品1
 48
50.0
100
AcDbLine
 10
8843.063167324746
 20
1904.635869400447
 30
0.0
 11
8531.17144127459
 21
1904.635869400447
 31
0.0
  0
LINE
  5
13655
330
747D
100
AcDbEntity
  8
細線
 48
50.0
100
AcDbLine
 10
8599.539524187285
 20
1904.635869400448
 30
0.0
 11
8696.771480346431
 21
2171.778473397104
 31
0.0
  0
LINE
  5
13656
330
747D
100
AcDbEntity
  8
細線
 48
50.0
100
AcDbLine
 10
8407.793654432678
 20
1934.736199233222
 30
0.0
 11
8420.918294198175
 21
1904.635869400447
 31
0.0
  0
LINE
  5
13657
330
747D
100
AcDbEntity
  8
細線
 48
50.0
100
AcDbLine
 10
8610.519520089338
 20
1934.736199233222
 30
0.0
 11
8623.644159854837
 21
1904.635869400447
 31
0.0
  0
LINE
  5
13658
330
747D
100
AcDbEntity
  8
細線
 48
50.0
100
AcDbLine
 10
8469.903749431702
 20
2171.778473397104
 30
0.0
 11
8479.248371274591
 21
2150.347317597077
 31
0.0
  0
LINE
  5
13659
330
747D
100
AcDbEntity
  8
細線
 48
50.0
100
AcDbLine
 10
8672.629615088364
 20
2171.778473397104
 30
0.0
 11
8685.78782990443
 21
2141.601141824525
 31
0.0
  0
LINE
  5
1365A
330
747D
100
AcDbEntity
  8
細線
 48
50.0
100
AcDbLine
 10
8802.265389843945
 20
1904.635869400447
 30
0.0
 11
8843.063167324748
 21
2016.726841792887
 31
0.0
  0
LINE
  5
1365B
330
747D
100
AcDbEntity
  8
細線
 48
50.0
100
AcDbLine
 10
8813.245385746002
 20
1934.736199233222
 30
0.0
 11
8826.370025511499
 21
1904.635869400447
 31
0.0
  0
LINE
  5
1365C
330
747D
100
AcDbEntity
  8
部品1
 48
5.0
100
AcDbLine
 10
9382.91267257558
 20
1730.799723397104
 30
0.0
 11
9503.213662073909
 21
1730.799723397104
 31
0.0
  0
CIRCLE
  5
1365D
330
747D
100
AcDbEntity
  8
部品1
 48
5.0
100
AcDbCircle
 10
9313.063167324738
 20
1537.253473397106
 30
0.0
 40
14.0
  0
CIRCLE
  5
1365E
330
747D
100
AcDbEntity
  8
部品1
 48
5.0
100
AcDbCircle
 10
9573.063167324738
 20
1537.253473397106
 30
0.0
 40
14.0
  0
CIRCLE
  5
1365F
330
747D
100
AcDbEntity
  8
部品1
 48
50.0
100
AcDbCircle
 10
9443.063167324751
 20
1791.000383062655
 30
0.0
 40
12.0401319331104
  0
LINE
  5
13660
330
747D
100
AcDbEntity
  8
部品1
 48
50.0
100
AcDbLine
 10
10139.27728657487
 20
1371.653473397103
 30
0.0
 11
10139.27728657487
 21
1061.753473397105
 31
0.0
  0
LINE
  5
13661
330
747D
100
AcDbEntity
  8
細線
 48
50.0
100
AcDbLine
 10
10033.30212552407
 20
1096.753473397105
 30
0.0
 11
10048.56316732475
 21
1061.753473397105
 31
0.0
  0
LINE
  5
13662
330
747D
100
AcDbEntity
  8
細線
 48
50.0
100
AcDbLine
 10
10020.56316732475
 20
1061.753473397105
 30
0.0
 11
10096.99691652064
 21
1271.753473397104
 31
0.0
  0
LINE
  5
13663
330
747D
100
AcDbEntity
  8
細線
 48
50.0
100
AcDbLine
 10
9753.302125524072
 20
1096.753473397106
 30
0.0
 11
9768.563167324751
 21
1061.753473397106
 31
0.0
  0
LINE
  5
13664
330
747D
100
AcDbEntity
  8
細線
 48
50.0
100
AcDbLine
 10
9740.563167324751
 20
1061.753473397106
 30
0.0
 11
9816.996916520654
 21
1271.753473397105
 31
0.0
  0
LINE
  5
13665
330
747D
100
AcDbEntity
  8
細線
 48
50.0
100
AcDbLine
 10
9893.302125524073
 20
1096.753473397106
 30
0.0
 11
9908.563167324752
 21
1061.753473397106
 31
0.0
  0
LINE
  5
13666
330
747D
100
AcDbEntity
  8
細線
 48
50.0
100
AcDbLine
 10
9880.563167324751
 20
1061.753473397106
 30
0.0
 11
9956.996916520653
 21
1271.753473397106
 31
0.0
  0
LINE
  5
13667
330
747D
100
AcDbEntity
  8
細線
 48
50.0
100
AcDbLine
 10
9788.996916520654
 20
1271.753473397105
 30
0.0
 11
9804.257958321334
 21
1236.753473397106
 31
0.0
  0
LINE
  5
13668
330
747D
100
AcDbEntity
  8
細線
 48
50.0
100
AcDbLine
 10
9928.996916520652
 20
1271.753473397106
 30
0.0
 11
9944.257958321335
 21
1236.753473397106
 31
0.0
  0
LINE
  5
13669
330
747D
100
AcDbEntity
  8
細線
 48
50.0
100
AcDbLine
 10
10068.99691652064
 20
1271.753473397106
 30
0.0
 11
10084.25795832132
 21
1236.753473397106
 31
0.0
  0
LINE
  5
1366A
330
747D
100
AcDbEntity
  8
部品1
 48
50.0
100
AcDbLine
 10
10043.06316732475
 20
1371.653473397103
 30
0.0
 11
10043.06316732475
 21
2171.778473397103
 31
0.0
  0
CIRCLE
  5
1366B
330
747D
100
AcDbEntity
  8
部品1
 48
5.0
100
AcDbCircle
 10
9833.063167324738
 20
1537.253473397106
 30
0.0
 40
14.0
  0
LINE
  5
1366C
330
747D
100
AcDbEntity
  8
部品1
 48
50.0
100
AcDbLine
 10
9872.438167324737
 20
1495.253473397106
 30
0.0
 11
9872.438167324737
 21
1523.253473397105
 31
0.0
  0
LINE
  5
1366D
330
747D
100
AcDbEntity
  8
細線
 48
50.0
100
AcDbLine
 10
10221.34644944057
 20
1904.635869400448
 30
0.0
 11
10318.57840559972
 21
2171.778473397103
 31
0.0
  0
LINE
  5
1366E
330
747D
100
AcDbEntity
  8
細線
 48
50.0
100
AcDbLine
 10
10043.06316732475
 20
1971.791315752021
 30
0.0
 11
10115.85253994306
 21
2171.778473397104
 31
0.0
  0
LINE
  5
1366F
330
747D
100
AcDbEntity
  8
部品1
 48
50.0
100
AcDbLine
 10
10043.06316732474
 20
1904.635869400445
 30
0.0
 11
10354.95489337491
 21
1904.635869400447
 31
0.0
  0
LINE
  5
13670
330
747D
100
AcDbEntity
  8
細線
 48
50.0
100
AcDbLine
 10
10232.32644534263
 20
1934.736199233222
 30
0.0
 11
10245.45108510813
 21
1904.635869400447
 31
0.0
  0
LINE
  5
13671
330
747D
100
AcDbEntity
  8
細線
 48
50.0
100
AcDbLine
 10
10091.71067468499
 20
2171.778473397103
 30
0.0
 11
10104.86888950106
 21
2141.601141824525
 31
0.0
  0
LINE
  5
13672
330
747D
100
AcDbEntity
  8
細線
 48
50.0
100
AcDbLine
 10
10294.43654034165
 20
2171.778473397103
 30
0.0
 11
10307.59475515772
 21
2141.601141824525
 31
0.0
  0
LINE
  5
13673
330
747D
100
AcDbEntity
  8
部品1
 48
50.0
100
AcDbLine
 10
9563.586884749872
 20
2371.480910386697
 30
0.0
 11
10354.95489337491
 21
2362.480397697104
 31
0.0
  0
LINE
  5
13674
330
747D
100
AcDbEntity
  8
部品1
 48
50.0
100
AcDbLine
 10
9619.561584161839
 20
2531.099169784787
 30
0.0
 11
10739.98702979672
 21
2522.790247627517
 31
0.0
  0
MTEXT
  5
13675
330
747D
100
AcDbEntity
  8
寸法
 62
     7
 48
50.0
100
AcDbMText
 10
9628.612747611242
 20
2646.955097062761
 30
0.0
 40
120.0
 41
0.0
 71
     4
 72
     1
  1
\A1;水勾配１／１００ 
  7
STYLE1
 73
     1
 44
1.0
1001
ACAD
1000
MTEXTBEGIN
1070
    73
1070
     1
1070
    44
1040
1.0
1070
    74
1070
     0
1000
MTEXTEND
  0
LINE
  5
13676
330
747D
100
AcDbEntity
  8
部品1
 48
100.0
100
AcDbLine
 10
9016.317520040507
 20
3519.746835418325
 30
0.0
 11
9016.317520040507
 21
3127.439195418324
 31
0.0
  0
LINE
  5
13677
330
747D
100
AcDbEntity
  8
部品1
 48
50.0
100
AcDbLine
 10
8531.17144127459
 20
2363.588067680751
 30
0.0
 11
9322.560497758519
 21
2371.50195824559
 31
0.0
  0
LINE
  5
13678
330
747D
100
AcDbEntity
  8
部品1
 48
50.0
100
AcDbLine
 10
9352.812342742812
 20
2401.753803229882
 30
0.0
 11
9322.560497758518
 21
2371.50195824559
 31
0.0
  0
LINE
  5
13679
330
747D
100
AcDbEntity
  8
部品1
 48
50.0
100
AcDbLine
 10
9352.812342742812
 20
2401.753803229882
 30
0.0
 11
9382.912672575582
 21
2401.753803229882
 31
0.0
  0
LINE
  5
1367A
330
747D
100
AcDbEntity
  8
部品1
 48
50.0
100
AcDbLine
 10
9533.313991906686
 20
2401.753803229881
 30
0.0
 11
9563.586884749872
 21
2371.480910386697
 31
0.0
  0
LINE
  5
1367B
330
747D
100
AcDbEntity
  8
部品1
 48
50.0
100
AcDbLine
 10
9503.213662073909
 20
2401.753803229882
 30
0.0
 11
9533.313991906686
 21
2401.753803229882
 31
0.0
  0
LINE
  5
1367C
330
747D
100
AcDbEntity
  8
部品1
 48
50.0
100
AcDbLine
 10
10739.98702979672
 20
2522.790247627517
 30
0.0
 11
10670.76136195743
 21
2513.210654759934
 31
0.0
  0
LINE
  5
1367D
330
747D
100
AcDbEntity
  8
部品1
 48
50.0
100
AcDbLine
 10
10739.98702979672
 20
2522.790247627517
 30
0.0
 11
10670.99714489848
 21
2533.941815635307
 31
0.0
  0
ENDSEC
  0
SECTION
  2
OBJECTS
  0
DICTIONARY
  5
7471
330
0
100
AcDbDictionary
281
     1
  3
ACAD_COLOR
350
12FD5
  3
ACAD_GROUP
350
7472
  3
ACAD_LAYOUT
350
12FD6
  3
ACAD_MATERIAL
350
12FD4
  3
ACAD_MLINESTYLE
350
7473
  3
ACAD_PLOTSETTINGS
350
12FD7
  3
ACAD_PLOTSTYLENAME
350
12FD2
  3
ACDBHEADERROUNDTRIPXREC
350
1371B
  3
ACDBVARIABLEDICTIONARY
350
11B74
  3
CONTENTDICTIONARY
350
E71C
  3
DRAWINGVARIABLESDICT
350
F3B9
  0
DICTIONARY
  5
12FD5
102
{ACAD_REACTORS
330
7471
102
}
330
7471
100
AcDbDictionary
281
     1
  0
DICTIONARY
  5
7472
102
{ACAD_REACTORS
330
7471
102
}
330
7471
100
AcDbDictionary
281
     1
  0
DICTIONARY
  5
12FD6
102
{ACAD_REACTORS
330
7471
102
}
330
7471
100
AcDbDictionary
281
     1
  3
Model
350
12FD8
  3
レイアウト1
350
12FD9
  0
DICTIONARY
  5
12FD4
102
{ACAD_REACTORS
330
7471
102
}
330
7471
100
AcDbDictionary
281
     1
  0
DICTIONARY
  5
7473
102
{ACAD_REACTORS
330
7471
102
}
330
7471
100
AcDbDictionary
281
     1
  3
STANDARD
350
7480
  0
DICTIONARY
  5
12FD7
102
{ACAD_REACTORS
330
7471
102
}
330
7471
100
AcDbDictionary
281
     1
  0
ACDBDICTIONARYWDFLT
  5
12FD2
102
{ACAD_REACTORS
330
7471
102
}
330
7471
100
AcDbDictionary
281
     1
  3
Normal
350
12FD3
100
AcDbDictionaryWithDefault
340
12FD3
  0
DICTIONARY
  5
1371B
102
{ACAD_REACTORS
330
7471
102
}
330
7471
100
AcDbDictionary
281
     1
  3
COLORDICT
350
1371D
  3
MATERIALDICT
350
1371C
  0
DICTIONARY
  5
11B74
102
{ACAD_REACTORS
330
7471
102
}
330
7471
100
AcDbDictionary
281
     1
  3
DIMASSOC
350
13718
  3
PROJECTNAME
350
13719
  3
SORTENTS
350
11B75
  0
DICTIONARY
  5
E71C
102
{ACAD_REACTORS
330
7471
102
}
330
7471
100
AcDbDictionary
281
     1
  0
DICTIONARY
  5
F3B9
102
{ACAD_REACTORS
330
7471
102
}
330
7471
100
AcDbDictionary
281
     1
1001
DRAWINGVARIABLESXDATA
1000
POLARMODE
1000
1
  0
LAYOUT
  5
12FD8
102
{ACAD_XDICTIONARY
360
1371E
102
}
102
{ACAD_REACTORS
330
12FD6
102
}
330
12FD6
100
AcDbPlotSettings
  1

  2
iR C3880
  4
A3
  6

 40
5.873749732971191
 41
5.873747825622558
 42
5.873748779296875
 43
5.873748779296875
 44
296.9259948730469
 45
419.9466552734374
 46
0.0
 47
0.0
 48
0.0
 49
0.0
140
0.0
141
0.0
142
1.0
143
41.65811991999086
 70
 11952
 72
     1
 73
     1
 74
     2
  7
inaba.ctb
 75
     0
147
0.0240049239360925
148
0.0
149
0.0
100
AcDbLayout
  1
Model
 70
     1
 71
     0
 10
0.0
 20
0.0
 11
12.0
 21
9.0
 12
0.0
 22
0.0
 32
0.0
 14
0.0
 24
0.0
 34
0.0
 15
0.0
 25
0.0
 35
0.0
146
0.0
 13
0.0
 23
0.0
 33
0.0
 16
1.0
 26
0.0
 36
0.0
 17
0.0
 27
1.0
 37
0.0
 76
     0
330
747D
  0
LAYOUT
  5
12FD9
102
{ACAD_XDICTIONARY
360
13720
102
}
102
{ACAD_REACTORS
330
12FD6
102
}
330
12FD6
100
AcDbPlotSettings
  1

  2
Microsoft XPS Document Writer
  4

  6

 40
0.0
 41
0.0
 42
0.0
 43
0.0
 44
0.0
 45
0.0
 46
0.0
 47
0.0
 48
0.0
 49
0.0
140
0.0
141
0.0
142
1.0
143
1.0
 70
   688
 72
     0
 73
     0
 74
     5
  7
inaba.ctb
 75
    16
147
1.0
148
0.0
149
0.0
100
AcDbLayout
  1
レイアウト1
 70
     0
 71
     1
 10
0.0
 20
0.0
 11
420.0
 21
297.0
 12
0.0
 22
0.0
 32
0.0
 14
1.000000000000000E+20
 24
1.000000000000000E+20
 34
1.000000000000000E+20
 15
-1.000000000000000E+20
 25
-1.000000000000000E+20
 35
-1.000000000000000E+20
146
0.0
 13
0.0
 23
0.0
 33
0.0
 16
1.0
 26
0.0
 36
0.0
 17
0.0
 27
1.0
 37
0.0
 76
     0
330
747A
  0
MLINESTYLE
  5
7480
102
{ACAD_REACTORS
330
7473
102
}
330
7473
100
AcDbMlineStyle
  2
STANDARD
 70
     0
  3

 62
     0
 51
90.0
 52
90.0
 71
     2
 49
0.5
 62
   256
  6
BYLAYER
 49
-0.5
 62
   256
  6
BYLAYER
  0
ACDBPLACEHOLDER
  5
12FD3
102
{ACAD_REACTORS
330
12FD2
102
}
330
12FD2
  0
XRECORD
  5
1371D
102
{ACAD_REACTORS
330
1371B
102
}
330
1371B
100
AcDbXrecord
280
     1
340
12FD5
  0
XRECORD
  5
1371C
102
{ACAD_REACTORS
330
1371B
102
}
330
1371B
100
AcDbXrecord
280
     1
340
12FD4
  0
DICTIONARYVAR
  5
13718
102
{ACAD_REACTORS
330
11B74
102
}
330
11B74
100
DictionaryVariables
280
     0
  1
1
  0
DICTIONARYVAR
  5
13719
102
{ACAD_REACTORS
330
11B74
102
}
330
11B74
100
DictionaryVariables
280
     0
  1

  0
DICTIONARYVAR
  5
11B75
102
{ACAD_REACTORS
330
11B74
102
}
330
11B74
100
DictionaryVariables
280
     0
  1
96
  0
DICTIONARY
  5
1371E
330
12FD8
100
AcDbDictionary
280
     1
281
     1
  3
ACAD_XREC_ROUNDTRIP
360
1371F
  0
DICTIONARY
  5
13720
330
12FD9
100
AcDbDictionary
280
     1
281
     1
  3
ACAD_XREC_ROUNDTRIP
360
13721
  0
XRECORD
  5
1371F
102
{ACAD_REACTORS
330
1371E
102
}
330
1371E
100
AcDbXrecord
280
     1
102
SHADEPLOT
 70
     0
102
SHADEPLOTRESLEVEL
 70
     2
102
SHADEPLOTCUSTOMDPI
 70
   300
  0
XRECORD
  5
13721
102
{ACAD_REACTORS
330
13720
102
}
330
13720
100
AcDbXrecord
280
     1
102
SHADEPLOT
 70
     0
102
SHADEPLOTRESLEVEL
 70
     2
102
SHADEPLOTCUSTOMDPI
 70
   300
  0
ENDSEC
  0
EOF
