  0
SECTION
  2
HEADER
  9
$ACADVER
  1
AC1015
  9
$ACADMAINTVER
 70
    20
  9
$DWGCODEPAGE
  3
ANSI_932
  9
$INSBASE
 10
0.0
 20
0.0
 30
0.0
  9
$EXTMIN
 10
139.9999999999995
 20
-0.0000000000000909
 30
0.0
  9
$EXTMAX
 10
16307.2
 20
11409.6
 30
0.0
  9
$LIMMIN
 10
0.0
 20
0.0
  9
$LIMMAX
 10
16800.0
 20
11880.0
  9
$ORTHOMODE
 70
     0
  9
$REGENMODE
 70
     1
  9
$FILLMODE
 70
     1
  9
$QTEXTMODE
 70
     0
  9
$MIRRTEXT
 70
     1
  9
$LTSCALE
 40
5.0
  9
$ATTMODE
 70
     1
  9
$TEXTSIZE
 40
100.0
  9
$TRACEWID
 40
1.0
  9
$TEXTSTYLE
  7
STYLE3
  9
$CLAYER
  8
部品1
  9
$CELTYPE
  6
BYLAYER
  9
$CECOLOR
 62
   256
  9
$CELTSCALE
 40
50.0
  9
$DISPSILH
 70
     0
  9
$DIMSCALE
 40
40.0
  9
$DIMASZ
 40
2.5
  9
$DIMEXO
 40
0.5
  9
$DIMDLI
 40
7.0
  9
$DIMRND
 40
0.0
  9
$DIMDLE
 40
0.0
  9
$DIMEXE
 40
1.5
  9
$DIMTP
 40
0.0
  9
$DIMTM
 40
0.0
  9
$DIMTXT
 40
3.0
  9
$DIMCEN
 40
0.0
  9
$DIMTSZ
 40
0.0
  9
$DIMTOL
 70
     0
  9
$DIMLIM
 70
     0
  9
$DIMTIH
 70
     0
  9
$DIMTOH
 70
     0
  9
$DIMSE1
 70
     0
  9
$DIMSE2
 70
     0
  9
$DIMTAD
 70
     3
  9
$DIMZIN
 70
     8
  9
$DIMBLK
  1

  9
$DIMASO
 70
     1
  9
$DIMSHO
 70
     1
  9
$DIMPOST
  1

  9
$DIMAPOST
  1

  9
$DIMALT
 70
     0
  9
$DIMALTD
 70
     2
  9
$DIMALTF
 40
0.0394
  9
$DIMLFAC
 40
1.0
  9
$DIMTOFL
 70
     1
  9
$DIMTVP
 40
0.0
  9
$DIMTIX
 70
     1
  9
$DIMSOXD
 70
     0
  9
$DIMSAH
 70
     1
  9
$DIMBLK1
  1
DOTSMALL
  9
$DIMBLK2
  1
DOTSMALL
  9
$DIMSTYLE
  2
INABA_S40G
  9
$DIMCLRD
 70
     0
  9
$DIMCLRE
 70
     0
  9
$DIMCLRT
 70
     7
  9
$DIMTFAC
 40
1.0
  9
$DIMGAP
 40
1.0
  9
$DIMJUST
 70
     0
  9
$DIMSD1
 70
     0
  9
$DIMSD2
 70
     0
  9
$DIMTOLJ
 70
     1
  9
$DIMTZIN
 70
     0
  9
$DIMALTZ
 70
     0
  9
$DIMALTTZ
 70
     0
  9
$DIMUPT
 70
     0
  9
$DIMDEC
 70
     1
  9
$DIMTDEC
 70
     4
  9
$DIMALTU
 70
     2
  9
$DIMALTTD
 70
     2
  9
$DIMTXSTY
  7
STYLE1
  9
$DIMAUNIT
 70
     0
  9
$DIMADEC
 70
     0
  9
$DIMALTRND
 40
0.0
  9
$DIMAZIN
 70
     0
  9
$DIMDSEP
 70
    46
  9
$DIMATFIT
 70
     3
  9
$DIMFRAC
 70
     0
  9
$DIMLDRBLK
  1

  9
$DIMLUNIT
 70
     2
  9
$DIMLWD
 70
    -2
  9
$DIMLWE
 70
    -2
  9
$DIMTMOVE
 70
     0
  9
$LUNITS
 70
     2
  9
$LUPREC
 70
     1
  9
$SKETCHINC
 40
1.0
  9
$FILLETRAD
 40
0.0
  9
$AUNITS
 70
     0
  9
$AUPREC
 70
     0
  9
$MENU
  1
acad
  9
$ELEVATION
 40
0.0
  9
$PELEVATION
 40
0.0
  9
$THICKNESS
 40
0.0
  9
$LIMCHECK
 70
     0
  9
$CHAMFERA
 40
0.0
  9
$CHAMFERB
 40
0.0
  9
$CHAMFERC
 40
0.0
  9
$CHAMFERD
 40
0.0
  9
$SKPOLY
 70
     0
  9
$TDCREATE
 40
2451052.600153125
  9
$TDUCREATE
 40
2451052.225153125
  9
$TDUPDATE
 40
2457991.396935278
  9
$TDUUPDATE
 40
2457991.021935278
  9
$TDINDWG
 40
0.5487146528
  9
$TDUSRTIMER
 40
0.5487146528
  9
$USRTIMER
 70
     1
  9
$ANGBASE
 50
0.0
  9
$ANGDIR
 70
     0
  9
$PDMODE
 70
     3
  9
$PDSIZE
 40
2.0
  9
$PLINEWID
 40
20.0
  9
$SPLFRAME
 70
     0
  9
$SPLINETYPE
 70
     6
  9
$SPLINESEGS
 70
     8
  9
$HANDSEED
  5
13C07
  9
$SURFTAB1
 70
     6
  9
$SURFTAB2
 70
     6
  9
$SURFTYPE
 70
     6
  9
$SURFU
 70
     6
  9
$SURFV
 70
     6
  9
$UCSBASE
  2

  9
$UCSNAME
  2

  9
$UCSORG
 10
0.0
 20
0.0
 30
0.0
  9
$UCSXDIR
 10
1.0
 20
0.0
 30
0.0
  9
$UCSYDIR
 10
0.0
 20
1.0
 30
0.0
  9
$UCSORTHOREF
  2

  9
$UCSORTHOVIEW
 70
     0
  9
$UCSORGTOP
 10
0.0
 20
0.0
 30
0.0
  9
$UCSORGBOTTOM
 10
0.0
 20
0.0
 30
0.0
  9
$UCSORGLEFT
 10
0.0
 20
0.0
 30
0.0
  9
$UCSORGRIGHT
 10
0.0
 20
0.0
 30
0.0
  9
$UCSORGFRONT
 10
0.0
 20
0.0
 30
0.0
  9
$UCSORGBACK
 10
0.0
 20
0.0
 30
0.0
  9
$PUCSBASE
  2

  9
$PUCSNAME
  2

  9
$PUCSORG
 10
0.0
 20
0.0
 30
0.0
  9
$PUCSXDIR
 10
1.0
 20
0.0
 30
0.0
  9
$PUCSYDIR
 10
0.0
 20
1.0
 30
0.0
  9
$PUCSORTHOREF
  2

  9
$PUCSORTHOVIEW
 70
     0
  9
$PUCSORGTOP
 10
0.0
 20
0.0
 30
0.0
  9
$PUCSORGBOTTOM
 10
0.0
 20
0.0
 30
0.0
  9
$PUCSORGLEFT
 10
0.0
 20
0.0
 30
0.0
  9
$PUCSORGRIGHT
 10
0.0
 20
0.0
 30
0.0
  9
$PUCSORGFRONT
 10
0.0
 20
0.0
 30
0.0
  9
$PUCSORGBACK
 10
0.0
 20
0.0
 30
0.0
  9
$USERI1
 70
     0
  9
$USERI2
 70
     0
  9
$USERI3
 70
     0
  9
$USERI4
 70
     0
  9
$USERI5
 70
     0
  9
$USERR1
 40
0.0
  9
$USERR2
 40
0.0
  9
$USERR3
 40
0.0
  9
$USERR4
 40
0.0
  9
$USERR5
 40
0.0
  9
$WORLDVIEW
 70
     1
  9
$SHADEDGE
 70
     3
  9
$SHADEDIF
 70
    70
  9
$TILEMODE
 70
     1
  9
$MAXACTVP
 70
    16
  9
$PINSBASE
 10
0.0
 20
0.0
 30
0.0
  9
$PLIMCHECK
 70
     0
  9
$PEXTMIN
 10
1.000000000000000E+20
 20
1.000000000000000E+20
 30
1.000000000000000E+20
  9
$PEXTMAX
 10
-1.000000000000000E+20
 20
-1.000000000000000E+20
 30
-1.000000000000000E+20
  9
$PLIMMIN
 10
0.0
 20
0.0
  9
$PLIMMAX
 10
420.0
 20
297.0
  9
$UNITMODE
 70
     0
  9
$VISRETAIN
 70
     0
  9
$PLINEGEN
 70
     0
  9
$PSLTSCALE
 70
     0
  9
$TREEDEPTH
 70
  3020
  9
$CMLSTYLE
  2
STANDARD
  9
$CMLJUST
 70
     0
  9
$CMLSCALE
 40
1.0
  9
$PROXYGRAPHICS
 70
     1
  9
$MEASUREMENT
 70
     1
  9
$CELWEIGHT
370
    -1
  9
$ENDCAPS
280
     0
  9
$JOINSTYLE
280
     0
  9
$LWDISPLAY
290
     0
  9
$INSUNITS
 70
     0
  9
$HYPERLINKBASE
  1

  9
$STYLESHEET
  1
inaba.ctb
  9
$XEDIT
290
     1
  9
$CEPSNTYPE
380
     0
  9
$PSTYLEMODE
290
     1
  9
$FINGERPRINTGUID
  2
{FB7B62C9-B7E7-406C-95E3-F2D89C3F59E1}
  9
$VERSIONGUID
  2
{399D1621-9D99-4465-BACA-0788FD4156EF}
  9
$EXTNAMES
290
     1
  9
$PSVPSCALE
 40
0.0
  9
$OLESTARTUP
290
     0
  0
ENDSEC
  0
SECTION
  2
CLASSES
  0
CLASS
  1
DICTIONARYVAR
  2
AcDbDictionaryVar
  3
ObjectDBX Classes
 90
        0
280
     0
281
     0
  0
CLASS
  1
ACDBDICTIONARYWDFLT
  2
AcDbDictionaryWithDefault
  3
ObjectDBX Classes
 90
        0
280
     0
281
     0
  0
CLASS
  1
MATERIAL
  2
AcDbMaterial
  3
ObjectDBX Classes
 90
     1153
280
     0
281
     0
  0
CLASS
  1
VISUALSTYLE
  2
AcDbVisualStyle
  3
ObjectDBX Classes
 90
     4095
280
     0
281
     0
  0
CLASS
  1
TABLESTYLE
  2
AcDbTableStyle
  3
ObjectDBX Classes
 90
     4095
280
     0
281
     0
  0
CLASS
  1
SCALE
  2
AcDbScale
  3
ObjectDBX Classes
 90
     1153
280
     0
281
     0
  0
CLASS
  1
MLEADERSTYLE
  2
AcDbMLeaderStyle
  3
ACDB_MLEADERSTYLE_CLASS
 90
     4095
280
     0
281
     0
  0
CLASS
  1
ACDBSECTIONVIEWSTYLE
  2
AcDbSectionViewStyle
  3
ObjectDBX Classes
 90
     1025
280
     0
281
     0
  0
CLASS
  1
ACDBDETAILVIEWSTYLE
  2
AcDbDetailViewStyle
  3
ObjectDBX Classes
 90
     1025
280
     0
281
     0
  0
CLASS
  1
CELLSTYLEMAP
  2
AcDbCellStyleMap
  3
ObjectDBX Classes
 90
     1152
280
     0
281
     0
  0
CLASS
  1
ACDBPLACEHOLDER
  2
AcDbPlaceHolder
  3
ObjectDBX Classes
 90
        0
280
     0
281
     0
  0
CLASS
  1
LAYOUT
  2
AcDbLayout
  3
ObjectDBX Classes
 90
        0
280
     0
281
     0
  0
ENDSEC
  0
SECTION
  2
TABLES
  0
TABLE
  2
VPORT
  5
746D
330
0
100
AcDbSymbolTable
 70
     1
  0
VPORT
  5
13B14
330
746D
100
AcDbSymbolTableRecord
100
AcDbViewportTableRecord
  2
*Active
 70
     0
 10
0.0
 20
0.0
 11
1.0
 21
1.0
 12
8223.761025238502
 22
5704.872900782046
 13
0.0
 23
0.0
 14
10.0
 24
10.0
 15
10.0
 25
10.0
 16
0.0
 26
0.0
 36
1.0
 17
0.0
 27
0.0
 37
0.0
 40
11502.01918038236
 41
1.531969309462915
 42
50.0
 43
0.0
 44
0.0
 50
0.0
 51
0.0
 71
     0
 72
     0
 73
     1
 74
     0
 75
     0
 76
     0
 77
     0
 78
     0
281
     0
 65
     1
110
0.0
120
0.0
130
0.0
111
1.0
121
0.0
131
0.0
112
0.0
122
1.0
132
0.0
 79
     0
146
0.0
1001
ACAD_NAV_VCDISPLAY
1070
     3
  0
ENDTAB
  0
TABLE
  2
LTYPE
  5
746A
330
0
100
AcDbSymbolTable
 70
     4
  0
LTYPE
  5
7477
330
746A
100
AcDbSymbolTableRecord
100
AcDbLinetypeTableRecord
  2
BYBLOCK
 70
     0
  3

 72
    65
 73
     0
 40
0.0
  0
LTYPE
  5
7478
330
746A
100
AcDbSymbolTableRecord
100
AcDbLinetypeTableRecord
  2
BYLAYER
 70
     0
  3

 72
    65
 73
     0
 40
0.0
  0
LTYPE
  5
7479
330
746A
100
AcDbSymbolTableRecord
100
AcDbLinetypeTableRecord
  2
CONTINUOUS
 70
     0
  3
Solid line
 72
    65
 73
     0
 40
0.0
  0
LTYPE
  5
7816
330
746A
100
AcDbSymbolTableRecord
100
AcDbLinetypeTableRecord
  2
CENTER
 70
     0
  3
____ _ ____ _ ____ _ ____ _ ____ _ ____ _ ____ 
 72
    65
 73
     4
 40
2.0
 49
1.25
 74
     0
 49
-0.25
 74
     0
 49
0.25
 74
     0
 49
-0.25
 74
     0
  0
LTYPE
  5
781A
330
746A
100
AcDbSymbolTableRecord
100
AcDbLinetypeTableRecord
  2
HIDDEN
 70
     0
  3
__ __ __ __ __ __ __ __ __ __ __ __ __ __ __ __
 72
    65
 73
     2
 40
0.375
 49
0.25
 74
     0
 49
-0.125
 74
     0
  0
LTYPE
  5
781B
330
746A
100
AcDbSymbolTableRecord
100
AcDbLinetypeTableRecord
  2
PHANTOM
 70
     0
  3
______  __  __  ______  __  __  ______  __  __ 
 72
    65
 73
     6
 40
2.5
 49
1.25
 74
     0
 49
-0.25
 74
     0
 49
0.25
 74
     0
 49
-0.25
 74
     0
 49
0.25
 74
     0
 49
-0.25
 74
     0
  0
ENDTAB
  0
TABLE
  2
LAYER
  5
7467
102
{ACAD_XDICTIONARY
360
13B86
102
}
330
0
100
AcDbSymbolTable
 70
    12
  0
LAYER
  5
7474
102
{ACAD_XDICTIONARY
360
13B6D
102
}
330
7467
100
AcDbSymbolTableRecord
100
AcDbLayerTableRecord
  2
0
 70
     0
 62
     7
  6
CONTINUOUS
370
    -3
390
13328
  0
LAYER
  5
DEB2
102
{ACAD_XDICTIONARY
360
13B6F
102
}
330
7467
100
AcDbSymbolTableRecord
100
AcDbLayerTableRecord
  2
センター
 70
     0
 62
     3
  6
CENTER
370
    -3
390
13328
  0
LAYER
  5
DEB3
102
{ACAD_XDICTIONARY
360
13B71
102
}
330
7467
100
AcDbSymbolTableRecord
100
AcDbLayerTableRecord
  2
寸法
 70
     0
 62
     4
  6
CONTINUOUS
370
    -3
390
13328
  0
LAYER
  5
DEB4
102
{ACAD_XDICTIONARY
360
13B73
102
}
330
7467
100
AcDbSymbolTableRecord
100
AcDbLayerTableRecord
  2
部品1
 70
     0
 62
     7
  6
CONTINUOUS
370
    -3
390
13328
  0
LAYER
  5
DEB5
102
{ACAD_XDICTIONARY
360
13B75
102
}
330
7467
100
AcDbSymbolTableRecord
100
AcDbLayerTableRecord
  2
補助
 70
     0
 62
    -1
  6
CONTINUOUS
370
    -3
390
13328
  0
LAYER
  5
DEB6
102
{ACAD_XDICTIONARY
360
13B77
102
}
330
7467
100
AcDbSymbolTableRecord
100
AcDbLayerTableRecord
  2
文字
 70
     0
 62
     7
  6
CONTINUOUS
370
    -3
390
13328
  0
LAYER
  5
F255
330
7467
100
AcDbSymbolTableRecord
100
AcDbLayerTableRecord
  2
DEFPOINTS
 70
     0
 62
     7
  6
CONTINUOUS
290
     0
370
    -3
390
13328
  0
LAYER
  5
10B54
102
{ACAD_XDICTIONARY
360
13B79
102
}
330
7467
100
AcDbSymbolTableRecord
100
AcDbLayerTableRecord
  2
仕様書枠
 70
     0
 62
   230
  6
CONTINUOUS
370
    -3
390
13328
  0
LAYER
  5
11729
102
{ACAD_XDICTIONARY
360
13B7B
102
}
330
7467
100
AcDbSymbolTableRecord
100
AcDbLayerTableRecord
  2
Ｇ．Ｌ
 70
     0
 62
   230
  6
CONTINUOUS
370
    -3
390
13328
  0
LAYER
  5
1173F
102
{ACAD_XDICTIONARY
360
13B7D
102
}
330
7467
100
AcDbSymbolTableRecord
100
AcDbLayerTableRecord
  2
細線
 70
     0
 62
     6
  6
CONTINUOUS
370
    -3
390
13328
  0
LAYER
  5
11740
102
{ACAD_XDICTIONARY
360
13B7F
102
}
330
7467
100
AcDbSymbolTableRecord
100
AcDbLayerTableRecord
  2
点線
 70
     0
 62
     2
  6
HIDDEN
370
    -3
390
13328
  0
LAYER
  5
12296
102
{ACAD_XDICTIONARY
360
13B81
102
}
330
7467
100
AcDbSymbolTableRecord
100
AcDbLayerTableRecord
  2
想像線
 70
     0
 62
     6
  6
PHANTOM
370
    -3
390
13328
  0
ENDTAB
  0
TABLE
  2
STYLE
  5
7468
330
0
100
AcDbSymbolTable
 70
     4
  0
STYLE
  5
7475
330
7468
100
AcDbSymbolTableRecord
100
AcDbTextStyleTableRecord
  2
STANDARD
 70
     0
 40
0.0
 41
1.0
 50
0.0
 71
     0
 42
4.0
  3
txt
  4
C:\AutoCAD LT\bigfont.shx
  0
STYLE
  5
F706
330
7468
100
AcDbSymbolTableRecord
100
AcDbTextStyleTableRecord
  2
STYLE1
 70
     0
 40
0.0
 41
1.0
 50
0.0
 71
     0
 42
4.0
  3
isocp.shx
  4
bigfont.shx
  0
STYLE
  5
103BF
330
7468
100
AcDbSymbolTableRecord
100
AcDbTextStyleTableRecord
  2
STYLE2
 70
     0
 40
0.0
 41
1.0
 50
0.0
 71
     0
 42
100.0
  3
MS PGothic.ttf
  4

1001
ACAD
1000
MS PGothic
1071
    32818
  0
STYLE
  5
10BAA
330
7468
100
AcDbSymbolTableRecord
100
AcDbTextStyleTableRecord
  2
STYLE3
 70
     0
 40
0.0
 41
1.0
 50
0.0
 71
     0
 42
100.0
  3
DFPGothic-EB.ttf
  4

1001
ACAD
1000
DFPGothic-EB
1071
    32818
  0
ENDTAB
  0
TABLE
  2
VIEW
  5
746B
330
0
100
AcDbSymbolTable
 70
     0
  0
ENDTAB
  0
TABLE
  2
UCS
  5
746C
330
0
100
AcDbSymbolTable
 70
     0
  0
ENDTAB
  0
TABLE
  2
APPID
  5
746E
330
0
100
AcDbSymbolTable
 70
     9
  0
APPID
  5
7476
330
746E
100
AcDbSymbolTableRecord
100
AcDbRegAppTableRecord
  2
ACAD
 70
     0
  0
APPID
  5
DEA9
330
746E
100
AcDbSymbolTableRecord
100
AcDbRegAppTableRecord
  2
CONTENTBLOCKICON
 70
     0
  0
APPID
  5
DEAA
330
746E
100
AcDbSymbolTableRecord
100
AcDbRegAppTableRecord
  2
CONTENTBLOCKDESCRIPTION
 70
     0
  0
APPID
  5
E71D
330
746E
100
AcDbSymbolTableRecord
100
AcDbRegAppTableRecord
  2
CONTENTTABDATA
 70
     0
  0
APPID
  5
E71E
330
746E
100
AcDbSymbolTableRecord
100
AcDbRegAppTableRecord
  2
CONTENTCURRENTTAB
 70
     0
  0
APPID
  5
F3BA
330
746E
100
AcDbSymbolTableRecord
100
AcDbRegAppTableRecord
  2
DRAWINGVARIABLESXDATA
 70
     0
  0
APPID
  5
13B6B
330
746E
100
AcDbSymbolTableRecord
100
AcDbRegAppTableRecord
  2
ACAD_EXEMPT_FROM_CAD_STANDARDS
 70
     0
  0
APPID
  5
13B8C
330
746E
100
AcDbSymbolTableRecord
100
AcDbRegAppTableRecord
  2
ACAD_NAV_VCDISPLAY
 70
     0
  0
APPID
  5
13C02
330
746E
100
AcDbSymbolTableRecord
100
AcDbRegAppTableRecord
  2
ACAD_MLEADERVER
 70
     0
  0
ENDTAB
  0
TABLE
  2
DIMSTYLE
  5
746F
330
0
100
AcDbSymbolTable
 70
     6
100
AcDbDimStyleTable
 71
     0
  0
DIMSTYLE
105
7484
330
746F
100
AcDbSymbolTableRecord
100
AcDbDimStyleTableRecord
  2
JIS
 70
     0
 41
2.5
 42
1.0
 43
7.0
 44
1.0
 73
     0
 74
     0
 77
     1
 78
     8
140
2.5
141
0.0
143
0.0394
147
0.0
172
     1
174
     1
175
     1
340
7475
  0
DIMSTYLE
105
F236
102
{ACAD_REACTORS
330
11A91
102
}
330
746F
100
AcDbSymbolTableRecord
100
AcDbDimStyleTableRecord
  2
INABA_S40
 70
     0
 40
40.0
 41
2.5
 42
0.5
 43
7.0
 44
1.5
 73
     0
 74
     0
 77
     3
 78
     8
140
3.0
141
0.0
143
0.0394
147
1.0
172
     1
173
     1
174
     1
175
     1
178
     7
289
     0
340
7475
341
DEAC
343
DEAC
344
DEAC
  0
DIMSTYLE
105
F71F
102
{ACAD_REACTORS
330
11A71
330
11AC5
330
11AF3
330
128B7
330
128BF
330
128BE
330
128BD
330
128B9
330
128B8
330
13032
330
13034
330
130C7
330
1197F
330
11981
330
11982
330
11983
330
11A91
102
}
330
746F
100
AcDbSymbolTableRecord
100
AcDbDimStyleTableRecord
  2
INABA_S40G
 70
     0
 40
40.0
 41
2.5
 42
0.5
 43
7.0
 44
1.5
 73
     0
 74
     0
 77
     3
 78
     8
140
3.0
141
0.0
143
0.0394
147
1.0
172
     1
173
     1
174
     1
178
     7
271
     1
340
F706
341
F770
343
F770
344
F770
  0
DIMSTYLE
105
1202D
330
746F
100
AcDbSymbolTableRecord
100
AcDbDimStyleTableRecord
  2
INABA_S30GA
 70
     0
 40
30.0
 41
2.5
 42
0.5
 43
7.0
 44
1.5
 73
     0
 74
     0
 77
     3
 78
     8
140
3.0
141
0.0
143
0.0394
147
1.0
172
     1
173
     1
174
     1
175
     1
178
     7
271
     1
340
F706
341
F770
343
F770
344
F770
  0
DIMSTYLE
105
12C36
330
746F
100
AcDbSymbolTableRecord
100
AcDbDimStyleTableRecord
  2
INABA_S50G
 70
     0
 41
125.0
 42
25.0
 43
7.0
 44
75.0
 73
     0
 74
     0
 77
     3
 78
     8
140
150.0
141
0.0
143
0.0394
147
25.0
172
     1
173
     1
174
     1
178
     7
271
     1
340
F706
341
F770
343
F770
344
F770
  0
DIMSTYLE
105
135FA
102
{ACAD_REACTORS
330
139DD
330
139ED
330
139F4
330
139F7
330
13A09
330
13A23
330
13A26
102
}
330
746F
100
AcDbSymbolTableRecord
100
AcDbDimStyleTableRecord
  2
INABA_S40G詳細用20
 70
     0
 40
40.0
 41
2.5
 42
0.5
 43
7.0
 44
1.5
 73
     0
 74
     0
 77
     3
 78
     8
140
3.0
141
0.0
143
0.0394
144
0.5
147
1.0
172
     1
173
     1
174
     1
178
     7
271
     0
272
     0
340
F706
341
F770
343
F770
344
F770
  0
ENDTAB
  0
TABLE
  2
BLOCK_RECORD
  5
7466
330
0
100
AcDbSymbolTable
 70
    34
  0
BLOCK_RECORD
  5
747D
330
7466
100
AcDbSymbolTableRecord
100
AcDbBlockTableRecord
  2
*MODEL_SPACE
340
1332D
  0
BLOCK_RECORD
  5
747A
330
7466
100
AcDbSymbolTableRecord
100
AcDbBlockTableRecord
  2
*PAPER_SPACE
340
1332E
  0
BLOCK_RECORD
  5
DEAC
330
7466
100
AcDbSymbolTableRecord
100
AcDbBlockTableRecord
  2
_OPEN
340
0
  0
BLOCK_RECORD
  5
F770
330
7466
100
AcDbSymbolTableRecord
100
AcDbBlockTableRecord
  2
_DOTSMALL
340
0
102
{BLKREFS
331
1380F
331
13810
331
1381C
331
1381D
331
13828
331
13829
331
13AC1
331
13AC2
331
13ACA
331
13ACB
331
13AD3
331
13AD4
331
13ADE
331
13ADF
331
13AE7
331
13AE8
331
13AF1
331
13AF2
331
123BC
331
123BD
331
123C6
331
123C7
331
123D0
331
123D1
331
12882
331
12883
331
128B0
331
128B1
331
128E1
331
128E2
331
128F9
331
128FA
331
12905
331
12906
331
12967
331
12968
331
12CAE
331
12CAF
331
1303E
331
1303F
331
13070
331
13071
331
1308A
331
1308B
331
130A0
331
130A1
331
130AB
331
130AC
331
130B6
331
130B7
331
130D8
331
130D9
331
137DD
331
137DE
331
137E9
331
137EA
331
137F5
331
137F6
331
13801
331
13802
331
13AFA
331
13AFB
331
11D5B
102
}
  0
BLOCK_RECORD
  5
11990
330
7466
100
AcDbSymbolTableRecord
100
AcDbBlockTableRecord
  2
*D2
340
0
  0
BLOCK_RECORD
  5
1199B
330
7466
100
AcDbSymbolTableRecord
100
AcDbBlockTableRecord
  2
*D3
340
0
  0
BLOCK_RECORD
  5
119A6
330
7466
100
AcDbSymbolTableRecord
100
AcDbBlockTableRecord
  2
*D4
340
0
  0
BLOCK_RECORD
  5
119B1
330
7466
100
AcDbSymbolTableRecord
100
AcDbBlockTableRecord
  2
*D5
340
0
  0
BLOCK_RECORD
  5
11A69
330
7466
100
AcDbSymbolTableRecord
100
AcDbBlockTableRecord
  2
*D6
340
0
  0
BLOCK_RECORD
  5
11A86
330
7466
100
AcDbSymbolTableRecord
100
AcDbBlockTableRecord
  2
*D7
340
0
  0
BLOCK_RECORD
  5
11ABD
330
7466
100
AcDbSymbolTableRecord
100
AcDbBlockTableRecord
  2
*D8
340
0
  0
BLOCK_RECORD
  5
11AE8
330
7466
100
AcDbSymbolTableRecord
100
AcDbBlockTableRecord
  2
*D9
340
0
  0
BLOCK_RECORD
  5
128C0
330
7466
100
AcDbSymbolTableRecord
100
AcDbBlockTableRecord
  2
*D10
340
0
  0
BLOCK_RECORD
  5
128CC
330
7466
100
AcDbSymbolTableRecord
100
AcDbBlockTableRecord
  2
*D11
340
0
  0
BLOCK_RECORD
  5
128DA
330
7466
100
AcDbSymbolTableRecord
100
AcDbBlockTableRecord
  2
*D12
340
0
  0
BLOCK_RECORD
  5
128E8
330
7466
100
AcDbSymbolTableRecord
100
AcDbBlockTableRecord
  2
*D13
340
0
  0
BLOCK_RECORD
  5
128F4
330
7466
100
AcDbSymbolTableRecord
100
AcDbBlockTableRecord
  2
*D14
340
0
  0
BLOCK_RECORD
  5
12900
330
7466
100
AcDbSymbolTableRecord
100
AcDbBlockTableRecord
  2
*D15
340
0
  0
BLOCK_RECORD
  5
13039
330
7466
100
AcDbSymbolTableRecord
100
AcDbBlockTableRecord
  2
*D16
340
0
  0
BLOCK_RECORD
  5
13045
330
7466
100
AcDbSymbolTableRecord
100
AcDbBlockTableRecord
  2
*D17
340
0
  0
BLOCK_RECORD
  5
130C8
330
7466
100
AcDbSymbolTableRecord
100
AcDbBlockTableRecord
  2
*D18
340
0
  0
BLOCK_RECORD
  5
137D8
330
7466
100
AcDbSymbolTableRecord
100
AcDbBlockTableRecord
  2
*D19
340
0
  0
BLOCK_RECORD
  5
137E4
330
7466
100
AcDbSymbolTableRecord
100
AcDbBlockTableRecord
  2
*D20
340
0
  0
BLOCK_RECORD
  5
137F0
330
7466
100
AcDbSymbolTableRecord
100
AcDbBlockTableRecord
  2
*D21
340
0
  0
BLOCK_RECORD
  5
137FC
330
7466
100
AcDbSymbolTableRecord
100
AcDbBlockTableRecord
  2
*D22
340
0
  0
BLOCK_RECORD
  5
13808
330
7466
100
AcDbSymbolTableRecord
100
AcDbBlockTableRecord
  2
*D23
340
0
  0
BLOCK_RECORD
  5
13816
330
7466
100
AcDbSymbolTableRecord
100
AcDbBlockTableRecord
  2
*D24
340
0
  0
BLOCK_RECORD
  5
13823
330
7466
100
AcDbSymbolTableRecord
100
AcDbBlockTableRecord
  2
*D25
340
0
  0
BLOCK_RECORD
  5
1382F
330
7466
100
AcDbSymbolTableRecord
100
AcDbBlockTableRecord
  2
A$C02A42FD2
340
0
  0
BLOCK_RECORD
  5
13A67
330
7466
100
AcDbSymbolTableRecord
100
AcDbBlockTableRecord
  2
*D27
340
0
  0
BLOCK_RECORD
  5
13A73
330
7466
100
AcDbSymbolTableRecord
100
AcDbBlockTableRecord
  2
*D28
340
0
  0
BLOCK_RECORD
  5
13A7F
330
7466
100
AcDbSymbolTableRecord
100
AcDbBlockTableRecord
  2
*D29
340
0
  0
BLOCK_RECORD
  5
13A8B
330
7466
100
AcDbSymbolTableRecord
100
AcDbBlockTableRecord
  2
*D30
340
0
  0
BLOCK_RECORD
  5
13A99
330
7466
100
AcDbSymbolTableRecord
100
AcDbBlockTableRecord
  2
*D31
340
0
  0
BLOCK_RECORD
  5
13AA5
330
7466
100
AcDbSymbolTableRecord
100
AcDbBlockTableRecord
  2
*D32
340
0
  0
BLOCK_RECORD
  5
13AB2
330
7466
100
AcDbSymbolTableRecord
100
AcDbBlockTableRecord
  2
*D33
340
0
  0
ENDTAB
  0
ENDSEC
  0
SECTION
  2
BLOCKS
  0
BLOCK
  5
7489
330
747D
100
AcDbEntity
  8
0
100
AcDbBlockBegin
  2
*MODEL_SPACE
 70
     0
 10
0.0
 20
0.0
 30
0.0
  3
*MODEL_SPACE
  1

  0
ENDBLK
  5
748A
330
747D
100
AcDbEntity
  8
0
100
AcDbBlockEnd
  0
BLOCK
  5
7487
330
747A
100
AcDbEntity
 67
     1
  8
0
100
AcDbBlockBegin
  2
*PAPER_SPACE
 70
     0
 10
0.0
 20
0.0
 30
0.0
  3
*PAPER_SPACE
  1

  0
ENDBLK
  5
7488
330
747A
100
AcDbEntity
 67
     1
  8
0
100
AcDbBlockEnd
  0
BLOCK
  5
DEAD
330
DEAC
100
AcDbEntity
  8
0
100
AcDbBlockBegin
  2
_OPEN
 70
     0
 10
0.0
 20
0.0
 30
0.0
  3
_OPEN
  1

  0
LINE
  5
DEAE
330
DEAC
100
AcDbEntity
  8
0
  6
ByBlock
 62
     0
100
AcDbLine
 10
-1.0
 20
0.1666666666666666
 30
0.0
 11
0.0
 21
0.0
 31
0.0
  0
LINE
  5
DEAF
330
DEAC
100
AcDbEntity
  8
0
  6
ByBlock
 62
     0
100
AcDbLine
 10
0.0
 20
0.0
 30
0.0
 11
-1.0
 21
-0.1666666666666666
 31
0.0
  0
LINE
  5
DEB0
330
DEAC
100
AcDbEntity
  8
0
  6
ByBlock
 62
     0
100
AcDbLine
 10
0.0
 20
0.0
 30
0.0
 11
-1.0
 21
0.0
 31
0.0
  0
ENDBLK
  5
DEB1
330
DEAC
100
AcDbEntity
  8
0
100
AcDbBlockEnd
  0
BLOCK
  5
F771
330
F770
100
AcDbEntity
  8
0
 48
50.0
100
AcDbBlockBegin
  2
_DOTSMALL
 70
     0
 10
0.0
 20
0.0
 30
0.0
  3
_DOTSMALL
  1

  0
LWPOLYLINE
  5
F772
330
F770
100
AcDbEntity
  8
0
  6
ByBlock
 62
     0
 48
50.0
100
AcDbPolyline
 90
        2
 70
     1
 43
0.5
 10
-0.0625
 20
0.0
 42
1.0
 10
0.0625
 20
0.0
 42
1.0
  0
ENDBLK
  5
F776
330
F770
100
AcDbEntity
  8
0
 48
50.0
100
AcDbBlockEnd
  0
BLOCK
  5
123B7
330
11990
100
AcDbEntity
  8
0
 48
50.0
100
AcDbBlockBegin
  2
*D2
 70
     1
 10
0.0
 20
0.0
 30
0.0
  3
*D2
  1

  0
LINE
  5
123B8
330
11990
100
AcDbEntity
  8
0
  6
ByBlock
 62
     0
 48
50.0
100
AcDbLine
 10
7987.25351915136
 20
7329.785662218296
 30
0.0
 11
7504.759246580594
 21
7329.785662218296
 31
0.0
  0
LINE
  5
123B9
330
11990
100
AcDbEntity
  8
0
  6
ByBlock
 62
     0
 48
50.0
100
AcDbLine
 10
7987.25351915136
 20
7129.785662218296
 30
0.0
 11
7504.759246580594
 21
7129.785662218296
 31
0.0
  0
LINE
  5
123BA
330
11990
100
AcDbEntity
  8
0
  6
ByBlock
 62
     0
 48
50.0
100
AcDbLine
 10
7564.759246580594
 20
7129.785662218296
 30
0.0
 11
7564.759246580594
 21
7329.785662218296
 31
0.0
  0
LINE
  5
123BB
330
11990
100
AcDbEntity
  8
0
  6
ByBlock
 62
     0
 48
50.0
100
AcDbLine
 10
7564.759246580594
 20
7329.785662218296
 30
0.0
 11
7564.759246580594
 21
7728.927394501759
 31
0.0
  0
INSERT
  5
123BC
330
11990
100
AcDbEntity
  8
0
  6
ByBlock
 62
     0
 48
50.0
100
AcDbBlockReference
  2
_DOTSMALL
 10
7564.759246580594
 20
7129.785662218296
 30
0.0
 41
100.0
 42
100.0
 43
100.0
 50
270.0
  0
INSERT
  5
123BD
330
11990
100
AcDbEntity
  8
0
  6
ByBlock
 62
     0
 48
50.0
100
AcDbBlockReference
  2
_DOTSMALL
 10
7564.759246580594
 20
7329.785662218296
 30
0.0
 41
100.0
 42
100.0
 43
100.0
 50
90.0
  0
MTEXT
  5
123BE
330
11990
100
AcDbEntity
  8
0
  6
ByBlock
 62
     7
 48
50.0
100
AcDbMText
 10
7464.747435556972
 20
7579.356528360029
 30
0.0
 40
120.0
 41
0.0
 71
     5
 72
     1
  1
\A1;200
  7
STYLE1
 11
0.0000000000000001
 21
1.0
 31
0.0
 73
     1
 44
1.0
1001
ACAD
1000
MTEXTBEGIN
1070
    73
1070
     1
1070
    44
1040
1.0
1070
    74
1070
     0
1000
MTEXTEND
  0
POINT
  5
123BF
330
11990
100
AcDbEntity
  8
DEFPOINTS
  6
ByBlock
 62
     0
 48
50.0
100
AcDbPoint
 10
8007.25351915136
 20
7329.785662218296
 30
0.0
  0
POINT
  5
123C0
330
11990
100
AcDbEntity
  8
DEFPOINTS
  6
ByBlock
 62
     0
 48
50.0
100
AcDbPoint
 10
8007.25351915136
 20
7129.785662218296
 30
0.0
  0
POINT
  5
123C1
330
11990
100
AcDbEntity
  8
DEFPOINTS
  6
ByBlock
 62
     0
 48
50.0
100
AcDbPoint
 10
7564.759246580594
 20
7129.785662218296
 30
0.0
  0
ENDBLK
  5
123C2
330
11990
100
AcDbEntity
  8
0
 48
50.0
100
AcDbBlockEnd
  0
BLOCK
  5
123C3
330
1199B
100
AcDbEntity
  8
0
 48
50.0
100
AcDbBlockBegin
  2
*D3
 70
     1
 10
0.0
 20
0.0
 30
0.0
  3
*D3
  1

  0
LINE
  5
123C4
330
1199B
100
AcDbEntity
  8
0
  6
ByBlock
 62
     0
 48
50.0
100
AcDbLine
 10
7987.25351915136
 20
5479.785662218297
 30
0.0
 11
7504.759246580594
 21
5479.785662218297
 31
0.0
  0
LINE
  5
123C5
330
1199B
100
AcDbEntity
  8
0
  6
ByBlock
 62
     0
 48
50.0
100
AcDbLine
 10
7564.759246580594
 20
7129.785662218296
 30
0.0
 11
7564.759246580594
 21
5479.785662218297
 31
0.0
  0
INSERT
  5
123C6
330
1199B
100
AcDbEntity
  8
0
  6
ByBlock
 62
     0
 48
50.0
100
AcDbBlockReference
  2
_DOTSMALL
 10
7564.759246580594
 20
7129.785662218296
 30
0.0
 41
100.0
 42
100.0
 43
100.0
 50
90.0
  0
INSERT
  5
123C7
330
1199B
100
AcDbEntity
  8
0
  6
ByBlock
 62
     0
 48
50.0
100
AcDbBlockReference
  2
_DOTSMALL
 10
7564.759246580594
 20
5479.785662218297
 30
0.0
 41
100.0
 42
100.0
 43
100.0
 50
270.0
  0
MTEXT
  5
123C8
330
1199B
100
AcDbEntity
  8
0
  6
ByBlock
 62
     7
 48
50.0
100
AcDbMText
 10
7464.759246580594
 20
6304.785662218296
 30
0.0
 40
120.0
 41
0.0
 71
     5
 72
     1
  1
\A1;1650
  7
STYLE1
 11
0.0000000000000001
 21
1.0
 31
0.0
 73
     1
 44
1.0
1001
ACAD
1000
MTEXTBEGIN
1070
    73
1070
     1
1070
    44
1040
1.0
1070
    74
1070
     0
1000
MTEXTEND
  0
POINT
  5
123C9
330
1199B
100
AcDbEntity
  8
DEFPOINTS
  6
ByBlock
 62
     0
 48
50.0
100
AcDbPoint
 10
8007.25351915136
 20
7129.785662218296
 30
0.0
  0
POINT
  5
123CA
330
1199B
100
AcDbEntity
  8
DEFPOINTS
  6
ByBlock
 62
     0
 48
50.0
100
AcDbPoint
 10
8007.25351915136
 20
5479.785662218297
 30
0.0
  0
POINT
  5
123CB
330
1199B
100
AcDbEntity
  8
DEFPOINTS
  6
ByBlock
 62
     0
 48
50.0
100
AcDbPoint
 10
7564.759246580594
 20
5479.785662218297
 30
0.0
  0
ENDBLK
  5
123CC
330
1199B
100
AcDbEntity
  8
0
 48
50.0
100
AcDbBlockEnd
  0
BLOCK
  5
123CD
330
119A6
100
AcDbEntity
  8
0
 48
50.0
100
AcDbBlockBegin
  2
*D4
 70
     1
 10
0.0
 20
0.0
 30
0.0
  3
*D4
  1

  0
LINE
  5
123CE
330
119A6
100
AcDbEntity
  8
0
  6
ByBlock
 62
     0
 48
50.0
100
AcDbLine
 10
7987.25351915136
 20
4559.785662218296
 30
0.0
 11
7504.759246580594
 21
4559.785662218296
 31
0.0
  0
LINE
  5
123CF
330
119A6
100
AcDbEntity
  8
0
  6
ByBlock
 62
     0
 48
50.0
100
AcDbLine
 10
7564.759246580594
 20
5479.785662218297
 30
0.0
 11
7564.759246580594
 21
4559.785662218296
 31
0.0
  0
INSERT
  5
123D0
330
119A6
100
AcDbEntity
  8
0
  6
ByBlock
 62
     0
 48
50.0
100
AcDbBlockReference
  2
_DOTSMALL
 10
7564.759246580594
 20
5479.785662218297
 30
0.0
 41
100.0
 42
100.0
 43
100.0
 50
90.0
  0
INSERT
  5
123D1
330
119A6
100
AcDbEntity
  8
0
  6
ByBlock
 62
     0
 48
50.0
100
AcDbBlockReference
  2
_DOTSMALL
 10
7564.759246580594
 20
4559.785662218296
 30
0.0
 41
100.0
 42
100.0
 43
100.0
 50
270.0
  0
MTEXT
  5
123D2
330
119A6
100
AcDbEntity
  8
0
  6
ByBlock
 62
     7
 48
50.0
100
AcDbMText
 10
7464.71843401579
 20
5019.785662218296
 30
0.0
 40
120.0
 41
0.0
 71
     5
 72
     1
  1
\A1;920
  7
STYLE1
 11
0.0000000000000001
 21
1.0
 31
0.0
 73
     1
 44
1.0
1001
ACAD
1000
MTEXTBEGIN
1070
    73
1070
     1
1070
    44
1040
1.0
1070
    74
1070
     0
1000
MTEXTEND
  0
POINT
  5
123D3
330
119A6
100
AcDbEntity
  8
DEFPOINTS
  6
ByBlock
 62
     0
 48
50.0
100
AcDbPoint
 10
8007.25351915136
 20
5479.785662218297
 30
0.0
  0
POINT
  5
123D4
330
119A6
100
AcDbEntity
  8
DEFPOINTS
  6
ByBlock
 62
     0
 48
50.0
100
AcDbPoint
 10
8007.25351915136
 20
4559.785662218296
 30
0.0
  0
POINT
  5
123D5
330
119A6
100
AcDbEntity
  8
DEFPOINTS
  6
ByBlock
 62
     0
 48
50.0
100
AcDbPoint
 10
7564.759246580594
 20
4559.785662218296
 30
0.0
  0
ENDBLK
  5
123D6
330
119A6
100
AcDbEntity
  8
0
 48
50.0
100
AcDbBlockEnd
  0
BLOCK
  5
12CAA
330
119B1
100
AcDbEntity
  8
0
 48
50.0
100
AcDbBlockBegin
  2
*D5
 70
     1
 10
0.0
 20
0.0
 30
0.0
  3
*D5
  1

  0
LINE
  5
12CAB
330
119B1
100
AcDbEntity
  8
0
  6
ByBlock
 62
     0
 48
50.0
100
AcDbLine
 10
8987.25351915136
 20
7729.785662218296
 30
0.0
 11
8059.268362853059
 21
7729.785662218296
 31
0.0
  0
LINE
  5
12CAC
330
119B1
100
AcDbEntity
  8
0
  6
ByBlock
 62
     0
 48
50.0
100
AcDbLine
 10
8987.25351915136
 20
4959.785662218297
 30
0.0
 11
8059.268362853059
 21
4959.785662218297
 31
0.0
  0
LINE
  5
12CAD
330
119B1
100
AcDbEntity
  8
0
  6
ByBlock
 62
     0
 48
50.0
100
AcDbLine
 10
8119.268362853059
 20
7729.785662218296
 30
0.0
 11
8119.268362853057
 21
4959.785662218297
 31
0.0
  0
INSERT
  5
12CAE
330
119B1
100
AcDbEntity
  8
0
  6
ByBlock
 62
     0
 48
50.0
100
AcDbBlockReference
  2
_DOTSMALL
 10
8119.268362853059
 20
7729.785662218296
 30
0.0
 41
100.0
 42
100.0
 43
100.0
 50
90.0
  0
INSERT
  5
12CAF
330
119B1
100
AcDbEntity
  8
0
  6
ByBlock
 62
     0
 48
50.0
100
AcDbBlockReference
  2
_DOTSMALL
 10
8119.268362853057
 20
4959.785662218297
 30
0.0
 41
100.0
 42
100.0
 43
100.0
 50
270.0
  0
MTEXT
  5
12CB0
330
119B1
100
AcDbEntity
  8
0
  6
ByBlock
 62
     7
 48
50.0
100
AcDbMText
 10
8019.256551829435
 20
6344.785662218296
 30
0.0
 40
120.0
 41
0.0
 71
     5
 72
     1
  1
\A1;基礎寸法 2770
  7
STYLE1
 11
0.0000000000000001
 21
1.0
 31
0.0
 73
     1
 44
1.0
1001
ACAD
1000
MTEXTBEGIN
1070
    73
1070
     1
1070
    44
1040
1.0
1070
    74
1070
     0
1000
MTEXTEND
  0
POINT
  5
12CB1
330
119B1
100
AcDbEntity
  8
DEFPOINTS
  6
ByBlock
 62
     0
 48
50.0
100
AcDbPoint
 10
9007.25351915136
 20
7729.785662218296
 30
0.0
  0
POINT
  5
12CB2
330
119B1
100
AcDbEntity
  8
DEFPOINTS
  6
ByBlock
 62
     0
 48
50.0
100
AcDbPoint
 10
9007.25351915136
 20
4959.785662218297
 30
0.0
  0
POINT
  5
12CB3
330
119B1
100
AcDbEntity
  8
DEFPOINTS
  6
ByBlock
 62
     0
 48
50.0
100
AcDbPoint
 10
8119.268362853057
 20
4959.785662218297
 30
0.0
  0
ENDBLK
  5
12CB4
330
119B1
100
AcDbEntity
  8
0
 48
50.0
100
AcDbBlockEnd
  0
BLOCK
  5
128AB
330
11A69
100
AcDbEntity
  8
0
 48
50.0
100
AcDbBlockBegin
  2
*D6
 70
     1
 10
0.0
 20
0.0
 30
0.0
  3
*D6
  1

  0
LINE
  5
128AC
330
11A69
100
AcDbEntity
  8
0
  6
ByBlock
 62
     0
 48
50.0
100
AcDbLine
 10
10007.25351915136
 20
4939.785662218296
 30
0.0
 11
10007.25351915136
 21
4583.212687273764
 31
0.0
  0
LINE
  5
128AD
330
11A69
100
AcDbEntity
  8
0
  6
ByBlock
 62
     0
 48
50.0
100
AcDbLine
 10
10207.25351915136
 20
5609.785662218299
 30
0.0
 11
10207.25351915136
 21
4583.212687273764
 31
0.0
  0
LINE
  5
128AE
330
11A69
100
AcDbEntity
  8
0
  6
ByBlock
 62
     0
 48
50.0
100
AcDbLine
 10
10207.25351915136
 20
4643.212687273765
 30
0.0
 11
10007.25351915136
 21
4643.212687273765
 31
0.0
  0
LINE
  5
128AF
330
11A69
100
AcDbEntity
  8
0
  6
ByBlock
 62
     0
 48
50.0
100
AcDbLine
 10
10007.25351915136
 20
4643.212687273765
 30
0.0
 11
9608.111786867896
 21
4643.212687273765
 31
0.0
  0
INSERT
  5
128B0
330
11A69
100
AcDbEntity
  8
0
  6
ByBlock
 62
     0
 48
50.0
100
AcDbBlockReference
  2
_DOTSMALL
 10
10207.25351915136
 20
4643.212687273765
 30
0.0
 41
100.0
 42
100.0
 43
100.0
  0
INSERT
  5
128B1
330
11A69
100
AcDbEntity
  8
0
  6
ByBlock
 62
     0
 48
50.0
100
AcDbBlockReference
  2
_DOTSMALL
 10
10007.25351915136
 20
4643.212687273765
 30
0.0
 41
100.0
 42
100.0
 43
100.0
 50
180.0
  0
MTEXT
  5
128B2
330
11A69
100
AcDbEntity
  8
0
  6
ByBlock
 62
     7
 48
50.0
100
AcDbMText
 10
9757.682653009629
 20
4743.224498297386
 30
0.0
 40
120.0
 41
0.0
 71
     5
 72
     1
  1
\A1;200
  7
STYLE1
 73
     1
 44
1.0
1001
ACAD
1000
MTEXTBEGIN
1070
    73
1070
     1
1070
    44
1040
1.0
1070
    74
1070
     0
1000
MTEXTEND
  0
POINT
  5
128B3
330
11A69
100
AcDbEntity
  8
DEFPOINTS
  6
ByBlock
 62
     0
 48
50.0
100
AcDbPoint
 10
10007.25351915136
 20
4959.785662218297
 30
0.0
  0
POINT
  5
128B4
330
11A69
100
AcDbEntity
  8
DEFPOINTS
  6
ByBlock
 62
     0
 48
50.0
100
AcDbPoint
 10
10207.25351915136
 20
5629.785662218299
 30
0.0
  0
POINT
  5
128B5
330
11A69
100
AcDbEntity
  8
DEFPOINTS
  6
ByBlock
 62
     0
 48
50.0
100
AcDbPoint
 10
10207.25351915136
 20
4643.212687273765
 30
0.0
  0
ENDBLK
  5
128B6
330
11A69
100
AcDbEntity
  8
0
 48
50.0
100
AcDbBlockEnd
  0
BLOCK
  5
1309C
330
11A86
100
AcDbEntity
  8
0
 48
50.0
100
AcDbBlockBegin
  2
*D7
 70
     1
 10
0.0
 20
0.0
 30
0.0
  3
*D7
  1

  0
LINE
  5
1309D
330
11A86
100
AcDbEntity
  8
0
  6
ByBlock
 62
     0
 48
50.0
100
AcDbLine
 10
8223.600000000001
 20
5609.785662218299
 30
0.0
 11
8223.600000000001
 21
4583.212687273764
 31
0.0
  0
LINE
  5
1309E
330
11A86
100
AcDbEntity
  8
0
  6
ByBlock
 62
     0
 48
50.0
100
AcDbLine
 10
10603.6
 20
5609.785662218299
 30
0.0
 11
10603.6
 21
4583.212687273764
 31
0.0
  0
LINE
  5
1309F
330
11A86
100
AcDbEntity
  8
0
  6
ByBlock
 62
     0
 48
50.0
100
AcDbLine
 10
8223.600000000001
 20
4643.212687273765
 30
0.0
 11
10603.6
 21
4643.212687273765
 31
0.0
  0
INSERT
  5
130A0
330
11A86
100
AcDbEntity
  8
0
  6
ByBlock
 62
     0
 48
50.0
100
AcDbBlockReference
  2
_DOTSMALL
 10
8223.600000000001
 20
4643.212687273765
 30
0.0
 41
100.0
 42
100.0
 43
100.0
 50
180.0
  0
INSERT
  5
130A1
330
11A86
100
AcDbEntity
  8
0
  6
ByBlock
 62
     0
 48
50.0
100
AcDbBlockReference
  2
_DOTSMALL
 10
10603.6
 20
4643.212687273765
 30
0.0
 41
100.0
 42
100.0
 43
100.0
  0
MTEXT
  5
130A2
330
11A86
100
AcDbEntity
  8
0
  6
ByBlock
 62
     7
 48
50.0
100
AcDbMText
 10
9413.6
 20
4743.224498297386
 30
0.0
 40
120.0
 41
0.0
 71
     5
 72
     1
  1
\A1;2380
  7
STYLE1
 73
     1
 44
1.0
1001
ACAD
1000
MTEXTBEGIN
1070
    73
1070
     1
1070
    44
1040
1.0
1070
    74
1070
     0
1000
MTEXTEND
  0
POINT
  5
130A3
330
11A86
100
AcDbEntity
  8
DEFPOINTS
  6
ByBlock
 62
     0
 48
50.0
100
AcDbPoint
 10
8223.600000000001
 20
5629.785662218299
 30
0.0
  0
POINT
  5
130A4
330
11A86
100
AcDbEntity
  8
DEFPOINTS
  6
ByBlock
 62
     0
 48
50.0
100
AcDbPoint
 10
10603.6
 20
5629.785662218299
 30
0.0
  0
POINT
  5
130A5
330
11A86
100
AcDbEntity
  8
DEFPOINTS
  6
ByBlock
 62
     0
 48
50.0
100
AcDbPoint
 10
10603.6
 20
4643.212687273765
 30
0.0
  0
ENDBLK
  5
130A6
330
11A86
100
AcDbEntity
  8
0
 48
50.0
100
AcDbBlockEnd
  0
BLOCK
  5
1287D
330
11ABD
100
AcDbEntity
  8
0
 48
50.0
100
AcDbBlockBegin
  2
*D8
 70
     1
 10
0.0
 20
0.0
 30
0.0
  3
*D8
  1

  0
LINE
  5
1287E
330
11ABD
100
AcDbEntity
  8
0
  6
ByBlock
 62
     0
 48
50.0
100
AcDbLine
 10
14967.25351915136
 20
5609.785662218299
 30
0.0
 11
14967.25351915136
 21
4583.212687273764
 31
0.0
  0
LINE
  5
1287F
330
11ABD
100
AcDbEntity
  8
0
  6
ByBlock
 62
     0
 48
50.0
100
AcDbLine
 10
15167.25351915136
 20
4939.785662218297
 30
0.0
 11
15167.25351915136
 21
4583.212687273764
 31
0.0
  0
LINE
  5
12880
330
11ABD
100
AcDbEntity
  8
0
  6
ByBlock
 62
     0
 48
50.0
100
AcDbLine
 10
14967.25351915136
 20
4643.212687273765
 30
0.0
 11
15167.25351915136
 21
4643.212687273765
 31
0.0
  0
LINE
  5
12881
330
11ABD
100
AcDbEntity
  8
0
  6
ByBlock
 62
     0
 48
50.0
100
AcDbLine
 10
15167.25351915136
 20
4643.212687273765
 30
0.0
 11
15566.39525143482
 21
4643.212687273765
 31
0.0
  0
INSERT
  5
12882
330
11ABD
100
AcDbEntity
  8
0
  6
ByBlock
 62
     0
 48
50.0
100
AcDbBlockReference
  2
_DOTSMALL
 10
14967.25351915136
 20
4643.212687273765
 30
0.0
 41
100.0
 42
100.0
 43
100.0
 50
180.0
  0
INSERT
  5
12883
330
11ABD
100
AcDbEntity
  8
0
  6
ByBlock
 62
     0
 48
50.0
100
AcDbBlockReference
  2
_DOTSMALL
 10
15167.25351915136
 20
4643.212687273765
 30
0.0
 41
100.0
 42
100.0
 43
100.0
  0
MTEXT
  5
12884
330
11ABD
100
AcDbEntity
  8
0
  6
ByBlock
 62
     7
 48
50.0
100
AcDbMText
 10
15416.82438529309
 20
4743.224498297386
 30
0.0
 40
120.0
 41
0.0
 71
     5
 72
     1
  1
\A1;200
  7
STYLE1
 73
     1
 44
1.0
1001
ACAD
1000
MTEXTBEGIN
1070
    73
1070
     1
1070
    44
1040
1.0
1070
    74
1070
     0
1000
MTEXTEND
  0
POINT
  5
12885
330
11ABD
100
AcDbEntity
  8
DEFPOINTS
  6
ByBlock
 62
     0
 48
50.0
100
AcDbPoint
 10
14967.25351915136
 20
5629.785662218299
 30
0.0
  0
POINT
  5
12886
330
11ABD
100
AcDbEntity
  8
DEFPOINTS
  6
ByBlock
 62
     0
 48
50.0
100
AcDbPoint
 10
15167.25351915136
 20
4959.785662218298
 30
0.0
  0
POINT
  5
12887
330
11ABD
100
AcDbEntity
  8
DEFPOINTS
  6
ByBlock
 62
     0
 48
50.0
100
AcDbPoint
 10
15167.25351915136
 20
4643.212687273765
 30
0.0
  0
ENDBLK
  5
12888
330
11ABD
100
AcDbEntity
  8
0
 48
50.0
100
AcDbBlockEnd
  0
BLOCK
  5
130A7
330
11AE8
100
AcDbEntity
  8
0
 48
50.0
100
AcDbBlockBegin
  2
*D9
 70
     1
 10
0.0
 20
0.0
 30
0.0
  3
*D9
  1

  0
LINE
  5
130A8
330
11AE8
100
AcDbEntity
  8
0
  6
ByBlock
 62
     0
 48
50.0
100
AcDbLine
 10
5643.600000000001
 20
4939.785662218297
 30
0.0
 11
5643.600000000001
 21
4251.259653382771
 31
0.0
  0
LINE
  5
130A9
330
11AE8
100
AcDbEntity
  8
0
  6
ByBlock
 62
     0
 48
50.0
100
AcDbLine
 10
10803.6
 20
4939.785662218297
 30
0.0
 11
10803.6
 21
4251.259653382771
 31
0.0
  0
LINE
  5
130AA
330
11AE8
100
AcDbEntity
  8
0
  6
ByBlock
 62
     0
 48
50.0
100
AcDbLine
 10
5643.600000000001
 20
4311.259653382771
 30
0.0
 11
10803.6
 21
4311.259653382771
 31
0.0
  0
INSERT
  5
130AB
330
11AE8
100
AcDbEntity
  8
0
  6
ByBlock
 62
     0
 48
50.0
100
AcDbBlockReference
  2
_DOTSMALL
 10
5643.600000000001
 20
4311.259653382771
 30
0.0
 41
100.0
 42
100.0
 43
100.0
 50
180.0
  0
INSERT
  5
130AC
330
11AE8
100
AcDbEntity
  8
0
  6
ByBlock
 62
     0
 48
50.0
100
AcDbBlockReference
  2
_DOTSMALL
 10
10803.6
 20
4311.259653382771
 30
0.0
 41
100.0
 42
100.0
 43
100.0
  0
MTEXT
  5
130AD
330
11AE8
100
AcDbEntity
  8
0
  6
ByBlock
 62
     7
 48
50.0
100
AcDbMText
 10
8223.600000000001
 20
4411.259653382771
 30
0.0
 40
120.0
 41
0.0
 71
     5
 72
     1
  1
\A1;基礎寸法 5160
  7
STYLE1
 73
     1
 44
1.0
1001
ACAD
1000
MTEXTBEGIN
1070
    73
1070
     1
1070
    44
1040
1.0
1070
    74
1070
     0
1000
MTEXTEND
  0
POINT
  5
130AE
330
11AE8
100
AcDbEntity
  8
DEFPOINTS
  6
ByBlock
 62
     0
 48
50.0
100
AcDbPoint
 10
5643.600000000001
 20
4959.785662218298
 30
0.0
  0
POINT
  5
130AF
330
11AE8
100
AcDbEntity
  8
DEFPOINTS
  6
ByBlock
 62
     0
 48
50.0
100
AcDbPoint
 10
10803.6
 20
4959.785662218298
 30
0.0
  0
POINT
  5
130B0
330
11AE8
100
AcDbEntity
  8
DEFPOINTS
  6
ByBlock
 62
     0
 48
50.0
100
AcDbPoint
 10
10803.6
 20
4311.259653382771
 30
0.0
  0
ENDBLK
  5
130B1
330
11AE8
100
AcDbEntity
  8
0
 48
50.0
100
AcDbBlockEnd
  0
BLOCK
  5
12963
330
128C0
100
AcDbEntity
  8
0
 48
50.0
100
AcDbBlockBegin
  2
*D10
 70
     1
 10
0.0
 20
0.0
 30
0.0
  3
*D10
  1

  0
LINE
  5
12964
330
128C0
100
AcDbEntity
  8
0
  6
ByBlock
 62
     0
 48
50.0
100
AcDbLine
 10
15237.25351915136
 20
7829.785662218299
 30
0.0
 11
16045.54089700374
 21
7829.785662218299
 31
0.0
  0
LINE
  5
12965
330
128C0
100
AcDbEntity
  8
0
  6
ByBlock
 62
     0
 48
50.0
100
AcDbLine
 10
15237.25351915135
 20
5129.785662218296
 30
0.0
 11
16045.54089700374
 21
5129.785662218296
 31
0.0
  0
LINE
  5
12966
330
128C0
100
AcDbEntity
  8
0
  6
ByBlock
 62
     0
 48
50.0
100
AcDbLine
 10
15985.54089700374
 20
7829.785662218299
 30
0.0
 11
15985.54089700374
 21
5129.785662218296
 31
0.0
  0
INSERT
  5
12967
330
128C0
100
AcDbEntity
  8
0
  6
ByBlock
 62
     0
 48
50.0
100
AcDbBlockReference
  2
_DOTSMALL
 10
15985.54089700374
 20
7829.785662218299
 30
0.0
 41
100.0
 42
100.0
 43
100.0
 50
90.0
  0
INSERT
  5
12968
330
128C0
100
AcDbEntity
  8
0
  6
ByBlock
 62
     0
 48
50.0
100
AcDbBlockReference
  2
_DOTSMALL
 10
15985.54089700374
 20
5129.785662218296
 30
0.0
 41
100.0
 42
100.0
 43
100.0
 50
270.0
  0
MTEXT
  5
12969
330
128C0
100
AcDbEntity
  8
0
  6
ByBlock
 62
     7
 48
50.0
100
AcDbMText
 10
15885.52908598012
 20
6479.785662218297
 30
0.0
 40
120.0
 41
0.0
 71
     5
 72
     1
  1
\A1;屋根寸法 2700
  7
STYLE1
 11
0.0000000000000001
 21
1.0
 31
0.0
 73
     1
 44
1.0
1001
ACAD
1000
MTEXTBEGIN
1070
    73
1070
     1
1070
    44
1040
1.0
1070
    74
1070
     0
1000
MTEXTEND
  0
POINT
  5
1296A
330
128C0
100
AcDbEntity
  8
DEFPOINTS
  6
ByBlock
 62
     0
 48
50.0
100
AcDbPoint
 10
15217.25351915136
 20
7829.785662218299
 30
0.0
  0
POINT
  5
1296B
330
128C0
100
AcDbEntity
  8
DEFPOINTS
  6
ByBlock
 62
     0
 48
50.0
100
AcDbPoint
 10
15217.25351915135
 20
5129.785662218296
 30
0.0
  0
POINT
  5
1296C
330
128C0
100
AcDbEntity
  8
DEFPOINTS
  6
ByBlock
 62
     0
 48
50.0
100
AcDbPoint
 10
15985.54089700374
 20
5129.785662218296
 30
0.0
  0
ENDBLK
  5
1296D
330
128C0
100
AcDbEntity
  8
0
 48
50.0
100
AcDbBlockEnd
  0
BLOCK
  5
13084
330
128CC
100
AcDbEntity
  8
0
 48
50.0
100
AcDbBlockBegin
  2
*D11
 70
     1
 10
0.0
 20
0.0
 30
0.0
  3
*D11
  1

  0
LINE
  5
13085
330
128CC
100
AcDbEntity
  8
0
  6
ByBlock
 62
     0
 48
50.0
100
AcDbLine
 10
8957.253519151363
 20
7849.785662218301
 30
0.0
 11
8957.253519151363
 21
8220.859626484438
 31
0.0
  0
LINE
  5
13086
330
128CC
100
AcDbEntity
  8
0
  6
ByBlock
 62
     0
 48
50.0
100
AcDbLine
 10
9207.253519151358
 20
7999.785662218297
 30
0.0
 11
9207.253519151358
 21
8220.859626484438
 31
0.0
  0
LINE
  5
13087
330
128CC
100
AcDbEntity
  8
0
  6
ByBlock
 62
     0
 48
50.0
100
AcDbLine
 10
8957.253519151363
 20
8160.859626484437
 30
0.0
 11
8857.253519151361
 21
8160.859626484437
 31
0.0
  0
LINE
  5
13088
330
128CC
100
AcDbEntity
  8
0
  6
ByBlock
 62
     0
 48
50.0
100
AcDbLine
 10
9207.253519151358
 20
8160.859626484437
 30
0.0
 11
9307.253519151357
 21
8160.859626484437
 31
0.0
  0
LINE
  5
13089
330
128CC
100
AcDbEntity
  8
0
  6
ByBlock
 62
     0
 48
50.0
100
AcDbLine
 10
8957.253519151363
 20
8160.859626484437
 30
0.0
 11
9207.253519151358
 21
8160.859626484437
 31
0.0
  0
INSERT
  5
1308A
330
128CC
100
AcDbEntity
  8
0
  6
ByBlock
 62
     0
 48
50.0
100
AcDbBlockReference
  2
_DOTSMALL
 10
8957.253519151363
 20
8160.859626484437
 30
0.0
 41
100.0
 42
100.0
 43
100.0
  0
INSERT
  5
1308B
330
128CC
100
AcDbEntity
  8
0
  6
ByBlock
 62
     0
 48
50.0
100
AcDbBlockReference
  2
_DOTSMALL
 10
9207.253519151358
 20
8160.859626484437
 30
0.0
 41
100.0
 42
100.0
 43
100.0
 50
180.0
  0
MTEXT
  5
1308C
330
128CC
100
AcDbEntity
  8
0
  6
ByBlock
 62
     7
 48
50.0
100
AcDbMText
 10
9082.253519151359
 20
8260.871437508059
 30
0.0
 40
120.0
 41
0.0
 71
     5
 72
     1
  1
\A1;250
  7
STYLE1
 73
     1
 44
1.0
1001
ACAD
1000
MTEXTBEGIN
1070
    73
1070
     1
1070
    44
1040
1.0
1070
    74
1070
     0
1000
MTEXTEND
  0
POINT
  5
1308D
330
128CC
100
AcDbEntity
  8
DEFPOINTS
  6
ByBlock
 62
     0
 48
50.0
100
AcDbPoint
 10
8957.253519151363
 20
7829.7856622183
 30
0.0
  0
POINT
  5
1308E
330
128CC
100
AcDbEntity
  8
DEFPOINTS
  6
ByBlock
 62
     0
 48
50.0
100
AcDbPoint
 10
9207.253519151358
 20
7979.785662218296
 30
0.0
  0
POINT
  5
1308F
330
128CC
100
AcDbEntity
  8
DEFPOINTS
  6
ByBlock
 62
     0
 48
50.0
100
AcDbPoint
 10
9207.253519151358
 20
8160.859626484437
 30
0.0
  0
ENDBLK
  5
13090
330
128CC
100
AcDbEntity
  8
0
 48
50.0
100
AcDbBlockEnd
  0
BLOCK
  5
128DB
330
128DA
100
AcDbEntity
  8
0
 48
50.0
100
AcDbBlockBegin
  2
*D12
 70
     1
 10
0.0
 20
0.0
 30
0.0
  3
*D12
  1

  0
LINE
  5
128DC
330
128DA
100
AcDbEntity
  8
0
  6
ByBlock
 62
     0
 48
50.0
100
AcDbLine
 10
5499.15657448816
 20
7799.785662218297
 30
0.0
 11
5499.15657448816
 21
8220.859626484438
 31
0.0
  0
LINE
  5
128DD
330
128DA
100
AcDbEntity
  8
0
  6
ByBlock
 62
     0
 48
50.0
100
AcDbLine
 10
5749.156574488159
 20
7849.785662218299
 30
0.0
 11
5749.156574488159
 21
8220.859626484438
 31
0.0
  0
LINE
  5
128DE
330
128DA
100
AcDbEntity
  8
0
  6
ByBlock
 62
     0
 48
50.0
100
AcDbLine
 10
5499.15657448816
 20
8160.859626484437
 30
0.0
 11
5399.156574488159
 21
8160.859626484437
 31
0.0
  0
LINE
  5
128DF
330
128DA
100
AcDbEntity
  8
0
  6
ByBlock
 62
     0
 48
50.0
100
AcDbLine
 10
5749.156574488159
 20
8160.859626484437
 30
0.0
 11
5849.156574488159
 21
8160.859626484437
 31
0.0
  0
LINE
  5
128E0
330
128DA
100
AcDbEntity
  8
0
  6
ByBlock
 62
     0
 48
50.0
100
AcDbLine
 10
5499.15657448816
 20
8160.859626484437
 30
0.0
 11
5749.156574488159
 21
8160.859626484437
 31
0.0
  0
INSERT
  5
128E1
330
128DA
100
AcDbEntity
  8
0
  6
ByBlock
 62
     0
 48
50.0
100
AcDbBlockReference
  2
_DOTSMALL
 10
5499.15657448816
 20
8160.859626484437
 30
0.0
 41
100.0
 42
100.0
 43
100.0
  0
INSERT
  5
128E2
330
128DA
100
AcDbEntity
  8
0
  6
ByBlock
 62
     0
 48
50.0
100
AcDbBlockReference
  2
_DOTSMALL
 10
5749.156574488159
 20
8160.859626484437
 30
0.0
 41
100.0
 42
100.0
 43
100.0
 50
180.0
  0
MTEXT
  5
128E3
330
128DA
100
AcDbEntity
  8
0
  6
ByBlock
 62
     7
 48
50.0
100
AcDbMText
 10
5624.156574488159
 20
8260.871437508059
 30
0.0
 40
120.0
 41
0.0
 71
     5
 72
     1
  1
\A1;250
  7
STYLE1
 73
     1
 44
1.0
1001
ACAD
1000
MTEXTBEGIN
1070
    73
1070
     1
1070
    44
1040
1.0
1070
    74
1070
     0
1000
MTEXTEND
  0
POINT
  5
128E4
330
128DA
100
AcDbEntity
  8
DEFPOINTS
  6
ByBlock
 62
     0
 48
50.0
100
AcDbPoint
 10
5499.15657448816
 20
7779.785662218298
 30
0.0
  0
POINT
  5
128E5
330
128DA
100
AcDbEntity
  8
DEFPOINTS
  6
ByBlock
 62
     0
 48
50.0
100
AcDbPoint
 10
5749.156574488159
 20
7829.785662218299
 30
0.0
  0
POINT
  5
128E6
330
128DA
100
AcDbEntity
  8
DEFPOINTS
  6
ByBlock
 62
     0
 48
50.0
100
AcDbPoint
 10
5749.156574488159
 20
8160.859626484437
 30
0.0
  0
ENDBLK
  5
128E7
330
128DA
100
AcDbEntity
  8
0
 48
50.0
100
AcDbBlockEnd
  0
BLOCK
  5
130B2
330
128E8
100
AcDbEntity
  8
0
 48
50.0
100
AcDbBlockBegin
  2
*D13
 70
     1
 10
0.0
 20
0.0
 30
0.0
  3
*D13
  1

  0
LINE
  5
130B3
330
128E8
100
AcDbEntity
  8
0
  6
ByBlock
 62
     0
 48
50.0
100
AcDbLine
 10
5593.600000000002
 20
7849.785662218301
 30
0.0
 11
5593.600000000002
 21
8513.968028740444
 31
0.0
  0
LINE
  5
130B4
330
128E8
100
AcDbEntity
  8
0
  6
ByBlock
 62
     0
 48
50.0
100
AcDbLine
 10
10853.6
 20
7849.785662218299
 30
0.0
 11
10853.6
 21
8513.968028740444
 31
0.0
  0
LINE
  5
130B5
330
128E8
100
AcDbEntity
  8
0
  6
ByBlock
 62
     0
 48
50.0
100
AcDbLine
 10
5593.600000000002
 20
8453.968028740446
 30
0.0
 11
10853.6
 21
8453.968028740446
 31
0.0
  0
INSERT
  5
130B6
330
128E8
100
AcDbEntity
  8
0
  6
ByBlock
 62
     0
 48
50.0
100
AcDbBlockReference
  2
_DOTSMALL
 10
5593.600000000002
 20
8453.968028740446
 30
0.0
 41
100.0
 42
100.0
 43
100.0
 50
180.0
  0
INSERT
  5
130B7
330
128E8
100
AcDbEntity
  8
0
  6
ByBlock
 62
     0
 48
50.0
100
AcDbBlockReference
  2
_DOTSMALL
 10
10853.6
 20
8453.968028740446
 30
0.0
 41
100.0
 42
100.0
 43
100.0
  0
MTEXT
  5
130B8
330
128E8
100
AcDbEntity
  8
0
  6
ByBlock
 62
     7
 48
50.0
100
AcDbMText
 10
8223.600000000001
 20
8553.979839764066
 30
0.0
 40
120.0
 41
0.0
 71
     5
 72
     1
  1
\A1;屋根寸法 5260
  7
STYLE1
 73
     1
 44
1.0
1001
ACAD
1000
MTEXTBEGIN
1070
    73
1070
     1
1070
    44
1040
1.0
1070
    74
1070
     0
1000
MTEXTEND
  0
POINT
  5
130B9
330
128E8
100
AcDbEntity
  8
DEFPOINTS
  6
ByBlock
 62
     0
 48
50.0
100
AcDbPoint
 10
5593.600000000002
 20
7829.7856622183
 30
0.0
  0
POINT
  5
130BA
330
128E8
100
AcDbEntity
  8
DEFPOINTS
  6
ByBlock
 62
     0
 48
50.0
100
AcDbPoint
 10
10853.6
 20
7829.785662218299
 30
0.0
  0
POINT
  5
130BB
330
128E8
100
AcDbEntity
  8
DEFPOINTS
  6
ByBlock
 62
     0
 48
50.0
100
AcDbPoint
 10
10853.6
 20
8453.968028740446
 30
0.0
  0
ENDBLK
  5
130BC
330
128E8
100
AcDbEntity
  8
0
 48
50.0
100
AcDbBlockEnd
  0
BLOCK
  5
128F5
330
128F4
100
AcDbEntity
  8
0
 48
50.0
100
AcDbBlockBegin
  2
*D14
 70
     1
 10
0.0
 20
0.0
 30
0.0
  3
*D14
  1

  0
LINE
  5
128F6
330
128F4
100
AcDbEntity
  8
0
  6
ByBlock
 62
     0
 48
50.0
100
AcDbLine
 10
5769.15657448816
 20
7529.785662218298
 30
0.0
 11
6278.336083222786
 21
7529.785662218298
 31
0.0
  0
LINE
  5
128F7
330
128F4
100
AcDbEntity
  8
0
  6
ByBlock
 62
     0
 48
50.0
100
AcDbLine
 10
5769.156574488159
 20
7829.785662218299
 30
0.0
 11
6278.336083222786
 21
7829.785662218299
 31
0.0
  0
LINE
  5
128F8
330
128F4
100
AcDbEntity
  8
0
  6
ByBlock
 62
     0
 48
50.0
100
AcDbLine
 10
6218.336083222785
 20
7529.785662218298
 30
0.0
 11
6218.336083222785
 21
7829.785662218299
 31
0.0
  0
INSERT
  5
128F9
330
128F4
100
AcDbEntity
  8
0
  6
ByBlock
 62
     0
 48
50.0
100
AcDbBlockReference
  2
_DOTSMALL
 10
6218.336083222785
 20
7529.785662218298
 30
0.0
 41
100.0
 42
100.0
 43
100.0
 50
270.0
  0
INSERT
  5
128FA
330
128F4
100
AcDbEntity
  8
0
  6
ByBlock
 62
     0
 48
50.0
100
AcDbBlockReference
  2
_DOTSMALL
 10
6218.336083222785
 20
7829.785662218299
 30
0.0
 41
100.0
 42
100.0
 43
100.0
 50
90.0
  0
MTEXT
  5
128FB
330
128F4
100
AcDbEntity
  8
0
  6
ByBlock
 62
     7
 48
50.0
100
AcDbMText
 10
6118.336083222786
 20
7679.785662218299
 30
0.0
 40
120.0
 41
0.0
 71
     5
 72
     1
  1
\A1;300
  7
STYLE1
 11
0.0000000000000001
 21
1.0
 31
0.0
 73
     1
 44
1.0
1001
ACAD
1000
MTEXTBEGIN
1070
    73
1070
     1
1070
    44
1040
1.0
1070
    74
1070
     0
1000
MTEXTEND
  0
POINT
  5
128FC
330
128F4
100
AcDbEntity
  8
DEFPOINTS
  6
ByBlock
 62
     0
 48
50.0
100
AcDbPoint
 10
5749.15657448816
 20
7529.785662218298
 30
0.0
  0
POINT
  5
128FD
330
128F4
100
AcDbEntity
  8
DEFPOINTS
  6
ByBlock
 62
     0
 48
50.0
100
AcDbPoint
 10
5749.156574488159
 20
7829.785662218299
 30
0.0
  0
POINT
  5
128FE
330
128F4
100
AcDbEntity
  8
DEFPOINTS
  6
ByBlock
 62
     0
 48
50.0
100
AcDbPoint
 10
6218.336083222785
 20
7829.785662218299
 30
0.0
  0
ENDBLK
  5
128FF
330
128F4
100
AcDbEntity
  8
0
 48
50.0
100
AcDbBlockEnd
  0
BLOCK
  5
12901
330
12900
100
AcDbEntity
  8
0
 48
50.0
100
AcDbBlockBegin
  2
*D15
 70
     1
 10
0.0
 20
0.0
 30
0.0
  3
*D15
  1

  0
LINE
  5
12902
330
12900
100
AcDbEntity
  8
0
  6
ByBlock
 62
     0
 48
50.0
100
AcDbLine
 10
5769.156574488159
 20
5879.785662218297
 30
0.0
 11
6278.336083222785
 21
5879.785662218297
 31
0.0
  0
LINE
  5
12903
330
12900
100
AcDbEntity
  8
0
  6
ByBlock
 62
     0
 48
50.0
100
AcDbLine
 10
5769.156574488159
 20
5129.785662218296
 30
0.0
 11
6278.336083222785
 21
5129.785662218296
 31
0.0
  0
LINE
  5
12904
330
12900
100
AcDbEntity
  8
0
  6
ByBlock
 62
     0
 48
50.0
100
AcDbLine
 10
6218.336083222784
 20
5879.785662218297
 30
0.0
 11
6218.336083222784
 21
5129.785662218296
 31
0.0
  0
INSERT
  5
12905
330
12900
100
AcDbEntity
  8
0
  6
ByBlock
 62
     0
 48
50.0
100
AcDbBlockReference
  2
_DOTSMALL
 10
6218.336083222784
 20
5879.785662218297
 30
0.0
 41
100.0
 42
100.0
 43
100.0
 50
90.0
  0
INSERT
  5
12906
330
12900
100
AcDbEntity
  8
0
  6
ByBlock
 62
     0
 48
50.0
100
AcDbBlockReference
  2
_DOTSMALL
 10
6218.336083222784
 20
5129.785662218296
 30
0.0
 41
100.0
 42
100.0
 43
100.0
 50
270.0
  0
MTEXT
  5
12907
330
12900
100
AcDbEntity
  8
0
  6
ByBlock
 62
     7
 48
50.0
100
AcDbMText
 10
6118.336083222785
 20
5504.785662218296
 30
0.0
 40
120.0
 41
0.0
 71
     5
 72
     1
  1
\A1;750
  7
STYLE1
 11
0.0000000000000001
 21
1.0
 31
0.0
 73
     1
 44
1.0
1001
ACAD
1000
MTEXTBEGIN
1070
    73
1070
     1
1070
    44
1040
1.0
1070
    74
1070
     0
1000
MTEXTEND
  0
POINT
  5
12908
330
12900
100
AcDbEntity
  8
DEFPOINTS
  6
ByBlock
 62
     0
 48
50.0
100
AcDbPoint
 10
5749.156574488159
 20
5879.785662218297
 30
0.0
  0
POINT
  5
12909
330
12900
100
AcDbEntity
  8
DEFPOINTS
  6
ByBlock
 62
     0
 48
50.0
100
AcDbPoint
 10
5749.156574488159
 20
5129.785662218296
 30
0.0
  0
POINT
  5
1290A
330
12900
100
AcDbEntity
  8
DEFPOINTS
  6
ByBlock
 62
     0
 48
50.0
100
AcDbPoint
 10
6218.336083222784
 20
5129.785662218296
 30
0.0
  0
ENDBLK
  5
1290B
330
12900
100
AcDbEntity
  8
0
 48
50.0
100
AcDbBlockEnd
  0
BLOCK
  5
1303A
330
13039
100
AcDbEntity
  8
0
 48
50.0
100
AcDbBlockBegin
  2
*D16
 70
     1
 10
0.0
 20
0.0
 30
0.0
  3
*D16
  1

  0
LINE
  5
1303B
330
13039
100
AcDbEntity
  8
0
  6
ByBlock
 62
     0
 48
50.0
100
AcDbLine
 10
2769.15657448816
 20
6249.785662218298
 30
0.0
 11
2769.15657448816
 21
6443.680570935905
 31
0.0
  0
LINE
  5
1303C
330
13039
100
AcDbEntity
  8
0
  6
ByBlock
 62
     0
 48
50.0
100
AcDbLine
 10
3469.15657448816
 20
6249.785662218298
 30
0.0
 11
3469.15657448816
 21
6443.680570935905
 31
0.0
  0
LINE
  5
1303D
330
13039
100
AcDbEntity
  8
0
  6
ByBlock
 62
     0
 48
50.0
100
AcDbLine
 10
2769.15657448816
 20
6383.680570935904
 30
0.0
 11
3469.15657448816
 21
6383.680570935904
 31
0.0
  0
INSERT
  5
1303E
330
13039
100
AcDbEntity
  8
0
  6
ByBlock
 62
     0
 48
50.0
100
AcDbBlockReference
  2
_DOTSMALL
 10
2769.15657448816
 20
6383.680570935904
 30
0.0
 41
100.0
 42
100.0
 43
100.0
 50
180.0
  0
INSERT
  5
1303F
330
13039
100
AcDbEntity
  8
0
  6
ByBlock
 62
     0
 48
50.0
100
AcDbBlockReference
  2
_DOTSMALL
 10
3469.15657448816
 20
6383.680570935904
 30
0.0
 41
100.0
 42
100.0
 43
100.0
  0
MTEXT
  5
13040
330
13039
100
AcDbEntity
  8
0
  6
ByBlock
 62
     7
 48
50.0
100
AcDbMText
 10
3119.15657448816
 20
6483.680570935904
 30
0.0
 40
120.0
 41
0.0
 71
     5
 72
     1
  1
\A1;700
  7
STYLE1
 73
     1
 44
1.0
1001
ACAD
1000
MTEXTBEGIN
1070
    73
1070
     1
1070
    44
1040
1.0
1070
    74
1070
     0
1000
MTEXTEND
  0
POINT
  5
13041
330
13039
100
AcDbEntity
  8
DEFPOINTS
  6
ByBlock
 62
     0
 48
50.0
100
AcDbPoint
 10
2769.15657448816
 20
6229.785662218298
 30
0.0
  0
POINT
  5
13042
330
13039
100
AcDbEntity
  8
DEFPOINTS
  6
ByBlock
 62
     0
 48
50.0
100
AcDbPoint
 10
3469.15657448816
 20
6229.785662218298
 30
0.0
  0
POINT
  5
13043
330
13039
100
AcDbEntity
  8
DEFPOINTS
  6
ByBlock
 62
     0
 48
50.0
100
AcDbPoint
 10
3469.15657448816
 20
6383.680570935904
 30
0.0
  0
ENDBLK
  5
13044
330
13039
100
AcDbEntity
  8
0
 48
50.0
100
AcDbBlockEnd
  0
BLOCK
  5
1306C
330
13045
100
AcDbEntity
  8
0
 48
50.0
100
AcDbBlockBegin
  2
*D17
 70
     1
 10
0.0
 20
0.0
 30
0.0
  3
*D17
  1

  0
LINE
  5
1306D
330
13045
100
AcDbEntity
  8
0
  6
ByBlock
 62
     0
 48
50.0
100
AcDbLine
 10
9577.25351915136
 20
6229.785662218297
 30
0.0
 11
9895.25218574529
 21
6229.785662218297
 31
0.0
  0
LINE
  5
1306E
330
13045
100
AcDbEntity
  8
0
  6
ByBlock
 62
     0
 48
50.0
100
AcDbLine
 10
9577.25351915136
 20
5529.785662218297
 30
0.0
 11
9895.25218574529
 21
5529.785662218297
 31
0.0
  0
LINE
  5
1306F
330
13045
100
AcDbEntity
  8
0
  6
ByBlock
 62
     0
 48
50.0
100
AcDbLine
 10
9835.252185745289
 20
6229.785662218297
 30
0.0
 11
9835.252185745289
 21
5529.785662218297
 31
0.0
  0
INSERT
  5
13070
330
13045
100
AcDbEntity
  8
0
  6
ByBlock
 62
     0
 48
50.0
100
AcDbBlockReference
  2
_DOTSMALL
 10
9835.252185745289
 20
6229.785662218297
 30
0.0
 41
100.0
 42
100.0
 43
100.0
 50
90.0
  0
INSERT
  5
13071
330
13045
100
AcDbEntity
  8
0
  6
ByBlock
 62
     0
 48
50.0
100
AcDbBlockReference
  2
_DOTSMALL
 10
9835.252185745289
 20
5529.785662218297
 30
0.0
 41
100.0
 42
100.0
 43
100.0
 50
270.0
  0
MTEXT
  5
13072
330
13045
100
AcDbEntity
  8
0
  6
ByBlock
 62
     7
 48
50.0
100
AcDbMText
 10
9735.252185745288
 20
5879.785662218297
 30
0.0
 40
120.0
 41
0.0
 71
     5
 72
     1
  1
\A1;700
  7
STYLE1
 11
0.0000000000000001
 21
1.0
 31
0.0
 73
     1
 44
1.0
1001
ACAD
1000
MTEXTBEGIN
1070
    73
1070
     1
1070
    44
1040
1.0
1070
    74
1070
     0
1000
MTEXTEND
  0
POINT
  5
13073
330
13045
100
AcDbEntity
  8
DEFPOINTS
  6
ByBlock
 62
     0
 48
50.0
100
AcDbPoint
 10
9557.253519151359
 20
6229.785662218297
 30
0.0
  0
POINT
  5
13074
330
13045
100
AcDbEntity
  8
DEFPOINTS
  6
ByBlock
 62
     0
 48
50.0
100
AcDbPoint
 10
9557.253519151359
 20
5529.785662218297
 30
0.0
  0
POINT
  5
13075
330
13045
100
AcDbEntity
  8
DEFPOINTS
  6
ByBlock
 62
     0
 48
50.0
100
AcDbPoint
 10
9835.252185745289
 20
5529.785662218297
 30
0.0
  0
ENDBLK
  5
13076
330
13045
100
AcDbEntity
  8
0
 48
50.0
100
AcDbBlockEnd
  0
BLOCK
  5
130D4
330
130C8
100
AcDbEntity
  8
0
 48
50.0
100
AcDbBlockBegin
  2
*D18
 70
     1
 10
0.0
 20
0.0
 30
0.0
  3
*D18
  1

  0
LINE
  5
130D5
330
130C8
100
AcDbEntity
  8
0
  6
ByBlock
 62
     0
 48
50.0
100
AcDbLine
 10
8223.600000000001
 20
5609.785662218299
 30
0.0
 11
8223.600000000001
 21
4583.212687273764
 31
0.0
  0
LINE
  5
130D6
330
130C8
100
AcDbEntity
  8
0
  6
ByBlock
 62
     0
 48
50.0
100
AcDbLine
 10
5843.600000000001
 20
5609.785662218299
 30
0.0
 11
5843.600000000001
 21
4583.212687273764
 31
0.0
  0
LINE
  5
130D7
330
130C8
100
AcDbEntity
  8
0
  6
ByBlock
 62
     0
 48
50.0
100
AcDbLine
 10
8223.600000000001
 20
4643.212687273765
 30
0.0
 11
5843.600000000001
 21
4643.212687273765
 31
0.0
  0
INSERT
  5
130D8
330
130C8
100
AcDbEntity
  8
0
  6
ByBlock
 62
     0
 48
50.0
100
AcDbBlockReference
  2
_DOTSMALL
 10
8223.600000000001
 20
4643.212687273765
 30
0.0
 41
100.0
 42
100.0
 43
100.0
  0
INSERT
  5
130D9
330
130C8
100
AcDbEntity
  8
0
  6
ByBlock
 62
     0
 48
50.0
100
AcDbBlockReference
  2
_DOTSMALL
 10
5843.600000000001
 20
4643.212687273765
 30
0.0
 41
100.0
 42
100.0
 43
100.0
 50
180.0
  0
MTEXT
  5
130DA
330
130C8
100
AcDbEntity
  8
0
  6
ByBlock
 62
     7
 48
50.0
100
AcDbMText
 10
7033.599999999999
 20
4743.224498297386
 30
0.0
 40
120.0
 41
0.0
 71
     5
 72
     1
  1
\A1;2380
  7
STYLE1
 73
     1
 44
1.0
1001
ACAD
1000
MTEXTBEGIN
1070
    73
1070
     1
1070
    44
1040
1.0
1070
    74
1070
     0
1000
MTEXTEND
  0
POINT
  5
130DB
330
130C8
100
AcDbEntity
  8
DEFPOINTS
  6
ByBlock
 62
     0
 48
50.0
100
AcDbPoint
 10
8223.600000000001
 20
5629.785662218299
 30
0.0
  0
POINT
  5
130DC
330
130C8
100
AcDbEntity
  8
DEFPOINTS
  6
ByBlock
 62
     0
 48
50.0
100
AcDbPoint
 10
5843.600000000001
 20
5629.785662218299
 30
0.0
  0
POINT
  5
130DD
330
130C8
100
AcDbEntity
  8
DEFPOINTS
  6
ByBlock
 62
     0
 48
50.0
100
AcDbPoint
 10
5843.600000000001
 20
4643.212687273765
 30
0.0
  0
ENDBLK
  5
130DE
330
130C8
100
AcDbEntity
  8
0
 48
50.0
100
AcDbBlockEnd
  0
BLOCK
  5
137D9
330
137D8
100
AcDbEntity
  8
0
 48
50.0
100
AcDbBlockBegin
  2
*D19
 70
     1
 10
0.0
 20
0.0
 30
0.0
  3
*D19
  1

  0
LINE
  5
137DA
330
137D8
100
AcDbEntity
  8
寸法
 62
     0
 48
50.0
370
    -2
100
AcDbLine
 10
7496.834122857979
 20
2306.090215385921
 30
0.0
 11
7225.939971462299
 21
2306.090215385921
 31
0.0
  0
LINE
  5
137DB
330
137D8
100
AcDbEntity
  8
寸法
 62
     0
 48
50.0
370
    -2
100
AcDbLine
 10
8144.334122857987
 20
1866.015215385921
 30
0.0
 11
7225.939971462297
 21
1866.015215385921
 31
0.0
  0
LINE
  5
137DC
330
137D8
100
AcDbEntity
  8
寸法
 62
     0
 48
50.0
370
    -2
100
AcDbLine
 10
7285.939971462299
 20
2306.090215385921
 30
0.0
 11
7285.939971462298
 21
1866.015215385921
 31
0.0
  0
INSERT
  5
137DD
330
137D8
100
AcDbEntity
  8
寸法
 62
     0
 48
50.0
370
    -2
100
AcDbBlockReference
  2
_DOTSMALL
 10
7285.939971462299
 20
2306.090215385921
 30
0.0
 41
100.0
 42
100.0
 43
100.0
 50
90.0
  0
INSERT
  5
137DE
330
137D8
100
AcDbEntity
  8
寸法
 62
     0
 48
50.0
370
    -2
100
AcDbBlockReference
  2
_DOTSMALL
 10
7285.939971462298
 20
1866.015215385921
 30
0.0
 41
100.0
 42
100.0
 43
100.0
 50
270.0
  0
MTEXT
  5
137DF
330
137D8
100
AcDbEntity
  8
寸法
 62
     7
 48
50.0
100
AcDbMText
 10
7185.928160438677
 20
2086.052715385923
 30
0.0
 40
120.0
 41
0.0
 71
     5
 72
     1
  1
\A1;220
  7
STYLE1
 11
0.0000000000000001
 21
1.0
 31
0.0
 73
     1
 44
1.0
1001
ACAD
1000
MTEXTBEGIN
1070
    73
1070
     1
1070
    44
1040
1.0
1070
    74
1070
     0
1000
MTEXTEND
  0
POINT
  5
137E0
330
137D8
100
AcDbEntity
  8
DEFPOINTS
 62
     0
 48
50.0
100
AcDbPoint
 10
7516.834122857979
 20
2306.090215385921
 30
0.0
  0
POINT
  5
137E1
330
137D8
100
AcDbEntity
  8
DEFPOINTS
 62
     0
 48
50.0
100
AcDbPoint
 10
8164.334122857987
 20
1866.015215385921
 30
0.0
  0
POINT
  5
137E2
330
137D8
100
AcDbEntity
  8
DEFPOINTS
 62
     0
 48
50.0
100
AcDbPoint
 10
7285.939971462298
 20
1866.015215385921
 30
0.0
  0
ENDBLK
  5
137E3
330
137D8
100
AcDbEntity
  8
0
 48
50.0
100
AcDbBlockEnd
  0
BLOCK
  5
137E5
330
137E4
100
AcDbEntity
  8
0
 48
50.0
100
AcDbBlockBegin
  2
*D20
 70
     1
 10
0.0
 20
0.0
 30
0.0
  3
*D20
  1

  0
LINE
  5
137E6
330
137E4
100
AcDbEntity
  8
寸法
 62
     0
 48
50.0
370
    -2
100
AcDbLine
 10
7794.334122857981
 20
2405.965215385921
 30
0.0
 11
7004.024205957946
 21
2405.965215385922
 31
0.0
  0
LINE
  5
137E7
330
137E4
100
AcDbEntity
  8
寸法
 62
     0
 48
50.0
370
    -2
100
AcDbLine
 10
7366.415342356841
 20
1505.965215385921
 30
0.0
 11
7004.024205957946
 21
1505.965215385921
 31
0.0
  0
LINE
  5
137E8
330
137E4
100
AcDbEntity
  8
寸法
 62
     0
 48
50.0
370
    -2
100
AcDbLine
 10
7064.024205957946
 20
2405.965215385922
 30
0.0
 11
7064.024205957945
 21
1505.965215385921
 31
0.0
  0
INSERT
  5
137E9
330
137E4
100
AcDbEntity
  8
寸法
 62
     0
 48
50.0
370
    -2
100
AcDbBlockReference
  2
_DOTSMALL
 10
7064.024205957946
 20
2405.965215385922
 30
0.0
 41
100.0
 42
100.0
 43
100.0
 50
90.0
  0
INSERT
  5
137EA
330
137E4
100
AcDbEntity
  8
寸法
 62
     0
 48
50.0
370
    -2
100
AcDbBlockReference
  2
_DOTSMALL
 10
7064.024205957945
 20
1505.965215385921
 30
0.0
 41
100.0
 42
100.0
 43
100.0
 50
270.0
  0
MTEXT
  5
137EB
330
137E4
100
AcDbEntity
  8
寸法
 62
     7
 48
50.0
100
AcDbMText
 10
6964.024205957945
 20
1955.965215385922
 30
0.0
 40
120.0
 41
0.0
 71
     5
 72
     1
  1
\A1;450
  7
STYLE1
 11
0.0000000000000001
 21
1.0
 31
0.0
 73
     1
 44
1.0
1001
ACAD
1000
MTEXTBEGIN
1070
    73
1070
     1
1070
    44
1040
1.0
1070
    74
1070
     0
1000
MTEXTEND
  0
POINT
  5
137EC
330
137E4
100
AcDbEntity
  8
DEFPOINTS
 62
     0
 48
50.0
100
AcDbPoint
 10
7814.334122857982
 20
2405.965215385921
 30
0.0
  0
POINT
  5
137ED
330
137E4
100
AcDbEntity
  8
DEFPOINTS
 62
     0
 48
50.0
100
AcDbPoint
 10
7386.415342356841
 20
1505.965215385921
 30
0.0
  0
POINT
  5
137EE
330
137E4
100
AcDbEntity
  8
DEFPOINTS
 62
     0
 48
50.0
100
AcDbPoint
 10
7064.024205957945
 20
1505.965215385921
 30
0.0
  0
ENDBLK
  5
137EF
330
137E4
100
AcDbEntity
  8
0
 48
50.0
100
AcDbBlockEnd
  0
BLOCK
  5
137F1
330
137F0
100
AcDbEntity
  8
0
 48
50.0
100
AcDbBlockBegin
  2
*D21
 70
     1
 10
0.0
 20
0.0
 30
0.0
  3
*D21
  1

  0
LINE
  5
137F2
330
137F0
100
AcDbEntity
  8
寸法
 62
     0
 48
50.0
370
    -2
100
AcDbLine
 10
8144.334122857987
 20
1866.015215385921
 30
0.0
 11
7225.939971462297
 21
1866.015215385921
 31
0.0
  0
LINE
  5
137F3
330
137F0
100
AcDbEntity
  8
寸法
 62
     0
 48
50.0
370
    -2
100
AcDbLine
 10
7366.415342356841
 20
1505.965215385921
 30
0.0
 11
7225.939971462297
 21
1505.965215385921
 31
0.0
  0
LINE
  5
137F4
330
137F0
100
AcDbEntity
  8
寸法
 62
     0
 48
50.0
370
    -2
100
AcDbLine
 10
7285.939971462298
 20
1866.015215385921
 30
0.0
 11
7285.939971462298
 21
1505.965215385921
 31
0.0
  0
INSERT
  5
137F5
330
137F0
100
AcDbEntity
  8
寸法
 62
     0
 48
50.0
370
    -2
100
AcDbBlockReference
  2
_DOTSMALL
 10
7285.939971462298
 20
1866.015215385921
 30
0.0
 41
100.0
 42
100.0
 43
100.0
 50
90.0
  0
INSERT
  5
137F6
330
137F0
100
AcDbEntity
  8
寸法
 62
     0
 48
50.0
370
    -2
100
AcDbBlockReference
  2
_DOTSMALL
 10
7285.939971462298
 20
1505.965215385921
 30
0.0
 41
100.0
 42
100.0
 43
100.0
 50
270.0
  0
MTEXT
  5
137F7
330
137F0
100
AcDbEntity
  8
寸法
 62
     7
 48
50.0
100
AcDbMText
 10
7185.939971462298
 20
1687.090215385921
 30
0.0
 40
120.0
 41
0.0
 71
     5
 72
     1
  1
\A1;180
  7
STYLE1
 11
0.0000000000000001
 21
1.0
 31
0.0
 73
     1
 44
1.0
1001
ACAD
1000
MTEXTBEGIN
1070
    73
1070
     1
1070
    44
1040
1.0
1070
    74
1070
     0
1000
MTEXTEND
  0
POINT
  5
137F8
330
137F0
100
AcDbEntity
  8
DEFPOINTS
 62
     0
 48
50.0
100
AcDbPoint
 10
8164.334122857987
 20
1866.015215385921
 30
0.0
  0
POINT
  5
137F9
330
137F0
100
AcDbEntity
  8
DEFPOINTS
 62
     0
 48
50.0
100
AcDbPoint
 10
7386.415342356841
 20
1505.965215385921
 30
0.0
  0
POINT
  5
137FA
330
137F0
100
AcDbEntity
  8
DEFPOINTS
 62
     0
 48
50.0
100
AcDbPoint
 10
7285.939971462298
 20
1505.965215385921
 30
0.0
  0
ENDBLK
  5
137FB
330
137F0
100
AcDbEntity
  8
0
 48
50.0
100
AcDbBlockEnd
  0
BLOCK
  5
137FD
330
137FC
100
AcDbEntity
  8
0
 48
50.0
100
AcDbBlockBegin
  2
*D22
 70
     1
 10
0.0
 20
0.0
 30
0.0
  3
*D22
  1

  0
LINE
  5
137FE
330
137FC
100
AcDbEntity
  8
寸法
 62
     0
 48
50.0
370
    -2
100
AcDbLine
 10
7516.834122857979
 20
1176.065215385921
 30
0.0
 11
7516.834122857979
 21
807.9441030093548
 31
0.0
  0
LINE
  5
137FF
330
137FC
100
AcDbEntity
  8
寸法
 62
     0
 48
50.0
370
    -2
100
AcDbLine
 10
8916.834122857979
 20
1176.065215385921
 30
0.0
 11
8916.834122857979
 21
807.9441030093548
 31
0.0
  0
LINE
  5
13800
330
137FC
100
AcDbEntity
  8
寸法
 62
     0
 48
50.0
370
    -2
100
AcDbLine
 10
7516.834122857979
 20
867.9441030093549
 30
0.0
 11
8916.834122857979
 21
867.9441030093549
 31
0.0
  0
INSERT
  5
13801
330
137FC
100
AcDbEntity
  8
寸法
 62
     0
 48
50.0
370
    -2
100
AcDbBlockReference
  2
_DOTSMALL
 10
7516.834122857979
 20
867.9441030093549
 30
0.0
 41
100.0
 42
100.0
 43
100.0
 50
180.0
  0
INSERT
  5
13802
330
137FC
100
AcDbEntity
  8
寸法
 62
     0
 48
50.0
370
    -2
100
AcDbBlockReference
  2
_DOTSMALL
 10
8916.834122857979
 20
867.9441030093549
 30
0.0
 41
100.0
 42
100.0
 43
100.0
  0
MTEXT
  5
13803
330
137FC
100
AcDbEntity
  8
寸法
 62
     7
 48
50.0
100
AcDbMText
 10
8216.83412285798
 20
967.9441030093549
 30
0.0
 40
120.0
 41
0.0
 71
     5
 72
     1
  1
\A1;700
  7
STYLE1
 73
     1
 44
1.0
1001
ACAD
1000
MTEXTBEGIN
1070
    73
1070
     1
1070
    44
1040
1.0
1070
    74
1070
     0
1000
MTEXTEND
  0
POINT
  5
13804
330
137FC
100
AcDbEntity
  8
DEFPOINTS
 62
     0
 48
50.0
100
AcDbPoint
 10
7516.834122857979
 20
1196.065215385921
 30
0.0
  0
POINT
  5
13805
330
137FC
100
AcDbEntity
  8
DEFPOINTS
 62
     0
 48
50.0
100
AcDbPoint
 10
8916.834122857979
 20
1196.065215385921
 30
0.0
  0
POINT
  5
13806
330
137FC
100
AcDbEntity
  8
DEFPOINTS
 62
     0
 48
50.0
100
AcDbPoint
 10
8916.834122857979
 20
867.9441030093549
 30
0.0
  0
ENDBLK
  5
13807
330
137FC
100
AcDbEntity
  8
0
 48
50.0
100
AcDbBlockEnd
  0
BLOCK
  5
13809
330
13808
100
AcDbEntity
  8
0
 48
50.0
100
AcDbBlockBegin
  2
*D23
 70
     1
 10
0.0
 20
0.0
 30
0.0
  3
*D23
  1

  0
LINE
  5
1380A
330
13808
100
AcDbEntity
  8
寸法
 62
     0
 48
50.0
370
    -2
100
AcDbLine
 10
7366.415342356834
 20
1505.965215385921
 30
0.0
 11
7004.024205957946
 21
1505.965215385921
 31
0.0
  0
LINE
  5
1380B
330
13808
100
AcDbEntity
  8
寸法
 62
     0
 48
50.0
370
    -2
100
AcDbLine
 10
7366.415342356835
 20
1406.065215385921
 30
0.0
 11
7004.024205957946
 21
1406.065215385921
 31
0.0
  0
LINE
  5
1380C
330
13808
100
AcDbEntity
  8
寸法
 62
     0
 48
50.0
370
    -2
100
AcDbLine
 10
7064.024205957945
 20
1505.965215385921
 30
0.0
 11
7064.024205957945
 21
1605.965215385921
 31
0.0
  0
LINE
  5
1380D
330
13808
100
AcDbEntity
  8
寸法
 62
     0
 48
50.0
370
    -2
100
AcDbLine
 10
7064.024205957945
 20
1406.065215385921
 30
0.0
 11
7064.024205957945
 21
1306.065215385921
 31
0.0
  0
LINE
  5
1380E
330
13808
100
AcDbEntity
  8
寸法
 62
     0
 48
50.0
370
    -2
100
AcDbLine
 10
7064.024205957945
 20
1505.965215385921
 30
0.0
 11
7064.024205957945
 21
1406.065215385921
 31
0.0
  0
INSERT
  5
1380F
330
13808
100
AcDbEntity
  8
寸法
 62
     0
 48
50.0
370
    -2
100
AcDbBlockReference
  2
_DOTSMALL
 10
7064.024205957945
 20
1505.965215385921
 30
0.0
 41
100.0
 42
100.0
 43
100.0
 50
270.0
  0
INSERT
  5
13810
330
13808
100
AcDbEntity
  8
寸法
 62
     0
 48
50.0
370
    -2
100
AcDbBlockReference
  2
_DOTSMALL
 10
7064.024205957945
 20
1406.065215385921
 30
0.0
 41
100.0
 42
100.0
 43
100.0
 50
90.0
  0
MTEXT
  5
13811
330
13808
100
AcDbEntity
  8
寸法
 62
     7
 48
50.0
100
AcDbMText
 10
6964.024205957945
 20
1456.015215385922
 30
0.0
 40
120.0
 41
0.0
 71
     5
 72
     1
  1
\A1;50
  7
STYLE1
 11
0.0000000000000001
 21
1.0
 31
0.0
 73
     1
 44
1.0
1001
ACAD
1000
MTEXTBEGIN
1070
    73
1070
     1
1070
    44
1040
1.0
1070
    74
1070
     0
1000
MTEXTEND
  0
POINT
  5
13812
330
13808
100
AcDbEntity
  8
DEFPOINTS
 62
     0
 48
50.0
100
AcDbPoint
 10
7386.415342356833
 20
1505.965215385921
 30
0.0
  0
POINT
  5
13813
330
13808
100
AcDbEntity
  8
DEFPOINTS
 62
     0
 48
50.0
100
AcDbPoint
 10
7386.415342356835
 20
1406.065215385921
 30
0.0
  0
POINT
  5
13814
330
13808
100
AcDbEntity
  8
DEFPOINTS
 62
     0
 48
50.0
100
AcDbPoint
 10
7064.024205957945
 20
1406.065215385921
 30
0.0
  0
ENDBLK
  5
13815
330
13808
100
AcDbEntity
  8
0
 48
50.0
100
AcDbBlockEnd
  0
BLOCK
  5
13817
330
13816
100
AcDbEntity
  8
0
 48
50.0
100
AcDbBlockBegin
  2
*D24
 70
     1
 10
0.0
 20
0.0
 30
0.0
  3
*D24
  1

  0
LINE
  5
13818
330
13816
100
AcDbEntity
  8
寸法
 62
     0
 48
50.0
370
    -2
100
AcDbLine
 10
7794.334122857981
 20
2405.965215385921
 30
0.0
 11
7004.024205957946
 21
2405.965215385922
 31
0.0
  0
LINE
  5
13819
330
13816
100
AcDbEntity
  8
寸法
 62
     0
 48
50.0
370
    -2
100
AcDbLine
 10
7843.209122857981
 20
2505.965215385921
 30
0.0
 11
7004.024205957946
 21
2505.965215385922
 31
0.0
  0
LINE
  5
1381A
330
13816
100
AcDbEntity
  8
寸法
 62
     0
 48
50.0
370
    -2
100
AcDbLine
 10
7064.024205957946
 20
2405.965215385922
 30
0.0
 11
7064.024205957946
 21
2505.965215385922
 31
0.0
  0
LINE
  5
1381B
330
13816
100
AcDbEntity
  8
寸法
 62
     0
 48
50.0
370
    -2
100
AcDbLine
 10
7064.024205957946
 20
2505.965215385922
 30
0.0
 11
7064.024205957946
 21
2913.870727196945
 31
0.0
  0
INSERT
  5
1381C
330
13816
100
AcDbEntity
  8
寸法
 62
     0
 48
50.0
370
    -2
100
AcDbBlockReference
  2
_DOTSMALL
 10
7064.024205957946
 20
2405.965215385922
 30
0.0
 41
100.0
 42
100.0
 43
100.0
 50
270.0
  0
INSERT
  5
1381D
330
13816
100
AcDbEntity
  8
寸法
 62
     0
 48
50.0
370
    -2
100
AcDbBlockReference
  2
_DOTSMALL
 10
7064.024205957946
 20
2505.965215385922
 30
0.0
 41
100.0
 42
100.0
 43
100.0
 50
90.0
  0
MTEXT
  5
1381E
330
13816
100
AcDbEntity
  8
寸法
 62
     7
 48
50.0
100
AcDbMText
 10
6958.024205957944
 20
2759.917971291435
 30
0.0
 40
120.0
 41
0.0
 71
     5
 72
     1
  1
\A1;(50)
  7
STYLE1
 11
0.0000000000000001
 21
1.0
 31
0.0
 73
     1
 44
1.0
1001
ACAD
1000
MTEXTBEGIN
1070
    73
1070
     1
1070
    44
1040
1.0
1070
    74
1070
     0
1000
MTEXTEND
  0
POINT
  5
1381F
330
13816
100
AcDbEntity
  8
DEFPOINTS
 62
     0
 48
50.0
100
AcDbPoint
 10
7814.334122857982
 20
2405.965215385921
 30
0.0
  0
POINT
  5
13820
330
13816
100
AcDbEntity
  8
DEFPOINTS
 62
     0
 48
50.0
100
AcDbPoint
 10
7863.209122857981
 20
2505.965215385921
 30
0.0
  0
POINT
  5
13821
330
13816
100
AcDbEntity
  8
DEFPOINTS
 62
     0
 48
50.0
100
AcDbPoint
 10
7064.024205957946
 20
2505.965215385922
 30
0.0
  0
ENDBLK
  5
13822
330
13816
100
AcDbEntity
  8
0
 48
50.0
100
AcDbBlockEnd
  0
BLOCK
  5
13824
330
13823
100
AcDbEntity
  8
0
 48
50.0
100
AcDbBlockBegin
  2
*D25
 70
     1
 10
0.0
 20
0.0
 30
0.0
  3
*D25
  1

  0
LINE
  5
13825
330
13823
100
AcDbEntity
  8
寸法
 62
     0
 48
50.0
370
    -2
100
AcDbLine
 10
7794.334122857981
 20
2405.965215385921
 30
0.0
 11
7225.939971462299
 21
2405.965215385921
 31
0.0
  0
LINE
  5
13826
330
13823
100
AcDbEntity
  8
寸法
 62
     0
 48
50.0
370
    -2
100
AcDbLine
 10
7496.834122857977
 20
2306.090215385921
 30
0.0
 11
7225.939971462299
 21
2306.090215385921
 31
0.0
  0
LINE
  5
13827
330
13823
100
AcDbEntity
  8
寸法
 62
     0
 48
50.0
370
    -2
100
AcDbLine
 10
7285.939971462299
 20
2405.965215385921
 30
0.0
 11
7285.939971462299
 21
2306.090215385921
 31
0.0
  0
INSERT
  5
13828
330
13823
100
AcDbEntity
  8
寸法
 62
     0
 48
50.0
370
    -2
100
AcDbBlockReference
  2
_DOTSMALL
 10
7285.939971462299
 20
2405.965215385921
 30
0.0
 41
100.0
 42
100.0
 43
100.0
 50
90.0
  0
INSERT
  5
13829
330
13823
100
AcDbEntity
  8
寸法
 62
     0
 48
50.0
370
    -2
100
AcDbBlockReference
  2
_DOTSMALL
 10
7285.939971462299
 20
2306.090215385921
 30
0.0
 41
100.0
 42
100.0
 43
100.0
 50
270.0
  0
MTEXT
  5
1382A
330
13823
100
AcDbEntity
  8
寸法
 62
     7
 48
50.0
100
AcDbMText
 10
7185.939971462298
 20
2356.027715385923
 30
0.0
 40
120.0
 41
0.0
 71
     5
 72
     1
  1
\A1;50
  7
STYLE1
 11
0.0000000000000001
 21
1.0
 31
0.0
 73
     1
 44
1.0
1001
ACAD
1000
MTEXTBEGIN
1070
    73
1070
     1
1070
    44
1040
1.0
1070
    74
1070
     0
1000
MTEXTEND
  0
POINT
  5
1382B
330
13823
100
AcDbEntity
  8
DEFPOINTS
 62
     0
 48
50.0
100
AcDbPoint
 10
7814.334122857982
 20
2405.965215385921
 30
0.0
  0
POINT
  5
1382C
330
13823
100
AcDbEntity
  8
DEFPOINTS
 62
     0
 48
50.0
100
AcDbPoint
 10
7516.834122857978
 20
2306.090215385921
 30
0.0
  0
POINT
  5
1382D
330
13823
100
AcDbEntity
  8
DEFPOINTS
 62
     0
 48
50.0
100
AcDbPoint
 10
7285.939971462299
 20
2306.090215385921
 30
0.0
  0
ENDBLK
  5
1382E
330
13823
100
AcDbEntity
  8
0
 48
50.0
100
AcDbBlockEnd
  0
BLOCK
  5
138CB
330
1382F
100
AcDbEntity
  8
0
 48
50.0
100
AcDbBlockBegin
  2
A$C02A42FD2
 70
     0
 10
0.0
 20
0.0
 30
0.0
  3
A$C02A42FD2
  1

  0
LEADER
  5
13830
330
1382F
100
AcDbEntity
  8
寸法
 48
50.0
100
AcDbLeader
  3
INABA_S40G詳細用20
 71
     0
 73
     0
 74
     0
 75
     1
 76
     3
 10
-4890.365877142014
 20
1937.865480438106
 30
0.0
 10
-4187.577849461819
 20
1709.700360505096
 30
0.0
 10
-4087.577849461818
 20
1709.700360505096
 30
0.0
  0
MTEXT
  5
13831
102
{ACAD_REACTORS
330
13830
102
}
330
1382F
100
AcDbEntity
  8
寸法
 62
     7
 48
50.0
100
AcDbMText
 10
-4047.577849461819
 20
1809.700360505096
 30
0.0
 40
120.0
 41
0.0
 71
     4
 72
     1
  1
\A1;カンザシ 
  7
STYLE1
 73
     1
 44
1.0
1001
ACAD
1000
MTEXTBEGIN
1070
    73
1070
     1
1070
    44
1040
1.0
1070
    74
1070
     0
1000
MTEXTEND
  0
DIMENSION
  5
13832
330
1382F
100
AcDbEntity
  8
寸法
 48
50.0
100
AcDbDimension
  2
*D22
 10
-4190.365877142022
 20
867.9441030093549
 30
0.0
 11
-4890.365877142022
 21
967.9441030093549
 31
0.0
 12
-13107.2
 22
0.0000000000000729
 32
0.0
 71
     5
 42
700.0
  3
INABA_S40G詳細用20
100
AcDbAlignedDimension
 13
-5590.365877142022
 23
1196.065215385921
 33
0.0
 14
-4190.365877142022
 24
1196.065215385921
 34
0.0
100
AcDbRotatedDimension
  0
LINE
  5
13833
330
1382F
100
AcDbEntity
  8
文字
 48
50.0
100
AcDbLine
 10
-5377.932672728839
 20
183.2228317909031
 30
0.0
 11
-4242.763855018247
 21
183.222831790903
 31
0.0
  0
LINE
  5
13834
330
1382F
100
AcDbEntity
  8
文字
 48
50.0
100
AcDbLine
 10
-5377.932672728839
 20
421.222831790903
 30
0.0
 11
-4242.763855018247
 21
421.222831790903
 31
0.0
  0
TEXT
  5
13835
330
1382F
100
AcDbEntity
  8
文字
 62
     7
 48
50.0
100
AcDbText
 10
-5306.908878155275
 20
249.7862569918617
 30
0.0
 40
105.0
  1
A-A' 断面 1/20
  7
STYLE2
100
AcDbText
  0
LINE
  5
13836
330
1382F
100
AcDbEntity
  8
細線
 48
50.0
100
AcDbLine
 10
-4642.747575142045
 20
2306.090215385921
 30
0.0
 11
-4837.865877142014
 21
2501.208517385889
 31
0.0
  0
LINE
  5
13837
330
1382F
100
AcDbEntity
  8
細線
 48
50.0
100
AcDbLine
 10
-4613.049090332212
 20
2306.090215385921
 30
0.0
 11
-4837.865877142014
 21
2530.907002195725
 31
0.0
  0
LINE
  5
13838
330
1382F
100
AcDbEntity
  8
細線
 48
50.0
100
AcDbLine
 10
-4583.350605522373
 20
2306.090215385921
 30
0.0
 11
-4818.225605522382
 21
2540.965215385922
 31
0.0
  0
MTEXT
  5
13839
330
1382F
100
AcDbEntity
  8
寸法
 62
     7
 48
50.0
100
AcDbMText
 10
-4731.780960609858
 20
2690.985081338464
 30
0.0
 40
120.0
 41
0.0
 71
     4
 72
     1
  1
\A1;水勾配１／１００ 
  7
STYLE1
 73
     1
 44
1.0
1001
ACAD
1000
MTEXTBEGIN
1070
    73
1070
     1
1070
    44
1040
1.0
1070
    74
1070
     0
1000
MTEXTEND
  0
LINE
  5
1383A
330
1382F
100
AcDbEntity
  8
部品1
 48
50.0
100
AcDbLine
 10
-4837.865877142014
 20
2306.090215385921
 30
0.0
 11
-3830.038279767911
 21
2306.090215385919
 31
0.0
  0
LINE
  5
1383B
330
1382F
100
AcDbEntity
  8
部品1
 48
50.0
100
AcDbLine
 10
-4766.990877142013
 20
2505.965215385923
 30
0.0
 11
-3829.163279767911
 21
2505.965215385921
 31
0.0
  0
LINE
  5
1383C
330
1382F
100
AcDbEntity
  8
文字
 48
50.0
100
AcDbLine
 10
-4734.739106558516
 20
2607.992016510231
 30
0.0
 11
-3452.90872983785
 21
2607.992016510231
 31
0.0
  0
CIRCLE
  5
1383D
330
1382F
100
AcDbEntity
  8
部品1
 48
5.0
100
AcDbCircle
 10
-4710.365877142014
 20
1683.965215385923
 30
0.0
 40
14.0
  0
LINE
  5
1383E
330
1382F
100
AcDbEntity
  8
細線
 48
50.0
100
AcDbLine
 10
-4718.352999938773
 20
1505.965215385921
 30
0.0
 11
-4582.35299993878
 21
1641.965215385923
 31
0.0
  0
LINE
  5
1383F
330
1382F
100
AcDbEntity
  8
細線
 48
50.0
100
AcDbLine
 10
-4777.749969558431
 20
1505.965215385919
 30
0.0
 11
-4641.749969558431
 21
1641.965215385921
 31
0.0
  0
LINE
  5
13840
330
1382F
100
AcDbEntity
  8
細線
 48
50.0
100
AcDbLine
 10
-4748.05148474861
 20
1505.965215385921
 30
0.0
 11
-4612.051484748618
 21
1641.965215385921
 31
0.0
  0
LINE
  5
13841
330
1382F
100
AcDbEntity
  8
細線
 48
50.0
100
AcDbLine
 10
-4729.787234265399
 20
1505.965215385921
 30
0.0
 11
-4629.887234265407
 21
1406.065215385921
 31
0.0
  0
LINE
  5
13842
330
1382F
100
AcDbEntity
  8
細線
 48
50.0
100
AcDbLine
 10
-4720.126918942702
 20
1231.065215385921
 30
0.0
 11
-4704.865877142021
 21
1196.065215385921
 31
0.0
  0
LINE
  5
13843
330
1382F
100
AcDbEntity
  8
細線
 48
50.0
100
AcDbLine
 10
-4732.865877142021
 20
1196.065215385921
 30
0.0
 11
-4656.43212794612
 21
1406.065215385921
 31
0.0
  0
LINE
  5
13844
330
1382F
100
AcDbEntity
  8
部品1
 48
50.0
100
AcDbLine
 10
-5720.784657643161
 20
1505.965215385921
 30
0.0
 11
-4059.947096640875
 21
1505.965215385921
 31
0.0
  0
LINE
  5
13845
330
1382F
100
AcDbEntity
  8
部品1
 48
50.0
100
AcDbLine
 10
-5469.740877142021
 20
1641.965215385919
 30
0.0
 11
-4310.990877142021
 21
1641.965215385923
 31
0.0
  0
LINE
  5
13846
330
1382F
100
AcDbEntity
  8
部品1
 48
50.0
100
AcDbLine
 10
-5469.740877142021
 20
1669.965215385921
 30
0.0
 11
-4310.990877142021
 21
1669.965215385923
 31
0.0
  0
LINE
  5
13847
330
1382F
100
AcDbEntity
  8
部品1
 48
50.0
100
AcDbLine
 10
-5720.784657643161
 20
1196.065215385921
 30
0.0
 11
-4059.947096640875
 21
1196.065215385921
 31
0.0
  0
LINE
  5
13848
330
1382F
100
AcDbEntity
  8
部品1
 48
50.0
100
AcDbLine
 10
-5720.784657643161
 20
1406.065215385921
 30
0.0
 11
-4059.947096640875
 21
1406.065215385921
 31
0.0
  0
LINE
  5
13849
330
1382F
100
AcDbEntity
  8
細線
 48
50.0
100
AcDbLine
 10
-5009.729767022907
 20
1669.965215385923
 30
0.0
 11
-4373.604767022924
 21
2306.09021538592
 31
0.0
  0
LINE
  5
1384A
330
1382F
100
AcDbEntity
  8
細線
 48
50.0
100
AcDbLine
 10
-4980.031282213071
 20
1669.965215385923
 30
0.0
 11
-4343.906282213086
 21
2306.09021538592
 31
0.0
  0
LINE
  5
1384B
330
1382F
100
AcDbEntity
  8
細線
 48
50.0
100
AcDbLine
 10
-4950.332797403241
 20
1669.965215385923
 30
0.0
 11
-4314.207797403245
 21
2306.090215385919
 31
0.0
  0
DIMENSION
  5
1384C
330
1382F
100
AcDbEntity
  8
寸法
 48
50.0
100
AcDbDimension
  2
*D19
 10
-5821.260028537703
 20
1866.015215385921
 30
0.0
 11
-5921.271839561325
 21
2086.052715385923
 31
0.0
 12
-13107.2
 22
0.0000000000000729
 32
0.0
 71
     5
 42
220.0375
  3
INABA_S40G詳細用20
100
AcDbAlignedDimension
 13
-5590.365877142022
 23
2306.090215385921
 33
0.0
 14
-4942.865877142015
 24
1866.015215385921
 34
0.0
 50
90.0
100
AcDbRotatedDimension
  0
DIMENSION
  5
1384D
330
1382F
100
AcDbEntity
  8
寸法
 48
50.0
100
AcDbDimension
  2
*D20
 10
-6043.175794042056
 20
1505.965215385921
 30
0.0
 11
-6143.175794042056
 21
1955.965215385922
 31
0.0
 12
-13107.2
 22
0.0000000000000729
 32
0.0
 71
     5
 42
450.0
  3
INABA_S40G詳細用20
100
AcDbAlignedDimension
 13
-5292.86587714202
 23
2405.965215385921
 33
0.0
 14
-5720.784657643161
 24
1505.965215385921
 34
0.0
 50
90.0
100
AcDbRotatedDimension
  0
LINE
  5
1384E
330
1382F
100
AcDbEntity
  8
細線
 48
50.0
100
AcDbLine
 10
-4837.865877142014
 20
2208.110417921453
 30
0.0
 11
-4739.886079677548
 21
2306.090215385921
 31
0.0
  0
LINE
  5
1384F
330
1382F
100
AcDbEntity
  8
細線
 48
50.0
100
AcDbLine
 10
-4837.865877142014
 20
2178.411933111618
 30
0.0
 11
-4710.187594867708
 21
2306.090215385921
 31
0.0
  0
LINE
  5
13850
330
1382F
100
AcDbEntity
  8
細線
 48
50.0
100
AcDbLine
 10
-5590.365877142022
 20
2217.871528040552
 30
0.0
 11
-5502.147189796649
 21
2306.090215385921
 31
0.0
  0
LINE
  5
13851
330
1382F
100
AcDbEntity
  8
部品1
 48
50.0
100
AcDbLine
 10
-4942.865877142015
 20
2885.451666543815
 30
0.0
 11
-4942.865877142015
 21
1866.015215385921
 31
0.0
  0
LINE
  5
13852
330
1382F
100
AcDbEntity
  8
部品1
 48
50.0
100
AcDbLine
 10
-4837.865877142014
 20
1866.015215385921
 30
0.0
 11
-4837.865877142014
 21
2885.451666543815
 31
0.0
  0
LINE
  5
13853
330
1382F
100
AcDbEntity
  8
部品1
 48
50.0
100
AcDbLine
 10
-5590.365877142022
 20
1505.965215385921
 30
0.0
 11
-5590.365877142023
 21
2306.090215385921
 31
0.0
  0
LINE
  5
13854
330
1382F
100
AcDbEntity
  8
細線
 48
50.0
100
AcDbLine
 10
-5590.365877142022
 20
1881.288700195758
 30
0.0
 11
-5165.564361951851
 21
2306.090215385921
 31
0.0
  0
LINE
  5
13855
330
1382F
100
AcDbEntity
  8
細線
 48
50.0
100
AcDbLine
 10
-5590.365877142022
 20
1851.590215385914
 30
0.0
 11
-5135.865877142013
 21
2306.090215385921
 31
0.0
  0
LINE
  5
13856
330
1382F
100
AcDbEntity
  8
細線
 48
50.0
100
AcDbLine
 10
-5590.365877142023
 20
1821.891730576083
 30
0.0
 11
-5106.16739233218
 21
2306.090215385921
 31
0.0
  0
LINE
  5
13857
330
1382F
100
AcDbEntity
  8
文字
 48
50.0
100
AcDbLine
 10
-5377.932672728839
 20
421.222831790903
 30
0.0
 11
-5377.932672728839
 21
183.2228317909031
 31
0.0
  0
DIMENSION
  5
13858
330
1382F
100
AcDbEntity
  8
寸法
 48
50.0
100
AcDbDimension
  2
*D23
 10
-6043.175794042056
 20
1406.065215385921
 30
0.0
 11
-6143.175794042056
 21
1456.015215385922
 31
0.0
 12
-13107.2
 22
0.0000000000000729
 32
0.0
 71
     5
 42
49.95000000000004
  3
INABA_S40G詳細用20
100
AcDbAlignedDimension
 13
-5720.784657643168
 23
1505.965215385921
 33
0.0
 14
-5720.784657643165
 24
1406.065215385921
 34
0.0
 50
90.0
100
AcDbRotatedDimension
  0
LINE
  5
13859
330
1382F
100
AcDbEntity
  8
細線
 48
50.0
100
AcDbLine
 10
-5292.865877142022
 20
1196.065215385921
 30
0.0
 11
-5216.43212794612
 21
1406.065215385921
 31
0.0
  0
LINE
  5
1385A
330
1382F
100
AcDbEntity
  8
細線
 48
50.0
100
AcDbLine
 10
-5572.865877142021
 20
1196.065215385919
 30
0.0
 11
-5496.43212794612
 21
1406.065215385919
 31
0.0
  0
LINE
  5
1385B
330
1382F
100
AcDbEntity
  8
細線
 48
50.0
100
AcDbLine
 10
-5432.865877142021
 20
1196.065215385921
 30
0.0
 11
-5356.432127946121
 21
1406.065215385919
 31
0.0
  0
LINE
  5
1385C
330
1382F
100
AcDbEntity
  8
細線
 48
50.0
100
AcDbLine
 10
-5712.865877142021
 20
1196.065215385919
 30
0.0
 11
-5636.43212794612
 21
1406.065215385919
 31
0.0
  0
LINE
  5
1385D
330
1382F
100
AcDbEntity
  8
細線
 48
50.0
100
AcDbLine
 10
-5012.865877142021
 20
1196.065215385923
 30
0.0
 11
-4936.43212794612
 21
1406.065215385921
 31
0.0
  0
LINE
  5
1385E
330
1382F
100
AcDbEntity
  8
細線
 48
50.0
100
AcDbLine
 10
-5152.865877142022
 20
1196.065215385921
 30
0.0
 11
-5076.432127946119
 21
1406.065215385921
 31
0.0
  0
LINE
  5
1385F
330
1382F
100
AcDbEntity
  8
部品1
 48
50.0
100
AcDbLine
 10
-5720.784657643168
 20
1505.965215385919
 30
0.0
 11
-5720.784657643158
 21
1196.065215385921
 31
0.0
  0
LINE
  5
13860
330
1382F
100
AcDbEntity
  8
細線
 48
50.0
100
AcDbLine
 10
-4872.865877142022
 20
1196.065215385923
 30
0.0
 11
-4796.43212794612
 21
1406.065215385923
 31
0.0
  0
LINE
  5
13861
330
1382F
100
AcDbEntity
  8
細線
 48
50.0
100
AcDbLine
 10
-5700.126918942702
 20
1231.065215385919
 30
0.0
 11
-5684.865877142022
 21
1196.065215385919
 31
0.0
  0
LINE
  5
13862
330
1382F
100
AcDbEntity
  8
細線
 48
50.0
100
AcDbLine
 10
-5560.126918942702
 20
1231.065215385919
 30
0.0
 11
-5544.865877142021
 21
1196.065215385919
 31
0.0
  0
LINE
  5
13863
330
1382F
100
AcDbEntity
  8
細線
 48
50.0
100
AcDbLine
 10
-5420.126918942703
 20
1231.065215385921
 30
0.0
 11
-5404.865877142022
 21
1196.065215385921
 31
0.0
  0
LINE
  5
13864
330
1382F
100
AcDbEntity
  8
細線
 48
50.0
100
AcDbLine
 10
-5280.126918942702
 20
1231.065215385921
 30
0.0
 11
-5264.865877142021
 21
1196.065215385921
 31
0.0
  0
LINE
  5
13865
330
1382F
100
AcDbEntity
  8
細線
 48
50.0
100
AcDbLine
 10
-5140.126918942701
 20
1231.065215385921
 30
0.0
 11
-5124.865877142021
 21
1196.065215385921
 31
0.0
  0
LINE
  5
13866
330
1382F
100
AcDbEntity
  8
細線
 48
50.0
100
AcDbLine
 10
-5000.126918942702
 20
1231.065215385923
 30
0.0
 11
-4984.865877142022
 21
1196.065215385923
 31
0.0
  0
LINE
  5
13867
330
1382F
100
AcDbEntity
  8
細線
 48
50.0
100
AcDbLine
 10
-4860.126918942702
 20
1231.065215385923
 30
0.0
 11
-4844.865877142021
 21
1196.065215385923
 31
0.0
  0
DIMENSION
  5
13868
330
1382F
100
AcDbEntity
  8
寸法
 48
50.0
100
AcDbDimension
  2
*D21
 10
-5821.260028537703
 20
1505.965215385921
 30
0.0
 11
-5821.260028537703
 21
1687.090215385921
 31
0.0
 12
-13107.2
 22
0.0000000000000729
 32
0.0
 70
   128
 71
     5
 42
180.0250000000001
  3
INABA_S40G詳細用20
100
AcDbAlignedDimension
 13
-4942.865877142015
 23
1866.015215385921
 33
0.0
 14
-5720.784657643161
 24
1505.965215385921
 34
0.0
 50
90.0
100
AcDbRotatedDimension
  0
LINE
  5
13869
330
1382F
100
AcDbEntity
  8
細線
 48
50.0
100
AcDbLine
 10
-5462.349859574662
 20
1505.965215385921
 30
0.0
 11
-5362.449859574656
 21
1406.065215385921
 31
0.0
  0
LINE
  5
1386A
330
1382F
100
AcDbEntity
  8
細線
 48
50.0
100
AcDbLine
 10
-5376.011079677539
 20
1669.965215385923
 30
0.0
 11
-4942.865877142015
 21
2103.110417921455
 31
0.0
  0
LINE
  5
1386B
330
1382F
100
AcDbEntity
  8
細線
 48
50.0
100
AcDbLine
 10
-5405.70956448739
 20
1669.965215385923
 30
0.0
 11
-4942.865877142015
 21
2132.808902731288
 31
0.0
  0
LINE
  5
1386C
330
1382F
100
AcDbEntity
  8
細線
 48
50.0
100
AcDbLine
 10
-5510.312594867709
 20
1505.965215385923
 30
0.0
 11
-5374.312594867703
 21
1641.965215385919
 31
0.0
  0
LINE
  5
1386D
330
1382F
100
AcDbEntity
  8
細線
 48
50.0
100
AcDbLine
 10
-5540.011079677539
 20
1505.965215385921
 30
0.0
 11
-5404.011079677531
 21
1641.965215385919
 31
0.0
  0
LINE
  5
1386E
330
1382F
100
AcDbEntity
  8
細線
 48
50.0
100
AcDbLine
 10
-5569.709564487389
 20
1505.965215385921
 30
0.0
 11
-5433.709564487383
 21
1641.965215385919
 31
0.0
  0
LINE
  5
1386F
330
1382F
100
AcDbEntity
  8
細線
 48
50.0
100
AcDbLine
 10
-5664.43212794612
 20
1406.065215385919
 30
0.0
 11
-5649.17108614544
 21
1371.065215385919
 31
0.0
  0
LINE
  5
13870
330
1382F
100
AcDbEntity
  8
細線
 48
50.0
100
AcDbLine
 10
-5384.43212794612
 20
1406.065215385919
 30
0.0
 11
-5369.171086145439
 21
1371.065215385921
 31
0.0
  0
LINE
  5
13871
330
1382F
100
AcDbEntity
  8
細線
 48
50.0
100
AcDbLine
 10
-5492.048344384492
 20
1505.965215385921
 30
0.0
 11
-5392.148344384492
 21
1406.065215385921
 31
0.0
  0
LINE
  5
13872
330
1382F
100
AcDbEntity
  8
細線
 48
50.0
100
AcDbLine
 10
-5524.43212794612
 20
1406.065215385919
 30
0.0
 11
-5509.171086145439
 21
1371.065215385919
 31
0.0
  0
LINE
  5
13873
330
1382F
100
AcDbEntity
  8
細線
 48
50.0
100
AcDbLine
 10
-5521.746829194327
 20
1505.965215385919
 30
0.0
 11
-5421.846829194328
 21
1406.065215385921
 31
0.0
  0
LINE
  5
13874
330
1382F
100
AcDbEntity
  8
部品1
 48
50.0
100
AcDbLine
 10
-5469.740877142021
 20
1641.965215385923
 30
0.0
 11
-5469.740877142021
 21
1669.965215385921
 31
0.0
  0
CIRCLE
  5
13875
330
1382F
100
AcDbEntity
  8
部品1
 48
5.0
100
AcDbCircle
 10
-5430.365877142015
 20
1683.965215385923
 30
0.0
 40
14.0
  0
LINE
  5
13876
330
1382F
100
AcDbEntity
  8
細線
 48
50.0
100
AcDbLine
 10
-5346.312594867702
 20
1669.965215385921
 30
0.0
 11
-4942.865877142022
 21
2073.411933111615
 31
0.0
  0
LINE
  5
13877
330
1382F
100
AcDbEntity
  8
細線
 48
50.0
100
AcDbLine
 10
-5114.332797403242
 20
1505.965215385921
 30
0.0
 11
-4978.332797403242
 21
1641.965215385921
 31
0.0
  0
LINE
  5
13878
330
1382F
100
AcDbEntity
  8
細線
 48
50.0
100
AcDbLine
 10
-5144.03128221307
 20
1505.965215385921
 30
0.0
 11
-5008.031282213064
 21
1641.965215385919
 31
0.0
  0
LINE
  5
13879
330
1382F
100
AcDbEntity
  8
細線
 48
50.0
100
AcDbLine
 10
-5066.370062110188
 20
1505.965215385921
 30
0.0
 11
-4966.470062110187
 21
1406.065215385921
 31
0.0
  0
LINE
  5
1387A
330
1382F
100
AcDbEntity
  8
細線
 48
50.0
100
AcDbLine
 10
-5096.068546920023
 20
1505.965215385921
 30
0.0
 11
-4996.168546920022
 21
1406.065215385921
 31
0.0
  0
LINE
  5
1387B
330
1382F
100
AcDbEntity
  8
細線
 48
50.0
100
AcDbLine
 10
-5125.76703172986
 20
1505.965215385921
 30
0.0
 11
-5025.867031729863
 21
1406.065215385921
 31
0.0
  0
LINE
  5
1387C
330
1382F
100
AcDbEntity
  8
細線
 48
50.0
100
AcDbLine
 10
-5173.729767022908
 20
1505.965215385921
 30
0.0
 11
-5037.729767022892
 21
1641.965215385919
 31
0.0
  0
LINE
  5
1387D
330
1382F
100
AcDbEntity
  8
細線
 48
50.0
100
AcDbLine
 10
-5244.43212794612
 20
1406.065215385921
 30
0.0
 11
-5229.17108614544
 21
1371.065215385921
 31
0.0
  0
LINE
  5
1387E
330
1382F
100
AcDbEntity
  8
細線
 48
50.0
100
AcDbLine
 10
-5104.43212794612
 20
1406.065215385921
 30
0.0
 11
-5089.171086145439
 21
1371.065215385921
 31
0.0
  0
CIRCLE
  5
1387F
330
1382F
100
AcDbEntity
  8
部品1
 48
5.0
100
AcDbCircle
 10
-5070.365877142014
 20
1683.965215385923
 30
0.0
 40
14.0
  0
LINE
  5
13880
330
1382F
100
AcDbEntity
  8
細線
 48
50.0
100
AcDbLine
 10
-4964.43212794612
 20
1406.065215385921
 30
0.0
 11
-4949.171086145439
 21
1371.065215385923
 31
0.0
  0
LINE
  5
13881
330
1382F
100
AcDbEntity
  8
細線
 48
50.0
100
AcDbLine
 10
-4824.432127946121
 20
1406.065215385923
 30
0.0
 11
-4809.17108614544
 21
1371.065215385923
 31
0.0
  0
LINE
  5
13882
330
1382F
100
AcDbEntity
  8
部品1
 48
5.0
100
AcDbLine
 10
-4942.865877142015
 20
1866.015215385921
 30
0.0
 11
-4837.865877142014
 21
1866.015215385921
 31
0.0
  0
CIRCLE
  5
13883
330
1382F
100
AcDbEntity
  8
部品1
 48
50.0
100
AcDbCircle
 10
-4890.365877142014
 20
1938.215215385921
 30
0.0
 40
14.0
  0
DIMENSION
  5
13884
330
1382F
100
AcDbEntity
  8
寸法
 48
50.0
100
AcDbDimension
  2
*D24
 10
-6043.175794042054
 20
2505.965215385922
 30
0.0
 11
-6043.175794042056
 21
2759.917971291435
 31
0.0
 12
-13107.2
 22
0.0000000000000729
 32
0.0
 70
   128
  1
(<>)
 71
     5
 42
50.0
  3
INABA_S40G詳細用20
100
AcDbAlignedDimension
 13
-5292.86587714202
 23
2405.965215385921
 33
0.0
 14
-5243.99087714202
 24
2505.965215385921
 34
0.0
 50
90.0
100
AcDbRotatedDimension
  0
LINE
  5
13885
330
1382F
100
AcDbEntity
  8
Ｇ．Ｌ
 48
50.0
100
AcDbLine
 10
-6703.485710942095
 20
2405.965215385923
 30
0.0
 11
-5292.86587714202
 21
2405.965215385921
 31
0.0
  0
MTEXT
  5
13886
330
1382F
100
AcDbEntity
  8
寸法
 62
     7
 48
50.0
100
AcDbMText
 10
-6695.174145854569
 20
2483.011753821337
 30
0.0
 40
120.0
 41
0.0
 71
     4
 72
     1
  1
▽G.L
  7
STYLE1
 73
     1
 44
1.0
1001
ACAD
1000
MTEXTBEGIN
1070
    73
1070
     1
1070
    44
1040
1.0
1070
    74
1070
     0
1000
MTEXTEND
  0
DIMENSION
  5
13887
330
1382F
100
AcDbEntity
  8
寸法
 48
50.0
100
AcDbDimension
  2
*D25
 10
-5821.260028537702
 20
2306.090215385921
 30
0.0
 11
-5821.260028537703
 21
2356.027715385923
 31
0.0
 12
-13107.2
 22
0.0000000000000729
 32
0.0
 70
   128
 71
     5
 42
49.9375
  3
INABA_S40G詳細用20
100
AcDbAlignedDimension
 13
-5292.86587714202
 23
2405.965215385921
 33
0.0
 14
-5590.365877142023
 24
2306.090215385921
 34
0.0
 50
90.0
100
AcDbRotatedDimension
  0
LINE
  5
13888
330
1382F
100
AcDbEntity
  8
部品1
 48
50.0
100
AcDbLine
 10
-5590.365877142022
 20
2306.090215385921
 30
0.0
 11
-4942.865877142015
 21
2306.090215385921
 31
0.0
  0
LINE
  5
13889
330
1382F
100
AcDbEntity
  8
細線
 48
50.0
100
AcDbLine
 10
-5590.365877142023
 20
2277.268497660219
 30
0.0
 11
-5561.544159416322
 21
2306.090215385921
 31
0.0
  0
LINE
  5
1388A
330
1382F
100
AcDbEntity
  8
細線
 48
50.0
100
AcDbLine
 10
-5590.365877142023
 20
2247.570012850383
 30
0.0
 11
-5531.845674606483
 21
2306.090215385921
 31
0.0
  0
LINE
  5
1388B
330
1382F
100
AcDbEntity
  8
部品1
 48
50.0
100
AcDbLine
 10
-5243.99087714202
 20
2505.965215385921
 30
0.0
 11
-5011.990877142014
 21
2505.965215385921
 31
0.0
  0
LINE
  5
1388C
330
1382F
100
AcDbEntity
  8
細線
 48
50.0
100
AcDbLine
 10
-5009.02888779668
 20
2306.090215385921
 30
0.0
 11
-5208.90388779668
 21
2505.965215385921
 31
0.0
  0
LINE
  5
1388D
330
1382F
100
AcDbEntity
  8
細線
 48
50.0
100
AcDbLine
 10
-4979.330402986849
 20
2306.090215385921
 30
0.0
 11
-5179.205402986841
 21
2505.965215385921
 31
0.0
  0
LINE
  5
1388E
330
1382F
100
AcDbEntity
  8
部品1
 48
50.0
100
AcDbLine
 10
-5292.865877142022
 20
2457.090215385921
 30
0.0
 11
-5243.99087714202
 21
2505.965215385921
 31
0.0
  0
LINE
  5
1388F
330
1382F
100
AcDbEntity
  8
細線
 48
50.0
100
AcDbLine
 10
-5038.727372606512
 20
2306.090215385921
 30
0.0
 11
-5238.602372606509
 21
2505.965215385921
 31
0.0
  0
LINE
  5
13890
330
1382F
100
AcDbEntity
  8
部品1
 48
50.0
100
AcDbLine
 10
-5292.865877142022
 20
2457.09021538592
 30
0.0
 11
-5292.865877142014
 21
2306.090215385921
 31
0.0
  0
LINE
  5
13891
330
1382F
100
AcDbEntity
  8
細線
 48
50.0
100
AcDbLine
 10
-4837.865877142014
 20
2237.808902731288
 30
0.0
 11
-4769.584564487383
 21
2306.090215385921
 31
0.0
  0
LINE
  5
13892
330
1382F
100
AcDbEntity
  8
部品1
 48
50.0
100
AcDbLine
 10
-4976.990877142014
 20
2540.965215385921
 30
0.0
 11
-5011.990877142014
 21
2505.965215385921
 31
0.0
  0
LINE
  5
13893
330
1382F
100
AcDbEntity
  8
部品1
 48
50.0
100
AcDbLine
 10
-4976.990877142014
 20
2540.965215385921
 30
0.0
 11
-4942.865877142015
 21
2540.965215385921
 31
0.0
  0
LINE
  5
13894
330
1382F
100
AcDbEntity
  8
部品1
 48
50.0
100
AcDbLine
 10
-4801.990877142014
 20
2540.965215385921
 30
0.0
 11
-4766.990877142013
 21
2505.965215385921
 31
0.0
  0
LINE
  5
13895
330
1382F
100
AcDbEntity
  8
部品1
 48
50.0
100
AcDbLine
 10
-4837.865877142014
 20
2540.965215385921
 30
0.0
 11
-4801.990877142014
 21
2540.965215385921
 31
0.0
  0
LINE
  5
13896
330
1382F
100
AcDbEntity
  8
細線
 48
50.0
100
AcDbLine
 10
-4188.73264365197
 20
2096.09021538592
 30
0.0
 11
-4112.29889445607
 21
2306.090215385921
 31
0.0
  0
LINE
  5
13897
330
1382F
100
AcDbEntity
  8
細線
 48
50.0
100
AcDbLine
 10
-3908.732643651971
 20
2096.090215385921
 30
0.0
 11
-3832.298894456069
 21
2306.090215385919
 31
0.0
  0
LINE
  5
13898
330
1382F
100
AcDbEntity
  8
細線
 48
50.0
100
AcDbLine
 10
-4048.732643651971
 20
2096.090215385923
 30
0.0
 11
-3972.29889445607
 21
2306.090215385923
 31
0.0
  0
LINE
  5
13899
330
1382F
100
AcDbEntity
  8
部品1
 48
50.0
100
AcDbLine
 10
-4190.365877142022
 20
1505.965215385921
 30
0.0
 11
-4190.365877142022
 21
2306.090215385919
 31
0.0
  0
LINE
  5
1389A
330
1382F
100
AcDbEntity
  8
文字
 48
50.0
100
AcDbLine
 10
-4242.763855018249
 20
421.222831790903
 30
0.0
 11
-4242.763855018249
 21
183.2228317909031
 31
0.0
  0
LEADER
  5
1389B
330
1382F
100
AcDbEntity
  8
寸法
 48
5.0
100
AcDbLeader
  3
INABA_S40G詳細用20
 71
     0
 73
     0
 74
     0
 75
     1
 76
     3
 10
-4350.365877142014
 20
1683.965215385923
 30
0.0
 10
-3988.712178624401
 20
1223.253656269678
 30
0.0
 10
-3888.712178624401
 20
1223.253656269678
 30
0.0
  0
MTEXT
  5
1389C
102
{ACAD_REACTORS
330
1389B
102
}
330
1382F
100
AcDbEntity
  8
部品1
 62
     7
 48
5.0
100
AcDbMText
 10
-3848.712178624401
 20
1324.088180048833
 30
0.0
 40
120.0
 41
0.0
 71
     4
 72
     1
  1
\A1;4-D10両方向共
  7
STYLE1
 73
     1
 44
1.0
1001
ACAD
1000
MTEXTBEGIN
1070
    73
1070
     1
1070
    44
1040
1.0
1070
    74
1070
     0
1000
MTEXTEND
  0
LINE
  5
1389D
330
1382F
100
AcDbEntity
  8
細線
 48
50.0
100
AcDbLine
 10
-4172.865877142021
 20
1196.065215385923
 30
0.0
 11
-4096.43212794612
 21
1406.065215385921
 31
0.0
  0
LINE
  5
1389E
330
1382F
100
AcDbEntity
  8
細線
 48
50.0
100
AcDbLine
 10
-4592.865877142021
 20
1196.065215385923
 30
0.0
 11
-4516.43212794612
 21
1406.065215385921
 31
0.0
  0
LINE
  5
1389F
330
1382F
100
AcDbEntity
  8
細線
 48
50.0
100
AcDbLine
 10
-4452.865877142022
 20
1196.065215385923
 30
0.0
 11
-4376.432127946119
 21
1406.065215385923
 31
0.0
  0
LINE
  5
138A0
330
1382F
100
AcDbEntity
  8
細線
 48
50.0
100
AcDbLine
 10
-4312.865877142021
 20
1196.065215385921
 30
0.0
 11
-4236.43212794612
 21
1406.065215385921
 31
0.0
  0
LINE
  5
138A1
330
1382F
100
AcDbEntity
  8
部品1
 48
50.0
100
AcDbLine
 10
-4059.947096640875
 20
1505.965215385919
 30
0.0
 11
-4059.947096640874
 21
1196.065215385921
 31
0.0
  0
LINE
  5
138A2
330
1382F
100
AcDbEntity
  8
細線
 48
50.0
100
AcDbLine
 10
-4580.126918942702
 20
1231.065215385923
 30
0.0
 11
-4564.865877142021
 21
1196.065215385923
 31
0.0
  0
LINE
  5
138A3
330
1382F
100
AcDbEntity
  8
細線
 48
50.0
100
AcDbLine
 10
-4440.126918942701
 20
1231.065215385923
 30
0.0
 11
-4424.865877142021
 21
1196.065215385923
 31
0.0
  0
LINE
  5
138A4
330
1382F
100
AcDbEntity
  8
細線
 48
50.0
100
AcDbLine
 10
-4300.126918942702
 20
1231.065215385921
 30
0.0
 11
-4284.865877142021
 21
1196.065215385921
 31
0.0
  0
LINE
  5
138A5
330
1382F
100
AcDbEntity
  8
細線
 48
50.0
100
AcDbLine
 10
-4160.126918942702
 20
1231.065215385923
 30
0.0
 11
-4144.865877142021
 21
1196.065215385923
 31
0.0
  0
LINE
  5
138A6
330
1382F
100
AcDbEntity
  8
部品1
 48
50.0
100
AcDbLine
 10
-4190.365877142022
 20
2096.090215385921
 30
0.0
 11
-3830.038279767911
 21
2096.090215385921
 31
0.0
  0
LINE
  5
138A7
330
1382F
100
AcDbEntity
  8
細線
 48
50.0
100
AcDbLine
 10
-4613.74996955844
 20
1669.965215385925
 30
0.0
 11
-4190.365877142022
 21
2093.349307802363
 31
0.0
  0
LINE
  5
138A8
330
1382F
100
AcDbEntity
  8
細線
 48
50.0
100
AcDbLine
 10
-4584.051484748617
 20
1669.965215385923
 30
0.0
 11
-4190.36587714202
 21
2063.650822992527
 31
0.0
  0
LINE
  5
138A9
330
1382F
100
AcDbEntity
  8
細線
 48
50.0
100
AcDbLine
 10
-4554.352999938781
 20
1669.965215385921
 30
0.0
 11
-4190.365877142022
 21
2033.952338182696
 31
0.0
  0
LINE
  5
138AA
330
1382F
100
AcDbEntity
  8
細線
 48
50.0
100
AcDbLine
 10
-4381.770172093957
 20
1505.965215385917
 30
0.0
 11
-4185.990877142021
 21
1701.744510337867
 31
0.0
  0
LINE
  5
138AB
330
1382F
100
AcDbEntity
  8
細線
 48
50.0
100
AcDbLine
 10
-4544.432127946119
 20
1406.065215385921
 30
0.0
 11
-4529.171086145439
 21
1371.065215385923
 31
0.0
  0
LINE
  5
138AC
330
1382F
100
AcDbEntity
  8
細線
 48
50.0
100
AcDbLine
 10
-4684.43212794612
 20
1406.065215385921
 30
0.0
 11
-4669.171086145439
 21
1371.065215385921
 31
0.0
  0
LINE
  5
138AD
330
1382F
100
AcDbEntity
  8
細線
 48
50.0
100
AcDbLine
 10
-4670.390264645726
 20
1505.965215385921
 30
0.0
 11
-4570.490264645719
 21
1406.065215385921
 31
0.0
  0
LINE
  5
138AE
330
1382F
100
AcDbEntity
  8
細線
 48
50.0
100
AcDbLine
 10
-4700.088749455562
 20
1505.965215385921
 30
0.0
 11
-4600.18874945556
 21
1406.065215385921
 31
0.0
  0
LINE
  5
138AF
330
1382F
100
AcDbEntity
  8
細線
 48
50.0
100
AcDbLine
 10
-4404.43212794612
 20
1406.065215385923
 30
0.0
 11
-4389.171086145439
 21
1371.065215385923
 31
0.0
  0
LINE
  5
138B0
330
1382F
100
AcDbEntity
  8
細線
 48
50.0
100
AcDbLine
 10
-4352.071687284134
 20
1505.965215385919
 30
0.0
 11
-4185.990877142021
 21
1672.046025528038
 31
0.0
  0
LINE
  5
138B1
330
1382F
100
AcDbEntity
  8
細線
 48
50.0
100
AcDbLine
 10
-4322.373202474298
 20
1505.965215385919
 30
0.0
 11
-4185.990877142021
 21
1642.347540718201
 31
0.0
  0
LINE
  5
138B2
330
1382F
100
AcDbEntity
  8
細線
 48
50.0
100
AcDbLine
 10
-4304.108951991102
 20
1505.965215385921
 30
0.0
 11
-4204.208951991093
 21
1406.065215385921
 31
0.0
  0
LINE
  5
138B3
330
1382F
100
AcDbEntity
  8
細線
 48
50.0
100
AcDbLine
 10
-4274.410467181258
 20
1505.965215385921
 30
0.0
 11
-4174.510467181256
 21
1406.065215385921
 31
0.0
  0
LINE
  5
138B4
330
1382F
100
AcDbEntity
  8
細線
 48
50.0
100
AcDbLine
 10
-4264.43212794612
 20
1406.065215385921
 30
0.0
 11
-4249.171086145439
 21
1371.065215385921
 31
0.0
  0
LINE
  5
138B5
330
1382F
100
AcDbEntity
  8
細線
 48
50.0
100
AcDbLine
 10
-4333.80743680093
 20
1505.965215385921
 30
0.0
 11
-4233.907436800938
 21
1406.065215385921
 31
0.0
  0
LINE
  5
138B6
330
1382F
100
AcDbEntity
  8
細線
 48
50.0
100
AcDbLine
 10
-4124.43212794612
 20
1406.065215385921
 30
0.0
 11
-4109.17108614544
 21
1371.065215385923
 31
0.0
  0
LINE
  5
138B7
330
1382F
100
AcDbEntity
  8
部品1
 48
50.0
100
AcDbLine
 10
-4310.990877142021
 20
1641.965215385919
 30
0.0
 11
-4310.990877142021
 21
1669.965215385923
 31
0.0
  0
CIRCLE
  5
138B8
330
1382F
100
AcDbEntity
  8
部品1
 48
5.0
100
AcDbCircle
 10
-4350.365877142014
 20
1683.965215385923
 30
0.0
 40
14.0
  0
LINE
  5
138B9
330
1382F
100
AcDbEntity
  8
細線
 48
50.0
100
AcDbLine
 10
-4175.993685452652
 20
2131.090215385921
 30
0.0
 11
-4160.732643651971
 21
2096.090215385923
 31
0.0
  0
LINE
  5
138BA
330
1382F
100
AcDbEntity
  8
細線
 48
50.0
100
AcDbLine
 10
-3895.993685452651
 20
2131.090215385921
 30
0.0
 11
-3880.732643651971
 21
2096.090215385921
 31
0.0
  0
LINE
  5
138BB
330
1382F
100
AcDbEntity
  8
細線
 48
50.0
100
AcDbLine
 10
-4035.993685452651
 20
2131.090215385923
 30
0.0
 11
-4020.73264365197
 21
2096.090215385923
 31
0.0
  0
TEXT
  5
138BC
330
1382F
100
AcDbEntity
  8
部品1
 62
     7
100
AcDbText
 10
-3195.690009851988
 20
862.9564973948063
 30
0.0
 40
120.0
  1
（注意）
  7
STYLE1
100
AcDbText
  0
LINE
  5
138BD
330
1382F
100
AcDbEntity
  8
細線
 48
50.0
100
AcDbLine
 10
-4246.767777677582
 20
2306.090215385919
 30
0.0
 11
-4446.64277767758
 21
2505.965215385923
 31
0.0
  0
LINE
  5
138BE
330
1382F
100
AcDbEntity
  8
細線
 48
50.0
100
AcDbLine
 10
-4217.069292867743
 20
2306.090215385919
 30
0.0
 11
-4416.944292867743
 21
2505.965215385923
 31
0.0
  0
LINE
  5
138BF
330
1382F
100
AcDbEntity
  8
細線
 48
50.0
100
AcDbLine
 10
-4187.370808057905
 20
2306.090215385919
 30
0.0
 11
-4387.245808057916
 21
2505.965215385922
 31
0.0
  0
LINE
  5
138C0
330
1382F
100
AcDbEntity
  8
細線
 48
50.0
100
AcDbLine
 10
-4140.298894456069
 20
2306.090215385921
 30
0.0
 11
-4125.037852655388
 21
2271.090215385923
 31
0.0
  0
LINE
  5
138C1
330
1382F
100
AcDbEntity
  8
細線
 48
50.0
100
AcDbLine
 10
-3830.038279767911
 20
2344.737484560387
 30
0.0
 11
-3991.266010593445
 21
2505.965215385922
 31
0.0
  0
LINE
  5
138C2
330
1382F
100
AcDbEntity
  8
細線
 48
50.0
100
AcDbLine
 10
-3830.038279767911
 20
2315.038999750557
 30
0.0
 11
-4020.964495403275
 21
2505.965215385922
 31
0.0
  0
LINE
  5
138C3
330
1382F
100
AcDbEntity
  8
細線
 48
50.0
100
AcDbLine
 10
-3850.787980213109
 20
2306.090215385919
 30
0.0
 11
-4050.662980213114
 21
2505.965215385922
 31
0.0
  0
LINE
  5
138C4
330
1382F
100
AcDbEntity
  8
細線
 48
50.0
100
AcDbLine
 10
-4000.298894456069
 20
2306.090215385923
 30
0.0
 11
-3985.037852655381
 21
2271.090215385923
 31
0.0
  0
LINE
  5
138C5
330
1382F
100
AcDbEntity
  8
細線
 48
50.0
100
AcDbLine
 10
-3860.298894456069
 20
2306.090215385919
 30
0.0
 11
-3845.037852655389
 21
2271.090215385921
 31
0.0
  0
LINE
  5
138C6
330
1382F
100
AcDbEntity
  8
文字
 48
50.0
100
AcDbLine
 10
-3452.90872983785
 20
2607.992016510231
 30
0.0
 11
-3567.327426279741
 21
2577.333619199605
 31
0.0
  0
LINE
  5
138C7
330
1382F
100
AcDbEntity
  8
文字
 48
50.0
100
AcDbLine
 10
-3452.90872983785
 20
2607.992016510231
 30
0.0
 11
-3567.327426279741
 21
2638.650413820857
 31
0.0
  0
TEXT
  5
138C8
330
1382F
100
AcDbEntity
  8
部品1
 62
     7
100
AcDbText
 10
-3195.690009851988
 20
462.9564973948063
 30
0.0
 40
120.0
  1
   地域の実情に合わせて設計してください。 
  7
STYLE1
100
AcDbText
  0
TEXT
  5
138C9
330
1382F
100
AcDbEntity
  8
部品1
 62
     7
100
AcDbText
 10
-3195.690009851988
 20
662.9564973948064
 30
0.0
 40
120.0
  1
   基礎寸法は標準施工を示します。
  7
STYLE1
100
AcDbText
  0
TEXT
  5
138CA
330
1382F
100
AcDbEntity
  8
文字
 62
     7
 48
50.0
100
AcDbText
 10
1640.6113764045
 20
483.8967129911414
 30
0.0
 40
160.0
  1
BＦ-24
  7
STYLE2
100
AcDbText
  0
ENDBLK
  5
138CC
330
1382F
100
AcDbEntity
  8
0
 48
50.0
100
AcDbBlockEnd
  0
BLOCK
  5
13A71
330
13A67
100
AcDbEntity
  8
0
 48
50.0
100
AcDbBlockBegin
  2
*D27
 70
     1
 10
0.0
 20
0.0
 30
0.0
  3
*D27
  1

  0
LINE
  5
13ABE
330
13A67
100
AcDbEntity
  8
寸法
 62
     0
 48
50.0
370
    -2
100
AcDbLine
 10
7516.834122857979
 20
1176.065215385921
 30
0.0
 11
7516.834122857979
 21
807.9441030093548
 31
0.0
  0
LINE
  5
13ABF
330
13A67
100
AcDbEntity
  8
寸法
 62
     0
 48
50.0
370
    -2
100
AcDbLine
 10
8916.834122857979
 20
1176.065215385921
 30
0.0
 11
8916.834122857979
 21
807.9441030093548
 31
0.0
  0
LINE
  5
13AC0
330
13A67
100
AcDbEntity
  8
寸法
 62
     0
 48
50.0
370
    -2
100
AcDbLine
 10
7516.834122857979
 20
867.9441030093549
 30
0.0
 11
8916.834122857979
 21
867.9441030093549
 31
0.0
  0
INSERT
  5
13AC1
330
13A67
100
AcDbEntity
  8
寸法
 62
     0
 48
50.0
370
    -2
100
AcDbBlockReference
  2
_DOTSMALL
 10
7516.834122857979
 20
867.9441030093549
 30
0.0
 41
100.0
 42
100.0
 43
100.0
 50
180.0
  0
INSERT
  5
13AC2
330
13A67
100
AcDbEntity
  8
寸法
 62
     0
 48
50.0
370
    -2
100
AcDbBlockReference
  2
_DOTSMALL
 10
8916.834122857979
 20
867.9441030093549
 30
0.0
 41
100.0
 42
100.0
 43
100.0
  0
MTEXT
  5
13AC3
330
13A67
100
AcDbEntity
  8
寸法
 62
     7
 48
50.0
100
AcDbMText
 10
8216.83412285798
 20
967.9441030093549
 30
0.0
 40
120.0
 41
0.0
 71
     5
 72
     1
  1
\A1;700
  7
STYLE1
 73
     1
 44
1.0
1001
ACAD
1000
MTEXTBEGIN
1070
    73
1070
     1
1070
    44
1040
1.0
1070
    74
1070
     0
1000
MTEXTEND
  0
POINT
  5
13AC4
330
13A67
100
AcDbEntity
  8
DEFPOINTS
 62
     0
 48
50.0
100
AcDbPoint
 10
7516.834122857979
 20
1196.065215385921
 30
0.0
  0
POINT
  5
13AC5
330
13A67
100
AcDbEntity
  8
DEFPOINTS
 62
     0
 48
50.0
100
AcDbPoint
 10
8916.834122857979
 20
1196.065215385921
 30
0.0
  0
POINT
  5
13AC6
330
13A67
100
AcDbEntity
  8
DEFPOINTS
 62
     0
 48
50.0
100
AcDbPoint
 10
8916.834122857979
 20
867.9441030093549
 30
0.0
  0
ENDBLK
  5
13A72
330
13A67
100
AcDbEntity
  8
0
 48
50.0
100
AcDbBlockEnd
  0
BLOCK
  5
13A7D
330
13A73
100
AcDbEntity
  8
0
 48
50.0
100
AcDbBlockBegin
  2
*D28
 70
     1
 10
0.0
 20
0.0
 30
0.0
  3
*D28
  1

  0
LINE
  5
13AC7
330
13A73
100
AcDbEntity
  8
寸法
 62
     0
 48
50.0
370
    -2
100
AcDbLine
 10
7496.834122857979
 20
2306.090215385921
 30
0.0
 11
7225.939971462299
 21
2306.090215385921
 31
0.0
  0
LINE
  5
13AC8
330
13A73
100
AcDbEntity
  8
寸法
 62
     0
 48
50.0
370
    -2
100
AcDbLine
 10
8133.334122857986
 20
1866.015215385921
 30
0.0
 11
7225.939971462297
 21
1866.015215385921
 31
0.0
  0
LINE
  5
13AC9
330
13A73
100
AcDbEntity
  8
寸法
 62
     0
 48
50.0
370
    -2
100
AcDbLine
 10
7285.939971462299
 20
2306.090215385921
 30
0.0
 11
7285.939971462298
 21
1866.015215385921
 31
0.0
  0
INSERT
  5
13ACA
330
13A73
100
AcDbEntity
  8
寸法
 62
     0
 48
50.0
370
    -2
100
AcDbBlockReference
  2
_DOTSMALL
 10
7285.939971462299
 20
2306.090215385921
 30
0.0
 41
100.0
 42
100.0
 43
100.0
 50
90.0
  0
INSERT
  5
13ACB
330
13A73
100
AcDbEntity
  8
寸法
 62
     0
 48
50.0
370
    -2
100
AcDbBlockReference
  2
_DOTSMALL
 10
7285.939971462298
 20
1866.015215385921
 30
0.0
 41
100.0
 42
100.0
 43
100.0
 50
270.0
  0
MTEXT
  5
13ACC
330
13A73
100
AcDbEntity
  8
寸法
 62
     7
 48
50.0
100
AcDbMText
 10
7185.928160438677
 20
2086.052715385923
 30
0.0
 40
120.0
 41
0.0
 71
     5
 72
     1
  1
\A1;220
  7
STYLE1
 11
0.0000000000000001
 21
1.0
 31
0.0
 73
     1
 44
1.0
1001
ACAD
1000
MTEXTBEGIN
1070
    73
1070
     1
1070
    44
1040
1.0
1070
    74
1070
     0
1000
MTEXTEND
  0
POINT
  5
13ACD
330
13A73
100
AcDbEntity
  8
DEFPOINTS
 62
     0
 48
50.0
100
AcDbPoint
 10
7516.834122857979
 20
2306.090215385921
 30
0.0
  0
POINT
  5
13ACE
330
13A73
100
AcDbEntity
  8
DEFPOINTS
 62
     0
 48
50.0
100
AcDbPoint
 10
8153.334122857987
 20
1866.015215385921
 30
0.0
  0
POINT
  5
13ACF
330
13A73
100
AcDbEntity
  8
DEFPOINTS
 62
     0
 48
50.0
100
AcDbPoint
 10
7285.939971462298
 20
1866.015215385921
 30
0.0
  0
ENDBLK
  5
13A7E
330
13A73
100
AcDbEntity
  8
0
 48
50.0
100
AcDbBlockEnd
  0
BLOCK
  5
13A89
330
13A7F
100
AcDbEntity
  8
0
 48
50.0
100
AcDbBlockBegin
  2
*D29
 70
     1
 10
0.0
 20
0.0
 30
0.0
  3
*D29
  1

  0
LINE
  5
13AD0
330
13A7F
100
AcDbEntity
  8
寸法
 62
     0
 48
50.0
370
    -2
100
AcDbLine
 10
7794.334122857981
 20
2405.965215385921
 30
0.0
 11
7004.024205957946
 21
2405.965215385922
 31
0.0
  0
LINE
  5
13AD1
330
13A7F
100
AcDbEntity
  8
寸法
 62
     0
 48
50.0
370
    -2
100
AcDbLine
 10
7366.415342356841
 20
1505.965215385921
 30
0.0
 11
7004.024205957946
 21
1505.965215385921
 31
0.0
  0
LINE
  5
13AD2
330
13A7F
100
AcDbEntity
  8
寸法
 62
     0
 48
50.0
370
    -2
100
AcDbLine
 10
7064.024205957946
 20
2405.965215385922
 30
0.0
 11
7064.024205957945
 21
1505.965215385921
 31
0.0
  0
INSERT
  5
13AD3
330
13A7F
100
AcDbEntity
  8
寸法
 62
     0
 48
50.0
370
    -2
100
AcDbBlockReference
  2
_DOTSMALL
 10
7064.024205957946
 20
2405.965215385922
 30
0.0
 41
100.0
 42
100.0
 43
100.0
 50
90.0
  0
INSERT
  5
13AD4
330
13A7F
100
AcDbEntity
  8
寸法
 62
     0
 48
50.0
370
    -2
100
AcDbBlockReference
  2
_DOTSMALL
 10
7064.024205957945
 20
1505.965215385921
 30
0.0
 41
100.0
 42
100.0
 43
100.0
 50
270.0
  0
MTEXT
  5
13AD5
330
13A7F
100
AcDbEntity
  8
寸法
 62
     7
 48
50.0
100
AcDbMText
 10
6964.024205957945
 20
1955.965215385922
 30
0.0
 40
120.0
 41
0.0
 71
     5
 72
     1
  1
\A1;450
  7
STYLE1
 11
0.0000000000000001
 21
1.0
 31
0.0
 73
     1
 44
1.0
1001
ACAD
1000
MTEXTBEGIN
1070
    73
1070
     1
1070
    44
1040
1.0
1070
    74
1070
     0
1000
MTEXTEND
  0
POINT
  5
13AD6
330
13A7F
100
AcDbEntity
  8
DEFPOINTS
 62
     0
 48
50.0
100
AcDbPoint
 10
7814.334122857982
 20
2405.965215385921
 30
0.0
  0
POINT
  5
13AD7
330
13A7F
100
AcDbEntity
  8
DEFPOINTS
 62
     0
 48
50.0
100
AcDbPoint
 10
7386.415342356841
 20
1505.965215385921
 30
0.0
  0
POINT
  5
13AD8
330
13A7F
100
AcDbEntity
  8
DEFPOINTS
 62
     0
 48
50.0
100
AcDbPoint
 10
7064.024205957945
 20
1505.965215385921
 30
0.0
  0
ENDBLK
  5
13A8A
330
13A7F
100
AcDbEntity
  8
0
 48
50.0
100
AcDbBlockEnd
  0
BLOCK
  5
13A97
330
13A8B
100
AcDbEntity
  8
0
 48
50.0
100
AcDbBlockBegin
  2
*D30
 70
     1
 10
0.0
 20
0.0
 30
0.0
  3
*D30
  1

  0
LINE
  5
13AD9
330
13A8B
100
AcDbEntity
  8
寸法
 62
     0
 48
50.0
370
    -2
100
AcDbLine
 10
7366.415342356834
 20
1505.965215385921
 30
0.0
 11
7004.024205957946
 21
1505.965215385921
 31
0.0
  0
LINE
  5
13ADA
330
13A8B
100
AcDbEntity
  8
寸法
 62
     0
 48
50.0
370
    -2
100
AcDbLine
 10
7366.415342356835
 20
1406.065215385921
 30
0.0
 11
7004.024205957946
 21
1406.065215385921
 31
0.0
  0
LINE
  5
13ADB
330
13A8B
100
AcDbEntity
  8
寸法
 62
     0
 48
50.0
370
    -2
100
AcDbLine
 10
7064.024205957945
 20
1505.965215385921
 30
0.0
 11
7064.024205957945
 21
1605.965215385921
 31
0.0
  0
LINE
  5
13ADC
330
13A8B
100
AcDbEntity
  8
寸法
 62
     0
 48
50.0
370
    -2
100
AcDbLine
 10
7064.024205957945
 20
1406.065215385921
 30
0.0
 11
7064.024205957945
 21
1306.065215385921
 31
0.0
  0
LINE
  5
13ADD
330
13A8B
100
AcDbEntity
  8
寸法
 62
     0
 48
50.0
370
    -2
100
AcDbLine
 10
7064.024205957945
 20
1505.965215385921
 30
0.0
 11
7064.024205957945
 21
1406.065215385921
 31
0.0
  0
INSERT
  5
13ADE
330
13A8B
100
AcDbEntity
  8
寸法
 62
     0
 48
50.0
370
    -2
100
AcDbBlockReference
  2
_DOTSMALL
 10
7064.024205957945
 20
1505.965215385921
 30
0.0
 41
100.0
 42
100.0
 43
100.0
 50
270.0
  0
INSERT
  5
13ADF
330
13A8B
100
AcDbEntity
  8
寸法
 62
     0
 48
50.0
370
    -2
100
AcDbBlockReference
  2
_DOTSMALL
 10
7064.024205957945
 20
1406.065215385921
 30
0.0
 41
100.0
 42
100.0
 43
100.0
 50
90.0
  0
MTEXT
  5
13AE0
330
13A8B
100
AcDbEntity
  8
寸法
 62
     7
 48
50.0
100
AcDbMText
 10
6964.024205957945
 20
1456.015215385922
 30
0.0
 40
120.0
 41
0.0
 71
     5
 72
     1
  1
\A1;50
  7
STYLE1
 11
0.0000000000000001
 21
1.0
 31
0.0
 73
     1
 44
1.0
1001
ACAD
1000
MTEXTBEGIN
1070
    73
1070
     1
1070
    44
1040
1.0
1070
    74
1070
     0
1000
MTEXTEND
  0
POINT
  5
13AE1
330
13A8B
100
AcDbEntity
  8
DEFPOINTS
 62
     0
 48
50.0
100
AcDbPoint
 10
7386.415342356833
 20
1505.965215385921
 30
0.0
  0
POINT
  5
13AE2
330
13A8B
100
AcDbEntity
  8
DEFPOINTS
 62
     0
 48
50.0
100
AcDbPoint
 10
7386.415342356835
 20
1406.065215385921
 30
0.0
  0
POINT
  5
13AE3
330
13A8B
100
AcDbEntity
  8
DEFPOINTS
 62
     0
 48
50.0
100
AcDbPoint
 10
7064.024205957945
 20
1406.065215385921
 30
0.0
  0
ENDBLK
  5
13A98
330
13A8B
100
AcDbEntity
  8
0
 48
50.0
100
AcDbBlockEnd
  0
BLOCK
  5
13AA3
330
13A99
100
AcDbEntity
  8
0
 48
50.0
100
AcDbBlockBegin
  2
*D31
 70
     1
 10
0.0
 20
0.0
 30
0.0
  3
*D31
  1

  0
LINE
  5
13AE4
330
13A99
100
AcDbEntity
  8
寸法
 62
     0
 48
50.0
370
    -2
100
AcDbLine
 10
8133.334122857986
 20
1866.015215385921
 30
0.0
 11
7225.939971462297
 21
1866.015215385921
 31
0.0
  0
LINE
  5
13AE5
330
13A99
100
AcDbEntity
  8
寸法
 62
     0
 48
50.0
370
    -2
100
AcDbLine
 10
7366.415342356841
 20
1505.965215385921
 30
0.0
 11
7225.939971462297
 21
1505.965215385921
 31
0.0
  0
LINE
  5
13AE6
330
13A99
100
AcDbEntity
  8
寸法
 62
     0
 48
50.0
370
    -2
100
AcDbLine
 10
7285.939971462298
 20
1866.015215385921
 30
0.0
 11
7285.939971462298
 21
1505.965215385921
 31
0.0
  0
INSERT
  5
13AE7
330
13A99
100
AcDbEntity
  8
寸法
 62
     0
 48
50.0
370
    -2
100
AcDbBlockReference
  2
_DOTSMALL
 10
7285.939971462298
 20
1866.015215385921
 30
0.0
 41
100.0
 42
100.0
 43
100.0
 50
90.0
  0
INSERT
  5
13AE8
330
13A99
100
AcDbEntity
  8
寸法
 62
     0
 48
50.0
370
    -2
100
AcDbBlockReference
  2
_DOTSMALL
 10
7285.939971462298
 20
1505.965215385921
 30
0.0
 41
100.0
 42
100.0
 43
100.0
 50
270.0
  0
MTEXT
  5
13AE9
330
13A99
100
AcDbEntity
  8
寸法
 62
     7
 48
50.0
100
AcDbMText
 10
7185.939971462298
 20
1687.090215385921
 30
0.0
 40
120.0
 41
0.0
 71
     5
 72
     1
  1
\A1;180
  7
STYLE1
 11
0.0000000000000001
 21
1.0
 31
0.0
 73
     1
 44
1.0
1001
ACAD
1000
MTEXTBEGIN
1070
    73
1070
     1
1070
    44
1040
1.0
1070
    74
1070
     0
1000
MTEXTEND
  0
POINT
  5
13AEA
330
13A99
100
AcDbEntity
  8
DEFPOINTS
 62
     0
 48
50.0
100
AcDbPoint
 10
8153.334122857987
 20
1866.015215385921
 30
0.0
  0
POINT
  5
13AEB
330
13A99
100
AcDbEntity
  8
DEFPOINTS
 62
     0
 48
50.0
100
AcDbPoint
 10
7386.415342356841
 20
1505.965215385921
 30
0.0
  0
POINT
  5
13AEC
330
13A99
100
AcDbEntity
  8
DEFPOINTS
 62
     0
 48
50.0
100
AcDbPoint
 10
7285.939971462298
 20
1505.965215385921
 30
0.0
  0
ENDBLK
  5
13AA4
330
13A99
100
AcDbEntity
  8
0
 48
50.0
100
AcDbBlockEnd
  0
BLOCK
  5
13AB0
330
13AA5
100
AcDbEntity
  8
0
 48
50.0
100
AcDbBlockBegin
  2
*D32
 70
     1
 10
0.0
 20
0.0
 30
0.0
  3
*D32
  1

  0
LINE
  5
13AED
330
13AA5
100
AcDbEntity
  8
寸法
 62
     0
 48
50.0
370
    -2
100
AcDbLine
 10
7794.334122857981
 20
2405.965215385921
 30
0.0
 11
7004.024205957946
 21
2405.965215385922
 31
0.0
  0
LINE
  5
13AEE
330
13AA5
100
AcDbEntity
  8
寸法
 62
     0
 48
50.0
370
    -2
100
AcDbLine
 10
7843.209122857981
 20
2505.965215385921
 30
0.0
 11
7004.024205957946
 21
2505.965215385922
 31
0.0
  0
LINE
  5
13AEF
330
13AA5
100
AcDbEntity
  8
寸法
 62
     0
 48
50.0
370
    -2
100
AcDbLine
 10
7064.024205957946
 20
2405.965215385922
 30
0.0
 11
7064.024205957946
 21
2505.965215385922
 31
0.0
  0
LINE
  5
13AF0
330
13AA5
100
AcDbEntity
  8
寸法
 62
     0
 48
50.0
370
    -2
100
AcDbLine
 10
7064.024205957946
 20
2505.965215385922
 30
0.0
 11
7064.024205957946
 21
2913.870727196945
 31
0.0
  0
INSERT
  5
13AF1
330
13AA5
100
AcDbEntity
  8
寸法
 62
     0
 48
50.0
370
    -2
100
AcDbBlockReference
  2
_DOTSMALL
 10
7064.024205957946
 20
2405.965215385922
 30
0.0
 41
100.0
 42
100.0
 43
100.0
 50
270.0
  0
INSERT
  5
13AF2
330
13AA5
100
AcDbEntity
  8
寸法
 62
     0
 48
50.0
370
    -2
100
AcDbBlockReference
  2
_DOTSMALL
 10
7064.024205957946
 20
2505.965215385922
 30
0.0
 41
100.0
 42
100.0
 43
100.0
 50
90.0
  0
MTEXT
  5
13AF3
330
13AA5
100
AcDbEntity
  8
寸法
 62
     7
 48
50.0
100
AcDbMText
 10
6958.024205957944
 20
2759.917971291435
 30
0.0
 40
120.0
 41
0.0
 71
     5
 72
     1
  1
\A1;(50)
  7
STYLE1
 11
0.0000000000000001
 21
1.0
 31
0.0
 73
     1
 44
1.0
1001
ACAD
1000
MTEXTBEGIN
1070
    73
1070
     1
1070
    44
1040
1.0
1070
    74
1070
     0
1000
MTEXTEND
  0
POINT
  5
13AF4
330
13AA5
100
AcDbEntity
  8
DEFPOINTS
 62
     0
 48
50.0
100
AcDbPoint
 10
7814.334122857982
 20
2405.965215385921
 30
0.0
  0
POINT
  5
13AF5
330
13AA5
100
AcDbEntity
  8
DEFPOINTS
 62
     0
 48
50.0
100
AcDbPoint
 10
7863.209122857981
 20
2505.965215385921
 30
0.0
  0
POINT
  5
13AF6
330
13AA5
100
AcDbEntity
  8
DEFPOINTS
 62
     0
 48
50.0
100
AcDbPoint
 10
7064.024205957946
 20
2505.965215385922
 30
0.0
  0
ENDBLK
  5
13AB1
330
13AA5
100
AcDbEntity
  8
0
 48
50.0
100
AcDbBlockEnd
  0
BLOCK
  5
13ABC
330
13AB2
100
AcDbEntity
  8
0
 48
50.0
100
AcDbBlockBegin
  2
*D33
 70
     1
 10
0.0
 20
0.0
 30
0.0
  3
*D33
  1

  0
LINE
  5
13AF7
330
13AB2
100
AcDbEntity
  8
寸法
 62
     0
 48
50.0
370
    -2
100
AcDbLine
 10
7794.334122857981
 20
2405.965215385921
 30
0.0
 11
7225.939971462299
 21
2405.965215385921
 31
0.0
  0
LINE
  5
13AF8
330
13AB2
100
AcDbEntity
  8
寸法
 62
     0
 48
50.0
370
    -2
100
AcDbLine
 10
7496.834122857977
 20
2306.090215385921
 30
0.0
 11
7225.939971462299
 21
2306.090215385921
 31
0.0
  0
LINE
  5
13AF9
330
13AB2
100
AcDbEntity
  8
寸法
 62
     0
 48
50.0
370
    -2
100
AcDbLine
 10
7285.939971462299
 20
2405.965215385921
 30
0.0
 11
7285.939971462299
 21
2306.090215385921
 31
0.0
  0
INSERT
  5
13AFA
330
13AB2
100
AcDbEntity
  8
寸法
 62
     0
 48
50.0
370
    -2
100
AcDbBlockReference
  2
_DOTSMALL
 10
7285.939971462299
 20
2405.965215385921
 30
0.0
 41
100.0
 42
100.0
 43
100.0
 50
90.0
  0
INSERT
  5
13AFB
330
13AB2
100
AcDbEntity
  8
寸法
 62
     0
 48
50.0
370
    -2
100
AcDbBlockReference
  2
_DOTSMALL
 10
7285.939971462299
 20
2306.090215385921
 30
0.0
 41
100.0
 42
100.0
 43
100.0
 50
270.0
  0
MTEXT
  5
13AFC
330
13AB2
100
AcDbEntity
  8
寸法
 62
     7
 48
50.0
100
AcDbMText
 10
7185.939971462298
 20
2356.027715385923
 30
0.0
 40
120.0
 41
0.0
 71
     5
 72
     1
  1
\A1;50
  7
STYLE1
 11
0.0000000000000001
 21
1.0
 31
0.0
 73
     1
 44
1.0
1001
ACAD
1000
MTEXTBEGIN
1070
    73
1070
     1
1070
    44
1040
1.0
1070
    74
1070
     0
1000
MTEXTEND
  0
POINT
  5
13AFD
330
13AB2
100
AcDbEntity
  8
DEFPOINTS
 62
     0
 48
50.0
100
AcDbPoint
 10
7814.334122857982
 20
2405.965215385921
 30
0.0
  0
POINT
  5
13AFE
330
13AB2
100
AcDbEntity
  8
DEFPOINTS
 62
     0
 48
50.0
100
AcDbPoint
 10
7516.834122857978
 20
2306.090215385921
 30
0.0
  0
POINT
  5
13AFF
330
13AB2
100
AcDbEntity
  8
DEFPOINTS
 62
     0
 48
50.0
100
AcDbPoint
 10
7285.939971462299
 20
2306.090215385921
 30
0.0
  0
ENDBLK
  5
13ABD
330
13AB2
100
AcDbEntity
  8
0
 48
50.0
100
AcDbBlockEnd
  0
ENDSEC
  0
SECTION
  2
ENTITIES
  0
LINE
  5
10B56
330
747D
100
AcDbEntity
  8
補助
  6
PHANTOM
 62
   230
 48
50.0
100
AcDbLine
 10
140.0
 20
0.0
 30
0.0
 11
139.9999999999995
 21
11409.6
 31
0.0
  0
LINE
  5
10B57
330
747D
100
AcDbEntity
  8
補助
  6
PHANTOM
 62
   230
 48
50.0
100
AcDbLine
 10
139.9999999999995
 20
11409.6
 30
0.0
 11
16307.2
 21
11409.6
 31
0.0
  0
LINE
  5
10B59
330
747D
100
AcDbEntity
  8
仕様書枠
  6
Continuous
 48
50.0
100
AcDbLine
 10
13107.2
 20
1200.0
 30
0.0
 11
13107.2
 21
-0.0000000000000729
 31
0.0
  0
LINE
  5
10B5C
330
747D
100
AcDbEntity
  8
仕様書枠
 48
50.0
100
AcDbLine
 10
16307.2
 20
1200.0
 30
0.0
 11
16307.2
 21
-0.0000000000000909
 31
0.0
  0
LINE
  5
10B5D
330
747D
100
AcDbEntity
  8
仕様書枠
 48
50.0
100
AcDbLine
 10
140.0
 20
0.0
 30
0.0
 11
16307.2
 21
-0.0000000000000909
 31
0.0
  0
LINE
  5
10B5E
330
747D
100
AcDbEntity
  8
補助
  6
PHANTOM
 62
   230
 48
50.0
100
AcDbLine
 10
16307.2
 20
11409.6
 30
0.0
 11
16307.2
 21
1200.0
 31
0.0
  0
LINE
  5
10B6C
330
747D
100
AcDbEntity
  8
仕様書枠
 48
50.0
100
AcDbLine
 10
13107.2
 20
1200.0
 30
0.0
 11
16307.2
 21
1200.0
 31
0.0
  0
LINE
  5
10B6D
330
747D
100
AcDbEntity
  8
補助
  6
PHANTOM
 62
   230
 48
50.0
100
AcDbLine
 10
13107.2
 20
11409.6
 30
0.0
 11
13107.2
 21
4800.0
 31
0.0
  0
LINE
  5
10B6F
330
747D
100
AcDbEntity
  8
補助
  6
PHANTOM
 62
   230
 48
50.0
100
AcDbLine
 10
13107.2
 20
4800.0
 30
0.0
 11
16307.2
 21
4800.0
 31
0.0
  0
LINE
  5
10B72
330
747D
100
AcDbEntity
  8
文字
 62
     7
 48
50.0
100
AcDbLine
 10
13187.2
 20
400.0
 30
0.0
 11
16227.2
 21
400.0
 31
0.0
  0
TEXT
  5
10B73
330
747D
100
AcDbEntity
  8
文字
 48
50.0
100
AcDbText
 10
13162.9790565769
 20
895.0906074299405
 30
0.0
 40
200.0
  1
基 礎 図
  7
STYLE2
100
AcDbText
  0
TEXT
  5
10B74
330
747D
100
AcDbEntity
  8
文字
 48
50.0
100
AcDbText
 10
13201.43669998441
 20
477.2740661031255
 30
0.0
 40
160.0
  1
機種名
  7
STYLE2
100
AcDbText
  0
TEXT
  5
10B75
330
747D
100
AcDbEntity
  8
文字
 48
50.0
100
AcDbText
 10
13209.4053442172
 20
228.5435242569016
 30
0.0
 40
100.0
  1
○間口奥行寸法は柱芯寸法です。
  7
STYLE2
100
AcDbText
  0
LINE
  5
10B7B
330
747D
100
AcDbEntity
  8
仕様書枠
 48
50.0
100
AcDbLine
 10
13107.2
 20
800.0
 30
0.0
 11
14251.2
 21
800.0
 31
0.0
  0
LINE
  5
10B88
330
747D
100
AcDbEntity
  8
仕様書枠
  6
Continuous
 48
50.0
100
AcDbLine
 10
14251.2
 20
1200.0
 30
0.0
 11
14251.2
 21
800.0
 31
0.0
  0
TEXT
  5
10EA8
330
747D
100
AcDbEntity
  8
文字
 48
50.0
100
AcDbText
 10
14654.95645840324
 20
838.2527270729188
 30
0.0
 40
100.0
  1
～一般型(豪雪地型)～
  7
STYLE2
100
AcDbText
  0
LINE
  5
11799
330
747D
100
AcDbEntity
  8
点線
 48
50.0
100
AcDbLine
 10
5643.600000000001
 20
7729.785662218296
 30
0.0
 11
5643.600000000001
 21
4959.785662218298
 31
0.0
  0
LINE
  5
1179B
330
747D
100
AcDbEntity
  8
点線
 48
50.0
100
AcDbLine
 10
10803.6
 20
7729.785662218296
 30
0.0
 11
5643.600000000001
 21
7729.785662218294
 31
0.0
  0
LINE
  5
1179C
330
747D
100
AcDbEntity
  8
点線
 48
50.0
100
AcDbLine
 10
10803.6
 20
7729.785662218294
 30
0.0
 11
10803.6
 21
4959.785662218298
 31
0.0
  0
LINE
  5
11824
330
747D
100
AcDbEntity
  8
センター
 48
50.0
100
AcDbLine
 10
6093.600000000001
 20
7529.785662218296
 30
0.0
 11
5593.600000000001
 21
7529.785662218296
 31
0.0
  0
LINE
  5
11828
330
747D
100
AcDbEntity
  8
センター
 48
50.0
100
AcDbLine
 10
5843.600000000001
 20
7779.785662218296
 30
0.0
 11
5843.600000000001
 21
7279.785662218298
 31
0.0
  0
LINE
  5
1182A
330
747D
100
AcDbEntity
  8
文字
 48
50.0
100
AcDbLine
 10
5873.6
 20
7499.785662218297
 30
0.0
 11
5813.6
 21
7499.785662218297
 31
0.0
  0
LINE
  5
1182B
330
747D
100
AcDbEntity
  8
文字
 48
50.0
100
AcDbLine
 10
5873.6
 20
7559.785662218297
 30
0.0
 11
5813.6
 21
7559.785662218297
 31
0.0
  0
LINE
  5
1182C
330
747D
100
AcDbEntity
  8
文字
 48
50.0
100
AcDbLine
 10
5813.6
 20
7559.785662218299
 30
0.0
 11
5813.6
 21
7499.785662218297
 31
0.0
  0
LINE
  5
1182D
330
747D
100
AcDbEntity
  8
文字
 48
50.0
100
AcDbLine
 10
5873.6
 20
7559.785662218299
 30
0.0
 11
5873.6
 21
7499.785662218297
 31
0.0
  0
LINE
  5
1182E
330
747D
100
AcDbEntity
  8
センター
 48
50.0
100
AcDbLine
 10
8473.600000000001
 20
7529.785662218298
 30
0.0
 11
7973.600000000001
 21
7529.785662218298
 31
0.0
  0
LINE
  5
11832
330
747D
100
AcDbEntity
  8
センター
 48
50.0
100
AcDbLine
 10
8223.600000000001
 20
7779.785662218298
 30
0.0
 11
8223.600000000001
 21
7279.785662218299
 31
0.0
  0
LINE
  5
11834
330
747D
100
AcDbEntity
  8
文字
 48
50.0
100
AcDbLine
 10
8253.6
 20
7499.785662218298
 30
0.0
 11
8193.600000000001
 21
7499.785662218298
 31
0.0
  0
LINE
  5
11835
330
747D
100
AcDbEntity
  8
文字
 48
50.0
100
AcDbLine
 10
8253.6
 20
7559.785662218299
 30
0.0
 11
8193.600000000001
 21
7559.785662218299
 31
0.0
  0
LINE
  5
11836
330
747D
100
AcDbEntity
  8
文字
 48
50.0
100
AcDbLine
 10
8193.600000000001
 20
7559.785662218299
 30
0.0
 11
8193.600000000001
 21
7499.785662218298
 31
0.0
  0
LINE
  5
11837
330
747D
100
AcDbEntity
  8
文字
 48
50.0
100
AcDbLine
 10
8253.6
 20
7559.785662218299
 30
0.0
 11
8253.6
 21
7499.785662218298
 31
0.0
  0
LINE
  5
11838
330
747D
100
AcDbEntity
  8
センター
 48
50.0
100
AcDbLine
 10
10853.6
 20
7529.785662218296
 30
0.0
 11
10353.6
 21
7529.785662218296
 31
0.0
  0
LINE
  5
1183C
330
747D
100
AcDbEntity
  8
センター
 48
50.0
100
AcDbLine
 10
10603.6
 20
7779.785662218296
 30
0.0
 11
10603.6
 21
7279.785662218298
 31
0.0
  0
LINE
  5
1183E
330
747D
100
AcDbEntity
  8
文字
 48
50.0
100
AcDbLine
 10
10633.6
 20
7499.785662218297
 30
0.0
 11
10573.6
 21
7499.785662218297
 31
0.0
  0
LINE
  5
1183F
330
747D
100
AcDbEntity
  8
文字
 48
50.0
100
AcDbLine
 10
10633.6
 20
7559.785662218297
 30
0.0
 11
10573.6
 21
7559.785662218297
 31
0.0
  0
LINE
  5
11840
330
747D
100
AcDbEntity
  8
文字
 48
50.0
100
AcDbLine
 10
10573.6
 20
7559.785662218299
 30
0.0
 11
10573.6
 21
7499.785662218297
 31
0.0
  0
LINE
  5
11841
330
747D
100
AcDbEntity
  8
文字
 48
50.0
100
AcDbLine
 10
10633.6
 20
7559.785662218299
 30
0.0
 11
10633.6
 21
7499.785662218297
 31
0.0
  0
LINE
  5
11842
330
747D
100
AcDbEntity
  8
センター
 48
50.0
100
AcDbLine
 10
6093.600000000001
 20
5879.785662218297
 30
0.0
 11
5593.600000000001
 21
5879.785662218297
 31
0.0
  0
LINE
  5
11846
330
747D
100
AcDbEntity
  8
センター
 48
50.0
100
AcDbLine
 10
5843.600000000001
 20
6129.785662218297
 30
0.0
 11
5843.600000000001
 21
5629.785662218299
 31
0.0
  0
LINE
  5
11848
330
747D
100
AcDbEntity
  8
文字
 48
50.0
100
AcDbLine
 10
5873.6
 20
5849.785662218297
 30
0.0
 11
5813.6
 21
5849.785662218297
 31
0.0
  0
LINE
  5
11849
330
747D
100
AcDbEntity
  8
文字
 48
50.0
100
AcDbLine
 10
5873.6
 20
5909.785662218298
 30
0.0
 11
5813.6
 21
5909.785662218298
 31
0.0
  0
LINE
  5
1184A
330
747D
100
AcDbEntity
  8
文字
 48
50.0
100
AcDbLine
 10
5813.6
 20
5909.785662218299
 30
0.0
 11
5813.6
 21
5849.785662218297
 31
0.0
  0
LINE
  5
1184B
330
747D
100
AcDbEntity
  8
文字
 48
50.0
100
AcDbLine
 10
5873.6
 20
5909.785662218299
 30
0.0
 11
5873.6
 21
5849.785662218297
 31
0.0
  0
LINE
  5
1184C
330
747D
100
AcDbEntity
  8
センター
 48
50.0
100
AcDbLine
 10
8473.600000000001
 20
5879.785662218297
 30
0.0
 11
7973.600000000001
 21
5879.785662218297
 31
0.0
  0
LINE
  5
11850
330
747D
100
AcDbEntity
  8
センター
 48
50.0
100
AcDbLine
 10
8223.600000000001
 20
6129.785662218297
 30
0.0
 11
8223.600000000001
 21
5629.785662218299
 31
0.0
  0
LINE
  5
11852
330
747D
100
AcDbEntity
  8
文字
 48
50.0
100
AcDbLine
 10
8253.6
 20
5849.785662218297
 30
0.0
 11
8193.600000000001
 21
5849.785662218297
 31
0.0
  0
LINE
  5
11853
330
747D
100
AcDbEntity
  8
文字
 48
50.0
100
AcDbLine
 10
8253.6
 20
5909.785662218298
 30
0.0
 11
8193.600000000001
 21
5909.785662218298
 31
0.0
  0
LINE
  5
11854
330
747D
100
AcDbEntity
  8
文字
 48
50.0
100
AcDbLine
 10
8193.600000000001
 20
5909.785662218299
 30
0.0
 11
8193.600000000001
 21
5849.785662218297
 31
0.0
  0
LINE
  5
11855
330
747D
100
AcDbEntity
  8
文字
 48
50.0
100
AcDbLine
 10
8253.6
 20
5909.785662218299
 30
0.0
 11
8253.6
 21
5849.785662218297
 31
0.0
  0
LINE
  5
11856
330
747D
100
AcDbEntity
  8
センター
 48
50.0
100
AcDbLine
 10
10853.6
 20
5879.785662218297
 30
0.0
 11
10353.6
 21
5879.785662218297
 31
0.0
  0
LINE
  5
1185A
330
747D
100
AcDbEntity
  8
センター
 48
50.0
100
AcDbLine
 10
10603.6
 20
6129.785662218297
 30
0.0
 11
10603.6
 21
5629.785662218299
 31
0.0
  0
LINE
  5
1185C
330
747D
100
AcDbEntity
  8
文字
 48
50.0
100
AcDbLine
 10
10633.6
 20
5849.785662218297
 30
0.0
 11
10573.6
 21
5849.785662218297
 31
0.0
  0
LINE
  5
1185D
330
747D
100
AcDbEntity
  8
文字
 48
50.0
100
AcDbLine
 10
10633.6
 20
5909.785662218298
 30
0.0
 11
10573.6
 21
5909.785662218298
 31
0.0
  0
LINE
  5
1185E
330
747D
100
AcDbEntity
  8
文字
 48
50.0
100
AcDbLine
 10
10573.6
 20
5909.785662218299
 30
0.0
 11
10573.6
 21
5849.785662218297
 31
0.0
  0
LINE
  5
1185F
330
747D
100
AcDbEntity
  8
文字
 48
50.0
100
AcDbLine
 10
10633.6
 20
5909.785662218299
 30
0.0
 11
10633.6
 21
5849.785662218297
 31
0.0
  0
LINE
  5
11864
330
747D
100
AcDbEntity
  8
文字
 48
50.0
100
AcDbLine
 10
9413.6
 20
6420.873631013066
 30
0.0
 11
9413.6
 21
5063.09642482148
 31
0.0
  0
LINE
  5
11865
330
747D
100
AcDbEntity
  8
文字
 48
50.0
100
AcDbLine
 10
9413.6
 20
5063.09642482148
 30
0.0
 11
9369.802289556249
 21
5226.551705452752
 31
0.0
  0
LINE
  5
11866
330
747D
100
AcDbEntity
  8
文字
 48
50.0
100
AcDbLine
 10
9413.6
 20
5063.09642482148
 30
0.0
 11
9457.397710443753
 21
5226.551705452752
 31
0.0
  0
DIMENSION
  5
1197F
330
747D
100
AcDbEntity
  8
寸法
 48
50.0
100
AcDbDimension
  2
*D5
 10
4755.614843701698
 20
4959.785662218297
 30
0.0
 11
4655.603032678076
 21
6344.785662218296
 31
0.0
 12
-3363.653519151359
 22
0.0
 32
0.0
 70
    32
  1
基礎寸法 <>
 71
     5
 42
-1.0
  3
INABA_S40G
100
AcDbAlignedDimension
 13
5643.600000000001
 23
7729.785662218296
 33
0.0
 14
5643.600000000001
 24
4959.785662218297
 34
0.0
 50
90.0
100
AcDbRotatedDimension
  0
DIMENSION
  5
11981
330
747D
100
AcDbEntity
  8
寸法
 48
50.0
100
AcDbDimension
  2
*D2
 10
5201.105727429234
 20
7529.785662218296
 30
0.0
 11
5201.105727429234
 21
7979.356528360028
 31
0.0
 12
-2363.653519151359
 22
400.0
 32
0.0
 70
   160
 71
     5
 42
-1.0
  3
INABA_S40G
100
AcDbAlignedDimension
 13
5643.600000000001
 23
7729.785662218296
 33
0.0
 14
5643.600000000001
 24
7529.785662218296
 34
0.0
 50
90.0
100
AcDbRotatedDimension
  0
DIMENSION
  5
11982
330
747D
100
AcDbEntity
  8
寸法
 48
50.0
100
AcDbDimension
  2
*D3
 10
5201.105727429234
 20
5879.785662218297
 30
0.0
 11
5101.105727429234
 21
6704.785662218296
 31
0.0
 12
-2363.653519151359
 22
400.0
 32
0.0
 70
    32
 71
     5
 42
-1.0
  3
INABA_S40G
100
AcDbAlignedDimension
 13
5643.600000000001
 23
7529.785662218296
 33
0.0
 14
5643.600000000001
 24
5879.785662218297
 34
0.0
 50
90.0
100
AcDbRotatedDimension
1001
ACAD
1000
DSTYLE
1002
{
1070
    75
1070
     1
1070
   279
1070
     1
1002
}
  0
DIMENSION
  5
11983
330
747D
100
AcDbEntity
  8
寸法
 48
50.0
100
AcDbDimension
  2
*D4
 10
5201.105727429234
 20
4959.785662218297
 30
0.0
 11
5101.064914864432
 21
5419.785662218296
 31
0.0
 12
-2363.653519151359
 22
400.0
 32
0.0
 70
    32
 71
     5
 42
-1.0
  3
INABA_S40G
100
AcDbAlignedDimension
 13
5643.600000000001
 23
5879.785662218297
 33
0.0
 14
5643.600000000001
 24
4959.785662218297
 34
0.0
 50
90.0
100
AcDbRotatedDimension
1001
ACAD
1000
DSTYLE
1002
{
1070
    75
1070
     1
1070
   279
1070
     1
1002
}
  0
LINE
  5
11A68
330
747D
100
AcDbEntity
  8
点線
 48
50.0
100
AcDbLine
 10
5643.600000000001
 20
4959.785662218298
 30
0.0
 11
10803.6
 21
4959.785662218298
 31
0.0
  0
DIMENSION
  5
11A71
330
747D
100
AcDbEntity
  8
寸法
 48
50.0
100
AcDbDimension
  2
*D6
 10
5843.600000000001
 20
4643.212687273765
 30
0.0
 11
5394.029133858268
 21
4643.212687273765
 31
0.0
 12
-4363.653519151359
 22
0.0
 32
0.0
 70
   160
 71
     5
 42
-1.0
  3
INABA_S40G
100
AcDbAlignedDimension
 13
5643.600000000001
 23
4959.785662218297
 33
0.0
 14
5843.600000000001
 24
5629.785662218299
 34
0.0
100
AcDbRotatedDimension
  0
DIMENSION
  5
11A91
330
747D
100
AcDbEntity
  8
寸法
 48
50.0
100
AcDbDimension
  2
*D7
 10
10603.6
 20
4643.212687273765
 30
0.0
 11
9413.6
 21
4743.224498297386
 31
0.0
 70
    32
 71
     5
 42
-1.0
  3
INABA_S40G
100
AcDbAlignedDimension
 13
8223.600000000001
 23
5629.785662218299
 33
0.0
 14
10603.6
 24
5629.785662218299
 34
0.0
100
AcDbRotatedDimension
1001
ACAD
1000
DSTYLE
1002
{
1002
}
  0
DIMENSION
  5
11AC5
330
747D
100
AcDbEntity
  8
寸法
 48
50.0
100
AcDbDimension
  2
*D8
 10
10803.6
 20
4643.212687273765
 30
0.0
 11
11053.17086614173
 21
4643.212687273765
 31
0.0
 12
-4363.653519151359
 22
0.0
 32
0.0
 70
   160
 71
     5
 42
-1.0
  3
INABA_S40G
100
AcDbAlignedDimension
 13
10603.6
 23
5629.785662218299
 33
0.0
 14
10803.6
 24
4959.785662218298
 34
0.0
100
AcDbRotatedDimension
  0
DIMENSION
  5
11AF3
330
747D
100
AcDbEntity
  8
寸法
 48
50.0
100
AcDbDimension
  2
*D9
 10
10803.6
 20
4311.259653382771
 30
0.0
 11
8223.600000000001
 21
4411.259653382771
 31
0.0
 70
    32
  1
基礎寸法 <>
 71
     5
 42
-1.0
  3
INABA_S40G
100
AcDbAlignedDimension
 13
5643.600000000001
 23
4959.785662218298
 33
0.0
 14
10803.6
 24
4959.785662218298
 34
0.0
100
AcDbRotatedDimension
  0
MTEXT
  5
11B0D
330
747D
100
AcDbEntity
  8
寸法
 62
     7
 48
50.0
100
AcDbMText
 10
7415.694694980389
 20
6793.404527944847
 30
0.0
 40
120.0
 41
0.0
 71
     4
 72
     1
  1
\A1;床コンクリート打コテ押エ
  7
STYLE1
 73
     1
 44
1.0
1001
ACAD
1000
MTEXTBEGIN
1070
    73
1070
     1
1070
    44
1040
1.0
1070
    74
1070
     0
1000
MTEXTEND
  0
MTEXT
  5
11B45
330
747D
100
AcDbEntity
  8
寸法
 62
     7
 48
50.0
100
AcDbMText
 10
9295.038478816811
 20
5285.123353020954
 30
0.0
 40
120.0
 41
0.0
 71
     4
 72
     1
  1
\A1;水勾配１／１００ 
  7
STYLE1
 11
0.0000000000000001
 21
1.0
 31
0.0
 73
     1
 44
1.0
1001
ACAD
1000
MTEXTBEGIN
1070
    73
1070
     1
1070
    44
1040
1.0
1070
    74
1070
     0
1000
MTEXTEND
  0
INSERT
  5
11D5B
330
747D
100
AcDbEntity
  8
寸法
 48
50.0
100
AcDbBlockReference
  2
_DOTSMALL
 10
5843.600000000001
 20
4643.212687273765
 30
0.0
 41
100.0
 42
100.0
 43
100.0
 50
180.0
  0
TEXT
  5
11F11
330
747D
100
AcDbEntity
  8
仕様書枠
 62
     7
 48
50.0
100
AcDbText
 10
14518.37944936722
 20
1031.557706291228
 30
0.0
 40
100.0
  1
NO.3     <縮尺> S=1/40
  7
STYLE2
100
AcDbText
  0
LINE
  5
11FEB
330
747D
100
AcDbEntity
  8
センター
 48
50.0
100
AcDbLine
 10
5843.600000000002
 20
7279.785662218298
 30
0.0
 11
5843.600000000002
 21
7179.785662218297
 31
0.0
  0
DIMENSION
  5
128B7
330
747D
100
AcDbEntity
  8
寸法
 48
50.0
100
AcDbDimension
  2
*D10
 10
11621.88737785238
 20
5129.785662218296
 30
0.0
 11
11521.87556682876
 21
6479.785662218297
 31
0.0
 12
-4363.653519151359
 22
0.0
 32
0.0
 70
    32
  1
屋根寸法 <>
 71
     5
 42
-1.0
  3
INABA_S40G
100
AcDbAlignedDimension
 13
10853.6
 23
7829.785662218299
 33
0.0
 14
10853.59999999999
 24
5129.785662218296
 34
0.0
 50
90.0
100
AcDbRotatedDimension
  0
DIMENSION
  5
128B8
330
747D
100
AcDbEntity
  8
寸法
 48
50.0
100
AcDbDimension
  2
*D15
 10
11322.77950873462
 20
5129.785662218296
 30
0.0
 11
11222.77950873462
 21
5504.785662218296
 31
0.0
 12
5104.443425511839
 22
0.0
 32
0.0
 70
    32
 71
     5
 42
-1.0
  3
INABA_S40G
100
AcDbAlignedDimension
 13
10853.6
 23
5879.785662218297
 33
0.0
 14
10853.6
 24
5129.785662218296
 34
0.0
 50
90.0
100
AcDbRotatedDimension
1001
ACAD
1000
DSTYLE
1002
{
1002
}
  0
DIMENSION
  5
128B9
330
747D
100
AcDbEntity
  8
寸法
 48
50.0
100
AcDbDimension
  2
*D14
 10
11322.77950873462
 20
7829.785662218299
 30
0.0
 11
11222.77950873462
 21
7679.785662218299
 31
0.0
 12
5104.443425511839
 22
0.0
 32
0.0
 70
    32
 71
     5
 42
-1.0
  3
INABA_S40G
100
AcDbAlignedDimension
 13
10853.6
 23
7529.785662218298
 33
0.0
 14
10853.6
 24
7829.785662218299
 34
0.0
 50
90.0
100
AcDbRotatedDimension
  0
LINE
  5
128BA
330
747D
100
AcDbEntity
  8
想像線
 48
50.0
100
AcDbLine
 10
9833.599999999998
 20
5129.785662218296
 30
0.0
 11
10853.59999999999
 21
5129.785662218296
 31
0.0
  0
LINE
  5
128BB
330
747D
100
AcDbEntity
  8
想像線
 48
50.0
100
AcDbLine
 10
10853.59999999999
 20
5129.785662218296
 30
0.0
 11
10853.6
 21
7829.785662218299
 31
0.0
  0
LINE
  5
128BC
330
747D
100
AcDbEntity
  8
想像線
 48
50.0
100
AcDbLine
 10
5593.599999999999
 20
7829.785662218299
 30
0.0
 11
10853.6
 21
7829.785662218299
 31
0.0
  0
DIMENSION
  5
128BD
330
747D
100
AcDbEntity
  8
寸法
 48
50.0
100
AcDbDimension
  2
*D13
 10
10853.6
 20
8453.968028740446
 30
0.0
 11
8223.600000000001
 21
8553.979839764066
 31
0.0
 70
    32
  1
屋根寸法 <>
 71
     5
 42
-1.0
  3
INABA_S40G
100
AcDbAlignedDimension
 13
5593.600000000002
 23
7829.7856622183
 33
0.0
 14
10853.6
 24
7829.785662218299
 34
0.0
100
AcDbRotatedDimension
  0
DIMENSION
  5
128BE
330
747D
100
AcDbEntity
  8
寸法
 48
50.0
100
AcDbDimension
  2
*D12
 10
10853.6
 20
8160.859626484437
 30
0.0
 11
10728.6
 21
8260.871437508059
 31
0.0
 12
5104.443425511839
 22
0.0
 32
0.0
 70
    32
 71
     5
 42
-1.0
  3
INABA_S40G
100
AcDbAlignedDimension
 13
10603.6
 23
7779.785662218298
 33
0.0
 14
10853.6
 24
7829.785662218299
 34
0.0
100
AcDbRotatedDimension
1001
ACAD
1000
DSTYLE
1002
{
1002
}
  0
DIMENSION
  5
128BF
330
747D
100
AcDbEntity
  8
寸法
 48
50.0
100
AcDbDimension
  2
*D11
 10
5843.599999999998
 20
8160.859626484437
 30
0.0
 11
5718.600000000001
 21
8260.871437508059
 31
0.0
 12
-3363.653519151359
 22
0.0
 32
0.0
 70
    32
 71
     5
 42
-1.0
  3
INABA_S40G
100
AcDbAlignedDimension
 13
5593.600000000002
 23
7829.7856622183
 33
0.0
 14
5843.599999999998
 24
7979.785662218296
 34
0.0
100
AcDbRotatedDimension
  0
LINE
  5
1290C
330
747D
100
AcDbEntity
  8
寸法
 48
50.0
100
AcDbLine
 10
5843.599999999998
 20
7979.785662218297
 30
0.0
 11
6267.156384581532
 21
7979.785662218297
 31
0.0
  0
LINE
  5
1290D
330
747D
100
AcDbEntity
  8
寸法
 48
50.0
100
AcDbLine
 10
6267.156384581532
 20
7979.785662218297
 30
0.0
 11
6087.600766943237
 21
8027.897444960951
 31
0.0
  0
LINE
  5
1290E
330
747D
100
AcDbEntity
  8
寸法
 48
50.0
100
AcDbLine
 10
6087.600766943237
 20
8027.897444960951
 30
0.0
 11
6087.600766943237
 21
7918.00641342503
 31
0.0
  0
MTEXT
  5
1290F
330
747D
100
AcDbEntity
  8
寸法
 62
     7
 48
50.0
100
AcDbMText
 10
6343.829604762177
 20
7993.335942926918
 30
0.0
 40
120.0
 41
0.0
 71
     4
 72
     1
  1
A
  7
STYLE1
 73
     1
 44
1.0
1001
ACAD
1000
MTEXTBEGIN
1070
    73
1070
     1
1070
    44
1040
1.0
1070
    74
1070
     0
1000
MTEXTEND
  0
LINE
  5
12910
330
747D
100
AcDbEntity
  8
寸法
 48
50.0
100
AcDbLine
 10
5843.599999999998
 20
7979.785662218296
 30
0.0
 11
5843.599999999998
 21
7779.785662218298
 31
0.0
  0
LINE
  5
12911
330
747D
100
AcDbEntity
  8
寸法
 48
50.0
100
AcDbLine
 10
5843.599999999998
 20
7079.785662218298
 30
0.0
 11
6267.156384581532
 21
7079.785662218298
 31
0.0
  0
LINE
  5
12912
330
747D
100
AcDbEntity
  8
寸法
 48
50.0
100
AcDbLine
 10
5843.599999999998
 20
7279.785662218298
 30
0.0
 11
5843.599999999998
 21
7079.785662218298
 31
0.0
  0
LINE
  5
12913
330
747D
100
AcDbEntity
  8
寸法
 48
50.0
100
AcDbLine
 10
6267.156384581532
 20
7079.785662218298
 30
0.0
 11
6087.600766943237
 21
7031.673879475646
 31
0.0
  0
LINE
  5
12914
330
747D
100
AcDbEntity
  8
寸法
 48
50.0
100
AcDbLine
 10
6087.600766943237
 20
7031.673879475646
 30
0.0
 11
6087.600766943237
 21
7141.564911011565
 31
0.0
  0
MTEXT
  5
12915
330
747D
100
AcDbEntity
  8
寸法
 62
     7
 48
50.0
100
AcDbMText
 10
6343.829604762177
 20
7093.33594292692
 30
0.0
 40
120.0
 41
0.0
 71
     4
 72
     1
  1
A'
  7
STYLE1
 73
     1
 44
1.0
1001
ACAD
1000
MTEXTBEGIN
1070
    73
1070
     1
1070
    44
1040
1.0
1070
    74
1070
     0
1000
MTEXTEND
  0
LINE
  5
12C58
330
747D
100
AcDbEntity
  8
想像線
 48
50.0
100
AcDbLine
 10
5593.600000000001
 20
7172.270182285584
 30
0.0
 11
5593.600000000001
 21
7829.785662218298
 31
0.0
  0
LEADER
  5
12C74
330
747D
100
AcDbEntity
  8
寸法
 48
50.0
100
AcDbLeader
  3
INABA_S50G
 73
     0
 75
     1
 40
120.0
 41
688.0
 76
     3
 10
10049.92143802208
 20
7829.785662218286
 30
0.0
 10
9912.636562530803
 20
8030.841048660716
 30
0.0
 10
9787.636562530803
 20
8030.841048660716
 30
0.0
340
12C75
1001
ACAD
1000
DSTYLE
1002
{
1070
   341
1005
0
1070
    40
1040
1.0
1070
   343
1005
0
1070
   344
1005
0
1002
}
  0
MTEXT
  5
12C75
102
{ACAD_REACTORS
330
12C74
102
}
330
747D
100
AcDbEntity
  8
部品1
 62
     7
 48
50.0
100
AcDbMText
 10
9762.636562530802
 20
8115.841048660715
 30
0.0
 40
120.0
 41
0.0
 71
     6
 72
     1
  1
\A1;屋根の外寸
  7
STYLE1
 73
     1
 44
1.0
1001
ACAD
1000
MTEXTBEGIN
1070
    73
1070
     1
1070
    44
1040
1.0
1070
    74
1070
     0
1000
MTEXTEND
  0
LINE
  5
1302D
330
747D
100
AcDbEntity
  8
部品1
 48
50.0
100
AcDbLine
 10
5493.6
 20
7879.785662218298
 30
0.0
 11
6193.6
 21
7879.785662218298
 31
0.0
  0
LINE
  5
1302E
330
747D
100
AcDbEntity
  8
部品1
 48
50.0
100
AcDbLine
 10
5493.6
 20
7179.785662218297
 30
0.0
 11
5493.6
 21
7879.785662218298
 31
0.0
  0
LINE
  5
1302F
330
747D
100
AcDbEntity
  8
部品1
 48
50.0
100
AcDbLine
 10
6193.6
 20
7179.785662218297
 30
0.0
 11
5493.6
 21
7179.785662218297
 31
0.0
  0
LINE
  5
13030
330
747D
100
AcDbEntity
  8
部品1
 48
50.0
100
AcDbLine
 10
6193.6
 20
7879.785662218298
 30
0.0
 11
6193.6
 21
7179.785662218297
 31
0.0
  0
LINE
  5
13031
330
747D
100
AcDbEntity
  8
部品1
 48
50.0
100
AcDbLine
 10
5493.6
 20
5529.785662218297
 30
0.0
 11
5493.6
 21
6229.785662218297
 31
0.0
  0
DIMENSION
  5
13032
330
747D
100
AcDbEntity
  8
寸法
 48
50.0
100
AcDbDimension
  2
*D16
 10
6193.6
 20
6383.680570935903
 30
0.0
 11
5843.600000000001
 21
6483.680570935902
 31
0.0
 12
2724.443425511842
 22
0.0
 32
0.0
 70
    32
 71
     5
 42
-1.0
  3
INABA_S40G
100
AcDbAlignedDimension
 13
5493.6
 23
6229.785662218297
 33
0.0
 14
6193.6
 24
6229.785662218297
 34
0.0
100
AcDbRotatedDimension
  0
LINE
  5
13033
330
747D
100
AcDbEntity
  8
部品1
 48
50.0
100
AcDbLine
 10
5493.6
 20
6229.785662218297
 30
0.0
 11
6193.6
 21
6229.785662218297
 31
0.0
  0
DIMENSION
  5
13034
330
747D
100
AcDbEntity
  8
寸法
 48
50.0
100
AcDbDimension
  2
*D17
 10
6471.59866659393
 20
5529.785662218297
 30
0.0
 11
6371.598666593929
 21
5879.785662218297
 31
0.0
 12
-3363.653519151359
 22
0.0
 32
0.0
 70
    32
 71
     5
 42
-1.0
  3
INABA_S40G
100
AcDbAlignedDimension
 13
6193.6
 23
6229.785662218297
 33
0.0
 14
6193.6
 24
5529.785662218297
 34
0.0
 50
90.0
100
AcDbRotatedDimension
  0
LINE
  5
13035
330
747D
100
AcDbEntity
  8
部品1
 48
50.0
100
AcDbLine
 10
6193.6
 20
6229.785662218297
 30
0.0
 11
6193.6
 21
5529.785662218297
 31
0.0
  0
LINE
  5
13036
330
747D
100
AcDbEntity
  8
部品1
 48
50.0
100
AcDbLine
 10
6193.6
 20
5529.785662218297
 30
0.0
 11
5493.6
 21
5529.785662218297
 31
0.0
  0
LEADER
  5
13037
330
747D
100
AcDbEntity
  8
寸法
 48
50.0
100
AcDbLeader
  3
INABA_S40
 73
     0
 74
     0
 75
     1
 40
120.0
 41
112.0
 76
     3
 10
5843.600000000001
 20
5879.785662218296
 30
0.0
 10
6029.567328914769
 20
5293.820296107689
 30
0.0
 10
6129.567328914769
 20
5293.820296107689
 30
0.0
340
13038
  0
MTEXT
  5
13038
102
{ACAD_REACTORS
330
13037
102
}
330
747D
100
AcDbEntity
  8
寸法
 62
     7
 48
50.0
100
AcDbMText
 10
6169.567328914769
 20
5393.820296107689
 30
0.0
 40
120.0
 41
0.0
 71
     4
 72
     1
  1
\A1;柱
  7
STYLE1
 73
     1
 44
1.0
1001
ACAD
1000
MTEXTBEGIN
1070
    73
1070
     1
1070
    44
1040
1.0
1070
    74
1070
     0
1000
MTEXTEND
  0
LINE
  5
13051
330
747D
100
AcDbEntity
  8
部品1
 48
50.0
100
AcDbLine
 10
8573.6
 20
6229.785662218297
 30
0.0
 11
8573.6
 21
5529.785662218297
 31
0.0
  0
LINE
  5
13052
330
747D
100
AcDbEntity
  8
部品1
 48
50.0
100
AcDbLine
 10
7873.6
 20
6229.785662218297
 30
0.0
 11
8573.6
 21
6229.785662218297
 31
0.0
  0
LINE
  5
13053
330
747D
100
AcDbEntity
  8
部品1
 48
50.0
100
AcDbLine
 10
7873.6
 20
5529.785662218297
 30
0.0
 11
7873.6
 21
6229.785662218297
 31
0.0
  0
LINE
  5
13054
330
747D
100
AcDbEntity
  8
部品1
 48
50.0
100
AcDbLine
 10
8573.6
 20
5529.785662218297
 30
0.0
 11
7873.6
 21
5529.785662218297
 31
0.0
  0
LINE
  5
13055
330
747D
100
AcDbEntity
  8
部品1
 48
50.0
100
AcDbLine
 10
8573.6
 20
7879.785662218298
 30
0.0
 11
8573.6
 21
7179.785662218297
 31
0.0
  0
LINE
  5
13056
330
747D
100
AcDbEntity
  8
部品1
 48
50.0
100
AcDbLine
 10
7873.6
 20
7879.785662218298
 30
0.0
 11
8573.6
 21
7879.785662218298
 31
0.0
  0
LINE
  5
13057
330
747D
100
AcDbEntity
  8
部品1
 48
50.0
100
AcDbLine
 10
7873.6
 20
7179.785662218297
 30
0.0
 11
7873.6
 21
7879.785662218298
 31
0.0
  0
LINE
  5
13058
330
747D
100
AcDbEntity
  8
部品1
 48
50.0
100
AcDbLine
 10
8573.6
 20
7179.785662218297
 30
0.0
 11
7873.6
 21
7179.785662218297
 31
0.0
  0
LINE
  5
13059
330
747D
100
AcDbEntity
  8
部品1
 48
50.0
100
AcDbLine
 10
10253.6
 20
7179.785662218297
 30
0.0
 11
10253.6
 21
7879.785662218298
 31
0.0
  0
LINE
  5
1305A
330
747D
100
AcDbEntity
  8
部品1
 48
50.0
100
AcDbLine
 10
10953.6
 20
7879.785662218298
 30
0.0
 11
10953.6
 21
7179.785662218297
 31
0.0
  0
LINE
  5
1305B
330
747D
100
AcDbEntity
  8
部品1
 48
50.0
100
AcDbLine
 10
10253.6
 20
7879.785662218298
 30
0.0
 11
10953.6
 21
7879.785662218298
 31
0.0
  0
LINE
  5
1305C
330
747D
100
AcDbEntity
  8
部品1
 48
50.0
100
AcDbLine
 10
10953.6
 20
7179.785662218297
 30
0.0
 11
10253.6
 21
7179.785662218297
 31
0.0
  0
LINE
  5
1305D
330
747D
100
AcDbEntity
  8
部品1
 48
50.0
100
AcDbLine
 10
10253.6
 20
5529.785662218297
 30
0.0
 11
10253.6
 21
6229.785662218297
 31
0.0
  0
LINE
  5
1305E
330
747D
100
AcDbEntity
  8
部品1
 48
50.0
100
AcDbLine
 10
10953.6
 20
6229.785662218297
 30
0.0
 11
10953.6
 21
5529.785662218297
 31
0.0
  0
LINE
  5
1305F
330
747D
100
AcDbEntity
  8
部品1
 48
50.0
100
AcDbLine
 10
10253.6
 20
6229.785662218297
 30
0.0
 11
10953.6
 21
6229.785662218297
 31
0.0
  0
LINE
  5
13060
330
747D
100
AcDbEntity
  8
部品1
 48
50.0
100
AcDbLine
 10
10953.6
 20
5529.785662218297
 30
0.0
 11
10253.6
 21
5529.785662218297
 31
0.0
  0
DIMENSION
  5
130C7
330
747D
100
AcDbEntity
  8
寸法
 48
50.0
100
AcDbDimension
  2
*D18
 10
5843.600000000001
 20
4643.212687273765
 30
0.0
 11
7033.599999999999
 21
4743.224498297386
 31
0.0
 70
    32
 71
     5
 42
-1.0
  3
INABA_S40G
100
AcDbAlignedDimension
 13
8223.600000000001
 23
5629.785662218299
 33
0.0
 14
5843.600000000001
 24
5629.785662218299
 34
0.0
100
AcDbRotatedDimension
1001
ACAD
1000
DSTYLE
1002
{
1002
}
  0
TEXT
  5
13734
330
747D
100
AcDbEntity
  8
文字
 62
     7
 48
50.0
100
AcDbText
 10
14747.8113764045
 20
483.8967129911414
 30
0.0
 40
160.0
  1
BＦ-２４(S)L-２
  7
STYLE2
100
AcDbText
  0
MTEXT
  5
139CD
330
747D
100
AcDbEntity
  8
寸法
 62
     7
 48
50.0
100
AcDbMText
 10
8375.419039390143
 20
2690.985081338464
 30
0.0
 40
120.0
 41
0.0
 71
     4
 72
     1
  1
\A1;水勾配１／１００ 
  7
STYLE1
 73
     1
 44
1.0
1001
ACAD
1000
MTEXTBEGIN
1070
    73
1070
     1
1070
    44
1040
1.0
1070
    74
1070
     0
1000
MTEXTEND
  0
MTEXT
  5
139CE
330
747D
100
AcDbEntity
  8
寸法
 62
     7
 48
50.0
100
AcDbMText
 10
6412.025854145432
 20
2483.011753821337
 30
0.0
 40
120.0
 41
0.0
 71
     4
 72
     1
  1
▽G.L
  7
STYLE1
 73
     1
 44
1.0
1001
ACAD
1000
MTEXTBEGIN
1070
    73
1070
     1
1070
    44
1040
1.0
1070
    74
1070
     0
1000
MTEXTEND
  0
MTEXT
  5
139CF
102
{ACAD_REACTORS
330
13A39
102
}
330
747D
100
AcDbEntity
  8
部品1
 62
     7
 48
5.0
100
AcDbMText
 10
9258.487821375601
 20
1324.088180048833
 30
0.0
 40
120.0
 41
0.0
 71
     4
 72
     1
  1
\A1;4-D10両方向共
  7
STYLE1
 73
     1
 44
1.0
1001
ACAD
1000
MTEXTBEGIN
1070
    73
1070
     1
1070
    44
1040
1.0
1070
    74
1070
     0
1000
MTEXTEND
  0
MTEXT
  5
139D0
102
{ACAD_REACTORS
330
139D4
102
}
330
747D
100
AcDbEntity
  8
寸法
 62
     7
 48
50.0
100
AcDbMText
 10
9059.622150538181
 20
1809.700360505096
 30
0.0
 40
120.0
 41
0.0
 71
     4
 72
     1
  1
\A1;カンザシ 
  7
STYLE1
 73
     1
 44
1.0
1001
ACAD
1000
MTEXTBEGIN
1070
    73
1070
     1
1070
    44
1040
1.0
1070
    74
1070
     0
1000
MTEXTEND
  0
LINE
  5
139D1
330
747D
100
AcDbEntity
  8
細線
 48
50.0
100
AcDbLine
 10
8494.150909667789
 20
2306.090215385921
 30
0.0
 11
8273.334122857987
 21
2526.907002195727
 31
0.0
  0
LINE
  5
139D2
330
747D
100
AcDbEntity
  8
細線
 48
50.0
100
AcDbLine
 10
8464.452424857954
 20
2306.090215385921
 30
0.0
 11
8273.334122857987
 21
2497.208517385891
 31
0.0
  0
LINE
  5
139D3
330
747D
100
AcDbEntity
  8
部品1
 48
50.0
100
AcDbLine
 10
8344.209122857987
 20
2505.965215385923
 30
0.0
 11
9278.036720232091
 21
2505.965215385921
 31
0.0
  0
LEADER
  5
139D4
330
747D
100
AcDbEntity
  8
寸法
 48
50.0
100
AcDbLeader
  3
INABA_S40G詳細用20
 71
     0
 73
     0
 74
     0
 75
     1
 76
     3
 10
8216.834122857987
 20
1937.865480438106
 30
0.0
 10
8919.622150538181
 20
1709.700360505096
 30
0.0
 10
9019.622150538181
 20
1709.700360505096
 30
0.0
  0
CIRCLE
  5
139D5
330
747D
100
AcDbEntity
  8
部品1
 48
5.0
100
AcDbCircle
 10
8396.834122857987
 20
1683.965215385923
 30
0.0
 40
14.0
  0
LINE
  5
139D6
330
747D
100
AcDbEntity
  8
細線
 48
50.0
100
AcDbLine
 10
8387.0730810573
 20
1231.065215385921
 30
0.0
 11
8402.334122857979
 21
1196.065215385921
 31
0.0
  0
LINE
  5
139D7
330
747D
100
AcDbEntity
  8
文字
 48
50.0
100
AcDbLine
 10
8372.460893441484
 20
2607.992016510231
 30
0.0
 11
9654.291270162152
 21
2607.992016510231
 31
0.0
  0
LINE
  5
139D8
330
747D
100
AcDbEntity
  8
細線
 48
50.0
100
AcDbLine
 10
8097.470232977093
 20
1669.965215385923
 30
0.0
 11
8733.595232977078
 21
2306.09021538592
 31
0.0
  0
LINE
  5
139D9
330
747D
100
AcDbEntity
  8
細線
 48
50.0
100
AcDbLine
 10
8127.168717786929
 20
1669.965215385923
 30
0.0
 11
8763.293717786915
 21
2306.09021538592
 31
0.0
  0
LINE
  5
139DA
330
747D
100
AcDbEntity
  8
細線
 48
50.0
100
AcDbLine
 10
8156.867202596759
 20
1669.965215385923
 30
0.0
 11
8792.992202596755
 21
2306.090215385919
 31
0.0
  0
LINE
  5
139DB
330
747D
100
AcDbEntity
  8
部品1
 48
50.0
100
AcDbLine
 10
7637.459122857979
 20
1669.965215385921
 30
0.0
 11
8796.209122857979
 21
1669.965215385923
 31
0.0
  0
LINE
  5
139DC
330
747D
100
AcDbEntity
  8
部品1
 48
50.0
100
AcDbLine
 10
7637.459122857979
 20
1641.965215385919
 30
0.0
 11
8796.209122857979
 21
1641.965215385923
 31
0.0
  0
DIMENSION
  5
139DD
330
747D
100
AcDbEntity
  8
寸法
 48
50.0
100
AcDbDimension
  2
*D27
 10
8916.834122857979
 20
867.9441030093549
 30
0.0
 11
8216.83412285798
 21
967.9441030093549
 31
0.0
 70
    32
 71
     5
 42
700.0
  3
INABA_S40G詳細用20
100
AcDbAlignedDimension
 13
7516.834122857979
 23
1196.065215385921
 33
0.0
 14
8916.834122857979
 24
1196.065215385921
 34
0.0
100
AcDbRotatedDimension
  0
LINE
  5
139DE
330
747D
100
AcDbEntity
  8
部品1
 48
50.0
100
AcDbLine
 10
7386.415342356841
 20
1196.065215385921
 30
0.0
 11
9047.252903359126
 21
1196.065215385921
 31
0.0
  0
LINE
  5
139DF
330
747D
100
AcDbEntity
  8
部品1
 48
50.0
100
AcDbLine
 10
7386.415342356841
 20
1406.065215385921
 30
0.0
 11
9047.252903359126
 21
1406.065215385921
 31
0.0
  0
LINE
  5
139E0
330
747D
100
AcDbEntity
  8
部品1
 48
50.0
100
AcDbLine
 10
7386.415342356841
 20
1505.965215385921
 30
0.0
 11
9047.252903359126
 21
1505.965215385921
 31
0.0
  0
LINE
  5
139E1
330
747D
100
AcDbEntity
  8
細線
 48
50.0
100
AcDbLine
 10
8374.334122857979
 20
1196.065215385921
 30
0.0
 11
8450.76787205388
 21
1406.065215385921
 31
0.0
  0
LINE
  5
139E2
330
747D
100
AcDbEntity
  8
細線
 48
50.0
100
AcDbLine
 10
8359.148515251391
 20
1505.965215385921
 30
0.0
 11
8495.148515251385
 21
1641.965215385921
 31
0.0
  0
LINE
  5
139E3
330
747D
100
AcDbEntity
  8
細線
 48
50.0
100
AcDbLine
 10
8329.450030441568
 20
1505.965215385919
 30
0.0
 11
8465.450030441569
 21
1641.965215385921
 31
0.0
  0
LINE
  5
139E4
330
747D
100
AcDbEntity
  8
細線
 48
50.0
100
AcDbLine
 10
8388.847000061227
 20
1505.965215385921
 30
0.0
 11
8524.847000061219
 21
1641.965215385923
 31
0.0
  0
LINE
  5
139E5
330
747D
100
AcDbEntity
  8
細線
 48
50.0
100
AcDbLine
 10
8377.412765734602
 20
1505.965215385921
 30
0.0
 11
8477.312765734593
 21
1406.065215385921
 31
0.0
  0
LINE
  5
139E6
330
747D
100
AcDbEntity
  8
細線
 48
50.0
100
AcDbLine
 10
8523.849394477627
 20
2306.090215385921
 30
0.0
 11
8288.974394477618
 21
2540.965215385922
 31
0.0
  0
LINE
  5
139E7
330
747D
100
AcDbEntity
  8
部品1
 48
50.0
100
AcDbLine
 10
8273.334122857987
 20
2306.090215385921
 30
0.0
 11
9277.161720232092
 21
2306.090215385919
 31
0.0
  0
LINE
  5
139E8
330
747D
100
AcDbEntity
  8
文字
 48
50.0
100
AcDbLine
 10
7729.267327271163
 20
421.222831790903
 30
0.0
 11
8864.436144981754
 21
421.222831790903
 31
0.0
  0
TEXT
  5
139E9
330
747D
100
AcDbEntity
  8
文字
 62
     7
 48
50.0
100
AcDbText
 10
7800.291121844726
 20
249.7862569918616
 30
0.0
 40
105.0
  1
A-A' 断面 1/20
  7
STYLE2
100
AcDbText
  0
LINE
  5
139EA
330
747D
100
AcDbEntity
  8
文字
 48
50.0
100
AcDbLine
 10
7729.267327271163
 20
183.222831790903
 30
0.0
 11
8864.436144981754
 21
183.2228317909029
 31
0.0
  0
LINE
  5
139EB
330
747D
100
AcDbEntity
  8
細線
 48
50.0
100
AcDbLine
 10
8273.334122857985
 20
2182.411933111618
 30
0.0
 11
8397.012405132292
 21
2306.090215385921
 31
0.0
  0
LINE
  5
139EC
330
747D
100
AcDbEntity
  8
細線
 48
50.0
100
AcDbLine
 10
8273.334122857985
 20
2212.110417921454
 30
0.0
 11
8367.313920322452
 21
2306.090215385921
 31
0.0
  0
DIMENSION
  5
139ED
330
747D
100
AcDbEntity
  8
寸法
 48
50.0
100
AcDbDimension
  2
*D28
 10
7285.939971462298
 20
1866.015215385921
 30
0.0
 11
7185.928160438677
 21
2086.052715385923
 31
0.0
 70
    32
 71
     5
 42
220.0375
  3
INABA_S40G詳細用20
100
AcDbAlignedDimension
 13
7516.834122857979
 23
2306.090215385921
 33
0.0
 14
8153.334122857987
 24
1866.015215385921
 34
0.0
 50
90.0
100
AcDbRotatedDimension
  0
LINE
  5
139EE
330
747D
100
AcDbEntity
  8
部品1
 48
50.0
100
AcDbLine
 10
8273.334122857987
 20
1866.01521538592
 30
0.0
 11
8273.334122857987
 21
2885.451666543815
 31
0.0
  0
LINE
  5
139EF
330
747D
100
AcDbEntity
  8
部品1
 48
50.0
100
AcDbLine
 10
8153.334122857987
 20
2885.451666543815
 30
0.0
 11
8153.334122857987
 21
1866.015215385921
 31
0.0
  0
LINE
  5
139F0
330
747D
100
AcDbEntity
  8
細線
 48
50.0
100
AcDbLine
 10
7516.834122857979
 20
1881.288700195758
 30
0.0
 11
7941.63563804815
 21
2306.090215385921
 31
0.0
  0
LINE
  5
139F1
330
747D
100
AcDbEntity
  8
細線
 48
50.0
100
AcDbLine
 10
7516.834122857979
 20
1851.590215385914
 30
0.0
 11
7971.334122857989
 21
2306.090215385921
 31
0.0
  0
LINE
  5
139F2
330
747D
100
AcDbEntity
  8
細線
 48
50.0
100
AcDbLine
 10
7516.834122857978
 20
1821.891730576083
 30
0.0
 11
8001.032607667822
 21
2306.090215385921
 31
0.0
  0
LINE
  5
139F3
330
747D
100
AcDbEntity
  8
部品1
 48
50.0
100
AcDbLine
 10
7516.834122857979
 20
1505.965215385921
 30
0.0
 11
7516.834122857978
 21
2306.090215385921
 31
0.0
  0
DIMENSION
  5
139F4
330
747D
100
AcDbEntity
  8
寸法
 48
50.0
100
AcDbDimension
  2
*D29
 10
7064.024205957945
 20
1505.965215385921
 30
0.0
 11
6964.024205957945
 21
1955.965215385922
 31
0.0
 70
    32
 71
     5
 42
450.0
  3
INABA_S40G詳細用20
100
AcDbAlignedDimension
 13
7814.334122857982
 23
2405.965215385921
 33
0.0
 14
7386.415342356841
 24
1505.965215385921
 34
0.0
 50
90.0
100
AcDbRotatedDimension
  0
LINE
  5
139F5
330
747D
100
AcDbEntity
  8
細線
 48
50.0
100
AcDbLine
 10
7516.834122857979
 20
2217.871528040552
 30
0.0
 11
7605.052810203351
 21
2306.090215385921
 31
0.0
  0
LINE
  5
139F6
330
747D
100
AcDbEntity
  8
文字
 48
50.0
100
AcDbLine
 10
7729.267327271163
 20
421.222831790903
 30
0.0
 11
7729.267327271163
 21
183.222831790903
 31
0.0
  0
DIMENSION
  5
139F7
330
747D
100
AcDbEntity
  8
寸法
 48
50.0
100
AcDbDimension
  2
*D30
 10
7064.024205957945
 20
1406.065215385921
 30
0.0
 11
6964.024205957945
 21
1456.015215385922
 31
0.0
 70
    32
 71
     5
 42
49.95000000000004
  3
INABA_S40G詳細用20
100
AcDbAlignedDimension
 13
7386.415342356833
 23
1505.965215385921
 33
0.0
 14
7386.415342356835
 24
1406.065215385921
 34
0.0
 50
90.0
100
AcDbRotatedDimension
  0
LINE
  5
139F8
330
747D
100
AcDbEntity
  8
細線
 48
50.0
100
AcDbLine
 10
7814.33412285798
 20
1196.065215385921
 30
0.0
 11
7890.767872053881
 21
1406.065215385921
 31
0.0
  0
LINE
  5
139F9
330
747D
100
AcDbEntity
  8
細線
 48
50.0
100
AcDbLine
 10
7534.334122857979
 20
1196.065215385919
 30
0.0
 11
7610.767872053881
 21
1406.065215385919
 31
0.0
  0
LINE
  5
139FA
330
747D
100
AcDbEntity
  8
細線
 48
50.0
100
AcDbLine
 10
7674.334122857979
 20
1196.065215385921
 30
0.0
 11
7750.767872053881
 21
1406.065215385919
 31
0.0
  0
LINE
  5
139FB
330
747D
100
AcDbEntity
  8
細線
 48
50.0
100
AcDbLine
 10
7394.33412285798
 20
1196.065215385919
 30
0.0
 11
7470.767872053881
 21
1406.065215385919
 31
0.0
  0
LINE
  5
139FC
330
747D
100
AcDbEntity
  8
部品1
 48
50.0
100
AcDbLine
 10
7386.415342356833
 20
1505.965215385919
 30
0.0
 11
7386.415342356842
 21
1196.065215385921
 31
0.0
  0
LINE
  5
139FD
330
747D
100
AcDbEntity
  8
細線
 48
50.0
100
AcDbLine
 10
8234.334122857978
 20
1196.065215385923
 30
0.0
 11
8310.767872053881
 21
1406.065215385923
 31
0.0
  0
LINE
  5
139FE
330
747D
100
AcDbEntity
  8
細線
 48
50.0
100
AcDbLine
 10
8094.334122857979
 20
1196.065215385923
 30
0.0
 11
8170.767872053881
 21
1406.065215385921
 31
0.0
  0
LINE
  5
139FF
330
747D
100
AcDbEntity
  8
細線
 48
50.0
100
AcDbLine
 10
7954.334122857979
 20
1196.065215385921
 30
0.0
 11
8030.76787205388
 21
1406.065215385921
 31
0.0
  0
LINE
  5
13A00
330
747D
100
AcDbEntity
  8
細線
 48
50.0
100
AcDbLine
 10
7407.073081057298
 20
1231.065215385919
 30
0.0
 11
7422.334122857979
 21
1196.065215385919
 31
0.0
  0
LINE
  5
13A01
330
747D
100
AcDbEntity
  8
細線
 48
50.0
100
AcDbLine
 10
7547.073081057298
 20
1231.065215385919
 30
0.0
 11
7562.334122857979
 21
1196.065215385919
 31
0.0
  0
LINE
  5
13A02
330
747D
100
AcDbEntity
  8
細線
 48
50.0
100
AcDbLine
 10
7687.073081057299
 20
1231.065215385921
 30
0.0
 11
7702.33412285798
 21
1196.065215385921
 31
0.0
  0
LINE
  5
13A03
330
747D
100
AcDbEntity
  8
細線
 48
50.0
100
AcDbLine
 10
7827.073081057299
 20
1231.065215385921
 30
0.0
 11
7842.33412285798
 21
1196.065215385921
 31
0.0
  0
LINE
  5
13A04
330
747D
100
AcDbEntity
  8
細線
 48
50.0
100
AcDbLine
 10
7967.073081057299
 20
1231.065215385921
 30
0.0
 11
7982.334122857979
 21
1196.065215385921
 31
0.0
  0
LINE
  5
13A05
330
747D
100
AcDbEntity
  8
細線
 48
50.0
100
AcDbLine
 10
8107.073081057299
 20
1231.065215385923
 30
0.0
 11
8122.33412285798
 21
1196.065215385923
 31
0.0
  0
LINE
  5
13A06
330
747D
100
AcDbEntity
  8
細線
 48
50.0
100
AcDbLine
 10
8247.073081057299
 20
1231.065215385923
 30
0.0
 11
8262.334122857978
 21
1196.065215385923
 31
0.0
  0
LINE
  5
13A07
330
747D
100
AcDbEntity
  8
細線
 48
50.0
100
AcDbLine
 10
7731.188920322463
 20
1669.965215385923
 30
0.0
 11
8153.334122857987
 21
2092.110417921455
 31
0.0
  0
LINE
  5
13A08
330
747D
100
AcDbEntity
  8
細線
 48
50.0
100
AcDbLine
 10
7701.49043551261
 20
1669.965215385923
 30
0.0
 11
8153.334122857987
 21
2121.808902731288
 31
0.0
  0
DIMENSION
  5
13A09
330
747D
100
AcDbEntity
  8
寸法
 48
50.0
100
AcDbDimension
  2
*D31
 10
7285.939971462298
 20
1505.965215385921
 30
0.0
 11
7285.939971462298
 21
1687.090215385921
 31
0.0
 70
   160
 71
     5
 42
180.0250000000001
  3
INABA_S40G詳細用20
100
AcDbAlignedDimension
 13
8153.334122857987
 23
1866.015215385921
 33
0.0
 14
7386.415342356841
 24
1505.965215385921
 34
0.0
 50
90.0
100
AcDbRotatedDimension
  0
LINE
  5
13A0A
330
747D
100
AcDbEntity
  8
細線
 48
50.0
100
AcDbLine
 10
7644.850140425339
 20
1505.965215385921
 30
0.0
 11
7744.750140425345
 21
1406.065215385921
 31
0.0
  0
LINE
  5
13A0B
330
747D
100
AcDbEntity
  8
細線
 48
50.0
100
AcDbLine
 10
7537.49043551261
 20
1505.965215385921
 30
0.0
 11
7673.490435512619
 21
1641.965215385919
 31
0.0
  0
LINE
  5
13A0C
330
747D
100
AcDbEntity
  8
細線
 48
50.0
100
AcDbLine
 10
7567.188920322462
 20
1505.965215385921
 30
0.0
 11
7703.188920322469
 21
1641.965215385919
 31
0.0
  0
LINE
  5
13A0D
330
747D
100
AcDbEntity
  8
細線
 48
50.0
100
AcDbLine
 10
7596.887405132291
 20
1505.965215385923
 30
0.0
 11
7732.887405132299
 21
1641.965215385919
 31
0.0
  0
LINE
  5
13A0E
330
747D
100
AcDbEntity
  8
細線
 48
50.0
100
AcDbLine
 10
7442.767872053881
 20
1406.065215385919
 30
0.0
 11
7458.028913854561
 21
1371.065215385919
 31
0.0
  0
LINE
  5
13A0F
330
747D
100
AcDbEntity
  8
細線
 48
50.0
100
AcDbLine
 10
7722.76787205388
 20
1406.065215385919
 30
0.0
 11
7738.028913854562
 21
1371.065215385921
 31
0.0
  0
LINE
  5
13A10
330
747D
100
AcDbEntity
  8
細線
 48
50.0
100
AcDbLine
 10
7582.767872053882
 20
1406.065215385919
 30
0.0
 11
7598.028913854562
 21
1371.065215385919
 31
0.0
  0
LINE
  5
13A11
330
747D
100
AcDbEntity
  8
細線
 48
50.0
100
AcDbLine
 10
7585.453170805672
 20
1505.965215385919
 30
0.0
 11
7685.353170805672
 21
1406.065215385921
 31
0.0
  0
LINE
  5
13A12
330
747D
100
AcDbEntity
  8
細線
 48
50.0
100
AcDbLine
 10
7615.15165561551
 20
1505.965215385921
 30
0.0
 11
7715.05165561551
 21
1406.065215385921
 31
0.0
  0
CIRCLE
  5
13A13
330
747D
100
AcDbEntity
  8
部品1
 48
5.0
100
AcDbCircle
 10
7676.834122857987
 20
1683.965215385923
 30
0.0
 40
14.0
  0
LINE
  5
13A14
330
747D
100
AcDbEntity
  8
部品1
 48
50.0
100
AcDbLine
 10
7637.459122857979
 20
1641.965215385923
 30
0.0
 11
7637.459122857979
 21
1669.965215385921
 31
0.0
  0
LINE
  5
13A15
330
747D
100
AcDbEntity
  8
細線
 48
50.0
100
AcDbLine
 10
7760.887405132298
 20
1669.965215385921
 30
0.0
 11
8153.334122857987
 21
2062.411933111622
 31
0.0
  0
LINE
  5
13A16
330
747D
100
AcDbEntity
  8
細線
 48
50.0
100
AcDbLine
 10
7981.432968270141
 20
1505.965215385921
 30
0.0
 11
8081.332968270137
 21
1406.065215385921
 31
0.0
  0
LINE
  5
13A17
330
747D
100
AcDbEntity
  8
細線
 48
50.0
100
AcDbLine
 10
8011.131453079977
 20
1505.965215385921
 30
0.0
 11
8111.031453079979
 21
1406.065215385921
 31
0.0
  0
LINE
  5
13A18
330
747D
100
AcDbEntity
  8
細線
 48
50.0
100
AcDbLine
 10
7963.168717786929
 20
1505.965215385921
 30
0.0
 11
8099.168717786936
 21
1641.965215385919
 31
0.0
  0
LINE
  5
13A19
330
747D
100
AcDbEntity
  8
細線
 48
50.0
100
AcDbLine
 10
7992.867202596759
 20
1505.965215385921
 30
0.0
 11
8128.867202596758
 21
1641.965215385921
 31
0.0
  0
LINE
  5
13A1A
330
747D
100
AcDbEntity
  8
細線
 48
50.0
100
AcDbLine
 10
8040.829937889814
 20
1505.965215385921
 30
0.0
 11
8140.729937889814
 21
1406.065215385921
 31
0.0
  0
LINE
  5
13A1B
330
747D
100
AcDbEntity
  8
細線
 48
50.0
100
AcDbLine
 10
7933.470232977093
 20
1505.965215385921
 30
0.0
 11
8069.470232977108
 21
1641.965215385919
 31
0.0
  0
LINE
  5
13A1C
330
747D
100
AcDbEntity
  8
細線
 48
50.0
100
AcDbLine
 10
7862.767872053881
 20
1406.065215385921
 30
0.0
 11
7878.028913854561
 21
1371.065215385921
 31
0.0
  0
LINE
  5
13A1D
330
747D
100
AcDbEntity
  8
細線
 48
50.0
100
AcDbLine
 10
8002.76787205388
 20
1406.065215385921
 30
0.0
 11
8018.028913854562
 21
1371.065215385921
 31
0.0
  0
CIRCLE
  5
13A1E
330
747D
100
AcDbEntity
  8
部品1
 48
5.0
100
AcDbCircle
 10
8036.834122857987
 20
1683.965215385923
 30
0.0
 40
14.0
  0
LINE
  5
13A1F
330
747D
100
AcDbEntity
  8
細線
 48
50.0
100
AcDbLine
 10
8142.76787205388
 20
1406.065215385921
 30
0.0
 11
8158.028913854561
 21
1371.065215385923
 31
0.0
  0
LINE
  5
13A20
330
747D
100
AcDbEntity
  8
細線
 48
50.0
100
AcDbLine
 10
8282.767872053881
 20
1406.065215385923
 30
0.0
 11
8298.028913854562
 21
1371.065215385923
 31
0.0
  0
LINE
  5
13A21
330
747D
100
AcDbEntity
  8
部品1
 48
5.0
100
AcDbLine
 10
8153.334122857986
 20
1866.01521538592
 30
0.0
 11
8273.334122857987
 21
1866.01521538592
 31
0.0
  0
CIRCLE
  5
13A22
330
747D
100
AcDbEntity
  8
部品1
 48
50.0
100
AcDbCircle
 10
8216.834122857987
 20
1938.215215385921
 30
0.0
 40
14.0
  0
DIMENSION
  5
13A23
330
747D
100
AcDbEntity
  8
寸法
 48
50.0
100
AcDbDimension
  2
*D32
 10
7064.024205957946
 20
2505.965215385922
 30
0.0
 11
7064.024205957945
 21
2759.917971291435
 31
0.0
 70
   160
  1
(<>)
 71
     5
 42
50.0
  3
INABA_S40G詳細用20
100
AcDbAlignedDimension
 13
7814.334122857982
 23
2405.965215385921
 33
0.0
 14
7863.209122857981
 24
2505.965215385921
 34
0.0
 50
90.0
100
AcDbRotatedDimension
  0
LINE
  5
13A24
330
747D
100
AcDbEntity
  8
Ｇ．Ｌ
 48
50.0
100
AcDbLine
 10
6403.714289057905
 20
2405.965215385923
 30
0.0
 11
7814.334122857982
 21
2405.965215385921
 31
0.0
  0
LINE
  5
13A25
330
747D
100
AcDbEntity
  8
部品1
 48
50.0
100
AcDbLine
 10
7516.834122857979
 20
2306.090215385921
 30
0.0
 11
8153.334122857987
 21
2306.090215385921
 31
0.0
  0
DIMENSION
  5
13A26
330
747D
100
AcDbEntity
  8
寸法
 48
50.0
100
AcDbDimension
  2
*D33
 10
7285.939971462299
 20
2306.090215385921
 30
0.0
 11
7285.939971462298
 21
2356.027715385923
 31
0.0
 70
   160
 71
     5
 42
49.9375
  3
INABA_S40G詳細用20
100
AcDbAlignedDimension
 13
7814.334122857982
 23
2405.965215385921
 33
0.0
 14
7516.834122857978
 24
2306.090215385921
 34
0.0
 50
90.0
100
AcDbRotatedDimension
  0
LINE
  5
13A27
330
747D
100
AcDbEntity
  8
細線
 48
50.0
100
AcDbLine
 10
7516.834122857978
 20
2277.268497660219
 30
0.0
 11
7545.655840583679
 21
2306.090215385921
 31
0.0
  0
LINE
  5
13A28
330
747D
100
AcDbEntity
  8
細線
 48
50.0
100
AcDbLine
 10
7516.834122857978
 20
2247.570012850383
 30
0.0
 11
7575.354325393519
 21
2306.090215385921
 31
0.0
  0
LINE
  5
13A29
330
747D
100
AcDbEntity
  8
部品1
 48
50.0
100
AcDbLine
 10
7863.209122857981
 20
2505.965215385921
 30
0.0
 11
8084.209122857986
 21
2505.965215385921
 31
0.0
  0
LINE
  5
13A2A
330
747D
100
AcDbEntity
  8
細線
 48
50.0
100
AcDbLine
 10
8127.869597013152
 20
2306.090215385921
 30
0.0
 11
7927.994597013159
 21
2505.965215385921
 31
0.0
  0
LINE
  5
13A2B
330
747D
100
AcDbEntity
  8
細線
 48
50.0
100
AcDbLine
 10
8098.171112203322
 20
2306.090215385921
 30
0.0
 11
7898.296112203322
 21
2505.965215385921
 31
0.0
  0
LINE
  5
13A2C
330
747D
100
AcDbEntity
  8
部品1
 48
50.0
100
AcDbLine
 10
7814.33412285798
 20
2457.090215385921
 30
0.0
 11
7863.209122857981
 21
2505.965215385921
 31
0.0
  0
LINE
  5
13A2D
330
747D
100
AcDbEntity
  8
細線
 48
50.0
100
AcDbLine
 10
8068.472627393488
 20
2306.090215385921
 30
0.0
 11
7868.597627393492
 21
2505.965215385921
 31
0.0
  0
LINE
  5
13A2E
330
747D
100
AcDbEntity
  8
部品1
 48
50.0
100
AcDbLine
 10
7814.33412285798
 20
2457.09021538592
 30
0.0
 11
7814.334122857987
 21
2306.090215385921
 31
0.0
  0
LINE
  5
13A2F
330
747D
100
AcDbEntity
  8
細線
 48
50.0
100
AcDbLine
 10
8273.334122857985
 20
2241.808902731287
 30
0.0
 11
8337.615435512619
 21
2306.090215385921
 31
0.0
  0
LINE
  5
13A30
330
747D
100
AcDbEntity
  8
部品1
 48
50.0
100
AcDbLine
 10
8119.209122857986
 20
2540.965215385921
 30
0.0
 11
8084.209122857986
 21
2505.965215385921
 31
0.0
  0
LINE
  5
13A31
330
747D
100
AcDbEntity
  8
部品1
 48
50.0
100
AcDbLine
 10
8119.209122857986
 20
2540.965215385921
 30
0.0
 11
8153.334122857987
 21
2540.965215385921
 31
0.0
  0
LINE
  5
13A32
330
747D
100
AcDbEntity
  8
部品1
 48
50.0
100
AcDbLine
 10
8309.209122857986
 20
2540.965215385921
 30
0.0
 11
8344.209122857987
 21
2505.965215385921
 31
0.0
  0
LINE
  5
13A33
330
747D
100
AcDbEntity
  8
部品1
 48
50.0
100
AcDbLine
 10
8273.334122857987
 20
2540.965215385921
 30
0.0
 11
8309.209122857986
 21
2540.965215385921
 31
0.0
  0
LINE
  5
13A34
330
747D
100
AcDbEntity
  8
部品1
 48
50.0
100
AcDbLine
 10
8916.834122857979
 20
1505.965215385921
 30
0.0
 11
8916.834122857979
 21
2306.090215385919
 31
0.0
  0
LINE
  5
13A35
330
747D
100
AcDbEntity
  8
細線
 48
50.0
100
AcDbLine
 10
9198.467356348031
 20
2096.090215385921
 30
0.0
 11
9274.90110554393
 21
2306.090215385919
 31
0.0
  0
LINE
  5
13A36
330
747D
100
AcDbEntity
  8
細線
 48
50.0
100
AcDbLine
 10
9058.46735634803
 20
2096.090215385923
 30
0.0
 11
9134.901105543931
 21
2306.090215385923
 31
0.0
  0
LINE
  5
13A37
330
747D
100
AcDbEntity
  8
細線
 48
50.0
100
AcDbLine
 10
8918.467356348029
 20
2096.09021538592
 30
0.0
 11
8994.901105543931
 21
2306.090215385921
 31
0.0
  0
LINE
  5
13A38
330
747D
100
AcDbEntity
  8
文字
 48
50.0
100
AcDbLine
 10
8864.436144981752
 20
421.222831790903
 30
0.0
 11
8864.436144981752
 21
183.222831790903
 31
0.0
  0
LEADER
  5
13A39
330
747D
100
AcDbEntity
  8
寸法
 48
5.0
100
AcDbLeader
  3
INABA_S40G詳細用20
 71
     0
 73
     0
 74
     0
 75
     1
 76
     3
 10
8756.834122857986
 20
1683.965215385923
 30
0.0
 10
9118.4878213756
 20
1223.253656269678
 30
0.0
 10
9218.487821375601
 20
1223.253656269678
 30
0.0
  0
LINE
  5
13A3A
330
747D
100
AcDbEntity
  8
細線
 48
50.0
100
AcDbLine
 10
8934.334122857979
 20
1196.065215385923
 30
0.0
 11
9010.767872053881
 21
1406.065215385921
 31
0.0
  0
LINE
  5
13A3B
330
747D
100
AcDbEntity
  8
部品1
 48
50.0
100
AcDbLine
 10
9047.252903359126
 20
1505.965215385919
 30
0.0
 11
9047.252903359128
 21
1196.065215385921
 31
0.0
  0
LINE
  5
13A3C
330
747D
100
AcDbEntity
  8
細線
 48
50.0
100
AcDbLine
 10
8514.334122857979
 20
1196.065215385923
 30
0.0
 11
8590.767872053881
 21
1406.065215385921
 31
0.0
  0
LINE
  5
13A3D
330
747D
100
AcDbEntity
  8
細線
 48
50.0
100
AcDbLine
 10
8654.33412285798
 20
1196.065215385923
 30
0.0
 11
8730.767872053879
 21
1406.065215385923
 31
0.0
  0
LINE
  5
13A3E
330
747D
100
AcDbEntity
  8
細線
 48
50.0
100
AcDbLine
 10
8794.33412285798
 20
1196.065215385921
 30
0.0
 11
8870.76787205388
 21
1406.065215385921
 31
0.0
  0
LINE
  5
13A3F
330
747D
100
AcDbEntity
  8
細線
 48
50.0
100
AcDbLine
 10
8527.073081057299
 20
1231.065215385923
 30
0.0
 11
8542.33412285798
 21
1196.065215385923
 31
0.0
  0
LINE
  5
13A40
330
747D
100
AcDbEntity
  8
細線
 48
50.0
100
AcDbLine
 10
8667.073081057299
 20
1231.065215385923
 30
0.0
 11
8682.334122857978
 21
1196.065215385923
 31
0.0
  0
LINE
  5
13A41
330
747D
100
AcDbEntity
  8
細線
 48
50.0
100
AcDbLine
 10
8807.073081057298
 20
1231.065215385921
 30
0.0
 11
8822.334122857979
 21
1196.065215385921
 31
0.0
  0
LINE
  5
13A42
330
747D
100
AcDbEntity
  8
細線
 48
50.0
100
AcDbLine
 10
8947.073081057299
 20
1231.065215385923
 30
0.0
 11
8962.33412285798
 21
1196.065215385923
 31
0.0
  0
LINE
  5
13A43
330
747D
100
AcDbEntity
  8
部品1
 48
50.0
100
AcDbLine
 10
8916.834122857979
 20
2096.090215385921
 30
0.0
 11
9277.161720232092
 21
2096.090215385921
 31
0.0
  0
LINE
  5
13A44
330
747D
100
AcDbEntity
  8
細線
 48
50.0
100
AcDbLine
 10
8493.450030441563
 20
1669.965215385925
 30
0.0
 11
8916.834122857979
 21
2093.349307802363
 31
0.0
  0
LINE
  5
13A45
330
747D
100
AcDbEntity
  8
細線
 48
50.0
100
AcDbLine
 10
8523.148515251383
 20
1669.965215385923
 30
0.0
 11
8916.834122857983
 21
2063.650822992527
 31
0.0
  0
LINE
  5
13A46
330
747D
100
AcDbEntity
  8
細線
 48
50.0
100
AcDbLine
 10
8552.84700006122
 20
1669.965215385921
 30
0.0
 11
8916.834122857979
 21
2033.952338182696
 31
0.0
  0
LINE
  5
13A47
330
747D
100
AcDbEntity
  8
細線
 48
50.0
100
AcDbLine
 10
8725.429827906044
 20
1505.965215385917
 30
0.0
 11
8921.209122857979
 21
1701.744510337867
 31
0.0
  0
LINE
  5
13A48
330
747D
100
AcDbEntity
  8
細線
 48
50.0
100
AcDbLine
 10
8562.76787205388
 20
1406.065215385921
 30
0.0
 11
8578.028913854561
 21
1371.065215385923
 31
0.0
  0
LINE
  5
13A49
330
747D
100
AcDbEntity
  8
細線
 48
50.0
100
AcDbLine
 10
8422.76787205388
 20
1406.065215385921
 30
0.0
 11
8438.028913854562
 21
1371.065215385921
 31
0.0
  0
LINE
  5
13A4A
330
747D
100
AcDbEntity
  8
細線
 48
50.0
100
AcDbLine
 10
8436.809735354275
 20
1505.965215385921
 30
0.0
 11
8536.709735354282
 21
1406.065215385921
 31
0.0
  0
LINE
  5
13A4B
330
747D
100
AcDbEntity
  8
細線
 48
50.0
100
AcDbLine
 10
8407.111250544437
 20
1505.965215385921
 30
0.0
 11
8507.01125054444
 21
1406.065215385921
 31
0.0
  0
LINE
  5
13A4C
330
747D
100
AcDbEntity
  8
細線
 48
50.0
100
AcDbLine
 10
8702.767872053881
 20
1406.065215385923
 30
0.0
 11
8718.028913854562
 21
1371.065215385923
 31
0.0
  0
LINE
  5
13A4D
330
747D
100
AcDbEntity
  8
細線
 48
50.0
100
AcDbLine
 10
8784.826797525703
 20
1505.965215385919
 30
0.0
 11
8921.209122857979
 21
1642.347540718201
 31
0.0
  0
LINE
  5
13A4E
330
747D
100
AcDbEntity
  8
細線
 48
50.0
100
AcDbLine
 10
8755.128312715866
 20
1505.965215385919
 30
0.0
 11
8921.209122857979
 21
1672.046025528038
 31
0.0
  0
LINE
  5
13A4F
330
747D
100
AcDbEntity
  8
細線
 48
50.0
100
AcDbLine
 10
8803.0910480089
 20
1505.965215385921
 30
0.0
 11
8902.991048008907
 21
1406.065215385921
 31
0.0
  0
LINE
  5
13A50
330
747D
100
AcDbEntity
  8
細線
 48
50.0
100
AcDbLine
 10
8832.789532818742
 20
1505.965215385921
 30
0.0
 11
8932.689532818743
 21
1406.065215385921
 31
0.0
  0
LINE
  5
13A51
330
747D
100
AcDbEntity
  8
細線
 48
50.0
100
AcDbLine
 10
8842.767872053881
 20
1406.065215385921
 30
0.0
 11
8858.02891385456
 21
1371.065215385921
 31
0.0
  0
LINE
  5
13A52
330
747D
100
AcDbEntity
  8
細線
 48
50.0
100
AcDbLine
 10
8773.39256319907
 20
1505.965215385921
 30
0.0
 11
8873.292563199063
 21
1406.065215385921
 31
0.0
  0
LINE
  5
13A53
330
747D
100
AcDbEntity
  8
細線
 48
50.0
100
AcDbLine
 10
8982.767872053882
 20
1406.065215385921
 30
0.0
 11
8998.028913854561
 21
1371.065215385923
 31
0.0
  0
LINE
  5
13A54
330
747D
100
AcDbEntity
  8
部品1
 48
50.0
100
AcDbLine
 10
8796.209122857979
 20
1641.965215385919
 30
0.0
 11
8796.209122857979
 21
1669.965215385923
 31
0.0
  0
CIRCLE
  5
13A55
330
747D
100
AcDbEntity
  8
部品1
 48
5.0
100
AcDbCircle
 10
8756.834122857986
 20
1683.965215385923
 30
0.0
 40
14.0
  0
LINE
  5
13A56
330
747D
100
AcDbEntity
  8
細線
 48
50.0
100
AcDbLine
 10
8931.206314547351
 20
2131.090215385921
 30
0.0
 11
8946.46735634803
 21
2096.090215385923
 31
0.0
  0
LINE
  5
13A57
330
747D
100
AcDbEntity
  8
細線
 48
50.0
100
AcDbLine
 10
9211.20631454735
 20
2131.090215385921
 30
0.0
 11
9226.467356348029
 21
2096.090215385921
 31
0.0
  0
LINE
  5
13A58
330
747D
100
AcDbEntity
  8
細線
 48
50.0
100
AcDbLine
 10
9071.20631454735
 20
2131.090215385923
 30
0.0
 11
9086.46735634803
 21
2096.090215385923
 31
0.0
  0
TEXT
  5
13A59
330
747D
100
AcDbEntity
  8
部品1
 62
     7
100
AcDbText
 10
9911.509990148013
 20
862.9564973948063
 30
0.0
 40
120.0
  1
（注意）
  7
STYLE1
100
AcDbText
  0
LINE
  5
13A5A
330
747D
100
AcDbEntity
  8
細線
 48
50.0
100
AcDbLine
 10
8919.829191942096
 20
2306.090215385919
 30
0.0
 11
8719.954191942084
 21
2505.965215385922
 31
0.0
  0
LINE
  5
13A5B
330
747D
100
AcDbEntity
  8
細線
 48
50.0
100
AcDbLine
 10
8860.432222322419
 20
2306.090215385919
 30
0.0
 11
8660.557222322422
 21
2505.965215385923
 31
0.0
  0
LINE
  5
13A5C
330
747D
100
AcDbEntity
  8
細線
 48
50.0
100
AcDbLine
 10
8890.130707132257
 20
2306.090215385919
 30
0.0
 11
8690.255707132257
 21
2505.965215385923
 31
0.0
  0
LINE
  5
13A5D
330
747D
100
AcDbEntity
  8
細線
 48
50.0
100
AcDbLine
 10
8966.90110554393
 20
2306.090215385921
 30
0.0
 11
8982.162147344613
 21
2271.090215385923
 31
0.0
  0
LINE
  5
13A5E
330
747D
100
AcDbEntity
  8
細線
 48
50.0
100
AcDbLine
 10
9277.161720232092
 20
2344.737484560387
 30
0.0
 11
9115.933989406556
 21
2505.965215385922
 31
0.0
  0
LINE
  5
13A5F
330
747D
100
AcDbEntity
  8
細線
 48
50.0
100
AcDbLine
 10
9256.412019786893
 20
2306.090215385919
 30
0.0
 11
9056.537019786887
 21
2505.965215385922
 31
0.0
  0
LINE
  5
13A60
330
747D
100
AcDbEntity
  8
細線
 48
50.0
100
AcDbLine
 10
9277.161720232092
 20
2315.038999750557
 30
0.0
 11
9086.235504596725
 21
2505.965215385922
 31
0.0
  0
LINE
  5
13A61
330
747D
100
AcDbEntity
  8
細線
 48
50.0
100
AcDbLine
 10
9106.901105543931
 20
2306.090215385923
 30
0.0
 11
9122.162147344619
 21
2271.090215385923
 31
0.0
  0
LINE
  5
13A62
330
747D
100
AcDbEntity
  8
細線
 48
50.0
100
AcDbLine
 10
9246.901105543932
 20
2306.090215385919
 30
0.0
 11
9262.162147344612
 21
2271.090215385921
 31
0.0
  0
LINE
  5
13A63
330
747D
100
AcDbEntity
  8
文字
 48
50.0
100
AcDbLine
 10
9654.291270162152
 20
2607.992016510231
 30
0.0
 11
9539.872573720261
 21
2577.333619199605
 31
0.0
  0
LINE
  5
13A64
330
747D
100
AcDbEntity
  8
文字
 48
50.0
100
AcDbLine
 10
9654.291270162152
 20
2607.992016510231
 30
0.0
 11
9539.872573720261
 21
2638.650413820857
 31
0.0
  0
TEXT
  5
13A65
330
747D
100
AcDbEntity
  8
部品1
 62
     7
100
AcDbText
 10
9911.509990148013
 20
462.9564973948062
 30
0.0
 40
120.0
  1
   地域の実情に合わせて設計してください。 
  7
STYLE1
100
AcDbText
  0
TEXT
  5
13A66
330
747D
100
AcDbEntity
  8
部品1
 62
     7
100
AcDbText
 10
9911.509990148013
 20
662.9564973948063
 30
0.0
 40
120.0
  1
   基礎寸法は標準施工を示します。
  7
STYLE1
100
AcDbText
  0
ENDSEC
  0
SECTION
  2
OBJECTS
  0
DICTIONARY
  5
7471
330
0
100
AcDbDictionary
281
     1
  3
ACAD_CIP_PREVIOUS_PRODUCT_INFO
350
13B69
  3
ACAD_COLOR
350
1332A
  3
ACAD_DETAILVIEWSTYLE
350
13B5F
  3
ACAD_GROUP
350
7472
  3
ACAD_LAYOUT
350
1332B
  3
ACAD_MATERIAL
350
13329
  3
ACAD_MLEADERSTYLE
350
13B5B
  3
ACAD_MLINESTYLE
350
7473
  3
ACAD_PLOTSETTINGS
350
1332C
  3
ACAD_PLOTSTYLENAME
350
13327
  3
ACAD_SCALELIST
350
13B49
  3
ACAD_SECTIONVIEWSTYLE
350
13B5D
  3
ACAD_TABLESTYLE
350
13B47
  3
ACAD_VISUALSTYLE
350
13B2E
  3
ACDB_RECOMPOSE_DATA
350
13BBE
  3
ACDBVARIABLEDICTIONARY
350
11B74
  3
AcDsDecomposeData
350
13BC5
  3
CONTENTDICTIONARY
350
E71C
  3
DRAWINGVARIABLESDICT
350
F3B9
  3
DWGPROPS
350
13BBF
  0
DICTIONARY
  5
13B86
330
7467
100
AcDbDictionary
280
     1
281
     1
  3
ACAD_LAYERSTATES
360
13B87
  0
DICTIONARY
  5
13B6D
330
7474
100
AcDbDictionary
280
     1
281
     1
  3
ADSK_XREC_LAYER_RECONCILED
360
13B6E
  0
DICTIONARY
  5
13B6F
330
DEB2
100
AcDbDictionary
280
     1
281
     1
  3
ADSK_XREC_LAYER_RECONCILED
360
13B70
  0
DICTIONARY
  5
13B71
330
DEB3
100
AcDbDictionary
280
     1
281
     1
  3
ADSK_XREC_LAYER_RECONCILED
360
13B72
  0
DICTIONARY
  5
13B73
330
DEB4
100
AcDbDictionary
280
     1
281
     1
  3
ADSK_XREC_LAYER_RECONCILED
360
13B74
  0
DICTIONARY
  5
13B75
330
DEB5
100
AcDbDictionary
280
     1
281
     1
  3
ADSK_XREC_LAYER_RECONCILED
360
13B76
  0
DICTIONARY
  5
13B77
330
DEB6
100
AcDbDictionary
280
     1
281
     1
  3
ADSK_XREC_LAYER_RECONCILED
360
13B78
  0
DICTIONARY
  5
13B79
330
10B54
100
AcDbDictionary
280
     1
281
     1
  3
ADSK_XREC_LAYER_RECONCILED
360
13B7A
  0
DICTIONARY
  5
13B7B
330
11729
100
AcDbDictionary
280
     1
281
     1
  3
ADSK_XREC_LAYER_RECONCILED
360
13B7C
  0
DICTIONARY
  5
13B7D
330
1173F
100
AcDbDictionary
280
     1
281
     1
  3
ADSK_XREC_LAYER_RECONCILED
360
13B7E
  0
DICTIONARY
  5
13B7F
330
11740
100
AcDbDictionary
280
     1
281
     1
  3
ADSK_XREC_LAYER_RECONCILED
360
13B80
  0
DICTIONARY
  5
13B81
330
12296
100
AcDbDictionary
280
     1
281
     1
  3
ADSK_XREC_LAYER_RECONCILED
360
13B82
  0
XRECORD
  5
13B69
102
{ACAD_REACTORS
330
7471
102
}
330
7471
100
AcDbXrecord
280
     1
300
ACDLT
300
2014
300
ACDLT_F_S
  0
DICTIONARY
  5
1332A
102
{ACAD_REACTORS
330
7471
102
}
330
7471
100
AcDbDictionary
281
     1
  0
DICTIONARY
  5
13B5F
102
{ACAD_REACTORS
330
7471
102
}
330
7471
100
AcDbDictionary
281
     1
  3
Metric50
350
13B60
  0
DICTIONARY
  5
7472
102
{ACAD_REACTORS
330
7471
102
}
330
7471
100
AcDbDictionary
281
     1
  0
DICTIONARY
  5
1332B
102
{ACAD_REACTORS
330
7471
102
}
330
7471
100
AcDbDictionary
281
     1
  3
Model
350
1332D
  3
レイアウト1
350
1332E
  0
DICTIONARY
  5
13329
102
{ACAD_REACTORS
330
7471
102
}
330
7471
100
AcDbDictionary
281
     1
  3
ByBlock
350
13B1E
  3
ByLayer
350
13B16
  3
Global
350
13B26
  0
DICTIONARY
  5
13B5B
102
{ACAD_REACTORS
330
7471
102
}
330
7471
100
AcDbDictionary
281
     1
  3
Standard
350
13B5C
  0
DICTIONARY
  5
7473
102
{ACAD_REACTORS
330
7471
102
}
330
7471
100
AcDbDictionary
281
     1
  3
STANDARD
350
7480
  0
DICTIONARY
  5
1332C
102
{ACAD_REACTORS
330
7471
102
}
330
7471
100
AcDbDictionary
281
     1
  0
ACDBDICTIONARYWDFLT
  5
13327
102
{ACAD_REACTORS
330
7471
102
}
330
7471
100
AcDbDictionary
281
     1
  3
Normal
350
13328
100
AcDbDictionaryWithDefault
340
13328
  0
DICTIONARY
  5
13B49
102
{ACAD_REACTORS
330
7471
102
}
330
7471
100
AcDbDictionary
281
     1
  3
A0
350
13B4A
  3
A1
350
13B4B
  3
A2
350
13B4C
  3
A3
350
13B4D
  3
A4
350
13B4E
  3
A5
350
13B4F
  3
A6
350
13B50
  3
A7
350
13B51
  3
A8
350
13B52
  3
A9
350
13B53
  3
B0
350
13B54
  3
B1
350
13B55
  3
B2
350
13B56
  3
B3
350
13B57
  3
B4
350
13B58
  3
B5
350
13B59
  3
B6
350
13B5A
  0
DICTIONARY
  5
13B5D
102
{ACAD_REACTORS
330
7471
102
}
330
7471
100
AcDbDictionary
281
     1
  3
Metric50
350
13B5E
  0
DICTIONARY
  5
13B47
102
{ACAD_REACTORS
330
7471
102
}
330
7471
100
AcDbDictionary
281
     1
  3
Standard
350
13B48
  0
DICTIONARY
  5
13B2E
102
{ACAD_REACTORS
330
7471
102
}
330
7471
100
AcDbDictionary
281
     1
  3
2dWireframe
350
13B34
  3
Basic
350
13B33
  3
Brighten
350
13B3A
  3
ColorChange
350
13B3E
  3
Conceptual
350
13B37
  3
Dim
350
13B39
  3
EdgeColorOff
350
13B46
  3
Facepattern
350
13B3D
  3
Flat
350
13B2F
  3
FlatWithEdges
350
13B30
  3
Gouraud
350
13B31
  3
GouraudWithEdges
350
13B32
  3
Hidden
350
13B36
  3
JitterOff
350
13B44
  3
Linepattern
350
13B3C
  3
OverhangOff
350
13B45
  3
Realistic
350
13B38
  3
Shaded
350
13B43
  3
Shaded with edges
350
13B42
  3
Shades of Gray
350
13B3F
  3
Sketchy
350
13B40
  3
Thicken
350
13B3B
  3
Wireframe
350
13B35
  3
X-Ray
350
13B41
  0
XRECORD
  5
13BBE
102
{ACAD_REACTORS
330
7471
102
}
330
7471
100
AcDbXrecord
280
     1
 90
        1
330
13B48
  0
DICTIONARY
  5
11B74
102
{ACAD_REACTORS
330
7471
102
}
330
7471
100
AcDbDictionary
281
     1
  3
CANNOSCALE
350
13B97
  3
CMLEADERSTYLE
350
13B93
  3
CTABLESTYLE
350
13B92
  3
CVIEWDETAILSTYLE
350
13B94
  3
CVIEWSECTIONSTYLE
350
13B95
  3
DIMASSOC
350
13BBB
  3
INDEXCTL
350
13BB9
  3
LAYEREVAL
350
13B99
  3
LAYERNOTIFY
350
13B9A
  3
LIGHTINGUNITS
350
13B98
  3
MSLTSCALE
350
13B96
  3
SORTENTS
350
11B75
  3
XCLIPFRAME
350
13BBA
  0
DICTIONARY
  5
13BC5
102
{ACAD_REACTORS
330
7471
102
}
330
7471
100
AcDbDictionary
281
     1
  3
AcDsRecords
350
13BC7
  3
AcDsSchemas
350
13BC6
1001
ACAD
1070
     2
  0
DICTIONARY
  5
E71C
102
{ACAD_REACTORS
330
7471
102
}
330
7471
100
AcDbDictionary
281
     1
  0
DICTIONARY
  5
F3B9
102
{ACAD_REACTORS
330
7471
102
}
330
7471
100
AcDbDictionary
281
     1
1001
DRAWINGVARIABLESXDATA
1000
POLARMODE
1000
1
  0
XRECORD
  5
13BBF
102
{ACAD_REACTORS
330
7471
102
}
330
7471
100
AcDbXrecord
280
     1
  1
DWGPROPS COOKIE
  2

  3

  4

  6

  7

  8
KAWACHI
  9

300
=
301
=
302
=
303
=
304
=
305
=
306
=
307
=
308
=
309
=
 40
0.5487123263888889
 41
2451052.600153125
 42
2457991.396935278
  1

 90
        0
  0
DICTIONARY
  5
13B87
102
{ACAD_REACTORS
330
13B86
102
}
330
13B86
100
AcDbDictionary
281
     1
  0
XRECORD
  5
13B6E
102
{ACAD_REACTORS
330
13B6D
102
}
330
13B6D
100
AcDbXrecord
280
     1
290
     1
  0
XRECORD
  5
13B70
102
{ACAD_REACTORS
330
13B6F
102
}
330
13B6F
100
AcDbXrecord
280
     1
290
     1
  0
XRECORD
  5
13B72
102
{ACAD_REACTORS
330
13B71
102
}
330
13B71
100
AcDbXrecord
280
     1
290
     1
  0
XRECORD
  5
13B74
102
{ACAD_REACTORS
330
13B73
102
}
330
13B73
100
AcDbXrecord
280
     1
290
     1
  0
XRECORD
  5
13B76
102
{ACAD_REACTORS
330
13B75
102
}
330
13B75
100
AcDbXrecord
280
     1
290
     1
  0
XRECORD
  5
13B78
102
{ACAD_REACTORS
330
13B77
102
}
330
13B77
100
AcDbXrecord
280
     1
290
     1
  0
XRECORD
  5
13B7A
102
{ACAD_REACTORS
330
13B79
102
}
330
13B79
100
AcDbXrecord
280
     1
290
     1
  0
XRECORD
  5
13B7C
102
{ACAD_REACTORS
330
13B7B
102
}
330
13B7B
100
AcDbXrecord
280
     1
290
     1
  0
XRECORD
  5
13B7E
102
{ACAD_REACTORS
330
13B7D
102
}
330
13B7D
100
AcDbXrecord
280
     1
290
     1
  0
XRECORD
  5
13B80
102
{ACAD_REACTORS
330
13B7F
102
}
330
13B7F
100
AcDbXrecord
280
     1
290
     1
  0
XRECORD
  5
13B82
102
{ACAD_REACTORS
330
13B81
102
}
330
13B81
100
AcDbXrecord
280
     1
290
     1
  0
ACDBDETAILVIEWSTYLE
  5
13B60
102
{ACAD_XDICTIONARY
360
13B8F
102
}
102
{ACAD_REACTORS
330
13B5F
102
}
330
13B5F
100
AcDbModelDocViewStyle
 70
     0
  3
Metric50
290
     0
100
AcDbDetailViewStyle
 70
     0
 71
     0
 90
        3
 71
     1
340
7475
 40
5.0
340
0
 40
5.0
300

 40
0.0
280
     1
 71
     2
340
7479
 90
       25
 71
     3
340
7475
 40
5.0
 90
        0
 40
15.0
 90
        1
300
%<\AcVar ViewDetailId>% (%<\AcVar ViewScale \f "%sn">%)
 71
     4
340
7479
 90
       25
340
7479
 90
       25
280
     0
  0
LAYOUT
  5
1332D
102
{ACAD_XDICTIONARY
360
13BCA
102
}
102
{ACAD_REACTORS
330
1332B
102
}
330
1332B
100
AcDbPlotSettings
  1

  2
iR C3880
  4
A3
  6

 40
5.873749732971191
 41
5.873747825622558
 42
5.873748779296875
 43
5.873748779296875
 44
296.9259948730469
 45
419.9466552734374
 46
0.0
 47
0.0
 48
0.0
 49
0.0
140
0.0
141
0.0
142
1.0
143
41.65811991999086
 70
 11952
 72
     1
 73
     1
 74
     2
  7
inaba.ctb
 75
     0
147
0.0240049239360925
148
0.0
149
0.0
100
AcDbLayout
  1
Model
 70
     1
 71
     0
 10
0.0
 20
0.0
 11
12.0
 21
9.0
 12
0.0
 22
0.0
 32
0.0
 14
0.0
 24
0.0
 34
0.0
 15
0.0
 25
0.0
 35
0.0
146
0.0
 13
0.0
 23
0.0
 33
0.0
 16
1.0
 26
0.0
 36
0.0
 17
0.0
 27
1.0
 37
0.0
 76
     0
330
747D
331
13B14
  0
LAYOUT
  5
1332E
102
{ACAD_XDICTIONARY
360
13BCC
102
}
102
{ACAD_REACTORS
330
1332B
102
}
330
1332B
100
AcDbPlotSettings
  1

  2
Microsoft XPS Document Writer
  4

  6

 40
0.0
 41
0.0
 42
0.0
 43
0.0
 44
0.0
 45
0.0
 46
0.0
 47
0.0
 48
0.0
 49
0.0
140
0.0
141
0.0
142
1.0
143
1.0
 70
   688
 72
     0
 73
     0
 74
     5
  7
inaba.ctb
 75
    16
147
1.0
148
0.0
149
0.0
100
AcDbLayout
  1
レイアウト1
 70
     0
 71
     1
 10
0.0
 20
0.0
 11
420.0
 21
297.0
 12
0.0
 22
0.0
 32
0.0
 14
1.000000000000000E+20
 24
1.000000000000000E+20
 34
1.000000000000000E+20
 15
-1.000000000000000E+20
 25
-1.000000000000000E+20
 35
-1.000000000000000E+20
146
0.0
 13
0.0
 23
0.0
 33
0.0
 16
1.0
 26
0.0
 36
0.0
 17
0.0
 27
1.0
 37
0.0
 76
     0
330
747A
  0
MATERIAL
  5
13B1E
102
{ACAD_XDICTIONARY
360
13B1F
102
}
102
{ACAD_REACTORS
330
13329
102
}
330
13329
100
AcDbMaterial
  1
ByBlock
 72
     0
 43
0.0208333333333333
 43
0.0
 43
0.0
 43
0.0
 43
0.0
 43
0.0208333333333333
 43
0.0
 43
0.0
 43
0.0
 43
0.0
 43
1.0
 43
0.0
 43
0.0
 43
0.0
 43
0.0
 43
1.0
 77
     0
 47
0.0208333333333333
 47
0.0
 47
0.0
 47
0.0
 47
0.0
 47
0.0208333333333333
 47
0.0
 47
0.0
 47
0.0
 47
0.0
 47
1.0
 47
0.0
 47
0.0
 47
0.0
 47
0.0
 47
1.0
171
     0
 49
0.0208333333333333
 49
0.0
 49
0.0
 49
0.0
 49
0.0
 49
0.0208333333333333
 49
0.0
 49
0.0
 49
0.0
 49
0.0
 49
1.0
 49
0.0
 49
0.0
 49
0.0
 49
0.0
 49
1.0
175
     0
142
0.0208333333333333
142
0.0
142
0.0
142
0.0
142
0.0
142
0.0208333333333333
142
0.0
142
0.0
142
0.0
142
0.0
142
1.0
142
0.0
142
0.0
142
0.0
142
0.0
142
1.0
179
     0
144
0.0208333333333333
144
0.0
144
0.0
144
0.0
144
0.0
144
0.0208333333333333
144
0.0
144
0.0
144
0.0
144
0.0
144
1.0
144
0.0
144
0.0
144
0.0
144
0.0
144
1.0
147
0.0208333333333333
147
0.0
147
0.0
147
0.0
147
0.0
147
0.0208333333333333
147
0.0
147
0.0
147
0.0
147
0.0
147
1.0
147
0.0
147
0.0
147
0.0
147
0.0
147
1.0
  0
MATERIAL
  5
13B16
102
{ACAD_XDICTIONARY
360
13B17
102
}
102
{ACAD_REACTORS
330
13329
102
}
330
13329
100
AcDbMaterial
  1
ByLayer
 72
     0
 43
0.0208333333333333
 43
0.0
 43
0.0
 43
0.0
 43
0.0
 43
0.0208333333333333
 43
0.0
 43
0.0
 43
0.0
 43
0.0
 43
1.0
 43
0.0
 43
0.0
 43
0.0
 43
0.0
 43
1.0
 77
     0
 47
0.0208333333333333
 47
0.0
 47
0.0
 47
0.0
 47
0.0
 47
0.0208333333333333
 47
0.0
 47
0.0
 47
0.0
 47
0.0
 47
1.0
 47
0.0
 47
0.0
 47
0.0
 47
0.0
 47
1.0
171
     0
 49
0.0208333333333333
 49
0.0
 49
0.0
 49
0.0
 49
0.0
 49
0.0208333333333333
 49
0.0
 49
0.0
 49
0.0
 49
0.0
 49
1.0
 49
0.0
 49
0.0
 49
0.0
 49
0.0
 49
1.0
175
     0
142
0.0208333333333333
142
0.0
142
0.0
142
0.0
142
0.0
142
0.0208333333333333
142
0.0
142
0.0
142
0.0
142
0.0
142
1.0
142
0.0
142
0.0
142
0.0
142
0.0
142
1.0
179
     0
144
0.0208333333333333
144
0.0
144
0.0
144
0.0
144
0.0
144
0.0208333333333333
144
0.0
144
0.0
144
0.0
144
0.0
144
1.0
144
0.0
144
0.0
144
0.0
144
0.0
144
1.0
147
0.0208333333333333
147
0.0
147
0.0
147
0.0
147
0.0
147
0.0208333333333333
147
0.0
147
0.0
147
0.0
147
0.0
147
1.0
147
0.0
147
0.0
147
0.0
147
0.0
147
1.0
  0
MATERIAL
  5
13B26
102
{ACAD_XDICTIONARY
360
13B27
102
}
102
{ACAD_REACTORS
330
13329
102
}
330
13329
100
AcDbMaterial
  1
Global
 72
     0
 43
0.0208333333333333
 43
0.0
 43
0.0
 43
0.0
 43
0.0
 43
0.0208333333333333
 43
0.0
 43
0.0
 43
0.0
 43
0.0
 43
1.0
 43
0.0
 43
0.0
 43
0.0
 43
0.0
 43
1.0
 77
     0
 47
0.0208333333333333
 47
0.0
 47
0.0
 47
0.0
 47
0.0
 47
0.0208333333333333
 47
0.0
 47
0.0
 47
0.0
 47
0.0
 47
1.0
 47
0.0
 47
0.0
 47
0.0
 47
0.0
 47
1.0
171
     0
 49
0.0208333333333333
 49
0.0
 49
0.0
 49
0.0
 49
0.0
 49
0.0208333333333333
 49
0.0
 49
0.0
 49
0.0
 49
0.0
 49
1.0
 49
0.0
 49
0.0
 49
0.0
 49
0.0
 49
1.0
175
     0
142
0.0208333333333333
142
0.0
142
0.0
142
0.0
142
0.0
142
0.0208333333333333
142
0.0
142
0.0
142
0.0
142
0.0
142
1.0
142
0.0
142
0.0
142
0.0
142
0.0
142
1.0
179
     0
144
0.0208333333333333
144
0.0
144
0.0
144
0.0
144
0.0
144
0.0208333333333333
144
0.0
144
0.0
144
0.0
144
0.0
144
1.0
144
0.0
144
0.0
144
0.0
144
0.0
144
1.0
147
0.0208333333333333
147
0.0
147
0.0
147
0.0
147
0.0
147
0.0208333333333333
147
0.0
147
0.0
147
0.0
147
0.0
147
1.0
147
0.0
147
0.0
147
0.0
147
0.0
147
1.0
  0
MLEADERSTYLE
  5
13B5C
102
{ACAD_XDICTIONARY
360
13C03
102
}
102
{ACAD_REACTORS
330
13B5B
102
}
330
13B5B
100
AcDbMLeaderStyle
170
     2
171
     1
172
     0
 90
        2
 40
0.0
 41
0.0
173
     1
 91
-1056964608
340
7477
 92
       -2
290
     1
 42
2.0
291
     1
 43
0.36
  3
Standard
 44
4.0
300

342
7475
174
     1
178
     6
175
     1
176
     0
 93
-1056964608
 45
4.0
292
     0
297
     0
 46
4.0
 94
-1056964608
 47
1.0
 49
1.0
140
1.0
293
     1
141
0.0
294
     1
177
     0
142
1.0
295
     0
296
     0
143
0.125
1001
ACAD_MLEADERVER
1070
     2
  0
MLINESTYLE
  5
7480
102
{ACAD_REACTORS
330
7473
102
}
330
7473
100
AcDbMlineStyle
  2
STANDARD
 70
     0
  3

 62
     0
 51
90.0
 52
90.0
 71
     2
 49
0.5
 62
   256
  6
BYLAYER
 49
-0.5
 62
   256
  6
BYLAYER
  0
ACDBPLACEHOLDER
  5
13328
102
{ACAD_REACTORS
330
13327
102
}
330
13327
  0
SCALE
  5
13B4A
102
{ACAD_REACTORS
330
13B49
102
}
330
13B49
100
AcDbScale
 70
     0
300
1:1
140
1.0
141
1.0
290
     1
  0
SCALE
  5
13B4B
102
{ACAD_REACTORS
330
13B49
102
}
330
13B49
100
AcDbScale
 70
     0
300
1:2
140
1.0
141
2.0
290
     0
  0
SCALE
  5
13B4C
102
{ACAD_REACTORS
330
13B49
102
}
330
13B49
100
AcDbScale
 70
     0
300
1:4
140
1.0
141
4.0
290
     0
  0
SCALE
  5
13B4D
102
{ACAD_REACTORS
330
13B49
102
}
330
13B49
100
AcDbScale
 70
     0
300
1:5
140
1.0
141
5.0
290
     0
  0
SCALE
  5
13B4E
102
{ACAD_REACTORS
330
13B49
102
}
330
13B49
100
AcDbScale
 70
     0
300
1:8
140
1.0
141
8.0
290
     0
  0
SCALE
  5
13B4F
102
{ACAD_REACTORS
330
13B49
102
}
330
13B49
100
AcDbScale
 70
     0
300
1:10
140
1.0
141
10.0
290
     0
  0
SCALE
  5
13B50
102
{ACAD_REACTORS
330
13B49
102
}
330
13B49
100
AcDbScale
 70
     0
300
1:16
140
1.0
141
16.0
290
     0
  0
SCALE
  5
13B51
102
{ACAD_REACTORS
330
13B49
102
}
330
13B49
100
AcDbScale
 70
     0
300
1:20
140
1.0
141
20.0
290
     0
  0
SCALE
  5
13B52
102
{ACAD_REACTORS
330
13B49
102
}
330
13B49
100
AcDbScale
 70
     0
300
1:30
140
1.0
141
30.0
290
     0
  0
SCALE
  5
13B53
102
{ACAD_REACTORS
330
13B49
102
}
330
13B49
100
AcDbScale
 70
     0
300
1:40
140
1.0
141
40.0
290
     0
  0
SCALE
  5
13B54
102
{ACAD_REACTORS
330
13B49
102
}
330
13B49
100
AcDbScale
 70
     0
300
1:50
140
1.0
141
50.0
290
     0
  0
SCALE
  5
13B55
102
{ACAD_REACTORS
330
13B49
102
}
330
13B49
100
AcDbScale
 70
     0
300
1:100
140
1.0
141
100.0
290
     0
  0
SCALE
  5
13B56
102
{ACAD_REACTORS
330
13B49
102
}
330
13B49
100
AcDbScale
 70
     0
300
2:1
140
2.0
141
1.0
290
     0
  0
SCALE
  5
13B57
102
{ACAD_REACTORS
330
13B49
102
}
330
13B49
100
AcDbScale
 70
     0
300
4:1
140
4.0
141
1.0
290
     0
  0
SCALE
  5
13B58
102
{ACAD_REACTORS
330
13B49
102
}
330
13B49
100
AcDbScale
 70
     0
300
8:1
140
8.0
141
1.0
290
     0
  0
SCALE
  5
13B59
102
{ACAD_REACTORS
330
13B49
102
}
330
13B49
100
AcDbScale
 70
     0
300
10:1
140
10.0
141
1.0
290
     0
  0
SCALE
  5
13B5A
102
{ACAD_REACTORS
330
13B49
102
}
330
13B49
100
AcDbScale
 70
     0
300
100:1
140
100.0
141
1.0
290
     0
  0
ACDBSECTIONVIEWSTYLE
  5
13B5E
102
{ACAD_XDICTIONARY
360
13B8D
102
}
102
{ACAD_REACTORS
330
13B5D
102
}
330
13B5D
100
AcDbModelDocViewStyle
 70
     0
  3
Metric50
290
     0
100
AcDbSectionViewStyle
 70
     0
 71
     0
 90
      102
 71
     1
340
7475
 40
5.0
340
0
340
0
 40
5.0
300
I, O, Q, S, X, Z
 40
10.0
 90
        0
 40
2.5
 90
        0
 71
     2
340
7479
 90
       25
340
7479
 90
       50
 40
5.0
 40
2.5
 40
5.0
 71
     3
340
7475
 40
5.0
 90
        0
 40
15.0
 90
        1
300
%<\AcVar ViewSectionStartId>%-%<\AcVar ViewSectionEndId>% (%<\AcVar ViewScale \f "%sn">%)
 71
     4
300
ANSI31
 40
1.0
 90
        0
290
     0
290
     0
 90
        6
 40
0.0
 40
1.570796326794896
 40
0.2617993877991494
 40
1.308996938995747
 40
-0.2617993877991494
 40
1.832595714594046
  0
TABLESTYLE
  5
13B48
102
{ACAD_XDICTIONARY
360
13BBC
102
}
102
{ACAD_REACTORS
330
13B47
102
}
330
13B47
100
AcDbTableStyle
  3
Standard
 70
     0
 71
     0
 40
1.5
 41
1.5
280
     0
281
     0
  7
STANDARD
140
4.5
170
     2
 62
     0
 63
     7
283
     0
274
    -2
284
     1
 64
     0
275
    -2
285
     1
 65
     0
276
    -2
286
     1
 66
     0
277
    -2
287
     1
 67
     0
278
    -2
288
     1
 68
     0
279
    -2
289
     1
 69
     0
  7
STANDARD
140
6.0
170
     5
 62
     0
 63
     7
283
     0
274
    -2
284
     1
 64
     0
275
    -2
285
     1
 65
     0
276
    -2
286
     1
 66
     0
277
    -2
287
     1
 67
     0
278
    -2
288
     1
 68
     0
279
    -2
289
     1
 69
     0
  7
STANDARD
140
4.5
170
     5
 62
     0
 63
     7
283
     0
274
    -2
284
     1
 64
     0
275
    -2
285
     1
 65
     0
276
    -2
286
     1
 66
     0
277
    -2
287
     1
 67
     0
278
    -2
288
     1
 68
     0
279
    -2
289
     1
 69
     0
  0
VISUALSTYLE
  5
13B34
102
{ACAD_XDICTIONARY
360
13BDB
102
}
102
{ACAD_REACTORS
330
13B2E
102
}
330
13B2E
100
AcDbVisualStyle
  2
2dWireframe
 70
     4
 71
     0
 72
     2
 73
     0
 90
        0
 40
-0.6
 41
-30.0
 62
     5
 63
     7
 74
     1
 91
        4
 64
     7
 65
   257
 75
     1
175
     1
 42
1.0
 92
        0
 66
   257
 43
1.0
 76
     1
 77
     6
 78
     2
 67
     7
 79
     5
170
     0
171
     0
290
     0
174
     0
 93
        1
 44
0.0
173
     0
291
     0
 45
0.0
1001
ACAD
1000
AcDbSavedByObjectVersion
1070
     0
  0
VISUALSTYLE
  5
13B33
102
{ACAD_XDICTIONARY
360
13BD9
102
}
102
{ACAD_REACTORS
330
13B2E
102
}
330
13B2E
100
AcDbVisualStyle
  2
Basic
 70
     7
 71
     1
 72
     0
 73
     1
 90
        0
 40
-0.6
 41
-30.0
 62
     5
 63
     7
 74
     0
 91
        4
 64
     7
 65
   257
 75
     1
175
     1
 42
1.0
 92
        8
 66
     7
 43
1.0
 76
     1
 77
     6
 78
     2
 67
     7
 79
     5
170
     0
171
     0
290
     0
174
     0
 93
        1
 44
0.0
173
     0
291
     1
 45
0.0
1001
ACAD
1000
AcDbSavedByObjectVersion
1070
     0
  0
VISUALSTYLE
  5
13B3A
102
{ACAD_XDICTIONARY
360
13BE7
102
}
102
{ACAD_REACTORS
330
13B2E
102
}
330
13B2E
100
AcDbVisualStyle
  2
Brighten
 70
    12
 71
     2
 72
     2
 73
     0
 90
        0
 40
-0.6
 41
-30.0
 62
     5
 63
     7
 74
     1
 91
        4
 64
     7
 65
   257
 75
     1
175
     1
 42
1.0
 92
        8
 66
     7
 43
1.0
 76
     1
 77
     6
 78
     2
 67
     7
 79
     5
170
     0
171
     0
290
     0
174
     0
 93
        1
 44
50.0
173
     0
291
     1
 45
0.0
1001
ACAD
1000
AcDbSavedByObjectVersion
1070
     0
  0
VISUALSTYLE
  5
13B3E
102
{ACAD_XDICTIONARY
360
13BEF
102
}
102
{ACAD_REACTORS
330
13B2E
102
}
330
13B2E
100
AcDbVisualStyle
  2
ColorChange
 70
    16
 71
     2
 72
     2
 73
     3
 90
        0
 40
-0.6
 41
-30.0
 62
     5
 63
     8
 74
     1
 91
        4
 64
     7
 65
   257
 75
     1
175
     1
 42
1.0
 92
        8
 66
     8
 43
1.0
 76
     1
 77
     6
 78
     2
 67
     7
 79
     5
170
     0
171
     0
290
     0
174
     0
 93
        1
 44
0.0
173
     0
291
     1
 45
0.0
1001
ACAD
1000
AcDbSavedByObjectVersion
1070
     0
  0
VISUALSTYLE
  5
13B37
102
{ACAD_XDICTIONARY
360
13BE1
102
}
102
{ACAD_REACTORS
330
13B2E
102
}
330
13B2E
100
AcDbVisualStyle
  2
Conceptual
 70
     9
 71
     3
 72
     2
 73
     0
 90
        0
 40
-0.6
 41
-30.0
 62
     5
 63
     7
 74
     2
 91
        2
 64
     7
 65
   257
 75
     1
175
     1
 42
179.0
 92
        8
 66
     7
 43
1.0
 76
     1
 77
     6
 78
     2
 67
     7
 79
     3
170
     0
171
     0
290
     0
174
     0
 93
        1
 44
0.0
173
     0
291
     0
 45
0.0
1001
ACAD
1000
AcDbSavedByObjectVersion
1070
     0
  0
VISUALSTYLE
  5
13B39
102
{ACAD_XDICTIONARY
360
13BE5
102
}
102
{ACAD_REACTORS
330
13B2E
102
}
330
13B2E
100
AcDbVisualStyle
  2
Dim
 70
    11
 71
     2
 72
     2
 73
     0
 90
        0
 40
-0.6
 41
-30.0
 62
     5
 63
     7
 74
     1
 91
        4
 64
     7
 65
   257
 75
     1
175
     1
 42
1.0
 92
        8
 66
     7
 43
1.0
 76
     1
 77
     6
 78
     2
 67
     7
 79
     5
170
     0
171
     0
290
     0
174
     0
 93
        1
 44
-50.0
173
     0
291
     1
 45
0.0
1001
ACAD
1000
AcDbSavedByObjectVersion
1070
     0
  0
VISUALSTYLE
  5
13B46
102
{ACAD_XDICTIONARY
360
13BFF
102
}
102
{ACAD_REACTORS
330
13B2E
102
}
330
13B2E
100
AcDbVisualStyle
  2
EdgeColorOff
 70
    22
 71
     2
 72
     2
 73
     0
 90
        0
 40
-0.6
 41
-30.0
 62
     5
 63
     7
 74
     1
 91
        4
 64
     7
 65
   257
 75
     1
175
     1
 42
1.0
 92
        8
 66
     7
 43
1.0
 76
     1
 77
     6
 78
     2
 67
     7
 79
     5
170
     0
171
     0
290
     0
174
     0
 93
        1
 44
0.0
173
     0
291
     1
 45
0.0
1001
ACAD
1000
AcDbSavedByObjectVersion
1070
     0
  0
VISUALSTYLE
  5
13B3D
102
{ACAD_XDICTIONARY
360
13BED
102
}
102
{ACAD_REACTORS
330
13B2E
102
}
330
13B2E
100
AcDbVisualStyle
  2
Facepattern
 70
    15
 71
     2
 72
     2
 73
     0
 90
        0
 40
-0.6
 41
-30.0
 62
     5
 63
     7
 74
     1
 91
        4
 64
     7
 65
   257
 75
     1
175
     1
 42
1.0
 92
        8
 66
     7
 43
1.0
 76
     1
 77
     6
 78
     2
 67
     7
 79
     5
170
     0
171
     0
290
     0
174
     0
 93
        1
 44
0.0
173
     0
291
     1
 45
0.0
1001
ACAD
1000
AcDbSavedByObjectVersion
1070
     0
  0
VISUALSTYLE
  5
13B2F
102
{ACAD_XDICTIONARY
360
13BD1
102
}
102
{ACAD_REACTORS
330
13B2E
102
}
330
13B2E
100
AcDbVisualStyle
  2
Flat
 70
     0
 71
     2
 72
     1
 73
     1
 90
        2
 40
-0.6
 41
30.0
 62
     5
 63
     7
 74
     0
 91
        0
 64
     7
 65
   257
 75
     1
175
     1
 42
1.0
 92
        8
 66
     7
 43
1.0
 76
     1
 77
     6
 78
     2
 67
     7
 79
     5
170
     0
171
     0
290
     0
174
     0
 93
       13
 44
0.0
173
     0
291
     1
 45
0.0
1001
ACAD
1000
AcDbSavedByObjectVersion
1070
     0
  0
VISUALSTYLE
  5
13B30
102
{ACAD_XDICTIONARY
360
13BD3
102
}
102
{ACAD_REACTORS
330
13B2E
102
}
330
13B2E
100
AcDbVisualStyle
  2
FlatWithEdges
 70
     1
 71
     2
 72
     1
 73
     1
 90
        2
 40
-0.6
 41
30.0
 62
     5
 63
     7
 74
     1
 91
        0
 64
     7
 65
   257
 75
     1
175
     1
 42
1.0
 92
        0
 66
   257
 43
1.0
 76
     1
 77
     6
 78
     2
 67
     7
 79
     5
170
     0
171
     0
290
     0
174
     0
 93
       13
 44
0.0
173
     0
291
     1
 45
0.0
1001
ACAD
1000
AcDbSavedByObjectVersion
1070
     0
  0
VISUALSTYLE
  5
13B31
102
{ACAD_XDICTIONARY
360
13BD5
102
}
102
{ACAD_REACTORS
330
13B2E
102
}
330
13B2E
100
AcDbVisualStyle
  2
Gouraud
 70
     2
 71
     2
 72
     2
 73
     1
 90
        2
 40
-0.6
 41
30.0
 62
     5
 63
     7
 74
     0
 91
        0
 64
     7
 65
   257
 75
     1
175
     1
 42
1.0
 92
        0
 66
     7
 43
1.0
 76
     1
 77
     6
 78
     2
 67
     7
 79
     5
170
     0
171
     0
290
     0
174
     0
 93
       13
 44
0.0
173
     0
291
     1
 45
0.0
1001
ACAD
1000
AcDbSavedByObjectVersion
1070
     0
  0
VISUALSTYLE
  5
13B32
102
{ACAD_XDICTIONARY
360
13BD7
102
}
102
{ACAD_REACTORS
330
13B2E
102
}
330
13B2E
100
AcDbVisualStyle
  2
GouraudWithEdges
 70
     3
 71
     2
 72
     2
 73
     1
 90
        2
 40
-0.6
 41
30.0
 62
     5
 63
     7
 74
     1
 91
        0
 64
     7
 65
   257
 75
     1
175
     1
 42
1.0
 92
        0
 66
   257
 43
1.0
 76
     1
 77
     6
 78
     2
 67
     7
 79
     5
170
     0
171
     0
290
     0
174
     0
 93
       13
 44
0.0
173
     0
291
     1
 45
0.0
1001
ACAD
1000
AcDbSavedByObjectVersion
1070
     0
  0
VISUALSTYLE
  5
13B36
102
{ACAD_XDICTIONARY
360
13BDF
102
}
102
{ACAD_REACTORS
330
13B2E
102
}
330
13B2E
100
AcDbVisualStyle
  2
Hidden
 70
     6
 71
     1
 72
     2
 73
     2
 90
        0
 40
-0.6
 41
-30.0
 62
     5
 63
     7
 74
     2
 91
        2
 64
     7
 65
   257
 75
     2
175
     1
 42
40.0
 92
        0
 66
   257
 43
1.0
 76
     1
 77
     6
 78
     2
 67
     7
 79
     3
170
     0
171
     0
290
     0
174
     0
 93
        1
 44
0.0
173
     0
291
     0
 45
0.0
1001
ACAD
1000
AcDbSavedByObjectVersion
1070
     0
  0
VISUALSTYLE
  5
13B44
102
{ACAD_XDICTIONARY
360
13BFB
102
}
102
{ACAD_REACTORS
330
13B2E
102
}
330
13B2E
100
AcDbVisualStyle
  2
JitterOff
 70
    20
 71
     2
 72
     2
 73
     0
 90
        0
 40
-0.6
 41
-30.0
 62
     5
 63
     7
 74
     1
 91
        4
 64
     7
 65
   257
 75
     1
175
     1
 42
1.0
 92
       10
 66
     7
 43
1.0
 76
     1
 77
     6
 78
     2
 67
     7
 79
     5
170
     0
171
     0
290
     0
174
     0
 93
        1
 44
0.0
173
     0
291
     1
 45
0.0
1001
ACAD
1000
AcDbSavedByObjectVersion
1070
     0
  0
VISUALSTYLE
  5
13B3C
102
{ACAD_XDICTIONARY
360
13BEB
102
}
102
{ACAD_REACTORS
330
13B2E
102
}
330
13B2E
100
AcDbVisualStyle
  2
Linepattern
 70
    14
 71
     2
 72
     2
 73
     0
 90
        0
 40
-0.6
 41
-30.0
 62
     5
 63
     7
 74
     1
 91
        4
 64
     7
 65
   257
 75
     7
175
     7
 42
1.0
 92
        8
 66
     7
 43
1.0
 76
     1
 77
     6
 78
     2
 67
     7
 79
     5
170
     0
171
     0
290
     0
174
     0
 93
        1
 44
0.0
173
     0
291
     1
 45
0.0
1001
ACAD
1000
AcDbSavedByObjectVersion
1070
     0
  0
VISUALSTYLE
  5
13B45
102
{ACAD_XDICTIONARY
360
13BFD
102
}
102
{ACAD_REACTORS
330
13B2E
102
}
330
13B2E
100
AcDbVisualStyle
  2
OverhangOff
 70
    21
 71
     2
 72
     2
 73
     0
 90
        0
 40
-0.6
 41
-30.0
 62
     5
 63
     7
 74
     1
 91
        4
 64
     7
 65
   257
 75
     1
175
     1
 42
1.0
 92
        9
 66
     7
 43
1.0
 76
     1
 77
     6
 78
     2
 67
     7
 79
     5
170
     0
171
     0
290
     0
174
     0
 93
        1
 44
0.0
173
     0
291
     1
 45
0.0
1001
ACAD
1000
AcDbSavedByObjectVersion
1070
     0
  0
VISUALSTYLE
  5
13B38
102
{ACAD_XDICTIONARY
360
13BE3
102
}
102
{ACAD_REACTORS
330
13B2E
102
}
330
13B2E
100
AcDbVisualStyle
  2
Realistic
 70
     8
 71
     2
 72
     3
 73
     0
 90
        2
 40
-0.6
 41
30.0
 62
     5
 63
     7
 74
     0
 91
        0
 64
     7
 65
   257
 75
     1
175
     1
 42
1.0
 92
        8
 66
   257
 43
1.0
 76
     1
 77
     6
 78
     2
 67
     7
 79
     3
170
     0
171
     0
290
     0
174
     0
 93
       13
 44
0.0
173
     0
291
     0
 45
0.0
1001
ACAD
1000
AcDbSavedByObjectVersion
1070
     0
  0
VISUALSTYLE
  5
13B43
102
{ACAD_XDICTIONARY
360
13BF9
102
}
102
{ACAD_REACTORS
330
13B2E
102
}
330
13B2E
100
AcDbVisualStyle
  2
Shaded
 70
    27
 71
     2
 72
     2
 73
     1
 90
        2
 40
-0.6
 41
30.0
 62
     5
 63
     7
 74
     0
 91
        4
 64
     7
 65
   257
 75
     1
175
     1
 42
1.0
 92
        8
 66
   257
 43
1.0
 76
     1
 77
     6
 78
     2
 67
     8
 79
     3
170
     0
171
     0
290
     0
174
     0
 93
        5
 44
0.0
173
     0
291
     0
 45
0.0
1001
ACAD
1000
AcDbSavedByObjectVersion
1070
     0
  0
VISUALSTYLE
  5
13B42
102
{ACAD_XDICTIONARY
360
13BF7
102
}
102
{ACAD_REACTORS
330
13B2E
102
}
330
13B2E
100
AcDbVisualStyle
  2
Shaded with edges
 70
    26
 71
     2
 72
     2
 73
     1
 90
        2
 40
-0.6
 41
30.0
 62
     5
 63
     7
 74
     1
 91
       10
 64
     7
 65
   257
 75
     2
175
     1
 42
1.0
 92
        8
 66
   257
 43
1.0
 76
     1
 77
     6
 78
     2
 67
     7
 79
     3
170
     0
171
     0
290
     0
174
     0
 93
        5
 44
0.0
173
     0
291
     0
 45
0.0
1001
ACAD
1000
AcDbSavedByObjectVersion
1070
     0
  0
VISUALSTYLE
  5
13B3F
102
{ACAD_XDICTIONARY
360
13BF1
102
}
102
{ACAD_REACTORS
330
13B2E
102
}
330
13B2E
100
AcDbVisualStyle
  2
Shades of Gray
 70
    23
 71
     2
 72
     2
 73
     3
 90
        0
 40
-0.6
 41
-30.0
 62
     5
 63
     7
 74
     2
 91
        2
 64
     7
 65
     7
 75
     1
175
     1
 42
40.0
 92
        8
 66
     7
 43
1.0
 76
     1
 77
     6
 78
     2
 67
     7
 79
     3
170
     0
171
     0
290
     0
174
     0
 93
        1
 44
0.0
173
     0
291
     0
 45
0.0
1001
ACAD
1000
AcDbSavedByObjectVersion
1070
     0
  0
VISUALSTYLE
  5
13B40
102
{ACAD_XDICTIONARY
360
13BF3
102
}
102
{ACAD_REACTORS
330
13B2E
102
}
330
13B2E
100
AcDbVisualStyle
  2
Sketchy
 70
    24
 71
     1
 72
     2
 73
     2
 90
        0
 40
-0.6
 41
-30.0
 62
     5
 63
     7
 74
     2
 91
        2
 64
     7
 65
     7
 75
     1
175
     1
 42
40.0
 92
       11
 66
     7
 43
1.0
 76
     1
 77
     6
 78
     2
 67
     7
 79
     6
170
     0
171
     0
290
     0
174
     0
 93
        1
 44
0.0
173
     0
291
     0
 45
0.0
1001
ACAD
1000
AcDbSavedByObjectVersion
1070
     0
  0
VISUALSTYLE
  5
13B3B
102
{ACAD_XDICTIONARY
360
13BE9
102
}
102
{ACAD_REACTORS
330
13B2E
102
}
330
13B2E
100
AcDbVisualStyle
  2
Thicken
 70
    13
 71
     2
 72
     2
 73
     0
 90
        0
 40
-0.6
 41
-30.0
 62
     5
 63
     7
 74
     1
 91
        4
 64
     7
 65
   257
 75
     1
175
     1
 42
1.0
 92
       12
 66
     7
 43
1.0
 76
     1
 77
     6
 78
     2
 67
     7
 79
     5
170
     0
171
     0
290
     0
174
     0
 93
        1
 44
0.0
173
     0
291
     1
 45
0.0
1001
ACAD
1000
AcDbSavedByObjectVersion
1070
     0
  0
VISUALSTYLE
  5
13B35
102
{ACAD_XDICTIONARY
360
13BDD
102
}
102
{ACAD_REACTORS
330
13B2E
102
}
330
13B2E
100
AcDbVisualStyle
  2
Wireframe
 70
     5
 71
     0
 72
     2
 73
     0
 90
        0
 40
-0.6
 41
-30.0
 62
     5
 63
     7
 74
     1
 91
        4
 64
     7
 65
   257
 75
     1
175
     1
 42
1.0
 92
        0
 66
   257
 43
1.0
 76
     1
 77
     6
 78
     2
 67
     7
 79
     3
170
     0
171
     0
290
     0
174
     0
 93
        1
 44
0.0
173
     0
291
     0
 45
0.0
1001
ACAD
1000
AcDbSavedByObjectVersion
1070
     0
  0
VISUALSTYLE
  5
13B41
102
{ACAD_XDICTIONARY
360
13BF5
102
}
102
{ACAD_REACTORS
330
13B2E
102
}
330
13B2E
100
AcDbVisualStyle
  2
X-Ray
 70
    25
 71
     2
 72
     2
 73
     1
 90
        1
 40
0.5
 41
-30.0
 62
     5
 63
     7
 74
     1
 91
        0
 64
     7
 65
   257
 75
     1
175
     1
 42
1.0
 92
        8
 66
     7
 43
1.0
 76
     1
 77
     6
 78
     2
 67
     7
 79
     3
170
     0
171
     0
290
     0
174
     0
 93
       13
 44
0.0
173
     0
291
     0
 45
0.0
1001
ACAD
1000
AcDbSavedByObjectVersion
1070
     0
  0
DICTIONARYVAR
  5
13B97
102
{ACAD_REACTORS
330
11B74
102
}
330
11B74
100
DictionaryVariables
280
     0
  1
1:1
  0
DICTIONARYVAR
  5
13B93
102
{ACAD_REACTORS
330
11B74
102
}
330
11B74
100
DictionaryVariables
280
     0
  1
STANDARD
  0
DICTIONARYVAR
  5
13B92
102
{ACAD_REACTORS
330
11B74
102
}
330
11B74
100
DictionaryVariables
280
     0
  1
STANDARD
  0
DICTIONARYVAR
  5
13B94
102
{ACAD_REACTORS
330
11B74
102
}
330
11B74
100
DictionaryVariables
280
     0
  1
Metric50
  0
DICTIONARYVAR
  5
13B95
102
{ACAD_REACTORS
330
11B74
102
}
330
11B74
100
DictionaryVariables
280
     0
  1
Metric50
  0
DICTIONARYVAR
  5
13BBB
102
{ACAD_REACTORS
330
11B74
102
}
330
11B74
100
DictionaryVariables
280
     0
  1
1
  0
DICTIONARYVAR
  5
13BB9
102
{ACAD_REACTORS
330
11B74
102
}
330
11B74
100
DictionaryVariables
280
     0
  1
0
  0
DICTIONARYVAR
  5
13B99
102
{ACAD_REACTORS
330
11B74
102
}
330
11B74
100
DictionaryVariables
280
     0
  1
1
  0
DICTIONARYVAR
  5
13B9A
102
{ACAD_REACTORS
330
11B74
102
}
330
11B74
100
DictionaryVariables
280
     0
  1
15
  0
DICTIONARYVAR
  5
13B98
102
{ACAD_REACTORS
330
11B74
102
}
330
11B74
100
DictionaryVariables
280
     0
  1
0
  0
DICTIONARYVAR
  5
13B96
102
{ACAD_REACTORS
330
11B74
102
}
330
11B74
100
DictionaryVariables
280
     0
  1
0
  0
DICTIONARYVAR
  5
11B75
102
{ACAD_REACTORS
330
11B74
102
}
330
11B74
100
DictionaryVariables
280
     0
  1
96
  0
DICTIONARYVAR
  5
13BBA
102
{ACAD_REACTORS
330
11B74
102
}
330
11B74
100
DictionaryVariables
280
     0
  1
0
  0
DICTIONARY
  5
13BC7
102
{ACAD_REACTORS
330
13BC5
102
}
330
13BC5
100
AcDbDictionary
281
     1
  0
DICTIONARY
  5
13BC6
102
{ACAD_REACTORS
330
13BC5
102
}
330
13BC5
100
AcDbDictionary
281
     1
  3
2129794496
350
13BC0
  3
2129794504
350
13BC1
  3
2129794512
350
13BC2
  3
2129794520
350
13BC3
  3
2129794528
350
13BC4
  0
DICTIONARY
  5
13B8F
330
13B60
100
AcDbDictionary
280
     1
281
     1
  3
ACAD_XREC_ROUNDTRIP
360
13C06
  0
DICTIONARY
  5
13BCA
330
1332D
100
AcDbDictionary
280
     1
281
     1
  3
ACAD_XREC_ROUNDTRIP
360
13BCB
  0
DICTIONARY
  5
13BCC
330
1332E
100
AcDbDictionary
280
     1
281
     1
  3
ACAD_XREC_ROUNDTRIP
360
13BCD
  0
DICTIONARY
  5
13B1F
330
13B1E
100
AcDbDictionary
280
     1
281
     1
  3
ACAD_XREC_ROUNDTRIP
360
13BCF
  3
BUMPTILE
360
13B21
  3
DIFFUSETILE
360
13B20
  3
OPACITYTILE
360
13B24
  3
REFLECTIONTILE
360
13B23
  3
REFRACTIONTILE
360
13B25
  3
SPECULARTILE
360
13B22
  0
DICTIONARY
  5
13B17
330
13B16
100
AcDbDictionary
280
     1
281
     1
  3
ACAD_XREC_ROUNDTRIP
360
13BCE
  3
BUMPTILE
360
13B19
  3
DIFFUSETILE
360
13B18
  3
OPACITYTILE
360
13B1C
  3
REFLECTIONTILE
360
13B1B
  3
REFRACTIONTILE
360
13B1D
  3
SPECULARTILE
360
13B1A
  0
DICTIONARY
  5
13B27
330
13B26
100
AcDbDictionary
280
     1
281
     1
  3
ACAD_XREC_ROUNDTRIP
360
13BD0
  3
BUMPTILE
360
13B29
  3
DIFFUSETILE
360
13B28
  3
OPACITYTILE
360
13B2C
  3
REFLECTIONTILE
360
13B2B
  3
REFRACTIONTILE
360
13B2D
  3
SPECULARTILE
360
13B2A
  0
DICTIONARY
  5
13C03
330
13B5C
100
AcDbDictionary
280
     1
281
     1
  3
ACAD_XREC_ROUNDTRIP
360
13C04
  0
DICTIONARY
  5
13B8D
330
13B5E
100
AcDbDictionary
280
     1
281
     1
  3
ACAD_XREC_ROUNDTRIP
360
13C05
  0
DICTIONARY
  5
13BBC
330
13B48
100
AcDbDictionary
280
     1
281
     1
  3
ACAD_ROUNDTRIP_2008_TABLESTYLE_CELLSTYLEMAP
360
13BBD
  3
ACAD_XREC_ROUNDTRIP
360
13C01
  0
DICTIONARY
  5
13BDB
330
13B34
100
AcDbDictionary
280
     1
281
     1
  3
ACAD_XREC_ROUNDTRIP
360
13BDC
  0
DICTIONARY
  5
13BD9
330
13B33
100
AcDbDictionary
280
     1
281
     1
  3
ACAD_XREC_ROUNDTRIP
360
13BDA
  0
DICTIONARY
  5
13BE7
330
13B3A
100
AcDbDictionary
280
     1
281
     1
  3
ACAD_XREC_ROUNDTRIP
360
13BE8
  0
DICTIONARY
  5
13BEF
330
13B3E
100
AcDbDictionary
280
     1
281
     1
  3
ACAD_XREC_ROUNDTRIP
360
13BF0
  0
DICTIONARY
  5
13BE1
330
13B37
100
AcDbDictionary
280
     1
281
     1
  3
ACAD_XREC_ROUNDTRIP
360
13BE2
  0
DICTIONARY
  5
13BE5
330
13B39
100
AcDbDictionary
280
     1
281
     1
  3
ACAD_XREC_ROUNDTRIP
360
13BE6
  0
DICTIONARY
  5
13BFF
330
13B46
100
AcDbDictionary
280
     1
281
     1
  3
ACAD_XREC_ROUNDTRIP
360
13C00
  0
DICTIONARY
  5
13BED
330
13B3D
100
AcDbDictionary
280
     1
281
     1
  3
ACAD_XREC_ROUNDTRIP
360
13BEE
  0
DICTIONARY
  5
13BD1
330
13B2F
100
AcDbDictionary
280
     1
281
     1
  3
ACAD_XREC_ROUNDTRIP
360
13BD2
  0
DICTIONARY
  5
13BD3
330
13B30
100
AcDbDictionary
280
     1
281
     1
  3
ACAD_XREC_ROUNDTRIP
360
13BD4
  0
DICTIONARY
  5
13BD5
330
13B31
100
AcDbDictionary
280
     1
281
     1
  3
ACAD_XREC_ROUNDTRIP
360
13BD6
  0
DICTIONARY
  5
13BD7
330
13B32
100
AcDbDictionary
280
     1
281
     1
  3
ACAD_XREC_ROUNDTRIP
360
13BD8
  0
DICTIONARY
  5
13BDF
330
13B36
100
AcDbDictionary
280
     1
281
     1
  3
ACAD_XREC_ROUNDTRIP
360
13BE0
  0
DICTIONARY
  5
13BFB
330
13B44
100
AcDbDictionary
280
     1
281
     1
  3
ACAD_XREC_ROUNDTRIP
360
13BFC
  0
DICTIONARY
  5
13BEB
330
13B3C
100
AcDbDictionary
280
     1
281
     1
  3
ACAD_XREC_ROUNDTRIP
360
13BEC
  0
DICTIONARY
  5
13BFD
330
13B45
100
AcDbDictionary
280
     1
281
     1
  3
ACAD_XREC_ROUNDTRIP
360
13BFE
  0
DICTIONARY
  5
13BE3
330
13B38
100
AcDbDictionary
280
     1
281
     1
  3
ACAD_XREC_ROUNDTRIP
360
13BE4
  0
DICTIONARY
  5
13BF9
330
13B43
100
AcDbDictionary
280
     1
281
     1
  3
ACAD_XREC_ROUNDTRIP
360
13BFA
  0
DICTIONARY
  5
13BF7
330
13B42
100
AcDbDictionary
280
     1
281
     1
  3
ACAD_XREC_ROUNDTRIP
360
13BF8
  0
DICTIONARY
  5
13BF1
330
13B3F
100
AcDbDictionary
280
     1
281
     1
  3
ACAD_XREC_ROUNDTRIP
360
13BF2
  0
DICTIONARY
  5
13BF3
330
13B40
100
AcDbDictionary
280
     1
281
     1
  3
ACAD_XREC_ROUNDTRIP
360
13BF4
  0
DICTIONARY
  5
13BE9
330
13B3B
100
AcDbDictionary
280
     1
281
     1
  3
ACAD_XREC_ROUNDTRIP
360
13BEA
  0
DICTIONARY
  5
13BDD
330
13B35
100
AcDbDictionary
280
     1
281
     1
  3
ACAD_XREC_ROUNDTRIP
360
13BDE
  0
DICTIONARY
  5
13BF5
330
13B41
100
AcDbDictionary
280
     1
281
     1
  3
ACAD_XREC_ROUNDTRIP
360
13BF6
  0
XRECORD
  5
13BC0
102
{ACAD_REACTORS
330
13BC6
102
}
330
13BC6
100
AcDbXrecord
280
     1
  1
AcDb_Thumbnail_Schema
102
{ATTRRECORD
341
13BC1
  2
AcDbDs::TreatedAsObjectData
280
     1
291
     1
102
ATTRRECORD}
102
{ATTRRECORD
341
13BC2
  2
AcDbDs::Legacy
280
     1
291
     1
102
ATTRRECORD}
  2
AcDbDs::ID
280
    10
 91
        8
102
{ATTRRECORD
341
13BC3
  2
AcDs:Indexable
280
     1
291
     1
102
ATTRRECORD}
102
{ATTRRECORD
341
13BC4
  2
AcDbDs::HandleAttribute
280
     7
282
     1
102
ATTRRECORD}
  2
Thumbnail_Data
280
    15
 91
        0
  0
XRECORD
  5
13BC1
102
{ACAD_REACTORS
330
13BC6
102
}
330
13BC6
100
AcDbXrecord
280
     1
  1
AcDbDs::TreatedAsObjectDataSchema
  2
AcDbDs::TreatedAsObjectData
280
     1
 91
        0
  0
XRECORD
  5
13BC2
102
{ACAD_REACTORS
330
13BC6
102
}
330
13BC6
100
AcDbXrecord
280
     1
  1
AcDbDs::LegacySchema
  2
AcDbDs::Legacy
280
     1
 91
        0
  0
XRECORD
  5
13BC3
102
{ACAD_REACTORS
330
13BC6
102
}
330
13BC6
100
AcDbXrecord
280
     1
  1
AcDbDs::IndexedPropertySchema
  2
AcDs:Indexable
280
     1
 91
        0
  0
XRECORD
  5
13BC4
102
{ACAD_REACTORS
330
13BC6
102
}
330
13BC6
100
AcDbXrecord
280
     1
  1
AcDbDs::HandleAttributeSchema
  2
AcDbDs::HandleAttribute
280
     7
 91
        1
284
     1
  0
XRECORD
  5
13C06
102
{ACAD_REACTORS
330
13B8F
102
}
330
13B8F
100
AcDbXrecord
280
     1
102
DISPLAYNAME
  1
Metric50
102
FLAGS
 90
        0
  0
XRECORD
  5
13BCB
102
{ACAD_REACTORS
330
13BCA
102
}
330
13BCA
100
AcDbXrecord
280
     1
102
SHADEPLOT
 70
     0
102
SHADEPLOTRESLEVEL
 70
     2
102
SHADEPLOTCUSTOMDPI
 70
   300
  0
XRECORD
  5
13BCD
102
{ACAD_REACTORS
330
13BCC
102
}
330
13BCC
100
AcDbXrecord
280
     1
102
SHADEPLOT
 70
     0
102
SHADEPLOTRESLEVEL
 70
     2
102
SHADEPLOTCUSTOMDPI
 70
   300
  0
XRECORD
  5
13BCF
102
{ACAD_REACTORS
330
13B1F
102
}
330
13B1F
100
AcDbXrecord
280
     1
102
MATERIAL
148
0.0
149
0.0
149
0.0
 93
        0
 94
      127
282
     0
 72
     0
 77
     0
171
     0
175
     0
179
     0
273
     0
  0
XRECORD
  5
13B21
102
{ACAD_REACTORS
330
13B1F
102
}
330
13B1F
100
AcDbXrecord
280
     1
270
     1
271
     1
  0
XRECORD
  5
13B20
102
{ACAD_REACTORS
330
13B1F
102
}
330
13B1F
100
AcDbXrecord
280
     1
270
     1
271
     1
  0
XRECORD
  5
13B24
102
{ACAD_REACTORS
330
13B1F
102
}
330
13B1F
100
AcDbXrecord
280
     1
270
     1
271
     1
  0
XRECORD
  5
13B23
102
{ACAD_REACTORS
330
13B1F
102
}
330
13B1F
100
AcDbXrecord
280
     1
270
     1
271
     1
  0
XRECORD
  5
13B25
102
{ACAD_REACTORS
330
13B1F
102
}
330
13B1F
100
AcDbXrecord
280
     1
270
     1
271
     1
  0
XRECORD
  5
13B22
102
{ACAD_REACTORS
330
13B1F
102
}
330
13B1F
100
AcDbXrecord
280
     1
270
     1
271
     1
  0
XRECORD
  5
13BCE
102
{ACAD_REACTORS
330
13B17
102
}
330
13B17
100
AcDbXrecord
280
     1
102
MATERIAL
148
0.0
149
0.0
149
0.0
 93
        0
 94
      127
282
     0
 72
     0
 77
     0
171
     0
175
     0
179
     0
273
     0
  0
XRECORD
  5
13B19
102
{ACAD_REACTORS
330
13B17
102
}
330
13B17
100
AcDbXrecord
280
     1
270
     1
271
     1
  0
XRECORD
  5
13B18
102
{ACAD_REACTORS
330
13B17
102
}
330
13B17
100
AcDbXrecord
280
     1
270
     1
271
     1
  0
XRECORD
  5
13B1C
102
{ACAD_REACTORS
330
13B17
102
}
330
13B17
100
AcDbXrecord
280
     1
270
     1
271
     1
  0
XRECORD
  5
13B1B
102
{ACAD_REACTORS
330
13B17
102
}
330
13B17
100
AcDbXrecord
280
     1
270
     1
271
     1
  0
XRECORD
  5
13B1D
102
{ACAD_REACTORS
330
13B17
102
}
330
13B17
100
AcDbXrecord
280
     1
270
     1
271
     1
  0
XRECORD
  5
13B1A
102
{ACAD_REACTORS
330
13B17
102
}
330
13B17
100
AcDbXrecord
280
     1
270
     1
271
     1
  0
XRECORD
  5
13BD0
102
{ACAD_REACTORS
330
13B27
102
}
330
13B27
100
AcDbXrecord
280
     1
102
MATERIAL
148
0.0
149
0.0
149
0.0
 93
        0
 94
      127
282
     0
 72
     0
 77
     0
171
     0
175
     0
179
     0
273
     0
  0
XRECORD
  5
13B29
102
{ACAD_REACTORS
330
13B27
102
}
330
13B27
100
AcDbXrecord
280
     1
270
     1
271
     1
  0
XRECORD
  5
13B28
102
{ACAD_REACTORS
330
13B27
102
}
330
13B27
100
AcDbXrecord
280
     1
270
     1
271
     1
  0
XRECORD
  5
13B2C
102
{ACAD_REACTORS
330
13B27
102
}
330
13B27
100
AcDbXrecord
280
     1
270
     1
271
     1
  0
XRECORD
  5
13B2B
102
{ACAD_REACTORS
330
13B27
102
}
330
13B27
100
AcDbXrecord
280
     1
270
     1
271
     1
  0
XRECORD
  5
13B2D
102
{ACAD_REACTORS
330
13B27
102
}
330
13B27
100
AcDbXrecord
280
     1
270
     1
271
     1
  0
XRECORD
  5
13B2A
102
{ACAD_REACTORS
330
13B27
102
}
330
13B27
100
AcDbXrecord
280
     1
270
     1
271
     1
  0
XRECORD
  5
13C04
102
{ACAD_REACTORS
330
13C03
102
}
330
13C03
100
AcDbXrecord
280
     1
102
ACAD_ROUNDTRIP_2012_MLEADER_STYLE
298
     1
  0
XRECORD
  5
13C05
102
{ACAD_REACTORS
330
13B8D
102
}
330
13B8D
100
AcDbXrecord
280
     1
102
DISPLAYNAME
  1
Metric50
102
FLAGS
 90
        0
  0
CELLSTYLEMAP
  5
13BBD
102
{ACAD_REACTORS
330
13BBC
102
}
330
13BBC
100
AcDbCellStyleMap
 90
        3
300
CELLSTYLE
  1
TABLEFORMAT_BEGIN
 90
        5
170
     1
 91
        0
 92
    32768
 62
   257
 93
        1
300
CONTENTFORMAT
  1
CONTENTFORMAT_BEGIN
 90
        0
 91
        0
 92
      512
 93
        0
300

 40
0.0
140
1.0
 94
        5
 62
     0
340
7475
144
6.0
309
CONTENTFORMAT_END
171
     1
301
MARGIN
  1
CELLMARGIN_BEGIN
 40
1.5
 40
1.5
 40
1.5
 40
1.5
 40
4.5
 40
4.5
309
CELLMARGIN_END
 94
        6
 95
        1
302
GRIDFORMAT
  1
GRIDFORMAT_BEGIN
 90
        0
 91
        1
 62
     0
 92
       -2
340
0
 93
        0
 40
1.125
309
GRIDFORMAT_END
 95
        2
302
GRIDFORMAT
  1
GRIDFORMAT_BEGIN
 90
        0
 91
        1
 62
     0
 92
       -2
340
0
 93
        0
 40
1.125
309
GRIDFORMAT_END
 95
        4
302
GRIDFORMAT
  1
GRIDFORMAT_BEGIN
 90
        0
 91
        1
 62
     0
 92
       -2
340
0
 93
        0
 40
1.125
309
GRIDFORMAT_END
 95
        8
302
GRIDFORMAT
  1
GRIDFORMAT_BEGIN
 90
        0
 91
        1
 62
     0
 92
       -2
340
0
 93
        0
 40
1.125
309
GRIDFORMAT_END
 95
       16
302
GRIDFORMAT
  1
GRIDFORMAT_BEGIN
 90
        0
 91
        1
 62
     0
 92
       -2
340
0
 93
        0
 40
1.125
309
GRIDFORMAT_END
 95
       32
302
GRIDFORMAT
  1
GRIDFORMAT_BEGIN
 90
        0
 91
        1
 62
     0
 92
       -2
340
0
 93
        0
 40
1.125
309
GRIDFORMAT_END
309
TABLEFORMAT_END
  1
CELLSTYLE_BEGIN
 90
        1
 91
        1
300
_TITLE
309
CELLSTYLE_END
300
CELLSTYLE
  1
TABLEFORMAT_BEGIN
 90
        5
170
     1
 91
        0
 92
        0
 62
   257
 93
        1
300
CONTENTFORMAT
  1
CONTENTFORMAT_BEGIN
 90
        0
 91
        0
 92
      512
 93
        0
300

 40
0.0
140
1.0
 94
        5
 62
     0
340
7475
144
4.5
309
CONTENTFORMAT_END
171
     1
301
MARGIN
  1
CELLMARGIN_BEGIN
 40
1.5
 40
1.5
 40
1.5
 40
1.5
 40
4.5
 40
4.5
309
CELLMARGIN_END
 94
        6
 95
        1
302
GRIDFORMAT
  1
GRIDFORMAT_BEGIN
 90
        0
 91
        1
 62
     0
 92
       -2
340
0
 93
        0
 40
1.125
309
GRIDFORMAT_END
 95
        2
302
GRIDFORMAT
  1
GRIDFORMAT_BEGIN
 90
        0
 91
        1
 62
     0
 92
       -2
340
0
 93
        0
 40
1.125
309
GRIDFORMAT_END
 95
        4
302
GRIDFORMAT
  1
GRIDFORMAT_BEGIN
 90
        0
 91
        1
 62
     0
 92
       -2
340
0
 93
        0
 40
1.125
309
GRIDFORMAT_END
 95
        8
302
GRIDFORMAT
  1
GRIDFORMAT_BEGIN
 90
        0
 91
        1
 62
     0
 92
       -2
340
0
 93
        0
 40
1.125
309
GRIDFORMAT_END
 95
       16
302
GRIDFORMAT
  1
GRIDFORMAT_BEGIN
 90
        0
 91
        1
 62
     0
 92
       -2
340
0
 93
        0
 40
1.125
309
GRIDFORMAT_END
 95
       32
302
GRIDFORMAT
  1
GRIDFORMAT_BEGIN
 90
        0
 91
        1
 62
     0
 92
       -2
340
0
 93
        0
 40
1.125
309
GRIDFORMAT_END
309
TABLEFORMAT_END
  1
CELLSTYLE_BEGIN
 90
        2
 91
        1
300
_HEADER
309
CELLSTYLE_END
300
CELLSTYLE
  1
TABLEFORMAT_BEGIN
 90
        5
170
     1
 91
        0
 92
        0
 62
   257
 93
        1
300
CONTENTFORMAT
  1
CONTENTFORMAT_BEGIN
 90
        0
 91
        0
 92
      512
 93
        0
300

 40
0.0
140
1.0
 94
        2
 62
     0
340
7475
144
4.5
309
CONTENTFORMAT_END
171
     1
301
MARGIN
  1
CELLMARGIN_BEGIN
 40
1.5
 40
1.5
 40
1.5
 40
1.5
 40
4.5
 40
4.5
309
CELLMARGIN_END
 94
        6
 95
        1
302
GRIDFORMAT
  1
GRIDFORMAT_BEGIN
 90
        0
 91
        1
 62
     0
 92
       -2
340
0
 93
        0
 40
1.125
309
GRIDFORMAT_END
 95
        2
302
GRIDFORMAT
  1
GRIDFORMAT_BEGIN
 90
        0
 91
        1
 62
     0
 92
       -2
340
0
 93
        0
 40
1.125
309
GRIDFORMAT_END
 95
        4
302
GRIDFORMAT
  1
GRIDFORMAT_BEGIN
 90
        0
 91
        1
 62
     0
 92
       -2
340
0
 93
        0
 40
1.125
309
GRIDFORMAT_END
 95
        8
302
GRIDFORMAT
  1
GRIDFORMAT_BEGIN
 90
        0
 91
        1
 62
     0
 92
       -2
340
0
 93
        0
 40
1.125
309
GRIDFORMAT_END
 95
       16
302
GRIDFORMAT
  1
GRIDFORMAT_BEGIN
 90
        0
 91
        1
 62
     0
 92
       -2
340
0
 93
        0
 40
1.125
309
GRIDFORMAT_END
 95
       32
302
GRIDFORMAT
  1
GRIDFORMAT_BEGIN
 90
        0
 91
        1
 62
     0
 92
       -2
340
0
 93
        0
 40
1.125
309
GRIDFORMAT_END
309
TABLEFORMAT_END
  1
CELLSTYLE_BEGIN
 90
        3
 91
        2
300
_DATA
309
CELLSTYLE_END
  0
XRECORD
  5
13C01
102
{ACAD_REACTORS
330
13BBC
102
}
330
13BBC
100
AcDbXrecord
280
     1
102
ACAD_ROUNDTRIP_PRE2007_TABLESTYLE
 90
      512
 91
        0
  1

 92
      512
 93
        0
  2

 94
      512
 95
        0
  3

  0
XRECORD
  5
13BDC
102
{ACAD_REACTORS
330
13BDB
102
}
330
13BDB
100
AcDbXrecord
280
     1
102
RTVSPost2010Prop28
280
     1
102
RTVSPost2010PropOp28
 70
     1
102
RTVSPost2010Prop29
280
     1
102
RTVSPost2010PropOp29
 70
     1
102
RTVSPost2010Prop30
280
     0
102
RTVSPost2010PropOp30
 70
     1
102
RTVSPost2010Prop31
280
     0
102
RTVSPost2010PropOp31
 70
     1
102
RTVSPost2010Prop32
280
     0
102
RTVSPost2010PropOp32
 70
     1
102
RTVSPost2010Prop33
280
     0
102
RTVSPost2010PropOp33
 70
     1
102
RTVSPost2010Prop34
280
     0
102
RTVSPost2010PropOp34
 70
     1
102
RTVSPost2010Prop35
280
     0
102
RTVSPost2010PropOp35
 70
     1
102
RTVSPost2010Prop36
280
     0
102
RTVSPost2010PropOp36
 70
     1
102
RTVSPost2010Prop37
 90
       50
102
RTVSPost2010PropOp37
 70
     1
102
RTVSPost2010Prop38
140
0.0
102
RTVSPost2010PropOp38
 70
     1
102
RTVSPost2010Prop39
140
1.0
102
RTVSPost2010PropOp39
 70
     1
102
RTVSPost2010Prop40
 90
        0
102
RTVSPost2010PropOp40
 70
     1
102
RTVSPost2010Prop41ColorIndex
 90
       18
102
RTVSPost2010Prop41ColorRGB
 90
        0
102
RTVSPost2010PropOp41
 70
     1
102
RTVSPost2010Prop42
 90
       50
102
RTVSPost2010PropOp42
 70
     1
102
RTVSPost2010Prop43
 90
        3
102
RTVSPost2010PropOp43
 70
     1
102
RTVSPost2010Prop44ColorIndex
 90
        5
102
RTVSPost2010Prop44ColorRGB
 90
      255
102
RTVSPost2010PropOp44
 70
     1
102
RTVSPost2010Prop45
280
     0
102
RTVSPost2010PropOp45
 70
     1
102
RTVSPost2010Prop46
 90
       50
102
RTVSPost2010PropOp46
 70
     1
102
RTVSPost2010Prop47
 90
       50
102
RTVSPost2010PropOp47
 70
     1
102
RTVSPost2010Prop48
 90
       50
102
RTVSPost2010PropOp48
 70
     1
102
RTVSPost2010Prop49
280
     0
102
RTVSPost2010PropOp49
 70
     1
102
RTVSPost2010Prop50
 90
       50
102
RTVSPost2010PropOp50
 70
     1
102
RTVSPost2010Prop51ColorIndex
 90
      256
102
RTVSPost2010Prop51ColorRGB
 90
-16777216
102
RTVSPost2010PropOp51
 70
     0
102
RTVSPost2010Prop52
140
1.0
102
RTVSPost2010PropOp52
 70
     0
102
RTVSPost2010Prop53
 90
        2
102
RTVSPost2010PropOp53
 70
     1
102
RTVSPost2010Prop54
  1
strokes_ogs.tif
102
RTVSPost2010PropOp54
 70
     1
102
RTVSPost2010Prop55
280
     0
102
RTVSPost2010PropOp55
 70
     1
102
RTVSPost2010Prop56
140
1.0
102
RTVSPost2010PropOp56
 70
     1
102
RTVSPost2010Prop57
140
1.0
102
RTVSPost2010PropOp57
 70
     1
102
RTVSPropertyOp0
 70
     1
102
RTVSPropertyOp1
 70
     1
102
RTVSPropertyOp2
 70
     1
102
RTVSPropertyOp3
 70
     1
102
RTVSPropertyOp4
 70
     1
102
RTVSPropertyOp5
 70
     1
102
RTVSPropertyOp6
 70
     1
102
RTVSPropertyOp7
 70
     1
102
RTVSPropertyOp8
 70
     1
102
RTVSPropertyOp9
 70
     1
102
RTVSPropertyOp10
 70
     1
102
RTVSPropertyOp11
 70
     1
102
RTVSPropertyOp12
 70
     1
102
RTVSPropertyOp13
 70
     1
102
RTVSPropertyOp14
 70
     1
102
RTVSPropertyOp15
 70
     1
102
RTVSPropertyOp16
 70
     1
102
RTVSPropertyOp17
 70
     1
102
RTVSPropertyOp18
 70
     1
102
RTVSPropertyOp19
 70
     1
102
RTVSPropertyOp20
 70
     1
102
RTVSPropertyOp21
 70
     1
102
RTVSPropertyOp22
 70
     1
102
RTVSPropertyOp23
 70
     1
102
RTVSPropertyOp24
 70
     1
102
RTVSPropertyOp25
 70
     1
102
RTVSPropertyOp26
 70
     1
102
RTVSPropertyOp27
 70
     1
102
RTVSPropertyOp28
 70
     1
102
RTVSPropertyOp29
 70
     1
102
RTVSPropertyOp30
 70
     1
102
RTVSPropertyOp31
 70
     1
102
RTVSPropertyOp32
 70
     1
102
RTVSPropertyOp33
 70
     1
102
RTVSPropertyOp34
 70
     1
102
RTVSPropertyOp35
 70
     1
102
RTVSPropertyOp36
 70
     1
102
RTVSPropertyOp37
 70
     1
102
RTVSPropertyOp38
 70
     1
102
RTVSPropertyOp39
 70
     1
102
RTVSPropertyOp40
 70
     1
102
RTVSPropertyOp41
 70
     1
102
RTVSPropertyOp42
 70
     1
102
RTVSPropertyOp43
 70
     1
102
RTVSPropertyOp44
 70
     1
102
RTVSPropertyOp45
 70
     1
102
RTVSPropertyOp46
 70
     1
102
RTVSPropertyOp47
 70
     1
102
RTVSPropertyOp48
 70
     1
102
RTVSPropertyOp49
 70
     1
102
RTVSPropertyOp50
 70
     1
102
RTVSPropertyOp51
 70
     0
102
RTVSPropertyOp52
 70
     0
102
RTVSPropertyOp53
 70
     1
102
RTVSPropertyOp54
 70
     1
102
RTVSPropertyOp55
 70
     1
102
RTVSPropertyOp56
 70
     1
102
RTVSPropertyOp57
 70
     1
102
RTVSPropertyOp58
 70
     1
102
RTVSPropertyOp59
 70
     1
102
RTVSPropertyOp60
 70
     1
102
RTVSPropertyOp61
 70
     1
102
RTVSPropertyOp62
 70
     1
  0
XRECORD
  5
13BDA
102
{ACAD_REACTORS
330
13BD9
102
}
330
13BD9
100
AcDbXrecord
280
     1
102
RTVSPost2010Prop28
280
     0
102
RTVSPost2010PropOp28
 70
     1
102
RTVSPost2010Prop29
280
     1
102
RTVSPost2010PropOp29
 70
     1
102
RTVSPost2010Prop30
280
     1
102
RTVSPost2010PropOp30
 70
     1
102
RTVSPost2010Prop31
280
     0
102
RTVSPost2010PropOp31
 70
     1
102
RTVSPost2010Prop32
280
     0
102
RTVSPost2010PropOp32
 70
     1
102
RTVSPost2010Prop33
280
     0
102
RTVSPost2010PropOp33
 70
     1
102
RTVSPost2010Prop34
280
     0
102
RTVSPost2010PropOp34
 70
     1
102
RTVSPost2010Prop35
280
     0
102
RTVSPost2010PropOp35
 70
     1
102
RTVSPost2010Prop36
280
     0
102
RTVSPost2010PropOp36
 70
     1
102
RTVSPost2010Prop37
 90
       50
102
RTVSPost2010PropOp37
 70
     1
102
RTVSPost2010Prop38
140
0.0
102
RTVSPost2010PropOp38
 70
     1
102
RTVSPost2010Prop39
140
1.0
102
RTVSPost2010PropOp39
 70
     1
102
RTVSPost2010Prop40
 90
        0
102
RTVSPost2010PropOp40
 70
     1
102
RTVSPost2010Prop41ColorIndex
 90
       18
102
RTVSPost2010Prop41ColorRGB
 90
        0
102
RTVSPost2010PropOp41
 70
     1
102
RTVSPost2010Prop42
 90
       50
102
RTVSPost2010PropOp42
 70
     1
102
RTVSPost2010Prop43
 90
        3
102
RTVSPost2010PropOp43
 70
     1
102
RTVSPost2010Prop44ColorIndex
 90
        5
102
RTVSPost2010Prop44ColorRGB
 90
      255
102
RTVSPost2010PropOp44
 70
     1
102
RTVSPost2010Prop45
280
     0
102
RTVSPost2010PropOp45
 70
     1
102
RTVSPost2010Prop46
 90
       50
102
RTVSPost2010PropOp46
 70
     1
102
RTVSPost2010Prop47
 90
       50
102
RTVSPost2010PropOp47
 70
     1
102
RTVSPost2010Prop48
 90
       50
102
RTVSPost2010PropOp48
 70
     1
102
RTVSPost2010Prop49
280
     0
102
RTVSPost2010PropOp49
 70
     1
102
RTVSPost2010Prop50
 90
       50
102
RTVSPost2010PropOp50
 70
     1
102
RTVSPost2010Prop51ColorIndex
 90
      256
102
RTVSPost2010Prop51ColorRGB
 90
-16777216
102
RTVSPost2010PropOp51
 70
     0
102
RTVSPost2010Prop52
140
1.0
102
RTVSPost2010PropOp52
 70
     0
102
RTVSPost2010Prop53
 90
        2
102
RTVSPost2010PropOp53
 70
     1
102
RTVSPost2010Prop54
  1
strokes_ogs.tif
102
RTVSPost2010PropOp54
 70
     1
102
RTVSPost2010Prop55
280
     0
102
RTVSPost2010PropOp55
 70
     1
102
RTVSPost2010Prop56
140
1.0
102
RTVSPost2010PropOp56
 70
     1
102
RTVSPost2010Prop57
140
1.0
102
RTVSPost2010PropOp57
 70
     1
102
RTVSPropertyOp0
 70
     1
102
RTVSPropertyOp1
 70
     1
102
RTVSPropertyOp2
 70
     1
102
RTVSPropertyOp3
 70
     1
102
RTVSPropertyOp4
 70
     1
102
RTVSPropertyOp5
 70
     1
102
RTVSPropertyOp6
 70
     1
102
RTVSPropertyOp7
 70
     1
102
RTVSPropertyOp8
 70
     1
102
RTVSPropertyOp9
 70
     1
102
RTVSPropertyOp10
 70
     1
102
RTVSPropertyOp11
 70
     1
102
RTVSPropertyOp12
 70
     1
102
RTVSPropertyOp13
 70
     1
102
RTVSPropertyOp14
 70
     1
102
RTVSPropertyOp15
 70
     1
102
RTVSPropertyOp16
 70
     1
102
RTVSPropertyOp17
 70
     1
102
RTVSPropertyOp18
 70
     1
102
RTVSPropertyOp19
 70
     1
102
RTVSPropertyOp20
 70
     1
102
RTVSPropertyOp21
 70
     1
102
RTVSPropertyOp22
 70
     1
102
RTVSPropertyOp23
 70
     1
102
RTVSPropertyOp24
 70
     1
102
RTVSPropertyOp25
 70
     1
102
RTVSPropertyOp26
 70
     1
102
RTVSPropertyOp27
 70
     1
102
RTVSPropertyOp28
 70
     1
102
RTVSPropertyOp29
 70
     1
102
RTVSPropertyOp30
 70
     1
102
RTVSPropertyOp31
 70
     1
102
RTVSPropertyOp32
 70
     1
102
RTVSPropertyOp33
 70
     1
102
RTVSPropertyOp34
 70
     1
102
RTVSPropertyOp35
 70
     1
102
RTVSPropertyOp36
 70
     1
102
RTVSPropertyOp37
 70
     1
102
RTVSPropertyOp38
 70
     1
102
RTVSPropertyOp39
 70
     1
102
RTVSPropertyOp40
 70
     1
102
RTVSPropertyOp41
 70
     1
102
RTVSPropertyOp42
 70
     1
102
RTVSPropertyOp43
 70
     1
102
RTVSPropertyOp44
 70
     1
102
RTVSPropertyOp45
 70
     1
102
RTVSPropertyOp46
 70
     1
102
RTVSPropertyOp47
 70
     1
102
RTVSPropertyOp48
 70
     1
102
RTVSPropertyOp49
 70
     1
102
RTVSPropertyOp50
 70
     1
102
RTVSPropertyOp51
 70
     0
102
RTVSPropertyOp52
 70
     0
102
RTVSPropertyOp53
 70
     1
102
RTVSPropertyOp54
 70
     1
102
RTVSPropertyOp55
 70
     1
102
RTVSPropertyOp56
 70
     1
102
RTVSPropertyOp57
 70
     1
102
RTVSPropertyOp58
 70
     1
102
RTVSPropertyOp59
 70
     1
102
RTVSPropertyOp60
 70
     1
102
RTVSPropertyOp61
 70
     1
102
RTVSPropertyOp62
 70
     1
  0
XRECORD
  5
13BE8
102
{ACAD_REACTORS
330
13BE7
102
}
330
13BE7
100
AcDbXrecord
280
     1
102
RTVSPost2010Prop28
280
     0
102
RTVSPost2010PropOp28
 70
     1
102
RTVSPost2010Prop29
280
     1
102
RTVSPost2010PropOp29
 70
     1
102
RTVSPost2010Prop30
280
     1
102
RTVSPost2010PropOp30
 70
     1
102
RTVSPost2010Prop31
280
     0
102
RTVSPost2010PropOp31
 70
     1
102
RTVSPost2010Prop32
280
     0
102
RTVSPost2010PropOp32
 70
     1
102
RTVSPost2010Prop33
280
     0
102
RTVSPost2010PropOp33
 70
     1
102
RTVSPost2010Prop34
280
     0
102
RTVSPost2010PropOp34
 70
     1
102
RTVSPost2010Prop35
280
     0
102
RTVSPost2010PropOp35
 70
     1
102
RTVSPost2010Prop36
280
     0
102
RTVSPost2010PropOp36
 70
     1
102
RTVSPost2010Prop37
 90
       50
102
RTVSPost2010PropOp37
 70
     1
102
RTVSPost2010Prop38
140
0.0
102
RTVSPost2010PropOp38
 70
     1
102
RTVSPost2010Prop39
140
1.0
102
RTVSPost2010PropOp39
 70
     1
102
RTVSPost2010Prop40
 90
        0
102
RTVSPost2010PropOp40
 70
     1
102
RTVSPost2010Prop41ColorIndex
 90
       18
102
RTVSPost2010Prop41ColorRGB
 90
        0
102
RTVSPost2010PropOp41
 70
     1
102
RTVSPost2010Prop42
 90
       50
102
RTVSPost2010PropOp42
 70
     1
102
RTVSPost2010Prop43
 90
        3
102
RTVSPost2010PropOp43
 70
     1
102
RTVSPost2010Prop44ColorIndex
 90
        5
102
RTVSPost2010Prop44ColorRGB
 90
      255
102
RTVSPost2010PropOp44
 70
     1
102
RTVSPost2010Prop45
280
     0
102
RTVSPost2010PropOp45
 70
     1
102
RTVSPost2010Prop46
 90
       50
102
RTVSPost2010PropOp46
 70
     1
102
RTVSPost2010Prop47
 90
       50
102
RTVSPost2010PropOp47
 70
     1
102
RTVSPost2010Prop48
 90
       50
102
RTVSPost2010PropOp48
 70
     1
102
RTVSPost2010Prop49
280
     0
102
RTVSPost2010PropOp49
 70
     1
102
RTVSPost2010Prop50
 90
       50
102
RTVSPost2010PropOp50
 70
     1
102
RTVSPost2010Prop51ColorIndex
 90
      256
102
RTVSPost2010Prop51ColorRGB
 90
-16777216
102
RTVSPost2010PropOp51
 70
     0
102
RTVSPost2010Prop52
140
1.0
102
RTVSPost2010PropOp52
 70
     0
102
RTVSPost2010Prop53
 90
        2
102
RTVSPost2010PropOp53
 70
     1
102
RTVSPost2010Prop54
  1
strokes_ogs.tif
102
RTVSPost2010PropOp54
 70
     1
102
RTVSPost2010Prop55
280
     0
102
RTVSPost2010PropOp55
 70
     1
102
RTVSPost2010Prop56
140
1.0
102
RTVSPost2010PropOp56
 70
     1
102
RTVSPost2010Prop57
140
1.0
102
RTVSPost2010PropOp57
 70
     1
102
RTVSPropertyOp0
 70
     1
102
RTVSPropertyOp1
 70
     1
102
RTVSPropertyOp2
 70
     1
102
RTVSPropertyOp3
 70
     1
102
RTVSPropertyOp4
 70
     1
102
RTVSPropertyOp5
 70
     1
102
RTVSPropertyOp6
 70
     1
102
RTVSPropertyOp7
 70
     1
102
RTVSPropertyOp8
 70
     1
102
RTVSPropertyOp9
 70
     1
102
RTVSPropertyOp10
 70
     1
102
RTVSPropertyOp11
 70
     1
102
RTVSPropertyOp12
 70
     1
102
RTVSPropertyOp13
 70
     1
102
RTVSPropertyOp14
 70
     1
102
RTVSPropertyOp15
 70
     1
102
RTVSPropertyOp16
 70
     1
102
RTVSPropertyOp17
 70
     1
102
RTVSPropertyOp18
 70
     1
102
RTVSPropertyOp19
 70
     1
102
RTVSPropertyOp20
 70
     1
102
RTVSPropertyOp21
 70
     1
102
RTVSPropertyOp22
 70
     1
102
RTVSPropertyOp23
 70
     1
102
RTVSPropertyOp24
 70
     1
102
RTVSPropertyOp25
 70
     1
102
RTVSPropertyOp26
 70
     1
102
RTVSPropertyOp27
 70
     1
102
RTVSPropertyOp28
 70
     1
102
RTVSPropertyOp29
 70
     1
102
RTVSPropertyOp30
 70
     1
102
RTVSPropertyOp31
 70
     1
102
RTVSPropertyOp32
 70
     1
102
RTVSPropertyOp33
 70
     1
102
RTVSPropertyOp34
 70
     1
102
RTVSPropertyOp35
 70
     1
102
RTVSPropertyOp36
 70
     1
102
RTVSPropertyOp37
 70
     1
102
RTVSPropertyOp38
 70
     1
102
RTVSPropertyOp39
 70
     1
102
RTVSPropertyOp40
 70
     1
102
RTVSPropertyOp41
 70
     1
102
RTVSPropertyOp42
 70
     1
102
RTVSPropertyOp43
 70
     1
102
RTVSPropertyOp44
 70
     1
102
RTVSPropertyOp45
 70
     1
102
RTVSPropertyOp46
 70
     1
102
RTVSPropertyOp47
 70
     1
102
RTVSPropertyOp48
 70
     1
102
RTVSPropertyOp49
 70
     1
102
RTVSPropertyOp50
 70
     1
102
RTVSPropertyOp51
 70
     0
102
RTVSPropertyOp52
 70
     0
102
RTVSPropertyOp53
 70
     1
102
RTVSPropertyOp54
 70
     1
102
RTVSPropertyOp55
 70
     1
102
RTVSPropertyOp56
 70
     1
102
RTVSPropertyOp57
 70
     1
102
RTVSPropertyOp58
 70
     1
102
RTVSPropertyOp59
 70
     1
102
RTVSPropertyOp60
 70
     1
102
RTVSPropertyOp61
 70
     1
102
RTVSPropertyOp62
 70
     1
  0
XRECORD
  5
13BF0
102
{ACAD_REACTORS
330
13BEF
102
}
330
13BEF
100
AcDbXrecord
280
     1
102
RTVSPost2010Prop28
280
     0
102
RTVSPost2010PropOp28
 70
     1
102
RTVSPost2010Prop29
280
     1
102
RTVSPost2010PropOp29
 70
     1
102
RTVSPost2010Prop30
280
     1
102
RTVSPost2010PropOp30
 70
     1
102
RTVSPost2010Prop31
280
     0
102
RTVSPost2010PropOp31
 70
     1
102
RTVSPost2010Prop32
280
     0
102
RTVSPost2010PropOp32
 70
     1
102
RTVSPost2010Prop33
280
     0
102
RTVSPost2010PropOp33
 70
     1
102
RTVSPost2010Prop34
280
     0
102
RTVSPost2010PropOp34
 70
     1
102
RTVSPost2010Prop35
280
     0
102
RTVSPost2010PropOp35
 70
     1
102
RTVSPost2010Prop36
280
     0
102
RTVSPost2010PropOp36
 70
     1
102
RTVSPost2010Prop37
 90
       50
102
RTVSPost2010PropOp37
 70
     1
102
RTVSPost2010Prop38
140
0.0
102
RTVSPost2010PropOp38
 70
     1
102
RTVSPost2010Prop39
140
1.0
102
RTVSPost2010PropOp39
 70
     1
102
RTVSPost2010Prop40
 90
        0
102
RTVSPost2010PropOp40
 70
     1
102
RTVSPost2010Prop41ColorIndex
 90
       18
102
RTVSPost2010Prop41ColorRGB
 90
        0
102
RTVSPost2010PropOp41
 70
     1
102
RTVSPost2010Prop42
 90
       50
102
RTVSPost2010PropOp42
 70
     1
102
RTVSPost2010Prop43
 90
        3
102
RTVSPost2010PropOp43
 70
     1
102
RTVSPost2010Prop44ColorIndex
 90
        5
102
RTVSPost2010Prop44ColorRGB
 90
      255
102
RTVSPost2010PropOp44
 70
     1
102
RTVSPost2010Prop45
280
     0
102
RTVSPost2010PropOp45
 70
     1
102
RTVSPost2010Prop46
 90
       50
102
RTVSPost2010PropOp46
 70
     1
102
RTVSPost2010Prop47
 90
       50
102
RTVSPost2010PropOp47
 70
     1
102
RTVSPost2010Prop48
 90
       50
102
RTVSPost2010PropOp48
 70
     1
102
RTVSPost2010Prop49
280
     0
102
RTVSPost2010PropOp49
 70
     1
102
RTVSPost2010Prop50
 90
       50
102
RTVSPost2010PropOp50
 70
     1
102
RTVSPost2010Prop51ColorIndex
 90
      256
102
RTVSPost2010Prop51ColorRGB
 90
-16777216
102
RTVSPost2010PropOp51
 70
     0
102
RTVSPost2010Prop52
140
1.0
102
RTVSPost2010PropOp52
 70
     0
102
RTVSPost2010Prop53
 90
        2
102
RTVSPost2010PropOp53
 70
     1
102
RTVSPost2010Prop54
  1
strokes_ogs.tif
102
RTVSPost2010PropOp54
 70
     1
102
RTVSPost2010Prop55
280
     0
102
RTVSPost2010PropOp55
 70
     1
102
RTVSPost2010Prop56
140
1.0
102
RTVSPost2010PropOp56
 70
     1
102
RTVSPost2010Prop57
140
1.0
102
RTVSPost2010PropOp57
 70
     1
102
RTVSPropertyOp0
 70
     1
102
RTVSPropertyOp1
 70
     1
102
RTVSPropertyOp2
 70
     1
102
RTVSPropertyOp3
 70
     1
102
RTVSPropertyOp4
 70
     1
102
RTVSPropertyOp5
 70
     1
102
RTVSPropertyOp6
 70
     1
102
RTVSPropertyOp7
 70
     1
102
RTVSPropertyOp8
 70
     1
102
RTVSPropertyOp9
 70
     1
102
RTVSPropertyOp10
 70
     1
102
RTVSPropertyOp11
 70
     1
102
RTVSPropertyOp12
 70
     1
102
RTVSPropertyOp13
 70
     1
102
RTVSPropertyOp14
 70
     1
102
RTVSPropertyOp15
 70
     1
102
RTVSPropertyOp16
 70
     1
102
RTVSPropertyOp17
 70
     1
102
RTVSPropertyOp18
 70
     1
102
RTVSPropertyOp19
 70
     1
102
RTVSPropertyOp20
 70
     1
102
RTVSPropertyOp21
 70
     1
102
RTVSPropertyOp22
 70
     1
102
RTVSPropertyOp23
 70
     1
102
RTVSPropertyOp24
 70
     1
102
RTVSPropertyOp25
 70
     1
102
RTVSPropertyOp26
 70
     1
102
RTVSPropertyOp27
 70
     1
102
RTVSPropertyOp28
 70
     1
102
RTVSPropertyOp29
 70
     1
102
RTVSPropertyOp30
 70
     1
102
RTVSPropertyOp31
 70
     1
102
RTVSPropertyOp32
 70
     1
102
RTVSPropertyOp33
 70
     1
102
RTVSPropertyOp34
 70
     1
102
RTVSPropertyOp35
 70
     1
102
RTVSPropertyOp36
 70
     1
102
RTVSPropertyOp37
 70
     1
102
RTVSPropertyOp38
 70
     1
102
RTVSPropertyOp39
 70
     1
102
RTVSPropertyOp40
 70
     1
102
RTVSPropertyOp41
 70
     1
102
RTVSPropertyOp42
 70
     1
102
RTVSPropertyOp43
 70
     1
102
RTVSPropertyOp44
 70
     1
102
RTVSPropertyOp45
 70
     1
102
RTVSPropertyOp46
 70
     1
102
RTVSPropertyOp47
 70
     1
102
RTVSPropertyOp48
 70
     1
102
RTVSPropertyOp49
 70
     1
102
RTVSPropertyOp50
 70
     1
102
RTVSPropertyOp51
 70
     0
102
RTVSPropertyOp52
 70
     0
102
RTVSPropertyOp53
 70
     1
102
RTVSPropertyOp54
 70
     1
102
RTVSPropertyOp55
 70
     1
102
RTVSPropertyOp56
 70
     1
102
RTVSPropertyOp57
 70
     1
102
RTVSPropertyOp58
 70
     1
102
RTVSPropertyOp59
 70
     1
102
RTVSPropertyOp60
 70
     1
102
RTVSPropertyOp61
 70
     1
102
RTVSPropertyOp62
 70
     1
  0
XRECORD
  5
13BE2
102
{ACAD_REACTORS
330
13BE1
102
}
330
13BE1
100
AcDbXrecord
280
     1
102
RTVSPost2010Prop28
280
     0
102
RTVSPost2010PropOp28
 70
     1
102
RTVSPost2010Prop29
280
     1
102
RTVSPost2010PropOp29
 70
     1
102
RTVSPost2010Prop30
280
     1
102
RTVSPost2010PropOp30
 70
     1
102
RTVSPost2010Prop31
280
     0
102
RTVSPost2010PropOp31
 70
     1
102
RTVSPost2010Prop32
280
     0
102
RTVSPost2010PropOp32
 70
     1
102
RTVSPost2010Prop33
280
     0
102
RTVSPost2010PropOp33
 70
     1
102
RTVSPost2010Prop34
280
     0
102
RTVSPost2010PropOp34
 70
     1
102
RTVSPost2010Prop35
280
     0
102
RTVSPost2010PropOp35
 70
     1
102
RTVSPost2010Prop36
280
     0
102
RTVSPost2010PropOp36
 70
     1
102
RTVSPost2010Prop37
 90
       50
102
RTVSPost2010PropOp37
 70
     1
102
RTVSPost2010Prop38
140
0.0
102
RTVSPost2010PropOp38
 70
     1
102
RTVSPost2010Prop39
140
1.0
102
RTVSPost2010PropOp39
 70
     1
102
RTVSPost2010Prop40
 90
        0
102
RTVSPost2010PropOp40
 70
     1
102
RTVSPost2010Prop41ColorIndex
 90
       18
102
RTVSPost2010Prop41ColorRGB
 90
        0
102
RTVSPost2010PropOp41
 70
     1
102
RTVSPost2010Prop42
 90
       50
102
RTVSPost2010PropOp42
 70
     1
102
RTVSPost2010Prop43
 90
        3
102
RTVSPost2010PropOp43
 70
     1
102
RTVSPost2010Prop44ColorIndex
 90
        5
102
RTVSPost2010Prop44ColorRGB
 90
      255
102
RTVSPost2010PropOp44
 70
     1
102
RTVSPost2010Prop45
280
     0
102
RTVSPost2010PropOp45
 70
     1
102
RTVSPost2010Prop46
 90
       50
102
RTVSPost2010PropOp46
 70
     1
102
RTVSPost2010Prop47
 90
       50
102
RTVSPost2010PropOp47
 70
     1
102
RTVSPost2010Prop48
 90
       50
102
RTVSPost2010PropOp48
 70
     1
102
RTVSPost2010Prop49
280
     0
102
RTVSPost2010PropOp49
 70
     1
102
RTVSPost2010Prop50
 90
       50
102
RTVSPost2010PropOp50
 70
     1
102
RTVSPost2010Prop51ColorIndex
 90
      256
102
RTVSPost2010Prop51ColorRGB
 90
-16777216
102
RTVSPost2010PropOp51
 70
     0
102
RTVSPost2010Prop52
140
1.0
102
RTVSPost2010PropOp52
 70
     0
102
RTVSPost2010Prop53
 90
        2
102
RTVSPost2010PropOp53
 70
     1
102
RTVSPost2010Prop54
  1
strokes_ogs.tif
102
RTVSPost2010PropOp54
 70
     1
102
RTVSPost2010Prop55
280
     0
102
RTVSPost2010PropOp55
 70
     1
102
RTVSPost2010Prop56
140
1.0
102
RTVSPost2010PropOp56
 70
     1
102
RTVSPost2010Prop57
140
1.0
102
RTVSPost2010PropOp57
 70
     1
102
RTVSPropertyOp0
 70
     1
102
RTVSPropertyOp1
 70
     1
102
RTVSPropertyOp2
 70
     1
102
RTVSPropertyOp3
 70
     1
102
RTVSPropertyOp4
 70
     1
102
RTVSPropertyOp5
 70
     1
102
RTVSPropertyOp6
 70
     1
102
RTVSPropertyOp7
 70
     1
102
RTVSPropertyOp8
 70
     1
102
RTVSPropertyOp9
 70
     1
102
RTVSPropertyOp10
 70
     1
102
RTVSPropertyOp11
 70
     1
102
RTVSPropertyOp12
 70
     1
102
RTVSPropertyOp13
 70
     1
102
RTVSPropertyOp14
 70
     1
102
RTVSPropertyOp15
 70
     1
102
RTVSPropertyOp16
 70
     1
102
RTVSPropertyOp17
 70
     1
102
RTVSPropertyOp18
 70
     1
102
RTVSPropertyOp19
 70
     1
102
RTVSPropertyOp20
 70
     1
102
RTVSPropertyOp21
 70
     1
102
RTVSPropertyOp22
 70
     1
102
RTVSPropertyOp23
 70
     1
102
RTVSPropertyOp24
 70
     1
102
RTVSPropertyOp25
 70
     1
102
RTVSPropertyOp26
 70
     1
102
RTVSPropertyOp27
 70
     1
102
RTVSPropertyOp28
 70
     1
102
RTVSPropertyOp29
 70
     1
102
RTVSPropertyOp30
 70
     1
102
RTVSPropertyOp31
 70
     1
102
RTVSPropertyOp32
 70
     1
102
RTVSPropertyOp33
 70
     1
102
RTVSPropertyOp34
 70
     1
102
RTVSPropertyOp35
 70
     1
102
RTVSPropertyOp36
 70
     1
102
RTVSPropertyOp37
 70
     1
102
RTVSPropertyOp38
 70
     1
102
RTVSPropertyOp39
 70
     1
102
RTVSPropertyOp40
 70
     1
102
RTVSPropertyOp41
 70
     1
102
RTVSPropertyOp42
 70
     1
102
RTVSPropertyOp43
 70
     1
102
RTVSPropertyOp44
 70
     1
102
RTVSPropertyOp45
 70
     1
102
RTVSPropertyOp46
 70
     1
102
RTVSPropertyOp47
 70
     1
102
RTVSPropertyOp48
 70
     1
102
RTVSPropertyOp49
 70
     1
102
RTVSPropertyOp50
 70
     1
102
RTVSPropertyOp51
 70
     0
102
RTVSPropertyOp52
 70
     0
102
RTVSPropertyOp53
 70
     1
102
RTVSPropertyOp54
 70
     1
102
RTVSPropertyOp55
 70
     1
102
RTVSPropertyOp56
 70
     1
102
RTVSPropertyOp57
 70
     1
102
RTVSPropertyOp58
 70
     1
102
RTVSPropertyOp59
 70
     1
102
RTVSPropertyOp60
 70
     1
102
RTVSPropertyOp61
 70
     1
102
RTVSPropertyOp62
 70
     1
  0
XRECORD
  5
13BE6
102
{ACAD_REACTORS
330
13BE5
102
}
330
13BE5
100
AcDbXrecord
280
     1
102
RTVSPost2010Prop28
280
     0
102
RTVSPost2010PropOp28
 70
     1
102
RTVSPost2010Prop29
280
     1
102
RTVSPost2010PropOp29
 70
     1
102
RTVSPost2010Prop30
280
     1
102
RTVSPost2010PropOp30
 70
     1
102
RTVSPost2010Prop31
280
     0
102
RTVSPost2010PropOp31
 70
     1
102
RTVSPost2010Prop32
280
     0
102
RTVSPost2010PropOp32
 70
     1
102
RTVSPost2010Prop33
280
     0
102
RTVSPost2010PropOp33
 70
     1
102
RTVSPost2010Prop34
280
     0
102
RTVSPost2010PropOp34
 70
     1
102
RTVSPost2010Prop35
280
     0
102
RTVSPost2010PropOp35
 70
     1
102
RTVSPost2010Prop36
280
     0
102
RTVSPost2010PropOp36
 70
     1
102
RTVSPost2010Prop37
 90
       50
102
RTVSPost2010PropOp37
 70
     1
102
RTVSPost2010Prop38
140
0.0
102
RTVSPost2010PropOp38
 70
     1
102
RTVSPost2010Prop39
140
1.0
102
RTVSPost2010PropOp39
 70
     1
102
RTVSPost2010Prop40
 90
        0
102
RTVSPost2010PropOp40
 70
     1
102
RTVSPost2010Prop41ColorIndex
 90
       18
102
RTVSPost2010Prop41ColorRGB
 90
        0
102
RTVSPost2010PropOp41
 70
     1
102
RTVSPost2010Prop42
 90
       50
102
RTVSPost2010PropOp42
 70
     1
102
RTVSPost2010Prop43
 90
        3
102
RTVSPost2010PropOp43
 70
     1
102
RTVSPost2010Prop44ColorIndex
 90
        5
102
RTVSPost2010Prop44ColorRGB
 90
      255
102
RTVSPost2010PropOp44
 70
     1
102
RTVSPost2010Prop45
280
     0
102
RTVSPost2010PropOp45
 70
     1
102
RTVSPost2010Prop46
 90
       50
102
RTVSPost2010PropOp46
 70
     1
102
RTVSPost2010Prop47
 90
       50
102
RTVSPost2010PropOp47
 70
     1
102
RTVSPost2010Prop48
 90
       50
102
RTVSPost2010PropOp48
 70
     1
102
RTVSPost2010Prop49
280
     0
102
RTVSPost2010PropOp49
 70
     1
102
RTVSPost2010Prop50
 90
       50
102
RTVSPost2010PropOp50
 70
     1
102
RTVSPost2010Prop51ColorIndex
 90
      256
102
RTVSPost2010Prop51ColorRGB
 90
-16777216
102
RTVSPost2010PropOp51
 70
     0
102
RTVSPost2010Prop52
140
1.0
102
RTVSPost2010PropOp52
 70
     0
102
RTVSPost2010Prop53
 90
        2
102
RTVSPost2010PropOp53
 70
     1
102
RTVSPost2010Prop54
  1
strokes_ogs.tif
102
RTVSPost2010PropOp54
 70
     1
102
RTVSPost2010Prop55
280
     0
102
RTVSPost2010PropOp55
 70
     1
102
RTVSPost2010Prop56
140
1.0
102
RTVSPost2010PropOp56
 70
     1
102
RTVSPost2010Prop57
140
1.0
102
RTVSPost2010PropOp57
 70
     1
102
RTVSPropertyOp0
 70
     1
102
RTVSPropertyOp1
 70
     1
102
RTVSPropertyOp2
 70
     1
102
RTVSPropertyOp3
 70
     1
102
RTVSPropertyOp4
 70
     1
102
RTVSPropertyOp5
 70
     1
102
RTVSPropertyOp6
 70
     1
102
RTVSPropertyOp7
 70
     1
102
RTVSPropertyOp8
 70
     1
102
RTVSPropertyOp9
 70
     1
102
RTVSPropertyOp10
 70
     1
102
RTVSPropertyOp11
 70
     1
102
RTVSPropertyOp12
 70
     1
102
RTVSPropertyOp13
 70
     1
102
RTVSPropertyOp14
 70
     1
102
RTVSPropertyOp15
 70
     1
102
RTVSPropertyOp16
 70
     1
102
RTVSPropertyOp17
 70
     1
102
RTVSPropertyOp18
 70
     1
102
RTVSPropertyOp19
 70
     1
102
RTVSPropertyOp20
 70
     1
102
RTVSPropertyOp21
 70
     1
102
RTVSPropertyOp22
 70
     1
102
RTVSPropertyOp23
 70
     1
102
RTVSPropertyOp24
 70
     1
102
RTVSPropertyOp25
 70
     1
102
RTVSPropertyOp26
 70
     1
102
RTVSPropertyOp27
 70
     1
102
RTVSPropertyOp28
 70
     1
102
RTVSPropertyOp29
 70
     1
102
RTVSPropertyOp30
 70
     1
102
RTVSPropertyOp31
 70
     1
102
RTVSPropertyOp32
 70
     1
102
RTVSPropertyOp33
 70
     1
102
RTVSPropertyOp34
 70
     1
102
RTVSPropertyOp35
 70
     1
102
RTVSPropertyOp36
 70
     1
102
RTVSPropertyOp37
 70
     1
102
RTVSPropertyOp38
 70
     1
102
RTVSPropertyOp39
 70
     1
102
RTVSPropertyOp40
 70
     1
102
RTVSPropertyOp41
 70
     1
102
RTVSPropertyOp42
 70
     1
102
RTVSPropertyOp43
 70
     1
102
RTVSPropertyOp44
 70
     1
102
RTVSPropertyOp45
 70
     1
102
RTVSPropertyOp46
 70
     1
102
RTVSPropertyOp47
 70
     1
102
RTVSPropertyOp48
 70
     1
102
RTVSPropertyOp49
 70
     1
102
RTVSPropertyOp50
 70
     1
102
RTVSPropertyOp51
 70
     0
102
RTVSPropertyOp52
 70
     0
102
RTVSPropertyOp53
 70
     1
102
RTVSPropertyOp54
 70
     1
102
RTVSPropertyOp55
 70
     1
102
RTVSPropertyOp56
 70
     1
102
RTVSPropertyOp57
 70
     1
102
RTVSPropertyOp58
 70
     1
102
RTVSPropertyOp59
 70
     1
102
RTVSPropertyOp60
 70
     1
102
RTVSPropertyOp61
 70
     1
102
RTVSPropertyOp62
 70
     1
  0
XRECORD
  5
13C00
102
{ACAD_REACTORS
330
13BFF
102
}
330
13BFF
100
AcDbXrecord
280
     1
102
RTVSPost2010Prop28
280
     0
102
RTVSPost2010PropOp28
 70
     0
102
RTVSPost2010Prop29
280
     1
102
RTVSPost2010PropOp29
 70
     0
102
RTVSPost2010Prop30
280
     1
102
RTVSPost2010PropOp30
 70
     0
102
RTVSPost2010Prop31
280
     0
102
RTVSPost2010PropOp31
 70
     0
102
RTVSPost2010Prop32
280
     0
102
RTVSPost2010PropOp32
 70
     0
102
RTVSPost2010Prop33
280
     0
102
RTVSPost2010PropOp33
 70
     0
102
RTVSPost2010Prop34
280
     0
102
RTVSPost2010PropOp34
 70
     0
102
RTVSPost2010Prop35
280
     0
102
RTVSPost2010PropOp35
 70
     0
102
RTVSPost2010Prop36
280
     0
102
RTVSPost2010PropOp36
 70
     0
102
RTVSPost2010Prop37
 90
       50
102
RTVSPost2010PropOp37
 70
     0
102
RTVSPost2010Prop38
140
0.0
102
RTVSPost2010PropOp38
 70
     0
102
RTVSPost2010Prop39
140
1.0
102
RTVSPost2010PropOp39
 70
     0
102
RTVSPost2010Prop40
 90
        0
102
RTVSPost2010PropOp40
 70
     0
102
RTVSPost2010Prop41ColorIndex
 90
       18
102
RTVSPost2010Prop41ColorRGB
 90
        0
102
RTVSPost2010PropOp41
 70
     0
102
RTVSPost2010Prop42
 90
       50
102
RTVSPost2010PropOp42
 70
     0
102
RTVSPost2010Prop43
 90
        3
102
RTVSPost2010PropOp43
 70
     0
102
RTVSPost2010Prop44ColorIndex
 90
        5
102
RTVSPost2010Prop44ColorRGB
 90
      255
102
RTVSPost2010PropOp44
 70
     0
102
RTVSPost2010Prop45
280
     0
102
RTVSPost2010PropOp45
 70
     0
102
RTVSPost2010Prop46
 90
       50
102
RTVSPost2010PropOp46
 70
     0
102
RTVSPost2010Prop47
 90
       50
102
RTVSPost2010PropOp47
 70
     0
102
RTVSPost2010Prop48
 90
       50
102
RTVSPost2010PropOp48
 70
     0
102
RTVSPost2010Prop49
280
     0
102
RTVSPost2010PropOp49
 70
     0
102
RTVSPost2010Prop50
 90
       50
102
RTVSPost2010PropOp50
 70
     0
102
RTVSPost2010Prop51ColorIndex
 90
      256
102
RTVSPost2010Prop51ColorRGB
 90
-16777216
102
RTVSPost2010PropOp51
 70
     0
102
RTVSPost2010Prop52
140
1.0
102
RTVSPost2010PropOp52
 70
     0
102
RTVSPost2010Prop53
 90
        2
102
RTVSPost2010PropOp53
 70
     0
102
RTVSPost2010Prop54
  1
strokes_ogs.tif
102
RTVSPost2010PropOp54
 70
     0
102
RTVSPost2010Prop55
280
     0
102
RTVSPost2010PropOp55
 70
     0
102
RTVSPost2010Prop56
140
1.0
102
RTVSPost2010PropOp56
 70
     0
102
RTVSPost2010Prop57
140
1.0
102
RTVSPost2010PropOp57
 70
     0
102
RTVSPropertyOp0
 70
     0
102
RTVSPropertyOp1
 70
     0
102
RTVSPropertyOp2
 70
     0
102
RTVSPropertyOp3
 70
     0
102
RTVSPropertyOp4
 70
     0
102
RTVSPropertyOp5
 70
     0
102
RTVSPropertyOp6
 70
     0
102
RTVSPropertyOp7
 70
     0
102
RTVSPropertyOp8
 70
     0
102
RTVSPropertyOp9
 70
     0
102
RTVSPropertyOp10
 70
     0
102
RTVSPropertyOp11
 70
     0
102
RTVSPropertyOp12
 70
     0
102
RTVSPropertyOp13
 70
     0
102
RTVSPropertyOp14
 70
     2
102
RTVSPropertyOp15
 70
     0
102
RTVSPropertyOp16
 70
     0
102
RTVSPropertyOp17
 70
     0
102
RTVSPropertyOp18
 70
     0
102
RTVSPropertyOp19
 70
     0
102
RTVSPropertyOp20
 70
     0
102
RTVSPropertyOp21
 70
     0
102
RTVSPropertyOp22
 70
     0
102
RTVSPropertyOp23
 70
     0
102
RTVSPropertyOp24
 70
     0
102
RTVSPropertyOp25
 70
     0
102
RTVSPropertyOp26
 70
     0
102
RTVSPropertyOp27
 70
     0
102
RTVSPropertyOp28
 70
     0
102
RTVSPropertyOp29
 70
     0
102
RTVSPropertyOp30
 70
     0
102
RTVSPropertyOp31
 70
     0
102
RTVSPropertyOp32
 70
     0
102
RTVSPropertyOp33
 70
     0
102
RTVSPropertyOp34
 70
     0
102
RTVSPropertyOp35
 70
     0
102
RTVSPropertyOp36
 70
     0
102
RTVSPropertyOp37
 70
     0
102
RTVSPropertyOp38
 70
     0
102
RTVSPropertyOp39
 70
     0
102
RTVSPropertyOp40
 70
     0
102
RTVSPropertyOp41
 70
     0
102
RTVSPropertyOp42
 70
     0
102
RTVSPropertyOp43
 70
     0
102
RTVSPropertyOp44
 70
     0
102
RTVSPropertyOp45
 70
     0
102
RTVSPropertyOp46
 70
     0
102
RTVSPropertyOp47
 70
     0
102
RTVSPropertyOp48
 70
     0
102
RTVSPropertyOp49
 70
     0
102
RTVSPropertyOp50
 70
     0
102
RTVSPropertyOp51
 70
     0
102
RTVSPropertyOp52
 70
     0
102
RTVSPropertyOp53
 70
     0
102
RTVSPropertyOp54
 70
     0
102
RTVSPropertyOp55
 70
     0
102
RTVSPropertyOp56
 70
     0
102
RTVSPropertyOp57
 70
     0
102
RTVSPropertyOp58
 70
     1
102
RTVSPropertyOp59
 70
     1
102
RTVSPropertyOp60
 70
     1
102
RTVSPropertyOp61
 70
     1
102
RTVSPropertyOp62
 70
     1
  0
XRECORD
  5
13BEE
102
{ACAD_REACTORS
330
13BED
102
}
330
13BED
100
AcDbXrecord
280
     1
102
RTVSPost2010Prop28
280
     0
102
RTVSPost2010PropOp28
 70
     1
102
RTVSPost2010Prop29
280
     1
102
RTVSPost2010PropOp29
 70
     1
102
RTVSPost2010Prop30
280
     1
102
RTVSPost2010PropOp30
 70
     1
102
RTVSPost2010Prop31
280
     0
102
RTVSPost2010PropOp31
 70
     1
102
RTVSPost2010Prop32
280
     0
102
RTVSPost2010PropOp32
 70
     1
102
RTVSPost2010Prop33
280
     0
102
RTVSPost2010PropOp33
 70
     1
102
RTVSPost2010Prop34
280
     0
102
RTVSPost2010PropOp34
 70
     1
102
RTVSPost2010Prop35
280
     0
102
RTVSPost2010PropOp35
 70
     1
102
RTVSPost2010Prop36
280
     0
102
RTVSPost2010PropOp36
 70
     1
102
RTVSPost2010Prop37
 90
       50
102
RTVSPost2010PropOp37
 70
     1
102
RTVSPost2010Prop38
140
0.0
102
RTVSPost2010PropOp38
 70
     1
102
RTVSPost2010Prop39
140
1.0
102
RTVSPost2010PropOp39
 70
     1
102
RTVSPost2010Prop40
 90
        0
102
RTVSPost2010PropOp40
 70
     1
102
RTVSPost2010Prop41ColorIndex
 90
       18
102
RTVSPost2010Prop41ColorRGB
 90
        0
102
RTVSPost2010PropOp41
 70
     1
102
RTVSPost2010Prop42
 90
       50
102
RTVSPost2010PropOp42
 70
     1
102
RTVSPost2010Prop43
 90
        3
102
RTVSPost2010PropOp43
 70
     1
102
RTVSPost2010Prop44ColorIndex
 90
        5
102
RTVSPost2010Prop44ColorRGB
 90
      255
102
RTVSPost2010PropOp44
 70
     1
102
RTVSPost2010Prop45
280
     0
102
RTVSPost2010PropOp45
 70
     1
102
RTVSPost2010Prop46
 90
       50
102
RTVSPost2010PropOp46
 70
     1
102
RTVSPost2010Prop47
 90
       50
102
RTVSPost2010PropOp47
 70
     1
102
RTVSPost2010Prop48
 90
       50
102
RTVSPost2010PropOp48
 70
     1
102
RTVSPost2010Prop49
280
     0
102
RTVSPost2010PropOp49
 70
     1
102
RTVSPost2010Prop50
 90
       50
102
RTVSPost2010PropOp50
 70
     1
102
RTVSPost2010Prop51ColorIndex
 90
      256
102
RTVSPost2010Prop51ColorRGB
 90
-16777216
102
RTVSPost2010PropOp51
 70
     0
102
RTVSPost2010Prop52
140
1.0
102
RTVSPost2010PropOp52
 70
     0
102
RTVSPost2010Prop53
 90
        2
102
RTVSPost2010PropOp53
 70
     1
102
RTVSPost2010Prop54
  1
strokes_ogs.tif
102
RTVSPost2010PropOp54
 70
     1
102
RTVSPost2010Prop55
280
     0
102
RTVSPost2010PropOp55
 70
     1
102
RTVSPost2010Prop56
140
1.0
102
RTVSPost2010PropOp56
 70
     1
102
RTVSPost2010Prop57
140
1.0
102
RTVSPost2010PropOp57
 70
     1
102
RTVSPropertyOp0
 70
     1
102
RTVSPropertyOp1
 70
     1
102
RTVSPropertyOp2
 70
     1
102
RTVSPropertyOp3
 70
     1
102
RTVSPropertyOp4
 70
     1
102
RTVSPropertyOp5
 70
     1
102
RTVSPropertyOp6
 70
     1
102
RTVSPropertyOp7
 70
     1
102
RTVSPropertyOp8
 70
     1
102
RTVSPropertyOp9
 70
     1
102
RTVSPropertyOp10
 70
     1
102
RTVSPropertyOp11
 70
     1
102
RTVSPropertyOp12
 70
     1
102
RTVSPropertyOp13
 70
     1
102
RTVSPropertyOp14
 70
     1
102
RTVSPropertyOp15
 70
     1
102
RTVSPropertyOp16
 70
     1
102
RTVSPropertyOp17
 70
     1
102
RTVSPropertyOp18
 70
     1
102
RTVSPropertyOp19
 70
     1
102
RTVSPropertyOp20
 70
     1
102
RTVSPropertyOp21
 70
     1
102
RTVSPropertyOp22
 70
     1
102
RTVSPropertyOp23
 70
     1
102
RTVSPropertyOp24
 70
     1
102
RTVSPropertyOp25
 70
     1
102
RTVSPropertyOp26
 70
     1
102
RTVSPropertyOp27
 70
     1
102
RTVSPropertyOp28
 70
     1
102
RTVSPropertyOp29
 70
     1
102
RTVSPropertyOp30
 70
     1
102
RTVSPropertyOp31
 70
     1
102
RTVSPropertyOp32
 70
     1
102
RTVSPropertyOp33
 70
     1
102
RTVSPropertyOp34
 70
     1
102
RTVSPropertyOp35
 70
     1
102
RTVSPropertyOp36
 70
     1
102
RTVSPropertyOp37
 70
     1
102
RTVSPropertyOp38
 70
     1
102
RTVSPropertyOp39
 70
     1
102
RTVSPropertyOp40
 70
     1
102
RTVSPropertyOp41
 70
     1
102
RTVSPropertyOp42
 70
     1
102
RTVSPropertyOp43
 70
     1
102
RTVSPropertyOp44
 70
     1
102
RTVSPropertyOp45
 70
     1
102
RTVSPropertyOp46
 70
     1
102
RTVSPropertyOp47
 70
     1
102
RTVSPropertyOp48
 70
     1
102
RTVSPropertyOp49
 70
     1
102
RTVSPropertyOp50
 70
     1
102
RTVSPropertyOp51
 70
     0
102
RTVSPropertyOp52
 70
     0
102
RTVSPropertyOp53
 70
     1
102
RTVSPropertyOp54
 70
     1
102
RTVSPropertyOp55
 70
     1
102
RTVSPropertyOp56
 70
     1
102
RTVSPropertyOp57
 70
     1
102
RTVSPropertyOp58
 70
     1
102
RTVSPropertyOp59
 70
     1
102
RTVSPropertyOp60
 70
     1
102
RTVSPropertyOp61
 70
     1
102
RTVSPropertyOp62
 70
     1
  0
XRECORD
  5
13BD2
102
{ACAD_REACTORS
330
13BD1
102
}
330
13BD1
100
AcDbXrecord
280
     1
102
RTVSPost2010Prop28
280
     0
102
RTVSPost2010PropOp28
 70
     1
102
RTVSPost2010Prop29
280
     1
102
RTVSPost2010PropOp29
 70
     1
102
RTVSPost2010Prop30
280
     1
102
RTVSPost2010PropOp30
 70
     1
102
RTVSPost2010Prop31
280
     0
102
RTVSPost2010PropOp31
 70
     1
102
RTVSPost2010Prop32
280
     0
102
RTVSPost2010PropOp32
 70
     1
102
RTVSPost2010Prop33
280
     0
102
RTVSPost2010PropOp33
 70
     1
102
RTVSPost2010Prop34
280
     0
102
RTVSPost2010PropOp34
 70
     1
102
RTVSPost2010Prop35
280
     0
102
RTVSPost2010PropOp35
 70
     1
102
RTVSPost2010Prop36
280
     0
102
RTVSPost2010PropOp36
 70
     1
102
RTVSPost2010Prop37
 90
       50
102
RTVSPost2010PropOp37
 70
     1
102
RTVSPost2010Prop38
140
0.0
102
RTVSPost2010PropOp38
 70
     1
102
RTVSPost2010Prop39
140
1.0
102
RTVSPost2010PropOp39
 70
     1
102
RTVSPost2010Prop40
 90
        0
102
RTVSPost2010PropOp40
 70
     1
102
RTVSPost2010Prop41ColorIndex
 90
       18
102
RTVSPost2010Prop41ColorRGB
 90
        0
102
RTVSPost2010PropOp41
 70
     1
102
RTVSPost2010Prop42
 90
       50
102
RTVSPost2010PropOp42
 70
     1
102
RTVSPost2010Prop43
 90
        3
102
RTVSPost2010PropOp43
 70
     1
102
RTVSPost2010Prop44ColorIndex
 90
        5
102
RTVSPost2010Prop44ColorRGB
 90
      255
102
RTVSPost2010PropOp44
 70
     1
102
RTVSPost2010Prop45
280
     0
102
RTVSPost2010PropOp45
 70
     1
102
RTVSPost2010Prop46
 90
       50
102
RTVSPost2010PropOp46
 70
     1
102
RTVSPost2010Prop47
 90
       50
102
RTVSPost2010PropOp47
 70
     1
102
RTVSPost2010Prop48
 90
       50
102
RTVSPost2010PropOp48
 70
     1
102
RTVSPost2010Prop49
280
     0
102
RTVSPost2010PropOp49
 70
     1
102
RTVSPost2010Prop50
 90
       50
102
RTVSPost2010PropOp50
 70
     1
102
RTVSPost2010Prop51ColorIndex
 90
      256
102
RTVSPost2010Prop51ColorRGB
 90
-16777216
102
RTVSPost2010PropOp51
 70
     0
102
RTVSPost2010Prop52
140
1.0
102
RTVSPost2010PropOp52
 70
     0
102
RTVSPost2010Prop53
 90
        2
102
RTVSPost2010PropOp53
 70
     1
102
RTVSPost2010Prop54
  1
strokes_ogs.tif
102
RTVSPost2010PropOp54
 70
     1
102
RTVSPost2010Prop55
280
     0
102
RTVSPost2010PropOp55
 70
     1
102
RTVSPost2010Prop56
140
1.0
102
RTVSPost2010PropOp56
 70
     1
102
RTVSPost2010Prop57
140
1.0
102
RTVSPost2010PropOp57
 70
     1
102
RTVSPropertyOp0
 70
     1
102
RTVSPropertyOp1
 70
     1
102
RTVSPropertyOp2
 70
     1
102
RTVSPropertyOp3
 70
     1
102
RTVSPropertyOp4
 70
     1
102
RTVSPropertyOp5
 70
     1
102
RTVSPropertyOp6
 70
     1
102
RTVSPropertyOp7
 70
     1
102
RTVSPropertyOp8
 70
     1
102
RTVSPropertyOp9
 70
     1
102
RTVSPropertyOp10
 70
     1
102
RTVSPropertyOp11
 70
     1
102
RTVSPropertyOp12
 70
     1
102
RTVSPropertyOp13
 70
     1
102
RTVSPropertyOp14
 70
     1
102
RTVSPropertyOp15
 70
     1
102
RTVSPropertyOp16
 70
     1
102
RTVSPropertyOp17
 70
     1
102
RTVSPropertyOp18
 70
     1
102
RTVSPropertyOp19
 70
     1
102
RTVSPropertyOp20
 70
     1
102
RTVSPropertyOp21
 70
     1
102
RTVSPropertyOp22
 70
     1
102
RTVSPropertyOp23
 70
     1
102
RTVSPropertyOp24
 70
     1
102
RTVSPropertyOp25
 70
     1
102
RTVSPropertyOp26
 70
     1
102
RTVSPropertyOp27
 70
     1
102
RTVSPropertyOp28
 70
     1
102
RTVSPropertyOp29
 70
     1
102
RTVSPropertyOp30
 70
     1
102
RTVSPropertyOp31
 70
     1
102
RTVSPropertyOp32
 70
     1
102
RTVSPropertyOp33
 70
     1
102
RTVSPropertyOp34
 70
     1
102
RTVSPropertyOp35
 70
     1
102
RTVSPropertyOp36
 70
     1
102
RTVSPropertyOp37
 70
     1
102
RTVSPropertyOp38
 70
     1
102
RTVSPropertyOp39
 70
     1
102
RTVSPropertyOp40
 70
     1
102
RTVSPropertyOp41
 70
     1
102
RTVSPropertyOp42
 70
     1
102
RTVSPropertyOp43
 70
     1
102
RTVSPropertyOp44
 70
     1
102
RTVSPropertyOp45
 70
     1
102
RTVSPropertyOp46
 70
     1
102
RTVSPropertyOp47
 70
     1
102
RTVSPropertyOp48
 70
     1
102
RTVSPropertyOp49
 70
     1
102
RTVSPropertyOp50
 70
     1
102
RTVSPropertyOp51
 70
     0
102
RTVSPropertyOp52
 70
     0
102
RTVSPropertyOp53
 70
     1
102
RTVSPropertyOp54
 70
     1
102
RTVSPropertyOp55
 70
     1
102
RTVSPropertyOp56
 70
     1
102
RTVSPropertyOp57
 70
     1
102
RTVSPropertyOp58
 70
     1
102
RTVSPropertyOp59
 70
     1
102
RTVSPropertyOp60
 70
     1
102
RTVSPropertyOp61
 70
     1
102
RTVSPropertyOp62
 70
     1
  0
XRECORD
  5
13BD4
102
{ACAD_REACTORS
330
13BD3
102
}
330
13BD3
100
AcDbXrecord
280
     1
102
RTVSPost2010Prop28
280
     0
102
RTVSPost2010PropOp28
 70
     1
102
RTVSPost2010Prop29
280
     1
102
RTVSPost2010PropOp29
 70
     1
102
RTVSPost2010Prop30
280
     1
102
RTVSPost2010PropOp30
 70
     1
102
RTVSPost2010Prop31
280
     0
102
RTVSPost2010PropOp31
 70
     1
102
RTVSPost2010Prop32
280
     0
102
RTVSPost2010PropOp32
 70
     1
102
RTVSPost2010Prop33
280
     0
102
RTVSPost2010PropOp33
 70
     1
102
RTVSPost2010Prop34
280
     0
102
RTVSPost2010PropOp34
 70
     1
102
RTVSPost2010Prop35
280
     0
102
RTVSPost2010PropOp35
 70
     1
102
RTVSPost2010Prop36
280
     0
102
RTVSPost2010PropOp36
 70
     1
102
RTVSPost2010Prop37
 90
       50
102
RTVSPost2010PropOp37
 70
     1
102
RTVSPost2010Prop38
140
0.0
102
RTVSPost2010PropOp38
 70
     1
102
RTVSPost2010Prop39
140
1.0
102
RTVSPost2010PropOp39
 70
     1
102
RTVSPost2010Prop40
 90
        0
102
RTVSPost2010PropOp40
 70
     1
102
RTVSPost2010Prop41ColorIndex
 90
       18
102
RTVSPost2010Prop41ColorRGB
 90
        0
102
RTVSPost2010PropOp41
 70
     1
102
RTVSPost2010Prop42
 90
       50
102
RTVSPost2010PropOp42
 70
     1
102
RTVSPost2010Prop43
 90
        3
102
RTVSPost2010PropOp43
 70
     1
102
RTVSPost2010Prop44ColorIndex
 90
        5
102
RTVSPost2010Prop44ColorRGB
 90
      255
102
RTVSPost2010PropOp44
 70
     1
102
RTVSPost2010Prop45
280
     0
102
RTVSPost2010PropOp45
 70
     1
102
RTVSPost2010Prop46
 90
       50
102
RTVSPost2010PropOp46
 70
     1
102
RTVSPost2010Prop47
 90
       50
102
RTVSPost2010PropOp47
 70
     1
102
RTVSPost2010Prop48
 90
       50
102
RTVSPost2010PropOp48
 70
     1
102
RTVSPost2010Prop49
280
     0
102
RTVSPost2010PropOp49
 70
     1
102
RTVSPost2010Prop50
 90
       50
102
RTVSPost2010PropOp50
 70
     1
102
RTVSPost2010Prop51ColorIndex
 90
      256
102
RTVSPost2010Prop51ColorRGB
 90
-16777216
102
RTVSPost2010PropOp51
 70
     0
102
RTVSPost2010Prop52
140
1.0
102
RTVSPost2010PropOp52
 70
     0
102
RTVSPost2010Prop53
 90
        2
102
RTVSPost2010PropOp53
 70
     1
102
RTVSPost2010Prop54
  1
strokes_ogs.tif
102
RTVSPost2010PropOp54
 70
     1
102
RTVSPost2010Prop55
280
     0
102
RTVSPost2010PropOp55
 70
     1
102
RTVSPost2010Prop56
140
1.0
102
RTVSPost2010PropOp56
 70
     1
102
RTVSPost2010Prop57
140
1.0
102
RTVSPost2010PropOp57
 70
     1
102
RTVSPropertyOp0
 70
     1
102
RTVSPropertyOp1
 70
     1
102
RTVSPropertyOp2
 70
     1
102
RTVSPropertyOp3
 70
     1
102
RTVSPropertyOp4
 70
     1
102
RTVSPropertyOp5
 70
     1
102
RTVSPropertyOp6
 70
     1
102
RTVSPropertyOp7
 70
     1
102
RTVSPropertyOp8
 70
     1
102
RTVSPropertyOp9
 70
     1
102
RTVSPropertyOp10
 70
     1
102
RTVSPropertyOp11
 70
     1
102
RTVSPropertyOp12
 70
     1
102
RTVSPropertyOp13
 70
     1
102
RTVSPropertyOp14
 70
     1
102
RTVSPropertyOp15
 70
     1
102
RTVSPropertyOp16
 70
     1
102
RTVSPropertyOp17
 70
     1
102
RTVSPropertyOp18
 70
     1
102
RTVSPropertyOp19
 70
     1
102
RTVSPropertyOp20
 70
     1
102
RTVSPropertyOp21
 70
     1
102
RTVSPropertyOp22
 70
     1
102
RTVSPropertyOp23
 70
     1
102
RTVSPropertyOp24
 70
     1
102
RTVSPropertyOp25
 70
     1
102
RTVSPropertyOp26
 70
     1
102
RTVSPropertyOp27
 70
     1
102
RTVSPropertyOp28
 70
     1
102
RTVSPropertyOp29
 70
     1
102
RTVSPropertyOp30
 70
     1
102
RTVSPropertyOp31
 70
     1
102
RTVSPropertyOp32
 70
     1
102
RTVSPropertyOp33
 70
     1
102
RTVSPropertyOp34
 70
     1
102
RTVSPropertyOp35
 70
     1
102
RTVSPropertyOp36
 70
     1
102
RTVSPropertyOp37
 70
     1
102
RTVSPropertyOp38
 70
     1
102
RTVSPropertyOp39
 70
     1
102
RTVSPropertyOp40
 70
     1
102
RTVSPropertyOp41
 70
     1
102
RTVSPropertyOp42
 70
     1
102
RTVSPropertyOp43
 70
     1
102
RTVSPropertyOp44
 70
     1
102
RTVSPropertyOp45
 70
     1
102
RTVSPropertyOp46
 70
     1
102
RTVSPropertyOp47
 70
     1
102
RTVSPropertyOp48
 70
     1
102
RTVSPropertyOp49
 70
     1
102
RTVSPropertyOp50
 70
     1
102
RTVSPropertyOp51
 70
     0
102
RTVSPropertyOp52
 70
     0
102
RTVSPropertyOp53
 70
     1
102
RTVSPropertyOp54
 70
     1
102
RTVSPropertyOp55
 70
     1
102
RTVSPropertyOp56
 70
     1
102
RTVSPropertyOp57
 70
     1
102
RTVSPropertyOp58
 70
     1
102
RTVSPropertyOp59
 70
     1
102
RTVSPropertyOp60
 70
     1
102
RTVSPropertyOp61
 70
     1
102
RTVSPropertyOp62
 70
     1
  0
XRECORD
  5
13BD6
102
{ACAD_REACTORS
330
13BD5
102
}
330
13BD5
100
AcDbXrecord
280
     1
102
RTVSPost2010Prop28
280
     0
102
RTVSPost2010PropOp28
 70
     1
102
RTVSPost2010Prop29
280
     1
102
RTVSPost2010PropOp29
 70
     1
102
RTVSPost2010Prop30
280
     1
102
RTVSPost2010PropOp30
 70
     1
102
RTVSPost2010Prop31
280
     0
102
RTVSPost2010PropOp31
 70
     1
102
RTVSPost2010Prop32
280
     0
102
RTVSPost2010PropOp32
 70
     1
102
RTVSPost2010Prop33
280
     0
102
RTVSPost2010PropOp33
 70
     1
102
RTVSPost2010Prop34
280
     0
102
RTVSPost2010PropOp34
 70
     1
102
RTVSPost2010Prop35
280
     0
102
RTVSPost2010PropOp35
 70
     1
102
RTVSPost2010Prop36
280
     0
102
RTVSPost2010PropOp36
 70
     1
102
RTVSPost2010Prop37
 90
       50
102
RTVSPost2010PropOp37
 70
     1
102
RTVSPost2010Prop38
140
0.0
102
RTVSPost2010PropOp38
 70
     1
102
RTVSPost2010Prop39
140
1.0
102
RTVSPost2010PropOp39
 70
     1
102
RTVSPost2010Prop40
 90
        0
102
RTVSPost2010PropOp40
 70
     1
102
RTVSPost2010Prop41ColorIndex
 90
       18
102
RTVSPost2010Prop41ColorRGB
 90
        0
102
RTVSPost2010PropOp41
 70
     1
102
RTVSPost2010Prop42
 90
       50
102
RTVSPost2010PropOp42
 70
     1
102
RTVSPost2010Prop43
 90
        3
102
RTVSPost2010PropOp43
 70
     1
102
RTVSPost2010Prop44ColorIndex
 90
        5
102
RTVSPost2010Prop44ColorRGB
 90
      255
102
RTVSPost2010PropOp44
 70
     1
102
RTVSPost2010Prop45
280
     0
102
RTVSPost2010PropOp45
 70
     1
102
RTVSPost2010Prop46
 90
       50
102
RTVSPost2010PropOp46
 70
     1
102
RTVSPost2010Prop47
 90
       50
102
RTVSPost2010PropOp47
 70
     1
102
RTVSPost2010Prop48
 90
       50
102
RTVSPost2010PropOp48
 70
     1
102
RTVSPost2010Prop49
280
     0
102
RTVSPost2010PropOp49
 70
     1
102
RTVSPost2010Prop50
 90
       50
102
RTVSPost2010PropOp50
 70
     1
102
RTVSPost2010Prop51ColorIndex
 90
      256
102
RTVSPost2010Prop51ColorRGB
 90
-16777216
102
RTVSPost2010PropOp51
 70
     0
102
RTVSPost2010Prop52
140
1.0
102
RTVSPost2010PropOp52
 70
     0
102
RTVSPost2010Prop53
 90
        2
102
RTVSPost2010PropOp53
 70
     1
102
RTVSPost2010Prop54
  1
strokes_ogs.tif
102
RTVSPost2010PropOp54
 70
     1
102
RTVSPost2010Prop55
280
     0
102
RTVSPost2010PropOp55
 70
     1
102
RTVSPost2010Prop56
140
1.0
102
RTVSPost2010PropOp56
 70
     1
102
RTVSPost2010Prop57
140
1.0
102
RTVSPost2010PropOp57
 70
     1
102
RTVSPropertyOp0
 70
     1
102
RTVSPropertyOp1
 70
     1
102
RTVSPropertyOp2
 70
     1
102
RTVSPropertyOp3
 70
     1
102
RTVSPropertyOp4
 70
     1
102
RTVSPropertyOp5
 70
     1
102
RTVSPropertyOp6
 70
     1
102
RTVSPropertyOp7
 70
     1
102
RTVSPropertyOp8
 70
     1
102
RTVSPropertyOp9
 70
     1
102
RTVSPropertyOp10
 70
     1
102
RTVSPropertyOp11
 70
     1
102
RTVSPropertyOp12
 70
     1
102
RTVSPropertyOp13
 70
     1
102
RTVSPropertyOp14
 70
     1
102
RTVSPropertyOp15
 70
     1
102
RTVSPropertyOp16
 70
     1
102
RTVSPropertyOp17
 70
     1
102
RTVSPropertyOp18
 70
     1
102
RTVSPropertyOp19
 70
     1
102
RTVSPropertyOp20
 70
     1
102
RTVSPropertyOp21
 70
     1
102
RTVSPropertyOp22
 70
     1
102
RTVSPropertyOp23
 70
     1
102
RTVSPropertyOp24
 70
     1
102
RTVSPropertyOp25
 70
     1
102
RTVSPropertyOp26
 70
     1
102
RTVSPropertyOp27
 70
     1
102
RTVSPropertyOp28
 70
     1
102
RTVSPropertyOp29
 70
     1
102
RTVSPropertyOp30
 70
     1
102
RTVSPropertyOp31
 70
     1
102
RTVSPropertyOp32
 70
     1
102
RTVSPropertyOp33
 70
     1
102
RTVSPropertyOp34
 70
     1
102
RTVSPropertyOp35
 70
     1
102
RTVSPropertyOp36
 70
     1
102
RTVSPropertyOp37
 70
     1
102
RTVSPropertyOp38
 70
     1
102
RTVSPropertyOp39
 70
     1
102
RTVSPropertyOp40
 70
     1
102
RTVSPropertyOp41
 70
     1
102
RTVSPropertyOp42
 70
     1
102
RTVSPropertyOp43
 70
     1
102
RTVSPropertyOp44
 70
     1
102
RTVSPropertyOp45
 70
     1
102
RTVSPropertyOp46
 70
     1
102
RTVSPropertyOp47
 70
     1
102
RTVSPropertyOp48
 70
     1
102
RTVSPropertyOp49
 70
     1
102
RTVSPropertyOp50
 70
     1
102
RTVSPropertyOp51
 70
     0
102
RTVSPropertyOp52
 70
     0
102
RTVSPropertyOp53
 70
     1
102
RTVSPropertyOp54
 70
     1
102
RTVSPropertyOp55
 70
     1
102
RTVSPropertyOp56
 70
     1
102
RTVSPropertyOp57
 70
     1
102
RTVSPropertyOp58
 70
     1
102
RTVSPropertyOp59
 70
     1
102
RTVSPropertyOp60
 70
     1
102
RTVSPropertyOp61
 70
     1
102
RTVSPropertyOp62
 70
     1
  0
XRECORD
  5
13BD8
102
{ACAD_REACTORS
330
13BD7
102
}
330
13BD7
100
AcDbXrecord
280
     1
102
RTVSPost2010Prop28
280
     0
102
RTVSPost2010PropOp28
 70
     1
102
RTVSPost2010Prop29
280
     1
102
RTVSPost2010PropOp29
 70
     1
102
RTVSPost2010Prop30
280
     1
102
RTVSPost2010PropOp30
 70
     1
102
RTVSPost2010Prop31
280
     0
102
RTVSPost2010PropOp31
 70
     1
102
RTVSPost2010Prop32
280
     0
102
RTVSPost2010PropOp32
 70
     1
102
RTVSPost2010Prop33
280
     0
102
RTVSPost2010PropOp33
 70
     1
102
RTVSPost2010Prop34
280
     0
102
RTVSPost2010PropOp34
 70
     1
102
RTVSPost2010Prop35
280
     0
102
RTVSPost2010PropOp35
 70
     1
102
RTVSPost2010Prop36
280
     0
102
RTVSPost2010PropOp36
 70
     1
102
RTVSPost2010Prop37
 90
       50
102
RTVSPost2010PropOp37
 70
     1
102
RTVSPost2010Prop38
140
0.0
102
RTVSPost2010PropOp38
 70
     1
102
RTVSPost2010Prop39
140
1.0
102
RTVSPost2010PropOp39
 70
     1
102
RTVSPost2010Prop40
 90
        0
102
RTVSPost2010PropOp40
 70
     1
102
RTVSPost2010Prop41ColorIndex
 90
       18
102
RTVSPost2010Prop41ColorRGB
 90
        0
102
RTVSPost2010PropOp41
 70
     1
102
RTVSPost2010Prop42
 90
       50
102
RTVSPost2010PropOp42
 70
     1
102
RTVSPost2010Prop43
 90
        3
102
RTVSPost2010PropOp43
 70
     1
102
RTVSPost2010Prop44ColorIndex
 90
        5
102
RTVSPost2010Prop44ColorRGB
 90
      255
102
RTVSPost2010PropOp44
 70
     1
102
RTVSPost2010Prop45
280
     0
102
RTVSPost2010PropOp45
 70
     1
102
RTVSPost2010Prop46
 90
       50
102
RTVSPost2010PropOp46
 70
     1
102
RTVSPost2010Prop47
 90
       50
102
RTVSPost2010PropOp47
 70
     1
102
RTVSPost2010Prop48
 90
       50
102
RTVSPost2010PropOp48
 70
     1
102
RTVSPost2010Prop49
280
     0
102
RTVSPost2010PropOp49
 70
     1
102
RTVSPost2010Prop50
 90
       50
102
RTVSPost2010PropOp50
 70
     1
102
RTVSPost2010Prop51ColorIndex
 90
      256
102
RTVSPost2010Prop51ColorRGB
 90
-16777216
102
RTVSPost2010PropOp51
 70
     0
102
RTVSPost2010Prop52
140
1.0
102
RTVSPost2010PropOp52
 70
     0
102
RTVSPost2010Prop53
 90
        2
102
RTVSPost2010PropOp53
 70
     1
102
RTVSPost2010Prop54
  1
strokes_ogs.tif
102
RTVSPost2010PropOp54
 70
     1
102
RTVSPost2010Prop55
280
     0
102
RTVSPost2010PropOp55
 70
     1
102
RTVSPost2010Prop56
140
1.0
102
RTVSPost2010PropOp56
 70
     1
102
RTVSPost2010Prop57
140
1.0
102
RTVSPost2010PropOp57
 70
     1
102
RTVSPropertyOp0
 70
     1
102
RTVSPropertyOp1
 70
     1
102
RTVSPropertyOp2
 70
     1
102
RTVSPropertyOp3
 70
     1
102
RTVSPropertyOp4
 70
     1
102
RTVSPropertyOp5
 70
     1
102
RTVSPropertyOp6
 70
     1
102
RTVSPropertyOp7
 70
     1
102
RTVSPropertyOp8
 70
     1
102
RTVSPropertyOp9
 70
     1
102
RTVSPropertyOp10
 70
     1
102
RTVSPropertyOp11
 70
     1
102
RTVSPropertyOp12
 70
     1
102
RTVSPropertyOp13
 70
     1
102
RTVSPropertyOp14
 70
     1
102
RTVSPropertyOp15
 70
     1
102
RTVSPropertyOp16
 70
     1
102
RTVSPropertyOp17
 70
     1
102
RTVSPropertyOp18
 70
     1
102
RTVSPropertyOp19
 70
     1
102
RTVSPropertyOp20
 70
     1
102
RTVSPropertyOp21
 70
     1
102
RTVSPropertyOp22
 70
     1
102
RTVSPropertyOp23
 70
     1
102
RTVSPropertyOp24
 70
     1
102
RTVSPropertyOp25
 70
     1
102
RTVSPropertyOp26
 70
     1
102
RTVSPropertyOp27
 70
     1
102
RTVSPropertyOp28
 70
     1
102
RTVSPropertyOp29
 70
     1
102
RTVSPropertyOp30
 70
     1
102
RTVSPropertyOp31
 70
     1
102
RTVSPropertyOp32
 70
     1
102
RTVSPropertyOp33
 70
     1
102
RTVSPropertyOp34
 70
     1
102
RTVSPropertyOp35
 70
     1
102
RTVSPropertyOp36
 70
     1
102
RTVSPropertyOp37
 70
     1
102
RTVSPropertyOp38
 70
     1
102
RTVSPropertyOp39
 70
     1
102
RTVSPropertyOp40
 70
     1
102
RTVSPropertyOp41
 70
     1
102
RTVSPropertyOp42
 70
     1
102
RTVSPropertyOp43
 70
     1
102
RTVSPropertyOp44
 70
     1
102
RTVSPropertyOp45
 70
     1
102
RTVSPropertyOp46
 70
     1
102
RTVSPropertyOp47
 70
     1
102
RTVSPropertyOp48
 70
     1
102
RTVSPropertyOp49
 70
     1
102
RTVSPropertyOp50
 70
     1
102
RTVSPropertyOp51
 70
     0
102
RTVSPropertyOp52
 70
     0
102
RTVSPropertyOp53
 70
     1
102
RTVSPropertyOp54
 70
     1
102
RTVSPropertyOp55
 70
     1
102
RTVSPropertyOp56
 70
     1
102
RTVSPropertyOp57
 70
     1
102
RTVSPropertyOp58
 70
     1
102
RTVSPropertyOp59
 70
     1
102
RTVSPropertyOp60
 70
     1
102
RTVSPropertyOp61
 70
     1
102
RTVSPropertyOp62
 70
     1
  0
XRECORD
  5
13BE0
102
{ACAD_REACTORS
330
13BDF
102
}
330
13BDF
100
AcDbXrecord
280
     1
102
RTVSPost2010Prop28
280
     0
102
RTVSPost2010PropOp28
 70
     1
102
RTVSPost2010Prop29
280
     1
102
RTVSPost2010PropOp29
 70
     1
102
RTVSPost2010Prop30
280
     1
102
RTVSPost2010PropOp30
 70
     1
102
RTVSPost2010Prop31
280
     0
102
RTVSPost2010PropOp31
 70
     1
102
RTVSPost2010Prop32
280
     0
102
RTVSPost2010PropOp32
 70
     1
102
RTVSPost2010Prop33
280
     0
102
RTVSPost2010PropOp33
 70
     1
102
RTVSPost2010Prop34
280
     0
102
RTVSPost2010PropOp34
 70
     1
102
RTVSPost2010Prop35
280
     0
102
RTVSPost2010PropOp35
 70
     1
102
RTVSPost2010Prop36
280
     0
102
RTVSPost2010PropOp36
 70
     1
102
RTVSPost2010Prop37
 90
       50
102
RTVSPost2010PropOp37
 70
     1
102
RTVSPost2010Prop38
140
0.0
102
RTVSPost2010PropOp38
 70
     1
102
RTVSPost2010Prop39
140
1.0
102
RTVSPost2010PropOp39
 70
     1
102
RTVSPost2010Prop40
 90
        0
102
RTVSPost2010PropOp40
 70
     1
102
RTVSPost2010Prop41ColorIndex
 90
       18
102
RTVSPost2010Prop41ColorRGB
 90
        0
102
RTVSPost2010PropOp41
 70
     1
102
RTVSPost2010Prop42
 90
       50
102
RTVSPost2010PropOp42
 70
     1
102
RTVSPost2010Prop43
 90
        3
102
RTVSPost2010PropOp43
 70
     1
102
RTVSPost2010Prop44ColorIndex
 90
        5
102
RTVSPost2010Prop44ColorRGB
 90
      255
102
RTVSPost2010PropOp44
 70
     1
102
RTVSPost2010Prop45
280
     0
102
RTVSPost2010PropOp45
 70
     1
102
RTVSPost2010Prop46
 90
       50
102
RTVSPost2010PropOp46
 70
     1
102
RTVSPost2010Prop47
 90
       50
102
RTVSPost2010PropOp47
 70
     1
102
RTVSPost2010Prop48
 90
       50
102
RTVSPost2010PropOp48
 70
     1
102
RTVSPost2010Prop49
280
     0
102
RTVSPost2010PropOp49
 70
     1
102
RTVSPost2010Prop50
 90
       50
102
RTVSPost2010PropOp50
 70
     1
102
RTVSPost2010Prop51ColorIndex
 90
      256
102
RTVSPost2010Prop51ColorRGB
 90
-16777216
102
RTVSPost2010PropOp51
 70
     0
102
RTVSPost2010Prop52
140
1.0
102
RTVSPost2010PropOp52
 70
     0
102
RTVSPost2010Prop53
 90
        2
102
RTVSPost2010PropOp53
 70
     1
102
RTVSPost2010Prop54
  1
strokes_ogs.tif
102
RTVSPost2010PropOp54
 70
     1
102
RTVSPost2010Prop55
280
     0
102
RTVSPost2010PropOp55
 70
     1
102
RTVSPost2010Prop56
140
1.0
102
RTVSPost2010PropOp56
 70
     1
102
RTVSPost2010Prop57
140
1.0
102
RTVSPost2010PropOp57
 70
     1
102
RTVSPropertyOp0
 70
     1
102
RTVSPropertyOp1
 70
     1
102
RTVSPropertyOp2
 70
     1
102
RTVSPropertyOp3
 70
     1
102
RTVSPropertyOp4
 70
     1
102
RTVSPropertyOp5
 70
     1
102
RTVSPropertyOp6
 70
     1
102
RTVSPropertyOp7
 70
     1
102
RTVSPropertyOp8
 70
     1
102
RTVSPropertyOp9
 70
     1
102
RTVSPropertyOp10
 70
     1
102
RTVSPropertyOp11
 70
     1
102
RTVSPropertyOp12
 70
     1
102
RTVSPropertyOp13
 70
     1
102
RTVSPropertyOp14
 70
     1
102
RTVSPropertyOp15
 70
     1
102
RTVSPropertyOp16
 70
     1
102
RTVSPropertyOp17
 70
     1
102
RTVSPropertyOp18
 70
     1
102
RTVSPropertyOp19
 70
     1
102
RTVSPropertyOp20
 70
     1
102
RTVSPropertyOp21
 70
     1
102
RTVSPropertyOp22
 70
     1
102
RTVSPropertyOp23
 70
     1
102
RTVSPropertyOp24
 70
     1
102
RTVSPropertyOp25
 70
     1
102
RTVSPropertyOp26
 70
     1
102
RTVSPropertyOp27
 70
     1
102
RTVSPropertyOp28
 70
     1
102
RTVSPropertyOp29
 70
     1
102
RTVSPropertyOp30
 70
     1
102
RTVSPropertyOp31
 70
     1
102
RTVSPropertyOp32
 70
     1
102
RTVSPropertyOp33
 70
     1
102
RTVSPropertyOp34
 70
     1
102
RTVSPropertyOp35
 70
     1
102
RTVSPropertyOp36
 70
     1
102
RTVSPropertyOp37
 70
     1
102
RTVSPropertyOp38
 70
     1
102
RTVSPropertyOp39
 70
     1
102
RTVSPropertyOp40
 70
     1
102
RTVSPropertyOp41
 70
     1
102
RTVSPropertyOp42
 70
     1
102
RTVSPropertyOp43
 70
     1
102
RTVSPropertyOp44
 70
     1
102
RTVSPropertyOp45
 70
     1
102
RTVSPropertyOp46
 70
     1
102
RTVSPropertyOp47
 70
     1
102
RTVSPropertyOp48
 70
     1
102
RTVSPropertyOp49
 70
     1
102
RTVSPropertyOp50
 70
     1
102
RTVSPropertyOp51
 70
     0
102
RTVSPropertyOp52
 70
     0
102
RTVSPropertyOp53
 70
     1
102
RTVSPropertyOp54
 70
     1
102
RTVSPropertyOp55
 70
     1
102
RTVSPropertyOp56
 70
     1
102
RTVSPropertyOp57
 70
     1
102
RTVSPropertyOp58
 70
     1
102
RTVSPropertyOp59
 70
     1
102
RTVSPropertyOp60
 70
     1
102
RTVSPropertyOp61
 70
     1
102
RTVSPropertyOp62
 70
     1
  0
XRECORD
  5
13BFC
102
{ACAD_REACTORS
330
13BFB
102
}
330
13BFB
100
AcDbXrecord
280
     1
102
RTVSPost2010Prop28
280
     0
102
RTVSPost2010PropOp28
 70
     0
102
RTVSPost2010Prop29
280
     1
102
RTVSPost2010PropOp29
 70
     0
102
RTVSPost2010Prop30
280
     1
102
RTVSPost2010PropOp30
 70
     0
102
RTVSPost2010Prop31
280
     0
102
RTVSPost2010PropOp31
 70
     0
102
RTVSPost2010Prop32
280
     0
102
RTVSPost2010PropOp32
 70
     0
102
RTVSPost2010Prop33
280
     0
102
RTVSPost2010PropOp33
 70
     0
102
RTVSPost2010Prop34
280
     0
102
RTVSPost2010PropOp34
 70
     0
102
RTVSPost2010Prop35
280
     0
102
RTVSPost2010PropOp35
 70
     0
102
RTVSPost2010Prop36
280
     0
102
RTVSPost2010PropOp36
 70
     0
102
RTVSPost2010Prop37
 90
       50
102
RTVSPost2010PropOp37
 70
     0
102
RTVSPost2010Prop38
140
0.0
102
RTVSPost2010PropOp38
 70
     0
102
RTVSPost2010Prop39
140
1.0
102
RTVSPost2010PropOp39
 70
     0
102
RTVSPost2010Prop40
 90
        0
102
RTVSPost2010PropOp40
 70
     0
102
RTVSPost2010Prop41ColorIndex
 90
       18
102
RTVSPost2010Prop41ColorRGB
 90
        0
102
RTVSPost2010PropOp41
 70
     0
102
RTVSPost2010Prop42
 90
       50
102
RTVSPost2010PropOp42
 70
     0
102
RTVSPost2010Prop43
 90
        3
102
RTVSPost2010PropOp43
 70
     0
102
RTVSPost2010Prop44ColorIndex
 90
        5
102
RTVSPost2010Prop44ColorRGB
 90
      255
102
RTVSPost2010PropOp44
 70
     0
102
RTVSPost2010Prop45
280
     0
102
RTVSPost2010PropOp45
 70
     0
102
RTVSPost2010Prop46
 90
       50
102
RTVSPost2010PropOp46
 70
     0
102
RTVSPost2010Prop47
 90
       50
102
RTVSPost2010PropOp47
 70
     0
102
RTVSPost2010Prop48
 90
       50
102
RTVSPost2010PropOp48
 70
     0
102
RTVSPost2010Prop49
280
     0
102
RTVSPost2010PropOp49
 70
     0
102
RTVSPost2010Prop50
 90
       50
102
RTVSPost2010PropOp50
 70
     0
102
RTVSPost2010Prop51ColorIndex
 90
      256
102
RTVSPost2010Prop51ColorRGB
 90
-16777216
102
RTVSPost2010PropOp51
 70
     0
102
RTVSPost2010Prop52
140
1.0
102
RTVSPost2010PropOp52
 70
     0
102
RTVSPost2010Prop53
 90
        2
102
RTVSPost2010PropOp53
 70
     0
102
RTVSPost2010Prop54
  1
strokes_ogs.tif
102
RTVSPost2010PropOp54
 70
     0
102
RTVSPost2010Prop55
280
     0
102
RTVSPost2010PropOp55
 70
     0
102
RTVSPost2010Prop56
140
1.0
102
RTVSPost2010PropOp56
 70
     0
102
RTVSPost2010Prop57
140
1.0
102
RTVSPost2010PropOp57
 70
     0
102
RTVSPropertyOp0
 70
     0
102
RTVSPropertyOp1
 70
     0
102
RTVSPropertyOp2
 70
     0
102
RTVSPropertyOp3
 70
     0
102
RTVSPropertyOp4
 70
     0
102
RTVSPropertyOp5
 70
     0
102
RTVSPropertyOp6
 70
     0
102
RTVSPropertyOp7
 70
     0
102
RTVSPropertyOp8
 70
     0
102
RTVSPropertyOp9
 70
     0
102
RTVSPropertyOp10
 70
     0
102
RTVSPropertyOp11
 70
     0
102
RTVSPropertyOp12
 70
     0
102
RTVSPropertyOp13
 70
     0
102
RTVSPropertyOp14
 70
     2
102
RTVSPropertyOp15
 70
     0
102
RTVSPropertyOp16
 70
     0
102
RTVSPropertyOp17
 70
     0
102
RTVSPropertyOp18
 70
     0
102
RTVSPropertyOp19
 70
     0
102
RTVSPropertyOp20
 70
     0
102
RTVSPropertyOp21
 70
     0
102
RTVSPropertyOp22
 70
     0
102
RTVSPropertyOp23
 70
     0
102
RTVSPropertyOp24
 70
     0
102
RTVSPropertyOp25
 70
     0
102
RTVSPropertyOp26
 70
     0
102
RTVSPropertyOp27
 70
     0
102
RTVSPropertyOp28
 70
     0
102
RTVSPropertyOp29
 70
     0
102
RTVSPropertyOp30
 70
     0
102
RTVSPropertyOp31
 70
     0
102
RTVSPropertyOp32
 70
     0
102
RTVSPropertyOp33
 70
     0
102
RTVSPropertyOp34
 70
     0
102
RTVSPropertyOp35
 70
     0
102
RTVSPropertyOp36
 70
     0
102
RTVSPropertyOp37
 70
     0
102
RTVSPropertyOp38
 70
     0
102
RTVSPropertyOp39
 70
     0
102
RTVSPropertyOp40
 70
     0
102
RTVSPropertyOp41
 70
     0
102
RTVSPropertyOp42
 70
     0
102
RTVSPropertyOp43
 70
     0
102
RTVSPropertyOp44
 70
     0
102
RTVSPropertyOp45
 70
     0
102
RTVSPropertyOp46
 70
     0
102
RTVSPropertyOp47
 70
     0
102
RTVSPropertyOp48
 70
     0
102
RTVSPropertyOp49
 70
     0
102
RTVSPropertyOp50
 70
     0
102
RTVSPropertyOp51
 70
     0
102
RTVSPropertyOp52
 70
     0
102
RTVSPropertyOp53
 70
     0
102
RTVSPropertyOp54
 70
     0
102
RTVSPropertyOp55
 70
     0
102
RTVSPropertyOp56
 70
     0
102
RTVSPropertyOp57
 70
     0
102
RTVSPropertyOp58
 70
     1
102
RTVSPropertyOp59
 70
     1
102
RTVSPropertyOp60
 70
     1
102
RTVSPropertyOp61
 70
     1
102
RTVSPropertyOp62
 70
     1
  0
XRECORD
  5
13BEC
102
{ACAD_REACTORS
330
13BEB
102
}
330
13BEB
100
AcDbXrecord
280
     1
102
RTVSPost2010Prop28
280
     0
102
RTVSPost2010PropOp28
 70
     1
102
RTVSPost2010Prop29
280
     1
102
RTVSPost2010PropOp29
 70
     1
102
RTVSPost2010Prop30
280
     1
102
RTVSPost2010PropOp30
 70
     1
102
RTVSPost2010Prop31
280
     0
102
RTVSPost2010PropOp31
 70
     1
102
RTVSPost2010Prop32
280
     0
102
RTVSPost2010PropOp32
 70
     1
102
RTVSPost2010Prop33
280
     0
102
RTVSPost2010PropOp33
 70
     1
102
RTVSPost2010Prop34
280
     0
102
RTVSPost2010PropOp34
 70
     1
102
RTVSPost2010Prop35
280
     0
102
RTVSPost2010PropOp35
 70
     1
102
RTVSPost2010Prop36
280
     0
102
RTVSPost2010PropOp36
 70
     1
102
RTVSPost2010Prop37
 90
       50
102
RTVSPost2010PropOp37
 70
     1
102
RTVSPost2010Prop38
140
0.0
102
RTVSPost2010PropOp38
 70
     1
102
RTVSPost2010Prop39
140
1.0
102
RTVSPost2010PropOp39
 70
     1
102
RTVSPost2010Prop40
 90
        0
102
RTVSPost2010PropOp40
 70
     1
102
RTVSPost2010Prop41ColorIndex
 90
       18
102
RTVSPost2010Prop41ColorRGB
 90
        0
102
RTVSPost2010PropOp41
 70
     1
102
RTVSPost2010Prop42
 90
       50
102
RTVSPost2010PropOp42
 70
     1
102
RTVSPost2010Prop43
 90
        3
102
RTVSPost2010PropOp43
 70
     1
102
RTVSPost2010Prop44ColorIndex
 90
        5
102
RTVSPost2010Prop44ColorRGB
 90
      255
102
RTVSPost2010PropOp44
 70
     1
102
RTVSPost2010Prop45
280
     0
102
RTVSPost2010PropOp45
 70
     1
102
RTVSPost2010Prop46
 90
       50
102
RTVSPost2010PropOp46
 70
     1
102
RTVSPost2010Prop47
 90
       50
102
RTVSPost2010PropOp47
 70
     1
102
RTVSPost2010Prop48
 90
       50
102
RTVSPost2010PropOp48
 70
     1
102
RTVSPost2010Prop49
280
     0
102
RTVSPost2010PropOp49
 70
     1
102
RTVSPost2010Prop50
 90
       50
102
RTVSPost2010PropOp50
 70
     1
102
RTVSPost2010Prop51ColorIndex
 90
      256
102
RTVSPost2010Prop51ColorRGB
 90
-16777216
102
RTVSPost2010PropOp51
 70
     0
102
RTVSPost2010Prop52
140
1.0
102
RTVSPost2010PropOp52
 70
     0
102
RTVSPost2010Prop53
 90
        2
102
RTVSPost2010PropOp53
 70
     1
102
RTVSPost2010Prop54
  1
strokes_ogs.tif
102
RTVSPost2010PropOp54
 70
     1
102
RTVSPost2010Prop55
280
     0
102
RTVSPost2010PropOp55
 70
     1
102
RTVSPost2010Prop56
140
1.0
102
RTVSPost2010PropOp56
 70
     1
102
RTVSPost2010Prop57
140
1.0
102
RTVSPost2010PropOp57
 70
     1
102
RTVSPropertyOp0
 70
     1
102
RTVSPropertyOp1
 70
     1
102
RTVSPropertyOp2
 70
     1
102
RTVSPropertyOp3
 70
     1
102
RTVSPropertyOp4
 70
     1
102
RTVSPropertyOp5
 70
     1
102
RTVSPropertyOp6
 70
     1
102
RTVSPropertyOp7
 70
     1
102
RTVSPropertyOp8
 70
     1
102
RTVSPropertyOp9
 70
     1
102
RTVSPropertyOp10
 70
     1
102
RTVSPropertyOp11
 70
     1
102
RTVSPropertyOp12
 70
     1
102
RTVSPropertyOp13
 70
     1
102
RTVSPropertyOp14
 70
     1
102
RTVSPropertyOp15
 70
     1
102
RTVSPropertyOp16
 70
     1
102
RTVSPropertyOp17
 70
     1
102
RTVSPropertyOp18
 70
     1
102
RTVSPropertyOp19
 70
     1
102
RTVSPropertyOp20
 70
     1
102
RTVSPropertyOp21
 70
     1
102
RTVSPropertyOp22
 70
     1
102
RTVSPropertyOp23
 70
     1
102
RTVSPropertyOp24
 70
     1
102
RTVSPropertyOp25
 70
     1
102
RTVSPropertyOp26
 70
     1
102
RTVSPropertyOp27
 70
     1
102
RTVSPropertyOp28
 70
     1
102
RTVSPropertyOp29
 70
     1
102
RTVSPropertyOp30
 70
     1
102
RTVSPropertyOp31
 70
     1
102
RTVSPropertyOp32
 70
     1
102
RTVSPropertyOp33
 70
     1
102
RTVSPropertyOp34
 70
     1
102
RTVSPropertyOp35
 70
     1
102
RTVSPropertyOp36
 70
     1
102
RTVSPropertyOp37
 70
     1
102
RTVSPropertyOp38
 70
     1
102
RTVSPropertyOp39
 70
     1
102
RTVSPropertyOp40
 70
     1
102
RTVSPropertyOp41
 70
     1
102
RTVSPropertyOp42
 70
     1
102
RTVSPropertyOp43
 70
     1
102
RTVSPropertyOp44
 70
     1
102
RTVSPropertyOp45
 70
     1
102
RTVSPropertyOp46
 70
     1
102
RTVSPropertyOp47
 70
     1
102
RTVSPropertyOp48
 70
     1
102
RTVSPropertyOp49
 70
     1
102
RTVSPropertyOp50
 70
     1
102
RTVSPropertyOp51
 70
     0
102
RTVSPropertyOp52
 70
     0
102
RTVSPropertyOp53
 70
     1
102
RTVSPropertyOp54
 70
     1
102
RTVSPropertyOp55
 70
     1
102
RTVSPropertyOp56
 70
     1
102
RTVSPropertyOp57
 70
     1
102
RTVSPropertyOp58
 70
     1
102
RTVSPropertyOp59
 70
     1
102
RTVSPropertyOp60
 70
     1
102
RTVSPropertyOp61
 70
     1
102
RTVSPropertyOp62
 70
     1
  0
XRECORD
  5
13BFE
102
{ACAD_REACTORS
330
13BFD
102
}
330
13BFD
100
AcDbXrecord
280
     1
102
RTVSPost2010Prop28
280
     0
102
RTVSPost2010PropOp28
 70
     0
102
RTVSPost2010Prop29
280
     1
102
RTVSPost2010PropOp29
 70
     0
102
RTVSPost2010Prop30
280
     1
102
RTVSPost2010PropOp30
 70
     0
102
RTVSPost2010Prop31
280
     0
102
RTVSPost2010PropOp31
 70
     0
102
RTVSPost2010Prop32
280
     0
102
RTVSPost2010PropOp32
 70
     0
102
RTVSPost2010Prop33
280
     0
102
RTVSPost2010PropOp33
 70
     0
102
RTVSPost2010Prop34
280
     0
102
RTVSPost2010PropOp34
 70
     0
102
RTVSPost2010Prop35
280
     0
102
RTVSPost2010PropOp35
 70
     0
102
RTVSPost2010Prop36
280
     0
102
RTVSPost2010PropOp36
 70
     0
102
RTVSPost2010Prop37
 90
       50
102
RTVSPost2010PropOp37
 70
     0
102
RTVSPost2010Prop38
140
0.0
102
RTVSPost2010PropOp38
 70
     0
102
RTVSPost2010Prop39
140
1.0
102
RTVSPost2010PropOp39
 70
     0
102
RTVSPost2010Prop40
 90
        0
102
RTVSPost2010PropOp40
 70
     0
102
RTVSPost2010Prop41ColorIndex
 90
       18
102
RTVSPost2010Prop41ColorRGB
 90
        0
102
RTVSPost2010PropOp41
 70
     0
102
RTVSPost2010Prop42
 90
       50
102
RTVSPost2010PropOp42
 70
     0
102
RTVSPost2010Prop43
 90
        3
102
RTVSPost2010PropOp43
 70
     0
102
RTVSPost2010Prop44ColorIndex
 90
        5
102
RTVSPost2010Prop44ColorRGB
 90
      255
102
RTVSPost2010PropOp44
 70
     0
102
RTVSPost2010Prop45
280
     0
102
RTVSPost2010PropOp45
 70
     0
102
RTVSPost2010Prop46
 90
       50
102
RTVSPost2010PropOp46
 70
     0
102
RTVSPost2010Prop47
 90
       50
102
RTVSPost2010PropOp47
 70
     0
102
RTVSPost2010Prop48
 90
       50
102
RTVSPost2010PropOp48
 70
     0
102
RTVSPost2010Prop49
280
     0
102
RTVSPost2010PropOp49
 70
     0
102
RTVSPost2010Prop50
 90
       50
102
RTVSPost2010PropOp50
 70
     0
102
RTVSPost2010Prop51ColorIndex
 90
      256
102
RTVSPost2010Prop51ColorRGB
 90
-16777216
102
RTVSPost2010PropOp51
 70
     0
102
RTVSPost2010Prop52
140
1.0
102
RTVSPost2010PropOp52
 70
     0
102
RTVSPost2010Prop53
 90
        2
102
RTVSPost2010PropOp53
 70
     0
102
RTVSPost2010Prop54
  1
strokes_ogs.tif
102
RTVSPost2010PropOp54
 70
     0
102
RTVSPost2010Prop55
280
     0
102
RTVSPost2010PropOp55
 70
     0
102
RTVSPost2010Prop56
140
1.0
102
RTVSPost2010PropOp56
 70
     0
102
RTVSPost2010Prop57
140
1.0
102
RTVSPost2010PropOp57
 70
     0
102
RTVSPropertyOp0
 70
     0
102
RTVSPropertyOp1
 70
     0
102
RTVSPropertyOp2
 70
     0
102
RTVSPropertyOp3
 70
     0
102
RTVSPropertyOp4
 70
     0
102
RTVSPropertyOp5
 70
     0
102
RTVSPropertyOp6
 70
     0
102
RTVSPropertyOp7
 70
     0
102
RTVSPropertyOp8
 70
     0
102
RTVSPropertyOp9
 70
     0
102
RTVSPropertyOp10
 70
     0
102
RTVSPropertyOp11
 70
     0
102
RTVSPropertyOp12
 70
     0
102
RTVSPropertyOp13
 70
     0
102
RTVSPropertyOp14
 70
     2
102
RTVSPropertyOp15
 70
     0
102
RTVSPropertyOp16
 70
     0
102
RTVSPropertyOp17
 70
     0
102
RTVSPropertyOp18
 70
     0
102
RTVSPropertyOp19
 70
     0
102
RTVSPropertyOp20
 70
     0
102
RTVSPropertyOp21
 70
     0
102
RTVSPropertyOp22
 70
     0
102
RTVSPropertyOp23
 70
     0
102
RTVSPropertyOp24
 70
     0
102
RTVSPropertyOp25
 70
     0
102
RTVSPropertyOp26
 70
     0
102
RTVSPropertyOp27
 70
     0
102
RTVSPropertyOp28
 70
     0
102
RTVSPropertyOp29
 70
     0
102
RTVSPropertyOp30
 70
     0
102
RTVSPropertyOp31
 70
     0
102
RTVSPropertyOp32
 70
     0
102
RTVSPropertyOp33
 70
     0
102
RTVSPropertyOp34
 70
     0
102
RTVSPropertyOp35
 70
     0
102
RTVSPropertyOp36
 70
     0
102
RTVSPropertyOp37
 70
     0
102
RTVSPropertyOp38
 70
     0
102
RTVSPropertyOp39
 70
     0
102
RTVSPropertyOp40
 70
     0
102
RTVSPropertyOp41
 70
     0
102
RTVSPropertyOp42
 70
     0
102
RTVSPropertyOp43
 70
     0
102
RTVSPropertyOp44
 70
     0
102
RTVSPropertyOp45
 70
     0
102
RTVSPropertyOp46
 70
     0
102
RTVSPropertyOp47
 70
     0
102
RTVSPropertyOp48
 70
     0
102
RTVSPropertyOp49
 70
     0
102
RTVSPropertyOp50
 70
     0
102
RTVSPropertyOp51
 70
     0
102
RTVSPropertyOp52
 70
     0
102
RTVSPropertyOp53
 70
     0
102
RTVSPropertyOp54
 70
     0
102
RTVSPropertyOp55
 70
     0
102
RTVSPropertyOp56
 70
     0
102
RTVSPropertyOp57
 70
     0
102
RTVSPropertyOp58
 70
     1
102
RTVSPropertyOp59
 70
     1
102
RTVSPropertyOp60
 70
     1
102
RTVSPropertyOp61
 70
     1
102
RTVSPropertyOp62
 70
     1
  0
XRECORD
  5
13BE4
102
{ACAD_REACTORS
330
13BE3
102
}
330
13BE3
100
AcDbXrecord
280
     1
102
RTVSPost2010Prop28
280
     0
102
RTVSPost2010PropOp28
 70
     1
102
RTVSPost2010Prop29
280
     1
102
RTVSPost2010PropOp29
 70
     1
102
RTVSPost2010Prop30
280
     1
102
RTVSPost2010PropOp30
 70
     1
102
RTVSPost2010Prop31
280
     0
102
RTVSPost2010PropOp31
 70
     1
102
RTVSPost2010Prop32
280
     0
102
RTVSPost2010PropOp32
 70
     1
102
RTVSPost2010Prop33
280
     0
102
RTVSPost2010PropOp33
 70
     1
102
RTVSPost2010Prop34
280
     0
102
RTVSPost2010PropOp34
 70
     1
102
RTVSPost2010Prop35
280
     0
102
RTVSPost2010PropOp35
 70
     1
102
RTVSPost2010Prop36
280
     0
102
RTVSPost2010PropOp36
 70
     1
102
RTVSPost2010Prop37
 90
       50
102
RTVSPost2010PropOp37
 70
     1
102
RTVSPost2010Prop38
140
0.0
102
RTVSPost2010PropOp38
 70
     1
102
RTVSPost2010Prop39
140
1.0
102
RTVSPost2010PropOp39
 70
     1
102
RTVSPost2010Prop40
 90
        0
102
RTVSPost2010PropOp40
 70
     1
102
RTVSPost2010Prop41ColorIndex
 90
       18
102
RTVSPost2010Prop41ColorRGB
 90
        0
102
RTVSPost2010PropOp41
 70
     1
102
RTVSPost2010Prop42
 90
       50
102
RTVSPost2010PropOp42
 70
     1
102
RTVSPost2010Prop43
 90
        3
102
RTVSPost2010PropOp43
 70
     1
102
RTVSPost2010Prop44ColorIndex
 90
        5
102
RTVSPost2010Prop44ColorRGB
 90
      255
102
RTVSPost2010PropOp44
 70
     1
102
RTVSPost2010Prop45
280
     0
102
RTVSPost2010PropOp45
 70
     1
102
RTVSPost2010Prop46
 90
       50
102
RTVSPost2010PropOp46
 70
     1
102
RTVSPost2010Prop47
 90
       50
102
RTVSPost2010PropOp47
 70
     1
102
RTVSPost2010Prop48
 90
       50
102
RTVSPost2010PropOp48
 70
     1
102
RTVSPost2010Prop49
280
     0
102
RTVSPost2010PropOp49
 70
     1
102
RTVSPost2010Prop50
 90
       50
102
RTVSPost2010PropOp50
 70
     1
102
RTVSPost2010Prop51ColorIndex
 90
      256
102
RTVSPost2010Prop51ColorRGB
 90
-16777216
102
RTVSPost2010PropOp51
 70
     0
102
RTVSPost2010Prop52
140
1.0
102
RTVSPost2010PropOp52
 70
     0
102
RTVSPost2010Prop53
 90
        2
102
RTVSPost2010PropOp53
 70
     1
102
RTVSPost2010Prop54
  1
strokes_ogs.tif
102
RTVSPost2010PropOp54
 70
     1
102
RTVSPost2010Prop55
280
     0
102
RTVSPost2010PropOp55
 70
     1
102
RTVSPost2010Prop56
140
1.0
102
RTVSPost2010PropOp56
 70
     1
102
RTVSPost2010Prop57
140
1.0
102
RTVSPost2010PropOp57
 70
     1
102
RTVSPropertyOp0
 70
     1
102
RTVSPropertyOp1
 70
     1
102
RTVSPropertyOp2
 70
     1
102
RTVSPropertyOp3
 70
     1
102
RTVSPropertyOp4
 70
     1
102
RTVSPropertyOp5
 70
     1
102
RTVSPropertyOp6
 70
     1
102
RTVSPropertyOp7
 70
     1
102
RTVSPropertyOp8
 70
     1
102
RTVSPropertyOp9
 70
     1
102
RTVSPropertyOp10
 70
     1
102
RTVSPropertyOp11
 70
     1
102
RTVSPropertyOp12
 70
     1
102
RTVSPropertyOp13
 70
     1
102
RTVSPropertyOp14
 70
     1
102
RTVSPropertyOp15
 70
     1
102
RTVSPropertyOp16
 70
     1
102
RTVSPropertyOp17
 70
     1
102
RTVSPropertyOp18
 70
     1
102
RTVSPropertyOp19
 70
     1
102
RTVSPropertyOp20
 70
     1
102
RTVSPropertyOp21
 70
     1
102
RTVSPropertyOp22
 70
     1
102
RTVSPropertyOp23
 70
     1
102
RTVSPropertyOp24
 70
     1
102
RTVSPropertyOp25
 70
     1
102
RTVSPropertyOp26
 70
     1
102
RTVSPropertyOp27
 70
     1
102
RTVSPropertyOp28
 70
     1
102
RTVSPropertyOp29
 70
     1
102
RTVSPropertyOp30
 70
     1
102
RTVSPropertyOp31
 70
     1
102
RTVSPropertyOp32
 70
     1
102
RTVSPropertyOp33
 70
     1
102
RTVSPropertyOp34
 70
     1
102
RTVSPropertyOp35
 70
     1
102
RTVSPropertyOp36
 70
     1
102
RTVSPropertyOp37
 70
     1
102
RTVSPropertyOp38
 70
     1
102
RTVSPropertyOp39
 70
     1
102
RTVSPropertyOp40
 70
     1
102
RTVSPropertyOp41
 70
     1
102
RTVSPropertyOp42
 70
     1
102
RTVSPropertyOp43
 70
     1
102
RTVSPropertyOp44
 70
     1
102
RTVSPropertyOp45
 70
     1
102
RTVSPropertyOp46
 70
     1
102
RTVSPropertyOp47
 70
     1
102
RTVSPropertyOp48
 70
     1
102
RTVSPropertyOp49
 70
     1
102
RTVSPropertyOp50
 70
     1
102
RTVSPropertyOp51
 70
     0
102
RTVSPropertyOp52
 70
     0
102
RTVSPropertyOp53
 70
     1
102
RTVSPropertyOp54
 70
     1
102
RTVSPropertyOp55
 70
     1
102
RTVSPropertyOp56
 70
     1
102
RTVSPropertyOp57
 70
     1
102
RTVSPropertyOp58
 70
     1
102
RTVSPropertyOp59
 70
     1
102
RTVSPropertyOp60
 70
     1
102
RTVSPropertyOp61
 70
     1
102
RTVSPropertyOp62
 70
     1
  0
XRECORD
  5
13BFA
102
{ACAD_REACTORS
330
13BF9
102
}
330
13BF9
100
AcDbXrecord
280
     1
102
RTVSPost2010Prop28
280
     0
102
RTVSPost2010PropOp28
 70
     1
102
RTVSPost2010Prop29
280
     1
102
RTVSPost2010PropOp29
 70
     1
102
RTVSPost2010Prop30
280
     1
102
RTVSPost2010PropOp30
 70
     1
102
RTVSPost2010Prop31
280
     0
102
RTVSPost2010PropOp31
 70
     1
102
RTVSPost2010Prop32
280
     0
102
RTVSPost2010PropOp32
 70
     1
102
RTVSPost2010Prop33
280
     0
102
RTVSPost2010PropOp33
 70
     1
102
RTVSPost2010Prop34
280
     0
102
RTVSPost2010PropOp34
 70
     1
102
RTVSPost2010Prop35
280
     0
102
RTVSPost2010PropOp35
 70
     1
102
RTVSPost2010Prop36
280
     0
102
RTVSPost2010PropOp36
 70
     1
102
RTVSPost2010Prop37
 90
       50
102
RTVSPost2010PropOp37
 70
     1
102
RTVSPost2010Prop38
140
0.0
102
RTVSPost2010PropOp38
 70
     1
102
RTVSPost2010Prop39
140
1.0
102
RTVSPost2010PropOp39
 70
     1
102
RTVSPost2010Prop40
 90
        0
102
RTVSPost2010PropOp40
 70
     1
102
RTVSPost2010Prop41ColorIndex
 90
       18
102
RTVSPost2010Prop41ColorRGB
 90
        0
102
RTVSPost2010PropOp41
 70
     1
102
RTVSPost2010Prop42
 90
       50
102
RTVSPost2010PropOp42
 70
     1
102
RTVSPost2010Prop43
 90
        3
102
RTVSPost2010PropOp43
 70
     1
102
RTVSPost2010Prop44ColorIndex
 90
        5
102
RTVSPost2010Prop44ColorRGB
 90
      255
102
RTVSPost2010PropOp44
 70
     1
102
RTVSPost2010Prop45
280
     0
102
RTVSPost2010PropOp45
 70
     1
102
RTVSPost2010Prop46
 90
       50
102
RTVSPost2010PropOp46
 70
     1
102
RTVSPost2010Prop47
 90
       50
102
RTVSPost2010PropOp47
 70
     1
102
RTVSPost2010Prop48
 90
       50
102
RTVSPost2010PropOp48
 70
     1
102
RTVSPost2010Prop49
280
     0
102
RTVSPost2010PropOp49
 70
     1
102
RTVSPost2010Prop50
 90
       50
102
RTVSPost2010PropOp50
 70
     1
102
RTVSPost2010Prop51ColorIndex
 90
      256
102
RTVSPost2010Prop51ColorRGB
 90
-16777216
102
RTVSPost2010PropOp51
 70
     0
102
RTVSPost2010Prop52
140
1.0
102
RTVSPost2010PropOp52
 70
     0
102
RTVSPost2010Prop53
 90
        2
102
RTVSPost2010PropOp53
 70
     1
102
RTVSPost2010Prop54
  1
strokes_ogs.tif
102
RTVSPost2010PropOp54
 70
     1
102
RTVSPost2010Prop55
280
     0
102
RTVSPost2010PropOp55
 70
     1
102
RTVSPost2010Prop56
140
1.0
102
RTVSPost2010PropOp56
 70
     1
102
RTVSPost2010Prop57
140
1.0
102
RTVSPost2010PropOp57
 70
     1
102
RTVSPropertyOp0
 70
     1
102
RTVSPropertyOp1
 70
     1
102
RTVSPropertyOp2
 70
     1
102
RTVSPropertyOp3
 70
     1
102
RTVSPropertyOp4
 70
     1
102
RTVSPropertyOp5
 70
     1
102
RTVSPropertyOp6
 70
     1
102
RTVSPropertyOp7
 70
     1
102
RTVSPropertyOp8
 70
     1
102
RTVSPropertyOp9
 70
     1
102
RTVSPropertyOp10
 70
     1
102
RTVSPropertyOp11
 70
     1
102
RTVSPropertyOp12
 70
     1
102
RTVSPropertyOp13
 70
     1
102
RTVSPropertyOp14
 70
     1
102
RTVSPropertyOp15
 70
     1
102
RTVSPropertyOp16
 70
     1
102
RTVSPropertyOp17
 70
     1
102
RTVSPropertyOp18
 70
     1
102
RTVSPropertyOp19
 70
     1
102
RTVSPropertyOp20
 70
     1
102
RTVSPropertyOp21
 70
     1
102
RTVSPropertyOp22
 70
     1
102
RTVSPropertyOp23
 70
     1
102
RTVSPropertyOp24
 70
     1
102
RTVSPropertyOp25
 70
     1
102
RTVSPropertyOp26
 70
     1
102
RTVSPropertyOp27
 70
     1
102
RTVSPropertyOp28
 70
     1
102
RTVSPropertyOp29
 70
     1
102
RTVSPropertyOp30
 70
     1
102
RTVSPropertyOp31
 70
     1
102
RTVSPropertyOp32
 70
     1
102
RTVSPropertyOp33
 70
     1
102
RTVSPropertyOp34
 70
     1
102
RTVSPropertyOp35
 70
     1
102
RTVSPropertyOp36
 70
     1
102
RTVSPropertyOp37
 70
     1
102
RTVSPropertyOp38
 70
     1
102
RTVSPropertyOp39
 70
     1
102
RTVSPropertyOp40
 70
     1
102
RTVSPropertyOp41
 70
     1
102
RTVSPropertyOp42
 70
     1
102
RTVSPropertyOp43
 70
     1
102
RTVSPropertyOp44
 70
     1
102
RTVSPropertyOp45
 70
     1
102
RTVSPropertyOp46
 70
     1
102
RTVSPropertyOp47
 70
     1
102
RTVSPropertyOp48
 70
     1
102
RTVSPropertyOp49
 70
     1
102
RTVSPropertyOp50
 70
     1
102
RTVSPropertyOp51
 70
     0
102
RTVSPropertyOp52
 70
     0
102
RTVSPropertyOp53
 70
     1
102
RTVSPropertyOp54
 70
     1
102
RTVSPropertyOp55
 70
     1
102
RTVSPropertyOp56
 70
     1
102
RTVSPropertyOp57
 70
     1
102
RTVSPropertyOp58
 70
     1
102
RTVSPropertyOp59
 70
     1
102
RTVSPropertyOp60
 70
     1
102
RTVSPropertyOp61
 70
     1
102
RTVSPropertyOp62
 70
     1
  0
XRECORD
  5
13BF8
102
{ACAD_REACTORS
330
13BF7
102
}
330
13BF7
100
AcDbXrecord
280
     1
102
RTVSPost2010Prop28
280
     0
102
RTVSPost2010PropOp28
 70
     1
102
RTVSPost2010Prop29
280
     1
102
RTVSPost2010PropOp29
 70
     1
102
RTVSPost2010Prop30
280
     1
102
RTVSPost2010PropOp30
 70
     1
102
RTVSPost2010Prop31
280
     0
102
RTVSPost2010PropOp31
 70
     1
102
RTVSPost2010Prop32
280
     0
102
RTVSPost2010PropOp32
 70
     1
102
RTVSPost2010Prop33
280
     0
102
RTVSPost2010PropOp33
 70
     1
102
RTVSPost2010Prop34
280
     0
102
RTVSPost2010PropOp34
 70
     1
102
RTVSPost2010Prop35
280
     0
102
RTVSPost2010PropOp35
 70
     1
102
RTVSPost2010Prop36
280
     0
102
RTVSPost2010PropOp36
 70
     1
102
RTVSPost2010Prop37
 90
       50
102
RTVSPost2010PropOp37
 70
     1
102
RTVSPost2010Prop38
140
0.0
102
RTVSPost2010PropOp38
 70
     1
102
RTVSPost2010Prop39
140
1.0
102
RTVSPost2010PropOp39
 70
     1
102
RTVSPost2010Prop40
 90
        0
102
RTVSPost2010PropOp40
 70
     1
102
RTVSPost2010Prop41ColorIndex
 90
       18
102
RTVSPost2010Prop41ColorRGB
 90
        0
102
RTVSPost2010PropOp41
 70
     1
102
RTVSPost2010Prop42
 90
       50
102
RTVSPost2010PropOp42
 70
     1
102
RTVSPost2010Prop43
 90
        3
102
RTVSPost2010PropOp43
 70
     1
102
RTVSPost2010Prop44ColorIndex
 90
        5
102
RTVSPost2010Prop44ColorRGB
 90
      255
102
RTVSPost2010PropOp44
 70
     1
102
RTVSPost2010Prop45
280
     0
102
RTVSPost2010PropOp45
 70
     1
102
RTVSPost2010Prop46
 90
       50
102
RTVSPost2010PropOp46
 70
     1
102
RTVSPost2010Prop47
 90
       50
102
RTVSPost2010PropOp47
 70
     1
102
RTVSPost2010Prop48
 90
       50
102
RTVSPost2010PropOp48
 70
     1
102
RTVSPost2010Prop49
280
     0
102
RTVSPost2010PropOp49
 70
     1
102
RTVSPost2010Prop50
 90
       50
102
RTVSPost2010PropOp50
 70
     1
102
RTVSPost2010Prop51ColorIndex
 90
      256
102
RTVSPost2010Prop51ColorRGB
 90
-16777216
102
RTVSPost2010PropOp51
 70
     0
102
RTVSPost2010Prop52
140
1.0
102
RTVSPost2010PropOp52
 70
     0
102
RTVSPost2010Prop53
 90
        2
102
RTVSPost2010PropOp53
 70
     1
102
RTVSPost2010Prop54
  1
strokes_ogs.tif
102
RTVSPost2010PropOp54
 70
     1
102
RTVSPost2010Prop55
280
     0
102
RTVSPost2010PropOp55
 70
     1
102
RTVSPost2010Prop56
140
1.0
102
RTVSPost2010PropOp56
 70
     1
102
RTVSPost2010Prop57
140
1.0
102
RTVSPost2010PropOp57
 70
     1
102
RTVSPropertyOp0
 70
     1
102
RTVSPropertyOp1
 70
     1
102
RTVSPropertyOp2
 70
     1
102
RTVSPropertyOp3
 70
     1
102
RTVSPropertyOp4
 70
     1
102
RTVSPropertyOp5
 70
     1
102
RTVSPropertyOp6
 70
     1
102
RTVSPropertyOp7
 70
     1
102
RTVSPropertyOp8
 70
     1
102
RTVSPropertyOp9
 70
     1
102
RTVSPropertyOp10
 70
     1
102
RTVSPropertyOp11
 70
     1
102
RTVSPropertyOp12
 70
     1
102
RTVSPropertyOp13
 70
     1
102
RTVSPropertyOp14
 70
     1
102
RTVSPropertyOp15
 70
     1
102
RTVSPropertyOp16
 70
     1
102
RTVSPropertyOp17
 70
     1
102
RTVSPropertyOp18
 70
     1
102
RTVSPropertyOp19
 70
     1
102
RTVSPropertyOp20
 70
     1
102
RTVSPropertyOp21
 70
     1
102
RTVSPropertyOp22
 70
     1
102
RTVSPropertyOp23
 70
     1
102
RTVSPropertyOp24
 70
     1
102
RTVSPropertyOp25
 70
     1
102
RTVSPropertyOp26
 70
     1
102
RTVSPropertyOp27
 70
     1
102
RTVSPropertyOp28
 70
     1
102
RTVSPropertyOp29
 70
     1
102
RTVSPropertyOp30
 70
     1
102
RTVSPropertyOp31
 70
     1
102
RTVSPropertyOp32
 70
     1
102
RTVSPropertyOp33
 70
     1
102
RTVSPropertyOp34
 70
     1
102
RTVSPropertyOp35
 70
     1
102
RTVSPropertyOp36
 70
     1
102
RTVSPropertyOp37
 70
     1
102
RTVSPropertyOp38
 70
     1
102
RTVSPropertyOp39
 70
     1
102
RTVSPropertyOp40
 70
     1
102
RTVSPropertyOp41
 70
     1
102
RTVSPropertyOp42
 70
     1
102
RTVSPropertyOp43
 70
     1
102
RTVSPropertyOp44
 70
     1
102
RTVSPropertyOp45
 70
     1
102
RTVSPropertyOp46
 70
     1
102
RTVSPropertyOp47
 70
     1
102
RTVSPropertyOp48
 70
     1
102
RTVSPropertyOp49
 70
     1
102
RTVSPropertyOp50
 70
     1
102
RTVSPropertyOp51
 70
     0
102
RTVSPropertyOp52
 70
     0
102
RTVSPropertyOp53
 70
     1
102
RTVSPropertyOp54
 70
     1
102
RTVSPropertyOp55
 70
     1
102
RTVSPropertyOp56
 70
     1
102
RTVSPropertyOp57
 70
     1
102
RTVSPropertyOp58
 70
     1
102
RTVSPropertyOp59
 70
     1
102
RTVSPropertyOp60
 70
     1
102
RTVSPropertyOp61
 70
     1
102
RTVSPropertyOp62
 70
     1
  0
XRECORD
  5
13BF2
102
{ACAD_REACTORS
330
13BF1
102
}
330
13BF1
100
AcDbXrecord
280
     1
102
RTVSPost2010Prop28
280
     0
102
RTVSPost2010PropOp28
 70
     1
102
RTVSPost2010Prop29
280
     1
102
RTVSPost2010PropOp29
 70
     1
102
RTVSPost2010Prop30
280
     1
102
RTVSPost2010PropOp30
 70
     1
102
RTVSPost2010Prop31
280
     0
102
RTVSPost2010PropOp31
 70
     1
102
RTVSPost2010Prop32
280
     0
102
RTVSPost2010PropOp32
 70
     1
102
RTVSPost2010Prop33
280
     0
102
RTVSPost2010PropOp33
 70
     1
102
RTVSPost2010Prop34
280
     0
102
RTVSPost2010PropOp34
 70
     1
102
RTVSPost2010Prop35
280
     0
102
RTVSPost2010PropOp35
 70
     1
102
RTVSPost2010Prop36
280
     0
102
RTVSPost2010PropOp36
 70
     1
102
RTVSPost2010Prop37
 90
       50
102
RTVSPost2010PropOp37
 70
     1
102
RTVSPost2010Prop38
140
0.0
102
RTVSPost2010PropOp38
 70
     1
102
RTVSPost2010Prop39
140
1.0
102
RTVSPost2010PropOp39
 70
     1
102
RTVSPost2010Prop40
 90
        0
102
RTVSPost2010PropOp40
 70
     1
102
RTVSPost2010Prop41ColorIndex
 90
       18
102
RTVSPost2010Prop41ColorRGB
 90
        0
102
RTVSPost2010PropOp41
 70
     1
102
RTVSPost2010Prop42
 90
       50
102
RTVSPost2010PropOp42
 70
     1
102
RTVSPost2010Prop43
 90
        3
102
RTVSPost2010PropOp43
 70
     1
102
RTVSPost2010Prop44ColorIndex
 90
        5
102
RTVSPost2010Prop44ColorRGB
 90
      255
102
RTVSPost2010PropOp44
 70
     1
102
RTVSPost2010Prop45
280
     0
102
RTVSPost2010PropOp45
 70
     1
102
RTVSPost2010Prop46
 90
       50
102
RTVSPost2010PropOp46
 70
     1
102
RTVSPost2010Prop47
 90
       50
102
RTVSPost2010PropOp47
 70
     1
102
RTVSPost2010Prop48
 90
       50
102
RTVSPost2010PropOp48
 70
     1
102
RTVSPost2010Prop49
280
     0
102
RTVSPost2010PropOp49
 70
     1
102
RTVSPost2010Prop50
 90
       50
102
RTVSPost2010PropOp50
 70
     1
102
RTVSPost2010Prop51ColorIndex
 90
      256
102
RTVSPost2010Prop51ColorRGB
 90
-16777216
102
RTVSPost2010PropOp51
 70
     0
102
RTVSPost2010Prop52
140
1.0
102
RTVSPost2010PropOp52
 70
     0
102
RTVSPost2010Prop53
 90
        2
102
RTVSPost2010PropOp53
 70
     1
102
RTVSPost2010Prop54
  1
strokes_ogs.tif
102
RTVSPost2010PropOp54
 70
     1
102
RTVSPost2010Prop55
280
     0
102
RTVSPost2010PropOp55
 70
     1
102
RTVSPost2010Prop56
140
1.0
102
RTVSPost2010PropOp56
 70
     1
102
RTVSPost2010Prop57
140
1.0
102
RTVSPost2010PropOp57
 70
     1
102
RTVSPropertyOp0
 70
     1
102
RTVSPropertyOp1
 70
     1
102
RTVSPropertyOp2
 70
     1
102
RTVSPropertyOp3
 70
     1
102
RTVSPropertyOp4
 70
     1
102
RTVSPropertyOp5
 70
     1
102
RTVSPropertyOp6
 70
     1
102
RTVSPropertyOp7
 70
     1
102
RTVSPropertyOp8
 70
     1
102
RTVSPropertyOp9
 70
     1
102
RTVSPropertyOp10
 70
     1
102
RTVSPropertyOp11
 70
     1
102
RTVSPropertyOp12
 70
     1
102
RTVSPropertyOp13
 70
     1
102
RTVSPropertyOp14
 70
     1
102
RTVSPropertyOp15
 70
     1
102
RTVSPropertyOp16
 70
     1
102
RTVSPropertyOp17
 70
     1
102
RTVSPropertyOp18
 70
     1
102
RTVSPropertyOp19
 70
     1
102
RTVSPropertyOp20
 70
     1
102
RTVSPropertyOp21
 70
     1
102
RTVSPropertyOp22
 70
     1
102
RTVSPropertyOp23
 70
     1
102
RTVSPropertyOp24
 70
     1
102
RTVSPropertyOp25
 70
     1
102
RTVSPropertyOp26
 70
     1
102
RTVSPropertyOp27
 70
     1
102
RTVSPropertyOp28
 70
     1
102
RTVSPropertyOp29
 70
     1
102
RTVSPropertyOp30
 70
     1
102
RTVSPropertyOp31
 70
     1
102
RTVSPropertyOp32
 70
     1
102
RTVSPropertyOp33
 70
     1
102
RTVSPropertyOp34
 70
     1
102
RTVSPropertyOp35
 70
     1
102
RTVSPropertyOp36
 70
     1
102
RTVSPropertyOp37
 70
     1
102
RTVSPropertyOp38
 70
     1
102
RTVSPropertyOp39
 70
     1
102
RTVSPropertyOp40
 70
     1
102
RTVSPropertyOp41
 70
     1
102
RTVSPropertyOp42
 70
     1
102
RTVSPropertyOp43
 70
     1
102
RTVSPropertyOp44
 70
     1
102
RTVSPropertyOp45
 70
     1
102
RTVSPropertyOp46
 70
     1
102
RTVSPropertyOp47
 70
     1
102
RTVSPropertyOp48
 70
     1
102
RTVSPropertyOp49
 70
     1
102
RTVSPropertyOp50
 70
     1
102
RTVSPropertyOp51
 70
     0
102
RTVSPropertyOp52
 70
     0
102
RTVSPropertyOp53
 70
     1
102
RTVSPropertyOp54
 70
     1
102
RTVSPropertyOp55
 70
     1
102
RTVSPropertyOp56
 70
     1
102
RTVSPropertyOp57
 70
     1
102
RTVSPropertyOp58
 70
     1
102
RTVSPropertyOp59
 70
     1
102
RTVSPropertyOp60
 70
     1
102
RTVSPropertyOp61
 70
     1
102
RTVSPropertyOp62
 70
     1
  0
XRECORD
  5
13BF4
102
{ACAD_REACTORS
330
13BF3
102
}
330
13BF3
100
AcDbXrecord
280
     1
102
RTVSPost2010Prop28
280
     0
102
RTVSPost2010PropOp28
 70
     1
102
RTVSPost2010Prop29
280
     1
102
RTVSPost2010PropOp29
 70
     1
102
RTVSPost2010Prop30
280
     1
102
RTVSPost2010PropOp30
 70
     1
102
RTVSPost2010Prop31
280
     0
102
RTVSPost2010PropOp31
 70
     1
102
RTVSPost2010Prop32
280
     0
102
RTVSPost2010PropOp32
 70
     1
102
RTVSPost2010Prop33
280
     0
102
RTVSPost2010PropOp33
 70
     1
102
RTVSPost2010Prop34
280
     0
102
RTVSPost2010PropOp34
 70
     1
102
RTVSPost2010Prop35
280
     0
102
RTVSPost2010PropOp35
 70
     1
102
RTVSPost2010Prop36
280
     0
102
RTVSPost2010PropOp36
 70
     1
102
RTVSPost2010Prop37
 90
       50
102
RTVSPost2010PropOp37
 70
     1
102
RTVSPost2010Prop38
140
0.0
102
RTVSPost2010PropOp38
 70
     1
102
RTVSPost2010Prop39
140
1.0
102
RTVSPost2010PropOp39
 70
     1
102
RTVSPost2010Prop40
 90
        0
102
RTVSPost2010PropOp40
 70
     1
102
RTVSPost2010Prop41ColorIndex
 90
       18
102
RTVSPost2010Prop41ColorRGB
 90
        0
102
RTVSPost2010PropOp41
 70
     1
102
RTVSPost2010Prop42
 90
       50
102
RTVSPost2010PropOp42
 70
     1
102
RTVSPost2010Prop43
 90
        3
102
RTVSPost2010PropOp43
 70
     1
102
RTVSPost2010Prop44ColorIndex
 90
        5
102
RTVSPost2010Prop44ColorRGB
 90
      255
102
RTVSPost2010PropOp44
 70
     1
102
RTVSPost2010Prop45
280
     0
102
RTVSPost2010PropOp45
 70
     1
102
RTVSPost2010Prop46
 90
       50
102
RTVSPost2010PropOp46
 70
     1
102
RTVSPost2010Prop47
 90
       50
102
RTVSPost2010PropOp47
 70
     1
102
RTVSPost2010Prop48
 90
       50
102
RTVSPost2010PropOp48
 70
     1
102
RTVSPost2010Prop49
280
     0
102
RTVSPost2010PropOp49
 70
     1
102
RTVSPost2010Prop50
 90
       50
102
RTVSPost2010PropOp50
 70
     1
102
RTVSPost2010Prop51ColorIndex
 90
      256
102
RTVSPost2010Prop51ColorRGB
 90
-16777216
102
RTVSPost2010PropOp51
 70
     0
102
RTVSPost2010Prop52
140
1.0
102
RTVSPost2010PropOp52
 70
     0
102
RTVSPost2010Prop53
 90
        2
102
RTVSPost2010PropOp53
 70
     1
102
RTVSPost2010Prop54
  1
strokes_ogs.tif
102
RTVSPost2010PropOp54
 70
     1
102
RTVSPost2010Prop55
280
     0
102
RTVSPost2010PropOp55
 70
     1
102
RTVSPost2010Prop56
140
1.0
102
RTVSPost2010PropOp56
 70
     1
102
RTVSPost2010Prop57
140
1.0
102
RTVSPost2010PropOp57
 70
     1
102
RTVSPropertyOp0
 70
     1
102
RTVSPropertyOp1
 70
     1
102
RTVSPropertyOp2
 70
     1
102
RTVSPropertyOp3
 70
     1
102
RTVSPropertyOp4
 70
     1
102
RTVSPropertyOp5
 70
     1
102
RTVSPropertyOp6
 70
     1
102
RTVSPropertyOp7
 70
     1
102
RTVSPropertyOp8
 70
     1
102
RTVSPropertyOp9
 70
     1
102
RTVSPropertyOp10
 70
     1
102
RTVSPropertyOp11
 70
     1
102
RTVSPropertyOp12
 70
     1
102
RTVSPropertyOp13
 70
     1
102
RTVSPropertyOp14
 70
     1
102
RTVSPropertyOp15
 70
     1
102
RTVSPropertyOp16
 70
     1
102
RTVSPropertyOp17
 70
     1
102
RTVSPropertyOp18
 70
     1
102
RTVSPropertyOp19
 70
     1
102
RTVSPropertyOp20
 70
     1
102
RTVSPropertyOp21
 70
     1
102
RTVSPropertyOp22
 70
     1
102
RTVSPropertyOp23
 70
     1
102
RTVSPropertyOp24
 70
     1
102
RTVSPropertyOp25
 70
     1
102
RTVSPropertyOp26
 70
     1
102
RTVSPropertyOp27
 70
     1
102
RTVSPropertyOp28
 70
     1
102
RTVSPropertyOp29
 70
     1
102
RTVSPropertyOp30
 70
     1
102
RTVSPropertyOp31
 70
     1
102
RTVSPropertyOp32
 70
     1
102
RTVSPropertyOp33
 70
     1
102
RTVSPropertyOp34
 70
     1
102
RTVSPropertyOp35
 70
     1
102
RTVSPropertyOp36
 70
     1
102
RTVSPropertyOp37
 70
     1
102
RTVSPropertyOp38
 70
     1
102
RTVSPropertyOp39
 70
     1
102
RTVSPropertyOp40
 70
     1
102
RTVSPropertyOp41
 70
     1
102
RTVSPropertyOp42
 70
     1
102
RTVSPropertyOp43
 70
     1
102
RTVSPropertyOp44
 70
     1
102
RTVSPropertyOp45
 70
     1
102
RTVSPropertyOp46
 70
     1
102
RTVSPropertyOp47
 70
     1
102
RTVSPropertyOp48
 70
     1
102
RTVSPropertyOp49
 70
     1
102
RTVSPropertyOp50
 70
     1
102
RTVSPropertyOp51
 70
     0
102
RTVSPropertyOp52
 70
     0
102
RTVSPropertyOp53
 70
     1
102
RTVSPropertyOp54
 70
     1
102
RTVSPropertyOp55
 70
     1
102
RTVSPropertyOp56
 70
     1
102
RTVSPropertyOp57
 70
     1
102
RTVSPropertyOp58
 70
     1
102
RTVSPropertyOp59
 70
     1
102
RTVSPropertyOp60
 70
     1
102
RTVSPropertyOp61
 70
     1
102
RTVSPropertyOp62
 70
     1
  0
XRECORD
  5
13BEA
102
{ACAD_REACTORS
330
13BE9
102
}
330
13BE9
100
AcDbXrecord
280
     1
102
RTVSPost2010Prop28
280
     0
102
RTVSPost2010PropOp28
 70
     1
102
RTVSPost2010Prop29
280
     1
102
RTVSPost2010PropOp29
 70
     1
102
RTVSPost2010Prop30
280
     1
102
RTVSPost2010PropOp30
 70
     1
102
RTVSPost2010Prop31
280
     0
102
RTVSPost2010PropOp31
 70
     1
102
RTVSPost2010Prop32
280
     0
102
RTVSPost2010PropOp32
 70
     1
102
RTVSPost2010Prop33
280
     0
102
RTVSPost2010PropOp33
 70
     1
102
RTVSPost2010Prop34
280
     0
102
RTVSPost2010PropOp34
 70
     1
102
RTVSPost2010Prop35
280
     0
102
RTVSPost2010PropOp35
 70
     1
102
RTVSPost2010Prop36
280
     0
102
RTVSPost2010PropOp36
 70
     1
102
RTVSPost2010Prop37
 90
       50
102
RTVSPost2010PropOp37
 70
     1
102
RTVSPost2010Prop38
140
0.0
102
RTVSPost2010PropOp38
 70
     1
102
RTVSPost2010Prop39
140
1.0
102
RTVSPost2010PropOp39
 70
     1
102
RTVSPost2010Prop40
 90
        0
102
RTVSPost2010PropOp40
 70
     1
102
RTVSPost2010Prop41ColorIndex
 90
       18
102
RTVSPost2010Prop41ColorRGB
 90
        0
102
RTVSPost2010PropOp41
 70
     1
102
RTVSPost2010Prop42
 90
       50
102
RTVSPost2010PropOp42
 70
     1
102
RTVSPost2010Prop43
 90
        3
102
RTVSPost2010PropOp43
 70
     1
102
RTVSPost2010Prop44ColorIndex
 90
        5
102
RTVSPost2010Prop44ColorRGB
 90
      255
102
RTVSPost2010PropOp44
 70
     1
102
RTVSPost2010Prop45
280
     0
102
RTVSPost2010PropOp45
 70
     1
102
RTVSPost2010Prop46
 90
       50
102
RTVSPost2010PropOp46
 70
     1
102
RTVSPost2010Prop47
 90
       50
102
RTVSPost2010PropOp47
 70
     1
102
RTVSPost2010Prop48
 90
       50
102
RTVSPost2010PropOp48
 70
     1
102
RTVSPost2010Prop49
280
     0
102
RTVSPost2010PropOp49
 70
     1
102
RTVSPost2010Prop50
 90
       50
102
RTVSPost2010PropOp50
 70
     1
102
RTVSPost2010Prop51ColorIndex
 90
      256
102
RTVSPost2010Prop51ColorRGB
 90
-16777216
102
RTVSPost2010PropOp51
 70
     0
102
RTVSPost2010Prop52
140
1.0
102
RTVSPost2010PropOp52
 70
     0
102
RTVSPost2010Prop53
 90
        2
102
RTVSPost2010PropOp53
 70
     1
102
RTVSPost2010Prop54
  1
strokes_ogs.tif
102
RTVSPost2010PropOp54
 70
     1
102
RTVSPost2010Prop55
280
     0
102
RTVSPost2010PropOp55
 70
     1
102
RTVSPost2010Prop56
140
1.0
102
RTVSPost2010PropOp56
 70
     1
102
RTVSPost2010Prop57
140
1.0
102
RTVSPost2010PropOp57
 70
     1
102
RTVSPropertyOp0
 70
     1
102
RTVSPropertyOp1
 70
     1
102
RTVSPropertyOp2
 70
     1
102
RTVSPropertyOp3
 70
     1
102
RTVSPropertyOp4
 70
     1
102
RTVSPropertyOp5
 70
     1
102
RTVSPropertyOp6
 70
     1
102
RTVSPropertyOp7
 70
     1
102
RTVSPropertyOp8
 70
     1
102
RTVSPropertyOp9
 70
     1
102
RTVSPropertyOp10
 70
     1
102
RTVSPropertyOp11
 70
     1
102
RTVSPropertyOp12
 70
     1
102
RTVSPropertyOp13
 70
     1
102
RTVSPropertyOp14
 70
     1
102
RTVSPropertyOp15
 70
     1
102
RTVSPropertyOp16
 70
     1
102
RTVSPropertyOp17
 70
     1
102
RTVSPropertyOp18
 70
     1
102
RTVSPropertyOp19
 70
     1
102
RTVSPropertyOp20
 70
     1
102
RTVSPropertyOp21
 70
     1
102
RTVSPropertyOp22
 70
     1
102
RTVSPropertyOp23
 70
     1
102
RTVSPropertyOp24
 70
     1
102
RTVSPropertyOp25
 70
     1
102
RTVSPropertyOp26
 70
     1
102
RTVSPropertyOp27
 70
     1
102
RTVSPropertyOp28
 70
     1
102
RTVSPropertyOp29
 70
     1
102
RTVSPropertyOp30
 70
     1
102
RTVSPropertyOp31
 70
     1
102
RTVSPropertyOp32
 70
     1
102
RTVSPropertyOp33
 70
     1
102
RTVSPropertyOp34
 70
     1
102
RTVSPropertyOp35
 70
     1
102
RTVSPropertyOp36
 70
     1
102
RTVSPropertyOp37
 70
     1
102
RTVSPropertyOp38
 70
     1
102
RTVSPropertyOp39
 70
     1
102
RTVSPropertyOp40
 70
     1
102
RTVSPropertyOp41
 70
     1
102
RTVSPropertyOp42
 70
     1
102
RTVSPropertyOp43
 70
     1
102
RTVSPropertyOp44
 70
     1
102
RTVSPropertyOp45
 70
     1
102
RTVSPropertyOp46
 70
     1
102
RTVSPropertyOp47
 70
     1
102
RTVSPropertyOp48
 70
     1
102
RTVSPropertyOp49
 70
     1
102
RTVSPropertyOp50
 70
     1
102
RTVSPropertyOp51
 70
     0
102
RTVSPropertyOp52
 70
     0
102
RTVSPropertyOp53
 70
     1
102
RTVSPropertyOp54
 70
     1
102
RTVSPropertyOp55
 70
     1
102
RTVSPropertyOp56
 70
     1
102
RTVSPropertyOp57
 70
     1
102
RTVSPropertyOp58
 70
     1
102
RTVSPropertyOp59
 70
     1
102
RTVSPropertyOp60
 70
     1
102
RTVSPropertyOp61
 70
     1
102
RTVSPropertyOp62
 70
     1
  0
XRECORD
  5
13BDE
102
{ACAD_REACTORS
330
13BDD
102
}
330
13BDD
100
AcDbXrecord
280
     1
102
RTVSPost2010Prop28
280
     0
102
RTVSPost2010PropOp28
 70
     1
102
RTVSPost2010Prop29
280
     1
102
RTVSPost2010PropOp29
 70
     1
102
RTVSPost2010Prop30
280
     1
102
RTVSPost2010PropOp30
 70
     1
102
RTVSPost2010Prop31
280
     0
102
RTVSPost2010PropOp31
 70
     1
102
RTVSPost2010Prop32
280
     0
102
RTVSPost2010PropOp32
 70
     1
102
RTVSPost2010Prop33
280
     0
102
RTVSPost2010PropOp33
 70
     1
102
RTVSPost2010Prop34
280
     0
102
RTVSPost2010PropOp34
 70
     1
102
RTVSPost2010Prop35
280
     0
102
RTVSPost2010PropOp35
 70
     1
102
RTVSPost2010Prop36
280
     0
102
RTVSPost2010PropOp36
 70
     1
102
RTVSPost2010Prop37
 90
       50
102
RTVSPost2010PropOp37
 70
     1
102
RTVSPost2010Prop38
140
0.0
102
RTVSPost2010PropOp38
 70
     1
102
RTVSPost2010Prop39
140
1.0
102
RTVSPost2010PropOp39
 70
     1
102
RTVSPost2010Prop40
 90
        0
102
RTVSPost2010PropOp40
 70
     1
102
RTVSPost2010Prop41ColorIndex
 90
       18
102
RTVSPost2010Prop41ColorRGB
 90
        0
102
RTVSPost2010PropOp41
 70
     1
102
RTVSPost2010Prop42
 90
       50
102
RTVSPost2010PropOp42
 70
     1
102
RTVSPost2010Prop43
 90
        3
102
RTVSPost2010PropOp43
 70
     1
102
RTVSPost2010Prop44ColorIndex
 90
        5
102
RTVSPost2010Prop44ColorRGB
 90
      255
102
RTVSPost2010PropOp44
 70
     1
102
RTVSPost2010Prop45
280
     0
102
RTVSPost2010PropOp45
 70
     1
102
RTVSPost2010Prop46
 90
       50
102
RTVSPost2010PropOp46
 70
     1
102
RTVSPost2010Prop47
 90
       50
102
RTVSPost2010PropOp47
 70
     1
102
RTVSPost2010Prop48
 90
       50
102
RTVSPost2010PropOp48
 70
     1
102
RTVSPost2010Prop49
280
     0
102
RTVSPost2010PropOp49
 70
     1
102
RTVSPost2010Prop50
 90
       50
102
RTVSPost2010PropOp50
 70
     1
102
RTVSPost2010Prop51ColorIndex
 90
      256
102
RTVSPost2010Prop51ColorRGB
 90
-16777216
102
RTVSPost2010PropOp51
 70
     0
102
RTVSPost2010Prop52
140
1.0
102
RTVSPost2010PropOp52
 70
     0
102
RTVSPost2010Prop53
 90
        2
102
RTVSPost2010PropOp53
 70
     1
102
RTVSPost2010Prop54
  1
strokes_ogs.tif
102
RTVSPost2010PropOp54
 70
     1
102
RTVSPost2010Prop55
280
     0
102
RTVSPost2010PropOp55
 70
     1
102
RTVSPost2010Prop56
140
1.0
102
RTVSPost2010PropOp56
 70
     1
102
RTVSPost2010Prop57
140
1.0
102
RTVSPost2010PropOp57
 70
     1
102
RTVSPropertyOp0
 70
     1
102
RTVSPropertyOp1
 70
     1
102
RTVSPropertyOp2
 70
     1
102
RTVSPropertyOp3
 70
     1
102
RTVSPropertyOp4
 70
     1
102
RTVSPropertyOp5
 70
     1
102
RTVSPropertyOp6
 70
     1
102
RTVSPropertyOp7
 70
     1
102
RTVSPropertyOp8
 70
     1
102
RTVSPropertyOp9
 70
     1
102
RTVSPropertyOp10
 70
     1
102
RTVSPropertyOp11
 70
     1
102
RTVSPropertyOp12
 70
     1
102
RTVSPropertyOp13
 70
     1
102
RTVSPropertyOp14
 70
     1
102
RTVSPropertyOp15
 70
     1
102
RTVSPropertyOp16
 70
     1
102
RTVSPropertyOp17
 70
     1
102
RTVSPropertyOp18
 70
     1
102
RTVSPropertyOp19
 70
     1
102
RTVSPropertyOp20
 70
     1
102
RTVSPropertyOp21
 70
     1
102
RTVSPropertyOp22
 70
     1
102
RTVSPropertyOp23
 70
     1
102
RTVSPropertyOp24
 70
     1
102
RTVSPropertyOp25
 70
     1
102
RTVSPropertyOp26
 70
     1
102
RTVSPropertyOp27
 70
     1
102
RTVSPropertyOp28
 70
     1
102
RTVSPropertyOp29
 70
     1
102
RTVSPropertyOp30
 70
     1
102
RTVSPropertyOp31
 70
     1
102
RTVSPropertyOp32
 70
     1
102
RTVSPropertyOp33
 70
     1
102
RTVSPropertyOp34
 70
     1
102
RTVSPropertyOp35
 70
     1
102
RTVSPropertyOp36
 70
     1
102
RTVSPropertyOp37
 70
     1
102
RTVSPropertyOp38
 70
     1
102
RTVSPropertyOp39
 70
     1
102
RTVSPropertyOp40
 70
     1
102
RTVSPropertyOp41
 70
     1
102
RTVSPropertyOp42
 70
     1
102
RTVSPropertyOp43
 70
     1
102
RTVSPropertyOp44
 70
     1
102
RTVSPropertyOp45
 70
     1
102
RTVSPropertyOp46
 70
     1
102
RTVSPropertyOp47
 70
     1
102
RTVSPropertyOp48
 70
     1
102
RTVSPropertyOp49
 70
     1
102
RTVSPropertyOp50
 70
     1
102
RTVSPropertyOp51
 70
     0
102
RTVSPropertyOp52
 70
     0
102
RTVSPropertyOp53
 70
     1
102
RTVSPropertyOp54
 70
     1
102
RTVSPropertyOp55
 70
     1
102
RTVSPropertyOp56
 70
     1
102
RTVSPropertyOp57
 70
     1
102
RTVSPropertyOp58
 70
     1
102
RTVSPropertyOp59
 70
     1
102
RTVSPropertyOp60
 70
     1
102
RTVSPropertyOp61
 70
     1
102
RTVSPropertyOp62
 70
     1
  0
XRECORD
  5
13BF6
102
{ACAD_REACTORS
330
13BF5
102
}
330
13BF5
100
AcDbXrecord
280
     1
102
RTVSPost2010Prop28
280
     0
102
RTVSPost2010PropOp28
 70
     1
102
RTVSPost2010Prop29
280
     1
102
RTVSPost2010PropOp29
 70
     1
102
RTVSPost2010Prop30
280
     1
102
RTVSPost2010PropOp30
 70
     1
102
RTVSPost2010Prop31
280
     0
102
RTVSPost2010PropOp31
 70
     1
102
RTVSPost2010Prop32
280
     0
102
RTVSPost2010PropOp32
 70
     1
102
RTVSPost2010Prop33
280
     0
102
RTVSPost2010PropOp33
 70
     1
102
RTVSPost2010Prop34
280
     0
102
RTVSPost2010PropOp34
 70
     1
102
RTVSPost2010Prop35
280
     0
102
RTVSPost2010PropOp35
 70
     1
102
RTVSPost2010Prop36
280
     0
102
RTVSPost2010PropOp36
 70
     1
102
RTVSPost2010Prop37
 90
       50
102
RTVSPost2010PropOp37
 70
     1
102
RTVSPost2010Prop38
140
0.0
102
RTVSPost2010PropOp38
 70
     1
102
RTVSPost2010Prop39
140
1.0
102
RTVSPost2010PropOp39
 70
     1
102
RTVSPost2010Prop40
 90
        0
102
RTVSPost2010PropOp40
 70
     1
102
RTVSPost2010Prop41ColorIndex
 90
       18
102
RTVSPost2010Prop41ColorRGB
 90
        0
102
RTVSPost2010PropOp41
 70
     1
102
RTVSPost2010Prop42
 90
       50
102
RTVSPost2010PropOp42
 70
     1
102
RTVSPost2010Prop43
 90
        3
102
RTVSPost2010PropOp43
 70
     1
102
RTVSPost2010Prop44ColorIndex
 90
        5
102
RTVSPost2010Prop44ColorRGB
 90
      255
102
RTVSPost2010PropOp44
 70
     1
102
RTVSPost2010Prop45
280
     0
102
RTVSPost2010PropOp45
 70
     1
102
RTVSPost2010Prop46
 90
       50
102
RTVSPost2010PropOp46
 70
     1
102
RTVSPost2010Prop47
 90
       50
102
RTVSPost2010PropOp47
 70
     1
102
RTVSPost2010Prop48
 90
       50
102
RTVSPost2010PropOp48
 70
     1
102
RTVSPost2010Prop49
280
     0
102
RTVSPost2010PropOp49
 70
     1
102
RTVSPost2010Prop50
 90
       50
102
RTVSPost2010PropOp50
 70
     1
102
RTVSPost2010Prop51ColorIndex
 90
      256
102
RTVSPost2010Prop51ColorRGB
 90
-16777216
102
RTVSPost2010PropOp51
 70
     0
102
RTVSPost2010Prop52
140
1.0
102
RTVSPost2010PropOp52
 70
     0
102
RTVSPost2010Prop53
 90
        2
102
RTVSPost2010PropOp53
 70
     1
102
RTVSPost2010Prop54
  1
strokes_ogs.tif
102
RTVSPost2010PropOp54
 70
     1
102
RTVSPost2010Prop55
280
     0
102
RTVSPost2010PropOp55
 70
     1
102
RTVSPost2010Prop56
140
1.0
102
RTVSPost2010PropOp56
 70
     1
102
RTVSPost2010Prop57
140
1.0
102
RTVSPost2010PropOp57
 70
     1
102
RTVSPropertyOp0
 70
     1
102
RTVSPropertyOp1
 70
     1
102
RTVSPropertyOp2
 70
     1
102
RTVSPropertyOp3
 70
     1
102
RTVSPropertyOp4
 70
     1
102
RTVSPropertyOp5
 70
     1
102
RTVSPropertyOp6
 70
     1
102
RTVSPropertyOp7
 70
     1
102
RTVSPropertyOp8
 70
     1
102
RTVSPropertyOp9
 70
     1
102
RTVSPropertyOp10
 70
     1
102
RTVSPropertyOp11
 70
     1
102
RTVSPropertyOp12
 70
     1
102
RTVSPropertyOp13
 70
     1
102
RTVSPropertyOp14
 70
     1
102
RTVSPropertyOp15
 70
     1
102
RTVSPropertyOp16
 70
     1
102
RTVSPropertyOp17
 70
     1
102
RTVSPropertyOp18
 70
     1
102
RTVSPropertyOp19
 70
     1
102
RTVSPropertyOp20
 70
     1
102
RTVSPropertyOp21
 70
     1
102
RTVSPropertyOp22
 70
     1
102
RTVSPropertyOp23
 70
     1
102
RTVSPropertyOp24
 70
     1
102
RTVSPropertyOp25
 70
     1
102
RTVSPropertyOp26
 70
     1
102
RTVSPropertyOp27
 70
     1
102
RTVSPropertyOp28
 70
     1
102
RTVSPropertyOp29
 70
     1
102
RTVSPropertyOp30
 70
     1
102
RTVSPropertyOp31
 70
     1
102
RTVSPropertyOp32
 70
     1
102
RTVSPropertyOp33
 70
     1
102
RTVSPropertyOp34
 70
     1
102
RTVSPropertyOp35
 70
     1
102
RTVSPropertyOp36
 70
     1
102
RTVSPropertyOp37
 70
     1
102
RTVSPropertyOp38
 70
     1
102
RTVSPropertyOp39
 70
     1
102
RTVSPropertyOp40
 70
     1
102
RTVSPropertyOp41
 70
     1
102
RTVSPropertyOp42
 70
     1
102
RTVSPropertyOp43
 70
     1
102
RTVSPropertyOp44
 70
     1
102
RTVSPropertyOp45
 70
     1
102
RTVSPropertyOp46
 70
     1
102
RTVSPropertyOp47
 70
     1
102
RTVSPropertyOp48
 70
     1
102
RTVSPropertyOp49
 70
     1
102
RTVSPropertyOp50
 70
     1
102
RTVSPropertyOp51
 70
     0
102
RTVSPropertyOp52
 70
     0
102
RTVSPropertyOp53
 70
     1
102
RTVSPropertyOp54
 70
     1
102
RTVSPropertyOp55
 70
     1
102
RTVSPropertyOp56
 70
     1
102
RTVSPropertyOp57
 70
     1
102
RTVSPropertyOp58
 70
     1
102
RTVSPropertyOp59
 70
     1
102
RTVSPropertyOp60
 70
     1
102
RTVSPropertyOp61
 70
     1
102
RTVSPropertyOp62
 70
     1
  0
ENDSEC
  0
EOF
