  0
SECTION
  2
HEADER
  9
$ACADVER
  1
AC1015
  9
$ACADMAINTVER
 70
    20
  9
$DWGCODEPAGE
  3
ANSI_932
  9
$INSBASE
 10
0.0
 20
0.0
 30
0.0
  9
$EXTMIN
 10
104.9999999999996
 20
0.0
 30
-0.000000000000296
  9
$EXTMAX
 10
12230.40000000001
 20
8557.199999999999
 30
0.0000000000002935
  9
$LIMMIN
 10
0.0
 20
0.0
  9
$LIMMAX
 10
12600.0
 20
8910.0
  9
$ORTHOMODE
 70
     0
  9
$REGENMODE
 70
     1
  9
$FILLMODE
 70
     1
  9
$QTEXTMODE
 70
     0
  9
$MIRRTEXT
 70
     1
  9
$LTSCALE
 40
7.0
  9
$ATTMODE
 70
     1
  9
$TEXTSIZE
 40
100.0
  9
$TRACEWID
 40
1.0
  9
$TEXTSTYLE
  7
STYLE3
  9
$CLAYER
  8
点線
  9
$CELTYPE
  6
BYLAYER
  9
$CECOLOR
 62
   256
  9
$CELTSCALE
 40
50.0
  9
$DISPSILH
 70
     0
  9
$DIMSCALE
 40
30.0
  9
$DIMASZ
 40
2.5
  9
$DIMEXO
 40
0.5
  9
$DIMDLI
 40
7.0
  9
$DIMRND
 40
0.0
  9
$DIMDLE
 40
0.0
  9
$DIMEXE
 40
1.5
  9
$DIMTP
 40
0.0
  9
$DIMTM
 40
0.0
  9
$DIMTXT
 40
3.0
  9
$DIMCEN
 40
0.0
  9
$DIMTSZ
 40
0.0
  9
$DIMTOL
 70
     0
  9
$DIMLIM
 70
     0
  9
$DIMTIH
 70
     1
  9
$DIMTOH
 70
     1
  9
$DIMSE1
 70
     0
  9
$DIMSE2
 70
     0
  9
$DIMTAD
 70
     3
  9
$DIMZIN
 70
     8
  9
$DIMBLK
  1

  9
$DIMASO
 70
     1
  9
$DIMSHO
 70
     1
  9
$DIMPOST
  1

  9
$DIMAPOST
  1

  9
$DIMALT
 70
     0
  9
$DIMALTD
 70
     2
  9
$DIMALTF
 40
0.0394
  9
$DIMLFAC
 40
1.0
  9
$DIMTOFL
 70
     1
  9
$DIMTVP
 40
0.0
  9
$DIMTIX
 70
     1
  9
$DIMSOXD
 70
     1
  9
$DIMSAH
 70
     1
  9
$DIMBLK1
  1
DOTSMALL
  9
$DIMBLK2
  1
DOTSMALL
  9
$DIMSTYLE
  2
INABA_S30G
  9
$DIMCLRD
 70
     0
  9
$DIMCLRE
 70
     0
  9
$DIMCLRT
 70
     7
  9
$DIMTFAC
 40
1.0
  9
$DIMGAP
 40
1.0
  9
$DIMJUST
 70
     0
  9
$DIMSD1
 70
     0
  9
$DIMSD2
 70
     0
  9
$DIMTOLJ
 70
     1
  9
$DIMTZIN
 70
     0
  9
$DIMALTZ
 70
     0
  9
$DIMALTTZ
 70
     0
  9
$DIMUPT
 70
     0
  9
$DIMDEC
 70
     1
  9
$DIMTDEC
 70
     1
  9
$DIMALTU
 70
     2
  9
$DIMALTTD
 70
     2
  9
$DIMTXSTY
  7
STYLE1
  9
$DIMAUNIT
 70
     0
  9
$DIMADEC
 70
     0
  9
$DIMALTRND
 40
0.0
  9
$DIMAZIN
 70
     0
  9
$DIMDSEP
 70
    46
  9
$DIMATFIT
 70
     3
  9
$DIMFRAC
 70
     0
  9
$DIMLDRBLK
  1

  9
$DIMLUNIT
 70
     2
  9
$DIMLWD
 70
    -2
  9
$DIMLWE
 70
    -2
  9
$DIMTMOVE
 70
     0
  9
$LUNITS
 70
     2
  9
$LUPREC
 70
     1
  9
$SKETCHINC
 40
1.0
  9
$FILLETRAD
 40
5.0
  9
$AUNITS
 70
     0
  9
$AUPREC
 70
     0
  9
$MENU
  1
acad
  9
$ELEVATION
 40
0.0
  9
$PELEVATION
 40
0.0
  9
$THICKNESS
 40
0.0
  9
$LIMCHECK
 70
     0
  9
$CHAMFERA
 40
0.0
  9
$CHAMFERB
 40
0.0
  9
$CHAMFERC
 40
0.0
  9
$CHAMFERD
 40
0.0
  9
$SKPOLY
 70
     0
  9
$TDCREATE
 40
2451074.411873148
  9
$TDUCREATE
 40
2451074.036873148
  9
$TDUPDATE
 40
2455957.455497141
  9
$TDUUPDATE
 40
2455957.080497141
  9
$TDINDWG
 40
0.3304852778
  9
$TDUSRTIMER
 40
0.3304852778
  9
$USRTIMER
 70
     1
  9
$ANGBASE
 50
0.0
  9
$ANGDIR
 70
     0
  9
$PDMODE
 70
     3
  9
$PDSIZE
 40
2.0
  9
$PLINEWID
 40
0.0
  9
$SPLFRAME
 70
     0
  9
$SPLINETYPE
 70
     6
  9
$SPLINESEGS
 70
     8
  9
$HANDSEED
  5
13F21
  9
$SURFTAB1
 70
     6
  9
$SURFTAB2
 70
     6
  9
$SURFTYPE
 70
     6
  9
$SURFU
 70
     6
  9
$SURFV
 70
     6
  9
$UCSBASE
  2

  9
$UCSNAME
  2

  9
$UCSORG
 10
0.0
 20
0.0
 30
0.0
  9
$UCSXDIR
 10
1.0
 20
0.0
 30
0.0
  9
$UCSYDIR
 10
0.0
 20
1.0
 30
0.0
  9
$UCSORTHOREF
  2

  9
$UCSORTHOVIEW
 70
     0
  9
$UCSORGTOP
 10
0.0
 20
0.0
 30
0.0
  9
$UCSORGBOTTOM
 10
0.0
 20
0.0
 30
0.0
  9
$UCSORGLEFT
 10
0.0
 20
0.0
 30
0.0
  9
$UCSORGRIGHT
 10
0.0
 20
0.0
 30
0.0
  9
$UCSORGFRONT
 10
0.0
 20
0.0
 30
0.0
  9
$UCSORGBACK
 10
0.0
 20
0.0
 30
0.0
  9
$PUCSBASE
  2

  9
$PUCSNAME
  2

  9
$PUCSORG
 10
0.0
 20
0.0
 30
0.0
  9
$PUCSXDIR
 10
1.0
 20
0.0
 30
0.0
  9
$PUCSYDIR
 10
0.0
 20
1.0
 30
0.0
  9
$PUCSORTHOREF
  2

  9
$PUCSORTHOVIEW
 70
     0
  9
$PUCSORGTOP
 10
0.0
 20
0.0
 30
0.0
  9
$PUCSORGBOTTOM
 10
0.0
 20
0.0
 30
0.0
  9
$PUCSORGLEFT
 10
0.0
 20
0.0
 30
0.0
  9
$PUCSORGRIGHT
 10
0.0
 20
0.0
 30
0.0
  9
$PUCSORGFRONT
 10
0.0
 20
0.0
 30
0.0
  9
$PUCSORGBACK
 10
0.0
 20
0.0
 30
0.0
  9
$USERI1
 70
     0
  9
$USERI2
 70
     0
  9
$USERI3
 70
     0
  9
$USERI4
 70
     0
  9
$USERI5
 70
     0
  9
$USERR1
 40
0.0
  9
$USERR2
 40
0.0
  9
$USERR3
 40
0.0
  9
$USERR4
 40
0.0
  9
$USERR5
 40
0.0
  9
$WORLDVIEW
 70
     1
  9
$SHADEDGE
 70
     3
  9
$SHADEDIF
 70
    70
  9
$TILEMODE
 70
     1
  9
$MAXACTVP
 70
    16
  9
$PINSBASE
 10
0.0
 20
0.0
 30
0.0
  9
$PLIMCHECK
 70
     0
  9
$PEXTMIN
 10
1.000000000000000E+20
 20
1.000000000000000E+20
 30
1.000000000000000E+20
  9
$PEXTMAX
 10
-1.000000000000000E+20
 20
-1.000000000000000E+20
 30
-1.000000000000000E+20
  9
$PLIMMIN
 10
0.0
 20
0.0
  9
$PLIMMAX
 10
420.0
 20
297.0
  9
$UNITMODE
 70
     0
  9
$VISRETAIN
 70
     0
  9
$PLINEGEN
 70
     0
  9
$PSLTSCALE
 70
     0
  9
$TREEDEPTH
 70
  3020
  9
$CMLSTYLE
  2
STANDARD
  9
$CMLJUST
 70
     0
  9
$CMLSCALE
 40
1.0
  9
$PROXYGRAPHICS
 70
     1
  9
$MEASUREMENT
 70
     1
  9
$CELWEIGHT
370
    -1
  9
$ENDCAPS
280
     0
  9
$JOINSTYLE
280
     0
  9
$LWDISPLAY
290
     0
  9
$INSUNITS
 70
     0
  9
$HYPERLINKBASE
  1

  9
$STYLESHEET
  1
inaba.ctb
  9
$XEDIT
290
     1
  9
$CEPSNTYPE
380
     0
  9
$PSTYLEMODE
290
     1
  9
$FINGERPRINTGUID
  2
{696AEDA2-CF37-4C16-A548-8F3E259D4281}
  9
$VERSIONGUID
  2
{FBF6EA80-350D-4D44-89A5-DBD2219CDE1E}
  9
$EXTNAMES
290
     1
  9
$PSVPSCALE
 40
0.0
  9
$OLESTARTUP
290
     0
  0
ENDSEC
  0
SECTION
  2
CLASSES
  0
CLASS
  1
ACDBDICTIONARYWDFLT
  2
AcDbDictionaryWithDefault
  3
ObjectDBX Classes
 90
        0
280
     0
281
     0
  0
CLASS
  1
DICTIONARYVAR
  2
AcDbDictionaryVar
  3
ObjectDBX Classes
 90
        0
280
     0
281
     0
  0
CLASS
  1
ACDBPLACEHOLDER
  2
AcDbPlaceHolder
  3
ObjectDBX Classes
 90
        0
280
     0
281
     0
  0
CLASS
  1
LAYOUT
  2
AcDbLayout
  3
ObjectDBX Classes
 90
        0
280
     0
281
     0
  0
ENDSEC
  0
SECTION
  2
TABLES
  0
TABLE
  2
VPORT
  5
746D
330
0
100
AcDbSymbolTable
 70
     2
  0
VPORT
  5
13F19
330
746D
100
AcDbSymbolTableRecord
100
AcDbViewportTableRecord
  2
*Active
 70
     0
 10
0.0
 20
0.0
 11
1.0
 21
1.0
 12
6167.820768928883
 22
4278.584117933702
 13
0.0
 23
0.0
 14
10.0
 24
10.0
 15
10.0
 25
10.0
 16
0.0
 26
0.0
 36
1.0
 17
0.0
 27
0.0
 37
0.0
 40
8642.301434643979
 41
1.778877887788778
 42
50.0
 43
0.0
 44
0.0
 50
0.0
 51
0.0
 71
     0
 72
     0
 73
     1
 74
     0
 75
     0
 76
     0
 77
     0
 78
     0
281
     0
 65
     1
110
0.0
120
0.0
130
0.0
111
1.0
121
0.0
131
0.0
112
0.0
122
1.0
132
0.0
 79
     0
146
0.0
  0
ENDTAB
  0
TABLE
  2
LTYPE
  5
746A
330
0
100
AcDbSymbolTable
 70
     4
  0
LTYPE
  5
7477
330
746A
100
AcDbSymbolTableRecord
100
AcDbLinetypeTableRecord
  2
BYBLOCK
 70
     0
  3

 72
    65
 73
     0
 40
0.0
  0
LTYPE
  5
7478
330
746A
100
AcDbSymbolTableRecord
100
AcDbLinetypeTableRecord
  2
BYLAYER
 70
     0
  3

 72
    65
 73
     0
 40
0.0
  0
LTYPE
  5
7479
330
746A
100
AcDbSymbolTableRecord
100
AcDbLinetypeTableRecord
  2
CONTINUOUS
 70
     0
  3
Solid line
 72
    65
 73
     0
 40
0.0
  0
LTYPE
  5
781A
330
746A
100
AcDbSymbolTableRecord
100
AcDbLinetypeTableRecord
  2
HIDDEN
 70
     0
  3
__ __ __ __ __ __ __ __ __ __ __ __ __ __ __ __
 72
    65
 73
     2
 40
0.375
 49
0.25
 74
     0
 49
-0.125
 74
     0
  0
LTYPE
  5
781B
330
746A
100
AcDbSymbolTableRecord
100
AcDbLinetypeTableRecord
  2
PHANTOM
 70
     0
  3
______  __  __  ______  __  __  ______  __  __ 
 72
    65
 73
     6
 40
2.5
 49
1.25
 74
     0
 49
-0.25
 74
     0
 49
0.25
 74
     0
 49
-0.25
 74
     0
 49
0.25
 74
     0
 49
-0.25
 74
     0
  0
LTYPE
  5
13571
330
746A
100
AcDbSymbolTableRecord
100
AcDbLinetypeTableRecord
  2
CENTER
 70
     0
  3
Center ____ _ ____ _ ____ _ ____ _ ____ _ ____
 72
    65
 73
     4
 40
50.8
 49
31.75
 74
     0
 49
-6.349999999999999
 74
     0
 49
6.349999999999999
 74
     0
 49
-6.349999999999999
 74
     0
  0
ENDTAB
  0
TABLE
  2
LAYER
  5
7467
102
{ACAD_XDICTIONARY
360
13451
102
}
330
0
100
AcDbSymbolTable
 70
    12
  0
LAYER
  5
7474
330
7467
100
AcDbSymbolTableRecord
100
AcDbLayerTableRecord
  2
0
 70
     0
 62
     7
  6
CONTINUOUS
370
    -3
390
1341B
  0
LAYER
  5
DEB3
330
7467
100
AcDbSymbolTableRecord
100
AcDbLayerTableRecord
  2
寸法
 70
     0
 62
     4
  6
CONTINUOUS
370
    -3
390
1341B
  0
LAYER
  5
DEB4
330
7467
100
AcDbSymbolTableRecord
100
AcDbLayerTableRecord
  2
部品1
 70
     0
 62
     7
  6
CONTINUOUS
370
    -3
390
1341B
  0
LAYER
  5
DEB5
330
7467
100
AcDbSymbolTableRecord
100
AcDbLayerTableRecord
  2
補助
 70
     0
 62
    -1
  6
CONTINUOUS
370
    -3
390
1341B
  0
LAYER
  5
DEB6
330
7467
100
AcDbSymbolTableRecord
100
AcDbLayerTableRecord
  2
文字
 70
     0
 62
     7
  6
CONTINUOUS
370
    -3
390
1341B
  0
LAYER
  5
F255
330
7467
100
AcDbSymbolTableRecord
100
AcDbLayerTableRecord
  2
DEFPOINTS
 70
     0
 62
     7
  6
CONTINUOUS
290
     0
370
    -3
390
1341B
  0
LAYER
  5
10B54
330
7467
100
AcDbSymbolTableRecord
100
AcDbLayerTableRecord
  2
仕様書枠
 70
     0
 62
   230
  6
CONTINUOUS
370
    -3
390
1341B
  0
LAYER
  5
11729
330
7467
100
AcDbSymbolTableRecord
100
AcDbLayerTableRecord
  2
Ｇ．Ｌ
 70
     0
 62
    30
  6
CONTINUOUS
370
    -3
390
1341B
  0
LAYER
  5
1173F
330
7467
100
AcDbSymbolTableRecord
100
AcDbLayerTableRecord
  2
細線
 70
     0
 62
     5
  6
CONTINUOUS
370
    -3
390
1341B
  0
LAYER
  5
11740
330
7467
100
AcDbSymbolTableRecord
100
AcDbLayerTableRecord
  2
点線
 70
     0
 62
     2
  6
HIDDEN
370
    -3
390
1341B
  0
LAYER
  5
1356E
330
7467
100
AcDbSymbolTableRecord
100
AcDbLayerTableRecord
  2
センター
 70
     0
 62
     3
  6
CENTER
370
    -3
390
1341B
  0
LAYER
  5
135FB
330
7467
100
AcDbSymbolTableRecord
100
AcDbLayerTableRecord
  2
想像線
 70
     0
 62
     6
  6
PHANTOM
370
    -3
390
1341B
  0
ENDTAB
  0
TABLE
  2
STYLE
  5
7468
330
0
100
AcDbSymbolTable
 70
     7
  0
STYLE
  5
7475
330
7468
100
AcDbSymbolTableRecord
100
AcDbTextStyleTableRecord
  2
STANDARD
 70
     0
 40
0.0
 41
1.0
 50
0.0
 71
     0
 42
4.0
  3
txt
  4
C:\AutoCAD LT\bigfont.shx
  0
STYLE
  5
763C
330
7468
100
AcDbSymbolTableRecord
100
AcDbTextStyleTableRecord
  2
MSMINCHO
 70
     0
 40
0.0
 41
1.0
 50
0.0
 71
     0
 42
1.199999999999999
  3
C:\AutoCAD LT\msminch2.TTF
  4

  0
STYLE
  5
F706
330
7468
100
AcDbSymbolTableRecord
100
AcDbTextStyleTableRecord
  2
STYLE1
 70
     0
 40
0.0
 41
1.0
 50
0.0
 71
     0
 42
4.0
  3
isocp.shx
  4
bigfont.shx
  0
STYLE
  5
103BF
330
7468
100
AcDbSymbolTableRecord
100
AcDbTextStyleTableRecord
  2
STYLE2
 70
     0
 40
0.0
 41
1.0
 50
0.0
 71
     0
 42
100.0
  3
MS PGothic.ttf
  4

1001
ACAD
1000
MS PGothic
1071
    32818
  0
STYLE
  5
10BAA
330
7468
100
AcDbSymbolTableRecord
100
AcDbTextStyleTableRecord
  2
STYLE3
 70
     0
 40
0.0
 41
1.0
 50
0.0
 71
     0
 42
100.0
  3
MS PGothic.ttf
  4

1001
ACAD
1000
MS PGothic
1071
    32818
  0
STYLE
  5
13570
330
7468
100
AcDbSymbolTableRecord
100
AcDbTextStyleTableRecord
  2

 70
     1
 40
0.0
 41
1.0
 50
0.0
 71
     0
 42
100.0
  3
ltypeshp.shx
  4

  0
STYLE
  5
13662
330
7468
100
AcDbSymbolTableRecord
100
AcDbTextStyleTableRecord
  2
MSPゴシック
 70
     0
 40
0.0
 41
1.0
 50
0.0
 71
     0
 42
4.0
  3
MS PGothic.ttf
  4

1001
ACAD
1000
MS PGothic
1071
    32818
  0
ENDTAB
  0
TABLE
  2
VIEW
  5
746B
330
0
100
AcDbSymbolTable
 70
     0
  0
ENDTAB
  0
TABLE
  2
UCS
  5
746C
330
0
100
AcDbSymbolTable
 70
     0
  0
ENDTAB
  0
TABLE
  2
APPID
  5
746E
330
0
100
AcDbSymbolTable
 70
     6
  0
APPID
  5
7476
330
746E
100
AcDbSymbolTableRecord
100
AcDbRegAppTableRecord
  2
ACAD
 70
     0
  0
APPID
  5
DEA9
330
746E
100
AcDbSymbolTableRecord
100
AcDbRegAppTableRecord
  2
CONTENTBLOCKICON
 70
     0
  0
APPID
  5
DEAA
330
746E
100
AcDbSymbolTableRecord
100
AcDbRegAppTableRecord
  2
CONTENTBLOCKDESCRIPTION
 70
     0
  0
APPID
  5
E71D
330
746E
100
AcDbSymbolTableRecord
100
AcDbRegAppTableRecord
  2
CONTENTTABDATA
 70
     0
  0
APPID
  5
E71E
330
746E
100
AcDbSymbolTableRecord
100
AcDbRegAppTableRecord
  2
CONTENTCURRENTTAB
 70
     0
  0
APPID
  5
F3BA
330
746E
100
AcDbSymbolTableRecord
100
AcDbRegAppTableRecord
  2
DRAWINGVARIABLESXDATA
 70
     0
  0
ENDTAB
  0
TABLE
  2
DIMSTYLE
  5
746F
330
0
100
AcDbSymbolTable
 70
     3
100
AcDbDimStyleTable
 71
     1
340
F71F
  0
DIMSTYLE
105
F71F
102
{ACAD_REACTORS
330
13CD9
330
13D11
330
13D2B
330
13D2C
330
13D2D
330
13D2E
330
13D2F
330
13D30
330
13A8D
330
13AE3
330
13AE4
330
13AED
330
13AF3
330
13B13
330
13B23
102
}
330
746F
100
AcDbSymbolTableRecord
100
AcDbDimStyleTableRecord
  2
INABA_S30G
 70
     0
 40
30.0
 41
2.5
 42
0.5
 43
7.0
 44
1.5
 73
     0
 74
     0
 77
     3
 78
     8
140
3.0
141
0.0
143
0.0394
147
1.0
172
     1
173
     1
174
     1
175
     1
178
     7
271
     1
340
F706
341
F770
343
F770
344
F770
  0
DIMSTYLE
105
135FC
330
746F
100
AcDbSymbolTableRecord
100
AcDbDimStyleTableRecord
  2
INABA_1／4
 70
     0
 40
4.0
 41
2.5
 42
0.5
 43
7.0
 44
1.5
 73
     0
 74
     0
 77
     3
 78
     8
140
2.5
141
0.0
143
0.0394
147
0.8
172
     1
173
     1
174
     1
178
     7
271
     2
272
     2
340
7475
341
135EC
343
135EC
344
135EC
  0
DIMSTYLE
105
13663
330
746F
100
AcDbSymbolTableRecord
100
AcDbDimStyleTableRecord
  2
INABA_S40G
 70
     0
 40
40.0
 41
2.5
 42
0.5
 43
7.0
 44
1.5
 73
     0
 74
     0
 77
     3
 78
     8
140
3.0
141
0.0
143
0.0394
147
1.0
172
     1
173
     1
174
     1
178
     7
271
     1
340
F706
341
F770
343
F770
344
F770
  0
ENDTAB
  0
TABLE
  2
BLOCK_RECORD
  5
7466
330
0
100
AcDbSymbolTable
 70
    62
  0
BLOCK_RECORD
  5
747D
330
7466
100
AcDbSymbolTableRecord
100
AcDbBlockTableRecord
  2
*MODEL_SPACE
340
13420
  0
BLOCK_RECORD
  5
747A
330
7466
100
AcDbSymbolTableRecord
100
AcDbBlockTableRecord
  2
*PAPER_SPACE
340
13421
  0
BLOCK_RECORD
  5
F770
330
7466
100
AcDbSymbolTableRecord
100
AcDbBlockTableRecord
  2
_DOTSMALL
340
0
102
{BLKREFS
331
131BA
331
131BB
331
13199
331
1319A
331
131A4
331
131A5
331
13010
331
13011
331
131AF
331
131B0
331
13220
331
13221
331
13313
331
13314
331
13308
331
13309
331
1305D
331
1305E
331
132A2
331
132A3
331
1307E
331
1307F
331
13281
331
13282
331
130C1
331
130C2
331
130CC
331
130CD
331
130D7
331
130D8
331
130E2
331
130E3
331
131C5
331
131C6
331
130F8
331
130F9
331
1322C
331
1322D
331
13237
331
13238
331
13243
331
13244
331
13590
331
13591
331
1359A
331
1359B
331
135AD
331
135AE
331
135C0
331
135C1
331
135C9
331
135CA
331
13708
331
13709
331
136FA
331
136FB
331
136EE
331
136EF
331
136E2
331
136E3
331
136D6
331
136D7
331
136CA
331
136CB
331
136BE
331
136BF
331
136B0
331
136B1
331
13751
331
13752
331
13745
331
13746
331
13739
331
1373A
331
1372C
331
1372D
331
13720
331
13721
331
13714
331
13715
331
1375D
331
1375E
331
13E86
331
13E87
331
13E91
331
13E92
331
13E9A
331
13E9B
331
13EA3
331
13EA4
331
13EAC
331
13EAD
331
13EB5
331
13EB6
331
13EBE
331
13EBF
331
13EC9
331
13ECA
331
13ED2
331
13ED3
331
13EDB
331
13EDC
331
13EE4
331
13EE5
331
13EEE
331
13EEF
331
13EF7
331
13EF8
331
13F00
331
13F01
331
13F09
331
13F0A
102
}
  0
BLOCK_RECORD
  5
11FE5
330
7466
100
AcDbSymbolTableRecord
100
AcDbBlockTableRecord
  2
A$C644A28E3
340
0
  0
BLOCK_RECORD
  5
11FED
330
7466
100
AcDbSymbolTableRecord
100
AcDbBlockTableRecord
  2
A$C0EDA5930
340
0
  0
BLOCK_RECORD
  5
135DC
330
7466
100
AcDbSymbolTableRecord
100
AcDbBlockTableRecord
  2
_Closed
340
0
  0
BLOCK_RECORD
  5
135E3
330
7466
100
AcDbSymbolTableRecord
100
AcDbBlockTableRecord
  2
_None
340
0
  0
BLOCK_RECORD
  5
135EC
330
7466
100
AcDbSymbolTableRecord
100
AcDbBlockTableRecord
  2
_OPEN
340
0
  0
BLOCK_RECORD
  5
13D3E
330
7466
100
AcDbSymbolTableRecord
100
AcDbBlockTableRecord
  2
*D47
340
0
  0
BLOCK_RECORD
  5
13D4C
330
7466
100
AcDbSymbolTableRecord
100
AcDbBlockTableRecord
  2
*D48
340
0
  0
BLOCK_RECORD
  5
13D58
330
7466
100
AcDbSymbolTableRecord
100
AcDbBlockTableRecord
  2
*D49
340
0
  0
BLOCK_RECORD
  5
13D64
330
7466
100
AcDbSymbolTableRecord
100
AcDbBlockTableRecord
  2
*D50
340
0
  0
BLOCK_RECORD
  5
13D70
330
7466
100
AcDbSymbolTableRecord
100
AcDbBlockTableRecord
  2
*D51
340
0
  0
BLOCK_RECORD
  5
13D7C
330
7466
100
AcDbSymbolTableRecord
100
AcDbBlockTableRecord
  2
*D52
340
0
  0
BLOCK_RECORD
  5
13D88
330
7466
100
AcDbSymbolTableRecord
100
AcDbBlockTableRecord
  2
*D53
340
0
  0
BLOCK_RECORD
  5
13D96
330
7466
100
AcDbSymbolTableRecord
100
AcDbBlockTableRecord
  2
*D54
340
0
  0
BLOCK_RECORD
  5
13DA2
330
7466
100
AcDbSymbolTableRecord
100
AcDbBlockTableRecord
  2
*D55
340
0
  0
BLOCK_RECORD
  5
13DAE
330
7466
100
AcDbSymbolTableRecord
100
AcDbBlockTableRecord
  2
*D56
340
0
  0
BLOCK_RECORD
  5
13DBA
330
7466
100
AcDbSymbolTableRecord
100
AcDbBlockTableRecord
  2
*D57
340
0
  0
BLOCK_RECORD
  5
13DC6
330
7466
100
AcDbSymbolTableRecord
100
AcDbBlockTableRecord
  2
*D58
340
0
  0
BLOCK_RECORD
  5
13DD3
330
7466
100
AcDbSymbolTableRecord
100
AcDbBlockTableRecord
  2
*D59
340
0
  0
BLOCK_RECORD
  5
13DDF
330
7466
100
AcDbSymbolTableRecord
100
AcDbBlockTableRecord
  2
*D60
340
0
  0
BLOCK_RECORD
  5
13DEB
330
7466
100
AcDbSymbolTableRecord
100
AcDbBlockTableRecord
  2
*D61
340
0
  0
ENDTAB
  0
ENDSEC
  0
SECTION
  2
BLOCKS
  0
BLOCK
  5
7489
330
747D
100
AcDbEntity
  8
0
100
AcDbBlockBegin
  2
*MODEL_SPACE
 70
     0
 10
0.0
 20
0.0
 30
0.0
  3
*MODEL_SPACE
  1

  0
ENDBLK
  5
748A
330
747D
100
AcDbEntity
  8
0
100
AcDbBlockEnd
  0
BLOCK
  5
7487
330
747A
100
AcDbEntity
 67
     1
  8
0
100
AcDbBlockBegin
  2
*PAPER_SPACE
 70
     0
 10
0.0
 20
0.0
 30
0.0
  3
*PAPER_SPACE
  1

  0
ENDBLK
  5
7488
330
747A
100
AcDbEntity
 67
     1
  8
0
100
AcDbBlockEnd
  0
BLOCK
  5
F771
330
F770
100
AcDbEntity
  8
0
 48
50.0
100
AcDbBlockBegin
  2
_DOTSMALL
 70
     0
 10
0.0
 20
0.0
 30
0.0
  3
_DOTSMALL
  1

  0
LWPOLYLINE
  5
F772
330
F770
100
AcDbEntity
  8
0
  6
ByBlock
 62
     0
 48
50.0
100
AcDbPolyline
 90
        2
 70
     1
 43
0.5
 10
-0.0625
 20
0.0
 42
1.0
 10
0.0625
 20
0.0
 42
1.0
  0
ENDBLK
  5
F776
330
F770
100
AcDbEntity
  8
0
 48
50.0
100
AcDbBlockEnd
  0
BLOCK
  5
11FEB
330
11FE5
100
AcDbEntity
  8
0
 48
50.0
100
AcDbBlockBegin
  2
A$C644A28E3
 70
     0
 10
0.0
 20
0.0
 30
0.0
  3
A$C644A28E3
  1

  0
ARC
  5
11FE6
330
11FE5
100
AcDbEntity
  8
部品1
 48
50.0
100
AcDbCircle
 10
53.99999260842742
 20
10.0000017156417
 30
0.0
 40
10.0
100
AcDbArc
 50
270.0000000000021
 51
0.0
  0
ARC
  5
11FE7
330
11FE5
100
AcDbEntity
  8
部品1
 48
50.0
100
AcDbCircle
 10
9.999992608427419
 20
10.00000171563806
 30
0.0
 40
10.0
100
AcDbArc
 50
180.0
 51
270.0000000000009
  0
LINE
  5
11FE8
330
11FE5
100
AcDbEntity
  8
部品1
 48
50.0
100
AcDbLine
 10
9.999992608427419
 20
0.0000017156380636
 30
0.0
 11
53.99999260842742
 21
0.0000017156417016
 31
0.0
  0
LINE
  5
11FE9
330
11FE5
100
AcDbEntity
  8
部品1
 48
50.0
100
AcDbLine
 10
63.99999260842742
 20
45.00000171563806
 30
0.0
 11
63.99999260842742
 21
10.0000017156417
 31
0.0
  0
LINE
  5
11FEA
330
11FE5
100
AcDbEntity
  8
部品1
 48
50.0
100
AcDbLine
 10
-0.0000073915725807
 20
45.00000171563806
 30
0.0
 11
-0.0000073915725807
 21
10.00000171563806
 31
0.0
  0
ENDBLK
  5
11FEC
330
11FE5
100
AcDbEntity
  8
0
 48
50.0
100
AcDbBlockEnd
  0
BLOCK
  5
11FF0
330
11FED
100
AcDbEntity
  8
0
 48
50.0
100
AcDbBlockBegin
  2
A$C0EDA5930
 70
     0
 10
0.0
 20
0.0
 30
0.0
  3
A$C0EDA5930
  1

  0
LWPOLYLINE
  5
11FEE
330
11FED
100
AcDbEntity
  8
細線
 48
50.0
100
AcDbPolyline
 90
        6
 70
     1
 43
0.0
 10
2.499964582253596
 20
5.24718422294427
 10
8.999964582253596
 20
1.494407473212049
 10
15.4999645822536
 20
5.24718422294427
 10
15.4999645822536
 20
12.75273772240871
 10
8.999964582253596
 20
16.50551447214093
 10
2.499964582253596
 20
12.75273772240871
  0
CIRCLE
  5
11FEF
330
11FED
100
AcDbEntity
  8
部品1
 48
50.0
100
AcDbCircle
 10
8.999964582253596
 20
8.99996097267649
 30
0.0
 40
9.0
  0
ENDBLK
  5
11FF1
330
11FED
100
AcDbEntity
  8
0
 48
50.0
100
AcDbBlockEnd
  0
BLOCK
  5
135E1
330
135DC
100
AcDbEntity
  8
0
 48
50.0
100
AcDbBlockBegin
  2
_Closed
 70
     0
 10
0.0
 20
0.0
 30
0.0
  3
_Closed
  1

  0
LINE
  5
135DD
330
135DC
100
AcDbEntity
  8
0
  6
ByBlock
 62
     0
370
    -2
100
AcDbLine
 10
-1.0
 20
0.1666666666666666
 30
0.0
 11
0.0
 21
0.0
 31
0.0
  0
LINE
  5
135DE
330
135DC
100
AcDbEntity
  8
0
  6
ByBlock
 62
     0
370
    -2
100
AcDbLine
 10
0.0
 20
0.0
 30
0.0
 11
-1.0
 21
-0.1666666666666666
 31
0.0
  0
LINE
  5
135DF
330
135DC
100
AcDbEntity
  8
0
  6
ByBlock
 62
     0
370
    -2
100
AcDbLine
 10
-1.0
 20
0.1666666666666666
 30
0.0
 11
-1.0
 21
-0.1666666666666666
 31
0.0
  0
LINE
  5
135E0
330
135DC
100
AcDbEntity
  8
0
  6
ByBlock
 62
     0
370
    -2
100
AcDbLine
 10
0.0
 20
0.0
 30
0.0
 11
-1.0
 21
0.0
 31
0.0
  0
ENDBLK
  5
135E2
330
135DC
100
AcDbEntity
  8
0
 48
50.0
100
AcDbBlockEnd
  0
BLOCK
  5
135E4
330
135E3
100
AcDbEntity
  8
0
 48
50.0
100
AcDbBlockBegin
  2
_None
 70
     0
 10
0.0
 20
0.0
 30
0.0
  3
_None
  1

  0
ENDBLK
  5
135E5
330
135E3
100
AcDbEntity
  8
0
 48
50.0
100
AcDbBlockEnd
  0
BLOCK
  5
135ED
330
135EC
100
AcDbEntity
  8
0
100
AcDbBlockBegin
  2
_OPEN
 70
     0
 10
0.0
 20
0.0
 30
0.0
  3
_OPEN
  1

  0
LINE
  5
135EE
330
135EC
100
AcDbEntity
  8
0
  6
ByBlock
 62
     0
100
AcDbLine
 10
-1.0
 20
0.1666666666666666
 30
0.0
 11
0.0
 21
0.0
 31
0.0
  0
LINE
  5
135EF
330
135EC
100
AcDbEntity
  8
0
  6
ByBlock
 62
     0
100
AcDbLine
 10
0.0
 20
0.0
 30
0.0
 11
-1.0
 21
-0.1666666666666666
 31
0.0
  0
LINE
  5
135F0
330
135EC
100
AcDbEntity
  8
0
  6
ByBlock
 62
     0
100
AcDbLine
 10
0.0
 20
0.0
 30
0.0
 11
-1.0
 21
0.0
 31
0.0
  0
ENDBLK
  5
135F1
330
135EC
100
AcDbEntity
  8
0
100
AcDbBlockEnd
  0
BLOCK
  5
13D4A
330
13D3E
100
AcDbEntity
  8
0
 48
50.0
100
AcDbBlockBegin
  2
*D47
 70
     1
 10
0.0
 20
0.0
 30
0.0
  3
*D47
  1

  0
LINE
  5
13EC4
330
13D3E
100
AcDbEntity
  8
寸法
 62
     0
 48
50.0
370
    -2
100
AcDbLine
 10
9856.976857007268
 20
3395.134260963994
 30
0.0
 11
9856.976844699355
 21
3508.324411135589
 31
0.0
  0
LINE
  5
13EC5
330
13D3E
100
AcDbEntity
  8
寸法
 62
     0
 48
50.0
370
    -2
100
AcDbLine
 10
9814.976857007266
 20
3395.134256397058
 30
0.0
 11
9814.976844699355
 21
3508.324406568652
 31
0.0
  0
LINE
  5
13EC6
330
13D3E
100
AcDbEntity
  8
寸法
 62
     0
 48
50.0
370
    -2
100
AcDbLine
 10
9814.976849592502
 20
3463.324406568653
 30
0.0
 11
9739.976849592501
 21
3463.324398413408
 31
0.0
  0
LINE
  5
13EC7
330
13D3E
100
AcDbEntity
  8
寸法
 62
     0
 48
50.0
370
    -2
100
AcDbLine
 10
9856.976849592502
 20
3463.32441113559
 30
0.0
 11
10283.88216455314
 21
3463.324457555816
 31
0.0
  0
LINE
  5
13EC8
330
13D3E
100
AcDbEntity
  8
寸法
 62
     0
 48
50.0
370
    -2
100
AcDbLine
 10
9814.976849592502
 20
3463.324406568653
 30
0.0
 11
9856.976849592502
 21
3463.32441113559
 31
0.0
  0
INSERT
  5
13EC9
330
13D3E
100
AcDbEntity
  8
寸法
 62
     0
 48
50.0
370
    -2
100
AcDbBlockReference
  2
_DOTSMALL
 10
9814.976849592502
 20
3463.324406568653
 30
0.0
 41
75.0
 42
75.0
 43
75.0
 50
0.0000062301475558
  0
INSERT
  5
13ECA
330
13D3E
100
AcDbEntity
  8
寸法
 62
     0
 48
50.0
370
    -2
100
AcDbBlockReference
  2
_DOTSMALL
 10
9856.976849592502
 20
3463.32441113559
 30
0.0
 41
75.0
 42
75.0
 43
75.0
 50
180.0000062301475
  0
MTEXT
  5
13ECB
330
13D3E
100
AcDbEntity
  8
寸法
 62
     7
 48
50.0
100
AcDbMText
 10
10145.42949891662
 20
3538.333300768663
 30
0.0
 40
90.0
 41
0.0
 71
     5
 72
     1
  1
\A1;φ42
  7
STYLE1
 11
0.9999999999999941
 21
0.0000001087365877
 31
0.0
 73
     1
 44
1.0
1001
ACAD
1000
MTEXTBEGIN
1070
    73
1070
     1
1070
    44
1040
1.0
1070
    74
1070
     0
1000
MTEXTEND
  0
POINT
  5
13ECC
330
13D3E
100
AcDbEntity
  8
DEFPOINTS
 62
     0
 48
50.0
100
AcDbPoint
 10
9856.976858638315
 20
3380.134260963995
 30
0.0000000000000002
  0
POINT
  5
13ECD
330
13D3E
100
AcDbEntity
  8
DEFPOINTS
 62
     0
 48
50.0
100
AcDbPoint
 10
9814.976858638315
 20
3380.134256397058
 30
0.0000000000000002
  0
POINT
  5
13ECE
330
13D3E
100
AcDbEntity
  8
DEFPOINTS
 62
     0
 48
50.0
100
AcDbPoint
 10
9814.976849592502
 20
3463.324406568653
 30
0.0
  0
ENDBLK
  5
13D4B
330
13D3E
100
AcDbEntity
  8
0
 48
50.0
100
AcDbBlockEnd
  0
BLOCK
  5
13D56
330
13D4C
100
AcDbEntity
  8
0
 48
50.0
100
AcDbBlockBegin
  2
*D48
 70
     1
 10
0.0
 20
0.0
 30
0.0
  3
*D48
  1

  0
LINE
  5
13EBB
330
13D4C
100
AcDbEntity
  8
寸法
 62
     0
 48
50.0
370
    -2
100
AcDbLine
 10
5852.544829595994
 20
5903.716718365016
 30
0.0
 11
6347.543182245498
 21
5903.716718365015
 31
0.0
  0
LINE
  5
13EBC
330
13D4C
100
AcDbEntity
  8
寸法
 62
     0
 48
50.0
370
    -2
100
AcDbLine
 10
5871.544829595979
 20
7923.716718365297
 30
0.0
 11
6347.543182245499
 21
7923.716718365295
 31
0.0
  0
LINE
  5
13EBD
330
13D4C
100
AcDbEntity
  8
寸法
 62
     0
 48
50.0
370
    -2
100
AcDbLine
 10
6302.543182245498
 20
5903.716718365015
 30
0.0
 11
6302.5431822455
 21
7923.716718365295
 31
0.0
  0
INSERT
  5
13EBE
330
13D4C
100
AcDbEntity
  8
寸法
 62
     0
 48
50.0
370
    -2
100
AcDbBlockReference
  2
_DOTSMALL
 10
6302.543182245498
 20
5903.716718365015
 30
0.0
 41
75.0
 42
75.0
 43
75.0
 50
270.0
  0
INSERT
  5
13EBF
330
13D4C
100
AcDbEntity
  8
寸法
 62
     0
 48
50.0
370
    -2
100
AcDbBlockReference
  2
_DOTSMALL
 10
6302.5431822455
 20
7923.716718365295
 30
0.0
 41
75.0
 42
75.0
 43
75.0
 50
90.0
  0
MTEXT
  5
13EC0
330
13D4C
100
AcDbEntity
  8
寸法
 62
     7
 48
50.0
100
AcDbMText
 10
6227.534323977781
 20
6913.716718365157
 30
0.0
 40
90.0
 41
0.0
 71
     5
 72
     1
  1
\A1;2020
  7
STYLE1
 11
0.0000000000000001
 21
1.0
 31
0.0
 73
     1
 44
1.0
1001
ACAD
1000
MTEXTBEGIN
1070
    73
1070
     1
1070
    44
1040
1.0
1070
    74
1070
     0
1000
MTEXTEND
  0
POINT
  5
13EC1
330
13D4C
100
AcDbEntity
  8
DEFPOINTS
 62
     0
 48
50.0
100
AcDbPoint
 10
5837.544829595994
 20
5903.716718365016
 30
0.0
  0
POINT
  5
13EC2
330
13D4C
100
AcDbEntity
  8
DEFPOINTS
 62
     0
 48
50.0
100
AcDbPoint
 10
5856.544829595979
 20
7923.716718365297
 30
0.0
  0
POINT
  5
13EC3
330
13D4C
100
AcDbEntity
  8
DEFPOINTS
 62
     0
 48
50.0
100
AcDbPoint
 10
6302.5431822455
 20
7923.716718365295
 30
0.0
  0
ENDBLK
  5
13D57
330
13D4C
100
AcDbEntity
  8
0
 48
50.0
100
AcDbBlockEnd
  0
BLOCK
  5
13D62
330
13D58
100
AcDbEntity
  8
0
 48
50.0
100
AcDbBlockBegin
  2
*D49
 70
     1
 10
0.0
 20
0.0
 30
0.0
  3
*D49
  1

  0
LINE
  5
13EB2
330
13D58
100
AcDbEntity
  8
寸法
 62
     0
 48
50.0
370
    -2
100
AcDbLine
 10
2981.544829596009
 20
7923.716718365297
 30
0.0
 11
2627.916200898908
 21
7923.716718365297
 31
0.0
  0
LINE
  5
13EB3
330
13D58
100
AcDbEntity
  8
寸法
 62
     0
 48
50.0
370
    -2
100
AcDbLine
 10
2883.044829596082
 20
7512.716718364733
 30
0.0
 11
2627.916200898908
 21
7512.716718364733
 31
0.0
  0
LINE
  5
13EB4
330
13D58
100
AcDbEntity
  8
寸法
 62
     0
 48
50.0
370
    -2
100
AcDbLine
 10
2672.916200898908
 20
7923.716718365297
 30
0.0
 11
2672.916200898908
 21
7512.716718364733
 31
0.0
  0
INSERT
  5
13EB5
330
13D58
100
AcDbEntity
  8
寸法
 62
     0
 48
50.0
370
    -2
100
AcDbBlockReference
  2
_DOTSMALL
 10
2672.916200898908
 20
7923.716718365297
 30
0.0
 41
75.0
 42
75.0
 43
75.0
 50
90.0
  0
INSERT
  5
13EB6
330
13D58
100
AcDbEntity
  8
寸法
 62
     0
 48
50.0
370
    -2
100
AcDbBlockReference
  2
_DOTSMALL
 10
2672.916200898908
 20
7512.716718364733
 30
0.0
 41
75.0
 42
75.0
 43
75.0
 50
270.0
  0
MTEXT
  5
13EB7
330
13D58
100
AcDbEntity
  8
寸法
 62
     7
 48
50.0
100
AcDbMText
 10
2597.916200898906
 20
7718.216718365015
 30
0.0
 40
90.0
 41
0.0
 71
     5
 72
     1
  1
\A1;411
  7
STYLE1
 11
0.0000000000000001
 21
1.0
 31
0.0
 73
     1
 44
1.0
1001
ACAD
1000
MTEXTBEGIN
1070
    73
1070
     1
1070
    44
1040
1.0
1070
    74
1070
     0
1000
MTEXTEND
  0
POINT
  5
13EB8
330
13D58
100
AcDbEntity
  8
DEFPOINTS
 62
     0
 48
50.0
100
AcDbPoint
 10
2996.544829596009
 20
7923.716718365297
 30
0.0
  0
POINT
  5
13EB9
330
13D58
100
AcDbEntity
  8
DEFPOINTS
 62
     0
 48
50.0
100
AcDbPoint
 10
2898.044829596082
 20
7512.716718364733
 30
0.0
  0
POINT
  5
13EBA
330
13D58
100
AcDbEntity
  8
DEFPOINTS
 62
     0
 48
50.0
100
AcDbPoint
 10
2672.916200898908
 20
7512.716718364733
 30
0.0
  0
ENDBLK
  5
13D63
330
13D58
100
AcDbEntity
  8
0
 48
50.0
100
AcDbBlockEnd
  0
BLOCK
  5
13D6E
330
13D64
100
AcDbEntity
  8
0
 48
50.0
100
AcDbBlockBegin
  2
*D50
 70
     1
 10
0.0
 20
0.0
 30
0.0
  3
*D50
  1

  0
LINE
  5
13EA9
330
13D64
100
AcDbEntity
  8
寸法
 62
     0
 48
50.0
370
    -2
100
AcDbLine
 10
2883.044829596082
 20
7512.716718364733
 30
0.0
 11
2627.916200898908
 21
7512.716718364733
 31
0.0
  0
LINE
  5
13EAA
330
13D64
100
AcDbEntity
  8
寸法
 62
     0
 48
50.0
370
    -2
100
AcDbLine
 10
2883.044829596082
 20
6829.716718364733
 30
0.0
 11
2627.916200898908
 21
6829.716718364733
 31
0.0
  0
LINE
  5
13EAB
330
13D64
100
AcDbEntity
  8
寸法
 62
     0
 48
50.0
370
    -2
100
AcDbLine
 10
2672.916200898908
 20
7512.716718364733
 30
0.0
 11
2672.916200898908
 21
6829.716718364733
 31
0.0
  0
INSERT
  5
13EAC
330
13D64
100
AcDbEntity
  8
寸法
 62
     0
 48
50.0
370
    -2
100
AcDbBlockReference
  2
_DOTSMALL
 10
2672.916200898908
 20
7512.716718364733
 30
0.0
 41
75.0
 42
75.0
 43
75.0
 50
90.0
  0
INSERT
  5
13EAD
330
13D64
100
AcDbEntity
  8
寸法
 62
     0
 48
50.0
370
    -2
100
AcDbBlockReference
  2
_DOTSMALL
 10
2672.916200898908
 20
6829.716718364733
 30
0.0
 41
75.0
 42
75.0
 43
75.0
 50
270.0
  0
MTEXT
  5
13EAE
330
13D64
100
AcDbEntity
  8
寸法
 62
     7
 48
50.0
100
AcDbMText
 10
2597.916200898907
 20
7171.216718364734
 30
0.0
 40
90.0
 41
0.0
 71
     5
 72
     1
  1
\A1;683
  7
STYLE1
 11
0.0000000000000001
 21
1.0
 31
0.0
 73
     1
 44
1.0
1001
ACAD
1000
MTEXTBEGIN
1070
    73
1070
     1
1070
    44
1040
1.0
1070
    74
1070
     0
1000
MTEXTEND
  0
POINT
  5
13EAF
330
13D64
100
AcDbEntity
  8
DEFPOINTS
 62
     0
 48
50.0
100
AcDbPoint
 10
2898.044829596082
 20
7512.716718364733
 30
0.0
  0
POINT
  5
13EB0
330
13D64
100
AcDbEntity
  8
DEFPOINTS
 62
     0
 48
50.0
100
AcDbPoint
 10
2898.044829596082
 20
6829.716718364733
 30
0.0
  0
POINT
  5
13EB1
330
13D64
100
AcDbEntity
  8
DEFPOINTS
 62
     0
 48
50.0
100
AcDbPoint
 10
2672.916200898908
 20
6829.716718364733
 30
0.0
  0
ENDBLK
  5
13D6F
330
13D64
100
AcDbEntity
  8
0
 48
50.0
100
AcDbBlockEnd
  0
BLOCK
  5
13D7A
330
13D70
100
AcDbEntity
  8
0
 48
50.0
100
AcDbBlockBegin
  2
*D51
 70
     1
 10
0.0
 20
0.0
 30
0.0
  3
*D51
  1

  0
LINE
  5
13EA0
330
13D70
100
AcDbEntity
  8
寸法
 62
     0
 48
50.0
370
    -2
100
AcDbLine
 10
2883.044829596082
 20
6829.716718364733
 30
0.0
 11
2627.9162008989
 21
6829.716718364733
 31
0.0
  0
LINE
  5
13EA1
330
13D70
100
AcDbEntity
  8
寸法
 62
     0
 48
50.0
370
    -2
100
AcDbLine
 10
2883.044829596082
 20
6146.716718364732
 30
0.0
 11
2627.9162008989
 21
6146.716718364732
 31
0.0
  0
LINE
  5
13EA2
330
13D70
100
AcDbEntity
  8
寸法
 62
     0
 48
50.0
370
    -2
100
AcDbLine
 10
2672.916200898901
 20
6829.716718364733
 30
0.0
 11
2672.916200898901
 21
6146.716718364732
 31
0.0
  0
INSERT
  5
13EA3
330
13D70
100
AcDbEntity
  8
寸法
 62
     0
 48
50.0
370
    -2
100
AcDbBlockReference
  2
_DOTSMALL
 10
2672.916200898901
 20
6829.716718364733
 30
0.0
 41
75.0
 42
75.0
 43
75.0
 50
90.0
  0
INSERT
  5
13EA4
330
13D70
100
AcDbEntity
  8
寸法
 62
     0
 48
50.0
370
    -2
100
AcDbBlockReference
  2
_DOTSMALL
 10
2672.916200898901
 20
6146.716718364732
 30
0.0
 41
75.0
 42
75.0
 43
75.0
 50
270.0
  0
MTEXT
  5
13EA5
330
13D70
100
AcDbEntity
  8
寸法
 62
     7
 48
50.0
100
AcDbMText
 10
2597.9162008989
 20
6488.216718364734
 30
0.0
 40
90.0
 41
0.0
 71
     5
 72
     1
  1
\A1;683
  7
STYLE1
 11
0.0000000000000001
 21
1.0
 31
0.0
 73
     1
 44
1.0
1001
ACAD
1000
MTEXTBEGIN
1070
    73
1070
     1
1070
    44
1040
1.0
1070
    74
1070
     0
1000
MTEXTEND
  0
POINT
  5
13EA6
330
13D70
100
AcDbEntity
  8
DEFPOINTS
 62
     0
 48
50.0
100
AcDbPoint
 10
2898.044829596082
 20
6829.716718364733
 30
0.0
  0
POINT
  5
13EA7
330
13D70
100
AcDbEntity
  8
DEFPOINTS
 62
     0
 48
50.0
100
AcDbPoint
 10
2898.044829596082
 20
6146.716718364732
 30
0.0
  0
POINT
  5
13EA8
330
13D70
100
AcDbEntity
  8
DEFPOINTS
 62
     0
 48
50.0
100
AcDbPoint
 10
2672.916200898901
 20
6146.716718364732
 30
0.0
  0
ENDBLK
  5
13D7B
330
13D70
100
AcDbEntity
  8
0
 48
50.0
100
AcDbBlockEnd
  0
BLOCK
  5
13D86
330
13D7C
100
AcDbEntity
  8
0
 48
50.0
100
AcDbBlockBegin
  2
*D52
 70
     1
 10
0.0
 20
0.0
 30
0.0
  3
*D52
  1

  0
LINE
  5
13E97
330
13D7C
100
AcDbEntity
  8
寸法
 62
     0
 48
50.0
370
    -2
100
AcDbLine
 10
2883.044829596082
 20
6146.716718364732
 30
0.0
 11
2627.9162008989
 21
6146.716718364732
 31
0.0
  0
LINE
  5
13E98
330
13D7C
100
AcDbEntity
  8
寸法
 62
     0
 48
50.0
370
    -2
100
AcDbLine
 10
3000.544829595972
 20
5903.716718365016
 30
0.0
 11
2627.9162008989
 21
5903.716718365016
 31
0.0
  0
LINE
  5
13E99
330
13D7C
100
AcDbEntity
  8
寸法
 62
     0
 48
50.0
370
    -2
100
AcDbLine
 10
2672.916200898901
 20
6146.716718364732
 30
0.0
 11
2672.916200898901
 21
5903.716718365016
 31
0.0
  0
INSERT
  5
13E9A
330
13D7C
100
AcDbEntity
  8
寸法
 62
     0
 48
50.0
370
    -2
100
AcDbBlockReference
  2
_DOTSMALL
 10
2672.916200898901
 20
6146.716718364732
 30
0.0
 41
75.0
 42
75.0
 43
75.0
 50
90.0
  0
INSERT
  5
13E9B
330
13D7C
100
AcDbEntity
  8
寸法
 62
     0
 48
50.0
370
    -2
100
AcDbBlockReference
  2
_DOTSMALL
 10
2672.916200898901
 20
5903.716718365016
 30
0.0
 41
75.0
 42
75.0
 43
75.0
 50
270.0
  0
MTEXT
  5
13E9C
330
13D7C
100
AcDbEntity
  8
寸法
 62
     7
 48
50.0
100
AcDbMText
 10
2597.907342631183
 20
6025.216718364875
 30
0.0
 40
90.0
 41
0.0
 71
     5
 72
     1
  1
\A1;243
  7
STYLE1
 11
0.0000000000000001
 21
1.0
 31
0.0
 73
     1
 44
1.0
1001
ACAD
1000
MTEXTBEGIN
1070
    73
1070
     1
1070
    44
1040
1.0
1070
    74
1070
     0
1000
MTEXTEND
  0
POINT
  5
13E9D
330
13D7C
100
AcDbEntity
  8
DEFPOINTS
 62
     0
 48
50.0
100
AcDbPoint
 10
2898.044829596082
 20
6146.716718364732
 30
0.0
  0
POINT
  5
13E9E
330
13D7C
100
AcDbEntity
  8
DEFPOINTS
 62
     0
 48
50.0
100
AcDbPoint
 10
3015.544829595973
 20
5903.716718365016
 30
-0.0000000000002893
  0
POINT
  5
13E9F
330
13D7C
100
AcDbEntity
  8
DEFPOINTS
 62
     0
 48
50.0
100
AcDbPoint
 10
2672.916200898901
 20
5903.716718365016
 30
0.0
  0
ENDBLK
  5
13D87
330
13D7C
100
AcDbEntity
  8
0
 48
50.0
100
AcDbBlockEnd
  0
BLOCK
  5
13D94
330
13D88
100
AcDbEntity
  8
0
 48
50.0
100
AcDbBlockBegin
  2
*D53
 70
     1
 10
0.0
 20
0.0
 30
0.0
  3
*D53
  1

  0
LINE
  5
13E8C
330
13D88
100
AcDbEntity
  8
寸法
 62
     0
 48
50.0
370
    -2
100
AcDbLine
 10
5861.544829595965
 20
1917.640018622875
 30
0.0
 11
6347.543182245499
 21
1917.640018622875
 31
0.0
  0
LINE
  5
13E8D
330
13D88
100
AcDbEntity
  8
寸法
 62
     0
 48
50.0
370
    -2
100
AcDbLine
 10
5871.544829595979
 20
1867.640018622878
 30
0.0
 11
6347.543182245499
 21
1867.640018622878
 31
0.0
  0
LINE
  5
13E8E
330
13D88
100
AcDbEntity
  8
寸法
 62
     0
 48
50.0
370
    -2
100
AcDbLine
 10
6302.5431822455
 20
1867.640018622878
 30
0.0
 11
6302.5431822455
 21
1792.640018622878
 31
0.0
  0
LINE
  5
13E8F
330
13D88
100
AcDbEntity
  8
寸法
 62
     0
 48
50.0
370
    -2
100
AcDbLine
 10
6302.5431822455
 20
1917.640018622875
 30
0.0
 11
6302.5431822455
 21
2226.710884764618
 31
0.0
  0
LINE
  5
13E90
330
13D88
100
AcDbEntity
  8
寸法
 62
     0
 48
50.0
370
    -2
100
AcDbLine
 10
6302.5431822455
 20
1867.640018622878
 30
0.0
 11
6302.5431822455
 21
1917.640018622875
 31
0.0
  0
INSERT
  5
13E91
330
13D88
100
AcDbEntity
  8
寸法
 62
     0
 48
50.0
370
    -2
100
AcDbBlockReference
  2
_DOTSMALL
 10
6302.5431822455
 20
1867.640018622878
 30
0.0
 41
75.0
 42
75.0
 43
75.0
 50
90.0
  0
INSERT
  5
13E92
330
13D88
100
AcDbEntity
  8
寸法
 62
     0
 48
50.0
370
    -2
100
AcDbBlockReference
  2
_DOTSMALL
 10
6302.5431822455
 20
1917.640018622875
 30
0.0
 41
75.0
 42
75.0
 43
75.0
 50
270.0
  0
MTEXT
  5
13E93
330
13D88
100
AcDbEntity
  8
寸法
 62
     7
 48
50.0
100
AcDbMText
 10
6227.5431822455
 20
2147.175451693753
 30
0.0
 40
90.0
 41
0.0
 71
     5
 72
     1
  1
\A1;50
  7
STYLE1
 11
0.0000000000000001
 21
1.0
 31
0.0
 73
     1
 44
1.0
1001
ACAD
1000
MTEXTBEGIN
1070
    73
1070
     1
1070
    44
1040
1.0
1070
    74
1070
     0
1000
MTEXTEND
  0
POINT
  5
13E94
330
13D88
100
AcDbEntity
  8
DEFPOINTS
 62
     0
 48
50.0
100
AcDbPoint
 10
5846.544829595965
 20
1917.640018622875
 30
0.0
  0
POINT
  5
13E95
330
13D88
100
AcDbEntity
  8
DEFPOINTS
 62
     0
 48
50.0
100
AcDbPoint
 10
5856.544829595979
 20
1867.640018622878
 30
0.0
  0
POINT
  5
13E96
330
13D88
100
AcDbEntity
  8
DEFPOINTS
 62
     0
 48
50.0
100
AcDbPoint
 10
6302.5431822455
 20
1867.640018622878
 30
0.0
  0
ENDBLK
  5
13D95
330
13D88
100
AcDbEntity
  8
0
 48
50.0
100
AcDbBlockEnd
  0
BLOCK
  5
13DA0
330
13D96
100
AcDbEntity
  8
0
 48
50.0
100
AcDbBlockBegin
  2
*D54
 70
     1
 10
0.0
 20
0.0
 30
0.0
  3
*D54
  1

  0
LINE
  5
13E83
330
13D96
100
AcDbEntity
  8
寸法
 62
     0
 48
50.0
370
    -2
100
AcDbLine
 10
7873.980098270476
 20
1867.640018622875
 30
0.0
 11
7261.807020251318
 21
1867.640018622875
 31
0.0
  0
LINE
  5
13E84
330
13D96
100
AcDbEntity
  8
寸法
 62
     0
 48
50.0
370
    -2
100
AcDbLine
 10
7908.22644313723
 20
4169.640018622875
 30
0.0
 11
7261.807020251319
 21
4169.640018622875
 31
0.0
  0
LINE
  5
13E85
330
13D96
100
AcDbEntity
  8
寸法
 62
     0
 48
50.0
370
    -2
100
AcDbLine
 10
7306.807020251318
 20
1867.640018622875
 30
0.0
 11
7306.807020251319
 21
4169.640018622875
 31
0.0
  0
INSERT
  5
13E86
330
13D96
100
AcDbEntity
  8
寸法
 62
     0
 48
50.0
370
    -2
100
AcDbBlockReference
  2
_DOTSMALL
 10
7306.807020251318
 20
1867.640018622875
 30
0.0
 41
75.0
 42
75.0
 43
75.0
 50
270.0
  0
INSERT
  5
13E87
330
13D96
100
AcDbEntity
  8
寸法
 62
     0
 48
50.0
370
    -2
100
AcDbBlockReference
  2
_DOTSMALL
 10
7306.807020251319
 20
4169.640018622875
 30
0.0
 41
75.0
 42
75.0
 43
75.0
 50
90.0
  0
MTEXT
  5
13E88
330
13D96
100
AcDbEntity
  8
寸法
 62
     7
 48
50.0
100
AcDbMText
 10
7231.798161983602
 20
3018.640018622877
 30
0.0
 40
90.0
 41
0.0
 71
     5
 72
     1
  1
\A1;2302
  7
STYLE1
 11
0.0000000000000001
 21
1.0
 31
0.0
 73
     1
 44
1.0
1001
ACAD
1000
MTEXTBEGIN
1070
    73
1070
     1
1070
    44
1040
1.0
1070
    74
1070
     0
1000
MTEXTEND
  0
POINT
  5
13E89
330
13D96
100
AcDbEntity
  8
DEFPOINTS
 62
     0
 48
50.0
100
AcDbPoint
 10
7888.980098270477
 20
1867.640018622875
 30
0.0
  0
POINT
  5
13E8A
330
13D96
100
AcDbEntity
  8
DEFPOINTS
 62
     0
 48
50.0
100
AcDbPoint
 10
7923.226443137231
 20
4169.640018622875
 30
0.0
  0
POINT
  5
13E8B
330
13D96
100
AcDbEntity
  8
DEFPOINTS
 62
     0
 48
50.0
100
AcDbPoint
 10
7306.807020251319
 20
4169.640018622875
 30
0.0
  0
ENDBLK
  5
13DA1
330
13D96
100
AcDbEntity
  8
0
 48
50.0
100
AcDbBlockEnd
  0
BLOCK
  5
13DAC
330
13DA2
100
AcDbEntity
  8
0
 48
50.0
100
AcDbBlockBegin
  2
*D55
 70
     1
 10
0.0
 20
0.0
 30
0.0
  3
*D55
  1

  0
LINE
  5
13F06
330
13DA2
100
AcDbEntity
  8
寸法
 62
     0
 48
50.0
370
    -2
100
AcDbLine
 10
3226.544659596016
 20
1732.640014849399
 30
0.0
 11
3226.544659596016
 21
1370.73594393607
 31
0.0
  0
LINE
  5
13F07
330
13DA2
100
AcDbEntity
  8
寸法
 62
     0
 48
50.0
370
    -2
100
AcDbLine
 10
5626.54465959598
 20
1732.640014849399
 30
0.0
 11
5626.54465959598
 21
1370.73594393607
 31
0.0
  0
LINE
  5
13F08
330
13DA2
100
AcDbEntity
  8
寸法
 62
     0
 48
50.0
370
    -2
100
AcDbLine
 10
3226.544659596016
 20
1415.73594393607
 30
0.0
 11
5626.54465959598
 21
1415.73594393607
 31
0.0
  0
INSERT
  5
13F09
330
13DA2
100
AcDbEntity
  8
寸法
 62
     0
 48
50.0
370
    -2
100
AcDbBlockReference
  2
_DOTSMALL
 10
3226.544659596016
 20
1415.73594393607
 30
0.0
 41
75.0
 42
75.0
 43
75.0
 50
180.0
  0
INSERT
  5
13F0A
330
13DA2
100
AcDbEntity
  8
寸法
 62
     0
 48
50.0
370
    -2
100
AcDbBlockReference
  2
_DOTSMALL
 10
5626.54465959598
 20
1415.73594393607
 30
0.0
 41
75.0
 42
75.0
 43
75.0
  0
MTEXT
  5
13F0B
330
13DA2
100
AcDbEntity
  8
寸法
 62
     7
 48
50.0
100
AcDbMText
 10
4426.544659595998
 20
1490.744802203786
 30
0.0
 40
90.0
 41
0.0
 71
     5
 72
     1
  1
\A1;2400
  7
STYLE1
 73
     1
 44
1.0
1001
ACAD
1000
MTEXTBEGIN
1070
    73
1070
     1
1070
    44
1040
1.0
1070
    74
1070
     0
1000
MTEXTEND
  0
POINT
  5
13F0C
330
13DA2
100
AcDbEntity
  8
DEFPOINTS
 62
     0
 48
50.0
100
AcDbPoint
 10
3226.544659596016
 20
1747.640014849399
 30
0.0000000000000002
  0
POINT
  5
13F0D
330
13DA2
100
AcDbEntity
  8
DEFPOINTS
 62
     0
 48
50.0
100
AcDbPoint
 10
5626.54465959598
 20
1747.640014849399
 30
0.0
  0
POINT
  5
13F0E
330
13DA2
100
AcDbEntity
  8
DEFPOINTS
 62
     0
 48
50.0
100
AcDbPoint
 10
5626.54465959598
 20
1415.73594393607
 30
0.0
  0
ENDBLK
  5
13DAD
330
13DA2
100
AcDbEntity
  8
0
 48
50.0
100
AcDbBlockEnd
  0
BLOCK
  5
13DB8
330
13DAE
100
AcDbEntity
  8
0
 48
50.0
100
AcDbBlockBegin
  2
*D56
 70
     1
 10
0.0
 20
0.0
 30
0.0
  3
*D56
  1

  0
LINE
  5
13EFD
330
13DAE
100
AcDbEntity
  8
寸法
 62
     0
 48
50.0
370
    -2
100
AcDbLine
 10
5856.544829595979
 20
4184.350524693575
 30
0.0
 11
5856.544829595979
 21
4483.080793455483
 31
0.0
  0
LINE
  5
13EFE
330
13DAE
100
AcDbEntity
  8
寸法
 62
     0
 48
50.0
370
    -2
100
AcDbLine
 10
5626.544829595994
 20
4095.438608470707
 30
0.0
 11
5626.544829595994
 21
4483.080793455483
 31
0.0
  0
LINE
  5
13EFF
330
13DAE
100
AcDbEntity
  8
寸法
 62
     0
 48
50.0
370
    -2
100
AcDbLine
 10
5856.544829595979
 20
4438.080793455482
 30
0.0
 11
5626.544829595994
 21
4438.080793455482
 31
0.0
  0
INSERT
  5
13F00
330
13DAE
100
AcDbEntity
  8
寸法
 62
     0
 48
50.0
370
    -2
100
AcDbBlockReference
  2
_DOTSMALL
 10
5856.544829595979
 20
4438.080793455482
 30
0.0
 41
75.0
 42
75.0
 43
75.0
  0
INSERT
  5
13F01
330
13DAE
100
AcDbEntity
  8
寸法
 62
     0
 48
50.0
370
    -2
100
AcDbBlockReference
  2
_DOTSMALL
 10
5626.544829595994
 20
4438.080793455482
 30
0.0
 41
75.0
 42
75.0
 43
75.0
 50
180.0
  0
MTEXT
  5
13F02
330
13DAE
100
AcDbEntity
  8
寸法
 62
     7
 48
50.0
100
AcDbMText
 10
5741.544829595987
 20
4513.089651723199
 30
0.0
 40
90.0
 41
0.0
 71
     5
 72
     1
  1
\A1;230
  7
STYLE1
 73
     1
 44
1.0
1001
ACAD
1000
MTEXTBEGIN
1070
    73
1070
     1
1070
    44
1040
1.0
1070
    74
1070
     0
1000
MTEXTEND
  0
POINT
  5
13F03
330
13DAE
100
AcDbEntity
  8
DEFPOINTS
 62
     0
 48
50.0
100
AcDbPoint
 10
5856.544829595979
 20
4169.350524693575
 30
0.0
  0
POINT
  5
13F04
330
13DAE
100
AcDbEntity
  8
DEFPOINTS
 62
     0
 48
50.0
100
AcDbPoint
 10
5626.544829595994
 20
4080.438608470707
 30
0.0
  0
POINT
  5
13F05
330
13DAE
100
AcDbEntity
  8
DEFPOINTS
 62
     0
 48
50.0
100
AcDbPoint
 10
5626.544829595994
 20
4438.080793455482
 30
0.0
  0
ENDBLK
  5
13DB9
330
13DAE
100
AcDbEntity
  8
0
 48
50.0
100
AcDbBlockEnd
  0
BLOCK
  5
13DC4
330
13DBA
100
AcDbEntity
  8
0
 48
50.0
100
AcDbBlockBegin
  2
*D57
 70
     1
 10
0.0
 20
0.0
 30
0.0
  3
*D57
  1

  0
LINE
  5
13EF4
330
13DBA
100
AcDbEntity
  8
寸法
 62
     0
 48
50.0
370
    -2
100
AcDbLine
 10
3226.544829595994
 20
4095.438608470707
 30
0.0
 11
3226.544829595994
 21
4483.080793455483
 31
0.0
  0
LINE
  5
13EF5
330
13DBA
100
AcDbEntity
  8
寸法
 62
     0
 48
50.0
370
    -2
100
AcDbLine
 10
5626.544829595994
 20
4095.438608470707
 30
0.0
 11
5626.544829595994
 21
4483.080793455483
 31
0.0
  0
LINE
  5
13EF6
330
13DBA
100
AcDbEntity
  8
寸法
 62
     0
 48
50.0
370
    -2
100
AcDbLine
 10
3226.544829595994
 20
4438.080793455482
 30
0.0
 11
5626.544829595994
 21
4438.080793455482
 31
0.0
  0
INSERT
  5
13EF7
330
13DBA
100
AcDbEntity
  8
寸法
 62
     0
 48
50.0
370
    -2
100
AcDbBlockReference
  2
_DOTSMALL
 10
3226.544829595994
 20
4438.080793455482
 30
0.0
 41
75.0
 42
75.0
 43
75.0
 50
180.0
  0
INSERT
  5
13EF8
330
13DBA
100
AcDbEntity
  8
寸法
 62
     0
 48
50.0
370
    -2
100
AcDbBlockReference
  2
_DOTSMALL
 10
5626.544829595994
 20
4438.080793455482
 30
0.0
 41
75.0
 42
75.0
 43
75.0
  0
MTEXT
  5
13EF9
330
13DBA
100
AcDbEntity
  8
寸法
 62
     7
 48
50.0
100
AcDbMText
 10
4426.544829595994
 20
4513.089651723199
 30
0.0
 40
90.0
 41
0.0
 71
     5
 72
     1
  1
\A1;2400
  7
STYLE1
 73
     1
 44
1.0
1001
ACAD
1000
MTEXTBEGIN
1070
    73
1070
     1
1070
    44
1040
1.0
1070
    74
1070
     0
1000
MTEXTEND
  0
POINT
  5
13EFA
330
13DBA
100
AcDbEntity
  8
DEFPOINTS
 62
     0
 48
50.0
100
AcDbPoint
 10
3226.544829595994
 20
4080.438608470707
 30
0.0
  0
POINT
  5
13EFB
330
13DBA
100
AcDbEntity
  8
DEFPOINTS
 62
     0
 48
50.0
100
AcDbPoint
 10
5626.544829595994
 20
4080.438608470707
 30
0.0
  0
POINT
  5
13EFC
330
13DBA
100
AcDbEntity
  8
DEFPOINTS
 62
     0
 48
50.0
100
AcDbPoint
 10
5626.544829595994
 20
4438.080793455482
 30
0.0
  0
ENDBLK
  5
13DC5
330
13DBA
100
AcDbEntity
  8
0
 48
50.0
100
AcDbBlockEnd
  0
BLOCK
  5
13DD1
330
13DC6
100
AcDbEntity
  8
0
 48
50.0
100
AcDbBlockBegin
  2
*D58
 70
     1
 10
0.0
 20
0.0
 30
0.0
  3
*D58
  1

  0
LINE
  5
13EEA
330
13DC6
100
AcDbEntity
  8
寸法
 62
     0
 48
50.0
370
    -2
100
AcDbLine
 10
9707.141134621853
 20
2745.307792229575
 30
0.0
 11
9707.141134621853
 21
2858.497966801741
 31
0.0
  0
LINE
  5
13EEB
330
13DC6
100
AcDbEntity
  8
寸法
 62
     0
 48
50.0
370
    -2
100
AcDbLine
 10
9796.241474621858
 20
2745.307788456099
 30
0.0
 11
9796.241474621858
 21
2858.497966801741
 31
0.0
  0
LINE
  5
13EEC
330
13DC6
100
AcDbEntity
  8
寸法
 62
     0
 48
50.0
370
    -2
100
AcDbLine
 10
9796.241474621858
 20
2813.497966801741
 30
0.0
 11
9707.141134621853
 21
2813.497966801741
 31
0.0
  0
LINE
  5
13EED
330
13DC6
100
AcDbEntity
  8
寸法
 62
     0
 48
50.0
370
    -2
100
AcDbLine
 10
9707.141134621853
 20
2813.497966801741
 30
0.0
 11
9297.326644877363
 21
2813.497966801741
 31
0.0
  0
INSERT
  5
13EEE
330
13DC6
100
AcDbEntity
  8
寸法
 62
     0
 48
50.0
370
    -2
100
AcDbBlockReference
  2
_DOTSMALL
 10
9796.241474621858
 20
2813.497966801741
 30
0.0
 41
75.0
 42
75.0
 43
75.0
  0
INSERT
  5
13EEF
330
13DC6
100
AcDbEntity
  8
寸法
 62
     0
 48
50.0
370
    -2
100
AcDbBlockReference
  2
_DOTSMALL
 10
9707.141134621853
 20
2813.497966801741
 30
0.0
 41
75.0
 42
75.0
 43
75.0
 50
180.0
  0
MTEXT
  5
13EF0
330
13DC6
100
AcDbEntity
  8
寸法
 62
     7
 48
50.0
100
AcDbMText
 10
9464.733889749608
 20
2888.49796680174
 30
0.0
 40
90.0
 41
0.0
 71
     5
 72
     1
  1
\A1;φ89.1
  7
STYLE1
 73
     1
 44
1.0
1001
ACAD
1000
MTEXTBEGIN
1070
    73
1070
     1
1070
    44
1040
1.0
1070
    74
1070
     0
1000
MTEXTEND
  0
POINT
  5
13EF1
330
13DC6
100
AcDbEntity
  8
DEFPOINTS
 62
     0
 48
50.0
100
AcDbPoint
 10
9707.141134621853
 20
2730.307792229574
 30
-0.0000000000000002
  0
POINT
  5
13EF2
330
13DC6
100
AcDbEntity
  8
DEFPOINTS
 62
     0
 48
50.0
100
AcDbPoint
 10
9796.241474621858
 20
2730.307788456099
 30
-0.0000000000000002
  0
POINT
  5
13EF3
330
13DC6
100
AcDbEntity
  8
DEFPOINTS
 62
     0
 48
50.0
100
AcDbPoint
 10
9796.241474621858
 20
2813.497966801741
 30
0.0
  0
ENDBLK
  5
13DD2
330
13DC6
100
AcDbEntity
  8
0
 48
50.0
100
AcDbBlockEnd
  0
BLOCK
  5
13DDD
330
13DD3
100
AcDbEntity
  8
0
 48
50.0
100
AcDbBlockBegin
  2
*D59
 70
     1
 10
0.0
 20
0.0
 30
0.0
  3
*D59
  1

  0
LINE
  5
13EE1
330
13DD3
100
AcDbEntity
  8
寸法
 62
     0
 48
50.0
370
    -2
100
AcDbLine
 10
7888.980098270477
 20
4139.328542830812
 30
0.0
 11
7888.980098270477
 21
4794.977580675179
 31
0.0
  0
LINE
  5
13EE2
330
13DD3
100
AcDbEntity
  8
寸法
 62
     0
 48
50.0
370
    -2
100
AcDbLine
 10
9908.980098270477
 20
3743.895434961825
 30
0.0
 11
9908.980098270477
 21
4794.977580675179
 31
0.0
  0
LINE
  5
13EE3
330
13DD3
100
AcDbEntity
  8
寸法
 62
     0
 48
50.0
370
    -2
100
AcDbLine
 10
7888.980098270477
 20
4749.977580675178
 30
0.0
 11
9908.980098270477
 21
4749.977580675178
 31
0.0
  0
INSERT
  5
13EE4
330
13DD3
100
AcDbEntity
  8
寸法
 62
     0
 48
50.0
370
    -2
100
AcDbBlockReference
  2
_DOTSMALL
 10
7888.980098270477
 20
4749.977580675178
 30
0.0
 41
75.0
 42
75.0
 43
75.0
 50
180.0
  0
INSERT
  5
13EE5
330
13DD3
100
AcDbEntity
  8
寸法
 62
     0
 48
50.0
370
    -2
100
AcDbBlockReference
  2
_DOTSMALL
 10
9908.980098270477
 20
4749.977580675178
 30
0.0
 41
75.0
 42
75.0
 43
75.0
  0
MTEXT
  5
13EE6
330
13DD3
100
AcDbEntity
  8
寸法
 62
     7
 48
50.0
100
AcDbMText
 10
8898.980098270476
 20
4824.986438942895
 30
0.0
 40
90.0
 41
0.0
 71
     5
 72
     1
  1
\A1;2020
  7
STYLE1
 73
     1
 44
1.0
1001
ACAD
1000
MTEXTBEGIN
1070
    73
1070
     1
1070
    44
1040
1.0
1070
    74
1070
     0
1000
MTEXTEND
  0
POINT
  5
13EE7
330
13DD3
100
AcDbEntity
  8
DEFPOINTS
 62
     0
 48
50.0
100
AcDbPoint
 10
7888.980098270477
 20
4124.328542830812
 30
0.0
  0
POINT
  5
13EE8
330
13DD3
100
AcDbEntity
  8
DEFPOINTS
 62
     0
 48
50.0
100
AcDbPoint
 10
9908.980098270477
 20
3728.895434961825
 30
0.0
  0
POINT
  5
13EE9
330
13DD3
100
AcDbEntity
  8
DEFPOINTS
 62
     0
 48
50.0
100
AcDbPoint
 10
9908.980098270477
 20
4749.977580675178
 30
0.0
  0
ENDBLK
  5
13DDE
330
13DD3
100
AcDbEntity
  8
0
 48
50.0
100
AcDbBlockEnd
  0
BLOCK
  5
13DE9
330
13DDF
100
AcDbEntity
  8
0
 48
50.0
100
AcDbBlockBegin
  2
*D60
 70
     1
 10
0.0
 20
0.0
 30
0.0
  3
*D60
  1

  0
LINE
  5
13ED8
330
13DDF
100
AcDbEntity
  8
寸法
 62
     0
 48
50.0
370
    -2
100
AcDbLine
 10
2996.544829596009
 20
4184.350524693575
 30
0.0
 11
2996.544829596009
 21
4483.080793455483
 31
0.0
  0
LINE
  5
13ED9
330
13DDF
100
AcDbEntity
  8
寸法
 62
     0
 48
50.0
370
    -2
100
AcDbLine
 10
3226.544829595994
 20
4095.438608470707
 30
0.0
 11
3226.544829595994
 21
4483.080793455483
 31
0.0
  0
LINE
  5
13EDA
330
13DDF
100
AcDbEntity
  8
寸法
 62
     0
 48
50.0
370
    -2
100
AcDbLine
 10
2996.544829596009
 20
4438.080793455482
 30
0.0
 11
3226.544829595994
 21
4438.080793455482
 31
0.0
  0
INSERT
  5
13EDB
330
13DDF
100
AcDbEntity
  8
寸法
 62
     0
 48
50.0
370
    -2
100
AcDbBlockReference
  2
_DOTSMALL
 10
2996.544829596009
 20
4438.080793455482
 30
0.0
 41
75.0
 42
75.0
 43
75.0
 50
180.0
  0
INSERT
  5
13EDC
330
13DDF
100
AcDbEntity
  8
寸法
 62
     0
 48
50.0
370
    -2
100
AcDbBlockReference
  2
_DOTSMALL
 10
3226.544829595994
 20
4438.080793455482
 30
0.0
 41
75.0
 42
75.0
 43
75.0
  0
MTEXT
  5
13EDD
330
13DDF
100
AcDbEntity
  8
寸法
 62
     7
 48
50.0
100
AcDbMText
 10
3111.544829596001
 20
4513.089651723199
 30
0.0
 40
90.0
 41
0.0
 71
     5
 72
     1
  1
\A1;230
  7
STYLE1
 73
     1
 44
1.0
1001
ACAD
1000
MTEXTBEGIN
1070
    73
1070
     1
1070
    44
1040
1.0
1070
    74
1070
     0
1000
MTEXTEND
  0
POINT
  5
13EDE
330
13DDF
100
AcDbEntity
  8
DEFPOINTS
 62
     0
 48
50.0
100
AcDbPoint
 10
2996.544829596009
 20
4169.350524693575
 30
0.0
  0
POINT
  5
13EDF
330
13DDF
100
AcDbEntity
  8
DEFPOINTS
 62
     0
 48
50.0
100
AcDbPoint
 10
3226.544829595994
 20
4080.438608470707
 30
0.0
  0
POINT
  5
13EE0
330
13DDF
100
AcDbEntity
  8
DEFPOINTS
 62
     0
 48
50.0
100
AcDbPoint
 10
3226.544829595994
 20
4438.080793455482
 30
0.0
  0
ENDBLK
  5
13DEA
330
13DDF
100
AcDbEntity
  8
0
 48
50.0
100
AcDbBlockEnd
  0
BLOCK
  5
13DF5
330
13DEB
100
AcDbEntity
  8
0
 48
50.0
100
AcDbBlockBegin
  2
*D61
 70
     1
 10
0.0
 20
0.0
 30
0.0
  3
*D61
  1

  0
LINE
  5
13ECF
330
13DEB
100
AcDbEntity
  8
寸法
 62
     0
 48
50.0
370
    -2
100
AcDbLine
 10
5856.544829595979
 20
4184.350524693575
 30
0.0
 11
5856.544829595979
 21
4794.977580675179
 31
0.0
  0
LINE
  5
13ED0
330
13DEB
100
AcDbEntity
  8
寸法
 62
     0
 48
50.0
370
    -2
100
AcDbLine
 10
2996.544829596009
 20
4184.350524693575
 30
0.0
 11
2996.544829596009
 21
4794.977580675179
 31
0.0
  0
LINE
  5
13ED1
330
13DEB
100
AcDbEntity
  8
寸法
 62
     0
 48
50.0
370
    -2
100
AcDbLine
 10
5856.544829595979
 20
4749.977580675178
 30
0.0
 11
2996.544829596009
 21
4749.977580675178
 31
0.0
  0
INSERT
  5
13ED2
330
13DEB
100
AcDbEntity
  8
寸法
 62
     0
 48
50.0
370
    -2
100
AcDbBlockReference
  2
_DOTSMALL
 10
5856.544829595979
 20
4749.977580675178
 30
0.0
 41
75.0
 42
75.0
 43
75.0
  0
INSERT
  5
13ED3
330
13DEB
100
AcDbEntity
  8
寸法
 62
     0
 48
50.0
370
    -2
100
AcDbBlockReference
  2
_DOTSMALL
 10
2996.544829596009
 20
4749.977580675178
 30
0.0
 41
75.0
 42
75.0
 43
75.0
 50
180.0
  0
MTEXT
  5
13ED4
330
13DEB
100
AcDbEntity
  8
寸法
 62
     7
 48
50.0
100
AcDbMText
 10
4426.544829595994
 20
4824.986438942895
 30
0.0
 40
90.0
 41
0.0
 71
     5
 72
     1
  1
\A1;2860
  7
STYLE1
 73
     1
 44
1.0
1001
ACAD
1000
MTEXTBEGIN
1070
    73
1070
     1
1070
    44
1040
1.0
1070
    74
1070
     0
1000
MTEXTEND
  0
POINT
  5
13ED5
330
13DEB
100
AcDbEntity
  8
DEFPOINTS
 62
     0
 48
50.0
100
AcDbPoint
 10
5856.544829595979
 20
4169.350524693575
 30
0.0
  0
POINT
  5
13ED6
330
13DEB
100
AcDbEntity
  8
DEFPOINTS
 62
     0
 48
50.0
100
AcDbPoint
 10
2996.544829596009
 20
4169.350524693575
 30
0.0
  0
POINT
  5
13ED7
330
13DEB
100
AcDbEntity
  8
DEFPOINTS
 62
     0
 48
50.0
100
AcDbPoint
 10
2996.544829596009
 20
4749.977580675178
 30
0.0
  0
ENDBLK
  5
13DF6
330
13DEB
100
AcDbEntity
  8
0
 48
50.0
100
AcDbBlockEnd
  0
ENDSEC
  0
SECTION
  2
ENTITIES
  0
MTEXT
  5
763F
330
747D
100
AcDbEntity
  8
0
100
AcDbMText
 10
302.846345836809
 20
280.1983726409901
 30
0.0
 40
3.5
 41
5.323721266742722
 71
     1
 72
     5
  1

  7
MSMINCHO
 73
     1
 44
1.0
1001
ACAD
1000
MTEXTBEGIN
1070
    73
1070
     1
1070
    44
1040
1.0
1070
    74
1070
     0
1000
MTEXTEND
  0
LINE
  5
10B56
330
747D
100
AcDbEntity
  8
補助
  6
PHANTOM
 62
   230
 48
50.0
100
AcDbLine
 10
105.0
 20
0.0
 30
0.0
 11
104.9999999999996
 21
8557.199999999999
 31
0.0
  0
LINE
  5
10B57
330
747D
100
AcDbEntity
  8
補助
  6
PHANTOM
 62
   230
 48
50.0
100
AcDbLine
 10
104.9999999999996
 20
8557.199999999999
 30
0.0
 11
12230.4
 21
8557.199999999999
 31
0.0
  0
LINE
  5
10B5E
330
747D
100
AcDbEntity
  8
補助
  6
PHANTOM
 62
   230
 48
50.0
100
AcDbLine
 10
12230.4
 20
8557.199999999999
 30
0.0
 11
12230.4
 21
900.0
 31
0.0
  0
LINE
  5
10B6D
330
747D
100
AcDbEntity
  8
補助
  6
PHANTOM
 62
   230
 48
50.0
100
AcDbLine
 10
9830.400000000002
 20
8557.199999999999
 30
0.0
 11
9830.400000000002
 21
3600.0
 31
0.0
  0
LINE
  5
10B6F
330
747D
100
AcDbEntity
  8
補助
  6
PHANTOM
 62
   230
 48
50.0
100
AcDbLine
 10
9830.400000000002
 20
3110.960973647383
 30
0.0
 11
12230.4
 21
3110.960973647383
 31
0.0
  0
LINE
  5
13125
330
747D
100
AcDbEntity
  8
補助
  6
PHANTOM
 62
   230
 48
50.0
100
AcDbLine
 10
11930.4
 20
8182.200000000003
 30
0.0
 11
11930.4
 21
6457.2
 31
0.0
  0
LINE
  5
13126
330
747D
100
AcDbEntity
  8
補助
  6
PHANTOM
 62
   230
 48
50.0
100
AcDbLine
 10
9380.400000000003
 20
8182.199999999999
 30
0.0
 11
9380.400000000003
 21
6457.2
 31
0.0
  0
LINE
  5
13127
330
747D
100
AcDbEntity
  8
補助
  6
PHANTOM
 62
   230
 48
50.0
100
AcDbLine
 10
9380.400000000003
 20
6457.2
 30
0.0
 11
11930.4
 21
6457.2
 31
0.0
  0
LINE
  5
13128
330
747D
100
AcDbEntity
  8
補助
  6
PHANTOM
 62
   230
 48
50.0
100
AcDbLine
 10
9380.400000000003
 20
8182.199999999999
 30
0.0
 11
11930.4
 21
8182.200000000003
 31
0.0
  0
TEXT
  5
13A53
330
747D
100
AcDbEntity
  8
部品1
 48
50.0
100
AcDbText
 10
5586.733489387071
 20
5324.04466173644
 30
0.0
 40
156.25
  1
⑤
  7
STYLE2
100
AcDbText
  0
TEXT
  5
13A54
330
747D
100
AcDbEntity
  8
部品1
 48
50.0
100
AcDbText
 10
2872.616513071582
 20
5324.04466173644
 30
0.0
 40
156.25
  1
②
  7
STYLE2
100
AcDbText
  0
TEXT
  5
13A55
330
747D
100
AcDbEntity
  8
仕様書枠
 62
     7
 48
50.0
100
AcDbText
 10
4134.444218717261
 20
1079.634293902869
 30
0.0
 40
112.0
  1
正 面 図
  7
STYLE2
100
AcDbText
  0
TEXT
  5
13A56
330
747D
100
AcDbEntity
  8
文字
 62
     7
 48
50.0
100
AcDbText
 10
8748.510891051193
 20
7793.188405836129
 30
0.0
 40
81.11400000000001
  1
母屋
  7
STYLE1
100
AcDbText
  0
LINE
  5
13A57
330
747D
100
AcDbEntity
  8
部品1
100
AcDbLine
 10
11930.40000000001
 20
6665.368200000004
 30
0.0
 11
8380.400000000008
 21
6665.368200000004
 31
0.0
  0
LINE
  5
13A58
330
747D
100
AcDbEntity
  8
部品1
100
AcDbLine
 10
8380.400000000008
 20
8182.200000000005
 30
0.0
 11
8380.400000000008
 21
6527.474400000002
 31
0.0
  0
LINE
  5
13A59
330
747D
100
AcDbEntity
  8
部品1
100
AcDbLine
 10
11930.40000000001
 20
6803.262000000007
 30
0.0
 11
8380.400000000008
 21
6803.262000000009
 31
0.0
  0
LINE
  5
13A5A
330
747D
100
AcDbEntity
  8
部品1
100
AcDbLine
 10
11930.40000000001
 20
7216.943400000004
 30
0.0
 11
8380.400000000008
 21
7216.943400000004
 31
0.0
  0
LINE
  5
13A5B
330
747D
100
AcDbEntity
  8
部品1
100
AcDbLine
 10
10930.40000000001
 20
7079.049600000006
 30
0.0
 11
8380.400000000008
 21
7079.049600000006
 31
0.0
  0
LINE
  5
13A5C
330
747D
100
AcDbEntity
  8
部品1
100
AcDbLine
 10
11930.40000000001
 20
6941.155800000008
 30
0.0
 11
8380.400000000008
 21
6941.155800000008
 31
0.0
  0
TEXT
  5
13A5D
330
747D
100
AcDbEntity
  8
文字
 62
     7
 48
50.0
100
AcDbText
 10
8495.493720430589
 20
7241.61320583613
 30
0.0
 40
81.11400000000001
  1
6
  7
STYLE1
100
AcDbText
  0
TEXT
  5
13A5E
330
747D
100
AcDbEntity
  8
文字
 62
     7
 48
50.0
100
AcDbText
 10
8495.493720430575
 20
7103.719405836128
 30
0.0
 40
81.11400000000001
  1
7
  7
STYLE1
100
AcDbText
  0
TEXT
  5
13A5F
330
747D
100
AcDbEntity
  8
文字
 62
     7
 48
50.0
100
AcDbText
 10
8495.493720430589
 20
7379.507005836128
 30
0.0
 40
81.11400000000001
  1
5
  7
STYLE1
100
AcDbText
  0
TEXT
  5
13A60
330
747D
100
AcDbEntity
  8
文字
 62
     7
 48
50.0
100
AcDbText
 10
8748.510891051177
 20
7379.507005836128
 30
0.0
 40
81.11400000000001
  1
鼻隠シ前
  7
STYLE1
100
AcDbText
  0
TEXT
  5
13A61
330
747D
100
AcDbEntity
  8
文字
 62
     7
 48
50.0
100
AcDbText
 10
8748.510891051177
 20
7931.08220583613
 30
0.0
 40
81.11400000000001
  1
柱･梁
  7
STYLE1
100
AcDbText
  0
TEXT
  5
13A62
330
747D
100
AcDbEntity
  8
文字
 62
     7
 48
50.0
100
AcDbText
 10
9756.354135807924
 20
8068.976005836129
 30
0.0
 40
81.11400000000001
  1
材料（材質）
  7
STYLE1
100
AcDbText
  0
TEXT
  5
13A63
330
747D
100
AcDbEntity
  8
文字
 62
     7
 48
50.0
100
AcDbText
 10
8888.635855497735
 20
8068.976005836129
 30
0.0
 40
81.11400000000001
  1
部　　品　　名
  7
STYLE1
100
AcDbText
  0
TEXT
  5
13A64
330
747D
100
AcDbEntity
  8
文字
 62
     7
 48
50.0
100
AcDbText
 10
8495.493720430589
 20
7655.294605836127
 30
0.0
 40
81.11400000000001
  1
3
  7
STYLE1
100
AcDbText
  0
TEXT
  5
13A65
330
747D
100
AcDbEntity
  8
文字
 62
     7
 48
50.0
100
AcDbText
 10
8495.493720430589
 20
7517.400805836129
 30
0.0
 40
81.11400000000001
  1
4
  7
STYLE1
100
AcDbText
  0
TEXT
  5
13A66
330
747D
100
AcDbEntity
  8
文字
 62
     7
 48
50.0
100
AcDbText
 10
8495.493720430589
 20
7793.188405836132
 30
0.0
 40
81.11400000000001
  1
2
  7
STYLE1
100
AcDbText
  0
TEXT
  5
13A67
330
747D
100
AcDbEntity
  8
文字
 62
     7
 48
50.0
100
AcDbText
 10
8495.493720430589
 20
7931.08220583613
 30
0.0
 40
81.11400000000001
  1
1
  7
STYLE1
100
AcDbText
  0
TEXT
  5
13A68
330
747D
100
AcDbEntity
  8
文字
 62
     7
 48
50.0
100
AcDbText
 10
8435.659867331066
 20
8068.976005836129
 30
0.0
 40
81.11400000000001
  1
品番
  7
STYLE1
100
AcDbText
  0
LINE
  5
13A69
330
747D
100
AcDbEntity
  8
部品1
100
AcDbLine
 10
11930.40000000001
 20
7630.624800000005
 30
0.0
 11
8380.400000000008
 21
7630.624800000005
 31
0.0
  0
LINE
  5
13A6A
330
747D
100
AcDbEntity
  8
部品1
100
AcDbLine
 10
11930.40000000001
 20
7354.837200000002
 30
0.0
 11
8380.400000000008
 21
7354.837200000002
 31
0.0
  0
LINE
  5
13A6B
330
747D
100
AcDbEntity
  8
部品1
100
AcDbLine
 10
11930.40000000001
 20
7492.731
 30
0.0
 11
8380.400000000008
 21
7492.731
 31
0.0
  0
LINE
  5
13A6C
330
747D
100
AcDbEntity
  8
部品1
100
AcDbLine
 10
11930.40000000001
 20
7906.4124
 30
0.0
 11
8380.400000000008
 21
7906.4124
 31
0.0
  0
LINE
  5
13A6D
330
747D
100
AcDbEntity
  8
部品1
100
AcDbLine
 10
11930.40000000001
 20
7768.518600000003
 30
0.0
 11
8380.400000000008
 21
7768.518600000003
 31
0.0
  0
LINE
  5
13A6E
330
747D
100
AcDbEntity
  8
部品1
100
AcDbLine
 10
11930.40000000001
 20
8044.306199999999
 30
0.0
 11
8380.400000000008
 21
8044.306200000002
 31
0.0
  0
LINE
  5
13A6F
330
747D
100
AcDbEntity
  8
部品1
100
AcDbLine
 10
8673.141230280178
 20
8182.200000000005
 30
0.0
 11
8673.141230280192
 21
7079.049600000006
 31
0.0
  0
LINE
  5
13A70
330
747D
100
AcDbEntity
  8
部品1
100
AcDbLine
 10
9695.844920000018
 20
8182.199999999999
 30
0.0
 11
9695.844920000018
 21
7079.049600000006
 31
0.0
  0
LINE
  5
13A71
330
747D
100
AcDbEntity
  8
部品1
100
AcDbLine
 10
11930.40000000001
 20
8182.200000000005
 30
0.0
 11
8380.400000000008
 21
8182.200000000005
 31
0.0
  0
TEXT
  5
13A72
330
747D
100
AcDbEntity
  8
文字
 62
     7
 48
50.0
100
AcDbText
 10
8748.510891051193
 20
7655.294605836127
 30
0.0
 40
81.11400000000001
  1
屋根パネル
  7
STYLE1
100
AcDbText
  0
TEXT
  5
13A73
330
747D
100
AcDbEntity
  8
文字
 62
     7
 48
50.0
100
AcDbText
 10
8748.510891051193
 20
7103.719405836135
 30
0.0
 40
81.11400000000001
  1
雨とい
  7
STYLE1
100
AcDbText
  0
TEXT
  5
13A74
330
747D
100
AcDbEntity
  8
文字
 62
     7
 48
50.0
100
AcDbText
 10
8461.945370829139
 20
6827.931805836131
 30
0.0
 40
81.11400000000001
  1
溶融亜鉛めっき鋼板→F12(JIS G 3302)
  7
STYLE1
100
AcDbText
  0
TEXT
  5
13A75
330
747D
100
AcDbEntity
  8
文字
 62
     7
 48
50.0
100
AcDbText
 10
8461.945370829125
 20
6690.038005836133
 30
0.0
 40
81.11400000000001
  1
溶融亜鉛-5％アルミニウム合金めっき鋼板→Y10(JIS G 3317)
  7
STYLE1
100
AcDbText
  0
TEXT
  5
13A76
330
747D
100
AcDbEntity
  8
文字
 62
     7
 48
50.0
100
AcDbText
 10
8461.945370829301
 20
6965.825605836133
 30
0.0
 40
81.11400000000001
  1
一般構造用炭素鋼鋼管→Y12(JIS G 3444)
  7
STYLE1
100
AcDbText
  0
LINE
  5
13A77
330
747D
100
AcDbEntity
  8
部品1
100
AcDbLine
 10
11930.40000000001
 20
7079.049600000006
 30
0.0
 11
8380.400000000008
 21
7079.049600000006
 31
0.0
  0
TEXT
  5
13A78
330
747D
100
AcDbEntity
  8
文字
 62
     7
 48
50.0
100
AcDbText
 10
8748.510891051177
 20
7517.400805836125
 30
0.0
 40
81.11400000000001
  1
妻板
  7
STYLE1
100
AcDbText
  0
TEXT
  5
13A79
330
747D
100
AcDbEntity
  8
文字
 62
     7
 48
50.0
100
AcDbText
 10
8748.510891051177
 20
7241.61320583613
 30
0.0
 40
81.11400000000001
  1
軒とい
  7
STYLE1
100
AcDbText
  0
TEXT
  5
13A7A
330
747D
100
AcDbEntity
  8
文字
 62
     7
 48
50.0
100
AcDbText
 10
8461.945370829125
 20
6552.144205836128
 30
0.0
 40
81.11400000000001
  1
塗装溶融55％アルミニウム-亜鉛合金めっき鋼板→AZ150(JIS G 3322)
  7
STYLE1
100
AcDbText
  0
LINE
  5
13A7B
330
747D
100
AcDbEntity
  8
部品1
100
AcDbLine
 10
11930.40000000001
 20
6527.474400000007
 30
0.0
 11
8380.400000000008
 21
6527.474400000007
 31
0.0
  0
TEXT
  5
13A7C
330
747D
100
AcDbEntity
  8
文字
 62
     7
 48
50.0
100
AcDbText
 10
9756.354135807924
 20
7241.613205836133
 30
0.0
 40
81.11400000000001
  1
塗装溶融55%アルミニウム-亜鉛合金めっき鋼板
 41
0.8
  7
STYLE1
100
AcDbText
  0
LINE
  5
13A7D
330
747D
100
AcDbEntity
  8
部品1
100
AcDbLine
 10
11930.40000000001
 20
6527.474400000002
 30
0.0
 11
11930.40000000001
 21
8182.200000000005
 31
0.0
  0
TEXT
  5
13A7E
330
747D
100
AcDbEntity
  8
文字
 62
     7
 48
50.0
100
AcDbText
 10
9756.354135807924
 20
7379.50700583613
 30
0.0
 40
81.11400000000001
  1
　　　　　　　　　〃
 41
0.8
  7
STYLE1
100
AcDbText
  0
TEXT
  5
13A7F
330
747D
100
AcDbEntity
  8
文字
 62
     7
 48
50.0
100
AcDbText
 10
9756.354135807924
 20
7517.400805836129
 30
0.0
 40
81.11400000000001
  1
　　　　　　　　　〃
 41
0.8
  7
STYLE1
100
AcDbText
  0
TEXT
  5
13A80
330
747D
100
AcDbEntity
  8
文字
 62
     7
 48
50.0
100
AcDbText
 10
9756.354135807924
 20
7655.294605836134
 30
0.0
 40
81.11400000000001
  1
溶融亜鉛-5%アルミニウム合金めっき鋼板
 41
0.8
  7
STYLE1
100
AcDbText
  0
TEXT
  5
13A81
330
747D
100
AcDbEntity
  8
文字
 62
     7
 48
50.0
100
AcDbText
 10
9756.354135807924
 20
7793.188405836132
 30
0.0
 40
81.11400000000001
  1
溶融亜鉛めっき鋼板
 41
0.8
  7
STYLE1
100
AcDbText
  0
TEXT
  5
13A82
330
747D
100
AcDbEntity
  8
文字
 62
     7
 48
50.0
100
AcDbText
 10
9756.354135807924
 20
7931.08220583613
 30
0.0
 40
81.11400000000001
  1
一般構造用炭素鋼鋼管
 41
0.8
  7
STYLE1
100
AcDbText
  0
TEXT
  5
13A83
330
747D
100
AcDbEntity
  8
文字
 62
     7
 48
50.0
100
AcDbText
 10
9756.354135807924
 20
7103.719405836135
 30
0.0
 40
81.11400000000001
  1
ASA樹脂
 41
0.8
  7
STYLE1
100
AcDbText
  0
TEXT
  5
13A84
330
747D
100
AcDbEntity
  8
文字
 62
     7
 48
50.0
100
AcDbText
 10
11623.33570057169
 20
7931.08220583613
 30
0.0
 40
81.11400000000001
  1
4.2
 41
0.8
  7
STYLE1
100
AcDbText
  0
TEXT
  5
13A85
330
747D
100
AcDbEntity
  8
文字
 62
     7
 48
50.0
100
AcDbText
 10
11623.33570057169
 20
7793.188405836132
 30
0.0
 40
81.11400000000001
  1
1.6
 41
0.8
  7
STYLE1
100
AcDbText
  0
TEXT
  5
13A86
330
747D
100
AcDbEntity
  8
文字
 62
     7
 48
50.0
100
AcDbText
 10
11623.33570057169
 20
7655.294605836134
 30
0.0
 40
81.11400000000001
  1
0.5
 41
0.8
  7
STYLE1
100
AcDbText
  0
TEXT
  5
13A87
330
747D
100
AcDbEntity
  8
文字
 62
     7
 48
50.0
100
AcDbText
 10
11623.33570057169
 20
7517.400805836129
 30
0.0
 40
81.11400000000001
  1
0.7
 41
0.8
  7
STYLE1
100
AcDbText
  0
TEXT
  5
13A88
330
747D
100
AcDbEntity
  8
文字
 62
     7
 48
50.0
100
AcDbText
 10
11623.33570057169
 20
7379.50700583613
 30
0.0
 40
81.11400000000001
  1
0.7
 41
0.8
  7
STYLE1
100
AcDbText
  0
TEXT
  5
13A89
330
747D
100
AcDbEntity
  8
文字
 62
     7
 48
50.0
100
AcDbText
 10
11623.33570057169
 20
7241.613205836133
 30
0.0
 40
81.11400000000001
  1
0.6
 41
0.8
  7
STYLE1
100
AcDbText
  0
TEXT
  5
13A8A
330
747D
100
AcDbEntity
  8
文字
 62
     7
 48
50.0
100
AcDbText
 10
11535.04853045396
 20
8068.976005836129
 30
0.0
 40
81.11400000000001
  1
単位mm
  7
STYLE1
100
AcDbText
  0
LINE
  5
13A8B
330
747D
100
AcDbEntity
  8
センター
 48
0.5
100
AcDbLine
 10
3226.544659596016
 20
2137.6400148494
 30
0.0000000000000002
 11
3226.544659596016
 21
1747.640014849399
 31
0.0000000000000002
  0
LINE
  5
13A8C
330
747D
100
AcDbEntity
  8
センター
 48
0.5
100
AcDbLine
 10
5626.54465959598
 20
2137.6400148494
 30
0.0
 11
5626.54465959598
 21
1747.640014849399
 31
0.0
  0
DIMENSION
  5
13A8D
330
747D
100
AcDbEntity
  8
寸法
 48
50.0
100
AcDbDimension
  2
*D55
 10
5626.54465959598
 20
1415.73594393607
 30
0.0
 11
4426.544659595998
 21
1490.744802203786
 31
0.0
 70
    32
 71
     5
 42
2399.999999999964
  3
INABA_S30G
100
AcDbAlignedDimension
 13
3226.544659596016
 23
1747.640014849399
 33
0.0000000000000002
 14
5626.54465959598
 24
1747.640014849399
 34
0.0
100
AcDbRotatedDimension
  0
LINE
  5
13A8E
330
747D
100
AcDbEntity
  8
仕様書枠
  6
Continuous
 48
50.0
100
AcDbLine
 10
9830.400000000009
 20
900.0
 30
0.0
 11
9830.400000000009
 21
0.0
 31
0.0
  0
LINE
  5
13A8F
330
747D
100
AcDbEntity
  8
仕様書枠
 48
50.0
100
AcDbLine
 10
12230.40000000001
 20
900.0
 30
0.0
 11
12230.40000000001
 21
0.0
 31
0.0
  0
LINE
  5
13A90
330
747D
100
AcDbEntity
  8
仕様書枠
 48
50.0
100
AcDbLine
 10
105.0
 20
0.0
 30
0.0
 11
12230.40000000001
 21
0.0
 31
0.0
  0
LINE
  5
13A91
330
747D
100
AcDbEntity
  8
仕様書枠
 48
50.0
100
AcDbLine
 10
9830.400000000009
 20
900.0
 30
0.0
 11
12230.40000000001
 21
900.0
 31
0.0
  0
LINE
  5
13A92
330
747D
100
AcDbEntity
  8
文字
 62
     7
 48
50.0
100
AcDbLine
 10
9890.40000000001
 20
300.0
 30
0.0
 11
12170.40000000001
 21
300.0
 31
0.0
  0
TEXT
  5
13A93
330
747D
100
AcDbEntity
  8
文字
 62
     7
 48
50.0
100
AcDbText
 10
9872.234292432681
 20
671.3179555724545
 30
0.0
 40
150.0
  1
外 形 図
  7
STYLE2
100
AcDbText
  0
TEXT
  5
13A94
330
747D
100
AcDbEntity
  8
文字
 62
     7
 48
50.0
100
AcDbText
 10
9901.077524988316
 20
357.9555495773438
 30
0.0
 40
120.0
  1
機種名
  7
STYLE2
100
AcDbText
  0
TEXT
  5
13A95
330
747D
100
AcDbEntity
  8
文字
 62
     7
 48
50.0
100
AcDbText
 10
10893.0988779165
 20
773.6682797184221
 30
0.0
 40
75.0
  1
             <縮尺> S=1/30
  7
STYLE2
100
AcDbText
  0
LINE
  5
13A96
330
747D
100
AcDbEntity
  8
仕様書枠
 48
50.0
100
AcDbLine
 10
9830.400000000009
 20
600.0
 30
0.0
 11
10688.40000000001
 21
600.0
 31
0.0
  0
LINE
  5
13A97
330
747D
100
AcDbEntity
  8
仕様書枠
  6
Continuous
 48
50.0
100
AcDbLine
 10
10688.40000000001
 20
900.0
 30
0.0
 11
10688.40000000001
 21
600.0
 31
0.0
  0
TEXT
  5
13A98
330
747D
100
AcDbEntity
  8
文字
 62
     7
 48
50.0
100
AcDbText
 10
10881.61217095185
 20
362.9225347433567
 30
0.0
 40
120.0
  1
BP-24U･24P
  7
STYLE3
100
AcDbText
  0
TEXT
  5
13A99
330
747D
100
AcDbEntity
  8
文字
 62
     7
 48
50.0
100
AcDbText
 10
11138.71739229688
 20
628.6895453046891
 30
0.0
 40
75.0
  1
～一般型～
  7
STYLE2
100
AcDbText
  0
TEXT
  5
13A9A
330
747D
100
AcDbEntity
  8
寸法
 62
     7
 48
50.0
100
AcDbText
 10
2536.547712722321
 20
1890.815749508983
 30
0.0
 40
78.4
  1
▽G.L
100
AcDbText
  0
LWPOLYLINE
  5
13A9B
330
747D
100
AcDbEntity
  8
部品1
100
AcDbPolyline
 90
        4
 70
     1
 43
0.0
 10
4103.029141955725
 20
1233.499018253053
 10
4750.060517236255
 20
1233.499018253053
 10
4750.060517236255
 20
1040.978862435913
 10
4103.029141955725
 20
1040.978862435913
  0
LWPOLYLINE
  5
13A9C
330
747D
100
AcDbEntity
  8
部品1
100
AcDbPolyline
 90
        4
 70
     1
 43
0.0
 10
4103.029141955725
 20
5471.393552814887
 10
4750.060517236255
 20
5471.393552814887
 10
4750.060517236255
 20
5278.873396997748
 10
4103.029141955725
 20
5278.873396997748
  0
TEXT
  5
13A9D
330
747D
100
AcDbEntity
  8
仕様書枠
 62
     7
 48
50.0
100
AcDbText
 10
4134.444218717254
 20
5317.528828464703
 30
0.0
 40
112.0
  1
平 面 図
  7
STYLE2
100
AcDbText
  0
LWPOLYLINE
  5
13A9E
330
747D
100
AcDbEntity
  8
部品1
100
AcDbPolyline
 90
        4
 70
     1
 43
0.0
 10
8622.895274393973
 20
1232.74664023007
 10
9269.926649674497
 20
1232.74664023007
 10
9269.926649674497
 20
1040.226484412931
 10
8622.895274393973
 20
1040.226484412931
  0
TEXT
  5
13A9F
330
747D
100
AcDbEntity
  8
仕様書枠
 62
     7
 48
50.0
100
AcDbText
 10
8654.310351155508
 20
1078.881915879891
 30
0.0
 40
112.0
  1
側 面 図
  7
STYLE2
100
AcDbText
  0
LINE
  5
13AA0
330
747D
100
AcDbEntity
  8
Ｇ．Ｌ
 48
50.0
100
AcDbLine
 10
2458.314220783665
 20
1867.640018622878
 30
0.0
 11
10551.78535694044
 21
1867.640018622878
 31
0.0
  0
TEXT
  5
13AA1
330
747D
100
AcDbEntity
  8
文字
 62
     7
 48
50.0
100
AcDbText
 10
9907.054008162901
 20
171.4076431926769
 30
0.0
 40
75.0
  1
○間口奥行寸法は柱芯寸法です。
  7
STYLE2
100
AcDbText
  0
LINE
  5
13AA2
330
747D
100
AcDbEntity
  8
部品1
 48
50.0
100
AcDbLine
 10
9813.476836921239
 20
1984.990301580932
 30
0.0000000000000002
 11
9858.476836921241
 21
1984.990299675144
 31
0.0000000000000002
  0
LINE
  5
13AA3
330
747D
100
AcDbEntity
  8
部品1
 48
50.0
100
AcDbLine
 10
9858.476836921241
 20
1984.990299675144
 30
0.0000000000000002
 11
9858.476836074231
 21
1964.990299675144
 31
0.0000000000000002
  0
LINE
  5
13AA4
330
747D
100
AcDbEntity
  8
部品1
 48
50.0
100
AcDbLine
 10
9858.476836074231
 20
1964.990299675144
 30
0.0000000000000002
 11
9860.476836059271
 21
1964.637645629034
 31
0.0000000000000002
  0
LINE
  5
13AA5
330
747D
100
AcDbEntity
  8
部品1
 48
50.0
100
AcDbLine
 10
9839.506916778802
 20
1924.874949783909
 30
0.0000000000000002
 11
9853.044692270051
 21
1922.487874114853
 31
0.0000000000000002
  0
LINE
  5
13AA6
330
747D
100
AcDbEntity
  8
部品1
 48
50.0
100
AcDbLine
 10
9879.77293194295
 20
1958.895834302606
 30
0.0000000000000002
 11
9873.140906212706
 21
1921.2837566663
 31
0.0000000000000002
  0
LINE
  5
13AA7
330
747D
100
AcDbEntity
  8
部品1
 48
50.0
100
AcDbLine
 10
9813.476836921239
 20
1984.990301580932
 30
0.0000000000000002
 11
9813.476835689087
 21
1955.896395106192
 31
0.0000000000000002
  0
ARC
  5
13AA8
330
747D
100
AcDbEntity
  8
部品1
 48
50.0
100
AcDbCircle
 10
9844.976835689086
 20
1955.896393772142
 30
0.0000000000000002
 40
31.5
100
AcDbArc
 50
179.9999975735403
 51
259.9999975739367
  0
LINE
  5
13AA9
330
747D
100
AcDbEntity
  8
部品1
 48
50.0
100
AcDbLine
 10
9860.216363730231
 20
1963.160434010544
 30
0.0000000000000002
 11
9876.958095406386
 21
1960.208414281176
 31
0.0000000000000002
  0
LINE
  5
13AAA
330
747D
100
AcDbEntity
  8
部品1
 48
50.0
100
AcDbLine
 10
9853.305164599078
 20
1923.965085733347
 30
0.0000000000000002
 11
9870.046896275278
 21
1921.01306600399
 31
0.0000000000000002
  0
LINE
  5
13AAB
330
747D
100
AcDbEntity
  8
部品1
 48
50.0
100
AcDbLine
 10
9860.476836059286
 20
1964.637645629023
 30
0.0000000000000002
 11
9860.216363730245
 21
1963.160434010537
 31
0.0000000000000002
  0
LINE
  5
13AAC
330
747D
100
AcDbEntity
  8
部品1
 48
50.0
100
AcDbLine
 10
9853.305164599092
 20
1923.965085733344
 30
0.0000000000000002
 11
9853.044692270065
 21
1922.48787411486
 31
0.0000000000000002
  0
LINE
  5
13AAD
330
747D
100
AcDbEntity
  8
部品1
 48
50.0
100
AcDbLine
 10
9873.140906212706
 20
1921.2837566663
 30
0.0000000000000002
 11
9870.046896275294
 21
1921.013066003979
 31
0.0000000000000002
  0
LINE
  5
13AAE
330
747D
100
AcDbEntity
  8
部品1
 48
50.0
100
AcDbLine
 10
9879.77293194295
 20
1958.895834302606
 30
0.0000000000000002
 11
9876.958095406386
 21
1960.208414281169
 31
0.0000000000000002
  0
LINE
  5
13AAF
330
747D
100
AcDbEntity
  8
部品1
 48
50.0
100
AcDbLine
 10
9814.97690341578
 20
3555.078230340376
 30
0.0000000000000002
 11
9814.976887261568
 21
3173.64064218463
 31
0.0000000000000002
  0
LINE
  5
13AB0
330
747D
100
AcDbEntity
  8
部品1
 48
50.0
100
AcDbLine
 10
9856.976903415795
 20
3555.078228565446
 30
0.0000000000000002
 11
9856.976887261582
 21
3173.640640405894
 31
0.0000000000000002
  0
LINE
  5
13AB1
330
747D
100
AcDbEntity
  8
部品1
 48
50.0
100
AcDbLine
 10
9814.576903461043
 20
3555.078230357278
 30
0.0000000000000006
 11
9857.376903461045
 21
3555.078228573061
 31
0.0000000000000006
  0
LINE
  5
13AB2
330
747D
100
AcDbEntity
  8
部品1
 48
50.0
100
AcDbLine
 10
9904.448474220918
 20
3639.104794172374
 30
0.0000000000000006
 11
9904.448474051504
 21
3635.104794172374
 31
-0.0000000000000007
  0
LINE
  5
13AB3
330
747D
100
AcDbEntity
  8
部品1
 48
50.0
100
AcDbLine
 10
9858.448474226753
 20
3639.104794172367
 30
0.0000000000000006
 11
9858.448474044752
 21
3635.104794172374
 31
-0.0000000000000007
  0
LINE
  5
13AB4
330
747D
100
AcDbEntity
  8
部品1
 48
50.0
100
AcDbLine
 10
9798.241503326964
 20
3176.640642893392
 30
0.0
 11
9798.241502564664
 21
3158.640642893388
 31
0.0
  0
LINE
  5
13AB5
330
747D
100
AcDbEntity
  8
部品1
 48
50.0
100
AcDbLine
 10
9859.476887261612
 20
3173.640640300019
 30
0.0
 11
9859.476886753386
 21
3161.640640300026
 31
0.0
  0
LINE
  5
13AB6
330
747D
100
AcDbEntity
  8
部品1
 48
50.0
100
AcDbLine
 10
9813.241502691672
 20
3161.640472961248
 30
0.0
 11
9859.476886753371
 21
3161.640471003146
 31
0.0
  0
LINE
  5
13AB7
330
747D
100
AcDbEntity
  8
部品1
 48
50.0
100
AcDbLine
 10
9813.241503199911
 20
3173.640642258128
 30
0.0
 11
9859.476887261612
 21
3173.640640300019
 31
0.0
  0
LINE
  5
13AB8
330
747D
100
AcDbEntity
  8
部品1
 48
50.0
100
AcDbLine
 10
9796.241503326994
 20
3176.640642978095
 30
0.0
 11
9813.241503326965
 21
3176.640642258131
 31
0.0
  0
LINE
  5
13AB9
330
747D
100
AcDbEntity
  8
部品1
 48
50.0
100
AcDbLine
 10
9813.241503326935
 20
3176.640642258135
 30
0.0
 11
9813.241502564663
 21
3158.640642258124
 31
0.0
  0
LINE
  5
13ABA
330
747D
100
AcDbEntity
  8
部品1
 48
50.0
100
AcDbLine
 10
9796.241502564662
 20
3158.640473681211
 30
0.0
 11
9813.241502564634
 21
3158.640472961248
 31
0.0
  0
LINE
  5
13ABB
330
747D
100
AcDbEntity
  8
部品1
 48
50.0
100
AcDbLine
 10
9796.241503326994
 20
3176.640642978095
 30
0.0
 11
9796.241502564678
 21
3158.640642978091
 31
0.0
  0
LINE
  5
13ABC
330
747D
100
AcDbEntity
  8
部品1
 48
50.0
100
AcDbLine
 10
9796.241460976133
 20
2176.640642978091
 30
0.0
 11
9796.241460213831
 21
2158.640642978091
 31
0.0
  0
LINE
  5
13ABD
330
747D
100
AcDbEntity
  8
部品1
 48
50.0
100
AcDbLine
 10
9796.241460213831
 20
2158.640642978091
 30
0.0
 11
9813.241460213802
 21
2158.640642258124
 31
0.0
  0
LINE
  5
13ABE
330
747D
100
AcDbEntity
  8
部品1
 48
50.0
100
AcDbLine
 10
9813.241460976104
 20
2176.640642258135
 30
0.0
 11
9813.241460213816
 21
2158.640642258128
 31
0.0
  0
LINE
  5
13ABF
330
747D
100
AcDbEntity
  8
部品1
 48
50.0
100
AcDbLine
 10
9796.241460976133
 20
2176.640642978091
 30
0.0
 11
9813.241460976133
 21
2176.640642258124
 31
0.0
  0
LINE
  5
13AC0
330
747D
100
AcDbEntity
  8
部品1
 48
50.0
100
AcDbLine
 10
9813.241460849065
 20
2173.640642258124
 30
0.0
 11
9859.476844910751
 21
2173.640640300022
 31
0.0
  0
LINE
  5
13AC1
330
747D
100
AcDbEntity
  8
部品1
 48
50.0
100
AcDbLine
 10
9813.241460340854
 20
2161.640642258131
 30
0.0
 11
9859.476844402539
 21
2161.640640300022
 31
0.0
  0
LINE
  5
13AC2
330
747D
100
AcDbEntity
  8
部品1
 48
50.0
100
AcDbLine
 10
9859.476844910751
 20
2173.640640300022
 30
0.0
 11
9859.476844402539
 21
2161.640640300022
 31
0.0
  0
LINE
  5
13AC3
330
747D
100
AcDbEntity
  8
部品1
 48
50.0
100
AcDbLine
 10
9798.241460976118
 20
2176.640642893388
 30
0.0
 11
9798.241460213802
 21
2158.640642893388
 31
0.0
  0
LINE
  5
13AC4
330
747D
100
AcDbEntity
  8
部品1
 48
5.0
100
AcDbLine
 10
9822.172502294213
 20
3639.804794172389
 30
0.0000000000000006
 11
9821.472502294156
 21
3639.804794172389
 31
0.0000000000000006
  0
LINE
  5
13AC5
330
747D
100
AcDbEntity
  8
部品1
 48
5.0
100
AcDbLine
 10
9907.772502294218
 20
3639.804794172353
 30
0.0000000000000006
 11
9908.472502294186
 21
3639.804794172353
 31
0.0000000000000006
  0
LINE
  5
13AC6
330
747D
100
AcDbEntity
  8
部品1
 48
5.0
100
AcDbLine
 10
9907.772502294204
 20
3639.104794172374
 30
0.0000000000000006
 11
9907.772502294218
 21
3639.804794172353
 31
0.0000000000000006
  0
LINE
  5
13AC7
330
747D
100
AcDbEntity
  8
部品1
 48
5.0
100
AcDbLine
 10
9822.172502294241
 20
3639.104794172367
 30
0.0000000000000006
 11
9822.172502294213
 21
3639.804794172389
 31
0.0000000000000006
  0
LINE
  5
13AC8
330
747D
100
AcDbEntity
  8
部品1
 48
5.0
100
AcDbLine
 10
9908.472502294273
 20
3728.904655931248
 30
0.0000000000000006
 11
9908.472502294186
 21
3639.804794172353
 31
0.0000000000000006
  0
LINE
  5
13AC9
330
747D
100
AcDbEntity
  8
部品1
 48
5.0
100
AcDbLine
 10
9821.472502294156
 20
3639.804794172389
 30
0.0000000000000006
 11
9821.4725022942
 21
3728.90465593131
 31
0.0000000000000006
  0
ARC
  5
13ACA
330
747D
100
AcDbEntity
  8
部品1
 48
5.0
100
AcDbCircle
 10
9584.47250229423
 20
3728.904655931277
 30
0.0000000000000006
 40
324.0
100
AcDbArc
 50
0.0000000004168817
 51
85.99999999970311
  0
ARC
  5
13ACB
330
747D
100
AcDbEntity
  8
部品1
 48
5.0
100
AcDbCircle
 10
9584.47250229423
 20
3728.904655931277
 30
0.0000000000000006
 40
237.0
100
AcDbArc
 50
0.0000000004168817
 51
85.99999999970311
  0
LINE
  5
13ACC
330
747D
100
AcDbEntity
  8
部品1
 48
5.0
100
AcDbLine
 10
9907.772502294204
 20
3639.104794172374
 30
0.0000000000000006
 11
9822.172502294241
 21
3639.104794172367
 31
0.0000000000000006
  0
LINE
  5
13ACD
330
747D
100
AcDbEntity
  8
部品1
 48
5.0
100
AcDbLine
 10
9601.004786571591
 20
3965.327335842798
 30
0.0000000000000006
 11
7921.033151848431
 21
4082.802396414561
 31
-0.0000000000000001
  0
LINE
  5
13ACE
330
747D
100
AcDbEntity
  8
部品1
 48
5.0
100
AcDbLine
 10
9607.073599787327
 20
4052.115408215421
 30
0.0000000000000006
 11
7927.101965064169
 21
4169.590468787151
 31
-0.0000000000000001
  0
LINE
  5
13ACF
330
747D
100
AcDbEntity
  8
部品1
 48
10.0
100
AcDbLine
 10
5837.577266516542
 20
4169.350524693884
 30
0.0000000000000012
 11
3437.044829596329
 21
4169.350524693884
 31
0.0000000000000005
  0
LINE
  5
13AD0
330
747D
100
AcDbEntity
  8
部品1
100
AcDbLine
 10
5838.053555799197
 20
4080.714791243862
 30
-0.0000000000000007
 11
5855.562282002415
 21
4081.020407196549
 31
-0.0000000000000007
  0
ARC
  5
13AD1
330
747D
100
AcDbEntity
  8
部品1
100
AcDbCircle
 10
5855.54482959598
 20
4082.020254891708
 30
-0.0000000000000007
 40
1.0
100
AcDbArc
 50
270.9999999998715
 51
0.0
  0
ARC
  5
13AD2
330
747D
100
AcDbEntity
  8
部品1
100
AcDbCircle
 10
5855.54482959598
 20
4168.367827430458
 30
0.0
 40
1.0
100
AcDbArc
 50
0.0
 51
89.00000000012854
  0
ARC
  5
13AD3
330
747D
100
AcDbEntity
  8
部品1
100
AcDbCircle
 10
5838.044829595979
 20
4169.173367230723
 30
0.0
 40
0.5
100
AcDbArc
 50
89.00000000012854
 51
180.0
  0
LINE
  5
13AD4
330
747D
100
AcDbEntity
  8
部品1
100
AcDbLine
 10
5838.053555799197
 20
4169.673291078303
 30
0.0
 11
5855.562282002415
 21
4169.367675125613
 31
0.0
  0
LINE
  5
13AD5
330
747D
100
AcDbEntity
  8
部品1
100
AcDbLine
 10
5837.54482959598
 20
4169.173367230723
 30
0.0
 11
5837.54482959598
 21
4081.214715091446
 31
-0.0000000000000007
  0
LINE
  5
13AD6
330
747D
100
AcDbEntity
  8
部品1
100
AcDbLine
 10
5856.544829595979
 20
4168.367827430458
 30
0.0
 11
5856.544829595979
 21
3639.104794172374
 31
0.0
  0
ELLIPSE
  5
13AD7
330
747D
100
AcDbEntity
  8
細線
 48
0.6200000000000001
100
AcDbEllipse
 10
5946.836413754456
 20
4125.194041161085
 30
-0.0000000000000003
 11
0.0000000001439634
 21
100.3017881819579
 31
0.0
210
0.0
220
0.0
230
-1.0
 40
0.9973182569291269
 41
4.267410064876434
 42
5.157367895890066
  0
LINE
  5
13AD8
330
747D
100
AcDbEntity
  8
部品1
 48
10.0
100
AcDbLine
 10
3437.044829596329
 20
4169.350524693884
 30
0.0000000000000005
 11
3015.512392675431
 21
4169.350524693884
 31
-0.0000000000000001
  0
LINE
  5
13AD9
330
747D
100
AcDbEntity
  8
部品1
 48
5.0
100
AcDbLine
 10
7889.487694246898
 20
4119.091294230667
 30
-0.0000000000000002
 11
7890.813067248032
 21
4138.045011185604
 31
-0.0000000000000002
  0
ARC
  5
13ADA
330
747D
100
AcDbEntity
  8
部品1
 48
5.0
100
AcDbCircle
 10
7924.730244956866
 20
4135.673291078303
 30
-0.0000000000000002
 40
34.0
100
AcDbArc
 50
85.99999999970311
 51
175.9999999999125
  0
ARC
  5
13ADB
330
747D
100
AcDbEntity
  8
部品1
 48
5.0
100
AcDbCircle
 10
7923.404871955732
 20
4116.719574123366
 30
0.0000000000000002
 40
34.0
100
AcDbArc
 50
175.9999999999125
 51
265.9999999997031
  0
CIRCLE
  5
13ADC
330
747D
100
AcDbEntity
  8
細線
100
AcDbCircle
 10
5626.544829595994
 20
4033.438608470707
 30
0.0
 40
39.99999999999997
  0
CIRCLE
  5
13ADD
330
747D
100
AcDbEntity
  8
部品1
100
AcDbCircle
 10
5626.544829595994
 20
4033.438608470707
 30
0.0
 40
47.0
  0
ARC
  5
13ADE
330
747D
100
AcDbEntity
  8
部品1
100
AcDbCircle
 10
7993.642849126176
 20
3988.658069123209
 30
0.0
 40
2.0
100
AcDbArc
 50
175.9999999999125
 51
266.0000000005389
  0
ARC
  5
13ADF
330
747D
100
AcDbEntity
  8
部品1
100
AcDbCircle
 10
8151.903100260069
 20
4022.701319717671
 30
0.0
 40
162.4999999999999
100
AcDbArc
 50
161.7499673021692
 51
190.2500326976557
  0
LINE
  5
13AE0
330
747D
100
AcDbEntity
  8
部品1
100
AcDbLine
 10
8006.471668832077
 20
3985.756106864021
 30
0.0
 11
7993.503336178706
 21
3986.662941022697
 31
0.0
  0
LINE
  5
13AE1
330
747D
100
AcDbEntity
  8
部品1
100
AcDbLine
 10
7991.647721025656
 20
3988.7975820707
 30
0.0
 11
7997.845583717849
 21
4077.431147936302
 31
0.0
  0
LINE
  5
13AE2
330
747D
100
AcDbEntity
  8
部品1
100
AcDbLine
 10
8012.809044471739
 20
4076.384800830143
 30
0.0
 11
8006.471668832077
 21
3985.756106864021
 31
0.0
  0
DIMENSION
  5
13AE3
330
747D
100
AcDbEntity
  8
寸法
 48
50.0
100
AcDbDimension
  2
*D56
 10
5626.544829595994
 20
4438.080793455482
 30
0.0
 11
5741.544829595987
 21
4513.089651723199
 31
0.0
 70
    32
 71
     5
 42
229.9999999999855
  3
INABA_S30G
100
AcDbAlignedDimension
 13
5856.544829595979
 23
4169.350524693575
 33
0.0
 14
5626.544829595994
 24
4080.438608470707
 34
0.0
100
AcDbRotatedDimension
1001
ACAD
1000
DSTYLE
1002
{
1070
   341
1005
0
1002
}
  0
DIMENSION
  5
13AE4
330
747D
100
AcDbEntity
  8
寸法
 48
50.0
100
AcDbDimension
  2
*D57
 10
5626.544829595994
 20
4438.080793455482
 30
0.0
 11
4426.544829595994
 21
4513.089651723199
 31
0.0
 70
    32
 71
     5
 42
2400.0
  3
INABA_S30G
100
AcDbAlignedDimension
 13
3226.544829595994
 23
4080.438608470707
 33
0.0
 14
5626.544829595994
 24
4080.438608470707
 34
0.0
100
AcDbRotatedDimension
1001
ACAD
1000
DSTYLE
1002
{
1070
   341
1005
0
1002
}
  0
LINE
  5
13AE5
330
747D
100
AcDbEntity
  8
部品1
 48
50.0
100
AcDbLine
 10
5581.994829595977
 20
4017.779541837342
 30
0.0
 11
5581.994829595977
 21
1917.640018622875
 31
0.0
  0
LINE
  5
13AE6
330
747D
100
AcDbEntity
  8
部品1
 48
50.0
100
AcDbLine
 10
5671.094829595983
 20
4017.779541837252
 30
0.0
 11
5671.094829595983
 21
1917.640018622875
 31
0.0
  0
LINE
  5
13AE7
330
747D
100
AcDbEntity
  8
部品1
 48
50.0
100
AcDbLine
 10
9327.598469574544
 20
3984.445767955626
 30
0.0
 11
9321.431990434547
 21
3896.261106392445
 31
0.0
  0
LINE
  5
13AE8
330
747D
100
AcDbEntity
  8
部品1
 48
50.0
100
AcDbLine
 10
8006.642572192751
 20
3988.200138787153
 30
0.0
 11
9565.837195069224
 21
3879.17062960994
 31
0.0
  0
LINE
  5
13AE9
330
747D
100
AcDbEntity
  8
部品1
 48
10.0
100
AcDbLine
 10
9707.141110052413
 20
1917.640018622875
 30
-0.0000000000000002
 11
9707.141186707479
 21
3727.640643942385
 31
-0.0000000000000002
  0
LINE
  5
13AEA
330
747D
100
AcDbEntity
  8
部品1
 48
10.0
100
AcDbLine
 10
9796.241450052404
 20
1917.640018622875
 30
-0.0000000000000002
 11
9796.241526707483
 21
3727.640616393805
 31
-0.0000000000000002
  0
ARC
  5
13AEB
330
747D
100
AcDbEntity
  8
部品1
 48
10.0
100
AcDbCircle
 10
9555.241526707483
 20
3727.640626600358
 30
0.000000000000005
 40
241.0
100
AcDbArc
 50
359.9999975735403
 51
81.63199321129205
  0
ARC
  5
13AEC
330
747D
100
AcDbEntity
  8
部品1
 48
10.0
100
AcDbCircle
 10
9555.241186707483
 20
3727.640650375473
 30
0.0000000000000052
 40
151.9
100
AcDbArc
 50
359.9999975735403
 51
85.99999999970311
  0
DIMENSION
  5
13AED
330
747D
100
AcDbEntity
  8
寸法
 48
50.0
100
AcDbDimension
  2
*D58
 10
9796.241474621858
 20
2813.497966801741
 30
0.0
 11
9464.733889749608
 21
2813.497966801741
 31
0.0
 70
   161
  1
φ<>
 71
     5
 42
89.1003400000045
  3
INABA_S30G
100
AcDbAlignedDimension
 13
9707.141134621853
 23
2730.307792229574
 33
-0.0000000000000002
 14
9796.241474621858
 24
2730.307788456099
 34
-0.0000000000000002
1001
ACAD
1000
DSTYLE
1002
{
1070
   341
1005
0
1002
}
  0
LINE
  5
13AEE
330
747D
100
AcDbEntity
  8
部品1
 48
50.0
100
AcDbLine
 10
9856.976844402526
 20
2161.640640405898
 30
0.0000000000000002
 11
9856.976836921241
 21
1984.990299738671
 31
0.0000000000000002
  0
LINE
  5
13AEF
330
747D
100
AcDbEntity
  8
部品1
 48
50.0
100
AcDbLine
 10
9814.976844402526
 20
2161.640642184637
 30
0.0000000000000002
 11
9814.976836921239
 21
1984.990301517406
 31
0.0000000000000002
  0
LINE
  5
13AF0
330
747D
100
AcDbEntity
  8
部品1
 48
50.0
100
AcDbLine
 10
9856.976886753372
 20
3161.640471109022
 30
0.0000000000000002
 11
9856.976844910736
 21
2173.640640405898
 31
0.0000000000000002
  0
LINE
  5
13AF1
330
747D
100
AcDbEntity
  8
部品1
 48
50.0
100
AcDbLine
 10
9814.976886753356
 20
3161.640472887754
 30
0.0000000000000002
 11
9814.976844910736
 21
2173.64064218463
 31
0.0000000000000002
  0
LINE
  5
13AF2
330
747D
100
AcDbEntity
  8
部品1
100
AcDbLine
 10
7959.938149808571
 20
4080.081893938539
 30
-0.0000000000000002
 11
7966.006963024309
 21
4166.869966311133
 31
-0.0000000000000002
  0
DIMENSION
  5
13AF3
330
747D
100
AcDbEntity
  8
寸法
 48
50.0
100
AcDbDimension
  2
*D59
 10
9908.980098270477
 20
4749.977580675178
 30
0.0
 11
8898.980098270476
 21
4824.986438942895
 31
0.0
 70
    32
 71
     5
 42
2020.0
  3
INABA_S30G
100
AcDbAlignedDimension
 13
7888.980098270477
 23
4124.328542830812
 33
0.0
 14
9908.980098270477
 24
3728.895434961825
 34
0.0
100
AcDbRotatedDimension
1001
ACAD
1000
DSTYLE
1002
{
1070
   341
1005
0
1002
}
  0
ARC
  5
13AF4
330
747D
100
AcDbEntity
  8
部品1
100
AcDbCircle
 10
5838.044829595994
 20
4081.214715091439
 30
-0.0000000000000007
 40
0.5
100
AcDbArc
 50
180.0
 51
270.9999999998715
  0
LINE
  5
13AF5
330
747D
100
AcDbEntity
  8
部品1
 48
50.0
100
AcDbLine
 10
9904.448474051504
 20
3635.104794172374
 30
0.0000000000000006
 11
9858.448474044767
 21
3635.104794172374
 31
0.0000000000000006
  0
LINE
  5
13AF6
330
747D
100
AcDbEntity
  8
部品1
 48
50.0
100
AcDbLine
 10
9904.448474136195
 20
3637.104794172374
 30
0.0000000000000006
 11
9858.44847413576
 21
3637.104794172374
 31
0.0000000000000006
  0
LINE
  5
13AF7
330
747D
100
AcDbEntity
  8
部品1
 48
5.0
100
AcDbLine
 10
5856.544829595979
 20
3639.104794172374
 30
0.0000000000000006
 11
5671.094829595983
 21
3639.104794172374
 31
0.0000000000000006
  0
LINE
  5
13AF8
330
747D
100
AcDbEntity
  8
部品1
 48
50.0
100
AcDbLine
 10
9814.576903461043
 20
3568.824847055101
 30
0.0000000000000006
 11
9814.576903461043
 21
3555.078229452902
 31
0.0000000000000006
  0
LINE
  5
13AF9
330
747D
100
AcDbEntity
  8
部品1
 48
50.0
100
AcDbLine
 10
9857.376903461059
 20
3557.109082676685
 30
0.0000000000000006
 11
9857.376903461045
 21
3555.078228573057
 31
0.0000000000000006
  0
LINE
  5
13AFA
330
747D
100
AcDbEntity
  8
部品1
 48
50.0
100
AcDbLine
 10
9903.948474048128
 20
3635.104794172374
 30
0.0000000000000006
 11
9903.948474048128
 21
3606.01088769763
 31
0.0000000000000006
  0
LINE
  5
13AFB
330
747D
100
AcDbEntity
  8
部品1
 48
50.0
100
AcDbLine
 10
9858.948474048128
 20
3635.104794172374
 30
0.0
 11
9858.948474048128
 21
3616.221763445433
 31
0.0
  0
LINE
  5
13AFC
330
747D
100
AcDbEntity
  8
部品1
 48
50.0
100
AcDbLine
 10
9858.948474048128
 20
3616.221763445433
 30
0.0
 11
9829.853929842705
 21
3595.826053083336
 31
0.0000000000000006
  0
ARC
  5
13AFD
330
747D
100
AcDbEntity
  8
部品1
 48
50.0
100
AcDbCircle
 10
9846.076903461042
 20
3568.824847055101
 30
0.0000000000000006
 40
31.5
100
AcDbArc
 50
120.9984599854969
 51
180.0
  0
ARC
  5
13AFE
330
747D
100
AcDbEntity
  8
部品1
 48
50.0
100
AcDbCircle
 10
9872.448474048127
 20
3606.01088769763
 30
0.0
 40
31.5
100
AcDbArc
 50
300.858055863857
 51
0.0
  0
LINE
  5
13AFF
330
747D
100
AcDbEntity
  8
部品1
 48
50.0
100
AcDbLine
 10
9888.605232184156
 20
3578.970008153247
 30
0.0
 11
9857.376903461059
 21
3557.109082676685
 31
0.0000000000000006
  0
ARC
  5
13B00
330
747D
100
AcDbEntity
  8
部品1
 48
50.0
100
AcDbCircle
 10
9881.869762328527
 20
3600.526345337399
 30
0.0
 40
28.02358659648385
100
AcDbArc
 50
146.8869470502618
 51
265.1676855823611
  0
ARC
  5
13B01
330
747D
100
AcDbEntity
  8
部品1
 48
50.0
100
AcDbCircle
 10
9864.624136353755
 20
3588.4695954667
 30
0.0
 40
27.98109501622854
100
AcDbArc
 50
146.7410228599011
 51
265.3136097725274
  0
LINE
  5
13B02
330
747D
100
AcDbEntity
  8
部品1
100
AcDbLine
 10
5826.54482959598
 20
4081.037557628842
 30
-0.0000000000000007
 11
5826.54482959598
 21
3639.104794172374
 31
0.0
  0
LINE
  5
13B03
330
747D
100
AcDbEntity
  8
部品1
 48
50.0
100
AcDbLine
 10
5826.54482959598
 20
4067.986851489331
 30
0.0
 11
5658.410467896931
 21
4067.986851489331
 31
0.0
  0
LINE
  5
13B04
330
747D
100
AcDbEntity
  8
部品1
 48
50.0
100
AcDbLine
 10
5826.54482959598
 20
4020.343179922092
 30
0.0
 11
5671.87604670666
 21
4020.343179922092
 31
0.0
  0
LINE
  5
13B05
330
747D
100
AcDbEntity
  8
部品1
 48
50.0
100
AcDbLine
 10
5826.54482959598
 20
3972.699508354796
 30
0.0
 11
5671.094829595983
 21
3972.699508354796
 31
0.0
  0
ARC
  5
13B06
330
747D
100
AcDbEntity
  8
部品1
100
AcDbCircle
 10
5626.544829595994
 20
4032.75610686402
 30
0.0
 40
47.0
100
AcDbArc
 50
179.1679609357163
 51
0.8320390642836994
  0
LINE
  5
13B07
330
747D
100
AcDbEntity
  8
部品1
 48
50.0
100
AcDbLine
 10
5837.577266516368
 20
4081.037557628799
 30
-0.0000000000000007
 11
3015.512392675621
 21
4081.037557628799
 31
-0.0000000000000007
  0
LINE
  5
13B08
330
747D
100
AcDbEntity
  8
部品1
 48
50.0
100
AcDbLine
 10
5594.679191295057
 20
4067.986851489331
 30
0.0
 11
3258.410467896931
 21
4067.986851489331
 31
0.0
  0
LINE
  5
13B09
330
747D
100
AcDbEntity
  8
部品1
 48
50.0
100
AcDbLine
 10
5581.213612485328
 20
4020.343179922092
 30
0.0
 11
3271.87604670666
 21
4020.343179922092
 31
0.0
  0
LINE
  5
13B0A
330
747D
100
AcDbEntity
  8
部品1
 48
50.0
100
AcDbLine
 10
5581.994829595977
 20
3972.699508354796
 30
0.0
 11
3271.094829595983
 21
3972.699508354796
 31
0.0
  0
ARC
  5
13B0B
330
747D
100
AcDbEntity
  8
部品1
100
AcDbCircle
 10
3226.544829595994
 20
4032.75610686402
 30
0.0
 40
47.0
100
AcDbArc
 50
179.1679609357163
 51
0.8320390642836994
  0
LINE
  5
13B0C
330
747D
100
AcDbEntity
  8
部品1
 48
50.0
100
AcDbLine
 10
3026.544829596009
 20
3972.699508354796
 30
0.0
 11
3181.994829596006
 21
3972.699508354796
 31
0.0
  0
LINE
  5
13B0D
330
747D
100
AcDbEntity
  8
部品1
 48
50.0
100
AcDbLine
 10
3026.544829596009
 20
4020.343179922092
 30
0.0
 11
3181.213612485328
 21
4020.343179922092
 31
0.0
  0
LINE
  5
13B0E
330
747D
100
AcDbEntity
  8
部品1
 48
50.0
100
AcDbLine
 10
3026.544829596009
 20
4067.986851489331
 30
0.0
 11
3194.679191295058
 21
4067.986851489331
 31
0.0
  0
LINE
  5
13B0F
330
747D
100
AcDbEntity
  8
部品1
100
AcDbLine
 10
3026.544829596009
 20
4081.037557628842
 30
-0.0000000000000007
 11
3026.544829596009
 21
3639.104794172374
 31
0.0
  0
ARC
  5
13B10
330
747D
100
AcDbEntity
  8
部品1
100
AcDbCircle
 10
3015.044829595994
 20
4081.214715091439
 30
-0.0000000000000007
 40
0.5
100
AcDbArc
 50
269.0000000001286
 51
0.0
  0
LINE
  5
13B11
330
747D
100
AcDbEntity
  8
部品1
 48
50.0
100
AcDbLine
 10
3181.994829596006
 20
4017.779541837252
 30
0.0
 11
3181.994829596006
 21
1917.640018622878
 31
0.0
  0
LINE
  5
13B12
330
747D
100
AcDbEntity
  8
部品1
 48
50.0
100
AcDbLine
 10
3271.094829596012
 20
4017.779541837342
 30
0.0
 11
3271.094829596012
 21
1917.640018622878
 31
0.0
  0
DIMENSION
  5
13B13
330
747D
100
AcDbEntity
  8
寸法
 48
50.0
100
AcDbDimension
  2
*D60
 10
3226.544829595994
 20
4438.080793455482
 30
0.0
 11
3111.544829596001
 21
4513.089651723199
 31
0.0
 70
    32
 71
     5
 42
229.9999999999855
  3
INABA_S30G
100
AcDbAlignedDimension
 13
2996.544829596009
 23
4169.350524693575
 33
0.0
 14
3226.544829595994
 24
4080.438608470707
 34
0.0
 50
180.0
100
AcDbRotatedDimension
1001
ACAD
1000
DSTYLE
1002
{
1070
   341
1005
0
1002
}
  0
CIRCLE
  5
13B14
330
747D
100
AcDbEntity
  8
部品1
100
AcDbCircle
 10
3226.544829595994
 20
4033.438608470707
 30
0.0
 40
47.0
  0
CIRCLE
  5
13B15
330
747D
100
AcDbEntity
  8
細線
100
AcDbCircle
 10
3226.544829595994
 20
4033.438608470707
 30
0.0
 40
39.99999999999997
  0
ELLIPSE
  5
13B16
330
747D
100
AcDbEntity
  8
細線
 48
0.6200000000000001
100
AcDbEllipse
 10
2906.253245437532
 20
4125.194041161085
 30
-0.0000000000000003
 11
-0.0000000001439634
 21
100.3017881819579
 31
0.0
210
0.0
220
0.0
230
1.0
 40
0.9973182569291269
 41
4.267410064876434
 42
5.157367895890066
  0
LINE
  5
13B17
330
747D
100
AcDbEntity
  8
部品1
100
AcDbLine
 10
2996.544829596009
 20
4168.367827430458
 30
0.0
 11
2996.544829596009
 21
3639.104794172374
 31
0.0
  0
LINE
  5
13B18
330
747D
100
AcDbEntity
  8
部品1
100
AcDbLine
 10
3015.544829596009
 20
4169.173367230723
 30
0.0
 11
3015.544829596009
 21
4081.214715091446
 31
-0.0000000000000007
  0
LINE
  5
13B19
330
747D
100
AcDbEntity
  8
部品1
100
AcDbLine
 10
3015.036103392791
 20
4169.673291078303
 30
0.0
 11
2997.527377189573
 21
4169.367675125613
 31
0.0
  0
ARC
  5
13B1A
330
747D
100
AcDbEntity
  8
部品1
100
AcDbCircle
 10
3015.044829596009
 20
4169.173367230723
 30
0.0
 40
0.5
100
AcDbArc
 50
0.0
 51
90.99999999987145
  0
ARC
  5
13B1B
330
747D
100
AcDbEntity
  8
部品1
100
AcDbCircle
 10
2997.544829596009
 20
4168.367827430458
 30
0.0
 40
1.0
100
AcDbArc
 50
90.99999999987145
 51
180.0
  0
ARC
  5
13B1C
330
747D
100
AcDbEntity
  8
部品1
100
AcDbCircle
 10
2997.544829596009
 20
4082.020254891708
 30
-0.0000000000000007
 40
1.0
100
AcDbArc
 50
180.0
 51
269.0000000001286
  0
LINE
  5
13B1D
330
747D
100
AcDbEntity
  8
部品1
100
AcDbLine
 10
3015.036103392791
 20
4080.714791243862
 30
-0.0000000000000007
 11
2997.527377189573
 21
4081.020407196549
 31
-0.0000000000000007
  0
LINE
  5
13B1E
330
747D
100
AcDbEntity
  8
部品1
 48
50.0
100
AcDbLine
 10
3194.679191295058
 20
4067.986851489331
 30
0.0
 11
3026.544829596009
 21
4067.986851489331
 31
0.0
  0
LINE
  5
13B1F
330
747D
100
AcDbEntity
  8
部品1
 48
50.0
100
AcDbLine
 10
3181.213612485328
 20
4020.343179922092
 30
0.0
 11
3026.544829596009
 21
4020.343179922092
 31
0.0
  0
LINE
  5
13B20
330
747D
100
AcDbEntity
  8
部品1
 48
50.0
100
AcDbLine
 10
3181.994829596006
 20
3972.699508354796
 30
0.0
 11
3026.544829596009
 21
3972.699508354796
 31
0.0
  0
LINE
  5
13B21
330
747D
100
AcDbEntity
  8
部品1
 48
5.0
100
AcDbLine
 10
5581.994829595977
 20
3639.104794172374
 30
0.0000000000000006
 11
3271.094829595983
 21
3639.10479417237
 31
0.0000000000000006
  0
LINE
  5
13B22
330
747D
100
AcDbEntity
  8
部品1
 48
5.0
100
AcDbLine
 10
3181.994829596006
 20
3639.104794172367
 30
0.0000000000000006
 11
2996.544829596009
 21
3639.104794172367
 31
0.0000000000000006
  0
DIMENSION
  5
13B23
330
747D
100
AcDbEntity
  8
寸法
 48
50.0
100
AcDbDimension
  2
*D61
 10
2996.544829596009
 20
4749.977580675178
 30
0.0
 11
4426.544829595994
 21
4824.986438942895
 31
0.0
 70
    32
 71
     5
 42
2859.999999999971
  3
INABA_S30G
100
AcDbAlignedDimension
 13
5856.544829595979
 23
4169.350524693575
 33
0.0
 14
2996.544829596009
 24
4169.350524693575
 34
0.0
100
AcDbRotatedDimension
1001
ACAD
1000
DSTYLE
1002
{
1070
   341
1005
0
1002
}
  0
LINE
  5
13B24
330
747D
100
AcDbEntity
  8
細線
 48
50.0
100
AcDbLine
 10
5695.764752204574
 20
3972.699508354796
 30
0.0
 11
5695.764752204574
 21
3704.104794172352
 31
0.0000000000000006
  0
LINE
  5
13B25
330
747D
100
AcDbEntity
  8
細線
 48
50.0
100
AcDbLine
 10
5677.324906987415
 20
3972.699508354796
 30
0.0
 11
5677.324906987415
 21
3704.104794172352
 31
0.0000000000000006
  0
LINE
  5
13B26
330
747D
100
AcDbEntity
  8
細線
 48
50.0
100
AcDbLine
 10
5557.324906987414
 20
3972.699508354796
 30
0.0
 11
5557.324906987414
 21
3704.104794172352
 31
0.0000000000000006
  0
LINE
  5
13B27
330
747D
100
AcDbEntity
  8
細線
 48
50.0
100
AcDbLine
 10
5575.764752204573
 20
3972.699508354796
 30
0.0
 11
5575.764752204573
 21
3704.104794172352
 31
0.0000000000000006
  0
LINE
  5
13B28
330
747D
100
AcDbEntity
  8
細線
 48
50.0
100
AcDbLine
 10
5435.764752204574
 20
3972.699508354796
 30
0.0
 11
5435.764752204574
 21
3704.104794172352
 31
0.0000000000000006
  0
LINE
  5
13B29
330
747D
100
AcDbEntity
  8
細線
 48
50.0
100
AcDbLine
 10
5417.324906987414
 20
3972.699508354796
 30
0.0
 11
5417.324906987414
 21
3704.104794172352
 31
0.0000000000000006
  0
LINE
  5
13B2A
330
747D
100
AcDbEntity
  8
細線
 48
50.0
100
AcDbLine
 10
5277.324906987415
 20
3972.699508354796
 30
0.0
 11
5277.324906987415
 21
3704.104794172352
 31
0.0000000000000006
  0
LINE
  5
13B2B
330
747D
100
AcDbEntity
  8
細線
 48
50.0
100
AcDbLine
 10
5295.764752204574
 20
3972.699508354796
 30
0.0
 11
5295.764752204574
 21
3704.104794172352
 31
0.0000000000000006
  0
LINE
  5
13B2C
330
747D
100
AcDbEntity
  8
細線
 48
50.0
100
AcDbLine
 10
5175.764752204574
 20
3972.699508354796
 30
0.0
 11
5175.764752204574
 21
3704.104794172352
 31
0.0000000000000006
  0
LINE
  5
13B2D
330
747D
100
AcDbEntity
  8
細線
 48
50.0
100
AcDbLine
 10
5157.324906987414
 20
3972.699508354796
 30
0.0
 11
5157.324906987414
 21
3704.104794172352
 31
0.0000000000000006
  0
LINE
  5
13B2E
330
747D
100
AcDbEntity
  8
細線
 48
50.0
100
AcDbLine
 10
5817.324906987415
 20
3972.699508354796
 30
0.0
 11
5817.324906987415
 21
3704.104794172352
 31
0.0000000000000006
  0
LINE
  5
13B2F
330
747D
100
AcDbEntity
  8
細線
 48
50.0
100
AcDbLine
 10
4757.324906987407
 20
3972.699508354796
 30
0.0
 11
4757.324906987407
 21
3704.104794172352
 31
0.0000000000000006
  0
LINE
  5
13B30
330
747D
100
AcDbEntity
  8
細線
 48
50.0
100
AcDbLine
 10
4775.764752204573
 20
3972.699508354796
 30
0.0
 11
4775.764752204573
 21
3704.104794172352
 31
0.0000000000000006
  0
LINE
  5
13B31
330
747D
100
AcDbEntity
  8
細線
 48
50.0
100
AcDbLine
 10
4895.764752204573
 20
3972.699508354796
 30
0.0
 11
4895.764752204573
 21
3704.104794172352
 31
0.0000000000000006
  0
LINE
  5
13B32
330
747D
100
AcDbEntity
  8
細線
 48
50.0
100
AcDbLine
 10
4877.324906987407
 20
3972.699508354796
 30
0.0
 11
4877.324906987407
 21
3704.104794172352
 31
0.0000000000000006
  0
LINE
  5
13B33
330
747D
100
AcDbEntity
  8
細線
 48
50.0
100
AcDbLine
 10
5017.324906987408
 20
3972.699508354796
 30
0.0
 11
5017.324906987408
 21
3704.104794172352
 31
0.0000000000000006
  0
LINE
  5
13B34
330
747D
100
AcDbEntity
  8
細線
 48
50.0
100
AcDbLine
 10
5035.764752204574
 20
3972.699508354796
 30
0.0
 11
5035.764752204574
 21
3704.104794172352
 31
0.0000000000000006
  0
LINE
  5
13B35
330
747D
100
AcDbEntity
  8
細線
 48
50.0
100
AcDbLine
 10
4635.764752204574
 20
3972.699508354796
 30
0.0
 11
4635.764752204574
 21
3704.104794172352
 31
0.0000000000000006
  0
LINE
  5
13B36
330
747D
100
AcDbEntity
  8
細線
 48
50.0
100
AcDbLine
 10
4617.324906987407
 20
3972.699508354796
 30
0.0
 11
4617.324906987407
 21
3704.104794172352
 31
0.0000000000000006
  0
LINE
  5
13B37
330
747D
100
AcDbEntity
  8
細線
 48
50.0
100
AcDbLine
 10
4477.324906987408
 20
3972.699508354796
 30
0.0
 11
4477.324906987408
 21
3704.104794172352
 31
0.0000000000000006
  0
LINE
  5
13B38
330
747D
100
AcDbEntity
  8
細線
 48
50.0
100
AcDbLine
 10
4495.764752204574
 20
3972.699508354796
 30
0.0
 11
4495.764752204574
 21
3704.104794172352
 31
0.0000000000000006
  0
LINE
  5
13B39
330
747D
100
AcDbEntity
  8
細線
 48
50.0
100
AcDbLine
 10
4375.764752204573
 20
3972.699508354796
 30
0.0
 11
4375.764752204573
 21
3704.104794172352
 31
0.0000000000000006
  0
LINE
  5
13B3A
330
747D
100
AcDbEntity
  8
細線
 48
50.0
100
AcDbLine
 10
4357.324906987407
 20
3972.699508354796
 30
0.0
 11
4357.324906987407
 21
3704.104794172352
 31
0.0000000000000006
  0
LINE
  5
13B3B
330
747D
100
AcDbEntity
  8
細線
 48
50.0
100
AcDbLine
 10
3957.324906987415
 20
3972.699508354796
 30
0.0
 11
3957.324906987415
 21
3704.104794172352
 31
0.0000000000000006
  0
LINE
  5
13B3C
330
747D
100
AcDbEntity
  8
細線
 48
50.0
100
AcDbLine
 10
3975.764752204574
 20
3972.699508354796
 30
0.0
 11
3975.764752204574
 21
3704.104794172352
 31
0.0000000000000006
  0
LINE
  5
13B3D
330
747D
100
AcDbEntity
  8
細線
 48
50.0
100
AcDbLine
 10
4095.764752204574
 20
3972.699508354796
 30
0.0
 11
4095.764752204574
 21
3704.104794172352
 31
0.0000000000000006
  0
LINE
  5
13B3E
330
747D
100
AcDbEntity
  8
細線
 48
50.0
100
AcDbLine
 10
4077.324906987414
 20
3972.699508354796
 30
0.0
 11
4077.324906987414
 21
3704.104794172352
 31
0.0000000000000006
  0
LINE
  5
13B3F
330
747D
100
AcDbEntity
  8
細線
 48
50.0
100
AcDbLine
 10
4217.324906987407
 20
3972.699508354796
 30
0.0
 11
4217.324906987407
 21
3704.104794172352
 31
0.0000000000000006
  0
LINE
  5
13B40
330
747D
100
AcDbEntity
  8
細線
 48
50.0
100
AcDbLine
 10
4235.764752204573
 20
3972.699508354796
 30
0.0
 11
4235.764752204573
 21
3704.104794172352
 31
0.0000000000000006
  0
LINE
  5
13B41
330
747D
100
AcDbEntity
  8
細線
 48
50.0
100
AcDbLine
 10
3677.324906987415
 20
3972.699508354796
 30
0.0
 11
3677.324906987415
 21
3704.104794172352
 31
0.0000000000000006
  0
LINE
  5
13B42
330
747D
100
AcDbEntity
  8
細線
 48
50.0
100
AcDbLine
 10
3695.764752204574
 20
3972.699508354796
 30
0.0
 11
3695.764752204574
 21
3704.104794172352
 31
0.0000000000000006
  0
LINE
  5
13B43
330
747D
100
AcDbEntity
  8
細線
 48
50.0
100
AcDbLine
 10
3575.764752204574
 20
3972.699508354796
 30
0.0
 11
3575.764752204574
 21
3704.104794172352
 31
0.0000000000000006
  0
LINE
  5
13B44
330
747D
100
AcDbEntity
  8
細線
 48
50.0
100
AcDbLine
 10
3557.324906987414
 20
3972.699508354796
 30
0.0
 11
3557.324906987414
 21
3704.104794172352
 31
0.0000000000000006
  0
LINE
  5
13B45
330
747D
100
AcDbEntity
  8
細線
 48
50.0
100
AcDbLine
 10
3817.324906987415
 20
3972.699508354796
 30
0.0
 11
3817.324906987415
 21
3704.104794172352
 31
0.0000000000000006
  0
LINE
  5
13B46
330
747D
100
AcDbEntity
  8
細線
 48
50.0
100
AcDbLine
 10
3835.764752204574
 20
3972.699508354796
 30
0.0
 11
3835.764752204574
 21
3704.104794172352
 31
0.0000000000000006
  0
LINE
  5
13B47
330
747D
100
AcDbEntity
  8
細線
 48
50.0
100
AcDbLine
 10
3435.764752204574
 20
3972.699508354796
 30
0.0
 11
3435.764752204574
 21
3704.104794172352
 31
0.0000000000000006
  0
LINE
  5
13B48
330
747D
100
AcDbEntity
  8
細線
 48
50.0
100
AcDbLine
 10
3417.324906987415
 20
3972.699508354796
 30
0.0
 11
3417.324906987415
 21
3704.104794172352
 31
0.0000000000000006
  0
LINE
  5
13B49
330
747D
100
AcDbEntity
  8
細線
 48
50.0
100
AcDbLine
 10
3157.324906987415
 20
3972.699508354796
 30
0.0
 11
3157.324906987415
 21
3704.104794172352
 31
0.0000000000000006
  0
LINE
  5
13B4A
330
747D
100
AcDbEntity
  8
細線
 48
50.0
100
AcDbLine
 10
3175.764752204574
 20
3972.699508354796
 30
0.0
 11
3175.764752204574
 21
3704.104794172352
 31
0.0000000000000006
  0
LINE
  5
13B4B
330
747D
100
AcDbEntity
  8
細線
 48
50.0
100
AcDbLine
 10
3035.764752204574
 20
3972.699508354796
 30
0.0
 11
3035.764752204574
 21
3704.104794172352
 31
0.0000000000000006
  0
LINE
  5
13B4C
330
747D
100
AcDbEntity
  8
部品1
 48
5.0
100
AcDbLine
 10
3181.994829596006
 20
3689.104794172352
 30
0.0000000000000006
 11
3026.544829596009
 21
3689.104794172352
 31
0.0000000000000006
  0
LINE
  5
13B4D
330
747D
100
AcDbEntity
  8
部品1
 48
5.0
100
AcDbLine
 10
5581.994829595977
 20
3689.104794172359
 30
0.0000000000000006
 11
3271.094829595983
 21
3689.104794172356
 31
0.0000000000000006
  0
LINE
  5
13B4E
330
747D
100
AcDbEntity
  8
部品1
 48
5.0
100
AcDbLine
 10
5826.54482959598
 20
3689.104794172359
 30
0.0000000000000006
 11
5671.094829595983
 21
3689.104794172359
 31
0.0000000000000006
  0
LINE
  5
13B4F
330
747D
100
AcDbEntity
  8
部品1
 48
5.0
100
AcDbLine
 10
5826.54482959598
 20
3704.104794172359
 30
0.0000000000000006
 11
5671.094829595983
 21
3704.104794172359
 31
0.0000000000000006
  0
LINE
  5
13B50
330
747D
100
AcDbEntity
  8
部品1
 48
5.0
100
AcDbLine
 10
5581.994829595977
 20
3704.104794172359
 30
0.0000000000000006
 11
3271.094829595983
 21
3704.104794172355
 31
0.0000000000000006
  0
LINE
  5
13B51
330
747D
100
AcDbEntity
  8
部品1
 48
5.0
100
AcDbLine
 10
3181.994829596006
 20
3704.104794172352
 30
0.0000000000000006
 11
3026.544829596009
 21
3704.104794172352
 31
0.0000000000000006
  0
LINE
  5
13B52
330
747D
100
AcDbEntity
  8
部品1
 48
50.0
100
AcDbLine
 10
7902.113201040832
 20
1917.640018622875
 30
0.0
 11
7888.980098270477
 21
1904.506915852511
 31
0.0
  0
LINE
  5
13B53
330
747D
100
AcDbEntity
  8
部品1
 48
50.0
100
AcDbLine
 10
7888.980098270477
 20
1904.506915852511
 30
0.0
 11
7888.980098270477
 21
1867.640018622875
 31
0.0
  0
LINE
  5
13B54
330
747D
100
AcDbEntity
  8
細線
 48
50.0
100
AcDbLine
 10
8043.176160410512
 20
1867.640018622878
 30
0.0
 11
8093.176160410513
 21
1917.640018622875
 31
0.0
  0
LINE
  5
13B55
330
747D
100
AcDbEntity
  8
細線
 48
50.0
100
AcDbLine
 10
7989.294600410518
 20
1867.640018622878
 30
0.0
 11
8039.294600410519
 21
1917.640018622875
 31
0.0
  0
LINE
  5
13B56
330
747D
100
AcDbEntity
  8
細線
 48
50.0
100
AcDbLine
 10
8016.235380410522
 20
1867.640018622878
 30
0.0
 11
8066.235380410523
 21
1917.640018622875
 31
0.0
  0
LINE
  5
13B57
330
747D
100
AcDbEntity
  8
部品1
 48
50.0
100
AcDbLine
 10
7902.113201040832
 20
1917.640018622875
 30
0.0
 11
9898.980098270477
 21
1917.640018622875
 31
0.0
  0
LINE
  5
13B58
330
747D
100
AcDbEntity
  8
細線
 48
50.0
100
AcDbLine
 10
8843.176160410513
 20
1867.640018622878
 30
0.0
 11
8893.176160410511
 21
1917.640018622875
 31
0.0
  0
LINE
  5
13B59
330
747D
100
AcDbEntity
  8
細線
 48
50.0
100
AcDbLine
 10
8789.294600410519
 20
1867.640018622878
 30
0.0
 11
8839.294600410518
 21
1917.640018622875
 31
0.0
  0
LINE
  5
13B5A
330
747D
100
AcDbEntity
  8
細線
 48
50.0
100
AcDbLine
 10
8816.235380410523
 20
1867.640018622878
 30
0.0
 11
8866.235380410522
 21
1917.640018622875
 31
0.0
  0
LINE
  5
13B5B
330
747D
100
AcDbEntity
  8
部品1
 48
50.0
100
AcDbLine
 10
9908.980098270477
 20
1907.640018622875
 30
0.0
 11
9908.980098270477
 21
1867.640018622875
 31
0.0
  0
LINE
  5
13B5C
330
747D
100
AcDbEntity
  8
部品1
 48
50.0
100
AcDbLine
 10
9898.980098270477
 20
1917.640018622875
 30
0.0
 11
9908.980098270477
 21
1907.640018622875
 31
0.0
  0
LINE
  5
13B5D
330
747D
100
AcDbEntity
  8
細線
 48
50.0
100
AcDbLine
 10
9616.235380410522
 20
1867.640018622878
 30
0.0
 11
9666.235380410522
 21
1917.640018622875
 31
0.0
  0
LINE
  5
13B5E
330
747D
100
AcDbEntity
  8
細線
 48
50.0
100
AcDbLine
 10
9589.294600410518
 20
1867.640018622878
 30
0.0
 11
9639.294600410519
 21
1917.640018622875
 31
0.0
  0
LINE
  5
13B5F
330
747D
100
AcDbEntity
  8
細線
 48
50.0
100
AcDbLine
 10
9643.176160410511
 20
1867.640018622878
 30
0.0
 11
9693.176160410512
 21
1917.640018622875
 31
0.0
  0
LINE
  5
13B60
330
747D
100
AcDbEntity
  8
点線
 48
10.0
100
AcDbLine
 10
9707.141110052413
 20
1917.640018622875
 30
0.0
 11
9707.141110052399
 21
1867.640018622875
 31
0.0
  0
LINE
  5
13B61
330
747D
100
AcDbEntity
  8
点線
 48
10.0
100
AcDbLine
 10
9796.241450052404
 20
1917.640014849399
 30
-0.0000000000000002
 11
9796.241450052404
 21
1867.640014849399
 31
-0.0000000000000002
  0
LINE
  5
13B62
330
747D
100
AcDbEntity
  8
部品1
 48
50.0
100
AcDbLine
 10
5856.544829595964
 20
1907.640018622875
 30
0.0
 11
5856.544829595979
 21
1867.640018622878
 31
0.0
  0
LINE
  5
13B63
330
747D
100
AcDbEntity
  8
部品1
 48
50.0
100
AcDbLine
 10
5846.544829595965
 20
1917.640018622875
 30
0.0
 11
5856.544829595964
 21
1907.640018622875
 31
0.0
  0
LINE
  5
13B64
330
747D
100
AcDbEntity
  8
細線
 48
50.0
100
AcDbLine
 10
3013.437159328671
 20
1867.640018622878
 30
0.0
 11
3063.437159328664
 21
1917.640018622878
 31
0.0
  0
LINE
  5
13B65
330
747D
100
AcDbEntity
  8
細線
 48
50.0
100
AcDbLine
 10
3040.377939328668
 20
1867.640018622878
 30
0.0
 11
3090.377939328668
 21
1917.640018622878
 31
0.0
  0
LINE
  5
13B66
330
747D
100
AcDbEntity
  8
細線
 48
50.0
100
AcDbLine
 10
3067.318719328672
 20
1867.640018622878
 30
0.0
 11
3117.318719328672
 21
1917.640018622878
 31
0.0
  0
LINE
  5
13B67
330
747D
100
AcDbEntity
  8
部品1
 48
50.0
100
AcDbLine
 10
2996.544829596009
 20
1907.640018622878
 30
0.0
 11
2996.544829596009
 21
1867.640018622878
 31
0.0
  0
LINE
  5
13B68
330
747D
100
AcDbEntity
  8
部品1
 48
50.0
100
AcDbLine
 10
3006.544829596009
 20
1917.640018622878
 30
0.0
 11
2996.544829596009
 21
1907.640018622878
 31
0.0
  0
LINE
  5
13B69
330
747D
100
AcDbEntity
  8
部品1
 48
50.0
100
AcDbLine
 10
5846.544829595965
 20
1917.640018622875
 30
0.0
 11
3006.544829596001
 21
1917.640018622878
 31
0.0
  0
LINE
  5
13B6A
330
747D
100
AcDbEntity
  8
細線
 48
50.0
100
AcDbLine
 10
4667.318719328672
 20
1867.640018622878
 30
0.0
 11
4717.318719328672
 21
1917.640018622878
 31
0.0
  0
LINE
  5
13B6B
330
747D
100
AcDbEntity
  8
細線
 48
50.0
100
AcDbLine
 10
4640.377939328668
 20
1867.640018622878
 30
0.0
 11
4690.377939328667
 21
1917.640018622878
 31
0.0
  0
LINE
  5
13B6C
330
747D
100
AcDbEntity
  8
細線
 48
50.0
100
AcDbLine
 10
4613.437159328671
 20
1867.640018622878
 30
0.0
 11
4663.437159328671
 21
1917.640018622878
 31
0.0
  0
LINE
  5
13B6D
330
747D
100
AcDbEntity
  8
細線
 48
50.0
100
AcDbLine
 10
3813.437159328671
 20
1867.640018622878
 30
0.0
 11
3863.437159328663
 21
1917.640018622878
 31
0.0
  0
LINE
  5
13B6E
330
747D
100
AcDbEntity
  8
細線
 48
50.0
100
AcDbLine
 10
3840.377939328668
 20
1867.640018622878
 30
0.0
 11
3890.377939328668
 21
1917.640018622878
 31
0.0
  0
LINE
  5
13B6F
330
747D
100
AcDbEntity
  8
細線
 48
50.0
100
AcDbLine
 10
3867.318719328672
 20
1867.640018622878
 30
0.0
 11
3917.318719328672
 21
1917.640018622878
 31
0.0
  0
LINE
  5
13B70
330
747D
100
AcDbEntity
  8
細線
 48
50.0
100
AcDbLine
 10
5413.437159328663
 20
1867.640018622878
 30
0.0
 11
5463.437159328663
 21
1917.640018622878
 31
0.0
  0
LINE
  5
13B71
330
747D
100
AcDbEntity
  8
細線
 48
50.0
100
AcDbLine
 10
5440.377939328667
 20
1867.640018622878
 30
0.0
 11
5490.377939328667
 21
1917.640018622878
 31
0.0
  0
LINE
  5
13B72
330
747D
100
AcDbEntity
  8
細線
 48
50.0
100
AcDbLine
 10
5467.318719328672
 20
1867.640018622878
 30
0.0
 11
5517.318719328672
 21
1917.640018622878
 31
0.0
  0
LINE
  5
13B73
330
747D
100
AcDbEntity
  8
点線
 48
10.0
100
AcDbLine
 10
5671.094829595983
 20
1917.640014849399
 30
-0.0000000000000002
 11
5671.094829595968
 21
1867.640014849399
 31
-0.0000000000000002
  0
LINE
  5
13B74
330
747D
100
AcDbEntity
  8
点線
 48
10.0
100
AcDbLine
 10
5581.994489595977
 20
1917.640018622875
 30
0.0
 11
5581.994489595977
 21
1867.640018622875
 31
0.0
  0
LINE
  5
13B75
330
747D
100
AcDbEntity
  8
点線
 48
10.0
100
AcDbLine
 10
3271.094829596012
 20
1917.640014849399
 30
0.0
 11
3271.094829596004
 21
1867.640014849399
 31
0.0
  0
LINE
  5
13B76
330
747D
100
AcDbEntity
  8
点線
 48
10.0
100
AcDbLine
 10
3181.994489596015
 20
1917.640018622878
 30
0.0000000000000002
 11
3181.994489596015
 21
1867.640018622878
 31
0.0000000000000002
  0
LINE
  5
13B77
330
747D
100
AcDbEntity
  8
部品1
 48
50.0
100
AcDbLine
 10
5856.544829595979
 20
5940.182388248096
 30
0.0
 11
5856.544829595979
 21
7923.716718365297
 31
0.0
  0
LINE
  5
13B78
330
747D
100
AcDbEntity
  8
部品1
 48
50.0
100
AcDbLine
 10
5856.544829595979
 20
7923.716718365297
 30
0.0
 11
5815.544829595979
 21
7923.716718365297
 31
0.0
  0
LINE
  5
13B79
330
747D
100
AcDbEntity
  8
部品1
 48
50.0
100
AcDbLine
 10
2996.544829596009
 20
7923.716718365297
 30
0.0
 11
2996.544829596009
 21
5940.182388247961
 31
0.0
  0
LINE
  5
13B7A
330
747D
100
AcDbEntity
  8
部品1
 48
50.0
100
AcDbLine
 10
3015.54482959598
 20
5903.716718365016
 30
-0.0000000000002893
 11
5837.544829612046
 21
5903.716718365297
 31
-0.0000000000000009
  0
LINE
  5
13B7B
330
747D
100
AcDbEntity
  8
部品1
 62
     5
 48
50.0
100
AcDbLine
 10
4100.826506783676
 20
7882.201712583022
 30
0.0
 11
4100.826506783669
 21
6916.08381788723
 31
0.0000000000000065
  0
LINE
  5
13B7C
330
747D
100
AcDbEntity
  8
部品1
 62
     5
 48
50.0
100
AcDbLine
 10
4072.263152408312
 20
7882.201712583022
 30
0.0
 11
4072.263152408312
 21
6916.08381788723
 31
0.0000000000000065
  0
LINE
  5
13B7D
330
747D
100
AcDbEntity
  8
部品1
 62
     5
 48
50.0
100
AcDbLine
 10
3952.263152408312
 20
7882.201712583022
 30
0.0
 11
3952.263152408312
 21
7147.228469705933
 31
0.000000000000005
  0
LINE
  5
13B7E
330
747D
100
AcDbEntity
  8
部品1
 62
     5
 48
50.0
100
AcDbLine
 10
3980.826506783677
 20
7882.201712583022
 30
0.0
 11
3980.82650678367
 21
7040.628579942481
 31
0.0000000000000057
  0
LINE
  5
13B7F
330
747D
100
AcDbEntity
  8
部品1
 62
     5
 48
50.0
100
AcDbLine
 10
3840.826506783677
 20
7882.201712583022
 30
0.0
 11
3840.826506783669
 21
7563.115693002114
 31
0.0000000000000022
  0
LINE
  5
13B80
330
747D
100
AcDbEntity
  8
部品1
 62
     5
 48
50.0
100
AcDbLine
 10
3812.263152408312
 20
7882.201712583022
 30
0.0
 11
3812.263152408312
 21
7669.715582765566
 31
0.0000000000000014
  0
LINE
  5
13B81
330
747D
100
AcDbEntity
  8
部品1
 62
     5
 48
50.0
100
AcDbLine
 10
5812.263152408312
 20
7882.201712583022
 30
0.0
 11
5812.263152408312
 21
5979.189342168567
 31
0.0000000000000128
  0
LINE
  5
13B82
330
747D
100
AcDbEntity
  8
部品1
 62
     5
 48
50.0
100
AcDbLine
 10
5700.826506783677
 20
7882.201712583022
 30
0.0
 11
5700.826506783677
 21
5979.189342168567
 31
0.0000000000000128
  0
LINE
  5
13B83
330
747D
100
AcDbEntity
  8
部品1
 62
     5
 48
50.0
100
AcDbLine
 10
5672.263152408312
 20
7882.201712583022
 30
0.0
 11
5672.263152408312
 21
5979.189342168567
 31
0.0000000000000128
  0
LINE
  5
13B84
330
747D
100
AcDbEntity
  8
部品1
 62
     5
 48
50.0
100
AcDbLine
 10
5552.263152408311
 20
7882.201712583022
 30
0.0
 11
5552.263152408311
 21
5979.189342168567
 31
0.0000000000000128
  0
LINE
  5
13B85
330
747D
100
AcDbEntity
  8
部品1
 62
     5
 48
50.0
100
AcDbLine
 10
5580.826506783676
 20
7882.201712583022
 30
0.0
 11
5580.826506783676
 21
5979.189342168567
 31
0.0000000000000128
  0
LINE
  5
13B86
330
747D
100
AcDbEntity
  8
部品1
 62
     5
 48
50.0
100
AcDbLine
 10
5012.263152408312
 20
7882.201712583022
 30
0.0
 11
5012.263152408305
 21
5979.189342168567
 31
0.0000000000000128
  0
LINE
  5
13B87
330
747D
100
AcDbEntity
  8
部品1
 62
     5
 48
50.0
100
AcDbLine
 10
5040.82650678367
 20
7882.201712583022
 30
0.0
 11
5040.82650678367
 21
5979.189342168567
 31
0.0000000000000128
  0
LINE
  5
13B88
330
747D
100
AcDbEntity
  8
部品1
 62
     5
 48
50.0
100
AcDbLine
 10
5180.826506783676
 20
7882.201712583022
 30
0.0
 11
5180.826506783676
 21
5979.189342168567
 31
0.0000000000000128
  0
LINE
  5
13B89
330
747D
100
AcDbEntity
  8
部品1
 62
     5
 48
50.0
100
AcDbLine
 10
5152.263152408312
 20
7882.201712583022
 30
0.0
 11
5152.263152408312
 21
5979.189342168567
 31
0.0000000000000128
  0
LINE
  5
13B8A
330
747D
100
AcDbEntity
  8
部品1
 62
     5
 48
50.0
100
AcDbLine
 10
5272.263152408312
 20
7882.201712583022
 30
0.0
 11
5272.263152408312
 21
5979.189342168567
 31
0.0000000000000128
  0
LINE
  5
13B8B
330
747D
100
AcDbEntity
  8
部品1
 62
     5
 48
50.0
100
AcDbLine
 10
5300.826506783677
 20
7882.201712583022
 30
0.0
 11
5300.826506783677
 21
5979.189342168567
 31
0.0000000000000128
  0
LINE
  5
13B8C
330
747D
100
AcDbEntity
  8
部品1
 62
     5
 48
50.0
100
AcDbLine
 10
5440.826506783676
 20
7882.201712583022
 30
0.0
 11
5440.826506783676
 21
5979.189342168567
 31
0.0000000000000128
  0
LINE
  5
13B8D
330
747D
100
AcDbEntity
  8
部品1
 62
     5
 48
50.0
100
AcDbLine
 10
5412.263152408312
 20
7882.201712583022
 30
0.0
 11
5412.263152408312
 21
5979.189342168567
 31
0.0000000000000128
  0
LINE
  5
13B8E
330
747D
100
AcDbEntity
  8
部品1
 62
     5
 48
50.0
100
AcDbLine
 10
4612.263152408312
 20
7882.201712583022
 30
0.0
 11
4612.263152408305
 21
5979.189342168567
 31
0.0000000000000128
  0
LINE
  5
13B8F
330
747D
100
AcDbEntity
  8
部品1
 62
     5
 48
50.0
100
AcDbLine
 10
4640.826506783669
 20
7882.201712583022
 30
0.0
 11
4640.826506783669
 21
5979.189342168567
 31
0.0000000000000128
  0
LINE
  5
13B90
330
747D
100
AcDbEntity
  8
部品1
 62
     5
 48
50.0
100
AcDbLine
 10
4780.826506783669
 20
7882.201712583022
 30
0.0
 11
4780.826506783669
 21
5979.189342168567
 31
0.0000000000000128
  0
LINE
  5
13B91
330
747D
100
AcDbEntity
  8
部品1
 62
     5
 48
50.0
100
AcDbLine
 10
4752.263152408311
 20
7882.201712583022
 30
0.0
 11
4752.263152408304
 21
5979.189342168567
 31
0.0000000000000128
  0
LINE
  5
13B92
330
747D
100
AcDbEntity
  8
部品1
 62
     5
 48
50.0
100
AcDbLine
 10
4872.263152408311
 20
7882.201712583022
 30
0.0
 11
4872.263152408304
 21
5979.189342168567
 31
0.0000000000000128
  0
LINE
  5
13B93
330
747D
100
AcDbEntity
  8
部品1
 62
     5
 48
50.0
100
AcDbLine
 10
4900.826506783669
 20
7882.201712583022
 30
0.0
 11
4900.826506783669
 21
5979.189342168567
 31
0.0000000000000128
  0
LINE
  5
13B94
330
747D
100
AcDbEntity
  8
部品1
 62
     5
 48
50.0
100
AcDbLine
 10
4500.82650678367
 20
7882.201712583022
 30
0.0
 11
4500.82650678367
 21
5979.189342168567
 31
0.0000000000000128
  0
LINE
  5
13B95
330
747D
100
AcDbEntity
  8
部品1
 62
     5
 48
50.0
100
AcDbLine
 10
4472.263152408312
 20
7882.201712583022
 30
0.0
 11
4472.263152408305
 21
5979.189342168567
 31
0.0000000000000128
  0
LINE
  5
13B96
330
747D
100
AcDbEntity
  8
部品1
 62
     5
 48
50.0
100
AcDbLine
 10
4352.263152408311
 20
7882.201712583022
 30
0.0
 11
4352.263152408304
 21
5979.189342168567
 31
0.0000000000000128
  0
LINE
  5
13B97
330
747D
100
AcDbEntity
  8
部品1
 62
     5
 48
50.0
100
AcDbLine
 10
4380.826506783669
 20
7882.201712583022
 30
0.0
 11
4380.826506783669
 21
5979.189342168567
 31
0.0000000000000128
  0
LINE
  5
13B98
330
747D
100
AcDbEntity
  8
部品1
 62
     5
 48
50.0
100
AcDbLine
 10
4240.826506783669
 20
7882.201712583022
 30
0.0
 11
4240.826506783669
 21
6070.295369974563
 31
0.0000000000000122
  0
LINE
  5
13B99
330
747D
100
AcDbEntity
  8
部品1
 62
     5
 48
50.0
100
AcDbLine
 10
4212.263152408311
 20
7882.201712583022
 30
0.0
 11
4212.263152408304
 21
6176.895259738016
 31
0.0000000000000115
  0
LINE
  5
13B9A
330
747D
100
AcDbEntity
  8
部品1
 48
5.0
100
AcDbLine
 10
5416.04482959595
 20
5969.770378566668
 30
0.0000000000000051
 11
5416.04482959595
 21
5970.060328060361
 31
0.0000000000000051
  0
LINE
  5
13B9B
330
747D
100
AcDbEntity
  8
部品1
 48
5.0
100
AcDbLine
 10
5411.54482959579
 20
5980.923382059161
 30
0.0000000000000007
 11
5416.044829595762
 21
5970.060328060343
 31
0.0000000000000073
  0
LINE
  5
13B9C
330
747D
100
AcDbEntity
  8
部品1
 48
5.0
100
AcDbLine
 10
5416.04482959563
 20
5969.770378566627
 30
0.0000000000000073
 11
5437.044829595645
 21
5969.770378566627
 31
0.0000000000000087
  0
LINE
  5
13B9D
330
747D
100
AcDbEntity
  8
部品1
 48
5.0
100
AcDbLine
 10
5276.044829595834
 20
5969.770378566638
 30
0.0000000000000062
 11
5297.044829595848
 21
5969.770378566638
 31
0.0000000000000076
  0
LINE
  5
13B9E
330
747D
100
AcDbEntity
  8
部品1
 48
5.0
100
AcDbLine
 10
5041.544829595725
 20
5980.92338205914
 30
-0.0000000000000011
 11
5151.544829595776
 21
5980.92338205914
 31
-0.000000000000002
  0
LINE
  5
13B9F
330
747D
100
AcDbEntity
  8
部品1
 48
5.0
100
AcDbLine
 10
5301.544829595819
 20
5980.923382059147
 30
-0.0000000000000043
 11
5411.544829595878
 21
5980.923382059147
 31
-0.0000000000000043
  0
LINE
  5
13BA0
330
747D
100
AcDbEntity
  8
部品1
 48
5.0
100
AcDbLine
 10
5276.044829595834
 20
5969.770378566653
 30
0.0000000000000049
 11
5276.044829595834
 21
5970.060328060347
 31
0.0000000000000049
  0
LINE
  5
13BA1
330
747D
100
AcDbEntity
  8
部品1
 48
5.0
100
AcDbLine
 10
5297.044829595848
 20
5969.770378566653
 30
0.0000000000000062
 11
5297.044829595848
 21
5970.060328060347
 31
0.0000000000000062
  0
LINE
  5
13BA2
330
747D
100
AcDbEntity
  8
部品1
 48
5.0
100
AcDbLine
 10
5297.044829595848
 20
5970.060328060347
 30
0.0000000000000062
 11
5301.544829595834
 21
5980.923382059161
 31
-0.0000000000000057
  0
LINE
  5
13BA3
330
747D
100
AcDbEntity
  8
部品1
 48
5.0
100
AcDbLine
 10
5271.544829595878
 20
5980.923382059161
 30
-0.0000000000000043
 11
5276.044829595834
 21
5970.060328060347
 31
0.0000000000000049
  0
LINE
  5
13BA4
330
747D
100
AcDbEntity
  8
部品1
 48
5.0
100
AcDbLine
 10
5297.044829595964
 20
5969.77037856666
 30
0.0000000000000062
 11
5297.044829595964
 21
5970.060328060354
 31
0.0000000000000062
  0
LINE
  5
13BA5
330
747D
100
AcDbEntity
  8
部品1
 48
5.0
100
AcDbLine
 10
5297.044829595964
 20
5970.060328060354
 30
0.0000000000000062
 11
5301.544829595965
 21
5980.923382059169
 31
0.0000000000000222
  0
LINE
  5
13BA6
330
747D
100
AcDbEntity
  8
部品1
 48
5.0
100
AcDbLine
 10
5276.044829595964
 20
5969.77037856666
 30
0.0000000000000062
 11
5276.044829595964
 21
5970.060328060354
 31
0.0000000000000062
  0
LINE
  5
13BA7
330
747D
100
AcDbEntity
  8
部品1
 48
5.0
100
AcDbLine
 10
5271.544829595995
 20
5980.923382059169
 30
-0.0000000000000043
 11
5276.044829595964
 21
5970.060328060354
 31
0.0000000000000062
  0
LINE
  5
13BA8
330
747D
100
AcDbEntity
  8
部品1
 48
5.0
100
AcDbLine
 10
5177.044829595732
 20
5970.060328060347
 30
0.0000000000000062
 11
5181.544829595703
 21
5980.923382059161
 31
0.000000000000001
  0
LINE
  5
13BA9
330
747D
100
AcDbEntity
  8
部品1
 48
5.0
100
AcDbLine
 10
5177.044829595732
 20
5969.770378566653
 30
0.0000000000000062
 11
5177.044829595732
 21
5970.060328060347
 31
0.0000000000000062
  0
LINE
  5
13BAA
330
747D
100
AcDbEntity
  8
部品1
 48
5.0
100
AcDbLine
 10
5181.544829595674
 20
5980.92338205914
 30
0.0000000000000023
 11
5271.544829596009
 21
5980.923382059132
 31
-0.0000000000000143
  0
LINE
  5
13BAB
330
747D
100
AcDbEntity
  8
部品1
 48
5.0
100
AcDbLine
 10
5151.544829595761
 20
5980.923382059161
 30
-0.0000000000000004
 11
5156.044829595732
 21
5970.060328060347
 31
0.0000000000000062
  0
LINE
  5
13BAC
330
747D
100
AcDbEntity
  8
部品1
 48
5.0
100
AcDbLine
 10
5156.044829595732
 20
5969.770378566653
 30
0.0000000000000062
 11
5156.044829595732
 21
5970.060328060347
 31
0.0000000000000062
  0
LINE
  5
13BAD
330
747D
100
AcDbEntity
  8
部品1
 48
5.0
100
AcDbLine
 10
5041.544829595704
 20
5980.923382059147
 30
0.0000000000000123
 11
5151.544829595761
 21
5980.92338205914
 31
0.000000000000001
  0
LINE
  5
13BAE
330
747D
100
AcDbEntity
  8
部品1
 48
5.0
100
AcDbLine
 10
5181.544829595703
 20
5980.92338205914
 30
-0.0000000000000022
 11
5271.544829595892
 21
5980.92338205914
 31
-0.0000000000000029
  0
LINE
  5
13BAF
330
747D
100
AcDbEntity
  8
部品1
 48
5.0
100
AcDbLine
 10
5156.044829595601
 20
5969.77037856663
 30
0.0000000000000062
 11
5177.044829595615
 21
5969.77037856663
 31
0.0000000000000076
  0
LINE
  5
13BB0
330
747D
100
AcDbEntity
  8
部品1
 48
5.0
100
AcDbLine
 10
5437.044829595732
 20
5970.060328060347
 30
0.0000000000000062
 11
5441.544829595732
 21
5980.923382059161
 31
0.0000000000000109
  0
LINE
  5
13BB1
330
747D
100
AcDbEntity
  8
部品1
 48
5.0
100
AcDbLine
 10
5437.044829595732
 20
5969.770378566653
 30
0.0000000000000062
 11
5437.044829595732
 21
5970.060328060347
 31
0.0000000000000062
  0
ARC
  5
13BB2
330
747D
100
AcDbEntity
  8
部品1
 48
5.0
100
AcDbCircle
 10
5834.044829595834
 20
5966.770378566638
 30
-0.0000000000000628
 40
3.0
100
AcDbArc
 50
0.0
 51
90.0
  0
LINE
  5
13BB3
330
747D
100
AcDbEntity
  8
部品1
 48
5.0
100
AcDbLine
 10
3956.044829595267
 20
5969.770378566623
 30
-0.0000000000000133
 11
3956.044829595267
 21
5970.060328060317
 31
-0.0000000000000133
  0
LINE
  5
13BB4
330
747D
100
AcDbEntity
  8
部品1
 48
5.0
100
AcDbLine
 10
3977.044829595267
 20
5969.770378566623
 30
0.0000000000000062
 11
3977.044829595267
 21
5970.060328060317
 31
0.0000000000000062
  0
LINE
  5
13BB5
330
747D
100
AcDbEntity
  8
部品1
 48
5.0
100
AcDbLine
 10
3977.044829595267
 20
5970.060328060317
 30
0.0000000000000062
 11
3981.544829595237
 21
5980.923382059136
 31
0.000000000000001
  0
LINE
  5
13BB6
330
747D
100
AcDbEntity
  8
部品1
 48
5.0
100
AcDbLine
 10
3981.544829595237
 20
5980.923382059136
 30
0.000000000000001
 11
4071.544829595528
 21
5980.923382059132
 31
-0.0000000000000043
  0
LINE
  5
13BB7
330
747D
100
AcDbEntity
  8
部品1
 48
5.0
100
AcDbLine
 10
3977.044829595267
 20
5969.770378566623
 30
0.0000000000000062
 11
3956.044829595267
 21
5969.770378566623
 31
-0.0000000000000133
  0
LINE
  5
13BB8
330
747D
100
AcDbEntity
  8
部品1
 48
5.0
100
AcDbLine
 10
3951.544829595296
 20
5980.923382059136
 30
0.000000000000001
 11
3956.044829595267
 21
5970.060328060317
 31
-0.0000000000000133
  0
LINE
  5
13BB9
330
747D
100
AcDbEntity
  8
部品1
 48
5.0
100
AcDbLine
 10
4071.544829595528
 20
5980.923382059132
 30
0.0
 11
4076.044829595499
 21
5970.060328060317
 31
0.0000000000000106
  0
LINE
  5
13BBA
330
747D
100
AcDbEntity
  8
部品1
 48
5.0
100
AcDbLine
 10
4097.044829595499
 20
5970.060328060317
 30
0.0000000000000106
 11
4101.544829595471
 21
5980.923382059132
 31
0.0
  0
LINE
  5
13BBB
330
747D
100
AcDbEntity
  8
部品1
 48
5.0
100
AcDbLine
 10
4097.044829595499
 20
5969.770378566623
 30
0.0000000000000106
 11
4097.044829595499
 21
5970.060328060317
 31
0.0000000000000106
  0
LINE
  5
13BBC
330
747D
100
AcDbEntity
  8
部品1
 48
5.0
100
AcDbLine
 10
4076.044829595499
 20
5969.770378566623
 30
0.0000000000000106
 11
4076.044829595499
 21
5970.060328060317
 31
0.0000000000000106
  0
LINE
  5
13BBD
330
747D
100
AcDbEntity
  8
部品1
 48
5.0
100
AcDbLine
 10
4101.544829595471
 20
5980.923382059132
 30
-0.0000000000000043
 11
4211.544829595528
 21
5980.923382059132
 31
-0.0000000000000043
  0
LINE
  5
13BBE
330
747D
100
AcDbEntity
  8
部品1
 48
5.0
100
AcDbLine
 10
4211.544829595528
 20
5980.923382059147
 30
-0.0000000000000043
 11
4216.044829595499
 21
5970.060328060331
 31
0.0000000000000062
  0
LINE
  5
13BBF
330
747D
100
AcDbEntity
  8
部品1
 48
5.0
100
AcDbLine
 10
4237.044829595368
 20
5970.060328060331
 30
0.0000000000000084
 11
4241.544829595368
 21
5980.923382059147
 31
0.0000000000000032
  0
LINE
  5
13BC0
330
747D
100
AcDbEntity
  8
部品1
 48
5.0
100
AcDbLine
 10
4237.044829595368
 20
5969.770378566638
 30
0.0000000000000084
 11
4237.044829595368
 21
5970.060328060331
 31
0.0000000000000084
  0
LINE
  5
13BC1
330
747D
100
AcDbEntity
  8
部品1
 48
5.0
100
AcDbLine
 10
4216.044829595499
 20
5969.770378566638
 30
0.0000000000000062
 11
4216.044829595499
 21
5970.060328060331
 31
0.0000000000000062
  0
LINE
  5
13BC2
330
747D
100
AcDbEntity
  8
部品1
 48
5.0
100
AcDbLine
 10
4356.044829595383
 20
5969.770378566646
 30
0.0000000000000062
 11
4356.044829595383
 21
5970.060328060339
 31
0.0000000000000062
  0
LINE
  5
13BC3
330
747D
100
AcDbEntity
  8
部品1
 48
5.0
100
AcDbLine
 10
4377.044829595383
 20
5969.770378566646
 30
0.0000000000000062
 11
4377.044829595383
 21
5970.060328060339
 31
0.0000000000000062
  0
LINE
  5
13BC4
330
747D
100
AcDbEntity
  8
部品1
 48
5.0
100
AcDbLine
 10
4377.044829595383
 20
5970.060328060339
 30
0.0000000000000062
 11
4381.544829595383
 21
5980.923382059154
 31
0.0000000000000101
  0
LINE
  5
13BC5
330
747D
100
AcDbEntity
  8
部品1
 48
5.0
100
AcDbLine
 10
4351.544829595397
 20
5980.923382059154
 30
-0.0000000000000012
 11
4356.044829595383
 21
5970.060328060339
 31
0.0000000000000062
  0
LINE
  5
13BC6
330
747D
100
AcDbEntity
  8
部品1
 48
5.0
100
AcDbLine
 10
4471.544829595631
 20
5980.923382059154
 30
-0.0000000000000065
 11
4476.044829595616
 21
5970.060328060339
 31
0.0000000000000062
  0
LINE
  5
13BC7
330
747D
100
AcDbEntity
  8
部品1
 48
5.0
100
AcDbLine
 10
4497.044829595616
 20
5970.060328060339
 30
0.0000000000000062
 11
4501.544829595586
 21
5980.923382059154
 31
-0.0000000000000065
  0
LINE
  5
13BC8
330
747D
100
AcDbEntity
  8
部品1
 48
5.0
100
AcDbLine
 10
4497.044829595616
 20
5969.770378566646
 30
0.0000000000000062
 11
4497.044829595616
 21
5970.060328060339
 31
0.0000000000000062
  0
LINE
  5
13BC9
330
747D
100
AcDbEntity
  8
部品1
 48
5.0
100
AcDbLine
 10
4476.044829595616
 20
5969.770378566646
 30
0.0000000000000062
 11
4476.044829595616
 21
5970.060328060339
 31
0.0000000000000062
  0
LINE
  5
13BCA
330
747D
100
AcDbEntity
  8
部品1
 48
5.0
100
AcDbLine
 10
4616.044829595615
 20
5969.770378566646
 30
0.0000000000000062
 11
4616.044829595615
 21
5970.060328060339
 31
0.0000000000000062
  0
LINE
  5
13BCB
330
747D
100
AcDbEntity
  8
部品1
 48
5.0
100
AcDbLine
 10
4637.044829595499
 20
5969.770378566646
 30
0.0000000000000062
 11
4637.044829595499
 21
5970.060328060339
 31
0.0000000000000062
  0
LINE
  5
13BCC
330
747D
100
AcDbEntity
  8
部品1
 48
5.0
100
AcDbLine
 10
4637.044829595499
 20
5970.060328060339
 30
0.0000000000000062
 11
4641.54482959547
 21
5980.923382059154
 31
-0.0000000000000012
  0
LINE
  5
13BCD
330
747D
100
AcDbEntity
  8
部品1
 48
5.0
100
AcDbLine
 10
4611.544829595644
 20
5980.923382059154
 30
-0.0000000000000043
 11
4616.044829595615
 21
5970.060328060339
 31
0.0000000000000062
  0
LINE
  5
13BCE
330
747D
100
AcDbEntity
  8
部品1
 48
5.0
100
AcDbLine
 10
4751.142204225762
 20
5980.923382059154
 30
0.0000000000000007
 11
4756.044829595499
 21
5970.060328060339
 31
0.0000000000000062
  0
LINE
  5
13BCF
330
747D
100
AcDbEntity
  8
部品1
 48
5.0
100
AcDbLine
 10
4777.044829595499
 20
5970.060328060339
 30
0.0000000000000062
 11
4781.54482959547
 21
5980.923382059154
 31
0.000000000000001
  0
LINE
  5
13BD0
330
747D
100
AcDbEntity
  8
部品1
 48
5.0
100
AcDbLine
 10
4777.044829595499
 20
5969.770378566646
 30
0.0000000000000062
 11
4777.044829595499
 21
5970.060328060339
 31
0.0000000000000062
  0
LINE
  5
13BD1
330
747D
100
AcDbEntity
  8
部品1
 48
5.0
100
AcDbLine
 10
4756.044829595499
 20
5969.770378566646
 30
0.0000000000000062
 11
4756.044829595499
 21
5970.060328060339
 31
0.0000000000000062
  0
LINE
  5
13BD2
330
747D
100
AcDbEntity
  8
部品1
 48
5.0
100
AcDbLine
 10
4876.044829595732
 20
5969.770378566646
 30
0.0000000000000062
 11
4876.044829595732
 21
5970.060328060339
 31
0.0000000000000062
  0
LINE
  5
13BD3
330
747D
100
AcDbEntity
  8
部品1
 48
5.0
100
AcDbLine
 10
4897.044829595732
 20
5969.770378566646
 30
0.0000000000000062
 11
4897.044829595732
 21
5970.060328060339
 31
0.0000000000000062
  0
LINE
  5
13BD4
330
747D
100
AcDbEntity
  8
部品1
 48
5.0
100
AcDbLine
 10
4897.044829595732
 20
5970.060328060339
 30
0.0000000000000062
 11
4901.544829595717
 21
5980.923382059154
 31
-0.0000000000000117
  0
LINE
  5
13BD5
330
747D
100
AcDbEntity
  8
部品1
 48
5.0
100
AcDbLine
 10
4871.544829595761
 20
5980.923382059154
 30
-0.0000000000000043
 11
4876.044829595732
 21
5970.060328060339
 31
0.0000000000000062
  0
LINE
  5
13BD6
330
747D
100
AcDbEntity
  8
部品1
 48
5.0
100
AcDbLine
 10
5011.544829595761
 20
5980.923382059154
 30
-0.0000000000000043
 11
5016.044829595732
 21
5970.060328060339
 31
0.0000000000000062
  0
LINE
  5
13BD7
330
747D
100
AcDbEntity
  8
部品1
 48
5.0
100
AcDbLine
 10
5037.044829595616
 20
5970.060328060339
 30
0.0000000000000062
 11
5041.544829595601
 21
5980.923382059154
 31
0.0000000000000049
  0
LINE
  5
13BD8
330
747D
100
AcDbEntity
  8
部品1
 48
5.0
100
AcDbLine
 10
5037.044829595616
 20
5969.770378566646
 30
0.0000000000000062
 11
5037.044829595616
 21
5970.060328060339
 31
0.0000000000000062
  0
LINE
  5
13BD9
330
747D
100
AcDbEntity
  8
部品1
 48
5.0
100
AcDbLine
 10
5016.044829595732
 20
5969.770378566646
 30
0.0000000000000062
 11
5016.044829595732
 21
5970.060328060339
 31
0.0000000000000062
  0
LINE
  5
13BDA
330
747D
100
AcDbEntity
  8
部品1
 48
5.0
100
AcDbLine
 10
5156.044829595615
 20
5969.770378566646
 30
0.0000000000000062
 11
5156.044829595615
 21
5970.060328060339
 31
0.0000000000000062
  0
LINE
  5
13BDB
330
747D
100
AcDbEntity
  8
部品1
 48
5.0
100
AcDbLine
 10
5177.044829595615
 20
5969.770378566646
 30
0.0000000000000062
 11
5177.044829595615
 21
5970.060328060339
 31
0.0000000000000062
  0
LINE
  5
13BDC
330
747D
100
AcDbEntity
  8
部品1
 48
5.0
100
AcDbLine
 10
5177.044829595615
 20
5970.060328060339
 30
0.0000000000000062
 11
5181.544829595601
 21
5980.923382059154
 31
-0.0000000000000065
  0
LINE
  5
13BDD
330
747D
100
AcDbEntity
  8
部品1
 48
5.0
100
AcDbLine
 10
5151.544829595644
 20
5980.923382059154
 30
0.000000000000001
 11
5156.044829595615
 21
5970.060328060339
 31
0.0000000000000062
  0
LINE
  5
13BDE
330
747D
100
AcDbEntity
  8
部品1
 48
5.0
100
AcDbLine
 10
5556.044829595848
 20
5969.77037856666
 30
0.0000000000000162
 11
5556.044829595848
 21
5970.060328060354
 31
0.0000000000000162
  0
LINE
  5
13BDF
330
747D
100
AcDbEntity
  8
部品1
 48
5.0
100
AcDbLine
 10
5577.044829595848
 20
5969.77037856666
 30
0.0000000000000062
 11
5577.044829595848
 21
5970.060328060354
 31
0.0000000000000062
  0
LINE
  5
13BE0
330
747D
100
AcDbEntity
  8
部品1
 48
5.0
100
AcDbLine
 10
5577.044829595848
 20
5970.060328060354
 30
0.0000000000000062
 11
5581.544829595848
 21
5980.923382059169
 31
0.0000000000000222
  0
LINE
  5
13BE1
330
747D
100
AcDbEntity
  8
部品1
 48
5.0
100
AcDbLine
 10
5551.544829595878
 20
5980.923382059169
 30
0.000000000000001
 11
5556.044829595848
 21
5970.060328060354
 31
0.0000000000000162
  0
LINE
  5
13BE2
330
747D
100
AcDbEntity
  8
部品1
 48
5.0
100
AcDbLine
 10
5671.54482959611
 20
5980.923382059169
 30
-0.0000000000000043
 11
5676.044829596052
 21
5970.060328060354
 31
0.0000000000000109
  0
LINE
  5
13BE3
330
747D
100
AcDbEntity
  8
部品1
 48
5.0
100
AcDbLine
 10
5697.044829596096
 20
5970.060328060354
 30
0.0000000000000109
 11
5701.544829596095
 21
5980.923382059169
 31
0.000000000000017
  0
LINE
  5
13BE4
330
747D
100
AcDbEntity
  8
部品1
 48
5.0
100
AcDbLine
 10
5697.044829596096
 20
5969.77037856666
 30
0.0000000000000109
 11
5697.044829596096
 21
5970.060328060354
 31
0.0000000000000109
  0
LINE
  5
13BE5
330
747D
100
AcDbEntity
  8
部品1
 48
5.0
100
AcDbLine
 10
5676.044829596052
 20
5969.77037856666
 30
0.0000000000000109
 11
5676.044829596052
 21
5970.060328060354
 31
0.0000000000000109
  0
LINE
  5
13BE6
330
747D
100
AcDbEntity
  8
部品1
 48
5.0
100
AcDbLine
 10
5816.044829596096
 20
5969.77037856666
 30
0.0000000000000062
 11
5816.044829596096
 21
5970.060328060354
 31
0.0000000000000062
  0
LINE
  5
13BE7
330
747D
100
AcDbEntity
  8
部品1
 48
5.0
100
AcDbLine
 10
5811.544829596111
 20
5980.923382059169
 30
0.0000000000000123
 11
5816.044829596096
 21
5970.060328060354
 31
0.0000000000000062
  0
LINE
  5
13BE8
330
747D
100
AcDbEntity
  8
部品1
 48
5.0
100
AcDbLine
 10
5701.544829596052
 20
5980.923382059125
 30
0.0000000000000123
 11
5811.54482959614
 21
5980.923382059132
 31
0.0000000000000023
  0
LINE
  5
13BE9
330
747D
100
AcDbEntity
  8
部品1
 48
5.0
100
AcDbLine
 10
5581.54482959582
 20
5980.923382059125
 30
0.0000000000000123
 11
5671.544829596154
 21
5980.923382059125
 31
-0.000000000000009
  0
LINE
  5
13BEA
330
747D
100
AcDbEntity
  8
部品1
 48
5.0
100
AcDbLine
 10
5441.544829595819
 20
5980.923382059132
 30
0.0000000000000123
 11
5551.544829595907
 21
5980.923382059125
 31
-0.000000000000009
  0
LINE
  5
13BEB
330
747D
100
AcDbEntity
  8
部品1
 48
5.0
100
AcDbLine
 10
5041.544829595586
 20
5980.923382059132
 30
0.0000000000000123
 11
5151.544829595674
 21
5980.923382059132
 31
0.0000000000000084
  0
LINE
  5
13BEC
330
747D
100
AcDbEntity
  8
部品1
 48
5.0
100
AcDbLine
 10
4901.544829595703
 20
5980.923382059132
 30
-0.0000000000000043
 11
5011.544829595776
 21
5980.923382059132
 31
0.0000000000000031
  0
LINE
  5
13BED
330
747D
100
AcDbEntity
  8
部品1
 48
5.0
100
AcDbLine
 10
4781.544829595456
 20
5980.923382059132
 30
0.0000000000000031
 11
4871.544829595776
 21
5980.923382059132
 31
0.0000000000000031
  0
LINE
  5
13BEE
330
747D
100
AcDbEntity
  8
部品1
 48
5.0
100
AcDbLine
 10
4641.54482959547
 20
5980.923382059132
 30
0.000000000000001
 11
4751.142204225776
 21
5980.923382059132
 31
0.0000000000000028
  0
LINE
  5
13BEF
330
747D
100
AcDbEntity
  8
部品1
 48
5.0
100
AcDbLine
 10
4501.544829595586
 20
5980.923382059132
 30
-0.0000000000000043
 11
4611.54482959566
 21
5980.923382059132
 31
-0.0000000000000022
  0
LINE
  5
13BF0
330
747D
100
AcDbEntity
  8
部品1
 48
5.0
100
AcDbLine
 10
4381.544829595354
 20
5980.923382059132
 30
0.0000000000000123
 11
4471.544829595645
 21
5980.923382059132
 31
-0.0000000000000043
  0
LINE
  5
13BF1
330
747D
100
AcDbEntity
  8
部品1
 48
5.0
100
AcDbLine
 10
4241.544829595354
 20
5980.92338205914
 30
0.000000000000001
 11
4351.544829595412
 21
5980.923382059132
 31
0.000000000000001
  0
LINE
  5
13BF2
330
747D
100
AcDbEntity
  8
部品1
 48
5.0
100
AcDbLine
 10
4076.044829595499
 20
5969.770378566623
 30
0.0000000000000062
 11
4097.044829595499
 21
5969.770378566623
 31
0.0000000000000106
  0
LINE
  5
13BF3
330
747D
100
AcDbEntity
  8
部品1
 48
5.0
100
AcDbLine
 10
4216.044829595499
 20
5969.77037856663
 30
0.000000000000004
 11
4237.044829595368
 21
5969.77037856663
 31
0.0000000000000062
  0
LINE
  5
13BF4
330
747D
100
AcDbEntity
  8
部品1
 48
5.0
100
AcDbLine
 10
4356.044829595383
 20
5969.77037856663
 30
0.0000000000000084
 11
4377.044829595383
 21
5969.770378566646
 31
0.0000000000000062
  0
LINE
  5
13BF5
330
747D
100
AcDbEntity
  8
部品1
 48
5.0
100
AcDbLine
 10
4476.044829595601
 20
5969.77037856663
 30
0.0000000000000084
 11
4497.0448295956
 21
5969.77037856663
 31
0.0000000000000084
  0
LINE
  5
13BF6
330
747D
100
AcDbEntity
  8
部品1
 48
5.0
100
AcDbLine
 10
4616.044829595615
 20
5969.770378566623
 30
0.0000000000000084
 11
4637.044829595485
 21
5969.770378566623
 31
0.0000000000000084
  0
LINE
  5
13BF7
330
747D
100
AcDbEntity
  8
部品1
 48
5.0
100
AcDbLine
 10
4756.044829595499
 20
5969.77037856663
 30
0.0000000000000084
 11
4777.044829595499
 21
5969.77037856663
 31
0.0000000000000084
  0
LINE
  5
13BF8
330
747D
100
AcDbEntity
  8
部品1
 48
5.0
100
AcDbLine
 10
4876.044829595732
 20
5969.77037856663
 30
0.0000000000000136
 11
4897.044829595746
 21
5969.77037856663
 31
0.0000000000000136
  0
LINE
  5
13BF9
330
747D
100
AcDbEntity
  8
部品1
 48
5.0
100
AcDbLine
 10
5016.044829595717
 20
5969.770378566638
 30
0.0000000000000136
 11
5037.044829595616
 21
5969.770378566638
 31
0.0000000000000136
  0
LINE
  5
13BFA
330
747D
100
AcDbEntity
  8
部品1
 48
5.0
100
AcDbLine
 10
5156.044829595615
 20
5969.770378566638
 30
0.0000000000000136
 11
5177.044829595615
 21
5969.770378566638
 31
0.0000000000000136
  0
LINE
  5
13BFB
330
747D
100
AcDbEntity
  8
部品1
 48
5.0
100
AcDbLine
 10
5556.044829595848
 20
5969.77037856663
 30
0.0000000000000062
 11
5577.044829595834
 21
5969.770378566638
 31
0.0000000000000062
  0
LINE
  5
13BFC
330
747D
100
AcDbEntity
  8
部品1
 48
5.0
100
AcDbLine
 10
5676.044829596052
 20
5969.77037856663
 30
0.0000000000000062
 11
5697.044829596096
 21
5969.77037856663
 31
0.0000000000000062
  0
LINE
  5
13BFD
330
747D
100
AcDbEntity
  8
部品1
 48
5.0
100
AcDbLine
 10
5816.044829596096
 20
5969.77037856663
 30
-0.0000000000000038
 11
5834.04482959582
 21
5969.770378566638
 31
-0.0000000000000108
  0
LINE
  5
13BFE
330
747D
100
AcDbEntity
  8
部品1
 48
5.0
100
AcDbLine
 10
3951.544829595296
 20
5980.923382059136
 30
0.000000000000001
 11
3841.544829595347
 21
5980.923382059136
 31
-0.0000000000000108
  0
LINE
  5
13BFF
330
747D
100
AcDbEntity
  8
部品1
 48
5.0
100
AcDbLine
 10
3037.044829595165
 20
5969.77037856663
 30
-0.0000000000000084
 11
3019.044829595441
 21
5969.770378566638
 31
-0.0000000000000154
  0
LINE
  5
13C00
330
747D
100
AcDbEntity
  8
部品1
 48
5.0
100
AcDbLine
 10
3177.044829595208
 20
5969.77037856663
 30
0.0000000000000016
 11
3156.044829595165
 21
5969.77037856663
 31
0.0000000000000016
  0
LINE
  5
13C01
330
747D
100
AcDbEntity
  8
部品1
 48
5.0
100
AcDbLine
 10
3297.044829595412
 20
5969.77037856663
 30
0.0000000000000016
 11
3276.044829595427
 21
5969.770378566638
 31
0.0000000000000016
  0
LINE
  5
13C02
330
747D
100
AcDbEntity
  8
部品1
 48
5.0
100
AcDbLine
 10
3437.044829595296
 20
5969.770378566638
 30
-0.0000000000000083
 11
3416.044829595412
 21
5969.770378566638
 31
0.0000000000000116
  0
LINE
  5
13C03
330
747D
100
AcDbEntity
  8
部品1
 48
5.0
100
AcDbLine
 10
3577.044829595762
 20
5969.770378566623
 30
-0.0000000000000006
 11
3556.044829595761
 21
5969.770378566623
 31
0.0000000000000016
  0
LINE
  5
13C04
330
747D
100
AcDbEntity
  8
部品1
 48
5.0
100
AcDbLine
 10
3697.04482959598
 20
5969.770378566616
 30
0.0000000000000016
 11
3676.044829595994
 21
5969.77037856663
 31
0.0000000000000016
  0
LINE
  5
13C05
330
747D
100
AcDbEntity
  8
部品1
 48
5.0
100
AcDbLine
 10
3811.544829595907
 20
5980.923382059136
 30
-0.0000000000000019
 11
3701.544829595965
 21
5980.923382059136
 31
-0.0000000000000019
  0
LINE
  5
13C06
330
747D
100
AcDbEntity
  8
部品1
 48
5.0
100
AcDbLine
 10
3671.544829596024
 20
5980.923382059144
 30
-0.0000000000000019
 11
3581.544829595717
 21
5980.923382059136
 31
-0.0000000000000094
  0
LINE
  5
13C07
330
747D
100
AcDbEntity
  8
部品1
 48
5.0
100
AcDbLine
 10
3551.544829595805
 20
5980.923382059136
 30
-0.0000000000000094
 11
3441.544829595718
 21
5980.923382059144
 31
-0.0000000000000094
  0
LINE
  5
13C08
330
747D
100
AcDbEntity
  8
部品1
 48
5.0
100
AcDbLine
 10
3411.544829595441
 20
5980.923382059132
 30
0.0000000000000094
 11
3301.544829595354
 21
5980.923382059128
 31
-0.0000000000000119
  0
LINE
  5
13C09
330
747D
100
AcDbEntity
  8
部品1
 48
5.0
100
AcDbLine
 10
3271.544829595441
 20
5980.923382059128
 30
0.0000000000000094
 11
3181.544829595106
 21
5980.923382059128
 31
-0.0000000000000119
  0
LINE
  5
13C0A
330
747D
100
AcDbEntity
  8
部品1
 48
5.0
100
AcDbLine
 10
3151.544829595208
 20
5980.923382059128
 30
0.0000000000000094
 11
3041.544829595121
 21
5980.923382059136
 31
-0.0000000000000006
  0
LINE
  5
13C0B
330
747D
100
AcDbEntity
  8
部品1
 48
5.0
100
AcDbLine
 10
3041.54482959515
 20
5980.923382059173
 30
0.0000000000000094
 11
3037.044829595165
 21
5970.060328060354
 31
0.0000000000000016
  0
LINE
  5
13C0C
330
747D
100
AcDbEntity
  8
部品1
 48
5.0
100
AcDbLine
 10
3037.044829595165
 20
5969.77037856666
 30
0.0000000000000016
 11
3037.044829595165
 21
5970.060328060354
 31
0.0000000000000016
  0
LINE
  5
13C0D
330
747D
100
AcDbEntity
  8
部品1
 48
5.0
100
AcDbLine
 10
3177.044829595208
 20
5969.77037856666
 30
0.0000000000000063
 11
3177.044829595208
 21
5970.060328060354
 31
0.0000000000000063
  0
LINE
  5
13C0E
330
747D
100
AcDbEntity
  8
部品1
 48
5.0
100
AcDbLine
 10
3156.044829595165
 20
5969.77037856666
 30
0.0000000000000063
 11
3156.044829595165
 21
5970.060328060354
 31
0.0000000000000063
  0
LINE
  5
13C0F
330
747D
100
AcDbEntity
  8
部品1
 48
5.0
100
AcDbLine
 10
3156.044829595165
 20
5970.060328060354
 30
0.0000000000000063
 11
3151.544829595165
 21
5980.923382059173
 31
0.0000000000000141
  0
LINE
  5
13C10
330
747D
100
AcDbEntity
  8
部品1
 48
5.0
100
AcDbLine
 10
3181.54482959515
 20
5980.923382059173
 30
-0.0000000000000072
 11
3177.044829595208
 21
5970.060328060354
 31
0.0000000000000063
  0
LINE
  5
13C11
330
747D
100
AcDbEntity
  8
部品1
 48
5.0
100
AcDbLine
 10
3301.544829595383
 20
5980.923382059173
 30
-0.0000000000000019
 11
3297.044829595412
 21
5970.060328060354
 31
0.0000000000000116
  0
LINE
  5
13C12
330
747D
100
AcDbEntity
  8
部品1
 48
5.0
100
AcDbLine
 10
3276.044829595412
 20
5970.060328060354
 30
0.0000000000000016
 11
3271.544829595412
 21
5980.923382059173
 31
0.0000000000000194
  0
LINE
  5
13C13
330
747D
100
AcDbEntity
  8
部品1
 48
5.0
100
AcDbLine
 10
3276.044829595412
 20
5969.77037856666
 30
0.0000000000000016
 11
3276.044829595412
 21
5970.060328060354
 31
0.0000000000000016
  0
LINE
  5
13C14
330
747D
100
AcDbEntity
  8
部品1
 48
5.0
100
AcDbLine
 10
3297.044829595412
 20
5969.77037856666
 30
0.0000000000000116
 11
3297.044829595412
 21
5970.060328060354
 31
0.0000000000000116
  0
LINE
  5
13C15
330
747D
100
AcDbEntity
  8
部品1
 48
5.0
100
AcDbLine
 10
3416.044829595412
 20
5969.77037856666
 30
0.0000000000000116
 11
3416.044829595412
 21
5970.060328060354
 31
0.0000000000000116
  0
LINE
  5
13C16
330
747D
100
AcDbEntity
  8
部品1
 48
5.0
100
AcDbLine
 10
3416.044829595412
 20
5970.060328060354
 30
0.0000000000000116
 11
3411.544829595412
 21
5980.923382059169
 31
0.0000000000000194
  0
LINE
  5
13C17
330
747D
100
AcDbEntity
  8
部品1
 48
5.0
100
AcDbLine
 10
3437.044829595762
 20
5969.770378566638
 30
0.0000000000000016
 11
3437.044829595762
 21
5970.060328060331
 31
0.0000000000000016
  0
LINE
  5
13C18
330
747D
100
AcDbEntity
  8
部品1
 48
5.0
100
AcDbLine
 10
3441.544829595733
 20
5980.923382059151
 30
-0.0000000000000072
 11
3437.044829595762
 21
5970.060328060331
 31
0.0000000000000016
  0
LINE
  5
13C19
330
747D
100
AcDbEntity
  8
部品1
 48
5.0
100
AcDbLine
 10
3581.544829595733
 20
5980.923382059144
 30
-0.0000000000000072
 11
3577.044829595762
 21
5970.060328060324
 31
0.0000000000000016
  0
LINE
  5
13C1A
330
747D
100
AcDbEntity
  8
部品1
 48
5.0
100
AcDbLine
 10
3556.044829595761
 20
5970.060328060324
 30
0.0000000000000038
 11
3551.54482959579
 21
5980.923382059144
 31
-0.0000000000000072
  0
LINE
  5
13C1B
330
747D
100
AcDbEntity
  8
部品1
 48
5.0
100
AcDbLine
 10
3556.044829595761
 20
5969.77037856663
 30
0.0000000000000038
 11
3556.044829595761
 21
5970.060328060324
 31
0.0000000000000038
  0
LINE
  5
13C1C
330
747D
100
AcDbEntity
  8
部品1
 48
5.0
100
AcDbLine
 10
3577.044829595762
 20
5969.77037856663
 30
0.0000000000000016
 11
3577.044829595762
 21
5970.060328060324
 31
0.0000000000000016
  0
LINE
  5
13C1D
330
747D
100
AcDbEntity
  8
部品1
 48
5.0
100
AcDbLine
 10
3697.04482959598
 20
5969.77037856663
 30
0.0000000000000017
 11
3697.04482959598
 21
5970.060328060324
 31
0.0000000000000017
  0
LINE
  5
13C1E
330
747D
100
AcDbEntity
  8
部品1
 48
5.0
100
AcDbLine
 10
3676.044829595994
 20
5969.77037856663
 30
0.0000000000000016
 11
3676.044829595994
 21
5970.060328060324
 31
0.0000000000000016
  0
LINE
  5
13C1F
330
747D
100
AcDbEntity
  8
部品1
 48
5.0
100
AcDbLine
 10
3676.044829595994
 20
5970.060328060324
 30
0.0000000000000016
 11
3671.544829596038
 21
5980.923382059144
 31
-0.0000000000000019
  0
LINE
  5
13C20
330
747D
100
AcDbEntity
  8
部品1
 48
5.0
100
AcDbLine
 10
3701.544829595965
 20
5980.923382059144
 30
-0.0000000000000019
 11
3697.04482959598
 21
5970.060328060324
 31
0.0000000000000017
  0
ARC
  5
13C21
330
747D
100
AcDbEntity
  8
部品1
 48
5.0
100
AcDbCircle
 10
3019.044829595441
 20
5966.770378566638
 30
-0.0000000000000674
 40
3.0
100
AcDbArc
 50
90.0
 51
180.0
  0
LINE
  5
13C22
330
747D
100
AcDbEntity
  8
細線
 48
50.0
100
AcDbLine
 10
3037.044829595165
 20
5969.770378566366
 30
0.0000000000000028
 11
5816.044829596096
 21
5969.77037856666
 31
0.0000000000000062
  0
LINE
  5
13C23
330
747D
100
AcDbEntity
  8
部品1
 48
50.0
100
AcDbLine
 10
3037.544829596009
 20
7923.716718365297
 30
0.0
 11
3037.544829596009
 21
5971.267334062249
 31
0.0
  0
LINE
  5
13C24
330
747D
100
AcDbEntity
  8
部品1
 48
50.0
100
AcDbLine
 10
5815.544829595979
 20
5971.267334060518
 30
0.0
 11
5815.544829595979
 21
7923.716718365297
 31
0.0
  0
ARC
  5
13C25
330
747D
100
AcDbEntity
  8
部品1
100
AcDbCircle
 10
3114.827581407997
 20
5953.228101098692
 30
-0.0000000000002893
 40
119.0
100
AcDbArc
 50
186.2938625750967
 51
204.1971067616148
  0
LINE
  5
13C26
330
747D
100
AcDbEntity
  8
部品1
 48
5.0
100
AcDbLine
 10
3016.044829596198
 20
5903.7167183653
 30
0.0000000000000042
 11
3016.044829596198
 21
5966.770445907769
 31
0.0000000000000042
  0
LINE
  5
13C27
330
747D
100
AcDbEntity
  8
部品1
100
AcDbLine
 10
3015.54482959598
 20
5903.716718365016
 30
-0.0000000000002893
 11
3007.177512867129
 21
5903.862770421794
 31
-0.0000000000002893
  0
ARC
  5
13C28
330
747D
100
AcDbEntity
  8
部品1
100
AcDbCircle
 10
3007.194965273564
 20
5904.862618116953
 30
-0.0000000000002893
 40
1.0
100
AcDbArc
 50
204.1971067616148
 51
269.0000000001286
  0
LINE
  5
13C29
330
747D
100
AcDbEntity
  8
部品1
100
AcDbLine
 10
3016.044829596198
 20
5965.716718365031
 30
-0.0000000000002893
 11
2996.544829595994
 21
5965.716718365016
 31
-0.0000000000002893
  0
LINE
  5
13C2A
330
747D
100
AcDbEntity
  8
部品1
100
AcDbLine
 10
5837.044829595775
 20
5965.716718365031
 30
0.0
 11
5856.544829595979
 21
5965.716718365016
 31
0.0
  0
ARC
  5
13C2B
330
747D
100
AcDbEntity
  8
部品1
100
AcDbCircle
 10
5845.89469391841
 20
5904.862618116953
 30
0.0
 40
1.0
100
AcDbArc
 50
270.9999999998715
 51
335.8028932383851
  0
LINE
  5
13C2C
330
747D
100
AcDbEntity
  8
部品1
100
AcDbLine
 10
5837.544829595994
 20
5903.716718365016
 30
0.0
 11
5845.912146324845
 21
5903.862770421794
 31
0.0
  0
ARC
  5
13C2D
330
747D
100
AcDbEntity
  8
部品1
100
AcDbCircle
 10
5738.262077783977
 20
5953.228101098692
 30
0.0
 40
119.0
100
AcDbArc
 50
335.8028932383851
 51
353.7061374249033
  0
LINE
  5
13C2E
330
747D
100
AcDbEntity
  8
部品1
 48
5.0
100
AcDbLine
 10
5837.044829595775
 20
5903.7167183653
 30
0.0000000000002935
 11
5837.044829595775
 21
5966.770445907769
 31
0.0000000000002935
  0
LINE
  5
13C2F
330
747D
100
AcDbEntity
  8
部品1
 48
4.0
100
AcDbLine
 10
3037.544829596009
 20
6131.716718364732
 30
-0.000000000000296
 11
4224.368706084496
 21
6131.716718364732
 31
-0.000000000000296
  0
LINE
  5
13C30
330
747D
100
AcDbEntity
  8
部品1
 48
4.0
100
AcDbLine
 10
4210.703297270505
 20
6182.716718364733
 30
-0.000000000000296
 11
3037.544829596009
 21
6182.716718364733
 31
-0.000000000000296
  0
LINE
  5
13C31
330
747D
100
AcDbEntity
  8
部品1
 48
4.0
100
AcDbLine
 10
4216.330230311563
 20
6161.716718364733
 30
-0.000000000000296
 11
3037.544829596009
 21
6161.716718364733
 31
-0.000000000000296
  0
LINE
  5
13C32
330
747D
100
AcDbEntity
  8
部品1
 48
4.0
100
AcDbLine
 10
3037.544829596009
 20
6814.716718364732
 30
-0.000000000000296
 11
4041.359407654032
 21
6814.716718364732
 31
-0.000000000000296
  0
LINE
  5
13C33
330
747D
100
AcDbEntity
  8
部品1
 48
4.0
100
AcDbLine
 10
4033.320931881099
 20
6844.716718364733
 30
-0.000000000000296
 11
3037.544829596009
 21
6844.716718364733
 31
-0.000000000000296
  0
LINE
  5
13C34
330
747D
100
AcDbEntity
  8
部品1
 48
4.0
100
AcDbLine
 10
4045.981201285955
 20
6865.716718364733
 30
-0.000000000000296
 11
3037.544829596009
 21
6865.716718364733
 31
-0.000000000000296
  0
LINE
  5
13C35
330
747D
100
AcDbEntity
  8
部品1
 48
4.0
100
AcDbLine
 10
3844.684700409591
 20
7548.716718364733
 30
-0.000000000000296
 11
3037.544829596009
 21
7548.716718364733
 31
-0.000000000000296
  0
LINE
  5
13C36
330
747D
100
AcDbEntity
  8
点線
 48
10.0
100
AcDbLine
 10
2998.044829596082
 20
7497.716718364732
 30
-0.000000000000296
 11
2998.044829596082
 21
7548.716718364733
 31
-0.000000000000296
  0
LINE
  5
13C37
330
747D
100
AcDbEntity
  8
部品1
 48
4.0
100
AcDbLine
 10
3850.311633450649
 20
7527.716718364732
 30
-0.000000000000296
 11
3037.544829596009
 21
7527.716718364732
 31
-0.000000000000296
  0
LINE
  5
13C38
330
747D
100
AcDbEntity
  8
部品1
 48
4.0
100
AcDbLine
 10
3037.544829596009
 20
7497.716718364732
 30
-0.000000000000296
 11
3858.350109223582
 21
7497.716718364732
 31
-0.000000000000296
  0
LINE
  5
13C39
330
747D
100
AcDbEntity
  8
部品1
100
AcDbLine
 10
4218.846810559931
 20
7896.185095933754
 30
0.0
 11
4234.242848632057
 21
7896.185095933754
 31
0.0
  0
ARC
  5
13C3A
330
747D
100
AcDbEntity
  8
部品1
100
AcDbCircle
 10
4218.846810559931
 20
7893.185095933754
 30
0.0
 40
3.0
100
AcDbArc
 50
90.0
 51
164.9999999998165
  0
LINE
  5
13C3B
330
747D
100
AcDbEntity
  8
部品1
100
AcDbLine
 10
4215.949033081066
 20
7893.961553069072
 30
0.0
 11
4213.156063401519
 21
7883.538048320996
 31
0.0
  0
ARC
  5
13C3C
330
747D
100
AcDbEntity
  8
部品1
100
AcDbCircle
 10
4210.741248835795
 20
7884.185095933753
 30
0.0
 40
2.5
100
AcDbArc
 50
270.0
 51
344.9999999998166
  0
ARC
  5
13C3D
330
747D
100
AcDbEntity
  8
部品1
100
AcDbCircle
 10
4234.242848632057
 20
7893.185095933754
 30
0.0
 40
3.0
100
AcDbArc
 50
15.00000000018343
 51
90.0
  0
LINE
  5
13C3E
330
747D
100
AcDbEntity
  8
部品1
100
AcDbLine
 10
4237.140626110922
 20
7893.961553069072
 30
0.0
 11
4239.93359579047
 21
7883.538048320996
 31
0.0
  0
ARC
  5
13C3F
330
747D
100
AcDbEntity
  8
部品1
100
AcDbCircle
 10
4242.348410356193
 20
7884.185095933753
 30
0.0
 40
2.5
100
AcDbArc
 50
195.0000000001834
 51
270.0
  0
LINE
  5
13C40
330
747D
100
AcDbEntity
  8
部品1
100
AcDbLine
 10
4350.741248835794
 20
7881.685095933768
 30
0.0
 11
4242.348410356193
 21
7881.685095933754
 31
0.0
  0
ARC
  5
13C41
330
747D
100
AcDbEntity
  8
部品1
100
AcDbCircle
 10
4350.741248835794
 20
7884.185095933753
 30
0.0
 40
2.5
100
AcDbArc
 50
270.0
 51
344.9999999998166
  0
LINE
  5
13C42
330
747D
100
AcDbEntity
  8
部品1
100
AcDbLine
 10
4355.949033081066
 20
7893.961553069072
 30
0.0
 11
4353.156063401518
 21
7883.538048320996
 31
0.0
  0
ARC
  5
13C43
330
747D
100
AcDbEntity
  8
部品1
100
AcDbCircle
 10
4358.84681055993
 20
7893.185095933754
 30
0.0
 40
3.0
100
AcDbArc
 50
90.0
 51
164.9999999998165
  0
LINE
  5
13C44
330
747D
100
AcDbEntity
  8
部品1
100
AcDbLine
 10
4358.84681055993
 20
7896.185095933754
 30
0.0
 11
4374.242848632056
 21
7896.185095933754
 31
0.0
  0
ARC
  5
13C45
330
747D
100
AcDbEntity
  8
部品1
100
AcDbCircle
 10
4374.242848632056
 20
7893.185095933754
 30
0.0
 40
3.0
100
AcDbArc
 50
15.00000000018343
 51
90.0
  0
LINE
  5
13C46
330
747D
100
AcDbEntity
  8
部品1
100
AcDbLine
 10
4377.140626110922
 20
7893.961553069072
 30
0.0
 11
4379.933595790469
 21
7883.538048320996
 31
0.0
  0
ARC
  5
13C47
330
747D
100
AcDbEntity
  8
部品1
100
AcDbCircle
 10
4382.348410356192
 20
7884.185095933753
 30
0.0
 40
2.5
100
AcDbArc
 50
195.0000000001834
 51
270.0
  0
LINE
  5
13C48
330
747D
100
AcDbEntity
  8
部品1
100
AcDbLine
 10
4470.741248835795
 20
7881.685095933739
 30
0.0
 11
4382.348410356192
 21
7881.685095933754
 31
0.0
  0
ARC
  5
13C49
330
747D
100
AcDbEntity
  8
部品1
100
AcDbCircle
 10
4470.741248835795
 20
7884.185095933753
 30
0.0
 40
2.5
100
AcDbArc
 50
270.0
 51
344.9999999998166
  0
LINE
  5
13C4A
330
747D
100
AcDbEntity
  8
部品1
100
AcDbLine
 10
4475.949033081065
 20
7893.961553069072
 30
0.0
 11
4473.156063401519
 21
7883.538048320996
 31
0.0
  0
ARC
  5
13C4B
330
747D
100
AcDbEntity
  8
部品1
100
AcDbCircle
 10
4478.846810559931
 20
7893.185095933754
 30
0.0
 40
3.0
100
AcDbArc
 50
90.0
 51
164.9999999998165
  0
LINE
  5
13C4C
330
747D
100
AcDbEntity
  8
部品1
100
AcDbLine
 10
4478.846810559931
 20
7896.185095933754
 30
0.0
 11
4494.242848632057
 21
7896.185095933754
 31
0.0
  0
ARC
  5
13C4D
330
747D
100
AcDbEntity
  8
部品1
100
AcDbCircle
 10
4494.242848632057
 20
7893.185095933754
 30
0.0
 40
3.0
100
AcDbArc
 50
15.00000000018343
 51
90.0
  0
LINE
  5
13C4E
330
747D
100
AcDbEntity
  8
部品1
100
AcDbLine
 10
4497.140626110922
 20
7893.961553069072
 30
0.0
 11
4499.933595790469
 21
7883.538048320996
 31
0.0
  0
ARC
  5
13C4F
330
747D
100
AcDbEntity
  8
部品1
100
AcDbCircle
 10
4502.348410356193
 20
7884.185095933753
 30
0.0
 40
2.5
100
AcDbArc
 50
195.0000000001834
 51
270.0
  0
LINE
  5
13C50
330
747D
100
AcDbEntity
  8
部品1
100
AcDbLine
 10
4610.741248835795
 20
7881.685095933754
 30
0.0
 11
4502.348410356193
 21
7881.685095933768
 31
0.0
  0
LINE
  5
13C51
330
747D
100
AcDbEntity
  8
部品1
100
AcDbLine
 10
4210.741248835795
 20
7881.685095933754
 30
0.0
 11
4102.348410356193
 21
7881.685095933768
 31
0.0
  0
ARC
  5
13C52
330
747D
100
AcDbEntity
  8
部品1
100
AcDbCircle
 10
4102.348410356193
 20
7884.185095933753
 30
0.0
 40
2.5
100
AcDbArc
 50
195.0000000001834
 51
270.0
  0
LINE
  5
13C53
330
747D
100
AcDbEntity
  8
部品1
100
AcDbLine
 10
4097.140626110922
 20
7893.961553069072
 30
0.0
 11
4099.93359579047
 21
7883.538048320996
 31
0.0
  0
ARC
  5
13C54
330
747D
100
AcDbEntity
  8
部品1
100
AcDbCircle
 10
4094.242848632057
 20
7893.185095933754
 30
0.0
 40
3.0
100
AcDbArc
 50
15.00000000018343
 51
90.0
  0
LINE
  5
13C55
330
747D
100
AcDbEntity
  8
部品1
100
AcDbLine
 10
4078.846810559931
 20
7896.185095933754
 30
0.0
 11
4094.242848632057
 21
7896.185095933754
 31
0.0
  0
ARC
  5
13C56
330
747D
100
AcDbEntity
  8
部品1
100
AcDbCircle
 10
4078.846810559931
 20
7893.185095933754
 30
0.0
 40
3.0
100
AcDbArc
 50
90.0
 51
164.9999999998165
  0
LINE
  5
13C57
330
747D
100
AcDbEntity
  8
部品1
100
AcDbLine
 10
4075.949033081065
 20
7893.961553069072
 30
0.0
 11
4073.156063401518
 21
7883.538048320996
 31
0.0
  0
ARC
  5
13C58
330
747D
100
AcDbEntity
  8
部品1
100
AcDbCircle
 10
4070.741248835795
 20
7884.185095933753
 30
0.0
 40
2.5
100
AcDbArc
 50
270.0
 51
344.9999999998166
  0
LINE
  5
13C59
330
747D
100
AcDbEntity
  8
部品1
100
AcDbLine
 10
4070.741248835795
 20
7881.685095933739
 30
0.0
 11
3982.348410356193
 21
7881.685095933754
 31
0.0
  0
ARC
  5
13C5A
330
747D
100
AcDbEntity
  8
部品1
100
AcDbCircle
 10
3982.348410356193
 20
7884.185095933753
 30
0.0
 40
2.5
100
AcDbArc
 50
195.0000000001834
 51
270.0
  0
LINE
  5
13C5B
330
747D
100
AcDbEntity
  8
部品1
100
AcDbLine
 10
3977.140626110923
 20
7893.961553069072
 30
0.0
 11
3979.93359579047
 21
7883.538048320996
 31
0.0
  0
ARC
  5
13C5C
330
747D
100
AcDbEntity
  8
部品1
100
AcDbCircle
 10
3974.242848632057
 20
7893.185095933754
 30
0.0
 40
3.0
100
AcDbArc
 50
15.00000000018343
 51
90.0
  0
LINE
  5
13C5D
330
747D
100
AcDbEntity
  8
部品1
100
AcDbLine
 10
3958.846810559931
 20
7896.185095933754
 30
0.0
 11
3974.242848632057
 21
7896.185095933754
 31
0.0
  0
ARC
  5
13C5E
330
747D
100
AcDbEntity
  8
部品1
100
AcDbCircle
 10
3958.846810559931
 20
7893.185095933754
 30
0.0
 40
3.0
100
AcDbArc
 50
90.0
 51
164.9999999998165
  0
LINE
  5
13C5F
330
747D
100
AcDbEntity
  8
部品1
100
AcDbLine
 10
3955.949033081066
 20
7893.961553069072
 30
0.0
 11
3953.156063401518
 21
7883.538048320996
 31
0.0
  0
ARC
  5
13C60
330
747D
100
AcDbEntity
  8
部品1
100
AcDbCircle
 10
3950.741248835795
 20
7884.185095933753
 30
0.0
 40
2.5
100
AcDbArc
 50
270.0
 51
344.9999999998166
  0
LINE
  5
13C61
330
747D
100
AcDbEntity
  8
部品1
100
AcDbLine
 10
3950.741248835795
 20
7881.685095933768
 30
0.0
 11
3842.348410356193
 21
7881.685095933754
 31
0.0
  0
ARC
  5
13C62
330
747D
100
AcDbEntity
  8
部品1
100
AcDbCircle
 10
3842.348410356193
 20
7884.185095933753
 30
0.0
 40
2.5
100
AcDbArc
 50
195.0000000001834
 51
270.0
  0
LINE
  5
13C63
330
747D
100
AcDbEntity
  8
部品1
100
AcDbLine
 10
3837.140626110922
 20
7893.961553069072
 30
0.0
 11
3839.93359579047
 21
7883.538048320996
 31
0.0
  0
ARC
  5
13C64
330
747D
100
AcDbEntity
  8
部品1
100
AcDbCircle
 10
3834.242848632057
 20
7893.185095933754
 30
0.0
 40
3.0
100
AcDbArc
 50
15.00000000018343
 51
90.0
  0
ARC
  5
13C65
330
747D
100
AcDbEntity
  8
部品1
100
AcDbCircle
 10
3810.741248835795
 20
7884.185095933753
 30
0.0
 40
2.5
100
AcDbArc
 50
270.0
 51
344.9999999998166
  0
LINE
  5
13C66
330
747D
100
AcDbEntity
  8
部品1
100
AcDbLine
 10
3815.949033081066
 20
7893.961553069072
 30
0.0
 11
3813.156063401519
 21
7883.538048320996
 31
0.0
  0
ARC
  5
13C67
330
747D
100
AcDbEntity
  8
部品1
100
AcDbCircle
 10
3818.846810559931
 20
7893.185095933754
 30
0.0
 40
3.0
100
AcDbArc
 50
90.0
 51
164.9999999998165
  0
LINE
  5
13C68
330
747D
100
AcDbEntity
  8
部品1
100
AcDbLine
 10
3818.846810559931
 20
7896.185095933754
 30
0.0
 11
3834.242848632057
 21
7896.185095933754
 31
0.0
  0
LINE
  5
13C69
330
747D
100
AcDbEntity
  8
部品1
100
AcDbLine
 10
3810.741248835795
 20
7881.685095933754
 30
0.0
 11
3755.466092534873
 21
7881.685095933761
 31
0.0
  0
LINE
  5
13C6A
330
747D
100
AcDbEntity
  8
部品1
100
AcDbLine
 10
5418.846810559931
 20
7896.185095933754
 30
0.0
 11
5434.242848632057
 21
7896.185095933754
 31
0.0
  0
ARC
  5
13C6B
330
747D
100
AcDbEntity
  8
部品1
100
AcDbCircle
 10
5418.846810559931
 20
7893.185095933754
 30
0.0
 40
3.0
100
AcDbArc
 50
90.0
 51
164.9999999998165
  0
LINE
  5
13C6C
330
747D
100
AcDbEntity
  8
部品1
100
AcDbLine
 10
5415.949033081066
 20
7893.961553069072
 30
0.0
 11
5413.156063401519
 21
7883.538048320996
 31
0.0
  0
ARC
  5
13C6D
330
747D
100
AcDbEntity
  8
部品1
100
AcDbCircle
 10
5410.741248835795
 20
7884.185095933753
 30
0.0
 40
2.5
100
AcDbArc
 50
270.0
 51
344.9999999998166
  0
ARC
  5
13C6E
330
747D
100
AcDbEntity
  8
部品1
100
AcDbCircle
 10
5434.242848632057
 20
7893.185095933754
 30
0.0
 40
3.0
100
AcDbArc
 50
15.00000000018343
 51
90.0
  0
LINE
  5
13C6F
330
747D
100
AcDbEntity
  8
部品1
100
AcDbLine
 10
5437.140626110922
 20
7893.961553069072
 30
0.0
 11
5439.93359579047
 21
7883.538048320996
 31
0.0
  0
ARC
  5
13C70
330
747D
100
AcDbEntity
  8
部品1
100
AcDbCircle
 10
5442.348410356193
 20
7884.185095933753
 30
0.0
 40
2.5
100
AcDbArc
 50
195.0000000001834
 51
270.0
  0
LINE
  5
13C71
330
747D
100
AcDbEntity
  8
部品1
100
AcDbLine
 10
5018.846810559931
 20
7896.185095933754
 30
0.0
 11
5034.242848632057
 21
7896.185095933754
 31
0.0
  0
ARC
  5
13C72
330
747D
100
AcDbEntity
  8
部品1
100
AcDbCircle
 10
5018.846810559931
 20
7893.185095933754
 30
0.0
 40
3.0
100
AcDbArc
 50
90.0
 51
164.9999999998165
  0
LINE
  5
13C73
330
747D
100
AcDbEntity
  8
部品1
100
AcDbLine
 10
5015.949033081066
 20
7893.961553069072
 30
0.0
 11
5013.156063401519
 21
7883.538048320996
 31
0.0
  0
ARC
  5
13C74
330
747D
100
AcDbEntity
  8
部品1
100
AcDbCircle
 10
5010.741248835795
 20
7884.185095933753
 30
0.0
 40
2.5
100
AcDbArc
 50
270.0
 51
344.9999999998166
  0
ARC
  5
13C75
330
747D
100
AcDbEntity
  8
部品1
100
AcDbCircle
 10
5034.242848632057
 20
7893.185095933754
 30
0.0
 40
3.0
100
AcDbArc
 50
15.00000000018343
 51
90.0
  0
LINE
  5
13C76
330
747D
100
AcDbEntity
  8
部品1
100
AcDbLine
 10
5037.140626110922
 20
7893.961553069072
 30
0.0
 11
5039.933595790469
 21
7883.538048320996
 31
0.0
  0
ARC
  5
13C77
330
747D
100
AcDbEntity
  8
部品1
100
AcDbCircle
 10
5042.348410356193
 20
7884.185095933753
 30
0.0
 40
2.5
100
AcDbArc
 50
195.0000000001834
 51
270.0
  0
LINE
  5
13C78
330
747D
100
AcDbEntity
  8
部品1
100
AcDbLine
 10
5150.741248835795
 20
7881.685095933768
 30
0.0
 11
5042.348410356193
 21
7881.685095933754
 31
0.0
  0
ARC
  5
13C79
330
747D
100
AcDbEntity
  8
部品1
100
AcDbCircle
 10
5150.741248835795
 20
7884.185095933753
 30
0.0
 40
2.5
100
AcDbArc
 50
270.0
 51
344.9999999998166
  0
LINE
  5
13C7A
330
747D
100
AcDbEntity
  8
部品1
100
AcDbLine
 10
5155.949033081066
 20
7893.961553069072
 30
0.0
 11
5153.156063401518
 21
7883.538048320996
 31
0.0
  0
ARC
  5
13C7B
330
747D
100
AcDbEntity
  8
部品1
100
AcDbCircle
 10
5158.846810559931
 20
7893.185095933754
 30
0.0
 40
3.0
100
AcDbArc
 50
90.0
 51
164.9999999998165
  0
LINE
  5
13C7C
330
747D
100
AcDbEntity
  8
部品1
100
AcDbLine
 10
5158.846810559931
 20
7896.185095933754
 30
0.0
 11
5174.242848632057
 21
7896.185095933754
 31
0.0
  0
ARC
  5
13C7D
330
747D
100
AcDbEntity
  8
部品1
100
AcDbCircle
 10
5174.242848632057
 20
7893.185095933754
 30
0.0
 40
3.0
100
AcDbArc
 50
15.00000000018343
 51
90.0
  0
LINE
  5
13C7E
330
747D
100
AcDbEntity
  8
部品1
100
AcDbLine
 10
5177.140626110922
 20
7893.961553069072
 30
0.0
 11
5179.933595790469
 21
7883.538048320996
 31
0.0
  0
ARC
  5
13C7F
330
747D
100
AcDbEntity
  8
部品1
100
AcDbCircle
 10
5182.348410356193
 20
7884.185095933753
 30
0.0
 40
2.5
100
AcDbArc
 50
195.0000000001834
 51
270.0
  0
LINE
  5
13C80
330
747D
100
AcDbEntity
  8
部品1
100
AcDbLine
 10
5270.741248835795
 20
7881.685095933739
 30
0.0
 11
5182.348410356193
 21
7881.685095933754
 31
0.0
  0
ARC
  5
13C81
330
747D
100
AcDbEntity
  8
部品1
100
AcDbCircle
 10
5270.741248835795
 20
7884.185095933753
 30
0.0
 40
2.5
100
AcDbArc
 50
270.0
 51
344.9999999998166
  0
LINE
  5
13C82
330
747D
100
AcDbEntity
  8
部品1
100
AcDbLine
 10
5275.949033081065
 20
7893.961553069072
 30
0.0
 11
5273.156063401518
 21
7883.538048320996
 31
0.0
  0
ARC
  5
13C83
330
747D
100
AcDbEntity
  8
部品1
100
AcDbCircle
 10
5278.846810559931
 20
7893.185095933754
 30
0.0
 40
3.0
100
AcDbArc
 50
90.0
 51
164.9999999998165
  0
LINE
  5
13C84
330
747D
100
AcDbEntity
  8
部品1
100
AcDbLine
 10
5278.846810559931
 20
7896.185095933754
 30
0.0
 11
5294.242848632057
 21
7896.185095933754
 31
0.0
  0
ARC
  5
13C85
330
747D
100
AcDbEntity
  8
部品1
100
AcDbCircle
 10
5294.242848632057
 20
7893.185095933754
 30
0.0
 40
3.0
100
AcDbArc
 50
15.00000000018343
 51
90.0
  0
LINE
  5
13C86
330
747D
100
AcDbEntity
  8
部品1
100
AcDbLine
 10
5297.140626110922
 20
7893.961553069072
 30
0.0
 11
5299.93359579047
 21
7883.538048320996
 31
0.0
  0
ARC
  5
13C87
330
747D
100
AcDbEntity
  8
部品1
100
AcDbCircle
 10
5302.348410356193
 20
7884.185095933753
 30
0.0
 40
2.5
100
AcDbArc
 50
195.0000000001834
 51
270.0
  0
LINE
  5
13C88
330
747D
100
AcDbEntity
  8
部品1
100
AcDbLine
 10
5410.741248835795
 20
7881.685095933754
 30
0.0
 11
5302.348410356193
 21
7881.685095933768
 31
0.0
  0
LINE
  5
13C89
330
747D
100
AcDbEntity
  8
部品1
100
AcDbLine
 10
5010.741248835795
 20
7881.685095933754
 30
0.0
 11
4902.348410356193
 21
7881.685095933768
 31
0.0
  0
ARC
  5
13C8A
330
747D
100
AcDbEntity
  8
部品1
100
AcDbCircle
 10
4902.348410356193
 20
7884.185095933753
 30
0.0
 40
2.5
100
AcDbArc
 50
195.0000000001834
 51
270.0
  0
LINE
  5
13C8B
330
747D
100
AcDbEntity
  8
部品1
100
AcDbLine
 10
4897.140626110922
 20
7893.961553069072
 30
0.0
 11
4899.93359579047
 21
7883.538048320996
 31
0.0
  0
ARC
  5
13C8C
330
747D
100
AcDbEntity
  8
部品1
100
AcDbCircle
 10
4894.242848632057
 20
7893.185095933754
 30
0.0
 40
3.0
100
AcDbArc
 50
15.00000000018343
 51
90.0
  0
LINE
  5
13C8D
330
747D
100
AcDbEntity
  8
部品1
100
AcDbLine
 10
4878.846810559931
 20
7896.185095933754
 30
0.0
 11
4894.242848632057
 21
7896.185095933754
 31
0.0
  0
ARC
  5
13C8E
330
747D
100
AcDbEntity
  8
部品1
100
AcDbCircle
 10
4878.846810559931
 20
7893.185095933754
 30
0.0
 40
3.0
100
AcDbArc
 50
90.0
 51
164.9999999998165
  0
LINE
  5
13C8F
330
747D
100
AcDbEntity
  8
部品1
100
AcDbLine
 10
4875.949033081066
 20
7893.961553069072
 30
0.0
 11
4873.156063401519
 21
7883.538048320996
 31
0.0
  0
ARC
  5
13C90
330
747D
100
AcDbEntity
  8
部品1
100
AcDbCircle
 10
4870.741248835795
 20
7884.185095933753
 30
0.0
 40
2.5
100
AcDbArc
 50
270.0
 51
344.9999999998166
  0
LINE
  5
13C91
330
747D
100
AcDbEntity
  8
部品1
100
AcDbLine
 10
4870.741248835795
 20
7881.685095933739
 30
0.0
 11
4782.348410356193
 21
7881.685095933754
 31
0.0
  0
ARC
  5
13C92
330
747D
100
AcDbEntity
  8
部品1
100
AcDbCircle
 10
4782.348410356193
 20
7884.185095933753
 30
0.0
 40
2.5
100
AcDbArc
 50
195.0000000001834
 51
270.0
  0
LINE
  5
13C93
330
747D
100
AcDbEntity
  8
部品1
100
AcDbLine
 10
4777.140626110923
 20
7893.961553069072
 30
0.0
 11
4779.93359579047
 21
7883.538048320996
 31
0.0
  0
ARC
  5
13C94
330
747D
100
AcDbEntity
  8
部品1
100
AcDbCircle
 10
4774.242848632057
 20
7893.185095933754
 30
0.0
 40
3.0
100
AcDbArc
 50
15.00000000018343
 51
90.0
  0
LINE
  5
13C95
330
747D
100
AcDbEntity
  8
部品1
100
AcDbLine
 10
4758.846810559931
 20
7896.185095933754
 30
0.0
 11
4774.242848632057
 21
7896.185095933754
 31
0.0
  0
ARC
  5
13C96
330
747D
100
AcDbEntity
  8
部品1
100
AcDbCircle
 10
4758.846810559931
 20
7893.185095933754
 30
0.0
 40
3.0
100
AcDbArc
 50
90.0
 51
164.9999999998165
  0
LINE
  5
13C97
330
747D
100
AcDbEntity
  8
部品1
100
AcDbLine
 10
4755.949033081066
 20
7893.961553069072
 30
0.0
 11
4753.156063401518
 21
7883.538048320996
 31
0.0
  0
ARC
  5
13C98
330
747D
100
AcDbEntity
  8
部品1
100
AcDbCircle
 10
4750.741248835795
 20
7884.185095933753
 30
0.0
 40
2.5
100
AcDbArc
 50
270.0
 51
344.9999999998166
  0
LINE
  5
13C99
330
747D
100
AcDbEntity
  8
部品1
100
AcDbLine
 10
4750.741248835795
 20
7881.685095933768
 30
0.0
 11
4642.348410356193
 21
7881.685095933754
 31
0.0
  0
ARC
  5
13C9A
330
747D
100
AcDbEntity
  8
部品1
100
AcDbCircle
 10
4642.348410356193
 20
7884.185095933753
 30
0.0
 40
2.5
100
AcDbArc
 50
195.0000000001834
 51
270.0
  0
LINE
  5
13C9B
330
747D
100
AcDbEntity
  8
部品1
100
AcDbLine
 10
4637.140626110922
 20
7893.961553069072
 30
0.0
 11
4639.933595790469
 21
7883.538048320996
 31
0.0
  0
ARC
  5
13C9C
330
747D
100
AcDbEntity
  8
部品1
100
AcDbCircle
 10
4634.242848632057
 20
7893.185095933754
 30
0.0
 40
3.0
100
AcDbArc
 50
15.00000000018343
 51
90.0
  0
ARC
  5
13C9D
330
747D
100
AcDbEntity
  8
部品1
100
AcDbCircle
 10
4610.741248835795
 20
7884.185095933753
 30
0.0
 40
2.5
100
AcDbArc
 50
270.0
 51
344.9999999998166
  0
LINE
  5
13C9E
330
747D
100
AcDbEntity
  8
部品1
100
AcDbLine
 10
4615.949033081066
 20
7893.961553069072
 30
0.0
 11
4613.156063401518
 21
7883.538048320996
 31
0.0
  0
ARC
  5
13C9F
330
747D
100
AcDbEntity
  8
部品1
100
AcDbCircle
 10
4618.846810559931
 20
7893.185095933754
 30
0.0
 40
3.0
100
AcDbArc
 50
90.0
 51
164.9999999998165
  0
LINE
  5
13CA0
330
747D
100
AcDbEntity
  8
部品1
100
AcDbLine
 10
4618.846810559931
 20
7896.185095933754
 30
0.0
 11
4634.242848632057
 21
7896.185095933754
 31
0.0
  0
ARC
  5
13CA1
330
747D
100
AcDbEntity
  8
部品1
100
AcDbCircle
 10
5702.348410356194
 20
7884.185095933753
 30
0.0
 40
2.5
100
AcDbArc
 50
195.0000000001834
 51
270.0
  0
LINE
  5
13CA2
330
747D
100
AcDbEntity
  8
部品1
100
AcDbLine
 10
5697.140626110922
 20
7893.961553069072
 30
0.0
 11
5699.933595790469
 21
7883.538048320996
 31
0.0
  0
ARC
  5
13CA3
330
747D
100
AcDbEntity
  8
部品1
100
AcDbCircle
 10
5694.242848632057
 20
7893.185095933754
 30
0.0
 40
3.0
100
AcDbArc
 50
15.00000000018343
 51
90.0
  0
LINE
  5
13CA4
330
747D
100
AcDbEntity
  8
部品1
100
AcDbLine
 10
5678.846810559932
 20
7896.185095933754
 30
0.0
 11
5694.242848632057
 21
7896.185095933754
 31
0.0
  0
ARC
  5
13CA5
330
747D
100
AcDbEntity
  8
部品1
100
AcDbCircle
 10
5678.846810559932
 20
7893.185095933754
 30
0.0
 40
3.0
100
AcDbArc
 50
90.0
 51
164.9999999998165
  0
LINE
  5
13CA6
330
747D
100
AcDbEntity
  8
部品1
100
AcDbLine
 10
5675.949033081066
 20
7893.961553069072
 30
0.0
 11
5673.156063401519
 21
7883.538048320996
 31
0.0
  0
ARC
  5
13CA7
330
747D
100
AcDbEntity
  8
部品1
100
AcDbCircle
 10
5670.741248835796
 20
7884.185095933753
 30
0.0
 40
2.5
100
AcDbArc
 50
270.0
 51
344.9999999998166
  0
LINE
  5
13CA8
330
747D
100
AcDbEntity
  8
部品1
100
AcDbLine
 10
5670.741248835796
 20
7881.685095933739
 30
0.0
 11
5582.348410356193
 21
7881.685095933754
 31
0.0
  0
ARC
  5
13CA9
330
747D
100
AcDbEntity
  8
部品1
100
AcDbCircle
 10
5582.348410356193
 20
7884.185095933753
 30
0.0
 40
2.5
100
AcDbArc
 50
195.0000000001834
 51
270.0
  0
LINE
  5
13CAA
330
747D
100
AcDbEntity
  8
部品1
100
AcDbLine
 10
5577.140626110923
 20
7893.961553069072
 30
0.0
 11
5579.933595790469
 21
7883.538048320996
 31
0.0
  0
ARC
  5
13CAB
330
747D
100
AcDbEntity
  8
部品1
100
AcDbCircle
 10
5574.242848632056
 20
7893.185095933754
 30
0.0
 40
3.0
100
AcDbArc
 50
15.00000000018343
 51
90.0
  0
LINE
  5
13CAC
330
747D
100
AcDbEntity
  8
部品1
100
AcDbLine
 10
5558.846810559931
 20
7896.185095933754
 30
0.0
 11
5574.242848632056
 21
7896.185095933754
 31
0.0
  0
ARC
  5
13CAD
330
747D
100
AcDbEntity
  8
部品1
100
AcDbCircle
 10
5558.846810559931
 20
7893.185095933754
 30
0.0
 40
3.0
100
AcDbArc
 50
90.0
 51
164.9999999998165
  0
LINE
  5
13CAE
330
747D
100
AcDbEntity
  8
部品1
100
AcDbLine
 10
5555.949033081066
 20
7893.961553069072
 30
0.0
 11
5553.156063401519
 21
7883.538048320996
 31
0.0
  0
ARC
  5
13CAF
330
747D
100
AcDbEntity
  8
部品1
100
AcDbCircle
 10
5550.741248835795
 20
7884.185095933753
 30
0.0
 40
2.5
100
AcDbArc
 50
270.0
 51
344.9999999998166
  0
LINE
  5
13CB0
330
747D
100
AcDbEntity
  8
部品1
100
AcDbLine
 10
5550.741248835795
 20
7881.685095933768
 30
0.0
 11
5442.348410356193
 21
7881.685095933754
 31
0.0
  0
LINE
  5
13CB1
330
747D
100
AcDbEntity
  8
部品1
100
AcDbLine
 10
5815.544829595979
 20
7888.720994318544
 30
0.0
 11
5814.156063401519
 21
7883.538048320982
 31
0.0
  0
ARC
  5
13CB2
330
747D
100
AcDbEntity
  8
部品1
100
AcDbCircle
 10
5811.741248835795
 20
7884.185095933732
 30
0.0
 40
2.5
100
AcDbArc
 50
270.0
 51
344.9999999998166
  0
LINE
  5
13CB3
330
747D
100
AcDbEntity
  8
部品1
100
AcDbLine
 10
5811.741248835795
 20
7881.685095933739
 30
0.0
 11
5702.348410356194
 21
7881.685095933754
 31
0.0
  0
ARC
  5
13CB4
330
747D
100
AcDbEntity
  8
部品1
 48
50.0
100
AcDbCircle
 10
3226.544829596008
 20
7766.427768474772
 30
0.0
 40
44.55000000000313
100
AcDbArc
 50
0.0
 51
180.0
  0
LINE
  5
13CB5
330
747D
100
AcDbEntity
  8
部品1
 48
50.0
100
AcDbLine
 10
3271.094829596012
 20
7766.427768474772
 30
0.0
 11
3271.094829596012
 21
7548.716718364736
 31
0.0
  0
LINE
  5
13CB6
330
747D
100
AcDbEntity
  8
部品1
 48
50.0
100
AcDbLine
 10
3181.994829596006
 20
6027.76539745886
 30
0.0
 11
3181.994829596006
 21
6131.716718364732
 31
0.0
  0
LINE
  5
13CB7
330
747D
100
AcDbEntity
  8
部品1
 48
50.0
100
AcDbLine
 10
5815.544829595979
 20
7916.184719782926
 30
0.0
 11
3037.544829596009
 21
7916.184719782926
 31
0.0
  0
LINE
  5
13CB8
330
747D
100
AcDbEntity
  8
部品1
 48
50.0
100
AcDbLine
 10
5815.544829595979
 20
7921.184719782941
 30
0.0
 11
3037.544829596009
 21
7921.184719782941
 31
0.0
  0
LINE
  5
13CB9
330
747D
100
AcDbEntity
  8
部品1
 48
50.0
100
AcDbLine
 10
3037.544829596009
 20
7923.716718365297
 30
0.0
 11
2996.544829596009
 21
7923.716718365297
 31
0.0
  0
LINE
  5
13CBA
330
747D
100
AcDbEntity
  8
部品1
 48
50.0
100
AcDbLine
 10
3271.544829596009
 20
6012.765397458861
 30
0.0
 11
3181.544829596009
 21
6012.765397458861
 31
0.0
  0
LINE
  5
13CBB
330
747D
100
AcDbEntity
  8
部品1
 48
50.0
100
AcDbLine
 10
3179.544829596009
 20
6027.76539745886
 30
0.0
 11
3273.544829596009
 21
6027.76539745886
 31
0.0
  0
LINE
  5
13CBC
330
747D
100
AcDbEntity
  8
部品1
 48
50.0
100
AcDbLine
 10
3273.544829596009
 20
6027.76539745886
 30
0.0
 11
3273.544829596009
 21
6014.765397458861
 31
0.0
  0
LINE
  5
13CBD
330
747D
100
AcDbEntity
  8
部品1
 48
50.0
100
AcDbLine
 10
3179.544829596009
 20
6027.76539745886
 30
0.0
 11
3179.544829596009
 21
6014.765397458861
 31
0.0
  0
ARC
  5
13CBE
330
747D
100
AcDbEntity
  8
部品1
 48
50.0
100
AcDbCircle
 10
3226.544829596008
 20
6170.265397458861
 30
0.0
 40
162.4999999999999
100
AcDbArc
 50
255.7499673024077
 51
284.2500326975923
  0
ARC
  5
13CBF
330
747D
100
AcDbEntity
  8
部品1
 48
50.0
100
AcDbCircle
 10
3271.544829596009
 20
6014.765397458861
 30
0.0
 40
2.0
100
AcDbArc
 50
270.0
 51
0.0
  0
ARC
  5
13CC0
330
747D
100
AcDbEntity
  8
部品1
 48
50.0
100
AcDbCircle
 10
3181.544829596009
 20
6014.765397458861
 30
0.0
 40
2.0
100
AcDbArc
 50
180.0
 51
270.0
  0
LINE
  5
13CC1
330
747D
100
AcDbEntity
  8
点線
 48
50.0
100
AcDbLine
 10
5671.544829596008
 20
6012.765397458861
 30
0.0
 11
5581.544829596008
 21
6012.765397458861
 31
0.0
  0
ARC
  5
13CC2
330
747D
100
AcDbEntity
  8
点線
 48
50.0
100
AcDbCircle
 10
5581.544829596008
 20
6014.765397458861
 30
0.0
 40
2.0
100
AcDbArc
 50
180.0
 51
270.0
  0
ARC
  5
13CC3
330
747D
100
AcDbEntity
  8
点線
 48
50.0
100
AcDbCircle
 10
5671.544829596008
 20
6014.765397458861
 30
0.0
 40
2.0
100
AcDbArc
 50
270.0
 51
0.0
  0
ARC
  5
13CC4
330
747D
100
AcDbEntity
  8
点線
 48
50.0
100
AcDbCircle
 10
5626.544829596008
 20
6170.265397458861
 30
0.0
 40
162.4999999999999
100
AcDbArc
 50
255.7499673024077
 51
284.2500326975923
  0
LINE
  5
13CC5
330
747D
100
AcDbEntity
  8
点線
 48
50.0
100
AcDbLine
 10
5579.544829596009
 20
6027.76539745886
 30
0.0
 11
5579.544829596009
 21
6014.765397458861
 31
0.0
  0
LINE
  5
13CC6
330
747D
100
AcDbEntity
  8
点線
 48
50.0
100
AcDbLine
 10
5673.544829596009
 20
6027.76539745886
 30
0.0
 11
5673.544829596009
 21
6014.765397458861
 31
0.0
  0
LINE
  5
13CC7
330
747D
100
AcDbEntity
  8
点線
 48
50.0
100
AcDbLine
 10
5579.544829596009
 20
6027.76539745886
 30
0.0
 11
5673.544829596009
 21
6027.76539745886
 31
0.0
  0
LINE
  5
13CC8
330
747D
100
AcDbEntity
  8
点線
 48
50.0
100
AcDbLine
 10
5671.094829596011
 20
7766.427768474772
 30
0.0
 11
5671.094829596011
 21
7548.716718364733
 31
0.0
  0
LINE
  5
13CC9
330
747D
100
AcDbEntity
  8
点線
 48
50.0
100
AcDbLine
 10
5581.994829596006
 20
6027.76539745886
 30
0.0
 11
5581.994829596006
 21
6131.716718364732
 31
0.0
  0
ARC
  5
13CCA
330
747D
100
AcDbEntity
  8
点線
 48
50.0
100
AcDbCircle
 10
5626.544829596008
 20
7766.427768474772
 30
0.0
 40
44.55000000000313
100
AcDbArc
 50
0.0
 51
180.0
  0
ARC
  5
13CCB
330
747D
100
AcDbEntity
  8
部品1
 48
50.0
100
AcDbCircle
 10
5746.544829596008
 20
7896.184719782941
 30
0.0
 40
17.5
100
AcDbArc
 50
304.0499319342743
 51
235.9500680657257
  0
LINE
  5
13CCC
330
747D
100
AcDbEntity
  8
部品1
 48
50.0
100
AcDbLine
 10
5786.544829595979
 20
3637.104794172374
 30
0.0
 11
5706.54482959598
 21
3637.104794172374
 31
0.0
  0
LINE
  5
13CCD
330
747D
100
AcDbEntity
  8
部品1
 48
50.0
100
AcDbLine
 10
5786.544829595979
 20
3635.104794172374
 30
0.0
 11
5706.54482959598
 21
3635.104794172374
 31
0.0
  0
LINE
  5
13CCE
330
747D
100
AcDbEntity
  8
部品1
 48
50.0
100
AcDbLine
 10
5786.544829595979
 20
3639.104794172367
 30
0.0
 11
5786.544829595979
 21
3635.104794172374
 31
0.0
  0
LINE
  5
13CCF
330
747D
100
AcDbEntity
  8
部品1
 48
50.0
100
AcDbLine
 10
5706.54482959598
 20
3639.104794172367
 30
0.0
 11
5706.54482959598
 21
3635.104794172374
 31
0.0
  0
LINE
  5
13CD0
330
747D
100
AcDbEntity
  8
部品1
 48
50.0
100
AcDbLine
 10
5722.044829595979
 20
3614.752140210956
 30
0.0
 11
5729.476971600147
 21
3572.602368382032
 31
0.0
  0
ARC
  5
13CD1
330
747D
100
AcDbEntity
  8
部品1
 48
50.0
100
AcDbCircle
 10
5737.54482959598
 20
3606.01088769763
 30
0.0
 40
31.5
100
AcDbArc
 50
279.9999999996348
 51
0.0
  0
LINE
  5
13CD2
330
747D
100
AcDbEntity
  8
部品1
 48
50.0
100
AcDbLine
 10
5769.04482959598
 20
3635.104794172374
 30
0.0
 11
5769.04482959598
 21
3606.01088769763
 31
0.0
  0
LINE
  5
13CD3
330
747D
100
AcDbEntity
  8
部品1
 48
50.0
100
AcDbLine
 10
5743.014747192487
 20
3574.989443477746
 30
0.0
 11
5729.476971600161
 21
3572.602368382024
 31
0.0
  0
LINE
  5
13CD4
330
747D
100
AcDbEntity
  8
部品1
 48
50.0
100
AcDbLine
 10
5724.044829595979
 20
3615.104794172374
 30
0.0
 11
5722.044829595994
 21
3614.752140210963
 31
0.0
  0
LINE
  5
13CD5
330
747D
100
AcDbEntity
  8
部品1
 48
50.0
100
AcDbLine
 10
5724.044829595979
 20
3635.104794172374
 30
0.0
 11
5724.044829595979
 21
3615.104794172374
 31
0.0
  0
LINE
  5
13CD6
330
747D
100
AcDbEntity
  8
部品1
 48
50.0
100
AcDbLine
 10
5769.04482959598
 20
3635.104794172374
 30
0.0
 11
5724.044829595979
 21
3635.104794172374
 31
0.0
  0
LINE
  5
13CD7
330
747D
100
AcDbEntity
  8
部品1
 48
50.0
100
AcDbLine
 10
5722.114288867044
 20
3614.358217109759
 30
0.0
 11
5671.094829595983
 21
3605.362109899066
 31
0.0
  0
LINE
  5
13CD8
330
747D
100
AcDbEntity
  8
部品1
 48
50.0
100
AcDbLine
 10
5729.407512329096
 20
3572.996291483251
 30
0.0
 11
5671.094829595983
 21
3562.714192199856
 31
0.0
  0
DIMENSION
  5
13CD9
330
747D
100
AcDbEntity
  8
寸法
 48
50.0
100
AcDbDimension
  2
*D47
 10
9814.976849592502
 20
3463.324406568653
 30
0.0
 11
10145.42950707283
 21
3463.324442500947
 31
0.0
 70
   161
  1
φ<>
 71
     5
 42
42.0
  3
INABA_S30G
100
AcDbAlignedDimension
 13
9856.976858638315
 23
3380.134260963995
 33
0.0000000000000002
 14
9814.976858638315
 24
3380.134256397058
 34
0.0000000000000002
1001
ACAD
1000
DSTYLE
1002
{
1070
   341
1005
0
1002
}
  0
LINE
  5
13CDA
330
747D
100
AcDbEntity
  8
部品1
 48
50.0
100
AcDbLine
 10
3906.416813378048
 20
6916.08381788723
 30
0.0
 11
3999.758210768523
 21
6969.974498797157
 31
0.0
  0
LINE
  5
13CDB
330
747D
100
AcDbEntity
  8
部品1
 48
50.0
100
AcDbLine
 10
3906.416813378048
 20
6916.08381788723
 30
0.0
 11
4133.219576688796
 21
6916.08381788723
 31
0.0
  0
LINE
  5
13CDC
330
747D
100
AcDbEntity
  8
部品1
 48
50.0
100
AcDbLine
 10
4030.144019403655
 20
6856.573117141779
 30
0.0
 11
4133.219576688796
 21
6916.08381788723
 31
0.0
  0
LINE
  5
13CDD
330
747D
100
AcDbEntity
  8
部品1
 48
50.0
100
AcDbLine
 10
4030.144019403655
 20
6856.573117141786
 30
0.0
 11
4348.81986798453
 21
5667.258659092833
 31
0.0
  0
LINE
  5
13CDE
330
747D
100
AcDbEntity
  8
部品1
 48
50.0
100
AcDbLine
 10
3700.26371775267
 20
8087.703163319391
 30
0.0
 11
3999.758210768523
 21
6969.974498797157
 31
0.0
  0
ARC
  5
13CDF
330
747D
100
AcDbEntity
  8
部品1
 48
50.0
100
AcDbCircle
 10
3106.544829596009
 20
7896.184719782941
 30
0.0
 40
17.5
100
AcDbArc
 50
301.0027191340541
 51
238.9972808659459
  0
LINE
  5
13CE0
330
747D
100
AcDbEntity
  8
部品1
 48
50.0
100
AcDbLine
 10
3271.094829596012
 20
6131.716718364732
 30
0.0
 11
3271.094829596012
 21
6027.76539745886
 31
0.0
  0
LINE
  5
13CE1
330
747D
100
AcDbEntity
  8
部品1
 48
50.0
100
AcDbLine
 10
3181.994829596006
 20
6182.716718364733
 30
0.0
 11
3181.994829596006
 21
6814.716718364732
 31
0.0
  0
LINE
  5
13CE2
330
747D
100
AcDbEntity
  8
部品1
 48
50.0
100
AcDbLine
 10
3181.994829596006
 20
6865.716718364736
 30
0.0
 11
3181.994829596006
 21
7497.716718364732
 31
0.0
  0
LINE
  5
13CE3
330
747D
100
AcDbEntity
  8
部品1
 48
50.0
100
AcDbLine
 10
3271.094829596012
 20
6814.716718364732
 30
0.0
 11
3271.094829596012
 21
6182.716718364733
 31
0.0
  0
LINE
  5
13CE4
330
747D
100
AcDbEntity
  8
部品1
 48
50.0
100
AcDbLine
 10
3271.094829596012
 20
7497.716718364732
 30
0.0
 11
3271.094829596012
 21
6865.716718364733
 31
0.0
  0
LINE
  5
13CE5
330
747D
100
AcDbEntity
  8
部品1
 48
50.0
100
AcDbLine
 10
3181.994829596006
 20
7548.716718364733
 30
0.0
 11
3181.994829596006
 21
7766.427768474772
 31
0.0
  0
LINE
  5
13CE6
330
747D
100
AcDbEntity
  8
点線
 48
10.0
100
AcDbLine
 10
3037.544829596009
 20
7497.716718364732
 30
-0.000000000000296
 11
2998.044829596082
 21
7497.716718364732
 31
-0.000000000000296
  0
LINE
  5
13CE7
330
747D
100
AcDbEntity
  8
点線
 48
10.0
100
AcDbLine
 10
3037.544829596009
 20
7527.716718364732
 30
-0.000000000000296
 11
2998.044829596082
 21
7527.716718364732
 31
-0.000000000000296
  0
LINE
  5
13CE8
330
747D
100
AcDbEntity
  8
点線
 48
10.0
100
AcDbLine
 10
3037.544829596009
 20
7548.716718364736
 30
-0.000000000000296
 11
2998.044829596082
 21
7548.716718364736
 31
-0.000000000000296
  0
LINE
  5
13CE9
330
747D
100
AcDbEntity
  8
点線
 48
10.0
100
AcDbLine
 10
3037.544829596009
 20
6865.716718364736
 30
-0.000000000000296
 11
2998.044829596082
 21
6865.716718364736
 31
-0.000000000000296
  0
LINE
  5
13CEA
330
747D
100
AcDbEntity
  8
点線
 48
10.0
100
AcDbLine
 10
3037.544829596009
 20
6844.716718364733
 30
-0.000000000000296
 11
2998.044829596082
 21
6844.716718364733
 31
-0.000000000000296
  0
LINE
  5
13CEB
330
747D
100
AcDbEntity
  8
点線
 48
10.0
100
AcDbLine
 10
3037.544829596009
 20
6814.716718364732
 30
-0.000000000000296
 11
2998.044829596082
 21
6814.716718364732
 31
-0.000000000000296
  0
LINE
  5
13CEC
330
747D
100
AcDbEntity
  8
点線
 48
10.0
100
AcDbLine
 10
2998.044829596082
 20
6814.716718364732
 30
-0.000000000000296
 11
2998.044829596082
 21
6865.716718364733
 31
-0.000000000000296
  0
LINE
  5
13CED
330
747D
100
AcDbEntity
  8
点線
 48
10.0
100
AcDbLine
 10
2998.044829596082
 20
6131.716718364732
 30
-0.000000000000296
 11
2998.044829596082
 21
6182.716718364733
 31
-0.000000000000296
  0
LINE
  5
13CEE
330
747D
100
AcDbEntity
  8
点線
 48
10.0
100
AcDbLine
 10
3037.544829596009
 20
6131.716718364732
 30
-0.000000000000296
 11
2998.044829596082
 21
6131.716718364732
 31
-0.000000000000296
  0
LINE
  5
13CEF
330
747D
100
AcDbEntity
  8
点線
 48
10.0
100
AcDbLine
 10
3037.544829596009
 20
6161.716718364733
 30
-0.000000000000296
 11
2998.044829596082
 21
6161.716718364733
 31
-0.000000000000296
  0
LINE
  5
13CF0
330
747D
100
AcDbEntity
  8
点線
 48
10.0
100
AcDbLine
 10
3037.544829596009
 20
6182.716718364733
 30
-0.000000000000296
 11
2998.044829596082
 21
6182.716718364733
 31
-0.000000000000296
  0
LINE
  5
13CF1
330
747D
100
AcDbEntity
  8
点線
 48
50.0
100
AcDbLine
 10
4210.703297270505
 20
6182.716718364733
 30
-0.000000000000296
 11
5855.044829595892
 21
6182.716718364733
 31
-0.000000000000296
  0
LINE
  5
13CF2
330
747D
100
AcDbEntity
  8
点線
 48
50.0
100
AcDbLine
 10
4216.330230311563
 20
6161.716718364733
 30
-0.000000000000296
 11
5855.044829595892
 21
6161.716718364733
 31
-0.000000000000296
  0
LINE
  5
13CF3
330
747D
100
AcDbEntity
  8
点線
 48
50.0
100
AcDbLine
 10
4224.368706084496
 20
6131.716718364732
 30
-0.000000000000296
 11
5855.044829595892
 21
6131.716718364732
 31
-0.000000000000296
  0
LINE
  5
13CF4
330
747D
100
AcDbEntity
  8
点線
 48
10.0
100
AcDbLine
 10
5855.044829595892
 20
6131.716718364732
 30
-0.000000000000296
 11
5855.044829595892
 21
6182.716718364733
 31
-0.000000000000296
  0
LINE
  5
13CF5
330
747D
100
AcDbEntity
  8
点線
 48
10.0
100
AcDbLine
 10
5855.044829595892
 20
6814.716718364732
 30
-0.000000000000296
 11
5855.044829595892
 21
6865.716718364733
 31
-0.000000000000296
  0
LINE
  5
13CF6
330
747D
100
AcDbEntity
  8
点線
 48
50.0
100
AcDbLine
 10
4041.359407654039
 20
6814.716718364732
 30
-0.000000000000296
 11
5855.044829595892
 21
6814.716718364732
 31
-0.000000000000296
  0
LINE
  5
13CF7
330
747D
100
AcDbEntity
  8
点線
 48
50.0
100
AcDbLine
 10
4033.320931881106
 20
6844.716718364736
 30
-0.000000000000296
 11
5855.044829595892
 21
6844.716718364733
 31
-0.000000000000296
  0
LINE
  5
13CF8
330
747D
100
AcDbEntity
  8
点線
 48
50.0
100
AcDbLine
 10
4045.981201285962
 20
6865.716718364736
 30
-0.000000000000296
 11
5855.044829595892
 21
6865.716718364736
 31
-0.000000000000296
  0
LINE
  5
13CF9
330
747D
100
AcDbEntity
  8
点線
 48
50.0
100
AcDbLine
 10
3844.684700409591
 20
7548.716718364733
 30
-0.000000000000296
 11
5855.044829595892
 21
7548.716718364736
 31
-0.000000000000296
  0
LINE
  5
13CFA
330
747D
100
AcDbEntity
  8
点線
 48
50.0
100
AcDbLine
 10
3850.311633450649
 20
7527.716718364732
 30
-0.000000000000296
 11
5855.044829595892
 21
7527.716718364732
 31
-0.000000000000296
  0
LINE
  5
13CFB
330
747D
100
AcDbEntity
  8
点線
 48
50.0
100
AcDbLine
 10
3858.350109223582
 20
7497.716718364732
 30
-0.000000000000296
 11
5855.044829595892
 21
7497.716718364732
 31
-0.000000000000296
  0
LINE
  5
13CFC
330
747D
100
AcDbEntity
  8
点線
 48
10.0
100
AcDbLine
 10
5855.044829595892
 20
7497.716718364732
 30
-0.000000000000296
 11
5855.044829595892
 21
7548.716718364733
 31
-0.000000000000296
  0
LINE
  5
13CFD
330
747D
100
AcDbEntity
  8
部品1
 62
     5
 48
50.0
100
AcDbLine
 10
3952.263152408312
 20
6942.553214067709
 30
0.0000000000000063
 11
3952.263152408312
 21
6916.08381788723
 31
0.0000000000000065
  0
LINE
  5
13CFE
330
747D
100
AcDbEntity
  8
部品1
 62
     5
 48
50.0
100
AcDbLine
 10
3980.82650678367
 20
6959.04427440529
 30
0.0000000000000062
 11
3980.82650678367
 21
6916.08381788723
 31
0.0000000000000065
  0
LINE
  5
13CFF
330
747D
100
AcDbEntity
  8
部品1
 62
     5
 48
50.0
100
AcDbLine
 10
4072.263152408312
 20
6880.890609920054
 30
0.0000000000000068
 11
4072.263152408312
 21
6699.382372797656
 31
0.000000000000008
  0
LINE
  5
13D00
330
747D
100
AcDbEntity
  8
部品1
 62
     5
 48
50.0
100
AcDbLine
 10
4100.826506783669
 20
6897.38167025763
 30
0.0000000000000066
 11
4100.826506783669
 21
6592.7824830342
 31
0.0000000000000087
  0
LINE
  5
13D01
330
747D
100
AcDbEntity
  8
点線
 48
50.0
100
AcDbLine
 10
5671.094829596011
 20
7497.716718364732
 30
0.0
 11
5671.094829596011
 21
6865.716718364736
 31
0.0
  0
LINE
  5
13D02
330
747D
100
AcDbEntity
  8
点線
 48
50.0
100
AcDbLine
 10
5581.994829596006
 20
7548.716718364733
 30
0.0
 11
5581.994829596006
 21
7766.427768474772
 31
0.0
  0
LINE
  5
13D03
330
747D
100
AcDbEntity
  8
点線
 48
50.0
100
AcDbLine
 10
5671.094829596011
 20
6814.716718364737
 30
0.0
 11
5671.094829596011
 21
6182.716718364733
 31
0.0
  0
LINE
  5
13D04
330
747D
100
AcDbEntity
  8
点線
 48
50.0
100
AcDbLine
 10
5581.994829596006
 20
6865.716718364736
 30
0.0
 11
5581.994829596006
 21
7497.716718364732
 31
0.0
  0
LINE
  5
13D05
330
747D
100
AcDbEntity
  8
点線
 48
50.0
100
AcDbLine
 10
5671.094829596011
 20
6131.716718364732
 30
0.0
 11
5671.094829596011
 21
6027.76539745886
 31
0.0
  0
LINE
  5
13D06
330
747D
100
AcDbEntity
  8
点線
 48
50.0
100
AcDbLine
 10
5581.994829596006
 20
6182.716718364733
 30
0.0
 11
5581.994829596006
 21
6814.716718364737
 31
0.0
  0
LINE
  5
13D07
330
747D
100
AcDbEntity
  8
点線
 48
10.0
100
AcDbLine
 10
3181.994829596006
 20
7497.716718364737
 30
0.0
 11
3181.994829596006
 21
7548.716718364733
 31
0.0
  0
LINE
  5
13D08
330
747D
100
AcDbEntity
  8
点線
 48
10.0
100
AcDbLine
 10
3271.094829596012
 20
7497.716718364737
 30
0.0
 11
3271.094829596012
 21
7548.716718364733
 31
0.0
  0
LINE
  5
13D09
330
747D
100
AcDbEntity
  8
点線
 48
10.0
100
AcDbLine
 10
3271.094829596012
 20
6814.716718364732
 30
0.0
 11
3271.094829596012
 21
6865.716718364733
 31
0.0
  0
LINE
  5
13D0A
330
747D
100
AcDbEntity
  8
点線
 48
10.0
100
AcDbLine
 10
3181.994829596006
 20
6814.716718364732
 30
0.0
 11
3181.994829596006
 21
6865.716718364733
 31
0.0
  0
LINE
  5
13D0B
330
747D
100
AcDbEntity
  8
点線
 48
10.0
100
AcDbLine
 10
3181.994829596006
 20
6131.716718364732
 30
0.0
 11
3181.994829596006
 21
6182.716718364733
 31
0.0
  0
LINE
  5
13D0C
330
747D
100
AcDbEntity
  8
点線
 48
10.0
100
AcDbLine
 10
3271.094829596012
 20
6131.716718364732
 30
0.0
 11
3271.094829596012
 21
6182.716718364733
 31
0.0
  0
LINE
  5
13D0D
330
747D
100
AcDbEntity
  8
部品1
 48
50.0
100
AcDbLine
 10
3758.279659844703
 20
7871.184719782949
 30
0.0
 11
3037.544829596023
 21
7871.184719782944
 31
0.0
  0
LINE
  5
13D0E
330
747D
100
AcDbEntity
  8
部品1
 48
50.0
100
AcDbLine
 10
3755.600167920391
 20
7881.184719782956
 30
0.0
 11
3037.544829596009
 21
7881.184719782956
 31
0.0
  0
LINE
  5
13D0F
330
747D
100
AcDbEntity
  8
部品1
 48
50.0
100
AcDbLine
 10
3756.939913882547
 20
7876.184719782955
 30
0.0
 11
3037.544829596009
 21
7876.184719782955
 31
0.0
  0
ARC
  5
13D10
330
747D
100
AcDbEntity
  8
点線
 48
50.0
100
AcDbCircle
 10
3226.544829596008
 20
7766.427768474772
 30
0.0
 40
44.55000000000313
100
AcDbArc
 50
180.0
 51
0.0
  0
DIMENSION
  5
13D11
330
747D
100
AcDbEntity
  8
寸法
 48
50.0
100
AcDbDimension
  2
*D48
 10
6302.5431822455
 20
7923.716718365295
 30
0.0
 11
6227.534323977781
 21
6913.716718365157
 31
0.0
 70
    32
 71
     5
 42
2020.00000000028
  3
INABA_S30G
100
AcDbAlignedDimension
 13
5837.544829595994
 23
5903.716718365016
 33
0.0
 14
5856.544829595979
 24
7923.716718365297
 34
0.0
 50
90.0
100
AcDbRotatedDimension
1001
ACAD
1000
DSTYLE
1002
{
1070
   341
1005
0
1002
}
  0
LINE
  5
13D12
330
747D
100
AcDbEntity
  8
寸法
 48
50.0
100
AcDbLine
 10
3626.993176130913
 20
7904.348317787117
 30
0.0
 11
3497.024022397804
 21
8183.251200839498
 31
0.0
  0
LINE
  5
13D13
330
747D
100
AcDbEntity
  8
寸法
 48
50.0
100
AcDbLine
 10
10122.69126960944
 20
2485.994469931622
 30
0.0000000000000001
 11
9856.976865832054
 21
2667.640555757462
 31
0.0000000000000002
  0
TEXT
  5
13D14
330
747D
100
AcDbEntity
  8
部品1
 48
50.0
100
AcDbText
 10
10104.85417163562
 20
2349.460503187489
 30
0.0
 40
156.25
  1
⑦
  7
STYLE2
100
AcDbText
  0
TEXT
  5
13D15
330
747D
100
AcDbEntity
  8
部品1
 48
50.0
100
AcDbText
 10
3338.978269465842
 20
8202.759056435356
 30
0.0
 40
156.25
  1
⑥
  7
STYLE2
100
AcDbText
  0
LINE
  5
13D16
330
747D
100
AcDbEntity
  8
寸法
 48
50.0
100
AcDbLine
 10
6059.684666881469
 20
7340.74842869708
 30
0.0
 11
5856.544829595979
 21
7160.42234153179
 31
0.0
  0
TEXT
  5
13D17
330
747D
100
AcDbEntity
  8
部品1
 48
50.0
100
AcDbText
 10
6019.282853318451
 20
7342.165595031644
 30
0.0
 40
156.25
  1
④
  7
STYLE2
100
AcDbText
  0
TEXT
  5
13D18
330
747D
100
AcDbEntity
  8
部品1
 48
50.0
100
AcDbText
 10
4725.50571207299
 20
8172.589442155011
 30
0.0
 40
156.25
  1
③
  7
STYLE2
100
AcDbText
  0
LINE
  5
13D19
330
747D
100
AcDbEntity
  8
寸法
 48
50.0
100
AcDbLine
 10
4929.853358348337
 20
8192.851526191466
 30
0.0
 11
5640.660832262394
 21
7802.451887927026
 31
0.0
  0
TEXT
  5
13D1A
330
747D
100
AcDbEntity
  8
部品1
 48
50.0
100
AcDbText
 10
8757.017240535454
 20
3406.961586985072
 30
0.0
 40
156.25
  1
①
  7
STYLE2
100
AcDbText
  0
LINE
  5
13D1B
330
747D
100
AcDbEntity
  8
寸法
 48
50.0
100
AcDbLine
 10
3707.681978590787
 20
6161.716718364733
 30
-0.000000000000296
 11
3063.038453619171
 21
5479.681465718829
 31
-0.000000000000296
  0
LINE
  5
13D1C
330
747D
100
AcDbEntity
  8
寸法
 48
50.0
100
AcDbLine
 10
9432.584163604042
 20
3918.002298825392
 30
0.0
 11
8959.602217348496
 21
3541.042618090433
 31
0.0
  0
LINE
  5
13D1D
330
747D
100
AcDbEntity
  8
寸法
 48
50.0
100
AcDbLine
 10
5272.37802993512
 20
5903.716718365155
 30
-0.0000000000001451
 11
5630.99176005338
 21
5484.907283421381
 31
-0.0000000000001451
  0
LINE
  5
13D1E
330
747D
100
AcDbEntity
  8
部品1
 48
50.0
100
AcDbLine
 10
5402.659585330184
 20
5980.923382059132
 30
0.0000000000000107
 11
5402.659585330315
 21
7881.685095933754
 31
0.0
  0
LINE
  5
13D1F
330
747D
100
AcDbEntity
  8
部品1
 48
50.0
100
AcDbLine
 10
5002.659585330177
 20
5980.923382059132
 30
0.0000000000000107
 11
5002.659585330315
 21
7881.685095933754
 31
0.0
  0
LINE
  5
13D20
330
747D
100
AcDbEntity
  8
部品1
 48
50.0
100
AcDbLine
 10
4602.659585330177
 20
5980.923382059132
 30
0.0000000000000107
 11
4602.659585330314
 21
7881.685095933754
 31
0.0
  0
LINE
  5
13D21
330
747D
100
AcDbEntity
  8
部品1
 48
50.0
100
AcDbLine
 10
3849.430073861913
 20
7531.006743539794
 30
0.000000000000002
 11
3849.430073861935
 21
7881.685095933754
 31
0.0
  0
LINE
  5
13D22
330
747D
100
AcDbEntity
  8
部品1
 48
50.0
100
AcDbLine
 10
3849.430073861805
 20
3972.699508354803
 30
0.0
 11
3849.430073861805
 21
3704.104794172359
 31
0.0000000000000006
  0
LINE
  5
13D23
330
747D
100
AcDbEntity
  8
部品1
 48
50.0
100
AcDbLine
 10
3449.430073861805
 20
3972.699508354803
 30
0.0
 11
3449.430073861805
 21
3704.104794172359
 31
0.0000000000000006
  0
LINE
  5
13D24
330
747D
100
AcDbEntity
  8
部品1
 48
50.0
100
AcDbLine
 10
4649.430073861804
 20
3972.699508354803
 30
0.0
 11
4649.430073861804
 21
3704.104794172359
 31
0.0000000000000006
  0
LINE
  5
13D25
330
747D
100
AcDbEntity
  8
部品1
 48
50.0
100
AcDbLine
 10
4249.430073861804
 20
3972.699508354803
 30
0.0
 11
4249.430073861804
 21
3704.104794172359
 31
0.0000000000000006
  0
LINE
  5
13D26
330
747D
100
AcDbEntity
  8
部品1
 48
50.0
100
AcDbLine
 10
5049.430073861804
 20
3972.699508354803
 30
0.0
 11
5049.430073861804
 21
3704.104794172359
 31
0.0000000000000006
  0
LINE
  5
13D27
330
747D
100
AcDbEntity
  8
部品1
 48
50.0
100
AcDbLine
 10
5449.430073861805
 20
3972.699508354803
 30
0.0
 11
5449.430073861805
 21
3704.104794172359
 31
0.0000000000000006
  0
LINE
  5
13D28
330
747D
100
AcDbEntity
  8
センター
 48
0.5
100
AcDbLine
 10
2898.044829596082
 20
7512.716718364733
 30
0.0
 11
3098.044829596082
 21
7512.716718364733
 31
0.0
  0
LINE
  5
13D29
330
747D
100
AcDbEntity
  8
センター
 48
0.5
100
AcDbLine
 10
2898.044829596082
 20
6829.716718364733
 30
0.0
 11
3098.044829596082
 21
6829.716718364733
 31
0.0
  0
LINE
  5
13D2A
330
747D
100
AcDbEntity
  8
センター
 48
0.5
100
AcDbLine
 10
2898.044829596082
 20
6146.716718364732
 30
0.0
 11
3098.044829596082
 21
6146.716718364732
 31
0.0
  0
DIMENSION
  5
13D2B
330
747D
100
AcDbEntity
  8
寸法
 48
50.0
100
AcDbDimension
  2
*D49
 10
2672.916200898908
 20
7512.716718364733
 30
0.0
 11
2597.916200898906
 21
7718.216718365015
 31
0.0
 70
    32
 71
     5
 42
411.0000000005639
  3
INABA_S30G
100
AcDbAlignedDimension
 13
2996.544829596009
 23
7923.716718365297
 33
0.0
 14
2898.044829596082
 24
7512.716718364733
 34
0.0
 50
90.0
100
AcDbRotatedDimension
1001
ACAD
1000
DSTYLE
1002
{
1070
   341
1005
0
1002
}
  0
DIMENSION
  5
13D2C
330
747D
100
AcDbEntity
  8
寸法
 48
50.0
100
AcDbDimension
  2
*D50
 10
2672.916200898908
 20
6829.716718364733
 30
0.0
 11
2597.916200898907
 21
7171.216718364734
 31
0.0
 70
    32
 71
     5
 42
683.0
  3
INABA_S30G
100
AcDbAlignedDimension
 13
2898.044829596082
 23
7512.716718364733
 33
0.0
 14
2898.044829596082
 24
6829.716718364733
 34
0.0
 50
90.0
100
AcDbRotatedDimension
1001
ACAD
1000
DSTYLE
1002
{
1070
   279
1070
     1
1070
   341
1005
0
1002
}
  0
DIMENSION
  5
13D2D
330
747D
100
AcDbEntity
  8
寸法
 48
50.0
100
AcDbDimension
  2
*D51
 10
2672.916200898901
 20
6146.716718364732
 30
0.0
 11
2597.9162008989
 21
6488.216718364734
 31
0.0
 70
    32
 71
     5
 42
683.0
  3
INABA_S30G
100
AcDbAlignedDimension
 13
2898.044829596082
 23
6829.716718364733
 33
0.0
 14
2898.044829596082
 24
6146.716718364732
 34
0.0
 50
90.0
100
AcDbRotatedDimension
1001
ACAD
1000
DSTYLE
1002
{
1070
   279
1070
     1
1070
   341
1005
0
1002
}
  0
DIMENSION
  5
13D2E
330
747D
100
AcDbEntity
  8
寸法
 48
50.0
100
AcDbDimension
  2
*D52
 10
2672.916200898901
 20
5903.716718365016
 30
0.0
 11
2597.907342631183
 21
6025.216718364875
 31
0.0
 70
    32
 71
     5
 42
242.9999999997162
  3
INABA_S30G
100
AcDbAlignedDimension
 13
2898.044829596082
 23
6146.716718364732
 33
0.0
 14
3015.544829595973
 24
5903.716718365016
 34
-0.0000000000002893
 50
90.0
100
AcDbRotatedDimension
1001
ACAD
1000
DSTYLE
1002
{
1070
   279
1070
     1
1070
   341
1005
0
1002
}
  0
DIMENSION
  5
13D2F
330
747D
100
AcDbEntity
  8
寸法
 48
50.0
100
AcDbDimension
  2
*D53
 10
6302.5431822455
 20
1867.640018622878
 30
0.0
 11
6302.5431822455
 21
2147.175451693753
 31
0.0
 70
   160
 71
     5
 42
49.99999999999636
  3
INABA_S30G
100
AcDbAlignedDimension
 13
5846.544829595965
 23
1917.640018622875
 33
0.0
 14
5856.544829595979
 24
1867.640018622878
 34
0.0
 50
90.0
100
AcDbRotatedDimension
1001
ACAD
1000
DSTYLE
1002
{
1070
   341
1005
0
1002
}
  0
DIMENSION
  5
13D30
330
747D
100
AcDbEntity
  8
寸法
 48
50.0
100
AcDbDimension
  2
*D54
 10
7306.807020251319
 20
4169.640018622875
 30
0.0
 11
7231.798161983602
 21
3018.640018622877
 31
0.0
 70
    32
 71
     5
 42
2302.0
  3
INABA_S30G
100
AcDbAlignedDimension
 13
7888.980098270477
 23
1867.640018622875
 33
0.0
 14
7923.226443137231
 24
4169.640018622875
 34
0.0
 50
90.0
100
AcDbRotatedDimension
1001
ACAD
1000
DSTYLE
1002
{
1070
   341
1005
0
1002
}
  0
TEXT
  5
13D31
330
747D
100
AcDbEntity
  8
文字
 48
50.0
100
AcDbText
 10
9137.32821909331
 20
4119.074578119725
 30
0.0
 40
90.0
  1
70
 50
90.0
  7
STYLE1
100
AcDbText
  0
TEXT
  5
13D32
330
747D
100
AcDbEntity
  8
文字
 48
50.0
100
AcDbText
 10
8771.493516559305
 20
4229.087314786066
 30
0.0
 40
90.0
  1
1000
  7
STYLE1
100
AcDbText
  0
LINE
  5
13D33
330
747D
100
AcDbEntity
  8
部品1
 48
50.0
100
AcDbLine
 10
9017.419712555566
 20
4198.206669342883
 30
0.0
 11
9017.419712555566
 21
4184.516931872713
 31
0.0
  0
LINE
  5
13D34
330
747D
100
AcDbEntity
  8
部品1
 48
50.0
100
AcDbLine
 10
8777.419712555566
 20
4198.206669342883
 30
0.0
 11
9017.419712555566
 21
4198.206669342883
 31
0.0
  0
LINE
  5
13D35
330
747D
100
AcDbEntity
  8
部品1
 48
50.0
100
AcDbLine
 10
9017.419712555566
 20
4184.516931872713
 30
0.0
 11
8777.419712555566
 21
4198.206669342883
 31
0.0
  0
LINE
  5
13D36
330
747D
100
AcDbEntity
  8
細線
 48
50.0
100
AcDbLine
 10
3295.764752204574
 20
3972.699508354796
 30
0.0
 11
3295.764752204574
 21
3704.104794172352
 31
0.0000000000000006
  0
LINE
  5
13D37
330
747D
100
AcDbEntity
  8
細線
 48
50.0
100
AcDbLine
 10
3277.324906987415
 20
3972.699508354796
 30
0.0
 11
3277.324906987415
 21
3704.104794172352
 31
0.0000000000000006
  0
LINE
  5
13D38
330
747D
100
AcDbEntity
  8
部品1
 48
5.0
100
AcDbLine
 10
3816.044829595499
 20
5969.77037856663
 30
0.000000000000004
 11
3837.044829595369
 21
5969.77037856663
 31
0.0000000000000062
  0
LINE
  5
13D39
330
747D
100
AcDbEntity
  8
部品1
 48
5.0
100
AcDbLine
 10
3816.044829595499
 20
5969.770378566638
 30
0.0000000000000062
 11
3816.044829595499
 21
5970.060328060331
 31
0.0000000000000062
  0
LINE
  5
13D3A
330
747D
100
AcDbEntity
  8
部品1
 48
5.0
100
AcDbLine
 10
3837.044829595369
 20
5969.770378566638
 30
0.0000000000000084
 11
3837.044829595369
 21
5970.060328060331
 31
0.0000000000000084
  0
LINE
  5
13D3B
330
747D
100
AcDbEntity
  8
部品1
 48
5.0
100
AcDbLine
 10
3837.044829595369
 20
5970.060328060331
 30
0.0000000000000084
 11
3841.544829595369
 21
5980.923382059147
 31
0.0000000000000032
  0
LINE
  5
13D3C
330
747D
100
AcDbEntity
  8
部品1
 48
5.0
100
AcDbLine
 10
3811.544829595528
 20
5980.923382059147
 30
-0.0000000000000043
 11
3816.044829595499
 21
5970.060328060331
 31
0.0000000000000062
  0
LINE
  5
13D3D
330
747D
100
AcDbEntity
  8
部品1
 48
50.0
100
AcDbLine
 10
4202.659585330199
 20
6212.736260007427
 30
0.0000000000000094
 11
4202.659585330315
 21
7881.685095933754
 31
0.0
  0
ENDSEC
  0
SECTION
  2
OBJECTS
  0
DICTIONARY
  5
7471
330
0
100
AcDbDictionary
281
     1
  3
ACAD_COLOR
350
1341D
  3
ACAD_GROUP
350
7472
  3
ACAD_LAYOUT
350
1341E
  3
ACAD_MATERIAL
350
1341C
  3
ACAD_MLINESTYLE
350
7473
  3
ACAD_PLOTSETTINGS
350
1341F
  3
ACAD_PLOTSTYLENAME
350
1341A
  3
AcadDim
350
13618
  3
ACDBHEADERROUNDTRIPXREC
350
13F1A
  3
AcDbVariableDictionary
350
13533
  3
CONTENTDICTIONARY
350
E71C
  3
DRAWINGVARIABLESDICT
350
F3B9
  0
DICTIONARY
  5
13451
330
7467
100
AcDbDictionary
280
     1
281
     1
  3
ACAD_LAYERFILTERS
360
1356A
  3
ACAD_LAYERSTATES
360
13452
  0
DICTIONARY
  5
1341D
102
{ACAD_REACTORS
330
7471
102
}
330
7471
100
AcDbDictionary
281
     1
  0
DICTIONARY
  5
7472
102
{ACAD_REACTORS
330
7471
102
}
330
7471
100
AcDbDictionary
281
     1
  0
DICTIONARY
  5
1341E
102
{ACAD_REACTORS
330
7471
102
}
330
7471
100
AcDbDictionary
281
     1
  3
Model
350
13420
  3
レイアウト1
350
13421
  0
DICTIONARY
  5
1341C
102
{ACAD_REACTORS
330
7471
102
}
330
7471
100
AcDbDictionary
281
     1
  0
DICTIONARY
  5
7473
102
{ACAD_REACTORS
330
7471
102
}
330
7471
100
AcDbDictionary
281
     1
  3
STANDARD
350
7480
  0
DICTIONARY
  5
1341F
102
{ACAD_REACTORS
330
7471
102
}
330
7471
100
AcDbDictionary
281
     1
  0
ACDBDICTIONARYWDFLT
  5
1341A
102
{ACAD_REACTORS
330
7471
102
}
330
7471
100
AcDbDictionary
281
     1
  3
Normal
350
1341B
100
AcDbDictionaryWithDefault
340
1341B
  0
XRECORD
  5
13618
102
{ACAD_REACTORS
330
7471
102
}
330
7471
100
AcDbXrecord
280
     1
 90
   990106
  3

 60
     0
 61
     0
 62
     1
 63
     3
 64
     0
 65
     0
 66
     0
 67
     3
 68
     1
 69
     0
 70
     0
 71
     0
 72
     0
 40
0.0
170
     0
  0
DICTIONARY
  5
13F1A
102
{ACAD_REACTORS
330
7471
102
}
330
7471
100
AcDbDictionary
281
     1
  3
COLORDICT
350
13F1C
  3
MATERIALDICT
350
13F1B
  0
DICTIONARY
  5
13533
102
{ACAD_REACTORS
330
7471
102
}
330
7471
100
AcDbDictionary
281
     1
  3
DIMASSOC
350
13534
  3
PROJECTNAME
350
13535
  0
DICTIONARY
  5
E71C
102
{ACAD_REACTORS
330
7471
102
}
330
7471
100
AcDbDictionary
281
     1
  0
DICTIONARY
  5
F3B9
102
{ACAD_REACTORS
330
7471
102
}
330
7471
100
AcDbDictionary
281
     1
1001
DRAWINGVARIABLESXDATA
1000
POLARMODE
1000
1
  0
DICTIONARY
  5
1356A
102
{ACAD_REACTORS
330
13451
102
}
330
13451
100
AcDbDictionary
281
     1
  0
DICTIONARY
  5
13452
102
{ACAD_REACTORS
330
13451
102
}
330
13451
100
AcDbDictionary
281
     1
  0
LAYOUT
  5
13420
102
{ACAD_XDICTIONARY
360
13F1D
102
}
102
{ACAD_REACTORS
330
1341E
102
}
330
1341E
100
AcDbPlotSettings
  1

  2
CutePDF Writer
  4
A3
  6

 40
3.174999952316284
 41
3.174999952316284
 42
3.17498779296875
 43
3.17498779296875
 44
297.0530090332031
 45
420.1583251953125
 46
0.0
 47
0.0
 48
0.0
 49
0.0
140
0.0
141
0.0
142
1.0
143
30.0
 70
 11952
 72
     1
 73
     1
 74
     2
  7
inaba.ctb
 75
    23
147
0.0333333333333333
148
0.0
149
0.0
100
AcDbLayout
  1
Model
 70
     1
 71
     0
 10
0.0
 20
0.0
 11
12.0
 21
9.0
 12
0.0
 22
0.0
 32
0.0
 14
0.0
 24
0.0
 34
0.0
 15
0.0
 25
0.0
 35
0.0
146
0.0
 13
0.0
 23
0.0
 33
0.0
 16
1.0
 26
0.0
 36
0.0
 17
0.0
 27
1.0
 37
0.0
 76
     0
330
747D
  0
LAYOUT
  5
13421
102
{ACAD_XDICTIONARY
360
13F1F
102
}
102
{ACAD_REACTORS
330
1341E
102
}
330
1341E
100
AcDbPlotSettings
  1

  2
Microsoft Office Document Image Writer
  4

  6

 40
0.0
 41
0.0
 42
0.0
 43
0.0
 44
0.0
 45
0.0
 46
0.0
 47
0.0
 48
0.0
 49
0.0
140
0.0
141
0.0
142
1.0
143
1.0
 70
   688
 72
     0
 73
     0
 74
     5
  7
inaba.ctb
 75
    16
147
1.0
148
0.0
149
0.0
100
AcDbLayout
  1
レイアウト1
 70
     0
 71
     1
 10
0.0
 20
0.0
 11
420.0
 21
297.0
 12
0.0
 22
0.0
 32
0.0
 14
1.000000000000000E+20
 24
1.000000000000000E+20
 34
1.000000000000000E+20
 15
-1.000000000000000E+20
 25
-1.000000000000000E+20
 35
-1.000000000000000E+20
146
0.0
 13
0.0
 23
0.0
 33
0.0
 16
1.0
 26
0.0
 36
0.0
 17
0.0
 27
1.0
 37
0.0
 76
     0
330
747A
  0
MLINESTYLE
  5
7480
102
{ACAD_REACTORS
330
7473
102
}
330
7473
100
AcDbMlineStyle
  2
STANDARD
 70
     0
  3

 62
     0
 51
90.0
 52
90.0
 71
     2
 49
0.5
 62
   256
  6
BYLAYER
 49
-0.5
 62
   256
  6
BYLAYER
  0
ACDBPLACEHOLDER
  5
1341B
102
{ACAD_REACTORS
330
1341A
102
}
330
1341A
  0
XRECORD
  5
13F1C
102
{ACAD_REACTORS
330
13F1A
102
}
330
13F1A
100
AcDbXrecord
280
     1
340
1341D
  0
XRECORD
  5
13F1B
102
{ACAD_REACTORS
330
13F1A
102
}
330
13F1A
100
AcDbXrecord
280
     1
340
1341C
  0
DICTIONARYVAR
  5
13534
102
{ACAD_REACTORS
330
13533
102
}
330
13533
100
DictionaryVariables
280
     0
  1
1
  0
DICTIONARYVAR
  5
13535
102
{ACAD_REACTORS
330
13533
102
}
330
13533
100
DictionaryVariables
280
     0
  1

  0
DICTIONARY
  5
13F1D
330
13420
100
AcDbDictionary
280
     1
281
     1
  3
ACAD_XREC_ROUNDTRIP
360
13F1E
  0
DICTIONARY
  5
13F1F
330
13421
100
AcDbDictionary
280
     1
281
     1
  3
ACAD_XREC_ROUNDTRIP
360
13F20
  0
XRECORD
  5
13F1E
102
{ACAD_REACTORS
330
13F1D
102
}
330
13F1D
100
AcDbXrecord
280
     1
102
SHADEPLOT
 70
     0
102
SHADEPLOTRESLEVEL
 70
     2
102
SHADEPLOTCUSTOMDPI
 70
   300
  0
XRECORD
  5
13F20
102
{ACAD_REACTORS
330
13F1F
102
}
330
13F1F
100
AcDbXrecord
280
     1
102
SHADEPLOT
 70
     0
102
SHADEPLOTRESLEVEL
 70
     2
102
SHADEPLOTCUSTOMDPI
 70
   300
  0
ENDSEC
  0
EOF
