  0
SECTION
  2
HEADER
  9
$ACADVER
  1
AC1015
  9
$ACADMAINTVER
 70
    20
  9
$DWGCODEPAGE
  3
ANSI_932
  9
$INSBASE
 10
0.0
 20
0.0
 30
0.0
  9
$EXTMIN
 10
104.3976124660112
 20
-0.4477401878211822
 30
-0.0000000000026338
  9
$EXTMAX
 10
12231.24392539175
 20
8557.459646138562
 30
0.0000000000013185
  9
$LIMMIN
 10
0.0
 20
0.0
  9
$LIMMAX
 10
12600.0
 20
8910.0
  9
$ORTHOMODE
 70
     0
  9
$REGENMODE
 70
     1
  9
$FILLMODE
 70
     1
  9
$QTEXTMODE
 70
     0
  9
$MIRRTEXT
 70
     1
  9
$LTSCALE
 40
7.0
  9
$ATTMODE
 70
     1
  9
$TEXTSIZE
 40
100.0
  9
$TRACEWID
 40
1.0
  9
$TEXTSTYLE
  7
STYLE3
  9
$CLAYER
  8
補助
  9
$CELTYPE
  6
BYLAYER
  9
$CECOLOR
 62
   256
  9
$CELTSCALE
 40
50.0
  9
$DISPSILH
 70
     0
  9
$DIMSCALE
 40
30.0
  9
$DIMASZ
 40
2.5
  9
$DIMEXO
 40
0.5
  9
$DIMDLI
 40
7.0
  9
$DIMRND
 40
0.0
  9
$DIMDLE
 40
0.0
  9
$DIMEXE
 40
1.5
  9
$DIMTP
 40
0.0
  9
$DIMTM
 40
0.0
  9
$DIMTXT
 40
3.0
  9
$DIMCEN
 40
0.0
  9
$DIMTSZ
 40
0.0
  9
$DIMTOL
 70
     0
  9
$DIMLIM
 70
     0
  9
$DIMTIH
 70
     1
  9
$DIMTOH
 70
     1
  9
$DIMSE1
 70
     0
  9
$DIMSE2
 70
     0
  9
$DIMTAD
 70
     3
  9
$DIMZIN
 70
     8
  9
$DIMBLK
  1

  9
$DIMASO
 70
     1
  9
$DIMSHO
 70
     1
  9
$DIMPOST
  1

  9
$DIMAPOST
  1

  9
$DIMALT
 70
     0
  9
$DIMALTD
 70
     2
  9
$DIMALTF
 40
0.0394
  9
$DIMLFAC
 40
1.0
  9
$DIMTOFL
 70
     1
  9
$DIMTVP
 40
0.0
  9
$DIMTIX
 70
     1
  9
$DIMSOXD
 70
     1
  9
$DIMSAH
 70
     1
  9
$DIMBLK1
  1
DOTSMALL
  9
$DIMBLK2
  1
DOTSMALL
  9
$DIMSTYLE
  2
INABA_S30G
  9
$DIMCLRD
 70
     0
  9
$DIMCLRE
 70
     0
  9
$DIMCLRT
 70
     7
  9
$DIMTFAC
 40
1.0
  9
$DIMGAP
 40
1.0
  9
$DIMJUST
 70
     0
  9
$DIMSD1
 70
     0
  9
$DIMSD2
 70
     0
  9
$DIMTOLJ
 70
     1
  9
$DIMTZIN
 70
     0
  9
$DIMALTZ
 70
     0
  9
$DIMALTTZ
 70
     0
  9
$DIMUPT
 70
     0
  9
$DIMDEC
 70
     1
  9
$DIMTDEC
 70
     1
  9
$DIMALTU
 70
     2
  9
$DIMALTTD
 70
     2
  9
$DIMTXSTY
  7
STYLE1
  9
$DIMAUNIT
 70
     0
  9
$DIMADEC
 70
     0
  9
$DIMALTRND
 40
0.0
  9
$DIMAZIN
 70
     0
  9
$DIMDSEP
 70
    46
  9
$DIMATFIT
 70
     3
  9
$DIMFRAC
 70
     0
  9
$DIMLDRBLK
  1

  9
$DIMLUNIT
 70
     2
  9
$DIMLWD
 70
    -2
  9
$DIMLWE
 70
    -2
  9
$DIMTMOVE
 70
     0
  9
$LUNITS
 70
     2
  9
$LUPREC
 70
     1
  9
$SKETCHINC
 40
1.0
  9
$FILLETRAD
 40
5.0
  9
$AUNITS
 70
     0
  9
$AUPREC
 70
     0
  9
$MENU
  1
acad
  9
$ELEVATION
 40
0.0
  9
$PELEVATION
 40
0.0
  9
$THICKNESS
 40
0.0
  9
$LIMCHECK
 70
     0
  9
$CHAMFERA
 40
0.0
  9
$CHAMFERB
 40
0.0
  9
$CHAMFERC
 40
0.0
  9
$CHAMFERD
 40
0.0
  9
$SKPOLY
 70
     0
  9
$TDCREATE
 40
2451074.411873148
  9
$TDUCREATE
 40
2451074.036873148
  9
$TDUPDATE
 40
2456560.837809977
  9
$TDUUPDATE
 40
2456560.462809977
  9
$TDINDWG
 40
0.3423506713
  9
$TDUSRTIMER
 40
0.3423506713
  9
$USRTIMER
 70
     1
  9
$ANGBASE
 50
0.0
  9
$ANGDIR
 70
     0
  9
$PDMODE
 70
     3
  9
$PDSIZE
 40
2.0
  9
$PLINEWID
 40
0.0
  9
$SPLFRAME
 70
     0
  9
$SPLINETYPE
 70
     6
  9
$SPLINESEGS
 70
     8
  9
$HANDSEED
  5
164F1
  9
$SURFTAB1
 70
     6
  9
$SURFTAB2
 70
     6
  9
$SURFTYPE
 70
     6
  9
$SURFU
 70
     6
  9
$SURFV
 70
     6
  9
$UCSBASE
  2

  9
$UCSNAME
  2

  9
$UCSORG
 10
0.0
 20
0.0
 30
0.0
  9
$UCSXDIR
 10
1.0
 20
0.0
 30
0.0
  9
$UCSYDIR
 10
0.0
 20
1.0
 30
0.0
  9
$UCSORTHOREF
  2

  9
$UCSORTHOVIEW
 70
     0
  9
$UCSORGTOP
 10
0.0
 20
0.0
 30
0.0
  9
$UCSORGBOTTOM
 10
0.0
 20
0.0
 30
0.0
  9
$UCSORGLEFT
 10
0.0
 20
0.0
 30
0.0
  9
$UCSORGRIGHT
 10
0.0
 20
0.0
 30
0.0
  9
$UCSORGFRONT
 10
0.0
 20
0.0
 30
0.0
  9
$UCSORGBACK
 10
0.0
 20
0.0
 30
0.0
  9
$PUCSBASE
  2

  9
$PUCSNAME
  2

  9
$PUCSORG
 10
0.0
 20
0.0
 30
0.0
  9
$PUCSXDIR
 10
1.0
 20
0.0
 30
0.0
  9
$PUCSYDIR
 10
0.0
 20
1.0
 30
0.0
  9
$PUCSORTHOREF
  2

  9
$PUCSORTHOVIEW
 70
     0
  9
$PUCSORGTOP
 10
0.0
 20
0.0
 30
0.0
  9
$PUCSORGBOTTOM
 10
0.0
 20
0.0
 30
0.0
  9
$PUCSORGLEFT
 10
0.0
 20
0.0
 30
0.0
  9
$PUCSORGRIGHT
 10
0.0
 20
0.0
 30
0.0
  9
$PUCSORGFRONT
 10
0.0
 20
0.0
 30
0.0
  9
$PUCSORGBACK
 10
0.0
 20
0.0
 30
0.0
  9
$USERI1
 70
     0
  9
$USERI2
 70
     0
  9
$USERI3
 70
     0
  9
$USERI4
 70
     0
  9
$USERI5
 70
     0
  9
$USERR1
 40
0.0
  9
$USERR2
 40
0.0
  9
$USERR3
 40
0.0
  9
$USERR4
 40
0.0
  9
$USERR5
 40
0.0
  9
$WORLDVIEW
 70
     1
  9
$SHADEDGE
 70
     3
  9
$SHADEDIF
 70
    70
  9
$TILEMODE
 70
     1
  9
$MAXACTVP
 70
    16
  9
$PINSBASE
 10
0.0
 20
0.0
 30
0.0
  9
$PLIMCHECK
 70
     0
  9
$PEXTMIN
 10
1.000000000000000E+20
 20
1.000000000000000E+20
 30
1.000000000000000E+20
  9
$PEXTMAX
 10
-1.000000000000000E+20
 20
-1.000000000000000E+20
 30
-1.000000000000000E+20
  9
$PLIMMIN
 10
0.0
 20
0.0
  9
$PLIMMAX
 10
420.0
 20
297.0
  9
$UNITMODE
 70
     0
  9
$VISRETAIN
 70
     0
  9
$PLINEGEN
 70
     0
  9
$PSLTSCALE
 70
     0
  9
$TREEDEPTH
 70
  3020
  9
$CMLSTYLE
  2
STANDARD
  9
$CMLJUST
 70
     0
  9
$CMLSCALE
 40
1.0
  9
$PROXYGRAPHICS
 70
     1
  9
$MEASUREMENT
 70
     1
  9
$CELWEIGHT
370
    -1
  9
$ENDCAPS
280
     0
  9
$JOINSTYLE
280
     0
  9
$LWDISPLAY
290
     0
  9
$INSUNITS
 70
     0
  9
$HYPERLINKBASE
  1

  9
$STYLESHEET
  1
inaba.ctb
  9
$XEDIT
290
     1
  9
$CEPSNTYPE
380
     0
  9
$PSTYLEMODE
290
     1
  9
$FINGERPRINTGUID
  2
{696AEDA2-CF37-4C16-A548-8F3E259D4281}
  9
$VERSIONGUID
  2
{E1E379BD-9C69-4056-B398-64DA4915C4C8}
  9
$EXTNAMES
290
     1
  9
$PSVPSCALE
 40
0.0
  9
$OLESTARTUP
290
     0
  0
ENDSEC
  0
SECTION
  2
CLASSES
  0
CLASS
  1
ACDBDICTIONARYWDFLT
  2
AcDbDictionaryWithDefault
  3
ObjectDBX Classes
 90
        0
280
     0
281
     0
  0
CLASS
  1
DICTIONARYVAR
  2
AcDbDictionaryVar
  3
ObjectDBX Classes
 90
        0
280
     0
281
     0
  0
CLASS
  1
MATERIAL
  2
AcDbMaterial
  3
ObjectDBX Classes
 90
     1153
280
     0
281
     0
  0
CLASS
  1
VISUALSTYLE
  2
AcDbVisualStyle
  3
ObjectDBX Classes
 90
     4095
280
     0
281
     0
  0
CLASS
  1
TABLESTYLE
  2
AcDbTableStyle
  3
ObjectDBX Classes
 90
     4095
280
     0
281
     0
  0
CLASS
  1
SCALE
  2
AcDbScale
  3
ObjectDBX Classes
 90
     1153
280
     0
281
     0
  0
CLASS
  1
MLEADERSTYLE
  2
AcDbMLeaderStyle
  3
ACDB_MLEADERSTYLE_CLASS
 90
     4095
280
     0
281
     0
  0
CLASS
  1
ACDBSECTIONVIEWSTYLE
  2
AcDbSectionViewStyle
  3
ObjectDBX Classes
 90
     1025
280
     0
281
     0
  0
CLASS
  1
ACDBDETAILVIEWSTYLE
  2
AcDbDetailViewStyle
  3
ObjectDBX Classes
 90
     1025
280
     0
281
     0
  0
CLASS
  1
EXACXREFPANELOBJECT
  2
ExAcXREFPanelObject
  3
EXAC_ESW
 90
    33793
280
     0
281
     0
  0
CLASS
  1
NPOCOLLECTION
  2
AcDbImpNonPersistentObjectsCollection
  3
ObjectDBX Classes
 90
    33921
280
     0
281
     0
  0
CLASS
  1
SORTENTSTABLE
  2
AcDbSortentsTable
  3
ObjectDBX Classes
 90
        0
280
     0
281
     0
  0
CLASS
  1
CELLSTYLEMAP
  2
AcDbCellStyleMap
  3
ObjectDBX Classes
 90
     1152
280
     0
281
     0
  0
CLASS
  1
ACDBPLACEHOLDER
  2
AcDbPlaceHolder
  3
ObjectDBX Classes
 90
        0
280
     0
281
     0
  0
CLASS
  1
LAYOUT
  2
AcDbLayout
  3
ObjectDBX Classes
 90
        0
280
     0
281
     0
  0
ENDSEC
  0
SECTION
  2
TABLES
  0
TABLE
  2
VPORT
  5
746D
102
{ACAD_XDICTIONARY
360
16287
102
}
330
0
100
AcDbSymbolTable
 70
     1
  0
VPORT
  5
13EA9
330
746D
100
AcDbSymbolTableRecord
100
AcDbViewportTableRecord
  2
*Active
 70
     0
 10
0.0
 20
0.0
 11
1.0
 21
1.0
 12
6167.820768928882
 22
4278.505952975371
 13
0.0
 23
0.0
 14
10.0
 24
10.0
 15
10.0
 25
10.0
 16
0.0
 26
0.0
 36
1.0
 17
0.0
 27
0.0
 37
0.0
 40
8769.005392911132
 41
1.390896921017402
 42
50.0
 43
0.0
 44
0.0
 50
0.0
 51
0.0
 71
     0
 72
     0
 73
     1
 74
     0
 75
     0
 76
     0
 77
     0
 78
     0
281
     0
 65
     1
110
0.0
120
0.0
130
0.0
111
1.0
121
0.0
131
0.0
112
0.0
122
1.0
132
0.0
 79
     0
146
0.0
1001
ACAD_NAV_VCDISPLAY
1070
     3
  0
ENDTAB
  0
TABLE
  2
LTYPE
  5
746A
330
0
100
AcDbSymbolTable
 70
     3
  0
LTYPE
  5
7477
330
746A
100
AcDbSymbolTableRecord
100
AcDbLinetypeTableRecord
  2
BYBLOCK
 70
     0
  3

 72
    65
 73
     0
 40
0.0
  0
LTYPE
  5
7478
330
746A
100
AcDbSymbolTableRecord
100
AcDbLinetypeTableRecord
  2
BYLAYER
 70
     0
  3

 72
    65
 73
     0
 40
0.0
  0
LTYPE
  5
7479
330
746A
100
AcDbSymbolTableRecord
100
AcDbLinetypeTableRecord
  2
CONTINUOUS
 70
     0
  3
Solid line
 72
    65
 73
     0
 40
0.0
  0
LTYPE
  5
781B
330
746A
100
AcDbSymbolTableRecord
100
AcDbLinetypeTableRecord
  2
PHANTOM
 70
     0
  3
______  __  __  ______  __  __  ______  __  __ 
 72
    65
 73
     6
 40
2.5
 49
1.25
 74
     0
 49
-0.25
 74
     0
 49
0.25
 74
     0
 49
-0.25
 74
     0
 49
0.25
 74
     0
 49
-0.25
 74
     0
  0
LTYPE
  5
13571
330
746A
100
AcDbSymbolTableRecord
100
AcDbLinetypeTableRecord
  2
CENTER
 70
     0
  3
Center ____ _ ____ _ ____ _ ____ _ ____ _ ____
 72
    65
 73
     4
 40
50.8
 49
31.75
 74
     0
 49
-6.349999999999999
 74
     0
 49
6.349999999999999
 74
     0
 49
-6.349999999999999
 74
     0
  0
ENDTAB
  0
TABLE
  2
LAYER
  5
7467
102
{ACAD_XDICTIONARY
360
13451
102
}
330
0
100
AcDbSymbolTable
 70
    14
  0
LAYER
  5
7474
102
{ACAD_XDICTIONARY
360
160DE
102
}
330
7467
100
AcDbSymbolTableRecord
100
AcDbLayerTableRecord
  2
0
 70
     0
 62
     7
  6
CONTINUOUS
370
    -3
390
1341B
  0
LAYER
  5
DEB3
102
{ACAD_XDICTIONARY
360
160E0
102
}
330
7467
100
AcDbSymbolTableRecord
100
AcDbLayerTableRecord
  2
寸法
 70
     0
 62
     4
  6
CONTINUOUS
370
    -3
390
1341B
  0
LAYER
  5
DEB4
102
{ACAD_XDICTIONARY
360
160E2
102
}
330
7467
100
AcDbSymbolTableRecord
100
AcDbLayerTableRecord
  2
部品1
 70
     0
 62
     7
  6
CONTINUOUS
370
    -3
390
1341B
  0
LAYER
  5
DEB5
102
{ACAD_XDICTIONARY
360
160E4
102
}
330
7467
100
AcDbSymbolTableRecord
100
AcDbLayerTableRecord
  2
補助
 70
     0
 62
    -1
  6
CONTINUOUS
370
    -3
390
1341B
  0
LAYER
  5
DEB6
102
{ACAD_XDICTIONARY
360
160E6
102
}
330
7467
100
AcDbSymbolTableRecord
100
AcDbLayerTableRecord
  2
文字
 70
     0
 62
     7
  6
CONTINUOUS
370
    -3
390
1341B
  0
LAYER
  5
F255
330
7467
100
AcDbSymbolTableRecord
100
AcDbLayerTableRecord
  2
DEFPOINTS
 70
     0
 62
     7
  6
CONTINUOUS
290
     0
370
    -3
390
1341B
  0
LAYER
  5
10B54
102
{ACAD_XDICTIONARY
360
160E8
102
}
330
7467
100
AcDbSymbolTableRecord
100
AcDbLayerTableRecord
  2
仕様書枠
 70
     0
 62
   230
  6
CONTINUOUS
370
    -3
390
1341B
  0
LAYER
  5
11729
102
{ACAD_XDICTIONARY
360
160EA
102
}
330
7467
100
AcDbSymbolTableRecord
100
AcDbLayerTableRecord
  2
Ｇ．Ｌ
 70
     0
 62
    30
  6
CONTINUOUS
370
    -3
390
1341B
  0
LAYER
  5
1173F
102
{ACAD_XDICTIONARY
360
160EC
102
}
330
7467
100
AcDbSymbolTableRecord
100
AcDbLayerTableRecord
  2
細線
 70
     0
 62
     5
  6
CONTINUOUS
370
    -3
390
1341B
  0
LAYER
  5
1356E
102
{ACAD_XDICTIONARY
360
160F0
102
}
330
7467
100
AcDbSymbolTableRecord
100
AcDbLayerTableRecord
  2
センター
 70
     0
 62
     3
  6
CENTER
370
    -3
390
1341B
  0
LAYER
  5
135FB
102
{ACAD_XDICTIONARY
360
160F2
102
}
330
7467
100
AcDbSymbolTableRecord
100
AcDbLayerTableRecord
  2
想像線
 70
     0
 62
     6
  6
PHANTOM
370
    -3
390
1341B
  0
LAYER
  5
1383F
102
{ACAD_XDICTIONARY
360
160F4
102
}
330
7467
100
AcDbSymbolTableRecord
100
AcDbLayerTableRecord
  2
U7
 70
     0
 62
     2
  6
CONTINUOUS
370
    -3
390
1341B
  0
LAYER
  5
13840
102
{ACAD_XDICTIONARY
360
160F6
102
}
330
7467
100
AcDbSymbolTableRecord
100
AcDbLayerTableRecord
  2
KIN-T
 70
     0
 62
     3
  6
CONTINUOUS
370
    -3
390
1341B
  0
LAYER
  5
13841
102
{ACAD_XDICTIONARY
360
160F8
102
}
330
7467
100
AcDbSymbolTableRecord
100
AcDbLayerTableRecord
  2
CSLAYER17
 70
     0
 62
     7
  6
CONTINUOUS
370
    -3
390
1341B
  0
ENDTAB
  0
TABLE
  2
STYLE
  5
7468
330
0
100
AcDbSymbolTable
 70
     5
  0
STYLE
  5
7475
330
7468
100
AcDbSymbolTableRecord
100
AcDbTextStyleTableRecord
  2
STANDARD
 70
     0
 40
0.0
 41
1.0
 50
0.0
 71
     0
 42
4.0
  3
txt
  4
C:\AutoCAD LT\bigfont.shx
  0
STYLE
  5
763C
330
7468
100
AcDbSymbolTableRecord
100
AcDbTextStyleTableRecord
  2
MSMINCHO
 70
     0
 40
0.0
 41
1.0
 50
0.0
 71
     0
 42
1.199999999999999
  3
C:\AutoCAD LT\msminch2.TTF
  4

  0
STYLE
  5
F706
330
7468
100
AcDbSymbolTableRecord
100
AcDbTextStyleTableRecord
  2
STYLE1
 70
     0
 40
0.0
 41
1.0
 50
0.0
 71
     0
 42
4.0
  3
isocp.shx
  4
bigfont.shx
  0
STYLE
  5
103BF
330
7468
100
AcDbSymbolTableRecord
100
AcDbTextStyleTableRecord
  2
STYLE2
 70
     0
 40
0.0
 41
1.0
 50
0.0
 71
     0
 42
100.0
  3

  4

1001
ACAD
1000
MS PGothic
1071
    32818
  0
STYLE
  5
10BAA
330
7468
100
AcDbSymbolTableRecord
100
AcDbTextStyleTableRecord
  2
STYLE3
 70
     0
 40
0.0
 41
1.0
 50
0.0
 71
     0
 42
100.0
  3

  4

1001
ACAD
1000
MS PGothic
1071
    32818
  0
ENDTAB
  0
TABLE
  2
VIEW
  5
746B
330
0
100
AcDbSymbolTable
 70
     0
  0
ENDTAB
  0
TABLE
  2
UCS
  5
746C
330
0
100
AcDbSymbolTable
 70
     0
  0
ENDTAB
  0
TABLE
  2
APPID
  5
746E
330
0
100
AcDbSymbolTable
 70
    12
  0
APPID
  5
7476
330
746E
100
AcDbSymbolTableRecord
100
AcDbRegAppTableRecord
  2
ACAD
 70
     0
  0
APPID
  5
DEA9
330
746E
100
AcDbSymbolTableRecord
100
AcDbRegAppTableRecord
  2
CONTENTBLOCKICON
 70
     0
  0
APPID
  5
DEAA
330
746E
100
AcDbSymbolTableRecord
100
AcDbRegAppTableRecord
  2
CONTENTBLOCKDESCRIPTION
 70
     0
  0
APPID
  5
E71D
330
746E
100
AcDbSymbolTableRecord
100
AcDbRegAppTableRecord
  2
CONTENTTABDATA
 70
     0
  0
APPID
  5
E71E
330
746E
100
AcDbSymbolTableRecord
100
AcDbRegAppTableRecord
  2
CONTENTCURRENTTAB
 70
     0
  0
APPID
  5
F3BA
330
746E
100
AcDbSymbolTableRecord
100
AcDbRegAppTableRecord
  2
DRAWINGVARIABLESXDATA
 70
     0
  0
APPID
  5
13F02
330
746E
100
AcDbSymbolTableRecord
100
AcDbRegAppTableRecord
  2
ACAD_NAV_VCDISPLAY
 70
     0
  0
APPID
  5
146A6
330
746E
100
AcDbSymbolTableRecord
100
AcDbRegAppTableRecord
  2
GradientColor1ACI
 70
     0
  0
APPID
  5
146A7
330
746E
100
AcDbSymbolTableRecord
100
AcDbRegAppTableRecord
  2
GradientColor2ACI
 70
     0
  0
APPID
  5
16081
330
746E
100
AcDbSymbolTableRecord
100
AcDbRegAppTableRecord
  2
AcadAnnoMonitorAlertIconDisabled
 70
     0
  0
APPID
  5
16082
330
746E
100
AcDbSymbolTableRecord
100
AcDbRegAppTableRecord
  2
ACAD_EXEMPT_FROM_CAD_STANDARDS
 70
     0
  0
APPID
  5
162C1
330
746E
100
AcDbSymbolTableRecord
100
AcDbRegAppTableRecord
  2
ACAD_MLEADERVER
 70
     0
  0
ENDTAB
  0
TABLE
  2
DIMSTYLE
  5
746F
330
0
100
AcDbSymbolTable
 70
     2
100
AcDbDimStyleTable
 71
     1
340
F71F
  0
DIMSTYLE
105
F71F
102
{ACAD_REACTORS
330
14EFE
330
14EFF
330
14F00
330
14F01
330
14F02
330
14F03
330
14F04
330
14F05
330
14F06
330
14F7D
330
14F7E
330
1510F
330
15110
330
15111
330
15115
330
15116
330
15117
330
15139
330
1513A
330
1513B
330
1513C
330
15146
330
15147
330
15148
330
15149
330
1514A
330
1514B
330
1514C
330
1514D
330
1514E
330
1514F
330
15FCB
330
15FBE
330
16054
102
}
330
746F
100
AcDbSymbolTableRecord
100
AcDbDimStyleTableRecord
  2
INABA_S30G
 70
     0
 40
30.0
 41
2.5
 42
0.5
 43
7.0
 44
1.5
 73
     0
 74
     0
 77
     3
 78
     8
140
3.0
141
0.0
143
0.0394
147
1.0
172
     1
173
     1
174
     1
175
     1
178
     7
271
     1
340
F706
341
F770
343
F770
344
F770
  0
DIMSTYLE
105
13842
330
746F
100
AcDbSymbolTableRecord
100
AcDbDimStyleTableRecord
  2
INABA_S50G
 70
     0
 41
125.0
 42
25.0
 43
7.0
 44
75.0
 73
     0
 74
     0
 77
     3
 78
     8
140
150.0
141
0.0
143
0.0394
147
25.0
172
     1
173
     1
174
     1
178
     7
271
     1
340
F706
341
F770
343
F770
344
F770
  0
ENDTAB
  0
TABLE
  2
BLOCK_RECORD
  5
7466
330
0
100
AcDbSymbolTable
 70
    36
  0
BLOCK_RECORD
  5
747D
102
{ACAD_XDICTIONARY
360
160D7
102
}
330
7466
100
AcDbSymbolTableRecord
100
AcDbBlockTableRecord
  2
*MODEL_SPACE
340
13420
  0
BLOCK_RECORD
  5
747A
330
7466
100
AcDbSymbolTableRecord
100
AcDbBlockTableRecord
  2
*PAPER_SPACE
340
13421
  0
BLOCK_RECORD
  5
F770
330
7466
100
AcDbSymbolTableRecord
100
AcDbBlockTableRecord
  2
_DOTSMALL
340
0
102
{BLKREFS
331
1638C
331
1638D
331
16395
331
16396
331
163AD
331
163AE
331
163B6
331
163B7
331
163C0
331
163C1
331
163C9
331
163CA
331
163D2
331
163D3
331
163DB
331
163DC
331
163E4
331
163E5
331
163ED
331
163EE
331
163F6
331
163F7
331
163FF
331
16400
331
16408
331
16409
331
16411
331
16412
331
1641A
331
1641B
331
16423
331
16424
331
1642C
331
1642D
331
16435
331
16436
331
1643E
331
1643F
331
16447
331
16448
331
1644F
331
16456
331
1632A
331
1632B
331
16334
331
16335
331
1633D
331
1633E
331
16346
331
16347
331
1634F
331
16350
331
16358
331
16359
331
16361
331
16362
331
1636C
331
1636D
331
16377
331
16378
331
16381
331
16382
102
}
  0
BLOCK_RECORD
  5
135E3
330
7466
100
AcDbSymbolTableRecord
100
AcDbBlockTableRecord
  2
_None
340
0
  0
BLOCK_RECORD
  5
15289
330
7466
100
AcDbSymbolTableRecord
100
AcDbBlockTableRecord
  2
*D2
340
0
  0
BLOCK_RECORD
  5
15296
330
7466
100
AcDbSymbolTableRecord
100
AcDbBlockTableRecord
  2
*D3
340
0
  0
BLOCK_RECORD
  5
152A3
330
7466
100
AcDbSymbolTableRecord
100
AcDbBlockTableRecord
  2
*D4
340
0
  0
BLOCK_RECORD
  5
152AF
330
7466
100
AcDbSymbolTableRecord
100
AcDbBlockTableRecord
  2
*D5
340
0
  0
BLOCK_RECORD
  5
152BB
330
7466
100
AcDbSymbolTableRecord
100
AcDbBlockTableRecord
  2
*D6
340
0
  0
BLOCK_RECORD
  5
152C7
330
7466
100
AcDbSymbolTableRecord
100
AcDbBlockTableRecord
  2
*D7
340
0
  0
BLOCK_RECORD
  5
152D3
330
7466
100
AcDbSymbolTableRecord
100
AcDbBlockTableRecord
  2
*D8
340
0
  0
BLOCK_RECORD
  5
152DF
330
7466
100
AcDbSymbolTableRecord
100
AcDbBlockTableRecord
  2
*D9
340
0
  0
BLOCK_RECORD
  5
152ED
330
7466
100
AcDbSymbolTableRecord
100
AcDbBlockTableRecord
  2
*D10
340
0
  0
BLOCK_RECORD
  5
152FB
330
7466
100
AcDbSymbolTableRecord
100
AcDbBlockTableRecord
  2
*D11
340
0
  0
BLOCK_RECORD
  5
15308
330
7466
100
AcDbSymbolTableRecord
100
AcDbBlockTableRecord
  2
*D12
340
0
  0
BLOCK_RECORD
  5
157CA
330
7466
100
AcDbSymbolTableRecord
100
AcDbBlockTableRecord
  2
*D13
340
0
  0
BLOCK_RECORD
  5
157D6
330
7466
100
AcDbSymbolTableRecord
100
AcDbBlockTableRecord
  2
*D14
340
0
  0
BLOCK_RECORD
  5
157E0
330
7466
100
AcDbSymbolTableRecord
100
AcDbBlockTableRecord
  2
*D15
340
0
  0
BLOCK_RECORD
  5
15810
330
7466
100
AcDbSymbolTableRecord
100
AcDbBlockTableRecord
  2
*D16
340
0
  0
BLOCK_RECORD
  5
1581D
330
7466
100
AcDbSymbolTableRecord
100
AcDbBlockTableRecord
  2
*D17
340
0
  0
BLOCK_RECORD
  5
15829
330
7466
100
AcDbSymbolTableRecord
100
AcDbBlockTableRecord
  2
*D18
340
0
  0
BLOCK_RECORD
  5
158DE
330
7466
100
AcDbSymbolTableRecord
100
AcDbBlockTableRecord
  2
*D19
340
0
  0
BLOCK_RECORD
  5
158EA
330
7466
100
AcDbSymbolTableRecord
100
AcDbBlockTableRecord
  2
*D20
340
0
  0
BLOCK_RECORD
  5
158F6
330
7466
100
AcDbSymbolTableRecord
100
AcDbBlockTableRecord
  2
*D21
340
0
  0
BLOCK_RECORD
  5
15902
330
7466
100
AcDbSymbolTableRecord
100
AcDbBlockTableRecord
  2
*D22
340
0
  0
BLOCK_RECORD
  5
1590E
330
7466
100
AcDbSymbolTableRecord
100
AcDbBlockTableRecord
  2
*D23
340
0
  0
BLOCK_RECORD
  5
1591A
330
7466
100
AcDbSymbolTableRecord
100
AcDbBlockTableRecord
  2
*D24
340
0
  0
BLOCK_RECORD
  5
15926
330
7466
100
AcDbSymbolTableRecord
100
AcDbBlockTableRecord
  2
*D25
340
0
  0
BLOCK_RECORD
  5
15932
330
7466
100
AcDbSymbolTableRecord
100
AcDbBlockTableRecord
  2
*D26
340
0
  0
BLOCK_RECORD
  5
1593E
330
7466
100
AcDbSymbolTableRecord
100
AcDbBlockTableRecord
  2
*D27
340
0
  0
BLOCK_RECORD
  5
1594A
330
7466
100
AcDbSymbolTableRecord
100
AcDbBlockTableRecord
  2
*D28
340
0
  0
BLOCK_RECORD
  5
15956
330
7466
100
AcDbSymbolTableRecord
100
AcDbBlockTableRecord
  2
*D29
340
0
  0
BLOCK_RECORD
  5
15962
330
7466
100
AcDbSymbolTableRecord
100
AcDbBlockTableRecord
  2
*D30
340
0
  0
BLOCK_RECORD
  5
1596E
330
7466
100
AcDbSymbolTableRecord
100
AcDbBlockTableRecord
  2
*D31
340
0
  0
BLOCK_RECORD
  5
1597A
330
7466
100
AcDbSymbolTableRecord
100
AcDbBlockTableRecord
  2
*D32
340
0
  0
BLOCK_RECORD
  5
15FBF
330
7466
100
AcDbSymbolTableRecord
100
AcDbBlockTableRecord
  2
*D33
340
0
  0
BLOCK_RECORD
  5
15FCC
330
7466
100
AcDbSymbolTableRecord
100
AcDbBlockTableRecord
  2
*D34
340
0
  0
BLOCK_RECORD
  5
16055
330
7466
100
AcDbSymbolTableRecord
100
AcDbBlockTableRecord
  2
*D35
340
0
  0
ENDTAB
  0
ENDSEC
  0
SECTION
  2
BLOCKS
  0
BLOCK
  5
7489
330
747D
100
AcDbEntity
  8
0
100
AcDbBlockBegin
  2
*MODEL_SPACE
 70
     0
 10
0.0
 20
0.0
 30
0.0
  3
*MODEL_SPACE
  1

  0
ENDBLK
  5
748A
330
747D
100
AcDbEntity
  8
0
100
AcDbBlockEnd
  0
BLOCK
  5
7487
330
747A
100
AcDbEntity
 67
     1
  8
0
100
AcDbBlockBegin
  2
*PAPER_SPACE
 70
     0
 10
0.0
 20
0.0
 30
0.0
  3
*PAPER_SPACE
  1

  0
ENDBLK
  5
7488
330
747A
100
AcDbEntity
 67
     1
  8
0
100
AcDbBlockEnd
  0
BLOCK
  5
F771
330
F770
100
AcDbEntity
  8
0
 48
50.0
100
AcDbBlockBegin
  2
_DOTSMALL
 70
     0
 10
0.0
 20
0.0
 30
0.0
  3
_DOTSMALL
  1

  0
LWPOLYLINE
  5
F772
330
F770
100
AcDbEntity
  8
0
  6
ByBlock
 62
     0
 48
50.0
100
AcDbPolyline
 90
        2
 70
     1
 43
0.5
 10
-0.0625
 20
0.0
 42
1.0
 10
0.0625
 20
0.0
 42
1.0
  0
ENDBLK
  5
F776
330
F770
100
AcDbEntity
  8
0
 48
50.0
100
AcDbBlockEnd
  0
BLOCK
  5
135E4
330
135E3
100
AcDbEntity
  8
0
 48
50.0
100
AcDbBlockBegin
  2
_None
 70
     0
 10
0.0
 20
0.0
 30
0.0
  3
_None
  1

  0
ENDBLK
  5
135E5
330
135E3
100
AcDbEntity
  8
0
 48
50.0
100
AcDbBlockEnd
  0
BLOCK
  5
1528A
330
15289
100
AcDbEntity
  8
0
 48
50.0
100
AcDbBlockBegin
  2
*D2
 70
     1
 10
0.0
 20
0.0
 30
0.0
  3
*D2
  1

  0
LINE
  5
16326
330
15289
100
AcDbEntity
  8
寸法
 62
     0
 48
50.0
370
    -2
100
AcDbLine
 10
8613.860935950619
 20
3866.408999495949
 30
0.0
 11
8433.279808848714
 21
3866.408999495949
 31
0.0
  0
LINE
  5
16327
330
15289
100
AcDbEntity
  8
寸法
 62
     0
 48
50.0
370
    -2
100
AcDbLine
 10
8613.860935950619
 20
3966.408999495949
 30
0.0
 11
8433.279808848714
 21
3966.408999495949
 31
0.0
  0
LINE
  5
16328
330
15289
100
AcDbEntity
  8
寸法
 62
     0
 48
50.0
370
    -2
100
AcDbLine
 10
8478.279808848714
 20
3866.408999495949
 30
0.0
 11
8478.279808848714
 21
3966.408999495949
 31
0.0
  0
LINE
  5
16329
330
15289
100
AcDbEntity
  8
寸法
 62
     0
 48
50.0
370
    -2
100
AcDbLine
 10
8478.279808848714
 20
3966.408999495949
 30
0.0
 11
8478.279808848716
 21
4245.479865637722
 31
0.0
  0
INSERT
  5
1632A
330
15289
100
AcDbEntity
  8
寸法
 62
     0
 48
50.0
370
    -2
100
AcDbBlockReference
  2
_DOTSMALL
 10
8478.279808848714
 20
3866.408999495949
 30
0.0
 41
75.0
 42
75.0
 43
75.0
 50
270.0
  0
INSERT
  5
1632B
330
15289
100
AcDbEntity
  8
寸法
 62
     0
 48
50.0
370
    -2
100
AcDbBlockReference
  2
_DOTSMALL
 10
8478.279808848714
 20
3966.408999495949
 30
0.0
 41
75.0
 42
75.0
 43
75.0
 50
90.0
  0
MTEXT
  5
1632C
330
15289
100
AcDbEntity
  8
寸法
 62
     7
 48
50.0
100
AcDbMText
 10
8403.279808848713
 20
4143.444432566857
 30
0.0
 40
90.0
 41
0.0
 71
     5
 72
     1
  1
\A1;100
  7
STYLE1
 11
0.0000000000000001
 21
1.0
 31
0.0
 73
     1
 44
1.0
1001
ACAD
1000
MTEXTBEGIN
1070
    73
1070
     1
1070
    44
1040
1.0
1070
    74
1070
     0
1000
MTEXTEND
  0
POINT
  5
1632D
330
15289
100
AcDbEntity
  8
DEFPOINTS
 62
     0
 48
50.0
100
AcDbPoint
 10
8628.860935950619
 20
3866.408999495949
 30
0.0
  0
POINT
  5
1632E
330
15289
100
AcDbEntity
  8
DEFPOINTS
 62
     0
 48
50.0
100
AcDbPoint
 10
8628.860935950619
 20
3966.408999495949
 30
0.0
  0
POINT
  5
1632F
330
15289
100
AcDbEntity
  8
DEFPOINTS
 62
     0
 48
50.0
100
AcDbPoint
 10
8478.279808848714
 20
3966.408999495949
 30
0.0
  0
ENDBLK
  5
1528B
330
15289
100
AcDbEntity
  8
0
 48
50.0
100
AcDbBlockEnd
  0
BLOCK
  5
15297
330
15296
100
AcDbEntity
  8
0
 48
50.0
100
AcDbBlockBegin
  2
*D3
 70
     1
 10
0.0
 20
0.0
 30
0.0
  3
*D3
  1

  0
LINE
  5
16330
330
15296
100
AcDbEntity
  8
寸法
 62
     0
 48
50.0
370
    -2
100
AcDbLine
 10
8613.860935950619
 20
3866.408999495949
 30
0.0
 11
8433.279808848714
 21
3866.408999495949
 31
0.0
  0
LINE
  5
16331
330
15296
100
AcDbEntity
  8
寸法
 62
     0
 48
50.0
370
    -2
100
AcDbLine
 10
8613.860935950619
 20
3766.408999495949
 30
0.0
 11
8433.279808848714
 21
3766.408999495949
 31
0.0
  0
LINE
  5
16332
330
15296
100
AcDbEntity
  8
寸法
 62
     0
 48
50.0
370
    -2
100
AcDbLine
 10
8478.279808848714
 20
3866.408999495949
 30
0.0
 11
8478.279808848714
 21
3766.408999495949
 31
0.0
  0
LINE
  5
16333
330
15296
100
AcDbEntity
  8
寸法
 62
     0
 48
50.0
370
    -2
100
AcDbLine
 10
8478.279808848714
 20
3766.408999495949
 30
0.0
 11
8478.279808848714
 21
3487.338133354216
 31
0.0
  0
INSERT
  5
16334
330
15296
100
AcDbEntity
  8
寸法
 62
     0
 48
50.0
370
    -2
100
AcDbBlockReference
  2
_DOTSMALL
 10
8478.279808848714
 20
3866.408999495949
 30
0.0
 41
75.0
 42
75.0
 43
75.0
 50
90.0
  0
INSERT
  5
16335
330
15296
100
AcDbEntity
  8
寸法
 62
     0
 48
50.0
370
    -2
100
AcDbBlockReference
  2
_DOTSMALL
 10
8478.279808848714
 20
3766.408999495949
 30
0.0
 41
75.0
 42
75.0
 43
75.0
 50
270.0
  0
MTEXT
  5
16336
330
15296
100
AcDbEntity
  8
寸法
 62
     7
 48
50.0
100
AcDbMText
 10
8403.279808848713
 20
3589.373566425083
 30
0.0
 40
90.0
 41
0.0
 71
     5
 72
     1
  1
\A1;100
  7
STYLE1
 11
0.0000000000000001
 21
1.0
 31
0.0
 73
     1
 44
1.0
1001
ACAD
1000
MTEXTBEGIN
1070
    73
1070
     1
1070
    44
1040
1.0
1070
    74
1070
     0
1000
MTEXTEND
  0
POINT
  5
16337
330
15296
100
AcDbEntity
  8
DEFPOINTS
 62
     0
 48
50.0
100
AcDbPoint
 10
8628.860935950619
 20
3866.408999495949
 30
0.0
  0
POINT
  5
16338
330
15296
100
AcDbEntity
  8
DEFPOINTS
 62
     0
 48
50.0
100
AcDbPoint
 10
8628.860935950619
 20
3766.408999495949
 30
0.0
  0
POINT
  5
16339
330
15296
100
AcDbEntity
  8
DEFPOINTS
 62
     0
 48
50.0
100
AcDbPoint
 10
8478.279808848714
 20
3766.408999495949
 30
0.0
  0
ENDBLK
  5
15298
330
15296
100
AcDbEntity
  8
0
 48
50.0
100
AcDbBlockEnd
  0
BLOCK
  5
152A4
330
152A3
100
AcDbEntity
  8
0
 48
50.0
100
AcDbBlockBegin
  2
*D4
 70
     1
 10
0.0
 20
0.0
 30
0.0
  3
*D4
  1

  0
LINE
  5
1633A
330
152A3
100
AcDbEntity
  8
寸法
 62
     0
 48
50.0
370
    -2
100
AcDbLine
 10
9128.860935950678
 20
3301.408999495949
 30
0.0
 11
9128.860935950678
 21
2829.792369851914
 31
0.0
  0
LINE
  5
1633B
330
152A3
100
AcDbEntity
  8
寸法
 62
     0
 48
50.0
370
    -2
100
AcDbLine
 10
9653.860935950678
 20
3240.351167666069
 30
0.0
 11
9653.860935950678
 21
2829.792369851914
 31
0.0
  0
LINE
  5
1633C
330
152A3
100
AcDbEntity
  8
寸法
 62
     0
 48
50.0
370
    -2
100
AcDbLine
 10
9128.860935950678
 20
2874.792369851914
 30
0.0
 11
9653.860935950678
 21
2874.792369851914
 31
0.0
  0
INSERT
  5
1633D
330
152A3
100
AcDbEntity
  8
寸法
 62
     0
 48
50.0
370
    -2
100
AcDbBlockReference
  2
_DOTSMALL
 10
9128.860935950678
 20
2874.792369851914
 30
0.0
 41
75.0
 42
75.0
 43
75.0
 50
180.0
  0
INSERT
  5
1633E
330
152A3
100
AcDbEntity
  8
寸法
 62
     0
 48
50.0
370
    -2
100
AcDbBlockReference
  2
_DOTSMALL
 10
9653.860935950678
 20
2874.792369851914
 30
0.0
 41
75.0
 42
75.0
 43
75.0
  0
MTEXT
  5
1633F
330
152A3
100
AcDbEntity
  8
寸法
 62
     7
 48
50.0
100
AcDbMText
 10
9391.360935950677
 20
2949.80122811963
 30
0.0
 40
90.0
 41
0.0
 71
     5
 72
     1
  1
\A1;525
  7
STYLE1
 73
     1
 44
1.0
1001
ACAD
1000
MTEXTBEGIN
1070
    73
1070
     1
1070
    44
1040
1.0
1070
    74
1070
     0
1000
MTEXTEND
  0
POINT
  5
16340
330
152A3
100
AcDbEntity
  8
DEFPOINTS
 62
     0
 48
50.0
100
AcDbPoint
 10
9128.860935950678
 20
3316.408999495949
 30
0.0
  0
POINT
  5
16341
330
152A3
100
AcDbEntity
  8
DEFPOINTS
 62
     0
 48
50.0
100
AcDbPoint
 10
9653.860935950678
 20
3255.351167666069
 30
0.0
  0
POINT
  5
16342
330
152A3
100
AcDbEntity
  8
DEFPOINTS
 62
     0
 48
50.0
100
AcDbPoint
 10
9653.860935950678
 20
2874.792369851914
 30
0.0
  0
ENDBLK
  5
152A5
330
152A3
100
AcDbEntity
  8
0
 48
50.0
100
AcDbBlockEnd
  0
BLOCK
  5
152B0
330
152AF
100
AcDbEntity
  8
0
 48
50.0
100
AcDbBlockBegin
  2
*D5
 70
     1
 10
0.0
 20
0.0
 30
0.0
  3
*D5
  1

  0
LINE
  5
16343
330
152AF
100
AcDbEntity
  8
寸法
 62
     0
 48
50.0
370
    -2
100
AcDbLine
 10
10528.86093595067
 20
3301.408999495949
 30
0.0
 11
10528.86093595067
 21
2599.706808763162
 31
0.0
  0
LINE
  5
16344
330
152AF
100
AcDbEntity
  8
寸法
 62
     0
 48
50.0
370
    -2
100
AcDbLine
 10
9128.860935950678
 20
3301.408999495949
 30
0.0
 11
9128.860935950678
 21
2599.706808763162
 31
0.0
  0
LINE
  5
16345
330
152AF
100
AcDbEntity
  8
寸法
 62
     0
 48
50.0
370
    -2
100
AcDbLine
 10
10528.86093595067
 20
2644.706808763161
 30
0.0
 11
9128.860935950678
 21
2644.706808763161
 31
0.0
  0
INSERT
  5
16346
330
152AF
100
AcDbEntity
  8
寸法
 62
     0
 48
50.0
370
    -2
100
AcDbBlockReference
  2
_DOTSMALL
 10
10528.86093595067
 20
2644.706808763161
 30
0.0
 41
75.0
 42
75.0
 43
75.0
  0
INSERT
  5
16347
330
152AF
100
AcDbEntity
  8
寸法
 62
     0
 48
50.0
370
    -2
100
AcDbBlockReference
  2
_DOTSMALL
 10
9128.860935950678
 20
2644.706808763161
 30
0.0
 41
75.0
 42
75.0
 43
75.0
 50
180.0
  0
MTEXT
  5
16348
330
152AF
100
AcDbEntity
  8
寸法
 62
     7
 48
50.0
100
AcDbMText
 10
9828.860935950679
 20
2719.706808763162
 30
0.0
 40
90.0
 41
0.0
 71
     5
 72
     1
  1
\A1;1400
  7
STYLE1
 73
     1
 44
1.0
1001
ACAD
1000
MTEXTBEGIN
1070
    73
1070
     1
1070
    44
1040
1.0
1070
    74
1070
     0
1000
MTEXTEND
  0
POINT
  5
16349
330
152AF
100
AcDbEntity
  8
DEFPOINTS
 62
     0
 48
50.0
100
AcDbPoint
 10
10528.86093595067
 20
3316.408999495949
 30
0.0
  0
POINT
  5
1634A
330
152AF
100
AcDbEntity
  8
DEFPOINTS
 62
     0
 48
50.0
100
AcDbPoint
 10
9128.860935950678
 20
3316.408999495949
 30
0.0
  0
POINT
  5
1634B
330
152AF
100
AcDbEntity
  8
DEFPOINTS
 62
     0
 48
50.0
100
AcDbPoint
 10
9128.860935950678
 20
2644.706808763161
 30
0.0
  0
ENDBLK
  5
152B1
330
152AF
100
AcDbEntity
  8
0
 48
50.0
100
AcDbBlockEnd
  0
BLOCK
  5
152BC
330
152BB
100
AcDbEntity
  8
0
 48
50.0
100
AcDbBlockBegin
  2
*D6
 70
     1
 10
0.0
 20
0.0
 30
0.0
  3
*D6
  1

  0
LINE
  5
1634C
330
152BB
100
AcDbEntity
  8
寸法
 62
     0
 48
50.0
370
    -2
100
AcDbLine
 10
9653.860935950678
 20
3240.351167666069
 30
0.0
 11
9653.860935950678
 21
2829.792369851914
 31
0.0
  0
LINE
  5
1634D
330
152BB
100
AcDbEntity
  8
寸法
 62
     0
 48
50.0
370
    -2
100
AcDbLine
 10
10003.86093595067
 20
3240.351167666069
 30
0.0
 11
10003.86093595067
 21
2829.792369851914
 31
0.0
  0
LINE
  5
1634E
330
152BB
100
AcDbEntity
  8
寸法
 62
     0
 48
50.0
370
    -2
100
AcDbLine
 10
9653.860935950678
 20
2874.792369851914
 30
0.0
 11
10003.86093595067
 21
2874.792369851914
 31
0.0
  0
INSERT
  5
1634F
330
152BB
100
AcDbEntity
  8
寸法
 62
     0
 48
50.0
370
    -2
100
AcDbBlockReference
  2
_DOTSMALL
 10
9653.860935950678
 20
2874.792369851914
 30
0.0
 41
75.0
 42
75.0
 43
75.0
 50
180.0
  0
INSERT
  5
16350
330
152BB
100
AcDbEntity
  8
寸法
 62
     0
 48
50.0
370
    -2
100
AcDbBlockReference
  2
_DOTSMALL
 10
10003.86093595067
 20
2874.792369851914
 30
0.0
 41
75.0
 42
75.0
 43
75.0
  0
MTEXT
  5
16351
330
152BB
100
AcDbEntity
  8
寸法
 62
     7
 48
50.0
100
AcDbMText
 10
9828.860935950679
 20
2949.792369851913
 30
0.0
 40
90.0
 41
0.0
 71
     5
 72
     1
  1
\A1;350
  7
STYLE1
 73
     1
 44
1.0
1001
ACAD
1000
MTEXTBEGIN
1070
    73
1070
     1
1070
    44
1040
1.0
1070
    74
1070
     0
1000
MTEXTEND
  0
POINT
  5
16352
330
152BB
100
AcDbEntity
  8
DEFPOINTS
 62
     0
 48
50.0
100
AcDbPoint
 10
9653.860935950678
 20
3255.351167666069
 30
0.0
  0
POINT
  5
16353
330
152BB
100
AcDbEntity
  8
DEFPOINTS
 62
     0
 48
50.0
100
AcDbPoint
 10
10003.86093595067
 20
3255.351167666069
 30
0.0
  0
POINT
  5
16354
330
152BB
100
AcDbEntity
  8
DEFPOINTS
 62
     0
 48
50.0
100
AcDbPoint
 10
10003.86093595067
 20
2874.792369851914
 30
0.0
  0
ENDBLK
  5
152BD
330
152BB
100
AcDbEntity
  8
0
 48
50.0
100
AcDbBlockEnd
  0
BLOCK
  5
152C8
330
152C7
100
AcDbEntity
  8
0
 48
50.0
100
AcDbBlockBegin
  2
*D7
 70
     1
 10
0.0
 20
0.0
 30
0.0
  3
*D7
  1

  0
LINE
  5
16355
330
152C7
100
AcDbEntity
  8
寸法
 62
     0
 48
50.0
370
    -2
100
AcDbLine
 10
10528.86093595067
 20
3301.408999495949
 30
0.0
 11
10528.86093595067
 21
2829.792369851914
 31
0.0
  0
LINE
  5
16356
330
152C7
100
AcDbEntity
  8
寸法
 62
     0
 48
50.0
370
    -2
100
AcDbLine
 10
10003.86093595067
 20
3240.351167666069
 30
0.0
 11
10003.86093595067
 21
2829.792369851914
 31
0.0
  0
LINE
  5
16357
330
152C7
100
AcDbEntity
  8
寸法
 62
     0
 48
50.0
370
    -2
100
AcDbLine
 10
10528.86093595067
 20
2874.792369851914
 30
0.0
 11
10003.86093595067
 21
2874.792369851914
 31
0.0
  0
INSERT
  5
16358
330
152C7
100
AcDbEntity
  8
寸法
 62
     0
 48
50.0
370
    -2
100
AcDbBlockReference
  2
_DOTSMALL
 10
10528.86093595067
 20
2874.792369851914
 30
0.0
 41
75.0
 42
75.0
 43
75.0
  0
INSERT
  5
16359
330
152C7
100
AcDbEntity
  8
寸法
 62
     0
 48
50.0
370
    -2
100
AcDbBlockReference
  2
_DOTSMALL
 10
10003.86093595067
 20
2874.792369851914
 30
0.0
 41
75.0
 42
75.0
 43
75.0
 50
180.0
  0
MTEXT
  5
1635A
330
152C7
100
AcDbEntity
  8
寸法
 62
     7
 48
50.0
100
AcDbMText
 10
10266.36093595068
 20
2949.80122811963
 30
0.0
 40
90.0
 41
0.0
 71
     5
 72
     1
  1
\A1;525
  7
STYLE1
 73
     1
 44
1.0
1001
ACAD
1000
MTEXTBEGIN
1070
    73
1070
     1
1070
    44
1040
1.0
1070
    74
1070
     0
1000
MTEXTEND
  0
POINT
  5
1635B
330
152C7
100
AcDbEntity
  8
DEFPOINTS
 62
     0
 48
50.0
100
AcDbPoint
 10
10528.86093595067
 20
3316.408999495949
 30
0.0
  0
POINT
  5
1635C
330
152C7
100
AcDbEntity
  8
DEFPOINTS
 62
     0
 48
50.0
100
AcDbPoint
 10
10003.86093595067
 20
3255.351167666069
 30
0.0
  0
POINT
  5
1635D
330
152C7
100
AcDbEntity
  8
DEFPOINTS
 62
     0
 48
50.0
100
AcDbPoint
 10
10003.86093595067
 20
2874.792369851914
 30
0.0
  0
ENDBLK
  5
152C9
330
152C7
100
AcDbEntity
  8
0
 48
50.0
100
AcDbBlockEnd
  0
BLOCK
  5
152D4
330
152D3
100
AcDbEntity
  8
0
 48
50.0
100
AcDbBlockBegin
  2
*D8
 70
     1
 10
0.0
 20
0.0
 30
0.0
  3
*D8
  1

  0
LINE
  5
1635E
330
152D3
100
AcDbEntity
  8
寸法
 62
     0
 48
50.0
370
    -2
100
AcDbLine
 10
11108.65881351419
 20
3916.408999495949
 30
0.0
 11
11366.3023005514
 21
3916.408999495948
 31
0.0
  0
LINE
  5
1635F
330
152D3
100
AcDbEntity
  8
寸法
 62
     0
 48
50.0
370
    -2
100
AcDbLine
 10
10623.86093595067
 20
3316.408999495949
 30
0.0
 11
11366.3023005514
 21
3316.408999495948
 31
0.0
  0
LINE
  5
16360
330
152D3
100
AcDbEntity
  8
寸法
 62
     0
 48
50.0
370
    -2
100
AcDbLine
 10
11321.30230055141
 20
3916.408999495948
 30
0.0
 11
11321.30230055141
 21
3316.408999495948
 31
0.0
  0
INSERT
  5
16361
330
152D3
100
AcDbEntity
  8
寸法
 62
     0
 48
50.0
370
    -2
100
AcDbBlockReference
  2
_DOTSMALL
 10
11321.30230055141
 20
3916.408999495948
 30
0.0
 41
75.0
 42
75.0
 43
75.0
 50
90.0
  0
INSERT
  5
16362
330
152D3
100
AcDbEntity
  8
寸法
 62
     0
 48
50.0
370
    -2
100
AcDbBlockReference
  2
_DOTSMALL
 10
11321.30230055141
 20
3316.408999495948
 30
0.0
 41
75.0
 42
75.0
 43
75.0
 50
270.0
  0
MTEXT
  5
16363
330
152D3
100
AcDbEntity
  8
寸法
 62
     7
 48
50.0
100
AcDbMText
 10
11246.3023005514
 20
3616.408999495951
 30
0.0
 40
90.0
 41
0.0
 71
     5
 72
     1
  1
\A1;600
  7
STYLE1
 11
0.0000000000000001
 21
1.0
 31
0.0
 73
     1
 44
1.0
1001
ACAD
1000
MTEXTBEGIN
1070
    73
1070
     1
1070
    44
1040
1.0
1070
    74
1070
     0
1000
MTEXTEND
  0
POINT
  5
16364
330
152D3
100
AcDbEntity
  8
DEFPOINTS
 62
     0
 48
50.0
100
AcDbPoint
 10
11093.65881351419
 20
3916.408999495949
 30
0.0
  0
POINT
  5
16365
330
152D3
100
AcDbEntity
  8
DEFPOINTS
 62
     0
 48
50.0
100
AcDbPoint
 10
10608.86093595067
 20
3316.408999495949
 30
0.0
  0
POINT
  5
16366
330
152D3
100
AcDbEntity
  8
DEFPOINTS
 62
     0
 48
50.0
100
AcDbPoint
 10
11321.30230055141
 20
3316.408999495948
 30
0.0
  0
ENDBLK
  5
152D5
330
152D3
100
AcDbEntity
  8
0
 48
50.0
100
AcDbBlockEnd
  0
BLOCK
  5
152E0
330
152DF
100
AcDbEntity
  8
0
 48
50.0
100
AcDbBlockBegin
  2
*D9
 70
     1
 10
0.0
 20
0.0
 30
0.0
  3
*D9
  1

  0
LINE
  5
16367
330
152DF
100
AcDbEntity
  8
寸法
 62
     0
 48
50.0
370
    -2
100
AcDbLine
 10
11043.86093595068
 20
3916.408999495949
 30
0.0
 11
11366.3023005514
 21
3916.408999495948
 31
0.0
  0
LINE
  5
16368
330
152DF
100
AcDbEntity
  8
寸法
 62
     0
 48
50.0
370
    -2
100
AcDbLine
 10
11043.86093595073
 20
3966.408999495949
 30
0.0
 11
11366.3023005514
 21
3966.408999495948
 31
0.0
  0
LINE
  5
16369
330
152DF
100
AcDbEntity
  8
寸法
 62
     0
 48
50.0
370
    -2
100
AcDbLine
 10
11321.30230055141
 20
3916.408999495948
 30
0.0
 11
11321.30230055141
 21
3841.408999495948
 31
0.0
  0
LINE
  5
1636A
330
152DF
100
AcDbEntity
  8
寸法
 62
     0
 48
50.0
370
    -2
100
AcDbLine
 10
11321.30230055141
 20
3966.408999495948
 30
0.0
 11
11321.30230055141
 21
4275.479865637722
 31
0.0
  0
LINE
  5
1636B
330
152DF
100
AcDbEntity
  8
寸法
 62
     0
 48
50.0
370
    -2
100
AcDbLine
 10
11321.30230055141
 20
3916.408999495948
 30
0.0
 11
11321.30230055141
 21
3966.408999495948
 31
0.0
  0
INSERT
  5
1636C
330
152DF
100
AcDbEntity
  8
寸法
 62
     0
 48
50.0
370
    -2
100
AcDbBlockReference
  2
_DOTSMALL
 10
11321.30230055141
 20
3916.408999495948
 30
0.0
 41
75.0
 42
75.0
 43
75.0
 50
90.0
  0
INSERT
  5
1636D
330
152DF
100
AcDbEntity
  8
寸法
 62
     0
 48
50.0
370
    -2
100
AcDbBlockReference
  2
_DOTSMALL
 10
11321.30230055141
 20
3966.408999495948
 30
0.0
 41
75.0
 42
75.0
 43
75.0
 50
270.0
  0
MTEXT
  5
1636E
330
152DF
100
AcDbEntity
  8
寸法
 62
     7
 48
50.0
100
AcDbMText
 10
11246.3023005514
 20
4195.944432566857
 30
0.0
 40
90.0
 41
0.0
 71
     5
 72
     1
  1
\A1;50
  7
STYLE1
 11
0.0000000000000001
 21
1.0
 31
0.0
 73
     1
 44
1.0
1001
ACAD
1000
MTEXTBEGIN
1070
    73
1070
     1
1070
    44
1040
1.0
1070
    74
1070
     0
1000
MTEXTEND
  0
POINT
  5
1636F
330
152DF
100
AcDbEntity
  8
DEFPOINTS
 62
     0
 48
50.0
100
AcDbPoint
 10
11028.86093595067
 20
3916.408999495949
 30
0.0
  0
POINT
  5
16370
330
152DF
100
AcDbEntity
  8
DEFPOINTS
 62
     0
 48
50.0
100
AcDbPoint
 10
11028.86093595073
 20
3966.408999495949
 30
0.0
  0
POINT
  5
16371
330
152DF
100
AcDbEntity
  8
DEFPOINTS
 62
     0
 48
50.0
100
AcDbPoint
 10
11321.30230055141
 20
3966.408999495948
 30
0.0
  0
ENDBLK
  5
152E1
330
152DF
100
AcDbEntity
  8
0
 48
50.0
100
AcDbBlockEnd
  0
BLOCK
  5
152EE
330
152ED
100
AcDbEntity
  8
0
 48
50.0
100
AcDbBlockBegin
  2
*D10
 70
     1
 10
0.0
 20
0.0
 30
0.0
  3
*D10
  1

  0
LINE
  5
16372
330
152ED
100
AcDbEntity
  8
寸法
 62
     0
 48
50.0
370
    -2
100
AcDbLine
 10
10623.86093595067
 20
3316.408999495949
 30
0.0
 11
11366.3023005514
 21
3316.408999495948
 31
0.0
  0
LINE
  5
16373
330
152ED
100
AcDbEntity
  8
寸法
 62
     0
 48
50.0
370
    -2
100
AcDbLine
 10
10623.86093595067
 20
3266.408999495949
 30
0.0
 11
11366.3023005514
 21
3266.408999495948
 31
0.0
  0
LINE
  5
16374
330
152ED
100
AcDbEntity
  8
寸法
 62
     0
 48
50.0
370
    -2
100
AcDbLine
 10
11321.30230055141
 20
3316.408999495948
 30
0.0
 11
11321.30230055141
 21
3391.408999495948
 31
0.0
  0
LINE
  5
16375
330
152ED
100
AcDbEntity
  8
寸法
 62
     0
 48
50.0
370
    -2
100
AcDbLine
 10
11321.30230055141
 20
3266.408999495948
 30
0.0
 11
11321.30230055141
 21
2957.338133354216
 31
0.0
  0
LINE
  5
16376
330
152ED
100
AcDbEntity
  8
寸法
 62
     0
 48
50.0
370
    -2
100
AcDbLine
 10
11321.30230055141
 20
3316.408999495948
 30
0.0
 11
11321.30230055141
 21
3266.408999495948
 31
0.0
  0
INSERT
  5
16377
330
152ED
100
AcDbEntity
  8
寸法
 62
     0
 48
50.0
370
    -2
100
AcDbBlockReference
  2
_DOTSMALL
 10
11321.30230055141
 20
3316.408999495948
 30
0.0
 41
75.0
 42
75.0
 43
75.0
 50
270.0
  0
INSERT
  5
16378
330
152ED
100
AcDbEntity
  8
寸法
 62
     0
 48
50.0
370
    -2
100
AcDbBlockReference
  2
_DOTSMALL
 10
11321.30230055141
 20
3266.408999495948
 30
0.0
 41
75.0
 42
75.0
 43
75.0
 50
90.0
  0
MTEXT
  5
16379
330
152ED
100
AcDbEntity
  8
寸法
 62
     7
 48
50.0
100
AcDbMText
 10
11246.3023005514
 20
3036.873566425084
 30
0.0
 40
90.0
 41
0.0
 71
     5
 72
     1
  1
\A1;50
  7
STYLE1
 11
0.0000000000000001
 21
1.0
 31
0.0
 73
     1
 44
1.0
1001
ACAD
1000
MTEXTBEGIN
1070
    73
1070
     1
1070
    44
1040
1.0
1070
    74
1070
     0
1000
MTEXTEND
  0
POINT
  5
1637A
330
152ED
100
AcDbEntity
  8
DEFPOINTS
 62
     0
 48
50.0
100
AcDbPoint
 10
10608.86093595067
 20
3316.408999495949
 30
0.0
  0
POINT
  5
1637B
330
152ED
100
AcDbEntity
  8
DEFPOINTS
 62
     0
 48
50.0
100
AcDbPoint
 10
10608.86093595067
 20
3266.408999495949
 30
0.0
  0
POINT
  5
1637C
330
152ED
100
AcDbEntity
  8
DEFPOINTS
 62
     0
 48
50.0
100
AcDbPoint
 10
11321.30230055141
 20
3266.408999495948
 30
0.0
  0
ENDBLK
  5
152EF
330
152ED
100
AcDbEntity
  8
0
 48
50.0
100
AcDbBlockEnd
  0
BLOCK
  5
152FC
330
152FB
100
AcDbEntity
  8
0
 48
50.0
100
AcDbBlockBegin
  2
*D11
 70
     1
 10
0.0
 20
0.0
 30
0.0
  3
*D11
  1

  0
LINE
  5
1637D
330
152FB
100
AcDbEntity
  8
寸法
 62
     0
 48
50.0
370
    -2
100
AcDbLine
 10
9050.679744865421
 20
3766.408999495934
 30
0.0
 11
8663.184640185701
 21
3766.408999495934
 31
0.0
  0
LINE
  5
1637E
330
152FB
100
AcDbEntity
  8
寸法
 62
     0
 48
50.0
370
    -2
100
AcDbLine
 10
9532.860935950678
 20
3826.408999495934
 30
0.0
 11
8663.184640185701
 21
3826.408999495935
 31
0.0
  0
LINE
  5
1637F
330
152FB
100
AcDbEntity
  8
寸法
 62
     0
 48
50.0
370
    -2
100
AcDbLine
 10
8708.184640185701
 20
3826.408999495935
 30
0.0
 11
8708.184640185701
 21
3766.408999495934
 31
0.0
  0
LINE
  5
16380
330
152FB
100
AcDbEntity
  8
寸法
 62
     0
 48
50.0
370
    -2
100
AcDbLine
 10
8708.184640185701
 20
3766.408999495934
 30
0.0
 11
8708.184640185701
 21
3526.952306582548
 31
0.0
  0
INSERT
  5
16381
330
152FB
100
AcDbEntity
  8
寸法
 62
     0
 48
50.0
370
    -2
100
AcDbBlockReference
  2
_DOTSMALL
 10
8708.184640185701
 20
3826.408999495935
 30
0.0
 41
75.0
 42
75.0
 43
75.0
 50
90.0
  0
INSERT
  5
16382
330
152FB
100
AcDbEntity
  8
寸法
 62
     0
 48
50.0
370
    -2
100
AcDbBlockReference
  2
_DOTSMALL
 10
8708.184640185701
 20
3766.408999495934
 30
0.0
 41
75.0
 42
75.0
 43
75.0
 50
270.0
  0
MTEXT
  5
16383
330
152FB
100
AcDbEntity
  8
寸法
 62
     7
 48
50.0
100
AcDbMText
 10
8633.184640185701
 20
3609.180653039242
 30
0.0
 40
90.0
 41
0.0
 71
     5
 72
     1
  1
\A1;60
  7
STYLE1
 11
0.0000000000000001
 21
1.0
 31
0.0
 73
     1
 44
1.0
1001
ACAD
1000
MTEXTBEGIN
1070
    73
1070
     1
1070
    44
1040
1.0
1070
    74
1070
     0
1000
MTEXTEND
  0
POINT
  5
16384
330
152FB
100
AcDbEntity
  8
DEFPOINTS
 62
     0
 48
50.0
100
AcDbPoint
 10
9065.679744865422
 20
3766.408999495934
 30
0.0
  0
POINT
  5
16385
330
152FB
100
AcDbEntity
  8
DEFPOINTS
 62
     0
 48
50.0
100
AcDbPoint
 10
9547.860935950678
 20
3826.408999495934
 30
0.0
  0
POINT
  5
16386
330
152FB
100
AcDbEntity
  8
DEFPOINTS
 62
     0
 48
50.0
100
AcDbPoint
 10
8708.184640185701
 20
3826.408999495935
 30
0.0
  0
ENDBLK
  5
152FD
330
152FB
100
AcDbEntity
  8
0
 48
50.0
100
AcDbBlockEnd
  0
BLOCK
  5
15309
330
15308
100
AcDbEntity
  8
0
 48
50.0
100
AcDbBlockBegin
  2
*D12
 70
     1
 10
0.0
 20
0.0
 30
0.0
  3
*D12
  1

  0
LINE
  5
16387
330
15308
100
AcDbEntity
  8
寸法
 62
     0
 48
50.0
370
    -2
100
AcDbLine
 10
9050.679744865421
 20
3766.408999495934
 30
0.0
 11
8863.360543579004
 21
3766.408999495934
 31
0.0
  0
LINE
  5
16388
330
15308
100
AcDbEntity
  8
寸法
 62
     0
 48
50.0
370
    -2
100
AcDbLine
 10
9498.860935950677
 20
3796.408999495949
 30
0.0
 11
8863.360543579004
 21
3796.40899949595
 31
0.0
  0
LINE
  5
16389
330
15308
100
AcDbEntity
  8
寸法
 62
     0
 48
50.0
370
    -2
100
AcDbLine
 10
8908.360543579005
 20
3796.40899949595
 30
0.0
 11
8908.360543579005
 21
3871.40899949595
 31
0.0
  0
LINE
  5
1638A
330
15308
100
AcDbEntity
  8
寸法
 62
     0
 48
50.0
370
    -2
100
AcDbLine
 10
8908.360543579005
 20
3766.408999495934
 30
0.0
 11
8908.360543579005
 21
3457.338133354202
 31
0.0
  0
LINE
  5
1638B
330
15308
100
AcDbEntity
  8
寸法
 62
     0
 48
50.0
370
    -2
100
AcDbLine
 10
8908.360543579005
 20
3796.40899949595
 30
0.0
 11
8908.360543579005
 21
3766.408999495934
 31
0.0
  0
INSERT
  5
1638C
330
15308
100
AcDbEntity
  8
寸法
 62
     0
 48
50.0
370
    -2
100
AcDbBlockReference
  2
_DOTSMALL
 10
8908.360543579005
 20
3796.40899949595
 30
0.0
 41
75.0
 42
75.0
 43
75.0
 50
270.0
  0
INSERT
  5
1638D
330
15308
100
AcDbEntity
  8
寸法
 62
     0
 48
50.0
370
    -2
100
AcDbBlockReference
  2
_DOTSMALL
 10
8908.360543579005
 20
3766.408999495934
 30
0.0
 41
75.0
 42
75.0
 43
75.0
 50
90.0
  0
MTEXT
  5
1638E
330
15308
100
AcDbEntity
  8
寸法
 62
     7
 48
50.0
100
AcDbMText
 10
8833.360543579004
 20
3536.873566425069
 30
0.0
 40
90.0
 41
0.0
 71
     5
 72
     1
  1
\A1;30
  7
STYLE1
 11
0.0000000000000001
 21
1.0
 31
0.0
 73
     1
 44
1.0
1001
ACAD
1000
MTEXTBEGIN
1070
    73
1070
     1
1070
    44
1040
1.0
1070
    74
1070
     0
1000
MTEXTEND
  0
POINT
  5
1638F
330
15308
100
AcDbEntity
  8
DEFPOINTS
 62
     0
 48
50.0
100
AcDbPoint
 10
9065.679744865422
 20
3766.408999495934
 30
0.0
  0
POINT
  5
16390
330
15308
100
AcDbEntity
  8
DEFPOINTS
 62
     0
 48
50.0
100
AcDbPoint
 10
9513.860935950678
 20
3796.408999495949
 30
0.0
  0
POINT
  5
16391
330
15308
100
AcDbEntity
  8
DEFPOINTS
 62
     0
 48
50.0
100
AcDbPoint
 10
8908.360543579005
 20
3796.40899949595
 30
0.0
  0
ENDBLK
  5
1530A
330
15308
100
AcDbEntity
  8
0
 48
50.0
100
AcDbBlockEnd
  0
BLOCK
  5
157CB
330
157CA
100
AcDbEntity
  8
0
 48
50.0
100
AcDbBlockBegin
  2
*D13
 70
     1
 10
0.0
 20
0.0
 30
0.0
  3
*D13
  1

  0
LINE
  5
16392
330
157CA
100
AcDbEntity
  8
寸法
 62
     0
 48
50.0
370
    -2
100
AcDbLine
 10
1068.561478906111
 20
1807.235182624814
 30
0.0
 11
1068.561478906111
 21
1312.247464288282
 31
0.0
  0
LINE
  5
16393
330
157CA
100
AcDbEntity
  8
寸法
 62
     0
 48
50.0
370
    -2
100
AcDbLine
 10
7128.561478905995
 20
1807.235182624829
 30
0.0
 11
7128.561478905995
 21
1312.247464288282
 31
0.0
  0
LINE
  5
16394
330
157CA
100
AcDbEntity
  8
寸法
 62
     0
 48
50.0
370
    -2
100
AcDbLine
 10
1068.561478906111
 20
1357.247464288282
 30
0.0
 11
7128.561478905995
 21
1357.247464288282
 31
0.0
  0
INSERT
  5
16395
330
157CA
100
AcDbEntity
  8
寸法
 62
     0
 48
50.0
370
    -2
100
AcDbBlockReference
  2
_DOTSMALL
 10
1068.561478906111
 20
1357.247464288282
 30
0.0
 41
75.0
 42
75.0
 43
75.0
 50
180.0
  0
INSERT
  5
16396
330
157CA
100
AcDbEntity
  8
寸法
 62
     0
 48
50.0
370
    -2
100
AcDbBlockReference
  2
_DOTSMALL
 10
7128.561478905995
 20
1357.247464288282
 30
0.0
 41
75.0
 42
75.0
 43
75.0
  0
MTEXT
  5
16397
330
157CA
100
AcDbEntity
  8
寸法
 62
     7
 48
50.0
100
AcDbMText
 10
4098.561478906052
 20
1432.256322555999
 30
0.0
 40
90.0
 41
0.0
 71
     5
 72
     1
  1
\A1;屋根寸法 N \U+00D72800 ＋ 460
  7
STYLE1
 73
     1
 44
1.0
1001
ACAD
1000
MTEXTBEGIN
1070
    73
1070
     1
1070
    44
1040
1.0
1070
    74
1070
     0
1000
MTEXTEND
  0
POINT
  5
16398
330
157CA
100
AcDbEntity
  8
DEFPOINTS
 62
     0
 48
50.0
100
AcDbPoint
 10
1068.561478906111
 20
1822.235182624814
 30
0.0
  0
POINT
  5
16399
330
157CA
100
AcDbEntity
  8
DEFPOINTS
 62
     0
 48
50.0
100
AcDbPoint
 10
7128.561478905995
 20
1822.235182624828
 30
0.0
  0
POINT
  5
1639A
330
157CA
100
AcDbEntity
  8
DEFPOINTS
 62
     0
 48
50.0
100
AcDbPoint
 10
7128.561478905995
 20
1357.247464288282
 30
0.0
  0
ENDBLK
  5
157CC
330
157CA
100
AcDbEntity
  8
0
 48
50.0
100
AcDbBlockEnd
  0
BLOCK
  5
157D7
330
157D6
100
AcDbEntity
  8
0
 48
50.0
100
AcDbBlockBegin
  2
*D14
 70
     1
 10
0.0
 20
0.0
 30
0.0
  3
*D14
  1

  0
LINE
  5
1639B
330
157D6
100
AcDbEntity
  8
寸法
 62
     0
 48
50.0
370
    -2
100
AcDbLine
 10
1068.561478906111
 20
1807.235182624814
 30
0.0
 11
1068.561478906111
 21
1312.247464288282
 31
0.0
  0
LINE
  5
1639C
330
157D6
100
AcDbEntity
  8
寸法
 62
     0
 48
50.0
370
    -2
100
AcDbLine
 10
898.5614789060528
 20
1670.735182624829
 30
0.0
 11
898.5614789060528
 21
1312.247464288282
 31
0.0
  0
LINE
  5
1639D
330
157D6
100
AcDbEntity
  8
寸法
 62
     0
 48
50.0
370
    -2
100
AcDbLine
 10
1068.561478906111
 20
1357.247464288282
 30
0.0
 11
898.5614789060528
 21
1357.247464288282
 31
0.0
  0
MTEXT
  5
1639E
330
157D6
100
AcDbEntity
  8
寸法
 62
     7
 48
50.0
100
AcDbMText
 10
983.5614789060819
 20
1432.247464288282
 30
0.0
 40
90.0
 41
0.0
 71
     5
 72
     1
  1
\A1;170
  7
STYLE1
 73
     1
 44
1.0
1001
ACAD
1000
MTEXTBEGIN
1070
    73
1070
     1
1070
    44
1040
1.0
1070
    74
1070
     0
1000
MTEXTEND
  0
POINT
  5
1639F
330
157D6
100
AcDbEntity
  8
DEFPOINTS
 62
     0
 48
50.0
100
AcDbPoint
 10
1068.561478906111
 20
1822.235182624814
 30
0.0
  0
POINT
  5
163A0
330
157D6
100
AcDbEntity
  8
DEFPOINTS
 62
     0
 48
50.0
100
AcDbPoint
 10
898.5614789060528
 20
1685.735182624829
 30
0.0
  0
POINT
  5
163A1
330
157D6
100
AcDbEntity
  8
DEFPOINTS
 62
     0
 48
50.0
100
AcDbPoint
 10
898.5614789060528
 20
1357.247464288282
 30
0.0
  0
ENDBLK
  5
157D8
330
157D6
100
AcDbEntity
  8
0
 48
50.0
100
AcDbBlockEnd
  0
BLOCK
  5
157E1
330
157E0
100
AcDbEntity
  8
0
 48
50.0
100
AcDbBlockBegin
  2
*D15
 70
     1
 10
0.0
 20
0.0
 30
0.0
  3
*D15
  1

  0
LINE
  5
163A2
330
157E0
100
AcDbEntity
  8
寸法
 62
     0
 48
50.0
370
    -2
100
AcDbLine
 10
7128.561478905995
 20
1807.235182624829
 30
0.0
 11
7128.561478905995
 21
1312.247464288282
 31
0.0
  0
LINE
  5
163A3
330
157E0
100
AcDbEntity
  8
寸法
 62
     0
 48
50.0
370
    -2
100
AcDbLine
 10
7298.561478906053
 20
1670.735182624829
 30
0.0
 11
7298.561478906053
 21
1312.247464288282
 31
0.0
  0
LINE
  5
163A4
330
157E0
100
AcDbEntity
  8
寸法
 62
     0
 48
50.0
370
    -2
100
AcDbLine
 10
7128.561478905995
 20
1357.247464288282
 30
0.0
 11
7298.561478906053
 21
1357.247464288282
 31
0.0
  0
MTEXT
  5
163A5
330
157E0
100
AcDbEntity
  8
寸法
 62
     7
 48
50.0
100
AcDbMText
 10
7213.561478906024
 20
1432.247464288282
 30
0.0
 40
90.0
 41
0.0
 71
     5
 72
     1
  1
\A1;170
  7
STYLE1
 73
     1
 44
1.0
1001
ACAD
1000
MTEXTBEGIN
1070
    73
1070
     1
1070
    44
1040
1.0
1070
    74
1070
     0
1000
MTEXTEND
  0
POINT
  5
163A6
330
157E0
100
AcDbEntity
  8
DEFPOINTS
 62
     0
 48
50.0
100
AcDbPoint
 10
7128.561478905995
 20
1822.235182624828
 30
0.0
  0
POINT
  5
163A7
330
157E0
100
AcDbEntity
  8
DEFPOINTS
 62
     0
 48
50.0
100
AcDbPoint
 10
7298.561478906053
 20
1685.735182624829
 30
0.0
  0
POINT
  5
163A8
330
157E0
100
AcDbEntity
  8
DEFPOINTS
 62
     0
 48
50.0
100
AcDbPoint
 10
7298.561478906053
 20
1357.247464288282
 30
0.0
  0
ENDBLK
  5
157E2
330
157E0
100
AcDbEntity
  8
0
 48
50.0
100
AcDbBlockEnd
  0
BLOCK
  5
15811
330
15810
100
AcDbEntity
  8
0
 48
50.0
100
AcDbBlockBegin
  2
*D16
 70
     1
 10
0.0
 20
0.0
 30
0.0
  3
*D16
  1

  0
LINE
  5
163A9
330
15810
100
AcDbEntity
  8
寸法
 62
     0
 48
50.0
370
    -2
100
AcDbLine
 10
7143.561478905995
 20
1822.235182624828
 30
0.0
 11
7725.835701269655
 21
1822.235182624828
 31
0.0
  0
LINE
  5
163AA
330
15810
100
AcDbEntity
  8
寸法
 62
     0
 48
50.0
370
    -2
100
AcDbLine
 10
7313.561478906052
 20
1685.735182624829
 30
0.0
 11
7725.835701269655
 21
1685.735182624828
 31
0.0
  0
LINE
  5
163AB
330
15810
100
AcDbEntity
  8
寸法
 62
     0
 48
50.0
370
    -2
100
AcDbLine
 10
7680.835701269654
 20
1822.235182624828
 30
0.0
 11
7680.835701269654
 21
1685.735182624828
 31
0.0
  0
LINE
  5
163AC
330
15810
100
AcDbEntity
  8
寸法
 62
     0
 48
50.0
370
    -2
100
AcDbLine
 10
7680.835701269654
 20
1685.735182624828
 30
0.0
 11
7680.835701269654
 21
1313.00726056347
 31
0.0
  0
INSERT
  5
163AD
330
15810
100
AcDbEntity
  8
寸法
 62
     0
 48
50.0
370
    -2
100
AcDbBlockReference
  2
_DOTSMALL
 10
7680.835701269654
 20
1822.235182624828
 30
0.0
 41
75.0
 42
75.0
 43
75.0
 50
90.0
  0
INSERT
  5
163AE
330
15810
100
AcDbEntity
  8
寸法
 62
     0
 48
50.0
370
    -2
100
AcDbBlockReference
  2
_DOTSMALL
 10
7680.835701269654
 20
1685.735182624828
 30
0.0
 41
75.0
 42
75.0
 43
75.0
 50
270.0
  0
MTEXT
  5
163AF
330
15810
100
AcDbEntity
  8
寸法
 62
     7
 48
50.0
100
AcDbMText
 10
7605.835701269654
 20
1461.87122159415
 30
0.0
 40
90.0
 41
0.0
 71
     5
 72
     1
  1
\A1;136.5
  7
STYLE1
 11
0.0000000000000001
 21
1.0
 31
0.0
 73
     1
 44
1.0
1001
ACAD
1000
MTEXTBEGIN
1070
    73
1070
     1
1070
    44
1040
1.0
1070
    74
1070
     0
1000
MTEXTEND
  0
POINT
  5
163B0
330
15810
100
AcDbEntity
  8
DEFPOINTS
 62
     0
 48
50.0
100
AcDbPoint
 10
7128.561478905995
 20
1822.235182624828
 30
0.0
  0
POINT
  5
163B1
330
15810
100
AcDbEntity
  8
DEFPOINTS
 62
     0
 48
50.0
100
AcDbPoint
 10
7298.561478906053
 20
1685.735182624829
 30
0.0
  0
POINT
  5
163B2
330
15810
100
AcDbEntity
  8
DEFPOINTS
 62
     0
 48
50.0
100
AcDbPoint
 10
7680.835701269654
 20
1685.735182624828
 30
0.0
  0
ENDBLK
  5
15812
330
15810
100
AcDbEntity
  8
0
 48
50.0
100
AcDbBlockEnd
  0
BLOCK
  5
1581E
330
1581D
100
AcDbEntity
  8
0
 48
50.0
100
AcDbBlockBegin
  2
*D17
 70
     1
 10
0.0
 20
0.0
 30
0.0
  3
*D17
  1

  0
LINE
  5
163B3
330
1581D
100
AcDbEntity
  8
寸法
 62
     0
 48
50.0
370
    -2
100
AcDbLine
 10
7143.561478905995
 20
5899.235182624829
 30
0.0
 11
7725.835701269655
 21
5899.235182624829
 31
0.0
  0
LINE
  5
163B4
330
1581D
100
AcDbEntity
  8
寸法
 62
     0
 48
50.0
370
    -2
100
AcDbLine
 10
7143.561478905995
 20
1822.235182624828
 30
0.0
 11
7725.835701269655
 21
1822.235182624828
 31
0.0
  0
LINE
  5
163B5
330
1581D
100
AcDbEntity
  8
寸法
 62
     0
 48
50.0
370
    -2
100
AcDbLine
 10
7680.835701269654
 20
5899.235182624829
 30
0.0
 11
7680.835701269654
 21
1822.235182624828
 31
0.0
  0
INSERT
  5
163B6
330
1581D
100
AcDbEntity
  8
寸法
 62
     0
 48
50.0
370
    -2
100
AcDbBlockReference
  2
_DOTSMALL
 10
7680.835701269654
 20
5899.235182624829
 30
0.0
 41
75.0
 42
75.0
 43
75.0
 50
90.0
  0
INSERT
  5
163B7
330
1581D
100
AcDbEntity
  8
寸法
 62
     0
 48
50.0
370
    -2
100
AcDbBlockReference
  2
_DOTSMALL
 10
7680.835701269654
 20
1822.235182624828
 30
0.0
 41
75.0
 42
75.0
 43
75.0
 50
270.0
  0
MTEXT
  5
163B8
330
1581D
100
AcDbEntity
  8
寸法
 62
     7
 48
50.0
100
AcDbMText
 10
7605.835701269654
 20
3860.73518262483
 30
0.0
 40
90.0
 41
0.0
 71
     5
 72
     1
  1
\A1;屋根寸法 4077
  7
STYLE1
 11
0.0000000000000001
 21
1.0
 31
0.0
 73
     1
 44
1.0
1001
ACAD
1000
MTEXTBEGIN
1070
    73
1070
     1
1070
    44
1040
1.0
1070
    74
1070
     0
1000
MTEXTEND
  0
POINT
  5
163B9
330
1581D
100
AcDbEntity
  8
DEFPOINTS
 62
     0
 48
50.0
100
AcDbPoint
 10
7128.561478905995
 20
5899.235182624829
 30
0.0
  0
POINT
  5
163BA
330
1581D
100
AcDbEntity
  8
DEFPOINTS
 62
     0
 48
50.0
100
AcDbPoint
 10
7128.561478905995
 20
1822.235182624828
 30
0.0
  0
POINT
  5
163BB
330
1581D
100
AcDbEntity
  8
DEFPOINTS
 62
     0
 48
50.0
100
AcDbPoint
 10
7680.835701269654
 20
1822.235182624828
 30
0.0
  0
ENDBLK
  5
1581F
330
1581D
100
AcDbEntity
  8
0
 48
50.0
100
AcDbBlockEnd
  0
BLOCK
  5
1582A
330
15829
100
AcDbEntity
  8
0
 48
50.0
100
AcDbBlockBegin
  2
*D18
 70
     1
 10
0.0
 20
0.0
 30
0.0
  3
*D18
  1

  0
LINE
  5
163BC
330
15829
100
AcDbEntity
  8
寸法
 62
     0
 48
50.0
370
    -2
100
AcDbLine
 10
7143.561478905995
 20
5899.235182624829
 30
0.0
 11
7725.835701269655
 21
5899.235182624829
 31
0.0
  0
LINE
  5
163BD
330
15829
100
AcDbEntity
  8
寸法
 62
     0
 48
50.0
370
    -2
100
AcDbLine
 10
7313.561478906052
 20
6035.735182624829
 30
0.0
 11
7725.835701269655
 21
6035.735182624829
 31
0.0
  0
LINE
  5
163BE
330
15829
100
AcDbEntity
  8
寸法
 62
     0
 48
50.0
370
    -2
100
AcDbLine
 10
7680.835701269654
 20
5899.235182624829
 30
0.0
 11
7680.835701269654
 21
6035.735182624829
 31
0.0
  0
LINE
  5
163BF
330
15829
100
AcDbEntity
  8
寸法
 62
     0
 48
50.0
370
    -2
100
AcDbLine
 10
7680.835701269654
 20
6035.735182624829
 30
0.0
 11
7680.835701269656
 21
6408.463104686235
 31
0.0
  0
INSERT
  5
163C0
330
15829
100
AcDbEntity
  8
寸法
 62
     0
 48
50.0
370
    -2
100
AcDbBlockReference
  2
_DOTSMALL
 10
7680.835701269654
 20
5899.235182624829
 30
0.0
 41
75.0
 42
75.0
 43
75.0
 50
270.0
  0
INSERT
  5
163C1
330
15829
100
AcDbEntity
  8
寸法
 62
     0
 48
50.0
370
    -2
100
AcDbBlockReference
  2
_DOTSMALL
 10
7680.835701269654
 20
6035.735182624829
 30
0.0
 41
75.0
 42
75.0
 43
75.0
 50
90.0
  0
MTEXT
  5
163C2
330
15829
100
AcDbEntity
  8
寸法
 62
     7
 48
50.0
100
AcDbMText
 10
7605.835701269654
 20
6259.599143655558
 30
0.0
 40
90.0
 41
0.0
 71
     5
 72
     1
  1
\A1;136.5
  7
STYLE1
 11
0.0000000000000001
 21
1.0
 31
0.0
 73
     1
 44
1.0
1001
ACAD
1000
MTEXTBEGIN
1070
    73
1070
     1
1070
    44
1040
1.0
1070
    74
1070
     0
1000
MTEXTEND
  0
POINT
  5
163C3
330
15829
100
AcDbEntity
  8
DEFPOINTS
 62
     0
 48
50.0
100
AcDbPoint
 10
7128.561478905995
 20
5899.235182624829
 30
0.0
  0
POINT
  5
163C4
330
15829
100
AcDbEntity
  8
DEFPOINTS
 62
     0
 48
50.0
100
AcDbPoint
 10
7298.561478906053
 20
6035.735182624829
 30
0.0
  0
POINT
  5
163C5
330
15829
100
AcDbEntity
  8
DEFPOINTS
 62
     0
 48
50.0
100
AcDbPoint
 10
7680.835701269654
 20
6035.735182624829
 30
0.0
  0
ENDBLK
  5
1582B
330
15829
100
AcDbEntity
  8
0
 48
50.0
100
AcDbBlockEnd
  0
BLOCK
  5
158DF
330
158DE
100
AcDbEntity
  8
0
 48
50.0
100
AcDbBlockBegin
  2
*D19
 70
     1
 10
0.0
 20
0.0
 30
0.0
  3
*D19
  1

  0
LINE
  5
163C6
330
158DE
100
AcDbEntity
  8
寸法
 62
     0
 48
50.0
370
    -2
100
AcDbLine
 10
883.5614789060237
 20
6035.735182624829
 30
0.0
 11
289.9402801783335
 21
6035.735182624829
 31
0.0
  0
LINE
  5
163C7
330
158DE
100
AcDbEntity
  8
寸法
 62
     0
 48
50.0
370
    -2
100
AcDbLine
 10
883.5614789060237
 20
1685.735182624829
 30
0.0
 11
289.9402801783327
 21
1685.735182624829
 31
0.0
  0
LINE
  5
163C8
330
158DE
100
AcDbEntity
  8
寸法
 62
     0
 48
50.0
370
    -2
100
AcDbLine
 10
334.9402801783336
 20
6035.735182624829
 30
0.0
 11
334.9402801783326
 21
1685.735182624829
 31
0.0
  0
INSERT
  5
163C9
330
158DE
100
AcDbEntity
  8
寸法
 62
     0
 48
50.0
370
    -2
100
AcDbBlockReference
  2
_DOTSMALL
 10
334.9402801783336
 20
6035.735182624829
 30
0.0
 41
75.0
 42
75.0
 43
75.0
 50
90.0
  0
INSERT
  5
163CA
330
158DE
100
AcDbEntity
  8
寸法
 62
     0
 48
50.0
370
    -2
100
AcDbBlockReference
  2
_DOTSMALL
 10
334.9402801783326
 20
1685.735182624829
 30
0.0
 41
75.0
 42
75.0
 43
75.0
 50
270.0
  0
MTEXT
  5
163CB
330
158DE
100
AcDbEntity
  8
寸法
 62
     7
 48
50.0
100
AcDbMText
 10
259.9402801783325
 20
3860.735182624829
 30
0.0
 40
90.0
 41
0.0
 71
     5
 72
     1
  1
\A1;基礎土間寸法 4350
  7
STYLE1
 11
0.0000000000000001
 21
1.0
 31
0.0
 73
     1
 44
1.0
1001
ACAD
1000
MTEXTBEGIN
1070
    73
1070
     1
1070
    44
1040
1.0
1070
    74
1070
     0
1000
MTEXTEND
  0
POINT
  5
163CC
330
158DE
100
AcDbEntity
  8
DEFPOINTS
 62
     0
 48
50.0
100
AcDbPoint
 10
898.5614789060237
 20
6035.735182624829
 30
0.0
  0
POINT
  5
163CD
330
158DE
100
AcDbEntity
  8
DEFPOINTS
 62
     0
 48
50.0
100
AcDbPoint
 10
898.5614789060237
 20
1685.735182624829
 30
0.0
  0
POINT
  5
163CE
330
158DE
100
AcDbEntity
  8
DEFPOINTS
 62
     0
 48
50.0
100
AcDbPoint
 10
334.9402801783326
 20
1685.735182624829
 30
0.0
  0
ENDBLK
  5
158E0
330
158DE
100
AcDbEntity
  8
0
 48
50.0
100
AcDbBlockEnd
  0
BLOCK
  5
158EB
330
158EA
100
AcDbEntity
  8
0
 48
50.0
100
AcDbBlockBegin
  2
*D20
 70
     1
 10
0.0
 20
0.0
 30
0.0
  3
*D20
  1

  0
LINE
  5
163CF
330
158EA
100
AcDbEntity
  8
寸法
 62
     0
 48
50.0
370
    -2
100
AcDbLine
 10
1033.561478906023
 20
3685.735182624829
 30
0.0
 11
512.6896421947789
 21
3685.735182624829
 31
0.0
  0
LINE
  5
163D0
330
158EA
100
AcDbEntity
  8
寸法
 62
     0
 48
50.0
370
    -2
100
AcDbLine
 10
883.5614789060237
 20
1685.735182624829
 30
0.0
 11
512.6896421947785
 21
1685.735182624829
 31
0.0
  0
LINE
  5
163D1
330
158EA
100
AcDbEntity
  8
寸法
 62
     0
 48
50.0
370
    -2
100
AcDbLine
 10
557.689642194779
 20
3685.735182624829
 30
0.0
 11
557.6896421947785
 21
1685.735182624829
 31
0.0
  0
INSERT
  5
163D2
330
158EA
100
AcDbEntity
  8
寸法
 62
     0
 48
50.0
370
    -2
100
AcDbBlockReference
  2
_DOTSMALL
 10
557.689642194779
 20
3685.735182624829
 30
0.0
 41
75.0
 42
75.0
 43
75.0
 50
90.0
  0
INSERT
  5
163D3
330
158EA
100
AcDbEntity
  8
寸法
 62
     0
 48
50.0
370
    -2
100
AcDbBlockReference
  2
_DOTSMALL
 10
557.6896421947785
 20
1685.735182624829
 30
0.0
 41
75.0
 42
75.0
 43
75.0
 50
270.0
  0
MTEXT
  5
163D4
330
158EA
100
AcDbEntity
  8
寸法
 62
     7
 48
50.0
100
AcDbMText
 10
482.6807839270618
 20
2685.735182624829
 30
0.0
 40
90.0
 41
0.0
 71
     5
 72
     1
  1
\A1;2000
  7
STYLE1
 11
0.0000000000000001
 21
1.0
 31
0.0
 73
     1
 44
1.0
1001
ACAD
1000
MTEXTBEGIN
1070
    73
1070
     1
1070
    44
1040
1.0
1070
    74
1070
     0
1000
MTEXTEND
  0
POINT
  5
163D5
330
158EA
100
AcDbEntity
  8
DEFPOINTS
 62
     0
 48
50.0
100
AcDbPoint
 10
1048.561478906024
 20
3685.735182624829
 30
0.0
  0
POINT
  5
163D6
330
158EA
100
AcDbEntity
  8
DEFPOINTS
 62
     0
 48
50.0
100
AcDbPoint
 10
898.5614789060237
 20
1685.735182624829
 30
0.0
  0
POINT
  5
163D7
330
158EA
100
AcDbEntity
  8
DEFPOINTS
 62
     0
 48
50.0
100
AcDbPoint
 10
557.6896421947785
 20
1685.735182624829
 30
0.0
  0
ENDBLK
  5
158EC
330
158EA
100
AcDbEntity
  8
0
 48
50.0
100
AcDbBlockEnd
  0
BLOCK
  5
158F7
330
158F6
100
AcDbEntity
  8
0
 48
50.0
100
AcDbBlockBegin
  2
*D21
 70
     1
 10
0.0
 20
0.0
 30
0.0
  3
*D21
  1

  0
LINE
  5
163D8
330
158F6
100
AcDbEntity
  8
寸法
 62
     0
 48
50.0
370
    -2
100
AcDbLine
 10
1033.561478906023
 20
4035.735182624828
 30
0.0
 11
512.6896421947787
 21
4035.735182624828
 31
0.0
  0
LINE
  5
163D9
330
158F6
100
AcDbEntity
  8
寸法
 62
     0
 48
50.0
370
    -2
100
AcDbLine
 10
1033.561478906023
 20
3685.735182624829
 30
0.0
 11
512.6896421947785
 21
3685.735182624829
 31
0.0
  0
LINE
  5
163DA
330
158F6
100
AcDbEntity
  8
寸法
 62
     0
 48
50.0
370
    -2
100
AcDbLine
 10
557.6896421947786
 20
4035.735182624828
 30
0.0
 11
557.6896421947785
 21
3685.735182624829
 31
0.0
  0
INSERT
  5
163DB
330
158F6
100
AcDbEntity
  8
寸法
 62
     0
 48
50.0
370
    -2
100
AcDbBlockReference
  2
_DOTSMALL
 10
557.6896421947786
 20
4035.735182624828
 30
0.0
 41
75.0
 42
75.0
 43
75.0
 50
90.0
  0
INSERT
  5
163DC
330
158F6
100
AcDbEntity
  8
寸法
 62
     0
 48
50.0
370
    -2
100
AcDbBlockReference
  2
_DOTSMALL
 10
557.6896421947785
 20
3685.735182624829
 30
0.0
 41
75.0
 42
75.0
 43
75.0
 50
270.0
  0
MTEXT
  5
163DD
330
158F6
100
AcDbEntity
  8
寸法
 62
     7
 48
50.0
100
AcDbMText
 10
482.689642194778
 20
3860.735182624829
 30
0.0
 40
90.0
 41
0.0
 71
     5
 72
     1
  1
\A1;350
  7
STYLE1
 11
0.0000000000000001
 21
1.0
 31
0.0
 73
     1
 44
1.0
1001
ACAD
1000
MTEXTBEGIN
1070
    73
1070
     1
1070
    44
1040
1.0
1070
    74
1070
     0
1000
MTEXTEND
  0
POINT
  5
163DE
330
158F6
100
AcDbEntity
  8
DEFPOINTS
 62
     0
 48
50.0
100
AcDbPoint
 10
1048.561478906024
 20
4035.735182624828
 30
0.0
  0
POINT
  5
163DF
330
158F6
100
AcDbEntity
  8
DEFPOINTS
 62
     0
 48
50.0
100
AcDbPoint
 10
1048.561478906024
 20
3685.735182624829
 30
0.0
  0
POINT
  5
163E0
330
158F6
100
AcDbEntity
  8
DEFPOINTS
 62
     0
 48
50.0
100
AcDbPoint
 10
557.6896421947785
 20
3685.735182624829
 30
0.0
  0
ENDBLK
  5
158F8
330
158F6
100
AcDbEntity
  8
0
 48
50.0
100
AcDbBlockEnd
  0
BLOCK
  5
15903
330
15902
100
AcDbEntity
  8
0
 48
50.0
100
AcDbBlockBegin
  2
*D22
 70
     1
 10
0.0
 20
0.0
 30
0.0
  3
*D22
  1

  0
LINE
  5
163E1
330
15902
100
AcDbEntity
  8
寸法
 62
     0
 48
50.0
370
    -2
100
AcDbLine
 10
1033.561478906023
 20
4035.735182624828
 30
0.0
 11
512.6896421947781
 21
4035.735182624828
 31
0.0
  0
LINE
  5
163E2
330
15902
100
AcDbEntity
  8
寸法
 62
     0
 48
50.0
370
    -2
100
AcDbLine
 10
883.5614789060237
 20
6035.735182624829
 30
0.0
 11
512.6896421947785
 21
6035.735182624829
 31
0.0
  0
LINE
  5
163E3
330
15902
100
AcDbEntity
  8
寸法
 62
     0
 48
50.0
370
    -2
100
AcDbLine
 10
557.6896421947781
 20
4035.735182624828
 30
0.0
 11
557.6896421947785
 21
6035.735182624829
 31
0.0
  0
INSERT
  5
163E4
330
15902
100
AcDbEntity
  8
寸法
 62
     0
 48
50.0
370
    -2
100
AcDbBlockReference
  2
_DOTSMALL
 10
557.6896421947781
 20
4035.735182624828
 30
0.0
 41
75.0
 42
75.0
 43
75.0
 50
270.0
  0
INSERT
  5
163E5
330
15902
100
AcDbEntity
  8
寸法
 62
     0
 48
50.0
370
    -2
100
AcDbBlockReference
  2
_DOTSMALL
 10
557.6896421947785
 20
6035.735182624829
 30
0.0
 41
75.0
 42
75.0
 43
75.0
 50
90.0
  0
MTEXT
  5
163E6
330
15902
100
AcDbEntity
  8
寸法
 62
     7
 48
50.0
100
AcDbMText
 10
482.6807839270609
 20
5035.735182624829
 30
0.0
 40
90.0
 41
0.0
 71
     5
 72
     1
  1
\A1;2000
  7
STYLE1
 11
0.0000000000000001
 21
1.0
 31
0.0
 73
     1
 44
1.0
1001
ACAD
1000
MTEXTBEGIN
1070
    73
1070
     1
1070
    44
1040
1.0
1070
    74
1070
     0
1000
MTEXTEND
  0
POINT
  5
163E7
330
15902
100
AcDbEntity
  8
DEFPOINTS
 62
     0
 48
50.0
100
AcDbPoint
 10
1048.561478906024
 20
4035.735182624828
 30
0.0
  0
POINT
  5
163E8
330
15902
100
AcDbEntity
  8
DEFPOINTS
 62
     0
 48
50.0
100
AcDbPoint
 10
898.5614789060237
 20
6035.735182624829
 30
0.0
  0
POINT
  5
163E9
330
15902
100
AcDbEntity
  8
DEFPOINTS
 62
     0
 48
50.0
100
AcDbPoint
 10
557.6896421947785
 20
6035.735182624829
 30
0.0
  0
ENDBLK
  5
15904
330
15902
100
AcDbEntity
  8
0
 48
50.0
100
AcDbBlockEnd
  0
BLOCK
  5
1590F
330
1590E
100
AcDbEntity
  8
0
 48
50.0
100
AcDbBlockBegin
  2
*D23
 70
     1
 10
0.0
 20
0.0
 30
0.0
  3
*D23
  1

  0
LINE
  5
163EA
330
1590E
100
AcDbEntity
  8
寸法
 62
     0
 48
50.0
370
    -2
100
AcDbLine
 10
898.5614789060528
 20
6050.735182624829
 30
0.0
 11
898.5614789060528
 21
6778.261554704567
 31
0.0
  0
LINE
  5
163EB
330
1590E
100
AcDbEntity
  8
寸法
 62
     0
 48
50.0
370
    -2
100
AcDbLine
 10
7298.561478906053
 20
6050.735182624829
 30
0.0
 11
7298.561478906053
 21
6778.261554704567
 31
0.0
  0
LINE
  5
163EC
330
1590E
100
AcDbEntity
  8
寸法
 62
     0
 48
50.0
370
    -2
100
AcDbLine
 10
898.5614789060528
 20
6733.261554704566
 30
0.0
 11
7298.561478906053
 21
6733.261554704566
 31
0.0
  0
INSERT
  5
163ED
330
1590E
100
AcDbEntity
  8
寸法
 62
     0
 48
50.0
370
    -2
100
AcDbBlockReference
  2
_DOTSMALL
 10
898.5614789060528
 20
6733.261554704566
 30
0.0
 41
75.0
 42
75.0
 43
75.0
 50
180.0
  0
INSERT
  5
163EE
330
1590E
100
AcDbEntity
  8
寸法
 62
     0
 48
50.0
370
    -2
100
AcDbBlockReference
  2
_DOTSMALL
 10
7298.561478906053
 20
6733.261554704566
 30
0.0
 41
75.0
 42
75.0
 43
75.0
  0
MTEXT
  5
163EF
330
1590E
100
AcDbEntity
  8
寸法
 62
     7
 48
50.0
100
AcDbMText
 10
4098.561478906052
 20
6808.270412972283
 30
0.0
 40
90.0
 41
0.0
 71
     5
 72
     1
  1
\A1;基礎土間寸法 N \U+00D7 2800 ＋ 800
  7
STYLE1
 73
     1
 44
1.0
1001
ACAD
1000
MTEXTBEGIN
1070
    73
1070
     1
1070
    44
1040
1.0
1070
    74
1070
     0
1000
MTEXTEND
  0
POINT
  5
163F0
330
1590E
100
AcDbEntity
  8
DEFPOINTS
 62
     0
 48
50.0
100
AcDbPoint
 10
898.5614789060528
 20
6035.735182624829
 30
0.0
  0
POINT
  5
163F1
330
1590E
100
AcDbEntity
  8
DEFPOINTS
 62
     0
 48
50.0
100
AcDbPoint
 10
7298.561478906053
 20
6035.735182624829
 30
0.0
  0
POINT
  5
163F2
330
1590E
100
AcDbEntity
  8
DEFPOINTS
 62
     0
 48
50.0
100
AcDbPoint
 10
7298.561478906053
 20
6733.261554704566
 30
0.0
  0
ENDBLK
  5
15910
330
1590E
100
AcDbEntity
  8
0
 48
50.0
100
AcDbBlockEnd
  0
BLOCK
  5
1591B
330
1591A
100
AcDbEntity
  8
0
 48
50.0
100
AcDbBlockBegin
  2
*D24
 70
     1
 10
0.0
 20
0.0
 30
0.0
  3
*D24
  1

  0
LINE
  5
163F3
330
1591A
100
AcDbEntity
  8
寸法
 62
     0
 48
50.0
370
    -2
100
AcDbLine
 10
6898.561478906053
 20
4300.735182624829
 30
0.0
 11
6898.561478906053
 21
6584.224515730247
 31
0.0
  0
LINE
  5
163F4
330
1591A
100
AcDbEntity
  8
寸法
 62
     0
 48
50.0
370
    -2
100
AcDbLine
 10
7298.561478906053
 20
6050.735182624829
 30
0.0
 11
7298.561478906053
 21
6584.224515730247
 31
0.0
  0
LINE
  5
163F5
330
1591A
100
AcDbEntity
  8
寸法
 62
     0
 48
50.0
370
    -2
100
AcDbLine
 10
6898.561478906053
 20
6539.224515730248
 30
0.0
 11
7298.561478906053
 21
6539.224515730248
 31
0.0
  0
INSERT
  5
163F6
330
1591A
100
AcDbEntity
  8
寸法
 62
     0
 48
50.0
370
    -2
100
AcDbBlockReference
  2
_DOTSMALL
 10
6898.561478906053
 20
6539.224515730248
 30
0.0
 41
75.0
 42
75.0
 43
75.0
 50
180.0
  0
INSERT
  5
163F7
330
1591A
100
AcDbEntity
  8
寸法
 62
     0
 48
50.0
370
    -2
100
AcDbBlockReference
  2
_DOTSMALL
 10
7298.561478906053
 20
6539.224515730248
 30
0.0
 41
75.0
 42
75.0
 43
75.0
  0
MTEXT
  5
163F8
330
1591A
100
AcDbEntity
  8
寸法
 62
     7
 48
50.0
100
AcDbMText
 10
7098.561478906053
 20
6614.224515730248
 30
0.0
 40
90.0
 41
0.0
 71
     5
 72
     1
  1
\A1;400
  7
STYLE1
 73
     1
 44
1.0
1001
ACAD
1000
MTEXTBEGIN
1070
    73
1070
     1
1070
    44
1040
1.0
1070
    74
1070
     0
1000
MTEXTEND
  0
POINT
  5
163F9
330
1591A
100
AcDbEntity
  8
DEFPOINTS
 62
     0
 48
50.0
100
AcDbPoint
 10
6898.561478906053
 20
4285.735182624828
 30
0.0
  0
POINT
  5
163FA
330
1591A
100
AcDbEntity
  8
DEFPOINTS
 62
     0
 48
50.0
100
AcDbPoint
 10
7298.561478906053
 20
6035.735182624829
 30
0.0
  0
POINT
  5
163FB
330
1591A
100
AcDbEntity
  8
DEFPOINTS
 62
     0
 48
50.0
100
AcDbPoint
 10
7298.561478906053
 20
6539.224515730248
 30
0.0
  0
ENDBLK
  5
1591C
330
1591A
100
AcDbEntity
  8
0
 48
50.0
100
AcDbBlockEnd
  0
BLOCK
  5
15927
330
15926
100
AcDbEntity
  8
0
 48
50.0
100
AcDbBlockBegin
  2
*D25
 70
     1
 10
0.0
 20
0.0
 30
0.0
  3
*D25
  1

  0
LINE
  5
163FC
330
15926
100
AcDbEntity
  8
寸法
 62
     0
 48
50.0
370
    -2
100
AcDbLine
 10
1298.561478906053
 20
4300.735182624829
 30
0.0
 11
1298.561478906053
 21
6584.224515730247
 31
0.0
  0
LINE
  5
163FD
330
15926
100
AcDbEntity
  8
寸法
 62
     0
 48
50.0
370
    -2
100
AcDbLine
 10
6898.561478906053
 20
4300.735182624829
 30
0.0
 11
6898.561478906053
 21
6584.224515730247
 31
0.0
  0
LINE
  5
163FE
330
15926
100
AcDbEntity
  8
寸法
 62
     0
 48
50.0
370
    -2
100
AcDbLine
 10
1298.561478906053
 20
6539.224515730248
 30
0.0
 11
6898.561478906053
 21
6539.224515730248
 31
0.0
  0
INSERT
  5
163FF
330
15926
100
AcDbEntity
  8
寸法
 62
     0
 48
50.0
370
    -2
100
AcDbBlockReference
  2
_DOTSMALL
 10
1298.561478906053
 20
6539.224515730248
 30
0.0
 41
75.0
 42
75.0
 43
75.0
 50
180.0
  0
INSERT
  5
16400
330
15926
100
AcDbEntity
  8
寸法
 62
     0
 48
50.0
370
    -2
100
AcDbBlockReference
  2
_DOTSMALL
 10
6898.561478906053
 20
6539.224515730248
 30
0.0
 41
75.0
 42
75.0
 43
75.0
  0
MTEXT
  5
16401
330
15926
100
AcDbEntity
  8
寸法
 62
     7
 48
50.0
100
AcDbMText
 10
4098.561478906052
 20
6614.233373997965
 30
0.0
 40
90.0
 41
0.0
 71
     5
 72
     1
  1
\A1;N \U+00D72800
  7
STYLE1
 73
     1
 44
1.0
1001
ACAD
1000
MTEXTBEGIN
1070
    73
1070
     1
1070
    44
1040
1.0
1070
    74
1070
     0
1000
MTEXTEND
  0
POINT
  5
16402
330
15926
100
AcDbEntity
  8
DEFPOINTS
 62
     0
 48
50.0
100
AcDbPoint
 10
1298.561478906053
 20
4285.735182624828
 30
0.0
  0
POINT
  5
16403
330
15926
100
AcDbEntity
  8
DEFPOINTS
 62
     0
 48
50.0
100
AcDbPoint
 10
6898.561478906053
 20
4285.735182624828
 30
0.0
  0
POINT
  5
16404
330
15926
100
AcDbEntity
  8
DEFPOINTS
 62
     0
 48
50.0
100
AcDbPoint
 10
6898.561478906053
 20
6539.224515730248
 30
0.0
  0
ENDBLK
  5
15928
330
15926
100
AcDbEntity
  8
0
 48
50.0
100
AcDbBlockEnd
  0
BLOCK
  5
15933
330
15932
100
AcDbEntity
  8
0
 48
50.0
100
AcDbBlockBegin
  2
*D26
 70
     1
 10
0.0
 20
0.0
 30
0.0
  3
*D26
  1

  0
LINE
  5
16405
330
15932
100
AcDbEntity
  8
寸法
 62
     0
 48
50.0
370
    -2
100
AcDbLine
 10
898.5614789060528
 20
6050.735182624829
 30
0.0
 11
898.5614789060528
 21
6584.224515730247
 31
0.0
  0
LINE
  5
16406
330
15932
100
AcDbEntity
  8
寸法
 62
     0
 48
50.0
370
    -2
100
AcDbLine
 10
1298.561478906053
 20
4300.735182624829
 30
0.0
 11
1298.561478906053
 21
6584.224515730247
 31
0.0
  0
LINE
  5
16407
330
15932
100
AcDbEntity
  8
寸法
 62
     0
 48
50.0
370
    -2
100
AcDbLine
 10
898.5614789060528
 20
6539.224515730248
 30
0.0
 11
1298.561478906053
 21
6539.224515730248
 31
0.0
  0
INSERT
  5
16408
330
15932
100
AcDbEntity
  8
寸法
 62
     0
 48
50.0
370
    -2
100
AcDbBlockReference
  2
_DOTSMALL
 10
898.5614789060528
 20
6539.224515730248
 30
0.0
 41
75.0
 42
75.0
 43
75.0
 50
180.0
  0
INSERT
  5
16409
330
15932
100
AcDbEntity
  8
寸法
 62
     0
 48
50.0
370
    -2
100
AcDbBlockReference
  2
_DOTSMALL
 10
1298.561478906053
 20
6539.224515730248
 30
0.0
 41
75.0
 42
75.0
 43
75.0
  0
MTEXT
  5
1640A
330
15932
100
AcDbEntity
  8
寸法
 62
     7
 48
50.0
100
AcDbMText
 10
1098.561478906053
 20
6614.224515730248
 30
0.0
 40
90.0
 41
0.0
 71
     5
 72
     1
  1
\A1;400
  7
STYLE1
 73
     1
 44
1.0
1001
ACAD
1000
MTEXTBEGIN
1070
    73
1070
     1
1070
    44
1040
1.0
1070
    74
1070
     0
1000
MTEXTEND
  0
POINT
  5
1640B
330
15932
100
AcDbEntity
  8
DEFPOINTS
 62
     0
 48
50.0
100
AcDbPoint
 10
898.5614789060528
 20
6035.735182624829
 30
0.0
  0
POINT
  5
1640C
330
15932
100
AcDbEntity
  8
DEFPOINTS
 62
     0
 48
50.0
100
AcDbPoint
 10
1298.561478906053
 20
4285.735182624828
 30
0.0
  0
POINT
  5
1640D
330
15932
100
AcDbEntity
  8
DEFPOINTS
 62
     0
 48
50.0
100
AcDbPoint
 10
1298.561478906053
 20
6539.224515730248
 30
0.0
  0
ENDBLK
  5
15934
330
15932
100
AcDbEntity
  8
0
 48
50.0
100
AcDbBlockEnd
  0
BLOCK
  5
1593F
330
1593E
100
AcDbEntity
  8
0
 48
50.0
100
AcDbBlockBegin
  2
*D27
 70
     1
 10
0.0
 20
0.0
 30
0.0
  3
*D27
  1

  0
LINE
  5
1640E
330
1593E
100
AcDbEntity
  8
寸法
 62
     0
 48
50.0
370
    -2
100
AcDbLine
 10
6898.561478906024
 20
3420.735182624814
 30
0.0
 11
6898.561478906024
 21
2877.598966587722
 31
0.0
  0
LINE
  5
1640F
330
1593E
100
AcDbEntity
  8
寸法
 62
     0
 48
50.0
370
    -2
100
AcDbLine
 10
6498.561478906023
 20
3145.735182624814
 30
0.0
 11
6498.561478906023
 21
2877.598966587722
 31
0.0
  0
LINE
  5
16410
330
1593E
100
AcDbEntity
  8
寸法
 62
     0
 48
50.0
370
    -2
100
AcDbLine
 10
6898.561478906024
 20
2922.598966587722
 30
0.0
 11
6498.561478906023
 21
2922.598966587722
 31
0.0
  0
INSERT
  5
16411
330
1593E
100
AcDbEntity
  8
寸法
 62
     0
 48
50.0
370
    -2
100
AcDbBlockReference
  2
_DOTSMALL
 10
6898.561478906024
 20
2922.598966587722
 30
0.0
 41
75.0
 42
75.0
 43
75.0
  0
INSERT
  5
16412
330
1593E
100
AcDbEntity
  8
寸法
 62
     0
 48
50.0
370
    -2
100
AcDbBlockReference
  2
_DOTSMALL
 10
6498.561478906023
 20
2922.598966587722
 30
0.0
 41
75.0
 42
75.0
 43
75.0
 50
180.0
  0
MTEXT
  5
16413
330
1593E
100
AcDbEntity
  8
寸法
 62
     7
 48
50.0
100
AcDbMText
 10
6698.561478906023
 20
2997.598966587722
 30
0.0
 40
90.0
 41
0.0
 71
     5
 72
     1
  1
\A1;400
  7
STYLE1
 73
     1
 44
1.0
1001
ACAD
1000
MTEXTBEGIN
1070
    73
1070
     1
1070
    44
1040
1.0
1070
    74
1070
     0
1000
MTEXTEND
  0
POINT
  5
16414
330
1593E
100
AcDbEntity
  8
DEFPOINTS
 62
     0
 48
50.0
100
AcDbPoint
 10
6898.561478906024
 20
3435.735182624814
 30
0.0
  0
POINT
  5
16415
330
1593E
100
AcDbEntity
  8
DEFPOINTS
 62
     0
 48
50.0
100
AcDbPoint
 10
6498.561478906023
 20
3160.735182624814
 30
0.0
  0
POINT
  5
16416
330
1593E
100
AcDbEntity
  8
DEFPOINTS
 62
     0
 48
50.0
100
AcDbPoint
 10
6498.561478906023
 20
2922.598966587722
 30
0.0
  0
ENDBLK
  5
15940
330
1593E
100
AcDbEntity
  8
0
 48
50.0
100
AcDbBlockEnd
  0
BLOCK
  5
1594B
330
1594A
100
AcDbEntity
  8
0
 48
50.0
100
AcDbBlockBegin
  2
*D28
 70
     1
 10
0.0
 20
0.0
 30
0.0
  3
*D28
  1

  0
LINE
  5
16417
330
1594A
100
AcDbEntity
  8
寸法
 62
     0
 48
50.0
370
    -2
100
AcDbLine
 10
6498.561478906023
 20
3145.735182624814
 30
0.0
 11
6498.561478906023
 21
2639.46275055066
 31
0.0
  0
LINE
  5
16418
330
1594A
100
AcDbEntity
  8
寸法
 62
     0
 48
50.0
370
    -2
100
AcDbLine
 10
7298.561478906053
 20
3145.735182624814
 30
0.0
 11
7298.561478906053
 21
2639.46275055066
 31
0.0
  0
LINE
  5
16419
330
1594A
100
AcDbEntity
  8
寸法
 62
     0
 48
50.0
370
    -2
100
AcDbLine
 10
6498.561478906023
 20
2684.46275055066
 30
0.0
 11
7298.561478906053
 21
2684.46275055066
 31
0.0
  0
INSERT
  5
1641A
330
1594A
100
AcDbEntity
  8
寸法
 62
     0
 48
50.0
370
    -2
100
AcDbBlockReference
  2
_DOTSMALL
 10
6498.561478906023
 20
2684.46275055066
 30
0.0
 41
75.0
 42
75.0
 43
75.0
 50
180.0
  0
INSERT
  5
1641B
330
1594A
100
AcDbEntity
  8
寸法
 62
     0
 48
50.0
370
    -2
100
AcDbBlockReference
  2
_DOTSMALL
 10
7298.561478906053
 20
2684.46275055066
 30
0.0
 41
75.0
 42
75.0
 43
75.0
  0
MTEXT
  5
1641C
330
1594A
100
AcDbEntity
  8
寸法
 62
     7
 48
50.0
100
AcDbMText
 10
6898.561478906024
 20
2759.46275055066
 30
0.0
 40
90.0
 41
0.0
 71
     5
 72
     1
  1
\A1;800
  7
STYLE1
 73
     1
 44
1.0
1001
ACAD
1000
MTEXTBEGIN
1070
    73
1070
     1
1070
    44
1040
1.0
1070
    74
1070
     0
1000
MTEXTEND
  0
POINT
  5
1641D
330
1594A
100
AcDbEntity
  8
DEFPOINTS
 62
     0
 48
50.0
100
AcDbPoint
 10
6498.561478906023
 20
3160.735182624814
 30
0.0
  0
POINT
  5
1641E
330
1594A
100
AcDbEntity
  8
DEFPOINTS
 62
     0
 48
50.0
100
AcDbPoint
 10
7298.561478906053
 20
3160.735182624814
 30
0.0
  0
POINT
  5
1641F
330
1594A
100
AcDbEntity
  8
DEFPOINTS
 62
     0
 48
50.0
100
AcDbPoint
 10
7298.561478906053
 20
2684.46275055066
 30
0.0
  0
ENDBLK
  5
1594C
330
1594A
100
AcDbEntity
  8
0
 48
50.0
100
AcDbBlockEnd
  0
BLOCK
  5
15957
330
15956
100
AcDbEntity
  8
0
 48
50.0
100
AcDbBlockBegin
  2
*D29
 70
     1
 10
0.0
 20
0.0
 30
0.0
  3
*D29
  1

  0
LINE
  5
16420
330
15956
100
AcDbEntity
  8
寸法
 62
     0
 48
50.0
370
    -2
100
AcDbLine
 10
6633.561478906024
 20
3685.735182624814
 30
0.0
 11
6276.246975621853
 21
3685.735182624814
 31
0.0
  0
LINE
  5
16421
330
15956
100
AcDbEntity
  8
寸法
 62
     0
 48
50.0
370
    -2
100
AcDbLine
 10
6483.561478906024
 20
3160.7351826248
 30
0.0
 11
6276.246975621853
 21
3160.7351826248
 31
0.0
  0
LINE
  5
16422
330
15956
100
AcDbEntity
  8
寸法
 62
     0
 48
50.0
370
    -2
100
AcDbLine
 10
6321.246975621853
 20
3685.735182624814
 30
0.0
 11
6321.246975621853
 21
3160.7351826248
 31
0.0
  0
INSERT
  5
16423
330
15956
100
AcDbEntity
  8
寸法
 62
     0
 48
50.0
370
    -2
100
AcDbBlockReference
  2
_DOTSMALL
 10
6321.246975621853
 20
3685.735182624814
 30
0.0
 41
75.0
 42
75.0
 43
75.0
 50
90.0
  0
INSERT
  5
16424
330
15956
100
AcDbEntity
  8
寸法
 62
     0
 48
50.0
370
    -2
100
AcDbBlockReference
  2
_DOTSMALL
 10
6321.246975621853
 20
3160.7351826248
 30
0.0
 41
75.0
 42
75.0
 43
75.0
 50
270.0
  0
MTEXT
  5
16425
330
15956
100
AcDbEntity
  8
寸法
 62
     7
 48
50.0
100
AcDbMText
 10
6246.238117354135
 20
3423.235182624808
 30
0.0
 40
90.0
 41
0.0
 71
     5
 72
     1
  1
\A1;525
  7
STYLE1
 11
0.0000000000000001
 21
1.0
 31
0.0
 73
     1
 44
1.0
1001
ACAD
1000
MTEXTBEGIN
1070
    73
1070
     1
1070
    44
1040
1.0
1070
    74
1070
     0
1000
MTEXTEND
  0
POINT
  5
16426
330
15956
100
AcDbEntity
  8
DEFPOINTS
 62
     0
 48
50.0
100
AcDbPoint
 10
6648.561478906024
 20
3685.735182624814
 30
0.0
  0
POINT
  5
16427
330
15956
100
AcDbEntity
  8
DEFPOINTS
 62
     0
 48
50.0
100
AcDbPoint
 10
6498.561478906023
 20
3160.7351826248
 30
0.0
  0
POINT
  5
16428
330
15956
100
AcDbEntity
  8
DEFPOINTS
 62
     0
 48
50.0
100
AcDbPoint
 10
6321.246975621853
 20
3160.7351826248
 30
0.0
  0
ENDBLK
  5
15958
330
15956
100
AcDbEntity
  8
0
 48
50.0
100
AcDbBlockEnd
  0
BLOCK
  5
15963
330
15962
100
AcDbEntity
  8
0
 48
50.0
100
AcDbBlockBegin
  2
*D30
 70
     1
 10
0.0
 20
0.0
 30
0.0
  3
*D30
  1

  0
LINE
  5
16429
330
15962
100
AcDbEntity
  8
寸法
 62
     0
 48
50.0
370
    -2
100
AcDbLine
 10
6483.561478906024
 20
4560.735182624814
 30
0.0
 11
6098.932472337681
 21
4560.735182624815
 31
0.0
  0
LINE
  5
1642A
330
15962
100
AcDbEntity
  8
寸法
 62
     0
 48
50.0
370
    -2
100
AcDbLine
 10
6483.561478906024
 20
3160.7351826248
 30
0.0
 11
6098.932472337681
 21
3160.7351826248
 31
0.0
  0
LINE
  5
1642B
330
15962
100
AcDbEntity
  8
寸法
 62
     0
 48
50.0
370
    -2
100
AcDbLine
 10
6143.932472337681
 20
4560.735182624815
 30
0.0
 11
6143.932472337681
 21
3160.7351826248
 31
0.0
  0
INSERT
  5
1642C
330
15962
100
AcDbEntity
  8
寸法
 62
     0
 48
50.0
370
    -2
100
AcDbBlockReference
  2
_DOTSMALL
 10
6143.932472337681
 20
4560.735182624815
 30
0.0
 41
75.0
 42
75.0
 43
75.0
 50
90.0
  0
INSERT
  5
1642D
330
15962
100
AcDbEntity
  8
寸法
 62
     0
 48
50.0
370
    -2
100
AcDbBlockReference
  2
_DOTSMALL
 10
6143.932472337681
 20
3160.7351826248
 30
0.0
 41
75.0
 42
75.0
 43
75.0
 50
270.0
  0
MTEXT
  5
1642E
330
15962
100
AcDbEntity
  8
寸法
 62
     7
 48
50.0
100
AcDbMText
 10
6068.932472337681
 20
3860.735182624809
 30
0.0
 40
90.0
 41
0.0
 71
     5
 72
     1
  1
\A1;1400
  7
STYLE1
 11
0.0000000000000001
 21
1.0
 31
0.0
 73
     1
 44
1.0
1001
ACAD
1000
MTEXTBEGIN
1070
    73
1070
     1
1070
    44
1040
1.0
1070
    74
1070
     0
1000
MTEXTEND
  0
POINT
  5
1642F
330
15962
100
AcDbEntity
  8
DEFPOINTS
 62
     0
 48
50.0
100
AcDbPoint
 10
6498.561478906023
 20
4560.735182624814
 30
0.0
  0
POINT
  5
16430
330
15962
100
AcDbEntity
  8
DEFPOINTS
 62
     0
 48
50.0
100
AcDbPoint
 10
6498.561478906023
 20
3160.7351826248
 30
0.0
  0
POINT
  5
16431
330
15962
100
AcDbEntity
  8
DEFPOINTS
 62
     0
 48
50.0
100
AcDbPoint
 10
6143.932472337681
 20
3160.7351826248
 30
0.0
  0
ENDBLK
  5
15964
330
15962
100
AcDbEntity
  8
0
 48
50.0
100
AcDbBlockEnd
  0
BLOCK
  5
1596F
330
1596E
100
AcDbEntity
  8
0
 48
50.0
100
AcDbBlockBegin
  2
*D31
 70
     1
 10
0.0
 20
0.0
 30
0.0
  3
*D31
  1

  0
LINE
  5
16432
330
1596E
100
AcDbEntity
  8
寸法
 62
     0
 48
50.0
370
    -2
100
AcDbLine
 10
6633.561478906024
 20
4035.735182624814
 30
0.0
 11
6276.246975621853
 21
4035.735182624814
 31
0.0
  0
LINE
  5
16433
330
1596E
100
AcDbEntity
  8
寸法
 62
     0
 48
50.0
370
    -2
100
AcDbLine
 10
6633.561478906024
 20
3685.735182624814
 30
0.0
 11
6276.246975621853
 21
3685.735182624814
 31
0.0
  0
LINE
  5
16434
330
1596E
100
AcDbEntity
  8
寸法
 62
     0
 48
50.0
370
    -2
100
AcDbLine
 10
6321.246975621853
 20
4035.735182624814
 30
0.0
 11
6321.246975621853
 21
3685.735182624814
 31
0.0
  0
INSERT
  5
16435
330
1596E
100
AcDbEntity
  8
寸法
 62
     0
 48
50.0
370
    -2
100
AcDbBlockReference
  2
_DOTSMALL
 10
6321.246975621853
 20
4035.735182624814
 30
0.0
 41
75.0
 42
75.0
 43
75.0
 50
90.0
  0
INSERT
  5
16436
330
1596E
100
AcDbEntity
  8
寸法
 62
     0
 48
50.0
370
    -2
100
AcDbBlockReference
  2
_DOTSMALL
 10
6321.246975621853
 20
3685.735182624814
 30
0.0
 41
75.0
 42
75.0
 43
75.0
 50
270.0
  0
MTEXT
  5
16437
330
1596E
100
AcDbEntity
  8
寸法
 62
     7
 48
50.0
100
AcDbMText
 10
6246.246975621851
 20
3860.735182624815
 30
0.0
 40
90.0
 41
0.0
 71
     5
 72
     1
  1
\A1;350
  7
STYLE1
 11
0.0000000000000001
 21
1.0
 31
0.0
 73
     1
 44
1.0
1001
ACAD
1000
MTEXTBEGIN
1070
    73
1070
     1
1070
    44
1040
1.0
1070
    74
1070
     0
1000
MTEXTEND
  0
POINT
  5
16438
330
1596E
100
AcDbEntity
  8
DEFPOINTS
 62
     0
 48
50.0
100
AcDbPoint
 10
6648.561478906024
 20
4035.735182624814
 30
0.0
  0
POINT
  5
16439
330
1596E
100
AcDbEntity
  8
DEFPOINTS
 62
     0
 48
50.0
100
AcDbPoint
 10
6648.561478906024
 20
3685.735182624814
 30
0.0
  0
POINT
  5
1643A
330
1596E
100
AcDbEntity
  8
DEFPOINTS
 62
     0
 48
50.0
100
AcDbPoint
 10
6321.246975621853
 20
3685.735182624814
 30
0.0
  0
ENDBLK
  5
15970
330
1596E
100
AcDbEntity
  8
0
 48
50.0
100
AcDbBlockEnd
  0
BLOCK
  5
1597B
330
1597A
100
AcDbEntity
  8
0
 48
50.0
100
AcDbBlockBegin
  2
*D32
 70
     1
 10
0.0
 20
0.0
 30
0.0
  3
*D32
  1

  0
LINE
  5
1643B
330
1597A
100
AcDbEntity
  8
寸法
 62
     0
 48
50.0
370
    -2
100
AcDbLine
 10
6633.561478906024
 20
4035.735182624814
 30
0.0
 11
6276.246975621853
 21
4035.735182624814
 31
0.0
  0
LINE
  5
1643C
330
1597A
100
AcDbEntity
  8
寸法
 62
     0
 48
50.0
370
    -2
100
AcDbLine
 10
6483.561478906024
 20
4560.735182624829
 30
0.0
 11
6276.246975621853
 21
4560.735182624829
 31
0.0
  0
LINE
  5
1643D
330
1597A
100
AcDbEntity
  8
寸法
 62
     0
 48
50.0
370
    -2
100
AcDbLine
 10
6321.246975621853
 20
4035.735182624814
 30
0.0
 11
6321.246975621853
 21
4560.735182624829
 31
0.0
  0
INSERT
  5
1643E
330
1597A
100
AcDbEntity
  8
寸法
 62
     0
 48
50.0
370
    -2
100
AcDbBlockReference
  2
_DOTSMALL
 10
6321.246975621853
 20
4035.735182624814
 30
0.0
 41
75.0
 42
75.0
 43
75.0
 50
270.0
  0
INSERT
  5
1643F
330
1597A
100
AcDbEntity
  8
寸法
 62
     0
 48
50.0
370
    -2
100
AcDbBlockReference
  2
_DOTSMALL
 10
6321.246975621853
 20
4560.735182624829
 30
0.0
 41
75.0
 42
75.0
 43
75.0
 50
90.0
  0
MTEXT
  5
16440
330
1597A
100
AcDbEntity
  8
寸法
 62
     7
 48
50.0
100
AcDbMText
 10
6246.238117354135
 20
4298.235182624823
 30
0.0
 40
90.0
 41
0.0
 71
     5
 72
     1
  1
\A1;525
  7
STYLE1
 11
0.0000000000000001
 21
1.0
 31
0.0
 73
     1
 44
1.0
1001
ACAD
1000
MTEXTBEGIN
1070
    73
1070
     1
1070
    44
1040
1.0
1070
    74
1070
     0
1000
MTEXTEND
  0
POINT
  5
16441
330
1597A
100
AcDbEntity
  8
DEFPOINTS
 62
     0
 48
50.0
100
AcDbPoint
 10
6648.561478906024
 20
4035.735182624814
 30
0.0
  0
POINT
  5
16442
330
1597A
100
AcDbEntity
  8
DEFPOINTS
 62
     0
 48
50.0
100
AcDbPoint
 10
6498.561478906023
 20
4560.735182624829
 30
0.0
  0
POINT
  5
16443
330
1597A
100
AcDbEntity
  8
DEFPOINTS
 62
     0
 48
50.0
100
AcDbPoint
 10
6321.246975621853
 20
4560.735182624829
 30
0.0
  0
ENDBLK
  5
1597C
330
1597A
100
AcDbEntity
  8
0
 48
50.0
100
AcDbBlockEnd
  0
BLOCK
  5
15FC0
330
15FBF
100
AcDbEntity
  8
0
 48
50.0
100
AcDbBlockBegin
  2
*D33
 70
     1
 10
0.0
 20
0.0
 30
0.0
  3
*D33
  1

  0
LINE
  5
16444
330
15FBF
100
AcDbEntity
  8
寸法
 62
     0
 48
50.0
370
    -2
100
AcDbLine
 10
1298.561478906053
 20
4300.735182624829
 30
0.0
 11
1298.561478906053
 21
6387.65895988665
 31
0.0
  0
LINE
  5
16445
330
15FBF
100
AcDbEntity
  8
寸法
 62
     0
 48
50.0
370
    -2
100
AcDbLine
 10
4098.561478906052
 20
4300.735182624829
 30
0.0
 11
4098.561478906052
 21
6387.65895988665
 31
0.0
  0
LINE
  5
16446
330
15FBF
100
AcDbEntity
  8
寸法
 62
     0
 48
50.0
370
    -2
100
AcDbLine
 10
1298.561478906053
 20
6342.658959886651
 30
0.0
 11
4098.561478906052
 21
6342.658959886651
 31
0.0
  0
INSERT
  5
16447
330
15FBF
100
AcDbEntity
  8
寸法
 62
     0
 48
50.0
370
    -2
100
AcDbBlockReference
  2
_DOTSMALL
 10
1298.561478906053
 20
6342.658959886651
 30
0.0
 41
75.0
 42
75.0
 43
75.0
 50
180.0
  0
INSERT
  5
16448
330
15FBF
100
AcDbEntity
  8
寸法
 62
     0
 48
50.0
370
    -2
100
AcDbBlockReference
  2
_DOTSMALL
 10
4098.561478906052
 20
6342.658959886651
 30
0.0
 41
75.0
 42
75.0
 43
75.0
  0
MTEXT
  5
16449
330
15FBF
100
AcDbEntity
  8
寸法
 62
     7
 48
50.0
100
AcDbMText
 10
2698.561478906053
 20
6417.667818154367
 30
0.0
 40
90.0
 41
0.0
 71
     5
 72
     1
  1
\A1;2800
  7
STYLE1
 73
     1
 44
1.0
1001
ACAD
1000
MTEXTBEGIN
1070
    73
1070
     1
1070
    44
1040
1.0
1070
    74
1070
     0
1000
MTEXTEND
  0
POINT
  5
1644A
330
15FBF
100
AcDbEntity
  8
DEFPOINTS
 62
     0
 48
50.0
100
AcDbPoint
 10
1298.561478906053
 20
4285.735182624828
 30
-0.0000000000013153
  0
POINT
  5
1644B
330
15FBF
100
AcDbEntity
  8
DEFPOINTS
 62
     0
 48
50.0
100
AcDbPoint
 10
4098.561478906052
 20
4285.735182624828
 30
-0.0000000000013153
  0
POINT
  5
1644C
330
15FBF
100
AcDbEntity
  8
DEFPOINTS
 62
     0
 48
50.0
100
AcDbPoint
 10
4098.561478906052
 20
6342.658959886651
 30
0.0
  0
ENDBLK
  5
15FC1
330
15FBF
100
AcDbEntity
  8
0
 48
50.0
100
AcDbBlockEnd
  0
BLOCK
  5
15FCD
330
15FCC
100
AcDbEntity
  8
0
 48
50.0
100
AcDbBlockBegin
  2
*D34
 70
     1
 10
0.0
 20
0.0
 30
0.0
  3
*D34
  1

  0
LINE
  5
1644D
330
15FCC
100
AcDbEntity
  8
寸法
 62
     0
 48
50.0
370
    -2
100
AcDbLine
 10
4098.561478906052
 20
4300.735182624829
 30
0.0
 11
4098.561478906052
 21
6387.65895988665
 31
0.0
  0
LINE
  5
1644E
330
15FCC
100
AcDbEntity
  8
寸法
 62
     0
 48
50.0
370
    -2
100
AcDbLine
 10
4098.561478906052
 20
6342.658959886651
 30
0.0
 11
5418.561478906052
 21
6342.658959886651
 31
0.0
  0
INSERT
  5
1644F
330
15FCC
100
AcDbEntity
  8
寸法
 62
     0
 48
50.0
370
    -2
100
AcDbBlockReference
  2
_DOTSMALL
 10
4098.561478906052
 20
6342.658959886651
 30
0.0
 41
75.0
 42
75.0
 43
75.0
 50
180.0
  0
MTEXT
  5
16450
330
15FCC
100
AcDbEntity
  8
寸法
 62
     7
 48
50.0
100
AcDbMText
 10
4758.561478906052
 20
6417.667818154367
 30
0.0
 40
90.0
 41
0.0
 71
     5
 72
     1
  1
\A1;2800
  7
STYLE1
 73
     1
 44
1.0
1001
ACAD
1000
MTEXTBEGIN
1070
    73
1070
     1
1070
    44
1040
1.0
1070
    74
1070
     0
1000
MTEXTEND
  0
POINT
  5
16451
330
15FCC
100
AcDbEntity
  8
DEFPOINTS
 62
     0
 48
50.0
100
AcDbPoint
 10
4098.561478906052
 20
4285.735182624828
 30
-0.0000000000013153
  0
POINT
  5
16452
330
15FCC
100
AcDbEntity
  8
DEFPOINTS
 62
     0
 48
50.0
100
AcDbPoint
 10
5418.561478906052
 20
4300.735182624829
 30
-0.0000000000013153
  0
POINT
  5
16453
330
15FCC
100
AcDbEntity
  8
DEFPOINTS
 62
     0
 48
50.0
100
AcDbPoint
 10
5418.561478906052
 20
6342.658959886651
 30
0.0
  0
ENDBLK
  5
15FCE
330
15FCC
100
AcDbEntity
  8
0
 48
50.0
100
AcDbBlockEnd
  0
BLOCK
  5
16056
330
16055
100
AcDbEntity
  8
0
 48
50.0
100
AcDbBlockBegin
  2
*D35
 70
     1
 10
0.0
 20
0.0
 30
0.0
  3
*D35
  1

  0
LINE
  5
16454
330
16055
100
AcDbEntity
  8
寸法
 62
     0
 48
50.0
370
    -2
100
AcDbLine
 10
6898.561478906053
 20
4300.735182624829
 30
0.0
 11
6898.561478906053
 21
6387.65895988665
 31
0.0
  0
LINE
  5
16455
330
16055
100
AcDbEntity
  8
寸法
 62
     0
 48
50.0
370
    -2
100
AcDbLine
 10
6898.561478906053
 20
6342.658959886651
 30
0.0
 11
5578.561478906053
 21
6342.658959886651
 31
0.0
  0
INSERT
  5
16456
330
16055
100
AcDbEntity
  8
寸法
 62
     0
 48
50.0
370
    -2
100
AcDbBlockReference
  2
_DOTSMALL
 10
6898.561478906053
 20
6342.658959886651
 30
0.0
 41
75.0
 42
75.0
 43
75.0
  0
MTEXT
  5
16457
330
16055
100
AcDbEntity
  8
寸法
 62
     7
 48
50.0
100
AcDbMText
 10
6238.561478906053
 20
6417.667818154367
 30
0.0
 40
90.0
 41
0.0
 71
     5
 72
     1
  1
\A1;2800
  7
STYLE1
 73
     1
 44
1.0
1001
ACAD
1000
MTEXTBEGIN
1070
    73
1070
     1
1070
    44
1040
1.0
1070
    74
1070
     0
1000
MTEXTEND
  0
POINT
  5
16458
330
16055
100
AcDbEntity
  8
DEFPOINTS
 62
     0
 48
50.0
100
AcDbPoint
 10
6898.561478906053
 20
4285.735182624828
 30
-0.0000000000013153
  0
POINT
  5
16459
330
16055
100
AcDbEntity
  8
DEFPOINTS
 62
     0
 48
50.0
100
AcDbPoint
 10
5578.561478906053
 20
4300.735182624829
 30
-0.0000000000013153
  0
POINT
  5
1645A
330
16055
100
AcDbEntity
  8
DEFPOINTS
 62
     0
 48
50.0
100
AcDbPoint
 10
5578.561478906053
 20
6342.658959886651
 30
0.0
  0
ENDBLK
  5
16057
330
16055
100
AcDbEntity
  8
0
 48
50.0
100
AcDbBlockEnd
  0
ENDSEC
  0
SECTION
  2
ENTITIES
  0
MTEXT
  5
763F
330
747D
100
AcDbEntity
  8
0
100
AcDbMText
 10
302.846345836809
 20
280.1983726409901
 30
0.0
 40
3.5
 41
5.323721266742722
 71
     1
 72
     5
  1

  7
MSMINCHO
 73
     1
 44
1.0
1001
ACAD
1000
MTEXTBEGIN
1070
    73
1070
     1
1070
    44
1040
1.0
1070
    74
1070
     0
1000
MTEXTEND
  0
LINE
  5
10B56
330
747D
100
AcDbEntity
  8
補助
  6
PHANTOM
 62
   230
 48
50.0
100
AcDbLine
 10
105.0
 20
0.0
 30
0.0
 11
104.9999999999996
 21
8557.199999999999
 31
0.0
  0
LINE
  5
10B57
330
747D
100
AcDbEntity
  8
補助
  6
PHANTOM
 62
   230
 48
50.0
100
AcDbLine
 10
104.9999999999996
 20
8557.199999999999
 30
0.0
 11
12230.4
 21
8557.199999999999
 31
0.0
  0
LINE
  5
10B5E
330
747D
100
AcDbEntity
  8
補助
  6
PHANTOM
 62
   230
 48
50.0
100
AcDbLine
 10
12230.4
 20
8557.199999999999
 30
0.0
 11
12230.4
 21
900.0
 31
0.0
  0
LINE
  5
10B6D
330
747D
100
AcDbEntity
  8
補助
  6
PHANTOM
 62
   230
 48
50.0
100
AcDbLine
 10
9830.400000000002
 20
8557.199999999999
 30
0.0
 11
9830.400000000002
 21
3600.0
 31
0.0
  0
LINE
  5
10B6F
330
747D
100
AcDbEntity
  8
補助
  6
PHANTOM
 62
   230
 48
50.0
100
AcDbLine
 10
9830.400000000002
 20
3110.960973647383
 30
0.0
 11
12230.4
 21
3110.960973647383
 31
0.0
  0
LINE
  5
13125
330
747D
100
AcDbEntity
  8
補助
  6
PHANTOM
 62
   230
 48
50.0
100
AcDbLine
 10
11930.4
 20
8182.200000000003
 30
0.0
 11
11930.4
 21
6457.2
 31
0.0
  0
LINE
  5
13126
330
747D
100
AcDbEntity
  8
補助
  6
PHANTOM
 62
   230
 48
50.0
100
AcDbLine
 10
9380.400000000003
 20
8182.199999999999
 30
0.0
 11
9380.400000000003
 21
6457.2
 31
0.0
  0
LINE
  5
13127
330
747D
100
AcDbEntity
  8
補助
  6
PHANTOM
 62
   230
 48
50.0
100
AcDbLine
 10
9380.400000000003
 20
6457.2
 30
0.0
 11
11930.4
 21
6457.2
 31
0.0
  0
LINE
  5
13128
330
747D
100
AcDbEntity
  8
補助
  6
PHANTOM
 62
   230
 48
50.0
100
AcDbLine
 10
9380.400000000003
 20
8182.199999999999
 30
0.0
 11
11930.4
 21
8182.200000000003
 31
0.0
  0
TEXT
  5
13A99
330
747D
100
AcDbEntity
  8
文字
 62
     7
 48
50.0
100
AcDbText
 10
10893.0988779165
 20
773.6682797184258
 30
0.0
 40
75.0
  1
             <縮尺> S=1/30
  7
STYLE2
100
AcDbText
  0
TEXT
  5
13A9A
330
747D
100
AcDbEntity
  8
文字
 62
     7
 48
50.0
100
AcDbText
 10
11138.71739229687
 20
628.6895453046927
 30
0.0
 40
75.0
  1
～一般型～
  7
STYLE2
100
AcDbText
  0
TEXT
  5
13A9B
330
747D
100
AcDbEntity
  8
文字
 62
     7
 48
50.0
100
AcDbText
 10
10951.9835159712
 20
362.922534743353
 30
0.0
 40
120.0
  1
BP-28VPL
  7
STYLE3
100
AcDbText
  0
LINE
  5
13A9C
330
747D
100
AcDbEntity
  8
仕様書枠
  6
Continuous
 48
50.0
100
AcDbLine
 10
10688.4
 20
900.0000000000037
 30
0.0
 11
10688.4
 21
600.0000000000036
 31
0.0
  0
LINE
  5
13A9D
330
747D
100
AcDbEntity
  8
仕様書枠
 48
50.0
100
AcDbLine
 10
9830.400000000002
 20
600.0000000000036
 30
0.0
 11
10688.4
 21
600.0000000000036
 31
0.0
  0
TEXT
  5
13A9E
330
747D
100
AcDbEntity
  8
文字
 62
     7
 48
50.0
100
AcDbText
 10
9907.054008162901
 20
57.07076030736789
 30
0.0
 40
60.0
  1
○寒冷地等は、地域の実情に合わせた基礎にしてください。
  7
STYLE2
100
AcDbText
  0
TEXT
  5
13A9F
330
747D
100
AcDbEntity
  8
文字
 62
     7
 48
50.0
100
AcDbText
 10
9907.054008162901
 20
171.4076431926805
 30
0.0
 40
60.0
  1
○間口寸法は柱芯寸法です。
  7
STYLE2
100
AcDbText
  0
TEXT
  5
13AA0
330
747D
100
AcDbEntity
  8
文字
 62
     7
 48
50.0
100
AcDbText
 10
9901.077524988316
 20
357.9555495773529
 30
0.0
 40
120.0
  1
機種名
  7
STYLE2
100
AcDbText
  0
TEXT
  5
13AA1
330
747D
100
AcDbEntity
  8
文字
 62
     7
 48
50.0
100
AcDbText
 10
9872.234292432681
 20
671.31795557246
 30
0.0
 40
150.0
  1
基 礎 図
  7
STYLE2
100
AcDbText
  0
LINE
  5
13AA2
330
747D
100
AcDbEntity
  8
文字
 62
     7
 48
50.0
100
AcDbLine
 10
9890.400000000001
 20
300.0
 30
0.0
 11
12170.4
 21
300.0
 31
0.0
  0
LINE
  5
13AA3
330
747D
100
AcDbEntity
  8
仕様書枠
 48
50.0
100
AcDbLine
 10
9830.400000000002
 20
900.0000000000037
 30
0.0
 11
12230.4
 21
900.0000000000037
 31
0.0
  0
LINE
  5
13AA4
330
747D
100
AcDbEntity
  8
仕様書枠
 48
50.0
100
AcDbLine
 10
105.0
 20
0.0
 30
0.0
 11
12230.4
 21
0.0
 31
0.0
  0
LINE
  5
13AA5
330
747D
100
AcDbEntity
  8
仕様書枠
 48
50.0
100
AcDbLine
 10
12230.4
 20
900.0000000000037
 30
0.0
 11
12230.4
 21
0.0
 31
0.0
  0
LINE
  5
13AA6
330
747D
100
AcDbEntity
  8
仕様書枠
  6
Continuous
 48
50.0
100
AcDbLine
 10
9830.400000000002
 20
900.0000000000037
 30
0.0
 11
9830.400000000002
 21
0.0
 31
0.0
  0
LINE
  5
13F13
330
747D
100
AcDbEntity
  8
寸法
 48
50.0
100
AcDbLine
 10
5589.326055477038
 20
6147.555224696121
 30
0.0000000000013153
 11
5210.969974140808
 21
4001.791259272128
 31
0.0000000000013153
  0
LINE
  5
13F14
330
747D
100
AcDbEntity
  8
寸法
 48
50.0
100
AcDbLine
 10
5619.788853833612
 20
6147.555224696121
 30
0.0000000000013153
 11
5236.516858737061
 21
3973.911726936409
 31
0.0000000000013153
  0
LINE
  5
13F15
330
747D
100
AcDbEntity
  8
寸法
 48
50.0
100
AcDbLine
 10
5167.158553301863
 20
3753.324344776602
 30
0.0000000000013153
 11
4784.519613370561
 21
1583.271081266413
 31
0.0000000000013153
  0
LINE
  5
13F16
330
747D
100
AcDbEntity
  8
寸法
 48
50.0
100
AcDbLine
 10
5192.705437898116
 20
3725.444812440883
 30
0.0000000000013153
 11
4814.982411727135
 21
1583.271081266413
 31
0.0000000000013153
  0
LINE
  5
13F17
330
747D
100
AcDbEntity
  8
寸法
 48
50.0
100
AcDbLine
 10
5210.969974140808
 20
4001.791259272128
 30
0.0000000000013153
 11
4923.892699451052
 21
3976.675252180858
 31
0.0000000000013153
  0
LINE
  5
13F18
330
747D
100
AcDbEntity
  8
寸法
 48
50.0
100
AcDbLine
 10
5167.158553301863
 20
3753.324344776602
 30
0.0000000000013153
 11
5365.632563480165
 21
3770.688570671735
 31
0.0000000000013153
  0
LINE
  5
13F19
330
747D
100
AcDbEntity
  8
寸法
 48
50.0
100
AcDbLine
 10
4923.892699451052
 20
3976.675252180858
 30
0.0000000000013153
 11
5365.632563480165
 21
3770.688570671735
 31
0.0000000000013153
  0
LINE
  5
13F1A
330
747D
100
AcDbEntity
  8
寸法
 48
50.0
100
AcDbLine
 10
5236.516858737061
 20
3973.911726936409
 30
0.0000000000013153
 11
5038.042848558758
 21
3956.547501041276
 31
0.0000000000013153
  0
LINE
  5
13F1B
330
747D
100
AcDbEntity
  8
寸法
 48
50.0
100
AcDbLine
 10
5038.042848558758
 20
3956.547501041276
 30
0.0000000000013153
 11
5479.782712587872
 21
3750.560819532153
 31
0.0000000000013153
  0
LINE
  5
13F1C
330
747D
100
AcDbEntity
  8
寸法
 48
50.0
100
AcDbLine
 10
5192.705437898116
 20
3725.444812440883
 30
0.0000000000013153
 11
5479.782712587872
 21
3750.560819532153
 31
0.0000000000013153
  0
LINE
  5
14E6C
330
747D
100
AcDbEntity
  8
細線
 48
50.0
100
AcDbLine
 10
9521.474036807337
 20
3166.408999495949
 30
-0.0000000000013153
 11
9514.775306996567
 21
3191.408999495949
 31
-0.0000000000013153
  0
LINE
  5
14E6D
330
747D
100
AcDbEntity
  8
細線
 48
50.0
100
AcDbLine
 10
9398.211466577221
 20
3166.408999495949
 30
-0.0000000000013153
 11
9391.512736766449
 21
3191.408999495949
 31
-0.0000000000013153
  0
LINE
  5
14E6E
330
747D
100
AcDbEntity
  8
細線
 48
50.0
100
AcDbLine
 10
9274.948896347163
 20
3166.408999495949
 30
-0.0000000000013153
 11
9268.250166536393
 21
3191.408999495949
 31
-0.0000000000013153
  0
LINE
  5
14E6F
330
747D
100
AcDbEntity
  8
細線
 48
50.0
100
AcDbLine
 10
9151.686326117106
 20
3166.408999495949
 30
-0.0000000000013153
 11
9144.987596306334
 21
3191.408999495949
 31
-0.0000000000013153
  0
LINE
  5
14E70
330
747D
100
AcDbEntity
  8
細線
 48
50.0
100
AcDbLine
 10
9528.172766618107
 20
3241.408999495949
 30
-0.0000000000013153
 11
9521.474036807337
 21
3266.408999495949
 31
-0.0000000000013153
  0
LINE
  5
14E71
330
747D
100
AcDbEntity
  8
細線
 48
50.0
100
AcDbLine
 10
9404.910196387993
 20
3241.408999495949
 30
-0.0000000000013153
 11
9398.211466577221
 21
3266.408999495949
 31
-0.0000000000013153
  0
LINE
  5
14E72
330
747D
100
AcDbEntity
  8
細線
 48
50.0
100
AcDbLine
 10
9158.385055927876
 20
3241.408999495949
 30
-0.0000000000013153
 11
9151.686326117106
 21
3266.408999495949
 31
-0.0000000000013153
  0
LINE
  5
14E73
330
747D
100
AcDbEntity
  8
細線
 48
50.0
100
AcDbLine
 10
9281.647626157933
 20
3241.408999495949
 30
-0.0000000000013153
 11
9274.948896347163
 21
3266.408999495949
 31
-0.0000000000013153
  0
HATCH
  5
14E74
330
747D
100
AcDbEntity
  8
細線
 48
50.0
100
AcDbHatch
 10
0.0
 20
0.0
 30
0.0
210
0.0
220
0.0
230
1.0
  2
PLAST
 70
     0
 71
     0
 91
       10
 92
        7
 72
     1
 73
     1
 93
       16
 10
9609.31093595069
 20
3980.408999495949
 42
0.0
 10
9595.31093595069
 20
3980.408999495949
 42
0.0
 10
9581.310935950689
 20
3966.408999495949
 42
0.0
 10
8628.860935950619
 20
3966.408999495949
 42
0.0
 10
8628.860935950678
 20
3866.408999495949
 42
0.0
 10
9128.860935950678
 20
3866.408999495949
 42
0.0
 10
9128.860935950678
 20
3766.408999495978
 42
0.0
 10
9453.860935950677
 20
3766.408999495978
 42
0.0
 10
9453.860935950677
 20
3801.408999495949
 42
0.0
 10
9448.860935950676
 20
3801.408999495949
 42
-0.4142135623730951
 10
9443.860935950677
 20
3806.408999495949
 42
-0.4142135623730951
 10
9448.860935950676
 20
3811.408999495949
 42
0.0
 10
9520.310935950689
 20
3811.408999495949
 42
0.0
 10
9520.310935950689
 20
3848.408999495949
 42
0.0
 10
9530.310935950689
 20
3858.408999495948
 42
0.0
 10
9609.31093595069
 20
3858.408999495948
 42
0.0
 97
        0
 92
       23
 72
     0
 73
     1
 93
        6
 10
9547.860935950678
 20
3796.408999495949
 10
9513.860935950678
 20
3796.408999495949
 10
9513.860935950678
 20
3801.408999495949
 10
9466.860935950677
 20
3801.408999495949
 10
9466.860935950677
 20
3766.408999495978
 10
9547.860935950678
 20
3766.408999495978
 97
        0
 92
        7
 72
     1
 73
     1
 93
        4
 10
9653.860935950678
 20
3796.408999495978
 42
0.0
 10
9559.860935950679
 20
3796.408999495963
 42
0.0
 10
9559.860935950679
 20
3766.408999495978
 42
0.0
 10
9609.215666590516
 20
3766.408999495978
 42
-0.304773531682055
 97
        0
 92
        7
 72
     1
 73
     1
 93
        4
 10
9747.860935950678
 20
3796.408999495949
 42
0.0
 10
9653.860935950678
 20
3796.408999495978
 42
-0.304773531682055
 10
9698.506205310838
 20
3766.408999495978
 42
0.0
 10
9747.860935950678
 20
3766.408999495978
 42
0.0
 97
        0
 92
        7
 72
     0
 73
     1
 93
        8
 10
9897.860935950678
 20
3796.408999495949
 10
9863.860935950677
 20
3796.408999495949
 10
9863.860935950677
 20
3801.408999495949
 10
9793.860935950677
 20
3801.408999495949
 10
9793.860935950677
 20
3796.408999495949
 10
9759.860935950678
 20
3796.408999495949
 10
9759.860935950678
 20
3766.408999495978
 10
9897.860935950678
 20
3766.408999495978
 97
        0
 92
        7
 72
     0
 73
     1
 93
       14
 10
9870.310935950691
 20
3848.408999495949
 10
9880.310935950689
 20
3858.408999495948
 10
9959.310935950689
 20
3858.408999495948
 10
9959.310935950689
 20
3980.408999495949
 10
9945.31093595069
 20
3980.408999495949
 10
9931.310935950691
 20
3966.408999495934
 10
9726.410935950667
 20
3966.408999495949
 10
9712.410935950725
 20
3980.408999495949
 10
9698.410935950667
 20
3980.408999495949
 10
9698.410935950667
 20
3858.408999495948
 10
9777.410935950666
 20
3858.408999495948
 10
9787.410935950667
 20
3848.408999495949
 10
9787.410935950667
 20
3811.408999495949
 10
9870.310935950691
 20
3811.408999495949
 97
        0
 92
        7
 72
     1
 73
     1
 93
        4
 10
10003.86093595067
 20
3796.408999495978
 42
0.0
 10
9909.860935950678
 20
3796.408999495963
 42
0.0
 10
9909.860935950678
 20
3766.408999495978
 42
0.0
 10
9959.215666590516
 20
3766.408999495978
 42
-0.3047735316820541
 97
        0
 92
        7
 72
     1
 73
     1
 93
        4
 10
10097.86093595067
 20
3796.408999495949
 42
0.0
 10
10003.86093595067
 20
3796.408999495978
 42
-0.3047735316820546
 10
10048.50620531084
 20
3766.408999495978
 42
0.0
 10
10097.86093595067
 20
3766.408999495978
 42
0.0
 97
        0
 92
       23
 72
     0
 73
     1
 93
        6
 10
10190.86093595068
 20
3801.408999495949
 10
10143.86093595067
 20
3801.408999495949
 10
10143.86093595067
 20
3796.408999495949
 10
10109.86093595068
 20
3796.408999495949
 10
10109.86093595068
 20
3766.408999495978
 10
10190.86093595068
 20
3766.408999495978
 97
        0
 92
        7
 72
     1
 73
     1
 93
       16
 10
10528.86093595067
 20
3866.408999495949
 42
0.0
 10
11028.86093595067
 20
3866.408999495949
 42
0.0
 10
11028.86093595073
 20
3966.408999495949
 42
0.0
 10
10076.41093595066
 20
3966.408999495949
 42
0.0
 10
10062.41093595072
 20
3980.408999495949
 42
0.0
 10
10048.41093595066
 20
3980.408999495949
 42
0.0
 10
10048.41093595066
 20
3858.408999495948
 42
0.0
 10
10127.41093595066
 20
3858.408999495948
 42
0.0
 10
10137.41093595066
 20
3848.408999495949
 42
0.0
 10
10137.41093595066
 20
3811.408999495949
 42
0.0
 10
10208.86093595068
 20
3811.408999495949
 42
-0.4142135623730951
 10
10213.86093595068
 20
3806.408999495949
 42
-0.4142135623730951
 10
10208.86093595068
 20
3801.408999495949
 42
0.0
 10
10203.86093595067
 20
3801.408999495949
 42
0.0
 10
10203.86093595067
 20
3766.408999495978
 42
0.0
 10
10528.86093595067
 20
3766.408999495978
 42
0.0
 97
        0
 75
     0
 76
     1
 52
45.0
 41
37.5
 77
     0
 78
     3
 53
45.0
 43
-266833.8544111767
 44
111677.239081666
 45
-168.3798022700466
 46
168.3798022700466
 79
     0
 53
45.0
 43
-266854.9018864605
 44
111698.2865569497
 45
-168.3798022700466
 46
168.3798022700466
 79
     0
 53
45.0
 43
-266875.9493617442
 44
111719.3340322335
 45
-168.3798022700466
 46
168.3798022700466
 79
     0
 47
2.934270310785949
 98
       10
 10
9370.319991259396
 20
3912.886712573278
 10
9503.427528482772
 20
3773.640943168617
 10
9591.752484047171
 20
3775.933989349504
 10
9721.371919517665
 20
3781.666709669821
 10
9834.93257667191
 20
3782.813337628364
 10
9837.226807490308
 20
3830.968565844187
 10
9948.492954688695
 20
3783.959755850677
 10
10075.8184384783
 20
3780.520291447478
 10
10160.70218738386
 20
3780.520291447478
 10
10427.38900414513
 20
3852.439263505991
1001
GradientColor1ACI
1070
     5
1001
GradientColor2ACI
1070
     2
1001
ACAD
1010
0.0
1020
0.0
1030
0.0
  0
CIRCLE
  5
14E75
330
747D
100
AcDbEntity
  8
U7
100
AcDbCircle
 10
9448.860935950676
 20
3806.408999495949
 30
-0.0000000000013153
 40
5.0
  0
CIRCLE
  5
14E76
330
747D
100
AcDbEntity
  8
U7
100
AcDbCircle
 10
10208.86093595068
 20
3806.408999495949
 30
-0.0000000000013153
 40
5.0
  0
LINE
  5
14E77
330
747D
100
AcDbEntity
  8
U7
100
AcDbLine
 10
9448.860935950676
 20
3801.408999495949
 30
-0.0000000000013153
 11
10208.86093595068
 21
3801.408999495949
 31
-0.0000000000013153
  0
LINE
  5
14E78
330
747D
100
AcDbEntity
  8
U7
100
AcDbLine
 10
9448.860935950676
 20
3811.408999495949
 30
-0.0000000000013153
 11
10208.86093595068
 21
3811.408999495949
 31
-0.0000000000013153
  0
HATCH
  5
14E79
330
747D
100
AcDbEntity
  8
細線
 48
50.0
100
AcDbHatch
 10
0.0
 20
0.0
 30
0.0
210
0.0
220
0.0
230
1.0
  2
PLAST
 70
     0
 71
     0
 91
       29
 92
        7
 72
     1
 73
     1
 93
       34
 10
9448.860935950676
 20
3611.408999495949
 42
0.0
 10
9453.860935950677
 20
3611.408999495949
 42
0.0
 10
9453.860935950677
 20
3701.408999495948
 42
0.0
 10
9448.860935950676
 20
3701.408999495948
 42
-0.4142135623730951
 10
9443.860935950677
 20
3706.408999495949
 42
-0.4142135623730951
 10
9448.860935950676
 20
3711.408999495949
 42
0.0
 10
9453.860935950677
 20
3711.408999495949
 42
0.0
 10
9453.860935950677
 20
3766.408999495978
 42
0.0
 10
9128.860935950678
 20
3766.408999495978
 42
0.0
 10
9128.860935950678
 20
3316.408999495949
 42
0.0
 10
9248.860935950677
 20
3316.408999495949
 42
0.0
 10
9313.141387512757
 20
3380.68945105803
 42
0.0
 10
9313.141387512757
 20
3391.408999495963
 42
0.0
 10
9323.860935950676
 20
3391.408999495963
 42
0.0
 10
9325.325402044716
 20
3392.873465590017
 42
-0.1989123673796434
 10
9323.860935950676
 20
3396.408999495949
 42
-1.0
 10
9333.860935950678
 20
3396.408999495949
 42
-0.4142135623730992
 10
9328.860935950677
 20
3391.408999495949
 42
0.0
 10
9384.589623040952
 20
3391.408999495949
 42
0.0
 10
9421.589623040953
 20
3428.408999495949
 42
0.0
 10
9278.410935950665
 20
3428.408999495949
 42
0.0
 10
9278.410935950665
 20
3441.408999495949
 42
0.0
 10
9423.860935950676
 20
3441.408999495949
 42
0.1260483184577218
 10
9438.284445213005
 20
3445.103821668015
 42
0.0
 10
9450.166113778626
 20
3456.985490233607
 42
0.1260483184577219
 10
9453.860935950677
 20
3471.408999495949
 42
0.0
 10
9453.860935950677
 20
3501.408999495949
 42
0.0
 10
9448.860935950676
 20
3501.408999495949
 42
-0.4142135623730951
 10
9443.860935950677
 20
3506.408999495949
 42
-0.4142135623730951
 10
9448.860935950676
 20
3511.408999495948
 42
0.0
 10
9453.860935950677
 20
3511.408999495948
 42
0.0
 10
9453.860935950677
 20
3601.408999495948
 42
0.0
 10
9448.860935950676
 20
3601.408999495948
 42
-0.4142135623730951
 10
9443.860935950677
 20
3606.408999495949
 42
-0.4142135623730951
 97
        0
 92
        7
 72
     0
 73
     1
 93
        4
 10
9547.860935950678
 20
3766.408999495978
 10
9466.860935950677
 20
3766.408999495978
 10
9466.860935950677
 20
3711.408999495949
 10
9547.860935950678
 20
3711.408999495949
 97
        0
 92
        7
 72
     0
 73
     1
 93
        4
 10
9547.860935950678
 20
3701.408999495948
 10
9466.860935950677
 20
3701.408999495948
 10
9466.860935950677
 20
3611.408999495949
 10
9547.860935950678
 20
3611.408999495949
 97
        0
 92
        7
 72
     1
 73
     1
 93
        7
 10
9547.860935950678
 20
3601.408999495948
 42
0.0
 10
9466.860935950677
 20
3601.408999495948
 42
0.0
 10
9466.860935950677
 20
3511.408999495948
 42
0.0
 10
9503.860935950678
 20
3511.408999495948
 42
0.0
 10
9503.860935950678
 20
3517.408999495949
 42
0.0
 10
9522.860935950678
 20
3517.408999495949
 42
0.4142135623730951
 10
9547.860935950678
 20
3542.408999495949
 42
0.0
 97
        0
 92
        7
 72
     1
 73
     1
 93
       12
 10
9653.860935950678
 20
3501.408999495949
 42
0.0
 10
9494.589623040953
 20
3501.408999495949
 42
0.0
 10
9466.860935950677
 20
3473.680312405674
 42
0.0
 10
9466.860935950677
 20
3471.408999495949
 42
-0.4142135623730951
 10
9423.860935950676
 20
3428.408999495949
 42
0.0
 10
9421.589623040953
 20
3428.408999495949
 42
0.0
 10
9384.589623040952
 20
3391.408999495963
 42
0.0
 10
9528.860935950678
 20
3391.408999495949
 42
-0.4142135623730918
 10
9523.860935950677
 20
3396.408999495949
 42
-1.0
 10
9533.860935950677
 20
3396.408999495949
 42
-0.4142135623730984
 10
9528.860935950678
 20
3391.408999495949
 42
0.0
 10
9653.860935950678
 20
3391.408999495949
 42
0.0
 97
        0
 92
       23
 72
     0
 73
     1
 93
        4
 10
9374.589623040952
 20
3381.408999495934
 10
9313.860935950676
 20
3381.408999495934
 10
9248.860935950677
 20
3316.408999495949
 10
9309.589623040952
 20
3316.408999495949
 97
        0
 92
        7
 72
     0
 73
     1
 93
        4
 10
9653.860935950678
 20
3381.408999495934
 10
9374.589623040952
 20
3381.408999495934
 10
9309.589623040952
 20
3316.408999495949
 10
9653.860935950678
 20
3316.408999495949
 97
        0
 92
        7
 72
     0
 73
     1
 93
        4
 10
9653.860935950678
 20
3766.408999495978
 10
9559.860935950679
 20
3766.408999495978
 10
9559.860935950679
 20
3711.408999495949
 10
9653.860935950678
 20
3711.408999495949
 97
        0
 92
        7
 72
     0
 73
     1
 93
        4
 10
9653.860935950678
 20
3701.408999495948
 10
9559.860935950679
 20
3701.408999495948
 10
9559.860935950679
 20
3611.408999495949
 10
9653.860935950678
 20
3611.408999495949
 97
        0
 92
        7
 72
     1
 73
     1
 93
        5
 10
9653.860935950678
 20
3601.408999495948
 42
0.0
 10
9559.860935950679
 20
3601.408999495948
 42
0.0
 10
9559.860935950679
 20
3542.408999495949
 42
-0.2535612698375805
 10
9543.059945827376
 20
3511.408999495948
 42
0.0
 10
9653.860935950678
 20
3511.408999495948
 42
0.0
 97
        0
 92
        7
 72
     0
 73
     1
 93
        4
 10
10003.86093595067
 20
3381.408999495949
 10
9653.860935950678
 20
3381.408999495934
 10
9653.860935950678
 20
3316.408999495949
 10
10003.86093595067
 20
3316.408999495949
 97
        0
 92
        7
 72
     1
 73
     1
 93
       12
 10
10003.86093595067
 20
3501.408999495949
 42
0.0
 10
9653.860935950678
 20
3501.408999495949
 42
0.0
 10
9653.860935950678
 20
3391.408999495963
 42
0.0
 10
9728.860935950677
 20
3391.408999495949
 42
-0.4142135623730918
 10
9723.860935950677
 20
3396.408999495949
 42
-1.0
 10
9733.860935950678
 20
3396.408999495949
 42
-0.4142135623730984
 10
9728.860935950677
 20
3391.408999495949
 42
0.0
 10
9928.860935950678
 20
3391.408999495949
 42
-0.4142135623730951
 10
9923.860935950678
 20
3396.408999495949
 42
-1.0
 10
9933.860935950677
 20
3396.408999495949
 42
-0.4142135623731017
 10
9928.860935950678
 20
3391.408999495949
 42
0.0
 10
10003.86093595067
 20
3391.408999495949
 42
0.0
 97
        0
 92
        7
 72
     1
 73
     1
 93
        5
 10
9747.860935950678
 20
3601.408999495948
 42
0.0
 10
9653.860935950678
 20
3601.408999495948
 42
0.0
 10
9653.860935950678
 20
3511.408999495948
 42
0.0
 10
9764.66192607398
 20
3511.408999495948
 42
-0.2535612698375802
 10
9747.860935950678
 20
3542.408999495949
 42
0.0
 97
        0
 92
        7
 72
     0
 73
     1
 93
        4
 10
9747.860935950678
 20
3701.408999495948
 10
9653.860935950678
 20
3701.408999495948
 10
9653.860935950678
 20
3611.408999495949
 10
9747.860935950678
 20
3611.408999495949
 97
        0
 92
        7
 72
     0
 73
     1
 93
        4
 10
9747.860935950678
 20
3766.408999495978
 10
9653.860935950678
 20
3766.408999495978
 10
9653.860935950678
 20
3711.408999495949
 10
9747.860935950678
 20
3711.408999495949
 97
        0
 92
        7
 72
     0
 73
     1
 93
        4
 10
9897.860935950678
 20
3766.408999495978
 10
9759.860935950678
 20
3766.408999495978
 10
9759.860935950678
 20
3711.408999495949
 10
9897.860935950678
 20
3711.408999495949
 97
        0
 92
        7
 72
     0
 73
     1
 93
        4
 10
9897.860935950678
 20
3701.408999495948
 10
9759.860935950678
 20
3701.408999495948
 10
9759.860935950678
 20
3611.408999495949
 10
9897.860935950678
 20
3611.408999495949
 97
        0
 92
        7
 72
     1
 73
     1
 93
       10
 10
9897.860935950678
 20
3601.408999495948
 42
0.0
 10
9759.860935950678
 20
3601.408999495948
 42
0.0
 10
9759.860935950678
 20
3542.408999495949
 42
0.4142135623730951
 10
9784.860935950678
 20
3517.408999495949
 42
0.0
 10
9803.860935950678
 20
3517.408999495949
 42
0.0
 10
9803.860935950678
 20
3511.408999495948
 42
0.0
 10
9853.860935950677
 20
3511.408999495948
 42
0.0
 10
9853.860935950677
 20
3517.408999495949
 42
0.0
 10
9872.860935950678
 20
3517.408999495949
 42
0.4142135623730951
 10
9897.860935950678
 20
3542.408999495949
 42
0.0
 97
        0
 92
        7
 72
     0
 73
     1
 93
        4
 10
10003.86093595067
 20
3766.408999495978
 10
9909.860935950678
 20
3766.408999495978
 10
9909.860935950678
 20
3711.408999495949
 10
10003.86093595067
 20
3711.408999495949
 97
        0
 92
        7
 72
     0
 73
     1
 93
        4
 10
10097.86093595067
 20
3766.408999495978
 10
10003.86093595067
 20
3766.408999495978
 10
10003.86093595067
 20
3711.408999495949
 10
10097.86093595067
 20
3711.408999495949
 97
        0
 92
        7
 72
     0
 73
     1
 93
        4
 10
10097.86093595067
 20
3701.408999495948
 10
10003.86093595067
 20
3701.408999495948
 10
10003.86093595067
 20
3611.408999495949
 10
10097.86093595067
 20
3611.408999495949
 97
        0
 92
        7
 72
     0
 73
     1
 93
        4
 10
10003.86093595067
 20
3701.408999495948
 10
9909.860935950678
 20
3701.408999495948
 10
9909.860935950678
 20
3611.408999495949
 10
10003.86093595067
 20
3611.408999495949
 97
        0
 92
        7
 72
     1
 73
     1
 93
        5
 10
10003.86093595067
 20
3601.408999495948
 42
0.0
 10
9909.860935950678
 20
3601.408999495948
 42
0.0
 10
9909.860935950678
 20
3542.408999495949
 42
-0.2535612698375804
 10
9893.059945827376
 20
3511.408999495948
 42
0.0
 10
10003.86093595067
 20
3511.408999495948
 42
0.0
 97
        0
 92
       23
 72
     1
 73
     1
 93
        5
 10
10097.86093595067
 20
3601.408999495948
 42
0.0
 10
10003.86093595067
 20
3601.408999495948
 42
0.0
 10
10003.86093595067
 20
3511.408999495948
 42
0.0
 10
10114.66192607398
 20
3511.408999495948
 42
-0.2535612698375802
 10
10097.86093595067
 20
3542.408999495949
 42
0.0
 97
        0
 92
        7
 72
     1
 73
     1
 93
       34
 10
10190.86093595079
 20
3471.408999495949
 42
0.0
 10
10190.86093595079
 20
3501.408999495949
 42
0.0
 10
10003.86093595067
 20
3501.408999495949
 42
0.0
 10
10003.86093595067
 20
3391.408999495949
 42
0.0
 10
10128.86093595068
 20
3391.408999495949
 42
-0.4142135623730885
 10
10123.86093595067
 20
3396.408999495949
 42
-1.0
 10
10133.86093595068
 20
3396.408999495949
 42
-0.4142135623731017
 10
10128.86093595068
 20
3391.408999495949
 42
0.0
 10
10328.86093595067
 20
3391.408999495949
 42
-0.4142135623730951
 10
10323.86093595067
 20
3396.408999495949
 42
-1.0
 10
10333.86093595068
 20
3396.408999495949
 42
-0.4142135623731017
 10
10328.86093595067
 20
3391.408999495949
 42
0.0
 10
10344.58048438859
 20
3391.408999495949
 42
0.0
 10
10344.58048438859
 20
3381.408999495949
 42
0.0
 10
10003.86093595067
 20
3381.408999495949
 42
0.0
 10
10003.86093595067
 20
3316.408999495949
 42
0.0
 10
10528.86093595067
 20
3316.408999495949
 42
0.0
 10
10528.86093595067
 20
3468.770162009312
 42
0.0
 10
10203.86093595067
 20
3656.408999495949
 42
0.0
 10
10203.86093595067
 20
3611.408999495949
 42
0.0
 10
10208.86093595068
 20
3611.408999495949
 42
-0.4142135623730951
 10
10213.86093595068
 20
3606.408999495949
 42
-0.4142135623730951
 10
10208.86093595068
 20
3601.408999495948
 42
0.0
 10
10203.86093595067
 20
3601.408999495948
 42
0.0
 10
10203.86093595067
 20
3511.408999495948
 42
0.0
 10
10208.86093595068
 20
3511.408999495948
 42
-0.4142135623730951
 10
10213.86093595068
 20
3506.408999495949
 42
-0.4142135623730951
 10
10208.86093595068
 20
3501.408999495949
 42
0.0
 10
10203.86093595067
 20
3501.408999495949
 42
0.0
 10
10203.86093595079
 20
3471.408999495949
 42
0.4142135623730951
 10
10233.86093595079
 20
3441.408999495949
 42
0.0
 10
10379.3109359508
 20
3441.408999495949
 42
0.0
 10
10379.3109359508
 20
3428.408999495949
 42
0.0
 10
10233.86093595079
 20
3428.408999495949
 42
-0.4142135623730945
 97
        0
 92
       23
 72
     1
 73
     1
 93
        7
 10
10190.86093595068
 20
3601.408999495948
 42
0.0
 10
10109.86093595068
 20
3601.408999495948
 42
0.0
 10
10109.86093595068
 20
3542.408999495949
 42
0.4142135623730946
 10
10134.86093595068
 20
3517.408999495949
 42
0.0
 10
10153.86093595068
 20
3517.408999495949
 42
0.0
 10
10153.86093595068
 20
3511.408999495948
 42
0.0
 10
10190.86093595068
 20
3511.408999495948
 42
0.0
 97
        0
 92
        7
 72
     0
 73
     1
 93
        4
 10
10190.86093595068
 20
3701.408999495948
 10
10109.86093595068
 20
3701.408999495948
 10
10109.86093595068
 20
3611.408999495949
 10
10190.86093595068
 20
3611.408999495949
 97
        0
 92
        7
 72
     0
 73
     1
 93
        4
 10
10190.86093595068
 20
3766.408999495978
 10
10109.86093595068
 20
3766.408999495978
 10
10109.86093595068
 20
3711.408999495949
 10
10190.86093595068
 20
3711.408999495949
 97
        0
 92
        7
 72
     1
 73
     1
 93
        9
 10
10528.86093595067
 20
3766.408999495978
 42
0.0
 10
10203.86093595067
 20
3766.408999495978
 42
0.0
 10
10203.86093595067
 20
3711.408999495949
 42
0.0
 10
10208.86093595068
 20
3711.408999495949
 42
-0.4142135623730951
 10
10213.86093595068
 20
3706.408999495949
 42
-0.4142135623730951
 10
10208.86093595068
 20
3701.408999495948
 42
0.0
 10
10203.86093595067
 20
3701.408999495948
 42
0.0
 10
10203.86093595067
 20
3656.408999495949
 42
0.0
 10
10528.86093595067
 20
3468.770162009312
 42
0.0
 97
        0
 75
     0
 76
     1
 52
135.0
 41
37.5
 77
     0
 78
     3
 53
135.0
 43
-266833.8544111767
 44
111677.239081666
 45
-168.3798022700466
 46
-168.3798022700466
 79
     0
 53
135.0
 43
-266854.9018864605
 44
111656.1916063822
 45
-168.3798022700466
 46
-168.3798022700466
 79
     0
 53
135.0
 43
-266875.9493617442
 44
111635.1441310984
 45
-168.3798022700466
 46
-168.3798022700466
 79
     0
 47
2.834284063646393
 98
       29
 10
9312.290662098643
 20
3607.571378354549
 10
9507.945368341079
 20
3735.114285708476
 10
9505.109610842101
 20
3655.754291752483
 10
9513.616325064063
 20
3545.2172172384
 10
9533.465511006911
 20
3440.348683758855
 10
9300.948469515217
 20
3349.651607733786
 10
9403.029040178658
 20
3349.651607733786
 10
9615.696895727506
 20
3740.782826743014
 10
9610.025939004522
 20
3658.588667137852
 10
9610.025939004522
 20
3542.382841853001
 10
9780.16022344361
 20
3352.485983119156
 10
9757.475559139244
 20
3454.520141213301
 10
9706.435273807521
 20
3576.39429779646
 10
9712.106509668021
 20
3681.262831276005
 10
9706.435273807521
 20
3740.782826743014
 10
9842.542701358816
 20
3737.948451357615
 10
9831.20050877539
 20
3650.085750717945
 10
9831.20050877539
 20
3556.554299307476
 10
9936.116557800296
 20
3740.782826743014
 10
10046.70412182321
 20
3743.617202128384
 10
10066.5530286286
 20
3664.25720817239
 10
9967.307936326626
 20
3652.920126103314
 10
9961.636700466184
 20
3559.388674692846
 10
10049.53960018468
 20
3553.720133658308
 10
10075.05974285057
 20
3451.685765827932
 10
10148.78469248666
 20
3553.720133658308
 10
10140.27797826469
 20
3650.085750717945
 10
10148.78469248666
 20
3723.7772036394
 10
10324.59021278624
 20
3723.7772036394
1001
GradientColor1ACI
1070
     5
1001
GradientColor2ACI
1070
     2
1001
ACAD
1010
0.0
1020
0.0
1030
0.0
  0
CIRCLE
  5
14E7A
330
747D
100
AcDbEntity
  8
U7
100
AcDbCircle
 10
9448.860935950676
 20
3706.408999495949
 30
-0.0000000000013153
 40
5.0
  0
CIRCLE
  5
14E7B
330
747D
100
AcDbEntity
  8
U7
100
AcDbCircle
 10
10208.86093595068
 20
3706.408999495949
 30
-0.0000000000013153
 40
5.0
  0
LINE
  5
14E7C
330
747D
100
AcDbEntity
  8
U7
100
AcDbLine
 10
9448.860935950676
 20
3701.408999495948
 30
-0.0000000000013153
 11
10208.86093595068
 21
3701.408999495948
 31
-0.0000000000013153
  0
CIRCLE
  5
14E7D
330
747D
100
AcDbEntity
  8
U7
100
AcDbCircle
 10
9448.860935950676
 20
3606.408999495949
 30
-0.0000000000013153
 40
5.0
  0
LINE
  5
14E7E
330
747D
100
AcDbEntity
  8
U7
100
AcDbLine
 10
9448.860935950676
 20
3711.408999495949
 30
-0.0000000000013153
 11
10208.86093595068
 21
3711.408999495949
 31
-0.0000000000013153
  0
CIRCLE
  5
14E7F
330
747D
100
AcDbEntity
  8
U7
100
AcDbCircle
 10
10208.86093595068
 20
3606.408999495949
 30
-0.0000000000013153
 40
5.0
  0
LINE
  5
14E80
330
747D
100
AcDbEntity
  8
U7
100
AcDbLine
 10
9448.860935950676
 20
3601.408999495948
 30
-0.0000000000013153
 11
10208.86093595068
 21
3601.408999495948
 31
-0.0000000000013153
  0
LINE
  5
14E81
330
747D
100
AcDbEntity
  8
U7
100
AcDbLine
 10
9448.860935950676
 20
3611.408999495949
 30
-0.0000000000013153
 11
10208.86093595068
 21
3611.408999495949
 31
-0.0000000000013153
  0
CIRCLE
  5
14E82
330
747D
100
AcDbEntity
  8
U7
100
AcDbCircle
 10
10208.86093595068
 20
3506.408999495949
 30
-0.0000000000013153
 40
5.0
  0
CIRCLE
  5
14E83
330
747D
100
AcDbEntity
  8
U7
100
AcDbCircle
 10
9448.860935950676
 20
3506.408999495949
 30
-0.0000000000013153
 40
5.0
  0
LINE
  5
14E84
330
747D
100
AcDbEntity
  8
U7
100
AcDbLine
 10
9448.860935950676
 20
3511.408999495948
 30
-0.0000000000013153
 11
10208.86093595068
 21
3511.408999495948
 31
-0.0000000000013153
  0
LINE
  5
14E85
330
747D
100
AcDbEntity
  8
U7
100
AcDbLine
 10
9448.860935950676
 20
3501.408999495949
 30
-0.0000000000013153
 11
10208.86093595068
 21
3501.408999495949
 31
-0.0000000000013153
  0
LINE
  5
14E86
330
747D
100
AcDbEntity
  8
KIN-T
100
AcDbLine
 10
10379.3109359508
 20
3428.408999495949
 30
-0.0000000000013153
 11
10233.86093595079
 21
3428.408999495949
 31
-0.0000000000013153
  0
LINE
  5
14E87
330
747D
100
AcDbEntity
  8
KIN-T
100
AcDbLine
 10
10379.3109359508
 20
3441.408999495949
 30
-0.0000000000013153
 11
10379.3109359508
 21
3428.408999495949
 31
-0.0000000000013153
  0
LINE
  5
14E88
330
747D
100
AcDbEntity
  8
KIN-T
100
AcDbLine
 10
10190.86093595068
 20
3811.408999495949
 30
-0.0000000000013153
 11
10203.86093595067
 21
3811.408999495949
 31
-0.0000000000013153
  0
ARC
  5
14E89
330
747D
100
AcDbEntity
  8
KIN-T
100
AcDbCircle
 10
10233.86093595079
 20
3471.408999495949
 30
-0.0000000000013153
 40
43.0
100
AcDbArc
 50
180.0
 51
270.0
  0
ARC
  5
14E8A
330
747D
100
AcDbEntity
  8
KIN-T
100
AcDbCircle
 10
10233.86093595079
 20
3471.408999495949
 30
-0.0000000000013153
 40
30.0
100
AcDbArc
 50
180.0
 51
270.0
  0
LINE
  5
14E8B
330
747D
100
AcDbEntity
  8
KIN-T
100
AcDbLine
 10
10190.86093595068
 20
3811.408999495949
 30
-0.0000000000013153
 11
10190.86093595068
 21
3471.408999495949
 31
-0.0000000000013153
  0
LINE
  5
14E8C
330
747D
100
AcDbEntity
  8
KIN-T
100
AcDbLine
 10
10203.86093595067
 20
3811.408999495949
 30
-0.0000000000013153
 11
10203.86093595067
 21
3471.408999495949
 31
-0.0000000000013153
  0
ARC
  5
14E8D
330
747D
100
AcDbEntity
  8
KIN-T
100
AcDbCircle
 10
9423.860935950676
 20
3471.408999495949
 30
-0.0000000000013153
 40
43.0
100
AcDbArc
 50
270.0
 51
0.0
  0
LINE
  5
14E8E
330
747D
100
AcDbEntity
  8
KIN-T
100
AcDbLine
 10
10379.3109359508
 20
3441.408999495949
 30
-0.0000000000013153
 11
10233.86093595079
 21
3441.408999495949
 31
-0.0000000000013153
  0
LINE
  5
14E8F
330
747D
100
AcDbEntity
  8
KIN-T
100
AcDbLine
 10
9278.410935950665
 20
3441.408999495949
 30
-0.0000000000013153
 11
9278.410935950665
 21
3428.408999495949
 31
-0.0000000000013153
  0
LINE
  5
14E90
330
747D
100
AcDbEntity
  8
KIN-T
100
AcDbLine
 10
9278.410935950665
 20
3428.408999495949
 30
-0.0000000000013153
 11
9423.860935950676
 21
3428.408999495949
 31
-0.0000000000013153
  0
LINE
  5
14E91
330
747D
100
AcDbEntity
  8
KIN-T
100
AcDbLine
 10
9453.860935950677
 20
3811.408999495949
 30
-0.0000000000013153
 11
9466.860935950677
 21
3811.408999495949
 31
-0.0000000000013153
  0
ARC
  5
14E92
330
747D
100
AcDbEntity
  8
KIN-T
100
AcDbCircle
 10
9423.860935950676
 20
3471.408999495949
 30
-0.0000000000013153
 40
30.0
100
AcDbArc
 50
270.0
 51
0.0
  0
LINE
  5
14E93
330
747D
100
AcDbEntity
  8
KIN-T
100
AcDbLine
 10
9466.860935950677
 20
3811.408999495949
 30
-0.0000000000013153
 11
9466.860935950677
 21
3471.408999495949
 31
-0.0000000000013153
  0
LINE
  5
14E94
330
747D
100
AcDbEntity
  8
部品1
 48
50.0
100
AcDbLine
 10
9313.141387512757
 20
3391.408999495963
 30
-0.0000000000013153
 11
10344.58048438859
 21
3391.408999495949
 31
-0.0000000000013153
  0
LINE
  5
14E95
330
747D
100
AcDbEntity
  8
KIN-T
100
AcDbLine
 10
9453.860935950677
 20
3811.408999495949
 30
-0.0000000000013153
 11
9453.860935950677
 21
3471.408999495949
 31
-0.0000000000013153
  0
LINE
  5
14E96
330
747D
100
AcDbEntity
  8
KIN-T
100
AcDbLine
 10
9278.410935950665
 20
3441.408999495949
 30
-0.0000000000013153
 11
9423.860935950676
 21
3441.408999495949
 31
-0.0000000000013153
  0
CIRCLE
  5
14E97
330
747D
100
AcDbEntity
  8
部品1
 48
50.0
100
AcDbCircle
 10
10328.86093595067
 20
3396.408999495949
 30
-0.0000000000013153
 40
5.0
  0
LINE
  5
14E98
330
747D
100
AcDbEntity
  8
部品1
 48
50.0
100
AcDbLine
 10
10344.58048438859
 20
3391.408999495949
 30
-0.0000000000013153
 11
10344.58048438859
 21
3381.408999495949
 31
-0.0000000000013153
  0
CIRCLE
  5
14E99
330
747D
100
AcDbEntity
  8
部品1
 48
50.0
100
AcDbCircle
 10
9528.860935950678
 20
3396.408999495949
 30
-0.0000000000013153
 40
5.0
  0
CIRCLE
  5
14E9A
330
747D
100
AcDbEntity
  8
部品1
 48
50.0
100
AcDbCircle
 10
9728.860935950677
 20
3396.408999495949
 30
-0.0000000000013153
 40
5.0
  0
CIRCLE
  5
14E9B
330
747D
100
AcDbEntity
  8
部品1
 48
50.0
100
AcDbCircle
 10
9928.860935950678
 20
3396.408999495949
 30
-0.0000000000013153
 40
5.0
  0
CIRCLE
  5
14E9C
330
747D
100
AcDbEntity
  8
部品1
 48
50.0
100
AcDbCircle
 10
10128.86093595068
 20
3396.408999495949
 30
-0.0000000000013153
 40
5.0
  0
LINE
  5
14E9D
330
747D
100
AcDbEntity
  8
部品1
 48
50.0
100
AcDbLine
 10
9313.141387512757
 20
3381.408999495934
 30
-0.0000000000013153
 11
10344.58048438859
 21
3381.408999495949
 31
-0.0000000000013153
  0
HATCH
  5
14E9E
330
747D
100
AcDbEntity
  8
細線
 48
50.0
100
AcDbHatch
 10
0.0
 20
0.0
 30
0.0
210
0.0
220
0.0
230
1.0
  2
PLAST
 70
     0
 71
     0
 91
        4
 92
        7
 72
     0
 73
     1
 93
        4
 10
9653.860935950678
 20
3316.408999495949
 10
9048.860935950676
 20
3316.408999495949
 10
9048.860935950676
 20
3266.408999495949
 10
9653.860935950678
 20
3266.408999495949
 97
        0
 92
        7
 72
     0
 73
     1
 93
        4
 10
9828.860935950679
 20
3316.408999495949
 10
9653.860935950678
 20
3316.408999495949
 10
9653.860935950678
 20
3266.408999495949
 10
9828.860935950679
 20
3266.408999495949
 97
        0
 92
        7
 72
     0
 73
     1
 93
        4
 10
10003.86093595067
 20
3316.408999495949
 10
9828.860935950679
 20
3316.408999495949
 10
9828.860935950679
 20
3266.408999495949
 10
10003.86093595067
 20
3266.408999495949
 97
        0
 92
        7
 72
     0
 73
     1
 93
        4
 10
10608.86093595067
 20
3316.408999495949
 10
10003.86093595067
 20
3316.408999495949
 10
10003.86093595067
 20
3266.408999495949
 10
10608.86093595067
 20
3266.408999495949
 97
        0
 75
     0
 76
     1
 52
45.0
 41
37.5
 77
     0
 78
     3
 53
45.0
 43
-262423.7306341103
 44
111677.239081666
 45
-168.3798022700466
 46
168.3798022700466
 79
     0
 53
45.0
 43
-262444.7781093941
 44
111698.2865569497
 45
-168.3798022700466
 46
168.3798022700466
 79
     0
 53
45.0
 43
-262465.8255846779
 44
111719.3340322335
 45
-168.3798022700466
 46
168.3798022700466
 79
     0
 47
3.405378208606371
 98
        4
 10
9556.479553192529
 20
3281.72118952342
 10
9709.791339213229
 20
3291.93723145376
 10
9917.613926658258
 20
3281.72118952342
 10
10108.40159207468
 20
3285.126466921456
1001
GradientColor1ACI
1070
     5
1001
GradientColor2ACI
1070
     2
1001
ACAD
1010
0.0
1020
0.0
1030
0.0
  0
LINE
  5
14E9F
330
747D
100
AcDbEntity
  8
細線
 48
50.0
100
AcDbLine
 10
9138.288866495564
 20
3166.408999495949
 30
0.0
 11
9165.083785738646
 21
3266.40899949592
 31
0.0
1001
GradientColor1ACI
1070
     5
1001
GradientColor2ACI
1070
     2
1001
ACAD
1010
0.0
1020
0.0
1030
0.0
  0
LINE
  5
14EA0
330
747D
100
AcDbEntity
  8
細線
 48
50.0
100
AcDbLine
 10
9261.55143672568
 20
3166.408999495949
 30
0.0
 11
9288.346355968762
 21
3266.408999495949
 31
0.0
1001
GradientColor1ACI
1070
     5
1001
GradientColor2ACI
1070
     2
1001
ACAD
1010
0.0
1020
0.0
1030
0.0
  0
LINE
  5
14EA1
330
747D
100
AcDbEntity
  8
細線
 48
50.0
100
AcDbLine
 10
9384.814006955679
 20
3166.408999495949
 30
0.0
 11
9411.608926198821
 21
3266.408999495949
 31
0.0
1001
GradientColor1ACI
1070
     5
1001
GradientColor2ACI
1070
     2
1001
ACAD
1010
0.0
1020
0.0
1030
0.0
  0
LINE
  5
14EA2
330
747D
100
AcDbEntity
  8
細線
 48
50.0
100
AcDbLine
 10
9508.076577185795
 20
3166.408999495949
 30
0.0
 11
9534.871496428877
 21
3266.408999495949
 31
0.0
1001
GradientColor1ACI
1070
     5
1001
GradientColor2ACI
1070
     2
1001
ACAD
1010
0.0
1020
0.0
1030
0.0
  0
LINE
  5
14EA3
330
747D
100
AcDbEntity
  8
細線
 48
50.0
100
AcDbLine
 10
9631.339147415911
 20
3166.408999495949
 30
0.0
 11
9658.134066658995
 21
3266.408999495949
 31
0.0
1001
GradientColor1ACI
1070
     5
1001
GradientColor2ACI
1070
     2
1001
ACAD
1010
0.0
1020
0.0
1030
0.0
  0
LINE
  5
14EA4
330
747D
100
AcDbEntity
  8
細線
 48
50.0
100
AcDbLine
 10
9754.601717645911
 20
3166.408999495949
 30
0.0
 11
9781.39663688905
 21
3266.408999495949
 31
0.0
1001
GradientColor1ACI
1070
     5
1001
GradientColor2ACI
1070
     2
1001
ACAD
1010
0.0
1020
0.0
1030
0.0
  0
LINE
  5
14EA5
330
747D
100
AcDbEntity
  8
細線
 48
50.0
100
AcDbLine
 10
9877.864287876025
 20
3166.408999495949
 30
0.0
 11
9904.659207119109
 21
3266.408999495949
 31
0.0
1001
GradientColor1ACI
1070
     5
1001
GradientColor2ACI
1070
     2
1001
ACAD
1010
0.0
1020
0.0
1030
0.0
  0
LINE
  5
14EA6
330
747D
100
AcDbEntity
  8
細線
 48
50.0
100
AcDbLine
 10
10001.12685810614
 20
3166.408999495949
 30
0.0
 11
10027.92177734922
 21
3266.408999495949
 31
0.0
1001
GradientColor1ACI
1070
     5
1001
GradientColor2ACI
1070
     2
1001
ACAD
1010
0.0
1020
0.0
1030
0.0
  0
LINE
  5
14EA7
330
747D
100
AcDbEntity
  8
細線
 48
50.0
100
AcDbLine
 10
10124.38942833614
 20
3166.408999495963
 30
0.0
 11
10151.18434757928
 21
3266.408999495949
 31
0.0
1001
GradientColor1ACI
1070
     5
1001
GradientColor2ACI
1070
     2
1001
ACAD
1010
0.0
1020
0.0
1030
0.0
  0
LINE
  5
14EA8
330
747D
100
AcDbEntity
  8
細線
 48
50.0
100
AcDbLine
 10
10247.65199856625
 20
3166.408999495949
 30
0.0
 11
10274.44691780934
 21
3266.408999495963
 31
0.0
1001
GradientColor1ACI
1070
     5
1001
GradientColor2ACI
1070
     2
1001
ACAD
1010
0.0
1020
0.0
1030
0.0
  0
LINE
  5
14EA9
330
747D
100
AcDbEntity
  8
細線
 48
50.0
100
AcDbLine
 10
10370.91456879631
 20
3166.408999495963
 30
0.0
 11
10397.70948803945
 21
3266.408999495949
 31
0.0
1001
GradientColor1ACI
1070
     5
1001
GradientColor2ACI
1070
     2
1001
ACAD
1010
0.0
1020
0.0
1030
0.0
  0
LINE
  5
14EAA
330
747D
100
AcDbEntity
  8
細線
 48
50.0
100
AcDbLine
 10
10494.17713902637
 20
3166.408999495949
 30
0.0
 11
10520.97205826951
 21
3266.408999495949
 31
0.0
1001
GradientColor1ACI
1070
     5
1001
GradientColor2ACI
1070
     2
1001
ACAD
1010
0.0
1020
0.0
1030
0.0
  0
LINE
  5
14EAB
330
747D
100
AcDbEntity
  8
部品1
 48
50.0
100
AcDbLine
 10
10608.86093595067
 20
3266.408999495949
 30
-0.0000000000013153
 11
9048.860935950676
 21
3266.408999495949
 31
-0.0000000000013153
  0
LINE
  5
14EAC
330
747D
100
AcDbEntity
  8
文字
 48
50.0
100
AcDbLine
 10
10246.45056212486
 20
2253.221127324168
 30
-0.0000000000013153
 11
10246.45056212486
 21
2030.096127324168
 31
-0.0000000000013153
  0
LINE
  5
14EAD
330
747D
100
AcDbEntity
  8
文字
 48
50.0
100
AcDbLine
 10
9411.271309776489
 20
2253.221127324168
 30
-0.0000000000013153
 11
9411.271309776489
 21
2030.096127324168
 31
-0.0000000000013153
  0
TEXT
  5
14EAE
330
747D
100
AcDbEntity
  8
文字
 62
     7
 48
50.0
100
AcDbText
 10
9477.856117189189
 20
2087.579668297532
 30
-0.0000000000013153
 40
112.5
  1
A-A' 断面
  7
STYLE2
100
AcDbText
  0
LINE
  5
14EAF
330
747D
100
AcDbEntity
  8
文字
 48
50.0
100
AcDbLine
 10
9411.271309776489
 20
2030.096127324168
 30
-0.0000000000013153
 11
10246.45056212486
 21
2030.096127324168
 31
-0.0000000000013153
  0
LINE
  5
14EB0
330
747D
100
AcDbEntity
  8
文字
 48
50.0
100
AcDbLine
 10
9411.271309776489
 20
2253.221127324168
 30
-0.0000000000013153
 11
10246.45056212486
 21
2253.221127324168
 31
-0.0000000000013153
  0
LINE
  5
14EB1
330
747D
100
AcDbEntity
  8
部品1
 48
50.0
100
AcDbLine
 10
9698.410935950667
 20
3316.408999495949
 30
-0.0000000000013153
 11
9609.31093595069
 21
3316.408999495949
 31
-0.0000000000013153
  0
LINE
  5
14EB2
330
747D
100
AcDbEntity
  8
細線
 48
50.0
100
AcDbLine
 10
8682.745530803888
 20
3766.408999495978
 30
0.0
 11
8709.54045004697
 21
3866.408999495963
 31
0.0
1001
GradientColor1ACI
1070
     5
1001
GradientColor2ACI
1070
     2
1001
ACAD
1010
0.0
1020
0.0
1030
0.0
  0
LINE
  5
14EB3
330
747D
100
AcDbEntity
  8
細線
 48
50.0
100
AcDbLine
 10
8806.008101033945
 20
3766.408999495992
 30
0.0
 11
8832.803020277028
 21
3866.408999495949
 31
0.0
1001
GradientColor1ACI
1070
     5
1001
GradientColor2ACI
1070
     2
1001
ACAD
1010
0.0
1020
0.0
1030
0.0
  0
LINE
  5
14EB4
330
747D
100
AcDbEntity
  8
細線
 48
50.0
100
AcDbLine
 10
8929.270671264003
 20
3766.408999495978
 30
0.0
 11
8956.065590507144
 21
3866.408999495949
 31
0.0
1001
GradientColor1ACI
1070
     5
1001
GradientColor2ACI
1070
     2
1001
ACAD
1010
0.0
1020
0.0
1030
0.0
  0
LINE
  5
14EB5
330
747D
100
AcDbEntity
  8
細線
 48
50.0
100
AcDbLine
 10
9052.533241494119
 20
3766.408999495963
 30
0.0
 11
9079.328160737201
 21
3866.408999495949
 31
0.0
1001
GradientColor1ACI
1070
     5
1001
GradientColor2ACI
1070
     2
1001
ACAD
1010
0.0
1020
0.0
1030
0.0
  0
LINE
  5
14EB6
330
747D
100
AcDbEntity
  8
細線
 48
50.0
100
AcDbLine
 10
10531.68408425498
 20
3766.40899949592
 30
0.0
 11
10558.47900349812
 21
3866.408999495949
 31
0.0
1001
GradientColor1ACI
1070
     5
1001
GradientColor2ACI
1070
     2
1001
ACAD
1010
0.0
1020
0.0
1030
0.0
  0
LINE
  5
14EB7
330
747D
100
AcDbEntity
  8
細線
 48
50.0
100
AcDbLine
 10
10654.94665448504
 20
3766.408999495963
 30
0.0
 11
10681.74157372818
 21
3866.408999495949
 31
0.0
1001
GradientColor1ACI
1070
     5
1001
GradientColor2ACI
1070
     2
1001
ACAD
1010
0.0
1020
0.0
1030
0.0
  0
LINE
  5
14EB8
330
747D
100
AcDbEntity
  8
細線
 48
50.0
100
AcDbLine
 10
10778.20922471515
 20
3766.408999495978
 30
0.0
 11
10805.00414395824
 21
3866.408999495949
 31
0.0
1001
GradientColor1ACI
1070
     5
1001
GradientColor2ACI
1070
     2
1001
ACAD
1010
0.0
1020
0.0
1030
0.0
  0
LINE
  5
14EB9
330
747D
100
AcDbEntity
  8
細線
 48
50.0
100
AcDbLine
 10
10901.47179494521
 20
3766.408999495963
 30
0.0
 11
10928.26671418835
 21
3866.408999495949
 31
0.0
1001
GradientColor1ACI
1070
     5
1001
GradientColor2ACI
1070
     2
1001
ACAD
1010
0.0
1020
0.0
1030
0.0
  0
LINE
  5
14EBA
330
747D
100
AcDbEntity
  8
細線
 48
50.0
100
AcDbLine
 10
11024.73436517527
 20
3766.408999495978
 30
0.0
 11
11028.86093595067
 21
3781.809571290882
 31
0.0
1001
GradientColor1ACI
1070
     5
1001
GradientColor2ACI
1070
     2
1001
ACAD
1010
0.0
1020
0.0
1030
0.0
  0
LINE
  5
14EBB
330
747D
100
AcDbEntity
  8
部品1
 48
50.0
100
AcDbLine
 10
10528.86093595067
 20
3316.408999495949
 30
-0.0000000000013153
 11
10528.86093595067
 21
3866.408999495949
 31
-0.0000000000013153
  0
LINE
  5
14EBC
330
747D
100
AcDbEntity
  8
部品1
 48
50.0
100
AcDbLine
 10
9128.860935950678
 20
3866.408999495949
 30
-0.0000000000013153
 11
9128.860935950678
 21
3316.408999495949
 31
-0.0000000000013153
  0
LINE
  5
14EBD
330
747D
100
AcDbEntity
  8
部品1
 48
50.0
100
AcDbLine
 10
10608.86093595067
 20
3316.408999495949
 30
-0.0000000000013153
 11
9048.860935950676
 21
3316.408999495949
 31
-0.0000000000013153
  0
LINE
  5
14EBE
330
747D
100
AcDbEntity
  8
部品1
 48
50.0
100
AcDbLine
 10
9931.310935950691
 20
3966.408999495934
 30
-0.0000000000013153
 11
9726.410935950667
 21
3966.408999495949
 31
-0.0000000000013153
  0
LINE
  5
14EBF
330
747D
100
AcDbEntity
  8
部品1
 48
50.0
100
AcDbLine
 10
11028.86093595067
 20
3766.408999495978
 30
-0.0000000000013153
 11
8628.860935950678
 21
3766.408999495978
 31
-0.0000000000013153
  0
LINE
  5
14EC0
330
747D
100
AcDbEntity
  8
部品1
 48
50.0
100
AcDbLine
 10
10608.86093595067
 20
3166.408999495949
 30
-0.0000000000013153
 11
9048.860935950676
 21
3166.408999495949
 31
-0.0000000000013153
  0
LINE
  5
14EC1
330
747D
100
AcDbEntity
  8
部品1
 48
50.0
100
AcDbLine
 10
9595.31093595069
 20
3980.408999495949
 30
-0.0000000000013153
 11
9581.310935950689
 21
3966.408999495949
 31
-0.0000000000013153
  0
LINE
  5
14EC2
330
747D
100
AcDbEntity
  8
部品1
 48
50.0
100
AcDbLine
 10
9595.31093595069
 20
3980.408999495949
 30
-0.0000000000013153
 11
9609.31093595069
 21
3980.408999495949
 31
-0.0000000000013153
  0
LINE
  5
14EC3
330
747D
100
AcDbEntity
  8
部品1
 48
50.0
100
AcDbLine
 10
9698.410935950667
 20
3980.408999495949
 30
-0.0000000000013153
 11
9712.410935950666
 21
3980.408999495949
 31
-0.0000000000013153
  0
LINE
  5
14EC4
330
747D
100
AcDbEntity
  8
部品1
 48
50.0
100
AcDbLine
 10
9712.410935950725
 20
3980.408999495949
 30
-0.0000000000013153
 11
9726.410935950667
 21
3966.408999495949
 31
-0.0000000000013153
  0
LINE
  5
14EC5
330
747D
100
AcDbEntity
  8
部品1
 48
50.0
100
AcDbLine
 10
9581.310935950689
 20
3966.408999495949
 30
-0.0000000000013153
 11
8628.860935950619
 21
3966.408999495949
 31
-0.0000000000013153
  0
LINE
  5
14EC6
330
747D
100
AcDbEntity
  8
部品1
 48
50.0
100
AcDbLine
 10
9128.860935950678
 20
3866.408999495949
 30
-0.0000000000013153
 11
8628.860935950678
 21
3866.408999495949
 31
-0.0000000000013153
  0
LINE
  5
14EC7
330
747D
100
AcDbEntity
  8
部品1
 48
50.0
100
AcDbLine
 10
10608.86093595067
 20
3316.408999495949
 30
-0.0000000000013153
 11
10608.86093595067
 21
3166.408999495949
 31
-0.0000000000013153
  0
LINE
  5
14EC8
330
747D
100
AcDbEntity
  8
部品1
 48
50.0
100
AcDbLine
 10
9048.860935950676
 20
3316.408999495949
 30
-0.0000000000013153
 11
9048.860935950676
 21
3166.408999495949
 31
-0.0000000000013153
  0
LINE
  5
14EC9
330
747D
100
AcDbEntity
  8
Ｇ．Ｌ
 48
50.0
100
AcDbLine
 10
11028.86093595067
 20
3916.408999495949
 30
-0.0000000000013153
 11
12082.97488645548
 21
3916.408999495949
 31
-0.0000000000013153
  0
MTEXT
  5
14ECA
330
747D
100
AcDbEntity
  8
寸法
 62
     7
 48
50.0
100
AcDbMText
 10
11549.78152776523
 20
3968.681726768669
 30
-0.0000000000013153
 40
100.0
 41
1.0
 71
     4
 72
     1
  1
▽G.L
  7
STYLE2
 73
     1
 44
1.0
1001
ACAD
1000
MTEXTBEGIN
1070
    73
1070
     1
1070
    44
1040
1.0
1070
    74
1070
     0
1000
MTEXTEND
  0
LINE
  5
14ECB
330
747D
100
AcDbEntity
  8
部品1
 48
50.0
100
AcDbLine
 10
9945.31093595069
 20
3980.408999495949
 30
-0.0000000000013153
 11
9931.310935950691
 21
3966.408999495949
 31
-0.0000000000013153
  0
LINE
  5
14ECC
330
747D
100
AcDbEntity
  8
部品1
 48
50.0
100
AcDbLine
 10
10062.41093595072
 20
3980.408999495949
 30
-0.0000000000013153
 11
10076.41093595066
 21
3966.408999495949
 31
-0.0000000000013153
  0
LINE
  5
14ECD
330
747D
100
AcDbEntity
  8
部品1
 48
50.0
100
AcDbLine
 10
10528.86093595073
 20
3866.408999495949
 30
-0.0000000000013153
 11
11028.86093595067
 21
3866.408999495949
 31
-0.0000000000013153
  0
LINE
  5
14ECE
330
747D
100
AcDbEntity
  8
部品1
 48
50.0
100
AcDbLine
 10
10048.41093595066
 20
3980.408999495949
 30
-0.0000000000013153
 11
10062.41093595066
 21
3980.408999495949
 31
-0.0000000000013153
  0
LINE
  5
14ECF
330
747D
100
AcDbEntity
  8
部品1
 48
50.0
100
AcDbLine
 10
9945.31093595069
 20
3980.408999495949
 30
-0.0000000000013153
 11
9959.310935950689
 21
3980.408999495949
 31
-0.0000000000013153
  0
LINE
  5
14ED0
330
747D
100
AcDbEntity
  8
部品1
 48
50.0
100
AcDbLine
 10
10076.41093595066
 20
3966.408999495949
 30
-0.0000000000013153
 11
11028.86093595073
 21
3966.408999495949
 31
-0.0000000000013153
  0
LINE
  5
14ED1
330
747D
100
AcDbEntity
  8
部品1
 48
50.0
100
AcDbLine
 10
9313.141387512757
 20
3391.408999495949
 30
-0.0000000000013153
 11
9313.141387512757
 21
3381.408999495949
 31
-0.0000000000013153
  0
CIRCLE
  5
14ED2
330
747D
100
AcDbEntity
  8
部品1
 48
50.0
100
AcDbCircle
 10
9328.860935950677
 20
3396.408999495949
 30
-0.0000000000013153
 40
5.0
  0
LINE
  5
14ED3
330
747D
100
AcDbEntity
  8
細線
 48
50.0
100
AcDbLine
 10
9644.736607037453
 20
3166.408999495949
 30
-0.0000000000013153
 11
9638.037877226681
 21
3191.408999495949
 31
-0.0000000000013153
  0
LINE
  5
14ED4
330
747D
100
AcDbEntity
  8
細線
 48
50.0
100
AcDbLine
 10
9651.435336848223
 20
3241.408999495949
 30
-0.0000000000013153
 11
9644.736607037453
 21
3266.408999495949
 31
-0.0000000000013153
  0
LINE
  5
14ED5
330
747D
100
AcDbEntity
  8
細線
 48
50.0
100
AcDbLine
 10
9767.99917726751
 20
3166.408999495949
 30
-0.0000000000013153
 11
9761.30044745674
 21
3191.408999495949
 31
-0.0000000000013153
  0
LINE
  5
14ED6
330
747D
100
AcDbEntity
  8
細線
 48
50.0
100
AcDbLine
 10
9774.69790707828
 20
3241.408999495949
 30
-0.0000000000013153
 11
9767.99917726751
 21
3266.408999495949
 31
-0.0000000000013153
  0
LINE
  5
14ED7
330
747D
100
AcDbEntity
  8
細線
 48
50.0
100
AcDbLine
 10
9891.261747497567
 20
3166.408999495949
 30
-0.0000000000013153
 11
9884.563017686797
 21
3191.408999495949
 31
-0.0000000000013153
  0
LINE
  5
14ED8
330
747D
100
AcDbEntity
  8
細線
 48
50.0
100
AcDbLine
 10
9897.960477308338
 20
3241.408999495949
 30
-0.0000000000013153
 11
9891.261747497567
 21
3266.408999495949
 31
-0.0000000000013153
  0
LINE
  5
14ED9
330
747D
100
AcDbEntity
  8
細線
 48
50.0
100
AcDbLine
 10
10014.52431772768
 20
3166.408999495949
 30
-0.0000000000013153
 11
10007.82558791691
 21
3191.408999495949
 31
-0.0000000000013153
  0
LINE
  5
14EDA
330
747D
100
AcDbEntity
  8
細線
 48
50.0
100
AcDbLine
 10
10021.22304753845
 20
3241.408999495949
 30
-0.0000000000013153
 11
10014.52431772768
 21
3266.408999495949
 31
-0.0000000000013153
  0
LINE
  5
14EDB
330
747D
100
AcDbEntity
  8
細線
 48
50.0
100
AcDbLine
 10
10137.78688795774
 20
3166.408999495949
 30
-0.0000000000013153
 11
10131.08815814697
 21
3191.408999495949
 31
-0.0000000000013153
  0
LINE
  5
14EDC
330
747D
100
AcDbEntity
  8
細線
 48
50.0
100
AcDbLine
 10
10144.48561776851
 20
3241.408999495949
 30
-0.0000000000013153
 11
10137.78688795774
 21
3266.408999495949
 31
-0.0000000000013153
  0
LINE
  5
14EDD
330
747D
100
AcDbEntity
  8
細線
 48
50.0
100
AcDbLine
 10
10261.0494581878
 20
3166.408999495949
 30
-0.0000000000026306
 11
10254.35072837702
 21
3191.408999495949
 31
-0.0000000000026306
  0
LINE
  5
14EDE
330
747D
100
AcDbEntity
  8
細線
 48
50.0
100
AcDbLine
 10
10267.74818799857
 20
3241.408999495949
 30
-0.0000000000026306
 11
10261.0494581878
 21
3266.408999495949
 31
-0.0000000000026306
  0
LINE
  5
14EDF
330
747D
100
AcDbEntity
  8
細線
 48
50.0
100
AcDbLine
 10
10384.31202841791
 20
3166.408999495949
 30
-0.0000000000013153
 11
10377.61329860714
 21
3191.408999495949
 31
-0.0000000000013153
  0
LINE
  5
14EE0
330
747D
100
AcDbEntity
  8
細線
 48
50.0
100
AcDbLine
 10
10391.01075822868
 20
3241.408999495949
 30
-0.0000000000013153
 11
10384.31202841791
 21
3266.408999495949
 31
-0.0000000000013153
  0
LINE
  5
14EE1
330
747D
100
AcDbEntity
  8
細線
 48
50.0
100
AcDbLine
 10
10507.57459864797
 20
3166.408999495949
 30
-0.0000000000013153
 11
10500.8758688372
 21
3191.408999495949
 31
-0.0000000000013153
  0
LINE
  5
14EE2
330
747D
100
AcDbEntity
  8
細線
 48
50.0
100
AcDbLine
 10
10514.27332845874
 20
3241.408999495949
 30
-0.0000000000013153
 11
10507.57459864797
 21
3266.408999495949
 31
-0.0000000000013153
  0
LINE
  5
14EE3
330
747D
100
AcDbEntity
  8
細線
 48
50.0
100
AcDbLine
 10
8696.142990425428
 20
3766.408999495978
 30
-0.0000000000026306
 11
8689.444260614658
 21
3791.408999495978
 31
-0.0000000000026306
  0
LINE
  5
14EE4
330
747D
100
AcDbEntity
  8
細線
 48
50.0
100
AcDbLine
 10
8702.841720236198
 20
3841.408999495978
 30
-0.0000000000026306
 11
8696.142990425428
 21
3866.408999495978
 31
-0.0000000000026306
  0
LINE
  5
14EE5
330
747D
100
AcDbEntity
  8
細線
 48
50.0
100
AcDbLine
 10
8819.405560655487
 20
3766.408999495963
 30
-0.0000000000026306
 11
8812.706830844716
 21
3791.408999495963
 31
-0.0000000000026306
  0
LINE
  5
14EE6
330
747D
100
AcDbEntity
  8
細線
 48
50.0
100
AcDbLine
 10
8826.104290466258
 20
3841.408999495963
 30
-0.0000000000026306
 11
8819.405560655487
 21
3866.408999495963
 31
-0.0000000000026306
  0
LINE
  5
14EE7
330
747D
100
AcDbEntity
  8
細線
 48
50.0
100
AcDbLine
 10
8942.668130885602
 20
3766.408999495963
 30
-0.0000000000026306
 11
8935.969401074832
 21
3791.408999495963
 31
-0.0000000000026306
  0
LINE
  5
14EE8
330
747D
100
AcDbEntity
  8
細線
 48
50.0
100
AcDbLine
 10
8949.366860696374
 20
3841.408999495963
 30
-0.0000000000026306
 11
8942.668130885602
 21
3866.408999495963
 31
-0.0000000000026306
  0
LINE
  5
14EE9
330
747D
100
AcDbEntity
  8
細線
 48
50.0
100
AcDbLine
 10
9065.930701115659
 20
3766.408999495963
 30
-0.0000000000026306
 11
9059.231971304889
 21
3791.408999495963
 31
-0.0000000000026306
  0
LINE
  5
14EEA
330
747D
100
AcDbEntity
  8
細線
 48
50.0
100
AcDbLine
 10
9072.629430926431
 20
3841.408999495963
 30
-0.0000000000026306
 11
9065.930701115659
 21
3866.408999495963
 31
-0.0000000000026306
  0
LINE
  5
14EEB
330
747D
100
AcDbEntity
  8
細線
 48
50.0
100
AcDbLine
 10
10545.08154387658
 20
3766.408999495963
 30
-0.0000000000026306
 11
10538.38281406581
 21
3791.408999495963
 31
-0.0000000000026306
  0
LINE
  5
14EEC
330
747D
100
AcDbEntity
  8
細線
 48
50.0
100
AcDbLine
 10
10551.78027368735
 20
3841.408999495963
 30
-0.0000000000026306
 11
10545.08154387658
 21
3866.408999495963
 31
-0.0000000000026306
  0
LINE
  5
14EED
330
747D
100
AcDbEntity
  8
細線
 48
50.0
100
AcDbLine
 10
10668.34411410664
 20
3766.408999495963
 30
-0.0000000000026306
 11
10661.64538429587
 21
3791.408999495963
 31
-0.0000000000026306
  0
LINE
  5
14EEE
330
747D
100
AcDbEntity
  8
細線
 48
50.0
100
AcDbLine
 10
10675.04284391741
 20
3841.408999495963
 30
-0.0000000000026306
 11
10668.34411410664
 21
3866.408999495963
 31
-0.0000000000026306
  0
LINE
  5
14EEF
330
747D
100
AcDbEntity
  8
細線
 48
50.0
100
AcDbLine
 10
10791.6066843367
 20
3766.408999495963
 30
-0.0000000000026306
 11
10784.90795452592
 21
3791.408999495963
 31
-0.0000000000026306
  0
LINE
  5
14EF0
330
747D
100
AcDbEntity
  8
細線
 48
50.0
100
AcDbLine
 10
10798.30541414747
 20
3841.408999495963
 30
-0.0000000000026306
 11
10791.6066843367
 21
3866.408999495963
 31
-0.0000000000026306
  0
LINE
  5
14EF1
330
747D
100
AcDbEntity
  8
細線
 48
50.0
100
AcDbLine
 10
10914.86925456681
 20
3766.408999495963
 30
-0.0000000000026306
 11
10908.17052475604
 21
3791.408999495963
 31
-0.0000000000026306
  0
LINE
  5
14EF2
330
747D
100
AcDbEntity
  8
細線
 48
50.0
100
AcDbLine
 10
10921.56798437758
 20
3841.408999495963
 30
-0.0000000000026306
 11
10914.86925456681
 21
3866.408999495963
 31
-0.0000000000026306
  0
MTEXT
  5
14EF3
330
747D
100
AcDbEntity
  8
寸法
 62
     7
 48
50.0
100
AcDbMText
 10
11026.31778767451
 20
4018.681726768669
 30
-0.0000000000013153
 40
100.0
 41
1.0
 71
     5
 72
     1
  1
▽Ｆ.L
  7
STYLE2
 73
     1
 44
1.0
1001
ACAD
1000
MTEXTBEGIN
1070
    73
1070
     1
1070
    44
1040
1.0
1070
    74
1070
     0
1000
MTEXTEND
  0
LINE
  5
14EF4
330
747D
100
AcDbEntity
  8
寸法
 48
50.0
100
AcDbLine
 10
8862.181659826511
 20
4041.016415698117
 30
-0.0000000000013153
 11
8930.832877691628
 21
4059.411454084488
 31
-0.0000000000013153
  0
LINE
  5
14EF5
330
747D
100
AcDbEntity
  8
寸法
 48
50.0
100
AcDbLine
 10
8862.181659826511
 20
4041.016415698117
 30
-0.0000000000013153
 11
9491.434155414314
 21
4041.016415698117
 31
-0.0000000000013153
  0
LINE
  5
14EF6
330
747D
100
AcDbEntity
  8
寸法
 48
50.0
100
AcDbLine
 10
8862.181659826511
 20
4041.016415698117
 30
-0.0000000000013153
 11
8930.832877691628
 21
4022.621377311732
 31
-0.0000000000013153
  0
TEXT
  5
14EF7
330
747D
100
AcDbEntity
  8
寸法
 62
     7
 48
50.0
100
AcDbText
 10
8960.415100826152
 20
4226.403451340096
 30
-0.0000000000013153
 40
90.0
  1
水勾配
 41
0.8
  7
STYLE1
100
AcDbText
  0
TEXT
  5
14EF8
330
747D
100
AcDbEntity
  8
寸法
 62
     7
 48
50.0
100
AcDbText
 10
8927.151607854783
 20
4078.064939218004
 30
-0.0000000000013153
 40
90.0
  1
１／１００
 41
0.8
  7
STYLE1
100
AcDbText
  0
LINE
  5
14EF9
330
747D
100
AcDbEntity
  8
寸法
 48
50.0
100
AcDbLine
 10
10795.54021207484
 20
4041.016415698117
 30
-0.0000000000013153
 11
10726.88899420972
 21
4059.411454084488
 31
-0.0000000000013153
  0
LINE
  5
14EFA
330
747D
100
AcDbEntity
  8
寸法
 48
50.0
100
AcDbLine
 10
10795.54021207484
 20
4041.016415698117
 30
-0.0000000000013153
 11
10166.28771648704
 21
4041.016415698117
 31
-0.0000000000013153
  0
LINE
  5
14EFB
330
747D
100
AcDbEntity
  8
寸法
 48
50.0
100
AcDbLine
 10
10795.54021207484
 20
4041.016415698117
 30
-0.0000000000013153
 11
10726.88899420972
 21
4022.621377311732
 31
-0.0000000000013153
  0
TEXT
  5
14EFC
330
747D
100
AcDbEntity
  8
寸法
 62
     7
 48
50.0
100
AcDbText
 10
10264.52115748668
 20
4226.403451340096
 30
-0.0000000000013153
 40
90.0
  1
水勾配
 41
0.8
  7
STYLE1
100
AcDbText
  0
TEXT
  5
14EFD
330
747D
100
AcDbEntity
  8
寸法
 62
     7
 48
50.0
100
AcDbText
 10
10231.25766451531
 20
4078.064939218004
 30
-0.0000000000013153
 40
90.0
  1
１／１００
 41
0.8
  7
STYLE1
100
AcDbText
  0
DIMENSION
  5
14EFE
330
747D
100
AcDbEntity
  8
寸法
 48
50.0
100
AcDbDimension
  2
*D2
 10
8478.279808848714
 20
3966.408999495949
 30
-0.0000000000013153
 11
8478.279808848714
 21
4143.444432566857
 31
-0.0000000000013153
 70
   160
 71
     5
 42
100.0
  3
INABA_S30G
100
AcDbAlignedDimension
 13
8628.860935950619
 23
3866.408999495949
 33
-0.0000000000013153
 14
8628.860935950619
 24
3966.408999495949
 34
-0.0000000000013153
 50
90.0
100
AcDbRotatedDimension
  0
DIMENSION
  5
14EFF
330
747D
100
AcDbEntity
  8
寸法
 48
50.0
100
AcDbDimension
  2
*D3
 10
8478.279808848714
 20
3766.408999495949
 30
-0.0000000000013153
 11
8478.279808848714
 21
3589.373566425083
 31
-0.0000000000013153
 70
   160
 71
     5
 42
100.0
  3
INABA_S30G
100
AcDbAlignedDimension
 13
8628.860935950619
 23
3866.408999495949
 33
-0.0000000000013153
 14
8628.860935950619
 24
3766.408999495949
 34
-0.0000000000013153
 50
90.0
100
AcDbRotatedDimension
  0
DIMENSION
  5
14F00
330
747D
100
AcDbEntity
  8
寸法
 48
50.0
100
AcDbDimension
  2
*D4
 10
9653.860935950678
 20
2874.792369851914
 30
-0.0000000000013153
 11
9391.360935950677
 21
2949.80122811963
 31
-0.0000000000013153
 70
    32
 71
     5
 42
525.0
  3
INABA_S30G
100
AcDbAlignedDimension
 13
9128.860935950678
 23
3316.408999495949
 33
-0.0000000000013153
 14
9653.860935950678
 24
3255.351167666069
 34
-0.0000000000013153
100
AcDbRotatedDimension
  0
DIMENSION
  5
14F01
330
747D
100
AcDbEntity
  8
寸法
 48
50.0
100
AcDbDimension
  2
*D5
 10
9128.860935950678
 20
2644.706808763161
 30
-0.0000000000013153
 11
9828.860935950679
 21
2719.706808763162
 31
-0.0000000000013153
 70
    32
 71
     5
 42
1400.0
  3
INABA_S30G
100
AcDbAlignedDimension
 13
10528.86093595067
 23
3316.408999495949
 33
-0.0000000000013153
 14
9128.860935950678
 24
3316.408999495949
 34
-0.0000000000013153
100
AcDbRotatedDimension
  0
DIMENSION
  5
14F02
330
747D
100
AcDbEntity
  8
寸法
 48
50.0
100
AcDbDimension
  2
*D6
 10
10003.86093595067
 20
2874.792369851914
 30
-0.0000000000013153
 11
9828.860935950679
 21
2949.792369851913
 31
-0.0000000000013153
 70
    32
 71
     5
 42
350.0
  3
INABA_S30G
100
AcDbAlignedDimension
 13
9653.860935950678
 23
3255.351167666069
 33
-0.0000000000013153
 14
10003.86093595067
 24
3255.351167666069
 34
-0.0000000000013153
100
AcDbRotatedDimension
  0
DIMENSION
  5
14F03
330
747D
100
AcDbEntity
  8
寸法
 48
50.0
100
AcDbDimension
  2
*D7
 10
10003.86093595067
 20
2874.792369851914
 30
-0.0000000000013153
 11
10266.36093595068
 21
2949.80122811963
 31
-0.0000000000013153
 70
    32
 71
     5
 42
525.0
  3
INABA_S30G
100
AcDbAlignedDimension
 13
10528.86093595067
 23
3316.408999495949
 33
-0.0000000000013153
 14
10003.86093595067
 24
3255.351167666069
 34
-0.0000000000013153
 50
180.0
100
AcDbRotatedDimension
  0
DIMENSION
  5
14F04
330
747D
100
AcDbEntity
  8
寸法
 48
50.0
100
AcDbDimension
  2
*D8
 10
11321.30230055141
 20
3316.408999495948
 30
-0.0000000000013153
 11
11246.3023005514
 21
3616.408999495951
 31
-0.0000000000013153
 70
    32
 71
     5
 42
600.0
  3
INABA_S30G
100
AcDbAlignedDimension
 13
11093.65881351419
 23
3916.408999495949
 33
-0.0000000000013153
 14
10608.86093595067
 24
3316.408999495949
 34
-0.0000000000013153
 50
90.0
100
AcDbRotatedDimension
  0
DIMENSION
  5
14F05
330
747D
100
AcDbEntity
  8
寸法
 48
50.0
100
AcDbDimension
  2
*D9
 10
11321.30230055141
 20
3966.408999495948
 30
-0.0000000000013153
 11
11321.30230055141
 21
4195.944432566857
 31
-0.0000000000013153
 70
   160
 71
     5
 42
50.0
  3
INABA_S30G
100
AcDbAlignedDimension
 13
11028.86093595067
 23
3916.408999495949
 33
-0.0000000000013153
 14
11028.86093595073
 24
3966.408999495949
 34
-0.0000000000013153
 50
90.0
100
AcDbRotatedDimension
  0
DIMENSION
  5
14F06
330
747D
100
AcDbEntity
  8
寸法
 48
50.0
100
AcDbDimension
  2
*D10
 10
11321.30230055141
 20
3266.408999495948
 30
-0.0000000000013153
 11
11321.30230055141
 21
3036.873566425084
 31
-0.0000000000013153
 70
   160
 71
     5
 42
50.0
  3
INABA_S30G
100
AcDbAlignedDimension
 13
10608.86093595067
 23
3316.408999495949
 33
-0.0000000000013153
 14
10608.86093595067
 24
3266.408999495949
 34
-0.0000000000013153
 50
90.0
100
AcDbRotatedDimension
  0
TEXT
  5
14F07
330
747D
100
AcDbEntity
  8
寸法
 62
     7
 48
50.0
100
AcDbText
 10
10615.6469089949
 20
3465.463411930932
 30
-0.0000000000013153
 40
90.0
  1
主筋4-D13
  7
STYLE1
100
AcDbText
  0
LINE
  5
14F08
330
747D
100
AcDbEntity
  8
寸法
 48
50.0
100
AcDbLine
 10
10577.90154291273
 20
3440.456554378541
 30
-0.0000000000013153
 11
11198.11599837991
 21
3440.456554378541
 31
-0.0000000000013153
  0
LINE
  5
14F09
330
747D
100
AcDbEntity
  8
寸法
 48
50.0
100
AcDbLine
 10
10577.90154291273
 20
3440.456554378541
 30
-0.0000000000013153
 11
10203.86093595067
 21
3656.408999495949
 31
-0.0000000000013153
  0
LWPOLYLINE
  5
14F0A
330
747D
100
AcDbEntity
  8
寸法
 48
5.0
100
AcDbPolyline
 90
        3
 70
     0
 43
0.0
 10
9328.860935950677
 20
3396.408999495949
 10
8933.209991514999
 20
3000.758055060315
 10
8015.700436370066
 20
3000.758055060315
1001
ACAD
1000
DSTYLE
1002
{
1070
   341
1005
0
1002
}
  0
TEXT
  5
14F0B
330
747D
100
AcDbEntity
  8
寸法
 62
     7
100
AcDbText
 10
8020.836874173397
 20
3021.279060058672
 30
-0.0000000000039459
 40
90.0
  1
4-D10X6-D10以上
  7
STYLE1
100
AcDbText
  0
TEXT
  5
14F0C
330
747D
100
AcDbEntity
  8
寸法
 62
     7
100
AcDbText
 10
8020.836874173397
 20
3135.7519807833
 30
-0.0000000000039459
 40
90.0
  1
ベース筋
  7
STYLE1
100
AcDbText
  0
LINE
  5
14F0D
330
747D
100
AcDbEntity
  8
寸法
 48
50.0
100
AcDbLine
 10
9499.589623040952
 20
3506.408999495949
 30
-0.0000000000013153
 11
8785.346114637821
 21
2792.165491092817
 31
-0.0000000000013153
  0
LINE
  5
14F0E
330
747D
100
AcDbEntity
  8
寸法
 48
50.0
100
AcDbLine
 10
8785.346114637821
 20
2792.165491092817
 30
-0.0000000000013153
 11
8094.952135937139
 21
2792.165491092817
 31
-0.0000000000013153
  0
TEXT
  5
14F0F
330
747D
100
AcDbEntity
  8
寸法
 62
     7
 48
50.0
100
AcDbText
 10
8113.40472330173
 20
2807.241408920671
 30
-0.0000000000013153
 40
90.0
  1
帯筋D10＠100
  7
STYLE1
100
AcDbText
  0
ARC
  5
14F11
330
747D
100
AcDbEntity
  8
部品1
 48
50.0
100
AcDbCircle
 10
9653.860935950678
 20
3748.188998225304
 30
-0.0000000000013153
 40
48.22000127066345
100
AcDbArc
 50
22.20066484160549
 51
157.7993351583945
  0
LINE
  5
14F12
330
747D
100
AcDbEntity
  8
部品1
100
AcDbLine
 10
9784.860935950678
 20
3517.408999495949
 30
-0.0000000000013153
 11
9803.860935950678
 21
3517.408999495949
 31
-0.0000000000013153
  0
LINE
  5
14F13
330
747D
100
AcDbEntity
  8
部品1
100
AcDbLine
 10
9784.860935950678
 20
3505.408999495949
 30
-0.0000000000013153
 11
9803.860935950678
 21
3505.408999495949
 31
-0.0000000000013153
  0
LINE
  5
14F14
330
747D
100
AcDbEntity
  8
部品1
100
AcDbLine
 10
9803.860935950678
 20
3517.408999495949
 30
-0.0000000000013153
 11
9803.860935950678
 21
3505.408999495949
 31
-0.0000000000013153
  0
ARC
  5
14F15
330
747D
100
AcDbEntity
  8
部品1
100
AcDbCircle
 10
9784.860935950678
 20
3542.408999495949
 30
-0.0000000000013153
 40
25.0
100
AcDbArc
 50
180.0
 51
270.0
  0
ARC
  5
14F16
330
747D
100
AcDbEntity
  8
部品1
100
AcDbCircle
 10
9784.860935950678
 20
3542.408999495949
 30
-0.0000000000013153
 40
37.0
100
AcDbArc
 50
180.0
 51
270.0
  0
LINE
  5
14F17
330
747D
100
AcDbEntity
  8
部品1
100
AcDbLine
 10
9747.860935950678
 20
3796.408999495949
 30
-0.0000000000013153
 11
9747.860935950678
 21
3542.408999495949
 31
-0.0000000000013153
  0
LINE
  5
14F18
330
747D
100
AcDbEntity
  8
部品1
100
AcDbLine
 10
9759.860935950678
 20
3826.408999495948
 30
-0.0000000000013153
 11
9747.860935950678
 21
3826.408999495948
 31
-0.0000000000013153
  0
LINE
  5
14F19
330
747D
100
AcDbEntity
  8
部品1
100
AcDbLine
 10
9759.860935950678
 20
3826.408999495948
 30
-0.0000000000013153
 11
9759.860935950678
 21
3818.408999495949
 31
-0.0000000000013153
  0
LINE
  5
14F1A
330
747D
100
AcDbEntity
  8
部品1
100
AcDbLine
 10
9747.860935950678
 20
3826.408999495948
 30
-0.0000000000013153
 11
9747.860935950678
 21
3818.408999495949
 31
-0.0000000000013153
  0
LINE
  5
14F1B
330
747D
100
AcDbEntity
  8
部品1
100
AcDbLine
 10
9764.830591065312
 20
3818.408999495949
 30
-0.0000000000013153
 11
9742.891280836103
 21
3818.408999495949
 31
-0.0000000000013153
  0
LINE
  5
14F1C
330
747D
100
AcDbEntity
  8
部品1
100
AcDbLine
 10
9742.891280836103
 20
3808.408999495949
 30
-0.0000000000013153
 11
9742.891280836103
 21
3818.408999495949
 31
-0.0000000000013153
  0
LINE
  5
14F1D
330
747D
100
AcDbEntity
  8
部品1
100
AcDbLine
 10
9748.37610839339
 20
3808.408999495949
 30
-0.0000000000013153
 11
9748.37610839339
 21
3818.408999495949
 31
-0.0000000000013153
  0
LINE
  5
14F1E
330
747D
100
AcDbEntity
  8
部品1
100
AcDbLine
 10
9759.345763507965
 20
3808.408999495949
 30
-0.0000000000013153
 11
9759.345763507965
 21
3818.408999495949
 31
-0.0000000000013153
  0
LINE
  5
14F1F
330
747D
100
AcDbEntity
  8
部品1
100
AcDbLine
 10
9764.830591065312
 20
3808.408999495949
 30
-0.0000000000013153
 11
9764.830591065312
 21
3818.408999495949
 31
-0.0000000000013153
  0
LINE
  5
14F20
330
747D
100
AcDbEntity
  8
部品1
100
AcDbLine
 10
9764.830591065312
 20
3808.408999495949
 30
-0.0000000000013153
 11
9742.891280836103
 21
3808.408999495949
 31
-0.0000000000013153
  0
LINE
  5
14F21
330
747D
100
AcDbEntity
  8
部品1
100
AcDbLine
 10
9759.860935950678
 20
3796.408999495949
 30
-0.0000000000013153
 11
9759.860935950678
 21
3542.408999495949
 31
-0.0000000000013153
  0
LINE
  5
14F22
330
747D
100
AcDbEntity
  8
部品1
100
AcDbLine
 10
9559.860935950679
 20
3796.408999495949
 30
-0.0000000000013153
 11
9559.860935950679
 21
3542.408999495949
 31
-0.0000000000013153
  0
LINE
  5
14F23
330
747D
100
AcDbEntity
  8
部品1
100
AcDbLine
 10
9547.860935950678
 20
3796.408999495949
 30
-0.0000000000013153
 11
9547.860935950678
 21
3542.408999495949
 31
-0.0000000000013153
  0
LINE
  5
14F24
330
747D
100
AcDbEntity
  8
部品1
100
AcDbLine
 10
9542.891280836101
 20
3808.408999495949
 30
-0.0000000000013153
 11
9564.830591065311
 21
3808.408999495949
 31
-0.0000000000013153
  0
LINE
  5
14F25
330
747D
100
AcDbEntity
  8
部品1
100
AcDbLine
 10
9542.891280836101
 20
3808.408999495949
 30
-0.0000000000013153
 11
9542.891280836101
 21
3818.408999495949
 31
-0.0000000000013153
  0
LINE
  5
14F26
330
747D
100
AcDbEntity
  8
部品1
100
AcDbLine
 10
9548.376108393389
 20
3808.408999495949
 30
-0.0000000000013153
 11
9548.376108393389
 21
3818.408999495949
 31
-0.0000000000013153
  0
LINE
  5
14F27
330
747D
100
AcDbEntity
  8
部品1
100
AcDbLine
 10
9559.345763507964
 20
3808.408999495949
 30
-0.0000000000013153
 11
9559.345763507964
 21
3818.408999495949
 31
-0.0000000000013153
  0
LINE
  5
14F28
330
747D
100
AcDbEntity
  8
部品1
100
AcDbLine
 10
9564.830591065311
 20
3808.408999495949
 30
-0.0000000000013153
 11
9564.830591065311
 21
3818.408999495949
 31
-0.0000000000013153
  0
LINE
  5
14F29
330
747D
100
AcDbEntity
  8
部品1
100
AcDbLine
 10
9542.891280836101
 20
3818.408999495949
 30
-0.0000000000013153
 11
9564.830591065311
 21
3818.408999495949
 31
-0.0000000000013153
  0
ARC
  5
14F2A
330
747D
100
AcDbEntity
  8
部品1
100
AcDbCircle
 10
9522.860935950678
 20
3542.408999495949
 30
-0.0000000000013153
 40
37.0
100
AcDbArc
 50
270.0
 51
0.0
  0
ARC
  5
14F2B
330
747D
100
AcDbEntity
  8
部品1
100
AcDbCircle
 10
9522.860935950678
 20
3542.408999495949
 30
-0.0000000000013153
 40
25.0
100
AcDbArc
 50
270.0
 51
0.0
  0
LINE
  5
14F2C
330
747D
100
AcDbEntity
  8
部品1
100
AcDbLine
 10
9503.860935950678
 20
3517.408999495949
 30
-0.0000000000013153
 11
9503.860935950678
 21
3505.408999495949
 31
-0.0000000000013153
  0
LINE
  5
14F2D
330
747D
100
AcDbEntity
  8
部品1
100
AcDbLine
 10
9522.860935950678
 20
3505.408999495949
 30
-0.0000000000013153
 11
9503.860935950678
 21
3505.408999495949
 31
-0.0000000000013153
  0
LINE
  5
14F2E
330
747D
100
AcDbEntity
  8
部品1
100
AcDbLine
 10
9522.860935950678
 20
3517.408999495949
 30
-0.0000000000013153
 11
9503.860935950678
 21
3517.408999495949
 31
-0.0000000000013153
  0
LINE
  5
14F2F
330
747D
100
AcDbEntity
  8
部品1
100
AcDbLine
 10
9559.860935950679
 20
3826.408999495948
 30
-0.0000000000013153
 11
9559.860935950679
 21
3818.408999495949
 31
-0.0000000000013153
  0
LINE
  5
14F30
330
747D
100
AcDbEntity
  8
部品1
100
AcDbLine
 10
9547.860935950678
 20
3826.408999495948
 30
-0.0000000000013153
 11
9547.860935950678
 21
3818.408999495949
 31
-0.0000000000013153
  0
LINE
  5
14F31
330
747D
100
AcDbEntity
  8
部品1
100
AcDbLine
 10
9547.860935950678
 20
3826.408999495948
 30
-0.0000000000013153
 11
9559.860935950679
 21
3826.408999495948
 31
-0.0000000000013153
  0
LINE
  5
14F32
330
747D
100
AcDbEntity
  8
CSLAYER17
  6
Continuous
 62
     7
100
AcDbLine
 10
9777.410935950666
 20
3858.408999495948
 30
-0.0000000000013153
 11
9787.410935950667
 21
3848.408999495949
 31
-0.0000000000013153
  0
LINE
  5
14F33
330
747D
100
AcDbEntity
  8
CSLAYER17
  6
Continuous
 62
     7
100
AcDbLine
 10
9530.310935950689
 20
3858.408999495948
 30
-0.0000000000013153
 11
9520.310935950689
 21
3848.408999495949
 31
-0.0000000000013153
  0
LINE
  5
14F34
330
747D
100
AcDbEntity
  8
CSLAYER17
  6
Continuous
 62
     7
100
AcDbLine
 10
9608.810935950689
 20
3818.408999495949
 30
-0.0000000000013153
 11
9598.810935950689
 21
3808.408999495949
 31
-0.0000000000013153
  0
LINE
  5
14F35
330
747D
100
AcDbEntity
  8
部品1
100
AcDbLine
 10
9608.810935950689
 20
3858.408999495948
 30
-0.0000000000013153
 11
9608.810935950689
 21
3818.408999495949
 31
-0.0000000000013153
  0
LINE
  5
14F36
330
747D
100
AcDbEntity
  8
部品1
100
AcDbLine
 10
9698.910935950666
 20
3858.408999495948
 30
-0.0000000000013153
 11
9698.910935950666
 21
3818.408999495949
 31
-0.0000000000013153
  0
LINE
  5
14F37
330
747D
100
AcDbEntity
  8
CSLAYER17
  6
Continuous
 62
     7
100
AcDbLine
 10
9698.910935950666
 20
3818.408999495949
 30
-0.0000000000013153
 11
9708.910935950667
 21
3808.408999495949
 31
-0.0000000000013153
  0
LINE
  5
14F38
330
747D
100
AcDbEntity
  8
CSLAYER17
  6
Continuous
 62
     7
100
AcDbLine
 10
9698.910935950666
 20
3858.408999495948
 30
-0.0000000000013153
 11
9777.410935950666
 21
3858.408999495948
 31
-0.0000000000013153
  0
LINE
  5
14F39
330
747D
100
AcDbEntity
  8
CSLAYER17
  6
Continuous
 62
     7
100
AcDbLine
 10
9520.310935950689
 20
3848.408999495949
 30
-0.0000000000013153
 11
9520.310935950689
 21
3808.408999495949
 31
-0.0000000000013153
  0
LINE
  5
14F3A
330
747D
100
AcDbEntity
  8
CSLAYER17
  6
Continuous
 62
     7
100
AcDbLine
 10
9787.410935950667
 20
3848.408999495949
 30
-0.0000000000013153
 11
9787.410935950667
 21
3808.408999495949
 31
-0.0000000000013153
  0
LINE
  5
14F3B
330
747D
100
AcDbEntity
  8
CSLAYER17
  6
Continuous
 62
     7
100
AcDbLine
 10
9530.310935950689
 20
3858.408999495948
 30
-0.0000000000013153
 11
9608.810935950689
 21
3858.408999495948
 31
-0.0000000000013153
  0
LINE
  5
14F3C
330
747D
100
AcDbEntity
  8
CSLAYER17
  6
Continuous
 62
     7
100
AcDbLine
 10
9651.610935950678
 20
3858.408999495948
 30
-0.0000000000013153
 11
9656.110935950678
 21
3858.408999495948
 31
-0.0000000000013153
  0
LINE
  5
14F3D
330
747D
100
AcDbEntity
  8
CSLAYER17
  6
Continuous
 62
     7
100
AcDbLine
 10
9656.110935950678
 20
3858.408999495948
 30
-0.0000000000013153
 11
9656.110935950678
 21
3808.408999495949
 31
-0.0000000000013153
  0
LINE
  5
14F3E
330
747D
100
AcDbEntity
  8
CSLAYER17
  6
Continuous
 62
     7
100
AcDbLine
 10
9651.610935950678
 20
3858.408999495948
 30
-0.0000000000013153
 11
9651.610935950678
 21
3808.408999495949
 31
-0.0000000000013153
  0
LINE
  5
14F3F
330
747D
100
AcDbEntity
  8
CSLAYER17
  6
Continuous
 62
     7
100
AcDbLine
 10
9793.860935950677
 20
3808.408999495949
 30
-0.0000000000013153
 11
9793.860935950677
 21
3796.408999495949
 31
-0.0000000000013153
  0
LINE
  5
14F40
330
747D
100
AcDbEntity
  8
CSLAYER17
  6
Continuous
 62
     7
100
AcDbLine
 10
9513.860935950678
 20
3796.408999495949
 30
-0.0000000000013153
 11
9513.860935950678
 21
3808.408999495949
 31
-0.0000000000013153
  0
LINE
  5
14F41
330
747D
100
AcDbEntity
  8
CSLAYER17
  6
Continuous
 62
     7
100
AcDbLine
 10
9513.860935950678
 20
3808.408999495949
 30
-0.0000000000013153
 11
9793.860935950677
 21
3808.408999495949
 31
-0.0000000000013153
  0
LINE
  5
14F42
330
747D
100
AcDbEntity
  8
CSLAYER17
  6
Continuous
 62
     7
100
AcDbLine
 10
9513.860935950678
 20
3796.408999495949
 30
-0.0000000000013153
 11
9793.860935950677
 21
3796.408999495949
 31
-0.0000000000013153
  0
LINE
  5
14F43
330
747D
100
AcDbEntity
  8
部品1
 48
50.0
100
AcDbLine
 10
9698.524167846215
 20
3808.408999495949
 30
-0.0000000000013153
 11
9609.31093595069
 21
3808.408999495949
 31
-0.0000000000013153
  0
LINE
  5
14F44
330
747D
100
AcDbEntity
  8
部品1
 48
50.0
100
AcDbLine
 10
9609.31093595069
 20
4312.342095440878
 30
-0.0000000000013153
 11
9609.31093595069
 21
3808.408999495963
 31
-0.0000000000013153
  0
LINE
  5
14F45
330
747D
100
AcDbEntity
  8
部品1
 48
50.0
100
AcDbLine
 10
9698.410935950667
 20
4312.342095440878
 30
-0.0000000000013153
 11
9698.410935950667
 21
3808.408999495963
 31
-0.0000000000013153
  0
ARC
  5
14F46
330
747D
100
AcDbEntity
  8
部品1
 48
50.0
100
AcDbCircle
 10
10003.86093595067
 20
3748.188998225304
 30
-0.0000000000013153
 40
48.22000127066345
100
AcDbArc
 50
22.20066484160549
 51
157.7993351583945
  0
LINE
  5
14F47
330
747D
100
AcDbEntity
  8
部品1
100
AcDbLine
 10
10134.86093595068
 20
3517.408999495949
 30
-0.0000000000013153
 11
10153.86093595068
 21
3517.408999495949
 31
-0.0000000000013153
  0
LINE
  5
14F48
330
747D
100
AcDbEntity
  8
部品1
100
AcDbLine
 10
10134.86093595068
 20
3505.408999495949
 30
-0.0000000000013153
 11
10153.86093595068
 21
3505.408999495949
 31
-0.0000000000013153
  0
LINE
  5
14F49
330
747D
100
AcDbEntity
  8
部品1
100
AcDbLine
 10
10153.86093595068
 20
3517.408999495949
 30
-0.0000000000013153
 11
10153.86093595068
 21
3505.408999495949
 31
-0.0000000000013153
  0
ARC
  5
14F4A
330
747D
100
AcDbEntity
  8
部品1
100
AcDbCircle
 10
10134.86093595068
 20
3542.408999495949
 30
-0.0000000000013153
 40
25.0
100
AcDbArc
 50
180.0
 51
270.0
  0
ARC
  5
14F4B
330
747D
100
AcDbEntity
  8
部品1
100
AcDbCircle
 10
10134.86093595068
 20
3542.408999495949
 30
-0.0000000000013153
 40
37.0
100
AcDbArc
 50
180.0
 51
270.0
  0
LINE
  5
14F4C
330
747D
100
AcDbEntity
  8
部品1
100
AcDbLine
 10
10097.86093595067
 20
3796.408999495949
 30
-0.0000000000013153
 11
10097.86093595067
 21
3542.408999495949
 31
-0.0000000000013153
  0
LINE
  5
14F4D
330
747D
100
AcDbEntity
  8
部品1
100
AcDbLine
 10
10109.86093595068
 20
3826.408999495948
 30
-0.0000000000013153
 11
10097.86093595067
 21
3826.408999495948
 31
-0.0000000000013153
  0
LINE
  5
14F4E
330
747D
100
AcDbEntity
  8
部品1
100
AcDbLine
 10
10109.86093595068
 20
3826.408999495948
 30
-0.0000000000013153
 11
10109.86093595068
 21
3818.408999495949
 31
-0.0000000000013153
  0
LINE
  5
14F4F
330
747D
100
AcDbEntity
  8
部品1
100
AcDbLine
 10
10097.86093595067
 20
3826.408999495948
 30
-0.0000000000013153
 11
10097.86093595067
 21
3818.408999495949
 31
-0.0000000000013153
  0
LINE
  5
14F50
330
747D
100
AcDbEntity
  8
部品1
100
AcDbLine
 10
10114.83059106531
 20
3818.408999495949
 30
-0.0000000000013153
 11
10092.8912808361
 21
3818.408999495949
 31
-0.0000000000013153
  0
LINE
  5
14F51
330
747D
100
AcDbEntity
  8
部品1
100
AcDbLine
 10
10092.8912808361
 20
3808.408999495949
 30
-0.0000000000013153
 11
10092.8912808361
 21
3818.408999495949
 31
-0.0000000000013153
  0
LINE
  5
14F52
330
747D
100
AcDbEntity
  8
部品1
100
AcDbLine
 10
10098.37610839339
 20
3808.408999495949
 30
-0.0000000000013153
 11
10098.37610839339
 21
3818.408999495949
 31
-0.0000000000013153
  0
LINE
  5
14F53
330
747D
100
AcDbEntity
  8
部品1
100
AcDbLine
 10
10109.34576350796
 20
3808.408999495949
 30
-0.0000000000013153
 11
10109.34576350796
 21
3818.408999495949
 31
-0.0000000000013153
  0
LINE
  5
14F54
330
747D
100
AcDbEntity
  8
部品1
100
AcDbLine
 10
10114.83059106531
 20
3808.408999495949
 30
-0.0000000000013153
 11
10114.83059106531
 21
3818.408999495949
 31
-0.0000000000013153
  0
LINE
  5
14F55
330
747D
100
AcDbEntity
  8
部品1
100
AcDbLine
 10
10114.83059106531
 20
3808.408999495949
 30
-0.0000000000013153
 11
10092.8912808361
 21
3808.408999495949
 31
-0.0000000000013153
  0
LINE
  5
14F56
330
747D
100
AcDbEntity
  8
部品1
100
AcDbLine
 10
10109.86093595068
 20
3796.408999495949
 30
-0.0000000000013153
 11
10109.86093595068
 21
3542.408999495949
 31
-0.0000000000013153
  0
LINE
  5
14F57
330
747D
100
AcDbEntity
  8
部品1
100
AcDbLine
 10
9909.860935950678
 20
3796.408999495949
 30
-0.0000000000013153
 11
9909.860935950678
 21
3542.408999495949
 31
-0.0000000000013153
  0
LINE
  5
14F58
330
747D
100
AcDbEntity
  8
部品1
100
AcDbLine
 10
9897.860935950678
 20
3796.408999495949
 30
-0.0000000000013153
 11
9897.860935950678
 21
3542.408999495949
 31
-0.0000000000013153
  0
LINE
  5
14F59
330
747D
100
AcDbEntity
  8
部品1
100
AcDbLine
 10
9892.891280836103
 20
3808.408999495949
 30
-0.0000000000013153
 11
9914.83059106531
 21
3808.408999495949
 31
-0.0000000000013153
  0
LINE
  5
14F5A
330
747D
100
AcDbEntity
  8
部品1
100
AcDbLine
 10
9892.891280836103
 20
3808.408999495949
 30
-0.0000000000013153
 11
9892.891280836103
 21
3818.408999495949
 31
-0.0000000000013153
  0
LINE
  5
14F5B
330
747D
100
AcDbEntity
  8
部品1
100
AcDbLine
 10
9898.37610839339
 20
3808.408999495949
 30
-0.0000000000013153
 11
9898.37610839339
 21
3818.408999495949
 31
-0.0000000000013153
  0
LINE
  5
14F5C
330
747D
100
AcDbEntity
  8
部品1
100
AcDbLine
 10
9909.345763507964
 20
3808.408999495949
 30
-0.0000000000013153
 11
9909.345763507964
 21
3818.408999495949
 31
-0.0000000000013153
  0
LINE
  5
14F5D
330
747D
100
AcDbEntity
  8
部品1
100
AcDbLine
 10
9914.83059106531
 20
3808.408999495949
 30
-0.0000000000013153
 11
9914.83059106531
 21
3818.408999495949
 31
-0.0000000000013153
  0
LINE
  5
14F5E
330
747D
100
AcDbEntity
  8
部品1
100
AcDbLine
 10
9892.891280836103
 20
3818.408999495949
 30
-0.0000000000013153
 11
9914.83059106531
 21
3818.408999495949
 31
-0.0000000000013153
  0
ARC
  5
14F5F
330
747D
100
AcDbEntity
  8
部品1
100
AcDbCircle
 10
9872.860935950678
 20
3542.408999495949
 30
-0.0000000000013153
 40
37.0
100
AcDbArc
 50
270.0
 51
0.0
  0
ARC
  5
14F60
330
747D
100
AcDbEntity
  8
部品1
100
AcDbCircle
 10
9872.860935950678
 20
3542.408999495949
 30
-0.0000000000013153
 40
25.0
100
AcDbArc
 50
270.0
 51
0.0
  0
LINE
  5
14F61
330
747D
100
AcDbEntity
  8
部品1
100
AcDbLine
 10
9853.860935950677
 20
3517.408999495949
 30
-0.0000000000013153
 11
9853.860935950677
 21
3505.408999495949
 31
-0.0000000000013153
  0
LINE
  5
14F62
330
747D
100
AcDbEntity
  8
部品1
100
AcDbLine
 10
9872.860935950678
 20
3505.408999495949
 30
-0.0000000000013153
 11
9853.860935950677
 21
3505.408999495949
 31
-0.0000000000013153
  0
LINE
  5
14F63
330
747D
100
AcDbEntity
  8
部品1
100
AcDbLine
 10
9872.860935950678
 20
3517.408999495949
 30
-0.0000000000013153
 11
9853.860935950677
 21
3517.408999495949
 31
-0.0000000000013153
  0
LINE
  5
14F64
330
747D
100
AcDbEntity
  8
部品1
100
AcDbLine
 10
9909.860935950678
 20
3826.408999495948
 30
-0.0000000000013153
 11
9909.860935950678
 21
3818.408999495949
 31
-0.0000000000013153
  0
LINE
  5
14F65
330
747D
100
AcDbEntity
  8
部品1
100
AcDbLine
 10
9897.860935950678
 20
3826.408999495948
 30
-0.0000000000013153
 11
9897.860935950678
 21
3818.408999495949
 31
-0.0000000000013153
  0
LINE
  5
14F66
330
747D
100
AcDbEntity
  8
部品1
100
AcDbLine
 10
9897.860935950678
 20
3826.408999495948
 30
-0.0000000000013153
 11
9909.860935950678
 21
3826.408999495948
 31
-0.0000000000013153
  0
LINE
  5
14F67
330
747D
100
AcDbEntity
  8
CSLAYER17
  6
Continuous
 62
     7
100
AcDbLine
 10
10127.41093595066
 20
3858.408999495948
 30
-0.0000000000013153
 11
10137.41093595066
 21
3848.408999495949
 31
-0.0000000000013153
  0
LINE
  5
14F68
330
747D
100
AcDbEntity
  8
CSLAYER17
  6
Continuous
 62
     7
100
AcDbLine
 10
9880.310935950689
 20
3858.408999495948
 30
-0.0000000000013153
 11
9870.310935950691
 21
3848.408999495949
 31
-0.0000000000013153
  0
LINE
  5
14F69
330
747D
100
AcDbEntity
  8
CSLAYER17
  6
Continuous
 62
     7
100
AcDbLine
 10
9958.810935950689
 20
3818.408999495949
 30
-0.0000000000013153
 11
9948.810935950689
 21
3808.408999495949
 31
-0.0000000000013153
  0
LINE
  5
14F6A
330
747D
100
AcDbEntity
  8
部品1
100
AcDbLine
 10
9958.810935950689
 20
3858.408999495948
 30
-0.0000000000013153
 11
9958.810935950689
 21
3818.408999495949
 31
-0.0000000000013153
  0
LINE
  5
14F6B
330
747D
100
AcDbEntity
  8
部品1
100
AcDbLine
 10
10048.91093595066
 20
3858.408999495948
 30
-0.0000000000013153
 11
10048.91093595066
 21
3818.408999495949
 31
-0.0000000000013153
  0
LINE
  5
14F6C
330
747D
100
AcDbEntity
  8
CSLAYER17
  6
Continuous
 62
     7
100
AcDbLine
 10
10048.91093595066
 20
3818.408999495949
 30
-0.0000000000013153
 11
10058.91093595066
 21
3808.408999495949
 31
-0.0000000000013153
  0
LINE
  5
14F6D
330
747D
100
AcDbEntity
  8
CSLAYER17
  6
Continuous
 62
     7
100
AcDbLine
 10
10048.91093595066
 20
3858.408999495948
 30
-0.0000000000013153
 11
10127.41093595066
 21
3858.408999495948
 31
-0.0000000000013153
  0
LINE
  5
14F6E
330
747D
100
AcDbEntity
  8
CSLAYER17
  6
Continuous
 62
     7
100
AcDbLine
 10
9870.310935950691
 20
3848.408999495949
 30
-0.0000000000013153
 11
9870.310935950691
 21
3808.408999495949
 31
-0.0000000000013153
  0
LINE
  5
14F6F
330
747D
100
AcDbEntity
  8
CSLAYER17
  6
Continuous
 62
     7
100
AcDbLine
 10
10137.41093595066
 20
3848.408999495949
 30
-0.0000000000013153
 11
10137.41093595066
 21
3808.408999495949
 31
-0.0000000000013153
  0
LINE
  5
14F70
330
747D
100
AcDbEntity
  8
CSLAYER17
  6
Continuous
 62
     7
100
AcDbLine
 10
9880.310935950689
 20
3858.408999495948
 30
-0.0000000000013153
 11
9958.810935950689
 21
3858.408999495948
 31
-0.0000000000013153
  0
LINE
  5
14F71
330
747D
100
AcDbEntity
  8
CSLAYER17
  6
Continuous
 62
     7
100
AcDbLine
 10
10001.61093595067
 20
3858.408999495948
 30
-0.0000000000013153
 11
10006.11093595068
 21
3858.408999495948
 31
-0.0000000000013153
  0
LINE
  5
14F72
330
747D
100
AcDbEntity
  8
CSLAYER17
  6
Continuous
 62
     7
100
AcDbLine
 10
10006.11093595068
 20
3858.408999495948
 30
-0.0000000000013153
 11
10006.11093595068
 21
3808.408999495949
 31
-0.0000000000013153
  0
LINE
  5
14F73
330
747D
100
AcDbEntity
  8
CSLAYER17
  6
Continuous
 62
     7
100
AcDbLine
 10
10001.61093595067
 20
3858.408999495948
 30
-0.0000000000013153
 11
10001.61093595067
 21
3808.408999495949
 31
-0.0000000000013153
  0
LINE
  5
14F74
330
747D
100
AcDbEntity
  8
CSLAYER17
  6
Continuous
 62
     7
100
AcDbLine
 10
10143.86093595067
 20
3808.408999495949
 30
-0.0000000000013153
 11
10143.86093595067
 21
3796.408999495949
 31
-0.0000000000013153
  0
LINE
  5
14F75
330
747D
100
AcDbEntity
  8
CSLAYER17
  6
Continuous
 62
     7
100
AcDbLine
 10
9863.860935950677
 20
3796.408999495949
 30
-0.0000000000013153
 11
9863.860935950677
 21
3808.408999495949
 31
-0.0000000000013153
  0
LINE
  5
14F76
330
747D
100
AcDbEntity
  8
CSLAYER17
  6
Continuous
 62
     7
100
AcDbLine
 10
9863.860935950677
 20
3808.408999495949
 30
-0.0000000000013153
 11
10143.86093595067
 21
3808.408999495949
 31
-0.0000000000013153
  0
LINE
  5
14F77
330
747D
100
AcDbEntity
  8
CSLAYER17
  6
Continuous
 62
     7
100
AcDbLine
 10
9863.860935950677
 20
3796.408999495949
 30
-0.0000000000013153
 11
10143.86093595067
 21
3796.408999495949
 31
-0.0000000000013153
  0
LINE
  5
14F78
330
747D
100
AcDbEntity
  8
部品1
 48
50.0
100
AcDbLine
 10
10048.52416784621
 20
3808.408999495949
 30
-0.0000000000013153
 11
9959.310935950689
 21
3808.408999495949
 31
-0.0000000000013153
  0
LINE
  5
14F79
330
747D
100
AcDbEntity
  8
部品1
 48
50.0
100
AcDbLine
 10
9959.310935950689
 20
4312.342095440878
 30
-0.0000000000013153
 11
9959.310935950689
 21
3808.408999495963
 31
-0.0000000000013153
  0
LINE
  5
14F7A
330
747D
100
AcDbEntity
  8
部品1
 48
50.0
100
AcDbLine
 10
10048.41093595066
 20
4312.342095440878
 30
-0.0000000000013153
 11
10048.41093595066
 21
3808.408999495963
 31
-0.0000000000013153
  0
LINE
  5
14F7B
330
747D
100
AcDbEntity
  8
センター
 48
10.0
100
AcDbLine
 10
9653.860935950678
 20
4390.88183235099
 30
-0.0000000000013153
 11
9653.860935950678
 21
3255.351167666069
 31
-0.0000000000013153
  0
LINE
  5
14F7C
330
747D
100
AcDbEntity
  8
センター
 48
10.0
100
AcDbLine
 10
10003.86093595067
 20
4390.88183235099
 30
-0.0000000000013153
 11
10003.86093595067
 21
3255.351167666069
 31
-0.0000000000013153
  0
DIMENSION
  5
14F7D
330
747D
100
AcDbEntity
  8
寸法
 48
50.0
100
AcDbDimension
  2
*D11
 10
8708.184640185701
 20
3826.408999495935
 30
-0.0000000000013153
 11
8708.184640185701
 21
3609.180653039242
 31
-0.0000000000013153
 70
   160
 71
     5
 42
60.00000000000046
  3
INABA_S30G
100
AcDbAlignedDimension
 13
9065.679744865422
 23
3766.408999495934
 33
-0.0000000000013153
 14
9547.860935950678
 24
3826.408999495934
 34
-0.0000000000013153
 50
90.0
100
AcDbRotatedDimension
  0
DIMENSION
  5
14F7E
330
747D
100
AcDbEntity
  8
寸法
 48
50.0
100
AcDbDimension
  2
*D12
 10
8908.360543579005
 20
3796.40899949595
 30
-0.0000000000013153
 11
8908.360543579005
 21
3536.873566425069
 31
-0.0000000000013153
 70
   160
 71
     5
 42
30.00000000001501
  3
INABA_S30G
100
AcDbAlignedDimension
 13
9065.679744865422
 23
3766.408999495934
 33
-0.0000000000013153
 14
9513.860935950678
 24
3796.408999495949
 34
-0.0000000000013153
 50
90.0
100
AcDbRotatedDimension
  0
LINE
  5
14F7F
330
747D
100
AcDbEntity
  8
寸法
 48
50.0
100
AcDbLine
 10
10977.4986034721
 20
2792.165491092817
 30
-0.0000000000013153
 11
10109.86093595068
 21
3669.408999495948
 31
-0.0000000000013153
  0
TEXT
  5
14F80
330
747D
100
AcDbEntity
  8
寸法
 62
     7
 48
50.0
100
AcDbText
 10
11015.24396955422
 20
2684.887116108525
 30
-0.0000000000013153
 40
90.0
  1
M12X350（市販品）
  7
STYLE1
100
AcDbText
  0
TEXT
  5
14F81
330
747D
100
AcDbEntity
  8
寸法
 62
     7
 48
50.0
100
AcDbText
 10
11015.24396955422
 20
2804.433394624966
 30
-0.0000000000013153
 40
90.0
  1
アンカーボルト
  7
STYLE1
100
AcDbText
  0
LINE
  5
14F82
330
747D
100
AcDbEntity
  8
寸法
 48
50.0
100
AcDbLine
 10
10977.4986034721
 20
2792.165491092817
 30
-0.0000000000013153
 11
11970.42592999272
 21
2792.165491092817
 31
-0.0000000000013153
  0
LINE
  5
150BF
330
747D
100
AcDbEntity
  8
部品1
 48
50.0
100
AcDbLine
 10
7298.561478906053
 20
4560.735182624829
 30
-0.0000000000013153
 11
6498.561478906053
 21
4560.735182624829
 31
-0.0000000000013153
  0
LINE
  5
150C0
330
747D
100
AcDbEntity
  8
部品1
 48
50.0
100
AcDbLine
 10
6498.561478906053
 20
3160.735182624829
 30
-0.0000000000013153
 11
7298.561478906053
 21
3160.735182624829
 31
-0.0000000000013153
  0
LINE
  5
150C1
330
747D
100
AcDbEntity
  8
部品1
 48
50.0
100
AcDbLine
 10
6498.561478906053
 20
4560.735182624829
 30
-0.0000000000013153
 11
6498.561478906053
 21
3160.735182624829
 31
-0.0000000000013153
  0
LINE
  5
150C2
330
747D
100
AcDbEntity
  8
部品1
 48
50.0
100
AcDbLine
 10
898.5614789060528
 20
3160.735182624829
 30
-0.0000000000013153
 11
1698.561478906053
 21
3160.735182624829
 31
-0.0000000000013153
  0
LINE
  5
150C3
330
747D
100
AcDbEntity
  8
部品1
 48
50.0
100
AcDbLine
 10
1698.561478906053
 20
4560.735182624829
 30
-0.0000000000013153
 11
1698.561478906053
 21
3160.735182624829
 31
-0.0000000000013153
  0
LINE
  5
150C4
330
747D
100
AcDbEntity
  8
部品1
 48
50.0
100
AcDbLine
 10
1698.561478906053
 20
4560.735182624829
 30
-0.0000000000013153
 11
898.5614789060528
 21
4560.735182624829
 31
-0.0000000000013153
  0
LINE
  5
150C5
330
747D
100
AcDbEntity
  8
想像線
 48
10.0
100
AcDbLine
 10
1068.561478906111
 20
1822.235182624814
 30
-0.0000000000013153
 11
4826.6554318608
 21
1822.235182624823
 31
-0.0000000000013153
  0
LINE
  5
150C6
330
747D
100
AcDbEntity
  8
想像線
 48
10.0
100
AcDbLine
 10
7128.561478905995
 20
1822.235182624828
 30
-0.0000000000013153
 11
7128.561478905995
 21
5899.235182624829
 31
-0.0000000000013153
  0
LINE
  5
150C7
330
747D
100
AcDbEntity
  8
想像線
 48
10.0
100
AcDbLine
 10
7128.561478905995
 20
5899.235182624829
 30
-0.0000000000013153
 11
5576.003330565786
 21
5899.235182624827
 31
-0.0000000000013153
  0
LINE
  5
150C8
330
747D
100
AcDbEntity
  8
想像線
 48
10.0
100
AcDbLine
 10
1068.561478906111
 20
1822.235182624828
 30
-0.0000000000013153
 11
1068.561478906082
 21
5899.235182624829
 31
-0.0000000000013153
  0
LINE
  5
150C9
330
747D
100
AcDbEntity
  8
センター
 48
10.0
100
AcDbLine
 10
1048.561478906053
 20
3685.735182624829
 30
-0.0000000000013153
 11
5155.240760411031
 21
3685.735182624829
 31
-0.0000000000013153
  0
CIRCLE
  5
150CA
330
747D
100
AcDbEntity
  8
部品1
 48
50.0
100
AcDbCircle
 10
6998.561478906053
 20
3785.735182624829
 30
-0.0000000000013153
 40
15.0
  0
LINE
  5
150CB
330
747D
100
AcDbEntity
  8
センター
 48
3.0
100
AcDbLine
 10
6998.561478906053
 20
3860.735182624829
 30
-0.0000000000013153
 11
6998.561478906053
 21
3710.735182624829
 31
-0.0000000000013153
  0
LINE
  5
150CC
330
747D
100
AcDbEntity
  8
センター
 48
3.0
100
AcDbLine
 10
6923.561478906053
 20
3785.735182624829
 30
-0.0000000000013153
 11
7073.561478906054
 21
3785.735182624829
 31
-0.0000000000013153
  0
LINE
  5
150CD
330
747D
100
AcDbEntity
  8
センター
 48
3.0
100
AcDbLine
 10
6998.561478906053
 20
3660.735182624829
 30
-0.0000000000013153
 11
6998.561478906053
 21
3510.735182624829
 31
-0.0000000000013153
  0
CIRCLE
  5
150CE
330
747D
100
AcDbEntity
  8
部品1
 48
50.0
100
AcDbCircle
 10
6998.561478906053
 20
3585.735182624829
 30
-0.0000000000013153
 40
15.0
  0
LINE
  5
150CF
330
747D
100
AcDbEntity
  8
センター
 48
3.0
100
AcDbLine
 10
6923.561478906053
 20
3585.735182624829
 30
-0.0000000000013153
 11
7073.561478906054
 21
3585.735182624829
 31
-0.0000000000013153
  0
LINE
  5
150D0
330
747D
100
AcDbEntity
  8
センター
 48
10.0
100
AcDbLine
 10
6898.561478906053
 20
3435.735182624829
 30
-0.0000000000013153
 11
6898.561478906053
 21
3935.735182624829
 31
-0.0000000000013153
  0
CIRCLE
  5
150D1
330
747D
100
AcDbEntity
  8
部品1
 48
50.0
100
AcDbCircle
 10
6798.561478906053
 20
3785.735182624829
 30
-0.0000000000013153
 40
15.0
  0
LINE
  5
150D2
330
747D
100
AcDbEntity
  8
センター
 48
3.0
100
AcDbLine
 10
6798.561478906053
 20
3860.735182624829
 30
-0.0000000000013153
 11
6798.561478906053
 21
3710.735182624829
 31
-0.0000000000013153
  0
LINE
  5
150D3
330
747D
100
AcDbEntity
  8
センター
 48
3.0
100
AcDbLine
 10
6798.561478906053
 20
3660.735182624829
 30
-0.0000000000013153
 11
6798.561478906053
 21
3510.735182624829
 31
-0.0000000000013153
  0
CIRCLE
  5
150D4
330
747D
100
AcDbEntity
  8
部品1
 48
50.0
100
AcDbCircle
 10
6798.561478906053
 20
3585.735182624829
 30
-0.0000000000013153
 40
15.0
  0
LINE
  5
150D5
330
747D
100
AcDbEntity
  8
センター
 48
10.0
100
AcDbLine
 10
6648.561478906053
 20
3685.735182624829
 30
-0.0000000000013153
 11
7148.561478906053
 21
3685.735182624829
 31
-0.0000000000013153
  0
LINE
  5
150D6
330
747D
100
AcDbEntity
  8
センター
 48
3.0
100
AcDbLine
 10
6723.561478906053
 20
3785.735182624829
 30
-0.0000000000013153
 11
6873.561478906053
 21
3785.735182624829
 31
-0.0000000000013153
  0
LINE
  5
150D7
330
747D
100
AcDbEntity
  8
センター
 48
3.0
100
AcDbLine
 10
6723.561478906053
 20
3585.735182624829
 30
-0.0000000000013153
 11
6873.561478906053
 21
3585.735182624829
 31
-0.0000000000013153
  0
LINE
  5
150D8
330
747D
100
AcDbEntity
  8
センター
 48
3.0
100
AcDbLine
 10
1123.561478906053
 20
3585.735182624829
 30
-0.0000000000013153
 11
1273.561478906053
 21
3585.735182624829
 31
-0.0000000000013153
  0
LINE
  5
150D9
330
747D
100
AcDbEntity
  8
センター
 48
3.0
100
AcDbLine
 10
1123.561478906053
 20
3785.735182624829
 30
-0.0000000000013153
 11
1273.561478906053
 21
3785.735182624829
 31
-0.0000000000013153
  0
LINE
  5
150DA
330
747D
100
AcDbEntity
  8
センター
 48
10.0
100
AcDbLine
 10
1048.561478906053
 20
3685.735182624829
 30
-0.0000000000013153
 11
1548.561478906053
 21
3685.735182624829
 31
-0.0000000000013153
  0
CIRCLE
  5
150DB
330
747D
100
AcDbEntity
  8
部品1
 48
50.0
100
AcDbCircle
 10
1198.561478906053
 20
3585.735182624829
 30
-0.0000000000013153
 40
15.0
  0
LINE
  5
150DC
330
747D
100
AcDbEntity
  8
センター
 48
3.0
100
AcDbLine
 10
1198.561478906053
 20
3660.735182624829
 30
-0.0000000000013153
 11
1198.561478906053
 21
3510.735182624829
 31
-0.0000000000013153
  0
LINE
  5
150DD
330
747D
100
AcDbEntity
  8
センター
 48
3.0
100
AcDbLine
 10
1198.561478906053
 20
3860.735182624829
 30
-0.0000000000013153
 11
1198.561478906053
 21
3710.735182624829
 31
-0.0000000000013153
  0
CIRCLE
  5
150DE
330
747D
100
AcDbEntity
  8
部品1
 48
50.0
100
AcDbCircle
 10
1198.561478906053
 20
3785.735182624829
 30
-0.0000000000013153
 40
15.0
  0
LINE
  5
150DF
330
747D
100
AcDbEntity
  8
センター
 48
10.0
100
AcDbLine
 10
1298.561478906053
 20
3435.735182624829
 30
-0.0000000000013153
 11
1298.561478906053
 21
3935.735182624829
 31
-0.0000000000013153
  0
LINE
  5
150E0
330
747D
100
AcDbEntity
  8
センター
 48
3.0
100
AcDbLine
 10
1323.561478906053
 20
3585.735182624829
 30
-0.0000000000013153
 11
1473.561478906053
 21
3585.735182624829
 31
-0.0000000000013153
  0
CIRCLE
  5
150E1
330
747D
100
AcDbEntity
  8
部品1
 48
50.0
100
AcDbCircle
 10
1398.561478906053
 20
3585.735182624829
 30
-0.0000000000013153
 40
15.0
  0
LINE
  5
150E2
330
747D
100
AcDbEntity
  8
センター
 48
3.0
100
AcDbLine
 10
1398.561478906053
 20
3660.735182624829
 30
-0.0000000000013153
 11
1398.561478906053
 21
3510.735182624829
 31
-0.0000000000013153
  0
LINE
  5
150E3
330
747D
100
AcDbEntity
  8
センター
 48
3.0
100
AcDbLine
 10
1323.561478906053
 20
3785.735182624829
 30
-0.0000000000013153
 11
1473.561478906053
 21
3785.735182624829
 31
-0.0000000000013153
  0
LINE
  5
150E4
330
747D
100
AcDbEntity
  8
センター
 48
3.0
100
AcDbLine
 10
1398.561478906053
 20
3860.735182624829
 30
-0.0000000000013153
 11
1398.561478906053
 21
3710.735182624829
 31
-0.0000000000013153
  0
CIRCLE
  5
150E5
330
747D
100
AcDbEntity
  8
部品1
 48
50.0
100
AcDbCircle
 10
1398.561478906053
 20
3785.735182624829
 30
-0.0000000000013153
 40
15.0
  0
LINE
  5
150E6
330
747D
100
AcDbEntity
  8
文字
 48
50.0
100
AcDbLine
 10
898.5614789060528
 20
6035.735182624829
 30
-0.0000000000013153
 11
5569.609165075916
 21
6035.735182624829
 31
-0.0000000000013153
  0
LINE
  5
150E7
330
747D
100
AcDbEntity
  8
部品1
 48
30.0
100
AcDbLine
 10
898.5614789060528
 20
1685.735182624829
 30
-0.0000000000013153
 11
4802.586798994096
 21
1685.735182624829
 31
-0.0000000000013153
  0
LINE
  5
150E8
330
747D
100
AcDbEntity
  8
部品1
 48
50.0
100
AcDbLine
 10
898.5614789060528
 20
6035.735182624829
 30
-0.0000000000013153
 11
898.5614789060528
 21
1685.735182624829
 31
-0.0000000000013153
  0
LINE
  5
150E9
330
747D
100
AcDbEntity
  8
部品1
 48
50.0
100
AcDbLine
 10
7298.561478906053
 20
6035.735182624829
 30
-0.0000000000013153
 11
7298.561478906053
 21
1685.735182624829
 31
-0.0000000000013153
  0
MTEXT
  5
150EA
330
747D
100
AcDbEntity
  8
寸法
 62
     7
 48
50.0
100
AcDbMText
 10
1124.553363688264
 20
1939.515228492319
 30
-0.0000000000013153
 40
90.0
 41
0.0
 71
     4
 72
     1
  1
\A1;床コンクリート打コテ押エ
  7
STYLE1
 73
     1
 44
1.0
1001
ACAD
1000
MTEXTBEGIN
1070
    73
1070
     1
1070
    44
1040
1.0
1070
    74
1070
     0
1000
MTEXTEND
  0
LINE
  5
150EB
330
747D
100
AcDbEntity
  8
センター
 48
10.0
100
AcDbLine
 10
1048.561478906053
 20
4035.735182624828
 30
-0.0000000000013153
 11
5216.955203658985
 21
4035.735182624828
 31
-0.0000000000013153
  0
CIRCLE
  5
150EC
330
747D
100
AcDbEntity
  8
部品1
 48
50.0
100
AcDbCircle
 10
6998.561478906053
 20
4135.735182624829
 30
-0.0000000000013153
 40
15.0
  0
LINE
  5
150ED
330
747D
100
AcDbEntity
  8
センター
 48
3.0
100
AcDbLine
 10
6998.561478906053
 20
4210.735182624829
 30
-0.0000000000013153
 11
6998.561478906053
 21
4060.735182624829
 31
-0.0000000000013153
  0
LINE
  5
150EE
330
747D
100
AcDbEntity
  8
センター
 48
3.0
100
AcDbLine
 10
6923.561478906053
 20
4135.735182624829
 30
-0.0000000000013153
 11
7073.561478906054
 21
4135.735182624829
 31
-0.0000000000013153
  0
LINE
  5
150EF
330
747D
100
AcDbEntity
  8
センター
 48
3.0
100
AcDbLine
 10
6998.561478906053
 20
4010.735182624829
 30
-0.0000000000013153
 11
6998.561478906053
 21
3860.735182624829
 31
-0.0000000000013153
  0
CIRCLE
  5
150F0
330
747D
100
AcDbEntity
  8
部品1
 48
50.0
100
AcDbCircle
 10
6998.561478906053
 20
3935.735182624829
 30
-0.0000000000013153
 40
15.0
  0
LINE
  5
150F1
330
747D
100
AcDbEntity
  8
センター
 48
3.0
100
AcDbLine
 10
6923.561478906053
 20
3935.735182624829
 30
-0.0000000000013153
 11
7073.561478906054
 21
3935.735182624829
 31
-0.0000000000013153
  0
LINE
  5
150F2
330
747D
100
AcDbEntity
  8
センター
 48
10.0
100
AcDbLine
 10
6898.561478906053
 20
3785.735182624829
 30
-0.0000000000013153
 11
6898.561478906053
 21
4285.735182624828
 31
-0.0000000000013153
  0
CIRCLE
  5
150F3
330
747D
100
AcDbEntity
  8
部品1
 48
50.0
100
AcDbCircle
 10
6798.561478906053
 20
4135.735182624829
 30
-0.0000000000013153
 40
15.0
  0
LINE
  5
150F4
330
747D
100
AcDbEntity
  8
センター
 48
3.0
100
AcDbLine
 10
6798.561478906053
 20
4210.735182624829
 30
-0.0000000000013153
 11
6798.561478906053
 21
4060.735182624829
 31
-0.0000000000013153
  0
LINE
  5
150F5
330
747D
100
AcDbEntity
  8
センター
 48
3.0
100
AcDbLine
 10
6798.561478906053
 20
4010.735182624829
 30
-0.0000000000013153
 11
6798.561478906053
 21
3860.735182624829
 31
-0.0000000000013153
  0
CIRCLE
  5
150F6
330
747D
100
AcDbEntity
  8
部品1
 48
50.0
100
AcDbCircle
 10
6798.561478906053
 20
3935.735182624829
 30
-0.0000000000013153
 40
15.0
  0
LINE
  5
150F7
330
747D
100
AcDbEntity
  8
センター
 48
10.0
100
AcDbLine
 10
6648.561478906053
 20
4035.735182624828
 30
-0.0000000000013153
 11
7148.561478906053
 21
4035.735182624828
 31
-0.0000000000013153
  0
LINE
  5
150F8
330
747D
100
AcDbEntity
  8
センター
 48
3.0
100
AcDbLine
 10
6723.561478906053
 20
4135.735182624829
 30
-0.0000000000013153
 11
6873.561478906053
 21
4135.735182624829
 31
-0.0000000000013153
  0
LINE
  5
150F9
330
747D
100
AcDbEntity
  8
センター
 48
3.0
100
AcDbLine
 10
6723.561478906053
 20
3935.735182624829
 30
-0.0000000000013153
 11
6873.561478906053
 21
3935.735182624829
 31
-0.0000000000013153
  0
LINE
  5
150FA
330
747D
100
AcDbEntity
  8
センター
 48
3.0
100
AcDbLine
 10
1123.561478906053
 20
3935.735182624829
 30
-0.0000000000013153
 11
1273.561478906053
 21
3935.735182624829
 31
-0.0000000000013153
  0
LINE
  5
150FB
330
747D
100
AcDbEntity
  8
センター
 48
3.0
100
AcDbLine
 10
1123.561478906053
 20
4135.735182624829
 30
-0.0000000000013153
 11
1273.561478906053
 21
4135.735182624829
 31
-0.0000000000013153
  0
LINE
  5
150FC
330
747D
100
AcDbEntity
  8
センター
 48
10.0
100
AcDbLine
 10
1048.561478906053
 20
4035.735182624828
 30
-0.0000000000013153
 11
1548.561478906053
 21
4035.735182624828
 31
-0.0000000000013153
  0
CIRCLE
  5
150FD
330
747D
100
AcDbEntity
  8
部品1
 48
50.0
100
AcDbCircle
 10
1198.561478906053
 20
3935.735182624829
 30
-0.0000000000013153
 40
15.0
  0
LINE
  5
150FE
330
747D
100
AcDbEntity
  8
センター
 48
3.0
100
AcDbLine
 10
1198.561478906053
 20
4010.735182624829
 30
-0.0000000000013153
 11
1198.561478906053
 21
3860.735182624829
 31
-0.0000000000013153
  0
LINE
  5
150FF
330
747D
100
AcDbEntity
  8
センター
 48
3.0
100
AcDbLine
 10
1198.561478906053
 20
4210.735182624829
 30
-0.0000000000013153
 11
1198.561478906053
 21
4060.735182624829
 31
-0.0000000000013153
  0
CIRCLE
  5
15100
330
747D
100
AcDbEntity
  8
部品1
 48
50.0
100
AcDbCircle
 10
1198.561478906053
 20
4135.735182624829
 30
-0.0000000000013153
 40
15.0
  0
LINE
  5
15101
330
747D
100
AcDbEntity
  8
センター
 48
10.0
100
AcDbLine
 10
1298.561478906053
 20
3785.735182624829
 30
-0.0000000000013153
 11
1298.561478906053
 21
4285.735182624828
 31
-0.0000000000013153
  0
LINE
  5
15102
330
747D
100
AcDbEntity
  8
センター
 48
3.0
100
AcDbLine
 10
1323.561478906053
 20
3935.735182624829
 30
-0.0000000000013153
 11
1473.561478906053
 21
3935.735182624829
 31
-0.0000000000013153
  0
CIRCLE
  5
15103
330
747D
100
AcDbEntity
  8
部品1
 48
50.0
100
AcDbCircle
 10
1398.561478906053
 20
3935.735182624829
 30
-0.0000000000013153
 40
15.0
  0
LINE
  5
15104
330
747D
100
AcDbEntity
  8
センター
 48
3.0
100
AcDbLine
 10
1398.561478906053
 20
4010.735182624829
 30
-0.0000000000013153
 11
1398.561478906053
 21
3860.735182624829
 31
-0.0000000000013153
  0
LINE
  5
15105
330
747D
100
AcDbEntity
  8
センター
 48
3.0
100
AcDbLine
 10
1323.561478906053
 20
4135.735182624829
 30
-0.0000000000013153
 11
1473.561478906053
 21
4135.735182624829
 31
-0.0000000000013153
  0
LINE
  5
15106
330
747D
100
AcDbEntity
  8
センター
 48
3.0
100
AcDbLine
 10
1398.561478906053
 20
4210.735182624829
 30
-0.0000000000013153
 11
1398.561478906053
 21
4060.735182624829
 31
-0.0000000000013153
  0
CIRCLE
  5
15107
330
747D
100
AcDbEntity
  8
部品1
 48
50.0
100
AcDbCircle
 10
1398.561478906053
 20
4135.735182624829
 30
-0.0000000000013153
 40
15.0
  0
LINE
  5
15108
330
747D
100
AcDbEntity
  8
寸法
 48
50.0
100
AcDbLine
 10
2410.183515575515
 20
2793.309054592473
 30
-0.0000000000013153
 11
2377.335232742746
 21
2915.90051506593
 31
-0.0000000000013153
  0
LINE
  5
15109
330
747D
100
AcDbEntity
  8
寸法
 48
50.0
100
AcDbLine
 10
2410.183515575515
 20
2793.309054592473
 30
-0.0000000000013153
 11
2443.031798408342
 21
2915.90051506593
 31
-0.0000000000013153
  0
LINE
  5
1510A
330
747D
100
AcDbEntity
  8
寸法
 48
50.0
100
AcDbLine
 10
2410.183515575515
 20
3579.024283025656
 30
-0.0000000000013153
 11
2410.183515575515
 21
2793.309054592473
 31
-0.0000000000013153
  0
MTEXT
  5
1510B
330
747D
100
AcDbEntity
  8
寸法
 62
     7
 48
50.0
100
AcDbMText
 10
2315.745579509738
 20
2932.022360719619
 30
-0.0000000000013153
 40
90.0
 41
0.0
 71
     4
 72
     1
  1
\A1;水勾配 1/100 
  7
STYLE1
 11
0.0000000000000001
 21
1.0
 31
0.0
 73
     1
 44
1.0
1001
ACAD
1000
MTEXTBEGIN
1070
    73
1070
     1
1070
    44
1040
1.0
1070
    74
1070
     0
1000
MTEXTEND
  0
DIMENSION
  5
1510F
330
747D
100
AcDbEntity
  8
寸法
 48
50.0
100
AcDbDimension
  2
*D13
 10
7128.561478905995
 20
1357.247464288282
 30
-0.0000000000013153
 11
4098.561478906052
 21
1432.256322555999
 31
-0.0000000000013153
 70
    32
  1
屋根寸法 N \U+00D72800 ＋ 460
 71
     5
 42
6059.999999999884
  3
INABA_S30G
100
AcDbAlignedDimension
 13
1068.561478906111
 23
1822.235182624814
 33
-0.0000000000013153
 14
7128.561478905995
 24
1822.235182624828
 34
-0.0000000000013153
100
AcDbRotatedDimension
  0
DIMENSION
  5
15110
330
747D
100
AcDbEntity
  8
寸法
 48
50.0
100
AcDbDimension
  2
*D14
 10
898.5614789060528
 20
1357.247464288282
 30
-0.0000000000013153
 11
983.5614789060819
 21
1432.247464288282
 31
-0.0000000000013153
 70
    32
 71
     5
 42
170.0000000000582
  3
INABA_S30G
100
AcDbAlignedDimension
 13
1068.561478906111
 23
1822.235182624814
 33
-0.0000000000013153
 14
898.5614789060528
 24
1685.735182624829
 34
-0.0000000000013153
100
AcDbRotatedDimension
  0
DIMENSION
  5
15111
330
747D
100
AcDbEntity
  8
寸法
 48
50.0
100
AcDbDimension
  2
*D15
 10
7298.561478906053
 20
1357.247464288282
 30
-0.0000000000013153
 11
7213.561478906024
 21
1432.247464288282
 31
-0.0000000000013153
 70
    32
 71
     5
 42
170.0000000000582
  3
INABA_S30G
100
AcDbAlignedDimension
 13
7128.561478905995
 23
1822.235182624828
 33
-0.0000000000013153
 14
7298.561478906053
 24
1685.735182624829
 34
-0.0000000000013153
100
AcDbRotatedDimension
  0
DIMENSION
  5
15115
330
747D
100
AcDbEntity
  8
寸法
 48
50.0
100
AcDbDimension
  2
*D16
 10
7680.835701269654
 20
1685.735182624828
 30
-0.0000000000013153
 11
7680.835701269654
 21
1461.87122159415
 31
-0.0000000000013153
 70
   160
 71
     5
 42
136.5
  3
INABA_S30G
100
AcDbAlignedDimension
 13
7128.561478905995
 23
1822.235182624828
 33
-0.0000000000013153
 14
7298.561478906053
 24
1685.735182624829
 34
-0.0000000000013153
 50
90.0
100
AcDbRotatedDimension
  0
DIMENSION
  5
15116
330
747D
100
AcDbEntity
  8
寸法
 48
50.0
100
AcDbDimension
  2
*D17
 10
7680.835701269654
 20
1822.235182624828
 30
-0.0000000000013153
 11
7605.835701269654
 21
3860.73518262483
 31
-0.0000000000013153
 70
    32
  1
屋根寸法 <>
 71
     5
 42
4077.0
  3
INABA_S30G
100
AcDbAlignedDimension
 13
7128.561478905995
 23
5899.235182624829
 33
-0.0000000000013153
 14
7128.561478905995
 24
1822.235182624828
 34
-0.0000000000013153
 50
90.0
100
AcDbRotatedDimension
  0
DIMENSION
  5
15117
330
747D
100
AcDbEntity
  8
寸法
 48
50.0
100
AcDbDimension
  2
*D18
 10
7680.835701269654
 20
6035.735182624829
 30
-0.0000000000013153
 11
7680.835701269654
 21
6259.599143655558
 31
-0.0000000000013153
 70
   160
 71
     5
 42
136.5
  3
INABA_S30G
100
AcDbAlignedDimension
 13
7128.561478905995
 23
5899.235182624829
 33
-0.0000000000013153
 14
7298.561478906053
 24
6035.735182624829
 34
-0.0000000000013153
 50
270.0
100
AcDbRotatedDimension
  0
LINE
  5
15133
330
747D
100
AcDbEntity
  8
寸法
 48
50.0
100
AcDbLine
 10
2410.183515575515
 20
4928.161310657184
 30
-0.0000000000013153
 11
2377.335232742746
 21
4805.569850183727
 31
-0.0000000000013153
  0
LINE
  5
15134
330
747D
100
AcDbEntity
  8
寸法
 48
50.0
100
AcDbLine
 10
2410.183515575515
 20
4928.161310657184
 30
-0.0000000000013153
 11
2443.031798408342
 21
4805.569850183727
 31
-0.0000000000013153
  0
LINE
  5
15135
330
747D
100
AcDbEntity
  8
寸法
 48
50.0
100
AcDbLine
 10
2410.183515575515
 20
4142.446082224001
 30
-0.0000000000013153
 11
2410.183515575515
 21
4928.161310657184
 31
-0.0000000000013153
  0
MTEXT
  5
15136
330
747D
100
AcDbEntity
  8
寸法
 62
     7
 48
50.0
100
AcDbMText
 10
2315.745579509738
 20
4181.159388351132
 30
-0.0000000000013153
 40
90.0
 41
0.0
 71
     4
 72
     1
  1
\A1;水勾配 1/100 
  7
STYLE1
 11
0.0000000000000001
 21
1.0
 31
0.0
 73
     1
 44
1.0
1001
ACAD
1000
MTEXTBEGIN
1070
    73
1070
     1
1070
    44
1040
1.0
1070
    74
1070
     0
1000
MTEXTEND
  0
TEXT
  5
15137
330
747D
100
AcDbEntity
  8
寸法
 62
     7
100
AcDbText
 10
5356.705379534837
 20
2561.061451158918
 30
-0.0000000000013153
 40
90.0
  1
ｱﾝｶｰﾎﾞﾙﾄ(市販品)
  7
STYLE1
100
AcDbText
  0
LEADER
  5
15138
330
747D
100
AcDbEntity
  8
寸法
 48
50.0
100
AcDbLeader
  3
INABA_S50G
 76
     3
 10
6798.561478906053
 20
3585.735182624829
 30
-0.0000000000013153
 10
6187.047239925629
 20
2526.561451158917
 30
-0.0000000000013153
 10
5334.15883095851
 20
2526.561451158917
 30
-0.0000000000013153
1001
ACAD
1000
DSTYLE
1002
{
1070
    41
1040
80.0
1070
   147
1040
25.0
1070
    77
1070
     0
1002
}
  0
DIMENSION
  5
15139
330
747D
100
AcDbEntity
  8
寸法
 48
50.0
100
AcDbDimension
  2
*D19
 10
334.9402801783326
 20
1685.735182624829
 30
-0.0000000000013153
 11
259.9402801783325
 21
3860.735182624829
 31
-0.0000000000013153
 70
    32
  1
基礎土間寸法 <>
 71
     5
 42
4350.0
  3
INABA_S30G
100
AcDbAlignedDimension
 13
898.5614789060237
 23
6035.735182624829
 33
-0.0000000000013153
 14
898.5614789060237
 24
1685.735182624829
 34
-0.0000000000013153
 50
90.0
100
AcDbRotatedDimension
  0
DIMENSION
  5
1513A
330
747D
100
AcDbEntity
  8
寸法
 48
50.0
100
AcDbDimension
  2
*D20
 10
557.6896421947785
 20
1685.735182624829
 30
-0.0000000000013153
 11
482.6807839270618
 21
2685.735182624829
 31
-0.0000000000013153
 70
    32
 71
     5
 42
2000.0
  3
INABA_S30G
100
AcDbAlignedDimension
 13
1048.561478906024
 23
3685.735182624829
 33
-0.0000000000013153
 14
898.5614789060237
 24
1685.735182624829
 34
-0.0000000000013153
 50
90.0
100
AcDbRotatedDimension
  0
DIMENSION
  5
1513B
330
747D
100
AcDbEntity
  8
寸法
 48
50.0
100
AcDbDimension
  2
*D21
 10
557.6896421947785
 20
3685.735182624829
 30
-0.0000000000013153
 11
482.689642194778
 21
3860.735182624829
 31
-0.0000000000013153
 70
    32
 71
     5
 42
350.0
  3
INABA_S30G
100
AcDbAlignedDimension
 13
1048.561478906024
 23
4035.735182624828
 33
-0.0000000000013153
 14
1048.561478906024
 24
3685.735182624829
 34
-0.0000000000013153
 50
90.0
100
AcDbRotatedDimension
  0
DIMENSION
  5
1513C
330
747D
100
AcDbEntity
  8
寸法
 48
50.0
100
AcDbDimension
  2
*D22
 10
557.6896421947785
 20
6035.735182624829
 30
-0.0000000000013153
 11
482.6807839270609
 21
5035.735182624829
 31
-0.0000000000013153
 70
    32
 71
     5
 42
2000.0
  3
INABA_S30G
100
AcDbAlignedDimension
 13
1048.561478906024
 23
4035.735182624828
 33
-0.0000000000013153
 14
898.5614789060237
 24
6035.735182624829
 34
-0.0000000000013153
 50
270.0
100
AcDbRotatedDimension
  0
LINE
  5
1513D
330
747D
100
AcDbEntity
  8
寸法
 48
50.0
100
AcDbLine
 10
1044.427648157147
 20
4639.634145104961
 30
-0.0000000000013153
 11
1152.161018740127
 21
4668.501214750542
 31
-0.0000000000013153
  0
LINE
  5
1513E
330
747D
100
AcDbEntity
  8
寸法
 48
50.0
100
AcDbLine
 10
1152.161018740127
 20
4668.501214750542
 30
-0.0000000000013153
 11
1152.161018740127
 21
4602.566595828998
 31
-0.0000000000013153
  0
LINE
  5
1513F
330
747D
100
AcDbEntity
  8
寸法
 48
50.0
100
AcDbLine
 10
1298.561478906053
 20
4639.634145104961
 30
-0.0000000000013153
 11
1044.427648157147
 21
4639.634145104961
 31
-0.0000000000013153
  0
TEXT
  5
15140
330
747D
100
AcDbEntity
  8
寸法
 62
     7
100
AcDbText
 10
934.925998743598
 20
4611.568672303191
 30
-0.0000000000013153
 40
90.0
  1
A'
  7
STYLE1
100
AcDbText
  0
LINE
  5
15141
330
747D
100
AcDbEntity
  8
寸法
 48
50.0
100
AcDbLine
 10
1298.561478906053
 20
3081.836220144696
 30
-0.0000000000013153
 11
1044.427648157147
 21
3081.836220144696
 31
-0.0000000000013153
  0
LINE
  5
15142
330
747D
100
AcDbEntity
  8
寸法
 48
50.0
100
AcDbLine
 10
1044.427648157147
 20
3081.836220144696
 30
-0.0000000000013153
 11
1152.161018740127
 21
3052.969150499115
 31
-0.0000000000013153
  0
LINE
  5
15143
330
747D
100
AcDbEntity
  8
寸法
 48
50.0
100
AcDbLine
 10
1152.161018740127
 20
3052.969150499115
 30
-0.0000000000013153
 11
1152.161018740127
 21
3118.903769420658
 31
-0.0000000000013153
  0
TEXT
  5
15144
330
747D
100
AcDbEntity
  8
寸法
 62
     7
100
AcDbText
 10
933.6673698848789
 20
3039.609017136792
 30
-0.0000000000013153
 40
90.0
  1
A
  7
STYLE1
100
AcDbText
  0
LINE
  5
15145
330
747D
100
AcDbEntity
  8
寸法
 48
50.0
100
AcDbLine
 10
1298.561478906053
 20
3081.836220144696
 30
-0.0000000000013153
 11
1298.561478906053
 21
3435.735182624829
 31
-0.0000000000013153
  0
DIMENSION
  5
15146
330
747D
100
AcDbEntity
  8
寸法
 48
50.0
100
AcDbDimension
  2
*D23
 10
7298.561478906053
 20
6733.261554704566
 30
-0.0000000000013153
 11
4098.561478906052
 21
6808.270412972283
 31
-0.0000000000013153
 70
    32
  1
基礎土間寸法 N \U+00D7 2800 ＋ 800
 71
     5
 42
6400.0
  3
INABA_S30G
100
AcDbAlignedDimension
 13
898.5614789060528
 23
6035.735182624829
 33
-0.0000000000013153
 14
7298.561478906053
 24
6035.735182624829
 34
-0.0000000000013153
100
AcDbRotatedDimension
  0
DIMENSION
  5
15147
330
747D
100
AcDbEntity
  8
寸法
 48
50.0
100
AcDbDimension
  2
*D24
 10
7298.561478906053
 20
6539.224515730248
 30
-0.0000000000013153
 11
7098.561478906053
 21
6614.224515730248
 31
-0.0000000000013153
 70
    32
 71
     5
 42
400.0
  3
INABA_S30G
100
AcDbAlignedDimension
 13
6898.561478906053
 23
4285.735182624828
 33
-0.0000000000013153
 14
7298.561478906053
 24
6035.735182624829
 34
-0.0000000000013153
100
AcDbRotatedDimension
  0
DIMENSION
  5
15148
330
747D
100
AcDbEntity
  8
寸法
 48
50.0
100
AcDbDimension
  2
*D25
 10
6898.561478906053
 20
6539.224515730248
 30
-0.0000000000013153
 11
4098.561478906052
 21
6614.233373997965
 31
-0.0000000000013153
 70
    32
  1
N \U+00D72800
 71
     5
 42
5600.0
  3
INABA_S30G
100
AcDbAlignedDimension
 13
1298.561478906053
 23
4285.735182624828
 33
-0.0000000000013153
 14
6898.561478906053
 24
4285.735182624828
 34
-0.0000000000013153
100
AcDbRotatedDimension
  0
DIMENSION
  5
15149
330
747D
100
AcDbEntity
  8
寸法
 48
50.0
100
AcDbDimension
  2
*D26
 10
1298.561478906053
 20
6539.224515730248
 30
-0.0000000000013153
 11
1098.561478906053
 21
6614.224515730248
 31
-0.0000000000013153
 70
    32
 71
     5
 42
400.0
  3
INABA_S30G
100
AcDbAlignedDimension
 13
898.5614789060528
 23
6035.735182624829
 33
-0.0000000000013153
 14
1298.561478906053
 24
4285.735182624828
 34
-0.0000000000013153
100
AcDbRotatedDimension
  0
DIMENSION
  5
1514A
330
747D
100
AcDbEntity
  8
寸法
 48
50.0
100
AcDbDimension
  2
*D27
 10
6498.561478906023
 20
2922.598966587722
 30
-0.0000000000013153
 11
6698.561478906023
 21
2997.598966587722
 31
-0.0000000000013153
 70
    32
 71
     5
 42
400.0
  3
INABA_S30G
100
AcDbAlignedDimension
 13
6898.561478906024
 23
3435.735182624814
 33
-0.0000000000013153
 14
6498.561478906023
 24
3160.735182624814
 34
-0.0000000000013153
100
AcDbRotatedDimension
  0
DIMENSION
  5
1514B
330
747D
100
AcDbEntity
  8
寸法
 48
50.0
100
AcDbDimension
  2
*D28
 10
7298.561478906053
 20
2684.46275055066
 30
-0.0000000000013153
 11
6898.561478906024
 21
2684.46275055066
 31
-0.0000000000013153
 70
   160
 71
     5
 42
800.0000000000291
  3
INABA_S30G
100
AcDbAlignedDimension
 13
6498.561478906023
 23
3160.735182624814
 33
-0.0000000000013153
 14
7298.561478906053
 24
3160.735182624814
 34
-0.0000000000013153
100
AcDbRotatedDimension
  0
DIMENSION
  5
1514C
330
747D
100
AcDbEntity
  8
寸法
 48
50.0
100
AcDbDimension
  2
*D29
 10
6321.246975621853
 20
3160.7351826248
 30
-0.0000000000013153
 11
6246.238117354135
 21
3423.235182624808
 31
-0.0000000000013153
 70
    32
 71
     5
 42
525.0000000000145
  3
INABA_S30G
100
AcDbAlignedDimension
 13
6648.561478906024
 23
3685.735182624814
 33
-0.0000000000013153
 14
6498.561478906023
 24
3160.7351826248
 34
-0.0000000000013153
 50
90.0
100
AcDbRotatedDimension
  0
DIMENSION
  5
1514D
330
747D
100
AcDbEntity
  8
寸法
 48
50.0
100
AcDbDimension
  2
*D30
 10
6143.932472337681
 20
3160.7351826248
 30
-0.0000000000013153
 11
6068.932472337681
 21
3860.735182624809
 31
-0.0000000000013153
 70
    32
 71
     5
 42
1400.000000000015
  3
INABA_S30G
100
AcDbAlignedDimension
 13
6498.561478906023
 23
4560.735182624814
 33
-0.0000000000013153
 14
6498.561478906023
 24
3160.7351826248
 34
-0.0000000000013153
 50
90.0
100
AcDbRotatedDimension
  0
DIMENSION
  5
1514E
330
747D
100
AcDbEntity
  8
寸法
 48
50.0
100
AcDbDimension
  2
*D31
 10
6321.246975621853
 20
3685.735182624814
 30
-0.0000000000013153
 11
6246.246975621851
 21
3860.735182624815
 31
-0.0000000000013153
 70
    32
 71
     5
 42
350.0
  3
INABA_S30G
100
AcDbAlignedDimension
 13
6648.561478906024
 23
4035.735182624814
 33
-0.0000000000013153
 14
6648.561478906024
 24
3685.735182624814
 34
-0.0000000000013153
 50
90.0
100
AcDbRotatedDimension
  0
DIMENSION
  5
1514F
330
747D
100
AcDbEntity
  8
寸法
 48
50.0
100
AcDbDimension
  2
*D32
 10
6321.246975621853
 20
4560.735182624829
 30
-0.0000000000013153
 11
6246.238117354135
 21
4298.235182624823
 31
-0.0000000000013153
 70
    32
 71
     5
 42
525.000000000015
  3
INABA_S30G
100
AcDbAlignedDimension
 13
6648.561478906024
 23
4035.735182624814
 33
-0.0000000000013153
 14
6498.561478906023
 24
4560.735182624829
 34
-0.0000000000013153
 50
270.0
100
AcDbRotatedDimension
  0
LINE
  5
1515A
330
747D
100
AcDbEntity
  8
部品1
 48
50.0
100
AcDbLine
 10
4498.561478906053
 20
4560.735182624829
 30
-0.0000000000013153
 11
3698.561478906053
 21
4560.735182624829
 31
-0.0000000000013153
  0
LINE
  5
1515B
330
747D
100
AcDbEntity
  8
部品1
 48
50.0
100
AcDbLine
 10
3698.561478906053
 20
3160.735182624829
 30
-0.0000000000013153
 11
4498.561478906053
 21
3160.735182624829
 31
-0.0000000000013153
  0
LINE
  5
1515C
330
747D
100
AcDbEntity
  8
部品1
 48
50.0
100
AcDbLine
 10
3698.561478906053
 20
4560.735182624829
 30
-0.0000000000013153
 11
3698.561478906053
 21
3160.735182624829
 31
-0.0000000000013153
  0
CIRCLE
  5
1515D
330
747D
100
AcDbEntity
  8
部品1
 48
50.0
100
AcDbCircle
 10
4198.561478906053
 20
3785.735182624829
 30
-0.0000000000013153
 40
15.0
  0
LINE
  5
1515E
330
747D
100
AcDbEntity
  8
センター
 48
3.0
100
AcDbLine
 10
4198.561478906053
 20
3860.735182624829
 30
-0.0000000000013153
 11
4198.561478906053
 21
3710.735182624829
 31
-0.0000000000013153
  0
LINE
  5
1515F
330
747D
100
AcDbEntity
  8
センター
 48
3.0
100
AcDbLine
 10
4123.561478906053
 20
3785.735182624829
 30
-0.0000000000013153
 11
4273.561478906052
 21
3785.735182624829
 31
-0.0000000000013153
  0
LINE
  5
15160
330
747D
100
AcDbEntity
  8
センター
 48
3.0
100
AcDbLine
 10
4198.561478906053
 20
3660.735182624829
 30
-0.0000000000013153
 11
4198.561478906053
 21
3510.735182624829
 31
-0.0000000000013153
  0
CIRCLE
  5
15161
330
747D
100
AcDbEntity
  8
部品1
 48
50.0
100
AcDbCircle
 10
4198.561478906053
 20
3585.735182624829
 30
-0.0000000000013153
 40
15.0
  0
LINE
  5
15162
330
747D
100
AcDbEntity
  8
センター
 48
3.0
100
AcDbLine
 10
4123.561478906053
 20
3585.735182624829
 30
-0.0000000000013153
 11
4273.561478906052
 21
3585.735182624829
 31
-0.0000000000013153
  0
LINE
  5
15163
330
747D
100
AcDbEntity
  8
センター
 48
10.0
100
AcDbLine
 10
4098.561478906052
 20
3435.735182624829
 30
-0.0000000000013153
 11
4098.561478906052
 21
3935.735182624829
 31
-0.0000000000013153
  0
CIRCLE
  5
15164
330
747D
100
AcDbEntity
  8
部品1
 48
50.0
100
AcDbCircle
 10
3998.561478906053
 20
3785.735182624829
 30
-0.0000000000013153
 40
15.0
  0
LINE
  5
15165
330
747D
100
AcDbEntity
  8
センター
 48
3.0
100
AcDbLine
 10
3998.561478906053
 20
3860.735182624829
 30
-0.0000000000013153
 11
3998.561478906053
 21
3710.735182624829
 31
-0.0000000000013153
  0
LINE
  5
15166
330
747D
100
AcDbEntity
  8
センター
 48
3.0
100
AcDbLine
 10
3998.561478906053
 20
3660.735182624829
 30
-0.0000000000013153
 11
3998.561478906053
 21
3510.735182624829
 31
-0.0000000000013153
  0
CIRCLE
  5
15167
330
747D
100
AcDbEntity
  8
部品1
 48
50.0
100
AcDbCircle
 10
3998.561478906053
 20
3585.735182624829
 30
-0.0000000000013153
 40
15.0
  0
LINE
  5
15168
330
747D
100
AcDbEntity
  8
センター
 48
10.0
100
AcDbLine
 10
3848.561478906053
 20
3685.735182624829
 30
-0.0000000000013153
 11
4348.561478906052
 21
3685.735182624829
 31
-0.0000000000013153
  0
LINE
  5
15169
330
747D
100
AcDbEntity
  8
センター
 48
3.0
100
AcDbLine
 10
3923.561478906053
 20
3785.735182624829
 30
-0.0000000000013153
 11
4073.561478906053
 21
3785.735182624829
 31
-0.0000000000013153
  0
LINE
  5
1516A
330
747D
100
AcDbEntity
  8
センター
 48
3.0
100
AcDbLine
 10
3923.561478906053
 20
3585.735182624829
 30
-0.0000000000013153
 11
4073.561478906053
 21
3585.735182624829
 31
-0.0000000000013153
  0
CIRCLE
  5
1516B
330
747D
100
AcDbEntity
  8
部品1
 48
50.0
100
AcDbCircle
 10
4198.561478906053
 20
4135.735182624829
 30
-0.0000000000013153
 40
15.0
  0
LINE
  5
1516C
330
747D
100
AcDbEntity
  8
センター
 48
3.0
100
AcDbLine
 10
4198.561478906053
 20
4210.735182624829
 30
-0.0000000000013153
 11
4198.561478906053
 21
4060.735182624829
 31
-0.0000000000013153
  0
LINE
  5
1516D
330
747D
100
AcDbEntity
  8
センター
 48
3.0
100
AcDbLine
 10
4123.561478906053
 20
4135.735182624829
 30
-0.0000000000013153
 11
4273.561478906052
 21
4135.735182624829
 31
-0.0000000000013153
  0
LINE
  5
1516E
330
747D
100
AcDbEntity
  8
センター
 48
3.0
100
AcDbLine
 10
4198.561478906053
 20
4010.735182624829
 30
-0.0000000000013153
 11
4198.561478906053
 21
3860.735182624829
 31
-0.0000000000013153
  0
CIRCLE
  5
1516F
330
747D
100
AcDbEntity
  8
部品1
 48
50.0
100
AcDbCircle
 10
4198.561478906053
 20
3935.735182624829
 30
-0.0000000000013153
 40
15.0
  0
LINE
  5
15170
330
747D
100
AcDbEntity
  8
センター
 48
3.0
100
AcDbLine
 10
4123.561478906053
 20
3935.735182624829
 30
-0.0000000000013153
 11
4273.561478906052
 21
3935.735182624829
 31
-0.0000000000013153
  0
LINE
  5
15171
330
747D
100
AcDbEntity
  8
センター
 48
10.0
100
AcDbLine
 10
4098.561478906052
 20
3785.735182624829
 30
-0.0000000000013153
 11
4098.561478906052
 21
4285.735182624828
 31
-0.0000000000013153
  0
CIRCLE
  5
15172
330
747D
100
AcDbEntity
  8
部品1
 48
50.0
100
AcDbCircle
 10
3998.561478906053
 20
4135.735182624829
 30
-0.0000000000013153
 40
15.0
  0
LINE
  5
15173
330
747D
100
AcDbEntity
  8
センター
 48
3.0
100
AcDbLine
 10
3998.561478906053
 20
4210.735182624829
 30
-0.0000000000013153
 11
3998.561478906053
 21
4060.735182624829
 31
-0.0000000000013153
  0
LINE
  5
15174
330
747D
100
AcDbEntity
  8
センター
 48
3.0
100
AcDbLine
 10
3998.561478906053
 20
4010.735182624829
 30
-0.0000000000013153
 11
3998.561478906053
 21
3860.735182624829
 31
-0.0000000000013153
  0
CIRCLE
  5
15175
330
747D
100
AcDbEntity
  8
部品1
 48
50.0
100
AcDbCircle
 10
3998.561478906053
 20
3935.735182624829
 30
-0.0000000000013153
 40
15.0
  0
LINE
  5
15176
330
747D
100
AcDbEntity
  8
センター
 48
10.0
100
AcDbLine
 10
3848.561478906053
 20
4035.735182624828
 30
-0.0000000000013153
 11
4348.561478906052
 21
4035.735182624828
 31
-0.0000000000013153
  0
LINE
  5
15177
330
747D
100
AcDbEntity
  8
センター
 48
3.0
100
AcDbLine
 10
3923.561478906053
 20
4135.735182624829
 30
-0.0000000000013153
 11
4073.561478906053
 21
4135.735182624829
 31
-0.0000000000013153
  0
LINE
  5
15178
330
747D
100
AcDbEntity
  8
センター
 48
3.0
100
AcDbLine
 10
3923.561478906053
 20
3935.735182624829
 30
-0.0000000000013153
 11
4073.561478906053
 21
3935.735182624829
 31
-0.0000000000013153
  0
LINE
  5
15179
330
747D
100
AcDbEntity
  8
部品1
 48
50.0
100
AcDbLine
 10
4498.561478906053
 20
4560.735182624829
 30
-0.0000000000013153
 11
4498.561478906053
 21
3160.735182624829
 31
-0.0000000000013153
  0
DIMENSION
  5
15FBE
330
747D
100
AcDbEntity
  8
寸法
 48
50.0
100
AcDbDimension
  2
*D33
 10
4098.561478906052
 20
6342.658959886651
 30
0.0
 11
2698.561478906053
 21
6417.667818154367
 31
0.0
 70
    32
 71
     5
 42
2800.0
  3
INABA_S30G
100
AcDbAlignedDimension
 13
1298.561478906053
 23
4285.735182624828
 33
-0.0000000000013153
 14
4098.561478906052
 24
4285.735182624828
 34
-0.0000000000013153
100
AcDbRotatedDimension
  0
DIMENSION
  5
15FCB
330
747D
100
AcDbEntity
  8
寸法
 48
50.0
100
AcDbDimension
  2
*D34
 10
5418.561478906052
 20
6342.658959886651
 30
0.0
 11
4758.561478906052
 21
6417.667818154367
 31
0.0
 70
    32
  1
2800
 71
     5
 42
1320.0
  3
INABA_S30G
100
AcDbAlignedDimension
 13
4098.561478906052
 23
4285.735182624828
 33
-0.0000000000013153
 14
5418.561478906052
 24
4300.735182624829
 34
-0.0000000000013153
100
AcDbRotatedDimension
1001
ACAD
1000
DSTYLE
1002
{
1070
    76
1070
     1
1070
   344
1005
135E3
1002
}
  0
DIMENSION
  5
16054
330
747D
100
AcDbEntity
  8
寸法
 48
50.0
100
AcDbDimension
  2
*D35
 10
5578.561478906053
 20
6342.658959886651
 30
0.0
 11
6238.561478906053
 21
6417.667818154367
 31
0.0
 70
    32
  1
2800
 71
     5
 42
1320.0
  3
INABA_S30G
100
AcDbAlignedDimension
 13
6898.561478906053
 23
4285.735182624828
 33
-0.0000000000013153
 14
5578.561478906053
 24
4300.735182624829
 34
-0.0000000000013153
100
AcDbRotatedDimension
1001
ACAD
1000
DSTYLE
1002
{
1070
    76
1070
     1
1070
   344
1005
135E3
1002
}
  0
LINE
  5
160D6
330
747D
100
AcDbEntity
  8
部品1
 48
30.0
100
AcDbLine
 10
4833.049597350669
 20
1685.735182624829
 30
-0.0000000000013153
 11
7298.561478906053
 21
1685.735182624829
 31
-0.0000000000013153
  0
LINE
  5
160D9
330
747D
100
AcDbEntity
  8
想像線
 48
10.0
100
AcDbLine
 10
4857.11823021738
 20
1822.235182624824
 30
-0.0000000000013153
 11
7128.561478905995
 21
1822.235182624828
 31
-0.0000000000013153
  0
LINE
  5
160DA
330
747D
100
AcDbEntity
  8
センター
 48
10.0
100
AcDbLine
 10
5185.7035587676
 20
3685.735182624829
 30
-0.0000000000013153
 11
7148.561478906053
 21
3685.735182624829
 31
-0.0000000000013153
  0
LINE
  5
160DB
330
747D
100
AcDbEntity
  8
センター
 48
10.0
100
AcDbLine
 10
5247.418002015562
 20
4035.735182624828
 30
-0.0000000000013153
 11
7148.561478906053
 21
4035.735182624828
 31
-0.0000000000013153
  0
LINE
  5
160DC
330
747D
100
AcDbEntity
  8
想像線
 48
10.0
100
AcDbLine
 10
5545.540532209209
 20
5899.235182624825
 30
-0.0000000000013153
 11
1068.561478906111
 21
5899.235182624813
 31
-0.0000000000013153
  0
LINE
  5
160DD
330
747D
100
AcDbEntity
  8
文字
 48
50.0
100
AcDbLine
 10
5600.071963432489
 20
6035.73518262483
 30
-0.0000000000013153
 11
7298.561478906053
 21
6035.735182624829
 31
-0.0000000000013153
  0
ENDSEC
  0
SECTION
  2
OBJECTS
  0
DICTIONARY
  5
7471
330
0
100
AcDbDictionary
281
     1
  3
ACAD_CIP_PREVIOUS_PRODUCT_INFO
350
13EFE
  3
ACAD_COLOR
350
1341D
  3
ACAD_DETAILVIEWSTYLE
350
13EF4
  3
ACAD_GROUP
350
7472
  3
ACAD_LAYOUT
350
1341E
  3
ACAD_MATERIAL
350
1341C
  3
ACAD_MLEADERSTYLE
350
13EF0
  3
ACAD_MLINESTYLE
350
7473
  3
ACAD_PLOTSETTINGS
350
1341F
  3
ACAD_PLOTSTYLENAME
350
1341A
  3
ACAD_SCALELIST
350
13EDE
  3
ACAD_SECTIONVIEWSTYLE
350
13EF2
  3
ACAD_TABLESTYLE
350
13EDC
  3
ACAD_VISUALSTYLE
350
13EC3
  3
AcadDim
350
13618
  3
ACDB_RECOMPOSE_DATA
350
164B0
  3
AcDbVariableDictionary
350
13533
  3
CONTENTDICTIONARY
350
E71C
  3
DRAWINGVARIABLESDICT
350
F3B9
  3
DWGPROPS
350
164B1
  0
DICTIONARY
  5
16287
330
746D
100
AcDbDictionary
280
     1
281
     1
  0
DICTIONARY
  5
13451
330
7467
100
AcDbDictionary
280
     1
281
     1
  3
ACAD_LAYERFILTERS
360
1356A
  3
ACAD_LAYERSTATES
360
13452
  0
DICTIONARY
  5
160DE
330
7474
100
AcDbDictionary
280
     1
281
     1
  3
ADSK_XREC_LAYER_RECONCILED
360
160DF
  0
DICTIONARY
  5
160E0
330
DEB3
100
AcDbDictionary
280
     1
281
     1
  3
ADSK_XREC_LAYER_RECONCILED
360
160E1
  0
DICTIONARY
  5
160E2
330
DEB4
100
AcDbDictionary
280
     1
281
     1
  3
ADSK_XREC_LAYER_RECONCILED
360
160E3
  0
DICTIONARY
  5
160E4
330
DEB5
100
AcDbDictionary
280
     1
281
     1
  3
ADSK_XREC_LAYER_RECONCILED
360
160E5
  0
DICTIONARY
  5
160E6
330
DEB6
100
AcDbDictionary
280
     1
281
     1
  3
ADSK_XREC_LAYER_RECONCILED
360
160E7
  0
DICTIONARY
  5
160E8
330
10B54
100
AcDbDictionary
280
     1
281
     1
  3
ADSK_XREC_LAYER_RECONCILED
360
160E9
  0
DICTIONARY
  5
160EA
330
11729
100
AcDbDictionary
280
     1
281
     1
  3
ADSK_XREC_LAYER_RECONCILED
360
160EB
  0
DICTIONARY
  5
160EC
330
1173F
100
AcDbDictionary
280
     1
281
     1
  3
ADSK_XREC_LAYER_RECONCILED
360
160ED
  0
DICTIONARY
  5
160F0
330
1356E
100
AcDbDictionary
280
     1
281
     1
  3
ADSK_XREC_LAYER_RECONCILED
360
160F1
  0
DICTIONARY
  5
160F2
330
135FB
100
AcDbDictionary
280
     1
281
     1
  3
ADSK_XREC_LAYER_RECONCILED
360
160F3
  0
DICTIONARY
  5
160F4
330
1383F
100
AcDbDictionary
280
     1
281
     1
  3
ADSK_XREC_LAYER_RECONCILED
360
160F5
  0
DICTIONARY
  5
160F6
330
13840
100
AcDbDictionary
280
     1
281
     1
  3
ADSK_XREC_LAYER_RECONCILED
360
160F7
  0
DICTIONARY
  5
160F8
330
13841
100
AcDbDictionary
280
     1
281
     1
  3
ADSK_XREC_LAYER_RECONCILED
360
160F9
  0
DICTIONARY
  5
160D7
330
747D
100
AcDbDictionary
280
     1
281
     1
  3
ACAD_SORTENTS
360
160D8
  0
XRECORD
  5
13EFE
102
{ACAD_REACTORS
330
7471
102
}
330
7471
100
AcDbXrecord
280
     1
300
ACDLT
300
2014
300
ACDLT_F_S
  0
DICTIONARY
  5
1341D
102
{ACAD_REACTORS
330
7471
102
}
330
7471
100
AcDbDictionary
281
     1
  0
DICTIONARY
  5
13EF4
102
{ACAD_REACTORS
330
7471
102
}
330
7471
100
AcDbDictionary
281
     1
  3
Metric50
350
13EF5
  0
DICTIONARY
  5
7472
102
{ACAD_REACTORS
330
7471
102
}
330
7471
100
AcDbDictionary
281
     1
  0
DICTIONARY
  5
1341E
102
{ACAD_REACTORS
330
7471
102
}
330
7471
100
AcDbDictionary
281
     1
  3
Model
350
13420
  3
レイアウト1
350
13421
  0
DICTIONARY
  5
1341C
102
{ACAD_REACTORS
330
7471
102
}
330
7471
100
AcDbDictionary
281
     1
  3
ByBlock
350
13EB3
  3
ByLayer
350
13EAB
  3
Global
350
13EBB
  0
DICTIONARY
  5
13EF0
102
{ACAD_REACTORS
330
7471
102
}
330
7471
100
AcDbDictionary
281
     1
  3
Standard
350
13EF1
  0
DICTIONARY
  5
7473
102
{ACAD_REACTORS
330
7471
102
}
330
7471
100
AcDbDictionary
281
     1
  3
STANDARD
350
7480
  0
DICTIONARY
  5
1341F
102
{ACAD_REACTORS
330
7471
102
}
330
7471
100
AcDbDictionary
281
     1
  0
ACDBDICTIONARYWDFLT
  5
1341A
102
{ACAD_REACTORS
330
7471
102
}
330
7471
100
AcDbDictionary
281
     1
  3
Normal
350
1341B
100
AcDbDictionaryWithDefault
340
1341B
  0
DICTIONARY
  5
13EDE
102
{ACAD_REACTORS
330
7471
102
}
330
7471
100
AcDbDictionary
281
     1
  3
A0
350
13EDF
  3
A1
350
13EE0
  3
A2
350
13EE1
  3
A3
350
13EE2
  3
A4
350
13EE3
  3
A5
350
13EE4
  3
A6
350
13EE5
  3
A7
350
13EE6
  3
A8
350
13EE7
  3
A9
350
13EE8
  3
B0
350
13EE9
  3
B1
350
13EEA
  3
B2
350
13EEB
  3
B3
350
13EEC
  3
B4
350
13EED
  3
B5
350
13EEE
  3
B6
350
13EEF
  0
DICTIONARY
  5
13EF2
102
{ACAD_REACTORS
330
7471
102
}
330
7471
100
AcDbDictionary
281
     1
  3
Metric50
350
13EF3
  0
DICTIONARY
  5
13EDC
102
{ACAD_REACTORS
330
7471
102
}
330
7471
100
AcDbDictionary
281
     1
  3
Standard
350
13EDD
  0
DICTIONARY
  5
13EC3
102
{ACAD_REACTORS
330
7471
102
}
330
7471
100
AcDbDictionary
281
     1
  3
2dWireframe
350
13EC9
  3
Basic
350
13EC8
  3
Brighten
350
13ECF
  3
ColorChange
350
13ED3
  3
Conceptual
350
13ECC
  3
Dim
350
13ECE
  3
EdgeColorOff
350
13EDB
  3
Facepattern
350
13ED2
  3
Flat
350
13EC4
  3
FlatWithEdges
350
13EC5
  3
Gouraud
350
13EC6
  3
GouraudWithEdges
350
13EC7
  3
Hidden
350
13ECB
  3
JitterOff
350
13ED9
  3
Linepattern
350
13ED1
  3
OverhangOff
350
13EDA
  3
Realistic
350
13ECD
  3
Shaded
350
13ED8
  3
Shaded with edges
350
13ED7
  3
Shades of Gray
350
13ED4
  3
Sketchy
350
13ED5
  3
Thicken
350
13ED0
  3
Wireframe
350
13ECA
  3
X-Ray
350
13ED6
  0
XRECORD
  5
13618
102
{ACAD_REACTORS
330
7471
102
}
330
7471
100
AcDbXrecord
280
     1
 90
   990106
  3

 60
     0
 61
     0
 62
     1
 63
     3
 64
     0
 65
     0
 66
     0
 67
     3
 68
     1
 69
     0
 70
     0
 71
     0
 72
     0
 40
0.0
170
     0
  0
XRECORD
  5
164B0
102
{ACAD_REACTORS
330
7471
102
}
330
7471
100
AcDbXrecord
280
     1
 90
        1
330
13EDD
  0
DICTIONARY
  5
13533
102
{ACAD_REACTORS
330
7471
102
}
330
7471
100
AcDbDictionary
281
     1
  3
CANNOSCALE
350
162CC
  3
CMLEADERSTYLE
350
162C9
  3
CTABLESTYLE
350
162C8
  3
CVIEWDETAILSTYLE
350
162CA
  3
CVIEWSECTIONSTYLE
350
162CB
  3
DIMASSOC
350
13534
  3
INDEXCTL
350
162CE
  3
PROJECTNAME
350
13535
  3
SORTENTS
350
162CD
  3
XCLIPFRAME
350
164AE
  0
DICTIONARY
  5
E71C
102
{ACAD_REACTORS
330
7471
102
}
330
7471
100
AcDbDictionary
281
     1
  0
DICTIONARY
  5
F3B9
102
{ACAD_REACTORS
330
7471
102
}
330
7471
100
AcDbDictionary
281
     1
1001
DRAWINGVARIABLESXDATA
1000
POLARMODE
1000
1
  0
XRECORD
  5
164B1
102
{ACAD_REACTORS
330
7471
102
}
330
7471
100
AcDbXrecord
280
     1
  1
DWGPROPS COOKIE
  2

  3

  4

  6

  7

  8
ODAHARA
  9

300
=
301
=
302
=
303
=
304
=
305
=
306
=
307
=
308
=
309
=
 40
0.3423476041666666
 41
2451074.411873148
 42
2456560.837809977
  1

 90
        0
  0
DICTIONARY
  5
1356A
102
{ACAD_REACTORS
330
13451
102
}
330
13451
100
AcDbDictionary
281
     1
  0
DICTIONARY
  5
13452
102
{ACAD_REACTORS
330
13451
102
}
330
13451
100
AcDbDictionary
281
     1
  0
XRECORD
  5
160DF
102
{ACAD_REACTORS
330
160DE
102
}
330
160DE
100
AcDbXrecord
280
     1
290
     1
  0
XRECORD
  5
160E1
102
{ACAD_REACTORS
330
160E0
102
}
330
160E0
100
AcDbXrecord
280
     1
290
     1
  0
XRECORD
  5
160E3
102
{ACAD_REACTORS
330
160E2
102
}
330
160E2
100
AcDbXrecord
280
     1
290
     1
  0
XRECORD
  5
160E5
102
{ACAD_REACTORS
330
160E4
102
}
330
160E4
100
AcDbXrecord
280
     1
290
     1
  0
XRECORD
  5
160E7
102
{ACAD_REACTORS
330
160E6
102
}
330
160E6
100
AcDbXrecord
280
     1
290
     1
  0
XRECORD
  5
160E9
102
{ACAD_REACTORS
330
160E8
102
}
330
160E8
100
AcDbXrecord
280
     1
290
     1
  0
XRECORD
  5
160EB
102
{ACAD_REACTORS
330
160EA
102
}
330
160EA
100
AcDbXrecord
280
     1
290
     1
  0
XRECORD
  5
160ED
102
{ACAD_REACTORS
330
160EC
102
}
330
160EC
100
AcDbXrecord
280
     1
290
     1
  0
XRECORD
  5
160F1
102
{ACAD_REACTORS
330
160F0
102
}
330
160F0
100
AcDbXrecord
280
     1
290
     1
  0
XRECORD
  5
160F3
102
{ACAD_REACTORS
330
160F2
102
}
330
160F2
100
AcDbXrecord
280
     1
290
     1
  0
XRECORD
  5
160F5
102
{ACAD_REACTORS
330
160F4
102
}
330
160F4
100
AcDbXrecord
280
     1
290
     1
  0
XRECORD
  5
160F7
102
{ACAD_REACTORS
330
160F6
102
}
330
160F6
100
AcDbXrecord
280
     1
290
     1
  0
XRECORD
  5
160F9
102
{ACAD_REACTORS
330
160F8
102
}
330
160F8
100
AcDbXrecord
280
     1
290
     1
  0
SORTENTSTABLE
  5
160D8
102
{ACAD_REACTORS
330
160D7
102
}
330
160D7
100
AcDbSortentsTable
330
747D
331
16054
  5
160DD
331
14E8D
  5
14E8D
331
14E95
  5
14E95
331
13F16
  5
13F16
331
13AA0
  5
13AA0
331
14E9D
  5
14E9D
331
14F79
  5
14F79
331
14F3A
  5
14F3A
331
14EC4
  5
14EC4
331
14F03
  5
14F03
331
150E0
  5
150E3
331
150E8
  5
150ED
331
14F42
  5
14F42
331
14ECC
  5
14ECC
331
14F0B
  5
14F0B
331
14F81
  5
14F81
331
1513F
  5
15145
331
150F0
  5
150F6
331
14F4A
  5
14F4A
331
14F13
  5
14F13
331
14ED4
  5
14ED4
331
15147
  5
1514D
331
1514F
  5
1515F
331
14EDC
  5
14EDC
331
14F52
  5
14F52
331
150F8
  5
150FE
331
160DC
  5
150C9
331
14E6E
  5
14E6E
331
14E76
  5
14E76
331
14E7E
  5
14E7E
331
15100
  5
15106
331
14F5A
  5
14F5A
331
14EE4
  5
14EE4
331
14F1B
  5
14F1B
331
14E86
  5
14E86
331
14EA5
  5
14EA5
331
150C1
  5
150C1
331
15108
  5
15111
331
14F62
  5
14F62
331
14F23
  5
14F23
331
14EAD
  5
14EAD
331
14EEC
  5
14EEC
331
150C9
  5
150CB
331
1515F
  5
15165
331
15110
  5
15134
331
14F6A
  5
14F6A
331
14F2B
  5
14F2B
331
14EB5
  5
14EB5
331
14EF4
  5
14EF4
331
150D1
  5
150D4
331
15167
  5
1516D
331
150D9
  5
150DC
331
14F33
  5
14F33
331
14EBD
  5
14EBD
331
14EFC
  5
14EFC
331
14F72
  5
14F72
331
1516F
  5
15175
331
15177
  5
160D6
331
10B6D
  5
10B6D
331
14E8E
  5
14E8E
331
14E96
  5
14E96
331
13F17
  5
13F17
331
13A99
  5
13A99
331
14E9E
  5
14E9E
331
13AA1
  5
13AA1
331
15138
  5
1513E
331
14F3B
  5
14F3B
331
14F04
  5
14F04
331
14EC5
  5
14EC5
331
14F7A
  5
14F7A
331
150E1
  5
150E4
331
15140
  5
15146
331
14F82
  5
14F82
331
14F0C
  5
14F0C
331
14ECD
  5
14ECD
331
14F43
  5
14F43
331
150E9
  5
150EE
331
15148
  5
1514E
331
150F1
  5
150F7
331
14F4B
  5
14F4B
331
14ED5
  5
14ED5
331
14F14
  5
14F14
331
14F53
  5
14F53
331
14EDD
  5
14EDD
331
150F9
  5
150FF
331
160DD
  5
150EA
331
13125
  5
13125
331
15FBE
  5
160DB
331
14E6F
  5
14E6F
331
10B56
  5
10B56
331
14E77
  5
14E77
331
10B5E
  5
10B5E
331
14E7F
  5
14E7F
331
15101
  5
15107
331
14F5B
  5
14F5B
331
14EE5
  5
14EE5
331
14E87
  5
14E87
331
14EA6
  5
14EA6
331
14F1C
  5
14F1C
331
150C2
  5
150C2
331
15160
  5
15166
331
150CA
  5
150CD
331
14F24
  5
14F24
331
14EAE
  5
14EAE
331
14EED
  5
14EED
331
14F63
  5
14F63
331
15109
  5
15115
331
15168
  5
1516E
331
15111
  5
15135
331
14F2C
  5
14F2C
331
14EF5
  5
14EF5
331
14EB6
  5
14EB6
331
14F6B
  5
14F6B
331
150D2
  5
150D5
331
15170
  5
15176
331
14F73
  5
14F73
331
14F34
  5
14F34
331
14EBE
  5
14EBE
331
14EFD
  5
14EFD
331
150DA
  5
150DD
331
14E8F
  5
14E8F
331
14E97
  5
14E97
331
13F18
  5
13F18
331
13A9A
  5
13A9A
331
14E9F
  5
14E9F
331
13AA2
  5
13AA2
331
15139
  5
1513F
331
14F7B
  5
14F7B
331
14F3C
  5
14F3C
331
14EC6
  5
14EC6
331
14F05
  5
14F05
331
150E2
  5
150E5
331
15178
  5
160D9
331
150EA
  5
150EF
331
14F44
  5
14F44
331
14ECE
  5
14ECE
331
14F0D
  5
14F0D
331
15141
  5
15147
331
15149
  5
1514F
331
14F4C
  5
14F4C
331
14F15
  5
14F15
331
14ED6
  5
14ED6
331
150F2
  5
150F8
331
14EDE
  5
14EDE
331
14F54
  5
14F54
331
150FA
  5
15100
331
160D6
  5
150EC
331
13126
  5
13126
331
14E70
  5
14E70
331
14E78
  5
14E78
331
10B57
  5
10B57
331
14E80
  5
14E80
331
15102
  5
15108
331
14F5C
  5
14F5C
331
14EE6
  5
14EE6
331
14F1D
  5
14F1D
331
14EA7
  5
14EA7
331
150C3
  5
150C3
331
1510A
  5
15116
331
14F64
  5
14F64
331
14F25
  5
14F25
331
14EAF
  5
14EAF
331
14EEE
  5
14EEE
331
150CB
  5
150CE
331
15161
  5
15167
331
150D3
  5
150D6
331
14F2D
  5
14F2D
331
14EB7
  5
14EB7
331
14EF6
  5
14EF6
331
14F6C
  5
14F6C
331
15169
  5
1516F
331
150DB
  5
150DE
331
14F35
  5
14F35
331
14EBF
  5
14EBF
331
14EFE
  5
14EFE
331
14F74
  5
14F74
331
15171
  5
15177
331
14E88
  5
14E88
331
10B6F
  5
10B6F
331
14E90
  5
14E90
331
14E98
  5
14E98
331
13F19
  5
13F19
331
13A9B
  5
13A9B
331
13AA3
  5
13AA3
331
15179
  5
160DA
331
1513A
  5
15140
331
14F3D
  5
14F3D
331
14F06
  5
14F06
331
14EC7
  5
14EC7
331
14F7C
  5
14F7C
331
150E3
  5
150E6
331
15142
  5
15148
331
150EB
  5
150F0
331
14F45
  5
14F45
331
14ECF
  5
14ECF
331
14F0E
  5
14F0E
331
1514A
  5
1515A
331
150F3
  5
150F9
331
14F4D
  5
14F4D
331
14ED7
  5
14ED7
331
14F16
  5
14F16
331
14F55
  5
14F55
331
14EDF
  5
14EDF
331
150FB
  5
15101
331
13127
  5
13127
331
14E71
  5
14E71
331
14E79
  5
14E79
331
14E81
  5
14E81
331
14EA0
  5
14EA0
331
15103
  5
15109
331
14F5D
  5
14F5D
331
14EA8
  5
14EA8
331
14EE7
  5
14EE7
331
14F1E
  5
14F1E
331
150C4
  5
150C4
331
1515A
  5
15160
331
15162
  5
15168
331
150CC
  5
150CF
331
14F26
  5
14F26
331
14EEF
  5
14EEF
331
14EB0
  5
14EB0
331
14F65
  5
14F65
331
1510B
  5
15117
331
1516A
  5
15170
331
14F2E
  5
14F2E
331
14EF7
  5
14EF7
331
14EB8
  5
14EB8
331
14F6D
  5
14F6D
331
150D4
  5
150D7
331
15133
  5
15139
331
14F75
  5
14F75
331
14F36
  5
14F36
331
14EFF
  5
14EFF
331
150DC
  5
150DF
331
15172
  5
15178
331
14E89
  5
14E89
331
14E91
  5
14E91
331
14E99
  5
14E99
331
13F1A
  5
13F1A
331
13A9C
  5
13A9C
331
14EC0
  5
14EC0
331
13AA4
  5
13AA4
331
1513B
  5
15141
331
150E4
  5
150E7
331
14F3E
  5
14F3E
331
14EC8
  5
14EC8
331
14F07
  5
14F07
331
14F7D
  5
14F7D
331
150EC
  5
150F2
331
14F46
  5
14F46
331
14ED0
  5
14ED0
331
14F0F
  5
14F0F
331
15143
  5
15149
331
1514B
  5
1515B
331
14F4E
  5
14F4E
331
14F17
  5
14F17
331
14ED8
  5
14ED8
331
150F4
  5
150FA
331
14F56
  5
14F56
331
150FC
  5
15102
331
13128
  5
13128
331
14E72
  5
14E72
331
14E7A
  5
14E7A
331
14EE0
  5
14EE0
331
14E82
  5
14E82
331
14EA1
  5
14EA1
331
15104
  5
1510A
331
1515B
  5
15161
331
14F5E
  5
14F5E
331
14EE8
  5
14EE8
331
14EA9
  5
14EA9
331
14F1F
  5
14F1F
331
150C5
  5
150C5
331
14F66
  5
14F66
331
14F27
  5
14F27
331
14EB1
  5
14EB1
331
14EF0
  5
14EF0
331
150CD
  5
150D0
331
15163
  5
15169
331
150D5
  5
150D8
331
14F2F
  5
14F2F
331
14EB9
  5
14EB9
331
14EF8
  5
14EF8
331
14F6E
  5
14F6E
331
1516B
  5
15171
331
15173
  5
15179
331
150DD
  5
150E0
331
14F37
  5
14F37
331
14F76
  5
14F76
331
15134
  5
1513A
331
14E8A
  5
14E8A
331
14E92
  5
14E92
331
13F13
  5
13F13
331
14E9A
  5
14E9A
331
13F1B
  5
13F1B
331
13A9D
  5
13A9D
331
14F00
  5
14F00
331
14EC1
  5
14EC1
331
13AA5
  5
13AA5
331
1513C
  5
15142
331
14F08
  5
14F08
331
14EC9
  5
14EC9
331
763F
  5
763F
331
14F3F
  5
14F3F
331
14F7E
  5
14F7E
331
150E5
  5
150E8
331
15144
  5
1514A
331
150ED
  5
150F3
331
14ED1
  5
14ED1
331
14F47
  5
14F47
331
1514C
  5
1515C
331
150F5
  5
150FB
331
14ED9
  5
14ED9
331
14F4F
  5
14F4F
331
14F57
  5
14F57
331
150FD
  5
15103
331
160D9
  5
150C6
331
14E73
  5
14E73
331
14E7B
  5
14E7B
331
14EE1
  5
14EE1
331
14E83
  5
14E83
331
14EA2
  5
14EA2
331
14F18
  5
14F18
331
15105
  5
1510B
331
14F20
  5
14F20
331
14EAA
  5
14EAA
331
14EE9
  5
14EE9
331
14F5F
  5
14F5F
331
150C6
  5
150C7
331
1515C
  5
15162
331
150CE
  5
150D1
331
14F28
  5
14F28
331
14EF1
  5
14EF1
331
14EB2
  5
14EB2
331
14F67
  5
14F67
331
15164
  5
1516A
331
1516C
  5
15172
331
15115
  5
15136
331
14F6F
  5
14F6F
331
14EF9
  5
14EF9
331
14EBA
  5
14EBA
331
14F30
  5
14F30
331
150D6
  5
150D9
331
15135
  5
1513B
331
14F77
  5
14F77
331
150DE
  5
150E1
331
15174
  5
15FBE
331
14E8B
  5
14E8B
331
14E93
  5
14E93
331
13F14
  5
13F14
331
14E9B
  5
14E9B
331
13A9E
  5
13A9E
331
13F1C
  5
13F1C
331
14F38
  5
14F38
331
14EC2
  5
14EC2
331
14F01
  5
14F01
331
13AA6
  5
13AA6
331
1513D
  5
15143
331
150E6
  5
150E9
331
14F7F
  5
14F7F
331
14F40
  5
14F40
331
14ECA
  5
14ECA
331
14F09
  5
14F09
331
150EE
  5
150F4
331
14F48
  5
14F48
331
14F11
  5
14F11
331
14ED2
  5
14ED2
331
15145
  5
1514B
331
1514D
  5
1515D
331
150F6
  5
150FC
331
14EDA
  5
14EDA
331
14F50
  5
14F50
331
150BF
  5
150BF
331
150FE
  5
15104
331
160DA
  5
150CC
331
14E6C
  5
14E6C
331
14E74
  5
14E74
331
14E7C
  5
14E7C
331
14F58
  5
14F58
331
14EE2
  5
14EE2
331
14F19
  5
14F19
331
14E84
  5
14E84
331
14EA3
  5
14EA3
331
15106
  5
1510F
331
1515D
  5
15163
331
14F60
  5
14F60
331
14EEA
  5
14EEA
331
14EAB
  5
14EAB
331
14F21
  5
14F21
331
150C7
  5
150C8
331
14F68
  5
14F68
331
14F29
  5
14F29
331
14EB3
  5
14EB3
331
14EF2
  5
14EF2
331
150CF
  5
150D2
331
15165
  5
1516B
331
1516D
  5
15173
331
150D7
  5
150DA
331
14F31
  5
14F31
331
14EBB
  5
14EBB
331
14EFA
  5
14EFA
331
14F70
  5
14F70
331
15116
  5
15137
331
15175
  5
15FCB
331
150DF
  5
150E2
331
15136
  5
1513C
331
15FCB
  5
160DC
331
14E8C
  5
14E8C
331
14E94
  5
14E94
331
13F15
  5
13F15
331
13A9F
  5
13A9F
331
14E9C
  5
14E9C
331
14F39
  5
14F39
331
14F02
  5
14F02
331
14EC3
  5
14EC3
331
14F78
  5
14F78
331
1513E
  5
15144
331
14F80
  5
14F80
331
14F0A
  5
14F0A
331
14ECB
  5
14ECB
331
14F41
  5
14F41
331
150E7
  5
150EB
331
15146
  5
1514C
331
150EF
  5
150F5
331
14F49
  5
14F49
331
14ED3
  5
14ED3
331
14F12
  5
14F12
331
1514E
  5
1515E
331
14F51
  5
14F51
331
14EDB
  5
14EDB
331
150F7
  5
150FD
331
150FF
  5
15105
331
160DB
  5
150F1
331
14E6D
  5
14E6D
331
14E75
  5
14E75
331
14E7D
  5
14E7D
331
14F59
  5
14F59
331
14EE3
  5
14EE3
331
14E85
  5
14E85
331
14EA4
  5
14EA4
331
14F1A
  5
14F1A
331
150C0
  5
150C0
331
150C8
  5
150CA
331
14F22
  5
14F22
331
14EAC
  5
14EAC
331
14EEB
  5
14EEB
331
14F61
  5
14F61
331
15107
  5
15110
331
1515E
  5
15164
331
15166
  5
1516C
331
1510F
  5
15133
331
14F2A
  5
14F2A
331
14EF3
  5
14EF3
331
14EB4
  5
14EB4
331
14F69
  5
14F69
331
150D0
  5
150D3
331
1516E
  5
15174
331
15117
  5
15138
331
14F71
  5
14F71
331
14EFB
  5
14EFB
331
14EBC
  5
14EBC
331
14F32
  5
14F32
331
150D8
  5
150DB
331
15137
  5
1513D
331
15176
  5
16054
  0
ACDBDETAILVIEWSTYLE
  5
13EF5
102
{ACAD_XDICTIONARY
360
164EE
102
}
102
{ACAD_REACTORS
330
13EF4
102
}
330
13EF4
100
AcDbModelDocViewStyle
 70
     0
  3
Metric50
290
     0
100
AcDbDetailViewStyle
 70
     0
 71
     0
 90
        3
 71
     1
340
7475
 40
5.0
340
0
 40
5.0
300

 40
0.0
280
     1
 71
     2
340
7479
 90
       25
 71
     3
340
7475
 40
5.0
 90
        0
 40
15.0
 90
        1
300
%<\AcVar ViewDetailId>% (%<\AcVar ViewScale \f "%sn">%)
 71
     4
340
7479
 90
       25
340
7479
 90
       25
280
     0
  0
LAYOUT
  5
13420
102
{ACAD_XDICTIONARY
360
164B2
102
}
102
{ACAD_REACTORS
330
1341E
102
}
330
1341E
100
AcDbPlotSettings
  1

  2
CutePDF Writer
  4
A3
  6

 40
3.174999952316284
 41
3.174999952316284
 42
3.17498779296875
 43
3.17498779296875
 44
297.0530090332031
 45
420.1583251953125
 46
0.0
 47
0.0
 48
0.0
 49
0.0
140
0.0
141
0.0
142
1.0
143
30.0
 70
 11952
 72
     1
 73
     1
 74
     2
  7
inaba.ctb
 75
    23
147
0.0333333333333333
148
0.0
149
0.0
100
AcDbLayout
  1
Model
 70
     1
 71
     0
 10
0.0
 20
0.0
 11
12.0
 21
9.0
 12
0.0
 22
0.0
 32
0.0
 14
0.0
 24
0.0
 34
0.0
 15
0.0
 25
0.0
 35
0.0
146
0.0
 13
0.0
 23
0.0
 33
0.0
 16
1.0
 26
0.0
 36
0.0
 17
0.0
 27
1.0
 37
0.0
 76
     0
330
747D
331
13EA9
  0
LAYOUT
  5
13421
102
{ACAD_XDICTIONARY
360
164B4
102
}
102
{ACAD_REACTORS
330
1341E
102
}
330
1341E
100
AcDbPlotSettings
  1

  2
Microsoft Office Document Image Writer
  4

  6

 40
0.0
 41
0.0
 42
0.0
 43
0.0
 44
0.0
 45
0.0
 46
0.0
 47
0.0
 48
0.0
 49
0.0
140
0.0
141
0.0
142
1.0
143
1.0
 70
   688
 72
     0
 73
     0
 74
     5
  7
inaba.ctb
 75
    16
147
1.0
148
0.0
149
0.0
100
AcDbLayout
  1
レイアウト1
 70
     0
 71
     1
 10
0.0
 20
0.0
 11
420.0
 21
297.0
 12
0.0
 22
0.0
 32
0.0
 14
1.000000000000000E+20
 24
1.000000000000000E+20
 34
1.000000000000000E+20
 15
-1.000000000000000E+20
 25
-1.000000000000000E+20
 35
-1.000000000000000E+20
146
0.0
 13
0.0
 23
0.0
 33
0.0
 16
1.0
 26
0.0
 36
0.0
 17
0.0
 27
1.0
 37
0.0
 76
     0
330
747A
  0
MATERIAL
  5
13EB3
102
{ACAD_XDICTIONARY
360
13EB4
102
}
102
{ACAD_REACTORS
330
1341C
102
}
330
1341C
100
AcDbMaterial
  1
ByBlock
 72
     0
 43
0.0208333333333333
 43
0.0
 43
0.0
 43
0.0
 43
0.0
 43
0.0208333333333333
 43
0.0
 43
0.0
 43
0.0
 43
0.0
 43
1.0
 43
0.0
 43
0.0
 43
0.0
 43
0.0
 43
1.0
 77
     0
 47
0.0208333333333333
 47
0.0
 47
0.0
 47
0.0
 47
0.0
 47
0.0208333333333333
 47
0.0
 47
0.0
 47
0.0
 47
0.0
 47
1.0
 47
0.0
 47
0.0
 47
0.0
 47
0.0
 47
1.0
171
     0
 49
0.0208333333333333
 49
0.0
 49
0.0
 49
0.0
 49
0.0
 49
0.0208333333333333
 49
0.0
 49
0.0
 49
0.0
 49
0.0
 49
1.0
 49
0.0
 49
0.0
 49
0.0
 49
0.0
 49
1.0
175
     0
142
0.0208333333333333
142
0.0
142
0.0
142
0.0
142
0.0
142
0.0208333333333333
142
0.0
142
0.0
142
0.0
142
0.0
142
1.0
142
0.0
142
0.0
142
0.0
142
0.0
142
1.0
179
     0
144
0.0208333333333333
144
0.0
144
0.0
144
0.0
144
0.0
144
0.0208333333333333
144
0.0
144
0.0
144
0.0
144
0.0
144
1.0
144
0.0
144
0.0
144
0.0
144
0.0
144
1.0
147
0.0208333333333333
147
0.0
147
0.0
147
0.0
147
0.0
147
0.0208333333333333
147
0.0
147
0.0
147
0.0
147
0.0
147
1.0
147
0.0
147
0.0
147
0.0
147
0.0
147
1.0
  0
MATERIAL
  5
13EAB
102
{ACAD_XDICTIONARY
360
13EAC
102
}
102
{ACAD_REACTORS
330
1341C
102
}
330
1341C
100
AcDbMaterial
  1
ByLayer
 72
     0
 43
0.0208333333333333
 43
0.0
 43
0.0
 43
0.0
 43
0.0
 43
0.0208333333333333
 43
0.0
 43
0.0
 43
0.0
 43
0.0
 43
1.0
 43
0.0
 43
0.0
 43
0.0
 43
0.0
 43
1.0
 77
     0
 47
0.0208333333333333
 47
0.0
 47
0.0
 47
0.0
 47
0.0
 47
0.0208333333333333
 47
0.0
 47
0.0
 47
0.0
 47
0.0
 47
1.0
 47
0.0
 47
0.0
 47
0.0
 47
0.0
 47
1.0
171
     0
 49
0.0208333333333333
 49
0.0
 49
0.0
 49
0.0
 49
0.0
 49
0.0208333333333333
 49
0.0
 49
0.0
 49
0.0
 49
0.0
 49
1.0
 49
0.0
 49
0.0
 49
0.0
 49
0.0
 49
1.0
175
     0
142
0.0208333333333333
142
0.0
142
0.0
142
0.0
142
0.0
142
0.0208333333333333
142
0.0
142
0.0
142
0.0
142
0.0
142
1.0
142
0.0
142
0.0
142
0.0
142
0.0
142
1.0
179
     0
144
0.0208333333333333
144
0.0
144
0.0
144
0.0
144
0.0
144
0.0208333333333333
144
0.0
144
0.0
144
0.0
144
0.0
144
1.0
144
0.0
144
0.0
144
0.0
144
0.0
144
1.0
147
0.0208333333333333
147
0.0
147
0.0
147
0.0
147
0.0
147
0.0208333333333333
147
0.0
147
0.0
147
0.0
147
0.0
147
1.0
147
0.0
147
0.0
147
0.0
147
0.0
147
1.0
  0
MATERIAL
  5
13EBB
102
{ACAD_XDICTIONARY
360
13EBC
102
}
102
{ACAD_REACTORS
330
1341C
102
}
330
1341C
100
AcDbMaterial
  1
Global
 72
     0
 43
0.0208333333333333
 43
0.0
 43
0.0
 43
0.0
 43
0.0
 43
0.0208333333333333
 43
0.0
 43
0.0
 43
0.0
 43
0.0
 43
1.0
 43
0.0
 43
0.0
 43
0.0
 43
0.0
 43
1.0
 77
     0
 47
0.0208333333333333
 47
0.0
 47
0.0
 47
0.0
 47
0.0
 47
0.0208333333333333
 47
0.0
 47
0.0
 47
0.0
 47
0.0
 47
1.0
 47
0.0
 47
0.0
 47
0.0
 47
0.0
 47
1.0
171
     0
 49
0.0208333333333333
 49
0.0
 49
0.0
 49
0.0
 49
0.0
 49
0.0208333333333333
 49
0.0
 49
0.0
 49
0.0
 49
0.0
 49
1.0
 49
0.0
 49
0.0
 49
0.0
 49
0.0
 49
1.0
175
     0
142
0.0208333333333333
142
0.0
142
0.0
142
0.0
142
0.0
142
0.0208333333333333
142
0.0
142
0.0
142
0.0
142
0.0
142
1.0
142
0.0
142
0.0
142
0.0
142
0.0
142
1.0
179
     0
144
0.0208333333333333
144
0.0
144
0.0
144
0.0
144
0.0
144
0.0208333333333333
144
0.0
144
0.0
144
0.0
144
0.0
144
1.0
144
0.0
144
0.0
144
0.0
144
0.0
144
1.0
147
0.0208333333333333
147
0.0
147
0.0
147
0.0
147
0.0
147
0.0208333333333333
147
0.0
147
0.0
147
0.0
147
0.0
147
1.0
147
0.0
147
0.0
147
0.0
147
0.0
147
1.0
  0
MLEADERSTYLE
  5
13EF1
102
{ACAD_XDICTIONARY
360
164EA
102
}
102
{ACAD_REACTORS
330
13EF0
102
}
330
13EF0
100
AcDbMLeaderStyle
170
     2
171
     1
172
     0
 90
        2
 40
0.0
 41
0.0
173
     1
 91
-1056964608
340
7477
 92
       -2
290
     1
 42
2.0
291
     1
 43
0.36
  3
Standard
 44
4.0
300

342
7475
174
     1
178
     6
175
     1
176
     0
 93
-1056964608
 45
4.0
292
     0
297
     0
 46
4.0
 94
-1056964608
 47
1.0
 49
1.0
140
1.0
293
     1
141
0.0
294
     1
177
     0
142
1.0
295
     0
296
     0
143
0.125
1001
ACAD_MLEADERVER
1070
     2
  0
MLINESTYLE
  5
7480
102
{ACAD_REACTORS
330
7473
102
}
330
7473
100
AcDbMlineStyle
  2
STANDARD
 70
     0
  3

 62
     0
 51
90.0
 52
90.0
 71
     2
 49
0.5
 62
   256
  6
BYLAYER
 49
-0.5
 62
   256
  6
BYLAYER
  0
ACDBPLACEHOLDER
  5
1341B
102
{ACAD_REACTORS
330
1341A
102
}
330
1341A
  0
SCALE
  5
13EDF
102
{ACAD_REACTORS
330
13EDE
102
}
330
13EDE
100
AcDbScale
 70
     0
300
1:1
140
1.0
141
1.0
290
     1
  0
SCALE
  5
13EE0
102
{ACAD_REACTORS
330
13EDE
102
}
330
13EDE
100
AcDbScale
 70
     0
300
1:2
140
1.0
141
2.0
290
     0
  0
SCALE
  5
13EE1
102
{ACAD_REACTORS
330
13EDE
102
}
330
13EDE
100
AcDbScale
 70
     0
300
1:4
140
1.0
141
4.0
290
     0
  0
SCALE
  5
13EE2
102
{ACAD_REACTORS
330
13EDE
102
}
330
13EDE
100
AcDbScale
 70
     0
300
1:5
140
1.0
141
5.0
290
     0
  0
SCALE
  5
13EE3
102
{ACAD_REACTORS
330
13EDE
102
}
330
13EDE
100
AcDbScale
 70
     0
300
1:8
140
1.0
141
8.0
290
     0
  0
SCALE
  5
13EE4
102
{ACAD_REACTORS
330
13EDE
102
}
330
13EDE
100
AcDbScale
 70
     0
300
1:10
140
1.0
141
10.0
290
     0
  0
SCALE
  5
13EE5
102
{ACAD_REACTORS
330
13EDE
102
}
330
13EDE
100
AcDbScale
 70
     0
300
1:16
140
1.0
141
16.0
290
     0
  0
SCALE
  5
13EE6
102
{ACAD_REACTORS
330
13EDE
102
}
330
13EDE
100
AcDbScale
 70
     0
300
1:20
140
1.0
141
20.0
290
     0
  0
SCALE
  5
13EE7
102
{ACAD_REACTORS
330
13EDE
102
}
330
13EDE
100
AcDbScale
 70
     0
300
1:30
140
1.0
141
30.0
290
     0
  0
SCALE
  5
13EE8
102
{ACAD_REACTORS
330
13EDE
102
}
330
13EDE
100
AcDbScale
 70
     0
300
1:40
140
1.0
141
40.0
290
     0
  0
SCALE
  5
13EE9
102
{ACAD_REACTORS
330
13EDE
102
}
330
13EDE
100
AcDbScale
 70
     0
300
1:50
140
1.0
141
50.0
290
     0
  0
SCALE
  5
13EEA
102
{ACAD_REACTORS
330
13EDE
102
}
330
13EDE
100
AcDbScale
 70
     0
300
1:100
140
1.0
141
100.0
290
     0
  0
SCALE
  5
13EEB
102
{ACAD_REACTORS
330
13EDE
102
}
330
13EDE
100
AcDbScale
 70
     0
300
2:1
140
2.0
141
1.0
290
     0
  0
SCALE
  5
13EEC
102
{ACAD_REACTORS
330
13EDE
102
}
330
13EDE
100
AcDbScale
 70
     0
300
4:1
140
4.0
141
1.0
290
     0
  0
SCALE
  5
13EED
102
{ACAD_REACTORS
330
13EDE
102
}
330
13EDE
100
AcDbScale
 70
     0
300
8:1
140
8.0
141
1.0
290
     0
  0
SCALE
  5
13EEE
102
{ACAD_REACTORS
330
13EDE
102
}
330
13EDE
100
AcDbScale
 70
     0
300
10:1
140
10.0
141
1.0
290
     0
  0
SCALE
  5
13EEF
102
{ACAD_REACTORS
330
13EDE
102
}
330
13EDE
100
AcDbScale
 70
     0
300
100:1
140
100.0
141
1.0
290
     0
  0
ACDBSECTIONVIEWSTYLE
  5
13EF3
102
{ACAD_XDICTIONARY
360
164EC
102
}
102
{ACAD_REACTORS
330
13EF2
102
}
330
13EF2
100
AcDbModelDocViewStyle
 70
     0
  3
Metric50
290
     0
100
AcDbSectionViewStyle
 70
     0
 71
     0
 90
      102
 71
     1
340
7475
 40
5.0
340
0
340
0
 40
5.0
300
I, O, Q, S, X, Z
 40
10.0
 90
        0
 40
2.5
 90
        0
 71
     2
340
7479
 90
       25
340
7479
 90
       50
 40
5.0
 40
2.5
 40
5.0
 71
     3
340
7475
 40
5.0
 90
        0
 40
15.0
 90
        1
300
%<\AcVar ViewSectionStartId>%-%<\AcVar ViewSectionEndId>% (%<\AcVar ViewScale \f "%sn">%)
 71
     4
300
ANSI31
 40
1.0
 90
        0
290
     0
290
     0
 90
        6
 40
0.0
 40
1.570796326794896
 40
0.2617993877991494
 40
1.308996938995747
 40
-0.2617993877991494
 40
1.832595714594046
  0
TABLESTYLE
  5
13EDD
102
{ACAD_XDICTIONARY
360
16283
102
}
102
{ACAD_REACTORS
330
13EDC
102
}
330
13EDC
100
AcDbTableStyle
  3
Standard
 70
     0
 71
     0
 40
1.5
 41
1.5
280
     0
281
     0
  7
STANDARD
140
4.5
170
     2
 62
     0
 63
     7
283
     0
274
    -2
284
     1
 64
     0
275
    -2
285
     1
 65
     0
276
    -2
286
     1
 66
     0
277
    -2
287
     1
 67
     0
278
    -2
288
     1
 68
     0
279
    -2
289
     1
 69
     0
  7
STANDARD
140
6.0
170
     5
 62
     0
 63
     7
283
     0
274
    -2
284
     1
 64
     0
275
    -2
285
     1
 65
     0
276
    -2
286
     1
 66
     0
277
    -2
287
     1
 67
     0
278
    -2
288
     1
 68
     0
279
    -2
289
     1
 69
     0
  7
STANDARD
140
4.5
170
     5
 62
     0
 63
     7
283
     0
274
    -2
284
     1
 64
     0
275
    -2
285
     1
 65
     0
276
    -2
286
     1
 66
     0
277
    -2
287
     1
 67
     0
278
    -2
288
     1
 68
     0
279
    -2
289
     1
 69
     0
  0
VISUALSTYLE
  5
13EC9
102
{ACAD_XDICTIONARY
360
164C3
102
}
102
{ACAD_REACTORS
330
13EC3
102
}
330
13EC3
100
AcDbVisualStyle
  2
2dWireframe
 70
     4
 71
     0
 72
     2
 73
     0
 90
        0
 40
-0.6
 41
-30.0
 62
     5
 63
     7
 74
     1
 91
        4
 64
     7
 65
   257
 75
     1
175
     1
 42
1.0
 92
        0
 66
   257
 43
1.0
 76
     1
 77
     6
 78
     2
 67
     7
 79
     5
170
     0
171
     0
290
     0
174
     0
 93
        1
 44
0.0
173
     0
291
     0
 45
0.0
1001
ACAD
1000
AcDbSavedByObjectVersion
1070
     0
  0
VISUALSTYLE
  5
13EC8
102
{ACAD_XDICTIONARY
360
164C1
102
}
102
{ACAD_REACTORS
330
13EC3
102
}
330
13EC3
100
AcDbVisualStyle
  2
Basic
 70
     7
 71
     1
 72
     0
 73
     1
 90
        0
 40
-0.6
 41
-30.0
 62
     5
 63
     7
 74
     0
 91
        4
 64
     7
 65
   257
 75
     1
175
     1
 42
1.0
 92
        8
 66
     7
 43
1.0
 76
     1
 77
     6
 78
     2
 67
     7
 79
     5
170
     0
171
     0
290
     0
174
     0
 93
        1
 44
0.0
173
     0
291
     1
 45
0.0
1001
ACAD
1000
AcDbSavedByObjectVersion
1070
     0
  0
VISUALSTYLE
  5
13ECF
102
{ACAD_XDICTIONARY
360
164CF
102
}
102
{ACAD_REACTORS
330
13EC3
102
}
330
13EC3
100
AcDbVisualStyle
  2
Brighten
 70
    12
 71
     2
 72
     2
 73
     0
 90
        0
 40
-0.6
 41
-30.0
 62
     5
 63
     7
 74
     1
 91
        4
 64
     7
 65
   257
 75
     1
175
     1
 42
1.0
 92
        8
 66
     7
 43
1.0
 76
     1
 77
     6
 78
     2
 67
     7
 79
     5
170
     0
171
     0
290
     0
174
     0
 93
        1
 44
50.0
173
     0
291
     1
 45
0.0
1001
ACAD
1000
AcDbSavedByObjectVersion
1070
     0
  0
VISUALSTYLE
  5
13ED3
102
{ACAD_XDICTIONARY
360
164D7
102
}
102
{ACAD_REACTORS
330
13EC3
102
}
330
13EC3
100
AcDbVisualStyle
  2
ColorChange
 70
    16
 71
     2
 72
     2
 73
     3
 90
        0
 40
-0.6
 41
-30.0
 62
     5
 63
     8
 74
     1
 91
        4
 64
     7
 65
   257
 75
     1
175
     1
 42
1.0
 92
        8
 66
     8
 43
1.0
 76
     1
 77
     6
 78
     2
 67
     7
 79
     5
170
     0
171
     0
290
     0
174
     0
 93
        1
 44
0.0
173
     0
291
     1
 45
0.0
1001
ACAD
1000
AcDbSavedByObjectVersion
1070
     0
  0
VISUALSTYLE
  5
13ECC
102
{ACAD_XDICTIONARY
360
164C9
102
}
102
{ACAD_REACTORS
330
13EC3
102
}
330
13EC3
100
AcDbVisualStyle
  2
Conceptual
 70
     9
 71
     3
 72
     2
 73
     0
 90
        0
 40
-0.6
 41
-30.0
 62
     5
 63
     7
 74
     2
 91
        2
 64
     7
 65
   257
 75
     1
175
     1
 42
179.0
 92
        8
 66
     7
 43
1.0
 76
     1
 77
     6
 78
     2
 67
     7
 79
     3
170
     0
171
     0
290
     0
174
     0
 93
        1
 44
0.0
173
     0
291
     0
 45
0.0
1001
ACAD
1000
AcDbSavedByObjectVersion
1070
     0
  0
VISUALSTYLE
  5
13ECE
102
{ACAD_XDICTIONARY
360
164CD
102
}
102
{ACAD_REACTORS
330
13EC3
102
}
330
13EC3
100
AcDbVisualStyle
  2
Dim
 70
    11
 71
     2
 72
     2
 73
     0
 90
        0
 40
-0.6
 41
-30.0
 62
     5
 63
     7
 74
     1
 91
        4
 64
     7
 65
   257
 75
     1
175
     1
 42
1.0
 92
        8
 66
     7
 43
1.0
 76
     1
 77
     6
 78
     2
 67
     7
 79
     5
170
     0
171
     0
290
     0
174
     0
 93
        1
 44
-50.0
173
     0
291
     1
 45
0.0
1001
ACAD
1000
AcDbSavedByObjectVersion
1070
     0
  0
VISUALSTYLE
  5
13EDB
102
{ACAD_XDICTIONARY
360
164E7
102
}
102
{ACAD_REACTORS
330
13EC3
102
}
330
13EC3
100
AcDbVisualStyle
  2
EdgeColorOff
 70
    22
 71
     2
 72
     2
 73
     0
 90
        0
 40
-0.6
 41
-30.0
 62
     5
 63
     7
 74
     1
 91
        4
 64
     7
 65
   257
 75
     1
175
     1
 42
1.0
 92
        8
 66
     7
 43
1.0
 76
     1
 77
     6
 78
     2
 67
     7
 79
     5
170
     0
171
     0
290
     0
174
     0
 93
        1
 44
0.0
173
     0
291
     1
 45
0.0
1001
ACAD
1000
AcDbSavedByObjectVersion
1070
     0
  0
VISUALSTYLE
  5
13ED2
102
{ACAD_XDICTIONARY
360
164D5
102
}
102
{ACAD_REACTORS
330
13EC3
102
}
330
13EC3
100
AcDbVisualStyle
  2
Facepattern
 70
    15
 71
     2
 72
     2
 73
     0
 90
        0
 40
-0.6
 41
-30.0
 62
     5
 63
     7
 74
     1
 91
        4
 64
     7
 65
   257
 75
     1
175
     1
 42
1.0
 92
        8
 66
     7
 43
1.0
 76
     1
 77
     6
 78
     2
 67
     7
 79
     5
170
     0
171
     0
290
     0
174
     0
 93
        1
 44
0.0
173
     0
291
     1
 45
0.0
1001
ACAD
1000
AcDbSavedByObjectVersion
1070
     0
  0
VISUALSTYLE
  5
13EC4
102
{ACAD_XDICTIONARY
360
164B9
102
}
102
{ACAD_REACTORS
330
13EC3
102
}
330
13EC3
100
AcDbVisualStyle
  2
Flat
 70
     0
 71
     2
 72
     1
 73
     1
 90
        2
 40
-0.6
 41
30.0
 62
     5
 63
     7
 74
     0
 91
        0
 64
     7
 65
   257
 75
     1
175
     1
 42
1.0
 92
        8
 66
     7
 43
1.0
 76
     1
 77
     6
 78
     2
 67
     7
 79
     5
170
     0
171
     0
290
     0
174
     0
 93
       13
 44
0.0
173
     0
291
     1
 45
0.0
1001
ACAD
1000
AcDbSavedByObjectVersion
1070
     0
  0
VISUALSTYLE
  5
13EC5
102
{ACAD_XDICTIONARY
360
164BB
102
}
102
{ACAD_REACTORS
330
13EC3
102
}
330
13EC3
100
AcDbVisualStyle
  2
FlatWithEdges
 70
     1
 71
     2
 72
     1
 73
     1
 90
        2
 40
-0.6
 41
30.0
 62
     5
 63
     7
 74
     1
 91
        0
 64
     7
 65
   257
 75
     1
175
     1
 42
1.0
 92
        0
 66
   257
 43
1.0
 76
     1
 77
     6
 78
     2
 67
     7
 79
     5
170
     0
171
     0
290
     0
174
     0
 93
       13
 44
0.0
173
     0
291
     1
 45
0.0
1001
ACAD
1000
AcDbSavedByObjectVersion
1070
     0
  0
VISUALSTYLE
  5
13EC6
102
{ACAD_XDICTIONARY
360
164BD
102
}
102
{ACAD_REACTORS
330
13EC3
102
}
330
13EC3
100
AcDbVisualStyle
  2
Gouraud
 70
     2
 71
     2
 72
     2
 73
     1
 90
        2
 40
-0.6
 41
30.0
 62
     5
 63
     7
 74
     0
 91
        0
 64
     7
 65
   257
 75
     1
175
     1
 42
1.0
 92
        0
 66
     7
 43
1.0
 76
     1
 77
     6
 78
     2
 67
     7
 79
     5
170
     0
171
     0
290
     0
174
     0
 93
       13
 44
0.0
173
     0
291
     1
 45
0.0
1001
ACAD
1000
AcDbSavedByObjectVersion
1070
     0
  0
VISUALSTYLE
  5
13EC7
102
{ACAD_XDICTIONARY
360
164BF
102
}
102
{ACAD_REACTORS
330
13EC3
102
}
330
13EC3
100
AcDbVisualStyle
  2
GouraudWithEdges
 70
     3
 71
     2
 72
     2
 73
     1
 90
        2
 40
-0.6
 41
30.0
 62
     5
 63
     7
 74
     1
 91
        0
 64
     7
 65
   257
 75
     1
175
     1
 42
1.0
 92
        0
 66
   257
 43
1.0
 76
     1
 77
     6
 78
     2
 67
     7
 79
     5
170
     0
171
     0
290
     0
174
     0
 93
       13
 44
0.0
173
     0
291
     1
 45
0.0
1001
ACAD
1000
AcDbSavedByObjectVersion
1070
     0
  0
VISUALSTYLE
  5
13ECB
102
{ACAD_XDICTIONARY
360
164C7
102
}
102
{ACAD_REACTORS
330
13EC3
102
}
330
13EC3
100
AcDbVisualStyle
  2
Hidden
 70
     6
 71
     1
 72
     2
 73
     2
 90
        0
 40
-0.6
 41
-30.0
 62
     5
 63
     7
 74
     2
 91
        2
 64
     7
 65
   257
 75
     2
175
     1
 42
40.0
 92
        0
 66
   257
 43
1.0
 76
     1
 77
     6
 78
     2
 67
     7
 79
     3
170
     0
171
     0
290
     0
174
     0
 93
        1
 44
0.0
173
     0
291
     0
 45
0.0
1001
ACAD
1000
AcDbSavedByObjectVersion
1070
     0
  0
VISUALSTYLE
  5
13ED9
102
{ACAD_XDICTIONARY
360
164E3
102
}
102
{ACAD_REACTORS
330
13EC3
102
}
330
13EC3
100
AcDbVisualStyle
  2
JitterOff
 70
    20
 71
     2
 72
     2
 73
     0
 90
        0
 40
-0.6
 41
-30.0
 62
     5
 63
     7
 74
     1
 91
        4
 64
     7
 65
   257
 75
     1
175
     1
 42
1.0
 92
       10
 66
     7
 43
1.0
 76
     1
 77
     6
 78
     2
 67
     7
 79
     5
170
     0
171
     0
290
     0
174
     0
 93
        1
 44
0.0
173
     0
291
     1
 45
0.0
1001
ACAD
1000
AcDbSavedByObjectVersion
1070
     0
  0
VISUALSTYLE
  5
13ED1
102
{ACAD_XDICTIONARY
360
164D3
102
}
102
{ACAD_REACTORS
330
13EC3
102
}
330
13EC3
100
AcDbVisualStyle
  2
Linepattern
 70
    14
 71
     2
 72
     2
 73
     0
 90
        0
 40
-0.6
 41
-30.0
 62
     5
 63
     7
 74
     1
 91
        4
 64
     7
 65
   257
 75
     7
175
     7
 42
1.0
 92
        8
 66
     7
 43
1.0
 76
     1
 77
     6
 78
     2
 67
     7
 79
     5
170
     0
171
     0
290
     0
174
     0
 93
        1
 44
0.0
173
     0
291
     1
 45
0.0
1001
ACAD
1000
AcDbSavedByObjectVersion
1070
     0
  0
VISUALSTYLE
  5
13EDA
102
{ACAD_XDICTIONARY
360
164E5
102
}
102
{ACAD_REACTORS
330
13EC3
102
}
330
13EC3
100
AcDbVisualStyle
  2
OverhangOff
 70
    21
 71
     2
 72
     2
 73
     0
 90
        0
 40
-0.6
 41
-30.0
 62
     5
 63
     7
 74
     1
 91
        4
 64
     7
 65
   257
 75
     1
175
     1
 42
1.0
 92
        9
 66
     7
 43
1.0
 76
     1
 77
     6
 78
     2
 67
     7
 79
     5
170
     0
171
     0
290
     0
174
     0
 93
        1
 44
0.0
173
     0
291
     1
 45
0.0
1001
ACAD
1000
AcDbSavedByObjectVersion
1070
     0
  0
VISUALSTYLE
  5
13ECD
102
{ACAD_XDICTIONARY
360
164CB
102
}
102
{ACAD_REACTORS
330
13EC3
102
}
330
13EC3
100
AcDbVisualStyle
  2
Realistic
 70
     8
 71
     2
 72
     2
 73
     0
 90
        2
 40
-0.6
 41
30.0
 62
     5
 63
     7
 74
     0
 91
        0
 64
     7
 65
   257
 75
     1
175
     1
 42
1.0
 92
        8
 66
   257
 43
1.0
 76
     1
 77
     6
 78
     2
 67
     7
 79
     3
170
     0
171
     0
290
     0
174
     0
 93
       13
 44
0.0
173
     0
291
     0
 45
0.0
1001
ACAD
1000
AcDbSavedByObjectVersion
1070
     0
  0
VISUALSTYLE
  5
13ED8
102
{ACAD_XDICTIONARY
360
164E1
102
}
102
{ACAD_REACTORS
330
13EC3
102
}
330
13EC3
100
AcDbVisualStyle
  2
Shaded
 70
    27
 71
     2
 72
     2
 73
     1
 90
        2
 40
-0.6
 41
30.0
 62
     5
 63
     7
 74
     0
 91
        4
 64
     7
 65
   257
 75
     1
175
     1
 42
1.0
 92
        8
 66
   257
 43
1.0
 76
     1
 77
     6
 78
     2
 67
     8
 79
     3
170
     0
171
     0
290
     0
174
     0
 93
        5
 44
0.0
173
     0
291
     0
 45
0.0
1001
ACAD
1000
AcDbSavedByObjectVersion
1070
     0
  0
VISUALSTYLE
  5
13ED7
102
{ACAD_XDICTIONARY
360
164DF
102
}
102
{ACAD_REACTORS
330
13EC3
102
}
330
13EC3
100
AcDbVisualStyle
  2
Shaded with edges
 70
    26
 71
     2
 72
     2
 73
     1
 90
        2
 40
-0.6
 41
30.0
 62
     5
 63
     7
 74
     1
 91
       10
 64
     7
 65
   257
 75
     2
175
     1
 42
1.0
 92
        8
 66
   257
 43
1.0
 76
     1
 77
     6
 78
     2
 67
     7
 79
     3
170
     0
171
     0
290
     0
174
     0
 93
        5
 44
0.0
173
     0
291
     0
 45
0.0
1001
ACAD
1000
AcDbSavedByObjectVersion
1070
     0
  0
VISUALSTYLE
  5
13ED4
102
{ACAD_XDICTIONARY
360
164D9
102
}
102
{ACAD_REACTORS
330
13EC3
102
}
330
13EC3
100
AcDbVisualStyle
  2
Shades of Gray
 70
    23
 71
     2
 72
     2
 73
     3
 90
        0
 40
-0.6
 41
-30.0
 62
     5
 63
     7
 74
     2
 91
        2
 64
     7
 65
     7
 75
     1
175
     1
 42
40.0
 92
        8
 66
     7
 43
1.0
 76
     1
 77
     6
 78
     2
 67
     7
 79
     3
170
     0
171
     0
290
     0
174
     0
 93
        1
 44
0.0
173
     0
291
     0
 45
0.0
1001
ACAD
1000
AcDbSavedByObjectVersion
1070
     0
  0
VISUALSTYLE
  5
13ED5
102
{ACAD_XDICTIONARY
360
164DB
102
}
102
{ACAD_REACTORS
330
13EC3
102
}
330
13EC3
100
AcDbVisualStyle
  2
Sketchy
 70
    24
 71
     1
 72
     2
 73
     2
 90
        0
 40
-0.6
 41
-30.0
 62
     5
 63
     7
 74
     2
 91
        2
 64
     7
 65
     7
 75
     1
175
     1
 42
40.0
 92
       11
 66
     7
 43
1.0
 76
     1
 77
     6
 78
     2
 67
     7
 79
     6
170
     0
171
     0
290
     0
174
     0
 93
        1
 44
0.0
173
     0
291
     0
 45
0.0
1001
ACAD
1000
AcDbSavedByObjectVersion
1070
     0
  0
VISUALSTYLE
  5
13ED0
102
{ACAD_XDICTIONARY
360
164D1
102
}
102
{ACAD_REACTORS
330
13EC3
102
}
330
13EC3
100
AcDbVisualStyle
  2
Thicken
 70
    13
 71
     2
 72
     2
 73
     0
 90
        0
 40
-0.6
 41
-30.0
 62
     5
 63
     7
 74
     1
 91
        4
 64
     7
 65
   257
 75
     1
175
     1
 42
1.0
 92
       12
 66
     7
 43
1.0
 76
     1
 77
     6
 78
     2
 67
     7
 79
     5
170
     0
171
     0
290
     0
174
     0
 93
        1
 44
0.0
173
     0
291
     1
 45
0.0
1001
ACAD
1000
AcDbSavedByObjectVersion
1070
     0
  0
VISUALSTYLE
  5
13ECA
102
{ACAD_XDICTIONARY
360
164C5
102
}
102
{ACAD_REACTORS
330
13EC3
102
}
330
13EC3
100
AcDbVisualStyle
  2
Wireframe
 70
     5
 71
     0
 72
     2
 73
     0
 90
        0
 40
-0.6
 41
-30.0
 62
     5
 63
     7
 74
     1
 91
        4
 64
     7
 65
   257
 75
     1
175
     1
 42
1.0
 92
        0
 66
   257
 43
1.0
 76
     1
 77
     6
 78
     2
 67
     7
 79
     3
170
     0
171
     0
290
     0
174
     0
 93
        1
 44
0.0
173
     0
291
     0
 45
0.0
1001
ACAD
1000
AcDbSavedByObjectVersion
1070
     0
  0
VISUALSTYLE
  5
13ED6
102
{ACAD_XDICTIONARY
360
164DD
102
}
102
{ACAD_REACTORS
330
13EC3
102
}
330
13EC3
100
AcDbVisualStyle
  2
X-Ray
 70
    25
 71
     2
 72
     2
 73
     1
 90
        1
 40
0.5
 41
-30.0
 62
     5
 63
     7
 74
     1
 91
        0
 64
     7
 65
   257
 75
     1
175
     1
 42
1.0
 92
        8
 66
     7
 43
1.0
 76
     1
 77
     6
 78
     2
 67
     7
 79
     3
170
     0
171
     0
290
     0
174
     0
 93
       13
 44
0.0
173
     0
291
     0
 45
0.0
1001
ACAD
1000
AcDbSavedByObjectVersion
1070
     0
  0
DICTIONARYVAR
  5
162CC
102
{ACAD_REACTORS
330
13533
102
}
330
13533
100
DictionaryVariables
280
     0
  1
1:1
  0
DICTIONARYVAR
  5
162C9
102
{ACAD_REACTORS
330
13533
102
}
330
13533
100
DictionaryVariables
280
     0
  1
STANDARD
  0
DICTIONARYVAR
  5
162C8
102
{ACAD_REACTORS
330
13533
102
}
330
13533
100
DictionaryVariables
280
     0
  1
STANDARD
  0
DICTIONARYVAR
  5
162CA
102
{ACAD_REACTORS
330
13533
102
}
330
13533
100
DictionaryVariables
280
     0
  1
Metric50
  0
DICTIONARYVAR
  5
162CB
102
{ACAD_REACTORS
330
13533
102
}
330
13533
100
DictionaryVariables
280
     0
  1
Metric50
  0
DICTIONARYVAR
  5
13534
102
{ACAD_REACTORS
330
13533
102
}
330
13533
100
DictionaryVariables
280
     0
  1
1
  0
DICTIONARYVAR
  5
162CE
102
{ACAD_REACTORS
330
13533
102
}
330
13533
100
DictionaryVariables
280
     0
  1
0
  0
DICTIONARYVAR
  5
13535
102
{ACAD_REACTORS
330
13533
102
}
330
13533
100
DictionaryVariables
280
     0
  1

  0
DICTIONARYVAR
  5
162CD
102
{ACAD_REACTORS
330
13533
102
}
330
13533
100
DictionaryVariables
280
     0
  1
127
  0
DICTIONARYVAR
  5
164AE
102
{ACAD_REACTORS
330
13533
102
}
330
13533
100
DictionaryVariables
280
     0
  1
2
  0
DICTIONARY
  5
164EE
330
13EF5
100
AcDbDictionary
280
     1
281
     1
  3
ACAD_XREC_ROUNDTRIP
360
164EF
  0
DICTIONARY
  5
164B2
330
13420
100
AcDbDictionary
280
     1
281
     1
  3
ACAD_XREC_ROUNDTRIP
360
164B3
  0
DICTIONARY
  5
164B4
330
13421
100
AcDbDictionary
280
     1
281
     1
  3
ACAD_XREC_ROUNDTRIP
360
164B5
  0
DICTIONARY
  5
13EB4
330
13EB3
100
AcDbDictionary
280
     1
281
     1
  3
ACAD_XREC_ROUNDTRIP
360
164B7
  3
BUMPTILE
360
13EB6
  3
DIFFUSETILE
360
13EB5
  3
OPACITYTILE
360
13EB9
  3
REFLECTIONTILE
360
13EB8
  3
REFRACTIONTILE
360
13EBA
  3
SPECULARTILE
360
13EB7
  0
DICTIONARY
  5
13EAC
330
13EAB
100
AcDbDictionary
280
     1
281
     1
  3
ACAD_XREC_ROUNDTRIP
360
164B6
  3
BUMPTILE
360
13EAE
  3
DIFFUSETILE
360
13EAD
  3
OPACITYTILE
360
13EB1
  3
REFLECTIONTILE
360
13EB0
  3
REFRACTIONTILE
360
13EB2
  3
SPECULARTILE
360
13EAF
  0
DICTIONARY
  5
13EBC
330
13EBB
100
AcDbDictionary
280
     1
281
     1
  3
ACAD_XREC_ROUNDTRIP
360
164B8
  3
BUMPTILE
360
13EBE
  3
DIFFUSETILE
360
13EBD
  3
OPACITYTILE
360
13EC1
  3
REFLECTIONTILE
360
13EC0
  3
REFRACTIONTILE
360
13EC2
  3
SPECULARTILE
360
13EBF
  0
DICTIONARY
  5
164EA
330
13EF1
100
AcDbDictionary
280
     1
281
     1
  3
ACAD_XREC_ROUNDTRIP
360
164EB
  0
DICTIONARY
  5
164EC
330
13EF3
100
AcDbDictionary
280
     1
281
     1
  3
ACAD_XREC_ROUNDTRIP
360
164ED
  0
DICTIONARY
  5
16283
330
13EDD
100
AcDbDictionary
280
     1
281
     1
  3
ACAD_ROUNDTRIP_2008_TABLESTYLE_CELLSTYLEMAP
360
164AF
  3
ACAD_XREC_ROUNDTRIP
360
164E9
  0
DICTIONARY
  5
164C3
330
13EC9
100
AcDbDictionary
280
     1
281
     1
  3
ACAD_XREC_ROUNDTRIP
360
164C4
  0
DICTIONARY
  5
164C1
330
13EC8
100
AcDbDictionary
280
     1
281
     1
  3
ACAD_XREC_ROUNDTRIP
360
164C2
  0
DICTIONARY
  5
164CF
330
13ECF
100
AcDbDictionary
280
     1
281
     1
  3
ACAD_XREC_ROUNDTRIP
360
164D0
  0
DICTIONARY
  5
164D7
330
13ED3
100
AcDbDictionary
280
     1
281
     1
  3
ACAD_XREC_ROUNDTRIP
360
164D8
  0
DICTIONARY
  5
164C9
330
13ECC
100
AcDbDictionary
280
     1
281
     1
  3
ACAD_XREC_ROUNDTRIP
360
164CA
  0
DICTIONARY
  5
164CD
330
13ECE
100
AcDbDictionary
280
     1
281
     1
  3
ACAD_XREC_ROUNDTRIP
360
164CE
  0
DICTIONARY
  5
164E7
330
13EDB
100
AcDbDictionary
280
     1
281
     1
  3
ACAD_XREC_ROUNDTRIP
360
164E8
  0
DICTIONARY
  5
164D5
330
13ED2
100
AcDbDictionary
280
     1
281
     1
  3
ACAD_XREC_ROUNDTRIP
360
164D6
  0
DICTIONARY
  5
164B9
330
13EC4
100
AcDbDictionary
280
     1
281
     1
  3
ACAD_XREC_ROUNDTRIP
360
164BA
  0
DICTIONARY
  5
164BB
330
13EC5
100
AcDbDictionary
280
     1
281
     1
  3
ACAD_XREC_ROUNDTRIP
360
164BC
  0
DICTIONARY
  5
164BD
330
13EC6
100
AcDbDictionary
280
     1
281
     1
  3
ACAD_XREC_ROUNDTRIP
360
164BE
  0
DICTIONARY
  5
164BF
330
13EC7
100
AcDbDictionary
280
     1
281
     1
  3
ACAD_XREC_ROUNDTRIP
360
164C0
  0
DICTIONARY
  5
164C7
330
13ECB
100
AcDbDictionary
280
     1
281
     1
  3
ACAD_XREC_ROUNDTRIP
360
164C8
  0
DICTIONARY
  5
164E3
330
13ED9
100
AcDbDictionary
280
     1
281
     1
  3
ACAD_XREC_ROUNDTRIP
360
164E4
  0
DICTIONARY
  5
164D3
330
13ED1
100
AcDbDictionary
280
     1
281
     1
  3
ACAD_XREC_ROUNDTRIP
360
164D4
  0
DICTIONARY
  5
164E5
330
13EDA
100
AcDbDictionary
280
     1
281
     1
  3
ACAD_XREC_ROUNDTRIP
360
164E6
  0
DICTIONARY
  5
164CB
330
13ECD
100
AcDbDictionary
280
     1
281
     1
  3
ACAD_XREC_ROUNDTRIP
360
164CC
  0
DICTIONARY
  5
164E1
330
13ED8
100
AcDbDictionary
280
     1
281
     1
  3
ACAD_XREC_ROUNDTRIP
360
164E2
  0
DICTIONARY
  5
164DF
330
13ED7
100
AcDbDictionary
280
     1
281
     1
  3
ACAD_XREC_ROUNDTRIP
360
164E0
  0
DICTIONARY
  5
164D9
330
13ED4
100
AcDbDictionary
280
     1
281
     1
  3
ACAD_XREC_ROUNDTRIP
360
164DA
  0
DICTIONARY
  5
164DB
330
13ED5
100
AcDbDictionary
280
     1
281
     1
  3
ACAD_XREC_ROUNDTRIP
360
164DC
  0
DICTIONARY
  5
164D1
330
13ED0
100
AcDbDictionary
280
     1
281
     1
  3
ACAD_XREC_ROUNDTRIP
360
164D2
  0
DICTIONARY
  5
164C5
330
13ECA
100
AcDbDictionary
280
     1
281
     1
  3
ACAD_XREC_ROUNDTRIP
360
164C6
  0
DICTIONARY
  5
164DD
330
13ED6
100
AcDbDictionary
280
     1
281
     1
  3
ACAD_XREC_ROUNDTRIP
360
164DE
  0
XRECORD
  5
164EF
102
{ACAD_REACTORS
330
164EE
102
}
330
164EE
100
AcDbXrecord
280
     1
102
DISPLAYNAME
  1
Metric50
102
FLAGS
 90
        0
  0
XRECORD
  5
164B3
102
{ACAD_REACTORS
330
164B2
102
}
330
164B2
100
AcDbXrecord
280
     1
102
SHADEPLOT
 70
     0
102
SHADEPLOTRESLEVEL
 70
     2
102
SHADEPLOTCUSTOMDPI
 70
   300
  0
XRECORD
  5
164B5
102
{ACAD_REACTORS
330
164B4
102
}
330
164B4
100
AcDbXrecord
280
     1
102
SHADEPLOT
 70
     0
102
SHADEPLOTRESLEVEL
 70
     2
102
SHADEPLOTCUSTOMDPI
 70
   300
  0
XRECORD
  5
164B7
102
{ACAD_REACTORS
330
13EB4
102
}
330
13EB4
100
AcDbXrecord
280
     1
102
MATERIAL
148
0.0
149
0.0
149
0.0
 93
        0
 94
      127
282
     0
 72
     0
 77
     0
171
     0
175
     0
179
     0
273
     0
  0
XRECORD
  5
13EB6
102
{ACAD_REACTORS
330
13EB4
102
}
330
13EB4
100
AcDbXrecord
280
     1
270
     1
271
     1
  0
XRECORD
  5
13EB5
102
{ACAD_REACTORS
330
13EB4
102
}
330
13EB4
100
AcDbXrecord
280
     1
270
     1
271
     1
  0
XRECORD
  5
13EB9
102
{ACAD_REACTORS
330
13EB4
102
}
330
13EB4
100
AcDbXrecord
280
     1
270
     1
271
     1
  0
XRECORD
  5
13EB8
102
{ACAD_REACTORS
330
13EB4
102
}
330
13EB4
100
AcDbXrecord
280
     1
270
     1
271
     1
  0
XRECORD
  5
13EBA
102
{ACAD_REACTORS
330
13EB4
102
}
330
13EB4
100
AcDbXrecord
280
     1
270
     1
271
     1
  0
XRECORD
  5
13EB7
102
{ACAD_REACTORS
330
13EB4
102
}
330
13EB4
100
AcDbXrecord
280
     1
270
     1
271
     1
  0
XRECORD
  5
164B6
102
{ACAD_REACTORS
330
13EAC
102
}
330
13EAC
100
AcDbXrecord
280
     1
102
MATERIAL
148
0.0
149
0.0
149
0.0
 93
        0
 94
      127
282
     0
 72
     0
 77
     0
171
     0
175
     0
179
     0
273
     0
  0
XRECORD
  5
13EAE
102
{ACAD_REACTORS
330
13EAC
102
}
330
13EAC
100
AcDbXrecord
280
     1
270
     1
271
     1
  0
XRECORD
  5
13EAD
102
{ACAD_REACTORS
330
13EAC
102
}
330
13EAC
100
AcDbXrecord
280
     1
270
     1
271
     1
  0
XRECORD
  5
13EB1
102
{ACAD_REACTORS
330
13EAC
102
}
330
13EAC
100
AcDbXrecord
280
     1
270
     1
271
     1
  0
XRECORD
  5
13EB0
102
{ACAD_REACTORS
330
13EAC
102
}
330
13EAC
100
AcDbXrecord
280
     1
270
     1
271
     1
  0
XRECORD
  5
13EB2
102
{ACAD_REACTORS
330
13EAC
102
}
330
13EAC
100
AcDbXrecord
280
     1
270
     1
271
     1
  0
XRECORD
  5
13EAF
102
{ACAD_REACTORS
330
13EAC
102
}
330
13EAC
100
AcDbXrecord
280
     1
270
     1
271
     1
  0
XRECORD
  5
164B8
102
{ACAD_REACTORS
330
13EBC
102
}
330
13EBC
100
AcDbXrecord
280
     1
102
MATERIAL
148
0.0
149
0.0
149
0.0
 93
        0
 94
      127
282
     0
 72
     0
 77
     0
171
     0
175
     0
179
     0
273
     0
  0
XRECORD
  5
13EBE
102
{ACAD_REACTORS
330
13EBC
102
}
330
13EBC
100
AcDbXrecord
280
     1
270
     1
271
     1
  0
XRECORD
  5
13EBD
102
{ACAD_REACTORS
330
13EBC
102
}
330
13EBC
100
AcDbXrecord
280
     1
270
     1
271
     1
  0
XRECORD
  5
13EC1
102
{ACAD_REACTORS
330
13EBC
102
}
330
13EBC
100
AcDbXrecord
280
     1
270
     1
271
     1
  0
XRECORD
  5
13EC0
102
{ACAD_REACTORS
330
13EBC
102
}
330
13EBC
100
AcDbXrecord
280
     1
270
     1
271
     1
  0
XRECORD
  5
13EC2
102
{ACAD_REACTORS
330
13EBC
102
}
330
13EBC
100
AcDbXrecord
280
     1
270
     1
271
     1
  0
XRECORD
  5
13EBF
102
{ACAD_REACTORS
330
13EBC
102
}
330
13EBC
100
AcDbXrecord
280
     1
270
     1
271
     1
  0
XRECORD
  5
164EB
102
{ACAD_REACTORS
330
164EA
102
}
330
164EA
100
AcDbXrecord
280
     1
102
ACAD_ROUNDTRIP_2012_MLEADER_STYLE
298
     1
  0
XRECORD
  5
164ED
102
{ACAD_REACTORS
330
164EC
102
}
330
164EC
100
AcDbXrecord
280
     1
102
DISPLAYNAME
  1
Metric50
102
FLAGS
 90
        0
  0
CELLSTYLEMAP
  5
164AF
102
{ACAD_REACTORS
330
16283
102
}
330
16283
100
AcDbCellStyleMap
 90
        3
300
CELLSTYLE
  1
TABLEFORMAT_BEGIN
 90
        5
170
     1
 91
        0
 92
    32768
 62
   257
 93
        1
300
CONTENTFORMAT
  1
CONTENTFORMAT_BEGIN
 90
        0
 91
        0
 92
      512
 93
        0
300

 40
0.0
140
1.0
 94
        5
 62
     0
340
7475
144
6.0
309
CONTENTFORMAT_END
171
     1
301
MARGIN
  1
CELLMARGIN_BEGIN
 40
1.5
 40
1.5
 40
1.5
 40
1.5
 40
4.5
 40
4.5
309
CELLMARGIN_END
 94
        6
 95
        1
302
GRIDFORMAT
  1
GRIDFORMAT_BEGIN
 90
        0
 91
        1
 62
     0
 92
       -2
340
0
 93
        0
 40
1.125
309
GRIDFORMAT_END
 95
        2
302
GRIDFORMAT
  1
GRIDFORMAT_BEGIN
 90
        0
 91
        1
 62
     0
 92
       -2
340
0
 93
        0
 40
1.125
309
GRIDFORMAT_END
 95
        4
302
GRIDFORMAT
  1
GRIDFORMAT_BEGIN
 90
        0
 91
        1
 62
     0
 92
       -2
340
0
 93
        0
 40
1.125
309
GRIDFORMAT_END
 95
        8
302
GRIDFORMAT
  1
GRIDFORMAT_BEGIN
 90
        0
 91
        1
 62
     0
 92
       -2
340
0
 93
        0
 40
1.125
309
GRIDFORMAT_END
 95
       16
302
GRIDFORMAT
  1
GRIDFORMAT_BEGIN
 90
        0
 91
        1
 62
     0
 92
       -2
340
0
 93
        0
 40
1.125
309
GRIDFORMAT_END
 95
       32
302
GRIDFORMAT
  1
GRIDFORMAT_BEGIN
 90
        0
 91
        1
 62
     0
 92
       -2
340
0
 93
        0
 40
1.125
309
GRIDFORMAT_END
309
TABLEFORMAT_END
  1
CELLSTYLE_BEGIN
 90
        1
 91
        1
300
_TITLE
309
CELLSTYLE_END
300
CELLSTYLE
  1
TABLEFORMAT_BEGIN
 90
        5
170
     1
 91
        0
 92
        0
 62
   257
 93
        1
300
CONTENTFORMAT
  1
CONTENTFORMAT_BEGIN
 90
        0
 91
        0
 92
      512
 93
        0
300

 40
0.0
140
1.0
 94
        5
 62
     0
340
7475
144
4.5
309
CONTENTFORMAT_END
171
     1
301
MARGIN
  1
CELLMARGIN_BEGIN
 40
1.5
 40
1.5
 40
1.5
 40
1.5
 40
4.5
 40
4.5
309
CELLMARGIN_END
 94
        6
 95
        1
302
GRIDFORMAT
  1
GRIDFORMAT_BEGIN
 90
        0
 91
        1
 62
     0
 92
       -2
340
0
 93
        0
 40
1.125
309
GRIDFORMAT_END
 95
        2
302
GRIDFORMAT
  1
GRIDFORMAT_BEGIN
 90
        0
 91
        1
 62
     0
 92
       -2
340
0
 93
        0
 40
1.125
309
GRIDFORMAT_END
 95
        4
302
GRIDFORMAT
  1
GRIDFORMAT_BEGIN
 90
        0
 91
        1
 62
     0
 92
       -2
340
0
 93
        0
 40
1.125
309
GRIDFORMAT_END
 95
        8
302
GRIDFORMAT
  1
GRIDFORMAT_BEGIN
 90
        0
 91
        1
 62
     0
 92
       -2
340
0
 93
        0
 40
1.125
309
GRIDFORMAT_END
 95
       16
302
GRIDFORMAT
  1
GRIDFORMAT_BEGIN
 90
        0
 91
        1
 62
     0
 92
       -2
340
0
 93
        0
 40
1.125
309
GRIDFORMAT_END
 95
       32
302
GRIDFORMAT
  1
GRIDFORMAT_BEGIN
 90
        0
 91
        1
 62
     0
 92
       -2
340
0
 93
        0
 40
1.125
309
GRIDFORMAT_END
309
TABLEFORMAT_END
  1
CELLSTYLE_BEGIN
 90
        2
 91
        1
300
_HEADER
309
CELLSTYLE_END
300
CELLSTYLE
  1
TABLEFORMAT_BEGIN
 90
        5
170
     1
 91
        0
 92
        0
 62
   257
 93
        1
300
CONTENTFORMAT
  1
CONTENTFORMAT_BEGIN
 90
        0
 91
        0
 92
      512
 93
        0
300

 40
0.0
140
1.0
 94
        2
 62
     0
340
7475
144
4.5
309
CONTENTFORMAT_END
171
     1
301
MARGIN
  1
CELLMARGIN_BEGIN
 40
1.5
 40
1.5
 40
1.5
 40
1.5
 40
4.5
 40
4.5
309
CELLMARGIN_END
 94
        6
 95
        1
302
GRIDFORMAT
  1
GRIDFORMAT_BEGIN
 90
        0
 91
        1
 62
     0
 92
       -2
340
0
 93
        0
 40
1.125
309
GRIDFORMAT_END
 95
        2
302
GRIDFORMAT
  1
GRIDFORMAT_BEGIN
 90
        0
 91
        1
 62
     0
 92
       -2
340
0
 93
        0
 40
1.125
309
GRIDFORMAT_END
 95
        4
302
GRIDFORMAT
  1
GRIDFORMAT_BEGIN
 90
        0
 91
        1
 62
     0
 92
       -2
340
0
 93
        0
 40
1.125
309
GRIDFORMAT_END
 95
        8
302
GRIDFORMAT
  1
GRIDFORMAT_BEGIN
 90
        0
 91
        1
 62
     0
 92
       -2
340
0
 93
        0
 40
1.125
309
GRIDFORMAT_END
 95
       16
302
GRIDFORMAT
  1
GRIDFORMAT_BEGIN
 90
        0
 91
        1
 62
     0
 92
       -2
340
0
 93
        0
 40
1.125
309
GRIDFORMAT_END
 95
       32
302
GRIDFORMAT
  1
GRIDFORMAT_BEGIN
 90
        0
 91
        1
 62
     0
 92
       -2
340
0
 93
        0
 40
1.125
309
GRIDFORMAT_END
309
TABLEFORMAT_END
  1
CELLSTYLE_BEGIN
 90
        3
 91
        2
300
_DATA
309
CELLSTYLE_END
  0
XRECORD
  5
164E9
102
{ACAD_REACTORS
330
16283
102
}
330
16283
100
AcDbXrecord
280
     1
102
ACAD_ROUNDTRIP_PRE2007_TABLESTYLE
 90
      512
 91
        0
  1

 92
      512
 93
        0
  2

 94
      512
 95
        0
  3

  0
XRECORD
  5
164C4
102
{ACAD_REACTORS
330
164C3
102
}
330
164C3
100
AcDbXrecord
280
     1
102
RTVSPost2010Prop28
280
     1
102
RTVSPost2010PropOp28
 70
     1
102
RTVSPost2010Prop29
280
     1
102
RTVSPost2010PropOp29
 70
     1
102
RTVSPost2010Prop30
280
     0
102
RTVSPost2010PropOp30
 70
     1
102
RTVSPost2010Prop31
280
     0
102
RTVSPost2010PropOp31
 70
     1
102
RTVSPost2010Prop32
280
     0
102
RTVSPost2010PropOp32
 70
     1
102
RTVSPost2010Prop33
280
     0
102
RTVSPost2010PropOp33
 70
     1
102
RTVSPost2010Prop34
280
     0
102
RTVSPost2010PropOp34
 70
     1
102
RTVSPost2010Prop35
280
     0
102
RTVSPost2010PropOp35
 70
     1
102
RTVSPost2010Prop36
280
     0
102
RTVSPost2010PropOp36
 70
     1
102
RTVSPost2010Prop37
 90
       50
102
RTVSPost2010PropOp37
 70
     1
102
RTVSPost2010Prop38
140
0.0
102
RTVSPost2010PropOp38
 70
     1
102
RTVSPost2010Prop39
140
1.0
102
RTVSPost2010PropOp39
 70
     1
102
RTVSPost2010Prop40
 90
        0
102
RTVSPost2010PropOp40
 70
     1
102
RTVSPost2010Prop41ColorIndex
 90
       18
102
RTVSPost2010Prop41ColorRGB
 90
        0
102
RTVSPost2010PropOp41
 70
     1
102
RTVSPost2010Prop42
 90
       50
102
RTVSPost2010PropOp42
 70
     1
102
RTVSPost2010Prop43
 90
        3
102
RTVSPost2010PropOp43
 70
     1
102
RTVSPost2010Prop44ColorIndex
 90
        5
102
RTVSPost2010Prop44ColorRGB
 90
      255
102
RTVSPost2010PropOp44
 70
     1
102
RTVSPost2010Prop45
280
     0
102
RTVSPost2010PropOp45
 70
     1
102
RTVSPost2010Prop46
 90
       50
102
RTVSPost2010PropOp46
 70
     1
102
RTVSPost2010Prop47
 90
       50
102
RTVSPost2010PropOp47
 70
     1
102
RTVSPost2010Prop48
 90
       50
102
RTVSPost2010PropOp48
 70
     1
102
RTVSPost2010Prop49
280
     0
102
RTVSPost2010PropOp49
 70
     1
102
RTVSPost2010Prop50
 90
       50
102
RTVSPost2010PropOp50
 70
     1
102
RTVSPost2010Prop51ColorIndex
 90
      256
102
RTVSPost2010Prop51ColorRGB
 90
-16777216
102
RTVSPost2010PropOp51
 70
     0
102
RTVSPost2010Prop52
140
1.0
102
RTVSPost2010PropOp52
 70
     0
102
RTVSPost2010Prop53
 90
        2
102
RTVSPost2010PropOp53
 70
     1
102
RTVSPost2010Prop54
  1
strokes_ogs.tif
102
RTVSPost2010PropOp54
 70
     1
102
RTVSPost2010Prop55
280
     0
102
RTVSPost2010PropOp55
 70
     1
102
RTVSPost2010Prop56
140
1.0
102
RTVSPost2010PropOp56
 70
     1
102
RTVSPost2010Prop57
140
1.0
102
RTVSPost2010PropOp57
 70
     1
102
RTVSPropertyOp0
 70
     1
102
RTVSPropertyOp1
 70
     1
102
RTVSPropertyOp2
 70
     1
102
RTVSPropertyOp3
 70
     1
102
RTVSPropertyOp4
 70
     1
102
RTVSPropertyOp5
 70
     1
102
RTVSPropertyOp6
 70
     1
102
RTVSPropertyOp7
 70
     1
102
RTVSPropertyOp8
 70
     1
102
RTVSPropertyOp9
 70
     1
102
RTVSPropertyOp10
 70
     1
102
RTVSPropertyOp11
 70
     1
102
RTVSPropertyOp12
 70
     1
102
RTVSPropertyOp13
 70
     1
102
RTVSPropertyOp14
 70
     1
102
RTVSPropertyOp15
 70
     1
102
RTVSPropertyOp16
 70
     1
102
RTVSPropertyOp17
 70
     1
102
RTVSPropertyOp18
 70
     1
102
RTVSPropertyOp19
 70
     1
102
RTVSPropertyOp20
 70
     1
102
RTVSPropertyOp21
 70
     1
102
RTVSPropertyOp22
 70
     1
102
RTVSPropertyOp23
 70
     1
102
RTVSPropertyOp24
 70
     1
102
RTVSPropertyOp25
 70
     1
102
RTVSPropertyOp26
 70
     1
102
RTVSPropertyOp27
 70
     1
102
RTVSPropertyOp28
 70
     1
102
RTVSPropertyOp29
 70
     1
102
RTVSPropertyOp30
 70
     1
102
RTVSPropertyOp31
 70
     1
102
RTVSPropertyOp32
 70
     1
102
RTVSPropertyOp33
 70
     1
102
RTVSPropertyOp34
 70
     1
102
RTVSPropertyOp35
 70
     1
102
RTVSPropertyOp36
 70
     1
102
RTVSPropertyOp37
 70
     1
102
RTVSPropertyOp38
 70
     1
102
RTVSPropertyOp39
 70
     1
102
RTVSPropertyOp40
 70
     1
102
RTVSPropertyOp41
 70
     1
102
RTVSPropertyOp42
 70
     1
102
RTVSPropertyOp43
 70
     1
102
RTVSPropertyOp44
 70
     1
102
RTVSPropertyOp45
 70
     1
102
RTVSPropertyOp46
 70
     1
102
RTVSPropertyOp47
 70
     1
102
RTVSPropertyOp48
 70
     1
102
RTVSPropertyOp49
 70
     1
102
RTVSPropertyOp50
 70
     1
102
RTVSPropertyOp51
 70
     0
102
RTVSPropertyOp52
 70
     0
102
RTVSPropertyOp53
 70
     1
102
RTVSPropertyOp54
 70
     1
102
RTVSPropertyOp55
 70
     1
102
RTVSPropertyOp56
 70
     1
102
RTVSPropertyOp57
 70
     1
102
RTVSPropertyOp58
 70
     1
102
RTVSPropertyOp59
 70
     1
102
RTVSPropertyOp60
 70
     1
102
RTVSPropertyOp61
 70
     1
102
RTVSPropertyOp62
 70
     1
  0
XRECORD
  5
164C2
102
{ACAD_REACTORS
330
164C1
102
}
330
164C1
100
AcDbXrecord
280
     1
102
RTVSPost2010Prop28
280
     0
102
RTVSPost2010PropOp28
 70
     1
102
RTVSPost2010Prop29
280
     1
102
RTVSPost2010PropOp29
 70
     1
102
RTVSPost2010Prop30
280
     1
102
RTVSPost2010PropOp30
 70
     1
102
RTVSPost2010Prop31
280
     0
102
RTVSPost2010PropOp31
 70
     1
102
RTVSPost2010Prop32
280
     0
102
RTVSPost2010PropOp32
 70
     1
102
RTVSPost2010Prop33
280
     0
102
RTVSPost2010PropOp33
 70
     1
102
RTVSPost2010Prop34
280
     0
102
RTVSPost2010PropOp34
 70
     1
102
RTVSPost2010Prop35
280
     0
102
RTVSPost2010PropOp35
 70
     1
102
RTVSPost2010Prop36
280
     0
102
RTVSPost2010PropOp36
 70
     1
102
RTVSPost2010Prop37
 90
       50
102
RTVSPost2010PropOp37
 70
     1
102
RTVSPost2010Prop38
140
0.0
102
RTVSPost2010PropOp38
 70
     1
102
RTVSPost2010Prop39
140
1.0
102
RTVSPost2010PropOp39
 70
     1
102
RTVSPost2010Prop40
 90
        0
102
RTVSPost2010PropOp40
 70
     1
102
RTVSPost2010Prop41ColorIndex
 90
       18
102
RTVSPost2010Prop41ColorRGB
 90
        0
102
RTVSPost2010PropOp41
 70
     1
102
RTVSPost2010Prop42
 90
       50
102
RTVSPost2010PropOp42
 70
     1
102
RTVSPost2010Prop43
 90
        3
102
RTVSPost2010PropOp43
 70
     1
102
RTVSPost2010Prop44ColorIndex
 90
        5
102
RTVSPost2010Prop44ColorRGB
 90
      255
102
RTVSPost2010PropOp44
 70
     1
102
RTVSPost2010Prop45
280
     0
102
RTVSPost2010PropOp45
 70
     1
102
RTVSPost2010Prop46
 90
       50
102
RTVSPost2010PropOp46
 70
     1
102
RTVSPost2010Prop47
 90
       50
102
RTVSPost2010PropOp47
 70
     1
102
RTVSPost2010Prop48
 90
       50
102
RTVSPost2010PropOp48
 70
     1
102
RTVSPost2010Prop49
280
     0
102
RTVSPost2010PropOp49
 70
     1
102
RTVSPost2010Prop50
 90
       50
102
RTVSPost2010PropOp50
 70
     1
102
RTVSPost2010Prop51ColorIndex
 90
      256
102
RTVSPost2010Prop51ColorRGB
 90
-16777216
102
RTVSPost2010PropOp51
 70
     0
102
RTVSPost2010Prop52
140
1.0
102
RTVSPost2010PropOp52
 70
     0
102
RTVSPost2010Prop53
 90
        2
102
RTVSPost2010PropOp53
 70
     1
102
RTVSPost2010Prop54
  1
strokes_ogs.tif
102
RTVSPost2010PropOp54
 70
     1
102
RTVSPost2010Prop55
280
     0
102
RTVSPost2010PropOp55
 70
     1
102
RTVSPost2010Prop56
140
1.0
102
RTVSPost2010PropOp56
 70
     1
102
RTVSPost2010Prop57
140
1.0
102
RTVSPost2010PropOp57
 70
     1
102
RTVSPropertyOp0
 70
     1
102
RTVSPropertyOp1
 70
     1
102
RTVSPropertyOp2
 70
     1
102
RTVSPropertyOp3
 70
     1
102
RTVSPropertyOp4
 70
     1
102
RTVSPropertyOp5
 70
     1
102
RTVSPropertyOp6
 70
     1
102
RTVSPropertyOp7
 70
     1
102
RTVSPropertyOp8
 70
     1
102
RTVSPropertyOp9
 70
     1
102
RTVSPropertyOp10
 70
     1
102
RTVSPropertyOp11
 70
     1
102
RTVSPropertyOp12
 70
     1
102
RTVSPropertyOp13
 70
     1
102
RTVSPropertyOp14
 70
     1
102
RTVSPropertyOp15
 70
     1
102
RTVSPropertyOp16
 70
     1
102
RTVSPropertyOp17
 70
     1
102
RTVSPropertyOp18
 70
     1
102
RTVSPropertyOp19
 70
     1
102
RTVSPropertyOp20
 70
     1
102
RTVSPropertyOp21
 70
     1
102
RTVSPropertyOp22
 70
     1
102
RTVSPropertyOp23
 70
     1
102
RTVSPropertyOp24
 70
     1
102
RTVSPropertyOp25
 70
     1
102
RTVSPropertyOp26
 70
     1
102
RTVSPropertyOp27
 70
     1
102
RTVSPropertyOp28
 70
     1
102
RTVSPropertyOp29
 70
     1
102
RTVSPropertyOp30
 70
     1
102
RTVSPropertyOp31
 70
     1
102
RTVSPropertyOp32
 70
     1
102
RTVSPropertyOp33
 70
     1
102
RTVSPropertyOp34
 70
     1
102
RTVSPropertyOp35
 70
     1
102
RTVSPropertyOp36
 70
     1
102
RTVSPropertyOp37
 70
     1
102
RTVSPropertyOp38
 70
     1
102
RTVSPropertyOp39
 70
     1
102
RTVSPropertyOp40
 70
     1
102
RTVSPropertyOp41
 70
     1
102
RTVSPropertyOp42
 70
     1
102
RTVSPropertyOp43
 70
     1
102
RTVSPropertyOp44
 70
     1
102
RTVSPropertyOp45
 70
     1
102
RTVSPropertyOp46
 70
     1
102
RTVSPropertyOp47
 70
     1
102
RTVSPropertyOp48
 70
     1
102
RTVSPropertyOp49
 70
     1
102
RTVSPropertyOp50
 70
     1
102
RTVSPropertyOp51
 70
     0
102
RTVSPropertyOp52
 70
     0
102
RTVSPropertyOp53
 70
     1
102
RTVSPropertyOp54
 70
     1
102
RTVSPropertyOp55
 70
     1
102
RTVSPropertyOp56
 70
     1
102
RTVSPropertyOp57
 70
     1
102
RTVSPropertyOp58
 70
     1
102
RTVSPropertyOp59
 70
     1
102
RTVSPropertyOp60
 70
     1
102
RTVSPropertyOp61
 70
     1
102
RTVSPropertyOp62
 70
     1
  0
XRECORD
  5
164D0
102
{ACAD_REACTORS
330
164CF
102
}
330
164CF
100
AcDbXrecord
280
     1
102
RTVSPost2010Prop28
280
     0
102
RTVSPost2010PropOp28
 70
     1
102
RTVSPost2010Prop29
280
     1
102
RTVSPost2010PropOp29
 70
     1
102
RTVSPost2010Prop30
280
     1
102
RTVSPost2010PropOp30
 70
     1
102
RTVSPost2010Prop31
280
     0
102
RTVSPost2010PropOp31
 70
     1
102
RTVSPost2010Prop32
280
     0
102
RTVSPost2010PropOp32
 70
     1
102
RTVSPost2010Prop33
280
     0
102
RTVSPost2010PropOp33
 70
     1
102
RTVSPost2010Prop34
280
     0
102
RTVSPost2010PropOp34
 70
     1
102
RTVSPost2010Prop35
280
     0
102
RTVSPost2010PropOp35
 70
     1
102
RTVSPost2010Prop36
280
     0
102
RTVSPost2010PropOp36
 70
     1
102
RTVSPost2010Prop37
 90
       50
102
RTVSPost2010PropOp37
 70
     1
102
RTVSPost2010Prop38
140
0.0
102
RTVSPost2010PropOp38
 70
     1
102
RTVSPost2010Prop39
140
1.0
102
RTVSPost2010PropOp39
 70
     1
102
RTVSPost2010Prop40
 90
        0
102
RTVSPost2010PropOp40
 70
     1
102
RTVSPost2010Prop41ColorIndex
 90
       18
102
RTVSPost2010Prop41ColorRGB
 90
        0
102
RTVSPost2010PropOp41
 70
     1
102
RTVSPost2010Prop42
 90
       50
102
RTVSPost2010PropOp42
 70
     1
102
RTVSPost2010Prop43
 90
        3
102
RTVSPost2010PropOp43
 70
     1
102
RTVSPost2010Prop44ColorIndex
 90
        5
102
RTVSPost2010Prop44ColorRGB
 90
      255
102
RTVSPost2010PropOp44
 70
     1
102
RTVSPost2010Prop45
280
     0
102
RTVSPost2010PropOp45
 70
     1
102
RTVSPost2010Prop46
 90
       50
102
RTVSPost2010PropOp46
 70
     1
102
RTVSPost2010Prop47
 90
       50
102
RTVSPost2010PropOp47
 70
     1
102
RTVSPost2010Prop48
 90
       50
102
RTVSPost2010PropOp48
 70
     1
102
RTVSPost2010Prop49
280
     0
102
RTVSPost2010PropOp49
 70
     1
102
RTVSPost2010Prop50
 90
       50
102
RTVSPost2010PropOp50
 70
     1
102
RTVSPost2010Prop51ColorIndex
 90
      256
102
RTVSPost2010Prop51ColorRGB
 90
-16777216
102
RTVSPost2010PropOp51
 70
     0
102
RTVSPost2010Prop52
140
1.0
102
RTVSPost2010PropOp52
 70
     0
102
RTVSPost2010Prop53
 90
        2
102
RTVSPost2010PropOp53
 70
     1
102
RTVSPost2010Prop54
  1
strokes_ogs.tif
102
RTVSPost2010PropOp54
 70
     1
102
RTVSPost2010Prop55
280
     0
102
RTVSPost2010PropOp55
 70
     1
102
RTVSPost2010Prop56
140
1.0
102
RTVSPost2010PropOp56
 70
     1
102
RTVSPost2010Prop57
140
1.0
102
RTVSPost2010PropOp57
 70
     1
102
RTVSPropertyOp0
 70
     1
102
RTVSPropertyOp1
 70
     1
102
RTVSPropertyOp2
 70
     1
102
RTVSPropertyOp3
 70
     1
102
RTVSPropertyOp4
 70
     1
102
RTVSPropertyOp5
 70
     1
102
RTVSPropertyOp6
 70
     1
102
RTVSPropertyOp7
 70
     1
102
RTVSPropertyOp8
 70
     1
102
RTVSPropertyOp9
 70
     1
102
RTVSPropertyOp10
 70
     1
102
RTVSPropertyOp11
 70
     1
102
RTVSPropertyOp12
 70
     1
102
RTVSPropertyOp13
 70
     1
102
RTVSPropertyOp14
 70
     1
102
RTVSPropertyOp15
 70
     1
102
RTVSPropertyOp16
 70
     1
102
RTVSPropertyOp17
 70
     1
102
RTVSPropertyOp18
 70
     1
102
RTVSPropertyOp19
 70
     1
102
RTVSPropertyOp20
 70
     1
102
RTVSPropertyOp21
 70
     1
102
RTVSPropertyOp22
 70
     1
102
RTVSPropertyOp23
 70
     1
102
RTVSPropertyOp24
 70
     1
102
RTVSPropertyOp25
 70
     1
102
RTVSPropertyOp26
 70
     1
102
RTVSPropertyOp27
 70
     1
102
RTVSPropertyOp28
 70
     1
102
RTVSPropertyOp29
 70
     1
102
RTVSPropertyOp30
 70
     1
102
RTVSPropertyOp31
 70
     1
102
RTVSPropertyOp32
 70
     1
102
RTVSPropertyOp33
 70
     1
102
RTVSPropertyOp34
 70
     1
102
RTVSPropertyOp35
 70
     1
102
RTVSPropertyOp36
 70
     1
102
RTVSPropertyOp37
 70
     1
102
RTVSPropertyOp38
 70
     1
102
RTVSPropertyOp39
 70
     1
102
RTVSPropertyOp40
 70
     1
102
RTVSPropertyOp41
 70
     1
102
RTVSPropertyOp42
 70
     1
102
RTVSPropertyOp43
 70
     1
102
RTVSPropertyOp44
 70
     1
102
RTVSPropertyOp45
 70
     1
102
RTVSPropertyOp46
 70
     1
102
RTVSPropertyOp47
 70
     1
102
RTVSPropertyOp48
 70
     1
102
RTVSPropertyOp49
 70
     1
102
RTVSPropertyOp50
 70
     1
102
RTVSPropertyOp51
 70
     0
102
RTVSPropertyOp52
 70
     0
102
RTVSPropertyOp53
 70
     1
102
RTVSPropertyOp54
 70
     1
102
RTVSPropertyOp55
 70
     1
102
RTVSPropertyOp56
 70
     1
102
RTVSPropertyOp57
 70
     1
102
RTVSPropertyOp58
 70
     1
102
RTVSPropertyOp59
 70
     1
102
RTVSPropertyOp60
 70
     1
102
RTVSPropertyOp61
 70
     1
102
RTVSPropertyOp62
 70
     1
  0
XRECORD
  5
164D8
102
{ACAD_REACTORS
330
164D7
102
}
330
164D7
100
AcDbXrecord
280
     1
102
RTVSPost2010Prop28
280
     0
102
RTVSPost2010PropOp28
 70
     1
102
RTVSPost2010Prop29
280
     1
102
RTVSPost2010PropOp29
 70
     1
102
RTVSPost2010Prop30
280
     1
102
RTVSPost2010PropOp30
 70
     1
102
RTVSPost2010Prop31
280
     0
102
RTVSPost2010PropOp31
 70
     1
102
RTVSPost2010Prop32
280
     0
102
RTVSPost2010PropOp32
 70
     1
102
RTVSPost2010Prop33
280
     0
102
RTVSPost2010PropOp33
 70
     1
102
RTVSPost2010Prop34
280
     0
102
RTVSPost2010PropOp34
 70
     1
102
RTVSPost2010Prop35
280
     0
102
RTVSPost2010PropOp35
 70
     1
102
RTVSPost2010Prop36
280
     0
102
RTVSPost2010PropOp36
 70
     1
102
RTVSPost2010Prop37
 90
       50
102
RTVSPost2010PropOp37
 70
     1
102
RTVSPost2010Prop38
140
0.0
102
RTVSPost2010PropOp38
 70
     1
102
RTVSPost2010Prop39
140
1.0
102
RTVSPost2010PropOp39
 70
     1
102
RTVSPost2010Prop40
 90
        0
102
RTVSPost2010PropOp40
 70
     1
102
RTVSPost2010Prop41ColorIndex
 90
       18
102
RTVSPost2010Prop41ColorRGB
 90
        0
102
RTVSPost2010PropOp41
 70
     1
102
RTVSPost2010Prop42
 90
       50
102
RTVSPost2010PropOp42
 70
     1
102
RTVSPost2010Prop43
 90
        3
102
RTVSPost2010PropOp43
 70
     1
102
RTVSPost2010Prop44ColorIndex
 90
        5
102
RTVSPost2010Prop44ColorRGB
 90
      255
102
RTVSPost2010PropOp44
 70
     1
102
RTVSPost2010Prop45
280
     0
102
RTVSPost2010PropOp45
 70
     1
102
RTVSPost2010Prop46
 90
       50
102
RTVSPost2010PropOp46
 70
     1
102
RTVSPost2010Prop47
 90
       50
102
RTVSPost2010PropOp47
 70
     1
102
RTVSPost2010Prop48
 90
       50
102
RTVSPost2010PropOp48
 70
     1
102
RTVSPost2010Prop49
280
     0
102
RTVSPost2010PropOp49
 70
     1
102
RTVSPost2010Prop50
 90
       50
102
RTVSPost2010PropOp50
 70
     1
102
RTVSPost2010Prop51ColorIndex
 90
      256
102
RTVSPost2010Prop51ColorRGB
 90
-16777216
102
RTVSPost2010PropOp51
 70
     0
102
RTVSPost2010Prop52
140
1.0
102
RTVSPost2010PropOp52
 70
     0
102
RTVSPost2010Prop53
 90
        2
102
RTVSPost2010PropOp53
 70
     1
102
RTVSPost2010Prop54
  1
strokes_ogs.tif
102
RTVSPost2010PropOp54
 70
     1
102
RTVSPost2010Prop55
280
     0
102
RTVSPost2010PropOp55
 70
     1
102
RTVSPost2010Prop56
140
1.0
102
RTVSPost2010PropOp56
 70
     1
102
RTVSPost2010Prop57
140
1.0
102
RTVSPost2010PropOp57
 70
     1
102
RTVSPropertyOp0
 70
     1
102
RTVSPropertyOp1
 70
     1
102
RTVSPropertyOp2
 70
     1
102
RTVSPropertyOp3
 70
     1
102
RTVSPropertyOp4
 70
     1
102
RTVSPropertyOp5
 70
     1
102
RTVSPropertyOp6
 70
     1
102
RTVSPropertyOp7
 70
     1
102
RTVSPropertyOp8
 70
     1
102
RTVSPropertyOp9
 70
     1
102
RTVSPropertyOp10
 70
     1
102
RTVSPropertyOp11
 70
     1
102
RTVSPropertyOp12
 70
     1
102
RTVSPropertyOp13
 70
     1
102
RTVSPropertyOp14
 70
     1
102
RTVSPropertyOp15
 70
     1
102
RTVSPropertyOp16
 70
     1
102
RTVSPropertyOp17
 70
     1
102
RTVSPropertyOp18
 70
     1
102
RTVSPropertyOp19
 70
     1
102
RTVSPropertyOp20
 70
     1
102
RTVSPropertyOp21
 70
     1
102
RTVSPropertyOp22
 70
     1
102
RTVSPropertyOp23
 70
     1
102
RTVSPropertyOp24
 70
     1
102
RTVSPropertyOp25
 70
     1
102
RTVSPropertyOp26
 70
     1
102
RTVSPropertyOp27
 70
     1
102
RTVSPropertyOp28
 70
     1
102
RTVSPropertyOp29
 70
     1
102
RTVSPropertyOp30
 70
     1
102
RTVSPropertyOp31
 70
     1
102
RTVSPropertyOp32
 70
     1
102
RTVSPropertyOp33
 70
     1
102
RTVSPropertyOp34
 70
     1
102
RTVSPropertyOp35
 70
     1
102
RTVSPropertyOp36
 70
     1
102
RTVSPropertyOp37
 70
     1
102
RTVSPropertyOp38
 70
     1
102
RTVSPropertyOp39
 70
     1
102
RTVSPropertyOp40
 70
     1
102
RTVSPropertyOp41
 70
     1
102
RTVSPropertyOp42
 70
     1
102
RTVSPropertyOp43
 70
     1
102
RTVSPropertyOp44
 70
     1
102
RTVSPropertyOp45
 70
     1
102
RTVSPropertyOp46
 70
     1
102
RTVSPropertyOp47
 70
     1
102
RTVSPropertyOp48
 70
     1
102
RTVSPropertyOp49
 70
     1
102
RTVSPropertyOp50
 70
     1
102
RTVSPropertyOp51
 70
     0
102
RTVSPropertyOp52
 70
     0
102
RTVSPropertyOp53
 70
     1
102
RTVSPropertyOp54
 70
     1
102
RTVSPropertyOp55
 70
     1
102
RTVSPropertyOp56
 70
     1
102
RTVSPropertyOp57
 70
     1
102
RTVSPropertyOp58
 70
     1
102
RTVSPropertyOp59
 70
     1
102
RTVSPropertyOp60
 70
     1
102
RTVSPropertyOp61
 70
     1
102
RTVSPropertyOp62
 70
     1
  0
XRECORD
  5
164CA
102
{ACAD_REACTORS
330
164C9
102
}
330
164C9
100
AcDbXrecord
280
     1
102
RTVSPost2010Prop28
280
     0
102
RTVSPost2010PropOp28
 70
     1
102
RTVSPost2010Prop29
280
     1
102
RTVSPost2010PropOp29
 70
     1
102
RTVSPost2010Prop30
280
     1
102
RTVSPost2010PropOp30
 70
     1
102
RTVSPost2010Prop31
280
     0
102
RTVSPost2010PropOp31
 70
     1
102
RTVSPost2010Prop32
280
     0
102
RTVSPost2010PropOp32
 70
     1
102
RTVSPost2010Prop33
280
     0
102
RTVSPost2010PropOp33
 70
     1
102
RTVSPost2010Prop34
280
     0
102
RTVSPost2010PropOp34
 70
     1
102
RTVSPost2010Prop35
280
     0
102
RTVSPost2010PropOp35
 70
     1
102
RTVSPost2010Prop36
280
     0
102
RTVSPost2010PropOp36
 70
     1
102
RTVSPost2010Prop37
 90
       50
102
RTVSPost2010PropOp37
 70
     1
102
RTVSPost2010Prop38
140
0.0
102
RTVSPost2010PropOp38
 70
     1
102
RTVSPost2010Prop39
140
1.0
102
RTVSPost2010PropOp39
 70
     1
102
RTVSPost2010Prop40
 90
        0
102
RTVSPost2010PropOp40
 70
     1
102
RTVSPost2010Prop41ColorIndex
 90
       18
102
RTVSPost2010Prop41ColorRGB
 90
        0
102
RTVSPost2010PropOp41
 70
     1
102
RTVSPost2010Prop42
 90
       50
102
RTVSPost2010PropOp42
 70
     1
102
RTVSPost2010Prop43
 90
        3
102
RTVSPost2010PropOp43
 70
     1
102
RTVSPost2010Prop44ColorIndex
 90
        5
102
RTVSPost2010Prop44ColorRGB
 90
      255
102
RTVSPost2010PropOp44
 70
     1
102
RTVSPost2010Prop45
280
     0
102
RTVSPost2010PropOp45
 70
     1
102
RTVSPost2010Prop46
 90
       50
102
RTVSPost2010PropOp46
 70
     1
102
RTVSPost2010Prop47
 90
       50
102
RTVSPost2010PropOp47
 70
     1
102
RTVSPost2010Prop48
 90
       50
102
RTVSPost2010PropOp48
 70
     1
102
RTVSPost2010Prop49
280
     0
102
RTVSPost2010PropOp49
 70
     1
102
RTVSPost2010Prop50
 90
       50
102
RTVSPost2010PropOp50
 70
     1
102
RTVSPost2010Prop51ColorIndex
 90
      256
102
RTVSPost2010Prop51ColorRGB
 90
-16777216
102
RTVSPost2010PropOp51
 70
     0
102
RTVSPost2010Prop52
140
1.0
102
RTVSPost2010PropOp52
 70
     0
102
RTVSPost2010Prop53
 90
        2
102
RTVSPost2010PropOp53
 70
     1
102
RTVSPost2010Prop54
  1
strokes_ogs.tif
102
RTVSPost2010PropOp54
 70
     1
102
RTVSPost2010Prop55
280
     0
102
RTVSPost2010PropOp55
 70
     1
102
RTVSPost2010Prop56
140
1.0
102
RTVSPost2010PropOp56
 70
     1
102
RTVSPost2010Prop57
140
1.0
102
RTVSPost2010PropOp57
 70
     1
102
RTVSPropertyOp0
 70
     1
102
RTVSPropertyOp1
 70
     1
102
RTVSPropertyOp2
 70
     1
102
RTVSPropertyOp3
 70
     1
102
RTVSPropertyOp4
 70
     1
102
RTVSPropertyOp5
 70
     1
102
RTVSPropertyOp6
 70
     1
102
RTVSPropertyOp7
 70
     1
102
RTVSPropertyOp8
 70
     1
102
RTVSPropertyOp9
 70
     1
102
RTVSPropertyOp10
 70
     1
102
RTVSPropertyOp11
 70
     1
102
RTVSPropertyOp12
 70
     1
102
RTVSPropertyOp13
 70
     1
102
RTVSPropertyOp14
 70
     1
102
RTVSPropertyOp15
 70
     1
102
RTVSPropertyOp16
 70
     1
102
RTVSPropertyOp17
 70
     1
102
RTVSPropertyOp18
 70
     1
102
RTVSPropertyOp19
 70
     1
102
RTVSPropertyOp20
 70
     1
102
RTVSPropertyOp21
 70
     1
102
RTVSPropertyOp22
 70
     1
102
RTVSPropertyOp23
 70
     1
102
RTVSPropertyOp24
 70
     1
102
RTVSPropertyOp25
 70
     1
102
RTVSPropertyOp26
 70
     1
102
RTVSPropertyOp27
 70
     1
102
RTVSPropertyOp28
 70
     1
102
RTVSPropertyOp29
 70
     1
102
RTVSPropertyOp30
 70
     1
102
RTVSPropertyOp31
 70
     1
102
RTVSPropertyOp32
 70
     1
102
RTVSPropertyOp33
 70
     1
102
RTVSPropertyOp34
 70
     1
102
RTVSPropertyOp35
 70
     1
102
RTVSPropertyOp36
 70
     1
102
RTVSPropertyOp37
 70
     1
102
RTVSPropertyOp38
 70
     1
102
RTVSPropertyOp39
 70
     1
102
RTVSPropertyOp40
 70
     1
102
RTVSPropertyOp41
 70
     1
102
RTVSPropertyOp42
 70
     1
102
RTVSPropertyOp43
 70
     1
102
RTVSPropertyOp44
 70
     1
102
RTVSPropertyOp45
 70
     1
102
RTVSPropertyOp46
 70
     1
102
RTVSPropertyOp47
 70
     1
102
RTVSPropertyOp48
 70
     1
102
RTVSPropertyOp49
 70
     1
102
RTVSPropertyOp50
 70
     1
102
RTVSPropertyOp51
 70
     0
102
RTVSPropertyOp52
 70
     0
102
RTVSPropertyOp53
 70
     1
102
RTVSPropertyOp54
 70
     1
102
RTVSPropertyOp55
 70
     1
102
RTVSPropertyOp56
 70
     1
102
RTVSPropertyOp57
 70
     1
102
RTVSPropertyOp58
 70
     1
102
RTVSPropertyOp59
 70
     1
102
RTVSPropertyOp60
 70
     1
102
RTVSPropertyOp61
 70
     1
102
RTVSPropertyOp62
 70
     1
  0
XRECORD
  5
164CE
102
{ACAD_REACTORS
330
164CD
102
}
330
164CD
100
AcDbXrecord
280
     1
102
RTVSPost2010Prop28
280
     0
102
RTVSPost2010PropOp28
 70
     1
102
RTVSPost2010Prop29
280
     1
102
RTVSPost2010PropOp29
 70
     1
102
RTVSPost2010Prop30
280
     1
102
RTVSPost2010PropOp30
 70
     1
102
RTVSPost2010Prop31
280
     0
102
RTVSPost2010PropOp31
 70
     1
102
RTVSPost2010Prop32
280
     0
102
RTVSPost2010PropOp32
 70
     1
102
RTVSPost2010Prop33
280
     0
102
RTVSPost2010PropOp33
 70
     1
102
RTVSPost2010Prop34
280
     0
102
RTVSPost2010PropOp34
 70
     1
102
RTVSPost2010Prop35
280
     0
102
RTVSPost2010PropOp35
 70
     1
102
RTVSPost2010Prop36
280
     0
102
RTVSPost2010PropOp36
 70
     1
102
RTVSPost2010Prop37
 90
       50
102
RTVSPost2010PropOp37
 70
     1
102
RTVSPost2010Prop38
140
0.0
102
RTVSPost2010PropOp38
 70
     1
102
RTVSPost2010Prop39
140
1.0
102
RTVSPost2010PropOp39
 70
     1
102
RTVSPost2010Prop40
 90
        0
102
RTVSPost2010PropOp40
 70
     1
102
RTVSPost2010Prop41ColorIndex
 90
       18
102
RTVSPost2010Prop41ColorRGB
 90
        0
102
RTVSPost2010PropOp41
 70
     1
102
RTVSPost2010Prop42
 90
       50
102
RTVSPost2010PropOp42
 70
     1
102
RTVSPost2010Prop43
 90
        3
102
RTVSPost2010PropOp43
 70
     1
102
RTVSPost2010Prop44ColorIndex
 90
        5
102
RTVSPost2010Prop44ColorRGB
 90
      255
102
RTVSPost2010PropOp44
 70
     1
102
RTVSPost2010Prop45
280
     0
102
RTVSPost2010PropOp45
 70
     1
102
RTVSPost2010Prop46
 90
       50
102
RTVSPost2010PropOp46
 70
     1
102
RTVSPost2010Prop47
 90
       50
102
RTVSPost2010PropOp47
 70
     1
102
RTVSPost2010Prop48
 90
       50
102
RTVSPost2010PropOp48
 70
     1
102
RTVSPost2010Prop49
280
     0
102
RTVSPost2010PropOp49
 70
     1
102
RTVSPost2010Prop50
 90
       50
102
RTVSPost2010PropOp50
 70
     1
102
RTVSPost2010Prop51ColorIndex
 90
      256
102
RTVSPost2010Prop51ColorRGB
 90
-16777216
102
RTVSPost2010PropOp51
 70
     0
102
RTVSPost2010Prop52
140
1.0
102
RTVSPost2010PropOp52
 70
     0
102
RTVSPost2010Prop53
 90
        2
102
RTVSPost2010PropOp53
 70
     1
102
RTVSPost2010Prop54
  1
strokes_ogs.tif
102
RTVSPost2010PropOp54
 70
     1
102
RTVSPost2010Prop55
280
     0
102
RTVSPost2010PropOp55
 70
     1
102
RTVSPost2010Prop56
140
1.0
102
RTVSPost2010PropOp56
 70
     1
102
RTVSPost2010Prop57
140
1.0
102
RTVSPost2010PropOp57
 70
     1
102
RTVSPropertyOp0
 70
     1
102
RTVSPropertyOp1
 70
     1
102
RTVSPropertyOp2
 70
     1
102
RTVSPropertyOp3
 70
     1
102
RTVSPropertyOp4
 70
     1
102
RTVSPropertyOp5
 70
     1
102
RTVSPropertyOp6
 70
     1
102
RTVSPropertyOp7
 70
     1
102
RTVSPropertyOp8
 70
     1
102
RTVSPropertyOp9
 70
     1
102
RTVSPropertyOp10
 70
     1
102
RTVSPropertyOp11
 70
     1
102
RTVSPropertyOp12
 70
     1
102
RTVSPropertyOp13
 70
     1
102
RTVSPropertyOp14
 70
     1
102
RTVSPropertyOp15
 70
     1
102
RTVSPropertyOp16
 70
     1
102
RTVSPropertyOp17
 70
     1
102
RTVSPropertyOp18
 70
     1
102
RTVSPropertyOp19
 70
     1
102
RTVSPropertyOp20
 70
     1
102
RTVSPropertyOp21
 70
     1
102
RTVSPropertyOp22
 70
     1
102
RTVSPropertyOp23
 70
     1
102
RTVSPropertyOp24
 70
     1
102
RTVSPropertyOp25
 70
     1
102
RTVSPropertyOp26
 70
     1
102
RTVSPropertyOp27
 70
     1
102
RTVSPropertyOp28
 70
     1
102
RTVSPropertyOp29
 70
     1
102
RTVSPropertyOp30
 70
     1
102
RTVSPropertyOp31
 70
     1
102
RTVSPropertyOp32
 70
     1
102
RTVSPropertyOp33
 70
     1
102
RTVSPropertyOp34
 70
     1
102
RTVSPropertyOp35
 70
     1
102
RTVSPropertyOp36
 70
     1
102
RTVSPropertyOp37
 70
     1
102
RTVSPropertyOp38
 70
     1
102
RTVSPropertyOp39
 70
     1
102
RTVSPropertyOp40
 70
     1
102
RTVSPropertyOp41
 70
     1
102
RTVSPropertyOp42
 70
     1
102
RTVSPropertyOp43
 70
     1
102
RTVSPropertyOp44
 70
     1
102
RTVSPropertyOp45
 70
     1
102
RTVSPropertyOp46
 70
     1
102
RTVSPropertyOp47
 70
     1
102
RTVSPropertyOp48
 70
     1
102
RTVSPropertyOp49
 70
     1
102
RTVSPropertyOp50
 70
     1
102
RTVSPropertyOp51
 70
     0
102
RTVSPropertyOp52
 70
     0
102
RTVSPropertyOp53
 70
     1
102
RTVSPropertyOp54
 70
     1
102
RTVSPropertyOp55
 70
     1
102
RTVSPropertyOp56
 70
     1
102
RTVSPropertyOp57
 70
     1
102
RTVSPropertyOp58
 70
     1
102
RTVSPropertyOp59
 70
     1
102
RTVSPropertyOp60
 70
     1
102
RTVSPropertyOp61
 70
     1
102
RTVSPropertyOp62
 70
     1
  0
XRECORD
  5
164E8
102
{ACAD_REACTORS
330
164E7
102
}
330
164E7
100
AcDbXrecord
280
     1
102
RTVSPost2010Prop28
280
     0
102
RTVSPost2010PropOp28
 70
     0
102
RTVSPost2010Prop29
280
     1
102
RTVSPost2010PropOp29
 70
     0
102
RTVSPost2010Prop30
280
     1
102
RTVSPost2010PropOp30
 70
     0
102
RTVSPost2010Prop31
280
     0
102
RTVSPost2010PropOp31
 70
     0
102
RTVSPost2010Prop32
280
     0
102
RTVSPost2010PropOp32
 70
     0
102
RTVSPost2010Prop33
280
     0
102
RTVSPost2010PropOp33
 70
     0
102
RTVSPost2010Prop34
280
     0
102
RTVSPost2010PropOp34
 70
     0
102
RTVSPost2010Prop35
280
     0
102
RTVSPost2010PropOp35
 70
     0
102
RTVSPost2010Prop36
280
     0
102
RTVSPost2010PropOp36
 70
     0
102
RTVSPost2010Prop37
 90
       50
102
RTVSPost2010PropOp37
 70
     0
102
RTVSPost2010Prop38
140
0.0
102
RTVSPost2010PropOp38
 70
     0
102
RTVSPost2010Prop39
140
1.0
102
RTVSPost2010PropOp39
 70
     0
102
RTVSPost2010Prop40
 90
        0
102
RTVSPost2010PropOp40
 70
     0
102
RTVSPost2010Prop41ColorIndex
 90
       18
102
RTVSPost2010Prop41ColorRGB
 90
        0
102
RTVSPost2010PropOp41
 70
     0
102
RTVSPost2010Prop42
 90
       50
102
RTVSPost2010PropOp42
 70
     0
102
RTVSPost2010Prop43
 90
        3
102
RTVSPost2010PropOp43
 70
     0
102
RTVSPost2010Prop44ColorIndex
 90
        5
102
RTVSPost2010Prop44ColorRGB
 90
      255
102
RTVSPost2010PropOp44
 70
     0
102
RTVSPost2010Prop45
280
     0
102
RTVSPost2010PropOp45
 70
     0
102
RTVSPost2010Prop46
 90
       50
102
RTVSPost2010PropOp46
 70
     0
102
RTVSPost2010Prop47
 90
       50
102
RTVSPost2010PropOp47
 70
     0
102
RTVSPost2010Prop48
 90
       50
102
RTVSPost2010PropOp48
 70
     0
102
RTVSPost2010Prop49
280
     0
102
RTVSPost2010PropOp49
 70
     0
102
RTVSPost2010Prop50
 90
       50
102
RTVSPost2010PropOp50
 70
     0
102
RTVSPost2010Prop51ColorIndex
 90
      256
102
RTVSPost2010Prop51ColorRGB
 90
-16777216
102
RTVSPost2010PropOp51
 70
     0
102
RTVSPost2010Prop52
140
1.0
102
RTVSPost2010PropOp52
 70
     0
102
RTVSPost2010Prop53
 90
        2
102
RTVSPost2010PropOp53
 70
     0
102
RTVSPost2010Prop54
  1
strokes_ogs.tif
102
RTVSPost2010PropOp54
 70
     0
102
RTVSPost2010Prop55
280
     0
102
RTVSPost2010PropOp55
 70
     0
102
RTVSPost2010Prop56
140
1.0
102
RTVSPost2010PropOp56
 70
     0
102
RTVSPost2010Prop57
140
1.0
102
RTVSPost2010PropOp57
 70
     0
102
RTVSPropertyOp0
 70
     0
102
RTVSPropertyOp1
 70
     0
102
RTVSPropertyOp2
 70
     0
102
RTVSPropertyOp3
 70
     0
102
RTVSPropertyOp4
 70
     0
102
RTVSPropertyOp5
 70
     0
102
RTVSPropertyOp6
 70
     0
102
RTVSPropertyOp7
 70
     0
102
RTVSPropertyOp8
 70
     0
102
RTVSPropertyOp9
 70
     0
102
RTVSPropertyOp10
 70
     0
102
RTVSPropertyOp11
 70
     0
102
RTVSPropertyOp12
 70
     0
102
RTVSPropertyOp13
 70
     0
102
RTVSPropertyOp14
 70
     2
102
RTVSPropertyOp15
 70
     0
102
RTVSPropertyOp16
 70
     0
102
RTVSPropertyOp17
 70
     0
102
RTVSPropertyOp18
 70
     0
102
RTVSPropertyOp19
 70
     0
102
RTVSPropertyOp20
 70
     0
102
RTVSPropertyOp21
 70
     0
102
RTVSPropertyOp22
 70
     0
102
RTVSPropertyOp23
 70
     0
102
RTVSPropertyOp24
 70
     0
102
RTVSPropertyOp25
 70
     0
102
RTVSPropertyOp26
 70
     0
102
RTVSPropertyOp27
 70
     0
102
RTVSPropertyOp28
 70
     0
102
RTVSPropertyOp29
 70
     0
102
RTVSPropertyOp30
 70
     0
102
RTVSPropertyOp31
 70
     0
102
RTVSPropertyOp32
 70
     0
102
RTVSPropertyOp33
 70
     0
102
RTVSPropertyOp34
 70
     0
102
RTVSPropertyOp35
 70
     0
102
RTVSPropertyOp36
 70
     0
102
RTVSPropertyOp37
 70
     0
102
RTVSPropertyOp38
 70
     0
102
RTVSPropertyOp39
 70
     0
102
RTVSPropertyOp40
 70
     0
102
RTVSPropertyOp41
 70
     0
102
RTVSPropertyOp42
 70
     0
102
RTVSPropertyOp43
 70
     0
102
RTVSPropertyOp44
 70
     0
102
RTVSPropertyOp45
 70
     0
102
RTVSPropertyOp46
 70
     0
102
RTVSPropertyOp47
 70
     0
102
RTVSPropertyOp48
 70
     0
102
RTVSPropertyOp49
 70
     0
102
RTVSPropertyOp50
 70
     0
102
RTVSPropertyOp51
 70
     0
102
RTVSPropertyOp52
 70
     0
102
RTVSPropertyOp53
 70
     0
102
RTVSPropertyOp54
 70
     0
102
RTVSPropertyOp55
 70
     0
102
RTVSPropertyOp56
 70
     0
102
RTVSPropertyOp57
 70
     0
102
RTVSPropertyOp58
 70
     0
102
RTVSPropertyOp59
 70
     0
102
RTVSPropertyOp60
 70
     0
102
RTVSPropertyOp61
 70
     0
102
RTVSPropertyOp62
 70
     0
  0
XRECORD
  5
164D6
102
{ACAD_REACTORS
330
164D5
102
}
330
164D5
100
AcDbXrecord
280
     1
102
RTVSPost2010Prop28
280
     0
102
RTVSPost2010PropOp28
 70
     1
102
RTVSPost2010Prop29
280
     1
102
RTVSPost2010PropOp29
 70
     1
102
RTVSPost2010Prop30
280
     1
102
RTVSPost2010PropOp30
 70
     1
102
RTVSPost2010Prop31
280
     0
102
RTVSPost2010PropOp31
 70
     1
102
RTVSPost2010Prop32
280
     0
102
RTVSPost2010PropOp32
 70
     1
102
RTVSPost2010Prop33
280
     0
102
RTVSPost2010PropOp33
 70
     1
102
RTVSPost2010Prop34
280
     0
102
RTVSPost2010PropOp34
 70
     1
102
RTVSPost2010Prop35
280
     0
102
RTVSPost2010PropOp35
 70
     1
102
RTVSPost2010Prop36
280
     0
102
RTVSPost2010PropOp36
 70
     1
102
RTVSPost2010Prop37
 90
       50
102
RTVSPost2010PropOp37
 70
     1
102
RTVSPost2010Prop38
140
0.0
102
RTVSPost2010PropOp38
 70
     1
102
RTVSPost2010Prop39
140
1.0
102
RTVSPost2010PropOp39
 70
     1
102
RTVSPost2010Prop40
 90
        0
102
RTVSPost2010PropOp40
 70
     1
102
RTVSPost2010Prop41ColorIndex
 90
       18
102
RTVSPost2010Prop41ColorRGB
 90
        0
102
RTVSPost2010PropOp41
 70
     1
102
RTVSPost2010Prop42
 90
       50
102
RTVSPost2010PropOp42
 70
     1
102
RTVSPost2010Prop43
 90
        3
102
RTVSPost2010PropOp43
 70
     1
102
RTVSPost2010Prop44ColorIndex
 90
        5
102
RTVSPost2010Prop44ColorRGB
 90
      255
102
RTVSPost2010PropOp44
 70
     1
102
RTVSPost2010Prop45
280
     0
102
RTVSPost2010PropOp45
 70
     1
102
RTVSPost2010Prop46
 90
       50
102
RTVSPost2010PropOp46
 70
     1
102
RTVSPost2010Prop47
 90
       50
102
RTVSPost2010PropOp47
 70
     1
102
RTVSPost2010Prop48
 90
       50
102
RTVSPost2010PropOp48
 70
     1
102
RTVSPost2010Prop49
280
     0
102
RTVSPost2010PropOp49
 70
     1
102
RTVSPost2010Prop50
 90
       50
102
RTVSPost2010PropOp50
 70
     1
102
RTVSPost2010Prop51ColorIndex
 90
      256
102
RTVSPost2010Prop51ColorRGB
 90
-16777216
102
RTVSPost2010PropOp51
 70
     0
102
RTVSPost2010Prop52
140
1.0
102
RTVSPost2010PropOp52
 70
     0
102
RTVSPost2010Prop53
 90
        2
102
RTVSPost2010PropOp53
 70
     1
102
RTVSPost2010Prop54
  1
strokes_ogs.tif
102
RTVSPost2010PropOp54
 70
     1
102
RTVSPost2010Prop55
280
     0
102
RTVSPost2010PropOp55
 70
     1
102
RTVSPost2010Prop56
140
1.0
102
RTVSPost2010PropOp56
 70
     1
102
RTVSPost2010Prop57
140
1.0
102
RTVSPost2010PropOp57
 70
     1
102
RTVSPropertyOp0
 70
     1
102
RTVSPropertyOp1
 70
     1
102
RTVSPropertyOp2
 70
     1
102
RTVSPropertyOp3
 70
     1
102
RTVSPropertyOp4
 70
     1
102
RTVSPropertyOp5
 70
     1
102
RTVSPropertyOp6
 70
     1
102
RTVSPropertyOp7
 70
     1
102
RTVSPropertyOp8
 70
     1
102
RTVSPropertyOp9
 70
     1
102
RTVSPropertyOp10
 70
     1
102
RTVSPropertyOp11
 70
     1
102
RTVSPropertyOp12
 70
     1
102
RTVSPropertyOp13
 70
     1
102
RTVSPropertyOp14
 70
     1
102
RTVSPropertyOp15
 70
     1
102
RTVSPropertyOp16
 70
     1
102
RTVSPropertyOp17
 70
     1
102
RTVSPropertyOp18
 70
     1
102
RTVSPropertyOp19
 70
     1
102
RTVSPropertyOp20
 70
     1
102
RTVSPropertyOp21
 70
     1
102
RTVSPropertyOp22
 70
     1
102
RTVSPropertyOp23
 70
     1
102
RTVSPropertyOp24
 70
     1
102
RTVSPropertyOp25
 70
     1
102
RTVSPropertyOp26
 70
     1
102
RTVSPropertyOp27
 70
     1
102
RTVSPropertyOp28
 70
     1
102
RTVSPropertyOp29
 70
     1
102
RTVSPropertyOp30
 70
     1
102
RTVSPropertyOp31
 70
     1
102
RTVSPropertyOp32
 70
     1
102
RTVSPropertyOp33
 70
     1
102
RTVSPropertyOp34
 70
     1
102
RTVSPropertyOp35
 70
     1
102
RTVSPropertyOp36
 70
     1
102
RTVSPropertyOp37
 70
     1
102
RTVSPropertyOp38
 70
     1
102
RTVSPropertyOp39
 70
     1
102
RTVSPropertyOp40
 70
     1
102
RTVSPropertyOp41
 70
     1
102
RTVSPropertyOp42
 70
     1
102
RTVSPropertyOp43
 70
     1
102
RTVSPropertyOp44
 70
     1
102
RTVSPropertyOp45
 70
     1
102
RTVSPropertyOp46
 70
     1
102
RTVSPropertyOp47
 70
     1
102
RTVSPropertyOp48
 70
     1
102
RTVSPropertyOp49
 70
     1
102
RTVSPropertyOp50
 70
     1
102
RTVSPropertyOp51
 70
     0
102
RTVSPropertyOp52
 70
     0
102
RTVSPropertyOp53
 70
     1
102
RTVSPropertyOp54
 70
     1
102
RTVSPropertyOp55
 70
     1
102
RTVSPropertyOp56
 70
     1
102
RTVSPropertyOp57
 70
     1
102
RTVSPropertyOp58
 70
     1
102
RTVSPropertyOp59
 70
     1
102
RTVSPropertyOp60
 70
     1
102
RTVSPropertyOp61
 70
     1
102
RTVSPropertyOp62
 70
     1
  0
XRECORD
  5
164BA
102
{ACAD_REACTORS
330
164B9
102
}
330
164B9
100
AcDbXrecord
280
     1
102
RTVSPost2010Prop28
280
     0
102
RTVSPost2010PropOp28
 70
     1
102
RTVSPost2010Prop29
280
     1
102
RTVSPost2010PropOp29
 70
     1
102
RTVSPost2010Prop30
280
     1
102
RTVSPost2010PropOp30
 70
     1
102
RTVSPost2010Prop31
280
     0
102
RTVSPost2010PropOp31
 70
     1
102
RTVSPost2010Prop32
280
     0
102
RTVSPost2010PropOp32
 70
     1
102
RTVSPost2010Prop33
280
     0
102
RTVSPost2010PropOp33
 70
     1
102
RTVSPost2010Prop34
280
     0
102
RTVSPost2010PropOp34
 70
     1
102
RTVSPost2010Prop35
280
     0
102
RTVSPost2010PropOp35
 70
     1
102
RTVSPost2010Prop36
280
     0
102
RTVSPost2010PropOp36
 70
     1
102
RTVSPost2010Prop37
 90
       50
102
RTVSPost2010PropOp37
 70
     1
102
RTVSPost2010Prop38
140
0.0
102
RTVSPost2010PropOp38
 70
     1
102
RTVSPost2010Prop39
140
1.0
102
RTVSPost2010PropOp39
 70
     1
102
RTVSPost2010Prop40
 90
        0
102
RTVSPost2010PropOp40
 70
     1
102
RTVSPost2010Prop41ColorIndex
 90
       18
102
RTVSPost2010Prop41ColorRGB
 90
        0
102
RTVSPost2010PropOp41
 70
     1
102
RTVSPost2010Prop42
 90
       50
102
RTVSPost2010PropOp42
 70
     1
102
RTVSPost2010Prop43
 90
        3
102
RTVSPost2010PropOp43
 70
     1
102
RTVSPost2010Prop44ColorIndex
 90
        5
102
RTVSPost2010Prop44ColorRGB
 90
      255
102
RTVSPost2010PropOp44
 70
     1
102
RTVSPost2010Prop45
280
     0
102
RTVSPost2010PropOp45
 70
     1
102
RTVSPost2010Prop46
 90
       50
102
RTVSPost2010PropOp46
 70
     1
102
RTVSPost2010Prop47
 90
       50
102
RTVSPost2010PropOp47
 70
     1
102
RTVSPost2010Prop48
 90
       50
102
RTVSPost2010PropOp48
 70
     1
102
RTVSPost2010Prop49
280
     0
102
RTVSPost2010PropOp49
 70
     1
102
RTVSPost2010Prop50
 90
       50
102
RTVSPost2010PropOp50
 70
     1
102
RTVSPost2010Prop51ColorIndex
 90
      256
102
RTVSPost2010Prop51ColorRGB
 90
-16777216
102
RTVSPost2010PropOp51
 70
     0
102
RTVSPost2010Prop52
140
1.0
102
RTVSPost2010PropOp52
 70
     0
102
RTVSPost2010Prop53
 90
        2
102
RTVSPost2010PropOp53
 70
     1
102
RTVSPost2010Prop54
  1
strokes_ogs.tif
102
RTVSPost2010PropOp54
 70
     1
102
RTVSPost2010Prop55
280
     0
102
RTVSPost2010PropOp55
 70
     1
102
RTVSPost2010Prop56
140
1.0
102
RTVSPost2010PropOp56
 70
     1
102
RTVSPost2010Prop57
140
1.0
102
RTVSPost2010PropOp57
 70
     1
102
RTVSPropertyOp0
 70
     1
102
RTVSPropertyOp1
 70
     1
102
RTVSPropertyOp2
 70
     1
102
RTVSPropertyOp3
 70
     1
102
RTVSPropertyOp4
 70
     1
102
RTVSPropertyOp5
 70
     1
102
RTVSPropertyOp6
 70
     1
102
RTVSPropertyOp7
 70
     1
102
RTVSPropertyOp8
 70
     1
102
RTVSPropertyOp9
 70
     1
102
RTVSPropertyOp10
 70
     1
102
RTVSPropertyOp11
 70
     1
102
RTVSPropertyOp12
 70
     1
102
RTVSPropertyOp13
 70
     1
102
RTVSPropertyOp14
 70
     1
102
RTVSPropertyOp15
 70
     1
102
RTVSPropertyOp16
 70
     1
102
RTVSPropertyOp17
 70
     1
102
RTVSPropertyOp18
 70
     1
102
RTVSPropertyOp19
 70
     1
102
RTVSPropertyOp20
 70
     1
102
RTVSPropertyOp21
 70
     1
102
RTVSPropertyOp22
 70
     1
102
RTVSPropertyOp23
 70
     1
102
RTVSPropertyOp24
 70
     1
102
RTVSPropertyOp25
 70
     1
102
RTVSPropertyOp26
 70
     1
102
RTVSPropertyOp27
 70
     1
102
RTVSPropertyOp28
 70
     1
102
RTVSPropertyOp29
 70
     1
102
RTVSPropertyOp30
 70
     1
102
RTVSPropertyOp31
 70
     1
102
RTVSPropertyOp32
 70
     1
102
RTVSPropertyOp33
 70
     1
102
RTVSPropertyOp34
 70
     1
102
RTVSPropertyOp35
 70
     1
102
RTVSPropertyOp36
 70
     1
102
RTVSPropertyOp37
 70
     1
102
RTVSPropertyOp38
 70
     1
102
RTVSPropertyOp39
 70
     1
102
RTVSPropertyOp40
 70
     1
102
RTVSPropertyOp41
 70
     1
102
RTVSPropertyOp42
 70
     1
102
RTVSPropertyOp43
 70
     1
102
RTVSPropertyOp44
 70
     1
102
RTVSPropertyOp45
 70
     1
102
RTVSPropertyOp46
 70
     1
102
RTVSPropertyOp47
 70
     1
102
RTVSPropertyOp48
 70
     1
102
RTVSPropertyOp49
 70
     1
102
RTVSPropertyOp50
 70
     1
102
RTVSPropertyOp51
 70
     0
102
RTVSPropertyOp52
 70
     0
102
RTVSPropertyOp53
 70
     1
102
RTVSPropertyOp54
 70
     1
102
RTVSPropertyOp55
 70
     1
102
RTVSPropertyOp56
 70
     1
102
RTVSPropertyOp57
 70
     1
102
RTVSPropertyOp58
 70
     1
102
RTVSPropertyOp59
 70
     1
102
RTVSPropertyOp60
 70
     1
102
RTVSPropertyOp61
 70
     1
102
RTVSPropertyOp62
 70
     1
  0
XRECORD
  5
164BC
102
{ACAD_REACTORS
330
164BB
102
}
330
164BB
100
AcDbXrecord
280
     1
102
RTVSPost2010Prop28
280
     0
102
RTVSPost2010PropOp28
 70
     1
102
RTVSPost2010Prop29
280
     1
102
RTVSPost2010PropOp29
 70
     1
102
RTVSPost2010Prop30
280
     1
102
RTVSPost2010PropOp30
 70
     1
102
RTVSPost2010Prop31
280
     0
102
RTVSPost2010PropOp31
 70
     1
102
RTVSPost2010Prop32
280
     0
102
RTVSPost2010PropOp32
 70
     1
102
RTVSPost2010Prop33
280
     0
102
RTVSPost2010PropOp33
 70
     1
102
RTVSPost2010Prop34
280
     0
102
RTVSPost2010PropOp34
 70
     1
102
RTVSPost2010Prop35
280
     0
102
RTVSPost2010PropOp35
 70
     1
102
RTVSPost2010Prop36
280
     0
102
RTVSPost2010PropOp36
 70
     1
102
RTVSPost2010Prop37
 90
       50
102
RTVSPost2010PropOp37
 70
     1
102
RTVSPost2010Prop38
140
0.0
102
RTVSPost2010PropOp38
 70
     1
102
RTVSPost2010Prop39
140
1.0
102
RTVSPost2010PropOp39
 70
     1
102
RTVSPost2010Prop40
 90
        0
102
RTVSPost2010PropOp40
 70
     1
102
RTVSPost2010Prop41ColorIndex
 90
       18
102
RTVSPost2010Prop41ColorRGB
 90
        0
102
RTVSPost2010PropOp41
 70
     1
102
RTVSPost2010Prop42
 90
       50
102
RTVSPost2010PropOp42
 70
     1
102
RTVSPost2010Prop43
 90
        3
102
RTVSPost2010PropOp43
 70
     1
102
RTVSPost2010Prop44ColorIndex
 90
        5
102
RTVSPost2010Prop44ColorRGB
 90
      255
102
RTVSPost2010PropOp44
 70
     1
102
RTVSPost2010Prop45
280
     0
102
RTVSPost2010PropOp45
 70
     1
102
RTVSPost2010Prop46
 90
       50
102
RTVSPost2010PropOp46
 70
     1
102
RTVSPost2010Prop47
 90
       50
102
RTVSPost2010PropOp47
 70
     1
102
RTVSPost2010Prop48
 90
       50
102
RTVSPost2010PropOp48
 70
     1
102
RTVSPost2010Prop49
280
     0
102
RTVSPost2010PropOp49
 70
     1
102
RTVSPost2010Prop50
 90
       50
102
RTVSPost2010PropOp50
 70
     1
102
RTVSPost2010Prop51ColorIndex
 90
      256
102
RTVSPost2010Prop51ColorRGB
 90
-16777216
102
RTVSPost2010PropOp51
 70
     0
102
RTVSPost2010Prop52
140
1.0
102
RTVSPost2010PropOp52
 70
     0
102
RTVSPost2010Prop53
 90
        2
102
RTVSPost2010PropOp53
 70
     1
102
RTVSPost2010Prop54
  1
strokes_ogs.tif
102
RTVSPost2010PropOp54
 70
     1
102
RTVSPost2010Prop55
280
     0
102
RTVSPost2010PropOp55
 70
     1
102
RTVSPost2010Prop56
140
1.0
102
RTVSPost2010PropOp56
 70
     1
102
RTVSPost2010Prop57
140
1.0
102
RTVSPost2010PropOp57
 70
     1
102
RTVSPropertyOp0
 70
     1
102
RTVSPropertyOp1
 70
     1
102
RTVSPropertyOp2
 70
     1
102
RTVSPropertyOp3
 70
     1
102
RTVSPropertyOp4
 70
     1
102
RTVSPropertyOp5
 70
     1
102
RTVSPropertyOp6
 70
     1
102
RTVSPropertyOp7
 70
     1
102
RTVSPropertyOp8
 70
     1
102
RTVSPropertyOp9
 70
     1
102
RTVSPropertyOp10
 70
     1
102
RTVSPropertyOp11
 70
     1
102
RTVSPropertyOp12
 70
     1
102
RTVSPropertyOp13
 70
     1
102
RTVSPropertyOp14
 70
     1
102
RTVSPropertyOp15
 70
     1
102
RTVSPropertyOp16
 70
     1
102
RTVSPropertyOp17
 70
     1
102
RTVSPropertyOp18
 70
     1
102
RTVSPropertyOp19
 70
     1
102
RTVSPropertyOp20
 70
     1
102
RTVSPropertyOp21
 70
     1
102
RTVSPropertyOp22
 70
     1
102
RTVSPropertyOp23
 70
     1
102
RTVSPropertyOp24
 70
     1
102
RTVSPropertyOp25
 70
     1
102
RTVSPropertyOp26
 70
     1
102
RTVSPropertyOp27
 70
     1
102
RTVSPropertyOp28
 70
     1
102
RTVSPropertyOp29
 70
     1
102
RTVSPropertyOp30
 70
     1
102
RTVSPropertyOp31
 70
     1
102
RTVSPropertyOp32
 70
     1
102
RTVSPropertyOp33
 70
     1
102
RTVSPropertyOp34
 70
     1
102
RTVSPropertyOp35
 70
     1
102
RTVSPropertyOp36
 70
     1
102
RTVSPropertyOp37
 70
     1
102
RTVSPropertyOp38
 70
     1
102
RTVSPropertyOp39
 70
     1
102
RTVSPropertyOp40
 70
     1
102
RTVSPropertyOp41
 70
     1
102
RTVSPropertyOp42
 70
     1
102
RTVSPropertyOp43
 70
     1
102
RTVSPropertyOp44
 70
     1
102
RTVSPropertyOp45
 70
     1
102
RTVSPropertyOp46
 70
     1
102
RTVSPropertyOp47
 70
     1
102
RTVSPropertyOp48
 70
     1
102
RTVSPropertyOp49
 70
     1
102
RTVSPropertyOp50
 70
     1
102
RTVSPropertyOp51
 70
     0
102
RTVSPropertyOp52
 70
     0
102
RTVSPropertyOp53
 70
     1
102
RTVSPropertyOp54
 70
     1
102
RTVSPropertyOp55
 70
     1
102
RTVSPropertyOp56
 70
     1
102
RTVSPropertyOp57
 70
     1
102
RTVSPropertyOp58
 70
     1
102
RTVSPropertyOp59
 70
     1
102
RTVSPropertyOp60
 70
     1
102
RTVSPropertyOp61
 70
     1
102
RTVSPropertyOp62
 70
     1
  0
XRECORD
  5
164BE
102
{ACAD_REACTORS
330
164BD
102
}
330
164BD
100
AcDbXrecord
280
     1
102
RTVSPost2010Prop28
280
     0
102
RTVSPost2010PropOp28
 70
     1
102
RTVSPost2010Prop29
280
     1
102
RTVSPost2010PropOp29
 70
     1
102
RTVSPost2010Prop30
280
     1
102
RTVSPost2010PropOp30
 70
     1
102
RTVSPost2010Prop31
280
     0
102
RTVSPost2010PropOp31
 70
     1
102
RTVSPost2010Prop32
280
     0
102
RTVSPost2010PropOp32
 70
     1
102
RTVSPost2010Prop33
280
     0
102
RTVSPost2010PropOp33
 70
     1
102
RTVSPost2010Prop34
280
     0
102
RTVSPost2010PropOp34
 70
     1
102
RTVSPost2010Prop35
280
     0
102
RTVSPost2010PropOp35
 70
     1
102
RTVSPost2010Prop36
280
     0
102
RTVSPost2010PropOp36
 70
     1
102
RTVSPost2010Prop37
 90
       50
102
RTVSPost2010PropOp37
 70
     1
102
RTVSPost2010Prop38
140
0.0
102
RTVSPost2010PropOp38
 70
     1
102
RTVSPost2010Prop39
140
1.0
102
RTVSPost2010PropOp39
 70
     1
102
RTVSPost2010Prop40
 90
        0
102
RTVSPost2010PropOp40
 70
     1
102
RTVSPost2010Prop41ColorIndex
 90
       18
102
RTVSPost2010Prop41ColorRGB
 90
        0
102
RTVSPost2010PropOp41
 70
     1
102
RTVSPost2010Prop42
 90
       50
102
RTVSPost2010PropOp42
 70
     1
102
RTVSPost2010Prop43
 90
        3
102
RTVSPost2010PropOp43
 70
     1
102
RTVSPost2010Prop44ColorIndex
 90
        5
102
RTVSPost2010Prop44ColorRGB
 90
      255
102
RTVSPost2010PropOp44
 70
     1
102
RTVSPost2010Prop45
280
     0
102
RTVSPost2010PropOp45
 70
     1
102
RTVSPost2010Prop46
 90
       50
102
RTVSPost2010PropOp46
 70
     1
102
RTVSPost2010Prop47
 90
       50
102
RTVSPost2010PropOp47
 70
     1
102
RTVSPost2010Prop48
 90
       50
102
RTVSPost2010PropOp48
 70
     1
102
RTVSPost2010Prop49
280
     0
102
RTVSPost2010PropOp49
 70
     1
102
RTVSPost2010Prop50
 90
       50
102
RTVSPost2010PropOp50
 70
     1
102
RTVSPost2010Prop51ColorIndex
 90
      256
102
RTVSPost2010Prop51ColorRGB
 90
-16777216
102
RTVSPost2010PropOp51
 70
     0
102
RTVSPost2010Prop52
140
1.0
102
RTVSPost2010PropOp52
 70
     0
102
RTVSPost2010Prop53
 90
        2
102
RTVSPost2010PropOp53
 70
     1
102
RTVSPost2010Prop54
  1
strokes_ogs.tif
102
RTVSPost2010PropOp54
 70
     1
102
RTVSPost2010Prop55
280
     0
102
RTVSPost2010PropOp55
 70
     1
102
RTVSPost2010Prop56
140
1.0
102
RTVSPost2010PropOp56
 70
     1
102
RTVSPost2010Prop57
140
1.0
102
RTVSPost2010PropOp57
 70
     1
102
RTVSPropertyOp0
 70
     1
102
RTVSPropertyOp1
 70
     1
102
RTVSPropertyOp2
 70
     1
102
RTVSPropertyOp3
 70
     1
102
RTVSPropertyOp4
 70
     1
102
RTVSPropertyOp5
 70
     1
102
RTVSPropertyOp6
 70
     1
102
RTVSPropertyOp7
 70
     1
102
RTVSPropertyOp8
 70
     1
102
RTVSPropertyOp9
 70
     1
102
RTVSPropertyOp10
 70
     1
102
RTVSPropertyOp11
 70
     1
102
RTVSPropertyOp12
 70
     1
102
RTVSPropertyOp13
 70
     1
102
RTVSPropertyOp14
 70
     1
102
RTVSPropertyOp15
 70
     1
102
RTVSPropertyOp16
 70
     1
102
RTVSPropertyOp17
 70
     1
102
RTVSPropertyOp18
 70
     1
102
RTVSPropertyOp19
 70
     1
102
RTVSPropertyOp20
 70
     1
102
RTVSPropertyOp21
 70
     1
102
RTVSPropertyOp22
 70
     1
102
RTVSPropertyOp23
 70
     1
102
RTVSPropertyOp24
 70
     1
102
RTVSPropertyOp25
 70
     1
102
RTVSPropertyOp26
 70
     1
102
RTVSPropertyOp27
 70
     1
102
RTVSPropertyOp28
 70
     1
102
RTVSPropertyOp29
 70
     1
102
RTVSPropertyOp30
 70
     1
102
RTVSPropertyOp31
 70
     1
102
RTVSPropertyOp32
 70
     1
102
RTVSPropertyOp33
 70
     1
102
RTVSPropertyOp34
 70
     1
102
RTVSPropertyOp35
 70
     1
102
RTVSPropertyOp36
 70
     1
102
RTVSPropertyOp37
 70
     1
102
RTVSPropertyOp38
 70
     1
102
RTVSPropertyOp39
 70
     1
102
RTVSPropertyOp40
 70
     1
102
RTVSPropertyOp41
 70
     1
102
RTVSPropertyOp42
 70
     1
102
RTVSPropertyOp43
 70
     1
102
RTVSPropertyOp44
 70
     1
102
RTVSPropertyOp45
 70
     1
102
RTVSPropertyOp46
 70
     1
102
RTVSPropertyOp47
 70
     1
102
RTVSPropertyOp48
 70
     1
102
RTVSPropertyOp49
 70
     1
102
RTVSPropertyOp50
 70
     1
102
RTVSPropertyOp51
 70
     0
102
RTVSPropertyOp52
 70
     0
102
RTVSPropertyOp53
 70
     1
102
RTVSPropertyOp54
 70
     1
102
RTVSPropertyOp55
 70
     1
102
RTVSPropertyOp56
 70
     1
102
RTVSPropertyOp57
 70
     1
102
RTVSPropertyOp58
 70
     1
102
RTVSPropertyOp59
 70
     1
102
RTVSPropertyOp60
 70
     1
102
RTVSPropertyOp61
 70
     1
102
RTVSPropertyOp62
 70
     1
  0
XRECORD
  5
164C0
102
{ACAD_REACTORS
330
164BF
102
}
330
164BF
100
AcDbXrecord
280
     1
102
RTVSPost2010Prop28
280
     0
102
RTVSPost2010PropOp28
 70
     1
102
RTVSPost2010Prop29
280
     1
102
RTVSPost2010PropOp29
 70
     1
102
RTVSPost2010Prop30
280
     1
102
RTVSPost2010PropOp30
 70
     1
102
RTVSPost2010Prop31
280
     0
102
RTVSPost2010PropOp31
 70
     1
102
RTVSPost2010Prop32
280
     0
102
RTVSPost2010PropOp32
 70
     1
102
RTVSPost2010Prop33
280
     0
102
RTVSPost2010PropOp33
 70
     1
102
RTVSPost2010Prop34
280
     0
102
RTVSPost2010PropOp34
 70
     1
102
RTVSPost2010Prop35
280
     0
102
RTVSPost2010PropOp35
 70
     1
102
RTVSPost2010Prop36
280
     0
102
RTVSPost2010PropOp36
 70
     1
102
RTVSPost2010Prop37
 90
       50
102
RTVSPost2010PropOp37
 70
     1
102
RTVSPost2010Prop38
140
0.0
102
RTVSPost2010PropOp38
 70
     1
102
RTVSPost2010Prop39
140
1.0
102
RTVSPost2010PropOp39
 70
     1
102
RTVSPost2010Prop40
 90
        0
102
RTVSPost2010PropOp40
 70
     1
102
RTVSPost2010Prop41ColorIndex
 90
       18
102
RTVSPost2010Prop41ColorRGB
 90
        0
102
RTVSPost2010PropOp41
 70
     1
102
RTVSPost2010Prop42
 90
       50
102
RTVSPost2010PropOp42
 70
     1
102
RTVSPost2010Prop43
 90
        3
102
RTVSPost2010PropOp43
 70
     1
102
RTVSPost2010Prop44ColorIndex
 90
        5
102
RTVSPost2010Prop44ColorRGB
 90
      255
102
RTVSPost2010PropOp44
 70
     1
102
RTVSPost2010Prop45
280
     0
102
RTVSPost2010PropOp45
 70
     1
102
RTVSPost2010Prop46
 90
       50
102
RTVSPost2010PropOp46
 70
     1
102
RTVSPost2010Prop47
 90
       50
102
RTVSPost2010PropOp47
 70
     1
102
RTVSPost2010Prop48
 90
       50
102
RTVSPost2010PropOp48
 70
     1
102
RTVSPost2010Prop49
280
     0
102
RTVSPost2010PropOp49
 70
     1
102
RTVSPost2010Prop50
 90
       50
102
RTVSPost2010PropOp50
 70
     1
102
RTVSPost2010Prop51ColorIndex
 90
      256
102
RTVSPost2010Prop51ColorRGB
 90
-16777216
102
RTVSPost2010PropOp51
 70
     0
102
RTVSPost2010Prop52
140
1.0
102
RTVSPost2010PropOp52
 70
     0
102
RTVSPost2010Prop53
 90
        2
102
RTVSPost2010PropOp53
 70
     1
102
RTVSPost2010Prop54
  1
strokes_ogs.tif
102
RTVSPost2010PropOp54
 70
     1
102
RTVSPost2010Prop55
280
     0
102
RTVSPost2010PropOp55
 70
     1
102
RTVSPost2010Prop56
140
1.0
102
RTVSPost2010PropOp56
 70
     1
102
RTVSPost2010Prop57
140
1.0
102
RTVSPost2010PropOp57
 70
     1
102
RTVSPropertyOp0
 70
     1
102
RTVSPropertyOp1
 70
     1
102
RTVSPropertyOp2
 70
     1
102
RTVSPropertyOp3
 70
     1
102
RTVSPropertyOp4
 70
     1
102
RTVSPropertyOp5
 70
     1
102
RTVSPropertyOp6
 70
     1
102
RTVSPropertyOp7
 70
     1
102
RTVSPropertyOp8
 70
     1
102
RTVSPropertyOp9
 70
     1
102
RTVSPropertyOp10
 70
     1
102
RTVSPropertyOp11
 70
     1
102
RTVSPropertyOp12
 70
     1
102
RTVSPropertyOp13
 70
     1
102
RTVSPropertyOp14
 70
     1
102
RTVSPropertyOp15
 70
     1
102
RTVSPropertyOp16
 70
     1
102
RTVSPropertyOp17
 70
     1
102
RTVSPropertyOp18
 70
     1
102
RTVSPropertyOp19
 70
     1
102
RTVSPropertyOp20
 70
     1
102
RTVSPropertyOp21
 70
     1
102
RTVSPropertyOp22
 70
     1
102
RTVSPropertyOp23
 70
     1
102
RTVSPropertyOp24
 70
     1
102
RTVSPropertyOp25
 70
     1
102
RTVSPropertyOp26
 70
     1
102
RTVSPropertyOp27
 70
     1
102
RTVSPropertyOp28
 70
     1
102
RTVSPropertyOp29
 70
     1
102
RTVSPropertyOp30
 70
     1
102
RTVSPropertyOp31
 70
     1
102
RTVSPropertyOp32
 70
     1
102
RTVSPropertyOp33
 70
     1
102
RTVSPropertyOp34
 70
     1
102
RTVSPropertyOp35
 70
     1
102
RTVSPropertyOp36
 70
     1
102
RTVSPropertyOp37
 70
     1
102
RTVSPropertyOp38
 70
     1
102
RTVSPropertyOp39
 70
     1
102
RTVSPropertyOp40
 70
     1
102
RTVSPropertyOp41
 70
     1
102
RTVSPropertyOp42
 70
     1
102
RTVSPropertyOp43
 70
     1
102
RTVSPropertyOp44
 70
     1
102
RTVSPropertyOp45
 70
     1
102
RTVSPropertyOp46
 70
     1
102
RTVSPropertyOp47
 70
     1
102
RTVSPropertyOp48
 70
     1
102
RTVSPropertyOp49
 70
     1
102
RTVSPropertyOp50
 70
     1
102
RTVSPropertyOp51
 70
     0
102
RTVSPropertyOp52
 70
     0
102
RTVSPropertyOp53
 70
     1
102
RTVSPropertyOp54
 70
     1
102
RTVSPropertyOp55
 70
     1
102
RTVSPropertyOp56
 70
     1
102
RTVSPropertyOp57
 70
     1
102
RTVSPropertyOp58
 70
     1
102
RTVSPropertyOp59
 70
     1
102
RTVSPropertyOp60
 70
     1
102
RTVSPropertyOp61
 70
     1
102
RTVSPropertyOp62
 70
     1
  0
XRECORD
  5
164C8
102
{ACAD_REACTORS
330
164C7
102
}
330
164C7
100
AcDbXrecord
280
     1
102
RTVSPost2010Prop28
280
     0
102
RTVSPost2010PropOp28
 70
     1
102
RTVSPost2010Prop29
280
     1
102
RTVSPost2010PropOp29
 70
     1
102
RTVSPost2010Prop30
280
     1
102
RTVSPost2010PropOp30
 70
     1
102
RTVSPost2010Prop31
280
     0
102
RTVSPost2010PropOp31
 70
     1
102
RTVSPost2010Prop32
280
     0
102
RTVSPost2010PropOp32
 70
     1
102
RTVSPost2010Prop33
280
     0
102
RTVSPost2010PropOp33
 70
     1
102
RTVSPost2010Prop34
280
     0
102
RTVSPost2010PropOp34
 70
     1
102
RTVSPost2010Prop35
280
     0
102
RTVSPost2010PropOp35
 70
     1
102
RTVSPost2010Prop36
280
     0
102
RTVSPost2010PropOp36
 70
     1
102
RTVSPost2010Prop37
 90
       50
102
RTVSPost2010PropOp37
 70
     1
102
RTVSPost2010Prop38
140
0.0
102
RTVSPost2010PropOp38
 70
     1
102
RTVSPost2010Prop39
140
1.0
102
RTVSPost2010PropOp39
 70
     1
102
RTVSPost2010Prop40
 90
        0
102
RTVSPost2010PropOp40
 70
     1
102
RTVSPost2010Prop41ColorIndex
 90
       18
102
RTVSPost2010Prop41ColorRGB
 90
        0
102
RTVSPost2010PropOp41
 70
     1
102
RTVSPost2010Prop42
 90
       50
102
RTVSPost2010PropOp42
 70
     1
102
RTVSPost2010Prop43
 90
        3
102
RTVSPost2010PropOp43
 70
     1
102
RTVSPost2010Prop44ColorIndex
 90
        5
102
RTVSPost2010Prop44ColorRGB
 90
      255
102
RTVSPost2010PropOp44
 70
     1
102
RTVSPost2010Prop45
280
     0
102
RTVSPost2010PropOp45
 70
     1
102
RTVSPost2010Prop46
 90
       50
102
RTVSPost2010PropOp46
 70
     1
102
RTVSPost2010Prop47
 90
       50
102
RTVSPost2010PropOp47
 70
     1
102
RTVSPost2010Prop48
 90
       50
102
RTVSPost2010PropOp48
 70
     1
102
RTVSPost2010Prop49
280
     0
102
RTVSPost2010PropOp49
 70
     1
102
RTVSPost2010Prop50
 90
       50
102
RTVSPost2010PropOp50
 70
     1
102
RTVSPost2010Prop51ColorIndex
 90
      256
102
RTVSPost2010Prop51ColorRGB
 90
-16777216
102
RTVSPost2010PropOp51
 70
     0
102
RTVSPost2010Prop52
140
1.0
102
RTVSPost2010PropOp52
 70
     0
102
RTVSPost2010Prop53
 90
        2
102
RTVSPost2010PropOp53
 70
     1
102
RTVSPost2010Prop54
  1
strokes_ogs.tif
102
RTVSPost2010PropOp54
 70
     1
102
RTVSPost2010Prop55
280
     0
102
RTVSPost2010PropOp55
 70
     1
102
RTVSPost2010Prop56
140
1.0
102
RTVSPost2010PropOp56
 70
     1
102
RTVSPost2010Prop57
140
1.0
102
RTVSPost2010PropOp57
 70
     1
102
RTVSPropertyOp0
 70
     1
102
RTVSPropertyOp1
 70
     1
102
RTVSPropertyOp2
 70
     1
102
RTVSPropertyOp3
 70
     1
102
RTVSPropertyOp4
 70
     1
102
RTVSPropertyOp5
 70
     1
102
RTVSPropertyOp6
 70
     1
102
RTVSPropertyOp7
 70
     1
102
RTVSPropertyOp8
 70
     1
102
RTVSPropertyOp9
 70
     1
102
RTVSPropertyOp10
 70
     1
102
RTVSPropertyOp11
 70
     1
102
RTVSPropertyOp12
 70
     1
102
RTVSPropertyOp13
 70
     1
102
RTVSPropertyOp14
 70
     1
102
RTVSPropertyOp15
 70
     1
102
RTVSPropertyOp16
 70
     1
102
RTVSPropertyOp17
 70
     1
102
RTVSPropertyOp18
 70
     1
102
RTVSPropertyOp19
 70
     1
102
RTVSPropertyOp20
 70
     1
102
RTVSPropertyOp21
 70
     1
102
RTVSPropertyOp22
 70
     1
102
RTVSPropertyOp23
 70
     1
102
RTVSPropertyOp24
 70
     1
102
RTVSPropertyOp25
 70
     1
102
RTVSPropertyOp26
 70
     1
102
RTVSPropertyOp27
 70
     1
102
RTVSPropertyOp28
 70
     1
102
RTVSPropertyOp29
 70
     1
102
RTVSPropertyOp30
 70
     1
102
RTVSPropertyOp31
 70
     1
102
RTVSPropertyOp32
 70
     1
102
RTVSPropertyOp33
 70
     1
102
RTVSPropertyOp34
 70
     1
102
RTVSPropertyOp35
 70
     1
102
RTVSPropertyOp36
 70
     1
102
RTVSPropertyOp37
 70
     1
102
RTVSPropertyOp38
 70
     1
102
RTVSPropertyOp39
 70
     1
102
RTVSPropertyOp40
 70
     1
102
RTVSPropertyOp41
 70
     1
102
RTVSPropertyOp42
 70
     1
102
RTVSPropertyOp43
 70
     1
102
RTVSPropertyOp44
 70
     1
102
RTVSPropertyOp45
 70
     1
102
RTVSPropertyOp46
 70
     1
102
RTVSPropertyOp47
 70
     1
102
RTVSPropertyOp48
 70
     1
102
RTVSPropertyOp49
 70
     1
102
RTVSPropertyOp50
 70
     1
102
RTVSPropertyOp51
 70
     0
102
RTVSPropertyOp52
 70
     0
102
RTVSPropertyOp53
 70
     1
102
RTVSPropertyOp54
 70
     1
102
RTVSPropertyOp55
 70
     1
102
RTVSPropertyOp56
 70
     1
102
RTVSPropertyOp57
 70
     1
102
RTVSPropertyOp58
 70
     1
102
RTVSPropertyOp59
 70
     1
102
RTVSPropertyOp60
 70
     1
102
RTVSPropertyOp61
 70
     1
102
RTVSPropertyOp62
 70
     1
  0
XRECORD
  5
164E4
102
{ACAD_REACTORS
330
164E3
102
}
330
164E3
100
AcDbXrecord
280
     1
102
RTVSPost2010Prop28
280
     0
102
RTVSPost2010PropOp28
 70
     0
102
RTVSPost2010Prop29
280
     1
102
RTVSPost2010PropOp29
 70
     0
102
RTVSPost2010Prop30
280
     1
102
RTVSPost2010PropOp30
 70
     0
102
RTVSPost2010Prop31
280
     0
102
RTVSPost2010PropOp31
 70
     0
102
RTVSPost2010Prop32
280
     0
102
RTVSPost2010PropOp32
 70
     0
102
RTVSPost2010Prop33
280
     0
102
RTVSPost2010PropOp33
 70
     0
102
RTVSPost2010Prop34
280
     0
102
RTVSPost2010PropOp34
 70
     0
102
RTVSPost2010Prop35
280
     0
102
RTVSPost2010PropOp35
 70
     0
102
RTVSPost2010Prop36
280
     0
102
RTVSPost2010PropOp36
 70
     0
102
RTVSPost2010Prop37
 90
       50
102
RTVSPost2010PropOp37
 70
     0
102
RTVSPost2010Prop38
140
0.0
102
RTVSPost2010PropOp38
 70
     0
102
RTVSPost2010Prop39
140
1.0
102
RTVSPost2010PropOp39
 70
     0
102
RTVSPost2010Prop40
 90
        0
102
RTVSPost2010PropOp40
 70
     0
102
RTVSPost2010Prop41ColorIndex
 90
       18
102
RTVSPost2010Prop41ColorRGB
 90
        0
102
RTVSPost2010PropOp41
 70
     0
102
RTVSPost2010Prop42
 90
       50
102
RTVSPost2010PropOp42
 70
     0
102
RTVSPost2010Prop43
 90
        3
102
RTVSPost2010PropOp43
 70
     0
102
RTVSPost2010Prop44ColorIndex
 90
        5
102
RTVSPost2010Prop44ColorRGB
 90
      255
102
RTVSPost2010PropOp44
 70
     0
102
RTVSPost2010Prop45
280
     0
102
RTVSPost2010PropOp45
 70
     0
102
RTVSPost2010Prop46
 90
       50
102
RTVSPost2010PropOp46
 70
     0
102
RTVSPost2010Prop47
 90
       50
102
RTVSPost2010PropOp47
 70
     0
102
RTVSPost2010Prop48
 90
       50
102
RTVSPost2010PropOp48
 70
     0
102
RTVSPost2010Prop49
280
     0
102
RTVSPost2010PropOp49
 70
     0
102
RTVSPost2010Prop50
 90
       50
102
RTVSPost2010PropOp50
 70
     0
102
RTVSPost2010Prop51ColorIndex
 90
      256
102
RTVSPost2010Prop51ColorRGB
 90
-16777216
102
RTVSPost2010PropOp51
 70
     0
102
RTVSPost2010Prop52
140
1.0
102
RTVSPost2010PropOp52
 70
     0
102
RTVSPost2010Prop53
 90
        2
102
RTVSPost2010PropOp53
 70
     0
102
RTVSPost2010Prop54
  1
strokes_ogs.tif
102
RTVSPost2010PropOp54
 70
     0
102
RTVSPost2010Prop55
280
     0
102
RTVSPost2010PropOp55
 70
     0
102
RTVSPost2010Prop56
140
1.0
102
RTVSPost2010PropOp56
 70
     0
102
RTVSPost2010Prop57
140
1.0
102
RTVSPost2010PropOp57
 70
     0
102
RTVSPropertyOp0
 70
     0
102
RTVSPropertyOp1
 70
     0
102
RTVSPropertyOp2
 70
     0
102
RTVSPropertyOp3
 70
     0
102
RTVSPropertyOp4
 70
     0
102
RTVSPropertyOp5
 70
     0
102
RTVSPropertyOp6
 70
     0
102
RTVSPropertyOp7
 70
     0
102
RTVSPropertyOp8
 70
     0
102
RTVSPropertyOp9
 70
     0
102
RTVSPropertyOp10
 70
     0
102
RTVSPropertyOp11
 70
     0
102
RTVSPropertyOp12
 70
     0
102
RTVSPropertyOp13
 70
     0
102
RTVSPropertyOp14
 70
     2
102
RTVSPropertyOp15
 70
     0
102
RTVSPropertyOp16
 70
     0
102
RTVSPropertyOp17
 70
     0
102
RTVSPropertyOp18
 70
     0
102
RTVSPropertyOp19
 70
     0
102
RTVSPropertyOp20
 70
     0
102
RTVSPropertyOp21
 70
     0
102
RTVSPropertyOp22
 70
     0
102
RTVSPropertyOp23
 70
     0
102
RTVSPropertyOp24
 70
     0
102
RTVSPropertyOp25
 70
     0
102
RTVSPropertyOp26
 70
     0
102
RTVSPropertyOp27
 70
     0
102
RTVSPropertyOp28
 70
     0
102
RTVSPropertyOp29
 70
     0
102
RTVSPropertyOp30
 70
     0
102
RTVSPropertyOp31
 70
     0
102
RTVSPropertyOp32
 70
     0
102
RTVSPropertyOp33
 70
     0
102
RTVSPropertyOp34
 70
     0
102
RTVSPropertyOp35
 70
     0
102
RTVSPropertyOp36
 70
     0
102
RTVSPropertyOp37
 70
     0
102
RTVSPropertyOp38
 70
     0
102
RTVSPropertyOp39
 70
     0
102
RTVSPropertyOp40
 70
     0
102
RTVSPropertyOp41
 70
     0
102
RTVSPropertyOp42
 70
     0
102
RTVSPropertyOp43
 70
     0
102
RTVSPropertyOp44
 70
     0
102
RTVSPropertyOp45
 70
     0
102
RTVSPropertyOp46
 70
     0
102
RTVSPropertyOp47
 70
     0
102
RTVSPropertyOp48
 70
     0
102
RTVSPropertyOp49
 70
     0
102
RTVSPropertyOp50
 70
     0
102
RTVSPropertyOp51
 70
     0
102
RTVSPropertyOp52
 70
     0
102
RTVSPropertyOp53
 70
     0
102
RTVSPropertyOp54
 70
     0
102
RTVSPropertyOp55
 70
     0
102
RTVSPropertyOp56
 70
     0
102
RTVSPropertyOp57
 70
     0
102
RTVSPropertyOp58
 70
     0
102
RTVSPropertyOp59
 70
     0
102
RTVSPropertyOp60
 70
     0
102
RTVSPropertyOp61
 70
     0
102
RTVSPropertyOp62
 70
     0
  0
XRECORD
  5
164D4
102
{ACAD_REACTORS
330
164D3
102
}
330
164D3
100
AcDbXrecord
280
     1
102
RTVSPost2010Prop28
280
     0
102
RTVSPost2010PropOp28
 70
     1
102
RTVSPost2010Prop29
280
     1
102
RTVSPost2010PropOp29
 70
     1
102
RTVSPost2010Prop30
280
     1
102
RTVSPost2010PropOp30
 70
     1
102
RTVSPost2010Prop31
280
     0
102
RTVSPost2010PropOp31
 70
     1
102
RTVSPost2010Prop32
280
     0
102
RTVSPost2010PropOp32
 70
     1
102
RTVSPost2010Prop33
280
     0
102
RTVSPost2010PropOp33
 70
     1
102
RTVSPost2010Prop34
280
     0
102
RTVSPost2010PropOp34
 70
     1
102
RTVSPost2010Prop35
280
     0
102
RTVSPost2010PropOp35
 70
     1
102
RTVSPost2010Prop36
280
     0
102
RTVSPost2010PropOp36
 70
     1
102
RTVSPost2010Prop37
 90
       50
102
RTVSPost2010PropOp37
 70
     1
102
RTVSPost2010Prop38
140
0.0
102
RTVSPost2010PropOp38
 70
     1
102
RTVSPost2010Prop39
140
1.0
102
RTVSPost2010PropOp39
 70
     1
102
RTVSPost2010Prop40
 90
        0
102
RTVSPost2010PropOp40
 70
     1
102
RTVSPost2010Prop41ColorIndex
 90
       18
102
RTVSPost2010Prop41ColorRGB
 90
        0
102
RTVSPost2010PropOp41
 70
     1
102
RTVSPost2010Prop42
 90
       50
102
RTVSPost2010PropOp42
 70
     1
102
RTVSPost2010Prop43
 90
        3
102
RTVSPost2010PropOp43
 70
     1
102
RTVSPost2010Prop44ColorIndex
 90
        5
102
RTVSPost2010Prop44ColorRGB
 90
      255
102
RTVSPost2010PropOp44
 70
     1
102
RTVSPost2010Prop45
280
     0
102
RTVSPost2010PropOp45
 70
     1
102
RTVSPost2010Prop46
 90
       50
102
RTVSPost2010PropOp46
 70
     1
102
RTVSPost2010Prop47
 90
       50
102
RTVSPost2010PropOp47
 70
     1
102
RTVSPost2010Prop48
 90
       50
102
RTVSPost2010PropOp48
 70
     1
102
RTVSPost2010Prop49
280
     0
102
RTVSPost2010PropOp49
 70
     1
102
RTVSPost2010Prop50
 90
       50
102
RTVSPost2010PropOp50
 70
     1
102
RTVSPost2010Prop51ColorIndex
 90
      256
102
RTVSPost2010Prop51ColorRGB
 90
-16777216
102
RTVSPost2010PropOp51
 70
     0
102
RTVSPost2010Prop52
140
1.0
102
RTVSPost2010PropOp52
 70
     0
102
RTVSPost2010Prop53
 90
        2
102
RTVSPost2010PropOp53
 70
     1
102
RTVSPost2010Prop54
  1
strokes_ogs.tif
102
RTVSPost2010PropOp54
 70
     1
102
RTVSPost2010Prop55
280
     0
102
RTVSPost2010PropOp55
 70
     1
102
RTVSPost2010Prop56
140
1.0
102
RTVSPost2010PropOp56
 70
     1
102
RTVSPost2010Prop57
140
1.0
102
RTVSPost2010PropOp57
 70
     1
102
RTVSPropertyOp0
 70
     1
102
RTVSPropertyOp1
 70
     1
102
RTVSPropertyOp2
 70
     1
102
RTVSPropertyOp3
 70
     1
102
RTVSPropertyOp4
 70
     1
102
RTVSPropertyOp5
 70
     1
102
RTVSPropertyOp6
 70
     1
102
RTVSPropertyOp7
 70
     1
102
RTVSPropertyOp8
 70
     1
102
RTVSPropertyOp9
 70
     1
102
RTVSPropertyOp10
 70
     1
102
RTVSPropertyOp11
 70
     1
102
RTVSPropertyOp12
 70
     1
102
RTVSPropertyOp13
 70
     1
102
RTVSPropertyOp14
 70
     1
102
RTVSPropertyOp15
 70
     1
102
RTVSPropertyOp16
 70
     1
102
RTVSPropertyOp17
 70
     1
102
RTVSPropertyOp18
 70
     1
102
RTVSPropertyOp19
 70
     1
102
RTVSPropertyOp20
 70
     1
102
RTVSPropertyOp21
 70
     1
102
RTVSPropertyOp22
 70
     1
102
RTVSPropertyOp23
 70
     1
102
RTVSPropertyOp24
 70
     1
102
RTVSPropertyOp25
 70
     1
102
RTVSPropertyOp26
 70
     1
102
RTVSPropertyOp27
 70
     1
102
RTVSPropertyOp28
 70
     1
102
RTVSPropertyOp29
 70
     1
102
RTVSPropertyOp30
 70
     1
102
RTVSPropertyOp31
 70
     1
102
RTVSPropertyOp32
 70
     1
102
RTVSPropertyOp33
 70
     1
102
RTVSPropertyOp34
 70
     1
102
RTVSPropertyOp35
 70
     1
102
RTVSPropertyOp36
 70
     1
102
RTVSPropertyOp37
 70
     1
102
RTVSPropertyOp38
 70
     1
102
RTVSPropertyOp39
 70
     1
102
RTVSPropertyOp40
 70
     1
102
RTVSPropertyOp41
 70
     1
102
RTVSPropertyOp42
 70
     1
102
RTVSPropertyOp43
 70
     1
102
RTVSPropertyOp44
 70
     1
102
RTVSPropertyOp45
 70
     1
102
RTVSPropertyOp46
 70
     1
102
RTVSPropertyOp47
 70
     1
102
RTVSPropertyOp48
 70
     1
102
RTVSPropertyOp49
 70
     1
102
RTVSPropertyOp50
 70
     1
102
RTVSPropertyOp51
 70
     0
102
RTVSPropertyOp52
 70
     0
102
RTVSPropertyOp53
 70
     1
102
RTVSPropertyOp54
 70
     1
102
RTVSPropertyOp55
 70
     1
102
RTVSPropertyOp56
 70
     1
102
RTVSPropertyOp57
 70
     1
102
RTVSPropertyOp58
 70
     1
102
RTVSPropertyOp59
 70
     1
102
RTVSPropertyOp60
 70
     1
102
RTVSPropertyOp61
 70
     1
102
RTVSPropertyOp62
 70
     1
  0
XRECORD
  5
164E6
102
{ACAD_REACTORS
330
164E5
102
}
330
164E5
100
AcDbXrecord
280
     1
102
RTVSPost2010Prop28
280
     0
102
RTVSPost2010PropOp28
 70
     0
102
RTVSPost2010Prop29
280
     1
102
RTVSPost2010PropOp29
 70
     0
102
RTVSPost2010Prop30
280
     1
102
RTVSPost2010PropOp30
 70
     0
102
RTVSPost2010Prop31
280
     0
102
RTVSPost2010PropOp31
 70
     0
102
RTVSPost2010Prop32
280
     0
102
RTVSPost2010PropOp32
 70
     0
102
RTVSPost2010Prop33
280
     0
102
RTVSPost2010PropOp33
 70
     0
102
RTVSPost2010Prop34
280
     0
102
RTVSPost2010PropOp34
 70
     0
102
RTVSPost2010Prop35
280
     0
102
RTVSPost2010PropOp35
 70
     0
102
RTVSPost2010Prop36
280
     0
102
RTVSPost2010PropOp36
 70
     0
102
RTVSPost2010Prop37
 90
       50
102
RTVSPost2010PropOp37
 70
     0
102
RTVSPost2010Prop38
140
0.0
102
RTVSPost2010PropOp38
 70
     0
102
RTVSPost2010Prop39
140
1.0
102
RTVSPost2010PropOp39
 70
     0
102
RTVSPost2010Prop40
 90
        0
102
RTVSPost2010PropOp40
 70
     0
102
RTVSPost2010Prop41ColorIndex
 90
       18
102
RTVSPost2010Prop41ColorRGB
 90
        0
102
RTVSPost2010PropOp41
 70
     0
102
RTVSPost2010Prop42
 90
       50
102
RTVSPost2010PropOp42
 70
     0
102
RTVSPost2010Prop43
 90
        3
102
RTVSPost2010PropOp43
 70
     0
102
RTVSPost2010Prop44ColorIndex
 90
        5
102
RTVSPost2010Prop44ColorRGB
 90
      255
102
RTVSPost2010PropOp44
 70
     0
102
RTVSPost2010Prop45
280
     0
102
RTVSPost2010PropOp45
 70
     0
102
RTVSPost2010Prop46
 90
       50
102
RTVSPost2010PropOp46
 70
     0
102
RTVSPost2010Prop47
 90
       50
102
RTVSPost2010PropOp47
 70
     0
102
RTVSPost2010Prop48
 90
       50
102
RTVSPost2010PropOp48
 70
     0
102
RTVSPost2010Prop49
280
     0
102
RTVSPost2010PropOp49
 70
     0
102
RTVSPost2010Prop50
 90
       50
102
RTVSPost2010PropOp50
 70
     0
102
RTVSPost2010Prop51ColorIndex
 90
      256
102
RTVSPost2010Prop51ColorRGB
 90
-16777216
102
RTVSPost2010PropOp51
 70
     0
102
RTVSPost2010Prop52
140
1.0
102
RTVSPost2010PropOp52
 70
     0
102
RTVSPost2010Prop53
 90
        2
102
RTVSPost2010PropOp53
 70
     0
102
RTVSPost2010Prop54
  1
strokes_ogs.tif
102
RTVSPost2010PropOp54
 70
     0
102
RTVSPost2010Prop55
280
     0
102
RTVSPost2010PropOp55
 70
     0
102
RTVSPost2010Prop56
140
1.0
102
RTVSPost2010PropOp56
 70
     0
102
RTVSPost2010Prop57
140
1.0
102
RTVSPost2010PropOp57
 70
     0
102
RTVSPropertyOp0
 70
     0
102
RTVSPropertyOp1
 70
     0
102
RTVSPropertyOp2
 70
     0
102
RTVSPropertyOp3
 70
     0
102
RTVSPropertyOp4
 70
     0
102
RTVSPropertyOp5
 70
     0
102
RTVSPropertyOp6
 70
     0
102
RTVSPropertyOp7
 70
     0
102
RTVSPropertyOp8
 70
     0
102
RTVSPropertyOp9
 70
     0
102
RTVSPropertyOp10
 70
     0
102
RTVSPropertyOp11
 70
     0
102
RTVSPropertyOp12
 70
     0
102
RTVSPropertyOp13
 70
     0
102
RTVSPropertyOp14
 70
     2
102
RTVSPropertyOp15
 70
     0
102
RTVSPropertyOp16
 70
     0
102
RTVSPropertyOp17
 70
     0
102
RTVSPropertyOp18
 70
     0
102
RTVSPropertyOp19
 70
     0
102
RTVSPropertyOp20
 70
     0
102
RTVSPropertyOp21
 70
     0
102
RTVSPropertyOp22
 70
     0
102
RTVSPropertyOp23
 70
     0
102
RTVSPropertyOp24
 70
     0
102
RTVSPropertyOp25
 70
     0
102
RTVSPropertyOp26
 70
     0
102
RTVSPropertyOp27
 70
     0
102
RTVSPropertyOp28
 70
     0
102
RTVSPropertyOp29
 70
     0
102
RTVSPropertyOp30
 70
     0
102
RTVSPropertyOp31
 70
     0
102
RTVSPropertyOp32
 70
     0
102
RTVSPropertyOp33
 70
     0
102
RTVSPropertyOp34
 70
     0
102
RTVSPropertyOp35
 70
     0
102
RTVSPropertyOp36
 70
     0
102
RTVSPropertyOp37
 70
     0
102
RTVSPropertyOp38
 70
     0
102
RTVSPropertyOp39
 70
     0
102
RTVSPropertyOp40
 70
     0
102
RTVSPropertyOp41
 70
     0
102
RTVSPropertyOp42
 70
     0
102
RTVSPropertyOp43
 70
     0
102
RTVSPropertyOp44
 70
     0
102
RTVSPropertyOp45
 70
     0
102
RTVSPropertyOp46
 70
     0
102
RTVSPropertyOp47
 70
     0
102
RTVSPropertyOp48
 70
     0
102
RTVSPropertyOp49
 70
     0
102
RTVSPropertyOp50
 70
     0
102
RTVSPropertyOp51
 70
     0
102
RTVSPropertyOp52
 70
     0
102
RTVSPropertyOp53
 70
     0
102
RTVSPropertyOp54
 70
     0
102
RTVSPropertyOp55
 70
     0
102
RTVSPropertyOp56
 70
     0
102
RTVSPropertyOp57
 70
     0
102
RTVSPropertyOp58
 70
     0
102
RTVSPropertyOp59
 70
     0
102
RTVSPropertyOp60
 70
     0
102
RTVSPropertyOp61
 70
     0
102
RTVSPropertyOp62
 70
     0
  0
XRECORD
  5
164CC
102
{ACAD_REACTORS
330
164CB
102
}
330
164CB
100
AcDbXrecord
280
     1
102
RTVSPost2010Prop28
280
     0
102
RTVSPost2010PropOp28
 70
     1
102
RTVSPost2010Prop29
280
     1
102
RTVSPost2010PropOp29
 70
     1
102
RTVSPost2010Prop30
280
     1
102
RTVSPost2010PropOp30
 70
     1
102
RTVSPost2010Prop31
280
     0
102
RTVSPost2010PropOp31
 70
     1
102
RTVSPost2010Prop32
280
     0
102
RTVSPost2010PropOp32
 70
     1
102
RTVSPost2010Prop33
280
     0
102
RTVSPost2010PropOp33
 70
     1
102
RTVSPost2010Prop34
280
     0
102
RTVSPost2010PropOp34
 70
     1
102
RTVSPost2010Prop35
280
     0
102
RTVSPost2010PropOp35
 70
     1
102
RTVSPost2010Prop36
280
     0
102
RTVSPost2010PropOp36
 70
     1
102
RTVSPost2010Prop37
 90
       50
102
RTVSPost2010PropOp37
 70
     1
102
RTVSPost2010Prop38
140
0.0
102
RTVSPost2010PropOp38
 70
     1
102
RTVSPost2010Prop39
140
1.0
102
RTVSPost2010PropOp39
 70
     1
102
RTVSPost2010Prop40
 90
        0
102
RTVSPost2010PropOp40
 70
     1
102
RTVSPost2010Prop41ColorIndex
 90
       18
102
RTVSPost2010Prop41ColorRGB
 90
        0
102
RTVSPost2010PropOp41
 70
     1
102
RTVSPost2010Prop42
 90
       50
102
RTVSPost2010PropOp42
 70
     1
102
RTVSPost2010Prop43
 90
        3
102
RTVSPost2010PropOp43
 70
     1
102
RTVSPost2010Prop44ColorIndex
 90
        5
102
RTVSPost2010Prop44ColorRGB
 90
      255
102
RTVSPost2010PropOp44
 70
     1
102
RTVSPost2010Prop45
280
     0
102
RTVSPost2010PropOp45
 70
     1
102
RTVSPost2010Prop46
 90
       50
102
RTVSPost2010PropOp46
 70
     1
102
RTVSPost2010Prop47
 90
       50
102
RTVSPost2010PropOp47
 70
     1
102
RTVSPost2010Prop48
 90
       50
102
RTVSPost2010PropOp48
 70
     1
102
RTVSPost2010Prop49
280
     0
102
RTVSPost2010PropOp49
 70
     1
102
RTVSPost2010Prop50
 90
       50
102
RTVSPost2010PropOp50
 70
     1
102
RTVSPost2010Prop51ColorIndex
 90
      256
102
RTVSPost2010Prop51ColorRGB
 90
-16777216
102
RTVSPost2010PropOp51
 70
     0
102
RTVSPost2010Prop52
140
1.0
102
RTVSPost2010PropOp52
 70
     0
102
RTVSPost2010Prop53
 90
        2
102
RTVSPost2010PropOp53
 70
     1
102
RTVSPost2010Prop54
  1
strokes_ogs.tif
102
RTVSPost2010PropOp54
 70
     1
102
RTVSPost2010Prop55
280
     0
102
RTVSPost2010PropOp55
 70
     1
102
RTVSPost2010Prop56
140
1.0
102
RTVSPost2010PropOp56
 70
     1
102
RTVSPost2010Prop57
140
1.0
102
RTVSPost2010PropOp57
 70
     1
102
RTVSPropertyOp0
 70
     1
102
RTVSPropertyOp1
 70
     1
102
RTVSPropertyOp2
 70
     1
102
RTVSPropertyOp3
 70
     1
102
RTVSPropertyOp4
 70
     1
102
RTVSPropertyOp5
 70
     1
102
RTVSPropertyOp6
 70
     1
102
RTVSPropertyOp7
 70
     1
102
RTVSPropertyOp8
 70
     1
102
RTVSPropertyOp9
 70
     1
102
RTVSPropertyOp10
 70
     1
102
RTVSPropertyOp11
 70
     1
102
RTVSPropertyOp12
 70
     1
102
RTVSPropertyOp13
 70
     1
102
RTVSPropertyOp14
 70
     1
102
RTVSPropertyOp15
 70
     1
102
RTVSPropertyOp16
 70
     1
102
RTVSPropertyOp17
 70
     1
102
RTVSPropertyOp18
 70
     1
102
RTVSPropertyOp19
 70
     1
102
RTVSPropertyOp20
 70
     1
102
RTVSPropertyOp21
 70
     1
102
RTVSPropertyOp22
 70
     1
102
RTVSPropertyOp23
 70
     1
102
RTVSPropertyOp24
 70
     1
102
RTVSPropertyOp25
 70
     1
102
RTVSPropertyOp26
 70
     1
102
RTVSPropertyOp27
 70
     1
102
RTVSPropertyOp28
 70
     1
102
RTVSPropertyOp29
 70
     1
102
RTVSPropertyOp30
 70
     1
102
RTVSPropertyOp31
 70
     1
102
RTVSPropertyOp32
 70
     1
102
RTVSPropertyOp33
 70
     1
102
RTVSPropertyOp34
 70
     1
102
RTVSPropertyOp35
 70
     1
102
RTVSPropertyOp36
 70
     1
102
RTVSPropertyOp37
 70
     1
102
RTVSPropertyOp38
 70
     1
102
RTVSPropertyOp39
 70
     1
102
RTVSPropertyOp40
 70
     1
102
RTVSPropertyOp41
 70
     1
102
RTVSPropertyOp42
 70
     1
102
RTVSPropertyOp43
 70
     1
102
RTVSPropertyOp44
 70
     1
102
RTVSPropertyOp45
 70
     1
102
RTVSPropertyOp46
 70
     1
102
RTVSPropertyOp47
 70
     1
102
RTVSPropertyOp48
 70
     1
102
RTVSPropertyOp49
 70
     1
102
RTVSPropertyOp50
 70
     1
102
RTVSPropertyOp51
 70
     0
102
RTVSPropertyOp52
 70
     0
102
RTVSPropertyOp53
 70
     1
102
RTVSPropertyOp54
 70
     1
102
RTVSPropertyOp55
 70
     1
102
RTVSPropertyOp56
 70
     1
102
RTVSPropertyOp57
 70
     1
102
RTVSPropertyOp58
 70
     1
102
RTVSPropertyOp59
 70
     1
102
RTVSPropertyOp60
 70
     1
102
RTVSPropertyOp61
 70
     1
102
RTVSPropertyOp62
 70
     1
  0
XRECORD
  5
164E2
102
{ACAD_REACTORS
330
164E1
102
}
330
164E1
100
AcDbXrecord
280
     1
102
RTVSPost2010Prop28
280
     0
102
RTVSPost2010PropOp28
 70
     1
102
RTVSPost2010Prop29
280
     1
102
RTVSPost2010PropOp29
 70
     1
102
RTVSPost2010Prop30
280
     1
102
RTVSPost2010PropOp30
 70
     1
102
RTVSPost2010Prop31
280
     0
102
RTVSPost2010PropOp31
 70
     1
102
RTVSPost2010Prop32
280
     0
102
RTVSPost2010PropOp32
 70
     1
102
RTVSPost2010Prop33
280
     0
102
RTVSPost2010PropOp33
 70
     1
102
RTVSPost2010Prop34
280
     0
102
RTVSPost2010PropOp34
 70
     1
102
RTVSPost2010Prop35
280
     0
102
RTVSPost2010PropOp35
 70
     1
102
RTVSPost2010Prop36
280
     0
102
RTVSPost2010PropOp36
 70
     1
102
RTVSPost2010Prop37
 90
       50
102
RTVSPost2010PropOp37
 70
     1
102
RTVSPost2010Prop38
140
0.0
102
RTVSPost2010PropOp38
 70
     1
102
RTVSPost2010Prop39
140
1.0
102
RTVSPost2010PropOp39
 70
     1
102
RTVSPost2010Prop40
 90
        0
102
RTVSPost2010PropOp40
 70
     1
102
RTVSPost2010Prop41ColorIndex
 90
       18
102
RTVSPost2010Prop41ColorRGB
 90
        0
102
RTVSPost2010PropOp41
 70
     1
102
RTVSPost2010Prop42
 90
       50
102
RTVSPost2010PropOp42
 70
     1
102
RTVSPost2010Prop43
 90
        3
102
RTVSPost2010PropOp43
 70
     1
102
RTVSPost2010Prop44ColorIndex
 90
        5
102
RTVSPost2010Prop44ColorRGB
 90
      255
102
RTVSPost2010PropOp44
 70
     1
102
RTVSPost2010Prop45
280
     0
102
RTVSPost2010PropOp45
 70
     1
102
RTVSPost2010Prop46
 90
       50
102
RTVSPost2010PropOp46
 70
     1
102
RTVSPost2010Prop47
 90
       50
102
RTVSPost2010PropOp47
 70
     1
102
RTVSPost2010Prop48
 90
       50
102
RTVSPost2010PropOp48
 70
     1
102
RTVSPost2010Prop49
280
     0
102
RTVSPost2010PropOp49
 70
     1
102
RTVSPost2010Prop50
 90
       50
102
RTVSPost2010PropOp50
 70
     1
102
RTVSPost2010Prop51ColorIndex
 90
      256
102
RTVSPost2010Prop51ColorRGB
 90
-16777216
102
RTVSPost2010PropOp51
 70
     0
102
RTVSPost2010Prop52
140
1.0
102
RTVSPost2010PropOp52
 70
     0
102
RTVSPost2010Prop53
 90
        2
102
RTVSPost2010PropOp53
 70
     1
102
RTVSPost2010Prop54
  1
strokes_ogs.tif
102
RTVSPost2010PropOp54
 70
     1
102
RTVSPost2010Prop55
280
     0
102
RTVSPost2010PropOp55
 70
     1
102
RTVSPost2010Prop56
140
1.0
102
RTVSPost2010PropOp56
 70
     1
102
RTVSPost2010Prop57
140
1.0
102
RTVSPost2010PropOp57
 70
     1
102
RTVSPropertyOp0
 70
     1
102
RTVSPropertyOp1
 70
     1
102
RTVSPropertyOp2
 70
     1
102
RTVSPropertyOp3
 70
     1
102
RTVSPropertyOp4
 70
     1
102
RTVSPropertyOp5
 70
     1
102
RTVSPropertyOp6
 70
     1
102
RTVSPropertyOp7
 70
     1
102
RTVSPropertyOp8
 70
     1
102
RTVSPropertyOp9
 70
     1
102
RTVSPropertyOp10
 70
     1
102
RTVSPropertyOp11
 70
     1
102
RTVSPropertyOp12
 70
     1
102
RTVSPropertyOp13
 70
     1
102
RTVSPropertyOp14
 70
     1
102
RTVSPropertyOp15
 70
     1
102
RTVSPropertyOp16
 70
     1
102
RTVSPropertyOp17
 70
     1
102
RTVSPropertyOp18
 70
     1
102
RTVSPropertyOp19
 70
     1
102
RTVSPropertyOp20
 70
     1
102
RTVSPropertyOp21
 70
     1
102
RTVSPropertyOp22
 70
     1
102
RTVSPropertyOp23
 70
     1
102
RTVSPropertyOp24
 70
     1
102
RTVSPropertyOp25
 70
     1
102
RTVSPropertyOp26
 70
     1
102
RTVSPropertyOp27
 70
     1
102
RTVSPropertyOp28
 70
     1
102
RTVSPropertyOp29
 70
     1
102
RTVSPropertyOp30
 70
     1
102
RTVSPropertyOp31
 70
     1
102
RTVSPropertyOp32
 70
     1
102
RTVSPropertyOp33
 70
     1
102
RTVSPropertyOp34
 70
     1
102
RTVSPropertyOp35
 70
     1
102
RTVSPropertyOp36
 70
     1
102
RTVSPropertyOp37
 70
     1
102
RTVSPropertyOp38
 70
     1
102
RTVSPropertyOp39
 70
     1
102
RTVSPropertyOp40
 70
     1
102
RTVSPropertyOp41
 70
     1
102
RTVSPropertyOp42
 70
     1
102
RTVSPropertyOp43
 70
     1
102
RTVSPropertyOp44
 70
     1
102
RTVSPropertyOp45
 70
     1
102
RTVSPropertyOp46
 70
     1
102
RTVSPropertyOp47
 70
     1
102
RTVSPropertyOp48
 70
     1
102
RTVSPropertyOp49
 70
     1
102
RTVSPropertyOp50
 70
     1
102
RTVSPropertyOp51
 70
     0
102
RTVSPropertyOp52
 70
     0
102
RTVSPropertyOp53
 70
     1
102
RTVSPropertyOp54
 70
     1
102
RTVSPropertyOp55
 70
     1
102
RTVSPropertyOp56
 70
     1
102
RTVSPropertyOp57
 70
     1
102
RTVSPropertyOp58
 70
     1
102
RTVSPropertyOp59
 70
     1
102
RTVSPropertyOp60
 70
     1
102
RTVSPropertyOp61
 70
     1
102
RTVSPropertyOp62
 70
     1
  0
XRECORD
  5
164E0
102
{ACAD_REACTORS
330
164DF
102
}
330
164DF
100
AcDbXrecord
280
     1
102
RTVSPost2010Prop28
280
     0
102
RTVSPost2010PropOp28
 70
     1
102
RTVSPost2010Prop29
280
     1
102
RTVSPost2010PropOp29
 70
     1
102
RTVSPost2010Prop30
280
     1
102
RTVSPost2010PropOp30
 70
     1
102
RTVSPost2010Prop31
280
     0
102
RTVSPost2010PropOp31
 70
     1
102
RTVSPost2010Prop32
280
     0
102
RTVSPost2010PropOp32
 70
     1
102
RTVSPost2010Prop33
280
     0
102
RTVSPost2010PropOp33
 70
     1
102
RTVSPost2010Prop34
280
     0
102
RTVSPost2010PropOp34
 70
     1
102
RTVSPost2010Prop35
280
     0
102
RTVSPost2010PropOp35
 70
     1
102
RTVSPost2010Prop36
280
     0
102
RTVSPost2010PropOp36
 70
     1
102
RTVSPost2010Prop37
 90
       50
102
RTVSPost2010PropOp37
 70
     1
102
RTVSPost2010Prop38
140
0.0
102
RTVSPost2010PropOp38
 70
     1
102
RTVSPost2010Prop39
140
1.0
102
RTVSPost2010PropOp39
 70
     1
102
RTVSPost2010Prop40
 90
        0
102
RTVSPost2010PropOp40
 70
     1
102
RTVSPost2010Prop41ColorIndex
 90
       18
102
RTVSPost2010Prop41ColorRGB
 90
        0
102
RTVSPost2010PropOp41
 70
     1
102
RTVSPost2010Prop42
 90
       50
102
RTVSPost2010PropOp42
 70
     1
102
RTVSPost2010Prop43
 90
        3
102
RTVSPost2010PropOp43
 70
     1
102
RTVSPost2010Prop44ColorIndex
 90
        5
102
RTVSPost2010Prop44ColorRGB
 90
      255
102
RTVSPost2010PropOp44
 70
     1
102
RTVSPost2010Prop45
280
     0
102
RTVSPost2010PropOp45
 70
     1
102
RTVSPost2010Prop46
 90
       50
102
RTVSPost2010PropOp46
 70
     1
102
RTVSPost2010Prop47
 90
       50
102
RTVSPost2010PropOp47
 70
     1
102
RTVSPost2010Prop48
 90
       50
102
RTVSPost2010PropOp48
 70
     1
102
RTVSPost2010Prop49
280
     0
102
RTVSPost2010PropOp49
 70
     1
102
RTVSPost2010Prop50
 90
       50
102
RTVSPost2010PropOp50
 70
     1
102
RTVSPost2010Prop51ColorIndex
 90
      256
102
RTVSPost2010Prop51ColorRGB
 90
-16777216
102
RTVSPost2010PropOp51
 70
     0
102
RTVSPost2010Prop52
140
1.0
102
RTVSPost2010PropOp52
 70
     0
102
RTVSPost2010Prop53
 90
        2
102
RTVSPost2010PropOp53
 70
     1
102
RTVSPost2010Prop54
  1
strokes_ogs.tif
102
RTVSPost2010PropOp54
 70
     1
102
RTVSPost2010Prop55
280
     0
102
RTVSPost2010PropOp55
 70
     1
102
RTVSPost2010Prop56
140
1.0
102
RTVSPost2010PropOp56
 70
     1
102
RTVSPost2010Prop57
140
1.0
102
RTVSPost2010PropOp57
 70
     1
102
RTVSPropertyOp0
 70
     1
102
RTVSPropertyOp1
 70
     1
102
RTVSPropertyOp2
 70
     1
102
RTVSPropertyOp3
 70
     1
102
RTVSPropertyOp4
 70
     1
102
RTVSPropertyOp5
 70
     1
102
RTVSPropertyOp6
 70
     1
102
RTVSPropertyOp7
 70
     1
102
RTVSPropertyOp8
 70
     1
102
RTVSPropertyOp9
 70
     1
102
RTVSPropertyOp10
 70
     1
102
RTVSPropertyOp11
 70
     1
102
RTVSPropertyOp12
 70
     1
102
RTVSPropertyOp13
 70
     1
102
RTVSPropertyOp14
 70
     1
102
RTVSPropertyOp15
 70
     1
102
RTVSPropertyOp16
 70
     1
102
RTVSPropertyOp17
 70
     1
102
RTVSPropertyOp18
 70
     1
102
RTVSPropertyOp19
 70
     1
102
RTVSPropertyOp20
 70
     1
102
RTVSPropertyOp21
 70
     1
102
RTVSPropertyOp22
 70
     1
102
RTVSPropertyOp23
 70
     1
102
RTVSPropertyOp24
 70
     1
102
RTVSPropertyOp25
 70
     1
102
RTVSPropertyOp26
 70
     1
102
RTVSPropertyOp27
 70
     1
102
RTVSPropertyOp28
 70
     1
102
RTVSPropertyOp29
 70
     1
102
RTVSPropertyOp30
 70
     1
102
RTVSPropertyOp31
 70
     1
102
RTVSPropertyOp32
 70
     1
102
RTVSPropertyOp33
 70
     1
102
RTVSPropertyOp34
 70
     1
102
RTVSPropertyOp35
 70
     1
102
RTVSPropertyOp36
 70
     1
102
RTVSPropertyOp37
 70
     1
102
RTVSPropertyOp38
 70
     1
102
RTVSPropertyOp39
 70
     1
102
RTVSPropertyOp40
 70
     1
102
RTVSPropertyOp41
 70
     1
102
RTVSPropertyOp42
 70
     1
102
RTVSPropertyOp43
 70
     1
102
RTVSPropertyOp44
 70
     1
102
RTVSPropertyOp45
 70
     1
102
RTVSPropertyOp46
 70
     1
102
RTVSPropertyOp47
 70
     1
102
RTVSPropertyOp48
 70
     1
102
RTVSPropertyOp49
 70
     1
102
RTVSPropertyOp50
 70
     1
102
RTVSPropertyOp51
 70
     0
102
RTVSPropertyOp52
 70
     0
102
RTVSPropertyOp53
 70
     1
102
RTVSPropertyOp54
 70
     1
102
RTVSPropertyOp55
 70
     1
102
RTVSPropertyOp56
 70
     1
102
RTVSPropertyOp57
 70
     1
102
RTVSPropertyOp58
 70
     1
102
RTVSPropertyOp59
 70
     1
102
RTVSPropertyOp60
 70
     1
102
RTVSPropertyOp61
 70
     1
102
RTVSPropertyOp62
 70
     1
  0
XRECORD
  5
164DA
102
{ACAD_REACTORS
330
164D9
102
}
330
164D9
100
AcDbXrecord
280
     1
102
RTVSPost2010Prop28
280
     0
102
RTVSPost2010PropOp28
 70
     1
102
RTVSPost2010Prop29
280
     1
102
RTVSPost2010PropOp29
 70
     1
102
RTVSPost2010Prop30
280
     1
102
RTVSPost2010PropOp30
 70
     1
102
RTVSPost2010Prop31
280
     0
102
RTVSPost2010PropOp31
 70
     1
102
RTVSPost2010Prop32
280
     0
102
RTVSPost2010PropOp32
 70
     1
102
RTVSPost2010Prop33
280
     0
102
RTVSPost2010PropOp33
 70
     1
102
RTVSPost2010Prop34
280
     0
102
RTVSPost2010PropOp34
 70
     1
102
RTVSPost2010Prop35
280
     0
102
RTVSPost2010PropOp35
 70
     1
102
RTVSPost2010Prop36
280
     0
102
RTVSPost2010PropOp36
 70
     1
102
RTVSPost2010Prop37
 90
       50
102
RTVSPost2010PropOp37
 70
     1
102
RTVSPost2010Prop38
140
0.0
102
RTVSPost2010PropOp38
 70
     1
102
RTVSPost2010Prop39
140
1.0
102
RTVSPost2010PropOp39
 70
     1
102
RTVSPost2010Prop40
 90
        0
102
RTVSPost2010PropOp40
 70
     1
102
RTVSPost2010Prop41ColorIndex
 90
       18
102
RTVSPost2010Prop41ColorRGB
 90
        0
102
RTVSPost2010PropOp41
 70
     1
102
RTVSPost2010Prop42
 90
       50
102
RTVSPost2010PropOp42
 70
     1
102
RTVSPost2010Prop43
 90
        3
102
RTVSPost2010PropOp43
 70
     1
102
RTVSPost2010Prop44ColorIndex
 90
        5
102
RTVSPost2010Prop44ColorRGB
 90
      255
102
RTVSPost2010PropOp44
 70
     1
102
RTVSPost2010Prop45
280
     0
102
RTVSPost2010PropOp45
 70
     1
102
RTVSPost2010Prop46
 90
       50
102
RTVSPost2010PropOp46
 70
     1
102
RTVSPost2010Prop47
 90
       50
102
RTVSPost2010PropOp47
 70
     1
102
RTVSPost2010Prop48
 90
       50
102
RTVSPost2010PropOp48
 70
     1
102
RTVSPost2010Prop49
280
     0
102
RTVSPost2010PropOp49
 70
     1
102
RTVSPost2010Prop50
 90
       50
102
RTVSPost2010PropOp50
 70
     1
102
RTVSPost2010Prop51ColorIndex
 90
      256
102
RTVSPost2010Prop51ColorRGB
 90
-16777216
102
RTVSPost2010PropOp51
 70
     0
102
RTVSPost2010Prop52
140
1.0
102
RTVSPost2010PropOp52
 70
     0
102
RTVSPost2010Prop53
 90
        2
102
RTVSPost2010PropOp53
 70
     1
102
RTVSPost2010Prop54
  1
strokes_ogs.tif
102
RTVSPost2010PropOp54
 70
     1
102
RTVSPost2010Prop55
280
     0
102
RTVSPost2010PropOp55
 70
     1
102
RTVSPost2010Prop56
140
1.0
102
RTVSPost2010PropOp56
 70
     1
102
RTVSPost2010Prop57
140
1.0
102
RTVSPost2010PropOp57
 70
     1
102
RTVSPropertyOp0
 70
     1
102
RTVSPropertyOp1
 70
     1
102
RTVSPropertyOp2
 70
     1
102
RTVSPropertyOp3
 70
     1
102
RTVSPropertyOp4
 70
     1
102
RTVSPropertyOp5
 70
     1
102
RTVSPropertyOp6
 70
     1
102
RTVSPropertyOp7
 70
     1
102
RTVSPropertyOp8
 70
     1
102
RTVSPropertyOp9
 70
     1
102
RTVSPropertyOp10
 70
     1
102
RTVSPropertyOp11
 70
     1
102
RTVSPropertyOp12
 70
     1
102
RTVSPropertyOp13
 70
     1
102
RTVSPropertyOp14
 70
     1
102
RTVSPropertyOp15
 70
     1
102
RTVSPropertyOp16
 70
     1
102
RTVSPropertyOp17
 70
     1
102
RTVSPropertyOp18
 70
     1
102
RTVSPropertyOp19
 70
     1
102
RTVSPropertyOp20
 70
     1
102
RTVSPropertyOp21
 70
     1
102
RTVSPropertyOp22
 70
     1
102
RTVSPropertyOp23
 70
     1
102
RTVSPropertyOp24
 70
     1
102
RTVSPropertyOp25
 70
     1
102
RTVSPropertyOp26
 70
     1
102
RTVSPropertyOp27
 70
     1
102
RTVSPropertyOp28
 70
     1
102
RTVSPropertyOp29
 70
     1
102
RTVSPropertyOp30
 70
     1
102
RTVSPropertyOp31
 70
     1
102
RTVSPropertyOp32
 70
     1
102
RTVSPropertyOp33
 70
     1
102
RTVSPropertyOp34
 70
     1
102
RTVSPropertyOp35
 70
     1
102
RTVSPropertyOp36
 70
     1
102
RTVSPropertyOp37
 70
     1
102
RTVSPropertyOp38
 70
     1
102
RTVSPropertyOp39
 70
     1
102
RTVSPropertyOp40
 70
     1
102
RTVSPropertyOp41
 70
     1
102
RTVSPropertyOp42
 70
     1
102
RTVSPropertyOp43
 70
     1
102
RTVSPropertyOp44
 70
     1
102
RTVSPropertyOp45
 70
     1
102
RTVSPropertyOp46
 70
     1
102
RTVSPropertyOp47
 70
     1
102
RTVSPropertyOp48
 70
     1
102
RTVSPropertyOp49
 70
     1
102
RTVSPropertyOp50
 70
     1
102
RTVSPropertyOp51
 70
     0
102
RTVSPropertyOp52
 70
     0
102
RTVSPropertyOp53
 70
     1
102
RTVSPropertyOp54
 70
     1
102
RTVSPropertyOp55
 70
     1
102
RTVSPropertyOp56
 70
     1
102
RTVSPropertyOp57
 70
     1
102
RTVSPropertyOp58
 70
     1
102
RTVSPropertyOp59
 70
     1
102
RTVSPropertyOp60
 70
     1
102
RTVSPropertyOp61
 70
     1
102
RTVSPropertyOp62
 70
     1
  0
XRECORD
  5
164DC
102
{ACAD_REACTORS
330
164DB
102
}
330
164DB
100
AcDbXrecord
280
     1
102
RTVSPost2010Prop28
280
     0
102
RTVSPost2010PropOp28
 70
     1
102
RTVSPost2010Prop29
280
     1
102
RTVSPost2010PropOp29
 70
     1
102
RTVSPost2010Prop30
280
     1
102
RTVSPost2010PropOp30
 70
     1
102
RTVSPost2010Prop31
280
     0
102
RTVSPost2010PropOp31
 70
     1
102
RTVSPost2010Prop32
280
     0
102
RTVSPost2010PropOp32
 70
     1
102
RTVSPost2010Prop33
280
     0
102
RTVSPost2010PropOp33
 70
     1
102
RTVSPost2010Prop34
280
     0
102
RTVSPost2010PropOp34
 70
     1
102
RTVSPost2010Prop35
280
     0
102
RTVSPost2010PropOp35
 70
     1
102
RTVSPost2010Prop36
280
     0
102
RTVSPost2010PropOp36
 70
     1
102
RTVSPost2010Prop37
 90
       50
102
RTVSPost2010PropOp37
 70
     1
102
RTVSPost2010Prop38
140
0.0
102
RTVSPost2010PropOp38
 70
     1
102
RTVSPost2010Prop39
140
1.0
102
RTVSPost2010PropOp39
 70
     1
102
RTVSPost2010Prop40
 90
        0
102
RTVSPost2010PropOp40
 70
     1
102
RTVSPost2010Prop41ColorIndex
 90
       18
102
RTVSPost2010Prop41ColorRGB
 90
        0
102
RTVSPost2010PropOp41
 70
     1
102
RTVSPost2010Prop42
 90
       50
102
RTVSPost2010PropOp42
 70
     1
102
RTVSPost2010Prop43
 90
        3
102
RTVSPost2010PropOp43
 70
     1
102
RTVSPost2010Prop44ColorIndex
 90
        5
102
RTVSPost2010Prop44ColorRGB
 90
      255
102
RTVSPost2010PropOp44
 70
     1
102
RTVSPost2010Prop45
280
     0
102
RTVSPost2010PropOp45
 70
     1
102
RTVSPost2010Prop46
 90
       50
102
RTVSPost2010PropOp46
 70
     1
102
RTVSPost2010Prop47
 90
       50
102
RTVSPost2010PropOp47
 70
     1
102
RTVSPost2010Prop48
 90
       50
102
RTVSPost2010PropOp48
 70
     1
102
RTVSPost2010Prop49
280
     0
102
RTVSPost2010PropOp49
 70
     1
102
RTVSPost2010Prop50
 90
       50
102
RTVSPost2010PropOp50
 70
     1
102
RTVSPost2010Prop51ColorIndex
 90
      256
102
RTVSPost2010Prop51ColorRGB
 90
-16777216
102
RTVSPost2010PropOp51
 70
     0
102
RTVSPost2010Prop52
140
1.0
102
RTVSPost2010PropOp52
 70
     0
102
RTVSPost2010Prop53
 90
        2
102
RTVSPost2010PropOp53
 70
     1
102
RTVSPost2010Prop54
  1
strokes_ogs.tif
102
RTVSPost2010PropOp54
 70
     1
102
RTVSPost2010Prop55
280
     0
102
RTVSPost2010PropOp55
 70
     1
102
RTVSPost2010Prop56
140
1.0
102
RTVSPost2010PropOp56
 70
     1
102
RTVSPost2010Prop57
140
1.0
102
RTVSPost2010PropOp57
 70
     1
102
RTVSPropertyOp0
 70
     1
102
RTVSPropertyOp1
 70
     1
102
RTVSPropertyOp2
 70
     1
102
RTVSPropertyOp3
 70
     1
102
RTVSPropertyOp4
 70
     1
102
RTVSPropertyOp5
 70
     1
102
RTVSPropertyOp6
 70
     1
102
RTVSPropertyOp7
 70
     1
102
RTVSPropertyOp8
 70
     1
102
RTVSPropertyOp9
 70
     1
102
RTVSPropertyOp10
 70
     1
102
RTVSPropertyOp11
 70
     1
102
RTVSPropertyOp12
 70
     1
102
RTVSPropertyOp13
 70
     1
102
RTVSPropertyOp14
 70
     1
102
RTVSPropertyOp15
 70
     1
102
RTVSPropertyOp16
 70
     1
102
RTVSPropertyOp17
 70
     1
102
RTVSPropertyOp18
 70
     1
102
RTVSPropertyOp19
 70
     1
102
RTVSPropertyOp20
 70
     1
102
RTVSPropertyOp21
 70
     1
102
RTVSPropertyOp22
 70
     1
102
RTVSPropertyOp23
 70
     1
102
RTVSPropertyOp24
 70
     1
102
RTVSPropertyOp25
 70
     1
102
RTVSPropertyOp26
 70
     1
102
RTVSPropertyOp27
 70
     1
102
RTVSPropertyOp28
 70
     1
102
RTVSPropertyOp29
 70
     1
102
RTVSPropertyOp30
 70
     1
102
RTVSPropertyOp31
 70
     1
102
RTVSPropertyOp32
 70
     1
102
RTVSPropertyOp33
 70
     1
102
RTVSPropertyOp34
 70
     1
102
RTVSPropertyOp35
 70
     1
102
RTVSPropertyOp36
 70
     1
102
RTVSPropertyOp37
 70
     1
102
RTVSPropertyOp38
 70
     1
102
RTVSPropertyOp39
 70
     1
102
RTVSPropertyOp40
 70
     1
102
RTVSPropertyOp41
 70
     1
102
RTVSPropertyOp42
 70
     1
102
RTVSPropertyOp43
 70
     1
102
RTVSPropertyOp44
 70
     1
102
RTVSPropertyOp45
 70
     1
102
RTVSPropertyOp46
 70
     1
102
RTVSPropertyOp47
 70
     1
102
RTVSPropertyOp48
 70
     1
102
RTVSPropertyOp49
 70
     1
102
RTVSPropertyOp50
 70
     1
102
RTVSPropertyOp51
 70
     0
102
RTVSPropertyOp52
 70
     0
102
RTVSPropertyOp53
 70
     1
102
RTVSPropertyOp54
 70
     1
102
RTVSPropertyOp55
 70
     1
102
RTVSPropertyOp56
 70
     1
102
RTVSPropertyOp57
 70
     1
102
RTVSPropertyOp58
 70
     1
102
RTVSPropertyOp59
 70
     1
102
RTVSPropertyOp60
 70
     1
102
RTVSPropertyOp61
 70
     1
102
RTVSPropertyOp62
 70
     1
  0
XRECORD
  5
164D2
102
{ACAD_REACTORS
330
164D1
102
}
330
164D1
100
AcDbXrecord
280
     1
102
RTVSPost2010Prop28
280
     0
102
RTVSPost2010PropOp28
 70
     1
102
RTVSPost2010Prop29
280
     1
102
RTVSPost2010PropOp29
 70
     1
102
RTVSPost2010Prop30
280
     1
102
RTVSPost2010PropOp30
 70
     1
102
RTVSPost2010Prop31
280
     0
102
RTVSPost2010PropOp31
 70
     1
102
RTVSPost2010Prop32
280
     0
102
RTVSPost2010PropOp32
 70
     1
102
RTVSPost2010Prop33
280
     0
102
RTVSPost2010PropOp33
 70
     1
102
RTVSPost2010Prop34
280
     0
102
RTVSPost2010PropOp34
 70
     1
102
RTVSPost2010Prop35
280
     0
102
RTVSPost2010PropOp35
 70
     1
102
RTVSPost2010Prop36
280
     0
102
RTVSPost2010PropOp36
 70
     1
102
RTVSPost2010Prop37
 90
       50
102
RTVSPost2010PropOp37
 70
     1
102
RTVSPost2010Prop38
140
0.0
102
RTVSPost2010PropOp38
 70
     1
102
RTVSPost2010Prop39
140
1.0
102
RTVSPost2010PropOp39
 70
     1
102
RTVSPost2010Prop40
 90
        0
102
RTVSPost2010PropOp40
 70
     1
102
RTVSPost2010Prop41ColorIndex
 90
       18
102
RTVSPost2010Prop41ColorRGB
 90
        0
102
RTVSPost2010PropOp41
 70
     1
102
RTVSPost2010Prop42
 90
       50
102
RTVSPost2010PropOp42
 70
     1
102
RTVSPost2010Prop43
 90
        3
102
RTVSPost2010PropOp43
 70
     1
102
RTVSPost2010Prop44ColorIndex
 90
        5
102
RTVSPost2010Prop44ColorRGB
 90
      255
102
RTVSPost2010PropOp44
 70
     1
102
RTVSPost2010Prop45
280
     0
102
RTVSPost2010PropOp45
 70
     1
102
RTVSPost2010Prop46
 90
       50
102
RTVSPost2010PropOp46
 70
     1
102
RTVSPost2010Prop47
 90
       50
102
RTVSPost2010PropOp47
 70
     1
102
RTVSPost2010Prop48
 90
       50
102
RTVSPost2010PropOp48
 70
     1
102
RTVSPost2010Prop49
280
     0
102
RTVSPost2010PropOp49
 70
     1
102
RTVSPost2010Prop50
 90
       50
102
RTVSPost2010PropOp50
 70
     1
102
RTVSPost2010Prop51ColorIndex
 90
      256
102
RTVSPost2010Prop51ColorRGB
 90
-16777216
102
RTVSPost2010PropOp51
 70
     0
102
RTVSPost2010Prop52
140
1.0
102
RTVSPost2010PropOp52
 70
     0
102
RTVSPost2010Prop53
 90
        2
102
RTVSPost2010PropOp53
 70
     1
102
RTVSPost2010Prop54
  1
strokes_ogs.tif
102
RTVSPost2010PropOp54
 70
     1
102
RTVSPost2010Prop55
280
     0
102
RTVSPost2010PropOp55
 70
     1
102
RTVSPost2010Prop56
140
1.0
102
RTVSPost2010PropOp56
 70
     1
102
RTVSPost2010Prop57
140
1.0
102
RTVSPost2010PropOp57
 70
     1
102
RTVSPropertyOp0
 70
     1
102
RTVSPropertyOp1
 70
     1
102
RTVSPropertyOp2
 70
     1
102
RTVSPropertyOp3
 70
     1
102
RTVSPropertyOp4
 70
     1
102
RTVSPropertyOp5
 70
     1
102
RTVSPropertyOp6
 70
     1
102
RTVSPropertyOp7
 70
     1
102
RTVSPropertyOp8
 70
     1
102
RTVSPropertyOp9
 70
     1
102
RTVSPropertyOp10
 70
     1
102
RTVSPropertyOp11
 70
     1
102
RTVSPropertyOp12
 70
     1
102
RTVSPropertyOp13
 70
     1
102
RTVSPropertyOp14
 70
     1
102
RTVSPropertyOp15
 70
     1
102
RTVSPropertyOp16
 70
     1
102
RTVSPropertyOp17
 70
     1
102
RTVSPropertyOp18
 70
     1
102
RTVSPropertyOp19
 70
     1
102
RTVSPropertyOp20
 70
     1
102
RTVSPropertyOp21
 70
     1
102
RTVSPropertyOp22
 70
     1
102
RTVSPropertyOp23
 70
     1
102
RTVSPropertyOp24
 70
     1
102
RTVSPropertyOp25
 70
     1
102
RTVSPropertyOp26
 70
     1
102
RTVSPropertyOp27
 70
     1
102
RTVSPropertyOp28
 70
     1
102
RTVSPropertyOp29
 70
     1
102
RTVSPropertyOp30
 70
     1
102
RTVSPropertyOp31
 70
     1
102
RTVSPropertyOp32
 70
     1
102
RTVSPropertyOp33
 70
     1
102
RTVSPropertyOp34
 70
     1
102
RTVSPropertyOp35
 70
     1
102
RTVSPropertyOp36
 70
     1
102
RTVSPropertyOp37
 70
     1
102
RTVSPropertyOp38
 70
     1
102
RTVSPropertyOp39
 70
     1
102
RTVSPropertyOp40
 70
     1
102
RTVSPropertyOp41
 70
     1
102
RTVSPropertyOp42
 70
     1
102
RTVSPropertyOp43
 70
     1
102
RTVSPropertyOp44
 70
     1
102
RTVSPropertyOp45
 70
     1
102
RTVSPropertyOp46
 70
     1
102
RTVSPropertyOp47
 70
     1
102
RTVSPropertyOp48
 70
     1
102
RTVSPropertyOp49
 70
     1
102
RTVSPropertyOp50
 70
     1
102
RTVSPropertyOp51
 70
     0
102
RTVSPropertyOp52
 70
     0
102
RTVSPropertyOp53
 70
     1
102
RTVSPropertyOp54
 70
     1
102
RTVSPropertyOp55
 70
     1
102
RTVSPropertyOp56
 70
     1
102
RTVSPropertyOp57
 70
     1
102
RTVSPropertyOp58
 70
     1
102
RTVSPropertyOp59
 70
     1
102
RTVSPropertyOp60
 70
     1
102
RTVSPropertyOp61
 70
     1
102
RTVSPropertyOp62
 70
     1
  0
XRECORD
  5
164C6
102
{ACAD_REACTORS
330
164C5
102
}
330
164C5
100
AcDbXrecord
280
     1
102
RTVSPost2010Prop28
280
     0
102
RTVSPost2010PropOp28
 70
     1
102
RTVSPost2010Prop29
280
     1
102
RTVSPost2010PropOp29
 70
     1
102
RTVSPost2010Prop30
280
     1
102
RTVSPost2010PropOp30
 70
     1
102
RTVSPost2010Prop31
280
     0
102
RTVSPost2010PropOp31
 70
     1
102
RTVSPost2010Prop32
280
     0
102
RTVSPost2010PropOp32
 70
     1
102
RTVSPost2010Prop33
280
     0
102
RTVSPost2010PropOp33
 70
     1
102
RTVSPost2010Prop34
280
     0
102
RTVSPost2010PropOp34
 70
     1
102
RTVSPost2010Prop35
280
     0
102
RTVSPost2010PropOp35
 70
     1
102
RTVSPost2010Prop36
280
     0
102
RTVSPost2010PropOp36
 70
     1
102
RTVSPost2010Prop37
 90
       50
102
RTVSPost2010PropOp37
 70
     1
102
RTVSPost2010Prop38
140
0.0
102
RTVSPost2010PropOp38
 70
     1
102
RTVSPost2010Prop39
140
1.0
102
RTVSPost2010PropOp39
 70
     1
102
RTVSPost2010Prop40
 90
        0
102
RTVSPost2010PropOp40
 70
     1
102
RTVSPost2010Prop41ColorIndex
 90
       18
102
RTVSPost2010Prop41ColorRGB
 90
        0
102
RTVSPost2010PropOp41
 70
     1
102
RTVSPost2010Prop42
 90
       50
102
RTVSPost2010PropOp42
 70
     1
102
RTVSPost2010Prop43
 90
        3
102
RTVSPost2010PropOp43
 70
     1
102
RTVSPost2010Prop44ColorIndex
 90
        5
102
RTVSPost2010Prop44ColorRGB
 90
      255
102
RTVSPost2010PropOp44
 70
     1
102
RTVSPost2010Prop45
280
     0
102
RTVSPost2010PropOp45
 70
     1
102
RTVSPost2010Prop46
 90
       50
102
RTVSPost2010PropOp46
 70
     1
102
RTVSPost2010Prop47
 90
       50
102
RTVSPost2010PropOp47
 70
     1
102
RTVSPost2010Prop48
 90
       50
102
RTVSPost2010PropOp48
 70
     1
102
RTVSPost2010Prop49
280
     0
102
RTVSPost2010PropOp49
 70
     1
102
RTVSPost2010Prop50
 90
       50
102
RTVSPost2010PropOp50
 70
     1
102
RTVSPost2010Prop51ColorIndex
 90
      256
102
RTVSPost2010Prop51ColorRGB
 90
-16777216
102
RTVSPost2010PropOp51
 70
     0
102
RTVSPost2010Prop52
140
1.0
102
RTVSPost2010PropOp52
 70
     0
102
RTVSPost2010Prop53
 90
        2
102
RTVSPost2010PropOp53
 70
     1
102
RTVSPost2010Prop54
  1
strokes_ogs.tif
102
RTVSPost2010PropOp54
 70
     1
102
RTVSPost2010Prop55
280
     0
102
RTVSPost2010PropOp55
 70
     1
102
RTVSPost2010Prop56
140
1.0
102
RTVSPost2010PropOp56
 70
     1
102
RTVSPost2010Prop57
140
1.0
102
RTVSPost2010PropOp57
 70
     1
102
RTVSPropertyOp0
 70
     1
102
RTVSPropertyOp1
 70
     1
102
RTVSPropertyOp2
 70
     1
102
RTVSPropertyOp3
 70
     1
102
RTVSPropertyOp4
 70
     1
102
RTVSPropertyOp5
 70
     1
102
RTVSPropertyOp6
 70
     1
102
RTVSPropertyOp7
 70
     1
102
RTVSPropertyOp8
 70
     1
102
RTVSPropertyOp9
 70
     1
102
RTVSPropertyOp10
 70
     1
102
RTVSPropertyOp11
 70
     1
102
RTVSPropertyOp12
 70
     1
102
RTVSPropertyOp13
 70
     1
102
RTVSPropertyOp14
 70
     1
102
RTVSPropertyOp15
 70
     1
102
RTVSPropertyOp16
 70
     1
102
RTVSPropertyOp17
 70
     1
102
RTVSPropertyOp18
 70
     1
102
RTVSPropertyOp19
 70
     1
102
RTVSPropertyOp20
 70
     1
102
RTVSPropertyOp21
 70
     1
102
RTVSPropertyOp22
 70
     1
102
RTVSPropertyOp23
 70
     1
102
RTVSPropertyOp24
 70
     1
102
RTVSPropertyOp25
 70
     1
102
RTVSPropertyOp26
 70
     1
102
RTVSPropertyOp27
 70
     1
102
RTVSPropertyOp28
 70
     1
102
RTVSPropertyOp29
 70
     1
102
RTVSPropertyOp30
 70
     1
102
RTVSPropertyOp31
 70
     1
102
RTVSPropertyOp32
 70
     1
102
RTVSPropertyOp33
 70
     1
102
RTVSPropertyOp34
 70
     1
102
RTVSPropertyOp35
 70
     1
102
RTVSPropertyOp36
 70
     1
102
RTVSPropertyOp37
 70
     1
102
RTVSPropertyOp38
 70
     1
102
RTVSPropertyOp39
 70
     1
102
RTVSPropertyOp40
 70
     1
102
RTVSPropertyOp41
 70
     1
102
RTVSPropertyOp42
 70
     1
102
RTVSPropertyOp43
 70
     1
102
RTVSPropertyOp44
 70
     1
102
RTVSPropertyOp45
 70
     1
102
RTVSPropertyOp46
 70
     1
102
RTVSPropertyOp47
 70
     1
102
RTVSPropertyOp48
 70
     1
102
RTVSPropertyOp49
 70
     1
102
RTVSPropertyOp50
 70
     1
102
RTVSPropertyOp51
 70
     0
102
RTVSPropertyOp52
 70
     0
102
RTVSPropertyOp53
 70
     1
102
RTVSPropertyOp54
 70
     1
102
RTVSPropertyOp55
 70
     1
102
RTVSPropertyOp56
 70
     1
102
RTVSPropertyOp57
 70
     1
102
RTVSPropertyOp58
 70
     1
102
RTVSPropertyOp59
 70
     1
102
RTVSPropertyOp60
 70
     1
102
RTVSPropertyOp61
 70
     1
102
RTVSPropertyOp62
 70
     1
  0
XRECORD
  5
164DE
102
{ACAD_REACTORS
330
164DD
102
}
330
164DD
100
AcDbXrecord
280
     1
102
RTVSPost2010Prop28
280
     0
102
RTVSPost2010PropOp28
 70
     1
102
RTVSPost2010Prop29
280
     1
102
RTVSPost2010PropOp29
 70
     1
102
RTVSPost2010Prop30
280
     1
102
RTVSPost2010PropOp30
 70
     1
102
RTVSPost2010Prop31
280
     0
102
RTVSPost2010PropOp31
 70
     1
102
RTVSPost2010Prop32
280
     0
102
RTVSPost2010PropOp32
 70
     1
102
RTVSPost2010Prop33
280
     0
102
RTVSPost2010PropOp33
 70
     1
102
RTVSPost2010Prop34
280
     0
102
RTVSPost2010PropOp34
 70
     1
102
RTVSPost2010Prop35
280
     0
102
RTVSPost2010PropOp35
 70
     1
102
RTVSPost2010Prop36
280
     0
102
RTVSPost2010PropOp36
 70
     1
102
RTVSPost2010Prop37
 90
       50
102
RTVSPost2010PropOp37
 70
     1
102
RTVSPost2010Prop38
140
0.0
102
RTVSPost2010PropOp38
 70
     1
102
RTVSPost2010Prop39
140
1.0
102
RTVSPost2010PropOp39
 70
     1
102
RTVSPost2010Prop40
 90
        0
102
RTVSPost2010PropOp40
 70
     1
102
RTVSPost2010Prop41ColorIndex
 90
       18
102
RTVSPost2010Prop41ColorRGB
 90
        0
102
RTVSPost2010PropOp41
 70
     1
102
RTVSPost2010Prop42
 90
       50
102
RTVSPost2010PropOp42
 70
     1
102
RTVSPost2010Prop43
 90
        3
102
RTVSPost2010PropOp43
 70
     1
102
RTVSPost2010Prop44ColorIndex
 90
        5
102
RTVSPost2010Prop44ColorRGB
 90
      255
102
RTVSPost2010PropOp44
 70
     1
102
RTVSPost2010Prop45
280
     0
102
RTVSPost2010PropOp45
 70
     1
102
RTVSPost2010Prop46
 90
       50
102
RTVSPost2010PropOp46
 70
     1
102
RTVSPost2010Prop47
 90
       50
102
RTVSPost2010PropOp47
 70
     1
102
RTVSPost2010Prop48
 90
       50
102
RTVSPost2010PropOp48
 70
     1
102
RTVSPost2010Prop49
280
     0
102
RTVSPost2010PropOp49
 70
     1
102
RTVSPost2010Prop50
 90
       50
102
RTVSPost2010PropOp50
 70
     1
102
RTVSPost2010Prop51ColorIndex
 90
      256
102
RTVSPost2010Prop51ColorRGB
 90
-16777216
102
RTVSPost2010PropOp51
 70
     0
102
RTVSPost2010Prop52
140
1.0
102
RTVSPost2010PropOp52
 70
     0
102
RTVSPost2010Prop53
 90
        2
102
RTVSPost2010PropOp53
 70
     1
102
RTVSPost2010Prop54
  1
strokes_ogs.tif
102
RTVSPost2010PropOp54
 70
     1
102
RTVSPost2010Prop55
280
     0
102
RTVSPost2010PropOp55
 70
     1
102
RTVSPost2010Prop56
140
1.0
102
RTVSPost2010PropOp56
 70
     1
102
RTVSPost2010Prop57
140
1.0
102
RTVSPost2010PropOp57
 70
     1
102
RTVSPropertyOp0
 70
     1
102
RTVSPropertyOp1
 70
     1
102
RTVSPropertyOp2
 70
     1
102
RTVSPropertyOp3
 70
     1
102
RTVSPropertyOp4
 70
     1
102
RTVSPropertyOp5
 70
     1
102
RTVSPropertyOp6
 70
     1
102
RTVSPropertyOp7
 70
     1
102
RTVSPropertyOp8
 70
     1
102
RTVSPropertyOp9
 70
     1
102
RTVSPropertyOp10
 70
     1
102
RTVSPropertyOp11
 70
     1
102
RTVSPropertyOp12
 70
     1
102
RTVSPropertyOp13
 70
     1
102
RTVSPropertyOp14
 70
     1
102
RTVSPropertyOp15
 70
     1
102
RTVSPropertyOp16
 70
     1
102
RTVSPropertyOp17
 70
     1
102
RTVSPropertyOp18
 70
     1
102
RTVSPropertyOp19
 70
     1
102
RTVSPropertyOp20
 70
     1
102
RTVSPropertyOp21
 70
     1
102
RTVSPropertyOp22
 70
     1
102
RTVSPropertyOp23
 70
     1
102
RTVSPropertyOp24
 70
     1
102
RTVSPropertyOp25
 70
     1
102
RTVSPropertyOp26
 70
     1
102
RTVSPropertyOp27
 70
     1
102
RTVSPropertyOp28
 70
     1
102
RTVSPropertyOp29
 70
     1
102
RTVSPropertyOp30
 70
     1
102
RTVSPropertyOp31
 70
     1
102
RTVSPropertyOp32
 70
     1
102
RTVSPropertyOp33
 70
     1
102
RTVSPropertyOp34
 70
     1
102
RTVSPropertyOp35
 70
     1
102
RTVSPropertyOp36
 70
     1
102
RTVSPropertyOp37
 70
     1
102
RTVSPropertyOp38
 70
     1
102
RTVSPropertyOp39
 70
     1
102
RTVSPropertyOp40
 70
     1
102
RTVSPropertyOp41
 70
     1
102
RTVSPropertyOp42
 70
     1
102
RTVSPropertyOp43
 70
     1
102
RTVSPropertyOp44
 70
     1
102
RTVSPropertyOp45
 70
     1
102
RTVSPropertyOp46
 70
     1
102
RTVSPropertyOp47
 70
     1
102
RTVSPropertyOp48
 70
     1
102
RTVSPropertyOp49
 70
     1
102
RTVSPropertyOp50
 70
     1
102
RTVSPropertyOp51
 70
     0
102
RTVSPropertyOp52
 70
     0
102
RTVSPropertyOp53
 70
     1
102
RTVSPropertyOp54
 70
     1
102
RTVSPropertyOp55
 70
     1
102
RTVSPropertyOp56
 70
     1
102
RTVSPropertyOp57
 70
     1
102
RTVSPropertyOp58
 70
     1
102
RTVSPropertyOp59
 70
     1
102
RTVSPropertyOp60
 70
     1
102
RTVSPropertyOp61
 70
     1
102
RTVSPropertyOp62
 70
     1
  0
ENDSEC
  0
EOF
