  0
SECTION
  2
HEADER
  9
$ACADVER
  1
AC1015
  9
$ACADMAINTVER
 70
    20
  9
$DWGCODEPAGE
  3
ANSI_932
  9
$INSBASE
 10
0.0
 20
0.0
 30
0.0
  9
$EXTMIN
 10
104.9999999999996
 20
0.0
 30
-0.0000000000013153
  9
$EXTMAX
 10
12230.4
 20
8557.199999999999
 30
0.0000000000013153
  9
$LIMMIN
 10
0.0
 20
0.0
  9
$LIMMAX
 10
12600.0
 20
8910.0
  9
$ORTHOMODE
 70
     0
  9
$REGENMODE
 70
     1
  9
$FILLMODE
 70
     1
  9
$QTEXTMODE
 70
     0
  9
$MIRRTEXT
 70
     1
  9
$LTSCALE
 40
7.0
  9
$ATTMODE
 70
     1
  9
$TEXTSIZE
 40
100.0
  9
$TRACEWID
 40
1.0
  9
$TEXTSTYLE
  7
STYLE3
  9
$CLAYER
  8
点線
  9
$CELTYPE
  6
BYLAYER
  9
$CECOLOR
 62
   256
  9
$CELTSCALE
 40
50.0
  9
$DISPSILH
 70
     0
  9
$DIMSCALE
 40
30.0
  9
$DIMASZ
 40
2.5
  9
$DIMEXO
 40
0.5
  9
$DIMDLI
 40
7.0
  9
$DIMRND
 40
0.0
  9
$DIMDLE
 40
0.0
  9
$DIMEXE
 40
1.5
  9
$DIMTP
 40
0.0
  9
$DIMTM
 40
0.0
  9
$DIMTXT
 40
3.0
  9
$DIMCEN
 40
0.0
  9
$DIMTSZ
 40
0.0
  9
$DIMTOL
 70
     0
  9
$DIMLIM
 70
     0
  9
$DIMTIH
 70
     1
  9
$DIMTOH
 70
     1
  9
$DIMSE1
 70
     0
  9
$DIMSE2
 70
     0
  9
$DIMTAD
 70
     3
  9
$DIMZIN
 70
     8
  9
$DIMBLK
  1

  9
$DIMASO
 70
     1
  9
$DIMSHO
 70
     1
  9
$DIMPOST
  1

  9
$DIMAPOST
  1

  9
$DIMALT
 70
     0
  9
$DIMALTD
 70
     2
  9
$DIMALTF
 40
0.0394
  9
$DIMLFAC
 40
1.0
  9
$DIMTOFL
 70
     1
  9
$DIMTVP
 40
0.0
  9
$DIMTIX
 70
     1
  9
$DIMSOXD
 70
     1
  9
$DIMSAH
 70
     1
  9
$DIMBLK1
  1
DOTSMALL
  9
$DIMBLK2
  1
DOTSMALL
  9
$DIMSTYLE
  2
INABA_S30G
  9
$DIMCLRD
 70
     0
  9
$DIMCLRE
 70
     0
  9
$DIMCLRT
 70
     7
  9
$DIMTFAC
 40
1.0
  9
$DIMGAP
 40
1.0
  9
$DIMJUST
 70
     0
  9
$DIMSD1
 70
     0
  9
$DIMSD2
 70
     0
  9
$DIMTOLJ
 70
     1
  9
$DIMTZIN
 70
     0
  9
$DIMALTZ
 70
     0
  9
$DIMALTTZ
 70
     0
  9
$DIMUPT
 70
     0
  9
$DIMDEC
 70
     1
  9
$DIMTDEC
 70
     1
  9
$DIMALTU
 70
     2
  9
$DIMALTTD
 70
     2
  9
$DIMTXSTY
  7
STYLE1
  9
$DIMAUNIT
 70
     0
  9
$DIMADEC
 70
     0
  9
$DIMALTRND
 40
0.0
  9
$DIMAZIN
 70
     0
  9
$DIMDSEP
 70
    46
  9
$DIMATFIT
 70
     3
  9
$DIMFRAC
 70
     0
  9
$DIMLDRBLK
  1

  9
$DIMLUNIT
 70
     2
  9
$DIMLWD
 70
    -2
  9
$DIMLWE
 70
    -2
  9
$DIMTMOVE
 70
     0
  9
$LUNITS
 70
     2
  9
$LUPREC
 70
     1
  9
$SKETCHINC
 40
1.0
  9
$FILLETRAD
 40
5.0
  9
$AUNITS
 70
     0
  9
$AUPREC
 70
     0
  9
$MENU
  1
acad
  9
$ELEVATION
 40
0.0
  9
$PELEVATION
 40
0.0
  9
$THICKNESS
 40
0.0
  9
$LIMCHECK
 70
     0
  9
$CHAMFERA
 40
0.0
  9
$CHAMFERB
 40
0.0
  9
$CHAMFERC
 40
0.0
  9
$CHAMFERD
 40
0.0
  9
$SKPOLY
 70
     0
  9
$TDCREATE
 40
2451074.411873148
  9
$TDUCREATE
 40
2451074.036873148
  9
$TDUPDATE
 40
2456560.838033993
  9
$TDUUPDATE
 40
2456560.463033993
  9
$TDINDWG
 40
0.3404700926
  9
$TDUSRTIMER
 40
0.3404700926
  9
$USRTIMER
 70
     1
  9
$ANGBASE
 50
0.0
  9
$ANGDIR
 70
     0
  9
$PDMODE
 70
     3
  9
$PDSIZE
 40
2.0
  9
$PLINEWID
 40
0.0
  9
$SPLFRAME
 70
     0
  9
$SPLINETYPE
 70
     6
  9
$SPLINESEGS
 70
     8
  9
$HANDSEED
  5
15793
  9
$SURFTAB1
 70
     6
  9
$SURFTAB2
 70
     6
  9
$SURFTYPE
 70
     6
  9
$SURFU
 70
     6
  9
$SURFV
 70
     6
  9
$UCSBASE
  2

  9
$UCSNAME
  2

  9
$UCSORG
 10
0.0
 20
0.0
 30
0.0
  9
$UCSXDIR
 10
1.0
 20
0.0
 30
0.0
  9
$UCSYDIR
 10
0.0
 20
1.0
 30
0.0
  9
$UCSORTHOREF
  2

  9
$UCSORTHOVIEW
 70
     0
  9
$UCSORGTOP
 10
0.0
 20
0.0
 30
0.0
  9
$UCSORGBOTTOM
 10
0.0
 20
0.0
 30
0.0
  9
$UCSORGLEFT
 10
0.0
 20
0.0
 30
0.0
  9
$UCSORGRIGHT
 10
0.0
 20
0.0
 30
0.0
  9
$UCSORGFRONT
 10
0.0
 20
0.0
 30
0.0
  9
$UCSORGBACK
 10
0.0
 20
0.0
 30
0.0
  9
$PUCSBASE
  2

  9
$PUCSNAME
  2

  9
$PUCSORG
 10
0.0
 20
0.0
 30
0.0
  9
$PUCSXDIR
 10
1.0
 20
0.0
 30
0.0
  9
$PUCSYDIR
 10
0.0
 20
1.0
 30
0.0
  9
$PUCSORTHOREF
  2

  9
$PUCSORTHOVIEW
 70
     0
  9
$PUCSORGTOP
 10
0.0
 20
0.0
 30
0.0
  9
$PUCSORGBOTTOM
 10
0.0
 20
0.0
 30
0.0
  9
$PUCSORGLEFT
 10
0.0
 20
0.0
 30
0.0
  9
$PUCSORGRIGHT
 10
0.0
 20
0.0
 30
0.0
  9
$PUCSORGFRONT
 10
0.0
 20
0.0
 30
0.0
  9
$PUCSORGBACK
 10
0.0
 20
0.0
 30
0.0
  9
$USERI1
 70
     0
  9
$USERI2
 70
     0
  9
$USERI3
 70
     0
  9
$USERI4
 70
     0
  9
$USERI5
 70
     0
  9
$USERR1
 40
0.0
  9
$USERR2
 40
0.0
  9
$USERR3
 40
0.0
  9
$USERR4
 40
0.0
  9
$USERR5
 40
0.0
  9
$WORLDVIEW
 70
     1
  9
$SHADEDGE
 70
     3
  9
$SHADEDIF
 70
    70
  9
$TILEMODE
 70
     1
  9
$MAXACTVP
 70
    16
  9
$PINSBASE
 10
0.0
 20
0.0
 30
0.0
  9
$PLIMCHECK
 70
     0
  9
$PEXTMIN
 10
1.000000000000000E+20
 20
1.000000000000000E+20
 30
1.000000000000000E+20
  9
$PEXTMAX
 10
-1.000000000000000E+20
 20
-1.000000000000000E+20
 30
-1.000000000000000E+20
  9
$PLIMMIN
 10
0.0
 20
0.0
  9
$PLIMMAX
 10
420.0
 20
297.0
  9
$UNITMODE
 70
     0
  9
$VISRETAIN
 70
     0
  9
$PLINEGEN
 70
     0
  9
$PSLTSCALE
 70
     0
  9
$TREEDEPTH
 70
  3020
  9
$CMLSTYLE
  2
STANDARD
  9
$CMLJUST
 70
     0
  9
$CMLSCALE
 40
1.0
  9
$PROXYGRAPHICS
 70
     1
  9
$MEASUREMENT
 70
     1
  9
$CELWEIGHT
370
    -1
  9
$ENDCAPS
280
     0
  9
$JOINSTYLE
280
     0
  9
$LWDISPLAY
290
     0
  9
$INSUNITS
 70
     0
  9
$HYPERLINKBASE
  1

  9
$STYLESHEET
  1
inaba.ctb
  9
$XEDIT
290
     1
  9
$CEPSNTYPE
380
     0
  9
$PSTYLEMODE
290
     1
  9
$FINGERPRINTGUID
  2
{696AEDA2-CF37-4C16-A548-8F3E259D4281}
  9
$VERSIONGUID
  2
{595553EC-4C19-4023-8751-EA3F4ABF9284}
  9
$EXTNAMES
290
     1
  9
$PSVPSCALE
 40
0.0
  9
$OLESTARTUP
290
     0
  0
ENDSEC
  0
SECTION
  2
CLASSES
  0
CLASS
  1
ACDBDICTIONARYWDFLT
  2
AcDbDictionaryWithDefault
  3
ObjectDBX Classes
 90
        0
280
     0
281
     0
  0
CLASS
  1
DICTIONARYVAR
  2
AcDbDictionaryVar
  3
ObjectDBX Classes
 90
        0
280
     0
281
     0
  0
CLASS
  1
MATERIAL
  2
AcDbMaterial
  3
ObjectDBX Classes
 90
     1153
280
     0
281
     0
  0
CLASS
  1
VISUALSTYLE
  2
AcDbVisualStyle
  3
ObjectDBX Classes
 90
     4095
280
     0
281
     0
  0
CLASS
  1
TABLESTYLE
  2
AcDbTableStyle
  3
ObjectDBX Classes
 90
     4095
280
     0
281
     0
  0
CLASS
  1
SCALE
  2
AcDbScale
  3
ObjectDBX Classes
 90
     1153
280
     0
281
     0
  0
CLASS
  1
MLEADERSTYLE
  2
AcDbMLeaderStyle
  3
ACDB_MLEADERSTYLE_CLASS
 90
     4095
280
     0
281
     0
  0
CLASS
  1
ACDBSECTIONVIEWSTYLE
  2
AcDbSectionViewStyle
  3
ObjectDBX Classes
 90
     1025
280
     0
281
     0
  0
CLASS
  1
ACDBDETAILVIEWSTYLE
  2
AcDbDetailViewStyle
  3
ObjectDBX Classes
 90
     1025
280
     0
281
     0
  0
CLASS
  1
EXACXREFPANELOBJECT
  2
ExAcXREFPanelObject
  3
EXAC_ESW
 90
    33793
280
     0
281
     0
  0
CLASS
  1
NPOCOLLECTION
  2
AcDbImpNonPersistentObjectsCollection
  3
ObjectDBX Classes
 90
    33921
280
     0
281
     0
  0
CLASS
  1
CELLSTYLEMAP
  2
AcDbCellStyleMap
  3
ObjectDBX Classes
 90
     1152
280
     0
281
     0
  0
CLASS
  1
ACDBPLACEHOLDER
  2
AcDbPlaceHolder
  3
ObjectDBX Classes
 90
        0
280
     0
281
     0
  0
CLASS
  1
LAYOUT
  2
AcDbLayout
  3
ObjectDBX Classes
 90
        0
280
     0
281
     0
  0
ENDSEC
  0
SECTION
  2
TABLES
  0
TABLE
  2
VPORT
  5
746D
102
{ACAD_XDICTIONARY
360
154A5
102
}
330
0
100
AcDbSymbolTable
 70
     1
  0
VPORT
  5
13E71
330
746D
100
AcDbSymbolTableRecord
100
AcDbViewportTableRecord
  2
*Active
 70
     0
 10
0.0
 20
0.0
 11
1.0
 21
1.0
 12
6167.820768928882
 22
4278.597356355281
 13
0.0
 23
0.0
 14
10.0
 24
10.0
 15
10.0
 25
10.0
 16
0.0
 26
0.0
 36
1.0
 17
0.0
 27
0.0
 37
0.0
 40
8773.622164798899
 41
1.390896921017402
 42
50.0
 43
0.0
 44
0.0
 50
0.0
 51
0.0
 71
     0
 72
     0
 73
     1
 74
     0
 75
     0
 76
     0
 77
     0
 78
     0
281
     0
 65
     1
110
0.0
120
0.0
130
0.0
111
1.0
121
0.0
131
0.0
112
0.0
122
1.0
132
0.0
 79
     0
146
0.0
1001
ACAD_NAV_VCDISPLAY
1070
     3
  0
ENDTAB
  0
TABLE
  2
LTYPE
  5
746A
330
0
100
AcDbSymbolTable
 70
     4
  0
LTYPE
  5
7477
330
746A
100
AcDbSymbolTableRecord
100
AcDbLinetypeTableRecord
  2
BYBLOCK
 70
     0
  3

 72
    65
 73
     0
 40
0.0
  0
LTYPE
  5
7478
330
746A
100
AcDbSymbolTableRecord
100
AcDbLinetypeTableRecord
  2
BYLAYER
 70
     0
  3

 72
    65
 73
     0
 40
0.0
  0
LTYPE
  5
7479
330
746A
100
AcDbSymbolTableRecord
100
AcDbLinetypeTableRecord
  2
CONTINUOUS
 70
     0
  3
Solid line
 72
    65
 73
     0
 40
0.0
  0
LTYPE
  5
781A
330
746A
100
AcDbSymbolTableRecord
100
AcDbLinetypeTableRecord
  2
HIDDEN
 70
     0
  3
__ __ __ __ __ __ __ __ __ __ __ __ __ __ __ __
 72
    65
 73
     2
 40
0.375
 49
0.25
 74
     0
 49
-0.125
 74
     0
  0
LTYPE
  5
781B
330
746A
100
AcDbSymbolTableRecord
100
AcDbLinetypeTableRecord
  2
PHANTOM
 70
     0
  3
______  __  __  ______  __  __  ______  __  __ 
 72
    65
 73
     6
 40
2.5
 49
1.25
 74
     0
 49
-0.25
 74
     0
 49
0.25
 74
     0
 49
-0.25
 74
     0
 49
0.25
 74
     0
 49
-0.25
 74
     0
  0
LTYPE
  5
13571
330
746A
100
AcDbSymbolTableRecord
100
AcDbLinetypeTableRecord
  2
CENTER
 70
     0
  3
Center ____ _ ____ _ ____ _ ____ _ ____ _ ____
 72
    65
 73
     4
 40
50.8
 49
31.75
 74
     0
 49
-6.349999999999999
 74
     0
 49
6.349999999999999
 74
     0
 49
-6.349999999999999
 74
     0
  0
ENDTAB
  0
TABLE
  2
LAYER
  5
7467
102
{ACAD_XDICTIONARY
360
13451
102
}
330
0
100
AcDbSymbolTable
 70
    15
  0
LAYER
  5
7474
102
{ACAD_XDICTIONARY
360
15485
102
}
330
7467
100
AcDbSymbolTableRecord
100
AcDbLayerTableRecord
  2
0
 70
     0
 62
     7
  6
CONTINUOUS
370
    -3
390
1341B
  0
LAYER
  5
DEB3
102
{ACAD_XDICTIONARY
360
15487
102
}
330
7467
100
AcDbSymbolTableRecord
100
AcDbLayerTableRecord
  2
寸法
 70
     0
 62
     4
  6
CONTINUOUS
370
    -3
390
1341B
  0
LAYER
  5
DEB4
102
{ACAD_XDICTIONARY
360
15489
102
}
330
7467
100
AcDbSymbolTableRecord
100
AcDbLayerTableRecord
  2
部品1
 70
     0
 62
     7
  6
CONTINUOUS
370
    -3
390
1341B
  0
LAYER
  5
DEB5
102
{ACAD_XDICTIONARY
360
1548B
102
}
330
7467
100
AcDbSymbolTableRecord
100
AcDbLayerTableRecord
  2
補助
 70
     0
 62
    -1
  6
CONTINUOUS
370
    -3
390
1341B
  0
LAYER
  5
DEB6
102
{ACAD_XDICTIONARY
360
1548D
102
}
330
7467
100
AcDbSymbolTableRecord
100
AcDbLayerTableRecord
  2
文字
 70
     0
 62
     7
  6
CONTINUOUS
370
    -3
390
1341B
  0
LAYER
  5
F255
330
7467
100
AcDbSymbolTableRecord
100
AcDbLayerTableRecord
  2
DEFPOINTS
 70
     0
 62
     7
  6
CONTINUOUS
290
     0
370
    -3
390
1341B
  0
LAYER
  5
10B54
102
{ACAD_XDICTIONARY
360
1548F
102
}
330
7467
100
AcDbSymbolTableRecord
100
AcDbLayerTableRecord
  2
仕様書枠
 70
     0
 62
   230
  6
CONTINUOUS
370
    -3
390
1341B
  0
LAYER
  5
11729
102
{ACAD_XDICTIONARY
360
15491
102
}
330
7467
100
AcDbSymbolTableRecord
100
AcDbLayerTableRecord
  2
Ｇ．Ｌ
 70
     0
 62
    30
  6
CONTINUOUS
370
    -3
390
1341B
  0
LAYER
  5
1173F
102
{ACAD_XDICTIONARY
360
15493
102
}
330
7467
100
AcDbSymbolTableRecord
100
AcDbLayerTableRecord
  2
細線
 70
     0
 62
     5
  6
CONTINUOUS
370
    -3
390
1341B
  0
LAYER
  5
11740
102
{ACAD_XDICTIONARY
360
15495
102
}
330
7467
100
AcDbSymbolTableRecord
100
AcDbLayerTableRecord
  2
点線
 70
     0
 62
     2
  6
HIDDEN
370
    -3
390
1341B
  0
LAYER
  5
1356E
102
{ACAD_XDICTIONARY
360
15497
102
}
330
7467
100
AcDbSymbolTableRecord
100
AcDbLayerTableRecord
  2
センター
 70
     0
 62
     3
  6
CENTER
370
    -3
390
1341B
  0
LAYER
  5
135FB
102
{ACAD_XDICTIONARY
360
15499
102
}
330
7467
100
AcDbSymbolTableRecord
100
AcDbLayerTableRecord
  2
想像線
 70
     0
 62
     6
  6
PHANTOM
370
    -3
390
1341B
  0
LAYER
  5
13837
102
{ACAD_XDICTIONARY
360
1549B
102
}
330
7467
100
AcDbSymbolTableRecord
100
AcDbLayerTableRecord
  2
U7
 70
     0
 62
     2
  6
CONTINUOUS
370
    -3
390
1341B
  0
LAYER
  5
13838
102
{ACAD_XDICTIONARY
360
1549D
102
}
330
7467
100
AcDbSymbolTableRecord
100
AcDbLayerTableRecord
  2
KIN-T
 70
     0
 62
     3
  6
CONTINUOUS
370
    -3
390
1341B
  0
LAYER
  5
13839
102
{ACAD_XDICTIONARY
360
1549F
102
}
330
7467
100
AcDbSymbolTableRecord
100
AcDbLayerTableRecord
  2
CSLAYER17
 70
     0
 62
     7
  6
CONTINUOUS
370
    -3
390
1341B
  0
ENDTAB
  0
TABLE
  2
STYLE
  5
7468
330
0
100
AcDbSymbolTable
 70
     5
  0
STYLE
  5
7475
330
7468
100
AcDbSymbolTableRecord
100
AcDbTextStyleTableRecord
  2
STANDARD
 70
     0
 40
0.0
 41
1.0
 50
0.0
 71
     0
 42
4.0
  3
txt
  4
C:\AutoCAD LT\bigfont.shx
  0
STYLE
  5
763C
330
7468
100
AcDbSymbolTableRecord
100
AcDbTextStyleTableRecord
  2
MSMINCHO
 70
     0
 40
0.0
 41
1.0
 50
0.0
 71
     0
 42
1.199999999999999
  3
C:\AutoCAD LT\msminch2.TTF
  4

  0
STYLE
  5
F706
330
7468
100
AcDbSymbolTableRecord
100
AcDbTextStyleTableRecord
  2
STYLE1
 70
     0
 40
0.0
 41
1.0
 50
0.0
 71
     0
 42
4.0
  3
isocp.shx
  4
bigfont.shx
  0
STYLE
  5
103BF
330
7468
100
AcDbSymbolTableRecord
100
AcDbTextStyleTableRecord
  2
STYLE2
 70
     0
 40
0.0
 41
1.0
 50
0.0
 71
     0
 42
100.0
  3

  4

1001
ACAD
1000
MS PGothic
1071
    32818
  0
STYLE
  5
10BAA
330
7468
100
AcDbSymbolTableRecord
100
AcDbTextStyleTableRecord
  2
STYLE3
 70
     0
 40
0.0
 41
1.0
 50
0.0
 71
     0
 42
100.0
  3

  4

1001
ACAD
1000
MS PGothic
1071
    32818
  0
ENDTAB
  0
TABLE
  2
VIEW
  5
746B
330
0
100
AcDbSymbolTable
 70
     0
  0
ENDTAB
  0
TABLE
  2
UCS
  5
746C
330
0
100
AcDbSymbolTable
 70
     0
  0
ENDTAB
  0
TABLE
  2
APPID
  5
746E
330
0
100
AcDbSymbolTable
 70
    11
  0
APPID
  5
7476
330
746E
100
AcDbSymbolTableRecord
100
AcDbRegAppTableRecord
  2
ACAD
 70
     0
  0
APPID
  5
DEA9
330
746E
100
AcDbSymbolTableRecord
100
AcDbRegAppTableRecord
  2
CONTENTBLOCKICON
 70
     0
  0
APPID
  5
DEAA
330
746E
100
AcDbSymbolTableRecord
100
AcDbRegAppTableRecord
  2
CONTENTBLOCKDESCRIPTION
 70
     0
  0
APPID
  5
E71D
330
746E
100
AcDbSymbolTableRecord
100
AcDbRegAppTableRecord
  2
CONTENTTABDATA
 70
     0
  0
APPID
  5
E71E
330
746E
100
AcDbSymbolTableRecord
100
AcDbRegAppTableRecord
  2
CONTENTCURRENTTAB
 70
     0
  0
APPID
  5
F3BA
330
746E
100
AcDbSymbolTableRecord
100
AcDbRegAppTableRecord
  2
DRAWINGVARIABLESXDATA
 70
     0
  0
APPID
  5
14381
330
746E
100
AcDbSymbolTableRecord
100
AcDbRegAppTableRecord
  2
ACAD_NAV_VCDISPLAY
 70
     0
  0
APPID
  5
14382
330
746E
100
AcDbSymbolTableRecord
100
AcDbRegAppTableRecord
  2
GradientColor1ACI
 70
     0
  0
APPID
  5
14383
330
746E
100
AcDbSymbolTableRecord
100
AcDbRegAppTableRecord
  2
GradientColor2ACI
 70
     0
  0
APPID
  5
152F2
330
746E
100
AcDbSymbolTableRecord
100
AcDbRegAppTableRecord
  2
ACAD_EXEMPT_FROM_CAD_STANDARDS
 70
     0
  0
APPID
  5
154DF
330
746E
100
AcDbSymbolTableRecord
100
AcDbRegAppTableRecord
  2
ACAD_MLEADERVER
 70
     0
  0
ENDTAB
  0
TABLE
  2
DIMSTYLE
  5
746F
330
0
100
AcDbSymbolTable
 70
     2
100
AcDbDimStyleTable
 71
     1
340
F71F
  0
DIMSTYLE
105
F71F
102
{ACAD_REACTORS
330
14851
330
14852
330
14853
330
14854
330
14855
330
14856
330
14857
330
14858
330
14859
330
148CF
330
148D0
330
149D9
330
149DA
330
149DB
330
149DF
330
149E0
330
149E1
330
14A03
330
14A04
330
14A05
330
14A06
330
14A10
330
14A11
330
14A12
330
14A13
330
14A14
330
14A15
330
14A16
330
14A17
330
14A18
330
14A19
330
15670
330
15663
102
}
330
746F
100
AcDbSymbolTableRecord
100
AcDbDimStyleTableRecord
  2
INABA_S30G
 70
     0
 40
30.0
 41
2.5
 42
0.5
 43
7.0
 44
1.5
 73
     0
 74
     0
 77
     3
 78
     8
140
3.0
141
0.0
143
0.0394
147
1.0
172
     1
173
     1
174
     1
175
     1
178
     7
271
     1
340
F706
341
F770
343
F770
344
F770
  0
DIMSTYLE
105
1383A
330
746F
100
AcDbSymbolTableRecord
100
AcDbDimStyleTableRecord
  2
INABA_S50G
 70
     0
 41
125.0
 42
25.0
 43
7.0
 44
75.0
 73
     0
 74
     0
 77
     3
 78
     8
140
150.0
141
0.0
143
0.0394
147
25.0
172
     1
173
     1
174
     1
178
     7
271
     1
340
F706
341
F770
343
F770
344
F770
  0
ENDTAB
  0
TABLE
  2
BLOCK_RECORD
  5
7466
330
0
100
AcDbSymbolTable
 70
    34
  0
BLOCK_RECORD
  5
747D
330
7466
100
AcDbSymbolTableRecord
100
AcDbBlockTableRecord
  2
*MODEL_SPACE
340
13420
  0
BLOCK_RECORD
  5
747A
330
7466
100
AcDbSymbolTableRecord
100
AcDbBlockTableRecord
  2
*PAPER_SPACE
340
13421
  0
BLOCK_RECORD
  5
F770
330
7466
100
AcDbSymbolTableRecord
100
AcDbBlockTableRecord
  2
_DOTSMALL
340
0
102
{BLKREFS
331
155FE
331
155FF
331
15607
331
15608
331
15610
331
15611
331
15680
331
15681
331
15689
331
1568A
331
15692
331
15693
331
1569B
331
1569C
331
156A4
331
156A5
331
156AD
331
156AE
331
154FC
331
154FD
331
15506
331
15507
331
1550F
331
15510
331
15518
331
15519
331
15521
331
15522
331
1552A
331
1552B
331
15533
331
15534
331
1553E
331
1553F
331
15549
331
1554A
331
15553
331
15554
331
1555E
331
1555F
331
15567
331
15568
331
1557F
331
15580
331
15588
331
15589
331
15592
331
15593
331
1559B
331
1559C
331
155A4
331
155A5
331
155AD
331
155AE
331
155B6
331
155B7
331
155E3
331
155E4
331
155EC
331
155ED
331
155F5
331
155F6
102
}
  0
BLOCK_RECORD
  5
14A44
330
7466
100
AcDbSymbolTableRecord
100
AcDbBlockTableRecord
  2
*D1
340
0
  0
BLOCK_RECORD
  5
14A51
330
7466
100
AcDbSymbolTableRecord
100
AcDbBlockTableRecord
  2
*D2
340
0
  0
BLOCK_RECORD
  5
14A5E
330
7466
100
AcDbSymbolTableRecord
100
AcDbBlockTableRecord
  2
*D3
340
0
  0
BLOCK_RECORD
  5
14A6A
330
7466
100
AcDbSymbolTableRecord
100
AcDbBlockTableRecord
  2
*D4
340
0
  0
BLOCK_RECORD
  5
14A76
330
7466
100
AcDbSymbolTableRecord
100
AcDbBlockTableRecord
  2
*D5
340
0
  0
BLOCK_RECORD
  5
14A82
330
7466
100
AcDbSymbolTableRecord
100
AcDbBlockTableRecord
  2
*D6
340
0
  0
BLOCK_RECORD
  5
14A8E
330
7466
100
AcDbSymbolTableRecord
100
AcDbBlockTableRecord
  2
*D7
340
0
  0
BLOCK_RECORD
  5
14A9A
330
7466
100
AcDbSymbolTableRecord
100
AcDbBlockTableRecord
  2
*D8
340
0
  0
BLOCK_RECORD
  5
14AA8
330
7466
100
AcDbSymbolTableRecord
100
AcDbBlockTableRecord
  2
*D9
340
0
  0
BLOCK_RECORD
  5
14AB6
330
7466
100
AcDbSymbolTableRecord
100
AcDbBlockTableRecord
  2
*D10
340
0
  0
BLOCK_RECORD
  5
14AC3
330
7466
100
AcDbSymbolTableRecord
100
AcDbBlockTableRecord
  2
*D11
340
0
  0
BLOCK_RECORD
  5
14CCD
330
7466
100
AcDbSymbolTableRecord
100
AcDbBlockTableRecord
  2
*D12
340
0
  0
BLOCK_RECORD
  5
14CD9
330
7466
100
AcDbSymbolTableRecord
100
AcDbBlockTableRecord
  2
*D13
340
0
  0
BLOCK_RECORD
  5
14CE3
330
7466
100
AcDbSymbolTableRecord
100
AcDbBlockTableRecord
  2
*D14
340
0
  0
BLOCK_RECORD
  5
14D13
330
7466
100
AcDbSymbolTableRecord
100
AcDbBlockTableRecord
  2
*D15
340
0
  0
BLOCK_RECORD
  5
14D20
330
7466
100
AcDbSymbolTableRecord
100
AcDbBlockTableRecord
  2
*D16
340
0
  0
BLOCK_RECORD
  5
14D2C
330
7466
100
AcDbSymbolTableRecord
100
AcDbBlockTableRecord
  2
*D17
340
0
  0
BLOCK_RECORD
  5
14DE1
330
7466
100
AcDbSymbolTableRecord
100
AcDbBlockTableRecord
  2
*D18
340
0
  0
BLOCK_RECORD
  5
14DED
330
7466
100
AcDbSymbolTableRecord
100
AcDbBlockTableRecord
  2
*D19
340
0
  0
BLOCK_RECORD
  5
14DF9
330
7466
100
AcDbSymbolTableRecord
100
AcDbBlockTableRecord
  2
*D20
340
0
  0
BLOCK_RECORD
  5
14E05
330
7466
100
AcDbSymbolTableRecord
100
AcDbBlockTableRecord
  2
*D21
340
0
  0
BLOCK_RECORD
  5
14E11
330
7466
100
AcDbSymbolTableRecord
100
AcDbBlockTableRecord
  2
*D22
340
0
  0
BLOCK_RECORD
  5
14E1D
330
7466
100
AcDbSymbolTableRecord
100
AcDbBlockTableRecord
  2
*D23
340
0
  0
BLOCK_RECORD
  5
14E29
330
7466
100
AcDbSymbolTableRecord
100
AcDbBlockTableRecord
  2
*D24
340
0
  0
BLOCK_RECORD
  5
14E35
330
7466
100
AcDbSymbolTableRecord
100
AcDbBlockTableRecord
  2
*D25
340
0
  0
BLOCK_RECORD
  5
14E41
330
7466
100
AcDbSymbolTableRecord
100
AcDbBlockTableRecord
  2
*D26
340
0
  0
BLOCK_RECORD
  5
14E4D
330
7466
100
AcDbSymbolTableRecord
100
AcDbBlockTableRecord
  2
*D27
340
0
  0
BLOCK_RECORD
  5
14E59
330
7466
100
AcDbSymbolTableRecord
100
AcDbBlockTableRecord
  2
*D28
340
0
  0
BLOCK_RECORD
  5
14E65
330
7466
100
AcDbSymbolTableRecord
100
AcDbBlockTableRecord
  2
*D29
340
0
  0
BLOCK_RECORD
  5
14E71
330
7466
100
AcDbSymbolTableRecord
100
AcDbBlockTableRecord
  2
*D30
340
0
  0
BLOCK_RECORD
  5
14E7D
330
7466
100
AcDbSymbolTableRecord
100
AcDbBlockTableRecord
  2
*D31
340
0
  0
BLOCK_RECORD
  5
15664
330
7466
100
AcDbSymbolTableRecord
100
AcDbBlockTableRecord
  2
*D32
340
0
  0
BLOCK_RECORD
  5
15671
330
7466
100
AcDbSymbolTableRecord
100
AcDbBlockTableRecord
  2
*D33
340
0
  0
ENDTAB
  0
ENDSEC
  0
SECTION
  2
BLOCKS
  0
BLOCK
  5
7489
330
747D
100
AcDbEntity
  8
0
100
AcDbBlockBegin
  2
*MODEL_SPACE
 70
     0
 10
0.0
 20
0.0
 30
0.0
  3
*MODEL_SPACE
  1

  0
ENDBLK
  5
748A
330
747D
100
AcDbEntity
  8
0
100
AcDbBlockEnd
  0
BLOCK
  5
7487
330
747A
100
AcDbEntity
 67
     1
  8
0
100
AcDbBlockBegin
  2
*PAPER_SPACE
 70
     0
 10
0.0
 20
0.0
 30
0.0
  3
*PAPER_SPACE
  1

  0
ENDBLK
  5
7488
330
747A
100
AcDbEntity
 67
     1
  8
0
100
AcDbBlockEnd
  0
BLOCK
  5
F771
330
F770
100
AcDbEntity
  8
0
 48
50.0
100
AcDbBlockBegin
  2
_DOTSMALL
 70
     0
 10
0.0
 20
0.0
 30
0.0
  3
_DOTSMALL
  1

  0
LWPOLYLINE
  5
F772
330
F770
100
AcDbEntity
  8
0
  6
ByBlock
 62
     0
 48
50.0
100
AcDbPolyline
 90
        2
 70
     1
 43
0.5
 10
-0.0625
 20
0.0
 42
1.0
 10
0.0625
 20
0.0
 42
1.0
  0
ENDBLK
  5
F776
330
F770
100
AcDbEntity
  8
0
 48
50.0
100
AcDbBlockEnd
  0
BLOCK
  5
14A45
330
14A44
100
AcDbEntity
  8
0
 48
50.0
100
AcDbBlockBegin
  2
*D1
 70
     1
 10
0.0
 20
0.0
 30
0.0
  3
*D1
  1

  0
LINE
  5
154F8
330
14A44
100
AcDbEntity
  8
寸法
 62
     0
 48
50.0
370
    -2
100
AcDbLine
 10
8592.372610616433
 20
3924.725946420286
 30
0.0
 11
8411.791483514527
 21
3924.725946420286
 31
0.0
  0
LINE
  5
154F9
330
14A44
100
AcDbEntity
  8
寸法
 62
     0
 48
50.0
370
    -2
100
AcDbLine
 10
8592.372610616433
 20
4024.725946420285
 30
0.0
 11
8411.791483514527
 21
4024.725946420285
 31
0.0
  0
LINE
  5
154FA
330
14A44
100
AcDbEntity
  8
寸法
 62
     0
 48
50.0
370
    -2
100
AcDbLine
 10
8456.791483514527
 20
3924.725946420286
 30
0.0
 11
8456.791483514527
 21
4024.725946420285
 31
0.0
  0
LINE
  5
154FB
330
14A44
100
AcDbEntity
  8
寸法
 62
     0
 48
50.0
370
    -2
100
AcDbLine
 10
8456.791483514527
 20
4024.725946420285
 30
0.0
 11
8456.791483514528
 21
4303.796812562059
 31
0.0
  0
INSERT
  5
154FC
330
14A44
100
AcDbEntity
  8
寸法
 62
     0
 48
50.0
370
    -2
100
AcDbBlockReference
  2
_DOTSMALL
 10
8456.791483514527
 20
3924.725946420286
 30
0.0
 41
75.0
 42
75.0
 43
75.0
 50
270.0
  0
INSERT
  5
154FD
330
14A44
100
AcDbEntity
  8
寸法
 62
     0
 48
50.0
370
    -2
100
AcDbBlockReference
  2
_DOTSMALL
 10
8456.791483514527
 20
4024.725946420285
 30
0.0
 41
75.0
 42
75.0
 43
75.0
 50
90.0
  0
MTEXT
  5
154FE
330
14A44
100
AcDbEntity
  8
寸法
 62
     7
 48
50.0
100
AcDbMText
 10
8381.791483514527
 20
4201.761379491194
 30
0.0
 40
90.0
 41
0.0
 71
     5
 72
     1
  1
\A1;100
  7
STYLE1
 11
0.0000000000000001
 21
1.0
 31
0.0
 73
     1
 44
1.0
1001
ACAD
1000
MTEXTBEGIN
1070
    73
1070
     1
1070
    44
1040
1.0
1070
    74
1070
     0
1000
MTEXTEND
  0
POINT
  5
154FF
330
14A44
100
AcDbEntity
  8
DEFPOINTS
 62
     0
 48
50.0
100
AcDbPoint
 10
8607.372610616433
 20
3924.725946420286
 30
0.0
  0
POINT
  5
15500
330
14A44
100
AcDbEntity
  8
DEFPOINTS
 62
     0
 48
50.0
100
AcDbPoint
 10
8607.372610616433
 20
4024.725946420285
 30
0.0
  0
POINT
  5
15501
330
14A44
100
AcDbEntity
  8
DEFPOINTS
 62
     0
 48
50.0
100
AcDbPoint
 10
8456.791483514527
 20
4024.725946420285
 30
0.0
  0
ENDBLK
  5
14A46
330
14A44
100
AcDbEntity
  8
0
 48
50.0
100
AcDbBlockEnd
  0
BLOCK
  5
14A52
330
14A51
100
AcDbEntity
  8
0
 48
50.0
100
AcDbBlockBegin
  2
*D2
 70
     1
 10
0.0
 20
0.0
 30
0.0
  3
*D2
  1

  0
LINE
  5
15502
330
14A51
100
AcDbEntity
  8
寸法
 62
     0
 48
50.0
370
    -2
100
AcDbLine
 10
8592.372610616433
 20
3924.725946420286
 30
0.0
 11
8411.791483514527
 21
3924.725946420286
 31
0.0
  0
LINE
  5
15503
330
14A51
100
AcDbEntity
  8
寸法
 62
     0
 48
50.0
370
    -2
100
AcDbLine
 10
8592.372610616433
 20
3824.725946420286
 30
0.0
 11
8411.791483514527
 21
3824.725946420286
 31
0.0
  0
LINE
  5
15504
330
14A51
100
AcDbEntity
  8
寸法
 62
     0
 48
50.0
370
    -2
100
AcDbLine
 10
8456.791483514527
 20
3924.725946420286
 30
0.0
 11
8456.791483514527
 21
3824.725946420286
 31
0.0
  0
LINE
  5
15505
330
14A51
100
AcDbEntity
  8
寸法
 62
     0
 48
50.0
370
    -2
100
AcDbLine
 10
8456.791483514527
 20
3824.725946420286
 30
0.0
 11
8456.791483514527
 21
3545.655080278552
 31
0.0
  0
INSERT
  5
15506
330
14A51
100
AcDbEntity
  8
寸法
 62
     0
 48
50.0
370
    -2
100
AcDbBlockReference
  2
_DOTSMALL
 10
8456.791483514527
 20
3924.725946420286
 30
0.0
 41
75.0
 42
75.0
 43
75.0
 50
90.0
  0
INSERT
  5
15507
330
14A51
100
AcDbEntity
  8
寸法
 62
     0
 48
50.0
370
    -2
100
AcDbBlockReference
  2
_DOTSMALL
 10
8456.791483514527
 20
3824.725946420286
 30
0.0
 41
75.0
 42
75.0
 43
75.0
 50
270.0
  0
MTEXT
  5
15508
330
14A51
100
AcDbEntity
  8
寸法
 62
     7
 48
50.0
100
AcDbMText
 10
8381.791483514527
 20
3647.69051334942
 30
0.0
 40
90.0
 41
0.0
 71
     5
 72
     1
  1
\A1;100
  7
STYLE1
 11
0.0000000000000001
 21
1.0
 31
0.0
 73
     1
 44
1.0
1001
ACAD
1000
MTEXTBEGIN
1070
    73
1070
     1
1070
    44
1040
1.0
1070
    74
1070
     0
1000
MTEXTEND
  0
POINT
  5
15509
330
14A51
100
AcDbEntity
  8
DEFPOINTS
 62
     0
 48
50.0
100
AcDbPoint
 10
8607.372610616433
 20
3924.725946420286
 30
0.0
  0
POINT
  5
1550A
330
14A51
100
AcDbEntity
  8
DEFPOINTS
 62
     0
 48
50.0
100
AcDbPoint
 10
8607.372610616433
 20
3824.725946420286
 30
0.0
  0
POINT
  5
1550B
330
14A51
100
AcDbEntity
  8
DEFPOINTS
 62
     0
 48
50.0
100
AcDbPoint
 10
8456.791483514527
 20
3824.725946420286
 30
0.0
  0
ENDBLK
  5
14A53
330
14A51
100
AcDbEntity
  8
0
 48
50.0
100
AcDbBlockEnd
  0
BLOCK
  5
14A5F
330
14A5E
100
AcDbEntity
  8
0
 48
50.0
100
AcDbBlockBegin
  2
*D3
 70
     1
 10
0.0
 20
0.0
 30
0.0
  3
*D3
  1

  0
LINE
  5
1550C
330
14A5E
100
AcDbEntity
  8
寸法
 62
     0
 48
50.0
370
    -2
100
AcDbLine
 10
9107.372610616492
 20
3359.725946420285
 30
0.0
 11
9107.372610616492
 21
2888.10931677625
 31
0.0
  0
LINE
  5
1550D
330
14A5E
100
AcDbEntity
  8
寸法
 62
     0
 48
50.0
370
    -2
100
AcDbLine
 10
9632.372610616492
 20
3298.668114590406
 30
0.0
 11
9632.372610616492
 21
2888.10931677625
 31
0.0
  0
LINE
  5
1550E
330
14A5E
100
AcDbEntity
  8
寸法
 62
     0
 48
50.0
370
    -2
100
AcDbLine
 10
9107.372610616492
 20
2933.109316776251
 30
0.0
 11
9632.372610616492
 21
2933.109316776251
 31
0.0
  0
INSERT
  5
1550F
330
14A5E
100
AcDbEntity
  8
寸法
 62
     0
 48
50.0
370
    -2
100
AcDbBlockReference
  2
_DOTSMALL
 10
9107.372610616492
 20
2933.109316776251
 30
0.0
 41
75.0
 42
75.0
 43
75.0
 50
180.0
  0
INSERT
  5
15510
330
14A5E
100
AcDbEntity
  8
寸法
 62
     0
 48
50.0
370
    -2
100
AcDbBlockReference
  2
_DOTSMALL
 10
9632.372610616492
 20
2933.109316776251
 30
0.0
 41
75.0
 42
75.0
 43
75.0
  0
MTEXT
  5
15511
330
14A5E
100
AcDbEntity
  8
寸法
 62
     7
 48
50.0
100
AcDbMText
 10
9369.872610616491
 20
3008.118175043967
 30
0.0
 40
90.0
 41
0.0
 71
     5
 72
     1
  1
\A1;525
  7
STYLE1
 73
     1
 44
1.0
1001
ACAD
1000
MTEXTBEGIN
1070
    73
1070
     1
1070
    44
1040
1.0
1070
    74
1070
     0
1000
MTEXTEND
  0
POINT
  5
15512
330
14A5E
100
AcDbEntity
  8
DEFPOINTS
 62
     0
 48
50.0
100
AcDbPoint
 10
9107.372610616492
 20
3374.725946420286
 30
0.0
  0
POINT
  5
15513
330
14A5E
100
AcDbEntity
  8
DEFPOINTS
 62
     0
 48
50.0
100
AcDbPoint
 10
9632.372610616492
 20
3313.668114590406
 30
0.0
  0
POINT
  5
15514
330
14A5E
100
AcDbEntity
  8
DEFPOINTS
 62
     0
 48
50.0
100
AcDbPoint
 10
9632.372610616492
 20
2933.109316776251
 30
0.0
  0
ENDBLK
  5
14A60
330
14A5E
100
AcDbEntity
  8
0
 48
50.0
100
AcDbBlockEnd
  0
BLOCK
  5
14A6B
330
14A6A
100
AcDbEntity
  8
0
 48
50.0
100
AcDbBlockBegin
  2
*D4
 70
     1
 10
0.0
 20
0.0
 30
0.0
  3
*D4
  1

  0
LINE
  5
15515
330
14A6A
100
AcDbEntity
  8
寸法
 62
     0
 48
50.0
370
    -2
100
AcDbLine
 10
10507.37261061649
 20
3359.725946420285
 30
0.0
 11
10507.37261061649
 21
2658.023755687498
 31
0.0
  0
LINE
  5
15516
330
14A6A
100
AcDbEntity
  8
寸法
 62
     0
 48
50.0
370
    -2
100
AcDbLine
 10
9107.372610616492
 20
3359.725946420285
 30
0.0
 11
9107.372610616492
 21
2658.023755687498
 31
0.0
  0
LINE
  5
15517
330
14A6A
100
AcDbEntity
  8
寸法
 62
     0
 48
50.0
370
    -2
100
AcDbLine
 10
10507.37261061649
 20
2703.023755687498
 30
0.0
 11
9107.372610616492
 21
2703.023755687498
 31
0.0
  0
INSERT
  5
15518
330
14A6A
100
AcDbEntity
  8
寸法
 62
     0
 48
50.0
370
    -2
100
AcDbBlockReference
  2
_DOTSMALL
 10
10507.37261061649
 20
2703.023755687498
 30
0.0
 41
75.0
 42
75.0
 43
75.0
  0
INSERT
  5
15519
330
14A6A
100
AcDbEntity
  8
寸法
 62
     0
 48
50.0
370
    -2
100
AcDbBlockReference
  2
_DOTSMALL
 10
9107.372610616492
 20
2703.023755687498
 30
0.0
 41
75.0
 42
75.0
 43
75.0
 50
180.0
  0
MTEXT
  5
1551A
330
14A6A
100
AcDbEntity
  8
寸法
 62
     7
 48
50.0
100
AcDbMText
 10
9807.372610616491
 20
2778.023755687498
 30
0.0
 40
90.0
 41
0.0
 71
     5
 72
     1
  1
\A1;1400
  7
STYLE1
 73
     1
 44
1.0
1001
ACAD
1000
MTEXTBEGIN
1070
    73
1070
     1
1070
    44
1040
1.0
1070
    74
1070
     0
1000
MTEXTEND
  0
POINT
  5
1551B
330
14A6A
100
AcDbEntity
  8
DEFPOINTS
 62
     0
 48
50.0
100
AcDbPoint
 10
10507.37261061649
 20
3374.725946420286
 30
0.0
  0
POINT
  5
1551C
330
14A6A
100
AcDbEntity
  8
DEFPOINTS
 62
     0
 48
50.0
100
AcDbPoint
 10
9107.372610616492
 20
3374.725946420286
 30
0.0
  0
POINT
  5
1551D
330
14A6A
100
AcDbEntity
  8
DEFPOINTS
 62
     0
 48
50.0
100
AcDbPoint
 10
9107.372610616492
 20
2703.023755687498
 30
0.0
  0
ENDBLK
  5
14A6C
330
14A6A
100
AcDbEntity
  8
0
 48
50.0
100
AcDbBlockEnd
  0
BLOCK
  5
14A77
330
14A76
100
AcDbEntity
  8
0
 48
50.0
100
AcDbBlockBegin
  2
*D5
 70
     1
 10
0.0
 20
0.0
 30
0.0
  3
*D5
  1

  0
LINE
  5
1551E
330
14A76
100
AcDbEntity
  8
寸法
 62
     0
 48
50.0
370
    -2
100
AcDbLine
 10
9632.372610616492
 20
3298.668114590406
 30
0.0
 11
9632.372610616492
 21
2888.10931677625
 31
0.0
  0
LINE
  5
1551F
330
14A76
100
AcDbEntity
  8
寸法
 62
     0
 48
50.0
370
    -2
100
AcDbLine
 10
9982.372610616492
 20
3298.668114590406
 30
0.0
 11
9982.372610616492
 21
2888.10931677625
 31
0.0
  0
LINE
  5
15520
330
14A76
100
AcDbEntity
  8
寸法
 62
     0
 48
50.0
370
    -2
100
AcDbLine
 10
9632.372610616492
 20
2933.109316776251
 30
0.0
 11
9982.372610616492
 21
2933.109316776251
 31
0.0
  0
INSERT
  5
15521
330
14A76
100
AcDbEntity
  8
寸法
 62
     0
 48
50.0
370
    -2
100
AcDbBlockReference
  2
_DOTSMALL
 10
9632.372610616492
 20
2933.109316776251
 30
0.0
 41
75.0
 42
75.0
 43
75.0
 50
180.0
  0
INSERT
  5
15522
330
14A76
100
AcDbEntity
  8
寸法
 62
     0
 48
50.0
370
    -2
100
AcDbBlockReference
  2
_DOTSMALL
 10
9982.372610616492
 20
2933.109316776251
 30
0.0
 41
75.0
 42
75.0
 43
75.0
  0
MTEXT
  5
15523
330
14A76
100
AcDbEntity
  8
寸法
 62
     7
 48
50.0
100
AcDbMText
 10
9807.372610616491
 20
3008.109316776251
 30
0.0
 40
90.0
 41
0.0
 71
     5
 72
     1
  1
\A1;350
  7
STYLE1
 73
     1
 44
1.0
1001
ACAD
1000
MTEXTBEGIN
1070
    73
1070
     1
1070
    44
1040
1.0
1070
    74
1070
     0
1000
MTEXTEND
  0
POINT
  5
15524
330
14A76
100
AcDbEntity
  8
DEFPOINTS
 62
     0
 48
50.0
100
AcDbPoint
 10
9632.372610616492
 20
3313.668114590406
 30
0.0
  0
POINT
  5
15525
330
14A76
100
AcDbEntity
  8
DEFPOINTS
 62
     0
 48
50.0
100
AcDbPoint
 10
9982.372610616492
 20
3313.668114590406
 30
0.0
  0
POINT
  5
15526
330
14A76
100
AcDbEntity
  8
DEFPOINTS
 62
     0
 48
50.0
100
AcDbPoint
 10
9982.372610616492
 20
2933.109316776251
 30
0.0
  0
ENDBLK
  5
14A78
330
14A76
100
AcDbEntity
  8
0
 48
50.0
100
AcDbBlockEnd
  0
BLOCK
  5
14A83
330
14A82
100
AcDbEntity
  8
0
 48
50.0
100
AcDbBlockBegin
  2
*D6
 70
     1
 10
0.0
 20
0.0
 30
0.0
  3
*D6
  1

  0
LINE
  5
15527
330
14A82
100
AcDbEntity
  8
寸法
 62
     0
 48
50.0
370
    -2
100
AcDbLine
 10
10507.37261061649
 20
3359.725946420285
 30
0.0
 11
10507.37261061649
 21
2888.10931677625
 31
0.0
  0
LINE
  5
15528
330
14A82
100
AcDbEntity
  8
寸法
 62
     0
 48
50.0
370
    -2
100
AcDbLine
 10
9982.372610616492
 20
3298.668114590406
 30
0.0
 11
9982.372610616492
 21
2888.10931677625
 31
0.0
  0
LINE
  5
15529
330
14A82
100
AcDbEntity
  8
寸法
 62
     0
 48
50.0
370
    -2
100
AcDbLine
 10
10507.37261061649
 20
2933.109316776251
 30
0.0
 11
9982.372610616492
 21
2933.109316776251
 31
0.0
  0
INSERT
  5
1552A
330
14A82
100
AcDbEntity
  8
寸法
 62
     0
 48
50.0
370
    -2
100
AcDbBlockReference
  2
_DOTSMALL
 10
10507.37261061649
 20
2933.109316776251
 30
0.0
 41
75.0
 42
75.0
 43
75.0
  0
INSERT
  5
1552B
330
14A82
100
AcDbEntity
  8
寸法
 62
     0
 48
50.0
370
    -2
100
AcDbBlockReference
  2
_DOTSMALL
 10
9982.372610616492
 20
2933.109316776251
 30
0.0
 41
75.0
 42
75.0
 43
75.0
 50
180.0
  0
MTEXT
  5
1552C
330
14A82
100
AcDbEntity
  8
寸法
 62
     7
 48
50.0
100
AcDbMText
 10
10244.87261061649
 20
3008.118175043967
 30
0.0
 40
90.0
 41
0.0
 71
     5
 72
     1
  1
\A1;525
  7
STYLE1
 73
     1
 44
1.0
1001
ACAD
1000
MTEXTBEGIN
1070
    73
1070
     1
1070
    44
1040
1.0
1070
    74
1070
     0
1000
MTEXTEND
  0
POINT
  5
1552D
330
14A82
100
AcDbEntity
  8
DEFPOINTS
 62
     0
 48
50.0
100
AcDbPoint
 10
10507.37261061649
 20
3374.725946420286
 30
0.0
  0
POINT
  5
1552E
330
14A82
100
AcDbEntity
  8
DEFPOINTS
 62
     0
 48
50.0
100
AcDbPoint
 10
9982.372610616492
 20
3313.668114590406
 30
0.0
  0
POINT
  5
1552F
330
14A82
100
AcDbEntity
  8
DEFPOINTS
 62
     0
 48
50.0
100
AcDbPoint
 10
9982.372610616492
 20
2933.109316776251
 30
0.0
  0
ENDBLK
  5
14A84
330
14A82
100
AcDbEntity
  8
0
 48
50.0
100
AcDbBlockEnd
  0
BLOCK
  5
14A8F
330
14A8E
100
AcDbEntity
  8
0
 48
50.0
100
AcDbBlockBegin
  2
*D7
 70
     1
 10
0.0
 20
0.0
 30
0.0
  3
*D7
  1

  0
LINE
  5
15530
330
14A8E
100
AcDbEntity
  8
寸法
 62
     0
 48
50.0
370
    -2
100
AcDbLine
 10
11087.17048818
 20
3974.725946420285
 30
0.0
 11
11344.81397521722
 21
3974.725946420285
 31
0.0
  0
LINE
  5
15531
330
14A8E
100
AcDbEntity
  8
寸法
 62
     0
 48
50.0
370
    -2
100
AcDbLine
 10
10602.37261061649
 20
3374.725946420286
 30
0.0
 11
11344.81397521722
 21
3374.725946420285
 31
0.0
  0
LINE
  5
15532
330
14A8E
100
AcDbEntity
  8
寸法
 62
     0
 48
50.0
370
    -2
100
AcDbLine
 10
11299.81397521722
 20
3974.725946420285
 30
0.0
 11
11299.81397521722
 21
3374.725946420285
 31
0.0
  0
INSERT
  5
15533
330
14A8E
100
AcDbEntity
  8
寸法
 62
     0
 48
50.0
370
    -2
100
AcDbBlockReference
  2
_DOTSMALL
 10
11299.81397521722
 20
3974.725946420285
 30
0.0
 41
75.0
 42
75.0
 43
75.0
 50
90.0
  0
INSERT
  5
15534
330
14A8E
100
AcDbEntity
  8
寸法
 62
     0
 48
50.0
370
    -2
100
AcDbBlockReference
  2
_DOTSMALL
 10
11299.81397521722
 20
3374.725946420285
 30
0.0
 41
75.0
 42
75.0
 43
75.0
 50
270.0
  0
MTEXT
  5
15535
330
14A8E
100
AcDbEntity
  8
寸法
 62
     7
 48
50.0
100
AcDbMText
 10
11224.81397521722
 20
3674.725946420287
 30
0.0
 40
90.0
 41
0.0
 71
     5
 72
     1
  1
\A1;600
  7
STYLE1
 11
0.0000000000000001
 21
1.0
 31
0.0
 73
     1
 44
1.0
1001
ACAD
1000
MTEXTBEGIN
1070
    73
1070
     1
1070
    44
1040
1.0
1070
    74
1070
     0
1000
MTEXTEND
  0
POINT
  5
15536
330
14A8E
100
AcDbEntity
  8
DEFPOINTS
 62
     0
 48
50.0
100
AcDbPoint
 10
11072.17048818
 20
3974.725946420285
 30
0.0
  0
POINT
  5
15537
330
14A8E
100
AcDbEntity
  8
DEFPOINTS
 62
     0
 48
50.0
100
AcDbPoint
 10
10587.37261061649
 20
3374.725946420286
 30
0.0
  0
POINT
  5
15538
330
14A8E
100
AcDbEntity
  8
DEFPOINTS
 62
     0
 48
50.0
100
AcDbPoint
 10
11299.81397521722
 20
3374.725946420285
 30
0.0
  0
ENDBLK
  5
14A90
330
14A8E
100
AcDbEntity
  8
0
 48
50.0
100
AcDbBlockEnd
  0
BLOCK
  5
14A9B
330
14A9A
100
AcDbEntity
  8
0
 48
50.0
100
AcDbBlockBegin
  2
*D8
 70
     1
 10
0.0
 20
0.0
 30
0.0
  3
*D8
  1

  0
LINE
  5
15539
330
14A9A
100
AcDbEntity
  8
寸法
 62
     0
 48
50.0
370
    -2
100
AcDbLine
 10
11022.37261061649
 20
3974.725946420285
 30
0.0
 11
11344.81397521722
 21
3974.725946420285
 31
0.0
  0
LINE
  5
1553A
330
14A9A
100
AcDbEntity
  8
寸法
 62
     0
 48
50.0
370
    -2
100
AcDbLine
 10
11022.37261061655
 20
4024.725946420285
 30
0.0
 11
11344.81397521722
 21
4024.725946420285
 31
0.0
  0
LINE
  5
1553B
330
14A9A
100
AcDbEntity
  8
寸法
 62
     0
 48
50.0
370
    -2
100
AcDbLine
 10
11299.81397521722
 20
3974.725946420285
 30
0.0
 11
11299.81397521722
 21
3899.725946420285
 31
0.0
  0
LINE
  5
1553C
330
14A9A
100
AcDbEntity
  8
寸法
 62
     0
 48
50.0
370
    -2
100
AcDbLine
 10
11299.81397521722
 20
4024.725946420285
 30
0.0
 11
11299.81397521722
 21
4333.796812562058
 31
0.0
  0
LINE
  5
1553D
330
14A9A
100
AcDbEntity
  8
寸法
 62
     0
 48
50.0
370
    -2
100
AcDbLine
 10
11299.81397521722
 20
3974.725946420285
 30
0.0
 11
11299.81397521722
 21
4024.725946420285
 31
0.0
  0
INSERT
  5
1553E
330
14A9A
100
AcDbEntity
  8
寸法
 62
     0
 48
50.0
370
    -2
100
AcDbBlockReference
  2
_DOTSMALL
 10
11299.81397521722
 20
3974.725946420285
 30
0.0
 41
75.0
 42
75.0
 43
75.0
 50
90.0
  0
INSERT
  5
1553F
330
14A9A
100
AcDbEntity
  8
寸法
 62
     0
 48
50.0
370
    -2
100
AcDbBlockReference
  2
_DOTSMALL
 10
11299.81397521722
 20
4024.725946420285
 30
0.0
 41
75.0
 42
75.0
 43
75.0
 50
270.0
  0
MTEXT
  5
15540
330
14A9A
100
AcDbEntity
  8
寸法
 62
     7
 48
50.0
100
AcDbMText
 10
11224.81397521722
 20
4254.261379491194
 30
0.0
 40
90.0
 41
0.0
 71
     5
 72
     1
  1
\A1;50
  7
STYLE1
 11
0.0000000000000001
 21
1.0
 31
0.0
 73
     1
 44
1.0
1001
ACAD
1000
MTEXTBEGIN
1070
    73
1070
     1
1070
    44
1040
1.0
1070
    74
1070
     0
1000
MTEXTEND
  0
POINT
  5
15541
330
14A9A
100
AcDbEntity
  8
DEFPOINTS
 62
     0
 48
50.0
100
AcDbPoint
 10
11007.37261061649
 20
3974.725946420285
 30
0.0
  0
POINT
  5
15542
330
14A9A
100
AcDbEntity
  8
DEFPOINTS
 62
     0
 48
50.0
100
AcDbPoint
 10
11007.37261061655
 20
4024.725946420285
 30
0.0
  0
POINT
  5
15543
330
14A9A
100
AcDbEntity
  8
DEFPOINTS
 62
     0
 48
50.0
100
AcDbPoint
 10
11299.81397521722
 20
4024.725946420285
 30
0.0
  0
ENDBLK
  5
14A9C
330
14A9A
100
AcDbEntity
  8
0
 48
50.0
100
AcDbBlockEnd
  0
BLOCK
  5
14AA9
330
14AA8
100
AcDbEntity
  8
0
 48
50.0
100
AcDbBlockBegin
  2
*D9
 70
     1
 10
0.0
 20
0.0
 30
0.0
  3
*D9
  1

  0
LINE
  5
15544
330
14AA8
100
AcDbEntity
  8
寸法
 62
     0
 48
50.0
370
    -2
100
AcDbLine
 10
10602.37261061649
 20
3374.725946420286
 30
0.0
 11
11344.81397521722
 21
3374.725946420285
 31
0.0
  0
LINE
  5
15545
330
14AA8
100
AcDbEntity
  8
寸法
 62
     0
 48
50.0
370
    -2
100
AcDbLine
 10
10602.37261061649
 20
3324.725946420286
 30
0.0
 11
11344.81397521722
 21
3324.725946420285
 31
0.0
  0
LINE
  5
15546
330
14AA8
100
AcDbEntity
  8
寸法
 62
     0
 48
50.0
370
    -2
100
AcDbLine
 10
11299.81397521722
 20
3374.725946420285
 30
0.0
 11
11299.81397521722
 21
3449.725946420285
 31
0.0
  0
LINE
  5
15547
330
14AA8
100
AcDbEntity
  8
寸法
 62
     0
 48
50.0
370
    -2
100
AcDbLine
 10
11299.81397521722
 20
3324.725946420285
 30
0.0
 11
11299.81397521722
 21
3015.655080278552
 31
0.0
  0
LINE
  5
15548
330
14AA8
100
AcDbEntity
  8
寸法
 62
     0
 48
50.0
370
    -2
100
AcDbLine
 10
11299.81397521722
 20
3374.725946420285
 30
0.0
 11
11299.81397521722
 21
3324.725946420285
 31
0.0
  0
INSERT
  5
15549
330
14AA8
100
AcDbEntity
  8
寸法
 62
     0
 48
50.0
370
    -2
100
AcDbBlockReference
  2
_DOTSMALL
 10
11299.81397521722
 20
3374.725946420285
 30
0.0
 41
75.0
 42
75.0
 43
75.0
 50
270.0
  0
INSERT
  5
1554A
330
14AA8
100
AcDbEntity
  8
寸法
 62
     0
 48
50.0
370
    -2
100
AcDbBlockReference
  2
_DOTSMALL
 10
11299.81397521722
 20
3324.725946420285
 30
0.0
 41
75.0
 42
75.0
 43
75.0
 50
90.0
  0
MTEXT
  5
1554B
330
14AA8
100
AcDbEntity
  8
寸法
 62
     7
 48
50.0
100
AcDbMText
 10
11224.81397521722
 20
3095.190513349421
 30
0.0
 40
90.0
 41
0.0
 71
     5
 72
     1
  1
\A1;50
  7
STYLE1
 11
0.0000000000000001
 21
1.0
 31
0.0
 73
     1
 44
1.0
1001
ACAD
1000
MTEXTBEGIN
1070
    73
1070
     1
1070
    44
1040
1.0
1070
    74
1070
     0
1000
MTEXTEND
  0
POINT
  5
1554C
330
14AA8
100
AcDbEntity
  8
DEFPOINTS
 62
     0
 48
50.0
100
AcDbPoint
 10
10587.37261061649
 20
3374.725946420286
 30
0.0
  0
POINT
  5
1554D
330
14AA8
100
AcDbEntity
  8
DEFPOINTS
 62
     0
 48
50.0
100
AcDbPoint
 10
10587.37261061649
 20
3324.725946420286
 30
0.0
  0
POINT
  5
1554E
330
14AA8
100
AcDbEntity
  8
DEFPOINTS
 62
     0
 48
50.0
100
AcDbPoint
 10
11299.81397521722
 20
3324.725946420285
 30
0.0
  0
ENDBLK
  5
14AAA
330
14AA8
100
AcDbEntity
  8
0
 48
50.0
100
AcDbBlockEnd
  0
BLOCK
  5
14AB7
330
14AB6
100
AcDbEntity
  8
0
 48
50.0
100
AcDbBlockBegin
  2
*D10
 70
     1
 10
0.0
 20
0.0
 30
0.0
  3
*D10
  1

  0
LINE
  5
1554F
330
14AB6
100
AcDbEntity
  8
寸法
 62
     0
 48
50.0
370
    -2
100
AcDbLine
 10
9029.191419531235
 20
3824.725946420271
 30
0.0
 11
8641.696314851513
 21
3824.725946420271
 31
0.0
  0
LINE
  5
15550
330
14AB6
100
AcDbEntity
  8
寸法
 62
     0
 48
50.0
370
    -2
100
AcDbLine
 10
9511.37261061649
 20
3884.725946420271
 30
0.0
 11
8641.696314851513
 21
3884.725946420271
 31
0.0
  0
LINE
  5
15551
330
14AB6
100
AcDbEntity
  8
寸法
 62
     0
 48
50.0
370
    -2
100
AcDbLine
 10
8686.696314851515
 20
3884.725946420271
 30
0.0
 11
8686.696314851515
 21
3824.725946420271
 31
0.0
  0
LINE
  5
15552
330
14AB6
100
AcDbEntity
  8
寸法
 62
     0
 48
50.0
370
    -2
100
AcDbLine
 10
8686.696314851515
 20
3824.725946420271
 30
0.0
 11
8686.696314851515
 21
3585.269253506885
 31
0.0
  0
INSERT
  5
15553
330
14AB6
100
AcDbEntity
  8
寸法
 62
     0
 48
50.0
370
    -2
100
AcDbBlockReference
  2
_DOTSMALL
 10
8686.696314851515
 20
3884.725946420271
 30
0.0
 41
75.0
 42
75.0
 43
75.0
 50
90.0
  0
INSERT
  5
15554
330
14AB6
100
AcDbEntity
  8
寸法
 62
     0
 48
50.0
370
    -2
100
AcDbBlockReference
  2
_DOTSMALL
 10
8686.696314851515
 20
3824.725946420271
 30
0.0
 41
75.0
 42
75.0
 43
75.0
 50
270.0
  0
MTEXT
  5
15555
330
14AB6
100
AcDbEntity
  8
寸法
 62
     7
 48
50.0
100
AcDbMText
 10
8611.696314851513
 20
3667.497599963579
 30
0.0
 40
90.0
 41
0.0
 71
     5
 72
     1
  1
\A1;60
  7
STYLE1
 11
0.0000000000000001
 21
1.0
 31
0.0
 73
     1
 44
1.0
1001
ACAD
1000
MTEXTBEGIN
1070
    73
1070
     1
1070
    44
1040
1.0
1070
    74
1070
     0
1000
MTEXTEND
  0
POINT
  5
15556
330
14AB6
100
AcDbEntity
  8
DEFPOINTS
 62
     0
 48
50.0
100
AcDbPoint
 10
9044.191419531236
 20
3824.725946420271
 30
0.0
  0
POINT
  5
15557
330
14AB6
100
AcDbEntity
  8
DEFPOINTS
 62
     0
 48
50.0
100
AcDbPoint
 10
9526.37261061649
 20
3884.725946420271
 30
0.0
  0
POINT
  5
15558
330
14AB6
100
AcDbEntity
  8
DEFPOINTS
 62
     0
 48
50.0
100
AcDbPoint
 10
8686.696314851515
 20
3884.725946420271
 30
0.0
  0
ENDBLK
  5
14AB8
330
14AB6
100
AcDbEntity
  8
0
 48
50.0
100
AcDbBlockEnd
  0
BLOCK
  5
14AC4
330
14AC3
100
AcDbEntity
  8
0
 48
50.0
100
AcDbBlockBegin
  2
*D11
 70
     1
 10
0.0
 20
0.0
 30
0.0
  3
*D11
  1

  0
LINE
  5
15559
330
14AC3
100
AcDbEntity
  8
寸法
 62
     0
 48
50.0
370
    -2
100
AcDbLine
 10
9029.191419531235
 20
3824.725946420271
 30
0.0
 11
8841.872218244818
 21
3824.725946420271
 31
0.0
  0
LINE
  5
1555A
330
14AC3
100
AcDbEntity
  8
寸法
 62
     0
 48
50.0
370
    -2
100
AcDbLine
 10
9477.372610616489
 20
3854.725946420285
 30
0.0
 11
8841.872218244818
 21
3854.725946420286
 31
0.0
  0
LINE
  5
1555B
330
14AC3
100
AcDbEntity
  8
寸法
 62
     0
 48
50.0
370
    -2
100
AcDbLine
 10
8886.872218244818
 20
3854.725946420286
 30
0.0
 11
8886.872218244818
 21
3929.725946420286
 31
0.0
  0
LINE
  5
1555C
330
14AC3
100
AcDbEntity
  8
寸法
 62
     0
 48
50.0
370
    -2
100
AcDbLine
 10
8886.872218244818
 20
3824.725946420271
 30
0.0
 11
8886.872218244818
 21
3515.655080278538
 31
0.0
  0
LINE
  5
1555D
330
14AC3
100
AcDbEntity
  8
寸法
 62
     0
 48
50.0
370
    -2
100
AcDbLine
 10
8886.872218244818
 20
3854.725946420286
 30
0.0
 11
8886.872218244818
 21
3824.725946420271
 31
0.0
  0
INSERT
  5
1555E
330
14AC3
100
AcDbEntity
  8
寸法
 62
     0
 48
50.0
370
    -2
100
AcDbBlockReference
  2
_DOTSMALL
 10
8886.872218244818
 20
3854.725946420286
 30
0.0
 41
75.0
 42
75.0
 43
75.0
 50
270.0
  0
INSERT
  5
1555F
330
14AC3
100
AcDbEntity
  8
寸法
 62
     0
 48
50.0
370
    -2
100
AcDbBlockReference
  2
_DOTSMALL
 10
8886.872218244818
 20
3824.725946420271
 30
0.0
 41
75.0
 42
75.0
 43
75.0
 50
90.0
  0
MTEXT
  5
15560
330
14AC3
100
AcDbEntity
  8
寸法
 62
     7
 48
50.0
100
AcDbMText
 10
8811.872218244818
 20
3595.190513349406
 30
0.0
 40
90.0
 41
0.0
 71
     5
 72
     1
  1
\A1;30
  7
STYLE1
 11
0.0000000000000001
 21
1.0
 31
0.0
 73
     1
 44
1.0
1001
ACAD
1000
MTEXTBEGIN
1070
    73
1070
     1
1070
    44
1040
1.0
1070
    74
1070
     0
1000
MTEXTEND
  0
POINT
  5
15561
330
14AC3
100
AcDbEntity
  8
DEFPOINTS
 62
     0
 48
50.0
100
AcDbPoint
 10
9044.191419531236
 20
3824.725946420271
 30
0.0
  0
POINT
  5
15562
330
14AC3
100
AcDbEntity
  8
DEFPOINTS
 62
     0
 48
50.0
100
AcDbPoint
 10
9492.37261061649
 20
3854.725946420285
 30
0.0
  0
POINT
  5
15563
330
14AC3
100
AcDbEntity
  8
DEFPOINTS
 62
     0
 48
50.0
100
AcDbPoint
 10
8886.872218244818
 20
3854.725946420286
 30
0.0
  0
ENDBLK
  5
14AC5
330
14AC3
100
AcDbEntity
  8
0
 48
50.0
100
AcDbBlockEnd
  0
BLOCK
  5
14CCE
330
14CCD
100
AcDbEntity
  8
0
 48
50.0
100
AcDbBlockBegin
  2
*D12
 70
     1
 10
0.0
 20
0.0
 30
0.0
  3
*D12
  1

  0
LINE
  5
15564
330
14CCD
100
AcDbEntity
  8
寸法
 62
     0
 48
50.0
370
    -2
100
AcDbLine
 10
1180.129866693634
 20
1847.669257607727
 30
0.0
 11
1180.129866693634
 21
1352.681539271196
 31
0.0
  0
LINE
  5
15565
330
14CCD
100
AcDbEntity
  8
寸法
 62
     0
 48
50.0
370
    -2
100
AcDbLine
 10
7240.129866693518
 20
1847.669257607742
 30
0.0
 11
7240.129866693518
 21
1352.681539271196
 31
0.0
  0
LINE
  5
15566
330
14CCD
100
AcDbEntity
  8
寸法
 62
     0
 48
50.0
370
    -2
100
AcDbLine
 10
1180.129866693634
 20
1397.681539271196
 30
0.0
 11
7240.129866693518
 21
1397.681539271196
 31
0.0
  0
INSERT
  5
15567
330
14CCD
100
AcDbEntity
  8
寸法
 62
     0
 48
50.0
370
    -2
100
AcDbBlockReference
  2
_DOTSMALL
 10
1180.129866693634
 20
1397.681539271196
 30
0.0
 41
75.0
 42
75.0
 43
75.0
 50
180.0
  0
INSERT
  5
15568
330
14CCD
100
AcDbEntity
  8
寸法
 62
     0
 48
50.0
370
    -2
100
AcDbBlockReference
  2
_DOTSMALL
 10
7240.129866693518
 20
1397.681539271196
 30
0.0
 41
75.0
 42
75.0
 43
75.0
  0
MTEXT
  5
15569
330
14CCD
100
AcDbEntity
  8
寸法
 62
     7
 48
50.0
100
AcDbMText
 10
4210.129866693576
 20
1472.681539271196
 30
0.0
 40
90.0
 41
0.0
 71
     5
 72
     1
  1
\A1;屋根寸法 6060
  7
STYLE1
 73
     1
 44
1.0
1001
ACAD
1000
MTEXTBEGIN
1070
    73
1070
     1
1070
    44
1040
1.0
1070
    74
1070
     0
1000
MTEXTEND
  0
POINT
  5
1556A
330
14CCD
100
AcDbEntity
  8
DEFPOINTS
 62
     0
 48
50.0
100
AcDbPoint
 10
1180.129866693634
 20
1862.669257607727
 30
0.0
  0
POINT
  5
1556B
330
14CCD
100
AcDbEntity
  8
DEFPOINTS
 62
     0
 48
50.0
100
AcDbPoint
 10
7240.129866693518
 20
1862.669257607742
 30
0.0
  0
POINT
  5
1556C
330
14CCD
100
AcDbEntity
  8
DEFPOINTS
 62
     0
 48
50.0
100
AcDbPoint
 10
7240.129866693518
 20
1397.681539271196
 30
0.0
  0
ENDBLK
  5
14CCF
330
14CCD
100
AcDbEntity
  8
0
 48
50.0
100
AcDbBlockEnd
  0
BLOCK
  5
14CDA
330
14CD9
100
AcDbEntity
  8
0
 48
50.0
100
AcDbBlockBegin
  2
*D13
 70
     1
 10
0.0
 20
0.0
 30
0.0
  3
*D13
  1

  0
LINE
  5
1556D
330
14CD9
100
AcDbEntity
  8
寸法
 62
     0
 48
50.0
370
    -2
100
AcDbLine
 10
1180.129866693634
 20
1847.669257607727
 30
0.0
 11
1180.129866693634
 21
1352.681539271196
 31
0.0
  0
LINE
  5
1556E
330
14CD9
100
AcDbEntity
  8
寸法
 62
     0
 48
50.0
370
    -2
100
AcDbLine
 10
1010.129866693576
 20
1711.169257607742
 30
0.0
 11
1010.129866693576
 21
1352.681539271196
 31
0.0
  0
LINE
  5
1556F
330
14CD9
100
AcDbEntity
  8
寸法
 62
     0
 48
50.0
370
    -2
100
AcDbLine
 10
1180.129866693634
 20
1397.681539271196
 30
0.0
 11
1010.129866693576
 21
1397.681539271196
 31
0.0
  0
MTEXT
  5
15570
330
14CD9
100
AcDbEntity
  8
寸法
 62
     7
 48
50.0
100
AcDbMText
 10
1095.129866693605
 20
1472.681539271196
 30
0.0
 40
90.0
 41
0.0
 71
     5
 72
     1
  1
\A1;170
  7
STYLE1
 73
     1
 44
1.0
1001
ACAD
1000
MTEXTBEGIN
1070
    73
1070
     1
1070
    44
1040
1.0
1070
    74
1070
     0
1000
MTEXTEND
  0
POINT
  5
15571
330
14CD9
100
AcDbEntity
  8
DEFPOINTS
 62
     0
 48
50.0
100
AcDbPoint
 10
1180.129866693634
 20
1862.669257607727
 30
0.0
  0
POINT
  5
15572
330
14CD9
100
AcDbEntity
  8
DEFPOINTS
 62
     0
 48
50.0
100
AcDbPoint
 10
1010.129866693576
 20
1726.169257607742
 30
0.0
  0
POINT
  5
15573
330
14CD9
100
AcDbEntity
  8
DEFPOINTS
 62
     0
 48
50.0
100
AcDbPoint
 10
1010.129866693576
 20
1397.681539271196
 30
0.0
  0
ENDBLK
  5
14CDB
330
14CD9
100
AcDbEntity
  8
0
 48
50.0
100
AcDbBlockEnd
  0
BLOCK
  5
14CE4
330
14CE3
100
AcDbEntity
  8
0
 48
50.0
100
AcDbBlockBegin
  2
*D14
 70
     1
 10
0.0
 20
0.0
 30
0.0
  3
*D14
  1

  0
LINE
  5
15574
330
14CE3
100
AcDbEntity
  8
寸法
 62
     0
 48
50.0
370
    -2
100
AcDbLine
 10
7240.129866693518
 20
1847.669257607742
 30
0.0
 11
7240.129866693518
 21
1352.681539271196
 31
0.0
  0
LINE
  5
15575
330
14CE3
100
AcDbEntity
  8
寸法
 62
     0
 48
50.0
370
    -2
100
AcDbLine
 10
7410.129866693576
 20
1711.169257607742
 30
0.0
 11
7410.129866693576
 21
1352.681539271196
 31
0.0
  0
LINE
  5
15576
330
14CE3
100
AcDbEntity
  8
寸法
 62
     0
 48
50.0
370
    -2
100
AcDbLine
 10
7240.129866693518
 20
1397.681539271196
 30
0.0
 11
7410.129866693576
 21
1397.681539271196
 31
0.0
  0
MTEXT
  5
15577
330
14CE3
100
AcDbEntity
  8
寸法
 62
     7
 48
50.0
100
AcDbMText
 10
7325.129866693547
 20
1472.681539271196
 30
0.0
 40
90.0
 41
0.0
 71
     5
 72
     1
  1
\A1;170
  7
STYLE1
 73
     1
 44
1.0
1001
ACAD
1000
MTEXTBEGIN
1070
    73
1070
     1
1070
    44
1040
1.0
1070
    74
1070
     0
1000
MTEXTEND
  0
POINT
  5
15578
330
14CE3
100
AcDbEntity
  8
DEFPOINTS
 62
     0
 48
50.0
100
AcDbPoint
 10
7240.129866693518
 20
1862.669257607742
 30
0.0
  0
POINT
  5
15579
330
14CE3
100
AcDbEntity
  8
DEFPOINTS
 62
     0
 48
50.0
100
AcDbPoint
 10
7410.129866693576
 20
1726.169257607742
 30
0.0
  0
POINT
  5
1557A
330
14CE3
100
AcDbEntity
  8
DEFPOINTS
 62
     0
 48
50.0
100
AcDbPoint
 10
7410.129866693576
 20
1397.681539271196
 30
0.0
  0
ENDBLK
  5
14CE5
330
14CE3
100
AcDbEntity
  8
0
 48
50.0
100
AcDbBlockEnd
  0
BLOCK
  5
14D14
330
14D13
100
AcDbEntity
  8
0
 48
50.0
100
AcDbBlockBegin
  2
*D15
 70
     1
 10
0.0
 20
0.0
 30
0.0
  3
*D15
  1

  0
LINE
  5
1557B
330
14D13
100
AcDbEntity
  8
寸法
 62
     0
 48
50.0
370
    -2
100
AcDbLine
 10
7255.129866693518
 20
1862.669257607742
 30
0.0
 11
7837.404089057177
 21
1862.669257607742
 31
0.0
  0
LINE
  5
1557C
330
14D13
100
AcDbEntity
  8
寸法
 62
     0
 48
50.0
370
    -2
100
AcDbLine
 10
7425.129866693577
 20
1726.169257607742
 30
0.0
 11
7837.404089057177
 21
1726.169257607742
 31
0.0
  0
LINE
  5
1557D
330
14D13
100
AcDbEntity
  8
寸法
 62
     0
 48
50.0
370
    -2
100
AcDbLine
 10
7792.404089057177
 20
1862.669257607742
 30
0.0
 11
7792.404089057177
 21
1726.169257607742
 31
0.0
  0
LINE
  5
1557E
330
14D13
100
AcDbEntity
  8
寸法
 62
     0
 48
50.0
370
    -2
100
AcDbLine
 10
7792.404089057177
 20
1726.169257607742
 30
0.0
 11
7792.404089057177
 21
1353.441335546383
 31
0.0
  0
INSERT
  5
1557F
330
14D13
100
AcDbEntity
  8
寸法
 62
     0
 48
50.0
370
    -2
100
AcDbBlockReference
  2
_DOTSMALL
 10
7792.404089057177
 20
1862.669257607742
 30
0.0
 41
75.0
 42
75.0
 43
75.0
 50
90.0
  0
INSERT
  5
15580
330
14D13
100
AcDbEntity
  8
寸法
 62
     0
 48
50.0
370
    -2
100
AcDbBlockReference
  2
_DOTSMALL
 10
7792.404089057177
 20
1726.169257607742
 30
0.0
 41
75.0
 42
75.0
 43
75.0
 50
270.0
  0
MTEXT
  5
15581
330
14D13
100
AcDbEntity
  8
寸法
 62
     7
 48
50.0
100
AcDbMText
 10
7717.404089057177
 20
1502.305296577064
 30
0.0
 40
90.0
 41
0.0
 71
     5
 72
     1
  1
\A1;136.5
  7
STYLE1
 11
0.0000000000000001
 21
1.0
 31
0.0
 73
     1
 44
1.0
1001
ACAD
1000
MTEXTBEGIN
1070
    73
1070
     1
1070
    44
1040
1.0
1070
    74
1070
     0
1000
MTEXTEND
  0
POINT
  5
15582
330
14D13
100
AcDbEntity
  8
DEFPOINTS
 62
     0
 48
50.0
100
AcDbPoint
 10
7240.129866693518
 20
1862.669257607742
 30
0.0
  0
POINT
  5
15583
330
14D13
100
AcDbEntity
  8
DEFPOINTS
 62
     0
 48
50.0
100
AcDbPoint
 10
7410.129866693576
 20
1726.169257607742
 30
0.0
  0
POINT
  5
15584
330
14D13
100
AcDbEntity
  8
DEFPOINTS
 62
     0
 48
50.0
100
AcDbPoint
 10
7792.404089057177
 20
1726.169257607742
 30
0.0
  0
ENDBLK
  5
14D15
330
14D13
100
AcDbEntity
  8
0
 48
50.0
100
AcDbBlockEnd
  0
BLOCK
  5
14D21
330
14D20
100
AcDbEntity
  8
0
 48
50.0
100
AcDbBlockBegin
  2
*D16
 70
     1
 10
0.0
 20
0.0
 30
0.0
  3
*D16
  1

  0
LINE
  5
15585
330
14D20
100
AcDbEntity
  8
寸法
 62
     0
 48
50.0
370
    -2
100
AcDbLine
 10
7255.129866693518
 20
5939.669257607742
 30
0.0
 11
7837.404089057179
 21
5939.669257607742
 31
0.0
  0
LINE
  5
15586
330
14D20
100
AcDbEntity
  8
寸法
 62
     0
 48
50.0
370
    -2
100
AcDbLine
 10
7255.129866693518
 20
1862.669257607742
 30
0.0
 11
7837.404089057177
 21
1862.669257607742
 31
0.0
  0
LINE
  5
15587
330
14D20
100
AcDbEntity
  8
寸法
 62
     0
 48
50.0
370
    -2
100
AcDbLine
 10
7792.404089057178
 20
5939.669257607742
 30
0.0
 11
7792.404089057177
 21
1862.669257607742
 31
0.0
  0
INSERT
  5
15588
330
14D20
100
AcDbEntity
  8
寸法
 62
     0
 48
50.0
370
    -2
100
AcDbBlockReference
  2
_DOTSMALL
 10
7792.404089057178
 20
5939.669257607742
 30
0.0
 41
75.0
 42
75.0
 43
75.0
 50
90.0
  0
INSERT
  5
15589
330
14D20
100
AcDbEntity
  8
寸法
 62
     0
 48
50.0
370
    -2
100
AcDbBlockReference
  2
_DOTSMALL
 10
7792.404089057177
 20
1862.669257607742
 30
0.0
 41
75.0
 42
75.0
 43
75.0
 50
270.0
  0
MTEXT
  5
1558A
330
14D20
100
AcDbEntity
  8
寸法
 62
     7
 48
50.0
100
AcDbMText
 10
7717.404089057177
 20
3901.169257607744
 30
0.0
 40
90.0
 41
0.0
 71
     5
 72
     1
  1
\A1;屋根寸法 4077
  7
STYLE1
 11
0.0000000000000001
 21
1.0
 31
0.0
 73
     1
 44
1.0
1001
ACAD
1000
MTEXTBEGIN
1070
    73
1070
     1
1070
    44
1040
1.0
1070
    74
1070
     0
1000
MTEXTEND
  0
POINT
  5
1558B
330
14D20
100
AcDbEntity
  8
DEFPOINTS
 62
     0
 48
50.0
100
AcDbPoint
 10
7240.129866693518
 20
5939.669257607742
 30
0.0
  0
POINT
  5
1558C
330
14D20
100
AcDbEntity
  8
DEFPOINTS
 62
     0
 48
50.0
100
AcDbPoint
 10
7240.129866693518
 20
1862.669257607742
 30
0.0
  0
POINT
  5
1558D
330
14D20
100
AcDbEntity
  8
DEFPOINTS
 62
     0
 48
50.0
100
AcDbPoint
 10
7792.404089057177
 20
1862.669257607742
 30
0.0
  0
ENDBLK
  5
14D22
330
14D20
100
AcDbEntity
  8
0
 48
50.0
100
AcDbBlockEnd
  0
BLOCK
  5
14D2D
330
14D2C
100
AcDbEntity
  8
0
 48
50.0
100
AcDbBlockBegin
  2
*D17
 70
     1
 10
0.0
 20
0.0
 30
0.0
  3
*D17
  1

  0
LINE
  5
1558E
330
14D2C
100
AcDbEntity
  8
寸法
 62
     0
 48
50.0
370
    -2
100
AcDbLine
 10
7255.129866693518
 20
5939.669257607742
 30
0.0
 11
7837.404089057179
 21
5939.669257607742
 31
0.0
  0
LINE
  5
1558F
330
14D2C
100
AcDbEntity
  8
寸法
 62
     0
 48
50.0
370
    -2
100
AcDbLine
 10
7425.129866693577
 20
6076.169257607742
 30
0.0
 11
7837.404089057179
 21
6076.169257607742
 31
0.0
  0
LINE
  5
15590
330
14D2C
100
AcDbEntity
  8
寸法
 62
     0
 48
50.0
370
    -2
100
AcDbLine
 10
7792.404089057178
 20
5939.669257607742
 30
0.0
 11
7792.404089057178
 21
6076.169257607742
 31
0.0
  0
LINE
  5
15591
330
14D2C
100
AcDbEntity
  8
寸法
 62
     0
 48
50.0
370
    -2
100
AcDbLine
 10
7792.404089057178
 20
6076.169257607742
 30
0.0
 11
7792.40408905718
 21
6448.89717966915
 31
0.0
  0
INSERT
  5
15592
330
14D2C
100
AcDbEntity
  8
寸法
 62
     0
 48
50.0
370
    -2
100
AcDbBlockReference
  2
_DOTSMALL
 10
7792.404089057178
 20
5939.669257607742
 30
0.0
 41
75.0
 42
75.0
 43
75.0
 50
270.0
  0
INSERT
  5
15593
330
14D2C
100
AcDbEntity
  8
寸法
 62
     0
 48
50.0
370
    -2
100
AcDbBlockReference
  2
_DOTSMALL
 10
7792.404089057178
 20
6076.169257607742
 30
0.0
 41
75.0
 42
75.0
 43
75.0
 50
90.0
  0
MTEXT
  5
15594
330
14D2C
100
AcDbEntity
  8
寸法
 62
     7
 48
50.0
100
AcDbMText
 10
7717.404089057177
 20
6300.033218638471
 30
0.0
 40
90.0
 41
0.0
 71
     5
 72
     1
  1
\A1;136.5
  7
STYLE1
 11
0.0000000000000001
 21
1.0
 31
0.0
 73
     1
 44
1.0
1001
ACAD
1000
MTEXTBEGIN
1070
    73
1070
     1
1070
    44
1040
1.0
1070
    74
1070
     0
1000
MTEXTEND
  0
POINT
  5
15595
330
14D2C
100
AcDbEntity
  8
DEFPOINTS
 62
     0
 48
50.0
100
AcDbPoint
 10
7240.129866693518
 20
5939.669257607742
 30
0.0
  0
POINT
  5
15596
330
14D2C
100
AcDbEntity
  8
DEFPOINTS
 62
     0
 48
50.0
100
AcDbPoint
 10
7410.129866693576
 20
6076.169257607742
 30
0.0
  0
POINT
  5
15597
330
14D2C
100
AcDbEntity
  8
DEFPOINTS
 62
     0
 48
50.0
100
AcDbPoint
 10
7792.404089057178
 20
6076.169257607742
 30
0.0
  0
ENDBLK
  5
14D2E
330
14D2C
100
AcDbEntity
  8
0
 48
50.0
100
AcDbBlockEnd
  0
BLOCK
  5
14DE2
330
14DE1
100
AcDbEntity
  8
0
 48
50.0
100
AcDbBlockBegin
  2
*D18
 70
     1
 10
0.0
 20
0.0
 30
0.0
  3
*D18
  1

  0
LINE
  5
15598
330
14DE1
100
AcDbEntity
  8
寸法
 62
     0
 48
50.0
370
    -2
100
AcDbLine
 10
995.1298666935471
 20
6076.169257607742
 30
0.0
 11
401.508667965857
 21
6076.169257607742
 31
0.0
  0
LINE
  5
15599
330
14DE1
100
AcDbEntity
  8
寸法
 62
     0
 48
50.0
370
    -2
100
AcDbLine
 10
995.1298666935471
 20
1726.169257607742
 30
0.0
 11
401.5086679658562
 21
1726.169257607742
 31
0.0
  0
LINE
  5
1559A
330
14DE1
100
AcDbEntity
  8
寸法
 62
     0
 48
50.0
370
    -2
100
AcDbLine
 10
446.5086679658571
 20
6076.169257607742
 30
0.0
 11
446.5086679658561
 21
1726.169257607742
 31
0.0
  0
INSERT
  5
1559B
330
14DE1
100
AcDbEntity
  8
寸法
 62
     0
 48
50.0
370
    -2
100
AcDbBlockReference
  2
_DOTSMALL
 10
446.5086679658571
 20
6076.169257607742
 30
0.0
 41
75.0
 42
75.0
 43
75.0
 50
90.0
  0
INSERT
  5
1559C
330
14DE1
100
AcDbEntity
  8
寸法
 62
     0
 48
50.0
370
    -2
100
AcDbBlockReference
  2
_DOTSMALL
 10
446.5086679658561
 20
1726.169257607742
 30
0.0
 41
75.0
 42
75.0
 43
75.0
 50
270.0
  0
MTEXT
  5
1559D
330
14DE1
100
AcDbEntity
  8
寸法
 62
     7
 48
50.0
100
AcDbMText
 10
371.508667965856
 20
3901.169257607742
 30
0.0
 40
90.0
 41
0.0
 71
     5
 72
     1
  1
\A1;基礎土間寸法 4350
  7
STYLE1
 11
0.0000000000000001
 21
1.0
 31
0.0
 73
     1
 44
1.0
1001
ACAD
1000
MTEXTBEGIN
1070
    73
1070
     1
1070
    44
1040
1.0
1070
    74
1070
     0
1000
MTEXTEND
  0
POINT
  5
1559E
330
14DE1
100
AcDbEntity
  8
DEFPOINTS
 62
     0
 48
50.0
100
AcDbPoint
 10
1010.129866693547
 20
6076.169257607742
 30
0.0
  0
POINT
  5
1559F
330
14DE1
100
AcDbEntity
  8
DEFPOINTS
 62
     0
 48
50.0
100
AcDbPoint
 10
1010.129866693547
 20
1726.169257607742
 30
0.0
  0
POINT
  5
155A0
330
14DE1
100
AcDbEntity
  8
DEFPOINTS
 62
     0
 48
50.0
100
AcDbPoint
 10
446.5086679658561
 20
1726.169257607742
 30
0.0
  0
ENDBLK
  5
14DE3
330
14DE1
100
AcDbEntity
  8
0
 48
50.0
100
AcDbBlockEnd
  0
BLOCK
  5
14DEE
330
14DED
100
AcDbEntity
  8
0
 48
50.0
100
AcDbBlockBegin
  2
*D19
 70
     1
 10
0.0
 20
0.0
 30
0.0
  3
*D19
  1

  0
LINE
  5
155A1
330
14DED
100
AcDbEntity
  8
寸法
 62
     0
 48
50.0
370
    -2
100
AcDbLine
 10
1145.129866693547
 20
3726.169257607742
 30
0.0
 11
624.2580299823025
 21
3726.169257607743
 31
0.0
  0
LINE
  5
155A2
330
14DED
100
AcDbEntity
  8
寸法
 62
     0
 48
50.0
370
    -2
100
AcDbLine
 10
995.1298666935471
 20
1726.169257607742
 30
0.0
 11
624.258029982302
 21
1726.169257607742
 31
0.0
  0
LINE
  5
155A3
330
14DED
100
AcDbEntity
  8
寸法
 62
     0
 48
50.0
370
    -2
100
AcDbLine
 10
669.2580299823025
 20
3726.169257607743
 30
0.0
 11
669.2580299823021
 21
1726.169257607742
 31
0.0
  0
INSERT
  5
155A4
330
14DED
100
AcDbEntity
  8
寸法
 62
     0
 48
50.0
370
    -2
100
AcDbBlockReference
  2
_DOTSMALL
 10
669.2580299823025
 20
3726.169257607743
 30
0.0
 41
75.0
 42
75.0
 43
75.0
 50
90.0
  0
INSERT
  5
155A5
330
14DED
100
AcDbEntity
  8
寸法
 62
     0
 48
50.0
370
    -2
100
AcDbBlockReference
  2
_DOTSMALL
 10
669.2580299823021
 20
1726.169257607742
 30
0.0
 41
75.0
 42
75.0
 43
75.0
 50
270.0
  0
MTEXT
  5
155A6
330
14DED
100
AcDbEntity
  8
寸法
 62
     7
 48
50.0
100
AcDbMText
 10
594.2491717145854
 20
2726.169257607743
 30
0.0
 40
90.0
 41
0.0
 71
     5
 72
     1
  1
\A1;2000
  7
STYLE1
 11
0.0000000000000001
 21
1.0
 31
0.0
 73
     1
 44
1.0
1001
ACAD
1000
MTEXTBEGIN
1070
    73
1070
     1
1070
    44
1040
1.0
1070
    74
1070
     0
1000
MTEXTEND
  0
POINT
  5
155A7
330
14DED
100
AcDbEntity
  8
DEFPOINTS
 62
     0
 48
50.0
100
AcDbPoint
 10
1160.129866693547
 20
3726.169257607742
 30
0.0
  0
POINT
  5
155A8
330
14DED
100
AcDbEntity
  8
DEFPOINTS
 62
     0
 48
50.0
100
AcDbPoint
 10
1010.129866693547
 20
1726.169257607742
 30
0.0
  0
POINT
  5
155A9
330
14DED
100
AcDbEntity
  8
DEFPOINTS
 62
     0
 48
50.0
100
AcDbPoint
 10
669.2580299823021
 20
1726.169257607742
 30
0.0
  0
ENDBLK
  5
14DEF
330
14DED
100
AcDbEntity
  8
0
 48
50.0
100
AcDbBlockEnd
  0
BLOCK
  5
14DFA
330
14DF9
100
AcDbEntity
  8
0
 48
50.0
100
AcDbBlockBegin
  2
*D20
 70
     1
 10
0.0
 20
0.0
 30
0.0
  3
*D20
  1

  0
LINE
  5
155AA
330
14DF9
100
AcDbEntity
  8
寸法
 62
     0
 48
50.0
370
    -2
100
AcDbLine
 10
1145.129866693547
 20
4076.169257607742
 30
0.0
 11
624.2580299823022
 21
4076.169257607743
 31
0.0
  0
LINE
  5
155AB
330
14DF9
100
AcDbEntity
  8
寸法
 62
     0
 48
50.0
370
    -2
100
AcDbLine
 10
1145.129866693547
 20
3726.169257607742
 30
0.0
 11
624.258029982302
 21
3726.169257607743
 31
0.0
  0
LINE
  5
155AC
330
14DF9
100
AcDbEntity
  8
寸法
 62
     0
 48
50.0
370
    -2
100
AcDbLine
 10
669.2580299823021
 20
4076.169257607743
 30
0.0
 11
669.2580299823021
 21
3726.169257607743
 31
0.0
  0
INSERT
  5
155AD
330
14DF9
100
AcDbEntity
  8
寸法
 62
     0
 48
50.0
370
    -2
100
AcDbBlockReference
  2
_DOTSMALL
 10
669.2580299823021
 20
4076.169257607743
 30
0.0
 41
75.0
 42
75.0
 43
75.0
 50
90.0
  0
INSERT
  5
155AE
330
14DF9
100
AcDbEntity
  8
寸法
 62
     0
 48
50.0
370
    -2
100
AcDbBlockReference
  2
_DOTSMALL
 10
669.2580299823021
 20
3726.169257607743
 30
0.0
 41
75.0
 42
75.0
 43
75.0
 50
270.0
  0
MTEXT
  5
155AF
330
14DF9
100
AcDbEntity
  8
寸法
 62
     7
 48
50.0
100
AcDbMText
 10
594.2580299823015
 20
3901.169257607743
 30
0.0
 40
90.0
 41
0.0
 71
     5
 72
     1
  1
\A1;350
  7
STYLE1
 11
0.0000000000000001
 21
1.0
 31
0.0
 73
     1
 44
1.0
1001
ACAD
1000
MTEXTBEGIN
1070
    73
1070
     1
1070
    44
1040
1.0
1070
    74
1070
     0
1000
MTEXTEND
  0
POINT
  5
155B0
330
14DF9
100
AcDbEntity
  8
DEFPOINTS
 62
     0
 48
50.0
100
AcDbPoint
 10
1160.129866693547
 20
4076.169257607742
 30
0.0
  0
POINT
  5
155B1
330
14DF9
100
AcDbEntity
  8
DEFPOINTS
 62
     0
 48
50.0
100
AcDbPoint
 10
1160.129866693547
 20
3726.169257607742
 30
0.0
  0
POINT
  5
155B2
330
14DF9
100
AcDbEntity
  8
DEFPOINTS
 62
     0
 48
50.0
100
AcDbPoint
 10
669.2580299823021
 20
3726.169257607743
 30
0.0
  0
ENDBLK
  5
14DFB
330
14DF9
100
AcDbEntity
  8
0
 48
50.0
100
AcDbBlockEnd
  0
BLOCK
  5
14E06
330
14E05
100
AcDbEntity
  8
0
 48
50.0
100
AcDbBlockBegin
  2
*D21
 70
     1
 10
0.0
 20
0.0
 30
0.0
  3
*D21
  1

  0
LINE
  5
155B3
330
14E05
100
AcDbEntity
  8
寸法
 62
     0
 48
50.0
370
    -2
100
AcDbLine
 10
1145.129866693547
 20
4076.169257607742
 30
0.0
 11
624.2580299823016
 21
4076.169257607743
 31
0.0
  0
LINE
  5
155B4
330
14E05
100
AcDbEntity
  8
寸法
 62
     0
 48
50.0
370
    -2
100
AcDbLine
 10
995.1298666935471
 20
6076.169257607742
 30
0.0
 11
624.258029982302
 21
6076.169257607742
 31
0.0
  0
LINE
  5
155B5
330
14E05
100
AcDbEntity
  8
寸法
 62
     0
 48
50.0
370
    -2
100
AcDbLine
 10
669.2580299823016
 20
4076.169257607743
 30
0.0
 11
669.2580299823021
 21
6076.169257607742
 31
0.0
  0
INSERT
  5
155B6
330
14E05
100
AcDbEntity
  8
寸法
 62
     0
 48
50.0
370
    -2
100
AcDbBlockReference
  2
_DOTSMALL
 10
669.2580299823016
 20
4076.169257607743
 30
0.0
 41
75.0
 42
75.0
 43
75.0
 50
270.0
  0
INSERT
  5
155B7
330
14E05
100
AcDbEntity
  8
寸法
 62
     0
 48
50.0
370
    -2
100
AcDbBlockReference
  2
_DOTSMALL
 10
669.2580299823021
 20
6076.169257607742
 30
0.0
 41
75.0
 42
75.0
 43
75.0
 50
90.0
  0
MTEXT
  5
155B8
330
14E05
100
AcDbEntity
  8
寸法
 62
     7
 48
50.0
100
AcDbMText
 10
594.2491717145846
 20
5076.169257607742
 30
0.0
 40
90.0
 41
0.0
 71
     5
 72
     1
  1
\A1;2000
  7
STYLE1
 11
0.0000000000000001
 21
1.0
 31
0.0
 73
     1
 44
1.0
1001
ACAD
1000
MTEXTBEGIN
1070
    73
1070
     1
1070
    44
1040
1.0
1070
    74
1070
     0
1000
MTEXTEND
  0
POINT
  5
155B9
330
14E05
100
AcDbEntity
  8
DEFPOINTS
 62
     0
 48
50.0
100
AcDbPoint
 10
1160.129866693547
 20
4076.169257607742
 30
0.0
  0
POINT
  5
155BA
330
14E05
100
AcDbEntity
  8
DEFPOINTS
 62
     0
 48
50.0
100
AcDbPoint
 10
1010.129866693547
 20
6076.169257607742
 30
0.0
  0
POINT
  5
155BB
330
14E05
100
AcDbEntity
  8
DEFPOINTS
 62
     0
 48
50.0
100
AcDbPoint
 10
669.2580299823021
 20
6076.169257607742
 30
0.0
  0
ENDBLK
  5
14E07
330
14E05
100
AcDbEntity
  8
0
 48
50.0
100
AcDbBlockEnd
  0
BLOCK
  5
14E12
330
14E11
100
AcDbEntity
  8
0
 48
50.0
100
AcDbBlockBegin
  2
*D22
 70
     1
 10
0.0
 20
0.0
 30
0.0
  3
*D22
  1

  0
LINE
  5
1568F
330
14E11
100
AcDbEntity
  8
寸法
 62
     0
 48
50.0
370
    -2
100
AcDbLine
 10
1010.129866693576
 20
6091.169257607742
 30
0.0
 11
1010.129866693576
 21
6793.873461716097
 31
0.0
  0
LINE
  5
15690
330
14E11
100
AcDbEntity
  8
寸法
 62
     0
 48
50.0
370
    -2
100
AcDbLine
 10
7410.129866693576
 20
6091.169257607742
 30
0.0
 11
7410.129866693576
 21
6793.873461716097
 31
0.0
  0
LINE
  5
15691
330
14E11
100
AcDbEntity
  8
寸法
 62
     0
 48
50.0
370
    -2
100
AcDbLine
 10
1010.129866693576
 20
6748.873461716098
 30
0.0
 11
7410.129866693576
 21
6748.873461716098
 31
0.0
  0
INSERT
  5
15692
330
14E11
100
AcDbEntity
  8
寸法
 62
     0
 48
50.0
370
    -2
100
AcDbBlockReference
  2
_DOTSMALL
 10
1010.129866693576
 20
6748.873461716098
 30
0.0
 41
75.0
 42
75.0
 43
75.0
 50
180.0
  0
INSERT
  5
15693
330
14E11
100
AcDbEntity
  8
寸法
 62
     0
 48
50.0
370
    -2
100
AcDbBlockReference
  2
_DOTSMALL
 10
7410.129866693576
 20
6748.873461716098
 30
0.0
 41
75.0
 42
75.0
 43
75.0
  0
MTEXT
  5
15694
330
14E11
100
AcDbEntity
  8
寸法
 62
     7
 48
50.0
100
AcDbMText
 10
4210.129866693576
 20
6823.873461716098
 30
0.0
 40
90.0
 41
0.0
 71
     5
 72
     1
  1
\A1;基礎土間寸法 6400
  7
STYLE1
 73
     1
 44
1.0
1001
ACAD
1000
MTEXTBEGIN
1070
    73
1070
     1
1070
    44
1040
1.0
1070
    74
1070
     0
1000
MTEXTEND
  0
POINT
  5
15695
330
14E11
100
AcDbEntity
  8
DEFPOINTS
 62
     0
 48
50.0
100
AcDbPoint
 10
1010.129866693576
 20
6076.169257607742
 30
0.0
  0
POINT
  5
15696
330
14E11
100
AcDbEntity
  8
DEFPOINTS
 62
     0
 48
50.0
100
AcDbPoint
 10
7410.129866693576
 20
6076.169257607742
 30
0.0
  0
POINT
  5
15697
330
14E11
100
AcDbEntity
  8
DEFPOINTS
 62
     0
 48
50.0
100
AcDbPoint
 10
7410.129866693576
 20
6748.873461716098
 30
0.0
  0
ENDBLK
  5
14E13
330
14E11
100
AcDbEntity
  8
0
 48
50.0
100
AcDbBlockEnd
  0
BLOCK
  5
14E1E
330
14E1D
100
AcDbEntity
  8
0
 48
50.0
100
AcDbBlockBegin
  2
*D23
 70
     1
 10
0.0
 20
0.0
 30
0.0
  3
*D23
  1

  0
LINE
  5
15698
330
14E1D
100
AcDbEntity
  8
寸法
 62
     0
 48
50.0
370
    -2
100
AcDbLine
 10
7010.129866693576
 20
4341.169257607742
 30
0.0
 11
7010.129866693576
 21
6599.83642274178
 31
0.0
  0
LINE
  5
15699
330
14E1D
100
AcDbEntity
  8
寸法
 62
     0
 48
50.0
370
    -2
100
AcDbLine
 10
7410.129866693576
 20
6091.169257607742
 30
0.0
 11
7410.129866693576
 21
6599.83642274178
 31
0.0
  0
LINE
  5
1569A
330
14E1D
100
AcDbEntity
  8
寸法
 62
     0
 48
50.0
370
    -2
100
AcDbLine
 10
7010.129866693576
 20
6554.836422741779
 30
0.0
 11
7410.129866693576
 21
6554.836422741779
 31
0.0
  0
INSERT
  5
1569B
330
14E1D
100
AcDbEntity
  8
寸法
 62
     0
 48
50.0
370
    -2
100
AcDbBlockReference
  2
_DOTSMALL
 10
7010.129866693576
 20
6554.836422741779
 30
0.0
 41
75.0
 42
75.0
 43
75.0
 50
180.0
  0
INSERT
  5
1569C
330
14E1D
100
AcDbEntity
  8
寸法
 62
     0
 48
50.0
370
    -2
100
AcDbBlockReference
  2
_DOTSMALL
 10
7410.129866693576
 20
6554.836422741779
 30
0.0
 41
75.0
 42
75.0
 43
75.0
  0
MTEXT
  5
1569D
330
14E1D
100
AcDbEntity
  8
寸法
 62
     7
 48
50.0
100
AcDbMText
 10
7210.129866693576
 20
6629.836422741779
 30
0.0
 40
90.0
 41
0.0
 71
     5
 72
     1
  1
\A1;400
  7
STYLE1
 73
     1
 44
1.0
1001
ACAD
1000
MTEXTBEGIN
1070
    73
1070
     1
1070
    44
1040
1.0
1070
    74
1070
     0
1000
MTEXTEND
  0
POINT
  5
1569E
330
14E1D
100
AcDbEntity
  8
DEFPOINTS
 62
     0
 48
50.0
100
AcDbPoint
 10
7010.129866693576
 20
4326.169257607742
 30
0.0
  0
POINT
  5
1569F
330
14E1D
100
AcDbEntity
  8
DEFPOINTS
 62
     0
 48
50.0
100
AcDbPoint
 10
7410.129866693576
 20
6076.169257607742
 30
0.0
  0
POINT
  5
156A0
330
14E1D
100
AcDbEntity
  8
DEFPOINTS
 62
     0
 48
50.0
100
AcDbPoint
 10
7410.129866693576
 20
6554.836422741779
 30
0.0
  0
ENDBLK
  5
14E1F
330
14E1D
100
AcDbEntity
  8
0
 48
50.0
100
AcDbBlockEnd
  0
BLOCK
  5
14E2A
330
14E29
100
AcDbEntity
  8
0
 48
50.0
100
AcDbBlockBegin
  2
*D24
 70
     1
 10
0.0
 20
0.0
 30
0.0
  3
*D24
  1

  0
LINE
  5
156A1
330
14E29
100
AcDbEntity
  8
寸法
 62
     0
 48
50.0
370
    -2
100
AcDbLine
 10
1410.129866693576
 20
4341.169257607742
 30
0.0
 11
1410.129866693576
 21
6599.83642274178
 31
0.0
  0
LINE
  5
156A2
330
14E29
100
AcDbEntity
  8
寸法
 62
     0
 48
50.0
370
    -2
100
AcDbLine
 10
7010.129866693576
 20
4341.169257607742
 30
0.0
 11
7010.129866693576
 21
6599.83642274178
 31
0.0
  0
LINE
  5
156A3
330
14E29
100
AcDbEntity
  8
寸法
 62
     0
 48
50.0
370
    -2
100
AcDbLine
 10
1410.129866693576
 20
6554.836422741779
 30
0.0
 11
7010.129866693576
 21
6554.836422741779
 31
0.0
  0
INSERT
  5
156A4
330
14E29
100
AcDbEntity
  8
寸法
 62
     0
 48
50.0
370
    -2
100
AcDbBlockReference
  2
_DOTSMALL
 10
1410.129866693576
 20
6554.836422741779
 30
0.0
 41
75.0
 42
75.0
 43
75.0
 50
180.0
  0
INSERT
  5
156A5
330
14E29
100
AcDbEntity
  8
寸法
 62
     0
 48
50.0
370
    -2
100
AcDbBlockReference
  2
_DOTSMALL
 10
7010.129866693576
 20
6554.836422741779
 30
0.0
 41
75.0
 42
75.0
 43
75.0
  0
MTEXT
  5
156A6
330
14E29
100
AcDbEntity
  8
寸法
 62
     7
 48
50.0
100
AcDbMText
 10
4210.129866693576
 20
6629.836422741779
 30
0.0
 40
90.0
 41
0.0
 71
     5
 72
     1
  1
\A1;5600
  7
STYLE1
 73
     1
 44
1.0
1001
ACAD
1000
MTEXTBEGIN
1070
    73
1070
     1
1070
    44
1040
1.0
1070
    74
1070
     0
1000
MTEXTEND
  0
POINT
  5
156A7
330
14E29
100
AcDbEntity
  8
DEFPOINTS
 62
     0
 48
50.0
100
AcDbPoint
 10
1410.129866693576
 20
4326.169257607742
 30
0.0
  0
POINT
  5
156A8
330
14E29
100
AcDbEntity
  8
DEFPOINTS
 62
     0
 48
50.0
100
AcDbPoint
 10
7010.129866693576
 20
4326.169257607742
 30
0.0
  0
POINT
  5
156A9
330
14E29
100
AcDbEntity
  8
DEFPOINTS
 62
     0
 48
50.0
100
AcDbPoint
 10
7010.129866693576
 20
6554.836422741779
 30
0.0
  0
ENDBLK
  5
14E2B
330
14E29
100
AcDbEntity
  8
0
 48
50.0
100
AcDbBlockEnd
  0
BLOCK
  5
14E36
330
14E35
100
AcDbEntity
  8
0
 48
50.0
100
AcDbBlockBegin
  2
*D25
 70
     1
 10
0.0
 20
0.0
 30
0.0
  3
*D25
  1

  0
LINE
  5
156AA
330
14E35
100
AcDbEntity
  8
寸法
 62
     0
 48
50.0
370
    -2
100
AcDbLine
 10
1010.129866693576
 20
6091.169257607742
 30
0.0
 11
1010.129866693576
 21
6599.83642274178
 31
0.0
  0
LINE
  5
156AB
330
14E35
100
AcDbEntity
  8
寸法
 62
     0
 48
50.0
370
    -2
100
AcDbLine
 10
1410.129866693576
 20
4341.169257607742
 30
0.0
 11
1410.129866693576
 21
6599.83642274178
 31
0.0
  0
LINE
  5
156AC
330
14E35
100
AcDbEntity
  8
寸法
 62
     0
 48
50.0
370
    -2
100
AcDbLine
 10
1010.129866693576
 20
6554.836422741779
 30
0.0
 11
1410.129866693576
 21
6554.836422741779
 31
0.0
  0
INSERT
  5
156AD
330
14E35
100
AcDbEntity
  8
寸法
 62
     0
 48
50.0
370
    -2
100
AcDbBlockReference
  2
_DOTSMALL
 10
1010.129866693576
 20
6554.836422741779
 30
0.0
 41
75.0
 42
75.0
 43
75.0
 50
180.0
  0
INSERT
  5
156AE
330
14E35
100
AcDbEntity
  8
寸法
 62
     0
 48
50.0
370
    -2
100
AcDbBlockReference
  2
_DOTSMALL
 10
1410.129866693576
 20
6554.836422741779
 30
0.0
 41
75.0
 42
75.0
 43
75.0
  0
MTEXT
  5
156AF
330
14E35
100
AcDbEntity
  8
寸法
 62
     7
 48
50.0
100
AcDbMText
 10
1210.129866693576
 20
6629.836422741779
 30
0.0
 40
90.0
 41
0.0
 71
     5
 72
     1
  1
\A1;400
  7
STYLE1
 73
     1
 44
1.0
1001
ACAD
1000
MTEXTBEGIN
1070
    73
1070
     1
1070
    44
1040
1.0
1070
    74
1070
     0
1000
MTEXTEND
  0
POINT
  5
156B0
330
14E35
100
AcDbEntity
  8
DEFPOINTS
 62
     0
 48
50.0
100
AcDbPoint
 10
1010.129866693576
 20
6076.169257607742
 30
0.0
  0
POINT
  5
156B1
330
14E35
100
AcDbEntity
  8
DEFPOINTS
 62
     0
 48
50.0
100
AcDbPoint
 10
1410.129866693576
 20
4326.169257607742
 30
0.0
  0
POINT
  5
156B2
330
14E35
100
AcDbEntity
  8
DEFPOINTS
 62
     0
 48
50.0
100
AcDbPoint
 10
1410.129866693576
 20
6554.836422741779
 30
0.0
  0
ENDBLK
  5
14E37
330
14E35
100
AcDbEntity
  8
0
 48
50.0
100
AcDbBlockEnd
  0
BLOCK
  5
14E42
330
14E41
100
AcDbEntity
  8
0
 48
50.0
100
AcDbBlockBegin
  2
*D26
 70
     1
 10
0.0
 20
0.0
 30
0.0
  3
*D26
  1

  0
LINE
  5
155E0
330
14E41
100
AcDbEntity
  8
寸法
 62
     0
 48
50.0
370
    -2
100
AcDbLine
 10
7010.129866693548
 20
3461.169257607727
 30
0.0
 11
7010.129866693548
 21
2918.033041570636
 31
0.0
  0
LINE
  5
155E1
330
14E41
100
AcDbEntity
  8
寸法
 62
     0
 48
50.0
370
    -2
100
AcDbLine
 10
6610.129866693547
 20
3186.169257607728
 30
0.0
 11
6610.129866693547
 21
2918.033041570636
 31
0.0
  0
LINE
  5
155E2
330
14E41
100
AcDbEntity
  8
寸法
 62
     0
 48
50.0
370
    -2
100
AcDbLine
 10
7010.129866693548
 20
2963.033041570636
 30
0.0
 11
6610.129866693547
 21
2963.033041570636
 31
0.0
  0
INSERT
  5
155E3
330
14E41
100
AcDbEntity
  8
寸法
 62
     0
 48
50.0
370
    -2
100
AcDbBlockReference
  2
_DOTSMALL
 10
7010.129866693548
 20
2963.033041570636
 30
0.0
 41
75.0
 42
75.0
 43
75.0
  0
INSERT
  5
155E4
330
14E41
100
AcDbEntity
  8
寸法
 62
     0
 48
50.0
370
    -2
100
AcDbBlockReference
  2
_DOTSMALL
 10
6610.129866693547
 20
2963.033041570636
 30
0.0
 41
75.0
 42
75.0
 43
75.0
 50
180.0
  0
MTEXT
  5
155E5
330
14E41
100
AcDbEntity
  8
寸法
 62
     7
 48
50.0
100
AcDbMText
 10
6810.129866693547
 20
3038.033041570636
 30
0.0
 40
90.0
 41
0.0
 71
     5
 72
     1
  1
\A1;400
  7
STYLE1
 73
     1
 44
1.0
1001
ACAD
1000
MTEXTBEGIN
1070
    73
1070
     1
1070
    44
1040
1.0
1070
    74
1070
     0
1000
MTEXTEND
  0
POINT
  5
155E6
330
14E41
100
AcDbEntity
  8
DEFPOINTS
 62
     0
 48
50.0
100
AcDbPoint
 10
7010.129866693548
 20
3476.169257607728
 30
0.0
  0
POINT
  5
155E7
330
14E41
100
AcDbEntity
  8
DEFPOINTS
 62
     0
 48
50.0
100
AcDbPoint
 10
6610.129866693547
 20
3201.169257607727
 30
0.0
  0
POINT
  5
155E8
330
14E41
100
AcDbEntity
  8
DEFPOINTS
 62
     0
 48
50.0
100
AcDbPoint
 10
6610.129866693547
 20
2963.033041570636
 30
0.0
  0
ENDBLK
  5
14E43
330
14E41
100
AcDbEntity
  8
0
 48
50.0
100
AcDbBlockEnd
  0
BLOCK
  5
14E4E
330
14E4D
100
AcDbEntity
  8
0
 48
50.0
100
AcDbBlockBegin
  2
*D27
 70
     1
 10
0.0
 20
0.0
 30
0.0
  3
*D27
  1

  0
LINE
  5
155E9
330
14E4D
100
AcDbEntity
  8
寸法
 62
     0
 48
50.0
370
    -2
100
AcDbLine
 10
6610.129866693547
 20
3186.169257607728
 30
0.0
 11
6610.129866693547
 21
2679.896825533573
 31
0.0
  0
LINE
  5
155EA
330
14E4D
100
AcDbEntity
  8
寸法
 62
     0
 48
50.0
370
    -2
100
AcDbLine
 10
7410.129866693576
 20
3186.169257607728
 30
0.0
 11
7410.129866693576
 21
2679.896825533573
 31
0.0
  0
LINE
  5
155EB
330
14E4D
100
AcDbEntity
  8
寸法
 62
     0
 48
50.0
370
    -2
100
AcDbLine
 10
6610.129866693547
 20
2724.896825533573
 30
0.0
 11
7410.129866693576
 21
2724.896825533573
 31
0.0
  0
INSERT
  5
155EC
330
14E4D
100
AcDbEntity
  8
寸法
 62
     0
 48
50.0
370
    -2
100
AcDbBlockReference
  2
_DOTSMALL
 10
6610.129866693547
 20
2724.896825533573
 30
0.0
 41
75.0
 42
75.0
 43
75.0
 50
180.0
  0
INSERT
  5
155ED
330
14E4D
100
AcDbEntity
  8
寸法
 62
     0
 48
50.0
370
    -2
100
AcDbBlockReference
  2
_DOTSMALL
 10
7410.129866693576
 20
2724.896825533573
 30
0.0
 41
75.0
 42
75.0
 43
75.0
  0
MTEXT
  5
155EE
330
14E4D
100
AcDbEntity
  8
寸法
 62
     7
 48
50.0
100
AcDbMText
 10
7010.129866693548
 20
2799.896825533573
 30
0.0
 40
90.0
 41
0.0
 71
     5
 72
     1
  1
\A1;800
  7
STYLE1
 73
     1
 44
1.0
1001
ACAD
1000
MTEXTBEGIN
1070
    73
1070
     1
1070
    44
1040
1.0
1070
    74
1070
     0
1000
MTEXTEND
  0
POINT
  5
155EF
330
14E4D
100
AcDbEntity
  8
DEFPOINTS
 62
     0
 48
50.0
100
AcDbPoint
 10
6610.129866693547
 20
3201.169257607727
 30
0.0
  0
POINT
  5
155F0
330
14E4D
100
AcDbEntity
  8
DEFPOINTS
 62
     0
 48
50.0
100
AcDbPoint
 10
7410.129866693576
 20
3201.169257607727
 30
0.0
  0
POINT
  5
155F1
330
14E4D
100
AcDbEntity
  8
DEFPOINTS
 62
     0
 48
50.0
100
AcDbPoint
 10
7410.129866693576
 20
2724.896825533573
 30
0.0
  0
ENDBLK
  5
14E4F
330
14E4D
100
AcDbEntity
  8
0
 48
50.0
100
AcDbBlockEnd
  0
BLOCK
  5
14E5A
330
14E59
100
AcDbEntity
  8
0
 48
50.0
100
AcDbBlockBegin
  2
*D28
 70
     1
 10
0.0
 20
0.0
 30
0.0
  3
*D28
  1

  0
LINE
  5
155F2
330
14E59
100
AcDbEntity
  8
寸法
 62
     0
 48
50.0
370
    -2
100
AcDbLine
 10
6745.129866693547
 20
3726.169257607728
 30
0.0
 11
6387.815363409377
 21
3726.169257607728
 31
0.0
  0
LINE
  5
155F3
330
14E59
100
AcDbEntity
  8
寸法
 62
     0
 48
50.0
370
    -2
100
AcDbLine
 10
6595.129866693547
 20
3201.169257607713
 30
0.0
 11
6387.815363409377
 21
3201.169257607713
 31
0.0
  0
LINE
  5
155F4
330
14E59
100
AcDbEntity
  8
寸法
 62
     0
 48
50.0
370
    -2
100
AcDbLine
 10
6432.815363409376
 20
3726.169257607728
 30
0.0
 11
6432.815363409376
 21
3201.169257607713
 31
0.0
  0
INSERT
  5
155F5
330
14E59
100
AcDbEntity
  8
寸法
 62
     0
 48
50.0
370
    -2
100
AcDbBlockReference
  2
_DOTSMALL
 10
6432.815363409376
 20
3726.169257607728
 30
0.0
 41
75.0
 42
75.0
 43
75.0
 50
90.0
  0
INSERT
  5
155F6
330
14E59
100
AcDbEntity
  8
寸法
 62
     0
 48
50.0
370
    -2
100
AcDbBlockReference
  2
_DOTSMALL
 10
6432.815363409376
 20
3201.169257607713
 30
0.0
 41
75.0
 42
75.0
 43
75.0
 50
270.0
  0
MTEXT
  5
155F7
330
14E59
100
AcDbEntity
  8
寸法
 62
     7
 48
50.0
100
AcDbMText
 10
6357.806505141659
 20
3463.669257607722
 30
0.0
 40
90.0
 41
0.0
 71
     5
 72
     1
  1
\A1;525
  7
STYLE1
 11
0.0000000000000001
 21
1.0
 31
0.0
 73
     1
 44
1.0
1001
ACAD
1000
MTEXTBEGIN
1070
    73
1070
     1
1070
    44
1040
1.0
1070
    74
1070
     0
1000
MTEXTEND
  0
POINT
  5
155F8
330
14E59
100
AcDbEntity
  8
DEFPOINTS
 62
     0
 48
50.0
100
AcDbPoint
 10
6760.129866693548
 20
3726.169257607728
 30
0.0
  0
POINT
  5
155F9
330
14E59
100
AcDbEntity
  8
DEFPOINTS
 62
     0
 48
50.0
100
AcDbPoint
 10
6610.129866693547
 20
3201.169257607713
 30
0.0
  0
POINT
  5
155FA
330
14E59
100
AcDbEntity
  8
DEFPOINTS
 62
     0
 48
50.0
100
AcDbPoint
 10
6432.815363409376
 20
3201.169257607713
 30
0.0
  0
ENDBLK
  5
14E5B
330
14E59
100
AcDbEntity
  8
0
 48
50.0
100
AcDbBlockEnd
  0
BLOCK
  5
14E66
330
14E65
100
AcDbEntity
  8
0
 48
50.0
100
AcDbBlockBegin
  2
*D29
 70
     1
 10
0.0
 20
0.0
 30
0.0
  3
*D29
  1

  0
LINE
  5
155FB
330
14E65
100
AcDbEntity
  8
寸法
 62
     0
 48
50.0
370
    -2
100
AcDbLine
 10
6595.129866693547
 20
4601.169257607727
 30
0.0
 11
6210.500860125205
 21
4601.169257607727
 31
0.0
  0
LINE
  5
155FC
330
14E65
100
AcDbEntity
  8
寸法
 62
     0
 48
50.0
370
    -2
100
AcDbLine
 10
6595.129866693547
 20
3201.169257607713
 30
0.0
 11
6210.500860125205
 21
3201.169257607713
 31
0.0
  0
LINE
  5
155FD
330
14E65
100
AcDbEntity
  8
寸法
 62
     0
 48
50.0
370
    -2
100
AcDbLine
 10
6255.500860125205
 20
4601.169257607727
 30
0.0
 11
6255.500860125205
 21
3201.169257607713
 31
0.0
  0
INSERT
  5
155FE
330
14E65
100
AcDbEntity
  8
寸法
 62
     0
 48
50.0
370
    -2
100
AcDbBlockReference
  2
_DOTSMALL
 10
6255.500860125205
 20
4601.169257607727
 30
0.0
 41
75.0
 42
75.0
 43
75.0
 50
90.0
  0
INSERT
  5
155FF
330
14E65
100
AcDbEntity
  8
寸法
 62
     0
 48
50.0
370
    -2
100
AcDbBlockReference
  2
_DOTSMALL
 10
6255.500860125205
 20
3201.169257607713
 30
0.0
 41
75.0
 42
75.0
 43
75.0
 50
270.0
  0
MTEXT
  5
15600
330
14E65
100
AcDbEntity
  8
寸法
 62
     7
 48
50.0
100
AcDbMText
 10
6180.500860125204
 20
3901.169257607722
 30
0.0
 40
90.0
 41
0.0
 71
     5
 72
     1
  1
\A1;1400
  7
STYLE1
 11
0.0000000000000001
 21
1.0
 31
0.0
 73
     1
 44
1.0
1001
ACAD
1000
MTEXTBEGIN
1070
    73
1070
     1
1070
    44
1040
1.0
1070
    74
1070
     0
1000
MTEXTEND
  0
POINT
  5
15601
330
14E65
100
AcDbEntity
  8
DEFPOINTS
 62
     0
 48
50.0
100
AcDbPoint
 10
6610.129866693547
 20
4601.169257607727
 30
0.0
  0
POINT
  5
15602
330
14E65
100
AcDbEntity
  8
DEFPOINTS
 62
     0
 48
50.0
100
AcDbPoint
 10
6610.129866693547
 20
3201.169257607713
 30
0.0
  0
POINT
  5
15603
330
14E65
100
AcDbEntity
  8
DEFPOINTS
 62
     0
 48
50.0
100
AcDbPoint
 10
6255.500860125205
 20
3201.169257607713
 30
0.0
  0
ENDBLK
  5
14E67
330
14E65
100
AcDbEntity
  8
0
 48
50.0
100
AcDbBlockEnd
  0
BLOCK
  5
14E72
330
14E71
100
AcDbEntity
  8
0
 48
50.0
100
AcDbBlockBegin
  2
*D30
 70
     1
 10
0.0
 20
0.0
 30
0.0
  3
*D30
  1

  0
LINE
  5
15604
330
14E71
100
AcDbEntity
  8
寸法
 62
     0
 48
50.0
370
    -2
100
AcDbLine
 10
6745.129866693547
 20
4076.169257607727
 30
0.0
 11
6387.815363409377
 21
4076.169257607727
 31
0.0
  0
LINE
  5
15605
330
14E71
100
AcDbEntity
  8
寸法
 62
     0
 48
50.0
370
    -2
100
AcDbLine
 10
6745.129866693547
 20
3726.169257607728
 30
0.0
 11
6387.815363409377
 21
3726.169257607728
 31
0.0
  0
LINE
  5
15606
330
14E71
100
AcDbEntity
  8
寸法
 62
     0
 48
50.0
370
    -2
100
AcDbLine
 10
6432.815363409376
 20
4076.169257607727
 30
0.0
 11
6432.815363409376
 21
3726.169257607728
 31
0.0
  0
INSERT
  5
15607
330
14E71
100
AcDbEntity
  8
寸法
 62
     0
 48
50.0
370
    -2
100
AcDbBlockReference
  2
_DOTSMALL
 10
6432.815363409376
 20
4076.169257607727
 30
0.0
 41
75.0
 42
75.0
 43
75.0
 50
90.0
  0
INSERT
  5
15608
330
14E71
100
AcDbEntity
  8
寸法
 62
     0
 48
50.0
370
    -2
100
AcDbBlockReference
  2
_DOTSMALL
 10
6432.815363409376
 20
3726.169257607728
 30
0.0
 41
75.0
 42
75.0
 43
75.0
 50
270.0
  0
MTEXT
  5
15609
330
14E71
100
AcDbEntity
  8
寸法
 62
     7
 48
50.0
100
AcDbMText
 10
6357.815363409375
 20
3901.169257607729
 30
0.0
 40
90.0
 41
0.0
 71
     5
 72
     1
  1
\A1;350
  7
STYLE1
 11
0.0000000000000001
 21
1.0
 31
0.0
 73
     1
 44
1.0
1001
ACAD
1000
MTEXTBEGIN
1070
    73
1070
     1
1070
    44
1040
1.0
1070
    74
1070
     0
1000
MTEXTEND
  0
POINT
  5
1560A
330
14E71
100
AcDbEntity
  8
DEFPOINTS
 62
     0
 48
50.0
100
AcDbPoint
 10
6760.129866693548
 20
4076.169257607727
 30
0.0
  0
POINT
  5
1560B
330
14E71
100
AcDbEntity
  8
DEFPOINTS
 62
     0
 48
50.0
100
AcDbPoint
 10
6760.129866693548
 20
3726.169257607728
 30
0.0
  0
POINT
  5
1560C
330
14E71
100
AcDbEntity
  8
DEFPOINTS
 62
     0
 48
50.0
100
AcDbPoint
 10
6432.815363409376
 20
3726.169257607728
 30
0.0
  0
ENDBLK
  5
14E73
330
14E71
100
AcDbEntity
  8
0
 48
50.0
100
AcDbBlockEnd
  0
BLOCK
  5
14E7E
330
14E7D
100
AcDbEntity
  8
0
 48
50.0
100
AcDbBlockBegin
  2
*D31
 70
     1
 10
0.0
 20
0.0
 30
0.0
  3
*D31
  1

  0
LINE
  5
1560D
330
14E7D
100
AcDbEntity
  8
寸法
 62
     0
 48
50.0
370
    -2
100
AcDbLine
 10
6745.129866693547
 20
4076.169257607727
 30
0.0
 11
6387.815363409377
 21
4076.169257607727
 31
0.0
  0
LINE
  5
1560E
330
14E7D
100
AcDbEntity
  8
寸法
 62
     0
 48
50.0
370
    -2
100
AcDbLine
 10
6595.129866693547
 20
4601.169257607742
 30
0.0
 11
6387.815363409377
 21
4601.169257607742
 31
0.0
  0
LINE
  5
1560F
330
14E7D
100
AcDbEntity
  8
寸法
 62
     0
 48
50.0
370
    -2
100
AcDbLine
 10
6432.815363409376
 20
4076.169257607727
 30
0.0
 11
6432.815363409376
 21
4601.169257607742
 31
0.0
  0
INSERT
  5
15610
330
14E7D
100
AcDbEntity
  8
寸法
 62
     0
 48
50.0
370
    -2
100
AcDbBlockReference
  2
_DOTSMALL
 10
6432.815363409376
 20
4076.169257607727
 30
0.0
 41
75.0
 42
75.0
 43
75.0
 50
270.0
  0
INSERT
  5
15611
330
14E7D
100
AcDbEntity
  8
寸法
 62
     0
 48
50.0
370
    -2
100
AcDbBlockReference
  2
_DOTSMALL
 10
6432.815363409376
 20
4601.169257607742
 30
0.0
 41
75.0
 42
75.0
 43
75.0
 50
90.0
  0
MTEXT
  5
15612
330
14E7D
100
AcDbEntity
  8
寸法
 62
     7
 48
50.0
100
AcDbMText
 10
6357.806505141659
 20
4338.669257607736
 30
0.0
 40
90.0
 41
0.0
 71
     5
 72
     1
  1
\A1;525
  7
STYLE1
 11
0.0000000000000001
 21
1.0
 31
0.0
 73
     1
 44
1.0
1001
ACAD
1000
MTEXTBEGIN
1070
    73
1070
     1
1070
    44
1040
1.0
1070
    74
1070
     0
1000
MTEXTEND
  0
POINT
  5
15613
330
14E7D
100
AcDbEntity
  8
DEFPOINTS
 62
     0
 48
50.0
100
AcDbPoint
 10
6760.129866693548
 20
4076.169257607727
 30
0.0
  0
POINT
  5
15614
330
14E7D
100
AcDbEntity
  8
DEFPOINTS
 62
     0
 48
50.0
100
AcDbPoint
 10
6610.129866693547
 20
4601.169257607742
 30
0.0
  0
POINT
  5
15615
330
14E7D
100
AcDbEntity
  8
DEFPOINTS
 62
     0
 48
50.0
100
AcDbPoint
 10
6432.815363409376
 20
4601.169257607742
 30
0.0
  0
ENDBLK
  5
14E7F
330
14E7D
100
AcDbEntity
  8
0
 48
50.0
100
AcDbBlockEnd
  0
BLOCK
  5
15665
330
15664
100
AcDbEntity
  8
0
 48
50.0
100
AcDbBlockBegin
  2
*D32
 70
     1
 10
0.0
 20
0.0
 30
0.0
  3
*D32
  1

  0
LINE
  5
15686
330
15664
100
AcDbEntity
  8
寸法
 62
     0
 48
50.0
370
    -2
100
AcDbLine
 10
1410.129866693576
 20
4341.169257607742
 30
0.0
 11
1410.129866693576
 21
6407.336532454102
 31
0.0
  0
LINE
  5
15687
330
15664
100
AcDbEntity
  8
寸法
 62
     0
 48
50.0
370
    -2
100
AcDbLine
 10
4210.129866693576
 20
4341.169257607742
 30
0.0
 11
4210.129866693576
 21
6407.336532454102
 31
0.0
  0
LINE
  5
15688
330
15664
100
AcDbEntity
  8
寸法
 62
     0
 48
50.0
370
    -2
100
AcDbLine
 10
1410.129866693576
 20
6362.336532454101
 30
0.0
 11
4210.129866693576
 21
6362.336532454101
 31
0.0
  0
INSERT
  5
15689
330
15664
100
AcDbEntity
  8
寸法
 62
     0
 48
50.0
370
    -2
100
AcDbBlockReference
  2
_DOTSMALL
 10
1410.129866693576
 20
6362.336532454101
 30
0.0
 41
75.0
 42
75.0
 43
75.0
 50
180.0
  0
INSERT
  5
1568A
330
15664
100
AcDbEntity
  8
寸法
 62
     0
 48
50.0
370
    -2
100
AcDbBlockReference
  2
_DOTSMALL
 10
4210.129866693576
 20
6362.336532454101
 30
0.0
 41
75.0
 42
75.0
 43
75.0
  0
MTEXT
  5
1568B
330
15664
100
AcDbEntity
  8
寸法
 62
     7
 48
50.0
100
AcDbMText
 10
2810.129866693577
 20
6437.345390721818
 30
0.0
 40
90.0
 41
0.0
 71
     5
 72
     1
  1
\A1;2800
  7
STYLE1
 73
     1
 44
1.0
1001
ACAD
1000
MTEXTBEGIN
1070
    73
1070
     1
1070
    44
1040
1.0
1070
    74
1070
     0
1000
MTEXTEND
  0
POINT
  5
1568C
330
15664
100
AcDbEntity
  8
DEFPOINTS
 62
     0
 48
50.0
100
AcDbPoint
 10
1410.129866693576
 20
4326.169257607742
 30
-0.0000000000013153
  0
POINT
  5
1568D
330
15664
100
AcDbEntity
  8
DEFPOINTS
 62
     0
 48
50.0
100
AcDbPoint
 10
4210.129866693576
 20
4326.169257607742
 30
-0.0000000000013153
  0
POINT
  5
1568E
330
15664
100
AcDbEntity
  8
DEFPOINTS
 62
     0
 48
50.0
100
AcDbPoint
 10
4210.129866693576
 20
6362.336532454101
 30
0.0
  0
ENDBLK
  5
15666
330
15664
100
AcDbEntity
  8
0
 48
50.0
100
AcDbBlockEnd
  0
BLOCK
  5
15672
330
15671
100
AcDbEntity
  8
0
 48
50.0
100
AcDbBlockBegin
  2
*D33
 70
     1
 10
0.0
 20
0.0
 30
0.0
  3
*D33
  1

  0
LINE
  5
1567D
330
15671
100
AcDbEntity
  8
寸法
 62
     0
 48
50.0
370
    -2
100
AcDbLine
 10
4210.129866693576
 20
4341.169257607742
 30
0.0
 11
4210.129866693576
 21
6407.336532454102
 31
0.0
  0
LINE
  5
1567E
330
15671
100
AcDbEntity
  8
寸法
 62
     0
 48
50.0
370
    -2
100
AcDbLine
 10
7010.129866693576
 20
4341.169257607742
 30
0.0
 11
7010.129866693576
 21
6407.336532454102
 31
0.0
  0
LINE
  5
1567F
330
15671
100
AcDbEntity
  8
寸法
 62
     0
 48
50.0
370
    -2
100
AcDbLine
 10
4210.129866693576
 20
6362.336532454101
 30
0.0
 11
7010.129866693576
 21
6362.336532454101
 31
0.0
  0
INSERT
  5
15680
330
15671
100
AcDbEntity
  8
寸法
 62
     0
 48
50.0
370
    -2
100
AcDbBlockReference
  2
_DOTSMALL
 10
4210.129866693576
 20
6362.336532454101
 30
0.0
 41
75.0
 42
75.0
 43
75.0
 50
180.0
  0
INSERT
  5
15681
330
15671
100
AcDbEntity
  8
寸法
 62
     0
 48
50.0
370
    -2
100
AcDbBlockReference
  2
_DOTSMALL
 10
7010.129866693576
 20
6362.336532454101
 30
0.0
 41
75.0
 42
75.0
 43
75.0
  0
MTEXT
  5
15682
330
15671
100
AcDbEntity
  8
寸法
 62
     7
 48
50.0
100
AcDbMText
 10
5610.129866693576
 20
6437.345390721818
 30
0.0
 40
90.0
 41
0.0
 71
     5
 72
     1
  1
\A1;2800
  7
STYLE1
 73
     1
 44
1.0
1001
ACAD
1000
MTEXTBEGIN
1070
    73
1070
     1
1070
    44
1040
1.0
1070
    74
1070
     0
1000
MTEXTEND
  0
POINT
  5
15683
330
15671
100
AcDbEntity
  8
DEFPOINTS
 62
     0
 48
50.0
100
AcDbPoint
 10
4210.129866693576
 20
4326.169257607742
 30
-0.0000000000013153
  0
POINT
  5
15684
330
15671
100
AcDbEntity
  8
DEFPOINTS
 62
     0
 48
50.0
100
AcDbPoint
 10
7010.129866693576
 20
4326.169257607742
 30
-0.0000000000013153
  0
POINT
  5
15685
330
15671
100
AcDbEntity
  8
DEFPOINTS
 62
     0
 48
50.0
100
AcDbPoint
 10
7010.129866693576
 20
6362.336532454101
 30
0.0
  0
ENDBLK
  5
15673
330
15671
100
AcDbEntity
  8
0
 48
50.0
100
AcDbBlockEnd
  0
ENDSEC
  0
SECTION
  2
ENTITIES
  0
MTEXT
  5
763F
330
747D
100
AcDbEntity
  8
0
100
AcDbMText
 10
302.846345836809
 20
280.1983726409901
 30
0.0
 40
3.5
 41
5.323721266742722
 71
     1
 72
     5
  1

  7
MSMINCHO
 73
     1
 44
1.0
1001
ACAD
1000
MTEXTBEGIN
1070
    73
1070
     1
1070
    44
1040
1.0
1070
    74
1070
     0
1000
MTEXTEND
  0
LINE
  5
10B56
330
747D
100
AcDbEntity
  8
補助
  6
PHANTOM
 62
   230
 48
50.0
100
AcDbLine
 10
105.0
 20
0.0
 30
0.0
 11
104.9999999999996
 21
8557.199999999999
 31
0.0
  0
LINE
  5
10B57
330
747D
100
AcDbEntity
  8
補助
  6
PHANTOM
 62
   230
 48
50.0
100
AcDbLine
 10
104.9999999999996
 20
8557.199999999999
 30
0.0
 11
12230.4
 21
8557.199999999999
 31
0.0
  0
LINE
  5
10B5E
330
747D
100
AcDbEntity
  8
補助
  6
PHANTOM
 62
   230
 48
50.0
100
AcDbLine
 10
12230.4
 20
8557.199999999999
 30
0.0
 11
12230.4
 21
900.0
 31
0.0
  0
LINE
  5
10B6D
330
747D
100
AcDbEntity
  8
補助
  6
PHANTOM
 62
   230
 48
50.0
100
AcDbLine
 10
9830.400000000002
 20
8557.199999999999
 30
0.0
 11
9830.400000000002
 21
3600.0
 31
0.0
  0
LINE
  5
10B6F
330
747D
100
AcDbEntity
  8
補助
  6
PHANTOM
 62
   230
 48
50.0
100
AcDbLine
 10
9830.400000000002
 20
3110.960973647383
 30
0.0
 11
12230.4
 21
3110.960973647383
 31
0.0
  0
LINE
  5
13125
330
747D
100
AcDbEntity
  8
補助
  6
PHANTOM
 62
   230
 48
50.0
100
AcDbLine
 10
11930.4
 20
8182.200000000003
 30
0.0
 11
11930.4
 21
6457.2
 31
0.0
  0
LINE
  5
13126
330
747D
100
AcDbEntity
  8
補助
  6
PHANTOM
 62
   230
 48
50.0
100
AcDbLine
 10
9380.400000000003
 20
8182.199999999999
 30
0.0
 11
9380.400000000003
 21
6457.2
 31
0.0
  0
LINE
  5
13127
330
747D
100
AcDbEntity
  8
補助
  6
PHANTOM
 62
   230
 48
50.0
100
AcDbLine
 10
9380.400000000003
 20
6457.2
 30
0.0
 11
11930.4
 21
6457.2
 31
0.0
  0
LINE
  5
13128
330
747D
100
AcDbEntity
  8
補助
  6
PHANTOM
 62
   230
 48
50.0
100
AcDbLine
 10
9380.400000000003
 20
8182.199999999999
 30
0.0
 11
11930.4
 21
8182.200000000003
 31
0.0
  0
TEXT
  5
13A73
330
747D
100
AcDbEntity
  8
文字
 62
     7
 48
50.0
100
AcDbText
 10
10893.0988779165
 20
773.6682797184258
 30
0.0
 40
75.0
  1
             <縮尺> S=1/30
  7
STYLE2
100
AcDbText
  0
TEXT
  5
13A74
330
747D
100
AcDbEntity
  8
文字
 62
     7
 48
50.0
100
AcDbText
 10
11138.71739229687
 20
628.6895453046927
 30
0.0
 40
75.0
  1
～一般型～
  7
STYLE2
100
AcDbText
  0
TEXT
  5
13A75
330
747D
100
AcDbEntity
  8
文字
 62
     7
 48
50.0
100
AcDbText
 10
10951.9835159712
 20
362.922534743353
 30
0.0
 40
120.0
  1
BP-28VPL-2
  7
STYLE3
100
AcDbText
  0
LINE
  5
13A76
330
747D
100
AcDbEntity
  8
仕様書枠
  6
Continuous
 48
50.0
100
AcDbLine
 10
10688.4
 20
900.0000000000037
 30
0.0
 11
10688.4
 21
600.0000000000036
 31
0.0
  0
LINE
  5
13A77
330
747D
100
AcDbEntity
  8
仕様書枠
 48
50.0
100
AcDbLine
 10
9830.400000000002
 20
600.0000000000036
 30
0.0
 11
10688.4
 21
600.0000000000036
 31
0.0
  0
TEXT
  5
13A78
330
747D
100
AcDbEntity
  8
文字
 62
     7
 48
50.0
100
AcDbText
 10
9907.054008162901
 20
57.07076030736789
 30
0.0
 40
60.0
  1
○寒冷地等は、地域の実情に合わせた基礎にしてください。
  7
STYLE2
100
AcDbText
  0
TEXT
  5
13A79
330
747D
100
AcDbEntity
  8
文字
 62
     7
 48
50.0
100
AcDbText
 10
9907.054008162901
 20
171.4076431926805
 30
0.0
 40
60.0
  1
○間口寸法は柱芯寸法です。
  7
STYLE2
100
AcDbText
  0
TEXT
  5
13A7A
330
747D
100
AcDbEntity
  8
文字
 62
     7
 48
50.0
100
AcDbText
 10
9901.077524988316
 20
357.9555495773529
 30
0.0
 40
120.0
  1
機種名
  7
STYLE2
100
AcDbText
  0
TEXT
  5
13A7B
330
747D
100
AcDbEntity
  8
文字
 62
     7
 48
50.0
100
AcDbText
 10
9872.234292432681
 20
671.31795557246
 30
0.0
 40
150.0
  1
基 礎 図
  7
STYLE2
100
AcDbText
  0
LINE
  5
13A7C
330
747D
100
AcDbEntity
  8
文字
 62
     7
 48
50.0
100
AcDbLine
 10
9890.400000000001
 20
300.0
 30
0.0
 11
12170.4
 21
300.0
 31
0.0
  0
LINE
  5
13A7D
330
747D
100
AcDbEntity
  8
仕様書枠
 48
50.0
100
AcDbLine
 10
9830.400000000002
 20
900.0000000000037
 30
0.0
 11
12230.4
 21
900.0000000000037
 31
0.0
  0
LINE
  5
13A7E
330
747D
100
AcDbEntity
  8
仕様書枠
 48
50.0
100
AcDbLine
 10
105.0
 20
0.0
 30
0.0
 11
12230.4
 21
0.0
 31
0.0
  0
LINE
  5
13A7F
330
747D
100
AcDbEntity
  8
仕様書枠
 48
50.0
100
AcDbLine
 10
12230.4
 20
900.0000000000037
 30
0.0
 11
12230.4
 21
0.0
 31
0.0
  0
LINE
  5
13A80
330
747D
100
AcDbEntity
  8
仕様書枠
  6
Continuous
 48
50.0
100
AcDbLine
 10
9830.400000000002
 20
900.0000000000037
 30
0.0
 11
9830.400000000002
 21
0.0
 31
0.0
  0
LINE
  5
147BF
330
747D
100
AcDbEntity
  8
細線
 48
50.0
100
AcDbLine
 10
9499.985711473149
 20
3224.725946420285
 30
0.0
 11
9493.286981662379
 21
3249.725946420286
 31
0.0
  0
LINE
  5
147C0
330
747D
100
AcDbEntity
  8
細線
 48
50.0
100
AcDbLine
 10
9376.723141243033
 20
3224.725946420285
 30
0.0
 11
9370.024411432263
 21
3249.725946420286
 31
0.0
  0
LINE
  5
147C1
330
747D
100
AcDbEntity
  8
細線
 48
50.0
100
AcDbLine
 10
9253.460571012977
 20
3224.725946420285
 30
0.0
 11
9246.761841202205
 21
3249.725946420286
 31
0.0
  0
LINE
  5
147C2
330
747D
100
AcDbEntity
  8
細線
 48
50.0
100
AcDbLine
 10
9130.198000782918
 20
3224.725946420285
 30
0.0
 11
9123.499270972148
 21
3249.725946420286
 31
0.0
  0
LINE
  5
147C3
330
747D
100
AcDbEntity
  8
細線
 48
50.0
100
AcDbLine
 10
9506.684441283921
 20
3299.725946420286
 30
0.0
 11
9499.985711473149
 21
3324.725946420286
 31
0.0
  0
LINE
  5
147C4
330
747D
100
AcDbEntity
  8
細線
 48
50.0
100
AcDbLine
 10
9383.421871053803
 20
3299.725946420286
 30
0.0
 11
9376.723141243033
 21
3324.725946420286
 31
0.0
  0
LINE
  5
147C5
330
747D
100
AcDbEntity
  8
細線
 48
50.0
100
AcDbLine
 10
9136.896730593688
 20
3299.725946420286
 30
0.0
 11
9130.198000782918
 21
3324.725946420286
 31
0.0
  0
LINE
  5
147C6
330
747D
100
AcDbEntity
  8
細線
 48
50.0
100
AcDbLine
 10
9260.159300823747
 20
3299.725946420286
 30
0.0
 11
9253.460571012977
 21
3324.725946420286
 31
0.0
  0
HATCH
  5
147C7
330
747D
100
AcDbEntity
  8
細線
 48
50.0
100
AcDbHatch
 10
0.0
 20
0.0
 30
0.0000000000013153
210
0.0
220
0.0
230
1.0
  2
PLAST
 70
     0
 71
     0
 91
       10
 92
        7
 72
     1
 73
     1
 93
       16
 10
9587.822610616502
 20
4038.725946420285
 42
0.0
 10
9573.822610616502
 20
4038.725946420285
 42
0.0
 10
9559.822610616503
 20
4024.725946420285
 42
0.0
 10
8607.372610616433
 20
4024.725946420285
 42
0.0
 10
8607.372610616492
 20
3924.725946420286
 42
0.0
 10
9107.372610616492
 20
3924.725946420286
 42
0.0
 10
9107.372610616492
 20
3824.725946420315
 42
0.0
 10
9432.372610616491
 20
3824.725946420315
 42
0.0
 10
9432.372610616491
 20
3859.725946420286
 42
0.0
 10
9427.37261061649
 20
3859.725946420286
 42
-0.4142135623730951
 10
9422.37261061649
 20
3864.725946420286
 42
-0.4142135623730951
 10
9427.37261061649
 20
3869.725946420285
 42
0.0
 10
9498.822610616501
 20
3869.725946420285
 42
0.0
 10
9498.822610616501
 20
3906.725946420286
 42
0.0
 10
9508.822610616503
 20
3916.725946420285
 42
0.0
 10
9587.822610616502
 20
3916.725946420285
 42
0.0
 97
        0
 92
       23
 72
     0
 73
     1
 93
        6
 10
9526.37261061649
 20
3854.725946420285
 10
9492.37261061649
 20
3854.725946420285
 10
9492.37261061649
 20
3859.725946420286
 10
9445.372610616491
 20
3859.725946420286
 10
9445.372610616491
 20
3824.725946420315
 10
9526.37261061649
 20
3824.725946420315
 97
        0
 92
        7
 72
     1
 73
     1
 93
        4
 10
9632.372610616492
 20
3854.725946420315
 42
0.0
 10
9538.372610616489
 20
3854.7259464203
 42
0.0
 10
9538.372610616489
 20
3824.725946420315
 42
0.0
 10
9587.72734125633
 20
3824.725946420315
 42
-0.304773531682055
 97
        0
 92
        7
 72
     1
 73
     1
 93
        4
 10
9726.372610616492
 20
3854.725946420285
 42
0.0
 10
9632.372610616492
 20
3854.725946420315
 42
-0.304773531682055
 10
9677.017879976652
 20
3824.725946420315
 42
0.0
 10
9726.372610616492
 20
3824.725946420315
 42
0.0
 97
        0
 92
        7
 72
     0
 73
     1
 93
        8
 10
9876.372610616492
 20
3854.725946420285
 10
9842.372610616491
 20
3854.725946420285
 10
9842.372610616491
 20
3859.725946420286
 10
9772.372610616491
 20
3859.725946420286
 10
9772.372610616491
 20
3854.725946420285
 10
9738.37261061649
 20
3854.725946420285
 10
9738.37261061649
 20
3824.725946420315
 10
9876.372610616492
 20
3824.725946420315
 97
        0
 92
        7
 72
     0
 73
     1
 93
       14
 10
9848.822610616503
 20
3906.725946420286
 10
9858.822610616503
 20
3916.725946420285
 10
9937.822610616501
 20
3916.725946420285
 10
9937.822610616501
 20
4038.725946420285
 10
9923.822610616504
 20
4038.725946420285
 10
9909.822610616503
 20
4024.725946420271
 10
9704.922610616479
 20
4024.725946420285
 10
9690.922610616539
 20
4038.725946420285
 10
9676.922610616479
 20
4038.725946420285
 10
9676.922610616479
 20
3916.725946420285
 10
9755.92261061648
 20
3916.725946420285
 10
9765.922610616479
 20
3906.725946420286
 10
9765.922610616479
 20
3869.725946420285
 10
9848.822610616503
 20
3869.725946420285
 97
        0
 92
        7
 72
     1
 73
     1
 93
        4
 10
9982.372610616492
 20
3854.725946420315
 42
0.0
 10
9888.372610616491
 20
3854.7259464203
 42
0.0
 10
9888.372610616491
 20
3824.725946420315
 42
0.0
 10
9937.72734125633
 20
3824.725946420315
 42
-0.3047735316820541
 97
        0
 92
        7
 72
     1
 73
     1
 93
        4
 10
10076.37261061649
 20
3854.725946420285
 42
0.0
 10
9982.372610616492
 20
3854.725946420315
 42
-0.3047735316820546
 10
10027.01787997665
 20
3824.725946420315
 42
0.0
 10
10076.37261061649
 20
3824.725946420315
 42
0.0
 97
        0
 92
       23
 72
     0
 73
     1
 93
        6
 10
10169.37261061649
 20
3859.725946420286
 10
10122.37261061649
 20
3859.725946420286
 10
10122.37261061649
 20
3854.725946420285
 10
10088.37261061649
 20
3854.725946420285
 10
10088.37261061649
 20
3824.725946420315
 10
10169.37261061649
 20
3824.725946420315
 97
        0
 92
        7
 72
     1
 73
     1
 93
       16
 10
10507.37261061649
 20
3924.725946420286
 42
0.0
 10
11007.37261061649
 20
3924.725946420286
 42
0.0
 10
11007.37261061655
 20
4024.725946420285
 42
0.0
 10
10054.92261061648
 20
4024.725946420285
 42
0.0
 10
10040.92261061654
 20
4038.725946420285
 42
0.0
 10
10026.92261061648
 20
4038.725946420285
 42
0.0
 10
10026.92261061648
 20
3916.725946420285
 42
0.0
 10
10105.92261061648
 20
3916.725946420285
 42
0.0
 10
10115.92261061648
 20
3906.725946420286
 42
0.0
 10
10115.92261061648
 20
3869.725946420285
 42
0.0
 10
10187.37261061649
 20
3869.725946420285
 42
-0.4142135623730951
 10
10192.37261061649
 20
3864.725946420286
 42
-0.4142135623730951
 10
10187.37261061649
 20
3859.725946420286
 42
0.0
 10
10182.37261061649
 20
3859.725946420286
 42
0.0
 10
10182.37261061649
 20
3824.725946420315
 42
0.0
 10
10507.37261061649
 20
3824.725946420315
 42
0.0
 97
        0
 75
     0
 76
     1
 52
45.0
 41
37.5
 77
     0
 78
     3
 53
45.0
 43
-266855.342736511
 44
111735.5560285903
 45
-168.3798022700466
 46
168.3798022700466
 79
     0
 53
45.0
 43
-266876.3902117947
 44
111756.603503874
 45
-168.3798022700466
 46
168.3798022700466
 79
     0
 53
45.0
 43
-266897.4376870785
 44
111777.6509791578
 45
-168.3798022700466
 46
168.3798022700466
 79
     0
 47
2.934270310785949
 98
       10
 10
9348.831665925208
 20
3971.203659497615
 10
9481.939203148584
 20
3831.957890092954
 10
9570.264158712985
 20
3834.250936273841
 10
9699.883594183477
 20
3839.983656594157
 10
9813.444251337722
 20
3841.130284552701
 10
9815.73848215612
 20
3889.285512768524
 10
9927.00462935451
 20
3842.276702775014
 10
10054.33011314412
 20
3838.837238371814
 10
10139.21386204968
 20
3838.837238371814
 10
10405.90067881095
 20
3910.756210430327
1001
GradientColor1ACI
1070
     5
1001
GradientColor2ACI
1070
     2
1001
ACAD
1010
0.0
1020
0.0
1030
0.0
  0
CIRCLE
  5
147C8
330
747D
100
AcDbEntity
  8
U7
100
AcDbCircle
 10
9427.37261061649
 20
3864.725946420286
 30
0.0
 40
5.0
  0
CIRCLE
  5
147C9
330
747D
100
AcDbEntity
  8
U7
100
AcDbCircle
 10
10187.37261061649
 20
3864.725946420286
 30
0.0
 40
5.0
  0
LINE
  5
147CA
330
747D
100
AcDbEntity
  8
U7
100
AcDbLine
 10
9427.37261061649
 20
3859.725946420286
 30
0.0
 11
10187.37261061649
 21
3859.725946420286
 31
0.0
  0
LINE
  5
147CB
330
747D
100
AcDbEntity
  8
U7
100
AcDbLine
 10
9427.37261061649
 20
3869.725946420285
 30
0.0
 11
10187.37261061649
 21
3869.725946420285
 31
0.0
  0
HATCH
  5
147CC
330
747D
100
AcDbEntity
  8
細線
 48
50.0
100
AcDbHatch
 10
0.0
 20
0.0
 30
0.0000000000013153
210
0.0
220
0.0
230
1.0
  2
PLAST
 70
     0
 71
     0
 91
       29
 92
        7
 72
     1
 73
     1
 93
       34
 10
9427.37261061649
 20
3669.725946420285
 42
0.0
 10
9432.372610616491
 20
3669.725946420285
 42
0.0
 10
9432.372610616491
 20
3759.725946420286
 42
0.0
 10
9427.37261061649
 20
3759.725946420286
 42
-0.4142135623730951
 10
9422.37261061649
 20
3764.725946420286
 42
-0.4142135623730951
 10
9427.37261061649
 20
3769.725946420285
 42
0.0
 10
9432.372610616491
 20
3769.725946420285
 42
0.0
 10
9432.372610616491
 20
3824.725946420315
 42
0.0
 10
9107.372610616492
 20
3824.725946420315
 42
0.0
 10
9107.372610616492
 20
3374.725946420286
 42
0.0
 10
9227.372610616489
 20
3374.725946420286
 42
0.0
 10
9291.653062178571
 20
3439.006397982367
 42
0.0
 10
9291.653062178571
 20
3449.7259464203
 42
0.0
 10
9302.37261061649
 20
3449.7259464203
 42
0.0
 10
9303.83707671053
 20
3451.190412514354
 42
-0.1989123673796434
 10
9302.37261061649
 20
3454.725946420285
 42
-1.0
 10
9312.37261061649
 20
3454.725946420285
 42
-0.4142135623730992
 10
9307.372610616491
 20
3449.725946420286
 42
0.0
 10
9363.101297706766
 20
3449.725946420286
 42
0.0
 10
9400.101297706767
 20
3486.725946420285
 42
0.0
 10
9256.922610616479
 20
3486.725946420285
 42
0.0
 10
9256.922610616479
 20
3499.725946420286
 42
0.0
 10
9402.37261061649
 20
3499.725946420286
 42
0.1260483184577218
 10
9416.796119878817
 20
3503.420768592352
 42
0.0
 10
9428.677788444439
 20
3515.302437157944
 42
0.1260483184577219
 10
9432.372610616491
 20
3529.725946420285
 42
0.0
 10
9432.372610616491
 20
3559.725946420286
 42
0.0
 10
9427.37261061649
 20
3559.725946420286
 42
-0.4142135623730951
 10
9422.37261061649
 20
3564.725946420285
 42
-0.4142135623730951
 10
9427.37261061649
 20
3569.725946420285
 42
0.0
 10
9432.372610616491
 20
3569.725946420285
 42
0.0
 10
9432.372610616491
 20
3659.725946420286
 42
0.0
 10
9427.37261061649
 20
3659.725946420286
 42
-0.4142135623730951
 10
9422.37261061649
 20
3664.725946420285
 42
-0.4142135623730951
 97
        0
 92
        7
 72
     0
 73
     1
 93
        4
 10
9526.37261061649
 20
3824.725946420315
 10
9445.372610616491
 20
3824.725946420315
 10
9445.372610616491
 20
3769.725946420285
 10
9526.37261061649
 20
3769.725946420285
 97
        0
 92
        7
 72
     0
 73
     1
 93
        4
 10
9526.37261061649
 20
3759.725946420286
 10
9445.372610616491
 20
3759.725946420286
 10
9445.372610616491
 20
3669.725946420285
 10
9526.37261061649
 20
3669.725946420285
 97
        0
 92
        7
 72
     1
 73
     1
 93
        7
 10
9526.37261061649
 20
3659.725946420286
 42
0.0
 10
9445.372610616491
 20
3659.725946420286
 42
0.0
 10
9445.372610616491
 20
3569.725946420285
 42
0.0
 10
9482.372610616492
 20
3569.725946420285
 42
0.0
 10
9482.372610616492
 20
3575.725946420285
 42
0.0
 10
9501.37261061649
 20
3575.725946420285
 42
0.4142135623730951
 10
9526.37261061649
 20
3600.725946420285
 42
0.0
 97
        0
 92
        7
 72
     1
 73
     1
 93
       12
 10
9632.372610616492
 20
3559.725946420286
 42
0.0
 10
9473.101297706767
 20
3559.725946420286
 42
0.0
 10
9445.372610616491
 20
3531.99725933001
 42
0.0
 10
9445.372610616491
 20
3529.725946420285
 42
-0.4142135623730951
 10
9402.37261061649
 20
3486.725946420285
 42
0.0
 10
9400.101297706767
 20
3486.725946420285
 42
0.0
 10
9363.101297706766
 20
3449.7259464203
 42
0.0
 10
9507.37261061649
 20
3449.725946420286
 42
-0.4142135623730918
 10
9502.37261061649
 20
3454.725946420285
 42
-1.0
 10
9512.372610616491
 20
3454.725946420285
 42
-0.4142135623730984
 10
9507.37261061649
 20
3449.725946420286
 42
0.0
 10
9632.372610616492
 20
3449.725946420286
 42
0.0
 97
        0
 92
       23
 72
     0
 73
     1
 93
        4
 10
9353.101297706766
 20
3439.725946420271
 10
9292.372610616491
 20
3439.725946420271
 10
9227.372610616489
 20
3374.725946420286
 10
9288.101297706765
 20
3374.725946420286
 97
        0
 92
        7
 72
     0
 73
     1
 93
        4
 10
9632.372610616492
 20
3439.725946420271
 10
9353.101297706766
 20
3439.725946420271
 10
9288.101297706765
 20
3374.725946420286
 10
9632.372610616492
 20
3374.725946420286
 97
        0
 92
        7
 72
     0
 73
     1
 93
        4
 10
9632.372610616492
 20
3824.725946420315
 10
9538.372610616489
 20
3824.725946420315
 10
9538.372610616489
 20
3769.725946420285
 10
9632.372610616492
 20
3769.725946420285
 97
        0
 92
        7
 72
     0
 73
     1
 93
        4
 10
9632.372610616492
 20
3759.725946420286
 10
9538.372610616489
 20
3759.725946420286
 10
9538.372610616489
 20
3669.725946420285
 10
9632.372610616492
 20
3669.725946420285
 97
        0
 92
        7
 72
     1
 73
     1
 93
        5
 10
9632.372610616492
 20
3659.725946420286
 42
0.0
 10
9538.372610616489
 20
3659.725946420286
 42
0.0
 10
9538.372610616489
 20
3600.725946420285
 42
-0.2535612698375805
 10
9521.571620493189
 20
3569.725946420285
 42
0.0
 10
9632.372610616492
 20
3569.725946420285
 42
0.0
 97
        0
 92
        7
 72
     0
 73
     1
 93
        4
 10
9982.372610616492
 20
3439.725946420285
 10
9632.372610616492
 20
3439.725946420271
 10
9632.372610616492
 20
3374.725946420286
 10
9982.372610616492
 20
3374.725946420286
 97
        0
 92
        7
 72
     1
 73
     1
 93
       12
 10
9982.372610616492
 20
3559.725946420286
 42
0.0
 10
9632.372610616492
 20
3559.725946420286
 42
0.0
 10
9632.372610616492
 20
3449.7259464203
 42
0.0
 10
9707.372610616491
 20
3449.725946420286
 42
-0.4142135623730918
 10
9702.372610616491
 20
3454.725946420285
 42
-1.0
 10
9712.37261061649
 20
3454.725946420285
 42
-0.4142135623730984
 10
9707.372610616491
 20
3449.725946420286
 42
0.0
 10
9907.372610616491
 20
3449.725946420286
 42
-0.4142135623730951
 10
9902.37261061649
 20
3454.725946420285
 42
-1.0
 10
9912.372610616491
 20
3454.725946420285
 42
-0.4142135623731017
 10
9907.372610616491
 20
3449.725946420286
 42
0.0
 10
9982.372610616492
 20
3449.725946420286
 42
0.0
 97
        0
 92
        7
 72
     1
 73
     1
 93
        5
 10
9726.372610616492
 20
3659.725946420286
 42
0.0
 10
9632.372610616492
 20
3659.725946420286
 42
0.0
 10
9632.372610616492
 20
3569.725946420285
 42
0.0
 10
9743.173600739794
 20
3569.725946420285
 42
-0.2535612698375802
 10
9726.372610616492
 20
3600.725946420285
 42
0.0
 97
        0
 92
        7
 72
     0
 73
     1
 93
        4
 10
9726.372610616492
 20
3759.725946420286
 10
9632.372610616492
 20
3759.725946420286
 10
9632.372610616492
 20
3669.725946420285
 10
9726.372610616492
 20
3669.725946420285
 97
        0
 92
        7
 72
     0
 73
     1
 93
        4
 10
9726.372610616492
 20
3824.725946420315
 10
9632.372610616492
 20
3824.725946420315
 10
9632.372610616492
 20
3769.725946420285
 10
9726.372610616492
 20
3769.725946420285
 97
        0
 92
        7
 72
     0
 73
     1
 93
        4
 10
9876.372610616492
 20
3824.725946420315
 10
9738.37261061649
 20
3824.725946420315
 10
9738.37261061649
 20
3769.725946420285
 10
9876.372610616492
 20
3769.725946420285
 97
        0
 92
        7
 72
     0
 73
     1
 93
        4
 10
9876.372610616492
 20
3759.725946420286
 10
9738.37261061649
 20
3759.725946420286
 10
9738.37261061649
 20
3669.725946420285
 10
9876.372610616492
 20
3669.725946420285
 97
        0
 92
        7
 72
     1
 73
     1
 93
       10
 10
9876.372610616492
 20
3659.725946420286
 42
0.0
 10
9738.37261061649
 20
3659.725946420286
 42
0.0
 10
9738.37261061649
 20
3600.725946420285
 42
0.4142135623730951
 10
9763.372610616491
 20
3575.725946420285
 42
0.0
 10
9782.372610616491
 20
3575.725946420285
 42
0.0
 10
9782.372610616491
 20
3569.725946420285
 42
0.0
 10
9832.372610616491
 20
3569.725946420285
 42
0.0
 10
9832.372610616491
 20
3575.725946420285
 42
0.0
 10
9851.372610616492
 20
3575.725946420285
 42
0.4142135623730951
 10
9876.372610616492
 20
3600.725946420285
 42
0.0
 97
        0
 92
        7
 72
     0
 73
     1
 93
        4
 10
9982.372610616492
 20
3824.725946420315
 10
9888.372610616491
 20
3824.725946420315
 10
9888.372610616491
 20
3769.725946420285
 10
9982.372610616492
 20
3769.725946420285
 97
        0
 92
        7
 72
     0
 73
     1
 93
        4
 10
10076.37261061649
 20
3824.725946420315
 10
9982.372610616492
 20
3824.725946420315
 10
9982.372610616492
 20
3769.725946420285
 10
10076.37261061649
 20
3769.725946420285
 97
        0
 92
        7
 72
     0
 73
     1
 93
        4
 10
10076.37261061649
 20
3759.725946420286
 10
9982.372610616492
 20
3759.725946420286
 10
9982.372610616492
 20
3669.725946420285
 10
10076.37261061649
 20
3669.725946420285
 97
        0
 92
        7
 72
     0
 73
     1
 93
        4
 10
9982.372610616492
 20
3759.725946420286
 10
9888.372610616491
 20
3759.725946420286
 10
9888.372610616491
 20
3669.725946420285
 10
9982.372610616492
 20
3669.725946420285
 97
        0
 92
        7
 72
     1
 73
     1
 93
        5
 10
9982.372610616492
 20
3659.725946420286
 42
0.0
 10
9888.372610616491
 20
3659.725946420286
 42
0.0
 10
9888.372610616491
 20
3600.725946420285
 42
-0.2535612698375804
 10
9871.57162049319
 20
3569.725946420285
 42
0.0
 10
9982.372610616492
 20
3569.725946420285
 42
0.0
 97
        0
 92
       23
 72
     1
 73
     1
 93
        5
 10
10076.37261061649
 20
3659.725946420286
 42
0.0
 10
9982.372610616492
 20
3659.725946420286
 42
0.0
 10
9982.372610616492
 20
3569.725946420285
 42
0.0
 10
10093.17360073979
 20
3569.725946420285
 42
-0.2535612698375802
 10
10076.37261061649
 20
3600.725946420285
 42
0.0
 97
        0
 92
        7
 72
     1
 73
     1
 93
       34
 10
10169.3726106166
 20
3529.725946420285
 42
0.0
 10
10169.3726106166
 20
3559.725946420286
 42
0.0
 10
9982.372610616492
 20
3559.725946420286
 42
0.0
 10
9982.372610616492
 20
3449.725946420286
 42
0.0
 10
10107.37261061649
 20
3449.725946420286
 42
-0.4142135623730885
 10
10102.37261061649
 20
3454.725946420285
 42
-1.0
 10
10112.37261061649
 20
3454.725946420285
 42
-0.4142135623731017
 10
10107.37261061649
 20
3449.725946420286
 42
0.0
 10
10307.37261061649
 20
3449.725946420286
 42
-0.4142135623730951
 10
10302.37261061649
 20
3454.725946420285
 42
-1.0
 10
10312.37261061649
 20
3454.725946420285
 42
-0.4142135623731017
 10
10307.37261061649
 20
3449.725946420286
 42
0.0
 10
10323.09215905441
 20
3449.725946420286
 42
0.0
 10
10323.09215905441
 20
3439.725946420285
 42
0.0
 10
9982.372610616492
 20
3439.725946420285
 42
0.0
 10
9982.372610616492
 20
3374.725946420286
 42
0.0
 10
10507.37261061649
 20
3374.725946420286
 42
0.0
 10
10507.37261061649
 20
3527.087108933649
 42
0.0
 10
10182.37261061649
 20
3714.725946420286
 42
0.0
 10
10182.37261061649
 20
3669.725946420285
 42
0.0
 10
10187.37261061649
 20
3669.725946420285
 42
-0.4142135623730951
 10
10192.37261061649
 20
3664.725946420285
 42
-0.4142135623730951
 10
10187.37261061649
 20
3659.725946420286
 42
0.0
 10
10182.37261061649
 20
3659.725946420286
 42
0.0
 10
10182.37261061649
 20
3569.725946420285
 42
0.0
 10
10187.37261061649
 20
3569.725946420285
 42
-0.4142135623730951
 10
10192.37261061649
 20
3564.725946420285
 42
-0.4142135623730951
 10
10187.37261061649
 20
3559.725946420286
 42
0.0
 10
10182.37261061649
 20
3559.725946420286
 42
0.0
 10
10182.37261061661
 20
3529.725946420285
 42
0.4142135623730951
 10
10212.3726106166
 20
3499.725946420286
 42
0.0
 10
10357.82261061662
 20
3499.725946420286
 42
0.0
 10
10357.82261061662
 20
3486.725946420285
 42
0.0
 10
10212.3726106166
 20
3486.725946420285
 42
-0.4142135623730945
 97
        0
 92
       23
 72
     1
 73
     1
 93
        7
 10
10169.37261061649
 20
3659.725946420286
 42
0.0
 10
10088.37261061649
 20
3659.725946420286
 42
0.0
 10
10088.37261061649
 20
3600.725946420285
 42
0.4142135623730946
 10
10113.37261061649
 20
3575.725946420285
 42
0.0
 10
10132.37261061649
 20
3575.725946420285
 42
0.0
 10
10132.37261061649
 20
3569.725946420285
 42
0.0
 10
10169.37261061649
 20
3569.725946420285
 42
0.0
 97
        0
 92
        7
 72
     0
 73
     1
 93
        4
 10
10169.37261061649
 20
3759.725946420286
 10
10088.37261061649
 20
3759.725946420286
 10
10088.37261061649
 20
3669.725946420285
 10
10169.37261061649
 20
3669.725946420285
 97
        0
 92
        7
 72
     0
 73
     1
 93
        4
 10
10169.37261061649
 20
3824.725946420315
 10
10088.37261061649
 20
3824.725946420315
 10
10088.37261061649
 20
3769.725946420285
 10
10169.37261061649
 20
3769.725946420285
 97
        0
 92
        7
 72
     1
 73
     1
 93
        9
 10
10507.37261061649
 20
3824.725946420315
 42
0.0
 10
10182.37261061649
 20
3824.725946420315
 42
0.0
 10
10182.37261061649
 20
3769.725946420285
 42
0.0
 10
10187.37261061649
 20
3769.725946420285
 42
-0.4142135623730951
 10
10192.37261061649
 20
3764.725946420286
 42
-0.4142135623730951
 10
10187.37261061649
 20
3759.725946420286
 42
0.0
 10
10182.37261061649
 20
3759.725946420286
 42
0.0
 10
10182.37261061649
 20
3714.725946420286
 42
0.0
 10
10507.37261061649
 20
3527.087108933649
 42
0.0
 97
        0
 75
     0
 76
     1
 52
135.0
 41
37.5
 77
     0
 78
     3
 53
135.0
 43
-266855.342736511
 44
111735.5560285903
 45
-168.3798022700466
 46
-168.3798022700466
 79
     0
 53
135.0
 43
-266876.3902117947
 44
111714.5085533065
 45
-168.3798022700466
 46
-168.3798022700466
 79
     0
 53
135.0
 43
-266897.4376870785
 44
111693.4610780228
 45
-168.3798022700466
 46
-168.3798022700466
 79
     0
 47
2.834284063646393
 98
       29
 10
9290.802336764455
 20
3665.888325278885
 10
9486.457043006891
 20
3793.431232632813
 10
9483.621285507913
 20
3714.071238676819
 10
9492.127999729877
 20
3603.534164162737
 10
9511.977185672725
 20
3498.665630683192
 10
9279.46014418103
 20
3407.968554658122
 10
9381.540714844472
 20
3407.968554658122
 10
9594.208570393318
 20
3799.099773667351
 10
9588.537613670334
 20
3716.905614062189
 10
9588.537613670334
 20
3600.699788777338
 10
9758.671898109424
 20
3410.802930043492
 10
9735.987233805055
 20
3512.837088137638
 10
9684.946948473335
 20
3634.711244720796
 10
9690.618184333835
 20
3739.579778200341
 10
9684.946948473335
 20
3799.099773667351
 10
9821.05437602463
 20
3796.265398281952
 10
9809.712183441204
 20
3708.402697642281
 10
9809.712183441204
 20
3614.871246231813
 10
9914.628232466109
 20
3799.099773667351
 10
10025.21579648903
 20
3801.934149052721
 10
10045.06470329442
 20
3722.574155096727
 10
9945.81961099244
 20
3711.237073027651
 10
9940.148375131997
 20
3617.705621617182
 10
10028.05127485049
 20
3612.037080582644
 10
10053.57141751638
 20
3510.002712752268
 10
10127.29636715247
 20
3612.037080582644
 10
10118.7896529305
 20
3708.402697642281
 10
10127.29636715247
 20
3782.094150563736
 10
10303.10188745206
 20
3782.094150563736
1001
GradientColor1ACI
1070
     5
1001
GradientColor2ACI
1070
     2
1001
ACAD
1010
0.0
1020
0.0
1030
0.0
  0
CIRCLE
  5
147CD
330
747D
100
AcDbEntity
  8
U7
100
AcDbCircle
 10
9427.37261061649
 20
3764.725946420286
 30
0.0
 40
5.0
  0
CIRCLE
  5
147CE
330
747D
100
AcDbEntity
  8
U7
100
AcDbCircle
 10
10187.37261061649
 20
3764.725946420286
 30
0.0
 40
5.0
  0
LINE
  5
147CF
330
747D
100
AcDbEntity
  8
U7
100
AcDbLine
 10
9427.37261061649
 20
3759.725946420286
 30
0.0
 11
10187.37261061649
 21
3759.725946420286
 31
0.0
  0
CIRCLE
  5
147D0
330
747D
100
AcDbEntity
  8
U7
100
AcDbCircle
 10
9427.37261061649
 20
3664.725946420285
 30
0.0
 40
5.0
  0
LINE
  5
147D1
330
747D
100
AcDbEntity
  8
U7
100
AcDbLine
 10
9427.37261061649
 20
3769.725946420285
 30
0.0
 11
10187.37261061649
 21
3769.725946420285
 31
0.0
  0
CIRCLE
  5
147D2
330
747D
100
AcDbEntity
  8
U7
100
AcDbCircle
 10
10187.37261061649
 20
3664.725946420285
 30
0.0
 40
5.0
  0
LINE
  5
147D3
330
747D
100
AcDbEntity
  8
U7
100
AcDbLine
 10
9427.37261061649
 20
3659.725946420286
 30
0.0
 11
10187.37261061649
 21
3659.725946420286
 31
0.0
  0
LINE
  5
147D4
330
747D
100
AcDbEntity
  8
U7
100
AcDbLine
 10
9427.37261061649
 20
3669.725946420285
 30
0.0
 11
10187.37261061649
 21
3669.725946420285
 31
0.0
  0
CIRCLE
  5
147D5
330
747D
100
AcDbEntity
  8
U7
100
AcDbCircle
 10
10187.37261061649
 20
3564.725946420285
 30
0.0
 40
5.0
  0
CIRCLE
  5
147D6
330
747D
100
AcDbEntity
  8
U7
100
AcDbCircle
 10
9427.37261061649
 20
3564.725946420285
 30
0.0
 40
5.0
  0
LINE
  5
147D7
330
747D
100
AcDbEntity
  8
U7
100
AcDbLine
 10
9427.37261061649
 20
3569.725946420285
 30
0.0
 11
10187.37261061649
 21
3569.725946420285
 31
0.0
  0
LINE
  5
147D8
330
747D
100
AcDbEntity
  8
U7
100
AcDbLine
 10
9427.37261061649
 20
3559.725946420286
 30
0.0
 11
10187.37261061649
 21
3559.725946420286
 31
0.0
  0
LINE
  5
147D9
330
747D
100
AcDbEntity
  8
KIN-T
100
AcDbLine
 10
10357.82261061662
 20
3486.725946420285
 30
0.0
 11
10212.3726106166
 21
3486.725946420285
 31
0.0
  0
LINE
  5
147DA
330
747D
100
AcDbEntity
  8
KIN-T
100
AcDbLine
 10
10357.82261061662
 20
3499.725946420286
 30
0.0
 11
10357.82261061662
 21
3486.725946420285
 31
0.0
  0
LINE
  5
147DB
330
747D
100
AcDbEntity
  8
KIN-T
100
AcDbLine
 10
10169.37261061649
 20
3869.725946420285
 30
0.0
 11
10182.37261061649
 21
3869.725946420285
 31
0.0
  0
ARC
  5
147DC
330
747D
100
AcDbEntity
  8
KIN-T
100
AcDbCircle
 10
10212.3726106166
 20
3529.725946420285
 30
0.0
 40
43.0
100
AcDbArc
 50
180.0
 51
270.0
  0
ARC
  5
147DD
330
747D
100
AcDbEntity
  8
KIN-T
100
AcDbCircle
 10
10212.3726106166
 20
3529.725946420285
 30
0.0
 40
30.0
100
AcDbArc
 50
180.0
 51
270.0
  0
LINE
  5
147DE
330
747D
100
AcDbEntity
  8
KIN-T
100
AcDbLine
 10
10169.37261061649
 20
3869.725946420285
 30
0.0
 11
10169.37261061649
 21
3529.725946420285
 31
0.0
  0
LINE
  5
147DF
330
747D
100
AcDbEntity
  8
KIN-T
100
AcDbLine
 10
10182.37261061649
 20
3869.725946420285
 30
0.0
 11
10182.37261061649
 21
3529.725946420285
 31
0.0
  0
ARC
  5
147E0
330
747D
100
AcDbEntity
  8
KIN-T
100
AcDbCircle
 10
9402.37261061649
 20
3529.725946420285
 30
0.0
 40
43.0
100
AcDbArc
 50
270.0
 51
0.0
  0
LINE
  5
147E1
330
747D
100
AcDbEntity
  8
KIN-T
100
AcDbLine
 10
10357.82261061662
 20
3499.725946420286
 30
0.0
 11
10212.3726106166
 21
3499.725946420286
 31
0.0
  0
LINE
  5
147E2
330
747D
100
AcDbEntity
  8
KIN-T
100
AcDbLine
 10
9256.922610616479
 20
3499.725946420286
 30
0.0
 11
9256.922610616479
 21
3486.725946420285
 31
0.0
  0
LINE
  5
147E3
330
747D
100
AcDbEntity
  8
KIN-T
100
AcDbLine
 10
9256.922610616479
 20
3486.725946420285
 30
0.0
 11
9402.37261061649
 21
3486.725946420285
 31
0.0
  0
LINE
  5
147E4
330
747D
100
AcDbEntity
  8
KIN-T
100
AcDbLine
 10
9432.372610616491
 20
3869.725946420285
 30
0.0
 11
9445.372610616491
 21
3869.725946420285
 31
0.0
  0
ARC
  5
147E5
330
747D
100
AcDbEntity
  8
KIN-T
100
AcDbCircle
 10
9402.37261061649
 20
3529.725946420285
 30
0.0
 40
30.0
100
AcDbArc
 50
270.0
 51
0.0
  0
LINE
  5
147E6
330
747D
100
AcDbEntity
  8
KIN-T
100
AcDbLine
 10
9445.372610616491
 20
3869.725946420285
 30
0.0
 11
9445.372610616491
 21
3529.725946420285
 31
0.0
  0
LINE
  5
147E7
330
747D
100
AcDbEntity
  8
部品1
 48
50.0
100
AcDbLine
 10
9291.653062178571
 20
3449.7259464203
 30
0.0
 11
10323.09215905441
 21
3449.725946420286
 31
0.0
  0
LINE
  5
147E8
330
747D
100
AcDbEntity
  8
KIN-T
100
AcDbLine
 10
9432.372610616491
 20
3869.725946420285
 30
0.0
 11
9432.372610616491
 21
3529.725946420285
 31
0.0
  0
LINE
  5
147E9
330
747D
100
AcDbEntity
  8
KIN-T
100
AcDbLine
 10
9256.922610616479
 20
3499.725946420286
 30
0.0
 11
9402.37261061649
 21
3499.725946420286
 31
0.0
  0
CIRCLE
  5
147EA
330
747D
100
AcDbEntity
  8
部品1
 48
50.0
100
AcDbCircle
 10
10307.37261061649
 20
3454.725946420285
 30
0.0
 40
5.0
  0
LINE
  5
147EB
330
747D
100
AcDbEntity
  8
部品1
 48
50.0
100
AcDbLine
 10
10323.09215905441
 20
3449.725946420286
 30
0.0
 11
10323.09215905441
 21
3439.725946420285
 31
0.0
  0
CIRCLE
  5
147EC
330
747D
100
AcDbEntity
  8
部品1
 48
50.0
100
AcDbCircle
 10
9507.37261061649
 20
3454.725946420285
 30
0.0
 40
5.0
  0
CIRCLE
  5
147ED
330
747D
100
AcDbEntity
  8
部品1
 48
50.0
100
AcDbCircle
 10
9707.372610616491
 20
3454.725946420285
 30
0.0
 40
5.0
  0
CIRCLE
  5
147EE
330
747D
100
AcDbEntity
  8
部品1
 48
50.0
100
AcDbCircle
 10
9907.372610616491
 20
3454.725946420285
 30
0.0
 40
5.0
  0
CIRCLE
  5
147EF
330
747D
100
AcDbEntity
  8
部品1
 48
50.0
100
AcDbCircle
 10
10107.37261061649
 20
3454.725946420285
 30
0.0
 40
5.0
  0
LINE
  5
147F0
330
747D
100
AcDbEntity
  8
部品1
 48
50.0
100
AcDbLine
 10
9291.653062178571
 20
3439.725946420271
 30
0.0
 11
10323.09215905441
 21
3439.725946420285
 31
0.0
  0
HATCH
  5
147F1
330
747D
100
AcDbEntity
  8
細線
 48
50.0
100
AcDbHatch
 10
0.0
 20
0.0
 30
0.0000000000013153
210
0.0
220
0.0
230
1.0
  2
PLAST
 70
     0
 71
     0
 91
        4
 92
        7
 72
     0
 73
     1
 93
        4
 10
9632.372610616492
 20
3374.725946420286
 10
9027.37261061649
 20
3374.725946420286
 10
9027.37261061649
 20
3324.725946420286
 10
9632.372610616492
 20
3324.725946420286
 97
        0
 92
        7
 72
     0
 73
     1
 93
        4
 10
9807.372610616491
 20
3374.725946420286
 10
9632.372610616492
 20
3374.725946420286
 10
9632.372610616492
 20
3324.725946420286
 10
9807.372610616491
 20
3324.725946420286
 97
        0
 92
        7
 72
     0
 73
     1
 93
        4
 10
9982.372610616492
 20
3374.725946420286
 10
9807.372610616491
 20
3374.725946420286
 10
9807.372610616491
 20
3324.725946420286
 10
9982.372610616492
 20
3324.725946420286
 97
        0
 92
        7
 72
     0
 73
     1
 93
        4
 10
10587.37261061649
 20
3374.725946420286
 10
9982.372610616492
 20
3374.725946420286
 10
9982.372610616492
 20
3324.725946420286
 10
10587.37261061649
 20
3324.725946420286
 97
        0
 75
     0
 76
     1
 52
45.0
 41
37.5
 77
     0
 78
     3
 53
45.0
 43
-262445.2189594446
 44
111735.5560285903
 45
-168.3798022700466
 46
168.3798022700466
 79
     0
 53
45.0
 43
-262466.2664347284
 44
111756.603503874
 45
-168.3798022700466
 46
168.3798022700466
 79
     0
 53
45.0
 43
-262487.3139100121
 44
111777.6509791578
 45
-168.3798022700466
 46
168.3798022700466
 79
     0
 47
3.405378208606371
 98
        4
 10
9534.991227858343
 20
3340.038136447756
 10
9688.303013879043
 20
3350.254178378096
 10
9896.125601324072
 20
3340.038136447756
 10
10086.9132667405
 20
3343.443413845793
1001
GradientColor1ACI
1070
     5
1001
GradientColor2ACI
1070
     2
1001
ACAD
1010
0.0
1020
0.0
1030
0.0
  0
LINE
  5
147F2
330
747D
100
AcDbEntity
  8
細線
 48
50.0
100
AcDbLine
 10
9116.800541161378
 20
3224.725946420285
 30
0.0000000000013153
 11
9143.59546040446
 21
3324.725946420257
 31
0.0000000000013153
1001
GradientColor1ACI
1070
     5
1001
GradientColor2ACI
1070
     2
1001
ACAD
1010
0.0
1020
0.0
1030
0.0
  0
LINE
  5
147F3
330
747D
100
AcDbEntity
  8
細線
 48
50.0
100
AcDbLine
 10
9240.063111391494
 20
3224.725946420285
 30
0.0000000000013153
 11
9266.858030634576
 21
3324.725946420286
 31
0.0000000000013153
1001
GradientColor1ACI
1070
     5
1001
GradientColor2ACI
1070
     2
1001
ACAD
1010
0.0
1020
0.0
1030
0.0
  0
LINE
  5
147F4
330
747D
100
AcDbEntity
  8
細線
 48
50.0
100
AcDbLine
 10
9363.325681621493
 20
3224.725946420285
 30
0.0000000000013153
 11
9390.120600864632
 21
3324.725946420286
 31
0.0000000000013153
1001
GradientColor1ACI
1070
     5
1001
GradientColor2ACI
1070
     2
1001
ACAD
1010
0.0
1020
0.0
1030
0.0
  0
LINE
  5
147F5
330
747D
100
AcDbEntity
  8
細線
 48
50.0
100
AcDbLine
 10
9486.588251851609
 20
3224.725946420285
 30
0.0000000000013153
 11
9513.383171094691
 21
3324.725946420286
 31
0.0000000000013153
1001
GradientColor1ACI
1070
     5
1001
GradientColor2ACI
1070
     2
1001
ACAD
1010
0.0
1020
0.0
1030
0.0
  0
LINE
  5
147F6
330
747D
100
AcDbEntity
  8
細線
 48
50.0
100
AcDbLine
 10
9609.850822081725
 20
3224.725946420285
 30
0.0000000000013153
 11
9636.645741324807
 21
3324.725946420286
 31
0.0000000000013153
1001
GradientColor1ACI
1070
     5
1001
GradientColor2ACI
1070
     2
1001
ACAD
1010
0.0
1020
0.0
1030
0.0
  0
LINE
  5
147F7
330
747D
100
AcDbEntity
  8
細線
 48
50.0
100
AcDbLine
 10
9733.113392311723
 20
3224.725946420285
 30
0.0000000000013153
 11
9759.908311554864
 21
3324.725946420286
 31
0.0000000000013153
1001
GradientColor1ACI
1070
     5
1001
GradientColor2ACI
1070
     2
1001
ACAD
1010
0.0
1020
0.0
1030
0.0
  0
LINE
  5
147F8
330
747D
100
AcDbEntity
  8
細線
 48
50.0
100
AcDbLine
 10
9856.375962541839
 20
3224.725946420285
 30
0.0000000000013153
 11
9883.170881784922
 21
3324.725946420286
 31
0.0000000000013153
1001
GradientColor1ACI
1070
     5
1001
GradientColor2ACI
1070
     2
1001
ACAD
1010
0.0
1020
0.0
1030
0.0
  0
LINE
  5
147F9
330
747D
100
AcDbEntity
  8
細線
 48
50.0
100
AcDbLine
 10
9979.638532771955
 20
3224.725946420285
 30
0.0000000000013153
 11
10006.43345201503
 21
3324.725946420286
 31
0.0000000000013153
1001
GradientColor1ACI
1070
     5
1001
GradientColor2ACI
1070
     2
1001
ACAD
1010
0.0
1020
0.0
1030
0.0
  0
LINE
  5
147FA
330
747D
100
AcDbEntity
  8
細線
 48
50.0
100
AcDbLine
 10
10102.90110300195
 20
3224.7259464203
 30
0.0000000000013153
 11
10129.69602224509
 21
3324.725946420286
 31
0.0000000000013153
1001
GradientColor1ACI
1070
     5
1001
GradientColor2ACI
1070
     2
1001
ACAD
1010
0.0
1020
0.0
1030
0.0
  0
LINE
  5
147FB
330
747D
100
AcDbEntity
  8
細線
 48
50.0
100
AcDbLine
 10
10226.16367323207
 20
3224.725946420285
 30
0.0000000000013153
 11
10252.95859247515
 21
3324.7259464203
 31
0.0000000000013153
1001
GradientColor1ACI
1070
     5
1001
GradientColor2ACI
1070
     2
1001
ACAD
1010
0.0
1020
0.0
1030
0.0
  0
LINE
  5
147FC
330
747D
100
AcDbEntity
  8
細線
 48
50.0
100
AcDbLine
 10
10349.42624346212
 20
3224.7259464203
 30
0.0000000000013153
 11
10376.22116270527
 21
3324.725946420286
 31
0.0000000000013153
1001
GradientColor1ACI
1070
     5
1001
GradientColor2ACI
1070
     2
1001
ACAD
1010
0.0
1020
0.0
1030
0.0
  0
LINE
  5
147FD
330
747D
100
AcDbEntity
  8
細線
 48
50.0
100
AcDbLine
 10
10472.68881369218
 20
3224.725946420285
 30
0.0000000000013153
 11
10499.48373293532
 21
3324.725946420286
 31
0.0000000000013153
1001
GradientColor1ACI
1070
     5
1001
GradientColor2ACI
1070
     2
1001
ACAD
1010
0.0
1020
0.0
1030
0.0
  0
LINE
  5
147FE
330
747D
100
AcDbEntity
  8
部品1
 48
50.0
100
AcDbLine
 10
10587.37261061649
 20
3324.725946420286
 30
0.0
 11
9027.37261061649
 21
3324.725946420286
 31
0.0
  0
LINE
  5
147FF
330
747D
100
AcDbEntity
  8
文字
 48
50.0
100
AcDbLine
 10
10224.96223679068
 20
2311.538074248505
 30
0.0
 11
10224.96223679068
 21
2088.413074248505
 31
0.0
  0
LINE
  5
14800
330
747D
100
AcDbEntity
  8
文字
 48
50.0
100
AcDbLine
 10
9389.782984442303
 20
2311.538074248505
 30
0.0
 11
9389.782984442303
 21
2088.413074248505
 31
0.0
  0
TEXT
  5
14801
330
747D
100
AcDbEntity
  8
文字
 62
     7
 48
50.0
100
AcDbText
 10
9456.367791855003
 20
2145.896615221869
 30
0.0
 40
112.5
  1
A-A' 断面
  7
STYLE2
100
AcDbText
  0
LINE
  5
14802
330
747D
100
AcDbEntity
  8
文字
 48
50.0
100
AcDbLine
 10
9389.782984442303
 20
2088.413074248505
 30
0.0
 11
10224.96223679068
 21
2088.413074248505
 31
0.0
  0
LINE
  5
14803
330
747D
100
AcDbEntity
  8
文字
 48
50.0
100
AcDbLine
 10
9389.782984442303
 20
2311.538074248505
 30
0.0
 11
10224.96223679068
 21
2311.538074248505
 31
0.0
  0
LINE
  5
14804
330
747D
100
AcDbEntity
  8
部品1
 48
50.0
100
AcDbLine
 10
9676.922610616479
 20
3374.725946420286
 30
0.0
 11
9587.822610616502
 21
3374.725946420286
 31
0.0
  0
LINE
  5
14805
330
747D
100
AcDbEntity
  8
細線
 48
50.0
100
AcDbLine
 10
8661.2572054697
 20
3824.725946420315
 30
0.0000000000013153
 11
8688.052124712783
 21
3924.7259464203
 31
0.0000000000013153
1001
GradientColor1ACI
1070
     5
1001
GradientColor2ACI
1070
     2
1001
ACAD
1010
0.0
1020
0.0
1030
0.0
  0
LINE
  5
14806
330
747D
100
AcDbEntity
  8
細線
 48
50.0
100
AcDbLine
 10
8784.519775699759
 20
3824.725946420329
 30
0.0000000000013153
 11
8811.314694942842
 21
3924.725946420286
 31
0.0000000000013153
1001
GradientColor1ACI
1070
     5
1001
GradientColor2ACI
1070
     2
1001
ACAD
1010
0.0
1020
0.0
1030
0.0
  0
LINE
  5
14807
330
747D
100
AcDbEntity
  8
細線
 48
50.0
100
AcDbLine
 10
8907.782345929815
 20
3824.725946420315
 30
0.0000000000013153
 11
8934.577265172958
 21
3924.725946420286
 31
0.0000000000013153
1001
GradientColor1ACI
1070
     5
1001
GradientColor2ACI
1070
     2
1001
ACAD
1010
0.0
1020
0.0
1030
0.0
  0
LINE
  5
14808
330
747D
100
AcDbEntity
  8
細線
 48
50.0
100
AcDbLine
 10
9031.044916159933
 20
3824.7259464203
 30
0.0000000000013153
 11
9057.839835403013
 21
3924.725946420286
 31
0.0000000000013153
1001
GradientColor1ACI
1070
     5
1001
GradientColor2ACI
1070
     2
1001
ACAD
1010
0.0
1020
0.0
1030
0.0
  0
LINE
  5
14809
330
747D
100
AcDbEntity
  8
細線
 48
50.0
100
AcDbLine
 10
10510.19575892079
 20
3824.725946420257
 30
0.0000000000013153
 11
10536.99067816393
 21
3924.725946420286
 31
0.0000000000013153
1001
GradientColor1ACI
1070
     5
1001
GradientColor2ACI
1070
     2
1001
ACAD
1010
0.0
1020
0.0
1030
0.0
  0
LINE
  5
1480A
330
747D
100
AcDbEntity
  8
細線
 48
50.0
100
AcDbLine
 10
10633.45832915085
 20
3824.7259464203
 30
0.0000000000013153
 11
10660.25324839399
 21
3924.725946420286
 31
0.0000000000013153
1001
GradientColor1ACI
1070
     5
1001
GradientColor2ACI
1070
     2
1001
ACAD
1010
0.0
1020
0.0
1030
0.0
  0
LINE
  5
1480B
330
747D
100
AcDbEntity
  8
細線
 48
50.0
100
AcDbLine
 10
10756.72089938097
 20
3824.725946420315
 30
0.0000000000013153
 11
10783.51581862405
 21
3924.725946420286
 31
0.0000000000013153
1001
GradientColor1ACI
1070
     5
1001
GradientColor2ACI
1070
     2
1001
ACAD
1010
0.0
1020
0.0
1030
0.0
  0
LINE
  5
1480C
330
747D
100
AcDbEntity
  8
細線
 48
50.0
100
AcDbLine
 10
10879.98346961102
 20
3824.7259464203
 30
0.0000000000013153
 11
10906.77838885417
 21
3924.725946420286
 31
0.0000000000013153
1001
GradientColor1ACI
1070
     5
1001
GradientColor2ACI
1070
     2
1001
ACAD
1010
0.0
1020
0.0
1030
0.0
  0
LINE
  5
1480D
330
747D
100
AcDbEntity
  8
細線
 48
50.0
100
AcDbLine
 10
11003.24603984108
 20
3824.725946420315
 30
0.0000000000013153
 11
11007.37261061649
 21
3840.126518215219
 31
0.0000000000013153
1001
GradientColor1ACI
1070
     5
1001
GradientColor2ACI
1070
     2
1001
ACAD
1010
0.0
1020
0.0
1030
0.0
  0
LINE
  5
1480E
330
747D
100
AcDbEntity
  8
部品1
 48
50.0
100
AcDbLine
 10
10507.37261061649
 20
3374.725946420286
 30
0.0
 11
10507.37261061649
 21
3924.725946420286
 31
0.0
  0
LINE
  5
1480F
330
747D
100
AcDbEntity
  8
部品1
 48
50.0
100
AcDbLine
 10
9107.372610616492
 20
3924.725946420286
 30
0.0
 11
9107.372610616492
 21
3374.725946420286
 31
0.0
  0
LINE
  5
14810
330
747D
100
AcDbEntity
  8
部品1
 48
50.0
100
AcDbLine
 10
10587.37261061649
 20
3374.725946420286
 30
0.0
 11
9027.37261061649
 21
3374.725946420286
 31
0.0
  0
LINE
  5
14811
330
747D
100
AcDbEntity
  8
部品1
 48
50.0
100
AcDbLine
 10
9909.822610616503
 20
4024.725946420271
 30
0.0
 11
9704.922610616479
 21
4024.725946420285
 31
0.0
  0
LINE
  5
14812
330
747D
100
AcDbEntity
  8
部品1
 48
50.0
100
AcDbLine
 10
11007.37261061649
 20
3824.725946420315
 30
0.0
 11
8607.372610616492
 21
3824.725946420315
 31
0.0
  0
LINE
  5
14813
330
747D
100
AcDbEntity
  8
部品1
 48
50.0
100
AcDbLine
 10
10587.37261061649
 20
3224.725946420285
 30
0.0
 11
9027.37261061649
 21
3224.725946420285
 31
0.0
  0
LINE
  5
14814
330
747D
100
AcDbEntity
  8
部品1
 48
50.0
100
AcDbLine
 10
9573.822610616502
 20
4038.725946420285
 30
0.0
 11
9559.822610616503
 21
4024.725946420285
 31
0.0
  0
LINE
  5
14815
330
747D
100
AcDbEntity
  8
部品1
 48
50.0
100
AcDbLine
 10
9573.822610616502
 20
4038.725946420285
 30
0.0
 11
9587.822610616502
 21
4038.725946420285
 31
0.0
  0
LINE
  5
14816
330
747D
100
AcDbEntity
  8
部品1
 48
50.0
100
AcDbLine
 10
9676.922610616479
 20
4038.725946420285
 30
0.0
 11
9690.92261061648
 21
4038.725946420285
 31
0.0
  0
LINE
  5
14817
330
747D
100
AcDbEntity
  8
部品1
 48
50.0
100
AcDbLine
 10
9690.922610616539
 20
4038.725946420285
 30
0.0
 11
9704.922610616479
 21
4024.725946420285
 31
0.0
  0
LINE
  5
14818
330
747D
100
AcDbEntity
  8
部品1
 48
50.0
100
AcDbLine
 10
9559.822610616503
 20
4024.725946420285
 30
0.0
 11
8607.372610616433
 21
4024.725946420285
 31
0.0
  0
LINE
  5
14819
330
747D
100
AcDbEntity
  8
部品1
 48
50.0
100
AcDbLine
 10
9107.372610616492
 20
3924.725946420286
 30
0.0
 11
8607.372610616492
 21
3924.725946420286
 31
0.0
  0
LINE
  5
1481A
330
747D
100
AcDbEntity
  8
部品1
 48
50.0
100
AcDbLine
 10
10587.37261061649
 20
3374.725946420286
 30
0.0
 11
10587.37261061649
 21
3224.725946420285
 31
0.0
  0
LINE
  5
1481B
330
747D
100
AcDbEntity
  8
部品1
 48
50.0
100
AcDbLine
 10
9027.37261061649
 20
3374.725946420286
 30
0.0
 11
9027.37261061649
 21
3224.725946420285
 31
0.0
  0
LINE
  5
1481C
330
747D
100
AcDbEntity
  8
Ｇ．Ｌ
 48
50.0
100
AcDbLine
 10
11007.37261061649
 20
3974.725946420285
 30
0.0
 11
12061.48656112129
 21
3974.725946420285
 31
0.0
  0
MTEXT
  5
1481D
330
747D
100
AcDbEntity
  8
寸法
 62
     7
 48
50.0
100
AcDbMText
 10
11528.29320243105
 20
4026.998673693006
 30
0.0
 40
100.0
 41
1.0
 71
     4
 72
     1
  1
▽G.L
  7
STYLE2
 73
     1
 44
1.0
1001
ACAD
1000
MTEXTBEGIN
1070
    73
1070
     1
1070
    44
1040
1.0
1070
    74
1070
     0
1000
MTEXTEND
  0
LINE
  5
1481E
330
747D
100
AcDbEntity
  8
部品1
 48
50.0
100
AcDbLine
 10
9923.822610616504
 20
4038.725946420285
 30
0.0
 11
9909.822610616503
 21
4024.725946420285
 31
0.0
  0
LINE
  5
1481F
330
747D
100
AcDbEntity
  8
部品1
 48
50.0
100
AcDbLine
 10
10040.92261061654
 20
4038.725946420285
 30
0.0
 11
10054.92261061648
 21
4024.725946420285
 31
0.0
  0
LINE
  5
14820
330
747D
100
AcDbEntity
  8
部品1
 48
50.0
100
AcDbLine
 10
10507.37261061655
 20
3924.725946420286
 30
0.0
 11
11007.37261061649
 21
3924.725946420286
 31
0.0
  0
LINE
  5
14821
330
747D
100
AcDbEntity
  8
部品1
 48
50.0
100
AcDbLine
 10
10026.92261061648
 20
4038.725946420285
 30
0.0
 11
10040.92261061648
 21
4038.725946420285
 31
0.0
  0
LINE
  5
14822
330
747D
100
AcDbEntity
  8
部品1
 48
50.0
100
AcDbLine
 10
9923.822610616504
 20
4038.725946420285
 30
0.0
 11
9937.822610616501
 21
4038.725946420285
 31
0.0
  0
LINE
  5
14823
330
747D
100
AcDbEntity
  8
部品1
 48
50.0
100
AcDbLine
 10
10054.92261061648
 20
4024.725946420285
 30
0.0
 11
11007.37261061655
 21
4024.725946420285
 31
0.0
  0
LINE
  5
14824
330
747D
100
AcDbEntity
  8
部品1
 48
50.0
100
AcDbLine
 10
9291.653062178571
 20
3449.725946420286
 30
0.0
 11
9291.653062178571
 21
3439.725946420285
 31
0.0
  0
CIRCLE
  5
14825
330
747D
100
AcDbEntity
  8
部品1
 48
50.0
100
AcDbCircle
 10
9307.372610616491
 20
3454.725946420285
 30
0.0
 40
5.0
  0
LINE
  5
14826
330
747D
100
AcDbEntity
  8
細線
 48
50.0
100
AcDbLine
 10
9623.248281703265
 20
3224.725946420285
 30
0.0
 11
9616.549551892495
 21
3249.725946420286
 31
0.0
  0
LINE
  5
14827
330
747D
100
AcDbEntity
  8
細線
 48
50.0
100
AcDbLine
 10
9629.947011514037
 20
3299.725946420286
 30
0.0
 11
9623.248281703265
 21
3324.725946420286
 31
0.0
  0
LINE
  5
14828
330
747D
100
AcDbEntity
  8
細線
 48
50.0
100
AcDbLine
 10
9746.510851933322
 20
3224.725946420285
 30
0.0
 11
9739.812122122552
 21
3249.725946420286
 31
0.0
  0
LINE
  5
14829
330
747D
100
AcDbEntity
  8
細線
 48
50.0
100
AcDbLine
 10
9753.209581744094
 20
3299.725946420286
 30
0.0
 11
9746.510851933322
 21
3324.725946420286
 31
0.0
  0
LINE
  5
1482A
330
747D
100
AcDbEntity
  8
細線
 48
50.0
100
AcDbLine
 10
9869.773422163381
 20
3224.725946420285
 30
0.0
 11
9863.07469235261
 21
3249.725946420286
 31
0.0
  0
LINE
  5
1482B
330
747D
100
AcDbEntity
  8
細線
 48
50.0
100
AcDbLine
 10
9876.472151974152
 20
3299.725946420286
 30
0.0
 11
9869.773422163381
 21
3324.725946420286
 31
0.0
  0
LINE
  5
1482C
330
747D
100
AcDbEntity
  8
細線
 48
50.0
100
AcDbLine
 10
9993.035992393496
 20
3224.725946420285
 30
0.0
 11
9986.337262582726
 21
3249.725946420286
 31
0.0
  0
LINE
  5
1482D
330
747D
100
AcDbEntity
  8
細線
 48
50.0
100
AcDbLine
 10
9999.734722204266
 20
3299.725946420286
 30
0.0
 11
9993.035992393496
 21
3324.725946420286
 31
0.0
  0
LINE
  5
1482E
330
747D
100
AcDbEntity
  8
細線
 48
50.0
100
AcDbLine
 10
10116.29856262355
 20
3224.725946420285
 30
0.0
 11
10109.59983281278
 21
3249.725946420286
 31
0.0
  0
LINE
  5
1482F
330
747D
100
AcDbEntity
  8
細線
 48
50.0
100
AcDbLine
 10
10122.99729243432
 20
3299.725946420286
 30
0.0
 11
10116.29856262355
 21
3324.725946420286
 31
0.0
  0
LINE
  5
14830
330
747D
100
AcDbEntity
  8
細線
 48
50.0
100
AcDbLine
 10
10239.56113285361
 20
3224.725946420285
 30
-0.0000000000013153
 11
10232.86240304284
 21
3249.725946420286
 31
-0.0000000000013153
  0
LINE
  5
14831
330
747D
100
AcDbEntity
  8
細線
 48
50.0
100
AcDbLine
 10
10246.25986266438
 20
3299.725946420286
 30
-0.0000000000013153
 11
10239.56113285361
 21
3324.725946420286
 31
-0.0000000000013153
  0
LINE
  5
14832
330
747D
100
AcDbEntity
  8
細線
 48
50.0
100
AcDbLine
 10
10362.82370308373
 20
3224.725946420285
 30
0.0
 11
10356.12497327295
 21
3249.725946420286
 31
0.0
  0
LINE
  5
14833
330
747D
100
AcDbEntity
  8
細線
 48
50.0
100
AcDbLine
 10
10369.5224328945
 20
3299.725946420286
 30
0.0
 11
10362.82370308373
 21
3324.725946420286
 31
0.0
  0
LINE
  5
14834
330
747D
100
AcDbEntity
  8
細線
 48
50.0
100
AcDbLine
 10
10486.08627331378
 20
3224.725946420285
 30
0.0
 11
10479.38754350301
 21
3249.725946420286
 31
0.0
  0
LINE
  5
14835
330
747D
100
AcDbEntity
  8
細線
 48
50.0
100
AcDbLine
 10
10492.78500312455
 20
3299.725946420286
 30
0.0
 11
10486.08627331378
 21
3324.725946420286
 31
0.0
  0
LINE
  5
14836
330
747D
100
AcDbEntity
  8
細線
 48
50.0
100
AcDbLine
 10
8674.654665091242
 20
3824.725946420315
 30
-0.0000000000013153
 11
8667.955935280472
 21
3849.725946420315
 31
-0.0000000000013153
  0
LINE
  5
14837
330
747D
100
AcDbEntity
  8
細線
 48
50.0
100
AcDbLine
 10
8681.353394902012
 20
3899.725946420315
 30
-0.0000000000013153
 11
8674.654665091242
 21
3924.725946420315
 31
-0.0000000000013153
  0
LINE
  5
14838
330
747D
100
AcDbEntity
  8
細線
 48
50.0
100
AcDbLine
 10
8797.9172353213
 20
3824.7259464203
 30
-0.0000000000013153
 11
8791.21850551053
 21
3849.7259464203
 31
-0.0000000000013153
  0
LINE
  5
14839
330
747D
100
AcDbEntity
  8
細線
 48
50.0
100
AcDbLine
 10
8804.61596513207
 20
3899.7259464203
 30
-0.0000000000013153
 11
8797.9172353213
 21
3924.7259464203
 31
-0.0000000000013153
  0
LINE
  5
1483A
330
747D
100
AcDbEntity
  8
細線
 48
50.0
100
AcDbLine
 10
8921.179805551416
 20
3824.7259464203
 30
-0.0000000000013153
 11
8914.481075740644
 21
3849.7259464203
 31
-0.0000000000013153
  0
LINE
  5
1483B
330
747D
100
AcDbEntity
  8
細線
 48
50.0
100
AcDbLine
 10
8927.878535362186
 20
3899.7259464203
 30
-0.0000000000013153
 11
8921.179805551416
 21
3924.7259464203
 31
-0.0000000000013153
  0
LINE
  5
1483C
330
747D
100
AcDbEntity
  8
細線
 48
50.0
100
AcDbLine
 10
9044.442375781473
 20
3824.7259464203
 30
-0.0000000000013153
 11
9037.743645970703
 21
3849.7259464203
 31
-0.0000000000013153
  0
LINE
  5
1483D
330
747D
100
AcDbEntity
  8
細線
 48
50.0
100
AcDbLine
 10
9051.141105592243
 20
3899.7259464203
 30
-0.0000000000013153
 11
9044.442375781473
 21
3924.7259464203
 31
-0.0000000000013153
  0
LINE
  5
1483E
330
747D
100
AcDbEntity
  8
細線
 48
50.0
100
AcDbLine
 10
10523.59321854239
 20
3824.7259464203
 30
-0.0000000000013153
 11
10516.89448873162
 21
3849.7259464203
 31
-0.0000000000013153
  0
LINE
  5
1483F
330
747D
100
AcDbEntity
  8
細線
 48
50.0
100
AcDbLine
 10
10530.29194835316
 20
3899.7259464203
 30
-0.0000000000013153
 11
10523.59321854239
 21
3924.7259464203
 31
-0.0000000000013153
  0
LINE
  5
14840
330
747D
100
AcDbEntity
  8
細線
 48
50.0
100
AcDbLine
 10
10646.85578877245
 20
3824.7259464203
 30
-0.0000000000013153
 11
10640.15705896168
 21
3849.7259464203
 31
-0.0000000000013153
  0
LINE
  5
14841
330
747D
100
AcDbEntity
  8
細線
 48
50.0
100
AcDbLine
 10
10653.55451858322
 20
3899.7259464203
 30
-0.0000000000013153
 11
10646.85578877245
 21
3924.7259464203
 31
-0.0000000000013153
  0
LINE
  5
14842
330
747D
100
AcDbEntity
  8
細線
 48
50.0
100
AcDbLine
 10
10770.11835900251
 20
3824.7259464203
 30
-0.0000000000013153
 11
10763.41962919174
 21
3849.7259464203
 31
-0.0000000000013153
  0
LINE
  5
14843
330
747D
100
AcDbEntity
  8
細線
 48
50.0
100
AcDbLine
 10
10776.81708881328
 20
3899.7259464203
 30
-0.0000000000013153
 11
10770.11835900251
 21
3924.7259464203
 31
-0.0000000000013153
  0
LINE
  5
14844
330
747D
100
AcDbEntity
  8
細線
 48
50.0
100
AcDbLine
 10
10893.38092923262
 20
3824.7259464203
 30
-0.0000000000013153
 11
10886.68219942185
 21
3849.7259464203
 31
-0.0000000000013153
  0
LINE
  5
14845
330
747D
100
AcDbEntity
  8
細線
 48
50.0
100
AcDbLine
 10
10900.0796590434
 20
3899.7259464203
 30
-0.0000000000013153
 11
10893.38092923262
 21
3924.7259464203
 31
-0.0000000000013153
  0
MTEXT
  5
14846
330
747D
100
AcDbEntity
  8
寸法
 62
     7
 48
50.0
100
AcDbMText
 10
11004.82946234033
 20
4076.998673693005
 30
0.0
 40
100.0
 41
1.0
 71
     5
 72
     1
  1
▽Ｆ.L
  7
STYLE2
 73
     1
 44
1.0
1001
ACAD
1000
MTEXTBEGIN
1070
    73
1070
     1
1070
    44
1040
1.0
1070
    74
1070
     0
1000
MTEXTEND
  0
LINE
  5
14847
330
747D
100
AcDbEntity
  8
寸法
 48
50.0
100
AcDbLine
 10
8840.693334492323
 20
4099.333362622454
 30
0.0
 11
8909.344552357442
 21
4117.728401008824
 31
0.0
  0
LINE
  5
14848
330
747D
100
AcDbEntity
  8
寸法
 48
50.0
100
AcDbLine
 10
8840.693334492323
 20
4099.333362622454
 30
0.0
 11
9469.945830080126
 21
4099.333362622454
 31
0.0
  0
LINE
  5
14849
330
747D
100
AcDbEntity
  8
寸法
 48
50.0
100
AcDbLine
 10
8840.693334492323
 20
4099.333362622454
 30
0.0
 11
8909.344552357442
 21
4080.938324236068
 31
0.0
  0
TEXT
  5
1484A
330
747D
100
AcDbEntity
  8
寸法
 62
     7
 48
50.0
100
AcDbText
 10
8938.926775491964
 20
4284.720398264433
 30
0.0
 40
90.0
  1
水勾配
 41
0.8
  7
STYLE1
100
AcDbText
  0
TEXT
  5
1484B
330
747D
100
AcDbEntity
  8
寸法
 62
     7
 48
50.0
100
AcDbText
 10
8905.663282520597
 20
4136.38188614234
 30
0.0
 40
90.0
  1
１／１００
 41
0.8
  7
STYLE1
100
AcDbText
  0
LINE
  5
1484C
330
747D
100
AcDbEntity
  8
寸法
 48
50.0
100
AcDbLine
 10
10774.05188674066
 20
4099.333362622454
 30
0.0
 11
10705.40066887554
 21
4117.728401008824
 31
0.0
  0
LINE
  5
1484D
330
747D
100
AcDbEntity
  8
寸法
 48
50.0
100
AcDbLine
 10
10774.05188674066
 20
4099.333362622454
 30
0.0
 11
10144.79939115285
 21
4099.333362622454
 31
0.0
  0
LINE
  5
1484E
330
747D
100
AcDbEntity
  8
寸法
 48
50.0
100
AcDbLine
 10
10774.05188674066
 20
4099.333362622454
 30
0.0
 11
10705.40066887554
 21
4080.938324236068
 31
0.0
  0
TEXT
  5
1484F
330
747D
100
AcDbEntity
  8
寸法
 62
     7
 48
50.0
100
AcDbText
 10
10243.03283215249
 20
4284.720398264433
 30
0.0
 40
90.0
  1
水勾配
 41
0.8
  7
STYLE1
100
AcDbText
  0
TEXT
  5
14850
330
747D
100
AcDbEntity
  8
寸法
 62
     7
 48
50.0
100
AcDbText
 10
10209.76933918112
 20
4136.38188614234
 30
0.0
 40
90.0
  1
１／１００
 41
0.8
  7
STYLE1
100
AcDbText
  0
DIMENSION
  5
14851
330
747D
100
AcDbEntity
  8
寸法
 48
50.0
100
AcDbDimension
  2
*D1
 10
8456.791483514527
 20
4024.725946420285
 30
0.0
 11
8456.791483514527
 21
4201.761379491194
 31
0.0
 70
   160
 71
     5
 42
100.0
  3
INABA_S30G
100
AcDbAlignedDimension
 13
8607.372610616433
 23
3924.725946420286
 33
0.0
 14
8607.372610616433
 24
4024.725946420285
 34
0.0
 50
90.0
100
AcDbRotatedDimension
  0
DIMENSION
  5
14852
330
747D
100
AcDbEntity
  8
寸法
 48
50.0
100
AcDbDimension
  2
*D2
 10
8456.791483514527
 20
3824.725946420286
 30
0.0
 11
8456.791483514527
 21
3647.69051334942
 31
0.0
 70
   160
 71
     5
 42
100.0
  3
INABA_S30G
100
AcDbAlignedDimension
 13
8607.372610616433
 23
3924.725946420286
 33
0.0
 14
8607.372610616433
 24
3824.725946420286
 34
0.0
 50
90.0
100
AcDbRotatedDimension
  0
DIMENSION
  5
14853
330
747D
100
AcDbEntity
  8
寸法
 48
50.0
100
AcDbDimension
  2
*D3
 10
9632.372610616492
 20
2933.109316776251
 30
0.0
 11
9369.872610616491
 21
3008.118175043967
 31
0.0
 70
    32
 71
     5
 42
525.0
  3
INABA_S30G
100
AcDbAlignedDimension
 13
9107.372610616492
 23
3374.725946420286
 33
0.0
 14
9632.372610616492
 24
3313.668114590406
 34
0.0
100
AcDbRotatedDimension
  0
DIMENSION
  5
14854
330
747D
100
AcDbEntity
  8
寸法
 48
50.0
100
AcDbDimension
  2
*D4
 10
9107.372610616492
 20
2703.023755687498
 30
0.0
 11
9807.372610616491
 21
2778.023755687498
 31
0.0
 70
    32
 71
     5
 42
1400.0
  3
INABA_S30G
100
AcDbAlignedDimension
 13
10507.37261061649
 23
3374.725946420286
 33
0.0
 14
9107.372610616492
 24
3374.725946420286
 34
0.0
100
AcDbRotatedDimension
  0
DIMENSION
  5
14855
330
747D
100
AcDbEntity
  8
寸法
 48
50.0
100
AcDbDimension
  2
*D5
 10
9982.372610616492
 20
2933.109316776251
 30
0.0
 11
9807.372610616491
 21
3008.109316776251
 31
0.0
 70
    32
 71
     5
 42
350.0
  3
INABA_S30G
100
AcDbAlignedDimension
 13
9632.372610616492
 23
3313.668114590406
 33
0.0
 14
9982.372610616492
 24
3313.668114590406
 34
0.0
100
AcDbRotatedDimension
  0
DIMENSION
  5
14856
330
747D
100
AcDbEntity
  8
寸法
 48
50.0
100
AcDbDimension
  2
*D6
 10
9982.372610616492
 20
2933.109316776251
 30
0.0
 11
10244.87261061649
 21
3008.118175043967
 31
0.0
 70
    32
 71
     5
 42
525.0
  3
INABA_S30G
100
AcDbAlignedDimension
 13
10507.37261061649
 23
3374.725946420286
 33
0.0
 14
9982.372610616492
 24
3313.668114590406
 34
0.0
 50
180.0
100
AcDbRotatedDimension
  0
DIMENSION
  5
14857
330
747D
100
AcDbEntity
  8
寸法
 48
50.0
100
AcDbDimension
  2
*D7
 10
11299.81397521722
 20
3374.725946420285
 30
0.0
 11
11224.81397521722
 21
3674.725946420287
 31
0.0
 70
    32
 71
     5
 42
600.0
  3
INABA_S30G
100
AcDbAlignedDimension
 13
11072.17048818
 23
3974.725946420285
 33
0.0
 14
10587.37261061649
 24
3374.725946420286
 34
0.0
 50
90.0
100
AcDbRotatedDimension
  0
DIMENSION
  5
14858
330
747D
100
AcDbEntity
  8
寸法
 48
50.0
100
AcDbDimension
  2
*D8
 10
11299.81397521722
 20
4024.725946420285
 30
0.0
 11
11299.81397521722
 21
4254.261379491194
 31
0.0
 70
   160
 71
     5
 42
50.0
  3
INABA_S30G
100
AcDbAlignedDimension
 13
11007.37261061649
 23
3974.725946420285
 33
0.0
 14
11007.37261061655
 24
4024.725946420285
 34
0.0
 50
90.0
100
AcDbRotatedDimension
  0
DIMENSION
  5
14859
330
747D
100
AcDbEntity
  8
寸法
 48
50.0
100
AcDbDimension
  2
*D9
 10
11299.81397521722
 20
3324.725946420285
 30
0.0
 11
11299.81397521722
 21
3095.190513349421
 31
0.0
 70
   160
 71
     5
 42
50.0
  3
INABA_S30G
100
AcDbAlignedDimension
 13
10587.37261061649
 23
3374.725946420286
 33
0.0
 14
10587.37261061649
 24
3324.725946420286
 34
0.0
 50
90.0
100
AcDbRotatedDimension
  0
TEXT
  5
1485A
330
747D
100
AcDbEntity
  8
寸法
 62
     7
 48
50.0
100
AcDbText
 10
10594.15858366072
 20
3523.780358855269
 30
0.0
 40
90.0
  1
主筋4-D13
  7
STYLE1
100
AcDbText
  0
LINE
  5
1485B
330
747D
100
AcDbEntity
  8
寸法
 48
50.0
100
AcDbLine
 10
10556.41321757854
 20
3498.773501302878
 30
0.0
 11
11176.62767304572
 21
3498.773501302878
 31
0.0
  0
LINE
  5
1485C
330
747D
100
AcDbEntity
  8
寸法
 48
50.0
100
AcDbLine
 10
10556.41321757854
 20
3498.773501302878
 30
0.0
 11
10182.37261061649
 21
3714.725946420286
 31
0.0
  0
LWPOLYLINE
  5
1485D
330
747D
100
AcDbEntity
  8
寸法
 48
5.0
100
AcDbPolyline
 90
        3
 70
     0
 43
0.0
 10
9307.372610616491
 20
3454.725946420285
 10
8911.721666180813
 20
3059.075001984651
 10
7994.212111035878
 20
3059.075001984651
1001
ACAD
1000
DSTYLE
1002
{
1070
   341
1005
0
1002
}
  0
TEXT
  5
1485E
330
747D
100
AcDbEntity
  8
寸法
 62
     7
100
AcDbText
 10
7999.348548839211
 20
3079.596006983009
 30
-0.0000000000026306
 40
90.0
  1
4-D10X6-D10以上
  7
STYLE1
100
AcDbText
  0
TEXT
  5
1485F
330
747D
100
AcDbEntity
  8
寸法
 62
     7
100
AcDbText
 10
7999.348548839211
 20
3194.068927707637
 30
-0.0000000000026306
 40
90.0
  1
ベース筋
  7
STYLE1
100
AcDbText
  0
LINE
  5
14860
330
747D
100
AcDbEntity
  8
寸法
 48
50.0
100
AcDbLine
 10
9478.101297706766
 20
3564.725946420285
 30
0.0
 11
8763.857789303633
 21
2850.482438017154
 31
0.0
  0
LINE
  5
14861
330
747D
100
AcDbEntity
  8
寸法
 48
50.0
100
AcDbLine
 10
8763.857789303633
 20
2850.482438017154
 30
0.0
 11
8073.463810602952
 21
2850.482438017154
 31
0.0
  0
TEXT
  5
14862
330
747D
100
AcDbEntity
  8
寸法
 62
     7
 48
50.0
100
AcDbText
 10
8091.916397967542
 20
2865.558355845007
 30
0.0
 40
90.0
  1
帯筋D10＠100
  7
STYLE1
100
AcDbText
  0
ARC
  5
14863
330
747D
100
AcDbEntity
  8
部品1
 48
50.0
100
AcDbCircle
 10
9632.372610616492
 20
3806.50594514964
 30
0.0
 40
48.22000127066345
100
AcDbArc
 50
22.20066484154743
 51
157.7993351584525
  0
LINE
  5
14864
330
747D
100
AcDbEntity
  8
部品1
100
AcDbLine
 10
9763.372610616491
 20
3575.725946420285
 30
0.0
 11
9782.372610616491
 21
3575.725946420285
 31
0.0
  0
LINE
  5
14865
330
747D
100
AcDbEntity
  8
部品1
100
AcDbLine
 10
9763.372610616491
 20
3563.725946420286
 30
0.0
 11
9782.372610616491
 21
3563.725946420286
 31
0.0
  0
LINE
  5
14866
330
747D
100
AcDbEntity
  8
部品1
100
AcDbLine
 10
9782.372610616491
 20
3575.725946420285
 30
0.0
 11
9782.372610616491
 21
3563.725946420286
 31
0.0
  0
ARC
  5
14867
330
747D
100
AcDbEntity
  8
部品1
100
AcDbCircle
 10
9763.372610616491
 20
3600.725946420285
 30
0.0
 40
25.0
100
AcDbArc
 50
180.0
 51
270.0
  0
ARC
  5
14868
330
747D
100
AcDbEntity
  8
部品1
100
AcDbCircle
 10
9763.372610616491
 20
3600.725946420285
 30
0.0
 40
37.0
100
AcDbArc
 50
180.0
 51
270.0
  0
LINE
  5
14869
330
747D
100
AcDbEntity
  8
部品1
100
AcDbLine
 10
9726.372610616492
 20
3854.725946420285
 30
0.0
 11
9726.372610616492
 21
3600.725946420285
 31
0.0
  0
LINE
  5
1486A
330
747D
100
AcDbEntity
  8
部品1
100
AcDbLine
 10
9738.37261061649
 20
3884.725946420286
 30
0.0
 11
9726.372610616492
 21
3884.725946420286
 31
0.0
  0
LINE
  5
1486B
330
747D
100
AcDbEntity
  8
部品1
100
AcDbLine
 10
9738.37261061649
 20
3884.725946420286
 30
0.0
 11
9738.37261061649
 21
3876.725946420285
 31
0.0
  0
LINE
  5
1486C
330
747D
100
AcDbEntity
  8
部品1
100
AcDbLine
 10
9726.372610616492
 20
3884.725946420286
 30
0.0
 11
9726.372610616492
 21
3876.725946420285
 31
0.0
  0
LINE
  5
1486D
330
747D
100
AcDbEntity
  8
部品1
100
AcDbLine
 10
9743.342265731124
 20
3876.725946420285
 30
0.0
 11
9721.402955501915
 21
3876.725946420285
 31
0.0
  0
LINE
  5
1486E
330
747D
100
AcDbEntity
  8
部品1
100
AcDbLine
 10
9721.402955501915
 20
3866.725946420285
 30
0.0
 11
9721.402955501915
 21
3876.725946420285
 31
0.0
  0
LINE
  5
1486F
330
747D
100
AcDbEntity
  8
部品1
100
AcDbLine
 10
9726.887783059204
 20
3866.725946420285
 30
0.0
 11
9726.887783059204
 21
3876.725946420285
 31
0.0
  0
LINE
  5
14870
330
747D
100
AcDbEntity
  8
部品1
100
AcDbLine
 10
9737.857438173778
 20
3866.725946420285
 30
0.0
 11
9737.857438173778
 21
3876.725946420285
 31
0.0
  0
LINE
  5
14871
330
747D
100
AcDbEntity
  8
部品1
100
AcDbLine
 10
9743.342265731124
 20
3866.725946420285
 30
0.0
 11
9743.342265731124
 21
3876.725946420285
 31
0.0
  0
LINE
  5
14872
330
747D
100
AcDbEntity
  8
部品1
100
AcDbLine
 10
9743.342265731124
 20
3866.725946420285
 30
0.0
 11
9721.402955501915
 21
3866.725946420285
 31
0.0
  0
LINE
  5
14873
330
747D
100
AcDbEntity
  8
部品1
100
AcDbLine
 10
9738.37261061649
 20
3854.725946420285
 30
0.0
 11
9738.37261061649
 21
3600.725946420285
 31
0.0
  0
LINE
  5
14874
330
747D
100
AcDbEntity
  8
部品1
100
AcDbLine
 10
9538.372610616489
 20
3854.725946420285
 30
0.0
 11
9538.372610616489
 21
3600.725946420285
 31
0.0
  0
LINE
  5
14875
330
747D
100
AcDbEntity
  8
部品1
100
AcDbLine
 10
9526.37261061649
 20
3854.725946420285
 30
0.0
 11
9526.37261061649
 21
3600.725946420285
 31
0.0
  0
LINE
  5
14876
330
747D
100
AcDbEntity
  8
部品1
100
AcDbLine
 10
9521.402955501915
 20
3866.725946420285
 30
0.0
 11
9543.342265731125
 21
3866.725946420285
 31
0.0
  0
LINE
  5
14877
330
747D
100
AcDbEntity
  8
部品1
100
AcDbLine
 10
9521.402955501915
 20
3866.725946420285
 30
0.0
 11
9521.402955501915
 21
3876.725946420285
 31
0.0
  0
LINE
  5
14878
330
747D
100
AcDbEntity
  8
部品1
100
AcDbLine
 10
9526.887783059203
 20
3866.725946420285
 30
0.0
 11
9526.887783059203
 21
3876.725946420285
 31
0.0
  0
LINE
  5
14879
330
747D
100
AcDbEntity
  8
部品1
100
AcDbLine
 10
9537.857438173778
 20
3866.725946420285
 30
0.0
 11
9537.857438173778
 21
3876.725946420285
 31
0.0
  0
LINE
  5
1487A
330
747D
100
AcDbEntity
  8
部品1
100
AcDbLine
 10
9543.342265731125
 20
3866.725946420285
 30
0.0
 11
9543.342265731125
 21
3876.725946420285
 31
0.0
  0
LINE
  5
1487B
330
747D
100
AcDbEntity
  8
部品1
100
AcDbLine
 10
9521.402955501915
 20
3876.725946420285
 30
0.0
 11
9543.342265731125
 21
3876.725946420285
 31
0.0
  0
ARC
  5
1487C
330
747D
100
AcDbEntity
  8
部品1
100
AcDbCircle
 10
9501.37261061649
 20
3600.725946420285
 30
0.0
 40
37.0
100
AcDbArc
 50
270.0
 51
0.0
  0
ARC
  5
1487D
330
747D
100
AcDbEntity
  8
部品1
100
AcDbCircle
 10
9501.37261061649
 20
3600.725946420285
 30
0.0
 40
25.0
100
AcDbArc
 50
270.0
 51
0.0
  0
LINE
  5
1487E
330
747D
100
AcDbEntity
  8
部品1
100
AcDbLine
 10
9482.372610616492
 20
3575.725946420285
 30
0.0
 11
9482.372610616492
 21
3563.725946420286
 31
0.0
  0
LINE
  5
1487F
330
747D
100
AcDbEntity
  8
部品1
100
AcDbLine
 10
9501.37261061649
 20
3563.725946420286
 30
0.0
 11
9482.372610616492
 21
3563.725946420286
 31
0.0
  0
LINE
  5
14880
330
747D
100
AcDbEntity
  8
部品1
100
AcDbLine
 10
9501.37261061649
 20
3575.725946420285
 30
0.0
 11
9482.372610616492
 21
3575.725946420285
 31
0.0
  0
LINE
  5
14881
330
747D
100
AcDbEntity
  8
部品1
100
AcDbLine
 10
9538.372610616489
 20
3884.725946420286
 30
0.0
 11
9538.372610616489
 21
3876.725946420285
 31
0.0
  0
LINE
  5
14882
330
747D
100
AcDbEntity
  8
部品1
100
AcDbLine
 10
9526.37261061649
 20
3884.725946420286
 30
0.0
 11
9526.37261061649
 21
3876.725946420285
 31
0.0
  0
LINE
  5
14883
330
747D
100
AcDbEntity
  8
部品1
100
AcDbLine
 10
9526.37261061649
 20
3884.725946420286
 30
0.0
 11
9538.372610616489
 21
3884.725946420286
 31
0.0
  0
LINE
  5
14884
330
747D
100
AcDbEntity
  8
CSLAYER17
  6
Continuous
 62
     7
100
AcDbLine
 10
9755.92261061648
 20
3916.725946420285
 30
0.0
 11
9765.922610616479
 21
3906.725946420286
 31
0.0
  0
LINE
  5
14885
330
747D
100
AcDbEntity
  8
CSLAYER17
  6
Continuous
 62
     7
100
AcDbLine
 10
9508.822610616503
 20
3916.725946420285
 30
0.0
 11
9498.822610616501
 21
3906.725946420286
 31
0.0
  0
LINE
  5
14886
330
747D
100
AcDbEntity
  8
CSLAYER17
  6
Continuous
 62
     7
100
AcDbLine
 10
9587.322610616501
 20
3876.725946420285
 30
0.0
 11
9577.322610616503
 21
3866.725946420285
 31
0.0
  0
LINE
  5
14887
330
747D
100
AcDbEntity
  8
部品1
100
AcDbLine
 10
9587.322610616501
 20
3916.725946420285
 30
0.0
 11
9587.322610616501
 21
3876.725946420285
 31
0.0
  0
LINE
  5
14888
330
747D
100
AcDbEntity
  8
部品1
100
AcDbLine
 10
9677.42261061648
 20
3916.725946420285
 30
0.0
 11
9677.42261061648
 21
3876.725946420285
 31
0.0
  0
LINE
  5
14889
330
747D
100
AcDbEntity
  8
CSLAYER17
  6
Continuous
 62
     7
100
AcDbLine
 10
9677.42261061648
 20
3876.725946420285
 30
0.0
 11
9687.422610616479
 21
3866.725946420285
 31
0.0
  0
LINE
  5
1488A
330
747D
100
AcDbEntity
  8
CSLAYER17
  6
Continuous
 62
     7
100
AcDbLine
 10
9677.42261061648
 20
3916.725946420285
 30
0.0
 11
9755.92261061648
 21
3916.725946420285
 31
0.0
  0
LINE
  5
1488B
330
747D
100
AcDbEntity
  8
CSLAYER17
  6
Continuous
 62
     7
100
AcDbLine
 10
9498.822610616501
 20
3906.725946420286
 30
0.0
 11
9498.822610616501
 21
3866.725946420285
 31
0.0
  0
LINE
  5
1488C
330
747D
100
AcDbEntity
  8
CSLAYER17
  6
Continuous
 62
     7
100
AcDbLine
 10
9765.922610616479
 20
3906.725946420286
 30
0.0
 11
9765.922610616479
 21
3866.725946420285
 31
0.0
  0
LINE
  5
1488D
330
747D
100
AcDbEntity
  8
CSLAYER17
  6
Continuous
 62
     7
100
AcDbLine
 10
9508.822610616503
 20
3916.725946420285
 30
0.0
 11
9587.322610616501
 21
3916.725946420285
 31
0.0
  0
LINE
  5
1488E
330
747D
100
AcDbEntity
  8
CSLAYER17
  6
Continuous
 62
     7
100
AcDbLine
 10
9630.12261061649
 20
3916.725946420285
 30
0.0
 11
9634.62261061649
 21
3916.725946420285
 31
0.0
  0
LINE
  5
1488F
330
747D
100
AcDbEntity
  8
CSLAYER17
  6
Continuous
 62
     7
100
AcDbLine
 10
9634.62261061649
 20
3916.725946420285
 30
0.0
 11
9634.62261061649
 21
3866.725946420285
 31
0.0
  0
LINE
  5
14890
330
747D
100
AcDbEntity
  8
CSLAYER17
  6
Continuous
 62
     7
100
AcDbLine
 10
9630.12261061649
 20
3916.725946420285
 30
0.0
 11
9630.12261061649
 21
3866.725946420285
 31
0.0
  0
LINE
  5
14891
330
747D
100
AcDbEntity
  8
CSLAYER17
  6
Continuous
 62
     7
100
AcDbLine
 10
9772.372610616491
 20
3866.725946420285
 30
0.0
 11
9772.372610616491
 21
3854.725946420285
 31
0.0
  0
LINE
  5
14892
330
747D
100
AcDbEntity
  8
CSLAYER17
  6
Continuous
 62
     7
100
AcDbLine
 10
9492.37261061649
 20
3854.725946420285
 30
0.0
 11
9492.37261061649
 21
3866.725946420285
 31
0.0
  0
LINE
  5
14893
330
747D
100
AcDbEntity
  8
CSLAYER17
  6
Continuous
 62
     7
100
AcDbLine
 10
9492.37261061649
 20
3866.725946420285
 30
0.0
 11
9772.372610616491
 21
3866.725946420285
 31
0.0
  0
LINE
  5
14894
330
747D
100
AcDbEntity
  8
CSLAYER17
  6
Continuous
 62
     7
100
AcDbLine
 10
9492.37261061649
 20
3854.725946420285
 30
0.0
 11
9772.372610616491
 21
3854.725946420285
 31
0.0
  0
LINE
  5
14895
330
747D
100
AcDbEntity
  8
部品1
 48
50.0
100
AcDbLine
 10
9677.035842512029
 20
3866.725946420285
 30
0.0
 11
9587.822610616502
 21
3866.725946420285
 31
0.0
  0
LINE
  5
14896
330
747D
100
AcDbEntity
  8
部品1
 48
50.0
100
AcDbLine
 10
9587.822610616502
 20
4370.659042365214
 30
0.0
 11
9587.822610616502
 21
3866.7259464203
 31
0.0
  0
LINE
  5
14897
330
747D
100
AcDbEntity
  8
部品1
 48
50.0
100
AcDbLine
 10
9676.922610616479
 20
4370.659042365214
 30
0.0
 11
9676.922610616479
 21
3866.7259464203
 31
0.0
  0
ARC
  5
14898
330
747D
100
AcDbEntity
  8
部品1
 48
50.0
100
AcDbCircle
 10
9982.372610616492
 20
3806.50594514964
 30
0.0
 40
48.22000127066345
100
AcDbArc
 50
22.20066484154743
 51
157.7993351584525
  0
LINE
  5
14899
330
747D
100
AcDbEntity
  8
部品1
100
AcDbLine
 10
10113.37261061649
 20
3575.725946420285
 30
0.0
 11
10132.37261061649
 21
3575.725946420285
 31
0.0
  0
LINE
  5
1489A
330
747D
100
AcDbEntity
  8
部品1
100
AcDbLine
 10
10113.37261061649
 20
3563.725946420286
 30
0.0
 11
10132.37261061649
 21
3563.725946420286
 31
0.0
  0
LINE
  5
1489B
330
747D
100
AcDbEntity
  8
部品1
100
AcDbLine
 10
10132.37261061649
 20
3575.725946420285
 30
0.0
 11
10132.37261061649
 21
3563.725946420286
 31
0.0
  0
ARC
  5
1489C
330
747D
100
AcDbEntity
  8
部品1
100
AcDbCircle
 10
10113.37261061649
 20
3600.725946420285
 30
0.0
 40
25.0
100
AcDbArc
 50
180.0
 51
270.0
  0
ARC
  5
1489D
330
747D
100
AcDbEntity
  8
部品1
100
AcDbCircle
 10
10113.37261061649
 20
3600.725946420285
 30
0.0
 40
37.0
100
AcDbArc
 50
180.0
 51
270.0
  0
LINE
  5
1489E
330
747D
100
AcDbEntity
  8
部品1
100
AcDbLine
 10
10076.37261061649
 20
3854.725946420285
 30
0.0
 11
10076.37261061649
 21
3600.725946420285
 31
0.0
  0
LINE
  5
1489F
330
747D
100
AcDbEntity
  8
部品1
100
AcDbLine
 10
10088.37261061649
 20
3884.725946420286
 30
0.0
 11
10076.37261061649
 21
3884.725946420286
 31
0.0
  0
LINE
  5
148A0
330
747D
100
AcDbEntity
  8
部品1
100
AcDbLine
 10
10088.37261061649
 20
3884.725946420286
 30
0.0
 11
10088.37261061649
 21
3876.725946420285
 31
0.0
  0
LINE
  5
148A1
330
747D
100
AcDbEntity
  8
部品1
100
AcDbLine
 10
10076.37261061649
 20
3884.725946420286
 30
0.0
 11
10076.37261061649
 21
3876.725946420285
 31
0.0
  0
LINE
  5
148A2
330
747D
100
AcDbEntity
  8
部品1
100
AcDbLine
 10
10093.34226573112
 20
3876.725946420285
 30
0.0
 11
10071.40295550191
 21
3876.725946420285
 31
0.0
  0
LINE
  5
148A3
330
747D
100
AcDbEntity
  8
部品1
100
AcDbLine
 10
10071.40295550191
 20
3866.725946420285
 30
0.0
 11
10071.40295550191
 21
3876.725946420285
 31
0.0
  0
LINE
  5
148A4
330
747D
100
AcDbEntity
  8
部品1
100
AcDbLine
 10
10076.8877830592
 20
3866.725946420285
 30
0.0
 11
10076.8877830592
 21
3876.725946420285
 31
0.0
  0
LINE
  5
148A5
330
747D
100
AcDbEntity
  8
部品1
100
AcDbLine
 10
10087.85743817378
 20
3866.725946420285
 30
0.0
 11
10087.85743817378
 21
3876.725946420285
 31
0.0
  0
LINE
  5
148A6
330
747D
100
AcDbEntity
  8
部品1
100
AcDbLine
 10
10093.34226573112
 20
3866.725946420285
 30
0.0
 11
10093.34226573112
 21
3876.725946420285
 31
0.0
  0
LINE
  5
148A7
330
747D
100
AcDbEntity
  8
部品1
100
AcDbLine
 10
10093.34226573112
 20
3866.725946420285
 30
0.0
 11
10071.40295550191
 21
3866.725946420285
 31
0.0
  0
LINE
  5
148A8
330
747D
100
AcDbEntity
  8
部品1
100
AcDbLine
 10
10088.37261061649
 20
3854.725946420285
 30
0.0
 11
10088.37261061649
 21
3600.725946420285
 31
0.0
  0
LINE
  5
148A9
330
747D
100
AcDbEntity
  8
部品1
100
AcDbLine
 10
9888.372610616491
 20
3854.725946420285
 30
0.0
 11
9888.372610616491
 21
3600.725946420285
 31
0.0
  0
LINE
  5
148AA
330
747D
100
AcDbEntity
  8
部品1
100
AcDbLine
 10
9876.372610616492
 20
3854.725946420285
 30
0.0
 11
9876.372610616492
 21
3600.725946420285
 31
0.0
  0
LINE
  5
148AB
330
747D
100
AcDbEntity
  8
部品1
100
AcDbLine
 10
9871.402955501915
 20
3866.725946420285
 30
0.0
 11
9893.342265731124
 21
3866.725946420285
 31
0.0
  0
LINE
  5
148AC
330
747D
100
AcDbEntity
  8
部品1
100
AcDbLine
 10
9871.402955501915
 20
3866.725946420285
 30
0.0
 11
9871.402955501915
 21
3876.725946420285
 31
0.0
  0
LINE
  5
148AD
330
747D
100
AcDbEntity
  8
部品1
100
AcDbLine
 10
9876.887783059203
 20
3866.725946420285
 30
0.0
 11
9876.887783059203
 21
3876.725946420285
 31
0.0
  0
LINE
  5
148AE
330
747D
100
AcDbEntity
  8
部品1
100
AcDbLine
 10
9887.857438173778
 20
3866.725946420285
 30
0.0
 11
9887.857438173778
 21
3876.725946420285
 31
0.0
  0
LINE
  5
148AF
330
747D
100
AcDbEntity
  8
部品1
100
AcDbLine
 10
9893.342265731124
 20
3866.725946420285
 30
0.0
 11
9893.342265731124
 21
3876.725946420285
 31
0.0
  0
LINE
  5
148B0
330
747D
100
AcDbEntity
  8
部品1
100
AcDbLine
 10
9871.402955501915
 20
3876.725946420285
 30
0.0
 11
9893.342265731124
 21
3876.725946420285
 31
0.0
  0
ARC
  5
148B1
330
747D
100
AcDbEntity
  8
部品1
100
AcDbCircle
 10
9851.372610616492
 20
3600.725946420285
 30
0.0
 40
37.0
100
AcDbArc
 50
270.0
 51
0.0
  0
ARC
  5
148B2
330
747D
100
AcDbEntity
  8
部品1
100
AcDbCircle
 10
9851.372610616492
 20
3600.725946420285
 30
0.0
 40
25.0
100
AcDbArc
 50
270.0
 51
0.0
  0
LINE
  5
148B3
330
747D
100
AcDbEntity
  8
部品1
100
AcDbLine
 10
9832.372610616491
 20
3575.725946420285
 30
0.0
 11
9832.372610616491
 21
3563.725946420286
 31
0.0
  0
LINE
  5
148B4
330
747D
100
AcDbEntity
  8
部品1
100
AcDbLine
 10
9851.372610616492
 20
3563.725946420286
 30
0.0
 11
9832.372610616491
 21
3563.725946420286
 31
0.0
  0
LINE
  5
148B5
330
747D
100
AcDbEntity
  8
部品1
100
AcDbLine
 10
9851.372610616492
 20
3575.725946420285
 30
0.0
 11
9832.372610616491
 21
3575.725946420285
 31
0.0
  0
LINE
  5
148B6
330
747D
100
AcDbEntity
  8
部品1
100
AcDbLine
 10
9888.372610616491
 20
3884.725946420286
 30
0.0
 11
9888.372610616491
 21
3876.725946420285
 31
0.0
  0
LINE
  5
148B7
330
747D
100
AcDbEntity
  8
部品1
100
AcDbLine
 10
9876.372610616492
 20
3884.725946420286
 30
0.0
 11
9876.372610616492
 21
3876.725946420285
 31
0.0
  0
LINE
  5
148B8
330
747D
100
AcDbEntity
  8
部品1
100
AcDbLine
 10
9876.372610616492
 20
3884.725946420286
 30
0.0
 11
9888.372610616491
 21
3884.725946420286
 31
0.0
  0
LINE
  5
148B9
330
747D
100
AcDbEntity
  8
CSLAYER17
  6
Continuous
 62
     7
100
AcDbLine
 10
10105.92261061648
 20
3916.725946420285
 30
0.0
 11
10115.92261061648
 21
3906.725946420286
 31
0.0
  0
LINE
  5
148BA
330
747D
100
AcDbEntity
  8
CSLAYER17
  6
Continuous
 62
     7
100
AcDbLine
 10
9858.822610616503
 20
3916.725946420285
 30
0.0
 11
9848.822610616503
 21
3906.725946420286
 31
0.0
  0
LINE
  5
148BB
330
747D
100
AcDbEntity
  8
CSLAYER17
  6
Continuous
 62
     7
100
AcDbLine
 10
9937.322610616503
 20
3876.725946420285
 30
0.0
 11
9927.322610616503
 21
3866.725946420285
 31
0.0
  0
LINE
  5
148BC
330
747D
100
AcDbEntity
  8
部品1
100
AcDbLine
 10
9937.322610616503
 20
3916.725946420285
 30
0.0
 11
9937.322610616503
 21
3876.725946420285
 31
0.0
  0
LINE
  5
148BD
330
747D
100
AcDbEntity
  8
部品1
100
AcDbLine
 10
10027.42261061648
 20
3916.725946420285
 30
0.0
 11
10027.42261061648
 21
3876.725946420285
 31
0.0
  0
LINE
  5
148BE
330
747D
100
AcDbEntity
  8
CSLAYER17
  6
Continuous
 62
     7
100
AcDbLine
 10
10027.42261061648
 20
3876.725946420285
 30
0.0
 11
10037.42261061648
 21
3866.725946420285
 31
0.0
  0
LINE
  5
148BF
330
747D
100
AcDbEntity
  8
CSLAYER17
  6
Continuous
 62
     7
100
AcDbLine
 10
10027.42261061648
 20
3916.725946420285
 30
0.0
 11
10105.92261061648
 21
3916.725946420285
 31
0.0
  0
LINE
  5
148C0
330
747D
100
AcDbEntity
  8
CSLAYER17
  6
Continuous
 62
     7
100
AcDbLine
 10
9848.822610616503
 20
3906.725946420286
 30
0.0
 11
9848.822610616503
 21
3866.725946420285
 31
0.0
  0
LINE
  5
148C1
330
747D
100
AcDbEntity
  8
CSLAYER17
  6
Continuous
 62
     7
100
AcDbLine
 10
10115.92261061648
 20
3906.725946420286
 30
0.0
 11
10115.92261061648
 21
3866.725946420285
 31
0.0
  0
LINE
  5
148C2
330
747D
100
AcDbEntity
  8
CSLAYER17
  6
Continuous
 62
     7
100
AcDbLine
 10
9858.822610616503
 20
3916.725946420285
 30
0.0
 11
9937.322610616503
 21
3916.725946420285
 31
0.0
  0
LINE
  5
148C3
330
747D
100
AcDbEntity
  8
CSLAYER17
  6
Continuous
 62
     7
100
AcDbLine
 10
9980.12261061649
 20
3916.725946420285
 30
0.0
 11
9984.62261061649
 21
3916.725946420285
 31
0.0
  0
LINE
  5
148C4
330
747D
100
AcDbEntity
  8
CSLAYER17
  6
Continuous
 62
     7
100
AcDbLine
 10
9984.62261061649
 20
3916.725946420285
 30
0.0
 11
9984.62261061649
 21
3866.725946420285
 31
0.0
  0
LINE
  5
148C5
330
747D
100
AcDbEntity
  8
CSLAYER17
  6
Continuous
 62
     7
100
AcDbLine
 10
9980.12261061649
 20
3916.725946420285
 30
0.0
 11
9980.12261061649
 21
3866.725946420285
 31
0.0
  0
LINE
  5
148C6
330
747D
100
AcDbEntity
  8
CSLAYER17
  6
Continuous
 62
     7
100
AcDbLine
 10
10122.37261061649
 20
3866.725946420285
 30
0.0
 11
10122.37261061649
 21
3854.725946420285
 31
0.0
  0
LINE
  5
148C7
330
747D
100
AcDbEntity
  8
CSLAYER17
  6
Continuous
 62
     7
100
AcDbLine
 10
9842.372610616491
 20
3854.725946420285
 30
0.0
 11
9842.372610616491
 21
3866.725946420285
 31
0.0
  0
LINE
  5
148C8
330
747D
100
AcDbEntity
  8
CSLAYER17
  6
Continuous
 62
     7
100
AcDbLine
 10
9842.372610616491
 20
3866.725946420285
 30
0.0
 11
10122.37261061649
 21
3866.725946420285
 31
0.0
  0
LINE
  5
148C9
330
747D
100
AcDbEntity
  8
CSLAYER17
  6
Continuous
 62
     7
100
AcDbLine
 10
9842.372610616491
 20
3854.725946420285
 30
0.0
 11
10122.37261061649
 21
3854.725946420285
 31
0.0
  0
LINE
  5
148CA
330
747D
100
AcDbEntity
  8
部品1
 48
50.0
100
AcDbLine
 10
10027.03584251203
 20
3866.725946420285
 30
0.0
 11
9937.822610616501
 21
3866.725946420285
 31
0.0
  0
LINE
  5
148CB
330
747D
100
AcDbEntity
  8
部品1
 48
50.0
100
AcDbLine
 10
9937.822610616501
 20
4370.659042365214
 30
0.0
 11
9937.822610616501
 21
3866.7259464203
 31
0.0
  0
LINE
  5
148CC
330
747D
100
AcDbEntity
  8
部品1
 48
50.0
100
AcDbLine
 10
10026.92261061648
 20
4370.659042365214
 30
0.0
 11
10026.92261061648
 21
3866.7259464203
 31
0.0
  0
LINE
  5
148CD
330
747D
100
AcDbEntity
  8
センター
 48
10.0
100
AcDbLine
 10
9632.372610616492
 20
4449.198779275326
 30
0.0
 11
9632.372610616492
 21
3313.668114590406
 31
0.0
  0
LINE
  5
148CE
330
747D
100
AcDbEntity
  8
センター
 48
10.0
100
AcDbLine
 10
9982.372610616492
 20
4449.198779275326
 30
0.0
 11
9982.372610616492
 21
3313.668114590406
 31
0.0
  0
DIMENSION
  5
148CF
330
747D
100
AcDbEntity
  8
寸法
 48
50.0
100
AcDbDimension
  2
*D10
 10
8686.696314851515
 20
3884.725946420271
 30
0.0
 11
8686.696314851515
 21
3667.497599963579
 31
0.0
 70
   160
 71
     5
 42
60.00000000000046
  3
INABA_S30G
100
AcDbAlignedDimension
 13
9044.191419531236
 23
3824.725946420271
 33
0.0
 14
9526.37261061649
 24
3884.725946420271
 34
0.0
 50
90.0
100
AcDbRotatedDimension
  0
DIMENSION
  5
148D0
330
747D
100
AcDbEntity
  8
寸法
 48
50.0
100
AcDbDimension
  2
*D11
 10
8886.872218244818
 20
3854.725946420286
 30
0.0
 11
8886.872218244818
 21
3595.190513349406
 31
0.0
 70
   160
 71
     5
 42
30.00000000001501
  3
INABA_S30G
100
AcDbAlignedDimension
 13
9044.191419531236
 23
3824.725946420271
 33
0.0
 14
9492.37261061649
 24
3854.725946420285
 34
0.0
 50
90.0
100
AcDbRotatedDimension
  0
LINE
  5
148D1
330
747D
100
AcDbEntity
  8
寸法
 48
50.0
100
AcDbLine
 10
10956.01027813791
 20
2850.482438017154
 30
0.0
 11
10088.37261061649
 21
3727.725946420286
 31
0.0
  0
TEXT
  5
148D2
330
747D
100
AcDbEntity
  8
寸法
 62
     7
 48
50.0
100
AcDbText
 10
10993.75564422004
 20
2743.204063032861
 30
0.0
 40
90.0
  1
M12X350（市販品）
  7
STYLE1
100
AcDbText
  0
TEXT
  5
148D3
330
747D
100
AcDbEntity
  8
寸法
 62
     7
 48
50.0
100
AcDbText
 10
10993.75564422004
 20
2862.750341549303
 30
0.0
 40
90.0
  1
アンカーボルト
  7
STYLE1
100
AcDbText
  0
LINE
  5
148D4
330
747D
100
AcDbEntity
  8
寸法
 48
50.0
100
AcDbLine
 10
10956.01027813791
 20
2850.482438017154
 30
0.0
 11
11948.93760465853
 21
2850.482438017154
 31
0.0
  0
LINE
  5
14989
330
747D
100
AcDbEntity
  8
部品1
 48
50.0
100
AcDbLine
 10
7410.129866693576
 20
4601.169257607742
 30
-0.0000000000013153
 11
6610.129866693576
 21
4601.169257607742
 31
-0.0000000000013153
  0
LINE
  5
1498A
330
747D
100
AcDbEntity
  8
部品1
 48
50.0
100
AcDbLine
 10
6610.129866693576
 20
3201.169257607742
 30
-0.0000000000013153
 11
7410.129866693576
 21
3201.169257607742
 31
-0.0000000000013153
  0
LINE
  5
1498B
330
747D
100
AcDbEntity
  8
部品1
 48
50.0
100
AcDbLine
 10
6610.129866693576
 20
4601.169257607742
 30
-0.0000000000013153
 11
6610.129866693576
 21
3201.169257607742
 31
-0.0000000000013153
  0
LINE
  5
1498C
330
747D
100
AcDbEntity
  8
部品1
 48
50.0
100
AcDbLine
 10
1010.129866693576
 20
3201.169257607742
 30
-0.0000000000013153
 11
1810.129866693576
 21
3201.169257607742
 31
-0.0000000000013153
  0
LINE
  5
1498D
330
747D
100
AcDbEntity
  8
部品1
 48
50.0
100
AcDbLine
 10
1810.129866693576
 20
4601.169257607742
 30
-0.0000000000013153
 11
1810.129866693576
 21
3201.169257607742
 31
-0.0000000000013153
  0
LINE
  5
1498E
330
747D
100
AcDbEntity
  8
部品1
 48
50.0
100
AcDbLine
 10
1810.129866693576
 20
4601.169257607742
 30
-0.0000000000013153
 11
1010.129866693576
 21
4601.169257607742
 31
-0.0000000000013153
  0
LINE
  5
1498F
330
747D
100
AcDbEntity
  8
想像線
 48
10.0
100
AcDbLine
 10
1180.129866693634
 20
1862.669257607727
 30
-0.0000000000013153
 11
7240.129866693518
 21
1862.669257607742
 31
-0.0000000000013153
  0
LINE
  5
14990
330
747D
100
AcDbEntity
  8
想像線
 48
10.0
100
AcDbLine
 10
7240.129866693518
 20
1862.669257607742
 30
-0.0000000000013153
 11
7240.129866693518
 21
5939.669257607742
 31
-0.0000000000013153
  0
LINE
  5
14991
330
747D
100
AcDbEntity
  8
想像線
 48
10.0
100
AcDbLine
 10
7240.129866693518
 20
5939.669257607742
 30
-0.0000000000013153
 11
1180.129866693634
 21
5939.669257607728
 31
-0.0000000000013153
  0
LINE
  5
14992
330
747D
100
AcDbEntity
  8
想像線
 48
10.0
100
AcDbLine
 10
1180.129866693634
 20
1862.669257607742
 30
-0.0000000000013153
 11
1180.129866693605
 21
5939.669257607742
 31
-0.0000000000013153
  0
LINE
  5
14993
330
747D
100
AcDbEntity
  8
センター
 48
10.0
100
AcDbLine
 10
1160.129866693576
 20
3726.169257607742
 30
-0.0000000000013153
 11
7260.129866693576
 21
3726.169257607742
 31
-0.0000000000013153
  0
CIRCLE
  5
14994
330
747D
100
AcDbEntity
  8
部品1
 48
50.0
100
AcDbCircle
 10
7110.129866693576
 20
3826.169257607742
 30
-0.0000000000013153
 40
15.0
  0
LINE
  5
14995
330
747D
100
AcDbEntity
  8
センター
 48
3.0
100
AcDbLine
 10
7110.129866693576
 20
3901.169257607742
 30
-0.0000000000013153
 11
7110.129866693576
 21
3751.169257607742
 31
-0.0000000000013153
  0
LINE
  5
14996
330
747D
100
AcDbEntity
  8
センター
 48
3.0
100
AcDbLine
 10
7035.129866693576
 20
3826.169257607742
 30
-0.0000000000013153
 11
7185.129866693576
 21
3826.169257607742
 31
-0.0000000000013153
  0
LINE
  5
14997
330
747D
100
AcDbEntity
  8
センター
 48
3.0
100
AcDbLine
 10
7110.129866693576
 20
3701.169257607742
 30
-0.0000000000013153
 11
7110.129866693576
 21
3551.169257607742
 31
-0.0000000000013153
  0
CIRCLE
  5
14998
330
747D
100
AcDbEntity
  8
部品1
 48
50.0
100
AcDbCircle
 10
7110.129866693576
 20
3626.169257607742
 30
-0.0000000000013153
 40
15.0
  0
LINE
  5
14999
330
747D
100
AcDbEntity
  8
センター
 48
3.0
100
AcDbLine
 10
7035.129866693576
 20
3626.169257607742
 30
-0.0000000000013153
 11
7185.129866693576
 21
3626.169257607742
 31
-0.0000000000013153
  0
LINE
  5
1499A
330
747D
100
AcDbEntity
  8
センター
 48
10.0
100
AcDbLine
 10
7010.129866693576
 20
3476.169257607742
 30
-0.0000000000013153
 11
7010.129866693576
 21
3976.169257607742
 31
-0.0000000000013153
  0
CIRCLE
  5
1499B
330
747D
100
AcDbEntity
  8
部品1
 48
50.0
100
AcDbCircle
 10
6910.129866693576
 20
3826.169257607742
 30
-0.0000000000013153
 40
15.0
  0
LINE
  5
1499C
330
747D
100
AcDbEntity
  8
センター
 48
3.0
100
AcDbLine
 10
6910.129866693576
 20
3901.169257607742
 30
-0.0000000000013153
 11
6910.129866693576
 21
3751.169257607742
 31
-0.0000000000013153
  0
LINE
  5
1499D
330
747D
100
AcDbEntity
  8
センター
 48
3.0
100
AcDbLine
 10
6910.129866693576
 20
3701.169257607742
 30
-0.0000000000013153
 11
6910.129866693576
 21
3551.169257607742
 31
-0.0000000000013153
  0
CIRCLE
  5
1499E
330
747D
100
AcDbEntity
  8
部品1
 48
50.0
100
AcDbCircle
 10
6910.129866693576
 20
3626.169257607742
 30
-0.0000000000013153
 40
15.0
  0
LINE
  5
1499F
330
747D
100
AcDbEntity
  8
センター
 48
10.0
100
AcDbLine
 10
6760.129866693576
 20
3726.169257607742
 30
-0.0000000000013153
 11
7260.129866693576
 21
3726.169257607742
 31
-0.0000000000013153
  0
LINE
  5
149A0
330
747D
100
AcDbEntity
  8
センター
 48
3.0
100
AcDbLine
 10
6835.129866693576
 20
3826.169257607742
 30
-0.0000000000013153
 11
6985.129866693576
 21
3826.169257607742
 31
-0.0000000000013153
  0
LINE
  5
149A1
330
747D
100
AcDbEntity
  8
センター
 48
3.0
100
AcDbLine
 10
6835.129866693576
 20
3626.169257607742
 30
-0.0000000000013153
 11
6985.129866693576
 21
3626.169257607742
 31
-0.0000000000013153
  0
LINE
  5
149A2
330
747D
100
AcDbEntity
  8
センター
 48
3.0
100
AcDbLine
 10
1235.129866693576
 20
3626.169257607742
 30
-0.0000000000013153
 11
1385.129866693576
 21
3626.169257607742
 31
-0.0000000000013153
  0
LINE
  5
149A3
330
747D
100
AcDbEntity
  8
センター
 48
3.0
100
AcDbLine
 10
1235.129866693576
 20
3826.169257607742
 30
-0.0000000000013153
 11
1385.129866693576
 21
3826.169257607742
 31
-0.0000000000013153
  0
LINE
  5
149A4
330
747D
100
AcDbEntity
  8
センター
 48
10.0
100
AcDbLine
 10
1160.129866693576
 20
3726.169257607742
 30
-0.0000000000013153
 11
1660.129866693576
 21
3726.169257607742
 31
-0.0000000000013153
  0
CIRCLE
  5
149A5
330
747D
100
AcDbEntity
  8
部品1
 48
50.0
100
AcDbCircle
 10
1310.129866693576
 20
3626.169257607742
 30
-0.0000000000013153
 40
15.0
  0
LINE
  5
149A6
330
747D
100
AcDbEntity
  8
センター
 48
3.0
100
AcDbLine
 10
1310.129866693576
 20
3701.169257607742
 30
-0.0000000000013153
 11
1310.129866693576
 21
3551.169257607742
 31
-0.0000000000013153
  0
LINE
  5
149A7
330
747D
100
AcDbEntity
  8
センター
 48
3.0
100
AcDbLine
 10
1310.129866693576
 20
3901.169257607742
 30
-0.0000000000013153
 11
1310.129866693576
 21
3751.169257607742
 31
-0.0000000000013153
  0
CIRCLE
  5
149A8
330
747D
100
AcDbEntity
  8
部品1
 48
50.0
100
AcDbCircle
 10
1310.129866693576
 20
3826.169257607742
 30
-0.0000000000013153
 40
15.0
  0
LINE
  5
149A9
330
747D
100
AcDbEntity
  8
センター
 48
10.0
100
AcDbLine
 10
1410.129866693576
 20
3476.169257607742
 30
-0.0000000000013153
 11
1410.129866693576
 21
3976.169257607742
 31
-0.0000000000013153
  0
LINE
  5
149AA
330
747D
100
AcDbEntity
  8
センター
 48
3.0
100
AcDbLine
 10
1435.129866693576
 20
3626.169257607742
 30
-0.0000000000013153
 11
1585.129866693576
 21
3626.169257607742
 31
-0.0000000000013153
  0
CIRCLE
  5
149AB
330
747D
100
AcDbEntity
  8
部品1
 48
50.0
100
AcDbCircle
 10
1510.129866693576
 20
3626.169257607742
 30
-0.0000000000013153
 40
15.0
  0
LINE
  5
149AC
330
747D
100
AcDbEntity
  8
センター
 48
3.0
100
AcDbLine
 10
1510.129866693576
 20
3701.169257607742
 30
-0.0000000000013153
 11
1510.129866693576
 21
3551.169257607742
 31
-0.0000000000013153
  0
LINE
  5
149AD
330
747D
100
AcDbEntity
  8
センター
 48
3.0
100
AcDbLine
 10
1435.129866693576
 20
3826.169257607742
 30
-0.0000000000013153
 11
1585.129866693576
 21
3826.169257607742
 31
-0.0000000000013153
  0
LINE
  5
149AE
330
747D
100
AcDbEntity
  8
センター
 48
3.0
100
AcDbLine
 10
1510.129866693576
 20
3901.169257607742
 30
-0.0000000000013153
 11
1510.129866693576
 21
3751.169257607742
 31
-0.0000000000013153
  0
CIRCLE
  5
149AF
330
747D
100
AcDbEntity
  8
部品1
 48
50.0
100
AcDbCircle
 10
1510.129866693576
 20
3826.169257607742
 30
-0.0000000000013153
 40
15.0
  0
LINE
  5
149B0
330
747D
100
AcDbEntity
  8
文字
 48
50.0
100
AcDbLine
 10
1010.129866693576
 20
6076.169257607742
 30
-0.0000000000013153
 11
7410.129866693576
 21
6076.169257607742
 31
-0.0000000000013153
  0
LINE
  5
149B1
330
747D
100
AcDbEntity
  8
部品1
 48
30.0
100
AcDbLine
 10
1010.129866693576
 20
1726.169257607742
 30
-0.0000000000013153
 11
7410.129866693576
 21
1726.169257607742
 31
-0.0000000000013153
  0
LINE
  5
149B2
330
747D
100
AcDbEntity
  8
部品1
 48
50.0
100
AcDbLine
 10
1010.129866693576
 20
6076.169257607742
 30
-0.0000000000013153
 11
1010.129866693576
 21
1726.169257607742
 31
-0.0000000000013153
  0
LINE
  5
149B3
330
747D
100
AcDbEntity
  8
部品1
 48
50.0
100
AcDbLine
 10
7410.129866693576
 20
6076.169257607742
 30
-0.0000000000013153
 11
7410.129866693576
 21
1726.169257607742
 31
-0.0000000000013153
  0
MTEXT
  5
149B4
330
747D
100
AcDbEntity
  8
寸法
 62
     7
 48
50.0
100
AcDbMText
 10
1236.121751475788
 20
1979.949303475232
 30
-0.0000000000013153
 40
90.0
 41
0.0
 71
     4
 72
     1
  1
\A1;床コンクリート打コテ押エ
  7
STYLE1
 73
     1
 44
1.0
1001
ACAD
1000
MTEXTBEGIN
1070
    73
1070
     1
1070
    44
1040
1.0
1070
    74
1070
     0
1000
MTEXTEND
  0
LINE
  5
149B5
330
747D
100
AcDbEntity
  8
センター
 48
10.0
100
AcDbLine
 10
1160.129866693576
 20
4076.169257607742
 30
-0.0000000000013153
 11
7260.129866693576
 21
4076.169257607742
 31
-0.0000000000013153
  0
CIRCLE
  5
149B6
330
747D
100
AcDbEntity
  8
部品1
 48
50.0
100
AcDbCircle
 10
7110.129866693576
 20
4176.169257607742
 30
-0.0000000000013153
 40
15.0
  0
LINE
  5
149B7
330
747D
100
AcDbEntity
  8
センター
 48
3.0
100
AcDbLine
 10
7110.129866693576
 20
4251.169257607742
 30
-0.0000000000013153
 11
7110.129866693576
 21
4101.169257607742
 31
-0.0000000000013153
  0
LINE
  5
149B8
330
747D
100
AcDbEntity
  8
センター
 48
3.0
100
AcDbLine
 10
7035.129866693576
 20
4176.169257607742
 30
-0.0000000000013153
 11
7185.129866693576
 21
4176.169257607742
 31
-0.0000000000013153
  0
LINE
  5
149B9
330
747D
100
AcDbEntity
  8
センター
 48
3.0
100
AcDbLine
 10
7110.129866693576
 20
4051.169257607742
 30
-0.0000000000013153
 11
7110.129866693576
 21
3901.169257607742
 31
-0.0000000000013153
  0
CIRCLE
  5
149BA
330
747D
100
AcDbEntity
  8
部品1
 48
50.0
100
AcDbCircle
 10
7110.129866693576
 20
3976.169257607742
 30
-0.0000000000013153
 40
15.0
  0
LINE
  5
149BB
330
747D
100
AcDbEntity
  8
センター
 48
3.0
100
AcDbLine
 10
7035.129866693576
 20
3976.169257607742
 30
-0.0000000000013153
 11
7185.129866693576
 21
3976.169257607742
 31
-0.0000000000013153
  0
LINE
  5
149BC
330
747D
100
AcDbEntity
  8
センター
 48
10.0
100
AcDbLine
 10
7010.129866693576
 20
3826.169257607742
 30
-0.0000000000013153
 11
7010.129866693576
 21
4326.169257607742
 31
-0.0000000000013153
  0
CIRCLE
  5
149BD
330
747D
100
AcDbEntity
  8
部品1
 48
50.0
100
AcDbCircle
 10
6910.129866693576
 20
4176.169257607742
 30
-0.0000000000013153
 40
15.0
  0
LINE
  5
149BE
330
747D
100
AcDbEntity
  8
センター
 48
3.0
100
AcDbLine
 10
6910.129866693576
 20
4251.169257607742
 30
-0.0000000000013153
 11
6910.129866693576
 21
4101.169257607742
 31
-0.0000000000013153
  0
LINE
  5
149BF
330
747D
100
AcDbEntity
  8
センター
 48
3.0
100
AcDbLine
 10
6910.129866693576
 20
4051.169257607742
 30
-0.0000000000013153
 11
6910.129866693576
 21
3901.169257607742
 31
-0.0000000000013153
  0
CIRCLE
  5
149C0
330
747D
100
AcDbEntity
  8
部品1
 48
50.0
100
AcDbCircle
 10
6910.129866693576
 20
3976.169257607742
 30
-0.0000000000013153
 40
15.0
  0
LINE
  5
149C1
330
747D
100
AcDbEntity
  8
センター
 48
10.0
100
AcDbLine
 10
6760.129866693576
 20
4076.169257607742
 30
-0.0000000000013153
 11
7260.129866693576
 21
4076.169257607742
 31
-0.0000000000013153
  0
LINE
  5
149C2
330
747D
100
AcDbEntity
  8
センター
 48
3.0
100
AcDbLine
 10
6835.129866693576
 20
4176.169257607742
 30
-0.0000000000013153
 11
6985.129866693576
 21
4176.169257607742
 31
-0.0000000000013153
  0
LINE
  5
149C3
330
747D
100
AcDbEntity
  8
センター
 48
3.0
100
AcDbLine
 10
6835.129866693576
 20
3976.169257607742
 30
-0.0000000000013153
 11
6985.129866693576
 21
3976.169257607742
 31
-0.0000000000013153
  0
LINE
  5
149C4
330
747D
100
AcDbEntity
  8
センター
 48
3.0
100
AcDbLine
 10
1235.129866693576
 20
3976.169257607742
 30
-0.0000000000013153
 11
1385.129866693576
 21
3976.169257607742
 31
-0.0000000000013153
  0
LINE
  5
149C5
330
747D
100
AcDbEntity
  8
センター
 48
3.0
100
AcDbLine
 10
1235.129866693576
 20
4176.169257607742
 30
-0.0000000000013153
 11
1385.129866693576
 21
4176.169257607742
 31
-0.0000000000013153
  0
LINE
  5
149C6
330
747D
100
AcDbEntity
  8
センター
 48
10.0
100
AcDbLine
 10
1160.129866693576
 20
4076.169257607742
 30
-0.0000000000013153
 11
1660.129866693576
 21
4076.169257607742
 31
-0.0000000000013153
  0
CIRCLE
  5
149C7
330
747D
100
AcDbEntity
  8
部品1
 48
50.0
100
AcDbCircle
 10
1310.129866693576
 20
3976.169257607742
 30
-0.0000000000013153
 40
15.0
  0
LINE
  5
149C8
330
747D
100
AcDbEntity
  8
センター
 48
3.0
100
AcDbLine
 10
1310.129866693576
 20
4051.169257607742
 30
-0.0000000000013153
 11
1310.129866693576
 21
3901.169257607742
 31
-0.0000000000013153
  0
LINE
  5
149C9
330
747D
100
AcDbEntity
  8
センター
 48
3.0
100
AcDbLine
 10
1310.129866693576
 20
4251.169257607742
 30
-0.0000000000013153
 11
1310.129866693576
 21
4101.169257607742
 31
-0.0000000000013153
  0
CIRCLE
  5
149CA
330
747D
100
AcDbEntity
  8
部品1
 48
50.0
100
AcDbCircle
 10
1310.129866693576
 20
4176.169257607742
 30
-0.0000000000013153
 40
15.0
  0
LINE
  5
149CB
330
747D
100
AcDbEntity
  8
センター
 48
10.0
100
AcDbLine
 10
1410.129866693576
 20
3826.169257607742
 30
-0.0000000000013153
 11
1410.129866693576
 21
4326.169257607742
 31
-0.0000000000013153
  0
LINE
  5
149CC
330
747D
100
AcDbEntity
  8
センター
 48
3.0
100
AcDbLine
 10
1435.129866693576
 20
3976.169257607742
 30
-0.0000000000013153
 11
1585.129866693576
 21
3976.169257607742
 31
-0.0000000000013153
  0
CIRCLE
  5
149CD
330
747D
100
AcDbEntity
  8
部品1
 48
50.0
100
AcDbCircle
 10
1510.129866693576
 20
3976.169257607742
 30
-0.0000000000013153
 40
15.0
  0
LINE
  5
149CE
330
747D
100
AcDbEntity
  8
センター
 48
3.0
100
AcDbLine
 10
1510.129866693576
 20
4051.169257607742
 30
-0.0000000000013153
 11
1510.129866693576
 21
3901.169257607742
 31
-0.0000000000013153
  0
LINE
  5
149CF
330
747D
100
AcDbEntity
  8
センター
 48
3.0
100
AcDbLine
 10
1435.129866693576
 20
4176.169257607742
 30
-0.0000000000013153
 11
1585.129866693576
 21
4176.169257607742
 31
-0.0000000000013153
  0
LINE
  5
149D0
330
747D
100
AcDbEntity
  8
センター
 48
3.0
100
AcDbLine
 10
1510.129866693576
 20
4251.169257607742
 30
-0.0000000000013153
 11
1510.129866693576
 21
4101.169257607742
 31
-0.0000000000013153
  0
CIRCLE
  5
149D1
330
747D
100
AcDbEntity
  8
部品1
 48
50.0
100
AcDbCircle
 10
1510.129866693576
 20
4176.169257607742
 30
-0.0000000000013153
 40
15.0
  0
LINE
  5
149D2
330
747D
100
AcDbEntity
  8
寸法
 48
50.0
100
AcDbLine
 10
2521.751903363038
 20
2833.743129575387
 30
-0.0000000000013153
 11
2488.903620530269
 21
2956.334590048844
 31
-0.0000000000013153
  0
LINE
  5
149D3
330
747D
100
AcDbEntity
  8
寸法
 48
50.0
100
AcDbLine
 10
2521.751903363038
 20
2833.743129575387
 30
-0.0000000000013153
 11
2554.600186195865
 21
2956.334590048844
 31
-0.0000000000013153
  0
LINE
  5
149D4
330
747D
100
AcDbEntity
  8
寸法
 48
50.0
100
AcDbLine
 10
2521.751903363038
 20
3619.458358008569
 30
-0.0000000000013153
 11
2521.751903363038
 21
2833.743129575387
 31
-0.0000000000013153
  0
MTEXT
  5
149D5
330
747D
100
AcDbEntity
  8
寸法
 62
     7
 48
50.0
100
AcDbMText
 10
2427.313967297261
 20
2972.456435702532
 30
-0.0000000000013153
 40
90.0
 41
0.0
 71
     4
 72
     1
  1
\A1;水勾配 1/100 
  7
STYLE1
 11
0.0000000000000001
 21
1.0
 31
0.0
 73
     1
 44
1.0
1001
ACAD
1000
MTEXTBEGIN
1070
    73
1070
     1
1070
    44
1040
1.0
1070
    74
1070
     0
1000
MTEXTEND
  0
DIMENSION
  5
149D9
330
747D
100
AcDbEntity
  8
寸法
 48
50.0
100
AcDbDimension
  2
*D12
 10
7240.129866693518
 20
1397.681539271196
 30
-0.0000000000013153
 11
4210.129866693576
 21
1472.681539271196
 31
-0.0000000000013153
 70
    32
  1
屋根寸法 <>
 71
     5
 42
6059.999999999884
  3
INABA_S30G
100
AcDbAlignedDimension
 13
1180.129866693634
 23
1862.669257607727
 33
-0.0000000000013153
 14
7240.129866693518
 24
1862.669257607742
 34
-0.0000000000013153
100
AcDbRotatedDimension
  0
DIMENSION
  5
149DA
330
747D
100
AcDbEntity
  8
寸法
 48
50.0
100
AcDbDimension
  2
*D13
 10
1010.129866693576
 20
1397.681539271196
 30
-0.0000000000013153
 11
1095.129866693605
 21
1472.681539271196
 31
-0.0000000000013153
 70
    32
 71
     5
 42
170.0000000000582
  3
INABA_S30G
100
AcDbAlignedDimension
 13
1180.129866693634
 23
1862.669257607727
 33
-0.0000000000013153
 14
1010.129866693576
 24
1726.169257607742
 34
-0.0000000000013153
100
AcDbRotatedDimension
  0
DIMENSION
  5
149DB
330
747D
100
AcDbEntity
  8
寸法
 48
50.0
100
AcDbDimension
  2
*D14
 10
7410.129866693576
 20
1397.681539271196
 30
-0.0000000000013153
 11
7325.129866693547
 21
1472.681539271196
 31
-0.0000000000013153
 70
    32
 71
     5
 42
170.0000000000582
  3
INABA_S30G
100
AcDbAlignedDimension
 13
7240.129866693518
 23
1862.669257607742
 33
-0.0000000000013153
 14
7410.129866693576
 24
1726.169257607742
 34
-0.0000000000013153
100
AcDbRotatedDimension
  0
DIMENSION
  5
149DF
330
747D
100
AcDbEntity
  8
寸法
 48
50.0
100
AcDbDimension
  2
*D15
 10
7792.404089057177
 20
1726.169257607742
 30
-0.0000000000013153
 11
7792.404089057177
 21
1502.305296577064
 31
-0.0000000000013153
 70
   160
 71
     5
 42
136.5
  3
INABA_S30G
100
AcDbAlignedDimension
 13
7240.129866693518
 23
1862.669257607742
 33
-0.0000000000013153
 14
7410.129866693576
 24
1726.169257607742
 34
-0.0000000000013153
 50
90.0
100
AcDbRotatedDimension
  0
DIMENSION
  5
149E0
330
747D
100
AcDbEntity
  8
寸法
 48
50.0
100
AcDbDimension
  2
*D16
 10
7792.404089057177
 20
1862.669257607742
 30
-0.0000000000013153
 11
7717.404089057177
 21
3901.169257607744
 31
-0.0000000000013153
 70
    32
  1
屋根寸法 <>
 71
     5
 42
4077.0
  3
INABA_S30G
100
AcDbAlignedDimension
 13
7240.129866693518
 23
5939.669257607742
 33
-0.0000000000013153
 14
7240.129866693518
 24
1862.669257607742
 34
-0.0000000000013153
 50
90.0
100
AcDbRotatedDimension
  0
DIMENSION
  5
149E1
330
747D
100
AcDbEntity
  8
寸法
 48
50.0
100
AcDbDimension
  2
*D17
 10
7792.404089057178
 20
6076.169257607742
 30
-0.0000000000013153
 11
7792.404089057177
 21
6300.033218638471
 31
-0.0000000000013153
 70
   160
 71
     5
 42
136.5
  3
INABA_S30G
100
AcDbAlignedDimension
 13
7240.129866693518
 23
5939.669257607742
 33
-0.0000000000013153
 14
7410.129866693576
 24
6076.169257607742
 34
-0.0000000000013153
 50
270.0
100
AcDbRotatedDimension
  0
LINE
  5
149FD
330
747D
100
AcDbEntity
  8
寸法
 48
50.0
100
AcDbLine
 10
2521.751903363038
 20
4968.595385640098
 30
-0.0000000000013153
 11
2488.903620530269
 21
4846.00392516664
 31
-0.0000000000013153
  0
LINE
  5
149FE
330
747D
100
AcDbEntity
  8
寸法
 48
50.0
100
AcDbLine
 10
2521.751903363038
 20
4968.595385640098
 30
-0.0000000000013153
 11
2554.600186195865
 21
4846.00392516664
 31
-0.0000000000013153
  0
LINE
  5
149FF
330
747D
100
AcDbEntity
  8
寸法
 48
50.0
100
AcDbLine
 10
2521.751903363038
 20
4182.880157206915
 30
-0.0000000000013153
 11
2521.751903363038
 21
4968.595385640098
 31
-0.0000000000013153
  0
MTEXT
  5
14A00
330
747D
100
AcDbEntity
  8
寸法
 62
     7
 48
50.0
100
AcDbMText
 10
2427.313967297261
 20
4221.593463334046
 30
-0.0000000000013153
 40
90.0
 41
0.0
 71
     4
 72
     1
  1
\A1;水勾配 1/100 
  7
STYLE1
 11
0.0000000000000001
 21
1.0
 31
0.0
 73
     1
 44
1.0
1001
ACAD
1000
MTEXTBEGIN
1070
    73
1070
     1
1070
    44
1040
1.0
1070
    74
1070
     0
1000
MTEXTEND
  0
TEXT
  5
14A01
330
747D
100
AcDbEntity
  8
寸法
 62
     7
100
AcDbText
 10
5468.27376732236
 20
2601.495526141831
 30
-0.0000000000013153
 40
90.0
  1
ｱﾝｶｰﾎﾞﾙﾄ(市販品)
  7
STYLE1
100
AcDbText
  0
LEADER
  5
14A02
330
747D
100
AcDbEntity
  8
寸法
 48
50.0
100
AcDbLeader
  3
INABA_S50G
 76
     3
 10
6910.129866693576
 20
3626.169257607742
 30
-0.0000000000013153
 10
6298.615627713152
 20
2566.995526141831
 30
-0.0000000000013153
 10
5445.727218746033
 20
2566.995526141831
 30
-0.0000000000013153
1001
ACAD
1000
DSTYLE
1002
{
1070
    41
1040
80.0
1070
   147
1040
25.0
1070
    77
1070
     0
1002
}
  0
DIMENSION
  5
14A03
330
747D
100
AcDbEntity
  8
寸法
 48
50.0
100
AcDbDimension
  2
*D18
 10
446.5086679658561
 20
1726.169257607742
 30
-0.0000000000013153
 11
371.508667965856
 21
3901.169257607742
 31
-0.0000000000013153
 70
    32
  1
基礎土間寸法 <>
 71
     5
 42
4350.0
  3
INABA_S30G
100
AcDbAlignedDimension
 13
1010.129866693547
 23
6076.169257607742
 33
-0.0000000000013153
 14
1010.129866693547
 24
1726.169257607742
 34
-0.0000000000013153
 50
90.0
100
AcDbRotatedDimension
  0
DIMENSION
  5
14A04
330
747D
100
AcDbEntity
  8
寸法
 48
50.0
100
AcDbDimension
  2
*D19
 10
669.2580299823021
 20
1726.169257607742
 30
-0.0000000000013153
 11
594.2491717145854
 21
2726.169257607743
 31
-0.0000000000013153
 70
    32
 71
     5
 42
2000.0
  3
INABA_S30G
100
AcDbAlignedDimension
 13
1160.129866693547
 23
3726.169257607742
 33
-0.0000000000013153
 14
1010.129866693547
 24
1726.169257607742
 34
-0.0000000000013153
 50
90.0
100
AcDbRotatedDimension
  0
DIMENSION
  5
14A05
330
747D
100
AcDbEntity
  8
寸法
 48
50.0
100
AcDbDimension
  2
*D20
 10
669.2580299823021
 20
3726.169257607743
 30
-0.0000000000013153
 11
594.2580299823015
 21
3901.169257607743
 31
-0.0000000000013153
 70
    32
 71
     5
 42
350.0
  3
INABA_S30G
100
AcDbAlignedDimension
 13
1160.129866693547
 23
4076.169257607742
 33
-0.0000000000013153
 14
1160.129866693547
 24
3726.169257607742
 34
-0.0000000000013153
 50
90.0
100
AcDbRotatedDimension
  0
DIMENSION
  5
14A06
330
747D
100
AcDbEntity
  8
寸法
 48
50.0
100
AcDbDimension
  2
*D21
 10
669.2580299823021
 20
6076.169257607742
 30
-0.0000000000013153
 11
594.2491717145846
 21
5076.169257607742
 31
-0.0000000000013153
 70
    32
 71
     5
 42
2000.0
  3
INABA_S30G
100
AcDbAlignedDimension
 13
1160.129866693547
 23
4076.169257607742
 33
-0.0000000000013153
 14
1010.129866693547
 24
6076.169257607742
 34
-0.0000000000013153
 50
270.0
100
AcDbRotatedDimension
  0
LINE
  5
14A07
330
747D
100
AcDbEntity
  8
寸法
 48
50.0
100
AcDbLine
 10
1155.99603594467
 20
4680.068220087874
 30
-0.0000000000013153
 11
1263.729406527651
 21
4708.935289733456
 31
-0.0000000000013153
  0
LINE
  5
14A08
330
747D
100
AcDbEntity
  8
寸法
 48
50.0
100
AcDbLine
 10
1263.729406527651
 20
4708.935289733456
 30
-0.0000000000013153
 11
1263.729406527651
 21
4643.000670811913
 31
-0.0000000000013153
  0
LINE
  5
14A09
330
747D
100
AcDbEntity
  8
寸法
 48
50.0
100
AcDbLine
 10
1410.129866693576
 20
4680.068220087874
 30
-0.0000000000013153
 11
1155.99603594467
 21
4680.068220087874
 31
-0.0000000000013153
  0
TEXT
  5
14A0A
330
747D
100
AcDbEntity
  8
寸法
 62
     7
100
AcDbText
 10
1046.494386531121
 20
4652.002747286106
 30
-0.0000000000013153
 40
90.0
  1
A'
  7
STYLE1
100
AcDbText
  0
LINE
  5
14A0B
330
747D
100
AcDbEntity
  8
寸法
 48
50.0
100
AcDbLine
 10
1410.129866693576
 20
3122.27029512761
 30
-0.0000000000013153
 11
1155.99603594467
 21
3122.27029512761
 31
-0.0000000000013153
  0
LINE
  5
14A0C
330
747D
100
AcDbEntity
  8
寸法
 48
50.0
100
AcDbLine
 10
1155.99603594467
 20
3122.27029512761
 30
-0.0000000000013153
 11
1263.729406527651
 21
3093.403225482029
 31
-0.0000000000013153
  0
LINE
  5
14A0D
330
747D
100
AcDbEntity
  8
寸法
 48
50.0
100
AcDbLine
 10
1263.729406527651
 20
3093.403225482029
 30
-0.0000000000013153
 11
1263.729406527651
 21
3159.337844403572
 31
-0.0000000000013153
  0
TEXT
  5
14A0E
330
747D
100
AcDbEntity
  8
寸法
 62
     7
100
AcDbText
 10
1045.235757672402
 20
3080.043092119706
 30
-0.0000000000013153
 40
90.0
  1
A
  7
STYLE1
100
AcDbText
  0
LINE
  5
14A0F
330
747D
100
AcDbEntity
  8
寸法
 48
50.0
100
AcDbLine
 10
1410.129866693576
 20
3122.27029512761
 30
-0.0000000000013153
 11
1410.129866693576
 21
3476.169257607742
 31
-0.0000000000013153
  0
DIMENSION
  5
14A10
330
747D
100
AcDbEntity
  8
寸法
 48
50.0
100
AcDbDimension
  2
*D22
 10
7410.129866693576
 20
6748.873461716098
 30
-0.0000000000013153
 11
4210.129866693576
 21
6823.873461716098
 31
-0.0000000000013153
 70
    32
  1
基礎土間寸法 <>
 71
     5
 42
6400.0
  3
INABA_S30G
100
AcDbAlignedDimension
 13
1010.129866693576
 23
6076.169257607742
 33
-0.0000000000013153
 14
7410.129866693576
 24
6076.169257607742
 34
-0.0000000000013153
100
AcDbRotatedDimension
  0
DIMENSION
  5
14A11
330
747D
100
AcDbEntity
  8
寸法
 48
50.0
100
AcDbDimension
  2
*D23
 10
7410.129866693576
 20
6554.836422741779
 30
-0.0000000000013153
 11
7210.129866693576
 21
6629.836422741779
 31
-0.0000000000013153
 70
    32
 71
     5
 42
400.0
  3
INABA_S30G
100
AcDbAlignedDimension
 13
7010.129866693576
 23
4326.169257607742
 33
-0.0000000000013153
 14
7410.129866693576
 24
6076.169257607742
 34
-0.0000000000013153
100
AcDbRotatedDimension
  0
DIMENSION
  5
14A12
330
747D
100
AcDbEntity
  8
寸法
 48
50.0
100
AcDbDimension
  2
*D24
 10
7010.129866693576
 20
6554.836422741779
 30
-0.0000000000013153
 11
4210.129866693576
 21
6629.836422741779
 31
-0.0000000000013153
 70
    32
 71
     5
 42
5600.0
  3
INABA_S30G
100
AcDbAlignedDimension
 13
1410.129866693576
 23
4326.169257607742
 33
-0.0000000000013153
 14
7010.129866693576
 24
4326.169257607742
 34
-0.0000000000013153
100
AcDbRotatedDimension
  0
DIMENSION
  5
14A13
330
747D
100
AcDbEntity
  8
寸法
 48
50.0
100
AcDbDimension
  2
*D25
 10
1410.129866693576
 20
6554.836422741779
 30
-0.0000000000013153
 11
1210.129866693576
 21
6629.836422741779
 31
-0.0000000000013153
 70
    32
 71
     5
 42
400.0
  3
INABA_S30G
100
AcDbAlignedDimension
 13
1010.129866693576
 23
6076.169257607742
 33
-0.0000000000013153
 14
1410.129866693576
 24
4326.169257607742
 34
-0.0000000000013153
100
AcDbRotatedDimension
  0
DIMENSION
  5
14A14
330
747D
100
AcDbEntity
  8
寸法
 48
50.0
100
AcDbDimension
  2
*D26
 10
6610.129866693547
 20
2963.033041570636
 30
-0.0000000000013153
 11
6810.129866693547
 21
3038.033041570636
 31
-0.0000000000013153
 70
    32
 71
     5
 42
400.0
  3
INABA_S30G
100
AcDbAlignedDimension
 13
7010.129866693548
 23
3476.169257607728
 33
-0.0000000000013153
 14
6610.129866693547
 24
3201.169257607727
 34
-0.0000000000013153
100
AcDbRotatedDimension
  0
DIMENSION
  5
14A15
330
747D
100
AcDbEntity
  8
寸法
 48
50.0
100
AcDbDimension
  2
*D27
 10
7410.129866693576
 20
2724.896825533573
 30
-0.0000000000013153
 11
7010.129866693548
 21
2724.896825533573
 31
-0.0000000000013153
 70
   160
 71
     5
 42
800.0000000000291
  3
INABA_S30G
100
AcDbAlignedDimension
 13
6610.129866693547
 23
3201.169257607727
 33
-0.0000000000013153
 14
7410.129866693576
 24
3201.169257607727
 34
-0.0000000000013153
100
AcDbRotatedDimension
  0
DIMENSION
  5
14A16
330
747D
100
AcDbEntity
  8
寸法
 48
50.0
100
AcDbDimension
  2
*D28
 10
6432.815363409376
 20
3201.169257607713
 30
-0.0000000000013153
 11
6357.806505141659
 21
3463.669257607722
 31
-0.0000000000013153
 70
    32
 71
     5
 42
525.0000000000145
  3
INABA_S30G
100
AcDbAlignedDimension
 13
6760.129866693548
 23
3726.169257607728
 33
-0.0000000000013153
 14
6610.129866693547
 24
3201.169257607713
 34
-0.0000000000013153
 50
90.0
100
AcDbRotatedDimension
  0
DIMENSION
  5
14A17
330
747D
100
AcDbEntity
  8
寸法
 48
50.0
100
AcDbDimension
  2
*D29
 10
6255.500860125205
 20
3201.169257607713
 30
-0.0000000000013153
 11
6180.500860125204
 21
3901.169257607722
 31
-0.0000000000013153
 70
    32
 71
     5
 42
1400.000000000015
  3
INABA_S30G
100
AcDbAlignedDimension
 13
6610.129866693547
 23
4601.169257607727
 33
-0.0000000000013153
 14
6610.129866693547
 24
3201.169257607713
 34
-0.0000000000013153
 50
90.0
100
AcDbRotatedDimension
  0
DIMENSION
  5
14A18
330
747D
100
AcDbEntity
  8
寸法
 48
50.0
100
AcDbDimension
  2
*D30
 10
6432.815363409376
 20
3726.169257607728
 30
-0.0000000000013153
 11
6357.815363409375
 21
3901.169257607729
 31
-0.0000000000013153
 70
    32
 71
     5
 42
350.0
  3
INABA_S30G
100
AcDbAlignedDimension
 13
6760.129866693548
 23
4076.169257607727
 33
-0.0000000000013153
 14
6760.129866693548
 24
3726.169257607728
 34
-0.0000000000013153
 50
90.0
100
AcDbRotatedDimension
  0
DIMENSION
  5
14A19
330
747D
100
AcDbEntity
  8
寸法
 48
50.0
100
AcDbDimension
  2
*D31
 10
6432.815363409376
 20
4601.169257607742
 30
-0.0000000000013153
 11
6357.806505141659
 21
4338.669257607736
 31
-0.0000000000013153
 70
    32
 71
     5
 42
525.000000000015
  3
INABA_S30G
100
AcDbAlignedDimension
 13
6760.129866693548
 23
4076.169257607727
 33
-0.0000000000013153
 14
6610.129866693547
 24
4601.169257607742
 34
-0.0000000000013153
 50
270.0
100
AcDbRotatedDimension
  0
LINE
  5
14A24
330
747D
100
AcDbEntity
  8
部品1
 48
50.0
100
AcDbLine
 10
4610.129866693576
 20
4601.169257607742
 30
-0.0000000000013153
 11
3810.129866693576
 21
4601.169257607742
 31
-0.0000000000013153
  0
LINE
  5
14A25
330
747D
100
AcDbEntity
  8
部品1
 48
50.0
100
AcDbLine
 10
3810.129866693576
 20
3201.169257607742
 30
-0.0000000000013153
 11
4610.129866693576
 21
3201.169257607742
 31
-0.0000000000013153
  0
LINE
  5
14A26
330
747D
100
AcDbEntity
  8
部品1
 48
50.0
100
AcDbLine
 10
3810.129866693576
 20
4601.169257607742
 30
-0.0000000000013153
 11
3810.129866693576
 21
3201.169257607742
 31
-0.0000000000013153
  0
CIRCLE
  5
14A27
330
747D
100
AcDbEntity
  8
部品1
 48
50.0
100
AcDbCircle
 10
4310.129866693576
 20
3826.169257607742
 30
-0.0000000000013153
 40
15.0
  0
LINE
  5
14A28
330
747D
100
AcDbEntity
  8
センター
 48
3.0
100
AcDbLine
 10
4310.129866693576
 20
3901.169257607742
 30
-0.0000000000013153
 11
4310.129866693576
 21
3751.169257607742
 31
-0.0000000000013153
  0
LINE
  5
14A29
330
747D
100
AcDbEntity
  8
センター
 48
3.0
100
AcDbLine
 10
4235.129866693576
 20
3826.169257607742
 30
-0.0000000000013153
 11
4385.129866693576
 21
3826.169257607742
 31
-0.0000000000013153
  0
LINE
  5
14A2A
330
747D
100
AcDbEntity
  8
センター
 48
3.0
100
AcDbLine
 10
4310.129866693576
 20
3701.169257607742
 30
-0.0000000000013153
 11
4310.129866693576
 21
3551.169257607742
 31
-0.0000000000013153
  0
CIRCLE
  5
14A2B
330
747D
100
AcDbEntity
  8
部品1
 48
50.0
100
AcDbCircle
 10
4310.129866693576
 20
3626.169257607742
 30
-0.0000000000013153
 40
15.0
  0
LINE
  5
14A2C
330
747D
100
AcDbEntity
  8
センター
 48
3.0
100
AcDbLine
 10
4235.129866693576
 20
3626.169257607742
 30
-0.0000000000013153
 11
4385.129866693576
 21
3626.169257607742
 31
-0.0000000000013153
  0
LINE
  5
14A2D
330
747D
100
AcDbEntity
  8
センター
 48
10.0
100
AcDbLine
 10
4210.129866693576
 20
3476.169257607742
 30
-0.0000000000013153
 11
4210.129866693576
 21
3976.169257607742
 31
-0.0000000000013153
  0
CIRCLE
  5
14A2E
330
747D
100
AcDbEntity
  8
部品1
 48
50.0
100
AcDbCircle
 10
4110.129866693576
 20
3826.169257607742
 30
-0.0000000000013153
 40
15.0
  0
LINE
  5
14A2F
330
747D
100
AcDbEntity
  8
センター
 48
3.0
100
AcDbLine
 10
4110.129866693576
 20
3901.169257607742
 30
-0.0000000000013153
 11
4110.129866693576
 21
3751.169257607742
 31
-0.0000000000013153
  0
LINE
  5
14A30
330
747D
100
AcDbEntity
  8
センター
 48
3.0
100
AcDbLine
 10
4110.129866693576
 20
3701.169257607742
 30
-0.0000000000013153
 11
4110.129866693576
 21
3551.169257607742
 31
-0.0000000000013153
  0
CIRCLE
  5
14A31
330
747D
100
AcDbEntity
  8
部品1
 48
50.0
100
AcDbCircle
 10
4110.129866693576
 20
3626.169257607742
 30
-0.0000000000013153
 40
15.0
  0
LINE
  5
14A32
330
747D
100
AcDbEntity
  8
センター
 48
10.0
100
AcDbLine
 10
3960.129866693576
 20
3726.169257607742
 30
-0.0000000000013153
 11
4460.129866693576
 21
3726.169257607742
 31
-0.0000000000013153
  0
LINE
  5
14A33
330
747D
100
AcDbEntity
  8
センター
 48
3.0
100
AcDbLine
 10
4035.129866693575
 20
3826.169257607742
 30
-0.0000000000013153
 11
4185.129866693576
 21
3826.169257607742
 31
-0.0000000000013153
  0
LINE
  5
14A34
330
747D
100
AcDbEntity
  8
センター
 48
3.0
100
AcDbLine
 10
4035.129866693575
 20
3626.169257607742
 30
-0.0000000000013153
 11
4185.129866693576
 21
3626.169257607742
 31
-0.0000000000013153
  0
CIRCLE
  5
14A35
330
747D
100
AcDbEntity
  8
部品1
 48
50.0
100
AcDbCircle
 10
4310.129866693576
 20
4176.169257607742
 30
-0.0000000000013153
 40
15.0
  0
LINE
  5
14A36
330
747D
100
AcDbEntity
  8
センター
 48
3.0
100
AcDbLine
 10
4310.129866693576
 20
4251.169257607742
 30
-0.0000000000013153
 11
4310.129866693576
 21
4101.169257607742
 31
-0.0000000000013153
  0
LINE
  5
14A37
330
747D
100
AcDbEntity
  8
センター
 48
3.0
100
AcDbLine
 10
4235.129866693576
 20
4176.169257607742
 30
-0.0000000000013153
 11
4385.129866693576
 21
4176.169257607742
 31
-0.0000000000013153
  0
LINE
  5
14A38
330
747D
100
AcDbEntity
  8
センター
 48
3.0
100
AcDbLine
 10
4310.129866693576
 20
4051.169257607742
 30
-0.0000000000013153
 11
4310.129866693576
 21
3901.169257607742
 31
-0.0000000000013153
  0
CIRCLE
  5
14A39
330
747D
100
AcDbEntity
  8
部品1
 48
50.0
100
AcDbCircle
 10
4310.129866693576
 20
3976.169257607742
 30
-0.0000000000013153
 40
15.0
  0
LINE
  5
14A3A
330
747D
100
AcDbEntity
  8
センター
 48
3.0
100
AcDbLine
 10
4235.129866693576
 20
3976.169257607742
 30
-0.0000000000013153
 11
4385.129866693576
 21
3976.169257607742
 31
-0.0000000000013153
  0
LINE
  5
14A3B
330
747D
100
AcDbEntity
  8
センター
 48
10.0
100
AcDbLine
 10
4210.129866693576
 20
3826.169257607742
 30
-0.0000000000013153
 11
4210.129866693576
 21
4326.169257607742
 31
-0.0000000000013153
  0
CIRCLE
  5
14A3C
330
747D
100
AcDbEntity
  8
部品1
 48
50.0
100
AcDbCircle
 10
4110.129866693576
 20
4176.169257607742
 30
-0.0000000000013153
 40
15.0
  0
LINE
  5
14A3D
330
747D
100
AcDbEntity
  8
センター
 48
3.0
100
AcDbLine
 10
4110.129866693576
 20
4251.169257607742
 30
-0.0000000000013153
 11
4110.129866693576
 21
4101.169257607742
 31
-0.0000000000013153
  0
LINE
  5
14A3E
330
747D
100
AcDbEntity
  8
センター
 48
3.0
100
AcDbLine
 10
4110.129866693576
 20
4051.169257607742
 30
-0.0000000000013153
 11
4110.129866693576
 21
3901.169257607742
 31
-0.0000000000013153
  0
CIRCLE
  5
14A3F
330
747D
100
AcDbEntity
  8
部品1
 48
50.0
100
AcDbCircle
 10
4110.129866693576
 20
3976.169257607742
 30
-0.0000000000013153
 40
15.0
  0
LINE
  5
14A40
330
747D
100
AcDbEntity
  8
センター
 48
10.0
100
AcDbLine
 10
3960.129866693576
 20
4076.169257607742
 30
-0.0000000000013153
 11
4460.129866693576
 21
4076.169257607742
 31
-0.0000000000013153
  0
LINE
  5
14A41
330
747D
100
AcDbEntity
  8
センター
 48
3.0
100
AcDbLine
 10
4035.129866693575
 20
4176.169257607742
 30
-0.0000000000013153
 11
4185.129866693576
 21
4176.169257607742
 31
-0.0000000000013153
  0
LINE
  5
14A42
330
747D
100
AcDbEntity
  8
センター
 48
3.0
100
AcDbLine
 10
4035.129866693575
 20
3976.169257607742
 30
-0.0000000000013153
 11
4185.129866693576
 21
3976.169257607742
 31
-0.0000000000013153
  0
LINE
  5
14A43
330
747D
100
AcDbEntity
  8
部品1
 48
50.0
100
AcDbLine
 10
4610.129866693576
 20
4601.169257607742
 30
-0.0000000000013153
 11
4610.129866693576
 21
3201.169257607742
 31
-0.0000000000013153
  0
DIMENSION
  5
15663
330
747D
100
AcDbEntity
  8
寸法
 48
50.0
100
AcDbDimension
  2
*D32
 10
4210.129866693576
 20
6362.336532454101
 30
0.0
 11
2810.129866693577
 21
6437.345390721818
 31
0.0
 70
    32
 71
     5
 42
2800.0
  3
INABA_S30G
100
AcDbAlignedDimension
 13
1410.129866693576
 23
4326.169257607742
 33
-0.0000000000013153
 14
4210.129866693576
 24
4326.169257607742
 34
-0.0000000000013153
100
AcDbRotatedDimension
  0
DIMENSION
  5
15670
330
747D
100
AcDbEntity
  8
寸法
 48
50.0
100
AcDbDimension
  2
*D33
 10
7010.129866693576
 20
6362.336532454101
 30
0.0
 11
5610.129866693576
 21
6437.345390721818
 31
0.0
 70
    32
 71
     5
 42
2800.0
  3
INABA_S30G
100
AcDbAlignedDimension
 13
4210.129866693576
 23
4326.169257607742
 33
-0.0000000000013153
 14
7010.129866693576
 24
4326.169257607742
 34
-0.0000000000013153
100
AcDbRotatedDimension
  0
ENDSEC
  0
SECTION
  2
OBJECTS
  0
DICTIONARY
  5
7471
330
0
100
AcDbDictionary
281
     1
  3
ACAD_CIP_PREVIOUS_PRODUCT_INFO
350
13EC6
  3
ACAD_COLOR
350
1341D
  3
ACAD_DETAILVIEWSTYLE
350
13EBC
  3
ACAD_GROUP
350
7472
  3
ACAD_LAYOUT
350
1341E
  3
ACAD_MATERIAL
350
1341C
  3
ACAD_MLEADERSTYLE
350
13EB8
  3
ACAD_MLINESTYLE
350
7473
  3
ACAD_PLOTSETTINGS
350
1341F
  3
ACAD_PLOTSTYLENAME
350
1341A
  3
ACAD_SCALELIST
350
13EA6
  3
ACAD_SECTIONVIEWSTYLE
350
13EBA
  3
ACAD_TABLESTYLE
350
13EA4
  3
ACAD_VISUALSTYLE
350
13E8B
  3
AcadDim
350
13618
  3
ACDB_RECOMPOSE_DATA
350
15752
  3
AcDbVariableDictionary
350
13533
  3
CONTENTDICTIONARY
350
E71C
  3
DRAWINGVARIABLESDICT
350
F3B9
  3
DWGPROPS
350
15753
  0
DICTIONARY
  5
154A5
330
746D
100
AcDbDictionary
280
     1
281
     1
  0
DICTIONARY
  5
13451
330
7467
100
AcDbDictionary
280
     1
281
     1
  3
ACAD_LAYERFILTERS
360
1356A
  3
ACAD_LAYERSTATES
360
13452
  0
DICTIONARY
  5
15485
330
7474
100
AcDbDictionary
280
     1
281
     1
  3
ADSK_XREC_LAYER_RECONCILED
360
15486
  0
DICTIONARY
  5
15487
330
DEB3
100
AcDbDictionary
280
     1
281
     1
  3
ADSK_XREC_LAYER_RECONCILED
360
15488
  0
DICTIONARY
  5
15489
330
DEB4
100
AcDbDictionary
280
     1
281
     1
  3
ADSK_XREC_LAYER_RECONCILED
360
1548A
  0
DICTIONARY
  5
1548B
330
DEB5
100
AcDbDictionary
280
     1
281
     1
  3
ADSK_XREC_LAYER_RECONCILED
360
1548C
  0
DICTIONARY
  5
1548D
330
DEB6
100
AcDbDictionary
280
     1
281
     1
  3
ADSK_XREC_LAYER_RECONCILED
360
1548E
  0
DICTIONARY
  5
1548F
330
10B54
100
AcDbDictionary
280
     1
281
     1
  3
ADSK_XREC_LAYER_RECONCILED
360
15490
  0
DICTIONARY
  5
15491
330
11729
100
AcDbDictionary
280
     1
281
     1
  3
ADSK_XREC_LAYER_RECONCILED
360
15492
  0
DICTIONARY
  5
15493
330
1173F
100
AcDbDictionary
280
     1
281
     1
  3
ADSK_XREC_LAYER_RECONCILED
360
15494
  0
DICTIONARY
  5
15495
330
11740
100
AcDbDictionary
280
     1
281
     1
  3
ADSK_XREC_LAYER_RECONCILED
360
15496
  0
DICTIONARY
  5
15497
330
1356E
100
AcDbDictionary
280
     1
281
     1
  3
ADSK_XREC_LAYER_RECONCILED
360
15498
  0
DICTIONARY
  5
15499
330
135FB
100
AcDbDictionary
280
     1
281
     1
  3
ADSK_XREC_LAYER_RECONCILED
360
1549A
  0
DICTIONARY
  5
1549B
330
13837
100
AcDbDictionary
280
     1
281
     1
  3
ADSK_XREC_LAYER_RECONCILED
360
1549C
  0
DICTIONARY
  5
1549D
330
13838
100
AcDbDictionary
280
     1
281
     1
  3
ADSK_XREC_LAYER_RECONCILED
360
1549E
  0
DICTIONARY
  5
1549F
330
13839
100
AcDbDictionary
280
     1
281
     1
  3
ADSK_XREC_LAYER_RECONCILED
360
154A0
  0
XRECORD
  5
13EC6
102
{ACAD_REACTORS
330
7471
102
}
330
7471
100
AcDbXrecord
280
     1
300
ACDLT
300
2014
300
ACDLT_F_S
  0
DICTIONARY
  5
1341D
102
{ACAD_REACTORS
330
7471
102
}
330
7471
100
AcDbDictionary
281
     1
  0
DICTIONARY
  5
13EBC
102
{ACAD_REACTORS
330
7471
102
}
330
7471
100
AcDbDictionary
281
     1
  3
Metric50
350
13EBD
  0
DICTIONARY
  5
7472
102
{ACAD_REACTORS
330
7471
102
}
330
7471
100
AcDbDictionary
281
     1
  0
DICTIONARY
  5
1341E
102
{ACAD_REACTORS
330
7471
102
}
330
7471
100
AcDbDictionary
281
     1
  3
Model
350
13420
  3
レイアウト1
350
13421
  0
DICTIONARY
  5
1341C
102
{ACAD_REACTORS
330
7471
102
}
330
7471
100
AcDbDictionary
281
     1
  3
ByBlock
350
13E7B
  3
ByLayer
350
13E73
  3
Global
350
13E83
  0
DICTIONARY
  5
13EB8
102
{ACAD_REACTORS
330
7471
102
}
330
7471
100
AcDbDictionary
281
     1
  3
Standard
350
13EB9
  0
DICTIONARY
  5
7473
102
{ACAD_REACTORS
330
7471
102
}
330
7471
100
AcDbDictionary
281
     1
  3
STANDARD
350
7480
  0
DICTIONARY
  5
1341F
102
{ACAD_REACTORS
330
7471
102
}
330
7471
100
AcDbDictionary
281
     1
  0
ACDBDICTIONARYWDFLT
  5
1341A
102
{ACAD_REACTORS
330
7471
102
}
330
7471
100
AcDbDictionary
281
     1
  3
Normal
350
1341B
100
AcDbDictionaryWithDefault
340
1341B
  0
DICTIONARY
  5
13EA6
102
{ACAD_REACTORS
330
7471
102
}
330
7471
100
AcDbDictionary
281
     1
  3
A0
350
13EA7
  3
A1
350
13EA8
  3
A2
350
13EA9
  3
A3
350
13EAA
  3
A4
350
13EAB
  3
A5
350
13EAC
  3
A6
350
13EAD
  3
A7
350
13EAE
  3
A8
350
13EAF
  3
A9
350
13EB0
  3
B0
350
13EB1
  3
B1
350
13EB2
  3
B2
350
13EB3
  3
B3
350
13EB4
  3
B4
350
13EB5
  3
B5
350
13EB6
  3
B6
350
13EB7
  0
DICTIONARY
  5
13EBA
102
{ACAD_REACTORS
330
7471
102
}
330
7471
100
AcDbDictionary
281
     1
  3
Metric50
350
13EBB
  0
DICTIONARY
  5
13EA4
102
{ACAD_REACTORS
330
7471
102
}
330
7471
100
AcDbDictionary
281
     1
  3
Standard
350
13EA5
  0
DICTIONARY
  5
13E8B
102
{ACAD_REACTORS
330
7471
102
}
330
7471
100
AcDbDictionary
281
     1
  3
2dWireframe
350
13E91
  3
Basic
350
13E90
  3
Brighten
350
13E97
  3
ColorChange
350
13E9B
  3
Conceptual
350
13E94
  3
Dim
350
13E96
  3
EdgeColorOff
350
13EA3
  3
Facepattern
350
13E9A
  3
Flat
350
13E8C
  3
FlatWithEdges
350
13E8D
  3
Gouraud
350
13E8E
  3
GouraudWithEdges
350
13E8F
  3
Hidden
350
13E93
  3
JitterOff
350
13EA1
  3
Linepattern
350
13E99
  3
OverhangOff
350
13EA2
  3
Realistic
350
13E95
  3
Shaded
350
13EA0
  3
Shaded with edges
350
13E9F
  3
Shades of Gray
350
13E9C
  3
Sketchy
350
13E9D
  3
Thicken
350
13E98
  3
Wireframe
350
13E92
  3
X-Ray
350
13E9E
  0
XRECORD
  5
13618
102
{ACAD_REACTORS
330
7471
102
}
330
7471
100
AcDbXrecord
280
     1
 90
   990106
  3

 60
     0
 61
     0
 62
     1
 63
     3
 64
     0
 65
     0
 66
     0
 67
     3
 68
     1
 69
     0
 70
     0
 71
     0
 72
     0
 40
0.0
170
     0
  0
XRECORD
  5
15752
102
{ACAD_REACTORS
330
7471
102
}
330
7471
100
AcDbXrecord
280
     1
 90
        1
330
13EA5
  0
DICTIONARY
  5
13533
102
{ACAD_REACTORS
330
7471
102
}
330
7471
100
AcDbDictionary
281
     1
  3
CANNOSCALE
350
154EB
  3
CMLEADERSTYLE
350
154E8
  3
CTABLESTYLE
350
154E7
  3
CVIEWDETAILSTYLE
350
154E9
  3
CVIEWSECTIONSTYLE
350
154EA
  3
DIMASSOC
350
13534
  3
INDEXCTL
350
154ED
  3
PROJECTNAME
350
13535
  3
SORTENTS
350
154EC
  3
XCLIPFRAME
350
15750
  0
DICTIONARY
  5
E71C
102
{ACAD_REACTORS
330
7471
102
}
330
7471
100
AcDbDictionary
281
     1
  0
DICTIONARY
  5
F3B9
102
{ACAD_REACTORS
330
7471
102
}
330
7471
100
AcDbDictionary
281
     1
1001
DRAWINGVARIABLESXDATA
1000
POLARMODE
1000
1
  0
XRECORD
  5
15753
102
{ACAD_REACTORS
330
7471
102
}
330
7471
100
AcDbXrecord
280
     1
  1
DWGPROPS COOKIE
  2

  3

  4

  6

  7

  8
ODAHARA
  9

300
=
301
=
302
=
303
=
304
=
305
=
306
=
307
=
308
=
309
=
 40
0.3404668402777778
 41
2451074.411873148
 42
2456560.838033993
  1

 90
        0
  0
DICTIONARY
  5
1356A
102
{ACAD_REACTORS
330
13451
102
}
330
13451
100
AcDbDictionary
281
     1
  0
DICTIONARY
  5
13452
102
{ACAD_REACTORS
330
13451
102
}
330
13451
100
AcDbDictionary
281
     1
  0
XRECORD
  5
15486
102
{ACAD_REACTORS
330
15485
102
}
330
15485
100
AcDbXrecord
280
     1
290
     1
  0
XRECORD
  5
15488
102
{ACAD_REACTORS
330
15487
102
}
330
15487
100
AcDbXrecord
280
     1
290
     1
  0
XRECORD
  5
1548A
102
{ACAD_REACTORS
330
15489
102
}
330
15489
100
AcDbXrecord
280
     1
290
     1
  0
XRECORD
  5
1548C
102
{ACAD_REACTORS
330
1548B
102
}
330
1548B
100
AcDbXrecord
280
     1
290
     1
  0
XRECORD
  5
1548E
102
{ACAD_REACTORS
330
1548D
102
}
330
1548D
100
AcDbXrecord
280
     1
290
     1
  0
XRECORD
  5
15490
102
{ACAD_REACTORS
330
1548F
102
}
330
1548F
100
AcDbXrecord
280
     1
290
     1
  0
XRECORD
  5
15492
102
{ACAD_REACTORS
330
15491
102
}
330
15491
100
AcDbXrecord
280
     1
290
     1
  0
XRECORD
  5
15494
102
{ACAD_REACTORS
330
15493
102
}
330
15493
100
AcDbXrecord
280
     1
290
     1
  0
XRECORD
  5
15496
102
{ACAD_REACTORS
330
15495
102
}
330
15495
100
AcDbXrecord
280
     1
290
     1
  0
XRECORD
  5
15498
102
{ACAD_REACTORS
330
15497
102
}
330
15497
100
AcDbXrecord
280
     1
290
     1
  0
XRECORD
  5
1549A
102
{ACAD_REACTORS
330
15499
102
}
330
15499
100
AcDbXrecord
280
     1
290
     1
  0
XRECORD
  5
1549C
102
{ACAD_REACTORS
330
1549B
102
}
330
1549B
100
AcDbXrecord
280
     1
290
     1
  0
XRECORD
  5
1549E
102
{ACAD_REACTORS
330
1549D
102
}
330
1549D
100
AcDbXrecord
280
     1
290
     1
  0
XRECORD
  5
154A0
102
{ACAD_REACTORS
330
1549F
102
}
330
1549F
100
AcDbXrecord
280
     1
290
     1
  0
ACDBDETAILVIEWSTYLE
  5
13EBD
102
{ACAD_XDICTIONARY
360
15790
102
}
102
{ACAD_REACTORS
330
13EBC
102
}
330
13EBC
100
AcDbModelDocViewStyle
 70
     0
  3
Metric50
290
     0
100
AcDbDetailViewStyle
 70
     0
 71
     0
 90
        3
 71
     1
340
7475
 40
5.0
340
0
 40
5.0
300

 40
0.0
280
     1
 71
     2
340
7479
 90
       25
 71
     3
340
7475
 40
5.0
 90
        0
 40
15.0
 90
        1
300
%<\AcVar ViewDetailId>% (%<\AcVar ViewScale \f "%sn">%)
 71
     4
340
7479
 90
       25
340
7479
 90
       25
280
     0
  0
LAYOUT
  5
13420
102
{ACAD_XDICTIONARY
360
15754
102
}
102
{ACAD_REACTORS
330
1341E
102
}
330
1341E
100
AcDbPlotSettings
  1

  2
CutePDF Writer
  4
A3
  6

 40
3.174999952316284
 41
3.174999952316284
 42
3.17498779296875
 43
3.17498779296875
 44
297.0530090332031
 45
420.1583251953125
 46
0.0
 47
0.0
 48
0.0
 49
0.0
140
0.0
141
0.0
142
1.0
143
30.0
 70
 11952
 72
     1
 73
     1
 74
     2
  7
inaba.ctb
 75
    23
147
0.0333333333333333
148
0.0
149
0.0
100
AcDbLayout
  1
Model
 70
     1
 71
     0
 10
0.0
 20
0.0
 11
12.0
 21
9.0
 12
0.0
 22
0.0
 32
0.0
 14
0.0
 24
0.0
 34
0.0
 15
0.0
 25
0.0
 35
0.0
146
0.0
 13
0.0
 23
0.0
 33
0.0
 16
1.0
 26
0.0
 36
0.0
 17
0.0
 27
1.0
 37
0.0
 76
     0
330
747D
331
13E71
  0
LAYOUT
  5
13421
102
{ACAD_XDICTIONARY
360
15756
102
}
102
{ACAD_REACTORS
330
1341E
102
}
330
1341E
100
AcDbPlotSettings
  1

  2
Microsoft Office Document Image Writer
  4

  6

 40
0.0
 41
0.0
 42
0.0
 43
0.0
 44
0.0
 45
0.0
 46
0.0
 47
0.0
 48
0.0
 49
0.0
140
0.0
141
0.0
142
1.0
143
1.0
 70
   688
 72
     0
 73
     0
 74
     5
  7
inaba.ctb
 75
    16
147
1.0
148
0.0
149
0.0
100
AcDbLayout
  1
レイアウト1
 70
     0
 71
     1
 10
0.0
 20
0.0
 11
420.0
 21
297.0
 12
0.0
 22
0.0
 32
0.0
 14
1.000000000000000E+20
 24
1.000000000000000E+20
 34
1.000000000000000E+20
 15
-1.000000000000000E+20
 25
-1.000000000000000E+20
 35
-1.000000000000000E+20
146
0.0
 13
0.0
 23
0.0
 33
0.0
 16
1.0
 26
0.0
 36
0.0
 17
0.0
 27
1.0
 37
0.0
 76
     0
330
747A
  0
MATERIAL
  5
13E7B
102
{ACAD_XDICTIONARY
360
13E7C
102
}
102
{ACAD_REACTORS
330
1341C
102
}
330
1341C
100
AcDbMaterial
  1
ByBlock
 72
     0
 43
0.0208333333333333
 43
0.0
 43
0.0
 43
0.0
 43
0.0
 43
0.0208333333333333
 43
0.0
 43
0.0
 43
0.0
 43
0.0
 43
1.0
 43
0.0
 43
0.0
 43
0.0
 43
0.0
 43
1.0
 77
     0
 47
0.0208333333333333
 47
0.0
 47
0.0
 47
0.0
 47
0.0
 47
0.0208333333333333
 47
0.0
 47
0.0
 47
0.0
 47
0.0
 47
1.0
 47
0.0
 47
0.0
 47
0.0
 47
0.0
 47
1.0
171
     0
 49
0.0208333333333333
 49
0.0
 49
0.0
 49
0.0
 49
0.0
 49
0.0208333333333333
 49
0.0
 49
0.0
 49
0.0
 49
0.0
 49
1.0
 49
0.0
 49
0.0
 49
0.0
 49
0.0
 49
1.0
175
     0
142
0.0208333333333333
142
0.0
142
0.0
142
0.0
142
0.0
142
0.0208333333333333
142
0.0
142
0.0
142
0.0
142
0.0
142
1.0
142
0.0
142
0.0
142
0.0
142
0.0
142
1.0
179
     0
144
0.0208333333333333
144
0.0
144
0.0
144
0.0
144
0.0
144
0.0208333333333333
144
0.0
144
0.0
144
0.0
144
0.0
144
1.0
144
0.0
144
0.0
144
0.0
144
0.0
144
1.0
147
0.0208333333333333
147
0.0
147
0.0
147
0.0
147
0.0
147
0.0208333333333333
147
0.0
147
0.0
147
0.0
147
0.0
147
1.0
147
0.0
147
0.0
147
0.0
147
0.0
147
1.0
  0
MATERIAL
  5
13E73
102
{ACAD_XDICTIONARY
360
13E74
102
}
102
{ACAD_REACTORS
330
1341C
102
}
330
1341C
100
AcDbMaterial
  1
ByLayer
 72
     0
 43
0.0208333333333333
 43
0.0
 43
0.0
 43
0.0
 43
0.0
 43
0.0208333333333333
 43
0.0
 43
0.0
 43
0.0
 43
0.0
 43
1.0
 43
0.0
 43
0.0
 43
0.0
 43
0.0
 43
1.0
 77
     0
 47
0.0208333333333333
 47
0.0
 47
0.0
 47
0.0
 47
0.0
 47
0.0208333333333333
 47
0.0
 47
0.0
 47
0.0
 47
0.0
 47
1.0
 47
0.0
 47
0.0
 47
0.0
 47
0.0
 47
1.0
171
     0
 49
0.0208333333333333
 49
0.0
 49
0.0
 49
0.0
 49
0.0
 49
0.0208333333333333
 49
0.0
 49
0.0
 49
0.0
 49
0.0
 49
1.0
 49
0.0
 49
0.0
 49
0.0
 49
0.0
 49
1.0
175
     0
142
0.0208333333333333
142
0.0
142
0.0
142
0.0
142
0.0
142
0.0208333333333333
142
0.0
142
0.0
142
0.0
142
0.0
142
1.0
142
0.0
142
0.0
142
0.0
142
0.0
142
1.0
179
     0
144
0.0208333333333333
144
0.0
144
0.0
144
0.0
144
0.0
144
0.0208333333333333
144
0.0
144
0.0
144
0.0
144
0.0
144
1.0
144
0.0
144
0.0
144
0.0
144
0.0
144
1.0
147
0.0208333333333333
147
0.0
147
0.0
147
0.0
147
0.0
147
0.0208333333333333
147
0.0
147
0.0
147
0.0
147
0.0
147
1.0
147
0.0
147
0.0
147
0.0
147
0.0
147
1.0
  0
MATERIAL
  5
13E83
102
{ACAD_XDICTIONARY
360
13E84
102
}
102
{ACAD_REACTORS
330
1341C
102
}
330
1341C
100
AcDbMaterial
  1
Global
 72
     0
 43
0.0208333333333333
 43
0.0
 43
0.0
 43
0.0
 43
0.0
 43
0.0208333333333333
 43
0.0
 43
0.0
 43
0.0
 43
0.0
 43
1.0
 43
0.0
 43
0.0
 43
0.0
 43
0.0
 43
1.0
 77
     0
 47
0.0208333333333333
 47
0.0
 47
0.0
 47
0.0
 47
0.0
 47
0.0208333333333333
 47
0.0
 47
0.0
 47
0.0
 47
0.0
 47
1.0
 47
0.0
 47
0.0
 47
0.0
 47
0.0
 47
1.0
171
     0
 49
0.0208333333333333
 49
0.0
 49
0.0
 49
0.0
 49
0.0
 49
0.0208333333333333
 49
0.0
 49
0.0
 49
0.0
 49
0.0
 49
1.0
 49
0.0
 49
0.0
 49
0.0
 49
0.0
 49
1.0
175
     0
142
0.0208333333333333
142
0.0
142
0.0
142
0.0
142
0.0
142
0.0208333333333333
142
0.0
142
0.0
142
0.0
142
0.0
142
1.0
142
0.0
142
0.0
142
0.0
142
0.0
142
1.0
179
     0
144
0.0208333333333333
144
0.0
144
0.0
144
0.0
144
0.0
144
0.0208333333333333
144
0.0
144
0.0
144
0.0
144
0.0
144
1.0
144
0.0
144
0.0
144
0.0
144
0.0
144
1.0
147
0.0208333333333333
147
0.0
147
0.0
147
0.0
147
0.0
147
0.0208333333333333
147
0.0
147
0.0
147
0.0
147
0.0
147
1.0
147
0.0
147
0.0
147
0.0
147
0.0
147
1.0
  0
MLEADERSTYLE
  5
13EB9
102
{ACAD_XDICTIONARY
360
1578C
102
}
102
{ACAD_REACTORS
330
13EB8
102
}
330
13EB8
100
AcDbMLeaderStyle
170
     2
171
     1
172
     0
 90
        2
 40
0.0
 41
0.0
173
     1
 91
-1056964608
340
7477
 92
       -2
290
     1
 42
2.0
291
     1
 43
0.36
  3
Standard
 44
4.0
300

342
7475
174
     1
178
     6
175
     1
176
     0
 93
-1056964608
 45
4.0
292
     0
297
     0
 46
4.0
 94
-1056964608
 47
1.0
 49
1.0
140
1.0
293
     1
141
0.0
294
     1
177
     0
142
1.0
295
     0
296
     0
143
0.125
1001
ACAD_MLEADERVER
1070
     2
  0
MLINESTYLE
  5
7480
102
{ACAD_REACTORS
330
7473
102
}
330
7473
100
AcDbMlineStyle
  2
STANDARD
 70
     0
  3

 62
     0
 51
90.0
 52
90.0
 71
     2
 49
0.5
 62
   256
  6
BYLAYER
 49
-0.5
 62
   256
  6
BYLAYER
  0
ACDBPLACEHOLDER
  5
1341B
102
{ACAD_REACTORS
330
1341A
102
}
330
1341A
  0
SCALE
  5
13EA7
102
{ACAD_REACTORS
330
13EA6
102
}
330
13EA6
100
AcDbScale
 70
     0
300
1:1
140
1.0
141
1.0
290
     1
  0
SCALE
  5
13EA8
102
{ACAD_REACTORS
330
13EA6
102
}
330
13EA6
100
AcDbScale
 70
     0
300
1:2
140
1.0
141
2.0
290
     0
  0
SCALE
  5
13EA9
102
{ACAD_REACTORS
330
13EA6
102
}
330
13EA6
100
AcDbScale
 70
     0
300
1:4
140
1.0
141
4.0
290
     0
  0
SCALE
  5
13EAA
102
{ACAD_REACTORS
330
13EA6
102
}
330
13EA6
100
AcDbScale
 70
     0
300
1:5
140
1.0
141
5.0
290
     0
  0
SCALE
  5
13EAB
102
{ACAD_REACTORS
330
13EA6
102
}
330
13EA6
100
AcDbScale
 70
     0
300
1:8
140
1.0
141
8.0
290
     0
  0
SCALE
  5
13EAC
102
{ACAD_REACTORS
330
13EA6
102
}
330
13EA6
100
AcDbScale
 70
     0
300
1:10
140
1.0
141
10.0
290
     0
  0
SCALE
  5
13EAD
102
{ACAD_REACTORS
330
13EA6
102
}
330
13EA6
100
AcDbScale
 70
     0
300
1:16
140
1.0
141
16.0
290
     0
  0
SCALE
  5
13EAE
102
{ACAD_REACTORS
330
13EA6
102
}
330
13EA6
100
AcDbScale
 70
     0
300
1:20
140
1.0
141
20.0
290
     0
  0
SCALE
  5
13EAF
102
{ACAD_REACTORS
330
13EA6
102
}
330
13EA6
100
AcDbScale
 70
     0
300
1:30
140
1.0
141
30.0
290
     0
  0
SCALE
  5
13EB0
102
{ACAD_REACTORS
330
13EA6
102
}
330
13EA6
100
AcDbScale
 70
     0
300
1:40
140
1.0
141
40.0
290
     0
  0
SCALE
  5
13EB1
102
{ACAD_REACTORS
330
13EA6
102
}
330
13EA6
100
AcDbScale
 70
     0
300
1:50
140
1.0
141
50.0
290
     0
  0
SCALE
  5
13EB2
102
{ACAD_REACTORS
330
13EA6
102
}
330
13EA6
100
AcDbScale
 70
     0
300
1:100
140
1.0
141
100.0
290
     0
  0
SCALE
  5
13EB3
102
{ACAD_REACTORS
330
13EA6
102
}
330
13EA6
100
AcDbScale
 70
     0
300
2:1
140
2.0
141
1.0
290
     0
  0
SCALE
  5
13EB4
102
{ACAD_REACTORS
330
13EA6
102
}
330
13EA6
100
AcDbScale
 70
     0
300
4:1
140
4.0
141
1.0
290
     0
  0
SCALE
  5
13EB5
102
{ACAD_REACTORS
330
13EA6
102
}
330
13EA6
100
AcDbScale
 70
     0
300
8:1
140
8.0
141
1.0
290
     0
  0
SCALE
  5
13EB6
102
{ACAD_REACTORS
330
13EA6
102
}
330
13EA6
100
AcDbScale
 70
     0
300
10:1
140
10.0
141
1.0
290
     0
  0
SCALE
  5
13EB7
102
{ACAD_REACTORS
330
13EA6
102
}
330
13EA6
100
AcDbScale
 70
     0
300
100:1
140
100.0
141
1.0
290
     0
  0
ACDBSECTIONVIEWSTYLE
  5
13EBB
102
{ACAD_XDICTIONARY
360
1578E
102
}
102
{ACAD_REACTORS
330
13EBA
102
}
330
13EBA
100
AcDbModelDocViewStyle
 70
     0
  3
Metric50
290
     0
100
AcDbSectionViewStyle
 70
     0
 71
     0
 90
      102
 71
     1
340
7475
 40
5.0
340
0
340
0
 40
5.0
300
I, O, Q, S, X, Z
 40
10.0
 90
        0
 40
2.5
 90
        0
 71
     2
340
7479
 90
       25
340
7479
 90
       50
 40
5.0
 40
2.5
 40
5.0
 71
     3
340
7475
 40
5.0
 90
        0
 40
15.0
 90
        1
300
%<\AcVar ViewSectionStartId>%-%<\AcVar ViewSectionEndId>% (%<\AcVar ViewScale \f "%sn">%)
 71
     4
300
ANSI31
 40
1.0
 90
        0
290
     0
290
     0
 90
        6
 40
0.0
 40
1.570796326794896
 40
0.2617993877991494
 40
1.308996938995747
 40
-0.2617993877991494
 40
1.832595714594046
  0
TABLESTYLE
  5
13EA5
102
{ACAD_XDICTIONARY
360
154A1
102
}
102
{ACAD_REACTORS
330
13EA4
102
}
330
13EA4
100
AcDbTableStyle
  3
Standard
 70
     0
 71
     0
 40
1.5
 41
1.5
280
     0
281
     0
  7
STANDARD
140
4.5
170
     2
 62
     0
 63
     7
283
     0
274
    -2
284
     1
 64
     0
275
    -2
285
     1
 65
     0
276
    -2
286
     1
 66
     0
277
    -2
287
     1
 67
     0
278
    -2
288
     1
 68
     0
279
    -2
289
     1
 69
     0
  7
STANDARD
140
6.0
170
     5
 62
     0
 63
     7
283
     0
274
    -2
284
     1
 64
     0
275
    -2
285
     1
 65
     0
276
    -2
286
     1
 66
     0
277
    -2
287
     1
 67
     0
278
    -2
288
     1
 68
     0
279
    -2
289
     1
 69
     0
  7
STANDARD
140
4.5
170
     5
 62
     0
 63
     7
283
     0
274
    -2
284
     1
 64
     0
275
    -2
285
     1
 65
     0
276
    -2
286
     1
 66
     0
277
    -2
287
     1
 67
     0
278
    -2
288
     1
 68
     0
279
    -2
289
     1
 69
     0
  0
VISUALSTYLE
  5
13E91
102
{ACAD_XDICTIONARY
360
15765
102
}
102
{ACAD_REACTORS
330
13E8B
102
}
330
13E8B
100
AcDbVisualStyle
  2
2dWireframe
 70
     4
 71
     0
 72
     2
 73
     0
 90
        0
 40
-0.6
 41
-30.0
 62
     5
 63
     7
 74
     1
 91
        4
 64
     7
 65
   257
 75
     1
175
     1
 42
1.0
 92
        0
 66
   257
 43
1.0
 76
     1
 77
     6
 78
     2
 67
     7
 79
     5
170
     0
171
     0
290
     0
174
     0
 93
        1
 44
0.0
173
     0
291
     0
 45
0.0
1001
ACAD
1000
AcDbSavedByObjectVersion
1070
     0
  0
VISUALSTYLE
  5
13E90
102
{ACAD_XDICTIONARY
360
15763
102
}
102
{ACAD_REACTORS
330
13E8B
102
}
330
13E8B
100
AcDbVisualStyle
  2
Basic
 70
     7
 71
     1
 72
     0
 73
     1
 90
        0
 40
-0.6
 41
-30.0
 62
     5
 63
     7
 74
     0
 91
        4
 64
     7
 65
   257
 75
     1
175
     1
 42
1.0
 92
        8
 66
     7
 43
1.0
 76
     1
 77
     6
 78
     2
 67
     7
 79
     5
170
     0
171
     0
290
     0
174
     0
 93
        1
 44
0.0
173
     0
291
     1
 45
0.0
1001
ACAD
1000
AcDbSavedByObjectVersion
1070
     0
  0
VISUALSTYLE
  5
13E97
102
{ACAD_XDICTIONARY
360
15771
102
}
102
{ACAD_REACTORS
330
13E8B
102
}
330
13E8B
100
AcDbVisualStyle
  2
Brighten
 70
    12
 71
     2
 72
     2
 73
     0
 90
        0
 40
-0.6
 41
-30.0
 62
     5
 63
     7
 74
     1
 91
        4
 64
     7
 65
   257
 75
     1
175
     1
 42
1.0
 92
        8
 66
     7
 43
1.0
 76
     1
 77
     6
 78
     2
 67
     7
 79
     5
170
     0
171
     0
290
     0
174
     0
 93
        1
 44
50.0
173
     0
291
     1
 45
0.0
1001
ACAD
1000
AcDbSavedByObjectVersion
1070
     0
  0
VISUALSTYLE
  5
13E9B
102
{ACAD_XDICTIONARY
360
15779
102
}
102
{ACAD_REACTORS
330
13E8B
102
}
330
13E8B
100
AcDbVisualStyle
  2
ColorChange
 70
    16
 71
     2
 72
     2
 73
     3
 90
        0
 40
-0.6
 41
-30.0
 62
     5
 63
     8
 74
     1
 91
        4
 64
     7
 65
   257
 75
     1
175
     1
 42
1.0
 92
        8
 66
     8
 43
1.0
 76
     1
 77
     6
 78
     2
 67
     7
 79
     5
170
     0
171
     0
290
     0
174
     0
 93
        1
 44
0.0
173
     0
291
     1
 45
0.0
1001
ACAD
1000
AcDbSavedByObjectVersion
1070
     0
  0
VISUALSTYLE
  5
13E94
102
{ACAD_XDICTIONARY
360
1576B
102
}
102
{ACAD_REACTORS
330
13E8B
102
}
330
13E8B
100
AcDbVisualStyle
  2
Conceptual
 70
     9
 71
     3
 72
     2
 73
     0
 90
        0
 40
-0.6
 41
-30.0
 62
     5
 63
     7
 74
     2
 91
        2
 64
     7
 65
   257
 75
     1
175
     1
 42
179.0
 92
        8
 66
     7
 43
1.0
 76
     1
 77
     6
 78
     2
 67
     7
 79
     3
170
     0
171
     0
290
     0
174
     0
 93
        1
 44
0.0
173
     0
291
     0
 45
0.0
1001
ACAD
1000
AcDbSavedByObjectVersion
1070
     0
  0
VISUALSTYLE
  5
13E96
102
{ACAD_XDICTIONARY
360
1576F
102
}
102
{ACAD_REACTORS
330
13E8B
102
}
330
13E8B
100
AcDbVisualStyle
  2
Dim
 70
    11
 71
     2
 72
     2
 73
     0
 90
        0
 40
-0.6
 41
-30.0
 62
     5
 63
     7
 74
     1
 91
        4
 64
     7
 65
   257
 75
     1
175
     1
 42
1.0
 92
        8
 66
     7
 43
1.0
 76
     1
 77
     6
 78
     2
 67
     7
 79
     5
170
     0
171
     0
290
     0
174
     0
 93
        1
 44
-50.0
173
     0
291
     1
 45
0.0
1001
ACAD
1000
AcDbSavedByObjectVersion
1070
     0
  0
VISUALSTYLE
  5
13EA3
102
{ACAD_XDICTIONARY
360
15789
102
}
102
{ACAD_REACTORS
330
13E8B
102
}
330
13E8B
100
AcDbVisualStyle
  2
EdgeColorOff
 70
    22
 71
     2
 72
     2
 73
     0
 90
        0
 40
-0.6
 41
-30.0
 62
     5
 63
     7
 74
     1
 91
        4
 64
     7
 65
   257
 75
     1
175
     1
 42
1.0
 92
        8
 66
     7
 43
1.0
 76
     1
 77
     6
 78
     2
 67
     7
 79
     5
170
     0
171
     0
290
     0
174
     0
 93
        1
 44
0.0
173
     0
291
     1
 45
0.0
1001
ACAD
1000
AcDbSavedByObjectVersion
1070
     0
  0
VISUALSTYLE
  5
13E9A
102
{ACAD_XDICTIONARY
360
15777
102
}
102
{ACAD_REACTORS
330
13E8B
102
}
330
13E8B
100
AcDbVisualStyle
  2
Facepattern
 70
    15
 71
     2
 72
     2
 73
     0
 90
        0
 40
-0.6
 41
-30.0
 62
     5
 63
     7
 74
     1
 91
        4
 64
     7
 65
   257
 75
     1
175
     1
 42
1.0
 92
        8
 66
     7
 43
1.0
 76
     1
 77
     6
 78
     2
 67
     7
 79
     5
170
     0
171
     0
290
     0
174
     0
 93
        1
 44
0.0
173
     0
291
     1
 45
0.0
1001
ACAD
1000
AcDbSavedByObjectVersion
1070
     0
  0
VISUALSTYLE
  5
13E8C
102
{ACAD_XDICTIONARY
360
1575B
102
}
102
{ACAD_REACTORS
330
13E8B
102
}
330
13E8B
100
AcDbVisualStyle
  2
Flat
 70
     0
 71
     2
 72
     1
 73
     1
 90
        2
 40
-0.6
 41
30.0
 62
     5
 63
     7
 74
     0
 91
        0
 64
     7
 65
   257
 75
     1
175
     1
 42
1.0
 92
        8
 66
     7
 43
1.0
 76
     1
 77
     6
 78
     2
 67
     7
 79
     5
170
     0
171
     0
290
     0
174
     0
 93
       13
 44
0.0
173
     0
291
     1
 45
0.0
1001
ACAD
1000
AcDbSavedByObjectVersion
1070
     0
  0
VISUALSTYLE
  5
13E8D
102
{ACAD_XDICTIONARY
360
1575D
102
}
102
{ACAD_REACTORS
330
13E8B
102
}
330
13E8B
100
AcDbVisualStyle
  2
FlatWithEdges
 70
     1
 71
     2
 72
     1
 73
     1
 90
        2
 40
-0.6
 41
30.0
 62
     5
 63
     7
 74
     1
 91
        0
 64
     7
 65
   257
 75
     1
175
     1
 42
1.0
 92
        0
 66
   257
 43
1.0
 76
     1
 77
     6
 78
     2
 67
     7
 79
     5
170
     0
171
     0
290
     0
174
     0
 93
       13
 44
0.0
173
     0
291
     1
 45
0.0
1001
ACAD
1000
AcDbSavedByObjectVersion
1070
     0
  0
VISUALSTYLE
  5
13E8E
102
{ACAD_XDICTIONARY
360
1575F
102
}
102
{ACAD_REACTORS
330
13E8B
102
}
330
13E8B
100
AcDbVisualStyle
  2
Gouraud
 70
     2
 71
     2
 72
     2
 73
     1
 90
        2
 40
-0.6
 41
30.0
 62
     5
 63
     7
 74
     0
 91
        0
 64
     7
 65
   257
 75
     1
175
     1
 42
1.0
 92
        0
 66
     7
 43
1.0
 76
     1
 77
     6
 78
     2
 67
     7
 79
     5
170
     0
171
     0
290
     0
174
     0
 93
       13
 44
0.0
173
     0
291
     1
 45
0.0
1001
ACAD
1000
AcDbSavedByObjectVersion
1070
     0
  0
VISUALSTYLE
  5
13E8F
102
{ACAD_XDICTIONARY
360
15761
102
}
102
{ACAD_REACTORS
330
13E8B
102
}
330
13E8B
100
AcDbVisualStyle
  2
GouraudWithEdges
 70
     3
 71
     2
 72
     2
 73
     1
 90
        2
 40
-0.6
 41
30.0
 62
     5
 63
     7
 74
     1
 91
        0
 64
     7
 65
   257
 75
     1
175
     1
 42
1.0
 92
        0
 66
   257
 43
1.0
 76
     1
 77
     6
 78
     2
 67
     7
 79
     5
170
     0
171
     0
290
     0
174
     0
 93
       13
 44
0.0
173
     0
291
     1
 45
0.0
1001
ACAD
1000
AcDbSavedByObjectVersion
1070
     0
  0
VISUALSTYLE
  5
13E93
102
{ACAD_XDICTIONARY
360
15769
102
}
102
{ACAD_REACTORS
330
13E8B
102
}
330
13E8B
100
AcDbVisualStyle
  2
Hidden
 70
     6
 71
     1
 72
     2
 73
     2
 90
        0
 40
-0.6
 41
-30.0
 62
     5
 63
     7
 74
     2
 91
        2
 64
     7
 65
   257
 75
     2
175
     1
 42
40.0
 92
        0
 66
   257
 43
1.0
 76
     1
 77
     6
 78
     2
 67
     7
 79
     3
170
     0
171
     0
290
     0
174
     0
 93
        1
 44
0.0
173
     0
291
     0
 45
0.0
1001
ACAD
1000
AcDbSavedByObjectVersion
1070
     0
  0
VISUALSTYLE
  5
13EA1
102
{ACAD_XDICTIONARY
360
15785
102
}
102
{ACAD_REACTORS
330
13E8B
102
}
330
13E8B
100
AcDbVisualStyle
  2
JitterOff
 70
    20
 71
     2
 72
     2
 73
     0
 90
        0
 40
-0.6
 41
-30.0
 62
     5
 63
     7
 74
     1
 91
        4
 64
     7
 65
   257
 75
     1
175
     1
 42
1.0
 92
       10
 66
     7
 43
1.0
 76
     1
 77
     6
 78
     2
 67
     7
 79
     5
170
     0
171
     0
290
     0
174
     0
 93
        1
 44
0.0
173
     0
291
     1
 45
0.0
1001
ACAD
1000
AcDbSavedByObjectVersion
1070
     0
  0
VISUALSTYLE
  5
13E99
102
{ACAD_XDICTIONARY
360
15775
102
}
102
{ACAD_REACTORS
330
13E8B
102
}
330
13E8B
100
AcDbVisualStyle
  2
Linepattern
 70
    14
 71
     2
 72
     2
 73
     0
 90
        0
 40
-0.6
 41
-30.0
 62
     5
 63
     7
 74
     1
 91
        4
 64
     7
 65
   257
 75
     7
175
     7
 42
1.0
 92
        8
 66
     7
 43
1.0
 76
     1
 77
     6
 78
     2
 67
     7
 79
     5
170
     0
171
     0
290
     0
174
     0
 93
        1
 44
0.0
173
     0
291
     1
 45
0.0
1001
ACAD
1000
AcDbSavedByObjectVersion
1070
     0
  0
VISUALSTYLE
  5
13EA2
102
{ACAD_XDICTIONARY
360
15787
102
}
102
{ACAD_REACTORS
330
13E8B
102
}
330
13E8B
100
AcDbVisualStyle
  2
OverhangOff
 70
    21
 71
     2
 72
     2
 73
     0
 90
        0
 40
-0.6
 41
-30.0
 62
     5
 63
     7
 74
     1
 91
        4
 64
     7
 65
   257
 75
     1
175
     1
 42
1.0
 92
        9
 66
     7
 43
1.0
 76
     1
 77
     6
 78
     2
 67
     7
 79
     5
170
     0
171
     0
290
     0
174
     0
 93
        1
 44
0.0
173
     0
291
     1
 45
0.0
1001
ACAD
1000
AcDbSavedByObjectVersion
1070
     0
  0
VISUALSTYLE
  5
13E95
102
{ACAD_XDICTIONARY
360
1576D
102
}
102
{ACAD_REACTORS
330
13E8B
102
}
330
13E8B
100
AcDbVisualStyle
  2
Realistic
 70
     8
 71
     2
 72
     2
 73
     0
 90
        2
 40
-0.6
 41
30.0
 62
     5
 63
     7
 74
     0
 91
        0
 64
     7
 65
   257
 75
     1
175
     1
 42
1.0
 92
        8
 66
   257
 43
1.0
 76
     1
 77
     6
 78
     2
 67
     7
 79
     3
170
     0
171
     0
290
     0
174
     0
 93
       13
 44
0.0
173
     0
291
     0
 45
0.0
1001
ACAD
1000
AcDbSavedByObjectVersion
1070
     0
  0
VISUALSTYLE
  5
13EA0
102
{ACAD_XDICTIONARY
360
15783
102
}
102
{ACAD_REACTORS
330
13E8B
102
}
330
13E8B
100
AcDbVisualStyle
  2
Shaded
 70
    27
 71
     2
 72
     2
 73
     1
 90
        2
 40
-0.6
 41
30.0
 62
     5
 63
     7
 74
     0
 91
        4
 64
     7
 65
   257
 75
     1
175
     1
 42
1.0
 92
        8
 66
   257
 43
1.0
 76
     1
 77
     6
 78
     2
 67
     8
 79
     3
170
     0
171
     0
290
     0
174
     0
 93
        5
 44
0.0
173
     0
291
     0
 45
0.0
1001
ACAD
1000
AcDbSavedByObjectVersion
1070
     0
  0
VISUALSTYLE
  5
13E9F
102
{ACAD_XDICTIONARY
360
15781
102
}
102
{ACAD_REACTORS
330
13E8B
102
}
330
13E8B
100
AcDbVisualStyle
  2
Shaded with edges
 70
    26
 71
     2
 72
     2
 73
     1
 90
        2
 40
-0.6
 41
30.0
 62
     5
 63
     7
 74
     1
 91
       10
 64
     7
 65
   257
 75
     2
175
     1
 42
1.0
 92
        8
 66
   257
 43
1.0
 76
     1
 77
     6
 78
     2
 67
     7
 79
     3
170
     0
171
     0
290
     0
174
     0
 93
        5
 44
0.0
173
     0
291
     0
 45
0.0
1001
ACAD
1000
AcDbSavedByObjectVersion
1070
     0
  0
VISUALSTYLE
  5
13E9C
102
{ACAD_XDICTIONARY
360
1577B
102
}
102
{ACAD_REACTORS
330
13E8B
102
}
330
13E8B
100
AcDbVisualStyle
  2
Shades of Gray
 70
    23
 71
     2
 72
     2
 73
     3
 90
        0
 40
-0.6
 41
-30.0
 62
     5
 63
     7
 74
     2
 91
        2
 64
     7
 65
     7
 75
     1
175
     1
 42
40.0
 92
        8
 66
     7
 43
1.0
 76
     1
 77
     6
 78
     2
 67
     7
 79
     3
170
     0
171
     0
290
     0
174
     0
 93
        1
 44
0.0
173
     0
291
     0
 45
0.0
1001
ACAD
1000
AcDbSavedByObjectVersion
1070
     0
  0
VISUALSTYLE
  5
13E9D
102
{ACAD_XDICTIONARY
360
1577D
102
}
102
{ACAD_REACTORS
330
13E8B
102
}
330
13E8B
100
AcDbVisualStyle
  2
Sketchy
 70
    24
 71
     1
 72
     2
 73
     2
 90
        0
 40
-0.6
 41
-30.0
 62
     5
 63
     7
 74
     2
 91
        2
 64
     7
 65
     7
 75
     1
175
     1
 42
40.0
 92
       11
 66
     7
 43
1.0
 76
     1
 77
     6
 78
     2
 67
     7
 79
     6
170
     0
171
     0
290
     0
174
     0
 93
        1
 44
0.0
173
     0
291
     0
 45
0.0
1001
ACAD
1000
AcDbSavedByObjectVersion
1070
     0
  0
VISUALSTYLE
  5
13E98
102
{ACAD_XDICTIONARY
360
15773
102
}
102
{ACAD_REACTORS
330
13E8B
102
}
330
13E8B
100
AcDbVisualStyle
  2
Thicken
 70
    13
 71
     2
 72
     2
 73
     0
 90
        0
 40
-0.6
 41
-30.0
 62
     5
 63
     7
 74
     1
 91
        4
 64
     7
 65
   257
 75
     1
175
     1
 42
1.0
 92
       12
 66
     7
 43
1.0
 76
     1
 77
     6
 78
     2
 67
     7
 79
     5
170
     0
171
     0
290
     0
174
     0
 93
        1
 44
0.0
173
     0
291
     1
 45
0.0
1001
ACAD
1000
AcDbSavedByObjectVersion
1070
     0
  0
VISUALSTYLE
  5
13E92
102
{ACAD_XDICTIONARY
360
15767
102
}
102
{ACAD_REACTORS
330
13E8B
102
}
330
13E8B
100
AcDbVisualStyle
  2
Wireframe
 70
     5
 71
     0
 72
     2
 73
     0
 90
        0
 40
-0.6
 41
-30.0
 62
     5
 63
     7
 74
     1
 91
        4
 64
     7
 65
   257
 75
     1
175
     1
 42
1.0
 92
        0
 66
   257
 43
1.0
 76
     1
 77
     6
 78
     2
 67
     7
 79
     3
170
     0
171
     0
290
     0
174
     0
 93
        1
 44
0.0
173
     0
291
     0
 45
0.0
1001
ACAD
1000
AcDbSavedByObjectVersion
1070
     0
  0
VISUALSTYLE
  5
13E9E
102
{ACAD_XDICTIONARY
360
1577F
102
}
102
{ACAD_REACTORS
330
13E8B
102
}
330
13E8B
100
AcDbVisualStyle
  2
X-Ray
 70
    25
 71
     2
 72
     2
 73
     1
 90
        1
 40
0.5
 41
-30.0
 62
     5
 63
     7
 74
     1
 91
        0
 64
     7
 65
   257
 75
     1
175
     1
 42
1.0
 92
        8
 66
     7
 43
1.0
 76
     1
 77
     6
 78
     2
 67
     7
 79
     3
170
     0
171
     0
290
     0
174
     0
 93
       13
 44
0.0
173
     0
291
     0
 45
0.0
1001
ACAD
1000
AcDbSavedByObjectVersion
1070
     0
  0
DICTIONARYVAR
  5
154EB
102
{ACAD_REACTORS
330
13533
102
}
330
13533
100
DictionaryVariables
280
     0
  1
1:1
  0
DICTIONARYVAR
  5
154E8
102
{ACAD_REACTORS
330
13533
102
}
330
13533
100
DictionaryVariables
280
     0
  1
STANDARD
  0
DICTIONARYVAR
  5
154E7
102
{ACAD_REACTORS
330
13533
102
}
330
13533
100
DictionaryVariables
280
     0
  1
STANDARD
  0
DICTIONARYVAR
  5
154E9
102
{ACAD_REACTORS
330
13533
102
}
330
13533
100
DictionaryVariables
280
     0
  1
Metric50
  0
DICTIONARYVAR
  5
154EA
102
{ACAD_REACTORS
330
13533
102
}
330
13533
100
DictionaryVariables
280
     0
  1
Metric50
  0
DICTIONARYVAR
  5
13534
102
{ACAD_REACTORS
330
13533
102
}
330
13533
100
DictionaryVariables
280
     0
  1
1
  0
DICTIONARYVAR
  5
154ED
102
{ACAD_REACTORS
330
13533
102
}
330
13533
100
DictionaryVariables
280
     0
  1
0
  0
DICTIONARYVAR
  5
13535
102
{ACAD_REACTORS
330
13533
102
}
330
13533
100
DictionaryVariables
280
     0
  1

  0
DICTIONARYVAR
  5
154EC
102
{ACAD_REACTORS
330
13533
102
}
330
13533
100
DictionaryVariables
280
     0
  1
127
  0
DICTIONARYVAR
  5
15750
102
{ACAD_REACTORS
330
13533
102
}
330
13533
100
DictionaryVariables
280
     0
  1
2
  0
DICTIONARY
  5
15790
330
13EBD
100
AcDbDictionary
280
     1
281
     1
  3
ACAD_XREC_ROUNDTRIP
360
15791
  0
DICTIONARY
  5
15754
330
13420
100
AcDbDictionary
280
     1
281
     1
  3
ACAD_XREC_ROUNDTRIP
360
15755
  0
DICTIONARY
  5
15756
330
13421
100
AcDbDictionary
280
     1
281
     1
  3
ACAD_XREC_ROUNDTRIP
360
15757
  0
DICTIONARY
  5
13E7C
330
13E7B
100
AcDbDictionary
280
     1
281
     1
  3
ACAD_XREC_ROUNDTRIP
360
15759
  3
BUMPTILE
360
13E7E
  3
DIFFUSETILE
360
13E7D
  3
OPACITYTILE
360
13E81
  3
REFLECTIONTILE
360
13E80
  3
REFRACTIONTILE
360
13E82
  3
SPECULARTILE
360
13E7F
  0
DICTIONARY
  5
13E74
330
13E73
100
AcDbDictionary
280
     1
281
     1
  3
ACAD_XREC_ROUNDTRIP
360
15758
  3
BUMPTILE
360
13E76
  3
DIFFUSETILE
360
13E75
  3
OPACITYTILE
360
13E79
  3
REFLECTIONTILE
360
13E78
  3
REFRACTIONTILE
360
13E7A
  3
SPECULARTILE
360
13E77
  0
DICTIONARY
  5
13E84
330
13E83
100
AcDbDictionary
280
     1
281
     1
  3
ACAD_XREC_ROUNDTRIP
360
1575A
  3
BUMPTILE
360
13E86
  3
DIFFUSETILE
360
13E85
  3
OPACITYTILE
360
13E89
  3
REFLECTIONTILE
360
13E88
  3
REFRACTIONTILE
360
13E8A
  3
SPECULARTILE
360
13E87
  0
DICTIONARY
  5
1578C
330
13EB9
100
AcDbDictionary
280
     1
281
     1
  3
ACAD_XREC_ROUNDTRIP
360
1578D
  0
DICTIONARY
  5
1578E
330
13EBB
100
AcDbDictionary
280
     1
281
     1
  3
ACAD_XREC_ROUNDTRIP
360
1578F
  0
DICTIONARY
  5
154A1
330
13EA5
100
AcDbDictionary
280
     1
281
     1
  3
ACAD_ROUNDTRIP_2008_TABLESTYLE_CELLSTYLEMAP
360
15751
  3
ACAD_XREC_ROUNDTRIP
360
1578B
  0
DICTIONARY
  5
15765
330
13E91
100
AcDbDictionary
280
     1
281
     1
  3
ACAD_XREC_ROUNDTRIP
360
15766
  0
DICTIONARY
  5
15763
330
13E90
100
AcDbDictionary
280
     1
281
     1
  3
ACAD_XREC_ROUNDTRIP
360
15764
  0
DICTIONARY
  5
15771
330
13E97
100
AcDbDictionary
280
     1
281
     1
  3
ACAD_XREC_ROUNDTRIP
360
15772
  0
DICTIONARY
  5
15779
330
13E9B
100
AcDbDictionary
280
     1
281
     1
  3
ACAD_XREC_ROUNDTRIP
360
1577A
  0
DICTIONARY
  5
1576B
330
13E94
100
AcDbDictionary
280
     1
281
     1
  3
ACAD_XREC_ROUNDTRIP
360
1576C
  0
DICTIONARY
  5
1576F
330
13E96
100
AcDbDictionary
280
     1
281
     1
  3
ACAD_XREC_ROUNDTRIP
360
15770
  0
DICTIONARY
  5
15789
330
13EA3
100
AcDbDictionary
280
     1
281
     1
  3
ACAD_XREC_ROUNDTRIP
360
1578A
  0
DICTIONARY
  5
15777
330
13E9A
100
AcDbDictionary
280
     1
281
     1
  3
ACAD_XREC_ROUNDTRIP
360
15778
  0
DICTIONARY
  5
1575B
330
13E8C
100
AcDbDictionary
280
     1
281
     1
  3
ACAD_XREC_ROUNDTRIP
360
1575C
  0
DICTIONARY
  5
1575D
330
13E8D
100
AcDbDictionary
280
     1
281
     1
  3
ACAD_XREC_ROUNDTRIP
360
1575E
  0
DICTIONARY
  5
1575F
330
13E8E
100
AcDbDictionary
280
     1
281
     1
  3
ACAD_XREC_ROUNDTRIP
360
15760
  0
DICTIONARY
  5
15761
330
13E8F
100
AcDbDictionary
280
     1
281
     1
  3
ACAD_XREC_ROUNDTRIP
360
15762
  0
DICTIONARY
  5
15769
330
13E93
100
AcDbDictionary
280
     1
281
     1
  3
ACAD_XREC_ROUNDTRIP
360
1576A
  0
DICTIONARY
  5
15785
330
13EA1
100
AcDbDictionary
280
     1
281
     1
  3
ACAD_XREC_ROUNDTRIP
360
15786
  0
DICTIONARY
  5
15775
330
13E99
100
AcDbDictionary
280
     1
281
     1
  3
ACAD_XREC_ROUNDTRIP
360
15776
  0
DICTIONARY
  5
15787
330
13EA2
100
AcDbDictionary
280
     1
281
     1
  3
ACAD_XREC_ROUNDTRIP
360
15788
  0
DICTIONARY
  5
1576D
330
13E95
100
AcDbDictionary
280
     1
281
     1
  3
ACAD_XREC_ROUNDTRIP
360
1576E
  0
DICTIONARY
  5
15783
330
13EA0
100
AcDbDictionary
280
     1
281
     1
  3
ACAD_XREC_ROUNDTRIP
360
15784
  0
DICTIONARY
  5
15781
330
13E9F
100
AcDbDictionary
280
     1
281
     1
  3
ACAD_XREC_ROUNDTRIP
360
15782
  0
DICTIONARY
  5
1577B
330
13E9C
100
AcDbDictionary
280
     1
281
     1
  3
ACAD_XREC_ROUNDTRIP
360
1577C
  0
DICTIONARY
  5
1577D
330
13E9D
100
AcDbDictionary
280
     1
281
     1
  3
ACAD_XREC_ROUNDTRIP
360
1577E
  0
DICTIONARY
  5
15773
330
13E98
100
AcDbDictionary
280
     1
281
     1
  3
ACAD_XREC_ROUNDTRIP
360
15774
  0
DICTIONARY
  5
15767
330
13E92
100
AcDbDictionary
280
     1
281
     1
  3
ACAD_XREC_ROUNDTRIP
360
15768
  0
DICTIONARY
  5
1577F
330
13E9E
100
AcDbDictionary
280
     1
281
     1
  3
ACAD_XREC_ROUNDTRIP
360
15780
  0
XRECORD
  5
15791
102
{ACAD_REACTORS
330
15790
102
}
330
15790
100
AcDbXrecord
280
     1
102
DISPLAYNAME
  1
Metric50
102
FLAGS
 90
        0
  0
XRECORD
  5
15755
102
{ACAD_REACTORS
330
15754
102
}
330
15754
100
AcDbXrecord
280
     1
102
SHADEPLOT
 70
     0
102
SHADEPLOTRESLEVEL
 70
     2
102
SHADEPLOTCUSTOMDPI
 70
   300
  0
XRECORD
  5
15757
102
{ACAD_REACTORS
330
15756
102
}
330
15756
100
AcDbXrecord
280
     1
102
SHADEPLOT
 70
     0
102
SHADEPLOTRESLEVEL
 70
     2
102
SHADEPLOTCUSTOMDPI
 70
   300
  0
XRECORD
  5
15759
102
{ACAD_REACTORS
330
13E7C
102
}
330
13E7C
100
AcDbXrecord
280
     1
102
MATERIAL
148
0.0
149
0.0
149
0.0
 93
        0
 94
      127
282
     0
 72
     0
 77
     0
171
     0
175
     0
179
     0
273
     0
  0
XRECORD
  5
13E7E
102
{ACAD_REACTORS
330
13E7C
102
}
330
13E7C
100
AcDbXrecord
280
     1
270
     1
271
     1
  0
XRECORD
  5
13E7D
102
{ACAD_REACTORS
330
13E7C
102
}
330
13E7C
100
AcDbXrecord
280
     1
270
     1
271
     1
  0
XRECORD
  5
13E81
102
{ACAD_REACTORS
330
13E7C
102
}
330
13E7C
100
AcDbXrecord
280
     1
270
     1
271
     1
  0
XRECORD
  5
13E80
102
{ACAD_REACTORS
330
13E7C
102
}
330
13E7C
100
AcDbXrecord
280
     1
270
     1
271
     1
  0
XRECORD
  5
13E82
102
{ACAD_REACTORS
330
13E7C
102
}
330
13E7C
100
AcDbXrecord
280
     1
270
     1
271
     1
  0
XRECORD
  5
13E7F
102
{ACAD_REACTORS
330
13E7C
102
}
330
13E7C
100
AcDbXrecord
280
     1
270
     1
271
     1
  0
XRECORD
  5
15758
102
{ACAD_REACTORS
330
13E74
102
}
330
13E74
100
AcDbXrecord
280
     1
102
MATERIAL
148
0.0
149
0.0
149
0.0
 93
        0
 94
      127
282
     0
 72
     0
 77
     0
171
     0
175
     0
179
     0
273
     0
  0
XRECORD
  5
13E76
102
{ACAD_REACTORS
330
13E74
102
}
330
13E74
100
AcDbXrecord
280
     1
270
     1
271
     1
  0
XRECORD
  5
13E75
102
{ACAD_REACTORS
330
13E74
102
}
330
13E74
100
AcDbXrecord
280
     1
270
     1
271
     1
  0
XRECORD
  5
13E79
102
{ACAD_REACTORS
330
13E74
102
}
330
13E74
100
AcDbXrecord
280
     1
270
     1
271
     1
  0
XRECORD
  5
13E78
102
{ACAD_REACTORS
330
13E74
102
}
330
13E74
100
AcDbXrecord
280
     1
270
     1
271
     1
  0
XRECORD
  5
13E7A
102
{ACAD_REACTORS
330
13E74
102
}
330
13E74
100
AcDbXrecord
280
     1
270
     1
271
     1
  0
XRECORD
  5
13E77
102
{ACAD_REACTORS
330
13E74
102
}
330
13E74
100
AcDbXrecord
280
     1
270
     1
271
     1
  0
XRECORD
  5
1575A
102
{ACAD_REACTORS
330
13E84
102
}
330
13E84
100
AcDbXrecord
280
     1
102
MATERIAL
148
0.0
149
0.0
149
0.0
 93
        0
 94
      127
282
     0
 72
     0
 77
     0
171
     0
175
     0
179
     0
273
     0
  0
XRECORD
  5
13E86
102
{ACAD_REACTORS
330
13E84
102
}
330
13E84
100
AcDbXrecord
280
     1
270
     1
271
     1
  0
XRECORD
  5
13E85
102
{ACAD_REACTORS
330
13E84
102
}
330
13E84
100
AcDbXrecord
280
     1
270
     1
271
     1
  0
XRECORD
  5
13E89
102
{ACAD_REACTORS
330
13E84
102
}
330
13E84
100
AcDbXrecord
280
     1
270
     1
271
     1
  0
XRECORD
  5
13E88
102
{ACAD_REACTORS
330
13E84
102
}
330
13E84
100
AcDbXrecord
280
     1
270
     1
271
     1
  0
XRECORD
  5
13E8A
102
{ACAD_REACTORS
330
13E84
102
}
330
13E84
100
AcDbXrecord
280
     1
270
     1
271
     1
  0
XRECORD
  5
13E87
102
{ACAD_REACTORS
330
13E84
102
}
330
13E84
100
AcDbXrecord
280
     1
270
     1
271
     1
  0
XRECORD
  5
1578D
102
{ACAD_REACTORS
330
1578C
102
}
330
1578C
100
AcDbXrecord
280
     1
102
ACAD_ROUNDTRIP_2012_MLEADER_STYLE
298
     1
  0
XRECORD
  5
1578F
102
{ACAD_REACTORS
330
1578E
102
}
330
1578E
100
AcDbXrecord
280
     1
102
DISPLAYNAME
  1
Metric50
102
FLAGS
 90
        0
  0
CELLSTYLEMAP
  5
15751
102
{ACAD_REACTORS
330
154A1
102
}
330
154A1
100
AcDbCellStyleMap
 90
        3
300
CELLSTYLE
  1
TABLEFORMAT_BEGIN
 90
        5
170
     1
 91
        0
 92
    32768
 62
   257
 93
        1
300
CONTENTFORMAT
  1
CONTENTFORMAT_BEGIN
 90
        0
 91
        0
 92
      512
 93
        0
300

 40
0.0
140
1.0
 94
        5
 62
     0
340
7475
144
6.0
309
CONTENTFORMAT_END
171
     1
301
MARGIN
  1
CELLMARGIN_BEGIN
 40
1.5
 40
1.5
 40
1.5
 40
1.5
 40
4.5
 40
4.5
309
CELLMARGIN_END
 94
        6
 95
        1
302
GRIDFORMAT
  1
GRIDFORMAT_BEGIN
 90
        0
 91
        1
 62
     0
 92
       -2
340
0
 93
        0
 40
1.125
309
GRIDFORMAT_END
 95
        2
302
GRIDFORMAT
  1
GRIDFORMAT_BEGIN
 90
        0
 91
        1
 62
     0
 92
       -2
340
0
 93
        0
 40
1.125
309
GRIDFORMAT_END
 95
        4
302
GRIDFORMAT
  1
GRIDFORMAT_BEGIN
 90
        0
 91
        1
 62
     0
 92
       -2
340
0
 93
        0
 40
1.125
309
GRIDFORMAT_END
 95
        8
302
GRIDFORMAT
  1
GRIDFORMAT_BEGIN
 90
        0
 91
        1
 62
     0
 92
       -2
340
0
 93
        0
 40
1.125
309
GRIDFORMAT_END
 95
       16
302
GRIDFORMAT
  1
GRIDFORMAT_BEGIN
 90
        0
 91
        1
 62
     0
 92
       -2
340
0
 93
        0
 40
1.125
309
GRIDFORMAT_END
 95
       32
302
GRIDFORMAT
  1
GRIDFORMAT_BEGIN
 90
        0
 91
        1
 62
     0
 92
       -2
340
0
 93
        0
 40
1.125
309
GRIDFORMAT_END
309
TABLEFORMAT_END
  1
CELLSTYLE_BEGIN
 90
        1
 91
        1
300
_TITLE
309
CELLSTYLE_END
300
CELLSTYLE
  1
TABLEFORMAT_BEGIN
 90
        5
170
     1
 91
        0
 92
        0
 62
   257
 93
        1
300
CONTENTFORMAT
  1
CONTENTFORMAT_BEGIN
 90
        0
 91
        0
 92
      512
 93
        0
300

 40
0.0
140
1.0
 94
        5
 62
     0
340
7475
144
4.5
309
CONTENTFORMAT_END
171
     1
301
MARGIN
  1
CELLMARGIN_BEGIN
 40
1.5
 40
1.5
 40
1.5
 40
1.5
 40
4.5
 40
4.5
309
CELLMARGIN_END
 94
        6
 95
        1
302
GRIDFORMAT
  1
GRIDFORMAT_BEGIN
 90
        0
 91
        1
 62
     0
 92
       -2
340
0
 93
        0
 40
1.125
309
GRIDFORMAT_END
 95
        2
302
GRIDFORMAT
  1
GRIDFORMAT_BEGIN
 90
        0
 91
        1
 62
     0
 92
       -2
340
0
 93
        0
 40
1.125
309
GRIDFORMAT_END
 95
        4
302
GRIDFORMAT
  1
GRIDFORMAT_BEGIN
 90
        0
 91
        1
 62
     0
 92
       -2
340
0
 93
        0
 40
1.125
309
GRIDFORMAT_END
 95
        8
302
GRIDFORMAT
  1
GRIDFORMAT_BEGIN
 90
        0
 91
        1
 62
     0
 92
       -2
340
0
 93
        0
 40
1.125
309
GRIDFORMAT_END
 95
       16
302
GRIDFORMAT
  1
GRIDFORMAT_BEGIN
 90
        0
 91
        1
 62
     0
 92
       -2
340
0
 93
        0
 40
1.125
309
GRIDFORMAT_END
 95
       32
302
GRIDFORMAT
  1
GRIDFORMAT_BEGIN
 90
        0
 91
        1
 62
     0
 92
       -2
340
0
 93
        0
 40
1.125
309
GRIDFORMAT_END
309
TABLEFORMAT_END
  1
CELLSTYLE_BEGIN
 90
        2
 91
        1
300
_HEADER
309
CELLSTYLE_END
300
CELLSTYLE
  1
TABLEFORMAT_BEGIN
 90
        5
170
     1
 91
        0
 92
        0
 62
   257
 93
        1
300
CONTENTFORMAT
  1
CONTENTFORMAT_BEGIN
 90
        0
 91
        0
 92
      512
 93
        0
300

 40
0.0
140
1.0
 94
        2
 62
     0
340
7475
144
4.5
309
CONTENTFORMAT_END
171
     1
301
MARGIN
  1
CELLMARGIN_BEGIN
 40
1.5
 40
1.5
 40
1.5
 40
1.5
 40
4.5
 40
4.5
309
CELLMARGIN_END
 94
        6
 95
        1
302
GRIDFORMAT
  1
GRIDFORMAT_BEGIN
 90
        0
 91
        1
 62
     0
 92
       -2
340
0
 93
        0
 40
1.125
309
GRIDFORMAT_END
 95
        2
302
GRIDFORMAT
  1
GRIDFORMAT_BEGIN
 90
        0
 91
        1
 62
     0
 92
       -2
340
0
 93
        0
 40
1.125
309
GRIDFORMAT_END
 95
        4
302
GRIDFORMAT
  1
GRIDFORMAT_BEGIN
 90
        0
 91
        1
 62
     0
 92
       -2
340
0
 93
        0
 40
1.125
309
GRIDFORMAT_END
 95
        8
302
GRIDFORMAT
  1
GRIDFORMAT_BEGIN
 90
        0
 91
        1
 62
     0
 92
       -2
340
0
 93
        0
 40
1.125
309
GRIDFORMAT_END
 95
       16
302
GRIDFORMAT
  1
GRIDFORMAT_BEGIN
 90
        0
 91
        1
 62
     0
 92
       -2
340
0
 93
        0
 40
1.125
309
GRIDFORMAT_END
 95
       32
302
GRIDFORMAT
  1
GRIDFORMAT_BEGIN
 90
        0
 91
        1
 62
     0
 92
       -2
340
0
 93
        0
 40
1.125
309
GRIDFORMAT_END
309
TABLEFORMAT_END
  1
CELLSTYLE_BEGIN
 90
        3
 91
        2
300
_DATA
309
CELLSTYLE_END
  0
XRECORD
  5
1578B
102
{ACAD_REACTORS
330
154A1
102
}
330
154A1
100
AcDbXrecord
280
     1
102
ACAD_ROUNDTRIP_PRE2007_TABLESTYLE
 90
      512
 91
        0
  1

 92
      512
 93
        0
  2

 94
      512
 95
        0
  3

  0
XRECORD
  5
15766
102
{ACAD_REACTORS
330
15765
102
}
330
15765
100
AcDbXrecord
280
     1
102
RTVSPost2010Prop28
280
     1
102
RTVSPost2010PropOp28
 70
     1
102
RTVSPost2010Prop29
280
     1
102
RTVSPost2010PropOp29
 70
     1
102
RTVSPost2010Prop30
280
     0
102
RTVSPost2010PropOp30
 70
     1
102
RTVSPost2010Prop31
280
     0
102
RTVSPost2010PropOp31
 70
     1
102
RTVSPost2010Prop32
280
     0
102
RTVSPost2010PropOp32
 70
     1
102
RTVSPost2010Prop33
280
     0
102
RTVSPost2010PropOp33
 70
     1
102
RTVSPost2010Prop34
280
     0
102
RTVSPost2010PropOp34
 70
     1
102
RTVSPost2010Prop35
280
     0
102
RTVSPost2010PropOp35
 70
     1
102
RTVSPost2010Prop36
280
     0
102
RTVSPost2010PropOp36
 70
     1
102
RTVSPost2010Prop37
 90
       50
102
RTVSPost2010PropOp37
 70
     1
102
RTVSPost2010Prop38
140
0.0
102
RTVSPost2010PropOp38
 70
     1
102
RTVSPost2010Prop39
140
1.0
102
RTVSPost2010PropOp39
 70
     1
102
RTVSPost2010Prop40
 90
        0
102
RTVSPost2010PropOp40
 70
     1
102
RTVSPost2010Prop41ColorIndex
 90
       18
102
RTVSPost2010Prop41ColorRGB
 90
        0
102
RTVSPost2010PropOp41
 70
     1
102
RTVSPost2010Prop42
 90
       50
102
RTVSPost2010PropOp42
 70
     1
102
RTVSPost2010Prop43
 90
        3
102
RTVSPost2010PropOp43
 70
     1
102
RTVSPost2010Prop44ColorIndex
 90
        5
102
RTVSPost2010Prop44ColorRGB
 90
      255
102
RTVSPost2010PropOp44
 70
     1
102
RTVSPost2010Prop45
280
     0
102
RTVSPost2010PropOp45
 70
     1
102
RTVSPost2010Prop46
 90
       50
102
RTVSPost2010PropOp46
 70
     1
102
RTVSPost2010Prop47
 90
       50
102
RTVSPost2010PropOp47
 70
     1
102
RTVSPost2010Prop48
 90
       50
102
RTVSPost2010PropOp48
 70
     1
102
RTVSPost2010Prop49
280
     0
102
RTVSPost2010PropOp49
 70
     1
102
RTVSPost2010Prop50
 90
       50
102
RTVSPost2010PropOp50
 70
     1
102
RTVSPost2010Prop51ColorIndex
 90
      256
102
RTVSPost2010Prop51ColorRGB
 90
-16777216
102
RTVSPost2010PropOp51
 70
     0
102
RTVSPost2010Prop52
140
1.0
102
RTVSPost2010PropOp52
 70
     0
102
RTVSPost2010Prop53
 90
        2
102
RTVSPost2010PropOp53
 70
     1
102
RTVSPost2010Prop54
  1
strokes_ogs.tif
102
RTVSPost2010PropOp54
 70
     1
102
RTVSPost2010Prop55
280
     0
102
RTVSPost2010PropOp55
 70
     1
102
RTVSPost2010Prop56
140
1.0
102
RTVSPost2010PropOp56
 70
     1
102
RTVSPost2010Prop57
140
1.0
102
RTVSPost2010PropOp57
 70
     1
102
RTVSPropertyOp0
 70
     1
102
RTVSPropertyOp1
 70
     1
102
RTVSPropertyOp2
 70
     1
102
RTVSPropertyOp3
 70
     1
102
RTVSPropertyOp4
 70
     1
102
RTVSPropertyOp5
 70
     1
102
RTVSPropertyOp6
 70
     1
102
RTVSPropertyOp7
 70
     1
102
RTVSPropertyOp8
 70
     1
102
RTVSPropertyOp9
 70
     1
102
RTVSPropertyOp10
 70
     1
102
RTVSPropertyOp11
 70
     1
102
RTVSPropertyOp12
 70
     1
102
RTVSPropertyOp13
 70
     1
102
RTVSPropertyOp14
 70
     1
102
RTVSPropertyOp15
 70
     1
102
RTVSPropertyOp16
 70
     1
102
RTVSPropertyOp17
 70
     1
102
RTVSPropertyOp18
 70
     1
102
RTVSPropertyOp19
 70
     1
102
RTVSPropertyOp20
 70
     1
102
RTVSPropertyOp21
 70
     1
102
RTVSPropertyOp22
 70
     1
102
RTVSPropertyOp23
 70
     1
102
RTVSPropertyOp24
 70
     1
102
RTVSPropertyOp25
 70
     1
102
RTVSPropertyOp26
 70
     1
102
RTVSPropertyOp27
 70
     1
102
RTVSPropertyOp28
 70
     1
102
RTVSPropertyOp29
 70
     1
102
RTVSPropertyOp30
 70
     1
102
RTVSPropertyOp31
 70
     1
102
RTVSPropertyOp32
 70
     1
102
RTVSPropertyOp33
 70
     1
102
RTVSPropertyOp34
 70
     1
102
RTVSPropertyOp35
 70
     1
102
RTVSPropertyOp36
 70
     1
102
RTVSPropertyOp37
 70
     1
102
RTVSPropertyOp38
 70
     1
102
RTVSPropertyOp39
 70
     1
102
RTVSPropertyOp40
 70
     1
102
RTVSPropertyOp41
 70
     1
102
RTVSPropertyOp42
 70
     1
102
RTVSPropertyOp43
 70
     1
102
RTVSPropertyOp44
 70
     1
102
RTVSPropertyOp45
 70
     1
102
RTVSPropertyOp46
 70
     1
102
RTVSPropertyOp47
 70
     1
102
RTVSPropertyOp48
 70
     1
102
RTVSPropertyOp49
 70
     1
102
RTVSPropertyOp50
 70
     1
102
RTVSPropertyOp51
 70
     0
102
RTVSPropertyOp52
 70
     0
102
RTVSPropertyOp53
 70
     1
102
RTVSPropertyOp54
 70
     1
102
RTVSPropertyOp55
 70
     1
102
RTVSPropertyOp56
 70
     1
102
RTVSPropertyOp57
 70
     1
102
RTVSPropertyOp58
 70
     1
102
RTVSPropertyOp59
 70
     1
102
RTVSPropertyOp60
 70
     1
102
RTVSPropertyOp61
 70
     1
102
RTVSPropertyOp62
 70
     1
  0
XRECORD
  5
15764
102
{ACAD_REACTORS
330
15763
102
}
330
15763
100
AcDbXrecord
280
     1
102
RTVSPost2010Prop28
280
     0
102
RTVSPost2010PropOp28
 70
     1
102
RTVSPost2010Prop29
280
     1
102
RTVSPost2010PropOp29
 70
     1
102
RTVSPost2010Prop30
280
     1
102
RTVSPost2010PropOp30
 70
     1
102
RTVSPost2010Prop31
280
     0
102
RTVSPost2010PropOp31
 70
     1
102
RTVSPost2010Prop32
280
     0
102
RTVSPost2010PropOp32
 70
     1
102
RTVSPost2010Prop33
280
     0
102
RTVSPost2010PropOp33
 70
     1
102
RTVSPost2010Prop34
280
     0
102
RTVSPost2010PropOp34
 70
     1
102
RTVSPost2010Prop35
280
     0
102
RTVSPost2010PropOp35
 70
     1
102
RTVSPost2010Prop36
280
     0
102
RTVSPost2010PropOp36
 70
     1
102
RTVSPost2010Prop37
 90
       50
102
RTVSPost2010PropOp37
 70
     1
102
RTVSPost2010Prop38
140
0.0
102
RTVSPost2010PropOp38
 70
     1
102
RTVSPost2010Prop39
140
1.0
102
RTVSPost2010PropOp39
 70
     1
102
RTVSPost2010Prop40
 90
        0
102
RTVSPost2010PropOp40
 70
     1
102
RTVSPost2010Prop41ColorIndex
 90
       18
102
RTVSPost2010Prop41ColorRGB
 90
        0
102
RTVSPost2010PropOp41
 70
     1
102
RTVSPost2010Prop42
 90
       50
102
RTVSPost2010PropOp42
 70
     1
102
RTVSPost2010Prop43
 90
        3
102
RTVSPost2010PropOp43
 70
     1
102
RTVSPost2010Prop44ColorIndex
 90
        5
102
RTVSPost2010Prop44ColorRGB
 90
      255
102
RTVSPost2010PropOp44
 70
     1
102
RTVSPost2010Prop45
280
     0
102
RTVSPost2010PropOp45
 70
     1
102
RTVSPost2010Prop46
 90
       50
102
RTVSPost2010PropOp46
 70
     1
102
RTVSPost2010Prop47
 90
       50
102
RTVSPost2010PropOp47
 70
     1
102
RTVSPost2010Prop48
 90
       50
102
RTVSPost2010PropOp48
 70
     1
102
RTVSPost2010Prop49
280
     0
102
RTVSPost2010PropOp49
 70
     1
102
RTVSPost2010Prop50
 90
       50
102
RTVSPost2010PropOp50
 70
     1
102
RTVSPost2010Prop51ColorIndex
 90
      256
102
RTVSPost2010Prop51ColorRGB
 90
-16777216
102
RTVSPost2010PropOp51
 70
     0
102
RTVSPost2010Prop52
140
1.0
102
RTVSPost2010PropOp52
 70
     0
102
RTVSPost2010Prop53
 90
        2
102
RTVSPost2010PropOp53
 70
     1
102
RTVSPost2010Prop54
  1
strokes_ogs.tif
102
RTVSPost2010PropOp54
 70
     1
102
RTVSPost2010Prop55
280
     0
102
RTVSPost2010PropOp55
 70
     1
102
RTVSPost2010Prop56
140
1.0
102
RTVSPost2010PropOp56
 70
     1
102
RTVSPost2010Prop57
140
1.0
102
RTVSPost2010PropOp57
 70
     1
102
RTVSPropertyOp0
 70
     1
102
RTVSPropertyOp1
 70
     1
102
RTVSPropertyOp2
 70
     1
102
RTVSPropertyOp3
 70
     1
102
RTVSPropertyOp4
 70
     1
102
RTVSPropertyOp5
 70
     1
102
RTVSPropertyOp6
 70
     1
102
RTVSPropertyOp7
 70
     1
102
RTVSPropertyOp8
 70
     1
102
RTVSPropertyOp9
 70
     1
102
RTVSPropertyOp10
 70
     1
102
RTVSPropertyOp11
 70
     1
102
RTVSPropertyOp12
 70
     1
102
RTVSPropertyOp13
 70
     1
102
RTVSPropertyOp14
 70
     1
102
RTVSPropertyOp15
 70
     1
102
RTVSPropertyOp16
 70
     1
102
RTVSPropertyOp17
 70
     1
102
RTVSPropertyOp18
 70
     1
102
RTVSPropertyOp19
 70
     1
102
RTVSPropertyOp20
 70
     1
102
RTVSPropertyOp21
 70
     1
102
RTVSPropertyOp22
 70
     1
102
RTVSPropertyOp23
 70
     1
102
RTVSPropertyOp24
 70
     1
102
RTVSPropertyOp25
 70
     1
102
RTVSPropertyOp26
 70
     1
102
RTVSPropertyOp27
 70
     1
102
RTVSPropertyOp28
 70
     1
102
RTVSPropertyOp29
 70
     1
102
RTVSPropertyOp30
 70
     1
102
RTVSPropertyOp31
 70
     1
102
RTVSPropertyOp32
 70
     1
102
RTVSPropertyOp33
 70
     1
102
RTVSPropertyOp34
 70
     1
102
RTVSPropertyOp35
 70
     1
102
RTVSPropertyOp36
 70
     1
102
RTVSPropertyOp37
 70
     1
102
RTVSPropertyOp38
 70
     1
102
RTVSPropertyOp39
 70
     1
102
RTVSPropertyOp40
 70
     1
102
RTVSPropertyOp41
 70
     1
102
RTVSPropertyOp42
 70
     1
102
RTVSPropertyOp43
 70
     1
102
RTVSPropertyOp44
 70
     1
102
RTVSPropertyOp45
 70
     1
102
RTVSPropertyOp46
 70
     1
102
RTVSPropertyOp47
 70
     1
102
RTVSPropertyOp48
 70
     1
102
RTVSPropertyOp49
 70
     1
102
RTVSPropertyOp50
 70
     1
102
RTVSPropertyOp51
 70
     0
102
RTVSPropertyOp52
 70
     0
102
RTVSPropertyOp53
 70
     1
102
RTVSPropertyOp54
 70
     1
102
RTVSPropertyOp55
 70
     1
102
RTVSPropertyOp56
 70
     1
102
RTVSPropertyOp57
 70
     1
102
RTVSPropertyOp58
 70
     1
102
RTVSPropertyOp59
 70
     1
102
RTVSPropertyOp60
 70
     1
102
RTVSPropertyOp61
 70
     1
102
RTVSPropertyOp62
 70
     1
  0
XRECORD
  5
15772
102
{ACAD_REACTORS
330
15771
102
}
330
15771
100
AcDbXrecord
280
     1
102
RTVSPost2010Prop28
280
     0
102
RTVSPost2010PropOp28
 70
     1
102
RTVSPost2010Prop29
280
     1
102
RTVSPost2010PropOp29
 70
     1
102
RTVSPost2010Prop30
280
     1
102
RTVSPost2010PropOp30
 70
     1
102
RTVSPost2010Prop31
280
     0
102
RTVSPost2010PropOp31
 70
     1
102
RTVSPost2010Prop32
280
     0
102
RTVSPost2010PropOp32
 70
     1
102
RTVSPost2010Prop33
280
     0
102
RTVSPost2010PropOp33
 70
     1
102
RTVSPost2010Prop34
280
     0
102
RTVSPost2010PropOp34
 70
     1
102
RTVSPost2010Prop35
280
     0
102
RTVSPost2010PropOp35
 70
     1
102
RTVSPost2010Prop36
280
     0
102
RTVSPost2010PropOp36
 70
     1
102
RTVSPost2010Prop37
 90
       50
102
RTVSPost2010PropOp37
 70
     1
102
RTVSPost2010Prop38
140
0.0
102
RTVSPost2010PropOp38
 70
     1
102
RTVSPost2010Prop39
140
1.0
102
RTVSPost2010PropOp39
 70
     1
102
RTVSPost2010Prop40
 90
        0
102
RTVSPost2010PropOp40
 70
     1
102
RTVSPost2010Prop41ColorIndex
 90
       18
102
RTVSPost2010Prop41ColorRGB
 90
        0
102
RTVSPost2010PropOp41
 70
     1
102
RTVSPost2010Prop42
 90
       50
102
RTVSPost2010PropOp42
 70
     1
102
RTVSPost2010Prop43
 90
        3
102
RTVSPost2010PropOp43
 70
     1
102
RTVSPost2010Prop44ColorIndex
 90
        5
102
RTVSPost2010Prop44ColorRGB
 90
      255
102
RTVSPost2010PropOp44
 70
     1
102
RTVSPost2010Prop45
280
     0
102
RTVSPost2010PropOp45
 70
     1
102
RTVSPost2010Prop46
 90
       50
102
RTVSPost2010PropOp46
 70
     1
102
RTVSPost2010Prop47
 90
       50
102
RTVSPost2010PropOp47
 70
     1
102
RTVSPost2010Prop48
 90
       50
102
RTVSPost2010PropOp48
 70
     1
102
RTVSPost2010Prop49
280
     0
102
RTVSPost2010PropOp49
 70
     1
102
RTVSPost2010Prop50
 90
       50
102
RTVSPost2010PropOp50
 70
     1
102
RTVSPost2010Prop51ColorIndex
 90
      256
102
RTVSPost2010Prop51ColorRGB
 90
-16777216
102
RTVSPost2010PropOp51
 70
     0
102
RTVSPost2010Prop52
140
1.0
102
RTVSPost2010PropOp52
 70
     0
102
RTVSPost2010Prop53
 90
        2
102
RTVSPost2010PropOp53
 70
     1
102
RTVSPost2010Prop54
  1
strokes_ogs.tif
102
RTVSPost2010PropOp54
 70
     1
102
RTVSPost2010Prop55
280
     0
102
RTVSPost2010PropOp55
 70
     1
102
RTVSPost2010Prop56
140
1.0
102
RTVSPost2010PropOp56
 70
     1
102
RTVSPost2010Prop57
140
1.0
102
RTVSPost2010PropOp57
 70
     1
102
RTVSPropertyOp0
 70
     1
102
RTVSPropertyOp1
 70
     1
102
RTVSPropertyOp2
 70
     1
102
RTVSPropertyOp3
 70
     1
102
RTVSPropertyOp4
 70
     1
102
RTVSPropertyOp5
 70
     1
102
RTVSPropertyOp6
 70
     1
102
RTVSPropertyOp7
 70
     1
102
RTVSPropertyOp8
 70
     1
102
RTVSPropertyOp9
 70
     1
102
RTVSPropertyOp10
 70
     1
102
RTVSPropertyOp11
 70
     1
102
RTVSPropertyOp12
 70
     1
102
RTVSPropertyOp13
 70
     1
102
RTVSPropertyOp14
 70
     1
102
RTVSPropertyOp15
 70
     1
102
RTVSPropertyOp16
 70
     1
102
RTVSPropertyOp17
 70
     1
102
RTVSPropertyOp18
 70
     1
102
RTVSPropertyOp19
 70
     1
102
RTVSPropertyOp20
 70
     1
102
RTVSPropertyOp21
 70
     1
102
RTVSPropertyOp22
 70
     1
102
RTVSPropertyOp23
 70
     1
102
RTVSPropertyOp24
 70
     1
102
RTVSPropertyOp25
 70
     1
102
RTVSPropertyOp26
 70
     1
102
RTVSPropertyOp27
 70
     1
102
RTVSPropertyOp28
 70
     1
102
RTVSPropertyOp29
 70
     1
102
RTVSPropertyOp30
 70
     1
102
RTVSPropertyOp31
 70
     1
102
RTVSPropertyOp32
 70
     1
102
RTVSPropertyOp33
 70
     1
102
RTVSPropertyOp34
 70
     1
102
RTVSPropertyOp35
 70
     1
102
RTVSPropertyOp36
 70
     1
102
RTVSPropertyOp37
 70
     1
102
RTVSPropertyOp38
 70
     1
102
RTVSPropertyOp39
 70
     1
102
RTVSPropertyOp40
 70
     1
102
RTVSPropertyOp41
 70
     1
102
RTVSPropertyOp42
 70
     1
102
RTVSPropertyOp43
 70
     1
102
RTVSPropertyOp44
 70
     1
102
RTVSPropertyOp45
 70
     1
102
RTVSPropertyOp46
 70
     1
102
RTVSPropertyOp47
 70
     1
102
RTVSPropertyOp48
 70
     1
102
RTVSPropertyOp49
 70
     1
102
RTVSPropertyOp50
 70
     1
102
RTVSPropertyOp51
 70
     0
102
RTVSPropertyOp52
 70
     0
102
RTVSPropertyOp53
 70
     1
102
RTVSPropertyOp54
 70
     1
102
RTVSPropertyOp55
 70
     1
102
RTVSPropertyOp56
 70
     1
102
RTVSPropertyOp57
 70
     1
102
RTVSPropertyOp58
 70
     1
102
RTVSPropertyOp59
 70
     1
102
RTVSPropertyOp60
 70
     1
102
RTVSPropertyOp61
 70
     1
102
RTVSPropertyOp62
 70
     1
  0
XRECORD
  5
1577A
102
{ACAD_REACTORS
330
15779
102
}
330
15779
100
AcDbXrecord
280
     1
102
RTVSPost2010Prop28
280
     0
102
RTVSPost2010PropOp28
 70
     1
102
RTVSPost2010Prop29
280
     1
102
RTVSPost2010PropOp29
 70
     1
102
RTVSPost2010Prop30
280
     1
102
RTVSPost2010PropOp30
 70
     1
102
RTVSPost2010Prop31
280
     0
102
RTVSPost2010PropOp31
 70
     1
102
RTVSPost2010Prop32
280
     0
102
RTVSPost2010PropOp32
 70
     1
102
RTVSPost2010Prop33
280
     0
102
RTVSPost2010PropOp33
 70
     1
102
RTVSPost2010Prop34
280
     0
102
RTVSPost2010PropOp34
 70
     1
102
RTVSPost2010Prop35
280
     0
102
RTVSPost2010PropOp35
 70
     1
102
RTVSPost2010Prop36
280
     0
102
RTVSPost2010PropOp36
 70
     1
102
RTVSPost2010Prop37
 90
       50
102
RTVSPost2010PropOp37
 70
     1
102
RTVSPost2010Prop38
140
0.0
102
RTVSPost2010PropOp38
 70
     1
102
RTVSPost2010Prop39
140
1.0
102
RTVSPost2010PropOp39
 70
     1
102
RTVSPost2010Prop40
 90
        0
102
RTVSPost2010PropOp40
 70
     1
102
RTVSPost2010Prop41ColorIndex
 90
       18
102
RTVSPost2010Prop41ColorRGB
 90
        0
102
RTVSPost2010PropOp41
 70
     1
102
RTVSPost2010Prop42
 90
       50
102
RTVSPost2010PropOp42
 70
     1
102
RTVSPost2010Prop43
 90
        3
102
RTVSPost2010PropOp43
 70
     1
102
RTVSPost2010Prop44ColorIndex
 90
        5
102
RTVSPost2010Prop44ColorRGB
 90
      255
102
RTVSPost2010PropOp44
 70
     1
102
RTVSPost2010Prop45
280
     0
102
RTVSPost2010PropOp45
 70
     1
102
RTVSPost2010Prop46
 90
       50
102
RTVSPost2010PropOp46
 70
     1
102
RTVSPost2010Prop47
 90
       50
102
RTVSPost2010PropOp47
 70
     1
102
RTVSPost2010Prop48
 90
       50
102
RTVSPost2010PropOp48
 70
     1
102
RTVSPost2010Prop49
280
     0
102
RTVSPost2010PropOp49
 70
     1
102
RTVSPost2010Prop50
 90
       50
102
RTVSPost2010PropOp50
 70
     1
102
RTVSPost2010Prop51ColorIndex
 90
      256
102
RTVSPost2010Prop51ColorRGB
 90
-16777216
102
RTVSPost2010PropOp51
 70
     0
102
RTVSPost2010Prop52
140
1.0
102
RTVSPost2010PropOp52
 70
     0
102
RTVSPost2010Prop53
 90
        2
102
RTVSPost2010PropOp53
 70
     1
102
RTVSPost2010Prop54
  1
strokes_ogs.tif
102
RTVSPost2010PropOp54
 70
     1
102
RTVSPost2010Prop55
280
     0
102
RTVSPost2010PropOp55
 70
     1
102
RTVSPost2010Prop56
140
1.0
102
RTVSPost2010PropOp56
 70
     1
102
RTVSPost2010Prop57
140
1.0
102
RTVSPost2010PropOp57
 70
     1
102
RTVSPropertyOp0
 70
     1
102
RTVSPropertyOp1
 70
     1
102
RTVSPropertyOp2
 70
     1
102
RTVSPropertyOp3
 70
     1
102
RTVSPropertyOp4
 70
     1
102
RTVSPropertyOp5
 70
     1
102
RTVSPropertyOp6
 70
     1
102
RTVSPropertyOp7
 70
     1
102
RTVSPropertyOp8
 70
     1
102
RTVSPropertyOp9
 70
     1
102
RTVSPropertyOp10
 70
     1
102
RTVSPropertyOp11
 70
     1
102
RTVSPropertyOp12
 70
     1
102
RTVSPropertyOp13
 70
     1
102
RTVSPropertyOp14
 70
     1
102
RTVSPropertyOp15
 70
     1
102
RTVSPropertyOp16
 70
     1
102
RTVSPropertyOp17
 70
     1
102
RTVSPropertyOp18
 70
     1
102
RTVSPropertyOp19
 70
     1
102
RTVSPropertyOp20
 70
     1
102
RTVSPropertyOp21
 70
     1
102
RTVSPropertyOp22
 70
     1
102
RTVSPropertyOp23
 70
     1
102
RTVSPropertyOp24
 70
     1
102
RTVSPropertyOp25
 70
     1
102
RTVSPropertyOp26
 70
     1
102
RTVSPropertyOp27
 70
     1
102
RTVSPropertyOp28
 70
     1
102
RTVSPropertyOp29
 70
     1
102
RTVSPropertyOp30
 70
     1
102
RTVSPropertyOp31
 70
     1
102
RTVSPropertyOp32
 70
     1
102
RTVSPropertyOp33
 70
     1
102
RTVSPropertyOp34
 70
     1
102
RTVSPropertyOp35
 70
     1
102
RTVSPropertyOp36
 70
     1
102
RTVSPropertyOp37
 70
     1
102
RTVSPropertyOp38
 70
     1
102
RTVSPropertyOp39
 70
     1
102
RTVSPropertyOp40
 70
     1
102
RTVSPropertyOp41
 70
     1
102
RTVSPropertyOp42
 70
     1
102
RTVSPropertyOp43
 70
     1
102
RTVSPropertyOp44
 70
     1
102
RTVSPropertyOp45
 70
     1
102
RTVSPropertyOp46
 70
     1
102
RTVSPropertyOp47
 70
     1
102
RTVSPropertyOp48
 70
     1
102
RTVSPropertyOp49
 70
     1
102
RTVSPropertyOp50
 70
     1
102
RTVSPropertyOp51
 70
     0
102
RTVSPropertyOp52
 70
     0
102
RTVSPropertyOp53
 70
     1
102
RTVSPropertyOp54
 70
     1
102
RTVSPropertyOp55
 70
     1
102
RTVSPropertyOp56
 70
     1
102
RTVSPropertyOp57
 70
     1
102
RTVSPropertyOp58
 70
     1
102
RTVSPropertyOp59
 70
     1
102
RTVSPropertyOp60
 70
     1
102
RTVSPropertyOp61
 70
     1
102
RTVSPropertyOp62
 70
     1
  0
XRECORD
  5
1576C
102
{ACAD_REACTORS
330
1576B
102
}
330
1576B
100
AcDbXrecord
280
     1
102
RTVSPost2010Prop28
280
     0
102
RTVSPost2010PropOp28
 70
     1
102
RTVSPost2010Prop29
280
     1
102
RTVSPost2010PropOp29
 70
     1
102
RTVSPost2010Prop30
280
     1
102
RTVSPost2010PropOp30
 70
     1
102
RTVSPost2010Prop31
280
     0
102
RTVSPost2010PropOp31
 70
     1
102
RTVSPost2010Prop32
280
     0
102
RTVSPost2010PropOp32
 70
     1
102
RTVSPost2010Prop33
280
     0
102
RTVSPost2010PropOp33
 70
     1
102
RTVSPost2010Prop34
280
     0
102
RTVSPost2010PropOp34
 70
     1
102
RTVSPost2010Prop35
280
     0
102
RTVSPost2010PropOp35
 70
     1
102
RTVSPost2010Prop36
280
     0
102
RTVSPost2010PropOp36
 70
     1
102
RTVSPost2010Prop37
 90
       50
102
RTVSPost2010PropOp37
 70
     1
102
RTVSPost2010Prop38
140
0.0
102
RTVSPost2010PropOp38
 70
     1
102
RTVSPost2010Prop39
140
1.0
102
RTVSPost2010PropOp39
 70
     1
102
RTVSPost2010Prop40
 90
        0
102
RTVSPost2010PropOp40
 70
     1
102
RTVSPost2010Prop41ColorIndex
 90
       18
102
RTVSPost2010Prop41ColorRGB
 90
        0
102
RTVSPost2010PropOp41
 70
     1
102
RTVSPost2010Prop42
 90
       50
102
RTVSPost2010PropOp42
 70
     1
102
RTVSPost2010Prop43
 90
        3
102
RTVSPost2010PropOp43
 70
     1
102
RTVSPost2010Prop44ColorIndex
 90
        5
102
RTVSPost2010Prop44ColorRGB
 90
      255
102
RTVSPost2010PropOp44
 70
     1
102
RTVSPost2010Prop45
280
     0
102
RTVSPost2010PropOp45
 70
     1
102
RTVSPost2010Prop46
 90
       50
102
RTVSPost2010PropOp46
 70
     1
102
RTVSPost2010Prop47
 90
       50
102
RTVSPost2010PropOp47
 70
     1
102
RTVSPost2010Prop48
 90
       50
102
RTVSPost2010PropOp48
 70
     1
102
RTVSPost2010Prop49
280
     0
102
RTVSPost2010PropOp49
 70
     1
102
RTVSPost2010Prop50
 90
       50
102
RTVSPost2010PropOp50
 70
     1
102
RTVSPost2010Prop51ColorIndex
 90
      256
102
RTVSPost2010Prop51ColorRGB
 90
-16777216
102
RTVSPost2010PropOp51
 70
     0
102
RTVSPost2010Prop52
140
1.0
102
RTVSPost2010PropOp52
 70
     0
102
RTVSPost2010Prop53
 90
        2
102
RTVSPost2010PropOp53
 70
     1
102
RTVSPost2010Prop54
  1
strokes_ogs.tif
102
RTVSPost2010PropOp54
 70
     1
102
RTVSPost2010Prop55
280
     0
102
RTVSPost2010PropOp55
 70
     1
102
RTVSPost2010Prop56
140
1.0
102
RTVSPost2010PropOp56
 70
     1
102
RTVSPost2010Prop57
140
1.0
102
RTVSPost2010PropOp57
 70
     1
102
RTVSPropertyOp0
 70
     1
102
RTVSPropertyOp1
 70
     1
102
RTVSPropertyOp2
 70
     1
102
RTVSPropertyOp3
 70
     1
102
RTVSPropertyOp4
 70
     1
102
RTVSPropertyOp5
 70
     1
102
RTVSPropertyOp6
 70
     1
102
RTVSPropertyOp7
 70
     1
102
RTVSPropertyOp8
 70
     1
102
RTVSPropertyOp9
 70
     1
102
RTVSPropertyOp10
 70
     1
102
RTVSPropertyOp11
 70
     1
102
RTVSPropertyOp12
 70
     1
102
RTVSPropertyOp13
 70
     1
102
RTVSPropertyOp14
 70
     1
102
RTVSPropertyOp15
 70
     1
102
RTVSPropertyOp16
 70
     1
102
RTVSPropertyOp17
 70
     1
102
RTVSPropertyOp18
 70
     1
102
RTVSPropertyOp19
 70
     1
102
RTVSPropertyOp20
 70
     1
102
RTVSPropertyOp21
 70
     1
102
RTVSPropertyOp22
 70
     1
102
RTVSPropertyOp23
 70
     1
102
RTVSPropertyOp24
 70
     1
102
RTVSPropertyOp25
 70
     1
102
RTVSPropertyOp26
 70
     1
102
RTVSPropertyOp27
 70
     1
102
RTVSPropertyOp28
 70
     1
102
RTVSPropertyOp29
 70
     1
102
RTVSPropertyOp30
 70
     1
102
RTVSPropertyOp31
 70
     1
102
RTVSPropertyOp32
 70
     1
102
RTVSPropertyOp33
 70
     1
102
RTVSPropertyOp34
 70
     1
102
RTVSPropertyOp35
 70
     1
102
RTVSPropertyOp36
 70
     1
102
RTVSPropertyOp37
 70
     1
102
RTVSPropertyOp38
 70
     1
102
RTVSPropertyOp39
 70
     1
102
RTVSPropertyOp40
 70
     1
102
RTVSPropertyOp41
 70
     1
102
RTVSPropertyOp42
 70
     1
102
RTVSPropertyOp43
 70
     1
102
RTVSPropertyOp44
 70
     1
102
RTVSPropertyOp45
 70
     1
102
RTVSPropertyOp46
 70
     1
102
RTVSPropertyOp47
 70
     1
102
RTVSPropertyOp48
 70
     1
102
RTVSPropertyOp49
 70
     1
102
RTVSPropertyOp50
 70
     1
102
RTVSPropertyOp51
 70
     0
102
RTVSPropertyOp52
 70
     0
102
RTVSPropertyOp53
 70
     1
102
RTVSPropertyOp54
 70
     1
102
RTVSPropertyOp55
 70
     1
102
RTVSPropertyOp56
 70
     1
102
RTVSPropertyOp57
 70
     1
102
RTVSPropertyOp58
 70
     1
102
RTVSPropertyOp59
 70
     1
102
RTVSPropertyOp60
 70
     1
102
RTVSPropertyOp61
 70
     1
102
RTVSPropertyOp62
 70
     1
  0
XRECORD
  5
15770
102
{ACAD_REACTORS
330
1576F
102
}
330
1576F
100
AcDbXrecord
280
     1
102
RTVSPost2010Prop28
280
     0
102
RTVSPost2010PropOp28
 70
     1
102
RTVSPost2010Prop29
280
     1
102
RTVSPost2010PropOp29
 70
     1
102
RTVSPost2010Prop30
280
     1
102
RTVSPost2010PropOp30
 70
     1
102
RTVSPost2010Prop31
280
     0
102
RTVSPost2010PropOp31
 70
     1
102
RTVSPost2010Prop32
280
     0
102
RTVSPost2010PropOp32
 70
     1
102
RTVSPost2010Prop33
280
     0
102
RTVSPost2010PropOp33
 70
     1
102
RTVSPost2010Prop34
280
     0
102
RTVSPost2010PropOp34
 70
     1
102
RTVSPost2010Prop35
280
     0
102
RTVSPost2010PropOp35
 70
     1
102
RTVSPost2010Prop36
280
     0
102
RTVSPost2010PropOp36
 70
     1
102
RTVSPost2010Prop37
 90
       50
102
RTVSPost2010PropOp37
 70
     1
102
RTVSPost2010Prop38
140
0.0
102
RTVSPost2010PropOp38
 70
     1
102
RTVSPost2010Prop39
140
1.0
102
RTVSPost2010PropOp39
 70
     1
102
RTVSPost2010Prop40
 90
        0
102
RTVSPost2010PropOp40
 70
     1
102
RTVSPost2010Prop41ColorIndex
 90
       18
102
RTVSPost2010Prop41ColorRGB
 90
        0
102
RTVSPost2010PropOp41
 70
     1
102
RTVSPost2010Prop42
 90
       50
102
RTVSPost2010PropOp42
 70
     1
102
RTVSPost2010Prop43
 90
        3
102
RTVSPost2010PropOp43
 70
     1
102
RTVSPost2010Prop44ColorIndex
 90
        5
102
RTVSPost2010Prop44ColorRGB
 90
      255
102
RTVSPost2010PropOp44
 70
     1
102
RTVSPost2010Prop45
280
     0
102
RTVSPost2010PropOp45
 70
     1
102
RTVSPost2010Prop46
 90
       50
102
RTVSPost2010PropOp46
 70
     1
102
RTVSPost2010Prop47
 90
       50
102
RTVSPost2010PropOp47
 70
     1
102
RTVSPost2010Prop48
 90
       50
102
RTVSPost2010PropOp48
 70
     1
102
RTVSPost2010Prop49
280
     0
102
RTVSPost2010PropOp49
 70
     1
102
RTVSPost2010Prop50
 90
       50
102
RTVSPost2010PropOp50
 70
     1
102
RTVSPost2010Prop51ColorIndex
 90
      256
102
RTVSPost2010Prop51ColorRGB
 90
-16777216
102
RTVSPost2010PropOp51
 70
     0
102
RTVSPost2010Prop52
140
1.0
102
RTVSPost2010PropOp52
 70
     0
102
RTVSPost2010Prop53
 90
        2
102
RTVSPost2010PropOp53
 70
     1
102
RTVSPost2010Prop54
  1
strokes_ogs.tif
102
RTVSPost2010PropOp54
 70
     1
102
RTVSPost2010Prop55
280
     0
102
RTVSPost2010PropOp55
 70
     1
102
RTVSPost2010Prop56
140
1.0
102
RTVSPost2010PropOp56
 70
     1
102
RTVSPost2010Prop57
140
1.0
102
RTVSPost2010PropOp57
 70
     1
102
RTVSPropertyOp0
 70
     1
102
RTVSPropertyOp1
 70
     1
102
RTVSPropertyOp2
 70
     1
102
RTVSPropertyOp3
 70
     1
102
RTVSPropertyOp4
 70
     1
102
RTVSPropertyOp5
 70
     1
102
RTVSPropertyOp6
 70
     1
102
RTVSPropertyOp7
 70
     1
102
RTVSPropertyOp8
 70
     1
102
RTVSPropertyOp9
 70
     1
102
RTVSPropertyOp10
 70
     1
102
RTVSPropertyOp11
 70
     1
102
RTVSPropertyOp12
 70
     1
102
RTVSPropertyOp13
 70
     1
102
RTVSPropertyOp14
 70
     1
102
RTVSPropertyOp15
 70
     1
102
RTVSPropertyOp16
 70
     1
102
RTVSPropertyOp17
 70
     1
102
RTVSPropertyOp18
 70
     1
102
RTVSPropertyOp19
 70
     1
102
RTVSPropertyOp20
 70
     1
102
RTVSPropertyOp21
 70
     1
102
RTVSPropertyOp22
 70
     1
102
RTVSPropertyOp23
 70
     1
102
RTVSPropertyOp24
 70
     1
102
RTVSPropertyOp25
 70
     1
102
RTVSPropertyOp26
 70
     1
102
RTVSPropertyOp27
 70
     1
102
RTVSPropertyOp28
 70
     1
102
RTVSPropertyOp29
 70
     1
102
RTVSPropertyOp30
 70
     1
102
RTVSPropertyOp31
 70
     1
102
RTVSPropertyOp32
 70
     1
102
RTVSPropertyOp33
 70
     1
102
RTVSPropertyOp34
 70
     1
102
RTVSPropertyOp35
 70
     1
102
RTVSPropertyOp36
 70
     1
102
RTVSPropertyOp37
 70
     1
102
RTVSPropertyOp38
 70
     1
102
RTVSPropertyOp39
 70
     1
102
RTVSPropertyOp40
 70
     1
102
RTVSPropertyOp41
 70
     1
102
RTVSPropertyOp42
 70
     1
102
RTVSPropertyOp43
 70
     1
102
RTVSPropertyOp44
 70
     1
102
RTVSPropertyOp45
 70
     1
102
RTVSPropertyOp46
 70
     1
102
RTVSPropertyOp47
 70
     1
102
RTVSPropertyOp48
 70
     1
102
RTVSPropertyOp49
 70
     1
102
RTVSPropertyOp50
 70
     1
102
RTVSPropertyOp51
 70
     0
102
RTVSPropertyOp52
 70
     0
102
RTVSPropertyOp53
 70
     1
102
RTVSPropertyOp54
 70
     1
102
RTVSPropertyOp55
 70
     1
102
RTVSPropertyOp56
 70
     1
102
RTVSPropertyOp57
 70
     1
102
RTVSPropertyOp58
 70
     1
102
RTVSPropertyOp59
 70
     1
102
RTVSPropertyOp60
 70
     1
102
RTVSPropertyOp61
 70
     1
102
RTVSPropertyOp62
 70
     1
  0
XRECORD
  5
1578A
102
{ACAD_REACTORS
330
15789
102
}
330
15789
100
AcDbXrecord
280
     1
102
RTVSPost2010Prop28
280
     0
102
RTVSPost2010PropOp28
 70
     0
102
RTVSPost2010Prop29
280
     1
102
RTVSPost2010PropOp29
 70
     0
102
RTVSPost2010Prop30
280
     1
102
RTVSPost2010PropOp30
 70
     0
102
RTVSPost2010Prop31
280
     0
102
RTVSPost2010PropOp31
 70
     0
102
RTVSPost2010Prop32
280
     0
102
RTVSPost2010PropOp32
 70
     0
102
RTVSPost2010Prop33
280
     0
102
RTVSPost2010PropOp33
 70
     0
102
RTVSPost2010Prop34
280
     0
102
RTVSPost2010PropOp34
 70
     0
102
RTVSPost2010Prop35
280
     0
102
RTVSPost2010PropOp35
 70
     0
102
RTVSPost2010Prop36
280
     0
102
RTVSPost2010PropOp36
 70
     0
102
RTVSPost2010Prop37
 90
       50
102
RTVSPost2010PropOp37
 70
     0
102
RTVSPost2010Prop38
140
0.0
102
RTVSPost2010PropOp38
 70
     0
102
RTVSPost2010Prop39
140
1.0
102
RTVSPost2010PropOp39
 70
     0
102
RTVSPost2010Prop40
 90
        0
102
RTVSPost2010PropOp40
 70
     0
102
RTVSPost2010Prop41ColorIndex
 90
       18
102
RTVSPost2010Prop41ColorRGB
 90
        0
102
RTVSPost2010PropOp41
 70
     0
102
RTVSPost2010Prop42
 90
       50
102
RTVSPost2010PropOp42
 70
     0
102
RTVSPost2010Prop43
 90
        3
102
RTVSPost2010PropOp43
 70
     0
102
RTVSPost2010Prop44ColorIndex
 90
        5
102
RTVSPost2010Prop44ColorRGB
 90
      255
102
RTVSPost2010PropOp44
 70
     0
102
RTVSPost2010Prop45
280
     0
102
RTVSPost2010PropOp45
 70
     0
102
RTVSPost2010Prop46
 90
       50
102
RTVSPost2010PropOp46
 70
     0
102
RTVSPost2010Prop47
 90
       50
102
RTVSPost2010PropOp47
 70
     0
102
RTVSPost2010Prop48
 90
       50
102
RTVSPost2010PropOp48
 70
     0
102
RTVSPost2010Prop49
280
     0
102
RTVSPost2010PropOp49
 70
     0
102
RTVSPost2010Prop50
 90
       50
102
RTVSPost2010PropOp50
 70
     0
102
RTVSPost2010Prop51ColorIndex
 90
      256
102
RTVSPost2010Prop51ColorRGB
 90
-16777216
102
RTVSPost2010PropOp51
 70
     0
102
RTVSPost2010Prop52
140
1.0
102
RTVSPost2010PropOp52
 70
     0
102
RTVSPost2010Prop53
 90
        2
102
RTVSPost2010PropOp53
 70
     0
102
RTVSPost2010Prop54
  1
strokes_ogs.tif
102
RTVSPost2010PropOp54
 70
     0
102
RTVSPost2010Prop55
280
     0
102
RTVSPost2010PropOp55
 70
     0
102
RTVSPost2010Prop56
140
1.0
102
RTVSPost2010PropOp56
 70
     0
102
RTVSPost2010Prop57
140
1.0
102
RTVSPost2010PropOp57
 70
     0
102
RTVSPropertyOp0
 70
     0
102
RTVSPropertyOp1
 70
     0
102
RTVSPropertyOp2
 70
     0
102
RTVSPropertyOp3
 70
     0
102
RTVSPropertyOp4
 70
     0
102
RTVSPropertyOp5
 70
     0
102
RTVSPropertyOp6
 70
     0
102
RTVSPropertyOp7
 70
     0
102
RTVSPropertyOp8
 70
     0
102
RTVSPropertyOp9
 70
     0
102
RTVSPropertyOp10
 70
     0
102
RTVSPropertyOp11
 70
     0
102
RTVSPropertyOp12
 70
     0
102
RTVSPropertyOp13
 70
     0
102
RTVSPropertyOp14
 70
     2
102
RTVSPropertyOp15
 70
     0
102
RTVSPropertyOp16
 70
     0
102
RTVSPropertyOp17
 70
     0
102
RTVSPropertyOp18
 70
     0
102
RTVSPropertyOp19
 70
     0
102
RTVSPropertyOp20
 70
     0
102
RTVSPropertyOp21
 70
     0
102
RTVSPropertyOp22
 70
     0
102
RTVSPropertyOp23
 70
     0
102
RTVSPropertyOp24
 70
     0
102
RTVSPropertyOp25
 70
     0
102
RTVSPropertyOp26
 70
     0
102
RTVSPropertyOp27
 70
     0
102
RTVSPropertyOp28
 70
     0
102
RTVSPropertyOp29
 70
     0
102
RTVSPropertyOp30
 70
     0
102
RTVSPropertyOp31
 70
     0
102
RTVSPropertyOp32
 70
     0
102
RTVSPropertyOp33
 70
     0
102
RTVSPropertyOp34
 70
     0
102
RTVSPropertyOp35
 70
     0
102
RTVSPropertyOp36
 70
     0
102
RTVSPropertyOp37
 70
     0
102
RTVSPropertyOp38
 70
     0
102
RTVSPropertyOp39
 70
     0
102
RTVSPropertyOp40
 70
     0
102
RTVSPropertyOp41
 70
     0
102
RTVSPropertyOp42
 70
     0
102
RTVSPropertyOp43
 70
     0
102
RTVSPropertyOp44
 70
     0
102
RTVSPropertyOp45
 70
     0
102
RTVSPropertyOp46
 70
     0
102
RTVSPropertyOp47
 70
     0
102
RTVSPropertyOp48
 70
     0
102
RTVSPropertyOp49
 70
     0
102
RTVSPropertyOp50
 70
     0
102
RTVSPropertyOp51
 70
     0
102
RTVSPropertyOp52
 70
     0
102
RTVSPropertyOp53
 70
     0
102
RTVSPropertyOp54
 70
     0
102
RTVSPropertyOp55
 70
     0
102
RTVSPropertyOp56
 70
     0
102
RTVSPropertyOp57
 70
     0
102
RTVSPropertyOp58
 70
     0
102
RTVSPropertyOp59
 70
     0
102
RTVSPropertyOp60
 70
     0
102
RTVSPropertyOp61
 70
     0
102
RTVSPropertyOp62
 70
     0
  0
XRECORD
  5
15778
102
{ACAD_REACTORS
330
15777
102
}
330
15777
100
AcDbXrecord
280
     1
102
RTVSPost2010Prop28
280
     0
102
RTVSPost2010PropOp28
 70
     1
102
RTVSPost2010Prop29
280
     1
102
RTVSPost2010PropOp29
 70
     1
102
RTVSPost2010Prop30
280
     1
102
RTVSPost2010PropOp30
 70
     1
102
RTVSPost2010Prop31
280
     0
102
RTVSPost2010PropOp31
 70
     1
102
RTVSPost2010Prop32
280
     0
102
RTVSPost2010PropOp32
 70
     1
102
RTVSPost2010Prop33
280
     0
102
RTVSPost2010PropOp33
 70
     1
102
RTVSPost2010Prop34
280
     0
102
RTVSPost2010PropOp34
 70
     1
102
RTVSPost2010Prop35
280
     0
102
RTVSPost2010PropOp35
 70
     1
102
RTVSPost2010Prop36
280
     0
102
RTVSPost2010PropOp36
 70
     1
102
RTVSPost2010Prop37
 90
       50
102
RTVSPost2010PropOp37
 70
     1
102
RTVSPost2010Prop38
140
0.0
102
RTVSPost2010PropOp38
 70
     1
102
RTVSPost2010Prop39
140
1.0
102
RTVSPost2010PropOp39
 70
     1
102
RTVSPost2010Prop40
 90
        0
102
RTVSPost2010PropOp40
 70
     1
102
RTVSPost2010Prop41ColorIndex
 90
       18
102
RTVSPost2010Prop41ColorRGB
 90
        0
102
RTVSPost2010PropOp41
 70
     1
102
RTVSPost2010Prop42
 90
       50
102
RTVSPost2010PropOp42
 70
     1
102
RTVSPost2010Prop43
 90
        3
102
RTVSPost2010PropOp43
 70
     1
102
RTVSPost2010Prop44ColorIndex
 90
        5
102
RTVSPost2010Prop44ColorRGB
 90
      255
102
RTVSPost2010PropOp44
 70
     1
102
RTVSPost2010Prop45
280
     0
102
RTVSPost2010PropOp45
 70
     1
102
RTVSPost2010Prop46
 90
       50
102
RTVSPost2010PropOp46
 70
     1
102
RTVSPost2010Prop47
 90
       50
102
RTVSPost2010PropOp47
 70
     1
102
RTVSPost2010Prop48
 90
       50
102
RTVSPost2010PropOp48
 70
     1
102
RTVSPost2010Prop49
280
     0
102
RTVSPost2010PropOp49
 70
     1
102
RTVSPost2010Prop50
 90
       50
102
RTVSPost2010PropOp50
 70
     1
102
RTVSPost2010Prop51ColorIndex
 90
      256
102
RTVSPost2010Prop51ColorRGB
 90
-16777216
102
RTVSPost2010PropOp51
 70
     0
102
RTVSPost2010Prop52
140
1.0
102
RTVSPost2010PropOp52
 70
     0
102
RTVSPost2010Prop53
 90
        2
102
RTVSPost2010PropOp53
 70
     1
102
RTVSPost2010Prop54
  1
strokes_ogs.tif
102
RTVSPost2010PropOp54
 70
     1
102
RTVSPost2010Prop55
280
     0
102
RTVSPost2010PropOp55
 70
     1
102
RTVSPost2010Prop56
140
1.0
102
RTVSPost2010PropOp56
 70
     1
102
RTVSPost2010Prop57
140
1.0
102
RTVSPost2010PropOp57
 70
     1
102
RTVSPropertyOp0
 70
     1
102
RTVSPropertyOp1
 70
     1
102
RTVSPropertyOp2
 70
     1
102
RTVSPropertyOp3
 70
     1
102
RTVSPropertyOp4
 70
     1
102
RTVSPropertyOp5
 70
     1
102
RTVSPropertyOp6
 70
     1
102
RTVSPropertyOp7
 70
     1
102
RTVSPropertyOp8
 70
     1
102
RTVSPropertyOp9
 70
     1
102
RTVSPropertyOp10
 70
     1
102
RTVSPropertyOp11
 70
     1
102
RTVSPropertyOp12
 70
     1
102
RTVSPropertyOp13
 70
     1
102
RTVSPropertyOp14
 70
     1
102
RTVSPropertyOp15
 70
     1
102
RTVSPropertyOp16
 70
     1
102
RTVSPropertyOp17
 70
     1
102
RTVSPropertyOp18
 70
     1
102
RTVSPropertyOp19
 70
     1
102
RTVSPropertyOp20
 70
     1
102
RTVSPropertyOp21
 70
     1
102
RTVSPropertyOp22
 70
     1
102
RTVSPropertyOp23
 70
     1
102
RTVSPropertyOp24
 70
     1
102
RTVSPropertyOp25
 70
     1
102
RTVSPropertyOp26
 70
     1
102
RTVSPropertyOp27
 70
     1
102
RTVSPropertyOp28
 70
     1
102
RTVSPropertyOp29
 70
     1
102
RTVSPropertyOp30
 70
     1
102
RTVSPropertyOp31
 70
     1
102
RTVSPropertyOp32
 70
     1
102
RTVSPropertyOp33
 70
     1
102
RTVSPropertyOp34
 70
     1
102
RTVSPropertyOp35
 70
     1
102
RTVSPropertyOp36
 70
     1
102
RTVSPropertyOp37
 70
     1
102
RTVSPropertyOp38
 70
     1
102
RTVSPropertyOp39
 70
     1
102
RTVSPropertyOp40
 70
     1
102
RTVSPropertyOp41
 70
     1
102
RTVSPropertyOp42
 70
     1
102
RTVSPropertyOp43
 70
     1
102
RTVSPropertyOp44
 70
     1
102
RTVSPropertyOp45
 70
     1
102
RTVSPropertyOp46
 70
     1
102
RTVSPropertyOp47
 70
     1
102
RTVSPropertyOp48
 70
     1
102
RTVSPropertyOp49
 70
     1
102
RTVSPropertyOp50
 70
     1
102
RTVSPropertyOp51
 70
     0
102
RTVSPropertyOp52
 70
     0
102
RTVSPropertyOp53
 70
     1
102
RTVSPropertyOp54
 70
     1
102
RTVSPropertyOp55
 70
     1
102
RTVSPropertyOp56
 70
     1
102
RTVSPropertyOp57
 70
     1
102
RTVSPropertyOp58
 70
     1
102
RTVSPropertyOp59
 70
     1
102
RTVSPropertyOp60
 70
     1
102
RTVSPropertyOp61
 70
     1
102
RTVSPropertyOp62
 70
     1
  0
XRECORD
  5
1575C
102
{ACAD_REACTORS
330
1575B
102
}
330
1575B
100
AcDbXrecord
280
     1
102
RTVSPost2010Prop28
280
     0
102
RTVSPost2010PropOp28
 70
     1
102
RTVSPost2010Prop29
280
     1
102
RTVSPost2010PropOp29
 70
     1
102
RTVSPost2010Prop30
280
     1
102
RTVSPost2010PropOp30
 70
     1
102
RTVSPost2010Prop31
280
     0
102
RTVSPost2010PropOp31
 70
     1
102
RTVSPost2010Prop32
280
     0
102
RTVSPost2010PropOp32
 70
     1
102
RTVSPost2010Prop33
280
     0
102
RTVSPost2010PropOp33
 70
     1
102
RTVSPost2010Prop34
280
     0
102
RTVSPost2010PropOp34
 70
     1
102
RTVSPost2010Prop35
280
     0
102
RTVSPost2010PropOp35
 70
     1
102
RTVSPost2010Prop36
280
     0
102
RTVSPost2010PropOp36
 70
     1
102
RTVSPost2010Prop37
 90
       50
102
RTVSPost2010PropOp37
 70
     1
102
RTVSPost2010Prop38
140
0.0
102
RTVSPost2010PropOp38
 70
     1
102
RTVSPost2010Prop39
140
1.0
102
RTVSPost2010PropOp39
 70
     1
102
RTVSPost2010Prop40
 90
        0
102
RTVSPost2010PropOp40
 70
     1
102
RTVSPost2010Prop41ColorIndex
 90
       18
102
RTVSPost2010Prop41ColorRGB
 90
        0
102
RTVSPost2010PropOp41
 70
     1
102
RTVSPost2010Prop42
 90
       50
102
RTVSPost2010PropOp42
 70
     1
102
RTVSPost2010Prop43
 90
        3
102
RTVSPost2010PropOp43
 70
     1
102
RTVSPost2010Prop44ColorIndex
 90
        5
102
RTVSPost2010Prop44ColorRGB
 90
      255
102
RTVSPost2010PropOp44
 70
     1
102
RTVSPost2010Prop45
280
     0
102
RTVSPost2010PropOp45
 70
     1
102
RTVSPost2010Prop46
 90
       50
102
RTVSPost2010PropOp46
 70
     1
102
RTVSPost2010Prop47
 90
       50
102
RTVSPost2010PropOp47
 70
     1
102
RTVSPost2010Prop48
 90
       50
102
RTVSPost2010PropOp48
 70
     1
102
RTVSPost2010Prop49
280
     0
102
RTVSPost2010PropOp49
 70
     1
102
RTVSPost2010Prop50
 90
       50
102
RTVSPost2010PropOp50
 70
     1
102
RTVSPost2010Prop51ColorIndex
 90
      256
102
RTVSPost2010Prop51ColorRGB
 90
-16777216
102
RTVSPost2010PropOp51
 70
     0
102
RTVSPost2010Prop52
140
1.0
102
RTVSPost2010PropOp52
 70
     0
102
RTVSPost2010Prop53
 90
        2
102
RTVSPost2010PropOp53
 70
     1
102
RTVSPost2010Prop54
  1
strokes_ogs.tif
102
RTVSPost2010PropOp54
 70
     1
102
RTVSPost2010Prop55
280
     0
102
RTVSPost2010PropOp55
 70
     1
102
RTVSPost2010Prop56
140
1.0
102
RTVSPost2010PropOp56
 70
     1
102
RTVSPost2010Prop57
140
1.0
102
RTVSPost2010PropOp57
 70
     1
102
RTVSPropertyOp0
 70
     1
102
RTVSPropertyOp1
 70
     1
102
RTVSPropertyOp2
 70
     1
102
RTVSPropertyOp3
 70
     1
102
RTVSPropertyOp4
 70
     1
102
RTVSPropertyOp5
 70
     1
102
RTVSPropertyOp6
 70
     1
102
RTVSPropertyOp7
 70
     1
102
RTVSPropertyOp8
 70
     1
102
RTVSPropertyOp9
 70
     1
102
RTVSPropertyOp10
 70
     1
102
RTVSPropertyOp11
 70
     1
102
RTVSPropertyOp12
 70
     1
102
RTVSPropertyOp13
 70
     1
102
RTVSPropertyOp14
 70
     1
102
RTVSPropertyOp15
 70
     1
102
RTVSPropertyOp16
 70
     1
102
RTVSPropertyOp17
 70
     1
102
RTVSPropertyOp18
 70
     1
102
RTVSPropertyOp19
 70
     1
102
RTVSPropertyOp20
 70
     1
102
RTVSPropertyOp21
 70
     1
102
RTVSPropertyOp22
 70
     1
102
RTVSPropertyOp23
 70
     1
102
RTVSPropertyOp24
 70
     1
102
RTVSPropertyOp25
 70
     1
102
RTVSPropertyOp26
 70
     1
102
RTVSPropertyOp27
 70
     1
102
RTVSPropertyOp28
 70
     1
102
RTVSPropertyOp29
 70
     1
102
RTVSPropertyOp30
 70
     1
102
RTVSPropertyOp31
 70
     1
102
RTVSPropertyOp32
 70
     1
102
RTVSPropertyOp33
 70
     1
102
RTVSPropertyOp34
 70
     1
102
RTVSPropertyOp35
 70
     1
102
RTVSPropertyOp36
 70
     1
102
RTVSPropertyOp37
 70
     1
102
RTVSPropertyOp38
 70
     1
102
RTVSPropertyOp39
 70
     1
102
RTVSPropertyOp40
 70
     1
102
RTVSPropertyOp41
 70
     1
102
RTVSPropertyOp42
 70
     1
102
RTVSPropertyOp43
 70
     1
102
RTVSPropertyOp44
 70
     1
102
RTVSPropertyOp45
 70
     1
102
RTVSPropertyOp46
 70
     1
102
RTVSPropertyOp47
 70
     1
102
RTVSPropertyOp48
 70
     1
102
RTVSPropertyOp49
 70
     1
102
RTVSPropertyOp50
 70
     1
102
RTVSPropertyOp51
 70
     0
102
RTVSPropertyOp52
 70
     0
102
RTVSPropertyOp53
 70
     1
102
RTVSPropertyOp54
 70
     1
102
RTVSPropertyOp55
 70
     1
102
RTVSPropertyOp56
 70
     1
102
RTVSPropertyOp57
 70
     1
102
RTVSPropertyOp58
 70
     1
102
RTVSPropertyOp59
 70
     1
102
RTVSPropertyOp60
 70
     1
102
RTVSPropertyOp61
 70
     1
102
RTVSPropertyOp62
 70
     1
  0
XRECORD
  5
1575E
102
{ACAD_REACTORS
330
1575D
102
}
330
1575D
100
AcDbXrecord
280
     1
102
RTVSPost2010Prop28
280
     0
102
RTVSPost2010PropOp28
 70
     1
102
RTVSPost2010Prop29
280
     1
102
RTVSPost2010PropOp29
 70
     1
102
RTVSPost2010Prop30
280
     1
102
RTVSPost2010PropOp30
 70
     1
102
RTVSPost2010Prop31
280
     0
102
RTVSPost2010PropOp31
 70
     1
102
RTVSPost2010Prop32
280
     0
102
RTVSPost2010PropOp32
 70
     1
102
RTVSPost2010Prop33
280
     0
102
RTVSPost2010PropOp33
 70
     1
102
RTVSPost2010Prop34
280
     0
102
RTVSPost2010PropOp34
 70
     1
102
RTVSPost2010Prop35
280
     0
102
RTVSPost2010PropOp35
 70
     1
102
RTVSPost2010Prop36
280
     0
102
RTVSPost2010PropOp36
 70
     1
102
RTVSPost2010Prop37
 90
       50
102
RTVSPost2010PropOp37
 70
     1
102
RTVSPost2010Prop38
140
0.0
102
RTVSPost2010PropOp38
 70
     1
102
RTVSPost2010Prop39
140
1.0
102
RTVSPost2010PropOp39
 70
     1
102
RTVSPost2010Prop40
 90
        0
102
RTVSPost2010PropOp40
 70
     1
102
RTVSPost2010Prop41ColorIndex
 90
       18
102
RTVSPost2010Prop41ColorRGB
 90
        0
102
RTVSPost2010PropOp41
 70
     1
102
RTVSPost2010Prop42
 90
       50
102
RTVSPost2010PropOp42
 70
     1
102
RTVSPost2010Prop43
 90
        3
102
RTVSPost2010PropOp43
 70
     1
102
RTVSPost2010Prop44ColorIndex
 90
        5
102
RTVSPost2010Prop44ColorRGB
 90
      255
102
RTVSPost2010PropOp44
 70
     1
102
RTVSPost2010Prop45
280
     0
102
RTVSPost2010PropOp45
 70
     1
102
RTVSPost2010Prop46
 90
       50
102
RTVSPost2010PropOp46
 70
     1
102
RTVSPost2010Prop47
 90
       50
102
RTVSPost2010PropOp47
 70
     1
102
RTVSPost2010Prop48
 90
       50
102
RTVSPost2010PropOp48
 70
     1
102
RTVSPost2010Prop49
280
     0
102
RTVSPost2010PropOp49
 70
     1
102
RTVSPost2010Prop50
 90
       50
102
RTVSPost2010PropOp50
 70
     1
102
RTVSPost2010Prop51ColorIndex
 90
      256
102
RTVSPost2010Prop51ColorRGB
 90
-16777216
102
RTVSPost2010PropOp51
 70
     0
102
RTVSPost2010Prop52
140
1.0
102
RTVSPost2010PropOp52
 70
     0
102
RTVSPost2010Prop53
 90
        2
102
RTVSPost2010PropOp53
 70
     1
102
RTVSPost2010Prop54
  1
strokes_ogs.tif
102
RTVSPost2010PropOp54
 70
     1
102
RTVSPost2010Prop55
280
     0
102
RTVSPost2010PropOp55
 70
     1
102
RTVSPost2010Prop56
140
1.0
102
RTVSPost2010PropOp56
 70
     1
102
RTVSPost2010Prop57
140
1.0
102
RTVSPost2010PropOp57
 70
     1
102
RTVSPropertyOp0
 70
     1
102
RTVSPropertyOp1
 70
     1
102
RTVSPropertyOp2
 70
     1
102
RTVSPropertyOp3
 70
     1
102
RTVSPropertyOp4
 70
     1
102
RTVSPropertyOp5
 70
     1
102
RTVSPropertyOp6
 70
     1
102
RTVSPropertyOp7
 70
     1
102
RTVSPropertyOp8
 70
     1
102
RTVSPropertyOp9
 70
     1
102
RTVSPropertyOp10
 70
     1
102
RTVSPropertyOp11
 70
     1
102
RTVSPropertyOp12
 70
     1
102
RTVSPropertyOp13
 70
     1
102
RTVSPropertyOp14
 70
     1
102
RTVSPropertyOp15
 70
     1
102
RTVSPropertyOp16
 70
     1
102
RTVSPropertyOp17
 70
     1
102
RTVSPropertyOp18
 70
     1
102
RTVSPropertyOp19
 70
     1
102
RTVSPropertyOp20
 70
     1
102
RTVSPropertyOp21
 70
     1
102
RTVSPropertyOp22
 70
     1
102
RTVSPropertyOp23
 70
     1
102
RTVSPropertyOp24
 70
     1
102
RTVSPropertyOp25
 70
     1
102
RTVSPropertyOp26
 70
     1
102
RTVSPropertyOp27
 70
     1
102
RTVSPropertyOp28
 70
     1
102
RTVSPropertyOp29
 70
     1
102
RTVSPropertyOp30
 70
     1
102
RTVSPropertyOp31
 70
     1
102
RTVSPropertyOp32
 70
     1
102
RTVSPropertyOp33
 70
     1
102
RTVSPropertyOp34
 70
     1
102
RTVSPropertyOp35
 70
     1
102
RTVSPropertyOp36
 70
     1
102
RTVSPropertyOp37
 70
     1
102
RTVSPropertyOp38
 70
     1
102
RTVSPropertyOp39
 70
     1
102
RTVSPropertyOp40
 70
     1
102
RTVSPropertyOp41
 70
     1
102
RTVSPropertyOp42
 70
     1
102
RTVSPropertyOp43
 70
     1
102
RTVSPropertyOp44
 70
     1
102
RTVSPropertyOp45
 70
     1
102
RTVSPropertyOp46
 70
     1
102
RTVSPropertyOp47
 70
     1
102
RTVSPropertyOp48
 70
     1
102
RTVSPropertyOp49
 70
     1
102
RTVSPropertyOp50
 70
     1
102
RTVSPropertyOp51
 70
     0
102
RTVSPropertyOp52
 70
     0
102
RTVSPropertyOp53
 70
     1
102
RTVSPropertyOp54
 70
     1
102
RTVSPropertyOp55
 70
     1
102
RTVSPropertyOp56
 70
     1
102
RTVSPropertyOp57
 70
     1
102
RTVSPropertyOp58
 70
     1
102
RTVSPropertyOp59
 70
     1
102
RTVSPropertyOp60
 70
     1
102
RTVSPropertyOp61
 70
     1
102
RTVSPropertyOp62
 70
     1
  0
XRECORD
  5
15760
102
{ACAD_REACTORS
330
1575F
102
}
330
1575F
100
AcDbXrecord
280
     1
102
RTVSPost2010Prop28
280
     0
102
RTVSPost2010PropOp28
 70
     1
102
RTVSPost2010Prop29
280
     1
102
RTVSPost2010PropOp29
 70
     1
102
RTVSPost2010Prop30
280
     1
102
RTVSPost2010PropOp30
 70
     1
102
RTVSPost2010Prop31
280
     0
102
RTVSPost2010PropOp31
 70
     1
102
RTVSPost2010Prop32
280
     0
102
RTVSPost2010PropOp32
 70
     1
102
RTVSPost2010Prop33
280
     0
102
RTVSPost2010PropOp33
 70
     1
102
RTVSPost2010Prop34
280
     0
102
RTVSPost2010PropOp34
 70
     1
102
RTVSPost2010Prop35
280
     0
102
RTVSPost2010PropOp35
 70
     1
102
RTVSPost2010Prop36
280
     0
102
RTVSPost2010PropOp36
 70
     1
102
RTVSPost2010Prop37
 90
       50
102
RTVSPost2010PropOp37
 70
     1
102
RTVSPost2010Prop38
140
0.0
102
RTVSPost2010PropOp38
 70
     1
102
RTVSPost2010Prop39
140
1.0
102
RTVSPost2010PropOp39
 70
     1
102
RTVSPost2010Prop40
 90
        0
102
RTVSPost2010PropOp40
 70
     1
102
RTVSPost2010Prop41ColorIndex
 90
       18
102
RTVSPost2010Prop41ColorRGB
 90
        0
102
RTVSPost2010PropOp41
 70
     1
102
RTVSPost2010Prop42
 90
       50
102
RTVSPost2010PropOp42
 70
     1
102
RTVSPost2010Prop43
 90
        3
102
RTVSPost2010PropOp43
 70
     1
102
RTVSPost2010Prop44ColorIndex
 90
        5
102
RTVSPost2010Prop44ColorRGB
 90
      255
102
RTVSPost2010PropOp44
 70
     1
102
RTVSPost2010Prop45
280
     0
102
RTVSPost2010PropOp45
 70
     1
102
RTVSPost2010Prop46
 90
       50
102
RTVSPost2010PropOp46
 70
     1
102
RTVSPost2010Prop47
 90
       50
102
RTVSPost2010PropOp47
 70
     1
102
RTVSPost2010Prop48
 90
       50
102
RTVSPost2010PropOp48
 70
     1
102
RTVSPost2010Prop49
280
     0
102
RTVSPost2010PropOp49
 70
     1
102
RTVSPost2010Prop50
 90
       50
102
RTVSPost2010PropOp50
 70
     1
102
RTVSPost2010Prop51ColorIndex
 90
      256
102
RTVSPost2010Prop51ColorRGB
 90
-16777216
102
RTVSPost2010PropOp51
 70
     0
102
RTVSPost2010Prop52
140
1.0
102
RTVSPost2010PropOp52
 70
     0
102
RTVSPost2010Prop53
 90
        2
102
RTVSPost2010PropOp53
 70
     1
102
RTVSPost2010Prop54
  1
strokes_ogs.tif
102
RTVSPost2010PropOp54
 70
     1
102
RTVSPost2010Prop55
280
     0
102
RTVSPost2010PropOp55
 70
     1
102
RTVSPost2010Prop56
140
1.0
102
RTVSPost2010PropOp56
 70
     1
102
RTVSPost2010Prop57
140
1.0
102
RTVSPost2010PropOp57
 70
     1
102
RTVSPropertyOp0
 70
     1
102
RTVSPropertyOp1
 70
     1
102
RTVSPropertyOp2
 70
     1
102
RTVSPropertyOp3
 70
     1
102
RTVSPropertyOp4
 70
     1
102
RTVSPropertyOp5
 70
     1
102
RTVSPropertyOp6
 70
     1
102
RTVSPropertyOp7
 70
     1
102
RTVSPropertyOp8
 70
     1
102
RTVSPropertyOp9
 70
     1
102
RTVSPropertyOp10
 70
     1
102
RTVSPropertyOp11
 70
     1
102
RTVSPropertyOp12
 70
     1
102
RTVSPropertyOp13
 70
     1
102
RTVSPropertyOp14
 70
     1
102
RTVSPropertyOp15
 70
     1
102
RTVSPropertyOp16
 70
     1
102
RTVSPropertyOp17
 70
     1
102
RTVSPropertyOp18
 70
     1
102
RTVSPropertyOp19
 70
     1
102
RTVSPropertyOp20
 70
     1
102
RTVSPropertyOp21
 70
     1
102
RTVSPropertyOp22
 70
     1
102
RTVSPropertyOp23
 70
     1
102
RTVSPropertyOp24
 70
     1
102
RTVSPropertyOp25
 70
     1
102
RTVSPropertyOp26
 70
     1
102
RTVSPropertyOp27
 70
     1
102
RTVSPropertyOp28
 70
     1
102
RTVSPropertyOp29
 70
     1
102
RTVSPropertyOp30
 70
     1
102
RTVSPropertyOp31
 70
     1
102
RTVSPropertyOp32
 70
     1
102
RTVSPropertyOp33
 70
     1
102
RTVSPropertyOp34
 70
     1
102
RTVSPropertyOp35
 70
     1
102
RTVSPropertyOp36
 70
     1
102
RTVSPropertyOp37
 70
     1
102
RTVSPropertyOp38
 70
     1
102
RTVSPropertyOp39
 70
     1
102
RTVSPropertyOp40
 70
     1
102
RTVSPropertyOp41
 70
     1
102
RTVSPropertyOp42
 70
     1
102
RTVSPropertyOp43
 70
     1
102
RTVSPropertyOp44
 70
     1
102
RTVSPropertyOp45
 70
     1
102
RTVSPropertyOp46
 70
     1
102
RTVSPropertyOp47
 70
     1
102
RTVSPropertyOp48
 70
     1
102
RTVSPropertyOp49
 70
     1
102
RTVSPropertyOp50
 70
     1
102
RTVSPropertyOp51
 70
     0
102
RTVSPropertyOp52
 70
     0
102
RTVSPropertyOp53
 70
     1
102
RTVSPropertyOp54
 70
     1
102
RTVSPropertyOp55
 70
     1
102
RTVSPropertyOp56
 70
     1
102
RTVSPropertyOp57
 70
     1
102
RTVSPropertyOp58
 70
     1
102
RTVSPropertyOp59
 70
     1
102
RTVSPropertyOp60
 70
     1
102
RTVSPropertyOp61
 70
     1
102
RTVSPropertyOp62
 70
     1
  0
XRECORD
  5
15762
102
{ACAD_REACTORS
330
15761
102
}
330
15761
100
AcDbXrecord
280
     1
102
RTVSPost2010Prop28
280
     0
102
RTVSPost2010PropOp28
 70
     1
102
RTVSPost2010Prop29
280
     1
102
RTVSPost2010PropOp29
 70
     1
102
RTVSPost2010Prop30
280
     1
102
RTVSPost2010PropOp30
 70
     1
102
RTVSPost2010Prop31
280
     0
102
RTVSPost2010PropOp31
 70
     1
102
RTVSPost2010Prop32
280
     0
102
RTVSPost2010PropOp32
 70
     1
102
RTVSPost2010Prop33
280
     0
102
RTVSPost2010PropOp33
 70
     1
102
RTVSPost2010Prop34
280
     0
102
RTVSPost2010PropOp34
 70
     1
102
RTVSPost2010Prop35
280
     0
102
RTVSPost2010PropOp35
 70
     1
102
RTVSPost2010Prop36
280
     0
102
RTVSPost2010PropOp36
 70
     1
102
RTVSPost2010Prop37
 90
       50
102
RTVSPost2010PropOp37
 70
     1
102
RTVSPost2010Prop38
140
0.0
102
RTVSPost2010PropOp38
 70
     1
102
RTVSPost2010Prop39
140
1.0
102
RTVSPost2010PropOp39
 70
     1
102
RTVSPost2010Prop40
 90
        0
102
RTVSPost2010PropOp40
 70
     1
102
RTVSPost2010Prop41ColorIndex
 90
       18
102
RTVSPost2010Prop41ColorRGB
 90
        0
102
RTVSPost2010PropOp41
 70
     1
102
RTVSPost2010Prop42
 90
       50
102
RTVSPost2010PropOp42
 70
     1
102
RTVSPost2010Prop43
 90
        3
102
RTVSPost2010PropOp43
 70
     1
102
RTVSPost2010Prop44ColorIndex
 90
        5
102
RTVSPost2010Prop44ColorRGB
 90
      255
102
RTVSPost2010PropOp44
 70
     1
102
RTVSPost2010Prop45
280
     0
102
RTVSPost2010PropOp45
 70
     1
102
RTVSPost2010Prop46
 90
       50
102
RTVSPost2010PropOp46
 70
     1
102
RTVSPost2010Prop47
 90
       50
102
RTVSPost2010PropOp47
 70
     1
102
RTVSPost2010Prop48
 90
       50
102
RTVSPost2010PropOp48
 70
     1
102
RTVSPost2010Prop49
280
     0
102
RTVSPost2010PropOp49
 70
     1
102
RTVSPost2010Prop50
 90
       50
102
RTVSPost2010PropOp50
 70
     1
102
RTVSPost2010Prop51ColorIndex
 90
      256
102
RTVSPost2010Prop51ColorRGB
 90
-16777216
102
RTVSPost2010PropOp51
 70
     0
102
RTVSPost2010Prop52
140
1.0
102
RTVSPost2010PropOp52
 70
     0
102
RTVSPost2010Prop53
 90
        2
102
RTVSPost2010PropOp53
 70
     1
102
RTVSPost2010Prop54
  1
strokes_ogs.tif
102
RTVSPost2010PropOp54
 70
     1
102
RTVSPost2010Prop55
280
     0
102
RTVSPost2010PropOp55
 70
     1
102
RTVSPost2010Prop56
140
1.0
102
RTVSPost2010PropOp56
 70
     1
102
RTVSPost2010Prop57
140
1.0
102
RTVSPost2010PropOp57
 70
     1
102
RTVSPropertyOp0
 70
     1
102
RTVSPropertyOp1
 70
     1
102
RTVSPropertyOp2
 70
     1
102
RTVSPropertyOp3
 70
     1
102
RTVSPropertyOp4
 70
     1
102
RTVSPropertyOp5
 70
     1
102
RTVSPropertyOp6
 70
     1
102
RTVSPropertyOp7
 70
     1
102
RTVSPropertyOp8
 70
     1
102
RTVSPropertyOp9
 70
     1
102
RTVSPropertyOp10
 70
     1
102
RTVSPropertyOp11
 70
     1
102
RTVSPropertyOp12
 70
     1
102
RTVSPropertyOp13
 70
     1
102
RTVSPropertyOp14
 70
     1
102
RTVSPropertyOp15
 70
     1
102
RTVSPropertyOp16
 70
     1
102
RTVSPropertyOp17
 70
     1
102
RTVSPropertyOp18
 70
     1
102
RTVSPropertyOp19
 70
     1
102
RTVSPropertyOp20
 70
     1
102
RTVSPropertyOp21
 70
     1
102
RTVSPropertyOp22
 70
     1
102
RTVSPropertyOp23
 70
     1
102
RTVSPropertyOp24
 70
     1
102
RTVSPropertyOp25
 70
     1
102
RTVSPropertyOp26
 70
     1
102
RTVSPropertyOp27
 70
     1
102
RTVSPropertyOp28
 70
     1
102
RTVSPropertyOp29
 70
     1
102
RTVSPropertyOp30
 70
     1
102
RTVSPropertyOp31
 70
     1
102
RTVSPropertyOp32
 70
     1
102
RTVSPropertyOp33
 70
     1
102
RTVSPropertyOp34
 70
     1
102
RTVSPropertyOp35
 70
     1
102
RTVSPropertyOp36
 70
     1
102
RTVSPropertyOp37
 70
     1
102
RTVSPropertyOp38
 70
     1
102
RTVSPropertyOp39
 70
     1
102
RTVSPropertyOp40
 70
     1
102
RTVSPropertyOp41
 70
     1
102
RTVSPropertyOp42
 70
     1
102
RTVSPropertyOp43
 70
     1
102
RTVSPropertyOp44
 70
     1
102
RTVSPropertyOp45
 70
     1
102
RTVSPropertyOp46
 70
     1
102
RTVSPropertyOp47
 70
     1
102
RTVSPropertyOp48
 70
     1
102
RTVSPropertyOp49
 70
     1
102
RTVSPropertyOp50
 70
     1
102
RTVSPropertyOp51
 70
     0
102
RTVSPropertyOp52
 70
     0
102
RTVSPropertyOp53
 70
     1
102
RTVSPropertyOp54
 70
     1
102
RTVSPropertyOp55
 70
     1
102
RTVSPropertyOp56
 70
     1
102
RTVSPropertyOp57
 70
     1
102
RTVSPropertyOp58
 70
     1
102
RTVSPropertyOp59
 70
     1
102
RTVSPropertyOp60
 70
     1
102
RTVSPropertyOp61
 70
     1
102
RTVSPropertyOp62
 70
     1
  0
XRECORD
  5
1576A
102
{ACAD_REACTORS
330
15769
102
}
330
15769
100
AcDbXrecord
280
     1
102
RTVSPost2010Prop28
280
     0
102
RTVSPost2010PropOp28
 70
     1
102
RTVSPost2010Prop29
280
     1
102
RTVSPost2010PropOp29
 70
     1
102
RTVSPost2010Prop30
280
     1
102
RTVSPost2010PropOp30
 70
     1
102
RTVSPost2010Prop31
280
     0
102
RTVSPost2010PropOp31
 70
     1
102
RTVSPost2010Prop32
280
     0
102
RTVSPost2010PropOp32
 70
     1
102
RTVSPost2010Prop33
280
     0
102
RTVSPost2010PropOp33
 70
     1
102
RTVSPost2010Prop34
280
     0
102
RTVSPost2010PropOp34
 70
     1
102
RTVSPost2010Prop35
280
     0
102
RTVSPost2010PropOp35
 70
     1
102
RTVSPost2010Prop36
280
     0
102
RTVSPost2010PropOp36
 70
     1
102
RTVSPost2010Prop37
 90
       50
102
RTVSPost2010PropOp37
 70
     1
102
RTVSPost2010Prop38
140
0.0
102
RTVSPost2010PropOp38
 70
     1
102
RTVSPost2010Prop39
140
1.0
102
RTVSPost2010PropOp39
 70
     1
102
RTVSPost2010Prop40
 90
        0
102
RTVSPost2010PropOp40
 70
     1
102
RTVSPost2010Prop41ColorIndex
 90
       18
102
RTVSPost2010Prop41ColorRGB
 90
        0
102
RTVSPost2010PropOp41
 70
     1
102
RTVSPost2010Prop42
 90
       50
102
RTVSPost2010PropOp42
 70
     1
102
RTVSPost2010Prop43
 90
        3
102
RTVSPost2010PropOp43
 70
     1
102
RTVSPost2010Prop44ColorIndex
 90
        5
102
RTVSPost2010Prop44ColorRGB
 90
      255
102
RTVSPost2010PropOp44
 70
     1
102
RTVSPost2010Prop45
280
     0
102
RTVSPost2010PropOp45
 70
     1
102
RTVSPost2010Prop46
 90
       50
102
RTVSPost2010PropOp46
 70
     1
102
RTVSPost2010Prop47
 90
       50
102
RTVSPost2010PropOp47
 70
     1
102
RTVSPost2010Prop48
 90
       50
102
RTVSPost2010PropOp48
 70
     1
102
RTVSPost2010Prop49
280
     0
102
RTVSPost2010PropOp49
 70
     1
102
RTVSPost2010Prop50
 90
       50
102
RTVSPost2010PropOp50
 70
     1
102
RTVSPost2010Prop51ColorIndex
 90
      256
102
RTVSPost2010Prop51ColorRGB
 90
-16777216
102
RTVSPost2010PropOp51
 70
     0
102
RTVSPost2010Prop52
140
1.0
102
RTVSPost2010PropOp52
 70
     0
102
RTVSPost2010Prop53
 90
        2
102
RTVSPost2010PropOp53
 70
     1
102
RTVSPost2010Prop54
  1
strokes_ogs.tif
102
RTVSPost2010PropOp54
 70
     1
102
RTVSPost2010Prop55
280
     0
102
RTVSPost2010PropOp55
 70
     1
102
RTVSPost2010Prop56
140
1.0
102
RTVSPost2010PropOp56
 70
     1
102
RTVSPost2010Prop57
140
1.0
102
RTVSPost2010PropOp57
 70
     1
102
RTVSPropertyOp0
 70
     1
102
RTVSPropertyOp1
 70
     1
102
RTVSPropertyOp2
 70
     1
102
RTVSPropertyOp3
 70
     1
102
RTVSPropertyOp4
 70
     1
102
RTVSPropertyOp5
 70
     1
102
RTVSPropertyOp6
 70
     1
102
RTVSPropertyOp7
 70
     1
102
RTVSPropertyOp8
 70
     1
102
RTVSPropertyOp9
 70
     1
102
RTVSPropertyOp10
 70
     1
102
RTVSPropertyOp11
 70
     1
102
RTVSPropertyOp12
 70
     1
102
RTVSPropertyOp13
 70
     1
102
RTVSPropertyOp14
 70
     1
102
RTVSPropertyOp15
 70
     1
102
RTVSPropertyOp16
 70
     1
102
RTVSPropertyOp17
 70
     1
102
RTVSPropertyOp18
 70
     1
102
RTVSPropertyOp19
 70
     1
102
RTVSPropertyOp20
 70
     1
102
RTVSPropertyOp21
 70
     1
102
RTVSPropertyOp22
 70
     1
102
RTVSPropertyOp23
 70
     1
102
RTVSPropertyOp24
 70
     1
102
RTVSPropertyOp25
 70
     1
102
RTVSPropertyOp26
 70
     1
102
RTVSPropertyOp27
 70
     1
102
RTVSPropertyOp28
 70
     1
102
RTVSPropertyOp29
 70
     1
102
RTVSPropertyOp30
 70
     1
102
RTVSPropertyOp31
 70
     1
102
RTVSPropertyOp32
 70
     1
102
RTVSPropertyOp33
 70
     1
102
RTVSPropertyOp34
 70
     1
102
RTVSPropertyOp35
 70
     1
102
RTVSPropertyOp36
 70
     1
102
RTVSPropertyOp37
 70
     1
102
RTVSPropertyOp38
 70
     1
102
RTVSPropertyOp39
 70
     1
102
RTVSPropertyOp40
 70
     1
102
RTVSPropertyOp41
 70
     1
102
RTVSPropertyOp42
 70
     1
102
RTVSPropertyOp43
 70
     1
102
RTVSPropertyOp44
 70
     1
102
RTVSPropertyOp45
 70
     1
102
RTVSPropertyOp46
 70
     1
102
RTVSPropertyOp47
 70
     1
102
RTVSPropertyOp48
 70
     1
102
RTVSPropertyOp49
 70
     1
102
RTVSPropertyOp50
 70
     1
102
RTVSPropertyOp51
 70
     0
102
RTVSPropertyOp52
 70
     0
102
RTVSPropertyOp53
 70
     1
102
RTVSPropertyOp54
 70
     1
102
RTVSPropertyOp55
 70
     1
102
RTVSPropertyOp56
 70
     1
102
RTVSPropertyOp57
 70
     1
102
RTVSPropertyOp58
 70
     1
102
RTVSPropertyOp59
 70
     1
102
RTVSPropertyOp60
 70
     1
102
RTVSPropertyOp61
 70
     1
102
RTVSPropertyOp62
 70
     1
  0
XRECORD
  5
15786
102
{ACAD_REACTORS
330
15785
102
}
330
15785
100
AcDbXrecord
280
     1
102
RTVSPost2010Prop28
280
     0
102
RTVSPost2010PropOp28
 70
     0
102
RTVSPost2010Prop29
280
     1
102
RTVSPost2010PropOp29
 70
     0
102
RTVSPost2010Prop30
280
     1
102
RTVSPost2010PropOp30
 70
     0
102
RTVSPost2010Prop31
280
     0
102
RTVSPost2010PropOp31
 70
     0
102
RTVSPost2010Prop32
280
     0
102
RTVSPost2010PropOp32
 70
     0
102
RTVSPost2010Prop33
280
     0
102
RTVSPost2010PropOp33
 70
     0
102
RTVSPost2010Prop34
280
     0
102
RTVSPost2010PropOp34
 70
     0
102
RTVSPost2010Prop35
280
     0
102
RTVSPost2010PropOp35
 70
     0
102
RTVSPost2010Prop36
280
     0
102
RTVSPost2010PropOp36
 70
     0
102
RTVSPost2010Prop37
 90
       50
102
RTVSPost2010PropOp37
 70
     0
102
RTVSPost2010Prop38
140
0.0
102
RTVSPost2010PropOp38
 70
     0
102
RTVSPost2010Prop39
140
1.0
102
RTVSPost2010PropOp39
 70
     0
102
RTVSPost2010Prop40
 90
        0
102
RTVSPost2010PropOp40
 70
     0
102
RTVSPost2010Prop41ColorIndex
 90
       18
102
RTVSPost2010Prop41ColorRGB
 90
        0
102
RTVSPost2010PropOp41
 70
     0
102
RTVSPost2010Prop42
 90
       50
102
RTVSPost2010PropOp42
 70
     0
102
RTVSPost2010Prop43
 90
        3
102
RTVSPost2010PropOp43
 70
     0
102
RTVSPost2010Prop44ColorIndex
 90
        5
102
RTVSPost2010Prop44ColorRGB
 90
      255
102
RTVSPost2010PropOp44
 70
     0
102
RTVSPost2010Prop45
280
     0
102
RTVSPost2010PropOp45
 70
     0
102
RTVSPost2010Prop46
 90
       50
102
RTVSPost2010PropOp46
 70
     0
102
RTVSPost2010Prop47
 90
       50
102
RTVSPost2010PropOp47
 70
     0
102
RTVSPost2010Prop48
 90
       50
102
RTVSPost2010PropOp48
 70
     0
102
RTVSPost2010Prop49
280
     0
102
RTVSPost2010PropOp49
 70
     0
102
RTVSPost2010Prop50
 90
       50
102
RTVSPost2010PropOp50
 70
     0
102
RTVSPost2010Prop51ColorIndex
 90
      256
102
RTVSPost2010Prop51ColorRGB
 90
-16777216
102
RTVSPost2010PropOp51
 70
     0
102
RTVSPost2010Prop52
140
1.0
102
RTVSPost2010PropOp52
 70
     0
102
RTVSPost2010Prop53
 90
        2
102
RTVSPost2010PropOp53
 70
     0
102
RTVSPost2010Prop54
  1
strokes_ogs.tif
102
RTVSPost2010PropOp54
 70
     0
102
RTVSPost2010Prop55
280
     0
102
RTVSPost2010PropOp55
 70
     0
102
RTVSPost2010Prop56
140
1.0
102
RTVSPost2010PropOp56
 70
     0
102
RTVSPost2010Prop57
140
1.0
102
RTVSPost2010PropOp57
 70
     0
102
RTVSPropertyOp0
 70
     0
102
RTVSPropertyOp1
 70
     0
102
RTVSPropertyOp2
 70
     0
102
RTVSPropertyOp3
 70
     0
102
RTVSPropertyOp4
 70
     0
102
RTVSPropertyOp5
 70
     0
102
RTVSPropertyOp6
 70
     0
102
RTVSPropertyOp7
 70
     0
102
RTVSPropertyOp8
 70
     0
102
RTVSPropertyOp9
 70
     0
102
RTVSPropertyOp10
 70
     0
102
RTVSPropertyOp11
 70
     0
102
RTVSPropertyOp12
 70
     0
102
RTVSPropertyOp13
 70
     0
102
RTVSPropertyOp14
 70
     2
102
RTVSPropertyOp15
 70
     0
102
RTVSPropertyOp16
 70
     0
102
RTVSPropertyOp17
 70
     0
102
RTVSPropertyOp18
 70
     0
102
RTVSPropertyOp19
 70
     0
102
RTVSPropertyOp20
 70
     0
102
RTVSPropertyOp21
 70
     0
102
RTVSPropertyOp22
 70
     0
102
RTVSPropertyOp23
 70
     0
102
RTVSPropertyOp24
 70
     0
102
RTVSPropertyOp25
 70
     0
102
RTVSPropertyOp26
 70
     0
102
RTVSPropertyOp27
 70
     0
102
RTVSPropertyOp28
 70
     0
102
RTVSPropertyOp29
 70
     0
102
RTVSPropertyOp30
 70
     0
102
RTVSPropertyOp31
 70
     0
102
RTVSPropertyOp32
 70
     0
102
RTVSPropertyOp33
 70
     0
102
RTVSPropertyOp34
 70
     0
102
RTVSPropertyOp35
 70
     0
102
RTVSPropertyOp36
 70
     0
102
RTVSPropertyOp37
 70
     0
102
RTVSPropertyOp38
 70
     0
102
RTVSPropertyOp39
 70
     0
102
RTVSPropertyOp40
 70
     0
102
RTVSPropertyOp41
 70
     0
102
RTVSPropertyOp42
 70
     0
102
RTVSPropertyOp43
 70
     0
102
RTVSPropertyOp44
 70
     0
102
RTVSPropertyOp45
 70
     0
102
RTVSPropertyOp46
 70
     0
102
RTVSPropertyOp47
 70
     0
102
RTVSPropertyOp48
 70
     0
102
RTVSPropertyOp49
 70
     0
102
RTVSPropertyOp50
 70
     0
102
RTVSPropertyOp51
 70
     0
102
RTVSPropertyOp52
 70
     0
102
RTVSPropertyOp53
 70
     0
102
RTVSPropertyOp54
 70
     0
102
RTVSPropertyOp55
 70
     0
102
RTVSPropertyOp56
 70
     0
102
RTVSPropertyOp57
 70
     0
102
RTVSPropertyOp58
 70
     0
102
RTVSPropertyOp59
 70
     0
102
RTVSPropertyOp60
 70
     0
102
RTVSPropertyOp61
 70
     0
102
RTVSPropertyOp62
 70
     0
  0
XRECORD
  5
15776
102
{ACAD_REACTORS
330
15775
102
}
330
15775
100
AcDbXrecord
280
     1
102
RTVSPost2010Prop28
280
     0
102
RTVSPost2010PropOp28
 70
     1
102
RTVSPost2010Prop29
280
     1
102
RTVSPost2010PropOp29
 70
     1
102
RTVSPost2010Prop30
280
     1
102
RTVSPost2010PropOp30
 70
     1
102
RTVSPost2010Prop31
280
     0
102
RTVSPost2010PropOp31
 70
     1
102
RTVSPost2010Prop32
280
     0
102
RTVSPost2010PropOp32
 70
     1
102
RTVSPost2010Prop33
280
     0
102
RTVSPost2010PropOp33
 70
     1
102
RTVSPost2010Prop34
280
     0
102
RTVSPost2010PropOp34
 70
     1
102
RTVSPost2010Prop35
280
     0
102
RTVSPost2010PropOp35
 70
     1
102
RTVSPost2010Prop36
280
     0
102
RTVSPost2010PropOp36
 70
     1
102
RTVSPost2010Prop37
 90
       50
102
RTVSPost2010PropOp37
 70
     1
102
RTVSPost2010Prop38
140
0.0
102
RTVSPost2010PropOp38
 70
     1
102
RTVSPost2010Prop39
140
1.0
102
RTVSPost2010PropOp39
 70
     1
102
RTVSPost2010Prop40
 90
        0
102
RTVSPost2010PropOp40
 70
     1
102
RTVSPost2010Prop41ColorIndex
 90
       18
102
RTVSPost2010Prop41ColorRGB
 90
        0
102
RTVSPost2010PropOp41
 70
     1
102
RTVSPost2010Prop42
 90
       50
102
RTVSPost2010PropOp42
 70
     1
102
RTVSPost2010Prop43
 90
        3
102
RTVSPost2010PropOp43
 70
     1
102
RTVSPost2010Prop44ColorIndex
 90
        5
102
RTVSPost2010Prop44ColorRGB
 90
      255
102
RTVSPost2010PropOp44
 70
     1
102
RTVSPost2010Prop45
280
     0
102
RTVSPost2010PropOp45
 70
     1
102
RTVSPost2010Prop46
 90
       50
102
RTVSPost2010PropOp46
 70
     1
102
RTVSPost2010Prop47
 90
       50
102
RTVSPost2010PropOp47
 70
     1
102
RTVSPost2010Prop48
 90
       50
102
RTVSPost2010PropOp48
 70
     1
102
RTVSPost2010Prop49
280
     0
102
RTVSPost2010PropOp49
 70
     1
102
RTVSPost2010Prop50
 90
       50
102
RTVSPost2010PropOp50
 70
     1
102
RTVSPost2010Prop51ColorIndex
 90
      256
102
RTVSPost2010Prop51ColorRGB
 90
-16777216
102
RTVSPost2010PropOp51
 70
     0
102
RTVSPost2010Prop52
140
1.0
102
RTVSPost2010PropOp52
 70
     0
102
RTVSPost2010Prop53
 90
        2
102
RTVSPost2010PropOp53
 70
     1
102
RTVSPost2010Prop54
  1
strokes_ogs.tif
102
RTVSPost2010PropOp54
 70
     1
102
RTVSPost2010Prop55
280
     0
102
RTVSPost2010PropOp55
 70
     1
102
RTVSPost2010Prop56
140
1.0
102
RTVSPost2010PropOp56
 70
     1
102
RTVSPost2010Prop57
140
1.0
102
RTVSPost2010PropOp57
 70
     1
102
RTVSPropertyOp0
 70
     1
102
RTVSPropertyOp1
 70
     1
102
RTVSPropertyOp2
 70
     1
102
RTVSPropertyOp3
 70
     1
102
RTVSPropertyOp4
 70
     1
102
RTVSPropertyOp5
 70
     1
102
RTVSPropertyOp6
 70
     1
102
RTVSPropertyOp7
 70
     1
102
RTVSPropertyOp8
 70
     1
102
RTVSPropertyOp9
 70
     1
102
RTVSPropertyOp10
 70
     1
102
RTVSPropertyOp11
 70
     1
102
RTVSPropertyOp12
 70
     1
102
RTVSPropertyOp13
 70
     1
102
RTVSPropertyOp14
 70
     1
102
RTVSPropertyOp15
 70
     1
102
RTVSPropertyOp16
 70
     1
102
RTVSPropertyOp17
 70
     1
102
RTVSPropertyOp18
 70
     1
102
RTVSPropertyOp19
 70
     1
102
RTVSPropertyOp20
 70
     1
102
RTVSPropertyOp21
 70
     1
102
RTVSPropertyOp22
 70
     1
102
RTVSPropertyOp23
 70
     1
102
RTVSPropertyOp24
 70
     1
102
RTVSPropertyOp25
 70
     1
102
RTVSPropertyOp26
 70
     1
102
RTVSPropertyOp27
 70
     1
102
RTVSPropertyOp28
 70
     1
102
RTVSPropertyOp29
 70
     1
102
RTVSPropertyOp30
 70
     1
102
RTVSPropertyOp31
 70
     1
102
RTVSPropertyOp32
 70
     1
102
RTVSPropertyOp33
 70
     1
102
RTVSPropertyOp34
 70
     1
102
RTVSPropertyOp35
 70
     1
102
RTVSPropertyOp36
 70
     1
102
RTVSPropertyOp37
 70
     1
102
RTVSPropertyOp38
 70
     1
102
RTVSPropertyOp39
 70
     1
102
RTVSPropertyOp40
 70
     1
102
RTVSPropertyOp41
 70
     1
102
RTVSPropertyOp42
 70
     1
102
RTVSPropertyOp43
 70
     1
102
RTVSPropertyOp44
 70
     1
102
RTVSPropertyOp45
 70
     1
102
RTVSPropertyOp46
 70
     1
102
RTVSPropertyOp47
 70
     1
102
RTVSPropertyOp48
 70
     1
102
RTVSPropertyOp49
 70
     1
102
RTVSPropertyOp50
 70
     1
102
RTVSPropertyOp51
 70
     0
102
RTVSPropertyOp52
 70
     0
102
RTVSPropertyOp53
 70
     1
102
RTVSPropertyOp54
 70
     1
102
RTVSPropertyOp55
 70
     1
102
RTVSPropertyOp56
 70
     1
102
RTVSPropertyOp57
 70
     1
102
RTVSPropertyOp58
 70
     1
102
RTVSPropertyOp59
 70
     1
102
RTVSPropertyOp60
 70
     1
102
RTVSPropertyOp61
 70
     1
102
RTVSPropertyOp62
 70
     1
  0
XRECORD
  5
15788
102
{ACAD_REACTORS
330
15787
102
}
330
15787
100
AcDbXrecord
280
     1
102
RTVSPost2010Prop28
280
     0
102
RTVSPost2010PropOp28
 70
     0
102
RTVSPost2010Prop29
280
     1
102
RTVSPost2010PropOp29
 70
     0
102
RTVSPost2010Prop30
280
     1
102
RTVSPost2010PropOp30
 70
     0
102
RTVSPost2010Prop31
280
     0
102
RTVSPost2010PropOp31
 70
     0
102
RTVSPost2010Prop32
280
     0
102
RTVSPost2010PropOp32
 70
     0
102
RTVSPost2010Prop33
280
     0
102
RTVSPost2010PropOp33
 70
     0
102
RTVSPost2010Prop34
280
     0
102
RTVSPost2010PropOp34
 70
     0
102
RTVSPost2010Prop35
280
     0
102
RTVSPost2010PropOp35
 70
     0
102
RTVSPost2010Prop36
280
     0
102
RTVSPost2010PropOp36
 70
     0
102
RTVSPost2010Prop37
 90
       50
102
RTVSPost2010PropOp37
 70
     0
102
RTVSPost2010Prop38
140
0.0
102
RTVSPost2010PropOp38
 70
     0
102
RTVSPost2010Prop39
140
1.0
102
RTVSPost2010PropOp39
 70
     0
102
RTVSPost2010Prop40
 90
        0
102
RTVSPost2010PropOp40
 70
     0
102
RTVSPost2010Prop41ColorIndex
 90
       18
102
RTVSPost2010Prop41ColorRGB
 90
        0
102
RTVSPost2010PropOp41
 70
     0
102
RTVSPost2010Prop42
 90
       50
102
RTVSPost2010PropOp42
 70
     0
102
RTVSPost2010Prop43
 90
        3
102
RTVSPost2010PropOp43
 70
     0
102
RTVSPost2010Prop44ColorIndex
 90
        5
102
RTVSPost2010Prop44ColorRGB
 90
      255
102
RTVSPost2010PropOp44
 70
     0
102
RTVSPost2010Prop45
280
     0
102
RTVSPost2010PropOp45
 70
     0
102
RTVSPost2010Prop46
 90
       50
102
RTVSPost2010PropOp46
 70
     0
102
RTVSPost2010Prop47
 90
       50
102
RTVSPost2010PropOp47
 70
     0
102
RTVSPost2010Prop48
 90
       50
102
RTVSPost2010PropOp48
 70
     0
102
RTVSPost2010Prop49
280
     0
102
RTVSPost2010PropOp49
 70
     0
102
RTVSPost2010Prop50
 90
       50
102
RTVSPost2010PropOp50
 70
     0
102
RTVSPost2010Prop51ColorIndex
 90
      256
102
RTVSPost2010Prop51ColorRGB
 90
-16777216
102
RTVSPost2010PropOp51
 70
     0
102
RTVSPost2010Prop52
140
1.0
102
RTVSPost2010PropOp52
 70
     0
102
RTVSPost2010Prop53
 90
        2
102
RTVSPost2010PropOp53
 70
     0
102
RTVSPost2010Prop54
  1
strokes_ogs.tif
102
RTVSPost2010PropOp54
 70
     0
102
RTVSPost2010Prop55
280
     0
102
RTVSPost2010PropOp55
 70
     0
102
RTVSPost2010Prop56
140
1.0
102
RTVSPost2010PropOp56
 70
     0
102
RTVSPost2010Prop57
140
1.0
102
RTVSPost2010PropOp57
 70
     0
102
RTVSPropertyOp0
 70
     0
102
RTVSPropertyOp1
 70
     0
102
RTVSPropertyOp2
 70
     0
102
RTVSPropertyOp3
 70
     0
102
RTVSPropertyOp4
 70
     0
102
RTVSPropertyOp5
 70
     0
102
RTVSPropertyOp6
 70
     0
102
RTVSPropertyOp7
 70
     0
102
RTVSPropertyOp8
 70
     0
102
RTVSPropertyOp9
 70
     0
102
RTVSPropertyOp10
 70
     0
102
RTVSPropertyOp11
 70
     0
102
RTVSPropertyOp12
 70
     0
102
RTVSPropertyOp13
 70
     0
102
RTVSPropertyOp14
 70
     2
102
RTVSPropertyOp15
 70
     0
102
RTVSPropertyOp16
 70
     0
102
RTVSPropertyOp17
 70
     0
102
RTVSPropertyOp18
 70
     0
102
RTVSPropertyOp19
 70
     0
102
RTVSPropertyOp20
 70
     0
102
RTVSPropertyOp21
 70
     0
102
RTVSPropertyOp22
 70
     0
102
RTVSPropertyOp23
 70
     0
102
RTVSPropertyOp24
 70
     0
102
RTVSPropertyOp25
 70
     0
102
RTVSPropertyOp26
 70
     0
102
RTVSPropertyOp27
 70
     0
102
RTVSPropertyOp28
 70
     0
102
RTVSPropertyOp29
 70
     0
102
RTVSPropertyOp30
 70
     0
102
RTVSPropertyOp31
 70
     0
102
RTVSPropertyOp32
 70
     0
102
RTVSPropertyOp33
 70
     0
102
RTVSPropertyOp34
 70
     0
102
RTVSPropertyOp35
 70
     0
102
RTVSPropertyOp36
 70
     0
102
RTVSPropertyOp37
 70
     0
102
RTVSPropertyOp38
 70
     0
102
RTVSPropertyOp39
 70
     0
102
RTVSPropertyOp40
 70
     0
102
RTVSPropertyOp41
 70
     0
102
RTVSPropertyOp42
 70
     0
102
RTVSPropertyOp43
 70
     0
102
RTVSPropertyOp44
 70
     0
102
RTVSPropertyOp45
 70
     0
102
RTVSPropertyOp46
 70
     0
102
RTVSPropertyOp47
 70
     0
102
RTVSPropertyOp48
 70
     0
102
RTVSPropertyOp49
 70
     0
102
RTVSPropertyOp50
 70
     0
102
RTVSPropertyOp51
 70
     0
102
RTVSPropertyOp52
 70
     0
102
RTVSPropertyOp53
 70
     0
102
RTVSPropertyOp54
 70
     0
102
RTVSPropertyOp55
 70
     0
102
RTVSPropertyOp56
 70
     0
102
RTVSPropertyOp57
 70
     0
102
RTVSPropertyOp58
 70
     0
102
RTVSPropertyOp59
 70
     0
102
RTVSPropertyOp60
 70
     0
102
RTVSPropertyOp61
 70
     0
102
RTVSPropertyOp62
 70
     0
  0
XRECORD
  5
1576E
102
{ACAD_REACTORS
330
1576D
102
}
330
1576D
100
AcDbXrecord
280
     1
102
RTVSPost2010Prop28
280
     0
102
RTVSPost2010PropOp28
 70
     1
102
RTVSPost2010Prop29
280
     1
102
RTVSPost2010PropOp29
 70
     1
102
RTVSPost2010Prop30
280
     1
102
RTVSPost2010PropOp30
 70
     1
102
RTVSPost2010Prop31
280
     0
102
RTVSPost2010PropOp31
 70
     1
102
RTVSPost2010Prop32
280
     0
102
RTVSPost2010PropOp32
 70
     1
102
RTVSPost2010Prop33
280
     0
102
RTVSPost2010PropOp33
 70
     1
102
RTVSPost2010Prop34
280
     0
102
RTVSPost2010PropOp34
 70
     1
102
RTVSPost2010Prop35
280
     0
102
RTVSPost2010PropOp35
 70
     1
102
RTVSPost2010Prop36
280
     0
102
RTVSPost2010PropOp36
 70
     1
102
RTVSPost2010Prop37
 90
       50
102
RTVSPost2010PropOp37
 70
     1
102
RTVSPost2010Prop38
140
0.0
102
RTVSPost2010PropOp38
 70
     1
102
RTVSPost2010Prop39
140
1.0
102
RTVSPost2010PropOp39
 70
     1
102
RTVSPost2010Prop40
 90
        0
102
RTVSPost2010PropOp40
 70
     1
102
RTVSPost2010Prop41ColorIndex
 90
       18
102
RTVSPost2010Prop41ColorRGB
 90
        0
102
RTVSPost2010PropOp41
 70
     1
102
RTVSPost2010Prop42
 90
       50
102
RTVSPost2010PropOp42
 70
     1
102
RTVSPost2010Prop43
 90
        3
102
RTVSPost2010PropOp43
 70
     1
102
RTVSPost2010Prop44ColorIndex
 90
        5
102
RTVSPost2010Prop44ColorRGB
 90
      255
102
RTVSPost2010PropOp44
 70
     1
102
RTVSPost2010Prop45
280
     0
102
RTVSPost2010PropOp45
 70
     1
102
RTVSPost2010Prop46
 90
       50
102
RTVSPost2010PropOp46
 70
     1
102
RTVSPost2010Prop47
 90
       50
102
RTVSPost2010PropOp47
 70
     1
102
RTVSPost2010Prop48
 90
       50
102
RTVSPost2010PropOp48
 70
     1
102
RTVSPost2010Prop49
280
     0
102
RTVSPost2010PropOp49
 70
     1
102
RTVSPost2010Prop50
 90
       50
102
RTVSPost2010PropOp50
 70
     1
102
RTVSPost2010Prop51ColorIndex
 90
      256
102
RTVSPost2010Prop51ColorRGB
 90
-16777216
102
RTVSPost2010PropOp51
 70
     0
102
RTVSPost2010Prop52
140
1.0
102
RTVSPost2010PropOp52
 70
     0
102
RTVSPost2010Prop53
 90
        2
102
RTVSPost2010PropOp53
 70
     1
102
RTVSPost2010Prop54
  1
strokes_ogs.tif
102
RTVSPost2010PropOp54
 70
     1
102
RTVSPost2010Prop55
280
     0
102
RTVSPost2010PropOp55
 70
     1
102
RTVSPost2010Prop56
140
1.0
102
RTVSPost2010PropOp56
 70
     1
102
RTVSPost2010Prop57
140
1.0
102
RTVSPost2010PropOp57
 70
     1
102
RTVSPropertyOp0
 70
     1
102
RTVSPropertyOp1
 70
     1
102
RTVSPropertyOp2
 70
     1
102
RTVSPropertyOp3
 70
     1
102
RTVSPropertyOp4
 70
     1
102
RTVSPropertyOp5
 70
     1
102
RTVSPropertyOp6
 70
     1
102
RTVSPropertyOp7
 70
     1
102
RTVSPropertyOp8
 70
     1
102
RTVSPropertyOp9
 70
     1
102
RTVSPropertyOp10
 70
     1
102
RTVSPropertyOp11
 70
     1
102
RTVSPropertyOp12
 70
     1
102
RTVSPropertyOp13
 70
     1
102
RTVSPropertyOp14
 70
     1
102
RTVSPropertyOp15
 70
     1
102
RTVSPropertyOp16
 70
     1
102
RTVSPropertyOp17
 70
     1
102
RTVSPropertyOp18
 70
     1
102
RTVSPropertyOp19
 70
     1
102
RTVSPropertyOp20
 70
     1
102
RTVSPropertyOp21
 70
     1
102
RTVSPropertyOp22
 70
     1
102
RTVSPropertyOp23
 70
     1
102
RTVSPropertyOp24
 70
     1
102
RTVSPropertyOp25
 70
     1
102
RTVSPropertyOp26
 70
     1
102
RTVSPropertyOp27
 70
     1
102
RTVSPropertyOp28
 70
     1
102
RTVSPropertyOp29
 70
     1
102
RTVSPropertyOp30
 70
     1
102
RTVSPropertyOp31
 70
     1
102
RTVSPropertyOp32
 70
     1
102
RTVSPropertyOp33
 70
     1
102
RTVSPropertyOp34
 70
     1
102
RTVSPropertyOp35
 70
     1
102
RTVSPropertyOp36
 70
     1
102
RTVSPropertyOp37
 70
     1
102
RTVSPropertyOp38
 70
     1
102
RTVSPropertyOp39
 70
     1
102
RTVSPropertyOp40
 70
     1
102
RTVSPropertyOp41
 70
     1
102
RTVSPropertyOp42
 70
     1
102
RTVSPropertyOp43
 70
     1
102
RTVSPropertyOp44
 70
     1
102
RTVSPropertyOp45
 70
     1
102
RTVSPropertyOp46
 70
     1
102
RTVSPropertyOp47
 70
     1
102
RTVSPropertyOp48
 70
     1
102
RTVSPropertyOp49
 70
     1
102
RTVSPropertyOp50
 70
     1
102
RTVSPropertyOp51
 70
     0
102
RTVSPropertyOp52
 70
     0
102
RTVSPropertyOp53
 70
     1
102
RTVSPropertyOp54
 70
     1
102
RTVSPropertyOp55
 70
     1
102
RTVSPropertyOp56
 70
     1
102
RTVSPropertyOp57
 70
     1
102
RTVSPropertyOp58
 70
     1
102
RTVSPropertyOp59
 70
     1
102
RTVSPropertyOp60
 70
     1
102
RTVSPropertyOp61
 70
     1
102
RTVSPropertyOp62
 70
     1
  0
XRECORD
  5
15784
102
{ACAD_REACTORS
330
15783
102
}
330
15783
100
AcDbXrecord
280
     1
102
RTVSPost2010Prop28
280
     0
102
RTVSPost2010PropOp28
 70
     1
102
RTVSPost2010Prop29
280
     1
102
RTVSPost2010PropOp29
 70
     1
102
RTVSPost2010Prop30
280
     1
102
RTVSPost2010PropOp30
 70
     1
102
RTVSPost2010Prop31
280
     0
102
RTVSPost2010PropOp31
 70
     1
102
RTVSPost2010Prop32
280
     0
102
RTVSPost2010PropOp32
 70
     1
102
RTVSPost2010Prop33
280
     0
102
RTVSPost2010PropOp33
 70
     1
102
RTVSPost2010Prop34
280
     0
102
RTVSPost2010PropOp34
 70
     1
102
RTVSPost2010Prop35
280
     0
102
RTVSPost2010PropOp35
 70
     1
102
RTVSPost2010Prop36
280
     0
102
RTVSPost2010PropOp36
 70
     1
102
RTVSPost2010Prop37
 90
       50
102
RTVSPost2010PropOp37
 70
     1
102
RTVSPost2010Prop38
140
0.0
102
RTVSPost2010PropOp38
 70
     1
102
RTVSPost2010Prop39
140
1.0
102
RTVSPost2010PropOp39
 70
     1
102
RTVSPost2010Prop40
 90
        0
102
RTVSPost2010PropOp40
 70
     1
102
RTVSPost2010Prop41ColorIndex
 90
       18
102
RTVSPost2010Prop41ColorRGB
 90
        0
102
RTVSPost2010PropOp41
 70
     1
102
RTVSPost2010Prop42
 90
       50
102
RTVSPost2010PropOp42
 70
     1
102
RTVSPost2010Prop43
 90
        3
102
RTVSPost2010PropOp43
 70
     1
102
RTVSPost2010Prop44ColorIndex
 90
        5
102
RTVSPost2010Prop44ColorRGB
 90
      255
102
RTVSPost2010PropOp44
 70
     1
102
RTVSPost2010Prop45
280
     0
102
RTVSPost2010PropOp45
 70
     1
102
RTVSPost2010Prop46
 90
       50
102
RTVSPost2010PropOp46
 70
     1
102
RTVSPost2010Prop47
 90
       50
102
RTVSPost2010PropOp47
 70
     1
102
RTVSPost2010Prop48
 90
       50
102
RTVSPost2010PropOp48
 70
     1
102
RTVSPost2010Prop49
280
     0
102
RTVSPost2010PropOp49
 70
     1
102
RTVSPost2010Prop50
 90
       50
102
RTVSPost2010PropOp50
 70
     1
102
RTVSPost2010Prop51ColorIndex
 90
      256
102
RTVSPost2010Prop51ColorRGB
 90
-16777216
102
RTVSPost2010PropOp51
 70
     0
102
RTVSPost2010Prop52
140
1.0
102
RTVSPost2010PropOp52
 70
     0
102
RTVSPost2010Prop53
 90
        2
102
RTVSPost2010PropOp53
 70
     1
102
RTVSPost2010Prop54
  1
strokes_ogs.tif
102
RTVSPost2010PropOp54
 70
     1
102
RTVSPost2010Prop55
280
     0
102
RTVSPost2010PropOp55
 70
     1
102
RTVSPost2010Prop56
140
1.0
102
RTVSPost2010PropOp56
 70
     1
102
RTVSPost2010Prop57
140
1.0
102
RTVSPost2010PropOp57
 70
     1
102
RTVSPropertyOp0
 70
     1
102
RTVSPropertyOp1
 70
     1
102
RTVSPropertyOp2
 70
     1
102
RTVSPropertyOp3
 70
     1
102
RTVSPropertyOp4
 70
     1
102
RTVSPropertyOp5
 70
     1
102
RTVSPropertyOp6
 70
     1
102
RTVSPropertyOp7
 70
     1
102
RTVSPropertyOp8
 70
     1
102
RTVSPropertyOp9
 70
     1
102
RTVSPropertyOp10
 70
     1
102
RTVSPropertyOp11
 70
     1
102
RTVSPropertyOp12
 70
     1
102
RTVSPropertyOp13
 70
     1
102
RTVSPropertyOp14
 70
     1
102
RTVSPropertyOp15
 70
     1
102
RTVSPropertyOp16
 70
     1
102
RTVSPropertyOp17
 70
     1
102
RTVSPropertyOp18
 70
     1
102
RTVSPropertyOp19
 70
     1
102
RTVSPropertyOp20
 70
     1
102
RTVSPropertyOp21
 70
     1
102
RTVSPropertyOp22
 70
     1
102
RTVSPropertyOp23
 70
     1
102
RTVSPropertyOp24
 70
     1
102
RTVSPropertyOp25
 70
     1
102
RTVSPropertyOp26
 70
     1
102
RTVSPropertyOp27
 70
     1
102
RTVSPropertyOp28
 70
     1
102
RTVSPropertyOp29
 70
     1
102
RTVSPropertyOp30
 70
     1
102
RTVSPropertyOp31
 70
     1
102
RTVSPropertyOp32
 70
     1
102
RTVSPropertyOp33
 70
     1
102
RTVSPropertyOp34
 70
     1
102
RTVSPropertyOp35
 70
     1
102
RTVSPropertyOp36
 70
     1
102
RTVSPropertyOp37
 70
     1
102
RTVSPropertyOp38
 70
     1
102
RTVSPropertyOp39
 70
     1
102
RTVSPropertyOp40
 70
     1
102
RTVSPropertyOp41
 70
     1
102
RTVSPropertyOp42
 70
     1
102
RTVSPropertyOp43
 70
     1
102
RTVSPropertyOp44
 70
     1
102
RTVSPropertyOp45
 70
     1
102
RTVSPropertyOp46
 70
     1
102
RTVSPropertyOp47
 70
     1
102
RTVSPropertyOp48
 70
     1
102
RTVSPropertyOp49
 70
     1
102
RTVSPropertyOp50
 70
     1
102
RTVSPropertyOp51
 70
     0
102
RTVSPropertyOp52
 70
     0
102
RTVSPropertyOp53
 70
     1
102
RTVSPropertyOp54
 70
     1
102
RTVSPropertyOp55
 70
     1
102
RTVSPropertyOp56
 70
     1
102
RTVSPropertyOp57
 70
     1
102
RTVSPropertyOp58
 70
     1
102
RTVSPropertyOp59
 70
     1
102
RTVSPropertyOp60
 70
     1
102
RTVSPropertyOp61
 70
     1
102
RTVSPropertyOp62
 70
     1
  0
XRECORD
  5
15782
102
{ACAD_REACTORS
330
15781
102
}
330
15781
100
AcDbXrecord
280
     1
102
RTVSPost2010Prop28
280
     0
102
RTVSPost2010PropOp28
 70
     1
102
RTVSPost2010Prop29
280
     1
102
RTVSPost2010PropOp29
 70
     1
102
RTVSPost2010Prop30
280
     1
102
RTVSPost2010PropOp30
 70
     1
102
RTVSPost2010Prop31
280
     0
102
RTVSPost2010PropOp31
 70
     1
102
RTVSPost2010Prop32
280
     0
102
RTVSPost2010PropOp32
 70
     1
102
RTVSPost2010Prop33
280
     0
102
RTVSPost2010PropOp33
 70
     1
102
RTVSPost2010Prop34
280
     0
102
RTVSPost2010PropOp34
 70
     1
102
RTVSPost2010Prop35
280
     0
102
RTVSPost2010PropOp35
 70
     1
102
RTVSPost2010Prop36
280
     0
102
RTVSPost2010PropOp36
 70
     1
102
RTVSPost2010Prop37
 90
       50
102
RTVSPost2010PropOp37
 70
     1
102
RTVSPost2010Prop38
140
0.0
102
RTVSPost2010PropOp38
 70
     1
102
RTVSPost2010Prop39
140
1.0
102
RTVSPost2010PropOp39
 70
     1
102
RTVSPost2010Prop40
 90
        0
102
RTVSPost2010PropOp40
 70
     1
102
RTVSPost2010Prop41ColorIndex
 90
       18
102
RTVSPost2010Prop41ColorRGB
 90
        0
102
RTVSPost2010PropOp41
 70
     1
102
RTVSPost2010Prop42
 90
       50
102
RTVSPost2010PropOp42
 70
     1
102
RTVSPost2010Prop43
 90
        3
102
RTVSPost2010PropOp43
 70
     1
102
RTVSPost2010Prop44ColorIndex
 90
        5
102
RTVSPost2010Prop44ColorRGB
 90
      255
102
RTVSPost2010PropOp44
 70
     1
102
RTVSPost2010Prop45
280
     0
102
RTVSPost2010PropOp45
 70
     1
102
RTVSPost2010Prop46
 90
       50
102
RTVSPost2010PropOp46
 70
     1
102
RTVSPost2010Prop47
 90
       50
102
RTVSPost2010PropOp47
 70
     1
102
RTVSPost2010Prop48
 90
       50
102
RTVSPost2010PropOp48
 70
     1
102
RTVSPost2010Prop49
280
     0
102
RTVSPost2010PropOp49
 70
     1
102
RTVSPost2010Prop50
 90
       50
102
RTVSPost2010PropOp50
 70
     1
102
RTVSPost2010Prop51ColorIndex
 90
      256
102
RTVSPost2010Prop51ColorRGB
 90
-16777216
102
RTVSPost2010PropOp51
 70
     0
102
RTVSPost2010Prop52
140
1.0
102
RTVSPost2010PropOp52
 70
     0
102
RTVSPost2010Prop53
 90
        2
102
RTVSPost2010PropOp53
 70
     1
102
RTVSPost2010Prop54
  1
strokes_ogs.tif
102
RTVSPost2010PropOp54
 70
     1
102
RTVSPost2010Prop55
280
     0
102
RTVSPost2010PropOp55
 70
     1
102
RTVSPost2010Prop56
140
1.0
102
RTVSPost2010PropOp56
 70
     1
102
RTVSPost2010Prop57
140
1.0
102
RTVSPost2010PropOp57
 70
     1
102
RTVSPropertyOp0
 70
     1
102
RTVSPropertyOp1
 70
     1
102
RTVSPropertyOp2
 70
     1
102
RTVSPropertyOp3
 70
     1
102
RTVSPropertyOp4
 70
     1
102
RTVSPropertyOp5
 70
     1
102
RTVSPropertyOp6
 70
     1
102
RTVSPropertyOp7
 70
     1
102
RTVSPropertyOp8
 70
     1
102
RTVSPropertyOp9
 70
     1
102
RTVSPropertyOp10
 70
     1
102
RTVSPropertyOp11
 70
     1
102
RTVSPropertyOp12
 70
     1
102
RTVSPropertyOp13
 70
     1
102
RTVSPropertyOp14
 70
     1
102
RTVSPropertyOp15
 70
     1
102
RTVSPropertyOp16
 70
     1
102
RTVSPropertyOp17
 70
     1
102
RTVSPropertyOp18
 70
     1
102
RTVSPropertyOp19
 70
     1
102
RTVSPropertyOp20
 70
     1
102
RTVSPropertyOp21
 70
     1
102
RTVSPropertyOp22
 70
     1
102
RTVSPropertyOp23
 70
     1
102
RTVSPropertyOp24
 70
     1
102
RTVSPropertyOp25
 70
     1
102
RTVSPropertyOp26
 70
     1
102
RTVSPropertyOp27
 70
     1
102
RTVSPropertyOp28
 70
     1
102
RTVSPropertyOp29
 70
     1
102
RTVSPropertyOp30
 70
     1
102
RTVSPropertyOp31
 70
     1
102
RTVSPropertyOp32
 70
     1
102
RTVSPropertyOp33
 70
     1
102
RTVSPropertyOp34
 70
     1
102
RTVSPropertyOp35
 70
     1
102
RTVSPropertyOp36
 70
     1
102
RTVSPropertyOp37
 70
     1
102
RTVSPropertyOp38
 70
     1
102
RTVSPropertyOp39
 70
     1
102
RTVSPropertyOp40
 70
     1
102
RTVSPropertyOp41
 70
     1
102
RTVSPropertyOp42
 70
     1
102
RTVSPropertyOp43
 70
     1
102
RTVSPropertyOp44
 70
     1
102
RTVSPropertyOp45
 70
     1
102
RTVSPropertyOp46
 70
     1
102
RTVSPropertyOp47
 70
     1
102
RTVSPropertyOp48
 70
     1
102
RTVSPropertyOp49
 70
     1
102
RTVSPropertyOp50
 70
     1
102
RTVSPropertyOp51
 70
     0
102
RTVSPropertyOp52
 70
     0
102
RTVSPropertyOp53
 70
     1
102
RTVSPropertyOp54
 70
     1
102
RTVSPropertyOp55
 70
     1
102
RTVSPropertyOp56
 70
     1
102
RTVSPropertyOp57
 70
     1
102
RTVSPropertyOp58
 70
     1
102
RTVSPropertyOp59
 70
     1
102
RTVSPropertyOp60
 70
     1
102
RTVSPropertyOp61
 70
     1
102
RTVSPropertyOp62
 70
     1
  0
XRECORD
  5
1577C
102
{ACAD_REACTORS
330
1577B
102
}
330
1577B
100
AcDbXrecord
280
     1
102
RTVSPost2010Prop28
280
     0
102
RTVSPost2010PropOp28
 70
     1
102
RTVSPost2010Prop29
280
     1
102
RTVSPost2010PropOp29
 70
     1
102
RTVSPost2010Prop30
280
     1
102
RTVSPost2010PropOp30
 70
     1
102
RTVSPost2010Prop31
280
     0
102
RTVSPost2010PropOp31
 70
     1
102
RTVSPost2010Prop32
280
     0
102
RTVSPost2010PropOp32
 70
     1
102
RTVSPost2010Prop33
280
     0
102
RTVSPost2010PropOp33
 70
     1
102
RTVSPost2010Prop34
280
     0
102
RTVSPost2010PropOp34
 70
     1
102
RTVSPost2010Prop35
280
     0
102
RTVSPost2010PropOp35
 70
     1
102
RTVSPost2010Prop36
280
     0
102
RTVSPost2010PropOp36
 70
     1
102
RTVSPost2010Prop37
 90
       50
102
RTVSPost2010PropOp37
 70
     1
102
RTVSPost2010Prop38
140
0.0
102
RTVSPost2010PropOp38
 70
     1
102
RTVSPost2010Prop39
140
1.0
102
RTVSPost2010PropOp39
 70
     1
102
RTVSPost2010Prop40
 90
        0
102
RTVSPost2010PropOp40
 70
     1
102
RTVSPost2010Prop41ColorIndex
 90
       18
102
RTVSPost2010Prop41ColorRGB
 90
        0
102
RTVSPost2010PropOp41
 70
     1
102
RTVSPost2010Prop42
 90
       50
102
RTVSPost2010PropOp42
 70
     1
102
RTVSPost2010Prop43
 90
        3
102
RTVSPost2010PropOp43
 70
     1
102
RTVSPost2010Prop44ColorIndex
 90
        5
102
RTVSPost2010Prop44ColorRGB
 90
      255
102
RTVSPost2010PropOp44
 70
     1
102
RTVSPost2010Prop45
280
     0
102
RTVSPost2010PropOp45
 70
     1
102
RTVSPost2010Prop46
 90
       50
102
RTVSPost2010PropOp46
 70
     1
102
RTVSPost2010Prop47
 90
       50
102
RTVSPost2010PropOp47
 70
     1
102
RTVSPost2010Prop48
 90
       50
102
RTVSPost2010PropOp48
 70
     1
102
RTVSPost2010Prop49
280
     0
102
RTVSPost2010PropOp49
 70
     1
102
RTVSPost2010Prop50
 90
       50
102
RTVSPost2010PropOp50
 70
     1
102
RTVSPost2010Prop51ColorIndex
 90
      256
102
RTVSPost2010Prop51ColorRGB
 90
-16777216
102
RTVSPost2010PropOp51
 70
     0
102
RTVSPost2010Prop52
140
1.0
102
RTVSPost2010PropOp52
 70
     0
102
RTVSPost2010Prop53
 90
        2
102
RTVSPost2010PropOp53
 70
     1
102
RTVSPost2010Prop54
  1
strokes_ogs.tif
102
RTVSPost2010PropOp54
 70
     1
102
RTVSPost2010Prop55
280
     0
102
RTVSPost2010PropOp55
 70
     1
102
RTVSPost2010Prop56
140
1.0
102
RTVSPost2010PropOp56
 70
     1
102
RTVSPost2010Prop57
140
1.0
102
RTVSPost2010PropOp57
 70
     1
102
RTVSPropertyOp0
 70
     1
102
RTVSPropertyOp1
 70
     1
102
RTVSPropertyOp2
 70
     1
102
RTVSPropertyOp3
 70
     1
102
RTVSPropertyOp4
 70
     1
102
RTVSPropertyOp5
 70
     1
102
RTVSPropertyOp6
 70
     1
102
RTVSPropertyOp7
 70
     1
102
RTVSPropertyOp8
 70
     1
102
RTVSPropertyOp9
 70
     1
102
RTVSPropertyOp10
 70
     1
102
RTVSPropertyOp11
 70
     1
102
RTVSPropertyOp12
 70
     1
102
RTVSPropertyOp13
 70
     1
102
RTVSPropertyOp14
 70
     1
102
RTVSPropertyOp15
 70
     1
102
RTVSPropertyOp16
 70
     1
102
RTVSPropertyOp17
 70
     1
102
RTVSPropertyOp18
 70
     1
102
RTVSPropertyOp19
 70
     1
102
RTVSPropertyOp20
 70
     1
102
RTVSPropertyOp21
 70
     1
102
RTVSPropertyOp22
 70
     1
102
RTVSPropertyOp23
 70
     1
102
RTVSPropertyOp24
 70
     1
102
RTVSPropertyOp25
 70
     1
102
RTVSPropertyOp26
 70
     1
102
RTVSPropertyOp27
 70
     1
102
RTVSPropertyOp28
 70
     1
102
RTVSPropertyOp29
 70
     1
102
RTVSPropertyOp30
 70
     1
102
RTVSPropertyOp31
 70
     1
102
RTVSPropertyOp32
 70
     1
102
RTVSPropertyOp33
 70
     1
102
RTVSPropertyOp34
 70
     1
102
RTVSPropertyOp35
 70
     1
102
RTVSPropertyOp36
 70
     1
102
RTVSPropertyOp37
 70
     1
102
RTVSPropertyOp38
 70
     1
102
RTVSPropertyOp39
 70
     1
102
RTVSPropertyOp40
 70
     1
102
RTVSPropertyOp41
 70
     1
102
RTVSPropertyOp42
 70
     1
102
RTVSPropertyOp43
 70
     1
102
RTVSPropertyOp44
 70
     1
102
RTVSPropertyOp45
 70
     1
102
RTVSPropertyOp46
 70
     1
102
RTVSPropertyOp47
 70
     1
102
RTVSPropertyOp48
 70
     1
102
RTVSPropertyOp49
 70
     1
102
RTVSPropertyOp50
 70
     1
102
RTVSPropertyOp51
 70
     0
102
RTVSPropertyOp52
 70
     0
102
RTVSPropertyOp53
 70
     1
102
RTVSPropertyOp54
 70
     1
102
RTVSPropertyOp55
 70
     1
102
RTVSPropertyOp56
 70
     1
102
RTVSPropertyOp57
 70
     1
102
RTVSPropertyOp58
 70
     1
102
RTVSPropertyOp59
 70
     1
102
RTVSPropertyOp60
 70
     1
102
RTVSPropertyOp61
 70
     1
102
RTVSPropertyOp62
 70
     1
  0
XRECORD
  5
1577E
102
{ACAD_REACTORS
330
1577D
102
}
330
1577D
100
AcDbXrecord
280
     1
102
RTVSPost2010Prop28
280
     0
102
RTVSPost2010PropOp28
 70
     1
102
RTVSPost2010Prop29
280
     1
102
RTVSPost2010PropOp29
 70
     1
102
RTVSPost2010Prop30
280
     1
102
RTVSPost2010PropOp30
 70
     1
102
RTVSPost2010Prop31
280
     0
102
RTVSPost2010PropOp31
 70
     1
102
RTVSPost2010Prop32
280
     0
102
RTVSPost2010PropOp32
 70
     1
102
RTVSPost2010Prop33
280
     0
102
RTVSPost2010PropOp33
 70
     1
102
RTVSPost2010Prop34
280
     0
102
RTVSPost2010PropOp34
 70
     1
102
RTVSPost2010Prop35
280
     0
102
RTVSPost2010PropOp35
 70
     1
102
RTVSPost2010Prop36
280
     0
102
RTVSPost2010PropOp36
 70
     1
102
RTVSPost2010Prop37
 90
       50
102
RTVSPost2010PropOp37
 70
     1
102
RTVSPost2010Prop38
140
0.0
102
RTVSPost2010PropOp38
 70
     1
102
RTVSPost2010Prop39
140
1.0
102
RTVSPost2010PropOp39
 70
     1
102
RTVSPost2010Prop40
 90
        0
102
RTVSPost2010PropOp40
 70
     1
102
RTVSPost2010Prop41ColorIndex
 90
       18
102
RTVSPost2010Prop41ColorRGB
 90
        0
102
RTVSPost2010PropOp41
 70
     1
102
RTVSPost2010Prop42
 90
       50
102
RTVSPost2010PropOp42
 70
     1
102
RTVSPost2010Prop43
 90
        3
102
RTVSPost2010PropOp43
 70
     1
102
RTVSPost2010Prop44ColorIndex
 90
        5
102
RTVSPost2010Prop44ColorRGB
 90
      255
102
RTVSPost2010PropOp44
 70
     1
102
RTVSPost2010Prop45
280
     0
102
RTVSPost2010PropOp45
 70
     1
102
RTVSPost2010Prop46
 90
       50
102
RTVSPost2010PropOp46
 70
     1
102
RTVSPost2010Prop47
 90
       50
102
RTVSPost2010PropOp47
 70
     1
102
RTVSPost2010Prop48
 90
       50
102
RTVSPost2010PropOp48
 70
     1
102
RTVSPost2010Prop49
280
     0
102
RTVSPost2010PropOp49
 70
     1
102
RTVSPost2010Prop50
 90
       50
102
RTVSPost2010PropOp50
 70
     1
102
RTVSPost2010Prop51ColorIndex
 90
      256
102
RTVSPost2010Prop51ColorRGB
 90
-16777216
102
RTVSPost2010PropOp51
 70
     0
102
RTVSPost2010Prop52
140
1.0
102
RTVSPost2010PropOp52
 70
     0
102
RTVSPost2010Prop53
 90
        2
102
RTVSPost2010PropOp53
 70
     1
102
RTVSPost2010Prop54
  1
strokes_ogs.tif
102
RTVSPost2010PropOp54
 70
     1
102
RTVSPost2010Prop55
280
     0
102
RTVSPost2010PropOp55
 70
     1
102
RTVSPost2010Prop56
140
1.0
102
RTVSPost2010PropOp56
 70
     1
102
RTVSPost2010Prop57
140
1.0
102
RTVSPost2010PropOp57
 70
     1
102
RTVSPropertyOp0
 70
     1
102
RTVSPropertyOp1
 70
     1
102
RTVSPropertyOp2
 70
     1
102
RTVSPropertyOp3
 70
     1
102
RTVSPropertyOp4
 70
     1
102
RTVSPropertyOp5
 70
     1
102
RTVSPropertyOp6
 70
     1
102
RTVSPropertyOp7
 70
     1
102
RTVSPropertyOp8
 70
     1
102
RTVSPropertyOp9
 70
     1
102
RTVSPropertyOp10
 70
     1
102
RTVSPropertyOp11
 70
     1
102
RTVSPropertyOp12
 70
     1
102
RTVSPropertyOp13
 70
     1
102
RTVSPropertyOp14
 70
     1
102
RTVSPropertyOp15
 70
     1
102
RTVSPropertyOp16
 70
     1
102
RTVSPropertyOp17
 70
     1
102
RTVSPropertyOp18
 70
     1
102
RTVSPropertyOp19
 70
     1
102
RTVSPropertyOp20
 70
     1
102
RTVSPropertyOp21
 70
     1
102
RTVSPropertyOp22
 70
     1
102
RTVSPropertyOp23
 70
     1
102
RTVSPropertyOp24
 70
     1
102
RTVSPropertyOp25
 70
     1
102
RTVSPropertyOp26
 70
     1
102
RTVSPropertyOp27
 70
     1
102
RTVSPropertyOp28
 70
     1
102
RTVSPropertyOp29
 70
     1
102
RTVSPropertyOp30
 70
     1
102
RTVSPropertyOp31
 70
     1
102
RTVSPropertyOp32
 70
     1
102
RTVSPropertyOp33
 70
     1
102
RTVSPropertyOp34
 70
     1
102
RTVSPropertyOp35
 70
     1
102
RTVSPropertyOp36
 70
     1
102
RTVSPropertyOp37
 70
     1
102
RTVSPropertyOp38
 70
     1
102
RTVSPropertyOp39
 70
     1
102
RTVSPropertyOp40
 70
     1
102
RTVSPropertyOp41
 70
     1
102
RTVSPropertyOp42
 70
     1
102
RTVSPropertyOp43
 70
     1
102
RTVSPropertyOp44
 70
     1
102
RTVSPropertyOp45
 70
     1
102
RTVSPropertyOp46
 70
     1
102
RTVSPropertyOp47
 70
     1
102
RTVSPropertyOp48
 70
     1
102
RTVSPropertyOp49
 70
     1
102
RTVSPropertyOp50
 70
     1
102
RTVSPropertyOp51
 70
     0
102
RTVSPropertyOp52
 70
     0
102
RTVSPropertyOp53
 70
     1
102
RTVSPropertyOp54
 70
     1
102
RTVSPropertyOp55
 70
     1
102
RTVSPropertyOp56
 70
     1
102
RTVSPropertyOp57
 70
     1
102
RTVSPropertyOp58
 70
     1
102
RTVSPropertyOp59
 70
     1
102
RTVSPropertyOp60
 70
     1
102
RTVSPropertyOp61
 70
     1
102
RTVSPropertyOp62
 70
     1
  0
XRECORD
  5
15774
102
{ACAD_REACTORS
330
15773
102
}
330
15773
100
AcDbXrecord
280
     1
102
RTVSPost2010Prop28
280
     0
102
RTVSPost2010PropOp28
 70
     1
102
RTVSPost2010Prop29
280
     1
102
RTVSPost2010PropOp29
 70
     1
102
RTVSPost2010Prop30
280
     1
102
RTVSPost2010PropOp30
 70
     1
102
RTVSPost2010Prop31
280
     0
102
RTVSPost2010PropOp31
 70
     1
102
RTVSPost2010Prop32
280
     0
102
RTVSPost2010PropOp32
 70
     1
102
RTVSPost2010Prop33
280
     0
102
RTVSPost2010PropOp33
 70
     1
102
RTVSPost2010Prop34
280
     0
102
RTVSPost2010PropOp34
 70
     1
102
RTVSPost2010Prop35
280
     0
102
RTVSPost2010PropOp35
 70
     1
102
RTVSPost2010Prop36
280
     0
102
RTVSPost2010PropOp36
 70
     1
102
RTVSPost2010Prop37
 90
       50
102
RTVSPost2010PropOp37
 70
     1
102
RTVSPost2010Prop38
140
0.0
102
RTVSPost2010PropOp38
 70
     1
102
RTVSPost2010Prop39
140
1.0
102
RTVSPost2010PropOp39
 70
     1
102
RTVSPost2010Prop40
 90
        0
102
RTVSPost2010PropOp40
 70
     1
102
RTVSPost2010Prop41ColorIndex
 90
       18
102
RTVSPost2010Prop41ColorRGB
 90
        0
102
RTVSPost2010PropOp41
 70
     1
102
RTVSPost2010Prop42
 90
       50
102
RTVSPost2010PropOp42
 70
     1
102
RTVSPost2010Prop43
 90
        3
102
RTVSPost2010PropOp43
 70
     1
102
RTVSPost2010Prop44ColorIndex
 90
        5
102
RTVSPost2010Prop44ColorRGB
 90
      255
102
RTVSPost2010PropOp44
 70
     1
102
RTVSPost2010Prop45
280
     0
102
RTVSPost2010PropOp45
 70
     1
102
RTVSPost2010Prop46
 90
       50
102
RTVSPost2010PropOp46
 70
     1
102
RTVSPost2010Prop47
 90
       50
102
RTVSPost2010PropOp47
 70
     1
102
RTVSPost2010Prop48
 90
       50
102
RTVSPost2010PropOp48
 70
     1
102
RTVSPost2010Prop49
280
     0
102
RTVSPost2010PropOp49
 70
     1
102
RTVSPost2010Prop50
 90
       50
102
RTVSPost2010PropOp50
 70
     1
102
RTVSPost2010Prop51ColorIndex
 90
      256
102
RTVSPost2010Prop51ColorRGB
 90
-16777216
102
RTVSPost2010PropOp51
 70
     0
102
RTVSPost2010Prop52
140
1.0
102
RTVSPost2010PropOp52
 70
     0
102
RTVSPost2010Prop53
 90
        2
102
RTVSPost2010PropOp53
 70
     1
102
RTVSPost2010Prop54
  1
strokes_ogs.tif
102
RTVSPost2010PropOp54
 70
     1
102
RTVSPost2010Prop55
280
     0
102
RTVSPost2010PropOp55
 70
     1
102
RTVSPost2010Prop56
140
1.0
102
RTVSPost2010PropOp56
 70
     1
102
RTVSPost2010Prop57
140
1.0
102
RTVSPost2010PropOp57
 70
     1
102
RTVSPropertyOp0
 70
     1
102
RTVSPropertyOp1
 70
     1
102
RTVSPropertyOp2
 70
     1
102
RTVSPropertyOp3
 70
     1
102
RTVSPropertyOp4
 70
     1
102
RTVSPropertyOp5
 70
     1
102
RTVSPropertyOp6
 70
     1
102
RTVSPropertyOp7
 70
     1
102
RTVSPropertyOp8
 70
     1
102
RTVSPropertyOp9
 70
     1
102
RTVSPropertyOp10
 70
     1
102
RTVSPropertyOp11
 70
     1
102
RTVSPropertyOp12
 70
     1
102
RTVSPropertyOp13
 70
     1
102
RTVSPropertyOp14
 70
     1
102
RTVSPropertyOp15
 70
     1
102
RTVSPropertyOp16
 70
     1
102
RTVSPropertyOp17
 70
     1
102
RTVSPropertyOp18
 70
     1
102
RTVSPropertyOp19
 70
     1
102
RTVSPropertyOp20
 70
     1
102
RTVSPropertyOp21
 70
     1
102
RTVSPropertyOp22
 70
     1
102
RTVSPropertyOp23
 70
     1
102
RTVSPropertyOp24
 70
     1
102
RTVSPropertyOp25
 70
     1
102
RTVSPropertyOp26
 70
     1
102
RTVSPropertyOp27
 70
     1
102
RTVSPropertyOp28
 70
     1
102
RTVSPropertyOp29
 70
     1
102
RTVSPropertyOp30
 70
     1
102
RTVSPropertyOp31
 70
     1
102
RTVSPropertyOp32
 70
     1
102
RTVSPropertyOp33
 70
     1
102
RTVSPropertyOp34
 70
     1
102
RTVSPropertyOp35
 70
     1
102
RTVSPropertyOp36
 70
     1
102
RTVSPropertyOp37
 70
     1
102
RTVSPropertyOp38
 70
     1
102
RTVSPropertyOp39
 70
     1
102
RTVSPropertyOp40
 70
     1
102
RTVSPropertyOp41
 70
     1
102
RTVSPropertyOp42
 70
     1
102
RTVSPropertyOp43
 70
     1
102
RTVSPropertyOp44
 70
     1
102
RTVSPropertyOp45
 70
     1
102
RTVSPropertyOp46
 70
     1
102
RTVSPropertyOp47
 70
     1
102
RTVSPropertyOp48
 70
     1
102
RTVSPropertyOp49
 70
     1
102
RTVSPropertyOp50
 70
     1
102
RTVSPropertyOp51
 70
     0
102
RTVSPropertyOp52
 70
     0
102
RTVSPropertyOp53
 70
     1
102
RTVSPropertyOp54
 70
     1
102
RTVSPropertyOp55
 70
     1
102
RTVSPropertyOp56
 70
     1
102
RTVSPropertyOp57
 70
     1
102
RTVSPropertyOp58
 70
     1
102
RTVSPropertyOp59
 70
     1
102
RTVSPropertyOp60
 70
     1
102
RTVSPropertyOp61
 70
     1
102
RTVSPropertyOp62
 70
     1
  0
XRECORD
  5
15768
102
{ACAD_REACTORS
330
15767
102
}
330
15767
100
AcDbXrecord
280
     1
102
RTVSPost2010Prop28
280
     0
102
RTVSPost2010PropOp28
 70
     1
102
RTVSPost2010Prop29
280
     1
102
RTVSPost2010PropOp29
 70
     1
102
RTVSPost2010Prop30
280
     1
102
RTVSPost2010PropOp30
 70
     1
102
RTVSPost2010Prop31
280
     0
102
RTVSPost2010PropOp31
 70
     1
102
RTVSPost2010Prop32
280
     0
102
RTVSPost2010PropOp32
 70
     1
102
RTVSPost2010Prop33
280
     0
102
RTVSPost2010PropOp33
 70
     1
102
RTVSPost2010Prop34
280
     0
102
RTVSPost2010PropOp34
 70
     1
102
RTVSPost2010Prop35
280
     0
102
RTVSPost2010PropOp35
 70
     1
102
RTVSPost2010Prop36
280
     0
102
RTVSPost2010PropOp36
 70
     1
102
RTVSPost2010Prop37
 90
       50
102
RTVSPost2010PropOp37
 70
     1
102
RTVSPost2010Prop38
140
0.0
102
RTVSPost2010PropOp38
 70
     1
102
RTVSPost2010Prop39
140
1.0
102
RTVSPost2010PropOp39
 70
     1
102
RTVSPost2010Prop40
 90
        0
102
RTVSPost2010PropOp40
 70
     1
102
RTVSPost2010Prop41ColorIndex
 90
       18
102
RTVSPost2010Prop41ColorRGB
 90
        0
102
RTVSPost2010PropOp41
 70
     1
102
RTVSPost2010Prop42
 90
       50
102
RTVSPost2010PropOp42
 70
     1
102
RTVSPost2010Prop43
 90
        3
102
RTVSPost2010PropOp43
 70
     1
102
RTVSPost2010Prop44ColorIndex
 90
        5
102
RTVSPost2010Prop44ColorRGB
 90
      255
102
RTVSPost2010PropOp44
 70
     1
102
RTVSPost2010Prop45
280
     0
102
RTVSPost2010PropOp45
 70
     1
102
RTVSPost2010Prop46
 90
       50
102
RTVSPost2010PropOp46
 70
     1
102
RTVSPost2010Prop47
 90
       50
102
RTVSPost2010PropOp47
 70
     1
102
RTVSPost2010Prop48
 90
       50
102
RTVSPost2010PropOp48
 70
     1
102
RTVSPost2010Prop49
280
     0
102
RTVSPost2010PropOp49
 70
     1
102
RTVSPost2010Prop50
 90
       50
102
RTVSPost2010PropOp50
 70
     1
102
RTVSPost2010Prop51ColorIndex
 90
      256
102
RTVSPost2010Prop51ColorRGB
 90
-16777216
102
RTVSPost2010PropOp51
 70
     0
102
RTVSPost2010Prop52
140
1.0
102
RTVSPost2010PropOp52
 70
     0
102
RTVSPost2010Prop53
 90
        2
102
RTVSPost2010PropOp53
 70
     1
102
RTVSPost2010Prop54
  1
strokes_ogs.tif
102
RTVSPost2010PropOp54
 70
     1
102
RTVSPost2010Prop55
280
     0
102
RTVSPost2010PropOp55
 70
     1
102
RTVSPost2010Prop56
140
1.0
102
RTVSPost2010PropOp56
 70
     1
102
RTVSPost2010Prop57
140
1.0
102
RTVSPost2010PropOp57
 70
     1
102
RTVSPropertyOp0
 70
     1
102
RTVSPropertyOp1
 70
     1
102
RTVSPropertyOp2
 70
     1
102
RTVSPropertyOp3
 70
     1
102
RTVSPropertyOp4
 70
     1
102
RTVSPropertyOp5
 70
     1
102
RTVSPropertyOp6
 70
     1
102
RTVSPropertyOp7
 70
     1
102
RTVSPropertyOp8
 70
     1
102
RTVSPropertyOp9
 70
     1
102
RTVSPropertyOp10
 70
     1
102
RTVSPropertyOp11
 70
     1
102
RTVSPropertyOp12
 70
     1
102
RTVSPropertyOp13
 70
     1
102
RTVSPropertyOp14
 70
     1
102
RTVSPropertyOp15
 70
     1
102
RTVSPropertyOp16
 70
     1
102
RTVSPropertyOp17
 70
     1
102
RTVSPropertyOp18
 70
     1
102
RTVSPropertyOp19
 70
     1
102
RTVSPropertyOp20
 70
     1
102
RTVSPropertyOp21
 70
     1
102
RTVSPropertyOp22
 70
     1
102
RTVSPropertyOp23
 70
     1
102
RTVSPropertyOp24
 70
     1
102
RTVSPropertyOp25
 70
     1
102
RTVSPropertyOp26
 70
     1
102
RTVSPropertyOp27
 70
     1
102
RTVSPropertyOp28
 70
     1
102
RTVSPropertyOp29
 70
     1
102
RTVSPropertyOp30
 70
     1
102
RTVSPropertyOp31
 70
     1
102
RTVSPropertyOp32
 70
     1
102
RTVSPropertyOp33
 70
     1
102
RTVSPropertyOp34
 70
     1
102
RTVSPropertyOp35
 70
     1
102
RTVSPropertyOp36
 70
     1
102
RTVSPropertyOp37
 70
     1
102
RTVSPropertyOp38
 70
     1
102
RTVSPropertyOp39
 70
     1
102
RTVSPropertyOp40
 70
     1
102
RTVSPropertyOp41
 70
     1
102
RTVSPropertyOp42
 70
     1
102
RTVSPropertyOp43
 70
     1
102
RTVSPropertyOp44
 70
     1
102
RTVSPropertyOp45
 70
     1
102
RTVSPropertyOp46
 70
     1
102
RTVSPropertyOp47
 70
     1
102
RTVSPropertyOp48
 70
     1
102
RTVSPropertyOp49
 70
     1
102
RTVSPropertyOp50
 70
     1
102
RTVSPropertyOp51
 70
     0
102
RTVSPropertyOp52
 70
     0
102
RTVSPropertyOp53
 70
     1
102
RTVSPropertyOp54
 70
     1
102
RTVSPropertyOp55
 70
     1
102
RTVSPropertyOp56
 70
     1
102
RTVSPropertyOp57
 70
     1
102
RTVSPropertyOp58
 70
     1
102
RTVSPropertyOp59
 70
     1
102
RTVSPropertyOp60
 70
     1
102
RTVSPropertyOp61
 70
     1
102
RTVSPropertyOp62
 70
     1
  0
XRECORD
  5
15780
102
{ACAD_REACTORS
330
1577F
102
}
330
1577F
100
AcDbXrecord
280
     1
102
RTVSPost2010Prop28
280
     0
102
RTVSPost2010PropOp28
 70
     1
102
RTVSPost2010Prop29
280
     1
102
RTVSPost2010PropOp29
 70
     1
102
RTVSPost2010Prop30
280
     1
102
RTVSPost2010PropOp30
 70
     1
102
RTVSPost2010Prop31
280
     0
102
RTVSPost2010PropOp31
 70
     1
102
RTVSPost2010Prop32
280
     0
102
RTVSPost2010PropOp32
 70
     1
102
RTVSPost2010Prop33
280
     0
102
RTVSPost2010PropOp33
 70
     1
102
RTVSPost2010Prop34
280
     0
102
RTVSPost2010PropOp34
 70
     1
102
RTVSPost2010Prop35
280
     0
102
RTVSPost2010PropOp35
 70
     1
102
RTVSPost2010Prop36
280
     0
102
RTVSPost2010PropOp36
 70
     1
102
RTVSPost2010Prop37
 90
       50
102
RTVSPost2010PropOp37
 70
     1
102
RTVSPost2010Prop38
140
0.0
102
RTVSPost2010PropOp38
 70
     1
102
RTVSPost2010Prop39
140
1.0
102
RTVSPost2010PropOp39
 70
     1
102
RTVSPost2010Prop40
 90
        0
102
RTVSPost2010PropOp40
 70
     1
102
RTVSPost2010Prop41ColorIndex
 90
       18
102
RTVSPost2010Prop41ColorRGB
 90
        0
102
RTVSPost2010PropOp41
 70
     1
102
RTVSPost2010Prop42
 90
       50
102
RTVSPost2010PropOp42
 70
     1
102
RTVSPost2010Prop43
 90
        3
102
RTVSPost2010PropOp43
 70
     1
102
RTVSPost2010Prop44ColorIndex
 90
        5
102
RTVSPost2010Prop44ColorRGB
 90
      255
102
RTVSPost2010PropOp44
 70
     1
102
RTVSPost2010Prop45
280
     0
102
RTVSPost2010PropOp45
 70
     1
102
RTVSPost2010Prop46
 90
       50
102
RTVSPost2010PropOp46
 70
     1
102
RTVSPost2010Prop47
 90
       50
102
RTVSPost2010PropOp47
 70
     1
102
RTVSPost2010Prop48
 90
       50
102
RTVSPost2010PropOp48
 70
     1
102
RTVSPost2010Prop49
280
     0
102
RTVSPost2010PropOp49
 70
     1
102
RTVSPost2010Prop50
 90
       50
102
RTVSPost2010PropOp50
 70
     1
102
RTVSPost2010Prop51ColorIndex
 90
      256
102
RTVSPost2010Prop51ColorRGB
 90
-16777216
102
RTVSPost2010PropOp51
 70
     0
102
RTVSPost2010Prop52
140
1.0
102
RTVSPost2010PropOp52
 70
     0
102
RTVSPost2010Prop53
 90
        2
102
RTVSPost2010PropOp53
 70
     1
102
RTVSPost2010Prop54
  1
strokes_ogs.tif
102
RTVSPost2010PropOp54
 70
     1
102
RTVSPost2010Prop55
280
     0
102
RTVSPost2010PropOp55
 70
     1
102
RTVSPost2010Prop56
140
1.0
102
RTVSPost2010PropOp56
 70
     1
102
RTVSPost2010Prop57
140
1.0
102
RTVSPost2010PropOp57
 70
     1
102
RTVSPropertyOp0
 70
     1
102
RTVSPropertyOp1
 70
     1
102
RTVSPropertyOp2
 70
     1
102
RTVSPropertyOp3
 70
     1
102
RTVSPropertyOp4
 70
     1
102
RTVSPropertyOp5
 70
     1
102
RTVSPropertyOp6
 70
     1
102
RTVSPropertyOp7
 70
     1
102
RTVSPropertyOp8
 70
     1
102
RTVSPropertyOp9
 70
     1
102
RTVSPropertyOp10
 70
     1
102
RTVSPropertyOp11
 70
     1
102
RTVSPropertyOp12
 70
     1
102
RTVSPropertyOp13
 70
     1
102
RTVSPropertyOp14
 70
     1
102
RTVSPropertyOp15
 70
     1
102
RTVSPropertyOp16
 70
     1
102
RTVSPropertyOp17
 70
     1
102
RTVSPropertyOp18
 70
     1
102
RTVSPropertyOp19
 70
     1
102
RTVSPropertyOp20
 70
     1
102
RTVSPropertyOp21
 70
     1
102
RTVSPropertyOp22
 70
     1
102
RTVSPropertyOp23
 70
     1
102
RTVSPropertyOp24
 70
     1
102
RTVSPropertyOp25
 70
     1
102
RTVSPropertyOp26
 70
     1
102
RTVSPropertyOp27
 70
     1
102
RTVSPropertyOp28
 70
     1
102
RTVSPropertyOp29
 70
     1
102
RTVSPropertyOp30
 70
     1
102
RTVSPropertyOp31
 70
     1
102
RTVSPropertyOp32
 70
     1
102
RTVSPropertyOp33
 70
     1
102
RTVSPropertyOp34
 70
     1
102
RTVSPropertyOp35
 70
     1
102
RTVSPropertyOp36
 70
     1
102
RTVSPropertyOp37
 70
     1
102
RTVSPropertyOp38
 70
     1
102
RTVSPropertyOp39
 70
     1
102
RTVSPropertyOp40
 70
     1
102
RTVSPropertyOp41
 70
     1
102
RTVSPropertyOp42
 70
     1
102
RTVSPropertyOp43
 70
     1
102
RTVSPropertyOp44
 70
     1
102
RTVSPropertyOp45
 70
     1
102
RTVSPropertyOp46
 70
     1
102
RTVSPropertyOp47
 70
     1
102
RTVSPropertyOp48
 70
     1
102
RTVSPropertyOp49
 70
     1
102
RTVSPropertyOp50
 70
     1
102
RTVSPropertyOp51
 70
     0
102
RTVSPropertyOp52
 70
     0
102
RTVSPropertyOp53
 70
     1
102
RTVSPropertyOp54
 70
     1
102
RTVSPropertyOp55
 70
     1
102
RTVSPropertyOp56
 70
     1
102
RTVSPropertyOp57
 70
     1
102
RTVSPropertyOp58
 70
     1
102
RTVSPropertyOp59
 70
     1
102
RTVSPropertyOp60
 70
     1
102
RTVSPropertyOp61
 70
     1
102
RTVSPropertyOp62
 70
     1
  0
ENDSEC
  0
EOF
