  0
SECTION
  2
HEADER
  9
$ACADVER
  1
AC1015
  9
$ACADMAINTVER
 70
    20
  9
$DWGCODEPAGE
  3
ANSI_932
  9
$INSBASE
 10
0.0
 20
0.0
 30
0.0
  9
$EXTMIN
 10
104.3976124660112
 20
-0.5437900492142945
 30
-0.0000000000013297
  9
$EXTMAX
 10
12231.24392539175
 20
8557.455845942092
 30
0.0000000000013297
  9
$LIMMIN
 10
0.0
 20
0.0
  9
$LIMMAX
 10
12600.0
 20
8910.0
  9
$ORTHOMODE
 70
     0
  9
$REGENMODE
 70
     1
  9
$FILLMODE
 70
     1
  9
$QTEXTMODE
 70
     0
  9
$MIRRTEXT
 70
     1
  9
$LTSCALE
 40
7.0
  9
$ATTMODE
 70
     1
  9
$TEXTSIZE
 40
100.0
  9
$TRACEWID
 40
1.0
  9
$TEXTSTYLE
  7
STYLE3
  9
$CLAYER
  8
点線
  9
$CELTYPE
  6
BYLAYER
  9
$CECOLOR
 62
   256
  9
$CELTSCALE
 40
50.0
  9
$DISPSILH
 70
     0
  9
$DIMSCALE
 40
30.0
  9
$DIMASZ
 40
2.5
  9
$DIMEXO
 40
0.5
  9
$DIMDLI
 40
7.0
  9
$DIMRND
 40
0.0
  9
$DIMDLE
 40
0.0
  9
$DIMEXE
 40
1.5
  9
$DIMTP
 40
0.0
  9
$DIMTM
 40
0.0
  9
$DIMTXT
 40
3.0
  9
$DIMCEN
 40
0.0
  9
$DIMTSZ
 40
0.0
  9
$DIMTOL
 70
     0
  9
$DIMLIM
 70
     0
  9
$DIMTIH
 70
     1
  9
$DIMTOH
 70
     1
  9
$DIMSE1
 70
     0
  9
$DIMSE2
 70
     0
  9
$DIMTAD
 70
     3
  9
$DIMZIN
 70
     8
  9
$DIMBLK
  1

  9
$DIMASO
 70
     1
  9
$DIMSHO
 70
     1
  9
$DIMPOST
  1

  9
$DIMAPOST
  1

  9
$DIMALT
 70
     0
  9
$DIMALTD
 70
     2
  9
$DIMALTF
 40
0.0394
  9
$DIMLFAC
 40
1.0
  9
$DIMTOFL
 70
     1
  9
$DIMTVP
 40
0.0
  9
$DIMTIX
 70
     1
  9
$DIMSOXD
 70
     1
  9
$DIMSAH
 70
     1
  9
$DIMBLK1
  1
DOTSMALL
  9
$DIMBLK2
  1
DOTSMALL
  9
$DIMSTYLE
  2
INABA_S30G
  9
$DIMCLRD
 70
     0
  9
$DIMCLRE
 70
     0
  9
$DIMCLRT
 70
     7
  9
$DIMTFAC
 40
1.0
  9
$DIMGAP
 40
1.0
  9
$DIMJUST
 70
     0
  9
$DIMSD1
 70
     0
  9
$DIMSD2
 70
     0
  9
$DIMTOLJ
 70
     1
  9
$DIMTZIN
 70
     0
  9
$DIMALTZ
 70
     0
  9
$DIMALTTZ
 70
     0
  9
$DIMUPT
 70
     0
  9
$DIMDEC
 70
     1
  9
$DIMTDEC
 70
     1
  9
$DIMALTU
 70
     2
  9
$DIMALTTD
 70
     2
  9
$DIMTXSTY
  7
STYLE1
  9
$DIMAUNIT
 70
     0
  9
$DIMADEC
 70
     0
  9
$DIMALTRND
 40
0.0
  9
$DIMAZIN
 70
     0
  9
$DIMDSEP
 70
    46
  9
$DIMATFIT
 70
     3
  9
$DIMFRAC
 70
     0
  9
$DIMLDRBLK
  1

  9
$DIMLUNIT
 70
     2
  9
$DIMLWD
 70
    -2
  9
$DIMLWE
 70
    -2
  9
$DIMTMOVE
 70
     0
  9
$LUNITS
 70
     2
  9
$LUPREC
 70
     1
  9
$SKETCHINC
 40
1.0
  9
$FILLETRAD
 40
5.0
  9
$AUNITS
 70
     0
  9
$AUPREC
 70
     0
  9
$MENU
  1
acad
  9
$ELEVATION
 40
0.0
  9
$PELEVATION
 40
0.0
  9
$THICKNESS
 40
0.0
  9
$LIMCHECK
 70
     0
  9
$CHAMFERA
 40
0.0
  9
$CHAMFERB
 40
0.0
  9
$CHAMFERC
 40
0.0
  9
$CHAMFERD
 40
0.0
  9
$SKPOLY
 70
     0
  9
$TDCREATE
 40
2451074.411873148
  9
$TDUCREATE
 40
2451074.036873148
  9
$TDUPDATE
 40
2456560.837522662
  9
$TDUUPDATE
 40
2456560.462522662
  9
$TDINDWG
 40
0.3379645833
  9
$TDUSRTIMER
 40
0.3379645833
  9
$USRTIMER
 70
     1
  9
$ANGBASE
 50
0.0
  9
$ANGDIR
 70
     0
  9
$PDMODE
 70
     3
  9
$PDSIZE
 40
2.0
  9
$PLINEWID
 40
0.0
  9
$SPLFRAME
 70
     0
  9
$SPLINETYPE
 70
     6
  9
$SPLINESEGS
 70
     8
  9
$HANDSEED
  5
15881
  9
$SURFTAB1
 70
     6
  9
$SURFTAB2
 70
     6
  9
$SURFTYPE
 70
     6
  9
$SURFU
 70
     6
  9
$SURFV
 70
     6
  9
$UCSBASE
  2

  9
$UCSNAME
  2

  9
$UCSORG
 10
0.0
 20
0.0
 30
0.0
  9
$UCSXDIR
 10
1.0
 20
0.0
 30
0.0
  9
$UCSYDIR
 10
0.0
 20
1.0
 30
0.0
  9
$UCSORTHOREF
  2

  9
$UCSORTHOVIEW
 70
     0
  9
$UCSORGTOP
 10
0.0
 20
0.0
 30
0.0
  9
$UCSORGBOTTOM
 10
0.0
 20
0.0
 30
0.0
  9
$UCSORGLEFT
 10
0.0
 20
0.0
 30
0.0
  9
$UCSORGRIGHT
 10
0.0
 20
0.0
 30
0.0
  9
$UCSORGFRONT
 10
0.0
 20
0.0
 30
0.0
  9
$UCSORGBACK
 10
0.0
 20
0.0
 30
0.0
  9
$PUCSBASE
  2

  9
$PUCSNAME
  2

  9
$PUCSORG
 10
0.0
 20
0.0
 30
0.0
  9
$PUCSXDIR
 10
1.0
 20
0.0
 30
0.0
  9
$PUCSYDIR
 10
0.0
 20
1.0
 30
0.0
  9
$PUCSORTHOREF
  2

  9
$PUCSORTHOVIEW
 70
     0
  9
$PUCSORGTOP
 10
0.0
 20
0.0
 30
0.0
  9
$PUCSORGBOTTOM
 10
0.0
 20
0.0
 30
0.0
  9
$PUCSORGLEFT
 10
0.0
 20
0.0
 30
0.0
  9
$PUCSORGRIGHT
 10
0.0
 20
0.0
 30
0.0
  9
$PUCSORGFRONT
 10
0.0
 20
0.0
 30
0.0
  9
$PUCSORGBACK
 10
0.0
 20
0.0
 30
0.0
  9
$USERI1
 70
     0
  9
$USERI2
 70
     0
  9
$USERI3
 70
     0
  9
$USERI4
 70
     0
  9
$USERI5
 70
     0
  9
$USERR1
 40
0.0
  9
$USERR2
 40
0.0
  9
$USERR3
 40
0.0
  9
$USERR4
 40
0.0
  9
$USERR5
 40
0.0
  9
$WORLDVIEW
 70
     1
  9
$SHADEDGE
 70
     3
  9
$SHADEDIF
 70
    70
  9
$TILEMODE
 70
     1
  9
$MAXACTVP
 70
    16
  9
$PINSBASE
 10
0.0
 20
0.0
 30
0.0
  9
$PLIMCHECK
 70
     0
  9
$PEXTMIN
 10
1.000000000000000E+20
 20
1.000000000000000E+20
 30
1.000000000000000E+20
  9
$PEXTMAX
 10
-1.000000000000000E+20
 20
-1.000000000000000E+20
 30
-1.000000000000000E+20
  9
$PLIMMIN
 10
0.0
 20
0.0
  9
$PLIMMAX
 10
420.0
 20
297.0
  9
$UNITMODE
 70
     0
  9
$VISRETAIN
 70
     0
  9
$PLINEGEN
 70
     0
  9
$PSLTSCALE
 70
     0
  9
$TREEDEPTH
 70
  3020
  9
$CMLSTYLE
  2
STANDARD
  9
$CMLJUST
 70
     0
  9
$CMLSCALE
 40
1.0
  9
$PROXYGRAPHICS
 70
     1
  9
$MEASUREMENT
 70
     1
  9
$CELWEIGHT
370
    -1
  9
$ENDCAPS
280
     0
  9
$JOINSTYLE
280
     0
  9
$LWDISPLAY
290
     0
  9
$INSUNITS
 70
     0
  9
$HYPERLINKBASE
  1

  9
$STYLESHEET
  1
inaba.ctb
  9
$XEDIT
290
     1
  9
$CEPSNTYPE
380
     0
  9
$PSTYLEMODE
290
     1
  9
$FINGERPRINTGUID
  2
{696AEDA2-CF37-4C16-A548-8F3E259D4281}
  9
$VERSIONGUID
  2
{421770E8-0650-4118-9982-E94AD2F19D93}
  9
$EXTNAMES
290
     1
  9
$PSVPSCALE
 40
0.0
  9
$OLESTARTUP
290
     0
  0
ENDSEC
  0
SECTION
  2
CLASSES
  0
CLASS
  1
ACDBDICTIONARYWDFLT
  2
AcDbDictionaryWithDefault
  3
ObjectDBX Classes
 90
        0
280
     0
281
     0
  0
CLASS
  1
DICTIONARYVAR
  2
AcDbDictionaryVar
  3
ObjectDBX Classes
 90
        0
280
     0
281
     0
  0
CLASS
  1
MATERIAL
  2
AcDbMaterial
  3
ObjectDBX Classes
 90
     1153
280
     0
281
     0
  0
CLASS
  1
VISUALSTYLE
  2
AcDbVisualStyle
  3
ObjectDBX Classes
 90
     4095
280
     0
281
     0
  0
CLASS
  1
TABLESTYLE
  2
AcDbTableStyle
  3
ObjectDBX Classes
 90
     4095
280
     0
281
     0
  0
CLASS
  1
SCALE
  2
AcDbScale
  3
ObjectDBX Classes
 90
     1153
280
     0
281
     0
  0
CLASS
  1
MLEADERSTYLE
  2
AcDbMLeaderStyle
  3
ACDB_MLEADERSTYLE_CLASS
 90
     4095
280
     0
281
     0
  0
CLASS
  1
ACDBSECTIONVIEWSTYLE
  2
AcDbSectionViewStyle
  3
ObjectDBX Classes
 90
     1025
280
     0
281
     0
  0
CLASS
  1
ACDBDETAILVIEWSTYLE
  2
AcDbDetailViewStyle
  3
ObjectDBX Classes
 90
     1025
280
     0
281
     0
  0
CLASS
  1
EXACXREFPANELOBJECT
  2
ExAcXREFPanelObject
  3
EXAC_ESW
 90
    33793
280
     0
281
     0
  0
CLASS
  1
NPOCOLLECTION
  2
AcDbImpNonPersistentObjectsCollection
  3
ObjectDBX Classes
 90
    33921
280
     0
281
     0
  0
CLASS
  1
CELLSTYLEMAP
  2
AcDbCellStyleMap
  3
ObjectDBX Classes
 90
     1152
280
     0
281
     0
  0
CLASS
  1
ACDBPLACEHOLDER
  2
AcDbPlaceHolder
  3
ObjectDBX Classes
 90
        0
280
     0
281
     0
  0
CLASS
  1
LAYOUT
  2
AcDbLayout
  3
ObjectDBX Classes
 90
        0
280
     0
281
     0
  0
ENDSEC
  0
SECTION
  2
TABLES
  0
TABLE
  2
VPORT
  5
746D
102
{ACAD_XDICTIONARY
360
15795
102
}
330
0
100
AcDbSymbolTable
 70
     1
  0
VPORT
  5
13E21
330
746D
100
AcDbSymbolTableRecord
100
AcDbViewportTableRecord
  2
*Active
 70
     0
 10
0.0
 20
0.0
 11
1.0
 21
1.0
 12
6167.820768928882
 22
4278.456027946439
 13
0.0
 23
0.0
 14
10.0
 24
10.0
 15
10.0
 25
10.0
 16
0.0
 26
0.0
 36
1.0
 17
0.0
 27
0.0
 37
0.0
 40
8769.005392911132
 41
1.390896921017402
 42
50.0
 43
0.0
 44
0.0
 50
0.0
 51
0.0
 71
     0
 72
     0
 73
     1
 74
     0
 75
     0
 76
     0
 77
     0
 78
     0
281
     0
 65
     1
110
0.0
120
0.0
130
0.0
111
1.0
121
0.0
131
0.0
112
0.0
122
1.0
132
0.0
 79
     0
146
0.0
1001
ACAD_NAV_VCDISPLAY
1070
     3
  0
ENDTAB
  0
TABLE
  2
LTYPE
  5
746A
330
0
100
AcDbSymbolTable
 70
     4
  0
LTYPE
  5
7477
330
746A
100
AcDbSymbolTableRecord
100
AcDbLinetypeTableRecord
  2
BYBLOCK
 70
     0
  3

 72
    65
 73
     0
 40
0.0
  0
LTYPE
  5
7478
330
746A
100
AcDbSymbolTableRecord
100
AcDbLinetypeTableRecord
  2
BYLAYER
 70
     0
  3

 72
    65
 73
     0
 40
0.0
  0
LTYPE
  5
7479
330
746A
100
AcDbSymbolTableRecord
100
AcDbLinetypeTableRecord
  2
CONTINUOUS
 70
     0
  3
Solid line
 72
    65
 73
     0
 40
0.0
  0
LTYPE
  5
781A
330
746A
100
AcDbSymbolTableRecord
100
AcDbLinetypeTableRecord
  2
HIDDEN
 70
     0
  3
__ __ __ __ __ __ __ __ __ __ __ __ __ __ __ __
 72
    65
 73
     2
 40
0.375
 49
0.25
 74
     0
 49
-0.125
 74
     0
  0
LTYPE
  5
781B
330
746A
100
AcDbSymbolTableRecord
100
AcDbLinetypeTableRecord
  2
PHANTOM
 70
     0
  3
______  __  __  ______  __  __  ______  __  __ 
 72
    65
 73
     6
 40
2.5
 49
1.25
 74
     0
 49
-0.25
 74
     0
 49
0.25
 74
     0
 49
-0.25
 74
     0
 49
0.25
 74
     0
 49
-0.25
 74
     0
  0
LTYPE
  5
13571
330
746A
100
AcDbSymbolTableRecord
100
AcDbLinetypeTableRecord
  2
CENTER
 70
     0
  3
Center ____ _ ____ _ ____ _ ____ _ ____ _ ____
 72
    65
 73
     4
 40
50.8
 49
31.75
 74
     0
 49
-6.349999999999999
 74
     0
 49
6.349999999999999
 74
     0
 49
-6.349999999999999
 74
     0
  0
ENDTAB
  0
TABLE
  2
LAYER
  5
7467
102
{ACAD_XDICTIONARY
360
13451
102
}
330
0
100
AcDbSymbolTable
 70
    15
  0
LAYER
  5
7474
102
{ACAD_XDICTIONARY
360
15775
102
}
330
7467
100
AcDbSymbolTableRecord
100
AcDbLayerTableRecord
  2
0
 70
     0
 62
     7
  6
CONTINUOUS
370
    -3
390
1341B
  0
LAYER
  5
DEB3
102
{ACAD_XDICTIONARY
360
15777
102
}
330
7467
100
AcDbSymbolTableRecord
100
AcDbLayerTableRecord
  2
寸法
 70
     0
 62
     4
  6
CONTINUOUS
370
    -3
390
1341B
  0
LAYER
  5
DEB4
102
{ACAD_XDICTIONARY
360
15779
102
}
330
7467
100
AcDbSymbolTableRecord
100
AcDbLayerTableRecord
  2
部品1
 70
     0
 62
     7
  6
CONTINUOUS
370
    -3
390
1341B
  0
LAYER
  5
DEB5
102
{ACAD_XDICTIONARY
360
1577B
102
}
330
7467
100
AcDbSymbolTableRecord
100
AcDbLayerTableRecord
  2
補助
 70
     0
 62
    -1
  6
CONTINUOUS
370
    -3
390
1341B
  0
LAYER
  5
DEB6
102
{ACAD_XDICTIONARY
360
1577D
102
}
330
7467
100
AcDbSymbolTableRecord
100
AcDbLayerTableRecord
  2
文字
 70
     0
 62
     7
  6
CONTINUOUS
370
    -3
390
1341B
  0
LAYER
  5
F255
330
7467
100
AcDbSymbolTableRecord
100
AcDbLayerTableRecord
  2
DEFPOINTS
 70
     0
 62
     7
  6
CONTINUOUS
290
     0
370
    -3
390
1341B
  0
LAYER
  5
10B54
102
{ACAD_XDICTIONARY
360
1577F
102
}
330
7467
100
AcDbSymbolTableRecord
100
AcDbLayerTableRecord
  2
仕様書枠
 70
     0
 62
   230
  6
CONTINUOUS
370
    -3
390
1341B
  0
LAYER
  5
11729
102
{ACAD_XDICTIONARY
360
15781
102
}
330
7467
100
AcDbSymbolTableRecord
100
AcDbLayerTableRecord
  2
Ｇ．Ｌ
 70
     0
 62
    30
  6
CONTINUOUS
370
    -3
390
1341B
  0
LAYER
  5
1173F
102
{ACAD_XDICTIONARY
360
15783
102
}
330
7467
100
AcDbSymbolTableRecord
100
AcDbLayerTableRecord
  2
細線
 70
     0
 62
     5
  6
CONTINUOUS
370
    -3
390
1341B
  0
LAYER
  5
11740
102
{ACAD_XDICTIONARY
360
15785
102
}
330
7467
100
AcDbSymbolTableRecord
100
AcDbLayerTableRecord
  2
点線
 70
     0
 62
     2
  6
HIDDEN
370
    -3
390
1341B
  0
LAYER
  5
1356E
102
{ACAD_XDICTIONARY
360
15787
102
}
330
7467
100
AcDbSymbolTableRecord
100
AcDbLayerTableRecord
  2
センター
 70
     0
 62
     3
  6
CENTER
370
    -3
390
1341B
  0
LAYER
  5
135FB
102
{ACAD_XDICTIONARY
360
15789
102
}
330
7467
100
AcDbSymbolTableRecord
100
AcDbLayerTableRecord
  2
想像線
 70
     0
 62
     6
  6
PHANTOM
370
    -3
390
1341B
  0
LAYER
  5
1382B
102
{ACAD_XDICTIONARY
360
1578B
102
}
330
7467
100
AcDbSymbolTableRecord
100
AcDbLayerTableRecord
  2
U7
 70
     0
 62
     2
  6
CONTINUOUS
370
    -3
390
1341B
  0
LAYER
  5
1382C
102
{ACAD_XDICTIONARY
360
1578D
102
}
330
7467
100
AcDbSymbolTableRecord
100
AcDbLayerTableRecord
  2
KIN-T
 70
     0
 62
     3
  6
CONTINUOUS
370
    -3
390
1341B
  0
LAYER
  5
1382D
102
{ACAD_XDICTIONARY
360
1578F
102
}
330
7467
100
AcDbSymbolTableRecord
100
AcDbLayerTableRecord
  2
CSLAYER17
 70
     0
 62
     7
  6
CONTINUOUS
370
    -3
390
1341B
  0
ENDTAB
  0
TABLE
  2
STYLE
  5
7468
330
0
100
AcDbSymbolTable
 70
     5
  0
STYLE
  5
7475
330
7468
100
AcDbSymbolTableRecord
100
AcDbTextStyleTableRecord
  2
STANDARD
 70
     0
 40
0.0
 41
1.0
 50
0.0
 71
     0
 42
4.0
  3
txt
  4
C:\AutoCAD LT\bigfont.shx
  0
STYLE
  5
763C
330
7468
100
AcDbSymbolTableRecord
100
AcDbTextStyleTableRecord
  2
MSMINCHO
 70
     0
 40
0.0
 41
1.0
 50
0.0
 71
     0
 42
1.199999999999999
  3
C:\AutoCAD LT\msminch2.TTF
  4

  0
STYLE
  5
F706
330
7468
100
AcDbSymbolTableRecord
100
AcDbTextStyleTableRecord
  2
STYLE1
 70
     0
 40
0.0
 41
1.0
 50
0.0
 71
     0
 42
4.0
  3
isocp.shx
  4
bigfont.shx
  0
STYLE
  5
103BF
330
7468
100
AcDbSymbolTableRecord
100
AcDbTextStyleTableRecord
  2
STYLE2
 70
     0
 40
0.0
 41
1.0
 50
0.0
 71
     0
 42
100.0
  3

  4

1001
ACAD
1000
MS PGothic
1071
    32818
  0
STYLE
  5
10BAA
330
7468
100
AcDbSymbolTableRecord
100
AcDbTextStyleTableRecord
  2
STYLE3
 70
     0
 40
0.0
 41
1.0
 50
0.0
 71
     0
 42
100.0
  3

  4

1001
ACAD
1000
MS PGothic
1071
    32818
  0
ENDTAB
  0
TABLE
  2
VIEW
  5
746B
330
0
100
AcDbSymbolTable
 70
     0
  0
ENDTAB
  0
TABLE
  2
UCS
  5
746C
330
0
100
AcDbSymbolTable
 70
     0
  0
ENDTAB
  0
TABLE
  2
APPID
  5
746E
330
0
100
AcDbSymbolTable
 70
    11
  0
APPID
  5
7476
330
746E
100
AcDbSymbolTableRecord
100
AcDbRegAppTableRecord
  2
ACAD
 70
     0
  0
APPID
  5
DEA9
330
746E
100
AcDbSymbolTableRecord
100
AcDbRegAppTableRecord
  2
CONTENTBLOCKICON
 70
     0
  0
APPID
  5
DEAA
330
746E
100
AcDbSymbolTableRecord
100
AcDbRegAppTableRecord
  2
CONTENTBLOCKDESCRIPTION
 70
     0
  0
APPID
  5
E71D
330
746E
100
AcDbSymbolTableRecord
100
AcDbRegAppTableRecord
  2
CONTENTTABDATA
 70
     0
  0
APPID
  5
E71E
330
746E
100
AcDbSymbolTableRecord
100
AcDbRegAppTableRecord
  2
CONTENTCURRENTTAB
 70
     0
  0
APPID
  5
F3BA
330
746E
100
AcDbSymbolTableRecord
100
AcDbRegAppTableRecord
  2
DRAWINGVARIABLESXDATA
 70
     0
  0
APPID
  5
14331
330
746E
100
AcDbSymbolTableRecord
100
AcDbRegAppTableRecord
  2
ACAD_NAV_VCDISPLAY
 70
     0
  0
APPID
  5
14332
330
746E
100
AcDbSymbolTableRecord
100
AcDbRegAppTableRecord
  2
GradientColor1ACI
 70
     0
  0
APPID
  5
14333
330
746E
100
AcDbSymbolTableRecord
100
AcDbRegAppTableRecord
  2
GradientColor2ACI
 70
     0
  0
APPID
  5
15236
330
746E
100
AcDbSymbolTableRecord
100
AcDbRegAppTableRecord
  2
ACAD_EXEMPT_FROM_CAD_STANDARDS
 70
     0
  0
APPID
  5
157CF
330
746E
100
AcDbSymbolTableRecord
100
AcDbRegAppTableRecord
  2
ACAD_MLEADERVER
 70
     0
  0
ENDTAB
  0
TABLE
  2
DIMSTYLE
  5
746F
330
0
100
AcDbSymbolTable
 70
     2
100
AcDbDimStyleTable
 71
     1
340
F71F
  0
DIMSTYLE
105
F71F
102
{ACAD_REACTORS
330
15285
330
15286
330
15287
330
15288
330
15289
330
1528A
330
15291
330
15292
330
15293
330
15294
330
1529E
330
1529F
330
152A0
330
152A1
330
152A2
330
152A3
330
152A4
330
152A5
330
152A6
330
152A7
330
15558
330
15559
330
154DA
330
154DB
330
154DC
330
154DD
330
154DE
330
154DF
330
154E0
330
154E1
330
154E2
102
}
330
746F
100
AcDbSymbolTableRecord
100
AcDbDimStyleTableRecord
  2
INABA_S30G
 70
     0
 40
30.0
 41
2.5
 42
0.5
 43
7.0
 44
1.5
 73
     0
 74
     0
 77
     3
 78
     8
140
3.0
141
0.0
143
0.0394
147
1.0
172
     1
173
     1
174
     1
175
     1
178
     7
271
     1
340
F706
341
F770
343
F770
344
F770
  0
DIMSTYLE
105
1382E
330
746F
100
AcDbSymbolTableRecord
100
AcDbDimStyleTableRecord
  2
INABA_S50G
 70
     0
 41
125.0
 42
25.0
 43
7.0
 44
75.0
 73
     0
 74
     0
 77
     3
 78
     8
140
150.0
141
0.0
143
0.0394
147
25.0
172
     1
173
     1
174
     1
178
     7
271
     1
340
F706
341
F770
343
F770
344
F770
  0
ENDTAB
  0
TABLE
  2
BLOCK_RECORD
  5
7466
330
0
100
AcDbSymbolTable
 70
    32
  0
BLOCK_RECORD
  5
747D
330
7466
100
AcDbSymbolTableRecord
100
AcDbBlockTableRecord
  2
*MODEL_SPACE
340
13420
  0
BLOCK_RECORD
  5
747A
330
7466
100
AcDbSymbolTableRecord
100
AcDbBlockTableRecord
  2
*PAPER_SPACE
340
13421
  0
BLOCK_RECORD
  5
F770
330
7466
100
AcDbSymbolTableRecord
100
AcDbBlockTableRecord
  2
_DOTSMALL
340
0
102
{BLKREFS
331
1565B
331
1565C
331
15665
331
15666
331
1566E
331
1566F
331
15677
331
15678
331
15680
331
15681
331
15689
331
1568A
331
15692
331
15693
331
1569D
331
1569E
331
156A8
331
156A9
331
156B2
331
156B3
331
156BD
331
156BE
331
156C6
331
156C7
331
156DE
331
156DF
331
156E7
331
156E8
331
156F1
331
156F2
331
156FA
331
156FB
331
15703
331
15704
331
1570C
331
1570D
331
15715
331
15716
331
1571E
331
1571F
331
15727
331
15728
331
15730
331
15731
331
15739
331
1573A
331
15742
331
15743
331
1574B
331
1574C
331
15754
331
15755
331
1575D
331
1575E
331
15766
331
15767
331
1576F
331
15770
102
}
  0
BLOCK_RECORD
  5
152A8
330
7466
100
AcDbSymbolTableRecord
100
AcDbBlockTableRecord
  2
*D1
340
0
  0
BLOCK_RECORD
  5
152B4
330
7466
100
AcDbSymbolTableRecord
100
AcDbBlockTableRecord
  2
*D2
340
0
  0
BLOCK_RECORD
  5
152BE
330
7466
100
AcDbSymbolTableRecord
100
AcDbBlockTableRecord
  2
*D3
340
0
  0
BLOCK_RECORD
  5
152C8
330
7466
100
AcDbSymbolTableRecord
100
AcDbBlockTableRecord
  2
*D4
340
0
  0
BLOCK_RECORD
  5
152D5
330
7466
100
AcDbSymbolTableRecord
100
AcDbBlockTableRecord
  2
*D5
340
0
  0
BLOCK_RECORD
  5
152E1
330
7466
100
AcDbSymbolTableRecord
100
AcDbBlockTableRecord
  2
*D6
340
0
  0
BLOCK_RECORD
  5
152EE
330
7466
100
AcDbSymbolTableRecord
100
AcDbBlockTableRecord
  2
*D7
340
0
  0
BLOCK_RECORD
  5
152FA
330
7466
100
AcDbSymbolTableRecord
100
AcDbBlockTableRecord
  2
*D8
340
0
  0
BLOCK_RECORD
  5
15306
330
7466
100
AcDbSymbolTableRecord
100
AcDbBlockTableRecord
  2
*D9
340
0
  0
BLOCK_RECORD
  5
15312
330
7466
100
AcDbSymbolTableRecord
100
AcDbBlockTableRecord
  2
*D10
340
0
  0
BLOCK_RECORD
  5
1531E
330
7466
100
AcDbSymbolTableRecord
100
AcDbBlockTableRecord
  2
*D11
340
0
  0
BLOCK_RECORD
  5
1532A
330
7466
100
AcDbSymbolTableRecord
100
AcDbBlockTableRecord
  2
*D12
340
0
  0
BLOCK_RECORD
  5
15336
330
7466
100
AcDbSymbolTableRecord
100
AcDbBlockTableRecord
  2
*D13
340
0
  0
BLOCK_RECORD
  5
15342
330
7466
100
AcDbSymbolTableRecord
100
AcDbBlockTableRecord
  2
*D14
340
0
  0
BLOCK_RECORD
  5
1534E
330
7466
100
AcDbSymbolTableRecord
100
AcDbBlockTableRecord
  2
*D15
340
0
  0
BLOCK_RECORD
  5
1535A
330
7466
100
AcDbSymbolTableRecord
100
AcDbBlockTableRecord
  2
*D16
340
0
  0
BLOCK_RECORD
  5
15366
330
7466
100
AcDbSymbolTableRecord
100
AcDbBlockTableRecord
  2
*D17
340
0
  0
BLOCK_RECORD
  5
15372
330
7466
100
AcDbSymbolTableRecord
100
AcDbBlockTableRecord
  2
*D18
340
0
  0
BLOCK_RECORD
  5
1537E
330
7466
100
AcDbSymbolTableRecord
100
AcDbBlockTableRecord
  2
*D19
340
0
  0
BLOCK_RECORD
  5
1538A
330
7466
100
AcDbSymbolTableRecord
100
AcDbBlockTableRecord
  2
*D20
340
0
  0
BLOCK_RECORD
  5
1555E
330
7466
100
AcDbSymbolTableRecord
100
AcDbBlockTableRecord
  2
*D21
340
0
  0
BLOCK_RECORD
  5
1556B
330
7466
100
AcDbSymbolTableRecord
100
AcDbBlockTableRecord
  2
*D22
340
0
  0
BLOCK_RECORD
  5
15579
330
7466
100
AcDbSymbolTableRecord
100
AcDbBlockTableRecord
  2
*D23
340
0
  0
BLOCK_RECORD
  5
15586
330
7466
100
AcDbSymbolTableRecord
100
AcDbBlockTableRecord
  2
*D24
340
0
  0
BLOCK_RECORD
  5
15593
330
7466
100
AcDbSymbolTableRecord
100
AcDbBlockTableRecord
  2
*D25
340
0
  0
BLOCK_RECORD
  5
1559F
330
7466
100
AcDbSymbolTableRecord
100
AcDbBlockTableRecord
  2
*D26
340
0
  0
BLOCK_RECORD
  5
155AB
330
7466
100
AcDbSymbolTableRecord
100
AcDbBlockTableRecord
  2
*D27
340
0
  0
BLOCK_RECORD
  5
155B7
330
7466
100
AcDbSymbolTableRecord
100
AcDbBlockTableRecord
  2
*D28
340
0
  0
BLOCK_RECORD
  5
155C3
330
7466
100
AcDbSymbolTableRecord
100
AcDbBlockTableRecord
  2
*D29
340
0
  0
BLOCK_RECORD
  5
155CF
330
7466
100
AcDbSymbolTableRecord
100
AcDbBlockTableRecord
  2
*D30
340
0
  0
BLOCK_RECORD
  5
155DD
330
7466
100
AcDbSymbolTableRecord
100
AcDbBlockTableRecord
  2
*D31
340
0
  0
ENDTAB
  0
ENDSEC
  0
SECTION
  2
BLOCKS
  0
BLOCK
  5
7489
330
747D
100
AcDbEntity
  8
0
100
AcDbBlockBegin
  2
*MODEL_SPACE
 70
     0
 10
0.0
 20
0.0
 30
0.0
  3
*MODEL_SPACE
  1

  0
ENDBLK
  5
748A
330
747D
100
AcDbEntity
  8
0
100
AcDbBlockEnd
  0
BLOCK
  5
7487
330
747A
100
AcDbEntity
 67
     1
  8
0
100
AcDbBlockBegin
  2
*PAPER_SPACE
 70
     0
 10
0.0
 20
0.0
 30
0.0
  3
*PAPER_SPACE
  1

  0
ENDBLK
  5
7488
330
747A
100
AcDbEntity
 67
     1
  8
0
100
AcDbBlockEnd
  0
BLOCK
  5
F771
330
F770
100
AcDbEntity
  8
0
 48
50.0
100
AcDbBlockBegin
  2
_DOTSMALL
 70
     0
 10
0.0
 20
0.0
 30
0.0
  3
_DOTSMALL
  1

  0
LWPOLYLINE
  5
F772
330
F770
100
AcDbEntity
  8
0
  6
ByBlock
 62
     0
 48
50.0
100
AcDbPolyline
 90
        2
 70
     1
 43
0.5
 10
-0.0625
 20
0.0
 42
1.0
 10
0.0625
 20
0.0
 42
1.0
  0
ENDBLK
  5
F776
330
F770
100
AcDbEntity
  8
0
 48
50.0
100
AcDbBlockEnd
  0
BLOCK
  5
152A9
330
152A8
100
AcDbEntity
  8
0
 48
50.0
100
AcDbBlockBegin
  2
*D1
 70
     1
 10
0.0
 20
0.0
 30
0.0
  3
*D1
  1

  0
LINE
  5
156C3
330
152A8
100
AcDbEntity
  8
寸法
 62
     0
 48
50.0
370
    -2
100
AcDbLine
 10
2170.716819809038
 20
1751.586635190039
 30
0.0
 11
2170.716819809038
 21
1256.598916853507
 31
0.0
  0
LINE
  5
156C4
330
152A8
100
AcDbEntity
  8
寸法
 62
     0
 48
50.0
370
    -2
100
AcDbLine
 10
5430.716819808922
 20
1751.586635190054
 30
0.0
 11
5430.716819808922
 21
1256.598916853507
 31
0.0
  0
LINE
  5
156C5
330
152A8
100
AcDbEntity
  8
寸法
 62
     0
 48
50.0
370
    -2
100
AcDbLine
 10
2170.716819809038
 20
1301.598916853507
 30
0.0
 11
5430.716819808922
 21
1301.598916853507
 31
0.0
  0
INSERT
  5
156C6
330
152A8
100
AcDbEntity
  8
寸法
 62
     0
 48
50.0
370
    -2
100
AcDbBlockReference
  2
_DOTSMALL
 10
2170.716819809038
 20
1301.598916853507
 30
0.0
 41
75.0
 42
75.0
 43
75.0
 50
180.0
  0
INSERT
  5
156C7
330
152A8
100
AcDbEntity
  8
寸法
 62
     0
 48
50.0
370
    -2
100
AcDbBlockReference
  2
_DOTSMALL
 10
5430.716819808922
 20
1301.598916853507
 30
0.0
 41
75.0
 42
75.0
 43
75.0
  0
MTEXT
  5
156C8
330
152A8
100
AcDbEntity
  8
寸法
 62
     7
 48
50.0
100
AcDbMText
 10
3800.71681980898
 20
1376.607775121224
 30
0.0
 40
90.0
 41
0.0
 71
     5
 72
     1
  1
\A1;屋根寸法 3260
  7
STYLE1
 73
     1
 44
1.0
1001
ACAD
1000
MTEXTBEGIN
1070
    73
1070
     1
1070
    44
1040
1.0
1070
    74
1070
     0
1000
MTEXTEND
  0
POINT
  5
156C9
330
152A8
100
AcDbEntity
  8
DEFPOINTS
 62
     0
 48
50.0
100
AcDbPoint
 10
2170.716819809038
 20
1766.586635190039
 30
0.0
  0
POINT
  5
156CA
330
152A8
100
AcDbEntity
  8
DEFPOINTS
 62
     0
 48
50.0
100
AcDbPoint
 10
5430.716819808922
 20
1766.586635190053
 30
0.0
  0
POINT
  5
156CB
330
152A8
100
AcDbEntity
  8
DEFPOINTS
 62
     0
 48
50.0
100
AcDbPoint
 10
5430.716819808922
 20
1301.598916853507
 30
0.0
  0
ENDBLK
  5
152AA
330
152A8
100
AcDbEntity
  8
0
 48
50.0
100
AcDbBlockEnd
  0
BLOCK
  5
152B5
330
152B4
100
AcDbEntity
  8
0
 48
50.0
100
AcDbBlockBegin
  2
*D2
 70
     1
 10
0.0
 20
0.0
 30
0.0
  3
*D2
  1

  0
LINE
  5
156CC
330
152B4
100
AcDbEntity
  8
寸法
 62
     0
 48
50.0
370
    -2
100
AcDbLine
 10
2170.716819809038
 20
1751.586635190039
 30
0.0
 11
2170.716819809038
 21
1256.598916853507
 31
0.0
  0
LINE
  5
156CD
330
152B4
100
AcDbEntity
  8
寸法
 62
     0
 48
50.0
370
    -2
100
AcDbLine
 10
2000.71681980898
 20
1615.086635190053
 30
0.0
 11
2000.71681980898
 21
1256.598916853507
 31
0.0
  0
LINE
  5
156CE
330
152B4
100
AcDbEntity
  8
寸法
 62
     0
 48
50.0
370
    -2
100
AcDbLine
 10
2170.716819809038
 20
1301.598916853507
 30
0.0
 11
2000.71681980898
 21
1301.598916853507
 31
0.0
  0
MTEXT
  5
156CF
330
152B4
100
AcDbEntity
  8
寸法
 62
     7
 48
50.0
100
AcDbMText
 10
2085.716819809009
 20
1376.598916853507
 30
0.0
 40
90.0
 41
0.0
 71
     5
 72
     1
  1
\A1;170
  7
STYLE1
 73
     1
 44
1.0
1001
ACAD
1000
MTEXTBEGIN
1070
    73
1070
     1
1070
    44
1040
1.0
1070
    74
1070
     0
1000
MTEXTEND
  0
POINT
  5
156D0
330
152B4
100
AcDbEntity
  8
DEFPOINTS
 62
     0
 48
50.0
100
AcDbPoint
 10
2170.716819809038
 20
1766.586635190039
 30
0.0
  0
POINT
  5
156D1
330
152B4
100
AcDbEntity
  8
DEFPOINTS
 62
     0
 48
50.0
100
AcDbPoint
 10
2000.71681980898
 20
1630.086635190053
 30
0.0
  0
POINT
  5
156D2
330
152B4
100
AcDbEntity
  8
DEFPOINTS
 62
     0
 48
50.0
100
AcDbPoint
 10
2000.71681980898
 20
1301.598916853507
 30
0.0
  0
ENDBLK
  5
152B6
330
152B4
100
AcDbEntity
  8
0
 48
50.0
100
AcDbBlockEnd
  0
BLOCK
  5
152BF
330
152BE
100
AcDbEntity
  8
0
 48
50.0
100
AcDbBlockBegin
  2
*D3
 70
     1
 10
0.0
 20
0.0
 30
0.0
  3
*D3
  1

  0
LINE
  5
156D3
330
152BE
100
AcDbEntity
  8
寸法
 62
     0
 48
50.0
370
    -2
100
AcDbLine
 10
5430.716819808922
 20
1751.586635190054
 30
0.0
 11
5430.716819808922
 21
1256.598916853507
 31
0.0
  0
LINE
  5
156D4
330
152BE
100
AcDbEntity
  8
寸法
 62
     0
 48
50.0
370
    -2
100
AcDbLine
 10
5600.71681980898
 20
1615.086635190053
 30
0.0
 11
5600.71681980898
 21
1256.598916853507
 31
0.0
  0
LINE
  5
156D5
330
152BE
100
AcDbEntity
  8
寸法
 62
     0
 48
50.0
370
    -2
100
AcDbLine
 10
5430.716819808922
 20
1301.598916853507
 30
0.0
 11
5600.71681980898
 21
1301.598916853507
 31
0.0
  0
MTEXT
  5
156D6
330
152BE
100
AcDbEntity
  8
寸法
 62
     7
 48
50.0
100
AcDbMText
 10
5515.716819808951
 20
1376.598916853507
 30
0.0
 40
90.0
 41
0.0
 71
     5
 72
     1
  1
\A1;170
  7
STYLE1
 73
     1
 44
1.0
1001
ACAD
1000
MTEXTBEGIN
1070
    73
1070
     1
1070
    44
1040
1.0
1070
    74
1070
     0
1000
MTEXTEND
  0
POINT
  5
156D7
330
152BE
100
AcDbEntity
  8
DEFPOINTS
 62
     0
 48
50.0
100
AcDbPoint
 10
5430.716819808922
 20
1766.586635190053
 30
0.0
  0
POINT
  5
156D8
330
152BE
100
AcDbEntity
  8
DEFPOINTS
 62
     0
 48
50.0
100
AcDbPoint
 10
5600.71681980898
 20
1630.086635190053
 30
0.0
  0
POINT
  5
156D9
330
152BE
100
AcDbEntity
  8
DEFPOINTS
 62
     0
 48
50.0
100
AcDbPoint
 10
5600.71681980898
 20
1301.598916853507
 30
0.0
  0
ENDBLK
  5
152C0
330
152BE
100
AcDbEntity
  8
0
 48
50.0
100
AcDbBlockEnd
  0
BLOCK
  5
152C9
330
152C8
100
AcDbEntity
  8
0
 48
50.0
100
AcDbBlockBegin
  2
*D4
 70
     1
 10
0.0
 20
0.0
 30
0.0
  3
*D4
  1

  0
LINE
  5
156DA
330
152C8
100
AcDbEntity
  8
寸法
 62
     0
 48
50.0
370
    -2
100
AcDbLine
 10
5445.716819808922
 20
1766.586635190053
 30
0.0
 11
6027.991042172581
 21
1766.586635190053
 31
0.0
  0
LINE
  5
156DB
330
152C8
100
AcDbEntity
  8
寸法
 62
     0
 48
50.0
370
    -2
100
AcDbLine
 10
5615.71681980898
 20
1630.086635190053
 30
0.0
 11
6027.991042172581
 21
1630.086635190053
 31
0.0
  0
LINE
  5
156DC
330
152C8
100
AcDbEntity
  8
寸法
 62
     0
 48
50.0
370
    -2
100
AcDbLine
 10
5982.991042172582
 20
1766.586635190053
 30
0.0
 11
5982.991042172582
 21
1630.086635190053
 31
0.0
  0
LINE
  5
156DD
330
152C8
100
AcDbEntity
  8
寸法
 62
     0
 48
50.0
370
    -2
100
AcDbLine
 10
5982.991042172582
 20
1630.086635190053
 30
0.0
 11
5982.991042172582
 21
1257.358713128695
 31
0.0
  0
INSERT
  5
156DE
330
152C8
100
AcDbEntity
  8
寸法
 62
     0
 48
50.0
370
    -2
100
AcDbBlockReference
  2
_DOTSMALL
 10
5982.991042172582
 20
1766.586635190053
 30
0.0
 41
75.0
 42
75.0
 43
75.0
 50
90.0
  0
INSERT
  5
156DF
330
152C8
100
AcDbEntity
  8
寸法
 62
     0
 48
50.0
370
    -2
100
AcDbBlockReference
  2
_DOTSMALL
 10
5982.991042172582
 20
1630.086635190053
 30
0.0
 41
75.0
 42
75.0
 43
75.0
 50
270.0
  0
MTEXT
  5
156E0
330
152C8
100
AcDbEntity
  8
寸法
 62
     7
 48
50.0
100
AcDbMText
 10
5907.991042172582
 20
1406.222674159375
 30
0.0
 40
90.0
 41
0.0
 71
     5
 72
     1
  1
\A1;136.5
  7
STYLE1
 11
0.0000000000000001
 21
1.0
 31
0.0
 73
     1
 44
1.0
1001
ACAD
1000
MTEXTBEGIN
1070
    73
1070
     1
1070
    44
1040
1.0
1070
    74
1070
     0
1000
MTEXTEND
  0
POINT
  5
156E1
330
152C8
100
AcDbEntity
  8
DEFPOINTS
 62
     0
 48
50.0
100
AcDbPoint
 10
5430.716819808922
 20
1766.586635190053
 30
0.0
  0
POINT
  5
156E2
330
152C8
100
AcDbEntity
  8
DEFPOINTS
 62
     0
 48
50.0
100
AcDbPoint
 10
5600.71681980898
 20
1630.086635190053
 30
0.0
  0
POINT
  5
156E3
330
152C8
100
AcDbEntity
  8
DEFPOINTS
 62
     0
 48
50.0
100
AcDbPoint
 10
5982.991042172582
 20
1630.086635190053
 30
0.0
  0
ENDBLK
  5
152CA
330
152C8
100
AcDbEntity
  8
0
 48
50.0
100
AcDbBlockEnd
  0
BLOCK
  5
152D6
330
152D5
100
AcDbEntity
  8
0
 48
50.0
100
AcDbBlockBegin
  2
*D5
 70
     1
 10
0.0
 20
0.0
 30
0.0
  3
*D5
  1

  0
LINE
  5
156E4
330
152D5
100
AcDbEntity
  8
寸法
 62
     0
 48
50.0
370
    -2
100
AcDbLine
 10
5445.716819808922
 20
5843.586635190053
 30
0.0
 11
6027.991042172583
 21
5843.586635190053
 31
0.0
  0
LINE
  5
156E5
330
152D5
100
AcDbEntity
  8
寸法
 62
     0
 48
50.0
370
    -2
100
AcDbLine
 10
5445.716819808922
 20
1766.586635190053
 30
0.0
 11
6027.991042172581
 21
1766.586635190053
 31
0.0
  0
LINE
  5
156E6
330
152D5
100
AcDbEntity
  8
寸法
 62
     0
 48
50.0
370
    -2
100
AcDbLine
 10
5982.991042172582
 20
5843.586635190053
 30
0.0
 11
5982.991042172582
 21
1766.586635190053
 31
0.0
  0
INSERT
  5
156E7
330
152D5
100
AcDbEntity
  8
寸法
 62
     0
 48
50.0
370
    -2
100
AcDbBlockReference
  2
_DOTSMALL
 10
5982.991042172582
 20
5843.586635190053
 30
0.0
 41
75.0
 42
75.0
 43
75.0
 50
90.0
  0
INSERT
  5
156E8
330
152D5
100
AcDbEntity
  8
寸法
 62
     0
 48
50.0
370
    -2
100
AcDbBlockReference
  2
_DOTSMALL
 10
5982.991042172582
 20
1766.586635190053
 30
0.0
 41
75.0
 42
75.0
 43
75.0
 50
270.0
  0
MTEXT
  5
156E9
330
152D5
100
AcDbEntity
  8
寸法
 62
     7
 48
50.0
100
AcDbMText
 10
5907.991042172582
 20
3805.086635190054
 30
0.0
 40
90.0
 41
0.0
 71
     5
 72
     1
  1
\A1;屋根寸法 4077
  7
STYLE1
 11
0.0000000000000001
 21
1.0
 31
0.0
 73
     1
 44
1.0
1001
ACAD
1000
MTEXTBEGIN
1070
    73
1070
     1
1070
    44
1040
1.0
1070
    74
1070
     0
1000
MTEXTEND
  0
POINT
  5
156EA
330
152D5
100
AcDbEntity
  8
DEFPOINTS
 62
     0
 48
50.0
100
AcDbPoint
 10
5430.716819808922
 20
5843.586635190053
 30
0.0
  0
POINT
  5
156EB
330
152D5
100
AcDbEntity
  8
DEFPOINTS
 62
     0
 48
50.0
100
AcDbPoint
 10
5430.716819808922
 20
1766.586635190053
 30
0.0
  0
POINT
  5
156EC
330
152D5
100
AcDbEntity
  8
DEFPOINTS
 62
     0
 48
50.0
100
AcDbPoint
 10
5982.991042172582
 20
1766.586635190053
 30
0.0
  0
ENDBLK
  5
152D7
330
152D5
100
AcDbEntity
  8
0
 48
50.0
100
AcDbBlockEnd
  0
BLOCK
  5
152E2
330
152E1
100
AcDbEntity
  8
0
 48
50.0
100
AcDbBlockBegin
  2
*D6
 70
     1
 10
0.0
 20
0.0
 30
0.0
  3
*D6
  1

  0
LINE
  5
156ED
330
152E1
100
AcDbEntity
  8
寸法
 62
     0
 48
50.0
370
    -2
100
AcDbLine
 10
5445.716819808922
 20
5843.586635190053
 30
0.0
 11
6027.991042172583
 21
5843.586635190053
 31
0.0
  0
LINE
  5
156EE
330
152E1
100
AcDbEntity
  8
寸法
 62
     0
 48
50.0
370
    -2
100
AcDbLine
 10
5615.71681980898
 20
5980.086635190053
 30
0.0
 11
6027.991042172583
 21
5980.086635190053
 31
0.0
  0
LINE
  5
156EF
330
152E1
100
AcDbEntity
  8
寸法
 62
     0
 48
50.0
370
    -2
100
AcDbLine
 10
5982.991042172582
 20
5843.586635190053
 30
0.0
 11
5982.991042172582
 21
5980.086635190053
 31
0.0
  0
LINE
  5
156F0
330
152E1
100
AcDbEntity
  8
寸法
 62
     0
 48
50.0
370
    -2
100
AcDbLine
 10
5982.991042172582
 20
5980.086635190053
 30
0.0
 11
5982.991042172583
 21
6352.81455725146
 31
0.0
  0
INSERT
  5
156F1
330
152E1
100
AcDbEntity
  8
寸法
 62
     0
 48
50.0
370
    -2
100
AcDbBlockReference
  2
_DOTSMALL
 10
5982.991042172582
 20
5843.586635190053
 30
0.0
 41
75.0
 42
75.0
 43
75.0
 50
270.0
  0
INSERT
  5
156F2
330
152E1
100
AcDbEntity
  8
寸法
 62
     0
 48
50.0
370
    -2
100
AcDbBlockReference
  2
_DOTSMALL
 10
5982.991042172582
 20
5980.086635190053
 30
0.0
 41
75.0
 42
75.0
 43
75.0
 50
90.0
  0
MTEXT
  5
156F3
330
152E1
100
AcDbEntity
  8
寸法
 62
     7
 48
50.0
100
AcDbMText
 10
5907.991042172582
 20
6203.950596220782
 30
0.0
 40
90.0
 41
0.0
 71
     5
 72
     1
  1
\A1;136.5
  7
STYLE1
 11
0.0000000000000001
 21
1.0
 31
0.0
 73
     1
 44
1.0
1001
ACAD
1000
MTEXTBEGIN
1070
    73
1070
     1
1070
    44
1040
1.0
1070
    74
1070
     0
1000
MTEXTEND
  0
POINT
  5
156F4
330
152E1
100
AcDbEntity
  8
DEFPOINTS
 62
     0
 48
50.0
100
AcDbPoint
 10
5430.716819808922
 20
5843.586635190053
 30
0.0
  0
POINT
  5
156F5
330
152E1
100
AcDbEntity
  8
DEFPOINTS
 62
     0
 48
50.0
100
AcDbPoint
 10
5600.71681980898
 20
5980.086635190053
 30
0.0
  0
POINT
  5
156F6
330
152E1
100
AcDbEntity
  8
DEFPOINTS
 62
     0
 48
50.0
100
AcDbPoint
 10
5982.991042172582
 20
5980.086635190053
 30
0.0
  0
ENDBLK
  5
152E3
330
152E1
100
AcDbEntity
  8
0
 48
50.0
100
AcDbBlockEnd
  0
BLOCK
  5
152EF
330
152EE
100
AcDbEntity
  8
0
 48
50.0
100
AcDbBlockBegin
  2
*D7
 70
     1
 10
0.0
 20
0.0
 30
0.0
  3
*D7
  1

  0
LINE
  5
156F7
330
152EE
100
AcDbEntity
  8
寸法
 62
     0
 48
50.0
370
    -2
100
AcDbLine
 10
1985.716819808951
 20
5980.086635190053
 30
0.0
 11
1392.09562108126
 21
5980.086635190053
 31
0.0
  0
LINE
  5
156F8
330
152EE
100
AcDbEntity
  8
寸法
 62
     0
 48
50.0
370
    -2
100
AcDbLine
 10
1985.716819808951
 20
1630.086635190053
 30
0.0
 11
1392.095621081259
 21
1630.086635190053
 31
0.0
  0
LINE
  5
156F9
330
152EE
100
AcDbEntity
  8
寸法
 62
     0
 48
50.0
370
    -2
100
AcDbLine
 10
1437.09562108126
 20
5980.086635190053
 30
0.0
 11
1437.095621081259
 21
1630.086635190053
 31
0.0
  0
INSERT
  5
156FA
330
152EE
100
AcDbEntity
  8
寸法
 62
     0
 48
50.0
370
    -2
100
AcDbBlockReference
  2
_DOTSMALL
 10
1437.09562108126
 20
5980.086635190053
 30
0.0
 41
75.0
 42
75.0
 43
75.0
 50
90.0
  0
INSERT
  5
156FB
330
152EE
100
AcDbEntity
  8
寸法
 62
     0
 48
50.0
370
    -2
100
AcDbBlockReference
  2
_DOTSMALL
 10
1437.095621081259
 20
1630.086635190053
 30
0.0
 41
75.0
 42
75.0
 43
75.0
 50
270.0
  0
MTEXT
  5
156FC
330
152EE
100
AcDbEntity
  8
寸法
 62
     7
 48
50.0
100
AcDbMText
 10
1362.095621081259
 20
3805.086635190054
 30
0.0
 40
90.0
 41
0.0
 71
     5
 72
     1
  1
\A1;基礎土間寸法 4350
  7
STYLE1
 11
0.0000000000000001
 21
1.0
 31
0.0
 73
     1
 44
1.0
1001
ACAD
1000
MTEXTBEGIN
1070
    73
1070
     1
1070
    44
1040
1.0
1070
    74
1070
     0
1000
MTEXTEND
  0
POINT
  5
156FD
330
152EE
100
AcDbEntity
  8
DEFPOINTS
 62
     0
 48
50.0
100
AcDbPoint
 10
2000.716819808951
 20
5980.086635190053
 30
0.0
  0
POINT
  5
156FE
330
152EE
100
AcDbEntity
  8
DEFPOINTS
 62
     0
 48
50.0
100
AcDbPoint
 10
2000.716819808951
 20
1630.086635190053
 30
0.0
  0
POINT
  5
156FF
330
152EE
100
AcDbEntity
  8
DEFPOINTS
 62
     0
 48
50.0
100
AcDbPoint
 10
1437.095621081259
 20
1630.086635190053
 30
0.0
  0
ENDBLK
  5
152F0
330
152EE
100
AcDbEntity
  8
0
 48
50.0
100
AcDbBlockEnd
  0
BLOCK
  5
152FB
330
152FA
100
AcDbEntity
  8
0
 48
50.0
100
AcDbBlockBegin
  2
*D8
 70
     1
 10
0.0
 20
0.0
 30
0.0
  3
*D8
  1

  0
LINE
  5
15700
330
152FA
100
AcDbEntity
  8
寸法
 62
     0
 48
50.0
370
    -2
100
AcDbLine
 10
2135.716819808951
 20
3630.086635190054
 30
0.0
 11
1614.844983097706
 21
3630.086635190054
 31
0.0
  0
LINE
  5
15701
330
152FA
100
AcDbEntity
  8
寸法
 62
     0
 48
50.0
370
    -2
100
AcDbLine
 10
1985.716819808951
 20
1630.086635190053
 30
0.0
 11
1614.844983097706
 21
1630.086635190053
 31
0.0
  0
LINE
  5
15702
330
152FA
100
AcDbEntity
  8
寸法
 62
     0
 48
50.0
370
    -2
100
AcDbLine
 10
1659.844983097706
 20
3630.086635190054
 30
0.0
 11
1659.844983097706
 21
1630.086635190053
 31
0.0
  0
INSERT
  5
15703
330
152FA
100
AcDbEntity
  8
寸法
 62
     0
 48
50.0
370
    -2
100
AcDbBlockReference
  2
_DOTSMALL
 10
1659.844983097706
 20
3630.086635190054
 30
0.0
 41
75.0
 42
75.0
 43
75.0
 50
90.0
  0
INSERT
  5
15704
330
152FA
100
AcDbEntity
  8
寸法
 62
     0
 48
50.0
370
    -2
100
AcDbBlockReference
  2
_DOTSMALL
 10
1659.844983097706
 20
1630.086635190053
 30
0.0
 41
75.0
 42
75.0
 43
75.0
 50
270.0
  0
MTEXT
  5
15705
330
152FA
100
AcDbEntity
  8
寸法
 62
     7
 48
50.0
100
AcDbMText
 10
1584.836124829989
 20
2630.086635190054
 30
0.0
 40
90.0
 41
0.0
 71
     5
 72
     1
  1
\A1;2000
  7
STYLE1
 11
0.0000000000000001
 21
1.0
 31
0.0
 73
     1
 44
1.0
1001
ACAD
1000
MTEXTBEGIN
1070
    73
1070
     1
1070
    44
1040
1.0
1070
    74
1070
     0
1000
MTEXTEND
  0
POINT
  5
15706
330
152FA
100
AcDbEntity
  8
DEFPOINTS
 62
     0
 48
50.0
100
AcDbPoint
 10
2150.716819808951
 20
3630.086635190054
 30
0.0
  0
POINT
  5
15707
330
152FA
100
AcDbEntity
  8
DEFPOINTS
 62
     0
 48
50.0
100
AcDbPoint
 10
2000.716819808951
 20
1630.086635190053
 30
0.0
  0
POINT
  5
15708
330
152FA
100
AcDbEntity
  8
DEFPOINTS
 62
     0
 48
50.0
100
AcDbPoint
 10
1659.844983097706
 20
1630.086635190053
 30
0.0
  0
ENDBLK
  5
152FC
330
152FA
100
AcDbEntity
  8
0
 48
50.0
100
AcDbBlockEnd
  0
BLOCK
  5
15307
330
15306
100
AcDbEntity
  8
0
 48
50.0
100
AcDbBlockBegin
  2
*D9
 70
     1
 10
0.0
 20
0.0
 30
0.0
  3
*D9
  1

  0
LINE
  5
15709
330
15306
100
AcDbEntity
  8
寸法
 62
     0
 48
50.0
370
    -2
100
AcDbLine
 10
2135.716819808951
 20
3980.086635190054
 30
0.0
 11
1614.844983097706
 21
3980.086635190054
 31
0.0
  0
LINE
  5
1570A
330
15306
100
AcDbEntity
  8
寸法
 62
     0
 48
50.0
370
    -2
100
AcDbLine
 10
2135.716819808951
 20
3630.086635190054
 30
0.0
 11
1614.844983097706
 21
3630.086635190054
 31
0.0
  0
LINE
  5
1570B
330
15306
100
AcDbEntity
  8
寸法
 62
     0
 48
50.0
370
    -2
100
AcDbLine
 10
1659.844983097706
 20
3980.086635190054
 30
0.0
 11
1659.844983097706
 21
3630.086635190054
 31
0.0
  0
INSERT
  5
1570C
330
15306
100
AcDbEntity
  8
寸法
 62
     0
 48
50.0
370
    -2
100
AcDbBlockReference
  2
_DOTSMALL
 10
1659.844983097706
 20
3980.086635190054
 30
0.0
 41
75.0
 42
75.0
 43
75.0
 50
90.0
  0
INSERT
  5
1570D
330
15306
100
AcDbEntity
  8
寸法
 62
     0
 48
50.0
370
    -2
100
AcDbBlockReference
  2
_DOTSMALL
 10
1659.844983097706
 20
3630.086635190054
 30
0.0
 41
75.0
 42
75.0
 43
75.0
 50
270.0
  0
MTEXT
  5
1570E
330
15306
100
AcDbEntity
  8
寸法
 62
     7
 48
50.0
100
AcDbMText
 10
1584.844983097705
 20
3805.086635190054
 30
0.0
 40
90.0
 41
0.0
 71
     5
 72
     1
  1
\A1;350
  7
STYLE1
 11
0.0000000000000001
 21
1.0
 31
0.0
 73
     1
 44
1.0
1001
ACAD
1000
MTEXTBEGIN
1070
    73
1070
     1
1070
    44
1040
1.0
1070
    74
1070
     0
1000
MTEXTEND
  0
POINT
  5
1570F
330
15306
100
AcDbEntity
  8
DEFPOINTS
 62
     0
 48
50.0
100
AcDbPoint
 10
2150.716819808951
 20
3980.086635190054
 30
0.0
  0
POINT
  5
15710
330
15306
100
AcDbEntity
  8
DEFPOINTS
 62
     0
 48
50.0
100
AcDbPoint
 10
2150.716819808951
 20
3630.086635190054
 30
0.0
  0
POINT
  5
15711
330
15306
100
AcDbEntity
  8
DEFPOINTS
 62
     0
 48
50.0
100
AcDbPoint
 10
1659.844983097706
 20
3630.086635190054
 30
0.0
  0
ENDBLK
  5
15308
330
15306
100
AcDbEntity
  8
0
 48
50.0
100
AcDbBlockEnd
  0
BLOCK
  5
15313
330
15312
100
AcDbEntity
  8
0
 48
50.0
100
AcDbBlockBegin
  2
*D10
 70
     1
 10
0.0
 20
0.0
 30
0.0
  3
*D10
  1

  0
LINE
  5
15712
330
15312
100
AcDbEntity
  8
寸法
 62
     0
 48
50.0
370
    -2
100
AcDbLine
 10
2135.716819808951
 20
3980.086635190054
 30
0.0
 11
1614.844983097705
 21
3980.086635190054
 31
0.0
  0
LINE
  5
15713
330
15312
100
AcDbEntity
  8
寸法
 62
     0
 48
50.0
370
    -2
100
AcDbLine
 10
1985.716819808951
 20
5980.086635190053
 30
0.0
 11
1614.844983097706
 21
5980.086635190053
 31
0.0
  0
LINE
  5
15714
330
15312
100
AcDbEntity
  8
寸法
 62
     0
 48
50.0
370
    -2
100
AcDbLine
 10
1659.844983097705
 20
3980.086635190054
 30
0.0
 11
1659.844983097706
 21
5980.086635190053
 31
0.0
  0
INSERT
  5
15715
330
15312
100
AcDbEntity
  8
寸法
 62
     0
 48
50.0
370
    -2
100
AcDbBlockReference
  2
_DOTSMALL
 10
1659.844983097705
 20
3980.086635190054
 30
0.0
 41
75.0
 42
75.0
 43
75.0
 50
270.0
  0
INSERT
  5
15716
330
15312
100
AcDbEntity
  8
寸法
 62
     0
 48
50.0
370
    -2
100
AcDbBlockReference
  2
_DOTSMALL
 10
1659.844983097706
 20
5980.086635190053
 30
0.0
 41
75.0
 42
75.0
 43
75.0
 50
90.0
  0
MTEXT
  5
15717
330
15312
100
AcDbEntity
  8
寸法
 62
     7
 48
50.0
100
AcDbMText
 10
1584.836124829988
 20
4980.086635190053
 30
0.0
 40
90.0
 41
0.0
 71
     5
 72
     1
  1
\A1;2000
  7
STYLE1
 11
0.0000000000000001
 21
1.0
 31
0.0
 73
     1
 44
1.0
1001
ACAD
1000
MTEXTBEGIN
1070
    73
1070
     1
1070
    44
1040
1.0
1070
    74
1070
     0
1000
MTEXTEND
  0
POINT
  5
15718
330
15312
100
AcDbEntity
  8
DEFPOINTS
 62
     0
 48
50.0
100
AcDbPoint
 10
2150.716819808951
 20
3980.086635190054
 30
0.0
  0
POINT
  5
15719
330
15312
100
AcDbEntity
  8
DEFPOINTS
 62
     0
 48
50.0
100
AcDbPoint
 10
2000.716819808951
 20
5980.086635190053
 30
0.0
  0
POINT
  5
1571A
330
15312
100
AcDbEntity
  8
DEFPOINTS
 62
     0
 48
50.0
100
AcDbPoint
 10
1659.844983097706
 20
5980.086635190053
 30
0.0
  0
ENDBLK
  5
15314
330
15312
100
AcDbEntity
  8
0
 48
50.0
100
AcDbBlockEnd
  0
BLOCK
  5
1531F
330
1531E
100
AcDbEntity
  8
0
 48
50.0
100
AcDbBlockBegin
  2
*D11
 70
     1
 10
0.0
 20
0.0
 30
0.0
  3
*D11
  1

  0
LINE
  5
1571B
330
1531E
100
AcDbEntity
  8
寸法
 62
     0
 48
50.0
370
    -2
100
AcDbLine
 10
2000.71681980898
 20
5995.086635190053
 30
0.0
 11
2000.71681980898
 21
6528.575968295472
 31
0.0
  0
LINE
  5
1571C
330
1531E
100
AcDbEntity
  8
寸法
 62
     0
 48
50.0
370
    -2
100
AcDbLine
 10
5600.71681980898
 20
5995.086635190053
 30
0.0
 11
5600.71681980898
 21
6528.575968295472
 31
0.0
  0
LINE
  5
1571D
330
1531E
100
AcDbEntity
  8
寸法
 62
     0
 48
50.0
370
    -2
100
AcDbLine
 10
2000.71681980898
 20
6483.575968295472
 30
0.0
 11
5600.71681980898
 21
6483.575968295472
 31
0.0
  0
INSERT
  5
1571E
330
1531E
100
AcDbEntity
  8
寸法
 62
     0
 48
50.0
370
    -2
100
AcDbBlockReference
  2
_DOTSMALL
 10
2000.71681980898
 20
6483.575968295472
 30
0.0
 41
75.0
 42
75.0
 43
75.0
 50
180.0
  0
INSERT
  5
1571F
330
1531E
100
AcDbEntity
  8
寸法
 62
     0
 48
50.0
370
    -2
100
AcDbBlockReference
  2
_DOTSMALL
 10
5600.71681980898
 20
6483.575968295472
 30
0.0
 41
75.0
 42
75.0
 43
75.0
  0
MTEXT
  5
15720
330
1531E
100
AcDbEntity
  8
寸法
 62
     7
 48
50.0
100
AcDbMText
 10
3800.71681980898
 20
6558.575968295471
 30
0.0
 40
90.0
 41
0.0
 71
     5
 72
     1
  1
\A1;基礎土間寸法 3600
  7
STYLE1
 73
     1
 44
1.0
1001
ACAD
1000
MTEXTBEGIN
1070
    73
1070
     1
1070
    44
1040
1.0
1070
    74
1070
     0
1000
MTEXTEND
  0
POINT
  5
15721
330
1531E
100
AcDbEntity
  8
DEFPOINTS
 62
     0
 48
50.0
100
AcDbPoint
 10
2000.71681980898
 20
5980.086635190053
 30
0.0
  0
POINT
  5
15722
330
1531E
100
AcDbEntity
  8
DEFPOINTS
 62
     0
 48
50.0
100
AcDbPoint
 10
5600.71681980898
 20
5980.086635190053
 30
0.0
  0
POINT
  5
15723
330
1531E
100
AcDbEntity
  8
DEFPOINTS
 62
     0
 48
50.0
100
AcDbPoint
 10
5600.71681980898
 20
6483.575968295472
 30
0.0
  0
ENDBLK
  5
15320
330
1531E
100
AcDbEntity
  8
0
 48
50.0
100
AcDbBlockEnd
  0
BLOCK
  5
1532B
330
1532A
100
AcDbEntity
  8
0
 48
50.0
100
AcDbBlockBegin
  2
*D12
 70
     1
 10
0.0
 20
0.0
 30
0.0
  3
*D12
  1

  0
LINE
  5
15724
330
1532A
100
AcDbEntity
  8
寸法
 62
     0
 48
50.0
370
    -2
100
AcDbLine
 10
5200.71681980898
 20
4245.086635190053
 30
0.0
 11
5200.71681980898
 21
6334.538929321154
 31
0.0
  0
LINE
  5
15725
330
1532A
100
AcDbEntity
  8
寸法
 62
     0
 48
50.0
370
    -2
100
AcDbLine
 10
5600.71681980898
 20
5995.086635190053
 30
0.0
 11
5600.71681980898
 21
6334.538929321154
 31
0.0
  0
LINE
  5
15726
330
1532A
100
AcDbEntity
  8
寸法
 62
     0
 48
50.0
370
    -2
100
AcDbLine
 10
5200.71681980898
 20
6289.538929321153
 30
0.0
 11
5600.71681980898
 21
6289.538929321153
 31
0.0
  0
INSERT
  5
15727
330
1532A
100
AcDbEntity
  8
寸法
 62
     0
 48
50.0
370
    -2
100
AcDbBlockReference
  2
_DOTSMALL
 10
5200.71681980898
 20
6289.538929321153
 30
0.0
 41
75.0
 42
75.0
 43
75.0
 50
180.0
  0
INSERT
  5
15728
330
1532A
100
AcDbEntity
  8
寸法
 62
     0
 48
50.0
370
    -2
100
AcDbBlockReference
  2
_DOTSMALL
 10
5600.71681980898
 20
6289.538929321153
 30
0.0
 41
75.0
 42
75.0
 43
75.0
  0
MTEXT
  5
15729
330
1532A
100
AcDbEntity
  8
寸法
 62
     7
 48
50.0
100
AcDbMText
 10
5400.71681980898
 20
6364.538929321153
 30
0.0
 40
90.0
 41
0.0
 71
     5
 72
     1
  1
\A1;400
  7
STYLE1
 73
     1
 44
1.0
1001
ACAD
1000
MTEXTBEGIN
1070
    73
1070
     1
1070
    44
1040
1.0
1070
    74
1070
     0
1000
MTEXTEND
  0
POINT
  5
1572A
330
1532A
100
AcDbEntity
  8
DEFPOINTS
 62
     0
 48
50.0
100
AcDbPoint
 10
5200.71681980898
 20
4230.086635190053
 30
0.0
  0
POINT
  5
1572B
330
1532A
100
AcDbEntity
  8
DEFPOINTS
 62
     0
 48
50.0
100
AcDbPoint
 10
5600.71681980898
 20
5980.086635190053
 30
0.0
  0
POINT
  5
1572C
330
1532A
100
AcDbEntity
  8
DEFPOINTS
 62
     0
 48
50.0
100
AcDbPoint
 10
5600.71681980898
 20
6289.538929321153
 30
0.0
  0
ENDBLK
  5
1532C
330
1532A
100
AcDbEntity
  8
0
 48
50.0
100
AcDbBlockEnd
  0
BLOCK
  5
15337
330
15336
100
AcDbEntity
  8
0
 48
50.0
100
AcDbBlockBegin
  2
*D13
 70
     1
 10
0.0
 20
0.0
 30
0.0
  3
*D13
  1

  0
LINE
  5
1572D
330
15336
100
AcDbEntity
  8
寸法
 62
     0
 48
50.0
370
    -2
100
AcDbLine
 10
2400.71681980898
 20
4245.086635190053
 30
0.0
 11
2400.71681980898
 21
6334.538929321154
 31
0.0
  0
LINE
  5
1572E
330
15336
100
AcDbEntity
  8
寸法
 62
     0
 48
50.0
370
    -2
100
AcDbLine
 10
5200.71681980898
 20
4245.086635190053
 30
0.0
 11
5200.71681980898
 21
6334.538929321154
 31
0.0
  0
LINE
  5
1572F
330
15336
100
AcDbEntity
  8
寸法
 62
     0
 48
50.0
370
    -2
100
AcDbLine
 10
2400.71681980898
 20
6289.538929321153
 30
0.0
 11
5200.71681980898
 21
6289.538929321153
 31
0.0
  0
INSERT
  5
15730
330
15336
100
AcDbEntity
  8
寸法
 62
     0
 48
50.0
370
    -2
100
AcDbBlockReference
  2
_DOTSMALL
 10
2400.71681980898
 20
6289.538929321153
 30
0.0
 41
75.0
 42
75.0
 43
75.0
 50
180.0
  0
INSERT
  5
15731
330
15336
100
AcDbEntity
  8
寸法
 62
     0
 48
50.0
370
    -2
100
AcDbBlockReference
  2
_DOTSMALL
 10
5200.71681980898
 20
6289.538929321153
 30
0.0
 41
75.0
 42
75.0
 43
75.0
  0
MTEXT
  5
15732
330
15336
100
AcDbEntity
  8
寸法
 62
     7
 48
50.0
100
AcDbMText
 10
3800.71681980898
 20
6364.54778758887
 30
0.0
 40
90.0
 41
0.0
 71
     5
 72
     1
  1
\A1;2800
  7
STYLE1
 73
     1
 44
1.0
1001
ACAD
1000
MTEXTBEGIN
1070
    73
1070
     1
1070
    44
1040
1.0
1070
    74
1070
     0
1000
MTEXTEND
  0
POINT
  5
15733
330
15336
100
AcDbEntity
  8
DEFPOINTS
 62
     0
 48
50.0
100
AcDbPoint
 10
2400.71681980898
 20
4230.086635190053
 30
0.0
  0
POINT
  5
15734
330
15336
100
AcDbEntity
  8
DEFPOINTS
 62
     0
 48
50.0
100
AcDbPoint
 10
5200.71681980898
 20
4230.086635190053
 30
0.0
  0
POINT
  5
15735
330
15336
100
AcDbEntity
  8
DEFPOINTS
 62
     0
 48
50.0
100
AcDbPoint
 10
5200.71681980898
 20
6289.538929321153
 30
0.0
  0
ENDBLK
  5
15338
330
15336
100
AcDbEntity
  8
0
 48
50.0
100
AcDbBlockEnd
  0
BLOCK
  5
15343
330
15342
100
AcDbEntity
  8
0
 48
50.0
100
AcDbBlockBegin
  2
*D14
 70
     1
 10
0.0
 20
0.0
 30
0.0
  3
*D14
  1

  0
LINE
  5
15736
330
15342
100
AcDbEntity
  8
寸法
 62
     0
 48
50.0
370
    -2
100
AcDbLine
 10
2000.71681980898
 20
5995.086635190053
 30
0.0
 11
2000.71681980898
 21
6334.538929321154
 31
0.0
  0
LINE
  5
15737
330
15342
100
AcDbEntity
  8
寸法
 62
     0
 48
50.0
370
    -2
100
AcDbLine
 10
2400.71681980898
 20
4245.086635190053
 30
0.0
 11
2400.71681980898
 21
6334.538929321154
 31
0.0
  0
LINE
  5
15738
330
15342
100
AcDbEntity
  8
寸法
 62
     0
 48
50.0
370
    -2
100
AcDbLine
 10
2000.71681980898
 20
6289.538929321153
 30
0.0
 11
2400.71681980898
 21
6289.538929321153
 31
0.0
  0
INSERT
  5
15739
330
15342
100
AcDbEntity
  8
寸法
 62
     0
 48
50.0
370
    -2
100
AcDbBlockReference
  2
_DOTSMALL
 10
2000.71681980898
 20
6289.538929321153
 30
0.0
 41
75.0
 42
75.0
 43
75.0
 50
180.0
  0
INSERT
  5
1573A
330
15342
100
AcDbEntity
  8
寸法
 62
     0
 48
50.0
370
    -2
100
AcDbBlockReference
  2
_DOTSMALL
 10
2400.71681980898
 20
6289.538929321153
 30
0.0
 41
75.0
 42
75.0
 43
75.0
  0
MTEXT
  5
1573B
330
15342
100
AcDbEntity
  8
寸法
 62
     7
 48
50.0
100
AcDbMText
 10
2200.71681980898
 20
6364.538929321153
 30
0.0
 40
90.0
 41
0.0
 71
     5
 72
     1
  1
\A1;400
  7
STYLE1
 73
     1
 44
1.0
1001
ACAD
1000
MTEXTBEGIN
1070
    73
1070
     1
1070
    44
1040
1.0
1070
    74
1070
     0
1000
MTEXTEND
  0
POINT
  5
1573C
330
15342
100
AcDbEntity
  8
DEFPOINTS
 62
     0
 48
50.0
100
AcDbPoint
 10
2000.71681980898
 20
5980.086635190053
 30
0.0
  0
POINT
  5
1573D
330
15342
100
AcDbEntity
  8
DEFPOINTS
 62
     0
 48
50.0
100
AcDbPoint
 10
2400.71681980898
 20
4230.086635190053
 30
0.0
  0
POINT
  5
1573E
330
15342
100
AcDbEntity
  8
DEFPOINTS
 62
     0
 48
50.0
100
AcDbPoint
 10
2400.71681980898
 20
6289.538929321153
 30
0.0
  0
ENDBLK
  5
15344
330
15342
100
AcDbEntity
  8
0
 48
50.0
100
AcDbBlockEnd
  0
BLOCK
  5
1534F
330
1534E
100
AcDbEntity
  8
0
 48
50.0
100
AcDbBlockBegin
  2
*D15
 70
     1
 10
0.0
 20
0.0
 30
0.0
  3
*D15
  1

  0
LINE
  5
1573F
330
1534E
100
AcDbEntity
  8
寸法
 62
     0
 48
50.0
370
    -2
100
AcDbLine
 10
5200.716819808952
 20
3365.086635190039
 30
0.0
 11
5200.716819808952
 21
2821.950419152948
 31
0.0
  0
LINE
  5
15740
330
1534E
100
AcDbEntity
  8
寸法
 62
     0
 48
50.0
370
    -2
100
AcDbLine
 10
4800.716819808951
 20
3090.086635190039
 30
0.0
 11
4800.716819808951
 21
2821.950419152948
 31
0.0
  0
LINE
  5
15741
330
1534E
100
AcDbEntity
  8
寸法
 62
     0
 48
50.0
370
    -2
100
AcDbLine
 10
5200.716819808952
 20
2866.950419152948
 30
0.0
 11
4800.716819808951
 21
2866.950419152948
 31
0.0
  0
INSERT
  5
15742
330
1534E
100
AcDbEntity
  8
寸法
 62
     0
 48
50.0
370
    -2
100
AcDbBlockReference
  2
_DOTSMALL
 10
5200.716819808952
 20
2866.950419152948
 30
0.0
 41
75.0
 42
75.0
 43
75.0
  0
INSERT
  5
15743
330
1534E
100
AcDbEntity
  8
寸法
 62
     0
 48
50.0
370
    -2
100
AcDbBlockReference
  2
_DOTSMALL
 10
4800.716819808951
 20
2866.950419152948
 30
0.0
 41
75.0
 42
75.0
 43
75.0
 50
180.0
  0
MTEXT
  5
15744
330
1534E
100
AcDbEntity
  8
寸法
 62
     7
 48
50.0
100
AcDbMText
 10
5000.716819808951
 20
2941.950419152947
 30
0.0
 40
90.0
 41
0.0
 71
     5
 72
     1
  1
\A1;400
  7
STYLE1
 73
     1
 44
1.0
1001
ACAD
1000
MTEXTBEGIN
1070
    73
1070
     1
1070
    44
1040
1.0
1070
    74
1070
     0
1000
MTEXTEND
  0
POINT
  5
15745
330
1534E
100
AcDbEntity
  8
DEFPOINTS
 62
     0
 48
50.0
100
AcDbPoint
 10
5200.716819808952
 20
3380.086635190039
 30
0.0
  0
POINT
  5
15746
330
1534E
100
AcDbEntity
  8
DEFPOINTS
 62
     0
 48
50.0
100
AcDbPoint
 10
4800.716819808951
 20
3105.086635190039
 30
0.0
  0
POINT
  5
15747
330
1534E
100
AcDbEntity
  8
DEFPOINTS
 62
     0
 48
50.0
100
AcDbPoint
 10
4800.716819808951
 20
2866.950419152948
 30
0.0
  0
ENDBLK
  5
15350
330
1534E
100
AcDbEntity
  8
0
 48
50.0
100
AcDbBlockEnd
  0
BLOCK
  5
1535B
330
1535A
100
AcDbEntity
  8
0
 48
50.0
100
AcDbBlockBegin
  2
*D16
 70
     1
 10
0.0
 20
0.0
 30
0.0
  3
*D16
  1

  0
LINE
  5
15748
330
1535A
100
AcDbEntity
  8
寸法
 62
     0
 48
50.0
370
    -2
100
AcDbLine
 10
4800.716819808951
 20
3090.086635190039
 30
0.0
 11
4800.716819808951
 21
2583.814203115885
 31
0.0
  0
LINE
  5
15749
330
1535A
100
AcDbEntity
  8
寸法
 62
     0
 48
50.0
370
    -2
100
AcDbLine
 10
5600.71681980898
 20
3090.086635190039
 30
0.0
 11
5600.71681980898
 21
2583.814203115885
 31
0.0
  0
LINE
  5
1574A
330
1535A
100
AcDbEntity
  8
寸法
 62
     0
 48
50.0
370
    -2
100
AcDbLine
 10
4800.716819808951
 20
2628.814203115885
 30
0.0
 11
5600.71681980898
 21
2628.814203115885
 31
0.0
  0
INSERT
  5
1574B
330
1535A
100
AcDbEntity
  8
寸法
 62
     0
 48
50.0
370
    -2
100
AcDbBlockReference
  2
_DOTSMALL
 10
4800.716819808951
 20
2628.814203115885
 30
0.0
 41
75.0
 42
75.0
 43
75.0
 50
180.0
  0
INSERT
  5
1574C
330
1535A
100
AcDbEntity
  8
寸法
 62
     0
 48
50.0
370
    -2
100
AcDbBlockReference
  2
_DOTSMALL
 10
5600.71681980898
 20
2628.814203115885
 30
0.0
 41
75.0
 42
75.0
 43
75.0
  0
MTEXT
  5
1574D
330
1535A
100
AcDbEntity
  8
寸法
 62
     7
 48
50.0
100
AcDbMText
 10
5200.716819808952
 20
2703.814203115884
 30
0.0
 40
90.0
 41
0.0
 71
     5
 72
     1
  1
\A1;800
  7
STYLE1
 73
     1
 44
1.0
1001
ACAD
1000
MTEXTBEGIN
1070
    73
1070
     1
1070
    44
1040
1.0
1070
    74
1070
     0
1000
MTEXTEND
  0
POINT
  5
1574E
330
1535A
100
AcDbEntity
  8
DEFPOINTS
 62
     0
 48
50.0
100
AcDbPoint
 10
4800.716819808951
 20
3105.086635190039
 30
0.0
  0
POINT
  5
1574F
330
1535A
100
AcDbEntity
  8
DEFPOINTS
 62
     0
 48
50.0
100
AcDbPoint
 10
5600.71681980898
 20
3105.086635190039
 30
0.0
  0
POINT
  5
15750
330
1535A
100
AcDbEntity
  8
DEFPOINTS
 62
     0
 48
50.0
100
AcDbPoint
 10
5600.71681980898
 20
2628.814203115885
 30
0.0
  0
ENDBLK
  5
1535C
330
1535A
100
AcDbEntity
  8
0
 48
50.0
100
AcDbBlockEnd
  0
BLOCK
  5
15367
330
15366
100
AcDbEntity
  8
0
 48
50.0
100
AcDbBlockBegin
  2
*D17
 70
     1
 10
0.0
 20
0.0
 30
0.0
  3
*D17
  1

  0
LINE
  5
15751
330
15366
100
AcDbEntity
  8
寸法
 62
     0
 48
50.0
370
    -2
100
AcDbLine
 10
4935.716819808951
 20
3630.086635190039
 30
0.0
 11
4578.40231652478
 21
3630.086635190039
 31
0.0
  0
LINE
  5
15752
330
15366
100
AcDbEntity
  8
寸法
 62
     0
 48
50.0
370
    -2
100
AcDbLine
 10
4785.716819808951
 20
3105.086635190025
 30
0.0
 11
4578.40231652478
 21
3105.086635190025
 31
0.0
  0
LINE
  5
15753
330
15366
100
AcDbEntity
  8
寸法
 62
     0
 48
50.0
370
    -2
100
AcDbLine
 10
4623.40231652478
 20
3630.086635190039
 30
0.0
 11
4623.40231652478
 21
3105.086635190025
 31
0.0
  0
INSERT
  5
15754
330
15366
100
AcDbEntity
  8
寸法
 62
     0
 48
50.0
370
    -2
100
AcDbBlockReference
  2
_DOTSMALL
 10
4623.40231652478
 20
3630.086635190039
 30
0.0
 41
75.0
 42
75.0
 43
75.0
 50
90.0
  0
INSERT
  5
15755
330
15366
100
AcDbEntity
  8
寸法
 62
     0
 48
50.0
370
    -2
100
AcDbBlockReference
  2
_DOTSMALL
 10
4623.40231652478
 20
3105.086635190025
 30
0.0
 41
75.0
 42
75.0
 43
75.0
 50
270.0
  0
MTEXT
  5
15756
330
15366
100
AcDbEntity
  8
寸法
 62
     7
 48
50.0
100
AcDbMText
 10
4548.393458257062
 20
3367.586635190033
 30
0.0
 40
90.0
 41
0.0
 71
     5
 72
     1
  1
\A1;525
  7
STYLE1
 11
0.0000000000000001
 21
1.0
 31
0.0
 73
     1
 44
1.0
1001
ACAD
1000
MTEXTBEGIN
1070
    73
1070
     1
1070
    44
1040
1.0
1070
    74
1070
     0
1000
MTEXTEND
  0
POINT
  5
15757
330
15366
100
AcDbEntity
  8
DEFPOINTS
 62
     0
 48
50.0
100
AcDbPoint
 10
4950.716819808952
 20
3630.086635190039
 30
0.0
  0
POINT
  5
15758
330
15366
100
AcDbEntity
  8
DEFPOINTS
 62
     0
 48
50.0
100
AcDbPoint
 10
4800.716819808951
 20
3105.086635190025
 30
0.0
  0
POINT
  5
15759
330
15366
100
AcDbEntity
  8
DEFPOINTS
 62
     0
 48
50.0
100
AcDbPoint
 10
4623.40231652478
 20
3105.086635190025
 30
0.0
  0
ENDBLK
  5
15368
330
15366
100
AcDbEntity
  8
0
 48
50.0
100
AcDbBlockEnd
  0
BLOCK
  5
15373
330
15372
100
AcDbEntity
  8
0
 48
50.0
100
AcDbBlockBegin
  2
*D18
 70
     1
 10
0.0
 20
0.0
 30
0.0
  3
*D18
  1

  0
LINE
  5
1575A
330
15372
100
AcDbEntity
  8
寸法
 62
     0
 48
50.0
370
    -2
100
AcDbLine
 10
4785.716819808951
 20
4505.086635190038
 30
0.0
 11
4401.087813240609
 21
4505.086635190038
 31
0.0
  0
LINE
  5
1575B
330
15372
100
AcDbEntity
  8
寸法
 62
     0
 48
50.0
370
    -2
100
AcDbLine
 10
4785.716819808951
 20
3105.086635190025
 30
0.0
 11
4401.087813240609
 21
3105.086635190025
 31
0.0
  0
LINE
  5
1575C
330
15372
100
AcDbEntity
  8
寸法
 62
     0
 48
50.0
370
    -2
100
AcDbLine
 10
4446.087813240608
 20
4505.086635190038
 30
0.0
 11
4446.087813240608
 21
3105.086635190025
 31
0.0
  0
INSERT
  5
1575D
330
15372
100
AcDbEntity
  8
寸法
 62
     0
 48
50.0
370
    -2
100
AcDbBlockReference
  2
_DOTSMALL
 10
4446.087813240608
 20
4505.086635190038
 30
0.0
 41
75.0
 42
75.0
 43
75.0
 50
90.0
  0
INSERT
  5
1575E
330
15372
100
AcDbEntity
  8
寸法
 62
     0
 48
50.0
370
    -2
100
AcDbBlockReference
  2
_DOTSMALL
 10
4446.087813240608
 20
3105.086635190025
 30
0.0
 41
75.0
 42
75.0
 43
75.0
 50
270.0
  0
MTEXT
  5
1575F
330
15372
100
AcDbEntity
  8
寸法
 62
     7
 48
50.0
100
AcDbMText
 10
4371.087813240608
 20
3805.086635190032
 30
0.0
 40
90.0
 41
0.0
 71
     5
 72
     1
  1
\A1;1400
  7
STYLE1
 11
0.0000000000000001
 21
1.0
 31
0.0
 73
     1
 44
1.0
1001
ACAD
1000
MTEXTBEGIN
1070
    73
1070
     1
1070
    44
1040
1.0
1070
    74
1070
     0
1000
MTEXTEND
  0
POINT
  5
15760
330
15372
100
AcDbEntity
  8
DEFPOINTS
 62
     0
 48
50.0
100
AcDbPoint
 10
4800.716819808951
 20
4505.086635190038
 30
0.0
  0
POINT
  5
15761
330
15372
100
AcDbEntity
  8
DEFPOINTS
 62
     0
 48
50.0
100
AcDbPoint
 10
4800.716819808951
 20
3105.086635190025
 30
0.0
  0
POINT
  5
15762
330
15372
100
AcDbEntity
  8
DEFPOINTS
 62
     0
 48
50.0
100
AcDbPoint
 10
4446.087813240608
 20
3105.086635190025
 30
0.0
  0
ENDBLK
  5
15374
330
15372
100
AcDbEntity
  8
0
 48
50.0
100
AcDbBlockEnd
  0
BLOCK
  5
1537F
330
1537E
100
AcDbEntity
  8
0
 48
50.0
100
AcDbBlockBegin
  2
*D19
 70
     1
 10
0.0
 20
0.0
 30
0.0
  3
*D19
  1

  0
LINE
  5
15763
330
1537E
100
AcDbEntity
  8
寸法
 62
     0
 48
50.0
370
    -2
100
AcDbLine
 10
4935.716819808951
 20
3980.086635190039
 30
0.0
 11
4578.40231652478
 21
3980.086635190039
 31
0.0
  0
LINE
  5
15764
330
1537E
100
AcDbEntity
  8
寸法
 62
     0
 48
50.0
370
    -2
100
AcDbLine
 10
4935.716819808951
 20
3630.086635190039
 30
0.0
 11
4578.40231652478
 21
3630.086635190039
 31
0.0
  0
LINE
  5
15765
330
1537E
100
AcDbEntity
  8
寸法
 62
     0
 48
50.0
370
    -2
100
AcDbLine
 10
4623.40231652478
 20
3980.086635190039
 30
0.0
 11
4623.40231652478
 21
3630.086635190039
 31
0.0
  0
INSERT
  5
15766
330
1537E
100
AcDbEntity
  8
寸法
 62
     0
 48
50.0
370
    -2
100
AcDbBlockReference
  2
_DOTSMALL
 10
4623.40231652478
 20
3980.086635190039
 30
0.0
 41
75.0
 42
75.0
 43
75.0
 50
90.0
  0
INSERT
  5
15767
330
1537E
100
AcDbEntity
  8
寸法
 62
     0
 48
50.0
370
    -2
100
AcDbBlockReference
  2
_DOTSMALL
 10
4623.40231652478
 20
3630.086635190039
 30
0.0
 41
75.0
 42
75.0
 43
75.0
 50
270.0
  0
MTEXT
  5
15768
330
1537E
100
AcDbEntity
  8
寸法
 62
     7
 48
50.0
100
AcDbMText
 10
4548.402316524779
 20
3805.08663519004
 30
0.0
 40
90.0
 41
0.0
 71
     5
 72
     1
  1
\A1;350
  7
STYLE1
 11
0.0000000000000001
 21
1.0
 31
0.0
 73
     1
 44
1.0
1001
ACAD
1000
MTEXTBEGIN
1070
    73
1070
     1
1070
    44
1040
1.0
1070
    74
1070
     0
1000
MTEXTEND
  0
POINT
  5
15769
330
1537E
100
AcDbEntity
  8
DEFPOINTS
 62
     0
 48
50.0
100
AcDbPoint
 10
4950.716819808952
 20
3980.086635190039
 30
0.0
  0
POINT
  5
1576A
330
1537E
100
AcDbEntity
  8
DEFPOINTS
 62
     0
 48
50.0
100
AcDbPoint
 10
4950.716819808952
 20
3630.086635190039
 30
0.0
  0
POINT
  5
1576B
330
1537E
100
AcDbEntity
  8
DEFPOINTS
 62
     0
 48
50.0
100
AcDbPoint
 10
4623.40231652478
 20
3630.086635190039
 30
0.0
  0
ENDBLK
  5
15380
330
1537E
100
AcDbEntity
  8
0
 48
50.0
100
AcDbBlockEnd
  0
BLOCK
  5
1538B
330
1538A
100
AcDbEntity
  8
0
 48
50.0
100
AcDbBlockBegin
  2
*D20
 70
     1
 10
0.0
 20
0.0
 30
0.0
  3
*D20
  1

  0
LINE
  5
1576C
330
1538A
100
AcDbEntity
  8
寸法
 62
     0
 48
50.0
370
    -2
100
AcDbLine
 10
4935.716819808951
 20
3980.086635190039
 30
0.0
 11
4578.40231652478
 21
3980.086635190039
 31
0.0
  0
LINE
  5
1576D
330
1538A
100
AcDbEntity
  8
寸法
 62
     0
 48
50.0
370
    -2
100
AcDbLine
 10
4785.716819808951
 20
4505.086635190052
 30
0.0
 11
4578.40231652478
 21
4505.086635190052
 31
0.0
  0
LINE
  5
1576E
330
1538A
100
AcDbEntity
  8
寸法
 62
     0
 48
50.0
370
    -2
100
AcDbLine
 10
4623.40231652478
 20
3980.086635190039
 30
0.0
 11
4623.40231652478
 21
4505.086635190052
 31
0.0
  0
INSERT
  5
1576F
330
1538A
100
AcDbEntity
  8
寸法
 62
     0
 48
50.0
370
    -2
100
AcDbBlockReference
  2
_DOTSMALL
 10
4623.40231652478
 20
3980.086635190039
 30
0.0
 41
75.0
 42
75.0
 43
75.0
 50
270.0
  0
INSERT
  5
15770
330
1538A
100
AcDbEntity
  8
寸法
 62
     0
 48
50.0
370
    -2
100
AcDbBlockReference
  2
_DOTSMALL
 10
4623.40231652478
 20
4505.086635190052
 30
0.0
 41
75.0
 42
75.0
 43
75.0
 50
90.0
  0
MTEXT
  5
15771
330
1538A
100
AcDbEntity
  8
寸法
 62
     7
 48
50.0
100
AcDbMText
 10
4548.393458257062
 20
4242.586635190046
 30
0.0
 40
90.0
 41
0.0
 71
     5
 72
     1
  1
\A1;525
  7
STYLE1
 11
0.0000000000000001
 21
1.0
 31
0.0
 73
     1
 44
1.0
1001
ACAD
1000
MTEXTBEGIN
1070
    73
1070
     1
1070
    44
1040
1.0
1070
    74
1070
     0
1000
MTEXTEND
  0
POINT
  5
15772
330
1538A
100
AcDbEntity
  8
DEFPOINTS
 62
     0
 48
50.0
100
AcDbPoint
 10
4950.716819808952
 20
3980.086635190039
 30
0.0
  0
POINT
  5
15773
330
1538A
100
AcDbEntity
  8
DEFPOINTS
 62
     0
 48
50.0
100
AcDbPoint
 10
4800.716819808951
 20
4505.086635190052
 30
0.0
  0
POINT
  5
15774
330
1538A
100
AcDbEntity
  8
DEFPOINTS
 62
     0
 48
50.0
100
AcDbPoint
 10
4623.40231652478
 20
4505.086635190052
 30
0.0
  0
ENDBLK
  5
1538C
330
1538A
100
AcDbEntity
  8
0
 48
50.0
100
AcDbBlockEnd
  0
BLOCK
  5
1555F
330
1555E
100
AcDbEntity
  8
0
 48
50.0
100
AcDbBlockBegin
  2
*D21
 70
     1
 10
0.0
 20
0.0
 30
0.0
  3
*D21
  1

  0
LINE
  5
156AE
330
1555E
100
AcDbEntity
  8
寸法
 62
     0
 48
50.0
370
    -2
100
AcDbLine
 10
8326.342188180422
 20
3561.090715532134
 30
0.0
 11
7938.847083500703
 21
3561.090715532134
 31
0.0
  0
LINE
  5
156AF
330
1555E
100
AcDbEntity
  8
寸法
 62
     0
 48
50.0
370
    -2
100
AcDbLine
 10
8808.523379265677
 20
3621.090715532134
 30
0.0
 11
7938.847083500703
 21
3621.090715532134
 31
0.0
  0
LINE
  5
156B0
330
1555E
100
AcDbEntity
  8
寸法
 62
     0
 48
50.0
370
    -2
100
AcDbLine
 10
7983.847083500702
 20
3621.090715532134
 30
0.0
 11
7983.847083500702
 21
3561.090715532134
 31
0.0
  0
LINE
  5
156B1
330
1555E
100
AcDbEntity
  8
寸法
 62
     0
 48
50.0
370
    -2
100
AcDbLine
 10
7983.847083500702
 20
3561.090715532134
 30
0.0
 11
7983.847083500702
 21
3321.634022618749
 31
0.0
  0
INSERT
  5
156B2
330
1555E
100
AcDbEntity
  8
寸法
 62
     0
 48
50.0
370
    -2
100
AcDbBlockReference
  2
_DOTSMALL
 10
7983.847083500702
 20
3621.090715532134
 30
0.0
 41
75.0
 42
75.0
 43
75.0
 50
90.0
  0
INSERT
  5
156B3
330
1555E
100
AcDbEntity
  8
寸法
 62
     0
 48
50.0
370
    -2
100
AcDbBlockReference
  2
_DOTSMALL
 10
7983.847083500702
 20
3561.090715532134
 30
0.0
 41
75.0
 42
75.0
 43
75.0
 50
270.0
  0
MTEXT
  5
156B4
330
1555E
100
AcDbEntity
  8
寸法
 62
     7
 48
50.0
100
AcDbMText
 10
7908.847083500702
 20
3403.862369075442
 30
0.0
 40
90.0
 41
0.0
 71
     5
 72
     1
  1
\A1;60
  7
STYLE1
 11
0.0000000000000001
 21
1.0
 31
0.0
 73
     1
 44
1.0
1001
ACAD
1000
MTEXTBEGIN
1070
    73
1070
     1
1070
    44
1040
1.0
1070
    74
1070
     0
1000
MTEXTEND
  0
POINT
  5
156B5
330
1555E
100
AcDbEntity
  8
DEFPOINTS
 62
     0
 48
50.0
100
AcDbPoint
 10
8341.342188180423
 20
3561.090715532134
 30
0.0
  0
POINT
  5
156B6
330
1555E
100
AcDbEntity
  8
DEFPOINTS
 62
     0
 48
50.0
100
AcDbPoint
 10
8823.523379265678
 20
3621.090715532134
 30
0.0
  0
POINT
  5
156B7
330
1555E
100
AcDbEntity
  8
DEFPOINTS
 62
     0
 48
50.0
100
AcDbPoint
 10
7983.847083500702
 20
3621.090715532134
 30
0.0
  0
ENDBLK
  5
15560
330
1555E
100
AcDbEntity
  8
0
 48
50.0
100
AcDbBlockEnd
  0
BLOCK
  5
1556C
330
1556B
100
AcDbEntity
  8
0
 48
50.0
100
AcDbBlockBegin
  2
*D22
 70
     1
 10
0.0
 20
0.0
 30
0.0
  3
*D22
  1

  0
LINE
  5
156B8
330
1556B
100
AcDbEntity
  8
寸法
 62
     0
 48
50.0
370
    -2
100
AcDbLine
 10
8326.342188180422
 20
3561.090715532134
 30
0.0
 11
8139.022986894007
 21
3561.090715532134
 31
0.0
  0
LINE
  5
156B9
330
1556B
100
AcDbEntity
  8
寸法
 62
     0
 48
50.0
370
    -2
100
AcDbLine
 10
8774.523379265678
 20
3591.090715532148
 30
0.0
 11
8139.022986894007
 21
3591.090715532148
 31
0.0
  0
LINE
  5
156BA
330
1556B
100
AcDbEntity
  8
寸法
 62
     0
 48
50.0
370
    -2
100
AcDbLine
 10
8184.022986894007
 20
3591.090715532148
 30
0.0
 11
8184.022986894007
 21
3666.090715532148
 31
0.0
  0
LINE
  5
156BB
330
1556B
100
AcDbEntity
  8
寸法
 62
     0
 48
50.0
370
    -2
100
AcDbLine
 10
8184.022986894007
 20
3561.090715532134
 30
0.0
 11
8184.022986894007
 21
3252.019849390401
 31
0.0
  0
LINE
  5
156BC
330
1556B
100
AcDbEntity
  8
寸法
 62
     0
 48
50.0
370
    -2
100
AcDbLine
 10
8184.022986894007
 20
3591.090715532148
 30
0.0
 11
8184.022986894007
 21
3561.090715532134
 31
0.0
  0
INSERT
  5
156BD
330
1556B
100
AcDbEntity
  8
寸法
 62
     0
 48
50.0
370
    -2
100
AcDbBlockReference
  2
_DOTSMALL
 10
8184.022986894007
 20
3591.090715532148
 30
0.0
 41
75.0
 42
75.0
 43
75.0
 50
270.0
  0
INSERT
  5
156BE
330
1556B
100
AcDbEntity
  8
寸法
 62
     0
 48
50.0
370
    -2
100
AcDbBlockReference
  2
_DOTSMALL
 10
8184.022986894007
 20
3561.090715532134
 30
0.0
 41
75.0
 42
75.0
 43
75.0
 50
90.0
  0
MTEXT
  5
156BF
330
1556B
100
AcDbEntity
  8
寸法
 62
     7
 48
50.0
100
AcDbMText
 10
8109.022986894006
 20
3331.55528246127
 30
0.0
 40
90.0
 41
0.0
 71
     5
 72
     1
  1
\A1;30
  7
STYLE1
 11
0.0000000000000001
 21
1.0
 31
0.0
 73
     1
 44
1.0
1001
ACAD
1000
MTEXTBEGIN
1070
    73
1070
     1
1070
    44
1040
1.0
1070
    74
1070
     0
1000
MTEXTEND
  0
POINT
  5
156C0
330
1556B
100
AcDbEntity
  8
DEFPOINTS
 62
     0
 48
50.0
100
AcDbPoint
 10
8341.342188180423
 20
3561.090715532134
 30
0.0
  0
POINT
  5
156C1
330
1556B
100
AcDbEntity
  8
DEFPOINTS
 62
     0
 48
50.0
100
AcDbPoint
 10
8789.523379265679
 20
3591.090715532148
 30
0.0
  0
POINT
  5
156C2
330
1556B
100
AcDbEntity
  8
DEFPOINTS
 62
     0
 48
50.0
100
AcDbPoint
 10
8184.022986894007
 20
3591.090715532148
 30
0.0
  0
ENDBLK
  5
1556D
330
1556B
100
AcDbEntity
  8
0
 48
50.0
100
AcDbBlockEnd
  0
BLOCK
  5
1557A
330
15579
100
AcDbEntity
  8
0
 48
50.0
100
AcDbBlockBegin
  2
*D23
 70
     1
 10
0.0
 20
0.0
 30
0.0
  3
*D23
  1

  0
LINE
  5
15657
330
15579
100
AcDbEntity
  8
寸法
 62
     0
 48
50.0
370
    -2
100
AcDbLine
 10
7889.52337926562
 20
3661.090715532149
 30
0.0
 11
7708.942252163716
 21
3661.090715532149
 31
0.0
  0
LINE
  5
15658
330
15579
100
AcDbEntity
  8
寸法
 62
     0
 48
50.0
370
    -2
100
AcDbLine
 10
7889.52337926562
 20
3761.090715532148
 30
0.0
 11
7708.942252163716
 21
3761.090715532148
 31
0.0
  0
LINE
  5
15659
330
15579
100
AcDbEntity
  8
寸法
 62
     0
 48
50.0
370
    -2
100
AcDbLine
 10
7753.942252163716
 20
3661.090715532149
 30
0.0
 11
7753.942252163716
 21
3761.090715532148
 31
0.0
  0
LINE
  5
1565A
330
15579
100
AcDbEntity
  8
寸法
 62
     0
 48
50.0
370
    -2
100
AcDbLine
 10
7753.942252163716
 20
3761.090715532148
 30
0.0
 11
7753.942252163716
 21
4040.161581673922
 31
0.0
  0
INSERT
  5
1565B
330
15579
100
AcDbEntity
  8
寸法
 62
     0
 48
50.0
370
    -2
100
AcDbBlockReference
  2
_DOTSMALL
 10
7753.942252163716
 20
3661.090715532149
 30
0.0
 41
75.0
 42
75.0
 43
75.0
 50
270.0
  0
INSERT
  5
1565C
330
15579
100
AcDbEntity
  8
寸法
 62
     0
 48
50.0
370
    -2
100
AcDbBlockReference
  2
_DOTSMALL
 10
7753.942252163716
 20
3761.090715532148
 30
0.0
 41
75.0
 42
75.0
 43
75.0
 50
90.0
  0
MTEXT
  5
1565D
330
15579
100
AcDbEntity
  8
寸法
 62
     7
 48
50.0
100
AcDbMText
 10
7678.942252163714
 20
3938.126148603057
 30
0.0
 40
90.0
 41
0.0
 71
     5
 72
     1
  1
\A1;100
  7
STYLE1
 11
0.0000000000000001
 21
1.0
 31
0.0
 73
     1
 44
1.0
1001
ACAD
1000
MTEXTBEGIN
1070
    73
1070
     1
1070
    44
1040
1.0
1070
    74
1070
     0
1000
MTEXTEND
  0
POINT
  5
1565E
330
15579
100
AcDbEntity
  8
DEFPOINTS
 62
     0
 48
50.0
100
AcDbPoint
 10
7904.52337926562
 20
3661.090715532149
 30
0.0
  0
POINT
  5
1565F
330
15579
100
AcDbEntity
  8
DEFPOINTS
 62
     0
 48
50.0
100
AcDbPoint
 10
7904.52337926562
 20
3761.090715532148
 30
0.0
  0
POINT
  5
15660
330
15579
100
AcDbEntity
  8
DEFPOINTS
 62
     0
 48
50.0
100
AcDbPoint
 10
7753.942252163716
 20
3761.090715532148
 30
0.0
  0
ENDBLK
  5
1557B
330
15579
100
AcDbEntity
  8
0
 48
50.0
100
AcDbBlockEnd
  0
BLOCK
  5
15587
330
15586
100
AcDbEntity
  8
0
 48
50.0
100
AcDbBlockBegin
  2
*D24
 70
     1
 10
0.0
 20
0.0
 30
0.0
  3
*D24
  1

  0
LINE
  5
15661
330
15586
100
AcDbEntity
  8
寸法
 62
     0
 48
50.0
370
    -2
100
AcDbLine
 10
7889.52337926562
 20
3661.090715532149
 30
0.0
 11
7708.942252163716
 21
3661.090715532149
 31
0.0
  0
LINE
  5
15662
330
15586
100
AcDbEntity
  8
寸法
 62
     0
 48
50.0
370
    -2
100
AcDbLine
 10
7889.52337926562
 20
3561.090715532149
 30
0.0
 11
7708.942252163716
 21
3561.090715532149
 31
0.0
  0
LINE
  5
15663
330
15586
100
AcDbEntity
  8
寸法
 62
     0
 48
50.0
370
    -2
100
AcDbLine
 10
7753.942252163716
 20
3661.090715532149
 30
0.0
 11
7753.942252163716
 21
3561.090715532149
 31
0.0
  0
LINE
  5
15664
330
15586
100
AcDbEntity
  8
寸法
 62
     0
 48
50.0
370
    -2
100
AcDbLine
 10
7753.942252163716
 20
3561.090715532149
 30
0.0
 11
7753.942252163716
 21
3282.019849390416
 31
0.0
  0
INSERT
  5
15665
330
15586
100
AcDbEntity
  8
寸法
 62
     0
 48
50.0
370
    -2
100
AcDbBlockReference
  2
_DOTSMALL
 10
7753.942252163716
 20
3661.090715532149
 30
0.0
 41
75.0
 42
75.0
 43
75.0
 50
90.0
  0
INSERT
  5
15666
330
15586
100
AcDbEntity
  8
寸法
 62
     0
 48
50.0
370
    -2
100
AcDbBlockReference
  2
_DOTSMALL
 10
7753.942252163716
 20
3561.090715532149
 30
0.0
 41
75.0
 42
75.0
 43
75.0
 50
270.0
  0
MTEXT
  5
15667
330
15586
100
AcDbEntity
  8
寸法
 62
     7
 48
50.0
100
AcDbMText
 10
7678.942252163714
 20
3384.055282461284
 30
0.0
 40
90.0
 41
0.0
 71
     5
 72
     1
  1
\A1;100
  7
STYLE1
 11
0.0000000000000001
 21
1.0
 31
0.0
 73
     1
 44
1.0
1001
ACAD
1000
MTEXTBEGIN
1070
    73
1070
     1
1070
    44
1040
1.0
1070
    74
1070
     0
1000
MTEXTEND
  0
POINT
  5
15668
330
15586
100
AcDbEntity
  8
DEFPOINTS
 62
     0
 48
50.0
100
AcDbPoint
 10
7904.52337926562
 20
3661.090715532149
 30
0.0
  0
POINT
  5
15669
330
15586
100
AcDbEntity
  8
DEFPOINTS
 62
     0
 48
50.0
100
AcDbPoint
 10
7904.52337926562
 20
3561.090715532149
 30
0.0
  0
POINT
  5
1566A
330
15586
100
AcDbEntity
  8
DEFPOINTS
 62
     0
 48
50.0
100
AcDbPoint
 10
7753.942252163716
 20
3561.090715532149
 30
0.0
  0
ENDBLK
  5
15588
330
15586
100
AcDbEntity
  8
0
 48
50.0
100
AcDbBlockEnd
  0
BLOCK
  5
15594
330
15593
100
AcDbEntity
  8
0
 48
50.0
100
AcDbBlockBegin
  2
*D25
 70
     1
 10
0.0
 20
0.0
 30
0.0
  3
*D25
  1

  0
LINE
  5
1566B
330
15593
100
AcDbEntity
  8
寸法
 62
     0
 48
50.0
370
    -2
100
AcDbLine
 10
8404.523379265679
 20
3096.090715532148
 30
0.0
 11
8404.523379265679
 21
2624.474085888114
 31
0.0
  0
LINE
  5
1566C
330
15593
100
AcDbEntity
  8
寸法
 62
     0
 48
50.0
370
    -2
100
AcDbLine
 10
8929.523379265679
 20
3035.032883702269
 30
0.0
 11
8929.523379265679
 21
2624.474085888114
 31
0.0
  0
LINE
  5
1566D
330
15593
100
AcDbEntity
  8
寸法
 62
     0
 48
50.0
370
    -2
100
AcDbLine
 10
8404.523379265679
 20
2669.474085888114
 30
0.0
 11
8929.523379265679
 21
2669.474085888114
 31
0.0
  0
INSERT
  5
1566E
330
15593
100
AcDbEntity
  8
寸法
 62
     0
 48
50.0
370
    -2
100
AcDbBlockReference
  2
_DOTSMALL
 10
8404.523379265679
 20
2669.474085888114
 30
0.0
 41
75.0
 42
75.0
 43
75.0
 50
180.0
  0
INSERT
  5
1566F
330
15593
100
AcDbEntity
  8
寸法
 62
     0
 48
50.0
370
    -2
100
AcDbBlockReference
  2
_DOTSMALL
 10
8929.523379265679
 20
2669.474085888114
 30
0.0
 41
75.0
 42
75.0
 43
75.0
  0
MTEXT
  5
15670
330
15593
100
AcDbEntity
  8
寸法
 62
     7
 48
50.0
100
AcDbMText
 10
8667.023379265678
 20
2744.48294415583
 30
0.0
 40
90.0
 41
0.0
 71
     5
 72
     1
  1
\A1;525
  7
STYLE1
 73
     1
 44
1.0
1001
ACAD
1000
MTEXTBEGIN
1070
    73
1070
     1
1070
    44
1040
1.0
1070
    74
1070
     0
1000
MTEXTEND
  0
POINT
  5
15671
330
15593
100
AcDbEntity
  8
DEFPOINTS
 62
     0
 48
50.0
100
AcDbPoint
 10
8404.523379265679
 20
3111.090715532148
 30
0.0
  0
POINT
  5
15672
330
15593
100
AcDbEntity
  8
DEFPOINTS
 62
     0
 48
50.0
100
AcDbPoint
 10
8929.523379265679
 20
3050.032883702269
 30
0.0
  0
POINT
  5
15673
330
15593
100
AcDbEntity
  8
DEFPOINTS
 62
     0
 48
50.0
100
AcDbPoint
 10
8929.523379265679
 20
2669.474085888114
 30
0.0
  0
ENDBLK
  5
15595
330
15593
100
AcDbEntity
  8
0
 48
50.0
100
AcDbBlockEnd
  0
BLOCK
  5
155A0
330
1559F
100
AcDbEntity
  8
0
 48
50.0
100
AcDbBlockBegin
  2
*D26
 70
     1
 10
0.0
 20
0.0
 30
0.0
  3
*D26
  1

  0
LINE
  5
15674
330
1559F
100
AcDbEntity
  8
寸法
 62
     0
 48
50.0
370
    -2
100
AcDbLine
 10
9804.523379265679
 20
3096.090715532148
 30
0.0
 11
9804.523379265679
 21
2394.388524799361
 31
0.0
  0
LINE
  5
15675
330
1559F
100
AcDbEntity
  8
寸法
 62
     0
 48
50.0
370
    -2
100
AcDbLine
 10
8404.523379265679
 20
3096.090715532148
 30
0.0
 11
8404.523379265679
 21
2394.388524799361
 31
0.0
  0
LINE
  5
15676
330
1559F
100
AcDbEntity
  8
寸法
 62
     0
 48
50.0
370
    -2
100
AcDbLine
 10
9804.523379265679
 20
2439.388524799361
 30
0.0
 11
8404.523379265679
 21
2439.388524799361
 31
0.0
  0
INSERT
  5
15677
330
1559F
100
AcDbEntity
  8
寸法
 62
     0
 48
50.0
370
    -2
100
AcDbBlockReference
  2
_DOTSMALL
 10
9804.523379265679
 20
2439.388524799361
 30
0.0
 41
75.0
 42
75.0
 43
75.0
  0
INSERT
  5
15678
330
1559F
100
AcDbEntity
  8
寸法
 62
     0
 48
50.0
370
    -2
100
AcDbBlockReference
  2
_DOTSMALL
 10
8404.523379265679
 20
2439.388524799361
 30
0.0
 41
75.0
 42
75.0
 43
75.0
 50
180.0
  0
MTEXT
  5
15679
330
1559F
100
AcDbEntity
  8
寸法
 62
     7
 48
50.0
100
AcDbMText
 10
9104.523379265678
 20
2514.388524799362
 30
0.0
 40
90.0
 41
0.0
 71
     5
 72
     1
  1
\A1;1400
  7
STYLE1
 73
     1
 44
1.0
1001
ACAD
1000
MTEXTBEGIN
1070
    73
1070
     1
1070
    44
1040
1.0
1070
    74
1070
     0
1000
MTEXTEND
  0
POINT
  5
1567A
330
1559F
100
AcDbEntity
  8
DEFPOINTS
 62
     0
 48
50.0
100
AcDbPoint
 10
9804.523379265679
 20
3111.090715532148
 30
0.0
  0
POINT
  5
1567B
330
1559F
100
AcDbEntity
  8
DEFPOINTS
 62
     0
 48
50.0
100
AcDbPoint
 10
8404.523379265679
 20
3111.090715532148
 30
0.0
  0
POINT
  5
1567C
330
1559F
100
AcDbEntity
  8
DEFPOINTS
 62
     0
 48
50.0
100
AcDbPoint
 10
8404.523379265679
 20
2439.388524799361
 30
0.0
  0
ENDBLK
  5
155A1
330
1559F
100
AcDbEntity
  8
0
 48
50.0
100
AcDbBlockEnd
  0
BLOCK
  5
155AC
330
155AB
100
AcDbEntity
  8
0
 48
50.0
100
AcDbBlockBegin
  2
*D27
 70
     1
 10
0.0
 20
0.0
 30
0.0
  3
*D27
  1

  0
LINE
  5
1567D
330
155AB
100
AcDbEntity
  8
寸法
 62
     0
 48
50.0
370
    -2
100
AcDbLine
 10
8929.523379265679
 20
3035.032883702269
 30
0.0
 11
8929.523379265679
 21
2624.474085888114
 31
0.0
  0
LINE
  5
1567E
330
155AB
100
AcDbEntity
  8
寸法
 62
     0
 48
50.0
370
    -2
100
AcDbLine
 10
9279.523379265679
 20
3035.032883702269
 30
0.0
 11
9279.523379265679
 21
2624.474085888114
 31
0.0
  0
LINE
  5
1567F
330
155AB
100
AcDbEntity
  8
寸法
 62
     0
 48
50.0
370
    -2
100
AcDbLine
 10
8929.523379265679
 20
2669.474085888114
 30
0.0
 11
9279.523379265679
 21
2669.474085888114
 31
0.0
  0
INSERT
  5
15680
330
155AB
100
AcDbEntity
  8
寸法
 62
     0
 48
50.0
370
    -2
100
AcDbBlockReference
  2
_DOTSMALL
 10
8929.523379265679
 20
2669.474085888114
 30
0.0
 41
75.0
 42
75.0
 43
75.0
 50
180.0
  0
INSERT
  5
15681
330
155AB
100
AcDbEntity
  8
寸法
 62
     0
 48
50.0
370
    -2
100
AcDbBlockReference
  2
_DOTSMALL
 10
9279.523379265679
 20
2669.474085888114
 30
0.0
 41
75.0
 42
75.0
 43
75.0
  0
MTEXT
  5
15682
330
155AB
100
AcDbEntity
  8
寸法
 62
     7
 48
50.0
100
AcDbMText
 10
9104.523379265678
 20
2744.474085888113
 30
0.0
 40
90.0
 41
0.0
 71
     5
 72
     1
  1
\A1;350
  7
STYLE1
 73
     1
 44
1.0
1001
ACAD
1000
MTEXTBEGIN
1070
    73
1070
     1
1070
    44
1040
1.0
1070
    74
1070
     0
1000
MTEXTEND
  0
POINT
  5
15683
330
155AB
100
AcDbEntity
  8
DEFPOINTS
 62
     0
 48
50.0
100
AcDbPoint
 10
8929.523379265679
 20
3050.032883702269
 30
0.0
  0
POINT
  5
15684
330
155AB
100
AcDbEntity
  8
DEFPOINTS
 62
     0
 48
50.0
100
AcDbPoint
 10
9279.523379265679
 20
3050.032883702269
 30
0.0
  0
POINT
  5
15685
330
155AB
100
AcDbEntity
  8
DEFPOINTS
 62
     0
 48
50.0
100
AcDbPoint
 10
9279.523379265679
 20
2669.474085888114
 30
0.0
  0
ENDBLK
  5
155AD
330
155AB
100
AcDbEntity
  8
0
 48
50.0
100
AcDbBlockEnd
  0
BLOCK
  5
155B8
330
155B7
100
AcDbEntity
  8
0
 48
50.0
100
AcDbBlockBegin
  2
*D28
 70
     1
 10
0.0
 20
0.0
 30
0.0
  3
*D28
  1

  0
LINE
  5
15686
330
155B7
100
AcDbEntity
  8
寸法
 62
     0
 48
50.0
370
    -2
100
AcDbLine
 10
9804.523379265679
 20
3096.090715532148
 30
0.0
 11
9804.523379265679
 21
2624.474085888114
 31
0.0
  0
LINE
  5
15687
330
155B7
100
AcDbEntity
  8
寸法
 62
     0
 48
50.0
370
    -2
100
AcDbLine
 10
9279.523379265679
 20
3035.032883702269
 30
0.0
 11
9279.523379265679
 21
2624.474085888114
 31
0.0
  0
LINE
  5
15688
330
155B7
100
AcDbEntity
  8
寸法
 62
     0
 48
50.0
370
    -2
100
AcDbLine
 10
9804.523379265679
 20
2669.474085888114
 30
0.0
 11
9279.523379265679
 21
2669.474085888114
 31
0.0
  0
INSERT
  5
15689
330
155B7
100
AcDbEntity
  8
寸法
 62
     0
 48
50.0
370
    -2
100
AcDbBlockReference
  2
_DOTSMALL
 10
9804.523379265679
 20
2669.474085888114
 30
0.0
 41
75.0
 42
75.0
 43
75.0
  0
INSERT
  5
1568A
330
155B7
100
AcDbEntity
  8
寸法
 62
     0
 48
50.0
370
    -2
100
AcDbBlockReference
  2
_DOTSMALL
 10
9279.523379265679
 20
2669.474085888114
 30
0.0
 41
75.0
 42
75.0
 43
75.0
 50
180.0
  0
MTEXT
  5
1568B
330
155B7
100
AcDbEntity
  8
寸法
 62
     7
 48
50.0
100
AcDbMText
 10
9542.023379265678
 20
2744.48294415583
 30
0.0
 40
90.0
 41
0.0
 71
     5
 72
     1
  1
\A1;525
  7
STYLE1
 73
     1
 44
1.0
1001
ACAD
1000
MTEXTBEGIN
1070
    73
1070
     1
1070
    44
1040
1.0
1070
    74
1070
     0
1000
MTEXTEND
  0
POINT
  5
1568C
330
155B7
100
AcDbEntity
  8
DEFPOINTS
 62
     0
 48
50.0
100
AcDbPoint
 10
9804.523379265679
 20
3111.090715532148
 30
0.0
  0
POINT
  5
1568D
330
155B7
100
AcDbEntity
  8
DEFPOINTS
 62
     0
 48
50.0
100
AcDbPoint
 10
9279.523379265679
 20
3050.032883702269
 30
0.0
  0
POINT
  5
1568E
330
155B7
100
AcDbEntity
  8
DEFPOINTS
 62
     0
 48
50.0
100
AcDbPoint
 10
9279.523379265679
 20
2669.474085888114
 30
0.0
  0
ENDBLK
  5
155B9
330
155B7
100
AcDbEntity
  8
0
 48
50.0
100
AcDbBlockEnd
  0
BLOCK
  5
155C4
330
155C3
100
AcDbEntity
  8
0
 48
50.0
100
AcDbBlockBegin
  2
*D29
 70
     1
 10
0.0
 20
0.0
 30
0.0
  3
*D29
  1

  0
LINE
  5
1568F
330
155C3
100
AcDbEntity
  8
寸法
 62
     0
 48
50.0
370
    -2
100
AcDbLine
 10
10384.32125682919
 20
3711.090715532149
 30
0.0
 11
10641.96474386641
 21
3711.090715532149
 31
0.0
  0
LINE
  5
15690
330
155C3
100
AcDbEntity
  8
寸法
 62
     0
 48
50.0
370
    -2
100
AcDbLine
 10
9899.52337926568
 20
3111.090715532148
 30
0.0
 11
10641.96474386641
 21
3111.090715532148
 31
0.0
  0
LINE
  5
15691
330
155C3
100
AcDbEntity
  8
寸法
 62
     0
 48
50.0
370
    -2
100
AcDbLine
 10
10596.96474386641
 20
3711.090715532149
 30
0.0
 11
10596.96474386641
 21
3111.090715532148
 31
0.0
  0
INSERT
  5
15692
330
155C3
100
AcDbEntity
  8
寸法
 62
     0
 48
50.0
370
    -2
100
AcDbBlockReference
  2
_DOTSMALL
 10
10596.96474386641
 20
3711.090715532149
 30
0.0
 41
75.0
 42
75.0
 43
75.0
 50
90.0
  0
INSERT
  5
15693
330
155C3
100
AcDbEntity
  8
寸法
 62
     0
 48
50.0
370
    -2
100
AcDbBlockReference
  2
_DOTSMALL
 10
10596.96474386641
 20
3111.090715532148
 30
0.0
 41
75.0
 42
75.0
 43
75.0
 50
270.0
  0
MTEXT
  5
15694
330
155C3
100
AcDbEntity
  8
寸法
 62
     7
 48
50.0
100
AcDbMText
 10
10521.96474386641
 20
3411.09071553215
 30
0.0
 40
90.0
 41
0.0
 71
     5
 72
     1
  1
\A1;600
  7
STYLE1
 11
0.0000000000000001
 21
1.0
 31
0.0
 73
     1
 44
1.0
1001
ACAD
1000
MTEXTBEGIN
1070
    73
1070
     1
1070
    44
1040
1.0
1070
    74
1070
     0
1000
MTEXTEND
  0
POINT
  5
15695
330
155C3
100
AcDbEntity
  8
DEFPOINTS
 62
     0
 48
50.0
100
AcDbPoint
 10
10369.32125682919
 20
3711.090715532149
 30
0.0
  0
POINT
  5
15696
330
155C3
100
AcDbEntity
  8
DEFPOINTS
 62
     0
 48
50.0
100
AcDbPoint
 10
9884.523379265679
 20
3111.090715532148
 30
0.0
  0
POINT
  5
15697
330
155C3
100
AcDbEntity
  8
DEFPOINTS
 62
     0
 48
50.0
100
AcDbPoint
 10
10596.96474386641
 20
3111.090715532148
 30
0.0
  0
ENDBLK
  5
155C5
330
155C3
100
AcDbEntity
  8
0
 48
50.0
100
AcDbBlockEnd
  0
BLOCK
  5
155D0
330
155CF
100
AcDbEntity
  8
0
 48
50.0
100
AcDbBlockBegin
  2
*D30
 70
     1
 10
0.0
 20
0.0
 30
0.0
  3
*D30
  1

  0
LINE
  5
15698
330
155CF
100
AcDbEntity
  8
寸法
 62
     0
 48
50.0
370
    -2
100
AcDbLine
 10
10319.52337926568
 20
3711.090715532149
 30
0.0
 11
10641.96474386641
 21
3711.090715532149
 31
0.0
  0
LINE
  5
15699
330
155CF
100
AcDbEntity
  8
寸法
 62
     0
 48
50.0
370
    -2
100
AcDbLine
 10
10319.52337926573
 20
3761.090715532148
 30
0.0
 11
10641.96474386641
 21
3761.090715532148
 31
0.0
  0
LINE
  5
1569A
330
155CF
100
AcDbEntity
  8
寸法
 62
     0
 48
50.0
370
    -2
100
AcDbLine
 10
10596.96474386641
 20
3711.090715532149
 30
0.0
 11
10596.96474386641
 21
3636.090715532148
 31
0.0
  0
LINE
  5
1569B
330
155CF
100
AcDbEntity
  8
寸法
 62
     0
 48
50.0
370
    -2
100
AcDbLine
 10
10596.96474386641
 20
3761.090715532148
 30
0.0
 11
10596.96474386641
 21
4070.161581673922
 31
0.0
  0
LINE
  5
1569C
330
155CF
100
AcDbEntity
  8
寸法
 62
     0
 48
50.0
370
    -2
100
AcDbLine
 10
10596.96474386641
 20
3711.090715532149
 30
0.0
 11
10596.96474386641
 21
3761.090715532148
 31
0.0
  0
INSERT
  5
1569D
330
155CF
100
AcDbEntity
  8
寸法
 62
     0
 48
50.0
370
    -2
100
AcDbBlockReference
  2
_DOTSMALL
 10
10596.96474386641
 20
3711.090715532149
 30
0.0
 41
75.0
 42
75.0
 43
75.0
 50
90.0
  0
INSERT
  5
1569E
330
155CF
100
AcDbEntity
  8
寸法
 62
     0
 48
50.0
370
    -2
100
AcDbBlockReference
  2
_DOTSMALL
 10
10596.96474386641
 20
3761.090715532148
 30
0.0
 41
75.0
 42
75.0
 43
75.0
 50
270.0
  0
MTEXT
  5
1569F
330
155CF
100
AcDbEntity
  8
寸法
 62
     7
 48
50.0
100
AcDbMText
 10
10521.96474386641
 20
3990.626148603057
 30
0.0
 40
90.0
 41
0.0
 71
     5
 72
     1
  1
\A1;50
  7
STYLE1
 11
0.0000000000000001
 21
1.0
 31
0.0
 73
     1
 44
1.0
1001
ACAD
1000
MTEXTBEGIN
1070
    73
1070
     1
1070
    44
1040
1.0
1070
    74
1070
     0
1000
MTEXTEND
  0
POINT
  5
156A0
330
155CF
100
AcDbEntity
  8
DEFPOINTS
 62
     0
 48
50.0
100
AcDbPoint
 10
10304.52337926567
 20
3711.090715532149
 30
0.0
  0
POINT
  5
156A1
330
155CF
100
AcDbEntity
  8
DEFPOINTS
 62
     0
 48
50.0
100
AcDbPoint
 10
10304.52337926573
 20
3761.090715532148
 30
0.0
  0
POINT
  5
156A2
330
155CF
100
AcDbEntity
  8
DEFPOINTS
 62
     0
 48
50.0
100
AcDbPoint
 10
10596.96474386641
 20
3761.090715532148
 30
0.0
  0
ENDBLK
  5
155D1
330
155CF
100
AcDbEntity
  8
0
 48
50.0
100
AcDbBlockEnd
  0
BLOCK
  5
155DE
330
155DD
100
AcDbEntity
  8
0
 48
50.0
100
AcDbBlockBegin
  2
*D31
 70
     1
 10
0.0
 20
0.0
 30
0.0
  3
*D31
  1

  0
LINE
  5
156A3
330
155DD
100
AcDbEntity
  8
寸法
 62
     0
 48
50.0
370
    -2
100
AcDbLine
 10
9899.52337926568
 20
3111.090715532148
 30
0.0
 11
10641.96474386641
 21
3111.090715532148
 31
0.0
  0
LINE
  5
156A4
330
155DD
100
AcDbEntity
  8
寸法
 62
     0
 48
50.0
370
    -2
100
AcDbLine
 10
9899.52337926568
 20
3061.090715532149
 30
0.0
 11
10641.96474386641
 21
3061.090715532149
 31
0.0
  0
LINE
  5
156A5
330
155DD
100
AcDbEntity
  8
寸法
 62
     0
 48
50.0
370
    -2
100
AcDbLine
 10
10596.96474386641
 20
3111.090715532148
 30
0.0
 11
10596.96474386641
 21
3186.090715532149
 31
0.0
  0
LINE
  5
156A6
330
155DD
100
AcDbEntity
  8
寸法
 62
     0
 48
50.0
370
    -2
100
AcDbLine
 10
10596.96474386641
 20
3061.090715532149
 30
0.0
 11
10596.96474386641
 21
2752.019849390416
 31
0.0
  0
LINE
  5
156A7
330
155DD
100
AcDbEntity
  8
寸法
 62
     0
 48
50.0
370
    -2
100
AcDbLine
 10
10596.96474386641
 20
3111.090715532148
 30
0.0
 11
10596.96474386641
 21
3061.090715532149
 31
0.0
  0
INSERT
  5
156A8
330
155DD
100
AcDbEntity
  8
寸法
 62
     0
 48
50.0
370
    -2
100
AcDbBlockReference
  2
_DOTSMALL
 10
10596.96474386641
 20
3111.090715532148
 30
0.0
 41
75.0
 42
75.0
 43
75.0
 50
270.0
  0
INSERT
  5
156A9
330
155DD
100
AcDbEntity
  8
寸法
 62
     0
 48
50.0
370
    -2
100
AcDbBlockReference
  2
_DOTSMALL
 10
10596.96474386641
 20
3061.090715532149
 30
0.0
 41
75.0
 42
75.0
 43
75.0
 50
90.0
  0
MTEXT
  5
156AA
330
155DD
100
AcDbEntity
  8
寸法
 62
     7
 48
50.0
100
AcDbMText
 10
10521.96474386641
 20
2831.555282461284
 30
0.0
 40
90.0
 41
0.0
 71
     5
 72
     1
  1
\A1;50
  7
STYLE1
 11
0.0000000000000001
 21
1.0
 31
0.0
 73
     1
 44
1.0
1001
ACAD
1000
MTEXTBEGIN
1070
    73
1070
     1
1070
    44
1040
1.0
1070
    74
1070
     0
1000
MTEXTEND
  0
POINT
  5
156AB
330
155DD
100
AcDbEntity
  8
DEFPOINTS
 62
     0
 48
50.0
100
AcDbPoint
 10
9884.523379265679
 20
3111.090715532148
 30
0.0
  0
POINT
  5
156AC
330
155DD
100
AcDbEntity
  8
DEFPOINTS
 62
     0
 48
50.0
100
AcDbPoint
 10
9884.523379265679
 20
3061.090715532149
 30
0.0
  0
POINT
  5
156AD
330
155DD
100
AcDbEntity
  8
DEFPOINTS
 62
     0
 48
50.0
100
AcDbPoint
 10
10596.96474386641
 20
3061.090715532149
 30
0.0
  0
ENDBLK
  5
155DF
330
155DD
100
AcDbEntity
  8
0
 48
50.0
100
AcDbBlockEnd
  0
ENDSEC
  0
SECTION
  2
ENTITIES
  0
MTEXT
  5
763F
330
747D
100
AcDbEntity
  8
0
100
AcDbMText
 10
302.846345836809
 20
280.1983726409901
 30
0.0
 40
3.5
 41
5.323721266742722
 71
     1
 72
     5
  1

  7
MSMINCHO
 73
     1
 44
1.0
1001
ACAD
1000
MTEXTBEGIN
1070
    73
1070
     1
1070
    44
1040
1.0
1070
    74
1070
     0
1000
MTEXTEND
  0
LINE
  5
10B56
330
747D
100
AcDbEntity
  8
補助
  6
PHANTOM
 62
   230
 48
50.0
100
AcDbLine
 10
105.0
 20
0.0
 30
0.0
 11
104.9999999999996
 21
8557.199999999999
 31
0.0
  0
LINE
  5
10B57
330
747D
100
AcDbEntity
  8
補助
  6
PHANTOM
 62
   230
 48
50.0
100
AcDbLine
 10
104.9999999999996
 20
8557.199999999999
 30
0.0
 11
12230.4
 21
8557.199999999999
 31
0.0
  0
LINE
  5
10B5E
330
747D
100
AcDbEntity
  8
補助
  6
PHANTOM
 62
   230
 48
50.0
100
AcDbLine
 10
12230.4
 20
8557.199999999999
 30
0.0
 11
12230.4
 21
900.0
 31
0.0
  0
LINE
  5
10B6D
330
747D
100
AcDbEntity
  8
補助
  6
PHANTOM
 62
   230
 48
50.0
100
AcDbLine
 10
9830.400000000002
 20
8557.199999999999
 30
0.0
 11
9830.400000000002
 21
3600.0
 31
0.0
  0
LINE
  5
10B6F
330
747D
100
AcDbEntity
  8
補助
  6
PHANTOM
 62
   230
 48
50.0
100
AcDbLine
 10
9830.400000000002
 20
3110.960973647383
 30
0.0
 11
12230.4
 21
3110.960973647383
 31
0.0
  0
LINE
  5
13125
330
747D
100
AcDbEntity
  8
補助
  6
PHANTOM
 62
   230
 48
50.0
100
AcDbLine
 10
11930.4
 20
8182.200000000003
 30
0.0
 11
11930.4
 21
6457.2
 31
0.0
  0
LINE
  5
13126
330
747D
100
AcDbEntity
  8
補助
  6
PHANTOM
 62
   230
 48
50.0
100
AcDbLine
 10
9380.400000000003
 20
8182.199999999999
 30
0.0
 11
9380.400000000003
 21
6457.2
 31
0.0
  0
LINE
  5
13127
330
747D
100
AcDbEntity
  8
補助
  6
PHANTOM
 62
   230
 48
50.0
100
AcDbLine
 10
9380.400000000003
 20
6457.2
 30
0.0
 11
11930.4
 21
6457.2
 31
0.0
  0
LINE
  5
13128
330
747D
100
AcDbEntity
  8
補助
  6
PHANTOM
 62
   230
 48
50.0
100
AcDbLine
 10
9380.400000000003
 20
8182.199999999999
 30
0.0
 11
11930.4
 21
8182.200000000003
 31
0.0
  0
TEXT
  5
13A0E
330
747D
100
AcDbEntity
  8
文字
 62
     7
 48
50.0
100
AcDbText
 10
10893.0988779165
 20
773.6682797184221
 30
0.0
 40
75.0
  1
             <縮尺> S=1/30
  7
STYLE2
100
AcDbText
  0
LINE
  5
13A54
330
747D
100
AcDbEntity
  8
仕様書枠
  6
Continuous
 48
50.0
100
AcDbLine
 10
9830.400000000002
 20
900.0
 30
0.0
 11
9830.400000000002
 21
0.0
 31
0.0
  0
LINE
  5
13A55
330
747D
100
AcDbEntity
  8
仕様書枠
 48
50.0
100
AcDbLine
 10
12230.4
 20
900.0
 30
0.0
 11
12230.4
 21
0.0
 31
0.0
  0
LINE
  5
13A56
330
747D
100
AcDbEntity
  8
仕様書枠
 48
50.0
100
AcDbLine
 10
105.0
 20
0.0
 30
0.0
 11
12230.4
 21
0.0
 31
0.0
  0
LINE
  5
13A57
330
747D
100
AcDbEntity
  8
仕様書枠
 48
50.0
100
AcDbLine
 10
9830.400000000002
 20
900.0
 30
0.0
 11
12230.4
 21
900.0
 31
0.0
  0
LINE
  5
13A58
330
747D
100
AcDbEntity
  8
文字
 62
     7
 48
50.0
100
AcDbLine
 10
9890.400000000001
 20
300.0
 30
0.0
 11
12170.4
 21
300.0
 31
0.0
  0
TEXT
  5
13A59
330
747D
100
AcDbEntity
  8
文字
 62
     7
 48
50.0
100
AcDbText
 10
9872.234292432681
 20
671.3179555724564
 30
0.0
 40
150.0
  1
基 礎 図
  7
STYLE2
100
AcDbText
  0
TEXT
  5
13A5A
330
747D
100
AcDbEntity
  8
文字
 62
     7
 48
50.0
100
AcDbText
 10
9901.077524988316
 20
357.9555495773456
 30
0.0
 40
120.0
  1
機種名
  7
STYLE2
100
AcDbText
  0
TEXT
  5
13A5B
330
747D
100
AcDbEntity
  8
文字
 62
     7
 48
50.0
100
AcDbText
 10
9907.054008162901
 20
171.4076431926732
 30
0.0
 40
60.0
  1
○間口寸法は柱芯寸法です。
  7
STYLE2
100
AcDbText
  0
TEXT
  5
13A5C
330
747D
100
AcDbEntity
  8
文字
 62
     7
 48
50.0
100
AcDbText
 10
9907.054008162901
 20
57.07076030736789
 30
0.0
 40
60.0
  1
○寒冷地等は、地域の実情に合わせた基礎にしてください。
  7
STYLE2
100
AcDbText
  0
LINE
  5
13A5D
330
747D
100
AcDbEntity
  8
仕様書枠
 48
50.0
100
AcDbLine
 10
9830.400000000002
 20
600.0
 30
0.0
 11
10688.4
 21
600.0
 31
0.0
  0
LINE
  5
13A5E
330
747D
100
AcDbEntity
  8
仕様書枠
  6
Continuous
 48
50.0
100
AcDbLine
 10
10688.4
 20
900.0
 30
0.0
 11
10688.4
 21
600.0
 31
0.0
  0
TEXT
  5
13A5F
330
747D
100
AcDbEntity
  8
文字
 62
     7
 48
50.0
100
AcDbText
 10
10951.9835159712
 20
362.922534743353
 30
0.0
 40
120.0
  1
BP-28VP
  7
STYLE3
100
AcDbText
  0
TEXT
  5
13A60
330
747D
100
AcDbEntity
  8
文字
 62
     7
 48
50.0
100
AcDbText
 10
11138.71739229687
 20
628.6895453046891
 30
0.0
 40
75.0
  1
～一般型～
  7
STYLE2
100
AcDbText
  0
LINE
  5
15238
330
747D
100
AcDbEntity
  8
部品1
 48
50.0
100
AcDbLine
 10
5600.71681980898
 20
4505.086635190052
 30
0.0
 11
4800.71681980898
 21
4505.086635190052
 31
0.0
  0
LINE
  5
15239
330
747D
100
AcDbEntity
  8
部品1
 48
50.0
100
AcDbLine
 10
4800.71681980898
 20
3105.086635190054
 30
0.0
 11
5600.71681980898
 21
3105.086635190054
 31
0.0
  0
LINE
  5
1523A
330
747D
100
AcDbEntity
  8
部品1
 48
50.0
100
AcDbLine
 10
4800.71681980898
 20
4505.086635190052
 30
0.0
 11
4800.71681980898
 21
3105.086635190054
 31
0.0
  0
LINE
  5
1523B
330
747D
100
AcDbEntity
  8
部品1
 48
50.0
100
AcDbLine
 10
2000.71681980898
 20
3105.086635190054
 30
0.0
 11
2800.71681980898
 21
3105.086635190054
 31
0.0
  0
LINE
  5
1523C
330
747D
100
AcDbEntity
  8
部品1
 48
50.0
100
AcDbLine
 10
2800.71681980898
 20
4505.086635190052
 30
0.0
 11
2800.71681980898
 21
3105.086635190054
 31
0.0
  0
LINE
  5
1523D
330
747D
100
AcDbEntity
  8
部品1
 48
50.0
100
AcDbLine
 10
2800.71681980898
 20
4505.086635190052
 30
0.0
 11
2000.71681980898
 21
4505.086635190052
 31
0.0
  0
LINE
  5
1523E
330
747D
100
AcDbEntity
  8
想像線
 48
10.0
100
AcDbLine
 10
2170.716819809038
 20
1766.586635190039
 30
0.0
 11
5430.716819808922
 21
1766.586635190053
 31
0.0
  0
LINE
  5
1523F
330
747D
100
AcDbEntity
  8
想像線
 48
10.0
100
AcDbLine
 10
5430.716819808922
 20
1766.586635190053
 30
0.0
 11
5430.716819808922
 21
5843.586635190053
 31
0.0
  0
LINE
  5
15240
330
747D
100
AcDbEntity
  8
想像線
 48
10.0
100
AcDbLine
 10
5430.716819808922
 20
5843.586635190053
 30
0.0
 11
2170.716819809038
 21
5843.586635190039
 31
0.0
  0
LINE
  5
15241
330
747D
100
AcDbEntity
  8
想像線
 48
10.0
100
AcDbLine
 10
2170.716819809038
 20
1766.586635190053
 30
0.0
 11
2170.716819809009
 21
5843.586635190053
 31
0.0
  0
LINE
  5
15242
330
747D
100
AcDbEntity
  8
センター
 48
10.0
100
AcDbLine
 10
2150.71681980898
 20
3630.086635190054
 30
0.0
 11
5450.71681980898
 21
3630.086635190054
 31
0.0
  0
CIRCLE
  5
15243
330
747D
100
AcDbEntity
  8
部品1
 48
50.0
100
AcDbCircle
 10
5300.71681980898
 20
3730.086635190054
 30
0.0
 40
15.0
  0
LINE
  5
15244
330
747D
100
AcDbEntity
  8
センター
 48
3.0
100
AcDbLine
 10
5300.71681980898
 20
3805.086635190054
 30
0.0
 11
5300.71681980898
 21
3655.086635190054
 31
0.0
  0
LINE
  5
15245
330
747D
100
AcDbEntity
  8
センター
 48
3.0
100
AcDbLine
 10
5225.71681980898
 20
3730.086635190054
 30
0.0
 11
5375.71681980898
 21
3730.086635190054
 31
0.0
  0
LINE
  5
15246
330
747D
100
AcDbEntity
  8
センター
 48
3.0
100
AcDbLine
 10
5300.71681980898
 20
3605.086635190054
 30
0.0
 11
5300.71681980898
 21
3455.086635190054
 31
0.0
  0
CIRCLE
  5
15247
330
747D
100
AcDbEntity
  8
部品1
 48
50.0
100
AcDbCircle
 10
5300.71681980898
 20
3530.086635190054
 30
0.0
 40
15.0
  0
LINE
  5
15248
330
747D
100
AcDbEntity
  8
センター
 48
3.0
100
AcDbLine
 10
5225.71681980898
 20
3530.086635190054
 30
0.0
 11
5375.71681980898
 21
3530.086635190054
 31
0.0
  0
LINE
  5
15249
330
747D
100
AcDbEntity
  8
センター
 48
10.0
100
AcDbLine
 10
5200.71681980898
 20
3380.086635190054
 30
0.0
 11
5200.71681980898
 21
3880.086635190054
 31
0.0
  0
CIRCLE
  5
1524A
330
747D
100
AcDbEntity
  8
部品1
 48
50.0
100
AcDbCircle
 10
5100.71681980898
 20
3730.086635190054
 30
0.0
 40
15.0
  0
LINE
  5
1524B
330
747D
100
AcDbEntity
  8
センター
 48
3.0
100
AcDbLine
 10
5100.71681980898
 20
3805.086635190054
 30
0.0
 11
5100.71681980898
 21
3655.086635190054
 31
0.0
  0
LINE
  5
1524C
330
747D
100
AcDbEntity
  8
センター
 48
3.0
100
AcDbLine
 10
5100.71681980898
 20
3605.086635190054
 30
0.0
 11
5100.71681980898
 21
3455.086635190054
 31
0.0
  0
CIRCLE
  5
1524D
330
747D
100
AcDbEntity
  8
部品1
 48
50.0
100
AcDbCircle
 10
5100.71681980898
 20
3530.086635190054
 30
0.0
 40
15.0
  0
LINE
  5
1524E
330
747D
100
AcDbEntity
  8
センター
 48
10.0
100
AcDbLine
 10
4950.71681980898
 20
3630.086635190054
 30
0.0
 11
5450.71681980898
 21
3630.086635190054
 31
0.0
  0
LINE
  5
1524F
330
747D
100
AcDbEntity
  8
センター
 48
3.0
100
AcDbLine
 10
5025.71681980898
 20
3730.086635190054
 30
0.0
 11
5175.71681980898
 21
3730.086635190054
 31
0.0
  0
LINE
  5
15250
330
747D
100
AcDbEntity
  8
センター
 48
3.0
100
AcDbLine
 10
5025.71681980898
 20
3530.086635190054
 30
0.0
 11
5175.71681980898
 21
3530.086635190054
 31
0.0
  0
LINE
  5
15251
330
747D
100
AcDbEntity
  8
センター
 48
3.0
100
AcDbLine
 10
2225.71681980898
 20
3530.086635190054
 30
0.0
 11
2375.71681980898
 21
3530.086635190054
 31
0.0
  0
LINE
  5
15252
330
747D
100
AcDbEntity
  8
センター
 48
3.0
100
AcDbLine
 10
2225.71681980898
 20
3730.086635190054
 30
0.0
 11
2375.71681980898
 21
3730.086635190054
 31
0.0
  0
LINE
  5
15253
330
747D
100
AcDbEntity
  8
センター
 48
10.0
100
AcDbLine
 10
2150.71681980898
 20
3630.086635190054
 30
0.0
 11
2650.71681980898
 21
3630.086635190054
 31
0.0
  0
CIRCLE
  5
15254
330
747D
100
AcDbEntity
  8
部品1
 48
50.0
100
AcDbCircle
 10
2300.71681980898
 20
3530.086635190054
 30
0.0
 40
15.0
  0
LINE
  5
15255
330
747D
100
AcDbEntity
  8
センター
 48
3.0
100
AcDbLine
 10
2300.71681980898
 20
3605.086635190054
 30
0.0
 11
2300.71681980898
 21
3455.086635190054
 31
0.0
  0
LINE
  5
15256
330
747D
100
AcDbEntity
  8
センター
 48
3.0
100
AcDbLine
 10
2300.71681980898
 20
3805.086635190054
 30
0.0
 11
2300.71681980898
 21
3655.086635190054
 31
0.0
  0
CIRCLE
  5
15257
330
747D
100
AcDbEntity
  8
部品1
 48
50.0
100
AcDbCircle
 10
2300.71681980898
 20
3730.086635190054
 30
0.0
 40
15.0
  0
LINE
  5
15258
330
747D
100
AcDbEntity
  8
センター
 48
10.0
100
AcDbLine
 10
2400.71681980898
 20
3380.086635190054
 30
0.0
 11
2400.71681980898
 21
3880.086635190054
 31
0.0
  0
LINE
  5
15259
330
747D
100
AcDbEntity
  8
センター
 48
3.0
100
AcDbLine
 10
2425.71681980898
 20
3530.086635190054
 30
0.0
 11
2575.71681980898
 21
3530.086635190054
 31
0.0
  0
CIRCLE
  5
1525A
330
747D
100
AcDbEntity
  8
部品1
 48
50.0
100
AcDbCircle
 10
2500.71681980898
 20
3530.086635190054
 30
0.0
 40
15.0
  0
LINE
  5
1525B
330
747D
100
AcDbEntity
  8
センター
 48
3.0
100
AcDbLine
 10
2500.71681980898
 20
3605.086635190054
 30
0.0
 11
2500.71681980898
 21
3455.086635190054
 31
0.0
  0
LINE
  5
1525C
330
747D
100
AcDbEntity
  8
センター
 48
3.0
100
AcDbLine
 10
2425.71681980898
 20
3730.086635190054
 30
0.0
 11
2575.71681980898
 21
3730.086635190054
 31
0.0
  0
LINE
  5
1525D
330
747D
100
AcDbEntity
  8
センター
 48
3.0
100
AcDbLine
 10
2500.71681980898
 20
3805.086635190054
 30
0.0
 11
2500.71681980898
 21
3655.086635190054
 31
0.0
  0
CIRCLE
  5
1525E
330
747D
100
AcDbEntity
  8
部品1
 48
50.0
100
AcDbCircle
 10
2500.71681980898
 20
3730.086635190054
 30
0.0
 40
15.0
  0
LINE
  5
1525F
330
747D
100
AcDbEntity
  8
文字
 48
50.0
100
AcDbLine
 10
2000.71681980898
 20
5980.086635190053
 30
0.0
 11
5600.71681980898
 21
5980.086635190053
 31
0.0
  0
LINE
  5
15260
330
747D
100
AcDbEntity
  8
部品1
 48
30.0
100
AcDbLine
 10
2000.71681980898
 20
1630.086635190053
 30
0.0
 11
5600.71681980898
 21
1630.086635190053
 31
0.0
  0
LINE
  5
15261
330
747D
100
AcDbEntity
  8
部品1
 48
50.0
100
AcDbLine
 10
2000.71681980898
 20
5980.086635190053
 30
0.0
 11
2000.71681980898
 21
1630.086635190053
 31
0.0
  0
LINE
  5
15262
330
747D
100
AcDbEntity
  8
部品1
 48
50.0
100
AcDbLine
 10
5600.71681980898
 20
5980.086635190053
 30
0.0
 11
5600.71681980898
 21
1630.086635190053
 31
0.0
  0
MTEXT
  5
15263
330
747D
100
AcDbEntity
  8
寸法
 62
     7
 48
50.0
100
AcDbMText
 10
2226.708704591192
 20
1883.866681057543
 30
0.0
 40
90.0
 41
0.0
 71
     4
 72
     1
  1
\A1;床コンクリート打コテ押エ
  7
STYLE1
 73
     1
 44
1.0
1001
ACAD
1000
MTEXTBEGIN
1070
    73
1070
     1
1070
    44
1040
1.0
1070
    74
1070
     0
1000
MTEXTEND
  0
LINE
  5
15264
330
747D
100
AcDbEntity
  8
センター
 48
10.0
100
AcDbLine
 10
2150.71681980898
 20
3980.086635190054
 30
0.0
 11
5450.71681980898
 21
3980.086635190054
 31
0.0
  0
CIRCLE
  5
15265
330
747D
100
AcDbEntity
  8
部品1
 48
50.0
100
AcDbCircle
 10
5300.71681980898
 20
4080.086635190053
 30
0.0
 40
15.0
  0
LINE
  5
15266
330
747D
100
AcDbEntity
  8
センター
 48
3.0
100
AcDbLine
 10
5300.71681980898
 20
4155.086635190053
 30
0.0
 11
5300.71681980898
 21
4005.086635190053
 31
0.0
  0
LINE
  5
15267
330
747D
100
AcDbEntity
  8
センター
 48
3.0
100
AcDbLine
 10
5225.71681980898
 20
4080.086635190053
 30
0.0
 11
5375.71681980898
 21
4080.086635190053
 31
0.0
  0
LINE
  5
15268
330
747D
100
AcDbEntity
  8
センター
 48
3.0
100
AcDbLine
 10
5300.71681980898
 20
3955.086635190054
 30
0.0
 11
5300.71681980898
 21
3805.086635190054
 31
0.0
  0
CIRCLE
  5
15269
330
747D
100
AcDbEntity
  8
部品1
 48
50.0
100
AcDbCircle
 10
5300.71681980898
 20
3880.086635190054
 30
0.0
 40
15.0
  0
LINE
  5
1526A
330
747D
100
AcDbEntity
  8
センター
 48
3.0
100
AcDbLine
 10
5225.71681980898
 20
3880.086635190054
 30
0.0
 11
5375.71681980898
 21
3880.086635190054
 31
0.0
  0
LINE
  5
1526B
330
747D
100
AcDbEntity
  8
センター
 48
10.0
100
AcDbLine
 10
5200.71681980898
 20
3730.086635190054
 30
0.0
 11
5200.71681980898
 21
4230.086635190053
 31
0.0
  0
CIRCLE
  5
1526C
330
747D
100
AcDbEntity
  8
部品1
 48
50.0
100
AcDbCircle
 10
5100.71681980898
 20
4080.086635190053
 30
0.0
 40
15.0
  0
LINE
  5
1526D
330
747D
100
AcDbEntity
  8
センター
 48
3.0
100
AcDbLine
 10
5100.71681980898
 20
4155.086635190053
 30
0.0
 11
5100.71681980898
 21
4005.086635190053
 31
0.0
  0
LINE
  5
1526E
330
747D
100
AcDbEntity
  8
センター
 48
3.0
100
AcDbLine
 10
5100.71681980898
 20
3955.086635190054
 30
0.0
 11
5100.71681980898
 21
3805.086635190054
 31
0.0
  0
CIRCLE
  5
1526F
330
747D
100
AcDbEntity
  8
部品1
 48
50.0
100
AcDbCircle
 10
5100.71681980898
 20
3880.086635190054
 30
0.0
 40
15.0
  0
LINE
  5
15270
330
747D
100
AcDbEntity
  8
センター
 48
10.0
100
AcDbLine
 10
4950.71681980898
 20
3980.086635190054
 30
0.0
 11
5450.71681980898
 21
3980.086635190054
 31
0.0
  0
LINE
  5
15271
330
747D
100
AcDbEntity
  8
センター
 48
3.0
100
AcDbLine
 10
5025.71681980898
 20
4080.086635190053
 30
0.0
 11
5175.71681980898
 21
4080.086635190053
 31
0.0
  0
LINE
  5
15272
330
747D
100
AcDbEntity
  8
センター
 48
3.0
100
AcDbLine
 10
5025.71681980898
 20
3880.086635190054
 30
0.0
 11
5175.71681980898
 21
3880.086635190054
 31
0.0
  0
LINE
  5
15273
330
747D
100
AcDbEntity
  8
センター
 48
3.0
100
AcDbLine
 10
2225.71681980898
 20
3880.086635190054
 30
0.0
 11
2375.71681980898
 21
3880.086635190054
 31
0.0
  0
LINE
  5
15274
330
747D
100
AcDbEntity
  8
センター
 48
3.0
100
AcDbLine
 10
2225.71681980898
 20
4080.086635190053
 30
0.0
 11
2375.71681980898
 21
4080.086635190053
 31
0.0
  0
LINE
  5
15275
330
747D
100
AcDbEntity
  8
センター
 48
10.0
100
AcDbLine
 10
2150.71681980898
 20
3980.086635190054
 30
0.0
 11
2650.71681980898
 21
3980.086635190054
 31
0.0
  0
CIRCLE
  5
15276
330
747D
100
AcDbEntity
  8
部品1
 48
50.0
100
AcDbCircle
 10
2300.71681980898
 20
3880.086635190054
 30
0.0
 40
15.0
  0
LINE
  5
15277
330
747D
100
AcDbEntity
  8
センター
 48
3.0
100
AcDbLine
 10
2300.71681980898
 20
3955.086635190054
 30
0.0
 11
2300.71681980898
 21
3805.086635190054
 31
0.0
  0
LINE
  5
15278
330
747D
100
AcDbEntity
  8
センター
 48
3.0
100
AcDbLine
 10
2300.71681980898
 20
4155.086635190053
 30
0.0
 11
2300.71681980898
 21
4005.086635190053
 31
0.0
  0
CIRCLE
  5
15279
330
747D
100
AcDbEntity
  8
部品1
 48
50.0
100
AcDbCircle
 10
2300.71681980898
 20
4080.086635190053
 30
0.0
 40
15.0
  0
LINE
  5
1527A
330
747D
100
AcDbEntity
  8
センター
 48
10.0
100
AcDbLine
 10
2400.71681980898
 20
3730.086635190054
 30
0.0
 11
2400.71681980898
 21
4230.086635190053
 31
0.0
  0
LINE
  5
1527B
330
747D
100
AcDbEntity
  8
センター
 48
3.0
100
AcDbLine
 10
2425.71681980898
 20
3880.086635190054
 30
0.0
 11
2575.71681980898
 21
3880.086635190054
 31
0.0
  0
CIRCLE
  5
1527C
330
747D
100
AcDbEntity
  8
部品1
 48
50.0
100
AcDbCircle
 10
2500.71681980898
 20
3880.086635190054
 30
0.0
 40
15.0
  0
LINE
  5
1527D
330
747D
100
AcDbEntity
  8
センター
 48
3.0
100
AcDbLine
 10
2500.71681980898
 20
3955.086635190054
 30
0.0
 11
2500.71681980898
 21
3805.086635190054
 31
0.0
  0
LINE
  5
1527E
330
747D
100
AcDbEntity
  8
センター
 48
3.0
100
AcDbLine
 10
2425.71681980898
 20
4080.086635190053
 30
0.0
 11
2575.71681980898
 21
4080.086635190053
 31
0.0
  0
LINE
  5
1527F
330
747D
100
AcDbEntity
  8
センター
 48
3.0
100
AcDbLine
 10
2500.71681980898
 20
4155.086635190053
 30
0.0
 11
2500.71681980898
 21
4005.086635190053
 31
0.0
  0
CIRCLE
  5
15280
330
747D
100
AcDbEntity
  8
部品1
 48
50.0
100
AcDbCircle
 10
2500.71681980898
 20
4080.086635190053
 30
0.0
 40
15.0
  0
LINE
  5
15281
330
747D
100
AcDbEntity
  8
寸法
 48
50.0
100
AcDbLine
 10
3512.338856478442
 20
2737.660507157698
 30
0.0
 11
3479.490573645673
 21
2860.251967631155
 31
0.0
  0
LINE
  5
15282
330
747D
100
AcDbEntity
  8
寸法
 48
50.0
100
AcDbLine
 10
3512.338856478442
 20
2737.660507157698
 30
0.0
 11
3545.187139311269
 21
2860.251967631155
 31
0.0
  0
LINE
  5
15283
330
747D
100
AcDbEntity
  8
寸法
 48
50.0
100
AcDbLine
 10
3512.338856478442
 20
3523.375735590881
 30
0.0
 11
3512.338856478442
 21
2737.660507157698
 31
0.0
  0
MTEXT
  5
15284
330
747D
100
AcDbEntity
  8
寸法
 62
     7
 48
50.0
100
AcDbMText
 10
3417.900920412665
 20
2876.373813284843
 30
0.0
 40
90.0
 41
0.0
 71
     4
 72
     1
  1
\A1;水勾配 1/100 
  7
STYLE1
 11
0.0000000000000001
 21
1.0
 31
0.0
 73
     1
 44
1.0
1001
ACAD
1000
MTEXTBEGIN
1070
    73
1070
     1
1070
    44
1040
1.0
1070
    74
1070
     0
1000
MTEXTEND
  0
DIMENSION
  5
15285
330
747D
100
AcDbEntity
  8
寸法
 48
50.0
100
AcDbDimension
  2
*D1
 10
5430.716819808922
 20
1301.598916853507
 30
0.0
 11
3800.71681980898
 21
1376.607775121224
 31
0.0
 70
    32
  1
屋根寸法 <>
 71
     5
 42
3259.999999999884
  3
INABA_S30G
100
AcDbAlignedDimension
 13
2170.716819809038
 23
1766.586635190039
 33
0.0
 14
5430.716819808922
 24
1766.586635190053
 34
0.0
100
AcDbRotatedDimension
  0
DIMENSION
  5
15286
330
747D
100
AcDbEntity
  8
寸法
 48
50.0
100
AcDbDimension
  2
*D2
 10
2000.71681980898
 20
1301.598916853507
 30
0.0
 11
2085.716819809009
 21
1376.598916853507
 31
0.0
 70
    32
 71
     5
 42
170.0000000000582
  3
INABA_S30G
100
AcDbAlignedDimension
 13
2170.716819809038
 23
1766.586635190039
 33
0.0
 14
2000.71681980898
 24
1630.086635190053
 34
0.0
100
AcDbRotatedDimension
  0
DIMENSION
  5
15287
330
747D
100
AcDbEntity
  8
寸法
 48
50.0
100
AcDbDimension
  2
*D3
 10
5600.71681980898
 20
1301.598916853507
 30
0.0
 11
5515.716819808951
 21
1376.598916853507
 31
0.0
 70
    32
 71
     5
 42
170.0000000000582
  3
INABA_S30G
100
AcDbAlignedDimension
 13
5430.716819808922
 23
1766.586635190053
 33
0.0
 14
5600.71681980898
 24
1630.086635190053
 34
0.0
100
AcDbRotatedDimension
  0
DIMENSION
  5
15288
330
747D
100
AcDbEntity
  8
寸法
 48
50.0
100
AcDbDimension
  2
*D4
 10
5982.991042172582
 20
1630.086635190053
 30
0.0
 11
5982.991042172582
 21
1406.222674159375
 31
0.0
 70
   160
 71
     5
 42
136.5
  3
INABA_S30G
100
AcDbAlignedDimension
 13
5430.716819808922
 23
1766.586635190053
 33
0.0
 14
5600.71681980898
 24
1630.086635190053
 34
0.0
 50
90.0
100
AcDbRotatedDimension
  0
DIMENSION
  5
15289
330
747D
100
AcDbEntity
  8
寸法
 48
50.0
100
AcDbDimension
  2
*D5
 10
5982.991042172582
 20
1766.586635190053
 30
0.0
 11
5907.991042172582
 21
3805.086635190054
 31
0.0
 70
    32
  1
屋根寸法 <>
 71
     5
 42
4076.999999999999
  3
INABA_S30G
100
AcDbAlignedDimension
 13
5430.716819808922
 23
5843.586635190053
 33
0.0
 14
5430.716819808922
 24
1766.586635190053
 34
0.0
 50
90.0
100
AcDbRotatedDimension
  0
DIMENSION
  5
1528A
330
747D
100
AcDbEntity
  8
寸法
 48
50.0
100
AcDbDimension
  2
*D6
 10
5982.991042172582
 20
5980.086635190053
 30
0.0
 11
5982.991042172582
 21
6203.950596220782
 31
0.0
 70
   160
 71
     5
 42
136.5
  3
INABA_S30G
100
AcDbAlignedDimension
 13
5430.716819808922
 23
5843.586635190053
 33
0.0
 14
5600.71681980898
 24
5980.086635190053
 34
0.0
 50
270.0
100
AcDbRotatedDimension
  0
LINE
  5
1528B
330
747D
100
AcDbEntity
  8
寸法
 48
50.0
100
AcDbLine
 10
3512.338856478442
 20
4872.512763222409
 30
0.0
 11
3479.490573645673
 21
4749.921302748951
 31
0.0
  0
LINE
  5
1528C
330
747D
100
AcDbEntity
  8
寸法
 48
50.0
100
AcDbLine
 10
3512.338856478442
 20
4872.512763222409
 30
0.0
 11
3545.187139311269
 21
4749.921302748951
 31
0.0
  0
LINE
  5
1528D
330
747D
100
AcDbEntity
  8
寸法
 48
50.0
100
AcDbLine
 10
3512.338856478442
 20
4086.797534789226
 30
0.0
 11
3512.338856478442
 21
4872.512763222409
 31
0.0
  0
MTEXT
  5
1528E
330
747D
100
AcDbEntity
  8
寸法
 62
     7
 48
50.0
100
AcDbMText
 10
3417.900920412665
 20
4125.510840916357
 30
0.0
 40
90.0
 41
0.0
 71
     4
 72
     1
  1
\A1;水勾配 1/100 
  7
STYLE1
 11
0.0000000000000001
 21
1.0
 31
0.0
 73
     1
 44
1.0
1001
ACAD
1000
MTEXTBEGIN
1070
    73
1070
     1
1070
    44
1040
1.0
1070
    74
1070
     0
1000
MTEXTEND
  0
TEXT
  5
1528F
330
747D
100
AcDbEntity
  8
寸法
 62
     7
100
AcDbText
 10
3658.860720437764
 20
2505.412903724142
 30
0.0
 40
90.0
  1
ｱﾝｶｰﾎﾞﾙﾄ(市販品)
  7
STYLE1
100
AcDbText
  0
LEADER
  5
15290
330
747D
100
AcDbEntity
  8
寸法
 48
50.0
100
AcDbLeader
  3
INABA_S50G
 76
     3
 10
5100.71681980898
 20
3530.086635190054
 30
0.0
 10
4489.202580828556
 20
2470.912903724143
 30
0.0
 10
3636.314171861437
 20
2470.912903724143
 30
0.0
1001
ACAD
1000
DSTYLE
1002
{
1070
    41
1040
80.0
1070
   147
1040
25.0
1070
    77
1070
     0
1002
}
  0
DIMENSION
  5
15291
330
747D
100
AcDbEntity
  8
寸法
 48
50.0
100
AcDbDimension
  2
*D7
 10
1437.095621081259
 20
1630.086635190053
 30
0.0
 11
1362.095621081259
 21
3805.086635190054
 31
0.0
 70
    32
  1
基礎土間寸法 <>
 71
     5
 42
4349.999999999999
  3
INABA_S30G
100
AcDbAlignedDimension
 13
2000.716819808951
 23
5980.086635190053
 33
0.0
 14
2000.716819808951
 24
1630.086635190053
 34
0.0
 50
90.0
100
AcDbRotatedDimension
  0
DIMENSION
  5
15292
330
747D
100
AcDbEntity
  8
寸法
 48
50.0
100
AcDbDimension
  2
*D8
 10
1659.844983097706
 20
1630.086635190053
 30
0.0
 11
1584.836124829989
 21
2630.086635190054
 31
0.0
 70
    32
 71
     5
 42
2000.0
  3
INABA_S30G
100
AcDbAlignedDimension
 13
2150.716819808951
 23
3630.086635190054
 33
0.0
 14
2000.716819808951
 24
1630.086635190053
 34
0.0
 50
90.0
100
AcDbRotatedDimension
  0
DIMENSION
  5
15293
330
747D
100
AcDbEntity
  8
寸法
 48
50.0
100
AcDbDimension
  2
*D9
 10
1659.844983097706
 20
3630.086635190054
 30
0.0
 11
1584.844983097705
 21
3805.086635190054
 31
0.0
 70
    32
 71
     5
 42
350.0
  3
INABA_S30G
100
AcDbAlignedDimension
 13
2150.716819808951
 23
3980.086635190054
 33
0.0
 14
2150.716819808951
 24
3630.086635190054
 34
0.0
 50
90.0
100
AcDbRotatedDimension
  0
DIMENSION
  5
15294
330
747D
100
AcDbEntity
  8
寸法
 48
50.0
100
AcDbDimension
  2
*D10
 10
1659.844983097706
 20
5980.086635190053
 30
0.0
 11
1584.836124829988
 21
4980.086635190053
 31
0.0
 70
    32
 71
     5
 42
1999.999999999999
  3
INABA_S30G
100
AcDbAlignedDimension
 13
2150.716819808951
 23
3980.086635190054
 33
0.0
 14
2000.716819808951
 24
5980.086635190053
 34
0.0
 50
270.0
100
AcDbRotatedDimension
  0
LINE
  5
15295
330
747D
100
AcDbEntity
  8
寸法
 48
50.0
100
AcDbLine
 10
2146.582989060074
 20
4583.985597670185
 30
0.0
 11
2254.316359643055
 21
4612.852667315766
 31
0.0
  0
LINE
  5
15296
330
747D
100
AcDbEntity
  8
寸法
 48
50.0
100
AcDbLine
 10
2254.316359643055
 20
4612.852667315766
 30
0.0
 11
2254.316359643055
 21
4546.918048394224
 31
0.0
  0
LINE
  5
15297
330
747D
100
AcDbEntity
  8
寸法
 48
50.0
100
AcDbLine
 10
2400.71681980898
 20
4583.985597670185
 30
0.0
 11
2146.582989060074
 21
4583.985597670185
 31
0.0
  0
TEXT
  5
15298
330
747D
100
AcDbEntity
  8
寸法
 62
     7
100
AcDbText
 10
2037.081339646525
 20
4555.920124868417
 30
0.0
 40
90.0
  1
A'
  7
STYLE1
100
AcDbText
  0
LINE
  5
15299
330
747D
100
AcDbEntity
  8
寸法
 48
50.0
100
AcDbLine
 10
2400.71681980898
 20
3026.187672709921
 30
0.0
 11
2146.582989060074
 21
3026.187672709921
 31
0.0
  0
LINE
  5
1529A
330
747D
100
AcDbEntity
  8
寸法
 48
50.0
100
AcDbLine
 10
2146.582989060074
 20
3026.187672709921
 30
0.0
 11
2254.316359643055
 21
2997.32060306434
 31
0.0
  0
LINE
  5
1529B
330
747D
100
AcDbEntity
  8
寸法
 48
50.0
100
AcDbLine
 10
2254.316359643055
 20
2997.32060306434
 30
0.0
 11
2254.316359643055
 21
3063.255221985883
 31
0.0
  0
TEXT
  5
1529C
330
747D
100
AcDbEntity
  8
寸法
 62
     7
100
AcDbText
 10
2035.822710787806
 20
2983.960469702017
 30
0.0
 40
90.0
  1
A
  7
STYLE1
100
AcDbText
  0
LINE
  5
1529D
330
747D
100
AcDbEntity
  8
寸法
 48
50.0
100
AcDbLine
 10
2400.71681980898
 20
3026.187672709921
 30
0.0
 11
2400.71681980898
 21
3380.086635190054
 31
0.0
  0
DIMENSION
  5
1529E
330
747D
100
AcDbEntity
  8
寸法
 48
50.0
100
AcDbDimension
  2
*D11
 10
5600.71681980898
 20
6483.575968295472
 30
0.0
 11
3800.71681980898
 21
6558.575968295471
 31
0.0
 70
    32
  1
基礎土間寸法 <>
 71
     5
 42
3600.000000000001
  3
INABA_S30G
100
AcDbAlignedDimension
 13
2000.71681980898
 23
5980.086635190053
 33
0.0
 14
5600.71681980898
 24
5980.086635190053
 34
0.0
100
AcDbRotatedDimension
  0
DIMENSION
  5
1529F
330
747D
100
AcDbEntity
  8
寸法
 48
50.0
100
AcDbDimension
  2
*D12
 10
5600.71681980898
 20
6289.538929321153
 30
0.0
 11
5400.71681980898
 21
6364.538929321153
 31
0.0
 70
    32
 71
     5
 42
400.0
  3
INABA_S30G
100
AcDbAlignedDimension
 13
5200.71681980898
 23
4230.086635190053
 33
0.0
 14
5600.71681980898
 24
5980.086635190053
 34
0.0
100
AcDbRotatedDimension
  0
DIMENSION
  5
152A0
330
747D
100
AcDbEntity
  8
寸法
 48
50.0
100
AcDbDimension
  2
*D13
 10
5200.71681980898
 20
6289.538929321153
 30
0.0
 11
3800.71681980898
 21
6364.54778758887
 31
0.0
 70
    32
 71
     5
 42
2800.000000000001
  3
INABA_S30G
100
AcDbAlignedDimension
 13
2400.71681980898
 23
4230.086635190053
 33
0.0
 14
5200.71681980898
 24
4230.086635190053
 34
0.0
100
AcDbRotatedDimension
  0
DIMENSION
  5
152A1
330
747D
100
AcDbEntity
  8
寸法
 48
50.0
100
AcDbDimension
  2
*D14
 10
2400.71681980898
 20
6289.538929321153
 30
0.0
 11
2200.71681980898
 21
6364.538929321153
 31
0.0
 70
    32
 71
     5
 42
400.0
  3
INABA_S30G
100
AcDbAlignedDimension
 13
2000.71681980898
 23
5980.086635190053
 33
0.0
 14
2400.71681980898
 24
4230.086635190053
 34
0.0
100
AcDbRotatedDimension
  0
DIMENSION
  5
152A2
330
747D
100
AcDbEntity
  8
寸法
 48
50.0
100
AcDbDimension
  2
*D15
 10
4800.716819808951
 20
2866.950419152948
 30
0.0
 11
5000.716819808951
 21
2941.950419152947
 31
0.0
 70
    32
 71
     5
 42
400.0
  3
INABA_S30G
100
AcDbAlignedDimension
 13
5200.716819808952
 23
3380.086635190039
 33
0.0
 14
4800.716819808951
 24
3105.086635190039
 34
0.0
100
AcDbRotatedDimension
  0
DIMENSION
  5
152A3
330
747D
100
AcDbEntity
  8
寸法
 48
50.0
100
AcDbDimension
  2
*D16
 10
5600.71681980898
 20
2628.814203115885
 30
0.0
 11
5200.716819808952
 21
2628.814203115885
 31
0.0
 70
   160
 71
     5
 42
800.0000000000291
  3
INABA_S30G
100
AcDbAlignedDimension
 13
4800.716819808951
 23
3105.086635190039
 33
0.0
 14
5600.71681980898
 24
3105.086635190039
 34
0.0
100
AcDbRotatedDimension
  0
DIMENSION
  5
152A4
330
747D
100
AcDbEntity
  8
寸法
 48
50.0
100
AcDbDimension
  2
*D17
 10
4623.40231652478
 20
3105.086635190025
 30
0.0
 11
4548.393458257062
 21
3367.586635190033
 31
0.0
 70
    32
 71
     5
 42
525.0000000000145
  3
INABA_S30G
100
AcDbAlignedDimension
 13
4950.716819808952
 23
3630.086635190039
 33
0.0
 14
4800.716819808951
 24
3105.086635190025
 34
0.0
 50
90.0
100
AcDbRotatedDimension
  0
DIMENSION
  5
152A5
330
747D
100
AcDbEntity
  8
寸法
 48
50.0
100
AcDbDimension
  2
*D18
 10
4446.087813240608
 20
3105.086635190025
 30
0.0
 11
4371.087813240608
 21
3805.086635190032
 31
0.0
 70
    32
 71
     5
 42
1400.000000000014
  3
INABA_S30G
100
AcDbAlignedDimension
 13
4800.716819808951
 23
4505.086635190038
 33
0.0
 14
4800.716819808951
 24
3105.086635190025
 34
0.0
 50
90.0
100
AcDbRotatedDimension
  0
DIMENSION
  5
152A6
330
747D
100
AcDbEntity
  8
寸法
 48
50.0
100
AcDbDimension
  2
*D19
 10
4623.40231652478
 20
3630.086635190039
 30
0.0
 11
4548.402316524779
 21
3805.08663519004
 31
0.0
 70
    32
 71
     5
 42
350.0
  3
INABA_S30G
100
AcDbAlignedDimension
 13
4950.716819808952
 23
3980.086635190039
 33
0.0
 14
4950.716819808952
 24
3630.086635190039
 34
0.0
 50
90.0
100
AcDbRotatedDimension
  0
DIMENSION
  5
152A7
330
747D
100
AcDbEntity
  8
寸法
 48
50.0
100
AcDbDimension
  2
*D20
 10
4623.40231652478
 20
4505.086635190052
 30
0.0
 11
4548.393458257062
 21
4242.586635190046
 31
0.0
 70
    32
 71
     5
 42
525.0000000000141
  3
INABA_S30G
100
AcDbAlignedDimension
 13
4950.716819808952
 23
3980.086635190039
 33
0.0
 14
4800.716819808951
 24
4505.086635190052
 34
0.0
 50
270.0
100
AcDbRotatedDimension
  0
LINE
  5
15448
330
747D
100
AcDbEntity
  8
細線
 48
50.0
100
AcDbLine
 10
8797.136480122338
 20
2961.090715532149
 30
0.0
 11
8790.437750311566
 21
2986.090715532148
 31
0.0
  0
LINE
  5
15449
330
747D
100
AcDbEntity
  8
細線
 48
50.0
100
AcDbLine
 10
8673.87390989222
 20
2961.090715532149
 30
0.0
 11
8667.17518008145
 21
2986.090715532148
 31
0.0
  0
LINE
  5
1544A
330
747D
100
AcDbEntity
  8
細線
 48
50.0
100
AcDbLine
 10
8550.611339662165
 20
2961.090715532149
 30
0.0
 11
8543.912609851394
 21
2986.090715532148
 31
0.0
  0
LINE
  5
1544B
330
747D
100
AcDbEntity
  8
細線
 48
50.0
100
AcDbLine
 10
8427.348769432105
 20
2961.090715532149
 30
0.0
 11
8420.650039621335
 21
2986.090715532148
 31
0.0
  0
LINE
  5
1544C
330
747D
100
AcDbEntity
  8
細線
 48
50.0
100
AcDbLine
 10
8803.835209933108
 20
3036.090715532149
 30
0.0
 11
8797.136480122338
 21
3061.090715532149
 31
0.0
  0
LINE
  5
1544D
330
747D
100
AcDbEntity
  8
細線
 48
50.0
100
AcDbLine
 10
8680.572639702992
 20
3036.090715532149
 30
0.0
 11
8673.87390989222
 21
3061.090715532149
 31
0.0
  0
LINE
  5
1544E
330
747D
100
AcDbEntity
  8
細線
 48
50.0
100
AcDbLine
 10
8434.047499242877
 20
3036.090715532149
 30
0.0
 11
8427.348769432105
 21
3061.090715532149
 31
0.0
  0
LINE
  5
1544F
330
747D
100
AcDbEntity
  8
細線
 48
50.0
100
AcDbLine
 10
8557.310069472935
 20
3036.090715532149
 30
0.0
 11
8550.611339662165
 21
3061.090715532149
 31
0.0
  0
HATCH
  5
15450
330
747D
100
AcDbEntity
  8
細線
 48
50.0
100
AcDbHatch
 10
0.0
 20
0.0
 30
0.0000000000013153
210
0.0
220
0.0
230
1.0
  2
PLAST
 70
     0
 71
     0
 91
       10
 92
        7
 72
     1
 73
     1
 93
       16
 10
8884.973379265691
 20
3775.090715532149
 42
0.0
 10
8870.97337926569
 20
3775.090715532149
 42
0.0
 10
8856.97337926569
 20
3761.090715532148
 42
0.0
 10
7904.52337926562
 20
3761.090715532148
 42
0.0
 10
7904.523379265679
 20
3661.090715532149
 42
0.0
 10
8404.523379265679
 20
3661.090715532149
 42
0.0
 10
8404.523379265679
 20
3561.090715532178
 42
0.0
 10
8729.523379265678
 20
3561.090715532178
 42
0.0
 10
8729.523379265678
 20
3596.090715532149
 42
0.0
 10
8724.523379265678
 20
3596.090715532149
 42
-0.4142135623730951
 10
8719.523379265678
 20
3601.090715532148
 42
-0.4142135623730951
 10
8724.523379265678
 20
3606.090715532149
 42
0.0
 10
8795.97337926569
 20
3606.090715532149
 42
0.0
 10
8795.97337926569
 20
3643.090715532149
 42
0.0
 10
8805.97337926569
 20
3653.090715532149
 42
0.0
 10
8884.973379265691
 20
3653.090715532149
 42
0.0
 97
        0
 92
       23
 72
     0
 73
     1
 93
        6
 10
8823.523379265678
 20
3591.090715532148
 10
8789.523379265679
 20
3591.090715532148
 10
8789.523379265679
 20
3596.090715532149
 10
8742.523379265678
 20
3596.090715532149
 10
8742.523379265678
 20
3561.090715532178
 10
8823.523379265678
 20
3561.090715532178
 97
        0
 92
        7
 72
     1
 73
     1
 93
        4
 10
8929.523379265679
 20
3591.090715532177
 42
0.0
 10
8835.523379265678
 20
3591.090715532163
 42
0.0
 10
8835.523379265678
 20
3561.090715532178
 42
0.0
 10
8884.878109905518
 20
3561.090715532178
 42
-0.304773531682055
 97
        0
 92
        7
 72
     1
 73
     1
 93
        4
 10
9023.523379265679
 20
3591.090715532148
 42
0.0
 10
8929.523379265679
 20
3591.090715532177
 42
-0.304773531682055
 10
8974.168648625839
 20
3561.090715532178
 42
0.0
 10
9023.523379265679
 20
3561.090715532178
 42
0.0
 97
        0
 92
        7
 72
     0
 73
     1
 93
        8
 10
9173.523379265679
 20
3591.090715532148
 10
9139.523379265678
 20
3591.090715532148
 10
9139.523379265678
 20
3596.090715532149
 10
9069.523379265678
 20
3596.090715532149
 10
9069.523379265678
 20
3591.090715532148
 10
9035.523379265679
 20
3591.090715532148
 10
9035.523379265679
 20
3561.090715532178
 10
9173.523379265679
 20
3561.090715532178
 97
        0
 92
        7
 72
     0
 73
     1
 93
       14
 10
9145.97337926569
 20
3643.090715532149
 10
9155.97337926569
 20
3653.090715532149
 10
9234.97337926569
 20
3653.090715532149
 10
9234.97337926569
 20
3775.090715532149
 10
9220.973379265691
 20
3775.090715532149
 10
9206.97337926569
 20
3761.090715532134
 10
9002.073379265667
 20
3761.090715532148
 10
8988.073379265726
 20
3775.090715532149
 10
8974.073379265666
 20
3775.090715532149
 10
8974.073379265666
 20
3653.090715532149
 10
9053.073379265667
 20
3653.090715532149
 10
9063.073379265667
 20
3643.090715532149
 10
9063.073379265667
 20
3606.090715532149
 10
9145.97337926569
 20
3606.090715532149
 97
        0
 92
        7
 72
     1
 73
     1
 93
        4
 10
9279.523379265679
 20
3591.090715532177
 42
0.0
 10
9185.52337926568
 20
3591.090715532163
 42
0.0
 10
9185.52337926568
 20
3561.090715532178
 42
0.0
 10
9234.878109905517
 20
3561.090715532178
 42
-0.3047735316820541
 97
        0
 92
        7
 72
     1
 73
     1
 93
        4
 10
9373.523379265678
 20
3591.090715532148
 42
0.0
 10
9279.523379265679
 20
3591.090715532177
 42
-0.3047735316820546
 10
9324.168648625839
 20
3561.090715532178
 42
0.0
 10
9373.523379265678
 20
3561.090715532178
 42
0.0
 97
        0
 92
       23
 72
     0
 73
     1
 93
        6
 10
9466.523379265678
 20
3596.090715532149
 10
9419.523379265678
 20
3596.090715532149
 10
9419.523379265678
 20
3591.090715532148
 10
9385.523379265679
 20
3591.090715532148
 10
9385.523379265679
 20
3561.090715532178
 10
9466.523379265678
 20
3561.090715532178
 97
        0
 92
        7
 72
     1
 73
     1
 93
       16
 10
9804.523379265679
 20
3661.090715532149
 42
0.0
 10
10304.52337926567
 20
3661.090715532149
 42
0.0
 10
10304.52337926573
 20
3761.090715532148
 42
0.0
 10
9352.073379265666
 20
3761.090715532148
 42
0.0
 10
9338.073379265726
 20
3775.090715532149
 42
0.0
 10
9324.073379265668
 20
3775.090715532149
 42
0.0
 10
9324.073379265668
 20
3653.090715532149
 42
0.0
 10
9403.073379265666
 20
3653.090715532149
 42
0.0
 10
9413.073379265666
 20
3643.090715532149
 42
0.0
 10
9413.073379265666
 20
3606.090715532149
 42
0.0
 10
9484.523379265679
 20
3606.090715532149
 42
-0.4142135623730951
 10
9489.523379265678
 20
3601.090715532148
 42
-0.4142135623730951
 10
9484.523379265679
 20
3596.090715532149
 42
0.0
 10
9479.523379265678
 20
3596.090715532149
 42
0.0
 10
9479.523379265678
 20
3561.090715532178
 42
0.0
 10
9804.523379265679
 20
3561.090715532178
 42
0.0
 97
        0
 75
     0
 76
     1
 52
45.0
 41
37.5
 77
     0
 78
     3
 53
45.0
 43
-267558.1919678617
 44
111471.9207977022
 45
-168.3798022700466
 46
168.3798022700466
 79
     0
 53
45.0
 43
-267579.2394431455
 44
111492.9682729859
 45
-168.3798022700466
 46
168.3798022700466
 79
     0
 53
45.0
 43
-267600.2869184292
 44
111514.0157482697
 45
-168.3798022700466
 46
168.3798022700466
 79
     0
 47
2.934270310785949
 98
       10
 10
8645.982434574397
 20
3707.568428609478
 10
8779.089971797771
 20
3568.322659204817
 10
8867.414927362172
 20
3570.615705385704
 10
8997.034362832664
 20
3576.34842570602
 10
9110.595019986909
 20
3577.495053664564
 10
9112.889250805308
 20
3625.650281880387
 10
9224.155398003697
 20
3578.641471886878
 10
9351.480881793305
 20
3575.202007483677
 10
9436.364630698866
 20
3575.202007483677
 10
9703.051447460135
 20
3647.12097954219
1001
GradientColor1ACI
1070
     5
1001
GradientColor2ACI
1070
     2
1001
ACAD
1010
0.0
1020
0.0
1030
0.0
  0
CIRCLE
  5
15451
330
747D
100
AcDbEntity
  8
U7
100
AcDbCircle
 10
8724.523379265678
 20
3601.090715532148
 30
0.0
 40
5.0
  0
CIRCLE
  5
15452
330
747D
100
AcDbEntity
  8
U7
100
AcDbCircle
 10
9484.523379265679
 20
3601.090715532148
 30
0.0
 40
5.0
  0
LINE
  5
15453
330
747D
100
AcDbEntity
  8
U7
100
AcDbLine
 10
8724.523379265678
 20
3596.090715532149
 30
0.0
 11
9484.523379265679
 21
3596.090715532149
 31
0.0
  0
LINE
  5
15454
330
747D
100
AcDbEntity
  8
U7
100
AcDbLine
 10
8724.523379265678
 20
3606.090715532149
 30
0.0
 11
9484.523379265679
 21
3606.090715532149
 31
0.0
  0
HATCH
  5
15455
330
747D
100
AcDbEntity
  8
細線
 48
50.0
100
AcDbHatch
 10
0.0
 20
0.0
 30
0.0000000000013153
210
0.0
220
0.0
230
1.0
  2
PLAST
 70
     0
 71
     0
 91
       29
 92
        7
 72
     1
 73
     1
 93
       34
 10
8724.523379265678
 20
3406.090715532149
 42
0.0
 10
8729.523379265678
 20
3406.090715532149
 42
0.0
 10
8729.523379265678
 20
3496.090715532149
 42
0.0
 10
8724.523379265678
 20
3496.090715532149
 42
-0.4142135623730951
 10
8719.523379265678
 20
3501.090715532149
 42
-0.4142135623730951
 10
8724.523379265678
 20
3506.090715532149
 42
0.0
 10
8729.523379265678
 20
3506.090715532149
 42
0.0
 10
8729.523379265678
 20
3561.090715532178
 42
0.0
 10
8404.523379265679
 20
3561.090715532178
 42
0.0
 10
8404.523379265679
 20
3111.090715532148
 42
0.0
 10
8524.523379265678
 20
3111.090715532148
 42
0.0
 10
8588.803830827759
 20
3175.37116709423
 42
0.0
 10
8588.803830827759
 20
3186.090715532163
 42
0.0
 10
8599.523379265678
 20
3186.090715532163
 42
0.0
 10
8600.987845359718
 20
3187.555181626217
 42
-0.1989123673796434
 10
8599.523379265678
 20
3191.090715532149
 42
-1.0
 10
8609.523379265679
 20
3191.090715532149
 42
-0.4142135623730992
 10
8604.523379265678
 20
3186.090715532149
 42
0.0
 10
8660.252066355953
 20
3186.090715532149
 42
0.0
 10
8697.252066355954
 20
3223.090715532148
 42
0.0
 10
8554.073379265666
 20
3223.090715532148
 42
0.0
 10
8554.073379265666
 20
3236.090715532148
 42
0.0
 10
8699.523379265677
 20
3236.090715532148
 42
0.1260483184577218
 10
8713.946888528004
 20
3239.785537704215
 42
0.0
 10
8725.828557093626
 20
3251.667206269806
 42
0.1260483184577219
 10
8729.523379265678
 20
3266.090715532148
 42
0.0
 10
8729.523379265678
 20
3296.090715532149
 42
0.0
 10
8724.523379265678
 20
3296.090715532149
 42
-0.4142135623730951
 10
8719.523379265678
 20
3301.090715532148
 42
-0.4142135623730951
 10
8724.523379265678
 20
3306.090715532149
 42
0.0
 10
8729.523379265678
 20
3306.090715532149
 42
0.0
 10
8729.523379265678
 20
3396.090715532149
 42
0.0
 10
8724.523379265678
 20
3396.090715532149
 42
-0.4142135623730951
 10
8719.523379265678
 20
3401.090715532149
 42
-0.4142135623730951
 97
        0
 92
        7
 72
     0
 73
     1
 93
        4
 10
8823.523379265678
 20
3561.090715532178
 10
8742.523379265678
 20
3561.090715532178
 10
8742.523379265678
 20
3506.090715532149
 10
8823.523379265678
 20
3506.090715532149
 97
        0
 92
        7
 72
     0
 73
     1
 93
        4
 10
8823.523379265678
 20
3496.090715532149
 10
8742.523379265678
 20
3496.090715532149
 10
8742.523379265678
 20
3406.090715532149
 10
8823.523379265678
 20
3406.090715532149
 97
        0
 92
        7
 72
     1
 73
     1
 93
        7
 10
8823.523379265678
 20
3396.090715532149
 42
0.0
 10
8742.523379265678
 20
3396.090715532149
 42
0.0
 10
8742.523379265678
 20
3306.090715532149
 42
0.0
 10
8779.523379265679
 20
3306.090715532149
 42
0.0
 10
8779.523379265679
 20
3312.090715532149
 42
0.0
 10
8798.523379265679
 20
3312.090715532149
 42
0.4142135623730951
 10
8823.523379265678
 20
3337.090715532148
 42
0.0
 97
        0
 92
        7
 72
     1
 73
     1
 93
       12
 10
8929.523379265679
 20
3296.090715532149
 42
0.0
 10
8770.252066355954
 20
3296.090715532149
 42
0.0
 10
8742.523379265678
 20
3268.362028441873
 42
0.0
 10
8742.523379265678
 20
3266.090715532148
 42
-0.4142135623730951
 10
8699.523379265677
 20
3223.090715532148
 42
0.0
 10
8697.252066355954
 20
3223.090715532148
 42
0.0
 10
8660.252066355953
 20
3186.090715532163
 42
0.0
 10
8804.523379265679
 20
3186.090715532149
 42
-0.4142135623730918
 10
8799.523379265677
 20
3191.090715532149
 42
-1.0
 10
8809.523379265678
 20
3191.090715532149
 42
-0.4142135623730984
 10
8804.523379265679
 20
3186.090715532149
 42
0.0
 10
8929.523379265679
 20
3186.090715532149
 42
0.0
 97
        0
 92
       23
 72
     0
 73
     1
 93
        4
 10
8650.252066355953
 20
3176.090715532134
 10
8589.523379265678
 20
3176.090715532134
 10
8524.523379265678
 20
3111.090715532148
 10
8585.252066355954
 20
3111.090715532148
 97
        0
 92
        7
 72
     0
 73
     1
 93
        4
 10
8929.523379265679
 20
3176.090715532134
 10
8650.252066355953
 20
3176.090715532134
 10
8585.252066355954
 20
3111.090715532148
 10
8929.523379265679
 20
3111.090715532148
 97
        0
 92
        7
 72
     0
 73
     1
 93
        4
 10
8929.523379265679
 20
3561.090715532178
 10
8835.523379265678
 20
3561.090715532178
 10
8835.523379265678
 20
3506.090715532149
 10
8929.523379265679
 20
3506.090715532149
 97
        0
 92
        7
 72
     0
 73
     1
 93
        4
 10
8929.523379265679
 20
3496.090715532149
 10
8835.523379265678
 20
3496.090715532149
 10
8835.523379265678
 20
3406.090715532149
 10
8929.523379265679
 20
3406.090715532149
 97
        0
 92
        7
 72
     1
 73
     1
 93
        5
 10
8929.523379265679
 20
3396.090715532149
 42
0.0
 10
8835.523379265678
 20
3396.090715532149
 42
0.0
 10
8835.523379265678
 20
3337.090715532148
 42
-0.2535612698375805
 10
8818.722389142378
 20
3306.090715532149
 42
0.0
 10
8929.523379265679
 20
3306.090715532149
 42
0.0
 97
        0
 92
        7
 72
     0
 73
     1
 93
        4
 10
9279.523379265679
 20
3176.090715532148
 10
8929.523379265679
 20
3176.090715532134
 10
8929.523379265679
 20
3111.090715532148
 10
9279.523379265679
 20
3111.090715532148
 97
        0
 92
        7
 72
     1
 73
     1
 93
       12
 10
9279.523379265679
 20
3296.090715532149
 42
0.0
 10
8929.523379265679
 20
3296.090715532149
 42
0.0
 10
8929.523379265679
 20
3186.090715532163
 42
0.0
 10
9004.523379265679
 20
3186.090715532149
 42
-0.4142135623730918
 10
8999.523379265678
 20
3191.090715532149
 42
-1.0
 10
9009.523379265678
 20
3191.090715532149
 42
-0.4142135623730984
 10
9004.523379265679
 20
3186.090715532149
 42
0.0
 10
9204.523379265678
 20
3186.090715532149
 42
-0.4142135623730951
 10
9199.523379265677
 20
3191.090715532149
 42
-1.0
 10
9209.523379265679
 20
3191.090715532149
 42
-0.4142135623731017
 10
9204.523379265678
 20
3186.090715532149
 42
0.0
 10
9279.523379265679
 20
3186.090715532149
 42
0.0
 97
        0
 92
        7
 72
     1
 73
     1
 93
        5
 10
9023.523379265679
 20
3396.090715532149
 42
0.0
 10
8929.523379265679
 20
3396.090715532149
 42
0.0
 10
8929.523379265679
 20
3306.090715532149
 42
0.0
 10
9040.324369388981
 20
3306.090715532149
 42
-0.2535612698375802
 10
9023.523379265679
 20
3337.090715532148
 42
0.0
 97
        0
 92
        7
 72
     0
 73
     1
 93
        4
 10
9023.523379265679
 20
3496.090715532149
 10
8929.523379265679
 20
3496.090715532149
 10
8929.523379265679
 20
3406.090715532149
 10
9023.523379265679
 20
3406.090715532149
 97
        0
 92
        7
 72
     0
 73
     1
 93
        4
 10
9023.523379265679
 20
3561.090715532178
 10
8929.523379265679
 20
3561.090715532178
 10
8929.523379265679
 20
3506.090715532149
 10
9023.523379265679
 20
3506.090715532149
 97
        0
 92
        7
 72
     0
 73
     1
 93
        4
 10
9173.523379265679
 20
3561.090715532178
 10
9035.523379265679
 20
3561.090715532178
 10
9035.523379265679
 20
3506.090715532149
 10
9173.523379265679
 20
3506.090715532149
 97
        0
 92
        7
 72
     0
 73
     1
 93
        4
 10
9173.523379265679
 20
3496.090715532149
 10
9035.523379265679
 20
3496.090715532149
 10
9035.523379265679
 20
3406.090715532149
 10
9173.523379265679
 20
3406.090715532149
 97
        0
 92
        7
 72
     1
 73
     1
 93
       10
 10
9173.523379265679
 20
3396.090715532149
 42
0.0
 10
9035.523379265679
 20
3396.090715532149
 42
0.0
 10
9035.523379265679
 20
3337.090715532148
 42
0.4142135623730951
 10
9060.52337926568
 20
3312.090715532149
 42
0.0
 10
9079.523379265678
 20
3312.090715532149
 42
0.0
 10
9079.523379265678
 20
3306.090715532149
 42
0.0
 10
9129.523379265679
 20
3306.090715532149
 42
0.0
 10
9129.523379265679
 20
3312.090715532149
 42
0.0
 10
9148.523379265679
 20
3312.090715532149
 42
0.4142135623730951
 10
9173.523379265679
 20
3337.090715532148
 42
0.0
 97
        0
 92
        7
 72
     0
 73
     1
 93
        4
 10
9279.523379265679
 20
3561.090715532178
 10
9185.52337926568
 20
3561.090715532178
 10
9185.52337926568
 20
3506.090715532149
 10
9279.523379265679
 20
3506.090715532149
 97
        0
 92
        7
 72
     0
 73
     1
 93
        4
 10
9373.523379265678
 20
3561.090715532178
 10
9279.523379265679
 20
3561.090715532178
 10
9279.523379265679
 20
3506.090715532149
 10
9373.523379265678
 20
3506.090715532149
 97
        0
 92
        7
 72
     0
 73
     1
 93
        4
 10
9373.523379265678
 20
3496.090715532149
 10
9279.523379265679
 20
3496.090715532149
 10
9279.523379265679
 20
3406.090715532149
 10
9373.523379265678
 20
3406.090715532149
 97
        0
 92
        7
 72
     0
 73
     1
 93
        4
 10
9279.523379265679
 20
3496.090715532149
 10
9185.52337926568
 20
3496.090715532149
 10
9185.52337926568
 20
3406.090715532149
 10
9279.523379265679
 20
3406.090715532149
 97
        0
 92
        7
 72
     1
 73
     1
 93
        5
 10
9279.523379265679
 20
3396.090715532149
 42
0.0
 10
9185.52337926568
 20
3396.090715532149
 42
0.0
 10
9185.52337926568
 20
3337.090715532148
 42
-0.2535612698375804
 10
9168.722389142377
 20
3306.090715532149
 42
0.0
 10
9279.523379265679
 20
3306.090715532149
 42
0.0
 97
        0
 92
       23
 72
     1
 73
     1
 93
        5
 10
9373.523379265678
 20
3396.090715532149
 42
0.0
 10
9279.523379265679
 20
3396.090715532149
 42
0.0
 10
9279.523379265679
 20
3306.090715532149
 42
0.0
 10
9390.324369388981
 20
3306.090715532149
 42
-0.2535612698375802
 10
9373.523379265678
 20
3337.090715532148
 42
0.0
 97
        0
 92
        7
 72
     1
 73
     1
 93
       34
 10
9466.523379265794
 20
3266.090715532148
 42
0.0
 10
9466.523379265794
 20
3296.090715532149
 42
0.0
 10
9279.523379265679
 20
3296.090715532149
 42
0.0
 10
9279.523379265679
 20
3186.090715532149
 42
0.0
 10
9404.523379265679
 20
3186.090715532149
 42
-0.4142135623730885
 10
9399.523379265678
 20
3191.090715532149
 42
-1.0
 10
9409.523379265678
 20
3191.090715532149
 42
-0.4142135623731017
 10
9404.523379265679
 20
3186.090715532149
 42
0.0
 10
9604.523379265678
 20
3186.090715532149
 42
-0.4142135623730951
 10
9599.523379265679
 20
3191.090715532149
 42
-1.0
 10
9609.523379265679
 20
3191.090715532149
 42
-0.4142135623731017
 10
9604.523379265678
 20
3186.090715532149
 42
0.0
 10
9620.242927703598
 20
3186.090715532149
 42
0.0
 10
9620.242927703598
 20
3176.090715532148
 42
0.0
 10
9279.523379265679
 20
3176.090715532148
 42
0.0
 10
9279.523379265679
 20
3111.090715532148
 42
0.0
 10
9804.523379265679
 20
3111.090715532148
 42
0.0
 10
9804.523379265679
 20
3263.451878045512
 42
0.0
 10
9479.523379265678
 20
3451.090715532148
 42
0.0
 10
9479.523379265678
 20
3406.090715532149
 42
0.0
 10
9484.523379265679
 20
3406.090715532149
 42
-0.4142135623730951
 10
9489.523379265678
 20
3401.090715532149
 42
-0.4142135623730951
 10
9484.523379265679
 20
3396.090715532149
 42
0.0
 10
9479.523379265678
 20
3396.090715532149
 42
0.0
 10
9479.523379265678
 20
3306.090715532149
 42
0.0
 10
9484.523379265679
 20
3306.090715532149
 42
-0.4142135623730951
 10
9489.523379265678
 20
3301.090715532148
 42
-0.4142135623730951
 10
9484.523379265679
 20
3296.090715532149
 42
0.0
 10
9479.523379265678
 20
3296.090715532149
 42
0.0
 10
9479.523379265796
 20
3266.090715532148
 42
0.4142135623730951
 10
9509.523379265795
 20
3236.090715532148
 42
0.0
 10
9654.973379265806
 20
3236.090715532148
 42
0.0
 10
9654.973379265806
 20
3223.090715532148
 42
0.0
 10
9509.523379265795
 20
3223.090715532148
 42
-0.4142135623730945
 97
        0
 92
       23
 72
     1
 73
     1
 93
        7
 10
9466.523379265678
 20
3396.090715532149
 42
0.0
 10
9385.523379265679
 20
3396.090715532149
 42
0.0
 10
9385.523379265679
 20
3337.090715532148
 42
0.4142135623730946
 10
9410.523379265679
 20
3312.090715532149
 42
0.0
 10
9429.523379265679
 20
3312.090715532149
 42
0.0
 10
9429.523379265679
 20
3306.090715532149
 42
0.0
 10
9466.523379265678
 20
3306.090715532149
 42
0.0
 97
        0
 92
        7
 72
     0
 73
     1
 93
        4
 10
9466.523379265678
 20
3496.090715532149
 10
9385.523379265679
 20
3496.090715532149
 10
9385.523379265679
 20
3406.090715532149
 10
9466.523379265678
 20
3406.090715532149
 97
        0
 92
        7
 72
     0
 73
     1
 93
        4
 10
9466.523379265678
 20
3561.090715532178
 10
9385.523379265679
 20
3561.090715532178
 10
9385.523379265679
 20
3506.090715532149
 10
9466.523379265678
 20
3506.090715532149
 97
        0
 92
        7
 72
     1
 73
     1
 93
        9
 10
9804.523379265679
 20
3561.090715532178
 42
0.0
 10
9479.523379265678
 20
3561.090715532178
 42
0.0
 10
9479.523379265678
 20
3506.090715532149
 42
0.0
 10
9484.523379265679
 20
3506.090715532149
 42
-0.4142135623730951
 10
9489.523379265678
 20
3501.090715532149
 42
-0.4142135623730951
 10
9484.523379265679
 20
3496.090715532149
 42
0.0
 10
9479.523379265678
 20
3496.090715532149
 42
0.0
 10
9479.523379265678
 20
3451.090715532148
 42
0.0
 10
9804.523379265679
 20
3263.451878045512
 42
0.0
 97
        0
 75
     0
 76
     1
 52
135.0
 41
37.5
 77
     0
 78
     3
 53
135.0
 43
-267558.1919678617
 44
111471.9207977022
 45
-168.3798022700466
 46
-168.3798022700466
 79
     0
 53
135.0
 43
-267579.2394431455
 44
111450.8733224184
 45
-168.3798022700466
 46
-168.3798022700466
 79
     0
 53
135.0
 43
-267600.2869184292
 44
111429.8258471347
 45
-168.3798022700466
 46
-168.3798022700466
 79
     0
 47
2.834284063646393
 98
       29
 10
8587.953105413644
 20
3402.253094390748
 10
8783.60781165608
 20
3529.796001744677
 10
8780.772054157102
 20
3450.436007788682
 10
8789.278768379064
 20
3339.8989332746
 10
8809.127954321912
 20
3235.030399795055
 10
8576.610912830217
 20
3144.333323769985
 10
8678.691483493659
 20
3144.333323769985
 10
8891.359339042507
 20
3535.464542779215
 10
8885.688382319521
 20
3453.270383174052
 10
8885.688382319521
 20
3337.064557889201
 10
9055.822666758611
 20
3147.167699155355
 10
9033.138002454244
 20
3249.201857249501
 10
8982.097717122522
 20
3371.07601383266
 10
8987.768952983023
 20
3475.944547312205
 10
8982.097717122522
 20
3535.464542779215
 10
9118.205144673817
 20
3532.630167393815
 10
9106.862952090391
 20
3444.767466754144
 10
9106.862952090391
 20
3351.236015343676
 10
9211.779001115296
 20
3535.464542779215
 10
9322.366565138215
 20
3538.298918164584
 10
9342.215471943607
 20
3458.93892420859
 10
9242.970379641628
 20
3447.601842139514
 10
9237.299143781184
 20
3354.070390729046
 10
9325.202043499679
 20
3348.401849694508
 10
9350.722186165569
 20
3246.367481864131
 10
9424.447135801658
 20
3348.401849694508
 10
9415.940421579696
 20
3444.767466754144
 10
9424.447135801658
 20
3518.4589196756
 10
9600.252656101247
 20
3518.4589196756
1001
GradientColor1ACI
1070
     5
1001
GradientColor2ACI
1070
     2
1001
ACAD
1010
0.0
1020
0.0
1030
0.0
  0
CIRCLE
  5
15456
330
747D
100
AcDbEntity
  8
U7
100
AcDbCircle
 10
8724.523379265678
 20
3501.090715532149
 30
0.0
 40
5.0
  0
CIRCLE
  5
15457
330
747D
100
AcDbEntity
  8
U7
100
AcDbCircle
 10
9484.523379265679
 20
3501.090715532149
 30
0.0
 40
5.0
  0
LINE
  5
15458
330
747D
100
AcDbEntity
  8
U7
100
AcDbLine
 10
8724.523379265678
 20
3496.090715532149
 30
0.0
 11
9484.523379265679
 21
3496.090715532149
 31
0.0
  0
CIRCLE
  5
15459
330
747D
100
AcDbEntity
  8
U7
100
AcDbCircle
 10
8724.523379265678
 20
3401.090715532149
 30
0.0
 40
5.0
  0
LINE
  5
1545A
330
747D
100
AcDbEntity
  8
U7
100
AcDbLine
 10
8724.523379265678
 20
3506.090715532149
 30
0.0
 11
9484.523379265679
 21
3506.090715532149
 31
0.0
  0
CIRCLE
  5
1545B
330
747D
100
AcDbEntity
  8
U7
100
AcDbCircle
 10
9484.523379265679
 20
3401.090715532149
 30
0.0
 40
5.0
  0
LINE
  5
1545C
330
747D
100
AcDbEntity
  8
U7
100
AcDbLine
 10
8724.523379265678
 20
3396.090715532149
 30
0.0
 11
9484.523379265679
 21
3396.090715532149
 31
0.0
  0
LINE
  5
1545D
330
747D
100
AcDbEntity
  8
U7
100
AcDbLine
 10
8724.523379265678
 20
3406.090715532149
 30
0.0
 11
9484.523379265679
 21
3406.090715532149
 31
0.0
  0
CIRCLE
  5
1545E
330
747D
100
AcDbEntity
  8
U7
100
AcDbCircle
 10
9484.523379265679
 20
3301.090715532148
 30
0.0
 40
5.0
  0
CIRCLE
  5
1545F
330
747D
100
AcDbEntity
  8
U7
100
AcDbCircle
 10
8724.523379265678
 20
3301.090715532148
 30
0.0
 40
5.0
  0
LINE
  5
15460
330
747D
100
AcDbEntity
  8
U7
100
AcDbLine
 10
8724.523379265678
 20
3306.090715532149
 30
0.0
 11
9484.523379265679
 21
3306.090715532149
 31
0.0
  0
LINE
  5
15461
330
747D
100
AcDbEntity
  8
U7
100
AcDbLine
 10
8724.523379265678
 20
3296.090715532149
 30
0.0
 11
9484.523379265679
 21
3296.090715532149
 31
0.0
  0
LINE
  5
15462
330
747D
100
AcDbEntity
  8
KIN-T
100
AcDbLine
 10
9654.973379265806
 20
3223.090715532148
 30
0.0
 11
9509.523379265795
 21
3223.090715532148
 31
0.0
  0
LINE
  5
15463
330
747D
100
AcDbEntity
  8
KIN-T
100
AcDbLine
 10
9654.973379265806
 20
3236.090715532148
 30
0.0
 11
9654.973379265806
 21
3223.090715532148
 31
0.0
  0
LINE
  5
15464
330
747D
100
AcDbEntity
  8
KIN-T
100
AcDbLine
 10
9466.523379265678
 20
3606.090715532149
 30
0.0
 11
9479.523379265678
 21
3606.090715532149
 31
0.0
  0
ARC
  5
15465
330
747D
100
AcDbEntity
  8
KIN-T
100
AcDbCircle
 10
9509.523379265795
 20
3266.090715532148
 30
0.0
 40
43.0
100
AcDbArc
 50
180.0
 51
270.0
  0
ARC
  5
15466
330
747D
100
AcDbEntity
  8
KIN-T
100
AcDbCircle
 10
9509.523379265795
 20
3266.090715532148
 30
0.0
 40
30.0
100
AcDbArc
 50
180.0
 51
270.0
  0
LINE
  5
15467
330
747D
100
AcDbEntity
  8
KIN-T
100
AcDbLine
 10
9466.523379265678
 20
3606.090715532149
 30
0.0
 11
9466.523379265678
 21
3266.090715532148
 31
0.0
  0
LINE
  5
15468
330
747D
100
AcDbEntity
  8
KIN-T
100
AcDbLine
 10
9479.523379265678
 20
3606.090715532149
 30
0.0
 11
9479.523379265678
 21
3266.090715532148
 31
0.0
  0
ARC
  5
15469
330
747D
100
AcDbEntity
  8
KIN-T
100
AcDbCircle
 10
8699.523379265677
 20
3266.090715532148
 30
0.0
 40
43.0
100
AcDbArc
 50
270.0
 51
0.0
  0
LINE
  5
1546A
330
747D
100
AcDbEntity
  8
KIN-T
100
AcDbLine
 10
9654.973379265806
 20
3236.090715532148
 30
0.0
 11
9509.523379265795
 21
3236.090715532148
 31
0.0
  0
LINE
  5
1546B
330
747D
100
AcDbEntity
  8
KIN-T
100
AcDbLine
 10
8554.073379265666
 20
3236.090715532148
 30
0.0
 11
8554.073379265666
 21
3223.090715532148
 31
0.0
  0
LINE
  5
1546C
330
747D
100
AcDbEntity
  8
KIN-T
100
AcDbLine
 10
8554.073379265666
 20
3223.090715532148
 30
0.0
 11
8699.523379265677
 21
3223.090715532148
 31
0.0
  0
LINE
  5
1546D
330
747D
100
AcDbEntity
  8
KIN-T
100
AcDbLine
 10
8729.523379265678
 20
3606.090715532149
 30
0.0
 11
8742.523379265678
 21
3606.090715532149
 31
0.0
  0
ARC
  5
1546E
330
747D
100
AcDbEntity
  8
KIN-T
100
AcDbCircle
 10
8699.523379265677
 20
3266.090715532148
 30
0.0
 40
30.0
100
AcDbArc
 50
270.0
 51
0.0
  0
LINE
  5
1546F
330
747D
100
AcDbEntity
  8
KIN-T
100
AcDbLine
 10
8742.523379265678
 20
3606.090715532149
 30
0.0
 11
8742.523379265678
 21
3266.090715532148
 31
0.0
  0
LINE
  5
15470
330
747D
100
AcDbEntity
  8
部品1
 48
50.0
100
AcDbLine
 10
8588.803830827759
 20
3186.090715532163
 30
0.0
 11
9620.242927703598
 21
3186.090715532149
 31
0.0
  0
LINE
  5
15471
330
747D
100
AcDbEntity
  8
KIN-T
100
AcDbLine
 10
8729.523379265678
 20
3606.090715532149
 30
0.0
 11
8729.523379265678
 21
3266.090715532148
 31
0.0
  0
LINE
  5
15472
330
747D
100
AcDbEntity
  8
KIN-T
100
AcDbLine
 10
8554.073379265666
 20
3236.090715532148
 30
0.0
 11
8699.523379265677
 21
3236.090715532148
 31
0.0
  0
CIRCLE
  5
15473
330
747D
100
AcDbEntity
  8
部品1
 48
50.0
100
AcDbCircle
 10
9604.523379265678
 20
3191.090715532149
 30
0.0
 40
5.0
  0
LINE
  5
15474
330
747D
100
AcDbEntity
  8
部品1
 48
50.0
100
AcDbLine
 10
9620.242927703598
 20
3186.090715532149
 30
0.0
 11
9620.242927703598
 21
3176.090715532148
 31
0.0
  0
CIRCLE
  5
15475
330
747D
100
AcDbEntity
  8
部品1
 48
50.0
100
AcDbCircle
 10
8804.523379265679
 20
3191.090715532149
 30
0.0
 40
5.0
  0
CIRCLE
  5
15476
330
747D
100
AcDbEntity
  8
部品1
 48
50.0
100
AcDbCircle
 10
9004.523379265679
 20
3191.090715532149
 30
0.0
 40
5.0
  0
CIRCLE
  5
15477
330
747D
100
AcDbEntity
  8
部品1
 48
50.0
100
AcDbCircle
 10
9204.523379265678
 20
3191.090715532149
 30
0.0
 40
5.0
  0
CIRCLE
  5
15478
330
747D
100
AcDbEntity
  8
部品1
 48
50.0
100
AcDbCircle
 10
9404.523379265679
 20
3191.090715532149
 30
0.0
 40
5.0
  0
LINE
  5
15479
330
747D
100
AcDbEntity
  8
部品1
 48
50.0
100
AcDbLine
 10
8588.803830827759
 20
3176.090715532134
 30
0.0
 11
9620.242927703598
 21
3176.090715532148
 31
0.0
  0
HATCH
  5
1547A
330
747D
100
AcDbEntity
  8
細線
 48
50.0
100
AcDbHatch
 10
0.0
 20
0.0
 30
0.0000000000013153
210
0.0
220
0.0
230
1.0
  2
PLAST
 70
     0
 71
     0
 91
        4
 92
        7
 72
     0
 73
     1
 93
        4
 10
8929.523379265679
 20
3111.090715532148
 10
8324.523379265677
 20
3111.090715532148
 10
8324.523379265677
 20
3061.090715532149
 10
8929.523379265679
 20
3061.090715532149
 97
        0
 92
        7
 72
     0
 73
     1
 93
        4
 10
9104.523379265678
 20
3111.090715532148
 10
8929.523379265679
 20
3111.090715532148
 10
8929.523379265679
 20
3061.090715532149
 10
9104.523379265678
 20
3061.090715532149
 97
        0
 92
        7
 72
     0
 73
     1
 93
        4
 10
9279.523379265679
 20
3111.090715532148
 10
9104.523379265678
 20
3111.090715532148
 10
9104.523379265678
 20
3061.090715532149
 10
9279.523379265679
 20
3061.090715532149
 97
        0
 92
        7
 72
     0
 73
     1
 93
        4
 10
9884.523379265679
 20
3111.090715532148
 10
9279.523379265679
 20
3111.090715532148
 10
9279.523379265679
 20
3061.090715532149
 10
9884.523379265679
 20
3061.090715532149
 97
        0
 75
     0
 76
     1
 52
45.0
 41
37.5
 77
     0
 78
     3
 53
45.0
 43
-263148.0681907954
 44
111471.9207977022
 45
-168.3798022700466
 46
168.3798022700466
 79
     0
 53
45.0
 43
-263169.1156660791
 44
111492.9682729859
 45
-168.3798022700466
 46
168.3798022700466
 79
     0
 53
45.0
 43
-263190.1631413629
 44
111514.0157482697
 45
-168.3798022700466
 46
168.3798022700466
 79
     0
 47
3.405378208606371
 98
        4
 10
8832.14199650753
 20
3076.40290555962
 10
8985.45378252823
 20
3086.618947489959
 10
9193.27636997326
 20
3076.40290555962
 10
9384.064035389688
 20
3079.808182957656
1001
GradientColor1ACI
1070
     5
1001
GradientColor2ACI
1070
     2
1001
ACAD
1010
0.0
1020
0.0
1030
0.0
  0
LINE
  5
1547B
330
747D
100
AcDbEntity
  8
細線
 48
50.0
100
AcDbLine
 10
8413.951309810565
 20
2961.090715532149
 30
0.0000000000013153
 11
8440.746229053649
 21
3061.090715532119
 31
0.0000000000013153
1001
GradientColor1ACI
1070
     5
1001
GradientColor2ACI
1070
     2
1001
ACAD
1010
0.0
1020
0.0
1030
0.0
  0
LINE
  5
1547C
330
747D
100
AcDbEntity
  8
細線
 48
50.0
100
AcDbLine
 10
8537.213880040681
 20
2961.090715532149
 30
0.0000000000013153
 11
8564.008799283763
 21
3061.090715532149
 31
0.0000000000013153
1001
GradientColor1ACI
1070
     5
1001
GradientColor2ACI
1070
     2
1001
ACAD
1010
0.0
1020
0.0
1030
0.0
  0
LINE
  5
1547D
330
747D
100
AcDbEntity
  8
細線
 48
50.0
100
AcDbLine
 10
8660.47645027068
 20
2961.090715532149
 30
0.0000000000013153
 11
8687.271369513821
 21
3061.090715532149
 31
0.0000000000013153
1001
GradientColor1ACI
1070
     5
1001
GradientColor2ACI
1070
     2
1001
ACAD
1010
0.0
1020
0.0
1030
0.0
  0
LINE
  5
1547E
330
747D
100
AcDbEntity
  8
細線
 48
50.0
100
AcDbLine
 10
8783.739020500796
 20
2961.090715532149
 30
0.0000000000013153
 11
8810.533939743878
 21
3061.090715532149
 31
0.0000000000013153
1001
GradientColor1ACI
1070
     5
1001
GradientColor2ACI
1070
     2
1001
ACAD
1010
0.0
1020
0.0
1030
0.0
  0
LINE
  5
1547F
330
747D
100
AcDbEntity
  8
細線
 48
50.0
100
AcDbLine
 10
8907.001590730912
 20
2961.090715532149
 30
0.0000000000013153
 11
8933.796509973994
 21
3061.090715532149
 31
0.0000000000013153
1001
GradientColor1ACI
1070
     5
1001
GradientColor2ACI
1070
     2
1001
ACAD
1010
0.0
1020
0.0
1030
0.0
  0
LINE
  5
15480
330
747D
100
AcDbEntity
  8
細線
 48
50.0
100
AcDbLine
 10
9030.264160960911
 20
2961.090715532149
 30
0.0000000000013153
 11
9057.059080204052
 21
3061.090715532149
 31
0.0000000000013153
1001
GradientColor1ACI
1070
     5
1001
GradientColor2ACI
1070
     2
1001
ACAD
1010
0.0
1020
0.0
1030
0.0
  0
LINE
  5
15481
330
747D
100
AcDbEntity
  8
細線
 48
50.0
100
AcDbLine
 10
9153.526731191027
 20
2961.090715532149
 30
0.0000000000013153
 11
9180.321650434109
 21
3061.090715532149
 31
0.0000000000013153
1001
GradientColor1ACI
1070
     5
1001
GradientColor2ACI
1070
     2
1001
ACAD
1010
0.0
1020
0.0
1030
0.0
  0
LINE
  5
15482
330
747D
100
AcDbEntity
  8
細線
 48
50.0
100
AcDbLine
 10
9276.789301421143
 20
2961.090715532149
 30
0.0000000000013153
 11
9303.584220664225
 21
3061.090715532149
 31
0.0000000000013153
1001
GradientColor1ACI
1070
     5
1001
GradientColor2ACI
1070
     2
1001
ACAD
1010
0.0
1020
0.0
1030
0.0
  0
LINE
  5
15483
330
747D
100
AcDbEntity
  8
細線
 48
50.0
100
AcDbLine
 10
9400.051871651141
 20
2961.090715532163
 30
0.0000000000013153
 11
9426.846790894282
 21
3061.090715532149
 31
0.0000000000013153
1001
GradientColor1ACI
1070
     5
1001
GradientColor2ACI
1070
     2
1001
ACAD
1010
0.0
1020
0.0
1030
0.0
  0
LINE
  5
15484
330
747D
100
AcDbEntity
  8
細線
 48
50.0
100
AcDbLine
 10
9523.314441881257
 20
2961.090715532149
 30
0.0000000000013153
 11
9550.10936112434
 21
3061.090715532163
 31
0.0000000000013153
1001
GradientColor1ACI
1070
     5
1001
GradientColor2ACI
1070
     2
1001
ACAD
1010
0.0
1020
0.0
1030
0.0
  0
LINE
  5
15485
330
747D
100
AcDbEntity
  8
細線
 48
50.0
100
AcDbLine
 10
9646.577012111315
 20
2961.090715532163
 30
0.0000000000013153
 11
9673.371931354456
 21
3061.090715532149
 31
0.0000000000013153
1001
GradientColor1ACI
1070
     5
1001
GradientColor2ACI
1070
     2
1001
ACAD
1010
0.0
1020
0.0
1030
0.0
  0
LINE
  5
15486
330
747D
100
AcDbEntity
  8
細線
 48
50.0
100
AcDbLine
 10
9769.839582341372
 20
2961.090715532149
 30
0.0000000000013153
 11
9796.634501584513
 21
3061.090715532149
 31
0.0000000000013153
1001
GradientColor1ACI
1070
     5
1001
GradientColor2ACI
1070
     2
1001
ACAD
1010
0.0
1020
0.0
1030
0.0
  0
LINE
  5
15487
330
747D
100
AcDbEntity
  8
部品1
 48
50.0
100
AcDbLine
 10
9884.523379265679
 20
3061.090715532149
 30
0.0
 11
8324.523379265677
 21
3061.090715532149
 31
0.0
  0
LINE
  5
15488
330
747D
100
AcDbEntity
  8
文字
 48
50.0
100
AcDbLine
 10
9522.113005439866
 20
2047.902843360368
 30
0.0
 11
9522.113005439866
 21
1824.777843360368
 31
0.0
  0
LINE
  5
15489
330
747D
100
AcDbEntity
  8
文字
 48
50.0
100
AcDbLine
 10
8686.933753091491
 20
2047.902843360368
 30
0.0
 11
8686.933753091491
 21
1824.777843360368
 31
0.0
  0
TEXT
  5
1548A
330
747D
100
AcDbEntity
  8
文字
 62
     7
 48
50.0
100
AcDbText
 10
8753.51856050419
 20
1882.261384333732
 30
0.0
 40
112.5
  1
A-A' 断面
  7
STYLE2
100
AcDbText
  0
LINE
  5
1548B
330
747D
100
AcDbEntity
  8
文字
 48
50.0
100
AcDbLine
 10
8686.933753091491
 20
1824.777843360368
 30
0.0
 11
9522.113005439866
 21
1824.777843360368
 31
0.0
  0
LINE
  5
1548C
330
747D
100
AcDbEntity
  8
文字
 48
50.0
100
AcDbLine
 10
8686.933753091491
 20
2047.902843360368
 30
0.0
 11
9522.113005439866
 21
2047.902843360368
 31
0.0
  0
LINE
  5
1548D
330
747D
100
AcDbEntity
  8
部品1
 48
50.0
100
AcDbLine
 10
8974.073379265666
 20
3111.090715532148
 30
0.0
 11
8884.973379265691
 21
3111.090715532148
 31
0.0
  0
LINE
  5
1548E
330
747D
100
AcDbEntity
  8
細線
 48
50.0
100
AcDbLine
 10
7958.407974118888
 20
3561.090715532178
 30
0.0000000000013153
 11
7985.202893361972
 21
3661.090715532163
 31
0.0000000000013153
1001
GradientColor1ACI
1070
     5
1001
GradientColor2ACI
1070
     2
1001
ACAD
1010
0.0
1020
0.0
1030
0.0
  0
LINE
  5
1548F
330
747D
100
AcDbEntity
  8
細線
 48
50.0
100
AcDbLine
 10
8081.670544348947
 20
3561.090715532192
 30
0.0000000000013153
 11
8108.465463592029
 21
3661.090715532149
 31
0.0000000000013153
1001
GradientColor1ACI
1070
     5
1001
GradientColor2ACI
1070
     2
1001
ACAD
1010
0.0
1020
0.0
1030
0.0
  0
LINE
  5
15490
330
747D
100
AcDbEntity
  8
細線
 48
50.0
100
AcDbLine
 10
8204.933114579004
 20
3561.090715532178
 30
0.0000000000013153
 11
8231.728033822145
 21
3661.090715532149
 31
0.0000000000013153
1001
GradientColor1ACI
1070
     5
1001
GradientColor2ACI
1070
     2
1001
ACAD
1010
0.0
1020
0.0
1030
0.0
  0
LINE
  5
15491
330
747D
100
AcDbEntity
  8
細線
 48
50.0
100
AcDbLine
 10
8328.19568480912
 20
3561.090715532163
 30
0.0000000000013153
 11
8354.990604052202
 21
3661.090715532149
 31
0.0000000000013153
1001
GradientColor1ACI
1070
     5
1001
GradientColor2ACI
1070
     2
1001
ACAD
1010
0.0
1020
0.0
1030
0.0
  0
LINE
  5
15492
330
747D
100
AcDbEntity
  8
細線
 48
50.0
100
AcDbLine
 10
9807.346527569984
 20
3561.090715532119
 30
0.0000000000013153
 11
9834.141446813125
 21
3661.090715532149
 31
0.0000000000013153
1001
GradientColor1ACI
1070
     5
1001
GradientColor2ACI
1070
     2
1001
ACAD
1010
0.0
1020
0.0
1030
0.0
  0
LINE
  5
15493
330
747D
100
AcDbEntity
  8
細線
 48
50.0
100
AcDbLine
 10
9930.609097800042
 20
3561.090715532163
 30
0.0000000000013153
 11
9957.404017043181
 21
3661.090715532149
 31
0.0000000000013153
1001
GradientColor1ACI
1070
     5
1001
GradientColor2ACI
1070
     2
1001
ACAD
1010
0.0
1020
0.0
1030
0.0
  0
LINE
  5
15494
330
747D
100
AcDbEntity
  8
細線
 48
50.0
100
AcDbLine
 10
10053.87166803015
 20
3561.090715532178
 30
0.0000000000013153
 11
10080.66658727324
 21
3661.090715532149
 31
0.0000000000013153
1001
GradientColor1ACI
1070
     5
1001
GradientColor2ACI
1070
     2
1001
ACAD
1010
0.0
1020
0.0
1030
0.0
  0
LINE
  5
15495
330
747D
100
AcDbEntity
  8
細線
 48
50.0
100
AcDbLine
 10
10177.13423826021
 20
3561.090715532163
 30
0.0000000000013153
 11
10203.92915750335
 21
3661.090715532149
 31
0.0000000000013153
1001
GradientColor1ACI
1070
     5
1001
GradientColor2ACI
1070
     2
1001
ACAD
1010
0.0
1020
0.0
1030
0.0
  0
LINE
  5
15496
330
747D
100
AcDbEntity
  8
細線
 48
50.0
100
AcDbLine
 10
10300.39680849027
 20
3561.090715532178
 30
0.0000000000013153
 11
10304.52337926567
 21
3576.491287327082
 31
0.0000000000013153
1001
GradientColor1ACI
1070
     5
1001
GradientColor2ACI
1070
     2
1001
ACAD
1010
0.0
1020
0.0
1030
0.0
  0
LINE
  5
15497
330
747D
100
AcDbEntity
  8
部品1
 48
50.0
100
AcDbLine
 10
9804.523379265679
 20
3111.090715532148
 30
0.0
 11
9804.523379265679
 21
3661.090715532149
 31
0.0
  0
LINE
  5
15498
330
747D
100
AcDbEntity
  8
部品1
 48
50.0
100
AcDbLine
 10
8404.523379265679
 20
3661.090715532149
 30
0.0
 11
8404.523379265679
 21
3111.090715532148
 31
0.0
  0
LINE
  5
15499
330
747D
100
AcDbEntity
  8
部品1
 48
50.0
100
AcDbLine
 10
9884.523379265679
 20
3111.090715532148
 30
0.0
 11
8324.523379265677
 21
3111.090715532148
 31
0.0
  0
LINE
  5
1549A
330
747D
100
AcDbEntity
  8
部品1
 48
50.0
100
AcDbLine
 10
9206.97337926569
 20
3761.090715532134
 30
0.0
 11
9002.073379265667
 21
3761.090715532148
 31
0.0
  0
LINE
  5
1549B
330
747D
100
AcDbEntity
  8
部品1
 48
50.0
100
AcDbLine
 10
10304.52337926567
 20
3561.090715532178
 30
0.0
 11
7904.523379265679
 21
3561.090715532178
 31
0.0
  0
LINE
  5
1549C
330
747D
100
AcDbEntity
  8
部品1
 48
50.0
100
AcDbLine
 10
9884.523379265679
 20
2961.090715532149
 30
0.0
 11
8324.523379265677
 21
2961.090715532149
 31
0.0
  0
LINE
  5
1549D
330
747D
100
AcDbEntity
  8
部品1
 48
50.0
100
AcDbLine
 10
8870.97337926569
 20
3775.090715532149
 30
0.0
 11
8856.97337926569
 21
3761.090715532148
 31
0.0
  0
LINE
  5
1549E
330
747D
100
AcDbEntity
  8
部品1
 48
50.0
100
AcDbLine
 10
8870.97337926569
 20
3775.090715532149
 30
0.0
 11
8884.973379265691
 21
3775.090715532149
 31
0.0
  0
LINE
  5
1549F
330
747D
100
AcDbEntity
  8
部品1
 48
50.0
100
AcDbLine
 10
8974.073379265666
 20
3775.090715532149
 30
0.0
 11
8988.073379265667
 21
3775.090715532149
 31
0.0
  0
LINE
  5
154A0
330
747D
100
AcDbEntity
  8
部品1
 48
50.0
100
AcDbLine
 10
8988.073379265726
 20
3775.090715532149
 30
0.0
 11
9002.073379265667
 21
3761.090715532148
 31
0.0
  0
LINE
  5
154A1
330
747D
100
AcDbEntity
  8
部品1
 48
50.0
100
AcDbLine
 10
8856.97337926569
 20
3761.090715532148
 30
0.0
 11
7904.52337926562
 21
3761.090715532148
 31
0.0
  0
LINE
  5
154A2
330
747D
100
AcDbEntity
  8
部品1
 48
50.0
100
AcDbLine
 10
8404.523379265679
 20
3661.090715532149
 30
0.0
 11
7904.523379265679
 21
3661.090715532149
 31
0.0
  0
LINE
  5
154A3
330
747D
100
AcDbEntity
  8
部品1
 48
50.0
100
AcDbLine
 10
9884.523379265679
 20
3111.090715532148
 30
0.0
 11
9884.523379265679
 21
2961.090715532149
 31
0.0
  0
LINE
  5
154A4
330
747D
100
AcDbEntity
  8
部品1
 48
50.0
100
AcDbLine
 10
8324.523379265677
 20
3111.090715532148
 30
0.0
 11
8324.523379265677
 21
2961.090715532149
 31
0.0
  0
LINE
  5
154A5
330
747D
100
AcDbEntity
  8
Ｇ．Ｌ
 48
50.0
100
AcDbLine
 10
10304.52337926567
 20
3711.090715532149
 30
0.0
 11
11358.63732977048
 21
3711.090715532149
 31
0.0
  0
MTEXT
  5
154A6
330
747D
100
AcDbEntity
  8
寸法
 62
     7
 48
50.0
100
AcDbMText
 10
10825.44397108023
 20
3763.36344280487
 30
0.0
 40
100.0
 41
1.0
 71
     4
 72
     1
  1
▽G.L
  7
STYLE2
 73
     1
 44
1.0
1001
ACAD
1000
MTEXTBEGIN
1070
    73
1070
     1
1070
    44
1040
1.0
1070
    74
1070
     0
1000
MTEXTEND
  0
LINE
  5
154A7
330
747D
100
AcDbEntity
  8
部品1
 48
50.0
100
AcDbLine
 10
9220.973379265691
 20
3775.090715532149
 30
0.0
 11
9206.97337926569
 21
3761.090715532148
 31
0.0
  0
LINE
  5
154A8
330
747D
100
AcDbEntity
  8
部品1
 48
50.0
100
AcDbLine
 10
9338.073379265726
 20
3775.090715532149
 30
0.0
 11
9352.073379265666
 21
3761.090715532148
 31
0.0
  0
LINE
  5
154A9
330
747D
100
AcDbEntity
  8
部品1
 48
50.0
100
AcDbLine
 10
9804.523379265738
 20
3661.090715532149
 30
0.0
 11
10304.52337926567
 21
3661.090715532149
 31
0.0
  0
LINE
  5
154AA
330
747D
100
AcDbEntity
  8
部品1
 48
50.0
100
AcDbLine
 10
9324.073379265668
 20
3775.090715532149
 30
0.0
 11
9338.073379265667
 21
3775.090715532149
 31
0.0
  0
LINE
  5
154AB
330
747D
100
AcDbEntity
  8
部品1
 48
50.0
100
AcDbLine
 10
9220.973379265691
 20
3775.090715532149
 30
0.0
 11
9234.97337926569
 21
3775.090715532149
 31
0.0
  0
LINE
  5
154AC
330
747D
100
AcDbEntity
  8
部品1
 48
50.0
100
AcDbLine
 10
9352.073379265666
 20
3761.090715532148
 30
0.0
 11
10304.52337926573
 21
3761.090715532148
 31
0.0
  0
LINE
  5
154AD
330
747D
100
AcDbEntity
  8
部品1
 48
50.0
100
AcDbLine
 10
8588.803830827759
 20
3186.090715532149
 30
0.0
 11
8588.803830827759
 21
3176.090715532148
 31
0.0
  0
CIRCLE
  5
154AE
330
747D
100
AcDbEntity
  8
部品1
 48
50.0
100
AcDbCircle
 10
8604.523379265678
 20
3191.090715532149
 30
0.0
 40
5.0
  0
LINE
  5
154AF
330
747D
100
AcDbEntity
  8
細線
 48
50.0
100
AcDbLine
 10
8920.399050352454
 20
2961.090715532149
 30
0.0
 11
8913.700320541682
 21
2986.090715532148
 31
0.0
  0
LINE
  5
154B0
330
747D
100
AcDbEntity
  8
細線
 48
50.0
100
AcDbLine
 10
8927.097780163224
 20
3036.090715532149
 30
0.0
 11
8920.399050352454
 21
3061.090715532149
 31
0.0
  0
LINE
  5
154B1
330
747D
100
AcDbEntity
  8
細線
 48
50.0
100
AcDbLine
 10
9043.661620582509
 20
2961.090715532149
 30
0.0
 11
9036.962890771739
 21
2986.090715532148
 31
0.0
  0
LINE
  5
154B2
330
747D
100
AcDbEntity
  8
細線
 48
50.0
100
AcDbLine
 10
9050.360350393281
 20
3036.090715532149
 30
0.0
 11
9043.661620582509
 21
3061.090715532149
 31
0.0
  0
LINE
  5
154B3
330
747D
100
AcDbEntity
  8
細線
 48
50.0
100
AcDbLine
 10
9166.924190812569
 20
2961.090715532149
 30
0.0
 11
9160.225461001799
 21
2986.090715532148
 31
0.0
  0
LINE
  5
154B4
330
747D
100
AcDbEntity
  8
細線
 48
50.0
100
AcDbLine
 10
9173.622920623339
 20
3036.090715532149
 30
0.0
 11
9166.924190812569
 21
3061.090715532149
 31
0.0
  0
LINE
  5
154B5
330
747D
100
AcDbEntity
  8
細線
 48
50.0
100
AcDbLine
 10
9290.186761042683
 20
2961.090715532149
 30
0.0
 11
9283.488031231913
 21
2986.090715532148
 31
0.0
  0
LINE
  5
154B6
330
747D
100
AcDbEntity
  8
細線
 48
50.0
100
AcDbLine
 10
9296.885490853453
 20
3036.090715532149
 30
0.0
 11
9290.186761042683
 21
3061.090715532149
 31
0.0
  0
LINE
  5
154B7
330
747D
100
AcDbEntity
  8
細線
 48
50.0
100
AcDbLine
 10
9413.449331272742
 20
2961.090715532149
 30
0.0
 11
9406.75060146197
 21
2986.090715532148
 31
0.0
  0
LINE
  5
154B8
330
747D
100
AcDbEntity
  8
細線
 48
50.0
100
AcDbLine
 10
9420.148061083512
 20
3036.090715532149
 30
0.0
 11
9413.449331272742
 21
3061.090715532149
 31
0.0
  0
LINE
  5
154B9
330
747D
100
AcDbEntity
  8
細線
 48
50.0
100
AcDbLine
 10
9536.711901502798
 20
2961.090715532149
 30
-0.0000000000013153
 11
9530.013171692027
 21
2986.090715532148
 31
-0.0000000000013153
  0
LINE
  5
154BA
330
747D
100
AcDbEntity
  8
細線
 48
50.0
100
AcDbLine
 10
9543.410631313568
 20
3036.090715532149
 30
-0.0000000000013153
 11
9536.711901502798
 21
3061.090715532149
 31
-0.0000000000013153
  0
LINE
  5
154BB
330
747D
100
AcDbEntity
  8
細線
 48
50.0
100
AcDbLine
 10
9659.974471732915
 20
2961.090715532149
 30
0.0
 11
9653.275741922143
 21
2986.090715532148
 31
0.0
  0
LINE
  5
154BC
330
747D
100
AcDbEntity
  8
細線
 48
50.0
100
AcDbLine
 10
9666.673201543686
 20
3036.090715532149
 30
0.0
 11
9659.974471732915
 21
3061.090715532149
 31
0.0
  0
LINE
  5
154BD
330
747D
100
AcDbEntity
  8
細線
 48
50.0
100
AcDbLine
 10
9783.237041962971
 20
2961.090715532149
 30
0.0
 11
9776.538312152201
 21
2986.090715532148
 31
0.0
  0
LINE
  5
154BE
330
747D
100
AcDbEntity
  8
細線
 48
50.0
100
AcDbLine
 10
9789.935771773741
 20
3036.090715532149
 30
0.0
 11
9783.237041962971
 21
3061.090715532149
 31
0.0
  0
LINE
  5
154BF
330
747D
100
AcDbEntity
  8
細線
 48
50.0
100
AcDbLine
 10
7971.80543374043
 20
3561.090715532178
 30
-0.0000000000013153
 11
7965.106703929659
 21
3586.090715532178
 31
-0.0000000000013153
  0
LINE
  5
154C0
330
747D
100
AcDbEntity
  8
細線
 48
50.0
100
AcDbLine
 10
7978.5041635512
 20
3636.090715532178
 30
-0.0000000000013153
 11
7971.80543374043
 21
3661.090715532178
 31
-0.0000000000013153
  0
LINE
  5
154C1
330
747D
100
AcDbEntity
  8
細線
 48
50.0
100
AcDbLine
 10
8095.068003970487
 20
3561.090715532163
 30
-0.0000000000013153
 11
8088.369274159717
 21
3586.090715532163
 31
-0.0000000000013153
  0
LINE
  5
154C2
330
747D
100
AcDbEntity
  8
細線
 48
50.0
100
AcDbLine
 10
8101.766733781259
 20
3636.090715532163
 30
-0.0000000000013153
 11
8095.068003970487
 21
3661.090715532163
 31
-0.0000000000013153
  0
LINE
  5
154C3
330
747D
100
AcDbEntity
  8
細線
 48
50.0
100
AcDbLine
 10
8218.330574200603
 20
3561.090715532163
 30
-0.0000000000013153
 11
8211.631844389833
 21
3586.090715532163
 31
-0.0000000000013153
  0
LINE
  5
154C4
330
747D
100
AcDbEntity
  8
細線
 48
50.0
100
AcDbLine
 10
8225.029304011375
 20
3636.090715532163
 30
-0.0000000000013153
 11
8218.330574200603
 21
3661.090715532163
 31
-0.0000000000013153
  0
LINE
  5
154C5
330
747D
100
AcDbEntity
  8
細線
 48
50.0
100
AcDbLine
 10
8341.59314443066
 20
3561.090715532163
 30
-0.0000000000013153
 11
8334.89441461989
 21
3586.090715532163
 31
-0.0000000000013153
  0
LINE
  5
154C6
330
747D
100
AcDbEntity
  8
細線
 48
50.0
100
AcDbLine
 10
8348.29187424143
 20
3636.090715532163
 30
-0.0000000000013153
 11
8341.59314443066
 21
3661.090715532163
 31
-0.0000000000013153
  0
LINE
  5
154C7
330
747D
100
AcDbEntity
  8
細線
 48
50.0
100
AcDbLine
 10
9820.743987191583
 20
3561.090715532163
 30
-0.0000000000013153
 11
9814.045257380813
 21
3586.090715532163
 31
-0.0000000000013153
  0
LINE
  5
154C8
330
747D
100
AcDbEntity
  8
細線
 48
50.0
100
AcDbLine
 10
9827.442717002355
 20
3636.090715532163
 30
-0.0000000000013153
 11
9820.743987191583
 21
3661.090715532163
 31
-0.0000000000013153
  0
LINE
  5
154C9
330
747D
100
AcDbEntity
  8
細線
 48
50.0
100
AcDbLine
 10
9944.006557421641
 20
3561.090715532163
 30
-0.0000000000013153
 11
9937.307827610871
 21
3586.090715532163
 31
-0.0000000000013153
  0
LINE
  5
154CA
330
747D
100
AcDbEntity
  8
細線
 48
50.0
100
AcDbLine
 10
9950.705287232411
 20
3636.090715532163
 30
-0.0000000000013153
 11
9944.006557421641
 21
3661.090715532163
 31
-0.0000000000013153
  0
LINE
  5
154CB
330
747D
100
AcDbEntity
  8
細線
 48
50.0
100
AcDbLine
 10
10067.2691276517
 20
3561.090715532163
 30
-0.0000000000013153
 11
10060.57039784093
 21
3586.090715532163
 31
-0.0000000000013153
  0
LINE
  5
154CC
330
747D
100
AcDbEntity
  8
細線
 48
50.0
100
AcDbLine
 10
10073.96785746247
 20
3636.090715532163
 30
-0.0000000000013153
 11
10067.2691276517
 21
3661.090715532163
 31
-0.0000000000013153
  0
LINE
  5
154CD
330
747D
100
AcDbEntity
  8
細線
 48
50.0
100
AcDbLine
 10
10190.53169788181
 20
3561.090715532163
 30
-0.0000000000013153
 11
10183.83296807104
 21
3586.090715532163
 31
-0.0000000000013153
  0
LINE
  5
154CE
330
747D
100
AcDbEntity
  8
細線
 48
50.0
100
AcDbLine
 10
10197.23042769258
 20
3636.090715532163
 30
-0.0000000000013153
 11
10190.53169788181
 21
3661.090715532163
 31
-0.0000000000013153
  0
MTEXT
  5
154CF
330
747D
100
AcDbEntity
  8
寸法
 62
     7
 48
50.0
100
AcDbMText
 10
10301.98023098951
 20
3813.363442804869
 30
0.0
 40
100.0
 41
1.0
 71
     5
 72
     1
  1
▽Ｆ.L
  7
STYLE2
 73
     1
 44
1.0
1001
ACAD
1000
MTEXTBEGIN
1070
    73
1070
     1
1070
    44
1040
1.0
1070
    74
1070
     0
1000
MTEXTEND
  0
LINE
  5
154D0
330
747D
100
AcDbEntity
  8
寸法
 48
50.0
100
AcDbLine
 10
8137.844103141512
 20
3835.698131734317
 30
0.0
 11
8206.495321006629
 21
3854.093170120687
 31
0.0
  0
LINE
  5
154D1
330
747D
100
AcDbEntity
  8
寸法
 48
50.0
100
AcDbLine
 10
8137.844103141512
 20
3835.698131734317
 30
0.0
 11
8767.096598729315
 21
3835.698131734317
 31
0.0
  0
LINE
  5
154D2
330
747D
100
AcDbEntity
  8
寸法
 48
50.0
100
AcDbLine
 10
8137.844103141512
 20
3835.698131734317
 30
0.0
 11
8206.495321006629
 21
3817.303093347933
 31
0.0
  0
TEXT
  5
154D3
330
747D
100
AcDbEntity
  8
寸法
 62
     7
 48
50.0
100
AcDbText
 10
8236.077544141151
 20
4021.085167376297
 30
0.0
 40
90.0
  1
水勾配
 41
0.8
  7
STYLE1
100
AcDbText
  0
TEXT
  5
154D4
330
747D
100
AcDbEntity
  8
寸法
 62
     7
 48
50.0
100
AcDbText
 10
8202.814051169784
 20
3872.746655254204
 30
0.0
 40
90.0
  1
１／１００
 41
0.8
  7
STYLE1
100
AcDbText
  0
LINE
  5
154D5
330
747D
100
AcDbEntity
  8
寸法
 48
50.0
100
AcDbLine
 10
10071.20265538984
 20
3835.698131734317
 30
0.0
 11
10002.55143752472
 21
3854.093170120687
 31
0.0
  0
LINE
  5
154D6
330
747D
100
AcDbEntity
  8
寸法
 48
50.0
100
AcDbLine
 10
10071.20265538984
 20
3835.698131734317
 30
0.0
 11
9441.950159802042
 21
3835.698131734317
 31
0.0
  0
LINE
  5
154D7
330
747D
100
AcDbEntity
  8
寸法
 48
50.0
100
AcDbLine
 10
10071.20265538984
 20
3835.698131734317
 30
0.0
 11
10002.55143752472
 21
3817.303093347933
 31
0.0
  0
TEXT
  5
154D8
330
747D
100
AcDbEntity
  8
寸法
 62
     7
 48
50.0
100
AcDbText
 10
9540.183600801681
 20
4021.085167376297
 30
0.0
 40
90.0
  1
水勾配
 41
0.8
  7
STYLE1
100
AcDbText
  0
TEXT
  5
154D9
330
747D
100
AcDbEntity
  8
寸法
 62
     7
 48
50.0
100
AcDbText
 10
9506.920107830314
 20
3872.746655254204
 30
0.0
 40
90.0
  1
１／１００
 41
0.8
  7
STYLE1
100
AcDbText
  0
DIMENSION
  5
154DA
330
747D
100
AcDbEntity
  8
寸法
 48
50.0
100
AcDbDimension
  2
*D23
 10
7753.942252163716
 20
3761.090715532148
 30
0.0
 11
7753.942252163715
 21
3938.126148603057
 31
0.0
 70
   160
 71
     5
 42
100.0
  3
INABA_S30G
100
AcDbAlignedDimension
 13
7904.52337926562
 23
3661.090715532149
 33
0.0
 14
7904.52337926562
 24
3761.090715532148
 34
0.0
 50
90.0
100
AcDbRotatedDimension
  0
DIMENSION
  5
154DB
330
747D
100
AcDbEntity
  8
寸法
 48
50.0
100
AcDbDimension
  2
*D24
 10
7753.942252163716
 20
3561.090715532149
 30
0.0
 11
7753.942252163715
 21
3384.055282461284
 31
0.0
 70
   160
 71
     5
 42
100.0
  3
INABA_S30G
100
AcDbAlignedDimension
 13
7904.52337926562
 23
3661.090715532149
 33
0.0
 14
7904.52337926562
 24
3561.090715532149
 34
0.0
 50
90.0
100
AcDbRotatedDimension
  0
DIMENSION
  5
154DC
330
747D
100
AcDbEntity
  8
寸法
 48
50.0
100
AcDbDimension
  2
*D25
 10
8929.523379265679
 20
2669.474085888114
 30
0.0
 11
8667.023379265678
 21
2744.48294415583
 31
0.0
 70
    32
 71
     5
 42
525.0
  3
INABA_S30G
100
AcDbAlignedDimension
 13
8404.523379265679
 23
3111.090715532148
 33
0.0
 14
8929.523379265679
 24
3050.032883702269
 34
0.0
100
AcDbRotatedDimension
  0
DIMENSION
  5
154DD
330
747D
100
AcDbEntity
  8
寸法
 48
50.0
100
AcDbDimension
  2
*D26
 10
8404.523379265679
 20
2439.388524799361
 30
0.0
 11
9104.523379265678
 21
2514.388524799362
 31
0.0
 70
    32
 71
     5
 42
1400.0
  3
INABA_S30G
100
AcDbAlignedDimension
 13
9804.523379265679
 23
3111.090715532148
 33
0.0
 14
8404.523379265679
 24
3111.090715532148
 34
0.0
100
AcDbRotatedDimension
  0
DIMENSION
  5
154DE
330
747D
100
AcDbEntity
  8
寸法
 48
50.0
100
AcDbDimension
  2
*D27
 10
9279.523379265679
 20
2669.474085888114
 30
0.0
 11
9104.523379265678
 21
2744.474085888113
 31
0.0
 70
    32
 71
     5
 42
350.0
  3
INABA_S30G
100
AcDbAlignedDimension
 13
8929.523379265679
 23
3050.032883702269
 33
0.0
 14
9279.523379265679
 24
3050.032883702269
 34
0.0
100
AcDbRotatedDimension
  0
DIMENSION
  5
154DF
330
747D
100
AcDbEntity
  8
寸法
 48
50.0
100
AcDbDimension
  2
*D28
 10
9279.523379265679
 20
2669.474085888114
 30
0.0
 11
9542.023379265678
 21
2744.48294415583
 31
0.0
 70
    32
 71
     5
 42
525.0
  3
INABA_S30G
100
AcDbAlignedDimension
 13
9804.523379265679
 23
3111.090715532148
 33
0.0
 14
9279.523379265679
 24
3050.032883702269
 34
0.0
 50
180.0
100
AcDbRotatedDimension
  0
DIMENSION
  5
154E0
330
747D
100
AcDbEntity
  8
寸法
 48
50.0
100
AcDbDimension
  2
*D29
 10
10596.96474386641
 20
3111.090715532148
 30
0.0
 11
10521.96474386641
 21
3411.09071553215
 31
0.0
 70
    32
 71
     5
 42
600.0
  3
INABA_S30G
100
AcDbAlignedDimension
 13
10369.32125682919
 23
3711.090715532149
 33
0.0
 14
9884.523379265679
 24
3111.090715532148
 34
0.0
 50
90.0
100
AcDbRotatedDimension
  0
DIMENSION
  5
154E1
330
747D
100
AcDbEntity
  8
寸法
 48
50.0
100
AcDbDimension
  2
*D30
 10
10596.96474386641
 20
3761.090715532148
 30
0.0
 11
10596.96474386641
 21
3990.626148603057
 31
0.0
 70
   160
 71
     5
 42
50.0
  3
INABA_S30G
100
AcDbAlignedDimension
 13
10304.52337926567
 23
3711.090715532149
 33
0.0
 14
10304.52337926573
 24
3761.090715532148
 34
0.0
 50
90.0
100
AcDbRotatedDimension
  0
DIMENSION
  5
154E2
330
747D
100
AcDbEntity
  8
寸法
 48
50.0
100
AcDbDimension
  2
*D31
 10
10596.96474386641
 20
3061.090715532149
 30
0.0
 11
10596.96474386641
 21
2831.555282461284
 31
0.0
 70
   160
 71
     5
 42
50.0
  3
INABA_S30G
100
AcDbAlignedDimension
 13
9884.523379265679
 23
3111.090715532148
 33
0.0
 14
9884.523379265679
 24
3061.090715532149
 34
0.0
 50
90.0
100
AcDbRotatedDimension
  0
TEXT
  5
154E3
330
747D
100
AcDbEntity
  8
寸法
 62
     7
 48
50.0
100
AcDbText
 10
9891.309352309907
 20
3260.145127967132
 30
0.0
 40
90.0
  1
主筋4-D13
  7
STYLE1
100
AcDbText
  0
LINE
  5
154E4
330
747D
100
AcDbEntity
  8
寸法
 48
50.0
100
AcDbLine
 10
9853.563986227729
 20
3235.138270414741
 30
0.0
 11
10473.77844169491
 21
3235.138270414741
 31
0.0
  0
LINE
  5
154E5
330
747D
100
AcDbEntity
  8
寸法
 48
50.0
100
AcDbLine
 10
9853.563986227729
 20
3235.138270414741
 30
0.0
 11
9479.523379265678
 21
3451.090715532148
 31
0.0
  0
LWPOLYLINE
  5
154E6
330
747D
100
AcDbEntity
  8
寸法
 48
5.0
100
AcDbPolyline
 90
        3
 70
     0
 43
0.0
 10
8604.523379265678
 20
3191.090715532149
 10
8208.87243483
 20
2795.439771096514
 10
7291.362879685066
 20
2795.439771096514
1001
ACAD
1000
DSTYLE
1002
{
1070
   341
1005
0
1002
}
  0
TEXT
  5
154E7
330
747D
100
AcDbEntity
  8
寸法
 62
     7
100
AcDbText
 10
7296.499317488398
 20
2815.960776094872
 30
-0.0000000000026306
 40
90.0
  1
4-D10X6-D10以上
  7
STYLE1
100
AcDbText
  0
TEXT
  5
154E8
330
747D
100
AcDbEntity
  8
寸法
 62
     7
100
AcDbText
 10
7296.499317488398
 20
2930.4336968195
 30
-0.0000000000026306
 40
90.0
  1
ベース筋
  7
STYLE1
100
AcDbText
  0
LINE
  5
154E9
330
747D
100
AcDbEntity
  8
寸法
 48
50.0
100
AcDbLine
 10
8775.252066355953
 20
3301.090715532148
 30
0.0
 11
8061.008557952822
 21
2586.847207129017
 31
0.0
  0
LINE
  5
154EA
330
747D
100
AcDbEntity
  8
寸法
 48
50.0
100
AcDbLine
 10
8061.008557952822
 20
2586.847207129017
 30
0.0
 11
7370.61457925214
 21
2586.847207129017
 31
0.0
  0
TEXT
  5
154EB
330
747D
100
AcDbEntity
  8
寸法
 62
     7
 48
50.0
100
AcDbText
 10
7389.06716661673
 20
2601.92312495687
 30
0.0
 40
90.0
  1
帯筋D10＠100
  7
STYLE1
100
AcDbText
  0
ARC
  5
154EC
330
747D
100
AcDbEntity
  8
部品1
 48
50.0
100
AcDbCircle
 10
8929.523379265679
 20
3542.870714261503
 30
0.0
 40
48.22000127066345
100
AcDbArc
 50
22.20066484155625
 51
157.7993351584438
  0
LINE
  5
154ED
330
747D
100
AcDbEntity
  8
部品1
100
AcDbLine
 10
9060.52337926568
 20
3312.090715532149
 30
0.0
 11
9079.523379265678
 21
3312.090715532149
 31
0.0
  0
LINE
  5
154EE
330
747D
100
AcDbEntity
  8
部品1
100
AcDbLine
 10
9060.52337926568
 20
3300.090715532149
 30
0.0
 11
9079.523379265678
 21
3300.090715532149
 31
0.0
  0
LINE
  5
154EF
330
747D
100
AcDbEntity
  8
部品1
100
AcDbLine
 10
9079.523379265678
 20
3312.090715532149
 30
0.0
 11
9079.523379265678
 21
3300.090715532149
 31
0.0
  0
ARC
  5
154F0
330
747D
100
AcDbEntity
  8
部品1
100
AcDbCircle
 10
9060.52337926568
 20
3337.090715532148
 30
0.0
 40
25.0
100
AcDbArc
 50
180.0
 51
270.0
  0
ARC
  5
154F1
330
747D
100
AcDbEntity
  8
部品1
100
AcDbCircle
 10
9060.52337926568
 20
3337.090715532148
 30
0.0
 40
37.0
100
AcDbArc
 50
180.0
 51
270.0
  0
LINE
  5
154F2
330
747D
100
AcDbEntity
  8
部品1
100
AcDbLine
 10
9023.523379265679
 20
3591.090715532148
 30
0.0
 11
9023.523379265679
 21
3337.090715532148
 31
0.0
  0
LINE
  5
154F3
330
747D
100
AcDbEntity
  8
部品1
100
AcDbLine
 10
9035.523379265679
 20
3621.090715532149
 30
0.0
 11
9023.523379265679
 21
3621.090715532149
 31
0.0
  0
LINE
  5
154F4
330
747D
100
AcDbEntity
  8
部品1
100
AcDbLine
 10
9035.523379265679
 20
3621.090715532149
 30
0.0
 11
9035.523379265679
 21
3613.090715532149
 31
0.0
  0
LINE
  5
154F5
330
747D
100
AcDbEntity
  8
部品1
100
AcDbLine
 10
9023.523379265679
 20
3621.090715532149
 30
0.0
 11
9023.523379265679
 21
3613.090715532149
 31
0.0
  0
LINE
  5
154F6
330
747D
100
AcDbEntity
  8
部品1
100
AcDbLine
 10
9040.493034380311
 20
3613.090715532149
 30
0.0
 11
9018.553724151102
 21
3613.090715532149
 31
0.0
  0
LINE
  5
154F7
330
747D
100
AcDbEntity
  8
部品1
100
AcDbLine
 10
9018.553724151102
 20
3603.090715532149
 30
0.0
 11
9018.553724151102
 21
3613.090715532149
 31
0.0
  0
LINE
  5
154F8
330
747D
100
AcDbEntity
  8
部品1
100
AcDbLine
 10
9024.038551708391
 20
3603.090715532149
 30
0.0
 11
9024.038551708391
 21
3613.090715532149
 31
0.0
  0
LINE
  5
154F9
330
747D
100
AcDbEntity
  8
部品1
100
AcDbLine
 10
9035.008206822965
 20
3603.090715532149
 30
0.0
 11
9035.008206822965
 21
3613.090715532149
 31
0.0
  0
LINE
  5
154FA
330
747D
100
AcDbEntity
  8
部品1
100
AcDbLine
 10
9040.493034380311
 20
3603.090715532149
 30
0.0
 11
9040.493034380311
 21
3613.090715532149
 31
0.0
  0
LINE
  5
154FB
330
747D
100
AcDbEntity
  8
部品1
100
AcDbLine
 10
9040.493034380311
 20
3603.090715532149
 30
0.0
 11
9018.553724151102
 21
3603.090715532149
 31
0.0
  0
LINE
  5
154FC
330
747D
100
AcDbEntity
  8
部品1
100
AcDbLine
 10
9035.523379265679
 20
3591.090715532148
 30
0.0
 11
9035.523379265679
 21
3337.090715532148
 31
0.0
  0
LINE
  5
154FD
330
747D
100
AcDbEntity
  8
部品1
100
AcDbLine
 10
8835.523379265678
 20
3591.090715532148
 30
0.0
 11
8835.523379265678
 21
3337.090715532148
 31
0.0
  0
LINE
  5
154FE
330
747D
100
AcDbEntity
  8
部品1
100
AcDbLine
 10
8823.523379265678
 20
3591.090715532148
 30
0.0
 11
8823.523379265678
 21
3337.090715532148
 31
0.0
  0
LINE
  5
154FF
330
747D
100
AcDbEntity
  8
部品1
100
AcDbLine
 10
8818.553724151103
 20
3603.090715532149
 30
0.0
 11
8840.493034380312
 21
3603.090715532149
 31
0.0
  0
LINE
  5
15500
330
747D
100
AcDbEntity
  8
部品1
100
AcDbLine
 10
8818.553724151103
 20
3603.090715532149
 30
0.0
 11
8818.553724151103
 21
3613.090715532149
 31
0.0
  0
LINE
  5
15501
330
747D
100
AcDbEntity
  8
部品1
100
AcDbLine
 10
8824.03855170839
 20
3603.090715532149
 30
0.0
 11
8824.03855170839
 21
3613.090715532149
 31
0.0
  0
LINE
  5
15502
330
747D
100
AcDbEntity
  8
部品1
100
AcDbLine
 10
8835.008206822966
 20
3603.090715532149
 30
0.0
 11
8835.008206822966
 21
3613.090715532149
 31
0.0
  0
LINE
  5
15503
330
747D
100
AcDbEntity
  8
部品1
100
AcDbLine
 10
8840.493034380312
 20
3603.090715532149
 30
0.0
 11
8840.493034380312
 21
3613.090715532149
 31
0.0
  0
LINE
  5
15504
330
747D
100
AcDbEntity
  8
部品1
100
AcDbLine
 10
8818.553724151103
 20
3613.090715532149
 30
0.0
 11
8840.493034380312
 21
3613.090715532149
 31
0.0
  0
ARC
  5
15505
330
747D
100
AcDbEntity
  8
部品1
100
AcDbCircle
 10
8798.523379265679
 20
3337.090715532148
 30
0.0
 40
37.0
100
AcDbArc
 50
270.0
 51
0.0
  0
ARC
  5
15506
330
747D
100
AcDbEntity
  8
部品1
100
AcDbCircle
 10
8798.523379265679
 20
3337.090715532148
 30
0.0
 40
25.0
100
AcDbArc
 50
270.0
 51
0.0
  0
LINE
  5
15507
330
747D
100
AcDbEntity
  8
部品1
100
AcDbLine
 10
8779.523379265679
 20
3312.090715532149
 30
0.0
 11
8779.523379265679
 21
3300.090715532149
 31
0.0
  0
LINE
  5
15508
330
747D
100
AcDbEntity
  8
部品1
100
AcDbLine
 10
8798.523379265679
 20
3300.090715532149
 30
0.0
 11
8779.523379265679
 21
3300.090715532149
 31
0.0
  0
LINE
  5
15509
330
747D
100
AcDbEntity
  8
部品1
100
AcDbLine
 10
8798.523379265679
 20
3312.090715532149
 30
0.0
 11
8779.523379265679
 21
3312.090715532149
 31
0.0
  0
LINE
  5
1550A
330
747D
100
AcDbEntity
  8
部品1
100
AcDbLine
 10
8835.523379265678
 20
3621.090715532149
 30
0.0
 11
8835.523379265678
 21
3613.090715532149
 31
0.0
  0
LINE
  5
1550B
330
747D
100
AcDbEntity
  8
部品1
100
AcDbLine
 10
8823.523379265678
 20
3621.090715532149
 30
0.0
 11
8823.523379265678
 21
3613.090715532149
 31
0.0
  0
LINE
  5
1550C
330
747D
100
AcDbEntity
  8
部品1
100
AcDbLine
 10
8823.523379265678
 20
3621.090715532149
 30
0.0
 11
8835.523379265678
 21
3621.090715532149
 31
0.0
  0
LINE
  5
1550D
330
747D
100
AcDbEntity
  8
CSLAYER17
  6
Continuous
 62
     7
100
AcDbLine
 10
9053.073379265667
 20
3653.090715532149
 30
0.0
 11
9063.073379265667
 21
3643.090715532149
 31
0.0
  0
LINE
  5
1550E
330
747D
100
AcDbEntity
  8
CSLAYER17
  6
Continuous
 62
     7
100
AcDbLine
 10
8805.97337926569
 20
3653.090715532149
 30
0.0
 11
8795.97337926569
 21
3643.090715532149
 31
0.0
  0
LINE
  5
1550F
330
747D
100
AcDbEntity
  8
CSLAYER17
  6
Continuous
 62
     7
100
AcDbLine
 10
8884.47337926569
 20
3613.090715532149
 30
0.0
 11
8874.47337926569
 21
3603.090715532149
 31
0.0
  0
LINE
  5
15510
330
747D
100
AcDbEntity
  8
部品1
100
AcDbLine
 10
8884.47337926569
 20
3653.090715532149
 30
0.0
 11
8884.47337926569
 21
3613.090715532149
 31
0.0
  0
LINE
  5
15511
330
747D
100
AcDbEntity
  8
部品1
100
AcDbLine
 10
8974.573379265667
 20
3653.090715532149
 30
0.0
 11
8974.573379265667
 21
3613.090715532149
 31
0.0
  0
LINE
  5
15512
330
747D
100
AcDbEntity
  8
CSLAYER17
  6
Continuous
 62
     7
100
AcDbLine
 10
8974.573379265667
 20
3613.090715532149
 30
0.0
 11
8984.573379265667
 21
3603.090715532149
 31
0.0
  0
LINE
  5
15513
330
747D
100
AcDbEntity
  8
CSLAYER17
  6
Continuous
 62
     7
100
AcDbLine
 10
8974.573379265667
 20
3653.090715532149
 30
0.0
 11
9053.073379265667
 21
3653.090715532149
 31
0.0
  0
LINE
  5
15514
330
747D
100
AcDbEntity
  8
CSLAYER17
  6
Continuous
 62
     7
100
AcDbLine
 10
8795.97337926569
 20
3643.090715532149
 30
0.0
 11
8795.97337926569
 21
3603.090715532149
 31
0.0
  0
LINE
  5
15515
330
747D
100
AcDbEntity
  8
CSLAYER17
  6
Continuous
 62
     7
100
AcDbLine
 10
9063.073379265667
 20
3643.090715532149
 30
0.0
 11
9063.073379265667
 21
3603.090715532149
 31
0.0
  0
LINE
  5
15516
330
747D
100
AcDbEntity
  8
CSLAYER17
  6
Continuous
 62
     7
100
AcDbLine
 10
8805.97337926569
 20
3653.090715532149
 30
0.0
 11
8884.47337926569
 21
3653.090715532149
 31
0.0
  0
LINE
  5
15517
330
747D
100
AcDbEntity
  8
CSLAYER17
  6
Continuous
 62
     7
100
AcDbLine
 10
8927.273379265677
 20
3653.090715532149
 30
0.0
 11
8931.773379265678
 21
3653.090715532149
 31
0.0
  0
LINE
  5
15518
330
747D
100
AcDbEntity
  8
CSLAYER17
  6
Continuous
 62
     7
100
AcDbLine
 10
8931.773379265678
 20
3653.090715532149
 30
0.0
 11
8931.773379265678
 21
3603.090715532149
 31
0.0
  0
LINE
  5
15519
330
747D
100
AcDbEntity
  8
CSLAYER17
  6
Continuous
 62
     7
100
AcDbLine
 10
8927.273379265677
 20
3653.090715532149
 30
0.0
 11
8927.273379265677
 21
3603.090715532149
 31
0.0
  0
LINE
  5
1551A
330
747D
100
AcDbEntity
  8
CSLAYER17
  6
Continuous
 62
     7
100
AcDbLine
 10
9069.523379265678
 20
3603.090715532149
 30
0.0
 11
9069.523379265678
 21
3591.090715532148
 31
0.0
  0
LINE
  5
1551B
330
747D
100
AcDbEntity
  8
CSLAYER17
  6
Continuous
 62
     7
100
AcDbLine
 10
8789.523379265679
 20
3591.090715532148
 30
0.0
 11
8789.523379265679
 21
3603.090715532149
 31
0.0
  0
LINE
  5
1551C
330
747D
100
AcDbEntity
  8
CSLAYER17
  6
Continuous
 62
     7
100
AcDbLine
 10
8789.523379265679
 20
3603.090715532149
 30
0.0
 11
9069.523379265678
 21
3603.090715532149
 31
0.0
  0
LINE
  5
1551D
330
747D
100
AcDbEntity
  8
CSLAYER17
  6
Continuous
 62
     7
100
AcDbLine
 10
8789.523379265679
 20
3591.090715532148
 30
0.0
 11
9069.523379265678
 21
3591.090715532148
 31
0.0
  0
LINE
  5
1551E
330
747D
100
AcDbEntity
  8
部品1
 48
50.0
100
AcDbLine
 10
8974.186611161217
 20
3603.090715532149
 30
0.0
 11
8884.973379265691
 21
3603.090715532149
 31
0.0
  0
LINE
  5
1551F
330
747D
100
AcDbEntity
  8
部品1
 48
50.0
100
AcDbLine
 10
8884.973379265691
 20
4107.023811477077
 30
0.0
 11
8884.973379265691
 21
3603.090715532163
 31
0.0
  0
LINE
  5
15520
330
747D
100
AcDbEntity
  8
部品1
 48
50.0
100
AcDbLine
 10
8974.073379265666
 20
4107.023811477077
 30
0.0
 11
8974.073379265666
 21
3603.090715532163
 31
0.0
  0
ARC
  5
15521
330
747D
100
AcDbEntity
  8
部品1
 48
50.0
100
AcDbCircle
 10
9279.523379265679
 20
3542.870714261503
 30
0.0
 40
48.22000127066345
100
AcDbArc
 50
22.20066484155625
 51
157.7993351584438
  0
LINE
  5
15522
330
747D
100
AcDbEntity
  8
部品1
100
AcDbLine
 10
9410.523379265679
 20
3312.090715532149
 30
0.0
 11
9429.523379265679
 21
3312.090715532149
 31
0.0
  0
LINE
  5
15523
330
747D
100
AcDbEntity
  8
部品1
100
AcDbLine
 10
9410.523379265679
 20
3300.090715532149
 30
0.0
 11
9429.523379265679
 21
3300.090715532149
 31
0.0
  0
LINE
  5
15524
330
747D
100
AcDbEntity
  8
部品1
100
AcDbLine
 10
9429.523379265679
 20
3312.090715532149
 30
0.0
 11
9429.523379265679
 21
3300.090715532149
 31
0.0
  0
ARC
  5
15525
330
747D
100
AcDbEntity
  8
部品1
100
AcDbCircle
 10
9410.523379265679
 20
3337.090715532148
 30
0.0
 40
25.0
100
AcDbArc
 50
180.0
 51
270.0
  0
ARC
  5
15526
330
747D
100
AcDbEntity
  8
部品1
100
AcDbCircle
 10
9410.523379265679
 20
3337.090715532148
 30
0.0
 40
37.0
100
AcDbArc
 50
180.0
 51
270.0
  0
LINE
  5
15527
330
747D
100
AcDbEntity
  8
部品1
100
AcDbLine
 10
9373.523379265678
 20
3591.090715532148
 30
0.0
 11
9373.523379265678
 21
3337.090715532148
 31
0.0
  0
LINE
  5
15528
330
747D
100
AcDbEntity
  8
部品1
100
AcDbLine
 10
9385.523379265679
 20
3621.090715532149
 30
0.0
 11
9373.523379265678
 21
3621.090715532149
 31
0.0
  0
LINE
  5
15529
330
747D
100
AcDbEntity
  8
部品1
100
AcDbLine
 10
9385.523379265679
 20
3621.090715532149
 30
0.0
 11
9385.523379265679
 21
3613.090715532149
 31
0.0
  0
LINE
  5
1552A
330
747D
100
AcDbEntity
  8
部品1
100
AcDbLine
 10
9373.523379265678
 20
3621.090715532149
 30
0.0
 11
9373.523379265678
 21
3613.090715532149
 31
0.0
  0
LINE
  5
1552B
330
747D
100
AcDbEntity
  8
部品1
100
AcDbLine
 10
9390.493034380311
 20
3613.090715532149
 30
0.0
 11
9368.553724151103
 21
3613.090715532149
 31
0.0
  0
LINE
  5
1552C
330
747D
100
AcDbEntity
  8
部品1
100
AcDbLine
 10
9368.553724151103
 20
3603.090715532149
 30
0.0
 11
9368.553724151103
 21
3613.090715532149
 31
0.0
  0
LINE
  5
1552D
330
747D
100
AcDbEntity
  8
部品1
100
AcDbLine
 10
9374.038551708391
 20
3603.090715532149
 30
0.0
 11
9374.038551708391
 21
3613.090715532149
 31
0.0
  0
LINE
  5
1552E
330
747D
100
AcDbEntity
  8
部品1
100
AcDbLine
 10
9385.008206822964
 20
3603.090715532149
 30
0.0
 11
9385.008206822964
 21
3613.090715532149
 31
0.0
  0
LINE
  5
1552F
330
747D
100
AcDbEntity
  8
部品1
100
AcDbLine
 10
9390.493034380311
 20
3603.090715532149
 30
0.0
 11
9390.493034380311
 21
3613.090715532149
 31
0.0
  0
LINE
  5
15530
330
747D
100
AcDbEntity
  8
部品1
100
AcDbLine
 10
9390.493034380311
 20
3603.090715532149
 30
0.0
 11
9368.553724151103
 21
3603.090715532149
 31
0.0
  0
LINE
  5
15531
330
747D
100
AcDbEntity
  8
部品1
100
AcDbLine
 10
9385.523379265679
 20
3591.090715532148
 30
0.0
 11
9385.523379265679
 21
3337.090715532148
 31
0.0
  0
LINE
  5
15532
330
747D
100
AcDbEntity
  8
部品1
100
AcDbLine
 10
9185.52337926568
 20
3591.090715532148
 30
0.0
 11
9185.52337926568
 21
3337.090715532148
 31
0.0
  0
LINE
  5
15533
330
747D
100
AcDbEntity
  8
部品1
100
AcDbLine
 10
9173.523379265679
 20
3591.090715532148
 30
0.0
 11
9173.523379265679
 21
3337.090715532148
 31
0.0
  0
LINE
  5
15534
330
747D
100
AcDbEntity
  8
部品1
100
AcDbLine
 10
9168.553724151102
 20
3603.090715532149
 30
0.0
 11
9190.493034380311
 21
3603.090715532149
 31
0.0
  0
LINE
  5
15535
330
747D
100
AcDbEntity
  8
部品1
100
AcDbLine
 10
9168.553724151102
 20
3603.090715532149
 30
0.0
 11
9168.553724151102
 21
3613.090715532149
 31
0.0
  0
LINE
  5
15536
330
747D
100
AcDbEntity
  8
部品1
100
AcDbLine
 10
9174.03855170839
 20
3603.090715532149
 30
0.0
 11
9174.03855170839
 21
3613.090715532149
 31
0.0
  0
LINE
  5
15537
330
747D
100
AcDbEntity
  8
部品1
100
AcDbLine
 10
9185.008206822965
 20
3603.090715532149
 30
0.0
 11
9185.008206822965
 21
3613.090715532149
 31
0.0
  0
LINE
  5
15538
330
747D
100
AcDbEntity
  8
部品1
100
AcDbLine
 10
9190.493034380311
 20
3603.090715532149
 30
0.0
 11
9190.493034380311
 21
3613.090715532149
 31
0.0
  0
LINE
  5
15539
330
747D
100
AcDbEntity
  8
部品1
100
AcDbLine
 10
9168.553724151102
 20
3613.090715532149
 30
0.0
 11
9190.493034380311
 21
3613.090715532149
 31
0.0
  0
ARC
  5
1553A
330
747D
100
AcDbEntity
  8
部品1
100
AcDbCircle
 10
9148.523379265679
 20
3337.090715532148
 30
0.0
 40
37.0
100
AcDbArc
 50
270.0
 51
0.0
  0
ARC
  5
1553B
330
747D
100
AcDbEntity
  8
部品1
100
AcDbCircle
 10
9148.523379265679
 20
3337.090715532148
 30
0.0
 40
25.0
100
AcDbArc
 50
270.0
 51
0.0
  0
LINE
  5
1553C
330
747D
100
AcDbEntity
  8
部品1
100
AcDbLine
 10
9129.523379265679
 20
3312.090715532149
 30
0.0
 11
9129.523379265679
 21
3300.090715532149
 31
0.0
  0
LINE
  5
1553D
330
747D
100
AcDbEntity
  8
部品1
100
AcDbLine
 10
9148.523379265679
 20
3300.090715532149
 30
0.0
 11
9129.523379265679
 21
3300.090715532149
 31
0.0
  0
LINE
  5
1553E
330
747D
100
AcDbEntity
  8
部品1
100
AcDbLine
 10
9148.523379265679
 20
3312.090715532149
 30
0.0
 11
9129.523379265679
 21
3312.090715532149
 31
0.0
  0
LINE
  5
1553F
330
747D
100
AcDbEntity
  8
部品1
100
AcDbLine
 10
9185.52337926568
 20
3621.090715532149
 30
0.0
 11
9185.52337926568
 21
3613.090715532149
 31
0.0
  0
LINE
  5
15540
330
747D
100
AcDbEntity
  8
部品1
100
AcDbLine
 10
9173.523379265679
 20
3621.090715532149
 30
0.0
 11
9173.523379265679
 21
3613.090715532149
 31
0.0
  0
LINE
  5
15541
330
747D
100
AcDbEntity
  8
部品1
100
AcDbLine
 10
9173.523379265679
 20
3621.090715532149
 30
0.0
 11
9185.52337926568
 21
3621.090715532149
 31
0.0
  0
LINE
  5
15542
330
747D
100
AcDbEntity
  8
CSLAYER17
  6
Continuous
 62
     7
100
AcDbLine
 10
9403.073379265666
 20
3653.090715532149
 30
0.0
 11
9413.073379265666
 21
3643.090715532149
 31
0.0
  0
LINE
  5
15543
330
747D
100
AcDbEntity
  8
CSLAYER17
  6
Continuous
 62
     7
100
AcDbLine
 10
9155.97337926569
 20
3653.090715532149
 30
0.0
 11
9145.97337926569
 21
3643.090715532149
 31
0.0
  0
LINE
  5
15544
330
747D
100
AcDbEntity
  8
CSLAYER17
  6
Continuous
 62
     7
100
AcDbLine
 10
9234.47337926569
 20
3613.090715532149
 30
0.0
 11
9224.47337926569
 21
3603.090715532149
 31
0.0
  0
LINE
  5
15545
330
747D
100
AcDbEntity
  8
部品1
100
AcDbLine
 10
9234.47337926569
 20
3653.090715532149
 30
0.0
 11
9234.47337926569
 21
3613.090715532149
 31
0.0
  0
LINE
  5
15546
330
747D
100
AcDbEntity
  8
部品1
100
AcDbLine
 10
9324.573379265666
 20
3653.090715532149
 30
0.0
 11
9324.573379265666
 21
3613.090715532149
 31
0.0
  0
LINE
  5
15547
330
747D
100
AcDbEntity
  8
CSLAYER17
  6
Continuous
 62
     7
100
AcDbLine
 10
9324.573379265666
 20
3613.090715532149
 30
0.0
 11
9334.573379265668
 21
3603.090715532149
 31
0.0
  0
LINE
  5
15548
330
747D
100
AcDbEntity
  8
CSLAYER17
  6
Continuous
 62
     7
100
AcDbLine
 10
9324.573379265666
 20
3653.090715532149
 30
0.0
 11
9403.073379265666
 21
3653.090715532149
 31
0.0
  0
LINE
  5
15549
330
747D
100
AcDbEntity
  8
CSLAYER17
  6
Continuous
 62
     7
100
AcDbLine
 10
9145.97337926569
 20
3643.090715532149
 30
0.0
 11
9145.97337926569
 21
3603.090715532149
 31
0.0
  0
LINE
  5
1554A
330
747D
100
AcDbEntity
  8
CSLAYER17
  6
Continuous
 62
     7
100
AcDbLine
 10
9413.073379265666
 20
3643.090715532149
 30
0.0
 11
9413.073379265666
 21
3603.090715532149
 31
0.0
  0
LINE
  5
1554B
330
747D
100
AcDbEntity
  8
CSLAYER17
  6
Continuous
 62
     7
100
AcDbLine
 10
9155.97337926569
 20
3653.090715532149
 30
0.0
 11
9234.47337926569
 21
3653.090715532149
 31
0.0
  0
LINE
  5
1554C
330
747D
100
AcDbEntity
  8
CSLAYER17
  6
Continuous
 62
     7
100
AcDbLine
 10
9277.273379265677
 20
3653.090715532149
 30
0.0
 11
9281.773379265677
 21
3653.090715532149
 31
0.0
  0
LINE
  5
1554D
330
747D
100
AcDbEntity
  8
CSLAYER17
  6
Continuous
 62
     7
100
AcDbLine
 10
9281.773379265677
 20
3653.090715532149
 30
0.0
 11
9281.773379265677
 21
3603.090715532149
 31
0.0
  0
LINE
  5
1554E
330
747D
100
AcDbEntity
  8
CSLAYER17
  6
Continuous
 62
     7
100
AcDbLine
 10
9277.273379265677
 20
3653.090715532149
 30
0.0
 11
9277.273379265677
 21
3603.090715532149
 31
0.0
  0
LINE
  5
1554F
330
747D
100
AcDbEntity
  8
CSLAYER17
  6
Continuous
 62
     7
100
AcDbLine
 10
9419.523379265678
 20
3603.090715532149
 30
0.0
 11
9419.523379265678
 21
3591.090715532148
 31
0.0
  0
LINE
  5
15550
330
747D
100
AcDbEntity
  8
CSLAYER17
  6
Continuous
 62
     7
100
AcDbLine
 10
9139.523379265678
 20
3591.090715532148
 30
0.0
 11
9139.523379265678
 21
3603.090715532149
 31
0.0
  0
LINE
  5
15551
330
747D
100
AcDbEntity
  8
CSLAYER17
  6
Continuous
 62
     7
100
AcDbLine
 10
9139.523379265678
 20
3603.090715532149
 30
0.0
 11
9419.523379265678
 21
3603.090715532149
 31
0.0
  0
LINE
  5
15552
330
747D
100
AcDbEntity
  8
CSLAYER17
  6
Continuous
 62
     7
100
AcDbLine
 10
9139.523379265678
 20
3591.090715532148
 30
0.0
 11
9419.523379265678
 21
3591.090715532148
 31
0.0
  0
LINE
  5
15553
330
747D
100
AcDbEntity
  8
部品1
 48
50.0
100
AcDbLine
 10
9324.186611161216
 20
3603.090715532149
 30
0.0
 11
9234.97337926569
 21
3603.090715532149
 31
0.0
  0
LINE
  5
15554
330
747D
100
AcDbEntity
  8
部品1
 48
50.0
100
AcDbLine
 10
9234.97337926569
 20
4107.023811477077
 30
0.0
 11
9234.97337926569
 21
3603.090715532163
 31
0.0
  0
LINE
  5
15555
330
747D
100
AcDbEntity
  8
部品1
 48
50.0
100
AcDbLine
 10
9324.073379265668
 20
4107.023811477077
 30
0.0
 11
9324.073379265668
 21
3603.090715532163
 31
0.0
  0
LINE
  5
15556
330
747D
100
AcDbEntity
  8
センター
 48
10.0
100
AcDbLine
 10
8929.523379265679
 20
4185.563548387189
 30
0.0
 11
8929.523379265679
 21
3050.032883702269
 31
0.0
  0
LINE
  5
15557
330
747D
100
AcDbEntity
  8
センター
 48
10.0
100
AcDbLine
 10
9279.523379265679
 20
4185.563548387189
 30
0.0
 11
9279.523379265679
 21
3050.032883702269
 31
0.0
  0
DIMENSION
  5
15558
330
747D
100
AcDbEntity
  8
寸法
 48
50.0
100
AcDbDimension
  2
*D21
 10
7983.847083500702
 20
3621.090715532134
 30
0.0
 11
7983.847083500702
 21
3403.862369075442
 31
0.0
 70
   160
 71
     5
 42
60.0
  3
INABA_S30G
100
AcDbAlignedDimension
 13
8341.342188180423
 23
3561.090715532134
 33
0.0
 14
8823.523379265678
 24
3621.090715532134
 34
0.0
 50
90.0
100
AcDbRotatedDimension
  0
DIMENSION
  5
15559
330
747D
100
AcDbEntity
  8
寸法
 48
50.0
100
AcDbDimension
  2
*D22
 10
8184.022986894007
 20
3591.090715532148
 30
0.0
 11
8184.022986894005
 21
3331.55528246127
 31
0.0
 70
   160
 71
     5
 42
30.00000000001455
  3
INABA_S30G
100
AcDbAlignedDimension
 13
8341.342188180423
 23
3561.090715532134
 33
0.0
 14
8789.523379265679
 24
3591.090715532148
 34
0.0
 50
90.0
100
AcDbRotatedDimension
  0
LINE
  5
1555A
330
747D
100
AcDbEntity
  8
寸法
 48
50.0
100
AcDbLine
 10
10253.1610467871
 20
2586.847207129017
 30
0.0
 11
9385.523379265679
 21
3464.090715532149
 31
0.0
  0
TEXT
  5
1555B
330
747D
100
AcDbEntity
  8
寸法
 62
     7
 48
50.0
100
AcDbText
 10
10290.90641286922
 20
2479.568832144725
 30
0.0
 40
90.0
  1
M12X350（市販品）
  7
STYLE1
100
AcDbText
  0
TEXT
  5
1555C
330
747D
100
AcDbEntity
  8
寸法
 62
     7
 48
50.0
100
AcDbText
 10
10290.90641286922
 20
2599.115110661166
 30
0.0
 40
90.0
  1
アンカーボルト
  7
STYLE1
100
AcDbText
  0
LINE
  5
1555D
330
747D
100
AcDbEntity
  8
寸法
 48
50.0
100
AcDbLine
 10
10253.1610467871
 20
2586.847207129017
 30
0.0
 11
11246.08837330772
 21
2586.847207129017
 31
0.0
  0
ENDSEC
  0
SECTION
  2
OBJECTS
  0
DICTIONARY
  5
7471
330
0
100
AcDbDictionary
281
     1
  3
ACAD_CIP_PREVIOUS_PRODUCT_INFO
350
13E76
  3
ACAD_COLOR
350
1341D
  3
ACAD_DETAILVIEWSTYLE
350
13E6C
  3
ACAD_GROUP
350
7472
  3
ACAD_LAYOUT
350
1341E
  3
ACAD_MATERIAL
350
1341C
  3
ACAD_MLEADERSTYLE
350
13E68
  3
ACAD_MLINESTYLE
350
7473
  3
ACAD_PLOTSETTINGS
350
1341F
  3
ACAD_PLOTSTYLENAME
350
1341A
  3
ACAD_SCALELIST
350
13E56
  3
ACAD_SECTIONVIEWSTYLE
350
13E6A
  3
ACAD_TABLESTYLE
350
13E54
  3
ACAD_VISUALSTYLE
350
13E3B
  3
AcadDim
350
13618
  3
ACDB_RECOMPOSE_DATA
350
15840
  3
AcDbVariableDictionary
350
13533
  3
CONTENTDICTIONARY
350
E71C
  3
DRAWINGVARIABLESDICT
350
F3B9
  3
DWGPROPS
350
15841
  0
DICTIONARY
  5
15795
330
746D
100
AcDbDictionary
280
     1
281
     1
  0
DICTIONARY
  5
13451
330
7467
100
AcDbDictionary
280
     1
281
     1
  3
ACAD_LAYERFILTERS
360
1356A
  3
ACAD_LAYERSTATES
360
13452
  0
DICTIONARY
  5
15775
330
7474
100
AcDbDictionary
280
     1
281
     1
  3
ADSK_XREC_LAYER_RECONCILED
360
15776
  0
DICTIONARY
  5
15777
330
DEB3
100
AcDbDictionary
280
     1
281
     1
  3
ADSK_XREC_LAYER_RECONCILED
360
15778
  0
DICTIONARY
  5
15779
330
DEB4
100
AcDbDictionary
280
     1
281
     1
  3
ADSK_XREC_LAYER_RECONCILED
360
1577A
  0
DICTIONARY
  5
1577B
330
DEB5
100
AcDbDictionary
280
     1
281
     1
  3
ADSK_XREC_LAYER_RECONCILED
360
1577C
  0
DICTIONARY
  5
1577D
330
DEB6
100
AcDbDictionary
280
     1
281
     1
  3
ADSK_XREC_LAYER_RECONCILED
360
1577E
  0
DICTIONARY
  5
1577F
330
10B54
100
AcDbDictionary
280
     1
281
     1
  3
ADSK_XREC_LAYER_RECONCILED
360
15780
  0
DICTIONARY
  5
15781
330
11729
100
AcDbDictionary
280
     1
281
     1
  3
ADSK_XREC_LAYER_RECONCILED
360
15782
  0
DICTIONARY
  5
15783
330
1173F
100
AcDbDictionary
280
     1
281
     1
  3
ADSK_XREC_LAYER_RECONCILED
360
15784
  0
DICTIONARY
  5
15785
330
11740
100
AcDbDictionary
280
     1
281
     1
  3
ADSK_XREC_LAYER_RECONCILED
360
15786
  0
DICTIONARY
  5
15787
330
1356E
100
AcDbDictionary
280
     1
281
     1
  3
ADSK_XREC_LAYER_RECONCILED
360
15788
  0
DICTIONARY
  5
15789
330
135FB
100
AcDbDictionary
280
     1
281
     1
  3
ADSK_XREC_LAYER_RECONCILED
360
1578A
  0
DICTIONARY
  5
1578B
330
1382B
100
AcDbDictionary
280
     1
281
     1
  3
ADSK_XREC_LAYER_RECONCILED
360
1578C
  0
DICTIONARY
  5
1578D
330
1382C
100
AcDbDictionary
280
     1
281
     1
  3
ADSK_XREC_LAYER_RECONCILED
360
1578E
  0
DICTIONARY
  5
1578F
330
1382D
100
AcDbDictionary
280
     1
281
     1
  3
ADSK_XREC_LAYER_RECONCILED
360
15790
  0
XRECORD
  5
13E76
102
{ACAD_REACTORS
330
7471
102
}
330
7471
100
AcDbXrecord
280
     1
300
ACDLT
300
2014
300
ACDLT_F_S
  0
DICTIONARY
  5
1341D
102
{ACAD_REACTORS
330
7471
102
}
330
7471
100
AcDbDictionary
281
     1
  0
DICTIONARY
  5
13E6C
102
{ACAD_REACTORS
330
7471
102
}
330
7471
100
AcDbDictionary
281
     1
  3
Metric50
350
13E6D
  0
DICTIONARY
  5
7472
102
{ACAD_REACTORS
330
7471
102
}
330
7471
100
AcDbDictionary
281
     1
  0
DICTIONARY
  5
1341E
102
{ACAD_REACTORS
330
7471
102
}
330
7471
100
AcDbDictionary
281
     1
  3
Model
350
13420
  3
レイアウト1
350
13421
  0
DICTIONARY
  5
1341C
102
{ACAD_REACTORS
330
7471
102
}
330
7471
100
AcDbDictionary
281
     1
  3
ByBlock
350
13E2B
  3
ByLayer
350
13E23
  3
Global
350
13E33
  0
DICTIONARY
  5
13E68
102
{ACAD_REACTORS
330
7471
102
}
330
7471
100
AcDbDictionary
281
     1
  3
Standard
350
13E69
  0
DICTIONARY
  5
7473
102
{ACAD_REACTORS
330
7471
102
}
330
7471
100
AcDbDictionary
281
     1
  3
STANDARD
350
7480
  0
DICTIONARY
  5
1341F
102
{ACAD_REACTORS
330
7471
102
}
330
7471
100
AcDbDictionary
281
     1
  0
ACDBDICTIONARYWDFLT
  5
1341A
102
{ACAD_REACTORS
330
7471
102
}
330
7471
100
AcDbDictionary
281
     1
  3
Normal
350
1341B
100
AcDbDictionaryWithDefault
340
1341B
  0
DICTIONARY
  5
13E56
102
{ACAD_REACTORS
330
7471
102
}
330
7471
100
AcDbDictionary
281
     1
  3
A0
350
13E57
  3
A1
350
13E58
  3
A2
350
13E59
  3
A3
350
13E5A
  3
A4
350
13E5B
  3
A5
350
13E5C
  3
A6
350
13E5D
  3
A7
350
13E5E
  3
A8
350
13E5F
  3
A9
350
13E60
  3
B0
350
13E61
  3
B1
350
13E62
  3
B2
350
13E63
  3
B3
350
13E64
  3
B4
350
13E65
  3
B5
350
13E66
  3
B6
350
13E67
  0
DICTIONARY
  5
13E6A
102
{ACAD_REACTORS
330
7471
102
}
330
7471
100
AcDbDictionary
281
     1
  3
Metric50
350
13E6B
  0
DICTIONARY
  5
13E54
102
{ACAD_REACTORS
330
7471
102
}
330
7471
100
AcDbDictionary
281
     1
  3
Standard
350
13E55
  0
DICTIONARY
  5
13E3B
102
{ACAD_REACTORS
330
7471
102
}
330
7471
100
AcDbDictionary
281
     1
  3
2dWireframe
350
13E41
  3
Basic
350
13E40
  3
Brighten
350
13E47
  3
ColorChange
350
13E4B
  3
Conceptual
350
13E44
  3
Dim
350
13E46
  3
EdgeColorOff
350
13E53
  3
Facepattern
350
13E4A
  3
Flat
350
13E3C
  3
FlatWithEdges
350
13E3D
  3
Gouraud
350
13E3E
  3
GouraudWithEdges
350
13E3F
  3
Hidden
350
13E43
  3
JitterOff
350
13E51
  3
Linepattern
350
13E49
  3
OverhangOff
350
13E52
  3
Realistic
350
13E45
  3
Shaded
350
13E50
  3
Shaded with edges
350
13E4F
  3
Shades of Gray
350
13E4C
  3
Sketchy
350
13E4D
  3
Thicken
350
13E48
  3
Wireframe
350
13E42
  3
X-Ray
350
13E4E
  0
XRECORD
  5
13618
102
{ACAD_REACTORS
330
7471
102
}
330
7471
100
AcDbXrecord
280
     1
 90
   990106
  3

 60
     0
 61
     0
 62
     1
 63
     3
 64
     0
 65
     0
 66
     0
 67
     3
 68
     1
 69
     0
 70
     0
 71
     0
 72
     0
 40
0.0
170
     0
  0
XRECORD
  5
15840
102
{ACAD_REACTORS
330
7471
102
}
330
7471
100
AcDbXrecord
280
     1
 90
        1
330
13E55
  0
DICTIONARY
  5
13533
102
{ACAD_REACTORS
330
7471
102
}
330
7471
100
AcDbDictionary
281
     1
  3
CANNOSCALE
350
157DB
  3
CMLEADERSTYLE
350
157D8
  3
CTABLESTYLE
350
157D7
  3
CVIEWDETAILSTYLE
350
157D9
  3
CVIEWSECTIONSTYLE
350
157DA
  3
DIMASSOC
350
13534
  3
INDEXCTL
350
157DD
  3
PROJECTNAME
350
13535
  3
SORTENTS
350
157DC
  3
XCLIPFRAME
350
1583E
  0
DICTIONARY
  5
E71C
102
{ACAD_REACTORS
330
7471
102
}
330
7471
100
AcDbDictionary
281
     1
  0
DICTIONARY
  5
F3B9
102
{ACAD_REACTORS
330
7471
102
}
330
7471
100
AcDbDictionary
281
     1
1001
DRAWINGVARIABLESXDATA
1000
POLARMODE
1000
1
  0
XRECORD
  5
15841
102
{ACAD_REACTORS
330
7471
102
}
330
7471
100
AcDbXrecord
280
     1
  1
DWGPROPS COOKIE
  2

  3

  4

  6

  7

  8
ODAHARA
  9

300
=
301
=
302
=
303
=
304
=
305
=
306
=
307
=
308
=
309
=
 40
0.3379615046296296
 41
2451074.411873148
 42
2456560.837522662
  1

 90
        0
  0
DICTIONARY
  5
1356A
102
{ACAD_REACTORS
330
13451
102
}
330
13451
100
AcDbDictionary
281
     1
  0
DICTIONARY
  5
13452
102
{ACAD_REACTORS
330
13451
102
}
330
13451
100
AcDbDictionary
281
     1
  0
XRECORD
  5
15776
102
{ACAD_REACTORS
330
15775
102
}
330
15775
100
AcDbXrecord
280
     1
290
     1
  0
XRECORD
  5
15778
102
{ACAD_REACTORS
330
15777
102
}
330
15777
100
AcDbXrecord
280
     1
290
     1
  0
XRECORD
  5
1577A
102
{ACAD_REACTORS
330
15779
102
}
330
15779
100
AcDbXrecord
280
     1
290
     1
  0
XRECORD
  5
1577C
102
{ACAD_REACTORS
330
1577B
102
}
330
1577B
100
AcDbXrecord
280
     1
290
     1
  0
XRECORD
  5
1577E
102
{ACAD_REACTORS
330
1577D
102
}
330
1577D
100
AcDbXrecord
280
     1
290
     1
  0
XRECORD
  5
15780
102
{ACAD_REACTORS
330
1577F
102
}
330
1577F
100
AcDbXrecord
280
     1
290
     1
  0
XRECORD
  5
15782
102
{ACAD_REACTORS
330
15781
102
}
330
15781
100
AcDbXrecord
280
     1
290
     1
  0
XRECORD
  5
15784
102
{ACAD_REACTORS
330
15783
102
}
330
15783
100
AcDbXrecord
280
     1
290
     1
  0
XRECORD
  5
15786
102
{ACAD_REACTORS
330
15785
102
}
330
15785
100
AcDbXrecord
280
     1
290
     1
  0
XRECORD
  5
15788
102
{ACAD_REACTORS
330
15787
102
}
330
15787
100
AcDbXrecord
280
     1
290
     1
  0
XRECORD
  5
1578A
102
{ACAD_REACTORS
330
15789
102
}
330
15789
100
AcDbXrecord
280
     1
290
     1
  0
XRECORD
  5
1578C
102
{ACAD_REACTORS
330
1578B
102
}
330
1578B
100
AcDbXrecord
280
     1
290
     1
  0
XRECORD
  5
1578E
102
{ACAD_REACTORS
330
1578D
102
}
330
1578D
100
AcDbXrecord
280
     1
290
     1
  0
XRECORD
  5
15790
102
{ACAD_REACTORS
330
1578F
102
}
330
1578F
100
AcDbXrecord
280
     1
290
     1
  0
ACDBDETAILVIEWSTYLE
  5
13E6D
102
{ACAD_XDICTIONARY
360
1587E
102
}
102
{ACAD_REACTORS
330
13E6C
102
}
330
13E6C
100
AcDbModelDocViewStyle
 70
     0
  3
Metric50
290
     0
100
AcDbDetailViewStyle
 70
     0
 71
     0
 90
        3
 71
     1
340
7475
 40
5.0
340
0
 40
5.0
300

 40
0.0
280
     1
 71
     2
340
7479
 90
       25
 71
     3
340
7475
 40
5.0
 90
        0
 40
15.0
 90
        1
300
%<\AcVar ViewDetailId>% (%<\AcVar ViewScale \f "%sn">%)
 71
     4
340
7479
 90
       25
340
7479
 90
       25
280
     0
  0
LAYOUT
  5
13420
102
{ACAD_XDICTIONARY
360
15842
102
}
102
{ACAD_REACTORS
330
1341E
102
}
330
1341E
100
AcDbPlotSettings
  1

  2
CutePDF Writer
  4
A3
  6

 40
3.174999952316284
 41
3.174999952316284
 42
3.17498779296875
 43
3.17498779296875
 44
297.0530090332031
 45
420.1583251953125
 46
0.0
 47
0.0
 48
0.0
 49
0.0
140
0.0
141
0.0
142
1.0
143
30.0
 70
 11952
 72
     1
 73
     1
 74
     2
  7
inaba.ctb
 75
    23
147
0.0333333333333333
148
0.0
149
0.0
100
AcDbLayout
  1
Model
 70
     1
 71
     0
 10
0.0
 20
0.0
 11
12.0
 21
9.0
 12
0.0
 22
0.0
 32
0.0
 14
0.0
 24
0.0
 34
0.0
 15
0.0
 25
0.0
 35
0.0
146
0.0
 13
0.0
 23
0.0
 33
0.0
 16
1.0
 26
0.0
 36
0.0
 17
0.0
 27
1.0
 37
0.0
 76
     0
330
747D
331
13E21
  0
LAYOUT
  5
13421
102
{ACAD_XDICTIONARY
360
15844
102
}
102
{ACAD_REACTORS
330
1341E
102
}
330
1341E
100
AcDbPlotSettings
  1

  2
Microsoft Office Document Image Writer
  4

  6

 40
0.0
 41
0.0
 42
0.0
 43
0.0
 44
0.0
 45
0.0
 46
0.0
 47
0.0
 48
0.0
 49
0.0
140
0.0
141
0.0
142
1.0
143
1.0
 70
   688
 72
     0
 73
     0
 74
     5
  7
inaba.ctb
 75
    16
147
1.0
148
0.0
149
0.0
100
AcDbLayout
  1
レイアウト1
 70
     0
 71
     1
 10
0.0
 20
0.0
 11
420.0
 21
297.0
 12
0.0
 22
0.0
 32
0.0
 14
1.000000000000000E+20
 24
1.000000000000000E+20
 34
1.000000000000000E+20
 15
-1.000000000000000E+20
 25
-1.000000000000000E+20
 35
-1.000000000000000E+20
146
0.0
 13
0.0
 23
0.0
 33
0.0
 16
1.0
 26
0.0
 36
0.0
 17
0.0
 27
1.0
 37
0.0
 76
     0
330
747A
  0
MATERIAL
  5
13E2B
102
{ACAD_XDICTIONARY
360
13E2C
102
}
102
{ACAD_REACTORS
330
1341C
102
}
330
1341C
100
AcDbMaterial
  1
ByBlock
 72
     0
 43
0.0208333333333333
 43
0.0
 43
0.0
 43
0.0
 43
0.0
 43
0.0208333333333333
 43
0.0
 43
0.0
 43
0.0
 43
0.0
 43
1.0
 43
0.0
 43
0.0
 43
0.0
 43
0.0
 43
1.0
 77
     0
 47
0.0208333333333333
 47
0.0
 47
0.0
 47
0.0
 47
0.0
 47
0.0208333333333333
 47
0.0
 47
0.0
 47
0.0
 47
0.0
 47
1.0
 47
0.0
 47
0.0
 47
0.0
 47
0.0
 47
1.0
171
     0
 49
0.0208333333333333
 49
0.0
 49
0.0
 49
0.0
 49
0.0
 49
0.0208333333333333
 49
0.0
 49
0.0
 49
0.0
 49
0.0
 49
1.0
 49
0.0
 49
0.0
 49
0.0
 49
0.0
 49
1.0
175
     0
142
0.0208333333333333
142
0.0
142
0.0
142
0.0
142
0.0
142
0.0208333333333333
142
0.0
142
0.0
142
0.0
142
0.0
142
1.0
142
0.0
142
0.0
142
0.0
142
0.0
142
1.0
179
     0
144
0.0208333333333333
144
0.0
144
0.0
144
0.0
144
0.0
144
0.0208333333333333
144
0.0
144
0.0
144
0.0
144
0.0
144
1.0
144
0.0
144
0.0
144
0.0
144
0.0
144
1.0
147
0.0208333333333333
147
0.0
147
0.0
147
0.0
147
0.0
147
0.0208333333333333
147
0.0
147
0.0
147
0.0
147
0.0
147
1.0
147
0.0
147
0.0
147
0.0
147
0.0
147
1.0
  0
MATERIAL
  5
13E23
102
{ACAD_XDICTIONARY
360
13E24
102
}
102
{ACAD_REACTORS
330
1341C
102
}
330
1341C
100
AcDbMaterial
  1
ByLayer
 72
     0
 43
0.0208333333333333
 43
0.0
 43
0.0
 43
0.0
 43
0.0
 43
0.0208333333333333
 43
0.0
 43
0.0
 43
0.0
 43
0.0
 43
1.0
 43
0.0
 43
0.0
 43
0.0
 43
0.0
 43
1.0
 77
     0
 47
0.0208333333333333
 47
0.0
 47
0.0
 47
0.0
 47
0.0
 47
0.0208333333333333
 47
0.0
 47
0.0
 47
0.0
 47
0.0
 47
1.0
 47
0.0
 47
0.0
 47
0.0
 47
0.0
 47
1.0
171
     0
 49
0.0208333333333333
 49
0.0
 49
0.0
 49
0.0
 49
0.0
 49
0.0208333333333333
 49
0.0
 49
0.0
 49
0.0
 49
0.0
 49
1.0
 49
0.0
 49
0.0
 49
0.0
 49
0.0
 49
1.0
175
     0
142
0.0208333333333333
142
0.0
142
0.0
142
0.0
142
0.0
142
0.0208333333333333
142
0.0
142
0.0
142
0.0
142
0.0
142
1.0
142
0.0
142
0.0
142
0.0
142
0.0
142
1.0
179
     0
144
0.0208333333333333
144
0.0
144
0.0
144
0.0
144
0.0
144
0.0208333333333333
144
0.0
144
0.0
144
0.0
144
0.0
144
1.0
144
0.0
144
0.0
144
0.0
144
0.0
144
1.0
147
0.0208333333333333
147
0.0
147
0.0
147
0.0
147
0.0
147
0.0208333333333333
147
0.0
147
0.0
147
0.0
147
0.0
147
1.0
147
0.0
147
0.0
147
0.0
147
0.0
147
1.0
  0
MATERIAL
  5
13E33
102
{ACAD_XDICTIONARY
360
13E34
102
}
102
{ACAD_REACTORS
330
1341C
102
}
330
1341C
100
AcDbMaterial
  1
Global
 72
     0
 43
0.0208333333333333
 43
0.0
 43
0.0
 43
0.0
 43
0.0
 43
0.0208333333333333
 43
0.0
 43
0.0
 43
0.0
 43
0.0
 43
1.0
 43
0.0
 43
0.0
 43
0.0
 43
0.0
 43
1.0
 77
     0
 47
0.0208333333333333
 47
0.0
 47
0.0
 47
0.0
 47
0.0
 47
0.0208333333333333
 47
0.0
 47
0.0
 47
0.0
 47
0.0
 47
1.0
 47
0.0
 47
0.0
 47
0.0
 47
0.0
 47
1.0
171
     0
 49
0.0208333333333333
 49
0.0
 49
0.0
 49
0.0
 49
0.0
 49
0.0208333333333333
 49
0.0
 49
0.0
 49
0.0
 49
0.0
 49
1.0
 49
0.0
 49
0.0
 49
0.0
 49
0.0
 49
1.0
175
     0
142
0.0208333333333333
142
0.0
142
0.0
142
0.0
142
0.0
142
0.0208333333333333
142
0.0
142
0.0
142
0.0
142
0.0
142
1.0
142
0.0
142
0.0
142
0.0
142
0.0
142
1.0
179
     0
144
0.0208333333333333
144
0.0
144
0.0
144
0.0
144
0.0
144
0.0208333333333333
144
0.0
144
0.0
144
0.0
144
0.0
144
1.0
144
0.0
144
0.0
144
0.0
144
0.0
144
1.0
147
0.0208333333333333
147
0.0
147
0.0
147
0.0
147
0.0
147
0.0208333333333333
147
0.0
147
0.0
147
0.0
147
0.0
147
1.0
147
0.0
147
0.0
147
0.0
147
0.0
147
1.0
  0
MLEADERSTYLE
  5
13E69
102
{ACAD_XDICTIONARY
360
1587A
102
}
102
{ACAD_REACTORS
330
13E68
102
}
330
13E68
100
AcDbMLeaderStyle
170
     2
171
     1
172
     0
 90
        2
 40
0.0
 41
0.0
173
     1
 91
-1056964608
340
7477
 92
       -2
290
     1
 42
2.0
291
     1
 43
0.36
  3
Standard
 44
4.0
300

342
7475
174
     1
178
     6
175
     1
176
     0
 93
-1056964608
 45
4.0
292
     0
297
     0
 46
4.0
 94
-1056964608
 47
1.0
 49
1.0
140
1.0
293
     1
141
0.0
294
     1
177
     0
142
1.0
295
     0
296
     0
143
0.125
1001
ACAD_MLEADERVER
1070
     2
  0
MLINESTYLE
  5
7480
102
{ACAD_REACTORS
330
7473
102
}
330
7473
100
AcDbMlineStyle
  2
STANDARD
 70
     0
  3

 62
     0
 51
90.0
 52
90.0
 71
     2
 49
0.5
 62
   256
  6
BYLAYER
 49
-0.5
 62
   256
  6
BYLAYER
  0
ACDBPLACEHOLDER
  5
1341B
102
{ACAD_REACTORS
330
1341A
102
}
330
1341A
  0
SCALE
  5
13E57
102
{ACAD_REACTORS
330
13E56
102
}
330
13E56
100
AcDbScale
 70
     0
300
1:1
140
1.0
141
1.0
290
     1
  0
SCALE
  5
13E58
102
{ACAD_REACTORS
330
13E56
102
}
330
13E56
100
AcDbScale
 70
     0
300
1:2
140
1.0
141
2.0
290
     0
  0
SCALE
  5
13E59
102
{ACAD_REACTORS
330
13E56
102
}
330
13E56
100
AcDbScale
 70
     0
300
1:4
140
1.0
141
4.0
290
     0
  0
SCALE
  5
13E5A
102
{ACAD_REACTORS
330
13E56
102
}
330
13E56
100
AcDbScale
 70
     0
300
1:5
140
1.0
141
5.0
290
     0
  0
SCALE
  5
13E5B
102
{ACAD_REACTORS
330
13E56
102
}
330
13E56
100
AcDbScale
 70
     0
300
1:8
140
1.0
141
8.0
290
     0
  0
SCALE
  5
13E5C
102
{ACAD_REACTORS
330
13E56
102
}
330
13E56
100
AcDbScale
 70
     0
300
1:10
140
1.0
141
10.0
290
     0
  0
SCALE
  5
13E5D
102
{ACAD_REACTORS
330
13E56
102
}
330
13E56
100
AcDbScale
 70
     0
300
1:16
140
1.0
141
16.0
290
     0
  0
SCALE
  5
13E5E
102
{ACAD_REACTORS
330
13E56
102
}
330
13E56
100
AcDbScale
 70
     0
300
1:20
140
1.0
141
20.0
290
     0
  0
SCALE
  5
13E5F
102
{ACAD_REACTORS
330
13E56
102
}
330
13E56
100
AcDbScale
 70
     0
300
1:30
140
1.0
141
30.0
290
     0
  0
SCALE
  5
13E60
102
{ACAD_REACTORS
330
13E56
102
}
330
13E56
100
AcDbScale
 70
     0
300
1:40
140
1.0
141
40.0
290
     0
  0
SCALE
  5
13E61
102
{ACAD_REACTORS
330
13E56
102
}
330
13E56
100
AcDbScale
 70
     0
300
1:50
140
1.0
141
50.0
290
     0
  0
SCALE
  5
13E62
102
{ACAD_REACTORS
330
13E56
102
}
330
13E56
100
AcDbScale
 70
     0
300
1:100
140
1.0
141
100.0
290
     0
  0
SCALE
  5
13E63
102
{ACAD_REACTORS
330
13E56
102
}
330
13E56
100
AcDbScale
 70
     0
300
2:1
140
2.0
141
1.0
290
     0
  0
SCALE
  5
13E64
102
{ACAD_REACTORS
330
13E56
102
}
330
13E56
100
AcDbScale
 70
     0
300
4:1
140
4.0
141
1.0
290
     0
  0
SCALE
  5
13E65
102
{ACAD_REACTORS
330
13E56
102
}
330
13E56
100
AcDbScale
 70
     0
300
8:1
140
8.0
141
1.0
290
     0
  0
SCALE
  5
13E66
102
{ACAD_REACTORS
330
13E56
102
}
330
13E56
100
AcDbScale
 70
     0
300
10:1
140
10.0
141
1.0
290
     0
  0
SCALE
  5
13E67
102
{ACAD_REACTORS
330
13E56
102
}
330
13E56
100
AcDbScale
 70
     0
300
100:1
140
100.0
141
1.0
290
     0
  0
ACDBSECTIONVIEWSTYLE
  5
13E6B
102
{ACAD_XDICTIONARY
360
1587C
102
}
102
{ACAD_REACTORS
330
13E6A
102
}
330
13E6A
100
AcDbModelDocViewStyle
 70
     0
  3
Metric50
290
     0
100
AcDbSectionViewStyle
 70
     0
 71
     0
 90
      102
 71
     1
340
7475
 40
5.0
340
0
340
0
 40
5.0
300
I, O, Q, S, X, Z
 40
10.0
 90
        0
 40
2.5
 90
        0
 71
     2
340
7479
 90
       25
340
7479
 90
       50
 40
5.0
 40
2.5
 40
5.0
 71
     3
340
7475
 40
5.0
 90
        0
 40
15.0
 90
        1
300
%<\AcVar ViewSectionStartId>%-%<\AcVar ViewSectionEndId>% (%<\AcVar ViewScale \f "%sn">%)
 71
     4
300
ANSI31
 40
1.0
 90
        0
290
     0
290
     0
 90
        6
 40
0.0
 40
1.570796326794896
 40
0.2617993877991494
 40
1.308996938995747
 40
-0.2617993877991494
 40
1.832595714594046
  0
TABLESTYLE
  5
13E55
102
{ACAD_XDICTIONARY
360
15791
102
}
102
{ACAD_REACTORS
330
13E54
102
}
330
13E54
100
AcDbTableStyle
  3
Standard
 70
     0
 71
     0
 40
1.5
 41
1.5
280
     0
281
     0
  7
STANDARD
140
4.5
170
     2
 62
     0
 63
     7
283
     0
274
    -2
284
     1
 64
     0
275
    -2
285
     1
 65
     0
276
    -2
286
     1
 66
     0
277
    -2
287
     1
 67
     0
278
    -2
288
     1
 68
     0
279
    -2
289
     1
 69
     0
  7
STANDARD
140
6.0
170
     5
 62
     0
 63
     7
283
     0
274
    -2
284
     1
 64
     0
275
    -2
285
     1
 65
     0
276
    -2
286
     1
 66
     0
277
    -2
287
     1
 67
     0
278
    -2
288
     1
 68
     0
279
    -2
289
     1
 69
     0
  7
STANDARD
140
4.5
170
     5
 62
     0
 63
     7
283
     0
274
    -2
284
     1
 64
     0
275
    -2
285
     1
 65
     0
276
    -2
286
     1
 66
     0
277
    -2
287
     1
 67
     0
278
    -2
288
     1
 68
     0
279
    -2
289
     1
 69
     0
  0
VISUALSTYLE
  5
13E41
102
{ACAD_XDICTIONARY
360
15853
102
}
102
{ACAD_REACTORS
330
13E3B
102
}
330
13E3B
100
AcDbVisualStyle
  2
2dWireframe
 70
     4
 71
     0
 72
     2
 73
     0
 90
        0
 40
-0.6
 41
-30.0
 62
     5
 63
     7
 74
     1
 91
        4
 64
     7
 65
   257
 75
     1
175
     1
 42
1.0
 92
        0
 66
   257
 43
1.0
 76
     1
 77
     6
 78
     2
 67
     7
 79
     5
170
     0
171
     0
290
     0
174
     0
 93
        1
 44
0.0
173
     0
291
     0
 45
0.0
1001
ACAD
1000
AcDbSavedByObjectVersion
1070
     0
  0
VISUALSTYLE
  5
13E40
102
{ACAD_XDICTIONARY
360
15851
102
}
102
{ACAD_REACTORS
330
13E3B
102
}
330
13E3B
100
AcDbVisualStyle
  2
Basic
 70
     7
 71
     1
 72
     0
 73
     1
 90
        0
 40
-0.6
 41
-30.0
 62
     5
 63
     7
 74
     0
 91
        4
 64
     7
 65
   257
 75
     1
175
     1
 42
1.0
 92
        8
 66
     7
 43
1.0
 76
     1
 77
     6
 78
     2
 67
     7
 79
     5
170
     0
171
     0
290
     0
174
     0
 93
        1
 44
0.0
173
     0
291
     1
 45
0.0
1001
ACAD
1000
AcDbSavedByObjectVersion
1070
     0
  0
VISUALSTYLE
  5
13E47
102
{ACAD_XDICTIONARY
360
1585F
102
}
102
{ACAD_REACTORS
330
13E3B
102
}
330
13E3B
100
AcDbVisualStyle
  2
Brighten
 70
    12
 71
     2
 72
     2
 73
     0
 90
        0
 40
-0.6
 41
-30.0
 62
     5
 63
     7
 74
     1
 91
        4
 64
     7
 65
   257
 75
     1
175
     1
 42
1.0
 92
        8
 66
     7
 43
1.0
 76
     1
 77
     6
 78
     2
 67
     7
 79
     5
170
     0
171
     0
290
     0
174
     0
 93
        1
 44
50.0
173
     0
291
     1
 45
0.0
1001
ACAD
1000
AcDbSavedByObjectVersion
1070
     0
  0
VISUALSTYLE
  5
13E4B
102
{ACAD_XDICTIONARY
360
15867
102
}
102
{ACAD_REACTORS
330
13E3B
102
}
330
13E3B
100
AcDbVisualStyle
  2
ColorChange
 70
    16
 71
     2
 72
     2
 73
     3
 90
        0
 40
-0.6
 41
-30.0
 62
     5
 63
     8
 74
     1
 91
        4
 64
     7
 65
   257
 75
     1
175
     1
 42
1.0
 92
        8
 66
     8
 43
1.0
 76
     1
 77
     6
 78
     2
 67
     7
 79
     5
170
     0
171
     0
290
     0
174
     0
 93
        1
 44
0.0
173
     0
291
     1
 45
0.0
1001
ACAD
1000
AcDbSavedByObjectVersion
1070
     0
  0
VISUALSTYLE
  5
13E44
102
{ACAD_XDICTIONARY
360
15859
102
}
102
{ACAD_REACTORS
330
13E3B
102
}
330
13E3B
100
AcDbVisualStyle
  2
Conceptual
 70
     9
 71
     3
 72
     2
 73
     0
 90
        0
 40
-0.6
 41
-30.0
 62
     5
 63
     7
 74
     2
 91
        2
 64
     7
 65
   257
 75
     1
175
     1
 42
179.0
 92
        8
 66
     7
 43
1.0
 76
     1
 77
     6
 78
     2
 67
     7
 79
     3
170
     0
171
     0
290
     0
174
     0
 93
        1
 44
0.0
173
     0
291
     0
 45
0.0
1001
ACAD
1000
AcDbSavedByObjectVersion
1070
     0
  0
VISUALSTYLE
  5
13E46
102
{ACAD_XDICTIONARY
360
1585D
102
}
102
{ACAD_REACTORS
330
13E3B
102
}
330
13E3B
100
AcDbVisualStyle
  2
Dim
 70
    11
 71
     2
 72
     2
 73
     0
 90
        0
 40
-0.6
 41
-30.0
 62
     5
 63
     7
 74
     1
 91
        4
 64
     7
 65
   257
 75
     1
175
     1
 42
1.0
 92
        8
 66
     7
 43
1.0
 76
     1
 77
     6
 78
     2
 67
     7
 79
     5
170
     0
171
     0
290
     0
174
     0
 93
        1
 44
-50.0
173
     0
291
     1
 45
0.0
1001
ACAD
1000
AcDbSavedByObjectVersion
1070
     0
  0
VISUALSTYLE
  5
13E53
102
{ACAD_XDICTIONARY
360
15877
102
}
102
{ACAD_REACTORS
330
13E3B
102
}
330
13E3B
100
AcDbVisualStyle
  2
EdgeColorOff
 70
    22
 71
     2
 72
     2
 73
     0
 90
        0
 40
-0.6
 41
-30.0
 62
     5
 63
     7
 74
     1
 91
        4
 64
     7
 65
   257
 75
     1
175
     1
 42
1.0
 92
        8
 66
     7
 43
1.0
 76
     1
 77
     6
 78
     2
 67
     7
 79
     5
170
     0
171
     0
290
     0
174
     0
 93
        1
 44
0.0
173
     0
291
     1
 45
0.0
1001
ACAD
1000
AcDbSavedByObjectVersion
1070
     0
  0
VISUALSTYLE
  5
13E4A
102
{ACAD_XDICTIONARY
360
15865
102
}
102
{ACAD_REACTORS
330
13E3B
102
}
330
13E3B
100
AcDbVisualStyle
  2
Facepattern
 70
    15
 71
     2
 72
     2
 73
     0
 90
        0
 40
-0.6
 41
-30.0
 62
     5
 63
     7
 74
     1
 91
        4
 64
     7
 65
   257
 75
     1
175
     1
 42
1.0
 92
        8
 66
     7
 43
1.0
 76
     1
 77
     6
 78
     2
 67
     7
 79
     5
170
     0
171
     0
290
     0
174
     0
 93
        1
 44
0.0
173
     0
291
     1
 45
0.0
1001
ACAD
1000
AcDbSavedByObjectVersion
1070
     0
  0
VISUALSTYLE
  5
13E3C
102
{ACAD_XDICTIONARY
360
15849
102
}
102
{ACAD_REACTORS
330
13E3B
102
}
330
13E3B
100
AcDbVisualStyle
  2
Flat
 70
     0
 71
     2
 72
     1
 73
     1
 90
        2
 40
-0.6
 41
30.0
 62
     5
 63
     7
 74
     0
 91
        0
 64
     7
 65
   257
 75
     1
175
     1
 42
1.0
 92
        8
 66
     7
 43
1.0
 76
     1
 77
     6
 78
     2
 67
     7
 79
     5
170
     0
171
     0
290
     0
174
     0
 93
       13
 44
0.0
173
     0
291
     1
 45
0.0
1001
ACAD
1000
AcDbSavedByObjectVersion
1070
     0
  0
VISUALSTYLE
  5
13E3D
102
{ACAD_XDICTIONARY
360
1584B
102
}
102
{ACAD_REACTORS
330
13E3B
102
}
330
13E3B
100
AcDbVisualStyle
  2
FlatWithEdges
 70
     1
 71
     2
 72
     1
 73
     1
 90
        2
 40
-0.6
 41
30.0
 62
     5
 63
     7
 74
     1
 91
        0
 64
     7
 65
   257
 75
     1
175
     1
 42
1.0
 92
        0
 66
   257
 43
1.0
 76
     1
 77
     6
 78
     2
 67
     7
 79
     5
170
     0
171
     0
290
     0
174
     0
 93
       13
 44
0.0
173
     0
291
     1
 45
0.0
1001
ACAD
1000
AcDbSavedByObjectVersion
1070
     0
  0
VISUALSTYLE
  5
13E3E
102
{ACAD_XDICTIONARY
360
1584D
102
}
102
{ACAD_REACTORS
330
13E3B
102
}
330
13E3B
100
AcDbVisualStyle
  2
Gouraud
 70
     2
 71
     2
 72
     2
 73
     1
 90
        2
 40
-0.6
 41
30.0
 62
     5
 63
     7
 74
     0
 91
        0
 64
     7
 65
   257
 75
     1
175
     1
 42
1.0
 92
        0
 66
     7
 43
1.0
 76
     1
 77
     6
 78
     2
 67
     7
 79
     5
170
     0
171
     0
290
     0
174
     0
 93
       13
 44
0.0
173
     0
291
     1
 45
0.0
1001
ACAD
1000
AcDbSavedByObjectVersion
1070
     0
  0
VISUALSTYLE
  5
13E3F
102
{ACAD_XDICTIONARY
360
1584F
102
}
102
{ACAD_REACTORS
330
13E3B
102
}
330
13E3B
100
AcDbVisualStyle
  2
GouraudWithEdges
 70
     3
 71
     2
 72
     2
 73
     1
 90
        2
 40
-0.6
 41
30.0
 62
     5
 63
     7
 74
     1
 91
        0
 64
     7
 65
   257
 75
     1
175
     1
 42
1.0
 92
        0
 66
   257
 43
1.0
 76
     1
 77
     6
 78
     2
 67
     7
 79
     5
170
     0
171
     0
290
     0
174
     0
 93
       13
 44
0.0
173
     0
291
     1
 45
0.0
1001
ACAD
1000
AcDbSavedByObjectVersion
1070
     0
  0
VISUALSTYLE
  5
13E43
102
{ACAD_XDICTIONARY
360
15857
102
}
102
{ACAD_REACTORS
330
13E3B
102
}
330
13E3B
100
AcDbVisualStyle
  2
Hidden
 70
     6
 71
     1
 72
     2
 73
     2
 90
        0
 40
-0.6
 41
-30.0
 62
     5
 63
     7
 74
     2
 91
        2
 64
     7
 65
   257
 75
     2
175
     1
 42
40.0
 92
        0
 66
   257
 43
1.0
 76
     1
 77
     6
 78
     2
 67
     7
 79
     3
170
     0
171
     0
290
     0
174
     0
 93
        1
 44
0.0
173
     0
291
     0
 45
0.0
1001
ACAD
1000
AcDbSavedByObjectVersion
1070
     0
  0
VISUALSTYLE
  5
13E51
102
{ACAD_XDICTIONARY
360
15873
102
}
102
{ACAD_REACTORS
330
13E3B
102
}
330
13E3B
100
AcDbVisualStyle
  2
JitterOff
 70
    20
 71
     2
 72
     2
 73
     0
 90
        0
 40
-0.6
 41
-30.0
 62
     5
 63
     7
 74
     1
 91
        4
 64
     7
 65
   257
 75
     1
175
     1
 42
1.0
 92
       10
 66
     7
 43
1.0
 76
     1
 77
     6
 78
     2
 67
     7
 79
     5
170
     0
171
     0
290
     0
174
     0
 93
        1
 44
0.0
173
     0
291
     1
 45
0.0
1001
ACAD
1000
AcDbSavedByObjectVersion
1070
     0
  0
VISUALSTYLE
  5
13E49
102
{ACAD_XDICTIONARY
360
15863
102
}
102
{ACAD_REACTORS
330
13E3B
102
}
330
13E3B
100
AcDbVisualStyle
  2
Linepattern
 70
    14
 71
     2
 72
     2
 73
     0
 90
        0
 40
-0.6
 41
-30.0
 62
     5
 63
     7
 74
     1
 91
        4
 64
     7
 65
   257
 75
     7
175
     7
 42
1.0
 92
        8
 66
     7
 43
1.0
 76
     1
 77
     6
 78
     2
 67
     7
 79
     5
170
     0
171
     0
290
     0
174
     0
 93
        1
 44
0.0
173
     0
291
     1
 45
0.0
1001
ACAD
1000
AcDbSavedByObjectVersion
1070
     0
  0
VISUALSTYLE
  5
13E52
102
{ACAD_XDICTIONARY
360
15875
102
}
102
{ACAD_REACTORS
330
13E3B
102
}
330
13E3B
100
AcDbVisualStyle
  2
OverhangOff
 70
    21
 71
     2
 72
     2
 73
     0
 90
        0
 40
-0.6
 41
-30.0
 62
     5
 63
     7
 74
     1
 91
        4
 64
     7
 65
   257
 75
     1
175
     1
 42
1.0
 92
        9
 66
     7
 43
1.0
 76
     1
 77
     6
 78
     2
 67
     7
 79
     5
170
     0
171
     0
290
     0
174
     0
 93
        1
 44
0.0
173
     0
291
     1
 45
0.0
1001
ACAD
1000
AcDbSavedByObjectVersion
1070
     0
  0
VISUALSTYLE
  5
13E45
102
{ACAD_XDICTIONARY
360
1585B
102
}
102
{ACAD_REACTORS
330
13E3B
102
}
330
13E3B
100
AcDbVisualStyle
  2
Realistic
 70
     8
 71
     2
 72
     2
 73
     0
 90
        2
 40
-0.6
 41
30.0
 62
     5
 63
     7
 74
     0
 91
        0
 64
     7
 65
   257
 75
     1
175
     1
 42
1.0
 92
        8
 66
   257
 43
1.0
 76
     1
 77
     6
 78
     2
 67
     7
 79
     3
170
     0
171
     0
290
     0
174
     0
 93
       13
 44
0.0
173
     0
291
     0
 45
0.0
1001
ACAD
1000
AcDbSavedByObjectVersion
1070
     0
  0
VISUALSTYLE
  5
13E50
102
{ACAD_XDICTIONARY
360
15871
102
}
102
{ACAD_REACTORS
330
13E3B
102
}
330
13E3B
100
AcDbVisualStyle
  2
Shaded
 70
    27
 71
     2
 72
     2
 73
     1
 90
        2
 40
-0.6
 41
30.0
 62
     5
 63
     7
 74
     0
 91
        4
 64
     7
 65
   257
 75
     1
175
     1
 42
1.0
 92
        8
 66
   257
 43
1.0
 76
     1
 77
     6
 78
     2
 67
     8
 79
     3
170
     0
171
     0
290
     0
174
     0
 93
        5
 44
0.0
173
     0
291
     0
 45
0.0
1001
ACAD
1000
AcDbSavedByObjectVersion
1070
     0
  0
VISUALSTYLE
  5
13E4F
102
{ACAD_XDICTIONARY
360
1586F
102
}
102
{ACAD_REACTORS
330
13E3B
102
}
330
13E3B
100
AcDbVisualStyle
  2
Shaded with edges
 70
    26
 71
     2
 72
     2
 73
     1
 90
        2
 40
-0.6
 41
30.0
 62
     5
 63
     7
 74
     1
 91
       10
 64
     7
 65
   257
 75
     2
175
     1
 42
1.0
 92
        8
 66
   257
 43
1.0
 76
     1
 77
     6
 78
     2
 67
     7
 79
     3
170
     0
171
     0
290
     0
174
     0
 93
        5
 44
0.0
173
     0
291
     0
 45
0.0
1001
ACAD
1000
AcDbSavedByObjectVersion
1070
     0
  0
VISUALSTYLE
  5
13E4C
102
{ACAD_XDICTIONARY
360
15869
102
}
102
{ACAD_REACTORS
330
13E3B
102
}
330
13E3B
100
AcDbVisualStyle
  2
Shades of Gray
 70
    23
 71
     2
 72
     2
 73
     3
 90
        0
 40
-0.6
 41
-30.0
 62
     5
 63
     7
 74
     2
 91
        2
 64
     7
 65
     7
 75
     1
175
     1
 42
40.0
 92
        8
 66
     7
 43
1.0
 76
     1
 77
     6
 78
     2
 67
     7
 79
     3
170
     0
171
     0
290
     0
174
     0
 93
        1
 44
0.0
173
     0
291
     0
 45
0.0
1001
ACAD
1000
AcDbSavedByObjectVersion
1070
     0
  0
VISUALSTYLE
  5
13E4D
102
{ACAD_XDICTIONARY
360
1586B
102
}
102
{ACAD_REACTORS
330
13E3B
102
}
330
13E3B
100
AcDbVisualStyle
  2
Sketchy
 70
    24
 71
     1
 72
     2
 73
     2
 90
        0
 40
-0.6
 41
-30.0
 62
     5
 63
     7
 74
     2
 91
        2
 64
     7
 65
     7
 75
     1
175
     1
 42
40.0
 92
       11
 66
     7
 43
1.0
 76
     1
 77
     6
 78
     2
 67
     7
 79
     6
170
     0
171
     0
290
     0
174
     0
 93
        1
 44
0.0
173
     0
291
     0
 45
0.0
1001
ACAD
1000
AcDbSavedByObjectVersion
1070
     0
  0
VISUALSTYLE
  5
13E48
102
{ACAD_XDICTIONARY
360
15861
102
}
102
{ACAD_REACTORS
330
13E3B
102
}
330
13E3B
100
AcDbVisualStyle
  2
Thicken
 70
    13
 71
     2
 72
     2
 73
     0
 90
        0
 40
-0.6
 41
-30.0
 62
     5
 63
     7
 74
     1
 91
        4
 64
     7
 65
   257
 75
     1
175
     1
 42
1.0
 92
       12
 66
     7
 43
1.0
 76
     1
 77
     6
 78
     2
 67
     7
 79
     5
170
     0
171
     0
290
     0
174
     0
 93
        1
 44
0.0
173
     0
291
     1
 45
0.0
1001
ACAD
1000
AcDbSavedByObjectVersion
1070
     0
  0
VISUALSTYLE
  5
13E42
102
{ACAD_XDICTIONARY
360
15855
102
}
102
{ACAD_REACTORS
330
13E3B
102
}
330
13E3B
100
AcDbVisualStyle
  2
Wireframe
 70
     5
 71
     0
 72
     2
 73
     0
 90
        0
 40
-0.6
 41
-30.0
 62
     5
 63
     7
 74
     1
 91
        4
 64
     7
 65
   257
 75
     1
175
     1
 42
1.0
 92
        0
 66
   257
 43
1.0
 76
     1
 77
     6
 78
     2
 67
     7
 79
     3
170
     0
171
     0
290
     0
174
     0
 93
        1
 44
0.0
173
     0
291
     0
 45
0.0
1001
ACAD
1000
AcDbSavedByObjectVersion
1070
     0
  0
VISUALSTYLE
  5
13E4E
102
{ACAD_XDICTIONARY
360
1586D
102
}
102
{ACAD_REACTORS
330
13E3B
102
}
330
13E3B
100
AcDbVisualStyle
  2
X-Ray
 70
    25
 71
     2
 72
     2
 73
     1
 90
        1
 40
0.5
 41
-30.0
 62
     5
 63
     7
 74
     1
 91
        0
 64
     7
 65
   257
 75
     1
175
     1
 42
1.0
 92
        8
 66
     7
 43
1.0
 76
     1
 77
     6
 78
     2
 67
     7
 79
     3
170
     0
171
     0
290
     0
174
     0
 93
       13
 44
0.0
173
     0
291
     0
 45
0.0
1001
ACAD
1000
AcDbSavedByObjectVersion
1070
     0
  0
DICTIONARYVAR
  5
157DB
102
{ACAD_REACTORS
330
13533
102
}
330
13533
100
DictionaryVariables
280
     0
  1
1:1
  0
DICTIONARYVAR
  5
157D8
102
{ACAD_REACTORS
330
13533
102
}
330
13533
100
DictionaryVariables
280
     0
  1
STANDARD
  0
DICTIONARYVAR
  5
157D7
102
{ACAD_REACTORS
330
13533
102
}
330
13533
100
DictionaryVariables
280
     0
  1
STANDARD
  0
DICTIONARYVAR
  5
157D9
102
{ACAD_REACTORS
330
13533
102
}
330
13533
100
DictionaryVariables
280
     0
  1
Metric50
  0
DICTIONARYVAR
  5
157DA
102
{ACAD_REACTORS
330
13533
102
}
330
13533
100
DictionaryVariables
280
     0
  1
Metric50
  0
DICTIONARYVAR
  5
13534
102
{ACAD_REACTORS
330
13533
102
}
330
13533
100
DictionaryVariables
280
     0
  1
1
  0
DICTIONARYVAR
  5
157DD
102
{ACAD_REACTORS
330
13533
102
}
330
13533
100
DictionaryVariables
280
     0
  1
0
  0
DICTIONARYVAR
  5
13535
102
{ACAD_REACTORS
330
13533
102
}
330
13533
100
DictionaryVariables
280
     0
  1

  0
DICTIONARYVAR
  5
157DC
102
{ACAD_REACTORS
330
13533
102
}
330
13533
100
DictionaryVariables
280
     0
  1
127
  0
DICTIONARYVAR
  5
1583E
102
{ACAD_REACTORS
330
13533
102
}
330
13533
100
DictionaryVariables
280
     0
  1
2
  0
DICTIONARY
  5
1587E
330
13E6D
100
AcDbDictionary
280
     1
281
     1
  3
ACAD_XREC_ROUNDTRIP
360
1587F
  0
DICTIONARY
  5
15842
330
13420
100
AcDbDictionary
280
     1
281
     1
  3
ACAD_XREC_ROUNDTRIP
360
15843
  0
DICTIONARY
  5
15844
330
13421
100
AcDbDictionary
280
     1
281
     1
  3
ACAD_XREC_ROUNDTRIP
360
15845
  0
DICTIONARY
  5
13E2C
330
13E2B
100
AcDbDictionary
280
     1
281
     1
  3
ACAD_XREC_ROUNDTRIP
360
15847
  3
BUMPTILE
360
13E2E
  3
DIFFUSETILE
360
13E2D
  3
OPACITYTILE
360
13E31
  3
REFLECTIONTILE
360
13E30
  3
REFRACTIONTILE
360
13E32
  3
SPECULARTILE
360
13E2F
  0
DICTIONARY
  5
13E24
330
13E23
100
AcDbDictionary
280
     1
281
     1
  3
ACAD_XREC_ROUNDTRIP
360
15846
  3
BUMPTILE
360
13E26
  3
DIFFUSETILE
360
13E25
  3
OPACITYTILE
360
13E29
  3
REFLECTIONTILE
360
13E28
  3
REFRACTIONTILE
360
13E2A
  3
SPECULARTILE
360
13E27
  0
DICTIONARY
  5
13E34
330
13E33
100
AcDbDictionary
280
     1
281
     1
  3
ACAD_XREC_ROUNDTRIP
360
15848
  3
BUMPTILE
360
13E36
  3
DIFFUSETILE
360
13E35
  3
OPACITYTILE
360
13E39
  3
REFLECTIONTILE
360
13E38
  3
REFRACTIONTILE
360
13E3A
  3
SPECULARTILE
360
13E37
  0
DICTIONARY
  5
1587A
330
13E69
100
AcDbDictionary
280
     1
281
     1
  3
ACAD_XREC_ROUNDTRIP
360
1587B
  0
DICTIONARY
  5
1587C
330
13E6B
100
AcDbDictionary
280
     1
281
     1
  3
ACAD_XREC_ROUNDTRIP
360
1587D
  0
DICTIONARY
  5
15791
330
13E55
100
AcDbDictionary
280
     1
281
     1
  3
ACAD_ROUNDTRIP_2008_TABLESTYLE_CELLSTYLEMAP
360
1583F
  3
ACAD_XREC_ROUNDTRIP
360
15879
  0
DICTIONARY
  5
15853
330
13E41
100
AcDbDictionary
280
     1
281
     1
  3
ACAD_XREC_ROUNDTRIP
360
15854
  0
DICTIONARY
  5
15851
330
13E40
100
AcDbDictionary
280
     1
281
     1
  3
ACAD_XREC_ROUNDTRIP
360
15852
  0
DICTIONARY
  5
1585F
330
13E47
100
AcDbDictionary
280
     1
281
     1
  3
ACAD_XREC_ROUNDTRIP
360
15860
  0
DICTIONARY
  5
15867
330
13E4B
100
AcDbDictionary
280
     1
281
     1
  3
ACAD_XREC_ROUNDTRIP
360
15868
  0
DICTIONARY
  5
15859
330
13E44
100
AcDbDictionary
280
     1
281
     1
  3
ACAD_XREC_ROUNDTRIP
360
1585A
  0
DICTIONARY
  5
1585D
330
13E46
100
AcDbDictionary
280
     1
281
     1
  3
ACAD_XREC_ROUNDTRIP
360
1585E
  0
DICTIONARY
  5
15877
330
13E53
100
AcDbDictionary
280
     1
281
     1
  3
ACAD_XREC_ROUNDTRIP
360
15878
  0
DICTIONARY
  5
15865
330
13E4A
100
AcDbDictionary
280
     1
281
     1
  3
ACAD_XREC_ROUNDTRIP
360
15866
  0
DICTIONARY
  5
15849
330
13E3C
100
AcDbDictionary
280
     1
281
     1
  3
ACAD_XREC_ROUNDTRIP
360
1584A
  0
DICTIONARY
  5
1584B
330
13E3D
100
AcDbDictionary
280
     1
281
     1
  3
ACAD_XREC_ROUNDTRIP
360
1584C
  0
DICTIONARY
  5
1584D
330
13E3E
100
AcDbDictionary
280
     1
281
     1
  3
ACAD_XREC_ROUNDTRIP
360
1584E
  0
DICTIONARY
  5
1584F
330
13E3F
100
AcDbDictionary
280
     1
281
     1
  3
ACAD_XREC_ROUNDTRIP
360
15850
  0
DICTIONARY
  5
15857
330
13E43
100
AcDbDictionary
280
     1
281
     1
  3
ACAD_XREC_ROUNDTRIP
360
15858
  0
DICTIONARY
  5
15873
330
13E51
100
AcDbDictionary
280
     1
281
     1
  3
ACAD_XREC_ROUNDTRIP
360
15874
  0
DICTIONARY
  5
15863
330
13E49
100
AcDbDictionary
280
     1
281
     1
  3
ACAD_XREC_ROUNDTRIP
360
15864
  0
DICTIONARY
  5
15875
330
13E52
100
AcDbDictionary
280
     1
281
     1
  3
ACAD_XREC_ROUNDTRIP
360
15876
  0
DICTIONARY
  5
1585B
330
13E45
100
AcDbDictionary
280
     1
281
     1
  3
ACAD_XREC_ROUNDTRIP
360
1585C
  0
DICTIONARY
  5
15871
330
13E50
100
AcDbDictionary
280
     1
281
     1
  3
ACAD_XREC_ROUNDTRIP
360
15872
  0
DICTIONARY
  5
1586F
330
13E4F
100
AcDbDictionary
280
     1
281
     1
  3
ACAD_XREC_ROUNDTRIP
360
15870
  0
DICTIONARY
  5
15869
330
13E4C
100
AcDbDictionary
280
     1
281
     1
  3
ACAD_XREC_ROUNDTRIP
360
1586A
  0
DICTIONARY
  5
1586B
330
13E4D
100
AcDbDictionary
280
     1
281
     1
  3
ACAD_XREC_ROUNDTRIP
360
1586C
  0
DICTIONARY
  5
15861
330
13E48
100
AcDbDictionary
280
     1
281
     1
  3
ACAD_XREC_ROUNDTRIP
360
15862
  0
DICTIONARY
  5
15855
330
13E42
100
AcDbDictionary
280
     1
281
     1
  3
ACAD_XREC_ROUNDTRIP
360
15856
  0
DICTIONARY
  5
1586D
330
13E4E
100
AcDbDictionary
280
     1
281
     1
  3
ACAD_XREC_ROUNDTRIP
360
1586E
  0
XRECORD
  5
1587F
102
{ACAD_REACTORS
330
1587E
102
}
330
1587E
100
AcDbXrecord
280
     1
102
DISPLAYNAME
  1
Metric50
102
FLAGS
 90
        0
  0
XRECORD
  5
15843
102
{ACAD_REACTORS
330
15842
102
}
330
15842
100
AcDbXrecord
280
     1
102
SHADEPLOT
 70
     0
102
SHADEPLOTRESLEVEL
 70
     2
102
SHADEPLOTCUSTOMDPI
 70
   300
  0
XRECORD
  5
15845
102
{ACAD_REACTORS
330
15844
102
}
330
15844
100
AcDbXrecord
280
     1
102
SHADEPLOT
 70
     0
102
SHADEPLOTRESLEVEL
 70
     2
102
SHADEPLOTCUSTOMDPI
 70
   300
  0
XRECORD
  5
15847
102
{ACAD_REACTORS
330
13E2C
102
}
330
13E2C
100
AcDbXrecord
280
     1
102
MATERIAL
148
0.0
149
0.0
149
0.0
 93
        0
 94
      127
282
     0
 72
     0
 77
     0
171
     0
175
     0
179
     0
273
     0
  0
XRECORD
  5
13E2E
102
{ACAD_REACTORS
330
13E2C
102
}
330
13E2C
100
AcDbXrecord
280
     1
270
     1
271
     1
  0
XRECORD
  5
13E2D
102
{ACAD_REACTORS
330
13E2C
102
}
330
13E2C
100
AcDbXrecord
280
     1
270
     1
271
     1
  0
XRECORD
  5
13E31
102
{ACAD_REACTORS
330
13E2C
102
}
330
13E2C
100
AcDbXrecord
280
     1
270
     1
271
     1
  0
XRECORD
  5
13E30
102
{ACAD_REACTORS
330
13E2C
102
}
330
13E2C
100
AcDbXrecord
280
     1
270
     1
271
     1
  0
XRECORD
  5
13E32
102
{ACAD_REACTORS
330
13E2C
102
}
330
13E2C
100
AcDbXrecord
280
     1
270
     1
271
     1
  0
XRECORD
  5
13E2F
102
{ACAD_REACTORS
330
13E2C
102
}
330
13E2C
100
AcDbXrecord
280
     1
270
     1
271
     1
  0
XRECORD
  5
15846
102
{ACAD_REACTORS
330
13E24
102
}
330
13E24
100
AcDbXrecord
280
     1
102
MATERIAL
148
0.0
149
0.0
149
0.0
 93
        0
 94
      127
282
     0
 72
     0
 77
     0
171
     0
175
     0
179
     0
273
     0
  0
XRECORD
  5
13E26
102
{ACAD_REACTORS
330
13E24
102
}
330
13E24
100
AcDbXrecord
280
     1
270
     1
271
     1
  0
XRECORD
  5
13E25
102
{ACAD_REACTORS
330
13E24
102
}
330
13E24
100
AcDbXrecord
280
     1
270
     1
271
     1
  0
XRECORD
  5
13E29
102
{ACAD_REACTORS
330
13E24
102
}
330
13E24
100
AcDbXrecord
280
     1
270
     1
271
     1
  0
XRECORD
  5
13E28
102
{ACAD_REACTORS
330
13E24
102
}
330
13E24
100
AcDbXrecord
280
     1
270
     1
271
     1
  0
XRECORD
  5
13E2A
102
{ACAD_REACTORS
330
13E24
102
}
330
13E24
100
AcDbXrecord
280
     1
270
     1
271
     1
  0
XRECORD
  5
13E27
102
{ACAD_REACTORS
330
13E24
102
}
330
13E24
100
AcDbXrecord
280
     1
270
     1
271
     1
  0
XRECORD
  5
15848
102
{ACAD_REACTORS
330
13E34
102
}
330
13E34
100
AcDbXrecord
280
     1
102
MATERIAL
148
0.0
149
0.0
149
0.0
 93
        0
 94
      127
282
     0
 72
     0
 77
     0
171
     0
175
     0
179
     0
273
     0
  0
XRECORD
  5
13E36
102
{ACAD_REACTORS
330
13E34
102
}
330
13E34
100
AcDbXrecord
280
     1
270
     1
271
     1
  0
XRECORD
  5
13E35
102
{ACAD_REACTORS
330
13E34
102
}
330
13E34
100
AcDbXrecord
280
     1
270
     1
271
     1
  0
XRECORD
  5
13E39
102
{ACAD_REACTORS
330
13E34
102
}
330
13E34
100
AcDbXrecord
280
     1
270
     1
271
     1
  0
XRECORD
  5
13E38
102
{ACAD_REACTORS
330
13E34
102
}
330
13E34
100
AcDbXrecord
280
     1
270
     1
271
     1
  0
XRECORD
  5
13E3A
102
{ACAD_REACTORS
330
13E34
102
}
330
13E34
100
AcDbXrecord
280
     1
270
     1
271
     1
  0
XRECORD
  5
13E37
102
{ACAD_REACTORS
330
13E34
102
}
330
13E34
100
AcDbXrecord
280
     1
270
     1
271
     1
  0
XRECORD
  5
1587B
102
{ACAD_REACTORS
330
1587A
102
}
330
1587A
100
AcDbXrecord
280
     1
102
ACAD_ROUNDTRIP_2012_MLEADER_STYLE
298
     1
  0
XRECORD
  5
1587D
102
{ACAD_REACTORS
330
1587C
102
}
330
1587C
100
AcDbXrecord
280
     1
102
DISPLAYNAME
  1
Metric50
102
FLAGS
 90
        0
  0
CELLSTYLEMAP
  5
1583F
102
{ACAD_REACTORS
330
15791
102
}
330
15791
100
AcDbCellStyleMap
 90
        3
300
CELLSTYLE
  1
TABLEFORMAT_BEGIN
 90
        5
170
     1
 91
        0
 92
    32768
 62
   257
 93
        1
300
CONTENTFORMAT
  1
CONTENTFORMAT_BEGIN
 90
        0
 91
        0
 92
      512
 93
        0
300

 40
0.0
140
1.0
 94
        5
 62
     0
340
7475
144
6.0
309
CONTENTFORMAT_END
171
     1
301
MARGIN
  1
CELLMARGIN_BEGIN
 40
1.5
 40
1.5
 40
1.5
 40
1.5
 40
4.5
 40
4.5
309
CELLMARGIN_END
 94
        6
 95
        1
302
GRIDFORMAT
  1
GRIDFORMAT_BEGIN
 90
        0
 91
        1
 62
     0
 92
       -2
340
0
 93
        0
 40
1.125
309
GRIDFORMAT_END
 95
        2
302
GRIDFORMAT
  1
GRIDFORMAT_BEGIN
 90
        0
 91
        1
 62
     0
 92
       -2
340
0
 93
        0
 40
1.125
309
GRIDFORMAT_END
 95
        4
302
GRIDFORMAT
  1
GRIDFORMAT_BEGIN
 90
        0
 91
        1
 62
     0
 92
       -2
340
0
 93
        0
 40
1.125
309
GRIDFORMAT_END
 95
        8
302
GRIDFORMAT
  1
GRIDFORMAT_BEGIN
 90
        0
 91
        1
 62
     0
 92
       -2
340
0
 93
        0
 40
1.125
309
GRIDFORMAT_END
 95
       16
302
GRIDFORMAT
  1
GRIDFORMAT_BEGIN
 90
        0
 91
        1
 62
     0
 92
       -2
340
0
 93
        0
 40
1.125
309
GRIDFORMAT_END
 95
       32
302
GRIDFORMAT
  1
GRIDFORMAT_BEGIN
 90
        0
 91
        1
 62
     0
 92
       -2
340
0
 93
        0
 40
1.125
309
GRIDFORMAT_END
309
TABLEFORMAT_END
  1
CELLSTYLE_BEGIN
 90
        1
 91
        1
300
_TITLE
309
CELLSTYLE_END
300
CELLSTYLE
  1
TABLEFORMAT_BEGIN
 90
        5
170
     1
 91
        0
 92
        0
 62
   257
 93
        1
300
CONTENTFORMAT
  1
CONTENTFORMAT_BEGIN
 90
        0
 91
        0
 92
      512
 93
        0
300

 40
0.0
140
1.0
 94
        5
 62
     0
340
7475
144
4.5
309
CONTENTFORMAT_END
171
     1
301
MARGIN
  1
CELLMARGIN_BEGIN
 40
1.5
 40
1.5
 40
1.5
 40
1.5
 40
4.5
 40
4.5
309
CELLMARGIN_END
 94
        6
 95
        1
302
GRIDFORMAT
  1
GRIDFORMAT_BEGIN
 90
        0
 91
        1
 62
     0
 92
       -2
340
0
 93
        0
 40
1.125
309
GRIDFORMAT_END
 95
        2
302
GRIDFORMAT
  1
GRIDFORMAT_BEGIN
 90
        0
 91
        1
 62
     0
 92
       -2
340
0
 93
        0
 40
1.125
309
GRIDFORMAT_END
 95
        4
302
GRIDFORMAT
  1
GRIDFORMAT_BEGIN
 90
        0
 91
        1
 62
     0
 92
       -2
340
0
 93
        0
 40
1.125
309
GRIDFORMAT_END
 95
        8
302
GRIDFORMAT
  1
GRIDFORMAT_BEGIN
 90
        0
 91
        1
 62
     0
 92
       -2
340
0
 93
        0
 40
1.125
309
GRIDFORMAT_END
 95
       16
302
GRIDFORMAT
  1
GRIDFORMAT_BEGIN
 90
        0
 91
        1
 62
     0
 92
       -2
340
0
 93
        0
 40
1.125
309
GRIDFORMAT_END
 95
       32
302
GRIDFORMAT
  1
GRIDFORMAT_BEGIN
 90
        0
 91
        1
 62
     0
 92
       -2
340
0
 93
        0
 40
1.125
309
GRIDFORMAT_END
309
TABLEFORMAT_END
  1
CELLSTYLE_BEGIN
 90
        2
 91
        1
300
_HEADER
309
CELLSTYLE_END
300
CELLSTYLE
  1
TABLEFORMAT_BEGIN
 90
        5
170
     1
 91
        0
 92
        0
 62
   257
 93
        1
300
CONTENTFORMAT
  1
CONTENTFORMAT_BEGIN
 90
        0
 91
        0
 92
      512
 93
        0
300

 40
0.0
140
1.0
 94
        2
 62
     0
340
7475
144
4.5
309
CONTENTFORMAT_END
171
     1
301
MARGIN
  1
CELLMARGIN_BEGIN
 40
1.5
 40
1.5
 40
1.5
 40
1.5
 40
4.5
 40
4.5
309
CELLMARGIN_END
 94
        6
 95
        1
302
GRIDFORMAT
  1
GRIDFORMAT_BEGIN
 90
        0
 91
        1
 62
     0
 92
       -2
340
0
 93
        0
 40
1.125
309
GRIDFORMAT_END
 95
        2
302
GRIDFORMAT
  1
GRIDFORMAT_BEGIN
 90
        0
 91
        1
 62
     0
 92
       -2
340
0
 93
        0
 40
1.125
309
GRIDFORMAT_END
 95
        4
302
GRIDFORMAT
  1
GRIDFORMAT_BEGIN
 90
        0
 91
        1
 62
     0
 92
       -2
340
0
 93
        0
 40
1.125
309
GRIDFORMAT_END
 95
        8
302
GRIDFORMAT
  1
GRIDFORMAT_BEGIN
 90
        0
 91
        1
 62
     0
 92
       -2
340
0
 93
        0
 40
1.125
309
GRIDFORMAT_END
 95
       16
302
GRIDFORMAT
  1
GRIDFORMAT_BEGIN
 90
        0
 91
        1
 62
     0
 92
       -2
340
0
 93
        0
 40
1.125
309
GRIDFORMAT_END
 95
       32
302
GRIDFORMAT
  1
GRIDFORMAT_BEGIN
 90
        0
 91
        1
 62
     0
 92
       -2
340
0
 93
        0
 40
1.125
309
GRIDFORMAT_END
309
TABLEFORMAT_END
  1
CELLSTYLE_BEGIN
 90
        3
 91
        2
300
_DATA
309
CELLSTYLE_END
  0
XRECORD
  5
15879
102
{ACAD_REACTORS
330
15791
102
}
330
15791
100
AcDbXrecord
280
     1
102
ACAD_ROUNDTRIP_PRE2007_TABLESTYLE
 90
      512
 91
        0
  1

 92
      512
 93
        0
  2

 94
      512
 95
        0
  3

  0
XRECORD
  5
15854
102
{ACAD_REACTORS
330
15853
102
}
330
15853
100
AcDbXrecord
280
     1
102
RTVSPost2010Prop28
280
     1
102
RTVSPost2010PropOp28
 70
     1
102
RTVSPost2010Prop29
280
     1
102
RTVSPost2010PropOp29
 70
     1
102
RTVSPost2010Prop30
280
     0
102
RTVSPost2010PropOp30
 70
     1
102
RTVSPost2010Prop31
280
     0
102
RTVSPost2010PropOp31
 70
     1
102
RTVSPost2010Prop32
280
     0
102
RTVSPost2010PropOp32
 70
     1
102
RTVSPost2010Prop33
280
     0
102
RTVSPost2010PropOp33
 70
     1
102
RTVSPost2010Prop34
280
     0
102
RTVSPost2010PropOp34
 70
     1
102
RTVSPost2010Prop35
280
     0
102
RTVSPost2010PropOp35
 70
     1
102
RTVSPost2010Prop36
280
     0
102
RTVSPost2010PropOp36
 70
     1
102
RTVSPost2010Prop37
 90
       50
102
RTVSPost2010PropOp37
 70
     1
102
RTVSPost2010Prop38
140
0.0
102
RTVSPost2010PropOp38
 70
     1
102
RTVSPost2010Prop39
140
1.0
102
RTVSPost2010PropOp39
 70
     1
102
RTVSPost2010Prop40
 90
        0
102
RTVSPost2010PropOp40
 70
     1
102
RTVSPost2010Prop41ColorIndex
 90
       18
102
RTVSPost2010Prop41ColorRGB
 90
        0
102
RTVSPost2010PropOp41
 70
     1
102
RTVSPost2010Prop42
 90
       50
102
RTVSPost2010PropOp42
 70
     1
102
RTVSPost2010Prop43
 90
        3
102
RTVSPost2010PropOp43
 70
     1
102
RTVSPost2010Prop44ColorIndex
 90
        5
102
RTVSPost2010Prop44ColorRGB
 90
      255
102
RTVSPost2010PropOp44
 70
     1
102
RTVSPost2010Prop45
280
     0
102
RTVSPost2010PropOp45
 70
     1
102
RTVSPost2010Prop46
 90
       50
102
RTVSPost2010PropOp46
 70
     1
102
RTVSPost2010Prop47
 90
       50
102
RTVSPost2010PropOp47
 70
     1
102
RTVSPost2010Prop48
 90
       50
102
RTVSPost2010PropOp48
 70
     1
102
RTVSPost2010Prop49
280
     0
102
RTVSPost2010PropOp49
 70
     1
102
RTVSPost2010Prop50
 90
       50
102
RTVSPost2010PropOp50
 70
     1
102
RTVSPost2010Prop51ColorIndex
 90
      256
102
RTVSPost2010Prop51ColorRGB
 90
-16777216
102
RTVSPost2010PropOp51
 70
     0
102
RTVSPost2010Prop52
140
1.0
102
RTVSPost2010PropOp52
 70
     0
102
RTVSPost2010Prop53
 90
        2
102
RTVSPost2010PropOp53
 70
     1
102
RTVSPost2010Prop54
  1
strokes_ogs.tif
102
RTVSPost2010PropOp54
 70
     1
102
RTVSPost2010Prop55
280
     0
102
RTVSPost2010PropOp55
 70
     1
102
RTVSPost2010Prop56
140
1.0
102
RTVSPost2010PropOp56
 70
     1
102
RTVSPost2010Prop57
140
1.0
102
RTVSPost2010PropOp57
 70
     1
102
RTVSPropertyOp0
 70
     1
102
RTVSPropertyOp1
 70
     1
102
RTVSPropertyOp2
 70
     1
102
RTVSPropertyOp3
 70
     1
102
RTVSPropertyOp4
 70
     1
102
RTVSPropertyOp5
 70
     1
102
RTVSPropertyOp6
 70
     1
102
RTVSPropertyOp7
 70
     1
102
RTVSPropertyOp8
 70
     1
102
RTVSPropertyOp9
 70
     1
102
RTVSPropertyOp10
 70
     1
102
RTVSPropertyOp11
 70
     1
102
RTVSPropertyOp12
 70
     1
102
RTVSPropertyOp13
 70
     1
102
RTVSPropertyOp14
 70
     1
102
RTVSPropertyOp15
 70
     1
102
RTVSPropertyOp16
 70
     1
102
RTVSPropertyOp17
 70
     1
102
RTVSPropertyOp18
 70
     1
102
RTVSPropertyOp19
 70
     1
102
RTVSPropertyOp20
 70
     1
102
RTVSPropertyOp21
 70
     1
102
RTVSPropertyOp22
 70
     1
102
RTVSPropertyOp23
 70
     1
102
RTVSPropertyOp24
 70
     1
102
RTVSPropertyOp25
 70
     1
102
RTVSPropertyOp26
 70
     1
102
RTVSPropertyOp27
 70
     1
102
RTVSPropertyOp28
 70
     1
102
RTVSPropertyOp29
 70
     1
102
RTVSPropertyOp30
 70
     1
102
RTVSPropertyOp31
 70
     1
102
RTVSPropertyOp32
 70
     1
102
RTVSPropertyOp33
 70
     1
102
RTVSPropertyOp34
 70
     1
102
RTVSPropertyOp35
 70
     1
102
RTVSPropertyOp36
 70
     1
102
RTVSPropertyOp37
 70
     1
102
RTVSPropertyOp38
 70
     1
102
RTVSPropertyOp39
 70
     1
102
RTVSPropertyOp40
 70
     1
102
RTVSPropertyOp41
 70
     1
102
RTVSPropertyOp42
 70
     1
102
RTVSPropertyOp43
 70
     1
102
RTVSPropertyOp44
 70
     1
102
RTVSPropertyOp45
 70
     1
102
RTVSPropertyOp46
 70
     1
102
RTVSPropertyOp47
 70
     1
102
RTVSPropertyOp48
 70
     1
102
RTVSPropertyOp49
 70
     1
102
RTVSPropertyOp50
 70
     1
102
RTVSPropertyOp51
 70
     0
102
RTVSPropertyOp52
 70
     0
102
RTVSPropertyOp53
 70
     1
102
RTVSPropertyOp54
 70
     1
102
RTVSPropertyOp55
 70
     1
102
RTVSPropertyOp56
 70
     1
102
RTVSPropertyOp57
 70
     1
102
RTVSPropertyOp58
 70
     1
102
RTVSPropertyOp59
 70
     1
102
RTVSPropertyOp60
 70
     1
102
RTVSPropertyOp61
 70
     1
102
RTVSPropertyOp62
 70
     1
  0
XRECORD
  5
15852
102
{ACAD_REACTORS
330
15851
102
}
330
15851
100
AcDbXrecord
280
     1
102
RTVSPost2010Prop28
280
     0
102
RTVSPost2010PropOp28
 70
     1
102
RTVSPost2010Prop29
280
     1
102
RTVSPost2010PropOp29
 70
     1
102
RTVSPost2010Prop30
280
     1
102
RTVSPost2010PropOp30
 70
     1
102
RTVSPost2010Prop31
280
     0
102
RTVSPost2010PropOp31
 70
     1
102
RTVSPost2010Prop32
280
     0
102
RTVSPost2010PropOp32
 70
     1
102
RTVSPost2010Prop33
280
     0
102
RTVSPost2010PropOp33
 70
     1
102
RTVSPost2010Prop34
280
     0
102
RTVSPost2010PropOp34
 70
     1
102
RTVSPost2010Prop35
280
     0
102
RTVSPost2010PropOp35
 70
     1
102
RTVSPost2010Prop36
280
     0
102
RTVSPost2010PropOp36
 70
     1
102
RTVSPost2010Prop37
 90
       50
102
RTVSPost2010PropOp37
 70
     1
102
RTVSPost2010Prop38
140
0.0
102
RTVSPost2010PropOp38
 70
     1
102
RTVSPost2010Prop39
140
1.0
102
RTVSPost2010PropOp39
 70
     1
102
RTVSPost2010Prop40
 90
        0
102
RTVSPost2010PropOp40
 70
     1
102
RTVSPost2010Prop41ColorIndex
 90
       18
102
RTVSPost2010Prop41ColorRGB
 90
        0
102
RTVSPost2010PropOp41
 70
     1
102
RTVSPost2010Prop42
 90
       50
102
RTVSPost2010PropOp42
 70
     1
102
RTVSPost2010Prop43
 90
        3
102
RTVSPost2010PropOp43
 70
     1
102
RTVSPost2010Prop44ColorIndex
 90
        5
102
RTVSPost2010Prop44ColorRGB
 90
      255
102
RTVSPost2010PropOp44
 70
     1
102
RTVSPost2010Prop45
280
     0
102
RTVSPost2010PropOp45
 70
     1
102
RTVSPost2010Prop46
 90
       50
102
RTVSPost2010PropOp46
 70
     1
102
RTVSPost2010Prop47
 90
       50
102
RTVSPost2010PropOp47
 70
     1
102
RTVSPost2010Prop48
 90
       50
102
RTVSPost2010PropOp48
 70
     1
102
RTVSPost2010Prop49
280
     0
102
RTVSPost2010PropOp49
 70
     1
102
RTVSPost2010Prop50
 90
       50
102
RTVSPost2010PropOp50
 70
     1
102
RTVSPost2010Prop51ColorIndex
 90
      256
102
RTVSPost2010Prop51ColorRGB
 90
-16777216
102
RTVSPost2010PropOp51
 70
     0
102
RTVSPost2010Prop52
140
1.0
102
RTVSPost2010PropOp52
 70
     0
102
RTVSPost2010Prop53
 90
        2
102
RTVSPost2010PropOp53
 70
     1
102
RTVSPost2010Prop54
  1
strokes_ogs.tif
102
RTVSPost2010PropOp54
 70
     1
102
RTVSPost2010Prop55
280
     0
102
RTVSPost2010PropOp55
 70
     1
102
RTVSPost2010Prop56
140
1.0
102
RTVSPost2010PropOp56
 70
     1
102
RTVSPost2010Prop57
140
1.0
102
RTVSPost2010PropOp57
 70
     1
102
RTVSPropertyOp0
 70
     1
102
RTVSPropertyOp1
 70
     1
102
RTVSPropertyOp2
 70
     1
102
RTVSPropertyOp3
 70
     1
102
RTVSPropertyOp4
 70
     1
102
RTVSPropertyOp5
 70
     1
102
RTVSPropertyOp6
 70
     1
102
RTVSPropertyOp7
 70
     1
102
RTVSPropertyOp8
 70
     1
102
RTVSPropertyOp9
 70
     1
102
RTVSPropertyOp10
 70
     1
102
RTVSPropertyOp11
 70
     1
102
RTVSPropertyOp12
 70
     1
102
RTVSPropertyOp13
 70
     1
102
RTVSPropertyOp14
 70
     1
102
RTVSPropertyOp15
 70
     1
102
RTVSPropertyOp16
 70
     1
102
RTVSPropertyOp17
 70
     1
102
RTVSPropertyOp18
 70
     1
102
RTVSPropertyOp19
 70
     1
102
RTVSPropertyOp20
 70
     1
102
RTVSPropertyOp21
 70
     1
102
RTVSPropertyOp22
 70
     1
102
RTVSPropertyOp23
 70
     1
102
RTVSPropertyOp24
 70
     1
102
RTVSPropertyOp25
 70
     1
102
RTVSPropertyOp26
 70
     1
102
RTVSPropertyOp27
 70
     1
102
RTVSPropertyOp28
 70
     1
102
RTVSPropertyOp29
 70
     1
102
RTVSPropertyOp30
 70
     1
102
RTVSPropertyOp31
 70
     1
102
RTVSPropertyOp32
 70
     1
102
RTVSPropertyOp33
 70
     1
102
RTVSPropertyOp34
 70
     1
102
RTVSPropertyOp35
 70
     1
102
RTVSPropertyOp36
 70
     1
102
RTVSPropertyOp37
 70
     1
102
RTVSPropertyOp38
 70
     1
102
RTVSPropertyOp39
 70
     1
102
RTVSPropertyOp40
 70
     1
102
RTVSPropertyOp41
 70
     1
102
RTVSPropertyOp42
 70
     1
102
RTVSPropertyOp43
 70
     1
102
RTVSPropertyOp44
 70
     1
102
RTVSPropertyOp45
 70
     1
102
RTVSPropertyOp46
 70
     1
102
RTVSPropertyOp47
 70
     1
102
RTVSPropertyOp48
 70
     1
102
RTVSPropertyOp49
 70
     1
102
RTVSPropertyOp50
 70
     1
102
RTVSPropertyOp51
 70
     0
102
RTVSPropertyOp52
 70
     0
102
RTVSPropertyOp53
 70
     1
102
RTVSPropertyOp54
 70
     1
102
RTVSPropertyOp55
 70
     1
102
RTVSPropertyOp56
 70
     1
102
RTVSPropertyOp57
 70
     1
102
RTVSPropertyOp58
 70
     1
102
RTVSPropertyOp59
 70
     1
102
RTVSPropertyOp60
 70
     1
102
RTVSPropertyOp61
 70
     1
102
RTVSPropertyOp62
 70
     1
  0
XRECORD
  5
15860
102
{ACAD_REACTORS
330
1585F
102
}
330
1585F
100
AcDbXrecord
280
     1
102
RTVSPost2010Prop28
280
     0
102
RTVSPost2010PropOp28
 70
     1
102
RTVSPost2010Prop29
280
     1
102
RTVSPost2010PropOp29
 70
     1
102
RTVSPost2010Prop30
280
     1
102
RTVSPost2010PropOp30
 70
     1
102
RTVSPost2010Prop31
280
     0
102
RTVSPost2010PropOp31
 70
     1
102
RTVSPost2010Prop32
280
     0
102
RTVSPost2010PropOp32
 70
     1
102
RTVSPost2010Prop33
280
     0
102
RTVSPost2010PropOp33
 70
     1
102
RTVSPost2010Prop34
280
     0
102
RTVSPost2010PropOp34
 70
     1
102
RTVSPost2010Prop35
280
     0
102
RTVSPost2010PropOp35
 70
     1
102
RTVSPost2010Prop36
280
     0
102
RTVSPost2010PropOp36
 70
     1
102
RTVSPost2010Prop37
 90
       50
102
RTVSPost2010PropOp37
 70
     1
102
RTVSPost2010Prop38
140
0.0
102
RTVSPost2010PropOp38
 70
     1
102
RTVSPost2010Prop39
140
1.0
102
RTVSPost2010PropOp39
 70
     1
102
RTVSPost2010Prop40
 90
        0
102
RTVSPost2010PropOp40
 70
     1
102
RTVSPost2010Prop41ColorIndex
 90
       18
102
RTVSPost2010Prop41ColorRGB
 90
        0
102
RTVSPost2010PropOp41
 70
     1
102
RTVSPost2010Prop42
 90
       50
102
RTVSPost2010PropOp42
 70
     1
102
RTVSPost2010Prop43
 90
        3
102
RTVSPost2010PropOp43
 70
     1
102
RTVSPost2010Prop44ColorIndex
 90
        5
102
RTVSPost2010Prop44ColorRGB
 90
      255
102
RTVSPost2010PropOp44
 70
     1
102
RTVSPost2010Prop45
280
     0
102
RTVSPost2010PropOp45
 70
     1
102
RTVSPost2010Prop46
 90
       50
102
RTVSPost2010PropOp46
 70
     1
102
RTVSPost2010Prop47
 90
       50
102
RTVSPost2010PropOp47
 70
     1
102
RTVSPost2010Prop48
 90
       50
102
RTVSPost2010PropOp48
 70
     1
102
RTVSPost2010Prop49
280
     0
102
RTVSPost2010PropOp49
 70
     1
102
RTVSPost2010Prop50
 90
       50
102
RTVSPost2010PropOp50
 70
     1
102
RTVSPost2010Prop51ColorIndex
 90
      256
102
RTVSPost2010Prop51ColorRGB
 90
-16777216
102
RTVSPost2010PropOp51
 70
     0
102
RTVSPost2010Prop52
140
1.0
102
RTVSPost2010PropOp52
 70
     0
102
RTVSPost2010Prop53
 90
        2
102
RTVSPost2010PropOp53
 70
     1
102
RTVSPost2010Prop54
  1
strokes_ogs.tif
102
RTVSPost2010PropOp54
 70
     1
102
RTVSPost2010Prop55
280
     0
102
RTVSPost2010PropOp55
 70
     1
102
RTVSPost2010Prop56
140
1.0
102
RTVSPost2010PropOp56
 70
     1
102
RTVSPost2010Prop57
140
1.0
102
RTVSPost2010PropOp57
 70
     1
102
RTVSPropertyOp0
 70
     1
102
RTVSPropertyOp1
 70
     1
102
RTVSPropertyOp2
 70
     1
102
RTVSPropertyOp3
 70
     1
102
RTVSPropertyOp4
 70
     1
102
RTVSPropertyOp5
 70
     1
102
RTVSPropertyOp6
 70
     1
102
RTVSPropertyOp7
 70
     1
102
RTVSPropertyOp8
 70
     1
102
RTVSPropertyOp9
 70
     1
102
RTVSPropertyOp10
 70
     1
102
RTVSPropertyOp11
 70
     1
102
RTVSPropertyOp12
 70
     1
102
RTVSPropertyOp13
 70
     1
102
RTVSPropertyOp14
 70
     1
102
RTVSPropertyOp15
 70
     1
102
RTVSPropertyOp16
 70
     1
102
RTVSPropertyOp17
 70
     1
102
RTVSPropertyOp18
 70
     1
102
RTVSPropertyOp19
 70
     1
102
RTVSPropertyOp20
 70
     1
102
RTVSPropertyOp21
 70
     1
102
RTVSPropertyOp22
 70
     1
102
RTVSPropertyOp23
 70
     1
102
RTVSPropertyOp24
 70
     1
102
RTVSPropertyOp25
 70
     1
102
RTVSPropertyOp26
 70
     1
102
RTVSPropertyOp27
 70
     1
102
RTVSPropertyOp28
 70
     1
102
RTVSPropertyOp29
 70
     1
102
RTVSPropertyOp30
 70
     1
102
RTVSPropertyOp31
 70
     1
102
RTVSPropertyOp32
 70
     1
102
RTVSPropertyOp33
 70
     1
102
RTVSPropertyOp34
 70
     1
102
RTVSPropertyOp35
 70
     1
102
RTVSPropertyOp36
 70
     1
102
RTVSPropertyOp37
 70
     1
102
RTVSPropertyOp38
 70
     1
102
RTVSPropertyOp39
 70
     1
102
RTVSPropertyOp40
 70
     1
102
RTVSPropertyOp41
 70
     1
102
RTVSPropertyOp42
 70
     1
102
RTVSPropertyOp43
 70
     1
102
RTVSPropertyOp44
 70
     1
102
RTVSPropertyOp45
 70
     1
102
RTVSPropertyOp46
 70
     1
102
RTVSPropertyOp47
 70
     1
102
RTVSPropertyOp48
 70
     1
102
RTVSPropertyOp49
 70
     1
102
RTVSPropertyOp50
 70
     1
102
RTVSPropertyOp51
 70
     0
102
RTVSPropertyOp52
 70
     0
102
RTVSPropertyOp53
 70
     1
102
RTVSPropertyOp54
 70
     1
102
RTVSPropertyOp55
 70
     1
102
RTVSPropertyOp56
 70
     1
102
RTVSPropertyOp57
 70
     1
102
RTVSPropertyOp58
 70
     1
102
RTVSPropertyOp59
 70
     1
102
RTVSPropertyOp60
 70
     1
102
RTVSPropertyOp61
 70
     1
102
RTVSPropertyOp62
 70
     1
  0
XRECORD
  5
15868
102
{ACAD_REACTORS
330
15867
102
}
330
15867
100
AcDbXrecord
280
     1
102
RTVSPost2010Prop28
280
     0
102
RTVSPost2010PropOp28
 70
     1
102
RTVSPost2010Prop29
280
     1
102
RTVSPost2010PropOp29
 70
     1
102
RTVSPost2010Prop30
280
     1
102
RTVSPost2010PropOp30
 70
     1
102
RTVSPost2010Prop31
280
     0
102
RTVSPost2010PropOp31
 70
     1
102
RTVSPost2010Prop32
280
     0
102
RTVSPost2010PropOp32
 70
     1
102
RTVSPost2010Prop33
280
     0
102
RTVSPost2010PropOp33
 70
     1
102
RTVSPost2010Prop34
280
     0
102
RTVSPost2010PropOp34
 70
     1
102
RTVSPost2010Prop35
280
     0
102
RTVSPost2010PropOp35
 70
     1
102
RTVSPost2010Prop36
280
     0
102
RTVSPost2010PropOp36
 70
     1
102
RTVSPost2010Prop37
 90
       50
102
RTVSPost2010PropOp37
 70
     1
102
RTVSPost2010Prop38
140
0.0
102
RTVSPost2010PropOp38
 70
     1
102
RTVSPost2010Prop39
140
1.0
102
RTVSPost2010PropOp39
 70
     1
102
RTVSPost2010Prop40
 90
        0
102
RTVSPost2010PropOp40
 70
     1
102
RTVSPost2010Prop41ColorIndex
 90
       18
102
RTVSPost2010Prop41ColorRGB
 90
        0
102
RTVSPost2010PropOp41
 70
     1
102
RTVSPost2010Prop42
 90
       50
102
RTVSPost2010PropOp42
 70
     1
102
RTVSPost2010Prop43
 90
        3
102
RTVSPost2010PropOp43
 70
     1
102
RTVSPost2010Prop44ColorIndex
 90
        5
102
RTVSPost2010Prop44ColorRGB
 90
      255
102
RTVSPost2010PropOp44
 70
     1
102
RTVSPost2010Prop45
280
     0
102
RTVSPost2010PropOp45
 70
     1
102
RTVSPost2010Prop46
 90
       50
102
RTVSPost2010PropOp46
 70
     1
102
RTVSPost2010Prop47
 90
       50
102
RTVSPost2010PropOp47
 70
     1
102
RTVSPost2010Prop48
 90
       50
102
RTVSPost2010PropOp48
 70
     1
102
RTVSPost2010Prop49
280
     0
102
RTVSPost2010PropOp49
 70
     1
102
RTVSPost2010Prop50
 90
       50
102
RTVSPost2010PropOp50
 70
     1
102
RTVSPost2010Prop51ColorIndex
 90
      256
102
RTVSPost2010Prop51ColorRGB
 90
-16777216
102
RTVSPost2010PropOp51
 70
     0
102
RTVSPost2010Prop52
140
1.0
102
RTVSPost2010PropOp52
 70
     0
102
RTVSPost2010Prop53
 90
        2
102
RTVSPost2010PropOp53
 70
     1
102
RTVSPost2010Prop54
  1
strokes_ogs.tif
102
RTVSPost2010PropOp54
 70
     1
102
RTVSPost2010Prop55
280
     0
102
RTVSPost2010PropOp55
 70
     1
102
RTVSPost2010Prop56
140
1.0
102
RTVSPost2010PropOp56
 70
     1
102
RTVSPost2010Prop57
140
1.0
102
RTVSPost2010PropOp57
 70
     1
102
RTVSPropertyOp0
 70
     1
102
RTVSPropertyOp1
 70
     1
102
RTVSPropertyOp2
 70
     1
102
RTVSPropertyOp3
 70
     1
102
RTVSPropertyOp4
 70
     1
102
RTVSPropertyOp5
 70
     1
102
RTVSPropertyOp6
 70
     1
102
RTVSPropertyOp7
 70
     1
102
RTVSPropertyOp8
 70
     1
102
RTVSPropertyOp9
 70
     1
102
RTVSPropertyOp10
 70
     1
102
RTVSPropertyOp11
 70
     1
102
RTVSPropertyOp12
 70
     1
102
RTVSPropertyOp13
 70
     1
102
RTVSPropertyOp14
 70
     1
102
RTVSPropertyOp15
 70
     1
102
RTVSPropertyOp16
 70
     1
102
RTVSPropertyOp17
 70
     1
102
RTVSPropertyOp18
 70
     1
102
RTVSPropertyOp19
 70
     1
102
RTVSPropertyOp20
 70
     1
102
RTVSPropertyOp21
 70
     1
102
RTVSPropertyOp22
 70
     1
102
RTVSPropertyOp23
 70
     1
102
RTVSPropertyOp24
 70
     1
102
RTVSPropertyOp25
 70
     1
102
RTVSPropertyOp26
 70
     1
102
RTVSPropertyOp27
 70
     1
102
RTVSPropertyOp28
 70
     1
102
RTVSPropertyOp29
 70
     1
102
RTVSPropertyOp30
 70
     1
102
RTVSPropertyOp31
 70
     1
102
RTVSPropertyOp32
 70
     1
102
RTVSPropertyOp33
 70
     1
102
RTVSPropertyOp34
 70
     1
102
RTVSPropertyOp35
 70
     1
102
RTVSPropertyOp36
 70
     1
102
RTVSPropertyOp37
 70
     1
102
RTVSPropertyOp38
 70
     1
102
RTVSPropertyOp39
 70
     1
102
RTVSPropertyOp40
 70
     1
102
RTVSPropertyOp41
 70
     1
102
RTVSPropertyOp42
 70
     1
102
RTVSPropertyOp43
 70
     1
102
RTVSPropertyOp44
 70
     1
102
RTVSPropertyOp45
 70
     1
102
RTVSPropertyOp46
 70
     1
102
RTVSPropertyOp47
 70
     1
102
RTVSPropertyOp48
 70
     1
102
RTVSPropertyOp49
 70
     1
102
RTVSPropertyOp50
 70
     1
102
RTVSPropertyOp51
 70
     0
102
RTVSPropertyOp52
 70
     0
102
RTVSPropertyOp53
 70
     1
102
RTVSPropertyOp54
 70
     1
102
RTVSPropertyOp55
 70
     1
102
RTVSPropertyOp56
 70
     1
102
RTVSPropertyOp57
 70
     1
102
RTVSPropertyOp58
 70
     1
102
RTVSPropertyOp59
 70
     1
102
RTVSPropertyOp60
 70
     1
102
RTVSPropertyOp61
 70
     1
102
RTVSPropertyOp62
 70
     1
  0
XRECORD
  5
1585A
102
{ACAD_REACTORS
330
15859
102
}
330
15859
100
AcDbXrecord
280
     1
102
RTVSPost2010Prop28
280
     0
102
RTVSPost2010PropOp28
 70
     1
102
RTVSPost2010Prop29
280
     1
102
RTVSPost2010PropOp29
 70
     1
102
RTVSPost2010Prop30
280
     1
102
RTVSPost2010PropOp30
 70
     1
102
RTVSPost2010Prop31
280
     0
102
RTVSPost2010PropOp31
 70
     1
102
RTVSPost2010Prop32
280
     0
102
RTVSPost2010PropOp32
 70
     1
102
RTVSPost2010Prop33
280
     0
102
RTVSPost2010PropOp33
 70
     1
102
RTVSPost2010Prop34
280
     0
102
RTVSPost2010PropOp34
 70
     1
102
RTVSPost2010Prop35
280
     0
102
RTVSPost2010PropOp35
 70
     1
102
RTVSPost2010Prop36
280
     0
102
RTVSPost2010PropOp36
 70
     1
102
RTVSPost2010Prop37
 90
       50
102
RTVSPost2010PropOp37
 70
     1
102
RTVSPost2010Prop38
140
0.0
102
RTVSPost2010PropOp38
 70
     1
102
RTVSPost2010Prop39
140
1.0
102
RTVSPost2010PropOp39
 70
     1
102
RTVSPost2010Prop40
 90
        0
102
RTVSPost2010PropOp40
 70
     1
102
RTVSPost2010Prop41ColorIndex
 90
       18
102
RTVSPost2010Prop41ColorRGB
 90
        0
102
RTVSPost2010PropOp41
 70
     1
102
RTVSPost2010Prop42
 90
       50
102
RTVSPost2010PropOp42
 70
     1
102
RTVSPost2010Prop43
 90
        3
102
RTVSPost2010PropOp43
 70
     1
102
RTVSPost2010Prop44ColorIndex
 90
        5
102
RTVSPost2010Prop44ColorRGB
 90
      255
102
RTVSPost2010PropOp44
 70
     1
102
RTVSPost2010Prop45
280
     0
102
RTVSPost2010PropOp45
 70
     1
102
RTVSPost2010Prop46
 90
       50
102
RTVSPost2010PropOp46
 70
     1
102
RTVSPost2010Prop47
 90
       50
102
RTVSPost2010PropOp47
 70
     1
102
RTVSPost2010Prop48
 90
       50
102
RTVSPost2010PropOp48
 70
     1
102
RTVSPost2010Prop49
280
     0
102
RTVSPost2010PropOp49
 70
     1
102
RTVSPost2010Prop50
 90
       50
102
RTVSPost2010PropOp50
 70
     1
102
RTVSPost2010Prop51ColorIndex
 90
      256
102
RTVSPost2010Prop51ColorRGB
 90
-16777216
102
RTVSPost2010PropOp51
 70
     0
102
RTVSPost2010Prop52
140
1.0
102
RTVSPost2010PropOp52
 70
     0
102
RTVSPost2010Prop53
 90
        2
102
RTVSPost2010PropOp53
 70
     1
102
RTVSPost2010Prop54
  1
strokes_ogs.tif
102
RTVSPost2010PropOp54
 70
     1
102
RTVSPost2010Prop55
280
     0
102
RTVSPost2010PropOp55
 70
     1
102
RTVSPost2010Prop56
140
1.0
102
RTVSPost2010PropOp56
 70
     1
102
RTVSPost2010Prop57
140
1.0
102
RTVSPost2010PropOp57
 70
     1
102
RTVSPropertyOp0
 70
     1
102
RTVSPropertyOp1
 70
     1
102
RTVSPropertyOp2
 70
     1
102
RTVSPropertyOp3
 70
     1
102
RTVSPropertyOp4
 70
     1
102
RTVSPropertyOp5
 70
     1
102
RTVSPropertyOp6
 70
     1
102
RTVSPropertyOp7
 70
     1
102
RTVSPropertyOp8
 70
     1
102
RTVSPropertyOp9
 70
     1
102
RTVSPropertyOp10
 70
     1
102
RTVSPropertyOp11
 70
     1
102
RTVSPropertyOp12
 70
     1
102
RTVSPropertyOp13
 70
     1
102
RTVSPropertyOp14
 70
     1
102
RTVSPropertyOp15
 70
     1
102
RTVSPropertyOp16
 70
     1
102
RTVSPropertyOp17
 70
     1
102
RTVSPropertyOp18
 70
     1
102
RTVSPropertyOp19
 70
     1
102
RTVSPropertyOp20
 70
     1
102
RTVSPropertyOp21
 70
     1
102
RTVSPropertyOp22
 70
     1
102
RTVSPropertyOp23
 70
     1
102
RTVSPropertyOp24
 70
     1
102
RTVSPropertyOp25
 70
     1
102
RTVSPropertyOp26
 70
     1
102
RTVSPropertyOp27
 70
     1
102
RTVSPropertyOp28
 70
     1
102
RTVSPropertyOp29
 70
     1
102
RTVSPropertyOp30
 70
     1
102
RTVSPropertyOp31
 70
     1
102
RTVSPropertyOp32
 70
     1
102
RTVSPropertyOp33
 70
     1
102
RTVSPropertyOp34
 70
     1
102
RTVSPropertyOp35
 70
     1
102
RTVSPropertyOp36
 70
     1
102
RTVSPropertyOp37
 70
     1
102
RTVSPropertyOp38
 70
     1
102
RTVSPropertyOp39
 70
     1
102
RTVSPropertyOp40
 70
     1
102
RTVSPropertyOp41
 70
     1
102
RTVSPropertyOp42
 70
     1
102
RTVSPropertyOp43
 70
     1
102
RTVSPropertyOp44
 70
     1
102
RTVSPropertyOp45
 70
     1
102
RTVSPropertyOp46
 70
     1
102
RTVSPropertyOp47
 70
     1
102
RTVSPropertyOp48
 70
     1
102
RTVSPropertyOp49
 70
     1
102
RTVSPropertyOp50
 70
     1
102
RTVSPropertyOp51
 70
     0
102
RTVSPropertyOp52
 70
     0
102
RTVSPropertyOp53
 70
     1
102
RTVSPropertyOp54
 70
     1
102
RTVSPropertyOp55
 70
     1
102
RTVSPropertyOp56
 70
     1
102
RTVSPropertyOp57
 70
     1
102
RTVSPropertyOp58
 70
     1
102
RTVSPropertyOp59
 70
     1
102
RTVSPropertyOp60
 70
     1
102
RTVSPropertyOp61
 70
     1
102
RTVSPropertyOp62
 70
     1
  0
XRECORD
  5
1585E
102
{ACAD_REACTORS
330
1585D
102
}
330
1585D
100
AcDbXrecord
280
     1
102
RTVSPost2010Prop28
280
     0
102
RTVSPost2010PropOp28
 70
     1
102
RTVSPost2010Prop29
280
     1
102
RTVSPost2010PropOp29
 70
     1
102
RTVSPost2010Prop30
280
     1
102
RTVSPost2010PropOp30
 70
     1
102
RTVSPost2010Prop31
280
     0
102
RTVSPost2010PropOp31
 70
     1
102
RTVSPost2010Prop32
280
     0
102
RTVSPost2010PropOp32
 70
     1
102
RTVSPost2010Prop33
280
     0
102
RTVSPost2010PropOp33
 70
     1
102
RTVSPost2010Prop34
280
     0
102
RTVSPost2010PropOp34
 70
     1
102
RTVSPost2010Prop35
280
     0
102
RTVSPost2010PropOp35
 70
     1
102
RTVSPost2010Prop36
280
     0
102
RTVSPost2010PropOp36
 70
     1
102
RTVSPost2010Prop37
 90
       50
102
RTVSPost2010PropOp37
 70
     1
102
RTVSPost2010Prop38
140
0.0
102
RTVSPost2010PropOp38
 70
     1
102
RTVSPost2010Prop39
140
1.0
102
RTVSPost2010PropOp39
 70
     1
102
RTVSPost2010Prop40
 90
        0
102
RTVSPost2010PropOp40
 70
     1
102
RTVSPost2010Prop41ColorIndex
 90
       18
102
RTVSPost2010Prop41ColorRGB
 90
        0
102
RTVSPost2010PropOp41
 70
     1
102
RTVSPost2010Prop42
 90
       50
102
RTVSPost2010PropOp42
 70
     1
102
RTVSPost2010Prop43
 90
        3
102
RTVSPost2010PropOp43
 70
     1
102
RTVSPost2010Prop44ColorIndex
 90
        5
102
RTVSPost2010Prop44ColorRGB
 90
      255
102
RTVSPost2010PropOp44
 70
     1
102
RTVSPost2010Prop45
280
     0
102
RTVSPost2010PropOp45
 70
     1
102
RTVSPost2010Prop46
 90
       50
102
RTVSPost2010PropOp46
 70
     1
102
RTVSPost2010Prop47
 90
       50
102
RTVSPost2010PropOp47
 70
     1
102
RTVSPost2010Prop48
 90
       50
102
RTVSPost2010PropOp48
 70
     1
102
RTVSPost2010Prop49
280
     0
102
RTVSPost2010PropOp49
 70
     1
102
RTVSPost2010Prop50
 90
       50
102
RTVSPost2010PropOp50
 70
     1
102
RTVSPost2010Prop51ColorIndex
 90
      256
102
RTVSPost2010Prop51ColorRGB
 90
-16777216
102
RTVSPost2010PropOp51
 70
     0
102
RTVSPost2010Prop52
140
1.0
102
RTVSPost2010PropOp52
 70
     0
102
RTVSPost2010Prop53
 90
        2
102
RTVSPost2010PropOp53
 70
     1
102
RTVSPost2010Prop54
  1
strokes_ogs.tif
102
RTVSPost2010PropOp54
 70
     1
102
RTVSPost2010Prop55
280
     0
102
RTVSPost2010PropOp55
 70
     1
102
RTVSPost2010Prop56
140
1.0
102
RTVSPost2010PropOp56
 70
     1
102
RTVSPost2010Prop57
140
1.0
102
RTVSPost2010PropOp57
 70
     1
102
RTVSPropertyOp0
 70
     1
102
RTVSPropertyOp1
 70
     1
102
RTVSPropertyOp2
 70
     1
102
RTVSPropertyOp3
 70
     1
102
RTVSPropertyOp4
 70
     1
102
RTVSPropertyOp5
 70
     1
102
RTVSPropertyOp6
 70
     1
102
RTVSPropertyOp7
 70
     1
102
RTVSPropertyOp8
 70
     1
102
RTVSPropertyOp9
 70
     1
102
RTVSPropertyOp10
 70
     1
102
RTVSPropertyOp11
 70
     1
102
RTVSPropertyOp12
 70
     1
102
RTVSPropertyOp13
 70
     1
102
RTVSPropertyOp14
 70
     1
102
RTVSPropertyOp15
 70
     1
102
RTVSPropertyOp16
 70
     1
102
RTVSPropertyOp17
 70
     1
102
RTVSPropertyOp18
 70
     1
102
RTVSPropertyOp19
 70
     1
102
RTVSPropertyOp20
 70
     1
102
RTVSPropertyOp21
 70
     1
102
RTVSPropertyOp22
 70
     1
102
RTVSPropertyOp23
 70
     1
102
RTVSPropertyOp24
 70
     1
102
RTVSPropertyOp25
 70
     1
102
RTVSPropertyOp26
 70
     1
102
RTVSPropertyOp27
 70
     1
102
RTVSPropertyOp28
 70
     1
102
RTVSPropertyOp29
 70
     1
102
RTVSPropertyOp30
 70
     1
102
RTVSPropertyOp31
 70
     1
102
RTVSPropertyOp32
 70
     1
102
RTVSPropertyOp33
 70
     1
102
RTVSPropertyOp34
 70
     1
102
RTVSPropertyOp35
 70
     1
102
RTVSPropertyOp36
 70
     1
102
RTVSPropertyOp37
 70
     1
102
RTVSPropertyOp38
 70
     1
102
RTVSPropertyOp39
 70
     1
102
RTVSPropertyOp40
 70
     1
102
RTVSPropertyOp41
 70
     1
102
RTVSPropertyOp42
 70
     1
102
RTVSPropertyOp43
 70
     1
102
RTVSPropertyOp44
 70
     1
102
RTVSPropertyOp45
 70
     1
102
RTVSPropertyOp46
 70
     1
102
RTVSPropertyOp47
 70
     1
102
RTVSPropertyOp48
 70
     1
102
RTVSPropertyOp49
 70
     1
102
RTVSPropertyOp50
 70
     1
102
RTVSPropertyOp51
 70
     0
102
RTVSPropertyOp52
 70
     0
102
RTVSPropertyOp53
 70
     1
102
RTVSPropertyOp54
 70
     1
102
RTVSPropertyOp55
 70
     1
102
RTVSPropertyOp56
 70
     1
102
RTVSPropertyOp57
 70
     1
102
RTVSPropertyOp58
 70
     1
102
RTVSPropertyOp59
 70
     1
102
RTVSPropertyOp60
 70
     1
102
RTVSPropertyOp61
 70
     1
102
RTVSPropertyOp62
 70
     1
  0
XRECORD
  5
15878
102
{ACAD_REACTORS
330
15877
102
}
330
15877
100
AcDbXrecord
280
     1
102
RTVSPost2010Prop28
280
     0
102
RTVSPost2010PropOp28
 70
     0
102
RTVSPost2010Prop29
280
     1
102
RTVSPost2010PropOp29
 70
     0
102
RTVSPost2010Prop30
280
     1
102
RTVSPost2010PropOp30
 70
     0
102
RTVSPost2010Prop31
280
     0
102
RTVSPost2010PropOp31
 70
     0
102
RTVSPost2010Prop32
280
     0
102
RTVSPost2010PropOp32
 70
     0
102
RTVSPost2010Prop33
280
     0
102
RTVSPost2010PropOp33
 70
     0
102
RTVSPost2010Prop34
280
     0
102
RTVSPost2010PropOp34
 70
     0
102
RTVSPost2010Prop35
280
     0
102
RTVSPost2010PropOp35
 70
     0
102
RTVSPost2010Prop36
280
     0
102
RTVSPost2010PropOp36
 70
     0
102
RTVSPost2010Prop37
 90
       50
102
RTVSPost2010PropOp37
 70
     0
102
RTVSPost2010Prop38
140
0.0
102
RTVSPost2010PropOp38
 70
     0
102
RTVSPost2010Prop39
140
1.0
102
RTVSPost2010PropOp39
 70
     0
102
RTVSPost2010Prop40
 90
        0
102
RTVSPost2010PropOp40
 70
     0
102
RTVSPost2010Prop41ColorIndex
 90
       18
102
RTVSPost2010Prop41ColorRGB
 90
        0
102
RTVSPost2010PropOp41
 70
     0
102
RTVSPost2010Prop42
 90
       50
102
RTVSPost2010PropOp42
 70
     0
102
RTVSPost2010Prop43
 90
        3
102
RTVSPost2010PropOp43
 70
     0
102
RTVSPost2010Prop44ColorIndex
 90
        5
102
RTVSPost2010Prop44ColorRGB
 90
      255
102
RTVSPost2010PropOp44
 70
     0
102
RTVSPost2010Prop45
280
     0
102
RTVSPost2010PropOp45
 70
     0
102
RTVSPost2010Prop46
 90
       50
102
RTVSPost2010PropOp46
 70
     0
102
RTVSPost2010Prop47
 90
       50
102
RTVSPost2010PropOp47
 70
     0
102
RTVSPost2010Prop48
 90
       50
102
RTVSPost2010PropOp48
 70
     0
102
RTVSPost2010Prop49
280
     0
102
RTVSPost2010PropOp49
 70
     0
102
RTVSPost2010Prop50
 90
       50
102
RTVSPost2010PropOp50
 70
     0
102
RTVSPost2010Prop51ColorIndex
 90
      256
102
RTVSPost2010Prop51ColorRGB
 90
-16777216
102
RTVSPost2010PropOp51
 70
     0
102
RTVSPost2010Prop52
140
1.0
102
RTVSPost2010PropOp52
 70
     0
102
RTVSPost2010Prop53
 90
        2
102
RTVSPost2010PropOp53
 70
     0
102
RTVSPost2010Prop54
  1
strokes_ogs.tif
102
RTVSPost2010PropOp54
 70
     0
102
RTVSPost2010Prop55
280
     0
102
RTVSPost2010PropOp55
 70
     0
102
RTVSPost2010Prop56
140
1.0
102
RTVSPost2010PropOp56
 70
     0
102
RTVSPost2010Prop57
140
1.0
102
RTVSPost2010PropOp57
 70
     0
102
RTVSPropertyOp0
 70
     0
102
RTVSPropertyOp1
 70
     0
102
RTVSPropertyOp2
 70
     0
102
RTVSPropertyOp3
 70
     0
102
RTVSPropertyOp4
 70
     0
102
RTVSPropertyOp5
 70
     0
102
RTVSPropertyOp6
 70
     0
102
RTVSPropertyOp7
 70
     0
102
RTVSPropertyOp8
 70
     0
102
RTVSPropertyOp9
 70
     0
102
RTVSPropertyOp10
 70
     0
102
RTVSPropertyOp11
 70
     0
102
RTVSPropertyOp12
 70
     0
102
RTVSPropertyOp13
 70
     0
102
RTVSPropertyOp14
 70
     2
102
RTVSPropertyOp15
 70
     0
102
RTVSPropertyOp16
 70
     0
102
RTVSPropertyOp17
 70
     0
102
RTVSPropertyOp18
 70
     0
102
RTVSPropertyOp19
 70
     0
102
RTVSPropertyOp20
 70
     0
102
RTVSPropertyOp21
 70
     0
102
RTVSPropertyOp22
 70
     0
102
RTVSPropertyOp23
 70
     0
102
RTVSPropertyOp24
 70
     0
102
RTVSPropertyOp25
 70
     0
102
RTVSPropertyOp26
 70
     0
102
RTVSPropertyOp27
 70
     0
102
RTVSPropertyOp28
 70
     0
102
RTVSPropertyOp29
 70
     0
102
RTVSPropertyOp30
 70
     0
102
RTVSPropertyOp31
 70
     0
102
RTVSPropertyOp32
 70
     0
102
RTVSPropertyOp33
 70
     0
102
RTVSPropertyOp34
 70
     0
102
RTVSPropertyOp35
 70
     0
102
RTVSPropertyOp36
 70
     0
102
RTVSPropertyOp37
 70
     0
102
RTVSPropertyOp38
 70
     0
102
RTVSPropertyOp39
 70
     0
102
RTVSPropertyOp40
 70
     0
102
RTVSPropertyOp41
 70
     0
102
RTVSPropertyOp42
 70
     0
102
RTVSPropertyOp43
 70
     0
102
RTVSPropertyOp44
 70
     0
102
RTVSPropertyOp45
 70
     0
102
RTVSPropertyOp46
 70
     0
102
RTVSPropertyOp47
 70
     0
102
RTVSPropertyOp48
 70
     0
102
RTVSPropertyOp49
 70
     0
102
RTVSPropertyOp50
 70
     0
102
RTVSPropertyOp51
 70
     0
102
RTVSPropertyOp52
 70
     0
102
RTVSPropertyOp53
 70
     0
102
RTVSPropertyOp54
 70
     0
102
RTVSPropertyOp55
 70
     0
102
RTVSPropertyOp56
 70
     0
102
RTVSPropertyOp57
 70
     0
102
RTVSPropertyOp58
 70
     0
102
RTVSPropertyOp59
 70
     0
102
RTVSPropertyOp60
 70
     0
102
RTVSPropertyOp61
 70
     0
102
RTVSPropertyOp62
 70
     0
  0
XRECORD
  5
15866
102
{ACAD_REACTORS
330
15865
102
}
330
15865
100
AcDbXrecord
280
     1
102
RTVSPost2010Prop28
280
     0
102
RTVSPost2010PropOp28
 70
     1
102
RTVSPost2010Prop29
280
     1
102
RTVSPost2010PropOp29
 70
     1
102
RTVSPost2010Prop30
280
     1
102
RTVSPost2010PropOp30
 70
     1
102
RTVSPost2010Prop31
280
     0
102
RTVSPost2010PropOp31
 70
     1
102
RTVSPost2010Prop32
280
     0
102
RTVSPost2010PropOp32
 70
     1
102
RTVSPost2010Prop33
280
     0
102
RTVSPost2010PropOp33
 70
     1
102
RTVSPost2010Prop34
280
     0
102
RTVSPost2010PropOp34
 70
     1
102
RTVSPost2010Prop35
280
     0
102
RTVSPost2010PropOp35
 70
     1
102
RTVSPost2010Prop36
280
     0
102
RTVSPost2010PropOp36
 70
     1
102
RTVSPost2010Prop37
 90
       50
102
RTVSPost2010PropOp37
 70
     1
102
RTVSPost2010Prop38
140
0.0
102
RTVSPost2010PropOp38
 70
     1
102
RTVSPost2010Prop39
140
1.0
102
RTVSPost2010PropOp39
 70
     1
102
RTVSPost2010Prop40
 90
        0
102
RTVSPost2010PropOp40
 70
     1
102
RTVSPost2010Prop41ColorIndex
 90
       18
102
RTVSPost2010Prop41ColorRGB
 90
        0
102
RTVSPost2010PropOp41
 70
     1
102
RTVSPost2010Prop42
 90
       50
102
RTVSPost2010PropOp42
 70
     1
102
RTVSPost2010Prop43
 90
        3
102
RTVSPost2010PropOp43
 70
     1
102
RTVSPost2010Prop44ColorIndex
 90
        5
102
RTVSPost2010Prop44ColorRGB
 90
      255
102
RTVSPost2010PropOp44
 70
     1
102
RTVSPost2010Prop45
280
     0
102
RTVSPost2010PropOp45
 70
     1
102
RTVSPost2010Prop46
 90
       50
102
RTVSPost2010PropOp46
 70
     1
102
RTVSPost2010Prop47
 90
       50
102
RTVSPost2010PropOp47
 70
     1
102
RTVSPost2010Prop48
 90
       50
102
RTVSPost2010PropOp48
 70
     1
102
RTVSPost2010Prop49
280
     0
102
RTVSPost2010PropOp49
 70
     1
102
RTVSPost2010Prop50
 90
       50
102
RTVSPost2010PropOp50
 70
     1
102
RTVSPost2010Prop51ColorIndex
 90
      256
102
RTVSPost2010Prop51ColorRGB
 90
-16777216
102
RTVSPost2010PropOp51
 70
     0
102
RTVSPost2010Prop52
140
1.0
102
RTVSPost2010PropOp52
 70
     0
102
RTVSPost2010Prop53
 90
        2
102
RTVSPost2010PropOp53
 70
     1
102
RTVSPost2010Prop54
  1
strokes_ogs.tif
102
RTVSPost2010PropOp54
 70
     1
102
RTVSPost2010Prop55
280
     0
102
RTVSPost2010PropOp55
 70
     1
102
RTVSPost2010Prop56
140
1.0
102
RTVSPost2010PropOp56
 70
     1
102
RTVSPost2010Prop57
140
1.0
102
RTVSPost2010PropOp57
 70
     1
102
RTVSPropertyOp0
 70
     1
102
RTVSPropertyOp1
 70
     1
102
RTVSPropertyOp2
 70
     1
102
RTVSPropertyOp3
 70
     1
102
RTVSPropertyOp4
 70
     1
102
RTVSPropertyOp5
 70
     1
102
RTVSPropertyOp6
 70
     1
102
RTVSPropertyOp7
 70
     1
102
RTVSPropertyOp8
 70
     1
102
RTVSPropertyOp9
 70
     1
102
RTVSPropertyOp10
 70
     1
102
RTVSPropertyOp11
 70
     1
102
RTVSPropertyOp12
 70
     1
102
RTVSPropertyOp13
 70
     1
102
RTVSPropertyOp14
 70
     1
102
RTVSPropertyOp15
 70
     1
102
RTVSPropertyOp16
 70
     1
102
RTVSPropertyOp17
 70
     1
102
RTVSPropertyOp18
 70
     1
102
RTVSPropertyOp19
 70
     1
102
RTVSPropertyOp20
 70
     1
102
RTVSPropertyOp21
 70
     1
102
RTVSPropertyOp22
 70
     1
102
RTVSPropertyOp23
 70
     1
102
RTVSPropertyOp24
 70
     1
102
RTVSPropertyOp25
 70
     1
102
RTVSPropertyOp26
 70
     1
102
RTVSPropertyOp27
 70
     1
102
RTVSPropertyOp28
 70
     1
102
RTVSPropertyOp29
 70
     1
102
RTVSPropertyOp30
 70
     1
102
RTVSPropertyOp31
 70
     1
102
RTVSPropertyOp32
 70
     1
102
RTVSPropertyOp33
 70
     1
102
RTVSPropertyOp34
 70
     1
102
RTVSPropertyOp35
 70
     1
102
RTVSPropertyOp36
 70
     1
102
RTVSPropertyOp37
 70
     1
102
RTVSPropertyOp38
 70
     1
102
RTVSPropertyOp39
 70
     1
102
RTVSPropertyOp40
 70
     1
102
RTVSPropertyOp41
 70
     1
102
RTVSPropertyOp42
 70
     1
102
RTVSPropertyOp43
 70
     1
102
RTVSPropertyOp44
 70
     1
102
RTVSPropertyOp45
 70
     1
102
RTVSPropertyOp46
 70
     1
102
RTVSPropertyOp47
 70
     1
102
RTVSPropertyOp48
 70
     1
102
RTVSPropertyOp49
 70
     1
102
RTVSPropertyOp50
 70
     1
102
RTVSPropertyOp51
 70
     0
102
RTVSPropertyOp52
 70
     0
102
RTVSPropertyOp53
 70
     1
102
RTVSPropertyOp54
 70
     1
102
RTVSPropertyOp55
 70
     1
102
RTVSPropertyOp56
 70
     1
102
RTVSPropertyOp57
 70
     1
102
RTVSPropertyOp58
 70
     1
102
RTVSPropertyOp59
 70
     1
102
RTVSPropertyOp60
 70
     1
102
RTVSPropertyOp61
 70
     1
102
RTVSPropertyOp62
 70
     1
  0
XRECORD
  5
1584A
102
{ACAD_REACTORS
330
15849
102
}
330
15849
100
AcDbXrecord
280
     1
102
RTVSPost2010Prop28
280
     0
102
RTVSPost2010PropOp28
 70
     1
102
RTVSPost2010Prop29
280
     1
102
RTVSPost2010PropOp29
 70
     1
102
RTVSPost2010Prop30
280
     1
102
RTVSPost2010PropOp30
 70
     1
102
RTVSPost2010Prop31
280
     0
102
RTVSPost2010PropOp31
 70
     1
102
RTVSPost2010Prop32
280
     0
102
RTVSPost2010PropOp32
 70
     1
102
RTVSPost2010Prop33
280
     0
102
RTVSPost2010PropOp33
 70
     1
102
RTVSPost2010Prop34
280
     0
102
RTVSPost2010PropOp34
 70
     1
102
RTVSPost2010Prop35
280
     0
102
RTVSPost2010PropOp35
 70
     1
102
RTVSPost2010Prop36
280
     0
102
RTVSPost2010PropOp36
 70
     1
102
RTVSPost2010Prop37
 90
       50
102
RTVSPost2010PropOp37
 70
     1
102
RTVSPost2010Prop38
140
0.0
102
RTVSPost2010PropOp38
 70
     1
102
RTVSPost2010Prop39
140
1.0
102
RTVSPost2010PropOp39
 70
     1
102
RTVSPost2010Prop40
 90
        0
102
RTVSPost2010PropOp40
 70
     1
102
RTVSPost2010Prop41ColorIndex
 90
       18
102
RTVSPost2010Prop41ColorRGB
 90
        0
102
RTVSPost2010PropOp41
 70
     1
102
RTVSPost2010Prop42
 90
       50
102
RTVSPost2010PropOp42
 70
     1
102
RTVSPost2010Prop43
 90
        3
102
RTVSPost2010PropOp43
 70
     1
102
RTVSPost2010Prop44ColorIndex
 90
        5
102
RTVSPost2010Prop44ColorRGB
 90
      255
102
RTVSPost2010PropOp44
 70
     1
102
RTVSPost2010Prop45
280
     0
102
RTVSPost2010PropOp45
 70
     1
102
RTVSPost2010Prop46
 90
       50
102
RTVSPost2010PropOp46
 70
     1
102
RTVSPost2010Prop47
 90
       50
102
RTVSPost2010PropOp47
 70
     1
102
RTVSPost2010Prop48
 90
       50
102
RTVSPost2010PropOp48
 70
     1
102
RTVSPost2010Prop49
280
     0
102
RTVSPost2010PropOp49
 70
     1
102
RTVSPost2010Prop50
 90
       50
102
RTVSPost2010PropOp50
 70
     1
102
RTVSPost2010Prop51ColorIndex
 90
      256
102
RTVSPost2010Prop51ColorRGB
 90
-16777216
102
RTVSPost2010PropOp51
 70
     0
102
RTVSPost2010Prop52
140
1.0
102
RTVSPost2010PropOp52
 70
     0
102
RTVSPost2010Prop53
 90
        2
102
RTVSPost2010PropOp53
 70
     1
102
RTVSPost2010Prop54
  1
strokes_ogs.tif
102
RTVSPost2010PropOp54
 70
     1
102
RTVSPost2010Prop55
280
     0
102
RTVSPost2010PropOp55
 70
     1
102
RTVSPost2010Prop56
140
1.0
102
RTVSPost2010PropOp56
 70
     1
102
RTVSPost2010Prop57
140
1.0
102
RTVSPost2010PropOp57
 70
     1
102
RTVSPropertyOp0
 70
     1
102
RTVSPropertyOp1
 70
     1
102
RTVSPropertyOp2
 70
     1
102
RTVSPropertyOp3
 70
     1
102
RTVSPropertyOp4
 70
     1
102
RTVSPropertyOp5
 70
     1
102
RTVSPropertyOp6
 70
     1
102
RTVSPropertyOp7
 70
     1
102
RTVSPropertyOp8
 70
     1
102
RTVSPropertyOp9
 70
     1
102
RTVSPropertyOp10
 70
     1
102
RTVSPropertyOp11
 70
     1
102
RTVSPropertyOp12
 70
     1
102
RTVSPropertyOp13
 70
     1
102
RTVSPropertyOp14
 70
     1
102
RTVSPropertyOp15
 70
     1
102
RTVSPropertyOp16
 70
     1
102
RTVSPropertyOp17
 70
     1
102
RTVSPropertyOp18
 70
     1
102
RTVSPropertyOp19
 70
     1
102
RTVSPropertyOp20
 70
     1
102
RTVSPropertyOp21
 70
     1
102
RTVSPropertyOp22
 70
     1
102
RTVSPropertyOp23
 70
     1
102
RTVSPropertyOp24
 70
     1
102
RTVSPropertyOp25
 70
     1
102
RTVSPropertyOp26
 70
     1
102
RTVSPropertyOp27
 70
     1
102
RTVSPropertyOp28
 70
     1
102
RTVSPropertyOp29
 70
     1
102
RTVSPropertyOp30
 70
     1
102
RTVSPropertyOp31
 70
     1
102
RTVSPropertyOp32
 70
     1
102
RTVSPropertyOp33
 70
     1
102
RTVSPropertyOp34
 70
     1
102
RTVSPropertyOp35
 70
     1
102
RTVSPropertyOp36
 70
     1
102
RTVSPropertyOp37
 70
     1
102
RTVSPropertyOp38
 70
     1
102
RTVSPropertyOp39
 70
     1
102
RTVSPropertyOp40
 70
     1
102
RTVSPropertyOp41
 70
     1
102
RTVSPropertyOp42
 70
     1
102
RTVSPropertyOp43
 70
     1
102
RTVSPropertyOp44
 70
     1
102
RTVSPropertyOp45
 70
     1
102
RTVSPropertyOp46
 70
     1
102
RTVSPropertyOp47
 70
     1
102
RTVSPropertyOp48
 70
     1
102
RTVSPropertyOp49
 70
     1
102
RTVSPropertyOp50
 70
     1
102
RTVSPropertyOp51
 70
     0
102
RTVSPropertyOp52
 70
     0
102
RTVSPropertyOp53
 70
     1
102
RTVSPropertyOp54
 70
     1
102
RTVSPropertyOp55
 70
     1
102
RTVSPropertyOp56
 70
     1
102
RTVSPropertyOp57
 70
     1
102
RTVSPropertyOp58
 70
     1
102
RTVSPropertyOp59
 70
     1
102
RTVSPropertyOp60
 70
     1
102
RTVSPropertyOp61
 70
     1
102
RTVSPropertyOp62
 70
     1
  0
XRECORD
  5
1584C
102
{ACAD_REACTORS
330
1584B
102
}
330
1584B
100
AcDbXrecord
280
     1
102
RTVSPost2010Prop28
280
     0
102
RTVSPost2010PropOp28
 70
     1
102
RTVSPost2010Prop29
280
     1
102
RTVSPost2010PropOp29
 70
     1
102
RTVSPost2010Prop30
280
     1
102
RTVSPost2010PropOp30
 70
     1
102
RTVSPost2010Prop31
280
     0
102
RTVSPost2010PropOp31
 70
     1
102
RTVSPost2010Prop32
280
     0
102
RTVSPost2010PropOp32
 70
     1
102
RTVSPost2010Prop33
280
     0
102
RTVSPost2010PropOp33
 70
     1
102
RTVSPost2010Prop34
280
     0
102
RTVSPost2010PropOp34
 70
     1
102
RTVSPost2010Prop35
280
     0
102
RTVSPost2010PropOp35
 70
     1
102
RTVSPost2010Prop36
280
     0
102
RTVSPost2010PropOp36
 70
     1
102
RTVSPost2010Prop37
 90
       50
102
RTVSPost2010PropOp37
 70
     1
102
RTVSPost2010Prop38
140
0.0
102
RTVSPost2010PropOp38
 70
     1
102
RTVSPost2010Prop39
140
1.0
102
RTVSPost2010PropOp39
 70
     1
102
RTVSPost2010Prop40
 90
        0
102
RTVSPost2010PropOp40
 70
     1
102
RTVSPost2010Prop41ColorIndex
 90
       18
102
RTVSPost2010Prop41ColorRGB
 90
        0
102
RTVSPost2010PropOp41
 70
     1
102
RTVSPost2010Prop42
 90
       50
102
RTVSPost2010PropOp42
 70
     1
102
RTVSPost2010Prop43
 90
        3
102
RTVSPost2010PropOp43
 70
     1
102
RTVSPost2010Prop44ColorIndex
 90
        5
102
RTVSPost2010Prop44ColorRGB
 90
      255
102
RTVSPost2010PropOp44
 70
     1
102
RTVSPost2010Prop45
280
     0
102
RTVSPost2010PropOp45
 70
     1
102
RTVSPost2010Prop46
 90
       50
102
RTVSPost2010PropOp46
 70
     1
102
RTVSPost2010Prop47
 90
       50
102
RTVSPost2010PropOp47
 70
     1
102
RTVSPost2010Prop48
 90
       50
102
RTVSPost2010PropOp48
 70
     1
102
RTVSPost2010Prop49
280
     0
102
RTVSPost2010PropOp49
 70
     1
102
RTVSPost2010Prop50
 90
       50
102
RTVSPost2010PropOp50
 70
     1
102
RTVSPost2010Prop51ColorIndex
 90
      256
102
RTVSPost2010Prop51ColorRGB
 90
-16777216
102
RTVSPost2010PropOp51
 70
     0
102
RTVSPost2010Prop52
140
1.0
102
RTVSPost2010PropOp52
 70
     0
102
RTVSPost2010Prop53
 90
        2
102
RTVSPost2010PropOp53
 70
     1
102
RTVSPost2010Prop54
  1
strokes_ogs.tif
102
RTVSPost2010PropOp54
 70
     1
102
RTVSPost2010Prop55
280
     0
102
RTVSPost2010PropOp55
 70
     1
102
RTVSPost2010Prop56
140
1.0
102
RTVSPost2010PropOp56
 70
     1
102
RTVSPost2010Prop57
140
1.0
102
RTVSPost2010PropOp57
 70
     1
102
RTVSPropertyOp0
 70
     1
102
RTVSPropertyOp1
 70
     1
102
RTVSPropertyOp2
 70
     1
102
RTVSPropertyOp3
 70
     1
102
RTVSPropertyOp4
 70
     1
102
RTVSPropertyOp5
 70
     1
102
RTVSPropertyOp6
 70
     1
102
RTVSPropertyOp7
 70
     1
102
RTVSPropertyOp8
 70
     1
102
RTVSPropertyOp9
 70
     1
102
RTVSPropertyOp10
 70
     1
102
RTVSPropertyOp11
 70
     1
102
RTVSPropertyOp12
 70
     1
102
RTVSPropertyOp13
 70
     1
102
RTVSPropertyOp14
 70
     1
102
RTVSPropertyOp15
 70
     1
102
RTVSPropertyOp16
 70
     1
102
RTVSPropertyOp17
 70
     1
102
RTVSPropertyOp18
 70
     1
102
RTVSPropertyOp19
 70
     1
102
RTVSPropertyOp20
 70
     1
102
RTVSPropertyOp21
 70
     1
102
RTVSPropertyOp22
 70
     1
102
RTVSPropertyOp23
 70
     1
102
RTVSPropertyOp24
 70
     1
102
RTVSPropertyOp25
 70
     1
102
RTVSPropertyOp26
 70
     1
102
RTVSPropertyOp27
 70
     1
102
RTVSPropertyOp28
 70
     1
102
RTVSPropertyOp29
 70
     1
102
RTVSPropertyOp30
 70
     1
102
RTVSPropertyOp31
 70
     1
102
RTVSPropertyOp32
 70
     1
102
RTVSPropertyOp33
 70
     1
102
RTVSPropertyOp34
 70
     1
102
RTVSPropertyOp35
 70
     1
102
RTVSPropertyOp36
 70
     1
102
RTVSPropertyOp37
 70
     1
102
RTVSPropertyOp38
 70
     1
102
RTVSPropertyOp39
 70
     1
102
RTVSPropertyOp40
 70
     1
102
RTVSPropertyOp41
 70
     1
102
RTVSPropertyOp42
 70
     1
102
RTVSPropertyOp43
 70
     1
102
RTVSPropertyOp44
 70
     1
102
RTVSPropertyOp45
 70
     1
102
RTVSPropertyOp46
 70
     1
102
RTVSPropertyOp47
 70
     1
102
RTVSPropertyOp48
 70
     1
102
RTVSPropertyOp49
 70
     1
102
RTVSPropertyOp50
 70
     1
102
RTVSPropertyOp51
 70
     0
102
RTVSPropertyOp52
 70
     0
102
RTVSPropertyOp53
 70
     1
102
RTVSPropertyOp54
 70
     1
102
RTVSPropertyOp55
 70
     1
102
RTVSPropertyOp56
 70
     1
102
RTVSPropertyOp57
 70
     1
102
RTVSPropertyOp58
 70
     1
102
RTVSPropertyOp59
 70
     1
102
RTVSPropertyOp60
 70
     1
102
RTVSPropertyOp61
 70
     1
102
RTVSPropertyOp62
 70
     1
  0
XRECORD
  5
1584E
102
{ACAD_REACTORS
330
1584D
102
}
330
1584D
100
AcDbXrecord
280
     1
102
RTVSPost2010Prop28
280
     0
102
RTVSPost2010PropOp28
 70
     1
102
RTVSPost2010Prop29
280
     1
102
RTVSPost2010PropOp29
 70
     1
102
RTVSPost2010Prop30
280
     1
102
RTVSPost2010PropOp30
 70
     1
102
RTVSPost2010Prop31
280
     0
102
RTVSPost2010PropOp31
 70
     1
102
RTVSPost2010Prop32
280
     0
102
RTVSPost2010PropOp32
 70
     1
102
RTVSPost2010Prop33
280
     0
102
RTVSPost2010PropOp33
 70
     1
102
RTVSPost2010Prop34
280
     0
102
RTVSPost2010PropOp34
 70
     1
102
RTVSPost2010Prop35
280
     0
102
RTVSPost2010PropOp35
 70
     1
102
RTVSPost2010Prop36
280
     0
102
RTVSPost2010PropOp36
 70
     1
102
RTVSPost2010Prop37
 90
       50
102
RTVSPost2010PropOp37
 70
     1
102
RTVSPost2010Prop38
140
0.0
102
RTVSPost2010PropOp38
 70
     1
102
RTVSPost2010Prop39
140
1.0
102
RTVSPost2010PropOp39
 70
     1
102
RTVSPost2010Prop40
 90
        0
102
RTVSPost2010PropOp40
 70
     1
102
RTVSPost2010Prop41ColorIndex
 90
       18
102
RTVSPost2010Prop41ColorRGB
 90
        0
102
RTVSPost2010PropOp41
 70
     1
102
RTVSPost2010Prop42
 90
       50
102
RTVSPost2010PropOp42
 70
     1
102
RTVSPost2010Prop43
 90
        3
102
RTVSPost2010PropOp43
 70
     1
102
RTVSPost2010Prop44ColorIndex
 90
        5
102
RTVSPost2010Prop44ColorRGB
 90
      255
102
RTVSPost2010PropOp44
 70
     1
102
RTVSPost2010Prop45
280
     0
102
RTVSPost2010PropOp45
 70
     1
102
RTVSPost2010Prop46
 90
       50
102
RTVSPost2010PropOp46
 70
     1
102
RTVSPost2010Prop47
 90
       50
102
RTVSPost2010PropOp47
 70
     1
102
RTVSPost2010Prop48
 90
       50
102
RTVSPost2010PropOp48
 70
     1
102
RTVSPost2010Prop49
280
     0
102
RTVSPost2010PropOp49
 70
     1
102
RTVSPost2010Prop50
 90
       50
102
RTVSPost2010PropOp50
 70
     1
102
RTVSPost2010Prop51ColorIndex
 90
      256
102
RTVSPost2010Prop51ColorRGB
 90
-16777216
102
RTVSPost2010PropOp51
 70
     0
102
RTVSPost2010Prop52
140
1.0
102
RTVSPost2010PropOp52
 70
     0
102
RTVSPost2010Prop53
 90
        2
102
RTVSPost2010PropOp53
 70
     1
102
RTVSPost2010Prop54
  1
strokes_ogs.tif
102
RTVSPost2010PropOp54
 70
     1
102
RTVSPost2010Prop55
280
     0
102
RTVSPost2010PropOp55
 70
     1
102
RTVSPost2010Prop56
140
1.0
102
RTVSPost2010PropOp56
 70
     1
102
RTVSPost2010Prop57
140
1.0
102
RTVSPost2010PropOp57
 70
     1
102
RTVSPropertyOp0
 70
     1
102
RTVSPropertyOp1
 70
     1
102
RTVSPropertyOp2
 70
     1
102
RTVSPropertyOp3
 70
     1
102
RTVSPropertyOp4
 70
     1
102
RTVSPropertyOp5
 70
     1
102
RTVSPropertyOp6
 70
     1
102
RTVSPropertyOp7
 70
     1
102
RTVSPropertyOp8
 70
     1
102
RTVSPropertyOp9
 70
     1
102
RTVSPropertyOp10
 70
     1
102
RTVSPropertyOp11
 70
     1
102
RTVSPropertyOp12
 70
     1
102
RTVSPropertyOp13
 70
     1
102
RTVSPropertyOp14
 70
     1
102
RTVSPropertyOp15
 70
     1
102
RTVSPropertyOp16
 70
     1
102
RTVSPropertyOp17
 70
     1
102
RTVSPropertyOp18
 70
     1
102
RTVSPropertyOp19
 70
     1
102
RTVSPropertyOp20
 70
     1
102
RTVSPropertyOp21
 70
     1
102
RTVSPropertyOp22
 70
     1
102
RTVSPropertyOp23
 70
     1
102
RTVSPropertyOp24
 70
     1
102
RTVSPropertyOp25
 70
     1
102
RTVSPropertyOp26
 70
     1
102
RTVSPropertyOp27
 70
     1
102
RTVSPropertyOp28
 70
     1
102
RTVSPropertyOp29
 70
     1
102
RTVSPropertyOp30
 70
     1
102
RTVSPropertyOp31
 70
     1
102
RTVSPropertyOp32
 70
     1
102
RTVSPropertyOp33
 70
     1
102
RTVSPropertyOp34
 70
     1
102
RTVSPropertyOp35
 70
     1
102
RTVSPropertyOp36
 70
     1
102
RTVSPropertyOp37
 70
     1
102
RTVSPropertyOp38
 70
     1
102
RTVSPropertyOp39
 70
     1
102
RTVSPropertyOp40
 70
     1
102
RTVSPropertyOp41
 70
     1
102
RTVSPropertyOp42
 70
     1
102
RTVSPropertyOp43
 70
     1
102
RTVSPropertyOp44
 70
     1
102
RTVSPropertyOp45
 70
     1
102
RTVSPropertyOp46
 70
     1
102
RTVSPropertyOp47
 70
     1
102
RTVSPropertyOp48
 70
     1
102
RTVSPropertyOp49
 70
     1
102
RTVSPropertyOp50
 70
     1
102
RTVSPropertyOp51
 70
     0
102
RTVSPropertyOp52
 70
     0
102
RTVSPropertyOp53
 70
     1
102
RTVSPropertyOp54
 70
     1
102
RTVSPropertyOp55
 70
     1
102
RTVSPropertyOp56
 70
     1
102
RTVSPropertyOp57
 70
     1
102
RTVSPropertyOp58
 70
     1
102
RTVSPropertyOp59
 70
     1
102
RTVSPropertyOp60
 70
     1
102
RTVSPropertyOp61
 70
     1
102
RTVSPropertyOp62
 70
     1
  0
XRECORD
  5
15850
102
{ACAD_REACTORS
330
1584F
102
}
330
1584F
100
AcDbXrecord
280
     1
102
RTVSPost2010Prop28
280
     0
102
RTVSPost2010PropOp28
 70
     1
102
RTVSPost2010Prop29
280
     1
102
RTVSPost2010PropOp29
 70
     1
102
RTVSPost2010Prop30
280
     1
102
RTVSPost2010PropOp30
 70
     1
102
RTVSPost2010Prop31
280
     0
102
RTVSPost2010PropOp31
 70
     1
102
RTVSPost2010Prop32
280
     0
102
RTVSPost2010PropOp32
 70
     1
102
RTVSPost2010Prop33
280
     0
102
RTVSPost2010PropOp33
 70
     1
102
RTVSPost2010Prop34
280
     0
102
RTVSPost2010PropOp34
 70
     1
102
RTVSPost2010Prop35
280
     0
102
RTVSPost2010PropOp35
 70
     1
102
RTVSPost2010Prop36
280
     0
102
RTVSPost2010PropOp36
 70
     1
102
RTVSPost2010Prop37
 90
       50
102
RTVSPost2010PropOp37
 70
     1
102
RTVSPost2010Prop38
140
0.0
102
RTVSPost2010PropOp38
 70
     1
102
RTVSPost2010Prop39
140
1.0
102
RTVSPost2010PropOp39
 70
     1
102
RTVSPost2010Prop40
 90
        0
102
RTVSPost2010PropOp40
 70
     1
102
RTVSPost2010Prop41ColorIndex
 90
       18
102
RTVSPost2010Prop41ColorRGB
 90
        0
102
RTVSPost2010PropOp41
 70
     1
102
RTVSPost2010Prop42
 90
       50
102
RTVSPost2010PropOp42
 70
     1
102
RTVSPost2010Prop43
 90
        3
102
RTVSPost2010PropOp43
 70
     1
102
RTVSPost2010Prop44ColorIndex
 90
        5
102
RTVSPost2010Prop44ColorRGB
 90
      255
102
RTVSPost2010PropOp44
 70
     1
102
RTVSPost2010Prop45
280
     0
102
RTVSPost2010PropOp45
 70
     1
102
RTVSPost2010Prop46
 90
       50
102
RTVSPost2010PropOp46
 70
     1
102
RTVSPost2010Prop47
 90
       50
102
RTVSPost2010PropOp47
 70
     1
102
RTVSPost2010Prop48
 90
       50
102
RTVSPost2010PropOp48
 70
     1
102
RTVSPost2010Prop49
280
     0
102
RTVSPost2010PropOp49
 70
     1
102
RTVSPost2010Prop50
 90
       50
102
RTVSPost2010PropOp50
 70
     1
102
RTVSPost2010Prop51ColorIndex
 90
      256
102
RTVSPost2010Prop51ColorRGB
 90
-16777216
102
RTVSPost2010PropOp51
 70
     0
102
RTVSPost2010Prop52
140
1.0
102
RTVSPost2010PropOp52
 70
     0
102
RTVSPost2010Prop53
 90
        2
102
RTVSPost2010PropOp53
 70
     1
102
RTVSPost2010Prop54
  1
strokes_ogs.tif
102
RTVSPost2010PropOp54
 70
     1
102
RTVSPost2010Prop55
280
     0
102
RTVSPost2010PropOp55
 70
     1
102
RTVSPost2010Prop56
140
1.0
102
RTVSPost2010PropOp56
 70
     1
102
RTVSPost2010Prop57
140
1.0
102
RTVSPost2010PropOp57
 70
     1
102
RTVSPropertyOp0
 70
     1
102
RTVSPropertyOp1
 70
     1
102
RTVSPropertyOp2
 70
     1
102
RTVSPropertyOp3
 70
     1
102
RTVSPropertyOp4
 70
     1
102
RTVSPropertyOp5
 70
     1
102
RTVSPropertyOp6
 70
     1
102
RTVSPropertyOp7
 70
     1
102
RTVSPropertyOp8
 70
     1
102
RTVSPropertyOp9
 70
     1
102
RTVSPropertyOp10
 70
     1
102
RTVSPropertyOp11
 70
     1
102
RTVSPropertyOp12
 70
     1
102
RTVSPropertyOp13
 70
     1
102
RTVSPropertyOp14
 70
     1
102
RTVSPropertyOp15
 70
     1
102
RTVSPropertyOp16
 70
     1
102
RTVSPropertyOp17
 70
     1
102
RTVSPropertyOp18
 70
     1
102
RTVSPropertyOp19
 70
     1
102
RTVSPropertyOp20
 70
     1
102
RTVSPropertyOp21
 70
     1
102
RTVSPropertyOp22
 70
     1
102
RTVSPropertyOp23
 70
     1
102
RTVSPropertyOp24
 70
     1
102
RTVSPropertyOp25
 70
     1
102
RTVSPropertyOp26
 70
     1
102
RTVSPropertyOp27
 70
     1
102
RTVSPropertyOp28
 70
     1
102
RTVSPropertyOp29
 70
     1
102
RTVSPropertyOp30
 70
     1
102
RTVSPropertyOp31
 70
     1
102
RTVSPropertyOp32
 70
     1
102
RTVSPropertyOp33
 70
     1
102
RTVSPropertyOp34
 70
     1
102
RTVSPropertyOp35
 70
     1
102
RTVSPropertyOp36
 70
     1
102
RTVSPropertyOp37
 70
     1
102
RTVSPropertyOp38
 70
     1
102
RTVSPropertyOp39
 70
     1
102
RTVSPropertyOp40
 70
     1
102
RTVSPropertyOp41
 70
     1
102
RTVSPropertyOp42
 70
     1
102
RTVSPropertyOp43
 70
     1
102
RTVSPropertyOp44
 70
     1
102
RTVSPropertyOp45
 70
     1
102
RTVSPropertyOp46
 70
     1
102
RTVSPropertyOp47
 70
     1
102
RTVSPropertyOp48
 70
     1
102
RTVSPropertyOp49
 70
     1
102
RTVSPropertyOp50
 70
     1
102
RTVSPropertyOp51
 70
     0
102
RTVSPropertyOp52
 70
     0
102
RTVSPropertyOp53
 70
     1
102
RTVSPropertyOp54
 70
     1
102
RTVSPropertyOp55
 70
     1
102
RTVSPropertyOp56
 70
     1
102
RTVSPropertyOp57
 70
     1
102
RTVSPropertyOp58
 70
     1
102
RTVSPropertyOp59
 70
     1
102
RTVSPropertyOp60
 70
     1
102
RTVSPropertyOp61
 70
     1
102
RTVSPropertyOp62
 70
     1
  0
XRECORD
  5
15858
102
{ACAD_REACTORS
330
15857
102
}
330
15857
100
AcDbXrecord
280
     1
102
RTVSPost2010Prop28
280
     0
102
RTVSPost2010PropOp28
 70
     1
102
RTVSPost2010Prop29
280
     1
102
RTVSPost2010PropOp29
 70
     1
102
RTVSPost2010Prop30
280
     1
102
RTVSPost2010PropOp30
 70
     1
102
RTVSPost2010Prop31
280
     0
102
RTVSPost2010PropOp31
 70
     1
102
RTVSPost2010Prop32
280
     0
102
RTVSPost2010PropOp32
 70
     1
102
RTVSPost2010Prop33
280
     0
102
RTVSPost2010PropOp33
 70
     1
102
RTVSPost2010Prop34
280
     0
102
RTVSPost2010PropOp34
 70
     1
102
RTVSPost2010Prop35
280
     0
102
RTVSPost2010PropOp35
 70
     1
102
RTVSPost2010Prop36
280
     0
102
RTVSPost2010PropOp36
 70
     1
102
RTVSPost2010Prop37
 90
       50
102
RTVSPost2010PropOp37
 70
     1
102
RTVSPost2010Prop38
140
0.0
102
RTVSPost2010PropOp38
 70
     1
102
RTVSPost2010Prop39
140
1.0
102
RTVSPost2010PropOp39
 70
     1
102
RTVSPost2010Prop40
 90
        0
102
RTVSPost2010PropOp40
 70
     1
102
RTVSPost2010Prop41ColorIndex
 90
       18
102
RTVSPost2010Prop41ColorRGB
 90
        0
102
RTVSPost2010PropOp41
 70
     1
102
RTVSPost2010Prop42
 90
       50
102
RTVSPost2010PropOp42
 70
     1
102
RTVSPost2010Prop43
 90
        3
102
RTVSPost2010PropOp43
 70
     1
102
RTVSPost2010Prop44ColorIndex
 90
        5
102
RTVSPost2010Prop44ColorRGB
 90
      255
102
RTVSPost2010PropOp44
 70
     1
102
RTVSPost2010Prop45
280
     0
102
RTVSPost2010PropOp45
 70
     1
102
RTVSPost2010Prop46
 90
       50
102
RTVSPost2010PropOp46
 70
     1
102
RTVSPost2010Prop47
 90
       50
102
RTVSPost2010PropOp47
 70
     1
102
RTVSPost2010Prop48
 90
       50
102
RTVSPost2010PropOp48
 70
     1
102
RTVSPost2010Prop49
280
     0
102
RTVSPost2010PropOp49
 70
     1
102
RTVSPost2010Prop50
 90
       50
102
RTVSPost2010PropOp50
 70
     1
102
RTVSPost2010Prop51ColorIndex
 90
      256
102
RTVSPost2010Prop51ColorRGB
 90
-16777216
102
RTVSPost2010PropOp51
 70
     0
102
RTVSPost2010Prop52
140
1.0
102
RTVSPost2010PropOp52
 70
     0
102
RTVSPost2010Prop53
 90
        2
102
RTVSPost2010PropOp53
 70
     1
102
RTVSPost2010Prop54
  1
strokes_ogs.tif
102
RTVSPost2010PropOp54
 70
     1
102
RTVSPost2010Prop55
280
     0
102
RTVSPost2010PropOp55
 70
     1
102
RTVSPost2010Prop56
140
1.0
102
RTVSPost2010PropOp56
 70
     1
102
RTVSPost2010Prop57
140
1.0
102
RTVSPost2010PropOp57
 70
     1
102
RTVSPropertyOp0
 70
     1
102
RTVSPropertyOp1
 70
     1
102
RTVSPropertyOp2
 70
     1
102
RTVSPropertyOp3
 70
     1
102
RTVSPropertyOp4
 70
     1
102
RTVSPropertyOp5
 70
     1
102
RTVSPropertyOp6
 70
     1
102
RTVSPropertyOp7
 70
     1
102
RTVSPropertyOp8
 70
     1
102
RTVSPropertyOp9
 70
     1
102
RTVSPropertyOp10
 70
     1
102
RTVSPropertyOp11
 70
     1
102
RTVSPropertyOp12
 70
     1
102
RTVSPropertyOp13
 70
     1
102
RTVSPropertyOp14
 70
     1
102
RTVSPropertyOp15
 70
     1
102
RTVSPropertyOp16
 70
     1
102
RTVSPropertyOp17
 70
     1
102
RTVSPropertyOp18
 70
     1
102
RTVSPropertyOp19
 70
     1
102
RTVSPropertyOp20
 70
     1
102
RTVSPropertyOp21
 70
     1
102
RTVSPropertyOp22
 70
     1
102
RTVSPropertyOp23
 70
     1
102
RTVSPropertyOp24
 70
     1
102
RTVSPropertyOp25
 70
     1
102
RTVSPropertyOp26
 70
     1
102
RTVSPropertyOp27
 70
     1
102
RTVSPropertyOp28
 70
     1
102
RTVSPropertyOp29
 70
     1
102
RTVSPropertyOp30
 70
     1
102
RTVSPropertyOp31
 70
     1
102
RTVSPropertyOp32
 70
     1
102
RTVSPropertyOp33
 70
     1
102
RTVSPropertyOp34
 70
     1
102
RTVSPropertyOp35
 70
     1
102
RTVSPropertyOp36
 70
     1
102
RTVSPropertyOp37
 70
     1
102
RTVSPropertyOp38
 70
     1
102
RTVSPropertyOp39
 70
     1
102
RTVSPropertyOp40
 70
     1
102
RTVSPropertyOp41
 70
     1
102
RTVSPropertyOp42
 70
     1
102
RTVSPropertyOp43
 70
     1
102
RTVSPropertyOp44
 70
     1
102
RTVSPropertyOp45
 70
     1
102
RTVSPropertyOp46
 70
     1
102
RTVSPropertyOp47
 70
     1
102
RTVSPropertyOp48
 70
     1
102
RTVSPropertyOp49
 70
     1
102
RTVSPropertyOp50
 70
     1
102
RTVSPropertyOp51
 70
     0
102
RTVSPropertyOp52
 70
     0
102
RTVSPropertyOp53
 70
     1
102
RTVSPropertyOp54
 70
     1
102
RTVSPropertyOp55
 70
     1
102
RTVSPropertyOp56
 70
     1
102
RTVSPropertyOp57
 70
     1
102
RTVSPropertyOp58
 70
     1
102
RTVSPropertyOp59
 70
     1
102
RTVSPropertyOp60
 70
     1
102
RTVSPropertyOp61
 70
     1
102
RTVSPropertyOp62
 70
     1
  0
XRECORD
  5
15874
102
{ACAD_REACTORS
330
15873
102
}
330
15873
100
AcDbXrecord
280
     1
102
RTVSPost2010Prop28
280
     0
102
RTVSPost2010PropOp28
 70
     0
102
RTVSPost2010Prop29
280
     1
102
RTVSPost2010PropOp29
 70
     0
102
RTVSPost2010Prop30
280
     1
102
RTVSPost2010PropOp30
 70
     0
102
RTVSPost2010Prop31
280
     0
102
RTVSPost2010PropOp31
 70
     0
102
RTVSPost2010Prop32
280
     0
102
RTVSPost2010PropOp32
 70
     0
102
RTVSPost2010Prop33
280
     0
102
RTVSPost2010PropOp33
 70
     0
102
RTVSPost2010Prop34
280
     0
102
RTVSPost2010PropOp34
 70
     0
102
RTVSPost2010Prop35
280
     0
102
RTVSPost2010PropOp35
 70
     0
102
RTVSPost2010Prop36
280
     0
102
RTVSPost2010PropOp36
 70
     0
102
RTVSPost2010Prop37
 90
       50
102
RTVSPost2010PropOp37
 70
     0
102
RTVSPost2010Prop38
140
0.0
102
RTVSPost2010PropOp38
 70
     0
102
RTVSPost2010Prop39
140
1.0
102
RTVSPost2010PropOp39
 70
     0
102
RTVSPost2010Prop40
 90
        0
102
RTVSPost2010PropOp40
 70
     0
102
RTVSPost2010Prop41ColorIndex
 90
       18
102
RTVSPost2010Prop41ColorRGB
 90
        0
102
RTVSPost2010PropOp41
 70
     0
102
RTVSPost2010Prop42
 90
       50
102
RTVSPost2010PropOp42
 70
     0
102
RTVSPost2010Prop43
 90
        3
102
RTVSPost2010PropOp43
 70
     0
102
RTVSPost2010Prop44ColorIndex
 90
        5
102
RTVSPost2010Prop44ColorRGB
 90
      255
102
RTVSPost2010PropOp44
 70
     0
102
RTVSPost2010Prop45
280
     0
102
RTVSPost2010PropOp45
 70
     0
102
RTVSPost2010Prop46
 90
       50
102
RTVSPost2010PropOp46
 70
     0
102
RTVSPost2010Prop47
 90
       50
102
RTVSPost2010PropOp47
 70
     0
102
RTVSPost2010Prop48
 90
       50
102
RTVSPost2010PropOp48
 70
     0
102
RTVSPost2010Prop49
280
     0
102
RTVSPost2010PropOp49
 70
     0
102
RTVSPost2010Prop50
 90
       50
102
RTVSPost2010PropOp50
 70
     0
102
RTVSPost2010Prop51ColorIndex
 90
      256
102
RTVSPost2010Prop51ColorRGB
 90
-16777216
102
RTVSPost2010PropOp51
 70
     0
102
RTVSPost2010Prop52
140
1.0
102
RTVSPost2010PropOp52
 70
     0
102
RTVSPost2010Prop53
 90
        2
102
RTVSPost2010PropOp53
 70
     0
102
RTVSPost2010Prop54
  1
strokes_ogs.tif
102
RTVSPost2010PropOp54
 70
     0
102
RTVSPost2010Prop55
280
     0
102
RTVSPost2010PropOp55
 70
     0
102
RTVSPost2010Prop56
140
1.0
102
RTVSPost2010PropOp56
 70
     0
102
RTVSPost2010Prop57
140
1.0
102
RTVSPost2010PropOp57
 70
     0
102
RTVSPropertyOp0
 70
     0
102
RTVSPropertyOp1
 70
     0
102
RTVSPropertyOp2
 70
     0
102
RTVSPropertyOp3
 70
     0
102
RTVSPropertyOp4
 70
     0
102
RTVSPropertyOp5
 70
     0
102
RTVSPropertyOp6
 70
     0
102
RTVSPropertyOp7
 70
     0
102
RTVSPropertyOp8
 70
     0
102
RTVSPropertyOp9
 70
     0
102
RTVSPropertyOp10
 70
     0
102
RTVSPropertyOp11
 70
     0
102
RTVSPropertyOp12
 70
     0
102
RTVSPropertyOp13
 70
     0
102
RTVSPropertyOp14
 70
     2
102
RTVSPropertyOp15
 70
     0
102
RTVSPropertyOp16
 70
     0
102
RTVSPropertyOp17
 70
     0
102
RTVSPropertyOp18
 70
     0
102
RTVSPropertyOp19
 70
     0
102
RTVSPropertyOp20
 70
     0
102
RTVSPropertyOp21
 70
     0
102
RTVSPropertyOp22
 70
     0
102
RTVSPropertyOp23
 70
     0
102
RTVSPropertyOp24
 70
     0
102
RTVSPropertyOp25
 70
     0
102
RTVSPropertyOp26
 70
     0
102
RTVSPropertyOp27
 70
     0
102
RTVSPropertyOp28
 70
     0
102
RTVSPropertyOp29
 70
     0
102
RTVSPropertyOp30
 70
     0
102
RTVSPropertyOp31
 70
     0
102
RTVSPropertyOp32
 70
     0
102
RTVSPropertyOp33
 70
     0
102
RTVSPropertyOp34
 70
     0
102
RTVSPropertyOp35
 70
     0
102
RTVSPropertyOp36
 70
     0
102
RTVSPropertyOp37
 70
     0
102
RTVSPropertyOp38
 70
     0
102
RTVSPropertyOp39
 70
     0
102
RTVSPropertyOp40
 70
     0
102
RTVSPropertyOp41
 70
     0
102
RTVSPropertyOp42
 70
     0
102
RTVSPropertyOp43
 70
     0
102
RTVSPropertyOp44
 70
     0
102
RTVSPropertyOp45
 70
     0
102
RTVSPropertyOp46
 70
     0
102
RTVSPropertyOp47
 70
     0
102
RTVSPropertyOp48
 70
     0
102
RTVSPropertyOp49
 70
     0
102
RTVSPropertyOp50
 70
     0
102
RTVSPropertyOp51
 70
     0
102
RTVSPropertyOp52
 70
     0
102
RTVSPropertyOp53
 70
     0
102
RTVSPropertyOp54
 70
     0
102
RTVSPropertyOp55
 70
     0
102
RTVSPropertyOp56
 70
     0
102
RTVSPropertyOp57
 70
     0
102
RTVSPropertyOp58
 70
     0
102
RTVSPropertyOp59
 70
     0
102
RTVSPropertyOp60
 70
     0
102
RTVSPropertyOp61
 70
     0
102
RTVSPropertyOp62
 70
     0
  0
XRECORD
  5
15864
102
{ACAD_REACTORS
330
15863
102
}
330
15863
100
AcDbXrecord
280
     1
102
RTVSPost2010Prop28
280
     0
102
RTVSPost2010PropOp28
 70
     1
102
RTVSPost2010Prop29
280
     1
102
RTVSPost2010PropOp29
 70
     1
102
RTVSPost2010Prop30
280
     1
102
RTVSPost2010PropOp30
 70
     1
102
RTVSPost2010Prop31
280
     0
102
RTVSPost2010PropOp31
 70
     1
102
RTVSPost2010Prop32
280
     0
102
RTVSPost2010PropOp32
 70
     1
102
RTVSPost2010Prop33
280
     0
102
RTVSPost2010PropOp33
 70
     1
102
RTVSPost2010Prop34
280
     0
102
RTVSPost2010PropOp34
 70
     1
102
RTVSPost2010Prop35
280
     0
102
RTVSPost2010PropOp35
 70
     1
102
RTVSPost2010Prop36
280
     0
102
RTVSPost2010PropOp36
 70
     1
102
RTVSPost2010Prop37
 90
       50
102
RTVSPost2010PropOp37
 70
     1
102
RTVSPost2010Prop38
140
0.0
102
RTVSPost2010PropOp38
 70
     1
102
RTVSPost2010Prop39
140
1.0
102
RTVSPost2010PropOp39
 70
     1
102
RTVSPost2010Prop40
 90
        0
102
RTVSPost2010PropOp40
 70
     1
102
RTVSPost2010Prop41ColorIndex
 90
       18
102
RTVSPost2010Prop41ColorRGB
 90
        0
102
RTVSPost2010PropOp41
 70
     1
102
RTVSPost2010Prop42
 90
       50
102
RTVSPost2010PropOp42
 70
     1
102
RTVSPost2010Prop43
 90
        3
102
RTVSPost2010PropOp43
 70
     1
102
RTVSPost2010Prop44ColorIndex
 90
        5
102
RTVSPost2010Prop44ColorRGB
 90
      255
102
RTVSPost2010PropOp44
 70
     1
102
RTVSPost2010Prop45
280
     0
102
RTVSPost2010PropOp45
 70
     1
102
RTVSPost2010Prop46
 90
       50
102
RTVSPost2010PropOp46
 70
     1
102
RTVSPost2010Prop47
 90
       50
102
RTVSPost2010PropOp47
 70
     1
102
RTVSPost2010Prop48
 90
       50
102
RTVSPost2010PropOp48
 70
     1
102
RTVSPost2010Prop49
280
     0
102
RTVSPost2010PropOp49
 70
     1
102
RTVSPost2010Prop50
 90
       50
102
RTVSPost2010PropOp50
 70
     1
102
RTVSPost2010Prop51ColorIndex
 90
      256
102
RTVSPost2010Prop51ColorRGB
 90
-16777216
102
RTVSPost2010PropOp51
 70
     0
102
RTVSPost2010Prop52
140
1.0
102
RTVSPost2010PropOp52
 70
     0
102
RTVSPost2010Prop53
 90
        2
102
RTVSPost2010PropOp53
 70
     1
102
RTVSPost2010Prop54
  1
strokes_ogs.tif
102
RTVSPost2010PropOp54
 70
     1
102
RTVSPost2010Prop55
280
     0
102
RTVSPost2010PropOp55
 70
     1
102
RTVSPost2010Prop56
140
1.0
102
RTVSPost2010PropOp56
 70
     1
102
RTVSPost2010Prop57
140
1.0
102
RTVSPost2010PropOp57
 70
     1
102
RTVSPropertyOp0
 70
     1
102
RTVSPropertyOp1
 70
     1
102
RTVSPropertyOp2
 70
     1
102
RTVSPropertyOp3
 70
     1
102
RTVSPropertyOp4
 70
     1
102
RTVSPropertyOp5
 70
     1
102
RTVSPropertyOp6
 70
     1
102
RTVSPropertyOp7
 70
     1
102
RTVSPropertyOp8
 70
     1
102
RTVSPropertyOp9
 70
     1
102
RTVSPropertyOp10
 70
     1
102
RTVSPropertyOp11
 70
     1
102
RTVSPropertyOp12
 70
     1
102
RTVSPropertyOp13
 70
     1
102
RTVSPropertyOp14
 70
     1
102
RTVSPropertyOp15
 70
     1
102
RTVSPropertyOp16
 70
     1
102
RTVSPropertyOp17
 70
     1
102
RTVSPropertyOp18
 70
     1
102
RTVSPropertyOp19
 70
     1
102
RTVSPropertyOp20
 70
     1
102
RTVSPropertyOp21
 70
     1
102
RTVSPropertyOp22
 70
     1
102
RTVSPropertyOp23
 70
     1
102
RTVSPropertyOp24
 70
     1
102
RTVSPropertyOp25
 70
     1
102
RTVSPropertyOp26
 70
     1
102
RTVSPropertyOp27
 70
     1
102
RTVSPropertyOp28
 70
     1
102
RTVSPropertyOp29
 70
     1
102
RTVSPropertyOp30
 70
     1
102
RTVSPropertyOp31
 70
     1
102
RTVSPropertyOp32
 70
     1
102
RTVSPropertyOp33
 70
     1
102
RTVSPropertyOp34
 70
     1
102
RTVSPropertyOp35
 70
     1
102
RTVSPropertyOp36
 70
     1
102
RTVSPropertyOp37
 70
     1
102
RTVSPropertyOp38
 70
     1
102
RTVSPropertyOp39
 70
     1
102
RTVSPropertyOp40
 70
     1
102
RTVSPropertyOp41
 70
     1
102
RTVSPropertyOp42
 70
     1
102
RTVSPropertyOp43
 70
     1
102
RTVSPropertyOp44
 70
     1
102
RTVSPropertyOp45
 70
     1
102
RTVSPropertyOp46
 70
     1
102
RTVSPropertyOp47
 70
     1
102
RTVSPropertyOp48
 70
     1
102
RTVSPropertyOp49
 70
     1
102
RTVSPropertyOp50
 70
     1
102
RTVSPropertyOp51
 70
     0
102
RTVSPropertyOp52
 70
     0
102
RTVSPropertyOp53
 70
     1
102
RTVSPropertyOp54
 70
     1
102
RTVSPropertyOp55
 70
     1
102
RTVSPropertyOp56
 70
     1
102
RTVSPropertyOp57
 70
     1
102
RTVSPropertyOp58
 70
     1
102
RTVSPropertyOp59
 70
     1
102
RTVSPropertyOp60
 70
     1
102
RTVSPropertyOp61
 70
     1
102
RTVSPropertyOp62
 70
     1
  0
XRECORD
  5
15876
102
{ACAD_REACTORS
330
15875
102
}
330
15875
100
AcDbXrecord
280
     1
102
RTVSPost2010Prop28
280
     0
102
RTVSPost2010PropOp28
 70
     0
102
RTVSPost2010Prop29
280
     1
102
RTVSPost2010PropOp29
 70
     0
102
RTVSPost2010Prop30
280
     1
102
RTVSPost2010PropOp30
 70
     0
102
RTVSPost2010Prop31
280
     0
102
RTVSPost2010PropOp31
 70
     0
102
RTVSPost2010Prop32
280
     0
102
RTVSPost2010PropOp32
 70
     0
102
RTVSPost2010Prop33
280
     0
102
RTVSPost2010PropOp33
 70
     0
102
RTVSPost2010Prop34
280
     0
102
RTVSPost2010PropOp34
 70
     0
102
RTVSPost2010Prop35
280
     0
102
RTVSPost2010PropOp35
 70
     0
102
RTVSPost2010Prop36
280
     0
102
RTVSPost2010PropOp36
 70
     0
102
RTVSPost2010Prop37
 90
       50
102
RTVSPost2010PropOp37
 70
     0
102
RTVSPost2010Prop38
140
0.0
102
RTVSPost2010PropOp38
 70
     0
102
RTVSPost2010Prop39
140
1.0
102
RTVSPost2010PropOp39
 70
     0
102
RTVSPost2010Prop40
 90
        0
102
RTVSPost2010PropOp40
 70
     0
102
RTVSPost2010Prop41ColorIndex
 90
       18
102
RTVSPost2010Prop41ColorRGB
 90
        0
102
RTVSPost2010PropOp41
 70
     0
102
RTVSPost2010Prop42
 90
       50
102
RTVSPost2010PropOp42
 70
     0
102
RTVSPost2010Prop43
 90
        3
102
RTVSPost2010PropOp43
 70
     0
102
RTVSPost2010Prop44ColorIndex
 90
        5
102
RTVSPost2010Prop44ColorRGB
 90
      255
102
RTVSPost2010PropOp44
 70
     0
102
RTVSPost2010Prop45
280
     0
102
RTVSPost2010PropOp45
 70
     0
102
RTVSPost2010Prop46
 90
       50
102
RTVSPost2010PropOp46
 70
     0
102
RTVSPost2010Prop47
 90
       50
102
RTVSPost2010PropOp47
 70
     0
102
RTVSPost2010Prop48
 90
       50
102
RTVSPost2010PropOp48
 70
     0
102
RTVSPost2010Prop49
280
     0
102
RTVSPost2010PropOp49
 70
     0
102
RTVSPost2010Prop50
 90
       50
102
RTVSPost2010PropOp50
 70
     0
102
RTVSPost2010Prop51ColorIndex
 90
      256
102
RTVSPost2010Prop51ColorRGB
 90
-16777216
102
RTVSPost2010PropOp51
 70
     0
102
RTVSPost2010Prop52
140
1.0
102
RTVSPost2010PropOp52
 70
     0
102
RTVSPost2010Prop53
 90
        2
102
RTVSPost2010PropOp53
 70
     0
102
RTVSPost2010Prop54
  1
strokes_ogs.tif
102
RTVSPost2010PropOp54
 70
     0
102
RTVSPost2010Prop55
280
     0
102
RTVSPost2010PropOp55
 70
     0
102
RTVSPost2010Prop56
140
1.0
102
RTVSPost2010PropOp56
 70
     0
102
RTVSPost2010Prop57
140
1.0
102
RTVSPost2010PropOp57
 70
     0
102
RTVSPropertyOp0
 70
     0
102
RTVSPropertyOp1
 70
     0
102
RTVSPropertyOp2
 70
     0
102
RTVSPropertyOp3
 70
     0
102
RTVSPropertyOp4
 70
     0
102
RTVSPropertyOp5
 70
     0
102
RTVSPropertyOp6
 70
     0
102
RTVSPropertyOp7
 70
     0
102
RTVSPropertyOp8
 70
     0
102
RTVSPropertyOp9
 70
     0
102
RTVSPropertyOp10
 70
     0
102
RTVSPropertyOp11
 70
     0
102
RTVSPropertyOp12
 70
     0
102
RTVSPropertyOp13
 70
     0
102
RTVSPropertyOp14
 70
     2
102
RTVSPropertyOp15
 70
     0
102
RTVSPropertyOp16
 70
     0
102
RTVSPropertyOp17
 70
     0
102
RTVSPropertyOp18
 70
     0
102
RTVSPropertyOp19
 70
     0
102
RTVSPropertyOp20
 70
     0
102
RTVSPropertyOp21
 70
     0
102
RTVSPropertyOp22
 70
     0
102
RTVSPropertyOp23
 70
     0
102
RTVSPropertyOp24
 70
     0
102
RTVSPropertyOp25
 70
     0
102
RTVSPropertyOp26
 70
     0
102
RTVSPropertyOp27
 70
     0
102
RTVSPropertyOp28
 70
     0
102
RTVSPropertyOp29
 70
     0
102
RTVSPropertyOp30
 70
     0
102
RTVSPropertyOp31
 70
     0
102
RTVSPropertyOp32
 70
     0
102
RTVSPropertyOp33
 70
     0
102
RTVSPropertyOp34
 70
     0
102
RTVSPropertyOp35
 70
     0
102
RTVSPropertyOp36
 70
     0
102
RTVSPropertyOp37
 70
     0
102
RTVSPropertyOp38
 70
     0
102
RTVSPropertyOp39
 70
     0
102
RTVSPropertyOp40
 70
     0
102
RTVSPropertyOp41
 70
     0
102
RTVSPropertyOp42
 70
     0
102
RTVSPropertyOp43
 70
     0
102
RTVSPropertyOp44
 70
     0
102
RTVSPropertyOp45
 70
     0
102
RTVSPropertyOp46
 70
     0
102
RTVSPropertyOp47
 70
     0
102
RTVSPropertyOp48
 70
     0
102
RTVSPropertyOp49
 70
     0
102
RTVSPropertyOp50
 70
     0
102
RTVSPropertyOp51
 70
     0
102
RTVSPropertyOp52
 70
     0
102
RTVSPropertyOp53
 70
     0
102
RTVSPropertyOp54
 70
     0
102
RTVSPropertyOp55
 70
     0
102
RTVSPropertyOp56
 70
     0
102
RTVSPropertyOp57
 70
     0
102
RTVSPropertyOp58
 70
     0
102
RTVSPropertyOp59
 70
     0
102
RTVSPropertyOp60
 70
     0
102
RTVSPropertyOp61
 70
     0
102
RTVSPropertyOp62
 70
     0
  0
XRECORD
  5
1585C
102
{ACAD_REACTORS
330
1585B
102
}
330
1585B
100
AcDbXrecord
280
     1
102
RTVSPost2010Prop28
280
     0
102
RTVSPost2010PropOp28
 70
     1
102
RTVSPost2010Prop29
280
     1
102
RTVSPost2010PropOp29
 70
     1
102
RTVSPost2010Prop30
280
     1
102
RTVSPost2010PropOp30
 70
     1
102
RTVSPost2010Prop31
280
     0
102
RTVSPost2010PropOp31
 70
     1
102
RTVSPost2010Prop32
280
     0
102
RTVSPost2010PropOp32
 70
     1
102
RTVSPost2010Prop33
280
     0
102
RTVSPost2010PropOp33
 70
     1
102
RTVSPost2010Prop34
280
     0
102
RTVSPost2010PropOp34
 70
     1
102
RTVSPost2010Prop35
280
     0
102
RTVSPost2010PropOp35
 70
     1
102
RTVSPost2010Prop36
280
     0
102
RTVSPost2010PropOp36
 70
     1
102
RTVSPost2010Prop37
 90
       50
102
RTVSPost2010PropOp37
 70
     1
102
RTVSPost2010Prop38
140
0.0
102
RTVSPost2010PropOp38
 70
     1
102
RTVSPost2010Prop39
140
1.0
102
RTVSPost2010PropOp39
 70
     1
102
RTVSPost2010Prop40
 90
        0
102
RTVSPost2010PropOp40
 70
     1
102
RTVSPost2010Prop41ColorIndex
 90
       18
102
RTVSPost2010Prop41ColorRGB
 90
        0
102
RTVSPost2010PropOp41
 70
     1
102
RTVSPost2010Prop42
 90
       50
102
RTVSPost2010PropOp42
 70
     1
102
RTVSPost2010Prop43
 90
        3
102
RTVSPost2010PropOp43
 70
     1
102
RTVSPost2010Prop44ColorIndex
 90
        5
102
RTVSPost2010Prop44ColorRGB
 90
      255
102
RTVSPost2010PropOp44
 70
     1
102
RTVSPost2010Prop45
280
     0
102
RTVSPost2010PropOp45
 70
     1
102
RTVSPost2010Prop46
 90
       50
102
RTVSPost2010PropOp46
 70
     1
102
RTVSPost2010Prop47
 90
       50
102
RTVSPost2010PropOp47
 70
     1
102
RTVSPost2010Prop48
 90
       50
102
RTVSPost2010PropOp48
 70
     1
102
RTVSPost2010Prop49
280
     0
102
RTVSPost2010PropOp49
 70
     1
102
RTVSPost2010Prop50
 90
       50
102
RTVSPost2010PropOp50
 70
     1
102
RTVSPost2010Prop51ColorIndex
 90
      256
102
RTVSPost2010Prop51ColorRGB
 90
-16777216
102
RTVSPost2010PropOp51
 70
     0
102
RTVSPost2010Prop52
140
1.0
102
RTVSPost2010PropOp52
 70
     0
102
RTVSPost2010Prop53
 90
        2
102
RTVSPost2010PropOp53
 70
     1
102
RTVSPost2010Prop54
  1
strokes_ogs.tif
102
RTVSPost2010PropOp54
 70
     1
102
RTVSPost2010Prop55
280
     0
102
RTVSPost2010PropOp55
 70
     1
102
RTVSPost2010Prop56
140
1.0
102
RTVSPost2010PropOp56
 70
     1
102
RTVSPost2010Prop57
140
1.0
102
RTVSPost2010PropOp57
 70
     1
102
RTVSPropertyOp0
 70
     1
102
RTVSPropertyOp1
 70
     1
102
RTVSPropertyOp2
 70
     1
102
RTVSPropertyOp3
 70
     1
102
RTVSPropertyOp4
 70
     1
102
RTVSPropertyOp5
 70
     1
102
RTVSPropertyOp6
 70
     1
102
RTVSPropertyOp7
 70
     1
102
RTVSPropertyOp8
 70
     1
102
RTVSPropertyOp9
 70
     1
102
RTVSPropertyOp10
 70
     1
102
RTVSPropertyOp11
 70
     1
102
RTVSPropertyOp12
 70
     1
102
RTVSPropertyOp13
 70
     1
102
RTVSPropertyOp14
 70
     1
102
RTVSPropertyOp15
 70
     1
102
RTVSPropertyOp16
 70
     1
102
RTVSPropertyOp17
 70
     1
102
RTVSPropertyOp18
 70
     1
102
RTVSPropertyOp19
 70
     1
102
RTVSPropertyOp20
 70
     1
102
RTVSPropertyOp21
 70
     1
102
RTVSPropertyOp22
 70
     1
102
RTVSPropertyOp23
 70
     1
102
RTVSPropertyOp24
 70
     1
102
RTVSPropertyOp25
 70
     1
102
RTVSPropertyOp26
 70
     1
102
RTVSPropertyOp27
 70
     1
102
RTVSPropertyOp28
 70
     1
102
RTVSPropertyOp29
 70
     1
102
RTVSPropertyOp30
 70
     1
102
RTVSPropertyOp31
 70
     1
102
RTVSPropertyOp32
 70
     1
102
RTVSPropertyOp33
 70
     1
102
RTVSPropertyOp34
 70
     1
102
RTVSPropertyOp35
 70
     1
102
RTVSPropertyOp36
 70
     1
102
RTVSPropertyOp37
 70
     1
102
RTVSPropertyOp38
 70
     1
102
RTVSPropertyOp39
 70
     1
102
RTVSPropertyOp40
 70
     1
102
RTVSPropertyOp41
 70
     1
102
RTVSPropertyOp42
 70
     1
102
RTVSPropertyOp43
 70
     1
102
RTVSPropertyOp44
 70
     1
102
RTVSPropertyOp45
 70
     1
102
RTVSPropertyOp46
 70
     1
102
RTVSPropertyOp47
 70
     1
102
RTVSPropertyOp48
 70
     1
102
RTVSPropertyOp49
 70
     1
102
RTVSPropertyOp50
 70
     1
102
RTVSPropertyOp51
 70
     0
102
RTVSPropertyOp52
 70
     0
102
RTVSPropertyOp53
 70
     1
102
RTVSPropertyOp54
 70
     1
102
RTVSPropertyOp55
 70
     1
102
RTVSPropertyOp56
 70
     1
102
RTVSPropertyOp57
 70
     1
102
RTVSPropertyOp58
 70
     1
102
RTVSPropertyOp59
 70
     1
102
RTVSPropertyOp60
 70
     1
102
RTVSPropertyOp61
 70
     1
102
RTVSPropertyOp62
 70
     1
  0
XRECORD
  5
15872
102
{ACAD_REACTORS
330
15871
102
}
330
15871
100
AcDbXrecord
280
     1
102
RTVSPost2010Prop28
280
     0
102
RTVSPost2010PropOp28
 70
     1
102
RTVSPost2010Prop29
280
     1
102
RTVSPost2010PropOp29
 70
     1
102
RTVSPost2010Prop30
280
     1
102
RTVSPost2010PropOp30
 70
     1
102
RTVSPost2010Prop31
280
     0
102
RTVSPost2010PropOp31
 70
     1
102
RTVSPost2010Prop32
280
     0
102
RTVSPost2010PropOp32
 70
     1
102
RTVSPost2010Prop33
280
     0
102
RTVSPost2010PropOp33
 70
     1
102
RTVSPost2010Prop34
280
     0
102
RTVSPost2010PropOp34
 70
     1
102
RTVSPost2010Prop35
280
     0
102
RTVSPost2010PropOp35
 70
     1
102
RTVSPost2010Prop36
280
     0
102
RTVSPost2010PropOp36
 70
     1
102
RTVSPost2010Prop37
 90
       50
102
RTVSPost2010PropOp37
 70
     1
102
RTVSPost2010Prop38
140
0.0
102
RTVSPost2010PropOp38
 70
     1
102
RTVSPost2010Prop39
140
1.0
102
RTVSPost2010PropOp39
 70
     1
102
RTVSPost2010Prop40
 90
        0
102
RTVSPost2010PropOp40
 70
     1
102
RTVSPost2010Prop41ColorIndex
 90
       18
102
RTVSPost2010Prop41ColorRGB
 90
        0
102
RTVSPost2010PropOp41
 70
     1
102
RTVSPost2010Prop42
 90
       50
102
RTVSPost2010PropOp42
 70
     1
102
RTVSPost2010Prop43
 90
        3
102
RTVSPost2010PropOp43
 70
     1
102
RTVSPost2010Prop44ColorIndex
 90
        5
102
RTVSPost2010Prop44ColorRGB
 90
      255
102
RTVSPost2010PropOp44
 70
     1
102
RTVSPost2010Prop45
280
     0
102
RTVSPost2010PropOp45
 70
     1
102
RTVSPost2010Prop46
 90
       50
102
RTVSPost2010PropOp46
 70
     1
102
RTVSPost2010Prop47
 90
       50
102
RTVSPost2010PropOp47
 70
     1
102
RTVSPost2010Prop48
 90
       50
102
RTVSPost2010PropOp48
 70
     1
102
RTVSPost2010Prop49
280
     0
102
RTVSPost2010PropOp49
 70
     1
102
RTVSPost2010Prop50
 90
       50
102
RTVSPost2010PropOp50
 70
     1
102
RTVSPost2010Prop51ColorIndex
 90
      256
102
RTVSPost2010Prop51ColorRGB
 90
-16777216
102
RTVSPost2010PropOp51
 70
     0
102
RTVSPost2010Prop52
140
1.0
102
RTVSPost2010PropOp52
 70
     0
102
RTVSPost2010Prop53
 90
        2
102
RTVSPost2010PropOp53
 70
     1
102
RTVSPost2010Prop54
  1
strokes_ogs.tif
102
RTVSPost2010PropOp54
 70
     1
102
RTVSPost2010Prop55
280
     0
102
RTVSPost2010PropOp55
 70
     1
102
RTVSPost2010Prop56
140
1.0
102
RTVSPost2010PropOp56
 70
     1
102
RTVSPost2010Prop57
140
1.0
102
RTVSPost2010PropOp57
 70
     1
102
RTVSPropertyOp0
 70
     1
102
RTVSPropertyOp1
 70
     1
102
RTVSPropertyOp2
 70
     1
102
RTVSPropertyOp3
 70
     1
102
RTVSPropertyOp4
 70
     1
102
RTVSPropertyOp5
 70
     1
102
RTVSPropertyOp6
 70
     1
102
RTVSPropertyOp7
 70
     1
102
RTVSPropertyOp8
 70
     1
102
RTVSPropertyOp9
 70
     1
102
RTVSPropertyOp10
 70
     1
102
RTVSPropertyOp11
 70
     1
102
RTVSPropertyOp12
 70
     1
102
RTVSPropertyOp13
 70
     1
102
RTVSPropertyOp14
 70
     1
102
RTVSPropertyOp15
 70
     1
102
RTVSPropertyOp16
 70
     1
102
RTVSPropertyOp17
 70
     1
102
RTVSPropertyOp18
 70
     1
102
RTVSPropertyOp19
 70
     1
102
RTVSPropertyOp20
 70
     1
102
RTVSPropertyOp21
 70
     1
102
RTVSPropertyOp22
 70
     1
102
RTVSPropertyOp23
 70
     1
102
RTVSPropertyOp24
 70
     1
102
RTVSPropertyOp25
 70
     1
102
RTVSPropertyOp26
 70
     1
102
RTVSPropertyOp27
 70
     1
102
RTVSPropertyOp28
 70
     1
102
RTVSPropertyOp29
 70
     1
102
RTVSPropertyOp30
 70
     1
102
RTVSPropertyOp31
 70
     1
102
RTVSPropertyOp32
 70
     1
102
RTVSPropertyOp33
 70
     1
102
RTVSPropertyOp34
 70
     1
102
RTVSPropertyOp35
 70
     1
102
RTVSPropertyOp36
 70
     1
102
RTVSPropertyOp37
 70
     1
102
RTVSPropertyOp38
 70
     1
102
RTVSPropertyOp39
 70
     1
102
RTVSPropertyOp40
 70
     1
102
RTVSPropertyOp41
 70
     1
102
RTVSPropertyOp42
 70
     1
102
RTVSPropertyOp43
 70
     1
102
RTVSPropertyOp44
 70
     1
102
RTVSPropertyOp45
 70
     1
102
RTVSPropertyOp46
 70
     1
102
RTVSPropertyOp47
 70
     1
102
RTVSPropertyOp48
 70
     1
102
RTVSPropertyOp49
 70
     1
102
RTVSPropertyOp50
 70
     1
102
RTVSPropertyOp51
 70
     0
102
RTVSPropertyOp52
 70
     0
102
RTVSPropertyOp53
 70
     1
102
RTVSPropertyOp54
 70
     1
102
RTVSPropertyOp55
 70
     1
102
RTVSPropertyOp56
 70
     1
102
RTVSPropertyOp57
 70
     1
102
RTVSPropertyOp58
 70
     1
102
RTVSPropertyOp59
 70
     1
102
RTVSPropertyOp60
 70
     1
102
RTVSPropertyOp61
 70
     1
102
RTVSPropertyOp62
 70
     1
  0
XRECORD
  5
15870
102
{ACAD_REACTORS
330
1586F
102
}
330
1586F
100
AcDbXrecord
280
     1
102
RTVSPost2010Prop28
280
     0
102
RTVSPost2010PropOp28
 70
     1
102
RTVSPost2010Prop29
280
     1
102
RTVSPost2010PropOp29
 70
     1
102
RTVSPost2010Prop30
280
     1
102
RTVSPost2010PropOp30
 70
     1
102
RTVSPost2010Prop31
280
     0
102
RTVSPost2010PropOp31
 70
     1
102
RTVSPost2010Prop32
280
     0
102
RTVSPost2010PropOp32
 70
     1
102
RTVSPost2010Prop33
280
     0
102
RTVSPost2010PropOp33
 70
     1
102
RTVSPost2010Prop34
280
     0
102
RTVSPost2010PropOp34
 70
     1
102
RTVSPost2010Prop35
280
     0
102
RTVSPost2010PropOp35
 70
     1
102
RTVSPost2010Prop36
280
     0
102
RTVSPost2010PropOp36
 70
     1
102
RTVSPost2010Prop37
 90
       50
102
RTVSPost2010PropOp37
 70
     1
102
RTVSPost2010Prop38
140
0.0
102
RTVSPost2010PropOp38
 70
     1
102
RTVSPost2010Prop39
140
1.0
102
RTVSPost2010PropOp39
 70
     1
102
RTVSPost2010Prop40
 90
        0
102
RTVSPost2010PropOp40
 70
     1
102
RTVSPost2010Prop41ColorIndex
 90
       18
102
RTVSPost2010Prop41ColorRGB
 90
        0
102
RTVSPost2010PropOp41
 70
     1
102
RTVSPost2010Prop42
 90
       50
102
RTVSPost2010PropOp42
 70
     1
102
RTVSPost2010Prop43
 90
        3
102
RTVSPost2010PropOp43
 70
     1
102
RTVSPost2010Prop44ColorIndex
 90
        5
102
RTVSPost2010Prop44ColorRGB
 90
      255
102
RTVSPost2010PropOp44
 70
     1
102
RTVSPost2010Prop45
280
     0
102
RTVSPost2010PropOp45
 70
     1
102
RTVSPost2010Prop46
 90
       50
102
RTVSPost2010PropOp46
 70
     1
102
RTVSPost2010Prop47
 90
       50
102
RTVSPost2010PropOp47
 70
     1
102
RTVSPost2010Prop48
 90
       50
102
RTVSPost2010PropOp48
 70
     1
102
RTVSPost2010Prop49
280
     0
102
RTVSPost2010PropOp49
 70
     1
102
RTVSPost2010Prop50
 90
       50
102
RTVSPost2010PropOp50
 70
     1
102
RTVSPost2010Prop51ColorIndex
 90
      256
102
RTVSPost2010Prop51ColorRGB
 90
-16777216
102
RTVSPost2010PropOp51
 70
     0
102
RTVSPost2010Prop52
140
1.0
102
RTVSPost2010PropOp52
 70
     0
102
RTVSPost2010Prop53
 90
        2
102
RTVSPost2010PropOp53
 70
     1
102
RTVSPost2010Prop54
  1
strokes_ogs.tif
102
RTVSPost2010PropOp54
 70
     1
102
RTVSPost2010Prop55
280
     0
102
RTVSPost2010PropOp55
 70
     1
102
RTVSPost2010Prop56
140
1.0
102
RTVSPost2010PropOp56
 70
     1
102
RTVSPost2010Prop57
140
1.0
102
RTVSPost2010PropOp57
 70
     1
102
RTVSPropertyOp0
 70
     1
102
RTVSPropertyOp1
 70
     1
102
RTVSPropertyOp2
 70
     1
102
RTVSPropertyOp3
 70
     1
102
RTVSPropertyOp4
 70
     1
102
RTVSPropertyOp5
 70
     1
102
RTVSPropertyOp6
 70
     1
102
RTVSPropertyOp7
 70
     1
102
RTVSPropertyOp8
 70
     1
102
RTVSPropertyOp9
 70
     1
102
RTVSPropertyOp10
 70
     1
102
RTVSPropertyOp11
 70
     1
102
RTVSPropertyOp12
 70
     1
102
RTVSPropertyOp13
 70
     1
102
RTVSPropertyOp14
 70
     1
102
RTVSPropertyOp15
 70
     1
102
RTVSPropertyOp16
 70
     1
102
RTVSPropertyOp17
 70
     1
102
RTVSPropertyOp18
 70
     1
102
RTVSPropertyOp19
 70
     1
102
RTVSPropertyOp20
 70
     1
102
RTVSPropertyOp21
 70
     1
102
RTVSPropertyOp22
 70
     1
102
RTVSPropertyOp23
 70
     1
102
RTVSPropertyOp24
 70
     1
102
RTVSPropertyOp25
 70
     1
102
RTVSPropertyOp26
 70
     1
102
RTVSPropertyOp27
 70
     1
102
RTVSPropertyOp28
 70
     1
102
RTVSPropertyOp29
 70
     1
102
RTVSPropertyOp30
 70
     1
102
RTVSPropertyOp31
 70
     1
102
RTVSPropertyOp32
 70
     1
102
RTVSPropertyOp33
 70
     1
102
RTVSPropertyOp34
 70
     1
102
RTVSPropertyOp35
 70
     1
102
RTVSPropertyOp36
 70
     1
102
RTVSPropertyOp37
 70
     1
102
RTVSPropertyOp38
 70
     1
102
RTVSPropertyOp39
 70
     1
102
RTVSPropertyOp40
 70
     1
102
RTVSPropertyOp41
 70
     1
102
RTVSPropertyOp42
 70
     1
102
RTVSPropertyOp43
 70
     1
102
RTVSPropertyOp44
 70
     1
102
RTVSPropertyOp45
 70
     1
102
RTVSPropertyOp46
 70
     1
102
RTVSPropertyOp47
 70
     1
102
RTVSPropertyOp48
 70
     1
102
RTVSPropertyOp49
 70
     1
102
RTVSPropertyOp50
 70
     1
102
RTVSPropertyOp51
 70
     0
102
RTVSPropertyOp52
 70
     0
102
RTVSPropertyOp53
 70
     1
102
RTVSPropertyOp54
 70
     1
102
RTVSPropertyOp55
 70
     1
102
RTVSPropertyOp56
 70
     1
102
RTVSPropertyOp57
 70
     1
102
RTVSPropertyOp58
 70
     1
102
RTVSPropertyOp59
 70
     1
102
RTVSPropertyOp60
 70
     1
102
RTVSPropertyOp61
 70
     1
102
RTVSPropertyOp62
 70
     1
  0
XRECORD
  5
1586A
102
{ACAD_REACTORS
330
15869
102
}
330
15869
100
AcDbXrecord
280
     1
102
RTVSPost2010Prop28
280
     0
102
RTVSPost2010PropOp28
 70
     1
102
RTVSPost2010Prop29
280
     1
102
RTVSPost2010PropOp29
 70
     1
102
RTVSPost2010Prop30
280
     1
102
RTVSPost2010PropOp30
 70
     1
102
RTVSPost2010Prop31
280
     0
102
RTVSPost2010PropOp31
 70
     1
102
RTVSPost2010Prop32
280
     0
102
RTVSPost2010PropOp32
 70
     1
102
RTVSPost2010Prop33
280
     0
102
RTVSPost2010PropOp33
 70
     1
102
RTVSPost2010Prop34
280
     0
102
RTVSPost2010PropOp34
 70
     1
102
RTVSPost2010Prop35
280
     0
102
RTVSPost2010PropOp35
 70
     1
102
RTVSPost2010Prop36
280
     0
102
RTVSPost2010PropOp36
 70
     1
102
RTVSPost2010Prop37
 90
       50
102
RTVSPost2010PropOp37
 70
     1
102
RTVSPost2010Prop38
140
0.0
102
RTVSPost2010PropOp38
 70
     1
102
RTVSPost2010Prop39
140
1.0
102
RTVSPost2010PropOp39
 70
     1
102
RTVSPost2010Prop40
 90
        0
102
RTVSPost2010PropOp40
 70
     1
102
RTVSPost2010Prop41ColorIndex
 90
       18
102
RTVSPost2010Prop41ColorRGB
 90
        0
102
RTVSPost2010PropOp41
 70
     1
102
RTVSPost2010Prop42
 90
       50
102
RTVSPost2010PropOp42
 70
     1
102
RTVSPost2010Prop43
 90
        3
102
RTVSPost2010PropOp43
 70
     1
102
RTVSPost2010Prop44ColorIndex
 90
        5
102
RTVSPost2010Prop44ColorRGB
 90
      255
102
RTVSPost2010PropOp44
 70
     1
102
RTVSPost2010Prop45
280
     0
102
RTVSPost2010PropOp45
 70
     1
102
RTVSPost2010Prop46
 90
       50
102
RTVSPost2010PropOp46
 70
     1
102
RTVSPost2010Prop47
 90
       50
102
RTVSPost2010PropOp47
 70
     1
102
RTVSPost2010Prop48
 90
       50
102
RTVSPost2010PropOp48
 70
     1
102
RTVSPost2010Prop49
280
     0
102
RTVSPost2010PropOp49
 70
     1
102
RTVSPost2010Prop50
 90
       50
102
RTVSPost2010PropOp50
 70
     1
102
RTVSPost2010Prop51ColorIndex
 90
      256
102
RTVSPost2010Prop51ColorRGB
 90
-16777216
102
RTVSPost2010PropOp51
 70
     0
102
RTVSPost2010Prop52
140
1.0
102
RTVSPost2010PropOp52
 70
     0
102
RTVSPost2010Prop53
 90
        2
102
RTVSPost2010PropOp53
 70
     1
102
RTVSPost2010Prop54
  1
strokes_ogs.tif
102
RTVSPost2010PropOp54
 70
     1
102
RTVSPost2010Prop55
280
     0
102
RTVSPost2010PropOp55
 70
     1
102
RTVSPost2010Prop56
140
1.0
102
RTVSPost2010PropOp56
 70
     1
102
RTVSPost2010Prop57
140
1.0
102
RTVSPost2010PropOp57
 70
     1
102
RTVSPropertyOp0
 70
     1
102
RTVSPropertyOp1
 70
     1
102
RTVSPropertyOp2
 70
     1
102
RTVSPropertyOp3
 70
     1
102
RTVSPropertyOp4
 70
     1
102
RTVSPropertyOp5
 70
     1
102
RTVSPropertyOp6
 70
     1
102
RTVSPropertyOp7
 70
     1
102
RTVSPropertyOp8
 70
     1
102
RTVSPropertyOp9
 70
     1
102
RTVSPropertyOp10
 70
     1
102
RTVSPropertyOp11
 70
     1
102
RTVSPropertyOp12
 70
     1
102
RTVSPropertyOp13
 70
     1
102
RTVSPropertyOp14
 70
     1
102
RTVSPropertyOp15
 70
     1
102
RTVSPropertyOp16
 70
     1
102
RTVSPropertyOp17
 70
     1
102
RTVSPropertyOp18
 70
     1
102
RTVSPropertyOp19
 70
     1
102
RTVSPropertyOp20
 70
     1
102
RTVSPropertyOp21
 70
     1
102
RTVSPropertyOp22
 70
     1
102
RTVSPropertyOp23
 70
     1
102
RTVSPropertyOp24
 70
     1
102
RTVSPropertyOp25
 70
     1
102
RTVSPropertyOp26
 70
     1
102
RTVSPropertyOp27
 70
     1
102
RTVSPropertyOp28
 70
     1
102
RTVSPropertyOp29
 70
     1
102
RTVSPropertyOp30
 70
     1
102
RTVSPropertyOp31
 70
     1
102
RTVSPropertyOp32
 70
     1
102
RTVSPropertyOp33
 70
     1
102
RTVSPropertyOp34
 70
     1
102
RTVSPropertyOp35
 70
     1
102
RTVSPropertyOp36
 70
     1
102
RTVSPropertyOp37
 70
     1
102
RTVSPropertyOp38
 70
     1
102
RTVSPropertyOp39
 70
     1
102
RTVSPropertyOp40
 70
     1
102
RTVSPropertyOp41
 70
     1
102
RTVSPropertyOp42
 70
     1
102
RTVSPropertyOp43
 70
     1
102
RTVSPropertyOp44
 70
     1
102
RTVSPropertyOp45
 70
     1
102
RTVSPropertyOp46
 70
     1
102
RTVSPropertyOp47
 70
     1
102
RTVSPropertyOp48
 70
     1
102
RTVSPropertyOp49
 70
     1
102
RTVSPropertyOp50
 70
     1
102
RTVSPropertyOp51
 70
     0
102
RTVSPropertyOp52
 70
     0
102
RTVSPropertyOp53
 70
     1
102
RTVSPropertyOp54
 70
     1
102
RTVSPropertyOp55
 70
     1
102
RTVSPropertyOp56
 70
     1
102
RTVSPropertyOp57
 70
     1
102
RTVSPropertyOp58
 70
     1
102
RTVSPropertyOp59
 70
     1
102
RTVSPropertyOp60
 70
     1
102
RTVSPropertyOp61
 70
     1
102
RTVSPropertyOp62
 70
     1
  0
XRECORD
  5
1586C
102
{ACAD_REACTORS
330
1586B
102
}
330
1586B
100
AcDbXrecord
280
     1
102
RTVSPost2010Prop28
280
     0
102
RTVSPost2010PropOp28
 70
     1
102
RTVSPost2010Prop29
280
     1
102
RTVSPost2010PropOp29
 70
     1
102
RTVSPost2010Prop30
280
     1
102
RTVSPost2010PropOp30
 70
     1
102
RTVSPost2010Prop31
280
     0
102
RTVSPost2010PropOp31
 70
     1
102
RTVSPost2010Prop32
280
     0
102
RTVSPost2010PropOp32
 70
     1
102
RTVSPost2010Prop33
280
     0
102
RTVSPost2010PropOp33
 70
     1
102
RTVSPost2010Prop34
280
     0
102
RTVSPost2010PropOp34
 70
     1
102
RTVSPost2010Prop35
280
     0
102
RTVSPost2010PropOp35
 70
     1
102
RTVSPost2010Prop36
280
     0
102
RTVSPost2010PropOp36
 70
     1
102
RTVSPost2010Prop37
 90
       50
102
RTVSPost2010PropOp37
 70
     1
102
RTVSPost2010Prop38
140
0.0
102
RTVSPost2010PropOp38
 70
     1
102
RTVSPost2010Prop39
140
1.0
102
RTVSPost2010PropOp39
 70
     1
102
RTVSPost2010Prop40
 90
        0
102
RTVSPost2010PropOp40
 70
     1
102
RTVSPost2010Prop41ColorIndex
 90
       18
102
RTVSPost2010Prop41ColorRGB
 90
        0
102
RTVSPost2010PropOp41
 70
     1
102
RTVSPost2010Prop42
 90
       50
102
RTVSPost2010PropOp42
 70
     1
102
RTVSPost2010Prop43
 90
        3
102
RTVSPost2010PropOp43
 70
     1
102
RTVSPost2010Prop44ColorIndex
 90
        5
102
RTVSPost2010Prop44ColorRGB
 90
      255
102
RTVSPost2010PropOp44
 70
     1
102
RTVSPost2010Prop45
280
     0
102
RTVSPost2010PropOp45
 70
     1
102
RTVSPost2010Prop46
 90
       50
102
RTVSPost2010PropOp46
 70
     1
102
RTVSPost2010Prop47
 90
       50
102
RTVSPost2010PropOp47
 70
     1
102
RTVSPost2010Prop48
 90
       50
102
RTVSPost2010PropOp48
 70
     1
102
RTVSPost2010Prop49
280
     0
102
RTVSPost2010PropOp49
 70
     1
102
RTVSPost2010Prop50
 90
       50
102
RTVSPost2010PropOp50
 70
     1
102
RTVSPost2010Prop51ColorIndex
 90
      256
102
RTVSPost2010Prop51ColorRGB
 90
-16777216
102
RTVSPost2010PropOp51
 70
     0
102
RTVSPost2010Prop52
140
1.0
102
RTVSPost2010PropOp52
 70
     0
102
RTVSPost2010Prop53
 90
        2
102
RTVSPost2010PropOp53
 70
     1
102
RTVSPost2010Prop54
  1
strokes_ogs.tif
102
RTVSPost2010PropOp54
 70
     1
102
RTVSPost2010Prop55
280
     0
102
RTVSPost2010PropOp55
 70
     1
102
RTVSPost2010Prop56
140
1.0
102
RTVSPost2010PropOp56
 70
     1
102
RTVSPost2010Prop57
140
1.0
102
RTVSPost2010PropOp57
 70
     1
102
RTVSPropertyOp0
 70
     1
102
RTVSPropertyOp1
 70
     1
102
RTVSPropertyOp2
 70
     1
102
RTVSPropertyOp3
 70
     1
102
RTVSPropertyOp4
 70
     1
102
RTVSPropertyOp5
 70
     1
102
RTVSPropertyOp6
 70
     1
102
RTVSPropertyOp7
 70
     1
102
RTVSPropertyOp8
 70
     1
102
RTVSPropertyOp9
 70
     1
102
RTVSPropertyOp10
 70
     1
102
RTVSPropertyOp11
 70
     1
102
RTVSPropertyOp12
 70
     1
102
RTVSPropertyOp13
 70
     1
102
RTVSPropertyOp14
 70
     1
102
RTVSPropertyOp15
 70
     1
102
RTVSPropertyOp16
 70
     1
102
RTVSPropertyOp17
 70
     1
102
RTVSPropertyOp18
 70
     1
102
RTVSPropertyOp19
 70
     1
102
RTVSPropertyOp20
 70
     1
102
RTVSPropertyOp21
 70
     1
102
RTVSPropertyOp22
 70
     1
102
RTVSPropertyOp23
 70
     1
102
RTVSPropertyOp24
 70
     1
102
RTVSPropertyOp25
 70
     1
102
RTVSPropertyOp26
 70
     1
102
RTVSPropertyOp27
 70
     1
102
RTVSPropertyOp28
 70
     1
102
RTVSPropertyOp29
 70
     1
102
RTVSPropertyOp30
 70
     1
102
RTVSPropertyOp31
 70
     1
102
RTVSPropertyOp32
 70
     1
102
RTVSPropertyOp33
 70
     1
102
RTVSPropertyOp34
 70
     1
102
RTVSPropertyOp35
 70
     1
102
RTVSPropertyOp36
 70
     1
102
RTVSPropertyOp37
 70
     1
102
RTVSPropertyOp38
 70
     1
102
RTVSPropertyOp39
 70
     1
102
RTVSPropertyOp40
 70
     1
102
RTVSPropertyOp41
 70
     1
102
RTVSPropertyOp42
 70
     1
102
RTVSPropertyOp43
 70
     1
102
RTVSPropertyOp44
 70
     1
102
RTVSPropertyOp45
 70
     1
102
RTVSPropertyOp46
 70
     1
102
RTVSPropertyOp47
 70
     1
102
RTVSPropertyOp48
 70
     1
102
RTVSPropertyOp49
 70
     1
102
RTVSPropertyOp50
 70
     1
102
RTVSPropertyOp51
 70
     0
102
RTVSPropertyOp52
 70
     0
102
RTVSPropertyOp53
 70
     1
102
RTVSPropertyOp54
 70
     1
102
RTVSPropertyOp55
 70
     1
102
RTVSPropertyOp56
 70
     1
102
RTVSPropertyOp57
 70
     1
102
RTVSPropertyOp58
 70
     1
102
RTVSPropertyOp59
 70
     1
102
RTVSPropertyOp60
 70
     1
102
RTVSPropertyOp61
 70
     1
102
RTVSPropertyOp62
 70
     1
  0
XRECORD
  5
15862
102
{ACAD_REACTORS
330
15861
102
}
330
15861
100
AcDbXrecord
280
     1
102
RTVSPost2010Prop28
280
     0
102
RTVSPost2010PropOp28
 70
     1
102
RTVSPost2010Prop29
280
     1
102
RTVSPost2010PropOp29
 70
     1
102
RTVSPost2010Prop30
280
     1
102
RTVSPost2010PropOp30
 70
     1
102
RTVSPost2010Prop31
280
     0
102
RTVSPost2010PropOp31
 70
     1
102
RTVSPost2010Prop32
280
     0
102
RTVSPost2010PropOp32
 70
     1
102
RTVSPost2010Prop33
280
     0
102
RTVSPost2010PropOp33
 70
     1
102
RTVSPost2010Prop34
280
     0
102
RTVSPost2010PropOp34
 70
     1
102
RTVSPost2010Prop35
280
     0
102
RTVSPost2010PropOp35
 70
     1
102
RTVSPost2010Prop36
280
     0
102
RTVSPost2010PropOp36
 70
     1
102
RTVSPost2010Prop37
 90
       50
102
RTVSPost2010PropOp37
 70
     1
102
RTVSPost2010Prop38
140
0.0
102
RTVSPost2010PropOp38
 70
     1
102
RTVSPost2010Prop39
140
1.0
102
RTVSPost2010PropOp39
 70
     1
102
RTVSPost2010Prop40
 90
        0
102
RTVSPost2010PropOp40
 70
     1
102
RTVSPost2010Prop41ColorIndex
 90
       18
102
RTVSPost2010Prop41ColorRGB
 90
        0
102
RTVSPost2010PropOp41
 70
     1
102
RTVSPost2010Prop42
 90
       50
102
RTVSPost2010PropOp42
 70
     1
102
RTVSPost2010Prop43
 90
        3
102
RTVSPost2010PropOp43
 70
     1
102
RTVSPost2010Prop44ColorIndex
 90
        5
102
RTVSPost2010Prop44ColorRGB
 90
      255
102
RTVSPost2010PropOp44
 70
     1
102
RTVSPost2010Prop45
280
     0
102
RTVSPost2010PropOp45
 70
     1
102
RTVSPost2010Prop46
 90
       50
102
RTVSPost2010PropOp46
 70
     1
102
RTVSPost2010Prop47
 90
       50
102
RTVSPost2010PropOp47
 70
     1
102
RTVSPost2010Prop48
 90
       50
102
RTVSPost2010PropOp48
 70
     1
102
RTVSPost2010Prop49
280
     0
102
RTVSPost2010PropOp49
 70
     1
102
RTVSPost2010Prop50
 90
       50
102
RTVSPost2010PropOp50
 70
     1
102
RTVSPost2010Prop51ColorIndex
 90
      256
102
RTVSPost2010Prop51ColorRGB
 90
-16777216
102
RTVSPost2010PropOp51
 70
     0
102
RTVSPost2010Prop52
140
1.0
102
RTVSPost2010PropOp52
 70
     0
102
RTVSPost2010Prop53
 90
        2
102
RTVSPost2010PropOp53
 70
     1
102
RTVSPost2010Prop54
  1
strokes_ogs.tif
102
RTVSPost2010PropOp54
 70
     1
102
RTVSPost2010Prop55
280
     0
102
RTVSPost2010PropOp55
 70
     1
102
RTVSPost2010Prop56
140
1.0
102
RTVSPost2010PropOp56
 70
     1
102
RTVSPost2010Prop57
140
1.0
102
RTVSPost2010PropOp57
 70
     1
102
RTVSPropertyOp0
 70
     1
102
RTVSPropertyOp1
 70
     1
102
RTVSPropertyOp2
 70
     1
102
RTVSPropertyOp3
 70
     1
102
RTVSPropertyOp4
 70
     1
102
RTVSPropertyOp5
 70
     1
102
RTVSPropertyOp6
 70
     1
102
RTVSPropertyOp7
 70
     1
102
RTVSPropertyOp8
 70
     1
102
RTVSPropertyOp9
 70
     1
102
RTVSPropertyOp10
 70
     1
102
RTVSPropertyOp11
 70
     1
102
RTVSPropertyOp12
 70
     1
102
RTVSPropertyOp13
 70
     1
102
RTVSPropertyOp14
 70
     1
102
RTVSPropertyOp15
 70
     1
102
RTVSPropertyOp16
 70
     1
102
RTVSPropertyOp17
 70
     1
102
RTVSPropertyOp18
 70
     1
102
RTVSPropertyOp19
 70
     1
102
RTVSPropertyOp20
 70
     1
102
RTVSPropertyOp21
 70
     1
102
RTVSPropertyOp22
 70
     1
102
RTVSPropertyOp23
 70
     1
102
RTVSPropertyOp24
 70
     1
102
RTVSPropertyOp25
 70
     1
102
RTVSPropertyOp26
 70
     1
102
RTVSPropertyOp27
 70
     1
102
RTVSPropertyOp28
 70
     1
102
RTVSPropertyOp29
 70
     1
102
RTVSPropertyOp30
 70
     1
102
RTVSPropertyOp31
 70
     1
102
RTVSPropertyOp32
 70
     1
102
RTVSPropertyOp33
 70
     1
102
RTVSPropertyOp34
 70
     1
102
RTVSPropertyOp35
 70
     1
102
RTVSPropertyOp36
 70
     1
102
RTVSPropertyOp37
 70
     1
102
RTVSPropertyOp38
 70
     1
102
RTVSPropertyOp39
 70
     1
102
RTVSPropertyOp40
 70
     1
102
RTVSPropertyOp41
 70
     1
102
RTVSPropertyOp42
 70
     1
102
RTVSPropertyOp43
 70
     1
102
RTVSPropertyOp44
 70
     1
102
RTVSPropertyOp45
 70
     1
102
RTVSPropertyOp46
 70
     1
102
RTVSPropertyOp47
 70
     1
102
RTVSPropertyOp48
 70
     1
102
RTVSPropertyOp49
 70
     1
102
RTVSPropertyOp50
 70
     1
102
RTVSPropertyOp51
 70
     0
102
RTVSPropertyOp52
 70
     0
102
RTVSPropertyOp53
 70
     1
102
RTVSPropertyOp54
 70
     1
102
RTVSPropertyOp55
 70
     1
102
RTVSPropertyOp56
 70
     1
102
RTVSPropertyOp57
 70
     1
102
RTVSPropertyOp58
 70
     1
102
RTVSPropertyOp59
 70
     1
102
RTVSPropertyOp60
 70
     1
102
RTVSPropertyOp61
 70
     1
102
RTVSPropertyOp62
 70
     1
  0
XRECORD
  5
15856
102
{ACAD_REACTORS
330
15855
102
}
330
15855
100
AcDbXrecord
280
     1
102
RTVSPost2010Prop28
280
     0
102
RTVSPost2010PropOp28
 70
     1
102
RTVSPost2010Prop29
280
     1
102
RTVSPost2010PropOp29
 70
     1
102
RTVSPost2010Prop30
280
     1
102
RTVSPost2010PropOp30
 70
     1
102
RTVSPost2010Prop31
280
     0
102
RTVSPost2010PropOp31
 70
     1
102
RTVSPost2010Prop32
280
     0
102
RTVSPost2010PropOp32
 70
     1
102
RTVSPost2010Prop33
280
     0
102
RTVSPost2010PropOp33
 70
     1
102
RTVSPost2010Prop34
280
     0
102
RTVSPost2010PropOp34
 70
     1
102
RTVSPost2010Prop35
280
     0
102
RTVSPost2010PropOp35
 70
     1
102
RTVSPost2010Prop36
280
     0
102
RTVSPost2010PropOp36
 70
     1
102
RTVSPost2010Prop37
 90
       50
102
RTVSPost2010PropOp37
 70
     1
102
RTVSPost2010Prop38
140
0.0
102
RTVSPost2010PropOp38
 70
     1
102
RTVSPost2010Prop39
140
1.0
102
RTVSPost2010PropOp39
 70
     1
102
RTVSPost2010Prop40
 90
        0
102
RTVSPost2010PropOp40
 70
     1
102
RTVSPost2010Prop41ColorIndex
 90
       18
102
RTVSPost2010Prop41ColorRGB
 90
        0
102
RTVSPost2010PropOp41
 70
     1
102
RTVSPost2010Prop42
 90
       50
102
RTVSPost2010PropOp42
 70
     1
102
RTVSPost2010Prop43
 90
        3
102
RTVSPost2010PropOp43
 70
     1
102
RTVSPost2010Prop44ColorIndex
 90
        5
102
RTVSPost2010Prop44ColorRGB
 90
      255
102
RTVSPost2010PropOp44
 70
     1
102
RTVSPost2010Prop45
280
     0
102
RTVSPost2010PropOp45
 70
     1
102
RTVSPost2010Prop46
 90
       50
102
RTVSPost2010PropOp46
 70
     1
102
RTVSPost2010Prop47
 90
       50
102
RTVSPost2010PropOp47
 70
     1
102
RTVSPost2010Prop48
 90
       50
102
RTVSPost2010PropOp48
 70
     1
102
RTVSPost2010Prop49
280
     0
102
RTVSPost2010PropOp49
 70
     1
102
RTVSPost2010Prop50
 90
       50
102
RTVSPost2010PropOp50
 70
     1
102
RTVSPost2010Prop51ColorIndex
 90
      256
102
RTVSPost2010Prop51ColorRGB
 90
-16777216
102
RTVSPost2010PropOp51
 70
     0
102
RTVSPost2010Prop52
140
1.0
102
RTVSPost2010PropOp52
 70
     0
102
RTVSPost2010Prop53
 90
        2
102
RTVSPost2010PropOp53
 70
     1
102
RTVSPost2010Prop54
  1
strokes_ogs.tif
102
RTVSPost2010PropOp54
 70
     1
102
RTVSPost2010Prop55
280
     0
102
RTVSPost2010PropOp55
 70
     1
102
RTVSPost2010Prop56
140
1.0
102
RTVSPost2010PropOp56
 70
     1
102
RTVSPost2010Prop57
140
1.0
102
RTVSPost2010PropOp57
 70
     1
102
RTVSPropertyOp0
 70
     1
102
RTVSPropertyOp1
 70
     1
102
RTVSPropertyOp2
 70
     1
102
RTVSPropertyOp3
 70
     1
102
RTVSPropertyOp4
 70
     1
102
RTVSPropertyOp5
 70
     1
102
RTVSPropertyOp6
 70
     1
102
RTVSPropertyOp7
 70
     1
102
RTVSPropertyOp8
 70
     1
102
RTVSPropertyOp9
 70
     1
102
RTVSPropertyOp10
 70
     1
102
RTVSPropertyOp11
 70
     1
102
RTVSPropertyOp12
 70
     1
102
RTVSPropertyOp13
 70
     1
102
RTVSPropertyOp14
 70
     1
102
RTVSPropertyOp15
 70
     1
102
RTVSPropertyOp16
 70
     1
102
RTVSPropertyOp17
 70
     1
102
RTVSPropertyOp18
 70
     1
102
RTVSPropertyOp19
 70
     1
102
RTVSPropertyOp20
 70
     1
102
RTVSPropertyOp21
 70
     1
102
RTVSPropertyOp22
 70
     1
102
RTVSPropertyOp23
 70
     1
102
RTVSPropertyOp24
 70
     1
102
RTVSPropertyOp25
 70
     1
102
RTVSPropertyOp26
 70
     1
102
RTVSPropertyOp27
 70
     1
102
RTVSPropertyOp28
 70
     1
102
RTVSPropertyOp29
 70
     1
102
RTVSPropertyOp30
 70
     1
102
RTVSPropertyOp31
 70
     1
102
RTVSPropertyOp32
 70
     1
102
RTVSPropertyOp33
 70
     1
102
RTVSPropertyOp34
 70
     1
102
RTVSPropertyOp35
 70
     1
102
RTVSPropertyOp36
 70
     1
102
RTVSPropertyOp37
 70
     1
102
RTVSPropertyOp38
 70
     1
102
RTVSPropertyOp39
 70
     1
102
RTVSPropertyOp40
 70
     1
102
RTVSPropertyOp41
 70
     1
102
RTVSPropertyOp42
 70
     1
102
RTVSPropertyOp43
 70
     1
102
RTVSPropertyOp44
 70
     1
102
RTVSPropertyOp45
 70
     1
102
RTVSPropertyOp46
 70
     1
102
RTVSPropertyOp47
 70
     1
102
RTVSPropertyOp48
 70
     1
102
RTVSPropertyOp49
 70
     1
102
RTVSPropertyOp50
 70
     1
102
RTVSPropertyOp51
 70
     0
102
RTVSPropertyOp52
 70
     0
102
RTVSPropertyOp53
 70
     1
102
RTVSPropertyOp54
 70
     1
102
RTVSPropertyOp55
 70
     1
102
RTVSPropertyOp56
 70
     1
102
RTVSPropertyOp57
 70
     1
102
RTVSPropertyOp58
 70
     1
102
RTVSPropertyOp59
 70
     1
102
RTVSPropertyOp60
 70
     1
102
RTVSPropertyOp61
 70
     1
102
RTVSPropertyOp62
 70
     1
  0
XRECORD
  5
1586E
102
{ACAD_REACTORS
330
1586D
102
}
330
1586D
100
AcDbXrecord
280
     1
102
RTVSPost2010Prop28
280
     0
102
RTVSPost2010PropOp28
 70
     1
102
RTVSPost2010Prop29
280
     1
102
RTVSPost2010PropOp29
 70
     1
102
RTVSPost2010Prop30
280
     1
102
RTVSPost2010PropOp30
 70
     1
102
RTVSPost2010Prop31
280
     0
102
RTVSPost2010PropOp31
 70
     1
102
RTVSPost2010Prop32
280
     0
102
RTVSPost2010PropOp32
 70
     1
102
RTVSPost2010Prop33
280
     0
102
RTVSPost2010PropOp33
 70
     1
102
RTVSPost2010Prop34
280
     0
102
RTVSPost2010PropOp34
 70
     1
102
RTVSPost2010Prop35
280
     0
102
RTVSPost2010PropOp35
 70
     1
102
RTVSPost2010Prop36
280
     0
102
RTVSPost2010PropOp36
 70
     1
102
RTVSPost2010Prop37
 90
       50
102
RTVSPost2010PropOp37
 70
     1
102
RTVSPost2010Prop38
140
0.0
102
RTVSPost2010PropOp38
 70
     1
102
RTVSPost2010Prop39
140
1.0
102
RTVSPost2010PropOp39
 70
     1
102
RTVSPost2010Prop40
 90
        0
102
RTVSPost2010PropOp40
 70
     1
102
RTVSPost2010Prop41ColorIndex
 90
       18
102
RTVSPost2010Prop41ColorRGB
 90
        0
102
RTVSPost2010PropOp41
 70
     1
102
RTVSPost2010Prop42
 90
       50
102
RTVSPost2010PropOp42
 70
     1
102
RTVSPost2010Prop43
 90
        3
102
RTVSPost2010PropOp43
 70
     1
102
RTVSPost2010Prop44ColorIndex
 90
        5
102
RTVSPost2010Prop44ColorRGB
 90
      255
102
RTVSPost2010PropOp44
 70
     1
102
RTVSPost2010Prop45
280
     0
102
RTVSPost2010PropOp45
 70
     1
102
RTVSPost2010Prop46
 90
       50
102
RTVSPost2010PropOp46
 70
     1
102
RTVSPost2010Prop47
 90
       50
102
RTVSPost2010PropOp47
 70
     1
102
RTVSPost2010Prop48
 90
       50
102
RTVSPost2010PropOp48
 70
     1
102
RTVSPost2010Prop49
280
     0
102
RTVSPost2010PropOp49
 70
     1
102
RTVSPost2010Prop50
 90
       50
102
RTVSPost2010PropOp50
 70
     1
102
RTVSPost2010Prop51ColorIndex
 90
      256
102
RTVSPost2010Prop51ColorRGB
 90
-16777216
102
RTVSPost2010PropOp51
 70
     0
102
RTVSPost2010Prop52
140
1.0
102
RTVSPost2010PropOp52
 70
     0
102
RTVSPost2010Prop53
 90
        2
102
RTVSPost2010PropOp53
 70
     1
102
RTVSPost2010Prop54
  1
strokes_ogs.tif
102
RTVSPost2010PropOp54
 70
     1
102
RTVSPost2010Prop55
280
     0
102
RTVSPost2010PropOp55
 70
     1
102
RTVSPost2010Prop56
140
1.0
102
RTVSPost2010PropOp56
 70
     1
102
RTVSPost2010Prop57
140
1.0
102
RTVSPost2010PropOp57
 70
     1
102
RTVSPropertyOp0
 70
     1
102
RTVSPropertyOp1
 70
     1
102
RTVSPropertyOp2
 70
     1
102
RTVSPropertyOp3
 70
     1
102
RTVSPropertyOp4
 70
     1
102
RTVSPropertyOp5
 70
     1
102
RTVSPropertyOp6
 70
     1
102
RTVSPropertyOp7
 70
     1
102
RTVSPropertyOp8
 70
     1
102
RTVSPropertyOp9
 70
     1
102
RTVSPropertyOp10
 70
     1
102
RTVSPropertyOp11
 70
     1
102
RTVSPropertyOp12
 70
     1
102
RTVSPropertyOp13
 70
     1
102
RTVSPropertyOp14
 70
     1
102
RTVSPropertyOp15
 70
     1
102
RTVSPropertyOp16
 70
     1
102
RTVSPropertyOp17
 70
     1
102
RTVSPropertyOp18
 70
     1
102
RTVSPropertyOp19
 70
     1
102
RTVSPropertyOp20
 70
     1
102
RTVSPropertyOp21
 70
     1
102
RTVSPropertyOp22
 70
     1
102
RTVSPropertyOp23
 70
     1
102
RTVSPropertyOp24
 70
     1
102
RTVSPropertyOp25
 70
     1
102
RTVSPropertyOp26
 70
     1
102
RTVSPropertyOp27
 70
     1
102
RTVSPropertyOp28
 70
     1
102
RTVSPropertyOp29
 70
     1
102
RTVSPropertyOp30
 70
     1
102
RTVSPropertyOp31
 70
     1
102
RTVSPropertyOp32
 70
     1
102
RTVSPropertyOp33
 70
     1
102
RTVSPropertyOp34
 70
     1
102
RTVSPropertyOp35
 70
     1
102
RTVSPropertyOp36
 70
     1
102
RTVSPropertyOp37
 70
     1
102
RTVSPropertyOp38
 70
     1
102
RTVSPropertyOp39
 70
     1
102
RTVSPropertyOp40
 70
     1
102
RTVSPropertyOp41
 70
     1
102
RTVSPropertyOp42
 70
     1
102
RTVSPropertyOp43
 70
     1
102
RTVSPropertyOp44
 70
     1
102
RTVSPropertyOp45
 70
     1
102
RTVSPropertyOp46
 70
     1
102
RTVSPropertyOp47
 70
     1
102
RTVSPropertyOp48
 70
     1
102
RTVSPropertyOp49
 70
     1
102
RTVSPropertyOp50
 70
     1
102
RTVSPropertyOp51
 70
     0
102
RTVSPropertyOp52
 70
     0
102
RTVSPropertyOp53
 70
     1
102
RTVSPropertyOp54
 70
     1
102
RTVSPropertyOp55
 70
     1
102
RTVSPropertyOp56
 70
     1
102
RTVSPropertyOp57
 70
     1
102
RTVSPropertyOp58
 70
     1
102
RTVSPropertyOp59
 70
     1
102
RTVSPropertyOp60
 70
     1
102
RTVSPropertyOp61
 70
     1
102
RTVSPropertyOp62
 70
     1
  0
ENDSEC
  0
EOF
