  0
SECTION
  2
HEADER
  9
$ACADVER
  1
AC1015
  9
$ACADMAINTVER
 70
    20
  9
$DWGCODEPAGE
  3
ANSI_932
  9
$INSBASE
 10
0.0
 20
0.0
 30
0.0
  9
$EXTMIN
 10
36622.03920366
 20
-33326.13759601689
 30
0.0
  9
$EXTMAX
 10
48747.43921094281
 20
-24768.93759601689
 30
0.0
  9
$LIMMIN
 10
0.0
 20
0.0
  9
$LIMMAX
 10
21000.0
 20
14850.0
  9
$ORTHOMODE
 70
     0
  9
$REGENMODE
 70
     1
  9
$FILLMODE
 70
     1
  9
$QTEXTMODE
 70
     0
  9
$MIRRTEXT
 70
     1
  9
$LTSCALE
 40
20.0
  9
$ATTMODE
 70
     1
  9
$TEXTSIZE
 40
100.0
  9
$TRACEWID
 40
1.0
  9
$TEXTSTYLE
  7
STYLE3
  9
$CLAYER
  8
寸法
  9
$CELTYPE
  6
BYLAYER
  9
$CECOLOR
 62
   256
  9
$CELTSCALE
 40
50.0
  9
$DISPSILH
 70
     0
  9
$DIMSCALE
 40
30.0
  9
$DIMASZ
 40
2.5
  9
$DIMEXO
 40
0.5
  9
$DIMDLI
 40
7.0
  9
$DIMRND
 40
0.0
  9
$DIMDLE
 40
0.0
  9
$DIMEXE
 40
1.5
  9
$DIMTP
 40
0.0
  9
$DIMTM
 40
0.0
  9
$DIMTXT
 40
3.0
  9
$DIMCEN
 40
0.0
  9
$DIMTSZ
 40
0.0
  9
$DIMTOL
 70
     0
  9
$DIMLIM
 70
     0
  9
$DIMTIH
 70
     0
  9
$DIMTOH
 70
     0
  9
$DIMSE1
 70
     0
  9
$DIMSE2
 70
     0
  9
$DIMTAD
 70
     3
  9
$DIMZIN
 70
     8
  9
$DIMBLK
  1

  9
$DIMASO
 70
     1
  9
$DIMSHO
 70
     1
  9
$DIMPOST
  1

  9
$DIMAPOST
  1

  9
$DIMALT
 70
     0
  9
$DIMALTD
 70
     2
  9
$DIMALTF
 40
0.0394
  9
$DIMLFAC
 40
1.0
  9
$DIMTOFL
 70
     1
  9
$DIMTVP
 40
0.0
  9
$DIMTIX
 70
     1
  9
$DIMSOXD
 70
     1
  9
$DIMSAH
 70
     1
  9
$DIMBLK1
  1
DOTSMALL
  9
$DIMBLK2
  1
DOTSMALL
  9
$DIMSTYLE
  2
INABA_S30G
  9
$DIMCLRD
 70
     0
  9
$DIMCLRE
 70
     0
  9
$DIMCLRT
 70
     7
  9
$DIMTFAC
 40
1.0
  9
$DIMGAP
 40
1.0
  9
$DIMJUST
 70
     0
  9
$DIMSD1
 70
     0
  9
$DIMSD2
 70
     0
  9
$DIMTOLJ
 70
     1
  9
$DIMTZIN
 70
     0
  9
$DIMALTZ
 70
     0
  9
$DIMALTTZ
 70
     0
  9
$DIMUPT
 70
     0
  9
$DIMDEC
 70
     1
  9
$DIMTDEC
 70
     4
  9
$DIMALTU
 70
     2
  9
$DIMALTTD
 70
     2
  9
$DIMTXSTY
  7
STYLE1
  9
$DIMAUNIT
 70
     0
  9
$DIMADEC
 70
     0
  9
$DIMALTRND
 40
0.0
  9
$DIMAZIN
 70
     0
  9
$DIMDSEP
 70
    46
  9
$DIMATFIT
 70
     3
  9
$DIMFRAC
 70
     0
  9
$DIMLDRBLK
  1
DOTSMALL
  9
$DIMLUNIT
 70
     2
  9
$DIMLWD
 70
    -2
  9
$DIMLWE
 70
    -2
  9
$DIMTMOVE
 70
     0
  9
$LUNITS
 70
     2
  9
$LUPREC
 70
     1
  9
$SKETCHINC
 40
1.0
  9
$FILLETRAD
 40
0.0
  9
$AUNITS
 70
     0
  9
$AUPREC
 70
     0
  9
$MENU
  1
acad
  9
$ELEVATION
 40
0.0
  9
$PELEVATION
 40
0.0
  9
$THICKNESS
 40
0.0
  9
$LIMCHECK
 70
     0
  9
$CHAMFERA
 40
0.0
  9
$CHAMFERB
 40
0.0
  9
$CHAMFERC
 40
0.0
  9
$CHAMFERD
 40
0.0
  9
$SKPOLY
 70
     0
  9
$TDCREATE
 40
2451802.696345833
  9
$TDUCREATE
 40
2451802.321345833
  9
$TDUPDATE
 40
2455813.723441840
  9
$TDUUPDATE
 40
2455813.348441840
  9
$TDINDWG
 40
1.6338193750
  9
$TDUSRTIMER
 40
1.6338193750
  9
$USRTIMER
 70
     1
  9
$ANGBASE
 50
0.0
  9
$ANGDIR
 70
     0
  9
$PDMODE
 70
     3
  9
$PDSIZE
 40
2.0
  9
$PLINEWID
 40
0.0
  9
$SPLFRAME
 70
     0
  9
$SPLINETYPE
 70
     6
  9
$SPLINESEGS
 70
     8
  9
$HANDSEED
  5
35B86
  9
$SURFTAB1
 70
     6
  9
$SURFTAB2
 70
     6
  9
$SURFTYPE
 70
     6
  9
$SURFU
 70
     6
  9
$SURFV
 70
     6
  9
$UCSBASE
  2

  9
$UCSNAME
  2

  9
$UCSORG
 10
0.0
 20
0.0
 30
0.0
  9
$UCSXDIR
 10
1.0
 20
0.0
 30
0.0
  9
$UCSYDIR
 10
0.0
 20
1.0
 30
0.0
  9
$UCSORTHOREF
  2

  9
$UCSORTHOVIEW
 70
     0
  9
$UCSORGTOP
 10
0.0
 20
0.0
 30
0.0
  9
$UCSORGBOTTOM
 10
0.0
 20
0.0
 30
0.0
  9
$UCSORGLEFT
 10
0.0
 20
0.0
 30
0.0
  9
$UCSORGRIGHT
 10
0.0
 20
0.0
 30
0.0
  9
$UCSORGFRONT
 10
0.0
 20
0.0
 30
0.0
  9
$UCSORGBACK
 10
0.0
 20
0.0
 30
0.0
  9
$PUCSBASE
  2

  9
$PUCSNAME
  2

  9
$PUCSORG
 10
0.0
 20
0.0
 30
0.0
  9
$PUCSXDIR
 10
1.0
 20
0.0
 30
0.0
  9
$PUCSYDIR
 10
0.0
 20
1.0
 30
0.0
  9
$PUCSORTHOREF
  2

  9
$PUCSORTHOVIEW
 70
     0
  9
$PUCSORGTOP
 10
0.0
 20
0.0
 30
0.0
  9
$PUCSORGBOTTOM
 10
0.0
 20
0.0
 30
0.0
  9
$PUCSORGLEFT
 10
0.0
 20
0.0
 30
0.0
  9
$PUCSORGRIGHT
 10
0.0
 20
0.0
 30
0.0
  9
$PUCSORGFRONT
 10
0.0
 20
0.0
 30
0.0
  9
$PUCSORGBACK
 10
0.0
 20
0.0
 30
0.0
  9
$USERI1
 70
     0
  9
$USERI2
 70
     0
  9
$USERI3
 70
     0
  9
$USERI4
 70
     0
  9
$USERI5
 70
     0
  9
$USERR1
 40
0.0
  9
$USERR2
 40
0.0
  9
$USERR3
 40
0.0
  9
$USERR4
 40
0.0
  9
$USERR5
 40
0.0
  9
$WORLDVIEW
 70
     1
  9
$SHADEDGE
 70
     3
  9
$SHADEDIF
 70
    70
  9
$TILEMODE
 70
     1
  9
$MAXACTVP
 70
    16
  9
$PINSBASE
 10
0.0
 20
0.0
 30
0.0
  9
$PLIMCHECK
 70
     0
  9
$PEXTMIN
 10
1.000000000000000E+20
 20
1.000000000000000E+20
 30
1.000000000000000E+20
  9
$PEXTMAX
 10
-1.000000000000000E+20
 20
-1.000000000000000E+20
 30
-1.000000000000000E+20
  9
$PLIMMIN
 10
0.0
 20
0.0
  9
$PLIMMAX
 10
420.0
 20
297.0
  9
$UNITMODE
 70
     0
  9
$VISRETAIN
 70
     0
  9
$PLINEGEN
 70
     0
  9
$PSLTSCALE
 70
     0
  9
$TREEDEPTH
 70
  3020
  9
$CMLSTYLE
  2
STANDARD
  9
$CMLJUST
 70
     0
  9
$CMLSCALE
 40
1.0
  9
$PROXYGRAPHICS
 70
     1
  9
$MEASUREMENT
 70
     1
  9
$CELWEIGHT
370
    -1
  9
$ENDCAPS
280
     0
  9
$JOINSTYLE
280
     0
  9
$LWDISPLAY
290
     0
  9
$INSUNITS
 70
     0
  9
$HYPERLINKBASE
  1

  9
$STYLESHEET
  1
ACA3.ctb
  9
$XEDIT
290
     1
  9
$CEPSNTYPE
380
     0
  9
$PSTYLEMODE
290
     1
  9
$FINGERPRINTGUID
  2
{DAFEAD6E-FF36-46F8-92D6-F05F9FF2CF3B}
  9
$VERSIONGUID
  2
{A83E270D-B26E-49E7-9671-D6F6FB927D15}
  9
$EXTNAMES
290
     1
  9
$PSVPSCALE
 40
0.0
  9
$OLESTARTUP
290
     0
  0
ENDSEC
  0
SECTION
  2
CLASSES
  0
CLASS
  1
ACDBDICTIONARYWDFLT
  2
AcDbDictionaryWithDefault
  3
ObjectDBX Classes
 90
        0
280
     0
281
     0
  0
CLASS
  1
DICTIONARYVAR
  2
AcDbDictionaryVar
  3
ObjectDBX Classes
 90
        0
280
     0
281
     0
  0
CLASS
  1
ACDBPLACEHOLDER
  2
AcDbPlaceHolder
  3
ObjectDBX Classes
 90
        0
280
     0
281
     0
  0
CLASS
  1
LAYOUT
  2
AcDbLayout
  3
ObjectDBX Classes
 90
        0
280
     0
281
     0
  0
ENDSEC
  0
SECTION
  2
TABLES
  0
TABLE
  2
VPORT
  5
746D
330
0
100
AcDbSymbolTable
 70
     2
  0
VPORT
  5
35B7E
330
746D
100
AcDbSymbolTableRecord
100
AcDbViewportTableRecord
  2
*Active
 70
     0
 10
0.0
 20
0.0
 11
1.0
 21
1.0
 12
43771.04619019148
 22
-29047.43253746315
 13
0.0
 23
0.0
 14
10.0
 24
10.0
 15
10.0
 25
10.0
 16
0.0
 26
0.0
 36
1.0
 17
0.0
 27
0.0
 37
0.0
 40
8624.766269828638
 41
1.778877887788778
 42
50.0
 43
0.0
 44
0.0
 50
0.0
 51
0.0
 71
     0
 72
     0
 73
     1
 74
     0
 75
     0
 76
     0
 77
     0
 78
     1
281
     0
 65
     1
110
0.0
120
0.0
130
0.0
111
1.0
121
0.0
131
0.0
112
0.0
122
1.0
132
0.0
 79
     0
146
0.0
  0
ENDTAB
  0
TABLE
  2
LTYPE
  5
746A
330
0
100
AcDbSymbolTable
 70
     3
  0
LTYPE
  5
7477
330
746A
100
AcDbSymbolTableRecord
100
AcDbLinetypeTableRecord
  2
BYBLOCK
 70
     0
  3

 72
    65
 73
     0
 40
0.0
  0
LTYPE
  5
7478
330
746A
100
AcDbSymbolTableRecord
100
AcDbLinetypeTableRecord
  2
BYLAYER
 70
     0
  3

 72
    65
 73
     0
 40
0.0
  0
LTYPE
  5
7479
330
746A
100
AcDbSymbolTableRecord
100
AcDbLinetypeTableRecord
  2
CONTINUOUS
 70
     0
  3
Solid line
 72
    65
 73
     0
 40
0.0
  0
LTYPE
  5
7816
330
746A
100
AcDbSymbolTableRecord
100
AcDbLinetypeTableRecord
  2
CENTER
 70
     0
  3
____ _ ____ _ ____ _ ____ _ ____ _ ____ _ ____ 
 72
    65
 73
     4
 40
2.0
 49
1.25
 74
     0
 49
-0.25
 74
     0
 49
0.25
 74
     0
 49
-0.25
 74
     0
  0
LTYPE
  5
781B
330
746A
100
AcDbSymbolTableRecord
100
AcDbLinetypeTableRecord
  2
PHANTOM
 70
     0
  3
______  __  __  ______  __  __  ______  __  __ 
 72
    65
 73
     6
 40
2.5
 49
1.25
 74
     0
 49
-0.25
 74
     0
 49
0.25
 74
     0
 49
-0.25
 74
     0
 49
0.25
 74
     0
 49
-0.25
 74
     0
  0
ENDTAB
  0
TABLE
  2
LAYER
  5
7467
102
{ACAD_XDICTIONARY
360
11827
102
}
330
0
100
AcDbSymbolTable
 70
    14
  0
LAYER
  5
7474
330
7467
100
AcDbSymbolTableRecord
100
AcDbLayerTableRecord
  2
0
 70
     0
 62
     7
  6
CONTINUOUS
370
    -3
390
11752
  0
LAYER
  5
DEB2
330
7467
100
AcDbSymbolTableRecord
100
AcDbLayerTableRecord
  2
センター
 70
     0
 62
     3
  6
CENTER
370
    -3
390
11752
  0
LAYER
  5
DEB3
330
7467
100
AcDbSymbolTableRecord
100
AcDbLayerTableRecord
  2
寸法
 70
     0
 62
     4
  6
CONTINUOUS
370
    -3
390
11752
  0
LAYER
  5
DEB4
330
7467
100
AcDbSymbolTableRecord
100
AcDbLayerTableRecord
  2
部品1
 70
     0
 62
     7
  6
CONTINUOUS
370
    -3
390
11752
  0
LAYER
  5
DEB5
330
7467
100
AcDbSymbolTableRecord
100
AcDbLayerTableRecord
  2
補助
 70
     0
 62
    -1
  6
CONTINUOUS
370
    -3
390
11752
  0
LAYER
  5
DEB6
330
7467
100
AcDbSymbolTableRecord
100
AcDbLayerTableRecord
  2
文字
 70
     0
 62
     7
  6
CONTINUOUS
370
    -3
390
11752
  0
LAYER
  5
F255
330
7467
100
AcDbSymbolTableRecord
100
AcDbLayerTableRecord
  2
DEFPOINTS
 70
     0
 62
     7
  6
CONTINUOUS
290
     0
370
    -3
390
11752
  0
LAYER
  5
10B54
330
7467
100
AcDbSymbolTableRecord
100
AcDbLayerTableRecord
  2
仕様書枠
 70
     0
 62
   230
  6
CONTINUOUS
370
    -3
390
11752
  0
LAYER
  5
11729
330
7467
100
AcDbSymbolTableRecord
100
AcDbLayerTableRecord
  2
Ｇ．Ｌ
 70
     0
 62
    30
  6
CONTINUOUS
370
    -3
390
11752
  0
LAYER
  5
1173F
330
7467
100
AcDbSymbolTableRecord
100
AcDbLayerTableRecord
  2
細線
 70
     0
 62
     5
  6
CONTINUOUS
370
    -3
390
11752
  0
LAYER
  5
1F38A
330
7467
100
AcDbSymbolTableRecord
100
AcDbLayerTableRecord
  2
U7
 70
     0
 62
     2
  6
CONTINUOUS
370
    -3
390
11752
  0
LAYER
  5
20750
330
7467
100
AcDbSymbolTableRecord
100
AcDbLayerTableRecord
  2
KIN-T
 70
     0
 62
     3
  6
CONTINUOUS
370
    -3
390
11752
  0
LAYER
  5
23C1A
330
7467
100
AcDbSymbolTableRecord
100
AcDbLayerTableRecord
  2
CSLAYER17
 70
     0
 62
     7
  6
CONTINUOUS
370
    -3
390
11752
  0
LAYER
  5
35B07
330
7467
100
AcDbSymbolTableRecord
100
AcDbLayerTableRecord
  2
想像線
 70
     0
 62
     6
  6
PHANTOM
370
    -3
390
11752
  0
ENDTAB
  0
TABLE
  2
STYLE
  5
7468
330
0
100
AcDbSymbolTable
 70
     4
  0
STYLE
  5
7475
330
7468
100
AcDbSymbolTableRecord
100
AcDbTextStyleTableRecord
  2
STANDARD
 70
     0
 40
0.0
 41
1.0
 50
0.0
 71
     0
 42
4.0
  3
txt
  4
C:\AutoCAD LT\bigfont.shx
  0
STYLE
  5
F706
330
7468
100
AcDbSymbolTableRecord
100
AcDbTextStyleTableRecord
  2
STYLE1
 70
     0
 40
0.0
 41
1.0
 50
0.0
 71
     0
 42
4.0
  3
isocp.shx
  4
bigfont.shx
  0
STYLE
  5
103BF
330
7468
100
AcDbSymbolTableRecord
100
AcDbTextStyleTableRecord
  2
STYLE2
 70
     0
 40
0.0
 41
1.0
 50
0.0
 71
     0
 42
100.0
  3
MS PGothic.ttf
  4

1001
ACAD
1000
MS PGothic
1071
    32818
  0
STYLE
  5
10BAA
330
7468
100
AcDbSymbolTableRecord
100
AcDbTextStyleTableRecord
  2
STYLE3
 70
     0
 40
0.0
 41
1.0
 50
0.0
 71
     0
 42
100.0
  3
DFPGothic-EB.ttf
  4

1001
ACAD
1000
DFPGothic-EB
1071
    32818
  0
ENDTAB
  0
TABLE
  2
VIEW
  5
746B
330
0
100
AcDbSymbolTable
 70
     0
  0
ENDTAB
  0
TABLE
  2
UCS
  5
746C
330
0
100
AcDbSymbolTable
 70
     0
  0
ENDTAB
  0
TABLE
  2
APPID
  5
746E
330
0
100
AcDbSymbolTable
 70
     8
  0
APPID
  5
7476
330
746E
100
AcDbSymbolTableRecord
100
AcDbRegAppTableRecord
  2
ACAD
 70
     0
  0
APPID
  5
DEA9
330
746E
100
AcDbSymbolTableRecord
100
AcDbRegAppTableRecord
  2
CONTENTBLOCKICON
 70
     0
  0
APPID
  5
DEAA
330
746E
100
AcDbSymbolTableRecord
100
AcDbRegAppTableRecord
  2
CONTENTBLOCKDESCRIPTION
 70
     0
  0
APPID
  5
E71D
330
746E
100
AcDbSymbolTableRecord
100
AcDbRegAppTableRecord
  2
CONTENTTABDATA
 70
     0
  0
APPID
  5
E71E
330
746E
100
AcDbSymbolTableRecord
100
AcDbRegAppTableRecord
  2
CONTENTCURRENTTAB
 70
     0
  0
APPID
  5
F3BA
330
746E
100
AcDbSymbolTableRecord
100
AcDbRegAppTableRecord
  2
DRAWINGVARIABLESXDATA
 70
     0
  0
APPID
  5
1F3A5
330
746E
100
AcDbSymbolTableRecord
100
AcDbRegAppTableRecord
  2
AUTOCAD_POSTSCRIPT_FIGURE
 70
     0
  0
APPID
  5
27B11
330
746E
100
AcDbSymbolTableRecord
100
AcDbRegAppTableRecord
  2
AcDbBlockRepETag
 70
     0
  0
ENDTAB
  0
TABLE
  2
DIMSTYLE
  5
746F
330
0
100
AcDbSymbolTable
 70
     3
100
AcDbDimStyleTable
 71
     2
340
13D04
340
F71F
  0
DIMSTYLE
105
F71F
330
746F
100
AcDbSymbolTableRecord
100
AcDbDimStyleTableRecord
  2
INABA_S50G
 70
     0
 41
125.0
 42
25.0
 43
7.0
 44
75.0
 73
     0
 74
     0
 77
     3
 78
     8
140
150.0
141
0.0
143
0.0394
147
25.0
172
     1
173
     1
174
     1
178
     7
271
     1
340
F706
341
F770
343
F770
344
F770
  0
DIMSTYLE
105
13D04
102
{ACAD_REACTORS
330
2A9AF
330
2A9AE
330
2A9AD
330
2A9AC
330
2A9AA
330
2A9A9
330
2A9A8
330
2A9A7
330
2A9A6
330
2A9A5
330
2A9A4
330
2A9A3
330
2A9A2
330
2A9A1
330
2A9A0
330
2A97A
330
2A979
330
2B199
330
2B198
330
2B19A
330
3302E
330
3302F
330
33030
330
330E6
330
330E7
330
330E8
330
330E9
330
330EA
330
330EB
330
33154
330
33155
330
35B52
102
}
330
746F
100
AcDbSymbolTableRecord
100
AcDbDimStyleTableRecord
  2
INABA_S30G
 70
     0
 40
30.0
 41
2.5
 42
0.5
 43
7.0
 44
1.5
 73
     0
 74
     0
 77
     3
 78
     8
140
3.0
141
0.0
143
0.0394
147
1.0
172
     1
173
     1
174
     1
175
     1
178
     7
271
     1
340
F706
341
F770
343
F770
344
F770
  0
DIMSTYLE
105
2503A
330
746F
100
AcDbSymbolTableRecord
100
AcDbDimStyleTableRecord
  2
Standard
 70
     0
340
7475
  0
ENDTAB
  0
TABLE
  2
BLOCK_RECORD
  5
7466
330
0
100
AcDbSymbolTable
 70
    33
  0
BLOCK_RECORD
  5
747D
330
7466
100
AcDbSymbolTableRecord
100
AcDbBlockTableRecord
  2
*MODEL_SPACE
340
11757
  0
BLOCK_RECORD
  5
747A
330
7466
100
AcDbSymbolTableRecord
100
AcDbBlockTableRecord
  2
*PAPER_SPACE
340
11758
  0
BLOCK_RECORD
  5
F770
330
7466
100
AcDbSymbolTableRecord
100
AcDbBlockTableRecord
  2
_DOTSMALL
340
0
102
{BLKREFS
331
35984
331
35985
331
3598F
331
35990
331
35998
331
35999
331
359A3
331
359A4
331
359AC
331
359AD
331
359B5
331
359B6
331
359BF
331
359C0
331
359C9
331
359CA
331
359DB
331
359DC
331
359E4
331
359E5
331
359EE
331
359EF
331
359F7
331
359F8
331
35A01
331
35A02
331
35A0A
331
35A0B
331
35A13
331
35A14
331
35A1C
331
35A1D
331
35A25
331
35A26
331
35A2E
331
35A2F
331
35A37
331
35A38
331
35A40
331
35A41
331
35A49
331
35A4A
331
35A52
331
35A53
331
35A62
331
35A63
331
35A6B
331
35A6C
331
35A74
331
35A75
331
35B6B
331
35B6C
102
}
  0
BLOCK_RECORD
  5
2A9BA
330
7466
100
AcDbSymbolTableRecord
100
AcDbBlockTableRecord
  2
*D1
340
0
  0
BLOCK_RECORD
  5
2A9C6
330
7466
100
AcDbSymbolTableRecord
100
AcDbBlockTableRecord
  2
*D2
340
0
  0
BLOCK_RECORD
  5
2A9D2
330
7466
100
AcDbSymbolTableRecord
100
AcDbBlockTableRecord
  2
*D3
340
0
  0
BLOCK_RECORD
  5
2A9DE
330
7466
100
AcDbSymbolTableRecord
100
AcDbBlockTableRecord
  2
*D4
340
0
  0
BLOCK_RECORD
  5
2A9EA
330
7466
100
AcDbSymbolTableRecord
100
AcDbBlockTableRecord
  2
*D5
340
0
  0
BLOCK_RECORD
  5
2A9F6
330
7466
100
AcDbSymbolTableRecord
100
AcDbBlockTableRecord
  2
*D6
340
0
  0
BLOCK_RECORD
  5
2AA02
330
7466
100
AcDbSymbolTableRecord
100
AcDbBlockTableRecord
  2
*D7
340
0
  0
BLOCK_RECORD
  5
2AA0E
330
7466
100
AcDbSymbolTableRecord
100
AcDbBlockTableRecord
  2
*D8
340
0
  0
BLOCK_RECORD
  5
2AA1A
330
7466
100
AcDbSymbolTableRecord
100
AcDbBlockTableRecord
  2
*D9
340
0
  0
BLOCK_RECORD
  5
2AA26
330
7466
100
AcDbSymbolTableRecord
100
AcDbBlockTableRecord
  2
*D10
340
0
  0
BLOCK_RECORD
  5
2AA30
330
7466
100
AcDbSymbolTableRecord
100
AcDbBlockTableRecord
  2
*D11
340
0
  0
BLOCK_RECORD
  5
2AA3C
330
7466
100
AcDbSymbolTableRecord
100
AcDbBlockTableRecord
  2
*D12
340
0
  0
BLOCK_RECORD
  5
2AA48
330
7466
100
AcDbSymbolTableRecord
100
AcDbBlockTableRecord
  2
*D13
340
0
  0
BLOCK_RECORD
  5
2AA54
330
7466
100
AcDbSymbolTableRecord
100
AcDbBlockTableRecord
  2
*D14
340
0
  0
BLOCK_RECORD
  5
2AA5E
330
7466
100
AcDbSymbolTableRecord
100
AcDbBlockTableRecord
  2
*D15
340
0
  0
BLOCK_RECORD
  5
2AA68
330
7466
100
AcDbSymbolTableRecord
100
AcDbBlockTableRecord
  2
*D16
340
0
  0
BLOCK_RECORD
  5
2AA72
330
7466
100
AcDbSymbolTableRecord
100
AcDbBlockTableRecord
  2
*D17
340
0
  0
BLOCK_RECORD
  5
2B19B
330
7466
100
AcDbSymbolTableRecord
100
AcDbBlockTableRecord
  2
*D18
340
0
  0
BLOCK_RECORD
  5
2B1A7
330
7466
100
AcDbSymbolTableRecord
100
AcDbBlockTableRecord
  2
*D19
340
0
  0
BLOCK_RECORD
  5
2B1B4
330
7466
100
AcDbSymbolTableRecord
100
AcDbBlockTableRecord
  2
*D20
340
0
  0
BLOCK_RECORD
  5
33156
330
7466
100
AcDbSymbolTableRecord
100
AcDbBlockTableRecord
  2
*D21
340
0
  0
BLOCK_RECORD
  5
33163
330
7466
100
AcDbSymbolTableRecord
100
AcDbBlockTableRecord
  2
*D22
340
0
  0
BLOCK_RECORD
  5
33171
330
7466
100
AcDbSymbolTableRecord
100
AcDbBlockTableRecord
  2
*D23
340
0
  0
BLOCK_RECORD
  5
3317D
330
7466
100
AcDbSymbolTableRecord
100
AcDbBlockTableRecord
  2
*D24
340
0
  0
BLOCK_RECORD
  5
3318B
330
7466
100
AcDbSymbolTableRecord
100
AcDbBlockTableRecord
  2
*D25
340
0
  0
BLOCK_RECORD
  5
33197
330
7466
100
AcDbSymbolTableRecord
100
AcDbBlockTableRecord
  2
*D26
340
0
  0
BLOCK_RECORD
  5
331A3
330
7466
100
AcDbSymbolTableRecord
100
AcDbBlockTableRecord
  2
*D27
340
0
  0
BLOCK_RECORD
  5
331B0
330
7466
100
AcDbSymbolTableRecord
100
AcDbBlockTableRecord
  2
*D28
340
0
  0
BLOCK_RECORD
  5
331BD
330
7466
100
AcDbSymbolTableRecord
100
AcDbBlockTableRecord
  2
*D29
340
0
  0
BLOCK_RECORD
  5
331C7
330
7466
100
AcDbSymbolTableRecord
100
AcDbBlockTableRecord
  2
*D30
340
0
  0
BLOCK_RECORD
  5
331D5
330
7466
100
AcDbSymbolTableRecord
100
AcDbBlockTableRecord
  2
*D31
340
0
  0
BLOCK_RECORD
  5
35B53
330
7466
100
AcDbSymbolTableRecord
100
AcDbBlockTableRecord
  2
*D32
340
0
  0
ENDTAB
  0
ENDSEC
  0
SECTION
  2
BLOCKS
  0
BLOCK
  5
7489
330
747D
100
AcDbEntity
  8
0
100
AcDbBlockBegin
  2
*MODEL_SPACE
 70
     0
 10
0.0
 20
0.0
 30
0.0
  3
*MODEL_SPACE
  1

  0
ENDBLK
  5
748A
330
747D
100
AcDbEntity
  8
0
100
AcDbBlockEnd
  0
BLOCK
  5
7487
330
747A
100
AcDbEntity
 67
     1
  8
0
100
AcDbBlockBegin
  2
*PAPER_SPACE
 70
     0
 10
0.0
 20
0.0
 30
0.0
  3
*PAPER_SPACE
  1

  0
ENDBLK
  5
7488
330
747A
100
AcDbEntity
 67
     1
  8
0
100
AcDbBlockEnd
  0
BLOCK
  5
F771
330
F770
100
AcDbEntity
  8
0
 48
50.0
100
AcDbBlockBegin
  2
_DOTSMALL
 70
     0
 10
0.0
 20
0.0
 30
0.0
  3
_DOTSMALL
  1

  0
LWPOLYLINE
  5
F772
330
F770
100
AcDbEntity
  8
0
  6
ByBlock
 62
     0
 48
50.0
100
AcDbPolyline
 90
        2
 70
     1
 43
0.5
 10
-0.0625
 20
0.0
 42
1.0
 10
0.0625
 20
0.0
 42
1.0
  0
ENDBLK
  5
F776
330
F770
100
AcDbEntity
  8
0
 48
50.0
100
AcDbBlockEnd
  0
BLOCK
  5
2A9C4
330
2A9BA
100
AcDbEntity
  8
0
 48
50.0
100
AcDbBlockBegin
  2
*D1
 70
     1
 10
0.0
 20
0.0
 30
0.0
  3
*D1
  1

  0
LINE
  5
35A07
330
2A9BA
100
AcDbEntity
  8
寸法
 62
     0
 48
50.0
370
    -2
100
AcDbLine
 10
38815.28577387496
 20
-27907.25458892027
 30
0.0
 11
38815.28577387496
 21
-27517.80229478917
 31
0.0
  0
LINE
  5
35A08
330
2A9BA
100
AcDbEntity
  8
寸法
 62
     0
 48
50.0
370
    -2
100
AcDbLine
 10
41615.28577387495
 20
-27907.25458892027
 30
0.0
 11
41615.28577387495
 21
-27517.80229478917
 31
0.0
  0
LINE
  5
35A09
330
2A9BA
100
AcDbEntity
  8
寸法
 62
     0
 48
50.0
370
    -2
100
AcDbLine
 10
38815.28577387496
 20
-27562.80229478917
 30
0.0
 11
41615.28577387495
 21
-27562.80229478917
 31
0.0
  0
INSERT
  5
35A0A
330
2A9BA
100
AcDbEntity
  8
寸法
 62
     0
 48
50.0
370
    -2
100
AcDbBlockReference
  2
_DOTSMALL
 10
38815.28577387496
 20
-27562.80229478917
 30
0.0
 41
75.0
 42
75.0
 43
75.0
 50
180.0
  0
INSERT
  5
35A0B
330
2A9BA
100
AcDbEntity
  8
寸法
 62
     0
 48
50.0
370
    -2
100
AcDbBlockReference
  2
_DOTSMALL
 10
41615.28577387495
 20
-27562.80229478917
 30
0.0
 41
75.0
 42
75.0
 43
75.0
  0
MTEXT
  5
35A0C
330
2A9BA
100
AcDbEntity
  8
寸法
 62
     7
 48
50.0
100
AcDbMText
 10
40215.28577387496
 20
-27487.79343652145
 30
0.0
 40
90.0
 41
0.0
 71
     5
 72
     1
  1
\A1;2800
  7
STYLE1
 73
     1
 44
1.0
1001
ACAD
1000
MTEXTBEGIN
1070
    73
1070
     1
1070
    44
1040
1.0
1070
    74
1070
     0
1000
MTEXTEND
  0
POINT
  5
35A0D
330
2A9BA
100
AcDbEntity
  8
DEFPOINTS
 62
     0
 48
50.0
100
AcDbPoint
 10
38815.28577387496
 20
-27922.25458892027
 30
0.0
  0
POINT
  5
35A0E
330
2A9BA
100
AcDbEntity
  8
DEFPOINTS
 62
     0
 48
50.0
100
AcDbPoint
 10
41615.28577387495
 20
-27922.25458892027
 30
0.0
  0
POINT
  5
35A0F
330
2A9BA
100
AcDbEntity
  8
DEFPOINTS
 62
     0
 48
50.0
100
AcDbPoint
 10
41615.28577387495
 20
-27562.80229478917
 30
0.0
  0
ENDBLK
  5
2A9C5
330
2A9BA
100
AcDbEntity
  8
0
 48
50.0
100
AcDbBlockEnd
  0
BLOCK
  5
2A9D0
330
2A9C6
100
AcDbEntity
  8
0
 48
50.0
100
AcDbBlockBegin
  2
*D2
 70
     1
 10
0.0
 20
0.0
 30
0.0
  3
*D2
  1

  0
LINE
  5
35A10
330
2A9C6
100
AcDbEntity
  8
寸法
 62
     0
 48
50.0
370
    -2
100
AcDbLine
 10
41615.28577387495
 20
-27907.25458892027
 30
0.0
 11
41615.28577387495
 21
-27517.80229478917
 31
0.0
  0
LINE
  5
35A11
330
2A9C6
100
AcDbEntity
  8
寸法
 62
     0
 48
50.0
370
    -2
100
AcDbLine
 10
42015.28577387495
 20
-27857.25458892028
 30
0.0
 11
42015.28577387495
 21
-27517.80229478917
 31
0.0
  0
LINE
  5
35A12
330
2A9C6
100
AcDbEntity
  8
寸法
 62
     0
 48
50.0
370
    -2
100
AcDbLine
 10
41615.28577387495
 20
-27562.80229478917
 30
0.0
 11
42015.28577387495
 21
-27562.80229478917
 31
0.0
  0
INSERT
  5
35A13
330
2A9C6
100
AcDbEntity
  8
寸法
 62
     0
 48
50.0
370
    -2
100
AcDbBlockReference
  2
_DOTSMALL
 10
41615.28577387495
 20
-27562.80229478917
 30
0.0
 41
75.0
 42
75.0
 43
75.0
 50
180.0
  0
INSERT
  5
35A14
330
2A9C6
100
AcDbEntity
  8
寸法
 62
     0
 48
50.0
370
    -2
100
AcDbBlockReference
  2
_DOTSMALL
 10
42015.28577387495
 20
-27562.80229478917
 30
0.0
 41
75.0
 42
75.0
 43
75.0
  0
MTEXT
  5
35A15
330
2A9C6
100
AcDbEntity
  8
寸法
 62
     7
 48
50.0
100
AcDbMText
 10
41815.28577387496
 20
-27487.80229478917
 30
0.0
 40
90.0
 41
0.0
 71
     5
 72
     1
  1
\A1;400
  7
STYLE1
 73
     1
 44
1.0
1001
ACAD
1000
MTEXTBEGIN
1070
    73
1070
     1
1070
    44
1040
1.0
1070
    74
1070
     0
1000
MTEXTEND
  0
POINT
  5
35A16
330
2A9C6
100
AcDbEntity
  8
DEFPOINTS
 62
     0
 48
50.0
100
AcDbPoint
 10
41615.28577387495
 20
-27922.25458892027
 30
0.0
  0
POINT
  5
35A17
330
2A9C6
100
AcDbEntity
  8
DEFPOINTS
 62
     0
 48
50.0
100
AcDbPoint
 10
42015.28577387495
 20
-27872.25458892028
 30
0.0
  0
POINT
  5
35A18
330
2A9C6
100
AcDbEntity
  8
DEFPOINTS
 62
     0
 48
50.0
100
AcDbPoint
 10
42015.28577387495
 20
-27562.80229478917
 30
0.0
  0
ENDBLK
  5
2A9D1
330
2A9C6
100
AcDbEntity
  8
0
 48
50.0
100
AcDbBlockEnd
  0
BLOCK
  5
2A9DC
330
2A9D2
100
AcDbEntity
  8
0
 48
50.0
100
AcDbBlockBegin
  2
*D3
 70
     1
 10
0.0
 20
0.0
 30
0.0
  3
*D3
  1

  0
LINE
  5
35A19
330
2A9D2
100
AcDbEntity
  8
寸法
 62
     0
 48
50.0
370
    -2
100
AcDbLine
 10
38415.28577387496
 20
-27857.25458892028
 30
0.0
 11
38415.28577387496
 21
-27323.76525581485
 31
0.0
  0
LINE
  5
35A1A
330
2A9D2
100
AcDbEntity
  8
寸法
 62
     0
 48
50.0
370
    -2
100
AcDbLine
 10
42015.28577387495
 20
-27857.25458892028
 30
0.0
 11
42015.28577387495
 21
-27323.76525581485
 31
0.0
  0
LINE
  5
35A1B
330
2A9D2
100
AcDbEntity
  8
寸法
 62
     0
 48
50.0
370
    -2
100
AcDbLine
 10
38415.28577387496
 20
-27368.76525581485
 30
0.0
 11
42015.28577387495
 21
-27368.76525581485
 31
0.0
  0
INSERT
  5
35A1C
330
2A9D2
100
AcDbEntity
  8
寸法
 62
     0
 48
50.0
370
    -2
100
AcDbBlockReference
  2
_DOTSMALL
 10
38415.28577387496
 20
-27368.76525581485
 30
0.0
 41
75.0
 42
75.0
 43
75.0
 50
180.0
  0
INSERT
  5
35A1D
330
2A9D2
100
AcDbEntity
  8
寸法
 62
     0
 48
50.0
370
    -2
100
AcDbBlockReference
  2
_DOTSMALL
 10
42015.28577387495
 20
-27368.76525581485
 30
0.0
 41
75.0
 42
75.0
 43
75.0
  0
MTEXT
  5
35A1E
330
2A9D2
100
AcDbEntity
  8
寸法
 62
     7
 48
50.0
100
AcDbMText
 10
40215.28577387496
 20
-27293.76525581485
 30
0.0
 40
90.0
 41
0.0
 71
     5
 72
     1
  1
\A1;基礎土間寸法 3600
  7
STYLE1
 73
     1
 44
1.0
1001
ACAD
1000
MTEXTBEGIN
1070
    73
1070
     1
1070
    44
1040
1.0
1070
    74
1070
     0
1000
MTEXTEND
  0
POINT
  5
35A1F
330
2A9D2
100
AcDbEntity
  8
DEFPOINTS
 62
     0
 48
50.0
100
AcDbPoint
 10
38415.28577387496
 20
-27872.25458892028
 30
0.0
  0
POINT
  5
35A20
330
2A9D2
100
AcDbEntity
  8
DEFPOINTS
 62
     0
 48
50.0
100
AcDbPoint
 10
42015.28577387495
 20
-27872.25458892028
 30
0.0
  0
POINT
  5
35A21
330
2A9D2
100
AcDbEntity
  8
DEFPOINTS
 62
     0
 48
50.0
100
AcDbPoint
 10
42015.28577387495
 20
-27368.76525581485
 30
0.0
  0
ENDBLK
  5
2A9DD
330
2A9D2
100
AcDbEntity
  8
0
 48
50.0
100
AcDbBlockEnd
  0
BLOCK
  5
2A9E8
330
2A9DE
100
AcDbEntity
  8
0
 48
50.0
100
AcDbBlockBegin
  2
*D4
 70
     1
 10
0.0
 20
0.0
 30
0.0
  3
*D4
  1

  0
LINE
  5
35A22
330
2A9DE
100
AcDbEntity
  8
寸法
 62
     0
 48
50.0
370
    -2
100
AcDbLine
 10
38415.28577387496
 20
-27857.25458892029
 30
0.0
 11
38415.28577387496
 21
-27517.80229478917
 31
0.0
  0
LINE
  5
35A23
330
2A9DE
100
AcDbEntity
  8
寸法
 62
     0
 48
50.0
370
    -2
100
AcDbLine
 10
38815.28577387496
 20
-27907.25458892027
 30
0.0
 11
38815.28577387496
 21
-27517.80229478917
 31
0.0
  0
LINE
  5
35A24
330
2A9DE
100
AcDbEntity
  8
寸法
 62
     0
 48
50.0
370
    -2
100
AcDbLine
 10
38415.28577387496
 20
-27562.80229478917
 30
0.0
 11
38815.28577387496
 21
-27562.80229478917
 31
0.0
  0
INSERT
  5
35A25
330
2A9DE
100
AcDbEntity
  8
寸法
 62
     0
 48
50.0
370
    -2
100
AcDbBlockReference
  2
_DOTSMALL
 10
38415.28577387496
 20
-27562.80229478917
 30
0.0
 41
75.0
 42
75.0
 43
75.0
 50
180.0
  0
INSERT
  5
35A26
330
2A9DE
100
AcDbEntity
  8
寸法
 62
     0
 48
50.0
370
    -2
100
AcDbBlockReference
  2
_DOTSMALL
 10
38815.28577387496
 20
-27562.80229478917
 30
0.0
 41
75.0
 42
75.0
 43
75.0
  0
MTEXT
  5
35A27
330
2A9DE
100
AcDbEntity
  8
寸法
 62
     7
 48
50.0
100
AcDbMText
 10
38615.28577387496
 20
-27487.80229478917
 30
0.0
 40
90.0
 41
0.0
 71
     5
 72
     1
  1
\A1;400
  7
STYLE1
 73
     1
 44
1.0
1001
ACAD
1000
MTEXTBEGIN
1070
    73
1070
     1
1070
    44
1040
1.0
1070
    74
1070
     0
1000
MTEXTEND
  0
POINT
  5
35A28
330
2A9DE
100
AcDbEntity
  8
DEFPOINTS
 62
     0
 48
50.0
100
AcDbPoint
 10
38415.28577387496
 20
-27872.25458892029
 30
0.0
  0
POINT
  5
35A29
330
2A9DE
100
AcDbEntity
  8
DEFPOINTS
 62
     0
 48
50.0
100
AcDbPoint
 10
38815.28577387496
 20
-27922.25458892027
 30
0.0
  0
POINT
  5
35A2A
330
2A9DE
100
AcDbEntity
  8
DEFPOINTS
 62
     0
 48
50.0
100
AcDbPoint
 10
38815.28577387496
 20
-27562.80229478917
 30
0.0
  0
ENDBLK
  5
2A9E9
330
2A9DE
100
AcDbEntity
  8
0
 48
50.0
100
AcDbBlockEnd
  0
BLOCK
  5
2A9F4
330
2A9EA
100
AcDbEntity
  8
0
 48
50.0
100
AcDbBlockBegin
  2
*D5
 70
     1
 10
0.0
 20
0.0
 30
0.0
  3
*D5
  1

  0
LINE
  5
35A2B
330
2A9EA
100
AcDbEntity
  8
寸法
 62
     0
 48
50.0
370
    -2
100
AcDbLine
 10
41215.28577387495
 20
-28987.25458892027
 30
0.0
 11
41215.28577387495
 21
-29493.52702099444
 31
0.0
  0
LINE
  5
35A2C
330
2A9EA
100
AcDbEntity
  8
寸法
 62
     0
 48
50.0
370
    -2
100
AcDbLine
 10
42015.28577387495
 20
-28987.25458892027
 30
0.0
 11
42015.28577387495
 21
-29493.52702099444
 31
0.0
  0
LINE
  5
35A2D
330
2A9EA
100
AcDbEntity
  8
寸法
 62
     0
 48
50.0
370
    -2
100
AcDbLine
 10
41215.28577387495
 20
-29448.52702099444
 30
0.0
 11
42015.28577387495
 21
-29448.52702099444
 31
0.0
  0
INSERT
  5
35A2E
330
2A9EA
100
AcDbEntity
  8
寸法
 62
     0
 48
50.0
370
    -2
100
AcDbBlockReference
  2
_DOTSMALL
 10
41215.28577387495
 20
-29448.52702099444
 30
0.0
 41
75.0
 42
75.0
 43
75.0
 50
180.0
  0
INSERT
  5
35A2F
330
2A9EA
100
AcDbEntity
  8
寸法
 62
     0
 48
50.0
370
    -2
100
AcDbBlockReference
  2
_DOTSMALL
 10
42015.28577387495
 20
-29448.52702099444
 30
0.0
 41
75.0
 42
75.0
 43
75.0
  0
MTEXT
  5
35A30
330
2A9EA
100
AcDbEntity
  8
寸法
 62
     7
 48
50.0
100
AcDbMText
 10
41615.28577387495
 20
-29373.52702099444
 30
0.0
 40
90.0
 41
0.0
 71
     5
 72
     1
  1
\A1;800
  7
STYLE1
 73
     1
 44
1.0
1001
ACAD
1000
MTEXTBEGIN
1070
    73
1070
     1
1070
    44
1040
1.0
1070
    74
1070
     0
1000
MTEXTEND
  0
POINT
  5
35A31
330
2A9EA
100
AcDbEntity
  8
DEFPOINTS
 62
     0
 48
50.0
100
AcDbPoint
 10
41215.28577387495
 20
-28972.25458892027
 30
0.0
  0
POINT
  5
35A32
330
2A9EA
100
AcDbEntity
  8
DEFPOINTS
 62
     0
 48
50.0
100
AcDbPoint
 10
42015.28577387495
 20
-28972.25458892027
 30
0.0
  0
POINT
  5
35A33
330
2A9EA
100
AcDbEntity
  8
DEFPOINTS
 62
     0
 48
50.0
100
AcDbPoint
 10
42015.28577387495
 20
-29448.52702099444
 30
0.0
  0
ENDBLK
  5
2A9F5
330
2A9EA
100
AcDbEntity
  8
0
 48
50.0
100
AcDbBlockEnd
  0
BLOCK
  5
2AA00
330
2A9F6
100
AcDbEntity
  8
0
 48
50.0
100
AcDbBlockBegin
  2
*D6
 70
     1
 10
0.0
 20
0.0
 30
0.0
  3
*D6
  1

  0
LINE
  5
35A34
330
2A9F6
100
AcDbEntity
  8
寸法
 62
     0
 48
50.0
370
    -2
100
AcDbLine
 10
41615.28577387495
 20
-28437.25458892027
 30
0.0
 11
41615.28577387495
 21
-29255.39080495736
 31
0.0
  0
LINE
  5
35A35
330
2A9F6
100
AcDbEntity
  8
寸法
 62
     0
 48
50.0
370
    -2
100
AcDbLine
 10
41215.28577387495
 20
-28987.25458892027
 30
0.0
 11
41215.28577387495
 21
-29255.39080495736
 31
0.0
  0
LINE
  5
35A36
330
2A9F6
100
AcDbEntity
  8
寸法
 62
     0
 48
50.0
370
    -2
100
AcDbLine
 10
41615.28577387495
 20
-29210.39080495736
 30
0.0
 11
41215.28577387495
 21
-29210.39080495736
 31
0.0
  0
INSERT
  5
35A37
330
2A9F6
100
AcDbEntity
  8
寸法
 62
     0
 48
50.0
370
    -2
100
AcDbBlockReference
  2
_DOTSMALL
 10
41615.28577387495
 20
-29210.39080495736
 30
0.0
 41
75.0
 42
75.0
 43
75.0
  0
INSERT
  5
35A38
330
2A9F6
100
AcDbEntity
  8
寸法
 62
     0
 48
50.0
370
    -2
100
AcDbBlockReference
  2
_DOTSMALL
 10
41215.28577387495
 20
-29210.39080495736
 30
0.0
 41
75.0
 42
75.0
 43
75.0
 50
180.0
  0
MTEXT
  5
35A39
330
2A9F6
100
AcDbEntity
  8
寸法
 62
     7
 48
50.0
100
AcDbMText
 10
41415.28577387496
 20
-29135.39080495736
 30
0.0
 40
90.0
 41
0.0
 71
     5
 72
     1
  1
\A1;400
  7
STYLE1
 73
     1
 44
1.0
1001
ACAD
1000
MTEXTBEGIN
1070
    73
1070
     1
1070
    44
1040
1.0
1070
    74
1070
     0
1000
MTEXTEND
  0
POINT
  5
35A3A
330
2A9F6
100
AcDbEntity
  8
DEFPOINTS
 62
     0
 48
50.0
100
AcDbPoint
 10
41615.28577387495
 20
-28422.25458892027
 30
0.0
  0
POINT
  5
35A3B
330
2A9F6
100
AcDbEntity
  8
DEFPOINTS
 62
     0
 48
50.0
100
AcDbPoint
 10
41215.28577387495
 20
-28972.25458892027
 30
0.0
  0
POINT
  5
35A3C
330
2A9F6
100
AcDbEntity
  8
DEFPOINTS
 62
     0
 48
50.0
100
AcDbPoint
 10
41215.28577387495
 20
-29210.39080495736
 30
0.0
  0
ENDBLK
  5
2AA01
330
2A9F6
100
AcDbEntity
  8
0
 48
50.0
100
AcDbBlockEnd
  0
BLOCK
  5
2AA0C
330
2AA02
100
AcDbEntity
  8
0
 48
50.0
100
AcDbBlockBegin
  2
*D7
 70
     1
 10
0.0
 20
0.0
 30
0.0
  3
*D7
  1

  0
LINE
  5
35A3D
330
2AA02
100
AcDbEntity
  8
寸法
 62
     0
 48
50.0
370
    -2
100
AcDbLine
 10
41200.28577387496
 20
-27872.25458892027
 30
0.0
 11
40815.6567673066
 21
-27872.25458892026
 31
0.0
  0
LINE
  5
35A3E
330
2AA02
100
AcDbEntity
  8
寸法
 62
     0
 48
50.0
370
    -2
100
AcDbLine
 10
41200.28577387496
 20
-28972.25458892027
 30
0.0
 11
40815.6567673066
 21
-28972.25458892026
 31
0.0
  0
LINE
  5
35A3F
330
2AA02
100
AcDbEntity
  8
寸法
 62
     0
 48
50.0
370
    -2
100
AcDbLine
 10
40860.6567673066
 20
-27872.25458892026
 30
0.0
 11
40860.6567673066
 21
-28972.25458892026
 31
0.0
  0
INSERT
  5
35A40
330
2AA02
100
AcDbEntity
  8
寸法
 62
     0
 48
50.0
370
    -2
100
AcDbBlockReference
  2
_DOTSMALL
 10
40860.6567673066
 20
-27872.25458892026
 30
0.0
 41
75.0
 42
75.0
 43
75.0
 50
90.0
  0
INSERT
  5
35A41
330
2AA02
100
AcDbEntity
  8
寸法
 62
     0
 48
50.0
370
    -2
100
AcDbBlockReference
  2
_DOTSMALL
 10
40860.6567673066
 20
-28972.25458892026
 30
0.0
 41
75.0
 42
75.0
 43
75.0
 50
270.0
  0
MTEXT
  5
35A42
330
2AA02
100
AcDbEntity
  8
寸法
 62
     7
 48
50.0
100
AcDbMText
 10
40785.65676730661
 20
-28422.25458892026
 30
0.0
 40
90.0
 41
0.0
 71
     5
 72
     1
  1
\A1;1100
  7
STYLE1
 11
0.0000000000000001
 21
1.0
 31
0.0
 73
     1
 44
1.0
1001
ACAD
1000
MTEXTBEGIN
1070
    73
1070
     1
1070
    44
1040
1.0
1070
    74
1070
     0
1000
MTEXTEND
  0
POINT
  5
35A43
330
2AA02
100
AcDbEntity
  8
DEFPOINTS
 62
     0
 48
50.0
100
AcDbPoint
 10
41215.28577387495
 20
-27872.25458892027
 30
0.0
  0
POINT
  5
35A44
330
2AA02
100
AcDbEntity
  8
DEFPOINTS
 62
     0
 48
50.0
100
AcDbPoint
 10
41215.28577387495
 20
-28972.25458892027
 30
0.0
  0
POINT
  5
35A45
330
2AA02
100
AcDbEntity
  8
DEFPOINTS
 62
     0
 48
50.0
100
AcDbPoint
 10
40860.6567673066
 20
-28972.25458892026
 30
0.0
  0
ENDBLK
  5
2AA0D
330
2AA02
100
AcDbEntity
  8
0
 48
50.0
100
AcDbBlockEnd
  0
BLOCK
  5
2AA18
330
2AA0E
100
AcDbEntity
  8
0
 48
50.0
100
AcDbBlockBegin
  2
*D8
 70
     1
 10
0.0
 20
0.0
 30
0.0
  3
*D8
  1

  0
LINE
  5
35A46
330
2AA0E
100
AcDbEntity
  8
寸法
 62
     0
 48
50.0
370
    -2
100
AcDbLine
 10
41200.28577387496
 20
-28172.25458892027
 30
0.0
 11
40992.97127059077
 21
-28172.25458892027
 31
0.0
  0
LINE
  5
35A47
330
2AA0E
100
AcDbEntity
  8
寸法
 62
     0
 48
50.0
370
    -2
100
AcDbLine
 10
41200.28577387496
 20
-28972.25458892027
 30
0.0
 11
40992.97127059077
 21
-28972.25458892027
 31
0.0
  0
LINE
  5
35A48
330
2AA0E
100
AcDbEntity
  8
寸法
 62
     0
 48
50.0
370
    -2
100
AcDbLine
 10
41037.97127059077
 20
-28172.25458892027
 30
0.0
 11
41037.97127059077
 21
-28972.25458892027
 31
0.0
  0
INSERT
  5
35A49
330
2AA0E
100
AcDbEntity
  8
寸法
 62
     0
 48
50.0
370
    -2
100
AcDbBlockReference
  2
_DOTSMALL
 10
41037.97127059077
 20
-28172.25458892027
 30
0.0
 41
75.0
 42
75.0
 43
75.0
 50
90.0
  0
INSERT
  5
35A4A
330
2AA0E
100
AcDbEntity
  8
寸法
 62
     0
 48
50.0
370
    -2
100
AcDbBlockReference
  2
_DOTSMALL
 10
41037.97127059077
 20
-28972.25458892027
 30
0.0
 41
75.0
 42
75.0
 43
75.0
 50
270.0
  0
MTEXT
  5
35A4B
330
2AA0E
100
AcDbEntity
  8
寸法
 62
     7
 48
50.0
100
AcDbMText
 10
40962.97127059078
 20
-28572.25458892026
 30
0.0
 40
90.0
 41
0.0
 71
     5
 72
     1
  1
\A1;800
  7
STYLE1
 11
0.0000000000000001
 21
1.0
 31
0.0
 73
     1
 44
1.0
1001
ACAD
1000
MTEXTBEGIN
1070
    73
1070
     1
1070
    44
1040
1.0
1070
    74
1070
     0
1000
MTEXTEND
  0
POINT
  5
35A4C
330
2AA0E
100
AcDbEntity
  8
DEFPOINTS
 62
     0
 48
50.0
100
AcDbPoint
 10
41215.28577387495
 20
-28172.25458892027
 30
0.0
  0
POINT
  5
35A4D
330
2AA0E
100
AcDbEntity
  8
DEFPOINTS
 62
     0
 48
50.0
100
AcDbPoint
 10
41215.28577387495
 20
-28972.25458892027
 30
0.0
  0
POINT
  5
35A4E
330
2AA0E
100
AcDbEntity
  8
DEFPOINTS
 62
     0
 48
50.0
100
AcDbPoint
 10
41037.97127059077
 20
-28972.25458892027
 30
0.0
  0
ENDBLK
  5
2AA19
330
2AA0E
100
AcDbEntity
  8
0
 48
50.0
100
AcDbBlockEnd
  0
BLOCK
  5
2AA24
330
2AA1A
100
AcDbEntity
  8
0
 48
50.0
100
AcDbBlockBegin
  2
*D9
 70
     1
 10
0.0
 20
0.0
 30
0.0
  3
*D9
  1

  0
LINE
  5
35A4F
330
2AA1A
100
AcDbEntity
  8
寸法
 62
     0
 48
50.0
370
    -2
100
AcDbLine
 10
41200.28577387496
 20
-27872.25458892027
 30
0.0
 11
40992.97127059077
 21
-27872.25458892027
 31
0.0
  0
LINE
  5
35A50
330
2AA1A
100
AcDbEntity
  8
寸法
 62
     0
 48
50.0
370
    -2
100
AcDbLine
 10
41200.28577387496
 20
-28172.25458892027
 30
0.0
 11
40992.97127059077
 21
-28172.25458892027
 31
0.0
  0
LINE
  5
35A51
330
2AA1A
100
AcDbEntity
  8
寸法
 62
     0
 48
50.0
370
    -2
100
AcDbLine
 10
41037.97127059078
 20
-27872.25458892027
 30
0.0
 11
41037.97127059078
 21
-28172.25458892027
 31
0.0
  0
INSERT
  5
35A52
330
2AA1A
100
AcDbEntity
  8
寸法
 62
     0
 48
50.0
370
    -2
100
AcDbBlockReference
  2
_DOTSMALL
 10
41037.97127059078
 20
-27872.25458892027
 30
0.0
 41
75.0
 42
75.0
 43
75.0
 50
90.0
  0
INSERT
  5
35A53
330
2AA1A
100
AcDbEntity
  8
寸法
 62
     0
 48
50.0
370
    -2
100
AcDbBlockReference
  2
_DOTSMALL
 10
41037.97127059078
 20
-28172.25458892027
 30
0.0
 41
75.0
 42
75.0
 43
75.0
 50
270.0
  0
MTEXT
  5
35A54
330
2AA1A
100
AcDbEntity
  8
寸法
 62
     7
 48
50.0
100
AcDbMText
 10
40962.97127059078
 20
-28022.25458892026
 30
0.0
 40
90.0
 41
0.0
 71
     5
 72
     1
  1
\A1;300
  7
STYLE1
 11
0.0000000000000001
 21
1.0
 31
0.0
 73
     1
 44
1.0
1001
ACAD
1000
MTEXTBEGIN
1070
    73
1070
     1
1070
    44
1040
1.0
1070
    74
1070
     0
1000
MTEXTEND
  0
POINT
  5
35A55
330
2AA1A
100
AcDbEntity
  8
DEFPOINTS
 62
     0
 48
50.0
100
AcDbPoint
 10
41215.28577387495
 20
-27872.25458892027
 30
0.0
  0
POINT
  5
35A56
330
2AA1A
100
AcDbEntity
  8
DEFPOINTS
 62
     0
 48
50.0
100
AcDbPoint
 10
41215.28577387495
 20
-28172.25458892027
 30
0.0
  0
POINT
  5
35A57
330
2AA1A
100
AcDbEntity
  8
DEFPOINTS
 62
     0
 48
50.0
100
AcDbPoint
 10
41037.97127059078
 20
-28172.25458892027
 30
0.0
  0
ENDBLK
  5
2AA25
330
2AA1A
100
AcDbEntity
  8
0
 48
50.0
100
AcDbBlockEnd
  0
BLOCK
  5
2AA2E
330
2AA26
100
AcDbEntity
  8
0
 48
50.0
100
AcDbBlockBegin
  2
*D10
 70
     1
 10
0.0
 20
0.0
 30
0.0
  3
*D10
  1

  0
LINE
  5
35A58
330
2AA26
100
AcDbEntity
  8
寸法
 62
     0
 48
50.0
370
    -2
100
AcDbLine
 10
38400.28577387496
 20
-27972.25458892027
 30
0.0
 11
38029.41393716373
 21
-27972.25458892027
 31
0.0
  0
LINE
  5
35A59
330
2AA26
100
AcDbEntity
  8
寸法
 62
     0
 48
50.0
370
    -2
100
AcDbLine
 10
38550.28577387496
 20
-28172.25458892027
 30
0.0
 11
38029.41393716373
 21
-28172.25458892027
 31
0.0
  0
LINE
  5
35A5A
330
2AA26
100
AcDbEntity
  8
寸法
 62
     0
 48
50.0
370
    -2
100
AcDbLine
 10
38074.41393716373
 20
-27972.25458892027
 30
0.0
 11
38074.41393716373
 21
-28172.25458892027
 31
0.0
  0
MTEXT
  5
35A5B
330
2AA26
100
AcDbEntity
  8
寸法
 62
     7
 48
50.0
100
AcDbMText
 10
37999.40507889602
 20
-28072.25458892026
 30
0.0
 40
90.0
 41
0.0
 71
     5
 72
     1
  1
\A1;200
  7
STYLE1
 11
0.0000000000000001
 21
1.0
 31
0.0
 73
     1
 44
1.0
1001
ACAD
1000
MTEXTBEGIN
1070
    73
1070
     1
1070
    44
1040
1.0
1070
    74
1070
     0
1000
MTEXTEND
  0
POINT
  5
35A5C
330
2AA26
100
AcDbEntity
  8
DEFPOINTS
 62
     0
 48
50.0
100
AcDbPoint
 10
38415.28577387496
 20
-27972.25458892027
 30
0.0
  0
POINT
  5
35A5D
330
2AA26
100
AcDbEntity
  8
DEFPOINTS
 62
     0
 48
50.0
100
AcDbPoint
 10
38565.28577387496
 20
-28172.25458892027
 30
0.0
  0
POINT
  5
35A5E
330
2AA26
100
AcDbEntity
  8
DEFPOINTS
 62
     0
 48
50.0
100
AcDbPoint
 10
38074.41393716373
 20
-28172.25458892027
 30
0.0
  0
ENDBLK
  5
2AA2F
330
2AA26
100
AcDbEntity
  8
0
 48
50.0
100
AcDbBlockEnd
  0
BLOCK
  5
2AA3A
330
2AA30
100
AcDbEntity
  8
0
 48
50.0
100
AcDbBlockBegin
  2
*D11
 70
     1
 10
0.0
 20
0.0
 30
0.0
  3
*D11
  1

  0
LINE
  5
35A5F
330
2AA30
100
AcDbEntity
  8
寸法
 62
     0
 48
50.0
370
    -2
100
AcDbLine
 10
38550.28577387496
 20
-28172.25458892027
 30
0.0
 11
38029.41393716373
 21
-28172.25458892027
 31
0.0
  0
LINE
  5
35A60
330
2AA30
100
AcDbEntity
  8
寸法
 62
     0
 48
50.0
370
    -2
100
AcDbLine
 10
38400.28577387496
 20
-30172.25458892027
 30
0.0
 11
38029.41393716373
 21
-30172.25458892027
 31
0.0
  0
LINE
  5
35A61
330
2AA30
100
AcDbEntity
  8
寸法
 62
     0
 48
50.0
370
    -2
100
AcDbLine
 10
38074.41393716373
 20
-28172.25458892027
 30
0.0
 11
38074.41393716373
 21
-30172.25458892027
 31
0.0
  0
INSERT
  5
35A62
330
2AA30
100
AcDbEntity
  8
寸法
 62
     0
 48
50.0
370
    -2
100
AcDbBlockReference
  2
_DOTSMALL
 10
38074.41393716373
 20
-28172.25458892027
 30
0.0
 41
75.0
 42
75.0
 43
75.0
 50
90.0
  0
INSERT
  5
35A63
330
2AA30
100
AcDbEntity
  8
寸法
 62
     0
 48
50.0
370
    -2
100
AcDbBlockReference
  2
_DOTSMALL
 10
38074.41393716373
 20
-30172.25458892027
 30
0.0
 41
75.0
 42
75.0
 43
75.0
 50
270.0
  0
MTEXT
  5
35A64
330
2AA30
100
AcDbEntity
  8
寸法
 62
     7
 48
50.0
100
AcDbMText
 10
37999.40507889602
 20
-29172.25458892026
 30
0.0
 40
90.0
 41
0.0
 71
     5
 72
     1
  1
\A1;2000
  7
STYLE1
 11
0.0000000000000001
 21
1.0
 31
0.0
 73
     1
 44
1.0
1001
ACAD
1000
MTEXTBEGIN
1070
    73
1070
     1
1070
    44
1040
1.0
1070
    74
1070
     0
1000
MTEXTEND
  0
POINT
  5
35A65
330
2AA30
100
AcDbEntity
  8
DEFPOINTS
 62
     0
 48
50.0
100
AcDbPoint
 10
38565.28577387496
 20
-28172.25458892027
 30
0.0
  0
POINT
  5
35A66
330
2AA30
100
AcDbEntity
  8
DEFPOINTS
 62
     0
 48
50.0
100
AcDbPoint
 10
38415.28577387496
 20
-30172.25458892027
 30
0.0
  0
POINT
  5
35A67
330
2AA30
100
AcDbEntity
  8
DEFPOINTS
 62
     0
 48
50.0
100
AcDbPoint
 10
38074.41393716373
 20
-30172.25458892027
 30
0.0
  0
ENDBLK
  5
2AA3B
330
2AA30
100
AcDbEntity
  8
0
 48
50.0
100
AcDbBlockEnd
  0
BLOCK
  5
2AA46
330
2AA3C
100
AcDbEntity
  8
0
 48
50.0
100
AcDbBlockBegin
  2
*D12
 70
     1
 10
0.0
 20
0.0
 30
0.0
  3
*D12
  1

  0
LINE
  5
35A68
330
2AA3C
100
AcDbEntity
  8
寸法
 62
     0
 48
50.0
370
    -2
100
AcDbLine
 10
38400.28577387496
 20
-27972.25458892027
 30
0.0
 11
37806.66457514727
 21
-27972.25458892027
 31
0.0
  0
LINE
  5
35A69
330
2AA3C
100
AcDbEntity
  8
寸法
 62
     0
 48
50.0
370
    -2
100
AcDbLine
 10
38400.28577387496
 20
-30172.25458892027
 30
0.0
 11
37806.66457514727
 21
-30172.25458892027
 31
0.0
  0
LINE
  5
35A6A
330
2AA3C
100
AcDbEntity
  8
寸法
 62
     0
 48
50.0
370
    -2
100
AcDbLine
 10
37851.66457514727
 20
-27972.25458892027
 30
0.0
 11
37851.66457514727
 21
-30172.25458892027
 31
0.0
  0
INSERT
  5
35A6B
330
2AA3C
100
AcDbEntity
  8
寸法
 62
     0
 48
50.0
370
    -2
100
AcDbBlockReference
  2
_DOTSMALL
 10
37851.66457514727
 20
-27972.25458892027
 30
0.0
 41
75.0
 42
75.0
 43
75.0
 50
90.0
  0
INSERT
  5
35A6C
330
2AA3C
100
AcDbEntity
  8
寸法
 62
     0
 48
50.0
370
    -2
100
AcDbBlockReference
  2
_DOTSMALL
 10
37851.66457514727
 20
-30172.25458892027
 30
0.0
 41
75.0
 42
75.0
 43
75.0
 50
270.0
  0
MTEXT
  5
35A6D
330
2AA3C
100
AcDbEntity
  8
寸法
 62
     7
 48
50.0
100
AcDbMText
 10
37776.65571687956
 20
-29072.25458892026
 30
0.0
 40
90.0
 41
0.0
 71
     5
 72
     1
  1
\A1;基礎土間寸法 2200
  7
STYLE1
 11
0.0000000000000001
 21
1.0
 31
0.0
 73
     1
 44
1.0
1001
ACAD
1000
MTEXTBEGIN
1070
    73
1070
     1
1070
    44
1040
1.0
1070
    74
1070
     0
1000
MTEXTEND
  0
POINT
  5
35A6E
330
2AA3C
100
AcDbEntity
  8
DEFPOINTS
 62
     0
 48
50.0
100
AcDbPoint
 10
38415.28577387496
 20
-27972.25458892027
 30
0.0
  0
POINT
  5
35A6F
330
2AA3C
100
AcDbEntity
  8
DEFPOINTS
 62
     0
 48
50.0
100
AcDbPoint
 10
38415.28577387496
 20
-30172.25458892027
 30
0.0
  0
POINT
  5
35A70
330
2AA3C
100
AcDbEntity
  8
DEFPOINTS
 62
     0
 48
50.0
100
AcDbPoint
 10
37851.66457514727
 20
-30172.25458892027
 30
0.0
  0
ENDBLK
  5
2AA47
330
2AA3C
100
AcDbEntity
  8
0
 48
50.0
100
AcDbBlockEnd
  0
BLOCK
  5
2AA52
330
2AA48
100
AcDbEntity
  8
0
 48
50.0
100
AcDbBlockBegin
  2
*D13
 70
     1
 10
0.0
 20
0.0
 30
0.0
  3
*D13
  1

  0
LINE
  5
35A71
330
2AA48
100
AcDbEntity
  8
寸法
 62
     0
 48
50.0
370
    -2
100
AcDbLine
 10
38585.28577387501
 20
-30050.25458892027
 30
0.0
 11
38585.28577387501
 21
-30545.7423072568
 31
0.0
  0
LINE
  5
35A72
330
2AA48
100
AcDbEntity
  8
寸法
 62
     0
 48
50.0
370
    -2
100
AcDbLine
 10
41845.28577387491
 20
-30050.25458892027
 30
0.0
 11
41845.28577387491
 21
-30545.7423072568
 31
0.0
  0
LINE
  5
35A73
330
2AA48
100
AcDbEntity
  8
寸法
 62
     0
 48
50.0
370
    -2
100
AcDbLine
 10
38585.28577387501
 20
-30500.7423072568
 30
0.0
 11
41845.28577387491
 21
-30500.7423072568
 31
0.0
  0
INSERT
  5
35A74
330
2AA48
100
AcDbEntity
  8
寸法
 62
     0
 48
50.0
370
    -2
100
AcDbBlockReference
  2
_DOTSMALL
 10
38585.28577387501
 20
-30500.7423072568
 30
0.0
 41
75.0
 42
75.0
 43
75.0
 50
180.0
  0
INSERT
  5
35A75
330
2AA48
100
AcDbEntity
  8
寸法
 62
     0
 48
50.0
370
    -2
100
AcDbBlockReference
  2
_DOTSMALL
 10
41845.28577387491
 20
-30500.7423072568
 30
0.0
 41
75.0
 42
75.0
 43
75.0
  0
MTEXT
  5
35A76
330
2AA48
100
AcDbEntity
  8
寸法
 62
     7
 48
50.0
100
AcDbMText
 10
40215.28577387496
 20
-30425.73344898908
 30
0.0
 40
90.0
 41
0.0
 71
     5
 72
     1
  1
\A1;屋根寸法 3260
  7
STYLE1
 73
     1
 44
1.0
1001
ACAD
1000
MTEXTBEGIN
1070
    73
1070
     1
1070
    44
1040
1.0
1070
    74
1070
     0
1000
MTEXTEND
  0
POINT
  5
35A77
330
2AA48
100
AcDbEntity
  8
DEFPOINTS
 62
     0
 48
50.0
100
AcDbPoint
 10
38585.28577387501
 20
-30035.25458892028
 30
0.0
  0
POINT
  5
35A78
330
2AA48
100
AcDbEntity
  8
DEFPOINTS
 62
     0
 48
50.0
100
AcDbPoint
 10
41845.28577387491
 20
-30035.25458892027
 30
0.0
  0
POINT
  5
35A79
330
2AA48
100
AcDbEntity
  8
DEFPOINTS
 62
     0
 48
50.0
100
AcDbPoint
 10
41845.28577387491
 20
-30500.7423072568
 30
0.0
  0
ENDBLK
  5
2AA53
330
2AA48
100
AcDbEntity
  8
0
 48
50.0
100
AcDbBlockEnd
  0
BLOCK
  5
2AA5C
330
2AA54
100
AcDbEntity
  8
0
 48
50.0
100
AcDbBlockBegin
  2
*D14
 70
     1
 10
0.0
 20
0.0
 30
0.0
  3
*D14
  1

  0
LINE
  5
35A7A
330
2AA54
100
AcDbEntity
  8
寸法
 62
     0
 48
50.0
370
    -2
100
AcDbLine
 10
38585.28577387501
 20
-30050.25458892027
 30
0.0
 11
38585.28577387501
 21
-30545.7423072568
 31
0.0
  0
LINE
  5
35A7B
330
2AA54
100
AcDbEntity
  8
寸法
 62
     0
 48
50.0
370
    -2
100
AcDbLine
 10
38415.28577387496
 20
-30187.25458892027
 30
0.0
 11
38415.28577387496
 21
-30545.7423072568
 31
0.0
  0
LINE
  5
35A7C
330
2AA54
100
AcDbEntity
  8
寸法
 62
     0
 48
50.0
370
    -2
100
AcDbLine
 10
38585.28577387501
 20
-30500.7423072568
 30
0.0
 11
38415.28577387496
 21
-30500.7423072568
 31
0.0
  0
MTEXT
  5
35A7D
330
2AA54
100
AcDbEntity
  8
寸法
 62
     7
 48
50.0
100
AcDbMText
 10
38500.28577387498
 20
-30425.7423072568
 30
0.0
 40
90.0
 41
0.0
 71
     5
 72
     1
  1
\A1;170
  7
STYLE1
 73
     1
 44
1.0
1001
ACAD
1000
MTEXTBEGIN
1070
    73
1070
     1
1070
    44
1040
1.0
1070
    74
1070
     0
1000
MTEXTEND
  0
POINT
  5
35A7E
330
2AA54
100
AcDbEntity
  8
DEFPOINTS
 62
     0
 48
50.0
100
AcDbPoint
 10
38585.28577387501
 20
-30035.25458892028
 30
0.0
  0
POINT
  5
35A7F
330
2AA54
100
AcDbEntity
  8
DEFPOINTS
 62
     0
 48
50.0
100
AcDbPoint
 10
38415.28577387496
 20
-30172.25458892027
 30
0.0
  0
POINT
  5
35A80
330
2AA54
100
AcDbEntity
  8
DEFPOINTS
 62
     0
 48
50.0
100
AcDbPoint
 10
38415.28577387496
 20
-30500.7423072568
 30
0.0
  0
ENDBLK
  5
2AA5D
330
2AA54
100
AcDbEntity
  8
0
 48
50.0
100
AcDbBlockEnd
  0
BLOCK
  5
2AA66
330
2AA5E
100
AcDbEntity
  8
0
 48
50.0
100
AcDbBlockBegin
  2
*D15
 70
     1
 10
0.0
 20
0.0
 30
0.0
  3
*D15
  1

  0
LINE
  5
35A81
330
2AA5E
100
AcDbEntity
  8
寸法
 62
     0
 48
50.0
370
    -2
100
AcDbLine
 10
41845.28577387491
 20
-30050.25458892027
 30
0.0
 11
41845.28577387491
 21
-30545.7423072568
 31
0.0
  0
LINE
  5
35A82
330
2AA5E
100
AcDbEntity
  8
寸法
 62
     0
 48
50.0
370
    -2
100
AcDbLine
 10
42015.28577387495
 20
-30187.25458892027
 30
0.0
 11
42015.28577387495
 21
-30545.7423072568
 31
0.0
  0
LINE
  5
35A83
330
2AA5E
100
AcDbEntity
  8
寸法
 62
     0
 48
50.0
370
    -2
100
AcDbLine
 10
41845.28577387491
 20
-30500.7423072568
 30
0.0
 11
42015.28577387495
 21
-30500.7423072568
 31
0.0
  0
MTEXT
  5
35A84
330
2AA5E
100
AcDbEntity
  8
寸法
 62
     7
 48
50.0
100
AcDbMText
 10
41930.28577387494
 20
-30425.7423072568
 30
0.0
 40
90.0
 41
0.0
 71
     5
 72
     1
  1
\A1;170
  7
STYLE1
 73
     1
 44
1.0
1001
ACAD
1000
MTEXTBEGIN
1070
    73
1070
     1
1070
    44
1040
1.0
1070
    74
1070
     0
1000
MTEXTEND
  0
POINT
  5
35A85
330
2AA5E
100
AcDbEntity
  8
DEFPOINTS
 62
     0
 48
50.0
100
AcDbPoint
 10
41845.28577387491
 20
-30035.25458892027
 30
0.0
  0
POINT
  5
35A86
330
2AA5E
100
AcDbEntity
  8
DEFPOINTS
 62
     0
 48
50.0
100
AcDbPoint
 10
42015.28577387495
 20
-30172.25458892027
 30
0.0
  0
POINT
  5
35A87
330
2AA5E
100
AcDbEntity
  8
DEFPOINTS
 62
     0
 48
50.0
100
AcDbPoint
 10
42015.28577387495
 20
-30500.7423072568
 30
0.0
  0
ENDBLK
  5
2AA67
330
2AA5E
100
AcDbEntity
  8
0
 48
50.0
100
AcDbBlockEnd
  0
BLOCK
  5
2AA70
330
2AA68
100
AcDbEntity
  8
0
 48
50.0
100
AcDbBlockBegin
  2
*D16
 70
     1
 10
0.0
 20
0.0
 30
0.0
  3
*D16
  1

  0
LINE
  5
35A88
330
2AA68
100
AcDbEntity
  8
寸法
 62
     0
 48
50.0
370
    -2
100
AcDbLine
 10
41805.28577387495
 20
-28272.25458892027
 30
0.0
 11
42221.87320101252
 21
-28272.25458892027
 31
0.0
  0
LINE
  5
35A89
330
2AA68
100
AcDbEntity
  8
寸法
 62
     0
 48
50.0
370
    -2
100
AcDbLine
 10
41805.28577387495
 20
-28072.25458892027
 30
0.0
 11
42221.87320101252
 21
-28072.25458892027
 31
0.0
  0
LINE
  5
35A8A
330
2AA68
100
AcDbEntity
  8
寸法
 62
     0
 48
50.0
370
    -2
100
AcDbLine
 10
42176.87320101253
 20
-28272.25458892027
 30
0.0
 11
42176.87320101253
 21
-28072.25458892027
 31
0.0
  0
MTEXT
  5
35A8B
330
2AA68
100
AcDbEntity
  8
寸法
 62
     7
 48
50.0
100
AcDbMText
 10
42101.86434274482
 20
-28172.25458892026
 30
0.0
 40
90.0
 41
0.0
 71
     5
 72
     1
  1
\A1;200
  7
STYLE1
 11
0.0000000000000001
 21
1.0
 31
0.0
 73
     1
 44
1.0
1001
ACAD
1000
MTEXTBEGIN
1070
    73
1070
     1
1070
    44
1040
1.0
1070
    74
1070
     0
1000
MTEXTEND
  0
POINT
  5
35A8C
330
2AA68
100
AcDbEntity
  8
DEFPOINTS
 62
     0
 48
50.0
100
AcDbPoint
 10
41790.28577387495
 20
-28272.25458892027
 30
0.0
  0
POINT
  5
35A8D
330
2AA68
100
AcDbEntity
  8
DEFPOINTS
 62
     0
 48
50.0
100
AcDbPoint
 10
41790.28577387495
 20
-28072.25458892027
 30
0.0
  0
POINT
  5
35A8E
330
2AA68
100
AcDbEntity
  8
DEFPOINTS
 62
     0
 48
50.0
100
AcDbPoint
 10
42176.87320101253
 20
-28072.25458892027
 30
0.0
  0
ENDBLK
  5
2AA71
330
2AA68
100
AcDbEntity
  8
0
 48
50.0
100
AcDbBlockEnd
  0
BLOCK
  5
2AA7A
330
2AA72
100
AcDbEntity
  8
0
 48
50.0
100
AcDbBlockBegin
  2
*D17
 70
     1
 10
0.0
 20
0.0
 30
0.0
  3
*D17
  1

  0
LINE
  5
35A8F
330
2AA72
100
AcDbEntity
  8
寸法
 62
     0
 48
50.0
370
    -2
100
AcDbLine
 10
41715.28577387496
 20
-28362.25458892027
 30
0.0
 11
41715.28577387496
 21
-28786.77587223307
 31
0.0
  0
LINE
  5
35A90
330
2AA72
100
AcDbEntity
  8
寸法
 62
     0
 48
50.0
370
    -2
100
AcDbLine
 10
41515.28577387495
 20
-28362.25458892027
 30
0.0
 11
41515.28577387495
 21
-28786.77587223307
 31
0.0
  0
LINE
  5
35A91
330
2AA72
100
AcDbEntity
  8
寸法
 62
     0
 48
50.0
370
    -2
100
AcDbLine
 10
41715.28577387496
 20
-28741.77587223307
 30
0.0
 11
41515.28577387495
 21
-28741.77587223307
 31
0.0
  0
MTEXT
  5
35A92
330
2AA72
100
AcDbEntity
  8
寸法
 62
     7
 48
50.0
100
AcDbMText
 10
41615.28577387495
 20
-28666.76701396535
 30
0.0
 40
90.0
 41
0.0
 71
     5
 72
     1
  1
\A1;200
  7
STYLE1
 73
     1
 44
1.0
1001
ACAD
1000
MTEXTBEGIN
1070
    73
1070
     1
1070
    44
1040
1.0
1070
    74
1070
     0
1000
MTEXTEND
  0
POINT
  5
35A93
330
2AA72
100
AcDbEntity
  8
DEFPOINTS
 62
     0
 48
50.0
100
AcDbPoint
 10
41715.28577387496
 20
-28347.25458892027
 30
0.0
  0
POINT
  5
35A94
330
2AA72
100
AcDbEntity
  8
DEFPOINTS
 62
     0
 48
50.0
100
AcDbPoint
 10
41515.28577387495
 20
-28347.25458892027
 30
0.0
  0
POINT
  5
35A95
330
2AA72
100
AcDbEntity
  8
DEFPOINTS
 62
     0
 48
50.0
100
AcDbPoint
 10
41515.28577387495
 20
-28741.77587223307
 30
0.0
  0
ENDBLK
  5
2AA7B
330
2AA72
100
AcDbEntity
  8
0
 48
50.0
100
AcDbBlockEnd
  0
BLOCK
  5
2B1A5
330
2B19B
100
AcDbEntity
  8
0
 48
50.0
100
AcDbBlockBegin
  2
*D18
 70
     1
 10
0.0
 20
0.0
 30
0.0
  3
*D18
  1

  0
LINE
  5
359F4
330
2B19B
100
AcDbEntity
  8
寸法
 62
     0
 48
50.0
370
    -2
100
AcDbLine
 10
41860.28577387491
 20
-28015.25458892027
 30
0.0
 11
42442.55999623857
 21
-28015.25458892027
 31
0.0
  0
LINE
  5
359F5
330
2B19B
100
AcDbEntity
  8
寸法
 62
     0
 48
50.0
370
    -2
100
AcDbLine
 10
41860.28577387491
 20
-30035.25458892028
 30
0.0
 11
42442.55999623857
 21
-30035.25458892028
 31
0.0
  0
LINE
  5
359F6
330
2B19B
100
AcDbEntity
  8
寸法
 62
     0
 48
50.0
370
    -2
100
AcDbLine
 10
42397.55999623858
 20
-28015.25458892027
 30
0.0
 11
42397.55999623858
 21
-30035.25458892028
 31
0.0
  0
INSERT
  5
359F7
330
2B19B
100
AcDbEntity
  8
寸法
 62
     0
 48
50.0
370
    -2
100
AcDbBlockReference
  2
_DOTSMALL
 10
42397.55999623858
 20
-28015.25458892027
 30
0.0
 41
75.0
 42
75.0
 43
75.0
 50
90.0
  0
INSERT
  5
359F8
330
2B19B
100
AcDbEntity
  8
寸法
 62
     0
 48
50.0
370
    -2
100
AcDbBlockReference
  2
_DOTSMALL
 10
42397.55999623858
 20
-30035.25458892028
 30
0.0
 41
75.0
 42
75.0
 43
75.0
 50
270.0
  0
MTEXT
  5
359F9
330
2B19B
100
AcDbEntity
  8
寸法
 62
     7
 48
50.0
100
AcDbMText
 10
42322.55113797086
 20
-29025.25458892027
 30
0.0
 40
90.0
 41
0.0
 71
     5
 72
     1
  1
\A1;屋根寸法 2020
  7
STYLE1
 11
0.0000000000000001
 21
1.0
 31
0.0
 73
     1
 44
1.0
1001
ACAD
1000
MTEXTBEGIN
1070
    73
1070
     1
1070
    44
1040
1.0
1070
    74
1070
     0
1000
MTEXTEND
  0
POINT
  5
359FA
330
2B19B
100
AcDbEntity
  8
DEFPOINTS
 62
     0
 48
50.0
100
AcDbPoint
 10
41845.28577387491
 20
-28015.25458892027
 30
0.0
  0
POINT
  5
359FB
330
2B19B
100
AcDbEntity
  8
DEFPOINTS
 62
     0
 48
50.0
100
AcDbPoint
 10
41845.28577387491
 20
-30035.25458892028
 30
0.0
  0
POINT
  5
359FC
330
2B19B
100
AcDbEntity
  8
DEFPOINTS
 62
     0
 48
50.0
100
AcDbPoint
 10
42397.55999623858
 20
-30035.25458892028
 30
0.0
  0
ENDBLK
  5
2B1A6
330
2B19B
100
AcDbEntity
  8
0
 48
50.0
100
AcDbBlockEnd
  0
BLOCK
  5
2B1B2
330
2B1A7
100
AcDbEntity
  8
0
 48
50.0
100
AcDbBlockBegin
  2
*D19
 70
     1
 10
0.0
 20
0.0
 30
0.0
  3
*D19
  1

  0
LINE
  5
359FD
330
2B1A7
100
AcDbEntity
  8
寸法
 62
     0
 48
50.0
370
    -2
100
AcDbLine
 10
41860.28577387491
 20
-28015.25458892027
 30
0.0
 11
42442.55999623858
 21
-28015.25458892027
 31
0.0
  0
LINE
  5
359FE
330
2B1A7
100
AcDbEntity
  8
寸法
 62
     0
 48
50.0
370
    -2
100
AcDbLine
 10
42030.28577387495
 20
-27872.25458892028
 30
0.0
 11
42442.55999623858
 21
-27872.25458892028
 31
0.0
  0
LINE
  5
359FF
330
2B1A7
100
AcDbEntity
  8
寸法
 62
     0
 48
50.0
370
    -2
100
AcDbLine
 10
42397.55999623858
 20
-28015.25458892027
 30
0.0
 11
42397.55999623858
 21
-27872.25458892028
 31
0.0
  0
LINE
  5
35A00
330
2B1A7
100
AcDbEntity
  8
寸法
 62
     0
 48
50.0
370
    -2
100
AcDbLine
 10
42397.55999623858
 20
-27872.25458892028
 30
0.0
 11
42397.55999623858
 21
-27580.52666685892
 31
0.0
  0
INSERT
  5
35A01
330
2B1A7
100
AcDbEntity
  8
寸法
 62
     0
 48
50.0
370
    -2
100
AcDbBlockReference
  2
_DOTSMALL
 10
42397.55999623858
 20
-28015.25458892027
 30
0.0
 41
75.0
 42
75.0
 43
75.0
 50
270.0
  0
INSERT
  5
35A02
330
2B1A7
100
AcDbEntity
  8
寸法
 62
     0
 48
50.0
370
    -2
100
AcDbBlockReference
  2
_DOTSMALL
 10
42397.55999623858
 20
-27872.25458892028
 30
0.0
 41
75.0
 42
75.0
 43
75.0
 50
90.0
  0
MTEXT
  5
35A03
330
2B1A7
100
AcDbEntity
  8
寸法
 62
     7
 48
50.0
100
AcDbMText
 10
42322.55999623859
 20
-27688.89062788959
 30
0.0
 40
90.0
 41
0.0
 71
     5
 72
     1
  1
\A1;143
  7
STYLE1
 11
0.0000000000000001
 21
1.0
 31
0.0
 73
     1
 44
1.0
1001
ACAD
1000
MTEXTBEGIN
1070
    73
1070
     1
1070
    44
1040
1.0
1070
    74
1070
     0
1000
MTEXTEND
  0
POINT
  5
35A04
330
2B1A7
100
AcDbEntity
  8
DEFPOINTS
 62
     0
 48
50.0
100
AcDbPoint
 10
41845.28577387491
 20
-28015.25458892027
 30
0.0
  0
POINT
  5
35A05
330
2B1A7
100
AcDbEntity
  8
DEFPOINTS
 62
     0
 48
50.0
100
AcDbPoint
 10
42015.28577387495
 20
-27872.25458892028
 30
0.0
  0
POINT
  5
35A06
330
2B1A7
100
AcDbEntity
  8
DEFPOINTS
 62
     0
 48
50.0
100
AcDbPoint
 10
42397.55999623858
 20
-27872.25458892028
 30
0.0
  0
ENDBLK
  5
2B1B3
330
2B1A7
100
AcDbEntity
  8
0
 48
50.0
100
AcDbBlockEnd
  0
BLOCK
  5
2B1BF
330
2B1B4
100
AcDbEntity
  8
0
 48
50.0
100
AcDbBlockBegin
  2
*D20
 70
     1
 10
0.0
 20
0.0
 30
0.0
  3
*D20
  1

  0
LINE
  5
359EA
330
2B1B4
100
AcDbEntity
  8
寸法
 62
     0
 48
50.0
370
    -2
100
AcDbLine
 10
41860.28577387491
 20
-30035.25458892028
 30
0.0
 11
42442.55999623857
 21
-30035.25458892028
 31
0.0
  0
LINE
  5
359EB
330
2B1B4
100
AcDbEntity
  8
寸法
 62
     0
 48
50.0
370
    -2
100
AcDbLine
 10
42030.28577387495
 20
-30172.25458892027
 30
0.0
 11
42442.55999623857
 21
-30172.25458892027
 31
0.0
  0
LINE
  5
359EC
330
2B1B4
100
AcDbEntity
  8
寸法
 62
     0
 48
50.0
370
    -2
100
AcDbLine
 10
42397.55999623857
 20
-30035.25458892028
 30
0.0
 11
42397.55999623857
 21
-30172.25458892027
 31
0.0
  0
LINE
  5
359ED
330
2B1B4
100
AcDbEntity
  8
寸法
 62
     0
 48
50.0
370
    -2
100
AcDbLine
 10
42397.55999623857
 20
-30172.25458892027
 30
0.0
 11
42397.55999623857
 21
-30451.25458892028
 31
0.0
  0
INSERT
  5
359EE
330
2B1B4
100
AcDbEntity
  8
寸法
 62
     0
 48
50.0
370
    -2
100
AcDbBlockReference
  2
_DOTSMALL
 10
42397.55999623857
 20
-30035.25458892028
 30
0.0
 41
75.0
 42
75.0
 43
75.0
 50
90.0
  0
INSERT
  5
359EF
330
2B1B4
100
AcDbEntity
  8
寸法
 62
     0
 48
50.0
370
    -2
100
AcDbBlockReference
  2
_DOTSMALL
 10
42397.55999623857
 20
-30172.25458892027
 30
0.0
 41
75.0
 42
75.0
 43
75.0
 50
270.0
  0
MTEXT
  5
359F0
330
2B1B4
100
AcDbEntity
  8
寸法
 62
     7
 48
50.0
100
AcDbMText
 10
42322.55999623857
 20
-30349.25458892027
 30
0.0
 40
90.0
 41
0.0
 71
     5
 72
     1
  1
\A1;137
  7
STYLE1
 11
0.0000000000000001
 21
1.0
 31
0.0
 73
     1
 44
1.0
1001
ACAD
1000
MTEXTBEGIN
1070
    73
1070
     1
1070
    44
1040
1.0
1070
    74
1070
     0
1000
MTEXTEND
  0
POINT
  5
359F1
330
2B1B4
100
AcDbEntity
  8
DEFPOINTS
 62
     0
 48
50.0
100
AcDbPoint
 10
41845.28577387491
 20
-30035.25458892028
 30
0.0
  0
POINT
  5
359F2
330
2B1B4
100
AcDbEntity
  8
DEFPOINTS
 62
     0
 48
50.0
100
AcDbPoint
 10
42015.28577387495
 20
-30172.25458892027
 30
0.0
  0
POINT
  5
359F3
330
2B1B4
100
AcDbEntity
  8
DEFPOINTS
 62
     0
 48
50.0
100
AcDbPoint
 10
42397.55999623857
 20
-30172.25458892027
 30
0.0
  0
ENDBLK
  5
2B1C0
330
2B1B4
100
AcDbEntity
  8
0
 48
50.0
100
AcDbBlockEnd
  0
BLOCK
  5
33161
330
33156
100
AcDbEntity
  8
0
 48
50.0
100
AcDbBlockBegin
  2
*D21
 70
     1
 10
0.0
 20
0.0
 30
0.0
  3
*D21
  1

  0
LINE
  5
35980
330
33156
100
AcDbEntity
  8
寸法
 62
     0
 48
50.0
370
    -2
100
AcDbLine
 10
44811.15625206622
 20
-29175.46022470093
 30
0.0
 11
44423.66114738649
 21
-29175.46022470093
 31
0.0
  0
LINE
  5
35981
330
33156
100
AcDbEntity
  8
寸法
 62
     0
 48
50.0
370
    -2
100
AcDbLine
 10
45570.45325425104
 20
-29115.46022470092
 30
0.0
 11
44423.66114738649
 21
-29115.46022470092
 31
0.0
  0
LINE
  5
35982
330
33156
100
AcDbEntity
  8
寸法
 62
     0
 48
50.0
370
    -2
100
AcDbLine
 10
44468.66114738649
 20
-29115.46022470092
 30
0.0
 11
44468.66114738649
 21
-29175.46022470093
 31
0.0
  0
LINE
  5
35983
330
33156
100
AcDbEntity
  8
寸法
 62
     0
 48
50.0
370
    -2
100
AcDbLine
 10
44468.66114738649
 20
-29175.46022470093
 30
0.0
 11
44468.66114738649
 21
-29414.91691761431
 31
0.0
  0
INSERT
  5
35984
330
33156
100
AcDbEntity
  8
寸法
 62
     0
 48
50.0
370
    -2
100
AcDbBlockReference
  2
_DOTSMALL
 10
44468.66114738649
 20
-29115.46022470092
 30
0.0
 41
75.0
 42
75.0
 43
75.0
 50
90.0
  0
INSERT
  5
35985
330
33156
100
AcDbEntity
  8
寸法
 62
     0
 48
50.0
370
    -2
100
AcDbBlockReference
  2
_DOTSMALL
 10
44468.66114738649
 20
-29175.46022470093
 30
0.0
 41
75.0
 42
75.0
 43
75.0
 50
270.0
  0
MTEXT
  5
35986
330
33156
100
AcDbEntity
  8
寸法
 62
     7
 48
50.0
100
AcDbMText
 10
44393.6611473865
 20
-29332.68857115761
 30
0.0
 40
90.0
 41
0.0
 71
     5
 72
     1
  1
\A1;60
  7
STYLE1
 11
0.0000000000000001
 21
1.0
 31
0.0
 73
     1
 44
1.0
1001
ACAD
1000
MTEXTBEGIN
1070
    73
1070
     1
1070
    44
1040
1.0
1070
    74
1070
     0
1000
MTEXTEND
  0
POINT
  5
35987
330
33156
100
AcDbEntity
  8
DEFPOINTS
 62
     0
 48
50.0
100
AcDbPoint
 10
44826.15625206622
 20
-29175.46022470093
 30
0.0
  0
POINT
  5
35988
330
33156
100
AcDbEntity
  8
DEFPOINTS
 62
     0
 48
50.0
100
AcDbPoint
 10
45585.45325425104
 20
-29115.46022470092
 30
0.0
  0
POINT
  5
35989
330
33156
100
AcDbEntity
  8
DEFPOINTS
 62
     0
 48
50.0
100
AcDbPoint
 10
44468.66114738649
 20
-29115.46022470092
 30
0.0
  0
ENDBLK
  5
33162
330
33156
100
AcDbEntity
  8
0
 48
50.0
100
AcDbBlockEnd
  0
BLOCK
  5
3316F
330
33163
100
AcDbEntity
  8
0
 48
50.0
100
AcDbBlockBegin
  2
*D22
 70
     1
 10
0.0
 20
0.0
 30
0.0
  3
*D22
  1

  0
LINE
  5
3598A
330
33163
100
AcDbEntity
  8
寸法
 62
     0
 48
50.0
370
    -2
100
AcDbLine
 10
44811.15625206622
 20
-29175.46022470093
 30
0.0
 11
44623.83705077973
 21
-29175.46022470093
 31
0.0
  0
LINE
  5
3598B
330
33163
100
AcDbEntity
  8
寸法
 62
     0
 48
50.0
370
    -2
100
AcDbLine
 10
45536.45325425104
 20
-29145.46022470092
 30
0.0
 11
44623.83705077973
 21
-29145.46022470092
 31
0.0
  0
LINE
  5
3598C
330
33163
100
AcDbEntity
  8
寸法
 62
     0
 48
50.0
370
    -2
100
AcDbLine
 10
44668.83705077973
 20
-29145.46022470092
 30
0.0
 11
44668.83705077973
 21
-29070.46022470093
 31
0.0
  0
LINE
  5
3598D
330
33163
100
AcDbEntity
  8
寸法
 62
     0
 48
50.0
370
    -2
100
AcDbLine
 10
44668.83705077973
 20
-29175.46022470093
 30
0.0
 11
44668.83705077973
 21
-29484.53109084266
 31
0.0
  0
LINE
  5
3598E
330
33163
100
AcDbEntity
  8
寸法
 62
     0
 48
50.0
370
    -2
100
AcDbLine
 10
44668.83705077973
 20
-29145.46022470092
 30
0.0
 11
44668.83705077973
 21
-29175.46022470093
 31
0.0
  0
INSERT
  5
3598F
330
33163
100
AcDbEntity
  8
寸法
 62
     0
 48
50.0
370
    -2
100
AcDbBlockReference
  2
_DOTSMALL
 10
44668.83705077973
 20
-29145.46022470092
 30
0.0
 41
75.0
 42
75.0
 43
75.0
 50
270.0
  0
INSERT
  5
35990
330
33163
100
AcDbEntity
  8
寸法
 62
     0
 48
50.0
370
    -2
100
AcDbBlockReference
  2
_DOTSMALL
 10
44668.83705077973
 20
-29175.46022470093
 30
0.0
 41
75.0
 42
75.0
 43
75.0
 50
90.0
  0
MTEXT
  5
35991
330
33163
100
AcDbEntity
  8
寸法
 62
     7
 48
50.0
100
AcDbMText
 10
44593.83705077974
 20
-29404.99565777178
 30
0.0
 40
90.0
 41
0.0
 71
     5
 72
     1
  1
\A1;30
  7
STYLE1
 11
0.0000000000000001
 21
1.0
 31
0.0
 73
     1
 44
1.0
1001
ACAD
1000
MTEXTBEGIN
1070
    73
1070
     1
1070
    44
1040
1.0
1070
    74
1070
     0
1000
MTEXTEND
  0
POINT
  5
35992
330
33163
100
AcDbEntity
  8
DEFPOINTS
 62
     0
 48
50.0
100
AcDbPoint
 10
44826.15625206622
 20
-29175.46022470093
 30
0.0
  0
POINT
  5
35993
330
33163
100
AcDbEntity
  8
DEFPOINTS
 62
     0
 48
50.0
100
AcDbPoint
 10
45551.45325425104
 20
-29145.46022470092
 30
0.0
  0
POINT
  5
35994
330
33163
100
AcDbEntity
  8
DEFPOINTS
 62
     0
 48
50.0
100
AcDbPoint
 10
44668.83705077973
 20
-29145.46022470092
 30
0.0
  0
ENDBLK
  5
33170
330
33163
100
AcDbEntity
  8
0
 48
50.0
100
AcDbBlockEnd
  0
BLOCK
  5
3317B
330
33171
100
AcDbEntity
  8
0
 48
50.0
100
AcDbBlockBegin
  2
*D23
 70
     1
 10
0.0
 20
0.0
 30
0.0
  3
*D23
  1

  0
LINE
  5
35995
330
33171
100
AcDbEntity
  8
寸法
 62
     0
 48
50.0
370
    -2
100
AcDbLine
 10
45991.45325425102
 20
-29640.46022470093
 30
0.0
 11
45991.45325425102
 21
-30342.16241543371
 31
0.0
  0
LINE
  5
35996
330
33171
100
AcDbEntity
  8
寸法
 62
     0
 48
50.0
370
    -2
100
AcDbLine
 10
44891.45325425103
 20
-29640.46022470093
 30
0.0
 11
44891.45325425103
 21
-30342.16241543371
 31
0.0
  0
LINE
  5
35997
330
33171
100
AcDbEntity
  8
寸法
 62
     0
 48
50.0
370
    -2
100
AcDbLine
 10
45991.45325425102
 20
-30297.16241543371
 30
0.0
 11
44891.45325425103
 21
-30297.16241543371
 31
0.0
  0
INSERT
  5
35998
330
33171
100
AcDbEntity
  8
寸法
 62
     0
 48
50.0
370
    -2
100
AcDbBlockReference
  2
_DOTSMALL
 10
45991.45325425102
 20
-30297.16241543371
 30
0.0
 41
75.0
 42
75.0
 43
75.0
  0
INSERT
  5
35999
330
33171
100
AcDbEntity
  8
寸法
 62
     0
 48
50.0
370
    -2
100
AcDbBlockReference
  2
_DOTSMALL
 10
44891.45325425103
 20
-30297.16241543371
 30
0.0
 41
75.0
 42
75.0
 43
75.0
 50
180.0
  0
MTEXT
  5
3599A
330
33171
100
AcDbEntity
  8
寸法
 62
     7
 48
50.0
100
AcDbMText
 10
45441.45325425103
 20
-30222.16241543371
 30
0.0
 40
90.0
 41
0.0
 71
     5
 72
     1
  1
\A1;1100
  7
STYLE1
 73
     1
 44
1.0
1001
ACAD
1000
MTEXTBEGIN
1070
    73
1070
     1
1070
    44
1040
1.0
1070
    74
1070
     0
1000
MTEXTEND
  0
POINT
  5
3599B
330
33171
100
AcDbEntity
  8
DEFPOINTS
 62
     0
 48
50.0
100
AcDbPoint
 10
45991.45325425102
 20
-29625.46022470093
 30
0.0
  0
POINT
  5
3599C
330
33171
100
AcDbEntity
  8
DEFPOINTS
 62
     0
 48
50.0
100
AcDbPoint
 10
44891.45325425103
 20
-29625.46022470093
 30
0.0
  0
POINT
  5
3599D
330
33171
100
AcDbEntity
  8
DEFPOINTS
 62
     0
 48
50.0
100
AcDbPoint
 10
44891.45325425103
 20
-30297.16241543371
 30
0.0
  0
ENDBLK
  5
3317C
330
33171
100
AcDbEntity
  8
0
 48
50.0
100
AcDbBlockEnd
  0
BLOCK
  5
33189
330
3317D
100
AcDbEntity
  8
0
 48
50.0
100
AcDbBlockBegin
  2
*D24
 70
     1
 10
0.0
 20
0.0
 30
0.0
  3
*D24
  1

  0
LINE
  5
3599E
330
3317D
100
AcDbEntity
  8
寸法
 62
     0
 48
50.0
370
    -2
100
AcDbLine
 10
46086.45325425103
 20
-29625.46022470093
 30
0.0
 11
46328.89461885174
 21
-29625.46022470093
 31
0.0
  0
LINE
  5
3599F
330
3317D
100
AcDbEntity
  8
寸法
 62
     0
 48
50.0
370
    -2
100
AcDbLine
 10
46086.45325425103
 20
-29675.46022470092
 30
0.0
 11
46328.89461885174
 21
-29675.46022470092
 31
0.0
  0
LINE
  5
359A0
330
3317D
100
AcDbEntity
  8
寸法
 62
     0
 48
50.0
370
    -2
100
AcDbLine
 10
46283.89461885173
 20
-29625.46022470093
 30
0.0
 11
46283.89461885173
 21
-29550.46022470093
 31
0.0
  0
LINE
  5
359A1
330
3317D
100
AcDbEntity
  8
寸法
 62
     0
 48
50.0
370
    -2
100
AcDbLine
 10
46283.89461885173
 20
-29675.46022470092
 30
0.0
 11
46283.89461885173
 21
-29987.55471288991
 31
0.0
  0
LINE
  5
359A2
330
3317D
100
AcDbEntity
  8
寸法
 62
     0
 48
50.0
370
    -2
100
AcDbLine
 10
46283.89461885173
 20
-29625.46022470093
 30
0.0
 11
46283.89461885173
 21
-29675.46022470092
 31
0.0
  0
INSERT
  5
359A3
330
3317D
100
AcDbEntity
  8
寸法
 62
     0
 48
50.0
370
    -2
100
AcDbBlockReference
  2
_DOTSMALL
 10
46283.89461885173
 20
-29625.46022470093
 30
0.0
 41
75.0
 42
75.0
 43
75.0
 50
270.0
  0
INSERT
  5
359A4
330
3317D
100
AcDbEntity
  8
寸法
 62
     0
 48
50.0
370
    -2
100
AcDbBlockReference
  2
_DOTSMALL
 10
46283.89461885173
 20
-29675.46022470092
 30
0.0
 41
75.0
 42
75.0
 43
75.0
 50
90.0
  0
MTEXT
  5
359A5
330
3317D
100
AcDbEntity
  8
寸法
 62
     7
 48
50.0
100
AcDbMText
 10
46208.89461885174
 20
-29908.01927981904
 30
0.0
 40
90.0
 41
0.0
 71
     5
 72
     1
  1
\A1;50
  7
STYLE1
 11
0.0000000000000001
 21
1.0
 31
0.0
 73
     1
 44
1.0
1001
ACAD
1000
MTEXTBEGIN
1070
    73
1070
     1
1070
    44
1040
1.0
1070
    74
1070
     0
1000
MTEXTEND
  0
POINT
  5
359A6
330
3317D
100
AcDbEntity
  8
DEFPOINTS
 62
     0
 48
50.0
100
AcDbPoint
 10
46071.45325425103
 20
-29625.46022470093
 30
0.0
  0
POINT
  5
359A7
330
3317D
100
AcDbEntity
  8
DEFPOINTS
 62
     0
 48
50.0
100
AcDbPoint
 10
46071.45325425103
 20
-29675.46022470092
 30
0.0
  0
POINT
  5
359A8
330
3317D
100
AcDbEntity
  8
DEFPOINTS
 62
     0
 48
50.0
100
AcDbPoint
 10
46283.89461885173
 20
-29675.46022470092
 30
0.0
  0
ENDBLK
  5
3318A
330
3317D
100
AcDbEntity
  8
0
 48
50.0
100
AcDbBlockEnd
  0
BLOCK
  5
33195
330
3318B
100
AcDbEntity
  8
0
 48
50.0
100
AcDbBlockBegin
  2
*D25
 70
     1
 10
0.0
 20
0.0
 30
0.0
  3
*D25
  1

  0
LINE
  5
359A9
330
3318B
100
AcDbEntity
  8
寸法
 62
     0
 48
50.0
370
    -2
100
AcDbLine
 10
44891.45325425103
 20
-29640.46022470093
 30
0.0
 11
44891.45325425103
 21
-30112.07685434497
 31
0.0
  0
LINE
  5
359AA
330
3318B
100
AcDbEntity
  8
寸法
 62
     0
 48
50.0
370
    -2
100
AcDbLine
 10
45691.45325425104
 20
-29211.51805653079
 30
0.0
 11
45691.45325425104
 21
-30112.07685434497
 31
0.0
  0
LINE
  5
359AB
330
3318B
100
AcDbEntity
  8
寸法
 62
     0
 48
50.0
370
    -2
100
AcDbLine
 10
44891.45325425103
 20
-30067.07685434497
 30
0.0
 11
45691.45325425104
 21
-30067.07685434497
 31
0.0
  0
INSERT
  5
359AC
330
3318B
100
AcDbEntity
  8
寸法
 62
     0
 48
50.0
370
    -2
100
AcDbBlockReference
  2
_DOTSMALL
 10
44891.45325425103
 20
-30067.07685434497
 30
0.0
 41
75.0
 42
75.0
 43
75.0
 50
180.0
  0
INSERT
  5
359AD
330
3318B
100
AcDbEntity
  8
寸法
 62
     0
 48
50.0
370
    -2
100
AcDbBlockReference
  2
_DOTSMALL
 10
45691.45325425104
 20
-30067.07685434497
 30
0.0
 41
75.0
 42
75.0
 43
75.0
  0
MTEXT
  5
359AE
330
3318B
100
AcDbEntity
  8
寸法
 62
     7
 48
50.0
100
AcDbMText
 10
45291.45325425104
 20
-29992.07685434497
 30
0.0
 40
90.0
 41
0.0
 71
     5
 72
     1
  1
\A1;800
  7
STYLE1
 73
     1
 44
1.0
1001
ACAD
1000
MTEXTBEGIN
1070
    73
1070
     1
1070
    44
1040
1.0
1070
    74
1070
     0
1000
MTEXTEND
  0
POINT
  5
359AF
330
3318B
100
AcDbEntity
  8
DEFPOINTS
 62
     0
 48
50.0
100
AcDbPoint
 10
44891.45325425103
 20
-29625.46022470093
 30
0.0
  0
POINT
  5
359B0
330
3318B
100
AcDbEntity
  8
DEFPOINTS
 62
     0
 48
50.0
100
AcDbPoint
 10
45691.45325425104
 20
-29196.51805653079
 30
0.0
  0
POINT
  5
359B1
330
3318B
100
AcDbEntity
  8
DEFPOINTS
 62
     0
 48
50.0
100
AcDbPoint
 10
45691.45325425104
 20
-30067.07685434497
 30
0.0
  0
ENDBLK
  5
33196
330
3318B
100
AcDbEntity
  8
0
 48
50.0
100
AcDbBlockEnd
  0
BLOCK
  5
331A1
330
33197
100
AcDbEntity
  8
0
 48
50.0
100
AcDbBlockBegin
  2
*D26
 70
     1
 10
0.0
 20
0.0
 30
0.0
  3
*D26
  1

  0
LINE
  5
359B2
330
33197
100
AcDbEntity
  8
寸法
 62
     0
 48
50.0
370
    -2
100
AcDbLine
 10
45691.45325425104
 20
-29211.51805653079
 30
0.0
 11
45691.45325425104
 21
-30112.07685434497
 31
0.0
  0
LINE
  5
359B3
330
33197
100
AcDbEntity
  8
寸法
 62
     0
 48
50.0
370
    -2
100
AcDbLine
 10
45991.45325425102
 20
-29640.46022470093
 30
0.0
 11
45991.45325425102
 21
-30112.07685434497
 31
0.0
  0
LINE
  5
359B4
330
33197
100
AcDbEntity
  8
寸法
 62
     0
 48
50.0
370
    -2
100
AcDbLine
 10
45691.45325425104
 20
-30067.07685434497
 30
0.0
 11
45991.45325425102
 21
-30067.07685434497
 31
0.0
  0
INSERT
  5
359B5
330
33197
100
AcDbEntity
  8
寸法
 62
     0
 48
50.0
370
    -2
100
AcDbBlockReference
  2
_DOTSMALL
 10
45691.45325425104
 20
-30067.07685434497
 30
0.0
 41
75.0
 42
75.0
 43
75.0
 50
180.0
  0
INSERT
  5
359B6
330
33197
100
AcDbEntity
  8
寸法
 62
     0
 48
50.0
370
    -2
100
AcDbBlockReference
  2
_DOTSMALL
 10
45991.45325425102
 20
-30067.07685434497
 30
0.0
 41
75.0
 42
75.0
 43
75.0
  0
MTEXT
  5
359B7
330
33197
100
AcDbEntity
  8
寸法
 62
     7
 48
50.0
100
AcDbMText
 10
45841.45325425104
 20
-29992.07685434497
 30
0.0
 40
90.0
 41
0.0
 71
     5
 72
     1
  1
\A1;300
  7
STYLE1
 73
     1
 44
1.0
1001
ACAD
1000
MTEXTBEGIN
1070
    73
1070
     1
1070
    44
1040
1.0
1070
    74
1070
     0
1000
MTEXTEND
  0
POINT
  5
359B8
330
33197
100
AcDbEntity
  8
DEFPOINTS
 62
     0
 48
50.0
100
AcDbPoint
 10
45691.45325425104
 20
-29196.51805653079
 30
0.0
  0
POINT
  5
359B9
330
33197
100
AcDbEntity
  8
DEFPOINTS
 62
     0
 48
50.0
100
AcDbPoint
 10
45991.45325425102
 20
-29625.46022470093
 30
0.0
  0
POINT
  5
359BA
330
33197
100
AcDbEntity
  8
DEFPOINTS
 62
     0
 48
50.0
100
AcDbPoint
 10
45991.45325425102
 20
-30067.07685434497
 30
0.0
  0
ENDBLK
  5
331A2
330
33197
100
AcDbEntity
  8
0
 48
50.0
100
AcDbBlockEnd
  0
BLOCK
  5
331AE
330
331A3
100
AcDbEntity
  8
0
 48
50.0
100
AcDbBlockBegin
  2
*D27
 70
     1
 10
0.0
 20
0.0
 30
0.0
  3
*D27
  1

  0
LINE
  5
359BB
330
331A3
100
AcDbEntity
  8
寸法
 62
     0
 48
50.0
370
    -2
100
AcDbLine
 10
44374.33744315136
 20
-29075.46022470092
 30
0.0
 11
44193.75631604946
 21
-29075.46022470092
 31
0.0
  0
LINE
  5
359BC
330
331A3
100
AcDbEntity
  8
寸法
 62
     0
 48
50.0
370
    -2
100
AcDbLine
 10
44374.33744315136
 20
-29175.46022470093
 30
0.0
 11
44193.75631604946
 21
-29175.46022470093
 31
0.0
  0
LINE
  5
359BD
330
331A3
100
AcDbEntity
  8
寸法
 62
     0
 48
50.0
370
    -2
100
AcDbLine
 10
44238.75631604945
 20
-29075.46022470092
 30
0.0
 11
44238.75631604945
 21
-29175.46022470093
 31
0.0
  0
LINE
  5
359BE
330
331A3
100
AcDbEntity
  8
寸法
 62
     0
 48
50.0
370
    -2
100
AcDbLine
 10
44238.75631604945
 20
-29175.46022470093
 30
0.0
 11
44238.75631604945
 21
-29454.53109084266
 31
0.0
  0
INSERT
  5
359BF
330
331A3
100
AcDbEntity
  8
寸法
 62
     0
 48
50.0
370
    -2
100
AcDbBlockReference
  2
_DOTSMALL
 10
44238.75631604945
 20
-29075.46022470092
 30
0.0
 41
75.0
 42
75.0
 43
75.0
 50
90.0
  0
INSERT
  5
359C0
330
331A3
100
AcDbEntity
  8
寸法
 62
     0
 48
50.0
370
    -2
100
AcDbBlockReference
  2
_DOTSMALL
 10
44238.75631604945
 20
-29175.46022470093
 30
0.0
 41
75.0
 42
75.0
 43
75.0
 50
270.0
  0
MTEXT
  5
359C1
330
331A3
100
AcDbEntity
  8
寸法
 62
     7
 48
50.0
100
AcDbMText
 10
44163.75631604947
 20
-29352.49565777178
 30
0.0
 40
90.0
 41
0.0
 71
     5
 72
     1
  1
\A1;100
  7
STYLE1
 11
0.0000000000000001
 21
1.0
 31
0.0
 73
     1
 44
1.0
1001
ACAD
1000
MTEXTBEGIN
1070
    73
1070
     1
1070
    44
1040
1.0
1070
    74
1070
     0
1000
MTEXTEND
  0
POINT
  5
359C2
330
331A3
100
AcDbEntity
  8
DEFPOINTS
 62
     0
 48
50.0
100
AcDbPoint
 10
44389.33744315136
 20
-29075.46022470092
 30
0.0
  0
POINT
  5
359C3
330
331A3
100
AcDbEntity
  8
DEFPOINTS
 62
     0
 48
50.0
100
AcDbPoint
 10
44389.33744315136
 20
-29175.46022470093
 30
0.0
  0
POINT
  5
359C4
330
331A3
100
AcDbEntity
  8
DEFPOINTS
 62
     0
 48
50.0
100
AcDbPoint
 10
44238.75631604945
 20
-29175.46022470093
 30
0.0
  0
ENDBLK
  5
331AF
330
331A3
100
AcDbEntity
  8
0
 48
50.0
100
AcDbBlockEnd
  0
BLOCK
  5
331BB
330
331B0
100
AcDbEntity
  8
0
 48
50.0
100
AcDbBlockBegin
  2
*D28
 70
     1
 10
0.0
 20
0.0
 30
0.0
  3
*D28
  1

  0
LINE
  5
359C5
330
331B0
100
AcDbEntity
  8
寸法
 62
     0
 48
50.0
370
    -2
100
AcDbLine
 10
44374.33744315136
 20
-29075.46022470092
 30
0.0
 11
44193.75631604946
 21
-29075.46022470092
 31
0.0
  0
LINE
  5
359C6
330
331B0
100
AcDbEntity
  8
寸法
 62
     0
 48
50.0
370
    -2
100
AcDbLine
 10
44374.33744315136
 20
-28975.46022470093
 30
0.0
 11
44193.75631604946
 21
-28975.46022470093
 31
0.0
  0
LINE
  5
359C7
330
331B0
100
AcDbEntity
  8
寸法
 62
     0
 48
50.0
370
    -2
100
AcDbLine
 10
44238.75631604945
 20
-29075.46022470092
 30
0.0
 11
44238.75631604945
 21
-28975.46022470093
 31
0.0
  0
LINE
  5
359C8
330
331B0
100
AcDbEntity
  8
寸法
 62
     0
 48
50.0
370
    -2
100
AcDbLine
 10
44238.75631604945
 20
-28975.46022470093
 30
0.0
 11
44238.75631604945
 21
-28696.38935855919
 31
0.0
  0
INSERT
  5
359C9
330
331B0
100
AcDbEntity
  8
寸法
 62
     0
 48
50.0
370
    -2
100
AcDbBlockReference
  2
_DOTSMALL
 10
44238.75631604945
 20
-29075.46022470092
 30
0.0
 41
75.0
 42
75.0
 43
75.0
 50
270.0
  0
INSERT
  5
359CA
330
331B0
100
AcDbEntity
  8
寸法
 62
     0
 48
50.0
370
    -2
100
AcDbBlockReference
  2
_DOTSMALL
 10
44238.75631604945
 20
-28975.46022470093
 30
0.0
 41
75.0
 42
75.0
 43
75.0
 50
90.0
  0
MTEXT
  5
359CB
330
331B0
100
AcDbEntity
  8
寸法
 62
     7
 48
50.0
100
AcDbMText
 10
44163.75631604947
 20
-28798.42479163005
 30
0.0
 40
90.0
 41
0.0
 71
     5
 72
     1
  1
\A1;100
  7
STYLE1
 11
0.0000000000000001
 21
1.0
 31
0.0
 73
     1
 44
1.0
1001
ACAD
1000
MTEXTBEGIN
1070
    73
1070
     1
1070
    44
1040
1.0
1070
    74
1070
     0
1000
MTEXTEND
  0
POINT
  5
359CC
330
331B0
100
AcDbEntity
  8
DEFPOINTS
 62
     0
 48
50.0
100
AcDbPoint
 10
44389.33744315136
 20
-29075.46022470092
 30
0.0
  0
POINT
  5
359CD
330
331B0
100
AcDbEntity
  8
DEFPOINTS
 62
     0
 48
50.0
100
AcDbPoint
 10
44389.33744315136
 20
-28975.46022470093
 30
0.0
  0
POINT
  5
359CE
330
331B0
100
AcDbEntity
  8
DEFPOINTS
 62
     0
 48
50.0
100
AcDbPoint
 10
44238.75631604945
 20
-28975.46022470093
 30
0.0
  0
ENDBLK
  5
331BC
330
331B0
100
AcDbEntity
  8
0
 48
50.0
100
AcDbBlockEnd
  0
BLOCK
  5
331C5
330
331BD
100
AcDbEntity
  8
0
 48
50.0
100
AcDbBlockBegin
  2
*D29
 70
     1
 10
0.0
 20
0.0
 30
0.0
  3
*D29
  1

  0
LINE
  5
359CF
330
331BD
100
AcDbEntity
  8
寸法
 62
     0
 48
50.0
370
    -2
100
AcDbLine
 10
45691.45325425104
 20
-28535.98739184588
 30
0.0
 11
45691.45325425104
 21
-28217.68232540591
 31
0.0
  0
LINE
  5
359D0
330
331BD
100
AcDbEntity
  8
寸法
 62
     0
 48
50.0
370
    -2
100
AcDbLine
 10
45891.45325425104
 20
-28970.46022470092
 30
0.0
 11
45891.45325425104
 21
-28217.68232540591
 31
0.0
  0
LINE
  5
359D1
330
331BD
100
AcDbEntity
  8
寸法
 62
     0
 48
50.0
370
    -2
100
AcDbLine
 10
45691.45325425104
 20
-28262.68232540591
 30
0.0
 11
45891.45325425104
 21
-28262.68232540591
 31
0.0
  0
MTEXT
  5
359D2
330
331BD
100
AcDbEntity
  8
寸法
 62
     7
 48
50.0
100
AcDbMText
 10
45791.45325425104
 20
-28187.67346713819
 30
0.0
 40
90.0
 41
0.0
 71
     5
 72
     1
  1
\A1;200
  7
STYLE1
 73
     1
 44
1.0
1001
ACAD
1000
MTEXTBEGIN
1070
    73
1070
     1
1070
    44
1040
1.0
1070
    74
1070
     0
1000
MTEXTEND
  0
POINT
  5
359D3
330
331BD
100
AcDbEntity
  8
DEFPOINTS
 62
     0
 48
50.0
100
AcDbPoint
 10
45691.45325425104
 20
-28550.98739184589
 30
0.0
  0
POINT
  5
359D4
330
331BD
100
AcDbEntity
  8
DEFPOINTS
 62
     0
 48
50.0
100
AcDbPoint
 10
45891.45325425104
 20
-28985.46022470092
 30
0.0
  0
POINT
  5
359D5
330
331BD
100
AcDbEntity
  8
DEFPOINTS
 62
     0
 48
50.0
100
AcDbPoint
 10
45891.45325425104
 20
-28262.68232540591
 30
0.0
  0
ENDBLK
  5
331C6
330
331BD
100
AcDbEntity
  8
0
 48
50.0
100
AcDbBlockEnd
  0
BLOCK
  5
331D3
330
331C7
100
AcDbEntity
  8
0
 48
50.0
100
AcDbBlockBegin
  2
*D30
 70
     1
 10
0.0
 20
0.0
 30
0.0
  3
*D30
  1

  0
LINE
  5
359D6
330
331C7
100
AcDbEntity
  8
寸法
 62
     0
 48
50.0
370
    -2
100
AcDbLine
 10
46071.25113181456
 20
-29025.46022470092
 30
0.0
 11
46328.89461885174
 21
-29025.46022470092
 31
0.0
  0
LINE
  5
359D7
330
331C7
100
AcDbEntity
  8
寸法
 62
     0
 48
50.0
370
    -2
100
AcDbLine
 10
45896.45325425104
 20
-28975.46022470093
 30
0.0
 11
46328.89461885174
 21
-28975.46022470093
 31
0.0
  0
LINE
  5
359D8
330
331C7
100
AcDbEntity
  8
寸法
 62
     0
 48
50.0
370
    -2
100
AcDbLine
 10
46283.89461885173
 20
-29025.46022470092
 30
0.0
 11
46283.89461885173
 21
-29100.46022470092
 31
0.0
  0
LINE
  5
359D9
330
331C7
100
AcDbEntity
  8
寸法
 62
     0
 48
50.0
370
    -2
100
AcDbLine
 10
46283.89461885173
 20
-28975.46022470093
 30
0.0
 11
46283.89461885173
 21
-28666.38935855919
 31
0.0
  0
LINE
  5
359DA
330
331C7
100
AcDbEntity
  8
寸法
 62
     0
 48
50.0
370
    -2
100
AcDbLine
 10
46283.89461885173
 20
-29025.46022470092
 30
0.0
 11
46283.89461885173
 21
-28975.46022470093
 31
0.0
  0
INSERT
  5
359DB
330
331C7
100
AcDbEntity
  8
寸法
 62
     0
 48
50.0
370
    -2
100
AcDbBlockReference
  2
_DOTSMALL
 10
46283.89461885173
 20
-29025.46022470092
 30
0.0
 41
75.0
 42
75.0
 43
75.0
 50
90.0
  0
INSERT
  5
359DC
330
331C7
100
AcDbEntity
  8
寸法
 62
     0
 48
50.0
370
    -2
100
AcDbBlockReference
  2
_DOTSMALL
 10
46283.89461885173
 20
-28975.46022470093
 30
0.0
 41
75.0
 42
75.0
 43
75.0
 50
270.0
  0
MTEXT
  5
359DD
330
331C7
100
AcDbEntity
  8
寸法
 62
     7
 48
50.0
100
AcDbMText
 10
46208.89461885174
 20
-28745.92479163005
 30
0.0
 40
90.0
 41
0.0
 71
     5
 72
     1
  1
\A1;50
  7
STYLE1
 11
0.0000000000000001
 21
1.0
 31
0.0
 73
     1
 44
1.0
1001
ACAD
1000
MTEXTBEGIN
1070
    73
1070
     1
1070
    44
1040
1.0
1070
    74
1070
     0
1000
MTEXTEND
  0
POINT
  5
359DE
330
331C7
100
AcDbEntity
  8
DEFPOINTS
 62
     0
 48
50.0
100
AcDbPoint
 10
46056.25113181456
 20
-29025.46022470092
 30
0.0
  0
POINT
  5
359DF
330
331C7
100
AcDbEntity
  8
DEFPOINTS
 62
     0
 48
50.0
100
AcDbPoint
 10
45881.45325425104
 20
-28975.46022470093
 30
0.0
  0
POINT
  5
359E0
330
331C7
100
AcDbEntity
  8
DEFPOINTS
 62
     0
 48
50.0
100
AcDbPoint
 10
46283.89461885173
 20
-28975.46022470093
 30
0.0
  0
ENDBLK
  5
331D4
330
331C7
100
AcDbEntity
  8
0
 48
50.0
100
AcDbBlockEnd
  0
BLOCK
  5
331DF
330
331D5
100
AcDbEntity
  8
0
 48
50.0
100
AcDbBlockBegin
  2
*D31
 70
     1
 10
0.0
 20
0.0
 30
0.0
  3
*D31
  1

  0
LINE
  5
359E1
330
331D5
100
AcDbEntity
  8
寸法
 62
     0
 48
50.0
370
    -2
100
AcDbLine
 10
46071.25113181456
 20
-29025.46022470092
 30
0.0
 11
46328.89461885175
 21
-29025.46022470092
 31
0.0
  0
LINE
  5
359E2
330
331D5
100
AcDbEntity
  8
寸法
 62
     0
 48
50.0
370
    -2
100
AcDbLine
 10
46086.45325425103
 20
-29625.46022470093
 30
0.0
 11
46328.89461885175
 21
-29625.46022470093
 31
0.0
  0
LINE
  5
359E3
330
331D5
100
AcDbEntity
  8
寸法
 62
     0
 48
50.0
370
    -2
100
AcDbLine
 10
46283.89461885174
 20
-29025.46022470092
 30
0.0
 11
46283.89461885174
 21
-29625.46022470093
 31
0.0
  0
INSERT
  5
359E4
330
331D5
100
AcDbEntity
  8
寸法
 62
     0
 48
50.0
370
    -2
100
AcDbBlockReference
  2
_DOTSMALL
 10
46283.89461885174
 20
-29025.46022470092
 30
0.0
 41
75.0
 42
75.0
 43
75.0
 50
90.0
  0
INSERT
  5
359E5
330
331D5
100
AcDbEntity
  8
寸法
 62
     0
 48
50.0
370
    -2
100
AcDbBlockReference
  2
_DOTSMALL
 10
46283.89461885174
 20
-29625.46022470093
 30
0.0
 41
75.0
 42
75.0
 43
75.0
 50
270.0
  0
MTEXT
  5
359E6
330
331D5
100
AcDbEntity
  8
寸法
 62
     7
 48
50.0
100
AcDbMText
 10
46208.89461885175
 20
-29325.46022470092
 30
0.0
 40
90.0
 41
0.0
 71
     5
 72
     1
  1
\A1;600
  7
STYLE1
 11
0.0000000000000001
 21
1.0
 31
0.0
 73
     1
 44
1.0
1001
ACAD
1000
MTEXTBEGIN
1070
    73
1070
     1
1070
    44
1040
1.0
1070
    74
1070
     0
1000
MTEXTEND
  0
POINT
  5
359E7
330
331D5
100
AcDbEntity
  8
DEFPOINTS
 62
     0
 48
50.0
100
AcDbPoint
 10
46056.25113181456
 20
-29025.46022470092
 30
0.0
  0
POINT
  5
359E8
330
331D5
100
AcDbEntity
  8
DEFPOINTS
 62
     0
 48
50.0
100
AcDbPoint
 10
46071.45325425103
 20
-29625.46022470093
 30
0.0
  0
POINT
  5
359E9
330
331D5
100
AcDbEntity
  8
DEFPOINTS
 62
     0
 48
50.0
100
AcDbPoint
 10
46283.89461885174
 20
-29625.46022470093
 30
0.0
  0
ENDBLK
  5
331E0
330
331D5
100
AcDbEntity
  8
0
 48
50.0
100
AcDbBlockEnd
  0
BLOCK
  5
35B5B
330
35B53
100
AcDbEntity
  8
0
 48
50.0
100
AcDbBlockBegin
  2
*D32
 70
     1
 10
0.0
 20
0.0
 30
0.0
  3
*D32
  1

  0
LINE
  5
35B67
330
35B53
100
AcDbEntity
  8
寸法
 62
     0
 48
50.0
370
    -2
100
AcDbLine
 10
38400.28577387495
 20
-27972.25458892027
 30
0.0
 11
38029.41393716373
 21
-27972.25458892027
 31
0.0
  0
LINE
  5
35B68
330
35B53
100
AcDbEntity
  8
寸法
 62
     0
 48
50.0
370
    -2
100
AcDbLine
 10
38400.28577387496
 20
-27872.25458892029
 30
0.0
 11
38029.41393716373
 21
-27872.25458892029
 31
0.0
  0
LINE
  5
35B69
330
35B53
100
AcDbEntity
  8
寸法
 62
     0
 48
50.0
370
    -2
100
AcDbLine
 10
38074.41393716373
 20
-27972.25458892027
 30
0.0
 11
38074.41393716373
 21
-27872.25458892029
 31
0.0
  0
LINE
  5
35B6A
330
35B53
100
AcDbEntity
  8
寸法
 62
     0
 48
50.0
370
    -2
100
AcDbLine
 10
38074.41393716373
 20
-27872.25458892029
 30
0.0
 11
38074.41393716373
 21
-27593.18372277856
 31
0.0
  0
INSERT
  5
35B6B
330
35B53
100
AcDbEntity
  8
寸法
 62
     0
 48
50.0
370
    -2
100
AcDbBlockReference
  2
_DOTSMALL
 10
38074.41393716373
 20
-27972.25458892027
 30
0.0
 41
75.0
 42
75.0
 43
75.0
 50
270.0
  0
INSERT
  5
35B6C
330
35B53
100
AcDbEntity
  8
寸法
 62
     0
 48
50.0
370
    -2
100
AcDbBlockReference
  2
_DOTSMALL
 10
38074.41393716373
 20
-27872.25458892029
 30
0.0
 41
75.0
 42
75.0
 43
75.0
 50
90.0
  0
MTEXT
  5
35B6D
330
35B53
100
AcDbEntity
  8
寸法
 62
     7
 48
50.0
100
AcDbMText
 10
37999.41393716374
 20
-27695.21915584942
 30
0.0
 40
90.0
 41
0.0
 71
     5
 72
     1
  1
\A1;100
  7
STYLE1
 11
0.0000000000000001
 21
1.0
 31
0.0
 73
     1
 44
1.0
1001
ACAD
1000
MTEXTBEGIN
1070
    73
1070
     1
1070
    44
1040
1.0
1070
    74
1070
     0
1000
MTEXTEND
  0
POINT
  5
35B6E
330
35B53
100
AcDbEntity
  8
DEFPOINTS
 62
     0
 48
50.0
100
AcDbPoint
 10
38415.28577387495
 20
-27972.25458892027
 30
0.0
  0
POINT
  5
35B6F
330
35B53
100
AcDbEntity
  8
DEFPOINTS
 62
     0
 48
50.0
100
AcDbPoint
 10
38415.28577387496
 20
-27872.25458892029
 30
0.0
  0
POINT
  5
35B70
330
35B53
100
AcDbEntity
  8
DEFPOINTS
 62
     0
 48
50.0
100
AcDbPoint
 10
38074.41393716373
 20
-27872.25458892029
 30
0.0
  0
ENDBLK
  5
35B5C
330
35B53
100
AcDbEntity
  8
0
 48
50.0
100
AcDbBlockEnd
  0
ENDSEC
  0
SECTION
  2
ENTITIES
  0
TEXT
  5
2A58F
330
747D
100
AcDbEntity
  8
文字
 62
     7
 48
50.0
100
AcDbText
 10
47655.75660323968
 20
-32697.44804536875
 30
0.0
 40
75.0
  1
～一般型～
  7
STYLE2
100
AcDbText
  0
TEXT
  5
2A590
330
747D
100
AcDbEntity
  8
文字
 62
     7
 48
50.0
100
AcDbText
 10
47469.02272691401
 20
-32963.21505593008
 30
0.0
 40
120.0
  1
BP-28P
  7
STYLE3
100
AcDbText
  0
LINE
  5
2A591
330
747D
100
AcDbEntity
  8
仕様書枠
  6
Continuous
 48
50.0
100
AcDbLine
 10
47205.43921094281
 20
-32426.13759067343
 30
0.0
 11
47205.43921094281
 21
-32726.13759067343
 31
0.0
  0
LINE
  5
2A592
330
747D
100
AcDbEntity
  8
仕様書枠
 48
50.0
100
AcDbLine
 10
46347.43921094281
 20
-32726.13759067343
 30
0.0
 11
47205.43921094281
 21
-32726.13759067343
 31
0.0
  0
TEXT
  5
2A594
330
747D
100
AcDbEntity
  8
文字
 62
     7
 48
50.0
100
AcDbText
 10
46424.0932191057
 20
-33269.06683036606
 30
0.0
 40
60.0
  1
○寒冷地等は、地域の実情に合わせた基礎にしてください。
  7
STYLE2
100
AcDbText
  0
TEXT
  5
2A595
330
747D
100
AcDbEntity
  8
文字
 62
     7
 48
50.0
100
AcDbText
 10
46424.0932191057
 20
-33154.72994748076
 30
0.0
 40
60.0
  1
○間口寸法は柱芯寸法です。
  7
STYLE2
100
AcDbText
  0
TEXT
  5
2A596
330
747D
100
AcDbEntity
  8
文字
 62
     7
 48
50.0
100
AcDbText
 10
46418.11673593112
 20
-32968.18204109609
 30
0.0
 40
120.0
  1
機種名
  7
STYLE2
100
AcDbText
  0
TEXT
  5
2A597
330
747D
100
AcDbEntity
  8
文字
 62
     7
 48
50.0
100
AcDbText
 10
46389.27350337548
 20
-32654.81963510098
 30
0.0
 40
150.0
  1
基 礎 図
  7
STYLE2
100
AcDbText
  0
LINE
  5
2A598
330
747D
100
AcDbEntity
  8
文字
 62
     7
 48
50.0
100
AcDbLine
 10
46407.43921094281
 20
-33026.13759067343
 30
0.0
 11
48687.43921094281
 21
-33026.13759067343
 31
0.0
  0
LINE
  5
2A599
330
747D
100
AcDbEntity
  8
仕様書枠
 48
50.0
100
AcDbLine
 10
46347.43921094281
 20
-32426.13759067343
 30
0.0
 11
48747.43921094281
 21
-32426.13759067343
 31
0.0
  0
LINE
  5
2A59A
330
747D
100
AcDbEntity
  8
仕様書枠
 48
50.0
100
AcDbLine
 10
36622.03921094281
 20
-33326.13759067343
 30
0.0
 11
48747.43921094281
 21
-33326.13759067343
 31
0.0
  0
LINE
  5
2A59B
330
747D
100
AcDbEntity
  8
仕様書枠
 48
50.0
100
AcDbLine
 10
48747.43921094281
 20
-32426.13759067343
 30
0.0
 11
48747.43921094281
 21
-33326.13759067343
 31
0.0
  0
LINE
  5
2A59C
330
747D
100
AcDbEntity
  8
仕様書枠
  6
Continuous
 48
50.0
100
AcDbLine
 10
46347.43921094281
 20
-32426.13759067343
 30
0.0
 11
46347.43921094281
 21
-33326.13759067343
 31
0.0
  0
LINE
  5
2A59D
330
747D
100
AcDbEntity
  8
補助
  6
PHANTOM
 62
   230
 48
50.0
100
AcDbLine
 10
46347.43920365999
 20
-24768.93759601689
 30
0.0
 11
46347.43920365999
 21
-29726.13759601689
 31
0.0
  0
LINE
  5
2A59E
330
747D
100
AcDbEntity
  8
補助
  6
PHANTOM
 62
   230
 48
50.0
100
AcDbLine
 10
48747.43920365999
 20
-24768.93759601689
 30
0.0
 11
48747.43920365999
 21
-32426.13759601689
 31
0.0
  0
LINE
  5
2A59F
330
747D
100
AcDbEntity
  8
補助
  6
PHANTOM
 62
   230
 48
50.0
100
AcDbLine
 10
36622.03920366
 20
-24768.93759601689
 30
0.0
 11
48747.43920365999
 21
-24768.93759601689
 31
0.0
  0
LINE
  5
2A5A0
330
747D
100
AcDbEntity
  8
補助
  6
PHANTOM
 62
   230
 48
50.0
100
AcDbLine
 10
46347.43920365999
 20
-29726.13759601689
 30
0.0
 11
48747.43920365999
 21
-29726.13759601689
 31
0.0
  0
LINE
  5
2A5A1
330
747D
100
AcDbEntity
  8
補助
  6
PHANTOM
 62
   230
 48
50.0
100
AcDbLine
 10
36622.03920366
 20
-33326.13759601689
 30
0.0
 11
36622.03920366
 21
-24768.93759601689
 31
0.0
  0
LINE
  5
2A957
330
747D
100
AcDbEntity
  8
寸法
 48
50.0
100
AcDbLine
 10
39926.90781054444
 20
-29063.44559239768
 30
0.0
 11
39894.05952771162
 21
-28940.85413192422
 31
0.0
  0
LINE
  5
2A958
330
747D
100
AcDbEntity
  8
寸法
 48
50.0
100
AcDbLine
 10
39926.90781054444
 20
-29063.44559239768
 30
0.0
 11
39959.75609337725
 21
-28940.85413192422
 31
0.0
  0
LINE
  5
2A959
330
747D
100
AcDbEntity
  8
寸法
 48
50.0
100
AcDbLine
 10
39926.90781054444
 20
-28274.8945075165
 30
0.0
 11
39926.90781054444
 21
-29063.44559239768
 31
0.0
  0
MTEXT
  5
2A95A
330
747D
100
AcDbEntity
  8
寸法
 62
     7
 48
50.0
100
AcDbMText
 10
39832.46987447863
 20
-28925.96741082548
 30
0.0
 40
90.0
 41
0.0
 71
     4
 72
     1
  1
\A1;水勾配 1/100 
  7
STYLE1
 11
0.0000000000000001
 21
1.0
 31
0.0
 73
     1
 44
1.0
1001
ACAD
1000
MTEXTBEGIN
1070
    73
1070
     1
1070
    44
1040
1.0
1070
    74
1070
     0
1000
MTEXTEND
  0
LINE
  5
2A95B
330
747D
100
AcDbEntity
  8
寸法
 48
50.0
100
AcDbLine
 10
38815.28577387496
 20
-29051.1535514004
 30
0.0
 11
38815.28577387496
 21
-28422.25458892027
 31
0.0
  0
MTEXT
  5
2A964
330
747D
100
AcDbEntity
  8
寸法
 62
     7
 48
50.0
100
AcDbMText
 10
38641.27765865715
 20
-29917.97454305278
 30
0.0
 40
90.0
 41
0.0
 71
     4
 72
     1
  1
\A1;床コンクリート打コテ押エ
  7
STYLE1
 73
     1
 44
1.0
1001
ACAD
1000
MTEXTBEGIN
1070
    73
1070
     1
1070
    44
1040
1.0
1070
    74
1070
     0
1000
MTEXTEND
  0
LINE
  5
2A965
330
747D
100
AcDbEntity
  8
部品1
 48
50.0
100
AcDbLine
 10
42015.28577387495
 20
-27872.25458892027
 30
0.0
 11
42015.28577387495
 21
-30172.25458892027
 31
0.0
  0
LINE
  5
2A966
330
747D
100
AcDbEntity
  8
部品1
 48
50.0
100
AcDbLine
 10
38415.28577387495
 20
-27872.25458892027
 30
0.0
 11
38415.28577387496
 21
-30172.25458892027
 31
0.0
  0
LINE
  5
2A967
330
747D
100
AcDbEntity
  8
部品1
 48
30.0
100
AcDbLine
 10
38415.28577387496
 20
-30172.25458892027
 30
0.0
 11
42015.28577387495
 21
-30172.25458892027
 31
0.0
  0
LINE
  5
2A96A
330
747D
100
AcDbEntity
  8
文字
 48
50.0
100
AcDbLine
 10
38415.28577387496
 20
-27972.25458892027
 30
0.0
 11
42015.28577387495
 21
-27972.25458892027
 31
0.0
  0
CIRCLE
  5
2A96B
330
747D
100
AcDbEntity
  8
部品1
 48
50.0
100
AcDbCircle
 10
38915.28577387496
 20
-28072.25458892027
 30
0.0
 40
15.0
  0
LINE
  5
2A96C
330
747D
100
AcDbEntity
  8
センター
 48
3.0
100
AcDbLine
 10
38915.28577387496
 20
-27997.25458892027
 30
0.0
 11
38915.28577387496
 21
-28147.25458892027
 31
0.0
  0
LINE
  5
2A96D
330
747D
100
AcDbEntity
  8
センター
 48
3.0
100
AcDbLine
 10
38840.28577387496
 20
-28072.25458892027
 30
0.0
 11
38990.28577387496
 21
-28072.25458892027
 31
0.0
  0
LINE
  5
2A96E
330
747D
100
AcDbEntity
  8
センター
 48
3.0
100
AcDbLine
 10
38915.28577387496
 20
-28197.25458892026
 30
0.0
 11
38915.28577387496
 21
-28347.25458892027
 31
0.0
  0
CIRCLE
  5
2A96F
330
747D
100
AcDbEntity
  8
部品1
 48
50.0
100
AcDbCircle
 10
38915.28577387496
 20
-28272.25458892027
 30
0.0
 40
15.0
  0
LINE
  5
2A970
330
747D
100
AcDbEntity
  8
センター
 48
3.0
100
AcDbLine
 10
38840.28577387496
 20
-28272.25458892027
 30
0.0
 11
38990.28577387496
 21
-28272.25458892027
 31
0.0
  0
LINE
  5
2A971
330
747D
100
AcDbEntity
  8
センター
 48
10.0
100
AcDbLine
 10
38815.28577387496
 20
-28422.25458892027
 30
0.0
 11
38815.28577387496
 21
-27922.25458892027
 31
0.0
  0
CIRCLE
  5
2A972
330
747D
100
AcDbEntity
  8
部品1
 48
50.0
100
AcDbCircle
 10
38715.28577387496
 20
-28072.25458892027
 30
0.0
 40
15.0
  0
LINE
  5
2A973
330
747D
100
AcDbEntity
  8
センター
 48
3.0
100
AcDbLine
 10
38715.28577387496
 20
-27997.25458892027
 30
0.0
 11
38715.28577387496
 21
-28147.25458892027
 31
0.0
  0
LINE
  5
2A974
330
747D
100
AcDbEntity
  8
センター
 48
3.0
100
AcDbLine
 10
38715.28577387496
 20
-28197.25458892026
 30
0.0
 11
38715.28577387496
 21
-28347.25458892027
 31
0.0
  0
CIRCLE
  5
2A975
330
747D
100
AcDbEntity
  8
部品1
 48
50.0
100
AcDbCircle
 10
38715.28577387496
 20
-28272.25458892027
 30
0.0
 40
15.0
  0
LINE
  5
2A976
330
747D
100
AcDbEntity
  8
センター
 48
10.0
100
AcDbLine
 10
38565.28577387496
 20
-28172.25458892027
 30
0.0
 11
39065.28577387496
 21
-28172.25458892027
 31
0.0
  0
LINE
  5
2A977
330
747D
100
AcDbEntity
  8
センター
 48
3.0
100
AcDbLine
 10
38640.28577387496
 20
-28072.25458892027
 30
0.0
 11
38790.28577387496
 21
-28072.25458892027
 31
0.0
  0
LINE
  5
2A978
330
747D
100
AcDbEntity
  8
センター
 48
3.0
100
AcDbLine
 10
38640.28577387496
 20
-28272.25458892027
 30
0.0
 11
38790.28577387496
 21
-28272.25458892027
 31
0.0
  0
DIMENSION
  5
2A979
330
747D
100
AcDbEntity
  8
寸法
 48
50.0
100
AcDbDimension
  2
*D17
 10
41515.28577387495
 20
-28741.77587223307
 30
0.0
 11
41615.28577387495
 21
-28666.76701396535
 31
0.0
 70
    32
 71
     5
 42
200.0
  3
INABA_S30G
100
AcDbAlignedDimension
 13
41715.28577387496
 23
-28347.25458892027
 33
0.0
 14
41515.28577387495
 24
-28347.25458892027
 34
0.0
100
AcDbRotatedDimension
  0
DIMENSION
  5
2A97A
330
747D
100
AcDbEntity
  8
寸法
 48
50.0
100
AcDbDimension
  2
*D16
 10
42176.87320101253
 20
-28072.25458892027
 30
0.0
 11
42101.86434274482
 21
-28172.25458892026
 31
0.0
 70
    32
 71
     5
 42
200.0
  3
INABA_S30G
100
AcDbAlignedDimension
 13
41790.28577387495
 23
-28272.25458892027
 33
0.0
 14
41790.28577387495
 24
-28072.25458892027
 34
0.0
 50
90.0
100
AcDbRotatedDimension
  0
LINE
  5
2A97B
330
747D
100
AcDbEntity
  8
センター
 48
3.0
100
AcDbLine
 10
41440.28577387496
 20
-28272.25458892027
 30
0.0
 11
41590.28577387496
 21
-28272.25458892027
 31
0.0
  0
LINE
  5
2A97C
330
747D
100
AcDbEntity
  8
センター
 48
3.0
100
AcDbLine
 10
41440.28577387496
 20
-28072.25458892027
 30
0.0
 11
41590.28577387496
 21
-28072.25458892027
 31
0.0
  0
LINE
  5
2A97D
330
747D
100
AcDbEntity
  8
センター
 48
10.0
100
AcDbLine
 10
41365.28577387496
 20
-28172.25458892027
 30
0.0
 11
41865.28577387496
 21
-28172.25458892027
 31
0.0
  0
CIRCLE
  5
2A97E
330
747D
100
AcDbEntity
  8
部品1
 48
50.0
100
AcDbCircle
 10
41515.28577387495
 20
-28272.25458892027
 30
0.0
 40
15.0
  0
LINE
  5
2A97F
330
747D
100
AcDbEntity
  8
センター
 48
3.0
100
AcDbLine
 10
41515.28577387495
 20
-28197.25458892026
 30
0.0
 11
41515.28577387495
 21
-28347.25458892027
 31
0.0
  0
LINE
  5
2A980
330
747D
100
AcDbEntity
  8
センター
 48
3.0
100
AcDbLine
 10
41515.28577387495
 20
-27997.25458892027
 30
0.0
 11
41515.28577387495
 21
-28147.25458892027
 31
0.0
  0
CIRCLE
  5
2A981
330
747D
100
AcDbEntity
  8
部品1
 48
50.0
100
AcDbCircle
 10
41515.28577387495
 20
-28072.25458892027
 30
0.0
 40
15.0
  0
LINE
  5
2A982
330
747D
100
AcDbEntity
  8
センター
 48
10.0
100
AcDbLine
 10
41615.28577387495
 20
-28422.25458892027
 30
0.0
 11
41615.28577387495
 21
-27922.25458892027
 31
0.0
  0
LINE
  5
2A983
330
747D
100
AcDbEntity
  8
センター
 48
3.0
100
AcDbLine
 10
41640.28577387496
 20
-28272.25458892027
 30
0.0
 11
41790.28577387495
 21
-28272.25458892027
 31
0.0
  0
CIRCLE
  5
2A984
330
747D
100
AcDbEntity
  8
部品1
 48
50.0
100
AcDbCircle
 10
41715.28577387496
 20
-28272.25458892027
 30
0.0
 40
15.0
  0
LINE
  5
2A985
330
747D
100
AcDbEntity
  8
センター
 48
3.0
100
AcDbLine
 10
41715.28577387496
 20
-28197.25458892026
 30
0.0
 11
41715.28577387496
 21
-28347.25458892027
 31
0.0
  0
LINE
  5
2A986
330
747D
100
AcDbEntity
  8
センター
 48
3.0
100
AcDbLine
 10
41640.28577387496
 20
-28072.25458892027
 30
0.0
 11
41790.28577387495
 21
-28072.25458892027
 31
0.0
  0
LINE
  5
2A987
330
747D
100
AcDbEntity
  8
センター
 48
3.0
100
AcDbLine
 10
41715.28577387496
 20
-27997.25458892027
 30
0.0
 11
41715.28577387496
 21
-28147.25458892027
 31
0.0
  0
CIRCLE
  5
2A988
330
747D
100
AcDbEntity
  8
部品1
 48
50.0
100
AcDbCircle
 10
41715.28577387496
 20
-28072.25458892027
 30
0.0
 40
15.0
  0
DIMENSION
  5
2A9A0
330
747D
100
AcDbEntity
  8
寸法
 48
50.0
100
AcDbDimension
  2
*D15
 10
42015.28577387495
 20
-30500.7423072568
 30
0.0
 11
41930.28577387494
 21
-30425.7423072568
 31
0.0
 70
    32
 71
     5
 42
170.0000000000436
  3
INABA_S30G
100
AcDbAlignedDimension
 13
41845.28577387491
 23
-30035.25458892027
 33
0.0
 14
42015.28577387495
 24
-30172.25458892027
 34
0.0
100
AcDbRotatedDimension
  0
DIMENSION
  5
2A9A1
330
747D
100
AcDbEntity
  8
寸法
 48
50.0
100
AcDbDimension
  2
*D14
 10
38415.28577387496
 20
-30500.7423072568
 30
0.0
 11
38500.28577387498
 21
-30425.7423072568
 31
0.0
 70
    32
 71
     5
 42
170.0000000000436
  3
INABA_S30G
100
AcDbAlignedDimension
 13
38585.28577387501
 23
-30035.25458892028
 33
0.0
 14
38415.28577387496
 24
-30172.25458892027
 34
0.0
100
AcDbRotatedDimension
  0
DIMENSION
  5
2A9A2
330
747D
100
AcDbEntity
  8
寸法
 48
50.0
100
AcDbDimension
  2
*D13
 10
41845.28577387491
 20
-30500.7423072568
 30
0.0
 11
40215.28577387496
 21
-30425.73344898908
 31
0.0
 70
    32
  1
屋根寸法 <>
 71
     5
 42
3259.999999999913
  3
INABA_S30G
100
AcDbAlignedDimension
 13
38585.28577387501
 23
-30035.25458892028
 33
0.0
 14
41845.28577387491
 24
-30035.25458892027
 34
0.0
100
AcDbRotatedDimension
  0
DIMENSION
  5
2A9A3
330
747D
100
AcDbEntity
  8
寸法
 48
50.0
100
AcDbDimension
  2
*D12
 10
37851.66457514727
 20
-30172.25458892027
 30
0.0
 11
37776.65571687956
 21
-29072.25458892026
 31
0.0
 70
    32
  1
基礎土間寸法 <>
 71
     5
 42
2200.0
  3
INABA_S30G
100
AcDbAlignedDimension
 13
38415.28577387496
 23
-27972.25458892027
 33
0.0
 14
38415.28577387496
 24
-30172.25458892027
 34
0.0
 50
90.0
100
AcDbRotatedDimension
  0
DIMENSION
  5
2A9A4
330
747D
100
AcDbEntity
  8
寸法
 48
50.0
100
AcDbDimension
  2
*D11
 10
38074.41393716373
 20
-30172.25458892027
 30
0.0
 11
37999.40507889602
 21
-29172.25458892026
 31
0.0
 70
    32
 71
     5
 42
2000.0
  3
INABA_S30G
100
AcDbAlignedDimension
 13
38565.28577387496
 23
-28172.25458892027
 33
0.0
 14
38415.28577387496
 24
-30172.25458892027
 34
0.0
 50
90.0
100
AcDbRotatedDimension
  0
DIMENSION
  5
2A9A5
330
747D
100
AcDbEntity
  8
寸法
 48
50.0
100
AcDbDimension
  2
*D10
 10
38074.41393716373
 20
-28172.25458892027
 30
0.0
 11
37999.40507889602
 21
-28072.25458892026
 31
0.0
 70
    32
 71
     5
 42
200.0
  3
INABA_S30G
100
AcDbAlignedDimension
 13
38415.28577387496
 23
-27972.25458892027
 33
0.0
 14
38565.28577387496
 24
-28172.25458892027
 34
0.0
 50
90.0
100
AcDbRotatedDimension
  0
DIMENSION
  5
2A9A6
330
747D
100
AcDbEntity
  8
寸法
 48
50.0
100
AcDbDimension
  2
*D9
 10
41037.97127059078
 20
-28172.25458892027
 30
0.0
 11
40962.97127059078
 21
-28022.25458892026
 31
0.0
 70
    32
 71
     5
 42
300.0
  3
INABA_S30G
100
AcDbAlignedDimension
 13
41215.28577387495
 23
-27872.25458892027
 33
0.0
 14
41215.28577387495
 24
-28172.25458892027
 34
0.0
 50
90.0
100
AcDbRotatedDimension
  0
DIMENSION
  5
2A9A7
330
747D
100
AcDbEntity
  8
寸法
 48
50.0
100
AcDbDimension
  2
*D8
 10
41037.97127059077
 20
-28972.25458892027
 30
0.0
 11
40962.97127059078
 21
-28572.25458892026
 31
0.0
 70
    32
 71
     5
 42
800.0
  3
INABA_S30G
100
AcDbAlignedDimension
 13
41215.28577387495
 23
-28172.25458892027
 33
0.0
 14
41215.28577387495
 24
-28972.25458892027
 34
0.0
 50
90.0
100
AcDbRotatedDimension
  0
DIMENSION
  5
2A9A8
330
747D
100
AcDbEntity
  8
寸法
 48
50.0
100
AcDbDimension
  2
*D7
 10
40860.6567673066
 20
-28972.25458892026
 30
0.0
 11
40785.65676730661
 21
-28422.25458892026
 31
0.0
 70
    32
 71
     5
 42
1100.0
  3
INABA_S30G
100
AcDbAlignedDimension
 13
41215.28577387495
 23
-27872.25458892027
 33
0.0
 14
41215.28577387495
 24
-28972.25458892027
 34
0.0
 50
90.0
100
AcDbRotatedDimension
  0
DIMENSION
  5
2A9A9
330
747D
100
AcDbEntity
  8
寸法
 48
50.0
100
AcDbDimension
  2
*D6
 10
41215.28577387495
 20
-29210.39080495736
 30
0.0
 11
41415.28577387496
 21
-29135.39080495736
 31
0.0
 70
    32
 71
     5
 42
400.0
  3
INABA_S30G
100
AcDbAlignedDimension
 13
41615.28577387495
 23
-28422.25458892027
 33
0.0
 14
41215.28577387495
 24
-28972.25458892027
 34
0.0
100
AcDbRotatedDimension
  0
DIMENSION
  5
2A9AA
330
747D
100
AcDbEntity
  8
寸法
 48
50.0
100
AcDbDimension
  2
*D5
 10
42015.28577387495
 20
-29448.52702099444
 30
0.0
 11
41615.28577387495
 21
-29448.52702099444
 31
0.0
 70
   160
 71
     5
 42
800.0
  3
INABA_S30G
100
AcDbAlignedDimension
 13
41215.28577387495
 23
-28972.25458892027
 33
0.0
 14
42015.28577387495
 24
-28972.25458892027
 34
0.0
100
AcDbRotatedDimension
  0
LINE
  5
2A9AB
330
747D
100
AcDbEntity
  8
センター
 48
10.0
100
AcDbLine
 10
38565.28577387496
 20
-28172.25458892027
 30
0.0
 11
41865.28577387496
 21
-28172.25458892027
 31
0.0
  0
DIMENSION
  5
2A9AC
330
747D
100
AcDbEntity
  8
寸法
 48
50.0
100
AcDbDimension
  2
*D4
 10
38815.28577387496
 20
-27562.80229478917
 30
0.0
 11
38615.28577387496
 21
-27487.80229478917
 31
0.0
 70
    32
 71
     5
 42
400.0
  3
INABA_S30G
100
AcDbAlignedDimension
 13
38415.28577387496
 23
-27872.25458892029
 33
0.0
 14
38815.28577387496
 24
-27922.25458892027
 34
0.0
100
AcDbRotatedDimension
  0
DIMENSION
  5
2A9AD
330
747D
100
AcDbEntity
  8
寸法
 48
50.0
100
AcDbDimension
  2
*D3
 10
42015.28577387495
 20
-27368.76525581485
 30
0.0
 11
40215.28577387496
 21
-27293.76525581485
 31
0.0
 70
    32
  1
基礎土間寸法 <>
 71
     5
 42
3600.0
  3
INABA_S30G
100
AcDbAlignedDimension
 13
38415.28577387496
 23
-27872.25458892028
 33
0.0
 14
42015.28577387495
 24
-27872.25458892028
 34
0.0
100
AcDbRotatedDimension
  0
DIMENSION
  5
2A9AE
330
747D
100
AcDbEntity
  8
寸法
 48
50.0
100
AcDbDimension
  2
*D2
 10
42015.28577387495
 20
-27562.80229478917
 30
0.0
 11
41815.28577387496
 21
-27487.80229478917
 31
0.0
 70
    32
 71
     5
 42
400.0
  3
INABA_S30G
100
AcDbAlignedDimension
 13
41615.28577387495
 23
-27922.25458892027
 33
0.0
 14
42015.28577387495
 24
-27872.25458892028
 34
0.0
100
AcDbRotatedDimension
  0
DIMENSION
  5
2A9AF
330
747D
100
AcDbEntity
  8
寸法
 48
50.0
100
AcDbDimension
  2
*D1
 10
41615.28577387495
 20
-27562.80229478917
 30
0.0
 11
40215.28577387496
 21
-27487.79343652145
 31
0.0
 70
    32
 71
     5
 42
2800.0
  3
INABA_S30G
100
AcDbAlignedDimension
 13
38815.28577387496
 23
-27922.25458892027
 33
0.0
 14
41615.28577387495
 24
-27922.25458892027
 34
0.0
100
AcDbRotatedDimension
  0
LINE
  5
2A9B0
330
747D
100
AcDbEntity
  8
想像線
 48
10.0
100
AcDbLine
 10
38585.28577387501
 20
-30035.25458892027
 30
0.0
 11
38585.28577387501
 21
-28015.25458892027
 31
0.0
  0
LINE
  5
2A9B1
330
747D
100
AcDbEntity
  8
想像線
 48
10.0
100
AcDbLine
 10
41845.28577387491
 20
-28015.25458892027
 30
0.0
 11
38585.28577387501
 21
-28015.25458892027
 31
0.0
  0
LINE
  5
2A9B2
330
747D
100
AcDbEntity
  8
想像線
 48
10.0
100
AcDbLine
 10
41845.28577387491
 20
-30035.25458892027
 30
0.0
 11
41845.28577387491
 21
-28015.25458892027
 31
0.0
  0
LINE
  5
2A9B3
330
747D
100
AcDbEntity
  8
想像線
 48
10.0
100
AcDbLine
 10
38585.28577387501
 20
-30035.25458892028
 30
0.0
 11
41845.28577387491
 21
-30035.25458892027
 31
0.0
  0
LINE
  5
2A9B4
330
747D
100
AcDbEntity
  8
部品1
 48
50.0
100
AcDbLine
 10
39215.28577387496
 20
-27872.25458892028
 30
0.0
 11
38415.28577387496
 21
-27872.25458892028
 31
0.0
  0
LINE
  5
2A9B5
330
747D
100
AcDbEntity
  8
部品1
 48
50.0
100
AcDbLine
 10
39215.28577387496
 20
-27872.25458892028
 30
0.0
 11
39215.28577387496
 21
-28972.25458892027
 31
0.0
  0
LINE
  5
2A9B6
330
747D
100
AcDbEntity
  8
部品1
 48
50.0
100
AcDbLine
 10
38415.28577387496
 20
-28972.25458892027
 30
0.0
 11
39215.28577387496
 21
-28972.25458892027
 31
0.0
  0
LINE
  5
2A9B7
330
747D
100
AcDbEntity
  8
部品1
 48
50.0
100
AcDbLine
 10
41215.28577387495
 20
-27872.25458892028
 30
0.0
 11
41215.28577387495
 21
-28972.25458892027
 31
0.0
  0
LINE
  5
2A9B8
330
747D
100
AcDbEntity
  8
部品1
 48
50.0
100
AcDbLine
 10
41215.28577387495
 20
-28972.25458892027
 30
0.0
 11
42015.28577387495
 21
-28972.25458892027
 31
0.0
  0
LINE
  5
2A9B9
330
747D
100
AcDbEntity
  8
部品1
 48
50.0
100
AcDbLine
 10
42015.28577387495
 20
-27872.25458892028
 30
0.0
 11
41215.28577387495
 21
-27872.25458892028
 31
0.0
  0
DIMENSION
  5
2B198
330
747D
100
AcDbEntity
  8
寸法
 48
50.0
100
AcDbDimension
  2
*D19
 10
42397.55999623858
 20
-27872.25458892028
 30
0.0
 11
42397.55999623858
 21
-27688.89062788959
 31
0.0
 70
   160
 71
     5
 42
142.9999999999927
  3
INABA_S30G
100
AcDbAlignedDimension
 13
41845.28577387491
 23
-28015.25458892027
 33
0.0
 14
42015.28577387495
 24
-27872.25458892028
 34
0.0
 50
90.0
100
AcDbRotatedDimension
  0
DIMENSION
  5
2B199
330
747D
100
AcDbEntity
  8
寸法
 48
50.0
100
AcDbDimension
  2
*D18
 10
42397.55999623858
 20
-30035.25458892028
 30
0.0
 11
42322.55113797086
 21
-29025.25458892027
 31
0.0
 70
    32
  1
屋根寸法 <>
 71
     5
 42
2020.0
  3
INABA_S30G
100
AcDbAlignedDimension
 13
41845.28577387491
 23
-28015.25458892027
 33
0.0
 14
41845.28577387491
 24
-30035.25458892028
 34
0.0
 50
90.0
100
AcDbRotatedDimension
  0
DIMENSION
  5
2B19A
330
747D
100
AcDbEntity
  8
寸法
 48
50.0
100
AcDbDimension
  2
*D20
 10
42397.55999623857
 20
-30172.25458892027
 30
0.0
 11
42397.55999623858
 21
-30349.25458892027
 31
0.0
 70
   160
 71
     5
 42
137.0
  3
INABA_S30G
100
AcDbAlignedDimension
 13
41845.28577387491
 23
-30035.25458892028
 33
0.0
 14
42015.28577387495
 24
-30172.25458892027
 34
0.0
 50
90.0
100
AcDbRotatedDimension
  0
TEXT
  5
2B387
330
747D
100
AcDbEntity
  8
文字
 62
     7
 48
50.0
100
AcDbText
 10
47410.1380888593
 20
-32552.46931095501
 30
0.0
 40
75.0
  1
             <縮尺> S=1/30
  7
STYLE2
100
AcDbText
  0
LINE
  5
3301C
330
747D
100
AcDbEntity
  8
部品1
 48
50.0
100
AcDbLine
 10
46071.45325425102
 20
-29675.46022470092
 30
0.0
 11
44811.45325425104
 21
-29675.46022470092
 31
0.0
  0
LINE
  5
33020
330
747D
100
AcDbEntity
  8
文字
 48
50.0
100
AcDbLine
 10
45880.75843639439
 20
-30688.64809687271
 30
0.0
 11
45880.75843639439
 21
-30911.77309687271
 31
0.0
  0
LINE
  5
33021
330
747D
100
AcDbEntity
  8
文字
 48
50.0
100
AcDbLine
 10
45045.57918404601
 20
-30688.64809687271
 30
0.0
 11
45045.57918404601
 21
-30911.77309687271
 31
0.0
  0
TEXT
  5
33022
330
747D
100
AcDbEntity
  8
文字
 62
     7
 48
50.0
100
AcDbText
 10
45112.16399145872
 20
-30854.28955589934
 30
0.0
 40
112.5
  1
A-A' 断面
  7
STYLE2
100
AcDbText
  0
LINE
  5
33023
330
747D
100
AcDbEntity
  8
文字
 48
50.0
100
AcDbLine
 10
45045.57918404601
 20
-30911.77309687271
 30
0.0
 11
45880.75843639439
 21
-30911.77309687271
 31
0.0
  0
LINE
  5
33024
330
747D
100
AcDbEntity
  8
文字
 48
50.0
100
AcDbLine
 10
45045.57918404601
 20
-30688.64809687271
 30
0.0
 11
45880.75843639439
 21
-30688.64809687271
 31
0.0
  0
LINE
  5
33026
330
747D
100
AcDbEntity
  8
部品1
 48
50.0
100
AcDbLine
 10
45991.45325425102
 20
-29625.46022470093
 30
0.0
 11
45991.45325425102
 21
-29075.46022470092
 31
0.0
  0
LINE
  5
33027
330
747D
100
AcDbEntity
  8
センター
 48
10.0
100
AcDbLine
 10
45691.45325425104
 20
-28550.98739184589
 30
0.0
 11
45691.45325425104
 21
-29196.51805653079
 31
0.0
  0
LINE
  5
33028
330
747D
100
AcDbEntity
  8
部品1
 48
50.0
100
AcDbLine
 10
44891.45325425104
 20
-29075.46022470092
 30
0.0
 11
44891.45325425104
 21
-29625.46022470093
 31
0.0
  0
MTEXT
  5
33029
330
747D
100
AcDbEntity
  8
寸法
 62
     7
 48
50.0
100
AcDbMText
 10
46412.37384606559
 20
-28973.1874974282
 30
0.0
 40
100.0
 41
1.0
 71
     4
 72
     1
  1
▽G.L
  7
STYLE2
 73
     1
 44
1.0
1001
ACAD
1000
MTEXTBEGIN
1070
    73
1070
     1
1070
    44
1040
1.0
1070
    74
1070
     0
1000
MTEXTEND
  0
LINE
  5
3302A
330
747D
100
AcDbEntity
  8
Ｇ．Ｌ
 48
50.0
100
AcDbLine
 10
45891.45325425104
 20
-29025.46022470092
 30
0.0
 11
46945.56720475583
 21
-29025.46022470092
 31
0.0
  0
LINE
  5
3302B
330
747D
100
AcDbEntity
  8
部品1
 48
50.0
100
AcDbLine
 10
45736.00325425104
 20
-28629.52712875601
 30
0.0
 11
45736.00325425104
 21
-29133.46022470092
 31
0.0
  0
LINE
  5
3302C
330
747D
100
AcDbEntity
  8
部品1
 48
50.0
100
AcDbLine
 10
45646.90325425104
 20
-28629.52712875601
 30
0.0
 11
45646.90325425105
 21
-29133.46022470092
 31
0.0
  0
LINE
  5
3302D
330
747D
100
AcDbEntity
  8
部品1
 48
50.0
100
AcDbLine
 10
46071.45325425102
 20
-29625.46022470093
 30
0.0
 11
44811.45325425104
 21
-29625.46022470093
 31
0.0
  0
DIMENSION
  5
3302E
330
747D
100
AcDbEntity
  8
寸法
 48
50.0
100
AcDbDimension
  2
*D31
 10
46283.89461885174
 20
-29625.46022470093
 30
0.0
 11
46208.89461885175
 21
-29325.46022470092
 31
0.0
 70
    32
 71
     5
 42
600.0
  3
INABA_S30G
100
AcDbAlignedDimension
 13
46056.25113181456
 23
-29025.46022470092
 33
0.0
 14
46071.45325425103
 24
-29625.46022470093
 34
0.0
 50
90.0
100
AcDbRotatedDimension
  0
DIMENSION
  5
3302F
330
747D
100
AcDbEntity
  8
寸法
 48
50.0
100
AcDbDimension
  2
*D30
 10
46283.89461885173
 20
-28975.46022470093
 30
0.0
 11
46283.89461885174
 21
-28745.92479163005
 31
0.0
 70
   160
 71
     5
 42
50.0
  3
INABA_S30G
100
AcDbAlignedDimension
 13
46056.25113181456
 23
-29025.46022470092
 33
0.0
 14
45881.45325425104
 24
-28975.46022470093
 34
0.0
 50
90.0
100
AcDbRotatedDimension
  0
DIMENSION
  5
33030
330
747D
100
AcDbEntity
  8
寸法
 48
50.0
100
AcDbDimension
  2
*D29
 10
45891.45325425104
 20
-28262.68232540591
 30
0.0
 11
45791.45325425104
 21
-28187.67346713819
 31
0.0
 70
    32
 71
     5
 42
200.0
  3
INABA_S30G
100
AcDbAlignedDimension
 13
45691.45325425104
 23
-28550.98739184589
 33
0.0
 14
45891.45325425104
 24
-28985.46022470092
 34
0.0
100
AcDbRotatedDimension
  0
LINE
  5
33031
330
747D
100
AcDbEntity
  8
部品1
 48
50.0
100
AcDbLine
 10
45891.45325425104
 20
-29075.46022470092
 30
0.0
 11
45891.45325425104
 21
-28985.46022470092
 31
0.0
  0
LINE
  5
33032
330
747D
100
AcDbEntity
  8
部品1
 48
50.0
100
AcDbLine
 10
45881.45325425104
 20
-28975.46022470093
 30
0.0
 11
45764.00325425105
 21
-28975.46022470093
 31
0.0
  0
LINE
  5
33033
330
747D
100
AcDbEntity
  8
部品1
 48
50.0
100
AcDbLine
 10
45881.45325425104
 20
-28975.46022470093
 30
0.0
 11
45891.45325425104
 21
-28985.46022470092
 31
0.0
  0
LINE
  5
33034
330
747D
100
AcDbEntity
  8
部品1
 48
50.0
100
AcDbLine
 10
45991.45325425102
 20
-29075.46022470092
 30
0.0
 11
45891.45325425104
 21
-29075.46022470092
 31
0.0
  0
LINE
  5
33035
330
747D
100
AcDbEntity
  8
部品1
 48
50.0
100
AcDbLine
 10
44891.45325425104
 20
-29175.46022470093
 30
0.0
 11
44389.33744315137
 21
-29175.46022470093
 31
0.0
  0
LINE
  5
33036
330
747D
100
AcDbEntity
  8
部品1
 48
50.0
100
AcDbLine
 10
46071.45325425102
 20
-29775.46022470093
 30
0.0
 11
44811.45325425104
 21
-29775.46022470093
 31
0.0
  0
LINE
  5
3303F
330
747D
100
AcDbEntity
  8
寸法
 48
50.0
100
AcDbLine
 10
44899.77397812684
 20
-28900.85280849877
 30
0.0
 11
45529.02647371467
 21
-28900.85280849877
 31
0.0
  0
LINE
  5
33040
330
747D
100
AcDbEntity
  8
寸法
 48
50.0
100
AcDbLine
 10
44899.77397812684
 20
-28900.85280849877
 30
0.0
 11
44968.42519599198
 21
-28882.45777011239
 31
0.0
  0
LINE
  5
33041
330
747D
100
AcDbEntity
  8
寸法
 48
50.0
100
AcDbLine
 10
44899.77397812684
 20
-28900.85280849877
 30
0.0
 11
44968.42519599198
 21
-28919.24784688514
 31
0.0
  0
TEXT
  5
33042
330
747D
100
AcDbEntity
  8
寸法
 62
     7
 48
50.0
100
AcDbText
 10
44964.74392615516
 20
-28863.80428497889
 30
0.0
 40
90.0
  1
１／１００
 41
0.8
  7
STYLE1
100
AcDbText
  0
TEXT
  5
33043
330
747D
100
AcDbEntity
  8
寸法
 62
     7
 48
50.0
100
AcDbText
 10
44998.00741912649
 20
-28715.46577285678
 30
0.0
 40
90.0
  1
水勾配
 41
0.8
  7
STYLE1
100
AcDbText
  0
LINE
  5
3307D
330
747D
100
AcDbEntity
  8
部品1
 48
50.0
100
AcDbLine
 10
45632.90325425104
 20
-28961.46022470093
 30
0.0
 11
45618.90325425103
 21
-28975.46022470093
 31
0.0
  0
LINE
  5
3307E
330
747D
100
AcDbEntity
  8
部品1
 48
50.0
100
AcDbLine
 10
45632.90325425104
 20
-28961.46022470093
 30
0.0
 11
45646.90325425104
 21
-28961.46022470093
 31
0.0
  0
LINE
  5
3307F
330
747D
100
AcDbEntity
  8
部品1
 48
50.0
100
AcDbLine
 10
45736.00325425104
 20
-28961.46022470093
 30
0.0
 11
45750.00325425104
 21
-28961.46022470093
 31
0.0
  0
LINE
  5
33080
330
747D
100
AcDbEntity
  8
部品1
 48
50.0
100
AcDbLine
 10
45750.00325425104
 20
-28961.46022470093
 30
0.0
 11
45764.00325425105
 21
-28975.46022470093
 31
0.0
  0
LINE
  5
33081
330
747D
100
AcDbEntity
  8
部品1
 48
50.0
100
AcDbLine
 10
45618.90325425105
 20
-28975.46022470093
 30
0.0
 11
44389.33744315137
 21
-28975.46022470093
 31
0.0
  0
LINE
  5
3308B
330
747D
100
AcDbEntity
  8
部品1
 48
50.0
100
AcDbLine
 10
46071.45325425102
 20
-29625.46022470093
 30
0.0
 11
46071.45325425102
 21
-29775.46022470093
 31
0.0
  0
LINE
  5
3308C
330
747D
100
AcDbEntity
  8
部品1
 48
50.0
100
AcDbLine
 10
44811.45325425104
 20
-29625.46022470093
 30
0.0
 11
44811.45325425104
 21
-29775.46022470093
 31
0.0
  0
DIMENSION
  5
330E6
330
747D
100
AcDbEntity
  8
寸法
 48
50.0
100
AcDbDimension
  2
*D28
 10
44238.75631604945
 20
-28975.46022470093
 30
0.0
 11
44238.75631604946
 21
-28798.42479163005
 31
0.0
 70
   160
 71
     5
 42
100.0
  3
INABA_S30G
100
AcDbAlignedDimension
 13
44389.33744315136
 23
-29075.46022470092
 33
0.0
 14
44389.33744315136
 24
-28975.46022470093
 34
0.0
 50
90.0
100
AcDbRotatedDimension
  0
DIMENSION
  5
330E7
330
747D
100
AcDbEntity
  8
寸法
 48
50.0
100
AcDbDimension
  2
*D27
 10
44238.75631604945
 20
-29175.46022470093
 30
0.0
 11
44238.75631604946
 21
-29352.49565777178
 31
0.0
 70
   160
 71
     5
 42
100.0
  3
INABA_S30G
100
AcDbAlignedDimension
 13
44389.33744315136
 23
-29075.46022470092
 33
0.0
 14
44389.33744315136
 24
-29175.46022470093
 34
0.0
 50
90.0
100
AcDbRotatedDimension
  0
DIMENSION
  5
330E8
330
747D
100
AcDbEntity
  8
寸法
 48
50.0
100
AcDbDimension
  2
*D26
 10
45991.45325425102
 20
-30067.07685434497
 30
0.0
 11
45841.45325425104
 21
-29992.07685434497
 31
0.0
 70
    32
 71
     5
 42
299.9999999999854
  3
INABA_S30G
100
AcDbAlignedDimension
 13
45691.45325425104
 23
-29196.51805653079
 33
0.0
 14
45991.45325425102
 24
-29625.46022470093
 34
0.0
100
AcDbRotatedDimension
  0
DIMENSION
  5
330E9
330
747D
100
AcDbEntity
  8
寸法
 48
50.0
100
AcDbDimension
  2
*D25
 10
45691.45325425104
 20
-30067.07685434497
 30
0.0
 11
45291.45325425104
 21
-29992.07685434497
 31
0.0
 70
    32
 71
     5
 42
800.0000000000072
  3
INABA_S30G
100
AcDbAlignedDimension
 13
44891.45325425103
 23
-29625.46022470093
 33
0.0
 14
45691.45325425104
 24
-29196.51805653079
 34
0.0
100
AcDbRotatedDimension
  0
DIMENSION
  5
330EA
330
747D
100
AcDbEntity
  8
寸法
 48
50.0
100
AcDbDimension
  2
*D24
 10
46283.89461885173
 20
-29675.46022470092
 30
0.0
 11
46283.89461885174
 21
-29908.01927981904
 31
0.0
 70
   160
 71
     5
 42
50.0
  3
INABA_S30G
100
AcDbAlignedDimension
 13
46071.45325425103
 23
-29625.46022470093
 33
0.0
 14
46071.45325425103
 24
-29675.46022470092
 34
0.0
 50
90.0
100
AcDbRotatedDimension
  0
DIMENSION
  5
330EB
330
747D
100
AcDbEntity
  8
寸法
 48
50.0
100
AcDbDimension
  2
*D23
 10
44891.45325425103
 20
-30297.16241543371
 30
0.0
 11
45441.45325425103
 21
-30222.16241543371
 31
0.0
 70
    32
 71
     5
 42
1099.999999999992
  3
INABA_S30G
100
AcDbAlignedDimension
 13
45991.45325425102
 23
-29625.46022470093
 33
0.0
 14
44891.45325425103
 24
-29625.46022470093
 34
0.0
100
AcDbRotatedDimension
  0
LINE
  5
330EC
330
747D
100
AcDbEntity
  8
部品1
 48
50.0
100
AcDbLine
 10
45736.11648614656
 20
-29133.46022470093
 30
0.0
 11
45646.90325425104
 21
-29133.46022470093
 31
0.0
  0
LINE
  5
330ED
330
747D
100
AcDbEntity
  8
CSLAYER17
  6
Continuous
 62
     7
100
AcDbLine
 10
45551.45325425104
 20
-29145.46022470092
 30
0.0
 11
45831.45325425104
 21
-29145.46022470092
 31
0.0
  0
LINE
  5
330EE
330
747D
100
AcDbEntity
  8
CSLAYER17
  6
Continuous
 62
     7
100
AcDbLine
 10
45551.45325425104
 20
-29133.46022470093
 30
0.0
 11
45831.45325425104
 21
-29133.46022470093
 31
0.0
  0
LINE
  5
330EF
330
747D
100
AcDbEntity
  8
CSLAYER17
  6
Continuous
 62
     7
100
AcDbLine
 10
45551.45325425104
 20
-29145.46022470092
 30
0.0
 11
45551.45325425104
 21
-29133.46022470093
 31
0.0
  0
LINE
  5
330F0
330
747D
100
AcDbEntity
  8
CSLAYER17
  6
Continuous
 62
     7
100
AcDbLine
 10
45831.45325425104
 20
-29133.46022470093
 30
0.0
 11
45831.45325425104
 21
-29145.46022470092
 31
0.0
  0
LINE
  5
330F1
330
747D
100
AcDbEntity
  8
CSLAYER17
  6
Continuous
 62
     7
100
AcDbLine
 10
45689.20325425104
 20
-29083.46022470093
 30
0.0
 11
45689.20325425104
 21
-29133.46022470093
 31
0.0
  0
LINE
  5
330F2
330
747D
100
AcDbEntity
  8
CSLAYER17
  6
Continuous
 62
     7
100
AcDbLine
 10
45693.70325425104
 20
-29083.46022470093
 30
0.0
 11
45693.70325425104
 21
-29133.46022470093
 31
0.0
  0
LINE
  5
330F3
330
747D
100
AcDbEntity
  8
CSLAYER17
  6
Continuous
 62
     7
100
AcDbLine
 10
45689.20325425104
 20
-29083.46022470093
 30
0.0
 11
45693.70325425104
 21
-29083.46022470093
 31
0.0
  0
LINE
  5
330F4
330
747D
100
AcDbEntity
  8
CSLAYER17
  6
Continuous
 62
     7
100
AcDbLine
 10
45567.90325425104
 20
-29083.46022470093
 30
0.0
 11
45646.40325425104
 21
-29083.46022470093
 31
0.0
  0
LINE
  5
330F5
330
747D
100
AcDbEntity
  8
CSLAYER17
  6
Continuous
 62
     7
100
AcDbLine
 10
45825.00325425105
 20
-29093.46022470093
 30
0.0
 11
45825.00325425105
 21
-29133.46022470093
 31
0.0
  0
LINE
  5
330F6
330
747D
100
AcDbEntity
  8
CSLAYER17
  6
Continuous
 62
     7
100
AcDbLine
 10
45557.90325425103
 20
-29093.46022470093
 30
0.0
 11
45557.90325425103
 21
-29133.46022470093
 31
0.0
  0
LINE
  5
330F7
330
747D
100
AcDbEntity
  8
CSLAYER17
  6
Continuous
 62
     7
100
AcDbLine
 10
45736.50325425104
 20
-29083.46022470093
 30
0.0
 11
45815.00325425104
 21
-29083.46022470093
 31
0.0
  0
LINE
  5
330F8
330
747D
100
AcDbEntity
  8
CSLAYER17
  6
Continuous
 62
     7
100
AcDbLine
 10
45736.50325425104
 20
-29123.46022470093
 30
0.0
 11
45746.50325425104
 21
-29133.46022470093
 31
0.0
  0
LINE
  5
330F9
330
747D
100
AcDbEntity
  8
部品1
100
AcDbLine
 10
45736.50325425104
 20
-29083.46022470093
 30
0.0
 11
45736.50325425104
 21
-29123.46022470093
 31
0.0
  0
LINE
  5
330FA
330
747D
100
AcDbEntity
  8
部品1
100
AcDbLine
 10
45646.40325425104
 20
-29083.46022470093
 30
0.0
 11
45646.40325425104
 21
-29123.46022470093
 31
0.0
  0
LINE
  5
330FB
330
747D
100
AcDbEntity
  8
CSLAYER17
  6
Continuous
 62
     7
100
AcDbLine
 10
45646.40325425104
 20
-29123.46022470093
 30
0.0
 11
45636.40325425104
 21
-29133.46022470093
 31
0.0
  0
LINE
  5
330FC
330
747D
100
AcDbEntity
  8
CSLAYER17
  6
Continuous
 62
     7
100
AcDbLine
 10
45567.90325425104
 20
-29083.46022470093
 30
0.0
 11
45557.90325425103
 21
-29093.46022470093
 31
0.0
  0
LINE
  5
330FD
330
747D
100
AcDbEntity
  8
CSLAYER17
  6
Continuous
 62
     7
100
AcDbLine
 10
45815.00325425104
 20
-29083.46022470093
 30
0.0
 11
45825.00325425105
 21
-29093.46022470093
 31
0.0
  0
LINE
  5
330FE
102
{ACAD_REACTORS
330
33317
102
}
330
747D
100
AcDbEntity
  8
部品1
100
AcDbLine
 10
45585.45325425104
 20
-29115.46022470092
 30
0.0
 11
45597.45325425104
 21
-29115.46022470092
 31
0.0
  0
LINE
  5
330FF
102
{ACAD_REACTORS
330
33317
102
}
330
747D
100
AcDbEntity
  8
部品1
100
AcDbLine
 10
45585.45325425104
 20
-29115.46022470092
 30
0.0
 11
45585.45325425104
 21
-29123.46022470093
 31
0.0
  0
LINE
  5
33100
102
{ACAD_REACTORS
330
33317
102
}
330
747D
100
AcDbEntity
  8
部品1
100
AcDbLine
 10
45597.45325425104
 20
-29115.46022470092
 30
0.0
 11
45597.45325425104
 21
-29123.46022470093
 31
0.0
  0
LINE
  5
33101
102
{ACAD_REACTORS
330
33317
102
}
330
747D
100
AcDbEntity
  8
部品1
100
AcDbLine
 10
45560.45325425104
 20
-29424.46022470093
 30
0.0
 11
45541.45325425104
 21
-29424.46022470093
 31
0.0
  0
LINE
  5
33102
102
{ACAD_REACTORS
330
33317
102
}
330
747D
100
AcDbEntity
  8
部品1
100
AcDbLine
 10
45560.45325425104
 20
-29436.46022470093
 30
0.0
 11
45541.45325425104
 21
-29436.46022470093
 31
0.0
  0
LINE
  5
33103
102
{ACAD_REACTORS
330
33317
102
}
330
747D
100
AcDbEntity
  8
部品1
100
AcDbLine
 10
45541.45325425104
 20
-29424.46022470093
 30
0.0
 11
45541.45325425104
 21
-29436.46022470093
 31
0.0
  0
ARC
  5
33104
102
{ACAD_REACTORS
330
33317
102
}
330
747D
100
AcDbEntity
  8
部品1
100
AcDbCircle
 10
45560.45325425104
 20
-29399.46022470092
 30
0.0
 40
25.0
100
AcDbArc
 50
270.0
 51
0.0
  0
ARC
  5
33105
102
{ACAD_REACTORS
330
33317
102
}
330
747D
100
AcDbEntity
  8
部品1
100
AcDbCircle
 10
45560.45325425104
 20
-29399.46022470092
 30
0.0
 40
37.0
100
AcDbArc
 50
270.0
 51
0.0
  0
LINE
  5
33106
102
{ACAD_REACTORS
330
33317
102
}
330
747D
100
AcDbEntity
  8
部品1
100
AcDbLine
 10
45580.48359913644
 20
-29123.46022470093
 30
0.0
 11
45602.42290936565
 21
-29123.46022470093
 31
0.0
  0
LINE
  5
33107
102
{ACAD_REACTORS
330
33317
102
}
330
747D
100
AcDbEntity
  8
部品1
100
AcDbLine
 10
45602.42290936565
 20
-29133.46022470093
 30
0.0
 11
45602.42290936565
 21
-29123.46022470093
 31
0.0
  0
LINE
  5
33108
102
{ACAD_REACTORS
330
33317
102
}
330
747D
100
AcDbEntity
  8
部品1
100
AcDbLine
 10
45596.93808180834
 20
-29133.46022470093
 30
0.0
 11
45596.93808180834
 21
-29123.46022470093
 31
0.0
  0
LINE
  5
33109
102
{ACAD_REACTORS
330
33317
102
}
330
747D
100
AcDbEntity
  8
部品1
100
AcDbLine
 10
45585.96842669373
 20
-29133.46022470093
 30
0.0
 11
45585.96842669373
 21
-29123.46022470093
 31
0.0
  0
LINE
  5
3310A
102
{ACAD_REACTORS
330
33317
102
}
330
747D
100
AcDbEntity
  8
部品1
100
AcDbLine
 10
45580.48359913644
 20
-29133.46022470093
 30
0.0
 11
45580.48359913644
 21
-29123.46022470093
 31
0.0
  0
LINE
  5
3310B
102
{ACAD_REACTORS
330
33317
102
}
330
747D
100
AcDbEntity
  8
部品1
100
AcDbLine
 10
45580.48359913644
 20
-29133.46022470093
 30
0.0
 11
45602.42290936565
 21
-29133.46022470093
 31
0.0
  0
LINE
  5
3310C
102
{ACAD_REACTORS
330
33317
102
}
330
747D
100
AcDbEntity
  8
部品1
100
AcDbLine
 10
45585.45325425104
 20
-29145.46022470092
 30
0.0
 11
45585.45325425104
 21
-29399.46022470092
 31
0.0
  0
LINE
  5
3310D
102
{ACAD_REACTORS
330
33317
102
}
330
747D
100
AcDbEntity
  8
部品1
100
AcDbLine
 10
45597.45325425104
 20
-29145.46022470092
 30
0.0
 11
45597.45325425104
 21
-29399.46022470092
 31
0.0
  0
LINE
  5
3310E
102
{ACAD_REACTORS
330
33316
102
}
330
747D
100
AcDbEntity
  8
部品1
100
AcDbLine
 10
45797.45325425104
 20
-29145.46022470092
 30
0.0
 11
45797.45325425104
 21
-29399.46022470092
 31
0.0
  0
LINE
  5
3310F
102
{ACAD_REACTORS
330
33316
102
}
330
747D
100
AcDbEntity
  8
部品1
100
AcDbLine
 10
45802.42290936564
 20
-29133.46022470093
 30
0.0
 11
45780.48359913643
 21
-29133.46022470093
 31
0.0
  0
LINE
  5
33110
102
{ACAD_REACTORS
330
33316
102
}
330
747D
100
AcDbEntity
  8
部品1
100
AcDbLine
 10
45802.42290936564
 20
-29133.46022470093
 30
0.0
 11
45802.42290936564
 21
-29123.46022470093
 31
0.0
  0
LINE
  5
33111
102
{ACAD_REACTORS
330
33316
102
}
330
747D
100
AcDbEntity
  8
部品1
100
AcDbLine
 10
45796.93808180834
 20
-29133.46022470093
 30
0.0
 11
45796.93808180834
 21
-29123.46022470093
 31
0.0
  0
LINE
  5
33112
102
{ACAD_REACTORS
330
33316
102
}
330
747D
100
AcDbEntity
  8
部品1
100
AcDbLine
 10
45785.96842669374
 20
-29133.46022470093
 30
0.0
 11
45785.96842669374
 21
-29123.46022470093
 31
0.0
  0
LINE
  5
33113
102
{ACAD_REACTORS
330
33316
102
}
330
747D
100
AcDbEntity
  8
部品1
100
AcDbLine
 10
45780.48359913643
 20
-29133.46022470093
 30
0.0
 11
45780.48359913643
 21
-29123.46022470093
 31
0.0
  0
LINE
  5
33114
102
{ACAD_REACTORS
330
33316
102
}
330
747D
100
AcDbEntity
  8
部品1
100
AcDbLine
 10
45802.42290936564
 20
-29123.46022470093
 30
0.0
 11
45780.48359913643
 21
-29123.46022470093
 31
0.0
  0
LINE
  5
33115
102
{ACAD_REACTORS
330
33316
102
}
330
747D
100
AcDbEntity
  8
部品1
100
AcDbLine
 10
45785.45325425104
 20
-29115.46022470092
 30
0.0
 11
45785.45325425104
 21
-29123.46022470093
 31
0.0
  0
LINE
  5
33116
102
{ACAD_REACTORS
330
33316
102
}
330
747D
100
AcDbEntity
  8
部品1
100
AcDbLine
 10
45797.45325425104
 20
-29115.46022470092
 30
0.0
 11
45797.45325425104
 21
-29123.46022470093
 31
0.0
  0
LINE
  5
33117
102
{ACAD_REACTORS
330
33316
102
}
330
747D
100
AcDbEntity
  8
部品1
100
AcDbLine
 10
45797.45325425104
 20
-29115.46022470092
 30
0.0
 11
45785.45325425104
 21
-29115.46022470092
 31
0.0
  0
LINE
  5
33118
102
{ACAD_REACTORS
330
33316
102
}
330
747D
100
AcDbEntity
  8
部品1
100
AcDbLine
 10
45785.45325425104
 20
-29145.46022470092
 30
0.0
 11
45785.45325425104
 21
-29399.46022470092
 31
0.0
  0
ARC
  5
33119
102
{ACAD_REACTORS
330
33316
102
}
330
747D
100
AcDbEntity
  8
部品1
100
AcDbCircle
 10
45822.45325425104
 20
-29399.46022470092
 30
0.0
 40
37.0
100
AcDbArc
 50
180.0
 51
270.0
  0
ARC
  5
3311A
102
{ACAD_REACTORS
330
33316
102
}
330
747D
100
AcDbEntity
  8
部品1
100
AcDbCircle
 10
45822.45325425104
 20
-29399.46022470092
 30
0.0
 40
25.0
100
AcDbArc
 50
180.0
 51
270.0
  0
LINE
  5
3311B
102
{ACAD_REACTORS
330
33316
102
}
330
747D
100
AcDbEntity
  8
部品1
100
AcDbLine
 10
45841.45325425104
 20
-29424.46022470093
 30
0.0
 11
45841.45325425104
 21
-29436.46022470093
 31
0.0
  0
LINE
  5
3311C
102
{ACAD_REACTORS
330
33316
102
}
330
747D
100
AcDbEntity
  8
部品1
100
AcDbLine
 10
45822.45325425104
 20
-29436.46022470093
 30
0.0
 11
45841.45325425104
 21
-29436.46022470093
 31
0.0
  0
LINE
  5
3311D
102
{ACAD_REACTORS
330
33316
102
}
330
747D
100
AcDbEntity
  8
部品1
100
AcDbLine
 10
45822.45325425104
 20
-29424.46022470093
 30
0.0
 11
45841.45325425104
 21
-29424.46022470093
 31
0.0
  0
LINE
  5
3312A
330
747D
100
AcDbEntity
  8
寸法
 48
50.0
100
AcDbLine
 10
46465.63672030906
 20
-29660.23612869758
 30
0.0
 11
47458.5640468297
 21
-29660.23612869758
 31
0.0
  0
TEXT
  5
3312B
330
747D
100
AcDbEntity
  8
寸法
 62
     7
 48
50.0
100
AcDbText
 10
46503.38208639122
 20
-29647.96822516544
 30
0.0
 40
90.0
  1
アンカーボルト
  7
STYLE1
100
AcDbText
  0
LWPOLYLINE
  5
3312C
330
747D
100
AcDbEntity
  8
寸法
 48
5.0
100
AcDbPolyline
 90
        3
 70
     0
 43
0.0
 10
44991.45325425104
 20
-29544.26022470093
 10
44652.53384067149
 20
-29939.91116913655
 10
43735.02428552654
 20
-29939.91116913655
1001
ACAD
1000
DSTYLE
1002
{
1070
   341
1005
0
1002
}
  0
TEXT
  5
3312D
330
747D
100
AcDbEntity
  8
寸法
 62
     7
 48
50.0
100
AcDbText
 10
46503.38208639122
 20
-29767.51450368188
 30
0.0
 40
90.0
  1
M12X350（市販品）
  7
STYLE1
100
AcDbText
  0
TEXT
  5
3312E
330
747D
100
AcDbEntity
  8
寸法
 62
     7
 48
50.0
100
AcDbText
 10
46503.38208639122
 20
-30053.36130546816
 30
0.0
 40
90.0
  1
主筋4-D13
  7
STYLE1
100
AcDbText
  0
LINE
  5
3312F
330
747D
100
AcDbEntity
  8
寸法
 48
50.0
100
AcDbLine
 10
46465.63672030906
 20
-30074.64369075894
 30
0.0
 11
47052.81695614091
 21
-30074.64369075894
 31
0.0
  0
LINE
  5
33130
330
747D
100
AcDbEntity
  8
寸法
 48
50.0
100
AcDbLine
 10
46465.63672030906
 20
-29660.23612869758
 30
0.0
 11
45797.45325425104
 21
-29274.46022470093
 31
0.0
  0
LINE
  5
33131
330
747D
100
AcDbEntity
  8
寸法
 48
50.0
100
AcDbLine
 10
45537.18194134133
 20
-29435.46022470092
 30
0.0
 11
44652.53384067149
 21
-30320.10832537076
 31
0.0
  0
LINE
  5
33132
330
747D
100
AcDbEntity
  8
寸法
 48
50.0
100
AcDbLine
 10
44652.53384067149
 20
-30320.10832537076
 30
0.0
 11
43953.68802672729
 21
-30320.10832537076
 31
0.0
  0
TEXT
  5
33133
330
747D
100
AcDbEntity
  8
寸法
 62
     7
 48
50.0
100
AcDbText
 10
43977.77544440742
 20
-30305.82539788149
 30
0.0
 40
90.0
  1
帯筋D10＠100
  7
STYLE1
100
AcDbText
  0
LINE
  5
3313C
330
747D
100
AcDbEntity
  8
寸法
 48
50.0
100
AcDbLine
 10
45882.66645768665
 20
-29491.67342813652
 30
0.0
 11
46465.63672030906
 21
-30074.64369075893
 31
0.0
  0
ARC
  5
33146
330
747D
100
AcDbEntity
  8
部品1
 48
50.0
100
AcDbCircle
 10
45691.45325425104
 20
-29193.68022597159
 30
0.0
 40
48.22000127066345
100
AcDbArc
 50
22.20066484131572
 51
157.7993351586842
  0
LINE
  5
33147
330
747D
100
AcDbEntity
  8
部品1
 48
50.0
100
AcDbLine
 10
45597.45325425104
 20
-29175.46022470092
 30
0.0
 11
45785.45325425104
 21
-29175.46022470092
 31
0.0
  0
LINE
  5
33148
330
747D
100
AcDbEntity
  8
部品1
 48
50.0
100
AcDbLine
 10
44891.45325425104
 20
-29175.46022470093
 30
0.0
 11
45585.45325425104
 21
-29175.46022470092
 31
0.0
  0
LINE
  5
33149
330
747D
100
AcDbEntity
  8
部品1
 48
50.0
100
AcDbLine
 10
45797.45325425104
 20
-29175.46022470092
 30
0.0
 11
45991.45325425102
 21
-29175.46022470092
 31
0.0
  0
LINE
  5
3314A
330
747D
100
AcDbEntity
  8
部品1
 48
50.0
100
AcDbLine
 10
44891.45325425103
 20
-29075.46022470092
 30
0.0
 11
44389.33744315137
 21
-29075.46022470092
 31
0.0
  0
DIMENSION
  5
33154
330
747D
100
AcDbEntity
  8
寸法
 48
50.0
100
AcDbDimension
  2
*D22
 10
44668.83705077973
 20
-29145.46022470092
 30
0.0
 11
44668.83705077974
 21
-29404.99565777178
 31
0.0
 70
   160
 71
     5
 42
30.0
  3
INABA_S30G
100
AcDbAlignedDimension
 13
44826.15625206622
 23
-29175.46022470093
 33
0.0
 14
45551.45325425104
 24
-29145.46022470092
 34
0.0
 50
90.0
100
AcDbRotatedDimension
  0
DIMENSION
  5
33155
330
747D
100
AcDbEntity
  8
寸法
 48
50.0
100
AcDbDimension
  2
*D21
 10
44468.66114738649
 20
-29115.46022470092
 30
0.0
 11
44468.66114738649
 21
-29332.68857115761
 31
0.0
 70
   160
 71
     5
 42
60.0
  3
INABA_S30G
100
AcDbAlignedDimension
 13
44826.15625206622
 23
-29175.46022470093
 33
0.0
 14
45585.45325425104
 24
-29115.46022470092
 34
0.0
 50
90.0
100
AcDbRotatedDimension
  0
TEXT
  5
33ACB
330
747D
100
AcDbEntity
  8
寸法
 62
     7
100
AcDbText
 10
43740.16072332986
 20
-29919.3901641382
 30
0.0
 40
90.0
  1
4-D10X5-D10以上
  7
STYLE1
100
AcDbText
  0
TEXT
  5
33ACC
330
747D
100
AcDbEntity
  8
寸法
 62
     7
100
AcDbText
 10
43740.16072332986
 20
-29804.91724341358
 30
0.0
 40
90.0
  1
ベース筋
  7
STYLE1
100
AcDbText
  0
LINE
  5
33ACD
102
{ACAD_REACTORS
330
33AF6
102
}
330
747D
100
AcDbEntity
  8
部品1
 48
50.0
100
AcDbLine
 10
44975.70325425104
 20
-29550.46022470093
 30
0.0
 11
45807.17280268896
 21
-29550.46022470093
 31
0.0
  0
CIRCLE
  5
33ACE
102
{ACAD_REACTORS
330
33AF6
102
}
330
747D
100
AcDbEntity
  8
部品1
 48
50.0
100
AcDbCircle
 10
45791.45325425104
 20
-29545.46022470093
 30
0.0
 40
5.0
  0
CIRCLE
  5
33ACF
102
{ACAD_REACTORS
330
33AF6
102
}
330
747D
100
AcDbEntity
  8
部品1
 48
50.0
100
AcDbCircle
 10
45591.45325425104
 20
-29545.46022470093
 30
0.0
 40
5.0
  0
CIRCLE
  5
33AD0
102
{ACAD_REACTORS
330
33AF6
102
}
330
747D
100
AcDbEntity
  8
部品1
 48
50.0
100
AcDbCircle
 10
45391.45325425104
 20
-29545.46022470093
 30
0.0
 40
5.0
  0
CIRCLE
  5
33AD1
102
{ACAD_REACTORS
330
33AF6
102
}
330
747D
100
AcDbEntity
  8
部品1
 48
50.0
100
AcDbCircle
 10
45191.45325425104
 20
-29545.46022470093
 30
0.0
 40
5.0
  0
CIRCLE
  5
33AD2
102
{ACAD_REACTORS
330
33AF6
102
}
330
747D
100
AcDbEntity
  8
部品1
 48
50.0
100
AcDbCircle
 10
44991.45325425104
 20
-29545.46022470093
 30
0.0
 40
5.0
  0
LINE
  5
33AD3
102
{ACAD_REACTORS
330
33AF6
102
}
330
747D
100
AcDbEntity
  8
部品1
 48
50.0
100
AcDbLine
 10
45807.17280268896
 20
-29550.46022470093
 30
0.0
 11
45807.17280268896
 21
-29560.46022470093
 31
0.0
  0
LINE
  5
33AD4
102
{ACAD_REACTORS
330
33AF6
102
}
330
747D
100
AcDbEntity
  8
部品1
 48
50.0
100
AcDbLine
 10
44975.70325425104
 20
-29560.46022470093
 30
0.0
 11
45807.17280268896
 21
-29560.46022470093
 31
0.0
  0
LINE
  5
33AD5
102
{ACAD_REACTORS
330
33AF6
102
}
330
747D
100
AcDbEntity
  8
部品1
 48
50.0
100
AcDbLine
 10
44975.70325425104
 20
-29550.46022470093
 30
0.0
 11
44975.70325425104
 21
-29560.46022470093
 31
0.0
  0
LINE
  5
33AD6
102
{ACAD_REACTORS
330
33AF7
330
33AFA
102
}
330
747D
100
AcDbEntity
  8
KIN-T
100
AcDbLine
 10
45703.00325425105
 20
-29513.46022470092
 30
0.0
 11
45848.45325425106
 21
-29513.46022470092
 31
0.0
  0
CIRCLE
  5
33AD7
102
{ACAD_REACTORS
330
33AF7
330
33AFF
102
}
330
747D
100
AcDbEntity
  8
U7
100
AcDbCircle
 10
45486.45325425105
 20
-29135.46022470093
 30
0.0
 40
5.0
  0
CIRCLE
  5
33AD8
102
{ACAD_REACTORS
330
33AF7
330
33AFF
102
}
330
747D
100
AcDbEntity
  8
U7
100
AcDbCircle
 10
45896.45325425105
 20
-29135.46022470093
 30
0.0
 40
5.0
  0
LINE
  5
33AD9
102
{ACAD_REACTORS
330
33AF7
330
33AFF
102
}
330
747D
100
AcDbEntity
  8
U7
100
AcDbLine
 10
45486.45325425105
 20
-29140.46022470092
 30
0.0
 11
45896.45325425105
 21
-29140.46022470092
 31
0.0
  0
LINE
  5
33ADA
102
{ACAD_REACTORS
330
33AF7
330
33AFF
102
}
330
747D
100
AcDbEntity
  8
U7
100
AcDbLine
 10
45486.45325425105
 20
-29130.46022470092
 30
0.0
 11
45896.45325425105
 21
-29130.46022470092
 31
0.0
  0
CIRCLE
  5
33ADB
102
{ACAD_REACTORS
330
33AF7
330
33AFE
102
}
330
747D
100
AcDbEntity
  8
U7
100
AcDbCircle
 10
45486.45325425105
 20
-29235.46022470092
 30
0.0
 40
5.0
  0
CIRCLE
  5
33ADC
102
{ACAD_REACTORS
330
33AF7
330
33AFE
102
}
330
747D
100
AcDbEntity
  8
U7
100
AcDbCircle
 10
45896.45325425105
 20
-29235.46022470092
 30
0.0
 40
5.0
  0
LINE
  5
33ADD
102
{ACAD_REACTORS
330
33AF7
330
33AFE
102
}
330
747D
100
AcDbEntity
  8
U7
100
AcDbLine
 10
45486.45325425105
 20
-29230.46022470093
 30
0.0
 11
45896.45325425105
 21
-29230.46022470093
 31
0.0
  0
LINE
  5
33ADE
102
{ACAD_REACTORS
330
33AF7
330
33AFE
102
}
330
747D
100
AcDbEntity
  8
U7
100
AcDbLine
 10
45486.45325425105
 20
-29240.46022470093
 30
0.0
 11
45896.45325425105
 21
-29240.46022470092
 31
0.0
  0
CIRCLE
  5
33ADF
102
{ACAD_REACTORS
330
33AF7
330
33AFD
102
}
330
747D
100
AcDbEntity
  8
U7
100
AcDbCircle
 10
45486.45325425105
 20
-29335.46022470093
 30
0.0
 40
5.0
  0
CIRCLE
  5
33AE0
102
{ACAD_REACTORS
330
33AF7
330
33AFD
102
}
330
747D
100
AcDbEntity
  8
U7
100
AcDbCircle
 10
45896.45325425105
 20
-29335.46022470093
 30
0.0
 40
5.0
  0
LINE
  5
33AE1
102
{ACAD_REACTORS
330
33AF7
330
33AFD
102
}
330
747D
100
AcDbEntity
  8
U7
100
AcDbLine
 10
45486.45325425105
 20
-29340.46022470092
 30
0.0
 11
45896.45325425105
 21
-29340.46022470092
 31
0.0
  0
LINE
  5
33AE2
102
{ACAD_REACTORS
330
33AF7
330
33AFD
102
}
330
747D
100
AcDbEntity
  8
U7
100
AcDbLine
 10
45486.45325425105
 20
-29330.46022470092
 30
0.0
 11
45896.45325425105
 21
-29330.46022470092
 31
0.0
  0
CIRCLE
  5
33AE3
102
{ACAD_REACTORS
330
33AF7
330
33AFC
102
}
330
747D
100
AcDbEntity
  8
U7
100
AcDbCircle
 10
45486.45325425105
 20
-29435.46022470092
 30
0.0
 40
5.0
  0
CIRCLE
  5
33AE4
102
{ACAD_REACTORS
330
33AF7
330
33AFC
102
}
330
747D
100
AcDbEntity
  8
U7
100
AcDbCircle
 10
45896.45325425105
 20
-29435.46022470092
 30
0.0
 40
5.0
  0
LINE
  5
33AE5
102
{ACAD_REACTORS
330
33AF7
330
33AFC
102
}
330
747D
100
AcDbEntity
  8
U7
100
AcDbLine
 10
45486.45325425105
 20
-29430.46022470093
 30
0.0
 11
45896.45325425105
 21
-29430.46022470093
 31
0.0
  0
LINE
  5
33AE6
102
{ACAD_REACTORS
330
33AF7
330
33AFC
102
}
330
747D
100
AcDbEntity
  8
U7
100
AcDbLine
 10
45486.45325425105
 20
-29440.46022470093
 30
0.0
 11
45896.45325425105
 21
-29440.46022470092
 31
0.0
  0
LINE
  5
33AE7
102
{ACAD_REACTORS
330
33AF7
330
33AFA
102
}
330
747D
100
AcDbEntity
  8
KIN-T
100
AcDbLine
 10
45703.00325425105
 20
-29500.46022470092
 30
0.0
 11
45703.00325425105
 21
-29513.46022470092
 31
0.0
  0
ARC
  5
33AE8
102
{ACAD_REACTORS
330
33AF7
330
33AFA
102
}
330
747D
100
AcDbEntity
  8
KIN-T
100
AcDbCircle
 10
45848.45325425106
 20
-29470.46022470093
 30
0.0
 40
43.0
100
AcDbArc
 50
270.0
 51
0.0
  0
LINE
  5
33AE9
102
{ACAD_REACTORS
330
33AF7
330
33AFA
102
}
330
747D
100
AcDbEntity
  8
KIN-T
100
AcDbLine
 10
45891.45325425105
 20
-29130.46022470092
 30
0.0
 11
45891.45325425105
 21
-29470.46022470093
 31
0.0
  0
LINE
  5
33AEA
102
{ACAD_REACTORS
330
33AF7
330
33AFA
102
}
330
747D
100
AcDbEntity
  8
KIN-T
100
AcDbLine
 10
45878.45325425106
 20
-29130.46022470092
 30
0.0
 11
45891.45325425105
 21
-29130.46022470092
 31
0.0
  0
ARC
  5
33AEB
102
{ACAD_REACTORS
330
33AF7
330
33AFA
330
33AFB
102
}
330
747D
100
AcDbEntity
  8
KIN-T
100
AcDbCircle
 10
45848.45325425106
 20
-29470.46022470093
 30
0.0
 40
30.0
100
AcDbArc
 50
270.0
 51
0.0
  0
LINE
  5
33AEC
102
{ACAD_REACTORS
330
33AF7
330
33AFA
330
33AFB
102
}
330
747D
100
AcDbEntity
  8
KIN-T
100
AcDbLine
 10
45878.45325425106
 20
-29130.46022470092
 30
0.0
 11
45878.45325425106
 21
-29470.46022470093
 31
0.0
  0
LINE
  5
33AED
102
{ACAD_REACTORS
330
33AF7
330
33AFA
330
33AFB
102
}
330
747D
100
AcDbEntity
  8
KIN-T
100
AcDbLine
 10
45703.00325425105
 20
-29500.46022470092
 30
0.0
 11
45848.45325425106
 21
-29500.46022470092
 31
0.0
  0
LINE
  5
33AEE
102
{ACAD_REACTORS
330
33AF7
330
33AF8
102
}
330
747D
100
AcDbEntity
  8
KIN-T
100
AcDbLine
 10
45316.00325425105
 20
-29500.46022470092
 30
0.0
 11
45316.00325425105
 21
-29513.46022470092
 31
0.0
  0
LINE
  5
33AEF
102
{ACAD_REACTORS
330
33AF7
330
33AF8
102
}
330
747D
100
AcDbEntity
  8
KIN-T
100
AcDbLine
 10
45316.00325425105
 20
-29513.46022470092
 30
0.0
 11
45461.45325425105
 21
-29513.46022470092
 31
0.0
  0
ARC
  5
33AF0
102
{ACAD_REACTORS
330
33AF7
330
33AF8
102
}
330
747D
100
AcDbEntity
  8
KIN-T
100
AcDbCircle
 10
45461.45325425105
 20
-29470.46022470093
 30
0.0
 40
43.0
100
AcDbArc
 50
270.0
 51
0.0
  0
LINE
  5
33AF1
102
{ACAD_REACTORS
330
33AF7
330
33AF8
102
}
330
747D
100
AcDbEntity
  8
KIN-T
100
AcDbLine
 10
45504.45325425106
 20
-29130.46022470092
 30
0.0
 11
45504.45325425106
 21
-29470.46022470093
 31
0.0
  0
LINE
  5
33AF2
102
{ACAD_REACTORS
330
33AF7
330
33AF8
102
}
330
747D
100
AcDbEntity
  8
KIN-T
100
AcDbLine
 10
45491.45325425105
 20
-29130.46022470092
 30
0.0
 11
45504.45325425106
 21
-29130.46022470092
 31
0.0
  0
ARC
  5
33AF3
102
{ACAD_REACTORS
330
33AF7
330
33AF8
330
33AF9
102
}
330
747D
100
AcDbEntity
  8
KIN-T
100
AcDbCircle
 10
45461.45325425105
 20
-29470.46022470093
 30
0.0
 40
30.0
100
AcDbArc
 50
270.0
 51
0.0
  0
LINE
  5
33AF4
102
{ACAD_REACTORS
330
33AF7
330
33AF8
330
33AF9
102
}
330
747D
100
AcDbEntity
  8
KIN-T
100
AcDbLine
 10
45491.45325425105
 20
-29130.46022470092
 30
0.0
 11
45491.45325425105
 21
-29470.46022470093
 31
0.0
  0
LINE
  5
33AF5
102
{ACAD_REACTORS
330
33AF7
330
33AF8
330
33AF9
102
}
330
747D
100
AcDbEntity
  8
KIN-T
100
AcDbLine
 10
45316.00325425105
 20
-29500.46022470092
 30
0.0
 11
45461.45325425105
 21
-29500.46022470092
 31
0.0
  0
HATCH
  5
35AD1
102
{ACAD_REACTORS
330
35AF2
102
}
330
747D
100
AcDbEntity
  8
細線
 48
50.0
100
AcDbHatch
 10
0.0
 20
0.0
 30
0.0
210
0.0
220
0.0
230
1.0
  2
LINE
 70
     0
 71
     0
 91
        4
 92
        7
 72
     0
 73
     1
 93
        5
 10
44811.45325425104
 20
-29754.39032390724
 10
44811.45325425104
 20
-29775.46022470093
 10
45197.18194134132
 20
-29775.46022470092
 10
45297.18194134131
 20
-29675.46022470093
 10
44879.06573771152
 20
-29675.46022470093
 97
        0
 92
       23
 72
     0
 73
     1
 93
        3
 10
44879.06573771152
 20
-29675.46022470092
 10
44811.45325425104
 20
-29675.46022470092
 10
44811.45325425104
 20
-29754.39032390723
 97
        0
 92
        7
 72
     0
 73
     1
 93
        4
 10
45858.99349359101
 20
-29775.46022470093
 10
45768.43120205589
 20
-29675.46022470093
 10
45297.18194134132
 20
-29675.46022470092
 10
45197.18194134132
 20
-29775.46022470093
 97
        0
 92
        7
 72
     0
 73
     1
 93
        4
 10
45858.99349359101
 20
-29775.46022470093
 10
46071.45325425103
 20
-29775.46022470093
 10
46071.45325425103
 20
-29675.46022470093
 10
45768.43120205589
 20
-29675.46022470092
 97
        0
 75
     0
 76
     1
 52
75.0
 41
37.5
 77
     0
 78
     1
 53
75.0
 43
42060.28304012561
 44
-841.3565269366664
 45
-115.0055436925422
 46
30.81564255751887
 79
     0
 47
3.330068210733803
 98
        4
 10
44851.64209693849
 20
-29736.56390724178
 10
44834.97972323702
 20
-29696.60308622596
 10
45394.83502845536
 20
-29726.57370701988
 10
45871.37853677763
 20
-29729.90378046992
  0
LINE
  5
35AD2
102
{ACAD_REACTORS
330
35AF2
102
}
330
747D
100
AcDbEntity
  8
細線
 48
50.0
100
AcDbLine
 10
44921.39181999937
 20
-29775.46022470093
 30
0.0
 11
44914.6930901886
 21
-29750.46022470093
 31
0.0
  0
LINE
  5
35AD3
102
{ACAD_REACTORS
330
35AF2
102
}
330
747D
100
AcDbEntity
  8
細線
 48
50.0
100
AcDbLine
 10
45044.65439022945
 20
-29775.46022470093
 30
0.0
 11
45037.95566041867
 21
-29750.46022470093
 31
0.0
  0
LINE
  5
35AD4
102
{ACAD_REACTORS
330
35AF2
102
}
330
747D
100
AcDbEntity
  8
細線
 48
50.0
100
AcDbLine
 10
45167.91696045952
 20
-29775.46022470093
 30
0.0
 11
45161.21823064874
 21
-29750.46022470093
 31
0.0
  0
LINE
  5
35AD5
102
{ACAD_REACTORS
330
35AF2
102
}
330
747D
100
AcDbEntity
  8
細線
 48
50.0
100
AcDbLine
 10
45291.1795306896
 20
-29775.46022470093
 30
0.0
 11
45284.48080087883
 21
-29750.46022470093
 31
0.0
  0
LINE
  5
35AD6
102
{ACAD_REACTORS
330
35AF2
102
}
330
747D
100
AcDbEntity
  8
細線
 48
50.0
100
AcDbLine
 10
45414.44210091968
 20
-29775.46022470093
 30
0.0
 11
45407.7433711089
 21
-29750.46022470093
 31
0.0
  0
LINE
  5
35AD7
102
{ACAD_REACTORS
330
35AF2
102
}
330
747D
100
AcDbEntity
  8
細線
 48
50.0
100
AcDbLine
 10
45537.70467114975
 20
-29775.46022470093
 30
0.0
 11
45531.00594133897
 21
-29750.46022470093
 31
0.0
  0
LINE
  5
35AD8
102
{ACAD_REACTORS
330
35AF2
102
}
330
747D
100
AcDbEntity
  8
細線
 48
50.0
100
AcDbLine
 10
45660.96724137983
 20
-29775.46022470093
 30
0.0
 11
45654.26851156905
 21
-29750.46022470093
 31
0.0
  0
LINE
  5
35AD9
102
{ACAD_REACTORS
330
35AF2
102
}
330
747D
100
AcDbEntity
  8
細線
 48
50.0
100
AcDbLine
 10
45784.2298116099
 20
-29775.46022470093
 30
0.0
 11
45777.53108179912
 21
-29750.46022470093
 31
0.0
  0
LINE
  5
35ADA
102
{ACAD_REACTORS
330
35AF2
102
}
330
747D
100
AcDbEntity
  8
細線
 48
50.0
100
AcDbLine
 10
45907.49238183998
 20
-29775.46022470093
 30
0.0
 11
45900.79365202919
 21
-29750.46022470093
 31
0.0
  0
LINE
  5
35ADB
102
{ACAD_REACTORS
330
35AF2
102
}
330
747D
100
AcDbEntity
  8
細線
 48
50.0
100
AcDbLine
 10
46030.75495207005
 20
-29775.46022470093
 30
0.0
 11
46024.05622225927
 21
-29750.46022470093
 31
0.0
  0
LINE
  5
35ADC
102
{ACAD_REACTORS
330
35AF2
102
}
330
747D
100
AcDbEntity
  8
細線
 48
50.0
100
AcDbLine
 10
46037.45368188083
 20
-29700.46022470092
 30
0.0
 11
46030.75495207005
 21
-29675.46022470092
 31
0.0
  0
LINE
  5
35ADD
102
{ACAD_REACTORS
330
35AF2
102
}
330
747D
100
AcDbEntity
  8
細線
 48
50.0
100
AcDbLine
 10
45914.19111165075
 20
-29700.46022470092
 30
0.0
 11
45907.49238183997
 21
-29675.46022470092
 31
0.0
  0
LINE
  5
35ADE
102
{ACAD_REACTORS
330
35AF2
102
}
330
747D
100
AcDbEntity
  8
細線
 48
50.0
100
AcDbLine
 10
45790.92854142068
 20
-29700.46022470092
 30
0.0
 11
45784.2298116099
 21
-29675.46022470092
 31
0.0
  0
LINE
  5
35ADF
102
{ACAD_REACTORS
330
35AF2
102
}
330
747D
100
AcDbEntity
  8
細線
 48
50.0
100
AcDbLine
 10
45667.6659711906
 20
-29700.46022470092
 30
0.0
 11
45660.96724137982
 21
-29675.46022470092
 31
0.0
  0
LINE
  5
35AE0
102
{ACAD_REACTORS
330
35AF2
102
}
330
747D
100
AcDbEntity
  8
細線
 48
50.0
100
AcDbLine
 10
45544.40340096052
 20
-29700.46022470093
 30
0.0
 11
45537.70467114975
 21
-29675.46022470093
 31
0.0
  0
LINE
  5
35AE1
102
{ACAD_REACTORS
330
35AF2
102
}
330
747D
100
AcDbEntity
  8
細線
 48
50.0
100
AcDbLine
 10
45421.14083073045
 20
-29700.46022470092
 30
0.0
 11
45414.44210091967
 21
-29675.46022470092
 31
0.0
  0
LINE
  5
35AE2
102
{ACAD_REACTORS
330
35AF2
102
}
330
747D
100
AcDbEntity
  8
細線
 48
50.0
100
AcDbLine
 10
45297.87826050037
 20
-29700.46022470093
 30
0.0
 11
45291.1795306896
 21
-29675.46022470093
 31
0.0
  0
LINE
  5
35AE3
102
{ACAD_REACTORS
330
35AF2
102
}
330
747D
100
AcDbEntity
  8
細線
 48
50.0
100
AcDbLine
 10
44928.09054981015
 20
-29700.46022470092
 30
0.0
 11
44921.39181999937
 21
-29675.46022470092
 31
0.0
  0
LINE
  5
35AE4
102
{ACAD_REACTORS
330
35AF2
102
}
330
747D
100
AcDbEntity
  8
細線
 48
50.0
100
AcDbLine
 10
45051.35312004022
 20
-29700.46022470092
 30
0.0
 11
45044.65439022945
 21
-29675.46022470092
 31
0.0
  0
LINE
  5
35AE5
102
{ACAD_REACTORS
330
35AF2
102
}
330
747D
100
AcDbEntity
  8
細線
 48
50.0
100
AcDbLine
 10
45174.61569027029
 20
-29700.46022470092
 30
0.0
 11
45167.91696045952
 21
-29675.46022470092
 31
0.0
  0
HATCH
  5
35AE6
102
{ACAD_REACTORS
330
35AF2
102
}
330
747D
100
AcDbEntity
  8
細線
 48
50.0
100
AcDbHatch
 10
0.0
 20
0.0
 30
0.0
210
0.0
220
0.0
230
1.0
  2
PLAST
 70
     0
 71
     0
 91
        5
 92
        7
 72
     0
 73
     1
 93
        4
 10
45297.18194134132
 20
-29675.46022470092
 10
45347.18194134132
 20
-29625.46022470093
 10
44921.89634614883
 20
-29625.46022470093
 10
44879.06573771152
 20
-29675.46022470093
 97
        0
 92
        7
 72
     0
 73
     1
 93
        4
 10
44879.06573771152
 20
-29675.46022470092
 10
44921.89634614883
 20
-29625.46022470093
 10
44811.45325425104
 20
-29625.46022470093
 10
44811.45325425104
 20
-29675.46022470093
 97
        0
 92
        7
 72
     0
 73
     1
 93
        5
 10
45691.45325425104
 20
-29675.46022470092
 10
45691.45325425104
 20
-29625.46022470092
 10
45646.90325425104
 20
-29625.46022470092
 10
45347.18194134133
 20
-29625.46022470092
 10
45297.18194134132
 20
-29675.46022470093
 97
        0
 92
        7
 72
     0
 73
     1
 93
        4
 10
45691.45325425104
 20
-29675.46022470092
 10
45768.43120205589
 20
-29675.46022470092
 10
45723.15005628833
 20
-29625.46022470093
 10
45691.45325425104
 20
-29625.46022470093
 97
        0
 92
        7
 72
     0
 73
     1
 93
        4
 10
45723.15005628833
 20
-29625.46022470093
 10
45768.43120205589
 20
-29675.46022470093
 10
46071.45325425103
 20
-29675.46022470092
 10
46071.45325425103
 20
-29625.46022470093
 97
        0
 75
     0
 76
     1
 52
45.0
 41
37.5
 77
     0
 78
     3
 53
45.0
 43
42060.28304012561
 44
-841.3565269366664
 45
-168.3798022700466
 46
168.3798022700466
 79
     0
 53
45.0
 43
42039.23556484186
 44
-820.3090516529119
 45
-168.3798022700466
 46
168.3798022700466
 79
     0
 53
45.0
 43
42018.18808955811
 44
-799.2615763691538
 45
-168.3798022700466
 46
168.3798022700466
 79
     0
 47
2.357055197808914
 98
        5
 10
45108.10575262193
 20
-29652.25258176373
 10
44855.71878493683
 20
-29652.25258176373
 10
45402.95034304691
 20
-29654.6096368289
 10
45709.58870563107
 20
-29652.25258176373
 10
45794.5039511108
 20
-29647.53847163339
  0
HATCH
  5
35AE7
102
{ACAD_REACTORS
330
35AF2
102
}
330
747D
100
AcDbEntity
  8
細線
 48
50.0
100
AcDbHatch
 10
0.0
 20
0.0
 30
0.0
210
0.0
220
0.0
230
1.0
  2
PLAST
 70
     0
 71
     0
 91
       15
 92
        7
 72
     1
 73
     1
 93
       43
 10
45196.45325425104
 20
-29545.46022470093
 42
-0.4142135623735213
 10
45191.45325425104
 20
-29550.46022470093
 42
0.0
 10
45391.45325425104
 20
-29550.46022470093
 42
-0.4142135623735213
 10
45386.45325425104
 20
-29545.46022470093
 42
-1.0
 10
45396.45325425104
 20
-29545.46022470093
 42
-0.4142135623735213
 10
45391.45325425104
 20
-29550.46022470093
 42
0.0
 10
45422.18194134132
 20
-29550.46022470094
 42
0.0
 10
45459.18194134134
 20
-29513.46022470092
 42
0.0
 10
45316.00325425105
 20
-29513.46022470093
 42
0.0
 10
45316.00325425105
 20
-29500.46022470093
 42
0.0
 10
45461.45325425105
 20
-29500.46022470092
 42
0.1260483184576957
 10
45475.8767635134
 20
-29496.76540252886
 42
0.0
 10
45487.75843207899
 20
-29484.88373396327
 42
0.1260483184577314
 10
45491.45325425105
 20
-29470.46022470093
 42
0.0
 10
45491.45325425105
 20
-29440.46022470093
 42
0.0
 10
45486.45325425105
 20
-29440.46022470093
 42
-0.4142135623730951
 10
45481.45325425105
 20
-29435.46022470092
 42
-0.4142135623730951
 10
45486.45325425105
 20
-29430.46022470093
 42
0.0
 10
45491.45325425105
 20
-29430.46022470093
 42
0.0
 10
45491.45325425105
 20
-29340.46022470092
 42
0.0
 10
45486.45325425105
 20
-29340.46022470092
 42
-0.4142135623733081
 10
45481.45325425105
 20
-29335.46022470093
 42
-0.4142135623730951
 10
45486.45325425105
 20
-29330.46022470092
 42
0.0
 10
45491.45325425105
 20
-29330.46022470093
 42
0.0
 10
45491.45325425105
 20
-29240.46022470093
 42
0.0
 10
45486.45325425105
 20
-29240.46022470093
 42
-0.4142135623730951
 10
45481.45325425105
 20
-29235.46022470092
 42
-0.4142135623730951
 10
45486.45325425105
 20
-29230.46022470093
 42
0.0
 10
45491.45325425105
 20
-29230.46022470093
 42
0.0
 10
45491.45325425105
 20
-29175.46022470092
 42
0.0
 10
44891.45325425104
 20
-29175.46022470093
 42
0.0
 10
44891.45325425104
 20
-29625.46022470093
 42
0.0
 10
44921.89634614883
 20
-29625.46022470093
 42
0.0
 10
44977.57613711734
 20
-29560.46022470093
 42
0.0
 10
44975.70325425104
 20
-29560.46022470093
 42
0.0
 10
44975.70325425104
 20
-29550.46022470093
 42
0.0
 10
44986.14225880481
 20
-29550.46022470093
 42
0.0
 10
44987.64746706168
 20
-29548.70306047681
 42
-0.1782786565740319
 10
44986.45325425104
 20
-29545.46022470093
 42
-1.0
 10
44996.45325425104
 20
-29545.46022470093
 42
-0.4142135623730951
 10
44991.45325425104
 20
-29550.46022470093
 42
0.0
 10
45191.45325425104
 20
-29550.46022470093
 42
-0.4142135623735213
 10
45186.45325425104
 20
-29545.46022470093
 42
-1.0
 97
        0
 92
       23
 72
     0
 73
     1
 93
        4
 10
44977.57613711735
 20
-29560.46022470093
 10
44921.89634614883
 20
-29625.46022470093
 10
45347.18194134132
 20
-29625.46022470093
 10
45412.18194134131
 20
-29560.46022470093
 97
        0
 92
        7
 72
     1
 73
     1
 93
       27
 10
45412.18194134132
 20
-29560.46022470093
 42
0.0
 10
45347.18194134132
 20
-29625.46022470092
 42
0.0
 10
45991.45325425102
 20
-29625.46022470092
 42
0.0
 10
45991.45325425102
 20
-29600.46022470091
 42
0.0
 10
45884.65594773161
 20
-29493.66291818149
 42
-0.2555649155476994
 10
45848.45325425106
 20
-29513.46022470092
 42
0.0
 10
45703.00325425105
 20
-29513.46022470092
 42
0.0
 10
45703.00325425105
 20
-29500.46022470093
 42
0.0
 10
45848.45325425106
 20
-29500.46022470092
 42
0.4142135623730951
 10
45878.45325425106
 20
-29470.46022470093
 42
0.0
 10
45878.45325425106
 20
-29440.46022470092
 42
0.0
 10
45532.18194134133
 20
-29440.46022470093
 42
0.0
 10
45504.45325425106
 20
-29468.1889117912
 42
0.0
 10
45504.45325425106
 20
-29470.46022470093
 42
-0.4142135623730951
 10
45461.45325425105
 20
-29513.46022470092
 42
0.0
 10
45459.18194134133
 20
-29513.46022470092
 42
0.0
 10
45422.18194134133
 20
-29550.46022470093
 42
0.0
 10
45591.45325425104
 20
-29550.46022470093
 42
-0.4142135623733081
 10
45586.45325425104
 20
-29545.46022470093
 42
-1.0
 10
45596.45325425104
 20
-29545.46022470093
 42
-0.4142135623735213
 10
45591.45325425104
 20
-29550.46022470093
 42
0.0
 10
45791.45325425104
 20
-29550.46022470093
 42
-0.4142135623735213
 10
45786.45325425104
 20
-29545.46022470093
 42
-1.0
 10
45796.45325425104
 20
-29545.46022470093
 42
-0.4142135623735213
 10
45791.45325425104
 20
-29550.46022470093
 42
0.0
 10
45807.17280268896
 20
-29550.46022470093
 42
0.0
 10
45807.17280268896
 20
-29560.46022470093
 42
0.0
 97
        0
 92
        7
 72
     1
 73
     1
 93
       13
 10
45991.45325425102
 20
-29386.46617692371
 42
0.0
 10
45901.34898823866
 20
-29334.44445468634
 42
-0.051189146983264
 10
45901.45325425105
 20
-29335.46022470093
 42
-0.4142135623726688
 10
45896.45325425105
 20
-29340.46022470092
 42
0.0
 10
45891.45325425105
 20
-29340.46022470092
 42
0.0
 10
45891.45325425105
 20
-29430.46022470092
 42
0.0
 10
45896.45325425105
 20
-29430.46022470093
 42
-0.414213562372882
 10
45901.45325425105
 20
-29435.46022470092
 42
-0.4142135623726688
 10
45896.45325425105
 20
-29440.46022470092
 42
0.0
 10
45891.45325425105
 20
-29440.46022470092
 42
0.0
 10
45891.45325425105
 20
-29470.46022470093
 42
-0.1434619830766963
 10
45884.65594773161
 20
-29493.66291818149
 42
0.0
 10
45991.45325425102
 20
-29600.46022470089
 42
0.0
 97
        0
 92
        7
 72
     1
 73
     1
 93
       12
 10
45891.45325425105
 20
-29328.73115000476
 42
0.0
 10
45894.44809947488
 20
-29330.46022470092
 42
0.0
 10
45896.45325425105
 20
-29330.46022470092
 42
-0.3554869408474657
 10
45901.34898823865
 20
-29334.44445468633
 42
0.0
 10
45991.45325425102
 20
-29386.46617692371
 42
0.0
 10
45991.45325425102
 20
-29175.46022470092
 42
0.0
 10
45891.45325425105
 20
-29175.46022470092
 42
0.0
 10
45891.45325425105
 20
-29230.46022470092
 42
0.0
 10
45896.45325425105
 20
-29230.46022470093
 42
-0.414213562372882
 10
45901.45325425105
 20
-29235.46022470092
 42
-0.4142135623726688
 10
45896.45325425105
 20
-29240.46022470092
 42
0.0
 10
45891.45325425105
 20
-29240.46022470092
 42
0.0
 97
        0
 92
        7
 72
     0
 73
     1
 93
        4
 10
45585.45325425104
 20
-29175.46022470092
 10
45504.45325425106
 20
-29175.46022470093
 10
45504.45325425106
 20
-29230.46022470093
 10
45585.45325425104
 20
-29230.46022470093
 97
        0
 92
        7
 72
     0
 73
     1
 93
        4
 10
45585.45325425104
 20
-29240.46022470093
 10
45504.45325425106
 20
-29240.46022470093
 10
45504.45325425106
 20
-29330.46022470092
 10
45585.45325425104
 20
-29330.46022470092
 97
        0
 92
        7
 72
     1
 73
     1
 93
        7
 10
45504.45325425106
 20
-29430.46022470093
 42
0.0
 10
45541.45325425104
 20
-29430.46022470092
 42
0.0
 10
45541.45325425104
 20
-29424.46022470093
 42
0.0
 10
45560.45325425104
 20
-29424.46022470093
 42
0.4142135623730951
 10
45585.45325425104
 20
-29399.46022470092
 42
0.0
 10
45585.45325425104
 20
-29340.46022470092
 42
0.0
 10
45504.45325425106
 20
-29340.46022470092
 42
0.0
 97
        0
 92
        7
 72
     1
 73
     1
 93
        6
 10
45597.45325425104
 20
-29340.46022470092
 42
0.0
 10
45597.45325425104
 20
-29399.46022470092
 42
-0.2535612698375804
 10
45580.65226412776
 20
-29430.46022470093
 42
0.0
 10
45802.25424437432
 20
-29430.46022470093
 42
-0.2535612698375804
 10
45785.45325425104
 20
-29399.46022470092
 42
0.0
 10
45785.45325425104
 20
-29340.46022470092
 42
0.0
 97
        0
 92
        7
 72
     0
 73
     1
 93
        4
 10
45785.45325425104
 20
-29330.46022470092
 10
45785.45325425104
 20
-29240.46022470092
 10
45597.45325425104
 20
-29240.46022470093
 10
45597.45325425104
 20
-29330.46022470092
 97
        0
 92
        7
 72
     0
 73
     1
 93
        4
 10
45785.45325425104
 20
-29230.46022470092
 10
45785.45325425104
 20
-29175.46022470092
 10
45597.45325425104
 20
-29175.46022470092
 10
45597.45325425104
 20
-29230.46022470092
 97
        0
 92
        7
 72
     0
 73
     1
 93
        4
 10
45797.45325425104
 20
-29175.46022470091
 10
45797.45325425104
 20
-29230.46022470092
 10
45878.45325425106
 20
-29230.46022470093
 10
45878.45325425106
 20
-29175.46022470092
 97
        0
 92
        7
 72
     0
 73
     1
 93
        4
 10
45878.45325425106
 20
-29240.46022470092
 10
45797.45325425104
 20
-29240.46022470092
 10
45797.45325425104
 20
-29274.46022470093
 10
45878.45325425106
 20
-29321.2255965053
 97
        0
 92
        7
 72
     0
 73
     1
 93
        4
 10
45878.45325425106
 20
-29330.46022470093
 10
45878.45325425106
 20
-29321.22559650529
 10
45797.45325425104
 20
-29274.46022470093
 10
45797.45325425104
 20
-29330.46022470092
 97
        0
 92
        7
 72
     1
 73
     1
 93
        7
 10
45797.45325425104
 20
-29399.46022470092
 42
0.4142135623730951
 10
45822.45325425104
 20
-29424.46022470093
 42
0.0
 10
45841.45325425104
 20
-29424.46022470093
 42
0.0
 10
45841.45325425104
 20
-29430.46022470092
 42
0.0
 10
45878.45325425106
 20
-29430.46022470093
 42
0.0
 10
45878.45325425106
 20
-29340.46022470092
 42
0.0
 10
45797.45325425104
 20
-29340.46022470092
 42
0.0
 97
        0
 75
     0
 76
     1
 52
135.0
 41
37.5
 77
     0
 78
     3
 53
135.0
 43
41864.76180361282
 44
0.0000053434559959
 45
-168.3798022700466
 46
-168.3798022700466
 79
     0
 53
135.0
 43
41843.71432832906
 44
-21.04746994029847
 45
-168.3798022700466
 46
-168.3798022700466
 79
     0
 53
135.0
 43
41822.66685304531
 44
-42.09494522405657
 45
-168.3798022700466
 46
-168.3798022700466
 79
     0
 47
2.111092722313636
 98
       15
 10
45189.48998732924
 20
-29360.74713350224
 10
45176.81429329593
 20
-29588.74515417751
 10
45616.23853215127
 20
-29584.52296972772
 10
45958.48245008452
 20
-29481.07943057898
 10
45937.35625755559
 20
-29293.19218230557
 10
45561.31052467357
 20
-29204.52626860227
 10
45548.63479483351
 20
-29278.41451660246
 10
45533.84650303135
 20
-29371.30261475556
 10
45637.36472468021
 20
-29369.19150240183
 10
45645.81518736908
 20
-29295.30327453047
 10
45635.25209110462
 20
-29204.52626860227
 10
45835.95066948232
 20
-29202.41517637737
 10
45859.1894597801
 20
-29272.08123992778
 10
45823.274975449
 20
-29320.63638122922
 10
45829.61284036903
 20
-29381.85807588004
  0
LINE
  5
35AE8
102
{ACAD_REACTORS
330
35AF2
102
}
330
747D
100
AcDbEntity
  8
細線
 48
50.0
100
AcDbLine
 10
44835.6361949979
 20
-29175.46022470092
 30
0.0
 11
44828.93746518712
 21
-29150.46022470092
 31
0.0
  0
LINE
  5
35AE9
102
{ACAD_REACTORS
330
35AF2
102
}
330
747D
100
AcDbEntity
  8
細線
 48
50.0
100
AcDbLine
 10
44712.37362476782
 20
-29175.46022470092
 30
0.0
 11
44705.67489495705
 21
-29150.46022470092
 31
0.0
  0
LINE
  5
35AEA
102
{ACAD_REACTORS
330
35AF2
102
}
330
747D
100
AcDbEntity
  8
細線
 48
50.0
100
AcDbLine
 10
44589.11105453775
 20
-29175.46022470092
 30
0.0
 11
44582.41232472697
 21
-29150.46022470092
 31
0.0
  0
LINE
  5
35AEB
102
{ACAD_REACTORS
330
35AF2
102
}
330
747D
100
AcDbEntity
  8
細線
 48
50.0
100
AcDbLine
 10
44465.84848430767
 20
-29175.46022470092
 30
0.0
 11
44459.1497544969
 21
-29150.46022470092
 31
0.0
  0
LINE
  5
35AEC
102
{ACAD_REACTORS
330
35AF2
102
}
330
747D
100
AcDbEntity
  8
細線
 48
50.0
100
AcDbLine
 10
44842.33492480867
 20
-29100.46022470092
 30
0.0
 11
44835.63619499789
 21
-29075.46022470092
 31
0.0
  0
LINE
  5
35AED
102
{ACAD_REACTORS
330
35AF2
102
}
330
747D
100
AcDbEntity
  8
細線
 48
50.0
100
AcDbLine
 10
44719.0723545786
 20
-29100.46022470092
 30
0.0
 11
44712.37362476782
 21
-29075.46022470092
 31
0.0
  0
LINE
  5
35AEE
102
{ACAD_REACTORS
330
35AF2
102
}
330
747D
100
AcDbEntity
  8
細線
 48
50.0
100
AcDbLine
 10
44472.54721411844
 20
-29100.46022470092
 30
0.0
 11
44465.84848430767
 21
-29075.46022470092
 31
0.0
  0
LINE
  5
35AEF
102
{ACAD_REACTORS
330
35AF2
102
}
330
747D
100
AcDbEntity
  8
細線
 48
50.0
100
AcDbLine
 10
44595.80978434852
 20
-29100.46022470092
 30
0.0
 11
44589.11105453775
 21
-29075.46022470092
 31
0.0
  0
HATCH
  5
35AF0
102
{ACAD_REACTORS
330
35AF2
102
}
330
747D
100
AcDbEntity
  8
細線
 48
50.0
100
AcDbHatch
 10
0.0
 20
0.0
 30
0.0
210
0.0
220
0.0
230
1.0
  2
LINE
 70
     0
 71
     0
 91
        1
 92
        7
 72
     0
 73
     1
 93
        4
 10
44891.45325425104
 20
-29175.46022470092
 10
44891.45325425104
 20
-29075.46022470092
 10
44389.33744315137
 20
-29075.46022470092
 10
44389.33744315137
 20
-29175.46022470093
 97
        0
 75
     0
 76
     1
 52
75.0
 41
37.5
 77
     0
 78
     1
 53
75.0
 43
42060.28304012561
 44
-841.3565269366664
 45
-115.0055436925422
 46
30.81564255751887
 79
     0
 47
1.008020268830581
 98
        1
 10
44690.37800013953
 20
-29125.4780685678
  0
HATCH
  5
35AF1
102
{ACAD_REACTORS
330
35AF2
102
}
330
747D
100
AcDbEntity
  8
細線
 48
50.0
100
AcDbHatch
 10
0.0
 20
0.0
 30
0.0
210
0.0
220
0.0
230
1.0
  2
PLAST
 70
     0
 71
     0
 91
        6
 92
        7
 72
     1
 73
     1
 93
       16
 10
44389.33744315137
 20
-28975.46022470093
 42
0.0
 10
44389.33744315137
 20
-29075.46022470092
 42
0.0
 10
44891.45325425104
 20
-29075.46022470093
 42
0.0
 10
44891.45325425104
 20
-29175.46022470093
 42
0.0
 10
45491.45325425105
 20
-29175.46022470092
 42
0.0
 10
45491.45325425105
 20
-29140.46022470092
 42
0.0
 10
45486.45325425105
 20
-29140.46022470092
 42
-0.4142135623730951
 10
45481.45325425105
 20
-29135.46022470093
 42
-0.4142135623730951
 10
45486.45325425105
 20
-29130.46022470092
 42
0.0
 10
45557.90325425103
 20
-29130.46022470092
 42
0.0
 10
45557.90325425103
 20
-29093.46022470092
 42
0.0
 10
45567.90325425104
 20
-29083.46022470093
 42
0.0
 10
45646.90325425105
 20
-29083.46022470093
 42
0.0
 10
45646.90325425105
 20
-28961.46022470093
 42
0.0
 10
45632.90325425104
 20
-28961.46022470093
 42
0.0
 10
45618.90325425104
 20
-28975.46022470092
 42
0.0
 97
        0
 92
        7
 72
     1
 73
     1
 93
       17
 10
45736.00325425104
 20
-29083.46022470093
 42
0.0
 10
45815.00325425104
 20
-29083.46022470093
 42
0.0
 10
45825.00325425105
 20
-29093.46022470093
 42
0.0
 10
45825.00325425105
 20
-29130.46022470092
 42
0.0
 10
45896.45325425105
 20
-29130.46022470092
 42
-0.4142135623730951
 10
45901.45325425105
 20
-29135.46022470093
 42
-0.4142135623726688
 10
45896.45325425105
 20
-29140.46022470092
 42
0.0
 10
45891.45325425105
 20
-29140.46022470092
 42
0.0
 10
45891.45325425105
 20
-29175.46022470092
 42
0.0
 10
45991.45325425102
 20
-29175.46022470092
 42
0.0
 10
45991.45325425102
 20
-29075.46022470092
 42
0.0
 10
45891.45325425104
 20
-29075.46022470092
 42
0.0
 10
45891.45325425104
 20
-28985.46022470092
 42
0.0
 10
45881.45325425105
 20
-28975.46022470093
 42
0.0
 10
45764.00325425105
 20
-28975.46022470093
 42
0.0
 10
45750.00325425104
 20
-28961.46022470092
 42
0.0
 10
45736.00325425104
 20
-28961.46022470093
 42
0.0
 97
        0
 92
       22
 72
     0
 73
     1
 93
        6
 10
45551.45325425104
 20
-29145.46022470093
 10
45551.45325425104
 20
-29140.46022470092
 10
45504.45325425106
 20
-29140.46022470092
 10
45504.45325425106
 20
-29175.46022470092
 10
45585.45325425104
 20
-29175.46022470091
 10
45585.45325425104
 20
-29145.46022470092
 97
        0
 92
        7
 72
     1
 73
     1
 93
        4
 10
45597.45325425104
 20
-29145.46022470092
 42
0.0
 10
45597.45325425104
 20
-29175.46022470092
 42
0.0
 10
45646.8079848909
 20
-29175.46022470092
 42
-0.3047735316820737
 10
45691.45325425104
 20
-29145.46022470092
 42
0.0
 97
        0
 92
        7
 72
     1
 73
     1
 93
        4
 10
45691.45325425104
 20
-29145.46022470093
 42
-0.3047735316820574
 10
45736.09852361117
 20
-29175.46022470092
 42
0.0
 10
45785.45325425104
 20
-29175.46022470092
 42
0.0
 10
45785.45325425104
 20
-29145.46022470092
 42
0.0
 97
        0
 92
        7
 72
     0
 73
     1
 93
        6
 10
45797.45325425104
 20
-29145.46022470093
 10
45797.45325425104
 20
-29175.46022470091
 10
45878.45325425106
 20
-29175.46022470092
 10
45878.45325425106
 20
-29140.46022470092
 10
45831.45325425104
 20
-29140.46022470092
 10
45831.45325425104
 20
-29145.46022470092
 97
        0
 75
     0
 76
     1
 52
45.0
 41
37.5
 77
     0
 78
     3
 53
45.0
 43
41864.76180361282
 44
0.0000053434559959
 45
-168.3798022700466
 46
168.3798022700466
 79
     0
 53
45.0
 43
41843.71432832906
 44
21.04748062721046
 45
-168.3798022700466
 46
168.3798022700466
 79
     0
 53
45.0
 43
41822.66685304531
 44
42.09495591096856
 45
-168.3798022700466
 46
168.3798022700466
 79
     0
 47
1.886419326983969
 98
        6
 10
45479.02126090273
 20
-29043.15050936373
 10
45765.53069611171
 20
-29031.69838909633
 10
45550.73328474607
 20
-29158.93034804426
 10
45609.25449876791
 20
-29157.04391376159
 10
45750.83807992376
 20
-29157.04391376159
 10
45826.3493423038
 20
-29158.93034804426
  0
TEXT
  5
35B24
330
747D
100
AcDbEntity
  8
寸法
 62
     7
100
AcDbText
 10
38451.65029371249
 20
-27821.42109924192
 30
0.0
 40
90.0
  1
A'
  7
STYLE1
100
AcDbText
  0
LINE
  5
35B25
330
747D
100
AcDbEntity
  8
寸法
 48
50.0
100
AcDbLine
 10
38815.28577387496
 20
-27793.35562644015
 30
0.0
 11
38561.15194312604
 21
-27793.35562644015
 31
0.0
  0
LINE
  5
35B26
330
747D
100
AcDbEntity
  8
寸法
 48
50.0
100
AcDbLine
 10
38668.88531370902
 20
-27764.48855679455
 30
0.0
 11
38668.88531370902
 21
-27830.4231757161
 31
0.0
  0
LINE
  5
35B27
330
747D
100
AcDbEntity
  8
寸法
 48
50.0
100
AcDbLine
 10
38561.15194312604
 20
-27793.35562644015
 30
0.0
 11
38668.88531370902
 21
-27764.48855679455
 31
0.0
  0
TEXT
  5
35B28
330
747D
100
AcDbEntity
  8
寸法
 62
     7
100
AcDbText
 10
38450.3916648538
 20
-29093.38075440832
 30
0.0
 40
90.0
  1
A
  7
STYLE1
100
AcDbText
  0
LINE
  5
35B29
330
747D
100
AcDbEntity
  8
寸法
 48
50.0
100
AcDbLine
 10
38668.88531370902
 20
-29080.02062104599
 30
0.0
 11
38668.88531370902
 21
-29014.08600212444
 31
0.0
  0
LINE
  5
35B2A
330
747D
100
AcDbEntity
  8
寸法
 48
50.0
100
AcDbLine
 10
38561.15194312604
 20
-29051.1535514004
 30
0.0
 11
38668.88531370902
 21
-29080.02062104599
 31
0.0
  0
LINE
  5
35B2B
330
747D
100
AcDbEntity
  8
寸法
 48
50.0
100
AcDbLine
 10
38815.28577387496
 20
-29051.1535514004
 30
0.0
 11
38561.15194312604
 21
-29051.1535514004
 31
0.0
  0
LEADER
  5
35B3C
330
747D
100
AcDbEntity
  8
寸法
 48
50.0
100
AcDbLeader
  3
INABA_S50G
 76
     3
 10
41515.28577387495
 20
-28272.25458892027
 30
0.0
 10
40903.77153489453
 20
-29331.42832038616
 30
0.0
 10
40050.88312592739
 20
-29331.42832038616
 30
0.0
1001
ACAD
1000
DSTYLE
1002
{
1070
    41
1040
80.0
1070
   147
1040
25.0
1070
    77
1070
     0
1002
}
  0
TEXT
  5
35B3D
330
747D
100
AcDbEntity
  8
寸法
 62
     7
100
AcDbText
 10
40073.42967450374
 20
-29296.92832038617
 30
0.0
 40
90.0
  1
ｱﾝｶｰﾎﾞﾙﾄ(市販品)
  7
STYLE1
100
AcDbText
  0
DIMENSION
  5
35B52
330
747D
100
AcDbEntity
  8
寸法
 48
50.0
100
AcDbDimension
  2
*D32
 10
38074.41393716373
 20
-27872.25458892029
 30
0.0
 11
38074.41393716374
 21
-27695.21915584942
 31
0.0
 70
   160
 71
     5
 42
99.99999999997818
  3
INABA_S30G
100
AcDbAlignedDimension
 13
38415.28577387495
 23
-27972.25458892027
 33
0.0
 14
38415.28577387496
 24
-27872.25458892029
 34
0.0
 50
90.0
100
AcDbRotatedDimension
  0
ENDSEC
  0
SECTION
  2
OBJECTS
  0
DICTIONARY
  5
7471
330
0
100
AcDbDictionary
281
     1
  3
ACAD_COLOR
350
11754
  3
ACAD_GROUP
350
7472
  3
ACAD_LAYOUT
350
11755
  3
ACAD_MATERIAL
350
11753
  3
ACAD_MLINESTYLE
350
7473
  3
ACAD_PLOTSETTINGS
350
11756
  3
ACAD_PLOTSTYLENAME
350
11751
  3
ACDBHEADERROUNDTRIPXREC
350
35B7F
  3
AcDbVariableDictionary
350
35B7B
  3
CONTENTDICTIONARY
350
E71C
  3
DRAWINGVARIABLESDICT
350
F3B9
  0
DICTIONARY
  5
11827
330
7467
100
AcDbDictionary
280
     1
281
     1
  3
ACAD_LAYERFILTERS
360
135F4
  3
ACAD_LAYERSTATES
360
11828
  0
DICTIONARY
  5
11754
102
{ACAD_REACTORS
330
7471
102
}
330
7471
100
AcDbDictionary
281
     1
  0
DICTIONARY
  5
7472
102
{ACAD_REACTORS
330
7471
102
}
330
7471
100
AcDbDictionary
281
     1
  3
*A1
350
154E2
  3
*A10
350
32674
  3
*A100
350
32673
  3
*A101
350
273ED
  3
*A102
350
344A1
  3
*A103
350
35547
  3
*A104
350
35538
  3
*A105
350
35950
  3
*A106
350
3267A
  3
*A107
350
35951
  3
*A108
350
290DD
  3
*A109
350
3506D
  3
*A11
350
29263
  3
*A110
350
35952
  3
*A111
350
33AFC
  3
*A112
350
3553C
  3
*A113
350
273F2
  3
*A114
350
3296D
  3
*A115
350
35953
  3
*A116
350
35954
  3
*A117
350
35539
  3
*A118
350
35955
  3
*A119
350
344A2
  3
*A12
350
33318
  3
*A120
350
32071
  3
*A121
350
3372B
  3
*A122
350
33B5F
  3
*A123
350
344A4
  3
*A124
350
3372F
  3
*A125
350
35956
  3
*A126
350
33B8E
  3
*A127
350
275D5
  3
*A128
350
3372C
  3
*A129
350
3449F
  3
*A13
350
32073
  3
*A130
350
3372D
  3
*A131
350
32DEF
  3
*A132
350
3267B
  3
*A133
350
2925F
  3
*A134
350
32DF0
  3
*A135
350
2925A
  3
*A136
350
33737
  3
*A137
350
33738
  3
*A138
350
35072
  3
*A139
350
33310
  3
*A14
350
35071
  3
*A140
350
275D8
  3
*A141
350
3553A
  3
*A142
350
3506E
  3
*A143
350
33739
  3
*A144
350
3373A
  3
*A145
350
24FDC
  3
*A146
350
35943
  3
*A147
350
24FE6
  3
*A148
350
33729
  3
*A149
350
2925B
  3
*A15
350
3408E
  3
*A150
350
3373B
  3
*A151
350
3373C
  3
*A152
350
3373D
  3
*A153
350
3553B
  3
*A154
350
32679
  3
*A155
350
33B90
  3
*A156
350
32072
  3
*A157
350
33312
  3
*A158
350
33B91
  3
*A159
350
15535
  3
*A16
350
32962
  3
*A160
350
33B92
  3
*A161
350
27401
  3
*A162
350
275D4
  3
*A163
350
33AF6
  3
*A164
350
344A5
  3
*A165
350
32DE5
  3
*A166
350
3267C
  3
*A167
350
273F7
  3
*A168
350
35946
  3
*A169
350
33AF7
  3
*A17
350
3331D
  3
*A170
350
35078
  3
*A171
350
2925C
  3
*A172
350
30D61
  3
*A173
350
32DE2
  3
*A174
350
30D65
  3
*A175
350
35548
  3
*A176
350
32DE9
  3
*A177
350
275D7
  3
*A178
350
3206A
  3
*A179
350
35073
  3
*A18
350
33734
  3
*A180
350
32DF4
  3
*A181
350
3297C
  3
*A182
350
32074
  3
*A183
350
33AFA
  3
*A184
350
32075
  3
*A185
350
2926A
  3
*A186
350
32076
  3
*A187
350
32DE7
  3
*A188
350
3553D
  3
*A189
350
3506C
  3
*A19
350
34497
  3
*A190
350
33730
  3
*A191
350
3206B
  3
*A192
350
35942
  3
*A193
350
27412
  3
*A194
350
3331C
  3
*A195
350
273FC
  3
*A196
350
35076
  3
*A197
350
33AF8
  3
*A198
350
32077
  3
*A199
350
32DE3
  3
*A2
350
32DF3
  3
*A20
350
34498
  3
*A200
350
3553E
  3
*A201
350
3266F
  3
*A202
350
32670
  3
*A203
350
33B93
  3
*A204
350
290EE
  3
*A205
350
2926B
  3
*A206
350
344A6
  3
*A207
350
29246
  3
*A208
350
32DE6
  3
*A209
350
33732
  3
*A21
350
32956
  3
*A210
350
29247
  3
*A211
350
32DE8
  3
*A212
350
3507B
  3
*A213
350
3293D
  3
*A214
350
3372E
  3
*A215
350
32947
  3
*A216
350
32671
  3
*A217
350
35075
  3
*A218
350
35947
  3
*A219
350
32672
  3
*A22
350
34499
  3
*A220
350
3299E
  3
*A221
350
3299F
  3
*A222
350
272AF
  3
*A223
350
32676
  3
*A224
350
33736
  3
*A225
350
33B94
  3
*A226
350
33AF9
  3
*A227
350
329A0
  3
*A228
350
329A1
  3
*A229
350
35070
  3
*A23
350
3206E
  3
*A230
350
2925E
  3
*A231
350
2740E
  3
*A232
350
344A3
  3
*A233
350
329A2
  3
*A234
350
33314
  3
*A235
350
329A3
  3
*A236
350
33B95
  3
*A237
350
35074
  3
*A238
350
32DEA
  3
*A239
350
344A7
  3
*A24
350
33B96
  3
*A240
350
32DEB
  3
*A241
350
344A8
  3
*A242
350
32DEC
  3
*A243
350
32DED
  3
*A244
350
35079
  3
*A245
350
329A4
  3
*A246
350
33733
  3
*A25
350
35948
  3
*A26
350
35077
  3
*A27
350
3449A
  3
*A28
350
3206F
  3
*A29
350
329A5
  3
*A3
350
32DF2
  3
*A30
350
3507A
  3
*A31
350
3449B
  3
*A32
350
35944
  3
*A33
350
3449C
  3
*A34
350
3206C
  3
*A35
350
3372A
  3
*A36
350
3449D
  3
*A37
350
3449E
  3
*A38
350
33AFD
  3
*A39
350
32675
  3
*A4
350
3553F
  3
*A40
350
3331A
  3
*A41
350
32DE1
  3
*A42
350
344A9
  3
*A43
350
27416
  3
*A44
350
344AA
  3
*A45
350
3594A
  3
*A46
350
32677
  3
*A47
350
32DF1
  3
*A48
350
2925D
  3
*A49
350
33319
  3
*A5
350
3206D
  3
*A50
350
344AB
  3
*A51
350
33311
  3
*A52
350
344AC
  3
*A53
350
33AFF
  3
*A54
350
329A6
  3
*A55
350
35067
  3
*A56
350
35945
  3
*A57
350
272B4
  3
*A58
350
35068
  3
*A59
350
35069
  3
*A6
350
32DEE
  3
*A60
350
35534
  3
*A61
350
3295B
  3
*A62
350
33315
  3
*A63
350
35535
  3
*A64
350
35949
  3
*A65
350
33313
  3
*A66
350
275D6
  3
*A67
350
3594B
  3
*A68
350
33731
  3
*A69
350
35536
  3
*A7
350
32951
  3
*A70
350
35537
  3
*A71
350
3506A
  3
*A72
350
27417
  3
*A73
350
32070
  3
*A74
350
3331B
  3
*A75
350
35540
  3
*A76
350
35541
  3
*A77
350
32DE4
  3
*A78
350
3506B
  3
*A79
350
3299D
  3
*A8
350
33316
  3
*A80
350
32DE0
  3
*A81
350
35542
  3
*A82
350
35543
  3
*A83
350
33AFB
  3
*A84
350
35544
  3
*A85
350
344A0
  3
*A86
350
33B8F
  3
*A87
350
35545
  3
*A88
350
32678
  3
*A89
350
35546
  3
*A9
350
33317
  3
*A90
350
33AFE
  3
*A91
350
35AF2
  3
*A92
350
33735
  3
*A93
350
3594C
  3
*A94
350
3506F
  3
*A95
350
3594D
  3
*A96
350
3594E
  3
*A97
350
3594F
  3
*A98
350
33B8D
  3
*A99
350
3296C
  0
DICTIONARY
  5
11755
102
{ACAD_REACTORS
330
7471
102
}
330
7471
100
AcDbDictionary
281
     1
  3
Model
350
11757
  3
レイアウト1
350
11758
  0
DICTIONARY
  5
11753
102
{ACAD_REACTORS
330
7471
102
}
330
7471
100
AcDbDictionary
281
     1
  0
DICTIONARY
  5
7473
102
{ACAD_REACTORS
330
7471
102
}
330
7471
100
AcDbDictionary
281
     1
  3
STANDARD
350
7480
  0
DICTIONARY
  5
11756
102
{ACAD_REACTORS
330
7471
102
}
330
7471
100
AcDbDictionary
281
     1
  0
ACDBDICTIONARYWDFLT
  5
11751
102
{ACAD_REACTORS
330
7471
102
}
330
7471
100
AcDbDictionary
281
     1
  3
Normal
350
11752
100
AcDbDictionaryWithDefault
340
11752
  0
DICTIONARY
  5
35B7F
102
{ACAD_REACTORS
330
7471
102
}
330
7471
100
AcDbDictionary
281
     1
  3
COLORDICT
350
35B81
  3
MATERIALDICT
350
35B80
  0
DICTIONARY
  5
35B7B
102
{ACAD_REACTORS
330
7471
102
}
330
7471
100
AcDbDictionary
281
     1
  3
DIMASSOC
350
35B7C
  3
PROJECTNAME
350
35B7D
  0
DICTIONARY
  5
E71C
102
{ACAD_REACTORS
330
7471
102
}
330
7471
100
AcDbDictionary
281
     1
  0
DICTIONARY
  5
F3B9
102
{ACAD_REACTORS
330
7471
102
}
330
7471
100
AcDbDictionary
281
     1
1001
DRAWINGVARIABLESXDATA
1000
POLARMODE
1000
1
  0
DICTIONARY
  5
135F4
102
{ACAD_REACTORS
330
11827
102
}
330
11827
100
AcDbDictionary
281
     1
  0
DICTIONARY
  5
11828
102
{ACAD_REACTORS
330
11827
102
}
330
11827
100
AcDbDictionary
281
     1
  0
GROUP
  5
154E2
102
{ACAD_REACTORS
330
7472
102
}
330
7472
100
AcDbGroup
300

 70
     1
 71
     1
  0
GROUP
  5
32674
102
{ACAD_REACTORS
330
7472
102
}
330
7472
100
AcDbGroup
300

 70
     1
 71
     1
  0
GROUP
  5
32673
102
{ACAD_REACTORS
330
7472
102
}
330
7472
100
AcDbGroup
300

 70
     1
 71
     1
  0
GROUP
  5
273ED
102
{ACAD_REACTORS
330
7472
102
}
330
7472
100
AcDbGroup
300

 70
     1
 71
     1
  0
GROUP
  5
344A1
102
{ACAD_REACTORS
330
7472
102
}
330
7472
100
AcDbGroup
300

 70
     1
 71
     1
  0
GROUP
  5
35547
102
{ACAD_REACTORS
330
7472
102
}
330
7472
100
AcDbGroup
300

 70
     1
 71
     1
  0
GROUP
  5
35538
102
{ACAD_REACTORS
330
7472
102
}
330
7472
100
AcDbGroup
300

 70
     1
 71
     1
  0
GROUP
  5
35950
102
{ACAD_REACTORS
330
7472
102
}
330
7472
100
AcDbGroup
300

 70
     1
 71
     1
  0
GROUP
  5
3267A
102
{ACAD_REACTORS
330
7472
102
}
330
7472
100
AcDbGroup
300

 70
     1
 71
     1
  0
GROUP
  5
35951
102
{ACAD_REACTORS
330
7472
102
}
330
7472
100
AcDbGroup
300

 70
     1
 71
     1
  0
GROUP
  5
290DD
102
{ACAD_REACTORS
330
7472
102
}
330
7472
100
AcDbGroup
300

 70
     1
 71
     1
  0
GROUP
  5
3506D
102
{ACAD_REACTORS
330
7472
102
}
330
7472
100
AcDbGroup
300

 70
     1
 71
     1
  0
GROUP
  5
29263
102
{ACAD_REACTORS
330
7472
102
}
330
7472
100
AcDbGroup
300

 70
     1
 71
     1
  0
GROUP
  5
35952
102
{ACAD_REACTORS
330
7472
102
}
330
7472
100
AcDbGroup
300

 70
     1
 71
     1
  0
GROUP
  5
33AFC
102
{ACAD_REACTORS
330
7472
102
}
330
7472
100
AcDbGroup
300

 70
     1
 71
     1
340
33AE6
340
33AE5
340
33AE4
340
33AE3
  0
GROUP
  5
3553C
102
{ACAD_REACTORS
330
7472
102
}
330
7472
100
AcDbGroup
300

 70
     1
 71
     1
  0
GROUP
  5
273F2
102
{ACAD_REACTORS
330
7472
102
}
330
7472
100
AcDbGroup
300

 70
     1
 71
     1
  0
GROUP
  5
3296D
102
{ACAD_REACTORS
330
7472
102
}
330
7472
100
AcDbGroup
300

 70
     1
 71
     1
  0
GROUP
  5
35953
102
{ACAD_REACTORS
330
7472
102
}
330
7472
100
AcDbGroup
300

 70
     1
 71
     1
  0
GROUP
  5
35954
102
{ACAD_REACTORS
330
7472
102
}
330
7472
100
AcDbGroup
300

 70
     1
 71
     1
  0
GROUP
  5
35539
102
{ACAD_REACTORS
330
7472
102
}
330
7472
100
AcDbGroup
300

 70
     1
 71
     1
  0
GROUP
  5
35955
102
{ACAD_REACTORS
330
7472
102
}
330
7472
100
AcDbGroup
300

 70
     1
 71
     1
  0
GROUP
  5
344A2
102
{ACAD_REACTORS
330
7472
102
}
330
7472
100
AcDbGroup
300

 70
     1
 71
     1
  0
GROUP
  5
33318
102
{ACAD_REACTORS
330
7472
102
}
330
7472
100
AcDbGroup
300

 70
     1
 71
     1
  0
GROUP
  5
32071
102
{ACAD_REACTORS
330
7472
102
}
330
7472
100
AcDbGroup
300

 70
     1
 71
     1
  0
GROUP
  5
3372B
102
{ACAD_REACTORS
330
7472
102
}
330
7472
100
AcDbGroup
300

 70
     1
 71
     1
  0
GROUP
  5
33B5F
102
{ACAD_REACTORS
330
7472
102
}
330
7472
100
AcDbGroup
300

 70
     1
 71
     1
  0
GROUP
  5
344A4
102
{ACAD_REACTORS
330
7472
102
}
330
7472
100
AcDbGroup
300

 70
     1
 71
     1
  0
GROUP
  5
3372F
102
{ACAD_REACTORS
330
7472
102
}
330
7472
100
AcDbGroup
300

 70
     1
 71
     1
  0
GROUP
  5
35956
102
{ACAD_REACTORS
330
7472
102
}
330
7472
100
AcDbGroup
300

 70
     1
 71
     1
  0
GROUP
  5
33B8E
102
{ACAD_REACTORS
330
7472
102
}
330
7472
100
AcDbGroup
300

 70
     1
 71
     1
  0
GROUP
  5
275D5
102
{ACAD_REACTORS
330
7472
102
}
330
7472
100
AcDbGroup
300

 70
     1
 71
     1
  0
GROUP
  5
3372C
102
{ACAD_REACTORS
330
7472
102
}
330
7472
100
AcDbGroup
300

 70
     1
 71
     1
  0
GROUP
  5
3449F
102
{ACAD_REACTORS
330
7472
102
}
330
7472
100
AcDbGroup
300

 70
     1
 71
     1
  0
GROUP
  5
32073
102
{ACAD_REACTORS
330
7472
102
}
330
7472
100
AcDbGroup
300

 70
     1
 71
     1
  0
GROUP
  5
3372D
102
{ACAD_REACTORS
330
7472
102
}
330
7472
100
AcDbGroup
300

 70
     1
 71
     1
  0
GROUP
  5
32DEF
102
{ACAD_REACTORS
330
7472
102
}
330
7472
100
AcDbGroup
300

 70
     1
 71
     1
  0
GROUP
  5
3267B
102
{ACAD_REACTORS
330
7472
102
}
330
7472
100
AcDbGroup
300

 70
     1
 71
     1
  0
GROUP
  5
2925F
102
{ACAD_REACTORS
330
7472
102
}
330
7472
100
AcDbGroup
300

 70
     1
 71
     1
  0
GROUP
  5
32DF0
102
{ACAD_REACTORS
330
7472
102
}
330
7472
100
AcDbGroup
300

 70
     1
 71
     1
  0
GROUP
  5
2925A
102
{ACAD_REACTORS
330
7472
102
}
330
7472
100
AcDbGroup
300

 70
     1
 71
     1
  0
GROUP
  5
33737
102
{ACAD_REACTORS
330
7472
102
}
330
7472
100
AcDbGroup
300

 70
     1
 71
     1
  0
GROUP
  5
33738
102
{ACAD_REACTORS
330
7472
102
}
330
7472
100
AcDbGroup
300

 70
     1
 71
     1
  0
GROUP
  5
35072
102
{ACAD_REACTORS
330
7472
102
}
330
7472
100
AcDbGroup
300

 70
     1
 71
     1
  0
GROUP
  5
33310
102
{ACAD_REACTORS
330
7472
102
}
330
7472
100
AcDbGroup
300

 70
     1
 71
     1
  0
GROUP
  5
35071
102
{ACAD_REACTORS
330
7472
102
}
330
7472
100
AcDbGroup
300

 70
     1
 71
     1
  0
GROUP
  5
275D8
102
{ACAD_REACTORS
330
7472
102
}
330
7472
100
AcDbGroup
300

 70
     1
 71
     1
  0
GROUP
  5
3553A
102
{ACAD_REACTORS
330
7472
102
}
330
7472
100
AcDbGroup
300

 70
     1
 71
     1
  0
GROUP
  5
3506E
102
{ACAD_REACTORS
330
7472
102
}
330
7472
100
AcDbGroup
300

 70
     1
 71
     1
  0
GROUP
  5
33739
102
{ACAD_REACTORS
330
7472
102
}
330
7472
100
AcDbGroup
300

 70
     1
 71
     1
  0
GROUP
  5
3373A
102
{ACAD_REACTORS
330
7472
102
}
330
7472
100
AcDbGroup
300

 70
     1
 71
     1
  0
GROUP
  5
24FDC
102
{ACAD_REACTORS
330
7472
102
}
330
7472
100
AcDbGroup
300

 70
     1
 71
     1
  0
GROUP
  5
35943
102
{ACAD_REACTORS
330
7472
102
}
330
7472
100
AcDbGroup
300

 70
     1
 71
     1
  0
GROUP
  5
24FE6
102
{ACAD_REACTORS
330
7472
102
}
330
7472
100
AcDbGroup
300

 70
     1
 71
     1
  0
GROUP
  5
33729
102
{ACAD_REACTORS
330
7472
102
}
330
7472
100
AcDbGroup
300

 70
     1
 71
     1
  0
GROUP
  5
2925B
102
{ACAD_REACTORS
330
7472
102
}
330
7472
100
AcDbGroup
300

 70
     1
 71
     1
  0
GROUP
  5
3408E
102
{ACAD_REACTORS
330
7472
102
}
330
7472
100
AcDbGroup
300

 70
     1
 71
     1
  0
GROUP
  5
3373B
102
{ACAD_REACTORS
330
7472
102
}
330
7472
100
AcDbGroup
300

 70
     1
 71
     1
  0
GROUP
  5
3373C
102
{ACAD_REACTORS
330
7472
102
}
330
7472
100
AcDbGroup
300

 70
     1
 71
     1
  0
GROUP
  5
3373D
102
{ACAD_REACTORS
330
7472
102
}
330
7472
100
AcDbGroup
300

 70
     1
 71
     1
  0
GROUP
  5
3553B
102
{ACAD_REACTORS
330
7472
102
}
330
7472
100
AcDbGroup
300

 70
     1
 71
     1
  0
GROUP
  5
32679
102
{ACAD_REACTORS
330
7472
102
}
330
7472
100
AcDbGroup
300

 70
     1
 71
     1
  0
GROUP
  5
33B90
102
{ACAD_REACTORS
330
7472
102
}
330
7472
100
AcDbGroup
300

 70
     1
 71
     1
  0
GROUP
  5
32072
102
{ACAD_REACTORS
330
7472
102
}
330
7472
100
AcDbGroup
300

 70
     1
 71
     1
  0
GROUP
  5
33312
102
{ACAD_REACTORS
330
7472
102
}
330
7472
100
AcDbGroup
300

 70
     1
 71
     1
  0
GROUP
  5
33B91
102
{ACAD_REACTORS
330
7472
102
}
330
7472
100
AcDbGroup
300

 70
     1
 71
     1
  0
GROUP
  5
15535
102
{ACAD_REACTORS
330
7472
102
}
330
7472
100
AcDbGroup
300

 70
     1
 71
     1
  0
GROUP
  5
32962
102
{ACAD_REACTORS
330
7472
102
}
330
7472
100
AcDbGroup
300

 70
     1
 71
     1
  0
GROUP
  5
33B92
102
{ACAD_REACTORS
330
7472
102
}
330
7472
100
AcDbGroup
300

 70
     1
 71
     1
  0
GROUP
  5
27401
102
{ACAD_REACTORS
330
7472
102
}
330
7472
100
AcDbGroup
300

 70
     1
 71
     1
  0
GROUP
  5
275D4
102
{ACAD_REACTORS
330
7472
102
}
330
7472
100
AcDbGroup
300

 70
     1
 71
     1
  0
GROUP
  5
33AF6
102
{ACAD_REACTORS
330
7472
102
}
330
7472
100
AcDbGroup
300

 70
     1
 71
     1
340
33ACE
340
33ACF
340
33AD0
340
33AD1
340
33AD2
340
33AD3
340
33ACD
340
33AD4
340
33AD5
  0
GROUP
  5
344A5
102
{ACAD_REACTORS
330
7472
102
}
330
7472
100
AcDbGroup
300

 70
     1
 71
     1
  0
GROUP
  5
32DE5
102
{ACAD_REACTORS
330
7472
102
}
330
7472
100
AcDbGroup
300

 70
     1
 71
     1
  0
GROUP
  5
3267C
102
{ACAD_REACTORS
330
7472
102
}
330
7472
100
AcDbGroup
300

 70
     1
 71
     1
  0
GROUP
  5
273F7
102
{ACAD_REACTORS
330
7472
102
}
330
7472
100
AcDbGroup
300

 70
     1
 71
     1
  0
GROUP
  5
35946
102
{ACAD_REACTORS
330
7472
102
}
330
7472
100
AcDbGroup
300

 70
     1
 71
     1
  0
GROUP
  5
33AF7
102
{ACAD_REACTORS
330
7472
102
}
330
7472
100
AcDbGroup
300

 70
     1
 71
     1
340
33AD7
340
33AD8
340
33AD9
340
33ADA
340
33ADB
340
33ADC
340
33ADD
340
33ADE
340
33ADF
340
33AE0
340
33AE1
340
33AE2
340
33AE3
340
33AE4
340
33AE5
340
33AE6
340
33AE7
340
33AD6
340
33AE8
340
33AE9
340
33AEA
340
33AEB
340
33AEC
340
33AED
340
33AEE
340
33AEF
340
33AF0
340
33AF1
340
33AF2
340
33AF3
340
33AF4
340
33AF5
  0
GROUP
  5
3331D
102
{ACAD_REACTORS
330
7472
102
}
330
7472
100
AcDbGroup
300

 70
     1
 71
     1
  0
GROUP
  5
35078
102
{ACAD_REACTORS
330
7472
102
}
330
7472
100
AcDbGroup
300

 70
     1
 71
     1
  0
GROUP
  5
2925C
102
{ACAD_REACTORS
330
7472
102
}
330
7472
100
AcDbGroup
300

 70
     1
 71
     1
  0
GROUP
  5
30D61
102
{ACAD_REACTORS
330
7472
102
}
330
7472
100
AcDbGroup
300

 70
     1
 71
     1
  0
GROUP
  5
32DE2
102
{ACAD_REACTORS
330
7472
102
}
330
7472
100
AcDbGroup
300

 70
     1
 71
     1
  0
GROUP
  5
30D65
102
{ACAD_REACTORS
330
7472
102
}
330
7472
100
AcDbGroup
300

 70
     1
 71
     1
  0
GROUP
  5
35548
102
{ACAD_REACTORS
330
7472
102
}
330
7472
100
AcDbGroup
300

 70
     1
 71
     1
  0
GROUP
  5
32DE9
102
{ACAD_REACTORS
330
7472
102
}
330
7472
100
AcDbGroup
300

 70
     1
 71
     1
  0
GROUP
  5
275D7
102
{ACAD_REACTORS
330
7472
102
}
330
7472
100
AcDbGroup
300

 70
     1
 71
     1
  0
GROUP
  5
3206A
102
{ACAD_REACTORS
330
7472
102
}
330
7472
100
AcDbGroup
300

 70
     1
 71
     1
  0
GROUP
  5
35073
102
{ACAD_REACTORS
330
7472
102
}
330
7472
100
AcDbGroup
300

 70
     1
 71
     1
  0
GROUP
  5
33734
102
{ACAD_REACTORS
330
7472
102
}
330
7472
100
AcDbGroup
300

 70
     1
 71
     1
  0
GROUP
  5
32DF4
102
{ACAD_REACTORS
330
7472
102
}
330
7472
100
AcDbGroup
300

 70
     1
 71
     1
  0
GROUP
  5
3297C
102
{ACAD_REACTORS
330
7472
102
}
330
7472
100
AcDbGroup
300

 70
     1
 71
     1
  0
GROUP
  5
32074
102
{ACAD_REACTORS
330
7472
102
}
330
7472
100
AcDbGroup
300

 70
     1
 71
     1
  0
GROUP
  5
33AFA
102
{ACAD_REACTORS
330
7472
102
}
330
7472
100
AcDbGroup
300

 70
     1
 71
     1
340
33AEA
340
33AE9
340
33AEC
340
33AEB
340
33AED
340
33AE8
340
33AD6
340
33AE7
  0
GROUP
  5
32075
102
{ACAD_REACTORS
330
7472
102
}
330
7472
100
AcDbGroup
300

 70
     1
 71
     1
  0
GROUP
  5
2926A
102
{ACAD_REACTORS
330
7472
102
}
330
7472
100
AcDbGroup
300

 70
     1
 71
     1
  0
GROUP
  5
32076
102
{ACAD_REACTORS
330
7472
102
}
330
7472
100
AcDbGroup
300

 70
     1
 71
     1
  0
GROUP
  5
32DE7
102
{ACAD_REACTORS
330
7472
102
}
330
7472
100
AcDbGroup
300

 70
     1
 71
     1
  0
GROUP
  5
3553D
102
{ACAD_REACTORS
330
7472
102
}
330
7472
100
AcDbGroup
300

 70
     1
 71
     1
  0
GROUP
  5
3506C
102
{ACAD_REACTORS
330
7472
102
}
330
7472
100
AcDbGroup
300

 70
     1
 71
     1
  0
GROUP
  5
34497
102
{ACAD_REACTORS
330
7472
102
}
330
7472
100
AcDbGroup
300

 70
     1
 71
     1
  0
GROUP
  5
33730
102
{ACAD_REACTORS
330
7472
102
}
330
7472
100
AcDbGroup
300

 70
     1
 71
     1
  0
GROUP
  5
3206B
102
{ACAD_REACTORS
330
7472
102
}
330
7472
100
AcDbGroup
300

 70
     1
 71
     1
  0
GROUP
  5
35942
102
{ACAD_REACTORS
330
7472
102
}
330
7472
100
AcDbGroup
300

 70
     1
 71
     1
  0
GROUP
  5
27412
102
{ACAD_REACTORS
330
7472
102
}
330
7472
100
AcDbGroup
300

 70
     1
 71
     1
  0
GROUP
  5
3331C
102
{ACAD_REACTORS
330
7472
102
}
330
7472
100
AcDbGroup
300

 70
     1
 71
     1
  0
GROUP
  5
273FC
102
{ACAD_REACTORS
330
7472
102
}
330
7472
100
AcDbGroup
300

 70
     1
 71
     1
  0
GROUP
  5
35076
102
{ACAD_REACTORS
330
7472
102
}
330
7472
100
AcDbGroup
300

 70
     1
 71
     1
  0
GROUP
  5
33AF8
102
{ACAD_REACTORS
330
7472
102
}
330
7472
100
AcDbGroup
300

 70
     1
 71
     1
340
33AF2
340
33AF1
340
33AF4
340
33AF3
340
33AF5
340
33AF0
340
33AEF
340
33AEE
  0
GROUP
  5
32077
102
{ACAD_REACTORS
330
7472
102
}
330
7472
100
AcDbGroup
300

 70
     1
 71
     1
  0
GROUP
  5
32DE3
102
{ACAD_REACTORS
330
7472
102
}
330
7472
100
AcDbGroup
300

 70
     1
 71
     1
  0
GROUP
  5
32DF3
102
{ACAD_REACTORS
330
7472
102
}
330
7472
100
AcDbGroup
300

 70
     1
 71
     1
  0
GROUP
  5
34498
102
{ACAD_REACTORS
330
7472
102
}
330
7472
100
AcDbGroup
300

 70
     1
 71
     1
  0
GROUP
  5
3553E
102
{ACAD_REACTORS
330
7472
102
}
330
7472
100
AcDbGroup
300

 70
     1
 71
     1
  0
GROUP
  5
3266F
102
{ACAD_REACTORS
330
7472
102
}
330
7472
100
AcDbGroup
300

 70
     1
 71
     1
  0
GROUP
  5
32670
102
{ACAD_REACTORS
330
7472
102
}
330
7472
100
AcDbGroup
300

 70
     1
 71
     1
  0
GROUP
  5
33B93
102
{ACAD_REACTORS
330
7472
102
}
330
7472
100
AcDbGroup
300

 70
     1
 71
     1
  0
GROUP
  5
290EE
102
{ACAD_REACTORS
330
7472
102
}
330
7472
100
AcDbGroup
300

 70
     1
 71
     1
  0
GROUP
  5
2926B
102
{ACAD_REACTORS
330
7472
102
}
330
7472
100
AcDbGroup
300

 70
     1
 71
     1
  0
GROUP
  5
344A6
102
{ACAD_REACTORS
330
7472
102
}
330
7472
100
AcDbGroup
300

 70
     1
 71
     1
  0
GROUP
  5
29246
102
{ACAD_REACTORS
330
7472
102
}
330
7472
100
AcDbGroup
300

 70
     1
 71
     1
  0
GROUP
  5
32DE6
102
{ACAD_REACTORS
330
7472
102
}
330
7472
100
AcDbGroup
300

 70
     1
 71
     1
  0
GROUP
  5
33732
102
{ACAD_REACTORS
330
7472
102
}
330
7472
100
AcDbGroup
300

 70
     1
 71
     1
  0
GROUP
  5
32956
102
{ACAD_REACTORS
330
7472
102
}
330
7472
100
AcDbGroup
300

 70
     1
 71
     1
  0
GROUP
  5
29247
102
{ACAD_REACTORS
330
7472
102
}
330
7472
100
AcDbGroup
300

 70
     1
 71
     1
  0
GROUP
  5
32DE8
102
{ACAD_REACTORS
330
7472
102
}
330
7472
100
AcDbGroup
300

 70
     1
 71
     1
  0
GROUP
  5
3507B
102
{ACAD_REACTORS
330
7472
102
}
330
7472
100
AcDbGroup
300

 70
     1
 71
     1
  0
GROUP
  5
3293D
102
{ACAD_REACTORS
330
7472
102
}
330
7472
100
AcDbGroup
300

 70
     1
 71
     1
  0
GROUP
  5
3372E
102
{ACAD_REACTORS
330
7472
102
}
330
7472
100
AcDbGroup
300

 70
     1
 71
     1
  0
GROUP
  5
32947
102
{ACAD_REACTORS
330
7472
102
}
330
7472
100
AcDbGroup
300

 70
     1
 71
     1
  0
GROUP
  5
32671
102
{ACAD_REACTORS
330
7472
102
}
330
7472
100
AcDbGroup
300

 70
     1
 71
     1
  0
GROUP
  5
35075
102
{ACAD_REACTORS
330
7472
102
}
330
7472
100
AcDbGroup
300

 70
     1
 71
     1
  0
GROUP
  5
35947
102
{ACAD_REACTORS
330
7472
102
}
330
7472
100
AcDbGroup
300

 70
     1
 71
     1
  0
GROUP
  5
32672
102
{ACAD_REACTORS
330
7472
102
}
330
7472
100
AcDbGroup
300

 70
     1
 71
     1
  0
GROUP
  5
34499
102
{ACAD_REACTORS
330
7472
102
}
330
7472
100
AcDbGroup
300

 70
     1
 71
     1
  0
GROUP
  5
3299E
102
{ACAD_REACTORS
330
7472
102
}
330
7472
100
AcDbGroup
300

 70
     1
 71
     1
  0
GROUP
  5
3299F
102
{ACAD_REACTORS
330
7472
102
}
330
7472
100
AcDbGroup
300

 70
     1
 71
     1
  0
GROUP
  5
272AF
102
{ACAD_REACTORS
330
7472
102
}
330
7472
100
AcDbGroup
300

 70
     1
 71
     1
  0
GROUP
  5
32676
102
{ACAD_REACTORS
330
7472
102
}
330
7472
100
AcDbGroup
300

 70
     1
 71
     1
  0
GROUP
  5
33736
102
{ACAD_REACTORS
330
7472
102
}
330
7472
100
AcDbGroup
300

 70
     1
 71
     1
  0
GROUP
  5
33B94
102
{ACAD_REACTORS
330
7472
102
}
330
7472
100
AcDbGroup
300

 70
     1
 71
     1
  0
GROUP
  5
33AF9
102
{ACAD_REACTORS
330
7472
102
}
330
7472
100
AcDbGroup
300

 70
     1
 71
     1
340
33AF4
340
33AF3
340
33AF5
  0
GROUP
  5
329A0
102
{ACAD_REACTORS
330
7472
102
}
330
7472
100
AcDbGroup
300

 70
     1
 71
     1
  0
GROUP
  5
329A1
102
{ACAD_REACTORS
330
7472
102
}
330
7472
100
AcDbGroup
300

 70
     1
 71
     1
  0
GROUP
  5
35070
102
{ACAD_REACTORS
330
7472
102
}
330
7472
100
AcDbGroup
300

 70
     1
 71
     1
  0
GROUP
  5
3206E
102
{ACAD_REACTORS
330
7472
102
}
330
7472
100
AcDbGroup
300

 70
     1
 71
     1
  0
GROUP
  5
2925E
102
{ACAD_REACTORS
330
7472
102
}
330
7472
100
AcDbGroup
300

 70
     1
 71
     1
  0
GROUP
  5
2740E
102
{ACAD_REACTORS
330
7472
102
}
330
7472
100
AcDbGroup
300

 70
     1
 71
     1
  0
GROUP
  5
344A3
102
{ACAD_REACTORS
330
7472
102
}
330
7472
100
AcDbGroup
300

 70
     1
 71
     1
  0
GROUP
  5
329A2
102
{ACAD_REACTORS
330
7472
102
}
330
7472
100
AcDbGroup
300

 70
     1
 71
     1
  0
GROUP
  5
33314
102
{ACAD_REACTORS
330
7472
102
}
330
7472
100
AcDbGroup
300

 70
     1
 71
     1
  0
GROUP
  5
329A3
102
{ACAD_REACTORS
330
7472
102
}
330
7472
100
AcDbGroup
300

 70
     1
 71
     1
  0
GROUP
  5
33B95
102
{ACAD_REACTORS
330
7472
102
}
330
7472
100
AcDbGroup
300

 70
     1
 71
     1
  0
GROUP
  5
35074
102
{ACAD_REACTORS
330
7472
102
}
330
7472
100
AcDbGroup
300

 70
     1
 71
     1
  0
GROUP
  5
32DEA
102
{ACAD_REACTORS
330
7472
102
}
330
7472
100
AcDbGroup
300

 70
     1
 71
     1
  0
GROUP
  5
344A7
102
{ACAD_REACTORS
330
7472
102
}
330
7472
100
AcDbGroup
300

 70
     1
 71
     1
  0
GROUP
  5
33B96
102
{ACAD_REACTORS
330
7472
102
}
330
7472
100
AcDbGroup
300

 70
     1
 71
     1
  0
GROUP
  5
32DEB
102
{ACAD_REACTORS
330
7472
102
}
330
7472
100
AcDbGroup
300

 70
     1
 71
     1
  0
GROUP
  5
344A8
102
{ACAD_REACTORS
330
7472
102
}
330
7472
100
AcDbGroup
300

 70
     1
 71
     1
  0
GROUP
  5
32DEC
102
{ACAD_REACTORS
330
7472
102
}
330
7472
100
AcDbGroup
300

 70
     1
 71
     1
  0
GROUP
  5
32DED
102
{ACAD_REACTORS
330
7472
102
}
330
7472
100
AcDbGroup
300

 70
     1
 71
     1
  0
GROUP
  5
35079
102
{ACAD_REACTORS
330
7472
102
}
330
7472
100
AcDbGroup
300

 70
     1
 71
     1
  0
GROUP
  5
329A4
102
{ACAD_REACTORS
330
7472
102
}
330
7472
100
AcDbGroup
300

 70
     1
 71
     1
  0
GROUP
  5
33733
102
{ACAD_REACTORS
330
7472
102
}
330
7472
100
AcDbGroup
300

 70
     1
 71
     1
  0
GROUP
  5
35948
102
{ACAD_REACTORS
330
7472
102
}
330
7472
100
AcDbGroup
300

 70
     1
 71
     1
  0
GROUP
  5
35077
102
{ACAD_REACTORS
330
7472
102
}
330
7472
100
AcDbGroup
300

 70
     1
 71
     1
  0
GROUP
  5
3449A
102
{ACAD_REACTORS
330
7472
102
}
330
7472
100
AcDbGroup
300

 70
     1
 71
     1
  0
GROUP
  5
3206F
102
{ACAD_REACTORS
330
7472
102
}
330
7472
100
AcDbGroup
300

 70
     1
 71
     1
  0
GROUP
  5
329A5
102
{ACAD_REACTORS
330
7472
102
}
330
7472
100
AcDbGroup
300

 70
     1
 71
     1
  0
GROUP
  5
32DF2
102
{ACAD_REACTORS
330
7472
102
}
330
7472
100
AcDbGroup
300

 70
     1
 71
     1
  0
GROUP
  5
3507A
102
{ACAD_REACTORS
330
7472
102
}
330
7472
100
AcDbGroup
300

 70
     1
 71
     1
  0
GROUP
  5
3449B
102
{ACAD_REACTORS
330
7472
102
}
330
7472
100
AcDbGroup
300

 70
     1
 71
     1
  0
GROUP
  5
35944
102
{ACAD_REACTORS
330
7472
102
}
330
7472
100
AcDbGroup
300

 70
     1
 71
     1
  0
GROUP
  5
3449C
102
{ACAD_REACTORS
330
7472
102
}
330
7472
100
AcDbGroup
300

 70
     1
 71
     1
  0
GROUP
  5
3206C
102
{ACAD_REACTORS
330
7472
102
}
330
7472
100
AcDbGroup
300

 70
     1
 71
     1
  0
GROUP
  5
3372A
102
{ACAD_REACTORS
330
7472
102
}
330
7472
100
AcDbGroup
300

 70
     1
 71
     1
  0
GROUP
  5
3449D
102
{ACAD_REACTORS
330
7472
102
}
330
7472
100
AcDbGroup
300

 70
     1
 71
     1
  0
GROUP
  5
3449E
102
{ACAD_REACTORS
330
7472
102
}
330
7472
100
AcDbGroup
300

 70
     1
 71
     1
  0
GROUP
  5
33AFD
102
{ACAD_REACTORS
330
7472
102
}
330
7472
100
AcDbGroup
300

 70
     1
 71
     1
340
33AE1
340
33AE2
340
33AE0
340
33ADF
  0
GROUP
  5
32675
102
{ACAD_REACTORS
330
7472
102
}
330
7472
100
AcDbGroup
300

 70
     1
 71
     1
  0
GROUP
  5
3553F
102
{ACAD_REACTORS
330
7472
102
}
330
7472
100
AcDbGroup
300

 70
     1
 71
     1
  0
GROUP
  5
3331A
102
{ACAD_REACTORS
330
7472
102
}
330
7472
100
AcDbGroup
300

 70
     1
 71
     1
  0
GROUP
  5
32DE1
102
{ACAD_REACTORS
330
7472
102
}
330
7472
100
AcDbGroup
300

 70
     1
 71
     1
  0
GROUP
  5
344A9
102
{ACAD_REACTORS
330
7472
102
}
330
7472
100
AcDbGroup
300

 70
     1
 71
     1
  0
GROUP
  5
27416
102
{ACAD_REACTORS
330
7472
102
}
330
7472
100
AcDbGroup
300

 70
     1
 71
     1
  0
GROUP
  5
344AA
102
{ACAD_REACTORS
330
7472
102
}
330
7472
100
AcDbGroup
300

 70
     1
 71
     1
  0
GROUP
  5
3594A
102
{ACAD_REACTORS
330
7472
102
}
330
7472
100
AcDbGroup
300

 70
     1
 71
     1
  0
GROUP
  5
32677
102
{ACAD_REACTORS
330
7472
102
}
330
7472
100
AcDbGroup
300

 70
     1
 71
     1
  0
GROUP
  5
32DF1
102
{ACAD_REACTORS
330
7472
102
}
330
7472
100
AcDbGroup
300

 70
     1
 71
     1
  0
GROUP
  5
2925D
102
{ACAD_REACTORS
330
7472
102
}
330
7472
100
AcDbGroup
300

 70
     1
 71
     1
  0
GROUP
  5
33319
102
{ACAD_REACTORS
330
7472
102
}
330
7472
100
AcDbGroup
300

 70
     1
 71
     1
  0
GROUP
  5
3206D
102
{ACAD_REACTORS
330
7472
102
}
330
7472
100
AcDbGroup
300

 70
     1
 71
     1
  0
GROUP
  5
344AB
102
{ACAD_REACTORS
330
7472
102
}
330
7472
100
AcDbGroup
300

 70
     1
 71
     1
  0
GROUP
  5
33311
102
{ACAD_REACTORS
330
7472
102
}
330
7472
100
AcDbGroup
300

 70
     1
 71
     1
  0
GROUP
  5
344AC
102
{ACAD_REACTORS
330
7472
102
}
330
7472
100
AcDbGroup
300

 70
     1
 71
     1
  0
GROUP
  5
33AFF
102
{ACAD_REACTORS
330
7472
102
}
330
7472
100
AcDbGroup
300

 70
     1
 71
     1
340
33AD9
340
33ADA
340
33AD8
340
33AD7
  0
GROUP
  5
329A6
102
{ACAD_REACTORS
330
7472
102
}
330
7472
100
AcDbGroup
300

 70
     1
 71
     1
  0
GROUP
  5
35067
102
{ACAD_REACTORS
330
7472
102
}
330
7472
100
AcDbGroup
300

 70
     1
 71
     1
  0
GROUP
  5
35945
102
{ACAD_REACTORS
330
7472
102
}
330
7472
100
AcDbGroup
300

 70
     1
 71
     1
  0
GROUP
  5
272B4
102
{ACAD_REACTORS
330
7472
102
}
330
7472
100
AcDbGroup
300

 70
     1
 71
     1
  0
GROUP
  5
35068
102
{ACAD_REACTORS
330
7472
102
}
330
7472
100
AcDbGroup
300

 70
     1
 71
     1
  0
GROUP
  5
35069
102
{ACAD_REACTORS
330
7472
102
}
330
7472
100
AcDbGroup
300

 70
     1
 71
     1
  0
GROUP
  5
32DEE
102
{ACAD_REACTORS
330
7472
102
}
330
7472
100
AcDbGroup
300

 70
     1
 71
     1
  0
GROUP
  5
35534
102
{ACAD_REACTORS
330
7472
102
}
330
7472
100
AcDbGroup
300

 70
     1
 71
     1
  0
GROUP
  5
3295B
102
{ACAD_REACTORS
330
7472
102
}
330
7472
100
AcDbGroup
300

 70
     1
 71
     1
  0
GROUP
  5
33315
102
{ACAD_REACTORS
330
7472
102
}
330
7472
100
AcDbGroup
300

 70
     1
 71
     1
  0
GROUP
  5
35535
102
{ACAD_REACTORS
330
7472
102
}
330
7472
100
AcDbGroup
300

 70
     1
 71
     1
  0
GROUP
  5
35949
102
{ACAD_REACTORS
330
7472
102
}
330
7472
100
AcDbGroup
300

 70
     1
 71
     1
  0
GROUP
  5
33313
102
{ACAD_REACTORS
330
7472
102
}
330
7472
100
AcDbGroup
300

 70
     1
 71
     1
  0
GROUP
  5
275D6
102
{ACAD_REACTORS
330
7472
102
}
330
7472
100
AcDbGroup
300

 70
     1
 71
     1
  0
GROUP
  5
3594B
102
{ACAD_REACTORS
330
7472
102
}
330
7472
100
AcDbGroup
300

 70
     1
 71
     1
  0
GROUP
  5
33731
102
{ACAD_REACTORS
330
7472
102
}
330
7472
100
AcDbGroup
300

 70
     1
 71
     1
  0
GROUP
  5
35536
102
{ACAD_REACTORS
330
7472
102
}
330
7472
100
AcDbGroup
300

 70
     1
 71
     1
  0
GROUP
  5
32951
102
{ACAD_REACTORS
330
7472
102
}
330
7472
100
AcDbGroup
300

 70
     1
 71
     1
  0
GROUP
  5
35537
102
{ACAD_REACTORS
330
7472
102
}
330
7472
100
AcDbGroup
300

 70
     1
 71
     1
  0
GROUP
  5
3506A
102
{ACAD_REACTORS
330
7472
102
}
330
7472
100
AcDbGroup
300

 70
     1
 71
     1
  0
GROUP
  5
27417
102
{ACAD_REACTORS
330
7472
102
}
330
7472
100
AcDbGroup
300

 70
     1
 71
     1
  0
GROUP
  5
32070
102
{ACAD_REACTORS
330
7472
102
}
330
7472
100
AcDbGroup
300

 70
     1
 71
     1
  0
GROUP
  5
3331B
102
{ACAD_REACTORS
330
7472
102
}
330
7472
100
AcDbGroup
300

 70
     1
 71
     1
  0
GROUP
  5
35540
102
{ACAD_REACTORS
330
7472
102
}
330
7472
100
AcDbGroup
300

 70
     1
 71
     1
  0
GROUP
  5
35541
102
{ACAD_REACTORS
330
7472
102
}
330
7472
100
AcDbGroup
300

 70
     1
 71
     1
  0
GROUP
  5
32DE4
102
{ACAD_REACTORS
330
7472
102
}
330
7472
100
AcDbGroup
300

 70
     1
 71
     1
  0
GROUP
  5
3506B
102
{ACAD_REACTORS
330
7472
102
}
330
7472
100
AcDbGroup
300

 70
     1
 71
     1
  0
GROUP
  5
3299D
102
{ACAD_REACTORS
330
7472
102
}
330
7472
100
AcDbGroup
300

 70
     1
 71
     1
  0
GROUP
  5
33316
102
{ACAD_REACTORS
330
7472
102
}
330
7472
100
AcDbGroup
300

 70
     1
 71
     1
340
3310F
340
33110
340
33111
340
33112
340
33113
340
33114
340
33115
340
33116
340
33117
340
33118
340
3310E
340
33119
340
3311A
340
3311B
340
3311C
340
3311D
  0
GROUP
  5
32DE0
102
{ACAD_REACTORS
330
7472
102
}
330
7472
100
AcDbGroup
300

 70
     1
 71
     1
  0
GROUP
  5
35542
102
{ACAD_REACTORS
330
7472
102
}
330
7472
100
AcDbGroup
300

 70
     1
 71
     1
  0
GROUP
  5
35543
102
{ACAD_REACTORS
330
7472
102
}
330
7472
100
AcDbGroup
300

 70
     1
 71
     1
  0
GROUP
  5
33AFB
102
{ACAD_REACTORS
330
7472
102
}
330
7472
100
AcDbGroup
300

 70
     1
 71
     1
340
33AEC
340
33AEB
340
33AED
  0
GROUP
  5
35544
102
{ACAD_REACTORS
330
7472
102
}
330
7472
100
AcDbGroup
300

 70
     1
 71
     1
  0
GROUP
  5
344A0
102
{ACAD_REACTORS
330
7472
102
}
330
7472
100
AcDbGroup
300

 70
     1
 71
     1
  0
GROUP
  5
33B8F
102
{ACAD_REACTORS
330
7472
102
}
330
7472
100
AcDbGroup
300

 70
     1
 71
     1
  0
GROUP
  5
35545
102
{ACAD_REACTORS
330
7472
102
}
330
7472
100
AcDbGroup
300

 70
     1
 71
     1
  0
GROUP
  5
32678
102
{ACAD_REACTORS
330
7472
102
}
330
7472
100
AcDbGroup
300

 70
     1
 71
     1
  0
GROUP
  5
35546
102
{ACAD_REACTORS
330
7472
102
}
330
7472
100
AcDbGroup
300

 70
     1
 71
     1
  0
GROUP
  5
33317
102
{ACAD_REACTORS
330
7472
102
}
330
7472
100
AcDbGroup
300

 70
     1
 71
     1
340
3310B
340
3310A
340
33109
340
33108
340
33107
340
33106
340
33100
340
330FF
340
330FE
340
3310D
340
3310C
340
33105
340
33104
340
33103
340
33102
340
33101
  0
GROUP
  5
33AFE
102
{ACAD_REACTORS
330
7472
102
}
330
7472
100
AcDbGroup
300

 70
     1
 71
     1
340
33ADE
340
33ADD
340
33ADC
340
33ADB
  0
GROUP
  5
35AF2
102
{ACAD_REACTORS
330
7472
102
}
330
7472
100
AcDbGroup
300

 70
     1
 71
     1
340
35AF1
340
35AF0
340
35AEF
340
35AEE
340
35AED
340
35AEC
340
35AEB
340
35AEA
340
35AE9
340
35AE8
340
35AE7
340
35AE6
340
35AE5
340
35AE4
340
35AE3
340
35AE2
340
35AE1
340
35AE0
340
35ADF
340
35ADE
340
35ADD
340
35ADC
340
35ADB
340
35ADA
340
35AD9
340
35AD8
340
35AD7
340
35AD6
340
35AD5
340
35AD4
340
35AD3
340
35AD2
340
35AD1
  0
GROUP
  5
33735
102
{ACAD_REACTORS
330
7472
102
}
330
7472
100
AcDbGroup
300

 70
     1
 71
     1
  0
GROUP
  5
3594C
102
{ACAD_REACTORS
330
7472
102
}
330
7472
100
AcDbGroup
300

 70
     1
 71
     1
  0
GROUP
  5
3506F
102
{ACAD_REACTORS
330
7472
102
}
330
7472
100
AcDbGroup
300

 70
     1
 71
     1
  0
GROUP
  5
3594D
102
{ACAD_REACTORS
330
7472
102
}
330
7472
100
AcDbGroup
300

 70
     1
 71
     1
  0
GROUP
  5
3594E
102
{ACAD_REACTORS
330
7472
102
}
330
7472
100
AcDbGroup
300

 70
     1
 71
     1
  0
GROUP
  5
3594F
102
{ACAD_REACTORS
330
7472
102
}
330
7472
100
AcDbGroup
300

 70
     1
 71
     1
  0
GROUP
  5
33B8D
102
{ACAD_REACTORS
330
7472
102
}
330
7472
100
AcDbGroup
300

 70
     1
 71
     1
  0
GROUP
  5
3296C
102
{ACAD_REACTORS
330
7472
102
}
330
7472
100
AcDbGroup
300

 70
     1
 71
     1
  0
LAYOUT
  5
11757
102
{ACAD_XDICTIONARY
360
35B82
102
}
102
{ACAD_REACTORS
330
11755
102
}
330
11755
100
AcDbPlotSettings
  1

  2
Microsoft Office Document Image Writer
  4
A4
  6

 40
3.174999952316284
 41
3.174999952316284
 42
3.175003051757812
 43
3.17498779296875
 44
209.9733276367187
 45
297.0106506347656
 46
0.0
 47
0.0
 48
0.0
 49
0.0
140
0.0
141
0.0
142
1.0
143
1.0
 70
 11952
 72
     1
 73
     1
 74
     0
  7

 75
     0
147
1.0
148
-3096.011834229277
149
52.59843815948716
100
AcDbLayout
  1
Model
 70
     1
 71
     0
 10
0.0
 20
0.0
 11
12.0
 21
9.0
 12
0.0
 22
0.0
 32
0.0
 14
0.0
 24
0.0
 34
0.0
 15
0.0
 25
0.0
 35
0.0
146
0.0
 13
0.0
 23
0.0
 33
0.0
 16
1.0
 26
0.0
 36
0.0
 17
0.0
 27
1.0
 37
0.0
 76
     0
330
747D
  0
LAYOUT
  5
11758
102
{ACAD_XDICTIONARY
360
35B84
102
}
102
{ACAD_REACTORS
330
11755
102
}
330
11755
100
AcDbPlotSettings
  1

  2
Microsoft Office Document Image Writer
  4

  6

 40
0.0
 41
0.0
 42
0.0
 43
0.0
 44
0.0
 45
0.0
 46
0.0
 47
0.0
 48
0.0
 49
0.0
140
0.0
141
0.0
142
1.0
143
1.0
 70
   688
 72
     0
 73
     0
 74
     5
  7
inaba.ctb
 75
    16
147
1.0
148
0.0
149
0.0
100
AcDbLayout
  1
レイアウト1
 70
     0
 71
     1
 10
0.0
 20
0.0
 11
420.0
 21
297.0
 12
0.0
 22
0.0
 32
0.0
 14
1.000000000000000E+20
 24
1.000000000000000E+20
 34
1.000000000000000E+20
 15
-1.000000000000000E+20
 25
-1.000000000000000E+20
 35
-1.000000000000000E+20
146
0.0
 13
0.0
 23
0.0
 33
0.0
 16
1.0
 26
0.0
 36
0.0
 17
0.0
 27
1.0
 37
0.0
 76
     0
330
747A
  0
MLINESTYLE
  5
7480
102
{ACAD_REACTORS
330
7473
102
}
330
7473
100
AcDbMlineStyle
  2
STANDARD
 70
     0
  3

 62
     0
 51
90.0
 52
90.0
 71
     2
 49
0.5
 62
   256
  6
BYLAYER
 49
-0.5
 62
   256
  6
BYLAYER
  0
ACDBPLACEHOLDER
  5
11752
102
{ACAD_REACTORS
330
11751
102
}
330
11751
  0
XRECORD
  5
35B81
102
{ACAD_REACTORS
330
35B7F
102
}
330
35B7F
100
AcDbXrecord
280
     1
340
11754
  0
XRECORD
  5
35B80
102
{ACAD_REACTORS
330
35B7F
102
}
330
35B7F
100
AcDbXrecord
280
     1
340
11753
  0
DICTIONARYVAR
  5
35B7C
102
{ACAD_REACTORS
330
35B7B
102
}
330
35B7B
100
DictionaryVariables
280
     0
  1
1
  0
DICTIONARYVAR
  5
35B7D
102
{ACAD_REACTORS
330
35B7B
102
}
330
35B7B
100
DictionaryVariables
280
     0
  1

  0
DICTIONARY
  5
35B82
330
11757
100
AcDbDictionary
280
     1
281
     1
  3
ACAD_XREC_ROUNDTRIP
360
35B83
  0
DICTIONARY
  5
35B84
330
11758
100
AcDbDictionary
280
     1
281
     1
  3
ACAD_XREC_ROUNDTRIP
360
35B85
  0
XRECORD
  5
35B83
102
{ACAD_REACTORS
330
35B82
102
}
330
35B82
100
AcDbXrecord
280
     1
102
SHADEPLOT
 70
     0
102
SHADEPLOTRESLEVEL
 70
     2
102
SHADEPLOTCUSTOMDPI
 70
   300
  0
XRECORD
  5
35B85
102
{ACAD_REACTORS
330
35B84
102
}
330
35B84
100
AcDbXrecord
280
     1
102
SHADEPLOT
 70
     0
102
SHADEPLOTRESLEVEL
 70
     2
102
SHADEPLOTCUSTOMDPI
 70
   300
  0
ENDSEC
  0
EOF
