  0
SECTION
  2
HEADER
  9
$ACADVER
  1
AC1015
  9
$ACADMAINTVER
 70
    20
  9
$DWGCODEPAGE
  3
ANSI_932
  9
$INSBASE
 10
0.0
 20
0.0
 30
0.0
  9
$EXTMIN
 10
104.9999999999996
 20
0.0
 30
-0.0000000000013153
  9
$EXTMAX
 10
12230.4
 20
8557.199999999999
 30
0.0000000000013153
  9
$LIMMIN
 10
0.0
 20
0.0
  9
$LIMMAX
 10
12600.0
 20
8910.0
  9
$ORTHOMODE
 70
     0
  9
$REGENMODE
 70
     1
  9
$FILLMODE
 70
     1
  9
$QTEXTMODE
 70
     0
  9
$MIRRTEXT
 70
     1
  9
$LTSCALE
 40
7.0
  9
$ATTMODE
 70
     1
  9
$TEXTSIZE
 40
100.0
  9
$TRACEWID
 40
1.0
  9
$TEXTSTYLE
  7
STYLE3
  9
$CLAYER
  8
点線
  9
$CELTYPE
  6
BYLAYER
  9
$CECOLOR
 62
   256
  9
$CELTSCALE
 40
50.0
  9
$DISPSILH
 70
     0
  9
$DIMSCALE
 40
30.0
  9
$DIMASZ
 40
2.5
  9
$DIMEXO
 40
0.5
  9
$DIMDLI
 40
7.0
  9
$DIMRND
 40
0.0
  9
$DIMDLE
 40
0.0
  9
$DIMEXE
 40
1.5
  9
$DIMTP
 40
0.0
  9
$DIMTM
 40
0.0
  9
$DIMTXT
 40
3.0
  9
$DIMCEN
 40
0.0
  9
$DIMTSZ
 40
0.0
  9
$DIMTOL
 70
     0
  9
$DIMLIM
 70
     0
  9
$DIMTIH
 70
     1
  9
$DIMTOH
 70
     1
  9
$DIMSE1
 70
     0
  9
$DIMSE2
 70
     0
  9
$DIMTAD
 70
     3
  9
$DIMZIN
 70
     8
  9
$DIMBLK
  1

  9
$DIMASO
 70
     1
  9
$DIMSHO
 70
     1
  9
$DIMPOST
  1

  9
$DIMAPOST
  1

  9
$DIMALT
 70
     0
  9
$DIMALTD
 70
     2
  9
$DIMALTF
 40
0.0394
  9
$DIMLFAC
 40
1.0
  9
$DIMTOFL
 70
     1
  9
$DIMTVP
 40
0.0
  9
$DIMTIX
 70
     1
  9
$DIMSOXD
 70
     1
  9
$DIMSAH
 70
     1
  9
$DIMBLK1
  1
DOTSMALL
  9
$DIMBLK2
  1
DOTSMALL
  9
$DIMSTYLE
  2
INABA_S30G
  9
$DIMCLRD
 70
     0
  9
$DIMCLRE
 70
     0
  9
$DIMCLRT
 70
     7
  9
$DIMTFAC
 40
1.0
  9
$DIMGAP
 40
1.0
  9
$DIMJUST
 70
     0
  9
$DIMSD1
 70
     0
  9
$DIMSD2
 70
     0
  9
$DIMTOLJ
 70
     1
  9
$DIMTZIN
 70
     0
  9
$DIMALTZ
 70
     0
  9
$DIMALTTZ
 70
     0
  9
$DIMUPT
 70
     0
  9
$DIMDEC
 70
     1
  9
$DIMTDEC
 70
     1
  9
$DIMALTU
 70
     2
  9
$DIMALTTD
 70
     2
  9
$DIMTXSTY
  7
STYLE1
  9
$DIMAUNIT
 70
     0
  9
$DIMADEC
 70
     0
  9
$DIMALTRND
 40
0.0
  9
$DIMAZIN
 70
     0
  9
$DIMDSEP
 70
    46
  9
$DIMATFIT
 70
     3
  9
$DIMFRAC
 70
     0
  9
$DIMLDRBLK
  1

  9
$DIMLUNIT
 70
     2
  9
$DIMLWD
 70
    -2
  9
$DIMLWE
 70
    -2
  9
$DIMTMOVE
 70
     0
  9
$LUNITS
 70
     2
  9
$LUPREC
 70
     1
  9
$SKETCHINC
 40
1.0
  9
$FILLETRAD
 40
5.0
  9
$AUNITS
 70
     0
  9
$AUPREC
 70
     0
  9
$MENU
  1
acad
  9
$ELEVATION
 40
0.0
  9
$PELEVATION
 40
0.0
  9
$THICKNESS
 40
0.0
  9
$LIMCHECK
 70
     0
  9
$CHAMFERA
 40
0.0
  9
$CHAMFERB
 40
0.0
  9
$CHAMFERC
 40
0.0
  9
$CHAMFERD
 40
0.0
  9
$SKPOLY
 70
     0
  9
$TDCREATE
 40
2451074.411873148
  9
$TDUCREATE
 40
2451074.036873148
  9
$TDUPDATE
 40
2456560.838692176
  9
$TDUUPDATE
 40
2456560.463692176
  9
$TDINDWG
 40
0.3429286111
  9
$TDUSRTIMER
 40
0.3429286111
  9
$USRTIMER
 70
     1
  9
$ANGBASE
 50
0.0
  9
$ANGDIR
 70
     0
  9
$PDMODE
 70
     3
  9
$PDSIZE
 40
2.0
  9
$PLINEWID
 40
0.0
  9
$SPLFRAME
 70
     0
  9
$SPLINETYPE
 70
     6
  9
$SPLINESEGS
 70
     8
  9
$HANDSEED
  5
16D96
  9
$SURFTAB1
 70
     6
  9
$SURFTAB2
 70
     6
  9
$SURFTYPE
 70
     6
  9
$SURFU
 70
     6
  9
$SURFV
 70
     6
  9
$UCSBASE
  2

  9
$UCSNAME
  2

  9
$UCSORG
 10
0.0
 20
0.0
 30
0.0
  9
$UCSXDIR
 10
1.0
 20
0.0
 30
0.0
  9
$UCSYDIR
 10
0.0
 20
1.0
 30
0.0
  9
$UCSORTHOREF
  2

  9
$UCSORTHOVIEW
 70
     0
  9
$UCSORGTOP
 10
0.0
 20
0.0
 30
0.0
  9
$UCSORGBOTTOM
 10
0.0
 20
0.0
 30
0.0
  9
$UCSORGLEFT
 10
0.0
 20
0.0
 30
0.0
  9
$UCSORGRIGHT
 10
0.0
 20
0.0
 30
0.0
  9
$UCSORGFRONT
 10
0.0
 20
0.0
 30
0.0
  9
$UCSORGBACK
 10
0.0
 20
0.0
 30
0.0
  9
$PUCSBASE
  2

  9
$PUCSNAME
  2

  9
$PUCSORG
 10
0.0
 20
0.0
 30
0.0
  9
$PUCSXDIR
 10
1.0
 20
0.0
 30
0.0
  9
$PUCSYDIR
 10
0.0
 20
1.0
 30
0.0
  9
$PUCSORTHOREF
  2

  9
$PUCSORTHOVIEW
 70
     0
  9
$PUCSORGTOP
 10
0.0
 20
0.0
 30
0.0
  9
$PUCSORGBOTTOM
 10
0.0
 20
0.0
 30
0.0
  9
$PUCSORGLEFT
 10
0.0
 20
0.0
 30
0.0
  9
$PUCSORGRIGHT
 10
0.0
 20
0.0
 30
0.0
  9
$PUCSORGFRONT
 10
0.0
 20
0.0
 30
0.0
  9
$PUCSORGBACK
 10
0.0
 20
0.0
 30
0.0
  9
$USERI1
 70
     0
  9
$USERI2
 70
     0
  9
$USERI3
 70
     0
  9
$USERI4
 70
     0
  9
$USERI5
 70
     0
  9
$USERR1
 40
0.0
  9
$USERR2
 40
0.0
  9
$USERR3
 40
0.0
  9
$USERR4
 40
0.0
  9
$USERR5
 40
0.0
  9
$WORLDVIEW
 70
     1
  9
$SHADEDGE
 70
     3
  9
$SHADEDIF
 70
    70
  9
$TILEMODE
 70
     1
  9
$MAXACTVP
 70
    16
  9
$PINSBASE
 10
0.0
 20
0.0
 30
0.0
  9
$PLIMCHECK
 70
     0
  9
$PEXTMIN
 10
1.000000000000000E+20
 20
1.000000000000000E+20
 30
1.000000000000000E+20
  9
$PEXTMAX
 10
-1.000000000000000E+20
 20
-1.000000000000000E+20
 30
-1.000000000000000E+20
  9
$PLIMMIN
 10
0.0
 20
0.0
  9
$PLIMMAX
 10
420.0
 20
297.0
  9
$UNITMODE
 70
     0
  9
$VISRETAIN
 70
     0
  9
$PLINEGEN
 70
     0
  9
$PSLTSCALE
 70
     0
  9
$TREEDEPTH
 70
  3020
  9
$CMLSTYLE
  2
STANDARD
  9
$CMLJUST
 70
     0
  9
$CMLSCALE
 40
1.0
  9
$PROXYGRAPHICS
 70
     1
  9
$MEASUREMENT
 70
     1
  9
$CELWEIGHT
370
    -1
  9
$ENDCAPS
280
     0
  9
$JOINSTYLE
280
     0
  9
$LWDISPLAY
290
     0
  9
$INSUNITS
 70
     0
  9
$HYPERLINKBASE
  1

  9
$STYLESHEET
  1
inaba.ctb
  9
$XEDIT
290
     1
  9
$CEPSNTYPE
380
     0
  9
$PSTYLEMODE
290
     1
  9
$FINGERPRINTGUID
  2
{696AEDA2-CF37-4C16-A548-8F3E259D4281}
  9
$VERSIONGUID
  2
{C5823CAB-BA84-4011-B540-89AC412541D4}
  9
$EXTNAMES
290
     1
  9
$PSVPSCALE
 40
0.0
  9
$OLESTARTUP
290
     0
  0
ENDSEC
  0
SECTION
  2
CLASSES
  0
CLASS
  1
ACDBDICTIONARYWDFLT
  2
AcDbDictionaryWithDefault
  3
ObjectDBX Classes
 90
        0
280
     0
281
     0
  0
CLASS
  1
DICTIONARYVAR
  2
AcDbDictionaryVar
  3
ObjectDBX Classes
 90
        0
280
     0
281
     0
  0
CLASS
  1
MATERIAL
  2
AcDbMaterial
  3
ObjectDBX Classes
 90
     1153
280
     0
281
     0
  0
CLASS
  1
VISUALSTYLE
  2
AcDbVisualStyle
  3
ObjectDBX Classes
 90
     4095
280
     0
281
     0
  0
CLASS
  1
TABLESTYLE
  2
AcDbTableStyle
  3
ObjectDBX Classes
 90
     4095
280
     0
281
     0
  0
CLASS
  1
SCALE
  2
AcDbScale
  3
ObjectDBX Classes
 90
     1153
280
     0
281
     0
  0
CLASS
  1
MLEADERSTYLE
  2
AcDbMLeaderStyle
  3
ACDB_MLEADERSTYLE_CLASS
 90
     4095
280
     0
281
     0
  0
CLASS
  1
ACDBSECTIONVIEWSTYLE
  2
AcDbSectionViewStyle
  3
ObjectDBX Classes
 90
     1025
280
     0
281
     0
  0
CLASS
  1
ACDBDETAILVIEWSTYLE
  2
AcDbDetailViewStyle
  3
ObjectDBX Classes
 90
     1025
280
     0
281
     0
  0
CLASS
  1
EXACXREFPANELOBJECT
  2
ExAcXREFPanelObject
  3
EXAC_ESW
 90
    33793
280
     0
281
     0
  0
CLASS
  1
NPOCOLLECTION
  2
AcDbImpNonPersistentObjectsCollection
  3
ObjectDBX Classes
 90
    33921
280
     0
281
     0
  0
CLASS
  1
CELLSTYLEMAP
  2
AcDbCellStyleMap
  3
ObjectDBX Classes
 90
     1152
280
     0
281
     0
  0
CLASS
  1
ACDBPLACEHOLDER
  2
AcDbPlaceHolder
  3
ObjectDBX Classes
 90
        0
280
     0
281
     0
  0
CLASS
  1
LAYOUT
  2
AcDbLayout
  3
ObjectDBX Classes
 90
        0
280
     0
281
     0
  0
ENDSEC
  0
SECTION
  2
TABLES
  0
TABLE
  2
VPORT
  5
746D
102
{ACAD_XDICTIONARY
360
16C68
102
}
330
0
100
AcDbSymbolTable
 70
     1
  0
VPORT
  5
13E21
330
746D
100
AcDbSymbolTableRecord
100
AcDbViewportTableRecord
  2
*Active
 70
     0
 10
0.0
 20
0.0
 11
1.0
 21
1.0
 12
6167.820768928882
 22
4278.454794902148
 13
0.0
 23
0.0
 14
10.0
 24
10.0
 15
10.0
 25
10.0
 16
0.0
 26
0.0
 36
1.0
 17
0.0
 27
0.0
 37
0.0
 40
8770.065090850325
 41
1.390896921017402
 42
50.0
 43
0.0
 44
0.0
 50
0.0
 51
0.0
 71
     0
 72
     0
 73
     1
 74
     0
 75
     0
 76
     0
 77
     0
 78
     0
281
     0
 65
     1
110
0.0
120
0.0
130
0.0
111
1.0
121
0.0
131
0.0
112
0.0
122
1.0
132
0.0
 79
     0
146
0.0
1001
ACAD_NAV_VCDISPLAY
1070
     3
  0
ENDTAB
  0
TABLE
  2
LTYPE
  5
746A
330
0
100
AcDbSymbolTable
 70
     4
  0
LTYPE
  5
7477
330
746A
100
AcDbSymbolTableRecord
100
AcDbLinetypeTableRecord
  2
BYBLOCK
 70
     0
  3

 72
    65
 73
     0
 40
0.0
  0
LTYPE
  5
7478
330
746A
100
AcDbSymbolTableRecord
100
AcDbLinetypeTableRecord
  2
BYLAYER
 70
     0
  3

 72
    65
 73
     0
 40
0.0
  0
LTYPE
  5
7479
330
746A
100
AcDbSymbolTableRecord
100
AcDbLinetypeTableRecord
  2
CONTINUOUS
 70
     0
  3
Solid line
 72
    65
 73
     0
 40
0.0
  0
LTYPE
  5
781A
330
746A
100
AcDbSymbolTableRecord
100
AcDbLinetypeTableRecord
  2
HIDDEN
 70
     0
  3
__ __ __ __ __ __ __ __ __ __ __ __ __ __ __ __
 72
    65
 73
     2
 40
0.375
 49
0.25
 74
     0
 49
-0.125
 74
     0
  0
LTYPE
  5
781B
330
746A
100
AcDbSymbolTableRecord
100
AcDbLinetypeTableRecord
  2
PHANTOM
 70
     0
  3
______  __  __  ______  __  __  ______  __  __ 
 72
    65
 73
     6
 40
2.5
 49
1.25
 74
     0
 49
-0.25
 74
     0
 49
0.25
 74
     0
 49
-0.25
 74
     0
 49
0.25
 74
     0
 49
-0.25
 74
     0
  0
LTYPE
  5
13571
330
746A
100
AcDbSymbolTableRecord
100
AcDbLinetypeTableRecord
  2
CENTER
 70
     0
  3
Center ____ _ ____ _ ____ _ ____ _ ____ _ ____
 72
    65
 73
     4
 40
50.8
 49
31.75
 74
     0
 49
-6.349999999999999
 74
     0
 49
6.349999999999999
 74
     0
 49
-6.349999999999999
 74
     0
  0
ENDTAB
  0
TABLE
  2
LAYER
  5
7467
102
{ACAD_XDICTIONARY
360
13451
102
}
330
0
100
AcDbSymbolTable
 70
    15
  0
LAYER
  5
7474
102
{ACAD_XDICTIONARY
360
15504
102
}
330
7467
100
AcDbSymbolTableRecord
100
AcDbLayerTableRecord
  2
0
 70
     0
 62
     7
  6
CONTINUOUS
370
    -3
390
1341B
  0
LAYER
  5
DEB3
102
{ACAD_XDICTIONARY
360
15506
102
}
330
7467
100
AcDbSymbolTableRecord
100
AcDbLayerTableRecord
  2
寸法
 70
     0
 62
     4
  6
CONTINUOUS
370
    -3
390
1341B
  0
LAYER
  5
DEB4
102
{ACAD_XDICTIONARY
360
15508
102
}
330
7467
100
AcDbSymbolTableRecord
100
AcDbLayerTableRecord
  2
部品1
 70
     0
 62
     7
  6
CONTINUOUS
370
    -3
390
1341B
  0
LAYER
  5
DEB5
102
{ACAD_XDICTIONARY
360
1550A
102
}
330
7467
100
AcDbSymbolTableRecord
100
AcDbLayerTableRecord
  2
補助
 70
     0
 62
    -1
  6
CONTINUOUS
370
    -3
390
1341B
  0
LAYER
  5
DEB6
102
{ACAD_XDICTIONARY
360
1550C
102
}
330
7467
100
AcDbSymbolTableRecord
100
AcDbLayerTableRecord
  2
文字
 70
     0
 62
     7
  6
CONTINUOUS
370
    -3
390
1341B
  0
LAYER
  5
F255
330
7467
100
AcDbSymbolTableRecord
100
AcDbLayerTableRecord
  2
DEFPOINTS
 70
     0
 62
     7
  6
CONTINUOUS
290
     0
370
    -3
390
1341B
  0
LAYER
  5
10B54
102
{ACAD_XDICTIONARY
360
1550E
102
}
330
7467
100
AcDbSymbolTableRecord
100
AcDbLayerTableRecord
  2
仕様書枠
 70
     0
 62
   230
  6
CONTINUOUS
370
    -3
390
1341B
  0
LAYER
  5
11729
102
{ACAD_XDICTIONARY
360
15510
102
}
330
7467
100
AcDbSymbolTableRecord
100
AcDbLayerTableRecord
  2
Ｇ．Ｌ
 70
     0
 62
    30
  6
CONTINUOUS
370
    -3
390
1341B
  0
LAYER
  5
1173F
102
{ACAD_XDICTIONARY
360
15512
102
}
330
7467
100
AcDbSymbolTableRecord
100
AcDbLayerTableRecord
  2
細線
 70
     0
 62
     5
  6
CONTINUOUS
370
    -3
390
1341B
  0
LAYER
  5
11740
102
{ACAD_XDICTIONARY
360
15514
102
}
330
7467
100
AcDbSymbolTableRecord
100
AcDbLayerTableRecord
  2
点線
 70
     0
 62
     2
  6
HIDDEN
370
    -3
390
1341B
  0
LAYER
  5
1356E
102
{ACAD_XDICTIONARY
360
15516
102
}
330
7467
100
AcDbSymbolTableRecord
100
AcDbLayerTableRecord
  2
センター
 70
     0
 62
     3
  6
CENTER
370
    -3
390
1341B
  0
LAYER
  5
135FB
102
{ACAD_XDICTIONARY
360
15518
102
}
330
7467
100
AcDbSymbolTableRecord
100
AcDbLayerTableRecord
  2
想像線
 70
     0
 62
     6
  6
PHANTOM
370
    -3
390
1341B
  0
LAYER
  5
1382B
102
{ACAD_XDICTIONARY
360
1551A
102
}
330
7467
100
AcDbSymbolTableRecord
100
AcDbLayerTableRecord
  2
U7
 70
     0
 62
     2
  6
CONTINUOUS
370
    -3
390
1341B
  0
LAYER
  5
1382C
102
{ACAD_XDICTIONARY
360
1551C
102
}
330
7467
100
AcDbSymbolTableRecord
100
AcDbLayerTableRecord
  2
KIN-T
 70
     0
 62
     3
  6
CONTINUOUS
370
    -3
390
1341B
  0
LAYER
  5
1382D
102
{ACAD_XDICTIONARY
360
1551E
102
}
330
7467
100
AcDbSymbolTableRecord
100
AcDbLayerTableRecord
  2
CSLAYER17
 70
     0
 62
     7
  6
CONTINUOUS
370
    -3
390
1341B
  0
ENDTAB
  0
TABLE
  2
STYLE
  5
7468
330
0
100
AcDbSymbolTable
 70
     5
  0
STYLE
  5
7475
330
7468
100
AcDbSymbolTableRecord
100
AcDbTextStyleTableRecord
  2
STANDARD
 70
     0
 40
0.0
 41
1.0
 50
0.0
 71
     0
 42
4.0
  3
txt
  4
C:\AutoCAD LT\bigfont.shx
  0
STYLE
  5
763C
330
7468
100
AcDbSymbolTableRecord
100
AcDbTextStyleTableRecord
  2
MSMINCHO
 70
     0
 40
0.0
 41
1.0
 50
0.0
 71
     0
 42
1.199999999999999
  3
C:\AutoCAD LT\msminch2.TTF
  4

  0
STYLE
  5
F706
330
7468
100
AcDbSymbolTableRecord
100
AcDbTextStyleTableRecord
  2
STYLE1
 70
     0
 40
0.0
 41
1.0
 50
0.0
 71
     0
 42
4.0
  3
isocp.shx
  4
bigfont.shx
  0
STYLE
  5
103BF
330
7468
100
AcDbSymbolTableRecord
100
AcDbTextStyleTableRecord
  2
STYLE2
 70
     0
 40
0.0
 41
1.0
 50
0.0
 71
     0
 42
100.0
  3

  4

1001
ACAD
1000
MS PGothic
1071
    32818
  0
STYLE
  5
10BAA
330
7468
100
AcDbSymbolTableRecord
100
AcDbTextStyleTableRecord
  2
STYLE3
 70
     0
 40
0.0
 41
1.0
 50
0.0
 71
     0
 42
100.0
  3

  4

1001
ACAD
1000
MS PGothic
1071
    32818
  0
ENDTAB
  0
TABLE
  2
VIEW
  5
746B
330
0
100
AcDbSymbolTable
 70
     0
  0
ENDTAB
  0
TABLE
  2
UCS
  5
746C
330
0
100
AcDbSymbolTable
 70
     0
  0
ENDTAB
  0
TABLE
  2
APPID
  5
746E
330
0
100
AcDbSymbolTable
 70
    11
  0
APPID
  5
7476
330
746E
100
AcDbSymbolTableRecord
100
AcDbRegAppTableRecord
  2
ACAD
 70
     0
  0
APPID
  5
DEA9
330
746E
100
AcDbSymbolTableRecord
100
AcDbRegAppTableRecord
  2
CONTENTBLOCKICON
 70
     0
  0
APPID
  5
DEAA
330
746E
100
AcDbSymbolTableRecord
100
AcDbRegAppTableRecord
  2
CONTENTBLOCKDESCRIPTION
 70
     0
  0
APPID
  5
E71D
330
746E
100
AcDbSymbolTableRecord
100
AcDbRegAppTableRecord
  2
CONTENTTABDATA
 70
     0
  0
APPID
  5
E71E
330
746E
100
AcDbSymbolTableRecord
100
AcDbRegAppTableRecord
  2
CONTENTCURRENTTAB
 70
     0
  0
APPID
  5
F3BA
330
746E
100
AcDbSymbolTableRecord
100
AcDbRegAppTableRecord
  2
DRAWINGVARIABLESXDATA
 70
     0
  0
APPID
  5
14331
330
746E
100
AcDbSymbolTableRecord
100
AcDbRegAppTableRecord
  2
ACAD_NAV_VCDISPLAY
 70
     0
  0
APPID
  5
14332
330
746E
100
AcDbSymbolTableRecord
100
AcDbRegAppTableRecord
  2
GradientColor1ACI
 70
     0
  0
APPID
  5
14333
330
746E
100
AcDbSymbolTableRecord
100
AcDbRegAppTableRecord
  2
GradientColor2ACI
 70
     0
  0
APPID
  5
16C62
330
746E
100
AcDbSymbolTableRecord
100
AcDbRegAppTableRecord
  2
ACAD_EXEMPT_FROM_CAD_STANDARDS
 70
     0
  0
APPID
  5
16CA2
330
746E
100
AcDbSymbolTableRecord
100
AcDbRegAppTableRecord
  2
ACAD_MLEADERVER
 70
     0
  0
ENDTAB
  0
TABLE
  2
DIMSTYLE
  5
746F
330
0
100
AcDbSymbolTable
 70
     2
100
AcDbDimStyleTable
 71
     1
340
F71F
  0
DIMSTYLE
105
F71F
102
{ACAD_REACTORS
330
15F3E
330
15F3F
330
15F40
330
15F41
330
15F42
330
15F43
330
15F44
330
15F45
330
15F46
330
15FBC
330
15FBD
330
16012
330
16013
330
16014
330
16018
330
16019
330
1601A
330
1603C
330
1603D
330
1603E
330
1603F
330
16049
330
1604A
330
1604B
330
1604C
330
1604D
330
1604E
330
1604F
330
16050
330
16051
330
16052
102
}
330
746F
100
AcDbSymbolTableRecord
100
AcDbDimStyleTableRecord
  2
INABA_S30G
 70
     0
 40
30.0
 41
2.5
 42
0.5
 43
7.0
 44
1.5
 73
     0
 74
     0
 77
     3
 78
     8
140
3.0
141
0.0
143
0.0394
147
1.0
172
     1
173
     1
174
     1
175
     1
178
     7
271
     1
340
F706
341
F770
343
F770
344
F770
  0
DIMSTYLE
105
1382E
330
746F
100
AcDbSymbolTableRecord
100
AcDbDimStyleTableRecord
  2
INABA_S50G
 70
     0
 41
125.0
 42
25.0
 43
7.0
 44
75.0
 73
     0
 74
     0
 77
     3
 78
     8
140
150.0
141
0.0
143
0.0394
147
25.0
172
     1
173
     1
174
     1
178
     7
271
     1
340
F706
341
F770
343
F770
344
F770
  0
ENDTAB
  0
TABLE
  2
BLOCK_RECORD
  5
7466
330
0
100
AcDbSymbolTable
 70
    32
  0
BLOCK_RECORD
  5
747D
330
7466
100
AcDbSymbolTableRecord
100
AcDbBlockTableRecord
  2
*MODEL_SPACE
340
13420
  0
BLOCK_RECORD
  5
747A
330
7466
100
AcDbSymbolTableRecord
100
AcDbBlockTableRecord
  2
*PAPER_SPACE
340
13421
  0
BLOCK_RECORD
  5
F770
330
7466
100
AcDbSymbolTableRecord
100
AcDbBlockTableRecord
  2
_DOTSMALL
340
0
102
{BLKREFS
331
16A30
331
16A31
331
16A3A
331
16A3B
331
16A43
331
16A44
331
16A4C
331
16A4D
331
16A55
331
16A56
331
16A5E
331
16A5F
331
16A67
331
16A68
331
16A72
331
16A73
331
16A7D
331
16A7E
331
16A87
331
16A88
331
16A92
331
16A93
331
16ACF
331
16AD0
331
16AD8
331
16AD9
331
16AE1
331
16AE2
331
16AEA
331
16AEB
331
16B0E
331
16B0F
331
16B9A
331
16B9B
331
16BAB
331
16BAC
331
16BB4
331
16BB5
331
16BBE
331
16BBF
331
16BC7
331
16BC8
331
16BD0
331
16BD1
331
16BD9
331
16BDA
331
16BE2
331
16BE3
331
16BEB
331
16BEC
331
16BF4
331
16BF5
331
16BFD
331
16BFE
331
16C06
331
16C07
331
16C0F
331
16C10
102
}
  0
BLOCK_RECORD
  5
161A3
330
7466
100
AcDbSymbolTableRecord
100
AcDbBlockTableRecord
  2
*D1
340
0
  0
BLOCK_RECORD
  5
161B0
330
7466
100
AcDbSymbolTableRecord
100
AcDbBlockTableRecord
  2
*D2
340
0
  0
BLOCK_RECORD
  5
161BD
330
7466
100
AcDbSymbolTableRecord
100
AcDbBlockTableRecord
  2
*D3
340
0
  0
BLOCK_RECORD
  5
161C9
330
7466
100
AcDbSymbolTableRecord
100
AcDbBlockTableRecord
  2
*D4
340
0
  0
BLOCK_RECORD
  5
161D5
330
7466
100
AcDbSymbolTableRecord
100
AcDbBlockTableRecord
  2
*D5
340
0
  0
BLOCK_RECORD
  5
161E1
330
7466
100
AcDbSymbolTableRecord
100
AcDbBlockTableRecord
  2
*D6
340
0
  0
BLOCK_RECORD
  5
161ED
330
7466
100
AcDbSymbolTableRecord
100
AcDbBlockTableRecord
  2
*D7
340
0
  0
BLOCK_RECORD
  5
161F9
330
7466
100
AcDbSymbolTableRecord
100
AcDbBlockTableRecord
  2
*D8
340
0
  0
BLOCK_RECORD
  5
16207
330
7466
100
AcDbSymbolTableRecord
100
AcDbBlockTableRecord
  2
*D9
340
0
  0
BLOCK_RECORD
  5
16215
330
7466
100
AcDbSymbolTableRecord
100
AcDbBlockTableRecord
  2
*D10
340
0
  0
BLOCK_RECORD
  5
16222
330
7466
100
AcDbSymbolTableRecord
100
AcDbBlockTableRecord
  2
*D11
340
0
  0
BLOCK_RECORD
  5
16250
330
7466
100
AcDbSymbolTableRecord
100
AcDbBlockTableRecord
  2
*D12
340
0
  0
BLOCK_RECORD
  5
1625C
330
7466
100
AcDbSymbolTableRecord
100
AcDbBlockTableRecord
  2
*D13
340
0
  0
BLOCK_RECORD
  5
16266
330
7466
100
AcDbSymbolTableRecord
100
AcDbBlockTableRecord
  2
*D14
340
0
  0
BLOCK_RECORD
  5
16296
330
7466
100
AcDbSymbolTableRecord
100
AcDbBlockTableRecord
  2
*D15
340
0
  0
BLOCK_RECORD
  5
162A3
330
7466
100
AcDbSymbolTableRecord
100
AcDbBlockTableRecord
  2
*D16
340
0
  0
BLOCK_RECORD
  5
162AF
330
7466
100
AcDbSymbolTableRecord
100
AcDbBlockTableRecord
  2
*D17
340
0
  0
BLOCK_RECORD
  5
16364
330
7466
100
AcDbSymbolTableRecord
100
AcDbBlockTableRecord
  2
*D18
340
0
  0
BLOCK_RECORD
  5
16370
330
7466
100
AcDbSymbolTableRecord
100
AcDbBlockTableRecord
  2
*D19
340
0
  0
BLOCK_RECORD
  5
1637C
330
7466
100
AcDbSymbolTableRecord
100
AcDbBlockTableRecord
  2
*D20
340
0
  0
BLOCK_RECORD
  5
16388
330
7466
100
AcDbSymbolTableRecord
100
AcDbBlockTableRecord
  2
*D21
340
0
  0
BLOCK_RECORD
  5
16394
330
7466
100
AcDbSymbolTableRecord
100
AcDbBlockTableRecord
  2
*D22
340
0
  0
BLOCK_RECORD
  5
163A0
330
7466
100
AcDbSymbolTableRecord
100
AcDbBlockTableRecord
  2
*D23
340
0
  0
BLOCK_RECORD
  5
163AC
330
7466
100
AcDbSymbolTableRecord
100
AcDbBlockTableRecord
  2
*D24
340
0
  0
BLOCK_RECORD
  5
163B8
330
7466
100
AcDbSymbolTableRecord
100
AcDbBlockTableRecord
  2
*D25
340
0
  0
BLOCK_RECORD
  5
163C4
330
7466
100
AcDbSymbolTableRecord
100
AcDbBlockTableRecord
  2
*D26
340
0
  0
BLOCK_RECORD
  5
163D0
330
7466
100
AcDbSymbolTableRecord
100
AcDbBlockTableRecord
  2
*D27
340
0
  0
BLOCK_RECORD
  5
163DC
330
7466
100
AcDbSymbolTableRecord
100
AcDbBlockTableRecord
  2
*D28
340
0
  0
BLOCK_RECORD
  5
163E8
330
7466
100
AcDbSymbolTableRecord
100
AcDbBlockTableRecord
  2
*D29
340
0
  0
BLOCK_RECORD
  5
163F4
330
7466
100
AcDbSymbolTableRecord
100
AcDbBlockTableRecord
  2
*D30
340
0
  0
BLOCK_RECORD
  5
16400
330
7466
100
AcDbSymbolTableRecord
100
AcDbBlockTableRecord
  2
*D31
340
0
  0
ENDTAB
  0
ENDSEC
  0
SECTION
  2
BLOCKS
  0
BLOCK
  5
7489
330
747D
100
AcDbEntity
  8
0
100
AcDbBlockBegin
  2
*MODEL_SPACE
 70
     0
 10
0.0
 20
0.0
 30
0.0
  3
*MODEL_SPACE
  1

  0
ENDBLK
  5
748A
330
747D
100
AcDbEntity
  8
0
100
AcDbBlockEnd
  0
BLOCK
  5
7487
330
747A
100
AcDbEntity
 67
     1
  8
0
100
AcDbBlockBegin
  2
*PAPER_SPACE
 70
     0
 10
0.0
 20
0.0
 30
0.0
  3
*PAPER_SPACE
  1

  0
ENDBLK
  5
7488
330
747A
100
AcDbEntity
 67
     1
  8
0
100
AcDbBlockEnd
  0
BLOCK
  5
F771
330
F770
100
AcDbEntity
  8
0
 48
50.0
100
AcDbBlockBegin
  2
_DOTSMALL
 70
     0
 10
0.0
 20
0.0
 30
0.0
  3
_DOTSMALL
  1

  0
LWPOLYLINE
  5
F772
330
F770
100
AcDbEntity
  8
0
  6
ByBlock
 62
     0
 48
50.0
100
AcDbPolyline
 90
        2
 70
     1
 43
0.5
 10
-0.0625
 20
0.0
 42
1.0
 10
0.0625
 20
0.0
 42
1.0
  0
ENDBLK
  5
F776
330
F770
100
AcDbEntity
  8
0
 48
50.0
100
AcDbBlockEnd
  0
BLOCK
  5
161A4
330
161A3
100
AcDbEntity
  8
0
 48
50.0
100
AcDbBlockBegin
  2
*D1
 70
     1
 10
0.0
 20
0.0
 30
0.0
  3
*D1
  1

  0
LINE
  5
16A2C
330
161A3
100
AcDbEntity
  8
寸法
 62
     0
 48
50.0
370
    -2
100
AcDbLine
 10
7928.860585868474
 20
4238.440598165907
 30
0.0
 11
7748.279458766571
 21
4238.440598165907
 31
0.0
  0
LINE
  5
16A2D
330
161A3
100
AcDbEntity
  8
寸法
 62
     0
 48
50.0
370
    -2
100
AcDbLine
 10
7928.860585868474
 20
4338.440598165908
 30
0.0
 11
7748.279458766571
 21
4338.440598165908
 31
0.0
  0
LINE
  5
16A2E
330
161A3
100
AcDbEntity
  8
寸法
 62
     0
 48
50.0
370
    -2
100
AcDbLine
 10
7793.279458766571
 20
4238.440598165907
 30
0.0
 11
7793.279458766571
 21
4338.440598165908
 31
0.0
  0
LINE
  5
16A2F
330
161A3
100
AcDbEntity
  8
寸法
 62
     0
 48
50.0
370
    -2
100
AcDbLine
 10
7793.279458766571
 20
4338.440598165908
 30
0.0
 11
7793.279458766571
 21
4617.511464307681
 31
0.0
  0
INSERT
  5
16A30
330
161A3
100
AcDbEntity
  8
寸法
 62
     0
 48
50.0
370
    -2
100
AcDbBlockReference
  2
_DOTSMALL
 10
7793.279458766571
 20
4238.440598165907
 30
0.0
 41
75.0
 42
75.0
 43
75.0
 50
270.0
  0
INSERT
  5
16A31
330
161A3
100
AcDbEntity
  8
寸法
 62
     0
 48
50.0
370
    -2
100
AcDbBlockReference
  2
_DOTSMALL
 10
7793.279458766571
 20
4338.440598165908
 30
0.0
 41
75.0
 42
75.0
 43
75.0
 50
90.0
  0
MTEXT
  5
16A32
330
161A3
100
AcDbEntity
  8
寸法
 62
     7
 48
50.0
100
AcDbMText
 10
7718.279458766571
 20
4515.476031236816
 30
0.0
 40
90.0
 41
0.0
 71
     5
 72
     1
  1
\A1;100
  7
STYLE1
 11
0.0000000000000001
 21
1.0
 31
0.0
 73
     1
 44
1.0
1001
ACAD
1000
MTEXTBEGIN
1070
    73
1070
     1
1070
    44
1040
1.0
1070
    74
1070
     0
1000
MTEXTEND
  0
POINT
  5
16A33
330
161A3
100
AcDbEntity
  8
DEFPOINTS
 62
     0
 48
50.0
100
AcDbPoint
 10
7943.860585868475
 20
4238.440598165907
 30
0.0
  0
POINT
  5
16A34
330
161A3
100
AcDbEntity
  8
DEFPOINTS
 62
     0
 48
50.0
100
AcDbPoint
 10
7943.860585868475
 20
4338.440598165908
 30
0.0
  0
POINT
  5
16A35
330
161A3
100
AcDbEntity
  8
DEFPOINTS
 62
     0
 48
50.0
100
AcDbPoint
 10
7793.279458766571
 20
4338.440598165908
 30
0.0
  0
ENDBLK
  5
161A5
330
161A3
100
AcDbEntity
  8
0
 48
50.0
100
AcDbBlockEnd
  0
BLOCK
  5
161B1
330
161B0
100
AcDbEntity
  8
0
 48
50.0
100
AcDbBlockBegin
  2
*D2
 70
     1
 10
0.0
 20
0.0
 30
0.0
  3
*D2
  1

  0
LINE
  5
16A36
330
161B0
100
AcDbEntity
  8
寸法
 62
     0
 48
50.0
370
    -2
100
AcDbLine
 10
7928.860585868474
 20
4238.440598165907
 30
0.0
 11
7748.279458766571
 21
4238.440598165907
 31
0.0
  0
LINE
  5
16A37
330
161B0
100
AcDbEntity
  8
寸法
 62
     0
 48
50.0
370
    -2
100
AcDbLine
 10
7928.860585868474
 20
4138.440598165908
 30
0.0
 11
7748.279458766571
 21
4138.440598165908
 31
0.0
  0
LINE
  5
16A38
330
161B0
100
AcDbEntity
  8
寸法
 62
     0
 48
50.0
370
    -2
100
AcDbLine
 10
7793.279458766571
 20
4238.440598165907
 30
0.0
 11
7793.279458766571
 21
4138.440598165908
 31
0.0
  0
LINE
  5
16A39
330
161B0
100
AcDbEntity
  8
寸法
 62
     0
 48
50.0
370
    -2
100
AcDbLine
 10
7793.279458766571
 20
4138.440598165908
 30
0.0
 11
7793.279458766571
 21
3859.369732024175
 31
0.0
  0
INSERT
  5
16A3A
330
161B0
100
AcDbEntity
  8
寸法
 62
     0
 48
50.0
370
    -2
100
AcDbBlockReference
  2
_DOTSMALL
 10
7793.279458766571
 20
4238.440598165907
 30
0.0
 41
75.0
 42
75.0
 43
75.0
 50
90.0
  0
INSERT
  5
16A3B
330
161B0
100
AcDbEntity
  8
寸法
 62
     0
 48
50.0
370
    -2
100
AcDbBlockReference
  2
_DOTSMALL
 10
7793.279458766571
 20
4138.440598165908
 30
0.0
 41
75.0
 42
75.0
 43
75.0
 50
270.0
  0
MTEXT
  5
16A3C
330
161B0
100
AcDbEntity
  8
寸法
 62
     7
 48
50.0
100
AcDbMText
 10
7718.279458766571
 20
3961.405165095042
 30
0.0
 40
90.0
 41
0.0
 71
     5
 72
     1
  1
\A1;100
  7
STYLE1
 11
0.0000000000000001
 21
1.0
 31
0.0
 73
     1
 44
1.0
1001
ACAD
1000
MTEXTBEGIN
1070
    73
1070
     1
1070
    44
1040
1.0
1070
    74
1070
     0
1000
MTEXTEND
  0
POINT
  5
16A3D
330
161B0
100
AcDbEntity
  8
DEFPOINTS
 62
     0
 48
50.0
100
AcDbPoint
 10
7943.860585868475
 20
4238.440598165907
 30
0.0
  0
POINT
  5
16A3E
330
161B0
100
AcDbEntity
  8
DEFPOINTS
 62
     0
 48
50.0
100
AcDbPoint
 10
7943.860585868475
 20
4138.440598165908
 30
0.0
  0
POINT
  5
16A3F
330
161B0
100
AcDbEntity
  8
DEFPOINTS
 62
     0
 48
50.0
100
AcDbPoint
 10
7793.279458766571
 20
4138.440598165908
 30
0.0
  0
ENDBLK
  5
161B2
330
161B0
100
AcDbEntity
  8
0
 48
50.0
100
AcDbBlockEnd
  0
BLOCK
  5
161BE
330
161BD
100
AcDbEntity
  8
0
 48
50.0
100
AcDbBlockBegin
  2
*D3
 70
     1
 10
0.0
 20
0.0
 30
0.0
  3
*D3
  1

  0
LINE
  5
16A40
330
161BD
100
AcDbEntity
  8
寸法
 62
     0
 48
50.0
370
    -2
100
AcDbLine
 10
8443.860585868533
 20
3673.440598165907
 30
0.0
 11
8443.860585868533
 21
3201.823968521873
 31
0.0
  0
LINE
  5
16A41
330
161BD
100
AcDbEntity
  8
寸法
 62
     0
 48
50.0
370
    -2
100
AcDbLine
 10
8968.860585868533
 20
3612.382766336028
 30
0.0
 11
8968.860585868533
 21
3201.823968521873
 31
0.0
  0
LINE
  5
16A42
330
161BD
100
AcDbEntity
  8
寸法
 62
     0
 48
50.0
370
    -2
100
AcDbLine
 10
8443.860585868533
 20
3246.823968521873
 30
0.0
 11
8968.860585868533
 21
3246.823968521873
 31
0.0
  0
INSERT
  5
16A43
330
161BD
100
AcDbEntity
  8
寸法
 62
     0
 48
50.0
370
    -2
100
AcDbBlockReference
  2
_DOTSMALL
 10
8443.860585868533
 20
3246.823968521873
 30
0.0
 41
75.0
 42
75.0
 43
75.0
 50
180.0
  0
INSERT
  5
16A44
330
161BD
100
AcDbEntity
  8
寸法
 62
     0
 48
50.0
370
    -2
100
AcDbBlockReference
  2
_DOTSMALL
 10
8968.860585868533
 20
3246.823968521873
 30
0.0
 41
75.0
 42
75.0
 43
75.0
  0
MTEXT
  5
16A45
330
161BD
100
AcDbEntity
  8
寸法
 62
     7
 48
50.0
100
AcDbMText
 10
8706.360585868534
 20
3321.832826789589
 30
0.0
 40
90.0
 41
0.0
 71
     5
 72
     1
  1
\A1;525
  7
STYLE1
 73
     1
 44
1.0
1001
ACAD
1000
MTEXTBEGIN
1070
    73
1070
     1
1070
    44
1040
1.0
1070
    74
1070
     0
1000
MTEXTEND
  0
POINT
  5
16A46
330
161BD
100
AcDbEntity
  8
DEFPOINTS
 62
     0
 48
50.0
100
AcDbPoint
 10
8443.860585868533
 20
3688.440598165908
 30
0.0
  0
POINT
  5
16A47
330
161BD
100
AcDbEntity
  8
DEFPOINTS
 62
     0
 48
50.0
100
AcDbPoint
 10
8968.860585868533
 20
3627.382766336028
 30
0.0
  0
POINT
  5
16A48
330
161BD
100
AcDbEntity
  8
DEFPOINTS
 62
     0
 48
50.0
100
AcDbPoint
 10
8968.860585868533
 20
3246.823968521873
 30
0.0
  0
ENDBLK
  5
161BF
330
161BD
100
AcDbEntity
  8
0
 48
50.0
100
AcDbBlockEnd
  0
BLOCK
  5
161CA
330
161C9
100
AcDbEntity
  8
0
 48
50.0
100
AcDbBlockBegin
  2
*D4
 70
     1
 10
0.0
 20
0.0
 30
0.0
  3
*D4
  1

  0
LINE
  5
16A49
330
161C9
100
AcDbEntity
  8
寸法
 62
     0
 48
50.0
370
    -2
100
AcDbLine
 10
9843.860585868533
 20
3673.440598165907
 30
0.0
 11
9843.860585868533
 21
2971.73840743312
 31
0.0
  0
LINE
  5
16A4A
330
161C9
100
AcDbEntity
  8
寸法
 62
     0
 48
50.0
370
    -2
100
AcDbLine
 10
8443.860585868533
 20
3673.440598165907
 30
0.0
 11
8443.860585868533
 21
2971.73840743312
 31
0.0
  0
LINE
  5
16A4B
330
161C9
100
AcDbEntity
  8
寸法
 62
     0
 48
50.0
370
    -2
100
AcDbLine
 10
9843.860585868533
 20
3016.73840743312
 30
0.0
 11
8443.860585868533
 21
3016.73840743312
 31
0.0
  0
INSERT
  5
16A4C
330
161C9
100
AcDbEntity
  8
寸法
 62
     0
 48
50.0
370
    -2
100
AcDbBlockReference
  2
_DOTSMALL
 10
9843.860585868533
 20
3016.73840743312
 30
0.0
 41
75.0
 42
75.0
 43
75.0
  0
INSERT
  5
16A4D
330
161C9
100
AcDbEntity
  8
寸法
 62
     0
 48
50.0
370
    -2
100
AcDbBlockReference
  2
_DOTSMALL
 10
8443.860585868533
 20
3016.73840743312
 30
0.0
 41
75.0
 42
75.0
 43
75.0
 50
180.0
  0
MTEXT
  5
16A4E
330
161C9
100
AcDbEntity
  8
寸法
 62
     7
 48
50.0
100
AcDbMText
 10
9143.860585868534
 20
3091.73840743312
 30
0.0
 40
90.0
 41
0.0
 71
     5
 72
     1
  1
\A1;1400
  7
STYLE1
 73
     1
 44
1.0
1001
ACAD
1000
MTEXTBEGIN
1070
    73
1070
     1
1070
    44
1040
1.0
1070
    74
1070
     0
1000
MTEXTEND
  0
POINT
  5
16A4F
330
161C9
100
AcDbEntity
  8
DEFPOINTS
 62
     0
 48
50.0
100
AcDbPoint
 10
9843.860585868533
 20
3688.440598165908
 30
0.0
  0
POINT
  5
16A50
330
161C9
100
AcDbEntity
  8
DEFPOINTS
 62
     0
 48
50.0
100
AcDbPoint
 10
8443.860585868533
 20
3688.440598165908
 30
0.0
  0
POINT
  5
16A51
330
161C9
100
AcDbEntity
  8
DEFPOINTS
 62
     0
 48
50.0
100
AcDbPoint
 10
8443.860585868533
 20
3016.73840743312
 30
0.0
  0
ENDBLK
  5
161CB
330
161C9
100
AcDbEntity
  8
0
 48
50.0
100
AcDbBlockEnd
  0
BLOCK
  5
161D6
330
161D5
100
AcDbEntity
  8
0
 48
50.0
100
AcDbBlockBegin
  2
*D5
 70
     1
 10
0.0
 20
0.0
 30
0.0
  3
*D5
  1

  0
LINE
  5
16A52
330
161D5
100
AcDbEntity
  8
寸法
 62
     0
 48
50.0
370
    -2
100
AcDbLine
 10
8968.860585868533
 20
3612.382766336028
 30
0.0
 11
8968.860585868533
 21
3201.823968521873
 31
0.0
  0
LINE
  5
16A53
330
161D5
100
AcDbEntity
  8
寸法
 62
     0
 48
50.0
370
    -2
100
AcDbLine
 10
9318.860585868533
 20
3612.382766336028
 30
0.0
 11
9318.860585868533
 21
3201.823968521873
 31
0.0
  0
LINE
  5
16A54
330
161D5
100
AcDbEntity
  8
寸法
 62
     0
 48
50.0
370
    -2
100
AcDbLine
 10
8968.860585868533
 20
3246.823968521873
 30
0.0
 11
9318.860585868533
 21
3246.823968521873
 31
0.0
  0
INSERT
  5
16A55
330
161D5
100
AcDbEntity
  8
寸法
 62
     0
 48
50.0
370
    -2
100
AcDbBlockReference
  2
_DOTSMALL
 10
8968.860585868533
 20
3246.823968521873
 30
0.0
 41
75.0
 42
75.0
 43
75.0
 50
180.0
  0
INSERT
  5
16A56
330
161D5
100
AcDbEntity
  8
寸法
 62
     0
 48
50.0
370
    -2
100
AcDbBlockReference
  2
_DOTSMALL
 10
9318.860585868533
 20
3246.823968521873
 30
0.0
 41
75.0
 42
75.0
 43
75.0
  0
MTEXT
  5
16A57
330
161D5
100
AcDbEntity
  8
寸法
 62
     7
 48
50.0
100
AcDbMText
 10
9143.860585868534
 20
3321.823968521873
 30
0.0
 40
90.0
 41
0.0
 71
     5
 72
     1
  1
\A1;350
  7
STYLE1
 73
     1
 44
1.0
1001
ACAD
1000
MTEXTBEGIN
1070
    73
1070
     1
1070
    44
1040
1.0
1070
    74
1070
     0
1000
MTEXTEND
  0
POINT
  5
16A58
330
161D5
100
AcDbEntity
  8
DEFPOINTS
 62
     0
 48
50.0
100
AcDbPoint
 10
8968.860585868533
 20
3627.382766336028
 30
0.0
  0
POINT
  5
16A59
330
161D5
100
AcDbEntity
  8
DEFPOINTS
 62
     0
 48
50.0
100
AcDbPoint
 10
9318.860585868533
 20
3627.382766336028
 30
0.0
  0
POINT
  5
16A5A
330
161D5
100
AcDbEntity
  8
DEFPOINTS
 62
     0
 48
50.0
100
AcDbPoint
 10
9318.860585868533
 20
3246.823968521873
 30
0.0
  0
ENDBLK
  5
161D7
330
161D5
100
AcDbEntity
  8
0
 48
50.0
100
AcDbBlockEnd
  0
BLOCK
  5
161E2
330
161E1
100
AcDbEntity
  8
0
 48
50.0
100
AcDbBlockBegin
  2
*D6
 70
     1
 10
0.0
 20
0.0
 30
0.0
  3
*D6
  1

  0
LINE
  5
16A5B
330
161E1
100
AcDbEntity
  8
寸法
 62
     0
 48
50.0
370
    -2
100
AcDbLine
 10
9843.860585868533
 20
3673.440598165907
 30
0.0
 11
9843.860585868533
 21
3201.823968521873
 31
0.0
  0
LINE
  5
16A5C
330
161E1
100
AcDbEntity
  8
寸法
 62
     0
 48
50.0
370
    -2
100
AcDbLine
 10
9318.860585868533
 20
3612.382766336028
 30
0.0
 11
9318.860585868533
 21
3201.823968521873
 31
0.0
  0
LINE
  5
16A5D
330
161E1
100
AcDbEntity
  8
寸法
 62
     0
 48
50.0
370
    -2
100
AcDbLine
 10
9843.860585868533
 20
3246.823968521873
 30
0.0
 11
9318.860585868533
 21
3246.823968521873
 31
0.0
  0
INSERT
  5
16A5E
330
161E1
100
AcDbEntity
  8
寸法
 62
     0
 48
50.0
370
    -2
100
AcDbBlockReference
  2
_DOTSMALL
 10
9843.860585868533
 20
3246.823968521873
 30
0.0
 41
75.0
 42
75.0
 43
75.0
  0
INSERT
  5
16A5F
330
161E1
100
AcDbEntity
  8
寸法
 62
     0
 48
50.0
370
    -2
100
AcDbBlockReference
  2
_DOTSMALL
 10
9318.860585868533
 20
3246.823968521873
 30
0.0
 41
75.0
 42
75.0
 43
75.0
 50
180.0
  0
MTEXT
  5
16A60
330
161E1
100
AcDbEntity
  8
寸法
 62
     7
 48
50.0
100
AcDbMText
 10
9581.360585868534
 20
3321.832826789589
 30
0.0
 40
90.0
 41
0.0
 71
     5
 72
     1
  1
\A1;525
  7
STYLE1
 73
     1
 44
1.0
1001
ACAD
1000
MTEXTBEGIN
1070
    73
1070
     1
1070
    44
1040
1.0
1070
    74
1070
     0
1000
MTEXTEND
  0
POINT
  5
16A61
330
161E1
100
AcDbEntity
  8
DEFPOINTS
 62
     0
 48
50.0
100
AcDbPoint
 10
9843.860585868533
 20
3688.440598165908
 30
0.0
  0
POINT
  5
16A62
330
161E1
100
AcDbEntity
  8
DEFPOINTS
 62
     0
 48
50.0
100
AcDbPoint
 10
9318.860585868533
 20
3627.382766336028
 30
0.0
  0
POINT
  5
16A63
330
161E1
100
AcDbEntity
  8
DEFPOINTS
 62
     0
 48
50.0
100
AcDbPoint
 10
9318.860585868533
 20
3246.823968521873
 30
0.0
  0
ENDBLK
  5
161E3
330
161E1
100
AcDbEntity
  8
0
 48
50.0
100
AcDbBlockEnd
  0
BLOCK
  5
161EE
330
161ED
100
AcDbEntity
  8
0
 48
50.0
100
AcDbBlockBegin
  2
*D7
 70
     1
 10
0.0
 20
0.0
 30
0.0
  3
*D7
  1

  0
LINE
  5
16A64
330
161ED
100
AcDbEntity
  8
寸法
 62
     0
 48
50.0
370
    -2
100
AcDbLine
 10
10423.65846343204
 20
4288.440598165908
 30
0.0
 11
10681.30195046926
 21
4288.440598165908
 31
0.0
  0
LINE
  5
16A65
330
161ED
100
AcDbEntity
  8
寸法
 62
     0
 48
50.0
370
    -2
100
AcDbLine
 10
9938.860585868534
 20
3688.440598165908
 30
0.0
 11
10681.30195046926
 21
3688.440598165908
 31
0.0
  0
LINE
  5
16A66
330
161ED
100
AcDbEntity
  8
寸法
 62
     0
 48
50.0
370
    -2
100
AcDbLine
 10
10636.30195046926
 20
4288.440598165908
 30
0.0
 11
10636.30195046926
 21
3688.440598165908
 31
0.0
  0
INSERT
  5
16A67
330
161ED
100
AcDbEntity
  8
寸法
 62
     0
 48
50.0
370
    -2
100
AcDbBlockReference
  2
_DOTSMALL
 10
10636.30195046926
 20
4288.440598165908
 30
0.0
 41
75.0
 42
75.0
 43
75.0
 50
90.0
  0
INSERT
  5
16A68
330
161ED
100
AcDbEntity
  8
寸法
 62
     0
 48
50.0
370
    -2
100
AcDbBlockReference
  2
_DOTSMALL
 10
10636.30195046926
 20
3688.440598165908
 30
0.0
 41
75.0
 42
75.0
 43
75.0
 50
270.0
  0
MTEXT
  5
16A69
330
161ED
100
AcDbEntity
  8
寸法
 62
     7
 48
50.0
100
AcDbMText
 10
10561.30195046926
 20
3988.44059816591
 30
0.0
 40
90.0
 41
0.0
 71
     5
 72
     1
  1
\A1;600
  7
STYLE1
 11
0.0000000000000001
 21
1.0
 31
0.0
 73
     1
 44
1.0
1001
ACAD
1000
MTEXTBEGIN
1070
    73
1070
     1
1070
    44
1040
1.0
1070
    74
1070
     0
1000
MTEXTEND
  0
POINT
  5
16A6A
330
161ED
100
AcDbEntity
  8
DEFPOINTS
 62
     0
 48
50.0
100
AcDbPoint
 10
10408.65846343204
 20
4288.440598165908
 30
0.0
  0
POINT
  5
16A6B
330
161ED
100
AcDbEntity
  8
DEFPOINTS
 62
     0
 48
50.0
100
AcDbPoint
 10
9923.860585868533
 20
3688.440598165908
 30
0.0
  0
POINT
  5
16A6C
330
161ED
100
AcDbEntity
  8
DEFPOINTS
 62
     0
 48
50.0
100
AcDbPoint
 10
10636.30195046926
 20
3688.440598165908
 30
0.0
  0
ENDBLK
  5
161EF
330
161ED
100
AcDbEntity
  8
0
 48
50.0
100
AcDbBlockEnd
  0
BLOCK
  5
161FA
330
161F9
100
AcDbEntity
  8
0
 48
50.0
100
AcDbBlockBegin
  2
*D8
 70
     1
 10
0.0
 20
0.0
 30
0.0
  3
*D8
  1

  0
LINE
  5
16A6D
330
161F9
100
AcDbEntity
  8
寸法
 62
     0
 48
50.0
370
    -2
100
AcDbLine
 10
10358.86058586853
 20
4288.440598165908
 30
0.0
 11
10681.30195046926
 21
4288.440598165908
 31
0.0
  0
LINE
  5
16A6E
330
161F9
100
AcDbEntity
  8
寸法
 62
     0
 48
50.0
370
    -2
100
AcDbLine
 10
10358.86058586859
 20
4338.440598165908
 30
0.0
 11
10681.30195046926
 21
4338.440598165908
 31
0.0
  0
LINE
  5
16A6F
330
161F9
100
AcDbEntity
  8
寸法
 62
     0
 48
50.0
370
    -2
100
AcDbLine
 10
10636.30195046926
 20
4288.440598165908
 30
0.0
 11
10636.30195046926
 21
4213.440598165908
 31
0.0
  0
LINE
  5
16A70
330
161F9
100
AcDbEntity
  8
寸法
 62
     0
 48
50.0
370
    -2
100
AcDbLine
 10
10636.30195046926
 20
4338.440598165908
 30
0.0
 11
10636.30195046926
 21
4647.51146430768
 31
0.0
  0
LINE
  5
16A71
330
161F9
100
AcDbEntity
  8
寸法
 62
     0
 48
50.0
370
    -2
100
AcDbLine
 10
10636.30195046926
 20
4288.440598165908
 30
0.0
 11
10636.30195046926
 21
4338.440598165908
 31
0.0
  0
INSERT
  5
16A72
330
161F9
100
AcDbEntity
  8
寸法
 62
     0
 48
50.0
370
    -2
100
AcDbBlockReference
  2
_DOTSMALL
 10
10636.30195046926
 20
4288.440598165908
 30
0.0
 41
75.0
 42
75.0
 43
75.0
 50
90.0
  0
INSERT
  5
16A73
330
161F9
100
AcDbEntity
  8
寸法
 62
     0
 48
50.0
370
    -2
100
AcDbBlockReference
  2
_DOTSMALL
 10
10636.30195046926
 20
4338.440598165908
 30
0.0
 41
75.0
 42
75.0
 43
75.0
 50
270.0
  0
MTEXT
  5
16A74
330
161F9
100
AcDbEntity
  8
寸法
 62
     7
 48
50.0
100
AcDbMText
 10
10561.30195046926
 20
4567.976031236816
 30
0.0
 40
90.0
 41
0.0
 71
     5
 72
     1
  1
\A1;50
  7
STYLE1
 11
0.0000000000000001
 21
1.0
 31
0.0
 73
     1
 44
1.0
1001
ACAD
1000
MTEXTBEGIN
1070
    73
1070
     1
1070
    44
1040
1.0
1070
    74
1070
     0
1000
MTEXTEND
  0
POINT
  5
16A75
330
161F9
100
AcDbEntity
  8
DEFPOINTS
 62
     0
 48
50.0
100
AcDbPoint
 10
10343.86058586853
 20
4288.440598165908
 30
0.0
  0
POINT
  5
16A76
330
161F9
100
AcDbEntity
  8
DEFPOINTS
 62
     0
 48
50.0
100
AcDbPoint
 10
10343.86058586859
 20
4338.440598165908
 30
0.0
  0
POINT
  5
16A77
330
161F9
100
AcDbEntity
  8
DEFPOINTS
 62
     0
 48
50.0
100
AcDbPoint
 10
10636.30195046926
 20
4338.440598165908
 30
0.0
  0
ENDBLK
  5
161FB
330
161F9
100
AcDbEntity
  8
0
 48
50.0
100
AcDbBlockEnd
  0
BLOCK
  5
16208
330
16207
100
AcDbEntity
  8
0
 48
50.0
100
AcDbBlockBegin
  2
*D9
 70
     1
 10
0.0
 20
0.0
 30
0.0
  3
*D9
  1

  0
LINE
  5
16A78
330
16207
100
AcDbEntity
  8
寸法
 62
     0
 48
50.0
370
    -2
100
AcDbLine
 10
9938.860585868534
 20
3688.440598165908
 30
0.0
 11
10681.30195046926
 21
3688.440598165908
 31
0.0
  0
LINE
  5
16A79
330
16207
100
AcDbEntity
  8
寸法
 62
     0
 48
50.0
370
    -2
100
AcDbLine
 10
9938.860585868534
 20
3638.440598165908
 30
0.0
 11
10681.30195046926
 21
3638.440598165908
 31
0.0
  0
LINE
  5
16A7A
330
16207
100
AcDbEntity
  8
寸法
 62
     0
 48
50.0
370
    -2
100
AcDbLine
 10
10636.30195046926
 20
3688.440598165908
 30
0.0
 11
10636.30195046926
 21
3763.440598165908
 31
0.0
  0
LINE
  5
16A7B
330
16207
100
AcDbEntity
  8
寸法
 62
     0
 48
50.0
370
    -2
100
AcDbLine
 10
10636.30195046926
 20
3638.440598165908
 30
0.0
 11
10636.30195046926
 21
3329.369732024175
 31
0.0
  0
LINE
  5
16A7C
330
16207
100
AcDbEntity
  8
寸法
 62
     0
 48
50.0
370
    -2
100
AcDbLine
 10
10636.30195046926
 20
3688.440598165908
 30
0.0
 11
10636.30195046926
 21
3638.440598165908
 31
0.0
  0
INSERT
  5
16A7D
330
16207
100
AcDbEntity
  8
寸法
 62
     0
 48
50.0
370
    -2
100
AcDbBlockReference
  2
_DOTSMALL
 10
10636.30195046926
 20
3688.440598165908
 30
0.0
 41
75.0
 42
75.0
 43
75.0
 50
270.0
  0
INSERT
  5
16A7E
330
16207
100
AcDbEntity
  8
寸法
 62
     0
 48
50.0
370
    -2
100
AcDbBlockReference
  2
_DOTSMALL
 10
10636.30195046926
 20
3638.440598165908
 30
0.0
 41
75.0
 42
75.0
 43
75.0
 50
90.0
  0
MTEXT
  5
16A7F
330
16207
100
AcDbEntity
  8
寸法
 62
     7
 48
50.0
100
AcDbMText
 10
10561.30195046926
 20
3408.905165095043
 30
0.0
 40
90.0
 41
0.0
 71
     5
 72
     1
  1
\A1;50
  7
STYLE1
 11
0.0000000000000001
 21
1.0
 31
0.0
 73
     1
 44
1.0
1001
ACAD
1000
MTEXTBEGIN
1070
    73
1070
     1
1070
    44
1040
1.0
1070
    74
1070
     0
1000
MTEXTEND
  0
POINT
  5
16A80
330
16207
100
AcDbEntity
  8
DEFPOINTS
 62
     0
 48
50.0
100
AcDbPoint
 10
9923.860585868533
 20
3688.440598165908
 30
0.0
  0
POINT
  5
16A81
330
16207
100
AcDbEntity
  8
DEFPOINTS
 62
     0
 48
50.0
100
AcDbPoint
 10
9923.860585868533
 20
3638.440598165908
 30
0.0
  0
POINT
  5
16A82
330
16207
100
AcDbEntity
  8
DEFPOINTS
 62
     0
 48
50.0
100
AcDbPoint
 10
10636.30195046926
 20
3638.440598165908
 30
0.0
  0
ENDBLK
  5
16209
330
16207
100
AcDbEntity
  8
0
 48
50.0
100
AcDbBlockEnd
  0
BLOCK
  5
16216
330
16215
100
AcDbEntity
  8
0
 48
50.0
100
AcDbBlockBegin
  2
*D10
 70
     1
 10
0.0
 20
0.0
 30
0.0
  3
*D10
  1

  0
LINE
  5
16A83
330
16215
100
AcDbEntity
  8
寸法
 62
     0
 48
50.0
370
    -2
100
AcDbLine
 10
8365.679394783278
 20
4138.440598165892
 30
0.0
 11
7978.184290103557
 21
4138.440598165892
 31
0.0
  0
LINE
  5
16A84
330
16215
100
AcDbEntity
  8
寸法
 62
     0
 48
50.0
370
    -2
100
AcDbLine
 10
8847.860585868533
 20
4198.440598165893
 30
0.0
 11
7978.184290103557
 21
4198.440598165893
 31
0.0
  0
LINE
  5
16A85
330
16215
100
AcDbEntity
  8
寸法
 62
     0
 48
50.0
370
    -2
100
AcDbLine
 10
8023.184290103557
 20
4198.440598165893
 30
0.0
 11
8023.184290103557
 21
4138.440598165892
 31
0.0
  0
LINE
  5
16A86
330
16215
100
AcDbEntity
  8
寸法
 62
     0
 48
50.0
370
    -2
100
AcDbLine
 10
8023.184290103557
 20
4138.440598165892
 30
0.0
 11
8023.184290103557
 21
3898.983905252507
 31
0.0
  0
INSERT
  5
16A87
330
16215
100
AcDbEntity
  8
寸法
 62
     0
 48
50.0
370
    -2
100
AcDbBlockReference
  2
_DOTSMALL
 10
8023.184290103557
 20
4198.440598165893
 30
0.0
 41
75.0
 42
75.0
 43
75.0
 50
90.0
  0
INSERT
  5
16A88
330
16215
100
AcDbEntity
  8
寸法
 62
     0
 48
50.0
370
    -2
100
AcDbBlockReference
  2
_DOTSMALL
 10
8023.184290103557
 20
4138.440598165892
 30
0.0
 41
75.0
 42
75.0
 43
75.0
 50
270.0
  0
MTEXT
  5
16A89
330
16215
100
AcDbEntity
  8
寸法
 62
     7
 48
50.0
100
AcDbMText
 10
7948.184290103556
 20
3981.212251709202
 30
0.0
 40
90.0
 41
0.0
 71
     5
 72
     1
  1
\A1;60
  7
STYLE1
 11
0.0000000000000001
 21
1.0
 31
0.0
 73
     1
 44
1.0
1001
ACAD
1000
MTEXTBEGIN
1070
    73
1070
     1
1070
    44
1040
1.0
1070
    74
1070
     0
1000
MTEXTEND
  0
POINT
  5
16A8A
330
16215
100
AcDbEntity
  8
DEFPOINTS
 62
     0
 48
50.0
100
AcDbPoint
 10
8380.679394783276
 20
4138.440598165892
 30
0.0
  0
POINT
  5
16A8B
330
16215
100
AcDbEntity
  8
DEFPOINTS
 62
     0
 48
50.0
100
AcDbPoint
 10
8862.860585868533
 20
4198.440598165893
 30
0.0
  0
POINT
  5
16A8C
330
16215
100
AcDbEntity
  8
DEFPOINTS
 62
     0
 48
50.0
100
AcDbPoint
 10
8023.184290103557
 20
4198.440598165893
 30
0.0
  0
ENDBLK
  5
16217
330
16215
100
AcDbEntity
  8
0
 48
50.0
100
AcDbBlockEnd
  0
BLOCK
  5
16223
330
16222
100
AcDbEntity
  8
0
 48
50.0
100
AcDbBlockBegin
  2
*D11
 70
     1
 10
0.0
 20
0.0
 30
0.0
  3
*D11
  1

  0
LINE
  5
16A8D
330
16222
100
AcDbEntity
  8
寸法
 62
     0
 48
50.0
370
    -2
100
AcDbLine
 10
8365.679394783278
 20
4138.440598165892
 30
0.0
 11
8178.360193496862
 21
4138.440598165892
 31
0.0
  0
LINE
  5
16A8E
330
16222
100
AcDbEntity
  8
寸法
 62
     0
 48
50.0
370
    -2
100
AcDbLine
 10
8813.860585868534
 20
4168.440598165907
 30
0.0
 11
8178.360193496862
 21
4168.440598165907
 31
0.0
  0
LINE
  5
16A8F
330
16222
100
AcDbEntity
  8
寸法
 62
     0
 48
50.0
370
    -2
100
AcDbLine
 10
8223.360193496864
 20
4168.440598165907
 30
0.0
 11
8223.360193496864
 21
4243.440598165907
 31
0.0
  0
LINE
  5
16A90
330
16222
100
AcDbEntity
  8
寸法
 62
     0
 48
50.0
370
    -2
100
AcDbLine
 10
8223.360193496864
 20
4138.440598165892
 30
0.0
 11
8223.360193496862
 21
3829.369732024161
 31
0.0
  0
LINE
  5
16A91
330
16222
100
AcDbEntity
  8
寸法
 62
     0
 48
50.0
370
    -2
100
AcDbLine
 10
8223.360193496864
 20
4168.440598165907
 30
0.0
 11
8223.360193496864
 21
4138.440598165892
 31
0.0
  0
INSERT
  5
16A92
330
16222
100
AcDbEntity
  8
寸法
 62
     0
 48
50.0
370
    -2
100
AcDbBlockReference
  2
_DOTSMALL
 10
8223.360193496864
 20
4168.440598165907
 30
0.0
 41
75.0
 42
75.0
 43
75.0
 50
270.0
  0
INSERT
  5
16A93
330
16222
100
AcDbEntity
  8
寸法
 62
     0
 48
50.0
370
    -2
100
AcDbBlockReference
  2
_DOTSMALL
 10
8223.360193496864
 20
4138.440598165892
 30
0.0
 41
75.0
 42
75.0
 43
75.0
 50
90.0
  0
MTEXT
  5
16A94
330
16222
100
AcDbEntity
  8
寸法
 62
     7
 48
50.0
100
AcDbMText
 10
8148.360193496861
 20
3908.905165095028
 30
0.0
 40
90.0
 41
0.0
 71
     5
 72
     1
  1
\A1;30
  7
STYLE1
 11
0.0000000000000001
 21
1.0
 31
0.0
 73
     1
 44
1.0
1001
ACAD
1000
MTEXTBEGIN
1070
    73
1070
     1
1070
    44
1040
1.0
1070
    74
1070
     0
1000
MTEXTEND
  0
POINT
  5
16A95
330
16222
100
AcDbEntity
  8
DEFPOINTS
 62
     0
 48
50.0
100
AcDbPoint
 10
8380.679394783276
 20
4138.440598165892
 30
0.0
  0
POINT
  5
16A96
330
16222
100
AcDbEntity
  8
DEFPOINTS
 62
     0
 48
50.0
100
AcDbPoint
 10
8828.860585868532
 20
4168.440598165907
 30
0.0
  0
POINT
  5
16A97
330
16222
100
AcDbEntity
  8
DEFPOINTS
 62
     0
 48
50.0
100
AcDbPoint
 10
8223.360193496864
 20
4168.440598165907
 30
0.0
  0
ENDBLK
  5
16224
330
16222
100
AcDbEntity
  8
0
 48
50.0
100
AcDbBlockEnd
  0
BLOCK
  5
16251
330
16250
100
AcDbEntity
  8
0
 48
50.0
100
AcDbBlockBegin
  2
*D12
 70
     1
 10
0.0
 20
0.0
 30
0.0
  3
*D12
  1

  0
LINE
  5
16B97
330
16250
100
AcDbEntity
  8
寸法
 62
     0
 48
50.0
370
    -2
100
AcDbLine
 10
2643.379089388283
 20
1844.709057171465
 30
0.0
 11
2643.379089388283
 21
1349.721338834934
 31
0.0
  0
LINE
  5
16B98
330
16250
100
AcDbEntity
  8
寸法
 62
     0
 48
50.0
370
    -2
100
AcDbLine
 10
5503.379089388167
 20
1844.70905717148
 30
0.0
 11
5503.379089388167
 21
1349.721338834934
 31
0.0
  0
LINE
  5
16B99
330
16250
100
AcDbEntity
  8
寸法
 62
     0
 48
50.0
370
    -2
100
AcDbLine
 10
2643.379089388283
 20
1394.721338834934
 30
0.0
 11
5503.379089388167
 21
1394.721338834934
 31
0.0
  0
INSERT
  5
16B9A
330
16250
100
AcDbEntity
  8
寸法
 62
     0
 48
50.0
370
    -2
100
AcDbBlockReference
  2
_DOTSMALL
 10
2643.379089388283
 20
1394.721338834934
 30
0.0
 41
75.0
 42
75.0
 43
75.0
 50
180.0
  0
INSERT
  5
16B9B
330
16250
100
AcDbEntity
  8
寸法
 62
     0
 48
50.0
370
    -2
100
AcDbBlockReference
  2
_DOTSMALL
 10
5503.379089388167
 20
1394.721338834934
 30
0.0
 41
75.0
 42
75.0
 43
75.0
  0
MTEXT
  5
16B9C
330
16250
100
AcDbEntity
  8
寸法
 62
     7
 48
50.0
100
AcDbMText
 10
4073.379089388224
 20
1469.73019710265
 30
0.0
 40
90.0
 41
0.0
 71
     5
 72
     1
  1
\A1;屋根寸法 2860
  7
STYLE1
 73
     1
 44
1.0
1001
ACAD
1000
MTEXTBEGIN
1070
    73
1070
     1
1070
    44
1040
1.0
1070
    74
1070
     0
1000
MTEXTEND
  0
POINT
  5
16B9D
330
16250
100
AcDbEntity
  8
DEFPOINTS
 62
     0
 48
50.0
100
AcDbPoint
 10
2643.379089388283
 20
1859.709057171465
 30
0.0
  0
POINT
  5
16B9E
330
16250
100
AcDbEntity
  8
DEFPOINTS
 62
     0
 48
50.0
100
AcDbPoint
 10
5503.379089388167
 20
1859.70905717148
 30
0.0
  0
POINT
  5
16B9F
330
16250
100
AcDbEntity
  8
DEFPOINTS
 62
     0
 48
50.0
100
AcDbPoint
 10
5503.379089388167
 20
1394.721338834934
 30
0.0
  0
ENDBLK
  5
16252
330
16250
100
AcDbEntity
  8
0
 48
50.0
100
AcDbBlockEnd
  0
BLOCK
  5
1625D
330
1625C
100
AcDbEntity
  8
0
 48
50.0
100
AcDbBlockBegin
  2
*D13
 70
     1
 10
0.0
 20
0.0
 30
0.0
  3
*D13
  1

  0
LINE
  5
16AA1
330
1625C
100
AcDbEntity
  8
寸法
 62
     0
 48
50.0
370
    -2
100
AcDbLine
 10
2643.379089388283
 20
1844.709057171465
 30
0.0
 11
2643.379089388283
 21
1349.721338834934
 31
0.0
  0
LINE
  5
16AA2
330
1625C
100
AcDbEntity
  8
寸法
 62
     0
 48
50.0
370
    -2
100
AcDbLine
 10
2473.379089388225
 20
1708.20905717148
 30
0.0
 11
2473.379089388225
 21
1349.721338834934
 31
0.0
  0
LINE
  5
16AA3
330
1625C
100
AcDbEntity
  8
寸法
 62
     0
 48
50.0
370
    -2
100
AcDbLine
 10
2643.379089388283
 20
1394.721338834934
 30
0.0
 11
2473.379089388225
 21
1394.721338834934
 31
0.0
  0
MTEXT
  5
16AA4
330
1625C
100
AcDbEntity
  8
寸法
 62
     7
 48
50.0
100
AcDbMText
 10
2558.379089388254
 20
1469.721338834934
 30
0.0
 40
90.0
 41
0.0
 71
     5
 72
     1
  1
\A1;170
  7
STYLE1
 73
     1
 44
1.0
1001
ACAD
1000
MTEXTBEGIN
1070
    73
1070
     1
1070
    44
1040
1.0
1070
    74
1070
     0
1000
MTEXTEND
  0
POINT
  5
16AA5
330
1625C
100
AcDbEntity
  8
DEFPOINTS
 62
     0
 48
50.0
100
AcDbPoint
 10
2643.379089388283
 20
1859.709057171465
 30
0.0
  0
POINT
  5
16AA6
330
1625C
100
AcDbEntity
  8
DEFPOINTS
 62
     0
 48
50.0
100
AcDbPoint
 10
2473.379089388225
 20
1723.20905717148
 30
0.0
  0
POINT
  5
16AA7
330
1625C
100
AcDbEntity
  8
DEFPOINTS
 62
     0
 48
50.0
100
AcDbPoint
 10
2473.379089388225
 20
1394.721338834934
 30
0.0
  0
ENDBLK
  5
1625E
330
1625C
100
AcDbEntity
  8
0
 48
50.0
100
AcDbBlockEnd
  0
BLOCK
  5
16267
330
16266
100
AcDbEntity
  8
0
 48
50.0
100
AcDbBlockBegin
  2
*D14
 70
     1
 10
0.0
 20
0.0
 30
0.0
  3
*D14
  1

  0
LINE
  5
16BA0
330
16266
100
AcDbEntity
  8
寸法
 62
     0
 48
50.0
370
    -2
100
AcDbLine
 10
5503.379089388167
 20
1844.70905717148
 30
0.0
 11
5503.379089388167
 21
1349.721338834934
 31
0.0
  0
LINE
  5
16BA1
330
16266
100
AcDbEntity
  8
寸法
 62
     0
 48
50.0
370
    -2
100
AcDbLine
 10
5673.379089388225
 20
1708.20905717148
 30
0.0
 11
5673.379089388225
 21
1349.721338834934
 31
0.0
  0
LINE
  5
16BA2
330
16266
100
AcDbEntity
  8
寸法
 62
     0
 48
50.0
370
    -2
100
AcDbLine
 10
5503.379089388167
 20
1394.721338834934
 30
0.0
 11
5673.379089388225
 21
1394.721338834934
 31
0.0
  0
MTEXT
  5
16BA3
330
16266
100
AcDbEntity
  8
寸法
 62
     7
 48
50.0
100
AcDbMText
 10
5588.379089388196
 20
1469.721338834934
 30
0.0
 40
90.0
 41
0.0
 71
     5
 72
     1
  1
\A1;170
  7
STYLE1
 73
     1
 44
1.0
1001
ACAD
1000
MTEXTBEGIN
1070
    73
1070
     1
1070
    44
1040
1.0
1070
    74
1070
     0
1000
MTEXTEND
  0
POINT
  5
16BA4
330
16266
100
AcDbEntity
  8
DEFPOINTS
 62
     0
 48
50.0
100
AcDbPoint
 10
5503.379089388167
 20
1859.70905717148
 30
0.0
  0
POINT
  5
16BA5
330
16266
100
AcDbEntity
  8
DEFPOINTS
 62
     0
 48
50.0
100
AcDbPoint
 10
5673.379089388225
 20
1723.20905717148
 30
0.0
  0
POINT
  5
16BA6
330
16266
100
AcDbEntity
  8
DEFPOINTS
 62
     0
 48
50.0
100
AcDbPoint
 10
5673.379089388225
 20
1394.721338834934
 30
0.0
  0
ENDBLK
  5
16268
330
16266
100
AcDbEntity
  8
0
 48
50.0
100
AcDbBlockEnd
  0
BLOCK
  5
16297
330
16296
100
AcDbEntity
  8
0
 48
50.0
100
AcDbBlockBegin
  2
*D15
 70
     1
 10
0.0
 20
0.0
 30
0.0
  3
*D15
  1

  0
LINE
  5
16BA7
330
16296
100
AcDbEntity
  8
寸法
 62
     0
 48
50.0
370
    -2
100
AcDbLine
 10
5518.379089388167
 20
1859.70905717148
 30
0.0
 11
6100.653311751827
 21
1859.70905717148
 31
0.0
  0
LINE
  5
16BA8
330
16296
100
AcDbEntity
  8
寸法
 62
     0
 48
50.0
370
    -2
100
AcDbLine
 10
5688.379089388225
 20
1723.20905717148
 30
0.0
 11
6100.653311751827
 21
1723.20905717148
 31
0.0
  0
LINE
  5
16BA9
330
16296
100
AcDbEntity
  8
寸法
 62
     0
 48
50.0
370
    -2
100
AcDbLine
 10
6055.653311751826
 20
1859.70905717148
 30
0.0
 11
6055.653311751826
 21
1723.20905717148
 31
0.0
  0
LINE
  5
16BAA
330
16296
100
AcDbEntity
  8
寸法
 62
     0
 48
50.0
370
    -2
100
AcDbLine
 10
6055.653311751826
 20
1723.20905717148
 30
0.0
 11
6055.653311751826
 21
1350.481135110122
 31
0.0
  0
INSERT
  5
16BAB
330
16296
100
AcDbEntity
  8
寸法
 62
     0
 48
50.0
370
    -2
100
AcDbBlockReference
  2
_DOTSMALL
 10
6055.653311751826
 20
1859.70905717148
 30
0.0
 41
75.0
 42
75.0
 43
75.0
 50
90.0
  0
INSERT
  5
16BAC
330
16296
100
AcDbEntity
  8
寸法
 62
     0
 48
50.0
370
    -2
100
AcDbBlockReference
  2
_DOTSMALL
 10
6055.653311751826
 20
1723.20905717148
 30
0.0
 41
75.0
 42
75.0
 43
75.0
 50
270.0
  0
MTEXT
  5
16BAD
330
16296
100
AcDbEntity
  8
寸法
 62
     7
 48
50.0
100
AcDbMText
 10
5980.653311751826
 20
1499.345096140801
 30
0.0
 40
90.0
 41
0.0
 71
     5
 72
     1
  1
\A1;136.5
  7
STYLE1
 11
0.0000000000000001
 21
1.0
 31
0.0
 73
     1
 44
1.0
1001
ACAD
1000
MTEXTBEGIN
1070
    73
1070
     1
1070
    44
1040
1.0
1070
    74
1070
     0
1000
MTEXTEND
  0
POINT
  5
16BAE
330
16296
100
AcDbEntity
  8
DEFPOINTS
 62
     0
 48
50.0
100
AcDbPoint
 10
5503.379089388167
 20
1859.70905717148
 30
0.0
  0
POINT
  5
16BAF
330
16296
100
AcDbEntity
  8
DEFPOINTS
 62
     0
 48
50.0
100
AcDbPoint
 10
5673.379089388225
 20
1723.20905717148
 30
0.0
  0
POINT
  5
16BB0
330
16296
100
AcDbEntity
  8
DEFPOINTS
 62
     0
 48
50.0
100
AcDbPoint
 10
6055.653311751826
 20
1723.20905717148
 30
0.0
  0
ENDBLK
  5
16298
330
16296
100
AcDbEntity
  8
0
 48
50.0
100
AcDbBlockEnd
  0
BLOCK
  5
162A4
330
162A3
100
AcDbEntity
  8
0
 48
50.0
100
AcDbBlockBegin
  2
*D16
 70
     1
 10
0.0
 20
0.0
 30
0.0
  3
*D16
  1

  0
LINE
  5
16BB1
330
162A3
100
AcDbEntity
  8
寸法
 62
     0
 48
50.0
370
    -2
100
AcDbLine
 10
5518.379089388167
 20
5936.70905717148
 30
0.0
 11
6100.653311751827
 21
5936.70905717148
 31
0.0
  0
LINE
  5
16BB2
330
162A3
100
AcDbEntity
  8
寸法
 62
     0
 48
50.0
370
    -2
100
AcDbLine
 10
5518.379089388167
 20
1859.70905717148
 30
0.0
 11
6100.653311751827
 21
1859.70905717148
 31
0.0
  0
LINE
  5
16BB3
330
162A3
100
AcDbEntity
  8
寸法
 62
     0
 48
50.0
370
    -2
100
AcDbLine
 10
6055.653311751828
 20
5936.70905717148
 30
0.0
 11
6055.653311751826
 21
1859.70905717148
 31
0.0
  0
INSERT
  5
16BB4
330
162A3
100
AcDbEntity
  8
寸法
 62
     0
 48
50.0
370
    -2
100
AcDbBlockReference
  2
_DOTSMALL
 10
6055.653311751828
 20
5936.70905717148
 30
0.0
 41
75.0
 42
75.0
 43
75.0
 50
90.0
  0
INSERT
  5
16BB5
330
162A3
100
AcDbEntity
  8
寸法
 62
     0
 48
50.0
370
    -2
100
AcDbBlockReference
  2
_DOTSMALL
 10
6055.653311751826
 20
1859.70905717148
 30
0.0
 41
75.0
 42
75.0
 43
75.0
 50
270.0
  0
MTEXT
  5
16BB6
330
162A3
100
AcDbEntity
  8
寸法
 62
     7
 48
50.0
100
AcDbMText
 10
5980.653311751826
 20
3898.209057171481
 30
0.0
 40
90.0
 41
0.0
 71
     5
 72
     1
  1
\A1;屋根寸法 4077
  7
STYLE1
 11
0.0000000000000001
 21
1.0
 31
0.0
 73
     1
 44
1.0
1001
ACAD
1000
MTEXTBEGIN
1070
    73
1070
     1
1070
    44
1040
1.0
1070
    74
1070
     0
1000
MTEXTEND
  0
POINT
  5
16BB7
330
162A3
100
AcDbEntity
  8
DEFPOINTS
 62
     0
 48
50.0
100
AcDbPoint
 10
5503.379089388167
 20
5936.70905717148
 30
0.0
  0
POINT
  5
16BB8
330
162A3
100
AcDbEntity
  8
DEFPOINTS
 62
     0
 48
50.0
100
AcDbPoint
 10
5503.379089388167
 20
1859.70905717148
 30
0.0
  0
POINT
  5
16BB9
330
162A3
100
AcDbEntity
  8
DEFPOINTS
 62
     0
 48
50.0
100
AcDbPoint
 10
6055.653311751826
 20
1859.70905717148
 30
0.0
  0
ENDBLK
  5
162A5
330
162A3
100
AcDbEntity
  8
0
 48
50.0
100
AcDbBlockEnd
  0
BLOCK
  5
162B0
330
162AF
100
AcDbEntity
  8
0
 48
50.0
100
AcDbBlockBegin
  2
*D17
 70
     1
 10
0.0
 20
0.0
 30
0.0
  3
*D17
  1

  0
LINE
  5
16BBA
330
162AF
100
AcDbEntity
  8
寸法
 62
     0
 48
50.0
370
    -2
100
AcDbLine
 10
5518.379089388167
 20
5936.70905717148
 30
0.0
 11
6100.653311751827
 21
5936.70905717148
 31
0.0
  0
LINE
  5
16BBB
330
162AF
100
AcDbEntity
  8
寸法
 62
     0
 48
50.0
370
    -2
100
AcDbLine
 10
5688.379089388225
 20
6073.20905717148
 30
0.0
 11
6100.653311751827
 21
6073.20905717148
 31
0.0
  0
LINE
  5
16BBC
330
162AF
100
AcDbEntity
  8
寸法
 62
     0
 48
50.0
370
    -2
100
AcDbLine
 10
6055.653311751828
 20
5936.70905717148
 30
0.0
 11
6055.653311751828
 21
6073.20905717148
 31
0.0
  0
LINE
  5
16BBD
330
162AF
100
AcDbEntity
  8
寸法
 62
     0
 48
50.0
370
    -2
100
AcDbLine
 10
6055.653311751828
 20
6073.20905717148
 30
0.0
 11
6055.653311751829
 21
6445.936979232887
 31
0.0
  0
INSERT
  5
16BBE
330
162AF
100
AcDbEntity
  8
寸法
 62
     0
 48
50.0
370
    -2
100
AcDbBlockReference
  2
_DOTSMALL
 10
6055.653311751828
 20
5936.70905717148
 30
0.0
 41
75.0
 42
75.0
 43
75.0
 50
270.0
  0
INSERT
  5
16BBF
330
162AF
100
AcDbEntity
  8
寸法
 62
     0
 48
50.0
370
    -2
100
AcDbBlockReference
  2
_DOTSMALL
 10
6055.653311751828
 20
6073.20905717148
 30
0.0
 41
75.0
 42
75.0
 43
75.0
 50
90.0
  0
MTEXT
  5
16BC0
330
162AF
100
AcDbEntity
  8
寸法
 62
     7
 48
50.0
100
AcDbMText
 10
5980.653311751826
 20
6297.073018202208
 30
0.0
 40
90.0
 41
0.0
 71
     5
 72
     1
  1
\A1;136.5
  7
STYLE1
 11
0.0000000000000001
 21
1.0
 31
0.0
 73
     1
 44
1.0
1001
ACAD
1000
MTEXTBEGIN
1070
    73
1070
     1
1070
    44
1040
1.0
1070
    74
1070
     0
1000
MTEXTEND
  0
POINT
  5
16BC1
330
162AF
100
AcDbEntity
  8
DEFPOINTS
 62
     0
 48
50.0
100
AcDbPoint
 10
5503.379089388167
 20
5936.70905717148
 30
0.0
  0
POINT
  5
16BC2
330
162AF
100
AcDbEntity
  8
DEFPOINTS
 62
     0
 48
50.0
100
AcDbPoint
 10
5673.379089388225
 20
6073.20905717148
 30
0.0
  0
POINT
  5
16BC3
330
162AF
100
AcDbEntity
  8
DEFPOINTS
 62
     0
 48
50.0
100
AcDbPoint
 10
6055.653311751828
 20
6073.20905717148
 30
0.0
  0
ENDBLK
  5
162B1
330
162AF
100
AcDbEntity
  8
0
 48
50.0
100
AcDbBlockEnd
  0
BLOCK
  5
16365
330
16364
100
AcDbEntity
  8
0
 48
50.0
100
AcDbBlockBegin
  2
*D18
 70
     1
 10
0.0
 20
0.0
 30
0.0
  3
*D18
  1

  0
LINE
  5
16ACC
330
16364
100
AcDbEntity
  8
寸法
 62
     0
 48
50.0
370
    -2
100
AcDbLine
 10
2458.379089388196
 20
6073.20905717148
 30
0.0
 11
1864.757890660506
 21
6073.209057171481
 31
0.0
  0
LINE
  5
16ACD
330
16364
100
AcDbEntity
  8
寸法
 62
     0
 48
50.0
370
    -2
100
AcDbLine
 10
2458.379089388196
 20
1723.20905717148
 30
0.0
 11
1864.757890660505
 21
1723.20905717148
 31
0.0
  0
LINE
  5
16ACE
330
16364
100
AcDbEntity
  8
寸法
 62
     0
 48
50.0
370
    -2
100
AcDbLine
 10
1909.757890660506
 20
6073.209057171481
 30
0.0
 11
1909.757890660505
 21
1723.20905717148
 31
0.0
  0
INSERT
  5
16ACF
330
16364
100
AcDbEntity
  8
寸法
 62
     0
 48
50.0
370
    -2
100
AcDbBlockReference
  2
_DOTSMALL
 10
1909.757890660506
 20
6073.209057171481
 30
0.0
 41
75.0
 42
75.0
 43
75.0
 50
90.0
  0
INSERT
  5
16AD0
330
16364
100
AcDbEntity
  8
寸法
 62
     0
 48
50.0
370
    -2
100
AcDbBlockReference
  2
_DOTSMALL
 10
1909.757890660505
 20
1723.20905717148
 30
0.0
 41
75.0
 42
75.0
 43
75.0
 50
270.0
  0
MTEXT
  5
16AD1
330
16364
100
AcDbEntity
  8
寸法
 62
     7
 48
50.0
100
AcDbMText
 10
1834.757890660505
 20
3898.209057171481
 30
0.0
 40
90.0
 41
0.0
 71
     5
 72
     1
  1
\A1;基礎土間寸法 4350
  7
STYLE1
 11
0.0000000000000001
 21
1.0
 31
0.0
 73
     1
 44
1.0
1001
ACAD
1000
MTEXTBEGIN
1070
    73
1070
     1
1070
    44
1040
1.0
1070
    74
1070
     0
1000
MTEXTEND
  0
POINT
  5
16AD2
330
16364
100
AcDbEntity
  8
DEFPOINTS
 62
     0
 48
50.0
100
AcDbPoint
 10
2473.379089388196
 20
6073.20905717148
 30
0.0
  0
POINT
  5
16AD3
330
16364
100
AcDbEntity
  8
DEFPOINTS
 62
     0
 48
50.0
100
AcDbPoint
 10
2473.379089388196
 20
1723.20905717148
 30
0.0
  0
POINT
  5
16AD4
330
16364
100
AcDbEntity
  8
DEFPOINTS
 62
     0
 48
50.0
100
AcDbPoint
 10
1909.757890660505
 20
1723.20905717148
 30
0.0
  0
ENDBLK
  5
16366
330
16364
100
AcDbEntity
  8
0
 48
50.0
100
AcDbBlockEnd
  0
BLOCK
  5
16371
330
16370
100
AcDbEntity
  8
0
 48
50.0
100
AcDbBlockBegin
  2
*D19
 70
     1
 10
0.0
 20
0.0
 30
0.0
  3
*D19
  1

  0
LINE
  5
16AD5
330
16370
100
AcDbEntity
  8
寸法
 62
     0
 48
50.0
370
    -2
100
AcDbLine
 10
2608.379089388196
 20
3723.20905717148
 30
0.0
 11
2087.507252676951
 21
3723.20905717148
 31
0.0
  0
LINE
  5
16AD6
330
16370
100
AcDbEntity
  8
寸法
 62
     0
 48
50.0
370
    -2
100
AcDbLine
 10
2458.379089388196
 20
1723.20905717148
 30
0.0
 11
2087.507252676951
 21
1723.20905717148
 31
0.0
  0
LINE
  5
16AD7
330
16370
100
AcDbEntity
  8
寸法
 62
     0
 48
50.0
370
    -2
100
AcDbLine
 10
2132.507252676951
 20
3723.20905717148
 30
0.0
 11
2132.507252676951
 21
1723.20905717148
 31
0.0
  0
INSERT
  5
16AD8
330
16370
100
AcDbEntity
  8
寸法
 62
     0
 48
50.0
370
    -2
100
AcDbBlockReference
  2
_DOTSMALL
 10
2132.507252676951
 20
3723.20905717148
 30
0.0
 41
75.0
 42
75.0
 43
75.0
 50
90.0
  0
INSERT
  5
16AD9
330
16370
100
AcDbEntity
  8
寸法
 62
     0
 48
50.0
370
    -2
100
AcDbBlockReference
  2
_DOTSMALL
 10
2132.507252676951
 20
1723.20905717148
 30
0.0
 41
75.0
 42
75.0
 43
75.0
 50
270.0
  0
MTEXT
  5
16ADA
330
16370
100
AcDbEntity
  8
寸法
 62
     7
 48
50.0
100
AcDbMText
 10
2057.498394409234
 20
2723.209057171481
 30
0.0
 40
90.0
 41
0.0
 71
     5
 72
     1
  1
\A1;2000
  7
STYLE1
 11
0.0000000000000001
 21
1.0
 31
0.0
 73
     1
 44
1.0
1001
ACAD
1000
MTEXTBEGIN
1070
    73
1070
     1
1070
    44
1040
1.0
1070
    74
1070
     0
1000
MTEXTEND
  0
POINT
  5
16ADB
330
16370
100
AcDbEntity
  8
DEFPOINTS
 62
     0
 48
50.0
100
AcDbPoint
 10
2623.379089388196
 20
3723.20905717148
 30
0.0
  0
POINT
  5
16ADC
330
16370
100
AcDbEntity
  8
DEFPOINTS
 62
     0
 48
50.0
100
AcDbPoint
 10
2473.379089388196
 20
1723.20905717148
 30
0.0
  0
POINT
  5
16ADD
330
16370
100
AcDbEntity
  8
DEFPOINTS
 62
     0
 48
50.0
100
AcDbPoint
 10
2132.507252676951
 20
1723.20905717148
 30
0.0
  0
ENDBLK
  5
16372
330
16370
100
AcDbEntity
  8
0
 48
50.0
100
AcDbBlockEnd
  0
BLOCK
  5
1637D
330
1637C
100
AcDbEntity
  8
0
 48
50.0
100
AcDbBlockBegin
  2
*D20
 70
     1
 10
0.0
 20
0.0
 30
0.0
  3
*D20
  1

  0
LINE
  5
16ADE
330
1637C
100
AcDbEntity
  8
寸法
 62
     0
 48
50.0
370
    -2
100
AcDbLine
 10
2608.379089388196
 20
4073.20905717148
 30
0.0
 11
2087.507252676951
 21
4073.20905717148
 31
0.0
  0
LINE
  5
16ADF
330
1637C
100
AcDbEntity
  8
寸法
 62
     0
 48
50.0
370
    -2
100
AcDbLine
 10
2608.379089388196
 20
3723.20905717148
 30
0.0
 11
2087.507252676951
 21
3723.20905717148
 31
0.0
  0
LINE
  5
16AE0
330
1637C
100
AcDbEntity
  8
寸法
 62
     0
 48
50.0
370
    -2
100
AcDbLine
 10
2132.507252676951
 20
4073.20905717148
 30
0.0
 11
2132.507252676951
 21
3723.20905717148
 31
0.0
  0
INSERT
  5
16AE1
330
1637C
100
AcDbEntity
  8
寸法
 62
     0
 48
50.0
370
    -2
100
AcDbBlockReference
  2
_DOTSMALL
 10
2132.507252676951
 20
4073.20905717148
 30
0.0
 41
75.0
 42
75.0
 43
75.0
 50
90.0
  0
INSERT
  5
16AE2
330
1637C
100
AcDbEntity
  8
寸法
 62
     0
 48
50.0
370
    -2
100
AcDbBlockReference
  2
_DOTSMALL
 10
2132.507252676951
 20
3723.20905717148
 30
0.0
 41
75.0
 42
75.0
 43
75.0
 50
270.0
  0
MTEXT
  5
16AE3
330
1637C
100
AcDbEntity
  8
寸法
 62
     7
 48
50.0
100
AcDbMText
 10
2057.50725267695
 20
3898.209057171481
 30
0.0
 40
90.0
 41
0.0
 71
     5
 72
     1
  1
\A1;350
  7
STYLE1
 11
0.0000000000000001
 21
1.0
 31
0.0
 73
     1
 44
1.0
1001
ACAD
1000
MTEXTBEGIN
1070
    73
1070
     1
1070
    44
1040
1.0
1070
    74
1070
     0
1000
MTEXTEND
  0
POINT
  5
16AE4
330
1637C
100
AcDbEntity
  8
DEFPOINTS
 62
     0
 48
50.0
100
AcDbPoint
 10
2623.379089388196
 20
4073.20905717148
 30
0.0
  0
POINT
  5
16AE5
330
1637C
100
AcDbEntity
  8
DEFPOINTS
 62
     0
 48
50.0
100
AcDbPoint
 10
2623.379089388196
 20
3723.20905717148
 30
0.0
  0
POINT
  5
16AE6
330
1637C
100
AcDbEntity
  8
DEFPOINTS
 62
     0
 48
50.0
100
AcDbPoint
 10
2132.507252676951
 20
3723.20905717148
 30
0.0
  0
ENDBLK
  5
1637E
330
1637C
100
AcDbEntity
  8
0
 48
50.0
100
AcDbBlockEnd
  0
BLOCK
  5
16389
330
16388
100
AcDbEntity
  8
0
 48
50.0
100
AcDbBlockBegin
  2
*D21
 70
     1
 10
0.0
 20
0.0
 30
0.0
  3
*D21
  1

  0
LINE
  5
16AE7
330
16388
100
AcDbEntity
  8
寸法
 62
     0
 48
50.0
370
    -2
100
AcDbLine
 10
2608.379089388196
 20
4073.20905717148
 30
0.0
 11
2087.50725267695
 21
4073.20905717148
 31
0.0
  0
LINE
  5
16AE8
330
16388
100
AcDbEntity
  8
寸法
 62
     0
 48
50.0
370
    -2
100
AcDbLine
 10
2458.379089388196
 20
6073.20905717148
 30
0.0
 11
2087.507252676951
 21
6073.20905717148
 31
0.0
  0
LINE
  5
16AE9
330
16388
100
AcDbEntity
  8
寸法
 62
     0
 48
50.0
370
    -2
100
AcDbLine
 10
2132.50725267695
 20
4073.20905717148
 30
0.0
 11
2132.507252676951
 21
6073.20905717148
 31
0.0
  0
INSERT
  5
16AEA
330
16388
100
AcDbEntity
  8
寸法
 62
     0
 48
50.0
370
    -2
100
AcDbBlockReference
  2
_DOTSMALL
 10
2132.50725267695
 20
4073.20905717148
 30
0.0
 41
75.0
 42
75.0
 43
75.0
 50
270.0
  0
INSERT
  5
16AEB
330
16388
100
AcDbEntity
  8
寸法
 62
     0
 48
50.0
370
    -2
100
AcDbBlockReference
  2
_DOTSMALL
 10
2132.507252676951
 20
6073.20905717148
 30
0.0
 41
75.0
 42
75.0
 43
75.0
 50
90.0
  0
MTEXT
  5
16AEC
330
16388
100
AcDbEntity
  8
寸法
 62
     7
 48
50.0
100
AcDbMText
 10
2057.498394409233
 20
5073.209057171481
 30
0.0
 40
90.0
 41
0.0
 71
     5
 72
     1
  1
\A1;2000
  7
STYLE1
 11
0.0000000000000001
 21
1.0
 31
0.0
 73
     1
 44
1.0
1001
ACAD
1000
MTEXTBEGIN
1070
    73
1070
     1
1070
    44
1040
1.0
1070
    74
1070
     0
1000
MTEXTEND
  0
POINT
  5
16AED
330
16388
100
AcDbEntity
  8
DEFPOINTS
 62
     0
 48
50.0
100
AcDbPoint
 10
2623.379089388196
 20
4073.20905717148
 30
0.0
  0
POINT
  5
16AEE
330
16388
100
AcDbEntity
  8
DEFPOINTS
 62
     0
 48
50.0
100
AcDbPoint
 10
2473.379089388196
 20
6073.20905717148
 30
0.0
  0
POINT
  5
16AEF
330
16388
100
AcDbEntity
  8
DEFPOINTS
 62
     0
 48
50.0
100
AcDbPoint
 10
2132.507252676951
 20
6073.20905717148
 30
0.0
  0
ENDBLK
  5
1638A
330
16388
100
AcDbEntity
  8
0
 48
50.0
100
AcDbBlockEnd
  0
BLOCK
  5
16395
330
16394
100
AcDbEntity
  8
0
 48
50.0
100
AcDbBlockBegin
  2
*D22
 70
     1
 10
0.0
 20
0.0
 30
0.0
  3
*D22
  1

  0
LINE
  5
16BC4
330
16394
100
AcDbEntity
  8
寸法
 62
     0
 48
50.0
370
    -2
100
AcDbLine
 10
2473.379089388225
 20
6088.209057171479
 30
0.0
 11
2473.379089388225
 21
6621.698390276899
 31
0.0
  0
LINE
  5
16BC5
330
16394
100
AcDbEntity
  8
寸法
 62
     0
 48
50.0
370
    -2
100
AcDbLine
 10
5673.379089388225
 20
6088.209057171479
 30
0.0
 11
5673.379089388225
 21
6621.698390276899
 31
0.0
  0
LINE
  5
16BC6
330
16394
100
AcDbEntity
  8
寸法
 62
     0
 48
50.0
370
    -2
100
AcDbLine
 10
2473.379089388225
 20
6576.698390276899
 30
0.0
 11
5673.379089388225
 21
6576.698390276899
 31
0.0
  0
INSERT
  5
16BC7
330
16394
100
AcDbEntity
  8
寸法
 62
     0
 48
50.0
370
    -2
100
AcDbBlockReference
  2
_DOTSMALL
 10
2473.379089388225
 20
6576.698390276899
 30
0.0
 41
75.0
 42
75.0
 43
75.0
 50
180.0
  0
INSERT
  5
16BC8
330
16394
100
AcDbEntity
  8
寸法
 62
     0
 48
50.0
370
    -2
100
AcDbBlockReference
  2
_DOTSMALL
 10
5673.379089388225
 20
6576.698390276899
 30
0.0
 41
75.0
 42
75.0
 43
75.0
  0
MTEXT
  5
16BC9
330
16394
100
AcDbEntity
  8
寸法
 62
     7
 48
50.0
100
AcDbMText
 10
4073.379089388224
 20
6651.707248544615
 30
0.0
 40
90.0
 41
0.0
 71
     5
 72
     1
  1
\A1;基礎土間寸法 3200
  7
STYLE1
 73
     1
 44
1.0
1001
ACAD
1000
MTEXTBEGIN
1070
    73
1070
     1
1070
    44
1040
1.0
1070
    74
1070
     0
1000
MTEXTEND
  0
POINT
  5
16BCA
330
16394
100
AcDbEntity
  8
DEFPOINTS
 62
     0
 48
50.0
100
AcDbPoint
 10
2473.379089388225
 20
6073.20905717148
 30
0.0
  0
POINT
  5
16BCB
330
16394
100
AcDbEntity
  8
DEFPOINTS
 62
     0
 48
50.0
100
AcDbPoint
 10
5673.379089388225
 20
6073.20905717148
 30
0.0
  0
POINT
  5
16BCC
330
16394
100
AcDbEntity
  8
DEFPOINTS
 62
     0
 48
50.0
100
AcDbPoint
 10
5673.379089388225
 20
6576.698390276899
 30
0.0
  0
ENDBLK
  5
16396
330
16394
100
AcDbEntity
  8
0
 48
50.0
100
AcDbBlockEnd
  0
BLOCK
  5
163A1
330
163A0
100
AcDbEntity
  8
0
 48
50.0
100
AcDbBlockBegin
  2
*D23
 70
     1
 10
0.0
 20
0.0
 30
0.0
  3
*D23
  1

  0
LINE
  5
16BCD
330
163A0
100
AcDbEntity
  8
寸法
 62
     0
 48
50.0
370
    -2
100
AcDbLine
 10
5273.379089388225
 20
4338.209057171479
 30
0.0
 11
5273.379089388225
 21
6427.661351302581
 31
0.0
  0
LINE
  5
16BCE
330
163A0
100
AcDbEntity
  8
寸法
 62
     0
 48
50.0
370
    -2
100
AcDbLine
 10
5673.379089388225
 20
6088.209057171479
 30
0.0
 11
5673.379089388225
 21
6427.661351302581
 31
0.0
  0
LINE
  5
16BCF
330
163A0
100
AcDbEntity
  8
寸法
 62
     0
 48
50.0
370
    -2
100
AcDbLine
 10
5273.379089388225
 20
6382.66135130258
 30
0.0
 11
5673.379089388225
 21
6382.66135130258
 31
0.0
  0
INSERT
  5
16BD0
330
163A0
100
AcDbEntity
  8
寸法
 62
     0
 48
50.0
370
    -2
100
AcDbBlockReference
  2
_DOTSMALL
 10
5273.379089388225
 20
6382.66135130258
 30
0.0
 41
75.0
 42
75.0
 43
75.0
 50
180.0
  0
INSERT
  5
16BD1
330
163A0
100
AcDbEntity
  8
寸法
 62
     0
 48
50.0
370
    -2
100
AcDbBlockReference
  2
_DOTSMALL
 10
5673.379089388225
 20
6382.66135130258
 30
0.0
 41
75.0
 42
75.0
 43
75.0
  0
MTEXT
  5
16BD2
330
163A0
100
AcDbEntity
  8
寸法
 62
     7
 48
50.0
100
AcDbMText
 10
5473.379089388225
 20
6457.66135130258
 30
0.0
 40
90.0
 41
0.0
 71
     5
 72
     1
  1
\A1;400
  7
STYLE1
 73
     1
 44
1.0
1001
ACAD
1000
MTEXTBEGIN
1070
    73
1070
     1
1070
    44
1040
1.0
1070
    74
1070
     0
1000
MTEXTEND
  0
POINT
  5
16BD3
330
163A0
100
AcDbEntity
  8
DEFPOINTS
 62
     0
 48
50.0
100
AcDbPoint
 10
5273.379089388225
 20
4323.20905717148
 30
0.0
  0
POINT
  5
16BD4
330
163A0
100
AcDbEntity
  8
DEFPOINTS
 62
     0
 48
50.0
100
AcDbPoint
 10
5673.379089388225
 20
6073.20905717148
 30
0.0
  0
POINT
  5
16BD5
330
163A0
100
AcDbEntity
  8
DEFPOINTS
 62
     0
 48
50.0
100
AcDbPoint
 10
5673.379089388225
 20
6382.66135130258
 30
0.0
  0
ENDBLK
  5
163A2
330
163A0
100
AcDbEntity
  8
0
 48
50.0
100
AcDbBlockEnd
  0
BLOCK
  5
163AD
330
163AC
100
AcDbEntity
  8
0
 48
50.0
100
AcDbBlockBegin
  2
*D24
 70
     1
 10
0.0
 20
0.0
 30
0.0
  3
*D24
  1

  0
LINE
  5
16BD6
330
163AC
100
AcDbEntity
  8
寸法
 62
     0
 48
50.0
370
    -2
100
AcDbLine
 10
2873.379089388225
 20
4338.209057171479
 30
0.0
 11
2873.379089388225
 21
6427.661351302581
 31
0.0
  0
LINE
  5
16BD7
330
163AC
100
AcDbEntity
  8
寸法
 62
     0
 48
50.0
370
    -2
100
AcDbLine
 10
5273.379089388225
 20
4338.209057171479
 30
0.0
 11
5273.379089388225
 21
6427.661351302581
 31
0.0
  0
LINE
  5
16BD8
330
163AC
100
AcDbEntity
  8
寸法
 62
     0
 48
50.0
370
    -2
100
AcDbLine
 10
2873.379089388225
 20
6382.66135130258
 30
0.0
 11
5273.379089388225
 21
6382.66135130258
 31
0.0
  0
INSERT
  5
16BD9
330
163AC
100
AcDbEntity
  8
寸法
 62
     0
 48
50.0
370
    -2
100
AcDbBlockReference
  2
_DOTSMALL
 10
2873.379089388225
 20
6382.66135130258
 30
0.0
 41
75.0
 42
75.0
 43
75.0
 50
180.0
  0
INSERT
  5
16BDA
330
163AC
100
AcDbEntity
  8
寸法
 62
     0
 48
50.0
370
    -2
100
AcDbBlockReference
  2
_DOTSMALL
 10
5273.379089388225
 20
6382.66135130258
 30
0.0
 41
75.0
 42
75.0
 43
75.0
  0
MTEXT
  5
16BDB
330
163AC
100
AcDbEntity
  8
寸法
 62
     7
 48
50.0
100
AcDbMText
 10
4073.379089388224
 20
6457.670209570297
 30
0.0
 40
90.0
 41
0.0
 71
     5
 72
     1
  1
\A1;2400
  7
STYLE1
 73
     1
 44
1.0
1001
ACAD
1000
MTEXTBEGIN
1070
    73
1070
     1
1070
    44
1040
1.0
1070
    74
1070
     0
1000
MTEXTEND
  0
POINT
  5
16BDC
330
163AC
100
AcDbEntity
  8
DEFPOINTS
 62
     0
 48
50.0
100
AcDbPoint
 10
2873.379089388225
 20
4323.20905717148
 30
0.0
  0
POINT
  5
16BDD
330
163AC
100
AcDbEntity
  8
DEFPOINTS
 62
     0
 48
50.0
100
AcDbPoint
 10
5273.379089388225
 20
4323.20905717148
 30
0.0
  0
POINT
  5
16BDE
330
163AC
100
AcDbEntity
  8
DEFPOINTS
 62
     0
 48
50.0
100
AcDbPoint
 10
5273.379089388225
 20
6382.66135130258
 30
0.0
  0
ENDBLK
  5
163AE
330
163AC
100
AcDbEntity
  8
0
 48
50.0
100
AcDbBlockEnd
  0
BLOCK
  5
163B9
330
163B8
100
AcDbEntity
  8
0
 48
50.0
100
AcDbBlockBegin
  2
*D25
 70
     1
 10
0.0
 20
0.0
 30
0.0
  3
*D25
  1

  0
LINE
  5
16B0B
330
163B8
100
AcDbEntity
  8
寸法
 62
     0
 48
50.0
370
    -2
100
AcDbLine
 10
2473.379089388225
 20
6088.209057171479
 30
0.0
 11
2473.379089388225
 21
6427.661351302581
 31
0.0
  0
LINE
  5
16B0C
330
163B8
100
AcDbEntity
  8
寸法
 62
     0
 48
50.0
370
    -2
100
AcDbLine
 10
2873.379089388225
 20
4338.209057171479
 30
0.0
 11
2873.379089388225
 21
6427.661351302581
 31
0.0
  0
LINE
  5
16B0D
330
163B8
100
AcDbEntity
  8
寸法
 62
     0
 48
50.0
370
    -2
100
AcDbLine
 10
2473.379089388225
 20
6382.66135130258
 30
0.0
 11
2873.379089388225
 21
6382.66135130258
 31
0.0
  0
INSERT
  5
16B0E
330
163B8
100
AcDbEntity
  8
寸法
 62
     0
 48
50.0
370
    -2
100
AcDbBlockReference
  2
_DOTSMALL
 10
2473.379089388225
 20
6382.66135130258
 30
0.0
 41
75.0
 42
75.0
 43
75.0
 50
180.0
  0
INSERT
  5
16B0F
330
163B8
100
AcDbEntity
  8
寸法
 62
     0
 48
50.0
370
    -2
100
AcDbBlockReference
  2
_DOTSMALL
 10
2873.379089388225
 20
6382.66135130258
 30
0.0
 41
75.0
 42
75.0
 43
75.0
  0
MTEXT
  5
16B10
330
163B8
100
AcDbEntity
  8
寸法
 62
     7
 48
50.0
100
AcDbMText
 10
2673.379089388225
 20
6457.66135130258
 30
0.0
 40
90.0
 41
0.0
 71
     5
 72
     1
  1
\A1;400
  7
STYLE1
 73
     1
 44
1.0
1001
ACAD
1000
MTEXTBEGIN
1070
    73
1070
     1
1070
    44
1040
1.0
1070
    74
1070
     0
1000
MTEXTEND
  0
POINT
  5
16B11
330
163B8
100
AcDbEntity
  8
DEFPOINTS
 62
     0
 48
50.0
100
AcDbPoint
 10
2473.379089388225
 20
6073.20905717148
 30
0.0
  0
POINT
  5
16B12
330
163B8
100
AcDbEntity
  8
DEFPOINTS
 62
     0
 48
50.0
100
AcDbPoint
 10
2873.379089388225
 20
4323.20905717148
 30
0.0
  0
POINT
  5
16B13
330
163B8
100
AcDbEntity
  8
DEFPOINTS
 62
     0
 48
50.0
100
AcDbPoint
 10
2873.379089388225
 20
6382.66135130258
 30
0.0
  0
ENDBLK
  5
163BA
330
163B8
100
AcDbEntity
  8
0
 48
50.0
100
AcDbBlockEnd
  0
BLOCK
  5
163C5
330
163C4
100
AcDbEntity
  8
0
 48
50.0
100
AcDbBlockBegin
  2
*D26
 70
     1
 10
0.0
 20
0.0
 30
0.0
  3
*D26
  1

  0
LINE
  5
16BDF
330
163C4
100
AcDbEntity
  8
寸法
 62
     0
 48
50.0
370
    -2
100
AcDbLine
 10
5273.379089388196
 20
3458.209057171465
 30
0.0
 11
5273.379089388196
 21
2915.072841134374
 31
0.0
  0
LINE
  5
16BE0
330
163C4
100
AcDbEntity
  8
寸法
 62
     0
 48
50.0
370
    -2
100
AcDbLine
 10
4873.379089388196
 20
3183.209057171465
 30
0.0
 11
4873.379089388196
 21
2915.072841134374
 31
0.0
  0
LINE
  5
16BE1
330
163C4
100
AcDbEntity
  8
寸法
 62
     0
 48
50.0
370
    -2
100
AcDbLine
 10
5273.379089388196
 20
2960.072841134373
 30
0.0
 11
4873.379089388196
 21
2960.072841134373
 31
0.0
  0
INSERT
  5
16BE2
330
163C4
100
AcDbEntity
  8
寸法
 62
     0
 48
50.0
370
    -2
100
AcDbBlockReference
  2
_DOTSMALL
 10
5273.379089388196
 20
2960.072841134373
 30
0.0
 41
75.0
 42
75.0
 43
75.0
  0
INSERT
  5
16BE3
330
163C4
100
AcDbEntity
  8
寸法
 62
     0
 48
50.0
370
    -2
100
AcDbBlockReference
  2
_DOTSMALL
 10
4873.379089388196
 20
2960.072841134373
 30
0.0
 41
75.0
 42
75.0
 43
75.0
 50
180.0
  0
MTEXT
  5
16BE4
330
163C4
100
AcDbEntity
  8
寸法
 62
     7
 48
50.0
100
AcDbMText
 10
5073.379089388196
 20
3035.072841134374
 30
0.0
 40
90.0
 41
0.0
 71
     5
 72
     1
  1
\A1;400
  7
STYLE1
 73
     1
 44
1.0
1001
ACAD
1000
MTEXTBEGIN
1070
    73
1070
     1
1070
    44
1040
1.0
1070
    74
1070
     0
1000
MTEXTEND
  0
POINT
  5
16BE5
330
163C4
100
AcDbEntity
  8
DEFPOINTS
 62
     0
 48
50.0
100
AcDbPoint
 10
5273.379089388196
 20
3473.209057171465
 30
0.0
  0
POINT
  5
16BE6
330
163C4
100
AcDbEntity
  8
DEFPOINTS
 62
     0
 48
50.0
100
AcDbPoint
 10
4873.379089388196
 20
3198.209057171466
 30
0.0
  0
POINT
  5
16BE7
330
163C4
100
AcDbEntity
  8
DEFPOINTS
 62
     0
 48
50.0
100
AcDbPoint
 10
4873.379089388196
 20
2960.072841134373
 30
0.0
  0
ENDBLK
  5
163C6
330
163C4
100
AcDbEntity
  8
0
 48
50.0
100
AcDbBlockEnd
  0
BLOCK
  5
163D1
330
163D0
100
AcDbEntity
  8
0
 48
50.0
100
AcDbBlockBegin
  2
*D27
 70
     1
 10
0.0
 20
0.0
 30
0.0
  3
*D27
  1

  0
LINE
  5
16BE8
330
163D0
100
AcDbEntity
  8
寸法
 62
     0
 48
50.0
370
    -2
100
AcDbLine
 10
4873.379089388196
 20
3183.209057171465
 30
0.0
 11
4873.379089388196
 21
2676.936625097311
 31
0.0
  0
LINE
  5
16BE9
330
163D0
100
AcDbEntity
  8
寸法
 62
     0
 48
50.0
370
    -2
100
AcDbLine
 10
5673.379089388225
 20
3183.209057171465
 30
0.0
 11
5673.379089388225
 21
2676.936625097311
 31
0.0
  0
LINE
  5
16BEA
330
163D0
100
AcDbEntity
  8
寸法
 62
     0
 48
50.0
370
    -2
100
AcDbLine
 10
4873.379089388196
 20
2721.936625097311
 30
0.0
 11
5673.379089388225
 21
2721.936625097311
 31
0.0
  0
INSERT
  5
16BEB
330
163D0
100
AcDbEntity
  8
寸法
 62
     0
 48
50.0
370
    -2
100
AcDbBlockReference
  2
_DOTSMALL
 10
4873.379089388196
 20
2721.936625097311
 30
0.0
 41
75.0
 42
75.0
 43
75.0
 50
180.0
  0
INSERT
  5
16BEC
330
163D0
100
AcDbEntity
  8
寸法
 62
     0
 48
50.0
370
    -2
100
AcDbBlockReference
  2
_DOTSMALL
 10
5673.379089388225
 20
2721.936625097311
 30
0.0
 41
75.0
 42
75.0
 43
75.0
  0
MTEXT
  5
16BED
330
163D0
100
AcDbEntity
  8
寸法
 62
     7
 48
50.0
100
AcDbMText
 10
5273.379089388196
 20
2796.936625097311
 30
0.0
 40
90.0
 41
0.0
 71
     5
 72
     1
  1
\A1;800
  7
STYLE1
 73
     1
 44
1.0
1001
ACAD
1000
MTEXTBEGIN
1070
    73
1070
     1
1070
    44
1040
1.0
1070
    74
1070
     0
1000
MTEXTEND
  0
POINT
  5
16BEE
330
163D0
100
AcDbEntity
  8
DEFPOINTS
 62
     0
 48
50.0
100
AcDbPoint
 10
4873.379089388196
 20
3198.209057171466
 30
0.0
  0
POINT
  5
16BEF
330
163D0
100
AcDbEntity
  8
DEFPOINTS
 62
     0
 48
50.0
100
AcDbPoint
 10
5673.379089388225
 20
3198.209057171466
 30
0.0
  0
POINT
  5
16BF0
330
163D0
100
AcDbEntity
  8
DEFPOINTS
 62
     0
 48
50.0
100
AcDbPoint
 10
5673.379089388225
 20
2721.936625097311
 30
0.0
  0
ENDBLK
  5
163D2
330
163D0
100
AcDbEntity
  8
0
 48
50.0
100
AcDbBlockEnd
  0
BLOCK
  5
163DD
330
163DC
100
AcDbEntity
  8
0
 48
50.0
100
AcDbBlockBegin
  2
*D28
 70
     1
 10
0.0
 20
0.0
 30
0.0
  3
*D28
  1

  0
LINE
  5
16BF1
330
163DC
100
AcDbEntity
  8
寸法
 62
     0
 48
50.0
370
    -2
100
AcDbLine
 10
5008.379089388196
 20
3723.209057171465
 30
0.0
 11
4651.064586104024
 21
3723.209057171465
 31
0.0
  0
LINE
  5
16BF2
330
163DC
100
AcDbEntity
  8
寸法
 62
     0
 48
50.0
370
    -2
100
AcDbLine
 10
4858.379089388196
 20
3198.209057171451
 30
0.0
 11
4651.064586104024
 21
3198.209057171451
 31
0.0
  0
LINE
  5
16BF3
330
163DC
100
AcDbEntity
  8
寸法
 62
     0
 48
50.0
370
    -2
100
AcDbLine
 10
4696.064586104024
 20
3723.209057171465
 30
0.0
 11
4696.064586104024
 21
3198.209057171451
 31
0.0
  0
INSERT
  5
16BF4
330
163DC
100
AcDbEntity
  8
寸法
 62
     0
 48
50.0
370
    -2
100
AcDbBlockReference
  2
_DOTSMALL
 10
4696.064586104024
 20
3723.209057171465
 30
0.0
 41
75.0
 42
75.0
 43
75.0
 50
90.0
  0
INSERT
  5
16BF5
330
163DC
100
AcDbEntity
  8
寸法
 62
     0
 48
50.0
370
    -2
100
AcDbBlockReference
  2
_DOTSMALL
 10
4696.064586104024
 20
3198.209057171451
 30
0.0
 41
75.0
 42
75.0
 43
75.0
 50
270.0
  0
MTEXT
  5
16BF6
330
163DC
100
AcDbEntity
  8
寸法
 62
     7
 48
50.0
100
AcDbMText
 10
4621.055727836307
 20
3460.709057171459
 30
0.0
 40
90.0
 41
0.0
 71
     5
 72
     1
  1
\A1;525
  7
STYLE1
 11
0.0000000000000001
 21
1.0
 31
0.0
 73
     1
 44
1.0
1001
ACAD
1000
MTEXTBEGIN
1070
    73
1070
     1
1070
    44
1040
1.0
1070
    74
1070
     0
1000
MTEXTEND
  0
POINT
  5
16BF7
330
163DC
100
AcDbEntity
  8
DEFPOINTS
 62
     0
 48
50.0
100
AcDbPoint
 10
5023.379089388196
 20
3723.209057171465
 30
0.0
  0
POINT
  5
16BF8
330
163DC
100
AcDbEntity
  8
DEFPOINTS
 62
     0
 48
50.0
100
AcDbPoint
 10
4873.379089388196
 20
3198.209057171451
 30
0.0
  0
POINT
  5
16BF9
330
163DC
100
AcDbEntity
  8
DEFPOINTS
 62
     0
 48
50.0
100
AcDbPoint
 10
4696.064586104024
 20
3198.209057171451
 30
0.0
  0
ENDBLK
  5
163DE
330
163DC
100
AcDbEntity
  8
0
 48
50.0
100
AcDbBlockEnd
  0
BLOCK
  5
163E9
330
163E8
100
AcDbEntity
  8
0
 48
50.0
100
AcDbBlockBegin
  2
*D29
 70
     1
 10
0.0
 20
0.0
 30
0.0
  3
*D29
  1

  0
LINE
  5
16BFA
330
163E8
100
AcDbEntity
  8
寸法
 62
     0
 48
50.0
370
    -2
100
AcDbLine
 10
4858.379089388196
 20
4598.209057171465
 30
0.0
 11
4473.750082819853
 21
4598.209057171465
 31
0.0
  0
LINE
  5
16BFB
330
163E8
100
AcDbEntity
  8
寸法
 62
     0
 48
50.0
370
    -2
100
AcDbLine
 10
4858.379089388196
 20
3198.209057171451
 30
0.0
 11
4473.750082819853
 21
3198.209057171451
 31
0.0
  0
LINE
  5
16BFC
330
163E8
100
AcDbEntity
  8
寸法
 62
     0
 48
50.0
370
    -2
100
AcDbLine
 10
4518.750082819853
 20
4598.209057171465
 30
0.0
 11
4518.750082819853
 21
3198.209057171451
 31
0.0
  0
INSERT
  5
16BFD
330
163E8
100
AcDbEntity
  8
寸法
 62
     0
 48
50.0
370
    -2
100
AcDbBlockReference
  2
_DOTSMALL
 10
4518.750082819853
 20
4598.209057171465
 30
0.0
 41
75.0
 42
75.0
 43
75.0
 50
90.0
  0
INSERT
  5
16BFE
330
163E8
100
AcDbEntity
  8
寸法
 62
     0
 48
50.0
370
    -2
100
AcDbBlockReference
  2
_DOTSMALL
 10
4518.750082819853
 20
3198.209057171451
 30
0.0
 41
75.0
 42
75.0
 43
75.0
 50
270.0
  0
MTEXT
  5
16BFF
330
163E8
100
AcDbEntity
  8
寸法
 62
     7
 48
50.0
100
AcDbMText
 10
4443.750082819852
 20
3898.209057171459
 30
0.0
 40
90.0
 41
0.0
 71
     5
 72
     1
  1
\A1;1400
  7
STYLE1
 11
0.0000000000000001
 21
1.0
 31
0.0
 73
     1
 44
1.0
1001
ACAD
1000
MTEXTBEGIN
1070
    73
1070
     1
1070
    44
1040
1.0
1070
    74
1070
     0
1000
MTEXTEND
  0
POINT
  5
16C00
330
163E8
100
AcDbEntity
  8
DEFPOINTS
 62
     0
 48
50.0
100
AcDbPoint
 10
4873.379089388196
 20
4598.209057171465
 30
0.0
  0
POINT
  5
16C01
330
163E8
100
AcDbEntity
  8
DEFPOINTS
 62
     0
 48
50.0
100
AcDbPoint
 10
4873.379089388196
 20
3198.209057171451
 30
0.0
  0
POINT
  5
16C02
330
163E8
100
AcDbEntity
  8
DEFPOINTS
 62
     0
 48
50.0
100
AcDbPoint
 10
4518.750082819853
 20
3198.209057171451
 30
0.0
  0
ENDBLK
  5
163EA
330
163E8
100
AcDbEntity
  8
0
 48
50.0
100
AcDbBlockEnd
  0
BLOCK
  5
163F5
330
163F4
100
AcDbEntity
  8
0
 48
50.0
100
AcDbBlockBegin
  2
*D30
 70
     1
 10
0.0
 20
0.0
 30
0.0
  3
*D30
  1

  0
LINE
  5
16C03
330
163F4
100
AcDbEntity
  8
寸法
 62
     0
 48
50.0
370
    -2
100
AcDbLine
 10
5008.379089388196
 20
4073.209057171465
 30
0.0
 11
4651.064586104024
 21
4073.209057171465
 31
0.0
  0
LINE
  5
16C04
330
163F4
100
AcDbEntity
  8
寸法
 62
     0
 48
50.0
370
    -2
100
AcDbLine
 10
5008.379089388196
 20
3723.209057171465
 30
0.0
 11
4651.064586104024
 21
3723.209057171465
 31
0.0
  0
LINE
  5
16C05
330
163F4
100
AcDbEntity
  8
寸法
 62
     0
 48
50.0
370
    -2
100
AcDbLine
 10
4696.064586104024
 20
4073.209057171465
 30
0.0
 11
4696.064586104024
 21
3723.209057171465
 31
0.0
  0
INSERT
  5
16C06
330
163F4
100
AcDbEntity
  8
寸法
 62
     0
 48
50.0
370
    -2
100
AcDbBlockReference
  2
_DOTSMALL
 10
4696.064586104024
 20
4073.209057171465
 30
0.0
 41
75.0
 42
75.0
 43
75.0
 50
90.0
  0
INSERT
  5
16C07
330
163F4
100
AcDbEntity
  8
寸法
 62
     0
 48
50.0
370
    -2
100
AcDbBlockReference
  2
_DOTSMALL
 10
4696.064586104024
 20
3723.209057171465
 30
0.0
 41
75.0
 42
75.0
 43
75.0
 50
270.0
  0
MTEXT
  5
16C08
330
163F4
100
AcDbEntity
  8
寸法
 62
     7
 48
50.0
100
AcDbMText
 10
4621.064586104024
 20
3898.209057171466
 30
0.0
 40
90.0
 41
0.0
 71
     5
 72
     1
  1
\A1;350
  7
STYLE1
 11
0.0000000000000001
 21
1.0
 31
0.0
 73
     1
 44
1.0
1001
ACAD
1000
MTEXTBEGIN
1070
    73
1070
     1
1070
    44
1040
1.0
1070
    74
1070
     0
1000
MTEXTEND
  0
POINT
  5
16C09
330
163F4
100
AcDbEntity
  8
DEFPOINTS
 62
     0
 48
50.0
100
AcDbPoint
 10
5023.379089388196
 20
4073.209057171465
 30
0.0
  0
POINT
  5
16C0A
330
163F4
100
AcDbEntity
  8
DEFPOINTS
 62
     0
 48
50.0
100
AcDbPoint
 10
5023.379089388196
 20
3723.209057171465
 30
0.0
  0
POINT
  5
16C0B
330
163F4
100
AcDbEntity
  8
DEFPOINTS
 62
     0
 48
50.0
100
AcDbPoint
 10
4696.064586104024
 20
3723.209057171465
 30
0.0
  0
ENDBLK
  5
163F6
330
163F4
100
AcDbEntity
  8
0
 48
50.0
100
AcDbBlockEnd
  0
BLOCK
  5
16401
330
16400
100
AcDbEntity
  8
0
 48
50.0
100
AcDbBlockBegin
  2
*D31
 70
     1
 10
0.0
 20
0.0
 30
0.0
  3
*D31
  1

  0
LINE
  5
16C0C
330
16400
100
AcDbEntity
  8
寸法
 62
     0
 48
50.0
370
    -2
100
AcDbLine
 10
5008.379089388196
 20
4073.209057171465
 30
0.0
 11
4651.064586104024
 21
4073.209057171465
 31
0.0
  0
LINE
  5
16C0D
330
16400
100
AcDbEntity
  8
寸法
 62
     0
 48
50.0
370
    -2
100
AcDbLine
 10
4858.379089388196
 20
4598.209057171479
 30
0.0
 11
4651.064586104024
 21
4598.209057171479
 31
0.0
  0
LINE
  5
16C0E
330
16400
100
AcDbEntity
  8
寸法
 62
     0
 48
50.0
370
    -2
100
AcDbLine
 10
4696.064586104024
 20
4073.209057171465
 30
0.0
 11
4696.064586104024
 21
4598.209057171479
 31
0.0
  0
INSERT
  5
16C0F
330
16400
100
AcDbEntity
  8
寸法
 62
     0
 48
50.0
370
    -2
100
AcDbBlockReference
  2
_DOTSMALL
 10
4696.064586104024
 20
4073.209057171465
 30
0.0
 41
75.0
 42
75.0
 43
75.0
 50
270.0
  0
INSERT
  5
16C10
330
16400
100
AcDbEntity
  8
寸法
 62
     0
 48
50.0
370
    -2
100
AcDbBlockReference
  2
_DOTSMALL
 10
4696.064586104024
 20
4598.209057171479
 30
0.0
 41
75.0
 42
75.0
 43
75.0
 50
90.0
  0
MTEXT
  5
16C11
330
16400
100
AcDbEntity
  8
寸法
 62
     7
 48
50.0
100
AcDbMText
 10
4621.055727836307
 20
4335.709057171473
 30
0.0
 40
90.0
 41
0.0
 71
     5
 72
     1
  1
\A1;525
  7
STYLE1
 11
0.0000000000000001
 21
1.0
 31
0.0
 73
     1
 44
1.0
1001
ACAD
1000
MTEXTBEGIN
1070
    73
1070
     1
1070
    44
1040
1.0
1070
    74
1070
     0
1000
MTEXTEND
  0
POINT
  5
16C12
330
16400
100
AcDbEntity
  8
DEFPOINTS
 62
     0
 48
50.0
100
AcDbPoint
 10
5023.379089388196
 20
4073.209057171465
 30
0.0
  0
POINT
  5
16C13
330
16400
100
AcDbEntity
  8
DEFPOINTS
 62
     0
 48
50.0
100
AcDbPoint
 10
4873.379089388196
 20
4598.209057171479
 30
0.0
  0
POINT
  5
16C14
330
16400
100
AcDbEntity
  8
DEFPOINTS
 62
     0
 48
50.0
100
AcDbPoint
 10
4696.064586104024
 20
4598.209057171479
 30
0.0
  0
ENDBLK
  5
16402
330
16400
100
AcDbEntity
  8
0
 48
50.0
100
AcDbBlockEnd
  0
ENDSEC
  0
SECTION
  2
ENTITIES
  0
MTEXT
  5
763F
330
747D
100
AcDbEntity
  8
0
100
AcDbMText
 10
302.846345836809
 20
280.1983726409901
 30
0.0
 40
3.5
 41
5.323721266742722
 71
     1
 72
     5
  1

  7
MSMINCHO
 73
     1
 44
1.0
1001
ACAD
1000
MTEXTBEGIN
1070
    73
1070
     1
1070
    44
1040
1.0
1070
    74
1070
     0
1000
MTEXTEND
  0
LINE
  5
10B56
330
747D
100
AcDbEntity
  8
補助
  6
PHANTOM
 62
   230
 48
50.0
100
AcDbLine
 10
105.0
 20
0.0
 30
0.0
 11
104.9999999999996
 21
8557.199999999999
 31
0.0
  0
LINE
  5
10B57
330
747D
100
AcDbEntity
  8
補助
  6
PHANTOM
 62
   230
 48
50.0
100
AcDbLine
 10
104.9999999999996
 20
8557.199999999999
 30
0.0
 11
12230.4
 21
8557.199999999999
 31
0.0
  0
LINE
  5
10B5E
330
747D
100
AcDbEntity
  8
補助
  6
PHANTOM
 62
   230
 48
50.0
100
AcDbLine
 10
12230.4
 20
8557.199999999999
 30
0.0
 11
12230.4
 21
900.0
 31
0.0
  0
LINE
  5
10B6D
330
747D
100
AcDbEntity
  8
補助
  6
PHANTOM
 62
   230
 48
50.0
100
AcDbLine
 10
9830.400000000002
 20
8557.199999999999
 30
0.0
 11
9830.400000000002
 21
3600.0
 31
0.0
  0
LINE
  5
10B6F
330
747D
100
AcDbEntity
  8
補助
  6
PHANTOM
 62
   230
 48
50.0
100
AcDbLine
 10
9830.400000000002
 20
3110.960973647383
 30
0.0
 11
12230.4
 21
3110.960973647383
 31
0.0
  0
LINE
  5
13125
330
747D
100
AcDbEntity
  8
補助
  6
PHANTOM
 62
   230
 48
50.0
100
AcDbLine
 10
11930.4
 20
8182.200000000003
 30
0.0
 11
11930.4
 21
6457.2
 31
0.0
  0
LINE
  5
13126
330
747D
100
AcDbEntity
  8
補助
  6
PHANTOM
 62
   230
 48
50.0
100
AcDbLine
 10
9380.400000000003
 20
8182.199999999999
 30
0.0
 11
9380.400000000003
 21
6457.2
 31
0.0
  0
LINE
  5
13127
330
747D
100
AcDbEntity
  8
補助
  6
PHANTOM
 62
   230
 48
50.0
100
AcDbLine
 10
9380.400000000003
 20
6457.2
 30
0.0
 11
11930.4
 21
6457.2
 31
0.0
  0
LINE
  5
13128
330
747D
100
AcDbEntity
  8
補助
  6
PHANTOM
 62
   230
 48
50.0
100
AcDbLine
 10
9380.400000000003
 20
8182.199999999999
 30
0.0
 11
11930.4
 21
8182.200000000003
 31
0.0
  0
TEXT
  5
13A53
330
747D
100
AcDbEntity
  8
文字
 62
     7
 48
50.0
100
AcDbText
 10
10893.09887791649
 20
773.6682797184221
 30
0.0
 40
75.0
  1
             <縮尺> S=1/30
  7
STYLE2
100
AcDbText
  0
TEXT
  5
13A54
330
747D
100
AcDbEntity
  8
文字
 62
     7
 48
50.0
100
AcDbText
 10
11138.71739229687
 20
628.6895453046891
 30
0.0
 40
75.0
  1
～一般型～
  7
STYLE2
100
AcDbText
  0
TEXT
  5
13A55
330
747D
100
AcDbEntity
  8
文字
 62
     7
 48
50.0
100
AcDbText
 10
10951.9835159712
 20
362.922534743353
 30
0.0
 40
120.0
  1
BP-24VP
  7
STYLE3
100
AcDbText
  0
LINE
  5
13A56
330
747D
100
AcDbEntity
  8
仕様書枠
  6
Continuous
 48
50.0
100
AcDbLine
 10
10688.4
 20
900.0
 30
0.0
 11
10688.4
 21
600.0
 31
0.0
  0
LINE
  5
13A57
330
747D
100
AcDbEntity
  8
仕様書枠
 48
50.0
100
AcDbLine
 10
9830.4
 20
600.0
 30
0.0
 11
10688.4
 21
600.0
 31
0.0
  0
TEXT
  5
13A58
330
747D
100
AcDbEntity
  8
文字
 62
     7
 48
50.0
100
AcDbText
 10
9907.0540081629
 20
57.07076030736789
 30
0.0
 40
60.0
  1
○寒冷地等は、地域の実情に合わせた基礎にしてください。
  7
STYLE2
100
AcDbText
  0
TEXT
  5
13A59
330
747D
100
AcDbEntity
  8
文字
 62
     7
 48
50.0
100
AcDbText
 10
9907.0540081629
 20
171.4076431926732
 30
0.0
 40
60.0
  1
○間口寸法は柱芯寸法です。
  7
STYLE2
100
AcDbText
  0
TEXT
  5
13A5A
330
747D
100
AcDbEntity
  8
文字
 62
     7
 48
50.0
100
AcDbText
 10
9901.077524988314
 20
357.9555495773456
 30
0.0
 40
120.0
  1
機種名
  7
STYLE2
100
AcDbText
  0
TEXT
  5
13A5B
330
747D
100
AcDbEntity
  8
文字
 62
     7
 48
50.0
100
AcDbText
 10
9872.234292432679
 20
671.3179555724564
 30
0.0
 40
150.0
  1
基 礎 図
  7
STYLE2
100
AcDbText
  0
LINE
  5
13A5C
330
747D
100
AcDbEntity
  8
文字
 62
     7
 48
50.0
100
AcDbLine
 10
9890.399999999999
 20
300.0
 30
0.0
 11
12170.4
 21
300.0
 31
0.0
  0
LINE
  5
13A5D
330
747D
100
AcDbEntity
  8
仕様書枠
 48
50.0
100
AcDbLine
 10
9830.4
 20
900.0
 30
0.0
 11
12230.4
 21
900.0
 31
0.0
  0
LINE
  5
13A5E
330
747D
100
AcDbEntity
  8
仕様書枠
 48
50.0
100
AcDbLine
 10
105.0
 20
0.0
 30
0.0
 11
12230.4
 21
0.0
 31
0.0
  0
LINE
  5
13A5F
330
747D
100
AcDbEntity
  8
仕様書枠
 48
50.0
100
AcDbLine
 10
12230.4
 20
900.0
 30
0.0
 11
12230.4
 21
0.0
 31
0.0
  0
LINE
  5
13A60
330
747D
100
AcDbEntity
  8
仕様書枠
  6
Continuous
 48
50.0
100
AcDbLine
 10
9830.4
 20
900.0
 30
0.0
 11
9830.4
 21
0.0
 31
0.0
  0
LINE
  5
15EAC
330
747D
100
AcDbEntity
  8
細線
 48
50.0
100
AcDbLine
 10
8836.473686725192
 20
3538.440598165908
 30
0.0
 11
8829.774956914421
 21
3563.440598165908
 31
0.0
  0
LINE
  5
15EAD
330
747D
100
AcDbEntity
  8
細線
 48
50.0
100
AcDbLine
 10
8713.211116495077
 20
3538.440598165908
 30
0.0
 11
8706.512386684307
 21
3563.440598165908
 31
0.0
  0
LINE
  5
15EAE
330
747D
100
AcDbEntity
  8
細線
 48
50.0
100
AcDbLine
 10
8589.948546265018
 20
3538.440598165908
 30
0.0
 11
8583.249816454248
 21
3563.440598165908
 31
0.0
  0
LINE
  5
15EAF
330
747D
100
AcDbEntity
  8
細線
 48
50.0
100
AcDbLine
 10
8466.685976034963
 20
3538.440598165908
 30
0.0
 11
8459.987246224192
 21
3563.440598165908
 31
0.0
  0
LINE
  5
15EB0
330
747D
100
AcDbEntity
  8
細線
 48
50.0
100
AcDbLine
 10
8843.172416535962
 20
3613.440598165908
 30
0.0
 11
8836.473686725192
 21
3638.440598165908
 31
0.0
  0
LINE
  5
15EB1
330
747D
100
AcDbEntity
  8
細線
 48
50.0
100
AcDbLine
 10
8719.909846305847
 20
3613.440598165908
 30
0.0
 11
8713.211116495077
 21
3638.440598165908
 31
0.0
  0
LINE
  5
15EB2
330
747D
100
AcDbEntity
  8
細線
 48
50.0
100
AcDbLine
 10
8473.384705845733
 20
3613.440598165908
 30
0.0
 11
8466.685976034963
 21
3638.440598165908
 31
0.0
  0
LINE
  5
15EB3
330
747D
100
AcDbEntity
  8
細線
 48
50.0
100
AcDbLine
 10
8596.64727607579
 20
3613.440598165908
 30
0.0
 11
8589.948546265018
 21
3638.440598165908
 31
0.0
  0
HATCH
  5
15EB4
330
747D
100
AcDbEntity
  8
細線
 48
50.0
100
AcDbHatch
 10
0.0
 20
0.0
 30
0.0000000000013153
210
0.0
220
0.0
230
1.0
  2
PLAST
 70
     0
 71
     0
 91
       10
 92
        7
 72
     1
 73
     1
 93
       16
 10
8924.310585868544
 20
4352.440598165907
 42
0.0
 10
8910.310585868545
 20
4352.440598165907
 42
0.0
 10
8896.310585868546
 20
4338.440598165908
 42
0.0
 10
7943.860585868475
 20
4338.440598165908
 42
0.0
 10
7943.860585868534
 20
4238.440598165907
 42
0.0
 10
8443.860585868533
 20
4238.440598165907
 42
0.0
 10
8443.860585868533
 20
4138.440598165936
 42
0.0
 10
8768.860585868534
 20
4138.440598165936
 42
0.0
 10
8768.860585868534
 20
4173.440598165907
 42
0.0
 10
8763.860585868533
 20
4173.440598165907
 42
-0.4142135623730951
 10
8758.860585868534
 20
4178.440598165908
 42
-0.4142135623730951
 10
8763.860585868533
 20
4183.440598165907
 42
0.0
 10
8835.310585868546
 20
4183.440598165907
 42
0.0
 10
8835.310585868546
 20
4220.440598165906
 42
0.0
 10
8845.310585868544
 20
4230.440598165907
 42
0.0
 10
8924.310585868544
 20
4230.440598165907
 42
0.0
 97
        0
 92
       23
 72
     0
 73
     1
 93
        6
 10
8862.860585868533
 20
4168.440598165907
 10
8828.860585868532
 20
4168.440598165907
 10
8828.860585868532
 20
4173.440598165907
 10
8781.860585868534
 20
4173.440598165907
 10
8781.860585868534
 20
4138.440598165936
 10
8862.860585868533
 20
4138.440598165936
 97
        0
 92
        7
 72
     1
 73
     1
 93
        4
 10
8968.860585868533
 20
4168.440598165936
 42
0.0
 10
8874.860585868534
 20
4168.440598165921
 42
0.0
 10
8874.860585868534
 20
4138.440598165936
 42
0.0
 10
8924.215316508373
 20
4138.440598165936
 42
-0.304773531682055
 97
        0
 92
        7
 72
     1
 73
     1
 93
        4
 10
9062.860585868532
 20
4168.440598165907
 42
0.0
 10
8968.860585868533
 20
4168.440598165936
 42
-0.304773531682055
 10
9013.505855228693
 20
4138.440598165936
 42
0.0
 10
9062.860585868532
 20
4138.440598165936
 42
0.0
 97
        0
 92
        7
 72
     0
 73
     1
 93
        8
 10
9212.860585868533
 20
4168.440598165907
 10
9178.860585868532
 20
4168.440598165907
 10
9178.860585868532
 20
4173.440598165907
 10
9108.860585868534
 20
4173.440598165907
 10
9108.860585868534
 20
4168.440598165907
 10
9074.860585868533
 20
4168.440598165907
 10
9074.860585868533
 20
4138.440598165936
 10
9212.860585868533
 20
4138.440598165936
 97
        0
 92
        7
 72
     0
 73
     1
 93
       14
 10
9185.310585868545
 20
4220.440598165906
 10
9195.310585868545
 20
4230.440598165907
 10
9274.310585868546
 20
4230.440598165907
 10
9274.310585868546
 20
4352.440598165907
 10
9260.310585868545
 20
4352.440598165907
 10
9246.310585868545
 20
4338.440598165893
 10
9041.410585868522
 20
4338.440598165908
 10
9027.41058586858
 20
4352.440598165907
 10
9013.410585868522
 20
4352.440598165907
 10
9013.410585868522
 20
4230.440598165907
 10
9092.410585868522
 20
4230.440598165907
 10
9102.410585868522
 20
4220.440598165906
 10
9102.410585868522
 20
4183.440598165907
 10
9185.310585868545
 20
4183.440598165907
 97
        0
 92
        7
 72
     1
 73
     1
 93
        4
 10
9318.860585868533
 20
4168.440598165936
 42
0.0
 10
9224.860585868533
 20
4168.440598165921
 42
0.0
 10
9224.860585868533
 20
4138.440598165936
 42
0.0
 10
9274.215316508373
 20
4138.440598165936
 42
-0.3047735316820541
 97
        0
 92
        7
 72
     1
 73
     1
 93
        4
 10
9412.860585868534
 20
4168.440598165907
 42
0.0
 10
9318.860585868533
 20
4168.440598165936
 42
-0.3047735316820546
 10
9363.505855228693
 20
4138.440598165936
 42
0.0
 10
9412.860585868534
 20
4138.440598165936
 42
0.0
 97
        0
 92
       23
 72
     0
 73
     1
 93
        6
 10
9505.860585868534
 20
4173.440598165907
 10
9458.860585868533
 20
4173.440598165907
 10
9458.860585868533
 20
4168.440598165907
 10
9424.860585868534
 20
4168.440598165907
 10
9424.860585868534
 20
4138.440598165936
 10
9505.860585868534
 20
4138.440598165936
 97
        0
 92
        7
 72
     1
 73
     1
 93
       16
 10
9843.860585868533
 20
4238.440598165907
 42
0.0
 10
10343.86058586853
 20
4238.440598165907
 42
0.0
 10
10343.86058586859
 20
4338.440598165908
 42
0.0
 10
9391.410585868522
 20
4338.440598165908
 42
0.0
 10
9377.410585868579
 20
4352.440598165907
 42
0.0
 10
9363.410585868521
 20
4352.440598165907
 42
0.0
 10
9363.410585868521
 20
4230.440598165907
 42
0.0
 10
9442.410585868522
 20
4230.440598165907
 42
0.0
 10
9452.410585868522
 20
4220.440598165906
 42
0.0
 10
9452.410585868522
 20
4183.440598165907
 42
0.0
 10
9523.860585868533
 20
4183.440598165907
 42
-0.4142135623730951
 10
9528.860585868534
 20
4178.440598165908
 42
-0.4142135623730951
 10
9523.860585868533
 20
4173.440598165907
 42
0.0
 10
9518.860585868534
 20
4173.440598165907
 42
0.0
 10
9518.860585868534
 20
4138.440598165936
 42
0.0
 10
9843.860585868533
 20
4138.440598165936
 42
0.0
 97
        0
 75
     0
 76
     1
 52
45.0
 41
37.5
 77
     0
 78
     3
 53
45.0
 43
-267518.8547612588
 44
112049.2706803359
 45
-168.3798022700466
 46
168.3798022700466
 79
     0
 53
45.0
 43
-267539.9022365426
 44
112070.3181556197
 45
-168.3798022700466
 46
168.3798022700466
 79
     0
 53
45.0
 43
-267560.9497118264
 44
112091.3656309034
 45
-168.3798022700466
 46
168.3798022700466
 79
     0
 47
2.934270310785949
 98
       10
 10
8685.319641177251
 20
4284.918311243236
 10
8818.427178400627
 20
4145.672541838576
 10
8906.752133965026
 20
4147.965588019462
 10
9036.37156943552
 20
4153.698308339779
 10
9149.932226589765
 20
4154.844936298323
 10
9152.226457408163
 20
4203.000164514145
 10
9263.492604606552
 20
4155.991354520636
 10
9390.818088396162
 20
4152.551890117436
 10
9475.70183730172
 20
4152.551890117436
 10
9742.388654062992
 20
4224.470862175949
1001
GradientColor1ACI
1070
     5
1001
GradientColor2ACI
1070
     2
1001
ACAD
1010
0.0
1020
0.0
1030
0.0
  0
CIRCLE
  5
15EB5
330
747D
100
AcDbEntity
  8
U7
100
AcDbCircle
 10
8763.860585868533
 20
4178.440598165908
 30
0.0
 40
5.0
  0
CIRCLE
  5
15EB6
330
747D
100
AcDbEntity
  8
U7
100
AcDbCircle
 10
9523.860585868533
 20
4178.440598165908
 30
0.0
 40
5.0
  0
LINE
  5
15EB7
330
747D
100
AcDbEntity
  8
U7
100
AcDbLine
 10
8763.860585868533
 20
4173.440598165907
 30
0.0
 11
9523.860585868533
 21
4173.440598165907
 31
0.0
  0
LINE
  5
15EB8
330
747D
100
AcDbEntity
  8
U7
100
AcDbLine
 10
8763.860585868533
 20
4183.440598165907
 30
0.0
 11
9523.860585868533
 21
4183.440598165907
 31
0.0
  0
HATCH
  5
15EB9
330
747D
100
AcDbEntity
  8
細線
 48
50.0
100
AcDbHatch
 10
0.0
 20
0.0
 30
0.0000000000013153
210
0.0
220
0.0
230
1.0
  2
PLAST
 70
     0
 71
     0
 91
       29
 92
        7
 72
     1
 73
     1
 93
       34
 10
8763.860585868533
 20
3983.440598165908
 42
0.0
 10
8768.860585868534
 20
3983.440598165908
 42
0.0
 10
8768.860585868534
 20
4073.440598165907
 42
0.0
 10
8763.860585868533
 20
4073.440598165907
 42
-0.4142135623730951
 10
8758.860585868534
 20
4078.440598165907
 42
-0.4142135623730951
 10
8763.860585868533
 20
4083.440598165907
 42
0.0
 10
8768.860585868534
 20
4083.440598165907
 42
0.0
 10
8768.860585868534
 20
4138.440598165936
 42
0.0
 10
8443.860585868533
 20
4138.440598165936
 42
0.0
 10
8443.860585868533
 20
3688.440598165908
 42
0.0
 10
8563.860585868534
 20
3688.440598165908
 42
0.0
 10
8628.141037430614
 20
3752.721049727989
 42
0.0
 10
8628.141037430614
 20
3763.440598165922
 42
0.0
 10
8638.860585868533
 20
3763.440598165922
 42
0.0
 10
8640.325051962573
 20
3764.905064259976
 42
-0.1989123673796434
 10
8638.860585868533
 20
3768.440598165908
 42
-1.0
 10
8648.860585868533
 20
3768.440598165908
 42
-0.4142135623730992
 10
8643.860585868534
 20
3763.440598165908
 42
0.0
 10
8699.589272958808
 20
3763.440598165908
 42
0.0
 10
8736.589272958807
 20
3800.440598165908
 42
0.0
 10
8593.410585868522
 20
3800.440598165908
 42
0.0
 10
8593.410585868522
 20
3813.440598165908
 42
0.0
 10
8738.860585868534
 20
3813.440598165908
 42
0.1260483184577218
 10
8753.284095130862
 20
3817.135420337974
 42
0.0
 10
8765.165763696481
 20
3829.017088903566
 42
0.1260483184577219
 10
8768.860585868534
 20
3843.440598165908
 42
0.0
 10
8768.860585868534
 20
3873.440598165907
 42
0.0
 10
8763.860585868533
 20
3873.440598165907
 42
-0.4142135623730951
 10
8758.860585868534
 20
3878.440598165908
 42
-0.4142135623730951
 10
8763.860585868533
 20
3883.440598165908
 42
0.0
 10
8768.860585868534
 20
3883.440598165908
 42
0.0
 10
8768.860585868534
 20
3973.440598165907
 42
0.0
 10
8763.860585868533
 20
3973.440598165907
 42
-0.4142135623730951
 10
8758.860585868534
 20
3978.440598165908
 42
-0.4142135623730951
 97
        0
 92
        7
 72
     0
 73
     1
 93
        4
 10
8862.860585868533
 20
4138.440598165936
 10
8781.860585868534
 20
4138.440598165936
 10
8781.860585868534
 20
4083.440598165907
 10
8862.860585868533
 20
4083.440598165907
 97
        0
 92
        7
 72
     0
 73
     1
 93
        4
 10
8862.860585868533
 20
4073.440598165907
 10
8781.860585868534
 20
4073.440598165907
 10
8781.860585868534
 20
3983.440598165908
 10
8862.860585868533
 20
3983.440598165908
 97
        0
 92
        7
 72
     1
 73
     1
 93
        7
 10
8862.860585868533
 20
3973.440598165907
 42
0.0
 10
8781.860585868534
 20
3973.440598165907
 42
0.0
 10
8781.860585868534
 20
3883.440598165908
 42
0.0
 10
8818.860585868533
 20
3883.440598165908
 42
0.0
 10
8818.860585868533
 20
3889.440598165908
 42
0.0
 10
8837.860585868533
 20
3889.440598165908
 42
0.4142135623730951
 10
8862.860585868533
 20
3914.440598165908
 42
0.0
 97
        0
 92
        7
 72
     1
 73
     1
 93
       12
 10
8968.860585868533
 20
3873.440598165907
 42
0.0
 10
8809.589272958808
 20
3873.440598165907
 42
0.0
 10
8781.860585868534
 20
3845.711911075632
 42
0.0
 10
8781.860585868534
 20
3843.440598165908
 42
-0.4142135623730951
 10
8738.860585868534
 20
3800.440598165908
 42
0.0
 10
8736.589272958807
 20
3800.440598165908
 42
0.0
 10
8699.589272958808
 20
3763.440598165922
 42
0.0
 10
8843.860585868533
 20
3763.440598165908
 42
-0.4142135623730918
 10
8838.860585868534
 20
3768.440598165908
 42
-1.0
 10
8848.860585868534
 20
3768.440598165908
 42
-0.4142135623730984
 10
8843.860585868533
 20
3763.440598165908
 42
0.0
 10
8968.860585868533
 20
3763.440598165908
 42
0.0
 97
        0
 92
       23
 72
     0
 73
     1
 93
        4
 10
8689.589272958809
 20
3753.440598165893
 10
8628.860585868533
 20
3753.440598165893
 10
8563.860585868534
 20
3688.440598165908
 10
8624.589272958809
 20
3688.440598165908
 97
        0
 92
        7
 72
     0
 73
     1
 93
        4
 10
8968.860585868533
 20
3753.440598165893
 10
8689.589272958809
 20
3753.440598165893
 10
8624.589272958809
 20
3688.440598165908
 10
8968.860585868533
 20
3688.440598165908
 97
        0
 92
        7
 72
     0
 73
     1
 93
        4
 10
8968.860585868533
 20
4138.440598165936
 10
8874.860585868534
 20
4138.440598165936
 10
8874.860585868534
 20
4083.440598165907
 10
8968.860585868533
 20
4083.440598165907
 97
        0
 92
        7
 72
     0
 73
     1
 93
        4
 10
8968.860585868533
 20
4073.440598165907
 10
8874.860585868534
 20
4073.440598165907
 10
8874.860585868534
 20
3983.440598165908
 10
8968.860585868533
 20
3983.440598165908
 97
        0
 92
        7
 72
     1
 73
     1
 93
        5
 10
8968.860585868533
 20
3973.440598165907
 42
0.0
 10
8874.860585868534
 20
3973.440598165907
 42
0.0
 10
8874.860585868534
 20
3914.440598165908
 42
-0.2535612698375805
 10
8858.059595745231
 20
3883.440598165908
 42
0.0
 10
8968.860585868533
 20
3883.440598165908
 42
0.0
 97
        0
 92
        7
 72
     0
 73
     1
 93
        4
 10
9318.860585868533
 20
3753.440598165908
 10
8968.860585868533
 20
3753.440598165893
 10
8968.860585868533
 20
3688.440598165908
 10
9318.860585868533
 20
3688.440598165908
 97
        0
 92
        7
 72
     1
 73
     1
 93
       12
 10
9318.860585868533
 20
3873.440598165907
 42
0.0
 10
8968.860585868533
 20
3873.440598165907
 42
0.0
 10
8968.860585868533
 20
3763.440598165922
 42
0.0
 10
9043.860585868534
 20
3763.440598165908
 42
-0.4142135623730918
 10
9038.860585868533
 20
3768.440598165908
 42
-1.0
 10
9048.860585868533
 20
3768.440598165908
 42
-0.4142135623730984
 10
9043.860585868534
 20
3763.440598165908
 42
0.0
 10
9243.860585868533
 20
3763.440598165908
 42
-0.4142135623730951
 10
9238.860585868534
 20
3768.440598165908
 42
-1.0
 10
9248.860585868532
 20
3768.440598165908
 42
-0.4142135623731017
 10
9243.860585868533
 20
3763.440598165908
 42
0.0
 10
9318.860585868533
 20
3763.440598165908
 42
0.0
 97
        0
 92
        7
 72
     1
 73
     1
 93
        5
 10
9062.860585868532
 20
3973.440598165907
 42
0.0
 10
8968.860585868533
 20
3973.440598165907
 42
0.0
 10
8968.860585868533
 20
3883.440598165908
 42
0.0
 10
9079.661575991835
 20
3883.440598165908
 42
-0.2535612698375802
 10
9062.860585868532
 20
3914.440598165908
 42
0.0
 97
        0
 92
        7
 72
     0
 73
     1
 93
        4
 10
9062.860585868532
 20
4073.440598165907
 10
8968.860585868533
 20
4073.440598165907
 10
8968.860585868533
 20
3983.440598165908
 10
9062.860585868532
 20
3983.440598165908
 97
        0
 92
        7
 72
     0
 73
     1
 93
        4
 10
9062.860585868532
 20
4138.440598165936
 10
8968.860585868533
 20
4138.440598165936
 10
8968.860585868533
 20
4083.440598165907
 10
9062.860585868532
 20
4083.440598165907
 97
        0
 92
        7
 72
     0
 73
     1
 93
        4
 10
9212.860585868533
 20
4138.440598165936
 10
9074.860585868533
 20
4138.440598165936
 10
9074.860585868533
 20
4083.440598165907
 10
9212.860585868533
 20
4083.440598165907
 97
        0
 92
        7
 72
     0
 73
     1
 93
        4
 10
9212.860585868533
 20
4073.440598165907
 10
9074.860585868533
 20
4073.440598165907
 10
9074.860585868533
 20
3983.440598165908
 10
9212.860585868533
 20
3983.440598165908
 97
        0
 92
        7
 72
     1
 73
     1
 93
       10
 10
9212.860585868533
 20
3973.440598165907
 42
0.0
 10
9074.860585868533
 20
3973.440598165907
 42
0.0
 10
9074.860585868533
 20
3914.440598165908
 42
0.4142135623730951
 10
9099.860585868533
 20
3889.440598165908
 42
0.0
 10
9118.860585868533
 20
3889.440598165908
 42
0.0
 10
9118.860585868533
 20
3883.440598165908
 42
0.0
 10
9168.860585868534
 20
3883.440598165908
 42
0.0
 10
9168.860585868534
 20
3889.440598165908
 42
0.0
 10
9187.860585868532
 20
3889.440598165908
 42
0.4142135623730951
 10
9212.860585868533
 20
3914.440598165908
 42
0.0
 97
        0
 92
        7
 72
     0
 73
     1
 93
        4
 10
9318.860585868533
 20
4138.440598165936
 10
9224.860585868533
 20
4138.440598165936
 10
9224.860585868533
 20
4083.440598165907
 10
9318.860585868533
 20
4083.440598165907
 97
        0
 92
        7
 72
     0
 73
     1
 93
        4
 10
9412.860585868534
 20
4138.440598165936
 10
9318.860585868533
 20
4138.440598165936
 10
9318.860585868533
 20
4083.440598165907
 10
9412.860585868534
 20
4083.440598165907
 97
        0
 92
        7
 72
     0
 73
     1
 93
        4
 10
9412.860585868534
 20
4073.440598165907
 10
9318.860585868533
 20
4073.440598165907
 10
9318.860585868533
 20
3983.440598165908
 10
9412.860585868534
 20
3983.440598165908
 97
        0
 92
        7
 72
     0
 73
     1
 93
        4
 10
9318.860585868533
 20
4073.440598165907
 10
9224.860585868533
 20
4073.440598165907
 10
9224.860585868533
 20
3983.440598165908
 10
9318.860585868533
 20
3983.440598165908
 97
        0
 92
        7
 72
     1
 73
     1
 93
        5
 10
9318.860585868533
 20
3973.440598165907
 42
0.0
 10
9224.860585868533
 20
3973.440598165907
 42
0.0
 10
9224.860585868533
 20
3914.440598165908
 42
-0.2535612698375804
 10
9208.059595745231
 20
3883.440598165908
 42
0.0
 10
9318.860585868533
 20
3883.440598165908
 42
0.0
 97
        0
 92
       23
 72
     1
 73
     1
 93
        5
 10
9412.860585868534
 20
3973.440598165907
 42
0.0
 10
9318.860585868533
 20
3973.440598165907
 42
0.0
 10
9318.860585868533
 20
3883.440598165908
 42
0.0
 10
9429.661575991834
 20
3883.440598165908
 42
-0.2535612698375802
 10
9412.860585868534
 20
3914.440598165908
 42
0.0
 97
        0
 92
        7
 72
     1
 73
     1
 93
       34
 10
9505.860585868651
 20
3843.440598165908
 42
0.0
 10
9505.860585868651
 20
3873.440598165907
 42
0.0
 10
9318.860585868533
 20
3873.440598165907
 42
0.0
 10
9318.860585868533
 20
3763.440598165908
 42
0.0
 10
9443.860585868533
 20
3763.440598165908
 42
-0.4142135623730885
 10
9438.860585868534
 20
3768.440598165908
 42
-1.0
 10
9448.860585868533
 20
3768.440598165908
 42
-0.4142135623731017
 10
9443.860585868533
 20
3763.440598165908
 42
0.0
 10
9643.860585868534
 20
3763.440598165908
 42
-0.4142135623730951
 10
9638.860585868535
 20
3768.440598165908
 42
-1.0
 10
9648.860585868533
 20
3768.440598165908
 42
-0.4142135623731017
 10
9643.860585868534
 20
3763.440598165908
 42
0.0
 10
9659.580134306452
 20
3763.440598165908
 42
0.0
 10
9659.580134306452
 20
3753.440598165908
 42
0.0
 10
9318.860585868533
 20
3753.440598165908
 42
0.0
 10
9318.860585868533
 20
3688.440598165908
 42
0.0
 10
9843.860585868533
 20
3688.440598165908
 42
0.0
 10
9843.860585868533
 20
3840.801760679271
 42
0.0
 10
9518.860585868534
 20
4028.440598165907
 42
0.0
 10
9518.860585868534
 20
3983.440598165908
 42
0.0
 10
9523.860585868533
 20
3983.440598165908
 42
-0.4142135623730951
 10
9528.860585868534
 20
3978.440598165908
 42
-0.4142135623730951
 10
9523.860585868533
 20
3973.440598165907
 42
0.0
 10
9518.860585868534
 20
3973.440598165907
 42
0.0
 10
9518.860585868534
 20
3883.440598165908
 42
0.0
 10
9523.860585868533
 20
3883.440598165908
 42
-0.4142135623730951
 10
9528.860585868534
 20
3878.440598165908
 42
-0.4142135623730951
 10
9523.860585868533
 20
3873.440598165907
 42
0.0
 10
9518.860585868534
 20
3873.440598165907
 42
0.0
 10
9518.860585868649
 20
3843.440598165908
 42
0.4142135623730951
 10
9548.86058586865
 20
3813.440598165908
 42
0.0
 10
9694.310585868663
 20
3813.440598165908
 42
0.0
 10
9694.310585868663
 20
3800.440598165908
 42
0.0
 10
9548.86058586865
 20
3800.440598165908
 42
-0.4142135623730945
 97
        0
 92
       23
 72
     1
 73
     1
 93
        7
 10
9505.860585868534
 20
3973.440598165907
 42
0.0
 10
9424.860585868534
 20
3973.440598165907
 42
0.0
 10
9424.860585868534
 20
3914.440598165908
 42
0.4142135623730946
 10
9449.860585868533
 20
3889.440598165908
 42
0.0
 10
9468.860585868533
 20
3889.440598165908
 42
0.0
 10
9468.860585868533
 20
3883.440598165908
 42
0.0
 10
9505.860585868534
 20
3883.440598165908
 42
0.0
 97
        0
 92
        7
 72
     0
 73
     1
 93
        4
 10
9505.860585868534
 20
4073.440598165907
 10
9424.860585868534
 20
4073.440598165907
 10
9424.860585868534
 20
3983.440598165908
 10
9505.860585868534
 20
3983.440598165908
 97
        0
 92
        7
 72
     0
 73
     1
 93
        4
 10
9505.860585868534
 20
4138.440598165936
 10
9424.860585868534
 20
4138.440598165936
 10
9424.860585868534
 20
4083.440598165907
 10
9505.860585868534
 20
4083.440598165907
 97
        0
 92
        7
 72
     1
 73
     1
 93
        9
 10
9843.860585868533
 20
4138.440598165936
 42
0.0
 10
9518.860585868534
 20
4138.440598165936
 42
0.0
 10
9518.860585868534
 20
4083.440598165907
 42
0.0
 10
9523.860585868533
 20
4083.440598165907
 42
-0.4142135623730951
 10
9528.860585868534
 20
4078.440598165907
 42
-0.4142135623730951
 10
9523.860585868533
 20
4073.440598165907
 42
0.0
 10
9518.860585868534
 20
4073.440598165907
 42
0.0
 10
9518.860585868534
 20
4028.440598165907
 42
0.0
 10
9843.860585868533
 20
3840.801760679271
 42
0.0
 97
        0
 75
     0
 76
     1
 52
135.0
 41
37.5
 77
     0
 78
     3
 53
135.0
 43
-267518.8547612588
 44
112049.2706803359
 45
-168.3798022700466
 46
-168.3798022700466
 79
     0
 53
135.0
 43
-267539.9022365426
 44
112028.2232050522
 45
-168.3798022700466
 46
-168.3798022700466
 79
     0
 53
135.0
 43
-267560.9497118264
 44
112007.1757297684
 45
-168.3798022700466
 46
-168.3798022700466
 79
     0
 47
2.834284063646393
 98
       29
 10
8627.2903120165
 20
3979.602977024508
 10
8822.945018258936
 20
4107.145884378435
 10
8820.109260759956
 20
4027.785890422442
 10
8828.61597498192
 20
3917.248815908358
 10
8848.465160924765
 20
3812.380282428814
 10
8615.948119433072
 20
3721.683206403745
 10
8718.028690096515
 20
3721.683206403745
 10
8930.696545645362
 20
4112.814425412973
 10
8925.025588922379
 20
4030.620265807811
 10
8925.025588922379
 20
3914.414440522961
 10
9095.159873361465
 20
3724.517581789115
 10
9072.475209057099
 20
3826.55173988326
 10
9021.434923725378
 20
3948.425896466419
 10
9027.106159585876
 20
4053.294429945963
 10
9021.434923725378
 20
4112.814425412973
 10
9157.542351276672
 20
4109.980050027574
 10
9146.200158693245
 20
4022.117349387904
 10
9146.200158693245
 20
3928.585897977434
 10
9251.116207718151
 20
4112.814425412973
 10
9361.703771741071
 20
4115.648800798342
 10
9381.55267854646
 20
4036.288806842349
 10
9282.307586244483
 20
4024.951724773273
 10
9276.636350384041
 20
3931.420273362805
 10
9364.539250102534
 20
3925.751732328266
 10
9390.059392768424
 20
3823.71736449789
 10
9463.784342404514
 20
3925.751732328266
 10
9455.27762818255
 20
4022.117349387904
 10
9463.784342404514
 20
4095.808802309359
 10
9639.589862704102
 20
4095.808802309359
1001
GradientColor1ACI
1070
     5
1001
GradientColor2ACI
1070
     2
1001
ACAD
1010
0.0
1020
0.0
1030
0.0
  0
CIRCLE
  5
15EBA
330
747D
100
AcDbEntity
  8
U7
100
AcDbCircle
 10
8763.860585868533
 20
4078.440598165907
 30
0.0
 40
5.0
  0
CIRCLE
  5
15EBB
330
747D
100
AcDbEntity
  8
U7
100
AcDbCircle
 10
9523.860585868533
 20
4078.440598165907
 30
0.0
 40
5.0
  0
LINE
  5
15EBC
330
747D
100
AcDbEntity
  8
U7
100
AcDbLine
 10
8763.860585868533
 20
4073.440598165907
 30
0.0
 11
9523.860585868533
 21
4073.440598165907
 31
0.0
  0
CIRCLE
  5
15EBD
330
747D
100
AcDbEntity
  8
U7
100
AcDbCircle
 10
8763.860585868533
 20
3978.440598165908
 30
0.0
 40
5.0
  0
LINE
  5
15EBE
330
747D
100
AcDbEntity
  8
U7
100
AcDbLine
 10
8763.860585868533
 20
4083.440598165907
 30
0.0
 11
9523.860585868533
 21
4083.440598165907
 31
0.0
  0
CIRCLE
  5
15EBF
330
747D
100
AcDbEntity
  8
U7
100
AcDbCircle
 10
9523.860585868533
 20
3978.440598165908
 30
0.0
 40
5.0
  0
LINE
  5
15EC0
330
747D
100
AcDbEntity
  8
U7
100
AcDbLine
 10
8763.860585868533
 20
3973.440598165907
 30
0.0
 11
9523.860585868533
 21
3973.440598165907
 31
0.0
  0
LINE
  5
15EC1
330
747D
100
AcDbEntity
  8
U7
100
AcDbLine
 10
8763.860585868533
 20
3983.440598165908
 30
0.0
 11
9523.860585868533
 21
3983.440598165908
 31
0.0
  0
CIRCLE
  5
15EC2
330
747D
100
AcDbEntity
  8
U7
100
AcDbCircle
 10
9523.860585868533
 20
3878.440598165908
 30
0.0
 40
5.0
  0
CIRCLE
  5
15EC3
330
747D
100
AcDbEntity
  8
U7
100
AcDbCircle
 10
8763.860585868533
 20
3878.440598165908
 30
0.0
 40
5.0
  0
LINE
  5
15EC4
330
747D
100
AcDbEntity
  8
U7
100
AcDbLine
 10
8763.860585868533
 20
3883.440598165908
 30
0.0
 11
9523.860585868533
 21
3883.440598165908
 31
0.0
  0
LINE
  5
15EC5
330
747D
100
AcDbEntity
  8
U7
100
AcDbLine
 10
8763.860585868533
 20
3873.440598165907
 30
0.0
 11
9523.860585868533
 21
3873.440598165907
 31
0.0
  0
LINE
  5
15EC6
330
747D
100
AcDbEntity
  8
KIN-T
100
AcDbLine
 10
9694.310585868663
 20
3800.440598165908
 30
0.0
 11
9548.86058586865
 21
3800.440598165908
 31
0.0
  0
LINE
  5
15EC7
330
747D
100
AcDbEntity
  8
KIN-T
100
AcDbLine
 10
9694.310585868663
 20
3813.440598165908
 30
0.0
 11
9694.310585868663
 21
3800.440598165908
 31
0.0
  0
LINE
  5
15EC8
330
747D
100
AcDbEntity
  8
KIN-T
100
AcDbLine
 10
9505.860585868534
 20
4183.440598165907
 30
0.0
 11
9518.860585868534
 21
4183.440598165907
 31
0.0
  0
ARC
  5
15EC9
330
747D
100
AcDbEntity
  8
KIN-T
100
AcDbCircle
 10
9548.86058586865
 20
3843.440598165908
 30
0.0
 40
43.0
100
AcDbArc
 50
180.0
 51
270.0
  0
ARC
  5
15ECA
330
747D
100
AcDbEntity
  8
KIN-T
100
AcDbCircle
 10
9548.86058586865
 20
3843.440598165908
 30
0.0
 40
30.0
100
AcDbArc
 50
180.0
 51
270.0
  0
LINE
  5
15ECB
330
747D
100
AcDbEntity
  8
KIN-T
100
AcDbLine
 10
9505.860585868534
 20
4183.440598165907
 30
0.0
 11
9505.860585868534
 21
3843.440598165908
 31
0.0
  0
LINE
  5
15ECC
330
747D
100
AcDbEntity
  8
KIN-T
100
AcDbLine
 10
9518.860585868534
 20
4183.440598165907
 30
0.0
 11
9518.860585868534
 21
3843.440598165908
 31
0.0
  0
ARC
  5
15ECD
330
747D
100
AcDbEntity
  8
KIN-T
100
AcDbCircle
 10
8738.860585868534
 20
3843.440598165908
 30
0.0
 40
43.0
100
AcDbArc
 50
270.0
 51
0.0
  0
LINE
  5
15ECE
330
747D
100
AcDbEntity
  8
KIN-T
100
AcDbLine
 10
9694.310585868663
 20
3813.440598165908
 30
0.0
 11
9548.86058586865
 21
3813.440598165908
 31
0.0
  0
LINE
  5
15ECF
330
747D
100
AcDbEntity
  8
KIN-T
100
AcDbLine
 10
8593.410585868522
 20
3813.440598165908
 30
0.0
 11
8593.410585868522
 21
3800.440598165908
 31
0.0
  0
LINE
  5
15ED0
330
747D
100
AcDbEntity
  8
KIN-T
100
AcDbLine
 10
8593.410585868522
 20
3800.440598165908
 30
0.0
 11
8738.860585868534
 21
3800.440598165908
 31
0.0
  0
LINE
  5
15ED1
330
747D
100
AcDbEntity
  8
KIN-T
100
AcDbLine
 10
8768.860585868534
 20
4183.440598165907
 30
0.0
 11
8781.860585868534
 21
4183.440598165907
 31
0.0
  0
ARC
  5
15ED2
330
747D
100
AcDbEntity
  8
KIN-T
100
AcDbCircle
 10
8738.860585868534
 20
3843.440598165908
 30
0.0
 40
30.0
100
AcDbArc
 50
270.0
 51
0.0
  0
LINE
  5
15ED3
330
747D
100
AcDbEntity
  8
KIN-T
100
AcDbLine
 10
8781.860585868534
 20
4183.440598165907
 30
0.0
 11
8781.860585868534
 21
3843.440598165908
 31
0.0
  0
LINE
  5
15ED4
330
747D
100
AcDbEntity
  8
部品1
 48
50.0
100
AcDbLine
 10
8628.141037430614
 20
3763.440598165922
 30
0.0
 11
9659.580134306452
 21
3763.440598165908
 31
0.0
  0
LINE
  5
15ED5
330
747D
100
AcDbEntity
  8
KIN-T
100
AcDbLine
 10
8768.860585868534
 20
4183.440598165907
 30
0.0
 11
8768.860585868534
 21
3843.440598165908
 31
0.0
  0
LINE
  5
15ED6
330
747D
100
AcDbEntity
  8
KIN-T
100
AcDbLine
 10
8593.410585868522
 20
3813.440598165908
 30
0.0
 11
8738.860585868534
 21
3813.440598165908
 31
0.0
  0
CIRCLE
  5
15ED7
330
747D
100
AcDbEntity
  8
部品1
 48
50.0
100
AcDbCircle
 10
9643.860585868534
 20
3768.440598165908
 30
0.0
 40
5.0
  0
LINE
  5
15ED8
330
747D
100
AcDbEntity
  8
部品1
 48
50.0
100
AcDbLine
 10
9659.580134306452
 20
3763.440598165908
 30
0.0
 11
9659.580134306452
 21
3753.440598165908
 31
0.0
  0
CIRCLE
  5
15ED9
330
747D
100
AcDbEntity
  8
部品1
 48
50.0
100
AcDbCircle
 10
8843.860585868533
 20
3768.440598165908
 30
0.0
 40
5.0
  0
CIRCLE
  5
15EDA
330
747D
100
AcDbEntity
  8
部品1
 48
50.0
100
AcDbCircle
 10
9043.860585868534
 20
3768.440598165908
 30
0.0
 40
5.0
  0
CIRCLE
  5
15EDB
330
747D
100
AcDbEntity
  8
部品1
 48
50.0
100
AcDbCircle
 10
9243.860585868533
 20
3768.440598165908
 30
0.0
 40
5.0
  0
CIRCLE
  5
15EDC
330
747D
100
AcDbEntity
  8
部品1
 48
50.0
100
AcDbCircle
 10
9443.860585868533
 20
3768.440598165908
 30
0.0
 40
5.0
  0
LINE
  5
15EDD
330
747D
100
AcDbEntity
  8
部品1
 48
50.0
100
AcDbLine
 10
8628.141037430614
 20
3753.440598165893
 30
0.0
 11
9659.580134306452
 21
3753.440598165908
 31
0.0
  0
HATCH
  5
15EDE
330
747D
100
AcDbEntity
  8
細線
 48
50.0
100
AcDbHatch
 10
0.0
 20
0.0
 30
0.0000000000013153
210
0.0
220
0.0
230
1.0
  2
PLAST
 70
     0
 71
     0
 91
        4
 92
        7
 72
     0
 73
     1
 93
        4
 10
8968.860585868533
 20
3688.440598165908
 10
8363.860585868534
 20
3688.440598165908
 10
8363.860585868534
 20
3638.440598165908
 10
8968.860585868533
 20
3638.440598165908
 97
        0
 92
        7
 72
     0
 73
     1
 93
        4
 10
9143.860585868534
 20
3688.440598165908
 10
8968.860585868533
 20
3688.440598165908
 10
8968.860585868533
 20
3638.440598165908
 10
9143.860585868534
 20
3638.440598165908
 97
        0
 92
        7
 72
     0
 73
     1
 93
        4
 10
9318.860585868533
 20
3688.440598165908
 10
9143.860585868534
 20
3688.440598165908
 10
9143.860585868534
 20
3638.440598165908
 10
9318.860585868533
 20
3638.440598165908
 97
        0
 92
        7
 72
     0
 73
     1
 93
        4
 10
9923.860585868533
 20
3688.440598165908
 10
9318.860585868533
 20
3688.440598165908
 10
9318.860585868533
 20
3638.440598165908
 10
9923.860585868533
 20
3638.440598165908
 97
        0
 75
     0
 76
     1
 52
45.0
 41
37.5
 77
     0
 78
     3
 53
45.0
 43
-263108.7309841925
 44
112049.2706803359
 45
-168.3798022700466
 46
168.3798022700466
 79
     0
 53
45.0
 43
-263129.7784594762
 44
112070.3181556197
 45
-168.3798022700466
 46
168.3798022700466
 79
     0
 53
45.0
 43
-263150.8259347601
 44
112091.3656309034
 45
-168.3798022700466
 46
168.3798022700466
 79
     0
 47
3.405378208606371
 98
        4
 10
8871.479203110387
 20
3653.752788193378
 10
9024.790989131085
 20
3663.968830123719
 10
9232.613576576113
 20
3653.752788193378
 10
9423.401241992541
 20
3657.158065591415
1001
GradientColor1ACI
1070
     5
1001
GradientColor2ACI
1070
     2
1001
ACAD
1010
0.0
1020
0.0
1030
0.0
  0
LINE
  5
15EDF
330
747D
100
AcDbEntity
  8
細線
 48
50.0
100
AcDbLine
 10
8453.288516413421
 20
3538.440598165908
 30
0.0000000000013153
 11
8480.083435656503
 21
3638.440598165879
 31
0.0000000000013153
1001
GradientColor1ACI
1070
     5
1001
GradientColor2ACI
1070
     2
1001
ACAD
1010
0.0
1020
0.0
1030
0.0
  0
LINE
  5
15EE0
330
747D
100
AcDbEntity
  8
細線
 48
50.0
100
AcDbLine
 10
8576.551086643537
 20
3538.440598165908
 30
0.0000000000013153
 11
8603.346005886619
 21
3638.440598165908
 31
0.0000000000013153
1001
GradientColor1ACI
1070
     5
1001
GradientColor2ACI
1070
     2
1001
ACAD
1010
0.0
1020
0.0
1030
0.0
  0
LINE
  5
15EE1
330
747D
100
AcDbEntity
  8
細線
 48
50.0
100
AcDbLine
 10
8699.813656873535
 20
3538.440598165908
 30
0.0000000000013153
 11
8726.608576116676
 21
3638.440598165908
 31
0.0000000000013153
1001
GradientColor1ACI
1070
     5
1001
GradientColor2ACI
1070
     2
1001
ACAD
1010
0.0
1020
0.0
1030
0.0
  0
LINE
  5
15EE2
330
747D
100
AcDbEntity
  8
細線
 48
50.0
100
AcDbLine
 10
8823.076227103651
 20
3538.440598165908
 30
0.0000000000013153
 11
8849.871146346734
 21
3638.440598165908
 31
0.0000000000013153
1001
GradientColor1ACI
1070
     5
1001
GradientColor2ACI
1070
     2
1001
ACAD
1010
0.0
1020
0.0
1030
0.0
  0
LINE
  5
15EE3
330
747D
100
AcDbEntity
  8
細線
 48
50.0
100
AcDbLine
 10
8946.338797333767
 20
3538.440598165908
 30
0.0000000000013153
 11
8973.13371657685
 21
3638.440598165908
 31
0.0000000000013153
1001
GradientColor1ACI
1070
     5
1001
GradientColor2ACI
1070
     2
1001
ACAD
1010
0.0
1020
0.0
1030
0.0
  0
LINE
  5
15EE4
330
747D
100
AcDbEntity
  8
細線
 48
50.0
100
AcDbLine
 10
9069.601367563766
 20
3538.440598165908
 30
0.0000000000013153
 11
9096.396286806905
 21
3638.440598165908
 31
0.0000000000013153
1001
GradientColor1ACI
1070
     5
1001
GradientColor2ACI
1070
     2
1001
ACAD
1010
0.0
1020
0.0
1030
0.0
  0
LINE
  5
15EE5
330
747D
100
AcDbEntity
  8
細線
 48
50.0
100
AcDbLine
 10
9192.863937793882
 20
3538.440598165908
 30
0.0000000000013153
 11
9219.658857036964
 21
3638.440598165908
 31
0.0000000000013153
1001
GradientColor1ACI
1070
     5
1001
GradientColor2ACI
1070
     2
1001
ACAD
1010
0.0
1020
0.0
1030
0.0
  0
LINE
  5
15EE6
330
747D
100
AcDbEntity
  8
細線
 48
50.0
100
AcDbLine
 10
9316.126508023996
 20
3538.440598165908
 30
0.0000000000013153
 11
9342.92142726708
 21
3638.440598165908
 31
0.0000000000013153
1001
GradientColor1ACI
1070
     5
1001
GradientColor2ACI
1070
     2
1001
ACAD
1010
0.0
1020
0.0
1030
0.0
  0
LINE
  5
15EE7
330
747D
100
AcDbEntity
  8
細線
 48
50.0
100
AcDbLine
 10
9439.389078253997
 20
3538.440598165922
 30
0.0000000000013153
 11
9466.183997497138
 21
3638.440598165908
 31
0.0000000000013153
1001
GradientColor1ACI
1070
     5
1001
GradientColor2ACI
1070
     2
1001
ACAD
1010
0.0
1020
0.0
1030
0.0
  0
LINE
  5
15EE8
330
747D
100
AcDbEntity
  8
細線
 48
50.0
100
AcDbLine
 10
9562.651648484111
 20
3538.440598165908
 30
0.0000000000013153
 11
9589.446567727195
 21
3638.440598165922
 31
0.0000000000013153
1001
GradientColor1ACI
1070
     5
1001
GradientColor2ACI
1070
     2
1001
ACAD
1010
0.0
1020
0.0
1030
0.0
  0
LINE
  5
15EE9
330
747D
100
AcDbEntity
  8
細線
 48
50.0
100
AcDbLine
 10
9685.91421871417
 20
3538.440598165922
 30
0.0000000000013153
 11
9712.709137957311
 21
3638.440598165908
 31
0.0000000000013153
1001
GradientColor1ACI
1070
     5
1001
GradientColor2ACI
1070
     2
1001
ACAD
1010
0.0
1020
0.0
1030
0.0
  0
LINE
  5
15EEA
330
747D
100
AcDbEntity
  8
細線
 48
50.0
100
AcDbLine
 10
9809.176788944228
 20
3538.440598165908
 30
0.0000000000013153
 11
9835.971708187368
 21
3638.440598165908
 31
0.0000000000013153
1001
GradientColor1ACI
1070
     5
1001
GradientColor2ACI
1070
     2
1001
ACAD
1010
0.0
1020
0.0
1030
0.0
  0
LINE
  5
15EEB
330
747D
100
AcDbEntity
  8
部品1
 48
50.0
100
AcDbLine
 10
9923.860585868533
 20
3638.440598165908
 30
0.0
 11
8363.860585868534
 21
3638.440598165908
 31
0.0
  0
LINE
  5
15EEC
330
747D
100
AcDbEntity
  8
文字
 48
50.0
100
AcDbLine
 10
9561.45021204272
 20
2625.252725994127
 30
0.0
 11
9561.45021204272
 21
2402.127725994127
 31
0.0
  0
LINE
  5
15EED
330
747D
100
AcDbEntity
  8
文字
 48
50.0
100
AcDbLine
 10
8726.270959694346
 20
2625.252725994127
 30
0.0
 11
8726.270959694346
 21
2402.127725994127
 31
0.0
  0
TEXT
  5
15EEE
330
747D
100
AcDbEntity
  8
文字
 62
     7
 48
50.0
100
AcDbText
 10
8792.855767107045
 20
2459.611266967491
 30
0.0
 40
112.5
  1
A-A' 断面
  7
STYLE2
100
AcDbText
  0
LINE
  5
15EEF
330
747D
100
AcDbEntity
  8
文字
 48
50.0
100
AcDbLine
 10
8726.270959694346
 20
2402.127725994127
 30
0.0
 11
9561.45021204272
 21
2402.127725994127
 31
0.0
  0
LINE
  5
15EF0
330
747D
100
AcDbEntity
  8
文字
 48
50.0
100
AcDbLine
 10
8726.270959694346
 20
2625.252725994127
 30
0.0
 11
9561.45021204272
 21
2625.252725994127
 31
0.0
  0
LINE
  5
15EF1
330
747D
100
AcDbEntity
  8
部品1
 48
50.0
100
AcDbLine
 10
9013.410585868522
 20
3688.440598165908
 30
0.0
 11
8924.310585868544
 21
3688.440598165908
 31
0.0
  0
LINE
  5
15EF2
330
747D
100
AcDbEntity
  8
細線
 48
50.0
100
AcDbLine
 10
7997.745180721743
 20
4138.440598165936
 30
0.0000000000013153
 11
8024.540099964827
 21
4238.440598165921
 31
0.0000000000013153
1001
GradientColor1ACI
1070
     5
1001
GradientColor2ACI
1070
     2
1001
ACAD
1010
0.0
1020
0.0
1030
0.0
  0
LINE
  5
15EF3
330
747D
100
AcDbEntity
  8
細線
 48
50.0
100
AcDbLine
 10
8121.007750951802
 20
4138.440598165951
 30
0.0000000000013153
 11
8147.802670194883
 21
4238.440598165907
 31
0.0000000000013153
1001
GradientColor1ACI
1070
     5
1001
GradientColor2ACI
1070
     2
1001
ACAD
1010
0.0
1020
0.0
1030
0.0
  0
LINE
  5
15EF4
330
747D
100
AcDbEntity
  8
細線
 48
50.0
100
AcDbLine
 10
8244.270321181859
 20
4138.440598165936
 30
0.0000000000013153
 11
8271.065240425
 21
4238.440598165907
 31
0.0000000000013153
1001
GradientColor1ACI
1070
     5
1001
GradientColor2ACI
1070
     2
1001
ACAD
1010
0.0
1020
0.0
1030
0.0
  0
LINE
  5
15EF5
330
747D
100
AcDbEntity
  8
細線
 48
50.0
100
AcDbLine
 10
8367.532891411974
 20
4138.440598165922
 30
0.0000000000013153
 11
8394.327810655056
 21
4238.440598165907
 31
0.0000000000013153
1001
GradientColor1ACI
1070
     5
1001
GradientColor2ACI
1070
     2
1001
ACAD
1010
0.0
1020
0.0
1030
0.0
  0
LINE
  5
15EF6
330
747D
100
AcDbEntity
  8
細線
 48
50.0
100
AcDbLine
 10
9846.68373417284
 20
4138.440598165878
 30
0.0000000000013153
 11
9873.478653415979
 21
4238.440598165907
 31
0.0000000000013153
1001
GradientColor1ACI
1070
     5
1001
GradientColor2ACI
1070
     2
1001
ACAD
1010
0.0
1020
0.0
1030
0.0
  0
LINE
  5
15EF7
330
747D
100
AcDbEntity
  8
細線
 48
50.0
100
AcDbLine
 10
9969.946304402895
 20
4138.440598165922
 30
0.0000000000013153
 11
9996.741223646038
 21
4238.440598165907
 31
0.0000000000013153
1001
GradientColor1ACI
1070
     5
1001
GradientColor2ACI
1070
     2
1001
ACAD
1010
0.0
1020
0.0
1030
0.0
  0
LINE
  5
15EF8
330
747D
100
AcDbEntity
  8
細線
 48
50.0
100
AcDbLine
 10
10093.20887463301
 20
4138.440598165936
 30
0.0000000000013153
 11
10120.00379387609
 21
4238.440598165907
 31
0.0000000000013153
1001
GradientColor1ACI
1070
     5
1001
GradientColor2ACI
1070
     2
1001
ACAD
1010
0.0
1020
0.0
1030
0.0
  0
LINE
  5
15EF9
330
747D
100
AcDbEntity
  8
細線
 48
50.0
100
AcDbLine
 10
10216.47144486307
 20
4138.440598165922
 30
0.0000000000013153
 11
10243.26636410621
 21
4238.440598165907
 31
0.0000000000013153
1001
GradientColor1ACI
1070
     5
1001
GradientColor2ACI
1070
     2
1001
ACAD
1010
0.0
1020
0.0
1030
0.0
  0
LINE
  5
15EFA
330
747D
100
AcDbEntity
  8
細線
 48
50.0
100
AcDbLine
 10
10339.73401509312
 20
4138.440598165936
 30
0.0000000000013153
 11
10343.86058586853
 21
4153.84116996084
 31
0.0000000000013153
1001
GradientColor1ACI
1070
     5
1001
GradientColor2ACI
1070
     2
1001
ACAD
1010
0.0
1020
0.0
1030
0.0
  0
LINE
  5
15EFB
330
747D
100
AcDbEntity
  8
部品1
 48
50.0
100
AcDbLine
 10
9843.860585868533
 20
3688.440598165908
 30
0.0
 11
9843.860585868533
 21
4238.440598165907
 31
0.0
  0
LINE
  5
15EFC
330
747D
100
AcDbEntity
  8
部品1
 48
50.0
100
AcDbLine
 10
8443.860585868533
 20
4238.440598165907
 30
0.0
 11
8443.860585868533
 21
3688.440598165908
 31
0.0
  0
LINE
  5
15EFD
330
747D
100
AcDbEntity
  8
部品1
 48
50.0
100
AcDbLine
 10
9923.860585868533
 20
3688.440598165908
 30
0.0
 11
8363.860585868534
 21
3688.440598165908
 31
0.0
  0
LINE
  5
15EFE
330
747D
100
AcDbEntity
  8
部品1
 48
50.0
100
AcDbLine
 10
9246.310585868545
 20
4338.440598165893
 30
0.0
 11
9041.410585868522
 21
4338.440598165908
 31
0.0
  0
LINE
  5
15EFF
330
747D
100
AcDbEntity
  8
部品1
 48
50.0
100
AcDbLine
 10
10343.86058586853
 20
4138.440598165936
 30
0.0
 11
7943.860585868534
 21
4138.440598165936
 31
0.0
  0
LINE
  5
15F00
330
747D
100
AcDbEntity
  8
部品1
 48
50.0
100
AcDbLine
 10
9923.860585868533
 20
3538.440598165908
 30
0.0
 11
8363.860585868534
 21
3538.440598165908
 31
0.0
  0
LINE
  5
15F01
330
747D
100
AcDbEntity
  8
部品1
 48
50.0
100
AcDbLine
 10
8910.310585868545
 20
4352.440598165907
 30
0.0
 11
8896.310585868546
 21
4338.440598165908
 31
0.0
  0
LINE
  5
15F02
330
747D
100
AcDbEntity
  8
部品1
 48
50.0
100
AcDbLine
 10
8910.310585868545
 20
4352.440598165907
 30
0.0
 11
8924.310585868544
 21
4352.440598165907
 31
0.0
  0
LINE
  5
15F03
330
747D
100
AcDbEntity
  8
部品1
 48
50.0
100
AcDbLine
 10
9013.410585868522
 20
4352.440598165907
 30
0.0
 11
9027.410585868521
 21
4352.440598165907
 31
0.0
  0
LINE
  5
15F04
330
747D
100
AcDbEntity
  8
部品1
 48
50.0
100
AcDbLine
 10
9027.41058586858
 20
4352.440598165907
 30
0.0
 11
9041.410585868522
 21
4338.440598165908
 31
0.0
  0
LINE
  5
15F05
330
747D
100
AcDbEntity
  8
部品1
 48
50.0
100
AcDbLine
 10
8896.310585868546
 20
4338.440598165908
 30
0.0
 11
7943.860585868475
 21
4338.440598165908
 31
0.0
  0
LINE
  5
15F06
330
747D
100
AcDbEntity
  8
部品1
 48
50.0
100
AcDbLine
 10
8443.860585868533
 20
4238.440598165907
 30
0.0
 11
7943.860585868534
 21
4238.440598165907
 31
0.0
  0
LINE
  5
15F07
330
747D
100
AcDbEntity
  8
部品1
 48
50.0
100
AcDbLine
 10
9923.860585868533
 20
3688.440598165908
 30
0.0
 11
9923.860585868533
 21
3538.440598165908
 31
0.0
  0
LINE
  5
15F08
330
747D
100
AcDbEntity
  8
部品1
 48
50.0
100
AcDbLine
 10
8363.860585868534
 20
3688.440598165908
 30
0.0
 11
8363.860585868534
 21
3538.440598165908
 31
0.0
  0
LINE
  5
15F09
330
747D
100
AcDbEntity
  8
Ｇ．Ｌ
 48
50.0
100
AcDbLine
 10
10343.86058586853
 20
4288.440598165908
 30
0.0
 11
11397.97453637334
 21
4288.440598165908
 31
0.0
  0
MTEXT
  5
15F0A
330
747D
100
AcDbEntity
  8
寸法
 62
     7
 48
50.0
100
AcDbMText
 10
10864.78117768309
 20
4340.713325438628
 30
0.0
 40
100.0
 41
1.0
 71
     4
 72
     1
  1
▽G.L
  7
STYLE2
 73
     1
 44
1.0
1001
ACAD
1000
MTEXTBEGIN
1070
    73
1070
     1
1070
    44
1040
1.0
1070
    74
1070
     0
1000
MTEXTEND
  0
LINE
  5
15F0B
330
747D
100
AcDbEntity
  8
部品1
 48
50.0
100
AcDbLine
 10
9260.310585868545
 20
4352.440598165907
 30
0.0
 11
9246.310585868545
 21
4338.440598165908
 31
0.0
  0
LINE
  5
15F0C
330
747D
100
AcDbEntity
  8
部品1
 48
50.0
100
AcDbLine
 10
9377.410585868579
 20
4352.440598165907
 30
0.0
 11
9391.410585868522
 21
4338.440598165908
 31
0.0
  0
LINE
  5
15F0D
330
747D
100
AcDbEntity
  8
部品1
 48
50.0
100
AcDbLine
 10
9843.860585868592
 20
4238.440598165907
 30
0.0
 11
10343.86058586853
 21
4238.440598165907
 31
0.0
  0
LINE
  5
15F0E
330
747D
100
AcDbEntity
  8
部品1
 48
50.0
100
AcDbLine
 10
9363.410585868521
 20
4352.440598165907
 30
0.0
 11
9377.410585868522
 21
4352.440598165907
 31
0.0
  0
LINE
  5
15F0F
330
747D
100
AcDbEntity
  8
部品1
 48
50.0
100
AcDbLine
 10
9260.310585868545
 20
4352.440598165907
 30
0.0
 11
9274.310585868546
 21
4352.440598165907
 31
0.0
  0
LINE
  5
15F10
330
747D
100
AcDbEntity
  8
部品1
 48
50.0
100
AcDbLine
 10
9391.410585868522
 20
4338.440598165908
 30
0.0
 11
10343.86058586859
 21
4338.440598165908
 31
0.0
  0
LINE
  5
15F11
330
747D
100
AcDbEntity
  8
部品1
 48
50.0
100
AcDbLine
 10
8628.141037430614
 20
3763.440598165908
 30
0.0
 11
8628.141037430614
 21
3753.440598165908
 31
0.0
  0
CIRCLE
  5
15F12
330
747D
100
AcDbEntity
  8
部品1
 48
50.0
100
AcDbCircle
 10
8643.860585868534
 20
3768.440598165908
 30
0.0
 40
5.0
  0
LINE
  5
15F13
330
747D
100
AcDbEntity
  8
細線
 48
50.0
100
AcDbLine
 10
8959.736256955308
 20
3538.440598165908
 30
0.0
 11
8953.037527144537
 21
3563.440598165908
 31
0.0
  0
LINE
  5
15F14
330
747D
100
AcDbEntity
  8
細線
 48
50.0
100
AcDbLine
 10
8966.434986766079
 20
3613.440598165908
 30
0.0
 11
8959.736256955308
 21
3638.440598165908
 31
0.0
  0
LINE
  5
15F15
330
747D
100
AcDbEntity
  8
細線
 48
50.0
100
AcDbLine
 10
9082.998827185365
 20
3538.440598165908
 30
0.0
 11
9076.300097374595
 21
3563.440598165908
 31
0.0
  0
LINE
  5
15F16
330
747D
100
AcDbEntity
  8
細線
 48
50.0
100
AcDbLine
 10
9089.697556996135
 20
3613.440598165908
 30
0.0
 11
9082.998827185365
 21
3638.440598165908
 31
0.0
  0
LINE
  5
15F17
330
747D
100
AcDbEntity
  8
細線
 48
50.0
100
AcDbLine
 10
9206.261397415422
 20
3538.440598165908
 30
0.0
 11
9199.562667604652
 21
3563.440598165908
 31
0.0
  0
LINE
  5
15F18
330
747D
100
AcDbEntity
  8
細線
 48
50.0
100
AcDbLine
 10
9212.960127226194
 20
3613.440598165908
 30
0.0
 11
9206.261397415422
 21
3638.440598165908
 31
0.0
  0
LINE
  5
15F19
330
747D
100
AcDbEntity
  8
細線
 48
50.0
100
AcDbLine
 10
9329.523967645538
 20
3538.440598165908
 30
0.0
 11
9322.825237834768
 21
3563.440598165908
 31
0.0
  0
LINE
  5
15F1A
330
747D
100
AcDbEntity
  8
細線
 48
50.0
100
AcDbLine
 10
9336.222697456308
 20
3613.440598165908
 30
0.0
 11
9329.523967645538
 21
3638.440598165908
 31
0.0
  0
LINE
  5
15F1B
330
747D
100
AcDbEntity
  8
細線
 48
50.0
100
AcDbLine
 10
9452.786537875596
 20
3538.440598165908
 30
0.0
 11
9446.087808064826
 21
3563.440598165908
 31
0.0
  0
LINE
  5
15F1C
330
747D
100
AcDbEntity
  8
細線
 48
50.0
100
AcDbLine
 10
9459.485267686366
 20
3613.440598165908
 30
0.0
 11
9452.786537875596
 21
3638.440598165908
 31
0.0
  0
LINE
  5
15F1D
330
747D
100
AcDbEntity
  8
細線
 48
50.0
100
AcDbLine
 10
9576.049108105655
 20
3538.440598165908
 30
-0.0000000000013153
 11
9569.350378294883
 21
3563.440598165908
 31
-0.0000000000013153
  0
LINE
  5
15F1E
330
747D
100
AcDbEntity
  8
細線
 48
50.0
100
AcDbLine
 10
9582.747837916425
 20
3613.440598165908
 30
-0.0000000000013153
 11
9576.049108105655
 21
3638.440598165908
 31
-0.0000000000013153
  0
LINE
  5
15F1F
330
747D
100
AcDbEntity
  8
細線
 48
50.0
100
AcDbLine
 10
9699.311678335769
 20
3538.440598165908
 30
0.0
 11
9692.612948524999
 21
3563.440598165908
 31
0.0
  0
LINE
  5
15F20
330
747D
100
AcDbEntity
  8
細線
 48
50.0
100
AcDbLine
 10
9706.010408146539
 20
3613.440598165908
 30
0.0
 11
9699.311678335769
 21
3638.440598165908
 31
0.0
  0
LINE
  5
15F21
330
747D
100
AcDbEntity
  8
細線
 48
50.0
100
AcDbLine
 10
9822.574248565828
 20
3538.440598165908
 30
0.0
 11
9815.875518755056
 21
3563.440598165908
 31
0.0
  0
LINE
  5
15F22
330
747D
100
AcDbEntity
  8
細線
 48
50.0
100
AcDbLine
 10
9829.272978376598
 20
3613.440598165908
 30
0.0
 11
9822.574248565828
 21
3638.440598165908
 31
0.0
  0
LINE
  5
15F23
330
747D
100
AcDbEntity
  8
細線
 48
50.0
100
AcDbLine
 10
8011.142640343285
 20
4138.440598165936
 30
-0.0000000000013153
 11
8004.443910532515
 21
4163.440598165936
 31
-0.0000000000013153
  0
LINE
  5
15F24
330
747D
100
AcDbEntity
  8
細線
 48
50.0
100
AcDbLine
 10
8017.841370154057
 20
4213.440598165936
 30
-0.0000000000013153
 11
8011.142640343285
 21
4238.440598165936
 31
-0.0000000000013153
  0
LINE
  5
15F25
330
747D
100
AcDbEntity
  8
細線
 48
50.0
100
AcDbLine
 10
8134.405210573342
 20
4138.440598165922
 30
-0.0000000000013153
 11
8127.706480762572
 21
4163.440598165922
 31
-0.0000000000013153
  0
LINE
  5
15F26
330
747D
100
AcDbEntity
  8
細線
 48
50.0
100
AcDbLine
 10
8141.103940384113
 20
4213.440598165922
 30
-0.0000000000013153
 11
8134.405210573342
 21
4238.440598165921
 31
-0.0000000000013153
  0
LINE
  5
15F27
330
747D
100
AcDbEntity
  8
細線
 48
50.0
100
AcDbLine
 10
8257.667780803458
 20
4138.440598165922
 30
-0.0000000000013153
 11
8250.969050992688
 21
4163.440598165922
 31
-0.0000000000013153
  0
LINE
  5
15F28
330
747D
100
AcDbEntity
  8
細線
 48
50.0
100
AcDbLine
 10
8264.366510614228
 20
4213.440598165922
 30
-0.0000000000013153
 11
8257.667780803458
 21
4238.440598165921
 31
-0.0000000000013153
  0
LINE
  5
15F29
330
747D
100
AcDbEntity
  8
細線
 48
50.0
100
AcDbLine
 10
8380.930351033516
 20
4138.440598165922
 30
-0.0000000000013153
 11
8374.231621222746
 21
4163.440598165922
 31
-0.0000000000013153
  0
LINE
  5
15F2A
330
747D
100
AcDbEntity
  8
細線
 48
50.0
100
AcDbLine
 10
8387.629080844286
 20
4213.440598165922
 30
-0.0000000000013153
 11
8380.930351033516
 21
4238.440598165921
 31
-0.0000000000013153
  0
LINE
  5
15F2B
330
747D
100
AcDbEntity
  8
細線
 48
50.0
100
AcDbLine
 10
9860.081193794439
 20
4138.440598165922
 30
-0.0000000000013153
 11
9853.382463983669
 21
4163.440598165922
 31
-0.0000000000013153
  0
LINE
  5
15F2C
330
747D
100
AcDbEntity
  8
細線
 48
50.0
100
AcDbLine
 10
9866.779923605209
 20
4213.440598165922
 30
-0.0000000000013153
 11
9860.081193794439
 21
4238.440598165921
 31
-0.0000000000013153
  0
LINE
  5
15F2D
330
747D
100
AcDbEntity
  8
細線
 48
50.0
100
AcDbLine
 10
9983.343764024496
 20
4138.440598165922
 30
-0.0000000000013153
 11
9976.645034213724
 21
4163.440598165922
 31
-0.0000000000013153
  0
LINE
  5
15F2E
330
747D
100
AcDbEntity
  8
細線
 48
50.0
100
AcDbLine
 10
9990.042493835268
 20
4213.440598165922
 30
-0.0000000000013153
 11
9983.343764024496
 21
4238.440598165921
 31
-0.0000000000013153
  0
LINE
  5
15F2F
330
747D
100
AcDbEntity
  8
細線
 48
50.0
100
AcDbLine
 10
10106.60633425455
 20
4138.440598165922
 30
-0.0000000000013153
 11
10099.90760444378
 21
4163.440598165922
 31
-0.0000000000013153
  0
LINE
  5
15F30
330
747D
100
AcDbEntity
  8
細線
 48
50.0
100
AcDbLine
 10
10113.30506406532
 20
4213.440598165922
 30
-0.0000000000013153
 11
10106.60633425455
 21
4238.440598165921
 31
-0.0000000000013153
  0
LINE
  5
15F31
330
747D
100
AcDbEntity
  8
細線
 48
50.0
100
AcDbLine
 10
10229.86890448467
 20
4138.440598165922
 30
-0.0000000000013153
 11
10223.1701746739
 21
4163.440598165922
 31
-0.0000000000013153
  0
LINE
  5
15F32
330
747D
100
AcDbEntity
  8
細線
 48
50.0
100
AcDbLine
 10
10236.56763429544
 20
4213.440598165922
 30
-0.0000000000013153
 11
10229.86890448467
 21
4238.440598165921
 31
-0.0000000000013153
  0
MTEXT
  5
15F33
330
747D
100
AcDbEntity
  8
寸法
 62
     7
 48
50.0
100
AcDbMText
 10
10341.31743759237
 20
4390.713325438627
 30
0.0
 40
100.0
 41
1.0
 71
     5
 72
     1
  1
▽Ｆ.L
  7
STYLE2
 73
     1
 44
1.0
1001
ACAD
1000
MTEXTBEGIN
1070
    73
1070
     1
1070
    44
1040
1.0
1070
    74
1070
     0
1000
MTEXTEND
  0
LINE
  5
15F34
330
747D
100
AcDbEntity
  8
寸法
 48
50.0
100
AcDbLine
 10
8177.181309744367
 20
4413.048014368076
 30
0.0
 11
8245.832527609485
 21
4431.443052754446
 31
0.0
  0
LINE
  5
15F35
330
747D
100
AcDbEntity
  8
寸法
 48
50.0
100
AcDbLine
 10
8177.181309744367
 20
4413.048014368076
 30
0.0
 11
8806.43380533217
 21
4413.048014368076
 31
0.0
  0
LINE
  5
15F36
330
747D
100
AcDbEntity
  8
寸法
 48
50.0
100
AcDbLine
 10
8177.181309744367
 20
4413.048014368076
 30
0.0
 11
8245.832527609485
 21
4394.652975981691
 31
0.0
  0
TEXT
  5
15F37
330
747D
100
AcDbEntity
  8
寸法
 62
     7
 48
50.0
100
AcDbText
 10
8275.414750744007
 20
4598.435050010055
 30
0.0
 40
90.0
  1
水勾配
 41
0.8
  7
STYLE1
100
AcDbText
  0
TEXT
  5
15F38
330
747D
100
AcDbEntity
  8
寸法
 62
     7
 48
50.0
100
AcDbText
 10
8242.151257772638
 20
4450.096537887962
 30
0.0
 40
90.0
  1
１／１００
 41
0.8
  7
STYLE1
100
AcDbText
  0
LINE
  5
15F39
330
747D
100
AcDbEntity
  8
寸法
 48
50.0
100
AcDbLine
 10
10110.5398619927
 20
4413.048014368076
 30
0.0
 11
10041.88864412758
 21
4431.443052754446
 31
0.0
  0
LINE
  5
15F3A
330
747D
100
AcDbEntity
  8
寸法
 48
50.0
100
AcDbLine
 10
10110.5398619927
 20
4413.048014368076
 30
0.0
 11
9481.287366404897
 21
4413.048014368076
 31
0.0
  0
LINE
  5
15F3B
330
747D
100
AcDbEntity
  8
寸法
 48
50.0
100
AcDbLine
 10
10110.5398619927
 20
4413.048014368076
 30
0.0
 11
10041.88864412758
 21
4394.652975981691
 31
0.0
  0
TEXT
  5
15F3C
330
747D
100
AcDbEntity
  8
寸法
 62
     7
 48
50.0
100
AcDbText
 10
9579.520807404538
 20
4598.435050010055
 30
0.0
 40
90.0
  1
水勾配
 41
0.8
  7
STYLE1
100
AcDbText
  0
TEXT
  5
15F3D
330
747D
100
AcDbEntity
  8
寸法
 62
     7
 48
50.0
100
AcDbText
 10
9546.257314433169
 20
4450.096537887962
 30
0.0
 40
90.0
  1
１／１００
 41
0.8
  7
STYLE1
100
AcDbText
  0
DIMENSION
  5
15F3E
330
747D
100
AcDbEntity
  8
寸法
 48
50.0
100
AcDbDimension
  2
*D1
 10
7793.279458766571
 20
4338.440598165908
 30
0.0
 11
7793.279458766571
 21
4515.476031236816
 31
0.0
 70
   160
 71
     5
 42
100.0
  3
INABA_S30G
100
AcDbAlignedDimension
 13
7943.860585868475
 23
4238.440598165907
 33
0.0
 14
7943.860585868475
 24
4338.440598165908
 34
0.0
 50
90.0
100
AcDbRotatedDimension
  0
DIMENSION
  5
15F3F
330
747D
100
AcDbEntity
  8
寸法
 48
50.0
100
AcDbDimension
  2
*D2
 10
7793.279458766571
 20
4138.440598165908
 30
0.0
 11
7793.279458766571
 21
3961.405165095042
 31
0.0
 70
   160
 71
     5
 42
100.0
  3
INABA_S30G
100
AcDbAlignedDimension
 13
7943.860585868475
 23
4238.440598165907
 33
0.0
 14
7943.860585868475
 24
4138.440598165908
 34
0.0
 50
90.0
100
AcDbRotatedDimension
  0
DIMENSION
  5
15F40
330
747D
100
AcDbEntity
  8
寸法
 48
50.0
100
AcDbDimension
  2
*D3
 10
8968.860585868533
 20
3246.823968521873
 30
0.0
 11
8706.360585868534
 21
3321.832826789589
 31
0.0
 70
    32
 71
     5
 42
525.0
  3
INABA_S30G
100
AcDbAlignedDimension
 13
8443.860585868533
 23
3688.440598165908
 33
0.0
 14
8968.860585868533
 24
3627.382766336028
 34
0.0
100
AcDbRotatedDimension
  0
DIMENSION
  5
15F41
330
747D
100
AcDbEntity
  8
寸法
 48
50.0
100
AcDbDimension
  2
*D4
 10
8443.860585868533
 20
3016.73840743312
 30
0.0
 11
9143.860585868534
 21
3091.73840743312
 31
0.0
 70
    32
 71
     5
 42
1400.0
  3
INABA_S30G
100
AcDbAlignedDimension
 13
9843.860585868533
 23
3688.440598165908
 33
0.0
 14
8443.860585868533
 24
3688.440598165908
 34
0.0
100
AcDbRotatedDimension
  0
DIMENSION
  5
15F42
330
747D
100
AcDbEntity
  8
寸法
 48
50.0
100
AcDbDimension
  2
*D5
 10
9318.860585868533
 20
3246.823968521873
 30
0.0
 11
9143.860585868534
 21
3321.823968521873
 31
0.0
 70
    32
 71
     5
 42
350.0
  3
INABA_S30G
100
AcDbAlignedDimension
 13
8968.860585868533
 23
3627.382766336028
 33
0.0
 14
9318.860585868533
 24
3627.382766336028
 34
0.0
100
AcDbRotatedDimension
  0
DIMENSION
  5
15F43
330
747D
100
AcDbEntity
  8
寸法
 48
50.0
100
AcDbDimension
  2
*D6
 10
9318.860585868533
 20
3246.823968521873
 30
0.0
 11
9581.360585868534
 21
3321.832826789589
 31
0.0
 70
    32
 71
     5
 42
525.0
  3
INABA_S30G
100
AcDbAlignedDimension
 13
9843.860585868533
 23
3688.440598165908
 33
0.0
 14
9318.860585868533
 24
3627.382766336028
 34
0.0
 50
180.0
100
AcDbRotatedDimension
  0
DIMENSION
  5
15F44
330
747D
100
AcDbEntity
  8
寸法
 48
50.0
100
AcDbDimension
  2
*D7
 10
10636.30195046926
 20
3688.440598165908
 30
0.0
 11
10561.30195046926
 21
3988.44059816591
 31
0.0
 70
    32
 71
     5
 42
600.0000000000004
  3
INABA_S30G
100
AcDbAlignedDimension
 13
10408.65846343204
 23
4288.440598165908
 33
0.0
 14
9923.860585868533
 24
3688.440598165908
 34
0.0
 50
90.0
100
AcDbRotatedDimension
  0
DIMENSION
  5
15F45
330
747D
100
AcDbEntity
  8
寸法
 48
50.0
100
AcDbDimension
  2
*D8
 10
10636.30195046926
 20
4338.440598165908
 30
0.0
 11
10636.30195046926
 21
4567.976031236816
 31
0.0
 70
   160
 71
     5
 42
50.0
  3
INABA_S30G
100
AcDbAlignedDimension
 13
10343.86058586853
 23
4288.440598165908
 33
0.0
 14
10343.86058586859
 24
4338.440598165908
 34
0.0
 50
90.0
100
AcDbRotatedDimension
  0
DIMENSION
  5
15F46
330
747D
100
AcDbEntity
  8
寸法
 48
50.0
100
AcDbDimension
  2
*D9
 10
10636.30195046926
 20
3638.440598165908
 30
0.0
 11
10636.30195046926
 21
3408.905165095043
 31
0.0
 70
   160
 71
     5
 42
50.0
  3
INABA_S30G
100
AcDbAlignedDimension
 13
9923.860585868533
 23
3688.440598165908
 33
0.0
 14
9923.860585868533
 24
3638.440598165908
 34
0.0
 50
90.0
100
AcDbRotatedDimension
  0
TEXT
  5
15F47
330
747D
100
AcDbEntity
  8
寸法
 62
     7
 48
50.0
100
AcDbText
 10
9930.646558912762
 20
3837.495010600891
 30
0.0
 40
90.0
  1
主筋4-D13
  7
STYLE1
100
AcDbText
  0
LINE
  5
15F48
330
747D
100
AcDbEntity
  8
寸法
 48
50.0
100
AcDbLine
 10
9892.901192830585
 20
3812.4881530485
 30
0.0
 11
10513.11564829777
 21
3812.4881530485
 31
0.0
  0
LINE
  5
15F49
330
747D
100
AcDbEntity
  8
寸法
 48
50.0
100
AcDbLine
 10
9892.901192830585
 20
3812.4881530485
 30
0.0
 11
9518.860585868534
 21
4028.440598165907
 31
0.0
  0
LWPOLYLINE
  5
15F4A
330
747D
100
AcDbEntity
  8
寸法
 48
5.0
100
AcDbPolyline
 90
        3
 70
     0
 43
0.0
 10
8643.860585868534
 20
3768.440598165908
 10
8248.209641432856
 20
3372.789653730273
 10
7330.700086287922
 20
3372.789653730273
1001
ACAD
1000
DSTYLE
1002
{
1070
   341
1005
0
1002
}
  0
TEXT
  5
15F4B
330
747D
100
AcDbEntity
  8
寸法
 62
     7
100
AcDbText
 10
7335.836524091253
 20
3393.310658728631
 30
-0.0000000000026306
 40
90.0
  1
4-D10X6-D10以上
  7
STYLE1
100
AcDbText
  0
TEXT
  5
15F4C
330
747D
100
AcDbEntity
  8
寸法
 62
     7
100
AcDbText
 10
7335.836524091253
 20
3507.783579453259
 30
-0.0000000000026306
 40
90.0
  1
ベース筋
  7
STYLE1
100
AcDbText
  0
LINE
  5
15F4D
330
747D
100
AcDbEntity
  8
寸法
 48
50.0
100
AcDbLine
 10
8814.589272958809
 20
3878.440598165908
 30
0.0
 11
8100.345764555678
 21
3164.197089762776
 31
0.0
  0
LINE
  5
15F4E
330
747D
100
AcDbEntity
  8
寸法
 48
50.0
100
AcDbLine
 10
8100.345764555678
 20
3164.197089762776
 30
0.0
 11
7409.951785854996
 21
3164.197089762776
 31
0.0
  0
TEXT
  5
15F4F
330
747D
100
AcDbEntity
  8
寸法
 62
     7
 48
50.0
100
AcDbText
 10
7428.404373219585
 20
3179.27300759063
 30
0.0
 40
90.0
  1
帯筋D10＠100
  7
STYLE1
100
AcDbText
  0
ARC
  5
15F50
330
747D
100
AcDbEntity
  8
部品1
 48
50.0
100
AcDbCircle
 10
8968.860585868533
 20
4120.220596895261
 30
0.0
 40
48.22000127066345
100
AcDbArc
 50
22.20066484155696
 51
157.799335158443
  0
LINE
  5
15F51
330
747D
100
AcDbEntity
  8
部品1
100
AcDbLine
 10
9099.860585868533
 20
3889.440598165908
 30
0.0
 11
9118.860585868533
 21
3889.440598165908
 31
0.0
  0
LINE
  5
15F52
330
747D
100
AcDbEntity
  8
部品1
100
AcDbLine
 10
9099.860585868533
 20
3877.440598165907
 30
0.0
 11
9118.860585868533
 21
3877.440598165907
 31
0.0
  0
LINE
  5
15F53
330
747D
100
AcDbEntity
  8
部品1
100
AcDbLine
 10
9118.860585868533
 20
3889.440598165908
 30
0.0
 11
9118.860585868533
 21
3877.440598165907
 31
0.0
  0
ARC
  5
15F54
330
747D
100
AcDbEntity
  8
部品1
100
AcDbCircle
 10
9099.860585868533
 20
3914.440598165908
 30
0.0
 40
25.0
100
AcDbArc
 50
180.0
 51
270.0
  0
ARC
  5
15F55
330
747D
100
AcDbEntity
  8
部品1
100
AcDbCircle
 10
9099.860585868533
 20
3914.440598165908
 30
0.0
 40
37.0
100
AcDbArc
 50
180.0
 51
270.0
  0
LINE
  5
15F56
330
747D
100
AcDbEntity
  8
部品1
100
AcDbLine
 10
9062.860585868532
 20
4168.440598165907
 30
0.0
 11
9062.860585868532
 21
3914.440598165908
 31
0.0
  0
LINE
  5
15F57
330
747D
100
AcDbEntity
  8
部品1
100
AcDbLine
 10
9074.860585868533
 20
4198.440598165907
 30
0.0
 11
9062.860585868532
 21
4198.440598165907
 31
0.0
  0
LINE
  5
15F58
330
747D
100
AcDbEntity
  8
部品1
100
AcDbLine
 10
9074.860585868533
 20
4198.440598165907
 30
0.0
 11
9074.860585868533
 21
4190.440598165907
 31
0.0
  0
LINE
  5
15F59
330
747D
100
AcDbEntity
  8
部品1
100
AcDbLine
 10
9062.860585868532
 20
4198.440598165907
 30
0.0
 11
9062.860585868532
 21
4190.440598165907
 31
0.0
  0
LINE
  5
15F5A
330
747D
100
AcDbEntity
  8
部品1
100
AcDbLine
 10
9079.830240983167
 20
4190.440598165907
 30
0.0
 11
9057.890930753957
 21
4190.440598165907
 31
0.0
  0
LINE
  5
15F5B
330
747D
100
AcDbEntity
  8
部品1
100
AcDbLine
 10
9057.890930753957
 20
4180.440598165907
 30
0.0
 11
9057.890930753957
 21
4190.440598165907
 31
0.0
  0
LINE
  5
15F5C
330
747D
100
AcDbEntity
  8
部品1
100
AcDbLine
 10
9063.375758311245
 20
4180.440598165907
 30
0.0
 11
9063.375758311245
 21
4190.440598165907
 31
0.0
  0
LINE
  5
15F5D
330
747D
100
AcDbEntity
  8
部品1
100
AcDbLine
 10
9074.345413425822
 20
4180.440598165907
 30
0.0
 11
9074.345413425822
 21
4190.440598165907
 31
0.0
  0
LINE
  5
15F5E
330
747D
100
AcDbEntity
  8
部品1
100
AcDbLine
 10
9079.830240983167
 20
4180.440598165907
 30
0.0
 11
9079.830240983167
 21
4190.440598165907
 31
0.0
  0
LINE
  5
15F5F
330
747D
100
AcDbEntity
  8
部品1
100
AcDbLine
 10
9079.830240983167
 20
4180.440598165907
 30
0.0
 11
9057.890930753957
 21
4180.440598165907
 31
0.0
  0
LINE
  5
15F60
330
747D
100
AcDbEntity
  8
部品1
100
AcDbLine
 10
9074.860585868533
 20
4168.440598165907
 30
0.0
 11
9074.860585868533
 21
3914.440598165908
 31
0.0
  0
LINE
  5
15F61
330
747D
100
AcDbEntity
  8
部品1
100
AcDbLine
 10
8874.860585868534
 20
4168.440598165907
 30
0.0
 11
8874.860585868534
 21
3914.440598165908
 31
0.0
  0
LINE
  5
15F62
330
747D
100
AcDbEntity
  8
部品1
100
AcDbLine
 10
8862.860585868533
 20
4168.440598165907
 30
0.0
 11
8862.860585868533
 21
3914.440598165908
 31
0.0
  0
LINE
  5
15F63
330
747D
100
AcDbEntity
  8
部品1
100
AcDbLine
 10
8857.890930753958
 20
4180.440598165907
 30
0.0
 11
8879.830240983165
 21
4180.440598165907
 31
0.0
  0
LINE
  5
15F64
330
747D
100
AcDbEntity
  8
部品1
100
AcDbLine
 10
8857.890930753958
 20
4180.440598165907
 30
0.0
 11
8857.890930753958
 21
4190.440598165907
 31
0.0
  0
LINE
  5
15F65
330
747D
100
AcDbEntity
  8
部品1
100
AcDbLine
 10
8863.375758311246
 20
4180.440598165907
 30
0.0
 11
8863.375758311246
 21
4190.440598165907
 31
0.0
  0
LINE
  5
15F66
330
747D
100
AcDbEntity
  8
部品1
100
AcDbLine
 10
8874.345413425821
 20
4180.440598165907
 30
0.0
 11
8874.345413425821
 21
4190.440598165907
 31
0.0
  0
LINE
  5
15F67
330
747D
100
AcDbEntity
  8
部品1
100
AcDbLine
 10
8879.830240983165
 20
4180.440598165907
 30
0.0
 11
8879.830240983165
 21
4190.440598165907
 31
0.0
  0
LINE
  5
15F68
330
747D
100
AcDbEntity
  8
部品1
100
AcDbLine
 10
8857.890930753958
 20
4190.440598165907
 30
0.0
 11
8879.830240983165
 21
4190.440598165907
 31
0.0
  0
ARC
  5
15F69
330
747D
100
AcDbEntity
  8
部品1
100
AcDbCircle
 10
8837.860585868533
 20
3914.440598165908
 30
0.0
 40
37.0
100
AcDbArc
 50
270.0
 51
0.0
  0
ARC
  5
15F6A
330
747D
100
AcDbEntity
  8
部品1
100
AcDbCircle
 10
8837.860585868533
 20
3914.440598165908
 30
0.0
 40
25.0
100
AcDbArc
 50
270.0
 51
0.0
  0
LINE
  5
15F6B
330
747D
100
AcDbEntity
  8
部品1
100
AcDbLine
 10
8818.860585868533
 20
3889.440598165908
 30
0.0
 11
8818.860585868533
 21
3877.440598165907
 31
0.0
  0
LINE
  5
15F6C
330
747D
100
AcDbEntity
  8
部品1
100
AcDbLine
 10
8837.860585868533
 20
3877.440598165907
 30
0.0
 11
8818.860585868533
 21
3877.440598165907
 31
0.0
  0
LINE
  5
15F6D
330
747D
100
AcDbEntity
  8
部品1
100
AcDbLine
 10
8837.860585868533
 20
3889.440598165908
 30
0.0
 11
8818.860585868533
 21
3889.440598165908
 31
0.0
  0
LINE
  5
15F6E
330
747D
100
AcDbEntity
  8
部品1
100
AcDbLine
 10
8874.860585868534
 20
4198.440598165907
 30
0.0
 11
8874.860585868534
 21
4190.440598165907
 31
0.0
  0
LINE
  5
15F6F
330
747D
100
AcDbEntity
  8
部品1
100
AcDbLine
 10
8862.860585868533
 20
4198.440598165907
 30
0.0
 11
8862.860585868533
 21
4190.440598165907
 31
0.0
  0
LINE
  5
15F70
330
747D
100
AcDbEntity
  8
部品1
100
AcDbLine
 10
8862.860585868533
 20
4198.440598165907
 30
0.0
 11
8874.860585868534
 21
4198.440598165907
 31
0.0
  0
LINE
  5
15F71
330
747D
100
AcDbEntity
  8
CSLAYER17
  6
Continuous
 62
     7
100
AcDbLine
 10
9092.410585868522
 20
4230.440598165907
 30
0.0
 11
9102.410585868522
 21
4220.440598165906
 31
0.0
  0
LINE
  5
15F72
330
747D
100
AcDbEntity
  8
CSLAYER17
  6
Continuous
 62
     7
100
AcDbLine
 10
8845.310585868544
 20
4230.440598165907
 30
0.0
 11
8835.310585868546
 21
4220.440598165906
 31
0.0
  0
LINE
  5
15F73
330
747D
100
AcDbEntity
  8
CSLAYER17
  6
Continuous
 62
     7
100
AcDbLine
 10
8923.810585868544
 20
4190.440598165907
 30
0.0
 11
8913.810585868544
 21
4180.440598165907
 31
0.0
  0
LINE
  5
15F74
330
747D
100
AcDbEntity
  8
部品1
100
AcDbLine
 10
8923.810585868544
 20
4230.440598165907
 30
0.0
 11
8923.810585868544
 21
4190.440598165907
 31
0.0
  0
LINE
  5
15F75
330
747D
100
AcDbEntity
  8
部品1
100
AcDbLine
 10
9013.91058586852
 20
4230.440598165907
 30
0.0
 11
9013.91058586852
 21
4190.440598165907
 31
0.0
  0
LINE
  5
15F76
330
747D
100
AcDbEntity
  8
CSLAYER17
  6
Continuous
 62
     7
100
AcDbLine
 10
9013.91058586852
 20
4190.440598165907
 30
0.0
 11
9023.910585868522
 21
4180.440598165907
 31
0.0
  0
LINE
  5
15F77
330
747D
100
AcDbEntity
  8
CSLAYER17
  6
Continuous
 62
     7
100
AcDbLine
 10
9013.91058586852
 20
4230.440598165907
 30
0.0
 11
9092.410585868522
 21
4230.440598165907
 31
0.0
  0
LINE
  5
15F78
330
747D
100
AcDbEntity
  8
CSLAYER17
  6
Continuous
 62
     7
100
AcDbLine
 10
8835.310585868546
 20
4220.440598165906
 30
0.0
 11
8835.310585868546
 21
4180.440598165907
 31
0.0
  0
LINE
  5
15F79
330
747D
100
AcDbEntity
  8
CSLAYER17
  6
Continuous
 62
     7
100
AcDbLine
 10
9102.410585868522
 20
4220.440598165906
 30
0.0
 11
9102.410585868522
 21
4180.440598165907
 31
0.0
  0
LINE
  5
15F7A
330
747D
100
AcDbEntity
  8
CSLAYER17
  6
Continuous
 62
     7
100
AcDbLine
 10
8845.310585868544
 20
4230.440598165907
 30
0.0
 11
8923.810585868544
 21
4230.440598165907
 31
0.0
  0
LINE
  5
15F7B
330
747D
100
AcDbEntity
  8
CSLAYER17
  6
Continuous
 62
     7
100
AcDbLine
 10
8966.610585868533
 20
4230.440598165907
 30
0.0
 11
8971.110585868533
 21
4230.440598165907
 31
0.0
  0
LINE
  5
15F7C
330
747D
100
AcDbEntity
  8
CSLAYER17
  6
Continuous
 62
     7
100
AcDbLine
 10
8971.110585868533
 20
4230.440598165907
 30
0.0
 11
8971.110585868533
 21
4180.440598165907
 31
0.0
  0
LINE
  5
15F7D
330
747D
100
AcDbEntity
  8
CSLAYER17
  6
Continuous
 62
     7
100
AcDbLine
 10
8966.610585868533
 20
4230.440598165907
 30
0.0
 11
8966.610585868533
 21
4180.440598165907
 31
0.0
  0
LINE
  5
15F7E
330
747D
100
AcDbEntity
  8
CSLAYER17
  6
Continuous
 62
     7
100
AcDbLine
 10
9108.860585868534
 20
4180.440598165907
 30
0.0
 11
9108.860585868534
 21
4168.440598165907
 31
0.0
  0
LINE
  5
15F7F
330
747D
100
AcDbEntity
  8
CSLAYER17
  6
Continuous
 62
     7
100
AcDbLine
 10
8828.860585868532
 20
4168.440598165907
 30
0.0
 11
8828.860585868532
 21
4180.440598165907
 31
0.0
  0
LINE
  5
15F80
330
747D
100
AcDbEntity
  8
CSLAYER17
  6
Continuous
 62
     7
100
AcDbLine
 10
8828.860585868532
 20
4180.440598165907
 30
0.0
 11
9108.860585868534
 21
4180.440598165907
 31
0.0
  0
LINE
  5
15F81
330
747D
100
AcDbEntity
  8
CSLAYER17
  6
Continuous
 62
     7
100
AcDbLine
 10
8828.860585868532
 20
4168.440598165907
 30
0.0
 11
9108.860585868534
 21
4168.440598165907
 31
0.0
  0
LINE
  5
15F82
330
747D
100
AcDbEntity
  8
部品1
 48
50.0
100
AcDbLine
 10
9013.523817764072
 20
4180.440598165907
 30
0.0
 11
8924.310585868544
 21
4180.440598165907
 31
0.0
  0
LINE
  5
15F83
330
747D
100
AcDbEntity
  8
部品1
 48
50.0
100
AcDbLine
 10
8924.310585868544
 20
4684.373694110837
 30
0.0
 11
8924.310585868544
 21
4180.440598165922
 31
0.0
  0
LINE
  5
15F84
330
747D
100
AcDbEntity
  8
部品1
 48
50.0
100
AcDbLine
 10
9013.410585868522
 20
4684.373694110837
 30
0.0
 11
9013.410585868522
 21
4180.440598165922
 31
0.0
  0
ARC
  5
15F85
330
747D
100
AcDbEntity
  8
部品1
 48
50.0
100
AcDbCircle
 10
9318.860585868533
 20
4120.220596895261
 30
0.0
 40
48.22000127066345
100
AcDbArc
 50
22.20066484155696
 51
157.799335158443
  0
LINE
  5
15F86
330
747D
100
AcDbEntity
  8
部品1
100
AcDbLine
 10
9449.860585868533
 20
3889.440598165908
 30
0.0
 11
9468.860585868533
 21
3889.440598165908
 31
0.0
  0
LINE
  5
15F87
330
747D
100
AcDbEntity
  8
部品1
100
AcDbLine
 10
9449.860585868533
 20
3877.440598165907
 30
0.0
 11
9468.860585868533
 21
3877.440598165907
 31
0.0
  0
LINE
  5
15F88
330
747D
100
AcDbEntity
  8
部品1
100
AcDbLine
 10
9468.860585868533
 20
3889.440598165908
 30
0.0
 11
9468.860585868533
 21
3877.440598165907
 31
0.0
  0
ARC
  5
15F89
330
747D
100
AcDbEntity
  8
部品1
100
AcDbCircle
 10
9449.860585868533
 20
3914.440598165908
 30
0.0
 40
25.0
100
AcDbArc
 50
180.0
 51
270.0
  0
ARC
  5
15F8A
330
747D
100
AcDbEntity
  8
部品1
100
AcDbCircle
 10
9449.860585868533
 20
3914.440598165908
 30
0.0
 40
37.0
100
AcDbArc
 50
180.0
 51
270.0
  0
LINE
  5
15F8B
330
747D
100
AcDbEntity
  8
部品1
100
AcDbLine
 10
9412.860585868534
 20
4168.440598165907
 30
0.0
 11
9412.860585868534
 21
3914.440598165908
 31
0.0
  0
LINE
  5
15F8C
330
747D
100
AcDbEntity
  8
部品1
100
AcDbLine
 10
9424.860585868534
 20
4198.440598165907
 30
0.0
 11
9412.860585868534
 21
4198.440598165907
 31
0.0
  0
LINE
  5
15F8D
330
747D
100
AcDbEntity
  8
部品1
100
AcDbLine
 10
9424.860585868534
 20
4198.440598165907
 30
0.0
 11
9424.860585868534
 21
4190.440598165907
 31
0.0
  0
LINE
  5
15F8E
330
747D
100
AcDbEntity
  8
部品1
100
AcDbLine
 10
9412.860585868534
 20
4198.440598165907
 30
0.0
 11
9412.860585868534
 21
4190.440598165907
 31
0.0
  0
LINE
  5
15F8F
330
747D
100
AcDbEntity
  8
部品1
100
AcDbLine
 10
9429.830240983166
 20
4190.440598165907
 30
0.0
 11
9407.890930753957
 21
4190.440598165907
 31
0.0
  0
LINE
  5
15F90
330
747D
100
AcDbEntity
  8
部品1
100
AcDbLine
 10
9407.890930753957
 20
4180.440598165907
 30
0.0
 11
9407.890930753957
 21
4190.440598165907
 31
0.0
  0
LINE
  5
15F91
330
747D
100
AcDbEntity
  8
部品1
100
AcDbLine
 10
9413.375758311245
 20
4180.440598165907
 30
0.0
 11
9413.375758311245
 21
4190.440598165907
 31
0.0
  0
LINE
  5
15F92
330
747D
100
AcDbEntity
  8
部品1
100
AcDbLine
 10
9424.345413425822
 20
4180.440598165907
 30
0.0
 11
9424.345413425822
 21
4190.440598165907
 31
0.0
  0
LINE
  5
15F93
330
747D
100
AcDbEntity
  8
部品1
100
AcDbLine
 10
9429.830240983166
 20
4180.440598165907
 30
0.0
 11
9429.830240983166
 21
4190.440598165907
 31
0.0
  0
LINE
  5
15F94
330
747D
100
AcDbEntity
  8
部品1
100
AcDbLine
 10
9429.830240983166
 20
4180.440598165907
 30
0.0
 11
9407.890930753957
 21
4180.440598165907
 31
0.0
  0
LINE
  5
15F95
330
747D
100
AcDbEntity
  8
部品1
100
AcDbLine
 10
9424.860585868534
 20
4168.440598165907
 30
0.0
 11
9424.860585868534
 21
3914.440598165908
 31
0.0
  0
LINE
  5
15F96
330
747D
100
AcDbEntity
  8
部品1
100
AcDbLine
 10
9224.860585868533
 20
4168.440598165907
 30
0.0
 11
9224.860585868533
 21
3914.440598165908
 31
0.0
  0
LINE
  5
15F97
330
747D
100
AcDbEntity
  8
部品1
100
AcDbLine
 10
9212.860585868533
 20
4168.440598165907
 30
0.0
 11
9212.860585868533
 21
3914.440598165908
 31
0.0
  0
LINE
  5
15F98
330
747D
100
AcDbEntity
  8
部品1
100
AcDbLine
 10
9207.890930753958
 20
4180.440598165907
 30
0.0
 11
9229.830240983167
 21
4180.440598165907
 31
0.0
  0
LINE
  5
15F99
330
747D
100
AcDbEntity
  8
部品1
100
AcDbLine
 10
9207.890930753958
 20
4180.440598165907
 30
0.0
 11
9207.890930753958
 21
4190.440598165907
 31
0.0
  0
LINE
  5
15F9A
330
747D
100
AcDbEntity
  8
部品1
100
AcDbLine
 10
9213.375758311245
 20
4180.440598165907
 30
0.0
 11
9213.375758311245
 21
4190.440598165907
 31
0.0
  0
LINE
  5
15F9B
330
747D
100
AcDbEntity
  8
部品1
100
AcDbLine
 10
9224.345413425821
 20
4180.440598165907
 30
0.0
 11
9224.345413425821
 21
4190.440598165907
 31
0.0
  0
LINE
  5
15F9C
330
747D
100
AcDbEntity
  8
部品1
100
AcDbLine
 10
9229.830240983167
 20
4180.440598165907
 30
0.0
 11
9229.830240983167
 21
4190.440598165907
 31
0.0
  0
LINE
  5
15F9D
330
747D
100
AcDbEntity
  8
部品1
100
AcDbLine
 10
9207.890930753958
 20
4190.440598165907
 30
0.0
 11
9229.830240983167
 21
4190.440598165907
 31
0.0
  0
ARC
  5
15F9E
330
747D
100
AcDbEntity
  8
部品1
100
AcDbCircle
 10
9187.860585868532
 20
3914.440598165908
 30
0.0
 40
37.0
100
AcDbArc
 50
270.0
 51
0.0
  0
ARC
  5
15F9F
330
747D
100
AcDbEntity
  8
部品1
100
AcDbCircle
 10
9187.860585868532
 20
3914.440598165908
 30
0.0
 40
25.0
100
AcDbArc
 50
270.0
 51
0.0
  0
LINE
  5
15FA0
330
747D
100
AcDbEntity
  8
部品1
100
AcDbLine
 10
9168.860585868534
 20
3889.440598165908
 30
0.0
 11
9168.860585868534
 21
3877.440598165907
 31
0.0
  0
LINE
  5
15FA1
330
747D
100
AcDbEntity
  8
部品1
100
AcDbLine
 10
9187.860585868532
 20
3877.440598165907
 30
0.0
 11
9168.860585868534
 21
3877.440598165907
 31
0.0
  0
LINE
  5
15FA2
330
747D
100
AcDbEntity
  8
部品1
100
AcDbLine
 10
9187.860585868532
 20
3889.440598165908
 30
0.0
 11
9168.860585868534
 21
3889.440598165908
 31
0.0
  0
LINE
  5
15FA3
330
747D
100
AcDbEntity
  8
部品1
100
AcDbLine
 10
9224.860585868533
 20
4198.440598165907
 30
0.0
 11
9224.860585868533
 21
4190.440598165907
 31
0.0
  0
LINE
  5
15FA4
330
747D
100
AcDbEntity
  8
部品1
100
AcDbLine
 10
9212.860585868533
 20
4198.440598165907
 30
0.0
 11
9212.860585868533
 21
4190.440598165907
 31
0.0
  0
LINE
  5
15FA5
330
747D
100
AcDbEntity
  8
部品1
100
AcDbLine
 10
9212.860585868533
 20
4198.440598165907
 30
0.0
 11
9224.860585868533
 21
4198.440598165907
 31
0.0
  0
LINE
  5
15FA6
330
747D
100
AcDbEntity
  8
CSLAYER17
  6
Continuous
 62
     7
100
AcDbLine
 10
9442.410585868522
 20
4230.440598165907
 30
0.0
 11
9452.410585868522
 21
4220.440598165906
 31
0.0
  0
LINE
  5
15FA7
330
747D
100
AcDbEntity
  8
CSLAYER17
  6
Continuous
 62
     7
100
AcDbLine
 10
9195.310585868545
 20
4230.440598165907
 30
0.0
 11
9185.310585868545
 21
4220.440598165906
 31
0.0
  0
LINE
  5
15FA8
330
747D
100
AcDbEntity
  8
CSLAYER17
  6
Continuous
 62
     7
100
AcDbLine
 10
9273.810585868544
 20
4190.440598165907
 30
0.0
 11
9263.810585868545
 21
4180.440598165907
 31
0.0
  0
LINE
  5
15FA9
330
747D
100
AcDbEntity
  8
部品1
100
AcDbLine
 10
9273.810585868544
 20
4230.440598165907
 30
0.0
 11
9273.810585868544
 21
4190.440598165907
 31
0.0
  0
LINE
  5
15FAA
330
747D
100
AcDbEntity
  8
部品1
100
AcDbLine
 10
9363.910585868522
 20
4230.440598165907
 30
0.0
 11
9363.910585868522
 21
4190.440598165907
 31
0.0
  0
LINE
  5
15FAB
330
747D
100
AcDbEntity
  8
CSLAYER17
  6
Continuous
 62
     7
100
AcDbLine
 10
9363.910585868522
 20
4190.440598165907
 30
0.0
 11
9373.910585868522
 21
4180.440598165907
 31
0.0
  0
LINE
  5
15FAC
330
747D
100
AcDbEntity
  8
CSLAYER17
  6
Continuous
 62
     7
100
AcDbLine
 10
9363.910585868522
 20
4230.440598165907
 30
0.0
 11
9442.410585868522
 21
4230.440598165907
 31
0.0
  0
LINE
  5
15FAD
330
747D
100
AcDbEntity
  8
CSLAYER17
  6
Continuous
 62
     7
100
AcDbLine
 10
9185.310585868545
 20
4220.440598165906
 30
0.0
 11
9185.310585868545
 21
4180.440598165907
 31
0.0
  0
LINE
  5
15FAE
330
747D
100
AcDbEntity
  8
CSLAYER17
  6
Continuous
 62
     7
100
AcDbLine
 10
9452.410585868522
 20
4220.440598165906
 30
0.0
 11
9452.410585868522
 21
4180.440598165907
 31
0.0
  0
LINE
  5
15FAF
330
747D
100
AcDbEntity
  8
CSLAYER17
  6
Continuous
 62
     7
100
AcDbLine
 10
9195.310585868545
 20
4230.440598165907
 30
0.0
 11
9273.810585868544
 21
4230.440598165907
 31
0.0
  0
LINE
  5
15FB0
330
747D
100
AcDbEntity
  8
CSLAYER17
  6
Continuous
 62
     7
100
AcDbLine
 10
9316.610585868533
 20
4230.440598165907
 30
0.0
 11
9321.110585868533
 21
4230.440598165907
 31
0.0
  0
LINE
  5
15FB1
330
747D
100
AcDbEntity
  8
CSLAYER17
  6
Continuous
 62
     7
100
AcDbLine
 10
9321.110585868533
 20
4230.440598165907
 30
0.0
 11
9321.110585868533
 21
4180.440598165907
 31
0.0
  0
LINE
  5
15FB2
330
747D
100
AcDbEntity
  8
CSLAYER17
  6
Continuous
 62
     7
100
AcDbLine
 10
9316.610585868533
 20
4230.440598165907
 30
0.0
 11
9316.610585868533
 21
4180.440598165907
 31
0.0
  0
LINE
  5
15FB3
330
747D
100
AcDbEntity
  8
CSLAYER17
  6
Continuous
 62
     7
100
AcDbLine
 10
9458.860585868533
 20
4180.440598165907
 30
0.0
 11
9458.860585868533
 21
4168.440598165907
 31
0.0
  0
LINE
  5
15FB4
330
747D
100
AcDbEntity
  8
CSLAYER17
  6
Continuous
 62
     7
100
AcDbLine
 10
9178.860585868532
 20
4168.440598165907
 30
0.0
 11
9178.860585868532
 21
4180.440598165907
 31
0.0
  0
LINE
  5
15FB5
330
747D
100
AcDbEntity
  8
CSLAYER17
  6
Continuous
 62
     7
100
AcDbLine
 10
9178.860585868532
 20
4180.440598165907
 30
0.0
 11
9458.860585868533
 21
4180.440598165907
 31
0.0
  0
LINE
  5
15FB6
330
747D
100
AcDbEntity
  8
CSLAYER17
  6
Continuous
 62
     7
100
AcDbLine
 10
9178.860585868532
 20
4168.440598165907
 30
0.0
 11
9458.860585868533
 21
4168.440598165907
 31
0.0
  0
LINE
  5
15FB7
330
747D
100
AcDbEntity
  8
部品1
 48
50.0
100
AcDbLine
 10
9363.523817764072
 20
4180.440598165907
 30
0.0
 11
9274.310585868546
 21
4180.440598165907
 31
0.0
  0
LINE
  5
15FB8
330
747D
100
AcDbEntity
  8
部品1
 48
50.0
100
AcDbLine
 10
9274.310585868546
 20
4684.373694110837
 30
0.0
 11
9274.310585868546
 21
4180.440598165922
 31
0.0
  0
LINE
  5
15FB9
330
747D
100
AcDbEntity
  8
部品1
 48
50.0
100
AcDbLine
 10
9363.410585868521
 20
4684.373694110837
 30
0.0
 11
9363.410585868521
 21
4180.440598165922
 31
0.0
  0
LINE
  5
15FBA
330
747D
100
AcDbEntity
  8
センター
 48
10.0
100
AcDbLine
 10
8968.860585868533
 20
4762.913431020948
 30
0.0
 11
8968.860585868533
 21
3627.382766336028
 31
0.0
  0
LINE
  5
15FBB
330
747D
100
AcDbEntity
  8
センター
 48
10.0
100
AcDbLine
 10
9318.860585868533
 20
4762.913431020948
 30
0.0
 11
9318.860585868533
 21
3627.382766336028
 31
0.0
  0
DIMENSION
  5
15FBC
330
747D
100
AcDbEntity
  8
寸法
 48
50.0
100
AcDbDimension
  2
*D10
 10
8023.184290103557
 20
4198.440598165893
 30
0.0
 11
8023.184290103555
 21
3981.212251709202
 31
0.0
 70
   160
 71
     5
 42
60.0
  3
INABA_S30G
100
AcDbAlignedDimension
 13
8380.679394783276
 23
4138.440598165892
 33
0.0
 14
8862.860585868533
 24
4198.440598165893
 34
0.0
 50
90.0
100
AcDbRotatedDimension
  0
DIMENSION
  5
15FBD
330
747D
100
AcDbEntity
  8
寸法
 48
50.0
100
AcDbDimension
  2
*D11
 10
8223.360193496864
 20
4168.440598165907
 30
0.0
 11
8223.360193496862
 21
3908.905165095028
 31
0.0
 70
   160
 71
     5
 42
30.00000000001455
  3
INABA_S30G
100
AcDbAlignedDimension
 13
8380.679394783276
 23
4138.440598165892
 33
0.0
 14
8828.860585868532
 24
4168.440598165907
 34
0.0
 50
90.0
100
AcDbRotatedDimension
  0
LINE
  5
15FBE
330
747D
100
AcDbEntity
  8
寸法
 48
50.0
100
AcDbLine
 10
10292.49825338996
 20
3164.197089762776
 30
0.0
 11
9424.860585868534
 21
4041.440598165907
 31
0.0
  0
TEXT
  5
15FBF
330
747D
100
AcDbEntity
  8
寸法
 62
     7
 48
50.0
100
AcDbText
 10
10330.24361947208
 20
3056.918714778483
 30
0.0
 40
90.0
  1
M12X350（市販品）
  7
STYLE1
100
AcDbText
  0
TEXT
  5
15FC0
330
747D
100
AcDbEntity
  8
寸法
 62
     7
 48
50.0
100
AcDbText
 10
10330.24361947208
 20
3176.464993294925
 30
0.0
 40
90.0
  1
アンカーボルト
  7
STYLE1
100
AcDbText
  0
LINE
  5
15FC1
330
747D
100
AcDbEntity
  8
寸法
 48
50.0
100
AcDbLine
 10
10292.49825338996
 20
3164.197089762776
 30
0.0
 11
11285.42557991057
 21
3164.197089762776
 31
0.0
  0
LINE
  5
15FC2
330
747D
100
AcDbEntity
  8
部品1
 48
50.0
100
AcDbLine
 10
5673.379089388225
 20
4598.209057171479
 30
0.0
 11
4873.379089388225
 21
4598.209057171479
 31
0.0
  0
LINE
  5
15FC3
330
747D
100
AcDbEntity
  8
部品1
 48
50.0
100
AcDbLine
 10
4873.379089388225
 20
3198.20905717148
 30
0.0
 11
5673.379089388225
 21
3198.20905717148
 31
0.0
  0
LINE
  5
15FC4
330
747D
100
AcDbEntity
  8
部品1
 48
50.0
100
AcDbLine
 10
4873.379089388225
 20
4598.209057171479
 30
0.0
 11
4873.379089388225
 21
3198.20905717148
 31
0.0
  0
LINE
  5
15FC5
330
747D
100
AcDbEntity
  8
部品1
 48
50.0
100
AcDbLine
 10
2473.379089388225
 20
3198.20905717148
 30
0.0
 11
3273.379089388225
 21
3198.20905717148
 31
0.0
  0
LINE
  5
15FC6
330
747D
100
AcDbEntity
  8
部品1
 48
50.0
100
AcDbLine
 10
3273.379089388225
 20
4598.209057171479
 30
0.0
 11
3273.379089388225
 21
3198.20905717148
 31
0.0
  0
LINE
  5
15FC7
330
747D
100
AcDbEntity
  8
部品1
 48
50.0
100
AcDbLine
 10
3273.379089388225
 20
4598.209057171479
 30
0.0
 11
2473.379089388225
 21
4598.209057171479
 31
0.0
  0
LINE
  5
15FC8
330
747D
100
AcDbEntity
  8
想像線
 48
10.0
100
AcDbLine
 10
2643.379089388283
 20
1859.709057171465
 30
0.0
 11
5503.379089388167
 21
1859.70905717148
 31
0.0
  0
LINE
  5
15FC9
330
747D
100
AcDbEntity
  8
想像線
 48
10.0
100
AcDbLine
 10
5503.379089388167
 20
1859.70905717148
 30
0.0
 11
5503.379089388167
 21
5936.70905717148
 31
0.0
  0
LINE
  5
15FCA
330
747D
100
AcDbEntity
  8
想像線
 48
10.0
100
AcDbLine
 10
5503.379089388167
 20
5936.70905717148
 30
0.0
 11
2643.379089388283
 21
5936.709057171466
 31
0.0
  0
LINE
  5
15FCB
330
747D
100
AcDbEntity
  8
想像線
 48
10.0
100
AcDbLine
 10
2643.379089388283
 20
1859.70905717148
 30
0.0
 11
2643.379089388254
 21
5936.70905717148
 31
0.0
  0
LINE
  5
15FCC
330
747D
100
AcDbEntity
  8
センター
 48
10.0
100
AcDbLine
 10
2623.379089388225
 20
3723.20905717148
 30
0.0
 11
5523.379089388225
 21
3723.20905717148
 31
0.0
  0
CIRCLE
  5
15FCD
330
747D
100
AcDbEntity
  8
部品1
 48
50.0
100
AcDbCircle
 10
5373.379089388225
 20
3823.20905717148
 30
0.0
 40
15.0
  0
LINE
  5
15FCE
330
747D
100
AcDbEntity
  8
センター
 48
3.0
100
AcDbLine
 10
5373.379089388225
 20
3898.20905717148
 30
0.0
 11
5373.379089388225
 21
3748.20905717148
 31
0.0
  0
LINE
  5
15FCF
330
747D
100
AcDbEntity
  8
センター
 48
3.0
100
AcDbLine
 10
5298.379089388225
 20
3823.20905717148
 30
0.0
 11
5448.379089388225
 21
3823.20905717148
 31
0.0
  0
LINE
  5
15FD0
330
747D
100
AcDbEntity
  8
センター
 48
3.0
100
AcDbLine
 10
5373.379089388225
 20
3698.20905717148
 30
0.0
 11
5373.379089388225
 21
3548.20905717148
 31
0.0
  0
CIRCLE
  5
15FD1
330
747D
100
AcDbEntity
  8
部品1
 48
50.0
100
AcDbCircle
 10
5373.379089388225
 20
3623.20905717148
 30
0.0
 40
15.0
  0
LINE
  5
15FD2
330
747D
100
AcDbEntity
  8
センター
 48
3.0
100
AcDbLine
 10
5298.379089388225
 20
3623.20905717148
 30
0.0
 11
5448.379089388225
 21
3623.20905717148
 31
0.0
  0
LINE
  5
15FD3
330
747D
100
AcDbEntity
  8
センター
 48
10.0
100
AcDbLine
 10
5273.379089388225
 20
3473.20905717148
 30
0.0
 11
5273.379089388225
 21
3973.20905717148
 31
0.0
  0
CIRCLE
  5
15FD4
330
747D
100
AcDbEntity
  8
部品1
 48
50.0
100
AcDbCircle
 10
5173.379089388225
 20
3823.20905717148
 30
0.0
 40
15.0
  0
LINE
  5
15FD5
330
747D
100
AcDbEntity
  8
センター
 48
3.0
100
AcDbLine
 10
5173.379089388225
 20
3898.20905717148
 30
0.0
 11
5173.379089388225
 21
3748.20905717148
 31
0.0
  0
LINE
  5
15FD6
330
747D
100
AcDbEntity
  8
センター
 48
3.0
100
AcDbLine
 10
5173.379089388225
 20
3698.20905717148
 30
0.0
 11
5173.379089388225
 21
3548.20905717148
 31
0.0
  0
CIRCLE
  5
15FD7
330
747D
100
AcDbEntity
  8
部品1
 48
50.0
100
AcDbCircle
 10
5173.379089388225
 20
3623.20905717148
 30
0.0
 40
15.0
  0
LINE
  5
15FD8
330
747D
100
AcDbEntity
  8
センター
 48
10.0
100
AcDbLine
 10
5023.379089388225
 20
3723.20905717148
 30
0.0
 11
5523.379089388225
 21
3723.20905717148
 31
0.0
  0
LINE
  5
15FD9
330
747D
100
AcDbEntity
  8
センター
 48
3.0
100
AcDbLine
 10
5098.379089388225
 20
3823.20905717148
 30
0.0
 11
5248.379089388225
 21
3823.20905717148
 31
0.0
  0
LINE
  5
15FDA
330
747D
100
AcDbEntity
  8
センター
 48
3.0
100
AcDbLine
 10
5098.379089388225
 20
3623.20905717148
 30
0.0
 11
5248.379089388225
 21
3623.20905717148
 31
0.0
  0
LINE
  5
15FDB
330
747D
100
AcDbEntity
  8
センター
 48
3.0
100
AcDbLine
 10
2698.379089388225
 20
3623.20905717148
 30
0.0
 11
2848.379089388225
 21
3623.20905717148
 31
0.0
  0
LINE
  5
15FDC
330
747D
100
AcDbEntity
  8
センター
 48
3.0
100
AcDbLine
 10
2698.379089388225
 20
3823.20905717148
 30
0.0
 11
2848.379089388225
 21
3823.20905717148
 31
0.0
  0
LINE
  5
15FDD
330
747D
100
AcDbEntity
  8
センター
 48
10.0
100
AcDbLine
 10
2623.379089388225
 20
3723.20905717148
 30
0.0
 11
3123.379089388225
 21
3723.20905717148
 31
0.0
  0
CIRCLE
  5
15FDE
330
747D
100
AcDbEntity
  8
部品1
 48
50.0
100
AcDbCircle
 10
2773.379089388225
 20
3623.20905717148
 30
0.0
 40
15.0
  0
LINE
  5
15FDF
330
747D
100
AcDbEntity
  8
センター
 48
3.0
100
AcDbLine
 10
2773.379089388225
 20
3698.20905717148
 30
0.0
 11
2773.379089388225
 21
3548.20905717148
 31
0.0
  0
LINE
  5
15FE0
330
747D
100
AcDbEntity
  8
センター
 48
3.0
100
AcDbLine
 10
2773.379089388225
 20
3898.20905717148
 30
0.0
 11
2773.379089388225
 21
3748.20905717148
 31
0.0
  0
CIRCLE
  5
15FE1
330
747D
100
AcDbEntity
  8
部品1
 48
50.0
100
AcDbCircle
 10
2773.379089388225
 20
3823.20905717148
 30
0.0
 40
15.0
  0
LINE
  5
15FE2
330
747D
100
AcDbEntity
  8
センター
 48
10.0
100
AcDbLine
 10
2873.379089388225
 20
3473.20905717148
 30
0.0
 11
2873.379089388225
 21
3973.20905717148
 31
0.0
  0
LINE
  5
15FE3
330
747D
100
AcDbEntity
  8
センター
 48
3.0
100
AcDbLine
 10
2898.379089388225
 20
3623.20905717148
 30
0.0
 11
3048.379089388225
 21
3623.20905717148
 31
0.0
  0
CIRCLE
  5
15FE4
330
747D
100
AcDbEntity
  8
部品1
 48
50.0
100
AcDbCircle
 10
2973.379089388225
 20
3623.20905717148
 30
0.0
 40
15.0
  0
LINE
  5
15FE5
330
747D
100
AcDbEntity
  8
センター
 48
3.0
100
AcDbLine
 10
2973.379089388225
 20
3698.20905717148
 30
0.0
 11
2973.379089388225
 21
3548.20905717148
 31
0.0
  0
LINE
  5
15FE6
330
747D
100
AcDbEntity
  8
センター
 48
3.0
100
AcDbLine
 10
2898.379089388225
 20
3823.20905717148
 30
0.0
 11
3048.379089388225
 21
3823.20905717148
 31
0.0
  0
LINE
  5
15FE7
330
747D
100
AcDbEntity
  8
センター
 48
3.0
100
AcDbLine
 10
2973.379089388225
 20
3898.20905717148
 30
0.0
 11
2973.379089388225
 21
3748.20905717148
 31
0.0
  0
CIRCLE
  5
15FE8
330
747D
100
AcDbEntity
  8
部品1
 48
50.0
100
AcDbCircle
 10
2973.379089388225
 20
3823.20905717148
 30
0.0
 40
15.0
  0
LINE
  5
15FE9
330
747D
100
AcDbEntity
  8
文字
 48
50.0
100
AcDbLine
 10
2473.379089388225
 20
6073.20905717148
 30
0.0
 11
5673.379089388225
 21
6073.20905717148
 31
0.0
  0
LINE
  5
15FEA
330
747D
100
AcDbEntity
  8
部品1
 48
30.0
100
AcDbLine
 10
2473.379089388225
 20
1723.20905717148
 30
0.0
 11
5673.379089388225
 21
1723.20905717148
 31
0.0
  0
LINE
  5
15FEB
330
747D
100
AcDbEntity
  8
部品1
 48
50.0
100
AcDbLine
 10
2473.379089388225
 20
6073.20905717148
 30
0.0
 11
2473.379089388225
 21
1723.20905717148
 31
0.0
  0
LINE
  5
15FEC
330
747D
100
AcDbEntity
  8
部品1
 48
50.0
100
AcDbLine
 10
5673.379089388225
 20
6073.20905717148
 30
0.0
 11
5673.379089388225
 21
1723.20905717148
 31
0.0
  0
MTEXT
  5
15FED
330
747D
100
AcDbEntity
  8
寸法
 62
     7
 48
50.0
100
AcDbMText
 10
2699.370974170437
 20
1976.98910303897
 30
0.0
 40
90.0
 41
0.0
 71
     4
 72
     1
  1
\A1;床コンクリート打コテ押エ
  7
STYLE1
 73
     1
 44
1.0
1001
ACAD
1000
MTEXTBEGIN
1070
    73
1070
     1
1070
    44
1040
1.0
1070
    74
1070
     0
1000
MTEXTEND
  0
LINE
  5
15FEE
330
747D
100
AcDbEntity
  8
センター
 48
10.0
100
AcDbLine
 10
2623.379089388225
 20
4073.20905717148
 30
0.0
 11
5523.379089388225
 21
4073.20905717148
 31
0.0
  0
CIRCLE
  5
15FEF
330
747D
100
AcDbEntity
  8
部品1
 48
50.0
100
AcDbCircle
 10
5373.379089388225
 20
4173.209057171479
 30
0.0
 40
15.0
  0
LINE
  5
15FF0
330
747D
100
AcDbEntity
  8
センター
 48
3.0
100
AcDbLine
 10
5373.379089388225
 20
4248.20905717148
 30
0.0
 11
5373.379089388225
 21
4098.209057171479
 31
0.0
  0
LINE
  5
15FF1
330
747D
100
AcDbEntity
  8
センター
 48
3.0
100
AcDbLine
 10
5298.379089388225
 20
4173.209057171479
 30
0.0
 11
5448.379089388225
 21
4173.209057171479
 31
0.0
  0
LINE
  5
15FF2
330
747D
100
AcDbEntity
  8
センター
 48
3.0
100
AcDbLine
 10
5373.379089388225
 20
4048.209057171479
 30
0.0
 11
5373.379089388225
 21
3898.20905717148
 31
0.0
  0
CIRCLE
  5
15FF3
330
747D
100
AcDbEntity
  8
部品1
 48
50.0
100
AcDbCircle
 10
5373.379089388225
 20
3973.20905717148
 30
0.0
 40
15.0
  0
LINE
  5
15FF4
330
747D
100
AcDbEntity
  8
センター
 48
3.0
100
AcDbLine
 10
5298.379089388225
 20
3973.20905717148
 30
0.0
 11
5448.379089388225
 21
3973.20905717148
 31
0.0
  0
LINE
  5
15FF5
330
747D
100
AcDbEntity
  8
センター
 48
10.0
100
AcDbLine
 10
5273.379089388225
 20
3823.20905717148
 30
0.0
 11
5273.379089388225
 21
4323.20905717148
 31
0.0
  0
CIRCLE
  5
15FF6
330
747D
100
AcDbEntity
  8
部品1
 48
50.0
100
AcDbCircle
 10
5173.379089388225
 20
4173.209057171479
 30
0.0
 40
15.0
  0
LINE
  5
15FF7
330
747D
100
AcDbEntity
  8
センター
 48
3.0
100
AcDbLine
 10
5173.379089388225
 20
4248.20905717148
 30
0.0
 11
5173.379089388225
 21
4098.209057171479
 31
0.0
  0
LINE
  5
15FF8
330
747D
100
AcDbEntity
  8
センター
 48
3.0
100
AcDbLine
 10
5173.379089388225
 20
4048.209057171479
 30
0.0
 11
5173.379089388225
 21
3898.20905717148
 31
0.0
  0
CIRCLE
  5
15FF9
330
747D
100
AcDbEntity
  8
部品1
 48
50.0
100
AcDbCircle
 10
5173.379089388225
 20
3973.20905717148
 30
0.0
 40
15.0
  0
LINE
  5
15FFA
330
747D
100
AcDbEntity
  8
センター
 48
10.0
100
AcDbLine
 10
5023.379089388225
 20
4073.20905717148
 30
0.0
 11
5523.379089388225
 21
4073.20905717148
 31
0.0
  0
LINE
  5
15FFB
330
747D
100
AcDbEntity
  8
センター
 48
3.0
100
AcDbLine
 10
5098.379089388225
 20
4173.209057171479
 30
0.0
 11
5248.379089388225
 21
4173.209057171479
 31
0.0
  0
LINE
  5
15FFC
330
747D
100
AcDbEntity
  8
センター
 48
3.0
100
AcDbLine
 10
5098.379089388225
 20
3973.20905717148
 30
0.0
 11
5248.379089388225
 21
3973.20905717148
 31
0.0
  0
LINE
  5
15FFD
330
747D
100
AcDbEntity
  8
センター
 48
3.0
100
AcDbLine
 10
2698.379089388225
 20
3973.20905717148
 30
0.0
 11
2848.379089388225
 21
3973.20905717148
 31
0.0
  0
LINE
  5
15FFE
330
747D
100
AcDbEntity
  8
センター
 48
3.0
100
AcDbLine
 10
2698.379089388225
 20
4173.209057171479
 30
0.0
 11
2848.379089388225
 21
4173.209057171479
 31
0.0
  0
LINE
  5
15FFF
330
747D
100
AcDbEntity
  8
センター
 48
10.0
100
AcDbLine
 10
2623.379089388225
 20
4073.20905717148
 30
0.0
 11
3123.379089388225
 21
4073.20905717148
 31
0.0
  0
CIRCLE
  5
16000
330
747D
100
AcDbEntity
  8
部品1
 48
50.0
100
AcDbCircle
 10
2773.379089388225
 20
3973.20905717148
 30
0.0
 40
15.0
  0
LINE
  5
16001
330
747D
100
AcDbEntity
  8
センター
 48
3.0
100
AcDbLine
 10
2773.379089388225
 20
4048.209057171479
 30
0.0
 11
2773.379089388225
 21
3898.20905717148
 31
0.0
  0
LINE
  5
16002
330
747D
100
AcDbEntity
  8
センター
 48
3.0
100
AcDbLine
 10
2773.379089388225
 20
4248.20905717148
 30
0.0
 11
2773.379089388225
 21
4098.209057171479
 31
0.0
  0
CIRCLE
  5
16003
330
747D
100
AcDbEntity
  8
部品1
 48
50.0
100
AcDbCircle
 10
2773.379089388225
 20
4173.209057171479
 30
0.0
 40
15.0
  0
LINE
  5
16004
330
747D
100
AcDbEntity
  8
センター
 48
10.0
100
AcDbLine
 10
2873.379089388225
 20
3823.20905717148
 30
0.0
 11
2873.379089388225
 21
4323.20905717148
 31
0.0
  0
LINE
  5
16005
330
747D
100
AcDbEntity
  8
センター
 48
3.0
100
AcDbLine
 10
2898.379089388225
 20
3973.20905717148
 30
0.0
 11
3048.379089388225
 21
3973.20905717148
 31
0.0
  0
CIRCLE
  5
16006
330
747D
100
AcDbEntity
  8
部品1
 48
50.0
100
AcDbCircle
 10
2973.379089388225
 20
3973.20905717148
 30
0.0
 40
15.0
  0
LINE
  5
16007
330
747D
100
AcDbEntity
  8
センター
 48
3.0
100
AcDbLine
 10
2973.379089388225
 20
4048.209057171479
 30
0.0
 11
2973.379089388225
 21
3898.20905717148
 31
0.0
  0
LINE
  5
16008
330
747D
100
AcDbEntity
  8
センター
 48
3.0
100
AcDbLine
 10
2898.379089388225
 20
4173.209057171479
 30
0.0
 11
3048.379089388225
 21
4173.209057171479
 31
0.0
  0
LINE
  5
16009
330
747D
100
AcDbEntity
  8
センター
 48
3.0
100
AcDbLine
 10
2973.379089388225
 20
4248.20905717148
 30
0.0
 11
2973.379089388225
 21
4098.209057171479
 31
0.0
  0
CIRCLE
  5
1600A
330
747D
100
AcDbEntity
  8
部品1
 48
50.0
100
AcDbCircle
 10
2973.379089388225
 20
4173.209057171479
 30
0.0
 40
15.0
  0
LINE
  5
1600B
330
747D
100
AcDbEntity
  8
寸法
 48
50.0
100
AcDbLine
 10
3985.001126057687
 20
2830.782929139124
 30
0.0
 11
3952.152843224918
 21
2953.374389612582
 31
0.0
  0
LINE
  5
1600C
330
747D
100
AcDbEntity
  8
寸法
 48
50.0
100
AcDbLine
 10
3985.001126057687
 20
2830.782929139124
 30
0.0
 11
4017.849408890514
 21
2953.374389612582
 31
0.0
  0
LINE
  5
1600D
330
747D
100
AcDbEntity
  8
寸法
 48
50.0
100
AcDbLine
 10
3985.001126057687
 20
3616.498157572307
 30
0.0
 11
3985.001126057687
 21
2830.782929139124
 31
0.0
  0
MTEXT
  5
1600E
330
747D
100
AcDbEntity
  8
寸法
 62
     7
 48
50.0
100
AcDbMText
 10
3890.56318999191
 20
2969.49623526627
 30
0.0
 40
90.0
 41
0.0
 71
     4
 72
     1
  1
\A1;水勾配 1/100 
  7
STYLE1
 11
0.0000000000000001
 21
1.0
 31
0.0
 73
     1
 44
1.0
1001
ACAD
1000
MTEXTBEGIN
1070
    73
1070
     1
1070
    44
1040
1.0
1070
    74
1070
     0
1000
MTEXTEND
  0
DIMENSION
  5
16012
330
747D
100
AcDbEntity
  8
寸法
 48
50.0
100
AcDbDimension
  2
*D12
 10
5503.379089388167
 20
1394.721338834934
 30
0.0
 11
4073.379089388224
 21
1469.73019710265
 31
0.0
 70
    32
  1
屋根寸法 <>
 71
     5
 42
2859.999999999884
  3
INABA_S30G
100
AcDbAlignedDimension
 13
2643.379089388283
 23
1859.709057171465
 33
0.0
 14
5503.379089388167
 24
1859.70905717148
 34
0.0
100
AcDbRotatedDimension
  0
DIMENSION
  5
16013
330
747D
100
AcDbEntity
  8
寸法
 48
50.0
100
AcDbDimension
  2
*D13
 10
2473.379089388225
 20
1394.721338834934
 30
0.0
 11
2558.379089388254
 21
1469.721338834934
 31
0.0
 70
    32
 71
     5
 42
170.0000000000582
  3
INABA_S30G
100
AcDbAlignedDimension
 13
2643.379089388283
 23
1859.709057171465
 33
0.0
 14
2473.379089388225
 24
1723.20905717148
 34
0.0
100
AcDbRotatedDimension
  0
DIMENSION
  5
16014
330
747D
100
AcDbEntity
  8
寸法
 48
50.0
100
AcDbDimension
  2
*D14
 10
5673.379089388225
 20
1394.721338834934
 30
0.0
 11
5588.379089388196
 21
1469.721338834934
 31
0.0
 70
    32
 71
     5
 42
170.0000000000582
  3
INABA_S30G
100
AcDbAlignedDimension
 13
5503.379089388167
 23
1859.70905717148
 33
0.0
 14
5673.379089388225
 24
1723.20905717148
 34
0.0
100
AcDbRotatedDimension
  0
DIMENSION
  5
16018
330
747D
100
AcDbEntity
  8
寸法
 48
50.0
100
AcDbDimension
  2
*D15
 10
6055.653311751826
 20
1723.20905717148
 30
0.0
 11
6055.653311751826
 21
1499.345096140801
 31
0.0
 70
   160
 71
     5
 42
136.4999999999997
  3
INABA_S30G
100
AcDbAlignedDimension
 13
5503.379089388167
 23
1859.70905717148
 33
0.0
 14
5673.379089388225
 24
1723.20905717148
 34
0.0
 50
90.0
100
AcDbRotatedDimension
  0
DIMENSION
  5
16019
330
747D
100
AcDbEntity
  8
寸法
 48
50.0
100
AcDbDimension
  2
*D16
 10
6055.653311751826
 20
1859.70905717148
 30
0.0
 11
5980.653311751826
 21
3898.209057171481
 31
0.0
 70
    32
  1
屋根寸法 <>
 71
     5
 42
4077.0
  3
INABA_S30G
100
AcDbAlignedDimension
 13
5503.379089388167
 23
5936.70905717148
 33
0.0
 14
5503.379089388167
 24
1859.70905717148
 34
0.0
 50
90.0
100
AcDbRotatedDimension
  0
DIMENSION
  5
1601A
330
747D
100
AcDbEntity
  8
寸法
 48
50.0
100
AcDbDimension
  2
*D17
 10
6055.653311751828
 20
6073.20905717148
 30
0.0
 11
6055.653311751826
 21
6297.073018202208
 31
0.0
 70
   160
 71
     5
 42
136.5
  3
INABA_S30G
100
AcDbAlignedDimension
 13
5503.379089388167
 23
5936.70905717148
 33
0.0
 14
5673.379089388225
 24
6073.20905717148
 34
0.0
 50
270.0
100
AcDbRotatedDimension
  0
LINE
  5
16036
330
747D
100
AcDbEntity
  8
寸法
 48
50.0
100
AcDbLine
 10
3985.001126057687
 20
4965.635185203836
 30
0.0
 11
3952.152843224918
 21
4843.043724730378
 31
0.0
  0
LINE
  5
16037
330
747D
100
AcDbEntity
  8
寸法
 48
50.0
100
AcDbLine
 10
3985.001126057687
 20
4965.635185203836
 30
0.0
 11
4017.849408890514
 21
4843.043724730378
 31
0.0
  0
LINE
  5
16038
330
747D
100
AcDbEntity
  8
寸法
 48
50.0
100
AcDbLine
 10
3985.001126057687
 20
4179.919956770652
 30
0.0
 11
3985.001126057687
 21
4965.635185203836
 31
0.0
  0
MTEXT
  5
16039
330
747D
100
AcDbEntity
  8
寸法
 62
     7
 48
50.0
100
AcDbMText
 10
3890.56318999191
 20
4218.633262897784
 30
0.0
 40
90.0
 41
0.0
 71
     4
 72
     1
  1
\A1;水勾配 1/100 
  7
STYLE1
 11
0.0000000000000001
 21
1.0
 31
0.0
 73
     1
 44
1.0
1001
ACAD
1000
MTEXTBEGIN
1070
    73
1070
     1
1070
    44
1040
1.0
1070
    74
1070
     0
1000
MTEXTEND
  0
TEXT
  5
1603A
330
747D
100
AcDbEntity
  8
寸法
 62
     7
100
AcDbText
 10
3731.522990017009
 20
2598.535325705569
 30
0.0
 40
90.0
  1
ｱﾝｶｰﾎﾞﾙﾄ(市販品)
  7
STYLE1
100
AcDbText
  0
LEADER
  5
1603B
330
747D
100
AcDbEntity
  8
寸法
 48
50.0
100
AcDbLeader
  3
INABA_S50G
 76
     3
 10
5173.379089388225
 20
3623.20905717148
 30
0.0
 10
4561.8648504078
 20
2564.035325705569
 30
0.0
 10
3708.976441440682
 20
2564.035325705569
 30
0.0
1001
ACAD
1000
DSTYLE
1002
{
1070
    41
1040
80.0
1070
   147
1040
25.0
1070
    77
1070
     0
1002
}
  0
DIMENSION
  5
1603C
330
747D
100
AcDbEntity
  8
寸法
 48
50.0
100
AcDbDimension
  2
*D18
 10
1909.757890660505
 20
1723.20905717148
 30
0.0
 11
1834.757890660505
 21
3898.209057171481
 31
0.0
 70
    32
  1
基礎土間寸法 <>
 71
     5
 42
4350.0
  3
INABA_S30G
100
AcDbAlignedDimension
 13
2473.379089388196
 23
6073.20905717148
 33
0.0
 14
2473.379089388196
 24
1723.20905717148
 34
0.0
 50
90.0
100
AcDbRotatedDimension
  0
DIMENSION
  5
1603D
330
747D
100
AcDbEntity
  8
寸法
 48
50.0
100
AcDbDimension
  2
*D19
 10
2132.507252676951
 20
1723.20905717148
 30
0.0
 11
2057.498394409234
 21
2723.209057171481
 31
0.0
 70
    32
 71
     5
 42
2000.0
  3
INABA_S30G
100
AcDbAlignedDimension
 13
2623.379089388196
 23
3723.20905717148
 33
0.0
 14
2473.379089388196
 24
1723.20905717148
 34
0.0
 50
90.0
100
AcDbRotatedDimension
  0
DIMENSION
  5
1603E
330
747D
100
AcDbEntity
  8
寸法
 48
50.0
100
AcDbDimension
  2
*D20
 10
2132.507252676951
 20
3723.20905717148
 30
0.0
 11
2057.50725267695
 21
3898.209057171481
 31
0.0
 70
    32
 71
     5
 42
350.0
  3
INABA_S30G
100
AcDbAlignedDimension
 13
2623.379089388196
 23
4073.20905717148
 33
0.0
 14
2623.379089388196
 24
3723.20905717148
 34
0.0
 50
90.0
100
AcDbRotatedDimension
  0
DIMENSION
  5
1603F
330
747D
100
AcDbEntity
  8
寸法
 48
50.0
100
AcDbDimension
  2
*D21
 10
2132.507252676951
 20
6073.20905717148
 30
0.0
 11
2057.498394409233
 21
5073.209057171481
 31
0.0
 70
    32
 71
     5
 42
2000.0
  3
INABA_S30G
100
AcDbAlignedDimension
 13
2623.379089388196
 23
4073.20905717148
 33
0.0
 14
2473.379089388196
 24
6073.20905717148
 34
0.0
 50
270.0
100
AcDbRotatedDimension
  0
LINE
  5
16040
330
747D
100
AcDbEntity
  8
寸法
 48
50.0
100
AcDbLine
 10
2619.245258639319
 20
4677.108019651612
 30
0.0
 11
2726.9786292223
 21
4705.975089297193
 31
0.0
  0
LINE
  5
16041
330
747D
100
AcDbEntity
  8
寸法
 48
50.0
100
AcDbLine
 10
2726.9786292223
 20
4705.975089297193
 30
0.0
 11
2726.9786292223
 21
4640.040470375651
 31
0.0
  0
LINE
  5
16042
330
747D
100
AcDbEntity
  8
寸法
 48
50.0
100
AcDbLine
 10
2873.379089388225
 20
4677.108019651612
 30
0.0
 11
2619.245258639319
 21
4677.108019651612
 31
0.0
  0
TEXT
  5
16043
330
747D
100
AcDbEntity
  8
寸法
 62
     7
100
AcDbText
 10
2509.74360922577
 20
4649.042546849844
 30
0.0
 40
90.0
  1
A'
  7
STYLE1
100
AcDbText
  0
LINE
  5
16044
330
747D
100
AcDbEntity
  8
寸法
 48
50.0
100
AcDbLine
 10
2873.379089388225
 20
3119.310094691348
 30
0.0
 11
2619.245258639319
 21
3119.310094691348
 31
0.0
  0
LINE
  5
16045
330
747D
100
AcDbEntity
  8
寸法
 48
50.0
100
AcDbLine
 10
2619.245258639319
 20
3119.310094691348
 30
0.0
 11
2726.9786292223
 21
3090.443025045767
 31
0.0
  0
LINE
  5
16046
330
747D
100
AcDbEntity
  8
寸法
 48
50.0
100
AcDbLine
 10
2726.9786292223
 20
3090.443025045767
 30
0.0
 11
2726.9786292223
 21
3156.37764396731
 31
0.0
  0
TEXT
  5
16047
330
747D
100
AcDbEntity
  8
寸法
 62
     7
100
AcDbText
 10
2508.484980367052
 20
3077.082891683444
 30
0.0
 40
90.0
  1
A
  7
STYLE1
100
AcDbText
  0
LINE
  5
16048
330
747D
100
AcDbEntity
  8
寸法
 48
50.0
100
AcDbLine
 10
2873.379089388225
 20
3119.310094691348
 30
0.0
 11
2873.379089388225
 21
3473.20905717148
 31
0.0
  0
DIMENSION
  5
16049
330
747D
100
AcDbEntity
  8
寸法
 48
50.0
100
AcDbDimension
  2
*D22
 10
5673.379089388225
 20
6576.698390276899
 30
0.0
 11
4073.379089388224
 21
6651.707248544615
 31
0.0
 70
    32
  1
基礎土間寸法 <>
 71
     5
 42
3200.0
  3
INABA_S30G
100
AcDbAlignedDimension
 13
2473.379089388225
 23
6073.20905717148
 33
0.0
 14
5673.379089388225
 24
6073.20905717148
 34
0.0
100
AcDbRotatedDimension
  0
DIMENSION
  5
1604A
330
747D
100
AcDbEntity
  8
寸法
 48
50.0
100
AcDbDimension
  2
*D23
 10
5673.379089388225
 20
6382.66135130258
 30
0.0
 11
5473.379089388225
 21
6457.66135130258
 31
0.0
 70
    32
 71
     5
 42
400.0
  3
INABA_S30G
100
AcDbAlignedDimension
 13
5273.379089388225
 23
4323.20905717148
 33
0.0
 14
5673.379089388225
 24
6073.20905717148
 34
0.0
100
AcDbRotatedDimension
  0
DIMENSION
  5
1604B
330
747D
100
AcDbEntity
  8
寸法
 48
50.0
100
AcDbDimension
  2
*D24
 10
5273.379089388225
 20
6382.66135130258
 30
0.0
 11
4073.379089388224
 21
6457.670209570297
 31
0.0
 70
    32
 71
     5
 42
2400.0
  3
INABA_S30G
100
AcDbAlignedDimension
 13
2873.379089388225
 23
4323.20905717148
 33
0.0
 14
5273.379089388225
 24
4323.20905717148
 34
0.0
100
AcDbRotatedDimension
  0
DIMENSION
  5
1604C
330
747D
100
AcDbEntity
  8
寸法
 48
50.0
100
AcDbDimension
  2
*D25
 10
2873.379089388225
 20
6382.66135130258
 30
0.0
 11
2673.379089388225
 21
6457.66135130258
 31
0.0
 70
    32
 71
     5
 42
400.0
  3
INABA_S30G
100
AcDbAlignedDimension
 13
2473.379089388225
 23
6073.20905717148
 33
0.0
 14
2873.379089388225
 24
4323.20905717148
 34
0.0
100
AcDbRotatedDimension
  0
DIMENSION
  5
1604D
330
747D
100
AcDbEntity
  8
寸法
 48
50.0
100
AcDbDimension
  2
*D26
 10
4873.379089388196
 20
2960.072841134373
 30
0.0
 11
5073.379089388196
 21
3035.072841134374
 31
0.0
 70
    32
 71
     5
 42
400.0
  3
INABA_S30G
100
AcDbAlignedDimension
 13
5273.379089388196
 23
3473.209057171465
 33
0.0
 14
4873.379089388196
 24
3198.209057171466
 34
0.0
100
AcDbRotatedDimension
  0
DIMENSION
  5
1604E
330
747D
100
AcDbEntity
  8
寸法
 48
50.0
100
AcDbDimension
  2
*D27
 10
5673.379089388225
 20
2721.936625097311
 30
0.0
 11
5273.379089388196
 21
2721.936625097311
 31
0.0
 70
   160
 71
     5
 42
800.0000000000291
  3
INABA_S30G
100
AcDbAlignedDimension
 13
4873.379089388196
 23
3198.209057171466
 33
0.0
 14
5673.379089388225
 24
3198.209057171466
 34
0.0
100
AcDbRotatedDimension
  0
DIMENSION
  5
1604F
330
747D
100
AcDbEntity
  8
寸法
 48
50.0
100
AcDbDimension
  2
*D28
 10
4696.064586104024
 20
3198.209057171451
 30
0.0
 11
4621.055727836307
 21
3460.709057171459
 31
0.0
 70
    32
 71
     5
 42
525.0000000000145
  3
INABA_S30G
100
AcDbAlignedDimension
 13
5023.379089388196
 23
3723.209057171465
 33
0.0
 14
4873.379089388196
 24
3198.209057171451
 34
0.0
 50
90.0
100
AcDbRotatedDimension
  0
DIMENSION
  5
16050
330
747D
100
AcDbEntity
  8
寸法
 48
50.0
100
AcDbDimension
  2
*D29
 10
4518.750082819853
 20
3198.209057171451
 30
0.0
 11
4443.750082819852
 21
3898.209057171459
 31
0.0
 70
    32
 71
     5
 42
1400.000000000014
  3
INABA_S30G
100
AcDbAlignedDimension
 13
4873.379089388196
 23
4598.209057171465
 33
0.0
 14
4873.379089388196
 24
3198.209057171451
 34
0.0
 50
90.0
100
AcDbRotatedDimension
  0
DIMENSION
  5
16051
330
747D
100
AcDbEntity
  8
寸法
 48
50.0
100
AcDbDimension
  2
*D30
 10
4696.064586104024
 20
3723.209057171465
 30
0.0
 11
4621.064586104024
 21
3898.209057171466
 31
0.0
 70
    32
 71
     5
 42
350.0
  3
INABA_S30G
100
AcDbAlignedDimension
 13
5023.379089388196
 23
4073.209057171465
 33
0.0
 14
5023.379089388196
 24
3723.209057171465
 34
0.0
 50
90.0
100
AcDbRotatedDimension
  0
DIMENSION
  5
16052
330
747D
100
AcDbEntity
  8
寸法
 48
50.0
100
AcDbDimension
  2
*D31
 10
4696.064586104024
 20
4598.209057171479
 30
0.0
 11
4621.055727836307
 21
4335.709057171473
 31
0.0
 70
    32
 71
     5
 42
525.0000000000145
  3
INABA_S30G
100
AcDbAlignedDimension
 13
5023.379089388196
 23
4073.209057171465
 33
0.0
 14
4873.379089388196
 24
4598.209057171479
 34
0.0
 50
270.0
100
AcDbRotatedDimension
  0
ENDSEC
  0
SECTION
  2
OBJECTS
  0
DICTIONARY
  5
7471
330
0
100
AcDbDictionary
281
     1
  3
ACAD_CIP_PREVIOUS_PRODUCT_INFO
350
13E76
  3
ACAD_COLOR
350
1341D
  3
ACAD_DETAILVIEWSTYLE
350
13E6C
  3
ACAD_GROUP
350
7472
  3
ACAD_LAYOUT
350
1341E
  3
ACAD_MATERIAL
350
1341C
  3
ACAD_MLEADERSTYLE
350
13E68
  3
ACAD_MLINESTYLE
350
7473
  3
ACAD_PLOTSETTINGS
350
1341F
  3
ACAD_PLOTSTYLENAME
350
1341A
  3
ACAD_SCALELIST
350
13E56
  3
ACAD_SECTIONVIEWSTYLE
350
13E6A
  3
ACAD_TABLESTYLE
350
13E54
  3
ACAD_VISUALSTYLE
350
13E3B
  3
AcadDim
350
13618
  3
ACDB_RECOMPOSE_DATA
350
16D55
  3
AcDbVariableDictionary
350
13533
  3
CONTENTDICTIONARY
350
E71C
  3
DRAWINGVARIABLESDICT
350
F3B9
  3
DWGPROPS
350
16D56
  0
DICTIONARY
  5
16C68
330
746D
100
AcDbDictionary
280
     1
281
     1
  0
DICTIONARY
  5
13451
330
7467
100
AcDbDictionary
280
     1
281
     1
  3
ACAD_LAYERFILTERS
360
1356A
  3
ACAD_LAYERSTATES
360
13452
  0
DICTIONARY
  5
15504
330
7474
100
AcDbDictionary
280
     1
281
     1
  3
ADSK_XREC_LAYER_RECONCILED
360
15505
  0
DICTIONARY
  5
15506
330
DEB3
100
AcDbDictionary
280
     1
281
     1
  3
ADSK_XREC_LAYER_RECONCILED
360
15507
  0
DICTIONARY
  5
15508
330
DEB4
100
AcDbDictionary
280
     1
281
     1
  3
ADSK_XREC_LAYER_RECONCILED
360
15509
  0
DICTIONARY
  5
1550A
330
DEB5
100
AcDbDictionary
280
     1
281
     1
  3
ADSK_XREC_LAYER_RECONCILED
360
1550B
  0
DICTIONARY
  5
1550C
330
DEB6
100
AcDbDictionary
280
     1
281
     1
  3
ADSK_XREC_LAYER_RECONCILED
360
1550D
  0
DICTIONARY
  5
1550E
330
10B54
100
AcDbDictionary
280
     1
281
     1
  3
ADSK_XREC_LAYER_RECONCILED
360
1550F
  0
DICTIONARY
  5
15510
330
11729
100
AcDbDictionary
280
     1
281
     1
  3
ADSK_XREC_LAYER_RECONCILED
360
15511
  0
DICTIONARY
  5
15512
330
1173F
100
AcDbDictionary
280
     1
281
     1
  3
ADSK_XREC_LAYER_RECONCILED
360
15513
  0
DICTIONARY
  5
15514
330
11740
100
AcDbDictionary
280
     1
281
     1
  3
ADSK_XREC_LAYER_RECONCILED
360
15515
  0
DICTIONARY
  5
15516
330
1356E
100
AcDbDictionary
280
     1
281
     1
  3
ADSK_XREC_LAYER_RECONCILED
360
15517
  0
DICTIONARY
  5
15518
330
135FB
100
AcDbDictionary
280
     1
281
     1
  3
ADSK_XREC_LAYER_RECONCILED
360
15519
  0
DICTIONARY
  5
1551A
330
1382B
100
AcDbDictionary
280
     1
281
     1
  3
ADSK_XREC_LAYER_RECONCILED
360
1551B
  0
DICTIONARY
  5
1551C
330
1382C
100
AcDbDictionary
280
     1
281
     1
  3
ADSK_XREC_LAYER_RECONCILED
360
1551D
  0
DICTIONARY
  5
1551E
330
1382D
100
AcDbDictionary
280
     1
281
     1
  3
ADSK_XREC_LAYER_RECONCILED
360
1551F
  0
XRECORD
  5
13E76
102
{ACAD_REACTORS
330
7471
102
}
330
7471
100
AcDbXrecord
280
     1
300
ACDLT
300
2014
300
ACDLT_F_S
  0
DICTIONARY
  5
1341D
102
{ACAD_REACTORS
330
7471
102
}
330
7471
100
AcDbDictionary
281
     1
  0
DICTIONARY
  5
13E6C
102
{ACAD_REACTORS
330
7471
102
}
330
7471
100
AcDbDictionary
281
     1
  3
Metric50
350
13E6D
  0
DICTIONARY
  5
7472
102
{ACAD_REACTORS
330
7471
102
}
330
7471
100
AcDbDictionary
281
     1
  0
DICTIONARY
  5
1341E
102
{ACAD_REACTORS
330
7471
102
}
330
7471
100
AcDbDictionary
281
     1
  3
Model
350
13420
  3
レイアウト1
350
13421
  0
DICTIONARY
  5
1341C
102
{ACAD_REACTORS
330
7471
102
}
330
7471
100
AcDbDictionary
281
     1
  3
ByBlock
350
13E2B
  3
ByLayer
350
13E23
  3
Global
350
13E33
  0
DICTIONARY
  5
13E68
102
{ACAD_REACTORS
330
7471
102
}
330
7471
100
AcDbDictionary
281
     1
  3
Standard
350
13E69
  0
DICTIONARY
  5
7473
102
{ACAD_REACTORS
330
7471
102
}
330
7471
100
AcDbDictionary
281
     1
  3
STANDARD
350
7480
  0
DICTIONARY
  5
1341F
102
{ACAD_REACTORS
330
7471
102
}
330
7471
100
AcDbDictionary
281
     1
  0
ACDBDICTIONARYWDFLT
  5
1341A
102
{ACAD_REACTORS
330
7471
102
}
330
7471
100
AcDbDictionary
281
     1
  3
Normal
350
1341B
100
AcDbDictionaryWithDefault
340
1341B
  0
DICTIONARY
  5
13E56
102
{ACAD_REACTORS
330
7471
102
}
330
7471
100
AcDbDictionary
281
     1
  3
A0
350
13E57
  3
A1
350
13E58
  3
A2
350
13E59
  3
A3
350
13E5A
  3
A4
350
13E5B
  3
A5
350
13E5C
  3
A6
350
13E5D
  3
A7
350
13E5E
  3
A8
350
13E5F
  3
A9
350
13E60
  3
B0
350
13E61
  3
B1
350
13E62
  3
B2
350
13E63
  3
B3
350
13E64
  3
B4
350
13E65
  3
B5
350
13E66
  3
B6
350
13E67
  0
DICTIONARY
  5
13E6A
102
{ACAD_REACTORS
330
7471
102
}
330
7471
100
AcDbDictionary
281
     1
  3
Metric50
350
13E6B
  0
DICTIONARY
  5
13E54
102
{ACAD_REACTORS
330
7471
102
}
330
7471
100
AcDbDictionary
281
     1
  3
Standard
350
13E55
  0
DICTIONARY
  5
13E3B
102
{ACAD_REACTORS
330
7471
102
}
330
7471
100
AcDbDictionary
281
     1
  3
2dWireframe
350
13E41
  3
Basic
350
13E40
  3
Brighten
350
13E47
  3
ColorChange
350
13E4B
  3
Conceptual
350
13E44
  3
Dim
350
13E46
  3
EdgeColorOff
350
13E53
  3
Facepattern
350
13E4A
  3
Flat
350
13E3C
  3
FlatWithEdges
350
13E3D
  3
Gouraud
350
13E3E
  3
GouraudWithEdges
350
13E3F
  3
Hidden
350
13E43
  3
JitterOff
350
13E51
  3
Linepattern
350
13E49
  3
OverhangOff
350
13E52
  3
Realistic
350
13E45
  3
Shaded
350
13E50
  3
Shaded with edges
350
13E4F
  3
Shades of Gray
350
13E4C
  3
Sketchy
350
13E4D
  3
Thicken
350
13E48
  3
Wireframe
350
13E42
  3
X-Ray
350
13E4E
  0
XRECORD
  5
13618
102
{ACAD_REACTORS
330
7471
102
}
330
7471
100
AcDbXrecord
280
     1
 90
   990106
  3

 60
     0
 61
     0
 62
     1
 63
     3
 64
     0
 65
     0
 66
     0
 67
     3
 68
     1
 69
     0
 70
     0
 71
     0
 72
     0
 40
0.0
170
     0
  0
XRECORD
  5
16D55
102
{ACAD_REACTORS
330
7471
102
}
330
7471
100
AcDbXrecord
280
     1
 90
        1
330
13E55
  0
DICTIONARY
  5
13533
102
{ACAD_REACTORS
330
7471
102
}
330
7471
100
AcDbDictionary
281
     1
  3
CANNOSCALE
350
16CAD
  3
CMLEADERSTYLE
350
16CAA
  3
CTABLESTYLE
350
16CA9
  3
CVIEWDETAILSTYLE
350
16CAB
  3
CVIEWSECTIONSTYLE
350
16CAC
  3
DIMASSOC
350
13534
  3
INDEXCTL
350
16CAF
  3
PROJECTNAME
350
13535
  3
SORTENTS
350
16CAE
  3
XCLIPFRAME
350
16D53
  0
DICTIONARY
  5
E71C
102
{ACAD_REACTORS
330
7471
102
}
330
7471
100
AcDbDictionary
281
     1
  0
DICTIONARY
  5
F3B9
102
{ACAD_REACTORS
330
7471
102
}
330
7471
100
AcDbDictionary
281
     1
1001
DRAWINGVARIABLESXDATA
1000
POLARMODE
1000
1
  0
XRECORD
  5
16D56
102
{ACAD_REACTORS
330
7471
102
}
330
7471
100
AcDbXrecord
280
     1
  1
DWGPROPS COOKIE
  2

  3

  4

  6

  7

  8
ODAHARA
  9

300
=
301
=
302
=
303
=
304
=
305
=
306
=
307
=
308
=
309
=
 40
0.3429259027777778
 41
2451074.411873148
 42
2456560.838692176
  1

 90
        0
  0
DICTIONARY
  5
1356A
102
{ACAD_REACTORS
330
13451
102
}
330
13451
100
AcDbDictionary
281
     1
  0
DICTIONARY
  5
13452
102
{ACAD_REACTORS
330
13451
102
}
330
13451
100
AcDbDictionary
281
     1
  0
XRECORD
  5
15505
102
{ACAD_REACTORS
330
15504
102
}
330
15504
100
AcDbXrecord
280
     1
290
     1
  0
XRECORD
  5
15507
102
{ACAD_REACTORS
330
15506
102
}
330
15506
100
AcDbXrecord
280
     1
290
     1
  0
XRECORD
  5
15509
102
{ACAD_REACTORS
330
15508
102
}
330
15508
100
AcDbXrecord
280
     1
290
     1
  0
XRECORD
  5
1550B
102
{ACAD_REACTORS
330
1550A
102
}
330
1550A
100
AcDbXrecord
280
     1
290
     1
  0
XRECORD
  5
1550D
102
{ACAD_REACTORS
330
1550C
102
}
330
1550C
100
AcDbXrecord
280
     1
290
     1
  0
XRECORD
  5
1550F
102
{ACAD_REACTORS
330
1550E
102
}
330
1550E
100
AcDbXrecord
280
     1
290
     1
  0
XRECORD
  5
15511
102
{ACAD_REACTORS
330
15510
102
}
330
15510
100
AcDbXrecord
280
     1
290
     1
  0
XRECORD
  5
15513
102
{ACAD_REACTORS
330
15512
102
}
330
15512
100
AcDbXrecord
280
     1
290
     1
  0
XRECORD
  5
15515
102
{ACAD_REACTORS
330
15514
102
}
330
15514
100
AcDbXrecord
280
     1
290
     1
  0
XRECORD
  5
15517
102
{ACAD_REACTORS
330
15516
102
}
330
15516
100
AcDbXrecord
280
     1
290
     1
  0
XRECORD
  5
15519
102
{ACAD_REACTORS
330
15518
102
}
330
15518
100
AcDbXrecord
280
     1
290
     1
  0
XRECORD
  5
1551B
102
{ACAD_REACTORS
330
1551A
102
}
330
1551A
100
AcDbXrecord
280
     1
290
     1
  0
XRECORD
  5
1551D
102
{ACAD_REACTORS
330
1551C
102
}
330
1551C
100
AcDbXrecord
280
     1
290
     1
  0
XRECORD
  5
1551F
102
{ACAD_REACTORS
330
1551E
102
}
330
1551E
100
AcDbXrecord
280
     1
290
     1
  0
ACDBDETAILVIEWSTYLE
  5
13E6D
102
{ACAD_XDICTIONARY
360
16D93
102
}
102
{ACAD_REACTORS
330
13E6C
102
}
330
13E6C
100
AcDbModelDocViewStyle
 70
     0
  3
Metric50
290
     0
100
AcDbDetailViewStyle
 70
     0
 71
     0
 90
        3
 71
     1
340
7475
 40
5.0
340
0
 40
5.0
300

 40
0.0
280
     1
 71
     2
340
7479
 90
       25
 71
     3
340
7475
 40
5.0
 90
        0
 40
15.0
 90
        1
300
%<\AcVar ViewDetailId>% (%<\AcVar ViewScale \f "%sn">%)
 71
     4
340
7479
 90
       25
340
7479
 90
       25
280
     0
  0
LAYOUT
  5
13420
102
{ACAD_XDICTIONARY
360
16D57
102
}
102
{ACAD_REACTORS
330
1341E
102
}
330
1341E
100
AcDbPlotSettings
  1

  2
CutePDF Writer
  4
A3
  6

 40
3.174999952316284
 41
3.174999952316284
 42
3.17498779296875
 43
3.17498779296875
 44
297.0530090332031
 45
420.1583251953125
 46
0.0
 47
0.0
 48
0.0
 49
0.0
140
0.0
141
0.0
142
1.0
143
30.0
 70
 11952
 72
     1
 73
     1
 74
     2
  7
inaba.ctb
 75
    23
147
0.0333333333333333
148
0.0
149
0.0
100
AcDbLayout
  1
Model
 70
     1
 71
     0
 10
0.0
 20
0.0
 11
12.0
 21
9.0
 12
0.0
 22
0.0
 32
0.0
 14
0.0
 24
0.0
 34
0.0
 15
0.0
 25
0.0
 35
0.0
146
0.0
 13
0.0
 23
0.0
 33
0.0
 16
1.0
 26
0.0
 36
0.0
 17
0.0
 27
1.0
 37
0.0
 76
     0
330
747D
331
13E21
  0
LAYOUT
  5
13421
102
{ACAD_XDICTIONARY
360
16D59
102
}
102
{ACAD_REACTORS
330
1341E
102
}
330
1341E
100
AcDbPlotSettings
  1

  2
Microsoft Office Document Image Writer
  4

  6

 40
0.0
 41
0.0
 42
0.0
 43
0.0
 44
0.0
 45
0.0
 46
0.0
 47
0.0
 48
0.0
 49
0.0
140
0.0
141
0.0
142
1.0
143
1.0
 70
   688
 72
     0
 73
     0
 74
     5
  7
inaba.ctb
 75
    16
147
1.0
148
0.0
149
0.0
100
AcDbLayout
  1
レイアウト1
 70
     0
 71
     1
 10
0.0
 20
0.0
 11
420.0
 21
297.0
 12
0.0
 22
0.0
 32
0.0
 14
1.000000000000000E+20
 24
1.000000000000000E+20
 34
1.000000000000000E+20
 15
-1.000000000000000E+20
 25
-1.000000000000000E+20
 35
-1.000000000000000E+20
146
0.0
 13
0.0
 23
0.0
 33
0.0
 16
1.0
 26
0.0
 36
0.0
 17
0.0
 27
1.0
 37
0.0
 76
     0
330
747A
  0
MATERIAL
  5
13E2B
102
{ACAD_XDICTIONARY
360
13E2C
102
}
102
{ACAD_REACTORS
330
1341C
102
}
330
1341C
100
AcDbMaterial
  1
ByBlock
 72
     0
 43
0.0208333333333333
 43
0.0
 43
0.0
 43
0.0
 43
0.0
 43
0.0208333333333333
 43
0.0
 43
0.0
 43
0.0
 43
0.0
 43
1.0
 43
0.0
 43
0.0
 43
0.0
 43
0.0
 43
1.0
 77
     0
 47
0.0208333333333333
 47
0.0
 47
0.0
 47
0.0
 47
0.0
 47
0.0208333333333333
 47
0.0
 47
0.0
 47
0.0
 47
0.0
 47
1.0
 47
0.0
 47
0.0
 47
0.0
 47
0.0
 47
1.0
171
     0
 49
0.0208333333333333
 49
0.0
 49
0.0
 49
0.0
 49
0.0
 49
0.0208333333333333
 49
0.0
 49
0.0
 49
0.0
 49
0.0
 49
1.0
 49
0.0
 49
0.0
 49
0.0
 49
0.0
 49
1.0
175
     0
142
0.0208333333333333
142
0.0
142
0.0
142
0.0
142
0.0
142
0.0208333333333333
142
0.0
142
0.0
142
0.0
142
0.0
142
1.0
142
0.0
142
0.0
142
0.0
142
0.0
142
1.0
179
     0
144
0.0208333333333333
144
0.0
144
0.0
144
0.0
144
0.0
144
0.0208333333333333
144
0.0
144
0.0
144
0.0
144
0.0
144
1.0
144
0.0
144
0.0
144
0.0
144
0.0
144
1.0
147
0.0208333333333333
147
0.0
147
0.0
147
0.0
147
0.0
147
0.0208333333333333
147
0.0
147
0.0
147
0.0
147
0.0
147
1.0
147
0.0
147
0.0
147
0.0
147
0.0
147
1.0
  0
MATERIAL
  5
13E23
102
{ACAD_XDICTIONARY
360
13E24
102
}
102
{ACAD_REACTORS
330
1341C
102
}
330
1341C
100
AcDbMaterial
  1
ByLayer
 72
     0
 43
0.0208333333333333
 43
0.0
 43
0.0
 43
0.0
 43
0.0
 43
0.0208333333333333
 43
0.0
 43
0.0
 43
0.0
 43
0.0
 43
1.0
 43
0.0
 43
0.0
 43
0.0
 43
0.0
 43
1.0
 77
     0
 47
0.0208333333333333
 47
0.0
 47
0.0
 47
0.0
 47
0.0
 47
0.0208333333333333
 47
0.0
 47
0.0
 47
0.0
 47
0.0
 47
1.0
 47
0.0
 47
0.0
 47
0.0
 47
0.0
 47
1.0
171
     0
 49
0.0208333333333333
 49
0.0
 49
0.0
 49
0.0
 49
0.0
 49
0.0208333333333333
 49
0.0
 49
0.0
 49
0.0
 49
0.0
 49
1.0
 49
0.0
 49
0.0
 49
0.0
 49
0.0
 49
1.0
175
     0
142
0.0208333333333333
142
0.0
142
0.0
142
0.0
142
0.0
142
0.0208333333333333
142
0.0
142
0.0
142
0.0
142
0.0
142
1.0
142
0.0
142
0.0
142
0.0
142
0.0
142
1.0
179
     0
144
0.0208333333333333
144
0.0
144
0.0
144
0.0
144
0.0
144
0.0208333333333333
144
0.0
144
0.0
144
0.0
144
0.0
144
1.0
144
0.0
144
0.0
144
0.0
144
0.0
144
1.0
147
0.0208333333333333
147
0.0
147
0.0
147
0.0
147
0.0
147
0.0208333333333333
147
0.0
147
0.0
147
0.0
147
0.0
147
1.0
147
0.0
147
0.0
147
0.0
147
0.0
147
1.0
  0
MATERIAL
  5
13E33
102
{ACAD_XDICTIONARY
360
13E34
102
}
102
{ACAD_REACTORS
330
1341C
102
}
330
1341C
100
AcDbMaterial
  1
Global
 72
     0
 43
0.0208333333333333
 43
0.0
 43
0.0
 43
0.0
 43
0.0
 43
0.0208333333333333
 43
0.0
 43
0.0
 43
0.0
 43
0.0
 43
1.0
 43
0.0
 43
0.0
 43
0.0
 43
0.0
 43
1.0
 77
     0
 47
0.0208333333333333
 47
0.0
 47
0.0
 47
0.0
 47
0.0
 47
0.0208333333333333
 47
0.0
 47
0.0
 47
0.0
 47
0.0
 47
1.0
 47
0.0
 47
0.0
 47
0.0
 47
0.0
 47
1.0
171
     0
 49
0.0208333333333333
 49
0.0
 49
0.0
 49
0.0
 49
0.0
 49
0.0208333333333333
 49
0.0
 49
0.0
 49
0.0
 49
0.0
 49
1.0
 49
0.0
 49
0.0
 49
0.0
 49
0.0
 49
1.0
175
     0
142
0.0208333333333333
142
0.0
142
0.0
142
0.0
142
0.0
142
0.0208333333333333
142
0.0
142
0.0
142
0.0
142
0.0
142
1.0
142
0.0
142
0.0
142
0.0
142
0.0
142
1.0
179
     0
144
0.0208333333333333
144
0.0
144
0.0
144
0.0
144
0.0
144
0.0208333333333333
144
0.0
144
0.0
144
0.0
144
0.0
144
1.0
144
0.0
144
0.0
144
0.0
144
0.0
144
1.0
147
0.0208333333333333
147
0.0
147
0.0
147
0.0
147
0.0
147
0.0208333333333333
147
0.0
147
0.0
147
0.0
147
0.0
147
1.0
147
0.0
147
0.0
147
0.0
147
0.0
147
1.0
  0
MLEADERSTYLE
  5
13E69
102
{ACAD_XDICTIONARY
360
16D8F
102
}
102
{ACAD_REACTORS
330
13E68
102
}
330
13E68
100
AcDbMLeaderStyle
170
     2
171
     1
172
     0
 90
        2
 40
0.0
 41
0.0
173
     1
 91
-1056964608
340
7477
 92
       -2
290
     1
 42
2.0
291
     1
 43
0.36
  3
Standard
 44
4.0
300

342
7475
174
     1
178
     6
175
     1
176
     0
 93
-1056964608
 45
4.0
292
     0
297
     0
 46
4.0
 94
-1056964608
 47
1.0
 49
1.0
140
1.0
293
     1
141
0.0
294
     1
177
     0
142
1.0
295
     0
296
     0
143
0.125
1001
ACAD_MLEADERVER
1070
     2
  0
MLINESTYLE
  5
7480
102
{ACAD_REACTORS
330
7473
102
}
330
7473
100
AcDbMlineStyle
  2
STANDARD
 70
     0
  3

 62
     0
 51
90.0
 52
90.0
 71
     2
 49
0.5
 62
   256
  6
BYLAYER
 49
-0.5
 62
   256
  6
BYLAYER
  0
ACDBPLACEHOLDER
  5
1341B
102
{ACAD_REACTORS
330
1341A
102
}
330
1341A
  0
SCALE
  5
13E57
102
{ACAD_REACTORS
330
13E56
102
}
330
13E56
100
AcDbScale
 70
     0
300
1:1
140
1.0
141
1.0
290
     1
  0
SCALE
  5
13E58
102
{ACAD_REACTORS
330
13E56
102
}
330
13E56
100
AcDbScale
 70
     0
300
1:2
140
1.0
141
2.0
290
     0
  0
SCALE
  5
13E59
102
{ACAD_REACTORS
330
13E56
102
}
330
13E56
100
AcDbScale
 70
     0
300
1:4
140
1.0
141
4.0
290
     0
  0
SCALE
  5
13E5A
102
{ACAD_REACTORS
330
13E56
102
}
330
13E56
100
AcDbScale
 70
     0
300
1:5
140
1.0
141
5.0
290
     0
  0
SCALE
  5
13E5B
102
{ACAD_REACTORS
330
13E56
102
}
330
13E56
100
AcDbScale
 70
     0
300
1:8
140
1.0
141
8.0
290
     0
  0
SCALE
  5
13E5C
102
{ACAD_REACTORS
330
13E56
102
}
330
13E56
100
AcDbScale
 70
     0
300
1:10
140
1.0
141
10.0
290
     0
  0
SCALE
  5
13E5D
102
{ACAD_REACTORS
330
13E56
102
}
330
13E56
100
AcDbScale
 70
     0
300
1:16
140
1.0
141
16.0
290
     0
  0
SCALE
  5
13E5E
102
{ACAD_REACTORS
330
13E56
102
}
330
13E56
100
AcDbScale
 70
     0
300
1:20
140
1.0
141
20.0
290
     0
  0
SCALE
  5
13E5F
102
{ACAD_REACTORS
330
13E56
102
}
330
13E56
100
AcDbScale
 70
     0
300
1:30
140
1.0
141
30.0
290
     0
  0
SCALE
  5
13E60
102
{ACAD_REACTORS
330
13E56
102
}
330
13E56
100
AcDbScale
 70
     0
300
1:40
140
1.0
141
40.0
290
     0
  0
SCALE
  5
13E61
102
{ACAD_REACTORS
330
13E56
102
}
330
13E56
100
AcDbScale
 70
     0
300
1:50
140
1.0
141
50.0
290
     0
  0
SCALE
  5
13E62
102
{ACAD_REACTORS
330
13E56
102
}
330
13E56
100
AcDbScale
 70
     0
300
1:100
140
1.0
141
100.0
290
     0
  0
SCALE
  5
13E63
102
{ACAD_REACTORS
330
13E56
102
}
330
13E56
100
AcDbScale
 70
     0
300
2:1
140
2.0
141
1.0
290
     0
  0
SCALE
  5
13E64
102
{ACAD_REACTORS
330
13E56
102
}
330
13E56
100
AcDbScale
 70
     0
300
4:1
140
4.0
141
1.0
290
     0
  0
SCALE
  5
13E65
102
{ACAD_REACTORS
330
13E56
102
}
330
13E56
100
AcDbScale
 70
     0
300
8:1
140
8.0
141
1.0
290
     0
  0
SCALE
  5
13E66
102
{ACAD_REACTORS
330
13E56
102
}
330
13E56
100
AcDbScale
 70
     0
300
10:1
140
10.0
141
1.0
290
     0
  0
SCALE
  5
13E67
102
{ACAD_REACTORS
330
13E56
102
}
330
13E56
100
AcDbScale
 70
     0
300
100:1
140
100.0
141
1.0
290
     0
  0
ACDBSECTIONVIEWSTYLE
  5
13E6B
102
{ACAD_XDICTIONARY
360
16D91
102
}
102
{ACAD_REACTORS
330
13E6A
102
}
330
13E6A
100
AcDbModelDocViewStyle
 70
     0
  3
Metric50
290
     0
100
AcDbSectionViewStyle
 70
     0
 71
     0
 90
      102
 71
     1
340
7475
 40
5.0
340
0
340
0
 40
5.0
300
I, O, Q, S, X, Z
 40
10.0
 90
        0
 40
2.5
 90
        0
 71
     2
340
7479
 90
       25
340
7479
 90
       50
 40
5.0
 40
2.5
 40
5.0
 71
     3
340
7475
 40
5.0
 90
        0
 40
15.0
 90
        1
300
%<\AcVar ViewSectionStartId>%-%<\AcVar ViewSectionEndId>% (%<\AcVar ViewScale \f "%sn">%)
 71
     4
300
ANSI31
 40
1.0
 90
        0
290
     0
290
     0
 90
        6
 40
0.0
 40
1.570796326794896
 40
0.2617993877991494
 40
1.308996938995747
 40
-0.2617993877991494
 40
1.832595714594046
  0
TABLESTYLE
  5
13E55
102
{ACAD_XDICTIONARY
360
16C64
102
}
102
{ACAD_REACTORS
330
13E54
102
}
330
13E54
100
AcDbTableStyle
  3
Standard
 70
     0
 71
     0
 40
1.5
 41
1.5
280
     0
281
     0
  7
STANDARD
140
4.5
170
     2
 62
     0
 63
     7
283
     0
274
    -2
284
     1
 64
     0
275
    -2
285
     1
 65
     0
276
    -2
286
     1
 66
     0
277
    -2
287
     1
 67
     0
278
    -2
288
     1
 68
     0
279
    -2
289
     1
 69
     0
  7
STANDARD
140
6.0
170
     5
 62
     0
 63
     7
283
     0
274
    -2
284
     1
 64
     0
275
    -2
285
     1
 65
     0
276
    -2
286
     1
 66
     0
277
    -2
287
     1
 67
     0
278
    -2
288
     1
 68
     0
279
    -2
289
     1
 69
     0
  7
STANDARD
140
4.5
170
     5
 62
     0
 63
     7
283
     0
274
    -2
284
     1
 64
     0
275
    -2
285
     1
 65
     0
276
    -2
286
     1
 66
     0
277
    -2
287
     1
 67
     0
278
    -2
288
     1
 68
     0
279
    -2
289
     1
 69
     0
  0
VISUALSTYLE
  5
13E41
102
{ACAD_XDICTIONARY
360
16D68
102
}
102
{ACAD_REACTORS
330
13E3B
102
}
330
13E3B
100
AcDbVisualStyle
  2
2dWireframe
 70
     4
 71
     0
 72
     2
 73
     0
 90
        0
 40
-0.6
 41
-30.0
 62
     5
 63
     7
 74
     1
 91
        4
 64
     7
 65
   257
 75
     1
175
     1
 42
1.0
 92
        0
 66
   257
 43
1.0
 76
     1
 77
     6
 78
     2
 67
     7
 79
     5
170
     0
171
     0
290
     0
174
     0
 93
        1
 44
0.0
173
     0
291
     0
 45
0.0
1001
ACAD
1000
AcDbSavedByObjectVersion
1070
     0
  0
VISUALSTYLE
  5
13E40
102
{ACAD_XDICTIONARY
360
16D66
102
}
102
{ACAD_REACTORS
330
13E3B
102
}
330
13E3B
100
AcDbVisualStyle
  2
Basic
 70
     7
 71
     1
 72
     0
 73
     1
 90
        0
 40
-0.6
 41
-30.0
 62
     5
 63
     7
 74
     0
 91
        4
 64
     7
 65
   257
 75
     1
175
     1
 42
1.0
 92
        8
 66
     7
 43
1.0
 76
     1
 77
     6
 78
     2
 67
     7
 79
     5
170
     0
171
     0
290
     0
174
     0
 93
        1
 44
0.0
173
     0
291
     1
 45
0.0
1001
ACAD
1000
AcDbSavedByObjectVersion
1070
     0
  0
VISUALSTYLE
  5
13E47
102
{ACAD_XDICTIONARY
360
16D74
102
}
102
{ACAD_REACTORS
330
13E3B
102
}
330
13E3B
100
AcDbVisualStyle
  2
Brighten
 70
    12
 71
     2
 72
     2
 73
     0
 90
        0
 40
-0.6
 41
-30.0
 62
     5
 63
     7
 74
     1
 91
        4
 64
     7
 65
   257
 75
     1
175
     1
 42
1.0
 92
        8
 66
     7
 43
1.0
 76
     1
 77
     6
 78
     2
 67
     7
 79
     5
170
     0
171
     0
290
     0
174
     0
 93
        1
 44
50.0
173
     0
291
     1
 45
0.0
1001
ACAD
1000
AcDbSavedByObjectVersion
1070
     0
  0
VISUALSTYLE
  5
13E4B
102
{ACAD_XDICTIONARY
360
16D7C
102
}
102
{ACAD_REACTORS
330
13E3B
102
}
330
13E3B
100
AcDbVisualStyle
  2
ColorChange
 70
    16
 71
     2
 72
     2
 73
     3
 90
        0
 40
-0.6
 41
-30.0
 62
     5
 63
     8
 74
     1
 91
        4
 64
     7
 65
   257
 75
     1
175
     1
 42
1.0
 92
        8
 66
     8
 43
1.0
 76
     1
 77
     6
 78
     2
 67
     7
 79
     5
170
     0
171
     0
290
     0
174
     0
 93
        1
 44
0.0
173
     0
291
     1
 45
0.0
1001
ACAD
1000
AcDbSavedByObjectVersion
1070
     0
  0
VISUALSTYLE
  5
13E44
102
{ACAD_XDICTIONARY
360
16D6E
102
}
102
{ACAD_REACTORS
330
13E3B
102
}
330
13E3B
100
AcDbVisualStyle
  2
Conceptual
 70
     9
 71
     3
 72
     2
 73
     0
 90
        0
 40
-0.6
 41
-30.0
 62
     5
 63
     7
 74
     2
 91
        2
 64
     7
 65
   257
 75
     1
175
     1
 42
179.0
 92
        8
 66
     7
 43
1.0
 76
     1
 77
     6
 78
     2
 67
     7
 79
     3
170
     0
171
     0
290
     0
174
     0
 93
        1
 44
0.0
173
     0
291
     0
 45
0.0
1001
ACAD
1000
AcDbSavedByObjectVersion
1070
     0
  0
VISUALSTYLE
  5
13E46
102
{ACAD_XDICTIONARY
360
16D72
102
}
102
{ACAD_REACTORS
330
13E3B
102
}
330
13E3B
100
AcDbVisualStyle
  2
Dim
 70
    11
 71
     2
 72
     2
 73
     0
 90
        0
 40
-0.6
 41
-30.0
 62
     5
 63
     7
 74
     1
 91
        4
 64
     7
 65
   257
 75
     1
175
     1
 42
1.0
 92
        8
 66
     7
 43
1.0
 76
     1
 77
     6
 78
     2
 67
     7
 79
     5
170
     0
171
     0
290
     0
174
     0
 93
        1
 44
-50.0
173
     0
291
     1
 45
0.0
1001
ACAD
1000
AcDbSavedByObjectVersion
1070
     0
  0
VISUALSTYLE
  5
13E53
102
{ACAD_XDICTIONARY
360
16D8C
102
}
102
{ACAD_REACTORS
330
13E3B
102
}
330
13E3B
100
AcDbVisualStyle
  2
EdgeColorOff
 70
    22
 71
     2
 72
     2
 73
     0
 90
        0
 40
-0.6
 41
-30.0
 62
     5
 63
     7
 74
     1
 91
        4
 64
     7
 65
   257
 75
     1
175
     1
 42
1.0
 92
        8
 66
     7
 43
1.0
 76
     1
 77
     6
 78
     2
 67
     7
 79
     5
170
     0
171
     0
290
     0
174
     0
 93
        1
 44
0.0
173
     0
291
     1
 45
0.0
1001
ACAD
1000
AcDbSavedByObjectVersion
1070
     0
  0
VISUALSTYLE
  5
13E4A
102
{ACAD_XDICTIONARY
360
16D7A
102
}
102
{ACAD_REACTORS
330
13E3B
102
}
330
13E3B
100
AcDbVisualStyle
  2
Facepattern
 70
    15
 71
     2
 72
     2
 73
     0
 90
        0
 40
-0.6
 41
-30.0
 62
     5
 63
     7
 74
     1
 91
        4
 64
     7
 65
   257
 75
     1
175
     1
 42
1.0
 92
        8
 66
     7
 43
1.0
 76
     1
 77
     6
 78
     2
 67
     7
 79
     5
170
     0
171
     0
290
     0
174
     0
 93
        1
 44
0.0
173
     0
291
     1
 45
0.0
1001
ACAD
1000
AcDbSavedByObjectVersion
1070
     0
  0
VISUALSTYLE
  5
13E3C
102
{ACAD_XDICTIONARY
360
16D5E
102
}
102
{ACAD_REACTORS
330
13E3B
102
}
330
13E3B
100
AcDbVisualStyle
  2
Flat
 70
     0
 71
     2
 72
     1
 73
     1
 90
        2
 40
-0.6
 41
30.0
 62
     5
 63
     7
 74
     0
 91
        0
 64
     7
 65
   257
 75
     1
175
     1
 42
1.0
 92
        8
 66
     7
 43
1.0
 76
     1
 77
     6
 78
     2
 67
     7
 79
     5
170
     0
171
     0
290
     0
174
     0
 93
       13
 44
0.0
173
     0
291
     1
 45
0.0
1001
ACAD
1000
AcDbSavedByObjectVersion
1070
     0
  0
VISUALSTYLE
  5
13E3D
102
{ACAD_XDICTIONARY
360
16D60
102
}
102
{ACAD_REACTORS
330
13E3B
102
}
330
13E3B
100
AcDbVisualStyle
  2
FlatWithEdges
 70
     1
 71
     2
 72
     1
 73
     1
 90
        2
 40
-0.6
 41
30.0
 62
     5
 63
     7
 74
     1
 91
        0
 64
     7
 65
   257
 75
     1
175
     1
 42
1.0
 92
        0
 66
   257
 43
1.0
 76
     1
 77
     6
 78
     2
 67
     7
 79
     5
170
     0
171
     0
290
     0
174
     0
 93
       13
 44
0.0
173
     0
291
     1
 45
0.0
1001
ACAD
1000
AcDbSavedByObjectVersion
1070
     0
  0
VISUALSTYLE
  5
13E3E
102
{ACAD_XDICTIONARY
360
16D62
102
}
102
{ACAD_REACTORS
330
13E3B
102
}
330
13E3B
100
AcDbVisualStyle
  2
Gouraud
 70
     2
 71
     2
 72
     2
 73
     1
 90
        2
 40
-0.6
 41
30.0
 62
     5
 63
     7
 74
     0
 91
        0
 64
     7
 65
   257
 75
     1
175
     1
 42
1.0
 92
        0
 66
     7
 43
1.0
 76
     1
 77
     6
 78
     2
 67
     7
 79
     5
170
     0
171
     0
290
     0
174
     0
 93
       13
 44
0.0
173
     0
291
     1
 45
0.0
1001
ACAD
1000
AcDbSavedByObjectVersion
1070
     0
  0
VISUALSTYLE
  5
13E3F
102
{ACAD_XDICTIONARY
360
16D64
102
}
102
{ACAD_REACTORS
330
13E3B
102
}
330
13E3B
100
AcDbVisualStyle
  2
GouraudWithEdges
 70
     3
 71
     2
 72
     2
 73
     1
 90
        2
 40
-0.6
 41
30.0
 62
     5
 63
     7
 74
     1
 91
        0
 64
     7
 65
   257
 75
     1
175
     1
 42
1.0
 92
        0
 66
   257
 43
1.0
 76
     1
 77
     6
 78
     2
 67
     7
 79
     5
170
     0
171
     0
290
     0
174
     0
 93
       13
 44
0.0
173
     0
291
     1
 45
0.0
1001
ACAD
1000
AcDbSavedByObjectVersion
1070
     0
  0
VISUALSTYLE
  5
13E43
102
{ACAD_XDICTIONARY
360
16D6C
102
}
102
{ACAD_REACTORS
330
13E3B
102
}
330
13E3B
100
AcDbVisualStyle
  2
Hidden
 70
     6
 71
     1
 72
     2
 73
     2
 90
        0
 40
-0.6
 41
-30.0
 62
     5
 63
     7
 74
     2
 91
        2
 64
     7
 65
   257
 75
     2
175
     1
 42
40.0
 92
        0
 66
   257
 43
1.0
 76
     1
 77
     6
 78
     2
 67
     7
 79
     3
170
     0
171
     0
290
     0
174
     0
 93
        1
 44
0.0
173
     0
291
     0
 45
0.0
1001
ACAD
1000
AcDbSavedByObjectVersion
1070
     0
  0
VISUALSTYLE
  5
13E51
102
{ACAD_XDICTIONARY
360
16D88
102
}
102
{ACAD_REACTORS
330
13E3B
102
}
330
13E3B
100
AcDbVisualStyle
  2
JitterOff
 70
    20
 71
     2
 72
     2
 73
     0
 90
        0
 40
-0.6
 41
-30.0
 62
     5
 63
     7
 74
     1
 91
        4
 64
     7
 65
   257
 75
     1
175
     1
 42
1.0
 92
       10
 66
     7
 43
1.0
 76
     1
 77
     6
 78
     2
 67
     7
 79
     5
170
     0
171
     0
290
     0
174
     0
 93
        1
 44
0.0
173
     0
291
     1
 45
0.0
1001
ACAD
1000
AcDbSavedByObjectVersion
1070
     0
  0
VISUALSTYLE
  5
13E49
102
{ACAD_XDICTIONARY
360
16D78
102
}
102
{ACAD_REACTORS
330
13E3B
102
}
330
13E3B
100
AcDbVisualStyle
  2
Linepattern
 70
    14
 71
     2
 72
     2
 73
     0
 90
        0
 40
-0.6
 41
-30.0
 62
     5
 63
     7
 74
     1
 91
        4
 64
     7
 65
   257
 75
     7
175
     7
 42
1.0
 92
        8
 66
     7
 43
1.0
 76
     1
 77
     6
 78
     2
 67
     7
 79
     5
170
     0
171
     0
290
     0
174
     0
 93
        1
 44
0.0
173
     0
291
     1
 45
0.0
1001
ACAD
1000
AcDbSavedByObjectVersion
1070
     0
  0
VISUALSTYLE
  5
13E52
102
{ACAD_XDICTIONARY
360
16D8A
102
}
102
{ACAD_REACTORS
330
13E3B
102
}
330
13E3B
100
AcDbVisualStyle
  2
OverhangOff
 70
    21
 71
     2
 72
     2
 73
     0
 90
        0
 40
-0.6
 41
-30.0
 62
     5
 63
     7
 74
     1
 91
        4
 64
     7
 65
   257
 75
     1
175
     1
 42
1.0
 92
        9
 66
     7
 43
1.0
 76
     1
 77
     6
 78
     2
 67
     7
 79
     5
170
     0
171
     0
290
     0
174
     0
 93
        1
 44
0.0
173
     0
291
     1
 45
0.0
1001
ACAD
1000
AcDbSavedByObjectVersion
1070
     0
  0
VISUALSTYLE
  5
13E45
102
{ACAD_XDICTIONARY
360
16D70
102
}
102
{ACAD_REACTORS
330
13E3B
102
}
330
13E3B
100
AcDbVisualStyle
  2
Realistic
 70
     8
 71
     2
 72
     2
 73
     0
 90
        2
 40
-0.6
 41
30.0
 62
     5
 63
     7
 74
     0
 91
        0
 64
     7
 65
   257
 75
     1
175
     1
 42
1.0
 92
        8
 66
   257
 43
1.0
 76
     1
 77
     6
 78
     2
 67
     7
 79
     3
170
     0
171
     0
290
     0
174
     0
 93
       13
 44
0.0
173
     0
291
     0
 45
0.0
1001
ACAD
1000
AcDbSavedByObjectVersion
1070
     0
  0
VISUALSTYLE
  5
13E50
102
{ACAD_XDICTIONARY
360
16D86
102
}
102
{ACAD_REACTORS
330
13E3B
102
}
330
13E3B
100
AcDbVisualStyle
  2
Shaded
 70
    27
 71
     2
 72
     2
 73
     1
 90
        2
 40
-0.6
 41
30.0
 62
     5
 63
     7
 74
     0
 91
        4
 64
     7
 65
   257
 75
     1
175
     1
 42
1.0
 92
        8
 66
   257
 43
1.0
 76
     1
 77
     6
 78
     2
 67
     8
 79
     3
170
     0
171
     0
290
     0
174
     0
 93
        5
 44
0.0
173
     0
291
     0
 45
0.0
1001
ACAD
1000
AcDbSavedByObjectVersion
1070
     0
  0
VISUALSTYLE
  5
13E4F
102
{ACAD_XDICTIONARY
360
16D84
102
}
102
{ACAD_REACTORS
330
13E3B
102
}
330
13E3B
100
AcDbVisualStyle
  2
Shaded with edges
 70
    26
 71
     2
 72
     2
 73
     1
 90
        2
 40
-0.6
 41
30.0
 62
     5
 63
     7
 74
     1
 91
       10
 64
     7
 65
   257
 75
     2
175
     1
 42
1.0
 92
        8
 66
   257
 43
1.0
 76
     1
 77
     6
 78
     2
 67
     7
 79
     3
170
     0
171
     0
290
     0
174
     0
 93
        5
 44
0.0
173
     0
291
     0
 45
0.0
1001
ACAD
1000
AcDbSavedByObjectVersion
1070
     0
  0
VISUALSTYLE
  5
13E4C
102
{ACAD_XDICTIONARY
360
16D7E
102
}
102
{ACAD_REACTORS
330
13E3B
102
}
330
13E3B
100
AcDbVisualStyle
  2
Shades of Gray
 70
    23
 71
     2
 72
     2
 73
     3
 90
        0
 40
-0.6
 41
-30.0
 62
     5
 63
     7
 74
     2
 91
        2
 64
     7
 65
     7
 75
     1
175
     1
 42
40.0
 92
        8
 66
     7
 43
1.0
 76
     1
 77
     6
 78
     2
 67
     7
 79
     3
170
     0
171
     0
290
     0
174
     0
 93
        1
 44
0.0
173
     0
291
     0
 45
0.0
1001
ACAD
1000
AcDbSavedByObjectVersion
1070
     0
  0
VISUALSTYLE
  5
13E4D
102
{ACAD_XDICTIONARY
360
16D80
102
}
102
{ACAD_REACTORS
330
13E3B
102
}
330
13E3B
100
AcDbVisualStyle
  2
Sketchy
 70
    24
 71
     1
 72
     2
 73
     2
 90
        0
 40
-0.6
 41
-30.0
 62
     5
 63
     7
 74
     2
 91
        2
 64
     7
 65
     7
 75
     1
175
     1
 42
40.0
 92
       11
 66
     7
 43
1.0
 76
     1
 77
     6
 78
     2
 67
     7
 79
     6
170
     0
171
     0
290
     0
174
     0
 93
        1
 44
0.0
173
     0
291
     0
 45
0.0
1001
ACAD
1000
AcDbSavedByObjectVersion
1070
     0
  0
VISUALSTYLE
  5
13E48
102
{ACAD_XDICTIONARY
360
16D76
102
}
102
{ACAD_REACTORS
330
13E3B
102
}
330
13E3B
100
AcDbVisualStyle
  2
Thicken
 70
    13
 71
     2
 72
     2
 73
     0
 90
        0
 40
-0.6
 41
-30.0
 62
     5
 63
     7
 74
     1
 91
        4
 64
     7
 65
   257
 75
     1
175
     1
 42
1.0
 92
       12
 66
     7
 43
1.0
 76
     1
 77
     6
 78
     2
 67
     7
 79
     5
170
     0
171
     0
290
     0
174
     0
 93
        1
 44
0.0
173
     0
291
     1
 45
0.0
1001
ACAD
1000
AcDbSavedByObjectVersion
1070
     0
  0
VISUALSTYLE
  5
13E42
102
{ACAD_XDICTIONARY
360
16D6A
102
}
102
{ACAD_REACTORS
330
13E3B
102
}
330
13E3B
100
AcDbVisualStyle
  2
Wireframe
 70
     5
 71
     0
 72
     2
 73
     0
 90
        0
 40
-0.6
 41
-30.0
 62
     5
 63
     7
 74
     1
 91
        4
 64
     7
 65
   257
 75
     1
175
     1
 42
1.0
 92
        0
 66
   257
 43
1.0
 76
     1
 77
     6
 78
     2
 67
     7
 79
     3
170
     0
171
     0
290
     0
174
     0
 93
        1
 44
0.0
173
     0
291
     0
 45
0.0
1001
ACAD
1000
AcDbSavedByObjectVersion
1070
     0
  0
VISUALSTYLE
  5
13E4E
102
{ACAD_XDICTIONARY
360
16D82
102
}
102
{ACAD_REACTORS
330
13E3B
102
}
330
13E3B
100
AcDbVisualStyle
  2
X-Ray
 70
    25
 71
     2
 72
     2
 73
     1
 90
        1
 40
0.5
 41
-30.0
 62
     5
 63
     7
 74
     1
 91
        0
 64
     7
 65
   257
 75
     1
175
     1
 42
1.0
 92
        8
 66
     7
 43
1.0
 76
     1
 77
     6
 78
     2
 67
     7
 79
     3
170
     0
171
     0
290
     0
174
     0
 93
       13
 44
0.0
173
     0
291
     0
 45
0.0
1001
ACAD
1000
AcDbSavedByObjectVersion
1070
     0
  0
DICTIONARYVAR
  5
16CAD
102
{ACAD_REACTORS
330
13533
102
}
330
13533
100
DictionaryVariables
280
     0
  1
1:1
  0
DICTIONARYVAR
  5
16CAA
102
{ACAD_REACTORS
330
13533
102
}
330
13533
100
DictionaryVariables
280
     0
  1
STANDARD
  0
DICTIONARYVAR
  5
16CA9
102
{ACAD_REACTORS
330
13533
102
}
330
13533
100
DictionaryVariables
280
     0
  1
STANDARD
  0
DICTIONARYVAR
  5
16CAB
102
{ACAD_REACTORS
330
13533
102
}
330
13533
100
DictionaryVariables
280
     0
  1
Metric50
  0
DICTIONARYVAR
  5
16CAC
102
{ACAD_REACTORS
330
13533
102
}
330
13533
100
DictionaryVariables
280
     0
  1
Metric50
  0
DICTIONARYVAR
  5
13534
102
{ACAD_REACTORS
330
13533
102
}
330
13533
100
DictionaryVariables
280
     0
  1
1
  0
DICTIONARYVAR
  5
16CAF
102
{ACAD_REACTORS
330
13533
102
}
330
13533
100
DictionaryVariables
280
     0
  1
0
  0
DICTIONARYVAR
  5
13535
102
{ACAD_REACTORS
330
13533
102
}
330
13533
100
DictionaryVariables
280
     0
  1

  0
DICTIONARYVAR
  5
16CAE
102
{ACAD_REACTORS
330
13533
102
}
330
13533
100
DictionaryVariables
280
     0
  1
127
  0
DICTIONARYVAR
  5
16D53
102
{ACAD_REACTORS
330
13533
102
}
330
13533
100
DictionaryVariables
280
     0
  1
2
  0
DICTIONARY
  5
16D93
330
13E6D
100
AcDbDictionary
280
     1
281
     1
  3
ACAD_XREC_ROUNDTRIP
360
16D94
  0
DICTIONARY
  5
16D57
330
13420
100
AcDbDictionary
280
     1
281
     1
  3
ACAD_XREC_ROUNDTRIP
360
16D58
  0
DICTIONARY
  5
16D59
330
13421
100
AcDbDictionary
280
     1
281
     1
  3
ACAD_XREC_ROUNDTRIP
360
16D5A
  0
DICTIONARY
  5
13E2C
330
13E2B
100
AcDbDictionary
280
     1
281
     1
  3
ACAD_XREC_ROUNDTRIP
360
16D5C
  3
BUMPTILE
360
13E2E
  3
DIFFUSETILE
360
13E2D
  3
OPACITYTILE
360
13E31
  3
REFLECTIONTILE
360
13E30
  3
REFRACTIONTILE
360
13E32
  3
SPECULARTILE
360
13E2F
  0
DICTIONARY
  5
13E24
330
13E23
100
AcDbDictionary
280
     1
281
     1
  3
ACAD_XREC_ROUNDTRIP
360
16D5B
  3
BUMPTILE
360
13E26
  3
DIFFUSETILE
360
13E25
  3
OPACITYTILE
360
13E29
  3
REFLECTIONTILE
360
13E28
  3
REFRACTIONTILE
360
13E2A
  3
SPECULARTILE
360
13E27
  0
DICTIONARY
  5
13E34
330
13E33
100
AcDbDictionary
280
     1
281
     1
  3
ACAD_XREC_ROUNDTRIP
360
16D5D
  3
BUMPTILE
360
13E36
  3
DIFFUSETILE
360
13E35
  3
OPACITYTILE
360
13E39
  3
REFLECTIONTILE
360
13E38
  3
REFRACTIONTILE
360
13E3A
  3
SPECULARTILE
360
13E37
  0
DICTIONARY
  5
16D8F
330
13E69
100
AcDbDictionary
280
     1
281
     1
  3
ACAD_XREC_ROUNDTRIP
360
16D90
  0
DICTIONARY
  5
16D91
330
13E6B
100
AcDbDictionary
280
     1
281
     1
  3
ACAD_XREC_ROUNDTRIP
360
16D92
  0
DICTIONARY
  5
16C64
330
13E55
100
AcDbDictionary
280
     1
281
     1
  3
ACAD_ROUNDTRIP_2008_TABLESTYLE_CELLSTYLEMAP
360
16D54
  3
ACAD_XREC_ROUNDTRIP
360
16D8E
  0
DICTIONARY
  5
16D68
330
13E41
100
AcDbDictionary
280
     1
281
     1
  3
ACAD_XREC_ROUNDTRIP
360
16D69
  0
DICTIONARY
  5
16D66
330
13E40
100
AcDbDictionary
280
     1
281
     1
  3
ACAD_XREC_ROUNDTRIP
360
16D67
  0
DICTIONARY
  5
16D74
330
13E47
100
AcDbDictionary
280
     1
281
     1
  3
ACAD_XREC_ROUNDTRIP
360
16D75
  0
DICTIONARY
  5
16D7C
330
13E4B
100
AcDbDictionary
280
     1
281
     1
  3
ACAD_XREC_ROUNDTRIP
360
16D7D
  0
DICTIONARY
  5
16D6E
330
13E44
100
AcDbDictionary
280
     1
281
     1
  3
ACAD_XREC_ROUNDTRIP
360
16D6F
  0
DICTIONARY
  5
16D72
330
13E46
100
AcDbDictionary
280
     1
281
     1
  3
ACAD_XREC_ROUNDTRIP
360
16D73
  0
DICTIONARY
  5
16D8C
330
13E53
100
AcDbDictionary
280
     1
281
     1
  3
ACAD_XREC_ROUNDTRIP
360
16D8D
  0
DICTIONARY
  5
16D7A
330
13E4A
100
AcDbDictionary
280
     1
281
     1
  3
ACAD_XREC_ROUNDTRIP
360
16D7B
  0
DICTIONARY
  5
16D5E
330
13E3C
100
AcDbDictionary
280
     1
281
     1
  3
ACAD_XREC_ROUNDTRIP
360
16D5F
  0
DICTIONARY
  5
16D60
330
13E3D
100
AcDbDictionary
280
     1
281
     1
  3
ACAD_XREC_ROUNDTRIP
360
16D61
  0
DICTIONARY
  5
16D62
330
13E3E
100
AcDbDictionary
280
     1
281
     1
  3
ACAD_XREC_ROUNDTRIP
360
16D63
  0
DICTIONARY
  5
16D64
330
13E3F
100
AcDbDictionary
280
     1
281
     1
  3
ACAD_XREC_ROUNDTRIP
360
16D65
  0
DICTIONARY
  5
16D6C
330
13E43
100
AcDbDictionary
280
     1
281
     1
  3
ACAD_XREC_ROUNDTRIP
360
16D6D
  0
DICTIONARY
  5
16D88
330
13E51
100
AcDbDictionary
280
     1
281
     1
  3
ACAD_XREC_ROUNDTRIP
360
16D89
  0
DICTIONARY
  5
16D78
330
13E49
100
AcDbDictionary
280
     1
281
     1
  3
ACAD_XREC_ROUNDTRIP
360
16D79
  0
DICTIONARY
  5
16D8A
330
13E52
100
AcDbDictionary
280
     1
281
     1
  3
ACAD_XREC_ROUNDTRIP
360
16D8B
  0
DICTIONARY
  5
16D70
330
13E45
100
AcDbDictionary
280
     1
281
     1
  3
ACAD_XREC_ROUNDTRIP
360
16D71
  0
DICTIONARY
  5
16D86
330
13E50
100
AcDbDictionary
280
     1
281
     1
  3
ACAD_XREC_ROUNDTRIP
360
16D87
  0
DICTIONARY
  5
16D84
330
13E4F
100
AcDbDictionary
280
     1
281
     1
  3
ACAD_XREC_ROUNDTRIP
360
16D85
  0
DICTIONARY
  5
16D7E
330
13E4C
100
AcDbDictionary
280
     1
281
     1
  3
ACAD_XREC_ROUNDTRIP
360
16D7F
  0
DICTIONARY
  5
16D80
330
13E4D
100
AcDbDictionary
280
     1
281
     1
  3
ACAD_XREC_ROUNDTRIP
360
16D81
  0
DICTIONARY
  5
16D76
330
13E48
100
AcDbDictionary
280
     1
281
     1
  3
ACAD_XREC_ROUNDTRIP
360
16D77
  0
DICTIONARY
  5
16D6A
330
13E42
100
AcDbDictionary
280
     1
281
     1
  3
ACAD_XREC_ROUNDTRIP
360
16D6B
  0
DICTIONARY
  5
16D82
330
13E4E
100
AcDbDictionary
280
     1
281
     1
  3
ACAD_XREC_ROUNDTRIP
360
16D83
  0
XRECORD
  5
16D94
102
{ACAD_REACTORS
330
16D93
102
}
330
16D93
100
AcDbXrecord
280
     1
102
DISPLAYNAME
  1
Metric50
102
FLAGS
 90
        0
  0
XRECORD
  5
16D58
102
{ACAD_REACTORS
330
16D57
102
}
330
16D57
100
AcDbXrecord
280
     1
102
SHADEPLOT
 70
     0
102
SHADEPLOTRESLEVEL
 70
     2
102
SHADEPLOTCUSTOMDPI
 70
   300
  0
XRECORD
  5
16D5A
102
{ACAD_REACTORS
330
16D59
102
}
330
16D59
100
AcDbXrecord
280
     1
102
SHADEPLOT
 70
     0
102
SHADEPLOTRESLEVEL
 70
     2
102
SHADEPLOTCUSTOMDPI
 70
   300
  0
XRECORD
  5
16D5C
102
{ACAD_REACTORS
330
13E2C
102
}
330
13E2C
100
AcDbXrecord
280
     1
102
MATERIAL
148
0.0
149
0.0
149
0.0
 93
        0
 94
      127
282
     0
 72
     0
 77
     0
171
     0
175
     0
179
     0
273
     0
  0
XRECORD
  5
13E2E
102
{ACAD_REACTORS
330
13E2C
102
}
330
13E2C
100
AcDbXrecord
280
     1
270
     1
271
     1
  0
XRECORD
  5
13E2D
102
{ACAD_REACTORS
330
13E2C
102
}
330
13E2C
100
AcDbXrecord
280
     1
270
     1
271
     1
  0
XRECORD
  5
13E31
102
{ACAD_REACTORS
330
13E2C
102
}
330
13E2C
100
AcDbXrecord
280
     1
270
     1
271
     1
  0
XRECORD
  5
13E30
102
{ACAD_REACTORS
330
13E2C
102
}
330
13E2C
100
AcDbXrecord
280
     1
270
     1
271
     1
  0
XRECORD
  5
13E32
102
{ACAD_REACTORS
330
13E2C
102
}
330
13E2C
100
AcDbXrecord
280
     1
270
     1
271
     1
  0
XRECORD
  5
13E2F
102
{ACAD_REACTORS
330
13E2C
102
}
330
13E2C
100
AcDbXrecord
280
     1
270
     1
271
     1
  0
XRECORD
  5
16D5B
102
{ACAD_REACTORS
330
13E24
102
}
330
13E24
100
AcDbXrecord
280
     1
102
MATERIAL
148
0.0
149
0.0
149
0.0
 93
        0
 94
      127
282
     0
 72
     0
 77
     0
171
     0
175
     0
179
     0
273
     0
  0
XRECORD
  5
13E26
102
{ACAD_REACTORS
330
13E24
102
}
330
13E24
100
AcDbXrecord
280
     1
270
     1
271
     1
  0
XRECORD
  5
13E25
102
{ACAD_REACTORS
330
13E24
102
}
330
13E24
100
AcDbXrecord
280
     1
270
     1
271
     1
  0
XRECORD
  5
13E29
102
{ACAD_REACTORS
330
13E24
102
}
330
13E24
100
AcDbXrecord
280
     1
270
     1
271
     1
  0
XRECORD
  5
13E28
102
{ACAD_REACTORS
330
13E24
102
}
330
13E24
100
AcDbXrecord
280
     1
270
     1
271
     1
  0
XRECORD
  5
13E2A
102
{ACAD_REACTORS
330
13E24
102
}
330
13E24
100
AcDbXrecord
280
     1
270
     1
271
     1
  0
XRECORD
  5
13E27
102
{ACAD_REACTORS
330
13E24
102
}
330
13E24
100
AcDbXrecord
280
     1
270
     1
271
     1
  0
XRECORD
  5
16D5D
102
{ACAD_REACTORS
330
13E34
102
}
330
13E34
100
AcDbXrecord
280
     1
102
MATERIAL
148
0.0
149
0.0
149
0.0
 93
        0
 94
      127
282
     0
 72
     0
 77
     0
171
     0
175
     0
179
     0
273
     0
  0
XRECORD
  5
13E36
102
{ACAD_REACTORS
330
13E34
102
}
330
13E34
100
AcDbXrecord
280
     1
270
     1
271
     1
  0
XRECORD
  5
13E35
102
{ACAD_REACTORS
330
13E34
102
}
330
13E34
100
AcDbXrecord
280
     1
270
     1
271
     1
  0
XRECORD
  5
13E39
102
{ACAD_REACTORS
330
13E34
102
}
330
13E34
100
AcDbXrecord
280
     1
270
     1
271
     1
  0
XRECORD
  5
13E38
102
{ACAD_REACTORS
330
13E34
102
}
330
13E34
100
AcDbXrecord
280
     1
270
     1
271
     1
  0
XRECORD
  5
13E3A
102
{ACAD_REACTORS
330
13E34
102
}
330
13E34
100
AcDbXrecord
280
     1
270
     1
271
     1
  0
XRECORD
  5
13E37
102
{ACAD_REACTORS
330
13E34
102
}
330
13E34
100
AcDbXrecord
280
     1
270
     1
271
     1
  0
XRECORD
  5
16D90
102
{ACAD_REACTORS
330
16D8F
102
}
330
16D8F
100
AcDbXrecord
280
     1
102
ACAD_ROUNDTRIP_2012_MLEADER_STYLE
298
     1
  0
XRECORD
  5
16D92
102
{ACAD_REACTORS
330
16D91
102
}
330
16D91
100
AcDbXrecord
280
     1
102
DISPLAYNAME
  1
Metric50
102
FLAGS
 90
        0
  0
CELLSTYLEMAP
  5
16D54
102
{ACAD_REACTORS
330
16C64
102
}
330
16C64
100
AcDbCellStyleMap
 90
        3
300
CELLSTYLE
  1
TABLEFORMAT_BEGIN
 90
        5
170
     1
 91
        0
 92
    32768
 62
   257
 93
        1
300
CONTENTFORMAT
  1
CONTENTFORMAT_BEGIN
 90
        0
 91
        0
 92
      512
 93
        0
300

 40
0.0
140
1.0
 94
        5
 62
     0
340
7475
144
6.0
309
CONTENTFORMAT_END
171
     1
301
MARGIN
  1
CELLMARGIN_BEGIN
 40
1.5
 40
1.5
 40
1.5
 40
1.5
 40
4.5
 40
4.5
309
CELLMARGIN_END
 94
        6
 95
        1
302
GRIDFORMAT
  1
GRIDFORMAT_BEGIN
 90
        0
 91
        1
 62
     0
 92
       -2
340
0
 93
        0
 40
1.125
309
GRIDFORMAT_END
 95
        2
302
GRIDFORMAT
  1
GRIDFORMAT_BEGIN
 90
        0
 91
        1
 62
     0
 92
       -2
340
0
 93
        0
 40
1.125
309
GRIDFORMAT_END
 95
        4
302
GRIDFORMAT
  1
GRIDFORMAT_BEGIN
 90
        0
 91
        1
 62
     0
 92
       -2
340
0
 93
        0
 40
1.125
309
GRIDFORMAT_END
 95
        8
302
GRIDFORMAT
  1
GRIDFORMAT_BEGIN
 90
        0
 91
        1
 62
     0
 92
       -2
340
0
 93
        0
 40
1.125
309
GRIDFORMAT_END
 95
       16
302
GRIDFORMAT
  1
GRIDFORMAT_BEGIN
 90
        0
 91
        1
 62
     0
 92
       -2
340
0
 93
        0
 40
1.125
309
GRIDFORMAT_END
 95
       32
302
GRIDFORMAT
  1
GRIDFORMAT_BEGIN
 90
        0
 91
        1
 62
     0
 92
       -2
340
0
 93
        0
 40
1.125
309
GRIDFORMAT_END
309
TABLEFORMAT_END
  1
CELLSTYLE_BEGIN
 90
        1
 91
        1
300
_TITLE
309
CELLSTYLE_END
300
CELLSTYLE
  1
TABLEFORMAT_BEGIN
 90
        5
170
     1
 91
        0
 92
        0
 62
   257
 93
        1
300
CONTENTFORMAT
  1
CONTENTFORMAT_BEGIN
 90
        0
 91
        0
 92
      512
 93
        0
300

 40
0.0
140
1.0
 94
        5
 62
     0
340
7475
144
4.5
309
CONTENTFORMAT_END
171
     1
301
MARGIN
  1
CELLMARGIN_BEGIN
 40
1.5
 40
1.5
 40
1.5
 40
1.5
 40
4.5
 40
4.5
309
CELLMARGIN_END
 94
        6
 95
        1
302
GRIDFORMAT
  1
GRIDFORMAT_BEGIN
 90
        0
 91
        1
 62
     0
 92
       -2
340
0
 93
        0
 40
1.125
309
GRIDFORMAT_END
 95
        2
302
GRIDFORMAT
  1
GRIDFORMAT_BEGIN
 90
        0
 91
        1
 62
     0
 92
       -2
340
0
 93
        0
 40
1.125
309
GRIDFORMAT_END
 95
        4
302
GRIDFORMAT
  1
GRIDFORMAT_BEGIN
 90
        0
 91
        1
 62
     0
 92
       -2
340
0
 93
        0
 40
1.125
309
GRIDFORMAT_END
 95
        8
302
GRIDFORMAT
  1
GRIDFORMAT_BEGIN
 90
        0
 91
        1
 62
     0
 92
       -2
340
0
 93
        0
 40
1.125
309
GRIDFORMAT_END
 95
       16
302
GRIDFORMAT
  1
GRIDFORMAT_BEGIN
 90
        0
 91
        1
 62
     0
 92
       -2
340
0
 93
        0
 40
1.125
309
GRIDFORMAT_END
 95
       32
302
GRIDFORMAT
  1
GRIDFORMAT_BEGIN
 90
        0
 91
        1
 62
     0
 92
       -2
340
0
 93
        0
 40
1.125
309
GRIDFORMAT_END
309
TABLEFORMAT_END
  1
CELLSTYLE_BEGIN
 90
        2
 91
        1
300
_HEADER
309
CELLSTYLE_END
300
CELLSTYLE
  1
TABLEFORMAT_BEGIN
 90
        5
170
     1
 91
        0
 92
        0
 62
   257
 93
        1
300
CONTENTFORMAT
  1
CONTENTFORMAT_BEGIN
 90
        0
 91
        0
 92
      512
 93
        0
300

 40
0.0
140
1.0
 94
        2
 62
     0
340
7475
144
4.5
309
CONTENTFORMAT_END
171
     1
301
MARGIN
  1
CELLMARGIN_BEGIN
 40
1.5
 40
1.5
 40
1.5
 40
1.5
 40
4.5
 40
4.5
309
CELLMARGIN_END
 94
        6
 95
        1
302
GRIDFORMAT
  1
GRIDFORMAT_BEGIN
 90
        0
 91
        1
 62
     0
 92
       -2
340
0
 93
        0
 40
1.125
309
GRIDFORMAT_END
 95
        2
302
GRIDFORMAT
  1
GRIDFORMAT_BEGIN
 90
        0
 91
        1
 62
     0
 92
       -2
340
0
 93
        0
 40
1.125
309
GRIDFORMAT_END
 95
        4
302
GRIDFORMAT
  1
GRIDFORMAT_BEGIN
 90
        0
 91
        1
 62
     0
 92
       -2
340
0
 93
        0
 40
1.125
309
GRIDFORMAT_END
 95
        8
302
GRIDFORMAT
  1
GRIDFORMAT_BEGIN
 90
        0
 91
        1
 62
     0
 92
       -2
340
0
 93
        0
 40
1.125
309
GRIDFORMAT_END
 95
       16
302
GRIDFORMAT
  1
GRIDFORMAT_BEGIN
 90
        0
 91
        1
 62
     0
 92
       -2
340
0
 93
        0
 40
1.125
309
GRIDFORMAT_END
 95
       32
302
GRIDFORMAT
  1
GRIDFORMAT_BEGIN
 90
        0
 91
        1
 62
     0
 92
       -2
340
0
 93
        0
 40
1.125
309
GRIDFORMAT_END
309
TABLEFORMAT_END
  1
CELLSTYLE_BEGIN
 90
        3
 91
        2
300
_DATA
309
CELLSTYLE_END
  0
XRECORD
  5
16D8E
102
{ACAD_REACTORS
330
16C64
102
}
330
16C64
100
AcDbXrecord
280
     1
102
ACAD_ROUNDTRIP_PRE2007_TABLESTYLE
 90
      512
 91
        0
  1

 92
      512
 93
        0
  2

 94
      512
 95
        0
  3

  0
XRECORD
  5
16D69
102
{ACAD_REACTORS
330
16D68
102
}
330
16D68
100
AcDbXrecord
280
     1
102
RTVSPost2010Prop28
280
     1
102
RTVSPost2010PropOp28
 70
     1
102
RTVSPost2010Prop29
280
     1
102
RTVSPost2010PropOp29
 70
     1
102
RTVSPost2010Prop30
280
     0
102
RTVSPost2010PropOp30
 70
     1
102
RTVSPost2010Prop31
280
     0
102
RTVSPost2010PropOp31
 70
     1
102
RTVSPost2010Prop32
280
     0
102
RTVSPost2010PropOp32
 70
     1
102
RTVSPost2010Prop33
280
     0
102
RTVSPost2010PropOp33
 70
     1
102
RTVSPost2010Prop34
280
     0
102
RTVSPost2010PropOp34
 70
     1
102
RTVSPost2010Prop35
280
     0
102
RTVSPost2010PropOp35
 70
     1
102
RTVSPost2010Prop36
280
     0
102
RTVSPost2010PropOp36
 70
     1
102
RTVSPost2010Prop37
 90
       50
102
RTVSPost2010PropOp37
 70
     1
102
RTVSPost2010Prop38
140
0.0
102
RTVSPost2010PropOp38
 70
     1
102
RTVSPost2010Prop39
140
1.0
102
RTVSPost2010PropOp39
 70
     1
102
RTVSPost2010Prop40
 90
        0
102
RTVSPost2010PropOp40
 70
     1
102
RTVSPost2010Prop41ColorIndex
 90
       18
102
RTVSPost2010Prop41ColorRGB
 90
        0
102
RTVSPost2010PropOp41
 70
     1
102
RTVSPost2010Prop42
 90
       50
102
RTVSPost2010PropOp42
 70
     1
102
RTVSPost2010Prop43
 90
        3
102
RTVSPost2010PropOp43
 70
     1
102
RTVSPost2010Prop44ColorIndex
 90
        5
102
RTVSPost2010Prop44ColorRGB
 90
      255
102
RTVSPost2010PropOp44
 70
     1
102
RTVSPost2010Prop45
280
     0
102
RTVSPost2010PropOp45
 70
     1
102
RTVSPost2010Prop46
 90
       50
102
RTVSPost2010PropOp46
 70
     1
102
RTVSPost2010Prop47
 90
       50
102
RTVSPost2010PropOp47
 70
     1
102
RTVSPost2010Prop48
 90
       50
102
RTVSPost2010PropOp48
 70
     1
102
RTVSPost2010Prop49
280
     0
102
RTVSPost2010PropOp49
 70
     1
102
RTVSPost2010Prop50
 90
       50
102
RTVSPost2010PropOp50
 70
     1
102
RTVSPost2010Prop51ColorIndex
 90
      256
102
RTVSPost2010Prop51ColorRGB
 90
-16777216
102
RTVSPost2010PropOp51
 70
     0
102
RTVSPost2010Prop52
140
1.0
102
RTVSPost2010PropOp52
 70
     0
102
RTVSPost2010Prop53
 90
        2
102
RTVSPost2010PropOp53
 70
     1
102
RTVSPost2010Prop54
  1
strokes_ogs.tif
102
RTVSPost2010PropOp54
 70
     1
102
RTVSPost2010Prop55
280
     0
102
RTVSPost2010PropOp55
 70
     1
102
RTVSPost2010Prop56
140
1.0
102
RTVSPost2010PropOp56
 70
     1
102
RTVSPost2010Prop57
140
1.0
102
RTVSPost2010PropOp57
 70
     1
102
RTVSPropertyOp0
 70
     1
102
RTVSPropertyOp1
 70
     1
102
RTVSPropertyOp2
 70
     1
102
RTVSPropertyOp3
 70
     1
102
RTVSPropertyOp4
 70
     1
102
RTVSPropertyOp5
 70
     1
102
RTVSPropertyOp6
 70
     1
102
RTVSPropertyOp7
 70
     1
102
RTVSPropertyOp8
 70
     1
102
RTVSPropertyOp9
 70
     1
102
RTVSPropertyOp10
 70
     1
102
RTVSPropertyOp11
 70
     1
102
RTVSPropertyOp12
 70
     1
102
RTVSPropertyOp13
 70
     1
102
RTVSPropertyOp14
 70
     1
102
RTVSPropertyOp15
 70
     1
102
RTVSPropertyOp16
 70
     1
102
RTVSPropertyOp17
 70
     1
102
RTVSPropertyOp18
 70
     1
102
RTVSPropertyOp19
 70
     1
102
RTVSPropertyOp20
 70
     1
102
RTVSPropertyOp21
 70
     1
102
RTVSPropertyOp22
 70
     1
102
RTVSPropertyOp23
 70
     1
102
RTVSPropertyOp24
 70
     1
102
RTVSPropertyOp25
 70
     1
102
RTVSPropertyOp26
 70
     1
102
RTVSPropertyOp27
 70
     1
102
RTVSPropertyOp28
 70
     1
102
RTVSPropertyOp29
 70
     1
102
RTVSPropertyOp30
 70
     1
102
RTVSPropertyOp31
 70
     1
102
RTVSPropertyOp32
 70
     1
102
RTVSPropertyOp33
 70
     1
102
RTVSPropertyOp34
 70
     1
102
RTVSPropertyOp35
 70
     1
102
RTVSPropertyOp36
 70
     1
102
RTVSPropertyOp37
 70
     1
102
RTVSPropertyOp38
 70
     1
102
RTVSPropertyOp39
 70
     1
102
RTVSPropertyOp40
 70
     1
102
RTVSPropertyOp41
 70
     1
102
RTVSPropertyOp42
 70
     1
102
RTVSPropertyOp43
 70
     1
102
RTVSPropertyOp44
 70
     1
102
RTVSPropertyOp45
 70
     1
102
RTVSPropertyOp46
 70
     1
102
RTVSPropertyOp47
 70
     1
102
RTVSPropertyOp48
 70
     1
102
RTVSPropertyOp49
 70
     1
102
RTVSPropertyOp50
 70
     1
102
RTVSPropertyOp51
 70
     0
102
RTVSPropertyOp52
 70
     0
102
RTVSPropertyOp53
 70
     1
102
RTVSPropertyOp54
 70
     1
102
RTVSPropertyOp55
 70
     1
102
RTVSPropertyOp56
 70
     1
102
RTVSPropertyOp57
 70
     1
102
RTVSPropertyOp58
 70
     1
102
RTVSPropertyOp59
 70
     1
102
RTVSPropertyOp60
 70
     1
102
RTVSPropertyOp61
 70
     1
102
RTVSPropertyOp62
 70
     1
  0
XRECORD
  5
16D67
102
{ACAD_REACTORS
330
16D66
102
}
330
16D66
100
AcDbXrecord
280
     1
102
RTVSPost2010Prop28
280
     0
102
RTVSPost2010PropOp28
 70
     1
102
RTVSPost2010Prop29
280
     1
102
RTVSPost2010PropOp29
 70
     1
102
RTVSPost2010Prop30
280
     1
102
RTVSPost2010PropOp30
 70
     1
102
RTVSPost2010Prop31
280
     0
102
RTVSPost2010PropOp31
 70
     1
102
RTVSPost2010Prop32
280
     0
102
RTVSPost2010PropOp32
 70
     1
102
RTVSPost2010Prop33
280
     0
102
RTVSPost2010PropOp33
 70
     1
102
RTVSPost2010Prop34
280
     0
102
RTVSPost2010PropOp34
 70
     1
102
RTVSPost2010Prop35
280
     0
102
RTVSPost2010PropOp35
 70
     1
102
RTVSPost2010Prop36
280
     0
102
RTVSPost2010PropOp36
 70
     1
102
RTVSPost2010Prop37
 90
       50
102
RTVSPost2010PropOp37
 70
     1
102
RTVSPost2010Prop38
140
0.0
102
RTVSPost2010PropOp38
 70
     1
102
RTVSPost2010Prop39
140
1.0
102
RTVSPost2010PropOp39
 70
     1
102
RTVSPost2010Prop40
 90
        0
102
RTVSPost2010PropOp40
 70
     1
102
RTVSPost2010Prop41ColorIndex
 90
       18
102
RTVSPost2010Prop41ColorRGB
 90
        0
102
RTVSPost2010PropOp41
 70
     1
102
RTVSPost2010Prop42
 90
       50
102
RTVSPost2010PropOp42
 70
     1
102
RTVSPost2010Prop43
 90
        3
102
RTVSPost2010PropOp43
 70
     1
102
RTVSPost2010Prop44ColorIndex
 90
        5
102
RTVSPost2010Prop44ColorRGB
 90
      255
102
RTVSPost2010PropOp44
 70
     1
102
RTVSPost2010Prop45
280
     0
102
RTVSPost2010PropOp45
 70
     1
102
RTVSPost2010Prop46
 90
       50
102
RTVSPost2010PropOp46
 70
     1
102
RTVSPost2010Prop47
 90
       50
102
RTVSPost2010PropOp47
 70
     1
102
RTVSPost2010Prop48
 90
       50
102
RTVSPost2010PropOp48
 70
     1
102
RTVSPost2010Prop49
280
     0
102
RTVSPost2010PropOp49
 70
     1
102
RTVSPost2010Prop50
 90
       50
102
RTVSPost2010PropOp50
 70
     1
102
RTVSPost2010Prop51ColorIndex
 90
      256
102
RTVSPost2010Prop51ColorRGB
 90
-16777216
102
RTVSPost2010PropOp51
 70
     0
102
RTVSPost2010Prop52
140
1.0
102
RTVSPost2010PropOp52
 70
     0
102
RTVSPost2010Prop53
 90
        2
102
RTVSPost2010PropOp53
 70
     1
102
RTVSPost2010Prop54
  1
strokes_ogs.tif
102
RTVSPost2010PropOp54
 70
     1
102
RTVSPost2010Prop55
280
     0
102
RTVSPost2010PropOp55
 70
     1
102
RTVSPost2010Prop56
140
1.0
102
RTVSPost2010PropOp56
 70
     1
102
RTVSPost2010Prop57
140
1.0
102
RTVSPost2010PropOp57
 70
     1
102
RTVSPropertyOp0
 70
     1
102
RTVSPropertyOp1
 70
     1
102
RTVSPropertyOp2
 70
     1
102
RTVSPropertyOp3
 70
     1
102
RTVSPropertyOp4
 70
     1
102
RTVSPropertyOp5
 70
     1
102
RTVSPropertyOp6
 70
     1
102
RTVSPropertyOp7
 70
     1
102
RTVSPropertyOp8
 70
     1
102
RTVSPropertyOp9
 70
     1
102
RTVSPropertyOp10
 70
     1
102
RTVSPropertyOp11
 70
     1
102
RTVSPropertyOp12
 70
     1
102
RTVSPropertyOp13
 70
     1
102
RTVSPropertyOp14
 70
     1
102
RTVSPropertyOp15
 70
     1
102
RTVSPropertyOp16
 70
     1
102
RTVSPropertyOp17
 70
     1
102
RTVSPropertyOp18
 70
     1
102
RTVSPropertyOp19
 70
     1
102
RTVSPropertyOp20
 70
     1
102
RTVSPropertyOp21
 70
     1
102
RTVSPropertyOp22
 70
     1
102
RTVSPropertyOp23
 70
     1
102
RTVSPropertyOp24
 70
     1
102
RTVSPropertyOp25
 70
     1
102
RTVSPropertyOp26
 70
     1
102
RTVSPropertyOp27
 70
     1
102
RTVSPropertyOp28
 70
     1
102
RTVSPropertyOp29
 70
     1
102
RTVSPropertyOp30
 70
     1
102
RTVSPropertyOp31
 70
     1
102
RTVSPropertyOp32
 70
     1
102
RTVSPropertyOp33
 70
     1
102
RTVSPropertyOp34
 70
     1
102
RTVSPropertyOp35
 70
     1
102
RTVSPropertyOp36
 70
     1
102
RTVSPropertyOp37
 70
     1
102
RTVSPropertyOp38
 70
     1
102
RTVSPropertyOp39
 70
     1
102
RTVSPropertyOp40
 70
     1
102
RTVSPropertyOp41
 70
     1
102
RTVSPropertyOp42
 70
     1
102
RTVSPropertyOp43
 70
     1
102
RTVSPropertyOp44
 70
     1
102
RTVSPropertyOp45
 70
     1
102
RTVSPropertyOp46
 70
     1
102
RTVSPropertyOp47
 70
     1
102
RTVSPropertyOp48
 70
     1
102
RTVSPropertyOp49
 70
     1
102
RTVSPropertyOp50
 70
     1
102
RTVSPropertyOp51
 70
     0
102
RTVSPropertyOp52
 70
     0
102
RTVSPropertyOp53
 70
     1
102
RTVSPropertyOp54
 70
     1
102
RTVSPropertyOp55
 70
     1
102
RTVSPropertyOp56
 70
     1
102
RTVSPropertyOp57
 70
     1
102
RTVSPropertyOp58
 70
     1
102
RTVSPropertyOp59
 70
     1
102
RTVSPropertyOp60
 70
     1
102
RTVSPropertyOp61
 70
     1
102
RTVSPropertyOp62
 70
     1
  0
XRECORD
  5
16D75
102
{ACAD_REACTORS
330
16D74
102
}
330
16D74
100
AcDbXrecord
280
     1
102
RTVSPost2010Prop28
280
     0
102
RTVSPost2010PropOp28
 70
     1
102
RTVSPost2010Prop29
280
     1
102
RTVSPost2010PropOp29
 70
     1
102
RTVSPost2010Prop30
280
     1
102
RTVSPost2010PropOp30
 70
     1
102
RTVSPost2010Prop31
280
     0
102
RTVSPost2010PropOp31
 70
     1
102
RTVSPost2010Prop32
280
     0
102
RTVSPost2010PropOp32
 70
     1
102
RTVSPost2010Prop33
280
     0
102
RTVSPost2010PropOp33
 70
     1
102
RTVSPost2010Prop34
280
     0
102
RTVSPost2010PropOp34
 70
     1
102
RTVSPost2010Prop35
280
     0
102
RTVSPost2010PropOp35
 70
     1
102
RTVSPost2010Prop36
280
     0
102
RTVSPost2010PropOp36
 70
     1
102
RTVSPost2010Prop37
 90
       50
102
RTVSPost2010PropOp37
 70
     1
102
RTVSPost2010Prop38
140
0.0
102
RTVSPost2010PropOp38
 70
     1
102
RTVSPost2010Prop39
140
1.0
102
RTVSPost2010PropOp39
 70
     1
102
RTVSPost2010Prop40
 90
        0
102
RTVSPost2010PropOp40
 70
     1
102
RTVSPost2010Prop41ColorIndex
 90
       18
102
RTVSPost2010Prop41ColorRGB
 90
        0
102
RTVSPost2010PropOp41
 70
     1
102
RTVSPost2010Prop42
 90
       50
102
RTVSPost2010PropOp42
 70
     1
102
RTVSPost2010Prop43
 90
        3
102
RTVSPost2010PropOp43
 70
     1
102
RTVSPost2010Prop44ColorIndex
 90
        5
102
RTVSPost2010Prop44ColorRGB
 90
      255
102
RTVSPost2010PropOp44
 70
     1
102
RTVSPost2010Prop45
280
     0
102
RTVSPost2010PropOp45
 70
     1
102
RTVSPost2010Prop46
 90
       50
102
RTVSPost2010PropOp46
 70
     1
102
RTVSPost2010Prop47
 90
       50
102
RTVSPost2010PropOp47
 70
     1
102
RTVSPost2010Prop48
 90
       50
102
RTVSPost2010PropOp48
 70
     1
102
RTVSPost2010Prop49
280
     0
102
RTVSPost2010PropOp49
 70
     1
102
RTVSPost2010Prop50
 90
       50
102
RTVSPost2010PropOp50
 70
     1
102
RTVSPost2010Prop51ColorIndex
 90
      256
102
RTVSPost2010Prop51ColorRGB
 90
-16777216
102
RTVSPost2010PropOp51
 70
     0
102
RTVSPost2010Prop52
140
1.0
102
RTVSPost2010PropOp52
 70
     0
102
RTVSPost2010Prop53
 90
        2
102
RTVSPost2010PropOp53
 70
     1
102
RTVSPost2010Prop54
  1
strokes_ogs.tif
102
RTVSPost2010PropOp54
 70
     1
102
RTVSPost2010Prop55
280
     0
102
RTVSPost2010PropOp55
 70
     1
102
RTVSPost2010Prop56
140
1.0
102
RTVSPost2010PropOp56
 70
     1
102
RTVSPost2010Prop57
140
1.0
102
RTVSPost2010PropOp57
 70
     1
102
RTVSPropertyOp0
 70
     1
102
RTVSPropertyOp1
 70
     1
102
RTVSPropertyOp2
 70
     1
102
RTVSPropertyOp3
 70
     1
102
RTVSPropertyOp4
 70
     1
102
RTVSPropertyOp5
 70
     1
102
RTVSPropertyOp6
 70
     1
102
RTVSPropertyOp7
 70
     1
102
RTVSPropertyOp8
 70
     1
102
RTVSPropertyOp9
 70
     1
102
RTVSPropertyOp10
 70
     1
102
RTVSPropertyOp11
 70
     1
102
RTVSPropertyOp12
 70
     1
102
RTVSPropertyOp13
 70
     1
102
RTVSPropertyOp14
 70
     1
102
RTVSPropertyOp15
 70
     1
102
RTVSPropertyOp16
 70
     1
102
RTVSPropertyOp17
 70
     1
102
RTVSPropertyOp18
 70
     1
102
RTVSPropertyOp19
 70
     1
102
RTVSPropertyOp20
 70
     1
102
RTVSPropertyOp21
 70
     1
102
RTVSPropertyOp22
 70
     1
102
RTVSPropertyOp23
 70
     1
102
RTVSPropertyOp24
 70
     1
102
RTVSPropertyOp25
 70
     1
102
RTVSPropertyOp26
 70
     1
102
RTVSPropertyOp27
 70
     1
102
RTVSPropertyOp28
 70
     1
102
RTVSPropertyOp29
 70
     1
102
RTVSPropertyOp30
 70
     1
102
RTVSPropertyOp31
 70
     1
102
RTVSPropertyOp32
 70
     1
102
RTVSPropertyOp33
 70
     1
102
RTVSPropertyOp34
 70
     1
102
RTVSPropertyOp35
 70
     1
102
RTVSPropertyOp36
 70
     1
102
RTVSPropertyOp37
 70
     1
102
RTVSPropertyOp38
 70
     1
102
RTVSPropertyOp39
 70
     1
102
RTVSPropertyOp40
 70
     1
102
RTVSPropertyOp41
 70
     1
102
RTVSPropertyOp42
 70
     1
102
RTVSPropertyOp43
 70
     1
102
RTVSPropertyOp44
 70
     1
102
RTVSPropertyOp45
 70
     1
102
RTVSPropertyOp46
 70
     1
102
RTVSPropertyOp47
 70
     1
102
RTVSPropertyOp48
 70
     1
102
RTVSPropertyOp49
 70
     1
102
RTVSPropertyOp50
 70
     1
102
RTVSPropertyOp51
 70
     0
102
RTVSPropertyOp52
 70
     0
102
RTVSPropertyOp53
 70
     1
102
RTVSPropertyOp54
 70
     1
102
RTVSPropertyOp55
 70
     1
102
RTVSPropertyOp56
 70
     1
102
RTVSPropertyOp57
 70
     1
102
RTVSPropertyOp58
 70
     1
102
RTVSPropertyOp59
 70
     1
102
RTVSPropertyOp60
 70
     1
102
RTVSPropertyOp61
 70
     1
102
RTVSPropertyOp62
 70
     1
  0
XRECORD
  5
16D7D
102
{ACAD_REACTORS
330
16D7C
102
}
330
16D7C
100
AcDbXrecord
280
     1
102
RTVSPost2010Prop28
280
     0
102
RTVSPost2010PropOp28
 70
     1
102
RTVSPost2010Prop29
280
     1
102
RTVSPost2010PropOp29
 70
     1
102
RTVSPost2010Prop30
280
     1
102
RTVSPost2010PropOp30
 70
     1
102
RTVSPost2010Prop31
280
     0
102
RTVSPost2010PropOp31
 70
     1
102
RTVSPost2010Prop32
280
     0
102
RTVSPost2010PropOp32
 70
     1
102
RTVSPost2010Prop33
280
     0
102
RTVSPost2010PropOp33
 70
     1
102
RTVSPost2010Prop34
280
     0
102
RTVSPost2010PropOp34
 70
     1
102
RTVSPost2010Prop35
280
     0
102
RTVSPost2010PropOp35
 70
     1
102
RTVSPost2010Prop36
280
     0
102
RTVSPost2010PropOp36
 70
     1
102
RTVSPost2010Prop37
 90
       50
102
RTVSPost2010PropOp37
 70
     1
102
RTVSPost2010Prop38
140
0.0
102
RTVSPost2010PropOp38
 70
     1
102
RTVSPost2010Prop39
140
1.0
102
RTVSPost2010PropOp39
 70
     1
102
RTVSPost2010Prop40
 90
        0
102
RTVSPost2010PropOp40
 70
     1
102
RTVSPost2010Prop41ColorIndex
 90
       18
102
RTVSPost2010Prop41ColorRGB
 90
        0
102
RTVSPost2010PropOp41
 70
     1
102
RTVSPost2010Prop42
 90
       50
102
RTVSPost2010PropOp42
 70
     1
102
RTVSPost2010Prop43
 90
        3
102
RTVSPost2010PropOp43
 70
     1
102
RTVSPost2010Prop44ColorIndex
 90
        5
102
RTVSPost2010Prop44ColorRGB
 90
      255
102
RTVSPost2010PropOp44
 70
     1
102
RTVSPost2010Prop45
280
     0
102
RTVSPost2010PropOp45
 70
     1
102
RTVSPost2010Prop46
 90
       50
102
RTVSPost2010PropOp46
 70
     1
102
RTVSPost2010Prop47
 90
       50
102
RTVSPost2010PropOp47
 70
     1
102
RTVSPost2010Prop48
 90
       50
102
RTVSPost2010PropOp48
 70
     1
102
RTVSPost2010Prop49
280
     0
102
RTVSPost2010PropOp49
 70
     1
102
RTVSPost2010Prop50
 90
       50
102
RTVSPost2010PropOp50
 70
     1
102
RTVSPost2010Prop51ColorIndex
 90
      256
102
RTVSPost2010Prop51ColorRGB
 90
-16777216
102
RTVSPost2010PropOp51
 70
     0
102
RTVSPost2010Prop52
140
1.0
102
RTVSPost2010PropOp52
 70
     0
102
RTVSPost2010Prop53
 90
        2
102
RTVSPost2010PropOp53
 70
     1
102
RTVSPost2010Prop54
  1
strokes_ogs.tif
102
RTVSPost2010PropOp54
 70
     1
102
RTVSPost2010Prop55
280
     0
102
RTVSPost2010PropOp55
 70
     1
102
RTVSPost2010Prop56
140
1.0
102
RTVSPost2010PropOp56
 70
     1
102
RTVSPost2010Prop57
140
1.0
102
RTVSPost2010PropOp57
 70
     1
102
RTVSPropertyOp0
 70
     1
102
RTVSPropertyOp1
 70
     1
102
RTVSPropertyOp2
 70
     1
102
RTVSPropertyOp3
 70
     1
102
RTVSPropertyOp4
 70
     1
102
RTVSPropertyOp5
 70
     1
102
RTVSPropertyOp6
 70
     1
102
RTVSPropertyOp7
 70
     1
102
RTVSPropertyOp8
 70
     1
102
RTVSPropertyOp9
 70
     1
102
RTVSPropertyOp10
 70
     1
102
RTVSPropertyOp11
 70
     1
102
RTVSPropertyOp12
 70
     1
102
RTVSPropertyOp13
 70
     1
102
RTVSPropertyOp14
 70
     1
102
RTVSPropertyOp15
 70
     1
102
RTVSPropertyOp16
 70
     1
102
RTVSPropertyOp17
 70
     1
102
RTVSPropertyOp18
 70
     1
102
RTVSPropertyOp19
 70
     1
102
RTVSPropertyOp20
 70
     1
102
RTVSPropertyOp21
 70
     1
102
RTVSPropertyOp22
 70
     1
102
RTVSPropertyOp23
 70
     1
102
RTVSPropertyOp24
 70
     1
102
RTVSPropertyOp25
 70
     1
102
RTVSPropertyOp26
 70
     1
102
RTVSPropertyOp27
 70
     1
102
RTVSPropertyOp28
 70
     1
102
RTVSPropertyOp29
 70
     1
102
RTVSPropertyOp30
 70
     1
102
RTVSPropertyOp31
 70
     1
102
RTVSPropertyOp32
 70
     1
102
RTVSPropertyOp33
 70
     1
102
RTVSPropertyOp34
 70
     1
102
RTVSPropertyOp35
 70
     1
102
RTVSPropertyOp36
 70
     1
102
RTVSPropertyOp37
 70
     1
102
RTVSPropertyOp38
 70
     1
102
RTVSPropertyOp39
 70
     1
102
RTVSPropertyOp40
 70
     1
102
RTVSPropertyOp41
 70
     1
102
RTVSPropertyOp42
 70
     1
102
RTVSPropertyOp43
 70
     1
102
RTVSPropertyOp44
 70
     1
102
RTVSPropertyOp45
 70
     1
102
RTVSPropertyOp46
 70
     1
102
RTVSPropertyOp47
 70
     1
102
RTVSPropertyOp48
 70
     1
102
RTVSPropertyOp49
 70
     1
102
RTVSPropertyOp50
 70
     1
102
RTVSPropertyOp51
 70
     0
102
RTVSPropertyOp52
 70
     0
102
RTVSPropertyOp53
 70
     1
102
RTVSPropertyOp54
 70
     1
102
RTVSPropertyOp55
 70
     1
102
RTVSPropertyOp56
 70
     1
102
RTVSPropertyOp57
 70
     1
102
RTVSPropertyOp58
 70
     1
102
RTVSPropertyOp59
 70
     1
102
RTVSPropertyOp60
 70
     1
102
RTVSPropertyOp61
 70
     1
102
RTVSPropertyOp62
 70
     1
  0
XRECORD
  5
16D6F
102
{ACAD_REACTORS
330
16D6E
102
}
330
16D6E
100
AcDbXrecord
280
     1
102
RTVSPost2010Prop28
280
     0
102
RTVSPost2010PropOp28
 70
     1
102
RTVSPost2010Prop29
280
     1
102
RTVSPost2010PropOp29
 70
     1
102
RTVSPost2010Prop30
280
     1
102
RTVSPost2010PropOp30
 70
     1
102
RTVSPost2010Prop31
280
     0
102
RTVSPost2010PropOp31
 70
     1
102
RTVSPost2010Prop32
280
     0
102
RTVSPost2010PropOp32
 70
     1
102
RTVSPost2010Prop33
280
     0
102
RTVSPost2010PropOp33
 70
     1
102
RTVSPost2010Prop34
280
     0
102
RTVSPost2010PropOp34
 70
     1
102
RTVSPost2010Prop35
280
     0
102
RTVSPost2010PropOp35
 70
     1
102
RTVSPost2010Prop36
280
     0
102
RTVSPost2010PropOp36
 70
     1
102
RTVSPost2010Prop37
 90
       50
102
RTVSPost2010PropOp37
 70
     1
102
RTVSPost2010Prop38
140
0.0
102
RTVSPost2010PropOp38
 70
     1
102
RTVSPost2010Prop39
140
1.0
102
RTVSPost2010PropOp39
 70
     1
102
RTVSPost2010Prop40
 90
        0
102
RTVSPost2010PropOp40
 70
     1
102
RTVSPost2010Prop41ColorIndex
 90
       18
102
RTVSPost2010Prop41ColorRGB
 90
        0
102
RTVSPost2010PropOp41
 70
     1
102
RTVSPost2010Prop42
 90
       50
102
RTVSPost2010PropOp42
 70
     1
102
RTVSPost2010Prop43
 90
        3
102
RTVSPost2010PropOp43
 70
     1
102
RTVSPost2010Prop44ColorIndex
 90
        5
102
RTVSPost2010Prop44ColorRGB
 90
      255
102
RTVSPost2010PropOp44
 70
     1
102
RTVSPost2010Prop45
280
     0
102
RTVSPost2010PropOp45
 70
     1
102
RTVSPost2010Prop46
 90
       50
102
RTVSPost2010PropOp46
 70
     1
102
RTVSPost2010Prop47
 90
       50
102
RTVSPost2010PropOp47
 70
     1
102
RTVSPost2010Prop48
 90
       50
102
RTVSPost2010PropOp48
 70
     1
102
RTVSPost2010Prop49
280
     0
102
RTVSPost2010PropOp49
 70
     1
102
RTVSPost2010Prop50
 90
       50
102
RTVSPost2010PropOp50
 70
     1
102
RTVSPost2010Prop51ColorIndex
 90
      256
102
RTVSPost2010Prop51ColorRGB
 90
-16777216
102
RTVSPost2010PropOp51
 70
     0
102
RTVSPost2010Prop52
140
1.0
102
RTVSPost2010PropOp52
 70
     0
102
RTVSPost2010Prop53
 90
        2
102
RTVSPost2010PropOp53
 70
     1
102
RTVSPost2010Prop54
  1
strokes_ogs.tif
102
RTVSPost2010PropOp54
 70
     1
102
RTVSPost2010Prop55
280
     0
102
RTVSPost2010PropOp55
 70
     1
102
RTVSPost2010Prop56
140
1.0
102
RTVSPost2010PropOp56
 70
     1
102
RTVSPost2010Prop57
140
1.0
102
RTVSPost2010PropOp57
 70
     1
102
RTVSPropertyOp0
 70
     1
102
RTVSPropertyOp1
 70
     1
102
RTVSPropertyOp2
 70
     1
102
RTVSPropertyOp3
 70
     1
102
RTVSPropertyOp4
 70
     1
102
RTVSPropertyOp5
 70
     1
102
RTVSPropertyOp6
 70
     1
102
RTVSPropertyOp7
 70
     1
102
RTVSPropertyOp8
 70
     1
102
RTVSPropertyOp9
 70
     1
102
RTVSPropertyOp10
 70
     1
102
RTVSPropertyOp11
 70
     1
102
RTVSPropertyOp12
 70
     1
102
RTVSPropertyOp13
 70
     1
102
RTVSPropertyOp14
 70
     1
102
RTVSPropertyOp15
 70
     1
102
RTVSPropertyOp16
 70
     1
102
RTVSPropertyOp17
 70
     1
102
RTVSPropertyOp18
 70
     1
102
RTVSPropertyOp19
 70
     1
102
RTVSPropertyOp20
 70
     1
102
RTVSPropertyOp21
 70
     1
102
RTVSPropertyOp22
 70
     1
102
RTVSPropertyOp23
 70
     1
102
RTVSPropertyOp24
 70
     1
102
RTVSPropertyOp25
 70
     1
102
RTVSPropertyOp26
 70
     1
102
RTVSPropertyOp27
 70
     1
102
RTVSPropertyOp28
 70
     1
102
RTVSPropertyOp29
 70
     1
102
RTVSPropertyOp30
 70
     1
102
RTVSPropertyOp31
 70
     1
102
RTVSPropertyOp32
 70
     1
102
RTVSPropertyOp33
 70
     1
102
RTVSPropertyOp34
 70
     1
102
RTVSPropertyOp35
 70
     1
102
RTVSPropertyOp36
 70
     1
102
RTVSPropertyOp37
 70
     1
102
RTVSPropertyOp38
 70
     1
102
RTVSPropertyOp39
 70
     1
102
RTVSPropertyOp40
 70
     1
102
RTVSPropertyOp41
 70
     1
102
RTVSPropertyOp42
 70
     1
102
RTVSPropertyOp43
 70
     1
102
RTVSPropertyOp44
 70
     1
102
RTVSPropertyOp45
 70
     1
102
RTVSPropertyOp46
 70
     1
102
RTVSPropertyOp47
 70
     1
102
RTVSPropertyOp48
 70
     1
102
RTVSPropertyOp49
 70
     1
102
RTVSPropertyOp50
 70
     1
102
RTVSPropertyOp51
 70
     0
102
RTVSPropertyOp52
 70
     0
102
RTVSPropertyOp53
 70
     1
102
RTVSPropertyOp54
 70
     1
102
RTVSPropertyOp55
 70
     1
102
RTVSPropertyOp56
 70
     1
102
RTVSPropertyOp57
 70
     1
102
RTVSPropertyOp58
 70
     1
102
RTVSPropertyOp59
 70
     1
102
RTVSPropertyOp60
 70
     1
102
RTVSPropertyOp61
 70
     1
102
RTVSPropertyOp62
 70
     1
  0
XRECORD
  5
16D73
102
{ACAD_REACTORS
330
16D72
102
}
330
16D72
100
AcDbXrecord
280
     1
102
RTVSPost2010Prop28
280
     0
102
RTVSPost2010PropOp28
 70
     1
102
RTVSPost2010Prop29
280
     1
102
RTVSPost2010PropOp29
 70
     1
102
RTVSPost2010Prop30
280
     1
102
RTVSPost2010PropOp30
 70
     1
102
RTVSPost2010Prop31
280
     0
102
RTVSPost2010PropOp31
 70
     1
102
RTVSPost2010Prop32
280
     0
102
RTVSPost2010PropOp32
 70
     1
102
RTVSPost2010Prop33
280
     0
102
RTVSPost2010PropOp33
 70
     1
102
RTVSPost2010Prop34
280
     0
102
RTVSPost2010PropOp34
 70
     1
102
RTVSPost2010Prop35
280
     0
102
RTVSPost2010PropOp35
 70
     1
102
RTVSPost2010Prop36
280
     0
102
RTVSPost2010PropOp36
 70
     1
102
RTVSPost2010Prop37
 90
       50
102
RTVSPost2010PropOp37
 70
     1
102
RTVSPost2010Prop38
140
0.0
102
RTVSPost2010PropOp38
 70
     1
102
RTVSPost2010Prop39
140
1.0
102
RTVSPost2010PropOp39
 70
     1
102
RTVSPost2010Prop40
 90
        0
102
RTVSPost2010PropOp40
 70
     1
102
RTVSPost2010Prop41ColorIndex
 90
       18
102
RTVSPost2010Prop41ColorRGB
 90
        0
102
RTVSPost2010PropOp41
 70
     1
102
RTVSPost2010Prop42
 90
       50
102
RTVSPost2010PropOp42
 70
     1
102
RTVSPost2010Prop43
 90
        3
102
RTVSPost2010PropOp43
 70
     1
102
RTVSPost2010Prop44ColorIndex
 90
        5
102
RTVSPost2010Prop44ColorRGB
 90
      255
102
RTVSPost2010PropOp44
 70
     1
102
RTVSPost2010Prop45
280
     0
102
RTVSPost2010PropOp45
 70
     1
102
RTVSPost2010Prop46
 90
       50
102
RTVSPost2010PropOp46
 70
     1
102
RTVSPost2010Prop47
 90
       50
102
RTVSPost2010PropOp47
 70
     1
102
RTVSPost2010Prop48
 90
       50
102
RTVSPost2010PropOp48
 70
     1
102
RTVSPost2010Prop49
280
     0
102
RTVSPost2010PropOp49
 70
     1
102
RTVSPost2010Prop50
 90
       50
102
RTVSPost2010PropOp50
 70
     1
102
RTVSPost2010Prop51ColorIndex
 90
      256
102
RTVSPost2010Prop51ColorRGB
 90
-16777216
102
RTVSPost2010PropOp51
 70
     0
102
RTVSPost2010Prop52
140
1.0
102
RTVSPost2010PropOp52
 70
     0
102
RTVSPost2010Prop53
 90
        2
102
RTVSPost2010PropOp53
 70
     1
102
RTVSPost2010Prop54
  1
strokes_ogs.tif
102
RTVSPost2010PropOp54
 70
     1
102
RTVSPost2010Prop55
280
     0
102
RTVSPost2010PropOp55
 70
     1
102
RTVSPost2010Prop56
140
1.0
102
RTVSPost2010PropOp56
 70
     1
102
RTVSPost2010Prop57
140
1.0
102
RTVSPost2010PropOp57
 70
     1
102
RTVSPropertyOp0
 70
     1
102
RTVSPropertyOp1
 70
     1
102
RTVSPropertyOp2
 70
     1
102
RTVSPropertyOp3
 70
     1
102
RTVSPropertyOp4
 70
     1
102
RTVSPropertyOp5
 70
     1
102
RTVSPropertyOp6
 70
     1
102
RTVSPropertyOp7
 70
     1
102
RTVSPropertyOp8
 70
     1
102
RTVSPropertyOp9
 70
     1
102
RTVSPropertyOp10
 70
     1
102
RTVSPropertyOp11
 70
     1
102
RTVSPropertyOp12
 70
     1
102
RTVSPropertyOp13
 70
     1
102
RTVSPropertyOp14
 70
     1
102
RTVSPropertyOp15
 70
     1
102
RTVSPropertyOp16
 70
     1
102
RTVSPropertyOp17
 70
     1
102
RTVSPropertyOp18
 70
     1
102
RTVSPropertyOp19
 70
     1
102
RTVSPropertyOp20
 70
     1
102
RTVSPropertyOp21
 70
     1
102
RTVSPropertyOp22
 70
     1
102
RTVSPropertyOp23
 70
     1
102
RTVSPropertyOp24
 70
     1
102
RTVSPropertyOp25
 70
     1
102
RTVSPropertyOp26
 70
     1
102
RTVSPropertyOp27
 70
     1
102
RTVSPropertyOp28
 70
     1
102
RTVSPropertyOp29
 70
     1
102
RTVSPropertyOp30
 70
     1
102
RTVSPropertyOp31
 70
     1
102
RTVSPropertyOp32
 70
     1
102
RTVSPropertyOp33
 70
     1
102
RTVSPropertyOp34
 70
     1
102
RTVSPropertyOp35
 70
     1
102
RTVSPropertyOp36
 70
     1
102
RTVSPropertyOp37
 70
     1
102
RTVSPropertyOp38
 70
     1
102
RTVSPropertyOp39
 70
     1
102
RTVSPropertyOp40
 70
     1
102
RTVSPropertyOp41
 70
     1
102
RTVSPropertyOp42
 70
     1
102
RTVSPropertyOp43
 70
     1
102
RTVSPropertyOp44
 70
     1
102
RTVSPropertyOp45
 70
     1
102
RTVSPropertyOp46
 70
     1
102
RTVSPropertyOp47
 70
     1
102
RTVSPropertyOp48
 70
     1
102
RTVSPropertyOp49
 70
     1
102
RTVSPropertyOp50
 70
     1
102
RTVSPropertyOp51
 70
     0
102
RTVSPropertyOp52
 70
     0
102
RTVSPropertyOp53
 70
     1
102
RTVSPropertyOp54
 70
     1
102
RTVSPropertyOp55
 70
     1
102
RTVSPropertyOp56
 70
     1
102
RTVSPropertyOp57
 70
     1
102
RTVSPropertyOp58
 70
     1
102
RTVSPropertyOp59
 70
     1
102
RTVSPropertyOp60
 70
     1
102
RTVSPropertyOp61
 70
     1
102
RTVSPropertyOp62
 70
     1
  0
XRECORD
  5
16D8D
102
{ACAD_REACTORS
330
16D8C
102
}
330
16D8C
100
AcDbXrecord
280
     1
102
RTVSPost2010Prop28
280
     0
102
RTVSPost2010PropOp28
 70
     0
102
RTVSPost2010Prop29
280
     1
102
RTVSPost2010PropOp29
 70
     0
102
RTVSPost2010Prop30
280
     1
102
RTVSPost2010PropOp30
 70
     0
102
RTVSPost2010Prop31
280
     0
102
RTVSPost2010PropOp31
 70
     0
102
RTVSPost2010Prop32
280
     0
102
RTVSPost2010PropOp32
 70
     0
102
RTVSPost2010Prop33
280
     0
102
RTVSPost2010PropOp33
 70
     0
102
RTVSPost2010Prop34
280
     0
102
RTVSPost2010PropOp34
 70
     0
102
RTVSPost2010Prop35
280
     0
102
RTVSPost2010PropOp35
 70
     0
102
RTVSPost2010Prop36
280
     0
102
RTVSPost2010PropOp36
 70
     0
102
RTVSPost2010Prop37
 90
       50
102
RTVSPost2010PropOp37
 70
     0
102
RTVSPost2010Prop38
140
0.0
102
RTVSPost2010PropOp38
 70
     0
102
RTVSPost2010Prop39
140
1.0
102
RTVSPost2010PropOp39
 70
     0
102
RTVSPost2010Prop40
 90
        0
102
RTVSPost2010PropOp40
 70
     0
102
RTVSPost2010Prop41ColorIndex
 90
       18
102
RTVSPost2010Prop41ColorRGB
 90
        0
102
RTVSPost2010PropOp41
 70
     0
102
RTVSPost2010Prop42
 90
       50
102
RTVSPost2010PropOp42
 70
     0
102
RTVSPost2010Prop43
 90
        3
102
RTVSPost2010PropOp43
 70
     0
102
RTVSPost2010Prop44ColorIndex
 90
        5
102
RTVSPost2010Prop44ColorRGB
 90
      255
102
RTVSPost2010PropOp44
 70
     0
102
RTVSPost2010Prop45
280
     0
102
RTVSPost2010PropOp45
 70
     0
102
RTVSPost2010Prop46
 90
       50
102
RTVSPost2010PropOp46
 70
     0
102
RTVSPost2010Prop47
 90
       50
102
RTVSPost2010PropOp47
 70
     0
102
RTVSPost2010Prop48
 90
       50
102
RTVSPost2010PropOp48
 70
     0
102
RTVSPost2010Prop49
280
     0
102
RTVSPost2010PropOp49
 70
     0
102
RTVSPost2010Prop50
 90
       50
102
RTVSPost2010PropOp50
 70
     0
102
RTVSPost2010Prop51ColorIndex
 90
      256
102
RTVSPost2010Prop51ColorRGB
 90
-16777216
102
RTVSPost2010PropOp51
 70
     0
102
RTVSPost2010Prop52
140
1.0
102
RTVSPost2010PropOp52
 70
     0
102
RTVSPost2010Prop53
 90
        2
102
RTVSPost2010PropOp53
 70
     0
102
RTVSPost2010Prop54
  1
strokes_ogs.tif
102
RTVSPost2010PropOp54
 70
     0
102
RTVSPost2010Prop55
280
     0
102
RTVSPost2010PropOp55
 70
     0
102
RTVSPost2010Prop56
140
1.0
102
RTVSPost2010PropOp56
 70
     0
102
RTVSPost2010Prop57
140
1.0
102
RTVSPost2010PropOp57
 70
     0
102
RTVSPropertyOp0
 70
     0
102
RTVSPropertyOp1
 70
     0
102
RTVSPropertyOp2
 70
     0
102
RTVSPropertyOp3
 70
     0
102
RTVSPropertyOp4
 70
     0
102
RTVSPropertyOp5
 70
     0
102
RTVSPropertyOp6
 70
     0
102
RTVSPropertyOp7
 70
     0
102
RTVSPropertyOp8
 70
     0
102
RTVSPropertyOp9
 70
     0
102
RTVSPropertyOp10
 70
     0
102
RTVSPropertyOp11
 70
     0
102
RTVSPropertyOp12
 70
     0
102
RTVSPropertyOp13
 70
     0
102
RTVSPropertyOp14
 70
     2
102
RTVSPropertyOp15
 70
     0
102
RTVSPropertyOp16
 70
     0
102
RTVSPropertyOp17
 70
     0
102
RTVSPropertyOp18
 70
     0
102
RTVSPropertyOp19
 70
     0
102
RTVSPropertyOp20
 70
     0
102
RTVSPropertyOp21
 70
     0
102
RTVSPropertyOp22
 70
     0
102
RTVSPropertyOp23
 70
     0
102
RTVSPropertyOp24
 70
     0
102
RTVSPropertyOp25
 70
     0
102
RTVSPropertyOp26
 70
     0
102
RTVSPropertyOp27
 70
     0
102
RTVSPropertyOp28
 70
     0
102
RTVSPropertyOp29
 70
     0
102
RTVSPropertyOp30
 70
     0
102
RTVSPropertyOp31
 70
     0
102
RTVSPropertyOp32
 70
     0
102
RTVSPropertyOp33
 70
     0
102
RTVSPropertyOp34
 70
     0
102
RTVSPropertyOp35
 70
     0
102
RTVSPropertyOp36
 70
     0
102
RTVSPropertyOp37
 70
     0
102
RTVSPropertyOp38
 70
     0
102
RTVSPropertyOp39
 70
     0
102
RTVSPropertyOp40
 70
     0
102
RTVSPropertyOp41
 70
     0
102
RTVSPropertyOp42
 70
     0
102
RTVSPropertyOp43
 70
     0
102
RTVSPropertyOp44
 70
     0
102
RTVSPropertyOp45
 70
     0
102
RTVSPropertyOp46
 70
     0
102
RTVSPropertyOp47
 70
     0
102
RTVSPropertyOp48
 70
     0
102
RTVSPropertyOp49
 70
     0
102
RTVSPropertyOp50
 70
     0
102
RTVSPropertyOp51
 70
     0
102
RTVSPropertyOp52
 70
     0
102
RTVSPropertyOp53
 70
     0
102
RTVSPropertyOp54
 70
     0
102
RTVSPropertyOp55
 70
     0
102
RTVSPropertyOp56
 70
     0
102
RTVSPropertyOp57
 70
     0
102
RTVSPropertyOp58
 70
     0
102
RTVSPropertyOp59
 70
     0
102
RTVSPropertyOp60
 70
     0
102
RTVSPropertyOp61
 70
     0
102
RTVSPropertyOp62
 70
     0
  0
XRECORD
  5
16D7B
102
{ACAD_REACTORS
330
16D7A
102
}
330
16D7A
100
AcDbXrecord
280
     1
102
RTVSPost2010Prop28
280
     0
102
RTVSPost2010PropOp28
 70
     1
102
RTVSPost2010Prop29
280
     1
102
RTVSPost2010PropOp29
 70
     1
102
RTVSPost2010Prop30
280
     1
102
RTVSPost2010PropOp30
 70
     1
102
RTVSPost2010Prop31
280
     0
102
RTVSPost2010PropOp31
 70
     1
102
RTVSPost2010Prop32
280
     0
102
RTVSPost2010PropOp32
 70
     1
102
RTVSPost2010Prop33
280
     0
102
RTVSPost2010PropOp33
 70
     1
102
RTVSPost2010Prop34
280
     0
102
RTVSPost2010PropOp34
 70
     1
102
RTVSPost2010Prop35
280
     0
102
RTVSPost2010PropOp35
 70
     1
102
RTVSPost2010Prop36
280
     0
102
RTVSPost2010PropOp36
 70
     1
102
RTVSPost2010Prop37
 90
       50
102
RTVSPost2010PropOp37
 70
     1
102
RTVSPost2010Prop38
140
0.0
102
RTVSPost2010PropOp38
 70
     1
102
RTVSPost2010Prop39
140
1.0
102
RTVSPost2010PropOp39
 70
     1
102
RTVSPost2010Prop40
 90
        0
102
RTVSPost2010PropOp40
 70
     1
102
RTVSPost2010Prop41ColorIndex
 90
       18
102
RTVSPost2010Prop41ColorRGB
 90
        0
102
RTVSPost2010PropOp41
 70
     1
102
RTVSPost2010Prop42
 90
       50
102
RTVSPost2010PropOp42
 70
     1
102
RTVSPost2010Prop43
 90
        3
102
RTVSPost2010PropOp43
 70
     1
102
RTVSPost2010Prop44ColorIndex
 90
        5
102
RTVSPost2010Prop44ColorRGB
 90
      255
102
RTVSPost2010PropOp44
 70
     1
102
RTVSPost2010Prop45
280
     0
102
RTVSPost2010PropOp45
 70
     1
102
RTVSPost2010Prop46
 90
       50
102
RTVSPost2010PropOp46
 70
     1
102
RTVSPost2010Prop47
 90
       50
102
RTVSPost2010PropOp47
 70
     1
102
RTVSPost2010Prop48
 90
       50
102
RTVSPost2010PropOp48
 70
     1
102
RTVSPost2010Prop49
280
     0
102
RTVSPost2010PropOp49
 70
     1
102
RTVSPost2010Prop50
 90
       50
102
RTVSPost2010PropOp50
 70
     1
102
RTVSPost2010Prop51ColorIndex
 90
      256
102
RTVSPost2010Prop51ColorRGB
 90
-16777216
102
RTVSPost2010PropOp51
 70
     0
102
RTVSPost2010Prop52
140
1.0
102
RTVSPost2010PropOp52
 70
     0
102
RTVSPost2010Prop53
 90
        2
102
RTVSPost2010PropOp53
 70
     1
102
RTVSPost2010Prop54
  1
strokes_ogs.tif
102
RTVSPost2010PropOp54
 70
     1
102
RTVSPost2010Prop55
280
     0
102
RTVSPost2010PropOp55
 70
     1
102
RTVSPost2010Prop56
140
1.0
102
RTVSPost2010PropOp56
 70
     1
102
RTVSPost2010Prop57
140
1.0
102
RTVSPost2010PropOp57
 70
     1
102
RTVSPropertyOp0
 70
     1
102
RTVSPropertyOp1
 70
     1
102
RTVSPropertyOp2
 70
     1
102
RTVSPropertyOp3
 70
     1
102
RTVSPropertyOp4
 70
     1
102
RTVSPropertyOp5
 70
     1
102
RTVSPropertyOp6
 70
     1
102
RTVSPropertyOp7
 70
     1
102
RTVSPropertyOp8
 70
     1
102
RTVSPropertyOp9
 70
     1
102
RTVSPropertyOp10
 70
     1
102
RTVSPropertyOp11
 70
     1
102
RTVSPropertyOp12
 70
     1
102
RTVSPropertyOp13
 70
     1
102
RTVSPropertyOp14
 70
     1
102
RTVSPropertyOp15
 70
     1
102
RTVSPropertyOp16
 70
     1
102
RTVSPropertyOp17
 70
     1
102
RTVSPropertyOp18
 70
     1
102
RTVSPropertyOp19
 70
     1
102
RTVSPropertyOp20
 70
     1
102
RTVSPropertyOp21
 70
     1
102
RTVSPropertyOp22
 70
     1
102
RTVSPropertyOp23
 70
     1
102
RTVSPropertyOp24
 70
     1
102
RTVSPropertyOp25
 70
     1
102
RTVSPropertyOp26
 70
     1
102
RTVSPropertyOp27
 70
     1
102
RTVSPropertyOp28
 70
     1
102
RTVSPropertyOp29
 70
     1
102
RTVSPropertyOp30
 70
     1
102
RTVSPropertyOp31
 70
     1
102
RTVSPropertyOp32
 70
     1
102
RTVSPropertyOp33
 70
     1
102
RTVSPropertyOp34
 70
     1
102
RTVSPropertyOp35
 70
     1
102
RTVSPropertyOp36
 70
     1
102
RTVSPropertyOp37
 70
     1
102
RTVSPropertyOp38
 70
     1
102
RTVSPropertyOp39
 70
     1
102
RTVSPropertyOp40
 70
     1
102
RTVSPropertyOp41
 70
     1
102
RTVSPropertyOp42
 70
     1
102
RTVSPropertyOp43
 70
     1
102
RTVSPropertyOp44
 70
     1
102
RTVSPropertyOp45
 70
     1
102
RTVSPropertyOp46
 70
     1
102
RTVSPropertyOp47
 70
     1
102
RTVSPropertyOp48
 70
     1
102
RTVSPropertyOp49
 70
     1
102
RTVSPropertyOp50
 70
     1
102
RTVSPropertyOp51
 70
     0
102
RTVSPropertyOp52
 70
     0
102
RTVSPropertyOp53
 70
     1
102
RTVSPropertyOp54
 70
     1
102
RTVSPropertyOp55
 70
     1
102
RTVSPropertyOp56
 70
     1
102
RTVSPropertyOp57
 70
     1
102
RTVSPropertyOp58
 70
     1
102
RTVSPropertyOp59
 70
     1
102
RTVSPropertyOp60
 70
     1
102
RTVSPropertyOp61
 70
     1
102
RTVSPropertyOp62
 70
     1
  0
XRECORD
  5
16D5F
102
{ACAD_REACTORS
330
16D5E
102
}
330
16D5E
100
AcDbXrecord
280
     1
102
RTVSPost2010Prop28
280
     0
102
RTVSPost2010PropOp28
 70
     1
102
RTVSPost2010Prop29
280
     1
102
RTVSPost2010PropOp29
 70
     1
102
RTVSPost2010Prop30
280
     1
102
RTVSPost2010PropOp30
 70
     1
102
RTVSPost2010Prop31
280
     0
102
RTVSPost2010PropOp31
 70
     1
102
RTVSPost2010Prop32
280
     0
102
RTVSPost2010PropOp32
 70
     1
102
RTVSPost2010Prop33
280
     0
102
RTVSPost2010PropOp33
 70
     1
102
RTVSPost2010Prop34
280
     0
102
RTVSPost2010PropOp34
 70
     1
102
RTVSPost2010Prop35
280
     0
102
RTVSPost2010PropOp35
 70
     1
102
RTVSPost2010Prop36
280
     0
102
RTVSPost2010PropOp36
 70
     1
102
RTVSPost2010Prop37
 90
       50
102
RTVSPost2010PropOp37
 70
     1
102
RTVSPost2010Prop38
140
0.0
102
RTVSPost2010PropOp38
 70
     1
102
RTVSPost2010Prop39
140
1.0
102
RTVSPost2010PropOp39
 70
     1
102
RTVSPost2010Prop40
 90
        0
102
RTVSPost2010PropOp40
 70
     1
102
RTVSPost2010Prop41ColorIndex
 90
       18
102
RTVSPost2010Prop41ColorRGB
 90
        0
102
RTVSPost2010PropOp41
 70
     1
102
RTVSPost2010Prop42
 90
       50
102
RTVSPost2010PropOp42
 70
     1
102
RTVSPost2010Prop43
 90
        3
102
RTVSPost2010PropOp43
 70
     1
102
RTVSPost2010Prop44ColorIndex
 90
        5
102
RTVSPost2010Prop44ColorRGB
 90
      255
102
RTVSPost2010PropOp44
 70
     1
102
RTVSPost2010Prop45
280
     0
102
RTVSPost2010PropOp45
 70
     1
102
RTVSPost2010Prop46
 90
       50
102
RTVSPost2010PropOp46
 70
     1
102
RTVSPost2010Prop47
 90
       50
102
RTVSPost2010PropOp47
 70
     1
102
RTVSPost2010Prop48
 90
       50
102
RTVSPost2010PropOp48
 70
     1
102
RTVSPost2010Prop49
280
     0
102
RTVSPost2010PropOp49
 70
     1
102
RTVSPost2010Prop50
 90
       50
102
RTVSPost2010PropOp50
 70
     1
102
RTVSPost2010Prop51ColorIndex
 90
      256
102
RTVSPost2010Prop51ColorRGB
 90
-16777216
102
RTVSPost2010PropOp51
 70
     0
102
RTVSPost2010Prop52
140
1.0
102
RTVSPost2010PropOp52
 70
     0
102
RTVSPost2010Prop53
 90
        2
102
RTVSPost2010PropOp53
 70
     1
102
RTVSPost2010Prop54
  1
strokes_ogs.tif
102
RTVSPost2010PropOp54
 70
     1
102
RTVSPost2010Prop55
280
     0
102
RTVSPost2010PropOp55
 70
     1
102
RTVSPost2010Prop56
140
1.0
102
RTVSPost2010PropOp56
 70
     1
102
RTVSPost2010Prop57
140
1.0
102
RTVSPost2010PropOp57
 70
     1
102
RTVSPropertyOp0
 70
     1
102
RTVSPropertyOp1
 70
     1
102
RTVSPropertyOp2
 70
     1
102
RTVSPropertyOp3
 70
     1
102
RTVSPropertyOp4
 70
     1
102
RTVSPropertyOp5
 70
     1
102
RTVSPropertyOp6
 70
     1
102
RTVSPropertyOp7
 70
     1
102
RTVSPropertyOp8
 70
     1
102
RTVSPropertyOp9
 70
     1
102
RTVSPropertyOp10
 70
     1
102
RTVSPropertyOp11
 70
     1
102
RTVSPropertyOp12
 70
     1
102
RTVSPropertyOp13
 70
     1
102
RTVSPropertyOp14
 70
     1
102
RTVSPropertyOp15
 70
     1
102
RTVSPropertyOp16
 70
     1
102
RTVSPropertyOp17
 70
     1
102
RTVSPropertyOp18
 70
     1
102
RTVSPropertyOp19
 70
     1
102
RTVSPropertyOp20
 70
     1
102
RTVSPropertyOp21
 70
     1
102
RTVSPropertyOp22
 70
     1
102
RTVSPropertyOp23
 70
     1
102
RTVSPropertyOp24
 70
     1
102
RTVSPropertyOp25
 70
     1
102
RTVSPropertyOp26
 70
     1
102
RTVSPropertyOp27
 70
     1
102
RTVSPropertyOp28
 70
     1
102
RTVSPropertyOp29
 70
     1
102
RTVSPropertyOp30
 70
     1
102
RTVSPropertyOp31
 70
     1
102
RTVSPropertyOp32
 70
     1
102
RTVSPropertyOp33
 70
     1
102
RTVSPropertyOp34
 70
     1
102
RTVSPropertyOp35
 70
     1
102
RTVSPropertyOp36
 70
     1
102
RTVSPropertyOp37
 70
     1
102
RTVSPropertyOp38
 70
     1
102
RTVSPropertyOp39
 70
     1
102
RTVSPropertyOp40
 70
     1
102
RTVSPropertyOp41
 70
     1
102
RTVSPropertyOp42
 70
     1
102
RTVSPropertyOp43
 70
     1
102
RTVSPropertyOp44
 70
     1
102
RTVSPropertyOp45
 70
     1
102
RTVSPropertyOp46
 70
     1
102
RTVSPropertyOp47
 70
     1
102
RTVSPropertyOp48
 70
     1
102
RTVSPropertyOp49
 70
     1
102
RTVSPropertyOp50
 70
     1
102
RTVSPropertyOp51
 70
     0
102
RTVSPropertyOp52
 70
     0
102
RTVSPropertyOp53
 70
     1
102
RTVSPropertyOp54
 70
     1
102
RTVSPropertyOp55
 70
     1
102
RTVSPropertyOp56
 70
     1
102
RTVSPropertyOp57
 70
     1
102
RTVSPropertyOp58
 70
     1
102
RTVSPropertyOp59
 70
     1
102
RTVSPropertyOp60
 70
     1
102
RTVSPropertyOp61
 70
     1
102
RTVSPropertyOp62
 70
     1
  0
XRECORD
  5
16D61
102
{ACAD_REACTORS
330
16D60
102
}
330
16D60
100
AcDbXrecord
280
     1
102
RTVSPost2010Prop28
280
     0
102
RTVSPost2010PropOp28
 70
     1
102
RTVSPost2010Prop29
280
     1
102
RTVSPost2010PropOp29
 70
     1
102
RTVSPost2010Prop30
280
     1
102
RTVSPost2010PropOp30
 70
     1
102
RTVSPost2010Prop31
280
     0
102
RTVSPost2010PropOp31
 70
     1
102
RTVSPost2010Prop32
280
     0
102
RTVSPost2010PropOp32
 70
     1
102
RTVSPost2010Prop33
280
     0
102
RTVSPost2010PropOp33
 70
     1
102
RTVSPost2010Prop34
280
     0
102
RTVSPost2010PropOp34
 70
     1
102
RTVSPost2010Prop35
280
     0
102
RTVSPost2010PropOp35
 70
     1
102
RTVSPost2010Prop36
280
     0
102
RTVSPost2010PropOp36
 70
     1
102
RTVSPost2010Prop37
 90
       50
102
RTVSPost2010PropOp37
 70
     1
102
RTVSPost2010Prop38
140
0.0
102
RTVSPost2010PropOp38
 70
     1
102
RTVSPost2010Prop39
140
1.0
102
RTVSPost2010PropOp39
 70
     1
102
RTVSPost2010Prop40
 90
        0
102
RTVSPost2010PropOp40
 70
     1
102
RTVSPost2010Prop41ColorIndex
 90
       18
102
RTVSPost2010Prop41ColorRGB
 90
        0
102
RTVSPost2010PropOp41
 70
     1
102
RTVSPost2010Prop42
 90
       50
102
RTVSPost2010PropOp42
 70
     1
102
RTVSPost2010Prop43
 90
        3
102
RTVSPost2010PropOp43
 70
     1
102
RTVSPost2010Prop44ColorIndex
 90
        5
102
RTVSPost2010Prop44ColorRGB
 90
      255
102
RTVSPost2010PropOp44
 70
     1
102
RTVSPost2010Prop45
280
     0
102
RTVSPost2010PropOp45
 70
     1
102
RTVSPost2010Prop46
 90
       50
102
RTVSPost2010PropOp46
 70
     1
102
RTVSPost2010Prop47
 90
       50
102
RTVSPost2010PropOp47
 70
     1
102
RTVSPost2010Prop48
 90
       50
102
RTVSPost2010PropOp48
 70
     1
102
RTVSPost2010Prop49
280
     0
102
RTVSPost2010PropOp49
 70
     1
102
RTVSPost2010Prop50
 90
       50
102
RTVSPost2010PropOp50
 70
     1
102
RTVSPost2010Prop51ColorIndex
 90
      256
102
RTVSPost2010Prop51ColorRGB
 90
-16777216
102
RTVSPost2010PropOp51
 70
     0
102
RTVSPost2010Prop52
140
1.0
102
RTVSPost2010PropOp52
 70
     0
102
RTVSPost2010Prop53
 90
        2
102
RTVSPost2010PropOp53
 70
     1
102
RTVSPost2010Prop54
  1
strokes_ogs.tif
102
RTVSPost2010PropOp54
 70
     1
102
RTVSPost2010Prop55
280
     0
102
RTVSPost2010PropOp55
 70
     1
102
RTVSPost2010Prop56
140
1.0
102
RTVSPost2010PropOp56
 70
     1
102
RTVSPost2010Prop57
140
1.0
102
RTVSPost2010PropOp57
 70
     1
102
RTVSPropertyOp0
 70
     1
102
RTVSPropertyOp1
 70
     1
102
RTVSPropertyOp2
 70
     1
102
RTVSPropertyOp3
 70
     1
102
RTVSPropertyOp4
 70
     1
102
RTVSPropertyOp5
 70
     1
102
RTVSPropertyOp6
 70
     1
102
RTVSPropertyOp7
 70
     1
102
RTVSPropertyOp8
 70
     1
102
RTVSPropertyOp9
 70
     1
102
RTVSPropertyOp10
 70
     1
102
RTVSPropertyOp11
 70
     1
102
RTVSPropertyOp12
 70
     1
102
RTVSPropertyOp13
 70
     1
102
RTVSPropertyOp14
 70
     1
102
RTVSPropertyOp15
 70
     1
102
RTVSPropertyOp16
 70
     1
102
RTVSPropertyOp17
 70
     1
102
RTVSPropertyOp18
 70
     1
102
RTVSPropertyOp19
 70
     1
102
RTVSPropertyOp20
 70
     1
102
RTVSPropertyOp21
 70
     1
102
RTVSPropertyOp22
 70
     1
102
RTVSPropertyOp23
 70
     1
102
RTVSPropertyOp24
 70
     1
102
RTVSPropertyOp25
 70
     1
102
RTVSPropertyOp26
 70
     1
102
RTVSPropertyOp27
 70
     1
102
RTVSPropertyOp28
 70
     1
102
RTVSPropertyOp29
 70
     1
102
RTVSPropertyOp30
 70
     1
102
RTVSPropertyOp31
 70
     1
102
RTVSPropertyOp32
 70
     1
102
RTVSPropertyOp33
 70
     1
102
RTVSPropertyOp34
 70
     1
102
RTVSPropertyOp35
 70
     1
102
RTVSPropertyOp36
 70
     1
102
RTVSPropertyOp37
 70
     1
102
RTVSPropertyOp38
 70
     1
102
RTVSPropertyOp39
 70
     1
102
RTVSPropertyOp40
 70
     1
102
RTVSPropertyOp41
 70
     1
102
RTVSPropertyOp42
 70
     1
102
RTVSPropertyOp43
 70
     1
102
RTVSPropertyOp44
 70
     1
102
RTVSPropertyOp45
 70
     1
102
RTVSPropertyOp46
 70
     1
102
RTVSPropertyOp47
 70
     1
102
RTVSPropertyOp48
 70
     1
102
RTVSPropertyOp49
 70
     1
102
RTVSPropertyOp50
 70
     1
102
RTVSPropertyOp51
 70
     0
102
RTVSPropertyOp52
 70
     0
102
RTVSPropertyOp53
 70
     1
102
RTVSPropertyOp54
 70
     1
102
RTVSPropertyOp55
 70
     1
102
RTVSPropertyOp56
 70
     1
102
RTVSPropertyOp57
 70
     1
102
RTVSPropertyOp58
 70
     1
102
RTVSPropertyOp59
 70
     1
102
RTVSPropertyOp60
 70
     1
102
RTVSPropertyOp61
 70
     1
102
RTVSPropertyOp62
 70
     1
  0
XRECORD
  5
16D63
102
{ACAD_REACTORS
330
16D62
102
}
330
16D62
100
AcDbXrecord
280
     1
102
RTVSPost2010Prop28
280
     0
102
RTVSPost2010PropOp28
 70
     1
102
RTVSPost2010Prop29
280
     1
102
RTVSPost2010PropOp29
 70
     1
102
RTVSPost2010Prop30
280
     1
102
RTVSPost2010PropOp30
 70
     1
102
RTVSPost2010Prop31
280
     0
102
RTVSPost2010PropOp31
 70
     1
102
RTVSPost2010Prop32
280
     0
102
RTVSPost2010PropOp32
 70
     1
102
RTVSPost2010Prop33
280
     0
102
RTVSPost2010PropOp33
 70
     1
102
RTVSPost2010Prop34
280
     0
102
RTVSPost2010PropOp34
 70
     1
102
RTVSPost2010Prop35
280
     0
102
RTVSPost2010PropOp35
 70
     1
102
RTVSPost2010Prop36
280
     0
102
RTVSPost2010PropOp36
 70
     1
102
RTVSPost2010Prop37
 90
       50
102
RTVSPost2010PropOp37
 70
     1
102
RTVSPost2010Prop38
140
0.0
102
RTVSPost2010PropOp38
 70
     1
102
RTVSPost2010Prop39
140
1.0
102
RTVSPost2010PropOp39
 70
     1
102
RTVSPost2010Prop40
 90
        0
102
RTVSPost2010PropOp40
 70
     1
102
RTVSPost2010Prop41ColorIndex
 90
       18
102
RTVSPost2010Prop41ColorRGB
 90
        0
102
RTVSPost2010PropOp41
 70
     1
102
RTVSPost2010Prop42
 90
       50
102
RTVSPost2010PropOp42
 70
     1
102
RTVSPost2010Prop43
 90
        3
102
RTVSPost2010PropOp43
 70
     1
102
RTVSPost2010Prop44ColorIndex
 90
        5
102
RTVSPost2010Prop44ColorRGB
 90
      255
102
RTVSPost2010PropOp44
 70
     1
102
RTVSPost2010Prop45
280
     0
102
RTVSPost2010PropOp45
 70
     1
102
RTVSPost2010Prop46
 90
       50
102
RTVSPost2010PropOp46
 70
     1
102
RTVSPost2010Prop47
 90
       50
102
RTVSPost2010PropOp47
 70
     1
102
RTVSPost2010Prop48
 90
       50
102
RTVSPost2010PropOp48
 70
     1
102
RTVSPost2010Prop49
280
     0
102
RTVSPost2010PropOp49
 70
     1
102
RTVSPost2010Prop50
 90
       50
102
RTVSPost2010PropOp50
 70
     1
102
RTVSPost2010Prop51ColorIndex
 90
      256
102
RTVSPost2010Prop51ColorRGB
 90
-16777216
102
RTVSPost2010PropOp51
 70
     0
102
RTVSPost2010Prop52
140
1.0
102
RTVSPost2010PropOp52
 70
     0
102
RTVSPost2010Prop53
 90
        2
102
RTVSPost2010PropOp53
 70
     1
102
RTVSPost2010Prop54
  1
strokes_ogs.tif
102
RTVSPost2010PropOp54
 70
     1
102
RTVSPost2010Prop55
280
     0
102
RTVSPost2010PropOp55
 70
     1
102
RTVSPost2010Prop56
140
1.0
102
RTVSPost2010PropOp56
 70
     1
102
RTVSPost2010Prop57
140
1.0
102
RTVSPost2010PropOp57
 70
     1
102
RTVSPropertyOp0
 70
     1
102
RTVSPropertyOp1
 70
     1
102
RTVSPropertyOp2
 70
     1
102
RTVSPropertyOp3
 70
     1
102
RTVSPropertyOp4
 70
     1
102
RTVSPropertyOp5
 70
     1
102
RTVSPropertyOp6
 70
     1
102
RTVSPropertyOp7
 70
     1
102
RTVSPropertyOp8
 70
     1
102
RTVSPropertyOp9
 70
     1
102
RTVSPropertyOp10
 70
     1
102
RTVSPropertyOp11
 70
     1
102
RTVSPropertyOp12
 70
     1
102
RTVSPropertyOp13
 70
     1
102
RTVSPropertyOp14
 70
     1
102
RTVSPropertyOp15
 70
     1
102
RTVSPropertyOp16
 70
     1
102
RTVSPropertyOp17
 70
     1
102
RTVSPropertyOp18
 70
     1
102
RTVSPropertyOp19
 70
     1
102
RTVSPropertyOp20
 70
     1
102
RTVSPropertyOp21
 70
     1
102
RTVSPropertyOp22
 70
     1
102
RTVSPropertyOp23
 70
     1
102
RTVSPropertyOp24
 70
     1
102
RTVSPropertyOp25
 70
     1
102
RTVSPropertyOp26
 70
     1
102
RTVSPropertyOp27
 70
     1
102
RTVSPropertyOp28
 70
     1
102
RTVSPropertyOp29
 70
     1
102
RTVSPropertyOp30
 70
     1
102
RTVSPropertyOp31
 70
     1
102
RTVSPropertyOp32
 70
     1
102
RTVSPropertyOp33
 70
     1
102
RTVSPropertyOp34
 70
     1
102
RTVSPropertyOp35
 70
     1
102
RTVSPropertyOp36
 70
     1
102
RTVSPropertyOp37
 70
     1
102
RTVSPropertyOp38
 70
     1
102
RTVSPropertyOp39
 70
     1
102
RTVSPropertyOp40
 70
     1
102
RTVSPropertyOp41
 70
     1
102
RTVSPropertyOp42
 70
     1
102
RTVSPropertyOp43
 70
     1
102
RTVSPropertyOp44
 70
     1
102
RTVSPropertyOp45
 70
     1
102
RTVSPropertyOp46
 70
     1
102
RTVSPropertyOp47
 70
     1
102
RTVSPropertyOp48
 70
     1
102
RTVSPropertyOp49
 70
     1
102
RTVSPropertyOp50
 70
     1
102
RTVSPropertyOp51
 70
     0
102
RTVSPropertyOp52
 70
     0
102
RTVSPropertyOp53
 70
     1
102
RTVSPropertyOp54
 70
     1
102
RTVSPropertyOp55
 70
     1
102
RTVSPropertyOp56
 70
     1
102
RTVSPropertyOp57
 70
     1
102
RTVSPropertyOp58
 70
     1
102
RTVSPropertyOp59
 70
     1
102
RTVSPropertyOp60
 70
     1
102
RTVSPropertyOp61
 70
     1
102
RTVSPropertyOp62
 70
     1
  0
XRECORD
  5
16D65
102
{ACAD_REACTORS
330
16D64
102
}
330
16D64
100
AcDbXrecord
280
     1
102
RTVSPost2010Prop28
280
     0
102
RTVSPost2010PropOp28
 70
     1
102
RTVSPost2010Prop29
280
     1
102
RTVSPost2010PropOp29
 70
     1
102
RTVSPost2010Prop30
280
     1
102
RTVSPost2010PropOp30
 70
     1
102
RTVSPost2010Prop31
280
     0
102
RTVSPost2010PropOp31
 70
     1
102
RTVSPost2010Prop32
280
     0
102
RTVSPost2010PropOp32
 70
     1
102
RTVSPost2010Prop33
280
     0
102
RTVSPost2010PropOp33
 70
     1
102
RTVSPost2010Prop34
280
     0
102
RTVSPost2010PropOp34
 70
     1
102
RTVSPost2010Prop35
280
     0
102
RTVSPost2010PropOp35
 70
     1
102
RTVSPost2010Prop36
280
     0
102
RTVSPost2010PropOp36
 70
     1
102
RTVSPost2010Prop37
 90
       50
102
RTVSPost2010PropOp37
 70
     1
102
RTVSPost2010Prop38
140
0.0
102
RTVSPost2010PropOp38
 70
     1
102
RTVSPost2010Prop39
140
1.0
102
RTVSPost2010PropOp39
 70
     1
102
RTVSPost2010Prop40
 90
        0
102
RTVSPost2010PropOp40
 70
     1
102
RTVSPost2010Prop41ColorIndex
 90
       18
102
RTVSPost2010Prop41ColorRGB
 90
        0
102
RTVSPost2010PropOp41
 70
     1
102
RTVSPost2010Prop42
 90
       50
102
RTVSPost2010PropOp42
 70
     1
102
RTVSPost2010Prop43
 90
        3
102
RTVSPost2010PropOp43
 70
     1
102
RTVSPost2010Prop44ColorIndex
 90
        5
102
RTVSPost2010Prop44ColorRGB
 90
      255
102
RTVSPost2010PropOp44
 70
     1
102
RTVSPost2010Prop45
280
     0
102
RTVSPost2010PropOp45
 70
     1
102
RTVSPost2010Prop46
 90
       50
102
RTVSPost2010PropOp46
 70
     1
102
RTVSPost2010Prop47
 90
       50
102
RTVSPost2010PropOp47
 70
     1
102
RTVSPost2010Prop48
 90
       50
102
RTVSPost2010PropOp48
 70
     1
102
RTVSPost2010Prop49
280
     0
102
RTVSPost2010PropOp49
 70
     1
102
RTVSPost2010Prop50
 90
       50
102
RTVSPost2010PropOp50
 70
     1
102
RTVSPost2010Prop51ColorIndex
 90
      256
102
RTVSPost2010Prop51ColorRGB
 90
-16777216
102
RTVSPost2010PropOp51
 70
     0
102
RTVSPost2010Prop52
140
1.0
102
RTVSPost2010PropOp52
 70
     0
102
RTVSPost2010Prop53
 90
        2
102
RTVSPost2010PropOp53
 70
     1
102
RTVSPost2010Prop54
  1
strokes_ogs.tif
102
RTVSPost2010PropOp54
 70
     1
102
RTVSPost2010Prop55
280
     0
102
RTVSPost2010PropOp55
 70
     1
102
RTVSPost2010Prop56
140
1.0
102
RTVSPost2010PropOp56
 70
     1
102
RTVSPost2010Prop57
140
1.0
102
RTVSPost2010PropOp57
 70
     1
102
RTVSPropertyOp0
 70
     1
102
RTVSPropertyOp1
 70
     1
102
RTVSPropertyOp2
 70
     1
102
RTVSPropertyOp3
 70
     1
102
RTVSPropertyOp4
 70
     1
102
RTVSPropertyOp5
 70
     1
102
RTVSPropertyOp6
 70
     1
102
RTVSPropertyOp7
 70
     1
102
RTVSPropertyOp8
 70
     1
102
RTVSPropertyOp9
 70
     1
102
RTVSPropertyOp10
 70
     1
102
RTVSPropertyOp11
 70
     1
102
RTVSPropertyOp12
 70
     1
102
RTVSPropertyOp13
 70
     1
102
RTVSPropertyOp14
 70
     1
102
RTVSPropertyOp15
 70
     1
102
RTVSPropertyOp16
 70
     1
102
RTVSPropertyOp17
 70
     1
102
RTVSPropertyOp18
 70
     1
102
RTVSPropertyOp19
 70
     1
102
RTVSPropertyOp20
 70
     1
102
RTVSPropertyOp21
 70
     1
102
RTVSPropertyOp22
 70
     1
102
RTVSPropertyOp23
 70
     1
102
RTVSPropertyOp24
 70
     1
102
RTVSPropertyOp25
 70
     1
102
RTVSPropertyOp26
 70
     1
102
RTVSPropertyOp27
 70
     1
102
RTVSPropertyOp28
 70
     1
102
RTVSPropertyOp29
 70
     1
102
RTVSPropertyOp30
 70
     1
102
RTVSPropertyOp31
 70
     1
102
RTVSPropertyOp32
 70
     1
102
RTVSPropertyOp33
 70
     1
102
RTVSPropertyOp34
 70
     1
102
RTVSPropertyOp35
 70
     1
102
RTVSPropertyOp36
 70
     1
102
RTVSPropertyOp37
 70
     1
102
RTVSPropertyOp38
 70
     1
102
RTVSPropertyOp39
 70
     1
102
RTVSPropertyOp40
 70
     1
102
RTVSPropertyOp41
 70
     1
102
RTVSPropertyOp42
 70
     1
102
RTVSPropertyOp43
 70
     1
102
RTVSPropertyOp44
 70
     1
102
RTVSPropertyOp45
 70
     1
102
RTVSPropertyOp46
 70
     1
102
RTVSPropertyOp47
 70
     1
102
RTVSPropertyOp48
 70
     1
102
RTVSPropertyOp49
 70
     1
102
RTVSPropertyOp50
 70
     1
102
RTVSPropertyOp51
 70
     0
102
RTVSPropertyOp52
 70
     0
102
RTVSPropertyOp53
 70
     1
102
RTVSPropertyOp54
 70
     1
102
RTVSPropertyOp55
 70
     1
102
RTVSPropertyOp56
 70
     1
102
RTVSPropertyOp57
 70
     1
102
RTVSPropertyOp58
 70
     1
102
RTVSPropertyOp59
 70
     1
102
RTVSPropertyOp60
 70
     1
102
RTVSPropertyOp61
 70
     1
102
RTVSPropertyOp62
 70
     1
  0
XRECORD
  5
16D6D
102
{ACAD_REACTORS
330
16D6C
102
}
330
16D6C
100
AcDbXrecord
280
     1
102
RTVSPost2010Prop28
280
     0
102
RTVSPost2010PropOp28
 70
     1
102
RTVSPost2010Prop29
280
     1
102
RTVSPost2010PropOp29
 70
     1
102
RTVSPost2010Prop30
280
     1
102
RTVSPost2010PropOp30
 70
     1
102
RTVSPost2010Prop31
280
     0
102
RTVSPost2010PropOp31
 70
     1
102
RTVSPost2010Prop32
280
     0
102
RTVSPost2010PropOp32
 70
     1
102
RTVSPost2010Prop33
280
     0
102
RTVSPost2010PropOp33
 70
     1
102
RTVSPost2010Prop34
280
     0
102
RTVSPost2010PropOp34
 70
     1
102
RTVSPost2010Prop35
280
     0
102
RTVSPost2010PropOp35
 70
     1
102
RTVSPost2010Prop36
280
     0
102
RTVSPost2010PropOp36
 70
     1
102
RTVSPost2010Prop37
 90
       50
102
RTVSPost2010PropOp37
 70
     1
102
RTVSPost2010Prop38
140
0.0
102
RTVSPost2010PropOp38
 70
     1
102
RTVSPost2010Prop39
140
1.0
102
RTVSPost2010PropOp39
 70
     1
102
RTVSPost2010Prop40
 90
        0
102
RTVSPost2010PropOp40
 70
     1
102
RTVSPost2010Prop41ColorIndex
 90
       18
102
RTVSPost2010Prop41ColorRGB
 90
        0
102
RTVSPost2010PropOp41
 70
     1
102
RTVSPost2010Prop42
 90
       50
102
RTVSPost2010PropOp42
 70
     1
102
RTVSPost2010Prop43
 90
        3
102
RTVSPost2010PropOp43
 70
     1
102
RTVSPost2010Prop44ColorIndex
 90
        5
102
RTVSPost2010Prop44ColorRGB
 90
      255
102
RTVSPost2010PropOp44
 70
     1
102
RTVSPost2010Prop45
280
     0
102
RTVSPost2010PropOp45
 70
     1
102
RTVSPost2010Prop46
 90
       50
102
RTVSPost2010PropOp46
 70
     1
102
RTVSPost2010Prop47
 90
       50
102
RTVSPost2010PropOp47
 70
     1
102
RTVSPost2010Prop48
 90
       50
102
RTVSPost2010PropOp48
 70
     1
102
RTVSPost2010Prop49
280
     0
102
RTVSPost2010PropOp49
 70
     1
102
RTVSPost2010Prop50
 90
       50
102
RTVSPost2010PropOp50
 70
     1
102
RTVSPost2010Prop51ColorIndex
 90
      256
102
RTVSPost2010Prop51ColorRGB
 90
-16777216
102
RTVSPost2010PropOp51
 70
     0
102
RTVSPost2010Prop52
140
1.0
102
RTVSPost2010PropOp52
 70
     0
102
RTVSPost2010Prop53
 90
        2
102
RTVSPost2010PropOp53
 70
     1
102
RTVSPost2010Prop54
  1
strokes_ogs.tif
102
RTVSPost2010PropOp54
 70
     1
102
RTVSPost2010Prop55
280
     0
102
RTVSPost2010PropOp55
 70
     1
102
RTVSPost2010Prop56
140
1.0
102
RTVSPost2010PropOp56
 70
     1
102
RTVSPost2010Prop57
140
1.0
102
RTVSPost2010PropOp57
 70
     1
102
RTVSPropertyOp0
 70
     1
102
RTVSPropertyOp1
 70
     1
102
RTVSPropertyOp2
 70
     1
102
RTVSPropertyOp3
 70
     1
102
RTVSPropertyOp4
 70
     1
102
RTVSPropertyOp5
 70
     1
102
RTVSPropertyOp6
 70
     1
102
RTVSPropertyOp7
 70
     1
102
RTVSPropertyOp8
 70
     1
102
RTVSPropertyOp9
 70
     1
102
RTVSPropertyOp10
 70
     1
102
RTVSPropertyOp11
 70
     1
102
RTVSPropertyOp12
 70
     1
102
RTVSPropertyOp13
 70
     1
102
RTVSPropertyOp14
 70
     1
102
RTVSPropertyOp15
 70
     1
102
RTVSPropertyOp16
 70
     1
102
RTVSPropertyOp17
 70
     1
102
RTVSPropertyOp18
 70
     1
102
RTVSPropertyOp19
 70
     1
102
RTVSPropertyOp20
 70
     1
102
RTVSPropertyOp21
 70
     1
102
RTVSPropertyOp22
 70
     1
102
RTVSPropertyOp23
 70
     1
102
RTVSPropertyOp24
 70
     1
102
RTVSPropertyOp25
 70
     1
102
RTVSPropertyOp26
 70
     1
102
RTVSPropertyOp27
 70
     1
102
RTVSPropertyOp28
 70
     1
102
RTVSPropertyOp29
 70
     1
102
RTVSPropertyOp30
 70
     1
102
RTVSPropertyOp31
 70
     1
102
RTVSPropertyOp32
 70
     1
102
RTVSPropertyOp33
 70
     1
102
RTVSPropertyOp34
 70
     1
102
RTVSPropertyOp35
 70
     1
102
RTVSPropertyOp36
 70
     1
102
RTVSPropertyOp37
 70
     1
102
RTVSPropertyOp38
 70
     1
102
RTVSPropertyOp39
 70
     1
102
RTVSPropertyOp40
 70
     1
102
RTVSPropertyOp41
 70
     1
102
RTVSPropertyOp42
 70
     1
102
RTVSPropertyOp43
 70
     1
102
RTVSPropertyOp44
 70
     1
102
RTVSPropertyOp45
 70
     1
102
RTVSPropertyOp46
 70
     1
102
RTVSPropertyOp47
 70
     1
102
RTVSPropertyOp48
 70
     1
102
RTVSPropertyOp49
 70
     1
102
RTVSPropertyOp50
 70
     1
102
RTVSPropertyOp51
 70
     0
102
RTVSPropertyOp52
 70
     0
102
RTVSPropertyOp53
 70
     1
102
RTVSPropertyOp54
 70
     1
102
RTVSPropertyOp55
 70
     1
102
RTVSPropertyOp56
 70
     1
102
RTVSPropertyOp57
 70
     1
102
RTVSPropertyOp58
 70
     1
102
RTVSPropertyOp59
 70
     1
102
RTVSPropertyOp60
 70
     1
102
RTVSPropertyOp61
 70
     1
102
RTVSPropertyOp62
 70
     1
  0
XRECORD
  5
16D89
102
{ACAD_REACTORS
330
16D88
102
}
330
16D88
100
AcDbXrecord
280
     1
102
RTVSPost2010Prop28
280
     0
102
RTVSPost2010PropOp28
 70
     0
102
RTVSPost2010Prop29
280
     1
102
RTVSPost2010PropOp29
 70
     0
102
RTVSPost2010Prop30
280
     1
102
RTVSPost2010PropOp30
 70
     0
102
RTVSPost2010Prop31
280
     0
102
RTVSPost2010PropOp31
 70
     0
102
RTVSPost2010Prop32
280
     0
102
RTVSPost2010PropOp32
 70
     0
102
RTVSPost2010Prop33
280
     0
102
RTVSPost2010PropOp33
 70
     0
102
RTVSPost2010Prop34
280
     0
102
RTVSPost2010PropOp34
 70
     0
102
RTVSPost2010Prop35
280
     0
102
RTVSPost2010PropOp35
 70
     0
102
RTVSPost2010Prop36
280
     0
102
RTVSPost2010PropOp36
 70
     0
102
RTVSPost2010Prop37
 90
       50
102
RTVSPost2010PropOp37
 70
     0
102
RTVSPost2010Prop38
140
0.0
102
RTVSPost2010PropOp38
 70
     0
102
RTVSPost2010Prop39
140
1.0
102
RTVSPost2010PropOp39
 70
     0
102
RTVSPost2010Prop40
 90
        0
102
RTVSPost2010PropOp40
 70
     0
102
RTVSPost2010Prop41ColorIndex
 90
       18
102
RTVSPost2010Prop41ColorRGB
 90
        0
102
RTVSPost2010PropOp41
 70
     0
102
RTVSPost2010Prop42
 90
       50
102
RTVSPost2010PropOp42
 70
     0
102
RTVSPost2010Prop43
 90
        3
102
RTVSPost2010PropOp43
 70
     0
102
RTVSPost2010Prop44ColorIndex
 90
        5
102
RTVSPost2010Prop44ColorRGB
 90
      255
102
RTVSPost2010PropOp44
 70
     0
102
RTVSPost2010Prop45
280
     0
102
RTVSPost2010PropOp45
 70
     0
102
RTVSPost2010Prop46
 90
       50
102
RTVSPost2010PropOp46
 70
     0
102
RTVSPost2010Prop47
 90
       50
102
RTVSPost2010PropOp47
 70
     0
102
RTVSPost2010Prop48
 90
       50
102
RTVSPost2010PropOp48
 70
     0
102
RTVSPost2010Prop49
280
     0
102
RTVSPost2010PropOp49
 70
     0
102
RTVSPost2010Prop50
 90
       50
102
RTVSPost2010PropOp50
 70
     0
102
RTVSPost2010Prop51ColorIndex
 90
      256
102
RTVSPost2010Prop51ColorRGB
 90
-16777216
102
RTVSPost2010PropOp51
 70
     0
102
RTVSPost2010Prop52
140
1.0
102
RTVSPost2010PropOp52
 70
     0
102
RTVSPost2010Prop53
 90
        2
102
RTVSPost2010PropOp53
 70
     0
102
RTVSPost2010Prop54
  1
strokes_ogs.tif
102
RTVSPost2010PropOp54
 70
     0
102
RTVSPost2010Prop55
280
     0
102
RTVSPost2010PropOp55
 70
     0
102
RTVSPost2010Prop56
140
1.0
102
RTVSPost2010PropOp56
 70
     0
102
RTVSPost2010Prop57
140
1.0
102
RTVSPost2010PropOp57
 70
     0
102
RTVSPropertyOp0
 70
     0
102
RTVSPropertyOp1
 70
     0
102
RTVSPropertyOp2
 70
     0
102
RTVSPropertyOp3
 70
     0
102
RTVSPropertyOp4
 70
     0
102
RTVSPropertyOp5
 70
     0
102
RTVSPropertyOp6
 70
     0
102
RTVSPropertyOp7
 70
     0
102
RTVSPropertyOp8
 70
     0
102
RTVSPropertyOp9
 70
     0
102
RTVSPropertyOp10
 70
     0
102
RTVSPropertyOp11
 70
     0
102
RTVSPropertyOp12
 70
     0
102
RTVSPropertyOp13
 70
     0
102
RTVSPropertyOp14
 70
     2
102
RTVSPropertyOp15
 70
     0
102
RTVSPropertyOp16
 70
     0
102
RTVSPropertyOp17
 70
     0
102
RTVSPropertyOp18
 70
     0
102
RTVSPropertyOp19
 70
     0
102
RTVSPropertyOp20
 70
     0
102
RTVSPropertyOp21
 70
     0
102
RTVSPropertyOp22
 70
     0
102
RTVSPropertyOp23
 70
     0
102
RTVSPropertyOp24
 70
     0
102
RTVSPropertyOp25
 70
     0
102
RTVSPropertyOp26
 70
     0
102
RTVSPropertyOp27
 70
     0
102
RTVSPropertyOp28
 70
     0
102
RTVSPropertyOp29
 70
     0
102
RTVSPropertyOp30
 70
     0
102
RTVSPropertyOp31
 70
     0
102
RTVSPropertyOp32
 70
     0
102
RTVSPropertyOp33
 70
     0
102
RTVSPropertyOp34
 70
     0
102
RTVSPropertyOp35
 70
     0
102
RTVSPropertyOp36
 70
     0
102
RTVSPropertyOp37
 70
     0
102
RTVSPropertyOp38
 70
     0
102
RTVSPropertyOp39
 70
     0
102
RTVSPropertyOp40
 70
     0
102
RTVSPropertyOp41
 70
     0
102
RTVSPropertyOp42
 70
     0
102
RTVSPropertyOp43
 70
     0
102
RTVSPropertyOp44
 70
     0
102
RTVSPropertyOp45
 70
     0
102
RTVSPropertyOp46
 70
     0
102
RTVSPropertyOp47
 70
     0
102
RTVSPropertyOp48
 70
     0
102
RTVSPropertyOp49
 70
     0
102
RTVSPropertyOp50
 70
     0
102
RTVSPropertyOp51
 70
     0
102
RTVSPropertyOp52
 70
     0
102
RTVSPropertyOp53
 70
     0
102
RTVSPropertyOp54
 70
     0
102
RTVSPropertyOp55
 70
     0
102
RTVSPropertyOp56
 70
     0
102
RTVSPropertyOp57
 70
     0
102
RTVSPropertyOp58
 70
     0
102
RTVSPropertyOp59
 70
     0
102
RTVSPropertyOp60
 70
     0
102
RTVSPropertyOp61
 70
     0
102
RTVSPropertyOp62
 70
     0
  0
XRECORD
  5
16D79
102
{ACAD_REACTORS
330
16D78
102
}
330
16D78
100
AcDbXrecord
280
     1
102
RTVSPost2010Prop28
280
     0
102
RTVSPost2010PropOp28
 70
     1
102
RTVSPost2010Prop29
280
     1
102
RTVSPost2010PropOp29
 70
     1
102
RTVSPost2010Prop30
280
     1
102
RTVSPost2010PropOp30
 70
     1
102
RTVSPost2010Prop31
280
     0
102
RTVSPost2010PropOp31
 70
     1
102
RTVSPost2010Prop32
280
     0
102
RTVSPost2010PropOp32
 70
     1
102
RTVSPost2010Prop33
280
     0
102
RTVSPost2010PropOp33
 70
     1
102
RTVSPost2010Prop34
280
     0
102
RTVSPost2010PropOp34
 70
     1
102
RTVSPost2010Prop35
280
     0
102
RTVSPost2010PropOp35
 70
     1
102
RTVSPost2010Prop36
280
     0
102
RTVSPost2010PropOp36
 70
     1
102
RTVSPost2010Prop37
 90
       50
102
RTVSPost2010PropOp37
 70
     1
102
RTVSPost2010Prop38
140
0.0
102
RTVSPost2010PropOp38
 70
     1
102
RTVSPost2010Prop39
140
1.0
102
RTVSPost2010PropOp39
 70
     1
102
RTVSPost2010Prop40
 90
        0
102
RTVSPost2010PropOp40
 70
     1
102
RTVSPost2010Prop41ColorIndex
 90
       18
102
RTVSPost2010Prop41ColorRGB
 90
        0
102
RTVSPost2010PropOp41
 70
     1
102
RTVSPost2010Prop42
 90
       50
102
RTVSPost2010PropOp42
 70
     1
102
RTVSPost2010Prop43
 90
        3
102
RTVSPost2010PropOp43
 70
     1
102
RTVSPost2010Prop44ColorIndex
 90
        5
102
RTVSPost2010Prop44ColorRGB
 90
      255
102
RTVSPost2010PropOp44
 70
     1
102
RTVSPost2010Prop45
280
     0
102
RTVSPost2010PropOp45
 70
     1
102
RTVSPost2010Prop46
 90
       50
102
RTVSPost2010PropOp46
 70
     1
102
RTVSPost2010Prop47
 90
       50
102
RTVSPost2010PropOp47
 70
     1
102
RTVSPost2010Prop48
 90
       50
102
RTVSPost2010PropOp48
 70
     1
102
RTVSPost2010Prop49
280
     0
102
RTVSPost2010PropOp49
 70
     1
102
RTVSPost2010Prop50
 90
       50
102
RTVSPost2010PropOp50
 70
     1
102
RTVSPost2010Prop51ColorIndex
 90
      256
102
RTVSPost2010Prop51ColorRGB
 90
-16777216
102
RTVSPost2010PropOp51
 70
     0
102
RTVSPost2010Prop52
140
1.0
102
RTVSPost2010PropOp52
 70
     0
102
RTVSPost2010Prop53
 90
        2
102
RTVSPost2010PropOp53
 70
     1
102
RTVSPost2010Prop54
  1
strokes_ogs.tif
102
RTVSPost2010PropOp54
 70
     1
102
RTVSPost2010Prop55
280
     0
102
RTVSPost2010PropOp55
 70
     1
102
RTVSPost2010Prop56
140
1.0
102
RTVSPost2010PropOp56
 70
     1
102
RTVSPost2010Prop57
140
1.0
102
RTVSPost2010PropOp57
 70
     1
102
RTVSPropertyOp0
 70
     1
102
RTVSPropertyOp1
 70
     1
102
RTVSPropertyOp2
 70
     1
102
RTVSPropertyOp3
 70
     1
102
RTVSPropertyOp4
 70
     1
102
RTVSPropertyOp5
 70
     1
102
RTVSPropertyOp6
 70
     1
102
RTVSPropertyOp7
 70
     1
102
RTVSPropertyOp8
 70
     1
102
RTVSPropertyOp9
 70
     1
102
RTVSPropertyOp10
 70
     1
102
RTVSPropertyOp11
 70
     1
102
RTVSPropertyOp12
 70
     1
102
RTVSPropertyOp13
 70
     1
102
RTVSPropertyOp14
 70
     1
102
RTVSPropertyOp15
 70
     1
102
RTVSPropertyOp16
 70
     1
102
RTVSPropertyOp17
 70
     1
102
RTVSPropertyOp18
 70
     1
102
RTVSPropertyOp19
 70
     1
102
RTVSPropertyOp20
 70
     1
102
RTVSPropertyOp21
 70
     1
102
RTVSPropertyOp22
 70
     1
102
RTVSPropertyOp23
 70
     1
102
RTVSPropertyOp24
 70
     1
102
RTVSPropertyOp25
 70
     1
102
RTVSPropertyOp26
 70
     1
102
RTVSPropertyOp27
 70
     1
102
RTVSPropertyOp28
 70
     1
102
RTVSPropertyOp29
 70
     1
102
RTVSPropertyOp30
 70
     1
102
RTVSPropertyOp31
 70
     1
102
RTVSPropertyOp32
 70
     1
102
RTVSPropertyOp33
 70
     1
102
RTVSPropertyOp34
 70
     1
102
RTVSPropertyOp35
 70
     1
102
RTVSPropertyOp36
 70
     1
102
RTVSPropertyOp37
 70
     1
102
RTVSPropertyOp38
 70
     1
102
RTVSPropertyOp39
 70
     1
102
RTVSPropertyOp40
 70
     1
102
RTVSPropertyOp41
 70
     1
102
RTVSPropertyOp42
 70
     1
102
RTVSPropertyOp43
 70
     1
102
RTVSPropertyOp44
 70
     1
102
RTVSPropertyOp45
 70
     1
102
RTVSPropertyOp46
 70
     1
102
RTVSPropertyOp47
 70
     1
102
RTVSPropertyOp48
 70
     1
102
RTVSPropertyOp49
 70
     1
102
RTVSPropertyOp50
 70
     1
102
RTVSPropertyOp51
 70
     0
102
RTVSPropertyOp52
 70
     0
102
RTVSPropertyOp53
 70
     1
102
RTVSPropertyOp54
 70
     1
102
RTVSPropertyOp55
 70
     1
102
RTVSPropertyOp56
 70
     1
102
RTVSPropertyOp57
 70
     1
102
RTVSPropertyOp58
 70
     1
102
RTVSPropertyOp59
 70
     1
102
RTVSPropertyOp60
 70
     1
102
RTVSPropertyOp61
 70
     1
102
RTVSPropertyOp62
 70
     1
  0
XRECORD
  5
16D8B
102
{ACAD_REACTORS
330
16D8A
102
}
330
16D8A
100
AcDbXrecord
280
     1
102
RTVSPost2010Prop28
280
     0
102
RTVSPost2010PropOp28
 70
     0
102
RTVSPost2010Prop29
280
     1
102
RTVSPost2010PropOp29
 70
     0
102
RTVSPost2010Prop30
280
     1
102
RTVSPost2010PropOp30
 70
     0
102
RTVSPost2010Prop31
280
     0
102
RTVSPost2010PropOp31
 70
     0
102
RTVSPost2010Prop32
280
     0
102
RTVSPost2010PropOp32
 70
     0
102
RTVSPost2010Prop33
280
     0
102
RTVSPost2010PropOp33
 70
     0
102
RTVSPost2010Prop34
280
     0
102
RTVSPost2010PropOp34
 70
     0
102
RTVSPost2010Prop35
280
     0
102
RTVSPost2010PropOp35
 70
     0
102
RTVSPost2010Prop36
280
     0
102
RTVSPost2010PropOp36
 70
     0
102
RTVSPost2010Prop37
 90
       50
102
RTVSPost2010PropOp37
 70
     0
102
RTVSPost2010Prop38
140
0.0
102
RTVSPost2010PropOp38
 70
     0
102
RTVSPost2010Prop39
140
1.0
102
RTVSPost2010PropOp39
 70
     0
102
RTVSPost2010Prop40
 90
        0
102
RTVSPost2010PropOp40
 70
     0
102
RTVSPost2010Prop41ColorIndex
 90
       18
102
RTVSPost2010Prop41ColorRGB
 90
        0
102
RTVSPost2010PropOp41
 70
     0
102
RTVSPost2010Prop42
 90
       50
102
RTVSPost2010PropOp42
 70
     0
102
RTVSPost2010Prop43
 90
        3
102
RTVSPost2010PropOp43
 70
     0
102
RTVSPost2010Prop44ColorIndex
 90
        5
102
RTVSPost2010Prop44ColorRGB
 90
      255
102
RTVSPost2010PropOp44
 70
     0
102
RTVSPost2010Prop45
280
     0
102
RTVSPost2010PropOp45
 70
     0
102
RTVSPost2010Prop46
 90
       50
102
RTVSPost2010PropOp46
 70
     0
102
RTVSPost2010Prop47
 90
       50
102
RTVSPost2010PropOp47
 70
     0
102
RTVSPost2010Prop48
 90
       50
102
RTVSPost2010PropOp48
 70
     0
102
RTVSPost2010Prop49
280
     0
102
RTVSPost2010PropOp49
 70
     0
102
RTVSPost2010Prop50
 90
       50
102
RTVSPost2010PropOp50
 70
     0
102
RTVSPost2010Prop51ColorIndex
 90
      256
102
RTVSPost2010Prop51ColorRGB
 90
-16777216
102
RTVSPost2010PropOp51
 70
     0
102
RTVSPost2010Prop52
140
1.0
102
RTVSPost2010PropOp52
 70
     0
102
RTVSPost2010Prop53
 90
        2
102
RTVSPost2010PropOp53
 70
     0
102
RTVSPost2010Prop54
  1
strokes_ogs.tif
102
RTVSPost2010PropOp54
 70
     0
102
RTVSPost2010Prop55
280
     0
102
RTVSPost2010PropOp55
 70
     0
102
RTVSPost2010Prop56
140
1.0
102
RTVSPost2010PropOp56
 70
     0
102
RTVSPost2010Prop57
140
1.0
102
RTVSPost2010PropOp57
 70
     0
102
RTVSPropertyOp0
 70
     0
102
RTVSPropertyOp1
 70
     0
102
RTVSPropertyOp2
 70
     0
102
RTVSPropertyOp3
 70
     0
102
RTVSPropertyOp4
 70
     0
102
RTVSPropertyOp5
 70
     0
102
RTVSPropertyOp6
 70
     0
102
RTVSPropertyOp7
 70
     0
102
RTVSPropertyOp8
 70
     0
102
RTVSPropertyOp9
 70
     0
102
RTVSPropertyOp10
 70
     0
102
RTVSPropertyOp11
 70
     0
102
RTVSPropertyOp12
 70
     0
102
RTVSPropertyOp13
 70
     0
102
RTVSPropertyOp14
 70
     2
102
RTVSPropertyOp15
 70
     0
102
RTVSPropertyOp16
 70
     0
102
RTVSPropertyOp17
 70
     0
102
RTVSPropertyOp18
 70
     0
102
RTVSPropertyOp19
 70
     0
102
RTVSPropertyOp20
 70
     0
102
RTVSPropertyOp21
 70
     0
102
RTVSPropertyOp22
 70
     0
102
RTVSPropertyOp23
 70
     0
102
RTVSPropertyOp24
 70
     0
102
RTVSPropertyOp25
 70
     0
102
RTVSPropertyOp26
 70
     0
102
RTVSPropertyOp27
 70
     0
102
RTVSPropertyOp28
 70
     0
102
RTVSPropertyOp29
 70
     0
102
RTVSPropertyOp30
 70
     0
102
RTVSPropertyOp31
 70
     0
102
RTVSPropertyOp32
 70
     0
102
RTVSPropertyOp33
 70
     0
102
RTVSPropertyOp34
 70
     0
102
RTVSPropertyOp35
 70
     0
102
RTVSPropertyOp36
 70
     0
102
RTVSPropertyOp37
 70
     0
102
RTVSPropertyOp38
 70
     0
102
RTVSPropertyOp39
 70
     0
102
RTVSPropertyOp40
 70
     0
102
RTVSPropertyOp41
 70
     0
102
RTVSPropertyOp42
 70
     0
102
RTVSPropertyOp43
 70
     0
102
RTVSPropertyOp44
 70
     0
102
RTVSPropertyOp45
 70
     0
102
RTVSPropertyOp46
 70
     0
102
RTVSPropertyOp47
 70
     0
102
RTVSPropertyOp48
 70
     0
102
RTVSPropertyOp49
 70
     0
102
RTVSPropertyOp50
 70
     0
102
RTVSPropertyOp51
 70
     0
102
RTVSPropertyOp52
 70
     0
102
RTVSPropertyOp53
 70
     0
102
RTVSPropertyOp54
 70
     0
102
RTVSPropertyOp55
 70
     0
102
RTVSPropertyOp56
 70
     0
102
RTVSPropertyOp57
 70
     0
102
RTVSPropertyOp58
 70
     0
102
RTVSPropertyOp59
 70
     0
102
RTVSPropertyOp60
 70
     0
102
RTVSPropertyOp61
 70
     0
102
RTVSPropertyOp62
 70
     0
  0
XRECORD
  5
16D71
102
{ACAD_REACTORS
330
16D70
102
}
330
16D70
100
AcDbXrecord
280
     1
102
RTVSPost2010Prop28
280
     0
102
RTVSPost2010PropOp28
 70
     1
102
RTVSPost2010Prop29
280
     1
102
RTVSPost2010PropOp29
 70
     1
102
RTVSPost2010Prop30
280
     1
102
RTVSPost2010PropOp30
 70
     1
102
RTVSPost2010Prop31
280
     0
102
RTVSPost2010PropOp31
 70
     1
102
RTVSPost2010Prop32
280
     0
102
RTVSPost2010PropOp32
 70
     1
102
RTVSPost2010Prop33
280
     0
102
RTVSPost2010PropOp33
 70
     1
102
RTVSPost2010Prop34
280
     0
102
RTVSPost2010PropOp34
 70
     1
102
RTVSPost2010Prop35
280
     0
102
RTVSPost2010PropOp35
 70
     1
102
RTVSPost2010Prop36
280
     0
102
RTVSPost2010PropOp36
 70
     1
102
RTVSPost2010Prop37
 90
       50
102
RTVSPost2010PropOp37
 70
     1
102
RTVSPost2010Prop38
140
0.0
102
RTVSPost2010PropOp38
 70
     1
102
RTVSPost2010Prop39
140
1.0
102
RTVSPost2010PropOp39
 70
     1
102
RTVSPost2010Prop40
 90
        0
102
RTVSPost2010PropOp40
 70
     1
102
RTVSPost2010Prop41ColorIndex
 90
       18
102
RTVSPost2010Prop41ColorRGB
 90
        0
102
RTVSPost2010PropOp41
 70
     1
102
RTVSPost2010Prop42
 90
       50
102
RTVSPost2010PropOp42
 70
     1
102
RTVSPost2010Prop43
 90
        3
102
RTVSPost2010PropOp43
 70
     1
102
RTVSPost2010Prop44ColorIndex
 90
        5
102
RTVSPost2010Prop44ColorRGB
 90
      255
102
RTVSPost2010PropOp44
 70
     1
102
RTVSPost2010Prop45
280
     0
102
RTVSPost2010PropOp45
 70
     1
102
RTVSPost2010Prop46
 90
       50
102
RTVSPost2010PropOp46
 70
     1
102
RTVSPost2010Prop47
 90
       50
102
RTVSPost2010PropOp47
 70
     1
102
RTVSPost2010Prop48
 90
       50
102
RTVSPost2010PropOp48
 70
     1
102
RTVSPost2010Prop49
280
     0
102
RTVSPost2010PropOp49
 70
     1
102
RTVSPost2010Prop50
 90
       50
102
RTVSPost2010PropOp50
 70
     1
102
RTVSPost2010Prop51ColorIndex
 90
      256
102
RTVSPost2010Prop51ColorRGB
 90
-16777216
102
RTVSPost2010PropOp51
 70
     0
102
RTVSPost2010Prop52
140
1.0
102
RTVSPost2010PropOp52
 70
     0
102
RTVSPost2010Prop53
 90
        2
102
RTVSPost2010PropOp53
 70
     1
102
RTVSPost2010Prop54
  1
strokes_ogs.tif
102
RTVSPost2010PropOp54
 70
     1
102
RTVSPost2010Prop55
280
     0
102
RTVSPost2010PropOp55
 70
     1
102
RTVSPost2010Prop56
140
1.0
102
RTVSPost2010PropOp56
 70
     1
102
RTVSPost2010Prop57
140
1.0
102
RTVSPost2010PropOp57
 70
     1
102
RTVSPropertyOp0
 70
     1
102
RTVSPropertyOp1
 70
     1
102
RTVSPropertyOp2
 70
     1
102
RTVSPropertyOp3
 70
     1
102
RTVSPropertyOp4
 70
     1
102
RTVSPropertyOp5
 70
     1
102
RTVSPropertyOp6
 70
     1
102
RTVSPropertyOp7
 70
     1
102
RTVSPropertyOp8
 70
     1
102
RTVSPropertyOp9
 70
     1
102
RTVSPropertyOp10
 70
     1
102
RTVSPropertyOp11
 70
     1
102
RTVSPropertyOp12
 70
     1
102
RTVSPropertyOp13
 70
     1
102
RTVSPropertyOp14
 70
     1
102
RTVSPropertyOp15
 70
     1
102
RTVSPropertyOp16
 70
     1
102
RTVSPropertyOp17
 70
     1
102
RTVSPropertyOp18
 70
     1
102
RTVSPropertyOp19
 70
     1
102
RTVSPropertyOp20
 70
     1
102
RTVSPropertyOp21
 70
     1
102
RTVSPropertyOp22
 70
     1
102
RTVSPropertyOp23
 70
     1
102
RTVSPropertyOp24
 70
     1
102
RTVSPropertyOp25
 70
     1
102
RTVSPropertyOp26
 70
     1
102
RTVSPropertyOp27
 70
     1
102
RTVSPropertyOp28
 70
     1
102
RTVSPropertyOp29
 70
     1
102
RTVSPropertyOp30
 70
     1
102
RTVSPropertyOp31
 70
     1
102
RTVSPropertyOp32
 70
     1
102
RTVSPropertyOp33
 70
     1
102
RTVSPropertyOp34
 70
     1
102
RTVSPropertyOp35
 70
     1
102
RTVSPropertyOp36
 70
     1
102
RTVSPropertyOp37
 70
     1
102
RTVSPropertyOp38
 70
     1
102
RTVSPropertyOp39
 70
     1
102
RTVSPropertyOp40
 70
     1
102
RTVSPropertyOp41
 70
     1
102
RTVSPropertyOp42
 70
     1
102
RTVSPropertyOp43
 70
     1
102
RTVSPropertyOp44
 70
     1
102
RTVSPropertyOp45
 70
     1
102
RTVSPropertyOp46
 70
     1
102
RTVSPropertyOp47
 70
     1
102
RTVSPropertyOp48
 70
     1
102
RTVSPropertyOp49
 70
     1
102
RTVSPropertyOp50
 70
     1
102
RTVSPropertyOp51
 70
     0
102
RTVSPropertyOp52
 70
     0
102
RTVSPropertyOp53
 70
     1
102
RTVSPropertyOp54
 70
     1
102
RTVSPropertyOp55
 70
     1
102
RTVSPropertyOp56
 70
     1
102
RTVSPropertyOp57
 70
     1
102
RTVSPropertyOp58
 70
     1
102
RTVSPropertyOp59
 70
     1
102
RTVSPropertyOp60
 70
     1
102
RTVSPropertyOp61
 70
     1
102
RTVSPropertyOp62
 70
     1
  0
XRECORD
  5
16D87
102
{ACAD_REACTORS
330
16D86
102
}
330
16D86
100
AcDbXrecord
280
     1
102
RTVSPost2010Prop28
280
     0
102
RTVSPost2010PropOp28
 70
     1
102
RTVSPost2010Prop29
280
     1
102
RTVSPost2010PropOp29
 70
     1
102
RTVSPost2010Prop30
280
     1
102
RTVSPost2010PropOp30
 70
     1
102
RTVSPost2010Prop31
280
     0
102
RTVSPost2010PropOp31
 70
     1
102
RTVSPost2010Prop32
280
     0
102
RTVSPost2010PropOp32
 70
     1
102
RTVSPost2010Prop33
280
     0
102
RTVSPost2010PropOp33
 70
     1
102
RTVSPost2010Prop34
280
     0
102
RTVSPost2010PropOp34
 70
     1
102
RTVSPost2010Prop35
280
     0
102
RTVSPost2010PropOp35
 70
     1
102
RTVSPost2010Prop36
280
     0
102
RTVSPost2010PropOp36
 70
     1
102
RTVSPost2010Prop37
 90
       50
102
RTVSPost2010PropOp37
 70
     1
102
RTVSPost2010Prop38
140
0.0
102
RTVSPost2010PropOp38
 70
     1
102
RTVSPost2010Prop39
140
1.0
102
RTVSPost2010PropOp39
 70
     1
102
RTVSPost2010Prop40
 90
        0
102
RTVSPost2010PropOp40
 70
     1
102
RTVSPost2010Prop41ColorIndex
 90
       18
102
RTVSPost2010Prop41ColorRGB
 90
        0
102
RTVSPost2010PropOp41
 70
     1
102
RTVSPost2010Prop42
 90
       50
102
RTVSPost2010PropOp42
 70
     1
102
RTVSPost2010Prop43
 90
        3
102
RTVSPost2010PropOp43
 70
     1
102
RTVSPost2010Prop44ColorIndex
 90
        5
102
RTVSPost2010Prop44ColorRGB
 90
      255
102
RTVSPost2010PropOp44
 70
     1
102
RTVSPost2010Prop45
280
     0
102
RTVSPost2010PropOp45
 70
     1
102
RTVSPost2010Prop46
 90
       50
102
RTVSPost2010PropOp46
 70
     1
102
RTVSPost2010Prop47
 90
       50
102
RTVSPost2010PropOp47
 70
     1
102
RTVSPost2010Prop48
 90
       50
102
RTVSPost2010PropOp48
 70
     1
102
RTVSPost2010Prop49
280
     0
102
RTVSPost2010PropOp49
 70
     1
102
RTVSPost2010Prop50
 90
       50
102
RTVSPost2010PropOp50
 70
     1
102
RTVSPost2010Prop51ColorIndex
 90
      256
102
RTVSPost2010Prop51ColorRGB
 90
-16777216
102
RTVSPost2010PropOp51
 70
     0
102
RTVSPost2010Prop52
140
1.0
102
RTVSPost2010PropOp52
 70
     0
102
RTVSPost2010Prop53
 90
        2
102
RTVSPost2010PropOp53
 70
     1
102
RTVSPost2010Prop54
  1
strokes_ogs.tif
102
RTVSPost2010PropOp54
 70
     1
102
RTVSPost2010Prop55
280
     0
102
RTVSPost2010PropOp55
 70
     1
102
RTVSPost2010Prop56
140
1.0
102
RTVSPost2010PropOp56
 70
     1
102
RTVSPost2010Prop57
140
1.0
102
RTVSPost2010PropOp57
 70
     1
102
RTVSPropertyOp0
 70
     1
102
RTVSPropertyOp1
 70
     1
102
RTVSPropertyOp2
 70
     1
102
RTVSPropertyOp3
 70
     1
102
RTVSPropertyOp4
 70
     1
102
RTVSPropertyOp5
 70
     1
102
RTVSPropertyOp6
 70
     1
102
RTVSPropertyOp7
 70
     1
102
RTVSPropertyOp8
 70
     1
102
RTVSPropertyOp9
 70
     1
102
RTVSPropertyOp10
 70
     1
102
RTVSPropertyOp11
 70
     1
102
RTVSPropertyOp12
 70
     1
102
RTVSPropertyOp13
 70
     1
102
RTVSPropertyOp14
 70
     1
102
RTVSPropertyOp15
 70
     1
102
RTVSPropertyOp16
 70
     1
102
RTVSPropertyOp17
 70
     1
102
RTVSPropertyOp18
 70
     1
102
RTVSPropertyOp19
 70
     1
102
RTVSPropertyOp20
 70
     1
102
RTVSPropertyOp21
 70
     1
102
RTVSPropertyOp22
 70
     1
102
RTVSPropertyOp23
 70
     1
102
RTVSPropertyOp24
 70
     1
102
RTVSPropertyOp25
 70
     1
102
RTVSPropertyOp26
 70
     1
102
RTVSPropertyOp27
 70
     1
102
RTVSPropertyOp28
 70
     1
102
RTVSPropertyOp29
 70
     1
102
RTVSPropertyOp30
 70
     1
102
RTVSPropertyOp31
 70
     1
102
RTVSPropertyOp32
 70
     1
102
RTVSPropertyOp33
 70
     1
102
RTVSPropertyOp34
 70
     1
102
RTVSPropertyOp35
 70
     1
102
RTVSPropertyOp36
 70
     1
102
RTVSPropertyOp37
 70
     1
102
RTVSPropertyOp38
 70
     1
102
RTVSPropertyOp39
 70
     1
102
RTVSPropertyOp40
 70
     1
102
RTVSPropertyOp41
 70
     1
102
RTVSPropertyOp42
 70
     1
102
RTVSPropertyOp43
 70
     1
102
RTVSPropertyOp44
 70
     1
102
RTVSPropertyOp45
 70
     1
102
RTVSPropertyOp46
 70
     1
102
RTVSPropertyOp47
 70
     1
102
RTVSPropertyOp48
 70
     1
102
RTVSPropertyOp49
 70
     1
102
RTVSPropertyOp50
 70
     1
102
RTVSPropertyOp51
 70
     0
102
RTVSPropertyOp52
 70
     0
102
RTVSPropertyOp53
 70
     1
102
RTVSPropertyOp54
 70
     1
102
RTVSPropertyOp55
 70
     1
102
RTVSPropertyOp56
 70
     1
102
RTVSPropertyOp57
 70
     1
102
RTVSPropertyOp58
 70
     1
102
RTVSPropertyOp59
 70
     1
102
RTVSPropertyOp60
 70
     1
102
RTVSPropertyOp61
 70
     1
102
RTVSPropertyOp62
 70
     1
  0
XRECORD
  5
16D85
102
{ACAD_REACTORS
330
16D84
102
}
330
16D84
100
AcDbXrecord
280
     1
102
RTVSPost2010Prop28
280
     0
102
RTVSPost2010PropOp28
 70
     1
102
RTVSPost2010Prop29
280
     1
102
RTVSPost2010PropOp29
 70
     1
102
RTVSPost2010Prop30
280
     1
102
RTVSPost2010PropOp30
 70
     1
102
RTVSPost2010Prop31
280
     0
102
RTVSPost2010PropOp31
 70
     1
102
RTVSPost2010Prop32
280
     0
102
RTVSPost2010PropOp32
 70
     1
102
RTVSPost2010Prop33
280
     0
102
RTVSPost2010PropOp33
 70
     1
102
RTVSPost2010Prop34
280
     0
102
RTVSPost2010PropOp34
 70
     1
102
RTVSPost2010Prop35
280
     0
102
RTVSPost2010PropOp35
 70
     1
102
RTVSPost2010Prop36
280
     0
102
RTVSPost2010PropOp36
 70
     1
102
RTVSPost2010Prop37
 90
       50
102
RTVSPost2010PropOp37
 70
     1
102
RTVSPost2010Prop38
140
0.0
102
RTVSPost2010PropOp38
 70
     1
102
RTVSPost2010Prop39
140
1.0
102
RTVSPost2010PropOp39
 70
     1
102
RTVSPost2010Prop40
 90
        0
102
RTVSPost2010PropOp40
 70
     1
102
RTVSPost2010Prop41ColorIndex
 90
       18
102
RTVSPost2010Prop41ColorRGB
 90
        0
102
RTVSPost2010PropOp41
 70
     1
102
RTVSPost2010Prop42
 90
       50
102
RTVSPost2010PropOp42
 70
     1
102
RTVSPost2010Prop43
 90
        3
102
RTVSPost2010PropOp43
 70
     1
102
RTVSPost2010Prop44ColorIndex
 90
        5
102
RTVSPost2010Prop44ColorRGB
 90
      255
102
RTVSPost2010PropOp44
 70
     1
102
RTVSPost2010Prop45
280
     0
102
RTVSPost2010PropOp45
 70
     1
102
RTVSPost2010Prop46
 90
       50
102
RTVSPost2010PropOp46
 70
     1
102
RTVSPost2010Prop47
 90
       50
102
RTVSPost2010PropOp47
 70
     1
102
RTVSPost2010Prop48
 90
       50
102
RTVSPost2010PropOp48
 70
     1
102
RTVSPost2010Prop49
280
     0
102
RTVSPost2010PropOp49
 70
     1
102
RTVSPost2010Prop50
 90
       50
102
RTVSPost2010PropOp50
 70
     1
102
RTVSPost2010Prop51ColorIndex
 90
      256
102
RTVSPost2010Prop51ColorRGB
 90
-16777216
102
RTVSPost2010PropOp51
 70
     0
102
RTVSPost2010Prop52
140
1.0
102
RTVSPost2010PropOp52
 70
     0
102
RTVSPost2010Prop53
 90
        2
102
RTVSPost2010PropOp53
 70
     1
102
RTVSPost2010Prop54
  1
strokes_ogs.tif
102
RTVSPost2010PropOp54
 70
     1
102
RTVSPost2010Prop55
280
     0
102
RTVSPost2010PropOp55
 70
     1
102
RTVSPost2010Prop56
140
1.0
102
RTVSPost2010PropOp56
 70
     1
102
RTVSPost2010Prop57
140
1.0
102
RTVSPost2010PropOp57
 70
     1
102
RTVSPropertyOp0
 70
     1
102
RTVSPropertyOp1
 70
     1
102
RTVSPropertyOp2
 70
     1
102
RTVSPropertyOp3
 70
     1
102
RTVSPropertyOp4
 70
     1
102
RTVSPropertyOp5
 70
     1
102
RTVSPropertyOp6
 70
     1
102
RTVSPropertyOp7
 70
     1
102
RTVSPropertyOp8
 70
     1
102
RTVSPropertyOp9
 70
     1
102
RTVSPropertyOp10
 70
     1
102
RTVSPropertyOp11
 70
     1
102
RTVSPropertyOp12
 70
     1
102
RTVSPropertyOp13
 70
     1
102
RTVSPropertyOp14
 70
     1
102
RTVSPropertyOp15
 70
     1
102
RTVSPropertyOp16
 70
     1
102
RTVSPropertyOp17
 70
     1
102
RTVSPropertyOp18
 70
     1
102
RTVSPropertyOp19
 70
     1
102
RTVSPropertyOp20
 70
     1
102
RTVSPropertyOp21
 70
     1
102
RTVSPropertyOp22
 70
     1
102
RTVSPropertyOp23
 70
     1
102
RTVSPropertyOp24
 70
     1
102
RTVSPropertyOp25
 70
     1
102
RTVSPropertyOp26
 70
     1
102
RTVSPropertyOp27
 70
     1
102
RTVSPropertyOp28
 70
     1
102
RTVSPropertyOp29
 70
     1
102
RTVSPropertyOp30
 70
     1
102
RTVSPropertyOp31
 70
     1
102
RTVSPropertyOp32
 70
     1
102
RTVSPropertyOp33
 70
     1
102
RTVSPropertyOp34
 70
     1
102
RTVSPropertyOp35
 70
     1
102
RTVSPropertyOp36
 70
     1
102
RTVSPropertyOp37
 70
     1
102
RTVSPropertyOp38
 70
     1
102
RTVSPropertyOp39
 70
     1
102
RTVSPropertyOp40
 70
     1
102
RTVSPropertyOp41
 70
     1
102
RTVSPropertyOp42
 70
     1
102
RTVSPropertyOp43
 70
     1
102
RTVSPropertyOp44
 70
     1
102
RTVSPropertyOp45
 70
     1
102
RTVSPropertyOp46
 70
     1
102
RTVSPropertyOp47
 70
     1
102
RTVSPropertyOp48
 70
     1
102
RTVSPropertyOp49
 70
     1
102
RTVSPropertyOp50
 70
     1
102
RTVSPropertyOp51
 70
     0
102
RTVSPropertyOp52
 70
     0
102
RTVSPropertyOp53
 70
     1
102
RTVSPropertyOp54
 70
     1
102
RTVSPropertyOp55
 70
     1
102
RTVSPropertyOp56
 70
     1
102
RTVSPropertyOp57
 70
     1
102
RTVSPropertyOp58
 70
     1
102
RTVSPropertyOp59
 70
     1
102
RTVSPropertyOp60
 70
     1
102
RTVSPropertyOp61
 70
     1
102
RTVSPropertyOp62
 70
     1
  0
XRECORD
  5
16D7F
102
{ACAD_REACTORS
330
16D7E
102
}
330
16D7E
100
AcDbXrecord
280
     1
102
RTVSPost2010Prop28
280
     0
102
RTVSPost2010PropOp28
 70
     1
102
RTVSPost2010Prop29
280
     1
102
RTVSPost2010PropOp29
 70
     1
102
RTVSPost2010Prop30
280
     1
102
RTVSPost2010PropOp30
 70
     1
102
RTVSPost2010Prop31
280
     0
102
RTVSPost2010PropOp31
 70
     1
102
RTVSPost2010Prop32
280
     0
102
RTVSPost2010PropOp32
 70
     1
102
RTVSPost2010Prop33
280
     0
102
RTVSPost2010PropOp33
 70
     1
102
RTVSPost2010Prop34
280
     0
102
RTVSPost2010PropOp34
 70
     1
102
RTVSPost2010Prop35
280
     0
102
RTVSPost2010PropOp35
 70
     1
102
RTVSPost2010Prop36
280
     0
102
RTVSPost2010PropOp36
 70
     1
102
RTVSPost2010Prop37
 90
       50
102
RTVSPost2010PropOp37
 70
     1
102
RTVSPost2010Prop38
140
0.0
102
RTVSPost2010PropOp38
 70
     1
102
RTVSPost2010Prop39
140
1.0
102
RTVSPost2010PropOp39
 70
     1
102
RTVSPost2010Prop40
 90
        0
102
RTVSPost2010PropOp40
 70
     1
102
RTVSPost2010Prop41ColorIndex
 90
       18
102
RTVSPost2010Prop41ColorRGB
 90
        0
102
RTVSPost2010PropOp41
 70
     1
102
RTVSPost2010Prop42
 90
       50
102
RTVSPost2010PropOp42
 70
     1
102
RTVSPost2010Prop43
 90
        3
102
RTVSPost2010PropOp43
 70
     1
102
RTVSPost2010Prop44ColorIndex
 90
        5
102
RTVSPost2010Prop44ColorRGB
 90
      255
102
RTVSPost2010PropOp44
 70
     1
102
RTVSPost2010Prop45
280
     0
102
RTVSPost2010PropOp45
 70
     1
102
RTVSPost2010Prop46
 90
       50
102
RTVSPost2010PropOp46
 70
     1
102
RTVSPost2010Prop47
 90
       50
102
RTVSPost2010PropOp47
 70
     1
102
RTVSPost2010Prop48
 90
       50
102
RTVSPost2010PropOp48
 70
     1
102
RTVSPost2010Prop49
280
     0
102
RTVSPost2010PropOp49
 70
     1
102
RTVSPost2010Prop50
 90
       50
102
RTVSPost2010PropOp50
 70
     1
102
RTVSPost2010Prop51ColorIndex
 90
      256
102
RTVSPost2010Prop51ColorRGB
 90
-16777216
102
RTVSPost2010PropOp51
 70
     0
102
RTVSPost2010Prop52
140
1.0
102
RTVSPost2010PropOp52
 70
     0
102
RTVSPost2010Prop53
 90
        2
102
RTVSPost2010PropOp53
 70
     1
102
RTVSPost2010Prop54
  1
strokes_ogs.tif
102
RTVSPost2010PropOp54
 70
     1
102
RTVSPost2010Prop55
280
     0
102
RTVSPost2010PropOp55
 70
     1
102
RTVSPost2010Prop56
140
1.0
102
RTVSPost2010PropOp56
 70
     1
102
RTVSPost2010Prop57
140
1.0
102
RTVSPost2010PropOp57
 70
     1
102
RTVSPropertyOp0
 70
     1
102
RTVSPropertyOp1
 70
     1
102
RTVSPropertyOp2
 70
     1
102
RTVSPropertyOp3
 70
     1
102
RTVSPropertyOp4
 70
     1
102
RTVSPropertyOp5
 70
     1
102
RTVSPropertyOp6
 70
     1
102
RTVSPropertyOp7
 70
     1
102
RTVSPropertyOp8
 70
     1
102
RTVSPropertyOp9
 70
     1
102
RTVSPropertyOp10
 70
     1
102
RTVSPropertyOp11
 70
     1
102
RTVSPropertyOp12
 70
     1
102
RTVSPropertyOp13
 70
     1
102
RTVSPropertyOp14
 70
     1
102
RTVSPropertyOp15
 70
     1
102
RTVSPropertyOp16
 70
     1
102
RTVSPropertyOp17
 70
     1
102
RTVSPropertyOp18
 70
     1
102
RTVSPropertyOp19
 70
     1
102
RTVSPropertyOp20
 70
     1
102
RTVSPropertyOp21
 70
     1
102
RTVSPropertyOp22
 70
     1
102
RTVSPropertyOp23
 70
     1
102
RTVSPropertyOp24
 70
     1
102
RTVSPropertyOp25
 70
     1
102
RTVSPropertyOp26
 70
     1
102
RTVSPropertyOp27
 70
     1
102
RTVSPropertyOp28
 70
     1
102
RTVSPropertyOp29
 70
     1
102
RTVSPropertyOp30
 70
     1
102
RTVSPropertyOp31
 70
     1
102
RTVSPropertyOp32
 70
     1
102
RTVSPropertyOp33
 70
     1
102
RTVSPropertyOp34
 70
     1
102
RTVSPropertyOp35
 70
     1
102
RTVSPropertyOp36
 70
     1
102
RTVSPropertyOp37
 70
     1
102
RTVSPropertyOp38
 70
     1
102
RTVSPropertyOp39
 70
     1
102
RTVSPropertyOp40
 70
     1
102
RTVSPropertyOp41
 70
     1
102
RTVSPropertyOp42
 70
     1
102
RTVSPropertyOp43
 70
     1
102
RTVSPropertyOp44
 70
     1
102
RTVSPropertyOp45
 70
     1
102
RTVSPropertyOp46
 70
     1
102
RTVSPropertyOp47
 70
     1
102
RTVSPropertyOp48
 70
     1
102
RTVSPropertyOp49
 70
     1
102
RTVSPropertyOp50
 70
     1
102
RTVSPropertyOp51
 70
     0
102
RTVSPropertyOp52
 70
     0
102
RTVSPropertyOp53
 70
     1
102
RTVSPropertyOp54
 70
     1
102
RTVSPropertyOp55
 70
     1
102
RTVSPropertyOp56
 70
     1
102
RTVSPropertyOp57
 70
     1
102
RTVSPropertyOp58
 70
     1
102
RTVSPropertyOp59
 70
     1
102
RTVSPropertyOp60
 70
     1
102
RTVSPropertyOp61
 70
     1
102
RTVSPropertyOp62
 70
     1
  0
XRECORD
  5
16D81
102
{ACAD_REACTORS
330
16D80
102
}
330
16D80
100
AcDbXrecord
280
     1
102
RTVSPost2010Prop28
280
     0
102
RTVSPost2010PropOp28
 70
     1
102
RTVSPost2010Prop29
280
     1
102
RTVSPost2010PropOp29
 70
     1
102
RTVSPost2010Prop30
280
     1
102
RTVSPost2010PropOp30
 70
     1
102
RTVSPost2010Prop31
280
     0
102
RTVSPost2010PropOp31
 70
     1
102
RTVSPost2010Prop32
280
     0
102
RTVSPost2010PropOp32
 70
     1
102
RTVSPost2010Prop33
280
     0
102
RTVSPost2010PropOp33
 70
     1
102
RTVSPost2010Prop34
280
     0
102
RTVSPost2010PropOp34
 70
     1
102
RTVSPost2010Prop35
280
     0
102
RTVSPost2010PropOp35
 70
     1
102
RTVSPost2010Prop36
280
     0
102
RTVSPost2010PropOp36
 70
     1
102
RTVSPost2010Prop37
 90
       50
102
RTVSPost2010PropOp37
 70
     1
102
RTVSPost2010Prop38
140
0.0
102
RTVSPost2010PropOp38
 70
     1
102
RTVSPost2010Prop39
140
1.0
102
RTVSPost2010PropOp39
 70
     1
102
RTVSPost2010Prop40
 90
        0
102
RTVSPost2010PropOp40
 70
     1
102
RTVSPost2010Prop41ColorIndex
 90
       18
102
RTVSPost2010Prop41ColorRGB
 90
        0
102
RTVSPost2010PropOp41
 70
     1
102
RTVSPost2010Prop42
 90
       50
102
RTVSPost2010PropOp42
 70
     1
102
RTVSPost2010Prop43
 90
        3
102
RTVSPost2010PropOp43
 70
     1
102
RTVSPost2010Prop44ColorIndex
 90
        5
102
RTVSPost2010Prop44ColorRGB
 90
      255
102
RTVSPost2010PropOp44
 70
     1
102
RTVSPost2010Prop45
280
     0
102
RTVSPost2010PropOp45
 70
     1
102
RTVSPost2010Prop46
 90
       50
102
RTVSPost2010PropOp46
 70
     1
102
RTVSPost2010Prop47
 90
       50
102
RTVSPost2010PropOp47
 70
     1
102
RTVSPost2010Prop48
 90
       50
102
RTVSPost2010PropOp48
 70
     1
102
RTVSPost2010Prop49
280
     0
102
RTVSPost2010PropOp49
 70
     1
102
RTVSPost2010Prop50
 90
       50
102
RTVSPost2010PropOp50
 70
     1
102
RTVSPost2010Prop51ColorIndex
 90
      256
102
RTVSPost2010Prop51ColorRGB
 90
-16777216
102
RTVSPost2010PropOp51
 70
     0
102
RTVSPost2010Prop52
140
1.0
102
RTVSPost2010PropOp52
 70
     0
102
RTVSPost2010Prop53
 90
        2
102
RTVSPost2010PropOp53
 70
     1
102
RTVSPost2010Prop54
  1
strokes_ogs.tif
102
RTVSPost2010PropOp54
 70
     1
102
RTVSPost2010Prop55
280
     0
102
RTVSPost2010PropOp55
 70
     1
102
RTVSPost2010Prop56
140
1.0
102
RTVSPost2010PropOp56
 70
     1
102
RTVSPost2010Prop57
140
1.0
102
RTVSPost2010PropOp57
 70
     1
102
RTVSPropertyOp0
 70
     1
102
RTVSPropertyOp1
 70
     1
102
RTVSPropertyOp2
 70
     1
102
RTVSPropertyOp3
 70
     1
102
RTVSPropertyOp4
 70
     1
102
RTVSPropertyOp5
 70
     1
102
RTVSPropertyOp6
 70
     1
102
RTVSPropertyOp7
 70
     1
102
RTVSPropertyOp8
 70
     1
102
RTVSPropertyOp9
 70
     1
102
RTVSPropertyOp10
 70
     1
102
RTVSPropertyOp11
 70
     1
102
RTVSPropertyOp12
 70
     1
102
RTVSPropertyOp13
 70
     1
102
RTVSPropertyOp14
 70
     1
102
RTVSPropertyOp15
 70
     1
102
RTVSPropertyOp16
 70
     1
102
RTVSPropertyOp17
 70
     1
102
RTVSPropertyOp18
 70
     1
102
RTVSPropertyOp19
 70
     1
102
RTVSPropertyOp20
 70
     1
102
RTVSPropertyOp21
 70
     1
102
RTVSPropertyOp22
 70
     1
102
RTVSPropertyOp23
 70
     1
102
RTVSPropertyOp24
 70
     1
102
RTVSPropertyOp25
 70
     1
102
RTVSPropertyOp26
 70
     1
102
RTVSPropertyOp27
 70
     1
102
RTVSPropertyOp28
 70
     1
102
RTVSPropertyOp29
 70
     1
102
RTVSPropertyOp30
 70
     1
102
RTVSPropertyOp31
 70
     1
102
RTVSPropertyOp32
 70
     1
102
RTVSPropertyOp33
 70
     1
102
RTVSPropertyOp34
 70
     1
102
RTVSPropertyOp35
 70
     1
102
RTVSPropertyOp36
 70
     1
102
RTVSPropertyOp37
 70
     1
102
RTVSPropertyOp38
 70
     1
102
RTVSPropertyOp39
 70
     1
102
RTVSPropertyOp40
 70
     1
102
RTVSPropertyOp41
 70
     1
102
RTVSPropertyOp42
 70
     1
102
RTVSPropertyOp43
 70
     1
102
RTVSPropertyOp44
 70
     1
102
RTVSPropertyOp45
 70
     1
102
RTVSPropertyOp46
 70
     1
102
RTVSPropertyOp47
 70
     1
102
RTVSPropertyOp48
 70
     1
102
RTVSPropertyOp49
 70
     1
102
RTVSPropertyOp50
 70
     1
102
RTVSPropertyOp51
 70
     0
102
RTVSPropertyOp52
 70
     0
102
RTVSPropertyOp53
 70
     1
102
RTVSPropertyOp54
 70
     1
102
RTVSPropertyOp55
 70
     1
102
RTVSPropertyOp56
 70
     1
102
RTVSPropertyOp57
 70
     1
102
RTVSPropertyOp58
 70
     1
102
RTVSPropertyOp59
 70
     1
102
RTVSPropertyOp60
 70
     1
102
RTVSPropertyOp61
 70
     1
102
RTVSPropertyOp62
 70
     1
  0
XRECORD
  5
16D77
102
{ACAD_REACTORS
330
16D76
102
}
330
16D76
100
AcDbXrecord
280
     1
102
RTVSPost2010Prop28
280
     0
102
RTVSPost2010PropOp28
 70
     1
102
RTVSPost2010Prop29
280
     1
102
RTVSPost2010PropOp29
 70
     1
102
RTVSPost2010Prop30
280
     1
102
RTVSPost2010PropOp30
 70
     1
102
RTVSPost2010Prop31
280
     0
102
RTVSPost2010PropOp31
 70
     1
102
RTVSPost2010Prop32
280
     0
102
RTVSPost2010PropOp32
 70
     1
102
RTVSPost2010Prop33
280
     0
102
RTVSPost2010PropOp33
 70
     1
102
RTVSPost2010Prop34
280
     0
102
RTVSPost2010PropOp34
 70
     1
102
RTVSPost2010Prop35
280
     0
102
RTVSPost2010PropOp35
 70
     1
102
RTVSPost2010Prop36
280
     0
102
RTVSPost2010PropOp36
 70
     1
102
RTVSPost2010Prop37
 90
       50
102
RTVSPost2010PropOp37
 70
     1
102
RTVSPost2010Prop38
140
0.0
102
RTVSPost2010PropOp38
 70
     1
102
RTVSPost2010Prop39
140
1.0
102
RTVSPost2010PropOp39
 70
     1
102
RTVSPost2010Prop40
 90
        0
102
RTVSPost2010PropOp40
 70
     1
102
RTVSPost2010Prop41ColorIndex
 90
       18
102
RTVSPost2010Prop41ColorRGB
 90
        0
102
RTVSPost2010PropOp41
 70
     1
102
RTVSPost2010Prop42
 90
       50
102
RTVSPost2010PropOp42
 70
     1
102
RTVSPost2010Prop43
 90
        3
102
RTVSPost2010PropOp43
 70
     1
102
RTVSPost2010Prop44ColorIndex
 90
        5
102
RTVSPost2010Prop44ColorRGB
 90
      255
102
RTVSPost2010PropOp44
 70
     1
102
RTVSPost2010Prop45
280
     0
102
RTVSPost2010PropOp45
 70
     1
102
RTVSPost2010Prop46
 90
       50
102
RTVSPost2010PropOp46
 70
     1
102
RTVSPost2010Prop47
 90
       50
102
RTVSPost2010PropOp47
 70
     1
102
RTVSPost2010Prop48
 90
       50
102
RTVSPost2010PropOp48
 70
     1
102
RTVSPost2010Prop49
280
     0
102
RTVSPost2010PropOp49
 70
     1
102
RTVSPost2010Prop50
 90
       50
102
RTVSPost2010PropOp50
 70
     1
102
RTVSPost2010Prop51ColorIndex
 90
      256
102
RTVSPost2010Prop51ColorRGB
 90
-16777216
102
RTVSPost2010PropOp51
 70
     0
102
RTVSPost2010Prop52
140
1.0
102
RTVSPost2010PropOp52
 70
     0
102
RTVSPost2010Prop53
 90
        2
102
RTVSPost2010PropOp53
 70
     1
102
RTVSPost2010Prop54
  1
strokes_ogs.tif
102
RTVSPost2010PropOp54
 70
     1
102
RTVSPost2010Prop55
280
     0
102
RTVSPost2010PropOp55
 70
     1
102
RTVSPost2010Prop56
140
1.0
102
RTVSPost2010PropOp56
 70
     1
102
RTVSPost2010Prop57
140
1.0
102
RTVSPost2010PropOp57
 70
     1
102
RTVSPropertyOp0
 70
     1
102
RTVSPropertyOp1
 70
     1
102
RTVSPropertyOp2
 70
     1
102
RTVSPropertyOp3
 70
     1
102
RTVSPropertyOp4
 70
     1
102
RTVSPropertyOp5
 70
     1
102
RTVSPropertyOp6
 70
     1
102
RTVSPropertyOp7
 70
     1
102
RTVSPropertyOp8
 70
     1
102
RTVSPropertyOp9
 70
     1
102
RTVSPropertyOp10
 70
     1
102
RTVSPropertyOp11
 70
     1
102
RTVSPropertyOp12
 70
     1
102
RTVSPropertyOp13
 70
     1
102
RTVSPropertyOp14
 70
     1
102
RTVSPropertyOp15
 70
     1
102
RTVSPropertyOp16
 70
     1
102
RTVSPropertyOp17
 70
     1
102
RTVSPropertyOp18
 70
     1
102
RTVSPropertyOp19
 70
     1
102
RTVSPropertyOp20
 70
     1
102
RTVSPropertyOp21
 70
     1
102
RTVSPropertyOp22
 70
     1
102
RTVSPropertyOp23
 70
     1
102
RTVSPropertyOp24
 70
     1
102
RTVSPropertyOp25
 70
     1
102
RTVSPropertyOp26
 70
     1
102
RTVSPropertyOp27
 70
     1
102
RTVSPropertyOp28
 70
     1
102
RTVSPropertyOp29
 70
     1
102
RTVSPropertyOp30
 70
     1
102
RTVSPropertyOp31
 70
     1
102
RTVSPropertyOp32
 70
     1
102
RTVSPropertyOp33
 70
     1
102
RTVSPropertyOp34
 70
     1
102
RTVSPropertyOp35
 70
     1
102
RTVSPropertyOp36
 70
     1
102
RTVSPropertyOp37
 70
     1
102
RTVSPropertyOp38
 70
     1
102
RTVSPropertyOp39
 70
     1
102
RTVSPropertyOp40
 70
     1
102
RTVSPropertyOp41
 70
     1
102
RTVSPropertyOp42
 70
     1
102
RTVSPropertyOp43
 70
     1
102
RTVSPropertyOp44
 70
     1
102
RTVSPropertyOp45
 70
     1
102
RTVSPropertyOp46
 70
     1
102
RTVSPropertyOp47
 70
     1
102
RTVSPropertyOp48
 70
     1
102
RTVSPropertyOp49
 70
     1
102
RTVSPropertyOp50
 70
     1
102
RTVSPropertyOp51
 70
     0
102
RTVSPropertyOp52
 70
     0
102
RTVSPropertyOp53
 70
     1
102
RTVSPropertyOp54
 70
     1
102
RTVSPropertyOp55
 70
     1
102
RTVSPropertyOp56
 70
     1
102
RTVSPropertyOp57
 70
     1
102
RTVSPropertyOp58
 70
     1
102
RTVSPropertyOp59
 70
     1
102
RTVSPropertyOp60
 70
     1
102
RTVSPropertyOp61
 70
     1
102
RTVSPropertyOp62
 70
     1
  0
XRECORD
  5
16D6B
102
{ACAD_REACTORS
330
16D6A
102
}
330
16D6A
100
AcDbXrecord
280
     1
102
RTVSPost2010Prop28
280
     0
102
RTVSPost2010PropOp28
 70
     1
102
RTVSPost2010Prop29
280
     1
102
RTVSPost2010PropOp29
 70
     1
102
RTVSPost2010Prop30
280
     1
102
RTVSPost2010PropOp30
 70
     1
102
RTVSPost2010Prop31
280
     0
102
RTVSPost2010PropOp31
 70
     1
102
RTVSPost2010Prop32
280
     0
102
RTVSPost2010PropOp32
 70
     1
102
RTVSPost2010Prop33
280
     0
102
RTVSPost2010PropOp33
 70
     1
102
RTVSPost2010Prop34
280
     0
102
RTVSPost2010PropOp34
 70
     1
102
RTVSPost2010Prop35
280
     0
102
RTVSPost2010PropOp35
 70
     1
102
RTVSPost2010Prop36
280
     0
102
RTVSPost2010PropOp36
 70
     1
102
RTVSPost2010Prop37
 90
       50
102
RTVSPost2010PropOp37
 70
     1
102
RTVSPost2010Prop38
140
0.0
102
RTVSPost2010PropOp38
 70
     1
102
RTVSPost2010Prop39
140
1.0
102
RTVSPost2010PropOp39
 70
     1
102
RTVSPost2010Prop40
 90
        0
102
RTVSPost2010PropOp40
 70
     1
102
RTVSPost2010Prop41ColorIndex
 90
       18
102
RTVSPost2010Prop41ColorRGB
 90
        0
102
RTVSPost2010PropOp41
 70
     1
102
RTVSPost2010Prop42
 90
       50
102
RTVSPost2010PropOp42
 70
     1
102
RTVSPost2010Prop43
 90
        3
102
RTVSPost2010PropOp43
 70
     1
102
RTVSPost2010Prop44ColorIndex
 90
        5
102
RTVSPost2010Prop44ColorRGB
 90
      255
102
RTVSPost2010PropOp44
 70
     1
102
RTVSPost2010Prop45
280
     0
102
RTVSPost2010PropOp45
 70
     1
102
RTVSPost2010Prop46
 90
       50
102
RTVSPost2010PropOp46
 70
     1
102
RTVSPost2010Prop47
 90
       50
102
RTVSPost2010PropOp47
 70
     1
102
RTVSPost2010Prop48
 90
       50
102
RTVSPost2010PropOp48
 70
     1
102
RTVSPost2010Prop49
280
     0
102
RTVSPost2010PropOp49
 70
     1
102
RTVSPost2010Prop50
 90
       50
102
RTVSPost2010PropOp50
 70
     1
102
RTVSPost2010Prop51ColorIndex
 90
      256
102
RTVSPost2010Prop51ColorRGB
 90
-16777216
102
RTVSPost2010PropOp51
 70
     0
102
RTVSPost2010Prop52
140
1.0
102
RTVSPost2010PropOp52
 70
     0
102
RTVSPost2010Prop53
 90
        2
102
RTVSPost2010PropOp53
 70
     1
102
RTVSPost2010Prop54
  1
strokes_ogs.tif
102
RTVSPost2010PropOp54
 70
     1
102
RTVSPost2010Prop55
280
     0
102
RTVSPost2010PropOp55
 70
     1
102
RTVSPost2010Prop56
140
1.0
102
RTVSPost2010PropOp56
 70
     1
102
RTVSPost2010Prop57
140
1.0
102
RTVSPost2010PropOp57
 70
     1
102
RTVSPropertyOp0
 70
     1
102
RTVSPropertyOp1
 70
     1
102
RTVSPropertyOp2
 70
     1
102
RTVSPropertyOp3
 70
     1
102
RTVSPropertyOp4
 70
     1
102
RTVSPropertyOp5
 70
     1
102
RTVSPropertyOp6
 70
     1
102
RTVSPropertyOp7
 70
     1
102
RTVSPropertyOp8
 70
     1
102
RTVSPropertyOp9
 70
     1
102
RTVSPropertyOp10
 70
     1
102
RTVSPropertyOp11
 70
     1
102
RTVSPropertyOp12
 70
     1
102
RTVSPropertyOp13
 70
     1
102
RTVSPropertyOp14
 70
     1
102
RTVSPropertyOp15
 70
     1
102
RTVSPropertyOp16
 70
     1
102
RTVSPropertyOp17
 70
     1
102
RTVSPropertyOp18
 70
     1
102
RTVSPropertyOp19
 70
     1
102
RTVSPropertyOp20
 70
     1
102
RTVSPropertyOp21
 70
     1
102
RTVSPropertyOp22
 70
     1
102
RTVSPropertyOp23
 70
     1
102
RTVSPropertyOp24
 70
     1
102
RTVSPropertyOp25
 70
     1
102
RTVSPropertyOp26
 70
     1
102
RTVSPropertyOp27
 70
     1
102
RTVSPropertyOp28
 70
     1
102
RTVSPropertyOp29
 70
     1
102
RTVSPropertyOp30
 70
     1
102
RTVSPropertyOp31
 70
     1
102
RTVSPropertyOp32
 70
     1
102
RTVSPropertyOp33
 70
     1
102
RTVSPropertyOp34
 70
     1
102
RTVSPropertyOp35
 70
     1
102
RTVSPropertyOp36
 70
     1
102
RTVSPropertyOp37
 70
     1
102
RTVSPropertyOp38
 70
     1
102
RTVSPropertyOp39
 70
     1
102
RTVSPropertyOp40
 70
     1
102
RTVSPropertyOp41
 70
     1
102
RTVSPropertyOp42
 70
     1
102
RTVSPropertyOp43
 70
     1
102
RTVSPropertyOp44
 70
     1
102
RTVSPropertyOp45
 70
     1
102
RTVSPropertyOp46
 70
     1
102
RTVSPropertyOp47
 70
     1
102
RTVSPropertyOp48
 70
     1
102
RTVSPropertyOp49
 70
     1
102
RTVSPropertyOp50
 70
     1
102
RTVSPropertyOp51
 70
     0
102
RTVSPropertyOp52
 70
     0
102
RTVSPropertyOp53
 70
     1
102
RTVSPropertyOp54
 70
     1
102
RTVSPropertyOp55
 70
     1
102
RTVSPropertyOp56
 70
     1
102
RTVSPropertyOp57
 70
     1
102
RTVSPropertyOp58
 70
     1
102
RTVSPropertyOp59
 70
     1
102
RTVSPropertyOp60
 70
     1
102
RTVSPropertyOp61
 70
     1
102
RTVSPropertyOp62
 70
     1
  0
XRECORD
  5
16D83
102
{ACAD_REACTORS
330
16D82
102
}
330
16D82
100
AcDbXrecord
280
     1
102
RTVSPost2010Prop28
280
     0
102
RTVSPost2010PropOp28
 70
     1
102
RTVSPost2010Prop29
280
     1
102
RTVSPost2010PropOp29
 70
     1
102
RTVSPost2010Prop30
280
     1
102
RTVSPost2010PropOp30
 70
     1
102
RTVSPost2010Prop31
280
     0
102
RTVSPost2010PropOp31
 70
     1
102
RTVSPost2010Prop32
280
     0
102
RTVSPost2010PropOp32
 70
     1
102
RTVSPost2010Prop33
280
     0
102
RTVSPost2010PropOp33
 70
     1
102
RTVSPost2010Prop34
280
     0
102
RTVSPost2010PropOp34
 70
     1
102
RTVSPost2010Prop35
280
     0
102
RTVSPost2010PropOp35
 70
     1
102
RTVSPost2010Prop36
280
     0
102
RTVSPost2010PropOp36
 70
     1
102
RTVSPost2010Prop37
 90
       50
102
RTVSPost2010PropOp37
 70
     1
102
RTVSPost2010Prop38
140
0.0
102
RTVSPost2010PropOp38
 70
     1
102
RTVSPost2010Prop39
140
1.0
102
RTVSPost2010PropOp39
 70
     1
102
RTVSPost2010Prop40
 90
        0
102
RTVSPost2010PropOp40
 70
     1
102
RTVSPost2010Prop41ColorIndex
 90
       18
102
RTVSPost2010Prop41ColorRGB
 90
        0
102
RTVSPost2010PropOp41
 70
     1
102
RTVSPost2010Prop42
 90
       50
102
RTVSPost2010PropOp42
 70
     1
102
RTVSPost2010Prop43
 90
        3
102
RTVSPost2010PropOp43
 70
     1
102
RTVSPost2010Prop44ColorIndex
 90
        5
102
RTVSPost2010Prop44ColorRGB
 90
      255
102
RTVSPost2010PropOp44
 70
     1
102
RTVSPost2010Prop45
280
     0
102
RTVSPost2010PropOp45
 70
     1
102
RTVSPost2010Prop46
 90
       50
102
RTVSPost2010PropOp46
 70
     1
102
RTVSPost2010Prop47
 90
       50
102
RTVSPost2010PropOp47
 70
     1
102
RTVSPost2010Prop48
 90
       50
102
RTVSPost2010PropOp48
 70
     1
102
RTVSPost2010Prop49
280
     0
102
RTVSPost2010PropOp49
 70
     1
102
RTVSPost2010Prop50
 90
       50
102
RTVSPost2010PropOp50
 70
     1
102
RTVSPost2010Prop51ColorIndex
 90
      256
102
RTVSPost2010Prop51ColorRGB
 90
-16777216
102
RTVSPost2010PropOp51
 70
     0
102
RTVSPost2010Prop52
140
1.0
102
RTVSPost2010PropOp52
 70
     0
102
RTVSPost2010Prop53
 90
        2
102
RTVSPost2010PropOp53
 70
     1
102
RTVSPost2010Prop54
  1
strokes_ogs.tif
102
RTVSPost2010PropOp54
 70
     1
102
RTVSPost2010Prop55
280
     0
102
RTVSPost2010PropOp55
 70
     1
102
RTVSPost2010Prop56
140
1.0
102
RTVSPost2010PropOp56
 70
     1
102
RTVSPost2010Prop57
140
1.0
102
RTVSPost2010PropOp57
 70
     1
102
RTVSPropertyOp0
 70
     1
102
RTVSPropertyOp1
 70
     1
102
RTVSPropertyOp2
 70
     1
102
RTVSPropertyOp3
 70
     1
102
RTVSPropertyOp4
 70
     1
102
RTVSPropertyOp5
 70
     1
102
RTVSPropertyOp6
 70
     1
102
RTVSPropertyOp7
 70
     1
102
RTVSPropertyOp8
 70
     1
102
RTVSPropertyOp9
 70
     1
102
RTVSPropertyOp10
 70
     1
102
RTVSPropertyOp11
 70
     1
102
RTVSPropertyOp12
 70
     1
102
RTVSPropertyOp13
 70
     1
102
RTVSPropertyOp14
 70
     1
102
RTVSPropertyOp15
 70
     1
102
RTVSPropertyOp16
 70
     1
102
RTVSPropertyOp17
 70
     1
102
RTVSPropertyOp18
 70
     1
102
RTVSPropertyOp19
 70
     1
102
RTVSPropertyOp20
 70
     1
102
RTVSPropertyOp21
 70
     1
102
RTVSPropertyOp22
 70
     1
102
RTVSPropertyOp23
 70
     1
102
RTVSPropertyOp24
 70
     1
102
RTVSPropertyOp25
 70
     1
102
RTVSPropertyOp26
 70
     1
102
RTVSPropertyOp27
 70
     1
102
RTVSPropertyOp28
 70
     1
102
RTVSPropertyOp29
 70
     1
102
RTVSPropertyOp30
 70
     1
102
RTVSPropertyOp31
 70
     1
102
RTVSPropertyOp32
 70
     1
102
RTVSPropertyOp33
 70
     1
102
RTVSPropertyOp34
 70
     1
102
RTVSPropertyOp35
 70
     1
102
RTVSPropertyOp36
 70
     1
102
RTVSPropertyOp37
 70
     1
102
RTVSPropertyOp38
 70
     1
102
RTVSPropertyOp39
 70
     1
102
RTVSPropertyOp40
 70
     1
102
RTVSPropertyOp41
 70
     1
102
RTVSPropertyOp42
 70
     1
102
RTVSPropertyOp43
 70
     1
102
RTVSPropertyOp44
 70
     1
102
RTVSPropertyOp45
 70
     1
102
RTVSPropertyOp46
 70
     1
102
RTVSPropertyOp47
 70
     1
102
RTVSPropertyOp48
 70
     1
102
RTVSPropertyOp49
 70
     1
102
RTVSPropertyOp50
 70
     1
102
RTVSPropertyOp51
 70
     0
102
RTVSPropertyOp52
 70
     0
102
RTVSPropertyOp53
 70
     1
102
RTVSPropertyOp54
 70
     1
102
RTVSPropertyOp55
 70
     1
102
RTVSPropertyOp56
 70
     1
102
RTVSPropertyOp57
 70
     1
102
RTVSPropertyOp58
 70
     1
102
RTVSPropertyOp59
 70
     1
102
RTVSPropertyOp60
 70
     1
102
RTVSPropertyOp61
 70
     1
102
RTVSPropertyOp62
 70
     1
  0
ENDSEC
  0
EOF
