  0
SECTION
  2
HEADER
  9
$ACADVER
  1
AC1015
  9
$ACADMAINTVER
 70
    20
  9
$DWGCODEPAGE
  3
ANSI_932
  9
$INSBASE
 10
0.0
 20
0.0
 30
0.0
  9
$EXTMIN
 10
3648.229837623372
 20
-33326.1375962191
 30
0.0
  9
$EXTMAX
 10
15773.62984490618
 20
-24768.9375962191
 30
0.0
  9
$LIMMIN
 10
0.0
 20
0.0
  9
$LIMMAX
 10
21000.0
 20
14850.0
  9
$ORTHOMODE
 70
     0
  9
$REGENMODE
 70
     1
  9
$FILLMODE
 70
     1
  9
$QTEXTMODE
 70
     0
  9
$MIRRTEXT
 70
     1
  9
$LTSCALE
 40
20.0
  9
$ATTMODE
 70
     1
  9
$TEXTSIZE
 40
100.0
  9
$TRACEWID
 40
1.0
  9
$TEXTSTYLE
  7
STYLE3
  9
$CLAYER
  8
寸法
  9
$CELTYPE
  6
BYLAYER
  9
$CECOLOR
 62
   256
  9
$CELTSCALE
 40
50.0
  9
$DISPSILH
 70
     0
  9
$DIMSCALE
 40
30.0
  9
$DIMASZ
 40
2.5
  9
$DIMEXO
 40
0.5
  9
$DIMDLI
 40
7.0
  9
$DIMRND
 40
0.0
  9
$DIMDLE
 40
0.0
  9
$DIMEXE
 40
1.5
  9
$DIMTP
 40
0.0
  9
$DIMTM
 40
0.0
  9
$DIMTXT
 40
3.0
  9
$DIMCEN
 40
0.0
  9
$DIMTSZ
 40
0.0
  9
$DIMTOL
 70
     0
  9
$DIMLIM
 70
     0
  9
$DIMTIH
 70
     0
  9
$DIMTOH
 70
     0
  9
$DIMSE1
 70
     0
  9
$DIMSE2
 70
     0
  9
$DIMTAD
 70
     3
  9
$DIMZIN
 70
     8
  9
$DIMBLK
  1

  9
$DIMASO
 70
     1
  9
$DIMSHO
 70
     1
  9
$DIMPOST
  1

  9
$DIMAPOST
  1

  9
$DIMALT
 70
     0
  9
$DIMALTD
 70
     2
  9
$DIMALTF
 40
0.0394
  9
$DIMLFAC
 40
1.0
  9
$DIMTOFL
 70
     1
  9
$DIMTVP
 40
0.0
  9
$DIMTIX
 70
     1
  9
$DIMSOXD
 70
     1
  9
$DIMSAH
 70
     1
  9
$DIMBLK1
  1
DOTSMALL
  9
$DIMBLK2
  1
DOTSMALL
  9
$DIMSTYLE
  2
INABA_S30G
  9
$DIMCLRD
 70
     0
  9
$DIMCLRE
 70
     0
  9
$DIMCLRT
 70
     7
  9
$DIMTFAC
 40
1.0
  9
$DIMGAP
 40
1.0
  9
$DIMJUST
 70
     0
  9
$DIMSD1
 70
     0
  9
$DIMSD2
 70
     0
  9
$DIMTOLJ
 70
     1
  9
$DIMTZIN
 70
     0
  9
$DIMALTZ
 70
     0
  9
$DIMALTTZ
 70
     0
  9
$DIMUPT
 70
     0
  9
$DIMDEC
 70
     1
  9
$DIMTDEC
 70
     4
  9
$DIMALTU
 70
     2
  9
$DIMALTTD
 70
     2
  9
$DIMTXSTY
  7
STYLE1
  9
$DIMAUNIT
 70
     0
  9
$DIMADEC
 70
     0
  9
$DIMALTRND
 40
0.0
  9
$DIMAZIN
 70
     0
  9
$DIMDSEP
 70
    46
  9
$DIMATFIT
 70
     3
  9
$DIMFRAC
 70
     0
  9
$DIMLDRBLK
  1
DOTSMALL
  9
$DIMLUNIT
 70
     2
  9
$DIMLWD
 70
    -2
  9
$DIMLWE
 70
    -2
  9
$DIMTMOVE
 70
     0
  9
$LUNITS
 70
     2
  9
$LUPREC
 70
     1
  9
$SKETCHINC
 40
1.0
  9
$FILLETRAD
 40
0.0
  9
$AUNITS
 70
     0
  9
$AUPREC
 70
     0
  9
$MENU
  1
acad
  9
$ELEVATION
 40
0.0
  9
$PELEVATION
 40
0.0
  9
$THICKNESS
 40
0.0
  9
$LIMCHECK
 70
     0
  9
$CHAMFERA
 40
0.0
  9
$CHAMFERB
 40
0.0
  9
$CHAMFERC
 40
0.0
  9
$CHAMFERD
 40
0.0
  9
$SKPOLY
 70
     0
  9
$TDCREATE
 40
2451802.696345833
  9
$TDUCREATE
 40
2451802.321345833
  9
$TDUPDATE
 40
2455813.722984121
  9
$TDUUPDATE
 40
2455813.347984120
  9
$TDINDWG
 40
1.6380696065
  9
$TDUSRTIMER
 40
1.6380696065
  9
$USRTIMER
 70
     1
  9
$ANGBASE
 50
0.0
  9
$ANGDIR
 70
     0
  9
$PDMODE
 70
     3
  9
$PDSIZE
 40
2.0
  9
$PLINEWID
 40
0.0
  9
$SPLFRAME
 70
     0
  9
$SPLINETYPE
 70
     6
  9
$SPLINESEGS
 70
     8
  9
$HANDSEED
  5
35B45
  9
$SURFTAB1
 70
     6
  9
$SURFTAB2
 70
     6
  9
$SURFTYPE
 70
     6
  9
$SURFU
 70
     6
  9
$SURFV
 70
     6
  9
$UCSBASE
  2

  9
$UCSNAME
  2

  9
$UCSORG
 10
0.0
 20
0.0
 30
0.0
  9
$UCSXDIR
 10
1.0
 20
0.0
 30
0.0
  9
$UCSYDIR
 10
0.0
 20
1.0
 30
0.0
  9
$UCSORTHOREF
  2

  9
$UCSORTHOVIEW
 70
     0
  9
$UCSORGTOP
 10
0.0
 20
0.0
 30
0.0
  9
$UCSORGBOTTOM
 10
0.0
 20
0.0
 30
0.0
  9
$UCSORGLEFT
 10
0.0
 20
0.0
 30
0.0
  9
$UCSORGRIGHT
 10
0.0
 20
0.0
 30
0.0
  9
$UCSORGFRONT
 10
0.0
 20
0.0
 30
0.0
  9
$UCSORGBACK
 10
0.0
 20
0.0
 30
0.0
  9
$PUCSBASE
  2

  9
$PUCSNAME
  2

  9
$PUCSORG
 10
0.0
 20
0.0
 30
0.0
  9
$PUCSXDIR
 10
1.0
 20
0.0
 30
0.0
  9
$PUCSYDIR
 10
0.0
 20
1.0
 30
0.0
  9
$PUCSORTHOREF
  2

  9
$PUCSORTHOVIEW
 70
     0
  9
$PUCSORGTOP
 10
0.0
 20
0.0
 30
0.0
  9
$PUCSORGBOTTOM
 10
0.0
 20
0.0
 30
0.0
  9
$PUCSORGLEFT
 10
0.0
 20
0.0
 30
0.0
  9
$PUCSORGRIGHT
 10
0.0
 20
0.0
 30
0.0
  9
$PUCSORGFRONT
 10
0.0
 20
0.0
 30
0.0
  9
$PUCSORGBACK
 10
0.0
 20
0.0
 30
0.0
  9
$USERI1
 70
     0
  9
$USERI2
 70
     0
  9
$USERI3
 70
     0
  9
$USERI4
 70
     0
  9
$USERI5
 70
     0
  9
$USERR1
 40
0.0
  9
$USERR2
 40
0.0
  9
$USERR3
 40
0.0
  9
$USERR4
 40
0.0
  9
$USERR5
 40
0.0
  9
$WORLDVIEW
 70
     1
  9
$SHADEDGE
 70
     3
  9
$SHADEDIF
 70
    70
  9
$TILEMODE
 70
     1
  9
$MAXACTVP
 70
    16
  9
$PINSBASE
 10
0.0
 20
0.0
 30
0.0
  9
$PLIMCHECK
 70
     0
  9
$PEXTMIN
 10
1.000000000000000E+20
 20
1.000000000000000E+20
 30
1.000000000000000E+20
  9
$PEXTMAX
 10
-1.000000000000000E+20
 20
-1.000000000000000E+20
 30
-1.000000000000000E+20
  9
$PLIMMIN
 10
0.0
 20
0.0
  9
$PLIMMAX
 10
420.0
 20
297.0
  9
$UNITMODE
 70
     0
  9
$VISRETAIN
 70
     0
  9
$PLINEGEN
 70
     0
  9
$PSLTSCALE
 70
     0
  9
$TREEDEPTH
 70
  3020
  9
$CMLSTYLE
  2
STANDARD
  9
$CMLJUST
 70
     0
  9
$CMLSCALE
 40
1.0
  9
$PROXYGRAPHICS
 70
     1
  9
$MEASUREMENT
 70
     1
  9
$CELWEIGHT
370
    -1
  9
$ENDCAPS
280
     0
  9
$JOINSTYLE
280
     0
  9
$LWDISPLAY
290
     0
  9
$INSUNITS
 70
     0
  9
$HYPERLINKBASE
  1

  9
$STYLESHEET
  1
ACA3.ctb
  9
$XEDIT
290
     1
  9
$CEPSNTYPE
380
     0
  9
$PSTYLEMODE
290
     1
  9
$FINGERPRINTGUID
  2
{DAFEAD6E-FF36-46F8-92D6-F05F9FF2CF3B}
  9
$VERSIONGUID
  2
{3159E704-4EB1-4F97-B2BA-403C384B8E2E}
  9
$EXTNAMES
290
     1
  9
$PSVPSCALE
 40
0.0
  9
$OLESTARTUP
290
     0
  0
ENDSEC
  0
SECTION
  2
CLASSES
  0
CLASS
  1
ACDBDICTIONARYWDFLT
  2
AcDbDictionaryWithDefault
  3
ObjectDBX Classes
 90
        0
280
     0
281
     0
  0
CLASS
  1
DICTIONARYVAR
  2
AcDbDictionaryVar
  3
ObjectDBX Classes
 90
        0
280
     0
281
     0
  0
CLASS
  1
ACDBPLACEHOLDER
  2
AcDbPlaceHolder
  3
ObjectDBX Classes
 90
        0
280
     0
281
     0
  0
CLASS
  1
LAYOUT
  2
AcDbLayout
  3
ObjectDBX Classes
 90
        0
280
     0
281
     0
  0
ENDSEC
  0
SECTION
  2
TABLES
  0
TABLE
  2
VPORT
  5
746D
330
0
100
AcDbSymbolTable
 70
     2
  0
VPORT
  5
35B3D
330
746D
100
AcDbSymbolTableRecord
100
AcDbViewportTableRecord
  2
*Active
 70
     0
 10
0.0
 20
0.0
 11
1.0
 21
1.0
 12
10797.16413874068
 22
-29046.43588883219
 13
0.0
 23
0.0
 14
10.0
 24
10.0
 15
10.0
 25
10.0
 16
0.0
 26
0.0
 36
1.0
 17
0.0
 27
0.0
 37
0.0
 40
8624.680882612404
 41
1.778877887788778
 42
50.0
 43
0.0
 44
0.0
 50
0.0
 51
0.0
 71
     0
 72
     0
 73
     1
 74
     0
 75
     0
 76
     0
 77
     0
 78
     1
281
     0
 65
     1
110
0.0
120
0.0
130
0.0
111
1.0
121
0.0
131
0.0
112
0.0
122
1.0
132
0.0
 79
     0
146
0.0
  0
ENDTAB
  0
TABLE
  2
LTYPE
  5
746A
330
0
100
AcDbSymbolTable
 70
     3
  0
LTYPE
  5
7477
330
746A
100
AcDbSymbolTableRecord
100
AcDbLinetypeTableRecord
  2
BYBLOCK
 70
     0
  3

 72
    65
 73
     0
 40
0.0
  0
LTYPE
  5
7478
330
746A
100
AcDbSymbolTableRecord
100
AcDbLinetypeTableRecord
  2
BYLAYER
 70
     0
  3

 72
    65
 73
     0
 40
0.0
  0
LTYPE
  5
7479
330
746A
100
AcDbSymbolTableRecord
100
AcDbLinetypeTableRecord
  2
CONTINUOUS
 70
     0
  3
Solid line
 72
    65
 73
     0
 40
0.0
  0
LTYPE
  5
7816
330
746A
100
AcDbSymbolTableRecord
100
AcDbLinetypeTableRecord
  2
CENTER
 70
     0
  3
____ _ ____ _ ____ _ ____ _ ____ _ ____ _ ____ 
 72
    65
 73
     4
 40
2.0
 49
1.25
 74
     0
 49
-0.25
 74
     0
 49
0.25
 74
     0
 49
-0.25
 74
     0
  0
LTYPE
  5
781B
330
746A
100
AcDbSymbolTableRecord
100
AcDbLinetypeTableRecord
  2
PHANTOM
 70
     0
  3
______  __  __  ______  __  __  ______  __  __ 
 72
    65
 73
     6
 40
2.5
 49
1.25
 74
     0
 49
-0.25
 74
     0
 49
0.25
 74
     0
 49
-0.25
 74
     0
 49
0.25
 74
     0
 49
-0.25
 74
     0
  0
ENDTAB
  0
TABLE
  2
LAYER
  5
7467
102
{ACAD_XDICTIONARY
360
11827
102
}
330
0
100
AcDbSymbolTable
 70
    13
  0
LAYER
  5
7474
330
7467
100
AcDbSymbolTableRecord
100
AcDbLayerTableRecord
  2
0
 70
     0
 62
     7
  6
CONTINUOUS
370
    -3
390
11752
  0
LAYER
  5
DEB2
330
7467
100
AcDbSymbolTableRecord
100
AcDbLayerTableRecord
  2
センター
 70
     0
 62
     3
  6
CENTER
370
    -3
390
11752
  0
LAYER
  5
DEB3
330
7467
100
AcDbSymbolTableRecord
100
AcDbLayerTableRecord
  2
寸法
 70
     0
 62
     4
  6
CONTINUOUS
370
    -3
390
11752
  0
LAYER
  5
DEB4
330
7467
100
AcDbSymbolTableRecord
100
AcDbLayerTableRecord
  2
部品1
 70
     0
 62
     7
  6
CONTINUOUS
370
    -3
390
11752
  0
LAYER
  5
DEB5
330
7467
100
AcDbSymbolTableRecord
100
AcDbLayerTableRecord
  2
補助
 70
     0
 62
    -1
  6
CONTINUOUS
370
    -3
390
11752
  0
LAYER
  5
DEB6
330
7467
100
AcDbSymbolTableRecord
100
AcDbLayerTableRecord
  2
文字
 70
     0
 62
     7
  6
CONTINUOUS
370
    -3
390
11752
  0
LAYER
  5
F255
330
7467
100
AcDbSymbolTableRecord
100
AcDbLayerTableRecord
  2
DEFPOINTS
 70
     0
 62
     7
  6
CONTINUOUS
290
     0
370
    -3
390
11752
  0
LAYER
  5
10B54
330
7467
100
AcDbSymbolTableRecord
100
AcDbLayerTableRecord
  2
仕様書枠
 70
     0
 62
   230
  6
CONTINUOUS
370
    -3
390
11752
  0
LAYER
  5
11729
330
7467
100
AcDbSymbolTableRecord
100
AcDbLayerTableRecord
  2
Ｇ．Ｌ
 70
     0
 62
    30
  6
CONTINUOUS
370
    -3
390
11752
  0
LAYER
  5
1173F
330
7467
100
AcDbSymbolTableRecord
100
AcDbLayerTableRecord
  2
細線
 70
     0
 62
     5
  6
CONTINUOUS
370
    -3
390
11752
  0
LAYER
  5
1F38A
330
7467
100
AcDbSymbolTableRecord
100
AcDbLayerTableRecord
  2
U7
 70
     0
 62
     2
  6
CONTINUOUS
370
    -3
390
11752
  0
LAYER
  5
20750
330
7467
100
AcDbSymbolTableRecord
100
AcDbLayerTableRecord
  2
KIN-T
 70
     0
 62
     3
  6
CONTINUOUS
370
    -3
390
11752
  0
LAYER
  5
35AE2
330
7467
100
AcDbSymbolTableRecord
100
AcDbLayerTableRecord
  2
想像線
 70
     0
 62
     6
  6
PHANTOM
370
    -3
390
11752
  0
ENDTAB
  0
TABLE
  2
STYLE
  5
7468
330
0
100
AcDbSymbolTable
 70
     4
  0
STYLE
  5
7475
330
7468
100
AcDbSymbolTableRecord
100
AcDbTextStyleTableRecord
  2
STANDARD
 70
     0
 40
0.0
 41
1.0
 50
0.0
 71
     0
 42
4.0
  3
txt
  4
C:\AutoCAD LT\bigfont.shx
  0
STYLE
  5
F706
330
7468
100
AcDbSymbolTableRecord
100
AcDbTextStyleTableRecord
  2
STYLE1
 70
     0
 40
0.0
 41
1.0
 50
0.0
 71
     0
 42
4.0
  3
isocp.shx
  4
bigfont.shx
  0
STYLE
  5
103BF
330
7468
100
AcDbSymbolTableRecord
100
AcDbTextStyleTableRecord
  2
STYLE2
 70
     0
 40
0.0
 41
1.0
 50
0.0
 71
     0
 42
100.0
  3
MS PGothic.ttf
  4

1001
ACAD
1000
MS PGothic
1071
    32818
  0
STYLE
  5
10BAA
330
7468
100
AcDbSymbolTableRecord
100
AcDbTextStyleTableRecord
  2
STYLE3
 70
     0
 40
0.0
 41
1.0
 50
0.0
 71
     0
 42
100.0
  3
DFPGothic-EB.ttf
  4

1001
ACAD
1000
DFPGothic-EB
1071
    32818
  0
ENDTAB
  0
TABLE
  2
VIEW
  5
746B
330
0
100
AcDbSymbolTable
 70
     0
  0
ENDTAB
  0
TABLE
  2
UCS
  5
746C
330
0
100
AcDbSymbolTable
 70
     0
  0
ENDTAB
  0
TABLE
  2
APPID
  5
746E
330
0
100
AcDbSymbolTable
 70
     8
  0
APPID
  5
7476
330
746E
100
AcDbSymbolTableRecord
100
AcDbRegAppTableRecord
  2
ACAD
 70
     0
  0
APPID
  5
DEA9
330
746E
100
AcDbSymbolTableRecord
100
AcDbRegAppTableRecord
  2
CONTENTBLOCKICON
 70
     0
  0
APPID
  5
DEAA
330
746E
100
AcDbSymbolTableRecord
100
AcDbRegAppTableRecord
  2
CONTENTBLOCKDESCRIPTION
 70
     0
  0
APPID
  5
E71D
330
746E
100
AcDbSymbolTableRecord
100
AcDbRegAppTableRecord
  2
CONTENTTABDATA
 70
     0
  0
APPID
  5
E71E
330
746E
100
AcDbSymbolTableRecord
100
AcDbRegAppTableRecord
  2
CONTENTCURRENTTAB
 70
     0
  0
APPID
  5
F3BA
330
746E
100
AcDbSymbolTableRecord
100
AcDbRegAppTableRecord
  2
DRAWINGVARIABLESXDATA
 70
     0
  0
APPID
  5
1F3A5
330
746E
100
AcDbSymbolTableRecord
100
AcDbRegAppTableRecord
  2
AUTOCAD_POSTSCRIPT_FIGURE
 70
     0
  0
APPID
  5
27B11
330
746E
100
AcDbSymbolTableRecord
100
AcDbRegAppTableRecord
  2
AcDbBlockRepETag
 70
     0
  0
ENDTAB
  0
TABLE
  2
DIMSTYLE
  5
746F
330
0
100
AcDbSymbolTable
 70
     2
100
AcDbDimStyleTable
 71
     1
340
13D04
  0
DIMSTYLE
105
13D04
102
{ACAD_REACTORS
330
2B923
330
2B91F
330
2B91E
330
2B91D
330
2B8B7
330
2B8B6
330
2B8B5
330
2B8B4
330
2B8B3
330
2B8B2
330
2B8B1
330
2B8AB
330
2B8A1
330
2B8A0
330
2B89F
330
2B89E
330
2B89D
330
2BD8D
330
2B8B0
330
352BF
330
352C0
330
352C1
330
35371
330
35372
330
35373
330
35374
330
35375
330
35376
330
35B11
102
}
330
746F
100
AcDbSymbolTableRecord
100
AcDbDimStyleTableRecord
  2
INABA_S30G
 70
     0
 40
30.0
 41
2.5
 42
0.5
 43
7.0
 44
1.5
 73
     0
 74
     0
 77
     3
 78
     8
140
3.0
141
0.0
143
0.0394
147
1.0
172
     1
173
     1
174
     1
175
     1
178
     7
271
     1
340
F706
341
F770
343
F770
344
F770
  0
DIMSTYLE
105
2503A
330
746F
100
AcDbSymbolTableRecord
100
AcDbDimStyleTableRecord
  2
Standard
 70
     0
340
7475
  0
ENDTAB
  0
TABLE
  2
BLOCK_RECORD
  5
7466
330
0
100
AcDbSymbolTable
 70
    30
  0
BLOCK_RECORD
  5
747D
330
7466
100
AcDbSymbolTableRecord
100
AcDbBlockTableRecord
  2
*MODEL_SPACE
340
11757
  0
BLOCK_RECORD
  5
747A
330
7466
100
AcDbSymbolTableRecord
100
AcDbBlockTableRecord
  2
*PAPER_SPACE
340
11758
  0
BLOCK_RECORD
  5
F770
330
7466
100
AcDbSymbolTableRecord
100
AcDbBlockTableRecord
  2
_DOTSMALL
340
0
102
{BLKREFS
331
35982
331
35983
331
35993
331
35994
331
3599D
331
3599E
331
359A6
331
359A7
331
359B6
331
359B7
331
359BF
331
359C0
331
359C8
331
359C9
331
359D8
331
359D9
331
359E1
331
359E2
331
359EA
331
359EB
331
359F3
331
359F4
331
359FC
331
359FD
331
35A05
331
35A06
331
35A0E
331
35A0F
331
35A17
331
35A18
331
35A20
331
35A21
331
35A29
331
35A2A
331
35A34
331
35A35
331
35A3D
331
35A3E
331
35A46
331
35A47
331
35A50
331
35A51
331
35A5A
331
35A5B
331
35A6C
331
35A6D
331
35A75
331
35A76
331
35B2A
331
35B2B
102
}
  0
BLOCK_RECORD
  5
2B937
330
7466
100
AcDbSymbolTableRecord
100
AcDbBlockTableRecord
  2
*D1
340
0
  0
BLOCK_RECORD
  5
2B967
330
7466
100
AcDbSymbolTableRecord
100
AcDbBlockTableRecord
  2
*D2
340
0
  0
BLOCK_RECORD
  5
2B974
330
7466
100
AcDbSymbolTableRecord
100
AcDbBlockTableRecord
  2
*D3
340
0
  0
BLOCK_RECORD
  5
2B981
330
7466
100
AcDbSymbolTableRecord
100
AcDbBlockTableRecord
  2
*D4
340
0
  0
BLOCK_RECORD
  5
2BA4F
330
7466
100
AcDbSymbolTableRecord
100
AcDbBlockTableRecord
  2
*D5
340
0
  0
BLOCK_RECORD
  5
2BA59
330
7466
100
AcDbSymbolTableRecord
100
AcDbBlockTableRecord
  2
*D6
340
0
  0
BLOCK_RECORD
  5
2BA65
330
7466
100
AcDbSymbolTableRecord
100
AcDbBlockTableRecord
  2
*D7
340
0
  0
BLOCK_RECORD
  5
2BA71
330
7466
100
AcDbSymbolTableRecord
100
AcDbBlockTableRecord
  2
*D8
340
0
  0
BLOCK_RECORD
  5
2BA7D
330
7466
100
AcDbSymbolTableRecord
100
AcDbBlockTableRecord
  2
*D9
340
0
  0
BLOCK_RECORD
  5
2BA87
330
7466
100
AcDbSymbolTableRecord
100
AcDbBlockTableRecord
  2
*D10
340
0
  0
BLOCK_RECORD
  5
2BA93
330
7466
100
AcDbSymbolTableRecord
100
AcDbBlockTableRecord
  2
*D11
340
0
  0
BLOCK_RECORD
  5
2BA9F
330
7466
100
AcDbSymbolTableRecord
100
AcDbBlockTableRecord
  2
*D12
340
0
  0
BLOCK_RECORD
  5
2BAAB
330
7466
100
AcDbSymbolTableRecord
100
AcDbBlockTableRecord
  2
*D13
340
0
  0
BLOCK_RECORD
  5
2BAB7
330
7466
100
AcDbSymbolTableRecord
100
AcDbBlockTableRecord
  2
*D14
340
0
  0
BLOCK_RECORD
  5
2BAC3
330
7466
100
AcDbSymbolTableRecord
100
AcDbBlockTableRecord
  2
*D15
340
0
  0
BLOCK_RECORD
  5
2BACF
330
7466
100
AcDbSymbolTableRecord
100
AcDbBlockTableRecord
  2
*D16
340
0
  0
BLOCK_RECORD
  5
2BADB
330
7466
100
AcDbSymbolTableRecord
100
AcDbBlockTableRecord
  2
*D17
340
0
  0
BLOCK_RECORD
  5
2BAE7
330
7466
100
AcDbSymbolTableRecord
100
AcDbBlockTableRecord
  2
*D18
340
0
  0
BLOCK_RECORD
  5
2BD8E
330
7466
100
AcDbSymbolTableRecord
100
AcDbBlockTableRecord
  2
*D19
340
0
  0
BLOCK_RECORD
  5
35404
330
7466
100
AcDbSymbolTableRecord
100
AcDbBlockTableRecord
  2
*D20
340
0
  0
BLOCK_RECORD
  5
35410
330
7466
100
AcDbSymbolTableRecord
100
AcDbBlockTableRecord
  2
*D21
340
0
  0
BLOCK_RECORD
  5
3541E
330
7466
100
AcDbSymbolTableRecord
100
AcDbBlockTableRecord
  2
*D22
340
0
  0
BLOCK_RECORD
  5
35428
330
7466
100
AcDbSymbolTableRecord
100
AcDbBlockTableRecord
  2
*D23
340
0
  0
BLOCK_RECORD
  5
35435
330
7466
100
AcDbSymbolTableRecord
100
AcDbBlockTableRecord
  2
*D24
340
0
  0
BLOCK_RECORD
  5
35442
330
7466
100
AcDbSymbolTableRecord
100
AcDbBlockTableRecord
  2
*D25
340
0
  0
BLOCK_RECORD
  5
3544E
330
7466
100
AcDbSymbolTableRecord
100
AcDbBlockTableRecord
  2
*D26
340
0
  0
BLOCK_RECORD
  5
3545A
330
7466
100
AcDbSymbolTableRecord
100
AcDbBlockTableRecord
  2
*D27
340
0
  0
BLOCK_RECORD
  5
35468
330
7466
100
AcDbSymbolTableRecord
100
AcDbBlockTableRecord
  2
*D28
340
0
  0
BLOCK_RECORD
  5
35B12
330
7466
100
AcDbSymbolTableRecord
100
AcDbBlockTableRecord
  2
*D29
340
0
  0
ENDTAB
  0
ENDSEC
  0
SECTION
  2
BLOCKS
  0
BLOCK
  5
7489
330
747D
100
AcDbEntity
  8
0
100
AcDbBlockBegin
  2
*MODEL_SPACE
 70
     0
 10
0.0
 20
0.0
 30
0.0
  3
*MODEL_SPACE
  1

  0
ENDBLK
  5
748A
330
747D
100
AcDbEntity
  8
0
100
AcDbBlockEnd
  0
BLOCK
  5
7487
330
747A
100
AcDbEntity
 67
     1
  8
0
100
AcDbBlockBegin
  2
*PAPER_SPACE
 70
     0
 10
0.0
 20
0.0
 30
0.0
  3
*PAPER_SPACE
  1

  0
ENDBLK
  5
7488
330
747A
100
AcDbEntity
 67
     1
  8
0
100
AcDbBlockEnd
  0
BLOCK
  5
F771
330
F770
100
AcDbEntity
  8
0
 48
50.0
100
AcDbBlockBegin
  2
_DOTSMALL
 70
     0
 10
0.0
 20
0.0
 30
0.0
  3
_DOTSMALL
  1

  0
LWPOLYLINE
  5
F772
330
F770
100
AcDbEntity
  8
0
  6
ByBlock
 62
     0
 48
50.0
100
AcDbPolyline
 90
        2
 70
     1
 43
0.5
 10
-0.0625
 20
0.0
 42
1.0
 10
0.0625
 20
0.0
 42
1.0
  0
ENDBLK
  5
F776
330
F770
100
AcDbEntity
  8
0
 48
50.0
100
AcDbBlockEnd
  0
BLOCK
  5
2B93F
330
2B937
100
AcDbEntity
  8
0
 48
50.0
100
AcDbBlockBegin
  2
*D1
 70
     1
 10
0.0
 20
0.0
 30
0.0
  3
*D1
  1

  0
LINE
  5
35988
330
2B937
100
AcDbEntity
  8
寸法
 62
     0
 48
50.0
370
    -2
100
AcDbLine
 10
5311.476407838385
 20
-29995.65356941935
 30
0.0
 11
5311.476407838385
 21
-30491.14128775588
 31
0.0
  0
LINE
  5
35989
330
2B937
100
AcDbEntity
  8
寸法
 62
     0
 48
50.0
370
    -2
100
AcDbLine
 10
5141.476407838341
 20
-30132.65356941935
 30
0.0
 11
5141.476407838341
 21
-30491.14128775588
 31
0.0
  0
LINE
  5
3598A
330
2B937
100
AcDbEntity
  8
寸法
 62
     0
 48
50.0
370
    -2
100
AcDbLine
 10
5311.476407838385
 20
-30446.14128775588
 30
0.0
 11
5141.476407838341
 21
-30446.14128775588
 31
0.0
  0
MTEXT
  5
3598B
330
2B937
100
AcDbEntity
  8
寸法
 62
     7
 48
50.0
100
AcDbMText
 10
5226.476407838363
 20
-30371.14128775588
 30
0.0
 40
90.0
 41
0.0
 71
     5
 72
     1
  1
\A1;170
  7
STYLE1
 73
     1
 44
1.0
1001
ACAD
1000
MTEXTBEGIN
1070
    73
1070
     1
1070
    44
1040
1.0
1070
    74
1070
     0
1000
MTEXTEND
  0
POINT
  5
3598C
330
2B937
100
AcDbEntity
  8
DEFPOINTS
 62
     0
 48
50.0
100
AcDbPoint
 10
5311.476407838385
 20
-29980.65356941935
 30
0.0
  0
POINT
  5
3598D
330
2B937
100
AcDbEntity
  8
DEFPOINTS
 62
     0
 48
50.0
100
AcDbPoint
 10
5141.476407838341
 20
-30117.65356941935
 30
0.0
  0
POINT
  5
3598E
330
2B937
100
AcDbEntity
  8
DEFPOINTS
 62
     0
 48
50.0
100
AcDbPoint
 10
5141.476407838341
 20
-30446.14128775588
 30
0.0
  0
ENDBLK
  5
2B940
330
2B937
100
AcDbEntity
  8
0
 48
50.0
100
AcDbBlockEnd
  0
BLOCK
  5
2B972
330
2B967
100
AcDbEntity
  8
0
 48
50.0
100
AcDbBlockBegin
  2
*D2
 70
     1
 10
0.0
 20
0.0
 30
0.0
  3
*D2
  1

  0
LINE
  5
3598F
330
2B967
100
AcDbEntity
  8
寸法
 62
     0
 48
50.0
370
    -2
100
AcDbLine
 10
10586.47640783829
 20
-29980.65356941935
 30
0.0
 11
11168.75063020195
 21
-29980.65356941935
 31
0.0
  0
LINE
  5
35990
330
2B967
100
AcDbEntity
  8
寸法
 62
     0
 48
50.0
370
    -2
100
AcDbLine
 10
10756.47640783834
 20
-30117.65356941935
 30
0.0
 11
11168.75063020195
 21
-30117.65356941935
 31
0.0
  0
LINE
  5
35991
330
2B967
100
AcDbEntity
  8
寸法
 62
     0
 48
50.0
370
    -2
100
AcDbLine
 10
11123.75063020195
 20
-29980.65356941935
 30
0.0
 11
11123.75063020195
 21
-30117.65356941935
 31
0.0
  0
LINE
  5
35992
330
2B967
100
AcDbEntity
  8
寸法
 62
     0
 48
50.0
370
    -2
100
AcDbLine
 10
11123.75063020195
 20
-30117.65356941935
 30
0.0
 11
11123.75063020195
 21
-30396.65356941935
 31
0.0
  0
INSERT
  5
35993
330
2B967
100
AcDbEntity
  8
寸法
 62
     0
 48
50.0
370
    -2
100
AcDbBlockReference
  2
_DOTSMALL
 10
11123.75063020195
 20
-29980.65356941935
 30
0.0
 41
75.0
 42
75.0
 43
75.0
 50
90.0
  0
INSERT
  5
35994
330
2B967
100
AcDbEntity
  8
寸法
 62
     0
 48
50.0
370
    -2
100
AcDbBlockReference
  2
_DOTSMALL
 10
11123.75063020195
 20
-30117.65356941935
 30
0.0
 41
75.0
 42
75.0
 43
75.0
 50
270.0
  0
MTEXT
  5
35995
330
2B967
100
AcDbEntity
  8
寸法
 62
     7
 48
50.0
100
AcDbMText
 10
11048.75063020195
 20
-30294.65356941935
 30
0.0
 40
90.0
 41
0.0
 71
     5
 72
     1
  1
\A1;137
  7
STYLE1
 11
0.0000000000000001
 21
1.0
 31
0.0
 73
     1
 44
1.0
1001
ACAD
1000
MTEXTBEGIN
1070
    73
1070
     1
1070
    44
1040
1.0
1070
    74
1070
     0
1000
MTEXTEND
  0
POINT
  5
35996
330
2B967
100
AcDbEntity
  8
DEFPOINTS
 62
     0
 48
50.0
100
AcDbPoint
 10
10571.47640783829
 20
-29980.65356941935
 30
0.0
  0
POINT
  5
35997
330
2B967
100
AcDbEntity
  8
DEFPOINTS
 62
     0
 48
50.0
100
AcDbPoint
 10
10741.47640783833
 20
-30117.65356941935
 30
0.0
  0
POINT
  5
35998
330
2B967
100
AcDbEntity
  8
DEFPOINTS
 62
     0
 48
50.0
100
AcDbPoint
 10
11123.75063020195
 20
-30117.65356941935
 30
0.0
  0
ENDBLK
  5
2B973
330
2B967
100
AcDbEntity
  8
0
 48
50.0
100
AcDbBlockEnd
  0
BLOCK
  5
2B97F
330
2B974
100
AcDbEntity
  8
0
 48
50.0
100
AcDbBlockBegin
  2
*D3
 70
     1
 10
0.0
 20
0.0
 30
0.0
  3
*D3
  1

  0
LINE
  5
35999
330
2B974
100
AcDbEntity
  8
寸法
 62
     0
 48
50.0
370
    -2
100
AcDbLine
 10
10586.47640783829
 20
-27960.65356941935
 30
0.0
 11
11168.75063020196
 21
-27960.65356941935
 31
0.0
  0
LINE
  5
3599A
330
2B974
100
AcDbEntity
  8
寸法
 62
     0
 48
50.0
370
    -2
100
AcDbLine
 10
10756.47640783834
 20
-27817.65356941936
 30
0.0
 11
11168.75063020196
 21
-27817.65356941936
 31
0.0
  0
LINE
  5
3599B
330
2B974
100
AcDbEntity
  8
寸法
 62
     0
 48
50.0
370
    -2
100
AcDbLine
 10
11123.75063020196
 20
-27960.65356941935
 30
0.0
 11
11123.75063020196
 21
-27817.65356941936
 31
0.0
  0
LINE
  5
3599C
330
2B974
100
AcDbEntity
  8
寸法
 62
     0
 48
50.0
370
    -2
100
AcDbLine
 10
11123.75063020196
 20
-27817.65356941936
 30
0.0
 11
11123.75063020196
 21
-27525.925647358
 31
0.0
  0
INSERT
  5
3599D
330
2B974
100
AcDbEntity
  8
寸法
 62
     0
 48
50.0
370
    -2
100
AcDbBlockReference
  2
_DOTSMALL
 10
11123.75063020196
 20
-27960.65356941935
 30
0.0
 41
75.0
 42
75.0
 43
75.0
 50
270.0
  0
INSERT
  5
3599E
330
2B974
100
AcDbEntity
  8
寸法
 62
     0
 48
50.0
370
    -2
100
AcDbBlockReference
  2
_DOTSMALL
 10
11123.75063020196
 20
-27817.65356941936
 30
0.0
 41
75.0
 42
75.0
 43
75.0
 50
90.0
  0
MTEXT
  5
3599F
330
2B974
100
AcDbEntity
  8
寸法
 62
     7
 48
50.0
100
AcDbMText
 10
11048.75063020197
 20
-27634.28960838867
 30
0.0
 40
90.0
 41
0.0
 71
     5
 72
     1
  1
\A1;143
  7
STYLE1
 11
0.0000000000000001
 21
1.0
 31
0.0
 73
     1
 44
1.0
1001
ACAD
1000
MTEXTBEGIN
1070
    73
1070
     1
1070
    44
1040
1.0
1070
    74
1070
     0
1000
MTEXTEND
  0
POINT
  5
359A0
330
2B974
100
AcDbEntity
  8
DEFPOINTS
 62
     0
 48
50.0
100
AcDbPoint
 10
10571.47640783829
 20
-27960.65356941935
 30
0.0
  0
POINT
  5
359A1
330
2B974
100
AcDbEntity
  8
DEFPOINTS
 62
     0
 48
50.0
100
AcDbPoint
 10
10741.47640783833
 20
-27817.65356941936
 30
0.0
  0
POINT
  5
359A2
330
2B974
100
AcDbEntity
  8
DEFPOINTS
 62
     0
 48
50.0
100
AcDbPoint
 10
11123.75063020196
 20
-27817.65356941936
 30
0.0
  0
ENDBLK
  5
2B980
330
2B974
100
AcDbEntity
  8
0
 48
50.0
100
AcDbBlockEnd
  0
BLOCK
  5
2B98B
330
2B981
100
AcDbEntity
  8
0
 48
50.0
100
AcDbBlockBegin
  2
*D4
 70
     1
 10
0.0
 20
0.0
 30
0.0
  3
*D4
  1

  0
LINE
  5
359A3
330
2B981
100
AcDbEntity
  8
寸法
 62
     0
 48
50.0
370
    -2
100
AcDbLine
 10
10586.47640783829
 20
-27960.65356941935
 30
0.0
 11
11168.75063020195
 21
-27960.65356941935
 31
0.0
  0
LINE
  5
359A4
330
2B981
100
AcDbEntity
  8
寸法
 62
     0
 48
50.0
370
    -2
100
AcDbLine
 10
10586.47640783829
 20
-29980.65356941935
 30
0.0
 11
11168.75063020195
 21
-29980.65356941935
 31
0.0
  0
LINE
  5
359A5
330
2B981
100
AcDbEntity
  8
寸法
 62
     0
 48
50.0
370
    -2
100
AcDbLine
 10
11123.75063020195
 20
-27960.65356941935
 30
0.0
 11
11123.75063020195
 21
-29980.65356941935
 31
0.0
  0
INSERT
  5
359A6
330
2B981
100
AcDbEntity
  8
寸法
 62
     0
 48
50.0
370
    -2
100
AcDbBlockReference
  2
_DOTSMALL
 10
11123.75063020195
 20
-27960.65356941935
 30
0.0
 41
75.0
 42
75.0
 43
75.0
 50
90.0
  0
INSERT
  5
359A7
330
2B981
100
AcDbEntity
  8
寸法
 62
     0
 48
50.0
370
    -2
100
AcDbBlockReference
  2
_DOTSMALL
 10
11123.75063020195
 20
-29980.65356941935
 30
0.0
 41
75.0
 42
75.0
 43
75.0
 50
270.0
  0
MTEXT
  5
359A8
330
2B981
100
AcDbEntity
  8
寸法
 62
     7
 48
50.0
100
AcDbMText
 10
11048.74177193424
 20
-28970.65356941935
 30
0.0
 40
90.0
 41
0.0
 71
     5
 72
     1
  1
\A1;屋根寸法 2020
  7
STYLE1
 11
0.0000000000000001
 21
1.0
 31
0.0
 73
     1
 44
1.0
1001
ACAD
1000
MTEXTBEGIN
1070
    73
1070
     1
1070
    44
1040
1.0
1070
    74
1070
     0
1000
MTEXTEND
  0
POINT
  5
359A9
330
2B981
100
AcDbEntity
  8
DEFPOINTS
 62
     0
 48
50.0
100
AcDbPoint
 10
10571.47640783829
 20
-27960.65356941935
 30
0.0
  0
POINT
  5
359AA
330
2B981
100
AcDbEntity
  8
DEFPOINTS
 62
     0
 48
50.0
100
AcDbPoint
 10
10571.47640783829
 20
-29980.65356941935
 30
0.0
  0
POINT
  5
359AB
330
2B981
100
AcDbEntity
  8
DEFPOINTS
 62
     0
 48
50.0
100
AcDbPoint
 10
11123.75063020195
 20
-29980.65356941935
 30
0.0
  0
ENDBLK
  5
2B98C
330
2B981
100
AcDbEntity
  8
0
 48
50.0
100
AcDbBlockEnd
  0
BLOCK
  5
2BA57
330
2BA4F
100
AcDbEntity
  8
0
 48
50.0
100
AcDbBlockBegin
  2
*D5
 70
     1
 10
0.0
 20
0.0
 30
0.0
  3
*D5
  1

  0
LINE
  5
359AC
330
2BA4F
100
AcDbEntity
  8
寸法
 62
     0
 48
50.0
370
    -2
100
AcDbLine
 10
10571.47640783829
 20
-29995.65356941935
 30
0.0
 11
10571.47640783829
 21
-30491.14128775588
 31
0.0
  0
LINE
  5
359AD
330
2BA4F
100
AcDbEntity
  8
寸法
 62
     0
 48
50.0
370
    -2
100
AcDbLine
 10
10741.47640783833
 20
-30132.65356941935
 30
0.0
 11
10741.47640783833
 21
-30491.14128775588
 31
0.0
  0
LINE
  5
359AE
330
2BA4F
100
AcDbEntity
  8
寸法
 62
     0
 48
50.0
370
    -2
100
AcDbLine
 10
10571.47640783829
 20
-30446.14128775588
 30
0.0
 11
10741.47640783833
 21
-30446.14128775588
 31
0.0
  0
MTEXT
  5
359AF
330
2BA4F
100
AcDbEntity
  8
寸法
 62
     7
 48
50.0
100
AcDbMText
 10
10656.47640783831
 20
-30371.14128775588
 30
0.0
 40
90.0
 41
0.0
 71
     5
 72
     1
  1
\A1;170
  7
STYLE1
 73
     1
 44
1.0
1001
ACAD
1000
MTEXTBEGIN
1070
    73
1070
     1
1070
    44
1040
1.0
1070
    74
1070
     0
1000
MTEXTEND
  0
POINT
  5
359B0
330
2BA4F
100
AcDbEntity
  8
DEFPOINTS
 62
     0
 48
50.0
100
AcDbPoint
 10
10571.47640783829
 20
-29980.65356941935
 30
0.0
  0
POINT
  5
359B1
330
2BA4F
100
AcDbEntity
  8
DEFPOINTS
 62
     0
 48
50.0
100
AcDbPoint
 10
10741.47640783833
 20
-30117.65356941935
 30
0.0
  0
POINT
  5
359B2
330
2BA4F
100
AcDbEntity
  8
DEFPOINTS
 62
     0
 48
50.0
100
AcDbPoint
 10
10741.47640783833
 20
-30446.14128775588
 30
0.0
  0
ENDBLK
  5
2BA58
330
2BA4F
100
AcDbEntity
  8
0
 48
50.0
100
AcDbBlockEnd
  0
BLOCK
  5
2BA63
330
2BA59
100
AcDbEntity
  8
0
 48
50.0
100
AcDbBlockBegin
  2
*D6
 70
     1
 10
0.0
 20
0.0
 30
0.0
  3
*D6
  1

  0
LINE
  5
359B3
330
2BA59
100
AcDbEntity
  8
寸法
 62
     0
 48
50.0
370
    -2
100
AcDbLine
 10
5311.476407838381
 20
-29995.65356941936
 30
0.0
 11
5311.476407838381
 21
-30491.14128775588
 31
0.0
  0
LINE
  5
359B4
330
2BA59
100
AcDbEntity
  8
寸法
 62
     0
 48
50.0
370
    -2
100
AcDbLine
 10
10571.47640783829
 20
-29995.65356941935
 30
0.0
 11
10571.47640783829
 21
-30491.14128775588
 31
0.0
  0
LINE
  5
359B5
330
2BA59
100
AcDbEntity
  8
寸法
 62
     0
 48
50.0
370
    -2
100
AcDbLine
 10
5311.476407838381
 20
-30446.14128775588
 30
0.0
 11
10571.47640783829
 21
-30446.14128775588
 31
0.0
  0
INSERT
  5
359B6
330
2BA59
100
AcDbEntity
  8
寸法
 62
     0
 48
50.0
370
    -2
100
AcDbBlockReference
  2
_DOTSMALL
 10
5311.476407838381
 20
-30446.14128775588
 30
0.0
 41
75.0
 42
75.0
 43
75.0
 50
180.0
  0
INSERT
  5
359B7
330
2BA59
100
AcDbEntity
  8
寸法
 62
     0
 48
50.0
370
    -2
100
AcDbBlockReference
  2
_DOTSMALL
 10
10571.47640783829
 20
-30446.14128775588
 30
0.0
 41
75.0
 42
75.0
 43
75.0
  0
MTEXT
  5
359B8
330
2BA59
100
AcDbEntity
  8
寸法
 62
     7
 48
50.0
100
AcDbMText
 10
7941.476407838338
 20
-30371.13242948816
 30
0.0
 40
90.0
 41
0.0
 71
     5
 72
     1
  1
\A1;屋根寸法 5260
  7
STYLE1
 73
     1
 44
1.0
1001
ACAD
1000
MTEXTBEGIN
1070
    73
1070
     1
1070
    44
1040
1.0
1070
    74
1070
     0
1000
MTEXTEND
  0
POINT
  5
359B9
330
2BA59
100
AcDbEntity
  8
DEFPOINTS
 62
     0
 48
50.0
100
AcDbPoint
 10
5311.476407838381
 20
-29980.65356941935
 30
0.0
  0
POINT
  5
359BA
330
2BA59
100
AcDbEntity
  8
DEFPOINTS
 62
     0
 48
50.0
100
AcDbPoint
 10
10571.47640783829
 20
-29980.65356941935
 30
0.0
  0
POINT
  5
359BB
330
2BA59
100
AcDbEntity
  8
DEFPOINTS
 62
     0
 48
50.0
100
AcDbPoint
 10
10571.47640783829
 20
-30446.14128775588
 30
0.0
  0
ENDBLK
  5
2BA64
330
2BA59
100
AcDbEntity
  8
0
 48
50.0
100
AcDbBlockEnd
  0
BLOCK
  5
2BA6F
330
2BA65
100
AcDbEntity
  8
0
 48
50.0
100
AcDbBlockBegin
  2
*D7
 70
     1
 10
0.0
 20
0.0
 30
0.0
  3
*D7
  1

  0
LINE
  5
359BC
330
2BA65
100
AcDbEntity
  8
寸法
 62
     0
 48
50.0
370
    -2
100
AcDbLine
 10
5126.476407838331
 20
-27917.65356941935
 30
0.0
 11
4532.855209110643
 21
-27917.65356941935
 31
0.0
  0
LINE
  5
359BD
330
2BA65
100
AcDbEntity
  8
寸法
 62
     0
 48
50.0
370
    -2
100
AcDbLine
 10
5126.476407838338
 20
-30117.65356941935
 30
0.0
 11
4532.855209110643
 21
-30117.65356941935
 31
0.0
  0
LINE
  5
359BE
330
2BA65
100
AcDbEntity
  8
寸法
 62
     0
 48
50.0
370
    -2
100
AcDbLine
 10
4577.855209110643
 20
-27917.65356941935
 30
0.0
 11
4577.855209110643
 21
-30117.65356941935
 31
0.0
  0
INSERT
  5
359BF
330
2BA65
100
AcDbEntity
  8
寸法
 62
     0
 48
50.0
370
    -2
100
AcDbBlockReference
  2
_DOTSMALL
 10
4577.855209110643
 20
-27917.65356941935
 30
0.0
 41
75.0
 42
75.0
 43
75.0
 50
90.0
  0
INSERT
  5
359C0
330
2BA65
100
AcDbEntity
  8
寸法
 62
     0
 48
50.0
370
    -2
100
AcDbBlockReference
  2
_DOTSMALL
 10
4577.855209110643
 20
-30117.65356941935
 30
0.0
 41
75.0
 42
75.0
 43
75.0
 50
270.0
  0
MTEXT
  5
359C1
330
2BA65
100
AcDbEntity
  8
寸法
 62
     7
 48
50.0
100
AcDbMText
 10
4502.846350842931
 20
-29017.65356941935
 30
0.0
 40
90.0
 41
0.0
 71
     5
 72
     1
  1
\A1;基礎土間寸法 2200
  7
STYLE1
 11
0.0000000000000001
 21
1.0
 31
0.0
 73
     1
 44
1.0
1001
ACAD
1000
MTEXTBEGIN
1070
    73
1070
     1
1070
    44
1040
1.0
1070
    74
1070
     0
1000
MTEXTEND
  0
POINT
  5
359C2
330
2BA65
100
AcDbEntity
  8
DEFPOINTS
 62
     0
 48
50.0
100
AcDbPoint
 10
5141.476407838331
 20
-27917.65356941935
 30
0.0
  0
POINT
  5
359C3
330
2BA65
100
AcDbEntity
  8
DEFPOINTS
 62
     0
 48
50.0
100
AcDbPoint
 10
5141.476407838338
 20
-30117.65356941935
 30
0.0
  0
POINT
  5
359C4
330
2BA65
100
AcDbEntity
  8
DEFPOINTS
 62
     0
 48
50.0
100
AcDbPoint
 10
4577.855209110643
 20
-30117.65356941935
 30
0.0
  0
ENDBLK
  5
2BA70
330
2BA65
100
AcDbEntity
  8
0
 48
50.0
100
AcDbBlockEnd
  0
BLOCK
  5
2BA7B
330
2BA71
100
AcDbEntity
  8
0
 48
50.0
100
AcDbBlockBegin
  2
*D8
 70
     1
 10
0.0
 20
0.0
 30
0.0
  3
*D8
  1

  0
LINE
  5
359C5
330
2BA71
100
AcDbEntity
  8
寸法
 62
     0
 48
50.0
370
    -2
100
AcDbLine
 10
5276.476407838334
 20
-28117.65356941935
 30
0.0
 11
4755.604571127103
 21
-28117.65356941935
 31
0.0
  0
LINE
  5
359C6
330
2BA71
100
AcDbEntity
  8
寸法
 62
     0
 48
50.0
370
    -2
100
AcDbLine
 10
5126.476407838338
 20
-30117.65356941935
 30
0.0
 11
4755.604571127103
 21
-30117.65356941935
 31
0.0
  0
LINE
  5
359C7
330
2BA71
100
AcDbEntity
  8
寸法
 62
     0
 48
50.0
370
    -2
100
AcDbLine
 10
4800.604571127103
 20
-28117.65356941935
 30
0.0
 11
4800.604571127103
 21
-30117.65356941935
 31
0.0
  0
INSERT
  5
359C8
330
2BA71
100
AcDbEntity
  8
寸法
 62
     0
 48
50.0
370
    -2
100
AcDbBlockReference
  2
_DOTSMALL
 10
4800.604571127103
 20
-28117.65356941935
 30
0.0
 41
75.0
 42
75.0
 43
75.0
 50
90.0
  0
INSERT
  5
359C9
330
2BA71
100
AcDbEntity
  8
寸法
 62
     0
 48
50.0
370
    -2
100
AcDbBlockReference
  2
_DOTSMALL
 10
4800.604571127103
 20
-30117.65356941935
 30
0.0
 41
75.0
 42
75.0
 43
75.0
 50
270.0
  0
MTEXT
  5
359CA
330
2BA71
100
AcDbEntity
  8
寸法
 62
     7
 48
50.0
100
AcDbMText
 10
4725.595712859392
 20
-29117.65356941935
 30
0.0
 40
90.0
 41
0.0
 71
     5
 72
     1
  1
\A1;2000
  7
STYLE1
 11
0.0000000000000001
 21
1.0
 31
0.0
 73
     1
 44
1.0
1001
ACAD
1000
MTEXTBEGIN
1070
    73
1070
     1
1070
    44
1040
1.0
1070
    74
1070
     0
1000
MTEXTEND
  0
POINT
  5
359CB
330
2BA71
100
AcDbEntity
  8
DEFPOINTS
 62
     0
 48
50.0
100
AcDbPoint
 10
5291.476407838334
 20
-28117.65356941935
 30
0.0
  0
POINT
  5
359CC
330
2BA71
100
AcDbEntity
  8
DEFPOINTS
 62
     0
 48
50.0
100
AcDbPoint
 10
5141.476407838338
 20
-30117.65356941935
 30
0.0
  0
POINT
  5
359CD
330
2BA71
100
AcDbEntity
  8
DEFPOINTS
 62
     0
 48
50.0
100
AcDbPoint
 10
4800.604571127103
 20
-30117.65356941935
 30
0.0
  0
ENDBLK
  5
2BA7C
330
2BA71
100
AcDbEntity
  8
0
 48
50.0
100
AcDbBlockEnd
  0
BLOCK
  5
2BA85
330
2BA7D
100
AcDbEntity
  8
0
 48
50.0
100
AcDbBlockBegin
  2
*D9
 70
     1
 10
0.0
 20
0.0
 30
0.0
  3
*D9
  1

  0
LINE
  5
359CE
330
2BA7D
100
AcDbEntity
  8
寸法
 62
     0
 48
50.0
370
    -2
100
AcDbLine
 10
5126.476407838331
 20
-27917.65356941935
 30
0.0
 11
4755.604571127103
 21
-27917.65356941935
 31
0.0
  0
LINE
  5
359CF
330
2BA7D
100
AcDbEntity
  8
寸法
 62
     0
 48
50.0
370
    -2
100
AcDbLine
 10
5276.476407838334
 20
-28117.65356941935
 30
0.0
 11
4755.604571127103
 21
-28117.65356941935
 31
0.0
  0
LINE
  5
359D0
330
2BA7D
100
AcDbEntity
  8
寸法
 62
     0
 48
50.0
370
    -2
100
AcDbLine
 10
4800.604571127103
 20
-27917.65356941935
 30
0.0
 11
4800.604571127103
 21
-28117.65356941935
 31
0.0
  0
MTEXT
  5
359D1
330
2BA7D
100
AcDbEntity
  8
寸法
 62
     7
 48
50.0
100
AcDbMText
 10
4725.595712859392
 20
-28017.65356941935
 30
0.0
 40
90.0
 41
0.0
 71
     5
 72
     1
  1
\A1;200
  7
STYLE1
 11
0.0000000000000001
 21
1.0
 31
0.0
 73
     1
 44
1.0
1001
ACAD
1000
MTEXTBEGIN
1070
    73
1070
     1
1070
    44
1040
1.0
1070
    74
1070
     0
1000
MTEXTEND
  0
POINT
  5
359D2
330
2BA7D
100
AcDbEntity
  8
DEFPOINTS
 62
     0
 48
50.0
100
AcDbPoint
 10
5141.476407838331
 20
-27917.65356941935
 30
0.0
  0
POINT
  5
359D3
330
2BA7D
100
AcDbEntity
  8
DEFPOINTS
 62
     0
 48
50.0
100
AcDbPoint
 10
5291.476407838334
 20
-28117.65356941935
 30
0.0
  0
POINT
  5
359D4
330
2BA7D
100
AcDbEntity
  8
DEFPOINTS
 62
     0
 48
50.0
100
AcDbPoint
 10
4800.604571127103
 20
-28117.65356941935
 30
0.0
  0
ENDBLK
  5
2BA86
330
2BA7D
100
AcDbEntity
  8
0
 48
50.0
100
AcDbBlockEnd
  0
BLOCK
  5
2BA91
330
2BA87
100
AcDbEntity
  8
0
 48
50.0
100
AcDbBlockBegin
  2
*D10
 70
     1
 10
0.0
 20
0.0
 30
0.0
  3
*D10
  1

  0
LINE
  5
359D5
330
2BA87
100
AcDbEntity
  8
寸法
 62
     0
 48
50.0
370
    -2
100
AcDbLine
 10
5141.476407838338
 20
-27802.65356941935
 30
0.0
 11
5141.476407838338
 21
-27269.16423631393
 31
0.0
  0
LINE
  5
359D6
330
2BA87
100
AcDbEntity
  8
寸法
 62
     0
 48
50.0
370
    -2
100
AcDbLine
 10
10741.47640783833
 20
-27802.65356941935
 30
0.0
 11
10741.47640783833
 21
-27269.16423631393
 31
0.0
  0
LINE
  5
359D7
330
2BA87
100
AcDbEntity
  8
寸法
 62
     0
 48
50.0
370
    -2
100
AcDbLine
 10
5141.476407838338
 20
-27314.16423631393
 30
0.0
 11
10741.47640783833
 21
-27314.16423631393
 31
0.0
  0
INSERT
  5
359D8
330
2BA87
100
AcDbEntity
  8
寸法
 62
     0
 48
50.0
370
    -2
100
AcDbBlockReference
  2
_DOTSMALL
 10
5141.476407838338
 20
-27314.16423631393
 30
0.0
 41
75.0
 42
75.0
 43
75.0
 50
180.0
  0
INSERT
  5
359D9
330
2BA87
100
AcDbEntity
  8
寸法
 62
     0
 48
50.0
370
    -2
100
AcDbBlockReference
  2
_DOTSMALL
 10
10741.47640783833
 20
-27314.16423631393
 30
0.0
 41
75.0
 42
75.0
 43
75.0
  0
MTEXT
  5
359DA
330
2BA87
100
AcDbEntity
  8
寸法
 62
     7
 48
50.0
100
AcDbMText
 10
7941.476407838338
 20
-27239.16423631393
 30
0.0
 40
90.0
 41
0.0
 71
     5
 72
     1
  1
\A1;基礎土間寸法 5600
  7
STYLE1
 73
     1
 44
1.0
1001
ACAD
1000
MTEXTBEGIN
1070
    73
1070
     1
1070
    44
1040
1.0
1070
    74
1070
     0
1000
MTEXTEND
  0
POINT
  5
359DB
330
2BA87
100
AcDbEntity
  8
DEFPOINTS
 62
     0
 48
50.0
100
AcDbPoint
 10
5141.476407838338
 20
-27817.65356941936
 30
0.0
  0
POINT
  5
359DC
330
2BA87
100
AcDbEntity
  8
DEFPOINTS
 62
     0
 48
50.0
100
AcDbPoint
 10
10741.47640783833
 20
-27817.65356941936
 30
0.0
  0
POINT
  5
359DD
330
2BA87
100
AcDbEntity
  8
DEFPOINTS
 62
     0
 48
50.0
100
AcDbPoint
 10
10741.47640783833
 20
-27314.16423631393
 30
0.0
  0
ENDBLK
  5
2BA92
330
2BA87
100
AcDbEntity
  8
0
 48
50.0
100
AcDbBlockEnd
  0
BLOCK
  5
2BA9D
330
2BA93
100
AcDbEntity
  8
0
 48
50.0
100
AcDbBlockBegin
  2
*D11
 70
     1
 10
0.0
 20
0.0
 30
0.0
  3
*D11
  1

  0
LINE
  5
359DE
330
2BA93
100
AcDbEntity
  8
寸法
 62
     0
 48
50.0
370
    -2
100
AcDbLine
 10
10341.47640783834
 20
-27852.65356941935
 30
0.0
 11
10341.47640783834
 21
-27463.20127528825
 31
0.0
  0
LINE
  5
359DF
330
2BA93
100
AcDbEntity
  8
寸法
 62
     0
 48
50.0
370
    -2
100
AcDbLine
 10
10741.47640783833
 20
-27802.65356941935
 30
0.0
 11
10741.47640783833
 21
-27463.20127528825
 31
0.0
  0
LINE
  5
359E0
330
2BA93
100
AcDbEntity
  8
寸法
 62
     0
 48
50.0
370
    -2
100
AcDbLine
 10
10341.47640783834
 20
-27508.20127528825
 30
0.0
 11
10741.47640783833
 21
-27508.20127528825
 31
0.0
  0
INSERT
  5
359E1
330
2BA93
100
AcDbEntity
  8
寸法
 62
     0
 48
50.0
370
    -2
100
AcDbBlockReference
  2
_DOTSMALL
 10
10341.47640783834
 20
-27508.20127528825
 30
0.0
 41
75.0
 42
75.0
 43
75.0
 50
180.0
  0
INSERT
  5
359E2
330
2BA93
100
AcDbEntity
  8
寸法
 62
     0
 48
50.0
370
    -2
100
AcDbBlockReference
  2
_DOTSMALL
 10
10741.47640783833
 20
-27508.20127528825
 30
0.0
 41
75.0
 42
75.0
 43
75.0
  0
MTEXT
  5
359E3
330
2BA93
100
AcDbEntity
  8
寸法
 62
     7
 48
50.0
100
AcDbMText
 10
10541.47640783833
 20
-27433.20127528825
 30
0.0
 40
90.0
 41
0.0
 71
     5
 72
     1
  1
\A1;400
  7
STYLE1
 73
     1
 44
1.0
1001
ACAD
1000
MTEXTBEGIN
1070
    73
1070
     1
1070
    44
1040
1.0
1070
    74
1070
     0
1000
MTEXTEND
  0
POINT
  5
359E4
330
2BA93
100
AcDbEntity
  8
DEFPOINTS
 62
     0
 48
50.0
100
AcDbPoint
 10
10341.47640783834
 20
-27867.65356941935
 30
0.0
  0
POINT
  5
359E5
330
2BA93
100
AcDbEntity
  8
DEFPOINTS
 62
     0
 48
50.0
100
AcDbPoint
 10
10741.47640783833
 20
-27817.65356941936
 30
0.0
  0
POINT
  5
359E6
330
2BA93
100
AcDbEntity
  8
DEFPOINTS
 62
     0
 48
50.0
100
AcDbPoint
 10
10741.47640783833
 20
-27508.20127528825
 30
0.0
  0
ENDBLK
  5
2BA9E
330
2BA93
100
AcDbEntity
  8
0
 48
50.0
100
AcDbBlockEnd
  0
BLOCK
  5
2BAA9
330
2BA9F
100
AcDbEntity
  8
0
 48
50.0
100
AcDbBlockBegin
  2
*D12
 70
     1
 10
0.0
 20
0.0
 30
0.0
  3
*D12
  1

  0
LINE
  5
359E7
330
2BA9F
100
AcDbEntity
  8
寸法
 62
     0
 48
50.0
370
    -2
100
AcDbLine
 10
5541.476407838338
 20
-27852.65356941935
 30
0.0
 11
5541.476407838338
 21
-27463.20127528825
 31
0.0
  0
LINE
  5
359E8
330
2BA9F
100
AcDbEntity
  8
寸法
 62
     0
 48
50.0
370
    -2
100
AcDbLine
 10
7941.476407838338
 20
-27852.65356941935
 30
0.0
 11
7941.476407838338
 21
-27463.20127528825
 31
0.0
  0
LINE
  5
359E9
330
2BA9F
100
AcDbEntity
  8
寸法
 62
     0
 48
50.0
370
    -2
100
AcDbLine
 10
5541.476407838338
 20
-27508.20127528825
 30
0.0
 11
7941.476407838338
 21
-27508.20127528825
 31
0.0
  0
INSERT
  5
359EA
330
2BA9F
100
AcDbEntity
  8
寸法
 62
     0
 48
50.0
370
    -2
100
AcDbBlockReference
  2
_DOTSMALL
 10
5541.476407838338
 20
-27508.20127528825
 30
0.0
 41
75.0
 42
75.0
 43
75.0
 50
180.0
  0
INSERT
  5
359EB
330
2BA9F
100
AcDbEntity
  8
寸法
 62
     0
 48
50.0
370
    -2
100
AcDbBlockReference
  2
_DOTSMALL
 10
7941.476407838338
 20
-27508.20127528825
 30
0.0
 41
75.0
 42
75.0
 43
75.0
  0
MTEXT
  5
359EC
330
2BA9F
100
AcDbEntity
  8
寸法
 62
     7
 48
50.0
100
AcDbMText
 10
6741.476407838338
 20
-27433.19241702053
 30
0.0
 40
90.0
 41
0.0
 71
     5
 72
     1
  1
\A1;2400
  7
STYLE1
 73
     1
 44
1.0
1001
ACAD
1000
MTEXTBEGIN
1070
    73
1070
     1
1070
    44
1040
1.0
1070
    74
1070
     0
1000
MTEXTEND
  0
POINT
  5
359ED
330
2BA9F
100
AcDbEntity
  8
DEFPOINTS
 62
     0
 48
50.0
100
AcDbPoint
 10
5541.476407838338
 20
-27867.65356941935
 30
0.0
  0
POINT
  5
359EE
330
2BA9F
100
AcDbEntity
  8
DEFPOINTS
 62
     0
 48
50.0
100
AcDbPoint
 10
7941.476407838338
 20
-27867.65356941935
 30
0.0
  0
POINT
  5
359EF
330
2BA9F
100
AcDbEntity
  8
DEFPOINTS
 62
     0
 48
50.0
100
AcDbPoint
 10
7941.476407838338
 20
-27508.20127528825
 30
0.0
  0
ENDBLK
  5
2BAAA
330
2BA9F
100
AcDbEntity
  8
0
 48
50.0
100
AcDbBlockEnd
  0
BLOCK
  5
2BAB5
330
2BAAB
100
AcDbEntity
  8
0
 48
50.0
100
AcDbBlockBegin
  2
*D13
 70
     1
 10
0.0
 20
0.0
 30
0.0
  3
*D13
  1

  0
LINE
  5
359F0
330
2BAAB
100
AcDbEntity
  8
寸法
 62
     0
 48
50.0
370
    -2
100
AcDbLine
 10
5141.476407838338
 20
-27802.65356941936
 30
0.0
 11
5141.476407838338
 21
-27463.20127528825
 31
0.0
  0
LINE
  5
359F1
330
2BAAB
100
AcDbEntity
  8
寸法
 62
     0
 48
50.0
370
    -2
100
AcDbLine
 10
5541.476407838338
 20
-27852.65356941935
 30
0.0
 11
5541.476407838338
 21
-27463.20127528825
 31
0.0
  0
LINE
  5
359F2
330
2BAAB
100
AcDbEntity
  8
寸法
 62
     0
 48
50.0
370
    -2
100
AcDbLine
 10
5141.476407838338
 20
-27508.20127528825
 30
0.0
 11
5541.476407838338
 21
-27508.20127528825
 31
0.0
  0
INSERT
  5
359F3
330
2BAAB
100
AcDbEntity
  8
寸法
 62
     0
 48
50.0
370
    -2
100
AcDbBlockReference
  2
_DOTSMALL
 10
5141.476407838338
 20
-27508.20127528825
 30
0.0
 41
75.0
 42
75.0
 43
75.0
 50
180.0
  0
INSERT
  5
359F4
330
2BAAB
100
AcDbEntity
  8
寸法
 62
     0
 48
50.0
370
    -2
100
AcDbBlockReference
  2
_DOTSMALL
 10
5541.476407838338
 20
-27508.20127528825
 30
0.0
 41
75.0
 42
75.0
 43
75.0
  0
MTEXT
  5
359F5
330
2BAAB
100
AcDbEntity
  8
寸法
 62
     7
 48
50.0
100
AcDbMText
 10
5341.476407838338
 20
-27433.20127528825
 30
0.0
 40
90.0
 41
0.0
 71
     5
 72
     1
  1
\A1;400
  7
STYLE1
 73
     1
 44
1.0
1001
ACAD
1000
MTEXTBEGIN
1070
    73
1070
     1
1070
    44
1040
1.0
1070
    74
1070
     0
1000
MTEXTEND
  0
POINT
  5
359F6
330
2BAAB
100
AcDbEntity
  8
DEFPOINTS
 62
     0
 48
50.0
100
AcDbPoint
 10
5141.476407838338
 20
-27817.65356941936
 30
0.0
  0
POINT
  5
359F7
330
2BAAB
100
AcDbEntity
  8
DEFPOINTS
 62
     0
 48
50.0
100
AcDbPoint
 10
5541.476407838338
 20
-27867.65356941935
 30
0.0
  0
POINT
  5
359F8
330
2BAAB
100
AcDbEntity
  8
DEFPOINTS
 62
     0
 48
50.0
100
AcDbPoint
 10
5541.476407838338
 20
-27508.20127528825
 30
0.0
  0
ENDBLK
  5
2BAB6
330
2BAAB
100
AcDbEntity
  8
0
 48
50.0
100
AcDbBlockEnd
  0
BLOCK
  5
2BAC1
330
2BAB7
100
AcDbEntity
  8
0
 48
50.0
100
AcDbBlockBegin
  2
*D14
 70
     1
 10
0.0
 20
0.0
 30
0.0
  3
*D14
  1

  0
LINE
  5
359F9
330
2BAB7
100
AcDbEntity
  8
寸法
 62
     0
 48
50.0
370
    -2
100
AcDbLine
 10
10341.47640783834
 20
-28382.65356941935
 30
0.0
 11
10341.47640783834
 21
-29200.78978545644
 31
0.0
  0
LINE
  5
359FA
330
2BAB7
100
AcDbEntity
  8
寸法
 62
     0
 48
50.0
370
    -2
100
AcDbLine
 10
9941.476407838338
 20
-28932.65356941935
 30
0.0
 11
9941.476407838338
 21
-29200.78978545644
 31
0.0
  0
LINE
  5
359FB
330
2BAB7
100
AcDbEntity
  8
寸法
 62
     0
 48
50.0
370
    -2
100
AcDbLine
 10
10341.47640783834
 20
-29155.78978545644
 30
0.0
 11
9941.476407838338
 21
-29155.78978545644
 31
0.0
  0
INSERT
  5
359FC
330
2BAB7
100
AcDbEntity
  8
寸法
 62
     0
 48
50.0
370
    -2
100
AcDbBlockReference
  2
_DOTSMALL
 10
10341.47640783834
 20
-29155.78978545644
 30
0.0
 41
75.0
 42
75.0
 43
75.0
  0
INSERT
  5
359FD
330
2BAB7
100
AcDbEntity
  8
寸法
 62
     0
 48
50.0
370
    -2
100
AcDbBlockReference
  2
_DOTSMALL
 10
9941.476407838338
 20
-29155.78978545644
 30
0.0
 41
75.0
 42
75.0
 43
75.0
 50
180.0
  0
MTEXT
  5
359FE
330
2BAB7
100
AcDbEntity
  8
寸法
 62
     7
 48
50.0
100
AcDbMText
 10
10141.47640783834
 20
-29080.78978545644
 30
0.0
 40
90.0
 41
0.0
 71
     5
 72
     1
  1
\A1;400
  7
STYLE1
 73
     1
 44
1.0
1001
ACAD
1000
MTEXTBEGIN
1070
    73
1070
     1
1070
    44
1040
1.0
1070
    74
1070
     0
1000
MTEXTEND
  0
POINT
  5
359FF
330
2BAB7
100
AcDbEntity
  8
DEFPOINTS
 62
     0
 48
50.0
100
AcDbPoint
 10
10341.47640783834
 20
-28367.65356941935
 30
0.0
  0
POINT
  5
35A00
330
2BAB7
100
AcDbEntity
  8
DEFPOINTS
 62
     0
 48
50.0
100
AcDbPoint
 10
9941.476407838338
 20
-28917.65356941935
 30
0.0
  0
POINT
  5
35A01
330
2BAB7
100
AcDbEntity
  8
DEFPOINTS
 62
     0
 48
50.0
100
AcDbPoint
 10
9941.476407838338
 20
-29155.78978545644
 30
0.0
  0
ENDBLK
  5
2BAC2
330
2BAB7
100
AcDbEntity
  8
0
 48
50.0
100
AcDbBlockEnd
  0
BLOCK
  5
2BACD
330
2BAC3
100
AcDbEntity
  8
0
 48
50.0
100
AcDbBlockBegin
  2
*D15
 70
     1
 10
0.0
 20
0.0
 30
0.0
  3
*D15
  1

  0
LINE
  5
35A02
330
2BAC3
100
AcDbEntity
  8
寸法
 62
     0
 48
50.0
370
    -2
100
AcDbLine
 10
9941.476407838338
 20
-28932.65356941935
 30
0.0
 11
9941.476407838338
 21
-29438.92600149352
 31
0.0
  0
LINE
  5
35A03
330
2BAC3
100
AcDbEntity
  8
寸法
 62
     0
 48
50.0
370
    -2
100
AcDbLine
 10
10741.47640783833
 20
-28932.65356941935
 30
0.0
 11
10741.47640783833
 21
-29438.92600149352
 31
0.0
  0
LINE
  5
35A04
330
2BAC3
100
AcDbEntity
  8
寸法
 62
     0
 48
50.0
370
    -2
100
AcDbLine
 10
9941.476407838338
 20
-29393.92600149352
 30
0.0
 11
10741.47640783833
 21
-29393.92600149352
 31
0.0
  0
INSERT
  5
35A05
330
2BAC3
100
AcDbEntity
  8
寸法
 62
     0
 48
50.0
370
    -2
100
AcDbBlockReference
  2
_DOTSMALL
 10
9941.476407838338
 20
-29393.92600149352
 30
0.0
 41
75.0
 42
75.0
 43
75.0
 50
180.0
  0
INSERT
  5
35A06
330
2BAC3
100
AcDbEntity
  8
寸法
 62
     0
 48
50.0
370
    -2
100
AcDbBlockReference
  2
_DOTSMALL
 10
10741.47640783833
 20
-29393.92600149352
 30
0.0
 41
75.0
 42
75.0
 43
75.0
  0
MTEXT
  5
35A07
330
2BAC3
100
AcDbEntity
  8
寸法
 62
     7
 48
50.0
100
AcDbMText
 10
10341.47640783834
 20
-29318.92600149352
 30
0.0
 40
90.0
 41
0.0
 71
     5
 72
     1
  1
\A1;800
  7
STYLE1
 73
     1
 44
1.0
1001
ACAD
1000
MTEXTBEGIN
1070
    73
1070
     1
1070
    44
1040
1.0
1070
    74
1070
     0
1000
MTEXTEND
  0
POINT
  5
35A08
330
2BAC3
100
AcDbEntity
  8
DEFPOINTS
 62
     0
 48
50.0
100
AcDbPoint
 10
9941.476407838338
 20
-28917.65356941935
 30
0.0
  0
POINT
  5
35A09
330
2BAC3
100
AcDbEntity
  8
DEFPOINTS
 62
     0
 48
50.0
100
AcDbPoint
 10
10741.47640783833
 20
-28917.65356941935
 30
0.0
  0
POINT
  5
35A0A
330
2BAC3
100
AcDbEntity
  8
DEFPOINTS
 62
     0
 48
50.0
100
AcDbPoint
 10
10741.47640783833
 20
-29393.92600149352
 30
0.0
  0
ENDBLK
  5
2BACE
330
2BAC3
100
AcDbEntity
  8
0
 48
50.0
100
AcDbBlockEnd
  0
BLOCK
  5
2BAD9
330
2BACF
100
AcDbEntity
  8
0
 48
50.0
100
AcDbBlockBegin
  2
*D16
 70
     1
 10
0.0
 20
0.0
 30
0.0
  3
*D16
  1

  0
LINE
  5
35A0B
330
2BACF
100
AcDbEntity
  8
寸法
 62
     0
 48
50.0
370
    -2
100
AcDbLine
 10
9926.476407838338
 20
-28117.65356941935
 30
0.0
 11
9719.161904554155
 21
-28117.65356941935
 31
0.0
  0
LINE
  5
35A0C
330
2BACF
100
AcDbEntity
  8
寸法
 62
     0
 48
50.0
370
    -2
100
AcDbLine
 10
9926.476407838338
 20
-28917.65356941935
 30
0.0
 11
9719.161904554153
 21
-28917.65356941935
 31
0.0
  0
LINE
  5
35A0D
330
2BACF
100
AcDbEntity
  8
寸法
 62
     0
 48
50.0
370
    -2
100
AcDbLine
 10
9764.161904554155
 20
-28117.65356941935
 30
0.0
 11
9764.161904554152
 21
-28917.65356941935
 31
0.0
  0
INSERT
  5
35A0E
330
2BACF
100
AcDbEntity
  8
寸法
 62
     0
 48
50.0
370
    -2
100
AcDbBlockReference
  2
_DOTSMALL
 10
9764.161904554155
 20
-28117.65356941935
 30
0.0
 41
75.0
 42
75.0
 43
75.0
 50
90.0
  0
INSERT
  5
35A0F
330
2BACF
100
AcDbEntity
  8
寸法
 62
     0
 48
50.0
370
    -2
100
AcDbBlockReference
  2
_DOTSMALL
 10
9764.161904554152
 20
-28917.65356941935
 30
0.0
 41
75.0
 42
75.0
 43
75.0
 50
270.0
  0
MTEXT
  5
35A10
330
2BACF
100
AcDbEntity
  8
寸法
 62
     7
 48
50.0
100
AcDbMText
 10
9689.161904554158
 20
-28517.65356941935
 30
0.0
 40
90.0
 41
0.0
 71
     5
 72
     1
  1
\A1;800
  7
STYLE1
 11
0.0000000000000001
 21
1.0
 31
0.0
 73
     1
 44
1.0
1001
ACAD
1000
MTEXTBEGIN
1070
    73
1070
     1
1070
    44
1040
1.0
1070
    74
1070
     0
1000
MTEXTEND
  0
POINT
  5
35A11
330
2BACF
100
AcDbEntity
  8
DEFPOINTS
 62
     0
 48
50.0
100
AcDbPoint
 10
9941.476407838338
 20
-28117.65356941935
 30
0.0
  0
POINT
  5
35A12
330
2BACF
100
AcDbEntity
  8
DEFPOINTS
 62
     0
 48
50.0
100
AcDbPoint
 10
9941.476407838338
 20
-28917.65356941935
 30
0.0
  0
POINT
  5
35A13
330
2BACF
100
AcDbEntity
  8
DEFPOINTS
 62
     0
 48
50.0
100
AcDbPoint
 10
9764.161904554152
 20
-28917.65356941935
 30
0.0
  0
ENDBLK
  5
2BADA
330
2BACF
100
AcDbEntity
  8
0
 48
50.0
100
AcDbBlockEnd
  0
BLOCK
  5
2BAE5
330
2BADB
100
AcDbEntity
  8
0
 48
50.0
100
AcDbBlockBegin
  2
*D17
 70
     1
 10
0.0
 20
0.0
 30
0.0
  3
*D17
  1

  0
LINE
  5
35A14
330
2BADB
100
AcDbEntity
  8
寸法
 62
     0
 48
50.0
370
    -2
100
AcDbLine
 10
9926.476407838338
 20
-27817.65356941935
 30
0.0
 11
9541.847401269983
 21
-27817.65356941935
 31
0.0
  0
LINE
  5
35A15
330
2BADB
100
AcDbEntity
  8
寸法
 62
     0
 48
50.0
370
    -2
100
AcDbLine
 10
9926.476407838338
 20
-28917.65356941935
 30
0.0
 11
9541.847401269981
 21
-28917.65356941935
 31
0.0
  0
LINE
  5
35A16
330
2BADB
100
AcDbEntity
  8
寸法
 62
     0
 48
50.0
370
    -2
100
AcDbLine
 10
9586.847401269983
 20
-27817.65356941935
 30
0.0
 11
9586.847401269981
 21
-28917.65356941935
 31
0.0
  0
INSERT
  5
35A17
330
2BADB
100
AcDbEntity
  8
寸法
 62
     0
 48
50.0
370
    -2
100
AcDbBlockReference
  2
_DOTSMALL
 10
9586.847401269983
 20
-27817.65356941935
 30
0.0
 41
75.0
 42
75.0
 43
75.0
 50
90.0
  0
INSERT
  5
35A18
330
2BADB
100
AcDbEntity
  8
寸法
 62
     0
 48
50.0
370
    -2
100
AcDbBlockReference
  2
_DOTSMALL
 10
9586.847401269981
 20
-28917.65356941935
 30
0.0
 41
75.0
 42
75.0
 43
75.0
 50
270.0
  0
MTEXT
  5
35A19
330
2BADB
100
AcDbEntity
  8
寸法
 62
     7
 48
50.0
100
AcDbMText
 10
9511.847401269987
 20
-28367.65356941934
 30
0.0
 40
90.0
 41
0.0
 71
     5
 72
     1
  1
\A1;1100
  7
STYLE1
 11
0.0000000000000001
 21
1.0
 31
0.0
 73
     1
 44
1.0
1001
ACAD
1000
MTEXTBEGIN
1070
    73
1070
     1
1070
    44
1040
1.0
1070
    74
1070
     0
1000
MTEXTEND
  0
POINT
  5
35A1A
330
2BADB
100
AcDbEntity
  8
DEFPOINTS
 62
     0
 48
50.0
100
AcDbPoint
 10
9941.476407838338
 20
-27817.65356941935
 30
0.0
  0
POINT
  5
35A1B
330
2BADB
100
AcDbEntity
  8
DEFPOINTS
 62
     0
 48
50.0
100
AcDbPoint
 10
9941.476407838338
 20
-28917.65356941935
 30
0.0
  0
POINT
  5
35A1C
330
2BADB
100
AcDbEntity
  8
DEFPOINTS
 62
     0
 48
50.0
100
AcDbPoint
 10
9586.847401269981
 20
-28917.65356941935
 30
0.0
  0
ENDBLK
  5
2BAE6
330
2BADB
100
AcDbEntity
  8
0
 48
50.0
100
AcDbBlockEnd
  0
BLOCK
  5
2BAF1
330
2BAE7
100
AcDbEntity
  8
0
 48
50.0
100
AcDbBlockBegin
  2
*D18
 70
     1
 10
0.0
 20
0.0
 30
0.0
  3
*D18
  1

  0
LINE
  5
35A1D
330
2BAE7
100
AcDbEntity
  8
寸法
 62
     0
 48
50.0
370
    -2
100
AcDbLine
 10
9926.476407838338
 20
-27817.65356941935
 30
0.0
 11
9719.161904554153
 21
-27817.65356941935
 31
0.0
  0
LINE
  5
35A1E
330
2BAE7
100
AcDbEntity
  8
寸法
 62
     0
 48
50.0
370
    -2
100
AcDbLine
 10
9926.476407838338
 20
-28117.65356941935
 30
0.0
 11
9719.161904554153
 21
-28117.65356941935
 31
0.0
  0
LINE
  5
35A1F
330
2BAE7
100
AcDbEntity
  8
寸法
 62
     0
 48
50.0
370
    -2
100
AcDbLine
 10
9764.161904554152
 20
-27817.65356941935
 30
0.0
 11
9764.161904554152
 21
-28117.65356941935
 31
0.0
  0
INSERT
  5
35A20
330
2BAE7
100
AcDbEntity
  8
寸法
 62
     0
 48
50.0
370
    -2
100
AcDbBlockReference
  2
_DOTSMALL
 10
9764.161904554152
 20
-27817.65356941935
 30
0.0
 41
75.0
 42
75.0
 43
75.0
 50
90.0
  0
INSERT
  5
35A21
330
2BAE7
100
AcDbEntity
  8
寸法
 62
     0
 48
50.0
370
    -2
100
AcDbBlockReference
  2
_DOTSMALL
 10
9764.161904554152
 20
-28117.65356941935
 30
0.0
 41
75.0
 42
75.0
 43
75.0
 50
270.0
  0
MTEXT
  5
35A22
330
2BAE7
100
AcDbEntity
  8
寸法
 62
     7
 48
50.0
100
AcDbMText
 10
9689.161904554156
 20
-27967.65356941934
 30
0.0
 40
90.0
 41
0.0
 71
     5
 72
     1
  1
\A1;300
  7
STYLE1
 11
0.0000000000000001
 21
1.0
 31
0.0
 73
     1
 44
1.0
1001
ACAD
1000
MTEXTBEGIN
1070
    73
1070
     1
1070
    44
1040
1.0
1070
    74
1070
     0
1000
MTEXTEND
  0
POINT
  5
35A23
330
2BAE7
100
AcDbEntity
  8
DEFPOINTS
 62
     0
 48
50.0
100
AcDbPoint
 10
9941.476407838338
 20
-27817.65356941935
 30
0.0
  0
POINT
  5
35A24
330
2BAE7
100
AcDbEntity
  8
DEFPOINTS
 62
     0
 48
50.0
100
AcDbPoint
 10
9941.476407838338
 20
-28117.65356941935
 30
0.0
  0
POINT
  5
35A25
330
2BAE7
100
AcDbEntity
  8
DEFPOINTS
 62
     0
 48
50.0
100
AcDbPoint
 10
9764.161904554152
 20
-28117.65356941935
 30
0.0
  0
ENDBLK
  5
2BAF2
330
2BAE7
100
AcDbEntity
  8
0
 48
50.0
100
AcDbBlockEnd
  0
BLOCK
  5
2BD98
330
2BD8E
100
AcDbEntity
  8
0
 48
50.0
100
AcDbBlockBegin
  2
*D19
 70
     1
 10
0.0
 20
0.0
 30
0.0
  3
*D19
  1

  0
LINE
  5
3597F
330
2BD8E
100
AcDbEntity
  8
寸法
 62
     0
 48
50.0
370
    -2
100
AcDbLine
 10
7941.476407838338
 20
-27852.65356941935
 30
0.0
 11
7941.476407838338
 21
-27463.20127528825
 31
0.0
  0
LINE
  5
35980
330
2BD8E
100
AcDbEntity
  8
寸法
 62
     0
 48
50.0
370
    -2
100
AcDbLine
 10
10341.47640783834
 20
-27852.65356941935
 30
0.0
 11
10341.47640783834
 21
-27463.20127528825
 31
0.0
  0
LINE
  5
35981
330
2BD8E
100
AcDbEntity
  8
寸法
 62
     0
 48
50.0
370
    -2
100
AcDbLine
 10
7941.476407838338
 20
-27508.20127528825
 30
0.0
 11
10341.47640783834
 21
-27508.20127528825
 31
0.0
  0
INSERT
  5
35982
330
2BD8E
100
AcDbEntity
  8
寸法
 62
     0
 48
50.0
370
    -2
100
AcDbBlockReference
  2
_DOTSMALL
 10
7941.476407838338
 20
-27508.20127528825
 30
0.0
 41
75.0
 42
75.0
 43
75.0
 50
180.0
  0
INSERT
  5
35983
330
2BD8E
100
AcDbEntity
  8
寸法
 62
     0
 48
50.0
370
    -2
100
AcDbBlockReference
  2
_DOTSMALL
 10
10341.47640783834
 20
-27508.20127528825
 30
0.0
 41
75.0
 42
75.0
 43
75.0
  0
MTEXT
  5
35984
330
2BD8E
100
AcDbEntity
  8
寸法
 62
     7
 48
50.0
100
AcDbMText
 10
9141.476407838338
 20
-27433.19241702053
 30
0.0
 40
90.0
 41
0.0
 71
     5
 72
     1
  1
\A1;2400
  7
STYLE1
 73
     1
 44
1.0
1001
ACAD
1000
MTEXTBEGIN
1070
    73
1070
     1
1070
    44
1040
1.0
1070
    74
1070
     0
1000
MTEXTEND
  0
POINT
  5
35985
330
2BD8E
100
AcDbEntity
  8
DEFPOINTS
 62
     0
 48
50.0
100
AcDbPoint
 10
7941.476407838338
 20
-27867.65356941935
 30
0.0
  0
POINT
  5
35986
330
2BD8E
100
AcDbEntity
  8
DEFPOINTS
 62
     0
 48
50.0
100
AcDbPoint
 10
10341.47640783834
 20
-27867.65356941935
 30
0.0
  0
POINT
  5
35987
330
2BD8E
100
AcDbEntity
  8
DEFPOINTS
 62
     0
 48
50.0
100
AcDbPoint
 10
10341.47640783834
 20
-27508.20127528825
 30
0.0
  0
ENDBLK
  5
2BD99
330
2BD8E
100
AcDbEntity
  8
0
 48
50.0
100
AcDbBlockEnd
  0
BLOCK
  5
3540E
330
35404
100
AcDbEntity
  8
0
 48
50.0
100
AcDbBlockBegin
  2
*D20
 70
     1
 10
0.0
 20
0.0
 30
0.0
  3
*D20
  1

  0
LINE
  5
35A72
330
35404
100
AcDbEntity
  8
寸法
 62
     0
 48
50.0
370
    -2
100
AcDbLine
 10
14097.44176577793
 20
-28184.10369776425
 30
0.0
 11
14355.08525281513
 21
-28184.10369776425
 31
0.0
  0
LINE
  5
35A73
330
35404
100
AcDbEntity
  8
寸法
 62
     0
 48
50.0
370
    -2
100
AcDbLine
 10
14112.64388821441
 20
-28784.10369776425
 30
0.0
 11
14355.08525281513
 21
-28784.10369776425
 31
0.0
  0
LINE
  5
35A74
330
35404
100
AcDbEntity
  8
寸法
 62
     0
 48
50.0
370
    -2
100
AcDbLine
 10
14310.08525281513
 20
-28184.10369776425
 30
0.0
 11
14310.08525281513
 21
-28784.10369776425
 31
0.0
  0
INSERT
  5
35A75
330
35404
100
AcDbEntity
  8
寸法
 62
     0
 48
50.0
370
    -2
100
AcDbBlockReference
  2
_DOTSMALL
 10
14310.08525281513
 20
-28184.10369776425
 30
0.0
 41
75.0
 42
75.0
 43
75.0
 50
90.0
  0
INSERT
  5
35A76
330
35404
100
AcDbEntity
  8
寸法
 62
     0
 48
50.0
370
    -2
100
AcDbBlockReference
  2
_DOTSMALL
 10
14310.08525281513
 20
-28784.10369776425
 30
0.0
 41
75.0
 42
75.0
 43
75.0
 50
270.0
  0
MTEXT
  5
35A77
330
35404
100
AcDbEntity
  8
寸法
 62
     7
 48
50.0
100
AcDbMText
 10
14235.08525281513
 20
-28484.10369776425
 30
0.0
 40
90.0
 41
0.0
 71
     5
 72
     1
  1
\A1;600
  7
STYLE1
 11
0.0000000000000001
 21
1.0
 31
0.0
 73
     1
 44
1.0
1001
ACAD
1000
MTEXTBEGIN
1070
    73
1070
     1
1070
    44
1040
1.0
1070
    74
1070
     0
1000
MTEXTEND
  0
POINT
  5
35A78
330
35404
100
AcDbEntity
  8
DEFPOINTS
 62
     0
 48
50.0
100
AcDbPoint
 10
14082.44176577793
 20
-28184.10369776425
 30
0.0
  0
POINT
  5
35A79
330
35404
100
AcDbEntity
  8
DEFPOINTS
 62
     0
 48
50.0
100
AcDbPoint
 10
14097.64388821441
 20
-28784.10369776425
 30
0.0
  0
POINT
  5
35A7A
330
35404
100
AcDbEntity
  8
DEFPOINTS
 62
     0
 48
50.0
100
AcDbPoint
 10
14310.08525281513
 20
-28784.10369776425
 30
0.0
  0
ENDBLK
  5
3540F
330
35404
100
AcDbEntity
  8
0
 48
50.0
100
AcDbBlockEnd
  0
BLOCK
  5
3541C
330
35410
100
AcDbEntity
  8
0
 48
50.0
100
AcDbBlockBegin
  2
*D21
 70
     1
 10
0.0
 20
0.0
 30
0.0
  3
*D21
  1

  0
LINE
  5
35A67
330
35410
100
AcDbEntity
  8
寸法
 62
     0
 48
50.0
370
    -2
100
AcDbLine
 10
14097.44176577793
 20
-28184.10369776425
 30
0.0
 11
14355.08525281512
 21
-28184.10369776425
 31
0.0
  0
LINE
  5
35A68
330
35410
100
AcDbEntity
  8
寸法
 62
     0
 48
50.0
370
    -2
100
AcDbLine
 10
13932.64388821442
 20
-28134.10369776425
 30
0.0
 11
14355.08525281512
 21
-28134.10369776425
 31
0.0
  0
LINE
  5
35A69
330
35410
100
AcDbEntity
  8
寸法
 62
     0
 48
50.0
370
    -2
100
AcDbLine
 10
14310.08525281512
 20
-28184.10369776425
 30
0.0
 11
14310.08525281512
 21
-28259.10369776425
 31
0.0
  0
LINE
  5
35A6A
330
35410
100
AcDbEntity
  8
寸法
 62
     0
 48
50.0
370
    -2
100
AcDbLine
 10
14310.08525281512
 20
-28134.10369776425
 30
0.0
 11
14310.08525281512
 21
-27825.03283162251
 31
0.0
  0
LINE
  5
35A6B
330
35410
100
AcDbEntity
  8
寸法
 62
     0
 48
50.0
370
    -2
100
AcDbLine
 10
14310.08525281512
 20
-28184.10369776425
 30
0.0
 11
14310.08525281512
 21
-28134.10369776425
 31
0.0
  0
INSERT
  5
35A6C
330
35410
100
AcDbEntity
  8
寸法
 62
     0
 48
50.0
370
    -2
100
AcDbBlockReference
  2
_DOTSMALL
 10
14310.08525281512
 20
-28184.10369776425
 30
0.0
 41
75.0
 42
75.0
 43
75.0
 50
90.0
  0
INSERT
  5
35A6D
330
35410
100
AcDbEntity
  8
寸法
 62
     0
 48
50.0
370
    -2
100
AcDbBlockReference
  2
_DOTSMALL
 10
14310.08525281512
 20
-28134.10369776425
 30
0.0
 41
75.0
 42
75.0
 43
75.0
 50
270.0
  0
MTEXT
  5
35A6E
330
35410
100
AcDbEntity
  8
寸法
 62
     7
 48
50.0
100
AcDbMText
 10
14235.08525281513
 20
-27904.56826469338
 30
0.0
 40
90.0
 41
0.0
 71
     5
 72
     1
  1
\A1;50
  7
STYLE1
 11
0.0000000000000001
 21
1.0
 31
0.0
 73
     1
 44
1.0
1001
ACAD
1000
MTEXTBEGIN
1070
    73
1070
     1
1070
    44
1040
1.0
1070
    74
1070
     0
1000
MTEXTEND
  0
POINT
  5
35A6F
330
35410
100
AcDbEntity
  8
DEFPOINTS
 62
     0
 48
50.0
100
AcDbPoint
 10
14082.44176577793
 20
-28184.10369776425
 30
0.0
  0
POINT
  5
35A70
330
35410
100
AcDbEntity
  8
DEFPOINTS
 62
     0
 48
50.0
100
AcDbPoint
 10
13917.64388821442
 20
-28134.10369776425
 30
0.0
  0
POINT
  5
35A71
330
35410
100
AcDbEntity
  8
DEFPOINTS
 62
     0
 48
50.0
100
AcDbPoint
 10
14310.08525281512
 20
-28134.10369776425
 30
0.0
  0
ENDBLK
  5
3541D
330
35410
100
AcDbEntity
  8
0
 48
50.0
100
AcDbBlockEnd
  0
BLOCK
  5
35426
330
3541E
100
AcDbEntity
  8
0
 48
50.0
100
AcDbBlockBegin
  2
*D22
 70
     1
 10
0.0
 20
0.0
 30
0.0
  3
*D22
  1

  0
LINE
  5
35A60
330
3541E
100
AcDbEntity
  8
寸法
 62
     0
 48
50.0
370
    -2
100
AcDbLine
 10
13717.64388821442
 20
-27694.63086490922
 30
0.0
 11
13717.64388821442
 21
-27376.32579846924
 31
0.0
  0
LINE
  5
35A61
330
3541E
100
AcDbEntity
  8
寸法
 62
     0
 48
50.0
370
    -2
100
AcDbLine
 10
13917.64388821442
 20
-28119.10369776425
 30
0.0
 11
13917.64388821442
 21
-27376.32579846924
 31
0.0
  0
LINE
  5
35A62
330
3541E
100
AcDbEntity
  8
寸法
 62
     0
 48
50.0
370
    -2
100
AcDbLine
 10
13717.64388821442
 20
-27421.32579846924
 30
0.0
 11
13917.64388821442
 21
-27421.32579846924
 31
0.0
  0
MTEXT
  5
35A63
330
3541E
100
AcDbEntity
  8
寸法
 62
     7
 48
50.0
100
AcDbMText
 10
13817.64388821442
 20
-27346.31694020152
 30
0.0
 40
90.0
 41
0.0
 71
     5
 72
     1
  1
\A1;200
  7
STYLE1
 73
     1
 44
1.0
1001
ACAD
1000
MTEXTBEGIN
1070
    73
1070
     1
1070
    44
1040
1.0
1070
    74
1070
     0
1000
MTEXTEND
  0
POINT
  5
35A64
330
3541E
100
AcDbEntity
  8
DEFPOINTS
 62
     0
 48
50.0
100
AcDbPoint
 10
13717.64388821442
 20
-27709.63086490922
 30
0.0
  0
POINT
  5
35A65
330
3541E
100
AcDbEntity
  8
DEFPOINTS
 62
     0
 48
50.0
100
AcDbPoint
 10
13917.64388821442
 20
-28134.10369776425
 30
0.0
  0
POINT
  5
35A66
330
3541E
100
AcDbEntity
  8
DEFPOINTS
 62
     0
 48
50.0
100
AcDbPoint
 10
13917.64388821442
 20
-27421.32579846924
 30
0.0
  0
ENDBLK
  5
35427
330
3541E
100
AcDbEntity
  8
0
 48
50.0
100
AcDbBlockEnd
  0
BLOCK
  5
35433
330
35428
100
AcDbEntity
  8
0
 48
50.0
100
AcDbBlockBegin
  2
*D23
 70
     1
 10
0.0
 20
0.0
 30
0.0
  3
*D23
  1

  0
LINE
  5
35A56
330
35428
100
AcDbEntity
  8
寸法
 62
     0
 48
50.0
370
    -2
100
AcDbLine
 10
12400.52807711474
 20
-28234.10369776425
 30
0.0
 11
12219.94695001285
 21
-28234.10369776425
 31
0.0
  0
LINE
  5
35A57
330
35428
100
AcDbEntity
  8
寸法
 62
     0
 48
50.0
370
    -2
100
AcDbLine
 10
12400.52807711474
 20
-28134.10369776425
 30
0.0
 11
12219.94695001285
 21
-28134.10369776425
 31
0.0
  0
LINE
  5
35A58
330
35428
100
AcDbEntity
  8
寸法
 62
     0
 48
50.0
370
    -2
100
AcDbLine
 10
12264.94695001285
 20
-28234.10369776425
 30
0.0
 11
12264.94695001285
 21
-28134.10369776425
 31
0.0
  0
LINE
  5
35A59
330
35428
100
AcDbEntity
  8
寸法
 62
     0
 48
50.0
370
    -2
100
AcDbLine
 10
12264.94695001285
 20
-28134.10369776425
 30
0.0
 11
12264.94695001285
 21
-27855.03283162251
 31
0.0
  0
INSERT
  5
35A5A
330
35428
100
AcDbEntity
  8
寸法
 62
     0
 48
50.0
370
    -2
100
AcDbBlockReference
  2
_DOTSMALL
 10
12264.94695001285
 20
-28234.10369776425
 30
0.0
 41
75.0
 42
75.0
 43
75.0
 50
270.0
  0
INSERT
  5
35A5B
330
35428
100
AcDbEntity
  8
寸法
 62
     0
 48
50.0
370
    -2
100
AcDbBlockReference
  2
_DOTSMALL
 10
12264.94695001285
 20
-28134.10369776425
 30
0.0
 41
75.0
 42
75.0
 43
75.0
 50
90.0
  0
MTEXT
  5
35A5C
330
35428
100
AcDbEntity
  8
寸法
 62
     7
 48
50.0
100
AcDbMText
 10
12189.94695001285
 20
-27957.06826469337
 30
0.0
 40
90.0
 41
0.0
 71
     5
 72
     1
  1
\A1;100
  7
STYLE1
 11
0.0000000000000001
 21
1.0
 31
0.0
 73
     1
 44
1.0
1001
ACAD
1000
MTEXTBEGIN
1070
    73
1070
     1
1070
    44
1040
1.0
1070
    74
1070
     0
1000
MTEXTEND
  0
POINT
  5
35A5D
330
35428
100
AcDbEntity
  8
DEFPOINTS
 62
     0
 48
50.0
100
AcDbPoint
 10
12415.52807711474
 20
-28234.10369776425
 30
0.0
  0
POINT
  5
35A5E
330
35428
100
AcDbEntity
  8
DEFPOINTS
 62
     0
 48
50.0
100
AcDbPoint
 10
12415.52807711474
 20
-28134.10369776425
 30
0.0
  0
POINT
  5
35A5F
330
35428
100
AcDbEntity
  8
DEFPOINTS
 62
     0
 48
50.0
100
AcDbPoint
 10
12264.94695001285
 20
-28134.10369776425
 30
0.0
  0
ENDBLK
  5
35434
330
35428
100
AcDbEntity
  8
0
 48
50.0
100
AcDbBlockEnd
  0
BLOCK
  5
35440
330
35435
100
AcDbEntity
  8
0
 48
50.0
100
AcDbBlockBegin
  2
*D24
 70
     1
 10
0.0
 20
0.0
 30
0.0
  3
*D24
  1

  0
LINE
  5
35A4C
330
35435
100
AcDbEntity
  8
寸法
 62
     0
 48
50.0
370
    -2
100
AcDbLine
 10
12400.52807711474
 20
-28234.10369776425
 30
0.0
 11
12219.94695001285
 21
-28234.10369776425
 31
0.0
  0
LINE
  5
35A4D
330
35435
100
AcDbEntity
  8
寸法
 62
     0
 48
50.0
370
    -2
100
AcDbLine
 10
12400.52807711474
 20
-28334.10369776425
 30
0.0
 11
12219.94695001285
 21
-28334.10369776425
 31
0.0
  0
LINE
  5
35A4E
330
35435
100
AcDbEntity
  8
寸法
 62
     0
 48
50.0
370
    -2
100
AcDbLine
 10
12264.94695001285
 20
-28234.10369776425
 30
0.0
 11
12264.94695001285
 21
-28334.10369776425
 31
0.0
  0
LINE
  5
35A4F
330
35435
100
AcDbEntity
  8
寸法
 62
     0
 48
50.0
370
    -2
100
AcDbLine
 10
12264.94695001285
 20
-28334.10369776425
 30
0.0
 11
12264.94695001285
 21
-28613.17456390599
 31
0.0
  0
INSERT
  5
35A50
330
35435
100
AcDbEntity
  8
寸法
 62
     0
 48
50.0
370
    -2
100
AcDbBlockReference
  2
_DOTSMALL
 10
12264.94695001285
 20
-28234.10369776425
 30
0.0
 41
75.0
 42
75.0
 43
75.0
 50
90.0
  0
INSERT
  5
35A51
330
35435
100
AcDbEntity
  8
寸法
 62
     0
 48
50.0
370
    -2
100
AcDbBlockReference
  2
_DOTSMALL
 10
12264.94695001285
 20
-28334.10369776425
 30
0.0
 41
75.0
 42
75.0
 43
75.0
 50
270.0
  0
MTEXT
  5
35A52
330
35435
100
AcDbEntity
  8
寸法
 62
     7
 48
50.0
100
AcDbMText
 10
12189.94695001285
 20
-28511.13913083511
 30
0.0
 40
90.0
 41
0.0
 71
     5
 72
     1
  1
\A1;100
  7
STYLE1
 11
0.0000000000000001
 21
1.0
 31
0.0
 73
     1
 44
1.0
1001
ACAD
1000
MTEXTBEGIN
1070
    73
1070
     1
1070
    44
1040
1.0
1070
    74
1070
     0
1000
MTEXTEND
  0
POINT
  5
35A53
330
35435
100
AcDbEntity
  8
DEFPOINTS
 62
     0
 48
50.0
100
AcDbPoint
 10
12415.52807711474
 20
-28234.10369776425
 30
0.0
  0
POINT
  5
35A54
330
35435
100
AcDbEntity
  8
DEFPOINTS
 62
     0
 48
50.0
100
AcDbPoint
 10
12415.52807711474
 20
-28334.10369776425
 30
0.0
  0
POINT
  5
35A55
330
35435
100
AcDbEntity
  8
DEFPOINTS
 62
     0
 48
50.0
100
AcDbPoint
 10
12264.94695001285
 20
-28334.10369776425
 30
0.0
  0
ENDBLK
  5
35441
330
35435
100
AcDbEntity
  8
0
 48
50.0
100
AcDbBlockEnd
  0
BLOCK
  5
3544C
330
35442
100
AcDbEntity
  8
0
 48
50.0
100
AcDbBlockBegin
  2
*D25
 70
     1
 10
0.0
 20
0.0
 30
0.0
  3
*D25
  1

  0
LINE
  5
35A43
330
35442
100
AcDbEntity
  8
寸法
 62
     0
 48
50.0
370
    -2
100
AcDbLine
 10
13717.64388821442
 20
-28860.16152959412
 30
0.0
 11
13717.64388821442
 21
-29270.72032740829
 31
0.0
  0
LINE
  5
35A44
330
35442
100
AcDbEntity
  8
寸法
 62
     0
 48
50.0
370
    -2
100
AcDbLine
 10
14017.64388821441
 20
-28799.10369776425
 30
0.0
 11
14017.64388821441
 21
-29270.72032740829
 31
0.0
  0
LINE
  5
35A45
330
35442
100
AcDbEntity
  8
寸法
 62
     0
 48
50.0
370
    -2
100
AcDbLine
 10
13717.64388821442
 20
-29225.72032740829
 30
0.0
 11
14017.64388821441
 21
-29225.72032740829
 31
0.0
  0
INSERT
  5
35A46
330
35442
100
AcDbEntity
  8
寸法
 62
     0
 48
50.0
370
    -2
100
AcDbBlockReference
  2
_DOTSMALL
 10
13717.64388821442
 20
-29225.72032740829
 30
0.0
 41
75.0
 42
75.0
 43
75.0
 50
180.0
  0
INSERT
  5
35A47
330
35442
100
AcDbEntity
  8
寸法
 62
     0
 48
50.0
370
    -2
100
AcDbBlockReference
  2
_DOTSMALL
 10
14017.64388821441
 20
-29225.72032740829
 30
0.0
 41
75.0
 42
75.0
 43
75.0
  0
MTEXT
  5
35A48
330
35442
100
AcDbEntity
  8
寸法
 62
     7
 48
50.0
100
AcDbMText
 10
13867.64388821442
 20
-29150.72032740829
 30
0.0
 40
90.0
 41
0.0
 71
     5
 72
     1
  1
\A1;300
  7
STYLE1
 73
     1
 44
1.0
1001
ACAD
1000
MTEXTBEGIN
1070
    73
1070
     1
1070
    44
1040
1.0
1070
    74
1070
     0
1000
MTEXTEND
  0
POINT
  5
35A49
330
35442
100
AcDbEntity
  8
DEFPOINTS
 62
     0
 48
50.0
100
AcDbPoint
 10
13717.64388821442
 20
-28845.16152959412
 30
0.0
  0
POINT
  5
35A4A
330
35442
100
AcDbEntity
  8
DEFPOINTS
 62
     0
 48
50.0
100
AcDbPoint
 10
14017.64388821441
 20
-28784.10369776425
 30
0.0
  0
POINT
  5
35A4B
330
35442
100
AcDbEntity
  8
DEFPOINTS
 62
     0
 48
50.0
100
AcDbPoint
 10
14017.64388821441
 20
-29225.72032740829
 30
0.0
  0
ENDBLK
  5
3544D
330
35442
100
AcDbEntity
  8
0
 48
50.0
100
AcDbBlockEnd
  0
BLOCK
  5
35458
330
3544E
100
AcDbEntity
  8
0
 48
50.0
100
AcDbBlockBegin
  2
*D26
 70
     1
 10
0.0
 20
0.0
 30
0.0
  3
*D26
  1

  0
LINE
  5
35A3A
330
3544E
100
AcDbEntity
  8
寸法
 62
     0
 48
50.0
370
    -2
100
AcDbLine
 10
12917.64388821442
 20
-28799.10369776425
 30
0.0
 11
12917.64388821442
 21
-29270.72032740829
 31
0.0
  0
LINE
  5
35A3B
330
3544E
100
AcDbEntity
  8
寸法
 62
     0
 48
50.0
370
    -2
100
AcDbLine
 10
13717.64388821442
 20
-28860.16152959412
 30
0.0
 11
13717.64388821442
 21
-29270.72032740829
 31
0.0
  0
LINE
  5
35A3C
330
3544E
100
AcDbEntity
  8
寸法
 62
     0
 48
50.0
370
    -2
100
AcDbLine
 10
12917.64388821442
 20
-29225.72032740829
 30
0.0
 11
13717.64388821442
 21
-29225.72032740829
 31
0.0
  0
INSERT
  5
35A3D
330
3544E
100
AcDbEntity
  8
寸法
 62
     0
 48
50.0
370
    -2
100
AcDbBlockReference
  2
_DOTSMALL
 10
12917.64388821442
 20
-29225.72032740829
 30
0.0
 41
75.0
 42
75.0
 43
75.0
 50
180.0
  0
INSERT
  5
35A3E
330
3544E
100
AcDbEntity
  8
寸法
 62
     0
 48
50.0
370
    -2
100
AcDbBlockReference
  2
_DOTSMALL
 10
13717.64388821442
 20
-29225.72032740829
 30
0.0
 41
75.0
 42
75.0
 43
75.0
  0
MTEXT
  5
35A3F
330
3544E
100
AcDbEntity
  8
寸法
 62
     7
 48
50.0
100
AcDbMText
 10
13317.64388821442
 20
-29150.72032740829
 30
0.0
 40
90.0
 41
0.0
 71
     5
 72
     1
  1
\A1;800
  7
STYLE1
 73
     1
 44
1.0
1001
ACAD
1000
MTEXTBEGIN
1070
    73
1070
     1
1070
    44
1040
1.0
1070
    74
1070
     0
1000
MTEXTEND
  0
POINT
  5
35A40
330
3544E
100
AcDbEntity
  8
DEFPOINTS
 62
     0
 48
50.0
100
AcDbPoint
 10
12917.64388821442
 20
-28784.10369776425
 30
0.0
  0
POINT
  5
35A41
330
3544E
100
AcDbEntity
  8
DEFPOINTS
 62
     0
 48
50.0
100
AcDbPoint
 10
13717.64388821442
 20
-28845.16152959412
 30
0.0
  0
POINT
  5
35A42
330
3544E
100
AcDbEntity
  8
DEFPOINTS
 62
     0
 48
50.0
100
AcDbPoint
 10
13717.64388821442
 20
-29225.72032740829
 30
0.0
  0
ENDBLK
  5
35459
330
3544E
100
AcDbEntity
  8
0
 48
50.0
100
AcDbBlockEnd
  0
BLOCK
  5
35466
330
3545A
100
AcDbEntity
  8
0
 48
50.0
100
AcDbBlockBegin
  2
*D27
 70
     1
 10
0.0
 20
0.0
 30
0.0
  3
*D27
  1

  0
LINE
  5
35A2F
330
3545A
100
AcDbEntity
  8
寸法
 62
     0
 48
50.0
370
    -2
100
AcDbLine
 10
14112.64388821441
 20
-28784.10369776425
 30
0.0
 11
14355.08525281512
 21
-28784.10369776425
 31
0.0
  0
LINE
  5
35A30
330
3545A
100
AcDbEntity
  8
寸法
 62
     0
 48
50.0
370
    -2
100
AcDbLine
 10
14112.64388821441
 20
-28834.10369776425
 30
0.0
 11
14355.08525281512
 21
-28834.10369776425
 31
0.0
  0
LINE
  5
35A31
330
3545A
100
AcDbEntity
  8
寸法
 62
     0
 48
50.0
370
    -2
100
AcDbLine
 10
14310.08525281512
 20
-28784.10369776425
 30
0.0
 11
14310.08525281512
 21
-28709.10369776425
 31
0.0
  0
LINE
  5
35A32
330
3545A
100
AcDbEntity
  8
寸法
 62
     0
 48
50.0
370
    -2
100
AcDbLine
 10
14310.08525281512
 20
-28834.10369776425
 30
0.0
 11
14310.08525281512
 21
-29143.17456390599
 31
0.0
  0
LINE
  5
35A33
330
3545A
100
AcDbEntity
  8
寸法
 62
     0
 48
50.0
370
    -2
100
AcDbLine
 10
14310.08525281512
 20
-28784.10369776425
 30
0.0
 11
14310.08525281512
 21
-28834.10369776425
 31
0.0
  0
INSERT
  5
35A34
330
3545A
100
AcDbEntity
  8
寸法
 62
     0
 48
50.0
370
    -2
100
AcDbBlockReference
  2
_DOTSMALL
 10
14310.08525281512
 20
-28784.10369776425
 30
0.0
 41
75.0
 42
75.0
 43
75.0
 50
270.0
  0
INSERT
  5
35A35
330
3545A
100
AcDbEntity
  8
寸法
 62
     0
 48
50.0
370
    -2
100
AcDbBlockReference
  2
_DOTSMALL
 10
14310.08525281512
 20
-28834.10369776425
 30
0.0
 41
75.0
 42
75.0
 43
75.0
 50
90.0
  0
MTEXT
  5
35A36
330
3545A
100
AcDbEntity
  8
寸法
 62
     7
 48
50.0
100
AcDbMText
 10
14235.08525281513
 20
-29063.63913083511
 30
0.0
 40
90.0
 41
0.0
 71
     5
 72
     1
  1
\A1;50
  7
STYLE1
 11
0.0000000000000001
 21
1.0
 31
0.0
 73
     1
 44
1.0
1001
ACAD
1000
MTEXTBEGIN
1070
    73
1070
     1
1070
    44
1040
1.0
1070
    74
1070
     0
1000
MTEXTEND
  0
POINT
  5
35A37
330
3545A
100
AcDbEntity
  8
DEFPOINTS
 62
     0
 48
50.0
100
AcDbPoint
 10
14097.64388821441
 20
-28784.10369776425
 30
0.0
  0
POINT
  5
35A38
330
3545A
100
AcDbEntity
  8
DEFPOINTS
 62
     0
 48
50.0
100
AcDbPoint
 10
14097.64388821441
 20
-28834.10369776425
 30
0.0
  0
POINT
  5
35A39
330
3545A
100
AcDbEntity
  8
DEFPOINTS
 62
     0
 48
50.0
100
AcDbPoint
 10
14310.08525281512
 20
-28834.10369776425
 30
0.0
  0
ENDBLK
  5
35467
330
3545A
100
AcDbEntity
  8
0
 48
50.0
100
AcDbBlockEnd
  0
BLOCK
  5
35472
330
35468
100
AcDbEntity
  8
0
 48
50.0
100
AcDbBlockBegin
  2
*D28
 70
     1
 10
0.0
 20
0.0
 30
0.0
  3
*D28
  1

  0
LINE
  5
35A26
330
35468
100
AcDbEntity
  8
寸法
 62
     0
 48
50.0
370
    -2
100
AcDbLine
 10
14017.64388821441
 20
-28799.10369776425
 30
0.0
 11
14017.64388821441
 21
-29500.80588849704
 31
0.0
  0
LINE
  5
35A27
330
35468
100
AcDbEntity
  8
寸法
 62
     0
 48
50.0
370
    -2
100
AcDbLine
 10
12917.64388821442
 20
-28799.10369776425
 30
0.0
 11
12917.64388821442
 21
-29500.80588849704
 31
0.0
  0
LINE
  5
35A28
330
35468
100
AcDbEntity
  8
寸法
 62
     0
 48
50.0
370
    -2
100
AcDbLine
 10
14017.64388821441
 20
-29455.80588849704
 30
0.0
 11
12917.64388821442
 21
-29455.80588849704
 31
0.0
  0
INSERT
  5
35A29
330
35468
100
AcDbEntity
  8
寸法
 62
     0
 48
50.0
370
    -2
100
AcDbBlockReference
  2
_DOTSMALL
 10
14017.64388821441
 20
-29455.80588849704
 30
0.0
 41
75.0
 42
75.0
 43
75.0
  0
INSERT
  5
35A2A
330
35468
100
AcDbEntity
  8
寸法
 62
     0
 48
50.0
370
    -2
100
AcDbBlockReference
  2
_DOTSMALL
 10
12917.64388821442
 20
-29455.80588849704
 30
0.0
 41
75.0
 42
75.0
 43
75.0
 50
180.0
  0
MTEXT
  5
35A2B
330
35468
100
AcDbEntity
  8
寸法
 62
     7
 48
50.0
100
AcDbMText
 10
13467.64388821442
 20
-29380.80588849704
 30
0.0
 40
90.0
 41
0.0
 71
     5
 72
     1
  1
\A1;1100
  7
STYLE1
 73
     1
 44
1.0
1001
ACAD
1000
MTEXTBEGIN
1070
    73
1070
     1
1070
    44
1040
1.0
1070
    74
1070
     0
1000
MTEXTEND
  0
POINT
  5
35A2C
330
35468
100
AcDbEntity
  8
DEFPOINTS
 62
     0
 48
50.0
100
AcDbPoint
 10
14017.64388821441
 20
-28784.10369776425
 30
0.0
  0
POINT
  5
35A2D
330
35468
100
AcDbEntity
  8
DEFPOINTS
 62
     0
 48
50.0
100
AcDbPoint
 10
12917.64388821442
 20
-28784.10369776425
 30
0.0
  0
POINT
  5
35A2E
330
35468
100
AcDbEntity
  8
DEFPOINTS
 62
     0
 48
50.0
100
AcDbPoint
 10
12917.64388821442
 20
-29455.80588849704
 30
0.0
  0
ENDBLK
  5
35473
330
35468
100
AcDbEntity
  8
0
 48
50.0
100
AcDbBlockEnd
  0
BLOCK
  5
35B1A
330
35B12
100
AcDbEntity
  8
0
 48
50.0
100
AcDbBlockBegin
  2
*D29
 70
     1
 10
0.0
 20
0.0
 30
0.0
  3
*D29
  1

  0
LINE
  5
35B26
330
35B12
100
AcDbEntity
  8
寸法
 62
     0
 48
50.0
370
    -2
100
AcDbLine
 10
5126.476407838331
 20
-27917.65356941935
 30
0.0
 11
4755.604571127103
 21
-27917.65356941935
 31
0.0
  0
LINE
  5
35B27
330
35B12
100
AcDbEntity
  8
寸法
 62
     0
 48
50.0
370
    -2
100
AcDbLine
 10
5126.476407838338
 20
-27817.65356941936
 30
0.0
 11
4755.604571127103
 21
-27817.65356941936
 31
0.0
  0
LINE
  5
35B28
330
35B12
100
AcDbEntity
  8
寸法
 62
     0
 48
50.0
370
    -2
100
AcDbLine
 10
4800.604571127103
 20
-27917.65356941935
 30
0.0
 11
4800.604571127103
 21
-27817.65356941936
 31
0.0
  0
LINE
  5
35B29
330
35B12
100
AcDbEntity
  8
寸法
 62
     0
 48
50.0
370
    -2
100
AcDbLine
 10
4800.604571127103
 20
-27817.65356941936
 30
0.0
 11
4800.604571127103
 21
-27538.58270327763
 31
0.0
  0
INSERT
  5
35B2A
330
35B12
100
AcDbEntity
  8
寸法
 62
     0
 48
50.0
370
    -2
100
AcDbBlockReference
  2
_DOTSMALL
 10
4800.604571127103
 20
-27917.65356941935
 30
0.0
 41
75.0
 42
75.0
 43
75.0
 50
270.0
  0
INSERT
  5
35B2B
330
35B12
100
AcDbEntity
  8
寸法
 62
     0
 48
50.0
370
    -2
100
AcDbBlockReference
  2
_DOTSMALL
 10
4800.604571127103
 20
-27817.65356941936
 30
0.0
 41
75.0
 42
75.0
 43
75.0
 50
90.0
  0
MTEXT
  5
35B2C
330
35B12
100
AcDbEntity
  8
寸法
 62
     7
 48
50.0
100
AcDbMText
 10
4725.604571127108
 20
-27640.6181363485
 30
0.0
 40
90.0
 41
0.0
 71
     5
 72
     1
  1
\A1;100
  7
STYLE1
 11
0.0000000000000001
 21
1.0
 31
0.0
 73
     1
 44
1.0
1001
ACAD
1000
MTEXTBEGIN
1070
    73
1070
     1
1070
    44
1040
1.0
1070
    74
1070
     0
1000
MTEXTEND
  0
POINT
  5
35B2D
330
35B12
100
AcDbEntity
  8
DEFPOINTS
 62
     0
 48
50.0
100
AcDbPoint
 10
5141.476407838331
 20
-27917.65356941935
 30
0.0
  0
POINT
  5
35B2E
330
35B12
100
AcDbEntity
  8
DEFPOINTS
 62
     0
 48
50.0
100
AcDbPoint
 10
5141.476407838338
 20
-27817.65356941936
 30
0.0
  0
POINT
  5
35B2F
330
35B12
100
AcDbEntity
  8
DEFPOINTS
 62
     0
 48
50.0
100
AcDbPoint
 10
4800.604571127103
 20
-27817.65356941936
 30
0.0
  0
ENDBLK
  5
35B1B
330
35B12
100
AcDbEntity
  8
0
 48
50.0
100
AcDbBlockEnd
  0
ENDSEC
  0
SECTION
  2
ENTITIES
  0
MTEXT
  5
2B89A
102
{ACAD_REACTORS
330
2B89B
102
}
330
747D
100
AcDbEntity
  8
寸法
 62
     7
 48
50.0
100
AcDbMText
 10
10147.989882903
 20
-28372.88977626318
 30
0.0
 40
90.0
 41
0.0
 71
     6
 72
     1
  1
\A1;柱
  7
STYLE1
 73
     1
 44
1.0
1001
ACAD
1000
MTEXTBEGIN
1070
    73
1070
     1
1070
    44
1040
1.0
1070
    74
1070
     0
1000
MTEXTEND
  0
LEADER
  5
2B89B
330
747D
100
AcDbEntity
  8
寸法
 48
50.0
100
AcDbLeader
  3
INABA_S30G
 73
     0
 75
     1
 40
90.0
 41
108.0
 76
     3
 10
10341.47640783834
 20
-28117.65356941935
 30
0.0
 10
10252.989882903
 20
-28447.88977626319
 30
0.0
 10
10177.989882903
 20
-28447.88977626319
 30
0.0
  0
MTEXT
  5
2B89C
330
747D
100
AcDbEntity
  8
寸法
 62
     7
 48
50.0
100
AcDbMText
 10
5367.468292620528
 20
-29863.37352355186
 30
0.0
 40
90.0
 41
0.0
 71
     4
 72
     1
  1
\A1;床コンクリート打コテ押エ
  7
STYLE1
 73
     1
 44
1.0
1001
ACAD
1000
MTEXTBEGIN
1070
    73
1070
     1
1070
    44
1040
1.0
1070
    74
1070
     0
1000
MTEXTEND
  0
DIMENSION
  5
2B89D
330
747D
100
AcDbEntity
  8
寸法
 48
50.0
100
AcDbDimension
  2
*D18
 10
9764.161904554152
 20
-28117.65356941935
 30
0.0
 11
9689.161904554156
 21
-27967.65356941934
 31
0.0
 70
    32
 71
     5
 42
300.0
  3
INABA_S30G
100
AcDbAlignedDimension
 13
9941.476407838338
 23
-27817.65356941935
 33
0.0
 14
9941.476407838338
 24
-28117.65356941935
 34
0.0
 50
90.0
100
AcDbRotatedDimension
  0
DIMENSION
  5
2B89E
330
747D
100
AcDbEntity
  8
寸法
 48
50.0
100
AcDbDimension
  2
*D17
 10
9586.847401269981
 20
-28917.65356941935
 30
0.0
 11
9511.847401269987
 21
-28367.65356941934
 31
0.0
 70
    32
 71
     5
 42
1100.0
  3
INABA_S30G
100
AcDbAlignedDimension
 13
9941.476407838338
 23
-27817.65356941935
 33
0.0
 14
9941.476407838338
 24
-28917.65356941935
 34
0.0
 50
90.0
100
AcDbRotatedDimension
  0
DIMENSION
  5
2B89F
330
747D
100
AcDbEntity
  8
寸法
 48
50.0
100
AcDbDimension
  2
*D16
 10
9764.161904554152
 20
-28917.65356941935
 30
0.0
 11
9689.161904554158
 21
-28517.65356941935
 31
0.0
 70
    32
 71
     5
 42
800.0
  3
INABA_S30G
100
AcDbAlignedDimension
 13
9941.476407838338
 23
-28117.65356941935
 33
0.0
 14
9941.476407838338
 24
-28917.65356941935
 34
0.0
 50
90.0
100
AcDbRotatedDimension
  0
DIMENSION
  5
2B8A0
330
747D
100
AcDbEntity
  8
寸法
 48
50.0
100
AcDbDimension
  2
*D15
 10
10741.47640783833
 20
-29393.92600149352
 30
0.0
 11
10341.47640783834
 21
-29393.92600149352
 31
0.0
 70
   160
 71
     5
 42
800.0
  3
INABA_S30G
100
AcDbAlignedDimension
 13
9941.476407838338
 23
-28917.65356941935
 33
0.0
 14
10741.47640783833
 24
-28917.65356941935
 34
0.0
100
AcDbRotatedDimension
  0
DIMENSION
  5
2B8A1
330
747D
100
AcDbEntity
  8
寸法
 48
50.0
100
AcDbDimension
  2
*D14
 10
9941.476407838338
 20
-29155.78978545644
 30
0.0
 11
10141.47640783834
 21
-29080.78978545644
 31
0.0
 70
    32
 71
     5
 42
400.0
  3
INABA_S30G
100
AcDbAlignedDimension
 13
10341.47640783834
 23
-28367.65356941935
 33
0.0
 14
9941.476407838338
 24
-28917.65356941935
 34
0.0
100
AcDbRotatedDimension
  0
MTEXT
  5
2B8A2
330
747D
100
AcDbEntity
  8
寸法
 62
     7
 48
50.0
100
AcDbMText
 10
8758.660508442009
 20
-28871.36639132456
 30
0.0
 40
90.0
 41
0.0
 71
     4
 72
     1
  1
\A1;水勾配 1/100 
  7
STYLE1
 11
0.0000000000000001
 21
1.0
 31
0.0
 73
     1
 44
1.0
1001
ACAD
1000
MTEXTBEGIN
1070
    73
1070
     1
1070
    44
1040
1.0
1070
    74
1070
     0
1000
MTEXTEND
  0
LINE
  5
2B8A3
330
747D
100
AcDbEntity
  8
寸法
 48
50.0
100
AcDbLine
 10
8853.098444507814
 20
-28226.88748587934
 30
0.0
 11
8853.098444507814
 21
-29017.51493496547
 31
0.0
  0
LINE
  5
2B8A4
330
747D
100
AcDbEntity
  8
寸法
 48
50.0
100
AcDbLine
 10
8853.098444507814
 20
-29017.51493496547
 30
0.0
 11
8885.946727340627
 21
-28894.92347449201
 31
0.0
  0
LINE
  5
2B8A5
330
747D
100
AcDbEntity
  8
寸法
 48
50.0
100
AcDbLine
 10
8853.098444507814
 20
-29017.51493496547
 30
0.0
 11
8820.250161675001
 21
-28894.92347449201
 31
0.0
  0
LINE
  5
2B8AA
330
747D
100
AcDbEntity
  8
寸法
 48
50.0
100
AcDbLine
 10
5541.476407838338
 20
-28996.55253189948
 30
0.0
 11
5541.476407838338
 21
-28367.65356941935
 31
0.0
  0
DIMENSION
  5
2B8AB
330
747D
100
AcDbEntity
  8
寸法
 48
50.0
100
AcDbDimension
  2
*D13
 10
5541.476407838338
 20
-27508.20127528825
 30
0.0
 11
5341.476407838338
 21
-27433.20127528825
 31
0.0
 70
    32
 71
     5
 42
400.0
  3
INABA_S30G
100
AcDbAlignedDimension
 13
5141.476407838338
 23
-27817.65356941936
 33
0.0
 14
5541.476407838338
 24
-27867.65356941935
 34
0.0
100
AcDbRotatedDimension
  0
DIMENSION
  5
2B8B0
330
747D
100
AcDbEntity
  8
寸法
 48
50.0
100
AcDbDimension
  2
*D12
 10
7941.476407838338
 20
-27508.20127528825
 30
0.0
 11
6741.476407838338
 21
-27433.19241702053
 31
0.0
 70
    32
 71
     5
 42
2400.0
  3
INABA_S30G
100
AcDbAlignedDimension
 13
5541.476407838338
 23
-27867.65356941935
 33
0.0
 14
7941.476407838338
 24
-27867.65356941935
 34
0.0
100
AcDbRotatedDimension
  0
DIMENSION
  5
2B8B1
330
747D
100
AcDbEntity
  8
寸法
 48
50.0
100
AcDbDimension
  2
*D11
 10
10741.47640783833
 20
-27508.20127528825
 30
0.0
 11
10541.47640783833
 21
-27433.20127528825
 31
0.0
 70
    32
 71
     5
 42
400.0
  3
INABA_S30G
100
AcDbAlignedDimension
 13
10341.47640783834
 23
-27867.65356941935
 33
0.0
 14
10741.47640783833
 24
-27817.65356941936
 34
0.0
100
AcDbRotatedDimension
  0
DIMENSION
  5
2B8B2
330
747D
100
AcDbEntity
  8
寸法
 48
50.0
100
AcDbDimension
  2
*D10
 10
10741.47640783833
 20
-27314.16423631393
 30
0.0
 11
7941.476407838338
 21
-27239.16423631393
 31
0.0
 70
    32
  1
基礎土間寸法 <>
 71
     5
 42
5600.0
  3
INABA_S30G
100
AcDbAlignedDimension
 13
5141.476407838338
 23
-27817.65356941936
 33
0.0
 14
10741.47640783833
 24
-27817.65356941936
 34
0.0
100
AcDbRotatedDimension
  0
DIMENSION
  5
2B8B3
330
747D
100
AcDbEntity
  8
寸法
 48
50.0
100
AcDbDimension
  2
*D9
 10
4800.604571127103
 20
-28117.65356941935
 30
0.0
 11
4725.595712859392
 21
-28017.65356941935
 31
0.0
 70
    32
 71
     5
 42
200.0
  3
INABA_S30G
100
AcDbAlignedDimension
 13
5141.476407838331
 23
-27917.65356941935
 33
0.0
 14
5291.476407838334
 24
-28117.65356941935
 34
0.0
 50
90.0
100
AcDbRotatedDimension
  0
DIMENSION
  5
2B8B4
330
747D
100
AcDbEntity
  8
寸法
 48
50.0
100
AcDbDimension
  2
*D8
 10
4800.604571127103
 20
-30117.65356941935
 30
0.0
 11
4725.595712859392
 21
-29117.65356941935
 31
0.0
 70
    32
 71
     5
 42
2000.0
  3
INABA_S30G
100
AcDbAlignedDimension
 13
5291.476407838334
 23
-28117.65356941935
 33
0.0
 14
5141.476407838338
 24
-30117.65356941935
 34
0.0
 50
90.0
100
AcDbRotatedDimension
  0
DIMENSION
  5
2B8B5
330
747D
100
AcDbEntity
  8
寸法
 48
50.0
100
AcDbDimension
  2
*D7
 10
4577.855209110643
 20
-30117.65356941935
 30
0.0
 11
4502.846350842931
 21
-29017.65356941935
 31
0.0
 70
    32
  1
基礎土間寸法 <>
 71
     5
 42
2200.0
  3
INABA_S30G
100
AcDbAlignedDimension
 13
5141.476407838331
 23
-27917.65356941935
 33
0.0
 14
5141.476407838338
 24
-30117.65356941935
 34
0.0
 50
90.0
100
AcDbRotatedDimension
  0
DIMENSION
  5
2B8B6
330
747D
100
AcDbEntity
  8
寸法
 48
50.0
100
AcDbDimension
  2
*D6
 10
10571.47640783829
 20
-30446.14128775588
 30
0.0
 11
7941.476407838338
 21
-30371.13242948816
 31
0.0
 70
    32
  1
屋根寸法 <>
 71
     5
 42
5259.999999999912
  3
INABA_S30G
100
AcDbAlignedDimension
 13
5311.476407838381
 23
-29980.65356941935
 33
0.0
 14
10571.47640783829
 24
-29980.65356941935
 34
0.0
100
AcDbRotatedDimension
  0
DIMENSION
  5
2B8B7
330
747D
100
AcDbEntity
  8
寸法
 48
50.0
100
AcDbDimension
  2
*D5
 10
10741.47640783833
 20
-30446.14128775588
 30
0.0
 11
10656.47640783831
 21
-30371.14128775588
 31
0.0
 70
    32
 71
     5
 42
170.0000000000436
  3
INABA_S30G
100
AcDbAlignedDimension
 13
10571.47640783829
 23
-29980.65356941935
 33
0.0
 14
10741.47640783833
 24
-30117.65356941935
 34
0.0
100
AcDbRotatedDimension
  0
LINE
  5
2B8CB
330
747D
100
AcDbEntity
  8
部品1
 48
30.0
100
AcDbLine
 10
5141.476407838338
 20
-30117.65356941935
 30
0.0
 11
10741.47640783833
 21
-30117.65356941935
 31
0.0
  0
LINE
  5
2B8CC
330
747D
100
AcDbEntity
  8
文字
 48
50.0
100
AcDbLine
 10
5141.476407838331
 20
-27917.65356941935
 30
0.0
 11
10741.47640783833
 21
-27917.65356941935
 31
0.0
  0
LINE
  5
2B8F0
330
747D
100
AcDbEntity
  8
部品1
 48
50.0
100
AcDbLine
 10
10741.47640783833
 20
-27817.65356941936
 30
0.0
 11
9941.476407838338
 21
-27817.65356941936
 31
0.0
  0
LINE
  5
2B8F1
330
747D
100
AcDbEntity
  8
部品1
 48
50.0
100
AcDbLine
 10
10741.47640783833
 20
-27817.65356941936
 30
0.0
 11
10741.47640783833
 21
-30117.65356941935
 31
0.0
  0
LINE
  5
2B8F2
330
747D
100
AcDbEntity
  8
部品1
 48
50.0
100
AcDbLine
 10
9941.476407838338
 20
-28917.65356941935
 30
0.0
 11
10741.47640783833
 21
-28917.65356941935
 31
0.0
  0
LINE
  5
2B8F3
330
747D
100
AcDbEntity
  8
部品1
 48
50.0
100
AcDbLine
 10
9941.476407838331
 20
-27817.65356941936
 30
0.0
 11
9941.476407838338
 21
-28917.65356941935
 31
0.0
  0
CIRCLE
  5
2B8F4
330
747D
100
AcDbEntity
  8
部品1
 48
50.0
100
AcDbCircle
 10
10341.47640783834
 20
-28117.65356941935
 30
0.0
 40
44.55
  0
LINE
  5
2B8F5
330
747D
100
AcDbEntity
  8
センター
 48
10.0
100
AcDbLine
 10
10091.47640783834
 20
-28117.65356941935
 30
0.0
 11
10591.47640783834
 21
-28117.65356941935
 31
0.0
  0
LINE
  5
2B8F6
330
747D
100
AcDbEntity
  8
センター
 48
10.0
100
AcDbLine
 10
10341.47640783834
 20
-27867.65356941935
 30
0.0
 11
10341.47640783834
 21
-28367.65356941935
 31
0.0
  0
LINE
  5
2B8F7
330
747D
100
AcDbEntity
  8
センター
 48
10.0
100
AcDbLine
 10
5541.476407838338
 20
-27867.65356941935
 30
0.0
 11
5541.476407838338
 21
-28367.65356941935
 31
0.0
  0
LINE
  5
2B8F8
330
747D
100
AcDbEntity
  8
センター
 48
10.0
100
AcDbLine
 10
5291.476407838338
 20
-28117.65356941935
 30
0.0
 11
5791.476407838338
 21
-28117.65356941935
 31
0.0
  0
CIRCLE
  5
2B8F9
330
747D
100
AcDbEntity
  8
部品1
 48
50.0
100
AcDbCircle
 10
5541.476407838338
 20
-28117.65356941935
 30
0.0
 40
44.55
  0
LINE
  5
2B8FA
330
747D
100
AcDbEntity
  8
部品1
 48
50.0
100
AcDbLine
 10
5141.476407838331
 20
-27817.65356941936
 30
0.0
 11
5141.476407838334
 21
-30117.65356941935
 31
0.0
  0
LINE
  5
2B8FB
330
747D
100
AcDbEntity
  8
部品1
 48
50.0
100
AcDbLine
 10
5141.476407838338
 20
-28917.65356941935
 30
0.0
 11
5941.476407838337
 21
-28917.65356941935
 31
0.0
  0
LINE
  5
2B8FC
330
747D
100
AcDbEntity
  8
部品1
 48
50.0
100
AcDbLine
 10
5941.476407838337
 20
-27817.65356941936
 30
0.0
 11
5941.476407838337
 21
-28917.65356941935
 31
0.0
  0
LINE
  5
2B8FD
330
747D
100
AcDbEntity
  8
部品1
 48
50.0
100
AcDbLine
 10
5941.476407838337
 20
-27817.65356941936
 30
0.0
 11
5141.476407838338
 21
-27817.65356941936
 31
0.0
  0
LINE
  5
2B8FE
330
747D
100
AcDbEntity
  8
想像線
 48
10.0
100
AcDbLine
 10
5311.476407838381
 20
-29980.65356941935
 30
0.0
 11
10571.47640783829
 21
-29980.65356941935
 31
0.0
  0
LINE
  5
2B8FF
330
747D
100
AcDbEntity
  8
想像線
 48
10.0
100
AcDbLine
 10
10571.47640783829
 20
-29980.65356941935
 30
0.0
 11
10571.47640783829
 21
-27960.65356941935
 31
0.0
  0
LINE
  5
2B900
330
747D
100
AcDbEntity
  8
想像線
 48
10.0
100
AcDbLine
 10
10571.47640783829
 20
-27960.65356941935
 30
0.0
 11
5311.476407838381
 21
-27960.65356941935
 31
0.0
  0
LINE
  5
2B901
330
747D
100
AcDbEntity
  8
想像線
 48
10.0
100
AcDbLine
 10
5311.476407838381
 20
-29980.65356941935
 30
0.0
 11
5311.476407838381
 21
-27960.65356941935
 31
0.0
  0
LINE
  5
2B902
330
747D
100
AcDbEntity
  8
センター
 48
10.0
100
AcDbLine
 10
5291.476407838338
 20
-28117.65356941935
 30
0.0
 11
10591.47640783834
 21
-28117.65356941935
 31
0.0
  0
DIMENSION
  5
2B91D
330
747D
100
AcDbEntity
  8
寸法
 48
50.0
100
AcDbDimension
  2
*D4
 10
11123.75063020195
 20
-29980.65356941935
 30
0.0
 11
11048.74177193424
 21
-28970.65356941935
 31
0.0
 70
    32
  1
屋根寸法 <>
 71
     5
 42
2020.0
  3
INABA_S30G
100
AcDbAlignedDimension
 13
10571.47640783829
 23
-27960.65356941935
 33
0.0
 14
10571.47640783829
 24
-29980.65356941935
 34
0.0
 50
90.0
100
AcDbRotatedDimension
  0
DIMENSION
  5
2B91E
330
747D
100
AcDbEntity
  8
寸法
 48
50.0
100
AcDbDimension
  2
*D3
 10
11123.75063020196
 20
-27817.65356941936
 30
0.0
 11
11123.75063020197
 21
-27634.28960838867
 31
0.0
 70
   160
 71
     5
 42
142.9999999999927
  3
INABA_S30G
100
AcDbAlignedDimension
 13
10571.47640783829
 23
-27960.65356941935
 33
0.0
 14
10741.47640783833
 24
-27817.65356941936
 34
0.0
 50
90.0
100
AcDbRotatedDimension
  0
DIMENSION
  5
2B91F
330
747D
100
AcDbEntity
  8
寸法
 48
50.0
100
AcDbDimension
  2
*D2
 10
11123.75063020195
 20
-30117.65356941935
 30
0.0
 11
11123.75063020195
 21
-30294.65356941935
 31
0.0
 70
   160
 71
     5
 42
137.0
  3
INABA_S30G
100
AcDbAlignedDimension
 13
10571.47640783829
 23
-29980.65356941935
 33
0.0
 14
10741.47640783833
 24
-30117.65356941935
 34
0.0
 50
90.0
100
AcDbRotatedDimension
  0
DIMENSION
  5
2B923
330
747D
100
AcDbEntity
  8
寸法
 48
50.0
100
AcDbDimension
  2
*D1
 10
5141.476407838341
 20
-30446.14128775588
 30
0.0
 11
5226.476407838363
 21
-30371.14128775588
 31
0.0
 70
    32
 71
     5
 42
170.0000000000436
  3
INABA_S30G
100
AcDbAlignedDimension
 13
5311.476407838385
 23
-29980.65356941935
 33
0.0
 14
5141.476407838341
 24
-30117.65356941935
 34
0.0
 50
180.0
100
AcDbRotatedDimension
  0
TEXT
  5
2B924
330
747D
100
AcDbEntity
  8
文字
 62
     7
 48
50.0
100
AcDbText
 10
14436.32872282268
 20
-32552.46931115722
 30
0.0
 40
75.0
  1
             <縮尺> S=1/30
  7
STYLE2
100
AcDbText
  0
TEXT
  5
2B925
330
747D
100
AcDbEntity
  8
文字
 62
     7
 48
50.0
100
AcDbText
 10
14681.94723720305
 20
-32697.44804557095
 30
0.0
 40
75.0
  1
～一般型～
  7
STYLE2
100
AcDbText
  0
TEXT
  5
2B926
330
747D
100
AcDbEntity
  8
文字
 62
     7
 48
50.0
100
AcDbText
 10
14495.21336087738
 20
-32963.21505613229
 30
0.0
 40
120.0
  1
BP-24UL-2
  7
STYLE3
100
AcDbText
  0
LINE
  5
2B927
330
747D
100
AcDbEntity
  8
仕様書枠
  6
Continuous
 48
50.0
100
AcDbLine
 10
14231.62984490618
 20
-32426.13759087564
 30
0.0
 11
14231.62984490618
 21
-32726.13759087564
 31
0.0
  0
LINE
  5
2B928
330
747D
100
AcDbEntity
  8
仕様書枠
 48
50.0
100
AcDbLine
 10
13373.62984490618
 20
-32726.13759087564
 30
0.0
 11
14231.62984490618
 21
-32726.13759087564
 31
0.0
  0
TEXT
  5
2B929
330
747D
100
AcDbEntity
  8
文字
 62
     7
 48
50.0
100
AcDbText
 10
13450.28385306908
 20
-33269.06683056828
 30
0.0
 40
60.0
  1
○寒冷地等は、地域の実情に合わせた基礎にしてください。
  7
STYLE2
100
AcDbText
  0
TEXT
  5
2B92A
330
747D
100
AcDbEntity
  8
文字
 62
     7
 48
50.0
100
AcDbText
 10
13450.28385306908
 20
-33154.72994768297
 30
0.0
 40
60.0
  1
○間口寸法は柱芯寸法です。
  7
STYLE2
100
AcDbText
  0
TEXT
  5
2B92B
330
747D
100
AcDbEntity
  8
文字
 62
     7
 48
50.0
100
AcDbText
 10
13444.3073698945
 20
-32968.18204129829
 30
0.0
 40
120.0
  1
機種名
  7
STYLE2
100
AcDbText
  0
TEXT
  5
2B92C
330
747D
100
AcDbEntity
  8
文字
 62
     7
 48
50.0
100
AcDbText
 10
13415.46413733886
 20
-32654.81963530318
 30
0.0
 40
150.0
  1
基 礎 図
  7
STYLE2
100
AcDbText
  0
LINE
  5
2B92D
330
747D
100
AcDbEntity
  8
文字
 62
     7
 48
50.0
100
AcDbLine
 10
13433.62984490618
 20
-33026.13759087565
 30
0.0
 11
15713.62984490618
 21
-33026.13759087565
 31
0.0
  0
LINE
  5
2B92E
330
747D
100
AcDbEntity
  8
仕様書枠
 48
50.0
100
AcDbLine
 10
13373.62984490618
 20
-32426.13759087564
 30
0.0
 11
15773.62984490618
 21
-32426.13759087564
 31
0.0
  0
LINE
  5
2B92F
330
747D
100
AcDbEntity
  8
仕様書枠
 48
50.0
100
AcDbLine
 10
3648.229844906184
 20
-33326.13759087565
 30
0.0
 11
15773.62984490618
 21
-33326.13759087565
 31
0.0
  0
LINE
  5
2B930
330
747D
100
AcDbEntity
  8
仕様書枠
 48
50.0
100
AcDbLine
 10
15773.62984490618
 20
-32426.13759087564
 30
0.0
 11
15773.62984490618
 21
-33326.13759087565
 31
0.0
  0
LINE
  5
2B931
330
747D
100
AcDbEntity
  8
仕様書枠
  6
Continuous
 48
50.0
100
AcDbLine
 10
13373.62984490618
 20
-32426.13759087564
 30
0.0
 11
13373.62984490618
 21
-33326.13759087565
 31
0.0
  0
LINE
  5
2B932
330
747D
100
AcDbEntity
  8
補助
  6
PHANTOM
 62
   230
 48
50.0
100
AcDbLine
 10
13373.62983762337
 20
-24768.9375962191
 30
0.0
 11
13373.62983762337
 21
-29726.1375962191
 31
0.0
  0
LINE
  5
2B933
330
747D
100
AcDbEntity
  8
補助
  6
PHANTOM
 62
   230
 48
50.0
100
AcDbLine
 10
15773.62983762337
 20
-24768.9375962191
 30
0.0
 11
15773.62983762337
 21
-32426.1375962191
 31
0.0
  0
LINE
  5
2B934
330
747D
100
AcDbEntity
  8
補助
  6
PHANTOM
 62
   230
 48
50.0
100
AcDbLine
 10
3648.229837623372
 20
-24768.9375962191
 30
0.0
 11
15773.62983762337
 21
-24768.9375962191
 31
0.0
  0
LINE
  5
2B935
330
747D
100
AcDbEntity
  8
補助
  6
PHANTOM
 62
   230
 48
50.0
100
AcDbLine
 10
13373.62983762337
 20
-29726.1375962191
 30
0.0
 11
15773.62983762337
 21
-29726.1375962191
 31
0.0
  0
LINE
  5
2B936
330
747D
100
AcDbEntity
  8
補助
  6
PHANTOM
 62
   230
 48
50.0
100
AcDbLine
 10
3648.229837623372
 20
-33326.1375962191
 30
0.0
 11
3648.229837623372
 21
-24768.9375962191
 31
0.0
  0
LINE
  5
2BD47
330
747D
100
AcDbEntity
  8
部品1
 48
50.0
100
AcDbLine
 10
8341.476407838339
 20
-27817.65356941936
 30
0.0
 11
7541.476407838338
 21
-27817.65356941936
 31
0.0
  0
LINE
  5
2BD48
330
747D
100
AcDbEntity
  8
部品1
 48
50.0
100
AcDbLine
 10
7541.476407838338
 20
-27817.65356941936
 30
0.0
 11
7541.476407838338
 21
-28917.65356941935
 31
0.0
  0
LINE
  5
2BD49
330
747D
100
AcDbEntity
  8
部品1
 48
50.0
100
AcDbLine
 10
7541.476407838338
 20
-28917.65356941935
 30
0.0
 11
8341.476407838339
 21
-28917.65356941935
 31
0.0
  0
CIRCLE
  5
2BD4A
330
747D
100
AcDbEntity
  8
部品1
 48
50.0
100
AcDbCircle
 10
7941.476407838338
 20
-28117.65356941935
 30
0.0
 40
44.55
  0
LINE
  5
2BD4B
330
747D
100
AcDbEntity
  8
センター
 48
10.0
100
AcDbLine
 10
7691.476407838338
 20
-28117.65356941935
 30
0.0
 11
8191.476407838338
 21
-28117.65356941935
 31
0.0
  0
LINE
  5
2BD4C
330
747D
100
AcDbEntity
  8
センター
 48
10.0
100
AcDbLine
 10
7941.476407838338
 20
-27867.65356941935
 30
0.0
 11
7941.476407838338
 21
-28367.65356941935
 31
0.0
  0
LINE
  5
2BD4D
330
747D
100
AcDbEntity
  8
部品1
 48
50.0
100
AcDbLine
 10
8341.476407838339
 20
-27817.65356941936
 30
0.0
 11
8341.476407838339
 21
-28917.65356941935
 31
0.0
  0
DIMENSION
  5
2BD8D
330
747D
100
AcDbEntity
  8
寸法
 48
50.0
100
AcDbDimension
  2
*D19
 10
10341.47640783834
 20
-27508.20127528825
 30
0.0
 11
9141.476407838338
 21
-27433.19241702053
 31
0.0
 70
    32
 71
     5
 42
2400.0
  3
INABA_S30G
100
AcDbAlignedDimension
 13
7941.476407838338
 23
-27867.65356941935
 33
0.0
 14
10341.47640783834
 24
-27867.65356941935
 34
0.0
100
AcDbRotatedDimension
  0
LINE
  5
3513C
330
747D
100
AcDbEntity
  8
U7
100
AcDbLine
 10
13817.64388821442
 20
-28744.10369776425
 30
0.0
 11
13817.64388821442
 21
-28754.10369776425
 31
0.0
  0
LINE
  5
3513D
330
747D
100
AcDbEntity
  8
U7
100
AcDbLine
 10
13617.64388821442
 20
-28744.10369776425
 30
0.0
 11
13617.64388821442
 21
-28754.10369776425
 31
0.0
  0
LINE
  5
3513E
330
747D
100
AcDbEntity
  8
U7
100
AcDbLine
 10
13817.64388821442
 20
-28754.10369776425
 30
0.0
 11
13617.64388821442
 21
-28754.10369776425
 31
0.0
  0
LINE
  5
3513F
330
747D
100
AcDbEntity
  8
U7
100
AcDbLine
 10
13817.64388821442
 20
-28744.10369776425
 30
0.0
 11
13617.64388821442
 21
-28744.10369776425
 31
0.0
  0
LWPOLYLINE
  5
35140
330
747D
100
AcDbEntity
  8
寸法
 48
5.0
100
AcDbPolyline
 90
        3
 70
     0
 43
0.0
 10
13017.64388821442
 20
-28702.90369776426
 10
12678.72447463486
 20
-29098.55464219988
 10
11761.21491948991
 20
-29098.55464219988
1001
ACAD
1000
DSTYLE
1002
{
1070
   341
1005
0
1002
}
  0
TEXT
  5
35141
330
747D
100
AcDbEntity
  8
寸法
 62
     7
100
AcDbText
 10
11766.35135729324
 20
-29078.03363720153
 30
0.0
 40
90.0
  1
4-D10X5-D10以上
  7
STYLE1
100
AcDbText
  0
TEXT
  5
35142
330
747D
100
AcDbEntity
  8
寸法
 62
     7
100
AcDbText
 10
11766.35135729324
 20
-28963.5607164769
 30
0.0
 40
90.0
  1
ベース筋
  7
STYLE1
100
AcDbText
  0
CIRCLE
  5
35143
102
{ACAD_REACTORS
330
35534
102
}
330
747D
100
AcDbEntity
  8
U7
100
AcDbCircle
 10
13512.64388821442
 20
-28294.10369776425
 30
0.0
 40
5.0
  0
CIRCLE
  5
35144
102
{ACAD_REACTORS
330
35534
102
}
330
747D
100
AcDbEntity
  8
U7
100
AcDbCircle
 10
13922.64388821442
 20
-28294.10369776425
 30
0.0
 40
5.0
  0
LINE
  5
35145
102
{ACAD_REACTORS
330
35534
102
}
330
747D
100
AcDbEntity
  8
U7
100
AcDbLine
 10
13512.64388821442
 20
-28299.10369776425
 30
0.0
 11
13922.64388821442
 21
-28299.10369776424
 31
0.0
  0
LINE
  5
35146
102
{ACAD_REACTORS
330
35534
102
}
330
747D
100
AcDbEntity
  8
U7
100
AcDbLine
 10
13512.64388821442
 20
-28289.10369776425
 30
0.0
 11
13922.64388821442
 21
-28289.10369776425
 31
0.0
  0
CIRCLE
  5
35147
102
{ACAD_REACTORS
330
35535
102
}
330
747D
100
AcDbEntity
  8
U7
100
AcDbCircle
 10
13512.64388821442
 20
-28394.10369776425
 30
0.0
 40
5.0
  0
CIRCLE
  5
35148
102
{ACAD_REACTORS
330
35535
102
}
330
747D
100
AcDbEntity
  8
U7
100
AcDbCircle
 10
13922.64388821442
 20
-28394.10369776425
 30
0.0
 40
5.0
  0
LINE
  5
35149
102
{ACAD_REACTORS
330
35535
102
}
330
747D
100
AcDbEntity
  8
U7
100
AcDbLine
 10
13512.64388821442
 20
-28399.10369776425
 30
0.0
 11
13922.64388821442
 21
-28399.10369776424
 31
0.0
  0
LINE
  5
3514A
102
{ACAD_REACTORS
330
35535
102
}
330
747D
100
AcDbEntity
  8
U7
100
AcDbLine
 10
13512.64388821442
 20
-28389.10369776425
 30
0.0
 11
13922.64388821442
 21
-28389.10369776425
 31
0.0
  0
CIRCLE
  5
3514B
102
{ACAD_REACTORS
330
35536
102
}
330
747D
100
AcDbEntity
  8
U7
100
AcDbCircle
 10
13512.64388821442
 20
-28494.10369776425
 30
0.0
 40
5.0
  0
CIRCLE
  5
3514C
102
{ACAD_REACTORS
330
35536
102
}
330
747D
100
AcDbEntity
  8
U7
100
AcDbCircle
 10
13922.64388821442
 20
-28494.10369776425
 30
0.0
 40
5.0
  0
LINE
  5
3514D
102
{ACAD_REACTORS
330
35536
102
}
330
747D
100
AcDbEntity
  8
U7
100
AcDbLine
 10
13512.64388821442
 20
-28489.10369776425
 30
0.0
 11
13922.64388821442
 21
-28489.10369776425
 31
0.0
  0
LINE
  5
3514E
102
{ACAD_REACTORS
330
35536
102
}
330
747D
100
AcDbEntity
  8
U7
100
AcDbLine
 10
13512.64388821442
 20
-28499.10369776425
 30
0.0
 11
13922.64388821442
 21
-28499.10369776424
 31
0.0
  0
CIRCLE
  5
3514F
102
{ACAD_REACTORS
330
35537
102
}
330
747D
100
AcDbEntity
  8
U7
100
AcDbCircle
 10
13512.64388821442
 20
-28594.10369776425
 30
0.0
 40
5.0
  0
CIRCLE
  5
35150
102
{ACAD_REACTORS
330
35537
102
}
330
747D
100
AcDbEntity
  8
U7
100
AcDbCircle
 10
13922.64388821442
 20
-28594.10369776425
 30
0.0
 40
5.0
  0
LINE
  5
35151
102
{ACAD_REACTORS
330
35537
102
}
330
747D
100
AcDbEntity
  8
U7
100
AcDbLine
 10
13512.64388821442
 20
-28599.10369776425
 30
0.0
 11
13922.64388821442
 21
-28599.10369776424
 31
0.0
  0
LINE
  5
35152
102
{ACAD_REACTORS
330
35537
102
}
330
747D
100
AcDbEntity
  8
U7
100
AcDbLine
 10
13512.64388821442
 20
-28589.10369776425
 30
0.0
 11
13922.64388821442
 21
-28589.10369776425
 31
0.0
  0
LINE
  5
35153
102
{ACAD_REACTORS
330
35538
102
}
330
747D
100
AcDbEntity
  8
KIN-T
100
AcDbLine
 10
13729.19388821442
 20
-28659.10369776425
 30
0.0
 11
13729.19388821442
 21
-28672.10369776425
 31
0.0
  0
LINE
  5
35154
102
{ACAD_REACTORS
330
35538
102
}
330
747D
100
AcDbEntity
  8
KIN-T
100
AcDbLine
 10
13729.19388821442
 20
-28672.10369776425
 30
0.0
 11
13874.64388821443
 21
-28672.10369776425
 31
0.0
  0
ARC
  5
35155
102
{ACAD_REACTORS
330
35538
102
}
330
747D
100
AcDbEntity
  8
KIN-T
100
AcDbCircle
 10
13874.64388821443
 20
-28629.10369776425
 30
0.0
 40
43.0
100
AcDbArc
 50
270.0
 51
0.0
  0
ARC
  5
35156
102
{ACAD_REACTORS
330
35538
330
35539
102
}
330
747D
100
AcDbEntity
  8
KIN-T
100
AcDbCircle
 10
13874.64388821443
 20
-28629.10369776425
 30
0.0
 40
30.0
100
AcDbArc
 50
270.0
 51
0.0
  0
LINE
  5
35157
102
{ACAD_REACTORS
330
35538
330
35539
102
}
330
747D
100
AcDbEntity
  8
KIN-T
100
AcDbLine
 10
13904.64388821443
 20
-28289.10369776425
 30
0.0
 11
13904.64388821443
 21
-28629.10369776425
 31
0.0
  0
LINE
  5
35158
102
{ACAD_REACTORS
330
35538
102
}
330
747D
100
AcDbEntity
  8
KIN-T
100
AcDbLine
 10
13917.64388821443
 20
-28289.10369776425
 30
0.0
 11
13917.64388821443
 21
-28629.10369776425
 31
0.0
  0
LINE
  5
35159
102
{ACAD_REACTORS
330
35538
102
}
330
747D
100
AcDbEntity
  8
KIN-T
100
AcDbLine
 10
13904.64388821443
 20
-28289.10369776425
 30
0.0
 11
13917.64388821443
 21
-28289.10369776425
 31
0.0
  0
LINE
  5
3515A
102
{ACAD_REACTORS
330
35538
330
35539
102
}
330
747D
100
AcDbEntity
  8
KIN-T
100
AcDbLine
 10
13729.19388821442
 20
-28659.10369776425
 30
0.0
 11
13874.64388821443
 21
-28659.10369776425
 31
0.0
  0
LINE
  5
3515B
102
{ACAD_REACTORS
330
3553A
102
}
330
747D
100
AcDbEntity
  8
KIN-T
100
AcDbLine
 10
13342.19388821442
 20
-28659.10369776425
 30
0.0
 11
13342.19388821442
 21
-28672.10369776425
 31
0.0
  0
LINE
  5
3515C
102
{ACAD_REACTORS
330
3553A
102
}
330
747D
100
AcDbEntity
  8
KIN-T
100
AcDbLine
 10
13342.19388821442
 20
-28672.10369776425
 30
0.0
 11
13487.64388821443
 21
-28672.10369776425
 31
0.0
  0
ARC
  5
3515D
102
{ACAD_REACTORS
330
3553A
102
}
330
747D
100
AcDbEntity
  8
KIN-T
100
AcDbCircle
 10
13487.64388821443
 20
-28629.10369776425
 30
0.0
 40
43.0
100
AcDbArc
 50
270.0
 51
0.0
  0
LINE
  5
3515E
102
{ACAD_REACTORS
330
3553A
102
}
330
747D
100
AcDbEntity
  8
KIN-T
100
AcDbLine
 10
13530.64388821443
 20
-28289.10369776425
 30
0.0
 11
13530.64388821443
 21
-28629.10369776425
 31
0.0
  0
LINE
  5
3515F
102
{ACAD_REACTORS
330
3553A
102
}
330
747D
100
AcDbEntity
  8
KIN-T
100
AcDbLine
 10
13517.64388821443
 20
-28289.10369776425
 30
0.0
 11
13530.64388821443
 21
-28289.10369776425
 31
0.0
  0
ARC
  5
35160
102
{ACAD_REACTORS
330
3553A
330
3553B
102
}
330
747D
100
AcDbEntity
  8
KIN-T
100
AcDbCircle
 10
13487.64388821443
 20
-28629.10369776425
 30
0.0
 40
30.0
100
AcDbArc
 50
270.0
 51
0.0
  0
LINE
  5
35161
102
{ACAD_REACTORS
330
3553A
330
3553B
102
}
330
747D
100
AcDbEntity
  8
KIN-T
100
AcDbLine
 10
13517.64388821443
 20
-28289.10369776425
 30
0.0
 11
13517.64388821443
 21
-28629.10369776425
 31
0.0
  0
LINE
  5
35162
102
{ACAD_REACTORS
330
3553A
330
3553B
102
}
330
747D
100
AcDbEntity
  8
KIN-T
100
AcDbLine
 10
13342.19388821442
 20
-28659.10369776425
 30
0.0
 11
13487.64388821443
 21
-28659.10369776425
 31
0.0
  0
LINE
  5
35163
102
{ACAD_REACTORS
330
3553C
102
}
330
747D
100
AcDbEntity
  8
部品1
 48
50.0
100
AcDbLine
 10
13001.89388821442
 20
-28709.10369776425
 30
0.0
 11
13001.89388821442
 21
-28719.10369776425
 31
0.0
  0
LINE
  5
35164
102
{ACAD_REACTORS
330
3553C
102
}
330
747D
100
AcDbEntity
  8
部品1
 48
50.0
100
AcDbLine
 10
13001.89388821442
 20
-28709.10369776425
 30
0.0
 11
13833.36343665233
 21
-28709.10369776425
 31
0.0
  0
LINE
  5
35165
102
{ACAD_REACTORS
330
3553C
102
}
330
747D
100
AcDbEntity
  8
部品1
 48
50.0
100
AcDbLine
 10
13833.36343665233
 20
-28709.10369776425
 30
0.0
 11
13833.36343665233
 21
-28719.10369776425
 31
0.0
  0
CIRCLE
  5
35166
102
{ACAD_REACTORS
330
3553C
102
}
330
747D
100
AcDbEntity
  8
部品1
 48
50.0
100
AcDbCircle
 10
13017.64388821442
 20
-28704.10369776425
 30
0.0
 40
5.0
  0
CIRCLE
  5
35167
102
{ACAD_REACTORS
330
3553C
102
}
330
747D
100
AcDbEntity
  8
部品1
 48
50.0
100
AcDbCircle
 10
13217.64388821442
 20
-28704.10369776424
 30
0.0
 40
5.0
  0
CIRCLE
  5
35168
102
{ACAD_REACTORS
330
3553C
102
}
330
747D
100
AcDbEntity
  8
部品1
 48
50.0
100
AcDbCircle
 10
13417.64388821442
 20
-28704.10369776424
 30
0.0
 40
5.0
  0
CIRCLE
  5
35169
102
{ACAD_REACTORS
330
3553C
102
}
330
747D
100
AcDbEntity
  8
部品1
 48
50.0
100
AcDbCircle
 10
13617.64388821442
 20
-28704.10369776424
 30
0.0
 40
5.0
  0
CIRCLE
  5
3516A
102
{ACAD_REACTORS
330
3553C
102
}
330
747D
100
AcDbEntity
  8
部品1
 48
50.0
100
AcDbCircle
 10
13817.64388821442
 20
-28704.10369776424
 30
0.0
 40
5.0
  0
LINE
  5
3516B
102
{ACAD_REACTORS
330
3553C
102
}
330
747D
100
AcDbEntity
  8
部品1
 48
50.0
100
AcDbLine
 10
13001.89388821442
 20
-28719.10369776425
 30
0.0
 11
13833.36343665233
 21
-28719.10369776425
 31
0.0
  0
LWPOLYLINE
  5
351A6
330
747D
100
AcDbEntity
  8
寸法
 48
50.0
100
AcDbPolyline
 90
        3
 70
     0
 43
0.0
 10
13717.64388821442
 20
-28749.10369776425
 10
14312.33118044974
 20
-29405.76474526517
 10
14800.95994647417
 20
-29405.76474526517
1001
ACAD
1000
DSTYLE
1002
{
1070
   341
1005
0
1002
}
  0
TEXT
  5
351A7
330
747D
100
AcDbEntity
  8
寸法
 62
     7
 48
50.0
100
AcDbText
 10
14369.99311574267
 20
-29386.20549191353
 30
0.0
 40
90.0
  1
カンザシ
  7
STYLE1
100
AcDbText
  0
TEXT
  5
351A9
330
747D
100
AcDbEntity
  8
寸法
 62
     7
 48
50.0
100
AcDbText
 10
14529.57272035461
 20
-28750.60181890468
 30
0.0
 40
90.0
  1
主筋4-D13
  7
STYLE1
100
AcDbText
  0
LINE
  5
351AA
330
747D
100
AcDbEntity
  8
寸法
 48
50.0
100
AcDbLine
 10
14491.82735427243
 20
-28775.60867645708
 30
0.0
 11
15112.04180973959
 21
-28775.60867645708
 31
0.0
  0
LINE
  5
351AB
330
747D
100
AcDbEntity
  8
寸法
 48
50.0
100
AcDbLine
 10
14491.82735427243
 20
-28775.60867645708
 30
0.0
 11
13917.64388821443
 21
-28444.10369776425
 31
0.0
  0
LINE
  5
351AC
330
747D
100
AcDbEntity
  8
寸法
 48
50.0
100
AcDbLine
 10
13563.37257530471
 20
-28594.10369776425
 30
0.0
 11
12678.72447463486
 21
-29478.75179843408
 31
0.0
  0
LINE
  5
351AD
330
747D
100
AcDbEntity
  8
寸法
 48
50.0
100
AcDbLine
 10
12678.72447463486
 20
-29478.75179843408
 30
0.0
 11
11988.33049593417
 21
-29478.75179843408
 31
0.0
  0
TEXT
  5
351AE
330
747D
100
AcDbEntity
  8
寸法
 62
     7
 48
50.0
100
AcDbText
 10
12006.78308329877
 20
-29463.67588060624
 30
0.0
 40
90.0
  1
帯筋D10＠100
  7
STYLE1
100
AcDbText
  0
LINE
  5
352B0
330
747D
100
AcDbEntity
  8
部品1
 48
50.0
100
AcDbLine
 10
14097.64388821441
 20
-28834.10369776425
 30
0.0
 11
12837.64388821442
 21
-28834.10369776425
 31
0.0
  0
LINE
  5
352B1
330
747D
100
AcDbEntity
  8
文字
 48
50.0
100
AcDbLine
 10
13906.94907035777
 20
-29847.29156993603
 30
0.0
 11
13906.94907035777
 21
-30070.41656993603
 31
0.0
  0
LINE
  5
352B2
330
747D
100
AcDbEntity
  8
文字
 48
50.0
100
AcDbLine
 10
13071.76981800939
 20
-29847.29156993603
 30
0.0
 11
13071.76981800939
 21
-30070.41656993603
 31
0.0
  0
TEXT
  5
352B3
330
747D
100
AcDbEntity
  8
文字
 62
     7
 48
50.0
100
AcDbText
 10
13138.35462542211
 20
-30012.93302896266
 30
0.0
 40
112.5
  1
A-A' 断面
  7
STYLE2
100
AcDbText
  0
LINE
  5
352B4
330
747D
100
AcDbEntity
  8
文字
 48
50.0
100
AcDbLine
 10
13071.76981800939
 20
-30070.41656993603
 30
0.0
 11
13906.94907035777
 21
-30070.41656993603
 31
0.0
  0
LINE
  5
352B5
330
747D
100
AcDbEntity
  8
文字
 48
50.0
100
AcDbLine
 10
13071.76981800939
 20
-29847.29156993603
 30
0.0
 11
13906.94907035777
 21
-29847.29156993603
 31
0.0
  0
LINE
  5
352B6
330
747D
100
AcDbEntity
  8
部品1
 48
50.0
100
AcDbLine
 10
13762.19388821442
 20
-28784.10369776425
 30
0.0
 11
13673.09388821442
 21
-28784.10369776424
 31
0.0
  0
LINE
  5
352B7
330
747D
100
AcDbEntity
  8
部品1
 48
50.0
100
AcDbLine
 10
14017.64388821441
 20
-28784.10369776425
 30
0.0
 11
14017.64388821441
 21
-28234.10369776425
 31
0.0
  0
LINE
  5
352B8
330
747D
100
AcDbEntity
  8
センター
 48
10.0
100
AcDbLine
 10
13717.64388821442
 20
-27709.63086490922
 30
0.0
 11
13717.64388821442
 21
-28845.16152959412
 31
0.0
  0
LINE
  5
352B9
330
747D
100
AcDbEntity
  8
部品1
 48
50.0
100
AcDbLine
 10
12917.64388821442
 20
-28234.10369776425
 30
0.0
 11
12917.64388821442
 21
-28784.10369776425
 31
0.0
  0
MTEXT
  5
352BA
330
747D
100
AcDbEntity
  8
寸法
 62
     7
 48
50.0
100
AcDbMText
 10
14438.56448002897
 20
-28131.83097049153
 30
0.0
 40
100.0
 41
1.0
 71
     4
 72
     1
  1
▽G.L
  7
STYLE2
 73
     1
 44
1.0
1001
ACAD
1000
MTEXTBEGIN
1070
    73
1070
     1
1070
    44
1040
1.0
1070
    74
1070
     0
1000
MTEXTEND
  0
LINE
  5
352BB
330
747D
100
AcDbEntity
  8
Ｇ．Ｌ
 48
50.0
100
AcDbLine
 10
13917.64388821442
 20
-28184.10369776425
 30
0.0
 11
14971.75783871921
 21
-28184.10369776425
 31
0.0
  0
LINE
  5
352BC
330
747D
100
AcDbEntity
  8
部品1
 48
50.0
100
AcDbLine
 10
13762.19388821442
 20
-27788.17060181934
 30
0.0
 11
13762.19388821442
 21
-28784.10369776425
 31
0.0
  0
LINE
  5
352BD
330
747D
100
AcDbEntity
  8
部品1
 48
50.0
100
AcDbLine
 10
13673.09388821442
 20
-27788.17060181934
 30
0.0
 11
13673.09388821442
 21
-28784.10369776425
 31
0.0
  0
LINE
  5
352BE
330
747D
100
AcDbEntity
  8
部品1
 48
50.0
100
AcDbLine
 10
14097.64388821441
 20
-28784.10369776425
 30
0.0
 11
12837.64388821442
 21
-28784.10369776425
 31
0.0
  0
DIMENSION
  5
352BF
330
747D
100
AcDbEntity
  8
寸法
 48
50.0
100
AcDbDimension
  2
*D20
 10
14310.08525281513
 20
-28784.10369776425
 30
0.0
 11
14235.08525281513
 21
-28484.10369776425
 31
0.0
 70
    32
 71
     5
 42
600.0
  3
INABA_S30G
100
AcDbAlignedDimension
 13
14082.44176577793
 23
-28184.10369776425
 33
0.0
 14
14097.64388821441
 24
-28784.10369776425
 34
0.0
 50
90.0
100
AcDbRotatedDimension
  0
DIMENSION
  5
352C0
330
747D
100
AcDbEntity
  8
寸法
 48
50.0
100
AcDbDimension
  2
*D21
 10
14310.08525281512
 20
-28134.10369776425
 30
0.0
 11
14310.08525281513
 21
-27904.56826469338
 31
0.0
 70
   160
 71
     5
 42
50.0
  3
INABA_S30G
100
AcDbAlignedDimension
 13
14082.44176577793
 23
-28184.10369776425
 33
0.0
 14
13917.64388821442
 24
-28134.10369776425
 34
0.0
 50
90.0
100
AcDbRotatedDimension
  0
DIMENSION
  5
352C1
330
747D
100
AcDbEntity
  8
寸法
 48
50.0
100
AcDbDimension
  2
*D22
 10
13917.64388821442
 20
-27421.32579846924
 30
0.0
 11
13817.64388821442
 21
-27346.31694020152
 31
0.0
 70
    32
 71
     5
 42
200.0
  3
INABA_S30G
100
AcDbAlignedDimension
 13
13717.64388821442
 23
-27709.63086490922
 33
0.0
 14
13917.64388821442
 24
-28134.10369776425
 34
0.0
100
AcDbRotatedDimension
  0
LINE
  5
352C2
330
747D
100
AcDbEntity
  8
部品1
 48
50.0
100
AcDbLine
 10
13917.64388821442
 20
-28234.10369776425
 30
0.0
 11
13917.64388821442
 21
-28144.10369776425
 31
0.0
  0
LINE
  5
352C3
330
747D
100
AcDbEntity
  8
部品1
 48
50.0
100
AcDbLine
 10
13907.64388821443
 20
-28134.10369776425
 30
0.0
 11
13790.19388821442
 21
-28134.10369776425
 31
0.0
  0
LINE
  5
352C4
330
747D
100
AcDbEntity
  8
部品1
 48
50.0
100
AcDbLine
 10
13907.64388821443
 20
-28134.10369776425
 30
0.0
 11
13917.64388821443
 21
-28144.10369776425
 31
0.0
  0
LINE
  5
352C5
330
747D
100
AcDbEntity
  8
部品1
 48
50.0
100
AcDbLine
 10
14017.64388821441
 20
-28234.10369776425
 30
0.0
 11
13762.19388821442
 21
-28234.10369776425
 31
0.0
  0
LINE
  5
352C6
330
747D
100
AcDbEntity
  8
部品1
 48
50.0
100
AcDbLine
 10
12917.64388821442
 20
-28334.10369776425
 30
0.0
 11
12415.52807711474
 21
-28334.10369776425
 31
0.0
  0
LINE
  5
352C7
330
747D
100
AcDbEntity
  8
部品1
 48
50.0
100
AcDbLine
 10
14097.64388821441
 20
-28934.10369776425
 30
0.0
 11
12837.64388821442
 21
-28934.10369776425
 31
0.0
  0
LINE
  5
352C8
330
747D
100
AcDbEntity
  8
寸法
 48
50.0
100
AcDbLine
 10
12925.96461209022
 20
-28059.49628156209
 30
0.0
 11
13555.21710767806
 21
-28059.49628156209
 31
0.0
  0
LINE
  5
352C9
330
747D
100
AcDbEntity
  8
寸法
 48
50.0
100
AcDbLine
 10
12925.96461209022
 20
-28059.49628156209
 30
0.0
 11
12994.61582995536
 21
-28041.10124317572
 31
0.0
  0
LINE
  5
352CA
330
747D
100
AcDbEntity
  8
寸法
 48
50.0
100
AcDbLine
 10
12925.96461209022
 20
-28059.49628156209
 30
0.0
 11
12994.61582995536
 21
-28077.89131994847
 31
0.0
  0
LINE
  5
35304
330
747D
100
AcDbEntity
  8
部品1
 48
50.0
100
AcDbLine
 10
13659.09388821442
 20
-28120.10369776425
 30
0.0
 11
13645.09388821442
 21
-28134.10369776425
 31
0.0
  0
LINE
  5
35305
330
747D
100
AcDbEntity
  8
部品1
 48
50.0
100
AcDbLine
 10
13659.09388821442
 20
-28120.10369776425
 30
0.0
 11
13673.09388821442
 21
-28120.10369776425
 31
0.0
  0
LINE
  5
35306
330
747D
100
AcDbEntity
  8
部品1
 48
50.0
100
AcDbLine
 10
13762.19388821442
 20
-28120.10369776425
 30
0.0
 11
13776.19388821442
 21
-28120.10369776425
 31
0.0
  0
LINE
  5
35307
330
747D
100
AcDbEntity
  8
部品1
 48
50.0
100
AcDbLine
 10
13776.19388821443
 20
-28120.10369776425
 30
0.0
 11
13790.19388821442
 21
-28134.10369776425
 31
0.0
  0
LINE
  5
35308
330
747D
100
AcDbEntity
  8
部品1
 48
50.0
100
AcDbLine
 10
13645.09388821443
 20
-28134.10369776424
 30
0.0
 11
12415.52807711474
 21
-28134.10369776425
 31
0.0
  0
LINE
  5
35309
330
747D
100
AcDbEntity
  8
部品1
 48
50.0
100
AcDbLine
 10
13673.09388821442
 20
-28234.10369776425
 30
0.0
 11
12415.52807711474
 21
-28234.10369776425
 31
0.0
  0
LINE
  5
35313
330
747D
100
AcDbEntity
  8
部品1
 48
50.0
100
AcDbLine
 10
14097.64388821441
 20
-28784.10369776425
 30
0.0
 11
14097.64388821441
 21
-28934.10369776425
 31
0.0
  0
LINE
  5
35314
330
747D
100
AcDbEntity
  8
部品1
 48
50.0
100
AcDbLine
 10
12837.64388821442
 20
-28784.10369776425
 30
0.0
 11
12837.64388821442
 21
-28934.10369776425
 31
0.0
  0
DIMENSION
  5
35371
330
747D
100
AcDbEntity
  8
寸法
 48
50.0
100
AcDbDimension
  2
*D23
 10
12264.94695001285
 20
-28134.10369776425
 30
0.0
 11
12264.94695001285
 21
-27957.06826469337
 31
0.0
 70
   160
 71
     5
 42
100.0
  3
INABA_S30G
100
AcDbAlignedDimension
 13
12415.52807711474
 23
-28234.10369776425
 33
0.0
 14
12415.52807711474
 24
-28134.10369776425
 34
0.0
 50
90.0
100
AcDbRotatedDimension
  0
DIMENSION
  5
35372
330
747D
100
AcDbEntity
  8
寸法
 48
50.0
100
AcDbDimension
  2
*D24
 10
12264.94695001285
 20
-28334.10369776425
 30
0.0
 11
12264.94695001285
 21
-28511.13913083511
 31
0.0
 70
   160
 71
     5
 42
100.0
  3
INABA_S30G
100
AcDbAlignedDimension
 13
12415.52807711474
 23
-28234.10369776425
 33
0.0
 14
12415.52807711474
 24
-28334.10369776425
 34
0.0
 50
90.0
100
AcDbRotatedDimension
  0
DIMENSION
  5
35373
330
747D
100
AcDbEntity
  8
寸法
 48
50.0
100
AcDbDimension
  2
*D25
 10
14017.64388821441
 20
-29225.72032740829
 30
0.0
 11
13867.64388821442
 21
-29150.72032740829
 31
0.0
 70
    32
 71
     5
 42
299.9999999999927
  3
INABA_S30G
100
AcDbAlignedDimension
 13
13717.64388821442
 23
-28845.16152959412
 33
0.0
 14
14017.64388821441
 24
-28784.10369776425
 34
0.0
100
AcDbRotatedDimension
  0
DIMENSION
  5
35374
330
747D
100
AcDbEntity
  8
寸法
 48
50.0
100
AcDbDimension
  2
*D26
 10
13717.64388821442
 20
-29225.72032740829
 30
0.0
 11
13317.64388821442
 21
-29150.72032740829
 31
0.0
 70
    32
 71
     5
 42
800.0
  3
INABA_S30G
100
AcDbAlignedDimension
 13
12917.64388821442
 23
-28784.10369776425
 33
0.0
 14
13717.64388821442
 24
-28845.16152959412
 34
0.0
100
AcDbRotatedDimension
  0
DIMENSION
  5
35375
330
747D
100
AcDbEntity
  8
寸法
 48
50.0
100
AcDbDimension
  2
*D27
 10
14310.08525281512
 20
-28834.10369776425
 30
0.0
 11
14310.08525281513
 21
-29063.63913083511
 31
0.0
 70
   160
 71
     5
 42
50.0
  3
INABA_S30G
100
AcDbAlignedDimension
 13
14097.64388821441
 23
-28784.10369776425
 33
0.0
 14
14097.64388821441
 24
-28834.10369776425
 34
0.0
 50
90.0
100
AcDbRotatedDimension
  0
DIMENSION
  5
35376
330
747D
100
AcDbEntity
  8
寸法
 48
50.0
100
AcDbDimension
  2
*D28
 10
12917.64388821442
 20
-29455.80588849704
 30
0.0
 11
13467.64388821442
 21
-29380.80588849704
 31
0.0
 70
    32
 71
     5
 42
1099.999999999992
  3
INABA_S30G
100
AcDbAlignedDimension
 13
14017.64388821441
 23
-28784.10369776425
 33
0.0
 14
12917.64388821442
 24
-28784.10369776425
 34
0.0
100
AcDbRotatedDimension
  0
TEXT
  5
35377
330
747D
100
AcDbEntity
  8
寸法
 62
     7
 48
50.0
100
AcDbText
 10
12990.93456011854
 20
-28022.4477580422
 30
0.0
 40
90.0
  1
１／１００
 41
0.8
  7
STYLE1
100
AcDbText
  0
TEXT
  5
35378
330
747D
100
AcDbEntity
  8
寸法
 62
     7
 48
50.0
100
AcDbText
 10
13024.19805308986
 20
-27874.1092459201
 30
0.0
 40
90.0
  1
水勾配
 41
0.8
  7
STYLE1
100
AcDbText
  0
HATCH
  5
35AAB
102
{ACAD_REACTORS
330
35ACD
102
}
330
747D
100
AcDbEntity
  8
細線
 48
50.0
100
AcDbHatch
 10
0.0
 20
0.0
 30
0.0
210
0.0
220
0.0
230
1.0
  2
PLAST
 70
     0
 71
     0
 91
        2
 92
        7
 72
     0
 73
     1
 93
        6
 10
13673.09388821442
 20
-28234.10369776425
 10
13673.09388821442
 20
-28120.10369776425
 10
13659.09388821442
 20
-28120.10369776425
 10
13645.09388821444
 20
-28134.10369776424
 10
12415.52807711474
 20
-28134.10369776424
 10
12415.52807711474
 20
-28234.10369776425
 97
        0
 92
        7
 72
     0
 73
     1
 93
        8
 10
13762.19388821442
 20
-28234.10369776425
 10
13907.78498709765
 20
-28234.10369776425
 10
13917.64388821442
 20
-28224.24479664748
 10
13917.64388821442
 20
-28144.10369776424
 10
13907.64388821443
 20
-28134.10369776425
 10
13790.19388821442
 20
-28134.10369776425
 10
13776.19388821443
 20
-28120.10369776425
 10
13762.19388821442
 20
-28120.10369776425
 97
        0
 75
     0
 76
     1
 52
45.0
 41
37.5
 77
     0
 78
     3
 53
45.0
 43
10086.47367408899
 44
0.000000000007276
 45
-168.3798022700466
 46
168.3798022700466
 79
     0
 53
45.0
 43
10065.42619880524
 44
21.04747528376174
 45
-168.3798022700466
 46
168.3798022700466
 79
     0
 53
45.0
 43
10044.37872352148
 44
42.09495056751984
 45
-168.3798022700466
 46
168.3798022700466
 79
     0
 47
4.852272800211545
 98
        2
 10
13271.61495418493
 20
-28187.49510563671
 10
13805.7502380339
 20
-28182.64283538983
  0
HATCH
  5
35AAC
102
{ACAD_REACTORS
330
35ACD
102
}
330
747D
100
AcDbEntity
  8
細線
 48
50.0
100
AcDbHatch
 10
0.0
 20
0.0
 30
0.0
210
0.0
220
0.0
230
1.0
  2
LINE
 70
     0
 71
     0
 91
        1
 92
        7
 72
     0
 73
     1
 93
        4
 10
12917.64388821442
 20
-28334.10369776425
 10
12917.64388821442
 20
-28234.10369776425
 10
12415.52807711474
 20
-28234.10369776425
 10
12415.52807711474
 20
-28334.10369776425
 97
        0
 75
     0
 76
     1
 52
75.0
 41
37.5
 77
     0
 78
     1
 53
75.0
 43
10086.47367408899
 44
0.000000000007276
 45
-115.0055436925422
 46
30.81564255751887
 79
     0
 47
1.008020268830581
 98
        1
 10
12716.5686341029
 20
-28284.12154163113
  0
LINE
  5
35AAD
102
{ACAD_REACTORS
330
35ACD
102
}
330
747D
100
AcDbEntity
  8
細線
 48
50.0
100
AcDbLine
 10
12622.0004183119
 20
-28259.10369776425
 30
0.0
 11
12615.30168850112
 21
-28234.10369776425
 31
0.0
  0
LINE
  5
35AAE
102
{ACAD_REACTORS
330
35ACD
102
}
330
747D
100
AcDbEntity
  8
細線
 48
50.0
100
AcDbLine
 10
12498.73784808183
 20
-28259.10369776425
 30
0.0
 11
12492.03911827105
 21
-28234.10369776425
 31
0.0
  0
LINE
  5
35AAF
102
{ACAD_REACTORS
330
35ACD
102
}
330
747D
100
AcDbEntity
  8
細線
 48
50.0
100
AcDbLine
 10
12745.26298854198
 20
-28259.10369776425
 30
0.0
 11
12738.5642587312
 21
-28234.10369776425
 31
0.0
  0
LINE
  5
35AB0
102
{ACAD_REACTORS
330
35ACD
102
}
330
747D
100
AcDbEntity
  8
細線
 48
50.0
100
AcDbLine
 10
12868.52555877205
 20
-28259.10369776425
 30
0.0
 11
12861.82682896127
 21
-28234.10369776425
 31
0.0
  0
LINE
  5
35AB1
102
{ACAD_REACTORS
330
35ACD
102
}
330
747D
100
AcDbEntity
  8
細線
 48
50.0
100
AcDbLine
 10
12492.03911827105
 20
-28334.10369776424
 30
0.0
 11
12485.34038846027
 21
-28309.10369776424
 31
0.0
  0
LINE
  5
35AB2
102
{ACAD_REACTORS
330
35ACD
102
}
330
747D
100
AcDbEntity
  8
細線
 48
50.0
100
AcDbLine
 10
12615.30168850113
 20
-28334.10369776424
 30
0.0
 11
12608.60295869035
 21
-28309.10369776424
 31
0.0
  0
LINE
  5
35AB3
102
{ACAD_REACTORS
330
35ACD
102
}
330
747D
100
AcDbEntity
  8
細線
 48
50.0
100
AcDbLine
 10
12738.5642587312
 20
-28334.10369776424
 30
0.0
 11
12731.86552892042
 21
-28309.10369776424
 31
0.0
  0
LINE
  5
35AB4
102
{ACAD_REACTORS
330
35ACD
102
}
330
747D
100
AcDbEntity
  8
細線
 48
50.0
100
AcDbLine
 10
12861.82682896128
 20
-28334.10369776424
 30
0.0
 11
12855.1280991505
 21
-28309.10369776424
 31
0.0
  0
LINE
  5
35AB5
102
{ACAD_REACTORS
330
35ACD
102
}
330
747D
100
AcDbEntity
  8
細線
 48
50.0
100
AcDbLine
 10
13200.80632423368
 20
-28859.10369776425
 30
0.0
 11
13194.1075944229
 21
-28834.10369776425
 31
0.0
  0
LINE
  5
35AB6
102
{ACAD_REACTORS
330
35ACD
102
}
330
747D
100
AcDbEntity
  8
細線
 48
50.0
100
AcDbLine
 10
13077.5437540036
 20
-28859.10369776425
 30
0.0
 11
13070.84502419282
 21
-28834.10369776425
 31
0.0
  0
LINE
  5
35AB7
102
{ACAD_REACTORS
330
35ACD
102
}
330
747D
100
AcDbEntity
  8
細線
 48
50.0
100
AcDbLine
 10
12954.28118377353
 20
-28859.10369776425
 30
0.0
 11
12947.58245396275
 21
-28834.10369776425
 31
0.0
  0
LINE
  5
35AB8
102
{ACAD_REACTORS
330
35ACD
102
}
330
747D
100
AcDbEntity
  8
細線
 48
50.0
100
AcDbLine
 10
13324.06889446375
 20
-28859.10369776425
 30
0.0
 11
13317.37016465297
 21
-28834.10369776425
 31
0.0
  0
LINE
  5
35AB9
102
{ACAD_REACTORS
330
35ACD
102
}
330
747D
100
AcDbEntity
  8
細線
 48
50.0
100
AcDbLine
 10
13447.33146469383
 20
-28859.10369776425
 30
0.0
 11
13440.63273488305
 21
-28834.10369776425
 31
0.0
  0
LINE
  5
35ABA
102
{ACAD_REACTORS
330
35ACD
102
}
330
747D
100
AcDbEntity
  8
細線
 48
50.0
100
AcDbLine
 10
13570.5940349239
 20
-28859.10369776426
 30
0.0
 11
13563.89530511313
 21
-28834.10369776426
 31
0.0
  0
LINE
  5
35ABB
102
{ACAD_REACTORS
330
35ACD
102
}
330
747D
100
AcDbEntity
  8
細線
 48
50.0
100
AcDbLine
 10
13693.85660515398
 20
-28859.10369776425
 30
0.0
 11
13687.1578753432
 21
-28834.10369776425
 31
0.0
  0
LINE
  5
35ABC
102
{ACAD_REACTORS
330
35ACD
102
}
330
747D
100
AcDbEntity
  8
細線
 48
50.0
100
AcDbLine
 10
13817.11917538406
 20
-28859.10369776425
 30
0.0
 11
13810.42044557328
 21
-28834.10369776425
 31
0.0
  0
LINE
  5
35ABD
102
{ACAD_REACTORS
330
35ACD
102
}
330
747D
100
AcDbEntity
  8
細線
 48
50.0
100
AcDbLine
 10
13940.38174561413
 20
-28859.10369776425
 30
0.0
 11
13933.68301580335
 21
-28834.10369776425
 31
0.0
  0
LINE
  5
35ABE
102
{ACAD_REACTORS
330
35ACD
102
}
330
747D
100
AcDbEntity
  8
細線
 48
50.0
100
AcDbLine
 10
14063.64431584421
 20
-28859.10369776425
 30
0.0
 11
14056.94558603343
 21
-28834.10369776425
 31
0.0
  0
LINE
  5
35ABF
102
{ACAD_REACTORS
330
35ACD
102
}
330
747D
100
AcDbEntity
  8
細線
 48
50.0
100
AcDbLine
 10
14056.94558603343
 20
-28934.10369776426
 30
0.0
 11
14050.24685622265
 21
-28909.10369776426
 31
0.0
  0
LINE
  5
35AC0
102
{ACAD_REACTORS
330
35ACD
102
}
330
747D
100
AcDbEntity
  8
細線
 48
50.0
100
AcDbLine
 10
13933.68301580336
 20
-28934.10369776425
 30
0.0
 11
13926.98428599258
 21
-28909.10369776425
 31
0.0
  0
LINE
  5
35AC1
102
{ACAD_REACTORS
330
35ACD
102
}
330
747D
100
AcDbEntity
  8
細線
 48
50.0
100
AcDbLine
 10
13810.42044557328
 20
-28934.10369776425
 30
0.0
 11
13803.7217157625
 21
-28909.10369776425
 31
0.0
  0
LINE
  5
35AC2
102
{ACAD_REACTORS
330
35ACD
102
}
330
747D
100
AcDbEntity
  8
細線
 48
50.0
100
AcDbLine
 10
13687.15787534321
 20
-28934.10369776425
 30
0.0
 11
13680.45914553243
 21
-28909.10369776425
 31
0.0
  0
LINE
  5
35AC3
102
{ACAD_REACTORS
330
35ACD
102
}
330
747D
100
AcDbEntity
  8
細線
 48
50.0
100
AcDbLine
 10
13563.89530511313
 20
-28934.10369776426
 30
0.0
 11
13557.19657530235
 21
-28909.10369776426
 31
0.0
  0
LINE
  5
35AC4
102
{ACAD_REACTORS
330
35ACD
102
}
330
747D
100
AcDbEntity
  8
細線
 48
50.0
100
AcDbLine
 10
13440.63273488306
 20
-28934.10369776425
 30
0.0
 11
13433.93400507227
 21
-28909.10369776425
 31
0.0
  0
LINE
  5
35AC5
102
{ACAD_REACTORS
330
35ACD
102
}
330
747D
100
AcDbEntity
  8
細線
 48
50.0
100
AcDbLine
 10
13317.37016465298
 20
-28934.10369776425
 30
0.0
 11
13310.6714348422
 21
-28909.10369776425
 31
0.0
  0
LINE
  5
35AC6
102
{ACAD_REACTORS
330
35ACD
102
}
330
747D
100
AcDbEntity
  8
細線
 48
50.0
100
AcDbLine
 10
13194.10759442291
 20
-28934.10369776425
 30
0.0
 11
13187.40886461212
 21
-28909.10369776425
 31
0.0
  0
LINE
  5
35AC7
102
{ACAD_REACTORS
330
35ACD
102
}
330
747D
100
AcDbEntity
  8
細線
 48
50.0
100
AcDbLine
 10
13070.84502419283
 20
-28934.10369776425
 30
0.0
 11
13064.14629438205
 21
-28909.10369776425
 31
0.0
  0
LINE
  5
35AC8
102
{ACAD_REACTORS
330
35ACD
102
}
330
747D
100
AcDbEntity
  8
細線
 48
50.0
100
AcDbLine
 10
12947.58245396276
 20
-28934.10369776425
 30
0.0
 11
12940.88372415197
 21
-28909.10369776425
 31
0.0
  0
HATCH
  5
35AC9
102
{ACAD_REACTORS
330
35ACD
102
}
330
747D
100
AcDbEntity
  8
細線
 48
50.0
100
AcDbHatch
 10
0.0
 20
0.0
 30
0.0
210
0.0
220
0.0
230
1.0
  2
LINE
 70
     0
 71
     0
 91
        4
 92
        7
 72
     0
 73
     1
 93
        5
 10
12837.64388821442
 20
-28913.03379697057
 10
12837.64388821442
 20
-28934.10369776426
 10
13223.3725753047
 20
-28934.10369776424
 10
13323.37257530469
 20
-28834.10369776425
 10
12905.2563716749
 20
-28834.10369776425
 97
        0
 92
       23
 72
     0
 73
     1
 93
        3
 10
12905.2563716749
 20
-28834.10369776425
 10
12837.64388821442
 20
-28834.10369776425
 10
12837.64388821442
 20
-28913.03379697056
 97
        0
 92
        7
 72
     0
 73
     1
 93
        4
 10
13885.18412755438
 20
-28934.10369776425
 10
13794.62183601927
 20
-28834.10369776425
 10
13323.37257530471
 20
-28834.10369776425
 10
13223.3725753047
 20
-28934.10369776426
 97
        0
 92
        7
 72
     0
 73
     1
 93
        4
 10
13885.18412755438
 20
-28934.10369776425
 10
14097.64388821441
 20
-28934.10369776425
 10
14097.64388821441
 20
-28834.10369776425
 10
13794.62183601927
 20
-28834.10369776425
 97
        0
 75
     0
 76
     1
 52
75.0
 41
37.5
 77
     0
 78
     1
 53
75.0
 43
10086.47367408899
 44
0.000000000007276
 45
-115.0055436925422
 46
30.81564255751887
 79
     0
 47
3.330068210733803
 98
        4
 10
12877.83273090187
 20
-28895.2073803051
 10
12861.1703572004
 20
-28855.24655928929
 10
13421.02566241874
 20
-28885.21718008321
 10
13897.56917074101
 20
-28888.54725353325
  0
HATCH
  5
35ACA
102
{ACAD_REACTORS
330
35ACD
102
}
330
747D
100
AcDbEntity
  8
細線
 48
50.0
100
AcDbHatch
 10
0.0
 20
0.0
 30
0.0
210
0.0
220
0.0
230
1.0
  2
PLAST
 70
     0
 71
     0
 91
        5
 92
        7
 72
     0
 73
     1
 93
        4
 10
13323.3725753047
 20
-28834.10369776425
 10
13373.3725753047
 20
-28784.10369776425
 10
12948.08698011222
 20
-28784.10369776426
 10
12905.2563716749
 20
-28834.10369776425
 97
        0
 92
        7
 72
     0
 73
     1
 93
        4
 10
12905.2563716749
 20
-28834.10369776425
 10
12948.08698011221
 20
-28784.10369776426
 10
12837.64388821442
 20
-28784.10369776425
 10
12837.64388821442
 20
-28834.10369776425
 97
        0
 92
        7
 72
     0
 73
     1
 93
        5
 10
13717.64388821442
 20
-28834.10369776425
 10
13717.64388821442
 20
-28784.10369776425
 10
13673.09388821442
 20
-28784.10369776424
 10
13373.37257530471
 20
-28784.10369776425
 10
13323.3725753047
 20
-28834.10369776425
 97
        0
 92
        7
 72
     0
 73
     1
 93
        4
 10
13717.64388821442
 20
-28834.10369776425
 10
13794.62183601927
 20
-28834.10369776425
 10
13749.34069025171
 20
-28784.10369776425
 10
13717.64388821442
 20
-28784.10369776425
 97
        0
 92
        7
 72
     0
 73
     1
 93
        4
 10
13749.34069025171
 20
-28784.10369776426
 10
13794.62183601927
 20
-28834.10369776425
 10
14097.64388821441
 20
-28834.10369776425
 10
14097.64388821441
 20
-28784.10369776425
 97
        0
 75
     0
 76
     1
 52
45.0
 41
37.5
 77
     0
 78
     3
 53
45.0
 43
10086.47367408899
 44
0.000000000007276
 45
-168.3798022700466
 46
168.3798022700466
 79
     0
 53
45.0
 43
10065.42619880524
 44
21.04747528376174
 45
-168.3798022700466
 46
168.3798022700466
 79
     0
 53
45.0
 43
10044.37872352148
 44
42.09495056751984
 45
-168.3798022700466
 46
168.3798022700466
 79
     0
 47
2.357055197808914
 98
        5
 10
13134.29638658532
 20
-28810.89605482705
 10
12881.90941890021
 20
-28810.89605482705
 10
13429.14097701029
 20
-28813.25310989222
 10
13735.77933959445
 20
-28810.89605482705
 10
13820.69458507418
 20
-28806.18194469672
  0
HATCH
  5
35ACB
102
{ACAD_REACTORS
330
35ACD
102
}
330
747D
100
AcDbEntity
  8
細線
 48
50.0
100
AcDbHatch
 10
0.0
 20
0.0
 30
0.0
210
0.0
220
0.0
230
1.0
  2
PLAST
 70
     0
 71
     0
 91
       13
 92
        7
 72
     1
 73
     1
 93
       48
 10
13512.64388821442
 20
-28489.10369776425
 42
0.0
 10
13517.64388821443
 20
-28489.10369776426
 42
0.0
 10
13517.64388821443
 20
-28399.10369776426
 42
0.0
 10
13512.64388821441
 20
-28399.10369776425
 42
-0.4142135623726688
 10
13507.64388821442
 20
-28394.10369776425
 42
-0.4142135623730951
 10
13512.64388821442
 20
-28389.10369776425
 42
0.0
 10
13517.64388821443
 20
-28389.10369776426
 42
0.0
 10
13517.64388821443
 20
-28299.10369776426
 42
0.0
 10
13512.64388821441
 20
-28299.10369776425
 42
-0.4142135623726688
 10
13507.64388821442
 20
-28294.10369776425
 42
-0.4142135623730951
 10
13512.64388821442
 20
-28289.10369776425
 42
0.0
 10
13673.09388821442
 20
-28289.10369776425
 42
0.0
 10
13673.09388821442
 20
-28234.10369776425
 42
0.0
 10
12917.64388821442
 20
-28234.10369776425
 42
0.0
 10
12917.64388821442
 20
-28784.10369776426
 42
0.0
 10
12948.08698011221
 20
-28784.10369776425
 42
0.0
 10
13003.76677108073
 20
-28719.10369776424
 42
0.0
 10
13001.89388821442
 20
-28719.10369776426
 42
0.0
 10
13001.89388821442
 20
-28709.10369776425
 42
0.0
 10
13012.33289276819
 20
-28709.10369776425
 42
0.0
 10
13013.83810102506
 20
-28707.34653354013
 42
-0.1782786565742627
 10
13012.64388821442
 20
-28704.10369776425
 42
-1.0
 10
13022.64388821442
 20
-28704.10369776425
 42
-0.4142135623730951
 10
13017.64388821442
 20
-28709.10369776425
 42
0.0
 10
13217.64388821442
 20
-28709.10369776425
 42
-0.4142135623735213
 10
13212.64388821442
 20
-28704.10369776424
 42
-1.0
 10
13222.64388821442
 20
-28704.10369776424
 42
-0.4142135623735213
 10
13217.64388821442
 20
-28709.10369776425
 42
0.0
 10
13417.64388821442
 20
-28709.10369776425
 42
-0.4142135623735213
 10
13412.64388821442
 20
-28704.10369776424
 42
-1.0
 10
13422.64388821442
 20
-28704.10369776424
 42
-0.4142135623735213
 10
13417.64388821442
 20
-28709.10369776425
 42
0.0
 10
13448.37257530471
 20
-28709.10369776426
 42
0.0
 10
13485.37257530471
 20
-28672.10369776426
 42
0.0
 10
13342.19388821442
 20
-28672.10369776424
 42
0.0
 10
13342.19388821442
 20
-28659.10369776425
 42
0.0
 10
13487.64388821443
 20
-28659.10369776425
 42
0.1260483184578579
 10
13502.06739747678
 20
-28655.40887559217
 42
0.0
 10
13513.94906604235
 20
-28643.52720702661
 42
0.1260483184578396
 10
13517.64388821443
 20
-28629.10369776425
 42
0.0
 10
13517.64388821443
 20
-28599.10369776425
 42
0.0
 10
13512.64388821442
 20
-28599.10369776425
 42
-0.4142135623730951
 10
13507.64388821442
 20
-28594.10369776425
 42
-0.4142135623730951
 10
13512.64388821442
 20
-28589.10369776425
 42
0.0
 10
13517.64388821443
 20
-28589.10369776426
 42
0.0
 10
13517.64388821443
 20
-28499.10369776425
 42
0.0
 10
13512.64388821442
 20
-28499.10369776425
 42
-0.4142135623733081
 10
13507.64388821442
 20
-28494.10369776425
 42
-0.4142135623730951
 97
        0
 92
       22
 72
     0
 73
     1
 93
        4
 10
13003.76677108073
 20
-28719.10369776425
 10
12948.08698011222
 20
-28784.10369776426
 10
13373.3725753047
 20
-28784.10369776426
 10
13438.37257530471
 20
-28719.10369776425
 97
        0
 92
        7
 72
     0
 73
     1
 93
        8
 10
13438.37257530471
 20
-28719.10369776425
 10
13373.3725753047
 20
-28784.10369776426
 10
13673.09388821442
 20
-28784.10369776426
 10
13673.09388821442
 20
-28754.10369776425
 10
13617.64388821442
 20
-28754.10369776425
 10
13617.64388821442
 20
-28744.10369776425
 10
13673.09388821442
 20
-28744.10369776425
 10
13673.09388821442
 20
-28719.10369776424
 97
        0
 92
        7
 72
     1
 73
     1
 93
       29
 10
14017.64388821441
 20
-28784.10369776426
 42
0.0
 10
14017.64388821441
 20
-28501.83872468321
 42
0.0
 10
13917.64388821443
 20
-28444.10369776425
 42
0.0
 10
13917.64388821443
 20
-28489.10369776425
 42
0.0
 10
13922.64388821442
 20
-28489.10369776425
 42
-0.4142135623730951
 10
13927.64388821442
 20
-28494.10369776425
 42
-0.4142135623726688
 10
13922.64388821442
 20
-28499.10369776424
 42
0.0
 10
13917.64388821443
 20
-28499.10369776424
 42
0.0
 10
13917.64388821443
 20
-28589.10369776426
 42
0.0
 10
13922.64388821442
 20
-28589.10369776425
 42
-0.4142135623733081
 10
13927.64388821442
 20
-28594.10369776425
 42
-0.4142135623726688
 10
13922.64388821442
 20
-28599.10369776424
 42
0.0
 10
13917.64388821443
 20
-28599.10369776424
 42
0.0
 10
13917.64388821443
 20
-28629.10369776425
 42
-0.4142135623730951
 10
13874.64388821443
 20
-28672.10369776425
 42
0.0
 10
13762.19388821442
 20
-28672.10369776424
 42
0.0
 10
13762.19388821442
 20
-28709.10369776425
 42
0.0
 10
13817.64388821442
 20
-28709.10369776425
 42
-0.4142135623735213
 10
13812.64388821442
 20
-28704.10369776424
 42
-1.0
 10
13822.64388821442
 20
-28704.10369776424
 42
-0.4142135623735213
 10
13817.64388821442
 20
-28709.10369776425
 42
0.0
 10
13833.36343665233
 20
-28709.10369776425
 42
0.0
 10
13833.36343665233
 20
-28719.10369776425
 42
0.0
 10
13762.19388821442
 20
-28719.10369776426
 42
0.0
 10
13762.19388821442
 20
-28744.10369776425
 42
0.0
 10
13817.64388821442
 20
-28744.10369776425
 42
0.0
 10
13817.64388821442
 20
-28754.10369776425
 42
0.0
 10
13762.19388821442
 20
-28754.10369776425
 42
0.0
 10
13762.19388821442
 20
-28784.10369776426
 42
0.0
 97
        0
 92
        7
 72
     1
 73
     1
 93
       14
 10
13917.64388821443
 20
-28389.10369776426
 42
0.0
 10
13922.64388821442
 20
-28389.10369776425
 42
-0.4142135623733081
 10
13927.64388821442
 20
-28394.10369776425
 42
-0.4142135623726688
 10
13922.64388821442
 20
-28399.10369776424
 42
0.0
 10
13917.64388821443
 20
-28399.10369776424
 42
0.0
 10
13917.64388821443
 20
-28444.10369776425
 42
0.0
 10
14017.64388821441
 20
-28501.83872468321
 42
0.0
 10
14017.64388821441
 20
-28234.10369776425
 42
0.0
 10
13762.19388821442
 20
-28234.10369776425
 42
0.0
 10
13762.19388821442
 20
-28289.10369776425
 42
0.0
 10
13922.64388821442
 20
-28289.10369776425
 42
-0.4142135623730951
 10
13927.64388821442
 20
-28294.10369776425
 42
-0.4142135623726688
 10
13922.64388821442
 20
-28299.10369776424
 42
0.0
 10
13917.64388821443
 20
-28299.10369776424
 42
0.0
 97
        0
 92
        7
 72
     0
 73
     1
 93
        4
 10
13904.64388821443
 20
-28389.10369776425
 10
13904.64388821443
 20
-28299.10369776424
 10
13762.19388821442
 20
-28299.10369776425
 10
13762.19388821442
 20
-28389.10369776426
 97
        0
 92
        7
 72
     0
 73
     1
 93
        4
 10
13673.09388821442
 20
-28299.10369776425
 10
13530.64388821443
 20
-28299.10369776425
 10
13530.64388821443
 20
-28389.10369776426
 10
13673.09388821442
 20
-28389.10369776426
 97
        0
 92
       22
 72
     0
 73
     1
 93
        4
 10
13530.64388821443
 20
-28399.10369776425
 10
13530.64388821443
 20
-28489.10369776425
 10
13673.09388821442
 20
-28489.10369776425
 10
13673.09388821442
 20
-28399.10369776425
 97
        0
 92
        7
 72
     0
 73
     1
 93
        4
 10
13762.19388821442
 20
-28399.10369776425
 10
13762.19388821442
 20
-28489.10369776425
 10
13904.64388821443
 20
-28489.10369776425
 10
13904.64388821443
 20
-28399.10369776425
 97
        0
 92
       22
 72
     0
 73
     1
 93
        4
 10
13762.19388821442
 20
-28499.10369776424
 10
13762.19388821442
 20
-28589.10369776425
 10
13904.64388821443
 20
-28589.10369776425
 10
13904.64388821443
 20
-28499.10369776424
 97
        0
 92
       22
 72
     0
 73
     1
 93
        4
 10
13673.09388821442
 20
-28589.10369776426
 10
13673.09388821442
 20
-28499.10369776425
 10
13530.64388821443
 20
-28499.10369776425
 10
13530.64388821443
 20
-28589.10369776426
 97
        0
 92
        7
 72
     1
 73
     1
 93
       12
 10
13622.64388821442
 20
-28704.10369776424
 42
-0.4142135623735213
 10
13617.64388821442
 20
-28709.10369776425
 42
0.0
 10
13673.09388821442
 20
-28709.10369776426
 42
0.0
 10
13673.09388821442
 20
-28599.10369776424
 42
0.0
 10
13558.37257530471
 20
-28599.10369776425
 42
0.0
 10
13530.64388821443
 20
-28626.83238485454
 42
0.0
 10
13530.64388821443
 20
-28629.10369776425
 42
-0.4142135623730951
 10
13487.64388821443
 20
-28672.10369776425
 42
0.0
 10
13485.37257530471
 20
-28672.10369776425
 42
0.0
 10
13448.37257530471
 20
-28709.10369776425
 42
0.0
 10
13617.64388821442
 20
-28709.10369776425
 42
-0.4142135623733081
 10
13612.64388821442
 20
-28704.10369776424
 42
-1.0
 97
        0
 92
       23
 72
     1
 73
     1
 93
        5
 10
13874.64388821443
 20
-28659.10369776425
 42
0.4142135623730951
 10
13904.64388821443
 20
-28629.10369776425
 42
0.0
 10
13904.64388821443
 20
-28599.10369776424
 42
0.0
 10
13762.19388821442
 20
-28599.10369776425
 42
0.0
 10
13762.19388821442
 20
-28659.10369776425
 42
0.0
 97
        0
 75
     0
 76
     1
 52
135.0
 41
37.5
 77
     0
 78
     3
 53
135.0
 43
10086.47367408899
 44
0.000000000007276
 45
-168.3798022700466
 46
-168.3798022700466
 79
     0
 53
135.0
 43
10065.42619880523
 44
-21.04747528374719
 45
-168.3798022700466
 46
-168.3798022700466
 79
     0
 53
135.0
 43
10044.37872352148
 44
-42.09495056750529
 45
-168.3798022700466
 46
-168.3798022700466
 79
     0
 47
1.320005191315548
 98
       13
 10
13329.62300618954
 20
-28480.80675856653
 10
13274.14276140903
 20
-28746.12780391108
 10
13515.87808553397
 20
-28750.0878303284
 10
13926.69602802298
 20
-28739.52778001044
 10
13942.54754699207
 20
-28362.00628809843
 10
13851.40143823958
 20
-28344.84621387981
 10
13659.86251923879
 20
-28347.48623149137
 10
13626.83857509499
 20
-28439.88658622865
 10
13803.84695294361
 20
-28437.24658874532
 10
13813.09365443943
 20
-28532.28696109415
 10
13629.48049492317
 20
-28552.08703279609
 10
13599.09843480191
 20
-28668.24750578087
 10
13803.84695294361
 20
-28633.92735734363
  0
TEXT
  5
35AFF
330
747D
100
AcDbEntity
  8
寸法
 62
     7
100
AcDbText
 10
5177.840927675869
 20
-27766.820079741
 30
0.0
 40
90.0
  1
A'
  7
STYLE1
100
AcDbText
  0
LINE
  5
35B00
330
747D
100
AcDbEntity
  8
寸法
 48
50.0
100
AcDbLine
 10
5541.476407838338
 20
-27738.75460693923
 30
0.0
 11
5287.342577089417
 21
-27738.75460693923
 31
0.0
  0
LINE
  5
35B01
330
747D
100
AcDbEntity
  8
寸法
 48
50.0
100
AcDbLine
 10
5395.075947672398
 20
-27709.88753729363
 30
0.0
 11
5395.075947672398
 21
-27775.82215621519
 31
0.0
  0
LINE
  5
35B02
330
747D
100
AcDbEntity
  8
寸法
 48
50.0
100
AcDbLine
 10
5287.342577089417
 20
-27738.75460693923
 30
0.0
 11
5395.075947672398
 21
-27709.88753729363
 31
0.0
  0
TEXT
  5
35B03
330
747D
100
AcDbEntity
  8
寸法
 62
     7
100
AcDbText
 10
5176.582298817178
 20
-29038.7797349074
 30
0.0
 40
90.0
  1
A
  7
STYLE1
100
AcDbText
  0
LINE
  5
35B04
330
747D
100
AcDbEntity
  8
寸法
 48
50.0
100
AcDbLine
 10
5395.075947672398
 20
-29025.41960154508
 30
0.0
 11
5395.075947672398
 21
-28959.48498262352
 31
0.0
  0
LINE
  5
35B05
330
747D
100
AcDbEntity
  8
寸法
 48
50.0
100
AcDbLine
 10
5287.342577089417
 20
-28996.55253189948
 30
0.0
 11
5395.075947672398
 21
-29025.41960154508
 31
0.0
  0
LINE
  5
35B06
330
747D
100
AcDbEntity
  8
寸法
 48
50.0
100
AcDbLine
 10
5541.476407838338
 20
-28996.55253189948
 30
0.0
 11
5287.342577089417
 21
-28996.55253189948
 31
0.0
  0
DIMENSION
  5
35B11
330
747D
100
AcDbEntity
  8
寸法
 48
50.0
100
AcDbDimension
  2
*D29
 10
4800.604571127103
 20
-27817.65356941936
 30
0.0
 11
4800.604571127109
 21
-27640.6181363485
 31
0.0
 70
   160
 71
     5
 42
99.99999999998545
  3
INABA_S30G
100
AcDbAlignedDimension
 13
5141.476407838331
 23
-27917.65356941935
 33
0.0
 14
5141.476407838338
 24
-27817.65356941936
 34
0.0
 50
90.0
100
AcDbRotatedDimension
  0
ENDSEC
  0
SECTION
  2
OBJECTS
  0
DICTIONARY
  5
7471
330
0
100
AcDbDictionary
281
     1
  3
ACAD_COLOR
350
11754
  3
ACAD_GROUP
350
7472
  3
ACAD_LAYOUT
350
11755
  3
ACAD_MATERIAL
350
11753
  3
ACAD_MLINESTYLE
350
7473
  3
ACAD_PLOTSETTINGS
350
11756
  3
ACAD_PLOTSTYLENAME
350
11751
  3
ACDBHEADERROUNDTRIPXREC
350
35B3E
  3
AcDbVariableDictionary
350
35B3A
  3
CONTENTDICTIONARY
350
E71C
  3
DRAWINGVARIABLESDICT
350
F3B9
  0
DICTIONARY
  5
11827
330
7467
100
AcDbDictionary
280
     1
281
     1
  3
ACAD_LAYERFILTERS
360
135F4
  3
ACAD_LAYERSTATES
360
11828
  0
DICTIONARY
  5
11754
102
{ACAD_REACTORS
330
7471
102
}
330
7471
100
AcDbDictionary
281
     1
  0
DICTIONARY
  5
7472
102
{ACAD_REACTORS
330
7471
102
}
330
7471
100
AcDbDictionary
281
     1
  3
*A1
350
154E2
  3
*A10
350
32962
  3
*A100
350
27417
  3
*A101
350
33735
  3
*A102
350
32DE0
  3
*A103
350
35538
  3
*A104
350
33319
  3
*A105
350
35539
  3
*A106
350
3553A
  3
*A107
350
3553B
  3
*A108
350
3372A
  3
*A109
350
3553C
  3
*A11
350
32DE9
  3
*A110
350
33312
  3
*A111
350
3553D
  3
*A112
350
344A2
  3
*A113
350
33736
  3
*A114
350
35074
  3
*A115
350
3553E
  3
*A116
350
3553F
  3
*A117
350
3449F
  3
*A118
350
3331D
  3
*A119
350
32DE1
  3
*A12
350
33313
  3
*A120
350
33AFF
  3
*A121
350
3331B
  3
*A122
350
35540
  3
*A123
350
32DE4
  3
*A124
350
3506B
  3
*A125
350
35541
  3
*A126
350
35542
  3
*A127
350
33AFB
  3
*A128
350
35543
  3
*A129
350
329A5
  3
*A13
350
33B8F
  3
*A130
350
35544
  3
*A131
350
35545
  3
*A132
350
32678
  3
*A133
350
35546
  3
*A134
350
3594C
  3
*A135
350
3506F
  3
*A136
350
3594D
  3
*A137
350
3594E
  3
*A138
350
3594F
  3
*A139
350
33B8D
  3
*A14
350
3296C
  3
*A140
350
32673
  3
*A141
350
344A0
  3
*A142
350
35547
  3
*A143
350
35950
  3
*A144
350
3267A
  3
*A145
350
35951
  3
*A146
350
290DD
  3
*A147
350
3506D
  3
*A148
350
35952
  3
*A149
350
33AFC
  3
*A15
350
3296D
  3
*A150
350
35953
  3
*A151
350
35954
  3
*A152
350
35955
  3
*A153
350
344A1
  3
*A154
350
32071
  3
*A155
350
3372B
  3
*A156
350
33B5F
  3
*A157
350
344A3
  3
*A158
350
35956
  3
*A159
350
33B8E
  3
*A16
350
275D5
  3
*A160
350
3372C
  3
*A161
350
3372D
  3
*A162
350
32DEF
  3
*A163
350
3267B
  3
*A164
350
2925F
  3
*A165
350
32DF0
  3
*A166
350
33737
  3
*A167
350
33738
  3
*A168
350
35072
  3
*A169
350
33310
  3
*A17
350
344A7
  3
*A170
350
3506E
  3
*A171
350
33739
  3
*A172
350
3373A
  3
*A173
350
24FDC
  3
*A174
350
24FE6
  3
*A175
350
33729
  3
*A176
350
2925B
  3
*A177
350
3373B
  3
*A178
350
3373C
  3
*A179
350
3373D
  3
*A18
350
32679
  3
*A180
350
33B90
  3
*A181
350
32072
  3
*A182
350
33B91
  3
*A183
350
15535
  3
*A184
350
33B92
  3
*A185
350
27401
  3
*A186
350
275D4
  3
*A187
350
33AF6
  3
*A188
350
344A4
  3
*A189
350
35078
  3
*A19
350
3297C
  3
*A190
350
35942
  3
*A191
350
33B93
  3
*A192
350
3372E
  3
*A193
350
33B94
  3
*A194
350
33B95
  3
*A195
350
32DF3
  3
*A196
350
32073
  3
*A197
350
33B96
  3
*A198
350
32677
  3
*A199
350
272B4
  3
*A2
350
33731
  3
*A20
350
3299D
  3
*A200
350
344A5
  3
*A201
350
273ED
  3
*A202
350
273F2
  3
*A203
350
3372F
  3
*A204
350
2925A
  3
*A205
350
35943
  3
*A206
350
32DE5
  3
*A207
350
3267C
  3
*A208
350
273F7
  3
*A209
350
35946
  3
*A21
350
33AF7
  3
*A210
350
2925C
  3
*A211
350
30D61
  3
*A212
350
32DE2
  3
*A213
350
30D65
  3
*A214
350
35548
  3
*A215
350
275D7
  3
*A216
350
3206A
  3
*A217
350
35073
  3
*A218
350
32DF4
  3
*A219
350
32074
  3
*A22
350
33AFA
  3
*A220
350
32075
  3
*A221
350
2926A
  3
*A222
350
32076
  3
*A223
350
32DE7
  3
*A224
350
3506C
  3
*A225
350
33730
  3
*A226
350
3206B
  3
*A227
350
27412
  3
*A228
350
3331C
  3
*A229
350
273FC
  3
*A23
350
35076
  3
*A230
350
33AF8
  3
*A231
350
32077
  3
*A232
350
32DE3
  3
*A233
350
3266F
  3
*A234
350
32670
  3
*A235
350
290EE
  3
*A236
350
2926B
  3
*A237
350
33AFE
  3
*A238
350
29246
  3
*A239
350
32DE6
  3
*A24
350
33732
  3
*A240
350
29247
  3
*A241
350
32DE8
  3
*A242
350
3293D
  3
*A243
350
32947
  3
*A244
350
32671
  3
*A245
350
35075
  3
*A246
350
35947
  3
*A25
350
32672
  3
*A26
350
3299E
  3
*A27
350
3299F
  3
*A28
350
272AF
  3
*A29
350
275D8
  3
*A3
350
33AF9
  3
*A30
350
329A0
  3
*A31
350
329A1
  3
*A32
350
35070
  3
*A33
350
2925E
  3
*A34
350
2740E
  3
*A35
350
3507B
  3
*A36
350
329A2
  3
*A37
350
33314
  3
*A38
350
329A3
  3
*A39
350
35ACD
  3
*A4
350
344A6
  3
*A40
350
32DEA
  3
*A41
350
32676
  3
*A42
350
32DEB
  3
*A43
350
32DEC
  3
*A44
350
32DED
  3
*A45
350
35079
  3
*A46
350
33733
  3
*A47
350
32DF2
  3
*A48
350
3206D
  3
*A49
350
329A4
  3
*A5
350
32951
  3
*A50
350
32DEE
  3
*A51
350
33316
  3
*A52
350
33317
  3
*A53
350
344A8
  3
*A54
350
32674
  3
*A55
350
33318
  3
*A56
350
35071
  3
*A57
350
33734
  3
*A58
350
3408E
  3
*A59
350
34497
  3
*A6
350
32956
  3
*A60
350
34498
  3
*A61
350
3206E
  3
*A62
350
35948
  3
*A63
350
34499
  3
*A64
350
35077
  3
*A65
350
3206F
  3
*A66
350
3449A
  3
*A67
350
3507A
  3
*A68
350
35944
  3
*A69
350
3449B
  3
*A7
350
3206C
  3
*A70
350
3449C
  3
*A71
350
3449D
  3
*A72
350
3449E
  3
*A73
350
33AFD
  3
*A74
350
29263
  3
*A75
350
3331A
  3
*A76
350
344A9
  3
*A77
350
27416
  3
*A78
350
3594A
  3
*A79
350
32DF1
  3
*A8
350
2925D
  3
*A80
350
32675
  3
*A81
350
344AA
  3
*A82
350
344AB
  3
*A83
350
33311
  3
*A84
350
344AC
  3
*A85
350
329A6
  3
*A86
350
35945
  3
*A87
350
35067
  3
*A88
350
35068
  3
*A89
350
35069
  3
*A9
350
3295B
  3
*A90
350
33315
  3
*A91
350
35534
  3
*A92
350
35949
  3
*A93
350
35535
  3
*A94
350
3594B
  3
*A95
350
275D6
  3
*A96
350
35536
  3
*A97
350
35537
  3
*A98
350
3506A
  3
*A99
350
32070
  0
DICTIONARY
  5
11755
102
{ACAD_REACTORS
330
7471
102
}
330
7471
100
AcDbDictionary
281
     1
  3
Model
350
11757
  3
レイアウト1
350
11758
  0
DICTIONARY
  5
11753
102
{ACAD_REACTORS
330
7471
102
}
330
7471
100
AcDbDictionary
281
     1
  0
DICTIONARY
  5
7473
102
{ACAD_REACTORS
330
7471
102
}
330
7471
100
AcDbDictionary
281
     1
  3
STANDARD
350
7480
  0
DICTIONARY
  5
11756
102
{ACAD_REACTORS
330
7471
102
}
330
7471
100
AcDbDictionary
281
     1
  0
ACDBDICTIONARYWDFLT
  5
11751
102
{ACAD_REACTORS
330
7471
102
}
330
7471
100
AcDbDictionary
281
     1
  3
Normal
350
11752
100
AcDbDictionaryWithDefault
340
11752
  0
DICTIONARY
  5
35B3E
102
{ACAD_REACTORS
330
7471
102
}
330
7471
100
AcDbDictionary
281
     1
  3
COLORDICT
350
35B40
  3
MATERIALDICT
350
35B3F
  0
DICTIONARY
  5
35B3A
102
{ACAD_REACTORS
330
7471
102
}
330
7471
100
AcDbDictionary
281
     1
  3
DIMASSOC
350
35B3B
  3
PROJECTNAME
350
35B3C
  0
DICTIONARY
  5
E71C
102
{ACAD_REACTORS
330
7471
102
}
330
7471
100
AcDbDictionary
281
     1
  0
DICTIONARY
  5
F3B9
102
{ACAD_REACTORS
330
7471
102
}
330
7471
100
AcDbDictionary
281
     1
1001
DRAWINGVARIABLESXDATA
1000
POLARMODE
1000
1
  0
DICTIONARY
  5
135F4
102
{ACAD_REACTORS
330
11827
102
}
330
11827
100
AcDbDictionary
281
     1
  0
DICTIONARY
  5
11828
102
{ACAD_REACTORS
330
11827
102
}
330
11827
100
AcDbDictionary
281
     1
  0
GROUP
  5
154E2
102
{ACAD_REACTORS
330
7472
102
}
330
7472
100
AcDbGroup
300

 70
     1
 71
     1
  0
GROUP
  5
32962
102
{ACAD_REACTORS
330
7472
102
}
330
7472
100
AcDbGroup
300

 70
     1
 71
     1
  0
GROUP
  5
27417
102
{ACAD_REACTORS
330
7472
102
}
330
7472
100
AcDbGroup
300

 70
     1
 71
     1
  0
GROUP
  5
33735
102
{ACAD_REACTORS
330
7472
102
}
330
7472
100
AcDbGroup
300

 70
     1
 71
     1
  0
GROUP
  5
32DE0
102
{ACAD_REACTORS
330
7472
102
}
330
7472
100
AcDbGroup
300

 70
     1
 71
     1
  0
GROUP
  5
35538
102
{ACAD_REACTORS
330
7472
102
}
330
7472
100
AcDbGroup
300

 70
     1
 71
     1
340
35159
340
35158
340
35157
340
35156
340
3515A
340
35155
340
35154
340
35153
  0
GROUP
  5
33319
102
{ACAD_REACTORS
330
7472
102
}
330
7472
100
AcDbGroup
300

 70
     1
 71
     1
  0
GROUP
  5
35539
102
{ACAD_REACTORS
330
7472
102
}
330
7472
100
AcDbGroup
300

 70
     1
 71
     1
340
35157
340
35156
340
3515A
  0
GROUP
  5
3553A
102
{ACAD_REACTORS
330
7472
102
}
330
7472
100
AcDbGroup
300

 70
     1
 71
     1
340
3515F
340
3515E
340
35161
340
35160
340
35162
340
3515D
340
3515C
340
3515B
  0
GROUP
  5
3553B
102
{ACAD_REACTORS
330
7472
102
}
330
7472
100
AcDbGroup
300

 70
     1
 71
     1
340
35161
340
35160
340
35162
  0
GROUP
  5
3372A
102
{ACAD_REACTORS
330
7472
102
}
330
7472
100
AcDbGroup
300

 70
     1
 71
     1
  0
GROUP
  5
3553C
102
{ACAD_REACTORS
330
7472
102
}
330
7472
100
AcDbGroup
300

 70
     1
 71
     1
340
3516A
340
35169
340
35168
340
35167
340
35166
340
35165
340
35164
340
3516B
340
35163
  0
GROUP
  5
32DE9
102
{ACAD_REACTORS
330
7472
102
}
330
7472
100
AcDbGroup
300

 70
     1
 71
     1
  0
GROUP
  5
33312
102
{ACAD_REACTORS
330
7472
102
}
330
7472
100
AcDbGroup
300

 70
     1
 71
     1
  0
GROUP
  5
3553D
102
{ACAD_REACTORS
330
7472
102
}
330
7472
100
AcDbGroup
300

 70
     1
 71
     1
  0
GROUP
  5
344A2
102
{ACAD_REACTORS
330
7472
102
}
330
7472
100
AcDbGroup
300

 70
     1
 71
     1
  0
GROUP
  5
33736
102
{ACAD_REACTORS
330
7472
102
}
330
7472
100
AcDbGroup
300

 70
     1
 71
     1
  0
GROUP
  5
35074
102
{ACAD_REACTORS
330
7472
102
}
330
7472
100
AcDbGroup
300

 70
     1
 71
     1
  0
GROUP
  5
3553E
102
{ACAD_REACTORS
330
7472
102
}
330
7472
100
AcDbGroup
300

 70
     1
 71
     1
  0
GROUP
  5
3553F
102
{ACAD_REACTORS
330
7472
102
}
330
7472
100
AcDbGroup
300

 70
     1
 71
     1
  0
GROUP
  5
3449F
102
{ACAD_REACTORS
330
7472
102
}
330
7472
100
AcDbGroup
300

 70
     1
 71
     1
  0
GROUP
  5
3331D
102
{ACAD_REACTORS
330
7472
102
}
330
7472
100
AcDbGroup
300

 70
     1
 71
     1
  0
GROUP
  5
32DE1
102
{ACAD_REACTORS
330
7472
102
}
330
7472
100
AcDbGroup
300

 70
     1
 71
     1
  0
GROUP
  5
33313
102
{ACAD_REACTORS
330
7472
102
}
330
7472
100
AcDbGroup
300

 70
     1
 71
     1
  0
GROUP
  5
33AFF
102
{ACAD_REACTORS
330
7472
102
}
330
7472
100
AcDbGroup
300

 70
     1
 71
     1
  0
GROUP
  5
3331B
102
{ACAD_REACTORS
330
7472
102
}
330
7472
100
AcDbGroup
300

 70
     1
 71
     1
  0
GROUP
  5
35540
102
{ACAD_REACTORS
330
7472
102
}
330
7472
100
AcDbGroup
300

 70
     1
 71
     1
  0
GROUP
  5
32DE4
102
{ACAD_REACTORS
330
7472
102
}
330
7472
100
AcDbGroup
300

 70
     1
 71
     1
  0
GROUP
  5
3506B
102
{ACAD_REACTORS
330
7472
102
}
330
7472
100
AcDbGroup
300

 70
     1
 71
     1
  0
GROUP
  5
35541
102
{ACAD_REACTORS
330
7472
102
}
330
7472
100
AcDbGroup
300

 70
     1
 71
     1
  0
GROUP
  5
35542
102
{ACAD_REACTORS
330
7472
102
}
330
7472
100
AcDbGroup
300

 70
     1
 71
     1
  0
GROUP
  5
33AFB
102
{ACAD_REACTORS
330
7472
102
}
330
7472
100
AcDbGroup
300

 70
     1
 71
     1
  0
GROUP
  5
35543
102
{ACAD_REACTORS
330
7472
102
}
330
7472
100
AcDbGroup
300

 70
     1
 71
     1
  0
GROUP
  5
329A5
102
{ACAD_REACTORS
330
7472
102
}
330
7472
100
AcDbGroup
300

 70
     1
 71
     1
  0
GROUP
  5
33B8F
102
{ACAD_REACTORS
330
7472
102
}
330
7472
100
AcDbGroup
300

 70
     1
 71
     1
  0
GROUP
  5
35544
102
{ACAD_REACTORS
330
7472
102
}
330
7472
100
AcDbGroup
300

 70
     1
 71
     1
  0
GROUP
  5
35545
102
{ACAD_REACTORS
330
7472
102
}
330
7472
100
AcDbGroup
300

 70
     1
 71
     1
  0
GROUP
  5
32678
102
{ACAD_REACTORS
330
7472
102
}
330
7472
100
AcDbGroup
300

 70
     1
 71
     1
  0
GROUP
  5
35546
102
{ACAD_REACTORS
330
7472
102
}
330
7472
100
AcDbGroup
300

 70
     1
 71
     1
  0
GROUP
  5
3594C
102
{ACAD_REACTORS
330
7472
102
}
330
7472
100
AcDbGroup
300

 70
     1
 71
     1
  0
GROUP
  5
3506F
102
{ACAD_REACTORS
330
7472
102
}
330
7472
100
AcDbGroup
300

 70
     1
 71
     1
  0
GROUP
  5
3594D
102
{ACAD_REACTORS
330
7472
102
}
330
7472
100
AcDbGroup
300

 70
     1
 71
     1
  0
GROUP
  5
3594E
102
{ACAD_REACTORS
330
7472
102
}
330
7472
100
AcDbGroup
300

 70
     1
 71
     1
  0
GROUP
  5
3594F
102
{ACAD_REACTORS
330
7472
102
}
330
7472
100
AcDbGroup
300

 70
     1
 71
     1
  0
GROUP
  5
33B8D
102
{ACAD_REACTORS
330
7472
102
}
330
7472
100
AcDbGroup
300

 70
     1
 71
     1
  0
GROUP
  5
3296C
102
{ACAD_REACTORS
330
7472
102
}
330
7472
100
AcDbGroup
300

 70
     1
 71
     1
  0
GROUP
  5
32673
102
{ACAD_REACTORS
330
7472
102
}
330
7472
100
AcDbGroup
300

 70
     1
 71
     1
  0
GROUP
  5
344A0
102
{ACAD_REACTORS
330
7472
102
}
330
7472
100
AcDbGroup
300

 70
     1
 71
     1
  0
GROUP
  5
35547
102
{ACAD_REACTORS
330
7472
102
}
330
7472
100
AcDbGroup
300

 70
     1
 71
     1
  0
GROUP
  5
35950
102
{ACAD_REACTORS
330
7472
102
}
330
7472
100
AcDbGroup
300

 70
     1
 71
     1
  0
GROUP
  5
3267A
102
{ACAD_REACTORS
330
7472
102
}
330
7472
100
AcDbGroup
300

 70
     1
 71
     1
  0
GROUP
  5
35951
102
{ACAD_REACTORS
330
7472
102
}
330
7472
100
AcDbGroup
300

 70
     1
 71
     1
  0
GROUP
  5
290DD
102
{ACAD_REACTORS
330
7472
102
}
330
7472
100
AcDbGroup
300

 70
     1
 71
     1
  0
GROUP
  5
3506D
102
{ACAD_REACTORS
330
7472
102
}
330
7472
100
AcDbGroup
300

 70
     1
 71
     1
  0
GROUP
  5
35952
102
{ACAD_REACTORS
330
7472
102
}
330
7472
100
AcDbGroup
300

 70
     1
 71
     1
  0
GROUP
  5
33AFC
102
{ACAD_REACTORS
330
7472
102
}
330
7472
100
AcDbGroup
300

 70
     1
 71
     1
  0
GROUP
  5
3296D
102
{ACAD_REACTORS
330
7472
102
}
330
7472
100
AcDbGroup
300

 70
     1
 71
     1
  0
GROUP
  5
35953
102
{ACAD_REACTORS
330
7472
102
}
330
7472
100
AcDbGroup
300

 70
     1
 71
     1
  0
GROUP
  5
35954
102
{ACAD_REACTORS
330
7472
102
}
330
7472
100
AcDbGroup
300

 70
     1
 71
     1
  0
GROUP
  5
35955
102
{ACAD_REACTORS
330
7472
102
}
330
7472
100
AcDbGroup
300

 70
     1
 71
     1
  0
GROUP
  5
344A1
102
{ACAD_REACTORS
330
7472
102
}
330
7472
100
AcDbGroup
300

 70
     1
 71
     1
  0
GROUP
  5
32071
102
{ACAD_REACTORS
330
7472
102
}
330
7472
100
AcDbGroup
300

 70
     1
 71
     1
  0
GROUP
  5
3372B
102
{ACAD_REACTORS
330
7472
102
}
330
7472
100
AcDbGroup
300

 70
     1
 71
     1
  0
GROUP
  5
33B5F
102
{ACAD_REACTORS
330
7472
102
}
330
7472
100
AcDbGroup
300

 70
     1
 71
     1
  0
GROUP
  5
344A3
102
{ACAD_REACTORS
330
7472
102
}
330
7472
100
AcDbGroup
300

 70
     1
 71
     1
  0
GROUP
  5
35956
102
{ACAD_REACTORS
330
7472
102
}
330
7472
100
AcDbGroup
300

 70
     1
 71
     1
  0
GROUP
  5
33B8E
102
{ACAD_REACTORS
330
7472
102
}
330
7472
100
AcDbGroup
300

 70
     1
 71
     1
  0
GROUP
  5
275D5
102
{ACAD_REACTORS
330
7472
102
}
330
7472
100
AcDbGroup
300

 70
     1
 71
     1
  0
GROUP
  5
3372C
102
{ACAD_REACTORS
330
7472
102
}
330
7472
100
AcDbGroup
300

 70
     1
 71
     1
  0
GROUP
  5
3372D
102
{ACAD_REACTORS
330
7472
102
}
330
7472
100
AcDbGroup
300

 70
     1
 71
     1
  0
GROUP
  5
32DEF
102
{ACAD_REACTORS
330
7472
102
}
330
7472
100
AcDbGroup
300

 70
     1
 71
     1
  0
GROUP
  5
3267B
102
{ACAD_REACTORS
330
7472
102
}
330
7472
100
AcDbGroup
300

 70
     1
 71
     1
  0
GROUP
  5
2925F
102
{ACAD_REACTORS
330
7472
102
}
330
7472
100
AcDbGroup
300

 70
     1
 71
     1
  0
GROUP
  5
32DF0
102
{ACAD_REACTORS
330
7472
102
}
330
7472
100
AcDbGroup
300

 70
     1
 71
     1
  0
GROUP
  5
33737
102
{ACAD_REACTORS
330
7472
102
}
330
7472
100
AcDbGroup
300

 70
     1
 71
     1
  0
GROUP
  5
33738
102
{ACAD_REACTORS
330
7472
102
}
330
7472
100
AcDbGroup
300

 70
     1
 71
     1
  0
GROUP
  5
35072
102
{ACAD_REACTORS
330
7472
102
}
330
7472
100
AcDbGroup
300

 70
     1
 71
     1
  0
GROUP
  5
33310
102
{ACAD_REACTORS
330
7472
102
}
330
7472
100
AcDbGroup
300

 70
     1
 71
     1
  0
GROUP
  5
344A7
102
{ACAD_REACTORS
330
7472
102
}
330
7472
100
AcDbGroup
300

 70
     1
 71
     1
  0
GROUP
  5
3506E
102
{ACAD_REACTORS
330
7472
102
}
330
7472
100
AcDbGroup
300

 70
     1
 71
     1
  0
GROUP
  5
33739
102
{ACAD_REACTORS
330
7472
102
}
330
7472
100
AcDbGroup
300

 70
     1
 71
     1
  0
GROUP
  5
3373A
102
{ACAD_REACTORS
330
7472
102
}
330
7472
100
AcDbGroup
300

 70
     1
 71
     1
  0
GROUP
  5
24FDC
102
{ACAD_REACTORS
330
7472
102
}
330
7472
100
AcDbGroup
300

 70
     1
 71
     1
  0
GROUP
  5
24FE6
102
{ACAD_REACTORS
330
7472
102
}
330
7472
100
AcDbGroup
300

 70
     1
 71
     1
  0
GROUP
  5
33729
102
{ACAD_REACTORS
330
7472
102
}
330
7472
100
AcDbGroup
300

 70
     1
 71
     1
  0
GROUP
  5
2925B
102
{ACAD_REACTORS
330
7472
102
}
330
7472
100
AcDbGroup
300

 70
     1
 71
     1
  0
GROUP
  5
3373B
102
{ACAD_REACTORS
330
7472
102
}
330
7472
100
AcDbGroup
300

 70
     1
 71
     1
  0
GROUP
  5
3373C
102
{ACAD_REACTORS
330
7472
102
}
330
7472
100
AcDbGroup
300

 70
     1
 71
     1
  0
GROUP
  5
3373D
102
{ACAD_REACTORS
330
7472
102
}
330
7472
100
AcDbGroup
300

 70
     1
 71
     1
  0
GROUP
  5
32679
102
{ACAD_REACTORS
330
7472
102
}
330
7472
100
AcDbGroup
300

 70
     1
 71
     1
  0
GROUP
  5
33B90
102
{ACAD_REACTORS
330
7472
102
}
330
7472
100
AcDbGroup
300

 70
     1
 71
     1
  0
GROUP
  5
32072
102
{ACAD_REACTORS
330
7472
102
}
330
7472
100
AcDbGroup
300

 70
     1
 71
     1
  0
GROUP
  5
33B91
102
{ACAD_REACTORS
330
7472
102
}
330
7472
100
AcDbGroup
300

 70
     1
 71
     1
  0
GROUP
  5
15535
102
{ACAD_REACTORS
330
7472
102
}
330
7472
100
AcDbGroup
300

 70
     1
 71
     1
  0
GROUP
  5
33B92
102
{ACAD_REACTORS
330
7472
102
}
330
7472
100
AcDbGroup
300

 70
     1
 71
     1
  0
GROUP
  5
27401
102
{ACAD_REACTORS
330
7472
102
}
330
7472
100
AcDbGroup
300

 70
     1
 71
     1
  0
GROUP
  5
275D4
102
{ACAD_REACTORS
330
7472
102
}
330
7472
100
AcDbGroup
300

 70
     1
 71
     1
  0
GROUP
  5
33AF6
102
{ACAD_REACTORS
330
7472
102
}
330
7472
100
AcDbGroup
300

 70
     1
 71
     1
  0
GROUP
  5
344A4
102
{ACAD_REACTORS
330
7472
102
}
330
7472
100
AcDbGroup
300

 70
     1
 71
     1
  0
GROUP
  5
35078
102
{ACAD_REACTORS
330
7472
102
}
330
7472
100
AcDbGroup
300

 70
     1
 71
     1
  0
GROUP
  5
3297C
102
{ACAD_REACTORS
330
7472
102
}
330
7472
100
AcDbGroup
300

 70
     1
 71
     1
  0
GROUP
  5
35942
102
{ACAD_REACTORS
330
7472
102
}
330
7472
100
AcDbGroup
300

 70
     1
 71
     1
  0
GROUP
  5
33B93
102
{ACAD_REACTORS
330
7472
102
}
330
7472
100
AcDbGroup
300

 70
     1
 71
     1
  0
GROUP
  5
3372E
102
{ACAD_REACTORS
330
7472
102
}
330
7472
100
AcDbGroup
300

 70
     1
 71
     1
  0
GROUP
  5
33B94
102
{ACAD_REACTORS
330
7472
102
}
330
7472
100
AcDbGroup
300

 70
     1
 71
     1
  0
GROUP
  5
33B95
102
{ACAD_REACTORS
330
7472
102
}
330
7472
100
AcDbGroup
300

 70
     1
 71
     1
  0
GROUP
  5
32DF3
102
{ACAD_REACTORS
330
7472
102
}
330
7472
100
AcDbGroup
300

 70
     1
 71
     1
  0
GROUP
  5
32073
102
{ACAD_REACTORS
330
7472
102
}
330
7472
100
AcDbGroup
300

 70
     1
 71
     1
  0
GROUP
  5
33B96
102
{ACAD_REACTORS
330
7472
102
}
330
7472
100
AcDbGroup
300

 70
     1
 71
     1
  0
GROUP
  5
32677
102
{ACAD_REACTORS
330
7472
102
}
330
7472
100
AcDbGroup
300

 70
     1
 71
     1
  0
GROUP
  5
272B4
102
{ACAD_REACTORS
330
7472
102
}
330
7472
100
AcDbGroup
300

 70
     1
 71
     1
  0
GROUP
  5
33731
102
{ACAD_REACTORS
330
7472
102
}
330
7472
100
AcDbGroup
300

 70
     1
 71
     1
  0
GROUP
  5
3299D
102
{ACAD_REACTORS
330
7472
102
}
330
7472
100
AcDbGroup
300

 70
     1
 71
     1
  0
GROUP
  5
344A5
102
{ACAD_REACTORS
330
7472
102
}
330
7472
100
AcDbGroup
300

 70
     1
 71
     1
  0
GROUP
  5
273ED
102
{ACAD_REACTORS
330
7472
102
}
330
7472
100
AcDbGroup
300

 70
     1
 71
     1
  0
GROUP
  5
273F2
102
{ACAD_REACTORS
330
7472
102
}
330
7472
100
AcDbGroup
300

 70
     1
 71
     1
  0
GROUP
  5
3372F
102
{ACAD_REACTORS
330
7472
102
}
330
7472
100
AcDbGroup
300

 70
     1
 71
     1
  0
GROUP
  5
2925A
102
{ACAD_REACTORS
330
7472
102
}
330
7472
100
AcDbGroup
300

 70
     1
 71
     1
  0
GROUP
  5
35943
102
{ACAD_REACTORS
330
7472
102
}
330
7472
100
AcDbGroup
300

 70
     1
 71
     1
  0
GROUP
  5
32DE5
102
{ACAD_REACTORS
330
7472
102
}
330
7472
100
AcDbGroup
300

 70
     1
 71
     1
  0
GROUP
  5
3267C
102
{ACAD_REACTORS
330
7472
102
}
330
7472
100
AcDbGroup
300

 70
     1
 71
     1
  0
GROUP
  5
273F7
102
{ACAD_REACTORS
330
7472
102
}
330
7472
100
AcDbGroup
300

 70
     1
 71
     1
  0
GROUP
  5
35946
102
{ACAD_REACTORS
330
7472
102
}
330
7472
100
AcDbGroup
300

 70
     1
 71
     1
  0
GROUP
  5
33AF7
102
{ACAD_REACTORS
330
7472
102
}
330
7472
100
AcDbGroup
300

 70
     1
 71
     1
  0
GROUP
  5
2925C
102
{ACAD_REACTORS
330
7472
102
}
330
7472
100
AcDbGroup
300

 70
     1
 71
     1
  0
GROUP
  5
30D61
102
{ACAD_REACTORS
330
7472
102
}
330
7472
100
AcDbGroup
300

 70
     1
 71
     1
  0
GROUP
  5
32DE2
102
{ACAD_REACTORS
330
7472
102
}
330
7472
100
AcDbGroup
300

 70
     1
 71
     1
  0
GROUP
  5
30D65
102
{ACAD_REACTORS
330
7472
102
}
330
7472
100
AcDbGroup
300

 70
     1
 71
     1
  0
GROUP
  5
35548
102
{ACAD_REACTORS
330
7472
102
}
330
7472
100
AcDbGroup
300

 70
     1
 71
     1
  0
GROUP
  5
275D7
102
{ACAD_REACTORS
330
7472
102
}
330
7472
100
AcDbGroup
300

 70
     1
 71
     1
  0
GROUP
  5
3206A
102
{ACAD_REACTORS
330
7472
102
}
330
7472
100
AcDbGroup
300

 70
     1
 71
     1
  0
GROUP
  5
35073
102
{ACAD_REACTORS
330
7472
102
}
330
7472
100
AcDbGroup
300

 70
     1
 71
     1
  0
GROUP
  5
32DF4
102
{ACAD_REACTORS
330
7472
102
}
330
7472
100
AcDbGroup
300

 70
     1
 71
     1
  0
GROUP
  5
32074
102
{ACAD_REACTORS
330
7472
102
}
330
7472
100
AcDbGroup
300

 70
     1
 71
     1
  0
GROUP
  5
33AFA
102
{ACAD_REACTORS
330
7472
102
}
330
7472
100
AcDbGroup
300

 70
     1
 71
     1
  0
GROUP
  5
32075
102
{ACAD_REACTORS
330
7472
102
}
330
7472
100
AcDbGroup
300

 70
     1
 71
     1
  0
GROUP
  5
2926A
102
{ACAD_REACTORS
330
7472
102
}
330
7472
100
AcDbGroup
300

 70
     1
 71
     1
  0
GROUP
  5
32076
102
{ACAD_REACTORS
330
7472
102
}
330
7472
100
AcDbGroup
300

 70
     1
 71
     1
  0
GROUP
  5
32DE7
102
{ACAD_REACTORS
330
7472
102
}
330
7472
100
AcDbGroup
300

 70
     1
 71
     1
  0
GROUP
  5
3506C
102
{ACAD_REACTORS
330
7472
102
}
330
7472
100
AcDbGroup
300

 70
     1
 71
     1
  0
GROUP
  5
33730
102
{ACAD_REACTORS
330
7472
102
}
330
7472
100
AcDbGroup
300

 70
     1
 71
     1
  0
GROUP
  5
3206B
102
{ACAD_REACTORS
330
7472
102
}
330
7472
100
AcDbGroup
300

 70
     1
 71
     1
  0
GROUP
  5
27412
102
{ACAD_REACTORS
330
7472
102
}
330
7472
100
AcDbGroup
300

 70
     1
 71
     1
  0
GROUP
  5
3331C
102
{ACAD_REACTORS
330
7472
102
}
330
7472
100
AcDbGroup
300

 70
     1
 71
     1
  0
GROUP
  5
273FC
102
{ACAD_REACTORS
330
7472
102
}
330
7472
100
AcDbGroup
300

 70
     1
 71
     1
  0
GROUP
  5
35076
102
{ACAD_REACTORS
330
7472
102
}
330
7472
100
AcDbGroup
300

 70
     1
 71
     1
  0
GROUP
  5
33AF8
102
{ACAD_REACTORS
330
7472
102
}
330
7472
100
AcDbGroup
300

 70
     1
 71
     1
  0
GROUP
  5
32077
102
{ACAD_REACTORS
330
7472
102
}
330
7472
100
AcDbGroup
300

 70
     1
 71
     1
  0
GROUP
  5
32DE3
102
{ACAD_REACTORS
330
7472
102
}
330
7472
100
AcDbGroup
300

 70
     1
 71
     1
  0
GROUP
  5
3266F
102
{ACAD_REACTORS
330
7472
102
}
330
7472
100
AcDbGroup
300

 70
     1
 71
     1
  0
GROUP
  5
32670
102
{ACAD_REACTORS
330
7472
102
}
330
7472
100
AcDbGroup
300

 70
     1
 71
     1
  0
GROUP
  5
290EE
102
{ACAD_REACTORS
330
7472
102
}
330
7472
100
AcDbGroup
300

 70
     1
 71
     1
  0
GROUP
  5
2926B
102
{ACAD_REACTORS
330
7472
102
}
330
7472
100
AcDbGroup
300

 70
     1
 71
     1
  0
GROUP
  5
33AFE
102
{ACAD_REACTORS
330
7472
102
}
330
7472
100
AcDbGroup
300

 70
     1
 71
     1
  0
GROUP
  5
29246
102
{ACAD_REACTORS
330
7472
102
}
330
7472
100
AcDbGroup
300

 70
     1
 71
     1
  0
GROUP
  5
32DE6
102
{ACAD_REACTORS
330
7472
102
}
330
7472
100
AcDbGroup
300

 70
     1
 71
     1
  0
GROUP
  5
33732
102
{ACAD_REACTORS
330
7472
102
}
330
7472
100
AcDbGroup
300

 70
     1
 71
     1
  0
GROUP
  5
29247
102
{ACAD_REACTORS
330
7472
102
}
330
7472
100
AcDbGroup
300

 70
     1
 71
     1
  0
GROUP
  5
32DE8
102
{ACAD_REACTORS
330
7472
102
}
330
7472
100
AcDbGroup
300

 70
     1
 71
     1
  0
GROUP
  5
3293D
102
{ACAD_REACTORS
330
7472
102
}
330
7472
100
AcDbGroup
300

 70
     1
 71
     1
  0
GROUP
  5
32947
102
{ACAD_REACTORS
330
7472
102
}
330
7472
100
AcDbGroup
300

 70
     1
 71
     1
  0
GROUP
  5
32671
102
{ACAD_REACTORS
330
7472
102
}
330
7472
100
AcDbGroup
300

 70
     1
 71
     1
  0
GROUP
  5
35075
102
{ACAD_REACTORS
330
7472
102
}
330
7472
100
AcDbGroup
300

 70
     1
 71
     1
  0
GROUP
  5
35947
102
{ACAD_REACTORS
330
7472
102
}
330
7472
100
AcDbGroup
300

 70
     1
 71
     1
  0
GROUP
  5
32672
102
{ACAD_REACTORS
330
7472
102
}
330
7472
100
AcDbGroup
300

 70
     1
 71
     1
  0
GROUP
  5
3299E
102
{ACAD_REACTORS
330
7472
102
}
330
7472
100
AcDbGroup
300

 70
     1
 71
     1
  0
GROUP
  5
3299F
102
{ACAD_REACTORS
330
7472
102
}
330
7472
100
AcDbGroup
300

 70
     1
 71
     1
  0
GROUP
  5
272AF
102
{ACAD_REACTORS
330
7472
102
}
330
7472
100
AcDbGroup
300

 70
     1
 71
     1
  0
GROUP
  5
275D8
102
{ACAD_REACTORS
330
7472
102
}
330
7472
100
AcDbGroup
300

 70
     1
 71
     1
  0
GROUP
  5
33AF9
102
{ACAD_REACTORS
330
7472
102
}
330
7472
100
AcDbGroup
300

 70
     1
 71
     1
  0
GROUP
  5
329A0
102
{ACAD_REACTORS
330
7472
102
}
330
7472
100
AcDbGroup
300

 70
     1
 71
     1
  0
GROUP
  5
329A1
102
{ACAD_REACTORS
330
7472
102
}
330
7472
100
AcDbGroup
300

 70
     1
 71
     1
  0
GROUP
  5
35070
102
{ACAD_REACTORS
330
7472
102
}
330
7472
100
AcDbGroup
300

 70
     1
 71
     1
  0
GROUP
  5
2925E
102
{ACAD_REACTORS
330
7472
102
}
330
7472
100
AcDbGroup
300

 70
     1
 71
     1
  0
GROUP
  5
2740E
102
{ACAD_REACTORS
330
7472
102
}
330
7472
100
AcDbGroup
300

 70
     1
 71
     1
  0
GROUP
  5
3507B
102
{ACAD_REACTORS
330
7472
102
}
330
7472
100
AcDbGroup
300

 70
     1
 71
     1
  0
GROUP
  5
329A2
102
{ACAD_REACTORS
330
7472
102
}
330
7472
100
AcDbGroup
300

 70
     1
 71
     1
  0
GROUP
  5
33314
102
{ACAD_REACTORS
330
7472
102
}
330
7472
100
AcDbGroup
300

 70
     1
 71
     1
  0
GROUP
  5
329A3
102
{ACAD_REACTORS
330
7472
102
}
330
7472
100
AcDbGroup
300

 70
     1
 71
     1
  0
GROUP
  5
35ACD
102
{ACAD_REACTORS
330
7472
102
}
330
7472
100
AcDbGroup
300

 70
     1
 71
     1
340
35ACB
340
35ACA
340
35AC9
340
35AC8
340
35AC7
340
35AC6
340
35AC5
340
35AC4
340
35AC3
340
35AC2
340
35AC1
340
35AC0
340
35ABF
340
35ABE
340
35ABD
340
35ABC
340
35ABB
340
35ABA
340
35AB9
340
35AB8
340
35AB7
340
35AB6
340
35AB5
340
35AB4
340
35AB3
340
35AB2
340
35AB1
340
35AB0
340
35AAF
340
35AAE
340
35AAD
340
35AAC
340
35AAB
  0
GROUP
  5
344A6
102
{ACAD_REACTORS
330
7472
102
}
330
7472
100
AcDbGroup
300

 70
     1
 71
     1
  0
GROUP
  5
32DEA
102
{ACAD_REACTORS
330
7472
102
}
330
7472
100
AcDbGroup
300

 70
     1
 71
     1
  0
GROUP
  5
32676
102
{ACAD_REACTORS
330
7472
102
}
330
7472
100
AcDbGroup
300

 70
     1
 71
     1
  0
GROUP
  5
32DEB
102
{ACAD_REACTORS
330
7472
102
}
330
7472
100
AcDbGroup
300

 70
     1
 71
     1
  0
GROUP
  5
32DEC
102
{ACAD_REACTORS
330
7472
102
}
330
7472
100
AcDbGroup
300

 70
     1
 71
     1
  0
GROUP
  5
32DED
102
{ACAD_REACTORS
330
7472
102
}
330
7472
100
AcDbGroup
300

 70
     1
 71
     1
  0
GROUP
  5
35079
102
{ACAD_REACTORS
330
7472
102
}
330
7472
100
AcDbGroup
300

 70
     1
 71
     1
  0
GROUP
  5
33733
102
{ACAD_REACTORS
330
7472
102
}
330
7472
100
AcDbGroup
300

 70
     1
 71
     1
  0
GROUP
  5
32DF2
102
{ACAD_REACTORS
330
7472
102
}
330
7472
100
AcDbGroup
300

 70
     1
 71
     1
  0
GROUP
  5
3206D
102
{ACAD_REACTORS
330
7472
102
}
330
7472
100
AcDbGroup
300

 70
     1
 71
     1
  0
GROUP
  5
329A4
102
{ACAD_REACTORS
330
7472
102
}
330
7472
100
AcDbGroup
300

 70
     1
 71
     1
  0
GROUP
  5
32951
102
{ACAD_REACTORS
330
7472
102
}
330
7472
100
AcDbGroup
300

 70
     1
 71
     1
  0
GROUP
  5
32DEE
102
{ACAD_REACTORS
330
7472
102
}
330
7472
100
AcDbGroup
300

 70
     1
 71
     1
  0
GROUP
  5
33316
102
{ACAD_REACTORS
330
7472
102
}
330
7472
100
AcDbGroup
300

 70
     1
 71
     1
  0
GROUP
  5
33317
102
{ACAD_REACTORS
330
7472
102
}
330
7472
100
AcDbGroup
300

 70
     1
 71
     1
  0
GROUP
  5
344A8
102
{ACAD_REACTORS
330
7472
102
}
330
7472
100
AcDbGroup
300

 70
     1
 71
     1
  0
GROUP
  5
32674
102
{ACAD_REACTORS
330
7472
102
}
330
7472
100
AcDbGroup
300

 70
     1
 71
     1
  0
GROUP
  5
33318
102
{ACAD_REACTORS
330
7472
102
}
330
7472
100
AcDbGroup
300

 70
     1
 71
     1
  0
GROUP
  5
35071
102
{ACAD_REACTORS
330
7472
102
}
330
7472
100
AcDbGroup
300

 70
     1
 71
     1
  0
GROUP
  5
33734
102
{ACAD_REACTORS
330
7472
102
}
330
7472
100
AcDbGroup
300

 70
     1
 71
     1
  0
GROUP
  5
3408E
102
{ACAD_REACTORS
330
7472
102
}
330
7472
100
AcDbGroup
300

 70
     1
 71
     1
  0
GROUP
  5
34497
102
{ACAD_REACTORS
330
7472
102
}
330
7472
100
AcDbGroup
300

 70
     1
 71
     1
  0
GROUP
  5
32956
102
{ACAD_REACTORS
330
7472
102
}
330
7472
100
AcDbGroup
300

 70
     1
 71
     1
  0
GROUP
  5
34498
102
{ACAD_REACTORS
330
7472
102
}
330
7472
100
AcDbGroup
300

 70
     1
 71
     1
  0
GROUP
  5
3206E
102
{ACAD_REACTORS
330
7472
102
}
330
7472
100
AcDbGroup
300

 70
     1
 71
     1
  0
GROUP
  5
35948
102
{ACAD_REACTORS
330
7472
102
}
330
7472
100
AcDbGroup
300

 70
     1
 71
     1
  0
GROUP
  5
34499
102
{ACAD_REACTORS
330
7472
102
}
330
7472
100
AcDbGroup
300

 70
     1
 71
     1
  0
GROUP
  5
35077
102
{ACAD_REACTORS
330
7472
102
}
330
7472
100
AcDbGroup
300

 70
     1
 71
     1
  0
GROUP
  5
3206F
102
{ACAD_REACTORS
330
7472
102
}
330
7472
100
AcDbGroup
300

 70
     1
 71
     1
  0
GROUP
  5
3449A
102
{ACAD_REACTORS
330
7472
102
}
330
7472
100
AcDbGroup
300

 70
     1
 71
     1
  0
GROUP
  5
3507A
102
{ACAD_REACTORS
330
7472
102
}
330
7472
100
AcDbGroup
300

 70
     1
 71
     1
  0
GROUP
  5
35944
102
{ACAD_REACTORS
330
7472
102
}
330
7472
100
AcDbGroup
300

 70
     1
 71
     1
  0
GROUP
  5
3449B
102
{ACAD_REACTORS
330
7472
102
}
330
7472
100
AcDbGroup
300

 70
     1
 71
     1
  0
GROUP
  5
3206C
102
{ACAD_REACTORS
330
7472
102
}
330
7472
100
AcDbGroup
300

 70
     1
 71
     1
  0
GROUP
  5
3449C
102
{ACAD_REACTORS
330
7472
102
}
330
7472
100
AcDbGroup
300

 70
     1
 71
     1
  0
GROUP
  5
3449D
102
{ACAD_REACTORS
330
7472
102
}
330
7472
100
AcDbGroup
300

 70
     1
 71
     1
  0
GROUP
  5
3449E
102
{ACAD_REACTORS
330
7472
102
}
330
7472
100
AcDbGroup
300

 70
     1
 71
     1
  0
GROUP
  5
33AFD
102
{ACAD_REACTORS
330
7472
102
}
330
7472
100
AcDbGroup
300

 70
     1
 71
     1
  0
GROUP
  5
29263
102
{ACAD_REACTORS
330
7472
102
}
330
7472
100
AcDbGroup
300

 70
     1
 71
     1
  0
GROUP
  5
3331A
102
{ACAD_REACTORS
330
7472
102
}
330
7472
100
AcDbGroup
300

 70
     1
 71
     1
  0
GROUP
  5
344A9
102
{ACAD_REACTORS
330
7472
102
}
330
7472
100
AcDbGroup
300

 70
     1
 71
     1
  0
GROUP
  5
27416
102
{ACAD_REACTORS
330
7472
102
}
330
7472
100
AcDbGroup
300

 70
     1
 71
     1
  0
GROUP
  5
3594A
102
{ACAD_REACTORS
330
7472
102
}
330
7472
100
AcDbGroup
300

 70
     1
 71
     1
  0
GROUP
  5
32DF1
102
{ACAD_REACTORS
330
7472
102
}
330
7472
100
AcDbGroup
300

 70
     1
 71
     1
  0
GROUP
  5
2925D
102
{ACAD_REACTORS
330
7472
102
}
330
7472
100
AcDbGroup
300

 70
     1
 71
     1
  0
GROUP
  5
32675
102
{ACAD_REACTORS
330
7472
102
}
330
7472
100
AcDbGroup
300

 70
     1
 71
     1
  0
GROUP
  5
344AA
102
{ACAD_REACTORS
330
7472
102
}
330
7472
100
AcDbGroup
300

 70
     1
 71
     1
  0
GROUP
  5
344AB
102
{ACAD_REACTORS
330
7472
102
}
330
7472
100
AcDbGroup
300

 70
     1
 71
     1
  0
GROUP
  5
33311
102
{ACAD_REACTORS
330
7472
102
}
330
7472
100
AcDbGroup
300

 70
     1
 71
     1
  0
GROUP
  5
344AC
102
{ACAD_REACTORS
330
7472
102
}
330
7472
100
AcDbGroup
300

 70
     1
 71
     1
  0
GROUP
  5
329A6
102
{ACAD_REACTORS
330
7472
102
}
330
7472
100
AcDbGroup
300

 70
     1
 71
     1
  0
GROUP
  5
35945
102
{ACAD_REACTORS
330
7472
102
}
330
7472
100
AcDbGroup
300

 70
     1
 71
     1
  0
GROUP
  5
35067
102
{ACAD_REACTORS
330
7472
102
}
330
7472
100
AcDbGroup
300

 70
     1
 71
     1
  0
GROUP
  5
35068
102
{ACAD_REACTORS
330
7472
102
}
330
7472
100
AcDbGroup
300

 70
     1
 71
     1
  0
GROUP
  5
35069
102
{ACAD_REACTORS
330
7472
102
}
330
7472
100
AcDbGroup
300

 70
     1
 71
     1
  0
GROUP
  5
3295B
102
{ACAD_REACTORS
330
7472
102
}
330
7472
100
AcDbGroup
300

 70
     1
 71
     1
  0
GROUP
  5
33315
102
{ACAD_REACTORS
330
7472
102
}
330
7472
100
AcDbGroup
300

 70
     1
 71
     1
  0
GROUP
  5
35534
102
{ACAD_REACTORS
330
7472
102
}
330
7472
100
AcDbGroup
300

 70
     1
 71
     1
340
35145
340
35146
340
35144
340
35143
  0
GROUP
  5
35949
102
{ACAD_REACTORS
330
7472
102
}
330
7472
100
AcDbGroup
300

 70
     1
 71
     1
  0
GROUP
  5
35535
102
{ACAD_REACTORS
330
7472
102
}
330
7472
100
AcDbGroup
300

 70
     1
 71
     1
340
35149
340
3514A
340
35148
340
35147
  0
GROUP
  5
3594B
102
{ACAD_REACTORS
330
7472
102
}
330
7472
100
AcDbGroup
300

 70
     1
 71
     1
  0
GROUP
  5
275D6
102
{ACAD_REACTORS
330
7472
102
}
330
7472
100
AcDbGroup
300

 70
     1
 71
     1
  0
GROUP
  5
35536
102
{ACAD_REACTORS
330
7472
102
}
330
7472
100
AcDbGroup
300

 70
     1
 71
     1
340
3514E
340
3514D
340
3514C
340
3514B
  0
GROUP
  5
35537
102
{ACAD_REACTORS
330
7472
102
}
330
7472
100
AcDbGroup
300

 70
     1
 71
     1
340
35151
340
35152
340
35150
340
3514F
  0
GROUP
  5
3506A
102
{ACAD_REACTORS
330
7472
102
}
330
7472
100
AcDbGroup
300

 70
     1
 71
     1
  0
GROUP
  5
32070
102
{ACAD_REACTORS
330
7472
102
}
330
7472
100
AcDbGroup
300

 70
     1
 71
     1
  0
LAYOUT
  5
11757
102
{ACAD_XDICTIONARY
360
35B41
102
}
102
{ACAD_REACTORS
330
11755
102
}
330
11755
100
AcDbPlotSettings
  1

  2
Microsoft Office Document Image Writer
  4
A4
  6

 40
3.174999952316284
 41
3.174999952316284
 42
3.175003051757812
 43
3.17498779296875
 44
209.9733276367187
 45
297.0106506347656
 46
0.0
 47
0.0
 48
0.0
 49
0.0
140
0.0
141
0.0
142
1.0
143
1.0
 70
 11952
 72
     1
 73
     1
 74
     0
  7

 75
     0
147
1.0
148
-3096.011834229277
149
52.59843815948716
100
AcDbLayout
  1
Model
 70
     1
 71
     0
 10
0.0
 20
0.0
 11
12.0
 21
9.0
 12
0.0
 22
0.0
 32
0.0
 14
0.0
 24
0.0
 34
0.0
 15
0.0
 25
0.0
 35
0.0
146
0.0
 13
0.0
 23
0.0
 33
0.0
 16
1.0
 26
0.0
 36
0.0
 17
0.0
 27
1.0
 37
0.0
 76
     0
330
747D
  0
LAYOUT
  5
11758
102
{ACAD_XDICTIONARY
360
35B43
102
}
102
{ACAD_REACTORS
330
11755
102
}
330
11755
100
AcDbPlotSettings
  1

  2
Microsoft Office Document Image Writer
  4

  6

 40
0.0
 41
0.0
 42
0.0
 43
0.0
 44
0.0
 45
0.0
 46
0.0
 47
0.0
 48
0.0
 49
0.0
140
0.0
141
0.0
142
1.0
143
1.0
 70
   688
 72
     0
 73
     0
 74
     5
  7
inaba.ctb
 75
    16
147
1.0
148
0.0
149
0.0
100
AcDbLayout
  1
レイアウト1
 70
     0
 71
     1
 10
0.0
 20
0.0
 11
420.0
 21
297.0
 12
0.0
 22
0.0
 32
0.0
 14
1.000000000000000E+20
 24
1.000000000000000E+20
 34
1.000000000000000E+20
 15
-1.000000000000000E+20
 25
-1.000000000000000E+20
 35
-1.000000000000000E+20
146
0.0
 13
0.0
 23
0.0
 33
0.0
 16
1.0
 26
0.0
 36
0.0
 17
0.0
 27
1.0
 37
0.0
 76
     0
330
747A
  0
MLINESTYLE
  5
7480
102
{ACAD_REACTORS
330
7473
102
}
330
7473
100
AcDbMlineStyle
  2
STANDARD
 70
     0
  3

 62
     0
 51
90.0
 52
90.0
 71
     2
 49
0.5
 62
   256
  6
BYLAYER
 49
-0.5
 62
   256
  6
BYLAYER
  0
ACDBPLACEHOLDER
  5
11752
102
{ACAD_REACTORS
330
11751
102
}
330
11751
  0
XRECORD
  5
35B40
102
{ACAD_REACTORS
330
35B3E
102
}
330
35B3E
100
AcDbXrecord
280
     1
340
11754
  0
XRECORD
  5
35B3F
102
{ACAD_REACTORS
330
35B3E
102
}
330
35B3E
100
AcDbXrecord
280
     1
340
11753
  0
DICTIONARYVAR
  5
35B3B
102
{ACAD_REACTORS
330
35B3A
102
}
330
35B3A
100
DictionaryVariables
280
     0
  1
1
  0
DICTIONARYVAR
  5
35B3C
102
{ACAD_REACTORS
330
35B3A
102
}
330
35B3A
100
DictionaryVariables
280
     0
  1

  0
DICTIONARY
  5
35B41
330
11757
100
AcDbDictionary
280
     1
281
     1
  3
ACAD_XREC_ROUNDTRIP
360
35B42
  0
DICTIONARY
  5
35B43
330
11758
100
AcDbDictionary
280
     1
281
     1
  3
ACAD_XREC_ROUNDTRIP
360
35B44
  0
XRECORD
  5
35B42
102
{ACAD_REACTORS
330
35B41
102
}
330
35B41
100
AcDbXrecord
280
     1
102
SHADEPLOT
 70
     0
102
SHADEPLOTRESLEVEL
 70
     2
102
SHADEPLOTCUSTOMDPI
 70
   300
  0
XRECORD
  5
35B44
102
{ACAD_REACTORS
330
35B43
102
}
330
35B43
100
AcDbXrecord
280
     1
102
SHADEPLOT
 70
     0
102
SHADEPLOTRESLEVEL
 70
     2
102
SHADEPLOTCUSTOMDPI
 70
   300
  0
ENDSEC
  0
EOF
