  0
SECTION
  2
HEADER
  9
$ACADVER
  1
AC1015
  9
$ACADMAINTVER
 70
    20
  9
$DWGCODEPAGE
  3
ANSI_932
  9
$INSBASE
 10
0.0
 20
0.0
 30
0.0
  9
$EXTMIN
 10
-9555.887385008066
 20
-33326.13760136034
 30
0.0
  9
$EXTMAX
 10
2569.512622274748
 20
-24768.93760136035
 30
0.0
  9
$LIMMIN
 10
0.0
 20
0.0
  9
$LIMMAX
 10
21000.0
 20
14850.0
  9
$ORTHOMODE
 70
     0
  9
$REGENMODE
 70
     1
  9
$FILLMODE
 70
     1
  9
$QTEXTMODE
 70
     0
  9
$MIRRTEXT
 70
     1
  9
$LTSCALE
 40
20.0
  9
$ATTMODE
 70
     1
  9
$TEXTSIZE
 40
100.0
  9
$TRACEWID
 40
1.0
  9
$TEXTSTYLE
  7
STYLE3
  9
$CLAYER
  8
寸法
  9
$CELTYPE
  6
BYLAYER
  9
$CECOLOR
 62
   256
  9
$CELTSCALE
 40
50.0
  9
$DISPSILH
 70
     0
  9
$DIMSCALE
 40
30.0
  9
$DIMASZ
 40
2.5
  9
$DIMEXO
 40
0.5
  9
$DIMDLI
 40
7.0
  9
$DIMRND
 40
0.0
  9
$DIMDLE
 40
0.0
  9
$DIMEXE
 40
1.5
  9
$DIMTP
 40
0.0
  9
$DIMTM
 40
0.0
  9
$DIMTXT
 40
3.0
  9
$DIMCEN
 40
0.0
  9
$DIMTSZ
 40
0.0
  9
$DIMTOL
 70
     0
  9
$DIMLIM
 70
     0
  9
$DIMTIH
 70
     0
  9
$DIMTOH
 70
     0
  9
$DIMSE1
 70
     0
  9
$DIMSE2
 70
     0
  9
$DIMTAD
 70
     3
  9
$DIMZIN
 70
     8
  9
$DIMBLK
  1

  9
$DIMASO
 70
     1
  9
$DIMSHO
 70
     1
  9
$DIMPOST
  1

  9
$DIMAPOST
  1

  9
$DIMALT
 70
     0
  9
$DIMALTD
 70
     2
  9
$DIMALTF
 40
0.0394
  9
$DIMLFAC
 40
1.0
  9
$DIMTOFL
 70
     1
  9
$DIMTVP
 40
0.0
  9
$DIMTIX
 70
     1
  9
$DIMSOXD
 70
     1
  9
$DIMSAH
 70
     1
  9
$DIMBLK1
  1
DOTSMALL
  9
$DIMBLK2
  1
DOTSMALL
  9
$DIMSTYLE
  2
INABA_S30G
  9
$DIMCLRD
 70
     0
  9
$DIMCLRE
 70
     0
  9
$DIMCLRT
 70
     7
  9
$DIMTFAC
 40
1.0
  9
$DIMGAP
 40
1.0
  9
$DIMJUST
 70
     0
  9
$DIMSD1
 70
     0
  9
$DIMSD2
 70
     0
  9
$DIMTOLJ
 70
     1
  9
$DIMTZIN
 70
     0
  9
$DIMALTZ
 70
     0
  9
$DIMALTTZ
 70
     0
  9
$DIMUPT
 70
     0
  9
$DIMDEC
 70
     1
  9
$DIMTDEC
 70
     4
  9
$DIMALTU
 70
     2
  9
$DIMALTTD
 70
     2
  9
$DIMTXSTY
  7
STYLE1
  9
$DIMAUNIT
 70
     0
  9
$DIMADEC
 70
     0
  9
$DIMALTRND
 40
0.0
  9
$DIMAZIN
 70
     0
  9
$DIMDSEP
 70
    46
  9
$DIMATFIT
 70
     3
  9
$DIMFRAC
 70
     0
  9
$DIMLDRBLK
  1
DOTSMALL
  9
$DIMLUNIT
 70
     2
  9
$DIMLWD
 70
    -2
  9
$DIMLWE
 70
    -2
  9
$DIMTMOVE
 70
     0
  9
$LUNITS
 70
     2
  9
$LUPREC
 70
     1
  9
$SKETCHINC
 40
1.0
  9
$FILLETRAD
 40
0.0
  9
$AUNITS
 70
     0
  9
$AUPREC
 70
     0
  9
$MENU
  1
acad
  9
$ELEVATION
 40
0.0
  9
$PELEVATION
 40
0.0
  9
$THICKNESS
 40
0.0
  9
$LIMCHECK
 70
     0
  9
$CHAMFERA
 40
0.0
  9
$CHAMFERB
 40
0.0
  9
$CHAMFERC
 40
0.0
  9
$CHAMFERD
 40
0.0
  9
$SKPOLY
 70
     0
  9
$TDCREATE
 40
2451802.696345833
  9
$TDUCREATE
 40
2451802.321345833
  9
$TDUPDATE
 40
2455813.723186297
  9
$TDUUPDATE
 40
2455813.348186296
  9
$TDINDWG
 40
1.6470235880
  9
$TDUSRTIMER
 40
1.6470235880
  9
$USRTIMER
 70
     1
  9
$ANGBASE
 50
0.0
  9
$ANGDIR
 70
     0
  9
$PDMODE
 70
     3
  9
$PDSIZE
 40
2.0
  9
$PLINEWID
 40
0.0
  9
$SPLFRAME
 70
     0
  9
$SPLINETYPE
 70
     6
  9
$SPLINESEGS
 70
     8
  9
$HANDSEED
  5
35F5F
  9
$SURFTAB1
 70
     6
  9
$SURFTAB2
 70
     6
  9
$SURFTYPE
 70
     6
  9
$SURFU
 70
     6
  9
$SURFV
 70
     6
  9
$UCSBASE
  2

  9
$UCSNAME
  2

  9
$UCSORG
 10
0.0
 20
0.0
 30
0.0
  9
$UCSXDIR
 10
1.0
 20
0.0
 30
0.0
  9
$UCSYDIR
 10
0.0
 20
1.0
 30
0.0
  9
$UCSORTHOREF
  2

  9
$UCSORTHOVIEW
 70
     0
  9
$UCSORGTOP
 10
0.0
 20
0.0
 30
0.0
  9
$UCSORGBOTTOM
 10
0.0
 20
0.0
 30
0.0
  9
$UCSORGLEFT
 10
0.0
 20
0.0
 30
0.0
  9
$UCSORGRIGHT
 10
0.0
 20
0.0
 30
0.0
  9
$UCSORGFRONT
 10
0.0
 20
0.0
 30
0.0
  9
$UCSORGBACK
 10
0.0
 20
0.0
 30
0.0
  9
$PUCSBASE
  2

  9
$PUCSNAME
  2

  9
$PUCSORG
 10
0.0
 20
0.0
 30
0.0
  9
$PUCSXDIR
 10
1.0
 20
0.0
 30
0.0
  9
$PUCSYDIR
 10
0.0
 20
1.0
 30
0.0
  9
$PUCSORTHOREF
  2

  9
$PUCSORTHOVIEW
 70
     0
  9
$PUCSORGTOP
 10
0.0
 20
0.0
 30
0.0
  9
$PUCSORGBOTTOM
 10
0.0
 20
0.0
 30
0.0
  9
$PUCSORGLEFT
 10
0.0
 20
0.0
 30
0.0
  9
$PUCSORGRIGHT
 10
0.0
 20
0.0
 30
0.0
  9
$PUCSORGFRONT
 10
0.0
 20
0.0
 30
0.0
  9
$PUCSORGBACK
 10
0.0
 20
0.0
 30
0.0
  9
$USERI1
 70
     0
  9
$USERI2
 70
     0
  9
$USERI3
 70
     0
  9
$USERI4
 70
     0
  9
$USERI5
 70
     0
  9
$USERR1
 40
0.0
  9
$USERR2
 40
0.0
  9
$USERR3
 40
0.0
  9
$USERR4
 40
0.0
  9
$USERR5
 40
0.0
  9
$WORLDVIEW
 70
     1
  9
$SHADEDGE
 70
     3
  9
$SHADEDIF
 70
    70
  9
$TILEMODE
 70
     1
  9
$MAXACTVP
 70
    16
  9
$PINSBASE
 10
0.0
 20
0.0
 30
0.0
  9
$PLIMCHECK
 70
     0
  9
$PEXTMIN
 10
1.000000000000000E+20
 20
1.000000000000000E+20
 30
1.000000000000000E+20
  9
$PEXTMAX
 10
-1.000000000000000E+20
 20
-1.000000000000000E+20
 30
-1.000000000000000E+20
  9
$PLIMMIN
 10
0.0
 20
0.0
  9
$PLIMMAX
 10
420.0
 20
297.0
  9
$UNITMODE
 70
     0
  9
$VISRETAIN
 70
     0
  9
$PLINEGEN
 70
     0
  9
$PSLTSCALE
 70
     0
  9
$TREEDEPTH
 70
  3020
  9
$CMLSTYLE
  2
STANDARD
  9
$CMLJUST
 70
     0
  9
$CMLSCALE
 40
1.0
  9
$PROXYGRAPHICS
 70
     1
  9
$MEASUREMENT
 70
     1
  9
$CELWEIGHT
370
    -1
  9
$ENDCAPS
280
     0
  9
$JOINSTYLE
280
     0
  9
$LWDISPLAY
290
     0
  9
$INSUNITS
 70
     0
  9
$HYPERLINKBASE
  1

  9
$STYLESHEET
  1
ACA3.ctb
  9
$XEDIT
290
     1
  9
$CEPSNTYPE
380
     0
  9
$PSTYLEMODE
290
     1
  9
$FINGERPRINTGUID
  2
{DAFEAD6E-FF36-46F8-92D6-F05F9FF2CF3B}
  9
$VERSIONGUID
  2
{34F49C38-B865-41A1-B0B5-1FE0E55CA8FB}
  9
$EXTNAMES
290
     1
  9
$PSVPSCALE
 40
0.0
  9
$OLESTARTUP
290
     0
  0
ENDSEC
  0
SECTION
  2
CLASSES
  0
CLASS
  1
ACDBDICTIONARYWDFLT
  2
AcDbDictionaryWithDefault
  3
ObjectDBX Classes
 90
        0
280
     0
281
     0
  0
CLASS
  1
DICTIONARYVAR
  2
AcDbDictionaryVar
  3
ObjectDBX Classes
 90
        0
280
     0
281
     0
  0
CLASS
  1
ACDBPLACEHOLDER
  2
AcDbPlaceHolder
  3
ObjectDBX Classes
 90
        0
280
     0
281
     0
  0
CLASS
  1
LAYOUT
  2
AcDbLayout
  3
ObjectDBX Classes
 90
        0
280
     0
281
     0
  0
ENDSEC
  0
SECTION
  2
TABLES
  0
TABLE
  2
VPORT
  5
746D
330
0
100
AcDbSymbolTable
 70
     2
  0
VPORT
  5
35F57
330
746D
100
AcDbSymbolTableRecord
100
AcDbViewportTableRecord
  2
*Active
 70
     0
 10
0.0
 20
0.0
 11
1.0
 21
1.0
 12
-2406.616376830074
 22
-29048.29957997327
 13
0.0
 23
0.0
 14
10.0
 24
10.0
 15
10.0
 25
10.0
 16
0.0
 26
0.0
 36
1.0
 17
0.0
 27
0.0
 37
0.0
 40
8628.590732684669
 41
1.778877887788778
 42
50.0
 43
0.0
 44
0.0
 50
0.0
 51
0.0
 71
     0
 72
     0
 73
     1
 74
     0
 75
     0
 76
     0
 77
     0
 78
     1
281
     0
 65
     1
110
0.0
120
0.0
130
0.0
111
1.0
121
0.0
131
0.0
112
0.0
122
1.0
132
0.0
 79
     0
146
0.0
  0
ENDTAB
  0
TABLE
  2
LTYPE
  5
746A
330
0
100
AcDbSymbolTable
 70
     3
  0
LTYPE
  5
7477
330
746A
100
AcDbSymbolTableRecord
100
AcDbLinetypeTableRecord
  2
BYBLOCK
 70
     0
  3

 72
    65
 73
     0
 40
0.0
  0
LTYPE
  5
7478
330
746A
100
AcDbSymbolTableRecord
100
AcDbLinetypeTableRecord
  2
BYLAYER
 70
     0
  3

 72
    65
 73
     0
 40
0.0
  0
LTYPE
  5
7479
330
746A
100
AcDbSymbolTableRecord
100
AcDbLinetypeTableRecord
  2
CONTINUOUS
 70
     0
  3
Solid line
 72
    65
 73
     0
 40
0.0
  0
LTYPE
  5
7816
330
746A
100
AcDbSymbolTableRecord
100
AcDbLinetypeTableRecord
  2
CENTER
 70
     0
  3
____ _ ____ _ ____ _ ____ _ ____ _ ____ _ ____ 
 72
    65
 73
     4
 40
2.0
 49
1.25
 74
     0
 49
-0.25
 74
     0
 49
0.25
 74
     0
 49
-0.25
 74
     0
  0
LTYPE
  5
781B
330
746A
100
AcDbSymbolTableRecord
100
AcDbLinetypeTableRecord
  2
PHANTOM
 70
     0
  3
______  __  __  ______  __  __  ______  __  __ 
 72
    65
 73
     6
 40
2.5
 49
1.25
 74
     0
 49
-0.25
 74
     0
 49
0.25
 74
     0
 49
-0.25
 74
     0
 49
0.25
 74
     0
 49
-0.25
 74
     0
  0
ENDTAB
  0
TABLE
  2
LAYER
  5
7467
102
{ACAD_XDICTIONARY
360
11827
102
}
330
0
100
AcDbSymbolTable
 70
    13
  0
LAYER
  5
7474
330
7467
100
AcDbSymbolTableRecord
100
AcDbLayerTableRecord
  2
0
 70
     0
 62
     7
  6
CONTINUOUS
370
    -3
390
11752
  0
LAYER
  5
DEB2
330
7467
100
AcDbSymbolTableRecord
100
AcDbLayerTableRecord
  2
センター
 70
     0
 62
     3
  6
CENTER
370
    -3
390
11752
  0
LAYER
  5
DEB3
330
7467
100
AcDbSymbolTableRecord
100
AcDbLayerTableRecord
  2
寸法
 70
     0
 62
     4
  6
CONTINUOUS
370
    -3
390
11752
  0
LAYER
  5
DEB4
330
7467
100
AcDbSymbolTableRecord
100
AcDbLayerTableRecord
  2
部品1
 70
     0
 62
     7
  6
CONTINUOUS
370
    -3
390
11752
  0
LAYER
  5
DEB5
330
7467
100
AcDbSymbolTableRecord
100
AcDbLayerTableRecord
  2
補助
 70
     0
 62
    -1
  6
CONTINUOUS
370
    -3
390
11752
  0
LAYER
  5
DEB6
330
7467
100
AcDbSymbolTableRecord
100
AcDbLayerTableRecord
  2
文字
 70
     0
 62
     7
  6
CONTINUOUS
370
    -3
390
11752
  0
LAYER
  5
F255
330
7467
100
AcDbSymbolTableRecord
100
AcDbLayerTableRecord
  2
DEFPOINTS
 70
     0
 62
     7
  6
CONTINUOUS
290
     0
370
    -3
390
11752
  0
LAYER
  5
10B54
330
7467
100
AcDbSymbolTableRecord
100
AcDbLayerTableRecord
  2
仕様書枠
 70
     0
 62
   230
  6
CONTINUOUS
370
    -3
390
11752
  0
LAYER
  5
11729
330
7467
100
AcDbSymbolTableRecord
100
AcDbLayerTableRecord
  2
Ｇ．Ｌ
 70
     0
 62
    30
  6
CONTINUOUS
370
    -3
390
11752
  0
LAYER
  5
1173F
330
7467
100
AcDbSymbolTableRecord
100
AcDbLayerTableRecord
  2
細線
 70
     0
 62
     5
  6
CONTINUOUS
370
    -3
390
11752
  0
LAYER
  5
1F38A
330
7467
100
AcDbSymbolTableRecord
100
AcDbLayerTableRecord
  2
U7
 70
     0
 62
     2
  6
CONTINUOUS
370
    -3
390
11752
  0
LAYER
  5
20750
330
7467
100
AcDbSymbolTableRecord
100
AcDbLayerTableRecord
  2
KIN-T
 70
     0
 62
     3
  6
CONTINUOUS
370
    -3
390
11752
  0
LAYER
  5
35F19
330
7467
100
AcDbSymbolTableRecord
100
AcDbLayerTableRecord
  2
想像線
 70
     0
 62
     6
  6
PHANTOM
370
    -3
390
11752
  0
ENDTAB
  0
TABLE
  2
STYLE
  5
7468
330
0
100
AcDbSymbolTable
 70
     4
  0
STYLE
  5
7475
330
7468
100
AcDbSymbolTableRecord
100
AcDbTextStyleTableRecord
  2
STANDARD
 70
     0
 40
0.0
 41
1.0
 50
0.0
 71
     0
 42
4.0
  3
txt
  4
C:\AutoCAD LT\bigfont.shx
  0
STYLE
  5
F706
330
7468
100
AcDbSymbolTableRecord
100
AcDbTextStyleTableRecord
  2
STYLE1
 70
     0
 40
0.0
 41
1.0
 50
0.0
 71
     0
 42
4.0
  3
isocp.shx
  4
bigfont.shx
  0
STYLE
  5
103BF
330
7468
100
AcDbSymbolTableRecord
100
AcDbTextStyleTableRecord
  2
STYLE2
 70
     0
 40
0.0
 41
1.0
 50
0.0
 71
     0
 42
100.0
  3
MS PGothic.ttf
  4

1001
ACAD
1000
MS PGothic
1071
    32818
  0
STYLE
  5
10BAA
330
7468
100
AcDbSymbolTableRecord
100
AcDbTextStyleTableRecord
  2
STYLE3
 70
     0
 40
0.0
 41
1.0
 50
0.0
 71
     0
 42
100.0
  3
DFPGothic-EB.ttf
  4

1001
ACAD
1000
DFPGothic-EB
1071
    32818
  0
ENDTAB
  0
TABLE
  2
VIEW
  5
746B
330
0
100
AcDbSymbolTable
 70
     0
  0
ENDTAB
  0
TABLE
  2
UCS
  5
746C
330
0
100
AcDbSymbolTable
 70
     0
  0
ENDTAB
  0
TABLE
  2
APPID
  5
746E
330
0
100
AcDbSymbolTable
 70
     8
  0
APPID
  5
7476
330
746E
100
AcDbSymbolTableRecord
100
AcDbRegAppTableRecord
  2
ACAD
 70
     0
  0
APPID
  5
DEA9
330
746E
100
AcDbSymbolTableRecord
100
AcDbRegAppTableRecord
  2
CONTENTBLOCKICON
 70
     0
  0
APPID
  5
DEAA
330
746E
100
AcDbSymbolTableRecord
100
AcDbRegAppTableRecord
  2
CONTENTBLOCKDESCRIPTION
 70
     0
  0
APPID
  5
E71D
330
746E
100
AcDbSymbolTableRecord
100
AcDbRegAppTableRecord
  2
CONTENTTABDATA
 70
     0
  0
APPID
  5
E71E
330
746E
100
AcDbSymbolTableRecord
100
AcDbRegAppTableRecord
  2
CONTENTCURRENTTAB
 70
     0
  0
APPID
  5
F3BA
330
746E
100
AcDbSymbolTableRecord
100
AcDbRegAppTableRecord
  2
DRAWINGVARIABLESXDATA
 70
     0
  0
APPID
  5
1F3A5
330
746E
100
AcDbSymbolTableRecord
100
AcDbRegAppTableRecord
  2
AUTOCAD_POSTSCRIPT_FIGURE
 70
     0
  0
APPID
  5
27B11
330
746E
100
AcDbSymbolTableRecord
100
AcDbRegAppTableRecord
  2
AcDbBlockRepETag
 70
     0
  0
ENDTAB
  0
TABLE
  2
DIMSTYLE
  5
746F
330
0
100
AcDbSymbolTable
 70
     2
100
AcDbDimStyleTable
 71
     1
340
13D04
  0
DIMSTYLE
105
13D04
102
{ACAD_REACTORS
330
2B390
330
2B38F
330
2B38E
330
2B38A
330
2B410
330
2B40F
330
2B40E
330
2B40D
330
2B40C
330
2B402
330
2B3FD
330
2B3FC
330
2B3FB
330
2B3FA
330
2B3F9
330
2B3F8
330
2B3F7
330
2B3F6
330
35BCD
330
35BCC
330
35BCB
330
35BCA
330
35BC9
330
35BC8
330
35C7F
330
35C7E
330
35C7D
330
35F2B
102
}
330
746F
100
AcDbSymbolTableRecord
100
AcDbDimStyleTableRecord
  2
INABA_S30G
 70
     0
 40
30.0
 41
2.5
 42
0.5
 43
7.0
 44
1.5
 73
     0
 74
     0
 77
     3
 78
     8
140
3.0
141
0.0
143
0.0394
147
1.0
172
     1
173
     1
174
     1
175
     1
178
     7
271
     1
340
F706
341
F770
343
F770
344
F770
  0
DIMSTYLE
105
2503A
330
746F
100
AcDbSymbolTableRecord
100
AcDbDimStyleTableRecord
  2
Standard
 70
     0
340
7475
  0
ENDTAB
  0
TABLE
  2
BLOCK_RECORD
  5
7466
330
0
100
AcDbSymbolTable
 70
    29
  0
BLOCK_RECORD
  5
747D
330
7466
100
AcDbSymbolTableRecord
100
AcDbBlockTableRecord
  2
*MODEL_SPACE
340
11757
  0
BLOCK_RECORD
  5
747A
330
7466
100
AcDbSymbolTableRecord
100
AcDbBlockTableRecord
  2
*PAPER_SPACE
340
11758
  0
BLOCK_RECORD
  5
F770
330
7466
100
AcDbSymbolTableRecord
100
AcDbBlockTableRecord
  2
_DOTSMALL
340
0
102
{BLKREFS
331
35982
331
35983
331
3598B
331
3598C
331
35994
331
35995
331
3599D
331
3599E
331
359A6
331
359A7
331
359AF
331
359B0
331
359B8
331
359B9
331
359C1
331
359C2
331
359CA
331
359CB
331
359DA
331
359DB
331
359E3
331
359E4
331
359EC
331
359ED
331
359FC
331
359FD
331
35A06
331
35A07
331
35A10
331
35A11
331
35EB6
331
35EB7
331
35EC1
331
35EC2
331
35ED2
331
35ED3
331
35EDC
331
35EDD
331
35EE5
331
35EE6
331
35EEE
331
35EEF
331
35EF9
331
35EFA
331
35F02
331
35F03
331
35F44
331
35F45
102
}
  0
BLOCK_RECORD
  5
2B414
330
7466
100
AcDbSymbolTableRecord
100
AcDbBlockTableRecord
  2
*D1
340
0
  0
BLOCK_RECORD
  5
2B420
330
7466
100
AcDbSymbolTableRecord
100
AcDbBlockTableRecord
  2
*D2
340
0
  0
BLOCK_RECORD
  5
2B42D
330
7466
100
AcDbSymbolTableRecord
100
AcDbBlockTableRecord
  2
*D3
340
0
  0
BLOCK_RECORD
  5
2B460
330
7466
100
AcDbSymbolTableRecord
100
AcDbBlockTableRecord
  2
*D4
340
0
  0
BLOCK_RECORD
  5
2B46A
330
7466
100
AcDbSymbolTableRecord
100
AcDbBlockTableRecord
  2
*D5
340
0
  0
BLOCK_RECORD
  5
2B476
330
7466
100
AcDbSymbolTableRecord
100
AcDbBlockTableRecord
  2
*D6
340
0
  0
BLOCK_RECORD
  5
2B482
330
7466
100
AcDbSymbolTableRecord
100
AcDbBlockTableRecord
  2
*D7
340
0
  0
BLOCK_RECORD
  5
2B48E
330
7466
100
AcDbSymbolTableRecord
100
AcDbBlockTableRecord
  2
*D8
340
0
  0
BLOCK_RECORD
  5
2B49A
330
7466
100
AcDbSymbolTableRecord
100
AcDbBlockTableRecord
  2
*D9
340
0
  0
BLOCK_RECORD
  5
2B4A6
330
7466
100
AcDbSymbolTableRecord
100
AcDbBlockTableRecord
  2
*D10
340
0
  0
BLOCK_RECORD
  5
2B4B2
330
7466
100
AcDbSymbolTableRecord
100
AcDbBlockTableRecord
  2
*D11
340
0
  0
BLOCK_RECORD
  5
2B4BE
330
7466
100
AcDbSymbolTableRecord
100
AcDbBlockTableRecord
  2
*D12
340
0
  0
BLOCK_RECORD
  5
2B4CA
330
7466
100
AcDbSymbolTableRecord
100
AcDbBlockTableRecord
  2
*D13
340
0
  0
BLOCK_RECORD
  5
2B4D6
330
7466
100
AcDbSymbolTableRecord
100
AcDbBlockTableRecord
  2
*D14
340
0
  0
BLOCK_RECORD
  5
2B4E0
330
7466
100
AcDbSymbolTableRecord
100
AcDbBlockTableRecord
  2
*D15
340
0
  0
BLOCK_RECORD
  5
2B4EC
330
7466
100
AcDbSymbolTableRecord
100
AcDbBlockTableRecord
  2
*D16
340
0
  0
BLOCK_RECORD
  5
2B4F8
330
7466
100
AcDbSymbolTableRecord
100
AcDbBlockTableRecord
  2
*D17
340
0
  0
BLOCK_RECORD
  5
2B504
330
7466
100
AcDbSymbolTableRecord
100
AcDbBlockTableRecord
  2
*D18
340
0
  0
BLOCK_RECORD
  5
35CC7
330
7466
100
AcDbSymbolTableRecord
100
AcDbBlockTableRecord
  2
*D19
340
0
  0
BLOCK_RECORD
  5
35CD4
330
7466
100
AcDbSymbolTableRecord
100
AcDbBlockTableRecord
  2
*D20
340
0
  0
BLOCK_RECORD
  5
35CE1
330
7466
100
AcDbSymbolTableRecord
100
AcDbBlockTableRecord
  2
*D21
340
0
  0
BLOCK_RECORD
  5
35CED
330
7466
100
AcDbSymbolTableRecord
100
AcDbBlockTableRecord
  2
*D22
340
0
  0
BLOCK_RECORD
  5
35CF9
330
7466
100
AcDbSymbolTableRecord
100
AcDbBlockTableRecord
  2
*D23
340
0
  0
BLOCK_RECORD
  5
35D07
330
7466
100
AcDbSymbolTableRecord
100
AcDbBlockTableRecord
  2
*D24
340
0
  0
BLOCK_RECORD
  5
35D13
330
7466
100
AcDbSymbolTableRecord
100
AcDbBlockTableRecord
  2
*D25
340
0
  0
BLOCK_RECORD
  5
35D1F
330
7466
100
AcDbSymbolTableRecord
100
AcDbBlockTableRecord
  2
*D26
340
0
  0
BLOCK_RECORD
  5
35D2D
330
7466
100
AcDbSymbolTableRecord
100
AcDbBlockTableRecord
  2
*D27
340
0
  0
BLOCK_RECORD
  5
35F2C
330
7466
100
AcDbSymbolTableRecord
100
AcDbBlockTableRecord
  2
*D28
340
0
  0
ENDTAB
  0
ENDSEC
  0
SECTION
  2
BLOCKS
  0
BLOCK
  5
7489
330
747D
100
AcDbEntity
  8
0
100
AcDbBlockBegin
  2
*MODEL_SPACE
 70
     0
 10
0.0
 20
0.0
 30
0.0
  3
*MODEL_SPACE
  1

  0
ENDBLK
  5
748A
330
747D
100
AcDbEntity
  8
0
100
AcDbBlockEnd
  0
BLOCK
  5
7487
330
747A
100
AcDbEntity
 67
     1
  8
0
100
AcDbBlockBegin
  2
*PAPER_SPACE
 70
     0
 10
0.0
 20
0.0
 30
0.0
  3
*PAPER_SPACE
  1

  0
ENDBLK
  5
7488
330
747A
100
AcDbEntity
 67
     1
  8
0
100
AcDbBlockEnd
  0
BLOCK
  5
F771
330
F770
100
AcDbEntity
  8
0
 48
50.0
100
AcDbBlockBegin
  2
_DOTSMALL
 70
     0
 10
0.0
 20
0.0
 30
0.0
  3
_DOTSMALL
  1

  0
LWPOLYLINE
  5
F772
330
F770
100
AcDbEntity
  8
0
  6
ByBlock
 62
     0
 48
50.0
100
AcDbPolyline
 90
        2
 70
     1
 43
0.5
 10
-0.0625
 20
0.0
 42
1.0
 10
0.0625
 20
0.0
 42
1.0
  0
ENDBLK
  5
F776
330
F770
100
AcDbEntity
  8
0
 48
50.0
100
AcDbBlockEnd
  0
BLOCK
  5
2B41E
330
2B414
100
AcDbEntity
  8
0
 48
50.0
100
AcDbBlockBegin
  2
*D1
 70
     1
 10
0.0
 20
0.0
 30
0.0
  3
*D1
  1

  0
LINE
  5
359F9
330
2B414
100
AcDbEntity
  8
寸法
 62
     0
 48
50.0
370
    -2
100
AcDbLine
 10
-4517.640814793143
 20
-27960.65357456059
 30
0.0
 11
-3935.366592429483
 21
-27960.65357456059
 31
0.0
  0
LINE
  5
359FA
330
2B414
100
AcDbEntity
  8
寸法
 62
     0
 48
50.0
370
    -2
100
AcDbLine
 10
-4517.640814793143
 20
-29980.65357456059
 30
0.0
 11
-3935.366592429484
 21
-29980.65357456059
 31
0.0
  0
LINE
  5
359FB
330
2B414
100
AcDbEntity
  8
寸法
 62
     0
 48
50.0
370
    -2
100
AcDbLine
 10
-3980.366592429483
 20
-27960.65357456059
 30
0.0
 11
-3980.366592429484
 21
-29980.65357456059
 31
0.0
  0
INSERT
  5
359FC
330
2B414
100
AcDbEntity
  8
寸法
 62
     0
 48
50.0
370
    -2
100
AcDbBlockReference
  2
_DOTSMALL
 10
-3980.366592429483
 20
-27960.65357456059
 30
0.0
 41
75.0
 42
75.0
 43
75.0
 50
90.0
  0
INSERT
  5
359FD
330
2B414
100
AcDbEntity
  8
寸法
 62
     0
 48
50.0
370
    -2
100
AcDbBlockReference
  2
_DOTSMALL
 10
-3980.366592429484
 20
-29980.65357456059
 30
0.0
 41
75.0
 42
75.0
 43
75.0
 50
270.0
  0
MTEXT
  5
359FE
330
2B414
100
AcDbEntity
  8
寸法
 62
     7
 48
50.0
100
AcDbMText
 10
-4055.375450697195
 20
-28970.65357456059
 30
0.0
 40
90.0
 41
0.0
 71
     5
 72
     1
  1
\A1;屋根寸法 2020
  7
STYLE1
 11
0.0000000000000001
 21
1.0
 31
0.0
 73
     1
 44
1.0
1001
ACAD
1000
MTEXTBEGIN
1070
    73
1070
     1
1070
    44
1040
1.0
1070
    74
1070
     0
1000
MTEXTEND
  0
POINT
  5
359FF
330
2B414
100
AcDbEntity
  8
DEFPOINTS
 62
     0
 48
50.0
100
AcDbPoint
 10
-4532.640814793142
 20
-27960.65357456059
 30
0.0
  0
POINT
  5
35A00
330
2B414
100
AcDbEntity
  8
DEFPOINTS
 62
     0
 48
50.0
100
AcDbPoint
 10
-4532.640814793142
 20
-29980.65357456059
 30
0.0
  0
POINT
  5
35A01
330
2B414
100
AcDbEntity
  8
DEFPOINTS
 62
     0
 48
50.0
100
AcDbPoint
 10
-3980.366592429484
 20
-29980.65357456059
 30
0.0
  0
ENDBLK
  5
2B41F
330
2B414
100
AcDbEntity
  8
0
 48
50.0
100
AcDbBlockEnd
  0
BLOCK
  5
2B42B
330
2B420
100
AcDbEntity
  8
0
 48
50.0
100
AcDbBlockBegin
  2
*D2
 70
     1
 10
0.0
 20
0.0
 30
0.0
  3
*D2
  1

  0
LINE
  5
35A02
330
2B420
100
AcDbEntity
  8
寸法
 62
     0
 48
50.0
370
    -2
100
AcDbLine
 10
-4517.640814793143
 20
-27960.65357456059
 30
0.0
 11
-3935.366592429474
 21
-27960.65357456059
 31
0.0
  0
LINE
  5
35A03
330
2B420
100
AcDbEntity
  8
寸法
 62
     0
 48
50.0
370
    -2
100
AcDbLine
 10
-4347.640814793099
 20
-27817.6535745606
 30
0.0
 11
-3935.366592429474
 21
-27817.6535745606
 31
0.0
  0
LINE
  5
35A04
330
2B420
100
AcDbEntity
  8
寸法
 62
     0
 48
50.0
370
    -2
100
AcDbLine
 10
-3980.366592429474
 20
-27960.65357456059
 30
0.0
 11
-3980.366592429474
 21
-27817.6535745606
 31
0.0
  0
LINE
  5
35A05
330
2B420
100
AcDbEntity
  8
寸法
 62
     0
 48
50.0
370
    -2
100
AcDbLine
 10
-3980.366592429474
 20
-27817.6535745606
 30
0.0
 11
-3980.366592429474
 21
-27525.92565249924
 31
0.0
  0
INSERT
  5
35A06
330
2B420
100
AcDbEntity
  8
寸法
 62
     0
 48
50.0
370
    -2
100
AcDbBlockReference
  2
_DOTSMALL
 10
-3980.366592429474
 20
-27960.65357456059
 30
0.0
 41
75.0
 42
75.0
 43
75.0
 50
270.0
  0
INSERT
  5
35A07
330
2B420
100
AcDbEntity
  8
寸法
 62
     0
 48
50.0
370
    -2
100
AcDbBlockReference
  2
_DOTSMALL
 10
-3980.366592429474
 20
-27817.6535745606
 30
0.0
 41
75.0
 42
75.0
 43
75.0
 50
90.0
  0
MTEXT
  5
35A08
330
2B420
100
AcDbEntity
  8
寸法
 62
     7
 48
50.0
100
AcDbMText
 10
-4055.366592429469
 20
-27634.28961352992
 30
0.0
 40
90.0
 41
0.0
 71
     5
 72
     1
  1
\A1;143
  7
STYLE1
 11
0.0000000000000001
 21
1.0
 31
0.0
 73
     1
 44
1.0
1001
ACAD
1000
MTEXTBEGIN
1070
    73
1070
     1
1070
    44
1040
1.0
1070
    74
1070
     0
1000
MTEXTEND
  0
POINT
  5
35A09
330
2B420
100
AcDbEntity
  8
DEFPOINTS
 62
     0
 48
50.0
100
AcDbPoint
 10
-4532.640814793142
 20
-27960.65357456059
 30
0.0
  0
POINT
  5
35A0A
330
2B420
100
AcDbEntity
  8
DEFPOINTS
 62
     0
 48
50.0
100
AcDbPoint
 10
-4362.640814793099
 20
-27817.6535745606
 30
0.0
  0
POINT
  5
35A0B
330
2B420
100
AcDbEntity
  8
DEFPOINTS
 62
     0
 48
50.0
100
AcDbPoint
 10
-3980.366592429474
 20
-27817.6535745606
 30
0.0
  0
ENDBLK
  5
2B42C
330
2B420
100
AcDbEntity
  8
0
 48
50.0
100
AcDbBlockEnd
  0
BLOCK
  5
2B438
330
2B42D
100
AcDbEntity
  8
0
 48
50.0
100
AcDbBlockBegin
  2
*D3
 70
     1
 10
0.0
 20
0.0
 30
0.0
  3
*D3
  1

  0
LINE
  5
35A0C
330
2B42D
100
AcDbEntity
  8
寸法
 62
     0
 48
50.0
370
    -2
100
AcDbLine
 10
-4517.640814793143
 20
-29980.65357456059
 30
0.0
 11
-3935.366592429489
 21
-29980.65357456059
 31
0.0
  0
LINE
  5
35A0D
330
2B42D
100
AcDbEntity
  8
寸法
 62
     0
 48
50.0
370
    -2
100
AcDbLine
 10
-4347.640814793099
 20
-30117.65357456059
 30
0.0
 11
-3935.366592429489
 21
-30117.65357456059
 31
0.0
  0
LINE
  5
35A0E
330
2B42D
100
AcDbEntity
  8
寸法
 62
     0
 48
50.0
370
    -2
100
AcDbLine
 10
-3980.366592429489
 20
-29980.65357456059
 30
0.0
 11
-3980.366592429489
 21
-30117.65357456059
 31
0.0
  0
LINE
  5
35A0F
330
2B42D
100
AcDbEntity
  8
寸法
 62
     0
 48
50.0
370
    -2
100
AcDbLine
 10
-3980.366592429489
 20
-30117.65357456059
 30
0.0
 11
-3980.366592429489
 21
-30396.6535745606
 31
0.0
  0
INSERT
  5
35A10
330
2B42D
100
AcDbEntity
  8
寸法
 62
     0
 48
50.0
370
    -2
100
AcDbBlockReference
  2
_DOTSMALL
 10
-3980.366592429489
 20
-29980.65357456059
 30
0.0
 41
75.0
 42
75.0
 43
75.0
 50
90.0
  0
INSERT
  5
35A11
330
2B42D
100
AcDbEntity
  8
寸法
 62
     0
 48
50.0
370
    -2
100
AcDbBlockReference
  2
_DOTSMALL
 10
-3980.366592429489
 20
-30117.65357456059
 30
0.0
 41
75.0
 42
75.0
 43
75.0
 50
270.0
  0
MTEXT
  5
35A12
330
2B42D
100
AcDbEntity
  8
寸法
 62
     7
 48
50.0
100
AcDbMText
 10
-4055.366592429484
 20
-30294.65357456059
 30
0.0
 40
90.0
 41
0.0
 71
     5
 72
     1
  1
\A1;137
  7
STYLE1
 11
0.0000000000000001
 21
1.0
 31
0.0
 73
     1
 44
1.0
1001
ACAD
1000
MTEXTBEGIN
1070
    73
1070
     1
1070
    44
1040
1.0
1070
    74
1070
     0
1000
MTEXTEND
  0
POINT
  5
35A13
330
2B42D
100
AcDbEntity
  8
DEFPOINTS
 62
     0
 48
50.0
100
AcDbPoint
 10
-4532.640814793142
 20
-29980.65357456059
 30
0.0
  0
POINT
  5
35A14
330
2B42D
100
AcDbEntity
  8
DEFPOINTS
 62
     0
 48
50.0
100
AcDbPoint
 10
-4362.640814793099
 20
-30117.65357456059
 30
0.0
  0
POINT
  5
35A15
330
2B42D
100
AcDbEntity
  8
DEFPOINTS
 62
     0
 48
50.0
100
AcDbPoint
 10
-3980.366592429489
 20
-30117.65357456059
 30
0.0
  0
ENDBLK
  5
2B439
330
2B42D
100
AcDbEntity
  8
0
 48
50.0
100
AcDbBlockEnd
  0
BLOCK
  5
2B468
330
2B460
100
AcDbEntity
  8
0
 48
50.0
100
AcDbBlockBegin
  2
*D4
 70
     1
 10
0.0
 20
0.0
 30
0.0
  3
*D4
  1

  0
LINE
  5
35A16
330
2B460
100
AcDbEntity
  8
寸法
 62
     0
 48
50.0
370
    -2
100
AcDbLine
 10
-7392.640814793053
 20
-29995.65357456059
 30
0.0
 11
-7392.640814793053
 21
-30491.14129289713
 31
0.0
  0
LINE
  5
35A17
330
2B460
100
AcDbEntity
  8
寸法
 62
     0
 48
50.0
370
    -2
100
AcDbLine
 10
-7562.640814793096
 20
-30132.65357456059
 30
0.0
 11
-7562.640814793096
 21
-30491.14129289713
 31
0.0
  0
LINE
  5
35A18
330
2B460
100
AcDbEntity
  8
寸法
 62
     0
 48
50.0
370
    -2
100
AcDbLine
 10
-7392.640814793053
 20
-30446.14129289713
 30
0.0
 11
-7562.640814793096
 21
-30446.14129289713
 31
0.0
  0
MTEXT
  5
35A19
330
2B460
100
AcDbEntity
  8
寸法
 62
     7
 48
50.0
100
AcDbMText
 10
-7477.640814793073
 20
-30371.14129289713
 30
0.0
 40
90.0
 41
0.0
 71
     5
 72
     1
  1
\A1;170
  7
STYLE1
 73
     1
 44
1.0
1001
ACAD
1000
MTEXTBEGIN
1070
    73
1070
     1
1070
    44
1040
1.0
1070
    74
1070
     0
1000
MTEXTEND
  0
POINT
  5
35A1A
330
2B460
100
AcDbEntity
  8
DEFPOINTS
 62
     0
 48
50.0
100
AcDbPoint
 10
-7392.640814793053
 20
-29980.65357456059
 30
0.0
  0
POINT
  5
35A1B
330
2B460
100
AcDbEntity
  8
DEFPOINTS
 62
     0
 48
50.0
100
AcDbPoint
 10
-7562.640814793096
 20
-30117.65357456059
 30
0.0
  0
POINT
  5
35A1C
330
2B460
100
AcDbEntity
  8
DEFPOINTS
 62
     0
 48
50.0
100
AcDbPoint
 10
-7562.640814793096
 20
-30446.14129289713
 30
0.0
  0
ENDBLK
  5
2B469
330
2B460
100
AcDbEntity
  8
0
 48
50.0
100
AcDbBlockEnd
  0
BLOCK
  5
2B474
330
2B46A
100
AcDbEntity
  8
0
 48
50.0
100
AcDbBlockBegin
  2
*D5
 70
     1
 10
0.0
 20
0.0
 30
0.0
  3
*D5
  1

  0
LINE
  5
3597F
330
2B46A
100
AcDbEntity
  8
寸法
 62
     0
 48
50.0
370
    -2
100
AcDbLine
 10
-5177.6408147931
 20
-27817.65357456059
 30
0.0
 11
-5384.955318077286
 21
-27817.65357456059
 31
0.0
  0
LINE
  5
35980
330
2B46A
100
AcDbEntity
  8
寸法
 62
     0
 48
50.0
370
    -2
100
AcDbLine
 10
-5177.6408147931
 20
-28117.6535745606
 30
0.0
 11
-5384.955318077286
 21
-28117.6535745606
 31
0.0
  0
LINE
  5
35981
330
2B46A
100
AcDbEntity
  8
寸法
 62
     0
 48
50.0
370
    -2
100
AcDbLine
 10
-5339.955318077286
 20
-27817.65357456059
 30
0.0
 11
-5339.955318077286
 21
-28117.6535745606
 31
0.0
  0
INSERT
  5
35982
330
2B46A
100
AcDbEntity
  8
寸法
 62
     0
 48
50.0
370
    -2
100
AcDbBlockReference
  2
_DOTSMALL
 10
-5339.955318077286
 20
-27817.65357456059
 30
0.0
 41
75.0
 42
75.0
 43
75.0
 50
90.0
  0
INSERT
  5
35983
330
2B46A
100
AcDbEntity
  8
寸法
 62
     0
 48
50.0
370
    -2
100
AcDbBlockReference
  2
_DOTSMALL
 10
-5339.955318077286
 20
-28117.6535745606
 30
0.0
 41
75.0
 42
75.0
 43
75.0
 50
270.0
  0
MTEXT
  5
35984
330
2B46A
100
AcDbEntity
  8
寸法
 62
     7
 48
50.0
100
AcDbMText
 10
-5414.955318077281
 20
-27967.6535745606
 30
0.0
 40
90.0
 41
0.0
 71
     5
 72
     1
  1
\A1;300
  7
STYLE1
 11
0.0000000000000001
 21
1.0
 31
0.0
 73
     1
 44
1.0
1001
ACAD
1000
MTEXTBEGIN
1070
    73
1070
     1
1070
    44
1040
1.0
1070
    74
1070
     0
1000
MTEXTEND
  0
POINT
  5
35985
330
2B46A
100
AcDbEntity
  8
DEFPOINTS
 62
     0
 48
50.0
100
AcDbPoint
 10
-5162.6408147931
 20
-27817.65357456059
 30
0.0
  0
POINT
  5
35986
330
2B46A
100
AcDbEntity
  8
DEFPOINTS
 62
     0
 48
50.0
100
AcDbPoint
 10
-5162.6408147931
 20
-28117.6535745606
 30
0.0
  0
POINT
  5
35987
330
2B46A
100
AcDbEntity
  8
DEFPOINTS
 62
     0
 48
50.0
100
AcDbPoint
 10
-5339.955318077286
 20
-28117.6535745606
 30
0.0
  0
ENDBLK
  5
2B475
330
2B46A
100
AcDbEntity
  8
0
 48
50.0
100
AcDbBlockEnd
  0
BLOCK
  5
2B480
330
2B476
100
AcDbEntity
  8
0
 48
50.0
100
AcDbBlockBegin
  2
*D6
 70
     1
 10
0.0
 20
0.0
 30
0.0
  3
*D6
  1

  0
LINE
  5
35988
330
2B476
100
AcDbEntity
  8
寸法
 62
     0
 48
50.0
370
    -2
100
AcDbLine
 10
-5177.6408147931
 20
-27817.65357456059
 30
0.0
 11
-5562.269821361457
 21
-27817.65357456059
 31
0.0
  0
LINE
  5
35989
330
2B476
100
AcDbEntity
  8
寸法
 62
     0
 48
50.0
370
    -2
100
AcDbLine
 10
-5177.6408147931
 20
-28917.6535745606
 30
0.0
 11
-5562.269821361457
 21
-28917.6535745606
 31
0.0
  0
LINE
  5
3598A
330
2B476
100
AcDbEntity
  8
寸法
 62
     0
 48
50.0
370
    -2
100
AcDbLine
 10
-5517.269821361456
 20
-27817.65357456059
 30
0.0
 11
-5517.269821361456
 21
-28917.6535745606
 31
0.0
  0
INSERT
  5
3598B
330
2B476
100
AcDbEntity
  8
寸法
 62
     0
 48
50.0
370
    -2
100
AcDbBlockReference
  2
_DOTSMALL
 10
-5517.269821361456
 20
-27817.65357456059
 30
0.0
 41
75.0
 42
75.0
 43
75.0
 50
90.0
  0
INSERT
  5
3598C
330
2B476
100
AcDbEntity
  8
寸法
 62
     0
 48
50.0
370
    -2
100
AcDbBlockReference
  2
_DOTSMALL
 10
-5517.269821361456
 20
-28917.6535745606
 30
0.0
 41
75.0
 42
75.0
 43
75.0
 50
270.0
  0
MTEXT
  5
3598D
330
2B476
100
AcDbEntity
  8
寸法
 62
     7
 48
50.0
100
AcDbMText
 10
-5592.269821361452
 20
-28367.6535745606
 30
0.0
 40
90.0
 41
0.0
 71
     5
 72
     1
  1
\A1;1100
  7
STYLE1
 11
0.0000000000000001
 21
1.0
 31
0.0
 73
     1
 44
1.0
1001
ACAD
1000
MTEXTBEGIN
1070
    73
1070
     1
1070
    44
1040
1.0
1070
    74
1070
     0
1000
MTEXTEND
  0
POINT
  5
3598E
330
2B476
100
AcDbEntity
  8
DEFPOINTS
 62
     0
 48
50.0
100
AcDbPoint
 10
-5162.6408147931
 20
-27817.65357456059
 30
0.0
  0
POINT
  5
3598F
330
2B476
100
AcDbEntity
  8
DEFPOINTS
 62
     0
 48
50.0
100
AcDbPoint
 10
-5162.6408147931
 20
-28917.6535745606
 30
0.0
  0
POINT
  5
35990
330
2B476
100
AcDbEntity
  8
DEFPOINTS
 62
     0
 48
50.0
100
AcDbPoint
 10
-5517.269821361456
 20
-28917.6535745606
 30
0.0
  0
ENDBLK
  5
2B481
330
2B476
100
AcDbEntity
  8
0
 48
50.0
100
AcDbBlockEnd
  0
BLOCK
  5
2B48C
330
2B482
100
AcDbEntity
  8
0
 48
50.0
100
AcDbBlockBegin
  2
*D7
 70
     1
 10
0.0
 20
0.0
 30
0.0
  3
*D7
  1

  0
LINE
  5
35991
330
2B482
100
AcDbEntity
  8
寸法
 62
     0
 48
50.0
370
    -2
100
AcDbLine
 10
-5177.6408147931
 20
-28117.6535745606
 30
0.0
 11
-5384.955318077286
 21
-28117.6535745606
 31
0.0
  0
LINE
  5
35992
330
2B482
100
AcDbEntity
  8
寸法
 62
     0
 48
50.0
370
    -2
100
AcDbLine
 10
-5177.6408147931
 20
-28917.6535745606
 30
0.0
 11
-5384.955318077286
 21
-28917.6535745606
 31
0.0
  0
LINE
  5
35993
330
2B482
100
AcDbEntity
  8
寸法
 62
     0
 48
50.0
370
    -2
100
AcDbLine
 10
-5339.955318077286
 20
-28117.6535745606
 30
0.0
 11
-5339.955318077286
 21
-28917.6535745606
 31
0.0
  0
INSERT
  5
35994
330
2B482
100
AcDbEntity
  8
寸法
 62
     0
 48
50.0
370
    -2
100
AcDbBlockReference
  2
_DOTSMALL
 10
-5339.955318077286
 20
-28117.6535745606
 30
0.0
 41
75.0
 42
75.0
 43
75.0
 50
90.0
  0
INSERT
  5
35995
330
2B482
100
AcDbEntity
  8
寸法
 62
     0
 48
50.0
370
    -2
100
AcDbBlockReference
  2
_DOTSMALL
 10
-5339.955318077286
 20
-28917.6535745606
 30
0.0
 41
75.0
 42
75.0
 43
75.0
 50
270.0
  0
MTEXT
  5
35996
330
2B482
100
AcDbEntity
  8
寸法
 62
     7
 48
50.0
100
AcDbMText
 10
-5414.955318077281
 20
-28517.6535745606
 30
0.0
 40
90.0
 41
0.0
 71
     5
 72
     1
  1
\A1;800
  7
STYLE1
 11
0.0000000000000001
 21
1.0
 31
0.0
 73
     1
 44
1.0
1001
ACAD
1000
MTEXTBEGIN
1070
    73
1070
     1
1070
    44
1040
1.0
1070
    74
1070
     0
1000
MTEXTEND
  0
POINT
  5
35997
330
2B482
100
AcDbEntity
  8
DEFPOINTS
 62
     0
 48
50.0
100
AcDbPoint
 10
-5162.6408147931
 20
-28117.6535745606
 30
0.0
  0
POINT
  5
35998
330
2B482
100
AcDbEntity
  8
DEFPOINTS
 62
     0
 48
50.0
100
AcDbPoint
 10
-5162.6408147931
 20
-28917.6535745606
 30
0.0
  0
POINT
  5
35999
330
2B482
100
AcDbEntity
  8
DEFPOINTS
 62
     0
 48
50.0
100
AcDbPoint
 10
-5339.955318077286
 20
-28917.6535745606
 30
0.0
  0
ENDBLK
  5
2B48D
330
2B482
100
AcDbEntity
  8
0
 48
50.0
100
AcDbBlockEnd
  0
BLOCK
  5
2B498
330
2B48E
100
AcDbEntity
  8
0
 48
50.0
100
AcDbBlockBegin
  2
*D8
 70
     1
 10
0.0
 20
0.0
 30
0.0
  3
*D8
  1

  0
LINE
  5
3599A
330
2B48E
100
AcDbEntity
  8
寸法
 62
     0
 48
50.0
370
    -2
100
AcDbLine
 10
-5162.6408147931
 20
-28932.65357456059
 30
0.0
 11
-5162.6408147931
 21
-29438.92600663477
 31
0.0
  0
LINE
  5
3599B
330
2B48E
100
AcDbEntity
  8
寸法
 62
     0
 48
50.0
370
    -2
100
AcDbLine
 10
-4362.640814793099
 20
-28932.65357456059
 30
0.0
 11
-4362.640814793099
 21
-29438.92600663477
 31
0.0
  0
LINE
  5
3599C
330
2B48E
100
AcDbEntity
  8
寸法
 62
     0
 48
50.0
370
    -2
100
AcDbLine
 10
-5162.6408147931
 20
-29393.92600663476
 30
0.0
 11
-4362.640814793099
 21
-29393.92600663476
 31
0.0
  0
INSERT
  5
3599D
330
2B48E
100
AcDbEntity
  8
寸法
 62
     0
 48
50.0
370
    -2
100
AcDbBlockReference
  2
_DOTSMALL
 10
-5162.6408147931
 20
-29393.92600663476
 30
0.0
 41
75.0
 42
75.0
 43
75.0
 50
180.0
  0
INSERT
  5
3599E
330
2B48E
100
AcDbEntity
  8
寸法
 62
     0
 48
50.0
370
    -2
100
AcDbBlockReference
  2
_DOTSMALL
 10
-4362.640814793099
 20
-29393.92600663476
 30
0.0
 41
75.0
 42
75.0
 43
75.0
  0
MTEXT
  5
3599F
330
2B48E
100
AcDbEntity
  8
寸法
 62
     7
 48
50.0
100
AcDbMText
 10
-4762.640814793099
 20
-29318.92600663477
 30
0.0
 40
90.0
 41
0.0
 71
     5
 72
     1
  1
\A1;800
  7
STYLE1
 73
     1
 44
1.0
1001
ACAD
1000
MTEXTBEGIN
1070
    73
1070
     1
1070
    44
1040
1.0
1070
    74
1070
     0
1000
MTEXTEND
  0
POINT
  5
359A0
330
2B48E
100
AcDbEntity
  8
DEFPOINTS
 62
     0
 48
50.0
100
AcDbPoint
 10
-5162.6408147931
 20
-28917.6535745606
 30
0.0
  0
POINT
  5
359A1
330
2B48E
100
AcDbEntity
  8
DEFPOINTS
 62
     0
 48
50.0
100
AcDbPoint
 10
-4362.640814793099
 20
-28917.6535745606
 30
0.0
  0
POINT
  5
359A2
330
2B48E
100
AcDbEntity
  8
DEFPOINTS
 62
     0
 48
50.0
100
AcDbPoint
 10
-4362.640814793099
 20
-29393.92600663476
 30
0.0
  0
ENDBLK
  5
2B499
330
2B48E
100
AcDbEntity
  8
0
 48
50.0
100
AcDbBlockEnd
  0
BLOCK
  5
2B4A4
330
2B49A
100
AcDbEntity
  8
0
 48
50.0
100
AcDbBlockBegin
  2
*D9
 70
     1
 10
0.0
 20
0.0
 30
0.0
  3
*D9
  1

  0
LINE
  5
359A3
330
2B49A
100
AcDbEntity
  8
寸法
 62
     0
 48
50.0
370
    -2
100
AcDbLine
 10
-4762.640814793099
 20
-28382.6535745606
 30
0.0
 11
-4762.640814793099
 21
-29200.78979059768
 31
0.0
  0
LINE
  5
359A4
330
2B49A
100
AcDbEntity
  8
寸法
 62
     0
 48
50.0
370
    -2
100
AcDbLine
 10
-5162.6408147931
 20
-28932.65357456059
 30
0.0
 11
-5162.6408147931
 21
-29200.78979059768
 31
0.0
  0
LINE
  5
359A5
330
2B49A
100
AcDbEntity
  8
寸法
 62
     0
 48
50.0
370
    -2
100
AcDbLine
 10
-4762.640814793099
 20
-29155.78979059769
 30
0.0
 11
-5162.6408147931
 21
-29155.78979059769
 31
0.0
  0
INSERT
  5
359A6
330
2B49A
100
AcDbEntity
  8
寸法
 62
     0
 48
50.0
370
    -2
100
AcDbBlockReference
  2
_DOTSMALL
 10
-4762.640814793099
 20
-29155.78979059769
 30
0.0
 41
75.0
 42
75.0
 43
75.0
  0
INSERT
  5
359A7
330
2B49A
100
AcDbEntity
  8
寸法
 62
     0
 48
50.0
370
    -2
100
AcDbBlockReference
  2
_DOTSMALL
 10
-5162.6408147931
 20
-29155.78979059769
 30
0.0
 41
75.0
 42
75.0
 43
75.0
 50
180.0
  0
MTEXT
  5
359A8
330
2B49A
100
AcDbEntity
  8
寸法
 62
     7
 48
50.0
100
AcDbMText
 10
-4962.6408147931
 20
-29080.78979059768
 30
0.0
 40
90.0
 41
0.0
 71
     5
 72
     1
  1
\A1;400
  7
STYLE1
 73
     1
 44
1.0
1001
ACAD
1000
MTEXTBEGIN
1070
    73
1070
     1
1070
    44
1040
1.0
1070
    74
1070
     0
1000
MTEXTEND
  0
POINT
  5
359A9
330
2B49A
100
AcDbEntity
  8
DEFPOINTS
 62
     0
 48
50.0
100
AcDbPoint
 10
-4762.640814793099
 20
-28367.6535745606
 30
0.0
  0
POINT
  5
359AA
330
2B49A
100
AcDbEntity
  8
DEFPOINTS
 62
     0
 48
50.0
100
AcDbPoint
 10
-5162.6408147931
 20
-28917.6535745606
 30
0.0
  0
POINT
  5
359AB
330
2B49A
100
AcDbEntity
  8
DEFPOINTS
 62
     0
 48
50.0
100
AcDbPoint
 10
-5162.6408147931
 20
-29155.78979059769
 30
0.0
  0
ENDBLK
  5
2B4A5
330
2B49A
100
AcDbEntity
  8
0
 48
50.0
100
AcDbBlockEnd
  0
BLOCK
  5
2B4B0
330
2B4A6
100
AcDbEntity
  8
0
 48
50.0
100
AcDbBlockBegin
  2
*D10
 70
     1
 10
0.0
 20
0.0
 30
0.0
  3
*D10
  1

  0
LINE
  5
359AC
330
2B4A6
100
AcDbEntity
  8
寸法
 62
     0
 48
50.0
370
    -2
100
AcDbLine
 10
-7562.6408147931
 20
-27802.65357456061
 30
0.0
 11
-7562.6408147931
 21
-27463.20128042949
 31
0.0
  0
LINE
  5
359AD
330
2B4A6
100
AcDbEntity
  8
寸法
 62
     0
 48
50.0
370
    -2
100
AcDbLine
 10
-7162.6408147931
 20
-27852.6535745606
 30
0.0
 11
-7162.6408147931
 21
-27463.20128042949
 31
0.0
  0
LINE
  5
359AE
330
2B4A6
100
AcDbEntity
  8
寸法
 62
     0
 48
50.0
370
    -2
100
AcDbLine
 10
-7562.6408147931
 20
-27508.2012804295
 30
0.0
 11
-7162.6408147931
 21
-27508.2012804295
 31
0.0
  0
INSERT
  5
359AF
330
2B4A6
100
AcDbEntity
  8
寸法
 62
     0
 48
50.0
370
    -2
100
AcDbBlockReference
  2
_DOTSMALL
 10
-7562.6408147931
 20
-27508.2012804295
 30
0.0
 41
75.0
 42
75.0
 43
75.0
 50
180.0
  0
INSERT
  5
359B0
330
2B4A6
100
AcDbEntity
  8
寸法
 62
     0
 48
50.0
370
    -2
100
AcDbBlockReference
  2
_DOTSMALL
 10
-7162.6408147931
 20
-27508.2012804295
 30
0.0
 41
75.0
 42
75.0
 43
75.0
  0
MTEXT
  5
359B1
330
2B4A6
100
AcDbEntity
  8
寸法
 62
     7
 48
50.0
100
AcDbMText
 10
-7362.6408147931
 20
-27433.20128042949
 30
0.0
 40
90.0
 41
0.0
 71
     5
 72
     1
  1
\A1;400
  7
STYLE1
 73
     1
 44
1.0
1001
ACAD
1000
MTEXTBEGIN
1070
    73
1070
     1
1070
    44
1040
1.0
1070
    74
1070
     0
1000
MTEXTEND
  0
POINT
  5
359B2
330
2B4A6
100
AcDbEntity
  8
DEFPOINTS
 62
     0
 48
50.0
100
AcDbPoint
 10
-7562.6408147931
 20
-27817.65357456061
 30
0.0
  0
POINT
  5
359B3
330
2B4A6
100
AcDbEntity
  8
DEFPOINTS
 62
     0
 48
50.0
100
AcDbPoint
 10
-7162.6408147931
 20
-27867.65357456059
 30
0.0
  0
POINT
  5
359B4
330
2B4A6
100
AcDbEntity
  8
DEFPOINTS
 62
     0
 48
50.0
100
AcDbPoint
 10
-7162.6408147931
 20
-27508.2012804295
 30
0.0
  0
ENDBLK
  5
2B4B1
330
2B4A6
100
AcDbEntity
  8
0
 48
50.0
100
AcDbBlockEnd
  0
BLOCK
  5
2B4BC
330
2B4B2
100
AcDbEntity
  8
0
 48
50.0
100
AcDbBlockBegin
  2
*D11
 70
     1
 10
0.0
 20
0.0
 30
0.0
  3
*D11
  1

  0
LINE
  5
359B5
330
2B4B2
100
AcDbEntity
  8
寸法
 62
     0
 48
50.0
370
    -2
100
AcDbLine
 10
-7162.6408147931
 20
-27852.6535745606
 30
0.0
 11
-7162.6408147931
 21
-27463.20128042949
 31
0.0
  0
LINE
  5
359B6
330
2B4B2
100
AcDbEntity
  8
寸法
 62
     0
 48
50.0
370
    -2
100
AcDbLine
 10
-4762.640814793099
 20
-27852.6535745606
 30
0.0
 11
-4762.640814793099
 21
-27463.20128042949
 31
0.0
  0
LINE
  5
359B7
330
2B4B2
100
AcDbEntity
  8
寸法
 62
     0
 48
50.0
370
    -2
100
AcDbLine
 10
-7162.6408147931
 20
-27508.2012804295
 30
0.0
 11
-4762.640814793099
 21
-27508.2012804295
 31
0.0
  0
INSERT
  5
359B8
330
2B4B2
100
AcDbEntity
  8
寸法
 62
     0
 48
50.0
370
    -2
100
AcDbBlockReference
  2
_DOTSMALL
 10
-7162.6408147931
 20
-27508.2012804295
 30
0.0
 41
75.0
 42
75.0
 43
75.0
 50
180.0
  0
INSERT
  5
359B9
330
2B4B2
100
AcDbEntity
  8
寸法
 62
     0
 48
50.0
370
    -2
100
AcDbBlockReference
  2
_DOTSMALL
 10
-4762.640814793099
 20
-27508.2012804295
 30
0.0
 41
75.0
 42
75.0
 43
75.0
  0
MTEXT
  5
359BA
330
2B4B2
100
AcDbEntity
  8
寸法
 62
     7
 48
50.0
100
AcDbMText
 10
-5962.6408147931
 20
-27433.19242216178
 30
0.0
 40
90.0
 41
0.0
 71
     5
 72
     1
  1
\A1;2400
  7
STYLE1
 73
     1
 44
1.0
1001
ACAD
1000
MTEXTBEGIN
1070
    73
1070
     1
1070
    44
1040
1.0
1070
    74
1070
     0
1000
MTEXTEND
  0
POINT
  5
359BB
330
2B4B2
100
AcDbEntity
  8
DEFPOINTS
 62
     0
 48
50.0
100
AcDbPoint
 10
-7162.6408147931
 20
-27867.65357456059
 30
0.0
  0
POINT
  5
359BC
330
2B4B2
100
AcDbEntity
  8
DEFPOINTS
 62
     0
 48
50.0
100
AcDbPoint
 10
-4762.640814793099
 20
-27867.65357456059
 30
0.0
  0
POINT
  5
359BD
330
2B4B2
100
AcDbEntity
  8
DEFPOINTS
 62
     0
 48
50.0
100
AcDbPoint
 10
-4762.640814793099
 20
-27508.2012804295
 30
0.0
  0
ENDBLK
  5
2B4BD
330
2B4B2
100
AcDbEntity
  8
0
 48
50.0
100
AcDbBlockEnd
  0
BLOCK
  5
2B4C8
330
2B4BE
100
AcDbEntity
  8
0
 48
50.0
100
AcDbBlockBegin
  2
*D12
 70
     1
 10
0.0
 20
0.0
 30
0.0
  3
*D12
  1

  0
LINE
  5
359BE
330
2B4BE
100
AcDbEntity
  8
寸法
 62
     0
 48
50.0
370
    -2
100
AcDbLine
 10
-4762.640814793099
 20
-27852.6535745606
 30
0.0
 11
-4762.640814793099
 21
-27463.20128042949
 31
0.0
  0
LINE
  5
359BF
330
2B4BE
100
AcDbEntity
  8
寸法
 62
     0
 48
50.0
370
    -2
100
AcDbLine
 10
-4362.640814793099
 20
-27802.6535745606
 30
0.0
 11
-4362.640814793099
 21
-27463.20128042949
 31
0.0
  0
LINE
  5
359C0
330
2B4BE
100
AcDbEntity
  8
寸法
 62
     0
 48
50.0
370
    -2
100
AcDbLine
 10
-4762.640814793099
 20
-27508.2012804295
 30
0.0
 11
-4362.640814793099
 21
-27508.2012804295
 31
0.0
  0
INSERT
  5
359C1
330
2B4BE
100
AcDbEntity
  8
寸法
 62
     0
 48
50.0
370
    -2
100
AcDbBlockReference
  2
_DOTSMALL
 10
-4762.640814793099
 20
-27508.2012804295
 30
0.0
 41
75.0
 42
75.0
 43
75.0
 50
180.0
  0
INSERT
  5
359C2
330
2B4BE
100
AcDbEntity
  8
寸法
 62
     0
 48
50.0
370
    -2
100
AcDbBlockReference
  2
_DOTSMALL
 10
-4362.640814793099
 20
-27508.2012804295
 30
0.0
 41
75.0
 42
75.0
 43
75.0
  0
MTEXT
  5
359C3
330
2B4BE
100
AcDbEntity
  8
寸法
 62
     7
 48
50.0
100
AcDbMText
 10
-4562.640814793099
 20
-27433.20128042949
 30
0.0
 40
90.0
 41
0.0
 71
     5
 72
     1
  1
\A1;400
  7
STYLE1
 73
     1
 44
1.0
1001
ACAD
1000
MTEXTBEGIN
1070
    73
1070
     1
1070
    44
1040
1.0
1070
    74
1070
     0
1000
MTEXTEND
  0
POINT
  5
359C4
330
2B4BE
100
AcDbEntity
  8
DEFPOINTS
 62
     0
 48
50.0
100
AcDbPoint
 10
-4762.640814793099
 20
-27867.65357456059
 30
0.0
  0
POINT
  5
359C5
330
2B4BE
100
AcDbEntity
  8
DEFPOINTS
 62
     0
 48
50.0
100
AcDbPoint
 10
-4362.640814793099
 20
-27817.6535745606
 30
0.0
  0
POINT
  5
359C6
330
2B4BE
100
AcDbEntity
  8
DEFPOINTS
 62
     0
 48
50.0
100
AcDbPoint
 10
-4362.640814793099
 20
-27508.2012804295
 30
0.0
  0
ENDBLK
  5
2B4C9
330
2B4BE
100
AcDbEntity
  8
0
 48
50.0
100
AcDbBlockEnd
  0
BLOCK
  5
2B4D4
330
2B4CA
100
AcDbEntity
  8
0
 48
50.0
100
AcDbBlockBegin
  2
*D13
 70
     1
 10
0.0
 20
0.0
 30
0.0
  3
*D13
  1

  0
LINE
  5
359C7
330
2B4CA
100
AcDbEntity
  8
寸法
 62
     0
 48
50.0
370
    -2
100
AcDbLine
 10
-7562.6408147931
 20
-27802.6535745606
 30
0.0
 11
-7562.6408147931
 21
-27269.16424145517
 31
0.0
  0
LINE
  5
359C8
330
2B4CA
100
AcDbEntity
  8
寸法
 62
     0
 48
50.0
370
    -2
100
AcDbLine
 10
-4362.640814793099
 20
-27802.6535745606
 30
0.0
 11
-4362.640814793099
 21
-27269.16424145517
 31
0.0
  0
LINE
  5
359C9
330
2B4CA
100
AcDbEntity
  8
寸法
 62
     0
 48
50.0
370
    -2
100
AcDbLine
 10
-7562.6408147931
 20
-27314.16424145518
 30
0.0
 11
-4362.640814793099
 21
-27314.16424145518
 31
0.0
  0
INSERT
  5
359CA
330
2B4CA
100
AcDbEntity
  8
寸法
 62
     0
 48
50.0
370
    -2
100
AcDbBlockReference
  2
_DOTSMALL
 10
-7562.6408147931
 20
-27314.16424145518
 30
0.0
 41
75.0
 42
75.0
 43
75.0
 50
180.0
  0
INSERT
  5
359CB
330
2B4CA
100
AcDbEntity
  8
寸法
 62
     0
 48
50.0
370
    -2
100
AcDbBlockReference
  2
_DOTSMALL
 10
-4362.640814793099
 20
-27314.16424145518
 30
0.0
 41
75.0
 42
75.0
 43
75.0
  0
MTEXT
  5
359CC
330
2B4CA
100
AcDbEntity
  8
寸法
 62
     7
 48
50.0
100
AcDbMText
 10
-5962.6408147931
 20
-27239.15538318746
 30
0.0
 40
90.0
 41
0.0
 71
     5
 72
     1
  1
\A1;基礎土間寸法 3200
  7
STYLE1
 73
     1
 44
1.0
1001
ACAD
1000
MTEXTBEGIN
1070
    73
1070
     1
1070
    44
1040
1.0
1070
    74
1070
     0
1000
MTEXTEND
  0
POINT
  5
359CD
330
2B4CA
100
AcDbEntity
  8
DEFPOINTS
 62
     0
 48
50.0
100
AcDbPoint
 10
-7562.6408147931
 20
-27817.6535745606
 30
0.0
  0
POINT
  5
359CE
330
2B4CA
100
AcDbEntity
  8
DEFPOINTS
 62
     0
 48
50.0
100
AcDbPoint
 10
-4362.640814793099
 20
-27817.6535745606
 30
0.0
  0
POINT
  5
359CF
330
2B4CA
100
AcDbEntity
  8
DEFPOINTS
 62
     0
 48
50.0
100
AcDbPoint
 10
-4362.640814793099
 20
-27314.16424145518
 30
0.0
  0
ENDBLK
  5
2B4D5
330
2B4CA
100
AcDbEntity
  8
0
 48
50.0
100
AcDbBlockEnd
  0
BLOCK
  5
2B4DE
330
2B4D6
100
AcDbEntity
  8
0
 48
50.0
100
AcDbBlockBegin
  2
*D14
 70
     1
 10
0.0
 20
0.0
 30
0.0
  3
*D14
  1

  0
LINE
  5
359D0
330
2B4D6
100
AcDbEntity
  8
寸法
 62
     0
 48
50.0
370
    -2
100
AcDbLine
 10
-7577.640814793106
 20
-27917.6535745606
 30
0.0
 11
-7948.512651504334
 21
-27917.6535745606
 31
0.0
  0
LINE
  5
359D1
330
2B4D6
100
AcDbEntity
  8
寸法
 62
     0
 48
50.0
370
    -2
100
AcDbLine
 10
-7427.640814793104
 20
-28117.6535745606
 30
0.0
 11
-7948.512651504334
 21
-28117.6535745606
 31
0.0
  0
LINE
  5
359D2
330
2B4D6
100
AcDbEntity
  8
寸法
 62
     0
 48
50.0
370
    -2
100
AcDbLine
 10
-7903.512651504335
 20
-27917.6535745606
 30
0.0
 11
-7903.512651504335
 21
-28117.6535745606
 31
0.0
  0
MTEXT
  5
359D3
330
2B4D6
100
AcDbEntity
  8
寸法
 62
     7
 48
50.0
100
AcDbMText
 10
-7978.521509772045
 20
-28017.65357456059
 30
0.0
 40
90.0
 41
0.0
 71
     5
 72
     1
  1
\A1;200
  7
STYLE1
 11
0.0000000000000001
 21
1.0
 31
0.0
 73
     1
 44
1.0
1001
ACAD
1000
MTEXTBEGIN
1070
    73
1070
     1
1070
    44
1040
1.0
1070
    74
1070
     0
1000
MTEXTEND
  0
POINT
  5
359D4
330
2B4D6
100
AcDbEntity
  8
DEFPOINTS
 62
     0
 48
50.0
100
AcDbPoint
 10
-7562.640814793107
 20
-27917.6535745606
 30
0.0
  0
POINT
  5
359D5
330
2B4D6
100
AcDbEntity
  8
DEFPOINTS
 62
     0
 48
50.0
100
AcDbPoint
 10
-7412.640814793103
 20
-28117.6535745606
 30
0.0
  0
POINT
  5
359D6
330
2B4D6
100
AcDbEntity
  8
DEFPOINTS
 62
     0
 48
50.0
100
AcDbPoint
 10
-7903.512651504335
 20
-28117.6535745606
 30
0.0
  0
ENDBLK
  5
2B4DF
330
2B4D6
100
AcDbEntity
  8
0
 48
50.0
100
AcDbBlockEnd
  0
BLOCK
  5
2B4EA
330
2B4E0
100
AcDbEntity
  8
0
 48
50.0
100
AcDbBlockBegin
  2
*D15
 70
     1
 10
0.0
 20
0.0
 30
0.0
  3
*D15
  1

  0
LINE
  5
359D7
330
2B4E0
100
AcDbEntity
  8
寸法
 62
     0
 48
50.0
370
    -2
100
AcDbLine
 10
-7427.640814793104
 20
-28117.6535745606
 30
0.0
 11
-7948.512651504334
 21
-28117.6535745606
 31
0.0
  0
LINE
  5
359D8
330
2B4E0
100
AcDbEntity
  8
寸法
 62
     0
 48
50.0
370
    -2
100
AcDbLine
 10
-7577.640814793099
 20
-30117.65357456059
 30
0.0
 11
-7948.512651504334
 21
-30117.65357456059
 31
0.0
  0
LINE
  5
359D9
330
2B4E0
100
AcDbEntity
  8
寸法
 62
     0
 48
50.0
370
    -2
100
AcDbLine
 10
-7903.512651504335
 20
-28117.6535745606
 30
0.0
 11
-7903.512651504335
 21
-30117.65357456059
 31
0.0
  0
INSERT
  5
359DA
330
2B4E0
100
AcDbEntity
  8
寸法
 62
     0
 48
50.0
370
    -2
100
AcDbBlockReference
  2
_DOTSMALL
 10
-7903.512651504335
 20
-28117.6535745606
 30
0.0
 41
75.0
 42
75.0
 43
75.0
 50
90.0
  0
INSERT
  5
359DB
330
2B4E0
100
AcDbEntity
  8
寸法
 62
     0
 48
50.0
370
    -2
100
AcDbBlockReference
  2
_DOTSMALL
 10
-7903.512651504335
 20
-30117.65357456059
 30
0.0
 41
75.0
 42
75.0
 43
75.0
 50
270.0
  0
MTEXT
  5
359DC
330
2B4E0
100
AcDbEntity
  8
寸法
 62
     7
 48
50.0
100
AcDbMText
 10
-7978.521509772045
 20
-29117.65357456059
 30
0.0
 40
90.0
 41
0.0
 71
     5
 72
     1
  1
\A1;2000
  7
STYLE1
 11
0.0000000000000001
 21
1.0
 31
0.0
 73
     1
 44
1.0
1001
ACAD
1000
MTEXTBEGIN
1070
    73
1070
     1
1070
    44
1040
1.0
1070
    74
1070
     0
1000
MTEXTEND
  0
POINT
  5
359DD
330
2B4E0
100
AcDbEntity
  8
DEFPOINTS
 62
     0
 48
50.0
100
AcDbPoint
 10
-7412.640814793103
 20
-28117.6535745606
 30
0.0
  0
POINT
  5
359DE
330
2B4E0
100
AcDbEntity
  8
DEFPOINTS
 62
     0
 48
50.0
100
AcDbPoint
 10
-7562.6408147931
 20
-30117.65357456059
 30
0.0
  0
POINT
  5
359DF
330
2B4E0
100
AcDbEntity
  8
DEFPOINTS
 62
     0
 48
50.0
100
AcDbPoint
 10
-7903.512651504335
 20
-30117.65357456059
 30
0.0
  0
ENDBLK
  5
2B4EB
330
2B4E0
100
AcDbEntity
  8
0
 48
50.0
100
AcDbBlockEnd
  0
BLOCK
  5
2B4F6
330
2B4EC
100
AcDbEntity
  8
0
 48
50.0
100
AcDbBlockBegin
  2
*D16
 70
     1
 10
0.0
 20
0.0
 30
0.0
  3
*D16
  1

  0
LINE
  5
359E0
330
2B4EC
100
AcDbEntity
  8
寸法
 62
     0
 48
50.0
370
    -2
100
AcDbLine
 10
-7577.640814793106
 20
-27917.6535745606
 30
0.0
 11
-8171.262013520793
 21
-27917.6535745606
 31
0.0
  0
LINE
  5
359E1
330
2B4EC
100
AcDbEntity
  8
寸法
 62
     0
 48
50.0
370
    -2
100
AcDbLine
 10
-7577.640814793099
 20
-30117.65357456059
 30
0.0
 11
-8171.262013520793
 21
-30117.65357456059
 31
0.0
  0
LINE
  5
359E2
330
2B4EC
100
AcDbEntity
  8
寸法
 62
     0
 48
50.0
370
    -2
100
AcDbLine
 10
-8126.262013520793
 20
-27917.6535745606
 30
0.0
 11
-8126.262013520793
 21
-30117.65357456059
 31
0.0
  0
INSERT
  5
359E3
330
2B4EC
100
AcDbEntity
  8
寸法
 62
     0
 48
50.0
370
    -2
100
AcDbBlockReference
  2
_DOTSMALL
 10
-8126.262013520793
 20
-27917.6535745606
 30
0.0
 41
75.0
 42
75.0
 43
75.0
 50
90.0
  0
INSERT
  5
359E4
330
2B4EC
100
AcDbEntity
  8
寸法
 62
     0
 48
50.0
370
    -2
100
AcDbBlockReference
  2
_DOTSMALL
 10
-8126.262013520793
 20
-30117.65357456059
 30
0.0
 41
75.0
 42
75.0
 43
75.0
 50
270.0
  0
MTEXT
  5
359E5
330
2B4EC
100
AcDbEntity
  8
寸法
 62
     7
 48
50.0
100
AcDbMText
 10
-8201.270871788507
 20
-29017.6535745606
 30
0.0
 40
90.0
 41
0.0
 71
     5
 72
     1
  1
\A1;基礎土間寸法 2200
  7
STYLE1
 11
0.0000000000000001
 21
1.0
 31
0.0
 73
     1
 44
1.0
1001
ACAD
1000
MTEXTBEGIN
1070
    73
1070
     1
1070
    44
1040
1.0
1070
    74
1070
     0
1000
MTEXTEND
  0
POINT
  5
359E6
330
2B4EC
100
AcDbEntity
  8
DEFPOINTS
 62
     0
 48
50.0
100
AcDbPoint
 10
-7562.640814793107
 20
-27917.6535745606
 30
0.0
  0
POINT
  5
359E7
330
2B4EC
100
AcDbEntity
  8
DEFPOINTS
 62
     0
 48
50.0
100
AcDbPoint
 10
-7562.6408147931
 20
-30117.65357456059
 30
0.0
  0
POINT
  5
359E8
330
2B4EC
100
AcDbEntity
  8
DEFPOINTS
 62
     0
 48
50.0
100
AcDbPoint
 10
-8126.262013520793
 20
-30117.65357456059
 30
0.0
  0
ENDBLK
  5
2B4F7
330
2B4EC
100
AcDbEntity
  8
0
 48
50.0
100
AcDbBlockEnd
  0
BLOCK
  5
2B502
330
2B4F8
100
AcDbEntity
  8
0
 48
50.0
100
AcDbBlockBegin
  2
*D17
 70
     1
 10
0.0
 20
0.0
 30
0.0
  3
*D17
  1

  0
LINE
  5
359E9
330
2B4F8
100
AcDbEntity
  8
寸法
 62
     0
 48
50.0
370
    -2
100
AcDbLine
 10
-7392.640814793056
 20
-29995.6535745606
 30
0.0
 11
-7392.640814793056
 21
-30491.14129289713
 31
0.0
  0
LINE
  5
359EA
330
2B4F8
100
AcDbEntity
  8
寸法
 62
     0
 48
50.0
370
    -2
100
AcDbLine
 10
-4532.640814793142
 20
-29995.65357456059
 30
0.0
 11
-4532.640814793142
 21
-30491.14129289713
 31
0.0
  0
LINE
  5
359EB
330
2B4F8
100
AcDbEntity
  8
寸法
 62
     0
 48
50.0
370
    -2
100
AcDbLine
 10
-7392.640814793056
 20
-30446.14129289713
 30
0.0
 11
-4532.640814793142
 21
-30446.14129289713
 31
0.0
  0
INSERT
  5
359EC
330
2B4F8
100
AcDbEntity
  8
寸法
 62
     0
 48
50.0
370
    -2
100
AcDbBlockReference
  2
_DOTSMALL
 10
-7392.640814793056
 20
-30446.14129289713
 30
0.0
 41
75.0
 42
75.0
 43
75.0
 50
180.0
  0
INSERT
  5
359ED
330
2B4F8
100
AcDbEntity
  8
寸法
 62
     0
 48
50.0
370
    -2
100
AcDbBlockReference
  2
_DOTSMALL
 10
-4532.640814793142
 20
-30446.14129289713
 30
0.0
 41
75.0
 42
75.0
 43
75.0
  0
MTEXT
  5
359EE
330
2B4F8
100
AcDbEntity
  8
寸法
 62
     7
 48
50.0
100
AcDbMText
 10
-5962.6408147931
 20
-30371.13243462941
 30
0.0
 40
90.0
 41
0.0
 71
     5
 72
     1
  1
\A1;屋根寸法 2860
  7
STYLE1
 73
     1
 44
1.0
1001
ACAD
1000
MTEXTBEGIN
1070
    73
1070
     1
1070
    44
1040
1.0
1070
    74
1070
     0
1000
MTEXTEND
  0
POINT
  5
359EF
330
2B4F8
100
AcDbEntity
  8
DEFPOINTS
 62
     0
 48
50.0
100
AcDbPoint
 10
-7392.640814793056
 20
-29980.6535745606
 30
0.0
  0
POINT
  5
359F0
330
2B4F8
100
AcDbEntity
  8
DEFPOINTS
 62
     0
 48
50.0
100
AcDbPoint
 10
-4532.640814793142
 20
-29980.65357456059
 30
0.0
  0
POINT
  5
359F1
330
2B4F8
100
AcDbEntity
  8
DEFPOINTS
 62
     0
 48
50.0
100
AcDbPoint
 10
-4532.640814793142
 20
-30446.14129289713
 30
0.0
  0
ENDBLK
  5
2B503
330
2B4F8
100
AcDbEntity
  8
0
 48
50.0
100
AcDbBlockEnd
  0
BLOCK
  5
2B50C
330
2B504
100
AcDbEntity
  8
0
 48
50.0
100
AcDbBlockBegin
  2
*D18
 70
     1
 10
0.0
 20
0.0
 30
0.0
  3
*D18
  1

  0
LINE
  5
359F2
330
2B504
100
AcDbEntity
  8
寸法
 62
     0
 48
50.0
370
    -2
100
AcDbLine
 10
-4532.640814793142
 20
-29995.65357456059
 30
0.0
 11
-4532.640814793142
 21
-30491.14129289713
 31
0.0
  0
LINE
  5
359F3
330
2B504
100
AcDbEntity
  8
寸法
 62
     0
 48
50.0
370
    -2
100
AcDbLine
 10
-4362.640814793099
 20
-30132.65357456059
 30
0.0
 11
-4362.640814793099
 21
-30491.14129289713
 31
0.0
  0
LINE
  5
359F4
330
2B504
100
AcDbEntity
  8
寸法
 62
     0
 48
50.0
370
    -2
100
AcDbLine
 10
-4532.640814793142
 20
-30446.14129289713
 30
0.0
 11
-4362.640814793099
 21
-30446.14129289713
 31
0.0
  0
MTEXT
  5
359F5
330
2B504
100
AcDbEntity
  8
寸法
 62
     7
 48
50.0
100
AcDbMText
 10
-4447.640814793121
 20
-30371.14129289713
 30
0.0
 40
90.0
 41
0.0
 71
     5
 72
     1
  1
\A1;170
  7
STYLE1
 73
     1
 44
1.0
1001
ACAD
1000
MTEXTBEGIN
1070
    73
1070
     1
1070
    44
1040
1.0
1070
    74
1070
     0
1000
MTEXTEND
  0
POINT
  5
359F6
330
2B504
100
AcDbEntity
  8
DEFPOINTS
 62
     0
 48
50.0
100
AcDbPoint
 10
-4532.640814793142
 20
-29980.65357456059
 30
0.0
  0
POINT
  5
359F7
330
2B504
100
AcDbEntity
  8
DEFPOINTS
 62
     0
 48
50.0
100
AcDbPoint
 10
-4362.640814793099
 20
-30117.65357456059
 30
0.0
  0
POINT
  5
359F8
330
2B504
100
AcDbEntity
  8
DEFPOINTS
 62
     0
 48
50.0
100
AcDbPoint
 10
-4362.640814793099
 20
-30446.14129289713
 30
0.0
  0
ENDBLK
  5
2B50D
330
2B504
100
AcDbEntity
  8
0
 48
50.0
100
AcDbBlockEnd
  0
BLOCK
  5
35CD2
330
35CC7
100
AcDbEntity
  8
0
 48
50.0
100
AcDbBlockBegin
  2
*D19
 70
     1
 10
0.0
 20
0.0
 30
0.0
  3
*D19
  1

  0
LINE
  5
35ECE
330
35CC7
100
AcDbEntity
  8
寸法
 62
     0
 48
50.0
370
    -2
100
AcDbLine
 10
-1803.589145516693
 20
-28234.10369776426
 30
0.0
 11
-1984.170272618587
 21
-28234.10369776426
 31
0.0
  0
LINE
  5
35ECF
330
35CC7
100
AcDbEntity
  8
寸法
 62
     0
 48
50.0
370
    -2
100
AcDbLine
 10
-1803.589145516693
 20
-28134.10369776426
 30
0.0
 11
-1984.170272618587
 21
-28134.10369776426
 31
0.0
  0
LINE
  5
35ED0
330
35CC7
100
AcDbEntity
  8
寸法
 62
     0
 48
50.0
370
    -2
100
AcDbLine
 10
-1939.170272618587
 20
-28234.10369776426
 30
0.0
 11
-1939.170272618587
 21
-28134.10369776426
 31
0.0
  0
LINE
  5
35ED1
330
35CC7
100
AcDbEntity
  8
寸法
 62
     0
 48
50.0
370
    -2
100
AcDbLine
 10
-1939.170272618587
 20
-28134.10369776426
 30
0.0
 11
-1939.170272618587
 21
-27855.03283162252
 31
0.0
  0
INSERT
  5
35ED2
330
35CC7
100
AcDbEntity
  8
寸法
 62
     0
 48
50.0
370
    -2
100
AcDbBlockReference
  2
_DOTSMALL
 10
-1939.170272618587
 20
-28234.10369776426
 30
0.0
 41
75.0
 42
75.0
 43
75.0
 50
270.0
  0
INSERT
  5
35ED3
330
35CC7
100
AcDbEntity
  8
寸法
 62
     0
 48
50.0
370
    -2
100
AcDbBlockReference
  2
_DOTSMALL
 10
-1939.170272618587
 20
-28134.10369776426
 30
0.0
 41
75.0
 42
75.0
 43
75.0
 50
90.0
  0
MTEXT
  5
35ED4
330
35CC7
100
AcDbEntity
  8
寸法
 62
     7
 48
50.0
100
AcDbMText
 10
-2014.170272618583
 20
-27957.06826469339
 30
0.0
 40
90.0
 41
0.0
 71
     5
 72
     1
  1
\A1;100
  7
STYLE1
 11
0.0000000000000001
 21
1.0
 31
0.0
 73
     1
 44
1.0
1001
ACAD
1000
MTEXTBEGIN
1070
    73
1070
     1
1070
    44
1040
1.0
1070
    74
1070
     0
1000
MTEXTEND
  0
POINT
  5
35ED5
330
35CC7
100
AcDbEntity
  8
DEFPOINTS
 62
     0
 48
50.0
100
AcDbPoint
 10
-1788.589145516693
 20
-28234.10369776426
 30
0.0
  0
POINT
  5
35ED6
330
35CC7
100
AcDbEntity
  8
DEFPOINTS
 62
     0
 48
50.0
100
AcDbPoint
 10
-1788.589145516693
 20
-28134.10369776426
 30
0.0
  0
POINT
  5
35ED7
330
35CC7
100
AcDbEntity
  8
DEFPOINTS
 62
     0
 48
50.0
100
AcDbPoint
 10
-1939.170272618587
 20
-28134.10369776426
 30
0.0
  0
ENDBLK
  5
35CD3
330
35CC7
100
AcDbEntity
  8
0
 48
50.0
100
AcDbBlockEnd
  0
BLOCK
  5
35CDF
330
35CD4
100
AcDbEntity
  8
0
 48
50.0
100
AcDbBlockBegin
  2
*D20
 70
     1
 10
0.0
 20
0.0
 30
0.0
  3
*D20
  1

  0
LINE
  5
35ED8
330
35CD4
100
AcDbEntity
  8
寸法
 62
     0
 48
50.0
370
    -2
100
AcDbLine
 10
-1803.589145516693
 20
-28234.10369776426
 30
0.0
 11
-1984.170272618587
 21
-28234.10369776426
 31
0.0
  0
LINE
  5
35ED9
330
35CD4
100
AcDbEntity
  8
寸法
 62
     0
 48
50.0
370
    -2
100
AcDbLine
 10
-1803.589145516693
 20
-28334.10369776426
 30
0.0
 11
-1984.170272618587
 21
-28334.10369776426
 31
0.0
  0
LINE
  5
35EDA
330
35CD4
100
AcDbEntity
  8
寸法
 62
     0
 48
50.0
370
    -2
100
AcDbLine
 10
-1939.170272618587
 20
-28234.10369776426
 30
0.0
 11
-1939.170272618587
 21
-28334.10369776426
 31
0.0
  0
LINE
  5
35EDB
330
35CD4
100
AcDbEntity
  8
寸法
 62
     0
 48
50.0
370
    -2
100
AcDbLine
 10
-1939.170272618587
 20
-28334.10369776426
 30
0.0
 11
-1939.170272618587
 21
-28613.17456390599
 31
0.0
  0
INSERT
  5
35EDC
330
35CD4
100
AcDbEntity
  8
寸法
 62
     0
 48
50.0
370
    -2
100
AcDbBlockReference
  2
_DOTSMALL
 10
-1939.170272618587
 20
-28234.10369776426
 30
0.0
 41
75.0
 42
75.0
 43
75.0
 50
90.0
  0
INSERT
  5
35EDD
330
35CD4
100
AcDbEntity
  8
寸法
 62
     0
 48
50.0
370
    -2
100
AcDbBlockReference
  2
_DOTSMALL
 10
-1939.170272618587
 20
-28334.10369776426
 30
0.0
 41
75.0
 42
75.0
 43
75.0
 50
270.0
  0
MTEXT
  5
35EDE
330
35CD4
100
AcDbEntity
  8
寸法
 62
     7
 48
50.0
100
AcDbMText
 10
-2014.170272618583
 20
-28511.13913083512
 30
0.0
 40
90.0
 41
0.0
 71
     5
 72
     1
  1
\A1;100
  7
STYLE1
 11
0.0000000000000001
 21
1.0
 31
0.0
 73
     1
 44
1.0
1001
ACAD
1000
MTEXTBEGIN
1070
    73
1070
     1
1070
    44
1040
1.0
1070
    74
1070
     0
1000
MTEXTEND
  0
POINT
  5
35EDF
330
35CD4
100
AcDbEntity
  8
DEFPOINTS
 62
     0
 48
50.0
100
AcDbPoint
 10
-1788.589145516693
 20
-28234.10369776426
 30
0.0
  0
POINT
  5
35EE0
330
35CD4
100
AcDbEntity
  8
DEFPOINTS
 62
     0
 48
50.0
100
AcDbPoint
 10
-1788.589145516693
 20
-28334.10369776426
 30
0.0
  0
POINT
  5
35EE1
330
35CD4
100
AcDbEntity
  8
DEFPOINTS
 62
     0
 48
50.0
100
AcDbPoint
 10
-1939.170272618587
 20
-28334.10369776426
 30
0.0
  0
ENDBLK
  5
35CE0
330
35CD4
100
AcDbEntity
  8
0
 48
50.0
100
AcDbBlockEnd
  0
BLOCK
  5
35CEB
330
35CE1
100
AcDbEntity
  8
0
 48
50.0
100
AcDbBlockBegin
  2
*D21
 70
     1
 10
0.0
 20
0.0
 30
0.0
  3
*D21
  1

  0
LINE
  5
35EE2
330
35CE1
100
AcDbEntity
  8
寸法
 62
     0
 48
50.0
370
    -2
100
AcDbLine
 10
-486.4733344170162
 20
-28860.16152959413
 30
0.0
 11
-486.4733344170162
 21
-29270.7203274083
 31
0.0
  0
LINE
  5
35EE3
330
35CE1
100
AcDbEntity
  8
寸法
 62
     0
 48
50.0
370
    -2
100
AcDbLine
 10
-186.4733344170236
 20
-28799.10369776426
 30
0.0
 11
-186.4733344170236
 21
-29270.7203274083
 31
0.0
  0
LINE
  5
35EE4
330
35CE1
100
AcDbEntity
  8
寸法
 62
     0
 48
50.0
370
    -2
100
AcDbLine
 10
-486.4733344170162
 20
-29225.7203274083
 30
0.0
 11
-186.4733344170236
 21
-29225.7203274083
 31
0.0
  0
INSERT
  5
35EE5
330
35CE1
100
AcDbEntity
  8
寸法
 62
     0
 48
50.0
370
    -2
100
AcDbBlockReference
  2
_DOTSMALL
 10
-486.4733344170162
 20
-29225.7203274083
 30
0.0
 41
75.0
 42
75.0
 43
75.0
 50
180.0
  0
INSERT
  5
35EE6
330
35CE1
100
AcDbEntity
  8
寸法
 62
     0
 48
50.0
370
    -2
100
AcDbBlockReference
  2
_DOTSMALL
 10
-186.4733344170236
 20
-29225.7203274083
 30
0.0
 41
75.0
 42
75.0
 43
75.0
  0
MTEXT
  5
35EE7
330
35CE1
100
AcDbEntity
  8
寸法
 62
     7
 48
50.0
100
AcDbMText
 10
-336.47333441702
 20
-29150.7203274083
 30
0.0
 40
90.0
 41
0.0
 71
     5
 72
     1
  1
\A1;300
  7
STYLE1
 73
     1
 44
1.0
1001
ACAD
1000
MTEXTBEGIN
1070
    73
1070
     1
1070
    44
1040
1.0
1070
    74
1070
     0
1000
MTEXTEND
  0
POINT
  5
35EE8
330
35CE1
100
AcDbEntity
  8
DEFPOINTS
 62
     0
 48
50.0
100
AcDbPoint
 10
-486.4733344170162
 20
-28845.16152959413
 30
0.0
  0
POINT
  5
35EE9
330
35CE1
100
AcDbEntity
  8
DEFPOINTS
 62
     0
 48
50.0
100
AcDbPoint
 10
-186.4733344170236
 20
-28784.10369776426
 30
0.0
  0
POINT
  5
35EEA
330
35CE1
100
AcDbEntity
  8
DEFPOINTS
 62
     0
 48
50.0
100
AcDbPoint
 10
-186.4733344170236
 20
-29225.7203274083
 30
0.0
  0
ENDBLK
  5
35CEC
330
35CE1
100
AcDbEntity
  8
0
 48
50.0
100
AcDbBlockEnd
  0
BLOCK
  5
35CF7
330
35CED
100
AcDbEntity
  8
0
 48
50.0
100
AcDbBlockBegin
  2
*D22
 70
     1
 10
0.0
 20
0.0
 30
0.0
  3
*D22
  1

  0
LINE
  5
35EEB
330
35CED
100
AcDbEntity
  8
寸法
 62
     0
 48
50.0
370
    -2
100
AcDbLine
 10
-1286.473334417016
 20
-28799.10369776426
 30
0.0
 11
-1286.473334417016
 21
-29270.7203274083
 31
0.0
  0
LINE
  5
35EEC
330
35CED
100
AcDbEntity
  8
寸法
 62
     0
 48
50.0
370
    -2
100
AcDbLine
 10
-486.4733344170162
 20
-28860.16152959413
 30
0.0
 11
-486.4733344170162
 21
-29270.7203274083
 31
0.0
  0
LINE
  5
35EED
330
35CED
100
AcDbEntity
  8
寸法
 62
     0
 48
50.0
370
    -2
100
AcDbLine
 10
-1286.473334417016
 20
-29225.7203274083
 30
0.0
 11
-486.4733344170162
 21
-29225.7203274083
 31
0.0
  0
INSERT
  5
35EEE
330
35CED
100
AcDbEntity
  8
寸法
 62
     0
 48
50.0
370
    -2
100
AcDbBlockReference
  2
_DOTSMALL
 10
-1286.473334417016
 20
-29225.7203274083
 30
0.0
 41
75.0
 42
75.0
 43
75.0
 50
180.0
  0
INSERT
  5
35EEF
330
35CED
100
AcDbEntity
  8
寸法
 62
     0
 48
50.0
370
    -2
100
AcDbBlockReference
  2
_DOTSMALL
 10
-486.4733344170162
 20
-29225.7203274083
 30
0.0
 41
75.0
 42
75.0
 43
75.0
  0
MTEXT
  5
35EF0
330
35CED
100
AcDbEntity
  8
寸法
 62
     7
 48
50.0
100
AcDbMText
 10
-886.4733344170163
 20
-29150.7203274083
 30
0.0
 40
90.0
 41
0.0
 71
     5
 72
     1
  1
\A1;800
  7
STYLE1
 73
     1
 44
1.0
1001
ACAD
1000
MTEXTBEGIN
1070
    73
1070
     1
1070
    44
1040
1.0
1070
    74
1070
     0
1000
MTEXTEND
  0
POINT
  5
35EF1
330
35CED
100
AcDbEntity
  8
DEFPOINTS
 62
     0
 48
50.0
100
AcDbPoint
 10
-1286.473334417016
 20
-28784.10369776426
 30
0.0
  0
POINT
  5
35EF2
330
35CED
100
AcDbEntity
  8
DEFPOINTS
 62
     0
 48
50.0
100
AcDbPoint
 10
-486.4733344170162
 20
-28845.16152959413
 30
0.0
  0
POINT
  5
35EF3
330
35CED
100
AcDbEntity
  8
DEFPOINTS
 62
     0
 48
50.0
100
AcDbPoint
 10
-486.4733344170162
 20
-29225.7203274083
 30
0.0
  0
ENDBLK
  5
35CF8
330
35CED
100
AcDbEntity
  8
0
 48
50.0
100
AcDbBlockEnd
  0
BLOCK
  5
35D05
330
35CF9
100
AcDbEntity
  8
0
 48
50.0
100
AcDbBlockBegin
  2
*D23
 70
     1
 10
0.0
 20
0.0
 30
0.0
  3
*D23
  1

  0
LINE
  5
35EF4
330
35CF9
100
AcDbEntity
  8
寸法
 62
     0
 48
50.0
370
    -2
100
AcDbLine
 10
-91.47333441702357
 20
-28784.10369776426
 30
0.0
 11
150.9680301836878
 21
-28784.10369776426
 31
0.0
  0
LINE
  5
35EF5
330
35CF9
100
AcDbEntity
  8
寸法
 62
     0
 48
50.0
370
    -2
100
AcDbLine
 10
-91.47333441702357
 20
-28834.10369776426
 30
0.0
 11
150.9680301836878
 21
-28834.10369776426
 31
0.0
  0
LINE
  5
35EF6
330
35CF9
100
AcDbEntity
  8
寸法
 62
     0
 48
50.0
370
    -2
100
AcDbLine
 10
105.9680301836878
 20
-28784.10369776426
 30
0.0
 11
105.9680301836878
 21
-28709.10369776426
 31
0.0
  0
LINE
  5
35EF7
330
35CF9
100
AcDbEntity
  8
寸法
 62
     0
 48
50.0
370
    -2
100
AcDbLine
 10
105.9680301836878
 20
-28834.10369776426
 30
0.0
 11
105.9680301836877
 21
-29143.17456390599
 31
0.0
  0
LINE
  5
35EF8
330
35CF9
100
AcDbEntity
  8
寸法
 62
     0
 48
50.0
370
    -2
100
AcDbLine
 10
105.9680301836878
 20
-28784.10369776426
 30
0.0
 11
105.9680301836878
 21
-28834.10369776426
 31
0.0
  0
INSERT
  5
35EF9
330
35CF9
100
AcDbEntity
  8
寸法
 62
     0
 48
50.0
370
    -2
100
AcDbBlockReference
  2
_DOTSMALL
 10
105.9680301836878
 20
-28784.10369776426
 30
0.0
 41
75.0
 42
75.0
 43
75.0
 50
270.0
  0
INSERT
  5
35EFA
330
35CF9
100
AcDbEntity
  8
寸法
 62
     0
 48
50.0
370
    -2
100
AcDbBlockReference
  2
_DOTSMALL
 10
105.9680301836878
 20
-28834.10369776426
 30
0.0
 41
75.0
 42
75.0
 43
75.0
 50
90.0
  0
MTEXT
  5
35EFB
330
35CF9
100
AcDbEntity
  8
寸法
 62
     7
 48
50.0
100
AcDbMText
 10
30.96803018369246
 20
-29063.63913083513
 30
0.0
 40
90.0
 41
0.0
 71
     5
 72
     1
  1
\A1;50
  7
STYLE1
 11
0.0000000000000001
 21
1.0
 31
0.0
 73
     1
 44
1.0
1001
ACAD
1000
MTEXTBEGIN
1070
    73
1070
     1
1070
    44
1040
1.0
1070
    74
1070
     0
1000
MTEXTEND
  0
POINT
  5
35EFC
330
35CF9
100
AcDbEntity
  8
DEFPOINTS
 62
     0
 48
50.0
100
AcDbPoint
 10
-106.4733344170236
 20
-28784.10369776426
 30
0.0
  0
POINT
  5
35EFD
330
35CF9
100
AcDbEntity
  8
DEFPOINTS
 62
     0
 48
50.0
100
AcDbPoint
 10
-106.4733344170236
 20
-28834.10369776426
 30
0.0
  0
POINT
  5
35EFE
330
35CF9
100
AcDbEntity
  8
DEFPOINTS
 62
     0
 48
50.0
100
AcDbPoint
 10
105.9680301836878
 20
-28834.10369776426
 30
0.0
  0
ENDBLK
  5
35D06
330
35CF9
100
AcDbEntity
  8
0
 48
50.0
100
AcDbBlockEnd
  0
BLOCK
  5
35D11
330
35D07
100
AcDbEntity
  8
0
 48
50.0
100
AcDbBlockBegin
  2
*D24
 70
     1
 10
0.0
 20
0.0
 30
0.0
  3
*D24
  1

  0
LINE
  5
35EFF
330
35D07
100
AcDbEntity
  8
寸法
 62
     0
 48
50.0
370
    -2
100
AcDbLine
 10
-186.4733344170236
 20
-28799.10369776426
 30
0.0
 11
-186.4733344170236
 21
-29500.80588849705
 31
0.0
  0
LINE
  5
35F00
330
35D07
100
AcDbEntity
  8
寸法
 62
     0
 48
50.0
370
    -2
100
AcDbLine
 10
-1286.473334417016
 20
-28799.10369776426
 30
0.0
 11
-1286.473334417016
 21
-29500.80588849705
 31
0.0
  0
LINE
  5
35F01
330
35D07
100
AcDbEntity
  8
寸法
 62
     0
 48
50.0
370
    -2
100
AcDbLine
 10
-186.4733344170236
 20
-29455.80588849704
 30
0.0
 11
-1286.473334417016
 21
-29455.80588849704
 31
0.0
  0
INSERT
  5
35F02
330
35D07
100
AcDbEntity
  8
寸法
 62
     0
 48
50.0
370
    -2
100
AcDbBlockReference
  2
_DOTSMALL
 10
-186.4733344170236
 20
-29455.80588849704
 30
0.0
 41
75.0
 42
75.0
 43
75.0
  0
INSERT
  5
35F03
330
35D07
100
AcDbEntity
  8
寸法
 62
     0
 48
50.0
370
    -2
100
AcDbBlockReference
  2
_DOTSMALL
 10
-1286.473334417016
 20
-29455.80588849704
 30
0.0
 41
75.0
 42
75.0
 43
75.0
 50
180.0
  0
MTEXT
  5
35F04
330
35D07
100
AcDbEntity
  8
寸法
 62
     7
 48
50.0
100
AcDbMText
 10
-736.4733344170199
 20
-29380.80588849705
 30
0.0
 40
90.0
 41
0.0
 71
     5
 72
     1
  1
\A1;1100
  7
STYLE1
 73
     1
 44
1.0
1001
ACAD
1000
MTEXTBEGIN
1070
    73
1070
     1
1070
    44
1040
1.0
1070
    74
1070
     0
1000
MTEXTEND
  0
POINT
  5
35F05
330
35D07
100
AcDbEntity
  8
DEFPOINTS
 62
     0
 48
50.0
100
AcDbPoint
 10
-186.4733344170236
 20
-28784.10369776426
 30
0.0
  0
POINT
  5
35F06
330
35D07
100
AcDbEntity
  8
DEFPOINTS
 62
     0
 48
50.0
100
AcDbPoint
 10
-1286.473334417016
 20
-28784.10369776426
 30
0.0
  0
POINT
  5
35F07
330
35D07
100
AcDbEntity
  8
DEFPOINTS
 62
     0
 48
50.0
100
AcDbPoint
 10
-1286.473334417016
 20
-29455.80588849704
 30
0.0
  0
ENDBLK
  5
35D12
330
35D07
100
AcDbEntity
  8
0
 48
50.0
100
AcDbBlockEnd
  0
BLOCK
  5
35D1D
330
35D13
100
AcDbEntity
  8
0
 48
50.0
100
AcDbBlockBegin
  2
*D25
 70
     1
 10
0.0
 20
0.0
 30
0.0
  3
*D25
  1

  0
LINE
  5
35EB3
330
35D13
100
AcDbEntity
  8
寸法
 62
     0
 48
50.0
370
    -2
100
AcDbLine
 10
-106.6754568535034
 20
-28184.10369776426
 30
0.0
 11
150.9680301836926
 21
-28184.10369776426
 31
0.0
  0
LINE
  5
35EB4
330
35D13
100
AcDbEntity
  8
寸法
 62
     0
 48
50.0
370
    -2
100
AcDbLine
 10
-91.47333441702357
 20
-28784.10369776426
 30
0.0
 11
150.9680301836924
 21
-28784.10369776426
 31
0.0
  0
LINE
  5
35EB5
330
35D13
100
AcDbEntity
  8
寸法
 62
     0
 48
50.0
370
    -2
100
AcDbLine
 10
105.9680301836926
 20
-28184.10369776426
 30
0.0
 11
105.9680301836924
 21
-28784.10369776426
 31
0.0
  0
INSERT
  5
35EB6
330
35D13
100
AcDbEntity
  8
寸法
 62
     0
 48
50.0
370
    -2
100
AcDbBlockReference
  2
_DOTSMALL
 10
105.9680301836926
 20
-28184.10369776426
 30
0.0
 41
75.0
 42
75.0
 43
75.0
 50
90.0
  0
INSERT
  5
35EB7
330
35D13
100
AcDbEntity
  8
寸法
 62
     0
 48
50.0
370
    -2
100
AcDbBlockReference
  2
_DOTSMALL
 10
105.9680301836924
 20
-28784.10369776426
 30
0.0
 41
75.0
 42
75.0
 43
75.0
 50
270.0
  0
MTEXT
  5
35EB8
330
35D13
100
AcDbEntity
  8
寸法
 62
     7
 48
50.0
100
AcDbMText
 10
30.96803018369711
 20
-28484.10369776426
 30
0.0
 40
90.0
 41
0.0
 71
     5
 72
     1
  1
\A1;600
  7
STYLE1
 11
0.0000000000000001
 21
1.0
 31
0.0
 73
     1
 44
1.0
1001
ACAD
1000
MTEXTBEGIN
1070
    73
1070
     1
1070
    44
1040
1.0
1070
    74
1070
     0
1000
MTEXTEND
  0
POINT
  5
35EB9
330
35D13
100
AcDbEntity
  8
DEFPOINTS
 62
     0
 48
50.0
100
AcDbPoint
 10
-121.6754568535034
 20
-28184.10369776426
 30
0.0
  0
POINT
  5
35EBA
330
35D13
100
AcDbEntity
  8
DEFPOINTS
 62
     0
 48
50.0
100
AcDbPoint
 10
-106.4733344170236
 20
-28784.10369776426
 30
0.0
  0
POINT
  5
35EBB
330
35D13
100
AcDbEntity
  8
DEFPOINTS
 62
     0
 48
50.0
100
AcDbPoint
 10
105.9680301836924
 20
-28784.10369776426
 30
0.0
  0
ENDBLK
  5
35D1E
330
35D13
100
AcDbEntity
  8
0
 48
50.0
100
AcDbBlockEnd
  0
BLOCK
  5
35D2B
330
35D1F
100
AcDbEntity
  8
0
 48
50.0
100
AcDbBlockBegin
  2
*D26
 70
     1
 10
0.0
 20
0.0
 30
0.0
  3
*D26
  1

  0
LINE
  5
35EBC
330
35D1F
100
AcDbEntity
  8
寸法
 62
     0
 48
50.0
370
    -2
100
AcDbLine
 10
-106.6754568535034
 20
-28184.10369776426
 30
0.0
 11
150.9680301836879
 21
-28184.10369776426
 31
0.0
  0
LINE
  5
35EBD
330
35D1F
100
AcDbEntity
  8
寸法
 62
     0
 48
50.0
370
    -2
100
AcDbLine
 10
-271.4733344170163
 20
-28134.10369776426
 30
0.0
 11
150.9680301836879
 21
-28134.10369776426
 31
0.0
  0
LINE
  5
35EBE
330
35D1F
100
AcDbEntity
  8
寸法
 62
     0
 48
50.0
370
    -2
100
AcDbLine
 10
105.9680301836879
 20
-28184.10369776426
 30
0.0
 11
105.9680301836879
 21
-28259.10369776426
 31
0.0
  0
LINE
  5
35EBF
330
35D1F
100
AcDbEntity
  8
寸法
 62
     0
 48
50.0
370
    -2
100
AcDbLine
 10
105.9680301836879
 20
-28134.10369776426
 30
0.0
 11
105.968030183688
 21
-27825.03283162252
 31
0.0
  0
LINE
  5
35EC0
330
35D1F
100
AcDbEntity
  8
寸法
 62
     0
 48
50.0
370
    -2
100
AcDbLine
 10
105.9680301836879
 20
-28184.10369776426
 30
0.0
 11
105.9680301836879
 21
-28134.10369776426
 31
0.0
  0
INSERT
  5
35EC1
330
35D1F
100
AcDbEntity
  8
寸法
 62
     0
 48
50.0
370
    -2
100
AcDbBlockReference
  2
_DOTSMALL
 10
105.9680301836879
 20
-28184.10369776426
 30
0.0
 41
75.0
 42
75.0
 43
75.0
 50
90.0
  0
INSERT
  5
35EC2
330
35D1F
100
AcDbEntity
  8
寸法
 62
     0
 48
50.0
370
    -2
100
AcDbBlockReference
  2
_DOTSMALL
 10
105.9680301836879
 20
-28134.10369776426
 30
0.0
 41
75.0
 42
75.0
 43
75.0
 50
270.0
  0
MTEXT
  5
35EC3
330
35D1F
100
AcDbEntity
  8
寸法
 62
     7
 48
50.0
100
AcDbMText
 10
30.96803018369246
 20
-27904.56826469339
 30
0.0
 40
90.0
 41
0.0
 71
     5
 72
     1
  1
\A1;50
  7
STYLE1
 11
0.0000000000000001
 21
1.0
 31
0.0
 73
     1
 44
1.0
1001
ACAD
1000
MTEXTBEGIN
1070
    73
1070
     1
1070
    44
1040
1.0
1070
    74
1070
     0
1000
MTEXTEND
  0
POINT
  5
35EC4
330
35D1F
100
AcDbEntity
  8
DEFPOINTS
 62
     0
 48
50.0
100
AcDbPoint
 10
-121.6754568535034
 20
-28184.10369776426
 30
0.0
  0
POINT
  5
35EC5
330
35D1F
100
AcDbEntity
  8
DEFPOINTS
 62
     0
 48
50.0
100
AcDbPoint
 10
-286.4733344170163
 20
-28134.10369776426
 30
0.0
  0
POINT
  5
35EC6
330
35D1F
100
AcDbEntity
  8
DEFPOINTS
 62
     0
 48
50.0
100
AcDbPoint
 10
105.9680301836879
 20
-28134.10369776426
 30
0.0
  0
ENDBLK
  5
35D2C
330
35D1F
100
AcDbEntity
  8
0
 48
50.0
100
AcDbBlockEnd
  0
BLOCK
  5
35D35
330
35D2D
100
AcDbEntity
  8
0
 48
50.0
100
AcDbBlockBegin
  2
*D27
 70
     1
 10
0.0
 20
0.0
 30
0.0
  3
*D27
  1

  0
LINE
  5
35EC7
330
35D2D
100
AcDbEntity
  8
寸法
 62
     0
 48
50.0
370
    -2
100
AcDbLine
 10
-486.4733344170162
 20
-27694.63086490922
 30
0.0
 11
-486.4733344170162
 21
-27376.32579846925
 31
0.0
  0
LINE
  5
35EC8
330
35D2D
100
AcDbEntity
  8
寸法
 62
     0
 48
50.0
370
    -2
100
AcDbLine
 10
-286.4733344170163
 20
-28119.10369776426
 30
0.0
 11
-286.4733344170162
 21
-27376.32579846925
 31
0.0
  0
LINE
  5
35EC9
330
35D2D
100
AcDbEntity
  8
寸法
 62
     0
 48
50.0
370
    -2
100
AcDbLine
 10
-486.4733344170162
 20
-27421.32579846925
 30
0.0
 11
-286.4733344170162
 21
-27421.32579846925
 31
0.0
  0
MTEXT
  5
35ECA
330
35D2D
100
AcDbEntity
  8
寸法
 62
     7
 48
50.0
100
AcDbMText
 10
-386.4733344170163
 20
-27346.31694020153
 30
0.0
 40
90.0
 41
0.0
 71
     5
 72
     1
  1
\A1;200
  7
STYLE1
 73
     1
 44
1.0
1001
ACAD
1000
MTEXTBEGIN
1070
    73
1070
     1
1070
    44
1040
1.0
1070
    74
1070
     0
1000
MTEXTEND
  0
POINT
  5
35ECB
330
35D2D
100
AcDbEntity
  8
DEFPOINTS
 62
     0
 48
50.0
100
AcDbPoint
 10
-486.4733344170162
 20
-27709.63086490922
 30
0.0
  0
POINT
  5
35ECC
330
35D2D
100
AcDbEntity
  8
DEFPOINTS
 62
     0
 48
50.0
100
AcDbPoint
 10
-286.4733344170163
 20
-28134.10369776426
 30
0.0
  0
POINT
  5
35ECD
330
35D2D
100
AcDbEntity
  8
DEFPOINTS
 62
     0
 48
50.0
100
AcDbPoint
 10
-286.4733344170162
 20
-27421.32579846925
 30
0.0
  0
ENDBLK
  5
35D36
330
35D2D
100
AcDbEntity
  8
0
 48
50.0
100
AcDbBlockEnd
  0
BLOCK
  5
35F34
330
35F2C
100
AcDbEntity
  8
0
 48
50.0
100
AcDbBlockBegin
  2
*D28
 70
     1
 10
0.0
 20
0.0
 30
0.0
  3
*D28
  1

  0
LINE
  5
35F40
330
35F2C
100
AcDbEntity
  8
寸法
 62
     0
 48
50.0
370
    -2
100
AcDbLine
 10
-7577.640814793106
 20
-27917.6535745606
 30
0.0
 11
-7948.512651504334
 21
-27917.6535745606
 31
0.0
  0
LINE
  5
35F41
330
35F2C
100
AcDbEntity
  8
寸法
 62
     0
 48
50.0
370
    -2
100
AcDbLine
 10
-7577.640814793099
 20
-27817.65357456061
 30
0.0
 11
-7948.512651504334
 21
-27817.65357456061
 31
0.0
  0
LINE
  5
35F42
330
35F2C
100
AcDbEntity
  8
寸法
 62
     0
 48
50.0
370
    -2
100
AcDbLine
 10
-7903.512651504335
 20
-27917.6535745606
 30
0.0
 11
-7903.512651504335
 21
-27817.65357456061
 31
0.0
  0
LINE
  5
35F43
330
35F2C
100
AcDbEntity
  8
寸法
 62
     0
 48
50.0
370
    -2
100
AcDbLine
 10
-7903.512651504335
 20
-27817.65357456061
 30
0.0
 11
-7903.512651504335
 21
-27538.58270841888
 31
0.0
  0
INSERT
  5
35F44
330
35F2C
100
AcDbEntity
  8
寸法
 62
     0
 48
50.0
370
    -2
100
AcDbBlockReference
  2
_DOTSMALL
 10
-7903.512651504335
 20
-27917.6535745606
 30
0.0
 41
75.0
 42
75.0
 43
75.0
 50
270.0
  0
INSERT
  5
35F45
330
35F2C
100
AcDbEntity
  8
寸法
 62
     0
 48
50.0
370
    -2
100
AcDbBlockReference
  2
_DOTSMALL
 10
-7903.512651504335
 20
-27817.65357456061
 30
0.0
 41
75.0
 42
75.0
 43
75.0
 50
90.0
  0
MTEXT
  5
35F46
330
35F2C
100
AcDbEntity
  8
寸法
 62
     7
 48
50.0
100
AcDbMText
 10
-7978.51265150433
 20
-27640.61814148974
 30
0.0
 40
90.0
 41
0.0
 71
     5
 72
     1
  1
\A1;100
  7
STYLE1
 11
0.0000000000000001
 21
1.0
 31
0.0
 73
     1
 44
1.0
1001
ACAD
1000
MTEXTBEGIN
1070
    73
1070
     1
1070
    44
1040
1.0
1070
    74
1070
     0
1000
MTEXTEND
  0
POINT
  5
35F47
330
35F2C
100
AcDbEntity
  8
DEFPOINTS
 62
     0
 48
50.0
100
AcDbPoint
 10
-7562.640814793107
 20
-27917.6535745606
 30
0.0
  0
POINT
  5
35F48
330
35F2C
100
AcDbEntity
  8
DEFPOINTS
 62
     0
 48
50.0
100
AcDbPoint
 10
-7562.6408147931
 20
-27817.65357456061
 30
0.0
  0
POINT
  5
35F49
330
35F2C
100
AcDbEntity
  8
DEFPOINTS
 62
     0
 48
50.0
100
AcDbPoint
 10
-7903.512651504335
 20
-27817.65357456061
 30
0.0
  0
ENDBLK
  5
35F35
330
35F2C
100
AcDbEntity
  8
0
 48
50.0
100
AcDbBlockEnd
  0
ENDSEC
  0
SECTION
  2
ENTITIES
  0
LINE
  5
29B81
330
747D
100
AcDbEntity
  8
補助
  6
PHANTOM
 62
   230
 48
50.0
100
AcDbLine
 10
-9555.887385008066
 20
-33326.13760136034
 30
0.0
 11
-9555.887385008066
 21
-24768.93760136035
 31
0.0
  0
LINE
  5
29B82
330
747D
100
AcDbEntity
  8
補助
  6
PHANTOM
 62
   230
 48
50.0
100
AcDbLine
 10
169.512614991936
 20
-29726.13760136035
 30
0.0
 11
2569.512614991936
 21
-29726.13760136035
 31
0.0
  0
LINE
  5
29B83
330
747D
100
AcDbEntity
  8
補助
  6
PHANTOM
 62
   230
 48
50.0
100
AcDbLine
 10
-9555.887385008066
 20
-24768.93760136035
 30
0.0
 11
2569.512614991936
 21
-24768.93760136035
 31
0.0
  0
LINE
  5
29B84
330
747D
100
AcDbEntity
  8
補助
  6
PHANTOM
 62
   230
 48
50.0
100
AcDbLine
 10
2569.512614991936
 20
-24768.93760136035
 30
0.0
 11
2569.512614991936
 21
-32426.13760136035
 31
0.0
  0
LINE
  5
29B85
330
747D
100
AcDbEntity
  8
補助
  6
PHANTOM
 62
   230
 48
50.0
100
AcDbLine
 10
169.512614991936
 20
-24768.93760136035
 30
0.0
 11
169.512614991936
 21
-29726.13760136035
 31
0.0
  0
LINE
  5
29B86
330
747D
100
AcDbEntity
  8
仕様書枠
  6
Continuous
 48
50.0
100
AcDbLine
 10
169.5126222747476
 20
-32426.13759601689
 30
0.0
 11
169.5126222747476
 21
-33326.13759601689
 31
0.0
  0
LINE
  5
29B87
330
747D
100
AcDbEntity
  8
仕様書枠
 48
50.0
100
AcDbLine
 10
2569.512622274748
 20
-32426.13759601689
 30
0.0
 11
2569.512622274748
 21
-33326.13759601689
 31
0.0
  0
LINE
  5
29B88
330
747D
100
AcDbEntity
  8
仕様書枠
 48
50.0
100
AcDbLine
 10
-9555.887377725253
 20
-33326.13759601689
 30
0.0
 11
2569.512622274748
 21
-33326.13759601689
 31
0.0
  0
LINE
  5
29B89
330
747D
100
AcDbEntity
  8
仕様書枠
 48
50.0
100
AcDbLine
 10
169.5126222747476
 20
-32426.13759601689
 30
0.0
 11
2569.512622274748
 21
-32426.13759601689
 31
0.0
  0
LINE
  5
29B8A
330
747D
100
AcDbEntity
  8
文字
 62
     7
 48
50.0
100
AcDbLine
 10
229.5126222747476
 20
-33026.13759601689
 30
0.0
 11
2509.512622274748
 21
-33026.13759601689
 31
0.0
  0
TEXT
  5
29B8B
330
747D
100
AcDbEntity
  8
文字
 62
     7
 48
50.0
100
AcDbText
 10
211.3469147074265
 20
-32654.81964044443
 30
0.0
 40
150.0
  1
基 礎 図
  7
STYLE2
100
AcDbText
  0
TEXT
  5
29B8C
330
747D
100
AcDbEntity
  8
文字
 62
     7
 48
50.0
100
AcDbText
 10
240.1901472630616
 20
-32968.18204643954
 30
0.0
 40
120.0
  1
機種名
  7
STYLE2
100
AcDbText
  0
TEXT
  5
29B8D
330
747D
100
AcDbEntity
  8
文字
 62
     7
 48
50.0
100
AcDbText
 10
246.1666304376468
 20
-33154.72995282422
 30
0.0
 40
60.0
  1
○間口寸法は柱芯寸法です。
  7
STYLE2
100
AcDbText
  0
TEXT
  5
29B8E
330
747D
100
AcDbEntity
  8
文字
 62
     7
 48
50.0
100
AcDbText
 10
246.1666304376468
 20
-33269.06683570952
 30
0.0
 40
60.0
  1
○寒冷地等は、地域の実情に合わせた基礎にしてください。
  7
STYLE2
100
AcDbText
  0
LINE
  5
29B90
330
747D
100
AcDbEntity
  8
仕様書枠
 48
50.0
100
AcDbLine
 10
169.5126222747476
 20
-32726.13759601689
 30
0.0
 11
1027.512622274747
 21
-32726.13759601689
 31
0.0
  0
LINE
  5
29B91
330
747D
100
AcDbEntity
  8
仕様書枠
  6
Continuous
 48
50.0
100
AcDbLine
 10
1027.512622274747
 20
-32426.13759601689
 30
0.0
 11
1027.512622274747
 21
-32726.13759601689
 31
0.0
  0
TEXT
  5
29B92
330
747D
100
AcDbEntity
  8
文字
 62
     7
 48
50.0
100
AcDbText
 10
1291.096138245948
 20
-32963.21506127354
 30
0.0
 40
120.0
  1
BP-24U
  7
STYLE3
100
AcDbText
  0
TEXT
  5
29B93
330
747D
100
AcDbEntity
  8
文字
 62
     7
 48
50.0
100
AcDbText
 10
1477.830014571618
 20
-32697.4480507122
 30
0.0
 40
75.0
  1
～一般型～
  7
STYLE2
100
AcDbText
  0
TEXT
  5
2B385
330
747D
100
AcDbEntity
  8
文字
 62
     7
 48
50.0
100
AcDbText
 10
1232.211500191244
 20
-32552.46931629847
 30
0.0
 40
75.0
  1
             <縮尺> S=1/30
  7
STYLE2
100
AcDbText
  0
DIMENSION
  5
2B38A
330
747D
100
AcDbEntity
  8
寸法
 48
50.0
100
AcDbDimension
  2
*D4
 10
-7562.640814793096
 20
-30446.14129289713
 30
0.0
 11
-7477.640814793073
 21
-30371.14129289713
 31
0.0
 70
    32
 71
     5
 42
170.0000000000436
  3
INABA_S30G
100
AcDbAlignedDimension
 13
-7392.640814793053
 23
-29980.65357456059
 33
0.0
 14
-7562.640814793096
 24
-30117.65357456059
 34
0.0
 50
180.0
100
AcDbRotatedDimension
  0
DIMENSION
  5
2B38E
330
747D
100
AcDbEntity
  8
寸法
 48
50.0
100
AcDbDimension
  2
*D3
 10
-3980.366592429489
 20
-30117.65357456059
 30
0.0
 11
-3980.366592429484
 21
-30294.65357456059
 31
0.0
 70
   160
 71
     5
 42
137.0
  3
INABA_S30G
100
AcDbAlignedDimension
 13
-4532.640814793142
 23
-29980.65357456059
 33
0.0
 14
-4362.640814793099
 24
-30117.65357456059
 34
0.0
 50
90.0
100
AcDbRotatedDimension
  0
DIMENSION
  5
2B38F
330
747D
100
AcDbEntity
  8
寸法
 48
50.0
100
AcDbDimension
  2
*D2
 10
-3980.366592429474
 20
-27817.6535745606
 30
0.0
 11
-3980.366592429469
 21
-27634.28961352992
 31
0.0
 70
   160
 71
     5
 42
142.9999999999927
  3
INABA_S30G
100
AcDbAlignedDimension
 13
-4532.640814793142
 23
-27960.65357456059
 33
0.0
 14
-4362.640814793099
 24
-27817.6535745606
 34
0.0
 50
90.0
100
AcDbRotatedDimension
  0
DIMENSION
  5
2B390
330
747D
100
AcDbEntity
  8
寸法
 48
50.0
100
AcDbDimension
  2
*D1
 10
-3980.366592429484
 20
-29980.65357456059
 30
0.0
 11
-4055.375450697195
 21
-28970.65357456059
 31
0.0
 70
    32
  1
屋根寸法 <>
 71
     5
 42
2020.0
  3
INABA_S30G
100
AcDbAlignedDimension
 13
-4532.640814793142
 23
-27960.65357456059
 33
0.0
 14
-4532.640814793142
 24
-29980.65357456059
 34
0.0
 50
90.0
100
AcDbRotatedDimension
  0
LINE
  5
2B3AB
330
747D
100
AcDbEntity
  8
センター
 48
10.0
100
AcDbLine
 10
-7412.6408147931
 20
-28117.6535745606
 30
0.0
 11
-4512.640814793099
 21
-28117.6535745606
 31
0.0
  0
LINE
  5
2B3AC
330
747D
100
AcDbEntity
  8
想像線
 48
10.0
100
AcDbLine
 10
-7392.640814793056
 20
-29980.65357456059
 30
0.0
 11
-7392.640814793056
 21
-27960.65357456059
 31
0.0
  0
LINE
  5
2B3AD
330
747D
100
AcDbEntity
  8
想像線
 48
10.0
100
AcDbLine
 10
-4532.640814793142
 20
-27960.65357456059
 30
0.0
 11
-7392.640814793056
 21
-27960.65357456059
 31
0.0
  0
LINE
  5
2B3AE
330
747D
100
AcDbEntity
  8
想像線
 48
10.0
100
AcDbLine
 10
-4532.640814793142
 20
-29980.65357456059
 30
0.0
 11
-4532.640814793142
 21
-27960.65357456059
 31
0.0
  0
LINE
  5
2B3AF
330
747D
100
AcDbEntity
  8
想像線
 48
10.0
100
AcDbLine
 10
-7392.640814793056
 20
-29980.6535745606
 30
0.0
 11
-4532.640814793142
 21
-29980.65357456059
 31
0.0
  0
LINE
  5
2B3B0
330
747D
100
AcDbEntity
  8
部品1
 48
50.0
100
AcDbLine
 10
-6762.6408147931
 20
-27817.6535745606
 30
0.0
 11
-7562.6408147931
 21
-27817.6535745606
 31
0.0
  0
LINE
  5
2B3B1
330
747D
100
AcDbEntity
  8
部品1
 48
50.0
100
AcDbLine
 10
-6762.6408147931
 20
-27817.6535745606
 30
0.0
 11
-6762.6408147931
 21
-28917.6535745606
 31
0.0
  0
LINE
  5
2B3B2
330
747D
100
AcDbEntity
  8
部品1
 48
50.0
100
AcDbLine
 10
-7562.6408147931
 20
-28917.6535745606
 30
0.0
 11
-6762.6408147931
 21
-28917.6535745606
 31
0.0
  0
LINE
  5
2B3B3
330
747D
100
AcDbEntity
  8
部品1
 48
50.0
100
AcDbLine
 10
-7562.640814793107
 20
-27817.6535745606
 30
0.0
 11
-7562.640814793103
 21
-30117.65357456059
 31
0.0
  0
CIRCLE
  5
2B3B4
330
747D
100
AcDbEntity
  8
部品1
 48
50.0
100
AcDbCircle
 10
-7162.6408147931
 20
-28117.6535745606
 30
0.0
 40
44.55
  0
LINE
  5
2B3B5
330
747D
100
AcDbEntity
  8
センター
 48
10.0
100
AcDbLine
 10
-7412.6408147931
 20
-28117.6535745606
 30
0.0
 11
-6912.6408147931
 21
-28117.6535745606
 31
0.0
  0
LINE
  5
2B3B6
330
747D
100
AcDbEntity
  8
センター
 48
10.0
100
AcDbLine
 10
-7162.6408147931
 20
-27867.65357456059
 30
0.0
 11
-7162.6408147931
 21
-28367.6535745606
 31
0.0
  0
LINE
  5
2B3B7
330
747D
100
AcDbEntity
  8
センター
 48
10.0
100
AcDbLine
 10
-4762.640814793099
 20
-27867.65357456059
 30
0.0
 11
-4762.640814793099
 21
-28367.6535745606
 31
0.0
  0
LINE
  5
2B3B8
330
747D
100
AcDbEntity
  8
センター
 48
10.0
100
AcDbLine
 10
-5012.640814793099
 20
-28117.6535745606
 30
0.0
 11
-4512.640814793099
 21
-28117.6535745606
 31
0.0
  0
CIRCLE
  5
2B3B9
330
747D
100
AcDbEntity
  8
部品1
 48
50.0
100
AcDbCircle
 10
-4762.640814793099
 20
-28117.6535745606
 30
0.0
 40
44.55
  0
LINE
  5
2B3BA
330
747D
100
AcDbEntity
  8
部品1
 48
50.0
100
AcDbLine
 10
-5162.640814793107
 20
-27817.6535745606
 30
0.0
 11
-5162.6408147931
 21
-28917.6535745606
 31
0.0
  0
LINE
  5
2B3BB
330
747D
100
AcDbEntity
  8
部品1
 48
50.0
100
AcDbLine
 10
-5162.6408147931
 20
-28917.6535745606
 30
0.0
 11
-4362.640814793099
 21
-28917.6535745606
 31
0.0
  0
LINE
  5
2B3BC
330
747D
100
AcDbEntity
  8
部品1
 48
50.0
100
AcDbLine
 10
-4362.640814793099
 20
-27817.6535745606
 30
0.0
 11
-4362.640814793099
 21
-30117.65357456059
 31
0.0
  0
LINE
  5
2B3BD
330
747D
100
AcDbEntity
  8
部品1
 48
50.0
100
AcDbLine
 10
-4362.640814793099
 20
-27817.6535745606
 30
0.0
 11
-5162.6408147931
 21
-27817.6535745606
 31
0.0
  0
LINE
  5
2B3E1
330
747D
100
AcDbEntity
  8
文字
 48
50.0
100
AcDbLine
 10
-7562.640814793107
 20
-27917.6535745606
 30
0.0
 11
-4362.640814793099
 21
-27917.6535745606
 31
0.0
  0
LINE
  5
2B3E2
330
747D
100
AcDbEntity
  8
部品1
 48
30.0
100
AcDbLine
 10
-7562.6408147931
 20
-30117.65357456059
 30
0.0
 11
-4362.640814793099
 21
-30117.65357456059
 31
0.0
  0
DIMENSION
  5
2B3F6
330
747D
100
AcDbEntity
  8
寸法
 48
50.0
100
AcDbDimension
  2
*D18
 10
-4362.640814793099
 20
-30446.14129289713
 30
0.0
 11
-4447.640814793121
 21
-30371.14129289713
 31
0.0
 70
    32
 71
     5
 42
170.0000000000436
  3
INABA_S30G
100
AcDbAlignedDimension
 13
-4532.640814793142
 23
-29980.65357456059
 33
0.0
 14
-4362.640814793099
 24
-30117.65357456059
 34
0.0
100
AcDbRotatedDimension
  0
DIMENSION
  5
2B3F7
330
747D
100
AcDbEntity
  8
寸法
 48
50.0
100
AcDbDimension
  2
*D17
 10
-4532.640814793142
 20
-30446.14129289713
 30
0.0
 11
-5962.6408147931
 21
-30371.13243462941
 31
0.0
 70
    32
  1
屋根寸法 <>
 71
     5
 42
2859.999999999913
  3
INABA_S30G
100
AcDbAlignedDimension
 13
-7392.640814793056
 23
-29980.6535745606
 33
0.0
 14
-4532.640814793142
 24
-29980.65357456059
 34
0.0
100
AcDbRotatedDimension
  0
DIMENSION
  5
2B3F8
330
747D
100
AcDbEntity
  8
寸法
 48
50.0
100
AcDbDimension
  2
*D16
 10
-8126.262013520793
 20
-30117.65357456059
 30
0.0
 11
-8201.270871788507
 21
-29017.6535745606
 31
0.0
 70
    32
  1
基礎土間寸法 <>
 71
     5
 42
2200.0
  3
INABA_S30G
100
AcDbAlignedDimension
 13
-7562.640814793107
 23
-27917.6535745606
 33
0.0
 14
-7562.6408147931
 24
-30117.65357456059
 34
0.0
 50
90.0
100
AcDbRotatedDimension
  0
DIMENSION
  5
2B3F9
330
747D
100
AcDbEntity
  8
寸法
 48
50.0
100
AcDbDimension
  2
*D15
 10
-7903.512651504335
 20
-30117.65357456059
 30
0.0
 11
-7978.521509772045
 21
-29117.65357456059
 31
0.0
 70
    32
 71
     5
 42
2000.0
  3
INABA_S30G
100
AcDbAlignedDimension
 13
-7412.640814793103
 23
-28117.6535745606
 33
0.0
 14
-7562.6408147931
 24
-30117.65357456059
 34
0.0
 50
90.0
100
AcDbRotatedDimension
  0
DIMENSION
  5
2B3FA
330
747D
100
AcDbEntity
  8
寸法
 48
50.0
100
AcDbDimension
  2
*D14
 10
-7903.512651504335
 20
-28117.6535745606
 30
0.0
 11
-7978.521509772045
 21
-28017.65357456059
 31
0.0
 70
    32
 71
     5
 42
200.0
  3
INABA_S30G
100
AcDbAlignedDimension
 13
-7562.640814793107
 23
-27917.6535745606
 33
0.0
 14
-7412.640814793103
 24
-28117.6535745606
 34
0.0
 50
90.0
100
AcDbRotatedDimension
  0
DIMENSION
  5
2B3FB
330
747D
100
AcDbEntity
  8
寸法
 48
50.0
100
AcDbDimension
  2
*D13
 10
-4362.640814793099
 20
-27314.16424145518
 30
0.0
 11
-5962.6408147931
 21
-27239.15538318746
 31
0.0
 70
    32
  1
基礎土間寸法 <>
 71
     5
 42
3200.0
  3
INABA_S30G
100
AcDbAlignedDimension
 13
-7562.6408147931
 23
-27817.6535745606
 33
0.0
 14
-4362.640814793099
 24
-27817.6535745606
 34
0.0
100
AcDbRotatedDimension
  0
DIMENSION
  5
2B3FC
330
747D
100
AcDbEntity
  8
寸法
 48
50.0
100
AcDbDimension
  2
*D12
 10
-4362.640814793099
 20
-27508.2012804295
 30
0.0
 11
-4562.640814793099
 21
-27433.20128042949
 31
0.0
 70
    32
 71
     5
 42
400.0
  3
INABA_S30G
100
AcDbAlignedDimension
 13
-4762.640814793099
 23
-27867.65357456059
 33
0.0
 14
-4362.640814793099
 24
-27817.6535745606
 34
0.0
100
AcDbRotatedDimension
  0
DIMENSION
  5
2B3FD
330
747D
100
AcDbEntity
  8
寸法
 48
50.0
100
AcDbDimension
  2
*D11
 10
-4762.640814793099
 20
-27508.2012804295
 30
0.0
 11
-5962.6408147931
 21
-27433.19242216178
 31
0.0
 70
    32
 71
     5
 42
2400.0
  3
INABA_S30G
100
AcDbAlignedDimension
 13
-7162.6408147931
 23
-27867.65357456059
 33
0.0
 14
-4762.640814793099
 24
-27867.65357456059
 34
0.0
100
AcDbRotatedDimension
  0
LINE
  5
2B3FE
330
747D
100
AcDbEntity
  8
寸法
 48
50.0
100
AcDbLine
 10
-7162.6408147931
 20
-27738.75461208048
 30
0.0
 11
-7416.77464554202
 21
-27738.75461208048
 31
0.0
  0
LINE
  5
2B3FF
330
747D
100
AcDbEntity
  8
寸法
 48
50.0
100
AcDbLine
 10
-7416.77464554202
 20
-27738.75461208048
 30
0.0
 11
-7309.04127495904
 21
-27709.88754243488
 31
0.0
  0
LINE
  5
2B400
330
747D
100
AcDbEntity
  8
寸法
 48
50.0
100
AcDbLine
 10
-7309.04127495904
 20
-27709.88754243488
 30
0.0
 11
-7309.04127495904
 21
-27775.82216135643
 31
0.0
  0
DIMENSION
  5
2B402
330
747D
100
AcDbEntity
  8
寸法
 48
50.0
100
AcDbDimension
  2
*D10
 10
-7162.6408147931
 20
-27508.2012804295
 30
0.0
 11
-7362.6408147931
 21
-27433.20128042949
 31
0.0
 70
    32
 71
     5
 42
400.0
  3
INABA_S30G
100
AcDbAlignedDimension
 13
-7562.6408147931
 23
-27817.65357456061
 33
0.0
 14
-7162.6408147931
 24
-27867.65357456059
 34
0.0
100
AcDbRotatedDimension
  0
LINE
  5
2B403
330
747D
100
AcDbEntity
  8
寸法
 48
50.0
100
AcDbLine
 10
-7162.6408147931
 20
-28996.55253704073
 30
0.0
 11
-7162.6408147931
 21
-28367.6535745606
 31
0.0
  0
LINE
  5
2B405
330
747D
100
AcDbEntity
  8
寸法
 48
50.0
100
AcDbLine
 10
-7162.6408147931
 20
-28996.55253704073
 30
0.0
 11
-7416.77464554202
 21
-28996.55253704073
 31
0.0
  0
LINE
  5
2B406
330
747D
100
AcDbEntity
  8
寸法
 48
50.0
100
AcDbLine
 10
-7416.77464554202
 20
-28996.55253704073
 30
0.0
 11
-7309.04127495904
 21
-29025.41960668632
 31
0.0
  0
LINE
  5
2B407
330
747D
100
AcDbEntity
  8
寸法
 48
50.0
100
AcDbLine
 10
-7309.04127495904
 20
-29025.41960668632
 30
0.0
 11
-7309.04127495904
 21
-28959.48498776477
 31
0.0
  0
LINE
  5
2B408
330
747D
100
AcDbEntity
  8
寸法
 48
50.0
100
AcDbLine
 10
-6251.018778123624
 20
-29004.63501483967
 30
0.0
 11
-6283.867060956436
 21
-28882.04355436622
 31
0.0
  0
LINE
  5
2B409
330
747D
100
AcDbEntity
  8
寸法
 48
50.0
100
AcDbLine
 10
-6251.018778123624
 20
-29004.63501483967
 30
0.0
 11
-6218.170495290811
 21
-28882.04355436622
 31
0.0
  0
LINE
  5
2B40A
330
747D
100
AcDbEntity
  8
寸法
 48
50.0
100
AcDbLine
 10
-6251.018778123624
 20
-28227.06325770199
 30
0.0
 11
-6251.018778123624
 21
-29004.63501483967
 31
0.0
  0
MTEXT
  5
2B40B
330
747D
100
AcDbEntity
  8
寸法
 62
     7
 48
50.0
100
AcDbMText
 10
-6345.456714189429
 20
-28871.3663964658
 30
0.0
 40
90.0
 41
0.0
 71
     4
 72
     1
  1
\A1;水勾配 1/100 
  7
STYLE1
 11
0.0000000000000001
 21
1.0
 31
0.0
 73
     1
 44
1.0
1001
ACAD
1000
MTEXTBEGIN
1070
    73
1070
     1
1070
    44
1040
1.0
1070
    74
1070
     0
1000
MTEXTEND
  0
DIMENSION
  5
2B40C
330
747D
100
AcDbEntity
  8
寸法
 48
50.0
100
AcDbDimension
  2
*D9
 10
-5162.6408147931
 20
-29155.78979059769
 30
0.0
 11
-4962.6408147931
 21
-29080.78979059768
 31
0.0
 70
    32
 71
     5
 42
400.0
  3
INABA_S30G
100
AcDbAlignedDimension
 13
-4762.640814793099
 23
-28367.6535745606
 33
0.0
 14
-5162.6408147931
 24
-28917.6535745606
 34
0.0
100
AcDbRotatedDimension
  0
DIMENSION
  5
2B40D
330
747D
100
AcDbEntity
  8
寸法
 48
50.0
100
AcDbDimension
  2
*D8
 10
-4362.640814793099
 20
-29393.92600663476
 30
0.0
 11
-4762.640814793099
 21
-29393.92600663476
 31
0.0
 70
   160
 71
     5
 42
800.0
  3
INABA_S30G
100
AcDbAlignedDimension
 13
-5162.6408147931
 23
-28917.6535745606
 33
0.0
 14
-4362.640814793099
 24
-28917.6535745606
 34
0.0
100
AcDbRotatedDimension
  0
DIMENSION
  5
2B40E
330
747D
100
AcDbEntity
  8
寸法
 48
50.0
100
AcDbDimension
  2
*D7
 10
-5339.955318077286
 20
-28917.6535745606
 30
0.0
 11
-5414.955318077281
 21
-28517.6535745606
 31
0.0
 70
    32
 71
     5
 42
800.0
  3
INABA_S30G
100
AcDbAlignedDimension
 13
-5162.6408147931
 23
-28117.6535745606
 33
0.0
 14
-5162.6408147931
 24
-28917.6535745606
 34
0.0
 50
90.0
100
AcDbRotatedDimension
  0
DIMENSION
  5
2B40F
330
747D
100
AcDbEntity
  8
寸法
 48
50.0
100
AcDbDimension
  2
*D6
 10
-5517.269821361456
 20
-28917.6535745606
 30
0.0
 11
-5592.269821361452
 21
-28367.6535745606
 31
0.0
 70
    32
 71
     5
 42
1100.0
  3
INABA_S30G
100
AcDbAlignedDimension
 13
-5162.6408147931
 23
-27817.65357456059
 33
0.0
 14
-5162.6408147931
 24
-28917.6535745606
 34
0.0
 50
90.0
100
AcDbRotatedDimension
  0
DIMENSION
  5
2B410
330
747D
100
AcDbEntity
  8
寸法
 48
50.0
100
AcDbDimension
  2
*D5
 10
-5339.955318077286
 20
-28117.6535745606
 30
0.0
 11
-5414.955318077281
 21
-27967.6535745606
 31
0.0
 70
    32
 71
     5
 42
300.0
  3
INABA_S30G
100
AcDbAlignedDimension
 13
-5162.6408147931
 23
-27817.65357456059
 33
0.0
 14
-5162.6408147931
 24
-28117.6535745606
 34
0.0
 50
90.0
100
AcDbRotatedDimension
  0
MTEXT
  5
2B411
330
747D
100
AcDbEntity
  8
寸法
 62
     7
 48
50.0
100
AcDbMText
 10
-7336.648930010909
 20
-29863.3735286931
 30
0.0
 40
90.0
 41
0.0
 71
     4
 72
     1
  1
\A1;床コンクリート打コテ押エ
  7
STYLE1
 73
     1
 44
1.0
1001
ACAD
1000
MTEXTBEGIN
1070
    73
1070
     1
1070
    44
1040
1.0
1070
    74
1070
     0
1000
MTEXTEND
  0
LEADER
  5
2B412
330
747D
100
AcDbEntity
  8
寸法
 48
50.0
100
AcDbLeader
  3
INABA_S30G
 73
     0
 75
     1
 40
90.0
 41
108.0
 76
     3
 10
-4762.640814793099
 20
-28117.6535745606
 30
0.0
 10
-4851.127339728432
 20
-28447.88978140443
 30
0.0
 10
-4926.127339728431
 20
-28447.88978140443
 30
0.0
  0
MTEXT
  5
2B413
102
{ACAD_REACTORS
330
2B412
102
}
330
747D
100
AcDbEntity
  8
寸法
 62
     7
 48
50.0
100
AcDbMText
 10
-4956.127339728431
 20
-28372.88978140443
 30
0.0
 40
90.0
 41
0.0
 71
     6
 72
     1
  1
\A1;柱
  7
STYLE1
 73
     1
 44
1.0
1001
ACAD
1000
MTEXTBEGIN
1070
    73
1070
     1
1070
    44
1040
1.0
1070
    74
1070
     0
1000
MTEXTEND
  0
TEXT
  5
320E9
330
747D
100
AcDbEntity
  8
寸法
 62
     7
100
AcDbText
 10
-7526.276294955569
 20
-27766.82008488224
 30
0.0
 40
90.0
  1
A'
  7
STYLE1
100
AcDbText
  0
TEXT
  5
320EA
330
747D
100
AcDbEntity
  8
寸法
 62
     7
100
AcDbText
 10
-7527.534923814259
 20
-29038.77974004865
 30
0.0
 40
90.0
  1
A
  7
STYLE1
100
AcDbText
  0
TEXT
  5
35BC7
330
747D
100
AcDbEntity
  8
寸法
 62
     7
 48
50.0
100
AcDbText
 10
-1213.182662512896
 20
-28022.44775804221
 30
0.0
 40
90.0
  1
１／１００
 41
0.8
  7
STYLE1
100
AcDbText
  0
DIMENSION
  5
35BC8
330
747D
100
AcDbEntity
  8
寸法
 48
50.0
100
AcDbDimension
  2
*D24
 10
-1286.473334417016
 20
-29455.80588849704
 30
0.0
 11
-736.4733344170199
 21
-29380.80588849705
 31
0.0
 70
    32
 71
     5
 42
1099.999999999992
  3
INABA_S30G
100
AcDbAlignedDimension
 13
-186.4733344170236
 23
-28784.10369776426
 33
0.0
 14
-1286.473334417016
 24
-28784.10369776426
 34
0.0
100
AcDbRotatedDimension
  0
DIMENSION
  5
35BC9
330
747D
100
AcDbEntity
  8
寸法
 48
50.0
100
AcDbDimension
  2
*D23
 10
105.9680301836878
 20
-28834.10369776426
 30
0.0
 11
105.9680301836924
 21
-29063.63913083513
 31
0.0
 70
   160
 71
     5
 42
50.0
  3
INABA_S30G
100
AcDbAlignedDimension
 13
-106.4733344170236
 23
-28784.10369776426
 33
0.0
 14
-106.4733344170236
 24
-28834.10369776426
 34
0.0
 50
90.0
100
AcDbRotatedDimension
  0
DIMENSION
  5
35BCA
330
747D
100
AcDbEntity
  8
寸法
 48
50.0
100
AcDbDimension
  2
*D22
 10
-486.4733344170162
 20
-29225.7203274083
 30
0.0
 11
-886.4733344170163
 21
-29150.7203274083
 31
0.0
 70
    32
 71
     5
 42
800.0
  3
INABA_S30G
100
AcDbAlignedDimension
 13
-1286.473334417016
 23
-28784.10369776426
 33
0.0
 14
-486.4733344170162
 24
-28845.16152959413
 34
0.0
100
AcDbRotatedDimension
  0
DIMENSION
  5
35BCB
330
747D
100
AcDbEntity
  8
寸法
 48
50.0
100
AcDbDimension
  2
*D21
 10
-186.4733344170236
 20
-29225.7203274083
 30
0.0
 11
-336.47333441702
 21
-29150.7203274083
 31
0.0
 70
    32
 71
     5
 42
299.9999999999927
  3
INABA_S30G
100
AcDbAlignedDimension
 13
-486.4733344170162
 23
-28845.16152959413
 33
0.0
 14
-186.4733344170236
 24
-28784.10369776426
 34
0.0
100
AcDbRotatedDimension
  0
DIMENSION
  5
35BCC
330
747D
100
AcDbEntity
  8
寸法
 48
50.0
100
AcDbDimension
  2
*D20
 10
-1939.170272618587
 20
-28334.10369776426
 30
0.0
 11
-1939.170272618583
 21
-28511.13913083512
 31
0.0
 70
   160
 71
     5
 42
100.0
  3
INABA_S30G
100
AcDbAlignedDimension
 13
-1788.589145516693
 23
-28234.10369776426
 33
0.0
 14
-1788.589145516693
 24
-28334.10369776426
 34
0.0
 50
90.0
100
AcDbRotatedDimension
  0
DIMENSION
  5
35BCD
330
747D
100
AcDbEntity
  8
寸法
 48
50.0
100
AcDbDimension
  2
*D19
 10
-1939.170272618587
 20
-28134.10369776426
 30
0.0
 11
-1939.170272618583
 21
-27957.06826469339
 31
0.0
 70
   160
 71
     5
 42
100.0
  3
INABA_S30G
100
AcDbAlignedDimension
 13
-1788.589145516693
 23
-28234.10369776426
 33
0.0
 14
-1788.589145516693
 24
-28134.10369776426
 34
0.0
 50
90.0
100
AcDbRotatedDimension
  0
LINE
  5
35BD1
330
747D
100
AcDbEntity
  8
細線
 48
50.0
100
AcDbLine
 10
-286.4733344170163
 20
-28224.24479664748
 30
0.0
 11
-296.3322355337878
 21
-28234.10369776426
 31
0.0
  0
LINE
  5
35C2A
102
{ACAD_REACTORS
330
35E74
330
35E8E
102
}
330
747D
100
AcDbEntity
  8
部品1
 48
50.0
100
AcDbLine
 10
-1366.473334417016
 20
-28784.10369776426
 30
0.0
 11
-1366.473334417016
 21
-28934.10369776426
 31
0.0
  0
LINE
  5
35C2B
102
{ACAD_REACTORS
330
35E74
330
35E8E
102
}
330
747D
100
AcDbEntity
  8
部品1
 48
50.0
100
AcDbLine
 10
-106.4733344170236
 20
-28784.10369776426
 30
0.0
 11
-106.4733344170236
 21
-28934.10369776426
 31
0.0
  0
LINE
  5
35C35
330
747D
100
AcDbEntity
  8
部品1
 48
50.0
100
AcDbLine
 10
-531.0233344170192
 20
-28234.10369776426
 30
0.0
 11
-1788.589145516693
 21
-28234.10369776426
 31
0.0
  0
LINE
  5
35C36
330
747D
100
AcDbEntity
  8
部品1
 48
50.0
100
AcDbLine
 10
-559.0233344170046
 20
-28134.10369776425
 30
0.0
 11
-1788.589145516693
 21
-28134.10369776426
 31
0.0
  0
LINE
  5
35C37
330
747D
100
AcDbEntity
  8
部品1
 48
50.0
100
AcDbLine
 10
-427.923334417006
 20
-28120.10369776426
 30
0.0
 11
-413.9233344170134
 21
-28134.10369776426
 31
0.0
  0
LINE
  5
35C38
330
747D
100
AcDbEntity
  8
部品1
 48
50.0
100
AcDbLine
 10
-441.9233344170134
 20
-28120.10369776426
 30
0.0
 11
-427.9233344170133
 21
-28120.10369776426
 31
0.0
  0
LINE
  5
35C39
330
747D
100
AcDbEntity
  8
部品1
 48
50.0
100
AcDbLine
 10
-545.0233344170119
 20
-28120.10369776426
 30
0.0
 11
-531.0233344170119
 21
-28120.10369776426
 31
0.0
  0
LINE
  5
35C3A
330
747D
100
AcDbEntity
  8
部品1
 48
50.0
100
AcDbLine
 10
-545.0233344170119
 20
-28120.10369776426
 30
0.0
 11
-559.0233344170119
 21
-28134.10369776426
 31
0.0
  0
LINE
  5
35C74
330
747D
100
AcDbEntity
  8
寸法
 48
50.0
100
AcDbLine
 10
-1278.152610541212
 20
-28059.4962815621
 30
0.0
 11
-1209.501392676073
 21
-28077.89131994848
 31
0.0
  0
LINE
  5
35C75
330
747D
100
AcDbEntity
  8
寸法
 48
50.0
100
AcDbLine
 10
-1278.152610541212
 20
-28059.4962815621
 30
0.0
 11
-1209.501392676073
 21
-28041.10124317573
 31
0.0
  0
LINE
  5
35C76
330
747D
100
AcDbEntity
  8
寸法
 48
50.0
100
AcDbLine
 10
-1278.152610541212
 20
-28059.4962815621
 30
0.0
 11
-648.9001149533796
 21
-28059.4962815621
 31
0.0
  0
LINE
  5
35C77
102
{ACAD_REACTORS
330
35E8E
102
}
330
747D
100
AcDbEntity
  8
部品1
 48
50.0
100
AcDbLine
 10
-106.4733344170236
 20
-28934.10369776426
 30
0.0
 11
-1366.473334417016
 21
-28934.10369776426
 31
0.0
  0
LINE
  5
35C78
330
747D
100
AcDbEntity
  8
部品1
 48
50.0
100
AcDbLine
 10
-1286.473334417016
 20
-28334.10369776426
 30
0.0
 11
-1788.589145516693
 21
-28334.10369776426
 31
0.0
  0
LINE
  5
35C79
330
747D
100
AcDbEntity
  8
部品1
 48
50.0
100
AcDbLine
 10
-186.4733344170236
 20
-28234.10369776426
 30
0.0
 11
-441.9233344170134
 21
-28234.10369776425
 31
0.0
  0
LINE
  5
35C7A
330
747D
100
AcDbEntity
  8
部品1
 48
50.0
100
AcDbLine
 10
-296.473334417009
 20
-28134.10369776426
 30
0.0
 11
-286.473334417009
 21
-28144.10369776426
 31
0.0
  0
LINE
  5
35C7B
330
747D
100
AcDbEntity
  8
部品1
 48
50.0
100
AcDbLine
 10
-296.473334417009
 20
-28134.10369776426
 30
0.0
 11
-413.9233344170134
 21
-28134.10369776426
 31
0.0
  0
LINE
  5
35C7C
330
747D
100
AcDbEntity
  8
部品1
 48
50.0
100
AcDbLine
 10
-286.4733344170163
 20
-28234.10369776425
 30
0.0
 11
-286.4733344170163
 21
-28144.10369776425
 31
0.0
  0
DIMENSION
  5
35C7D
330
747D
100
AcDbEntity
  8
寸法
 48
50.0
100
AcDbDimension
  2
*D27
 10
-286.4733344170162
 20
-27421.32579846925
 30
0.0
 11
-386.4733344170163
 21
-27346.31694020153
 31
0.0
 70
    32
 71
     5
 42
200.0
  3
INABA_S30G
100
AcDbAlignedDimension
 13
-486.4733344170162
 23
-27709.63086490922
 33
0.0
 14
-286.4733344170163
 24
-28134.10369776426
 34
0.0
100
AcDbRotatedDimension
  0
DIMENSION
  5
35C7E
330
747D
100
AcDbEntity
  8
寸法
 48
50.0
100
AcDbDimension
  2
*D26
 10
105.9680301836879
 20
-28134.10369776426
 30
0.0
 11
105.9680301836924
 21
-27904.56826469339
 31
0.0
 70
   160
 71
     5
 42
50.0
  3
INABA_S30G
100
AcDbAlignedDimension
 13
-121.6754568535034
 23
-28184.10369776426
 33
0.0
 14
-286.4733344170163
 24
-28134.10369776426
 34
0.0
 50
90.0
100
AcDbRotatedDimension
  0
DIMENSION
  5
35C7F
330
747D
100
AcDbEntity
  8
寸法
 48
50.0
100
AcDbDimension
  2
*D25
 10
105.9680301836924
 20
-28784.10369776426
 30
0.0
 11
30.96803018369711
 21
-28484.10369776426
 31
0.0
 70
    32
 71
     5
 42
600.0
  3
INABA_S30G
100
AcDbAlignedDimension
 13
-121.6754568535034
 23
-28184.10369776426
 33
0.0
 14
-106.4733344170236
 24
-28784.10369776426
 34
0.0
 50
90.0
100
AcDbRotatedDimension
  0
LINE
  5
35C80
102
{ACAD_REACTORS
330
35E74
102
}
330
747D
100
AcDbEntity
  8
部品1
 48
50.0
100
AcDbLine
 10
-106.4733344170236
 20
-28784.10369776426
 30
0.0
 11
-1366.473334417016
 21
-28784.10369776426
 31
0.0
  0
LINE
  5
35C81
330
747D
100
AcDbEntity
  8
部品1
 48
50.0
100
AcDbLine
 10
-531.0233344170119
 20
-27788.17060181935
 30
0.0
 11
-531.0233344170119
 21
-28784.10369776426
 31
0.0
  0
LINE
  5
35C82
330
747D
100
AcDbEntity
  8
部品1
 48
50.0
100
AcDbLine
 10
-441.9233344170134
 20
-27788.17060181935
 30
0.0
 11
-441.9233344170134
 21
-28784.10369776426
 31
0.0
  0
LINE
  5
35C83
330
747D
100
AcDbEntity
  8
Ｇ．Ｌ
 48
50.0
100
AcDbLine
 10
-286.4733344170163
 20
-28184.10369776426
 30
0.0
 11
767.6406160877741
 21
-28184.10369776426
 31
0.0
  0
MTEXT
  5
35C84
330
747D
100
AcDbEntity
  8
寸法
 62
     7
 48
50.0
100
AcDbMText
 10
234.4472573975363
 20
-28131.83097049154
 30
0.0
 40
100.0
 41
1.0
 71
     4
 72
     1
  1
▽G.L
  7
STYLE2
 73
     1
 44
1.0
1001
ACAD
1000
MTEXTBEGIN
1070
    73
1070
     1
1070
    44
1040
1.0
1070
    74
1070
     0
1000
MTEXTEND
  0
LINE
  5
35C85
330
747D
100
AcDbEntity
  8
部品1
 48
50.0
100
AcDbLine
 10
-1286.473334417016
 20
-28234.10369776426
 30
0.0
 11
-1286.473334417016
 21
-28784.10369776426
 31
0.0
  0
LINE
  5
35C86
102
{ACAD_REACTORS
330
35E74
102
}
330
747D
100
AcDbEntity
  8
センター
 48
10.0
100
AcDbLine
 10
-486.4733344170162
 20
-27709.63086490922
 30
0.0
 11
-486.4733344170162
 21
-28845.16152959413
 31
0.0
  0
LINE
  5
35C87
330
747D
100
AcDbEntity
  8
部品1
 48
50.0
100
AcDbLine
 10
-186.4733344170236
 20
-28784.10369776426
 30
0.0
 11
-186.4733344170236
 21
-28234.10369776426
 31
0.0
  0
LINE
  5
35C88
102
{ACAD_REACTORS
330
35E74
102
}
330
747D
100
AcDbEntity
  8
部品1
 48
50.0
100
AcDbLine
 10
-441.9233344170134
 20
-28784.10369776426
 30
0.0
 11
-531.0233344170192
 21
-28784.10369776425
 31
0.0
  0
LINE
  5
35C89
330
747D
100
AcDbEntity
  8
文字
 48
50.0
100
AcDbLine
 10
-1132.347404622043
 20
-29847.29156993604
 30
0.0
 11
-297.168152273669
 21
-29847.29156993604
 31
0.0
  0
LINE
  5
35C8A
330
747D
100
AcDbEntity
  8
文字
 48
50.0
100
AcDbLine
 10
-1132.347404622043
 20
-30070.41656993604
 30
0.0
 11
-297.168152273669
 21
-30070.41656993604
 31
0.0
  0
TEXT
  5
35C8B
330
747D
100
AcDbEntity
  8
文字
 62
     7
 48
50.0
100
AcDbText
 10
-1065.76259720933
 20
-30012.93302896267
 30
0.0
 40
112.5
  1
A-A' 断面
  7
STYLE2
100
AcDbText
  0
LINE
  5
35C8C
330
747D
100
AcDbEntity
  8
文字
 48
50.0
100
AcDbLine
 10
-1132.347404622043
 20
-29847.29156993604
 30
0.0
 11
-1132.347404622043
 21
-30070.41656993604
 31
0.0
  0
LINE
  5
35C8D
330
747D
100
AcDbEntity
  8
文字
 48
50.0
100
AcDbLine
 10
-297.168152273669
 20
-29847.29156993604
 30
0.0
 11
-297.168152273669
 21
-30070.41656993604
 31
0.0
  0
LINE
  5
35C8E
102
{ACAD_REACTORS
330
35E74
330
35E8E
102
}
330
747D
100
AcDbEntity
  8
部品1
 48
50.0
100
AcDbLine
 10
-106.4733344170236
 20
-28834.10369776426
 30
0.0
 11
-1366.473334417016
 21
-28834.10369776426
 31
0.0
  0
TEXT
  5
35C8F
330
747D
100
AcDbEntity
  8
寸法
 62
     7
 48
50.0
100
AcDbText
 10
-2197.334139332663
 20
-29463.67588060624
 30
0.0
 40
90.0
  1
帯筋D10＠100
  7
STYLE1
100
AcDbText
  0
LINE
  5
35C90
330
747D
100
AcDbEntity
  8
寸法
 48
50.0
100
AcDbLine
 10
-1525.392747996571
 20
-29478.75179843409
 30
0.0
 11
-2215.786726697268
 21
-29478.75179843409
 31
0.0
  0
LINE
  5
35C91
102
{ACAD_REACTORS
330
35E74
330
35E8E
102
}
330
747D
100
AcDbEntity
  8
寸法
 48
50.0
100
AcDbLine
 10
-640.7446473267263
 20
-28594.10369776426
 30
0.0
 11
-1525.392747996571
 21
-29478.75179843409
 31
0.0
  0
LINE
  5
35C92
330
747D
100
AcDbEntity
  8
寸法
 48
50.0
100
AcDbLine
 10
287.7101316409971
 20
-28775.60867645709
 30
0.0
 11
-286.473334417009
 21
-28444.10369776426
 31
0.0
  0
LINE
  5
35C93
330
747D
100
AcDbEntity
  8
寸法
 48
50.0
100
AcDbLine
 10
287.7101316409971
 20
-28775.60867645709
 30
0.0
 11
907.9245871081583
 21
-28775.60867645709
 31
0.0
  0
TEXT
  5
35C94
330
747D
100
AcDbEntity
  8
寸法
 62
     7
 48
50.0
100
AcDbText
 10
325.4554977231746
 20
-28750.60181890469
 30
0.0
 40
90.0
  1
主筋4-D13
  7
STYLE1
100
AcDbText
  0
TEXT
  5
35C95
330
747D
100
AcDbEntity
  8
寸法
 62
     7
 48
50.0
100
AcDbText
 10
165.8758931112388
 20
-29386.20549191354
 30
0.0
 40
90.0
  1
カンザシ
  7
STYLE1
100
AcDbText
  0
LWPOLYLINE
  5
35C96
102
{ACAD_REACTORS
330
35E74
330
35E8E
102
}
330
747D
100
AcDbEntity
  8
寸法
 48
50.0
100
AcDbPolyline
 90
        3
 70
     0
 43
0.0
 10
-486.4733344170162
 20
-28749.10369776426
 10
108.213957818305
 20
-29405.76474526518
 10
594.5463374179671
 20
-29405.76474526518
1001
ACAD
1000
DSTYLE
1002
{
1070
   341
1005
0
1002
}
  0
LINE
  5
35C97
102
{ACAD_REACTORS
330
35D94
102
}
330
747D
100
AcDbEntity
  8
部品1
 48
50.0
100
AcDbLine
 10
-1202.223334417016
 20
-28719.10369776426
 30
0.0
 11
-370.7537859791046
 21
-28719.10369776426
 31
0.0
  0
CIRCLE
  5
35C98
102
{ACAD_REACTORS
330
35D94
102
}
330
747D
100
AcDbEntity
  8
部品1
 48
50.0
100
AcDbCircle
 10
-386.4733344170163
 20
-28704.10369776425
 30
0.0
 40
5.0
  0
CIRCLE
  5
35C99
102
{ACAD_REACTORS
330
35D94
102
}
330
747D
100
AcDbEntity
  8
部品1
 48
50.0
100
AcDbCircle
 10
-586.4733344170162
 20
-28704.10369776425
 30
0.0
 40
5.0
  0
CIRCLE
  5
35C9A
102
{ACAD_REACTORS
330
35D94
102
}
330
747D
100
AcDbEntity
  8
部品1
 48
50.0
100
AcDbCircle
 10
-786.4733344170162
 20
-28704.10369776425
 30
0.0
 40
5.0
  0
CIRCLE
  5
35C9B
102
{ACAD_REACTORS
330
35D94
102
}
330
747D
100
AcDbEntity
  8
部品1
 48
50.0
100
AcDbCircle
 10
-986.4733344170163
 20
-28704.10369776425
 30
0.0
 40
5.0
  0
CIRCLE
  5
35C9C
102
{ACAD_REACTORS
330
35D94
102
}
330
747D
100
AcDbEntity
  8
部品1
 48
50.0
100
AcDbCircle
 10
-1186.473334417016
 20
-28704.10369776426
 30
0.0
 40
5.0
  0
LINE
  5
35C9D
102
{ACAD_REACTORS
330
35D94
102
}
330
747D
100
AcDbEntity
  8
部品1
 48
50.0
100
AcDbLine
 10
-370.7537859791046
 20
-28709.10369776426
 30
0.0
 11
-370.7537859791046
 21
-28719.10369776426
 31
0.0
  0
LINE
  5
35C9E
102
{ACAD_REACTORS
330
35D94
102
}
330
747D
100
AcDbEntity
  8
部品1
 48
50.0
100
AcDbLine
 10
-1202.223334417016
 20
-28709.10369776426
 30
0.0
 11
-370.7537859791046
 21
-28709.10369776426
 31
0.0
  0
LINE
  5
35C9F
102
{ACAD_REACTORS
330
35D94
102
}
330
747D
100
AcDbEntity
  8
部品1
 48
50.0
100
AcDbLine
 10
-1202.223334417016
 20
-28709.10369776426
 30
0.0
 11
-1202.223334417016
 21
-28719.10369776426
 31
0.0
  0
LINE
  5
35CA0
102
{ACAD_REACTORS
330
35D92
330
35D93
102
}
330
747D
100
AcDbEntity
  8
KIN-T
100
AcDbLine
 10
-861.9233344170133
 20
-28659.10369776426
 30
0.0
 11
-716.473334417009
 21
-28659.10369776426
 31
0.0
  0
LINE
  5
35CA1
102
{ACAD_REACTORS
330
35D92
330
35D93
102
}
330
747D
100
AcDbEntity
  8
KIN-T
100
AcDbLine
 10
-686.473334417009
 20
-28289.10369776426
 30
0.0
 11
-686.473334417009
 21
-28629.10369776426
 31
0.0
  0
ARC
  5
35CA2
102
{ACAD_REACTORS
330
35D92
330
35D93
102
}
330
747D
100
AcDbEntity
  8
KIN-T
100
AcDbCircle
 10
-716.473334417009
 20
-28629.10369776426
 30
0.0
 40
30.0
100
AcDbArc
 50
270.0
 51
0.0
  0
LINE
  5
35CA3
102
{ACAD_REACTORS
330
35D92
102
}
330
747D
100
AcDbEntity
  8
KIN-T
100
AcDbLine
 10
-686.473334417009
 20
-28289.10369776426
 30
0.0
 11
-673.473334417009
 21
-28289.10369776426
 31
0.0
  0
LINE
  5
35CA4
102
{ACAD_REACTORS
330
35D92
102
}
330
747D
100
AcDbEntity
  8
KIN-T
100
AcDbLine
 10
-673.473334417009
 20
-28289.10369776426
 30
0.0
 11
-673.473334417009
 21
-28629.10369776426
 31
0.0
  0
ARC
  5
35CA5
102
{ACAD_REACTORS
330
35D92
102
}
330
747D
100
AcDbEntity
  8
KIN-T
100
AcDbCircle
 10
-716.473334417009
 20
-28629.10369776426
 30
0.0
 40
43.0
100
AcDbArc
 50
270.0
 51
0.0
  0
LINE
  5
35CA6
102
{ACAD_REACTORS
330
35D92
102
}
330
747D
100
AcDbEntity
  8
KIN-T
100
AcDbLine
 10
-861.9233344170133
 20
-28672.10369776426
 30
0.0
 11
-716.473334417009
 21
-28672.10369776426
 31
0.0
  0
LINE
  5
35CA7
102
{ACAD_REACTORS
330
35D92
102
}
330
747D
100
AcDbEntity
  8
KIN-T
100
AcDbLine
 10
-861.9233344170133
 20
-28659.10369776426
 30
0.0
 11
-861.9233344170133
 21
-28672.10369776426
 31
0.0
  0
LINE
  5
35CA8
102
{ACAD_REACTORS
330
35D90
330
35D91
102
}
330
747D
100
AcDbEntity
  8
KIN-T
100
AcDbLine
 10
-474.9233344170134
 20
-28659.10369776426
 30
0.0
 11
-329.4733344170091
 21
-28659.10369776426
 31
0.0
  0
LINE
  5
35CA9
102
{ACAD_REACTORS
330
35D90
102
}
330
747D
100
AcDbEntity
  8
KIN-T
100
AcDbLine
 10
-299.473334417009
 20
-28289.10369776426
 30
0.0
 11
-286.473334417009
 21
-28289.10369776426
 31
0.0
  0
LINE
  5
35CAA
102
{ACAD_REACTORS
330
35D90
102
}
330
747D
100
AcDbEntity
  8
KIN-T
100
AcDbLine
 10
-286.473334417009
 20
-28289.10369776426
 30
0.0
 11
-286.473334417009
 21
-28629.10369776426
 31
0.0
  0
LINE
  5
35CAB
102
{ACAD_REACTORS
330
35D90
330
35D91
102
}
330
747D
100
AcDbEntity
  8
KIN-T
100
AcDbLine
 10
-299.473334417009
 20
-28289.10369776426
 30
0.0
 11
-299.473334417009
 21
-28629.10369776426
 31
0.0
  0
ARC
  5
35CAC
102
{ACAD_REACTORS
330
35D90
330
35D91
102
}
330
747D
100
AcDbEntity
  8
KIN-T
100
AcDbCircle
 10
-329.4733344170091
 20
-28629.10369776426
 30
0.0
 40
30.0
100
AcDbArc
 50
270.0
 51
0.0
  0
ARC
  5
35CAD
102
{ACAD_REACTORS
330
35D90
102
}
330
747D
100
AcDbEntity
  8
KIN-T
100
AcDbCircle
 10
-329.4733344170091
 20
-28629.10369776426
 30
0.0
 40
43.0
100
AcDbArc
 50
270.0
 51
0.0
  0
LINE
  5
35CAE
102
{ACAD_REACTORS
330
35D90
102
}
330
747D
100
AcDbEntity
  8
KIN-T
100
AcDbLine
 10
-474.9233344170134
 20
-28672.10369776426
 30
0.0
 11
-329.4733344170091
 21
-28672.10369776426
 31
0.0
  0
LINE
  5
35CAF
102
{ACAD_REACTORS
330
35D90
102
}
330
747D
100
AcDbEntity
  8
KIN-T
100
AcDbLine
 10
-474.9233344170134
 20
-28659.10369776426
 30
0.0
 11
-474.9233344170134
 21
-28672.10369776426
 31
0.0
  0
LINE
  5
35CB0
102
{ACAD_REACTORS
330
35D8F
102
}
330
747D
100
AcDbEntity
  8
U7
100
AcDbLine
 10
-691.4733344170163
 20
-28589.10369776426
 30
0.0
 11
-281.4733344170163
 21
-28589.10369776426
 31
0.0
  0
LINE
  5
35CB1
102
{ACAD_REACTORS
330
35D8F
102
}
330
747D
100
AcDbEntity
  8
U7
100
AcDbLine
 10
-691.4733344170163
 20
-28599.10369776426
 30
0.0
 11
-281.4733344170163
 21
-28599.10369776425
 31
0.0
  0
CIRCLE
  5
35CB2
102
{ACAD_REACTORS
330
35D8F
102
}
330
747D
100
AcDbEntity
  8
U7
100
AcDbCircle
 10
-281.4733344170163
 20
-28594.10369776426
 30
0.0
 40
5.0
  0
CIRCLE
  5
35CB3
102
{ACAD_REACTORS
330
35D8F
102
}
330
747D
100
AcDbEntity
  8
U7
100
AcDbCircle
 10
-691.4733344170163
 20
-28594.10369776426
 30
0.0
 40
5.0
  0
LINE
  5
35CB4
102
{ACAD_REACTORS
330
35D8E
102
}
330
747D
100
AcDbEntity
  8
U7
100
AcDbLine
 10
-691.4733344170163
 20
-28499.10369776426
 30
0.0
 11
-281.4733344170163
 21
-28499.10369776425
 31
0.0
  0
LINE
  5
35CB5
102
{ACAD_REACTORS
330
35D8E
102
}
330
747D
100
AcDbEntity
  8
U7
100
AcDbLine
 10
-691.4733344170163
 20
-28489.10369776426
 30
0.0
 11
-281.4733344170163
 21
-28489.10369776426
 31
0.0
  0
CIRCLE
  5
35CB6
102
{ACAD_REACTORS
330
35D8E
102
}
330
747D
100
AcDbEntity
  8
U7
100
AcDbCircle
 10
-281.4733344170163
 20
-28494.10369776426
 30
0.0
 40
5.0
  0
CIRCLE
  5
35CB7
102
{ACAD_REACTORS
330
35D8E
102
}
330
747D
100
AcDbEntity
  8
U7
100
AcDbCircle
 10
-691.4733344170163
 20
-28494.10369776426
 30
0.0
 40
5.0
  0
LINE
  5
35CB8
102
{ACAD_REACTORS
330
35D8D
102
}
330
747D
100
AcDbEntity
  8
U7
100
AcDbLine
 10
-691.4733344170163
 20
-28389.10369776426
 30
0.0
 11
-281.4733344170163
 21
-28389.10369776426
 31
0.0
  0
LINE
  5
35CB9
102
{ACAD_REACTORS
330
35D8D
102
}
330
747D
100
AcDbEntity
  8
U7
100
AcDbLine
 10
-691.4733344170163
 20
-28399.10369776426
 30
0.0
 11
-281.4733344170163
 21
-28399.10369776425
 31
0.0
  0
CIRCLE
  5
35CBA
102
{ACAD_REACTORS
330
35D8D
102
}
330
747D
100
AcDbEntity
  8
U7
100
AcDbCircle
 10
-281.4733344170163
 20
-28394.10369776426
 30
0.0
 40
5.0
  0
CIRCLE
  5
35CBB
102
{ACAD_REACTORS
330
35D8D
102
}
330
747D
100
AcDbEntity
  8
U7
100
AcDbCircle
 10
-691.4733344170163
 20
-28394.10369776426
 30
0.0
 40
5.0
  0
LINE
  5
35CBC
102
{ACAD_REACTORS
330
35D8C
102
}
330
747D
100
AcDbEntity
  8
U7
100
AcDbLine
 10
-691.4733344170163
 20
-28289.10369776426
 30
0.0
 11
-281.4733344170163
 21
-28289.10369776426
 31
0.0
  0
LINE
  5
35CBD
102
{ACAD_REACTORS
330
35D8C
102
}
330
747D
100
AcDbEntity
  8
U7
100
AcDbLine
 10
-691.4733344170163
 20
-28299.10369776426
 30
0.0
 11
-281.4733344170163
 21
-28299.10369776425
 31
0.0
  0
CIRCLE
  5
35CBE
102
{ACAD_REACTORS
330
35D8C
102
}
330
747D
100
AcDbEntity
  8
U7
100
AcDbCircle
 10
-281.4733344170163
 20
-28294.10369776426
 30
0.0
 40
5.0
  0
CIRCLE
  5
35CBF
102
{ACAD_REACTORS
330
35D8C
102
}
330
747D
100
AcDbEntity
  8
U7
100
AcDbCircle
 10
-691.4733344170163
 20
-28294.10369776426
 30
0.0
 40
5.0
  0
TEXT
  5
35CC0
330
747D
100
AcDbEntity
  8
寸法
 62
     7
100
AcDbText
 10
-2437.765865338195
 20
-28963.56071647691
 30
0.0
 40
90.0
  1
ベース筋
  7
STYLE1
100
AcDbText
  0
TEXT
  5
35CC1
330
747D
100
AcDbEntity
  8
寸法
 62
     7
100
AcDbText
 10
-2437.765865338195
 20
-29078.03363720154
 30
0.0
 40
90.0
  1
4-D10X5-D10以上
  7
STYLE1
100
AcDbText
  0
LWPOLYLINE
  5
35CC2
102
{ACAD_REACTORS
330
35E74
330
35E8E
102
}
330
747D
100
AcDbEntity
  8
寸法
 48
5.0
100
AcDbPolyline
 90
        3
 70
     0
 43
0.0
 10
-1186.473334417016
 20
-28702.90369776426
 10
-1525.392747996571
 20
-29098.55464219989
 10
-2442.90230314152
 20
-29098.55464219989
1001
ACAD
1000
DSTYLE
1002
{
1070
   341
1005
0
1002
}
  0
LINE
  5
35CC3
330
747D
100
AcDbEntity
  8
U7
100
AcDbLine
 10
-386.4733344170163
 20
-28744.10369776426
 30
0.0
 11
-586.4733344170162
 21
-28744.10369776426
 31
0.0
  0
LINE
  5
35CC4
330
747D
100
AcDbEntity
  8
U7
100
AcDbLine
 10
-386.4733344170163
 20
-28754.10369776426
 30
0.0
 11
-586.4733344170162
 21
-28754.10369776426
 31
0.0
  0
LINE
  5
35CC5
330
747D
100
AcDbEntity
  8
U7
100
AcDbLine
 10
-586.4733344170162
 20
-28744.10369776426
 30
0.0
 11
-586.4733344170162
 21
-28754.10369776426
 31
0.0
  0
LINE
  5
35CC6
330
747D
100
AcDbEntity
  8
U7
100
AcDbLine
 10
-386.4733344170163
 20
-28744.10369776426
 30
0.0
 11
-386.4733344170163
 21
-28754.10369776426
 31
0.0
  0
HATCH
  5
35DBB
330
747D
100
AcDbEntity
  8
細線
 48
50.0
100
AcDbHatch
 10
0.0
 20
0.0
 30
0.0
210
0.0
220
0.0
230
1.0
  2
PLAST
 70
     0
 71
     0
 91
        2
 92
        7
 72
     0
 73
     1
 93
        6
 10
-531.0233344170114
 20
-28234.10369776426
 10
-531.0233344170119
 20
-28120.10369776426
 10
-545.0233344170133
 20
-28120.10369776426
 10
-559.023334416996
 20
-28134.10369776425
 10
-1788.589145516693
 20
-28134.10369776425
 10
-1788.589145516693
 20
-28234.10369776426
 97
        0
 92
        7
 72
     0
 73
     1
 93
        8
 10
-441.9233344170124
 20
-28234.10369776425
 10
-296.3322355337823
 20
-28234.10369776425
 10
-286.4733344170168
 20
-28224.24479664749
 10
-286.4733344170158
 20
-28144.10369776425
 10
-296.4733344170054
 20
-28134.10369776426
 10
-413.9233344170134
 20
-28134.10369776426
 10
-427.9233344170056
 20
-28120.10369776426
 10
-441.9233344170138
 20
-28120.10369776425
 97
        0
 75
     0
 76
     1
 52
45.0
 41
37.5
 77
     0
 78
     3
 53
45.0
 43
-4117.643548542445
 44
0.0
 45
-168.3798022700466
 46
168.3798022700466
 79
     0
 53
45.0
 43
-4138.6910238262
 44
21.04747528375583
 45
-168.3798022700466
 46
168.3798022700466
 79
     0
 53
45.0
 43
-4159.738499109955
 44
42.09495056751165
 45
-168.3798022700466
 46
168.3798022700466
 79
     0
 47
4.852272800211545
 98
        2
 10
-932.5022684465075
 20
-28187.49510563672
 10
-398.3669845975382
 20
-28182.64283538984
  0
HATCH
  5
35E55
330
747D
100
AcDbEntity
  8
細線
 48
50.0
100
AcDbHatch
 10
0.0
 20
0.0
 30
0.0
210
0.0
220
0.0
230
1.0
  2
PLAST
 70
     0
 71
     0
 91
       13
 92
        7
 72
     1
 73
     1
 93
       48
 10
-691.4733344170163
 20
-28489.10369776426
 42
0.0
 10
-686.473334417009
 20
-28489.10369776426
 42
0.0
 10
-686.4733344170085
 20
-28399.10369776426
 42
0.0
 10
-691.4733344170236
 20
-28399.10369776426
 42
-0.4142135623726688
 10
-696.4733344170163
 20
-28394.10369776426
 42
-0.4142135623730951
 10
-691.4733344170163
 20
-28389.10369776426
 42
0.0
 10
-686.473334417009
 20
-28389.10369776426
 42
0.0
 10
-686.4733344170095
 20
-28299.10369776427
 42
0.0
 10
-691.4733344170236
 20
-28299.10369776426
 42
-0.4142135623726688
 10
-696.4733344170163
 20
-28294.10369776426
 42
-0.4142135623730951
 10
-691.4733344170163
 20
-28289.10369776426
 42
0.0
 10
-531.0233344170119
 20
-28289.10369776426
 42
0.0
 10
-531.0233344170119
 20
-28234.10369776426
 42
0.0
 10
-1286.473334417016
 20
-28234.10369776426
 42
0.0
 10
-1286.473334417016
 20
-28784.10369776426
 42
0.0
 10
-1256.030242519222
 20
-28784.10369776426
 42
0.0
 10
-1200.350451550703
 20
-28719.10369776425
 42
0.0
 10
-1202.223334417016
 20
-28719.10369776426
 42
0.0
 10
-1202.223334417016
 20
-28709.10369776426
 42
0.0
 10
-1191.784329863246
 20
-28709.10369776426
 42
0.0
 10
-1190.279121606376
 20
-28707.34653354014
 42
-0.1782786565742627
 10
-1191.473334417016
 20
-28704.10369776426
 42
-1.0
 10
-1181.473334417016
 20
-28704.10369776426
 42
-0.4142135623730951
 10
-1186.473334417016
 20
-28709.10369776426
 42
0.0
 10
-986.4733344170163
 20
-28709.10369776426
 42
-0.4142135623735213
 10
-991.4733344170162
 20
-28704.10369776425
 42
-1.0
 10
-981.4733344170162
 20
-28704.10369776425
 42
-0.4142135623735213
 10
-986.4733344170163
 20
-28709.10369776426
 42
0.0
 10
-786.4733344170162
 20
-28709.10369776426
 42
-0.4142135623735213
 10
-791.4733344170163
 20
-28704.10369776425
 42
-1.0
 10
-781.4733344170162
 20
-28704.10369776425
 42
-0.4142135623735213
 10
-786.4733344170162
 20
-28709.10369776426
 42
0.0
 10
-755.7446473267264
 20
-28709.10369776426
 42
0.0
 10
-718.7446473267236
 20
-28672.10369776426
 42
0.0
 10
-861.9233344170138
 20
-28672.10369776426
 42
0.0
 10
-861.923334417013
 20
-28659.10369776426
 42
0.0
 10
-716.473334417009
 20
-28659.10369776426
 42
0.1260483184578579
 10
-702.0498251546505
 20
-28655.40887559218
 42
0.0
 10
-690.1681565890854
 20
-28643.52720702662
 42
0.1260483184578396
 10
-686.473334417009
 20
-28629.10369776426
 42
0.0
 10
-686.473334417009
 20
-28599.10369776426
 42
0.0
 10
-691.4733344170163
 20
-28599.10369776426
 42
-0.4142135623730951
 10
-696.4733344170163
 20
-28594.10369776426
 42
-0.4142135623730951
 10
-691.4733344170163
 20
-28589.10369776426
 42
0.0
 10
-686.473334417009
 20
-28589.10369776426
 42
0.0
 10
-686.473334417009
 20
-28499.10369776425
 42
0.0
 10
-691.4733344170127
 20
-28499.10369776426
 42
-0.4142135623733081
 10
-696.4733344170163
 20
-28494.10369776426
 42
-0.4142135623730951
 97
        0
 92
       22
 72
     0
 73
     1
 93
        4
 10
-1200.350451550705
 20
-28719.10369776426
 10
-1256.030242519218
 20
-28784.10369776426
 10
-830.7446473267301
 20
-28784.10369776426
 10
-765.7446473267222
 20
-28719.10369776426
 97
        0
 92
        7
 72
     0
 73
     1
 93
        8
 10
-765.7446473267254
 20
-28719.10369776426
 10
-830.7446473267287
 20
-28784.10369776426
 10
-531.0233344170119
 20
-28784.10369776426
 10
-531.0233344170119
 20
-28754.10369776426
 10
-586.4733344170162
 20
-28754.10369776426
 10
-586.4733344170158
 20
-28744.10369776426
 10
-531.023334417011
 20
-28744.10369776427
 10
-531.023334417011
 20
-28719.10369776425
 97
        0
 92
        7
 72
     1
 73
     1
 93
       29
 10
-186.4733344170236
 20
-28784.10369776426
 42
0.0
 10
-186.4733344170226
 20
-28501.83872468321
 42
0.0
 10
-286.4733344170086
 20
-28444.10369776426
 42
0.0
 10
-286.473334417009
 20
-28489.10369776426
 42
0.0
 10
-281.4733344170163
 20
-28489.10369776426
 42
-0.4142135623730951
 10
-276.4733344170163
 20
-28494.10369776426
 42
-0.4142135623726688
 10
-281.4733344170163
 20
-28499.10369776425
 42
0.0
 10
-286.473334417009
 20
-28499.10369776425
 42
0.0
 10
-286.473334417009
 20
-28589.10369776426
 42
0.0
 10
-281.4733344170199
 20
-28589.10369776426
 42
-0.4142135623733081
 10
-276.4733344170163
 20
-28594.10369776426
 42
-0.4142135623726688
 10
-281.4733344170163
 20
-28599.10369776425
 42
0.0
 10
-286.473334417009
 20
-28599.10369776425
 42
0.0
 10
-286.473334417009
 20
-28629.10369776426
 42
-0.4142135623730951
 10
-329.4733344170091
 20
-28672.10369776426
 42
0.0
 10
-441.9233344170134
 20
-28672.10369776426
 42
0.0
 10
-441.9233344170134
 20
-28709.10369776426
 42
0.0
 10
-386.4733344170163
 20
-28709.10369776426
 42
-0.4142135623735213
 10
-391.4733344170163
 20
-28704.10369776425
 42
-1.0
 10
-381.4733344170163
 20
-28704.10369776425
 42
-0.4142135623735213
 10
-386.4733344170163
 20
-28709.10369776426
 42
0.0
 10
-370.7537859791046
 20
-28709.10369776426
 42
0.0
 10
-370.7537859791046
 20
-28719.10369776426
 42
0.0
 10
-441.9233344170129
 20
-28719.10369776426
 42
0.0
 10
-441.9233344170134
 20
-28744.10369776425
 42
0.0
 10
-386.4733344170163
 20
-28744.10369776426
 42
0.0
 10
-386.4733344170159
 20
-28754.10369776426
 42
0.0
 10
-441.9233344170138
 20
-28754.10369776425
 42
0.0
 10
-441.9233344170134
 20
-28784.10369776426
 42
0.0
 97
        0
 92
        7
 72
     1
 73
     1
 93
       14
 10
-286.473334417009
 20
-28389.10369776426
 42
0.0
 10
-281.4733344170199
 20
-28389.10369776426
 42
-0.4142135623733081
 10
-276.4733344170163
 20
-28394.10369776426
 42
-0.4142135623726688
 10
-281.4733344170163
 20
-28399.10369776425
 42
0.0
 10
-286.473334417009
 20
-28399.10369776425
 42
0.0
 10
-286.4733344170095
 20
-28444.10369776425
 42
0.0
 10
-186.4733344170236
 20
-28501.83872468321
 42
0.0
 10
-186.4733344170231
 20
-28234.10369776426
 42
0.0
 10
-441.9233344170129
 20
-28234.10369776425
 42
0.0
 10
-441.9233344170129
 20
-28289.10369776426
 42
0.0
 10
-281.4733344170163
 20
-28289.10369776426
 42
-0.4142135623730951
 10
-276.4733344170163
 20
-28294.10369776426
 42
-0.4142135623726688
 10
-281.4733344170163
 20
-28299.10369776425
 42
0.0
 10
-286.473334417009
 20
-28299.10369776425
 42
0.0
 97
        0
 92
        7
 72
     0
 73
     1
 93
        4
 10
-299.4733344170095
 20
-28389.10369776426
 10
-299.473334417009
 20
-28299.10369776425
 10
-441.9233344170134
 20
-28299.10369776425
 10
-441.9233344170129
 20
-28389.10369776426
 97
        0
 92
        7
 72
     0
 73
     1
 93
        4
 10
-531.023334417011
 20
-28299.10369776426
 10
-673.473334417009
 20
-28299.10369776426
 10
-673.473334417009
 20
-28389.10369776426
 10
-531.0233344170119
 20
-28389.10369776426
 97
        0
 92
       22
 72
     0
 73
     1
 93
        4
 10
-673.473334417009
 20
-28399.10369776426
 10
-673.473334417009
 20
-28489.10369776426
 10
-531.0233344170119
 20
-28489.10369776426
 10
-531.0233344170123
 20
-28399.10369776426
 97
        0
 92
        7
 72
     0
 73
     1
 93
        4
 10
-441.9233344170129
 20
-28399.10369776426
 10
-441.9233344170134
 20
-28489.10369776426
 10
-299.473334417009
 20
-28489.10369776426
 10
-299.4733344170086
 20
-28399.10369776426
 97
        0
 92
       22
 72
     0
 73
     1
 93
        4
 10
-441.9233344170134
 20
-28499.10369776425
 10
-441.9233344170134
 20
-28589.10369776426
 10
-299.473334417009
 20
-28589.10369776426
 10
-299.4733344170095
 20
-28499.10369776425
 97
        0
 92
       22
 72
     0
 73
     1
 93
        4
 10
-531.0233344170123
 20
-28589.10369776426
 10
-531.0233344170119
 20
-28499.10369776426
 10
-673.4733344170095
 20
-28499.10369776425
 10
-673.473334417009
 20
-28589.10369776426
 97
        0
 92
        7
 72
     1
 73
     1
 93
       12
 10
-581.4733344170162
 20
-28704.10369776425
 42
-0.4142135623735213
 10
-586.4733344170162
 20
-28709.10369776426
 42
0.0
 10
-531.0233344170119
 20
-28709.10369776426
 42
0.0
 10
-531.0233344170114
 20
-28599.10369776425
 42
0.0
 10
-645.7446473267241
 20
-28599.10369776426
 42
0.0
 10
-673.473334417009
 20
-28626.83238485455
 42
0.0
 10
-673.473334417009
 20
-28629.10369776426
 42
-0.4142135623730951
 10
-716.473334417009
 20
-28672.10369776426
 42
0.0
 10
-718.7446473267291
 20
-28672.10369776426
 42
0.0
 10
-755.7446473267255
 20
-28709.10369776426
 42
0.0
 10
-586.4733344170162
 20
-28709.10369776426
 42
-0.4142135623733081
 10
-591.4733344170163
 20
-28704.10369776425
 42
-1.0
 97
        0
 92
       23
 72
     1
 73
     1
 93
        5
 10
-329.4733344170091
 20
-28659.10369776426
 42
0.4142135623730951
 10
-299.473334417009
 20
-28629.10369776426
 42
0.0
 10
-299.473334417009
 20
-28599.10369776425
 42
0.0
 10
-441.9233344170134
 20
-28599.10369776426
 42
0.0
 10
-441.9233344170129
 20
-28659.10369776426
 42
0.0
 97
        0
 75
     0
 76
     1
 52
135.0
 41
37.5
 77
     0
 78
     3
 53
135.0
 43
-4117.643548542445
 44
0.0
 45
-168.3798022700466
 46
-168.3798022700466
 79
     0
 53
135.0
 43
-4138.691023826201
 44
-21.04747528375582
 45
-168.3798022700466
 46
-168.3798022700466
 79
     0
 53
135.0
 43
-4159.738499109955
 44
-42.09495056751165
 45
-168.3798022700466
 46
-168.3798022700466
 79
     0
 47
1.320005191315548
 98
       13
 10
-874.494216441897
 20
-28480.80675856654
 10
-929.9744612224094
 20
-28746.12780391109
 10
-688.2391370974655
 20
-28750.08783032841
 10
-277.4211946084542
 20
-28739.52778001044
 10
-261.5696756393663
 20
-28362.00628809844
 10
-352.715784391854
 20
-28344.84621387982
 10
-544.2547033926457
 20
-28347.48623149137
 10
-577.278647536441
 20
-28439.88658622865
 10
-400.2702696878259
 20
-28437.24658874533
 10
-391.0235681920094
 20
-28532.28696109416
 10
-574.6367277082608
 20
-28552.0870327961
 10
-605.0187878295255
 20
-28668.24750578087
 10
-400.2702696878259
 20
-28633.92735734364
  0
HATCH
  5
35E74
330
747D
100
AcDbEntity
  8
細線
 48
50.0
100
AcDbHatch
 10
0.0
 20
0.0
 30
0.0
210
0.0
220
0.0
230
1.0
  2
PLAST
 70
     0
 71
     1
 91
        5
 92
        7
 72
     0
 73
     1
 93
        4
 10
-880.7446473267317
 20
-28834.10369776426
 10
-830.7446473267329
 20
-28784.10369776426
 10
-1256.030242519218
 20
-28784.10369776426
 10
-1298.860850956536
 20
-28834.10369776426
 97
        4
330
35C80
330
35CC2
330
35C8E
330
35C91
 92
        7
 72
     0
 73
     1
 93
        4
 10
-1298.860850956536
 20
-28834.10369776426
 10
-1256.030242519221
 20
-28784.10369776426
 10
-1366.473334417017
 20
-28784.10369776426
 10
-1366.473334417017
 20
-28834.10369776426
 97
        4
330
35C80
330
35C2A
330
35C8E
330
35CC2
 92
        7
 72
     0
 73
     1
 93
        5
 10
-486.4733344170162
 20
-28834.10369776426
 10
-486.4733344170162
 20
-28784.10369776426
 10
-531.0233344170192
 20
-28784.10369776425
 10
-830.7446473267285
 20
-28784.10369776426
 10
-880.7446473267354
 20
-28834.10369776426
 97
        5
330
35C88
330
35C80
330
35C91
330
35C8E
330
35C86
 92
        7
 72
     0
 73
     1
 93
        4
 10
-486.4733344170162
 20
-28834.10369776425
 10
-409.4953866121673
 20
-28834.10369776425
 10
-454.7765323797245
 20
-28784.10369776426
 10
-486.4733344170162
 20
-28784.10369776426
 97
        4
330
35C88
330
35C86
330
35C8E
330
35C96
 92
        7
 72
     0
 73
     1
 93
        4
 10
-454.7765323797199
 20
-28784.10369776426
 10
-409.4953866121672
 20
-28834.10369776426
 10
-106.4733344170236
 20
-28834.10369776425
 10
-106.4733344170235
 20
-28784.10369776426
 97
        4
330
35C80
330
35C96
330
35C8E
330
35C2B
 75
     0
 76
     1
 52
45.0
 41
37.5
 77
     0
 78
     3
 53
45.0
 43
-4117.643548542445
 44
0.0
 45
-168.3798022700466
 46
168.3798022700466
 79
     0
 53
45.0
 43
-4138.6910238262
 44
21.04747528375583
 45
-168.3798022700466
 46
168.3798022700466
 79
     0
 53
45.0
 43
-4159.738499109955
 44
42.09495056751165
 45
-168.3798022700466
 46
168.3798022700466
 79
     0
 47
2.357055197808914
 98
        5
 10
-1069.820836046121
 20
-28810.89605482706
 10
-1322.207803731224
 20
-28810.89605482706
 10
-774.9762456211465
 20
-28813.25310989223
 10
-468.3378830369838
 20
-28810.89605482706
 10
-383.4226375572543
 20
-28806.18194469672
  0
HATCH
  5
35E8E
330
747D
100
AcDbEntity
  8
細線
 48
50.0
100
AcDbHatch
 10
0.0
 20
0.0
 30
0.0
210
0.0
220
0.0
230
1.0
  2
LINE
 70
     0
 71
     1
 91
        4
 92
        7
 72
     0
 73
     1
 93
        5
 10
-1366.473334417016
 20
-28913.03379697058
 10
-1366.473334417016
 20
-28934.10369776426
 10
-980.7446473267351
 20
-28934.10369776425
 10
-880.7446473267427
 20
-28834.10369776426
 10
-1298.86085095654
 20
-28834.10369776426
 97
        5
330
35C8E
330
35CC2
330
35C2A
330
35C77
330
35C91
 92
       23
 72
     0
 73
     1
 93
        3
 10
-1298.860850956539
 20
-28834.10369776426
 10
-1366.473334417016
 20
-28834.10369776426
 10
-1366.473334417016
 20
-28913.03379697056
 97
        3
330
35C8E
330
35C2A
330
35CC2
 92
        7
 72
     0
 73
     1
 93
        4
 10
-318.9330950770512
 20
-28934.10369776426
 10
-409.4953866121611
 20
-28834.10369776426
 10
-880.7446473267299
 20
-28834.10369776426
 10
-980.7446473267344
 20
-28934.10369776426
 97
        4
330
35C8E
330
35C91
330
35C77
330
35C96
 92
        7
 72
     0
 73
     1
 93
        4
 10
-318.9330950770519
 20
-28934.10369776426
 10
-106.4733344170236
 20
-28934.10369776426
 10
-106.4733344170236
 20
-28834.10369776426
 10
-409.4953866121665
 20
-28834.10369776426
 97
        4
330
35C8E
330
35C96
330
35C77
330
35C2B
 75
     0
 76
     1
 52
75.0
 41
37.5
 77
     0
 78
     1
 53
75.0
 43
-4117.643548542445
 44
0.0
 45
-115.0055436925422
 46
30.81564255751887
 79
     0
 47
3.330068210733803
 98
        4
 10
-1326.284491729566
 20
-28895.20738030511
 10
-1342.94686543104
 20
-28855.2465592893
 10
-783.0915602126988
 20
-28885.21718008322
 10
-306.5480518904296
 20
-28888.54725353326
  0
LINE
  5
35E8F
330
747D
100
AcDbEntity
  8
細線
 48
50.0
100
AcDbLine
 10
-1003.310898397756
 20
-28859.10369776426
 30
0.0
 11
-1010.009628208534
 21
-28834.10369776426
 31
0.0
  0
LINE
  5
35E90
330
747D
100
AcDbEntity
  8
細線
 48
50.0
100
AcDbLine
 10
-1126.573468627833
 20
-28859.10369776426
 30
0.0
 11
-1133.272198438611
 21
-28834.10369776426
 31
0.0
  0
LINE
  5
35E91
330
747D
100
AcDbEntity
  8
細線
 48
50.0
100
AcDbLine
 10
-1249.836038857907
 20
-28859.10369776426
 30
0.0
 11
-1256.534768668684
 21
-28834.10369776426
 31
0.0
  0
LINE
  5
35E92
330
747D
100
AcDbEntity
  8
細線
 48
50.0
100
AcDbLine
 10
-880.0483281676825
 20
-28859.10369776426
 30
0.0
 11
-886.7470579784603
 21
-28834.10369776426
 31
0.0
  0
LINE
  5
35E93
330
747D
100
AcDbEntity
  8
細線
 48
50.0
100
AcDbLine
 10
-756.785757937605
 20
-28859.10369776426
 30
0.0
 11
-763.4844877483828
 21
-28834.10369776426
 31
0.0
  0
LINE
  5
35E94
330
747D
100
AcDbEntity
  8
細線
 48
50.0
100
AcDbLine
 10
-633.5231877075321
 20
-28859.10369776427
 30
0.0
 11
-640.2219175183099
 21
-28834.10369776427
 31
0.0
  0
LINE
  5
35E95
330
747D
100
AcDbEntity
  8
細線
 48
50.0
100
AcDbLine
 10
-510.2606174774536
 20
-28859.10369776426
 30
0.0
 11
-516.9593472882316
 21
-28834.10369776426
 31
0.0
  0
LINE
  5
35E96
330
747D
100
AcDbEntity
  8
細線
 48
50.0
100
AcDbLine
 10
-386.998047247379
 20
-28859.10369776426
 30
0.0
 11
-393.6967770581568
 21
-28834.10369776426
 31
0.0
  0
LINE
  5
35E97
330
747D
100
AcDbEntity
  8
細線
 48
50.0
100
AcDbLine
 10
-263.7354770173033
 20
-28859.10369776426
 30
0.0
 11
-270.4342068280812
 21
-28834.10369776426
 31
0.0
  0
LINE
  5
35E98
330
747D
100
AcDbEntity
  8
細線
 48
50.0
100
AcDbLine
 10
-140.4729067872276
 20
-28859.10369776426
 30
0.0
 11
-147.1716365980055
 21
-28834.10369776426
 31
0.0
  0
LINE
  5
35E99
330
747D
100
AcDbEntity
  8
細線
 48
50.0
100
AcDbLine
 10
-147.1716365980028
 20
-28934.10369776427
 30
0.0
 11
-153.8703664087843
 21
-28909.10369776427
 31
0.0
  0
LINE
  5
35E9A
330
747D
100
AcDbEntity
  8
細線
 48
50.0
100
AcDbLine
 10
-270.4342068280757
 20
-28934.10369776426
 30
0.0
 11
-277.1329366388572
 21
-28909.10369776426
 31
0.0
  0
LINE
  5
35E9B
330
747D
100
AcDbEntity
  8
細線
 48
50.0
100
AcDbLine
 10
-393.6967770581523
 20
-28934.10369776426
 30
0.0
 11
-400.3955068689338
 21
-28909.10369776426
 31
0.0
  0
LINE
  5
35E9C
330
747D
100
AcDbEntity
  8
細線
 48
50.0
100
AcDbLine
 10
-516.959347288227
 20
-28934.10369776426
 30
0.0
 11
-523.6580770990086
 21
-28909.10369776426
 31
0.0
  0
LINE
  5
35E9D
330
747D
100
AcDbEntity
  8
細線
 48
50.0
100
AcDbLine
 10
-640.2219175183045
 20
-28934.10369776427
 30
0.0
 11
-646.920647329086
 21
-28909.10369776427
 31
0.0
  0
LINE
  5
35E9E
330
747D
100
AcDbEntity
  8
細線
 48
50.0
100
AcDbLine
 10
-763.4844877483792
 20
-28934.10369776426
 30
0.0
 11
-770.1832175591607
 21
-28909.10369776426
 31
0.0
  0
LINE
  5
35E9F
330
747D
100
AcDbEntity
  8
細線
 48
50.0
100
AcDbLine
 10
-886.747057978455
 20
-28934.10369776426
 30
0.0
 11
-893.4457877892365
 21
-28909.10369776426
 31
0.0
  0
LINE
  5
35EA0
330
747D
100
AcDbEntity
  8
細線
 48
50.0
100
AcDbLine
 10
-1010.009628208529
 20
-28934.10369776426
 30
0.0
 11
-1016.708358019311
 21
-28909.10369776426
 31
0.0
  0
LINE
  5
35EA1
330
747D
100
AcDbEntity
  8
細線
 48
50.0
100
AcDbLine
 10
-1133.272198438605
 20
-28934.10369776426
 30
0.0
 11
-1139.970928249387
 21
-28909.10369776426
 31
0.0
  0
LINE
  5
35EA2
330
747D
100
AcDbEntity
  8
細線
 48
50.0
100
AcDbLine
 10
-1256.53476866868
 20
-28934.10369776426
 30
0.0
 11
-1263.233498479461
 21
-28909.10369776426
 31
0.0
  0
HATCH
  5
35EA9
330
747D
100
AcDbEntity
  8
細線
 48
50.0
100
AcDbHatch
 10
0.0
 20
0.0
 30
0.0
210
0.0
220
0.0
230
1.0
  2
LINE
 70
     0
 71
     0
 91
        1
 92
        7
 72
     0
 73
     1
 93
        4
 10
-1286.473334417016
 20
-28334.10369776426
 10
-1286.473334417016
 20
-28234.10369776426
 10
-1788.589145516693
 20
-28234.10369776426
 10
-1788.589145516693
 20
-28334.10369776426
 97
        0
 75
     0
 76
     1
 52
75.0
 41
37.5
 77
     0
 78
     1
 53
75.0
 43
-4117.643548542445
 44
0.0
 45
-115.0055436925422
 46
30.81564255751887
 79
     0
 47
1.008020268830581
 98
        1
 10
-1487.548588528531
 20
-28284.12154163114
  0
LINE
  5
35EAA
330
747D
100
AcDbEntity
  8
細線
 48
50.0
100
AcDbLine
 10
-1582.116804319535
 20
-28259.10369776425
 30
0.0
 11
-1588.815534130312
 21
-28234.10369776425
 31
0.0
  0
LINE
  5
35EAB
330
747D
100
AcDbEntity
  8
細線
 48
50.0
100
AcDbLine
 10
-1705.379374549609
 20
-28259.10369776425
 30
0.0
 11
-1712.078104360387
 21
-28234.10369776425
 31
0.0
  0
LINE
  5
35EAC
330
747D
100
AcDbEntity
  8
細線
 48
50.0
100
AcDbLine
 10
-1458.854234089459
 20
-28259.10369776425
 30
0.0
 11
-1465.552963900237
 21
-28234.10369776425
 31
0.0
  0
LINE
  5
35EAD
330
747D
100
AcDbEntity
  8
細線
 48
50.0
100
AcDbLine
 10
-1335.591663859384
 20
-28259.10369776425
 30
0.0
 11
-1342.290393670162
 21
-28234.10369776425
 31
0.0
  0
LINE
  5
35EAE
330
747D
100
AcDbEntity
  8
細線
 48
50.0
100
AcDbLine
 10
-1712.078104360381
 20
-28334.10369776425
 30
0.0
 11
-1718.776834171163
 21
-28309.10369776425
 31
0.0
  0
LINE
  5
35EAF
330
747D
100
AcDbEntity
  8
細線
 48
50.0
100
AcDbLine
 10
-1588.815534130306
 20
-28334.10369776425
 30
0.0
 11
-1595.514263941088
 21
-28309.10369776425
 31
0.0
  0
LINE
  5
35EB0
330
747D
100
AcDbEntity
  8
細線
 48
50.0
100
AcDbLine
 10
-1465.55296390023
 20
-28334.10369776425
 30
0.0
 11
-1472.251693711012
 21
-28309.10369776425
 31
0.0
  0
LINE
  5
35EB1
330
747D
100
AcDbEntity
  8
細線
 48
50.0
100
AcDbLine
 10
-1342.290393670156
 20
-28334.10369776425
 30
0.0
 11
-1348.989123480937
 21
-28309.10369776425
 31
0.0
  0
DIMENSION
  5
35F2B
330
747D
100
AcDbEntity
  8
寸法
 48
50.0
100
AcDbDimension
  2
*D28
 10
-7903.512651504335
 20
-27817.65357456061
 30
0.0
 11
-7903.51265150433
 21
-27640.61814148974
 31
0.0
 70
   160
 71
     5
 42
99.99999999998545
  3
INABA_S30G
100
AcDbAlignedDimension
 13
-7562.640814793107
 23
-27917.6535745606
 33
0.0
 14
-7562.6408147931
 24
-27817.65357456061
 34
0.0
 50
90.0
100
AcDbRotatedDimension
  0
ENDSEC
  0
SECTION
  2
OBJECTS
  0
DICTIONARY
  5
7471
330
0
100
AcDbDictionary
281
     1
  3
ACAD_COLOR
350
11754
  3
ACAD_GROUP
350
7472
  3
ACAD_LAYOUT
350
11755
  3
ACAD_MATERIAL
350
11753
  3
ACAD_MLINESTYLE
350
7473
  3
ACAD_PLOTSETTINGS
350
11756
  3
ACAD_PLOTSTYLENAME
350
11751
  3
ACDBHEADERROUNDTRIPXREC
350
35F58
  3
AcDbVariableDictionary
350
35F54
  3
CONTENTDICTIONARY
350
E71C
  3
DRAWINGVARIABLESDICT
350
F3B9
  0
DICTIONARY
  5
11827
330
7467
100
AcDbDictionary
280
     1
281
     1
  3
ACAD_LAYERFILTERS
360
135F4
  3
ACAD_LAYERSTATES
360
11828
  0
DICTIONARY
  5
11754
102
{ACAD_REACTORS
330
7471
102
}
330
7471
100
AcDbDictionary
281
     1
  0
DICTIONARY
  5
7472
102
{ACAD_REACTORS
330
7471
102
}
330
7471
100
AcDbDictionary
281
     1
  3
*A1
350
154E2
  3
*A10
350
3449E
  3
*A100
350
33B5F
  3
*A101
350
32072
  3
*A102
350
35956
  3
*A103
350
33B8E
  3
*A104
350
3372C
  3
*A105
350
3372D
  3
*A106
350
32DEF
  3
*A107
350
3267B
  3
*A108
350
2925F
  3
*A109
350
3506E
  3
*A11
350
33AFD
  3
*A110
350
3372E
  3
*A111
350
3372F
  3
*A112
350
35944
  3
*A113
350
32DF1
  3
*A114
350
35548
  3
*A115
350
33730
  3
*A116
350
2926B
  3
*A117
350
33731
  3
*A118
350
33B8F
  3
*A119
350
33732
  3
*A12
350
32675
  3
*A120
350
33733
  3
*A121
350
33734
  3
*A122
350
33315
  3
*A123
350
33735
  3
*A124
350
33310
  3
*A125
350
33736
  3
*A126
350
3506B
  3
*A127
350
3506F
  3
*A128
350
290DD
  3
*A129
350
32DF0
  3
*A13
350
2925B
  3
*A130
350
33737
  3
*A131
350
33738
  3
*A132
350
35072
  3
*A133
350
33739
  3
*A134
350
3373A
  3
*A135
350
15535
  3
*A136
350
24FDC
  3
*A137
350
24FE6
  3
*A138
350
33729
  3
*A139
350
3373B
  3
*A14
350
33319
  3
*A140
350
3373C
  3
*A141
350
3373D
  3
*A142
350
33B90
  3
*A143
350
33B91
  3
*A144
350
33B92
  3
*A145
350
27401
  3
*A146
350
32073
  3
*A147
350
275D4
  3
*A148
350
33AF6
  3
*A149
350
35078
  3
*A15
350
3449F
  3
*A150
350
35942
  3
*A151
350
33B93
  3
*A152
350
33B94
  3
*A153
350
33B95
  3
*A154
350
32DF3
  3
*A155
350
33B96
  3
*A156
350
32677
  3
*A157
350
35946
  3
*A158
350
272B4
  3
*A159
350
273ED
  3
*A16
350
32DE2
  3
*A160
350
273F2
  3
*A161
350
2925A
  3
*A162
350
35943
  3
*A163
350
32DE5
  3
*A164
350
3267C
  3
*A165
350
273F7
  3
*A166
350
2925C
  3
*A167
350
30D61
  3
*A168
350
32074
  3
*A169
350
30D65
  3
*A17
350
3506C
  3
*A170
350
275D7
  3
*A171
350
3206A
  3
*A172
350
35073
  3
*A173
350
32DF4
  3
*A174
350
32075
  3
*A175
350
2926A
  3
*A176
350
32076
  3
*A177
350
32DE7
  3
*A178
350
3206B
  3
*A179
350
27412
  3
*A18
350
329A5
  3
*A180
350
3331C
  3
*A181
350
273FC
  3
*A182
350
33AF8
  3
*A183
350
32077
  3
*A184
350
32DE3
  3
*A185
350
3266F
  3
*A186
350
32670
  3
*A187
350
290EE
  3
*A188
350
29246
  3
*A189
350
32DE6
  3
*A19
350
344A0
  3
*A190
350
29247
  3
*A191
350
32DE8
  3
*A192
350
3293D
  3
*A193
350
32947
  3
*A194
350
32671
  3
*A195
350
35075
  3
*A196
350
35947
  3
*A197
350
33AF9
  3
*A198
350
32951
  3
*A199
350
32956
  3
*A2
350
275D5
  3
*A20
350
344A1
  3
*A200
350
3206C
  3
*A201
350
2925D
  3
*A202
350
3295B
  3
*A203
350
32962
  3
*A204
350
32DE9
  3
*A205
350
33313
  3
*A206
350
3296C
  3
*A207
350
3296D
  3
*A208
350
32679
  3
*A209
350
3297C
  3
*A21
350
344A2
  3
*A210
350
3299D
  3
*A211
350
33AF7
  3
*A212
350
33AFA
  3
*A213
350
35076
  3
*A214
350
32672
  3
*A215
350
3299E
  3
*A216
350
3299F
  3
*A217
350
272AF
  3
*A218
350
329A0
  3
*A219
350
329A1
  3
*A22
350
3507B
  3
*A220
350
35070
  3
*A221
350
2925E
  3
*A222
350
2740E
  3
*A223
350
329A2
  3
*A224
350
33314
  3
*A225
350
329A3
  3
*A226
350
35D8C
  3
*A227
350
35D8D
  3
*A228
350
35D8E
  3
*A229
350
35D8F
  3
*A23
350
344A3
  3
*A230
350
32DEA
  3
*A231
350
35D90
  3
*A232
350
32DF2
  3
*A233
350
3206D
  3
*A234
350
35D91
  3
*A235
350
35D92
  3
*A236
350
35D93
  3
*A237
350
35D94
  3
*A238
350
32DEB
  3
*A239
350
32DEC
  3
*A24
350
3206F
  3
*A240
350
32DED
  3
*A241
350
35079
  3
*A242
350
329A4
  3
*A243
350
32DEE
  3
*A244
350
3206E
  3
*A245
350
35948
  3
*A246
350
33316
  3
*A247
350
33317
  3
*A248
350
32674
  3
*A249
350
33318
  3
*A25
350
344A4
  3
*A250
350
35071
  3
*A251
350
3408E
  3
*A252
350
34497
  3
*A253
350
34498
  3
*A254
350
34499
  3
*A26
350
344A5
  3
*A27
350
33AFE
  3
*A28
350
344A6
  3
*A29
350
3594A
  3
*A3
350
35077
  3
*A30
350
344A7
  3
*A31
350
275D8
  3
*A32
350
32676
  3
*A33
350
344A8
  3
*A34
350
29263
  3
*A35
350
35945
  3
*A36
350
3331A
  3
*A37
350
344A9
  3
*A38
350
27416
  3
*A39
350
344AA
  3
*A4
350
35949
  3
*A40
350
344AB
  3
*A41
350
3594B
  3
*A42
350
33311
  3
*A43
350
344AC
  3
*A44
350
329A6
  3
*A45
350
35067
  3
*A46
350
32070
  3
*A47
350
35068
  3
*A48
350
35069
  3
*A49
350
35534
  3
*A5
350
3449A
  3
*A50
350
35535
  3
*A51
350
275D6
  3
*A52
350
35536
  3
*A53
350
3372A
  3
*A54
350
35537
  3
*A55
350
3506A
  3
*A56
350
27417
  3
*A57
350
35074
  3
*A58
350
32DE0
  3
*A59
350
35538
  3
*A6
350
3507A
  3
*A60
350
35539
  3
*A61
350
3553A
  3
*A62
350
3553B
  3
*A63
350
3553C
  3
*A64
350
33312
  3
*A65
350
32DE4
  3
*A66
350
3553D
  3
*A67
350
3553E
  3
*A68
350
33AFB
  3
*A69
350
3553F
  3
*A7
350
3449B
  3
*A70
350
3331D
  3
*A71
350
32DE1
  3
*A72
350
33AFF
  3
*A73
350
3331B
  3
*A74
350
35540
  3
*A75
350
35541
  3
*A76
350
35542
  3
*A77
350
3594C
  3
*A78
350
35543
  3
*A79
350
32673
  3
*A8
350
3449C
  3
*A80
350
35544
  3
*A81
350
35545
  3
*A82
350
32678
  3
*A83
350
35546
  3
*A84
350
3594D
  3
*A85
350
3594E
  3
*A86
350
3594F
  3
*A87
350
33B8D
  3
*A88
350
35547
  3
*A89
350
35950
  3
*A9
350
3449D
  3
*A90
350
32071
  3
*A91
350
3267A
  3
*A92
350
35951
  3
*A93
350
3506D
  3
*A94
350
35952
  3
*A95
350
33AFC
  3
*A96
350
35953
  3
*A97
350
35954
  3
*A98
350
35955
  3
*A99
350
3372B
  0
DICTIONARY
  5
11755
102
{ACAD_REACTORS
330
7471
102
}
330
7471
100
AcDbDictionary
281
     1
  3
Model
350
11757
  3
レイアウト1
350
11758
  0
DICTIONARY
  5
11753
102
{ACAD_REACTORS
330
7471
102
}
330
7471
100
AcDbDictionary
281
     1
  0
DICTIONARY
  5
7473
102
{ACAD_REACTORS
330
7471
102
}
330
7471
100
AcDbDictionary
281
     1
  3
STANDARD
350
7480
  0
DICTIONARY
  5
11756
102
{ACAD_REACTORS
330
7471
102
}
330
7471
100
AcDbDictionary
281
     1
  0
ACDBDICTIONARYWDFLT
  5
11751
102
{ACAD_REACTORS
330
7471
102
}
330
7471
100
AcDbDictionary
281
     1
  3
Normal
350
11752
100
AcDbDictionaryWithDefault
340
11752
  0
DICTIONARY
  5
35F58
102
{ACAD_REACTORS
330
7471
102
}
330
7471
100
AcDbDictionary
281
     1
  3
COLORDICT
350
35F5A
  3
MATERIALDICT
350
35F59
  0
DICTIONARY
  5
35F54
102
{ACAD_REACTORS
330
7471
102
}
330
7471
100
AcDbDictionary
281
     1
  3
DIMASSOC
350
35F55
  3
PROJECTNAME
350
35F56
  0
DICTIONARY
  5
E71C
102
{ACAD_REACTORS
330
7471
102
}
330
7471
100
AcDbDictionary
281
     1
  0
DICTIONARY
  5
F3B9
102
{ACAD_REACTORS
330
7471
102
}
330
7471
100
AcDbDictionary
281
     1
1001
DRAWINGVARIABLESXDATA
1000
POLARMODE
1000
1
  0
DICTIONARY
  5
135F4
102
{ACAD_REACTORS
330
11827
102
}
330
11827
100
AcDbDictionary
281
     1
  0
DICTIONARY
  5
11828
102
{ACAD_REACTORS
330
11827
102
}
330
11827
100
AcDbDictionary
281
     1
  0
GROUP
  5
154E2
102
{ACAD_REACTORS
330
7472
102
}
330
7472
100
AcDbGroup
300

 70
     1
 71
     1
  0
GROUP
  5
3449E
102
{ACAD_REACTORS
330
7472
102
}
330
7472
100
AcDbGroup
300

 70
     1
 71
     1
  0
GROUP
  5
33B5F
102
{ACAD_REACTORS
330
7472
102
}
330
7472
100
AcDbGroup
300

 70
     1
 71
     1
  0
GROUP
  5
32072
102
{ACAD_REACTORS
330
7472
102
}
330
7472
100
AcDbGroup
300

 70
     1
 71
     1
  0
GROUP
  5
35956
102
{ACAD_REACTORS
330
7472
102
}
330
7472
100
AcDbGroup
300

 70
     1
 71
     1
  0
GROUP
  5
33B8E
102
{ACAD_REACTORS
330
7472
102
}
330
7472
100
AcDbGroup
300

 70
     1
 71
     1
  0
GROUP
  5
3372C
102
{ACAD_REACTORS
330
7472
102
}
330
7472
100
AcDbGroup
300

 70
     1
 71
     1
  0
GROUP
  5
3372D
102
{ACAD_REACTORS
330
7472
102
}
330
7472
100
AcDbGroup
300

 70
     1
 71
     1
  0
GROUP
  5
32DEF
102
{ACAD_REACTORS
330
7472
102
}
330
7472
100
AcDbGroup
300

 70
     1
 71
     1
  0
GROUP
  5
3267B
102
{ACAD_REACTORS
330
7472
102
}
330
7472
100
AcDbGroup
300

 70
     1
 71
     1
  0
GROUP
  5
2925F
102
{ACAD_REACTORS
330
7472
102
}
330
7472
100
AcDbGroup
300

 70
     1
 71
     1
  0
GROUP
  5
3506E
102
{ACAD_REACTORS
330
7472
102
}
330
7472
100
AcDbGroup
300

 70
     1
 71
     1
  0
GROUP
  5
33AFD
102
{ACAD_REACTORS
330
7472
102
}
330
7472
100
AcDbGroup
300

 70
     1
 71
     1
  0
GROUP
  5
3372E
102
{ACAD_REACTORS
330
7472
102
}
330
7472
100
AcDbGroup
300

 70
     1
 71
     1
  0
GROUP
  5
3372F
102
{ACAD_REACTORS
330
7472
102
}
330
7472
100
AcDbGroup
300

 70
     1
 71
     1
  0
GROUP
  5
35944
102
{ACAD_REACTORS
330
7472
102
}
330
7472
100
AcDbGroup
300

 70
     1
 71
     1
  0
GROUP
  5
32DF1
102
{ACAD_REACTORS
330
7472
102
}
330
7472
100
AcDbGroup
300

 70
     1
 71
     1
  0
GROUP
  5
35548
102
{ACAD_REACTORS
330
7472
102
}
330
7472
100
AcDbGroup
300

 70
     1
 71
     1
  0
GROUP
  5
33730
102
{ACAD_REACTORS
330
7472
102
}
330
7472
100
AcDbGroup
300

 70
     1
 71
     1
  0
GROUP
  5
2926B
102
{ACAD_REACTORS
330
7472
102
}
330
7472
100
AcDbGroup
300

 70
     1
 71
     1
  0
GROUP
  5
33731
102
{ACAD_REACTORS
330
7472
102
}
330
7472
100
AcDbGroup
300

 70
     1
 71
     1
  0
GROUP
  5
33B8F
102
{ACAD_REACTORS
330
7472
102
}
330
7472
100
AcDbGroup
300

 70
     1
 71
     1
  0
GROUP
  5
33732
102
{ACAD_REACTORS
330
7472
102
}
330
7472
100
AcDbGroup
300

 70
     1
 71
     1
  0
GROUP
  5
32675
102
{ACAD_REACTORS
330
7472
102
}
330
7472
100
AcDbGroup
300

 70
     1
 71
     1
  0
GROUP
  5
33733
102
{ACAD_REACTORS
330
7472
102
}
330
7472
100
AcDbGroup
300

 70
     1
 71
     1
  0
GROUP
  5
33734
102
{ACAD_REACTORS
330
7472
102
}
330
7472
100
AcDbGroup
300

 70
     1
 71
     1
  0
GROUP
  5
33315
102
{ACAD_REACTORS
330
7472
102
}
330
7472
100
AcDbGroup
300

 70
     1
 71
     1
  0
GROUP
  5
33735
102
{ACAD_REACTORS
330
7472
102
}
330
7472
100
AcDbGroup
300

 70
     1
 71
     1
  0
GROUP
  5
33310
102
{ACAD_REACTORS
330
7472
102
}
330
7472
100
AcDbGroup
300

 70
     1
 71
     1
  0
GROUP
  5
33736
102
{ACAD_REACTORS
330
7472
102
}
330
7472
100
AcDbGroup
300

 70
     1
 71
     1
  0
GROUP
  5
3506B
102
{ACAD_REACTORS
330
7472
102
}
330
7472
100
AcDbGroup
300

 70
     1
 71
     1
  0
GROUP
  5
3506F
102
{ACAD_REACTORS
330
7472
102
}
330
7472
100
AcDbGroup
300

 70
     1
 71
     1
  0
GROUP
  5
290DD
102
{ACAD_REACTORS
330
7472
102
}
330
7472
100
AcDbGroup
300

 70
     1
 71
     1
  0
GROUP
  5
32DF0
102
{ACAD_REACTORS
330
7472
102
}
330
7472
100
AcDbGroup
300

 70
     1
 71
     1
  0
GROUP
  5
2925B
102
{ACAD_REACTORS
330
7472
102
}
330
7472
100
AcDbGroup
300

 70
     1
 71
     1
  0
GROUP
  5
33737
102
{ACAD_REACTORS
330
7472
102
}
330
7472
100
AcDbGroup
300

 70
     1
 71
     1
  0
GROUP
  5
33738
102
{ACAD_REACTORS
330
7472
102
}
330
7472
100
AcDbGroup
300

 70
     1
 71
     1
  0
GROUP
  5
35072
102
{ACAD_REACTORS
330
7472
102
}
330
7472
100
AcDbGroup
300

 70
     1
 71
     1
  0
GROUP
  5
33739
102
{ACAD_REACTORS
330
7472
102
}
330
7472
100
AcDbGroup
300

 70
     1
 71
     1
  0
GROUP
  5
3373A
102
{ACAD_REACTORS
330
7472
102
}
330
7472
100
AcDbGroup
300

 70
     1
 71
     1
  0
GROUP
  5
15535
102
{ACAD_REACTORS
330
7472
102
}
330
7472
100
AcDbGroup
300

 70
     1
 71
     1
  0
GROUP
  5
24FDC
102
{ACAD_REACTORS
330
7472
102
}
330
7472
100
AcDbGroup
300

 70
     1
 71
     1
  0
GROUP
  5
24FE6
102
{ACAD_REACTORS
330
7472
102
}
330
7472
100
AcDbGroup
300

 70
     1
 71
     1
  0
GROUP
  5
33729
102
{ACAD_REACTORS
330
7472
102
}
330
7472
100
AcDbGroup
300

 70
     1
 71
     1
  0
GROUP
  5
3373B
102
{ACAD_REACTORS
330
7472
102
}
330
7472
100
AcDbGroup
300

 70
     1
 71
     1
  0
GROUP
  5
33319
102
{ACAD_REACTORS
330
7472
102
}
330
7472
100
AcDbGroup
300

 70
     1
 71
     1
  0
GROUP
  5
3373C
102
{ACAD_REACTORS
330
7472
102
}
330
7472
100
AcDbGroup
300

 70
     1
 71
     1
  0
GROUP
  5
3373D
102
{ACAD_REACTORS
330
7472
102
}
330
7472
100
AcDbGroup
300

 70
     1
 71
     1
  0
GROUP
  5
33B90
102
{ACAD_REACTORS
330
7472
102
}
330
7472
100
AcDbGroup
300

 70
     1
 71
     1
  0
GROUP
  5
33B91
102
{ACAD_REACTORS
330
7472
102
}
330
7472
100
AcDbGroup
300

 70
     1
 71
     1
  0
GROUP
  5
33B92
102
{ACAD_REACTORS
330
7472
102
}
330
7472
100
AcDbGroup
300

 70
     1
 71
     1
  0
GROUP
  5
27401
102
{ACAD_REACTORS
330
7472
102
}
330
7472
100
AcDbGroup
300

 70
     1
 71
     1
  0
GROUP
  5
32073
102
{ACAD_REACTORS
330
7472
102
}
330
7472
100
AcDbGroup
300

 70
     1
 71
     1
  0
GROUP
  5
275D4
102
{ACAD_REACTORS
330
7472
102
}
330
7472
100
AcDbGroup
300

 70
     1
 71
     1
  0
GROUP
  5
33AF6
102
{ACAD_REACTORS
330
7472
102
}
330
7472
100
AcDbGroup
300

 70
     1
 71
     1
  0
GROUP
  5
35078
102
{ACAD_REACTORS
330
7472
102
}
330
7472
100
AcDbGroup
300

 70
     1
 71
     1
  0
GROUP
  5
3449F
102
{ACAD_REACTORS
330
7472
102
}
330
7472
100
AcDbGroup
300

 70
     1
 71
     1
  0
GROUP
  5
35942
102
{ACAD_REACTORS
330
7472
102
}
330
7472
100
AcDbGroup
300

 70
     1
 71
     1
  0
GROUP
  5
33B93
102
{ACAD_REACTORS
330
7472
102
}
330
7472
100
AcDbGroup
300

 70
     1
 71
     1
  0
GROUP
  5
33B94
102
{ACAD_REACTORS
330
7472
102
}
330
7472
100
AcDbGroup
300

 70
     1
 71
     1
  0
GROUP
  5
33B95
102
{ACAD_REACTORS
330
7472
102
}
330
7472
100
AcDbGroup
300

 70
     1
 71
     1
  0
GROUP
  5
32DF3
102
{ACAD_REACTORS
330
7472
102
}
330
7472
100
AcDbGroup
300

 70
     1
 71
     1
  0
GROUP
  5
33B96
102
{ACAD_REACTORS
330
7472
102
}
330
7472
100
AcDbGroup
300

 70
     1
 71
     1
  0
GROUP
  5
32677
102
{ACAD_REACTORS
330
7472
102
}
330
7472
100
AcDbGroup
300

 70
     1
 71
     1
  0
GROUP
  5
35946
102
{ACAD_REACTORS
330
7472
102
}
330
7472
100
AcDbGroup
300

 70
     1
 71
     1
  0
GROUP
  5
272B4
102
{ACAD_REACTORS
330
7472
102
}
330
7472
100
AcDbGroup
300

 70
     1
 71
     1
  0
GROUP
  5
273ED
102
{ACAD_REACTORS
330
7472
102
}
330
7472
100
AcDbGroup
300

 70
     1
 71
     1
  0
GROUP
  5
32DE2
102
{ACAD_REACTORS
330
7472
102
}
330
7472
100
AcDbGroup
300

 70
     1
 71
     1
  0
GROUP
  5
273F2
102
{ACAD_REACTORS
330
7472
102
}
330
7472
100
AcDbGroup
300

 70
     1
 71
     1
  0
GROUP
  5
2925A
102
{ACAD_REACTORS
330
7472
102
}
330
7472
100
AcDbGroup
300

 70
     1
 71
     1
  0
GROUP
  5
35943
102
{ACAD_REACTORS
330
7472
102
}
330
7472
100
AcDbGroup
300

 70
     1
 71
     1
  0
GROUP
  5
32DE5
102
{ACAD_REACTORS
330
7472
102
}
330
7472
100
AcDbGroup
300

 70
     1
 71
     1
  0
GROUP
  5
3267C
102
{ACAD_REACTORS
330
7472
102
}
330
7472
100
AcDbGroup
300

 70
     1
 71
     1
  0
GROUP
  5
273F7
102
{ACAD_REACTORS
330
7472
102
}
330
7472
100
AcDbGroup
300

 70
     1
 71
     1
  0
GROUP
  5
2925C
102
{ACAD_REACTORS
330
7472
102
}
330
7472
100
AcDbGroup
300

 70
     1
 71
     1
  0
GROUP
  5
30D61
102
{ACAD_REACTORS
330
7472
102
}
330
7472
100
AcDbGroup
300

 70
     1
 71
     1
  0
GROUP
  5
32074
102
{ACAD_REACTORS
330
7472
102
}
330
7472
100
AcDbGroup
300

 70
     1
 71
     1
  0
GROUP
  5
30D65
102
{ACAD_REACTORS
330
7472
102
}
330
7472
100
AcDbGroup
300

 70
     1
 71
     1
  0
GROUP
  5
3506C
102
{ACAD_REACTORS
330
7472
102
}
330
7472
100
AcDbGroup
300

 70
     1
 71
     1
  0
GROUP
  5
275D7
102
{ACAD_REACTORS
330
7472
102
}
330
7472
100
AcDbGroup
300

 70
     1
 71
     1
  0
GROUP
  5
3206A
102
{ACAD_REACTORS
330
7472
102
}
330
7472
100
AcDbGroup
300

 70
     1
 71
     1
  0
GROUP
  5
35073
102
{ACAD_REACTORS
330
7472
102
}
330
7472
100
AcDbGroup
300

 70
     1
 71
     1
  0
GROUP
  5
32DF4
102
{ACAD_REACTORS
330
7472
102
}
330
7472
100
AcDbGroup
300

 70
     1
 71
     1
  0
GROUP
  5
32075
102
{ACAD_REACTORS
330
7472
102
}
330
7472
100
AcDbGroup
300

 70
     1
 71
     1
  0
GROUP
  5
2926A
102
{ACAD_REACTORS
330
7472
102
}
330
7472
100
AcDbGroup
300

 70
     1
 71
     1
  0
GROUP
  5
32076
102
{ACAD_REACTORS
330
7472
102
}
330
7472
100
AcDbGroup
300

 70
     1
 71
     1
  0
GROUP
  5
32DE7
102
{ACAD_REACTORS
330
7472
102
}
330
7472
100
AcDbGroup
300

 70
     1
 71
     1
  0
GROUP
  5
3206B
102
{ACAD_REACTORS
330
7472
102
}
330
7472
100
AcDbGroup
300

 70
     1
 71
     1
  0
GROUP
  5
27412
102
{ACAD_REACTORS
330
7472
102
}
330
7472
100
AcDbGroup
300

 70
     1
 71
     1
  0
GROUP
  5
329A5
102
{ACAD_REACTORS
330
7472
102
}
330
7472
100
AcDbGroup
300

 70
     1
 71
     1
  0
GROUP
  5
3331C
102
{ACAD_REACTORS
330
7472
102
}
330
7472
100
AcDbGroup
300

 70
     1
 71
     1
  0
GROUP
  5
273FC
102
{ACAD_REACTORS
330
7472
102
}
330
7472
100
AcDbGroup
300

 70
     1
 71
     1
  0
GROUP
  5
33AF8
102
{ACAD_REACTORS
330
7472
102
}
330
7472
100
AcDbGroup
300

 70
     1
 71
     1
  0
GROUP
  5
32077
102
{ACAD_REACTORS
330
7472
102
}
330
7472
100
AcDbGroup
300

 70
     1
 71
     1
  0
GROUP
  5
32DE3
102
{ACAD_REACTORS
330
7472
102
}
330
7472
100
AcDbGroup
300

 70
     1
 71
     1
  0
GROUP
  5
3266F
102
{ACAD_REACTORS
330
7472
102
}
330
7472
100
AcDbGroup
300

 70
     1
 71
     1
  0
GROUP
  5
32670
102
{ACAD_REACTORS
330
7472
102
}
330
7472
100
AcDbGroup
300

 70
     1
 71
     1
  0
GROUP
  5
290EE
102
{ACAD_REACTORS
330
7472
102
}
330
7472
100
AcDbGroup
300

 70
     1
 71
     1
  0
GROUP
  5
29246
102
{ACAD_REACTORS
330
7472
102
}
330
7472
100
AcDbGroup
300

 70
     1
 71
     1
  0
GROUP
  5
32DE6
102
{ACAD_REACTORS
330
7472
102
}
330
7472
100
AcDbGroup
300

 70
     1
 71
     1
  0
GROUP
  5
344A0
102
{ACAD_REACTORS
330
7472
102
}
330
7472
100
AcDbGroup
300

 70
     1
 71
     1
  0
GROUP
  5
29247
102
{ACAD_REACTORS
330
7472
102
}
330
7472
100
AcDbGroup
300

 70
     1
 71
     1
  0
GROUP
  5
32DE8
102
{ACAD_REACTORS
330
7472
102
}
330
7472
100
AcDbGroup
300

 70
     1
 71
     1
  0
GROUP
  5
3293D
102
{ACAD_REACTORS
330
7472
102
}
330
7472
100
AcDbGroup
300

 70
     1
 71
     1
  0
GROUP
  5
32947
102
{ACAD_REACTORS
330
7472
102
}
330
7472
100
AcDbGroup
300

 70
     1
 71
     1
  0
GROUP
  5
32671
102
{ACAD_REACTORS
330
7472
102
}
330
7472
100
AcDbGroup
300

 70
     1
 71
     1
  0
GROUP
  5
35075
102
{ACAD_REACTORS
330
7472
102
}
330
7472
100
AcDbGroup
300

 70
     1
 71
     1
  0
GROUP
  5
35947
102
{ACAD_REACTORS
330
7472
102
}
330
7472
100
AcDbGroup
300

 70
     1
 71
     1
  0
GROUP
  5
33AF9
102
{ACAD_REACTORS
330
7472
102
}
330
7472
100
AcDbGroup
300

 70
     1
 71
     1
  0
GROUP
  5
32951
102
{ACAD_REACTORS
330
7472
102
}
330
7472
100
AcDbGroup
300

 70
     1
 71
     1
  0
GROUP
  5
32956
102
{ACAD_REACTORS
330
7472
102
}
330
7472
100
AcDbGroup
300

 70
     1
 71
     1
  0
GROUP
  5
275D5
102
{ACAD_REACTORS
330
7472
102
}
330
7472
100
AcDbGroup
300

 70
     1
 71
     1
  0
GROUP
  5
344A1
102
{ACAD_REACTORS
330
7472
102
}
330
7472
100
AcDbGroup
300

 70
     1
 71
     1
  0
GROUP
  5
3206C
102
{ACAD_REACTORS
330
7472
102
}
330
7472
100
AcDbGroup
300

 70
     1
 71
     1
  0
GROUP
  5
2925D
102
{ACAD_REACTORS
330
7472
102
}
330
7472
100
AcDbGroup
300

 70
     1
 71
     1
  0
GROUP
  5
3295B
102
{ACAD_REACTORS
330
7472
102
}
330
7472
100
AcDbGroup
300

 70
     1
 71
     1
  0
GROUP
  5
32962
102
{ACAD_REACTORS
330
7472
102
}
330
7472
100
AcDbGroup
300

 70
     1
 71
     1
  0
GROUP
  5
32DE9
102
{ACAD_REACTORS
330
7472
102
}
330
7472
100
AcDbGroup
300

 70
     1
 71
     1
  0
GROUP
  5
33313
102
{ACAD_REACTORS
330
7472
102
}
330
7472
100
AcDbGroup
300

 70
     1
 71
     1
  0
GROUP
  5
3296C
102
{ACAD_REACTORS
330
7472
102
}
330
7472
100
AcDbGroup
300

 70
     1
 71
     1
  0
GROUP
  5
3296D
102
{ACAD_REACTORS
330
7472
102
}
330
7472
100
AcDbGroup
300

 70
     1
 71
     1
  0
GROUP
  5
32679
102
{ACAD_REACTORS
330
7472
102
}
330
7472
100
AcDbGroup
300

 70
     1
 71
     1
  0
GROUP
  5
3297C
102
{ACAD_REACTORS
330
7472
102
}
330
7472
100
AcDbGroup
300

 70
     1
 71
     1
  0
GROUP
  5
344A2
102
{ACAD_REACTORS
330
7472
102
}
330
7472
100
AcDbGroup
300

 70
     1
 71
     1
  0
GROUP
  5
3299D
102
{ACAD_REACTORS
330
7472
102
}
330
7472
100
AcDbGroup
300

 70
     1
 71
     1
  0
GROUP
  5
33AF7
102
{ACAD_REACTORS
330
7472
102
}
330
7472
100
AcDbGroup
300

 70
     1
 71
     1
  0
GROUP
  5
33AFA
102
{ACAD_REACTORS
330
7472
102
}
330
7472
100
AcDbGroup
300

 70
     1
 71
     1
  0
GROUP
  5
35076
102
{ACAD_REACTORS
330
7472
102
}
330
7472
100
AcDbGroup
300

 70
     1
 71
     1
  0
GROUP
  5
32672
102
{ACAD_REACTORS
330
7472
102
}
330
7472
100
AcDbGroup
300

 70
     1
 71
     1
  0
GROUP
  5
3299E
102
{ACAD_REACTORS
330
7472
102
}
330
7472
100
AcDbGroup
300

 70
     1
 71
     1
  0
GROUP
  5
3299F
102
{ACAD_REACTORS
330
7472
102
}
330
7472
100
AcDbGroup
300

 70
     1
 71
     1
  0
GROUP
  5
272AF
102
{ACAD_REACTORS
330
7472
102
}
330
7472
100
AcDbGroup
300

 70
     1
 71
     1
  0
GROUP
  5
329A0
102
{ACAD_REACTORS
330
7472
102
}
330
7472
100
AcDbGroup
300

 70
     1
 71
     1
  0
GROUP
  5
329A1
102
{ACAD_REACTORS
330
7472
102
}
330
7472
100
AcDbGroup
300

 70
     1
 71
     1
  0
GROUP
  5
3507B
102
{ACAD_REACTORS
330
7472
102
}
330
7472
100
AcDbGroup
300

 70
     1
 71
     1
  0
GROUP
  5
35070
102
{ACAD_REACTORS
330
7472
102
}
330
7472
100
AcDbGroup
300

 70
     1
 71
     1
  0
GROUP
  5
2925E
102
{ACAD_REACTORS
330
7472
102
}
330
7472
100
AcDbGroup
300

 70
     1
 71
     1
  0
GROUP
  5
2740E
102
{ACAD_REACTORS
330
7472
102
}
330
7472
100
AcDbGroup
300

 70
     1
 71
     1
  0
GROUP
  5
329A2
102
{ACAD_REACTORS
330
7472
102
}
330
7472
100
AcDbGroup
300

 70
     1
 71
     1
  0
GROUP
  5
33314
102
{ACAD_REACTORS
330
7472
102
}
330
7472
100
AcDbGroup
300

 70
     1
 71
     1
  0
GROUP
  5
329A3
102
{ACAD_REACTORS
330
7472
102
}
330
7472
100
AcDbGroup
300

 70
     1
 71
     1
  0
GROUP
  5
35D8C
102
{ACAD_REACTORS
330
7472
102
}
330
7472
100
AcDbGroup
300

 70
     1
 71
     1
340
35CBD
340
35CBC
340
35CBE
340
35CBF
  0
GROUP
  5
35D8D
102
{ACAD_REACTORS
330
7472
102
}
330
7472
100
AcDbGroup
300

 70
     1
 71
     1
340
35CB9
340
35CB8
340
35CBA
340
35CBB
  0
GROUP
  5
35D8E
102
{ACAD_REACTORS
330
7472
102
}
330
7472
100
AcDbGroup
300

 70
     1
 71
     1
340
35CB4
340
35CB5
340
35CB6
340
35CB7
  0
GROUP
  5
35D8F
102
{ACAD_REACTORS
330
7472
102
}
330
7472
100
AcDbGroup
300

 70
     1
 71
     1
340
35CB1
340
35CB0
340
35CB2
340
35CB3
  0
GROUP
  5
344A3
102
{ACAD_REACTORS
330
7472
102
}
330
7472
100
AcDbGroup
300

 70
     1
 71
     1
  0
GROUP
  5
32DEA
102
{ACAD_REACTORS
330
7472
102
}
330
7472
100
AcDbGroup
300

 70
     1
 71
     1
  0
GROUP
  5
35D90
102
{ACAD_REACTORS
330
7472
102
}
330
7472
100
AcDbGroup
300

 70
     1
 71
     1
340
35CA9
340
35CAA
340
35CAB
340
35CAC
340
35CA8
340
35CAD
340
35CAE
340
35CAF
  0
GROUP
  5
32DF2
102
{ACAD_REACTORS
330
7472
102
}
330
7472
100
AcDbGroup
300

 70
     1
 71
     1
  0
GROUP
  5
3206D
102
{ACAD_REACTORS
330
7472
102
}
330
7472
100
AcDbGroup
300

 70
     1
 71
     1
  0
GROUP
  5
35D91
102
{ACAD_REACTORS
330
7472
102
}
330
7472
100
AcDbGroup
300

 70
     1
 71
     1
340
35CAB
340
35CAC
340
35CA8
  0
GROUP
  5
35D92
102
{ACAD_REACTORS
330
7472
102
}
330
7472
100
AcDbGroup
300

 70
     1
 71
     1
340
35CA3
340
35CA4
340
35CA1
340
35CA2
340
35CA0
340
35CA5
340
35CA6
340
35CA7
  0
GROUP
  5
35D93
102
{ACAD_REACTORS
330
7472
102
}
330
7472
100
AcDbGroup
300

 70
     1
 71
     1
340
35CA1
340
35CA2
340
35CA0
  0
GROUP
  5
35D94
102
{ACAD_REACTORS
330
7472
102
}
330
7472
100
AcDbGroup
300

 70
     1
 71
     1
340
35C98
340
35C99
340
35C9A
340
35C9B
340
35C9C
340
35C9D
340
35C9E
340
35C97
340
35C9F
  0
GROUP
  5
32DEB
102
{ACAD_REACTORS
330
7472
102
}
330
7472
100
AcDbGroup
300

 70
     1
 71
     1
  0
GROUP
  5
32DEC
102
{ACAD_REACTORS
330
7472
102
}
330
7472
100
AcDbGroup
300

 70
     1
 71
     1
  0
GROUP
  5
3206F
102
{ACAD_REACTORS
330
7472
102
}
330
7472
100
AcDbGroup
300

 70
     1
 71
     1
  0
GROUP
  5
32DED
102
{ACAD_REACTORS
330
7472
102
}
330
7472
100
AcDbGroup
300

 70
     1
 71
     1
  0
GROUP
  5
35079
102
{ACAD_REACTORS
330
7472
102
}
330
7472
100
AcDbGroup
300

 70
     1
 71
     1
  0
GROUP
  5
329A4
102
{ACAD_REACTORS
330
7472
102
}
330
7472
100
AcDbGroup
300

 70
     1
 71
     1
  0
GROUP
  5
32DEE
102
{ACAD_REACTORS
330
7472
102
}
330
7472
100
AcDbGroup
300

 70
     1
 71
     1
  0
GROUP
  5
3206E
102
{ACAD_REACTORS
330
7472
102
}
330
7472
100
AcDbGroup
300

 70
     1
 71
     1
  0
GROUP
  5
35948
102
{ACAD_REACTORS
330
7472
102
}
330
7472
100
AcDbGroup
300

 70
     1
 71
     1
  0
GROUP
  5
33316
102
{ACAD_REACTORS
330
7472
102
}
330
7472
100
AcDbGroup
300

 70
     1
 71
     1
  0
GROUP
  5
33317
102
{ACAD_REACTORS
330
7472
102
}
330
7472
100
AcDbGroup
300

 70
     1
 71
     1
  0
GROUP
  5
32674
102
{ACAD_REACTORS
330
7472
102
}
330
7472
100
AcDbGroup
300

 70
     1
 71
     1
  0
GROUP
  5
33318
102
{ACAD_REACTORS
330
7472
102
}
330
7472
100
AcDbGroup
300

 70
     1
 71
     1
  0
GROUP
  5
344A4
102
{ACAD_REACTORS
330
7472
102
}
330
7472
100
AcDbGroup
300

 70
     1
 71
     1
  0
GROUP
  5
35071
102
{ACAD_REACTORS
330
7472
102
}
330
7472
100
AcDbGroup
300

 70
     1
 71
     1
  0
GROUP
  5
3408E
102
{ACAD_REACTORS
330
7472
102
}
330
7472
100
AcDbGroup
300

 70
     1
 71
     1
  0
GROUP
  5
34497
102
{ACAD_REACTORS
330
7472
102
}
330
7472
100
AcDbGroup
300

 70
     1
 71
     1
  0
GROUP
  5
34498
102
{ACAD_REACTORS
330
7472
102
}
330
7472
100
AcDbGroup
300

 70
     1
 71
     1
  0
GROUP
  5
34499
102
{ACAD_REACTORS
330
7472
102
}
330
7472
100
AcDbGroup
300

 70
     1
 71
     1
  0
GROUP
  5
344A5
102
{ACAD_REACTORS
330
7472
102
}
330
7472
100
AcDbGroup
300

 70
     1
 71
     1
  0
GROUP
  5
33AFE
102
{ACAD_REACTORS
330
7472
102
}
330
7472
100
AcDbGroup
300

 70
     1
 71
     1
  0
GROUP
  5
344A6
102
{ACAD_REACTORS
330
7472
102
}
330
7472
100
AcDbGroup
300

 70
     1
 71
     1
  0
GROUP
  5
3594A
102
{ACAD_REACTORS
330
7472
102
}
330
7472
100
AcDbGroup
300

 70
     1
 71
     1
  0
GROUP
  5
35077
102
{ACAD_REACTORS
330
7472
102
}
330
7472
100
AcDbGroup
300

 70
     1
 71
     1
  0
GROUP
  5
344A7
102
{ACAD_REACTORS
330
7472
102
}
330
7472
100
AcDbGroup
300

 70
     1
 71
     1
  0
GROUP
  5
275D8
102
{ACAD_REACTORS
330
7472
102
}
330
7472
100
AcDbGroup
300

 70
     1
 71
     1
  0
GROUP
  5
32676
102
{ACAD_REACTORS
330
7472
102
}
330
7472
100
AcDbGroup
300

 70
     1
 71
     1
  0
GROUP
  5
344A8
102
{ACAD_REACTORS
330
7472
102
}
330
7472
100
AcDbGroup
300

 70
     1
 71
     1
  0
GROUP
  5
29263
102
{ACAD_REACTORS
330
7472
102
}
330
7472
100
AcDbGroup
300

 70
     1
 71
     1
  0
GROUP
  5
35945
102
{ACAD_REACTORS
330
7472
102
}
330
7472
100
AcDbGroup
300

 70
     1
 71
     1
  0
GROUP
  5
3331A
102
{ACAD_REACTORS
330
7472
102
}
330
7472
100
AcDbGroup
300

 70
     1
 71
     1
  0
GROUP
  5
344A9
102
{ACAD_REACTORS
330
7472
102
}
330
7472
100
AcDbGroup
300

 70
     1
 71
     1
  0
GROUP
  5
27416
102
{ACAD_REACTORS
330
7472
102
}
330
7472
100
AcDbGroup
300

 70
     1
 71
     1
  0
GROUP
  5
344AA
102
{ACAD_REACTORS
330
7472
102
}
330
7472
100
AcDbGroup
300

 70
     1
 71
     1
  0
GROUP
  5
35949
102
{ACAD_REACTORS
330
7472
102
}
330
7472
100
AcDbGroup
300

 70
     1
 71
     1
  0
GROUP
  5
344AB
102
{ACAD_REACTORS
330
7472
102
}
330
7472
100
AcDbGroup
300

 70
     1
 71
     1
  0
GROUP
  5
3594B
102
{ACAD_REACTORS
330
7472
102
}
330
7472
100
AcDbGroup
300

 70
     1
 71
     1
  0
GROUP
  5
33311
102
{ACAD_REACTORS
330
7472
102
}
330
7472
100
AcDbGroup
300

 70
     1
 71
     1
  0
GROUP
  5
344AC
102
{ACAD_REACTORS
330
7472
102
}
330
7472
100
AcDbGroup
300

 70
     1
 71
     1
  0
GROUP
  5
329A6
102
{ACAD_REACTORS
330
7472
102
}
330
7472
100
AcDbGroup
300

 70
     1
 71
     1
  0
GROUP
  5
35067
102
{ACAD_REACTORS
330
7472
102
}
330
7472
100
AcDbGroup
300

 70
     1
 71
     1
  0
GROUP
  5
32070
102
{ACAD_REACTORS
330
7472
102
}
330
7472
100
AcDbGroup
300

 70
     1
 71
     1
  0
GROUP
  5
35068
102
{ACAD_REACTORS
330
7472
102
}
330
7472
100
AcDbGroup
300

 70
     1
 71
     1
  0
GROUP
  5
35069
102
{ACAD_REACTORS
330
7472
102
}
330
7472
100
AcDbGroup
300

 70
     1
 71
     1
  0
GROUP
  5
35534
102
{ACAD_REACTORS
330
7472
102
}
330
7472
100
AcDbGroup
300

 70
     1
 71
     1
  0
GROUP
  5
3449A
102
{ACAD_REACTORS
330
7472
102
}
330
7472
100
AcDbGroup
300

 70
     1
 71
     1
  0
GROUP
  5
35535
102
{ACAD_REACTORS
330
7472
102
}
330
7472
100
AcDbGroup
300

 70
     1
 71
     1
  0
GROUP
  5
275D6
102
{ACAD_REACTORS
330
7472
102
}
330
7472
100
AcDbGroup
300

 70
     1
 71
     1
  0
GROUP
  5
35536
102
{ACAD_REACTORS
330
7472
102
}
330
7472
100
AcDbGroup
300

 70
     1
 71
     1
  0
GROUP
  5
3372A
102
{ACAD_REACTORS
330
7472
102
}
330
7472
100
AcDbGroup
300

 70
     1
 71
     1
  0
GROUP
  5
35537
102
{ACAD_REACTORS
330
7472
102
}
330
7472
100
AcDbGroup
300

 70
     1
 71
     1
  0
GROUP
  5
3506A
102
{ACAD_REACTORS
330
7472
102
}
330
7472
100
AcDbGroup
300

 70
     1
 71
     1
  0
GROUP
  5
27417
102
{ACAD_REACTORS
330
7472
102
}
330
7472
100
AcDbGroup
300

 70
     1
 71
     1
  0
GROUP
  5
35074
102
{ACAD_REACTORS
330
7472
102
}
330
7472
100
AcDbGroup
300

 70
     1
 71
     1
  0
GROUP
  5
32DE0
102
{ACAD_REACTORS
330
7472
102
}
330
7472
100
AcDbGroup
300

 70
     1
 71
     1
  0
GROUP
  5
35538
102
{ACAD_REACTORS
330
7472
102
}
330
7472
100
AcDbGroup
300

 70
     1
 71
     1
  0
GROUP
  5
3507A
102
{ACAD_REACTORS
330
7472
102
}
330
7472
100
AcDbGroup
300

 70
     1
 71
     1
  0
GROUP
  5
35539
102
{ACAD_REACTORS
330
7472
102
}
330
7472
100
AcDbGroup
300

 70
     1
 71
     1
  0
GROUP
  5
3553A
102
{ACAD_REACTORS
330
7472
102
}
330
7472
100
AcDbGroup
300

 70
     1
 71
     1
  0
GROUP
  5
3553B
102
{ACAD_REACTORS
330
7472
102
}
330
7472
100
AcDbGroup
300

 70
     1
 71
     1
  0
GROUP
  5
3553C
102
{ACAD_REACTORS
330
7472
102
}
330
7472
100
AcDbGroup
300

 70
     1
 71
     1
  0
GROUP
  5
33312
102
{ACAD_REACTORS
330
7472
102
}
330
7472
100
AcDbGroup
300

 70
     1
 71
     1
  0
GROUP
  5
32DE4
102
{ACAD_REACTORS
330
7472
102
}
330
7472
100
AcDbGroup
300

 70
     1
 71
     1
  0
GROUP
  5
3553D
102
{ACAD_REACTORS
330
7472
102
}
330
7472
100
AcDbGroup
300

 70
     1
 71
     1
  0
GROUP
  5
3553E
102
{ACAD_REACTORS
330
7472
102
}
330
7472
100
AcDbGroup
300

 70
     1
 71
     1
  0
GROUP
  5
33AFB
102
{ACAD_REACTORS
330
7472
102
}
330
7472
100
AcDbGroup
300

 70
     1
 71
     1
  0
GROUP
  5
3553F
102
{ACAD_REACTORS
330
7472
102
}
330
7472
100
AcDbGroup
300

 70
     1
 71
     1
  0
GROUP
  5
3449B
102
{ACAD_REACTORS
330
7472
102
}
330
7472
100
AcDbGroup
300

 70
     1
 71
     1
  0
GROUP
  5
3331D
102
{ACAD_REACTORS
330
7472
102
}
330
7472
100
AcDbGroup
300

 70
     1
 71
     1
  0
GROUP
  5
32DE1
102
{ACAD_REACTORS
330
7472
102
}
330
7472
100
AcDbGroup
300

 70
     1
 71
     1
  0
GROUP
  5
33AFF
102
{ACAD_REACTORS
330
7472
102
}
330
7472
100
AcDbGroup
300

 70
     1
 71
     1
  0
GROUP
  5
3331B
102
{ACAD_REACTORS
330
7472
102
}
330
7472
100
AcDbGroup
300

 70
     1
 71
     1
  0
GROUP
  5
35540
102
{ACAD_REACTORS
330
7472
102
}
330
7472
100
AcDbGroup
300

 70
     1
 71
     1
  0
GROUP
  5
35541
102
{ACAD_REACTORS
330
7472
102
}
330
7472
100
AcDbGroup
300

 70
     1
 71
     1
  0
GROUP
  5
35542
102
{ACAD_REACTORS
330
7472
102
}
330
7472
100
AcDbGroup
300

 70
     1
 71
     1
  0
GROUP
  5
3594C
102
{ACAD_REACTORS
330
7472
102
}
330
7472
100
AcDbGroup
300

 70
     1
 71
     1
  0
GROUP
  5
35543
102
{ACAD_REACTORS
330
7472
102
}
330
7472
100
AcDbGroup
300

 70
     1
 71
     1
  0
GROUP
  5
32673
102
{ACAD_REACTORS
330
7472
102
}
330
7472
100
AcDbGroup
300

 70
     1
 71
     1
  0
GROUP
  5
3449C
102
{ACAD_REACTORS
330
7472
102
}
330
7472
100
AcDbGroup
300

 70
     1
 71
     1
  0
GROUP
  5
35544
102
{ACAD_REACTORS
330
7472
102
}
330
7472
100
AcDbGroup
300

 70
     1
 71
     1
  0
GROUP
  5
35545
102
{ACAD_REACTORS
330
7472
102
}
330
7472
100
AcDbGroup
300

 70
     1
 71
     1
  0
GROUP
  5
32678
102
{ACAD_REACTORS
330
7472
102
}
330
7472
100
AcDbGroup
300

 70
     1
 71
     1
  0
GROUP
  5
35546
102
{ACAD_REACTORS
330
7472
102
}
330
7472
100
AcDbGroup
300

 70
     1
 71
     1
  0
GROUP
  5
3594D
102
{ACAD_REACTORS
330
7472
102
}
330
7472
100
AcDbGroup
300

 70
     1
 71
     1
  0
GROUP
  5
3594E
102
{ACAD_REACTORS
330
7472
102
}
330
7472
100
AcDbGroup
300

 70
     1
 71
     1
  0
GROUP
  5
3594F
102
{ACAD_REACTORS
330
7472
102
}
330
7472
100
AcDbGroup
300

 70
     1
 71
     1
  0
GROUP
  5
33B8D
102
{ACAD_REACTORS
330
7472
102
}
330
7472
100
AcDbGroup
300

 70
     1
 71
     1
  0
GROUP
  5
35547
102
{ACAD_REACTORS
330
7472
102
}
330
7472
100
AcDbGroup
300

 70
     1
 71
     1
  0
GROUP
  5
35950
102
{ACAD_REACTORS
330
7472
102
}
330
7472
100
AcDbGroup
300

 70
     1
 71
     1
  0
GROUP
  5
3449D
102
{ACAD_REACTORS
330
7472
102
}
330
7472
100
AcDbGroup
300

 70
     1
 71
     1
  0
GROUP
  5
32071
102
{ACAD_REACTORS
330
7472
102
}
330
7472
100
AcDbGroup
300

 70
     1
 71
     1
  0
GROUP
  5
3267A
102
{ACAD_REACTORS
330
7472
102
}
330
7472
100
AcDbGroup
300

 70
     1
 71
     1
  0
GROUP
  5
35951
102
{ACAD_REACTORS
330
7472
102
}
330
7472
100
AcDbGroup
300

 70
     1
 71
     1
  0
GROUP
  5
3506D
102
{ACAD_REACTORS
330
7472
102
}
330
7472
100
AcDbGroup
300

 70
     1
 71
     1
  0
GROUP
  5
35952
102
{ACAD_REACTORS
330
7472
102
}
330
7472
100
AcDbGroup
300

 70
     1
 71
     1
  0
GROUP
  5
33AFC
102
{ACAD_REACTORS
330
7472
102
}
330
7472
100
AcDbGroup
300

 70
     1
 71
     1
  0
GROUP
  5
35953
102
{ACAD_REACTORS
330
7472
102
}
330
7472
100
AcDbGroup
300

 70
     1
 71
     1
  0
GROUP
  5
35954
102
{ACAD_REACTORS
330
7472
102
}
330
7472
100
AcDbGroup
300

 70
     1
 71
     1
  0
GROUP
  5
35955
102
{ACAD_REACTORS
330
7472
102
}
330
7472
100
AcDbGroup
300

 70
     1
 71
     1
  0
GROUP
  5
3372B
102
{ACAD_REACTORS
330
7472
102
}
330
7472
100
AcDbGroup
300

 70
     1
 71
     1
  0
LAYOUT
  5
11757
102
{ACAD_XDICTIONARY
360
35F5B
102
}
102
{ACAD_REACTORS
330
11755
102
}
330
11755
100
AcDbPlotSettings
  1

  2
Microsoft Office Document Image Writer
  4
A4
  6

 40
3.174999952316284
 41
3.174999952316284
 42
3.175003051757812
 43
3.17498779296875
 44
209.9733276367187
 45
297.0106506347656
 46
0.0
 47
0.0
 48
0.0
 49
0.0
140
0.0
141
0.0
142
1.0
143
1.0
 70
 11952
 72
     1
 73
     1
 74
     0
  7

 75
     0
147
1.0
148
-3096.011834229277
149
52.59843815948716
100
AcDbLayout
  1
Model
 70
     1
 71
     0
 10
0.0
 20
0.0
 11
12.0
 21
9.0
 12
0.0
 22
0.0
 32
0.0
 14
0.0
 24
0.0
 34
0.0
 15
0.0
 25
0.0
 35
0.0
146
0.0
 13
0.0
 23
0.0
 33
0.0
 16
1.0
 26
0.0
 36
0.0
 17
0.0
 27
1.0
 37
0.0
 76
     0
330
747D
  0
LAYOUT
  5
11758
102
{ACAD_XDICTIONARY
360
35F5D
102
}
102
{ACAD_REACTORS
330
11755
102
}
330
11755
100
AcDbPlotSettings
  1

  2
Microsoft Office Document Image Writer
  4

  6

 40
0.0
 41
0.0
 42
0.0
 43
0.0
 44
0.0
 45
0.0
 46
0.0
 47
0.0
 48
0.0
 49
0.0
140
0.0
141
0.0
142
1.0
143
1.0
 70
   688
 72
     0
 73
     0
 74
     5
  7
inaba.ctb
 75
    16
147
1.0
148
0.0
149
0.0
100
AcDbLayout
  1
レイアウト1
 70
     0
 71
     1
 10
0.0
 20
0.0
 11
420.0
 21
297.0
 12
0.0
 22
0.0
 32
0.0
 14
1.000000000000000E+20
 24
1.000000000000000E+20
 34
1.000000000000000E+20
 15
-1.000000000000000E+20
 25
-1.000000000000000E+20
 35
-1.000000000000000E+20
146
0.0
 13
0.0
 23
0.0
 33
0.0
 16
1.0
 26
0.0
 36
0.0
 17
0.0
 27
1.0
 37
0.0
 76
     0
330
747A
  0
MLINESTYLE
  5
7480
102
{ACAD_REACTORS
330
7473
102
}
330
7473
100
AcDbMlineStyle
  2
STANDARD
 70
     0
  3

 62
     0
 51
90.0
 52
90.0
 71
     2
 49
0.5
 62
   256
  6
BYLAYER
 49
-0.5
 62
   256
  6
BYLAYER
  0
ACDBPLACEHOLDER
  5
11752
102
{ACAD_REACTORS
330
11751
102
}
330
11751
  0
XRECORD
  5
35F5A
102
{ACAD_REACTORS
330
35F58
102
}
330
35F58
100
AcDbXrecord
280
     1
340
11754
  0
XRECORD
  5
35F59
102
{ACAD_REACTORS
330
35F58
102
}
330
35F58
100
AcDbXrecord
280
     1
340
11753
  0
DICTIONARYVAR
  5
35F55
102
{ACAD_REACTORS
330
35F54
102
}
330
35F54
100
DictionaryVariables
280
     0
  1
1
  0
DICTIONARYVAR
  5
35F56
102
{ACAD_REACTORS
330
35F54
102
}
330
35F54
100
DictionaryVariables
280
     0
  1

  0
DICTIONARY
  5
35F5B
330
11757
100
AcDbDictionary
280
     1
281
     1
  3
ACAD_XREC_ROUNDTRIP
360
35F5C
  0
DICTIONARY
  5
35F5D
330
11758
100
AcDbDictionary
280
     1
281
     1
  3
ACAD_XREC_ROUNDTRIP
360
35F5E
  0
XRECORD
  5
35F5C
102
{ACAD_REACTORS
330
35F5B
102
}
330
35F5B
100
AcDbXrecord
280
     1
102
SHADEPLOT
 70
     0
102
SHADEPLOTRESLEVEL
 70
     2
102
SHADEPLOTCUSTOMDPI
 70
   300
  0
XRECORD
  5
35F5E
102
{ACAD_REACTORS
330
35F5D
102
}
330
35F5D
100
AcDbXrecord
280
     1
102
SHADEPLOT
 70
     0
102
SHADEPLOTRESLEVEL
 70
     2
102
SHADEPLOTCUSTOMDPI
 70
   300
  0
ENDSEC
  0
EOF
