  0
SECTION
  2
HEADER
  9
$ACADVER
  1
AC1015
  9
$ACADMAINTVER
 70
    20
  9
$DWGCODEPAGE
  3
ANSI_932
  9
$INSBASE
 10
0.0
 20
0.0
 30
0.0
  9
$EXTMIN
 10
-9555.887385008066
 20
-33326.13760136034
 30
0.0
  9
$EXTMAX
 10
2569.512622274748
 20
-24768.93760136035
 30
0.0
  9
$LIMMIN
 10
0.0
 20
0.0
  9
$LIMMAX
 10
21000.0
 20
14850.0
  9
$ORTHOMODE
 70
     0
  9
$REGENMODE
 70
     1
  9
$FILLMODE
 70
     1
  9
$QTEXTMODE
 70
     0
  9
$MIRRTEXT
 70
     1
  9
$LTSCALE
 40
20.0
  9
$ATTMODE
 70
     1
  9
$TEXTSIZE
 40
100.0
  9
$TRACEWID
 40
1.0
  9
$TEXTSTYLE
  7
STYLE3
  9
$CLAYER
  8
寸法
  9
$CELTYPE
  6
BYLAYER
  9
$CECOLOR
 62
   256
  9
$CELTSCALE
 40
50.0
  9
$DISPSILH
 70
     0
  9
$DIMSCALE
 40
30.0
  9
$DIMASZ
 40
2.5
  9
$DIMEXO
 40
0.5
  9
$DIMDLI
 40
7.0
  9
$DIMRND
 40
0.0
  9
$DIMDLE
 40
0.0
  9
$DIMEXE
 40
1.5
  9
$DIMTP
 40
0.0
  9
$DIMTM
 40
0.0
  9
$DIMTXT
 40
3.0
  9
$DIMCEN
 40
0.0
  9
$DIMTSZ
 40
0.0
  9
$DIMTOL
 70
     0
  9
$DIMLIM
 70
     0
  9
$DIMTIH
 70
     0
  9
$DIMTOH
 70
     0
  9
$DIMSE1
 70
     0
  9
$DIMSE2
 70
     0
  9
$DIMTAD
 70
     3
  9
$DIMZIN
 70
     8
  9
$DIMBLK
  1

  9
$DIMASO
 70
     1
  9
$DIMSHO
 70
     1
  9
$DIMPOST
  1

  9
$DIMAPOST
  1

  9
$DIMALT
 70
     0
  9
$DIMALTD
 70
     2
  9
$DIMALTF
 40
0.0394
  9
$DIMLFAC
 40
1.0
  9
$DIMTOFL
 70
     1
  9
$DIMTVP
 40
0.0
  9
$DIMTIX
 70
     1
  9
$DIMSOXD
 70
     1
  9
$DIMSAH
 70
     1
  9
$DIMBLK1
  1
DOTSMALL
  9
$DIMBLK2
  1
DOTSMALL
  9
$DIMSTYLE
  2
INABA_S30G
  9
$DIMCLRD
 70
     0
  9
$DIMCLRE
 70
     0
  9
$DIMCLRT
 70
     7
  9
$DIMTFAC
 40
1.0
  9
$DIMGAP
 40
1.0
  9
$DIMJUST
 70
     0
  9
$DIMSD1
 70
     0
  9
$DIMSD2
 70
     0
  9
$DIMTOLJ
 70
     1
  9
$DIMTZIN
 70
     0
  9
$DIMALTZ
 70
     0
  9
$DIMALTTZ
 70
     0
  9
$DIMUPT
 70
     0
  9
$DIMDEC
 70
     1
  9
$DIMTDEC
 70
     4
  9
$DIMALTU
 70
     2
  9
$DIMALTTD
 70
     2
  9
$DIMTXSTY
  7
STYLE1
  9
$DIMAUNIT
 70
     0
  9
$DIMADEC
 70
     0
  9
$DIMALTRND
 40
0.0
  9
$DIMAZIN
 70
     0
  9
$DIMDSEP
 70
    46
  9
$DIMATFIT
 70
     3
  9
$DIMFRAC
 70
     0
  9
$DIMLDRBLK
  1
DOTSMALL
  9
$DIMLUNIT
 70
     2
  9
$DIMLWD
 70
    -2
  9
$DIMLWE
 70
    -2
  9
$DIMTMOVE
 70
     0
  9
$LUNITS
 70
     2
  9
$LUPREC
 70
     1
  9
$SKETCHINC
 40
1.0
  9
$FILLETRAD
 40
0.0
  9
$AUNITS
 70
     0
  9
$AUPREC
 70
     0
  9
$MENU
  1
acad
  9
$ELEVATION
 40
0.0
  9
$PELEVATION
 40
0.0
  9
$THICKNESS
 40
0.0
  9
$LIMCHECK
 70
     0
  9
$CHAMFERA
 40
0.0
  9
$CHAMFERB
 40
0.0
  9
$CHAMFERC
 40
0.0
  9
$CHAMFERD
 40
0.0
  9
$SKPOLY
 70
     0
  9
$TDCREATE
 40
2451802.696345833
  9
$TDUCREATE
 40
2451802.321345833
  9
$TDUPDATE
 40
2455813.722919560
  9
$TDUUPDATE
 40
2455813.347919560
  9
$TDINDWG
 40
1.6588918981
  9
$TDUSRTIMER
 40
1.6588918981
  9
$USRTIMER
 70
     1
  9
$ANGBASE
 50
0.0
  9
$ANGDIR
 70
     0
  9
$PDMODE
 70
     3
  9
$PDSIZE
 40
2.0
  9
$PLINEWID
 40
0.0
  9
$SPLFRAME
 70
     0
  9
$SPLINETYPE
 70
     6
  9
$SPLINESEGS
 70
     8
  9
$HANDSEED
  5
35FED
  9
$SURFTAB1
 70
     6
  9
$SURFTAB2
 70
     6
  9
$SURFTYPE
 70
     6
  9
$SURFU
 70
     6
  9
$SURFV
 70
     6
  9
$UCSBASE
  2

  9
$UCSNAME
  2

  9
$UCSORG
 10
0.0
 20
0.0
 30
0.0
  9
$UCSXDIR
 10
1.0
 20
0.0
 30
0.0
  9
$UCSYDIR
 10
0.0
 20
1.0
 30
0.0
  9
$UCSORTHOREF
  2

  9
$UCSORTHOVIEW
 70
     0
  9
$UCSORGTOP
 10
0.0
 20
0.0
 30
0.0
  9
$UCSORGBOTTOM
 10
0.0
 20
0.0
 30
0.0
  9
$UCSORGLEFT
 10
0.0
 20
0.0
 30
0.0
  9
$UCSORGRIGHT
 10
0.0
 20
0.0
 30
0.0
  9
$UCSORGFRONT
 10
0.0
 20
0.0
 30
0.0
  9
$UCSORGBACK
 10
0.0
 20
0.0
 30
0.0
  9
$PUCSBASE
  2

  9
$PUCSNAME
  2

  9
$PUCSORG
 10
0.0
 20
0.0
 30
0.0
  9
$PUCSXDIR
 10
1.0
 20
0.0
 30
0.0
  9
$PUCSYDIR
 10
0.0
 20
1.0
 30
0.0
  9
$PUCSORTHOREF
  2

  9
$PUCSORTHOVIEW
 70
     0
  9
$PUCSORGTOP
 10
0.0
 20
0.0
 30
0.0
  9
$PUCSORGBOTTOM
 10
0.0
 20
0.0
 30
0.0
  9
$PUCSORGLEFT
 10
0.0
 20
0.0
 30
0.0
  9
$PUCSORGRIGHT
 10
0.0
 20
0.0
 30
0.0
  9
$PUCSORGFRONT
 10
0.0
 20
0.0
 30
0.0
  9
$PUCSORGBACK
 10
0.0
 20
0.0
 30
0.0
  9
$USERI1
 70
     0
  9
$USERI2
 70
     0
  9
$USERI3
 70
     0
  9
$USERI4
 70
     0
  9
$USERI5
 70
     0
  9
$USERR1
 40
0.0
  9
$USERR2
 40
0.0
  9
$USERR3
 40
0.0
  9
$USERR4
 40
0.0
  9
$USERR5
 40
0.0
  9
$WORLDVIEW
 70
     1
  9
$SHADEDGE
 70
     3
  9
$SHADEDIF
 70
    70
  9
$TILEMODE
 70
     1
  9
$MAXACTVP
 70
    16
  9
$PINSBASE
 10
0.0
 20
0.0
 30
0.0
  9
$PLIMCHECK
 70
     0
  9
$PEXTMIN
 10
1.000000000000000E+20
 20
1.000000000000000E+20
 30
1.000000000000000E+20
  9
$PEXTMAX
 10
-1.000000000000000E+20
 20
-1.000000000000000E+20
 30
-1.000000000000000E+20
  9
$PLIMMIN
 10
0.0
 20
0.0
  9
$PLIMMAX
 10
420.0
 20
297.0
  9
$UNITMODE
 70
     0
  9
$VISRETAIN
 70
     0
  9
$PLINEGEN
 70
     0
  9
$PSLTSCALE
 70
     0
  9
$TREEDEPTH
 70
  3020
  9
$CMLSTYLE
  2
STANDARD
  9
$CMLJUST
 70
     0
  9
$CMLSCALE
 40
1.0
  9
$PROXYGRAPHICS
 70
     1
  9
$MEASUREMENT
 70
     1
  9
$CELWEIGHT
370
    -1
  9
$ENDCAPS
280
     0
  9
$JOINSTYLE
280
     0
  9
$LWDISPLAY
290
     0
  9
$INSUNITS
 70
     0
  9
$HYPERLINKBASE
  1

  9
$STYLESHEET
  1
ACA3.ctb
  9
$XEDIT
290
     1
  9
$CEPSNTYPE
380
     0
  9
$PSTYLEMODE
290
     1
  9
$FINGERPRINTGUID
  2
{DAFEAD6E-FF36-46F8-92D6-F05F9FF2CF3B}
  9
$VERSIONGUID
  2
{85F62320-8C41-46A4-A44B-805F4CD0DD19}
  9
$EXTNAMES
290
     1
  9
$PSVPSCALE
 40
0.0
  9
$OLESTARTUP
290
     0
  0
ENDSEC
  0
SECTION
  2
CLASSES
  0
CLASS
  1
ACDBDICTIONARYWDFLT
  2
AcDbDictionaryWithDefault
  3
ObjectDBX Classes
 90
        0
280
     0
281
     0
  0
CLASS
  1
DICTIONARYVAR
  2
AcDbDictionaryVar
  3
ObjectDBX Classes
 90
        0
280
     0
281
     0
  0
CLASS
  1
ACDBPLACEHOLDER
  2
AcDbPlaceHolder
  3
ObjectDBX Classes
 90
        0
280
     0
281
     0
  0
CLASS
  1
LAYOUT
  2
AcDbLayout
  3
ObjectDBX Classes
 90
        0
280
     0
281
     0
  0
ENDSEC
  0
SECTION
  2
TABLES
  0
TABLE
  2
VPORT
  5
746D
330
0
100
AcDbSymbolTable
 70
     2
  0
VPORT
  5
35FE5
330
746D
100
AcDbSymbolTableRecord
100
AcDbViewportTableRecord
  2
*Active
 70
     0
 10
0.0
 20
0.0
 11
1.0
 21
1.0
 12
-2407.839008509828
 22
-29048.77208345404
 13
0.0
 23
0.0
 14
10.0
 24
10.0
 15
10.0
 25
10.0
 16
0.0
 26
0.0
 36
1.0
 17
0.0
 27
0.0
 37
0.0
 40
8625.02945768294
 41
1.778877887788778
 42
50.0
 43
0.0
 44
0.0
 50
0.0
 51
0.0
 71
     0
 72
     0
 73
     1
 74
     0
 75
     0
 76
     0
 77
     0
 78
     1
281
     0
 65
     1
110
0.0
120
0.0
130
0.0
111
1.0
121
0.0
131
0.0
112
0.0
122
1.0
132
0.0
 79
     0
146
0.0
  0
ENDTAB
  0
TABLE
  2
LTYPE
  5
746A
330
0
100
AcDbSymbolTable
 70
     3
  0
LTYPE
  5
7477
330
746A
100
AcDbSymbolTableRecord
100
AcDbLinetypeTableRecord
  2
BYBLOCK
 70
     0
  3

 72
    65
 73
     0
 40
0.0
  0
LTYPE
  5
7478
330
746A
100
AcDbSymbolTableRecord
100
AcDbLinetypeTableRecord
  2
BYLAYER
 70
     0
  3

 72
    65
 73
     0
 40
0.0
  0
LTYPE
  5
7479
330
746A
100
AcDbSymbolTableRecord
100
AcDbLinetypeTableRecord
  2
CONTINUOUS
 70
     0
  3
Solid line
 72
    65
 73
     0
 40
0.0
  0
LTYPE
  5
7816
330
746A
100
AcDbSymbolTableRecord
100
AcDbLinetypeTableRecord
  2
CENTER
 70
     0
  3
____ _ ____ _ ____ _ ____ _ ____ _ ____ _ ____ 
 72
    65
 73
     4
 40
2.0
 49
1.25
 74
     0
 49
-0.25
 74
     0
 49
0.25
 74
     0
 49
-0.25
 74
     0
  0
LTYPE
  5
781B
330
746A
100
AcDbSymbolTableRecord
100
AcDbLinetypeTableRecord
  2
PHANTOM
 70
     0
  3
______  __  __  ______  __  __  ______  __  __ 
 72
    65
 73
     6
 40
2.5
 49
1.25
 74
     0
 49
-0.25
 74
     0
 49
0.25
 74
     0
 49
-0.25
 74
     0
 49
0.25
 74
     0
 49
-0.25
 74
     0
  0
ENDTAB
  0
TABLE
  2
LAYER
  5
7467
102
{ACAD_XDICTIONARY
360
11827
102
}
330
0
100
AcDbSymbolTable
 70
    14
  0
LAYER
  5
7474
330
7467
100
AcDbSymbolTableRecord
100
AcDbLayerTableRecord
  2
0
 70
     0
 62
     7
  6
CONTINUOUS
370
    -3
390
11752
  0
LAYER
  5
DEB2
330
7467
100
AcDbSymbolTableRecord
100
AcDbLayerTableRecord
  2
センター
 70
     0
 62
     3
  6
CENTER
370
    -3
390
11752
  0
LAYER
  5
DEB3
330
7467
100
AcDbSymbolTableRecord
100
AcDbLayerTableRecord
  2
寸法
 70
     0
 62
     4
  6
CONTINUOUS
370
    -3
390
11752
  0
LAYER
  5
DEB4
330
7467
100
AcDbSymbolTableRecord
100
AcDbLayerTableRecord
  2
部品1
 70
     0
 62
     7
  6
CONTINUOUS
370
    -3
390
11752
  0
LAYER
  5
DEB5
330
7467
100
AcDbSymbolTableRecord
100
AcDbLayerTableRecord
  2
補助
 70
     0
 62
    -1
  6
CONTINUOUS
370
    -3
390
11752
  0
LAYER
  5
DEB6
330
7467
100
AcDbSymbolTableRecord
100
AcDbLayerTableRecord
  2
文字
 70
     0
 62
     7
  6
CONTINUOUS
370
    -3
390
11752
  0
LAYER
  5
F255
330
7467
100
AcDbSymbolTableRecord
100
AcDbLayerTableRecord
  2
DEFPOINTS
 70
     0
 62
     7
  6
CONTINUOUS
290
     0
370
    -3
390
11752
  0
LAYER
  5
10B54
330
7467
100
AcDbSymbolTableRecord
100
AcDbLayerTableRecord
  2
仕様書枠
 70
     0
 62
   230
  6
CONTINUOUS
370
    -3
390
11752
  0
LAYER
  5
11729
330
7467
100
AcDbSymbolTableRecord
100
AcDbLayerTableRecord
  2
Ｇ．Ｌ
 70
     0
 62
    30
  6
CONTINUOUS
370
    -3
390
11752
  0
LAYER
  5
1173F
330
7467
100
AcDbSymbolTableRecord
100
AcDbLayerTableRecord
  2
細線
 70
     0
 62
     5
  6
CONTINUOUS
370
    -3
390
11752
  0
LAYER
  5
1F38A
330
7467
100
AcDbSymbolTableRecord
100
AcDbLayerTableRecord
  2
U7
 70
     0
 62
     2
  6
CONTINUOUS
370
    -3
390
11752
  0
LAYER
  5
20750
330
7467
100
AcDbSymbolTableRecord
100
AcDbLayerTableRecord
  2
KIN-T
 70
     0
 62
     3
  6
CONTINUOUS
370
    -3
390
11752
  0
LAYER
  5
23C1A
330
7467
100
AcDbSymbolTableRecord
100
AcDbLayerTableRecord
  2
CSLAYER17
 70
     0
 62
     7
  6
CONTINUOUS
370
    -3
390
11752
  0
LAYER
  5
35F53
330
7467
100
AcDbSymbolTableRecord
100
AcDbLayerTableRecord
  2
想像線
 70
     0
 62
     6
  6
PHANTOM
370
    -3
390
11752
  0
ENDTAB
  0
TABLE
  2
STYLE
  5
7468
330
0
100
AcDbSymbolTable
 70
     4
  0
STYLE
  5
7475
330
7468
100
AcDbSymbolTableRecord
100
AcDbTextStyleTableRecord
  2
STANDARD
 70
     0
 40
0.0
 41
1.0
 50
0.0
 71
     0
 42
4.0
  3
txt
  4
C:\AutoCAD LT\bigfont.shx
  0
STYLE
  5
F706
330
7468
100
AcDbSymbolTableRecord
100
AcDbTextStyleTableRecord
  2
STYLE1
 70
     0
 40
0.0
 41
1.0
 50
0.0
 71
     0
 42
4.0
  3
isocp.shx
  4
bigfont.shx
  0
STYLE
  5
103BF
330
7468
100
AcDbSymbolTableRecord
100
AcDbTextStyleTableRecord
  2
STYLE2
 70
     0
 40
0.0
 41
1.0
 50
0.0
 71
     0
 42
100.0
  3
MS PGothic.ttf
  4

1001
ACAD
1000
MS PGothic
1071
    32818
  0
STYLE
  5
10BAA
330
7468
100
AcDbSymbolTableRecord
100
AcDbTextStyleTableRecord
  2
STYLE3
 70
     0
 40
0.0
 41
1.0
 50
0.0
 71
     0
 42
100.0
  3
DFPGothic-EB.ttf
  4

1001
ACAD
1000
DFPGothic-EB
1071
    32818
  0
ENDTAB
  0
TABLE
  2
VIEW
  5
746B
330
0
100
AcDbSymbolTable
 70
     0
  0
ENDTAB
  0
TABLE
  2
UCS
  5
746C
330
0
100
AcDbSymbolTable
 70
     0
  0
ENDTAB
  0
TABLE
  2
APPID
  5
746E
330
0
100
AcDbSymbolTable
 70
     8
  0
APPID
  5
7476
330
746E
100
AcDbSymbolTableRecord
100
AcDbRegAppTableRecord
  2
ACAD
 70
     0
  0
APPID
  5
DEA9
330
746E
100
AcDbSymbolTableRecord
100
AcDbRegAppTableRecord
  2
CONTENTBLOCKICON
 70
     0
  0
APPID
  5
DEAA
330
746E
100
AcDbSymbolTableRecord
100
AcDbRegAppTableRecord
  2
CONTENTBLOCKDESCRIPTION
 70
     0
  0
APPID
  5
E71D
330
746E
100
AcDbSymbolTableRecord
100
AcDbRegAppTableRecord
  2
CONTENTTABDATA
 70
     0
  0
APPID
  5
E71E
330
746E
100
AcDbSymbolTableRecord
100
AcDbRegAppTableRecord
  2
CONTENTCURRENTTAB
 70
     0
  0
APPID
  5
F3BA
330
746E
100
AcDbSymbolTableRecord
100
AcDbRegAppTableRecord
  2
DRAWINGVARIABLESXDATA
 70
     0
  0
APPID
  5
1F3A5
330
746E
100
AcDbSymbolTableRecord
100
AcDbRegAppTableRecord
  2
AUTOCAD_POSTSCRIPT_FIGURE
 70
     0
  0
APPID
  5
27B11
330
746E
100
AcDbSymbolTableRecord
100
AcDbRegAppTableRecord
  2
AcDbBlockRepETag
 70
     0
  0
ENDTAB
  0
TABLE
  2
DIMSTYLE
  5
746F
330
0
100
AcDbSymbolTable
 70
     3
100
AcDbDimStyleTable
 71
     2
340
13D04
340
F71F
  0
DIMSTYLE
105
F71F
330
746F
100
AcDbSymbolTableRecord
100
AcDbDimStyleTableRecord
  2
INABA_S50G
 70
     0
 41
125.0
 42
25.0
 43
7.0
 44
75.0
 73
     0
 74
     0
 77
     3
 78
     8
140
150.0
141
0.0
143
0.0394
147
25.0
172
     1
173
     1
174
     1
178
     7
271
     1
340
F706
341
F770
343
F770
344
F770
  0
DIMSTYLE
105
13D04
102
{ACAD_REACTORS
330
2B38D
330
2B38C
330
2B38B
330
2B3D1
330
2B3D0
330
2B3AA
330
2B3A9
330
2B3A8
330
2B3A7
330
2B3A6
330
2B3A5
330
2B3A4
330
2B3A3
330
2B3A2
330
2B3A1
330
2B3A0
330
2B39E
330
2B39D
330
2B39C
330
2B39B
330
35BB7
330
35BB6
330
35BB5
330
35BB4
330
35BB3
330
35BB2
330
35B03
330
35B02
330
35C04
330
35C03
330
35B04
330
35FB9
102
}
330
746F
100
AcDbSymbolTableRecord
100
AcDbDimStyleTableRecord
  2
INABA_S30G
 70
     0
 40
30.0
 41
2.5
 42
0.5
 43
7.0
 44
1.5
 73
     0
 74
     0
 77
     3
 78
     8
140
3.0
141
0.0
143
0.0394
147
1.0
172
     1
173
     1
174
     1
175
     1
178
     7
271
     1
340
F706
341
F770
343
F770
344
F770
  0
DIMSTYLE
105
2503A
330
746F
100
AcDbSymbolTableRecord
100
AcDbDimStyleTableRecord
  2
Standard
 70
     0
340
7475
  0
ENDTAB
  0
TABLE
  2
BLOCK_RECORD
  5
7466
330
0
100
AcDbSymbolTable
 70
    33
  0
BLOCK_RECORD
  5
747D
330
7466
100
AcDbSymbolTableRecord
100
AcDbBlockTableRecord
  2
*MODEL_SPACE
340
11757
  0
BLOCK_RECORD
  5
747A
330
7466
100
AcDbSymbolTableRecord
100
AcDbBlockTableRecord
  2
*PAPER_SPACE
340
11758
  0
BLOCK_RECORD
  5
F770
330
7466
100
AcDbSymbolTableRecord
100
AcDbBlockTableRecord
  2
_DOTSMALL
340
0
102
{BLKREFS
331
35A0A
331
35A0B
331
35A13
331
35A14
331
35A1C
331
35A1D
331
35A2C
331
35A2D
331
35A35
331
35A36
331
35A3E
331
35A3F
331
35A47
331
35A48
331
35A50
331
35A51
331
35A59
331
35A5A
331
35A62
331
35A63
331
35A6B
331
35A6C
331
35A74
331
35A75
331
35A7E
331
35A7F
331
35A87
331
35A88
331
35A91
331
35A92
331
35ED7
331
35ED8
331
35EE2
331
35EE3
331
35EEB
331
35EEC
331
35EF6
331
35EF7
331
35EFF
331
35F00
331
35F08
331
35F09
331
35F12
331
35F13
331
35F1C
331
35F1D
331
35F2E
331
35F2F
331
35F37
331
35F38
331
35FC8
331
35FC9
102
}
  0
BLOCK_RECORD
  5
2B43A
330
7466
100
AcDbSymbolTableRecord
100
AcDbBlockTableRecord
  2
*D1
340
0
  0
BLOCK_RECORD
  5
2B447
330
7466
100
AcDbSymbolTableRecord
100
AcDbBlockTableRecord
  2
*D2
340
0
  0
BLOCK_RECORD
  5
2B453
330
7466
100
AcDbSymbolTableRecord
100
AcDbBlockTableRecord
  2
*D3
340
0
  0
BLOCK_RECORD
  5
2B50E
330
7466
100
AcDbSymbolTableRecord
100
AcDbBlockTableRecord
  2
*D4
340
0
  0
BLOCK_RECORD
  5
2B518
330
7466
100
AcDbSymbolTableRecord
100
AcDbBlockTableRecord
  2
*D5
340
0
  0
BLOCK_RECORD
  5
2B522
330
7466
100
AcDbSymbolTableRecord
100
AcDbBlockTableRecord
  2
*D6
340
0
  0
BLOCK_RECORD
  5
2B52C
330
7466
100
AcDbSymbolTableRecord
100
AcDbBlockTableRecord
  2
*D7
340
0
  0
BLOCK_RECORD
  5
2B536
330
7466
100
AcDbSymbolTableRecord
100
AcDbBlockTableRecord
  2
*D8
340
0
  0
BLOCK_RECORD
  5
2B542
330
7466
100
AcDbSymbolTableRecord
100
AcDbBlockTableRecord
  2
*D9
340
0
  0
BLOCK_RECORD
  5
2B54E
330
7466
100
AcDbSymbolTableRecord
100
AcDbBlockTableRecord
  2
*D10
340
0
  0
BLOCK_RECORD
  5
2B55A
330
7466
100
AcDbSymbolTableRecord
100
AcDbBlockTableRecord
  2
*D11
340
0
  0
BLOCK_RECORD
  5
2B564
330
7466
100
AcDbSymbolTableRecord
100
AcDbBlockTableRecord
  2
*D12
340
0
  0
BLOCK_RECORD
  5
2B570
330
7466
100
AcDbSymbolTableRecord
100
AcDbBlockTableRecord
  2
*D13
340
0
  0
BLOCK_RECORD
  5
2B57C
330
7466
100
AcDbSymbolTableRecord
100
AcDbBlockTableRecord
  2
*D14
340
0
  0
BLOCK_RECORD
  5
2B588
330
7466
100
AcDbSymbolTableRecord
100
AcDbBlockTableRecord
  2
*D15
340
0
  0
BLOCK_RECORD
  5
2B594
330
7466
100
AcDbSymbolTableRecord
100
AcDbBlockTableRecord
  2
*D16
340
0
  0
BLOCK_RECORD
  5
2B5A0
330
7466
100
AcDbSymbolTableRecord
100
AcDbBlockTableRecord
  2
*D17
340
0
  0
BLOCK_RECORD
  5
2B5AC
330
7466
100
AcDbSymbolTableRecord
100
AcDbBlockTableRecord
  2
*D18
340
0
  0
BLOCK_RECORD
  5
2B5B8
330
7466
100
AcDbSymbolTableRecord
100
AcDbBlockTableRecord
  2
*D19
340
0
  0
BLOCK_RECORD
  5
2B5C4
330
7466
100
AcDbSymbolTableRecord
100
AcDbBlockTableRecord
  2
*D20
340
0
  0
BLOCK_RECORD
  5
35C30
330
7466
100
AcDbSymbolTableRecord
100
AcDbBlockTableRecord
  2
*D21
340
0
  0
BLOCK_RECORD
  5
35C3C
330
7466
100
AcDbSymbolTableRecord
100
AcDbBlockTableRecord
  2
*D22
340
0
  0
BLOCK_RECORD
  5
35C4A
330
7466
100
AcDbSymbolTableRecord
100
AcDbBlockTableRecord
  2
*D23
340
0
  0
BLOCK_RECORD
  5
35C56
330
7466
100
AcDbSymbolTableRecord
100
AcDbBlockTableRecord
  2
*D24
340
0
  0
BLOCK_RECORD
  5
35C62
330
7466
100
AcDbSymbolTableRecord
100
AcDbBlockTableRecord
  2
*D25
340
0
  0
BLOCK_RECORD
  5
35C6F
330
7466
100
AcDbSymbolTableRecord
100
AcDbBlockTableRecord
  2
*D26
340
0
  0
BLOCK_RECORD
  5
35C7C
330
7466
100
AcDbSymbolTableRecord
100
AcDbBlockTableRecord
  2
*D27
340
0
  0
BLOCK_RECORD
  5
35C86
330
7466
100
AcDbSymbolTableRecord
100
AcDbBlockTableRecord
  2
*D28
340
0
  0
BLOCK_RECORD
  5
35C94
330
7466
100
AcDbSymbolTableRecord
100
AcDbBlockTableRecord
  2
*D29
340
0
  0
BLOCK_RECORD
  5
35CA0
330
7466
100
AcDbSymbolTableRecord
100
AcDbBlockTableRecord
  2
*D30
340
0
  0
BLOCK_RECORD
  5
35CAD
330
7466
100
AcDbSymbolTableRecord
100
AcDbBlockTableRecord
  2
*D31
340
0
  0
BLOCK_RECORD
  5
35FBA
330
7466
100
AcDbSymbolTableRecord
100
AcDbBlockTableRecord
  2
*D32
340
0
  0
ENDTAB
  0
ENDSEC
  0
SECTION
  2
BLOCKS
  0
BLOCK
  5
7489
330
747D
100
AcDbEntity
  8
0
100
AcDbBlockBegin
  2
*MODEL_SPACE
 70
     0
 10
0.0
 20
0.0
 30
0.0
  3
*MODEL_SPACE
  1

  0
ENDBLK
  5
748A
330
747D
100
AcDbEntity
  8
0
100
AcDbBlockEnd
  0
BLOCK
  5
7487
330
747A
100
AcDbEntity
 67
     1
  8
0
100
AcDbBlockBegin
  2
*PAPER_SPACE
 70
     0
 10
0.0
 20
0.0
 30
0.0
  3
*PAPER_SPACE
  1

  0
ENDBLK
  5
7488
330
747A
100
AcDbEntity
 67
     1
  8
0
100
AcDbBlockEnd
  0
BLOCK
  5
F771
330
F770
100
AcDbEntity
  8
0
 48
50.0
100
AcDbBlockBegin
  2
_DOTSMALL
 70
     0
 10
0.0
 20
0.0
 30
0.0
  3
_DOTSMALL
  1

  0
LWPOLYLINE
  5
F772
330
F770
100
AcDbEntity
  8
0
  6
ByBlock
 62
     0
 48
50.0
100
AcDbPolyline
 90
        2
 70
     1
 43
0.5
 10
-0.0625
 20
0.0
 42
1.0
 10
0.0625
 20
0.0
 42
1.0
  0
ENDBLK
  5
F776
330
F770
100
AcDbEntity
  8
0
 48
50.0
100
AcDbBlockEnd
  0
BLOCK
  5
2B445
330
2B43A
100
AcDbEntity
  8
0
 48
50.0
100
AcDbBlockBegin
  2
*D1
 70
     1
 10
0.0
 20
0.0
 30
0.0
  3
*D1
  1

  0
LINE
  5
35A7A
330
2B43A
100
AcDbEntity
  8
寸法
 62
     0
 48
50.0
370
    -2
100
AcDbLine
 10
-4517.640814793143
 20
-28015.25459426373
 30
0.0
 11
-3935.366592429474
 21
-28015.25459426373
 31
0.0
  0
LINE
  5
35A7B
330
2B43A
100
AcDbEntity
  8
寸法
 62
     0
 48
50.0
370
    -2
100
AcDbLine
 10
-4347.640814793099
 20
-27872.25459426374
 30
0.0
 11
-3935.366592429474
 21
-27872.25459426374
 31
0.0
  0
LINE
  5
35A7C
330
2B43A
100
AcDbEntity
  8
寸法
 62
     0
 48
50.0
370
    -2
100
AcDbLine
 10
-3980.366592429474
 20
-28015.25459426373
 30
0.0
 11
-3980.366592429474
 21
-27872.25459426374
 31
0.0
  0
LINE
  5
35A7D
330
2B43A
100
AcDbEntity
  8
寸法
 62
     0
 48
50.0
370
    -2
100
AcDbLine
 10
-3980.366592429474
 20
-27872.25459426374
 30
0.0
 11
-3980.366592429474
 21
-27580.52667220238
 31
0.0
  0
INSERT
  5
35A7E
330
2B43A
100
AcDbEntity
  8
寸法
 62
     0
 48
50.0
370
    -2
100
AcDbBlockReference
  2
_DOTSMALL
 10
-3980.366592429474
 20
-28015.25459426373
 30
0.0
 41
75.0
 42
75.0
 43
75.0
 50
270.0
  0
INSERT
  5
35A7F
330
2B43A
100
AcDbEntity
  8
寸法
 62
     0
 48
50.0
370
    -2
100
AcDbBlockReference
  2
_DOTSMALL
 10
-3980.366592429474
 20
-27872.25459426374
 30
0.0
 41
75.0
 42
75.0
 43
75.0
 50
90.0
  0
MTEXT
  5
35A80
330
2B43A
100
AcDbEntity
  8
寸法
 62
     7
 48
50.0
100
AcDbMText
 10
-4055.366592429469
 20
-27688.89063323306
 30
0.0
 40
90.0
 41
0.0
 71
     5
 72
     1
  1
\A1;143
  7
STYLE1
 11
0.0000000000000001
 21
1.0
 31
0.0
 73
     1
 44
1.0
1001
ACAD
1000
MTEXTBEGIN
1070
    73
1070
     1
1070
    44
1040
1.0
1070
    74
1070
     0
1000
MTEXTEND
  0
POINT
  5
35A81
330
2B43A
100
AcDbEntity
  8
DEFPOINTS
 62
     0
 48
50.0
100
AcDbPoint
 10
-4532.640814793142
 20
-28015.25459426373
 30
0.0
  0
POINT
  5
35A82
330
2B43A
100
AcDbEntity
  8
DEFPOINTS
 62
     0
 48
50.0
100
AcDbPoint
 10
-4362.640814793099
 20
-27872.25459426374
 30
0.0
  0
POINT
  5
35A83
330
2B43A
100
AcDbEntity
  8
DEFPOINTS
 62
     0
 48
50.0
100
AcDbPoint
 10
-3980.366592429474
 20
-27872.25459426374
 30
0.0
  0
ENDBLK
  5
2B446
330
2B43A
100
AcDbEntity
  8
0
 48
50.0
100
AcDbBlockEnd
  0
BLOCK
  5
2B451
330
2B447
100
AcDbEntity
  8
0
 48
50.0
100
AcDbBlockBegin
  2
*D2
 70
     1
 10
0.0
 20
0.0
 30
0.0
  3
*D2
  1

  0
LINE
  5
35A84
330
2B447
100
AcDbEntity
  8
寸法
 62
     0
 48
50.0
370
    -2
100
AcDbLine
 10
-4517.640814793143
 20
-28015.25459426373
 30
0.0
 11
-3935.366592429483
 21
-28015.25459426373
 31
0.0
  0
LINE
  5
35A85
330
2B447
100
AcDbEntity
  8
寸法
 62
     0
 48
50.0
370
    -2
100
AcDbLine
 10
-4517.640814793143
 20
-30035.25459426373
 30
0.0
 11
-3935.366592429484
 21
-30035.25459426373
 31
0.0
  0
LINE
  5
35A86
330
2B447
100
AcDbEntity
  8
寸法
 62
     0
 48
50.0
370
    -2
100
AcDbLine
 10
-3980.366592429483
 20
-28015.25459426373
 30
0.0
 11
-3980.366592429484
 21
-30035.25459426373
 31
0.0
  0
INSERT
  5
35A87
330
2B447
100
AcDbEntity
  8
寸法
 62
     0
 48
50.0
370
    -2
100
AcDbBlockReference
  2
_DOTSMALL
 10
-3980.366592429483
 20
-28015.25459426373
 30
0.0
 41
75.0
 42
75.0
 43
75.0
 50
90.0
  0
INSERT
  5
35A88
330
2B447
100
AcDbEntity
  8
寸法
 62
     0
 48
50.0
370
    -2
100
AcDbBlockReference
  2
_DOTSMALL
 10
-3980.366592429484
 20
-30035.25459426373
 30
0.0
 41
75.0
 42
75.0
 43
75.0
 50
270.0
  0
MTEXT
  5
35A89
330
2B447
100
AcDbEntity
  8
寸法
 62
     7
 48
50.0
100
AcDbMText
 10
-4055.375450697195
 20
-29025.25459426373
 30
0.0
 40
90.0
 41
0.0
 71
     5
 72
     1
  1
\A1;屋根寸法 2020
  7
STYLE1
 11
0.0000000000000001
 21
1.0
 31
0.0
 73
     1
 44
1.0
1001
ACAD
1000
MTEXTBEGIN
1070
    73
1070
     1
1070
    44
1040
1.0
1070
    74
1070
     0
1000
MTEXTEND
  0
POINT
  5
35A8A
330
2B447
100
AcDbEntity
  8
DEFPOINTS
 62
     0
 48
50.0
100
AcDbPoint
 10
-4532.640814793142
 20
-28015.25459426373
 30
0.0
  0
POINT
  5
35A8B
330
2B447
100
AcDbEntity
  8
DEFPOINTS
 62
     0
 48
50.0
100
AcDbPoint
 10
-4532.640814793142
 20
-30035.25459426373
 30
0.0
  0
POINT
  5
35A8C
330
2B447
100
AcDbEntity
  8
DEFPOINTS
 62
     0
 48
50.0
100
AcDbPoint
 10
-3980.366592429484
 20
-30035.25459426373
 30
0.0
  0
ENDBLK
  5
2B452
330
2B447
100
AcDbEntity
  8
0
 48
50.0
100
AcDbBlockEnd
  0
BLOCK
  5
2B45E
330
2B453
100
AcDbEntity
  8
0
 48
50.0
100
AcDbBlockBegin
  2
*D3
 70
     1
 10
0.0
 20
0.0
 30
0.0
  3
*D3
  1

  0
LINE
  5
35A8D
330
2B453
100
AcDbEntity
  8
寸法
 62
     0
 48
50.0
370
    -2
100
AcDbLine
 10
-4517.640814793143
 20
-30035.25459426373
 30
0.0
 11
-3935.366592429489
 21
-30035.25459426373
 31
0.0
  0
LINE
  5
35A8E
330
2B453
100
AcDbEntity
  8
寸法
 62
     0
 48
50.0
370
    -2
100
AcDbLine
 10
-4347.640814793099
 20
-30172.25459426373
 30
0.0
 11
-3935.366592429489
 21
-30172.25459426373
 31
0.0
  0
LINE
  5
35A8F
330
2B453
100
AcDbEntity
  8
寸法
 62
     0
 48
50.0
370
    -2
100
AcDbLine
 10
-3980.366592429489
 20
-30035.25459426373
 30
0.0
 11
-3980.366592429489
 21
-30172.25459426373
 31
0.0
  0
LINE
  5
35A90
330
2B453
100
AcDbEntity
  8
寸法
 62
     0
 48
50.0
370
    -2
100
AcDbLine
 10
-3980.366592429489
 20
-30172.25459426373
 30
0.0
 11
-3980.366592429489
 21
-30451.25459426373
 31
0.0
  0
INSERT
  5
35A91
330
2B453
100
AcDbEntity
  8
寸法
 62
     0
 48
50.0
370
    -2
100
AcDbBlockReference
  2
_DOTSMALL
 10
-3980.366592429489
 20
-30035.25459426373
 30
0.0
 41
75.0
 42
75.0
 43
75.0
 50
90.0
  0
INSERT
  5
35A92
330
2B453
100
AcDbEntity
  8
寸法
 62
     0
 48
50.0
370
    -2
100
AcDbBlockReference
  2
_DOTSMALL
 10
-3980.366592429489
 20
-30172.25459426373
 30
0.0
 41
75.0
 42
75.0
 43
75.0
 50
270.0
  0
MTEXT
  5
35A93
330
2B453
100
AcDbEntity
  8
寸法
 62
     7
 48
50.0
100
AcDbMText
 10
-4055.366592429484
 20
-30349.25459426373
 30
0.0
 40
90.0
 41
0.0
 71
     5
 72
     1
  1
\A1;137
  7
STYLE1
 11
0.0000000000000001
 21
1.0
 31
0.0
 73
     1
 44
1.0
1001
ACAD
1000
MTEXTBEGIN
1070
    73
1070
     1
1070
    44
1040
1.0
1070
    74
1070
     0
1000
MTEXTEND
  0
POINT
  5
35A94
330
2B453
100
AcDbEntity
  8
DEFPOINTS
 62
     0
 48
50.0
100
AcDbPoint
 10
-4532.640814793142
 20
-30035.25459426373
 30
0.0
  0
POINT
  5
35A95
330
2B453
100
AcDbEntity
  8
DEFPOINTS
 62
     0
 48
50.0
100
AcDbPoint
 10
-4362.640814793099
 20
-30172.25459426373
 30
0.0
  0
POINT
  5
35A96
330
2B453
100
AcDbEntity
  8
DEFPOINTS
 62
     0
 48
50.0
100
AcDbPoint
 10
-3980.366592429489
 20
-30172.25459426373
 30
0.0
  0
ENDBLK
  5
2B45F
330
2B453
100
AcDbEntity
  8
0
 48
50.0
100
AcDbBlockEnd
  0
BLOCK
  5
2B516
330
2B50E
100
AcDbEntity
  8
0
 48
50.0
100
AcDbBlockBegin
  2
*D4
 70
     1
 10
0.0
 20
0.0
 30
0.0
  3
*D4
  1

  0
LINE
  5
359EB
330
2B50E
100
AcDbEntity
  8
寸法
 62
     0
 48
50.0
370
    -2
100
AcDbLine
 10
-4662.640814793099
 20
-28362.25459426372
 30
0.0
 11
-4662.640814793099
 21
-28786.77587757652
 31
0.0
  0
LINE
  5
359EC
330
2B50E
100
AcDbEntity
  8
寸法
 62
     0
 48
50.0
370
    -2
100
AcDbLine
 10
-4862.640814793099
 20
-28362.25459426372
 30
0.0
 11
-4862.640814793099
 21
-28786.77587757652
 31
0.0
  0
LINE
  5
359ED
330
2B50E
100
AcDbEntity
  8
寸法
 62
     0
 48
50.0
370
    -2
100
AcDbLine
 10
-4662.640814793099
 20
-28741.77587757653
 30
0.0
 11
-4862.640814793099
 21
-28741.77587757653
 31
0.0
  0
MTEXT
  5
359EE
330
2B50E
100
AcDbEntity
  8
寸法
 62
     7
 48
50.0
100
AcDbMText
 10
-4762.640814793099
 20
-28666.76701930881
 30
0.0
 40
90.0
 41
0.0
 71
     5
 72
     1
  1
\A1;200
  7
STYLE1
 73
     1
 44
1.0
1001
ACAD
1000
MTEXTBEGIN
1070
    73
1070
     1
1070
    44
1040
1.0
1070
    74
1070
     0
1000
MTEXTEND
  0
POINT
  5
359EF
330
2B50E
100
AcDbEntity
  8
DEFPOINTS
 62
     0
 48
50.0
100
AcDbPoint
 10
-4662.640814793099
 20
-28347.25459426372
 30
0.0
  0
POINT
  5
359F0
330
2B50E
100
AcDbEntity
  8
DEFPOINTS
 62
     0
 48
50.0
100
AcDbPoint
 10
-4862.640814793099
 20
-28347.25459426372
 30
0.0
  0
POINT
  5
359F1
330
2B50E
100
AcDbEntity
  8
DEFPOINTS
 62
     0
 48
50.0
100
AcDbPoint
 10
-4862.640814793099
 20
-28741.77587757653
 30
0.0
  0
ENDBLK
  5
2B517
330
2B50E
100
AcDbEntity
  8
0
 48
50.0
100
AcDbBlockEnd
  0
BLOCK
  5
2B520
330
2B518
100
AcDbEntity
  8
0
 48
50.0
100
AcDbBlockBegin
  2
*D5
 70
     1
 10
0.0
 20
0.0
 30
0.0
  3
*D5
  1

  0
LINE
  5
359F2
330
2B518
100
AcDbEntity
  8
寸法
 62
     0
 48
50.0
370
    -2
100
AcDbLine
 10
-4572.640814793099
 20
-28272.25459426372
 30
0.0
 11
-4156.053387655528
 21
-28272.25459426372
 31
0.0
  0
LINE
  5
359F3
330
2B518
100
AcDbEntity
  8
寸法
 62
     0
 48
50.0
370
    -2
100
AcDbLine
 10
-4572.640814793099
 20
-28072.25459426372
 30
0.0
 11
-4156.053387655528
 21
-28072.25459426372
 31
0.0
  0
LINE
  5
359F4
330
2B518
100
AcDbEntity
  8
寸法
 62
     0
 48
50.0
370
    -2
100
AcDbLine
 10
-4201.053387655527
 20
-28272.25459426372
 30
0.0
 11
-4201.053387655527
 21
-28072.25459426372
 31
0.0
  0
MTEXT
  5
359F5
330
2B518
100
AcDbEntity
  8
寸法
 62
     7
 48
50.0
100
AcDbMText
 10
-4276.062245923239
 20
-28172.25459426373
 30
0.0
 40
90.0
 41
0.0
 71
     5
 72
     1
  1
\A1;200
  7
STYLE1
 11
0.0000000000000001
 21
1.0
 31
0.0
 73
     1
 44
1.0
1001
ACAD
1000
MTEXTBEGIN
1070
    73
1070
     1
1070
    44
1040
1.0
1070
    74
1070
     0
1000
MTEXTEND
  0
POINT
  5
359F6
330
2B518
100
AcDbEntity
  8
DEFPOINTS
 62
     0
 48
50.0
100
AcDbPoint
 10
-4587.6408147931
 20
-28272.25459426372
 30
0.0
  0
POINT
  5
359F7
330
2B518
100
AcDbEntity
  8
DEFPOINTS
 62
     0
 48
50.0
100
AcDbPoint
 10
-4587.6408147931
 20
-28072.25459426372
 30
0.0
  0
POINT
  5
359F8
330
2B518
100
AcDbEntity
  8
DEFPOINTS
 62
     0
 48
50.0
100
AcDbPoint
 10
-4201.053387655527
 20
-28072.25459426372
 30
0.0
  0
ENDBLK
  5
2B521
330
2B518
100
AcDbEntity
  8
0
 48
50.0
100
AcDbBlockEnd
  0
BLOCK
  5
2B52A
330
2B522
100
AcDbEntity
  8
0
 48
50.0
100
AcDbBlockBegin
  2
*D6
 70
     1
 10
0.0
 20
0.0
 30
0.0
  3
*D6
  1

  0
LINE
  5
359F9
330
2B522
100
AcDbEntity
  8
寸法
 62
     0
 48
50.0
370
    -2
100
AcDbLine
 10
-4532.640814793142
 20
-30050.25459426372
 30
0.0
 11
-4532.640814793142
 21
-30545.74231260025
 31
0.0
  0
LINE
  5
359FA
330
2B522
100
AcDbEntity
  8
寸法
 62
     0
 48
50.0
370
    -2
100
AcDbLine
 10
-4362.640814793099
 20
-30187.25459426372
 30
0.0
 11
-4362.640814793099
 21
-30545.74231260025
 31
0.0
  0
LINE
  5
359FB
330
2B522
100
AcDbEntity
  8
寸法
 62
     0
 48
50.0
370
    -2
100
AcDbLine
 10
-4532.640814793142
 20
-30500.74231260026
 30
0.0
 11
-4362.640814793099
 21
-30500.74231260026
 31
0.0
  0
MTEXT
  5
359FC
330
2B522
100
AcDbEntity
  8
寸法
 62
     7
 48
50.0
100
AcDbMText
 10
-4447.640814793121
 20
-30425.74231260025
 30
0.0
 40
90.0
 41
0.0
 71
     5
 72
     1
  1
\A1;170
  7
STYLE1
 73
     1
 44
1.0
1001
ACAD
1000
MTEXTBEGIN
1070
    73
1070
     1
1070
    44
1040
1.0
1070
    74
1070
     0
1000
MTEXTEND
  0
POINT
  5
359FD
330
2B522
100
AcDbEntity
  8
DEFPOINTS
 62
     0
 48
50.0
100
AcDbPoint
 10
-4532.640814793142
 20
-30035.25459426372
 30
0.0
  0
POINT
  5
359FE
330
2B522
100
AcDbEntity
  8
DEFPOINTS
 62
     0
 48
50.0
100
AcDbPoint
 10
-4362.640814793099
 20
-30172.25459426372
 30
0.0
  0
POINT
  5
359FF
330
2B522
100
AcDbEntity
  8
DEFPOINTS
 62
     0
 48
50.0
100
AcDbPoint
 10
-4362.640814793099
 20
-30500.74231260026
 30
0.0
  0
ENDBLK
  5
2B52B
330
2B522
100
AcDbEntity
  8
0
 48
50.0
100
AcDbBlockEnd
  0
BLOCK
  5
2B534
330
2B52C
100
AcDbEntity
  8
0
 48
50.0
100
AcDbBlockBegin
  2
*D7
 70
     1
 10
0.0
 20
0.0
 30
0.0
  3
*D7
  1

  0
LINE
  5
35A00
330
2B52C
100
AcDbEntity
  8
寸法
 62
     0
 48
50.0
370
    -2
100
AcDbLine
 10
-7392.640814793056
 20
-30050.25459426373
 30
0.0
 11
-7392.640814793056
 21
-30545.74231260025
 31
0.0
  0
LINE
  5
35A01
330
2B52C
100
AcDbEntity
  8
寸法
 62
     0
 48
50.0
370
    -2
100
AcDbLine
 10
-7562.6408147931
 20
-30187.25459426372
 30
0.0
 11
-7562.6408147931
 21
-30545.74231260025
 31
0.0
  0
LINE
  5
35A02
330
2B52C
100
AcDbEntity
  8
寸法
 62
     0
 48
50.0
370
    -2
100
AcDbLine
 10
-7392.640814793056
 20
-30500.74231260026
 30
0.0
 11
-7562.6408147931
 21
-30500.74231260026
 31
0.0
  0
MTEXT
  5
35A03
330
2B52C
100
AcDbEntity
  8
寸法
 62
     7
 48
50.0
100
AcDbMText
 10
-7477.640814793078
 20
-30425.74231260025
 30
0.0
 40
90.0
 41
0.0
 71
     5
 72
     1
  1
\A1;170
  7
STYLE1
 73
     1
 44
1.0
1001
ACAD
1000
MTEXTBEGIN
1070
    73
1070
     1
1070
    44
1040
1.0
1070
    74
1070
     0
1000
MTEXTEND
  0
POINT
  5
35A04
330
2B52C
100
AcDbEntity
  8
DEFPOINTS
 62
     0
 48
50.0
100
AcDbPoint
 10
-7392.640814793056
 20
-30035.25459426373
 30
0.0
  0
POINT
  5
35A05
330
2B52C
100
AcDbEntity
  8
DEFPOINTS
 62
     0
 48
50.0
100
AcDbPoint
 10
-7562.6408147931
 20
-30172.25459426372
 30
0.0
  0
POINT
  5
35A06
330
2B52C
100
AcDbEntity
  8
DEFPOINTS
 62
     0
 48
50.0
100
AcDbPoint
 10
-7562.6408147931
 20
-30500.74231260026
 30
0.0
  0
ENDBLK
  5
2B535
330
2B52C
100
AcDbEntity
  8
0
 48
50.0
100
AcDbBlockEnd
  0
BLOCK
  5
2B540
330
2B536
100
AcDbEntity
  8
0
 48
50.0
100
AcDbBlockBegin
  2
*D8
 70
     1
 10
0.0
 20
0.0
 30
0.0
  3
*D8
  1

  0
LINE
  5
35A07
330
2B536
100
AcDbEntity
  8
寸法
 62
     0
 48
50.0
370
    -2
100
AcDbLine
 10
-7392.640814793056
 20
-30050.25459426373
 30
0.0
 11
-7392.640814793056
 21
-30545.74231260025
 31
0.0
  0
LINE
  5
35A08
330
2B536
100
AcDbEntity
  8
寸法
 62
     0
 48
50.0
370
    -2
100
AcDbLine
 10
-4532.640814793142
 20
-30050.25459426372
 30
0.0
 11
-4532.640814793142
 21
-30545.74231260025
 31
0.0
  0
LINE
  5
35A09
330
2B536
100
AcDbEntity
  8
寸法
 62
     0
 48
50.0
370
    -2
100
AcDbLine
 10
-7392.640814793056
 20
-30500.74231260026
 30
0.0
 11
-4532.640814793142
 21
-30500.74231260026
 31
0.0
  0
INSERT
  5
35A0A
330
2B536
100
AcDbEntity
  8
寸法
 62
     0
 48
50.0
370
    -2
100
AcDbBlockReference
  2
_DOTSMALL
 10
-7392.640814793056
 20
-30500.74231260026
 30
0.0
 41
75.0
 42
75.0
 43
75.0
 50
180.0
  0
INSERT
  5
35A0B
330
2B536
100
AcDbEntity
  8
寸法
 62
     0
 48
50.0
370
    -2
100
AcDbBlockReference
  2
_DOTSMALL
 10
-4532.640814793142
 20
-30500.74231260026
 30
0.0
 41
75.0
 42
75.0
 43
75.0
  0
MTEXT
  5
35A0C
330
2B536
100
AcDbEntity
  8
寸法
 62
     7
 48
50.0
100
AcDbMText
 10
-5962.6408147931
 20
-30425.73345433254
 30
0.0
 40
90.0
 41
0.0
 71
     5
 72
     1
  1
\A1;屋根寸法 2860
  7
STYLE1
 73
     1
 44
1.0
1001
ACAD
1000
MTEXTBEGIN
1070
    73
1070
     1
1070
    44
1040
1.0
1070
    74
1070
     0
1000
MTEXTEND
  0
POINT
  5
35A0D
330
2B536
100
AcDbEntity
  8
DEFPOINTS
 62
     0
 48
50.0
100
AcDbPoint
 10
-7392.640814793056
 20
-30035.25459426373
 30
0.0
  0
POINT
  5
35A0E
330
2B536
100
AcDbEntity
  8
DEFPOINTS
 62
     0
 48
50.0
100
AcDbPoint
 10
-4532.640814793142
 20
-30035.25459426372
 30
0.0
  0
POINT
  5
35A0F
330
2B536
100
AcDbEntity
  8
DEFPOINTS
 62
     0
 48
50.0
100
AcDbPoint
 10
-4532.640814793142
 20
-30500.74231260026
 30
0.0
  0
ENDBLK
  5
2B541
330
2B536
100
AcDbEntity
  8
0
 48
50.0
100
AcDbBlockEnd
  0
BLOCK
  5
2B54C
330
2B542
100
AcDbEntity
  8
0
 48
50.0
100
AcDbBlockBegin
  2
*D9
 70
     1
 10
0.0
 20
0.0
 30
0.0
  3
*D9
  1

  0
LINE
  5
35A10
330
2B542
100
AcDbEntity
  8
寸法
 62
     0
 48
50.0
370
    -2
100
AcDbLine
 10
-7577.640814793103
 20
-27972.25459426373
 30
0.0
 11
-8171.262013520793
 21
-27972.25459426373
 31
0.0
  0
LINE
  5
35A11
330
2B542
100
AcDbEntity
  8
寸法
 62
     0
 48
50.0
370
    -2
100
AcDbLine
 10
-7577.640814793099
 20
-30172.25459426372
 30
0.0
 11
-8171.262013520793
 21
-30172.25459426372
 31
0.0
  0
LINE
  5
35A12
330
2B542
100
AcDbEntity
  8
寸法
 62
     0
 48
50.0
370
    -2
100
AcDbLine
 10
-8126.262013520793
 20
-27972.25459426373
 30
0.0
 11
-8126.262013520793
 21
-30172.25459426372
 31
0.0
  0
INSERT
  5
35A13
330
2B542
100
AcDbEntity
  8
寸法
 62
     0
 48
50.0
370
    -2
100
AcDbBlockReference
  2
_DOTSMALL
 10
-8126.262013520793
 20
-27972.25459426373
 30
0.0
 41
75.0
 42
75.0
 43
75.0
 50
90.0
  0
INSERT
  5
35A14
330
2B542
100
AcDbEntity
  8
寸法
 62
     0
 48
50.0
370
    -2
100
AcDbBlockReference
  2
_DOTSMALL
 10
-8126.262013520793
 20
-30172.25459426372
 30
0.0
 41
75.0
 42
75.0
 43
75.0
 50
270.0
  0
MTEXT
  5
35A15
330
2B542
100
AcDbEntity
  8
寸法
 62
     7
 48
50.0
100
AcDbMText
 10
-8201.270871788507
 20
-29072.25459426372
 30
0.0
 40
90.0
 41
0.0
 71
     5
 72
     1
  1
\A1;基礎土間寸法 2200
  7
STYLE1
 11
0.0000000000000001
 21
1.0
 31
0.0
 73
     1
 44
1.0
1001
ACAD
1000
MTEXTBEGIN
1070
    73
1070
     1
1070
    44
1040
1.0
1070
    74
1070
     0
1000
MTEXTEND
  0
POINT
  5
35A16
330
2B542
100
AcDbEntity
  8
DEFPOINTS
 62
     0
 48
50.0
100
AcDbPoint
 10
-7562.640814793103
 20
-27972.25459426373
 30
0.0
  0
POINT
  5
35A17
330
2B542
100
AcDbEntity
  8
DEFPOINTS
 62
     0
 48
50.0
100
AcDbPoint
 10
-7562.6408147931
 20
-30172.25459426372
 30
0.0
  0
POINT
  5
35A18
330
2B542
100
AcDbEntity
  8
DEFPOINTS
 62
     0
 48
50.0
100
AcDbPoint
 10
-8126.262013520793
 20
-30172.25459426372
 30
0.0
  0
ENDBLK
  5
2B54D
330
2B542
100
AcDbEntity
  8
0
 48
50.0
100
AcDbBlockEnd
  0
BLOCK
  5
2B558
330
2B54E
100
AcDbEntity
  8
0
 48
50.0
100
AcDbBlockBegin
  2
*D10
 70
     1
 10
0.0
 20
0.0
 30
0.0
  3
*D10
  1

  0
LINE
  5
35A19
330
2B54E
100
AcDbEntity
  8
寸法
 62
     0
 48
50.0
370
    -2
100
AcDbLine
 10
-7427.640814793099
 20
-28172.25459426373
 30
0.0
 11
-7948.512651504334
 21
-28172.25459426373
 31
0.0
  0
LINE
  5
35A1A
330
2B54E
100
AcDbEntity
  8
寸法
 62
     0
 48
50.0
370
    -2
100
AcDbLine
 10
-7577.640814793099
 20
-30172.25459426372
 30
0.0
 11
-7948.512651504334
 21
-30172.25459426372
 31
0.0
  0
LINE
  5
35A1B
330
2B54E
100
AcDbEntity
  8
寸法
 62
     0
 48
50.0
370
    -2
100
AcDbLine
 10
-7903.512651504335
 20
-28172.25459426373
 30
0.0
 11
-7903.512651504335
 21
-30172.25459426372
 31
0.0
  0
INSERT
  5
35A1C
330
2B54E
100
AcDbEntity
  8
寸法
 62
     0
 48
50.0
370
    -2
100
AcDbBlockReference
  2
_DOTSMALL
 10
-7903.512651504335
 20
-28172.25459426373
 30
0.0
 41
75.0
 42
75.0
 43
75.0
 50
90.0
  0
INSERT
  5
35A1D
330
2B54E
100
AcDbEntity
  8
寸法
 62
     0
 48
50.0
370
    -2
100
AcDbBlockReference
  2
_DOTSMALL
 10
-7903.512651504335
 20
-30172.25459426372
 30
0.0
 41
75.0
 42
75.0
 43
75.0
 50
270.0
  0
MTEXT
  5
35A1E
330
2B54E
100
AcDbEntity
  8
寸法
 62
     7
 48
50.0
100
AcDbMText
 10
-7978.521509772045
 20
-29172.25459426372
 30
0.0
 40
90.0
 41
0.0
 71
     5
 72
     1
  1
\A1;2000
  7
STYLE1
 11
0.0000000000000001
 21
1.0
 31
0.0
 73
     1
 44
1.0
1001
ACAD
1000
MTEXTBEGIN
1070
    73
1070
     1
1070
    44
1040
1.0
1070
    74
1070
     0
1000
MTEXTEND
  0
POINT
  5
35A1F
330
2B54E
100
AcDbEntity
  8
DEFPOINTS
 62
     0
 48
50.0
100
AcDbPoint
 10
-7412.6408147931
 20
-28172.25459426373
 30
0.0
  0
POINT
  5
35A20
330
2B54E
100
AcDbEntity
  8
DEFPOINTS
 62
     0
 48
50.0
100
AcDbPoint
 10
-7562.6408147931
 20
-30172.25459426372
 30
0.0
  0
POINT
  5
35A21
330
2B54E
100
AcDbEntity
  8
DEFPOINTS
 62
     0
 48
50.0
100
AcDbPoint
 10
-7903.512651504335
 20
-30172.25459426372
 30
0.0
  0
ENDBLK
  5
2B559
330
2B54E
100
AcDbEntity
  8
0
 48
50.0
100
AcDbBlockEnd
  0
BLOCK
  5
2B562
330
2B55A
100
AcDbEntity
  8
0
 48
50.0
100
AcDbBlockBegin
  2
*D11
 70
     1
 10
0.0
 20
0.0
 30
0.0
  3
*D11
  1

  0
LINE
  5
35A22
330
2B55A
100
AcDbEntity
  8
寸法
 62
     0
 48
50.0
370
    -2
100
AcDbLine
 10
-7577.640814793103
 20
-27972.25459426373
 30
0.0
 11
-7948.512651504334
 21
-27972.25459426373
 31
0.0
  0
LINE
  5
35A23
330
2B55A
100
AcDbEntity
  8
寸法
 62
     0
 48
50.0
370
    -2
100
AcDbLine
 10
-7427.640814793099
 20
-28172.25459426373
 30
0.0
 11
-7948.512651504334
 21
-28172.25459426373
 31
0.0
  0
LINE
  5
35A24
330
2B55A
100
AcDbEntity
  8
寸法
 62
     0
 48
50.0
370
    -2
100
AcDbLine
 10
-7903.512651504335
 20
-27972.25459426373
 30
0.0
 11
-7903.512651504335
 21
-28172.25459426373
 31
0.0
  0
MTEXT
  5
35A25
330
2B55A
100
AcDbEntity
  8
寸法
 62
     7
 48
50.0
100
AcDbMText
 10
-7978.521509772045
 20
-28072.25459426372
 30
0.0
 40
90.0
 41
0.0
 71
     5
 72
     1
  1
\A1;200
  7
STYLE1
 11
0.0000000000000001
 21
1.0
 31
0.0
 73
     1
 44
1.0
1001
ACAD
1000
MTEXTBEGIN
1070
    73
1070
     1
1070
    44
1040
1.0
1070
    74
1070
     0
1000
MTEXTEND
  0
POINT
  5
35A26
330
2B55A
100
AcDbEntity
  8
DEFPOINTS
 62
     0
 48
50.0
100
AcDbPoint
 10
-7562.640814793103
 20
-27972.25459426373
 30
0.0
  0
POINT
  5
35A27
330
2B55A
100
AcDbEntity
  8
DEFPOINTS
 62
     0
 48
50.0
100
AcDbPoint
 10
-7412.6408147931
 20
-28172.25459426373
 30
0.0
  0
POINT
  5
35A28
330
2B55A
100
AcDbEntity
  8
DEFPOINTS
 62
     0
 48
50.0
100
AcDbPoint
 10
-7903.512651504335
 20
-28172.25459426373
 30
0.0
  0
ENDBLK
  5
2B563
330
2B55A
100
AcDbEntity
  8
0
 48
50.0
100
AcDbBlockEnd
  0
BLOCK
  5
2B56E
330
2B564
100
AcDbEntity
  8
0
 48
50.0
100
AcDbBlockBegin
  2
*D12
 70
     1
 10
0.0
 20
0.0
 30
0.0
  3
*D12
  1

  0
LINE
  5
35A29
330
2B564
100
AcDbEntity
  8
寸法
 62
     0
 48
50.0
370
    -2
100
AcDbLine
 10
-5177.6408147931
 20
-27872.25459426372
 30
0.0
 11
-5384.955318077278
 21
-27872.25459426372
 31
0.0
  0
LINE
  5
35A2A
330
2B564
100
AcDbEntity
  8
寸法
 62
     0
 48
50.0
370
    -2
100
AcDbLine
 10
-5177.6408147931
 20
-28172.25459426373
 30
0.0
 11
-5384.955318077278
 21
-28172.25459426373
 31
0.0
  0
LINE
  5
35A2B
330
2B564
100
AcDbEntity
  8
寸法
 62
     0
 48
50.0
370
    -2
100
AcDbLine
 10
-5339.955318077278
 20
-27872.25459426372
 30
0.0
 11
-5339.955318077278
 21
-28172.25459426373
 31
0.0
  0
INSERT
  5
35A2C
330
2B564
100
AcDbEntity
  8
寸法
 62
     0
 48
50.0
370
    -2
100
AcDbBlockReference
  2
_DOTSMALL
 10
-5339.955318077278
 20
-27872.25459426372
 30
0.0
 41
75.0
 42
75.0
 43
75.0
 50
90.0
  0
INSERT
  5
35A2D
330
2B564
100
AcDbEntity
  8
寸法
 62
     0
 48
50.0
370
    -2
100
AcDbBlockReference
  2
_DOTSMALL
 10
-5339.955318077278
 20
-28172.25459426373
 30
0.0
 41
75.0
 42
75.0
 43
75.0
 50
270.0
  0
MTEXT
  5
35A2E
330
2B564
100
AcDbEntity
  8
寸法
 62
     7
 48
50.0
100
AcDbMText
 10
-5414.955318077273
 20
-28022.25459426372
 30
0.0
 40
90.0
 41
0.0
 71
     5
 72
     1
  1
\A1;300
  7
STYLE1
 11
0.0000000000000001
 21
1.0
 31
0.0
 73
     1
 44
1.0
1001
ACAD
1000
MTEXTBEGIN
1070
    73
1070
     1
1070
    44
1040
1.0
1070
    74
1070
     0
1000
MTEXTEND
  0
POINT
  5
35A2F
330
2B564
100
AcDbEntity
  8
DEFPOINTS
 62
     0
 48
50.0
100
AcDbPoint
 10
-5162.6408147931
 20
-27872.25459426372
 30
0.0
  0
POINT
  5
35A30
330
2B564
100
AcDbEntity
  8
DEFPOINTS
 62
     0
 48
50.0
100
AcDbPoint
 10
-5162.6408147931
 20
-28172.25459426373
 30
0.0
  0
POINT
  5
35A31
330
2B564
100
AcDbEntity
  8
DEFPOINTS
 62
     0
 48
50.0
100
AcDbPoint
 10
-5339.955318077278
 20
-28172.25459426373
 30
0.0
  0
ENDBLK
  5
2B56F
330
2B564
100
AcDbEntity
  8
0
 48
50.0
100
AcDbBlockEnd
  0
BLOCK
  5
2B57A
330
2B570
100
AcDbEntity
  8
0
 48
50.0
100
AcDbBlockBegin
  2
*D13
 70
     1
 10
0.0
 20
0.0
 30
0.0
  3
*D13
  1

  0
LINE
  5
35A32
330
2B570
100
AcDbEntity
  8
寸法
 62
     0
 48
50.0
370
    -2
100
AcDbLine
 10
-5177.6408147931
 20
-28172.25459426373
 30
0.0
 11
-5384.955318077286
 21
-28172.25459426373
 31
0.0
  0
LINE
  5
35A33
330
2B570
100
AcDbEntity
  8
寸法
 62
     0
 48
50.0
370
    -2
100
AcDbLine
 10
-5177.6408147931
 20
-28972.25459426372
 30
0.0
 11
-5384.955318077286
 21
-28972.25459426372
 31
0.0
  0
LINE
  5
35A34
330
2B570
100
AcDbEntity
  8
寸法
 62
     0
 48
50.0
370
    -2
100
AcDbLine
 10
-5339.955318077286
 20
-28172.25459426373
 30
0.0
 11
-5339.955318077286
 21
-28972.25459426372
 31
0.0
  0
INSERT
  5
35A35
330
2B570
100
AcDbEntity
  8
寸法
 62
     0
 48
50.0
370
    -2
100
AcDbBlockReference
  2
_DOTSMALL
 10
-5339.955318077286
 20
-28172.25459426373
 30
0.0
 41
75.0
 42
75.0
 43
75.0
 50
90.0
  0
INSERT
  5
35A36
330
2B570
100
AcDbEntity
  8
寸法
 62
     0
 48
50.0
370
    -2
100
AcDbBlockReference
  2
_DOTSMALL
 10
-5339.955318077286
 20
-28972.25459426372
 30
0.0
 41
75.0
 42
75.0
 43
75.0
 50
270.0
  0
MTEXT
  5
35A37
330
2B570
100
AcDbEntity
  8
寸法
 62
     7
 48
50.0
100
AcDbMText
 10
-5414.955318077281
 20
-28572.25459426372
 30
0.0
 40
90.0
 41
0.0
 71
     5
 72
     1
  1
\A1;800
  7
STYLE1
 11
0.0000000000000001
 21
1.0
 31
0.0
 73
     1
 44
1.0
1001
ACAD
1000
MTEXTBEGIN
1070
    73
1070
     1
1070
    44
1040
1.0
1070
    74
1070
     0
1000
MTEXTEND
  0
POINT
  5
35A38
330
2B570
100
AcDbEntity
  8
DEFPOINTS
 62
     0
 48
50.0
100
AcDbPoint
 10
-5162.6408147931
 20
-28172.25459426373
 30
0.0
  0
POINT
  5
35A39
330
2B570
100
AcDbEntity
  8
DEFPOINTS
 62
     0
 48
50.0
100
AcDbPoint
 10
-5162.6408147931
 20
-28972.25459426372
 30
0.0
  0
POINT
  5
35A3A
330
2B570
100
AcDbEntity
  8
DEFPOINTS
 62
     0
 48
50.0
100
AcDbPoint
 10
-5339.955318077286
 20
-28972.25459426372
 30
0.0
  0
ENDBLK
  5
2B57B
330
2B570
100
AcDbEntity
  8
0
 48
50.0
100
AcDbBlockEnd
  0
BLOCK
  5
2B586
330
2B57C
100
AcDbEntity
  8
0
 48
50.0
100
AcDbBlockBegin
  2
*D14
 70
     1
 10
0.0
 20
0.0
 30
0.0
  3
*D14
  1

  0
LINE
  5
35A3B
330
2B57C
100
AcDbEntity
  8
寸法
 62
     0
 48
50.0
370
    -2
100
AcDbLine
 10
-5177.6408147931
 20
-27872.25459426372
 30
0.0
 11
-5562.269821361457
 21
-27872.25459426372
 31
0.0
  0
LINE
  5
35A3C
330
2B57C
100
AcDbEntity
  8
寸法
 62
     0
 48
50.0
370
    -2
100
AcDbLine
 10
-5177.6408147931
 20
-28972.25459426372
 30
0.0
 11
-5562.269821361457
 21
-28972.25459426372
 31
0.0
  0
LINE
  5
35A3D
330
2B57C
100
AcDbEntity
  8
寸法
 62
     0
 48
50.0
370
    -2
100
AcDbLine
 10
-5517.269821361456
 20
-27872.25459426372
 30
0.0
 11
-5517.269821361456
 21
-28972.25459426372
 31
0.0
  0
INSERT
  5
35A3E
330
2B57C
100
AcDbEntity
  8
寸法
 62
     0
 48
50.0
370
    -2
100
AcDbBlockReference
  2
_DOTSMALL
 10
-5517.269821361456
 20
-27872.25459426372
 30
0.0
 41
75.0
 42
75.0
 43
75.0
 50
90.0
  0
INSERT
  5
35A3F
330
2B57C
100
AcDbEntity
  8
寸法
 62
     0
 48
50.0
370
    -2
100
AcDbBlockReference
  2
_DOTSMALL
 10
-5517.269821361456
 20
-28972.25459426372
 30
0.0
 41
75.0
 42
75.0
 43
75.0
 50
270.0
  0
MTEXT
  5
35A40
330
2B57C
100
AcDbEntity
  8
寸法
 62
     7
 48
50.0
100
AcDbMText
 10
-5592.269821361452
 20
-28422.25459426373
 30
0.0
 40
90.0
 41
0.0
 71
     5
 72
     1
  1
\A1;1100
  7
STYLE1
 11
0.0000000000000001
 21
1.0
 31
0.0
 73
     1
 44
1.0
1001
ACAD
1000
MTEXTBEGIN
1070
    73
1070
     1
1070
    44
1040
1.0
1070
    74
1070
     0
1000
MTEXTEND
  0
POINT
  5
35A41
330
2B57C
100
AcDbEntity
  8
DEFPOINTS
 62
     0
 48
50.0
100
AcDbPoint
 10
-5162.6408147931
 20
-27872.25459426372
 30
0.0
  0
POINT
  5
35A42
330
2B57C
100
AcDbEntity
  8
DEFPOINTS
 62
     0
 48
50.0
100
AcDbPoint
 10
-5162.6408147931
 20
-28972.25459426372
 30
0.0
  0
POINT
  5
35A43
330
2B57C
100
AcDbEntity
  8
DEFPOINTS
 62
     0
 48
50.0
100
AcDbPoint
 10
-5517.269821361456
 20
-28972.25459426372
 30
0.0
  0
ENDBLK
  5
2B587
330
2B57C
100
AcDbEntity
  8
0
 48
50.0
100
AcDbBlockEnd
  0
BLOCK
  5
2B592
330
2B588
100
AcDbEntity
  8
0
 48
50.0
100
AcDbBlockBegin
  2
*D15
 70
     1
 10
0.0
 20
0.0
 30
0.0
  3
*D15
  1

  0
LINE
  5
35A44
330
2B588
100
AcDbEntity
  8
寸法
 62
     0
 48
50.0
370
    -2
100
AcDbLine
 10
-4762.640814793099
 20
-28437.25459426373
 30
0.0
 11
-4762.640814793099
 21
-29255.39081030081
 31
0.0
  0
LINE
  5
35A45
330
2B588
100
AcDbEntity
  8
寸法
 62
     0
 48
50.0
370
    -2
100
AcDbLine
 10
-5162.6408147931
 20
-28987.25459426372
 30
0.0
 11
-5162.6408147931
 21
-29255.39081030081
 31
0.0
  0
LINE
  5
35A46
330
2B588
100
AcDbEntity
  8
寸法
 62
     0
 48
50.0
370
    -2
100
AcDbLine
 10
-4762.640814793099
 20
-29210.39081030082
 30
0.0
 11
-5162.6408147931
 21
-29210.39081030082
 31
0.0
  0
INSERT
  5
35A47
330
2B588
100
AcDbEntity
  8
寸法
 62
     0
 48
50.0
370
    -2
100
AcDbBlockReference
  2
_DOTSMALL
 10
-4762.640814793099
 20
-29210.39081030082
 30
0.0
 41
75.0
 42
75.0
 43
75.0
  0
INSERT
  5
35A48
330
2B588
100
AcDbEntity
  8
寸法
 62
     0
 48
50.0
370
    -2
100
AcDbBlockReference
  2
_DOTSMALL
 10
-5162.6408147931
 20
-29210.39081030082
 30
0.0
 41
75.0
 42
75.0
 43
75.0
 50
180.0
  0
MTEXT
  5
35A49
330
2B588
100
AcDbEntity
  8
寸法
 62
     7
 48
50.0
100
AcDbMText
 10
-4962.6408147931
 20
-29135.39081030081
 30
0.0
 40
90.0
 41
0.0
 71
     5
 72
     1
  1
\A1;400
  7
STYLE1
 73
     1
 44
1.0
1001
ACAD
1000
MTEXTBEGIN
1070
    73
1070
     1
1070
    44
1040
1.0
1070
    74
1070
     0
1000
MTEXTEND
  0
POINT
  5
35A4A
330
2B588
100
AcDbEntity
  8
DEFPOINTS
 62
     0
 48
50.0
100
AcDbPoint
 10
-4762.640814793099
 20
-28422.25459426373
 30
0.0
  0
POINT
  5
35A4B
330
2B588
100
AcDbEntity
  8
DEFPOINTS
 62
     0
 48
50.0
100
AcDbPoint
 10
-5162.6408147931
 20
-28972.25459426372
 30
0.0
  0
POINT
  5
35A4C
330
2B588
100
AcDbEntity
  8
DEFPOINTS
 62
     0
 48
50.0
100
AcDbPoint
 10
-5162.6408147931
 20
-29210.39081030082
 30
0.0
  0
ENDBLK
  5
2B593
330
2B588
100
AcDbEntity
  8
0
 48
50.0
100
AcDbBlockEnd
  0
BLOCK
  5
2B59E
330
2B594
100
AcDbEntity
  8
0
 48
50.0
100
AcDbBlockBegin
  2
*D16
 70
     1
 10
0.0
 20
0.0
 30
0.0
  3
*D16
  1

  0
LINE
  5
35A4D
330
2B594
100
AcDbEntity
  8
寸法
 62
     0
 48
50.0
370
    -2
100
AcDbLine
 10
-5162.6408147931
 20
-28987.25459426372
 30
0.0
 11
-5162.6408147931
 21
-29493.52702633789
 31
0.0
  0
LINE
  5
35A4E
330
2B594
100
AcDbEntity
  8
寸法
 62
     0
 48
50.0
370
    -2
100
AcDbLine
 10
-4362.640814793099
 20
-28987.25459426372
 30
0.0
 11
-4362.640814793099
 21
-29493.52702633789
 31
0.0
  0
LINE
  5
35A4F
330
2B594
100
AcDbEntity
  8
寸法
 62
     0
 48
50.0
370
    -2
100
AcDbLine
 10
-5162.6408147931
 20
-29448.52702633789
 30
0.0
 11
-4362.640814793099
 21
-29448.52702633789
 31
0.0
  0
INSERT
  5
35A50
330
2B594
100
AcDbEntity
  8
寸法
 62
     0
 48
50.0
370
    -2
100
AcDbBlockReference
  2
_DOTSMALL
 10
-5162.6408147931
 20
-29448.52702633789
 30
0.0
 41
75.0
 42
75.0
 43
75.0
 50
180.0
  0
INSERT
  5
35A51
330
2B594
100
AcDbEntity
  8
寸法
 62
     0
 48
50.0
370
    -2
100
AcDbBlockReference
  2
_DOTSMALL
 10
-4362.640814793099
 20
-29448.52702633789
 30
0.0
 41
75.0
 42
75.0
 43
75.0
  0
MTEXT
  5
35A52
330
2B594
100
AcDbEntity
  8
寸法
 62
     7
 48
50.0
100
AcDbMText
 10
-4762.640814793099
 20
-29373.52702633789
 30
0.0
 40
90.0
 41
0.0
 71
     5
 72
     1
  1
\A1;800
  7
STYLE1
 73
     1
 44
1.0
1001
ACAD
1000
MTEXTBEGIN
1070
    73
1070
     1
1070
    44
1040
1.0
1070
    74
1070
     0
1000
MTEXTEND
  0
POINT
  5
35A53
330
2B594
100
AcDbEntity
  8
DEFPOINTS
 62
     0
 48
50.0
100
AcDbPoint
 10
-5162.6408147931
 20
-28972.25459426372
 30
0.0
  0
POINT
  5
35A54
330
2B594
100
AcDbEntity
  8
DEFPOINTS
 62
     0
 48
50.0
100
AcDbPoint
 10
-4362.640814793099
 20
-28972.25459426372
 30
0.0
  0
POINT
  5
35A55
330
2B594
100
AcDbEntity
  8
DEFPOINTS
 62
     0
 48
50.0
100
AcDbPoint
 10
-4362.640814793099
 20
-29448.52702633789
 30
0.0
  0
ENDBLK
  5
2B59F
330
2B594
100
AcDbEntity
  8
0
 48
50.0
100
AcDbBlockEnd
  0
BLOCK
  5
2B5AA
330
2B5A0
100
AcDbEntity
  8
0
 48
50.0
100
AcDbBlockBegin
  2
*D17
 70
     1
 10
0.0
 20
0.0
 30
0.0
  3
*D17
  1

  0
LINE
  5
35A56
330
2B5A0
100
AcDbEntity
  8
寸法
 62
     0
 48
50.0
370
    -2
100
AcDbLine
 10
-7562.6408147931
 20
-27857.25459426374
 30
0.0
 11
-7562.6408147931
 21
-27517.80230013262
 31
0.0
  0
LINE
  5
35A57
330
2B5A0
100
AcDbEntity
  8
寸法
 62
     0
 48
50.0
370
    -2
100
AcDbLine
 10
-7162.6408147931
 20
-27907.25459426372
 30
0.0
 11
-7162.6408147931
 21
-27517.80230013262
 31
0.0
  0
LINE
  5
35A58
330
2B5A0
100
AcDbEntity
  8
寸法
 62
     0
 48
50.0
370
    -2
100
AcDbLine
 10
-7562.6408147931
 20
-27562.80230013262
 30
0.0
 11
-7162.6408147931
 21
-27562.80230013262
 31
0.0
  0
INSERT
  5
35A59
330
2B5A0
100
AcDbEntity
  8
寸法
 62
     0
 48
50.0
370
    -2
100
AcDbBlockReference
  2
_DOTSMALL
 10
-7562.6408147931
 20
-27562.80230013262
 30
0.0
 41
75.0
 42
75.0
 43
75.0
 50
180.0
  0
INSERT
  5
35A5A
330
2B5A0
100
AcDbEntity
  8
寸法
 62
     0
 48
50.0
370
    -2
100
AcDbBlockReference
  2
_DOTSMALL
 10
-7162.6408147931
 20
-27562.80230013262
 30
0.0
 41
75.0
 42
75.0
 43
75.0
  0
MTEXT
  5
35A5B
330
2B5A0
100
AcDbEntity
  8
寸法
 62
     7
 48
50.0
100
AcDbMText
 10
-7362.6408147931
 20
-27487.80230013262
 30
0.0
 40
90.0
 41
0.0
 71
     5
 72
     1
  1
\A1;400
  7
STYLE1
 73
     1
 44
1.0
1001
ACAD
1000
MTEXTBEGIN
1070
    73
1070
     1
1070
    44
1040
1.0
1070
    74
1070
     0
1000
MTEXTEND
  0
POINT
  5
35A5C
330
2B5A0
100
AcDbEntity
  8
DEFPOINTS
 62
     0
 48
50.0
100
AcDbPoint
 10
-7562.6408147931
 20
-27872.25459426375
 30
0.0
  0
POINT
  5
35A5D
330
2B5A0
100
AcDbEntity
  8
DEFPOINTS
 62
     0
 48
50.0
100
AcDbPoint
 10
-7162.6408147931
 20
-27922.25459426372
 30
0.0
  0
POINT
  5
35A5E
330
2B5A0
100
AcDbEntity
  8
DEFPOINTS
 62
     0
 48
50.0
100
AcDbPoint
 10
-7162.6408147931
 20
-27562.80230013262
 30
0.0
  0
ENDBLK
  5
2B5AB
330
2B5A0
100
AcDbEntity
  8
0
 48
50.0
100
AcDbBlockEnd
  0
BLOCK
  5
2B5B6
330
2B5AC
100
AcDbEntity
  8
0
 48
50.0
100
AcDbBlockBegin
  2
*D18
 70
     1
 10
0.0
 20
0.0
 30
0.0
  3
*D18
  1

  0
LINE
  5
35A5F
330
2B5AC
100
AcDbEntity
  8
寸法
 62
     0
 48
50.0
370
    -2
100
AcDbLine
 10
-7562.6408147931
 20
-27857.25459426374
 30
0.0
 11
-7562.6408147931
 21
-27323.7652611583
 31
0.0
  0
LINE
  5
35A60
330
2B5AC
100
AcDbEntity
  8
寸法
 62
     0
 48
50.0
370
    -2
100
AcDbLine
 10
-4362.640814793099
 20
-27857.25459426374
 30
0.0
 11
-4362.640814793099
 21
-27323.7652611583
 31
0.0
  0
LINE
  5
35A61
330
2B5AC
100
AcDbEntity
  8
寸法
 62
     0
 48
50.0
370
    -2
100
AcDbLine
 10
-7562.6408147931
 20
-27368.7652611583
 30
0.0
 11
-4362.640814793099
 21
-27368.7652611583
 31
0.0
  0
INSERT
  5
35A62
330
2B5AC
100
AcDbEntity
  8
寸法
 62
     0
 48
50.0
370
    -2
100
AcDbBlockReference
  2
_DOTSMALL
 10
-7562.6408147931
 20
-27368.7652611583
 30
0.0
 41
75.0
 42
75.0
 43
75.0
 50
180.0
  0
INSERT
  5
35A63
330
2B5AC
100
AcDbEntity
  8
寸法
 62
     0
 48
50.0
370
    -2
100
AcDbBlockReference
  2
_DOTSMALL
 10
-4362.640814793099
 20
-27368.7652611583
 30
0.0
 41
75.0
 42
75.0
 43
75.0
  0
MTEXT
  5
35A64
330
2B5AC
100
AcDbEntity
  8
寸法
 62
     7
 48
50.0
100
AcDbMText
 10
-5962.6408147931
 20
-27293.75640289059
 30
0.0
 40
90.0
 41
0.0
 71
     5
 72
     1
  1
\A1;基礎土間寸法 3200
  7
STYLE1
 73
     1
 44
1.0
1001
ACAD
1000
MTEXTBEGIN
1070
    73
1070
     1
1070
    44
1040
1.0
1070
    74
1070
     0
1000
MTEXTEND
  0
POINT
  5
35A65
330
2B5AC
100
AcDbEntity
  8
DEFPOINTS
 62
     0
 48
50.0
100
AcDbPoint
 10
-7562.6408147931
 20
-27872.25459426374
 30
0.0
  0
POINT
  5
35A66
330
2B5AC
100
AcDbEntity
  8
DEFPOINTS
 62
     0
 48
50.0
100
AcDbPoint
 10
-4362.640814793099
 20
-27872.25459426374
 30
0.0
  0
POINT
  5
35A67
330
2B5AC
100
AcDbEntity
  8
DEFPOINTS
 62
     0
 48
50.0
100
AcDbPoint
 10
-4362.640814793099
 20
-27368.7652611583
 30
0.0
  0
ENDBLK
  5
2B5B7
330
2B5AC
100
AcDbEntity
  8
0
 48
50.0
100
AcDbBlockEnd
  0
BLOCK
  5
2B5C2
330
2B5B8
100
AcDbEntity
  8
0
 48
50.0
100
AcDbBlockBegin
  2
*D19
 70
     1
 10
0.0
 20
0.0
 30
0.0
  3
*D19
  1

  0
LINE
  5
35A68
330
2B5B8
100
AcDbEntity
  8
寸法
 62
     0
 48
50.0
370
    -2
100
AcDbLine
 10
-4762.640814793099
 20
-27907.25459426372
 30
0.0
 11
-4762.640814793099
 21
-27517.80230013262
 31
0.0
  0
LINE
  5
35A69
330
2B5B8
100
AcDbEntity
  8
寸法
 62
     0
 48
50.0
370
    -2
100
AcDbLine
 10
-4362.640814793099
 20
-27857.25459426374
 30
0.0
 11
-4362.640814793099
 21
-27517.80230013262
 31
0.0
  0
LINE
  5
35A6A
330
2B5B8
100
AcDbEntity
  8
寸法
 62
     0
 48
50.0
370
    -2
100
AcDbLine
 10
-4762.640814793099
 20
-27562.80230013262
 30
0.0
 11
-4362.640814793099
 21
-27562.80230013262
 31
0.0
  0
INSERT
  5
35A6B
330
2B5B8
100
AcDbEntity
  8
寸法
 62
     0
 48
50.0
370
    -2
100
AcDbBlockReference
  2
_DOTSMALL
 10
-4762.640814793099
 20
-27562.80230013262
 30
0.0
 41
75.0
 42
75.0
 43
75.0
 50
180.0
  0
INSERT
  5
35A6C
330
2B5B8
100
AcDbEntity
  8
寸法
 62
     0
 48
50.0
370
    -2
100
AcDbBlockReference
  2
_DOTSMALL
 10
-4362.640814793099
 20
-27562.80230013262
 30
0.0
 41
75.0
 42
75.0
 43
75.0
  0
MTEXT
  5
35A6D
330
2B5B8
100
AcDbEntity
  8
寸法
 62
     7
 48
50.0
100
AcDbMText
 10
-4562.640814793099
 20
-27487.80230013262
 30
0.0
 40
90.0
 41
0.0
 71
     5
 72
     1
  1
\A1;400
  7
STYLE1
 73
     1
 44
1.0
1001
ACAD
1000
MTEXTBEGIN
1070
    73
1070
     1
1070
    44
1040
1.0
1070
    74
1070
     0
1000
MTEXTEND
  0
POINT
  5
35A6E
330
2B5B8
100
AcDbEntity
  8
DEFPOINTS
 62
     0
 48
50.0
100
AcDbPoint
 10
-4762.640814793099
 20
-27922.25459426372
 30
0.0
  0
POINT
  5
35A6F
330
2B5B8
100
AcDbEntity
  8
DEFPOINTS
 62
     0
 48
50.0
100
AcDbPoint
 10
-4362.640814793099
 20
-27872.25459426374
 30
0.0
  0
POINT
  5
35A70
330
2B5B8
100
AcDbEntity
  8
DEFPOINTS
 62
     0
 48
50.0
100
AcDbPoint
 10
-4362.640814793099
 20
-27562.80230013262
 30
0.0
  0
ENDBLK
  5
2B5C3
330
2B5B8
100
AcDbEntity
  8
0
 48
50.0
100
AcDbBlockEnd
  0
BLOCK
  5
2B5CE
330
2B5C4
100
AcDbEntity
  8
0
 48
50.0
100
AcDbBlockBegin
  2
*D20
 70
     1
 10
0.0
 20
0.0
 30
0.0
  3
*D20
  1

  0
LINE
  5
35A71
330
2B5C4
100
AcDbEntity
  8
寸法
 62
     0
 48
50.0
370
    -2
100
AcDbLine
 10
-7162.6408147931
 20
-27907.25459426372
 30
0.0
 11
-7162.6408147931
 21
-27517.80230013262
 31
0.0
  0
LINE
  5
35A72
330
2B5C4
100
AcDbEntity
  8
寸法
 62
     0
 48
50.0
370
    -2
100
AcDbLine
 10
-4762.640814793099
 20
-27907.25459426372
 30
0.0
 11
-4762.640814793099
 21
-27517.80230013262
 31
0.0
  0
LINE
  5
35A73
330
2B5C4
100
AcDbEntity
  8
寸法
 62
     0
 48
50.0
370
    -2
100
AcDbLine
 10
-7162.6408147931
 20
-27562.80230013262
 30
0.0
 11
-4762.640814793099
 21
-27562.80230013262
 31
0.0
  0
INSERT
  5
35A74
330
2B5C4
100
AcDbEntity
  8
寸法
 62
     0
 48
50.0
370
    -2
100
AcDbBlockReference
  2
_DOTSMALL
 10
-7162.6408147931
 20
-27562.80230013262
 30
0.0
 41
75.0
 42
75.0
 43
75.0
 50
180.0
  0
INSERT
  5
35A75
330
2B5C4
100
AcDbEntity
  8
寸法
 62
     0
 48
50.0
370
    -2
100
AcDbBlockReference
  2
_DOTSMALL
 10
-4762.640814793099
 20
-27562.80230013262
 30
0.0
 41
75.0
 42
75.0
 43
75.0
  0
MTEXT
  5
35A76
330
2B5C4
100
AcDbEntity
  8
寸法
 62
     7
 48
50.0
100
AcDbMText
 10
-5962.6408147931
 20
-27487.79344186491
 30
0.0
 40
90.0
 41
0.0
 71
     5
 72
     1
  1
\A1;2400
  7
STYLE1
 73
     1
 44
1.0
1001
ACAD
1000
MTEXTBEGIN
1070
    73
1070
     1
1070
    44
1040
1.0
1070
    74
1070
     0
1000
MTEXTEND
  0
POINT
  5
35A77
330
2B5C4
100
AcDbEntity
  8
DEFPOINTS
 62
     0
 48
50.0
100
AcDbPoint
 10
-7162.6408147931
 20
-27922.25459426372
 30
0.0
  0
POINT
  5
35A78
330
2B5C4
100
AcDbEntity
  8
DEFPOINTS
 62
     0
 48
50.0
100
AcDbPoint
 10
-4762.640814793099
 20
-27922.25459426372
 30
0.0
  0
POINT
  5
35A79
330
2B5C4
100
AcDbEntity
  8
DEFPOINTS
 62
     0
 48
50.0
100
AcDbPoint
 10
-4762.640814793099
 20
-27562.80230013262
 30
0.0
  0
ENDBLK
  5
2B5CF
330
2B5C4
100
AcDbEntity
  8
0
 48
50.0
100
AcDbBlockEnd
  0
BLOCK
  5
35C3A
330
35C30
100
AcDbEntity
  8
0
 48
50.0
100
AcDbBlockBegin
  2
*D21
 70
     1
 10
0.0
 20
0.0
 30
0.0
  3
*D21
  1

  0
LINE
  5
35EE8
330
35C30
100
AcDbEntity
  8
寸法
 62
     0
 48
50.0
370
    -2
100
AcDbLine
 10
-186.4733344170308
 20
-29640.46023004438
 30
0.0
 11
-186.4733344170309
 21
-30342.16242077717
 31
0.0
  0
LINE
  5
35EE9
330
35C30
100
AcDbEntity
  8
寸法
 62
     0
 48
50.0
370
    -2
100
AcDbLine
 10
-1286.473334417024
 20
-29640.46023004438
 30
0.0
 11
-1286.473334417024
 21
-30342.16242077717
 31
0.0
  0
LINE
  5
35EEA
330
35C30
100
AcDbEntity
  8
寸法
 62
     0
 48
50.0
370
    -2
100
AcDbLine
 10
-186.4733344170309
 20
-30297.16242077717
 30
0.0
 11
-1286.473334417024
 21
-30297.16242077717
 31
0.0
  0
INSERT
  5
35EEB
330
35C30
100
AcDbEntity
  8
寸法
 62
     0
 48
50.0
370
    -2
100
AcDbBlockReference
  2
_DOTSMALL
 10
-186.4733344170309
 20
-30297.16242077717
 30
0.0
 41
75.0
 42
75.0
 43
75.0
  0
INSERT
  5
35EEC
330
35C30
100
AcDbEntity
  8
寸法
 62
     0
 48
50.0
370
    -2
100
AcDbBlockReference
  2
_DOTSMALL
 10
-1286.473334417024
 20
-30297.16242077717
 30
0.0
 41
75.0
 42
75.0
 43
75.0
 50
180.0
  0
MTEXT
  5
35EED
330
35C30
100
AcDbEntity
  8
寸法
 62
     7
 48
50.0
100
AcDbMText
 10
-736.4733344170272
 20
-30222.16242077717
 30
0.0
 40
90.0
 41
0.0
 71
     5
 72
     1
  1
\A1;1100
  7
STYLE1
 73
     1
 44
1.0
1001
ACAD
1000
MTEXTBEGIN
1070
    73
1070
     1
1070
    44
1040
1.0
1070
    74
1070
     0
1000
MTEXTEND
  0
POINT
  5
35EEE
330
35C30
100
AcDbEntity
  8
DEFPOINTS
 62
     0
 48
50.0
100
AcDbPoint
 10
-186.4733344170308
 20
-29625.46023004438
 30
0.0
  0
POINT
  5
35EEF
330
35C30
100
AcDbEntity
  8
DEFPOINTS
 62
     0
 48
50.0
100
AcDbPoint
 10
-1286.473334417024
 20
-29625.46023004438
 30
0.0
  0
POINT
  5
35EF0
330
35C30
100
AcDbEntity
  8
DEFPOINTS
 62
     0
 48
50.0
100
AcDbPoint
 10
-1286.473334417024
 20
-30297.16242077717
 30
0.0
  0
ENDBLK
  5
35C3B
330
35C30
100
AcDbEntity
  8
0
 48
50.0
100
AcDbBlockEnd
  0
BLOCK
  5
35C48
330
35C3C
100
AcDbEntity
  8
0
 48
50.0
100
AcDbBlockBegin
  2
*D22
 70
     1
 10
0.0
 20
0.0
 30
0.0
  3
*D22
  1

  0
LINE
  5
35EF1
330
35C3C
100
AcDbEntity
  8
寸法
 62
     0
 48
50.0
370
    -2
100
AcDbLine
 10
-91.47333441702357
 20
-29625.46023004438
 30
0.0
 11
150.9680301836804
 21
-29625.46023004438
 31
0.0
  0
LINE
  5
35EF2
330
35C3C
100
AcDbEntity
  8
寸法
 62
     0
 48
50.0
370
    -2
100
AcDbLine
 10
-91.47333441702357
 20
-29675.46023004438
 30
0.0
 11
150.9680301836804
 21
-29675.46023004438
 31
0.0
  0
LINE
  5
35EF3
330
35C3C
100
AcDbEntity
  8
寸法
 62
     0
 48
50.0
370
    -2
100
AcDbLine
 10
105.9680301836804
 20
-29625.46023004438
 30
0.0
 11
105.9680301836804
 21
-29550.46023004438
 31
0.0
  0
LINE
  5
35EF4
330
35C3C
100
AcDbEntity
  8
寸法
 62
     0
 48
50.0
370
    -2
100
AcDbLine
 10
105.9680301836804
 20
-29675.46023004438
 30
0.0
 11
105.9680301836803
 21
-29987.55471823336
 31
0.0
  0
LINE
  5
35EF5
330
35C3C
100
AcDbEntity
  8
寸法
 62
     0
 48
50.0
370
    -2
100
AcDbLine
 10
105.9680301836804
 20
-29625.46023004438
 30
0.0
 11
105.9680301836804
 21
-29675.46023004438
 31
0.0
  0
INSERT
  5
35EF6
330
35C3C
100
AcDbEntity
  8
寸法
 62
     0
 48
50.0
370
    -2
100
AcDbBlockReference
  2
_DOTSMALL
 10
105.9680301836804
 20
-29625.46023004438
 30
0.0
 41
75.0
 42
75.0
 43
75.0
 50
270.0
  0
INSERT
  5
35EF7
330
35C3C
100
AcDbEntity
  8
寸法
 62
     0
 48
50.0
370
    -2
100
AcDbBlockReference
  2
_DOTSMALL
 10
105.9680301836804
 20
-29675.46023004438
 30
0.0
 41
75.0
 42
75.0
 43
75.0
 50
90.0
  0
MTEXT
  5
35EF8
330
35C3C
100
AcDbEntity
  8
寸法
 62
     7
 48
50.0
100
AcDbMText
 10
30.96803018368519
 20
-29908.01928516249
 30
0.0
 40
90.0
 41
0.0
 71
     5
 72
     1
  1
\A1;50
  7
STYLE1
 11
0.0000000000000001
 21
1.0
 31
0.0
 73
     1
 44
1.0
1001
ACAD
1000
MTEXTBEGIN
1070
    73
1070
     1
1070
    44
1040
1.0
1070
    74
1070
     0
1000
MTEXTEND
  0
POINT
  5
35EF9
330
35C3C
100
AcDbEntity
  8
DEFPOINTS
 62
     0
 48
50.0
100
AcDbPoint
 10
-106.4733344170236
 20
-29625.46023004438
 30
0.0
  0
POINT
  5
35EFA
330
35C3C
100
AcDbEntity
  8
DEFPOINTS
 62
     0
 48
50.0
100
AcDbPoint
 10
-106.4733344170236
 20
-29675.46023004438
 30
0.0
  0
POINT
  5
35EFB
330
35C3C
100
AcDbEntity
  8
DEFPOINTS
 62
     0
 48
50.0
100
AcDbPoint
 10
105.9680301836804
 20
-29675.46023004438
 30
0.0
  0
ENDBLK
  5
35C49
330
35C3C
100
AcDbEntity
  8
0
 48
50.0
100
AcDbBlockEnd
  0
BLOCK
  5
35C54
330
35C4A
100
AcDbEntity
  8
0
 48
50.0
100
AcDbBlockBegin
  2
*D23
 70
     1
 10
0.0
 20
0.0
 30
0.0
  3
*D23
  1

  0
LINE
  5
35EFC
330
35C4A
100
AcDbEntity
  8
寸法
 62
     0
 48
50.0
370
    -2
100
AcDbLine
 10
-1286.473334417024
 20
-29640.46023004438
 30
0.0
 11
-1286.473334417024
 21
-30112.07685968842
 31
0.0
  0
LINE
  5
35EFD
330
35C4A
100
AcDbEntity
  8
寸法
 62
     0
 48
50.0
370
    -2
100
AcDbLine
 10
-486.4733344170162
 20
-29211.51806187425
 30
0.0
 11
-486.4733344170163
 21
-30112.07685968842
 31
0.0
  0
LINE
  5
35EFE
330
35C4A
100
AcDbEntity
  8
寸法
 62
     0
 48
50.0
370
    -2
100
AcDbLine
 10
-1286.473334417024
 20
-30067.07685968843
 30
0.0
 11
-486.4733344170163
 21
-30067.07685968843
 31
0.0
  0
INSERT
  5
35EFF
330
35C4A
100
AcDbEntity
  8
寸法
 62
     0
 48
50.0
370
    -2
100
AcDbBlockReference
  2
_DOTSMALL
 10
-1286.473334417024
 20
-30067.07685968843
 30
0.0
 41
75.0
 42
75.0
 43
75.0
 50
180.0
  0
INSERT
  5
35F00
330
35C4A
100
AcDbEntity
  8
寸法
 62
     0
 48
50.0
370
    -2
100
AcDbBlockReference
  2
_DOTSMALL
 10
-486.4733344170163
 20
-30067.07685968843
 30
0.0
 41
75.0
 42
75.0
 43
75.0
  0
MTEXT
  5
35F01
330
35C4A
100
AcDbEntity
  8
寸法
 62
     7
 48
50.0
100
AcDbMText
 10
-886.4733344170199
 20
-29992.07685968842
 30
0.0
 40
90.0
 41
0.0
 71
     5
 72
     1
  1
\A1;800
  7
STYLE1
 73
     1
 44
1.0
1001
ACAD
1000
MTEXTBEGIN
1070
    73
1070
     1
1070
    44
1040
1.0
1070
    74
1070
     0
1000
MTEXTEND
  0
POINT
  5
35F02
330
35C4A
100
AcDbEntity
  8
DEFPOINTS
 62
     0
 48
50.0
100
AcDbPoint
 10
-1286.473334417024
 20
-29625.46023004438
 30
0.0
  0
POINT
  5
35F03
330
35C4A
100
AcDbEntity
  8
DEFPOINTS
 62
     0
 48
50.0
100
AcDbPoint
 10
-486.4733344170162
 20
-29196.51806187425
 30
0.0
  0
POINT
  5
35F04
330
35C4A
100
AcDbEntity
  8
DEFPOINTS
 62
     0
 48
50.0
100
AcDbPoint
 10
-486.4733344170163
 20
-30067.07685968843
 30
0.0
  0
ENDBLK
  5
35C55
330
35C4A
100
AcDbEntity
  8
0
 48
50.0
100
AcDbBlockEnd
  0
BLOCK
  5
35C60
330
35C56
100
AcDbEntity
  8
0
 48
50.0
100
AcDbBlockBegin
  2
*D24
 70
     1
 10
0.0
 20
0.0
 30
0.0
  3
*D24
  1

  0
LINE
  5
35F05
330
35C56
100
AcDbEntity
  8
寸法
 62
     0
 48
50.0
370
    -2
100
AcDbLine
 10
-486.4733344170162
 20
-29211.51806187425
 30
0.0
 11
-486.4733344170163
 21
-30112.07685968842
 31
0.0
  0
LINE
  5
35F06
330
35C56
100
AcDbEntity
  8
寸法
 62
     0
 48
50.0
370
    -2
100
AcDbLine
 10
-186.4733344170308
 20
-29640.46023004438
 30
0.0
 11
-186.4733344170309
 21
-30112.07685968842
 31
0.0
  0
LINE
  5
35F07
330
35C56
100
AcDbEntity
  8
寸法
 62
     0
 48
50.0
370
    -2
100
AcDbLine
 10
-486.4733344170163
 20
-30067.07685968843
 30
0.0
 11
-186.4733344170309
 21
-30067.07685968843
 31
0.0
  0
INSERT
  5
35F08
330
35C56
100
AcDbEntity
  8
寸法
 62
     0
 48
50.0
370
    -2
100
AcDbBlockReference
  2
_DOTSMALL
 10
-486.4733344170163
 20
-30067.07685968843
 30
0.0
 41
75.0
 42
75.0
 43
75.0
 50
180.0
  0
INSERT
  5
35F09
330
35C56
100
AcDbEntity
  8
寸法
 62
     0
 48
50.0
370
    -2
100
AcDbBlockReference
  2
_DOTSMALL
 10
-186.4733344170309
 20
-30067.07685968843
 30
0.0
 41
75.0
 42
75.0
 43
75.0
  0
MTEXT
  5
35F0A
330
35C56
100
AcDbEntity
  8
寸法
 62
     7
 48
50.0
100
AcDbMText
 10
-336.4733344170236
 20
-29992.07685968842
 30
0.0
 40
90.0
 41
0.0
 71
     5
 72
     1
  1
\A1;300
  7
STYLE1
 73
     1
 44
1.0
1001
ACAD
1000
MTEXTBEGIN
1070
    73
1070
     1
1070
    44
1040
1.0
1070
    74
1070
     0
1000
MTEXTEND
  0
POINT
  5
35F0B
330
35C56
100
AcDbEntity
  8
DEFPOINTS
 62
     0
 48
50.0
100
AcDbPoint
 10
-486.4733344170162
 20
-29196.51806187425
 30
0.0
  0
POINT
  5
35F0C
330
35C56
100
AcDbEntity
  8
DEFPOINTS
 62
     0
 48
50.0
100
AcDbPoint
 10
-186.4733344170308
 20
-29625.46023004438
 30
0.0
  0
POINT
  5
35F0D
330
35C56
100
AcDbEntity
  8
DEFPOINTS
 62
     0
 48
50.0
100
AcDbPoint
 10
-186.4733344170309
 20
-30067.07685968843
 30
0.0
  0
ENDBLK
  5
35C61
330
35C56
100
AcDbEntity
  8
0
 48
50.0
100
AcDbBlockEnd
  0
BLOCK
  5
35C6D
330
35C62
100
AcDbEntity
  8
0
 48
50.0
100
AcDbBlockBegin
  2
*D25
 70
     1
 10
0.0
 20
0.0
 30
0.0
  3
*D25
  1

  0
LINE
  5
35F0E
330
35C62
100
AcDbEntity
  8
寸法
 62
     0
 48
50.0
370
    -2
100
AcDbLine
 10
-1803.5891455167
 20
-29075.46023004438
 30
0.0
 11
-1984.170272618595
 21
-29075.46023004438
 31
0.0
  0
LINE
  5
35F0F
330
35C62
100
AcDbEntity
  8
寸法
 62
     0
 48
50.0
370
    -2
100
AcDbLine
 10
-1803.5891455167
 20
-29175.46023004438
 30
0.0
 11
-1984.170272618595
 21
-29175.46023004438
 31
0.0
  0
LINE
  5
35F10
330
35C62
100
AcDbEntity
  8
寸法
 62
     0
 48
50.0
370
    -2
100
AcDbLine
 10
-1939.170272618595
 20
-29075.46023004438
 30
0.0
 11
-1939.170272618595
 21
-29175.46023004438
 31
0.0
  0
LINE
  5
35F11
330
35C62
100
AcDbEntity
  8
寸法
 62
     0
 48
50.0
370
    -2
100
AcDbLine
 10
-1939.170272618595
 20
-29175.46023004438
 30
0.0
 11
-1939.170272618595
 21
-29454.53109618611
 31
0.0
  0
INSERT
  5
35F12
330
35C62
100
AcDbEntity
  8
寸法
 62
     0
 48
50.0
370
    -2
100
AcDbBlockReference
  2
_DOTSMALL
 10
-1939.170272618595
 20
-29075.46023004438
 30
0.0
 41
75.0
 42
75.0
 43
75.0
 50
90.0
  0
INSERT
  5
35F13
330
35C62
100
AcDbEntity
  8
寸法
 62
     0
 48
50.0
370
    -2
100
AcDbBlockReference
  2
_DOTSMALL
 10
-1939.170272618595
 20
-29175.46023004438
 30
0.0
 41
75.0
 42
75.0
 43
75.0
 50
270.0
  0
MTEXT
  5
35F14
330
35C62
100
AcDbEntity
  8
寸法
 62
     7
 48
50.0
100
AcDbMText
 10
-2014.17027261859
 20
-29352.49566311524
 30
0.0
 40
90.0
 41
0.0
 71
     5
 72
     1
  1
\A1;100
  7
STYLE1
 11
0.0000000000000001
 21
1.0
 31
0.0
 73
     1
 44
1.0
1001
ACAD
1000
MTEXTBEGIN
1070
    73
1070
     1
1070
    44
1040
1.0
1070
    74
1070
     0
1000
MTEXTEND
  0
POINT
  5
35F15
330
35C62
100
AcDbEntity
  8
DEFPOINTS
 62
     0
 48
50.0
100
AcDbPoint
 10
-1788.5891455167
 20
-29075.46023004438
 30
0.0
  0
POINT
  5
35F16
330
35C62
100
AcDbEntity
  8
DEFPOINTS
 62
     0
 48
50.0
100
AcDbPoint
 10
-1788.5891455167
 20
-29175.46023004438
 30
0.0
  0
POINT
  5
35F17
330
35C62
100
AcDbEntity
  8
DEFPOINTS
 62
     0
 48
50.0
100
AcDbPoint
 10
-1939.170272618595
 20
-29175.46023004438
 30
0.0
  0
ENDBLK
  5
35C6E
330
35C62
100
AcDbEntity
  8
0
 48
50.0
100
AcDbBlockEnd
  0
BLOCK
  5
35C7A
330
35C6F
100
AcDbEntity
  8
0
 48
50.0
100
AcDbBlockBegin
  2
*D26
 70
     1
 10
0.0
 20
0.0
 30
0.0
  3
*D26
  1

  0
LINE
  5
35F18
330
35C6F
100
AcDbEntity
  8
寸法
 62
     0
 48
50.0
370
    -2
100
AcDbLine
 10
-1803.5891455167
 20
-29075.46023004438
 30
0.0
 11
-1984.170272618595
 21
-29075.46023004438
 31
0.0
  0
LINE
  5
35F19
330
35C6F
100
AcDbEntity
  8
寸法
 62
     0
 48
50.0
370
    -2
100
AcDbLine
 10
-1803.5891455167
 20
-28975.46023004438
 30
0.0
 11
-1984.170272618595
 21
-28975.46023004438
 31
0.0
  0
LINE
  5
35F1A
330
35C6F
100
AcDbEntity
  8
寸法
 62
     0
 48
50.0
370
    -2
100
AcDbLine
 10
-1939.170272618595
 20
-29075.46023004438
 30
0.0
 11
-1939.170272618595
 21
-28975.46023004438
 31
0.0
  0
LINE
  5
35F1B
330
35C6F
100
AcDbEntity
  8
寸法
 62
     0
 48
50.0
370
    -2
100
AcDbLine
 10
-1939.170272618595
 20
-28975.46023004438
 30
0.0
 11
-1939.170272618595
 21
-28696.38936390264
 31
0.0
  0
INSERT
  5
35F1C
330
35C6F
100
AcDbEntity
  8
寸法
 62
     0
 48
50.0
370
    -2
100
AcDbBlockReference
  2
_DOTSMALL
 10
-1939.170272618595
 20
-29075.46023004438
 30
0.0
 41
75.0
 42
75.0
 43
75.0
 50
270.0
  0
INSERT
  5
35F1D
330
35C6F
100
AcDbEntity
  8
寸法
 62
     0
 48
50.0
370
    -2
100
AcDbBlockReference
  2
_DOTSMALL
 10
-1939.170272618595
 20
-28975.46023004438
 30
0.0
 41
75.0
 42
75.0
 43
75.0
 50
90.0
  0
MTEXT
  5
35F1E
330
35C6F
100
AcDbEntity
  8
寸法
 62
     7
 48
50.0
100
AcDbMText
 10
-2014.17027261859
 20
-28798.42479697351
 30
0.0
 40
90.0
 41
0.0
 71
     5
 72
     1
  1
\A1;100
  7
STYLE1
 11
0.0000000000000001
 21
1.0
 31
0.0
 73
     1
 44
1.0
1001
ACAD
1000
MTEXTBEGIN
1070
    73
1070
     1
1070
    44
1040
1.0
1070
    74
1070
     0
1000
MTEXTEND
  0
POINT
  5
35F1F
330
35C6F
100
AcDbEntity
  8
DEFPOINTS
 62
     0
 48
50.0
100
AcDbPoint
 10
-1788.5891455167
 20
-29075.46023004438
 30
0.0
  0
POINT
  5
35F20
330
35C6F
100
AcDbEntity
  8
DEFPOINTS
 62
     0
 48
50.0
100
AcDbPoint
 10
-1788.5891455167
 20
-28975.46023004438
 30
0.0
  0
POINT
  5
35F21
330
35C6F
100
AcDbEntity
  8
DEFPOINTS
 62
     0
 48
50.0
100
AcDbPoint
 10
-1939.170272618595
 20
-28975.46023004438
 30
0.0
  0
ENDBLK
  5
35C7B
330
35C6F
100
AcDbEntity
  8
0
 48
50.0
100
AcDbBlockEnd
  0
BLOCK
  5
35C84
330
35C7C
100
AcDbEntity
  8
0
 48
50.0
100
AcDbBlockBegin
  2
*D27
 70
     1
 10
0.0
 20
0.0
 30
0.0
  3
*D27
  1

  0
LINE
  5
35F22
330
35C7C
100
AcDbEntity
  8
寸法
 62
     0
 48
50.0
370
    -2
100
AcDbLine
 10
-486.4733344170162
 20
-28535.98739718934
 30
0.0
 11
-486.4733344170162
 21
-28217.68233074936
 31
0.0
  0
LINE
  5
35F23
330
35C7C
100
AcDbEntity
  8
寸法
 62
     0
 48
50.0
370
    -2
100
AcDbLine
 10
-286.4733344170163
 20
-28970.46023004437
 30
0.0
 11
-286.4733344170162
 21
-28217.68233074936
 31
0.0
  0
LINE
  5
35F24
330
35C7C
100
AcDbEntity
  8
寸法
 62
     0
 48
50.0
370
    -2
100
AcDbLine
 10
-486.4733344170162
 20
-28262.68233074936
 30
0.0
 11
-286.4733344170162
 21
-28262.68233074936
 31
0.0
  0
MTEXT
  5
35F25
330
35C7C
100
AcDbEntity
  8
寸法
 62
     7
 48
50.0
100
AcDbMText
 10
-386.4733344170163
 20
-28187.67347248165
 30
0.0
 40
90.0
 41
0.0
 71
     5
 72
     1
  1
\A1;200
  7
STYLE1
 73
     1
 44
1.0
1001
ACAD
1000
MTEXTBEGIN
1070
    73
1070
     1
1070
    44
1040
1.0
1070
    74
1070
     0
1000
MTEXTEND
  0
POINT
  5
35F26
330
35C7C
100
AcDbEntity
  8
DEFPOINTS
 62
     0
 48
50.0
100
AcDbPoint
 10
-486.4733344170162
 20
-28550.98739718934
 30
0.0
  0
POINT
  5
35F27
330
35C7C
100
AcDbEntity
  8
DEFPOINTS
 62
     0
 48
50.0
100
AcDbPoint
 10
-286.4733344170163
 20
-28985.46023004437
 30
0.0
  0
POINT
  5
35F28
330
35C7C
100
AcDbEntity
  8
DEFPOINTS
 62
     0
 48
50.0
100
AcDbPoint
 10
-286.4733344170162
 20
-28262.68233074936
 30
0.0
  0
ENDBLK
  5
35C85
330
35C7C
100
AcDbEntity
  8
0
 48
50.0
100
AcDbBlockEnd
  0
BLOCK
  5
35C92
330
35C86
100
AcDbEntity
  8
0
 48
50.0
100
AcDbBlockBegin
  2
*D28
 70
     1
 10
0.0
 20
0.0
 30
0.0
  3
*D28
  1

  0
LINE
  5
35F29
330
35C86
100
AcDbEntity
  8
寸法
 62
     0
 48
50.0
370
    -2
100
AcDbLine
 10
-106.6754568535034
 20
-29025.46023004438
 30
0.0
 11
150.9680301836805
 21
-29025.46023004438
 31
0.0
  0
LINE
  5
35F2A
330
35C86
100
AcDbEntity
  8
寸法
 62
     0
 48
50.0
370
    -2
100
AcDbLine
 10
-281.4733344170163
 20
-28975.46023004438
 30
0.0
 11
150.9680301836805
 21
-28975.46023004438
 31
0.0
  0
LINE
  5
35F2B
330
35C86
100
AcDbEntity
  8
寸法
 62
     0
 48
50.0
370
    -2
100
AcDbLine
 10
105.9680301836805
 20
-29025.46023004438
 30
0.0
 11
105.9680301836805
 21
-29100.46023004438
 31
0.0
  0
LINE
  5
35F2C
330
35C86
100
AcDbEntity
  8
寸法
 62
     0
 48
50.0
370
    -2
100
AcDbLine
 10
105.9680301836805
 20
-28975.46023004438
 30
0.0
 11
105.9680301836806
 21
-28666.38936390264
 31
0.0
  0
LINE
  5
35F2D
330
35C86
100
AcDbEntity
  8
寸法
 62
     0
 48
50.0
370
    -2
100
AcDbLine
 10
105.9680301836805
 20
-29025.46023004438
 30
0.0
 11
105.9680301836805
 21
-28975.46023004438
 31
0.0
  0
INSERT
  5
35F2E
330
35C86
100
AcDbEntity
  8
寸法
 62
     0
 48
50.0
370
    -2
100
AcDbBlockReference
  2
_DOTSMALL
 10
105.9680301836805
 20
-29025.46023004438
 30
0.0
 41
75.0
 42
75.0
 43
75.0
 50
90.0
  0
INSERT
  5
35F2F
330
35C86
100
AcDbEntity
  8
寸法
 62
     0
 48
50.0
370
    -2
100
AcDbBlockReference
  2
_DOTSMALL
 10
105.9680301836805
 20
-28975.46023004438
 30
0.0
 41
75.0
 42
75.0
 43
75.0
 50
270.0
  0
MTEXT
  5
35F30
330
35C86
100
AcDbEntity
  8
寸法
 62
     7
 48
50.0
100
AcDbMText
 10
30.96803018368519
 20
-28745.92479697351
 30
0.0
 40
90.0
 41
0.0
 71
     5
 72
     1
  1
\A1;50
  7
STYLE1
 11
0.0000000000000001
 21
1.0
 31
0.0
 73
     1
 44
1.0
1001
ACAD
1000
MTEXTBEGIN
1070
    73
1070
     1
1070
    44
1040
1.0
1070
    74
1070
     0
1000
MTEXTEND
  0
POINT
  5
35F31
330
35C86
100
AcDbEntity
  8
DEFPOINTS
 62
     0
 48
50.0
100
AcDbPoint
 10
-121.6754568535034
 20
-29025.46023004438
 30
0.0
  0
POINT
  5
35F32
330
35C86
100
AcDbEntity
  8
DEFPOINTS
 62
     0
 48
50.0
100
AcDbPoint
 10
-296.4733344170163
 20
-28975.46023004438
 30
0.0
  0
POINT
  5
35F33
330
35C86
100
AcDbEntity
  8
DEFPOINTS
 62
     0
 48
50.0
100
AcDbPoint
 10
105.9680301836805
 20
-28975.46023004438
 30
0.0
  0
ENDBLK
  5
35C93
330
35C86
100
AcDbEntity
  8
0
 48
50.0
100
AcDbBlockEnd
  0
BLOCK
  5
35C9E
330
35C94
100
AcDbEntity
  8
0
 48
50.0
100
AcDbBlockBegin
  2
*D29
 70
     1
 10
0.0
 20
0.0
 30
0.0
  3
*D29
  1

  0
LINE
  5
35F34
330
35C94
100
AcDbEntity
  8
寸法
 62
     0
 48
50.0
370
    -2
100
AcDbLine
 10
-106.6754568535034
 20
-29025.46023004438
 30
0.0
 11
150.9680301836853
 21
-29025.46023004438
 31
0.0
  0
LINE
  5
35F35
330
35C94
100
AcDbEntity
  8
寸法
 62
     0
 48
50.0
370
    -2
100
AcDbLine
 10
-91.47333441702357
 20
-29625.46023004438
 30
0.0
 11
150.9680301836852
 21
-29625.46023004438
 31
0.0
  0
LINE
  5
35F36
330
35C94
100
AcDbEntity
  8
寸法
 62
     0
 48
50.0
370
    -2
100
AcDbLine
 10
105.9680301836853
 20
-29025.46023004438
 30
0.0
 11
105.9680301836852
 21
-29625.46023004438
 31
0.0
  0
INSERT
  5
35F37
330
35C94
100
AcDbEntity
  8
寸法
 62
     0
 48
50.0
370
    -2
100
AcDbBlockReference
  2
_DOTSMALL
 10
105.9680301836853
 20
-29025.46023004438
 30
0.0
 41
75.0
 42
75.0
 43
75.0
 50
90.0
  0
INSERT
  5
35F38
330
35C94
100
AcDbEntity
  8
寸法
 62
     0
 48
50.0
370
    -2
100
AcDbBlockReference
  2
_DOTSMALL
 10
105.9680301836852
 20
-29625.46023004438
 30
0.0
 41
75.0
 42
75.0
 43
75.0
 50
270.0
  0
MTEXT
  5
35F39
330
35C94
100
AcDbEntity
  8
寸法
 62
     7
 48
50.0
100
AcDbMText
 10
30.96803018368997
 20
-29325.46023004438
 30
0.0
 40
90.0
 41
0.0
 71
     5
 72
     1
  1
\A1;600
  7
STYLE1
 11
0.0000000000000001
 21
1.0
 31
0.0
 73
     1
 44
1.0
1001
ACAD
1000
MTEXTBEGIN
1070
    73
1070
     1
1070
    44
1040
1.0
1070
    74
1070
     0
1000
MTEXTEND
  0
POINT
  5
35F3A
330
35C94
100
AcDbEntity
  8
DEFPOINTS
 62
     0
 48
50.0
100
AcDbPoint
 10
-121.6754568535034
 20
-29025.46023004438
 30
0.0
  0
POINT
  5
35F3B
330
35C94
100
AcDbEntity
  8
DEFPOINTS
 62
     0
 48
50.0
100
AcDbPoint
 10
-106.4733344170236
 20
-29625.46023004438
 30
0.0
  0
POINT
  5
35F3C
330
35C94
100
AcDbEntity
  8
DEFPOINTS
 62
     0
 48
50.0
100
AcDbPoint
 10
105.9680301836852
 20
-29625.46023004438
 30
0.0
  0
ENDBLK
  5
35C9F
330
35C94
100
AcDbEntity
  8
0
 48
50.0
100
AcDbBlockEnd
  0
BLOCK
  5
35CAB
330
35CA0
100
AcDbEntity
  8
0
 48
50.0
100
AcDbBlockBegin
  2
*D30
 70
     1
 10
0.0
 20
0.0
 30
0.0
  3
*D30
  1

  0
LINE
  5
35ED3
330
35CA0
100
AcDbEntity
  8
寸法
 62
     0
 48
50.0
370
    -2
100
AcDbLine
 10
-1366.770336601839
 20
-29175.46023004438
 30
0.0
 11
-1754.265441281565
 21
-29175.46023004438
 31
0.0
  0
LINE
  5
35ED4
330
35CA0
100
AcDbEntity
  8
寸法
 62
     0
 48
50.0
370
    -2
100
AcDbLine
 10
-607.4733344170162
 20
-29115.46023004438
 30
0.0
 11
-1754.265441281565
 21
-29115.46023004438
 31
0.0
  0
LINE
  5
35ED5
330
35CA0
100
AcDbEntity
  8
寸法
 62
     0
 48
50.0
370
    -2
100
AcDbLine
 10
-1709.265441281565
 20
-29115.46023004438
 30
0.0
 11
-1709.265441281565
 21
-29175.46023004438
 31
0.0
  0
LINE
  5
35ED6
330
35CA0
100
AcDbEntity
  8
寸法
 62
     0
 48
50.0
370
    -2
100
AcDbLine
 10
-1709.265441281565
 20
-29175.46023004438
 30
0.0
 11
-1709.265441281566
 21
-29414.91692295777
 31
0.0
  0
INSERT
  5
35ED7
330
35CA0
100
AcDbEntity
  8
寸法
 62
     0
 48
50.0
370
    -2
100
AcDbBlockReference
  2
_DOTSMALL
 10
-1709.265441281565
 20
-29115.46023004438
 30
0.0
 41
75.0
 42
75.0
 43
75.0
 50
90.0
  0
INSERT
  5
35ED8
330
35CA0
100
AcDbEntity
  8
寸法
 62
     0
 48
50.0
370
    -2
100
AcDbBlockReference
  2
_DOTSMALL
 10
-1709.265441281565
 20
-29175.46023004438
 30
0.0
 41
75.0
 42
75.0
 43
75.0
 50
270.0
  0
MTEXT
  5
35ED9
330
35CA0
100
AcDbEntity
  8
寸法
 62
     7
 48
50.0
100
AcDbMText
 10
-1784.265441281561
 20
-29332.68857650107
 30
0.0
 40
90.0
 41
0.0
 71
     5
 72
     1
  1
\A1;60
  7
STYLE1
 11
0.0000000000000001
 21
1.0
 31
0.0
 73
     1
 44
1.0
1001
ACAD
1000
MTEXTBEGIN
1070
    73
1070
     1
1070
    44
1040
1.0
1070
    74
1070
     0
1000
MTEXTEND
  0
POINT
  5
35EDA
330
35CA0
100
AcDbEntity
  8
DEFPOINTS
 62
     0
 48
50.0
100
AcDbPoint
 10
-1351.770336601839
 20
-29175.46023004438
 30
0.0
  0
POINT
  5
35EDB
330
35CA0
100
AcDbEntity
  8
DEFPOINTS
 62
     0
 48
50.0
100
AcDbPoint
 10
-592.4733344170163
 20
-29115.46023004438
 30
0.0
  0
POINT
  5
35EDC
330
35CA0
100
AcDbEntity
  8
DEFPOINTS
 62
     0
 48
50.0
100
AcDbPoint
 10
-1709.265441281565
 20
-29115.46023004438
 30
0.0
  0
ENDBLK
  5
35CAC
330
35CA0
100
AcDbEntity
  8
0
 48
50.0
100
AcDbBlockEnd
  0
BLOCK
  5
35CB9
330
35CAD
100
AcDbEntity
  8
0
 48
50.0
100
AcDbBlockBegin
  2
*D31
 70
     1
 10
0.0
 20
0.0
 30
0.0
  3
*D31
  1

  0
LINE
  5
35EDD
330
35CAD
100
AcDbEntity
  8
寸法
 62
     0
 48
50.0
370
    -2
100
AcDbLine
 10
-1366.770336601839
 20
-29175.46023004438
 30
0.0
 11
-1554.089537888319
 21
-29175.46023004438
 31
0.0
  0
LINE
  5
35EDE
330
35CAD
100
AcDbEntity
  8
寸法
 62
     0
 48
50.0
370
    -2
100
AcDbLine
 10
-641.4733344170163
 20
-29145.46023004438
 30
0.0
 11
-1554.089537888319
 21
-29145.46023004438
 31
0.0
  0
LINE
  5
35EDF
330
35CAD
100
AcDbEntity
  8
寸法
 62
     0
 48
50.0
370
    -2
100
AcDbLine
 10
-1509.089537888319
 20
-29145.46023004438
 30
0.0
 11
-1509.089537888319
 21
-29070.46023004438
 31
0.0
  0
LINE
  5
35EE0
330
35CAD
100
AcDbEntity
  8
寸法
 62
     0
 48
50.0
370
    -2
100
AcDbLine
 10
-1509.089537888319
 20
-29175.46023004438
 30
0.0
 11
-1509.089537888319
 21
-29484.53109618612
 31
0.0
  0
LINE
  5
35EE1
330
35CAD
100
AcDbEntity
  8
寸法
 62
     0
 48
50.0
370
    -2
100
AcDbLine
 10
-1509.089537888319
 20
-29145.46023004438
 30
0.0
 11
-1509.089537888319
 21
-29175.46023004438
 31
0.0
  0
INSERT
  5
35EE2
330
35CAD
100
AcDbEntity
  8
寸法
 62
     0
 48
50.0
370
    -2
100
AcDbBlockReference
  2
_DOTSMALL
 10
-1509.089537888319
 20
-29145.46023004438
 30
0.0
 41
75.0
 42
75.0
 43
75.0
 50
270.0
  0
INSERT
  5
35EE3
330
35CAD
100
AcDbEntity
  8
寸法
 62
     0
 48
50.0
370
    -2
100
AcDbBlockReference
  2
_DOTSMALL
 10
-1509.089537888319
 20
-29175.46023004438
 30
0.0
 41
75.0
 42
75.0
 43
75.0
 50
90.0
  0
MTEXT
  5
35EE4
330
35CAD
100
AcDbEntity
  8
寸法
 62
     7
 48
50.0
100
AcDbMText
 10
-1584.089537888314
 20
-29404.99566311525
 30
0.0
 40
90.0
 41
0.0
 71
     5
 72
     1
  1
\A1;30
  7
STYLE1
 11
0.0000000000000001
 21
1.0
 31
0.0
 73
     1
 44
1.0
1001
ACAD
1000
MTEXTBEGIN
1070
    73
1070
     1
1070
    44
1040
1.0
1070
    74
1070
     0
1000
MTEXTEND
  0
POINT
  5
35EE5
330
35CAD
100
AcDbEntity
  8
DEFPOINTS
 62
     0
 48
50.0
100
AcDbPoint
 10
-1351.770336601839
 20
-29175.46023004438
 30
0.0
  0
POINT
  5
35EE6
330
35CAD
100
AcDbEntity
  8
DEFPOINTS
 62
     0
 48
50.0
100
AcDbPoint
 10
-626.4733344170163
 20
-29145.46023004438
 30
0.0
  0
POINT
  5
35EE7
330
35CAD
100
AcDbEntity
  8
DEFPOINTS
 62
     0
 48
50.0
100
AcDbPoint
 10
-1509.089537888319
 20
-29145.46023004438
 30
0.0
  0
ENDBLK
  5
35CBA
330
35CAD
100
AcDbEntity
  8
0
 48
50.0
100
AcDbBlockEnd
  0
BLOCK
  5
35FC2
330
35FBA
100
AcDbEntity
  8
0
 48
50.0
100
AcDbBlockBegin
  2
*D32
 70
     1
 10
0.0
 20
0.0
 30
0.0
  3
*D32
  1

  0
LINE
  5
35FC4
330
35FBA
100
AcDbEntity
  8
寸法
 62
     0
 48
50.0
370
    -2
100
AcDbLine
 10
-7577.640814793103
 20
-27972.25459426373
 30
0.0
 11
-7948.512651504334
 21
-27972.25459426373
 31
0.0
  0
LINE
  5
35FC5
330
35FBA
100
AcDbEntity
  8
寸法
 62
     0
 48
50.0
370
    -2
100
AcDbLine
 10
-7577.640814793099
 20
-27872.25459426375
 30
0.0
 11
-7948.512651504334
 21
-27872.25459426375
 31
0.0
  0
LINE
  5
35FC6
330
35FBA
100
AcDbEntity
  8
寸法
 62
     0
 48
50.0
370
    -2
100
AcDbLine
 10
-7903.512651504335
 20
-27972.25459426373
 30
0.0
 11
-7903.512651504335
 21
-27872.25459426375
 31
0.0
  0
LINE
  5
35FC7
330
35FBA
100
AcDbEntity
  8
寸法
 62
     0
 48
50.0
370
    -2
100
AcDbLine
 10
-7903.512651504335
 20
-27872.25459426375
 30
0.0
 11
-7903.512651504335
 21
-27593.18372812201
 31
0.0
  0
INSERT
  5
35FC8
330
35FBA
100
AcDbEntity
  8
寸法
 62
     0
 48
50.0
370
    -2
100
AcDbBlockReference
  2
_DOTSMALL
 10
-7903.512651504335
 20
-27972.25459426373
 30
0.0
 41
75.0
 42
75.0
 43
75.0
 50
270.0
  0
INSERT
  5
35FC9
330
35FBA
100
AcDbEntity
  8
寸法
 62
     0
 48
50.0
370
    -2
100
AcDbBlockReference
  2
_DOTSMALL
 10
-7903.512651504335
 20
-27872.25459426375
 30
0.0
 41
75.0
 42
75.0
 43
75.0
 50
90.0
  0
MTEXT
  5
35FCA
330
35FBA
100
AcDbEntity
  8
寸法
 62
     7
 48
50.0
100
AcDbMText
 10
-7978.512651504335
 20
-27695.21916119288
 30
0.0
 40
90.0
 41
0.0
 71
     5
 72
     1
  1
\A1;100
  7
STYLE1
 11
0.0000000000000001
 21
1.0
 31
0.0
 73
     1
 44
1.0
1001
ACAD
1000
MTEXTBEGIN
1070
    73
1070
     1
1070
    44
1040
1.0
1070
    74
1070
     0
1000
MTEXTEND
  0
POINT
  5
35FCB
330
35FBA
100
AcDbEntity
  8
DEFPOINTS
 62
     0
 48
50.0
100
AcDbPoint
 10
-7562.640814793103
 20
-27972.25459426373
 30
0.0
  0
POINT
  5
35FCC
330
35FBA
100
AcDbEntity
  8
DEFPOINTS
 62
     0
 48
50.0
100
AcDbPoint
 10
-7562.6408147931
 20
-27872.25459426375
 30
0.0
  0
POINT
  5
35FCD
330
35FBA
100
AcDbEntity
  8
DEFPOINTS
 62
     0
 48
50.0
100
AcDbPoint
 10
-7903.512651504335
 20
-27872.25459426375
 30
0.0
  0
ENDBLK
  5
35FC3
330
35FBA
100
AcDbEntity
  8
0
 48
50.0
100
AcDbBlockEnd
  0
ENDSEC
  0
SECTION
  2
ENTITIES
  0
LINE
  5
29B81
330
747D
100
AcDbEntity
  8
補助
  6
PHANTOM
 62
   230
 48
50.0
100
AcDbLine
 10
-9555.887385008066
 20
-33326.13760136034
 30
0.0
 11
-9555.887385008066
 21
-24768.93760136035
 31
0.0
  0
LINE
  5
29B82
330
747D
100
AcDbEntity
  8
補助
  6
PHANTOM
 62
   230
 48
50.0
100
AcDbLine
 10
169.512614991936
 20
-29726.13760136035
 30
0.0
 11
2569.512614991936
 21
-29726.13760136035
 31
0.0
  0
LINE
  5
29B83
330
747D
100
AcDbEntity
  8
補助
  6
PHANTOM
 62
   230
 48
50.0
100
AcDbLine
 10
-9555.887385008066
 20
-24768.93760136035
 30
0.0
 11
2569.512614991936
 21
-24768.93760136035
 31
0.0
  0
LINE
  5
29B84
330
747D
100
AcDbEntity
  8
補助
  6
PHANTOM
 62
   230
 48
50.0
100
AcDbLine
 10
2569.512614991936
 20
-24768.93760136035
 30
0.0
 11
2569.512614991936
 21
-32426.13760136035
 31
0.0
  0
LINE
  5
29B85
330
747D
100
AcDbEntity
  8
補助
  6
PHANTOM
 62
   230
 48
50.0
100
AcDbLine
 10
169.512614991936
 20
-24768.93760136035
 30
0.0
 11
169.512614991936
 21
-29726.13760136035
 31
0.0
  0
LINE
  5
29B86
330
747D
100
AcDbEntity
  8
仕様書枠
  6
Continuous
 48
50.0
100
AcDbLine
 10
169.5126222747476
 20
-32426.13759601689
 30
0.0
 11
169.5126222747476
 21
-33326.13759601689
 31
0.0
  0
LINE
  5
29B87
330
747D
100
AcDbEntity
  8
仕様書枠
 48
50.0
100
AcDbLine
 10
2569.512622274748
 20
-32426.13759601689
 30
0.0
 11
2569.512622274748
 21
-33326.13759601689
 31
0.0
  0
LINE
  5
29B88
330
747D
100
AcDbEntity
  8
仕様書枠
 48
50.0
100
AcDbLine
 10
-9555.887377725253
 20
-33326.13759601689
 30
0.0
 11
2569.512622274748
 21
-33326.13759601689
 31
0.0
  0
LINE
  5
29B89
330
747D
100
AcDbEntity
  8
仕様書枠
 48
50.0
100
AcDbLine
 10
169.5126222747476
 20
-32426.13759601689
 30
0.0
 11
2569.512622274748
 21
-32426.13759601689
 31
0.0
  0
LINE
  5
29B8A
330
747D
100
AcDbEntity
  8
文字
 62
     7
 48
50.0
100
AcDbLine
 10
229.5126222747476
 20
-33026.13759601689
 30
0.0
 11
2509.512622274748
 21
-33026.13759601689
 31
0.0
  0
TEXT
  5
29B8B
330
747D
100
AcDbEntity
  8
文字
 62
     7
 48
50.0
100
AcDbText
 10
211.3469147074265
 20
-32654.81964044443
 30
0.0
 40
150.0
  1
基 礎 図
  7
STYLE2
100
AcDbText
  0
TEXT
  5
29B8C
330
747D
100
AcDbEntity
  8
文字
 62
     7
 48
50.0
100
AcDbText
 10
240.1901472630616
 20
-32968.18204643954
 30
0.0
 40
120.0
  1
機種名
  7
STYLE2
100
AcDbText
  0
TEXT
  5
29B8D
330
747D
100
AcDbEntity
  8
文字
 62
     7
 48
50.0
100
AcDbText
 10
246.1666304376468
 20
-33154.72995282422
 30
0.0
 40
60.0
  1
○間口寸法は柱芯寸法です。
  7
STYLE2
100
AcDbText
  0
TEXT
  5
29B8E
330
747D
100
AcDbEntity
  8
文字
 62
     7
 48
50.0
100
AcDbText
 10
246.1666304376468
 20
-33269.06683570952
 30
0.0
 40
60.0
  1
○寒冷地等は、地域の実情に合わせた基礎にしてください。
  7
STYLE2
100
AcDbText
  0
LINE
  5
29B90
330
747D
100
AcDbEntity
  8
仕様書枠
 48
50.0
100
AcDbLine
 10
169.5126222747476
 20
-32726.13759601689
 30
0.0
 11
1027.512622274747
 21
-32726.13759601689
 31
0.0
  0
LINE
  5
29B91
330
747D
100
AcDbEntity
  8
仕様書枠
  6
Continuous
 48
50.0
100
AcDbLine
 10
1027.512622274747
 20
-32426.13759601689
 30
0.0
 11
1027.512622274747
 21
-32726.13759601689
 31
0.0
  0
TEXT
  5
29B92
330
747D
100
AcDbEntity
  8
文字
 62
     7
 48
50.0
100
AcDbText
 10
1291.096138245948
 20
-32963.21506127354
 30
0.0
 40
120.0
  1
BP-24P
  7
STYLE3
100
AcDbText
  0
TEXT
  5
29B93
330
747D
100
AcDbEntity
  8
文字
 62
     7
 48
50.0
100
AcDbText
 10
1477.830014571618
 20
-32697.4480507122
 30
0.0
 40
75.0
  1
～一般型～
  7
STYLE2
100
AcDbText
  0
TEXT
  5
2B385
330
747D
100
AcDbEntity
  8
文字
 62
     7
 48
50.0
100
AcDbText
 10
1232.211500191244
 20
-32552.46931629847
 30
0.0
 40
75.0
  1
             <縮尺> S=1/30
  7
STYLE2
100
AcDbText
  0
DIMENSION
  5
2B38B
330
747D
100
AcDbEntity
  8
寸法
 48
50.0
100
AcDbDimension
  2
*D3
 10
-3980.366592429489
 20
-30172.25459426373
 30
0.0
 11
-3980.366592429484
 21
-30349.25459426373
 31
0.0
 70
   160
 71
     5
 42
137.0
  3
INABA_S30G
100
AcDbAlignedDimension
 13
-4532.640814793142
 23
-30035.25459426373
 33
0.0
 14
-4362.640814793099
 24
-30172.25459426373
 34
0.0
 50
90.0
100
AcDbRotatedDimension
  0
DIMENSION
  5
2B38C
330
747D
100
AcDbEntity
  8
寸法
 48
50.0
100
AcDbDimension
  2
*D2
 10
-3980.366592429484
 20
-30035.25459426373
 30
0.0
 11
-4055.375450697195
 21
-29025.25459426373
 31
0.0
 70
    32
  1
屋根寸法 <>
 71
     5
 42
2020.0
  3
INABA_S30G
100
AcDbAlignedDimension
 13
-4532.640814793142
 23
-28015.25459426373
 33
0.0
 14
-4532.640814793142
 24
-30035.25459426373
 34
0.0
 50
90.0
100
AcDbRotatedDimension
  0
DIMENSION
  5
2B38D
330
747D
100
AcDbEntity
  8
寸法
 48
50.0
100
AcDbDimension
  2
*D1
 10
-3980.366592429474
 20
-27872.25459426374
 30
0.0
 11
-3980.366592429469
 21
-27688.89063323306
 31
0.0
 70
   160
 71
     5
 42
142.9999999999927
  3
INABA_S30G
100
AcDbAlignedDimension
 13
-4532.640814793142
 23
-28015.25459426373
 33
0.0
 14
-4362.640814793099
 24
-27872.25459426374
 34
0.0
 50
90.0
100
AcDbRotatedDimension
  0
LINE
  5
2B391
330
747D
100
AcDbEntity
  8
部品1
 48
50.0
100
AcDbLine
 10
-4362.640814793099
 20
-27872.25459426374
 30
0.0
 11
-5162.6408147931
 21
-27872.25459426374
 31
0.0
  0
LINE
  5
2B392
330
747D
100
AcDbEntity
  8
部品1
 48
50.0
100
AcDbLine
 10
-5162.6408147931
 20
-28972.25459426372
 30
0.0
 11
-4362.640814793099
 21
-28972.25459426372
 31
0.0
  0
LINE
  5
2B393
330
747D
100
AcDbEntity
  8
部品1
 48
50.0
100
AcDbLine
 10
-5162.640814793107
 20
-27872.25459426374
 30
0.0
 11
-5162.6408147931
 21
-28972.25459426372
 31
0.0
  0
LINE
  5
2B394
330
747D
100
AcDbEntity
  8
部品1
 48
50.0
100
AcDbLine
 10
-7562.6408147931
 20
-28972.25459426372
 30
0.0
 11
-6762.6408147931
 21
-28972.25459426372
 31
0.0
  0
LINE
  5
2B395
330
747D
100
AcDbEntity
  8
部品1
 48
50.0
100
AcDbLine
 10
-6762.6408147931
 20
-27872.25459426374
 30
0.0
 11
-6762.6408147931
 21
-28972.25459426372
 31
0.0
  0
LINE
  5
2B396
330
747D
100
AcDbEntity
  8
部品1
 48
50.0
100
AcDbLine
 10
-6762.6408147931
 20
-27872.25459426374
 30
0.0
 11
-7562.6408147931
 21
-27872.25459426374
 31
0.0
  0
LINE
  5
2B397
330
747D
100
AcDbEntity
  8
想像線
 48
10.0
100
AcDbLine
 10
-7392.640814793056
 20
-30035.25459426373
 30
0.0
 11
-4532.640814793142
 21
-30035.25459426372
 31
0.0
  0
LINE
  5
2B398
330
747D
100
AcDbEntity
  8
想像線
 48
10.0
100
AcDbLine
 10
-4532.640814793142
 20
-30035.25459426372
 30
0.0
 11
-4532.640814793142
 21
-28015.25459426372
 31
0.0
  0
LINE
  5
2B399
330
747D
100
AcDbEntity
  8
想像線
 48
10.0
100
AcDbLine
 10
-4532.640814793142
 20
-28015.25459426372
 30
0.0
 11
-7392.640814793056
 21
-28015.25459426373
 31
0.0
  0
LINE
  5
2B39A
330
747D
100
AcDbEntity
  8
想像線
 48
10.0
100
AcDbLine
 10
-7392.640814793056
 20
-30035.25459426372
 30
0.0
 11
-7392.640814793056
 21
-28015.25459426372
 31
0.0
  0
DIMENSION
  5
2B39B
330
747D
100
AcDbEntity
  8
寸法
 48
50.0
100
AcDbDimension
  2
*D20
 10
-4762.640814793099
 20
-27562.80230013262
 30
0.0
 11
-5962.6408147931
 21
-27487.79344186491
 31
0.0
 70
    32
 71
     5
 42
2400.0
  3
INABA_S30G
100
AcDbAlignedDimension
 13
-7162.6408147931
 23
-27922.25459426372
 33
0.0
 14
-4762.640814793099
 24
-27922.25459426372
 34
0.0
100
AcDbRotatedDimension
  0
DIMENSION
  5
2B39C
330
747D
100
AcDbEntity
  8
寸法
 48
50.0
100
AcDbDimension
  2
*D19
 10
-4362.640814793099
 20
-27562.80230013262
 30
0.0
 11
-4562.640814793099
 21
-27487.80230013262
 31
0.0
 70
    32
 71
     5
 42
400.0
  3
INABA_S30G
100
AcDbAlignedDimension
 13
-4762.640814793099
 23
-27922.25459426372
 33
0.0
 14
-4362.640814793099
 24
-27872.25459426374
 34
0.0
100
AcDbRotatedDimension
  0
DIMENSION
  5
2B39D
330
747D
100
AcDbEntity
  8
寸法
 48
50.0
100
AcDbDimension
  2
*D18
 10
-4362.640814793099
 20
-27368.7652611583
 30
0.0
 11
-5962.6408147931
 21
-27293.75640289059
 31
0.0
 70
    32
  1
基礎土間寸法 <>
 71
     5
 42
3200.0
  3
INABA_S30G
100
AcDbAlignedDimension
 13
-7562.6408147931
 23
-27872.25459426374
 33
0.0
 14
-4362.640814793099
 24
-27872.25459426374
 34
0.0
100
AcDbRotatedDimension
  0
DIMENSION
  5
2B39E
330
747D
100
AcDbEntity
  8
寸法
 48
50.0
100
AcDbDimension
  2
*D17
 10
-7162.6408147931
 20
-27562.80230013262
 30
0.0
 11
-7362.6408147931
 21
-27487.80230013262
 31
0.0
 70
    32
 71
     5
 42
400.0
  3
INABA_S30G
100
AcDbAlignedDimension
 13
-7562.6408147931
 23
-27872.25459426375
 33
0.0
 14
-7162.6408147931
 24
-27922.25459426372
 34
0.0
100
AcDbRotatedDimension
  0
LINE
  5
2B39F
330
747D
100
AcDbEntity
  8
センター
 48
10.0
100
AcDbLine
 10
-7412.6408147931
 20
-28172.25459426373
 30
0.0
 11
-4512.640814793099
 21
-28172.25459426373
 31
0.0
  0
DIMENSION
  5
2B3A0
330
747D
100
AcDbEntity
  8
寸法
 48
50.0
100
AcDbDimension
  2
*D16
 10
-4362.640814793099
 20
-29448.52702633789
 30
0.0
 11
-4762.640814793099
 21
-29448.52702633789
 31
0.0
 70
   160
 71
     5
 42
800.0
  3
INABA_S30G
100
AcDbAlignedDimension
 13
-5162.6408147931
 23
-28972.25459426372
 33
0.0
 14
-4362.640814793099
 24
-28972.25459426372
 34
0.0
100
AcDbRotatedDimension
  0
DIMENSION
  5
2B3A1
330
747D
100
AcDbEntity
  8
寸法
 48
50.0
100
AcDbDimension
  2
*D15
 10
-5162.6408147931
 20
-29210.39081030082
 30
0.0
 11
-4962.6408147931
 21
-29135.39081030081
 31
0.0
 70
    32
 71
     5
 42
400.0
  3
INABA_S30G
100
AcDbAlignedDimension
 13
-4762.640814793099
 23
-28422.25459426373
 33
0.0
 14
-5162.6408147931
 24
-28972.25459426372
 34
0.0
100
AcDbRotatedDimension
  0
DIMENSION
  5
2B3A2
330
747D
100
AcDbEntity
  8
寸法
 48
50.0
100
AcDbDimension
  2
*D14
 10
-5517.269821361456
 20
-28972.25459426372
 30
0.0
 11
-5592.269821361452
 21
-28422.25459426373
 31
0.0
 70
    32
 71
     5
 42
1100.0
  3
INABA_S30G
100
AcDbAlignedDimension
 13
-5162.6408147931
 23
-27872.25459426372
 33
0.0
 14
-5162.6408147931
 24
-28972.25459426372
 34
0.0
 50
90.0
100
AcDbRotatedDimension
  0
DIMENSION
  5
2B3A3
330
747D
100
AcDbEntity
  8
寸法
 48
50.0
100
AcDbDimension
  2
*D13
 10
-5339.955318077286
 20
-28972.25459426372
 30
0.0
 11
-5414.955318077281
 21
-28572.25459426372
 31
0.0
 70
    32
 71
     5
 42
800.0
  3
INABA_S30G
100
AcDbAlignedDimension
 13
-5162.6408147931
 23
-28172.25459426373
 33
0.0
 14
-5162.6408147931
 24
-28972.25459426372
 34
0.0
 50
90.0
100
AcDbRotatedDimension
  0
DIMENSION
  5
2B3A4
330
747D
100
AcDbEntity
  8
寸法
 48
50.0
100
AcDbDimension
  2
*D12
 10
-5339.955318077278
 20
-28172.25459426373
 30
0.0
 11
-5414.955318077273
 21
-28022.25459426372
 31
0.0
 70
    32
 71
     5
 42
300.0
  3
INABA_S30G
100
AcDbAlignedDimension
 13
-5162.6408147931
 23
-27872.25459426372
 33
0.0
 14
-5162.6408147931
 24
-28172.25459426373
 34
0.0
 50
90.0
100
AcDbRotatedDimension
  0
DIMENSION
  5
2B3A5
330
747D
100
AcDbEntity
  8
寸法
 48
50.0
100
AcDbDimension
  2
*D11
 10
-7903.512651504335
 20
-28172.25459426373
 30
0.0
 11
-7978.521509772045
 21
-28072.25459426372
 31
0.0
 70
    32
 71
     5
 42
200.0
  3
INABA_S30G
100
AcDbAlignedDimension
 13
-7562.640814793103
 23
-27972.25459426373
 33
0.0
 14
-7412.6408147931
 24
-28172.25459426373
 34
0.0
 50
90.0
100
AcDbRotatedDimension
  0
DIMENSION
  5
2B3A6
330
747D
100
AcDbEntity
  8
寸法
 48
50.0
100
AcDbDimension
  2
*D10
 10
-7903.512651504335
 20
-30172.25459426372
 30
0.0
 11
-7978.521509772045
 21
-29172.25459426372
 31
0.0
 70
    32
 71
     5
 42
2000.0
  3
INABA_S30G
100
AcDbAlignedDimension
 13
-7412.6408147931
 23
-28172.25459426373
 33
0.0
 14
-7562.6408147931
 24
-30172.25459426372
 34
0.0
 50
90.0
100
AcDbRotatedDimension
  0
DIMENSION
  5
2B3A7
330
747D
100
AcDbEntity
  8
寸法
 48
50.0
100
AcDbDimension
  2
*D9
 10
-8126.262013520793
 20
-30172.25459426372
 30
0.0
 11
-8201.270871788507
 21
-29072.25459426372
 31
0.0
 70
    32
  1
基礎土間寸法 <>
 71
     5
 42
2200.0
  3
INABA_S30G
100
AcDbAlignedDimension
 13
-7562.640814793103
 23
-27972.25459426373
 33
0.0
 14
-7562.6408147931
 24
-30172.25459426372
 34
0.0
 50
90.0
100
AcDbRotatedDimension
  0
DIMENSION
  5
2B3A8
330
747D
100
AcDbEntity
  8
寸法
 48
50.0
100
AcDbDimension
  2
*D8
 10
-4532.640814793142
 20
-30500.74231260026
 30
0.0
 11
-5962.6408147931
 21
-30425.73345433254
 31
0.0
 70
    32
  1
屋根寸法 <>
 71
     5
 42
2859.999999999913
  3
INABA_S30G
100
AcDbAlignedDimension
 13
-7392.640814793056
 23
-30035.25459426373
 33
0.0
 14
-4532.640814793142
 24
-30035.25459426372
 34
0.0
100
AcDbRotatedDimension
  0
DIMENSION
  5
2B3A9
330
747D
100
AcDbEntity
  8
寸法
 48
50.0
100
AcDbDimension
  2
*D7
 10
-7562.6408147931
 20
-30500.74231260026
 30
0.0
 11
-7477.640814793078
 21
-30425.74231260025
 31
0.0
 70
    32
 71
     5
 42
170.0000000000436
  3
INABA_S30G
100
AcDbAlignedDimension
 13
-7392.640814793056
 23
-30035.25459426373
 33
0.0
 14
-7562.6408147931
 24
-30172.25459426372
 34
0.0
100
AcDbRotatedDimension
  0
DIMENSION
  5
2B3AA
330
747D
100
AcDbEntity
  8
寸法
 48
50.0
100
AcDbDimension
  2
*D6
 10
-4362.640814793099
 20
-30500.74231260026
 30
0.0
 11
-4447.640814793121
 21
-30425.74231260025
 31
0.0
 70
    32
 71
     5
 42
170.0000000000436
  3
INABA_S30G
100
AcDbAlignedDimension
 13
-4532.640814793142
 23
-30035.25459426372
 33
0.0
 14
-4362.640814793099
 24
-30172.25459426372
 34
0.0
100
AcDbRotatedDimension
  0
CIRCLE
  5
2B3C2
330
747D
100
AcDbEntity
  8
部品1
 48
50.0
100
AcDbCircle
 10
-4662.640814793099
 20
-28072.25459426372
 30
0.0
 40
15.0
  0
LINE
  5
2B3C3
330
747D
100
AcDbEntity
  8
センター
 48
3.0
100
AcDbLine
 10
-4662.640814793099
 20
-27997.25459426372
 30
0.0
 11
-4662.640814793099
 21
-28147.25459426372
 31
0.0
  0
LINE
  5
2B3C4
330
747D
100
AcDbEntity
  8
センター
 48
3.0
100
AcDbLine
 10
-4737.640814793099
 20
-28072.25459426372
 30
0.0
 11
-4587.6408147931
 21
-28072.25459426372
 31
0.0
  0
LINE
  5
2B3C5
330
747D
100
AcDbEntity
  8
センター
 48
3.0
100
AcDbLine
 10
-4662.640814793099
 20
-28197.25459426372
 30
0.0
 11
-4662.640814793099
 21
-28347.25459426372
 31
0.0
  0
CIRCLE
  5
2B3C6
330
747D
100
AcDbEntity
  8
部品1
 48
50.0
100
AcDbCircle
 10
-4662.640814793099
 20
-28272.25459426372
 30
0.0
 40
15.0
  0
LINE
  5
2B3C7
330
747D
100
AcDbEntity
  8
センター
 48
3.0
100
AcDbLine
 10
-4737.640814793099
 20
-28272.25459426372
 30
0.0
 11
-4587.6408147931
 21
-28272.25459426372
 31
0.0
  0
LINE
  5
2B3C8
330
747D
100
AcDbEntity
  8
センター
 48
10.0
100
AcDbLine
 10
-4762.640814793099
 20
-28422.25459426373
 30
0.0
 11
-4762.640814793099
 21
-27922.25459426372
 31
0.0
  0
CIRCLE
  5
2B3C9
330
747D
100
AcDbEntity
  8
部品1
 48
50.0
100
AcDbCircle
 10
-4862.640814793099
 20
-28072.25459426372
 30
0.0
 40
15.0
  0
LINE
  5
2B3CA
330
747D
100
AcDbEntity
  8
センター
 48
3.0
100
AcDbLine
 10
-4862.640814793099
 20
-27997.25459426372
 30
0.0
 11
-4862.640814793099
 21
-28147.25459426372
 31
0.0
  0
LINE
  5
2B3CB
330
747D
100
AcDbEntity
  8
センター
 48
3.0
100
AcDbLine
 10
-4862.640814793099
 20
-28197.25459426372
 30
0.0
 11
-4862.640814793099
 21
-28347.25459426372
 31
0.0
  0
CIRCLE
  5
2B3CC
330
747D
100
AcDbEntity
  8
部品1
 48
50.0
100
AcDbCircle
 10
-4862.640814793099
 20
-28272.25459426372
 30
0.0
 40
15.0
  0
LINE
  5
2B3CD
330
747D
100
AcDbEntity
  8
センター
 48
10.0
100
AcDbLine
 10
-5012.640814793099
 20
-28172.25459426373
 30
0.0
 11
-4512.640814793099
 21
-28172.25459426373
 31
0.0
  0
LINE
  5
2B3CE
330
747D
100
AcDbEntity
  8
センター
 48
3.0
100
AcDbLine
 10
-4937.640814793099
 20
-28072.25459426372
 30
0.0
 11
-4787.640814793099
 21
-28072.25459426372
 31
0.0
  0
LINE
  5
2B3CF
330
747D
100
AcDbEntity
  8
センター
 48
3.0
100
AcDbLine
 10
-4937.640814793099
 20
-28272.25459426372
 30
0.0
 11
-4787.640814793099
 21
-28272.25459426372
 31
0.0
  0
DIMENSION
  5
2B3D0
330
747D
100
AcDbEntity
  8
寸法
 48
50.0
100
AcDbDimension
  2
*D5
 10
-4201.053387655527
 20
-28072.25459426372
 30
0.0
 11
-4276.062245923239
 21
-28172.25459426373
 31
0.0
 70
    32
 71
     5
 42
200.0
  3
INABA_S30G
100
AcDbAlignedDimension
 13
-4587.6408147931
 23
-28272.25459426372
 33
0.0
 14
-4587.6408147931
 24
-28072.25459426372
 34
0.0
 50
90.0
100
AcDbRotatedDimension
  0
DIMENSION
  5
2B3D1
330
747D
100
AcDbEntity
  8
寸法
 48
50.0
100
AcDbDimension
  2
*D4
 10
-4862.640814793099
 20
-28741.77587757653
 30
0.0
 11
-4762.640814793099
 21
-28666.76701930881
 31
0.0
 70
    32
 71
     5
 42
200.0
  3
INABA_S30G
100
AcDbAlignedDimension
 13
-4662.640814793099
 23
-28347.25459426372
 33
0.0
 14
-4862.640814793099
 24
-28347.25459426372
 34
0.0
100
AcDbRotatedDimension
  0
LINE
  5
2B3D2
330
747D
100
AcDbEntity
  8
センター
 48
3.0
100
AcDbLine
 10
-7337.6408147931
 20
-28272.25459426372
 30
0.0
 11
-7187.6408147931
 21
-28272.25459426372
 31
0.0
  0
LINE
  5
2B3D3
330
747D
100
AcDbEntity
  8
センター
 48
3.0
100
AcDbLine
 10
-7337.6408147931
 20
-28072.25459426372
 30
0.0
 11
-7187.6408147931
 21
-28072.25459426372
 31
0.0
  0
LINE
  5
2B3D4
330
747D
100
AcDbEntity
  8
センター
 48
10.0
100
AcDbLine
 10
-7412.6408147931
 20
-28172.25459426373
 30
0.0
 11
-6912.6408147931
 21
-28172.25459426373
 31
0.0
  0
CIRCLE
  5
2B3D5
330
747D
100
AcDbEntity
  8
部品1
 48
50.0
100
AcDbCircle
 10
-7262.6408147931
 20
-28272.25459426372
 30
0.0
 40
15.0
  0
LINE
  5
2B3D6
330
747D
100
AcDbEntity
  8
センター
 48
3.0
100
AcDbLine
 10
-7262.6408147931
 20
-28197.25459426372
 30
0.0
 11
-7262.6408147931
 21
-28347.25459426372
 31
0.0
  0
LINE
  5
2B3D7
330
747D
100
AcDbEntity
  8
センター
 48
3.0
100
AcDbLine
 10
-7262.6408147931
 20
-27997.25459426372
 30
0.0
 11
-7262.6408147931
 21
-28147.25459426372
 31
0.0
  0
CIRCLE
  5
2B3D8
330
747D
100
AcDbEntity
  8
部品1
 48
50.0
100
AcDbCircle
 10
-7262.6408147931
 20
-28072.25459426372
 30
0.0
 40
15.0
  0
LINE
  5
2B3D9
330
747D
100
AcDbEntity
  8
センター
 48
10.0
100
AcDbLine
 10
-7162.6408147931
 20
-28422.25459426373
 30
0.0
 11
-7162.6408147931
 21
-27922.25459426372
 31
0.0
  0
LINE
  5
2B3DA
330
747D
100
AcDbEntity
  8
センター
 48
3.0
100
AcDbLine
 10
-7137.6408147931
 20
-28272.25459426372
 30
0.0
 11
-6987.6408147931
 21
-28272.25459426372
 31
0.0
  0
CIRCLE
  5
2B3DB
330
747D
100
AcDbEntity
  8
部品1
 48
50.0
100
AcDbCircle
 10
-7062.6408147931
 20
-28272.25459426372
 30
0.0
 40
15.0
  0
LINE
  5
2B3DC
330
747D
100
AcDbEntity
  8
センター
 48
3.0
100
AcDbLine
 10
-7062.6408147931
 20
-28197.25459426372
 30
0.0
 11
-7062.6408147931
 21
-28347.25459426372
 31
0.0
  0
LINE
  5
2B3DD
330
747D
100
AcDbEntity
  8
センター
 48
3.0
100
AcDbLine
 10
-7137.6408147931
 20
-28072.25459426372
 30
0.0
 11
-6987.6408147931
 21
-28072.25459426372
 31
0.0
  0
LINE
  5
2B3DE
330
747D
100
AcDbEntity
  8
センター
 48
3.0
100
AcDbLine
 10
-7062.6408147931
 20
-27997.25459426372
 30
0.0
 11
-7062.6408147931
 21
-28147.25459426372
 31
0.0
  0
CIRCLE
  5
2B3DF
330
747D
100
AcDbEntity
  8
部品1
 48
50.0
100
AcDbCircle
 10
-7062.6408147931
 20
-28072.25459426372
 30
0.0
 40
15.0
  0
LINE
  5
2B3E0
330
747D
100
AcDbEntity
  8
文字
 48
50.0
100
AcDbLine
 10
-7562.640814793103
 20
-27972.25459426373
 30
0.0
 11
-4362.640814793099
 21
-27972.25459426373
 31
0.0
  0
LINE
  5
2B3E3
330
747D
100
AcDbEntity
  8
部品1
 48
30.0
100
AcDbLine
 10
-7562.6408147931
 20
-30172.25459426372
 30
0.0
 11
-4362.640814793099
 21
-30172.25459426372
 31
0.0
  0
LINE
  5
2B3E4
330
747D
100
AcDbEntity
  8
部品1
 48
50.0
100
AcDbLine
 10
-7562.640814793107
 20
-27872.25459426373
 30
0.0
 11
-7562.6408147931
 21
-30172.25459426372
 31
0.0
  0
LINE
  5
2B3E5
330
747D
100
AcDbEntity
  8
部品1
 48
50.0
100
AcDbLine
 10
-4362.640814793099
 20
-27872.25459426373
 30
0.0
 11
-4362.640814793099
 21
-30172.25459426372
 31
0.0
  0
MTEXT
  5
2B3E6
330
747D
100
AcDbEntity
  8
寸法
 62
     7
 48
50.0
100
AcDbMText
 10
-7336.648930010909
 20
-29917.97454839623
 30
0.0
 40
90.0
 41
0.0
 71
     4
 72
     1
  1
\A1;床コンクリート打コテ押エ
  7
STYLE1
 73
     1
 44
1.0
1001
ACAD
1000
MTEXTBEGIN
1070
    73
1070
     1
1070
    44
1040
1.0
1070
    74
1070
     0
1000
MTEXTEND
  0
LINE
  5
2B3EF
330
747D
100
AcDbEntity
  8
寸法
 48
50.0
100
AcDbLine
 10
-7162.6408147931
 20
-29051.15355674386
 30
0.0
 11
-7162.6408147931
 21
-28422.25459426373
 31
0.0
  0
MTEXT
  5
2B3F0
330
747D
100
AcDbEntity
  8
寸法
 62
     7
 48
50.0
100
AcDbMText
 10
-6345.456714189429
 20
-28925.96741616893
 30
0.0
 40
90.0
 41
0.0
 71
     4
 72
     1
  1
\A1;水勾配 1/100 
  7
STYLE1
 11
0.0000000000000001
 21
1.0
 31
0.0
 73
     1
 44
1.0
1001
ACAD
1000
MTEXTBEGIN
1070
    73
1070
     1
1070
    44
1040
1.0
1070
    74
1070
     0
1000
MTEXTEND
  0
LINE
  5
2B3F1
330
747D
100
AcDbEntity
  8
寸法
 48
50.0
100
AcDbLine
 10
-6251.018778123624
 20
-28283.41618919083
 30
0.0
 11
-6251.018778123624
 21
-29062.11251029438
 31
0.0
  0
LINE
  5
2B3F2
330
747D
100
AcDbEntity
  8
寸法
 48
50.0
100
AcDbLine
 10
-6251.018778123624
 20
-29062.11251029438
 30
0.0
 11
-6218.170495290811
 21
-28939.52104982092
 31
0.0
  0
LINE
  5
2B3F3
330
747D
100
AcDbEntity
  8
寸法
 48
50.0
100
AcDbLine
 10
-6251.018778123624
 20
-29062.11251029438
 30
0.0
 11
-6283.867060956436
 21
-28939.52104982092
 31
0.0
  0
LINE
  5
35AF3
330
747D
100
AcDbEntity
  8
部品1
 48
50.0
100
AcDbLine
 10
-106.4733344170308
 20
-29675.46023004438
 30
0.0
 11
-1366.473334417016
 21
-29675.46023004438
 31
0.0
  0
LINE
  5
35AF4
330
747D
100
AcDbEntity
  8
文字
 48
50.0
100
AcDbLine
 10
-297.168152273669
 20
-30688.64810221616
 30
0.0
 11
-297.168152273669
 21
-30911.77310221616
 31
0.0
  0
LINE
  5
35AF5
330
747D
100
AcDbEntity
  8
文字
 48
50.0
100
AcDbLine
 10
-1132.347404622043
 20
-30688.64810221616
 30
0.0
 11
-1132.347404622043
 21
-30911.77310221616
 31
0.0
  0
TEXT
  5
35AF6
330
747D
100
AcDbEntity
  8
文字
 62
     7
 48
50.0
100
AcDbText
 10
-1065.762597209337
 20
-30854.28956124279
 30
0.0
 40
112.5
  1
A-A' 断面
  7
STYLE2
100
AcDbText
  0
LINE
  5
35AF7
330
747D
100
AcDbEntity
  8
文字
 48
50.0
100
AcDbLine
 10
-1132.347404622043
 20
-30911.77310221616
 30
0.0
 11
-297.168152273669
 21
-30911.77310221616
 31
0.0
  0
LINE
  5
35AF8
330
747D
100
AcDbEntity
  8
文字
 48
50.0
100
AcDbLine
 10
-1132.347404622043
 20
-30688.64810221616
 30
0.0
 11
-297.168152273669
 21
-30688.64810221616
 31
0.0
  0
LINE
  5
35AFA
330
747D
100
AcDbEntity
  8
部品1
 48
50.0
100
AcDbLine
 10
-186.4733344170308
 20
-29625.46023004438
 30
0.0
 11
-186.4733344170308
 21
-29075.46023004438
 31
0.0
  0
LINE
  5
35AFB
330
747D
100
AcDbEntity
  8
センター
 48
10.0
100
AcDbLine
 10
-486.4733344170162
 20
-28550.98739718934
 30
0.0
 11
-486.4733344170162
 21
-29196.51806187425
 31
0.0
  0
LINE
  5
35AFC
330
747D
100
AcDbEntity
  8
部品1
 48
50.0
100
AcDbLine
 10
-1286.473334417016
 20
-29075.46023004438
 30
0.0
 11
-1286.473334417016
 21
-29625.46023004438
 31
0.0
  0
MTEXT
  5
35AFD
330
747D
100
AcDbEntity
  8
寸法
 62
     7
 48
50.0
100
AcDbMText
 10
234.447257397529
 20
-28973.18750277166
 30
0.0
 40
100.0
 41
1.0
 71
     4
 72
     1
  1
▽G.L
  7
STYLE2
 73
     1
 44
1.0
1001
ACAD
1000
MTEXTBEGIN
1070
    73
1070
     1
1070
    44
1040
1.0
1070
    74
1070
     0
1000
MTEXTEND
  0
LINE
  5
35AFE
330
747D
100
AcDbEntity
  8
Ｇ．Ｌ
 48
50.0
100
AcDbLine
 10
-286.4733344170163
 20
-29025.46023004438
 30
0.0
 11
767.6406160877741
 21
-29025.46023004438
 31
0.0
  0
LINE
  5
35AFF
330
747D
100
AcDbEntity
  8
部品1
 48
50.0
100
AcDbLine
 10
-441.9233344170134
 20
-28629.52713409947
 30
0.0
 11
-441.9233344170134
 21
-29133.46023004437
 31
0.0
  0
LINE
  5
35B00
330
747D
100
AcDbEntity
  8
部品1
 48
50.0
100
AcDbLine
 10
-531.0233344170192
 20
-28629.52713409947
 30
0.0
 11
-531.0233344170119
 21
-29133.46023004437
 31
0.0
  0
LINE
  5
35B01
330
747D
100
AcDbEntity
  8
部品1
 48
50.0
100
AcDbLine
 10
-106.4733344170308
 20
-29625.46023004438
 30
0.0
 11
-1366.473334417016
 21
-29625.46023004438
 31
0.0
  0
DIMENSION
  5
35B02
330
747D
100
AcDbEntity
  8
寸法
 48
50.0
100
AcDbDimension
  2
*D29
 10
105.9680301836852
 20
-29625.46023004438
 30
0.0
 11
30.96803018368997
 21
-29325.46023004438
 31
0.0
 70
    32
 71
     5
 42
600.0
  3
INABA_S30G
100
AcDbAlignedDimension
 13
-121.6754568535034
 23
-29025.46023004438
 33
0.0
 14
-106.4733344170236
 24
-29625.46023004438
 34
0.0
 50
90.0
100
AcDbRotatedDimension
  0
DIMENSION
  5
35B03
330
747D
100
AcDbEntity
  8
寸法
 48
50.0
100
AcDbDimension
  2
*D28
 10
105.9680301836805
 20
-28975.46023004438
 30
0.0
 11
105.9680301836852
 21
-28745.92479697351
 31
0.0
 70
   160
 71
     5
 42
50.0
  3
INABA_S30G
100
AcDbAlignedDimension
 13
-121.6754568535034
 23
-29025.46023004438
 33
0.0
 14
-296.4733344170163
 24
-28975.46023004438
 34
0.0
 50
90.0
100
AcDbRotatedDimension
  0
DIMENSION
  5
35B04
330
747D
100
AcDbEntity
  8
寸法
 48
50.0
100
AcDbDimension
  2
*D27
 10
-286.4733344170162
 20
-28262.68233074936
 30
0.0
 11
-386.4733344170163
 21
-28187.67347248165
 31
0.0
 70
    32
 71
     5
 42
200.0
  3
INABA_S30G
100
AcDbAlignedDimension
 13
-486.4733344170162
 23
-28550.98739718934
 33
0.0
 14
-286.4733344170163
 24
-28985.46023004437
 34
0.0
100
AcDbRotatedDimension
  0
LINE
  5
35B05
330
747D
100
AcDbEntity
  8
部品1
 48
50.0
100
AcDbLine
 10
-286.4733344170163
 20
-29075.46023004438
 30
0.0
 11
-286.4733344170163
 21
-28985.46023004437
 31
0.0
  0
LINE
  5
35B06
330
747D
100
AcDbEntity
  8
部品1
 48
50.0
100
AcDbLine
 10
-296.4733344170163
 20
-28975.46023004438
 30
0.0
 11
-413.9233344170134
 21
-28975.46023004438
 31
0.0
  0
LINE
  5
35B07
330
747D
100
AcDbEntity
  8
部品1
 48
50.0
100
AcDbLine
 10
-296.4733344170163
 20
-28975.46023004438
 30
0.0
 11
-286.4733344170163
 21
-28985.46023004438
 31
0.0
  0
LINE
  5
35B08
330
747D
100
AcDbEntity
  8
部品1
 48
50.0
100
AcDbLine
 10
-186.4733344170308
 20
-29075.46023004438
 30
0.0
 11
-286.4733344170163
 21
-29075.46023004438
 31
0.0
  0
LINE
  5
35B09
330
747D
100
AcDbEntity
  8
部品1
 48
50.0
100
AcDbLine
 10
-1286.473334417016
 20
-29175.46023004438
 30
0.0
 11
-1788.589145516693
 21
-29175.46023004438
 31
0.0
  0
LINE
  5
35B0A
330
747D
100
AcDbEntity
  8
部品1
 48
50.0
100
AcDbLine
 10
-106.4733344170308
 20
-29775.46023004438
 30
0.0
 11
-1366.473334417016
 21
-29775.46023004438
 31
0.0
  0
LINE
  5
35B0B
330
747D
100
AcDbEntity
  8
寸法
 48
50.0
100
AcDbLine
 10
-1278.152610541212
 20
-28900.85281384223
 30
0.0
 11
-648.9001149533796
 21
-28900.85281384223
 31
0.0
  0
LINE
  5
35B0C
330
747D
100
AcDbEntity
  8
寸法
 48
50.0
100
AcDbLine
 10
-1278.152610541212
 20
-28900.85281384223
 30
0.0
 11
-1209.50139267608
 21
-28882.45777545584
 31
0.0
  0
LINE
  5
35B0D
330
747D
100
AcDbEntity
  8
寸法
 48
50.0
100
AcDbLine
 10
-1278.152610541212
 20
-28900.85281384223
 30
0.0
 11
-1209.50139267608
 21
-28919.2478522286
 31
0.0
  0
TEXT
  5
35B0E
330
747D
100
AcDbEntity
  8
寸法
 62
     7
 48
50.0
100
AcDbText
 10
-1213.182662512896
 20
-28863.80429032234
 30
0.0
 40
90.0
  1
１／１００
 41
0.8
  7
STYLE1
100
AcDbText
  0
TEXT
  5
35B0F
330
747D
100
AcDbEntity
  8
寸法
 62
     7
 48
50.0
100
AcDbText
 10
-1179.919169541572
 20
-28715.46577820024
 30
0.0
 40
90.0
  1
水勾配
 41
0.8
  7
STYLE1
100
AcDbText
  0
LINE
  5
35B49
330
747D
100
AcDbEntity
  8
部品1
 48
50.0
100
AcDbLine
 10
-545.0233344170192
 20
-28961.46023004438
 30
0.0
 11
-559.0233344170192
 21
-28975.46023004438
 31
0.0
  0
LINE
  5
35B4A
330
747D
100
AcDbEntity
  8
部品1
 48
50.0
100
AcDbLine
 10
-545.0233344170192
 20
-28961.46023004438
 30
0.0
 11
-531.0233344170192
 21
-28961.46023004438
 31
0.0
  0
LINE
  5
35B4B
330
747D
100
AcDbEntity
  8
部品1
 48
50.0
100
AcDbLine
 10
-441.9233344170134
 20
-28961.46023004438
 30
0.0
 11
-427.9233344170133
 21
-28961.46023004438
 31
0.0
  0
LINE
  5
35B4C
330
747D
100
AcDbEntity
  8
部品1
 48
50.0
100
AcDbLine
 10
-427.9233344170133
 20
-28961.46023004438
 30
0.0
 11
-413.9233344170134
 21
-28975.46023004438
 31
0.0
  0
LINE
  5
35B4D
330
747D
100
AcDbEntity
  8
部品1
 48
50.0
100
AcDbLine
 10
-559.0233344170046
 20
-28975.46023004438
 30
0.0
 11
-1788.589145516693
 21
-28975.46023004438
 31
0.0
  0
LINE
  5
35B57
330
747D
100
AcDbEntity
  8
部品1
 48
50.0
100
AcDbLine
 10
-106.4733344170308
 20
-29625.46023004438
 30
0.0
 11
-106.4733344170308
 21
-29775.46023004438
 31
0.0
  0
LINE
  5
35B58
330
747D
100
AcDbEntity
  8
部品1
 48
50.0
100
AcDbLine
 10
-1366.473334417016
 20
-29625.46023004438
 30
0.0
 11
-1366.473334417016
 21
-29775.46023004438
 31
0.0
  0
DIMENSION
  5
35BB2
330
747D
100
AcDbEntity
  8
寸法
 48
50.0
100
AcDbDimension
  2
*D26
 10
-1939.170272618595
 20
-28975.46023004438
 30
0.0
 11
-1939.17027261859
 21
-28798.42479697351
 31
0.0
 70
   160
 71
     5
 42
100.0
  3
INABA_S30G
100
AcDbAlignedDimension
 13
-1788.5891455167
 23
-29075.46023004438
 33
0.0
 14
-1788.5891455167
 24
-28975.46023004438
 34
0.0
 50
90.0
100
AcDbRotatedDimension
  0
DIMENSION
  5
35BB3
330
747D
100
AcDbEntity
  8
寸法
 48
50.0
100
AcDbDimension
  2
*D25
 10
-1939.170272618595
 20
-29175.46023004438
 30
0.0
 11
-1939.17027261859
 21
-29352.49566311524
 31
0.0
 70
   160
 71
     5
 42
100.0
  3
INABA_S30G
100
AcDbAlignedDimension
 13
-1788.5891455167
 23
-29075.46023004438
 33
0.0
 14
-1788.5891455167
 24
-29175.46023004438
 34
0.0
 50
90.0
100
AcDbRotatedDimension
  0
DIMENSION
  5
35BB4
330
747D
100
AcDbEntity
  8
寸法
 48
50.0
100
AcDbDimension
  2
*D24
 10
-186.4733344170309
 20
-30067.07685968843
 30
0.0
 11
-336.4733344170236
 21
-29992.07685968842
 31
0.0
 70
    32
 71
     5
 42
299.9999999999854
  3
INABA_S30G
100
AcDbAlignedDimension
 13
-486.4733344170162
 23
-29196.51806187425
 33
0.0
 14
-186.4733344170308
 24
-29625.46023004438
 34
0.0
100
AcDbRotatedDimension
  0
DIMENSION
  5
35BB5
330
747D
100
AcDbEntity
  8
寸法
 48
50.0
100
AcDbDimension
  2
*D23
 10
-486.4733344170163
 20
-30067.07685968843
 30
0.0
 11
-886.4733344170199
 21
-29992.07685968842
 31
0.0
 70
    32
 71
     5
 42
800.0000000000072
  3
INABA_S30G
100
AcDbAlignedDimension
 13
-1286.473334417024
 23
-29625.46023004438
 33
0.0
 14
-486.4733344170162
 24
-29196.51806187425
 34
0.0
100
AcDbRotatedDimension
  0
DIMENSION
  5
35BB6
330
747D
100
AcDbEntity
  8
寸法
 48
50.0
100
AcDbDimension
  2
*D22
 10
105.9680301836804
 20
-29675.46023004438
 30
0.0
 11
105.9680301836852
 21
-29908.01928516249
 31
0.0
 70
   160
 71
     5
 42
50.0
  3
INABA_S30G
100
AcDbAlignedDimension
 13
-106.4733344170236
 23
-29625.46023004438
 33
0.0
 14
-106.4733344170236
 24
-29675.46023004438
 34
0.0
 50
90.0
100
AcDbRotatedDimension
  0
DIMENSION
  5
35BB7
330
747D
100
AcDbEntity
  8
寸法
 48
50.0
100
AcDbDimension
  2
*D21
 10
-1286.473334417024
 20
-30297.16242077717
 30
0.0
 11
-736.4733344170272
 21
-30222.16242077717
 31
0.0
 70
    32
 71
     5
 42
1099.999999999992
  3
INABA_S30G
100
AcDbAlignedDimension
 13
-186.4733344170308
 23
-29625.46023004438
 33
0.0
 14
-1286.473334417024
 24
-29625.46023004438
 34
0.0
100
AcDbRotatedDimension
  0
LINE
  5
35BB8
330
747D
100
AcDbEntity
  8
部品1
 48
50.0
100
AcDbLine
 10
-441.8101025214927
 20
-29133.46023004438
 30
0.0
 11
-531.0233344170192
 21
-29133.46023004438
 31
0.0
  0
LINE
  5
35BB9
330
747D
100
AcDbEntity
  8
CSLAYER17
  6
Continuous
 62
     7
100
AcDbLine
 10
-626.4733344170163
 20
-29145.46023004438
 30
0.0
 11
-346.4733344170163
 21
-29145.46023004438
 31
0.0
  0
LINE
  5
35BBA
330
747D
100
AcDbEntity
  8
CSLAYER17
  6
Continuous
 62
     7
100
AcDbLine
 10
-626.4733344170163
 20
-29133.46023004438
 30
0.0
 11
-346.4733344170163
 21
-29133.46023004438
 31
0.0
  0
LINE
  5
35BBB
330
747D
100
AcDbEntity
  8
CSLAYER17
  6
Continuous
 62
     7
100
AcDbLine
 10
-626.4733344170163
 20
-29145.46023004438
 30
0.0
 11
-626.4733344170163
 21
-29133.46023004438
 31
0.0
  0
LINE
  5
35BBC
330
747D
100
AcDbEntity
  8
CSLAYER17
  6
Continuous
 62
     7
100
AcDbLine
 10
-346.4733344170163
 20
-29133.46023004438
 30
0.0
 11
-346.4733344170163
 21
-29145.46023004438
 31
0.0
  0
LINE
  5
35BBD
330
747D
100
AcDbEntity
  8
CSLAYER17
  6
Continuous
 62
     7
100
AcDbLine
 10
-488.7233344170162
 20
-29083.46023004438
 30
0.0
 11
-488.7233344170162
 21
-29133.46023004438
 31
0.0
  0
LINE
  5
35BBE
330
747D
100
AcDbEntity
  8
CSLAYER17
  6
Continuous
 62
     7
100
AcDbLine
 10
-484.2233344170162
 20
-29083.46023004438
 30
0.0
 11
-484.2233344170162
 21
-29133.46023004438
 31
0.0
  0
LINE
  5
35BBF
330
747D
100
AcDbEntity
  8
CSLAYER17
  6
Continuous
 62
     7
100
AcDbLine
 10
-488.7233344170162
 20
-29083.46023004438
 30
0.0
 11
-484.2233344170162
 21
-29083.46023004438
 31
0.0
  0
LINE
  5
35BC0
330
747D
100
AcDbEntity
  8
CSLAYER17
  6
Continuous
 62
     7
100
AcDbLine
 10
-610.0233344170192
 20
-29083.46023004438
 30
0.0
 11
-531.5233344170191
 21
-29083.46023004438
 31
0.0
  0
LINE
  5
35BC1
330
747D
100
AcDbEntity
  8
CSLAYER17
  6
Continuous
 62
     7
100
AcDbLine
 10
-352.9233344170134
 20
-29093.46023004438
 30
0.0
 11
-352.9233344170134
 21
-29133.46023004438
 31
0.0
  0
LINE
  5
35BC2
330
747D
100
AcDbEntity
  8
CSLAYER17
  6
Continuous
 62
     7
100
AcDbLine
 10
-620.0233344170192
 20
-29093.46023004438
 30
0.0
 11
-620.0233344170192
 21
-29133.46023004438
 31
0.0
  0
LINE
  5
35BC3
330
747D
100
AcDbEntity
  8
CSLAYER17
  6
Continuous
 62
     7
100
AcDbLine
 10
-441.4233344170134
 20
-29083.46023004438
 30
0.0
 11
-362.9233344170134
 21
-29083.46023004438
 31
0.0
  0
LINE
  5
35BC4
330
747D
100
AcDbEntity
  8
CSLAYER17
  6
Continuous
 62
     7
100
AcDbLine
 10
-441.4233344170134
 20
-29123.46023004438
 30
0.0
 11
-431.4233344170133
 21
-29133.46023004438
 31
0.0
  0
LINE
  5
35BC5
330
747D
100
AcDbEntity
  8
部品1
100
AcDbLine
 10
-441.4233344170134
 20
-29083.46023004438
 30
0.0
 11
-441.4233344170134
 21
-29123.46023004438
 31
0.0
  0
LINE
  5
35BC6
330
747D
100
AcDbEntity
  8
部品1
100
AcDbLine
 10
-531.5233344170191
 20
-29083.46023004438
 30
0.0
 11
-531.5233344170191
 21
-29123.46023004438
 31
0.0
  0
LINE
  5
35BC7
330
747D
100
AcDbEntity
  8
CSLAYER17
  6
Continuous
 62
     7
100
AcDbLine
 10
-531.5233344170191
 20
-29123.46023004438
 30
0.0
 11
-541.5233344170192
 21
-29133.46023004438
 31
0.0
  0
LINE
  5
35BC8
330
747D
100
AcDbEntity
  8
CSLAYER17
  6
Continuous
 62
     7
100
AcDbLine
 10
-610.0233344170192
 20
-29083.46023004438
 30
0.0
 11
-620.0233344170192
 21
-29093.46023004438
 31
0.0
  0
LINE
  5
35BC9
330
747D
100
AcDbEntity
  8
CSLAYER17
  6
Continuous
 62
     7
100
AcDbLine
 10
-362.9233344170134
 20
-29083.46023004438
 30
0.0
 11
-352.9233344170134
 21
-29093.46023004438
 31
0.0
  0
LINE
  5
35BCA
102
{ACAD_REACTORS
330
35D25
102
}
330
747D
100
AcDbEntity
  8
部品1
100
AcDbLine
 10
-592.4733344170163
 20
-29115.46023004438
 30
0.0
 11
-580.4733344170163
 21
-29115.46023004438
 31
0.0
  0
LINE
  5
35BCB
102
{ACAD_REACTORS
330
35D25
102
}
330
747D
100
AcDbEntity
  8
部品1
100
AcDbLine
 10
-592.4733344170163
 20
-29115.46023004438
 30
0.0
 11
-592.4733344170163
 21
-29123.46023004438
 31
0.0
  0
LINE
  5
35BCC
102
{ACAD_REACTORS
330
35D25
102
}
330
747D
100
AcDbEntity
  8
部品1
100
AcDbLine
 10
-580.4733344170163
 20
-29115.46023004438
 30
0.0
 11
-580.4733344170163
 21
-29123.46023004439
 31
0.0
  0
LINE
  5
35BCD
102
{ACAD_REACTORS
330
35D25
102
}
330
747D
100
AcDbEntity
  8
部品1
100
AcDbLine
 10
-617.4733344170163
 20
-29424.46023004438
 30
0.0
 11
-636.4733344170162
 21
-29424.46023004438
 31
0.0
  0
LINE
  5
35BCE
102
{ACAD_REACTORS
330
35D25
102
}
330
747D
100
AcDbEntity
  8
部品1
100
AcDbLine
 10
-617.4733344170163
 20
-29436.46023004438
 30
0.0
 11
-636.4733344170162
 21
-29436.46023004438
 31
0.0
  0
LINE
  5
35BCF
102
{ACAD_REACTORS
330
35D25
102
}
330
747D
100
AcDbEntity
  8
部品1
100
AcDbLine
 10
-636.4733344170162
 20
-29424.46023004438
 30
0.0
 11
-636.4733344170162
 21
-29436.46023004438
 31
0.0
  0
ARC
  5
35BD0
102
{ACAD_REACTORS
330
35D25
102
}
330
747D
100
AcDbEntity
  8
部品1
100
AcDbCircle
 10
-617.4733344170163
 20
-29399.46023004438
 30
0.0
 40
25.0
100
AcDbArc
 50
270.0
 51
0.0
  0
ARC
  5
35BD1
102
{ACAD_REACTORS
330
35D25
102
}
330
747D
100
AcDbEntity
  8
部品1
100
AcDbCircle
 10
-617.4733344170163
 20
-29399.46023004438
 30
0.0
 40
37.0
100
AcDbArc
 50
270.0
 51
0.0
  0
LINE
  5
35BD2
102
{ACAD_REACTORS
330
35D25
102
}
330
747D
100
AcDbEntity
  8
部品1
100
AcDbLine
 10
-597.4429895316206
 20
-29123.46023004438
 30
0.0
 11
-575.5036793024118
 21
-29123.46023004438
 31
0.0
  0
LINE
  5
35BD3
102
{ACAD_REACTORS
330
35D25
102
}
330
747D
100
AcDbEntity
  8
部品1
100
AcDbLine
 10
-575.5036793024118
 20
-29133.46023004438
 30
0.0
 11
-575.5036793024118
 21
-29123.46023004438
 31
0.0
  0
LINE
  5
35BD4
102
{ACAD_REACTORS
330
35D25
102
}
330
747D
100
AcDbEntity
  8
部品1
100
AcDbLine
 10
-580.988506859714
 20
-29133.46023004438
 30
0.0
 11
-580.988506859714
 21
-29123.46023004438
 31
0.0
  0
LINE
  5
35BD5
102
{ACAD_REACTORS
330
35D25
102
}
330
747D
100
AcDbEntity
  8
部品1
100
AcDbLine
 10
-591.9581619743184
 20
-29133.46023004438
 30
0.0
 11
-591.9581619743184
 21
-29123.46023004438
 31
0.0
  0
LINE
  5
35BD6
102
{ACAD_REACTORS
330
35D25
102
}
330
747D
100
AcDbEntity
  8
部品1
100
AcDbLine
 10
-597.4429895316206
 20
-29133.46023004438
 30
0.0
 11
-597.4429895316206
 21
-29123.46023004438
 31
0.0
  0
LINE
  5
35BD7
102
{ACAD_REACTORS
330
35D25
102
}
330
747D
100
AcDbEntity
  8
部品1
100
AcDbLine
 10
-597.4429895316206
 20
-29133.46023004438
 30
0.0
 11
-575.5036793024118
 21
-29133.46023004438
 31
0.0
  0
LINE
  5
35BD8
102
{ACAD_REACTORS
330
35D25
102
}
330
747D
100
AcDbEntity
  8
部品1
100
AcDbLine
 10
-592.4733344170163
 20
-29145.46023004438
 30
0.0
 11
-592.4733344170163
 21
-29399.46023004438
 31
0.0
  0
LINE
  5
35BD9
102
{ACAD_REACTORS
330
35D25
102
}
330
747D
100
AcDbEntity
  8
部品1
100
AcDbLine
 10
-580.4733344170163
 20
-29145.46023004438
 30
0.0
 11
-580.4733344170163
 21
-29399.46023004438
 31
0.0
  0
LINE
  5
35BDA
102
{ACAD_REACTORS
330
35D30
102
}
330
747D
100
AcDbEntity
  8
部品1
100
AcDbLine
 10
-380.4733344170163
 20
-29145.46023004438
 30
0.0
 11
-380.4733344170163
 21
-29399.46023004438
 31
0.0
  0
LINE
  5
35BDB
102
{ACAD_REACTORS
330
35D30
102
}
330
747D
100
AcDbEntity
  8
部品1
100
AcDbLine
 10
-375.5036793024119
 20
-29133.46023004438
 30
0.0
 11
-397.4429895316207
 21
-29133.46023004438
 31
0.0
  0
LINE
  5
35BDC
102
{ACAD_REACTORS
330
35D30
102
}
330
747D
100
AcDbEntity
  8
部品1
100
AcDbLine
 10
-375.5036793024119
 20
-29133.46023004438
 30
0.0
 11
-375.5036793024119
 21
-29123.46023004438
 31
0.0
  0
LINE
  5
35BDD
102
{ACAD_REACTORS
330
35D30
102
}
330
747D
100
AcDbEntity
  8
部品1
100
AcDbLine
 10
-380.9885068597141
 20
-29133.46023004438
 30
0.0
 11
-380.9885068597141
 21
-29123.46023004438
 31
0.0
  0
LINE
  5
35BDE
102
{ACAD_REACTORS
330
35D30
102
}
330
747D
100
AcDbEntity
  8
部品1
100
AcDbLine
 10
-391.9581619743185
 20
-29133.46023004438
 30
0.0
 11
-391.9581619743185
 21
-29123.46023004438
 31
0.0
  0
LINE
  5
35BDF
102
{ACAD_REACTORS
330
35D30
102
}
330
747D
100
AcDbEntity
  8
部品1
100
AcDbLine
 10
-397.4429895316207
 20
-29133.46023004438
 30
0.0
 11
-397.4429895316207
 21
-29123.46023004438
 31
0.0
  0
LINE
  5
35BE0
102
{ACAD_REACTORS
330
35D30
102
}
330
747D
100
AcDbEntity
  8
部品1
100
AcDbLine
 10
-375.5036793024119
 20
-29123.46023004438
 30
0.0
 11
-397.4429895316207
 21
-29123.46023004438
 31
0.0
  0
LINE
  5
35BE1
102
{ACAD_REACTORS
330
35D30
102
}
330
747D
100
AcDbEntity
  8
部品1
100
AcDbLine
 10
-392.4733344170163
 20
-29115.46023004438
 30
0.0
 11
-392.4733344170163
 21
-29123.46023004439
 31
0.0
  0
LINE
  5
35BE2
102
{ACAD_REACTORS
330
35D30
102
}
330
747D
100
AcDbEntity
  8
部品1
100
AcDbLine
 10
-380.4733344170163
 20
-29115.46023004438
 30
0.0
 11
-380.4733344170163
 21
-29123.46023004438
 31
0.0
  0
LINE
  5
35BE3
102
{ACAD_REACTORS
330
35D30
102
}
330
747D
100
AcDbEntity
  8
部品1
100
AcDbLine
 10
-380.4733344170163
 20
-29115.46023004438
 30
0.0
 11
-392.4733344170163
 21
-29115.46023004438
 31
0.0
  0
LINE
  5
35BE4
102
{ACAD_REACTORS
330
35D30
102
}
330
747D
100
AcDbEntity
  8
部品1
100
AcDbLine
 10
-392.4733344170163
 20
-29145.46023004438
 30
0.0
 11
-392.4733344170163
 21
-29399.46023004438
 31
0.0
  0
ARC
  5
35BE5
102
{ACAD_REACTORS
330
35D30
102
}
330
747D
100
AcDbEntity
  8
部品1
100
AcDbCircle
 10
-355.4733344170163
 20
-29399.46023004438
 30
0.0
 40
37.0
100
AcDbArc
 50
180.0
 51
270.0
  0
ARC
  5
35BE6
102
{ACAD_REACTORS
330
35D30
102
}
330
747D
100
AcDbEntity
  8
部品1
100
AcDbCircle
 10
-355.4733344170163
 20
-29399.46023004438
 30
0.0
 40
25.0
100
AcDbArc
 50
180.0
 51
270.0
  0
LINE
  5
35BE7
102
{ACAD_REACTORS
330
35D30
102
}
330
747D
100
AcDbEntity
  8
部品1
100
AcDbLine
 10
-336.4733344170163
 20
-29424.46023004438
 30
0.0
 11
-336.4733344170163
 21
-29436.46023004438
 31
0.0
  0
LINE
  5
35BE8
102
{ACAD_REACTORS
330
35D30
102
}
330
747D
100
AcDbEntity
  8
部品1
100
AcDbLine
 10
-355.4733344170163
 20
-29436.46023004438
 30
0.0
 11
-336.4733344170163
 21
-29436.46023004438
 31
0.0
  0
LINE
  5
35BE9
102
{ACAD_REACTORS
330
35D30
102
}
330
747D
100
AcDbEntity
  8
部品1
100
AcDbLine
 10
-355.4733344170163
 20
-29424.46023004438
 30
0.0
 11
-336.4733344170163
 21
-29424.46023004438
 31
0.0
  0
LINE
  5
35BEA
330
747D
100
AcDbEntity
  8
寸法
 48
50.0
100
AcDbLine
 10
287.7101316409971
 20
-29660.23613404104
 30
0.0
 11
1280.637458161647
 21
-29660.23613404104
 31
0.0
  0
TEXT
  5
35BEB
330
747D
100
AcDbEntity
  8
寸法
 62
     7
 48
50.0
100
AcDbText
 10
325.4554977231673
 20
-29647.96823050889
 30
0.0
 40
90.0
  1
アンカーボルト
  7
STYLE1
100
AcDbText
  0
LWPOLYLINE
  5
35BEC
330
747D
100
AcDbEntity
  8
寸法
 48
5.0
100
AcDbPolyline
 90
        3
 70
     0
 43
0.0
 10
-1186.473334417016
 20
-29544.26023004439
 10
-1525.392747996571
 20
-29939.91117448001
 10
-2442.90230314152
 20
-29939.91117448001
1001
ACAD
1000
DSTYLE
1002
{
1070
   341
1005
0
1002
}
  0
TEXT
  5
35BED
330
747D
100
AcDbEntity
  8
寸法
 62
     7
 48
50.0
100
AcDbText
 10
325.4554977231673
 20
-29767.51450902534
 30
0.0
 40
90.0
  1
M12X350（市販品）
  7
STYLE1
100
AcDbText
  0
TEXT
  5
35BEE
330
747D
100
AcDbEntity
  8
寸法
 62
     7
 48
50.0
100
AcDbText
 10
325.4554977231673
 20
-30053.36131081161
 30
0.0
 40
90.0
  1
主筋4-D13
  7
STYLE1
100
AcDbText
  0
LINE
  5
35BEF
330
747D
100
AcDbEntity
  8
寸法
 48
50.0
100
AcDbLine
 10
287.7101316409971
 20
-30074.64369610239
 30
0.0
 11
874.8903674728571
 21
-30074.64369610239
 31
0.0
  0
LINE
  5
35BF0
330
747D
100
AcDbEntity
  8
寸法
 48
50.0
100
AcDbLine
 10
287.7101316409971
 20
-29660.23613404104
 30
0.0
 11
-380.4733344170163
 21
-29274.46023004438
 31
0.0
  0
LINE
  5
35BF1
330
747D
100
AcDbEntity
  8
寸法
 48
50.0
100
AcDbLine
 10
-640.7446473267263
 20
-29435.46023004438
 30
0.0
 11
-1525.392747996571
 21
-30320.10833071421
 31
0.0
  0
LINE
  5
35BF2
330
747D
100
AcDbEntity
  8
寸法
 48
50.0
100
AcDbLine
 10
-1525.392747996571
 20
-30320.10833071421
 30
0.0
 11
-2224.238561940765
 21
-30320.10833071421
 31
0.0
  0
TEXT
  5
35BF3
330
747D
100
AcDbEntity
  8
寸法
 62
     7
 48
50.0
100
AcDbText
 10
-2200.151144260635
 20
-30305.82540322495
 30
0.0
 40
90.0
  1
帯筋D10＠100
  7
STYLE1
100
AcDbText
  0
LINE
  5
35BF4
330
747D
100
AcDbEntity
  8
寸法
 48
50.0
100
AcDbLine
 10
-295.2601309814127
 20
-29491.67343347998
 30
0.0
 11
287.7101316409971
 21
-30074.64369610239
 31
0.0
  0
ARC
  5
35BF5
330
747D
100
AcDbEntity
  8
部品1
 48
50.0
100
AcDbCircle
 10
-486.4733344170162
 20
-29193.68023131504
 30
0.0
 40
48.22000127066345
100
AcDbArc
 50
22.20066484131572
 51
157.7993351586842
  0
LINE
  5
35BF6
330
747D
100
AcDbEntity
  8
部品1
 48
50.0
100
AcDbLine
 10
-580.4733344170163
 20
-29175.46023004438
 30
0.0
 11
-392.4733344170163
 21
-29175.46023004438
 31
0.0
  0
LINE
  5
35BF7
330
747D
100
AcDbEntity
  8
部品1
 48
50.0
100
AcDbLine
 10
-1286.473334417016
 20
-29175.46023004438
 30
0.0
 11
-592.4733344170163
 21
-29175.46023004438
 31
0.0
  0
LINE
  5
35BF8
330
747D
100
AcDbEntity
  8
部品1
 48
50.0
100
AcDbLine
 10
-380.4733344170163
 20
-29175.46023004438
 30
0.0
 11
-186.4733344170308
 21
-29175.46023004438
 31
0.0
  0
LINE
  5
35BF9
330
747D
100
AcDbEntity
  8
部品1
 48
50.0
100
AcDbLine
 10
-1286.473334417024
 20
-29075.46023004438
 30
0.0
 11
-1788.589145516693
 21
-29075.46023004438
 31
0.0
  0
DIMENSION
  5
35C03
330
747D
100
AcDbEntity
  8
寸法
 48
50.0
100
AcDbDimension
  2
*D31
 10
-1509.089537888319
 20
-29145.46023004438
 30
0.0
 11
-1509.089537888314
 21
-29404.99566311525
 31
0.0
 70
   160
 71
     5
 42
30.0
  3
INABA_S30G
100
AcDbAlignedDimension
 13
-1351.770336601839
 23
-29175.46023004438
 33
0.0
 14
-626.4733344170163
 24
-29145.46023004438
 34
0.0
 50
90.0
100
AcDbRotatedDimension
  0
DIMENSION
  5
35C04
330
747D
100
AcDbEntity
  8
寸法
 48
50.0
100
AcDbDimension
  2
*D30
 10
-1709.265441281565
 20
-29115.46023004438
 30
0.0
 11
-1709.265441281561
 21
-29332.68857650107
 31
0.0
 70
   160
 71
     5
 42
60.0
  3
INABA_S30G
100
AcDbAlignedDimension
 13
-1351.770336601839
 23
-29175.46023004438
 33
0.0
 14
-592.4733344170163
 24
-29115.46023004438
 34
0.0
 50
90.0
100
AcDbRotatedDimension
  0
TEXT
  5
35C05
330
747D
100
AcDbEntity
  8
寸法
 62
     7
100
AcDbText
 10
-2437.765865338195
 20
-29804.91724875703
 30
0.0
 40
90.0
  1
ベース筋
  7
STYLE1
100
AcDbText
  0
LINE
  5
35C06
102
{ACAD_REACTORS
330
35D2F
102
}
330
747D
100
AcDbEntity
  8
部品1
 48
50.0
100
AcDbLine
 10
-1202.223334417016
 20
-29550.46023004439
 30
0.0
 11
-370.7537859791046
 21
-29550.46023004439
 31
0.0
  0
CIRCLE
  5
35C07
102
{ACAD_REACTORS
330
35D2F
102
}
330
747D
100
AcDbEntity
  8
部品1
 48
50.0
100
AcDbCircle
 10
-386.4733344170163
 20
-29545.46023004438
 30
0.0
 40
5.0
  0
CIRCLE
  5
35C08
102
{ACAD_REACTORS
330
35D2F
102
}
330
747D
100
AcDbEntity
  8
部品1
 48
50.0
100
AcDbCircle
 10
-586.4733344170162
 20
-29545.46023004438
 30
0.0
 40
5.0
  0
CIRCLE
  5
35C09
102
{ACAD_REACTORS
330
35D2F
102
}
330
747D
100
AcDbEntity
  8
部品1
 48
50.0
100
AcDbCircle
 10
-786.4733344170162
 20
-29545.46023004438
 30
0.0
 40
5.0
  0
CIRCLE
  5
35C0A
102
{ACAD_REACTORS
330
35D2F
102
}
330
747D
100
AcDbEntity
  8
部品1
 48
50.0
100
AcDbCircle
 10
-986.4733344170163
 20
-29545.46023004438
 30
0.0
 40
5.0
  0
CIRCLE
  5
35C0B
102
{ACAD_REACTORS
330
35D2F
102
}
330
747D
100
AcDbEntity
  8
部品1
 48
50.0
100
AcDbCircle
 10
-1186.473334417016
 20
-29545.46023004439
 30
0.0
 40
5.0
  0
LINE
  5
35C0C
102
{ACAD_REACTORS
330
35D2F
102
}
330
747D
100
AcDbEntity
  8
部品1
 48
50.0
100
AcDbLine
 10
-370.7537859791046
 20
-29550.46023004439
 30
0.0
 11
-370.7537859791046
 21
-29560.46023004439
 31
0.0
  0
LINE
  5
35C0D
102
{ACAD_REACTORS
330
35D2F
102
}
330
747D
100
AcDbEntity
  8
部品1
 48
50.0
100
AcDbLine
 10
-1202.223334417016
 20
-29560.46023004439
 30
0.0
 11
-370.7537859791046
 21
-29560.46023004439
 31
0.0
  0
LINE
  5
35C0E
102
{ACAD_REACTORS
330
35D2F
102
}
330
747D
100
AcDbEntity
  8
部品1
 48
50.0
100
AcDbLine
 10
-1202.223334417016
 20
-29550.46023004439
 30
0.0
 11
-1202.223334417016
 21
-29560.46023004439
 31
0.0
  0
LINE
  5
35C0F
102
{ACAD_REACTORS
330
35D26
330
35D29
102
}
330
747D
100
AcDbEntity
  8
KIN-T
100
AcDbLine
 10
-474.9233344170061
 20
-29513.46023004438
 30
0.0
 11
-329.4733344170018
 21
-29513.46023004438
 31
0.0
  0
CIRCLE
  5
35C10
102
{ACAD_REACTORS
330
35D26
330
35D2E
102
}
330
747D
100
AcDbEntity
  8
U7
100
AcDbCircle
 10
-691.473334417009
 20
-29135.46023004438
 30
0.0
 40
5.0
  0
CIRCLE
  5
35C11
102
{ACAD_REACTORS
330
35D26
330
35D2E
102
}
330
747D
100
AcDbEntity
  8
U7
100
AcDbCircle
 10
-281.473334417009
 20
-29135.46023004438
 30
0.0
 40
5.0
  0
LINE
  5
35C12
102
{ACAD_REACTORS
330
35D26
330
35D2E
102
}
330
747D
100
AcDbEntity
  8
U7
100
AcDbLine
 10
-691.473334417009
 20
-29140.46023004438
 30
0.0
 11
-281.473334417009
 21
-29140.46023004437
 31
0.0
  0
LINE
  5
35C13
102
{ACAD_REACTORS
330
35D26
330
35D2E
102
}
330
747D
100
AcDbEntity
  8
U7
100
AcDbLine
 10
-691.473334417009
 20
-29130.46023004438
 30
0.0
 11
-281.473334417009
 21
-29130.46023004438
 31
0.0
  0
CIRCLE
  5
35C14
102
{ACAD_REACTORS
330
35D26
330
35D2D
102
}
330
747D
100
AcDbEntity
  8
U7
100
AcDbCircle
 10
-691.473334417009
 20
-29235.46023004438
 30
0.0
 40
5.0
  0
CIRCLE
  5
35C15
102
{ACAD_REACTORS
330
35D26
330
35D2D
102
}
330
747D
100
AcDbEntity
  8
U7
100
AcDbCircle
 10
-281.473334417009
 20
-29235.46023004438
 30
0.0
 40
5.0
  0
LINE
  5
35C16
102
{ACAD_REACTORS
330
35D26
330
35D2D
102
}
330
747D
100
AcDbEntity
  8
U7
100
AcDbLine
 10
-691.473334417009
 20
-29230.46023004438
 30
0.0
 11
-281.473334417009
 21
-29230.46023004438
 31
0.0
  0
LINE
  5
35C17
102
{ACAD_REACTORS
330
35D26
330
35D2D
102
}
330
747D
100
AcDbEntity
  8
U7
100
AcDbLine
 10
-691.473334417009
 20
-29240.46023004438
 30
0.0
 11
-281.473334417009
 21
-29240.46023004438
 31
0.0
  0
CIRCLE
  5
35C18
102
{ACAD_REACTORS
330
35D26
330
35D2C
102
}
330
747D
100
AcDbEntity
  8
U7
100
AcDbCircle
 10
-691.473334417009
 20
-29335.46023004438
 30
0.0
 40
5.0
  0
CIRCLE
  5
35C19
102
{ACAD_REACTORS
330
35D26
330
35D2C
102
}
330
747D
100
AcDbEntity
  8
U7
100
AcDbCircle
 10
-281.473334417009
 20
-29335.46023004438
 30
0.0
 40
5.0
  0
LINE
  5
35C1A
102
{ACAD_REACTORS
330
35D26
330
35D2C
102
}
330
747D
100
AcDbEntity
  8
U7
100
AcDbLine
 10
-691.473334417009
 20
-29340.46023004438
 30
0.0
 11
-281.473334417009
 21
-29340.46023004437
 31
0.0
  0
LINE
  5
35C1B
102
{ACAD_REACTORS
330
35D26
330
35D2C
102
}
330
747D
100
AcDbEntity
  8
U7
100
AcDbLine
 10
-691.473334417009
 20
-29330.46023004438
 30
0.0
 11
-281.473334417009
 21
-29330.46023004438
 31
0.0
  0
CIRCLE
  5
35C1C
102
{ACAD_REACTORS
330
35D26
330
35D2B
102
}
330
747D
100
AcDbEntity
  8
U7
100
AcDbCircle
 10
-691.473334417009
 20
-29435.46023004438
 30
0.0
 40
5.0
  0
CIRCLE
  5
35C1D
102
{ACAD_REACTORS
330
35D26
330
35D2B
102
}
330
747D
100
AcDbEntity
  8
U7
100
AcDbCircle
 10
-281.473334417009
 20
-29435.46023004438
 30
0.0
 40
5.0
  0
LINE
  5
35C1E
102
{ACAD_REACTORS
330
35D26
330
35D2B
102
}
330
747D
100
AcDbEntity
  8
U7
100
AcDbLine
 10
-691.473334417009
 20
-29430.46023004438
 30
0.0
 11
-281.473334417009
 21
-29430.46023004438
 31
0.0
  0
LINE
  5
35C1F
102
{ACAD_REACTORS
330
35D26
330
35D2B
102
}
330
747D
100
AcDbEntity
  8
U7
100
AcDbLine
 10
-691.473334417009
 20
-29440.46023004438
 30
0.0
 11
-281.473334417009
 21
-29440.46023004437
 31
0.0
  0
LINE
  5
35C20
102
{ACAD_REACTORS
330
35D26
330
35D29
102
}
330
747D
100
AcDbEntity
  8
KIN-T
100
AcDbLine
 10
-474.9233344170061
 20
-29500.46023004438
 30
0.0
 11
-474.9233344170061
 21
-29513.46023004438
 31
0.0
  0
ARC
  5
35C21
102
{ACAD_REACTORS
330
35D26
330
35D29
102
}
330
747D
100
AcDbEntity
  8
KIN-T
100
AcDbCircle
 10
-329.4733344170018
 20
-29470.46023004438
 30
0.0
 40
43.0
100
AcDbArc
 50
270.0
 51
0.0
  0
LINE
  5
35C22
102
{ACAD_REACTORS
330
35D26
330
35D29
102
}
330
747D
100
AcDbEntity
  8
KIN-T
100
AcDbLine
 10
-286.4733344170018
 20
-29130.46023004438
 30
0.0
 11
-286.4733344170018
 21
-29470.46023004438
 31
0.0
  0
LINE
  5
35C23
102
{ACAD_REACTORS
330
35D26
330
35D29
102
}
330
747D
100
AcDbEntity
  8
KIN-T
100
AcDbLine
 10
-299.4733344170017
 20
-29130.46023004438
 30
0.0
 11
-286.4733344170018
 21
-29130.46023004438
 31
0.0
  0
ARC
  5
35C24
102
{ACAD_REACTORS
330
35D26
330
35D29
330
35D2A
102
}
330
747D
100
AcDbEntity
  8
KIN-T
100
AcDbCircle
 10
-329.4733344170018
 20
-29470.46023004438
 30
0.0
 40
30.0
100
AcDbArc
 50
270.0
 51
0.0
  0
LINE
  5
35C25
102
{ACAD_REACTORS
330
35D26
330
35D29
330
35D2A
102
}
330
747D
100
AcDbEntity
  8
KIN-T
100
AcDbLine
 10
-299.4733344170017
 20
-29130.46023004438
 30
0.0
 11
-299.4733344170017
 21
-29470.46023004438
 31
0.0
  0
LINE
  5
35C26
102
{ACAD_REACTORS
330
35D26
330
35D29
330
35D2A
102
}
330
747D
100
AcDbEntity
  8
KIN-T
100
AcDbLine
 10
-474.9233344170061
 20
-29500.46023004438
 30
0.0
 11
-329.4733344170018
 21
-29500.46023004438
 31
0.0
  0
LINE
  5
35C27
102
{ACAD_REACTORS
330
35D26
330
35D27
102
}
330
747D
100
AcDbEntity
  8
KIN-T
100
AcDbLine
 10
-861.923334417006
 20
-29500.46023004438
 30
0.0
 11
-861.923334417006
 21
-29513.46023004438
 31
0.0
  0
LINE
  5
35C28
102
{ACAD_REACTORS
330
35D26
330
35D27
102
}
330
747D
100
AcDbEntity
  8
KIN-T
100
AcDbLine
 10
-861.923334417006
 20
-29513.46023004438
 30
0.0
 11
-716.4733344170017
 21
-29513.46023004438
 31
0.0
  0
ARC
  5
35C29
102
{ACAD_REACTORS
330
35D26
330
35D27
102
}
330
747D
100
AcDbEntity
  8
KIN-T
100
AcDbCircle
 10
-716.4733344170017
 20
-29470.46023004438
 30
0.0
 40
43.0
100
AcDbArc
 50
270.0
 51
0.0
  0
LINE
  5
35C2A
102
{ACAD_REACTORS
330
35D26
330
35D27
102
}
330
747D
100
AcDbEntity
  8
KIN-T
100
AcDbLine
 10
-673.4733344170017
 20
-29130.46023004438
 30
0.0
 11
-673.4733344170017
 21
-29470.46023004438
 31
0.0
  0
LINE
  5
35C2B
102
{ACAD_REACTORS
330
35D26
330
35D27
102
}
330
747D
100
AcDbEntity
  8
KIN-T
100
AcDbLine
 10
-686.4733344170018
 20
-29130.46023004438
 30
0.0
 11
-673.4733344170017
 21
-29130.46023004438
 31
0.0
  0
ARC
  5
35C2C
102
{ACAD_REACTORS
330
35D26
330
35D27
330
35D28
102
}
330
747D
100
AcDbEntity
  8
KIN-T
100
AcDbCircle
 10
-716.4733344170017
 20
-29470.46023004438
 30
0.0
 40
30.0
100
AcDbArc
 50
270.0
 51
0.0
  0
LINE
  5
35C2D
102
{ACAD_REACTORS
330
35D26
330
35D27
330
35D28
102
}
330
747D
100
AcDbEntity
  8
KIN-T
100
AcDbLine
 10
-686.4733344170018
 20
-29130.46023004438
 30
0.0
 11
-686.4733344170018
 21
-29470.46023004438
 31
0.0
  0
LINE
  5
35C2E
102
{ACAD_REACTORS
330
35D26
330
35D27
330
35D28
102
}
330
747D
100
AcDbEntity
  8
KIN-T
100
AcDbLine
 10
-861.923334417006
 20
-29500.46023004438
 30
0.0
 11
-716.4733344170017
 21
-29500.46023004438
 31
0.0
  0
TEXT
  5
35C2F
330
747D
100
AcDbEntity
  8
寸法
 62
     7
100
AcDbText
 10
-2437.765865338195
 20
-29919.39016948166
 30
0.0
 40
90.0
  1
4-D10X5-D10以上
  7
STYLE1
100
AcDbText
  0
LINE
  5
35D31
330
747D
100
AcDbEntity
  8
細線
 48
50.0
100
AcDbLine
 10
-1342.290393670156
 20
-29175.46023004438
 30
0.0
 11
-1348.989123480937
 21
-29150.46023004437
 31
0.0
  0
LINE
  5
35D32
330
747D
100
AcDbEntity
  8
細線
 48
50.0
100
AcDbLine
 10
-1465.55296390023
 20
-29175.46023004438
 30
0.0
 11
-1472.251693711012
 21
-29150.46023004437
 31
0.0
  0
LINE
  5
35D33
330
747D
100
AcDbEntity
  8
細線
 48
50.0
100
AcDbLine
 10
-1588.815534130306
 20
-29175.46023004438
 30
0.0
 11
-1595.514263941088
 21
-29150.46023004437
 31
0.0
  0
LINE
  5
35D34
330
747D
100
AcDbEntity
  8
細線
 48
50.0
100
AcDbLine
 10
-1712.078104360381
 20
-29175.46023004438
 30
0.0
 11
-1718.776834171163
 21
-29150.46023004437
 31
0.0
  0
LINE
  5
35D35
330
747D
100
AcDbEntity
  8
細線
 48
50.0
100
AcDbLine
 10
-1335.591663859384
 20
-29100.46023004438
 30
0.0
 11
-1342.290393670162
 21
-29075.46023004438
 31
0.0
  0
LINE
  5
35D36
330
747D
100
AcDbEntity
  8
細線
 48
50.0
100
AcDbLine
 10
-1458.854234089459
 20
-29100.46023004438
 30
0.0
 11
-1465.552963900237
 21
-29075.46023004438
 31
0.0
  0
LINE
  5
35D37
330
747D
100
AcDbEntity
  8
細線
 48
50.0
100
AcDbLine
 10
-1705.379374549609
 20
-29100.46023004438
 30
0.0
 11
-1712.078104360387
 21
-29075.46023004438
 31
0.0
  0
LINE
  5
35D38
330
747D
100
AcDbEntity
  8
細線
 48
50.0
100
AcDbLine
 10
-1582.116804319535
 20
-29100.46023004438
 30
0.0
 11
-1588.815534130312
 21
-29075.46023004438
 31
0.0
  0
HATCH
  5
35D39
330
747D
100
AcDbEntity
  8
細線
 48
50.0
100
AcDbHatch
 10
0.0
 20
0.0
 30
0.0
210
0.0
220
0.0
230
1.0
  2
LINE
 70
     0
 71
     0
 91
        1
 92
        7
 72
     0
 73
     1
 93
        4
 10
-1286.473334417016
 20
-29175.46023004438
 10
-1286.473334417016
 20
-29075.46023004438
 10
-1788.589145516693
 20
-29075.46023004438
 10
-1788.589145516693
 20
-29175.46023004438
 97
        0
 75
     0
 76
     1
 52
75.0
 41
37.5
 77
     0
 78
     1
 53
75.0
 43
-4117.643548542445
 44
-841.3565322801224
 45
-115.0055436925422
 46
30.81564255751887
 79
     0
 47
1.008020268830581
 98
        1
 10
-1487.548588528531
 20
-29125.47807391126
  0
HATCH
  5
35D3A
330
747D
100
AcDbEntity
  8
細線
 48
50.0
100
AcDbHatch
 10
0.0
 20
0.0
 30
0.0
210
0.0
220
0.0
230
1.0
  2
PLAST
 70
     0
 71
     0
 91
        5
 92
        7
 72
     0
 73
     1
 93
        4
 10
-880.7446473267319
 20
-29675.46023004438
 10
-830.7446473267328
 20
-29625.46023004438
 10
-1256.030242519218
 20
-29625.46023004438
 10
-1298.860850956536
 20
-29675.46023004438
 97
        0
 92
        7
 72
     0
 73
     1
 93
        4
 10
-1298.860850956536
 20
-29675.46023004438
 10
-1256.03024251922
 20
-29625.46023004438
 10
-1366.473334417016
 20
-29625.46023004438
 10
-1366.473334417016
 20
-29675.46023004438
 97
        0
 92
        7
 72
     0
 73
     1
 93
        5
 10
-486.4733344170162
 20
-29675.46023004438
 10
-486.4733344170162
 20
-29625.46023004438
 10
-531.0233344170192
 20
-29625.46023004438
 10
-830.7446473267281
 20
-29625.46023004438
 10
-880.7446473267354
 20
-29675.46023004438
 97
        0
 92
        7
 72
     0
 73
     1
 93
        4
 10
-486.4733344170162
 20
-29675.46023004438
 10
-409.4953866121668
 20
-29675.46023004437
 10
-454.7765323797248
 20
-29625.46023004438
 10
-486.4733344170162
 20
-29625.46023004438
 97
        0
 92
        7
 72
     0
 73
     1
 93
        4
 10
-454.7765323797193
 20
-29625.46023004438
 10
-409.4953866121668
 20
-29675.46023004438
 10
-106.4733344170236
 20
-29675.46023004438
 10
-106.4733344170236
 20
-29625.46023004438
 97
        0
 75
     0
 76
     1
 52
45.0
 41
37.5
 77
     0
 78
     3
 53
45.0
 43
-4117.643548542445
 44
-841.3565322801224
 45
-168.3798022700466
 46
168.3798022700466
 79
     0
 53
45.0
 43
-4138.6910238262
 44
-820.3090569963679
 45
-168.3798022700466
 46
168.3798022700466
 79
     0
 53
45.0
 43
-4159.738499109955
 44
-799.2615817126098
 45
-168.3798022700466
 46
168.3798022700466
 79
     0
 47
2.357055197808914
 98
        5
 10
-1069.820836046121
 20
-29652.25258710718
 10
-1322.207803731224
 20
-29652.25258710718
 10
-774.9762456211465
 20
-29654.60964217236
 10
-468.3378830369838
 20
-29652.25258710718
 10
-383.4226375572543
 20
-29647.53847697685
  0
HATCH
  5
35D3B
330
747D
100
AcDbEntity
  8
細線
 48
50.0
100
AcDbHatch
 10
0.0
 20
0.0
 30
0.0
210
0.0
220
0.0
230
1.0
  2
LINE
 70
     0
 71
     0
 91
        4
 92
        7
 72
     0
 73
     1
 93
        5
 10
-1366.473334417016
 20
-29754.3903292507
 10
-1366.473334417016
 20
-29775.46023004439
 10
-980.7446473267354
 20
-29775.46023004437
 10
-880.7446473267427
 20
-29675.46023004438
 10
-1298.86085095654
 20
-29675.46023004438
 97
        0
 92
       23
 72
     0
 73
     1
 93
        3
 10
-1298.860850956539
 20
-29675.46023004438
 10
-1366.473334417016
 20
-29675.46023004438
 10
-1366.473334417016
 20
-29754.39032925068
 97
        0
 92
        7
 72
     0
 73
     1
 93
        4
 10
-318.9330950770509
 20
-29775.46023004438
 10
-409.4953866121613
 20
-29675.46023004438
 10
-880.7446473267301
 20
-29675.46023004438
 10
-980.7446473267345
 20
-29775.46023004439
 97
        0
 92
        7
 72
     0
 73
     1
 93
        4
 10
-318.9330950770518
 20
-29775.46023004438
 10
-106.4733344170236
 20
-29775.46023004438
 10
-106.4733344170236
 20
-29675.46023004438
 10
-409.4953866121668
 20
-29675.46023004438
 97
        0
 75
     0
 76
     1
 52
75.0
 41
37.5
 77
     0
 78
     1
 53
75.0
 43
-4117.643548542445
 44
-841.3565322801224
 45
-115.0055436925422
 46
30.81564255751887
 79
     0
 47
3.330068210733803
 98
        4
 10
-1326.284491729566
 20
-29736.56391258524
 10
-1342.94686543104
 20
-29696.60309156942
 10
-783.0915602126988
 20
-29726.57371236334
 10
-306.5480518904296
 20
-29729.90378581338
  0
LINE
  5
35D3C
330
747D
100
AcDbEntity
  8
細線
 48
50.0
100
AcDbLine
 10
-1256.53476866868
 20
-29775.46023004438
 30
0.0
 11
-1263.233498479461
 21
-29750.46023004438
 31
0.0
  0
LINE
  5
35D3D
330
747D
100
AcDbEntity
  8
細線
 48
50.0
100
AcDbLine
 10
-1133.272198438605
 20
-29775.46023004438
 30
0.0
 11
-1139.970928249387
 21
-29750.46023004438
 31
0.0
  0
LINE
  5
35D3E
330
747D
100
AcDbEntity
  8
細線
 48
50.0
100
AcDbLine
 10
-1010.009628208529
 20
-29775.46023004438
 30
0.0
 11
-1016.708358019311
 21
-29750.46023004438
 31
0.0
  0
LINE
  5
35D3F
330
747D
100
AcDbEntity
  8
細線
 48
50.0
100
AcDbLine
 10
-886.747057978455
 20
-29775.46023004438
 30
0.0
 11
-893.4457877892365
 21
-29750.46023004438
 31
0.0
  0
LINE
  5
35D40
330
747D
100
AcDbEntity
  8
細線
 48
50.0
100
AcDbLine
 10
-763.4844877483792
 20
-29775.46023004438
 30
0.0
 11
-770.1832175591607
 21
-29750.46023004438
 31
0.0
  0
LINE
  5
35D41
330
747D
100
AcDbEntity
  8
細線
 48
50.0
100
AcDbLine
 10
-640.2219175183045
 20
-29775.46023004439
 30
0.0
 11
-646.920647329086
 21
-29750.46023004439
 31
0.0
  0
LINE
  5
35D42
330
747D
100
AcDbEntity
  8
細線
 48
50.0
100
AcDbLine
 10
-516.959347288227
 20
-29775.46023004438
 30
0.0
 11
-523.6580770990086
 21
-29750.46023004438
 31
0.0
  0
LINE
  5
35D43
330
747D
100
AcDbEntity
  8
細線
 48
50.0
100
AcDbLine
 10
-393.6967770581523
 20
-29775.46023004438
 30
0.0
 11
-400.3955068689338
 21
-29750.46023004438
 31
0.0
  0
LINE
  5
35D44
330
747D
100
AcDbEntity
  8
細線
 48
50.0
100
AcDbLine
 10
-270.4342068280757
 20
-29775.46023004438
 30
0.0
 11
-277.1329366388572
 21
-29750.46023004438
 31
0.0
  0
LINE
  5
35D45
330
747D
100
AcDbEntity
  8
細線
 48
50.0
100
AcDbLine
 10
-147.1716365980028
 20
-29775.46023004439
 30
0.0
 11
-153.8703664087843
 21
-29750.46023004439
 31
0.0
  0
LINE
  5
35D46
330
747D
100
AcDbEntity
  8
細線
 48
50.0
100
AcDbLine
 10
-140.4729067872276
 20
-29700.46023004438
 30
0.0
 11
-147.1716365980055
 21
-29675.46023004438
 31
0.0
  0
LINE
  5
35D47
330
747D
100
AcDbEntity
  8
細線
 48
50.0
100
AcDbLine
 10
-263.7354770173033
 20
-29700.46023004438
 30
0.0
 11
-270.4342068280812
 21
-29675.46023004438
 31
0.0
  0
LINE
  5
35D48
330
747D
100
AcDbEntity
  8
細線
 48
50.0
100
AcDbLine
 10
-386.998047247379
 20
-29700.46023004438
 30
0.0
 11
-393.6967770581568
 21
-29675.46023004438
 31
0.0
  0
LINE
  5
35D49
330
747D
100
AcDbEntity
  8
細線
 48
50.0
100
AcDbLine
 10
-510.2606174774536
 20
-29700.46023004438
 30
0.0
 11
-516.9593472882316
 21
-29675.46023004438
 31
0.0
  0
LINE
  5
35D4A
330
747D
100
AcDbEntity
  8
細線
 48
50.0
100
AcDbLine
 10
-633.5231877075321
 20
-29700.46023004439
 30
0.0
 11
-640.2219175183099
 21
-29675.46023004439
 31
0.0
  0
LINE
  5
35D4B
330
747D
100
AcDbEntity
  8
細線
 48
50.0
100
AcDbLine
 10
-756.785757937605
 20
-29700.46023004438
 30
0.0
 11
-763.4844877483828
 21
-29675.46023004438
 31
0.0
  0
LINE
  5
35D4C
330
747D
100
AcDbEntity
  8
細線
 48
50.0
100
AcDbLine
 10
-880.0483281676825
 20
-29700.46023004438
 30
0.0
 11
-886.7470579784603
 21
-29675.46023004438
 31
0.0
  0
LINE
  5
35D4D
330
747D
100
AcDbEntity
  8
細線
 48
50.0
100
AcDbLine
 10
-1249.836038857907
 20
-29700.46023004438
 30
0.0
 11
-1256.534768668684
 21
-29675.46023004438
 31
0.0
  0
LINE
  5
35D4E
330
747D
100
AcDbEntity
  8
細線
 48
50.0
100
AcDbLine
 10
-1126.573468627833
 20
-29700.46023004438
 30
0.0
 11
-1133.272198438611
 21
-29675.46023004438
 31
0.0
  0
LINE
  5
35D4F
330
747D
100
AcDbEntity
  8
細線
 48
50.0
100
AcDbLine
 10
-1003.310898397756
 20
-29700.46023004438
 30
0.0
 11
-1010.009628208534
 21
-29675.46023004438
 31
0.0
  0
HATCH
  5
35E11
330
747D
100
AcDbEntity
  8
細線
 48
50.0
100
AcDbHatch
 10
0.0
 20
0.0
 30
0.0
210
0.0
220
0.0
230
1.0
  2
PLAST
 70
     0
 71
     0
 91
        6
 92
        7
 72
     1
 73
     1
 93
       16
 10
-1788.589145516693
 20
-28975.46023004438
 42
0.0
 10
-1788.589145516693
 20
-29075.46023004438
 42
0.0
 10
-1286.473334417016
 20
-29075.46023004438
 42
0.0
 10
-1286.473334417016
 20
-29175.46023004438
 42
0.0
 10
-686.4733344170012
 20
-29175.46023004438
 42
0.0
 10
-686.4733344170012
 20
-29140.46023004438
 42
0.0
 10
-691.473334417009
 20
-29140.46023004438
 42
-0.4142135623730951
 10
-696.473334417009
 20
-29135.46023004438
 42
-0.4142135623730951
 10
-691.473334417009
 20
-29130.46023004438
 42
0.0
 10
-620.0233344170192
 20
-29130.46023004438
 42
0.0
 10
-620.0233344170187
 20
-29093.46023004438
 42
0.0
 10
-610.023334417016
 20
-29083.46023004438
 42
0.0
 10
-531.0233344170133
 20
-29083.46023004438
 42
0.0
 10
-531.0233344170151
 20
-28961.46023004438
 42
0.0
 10
-545.0233344170165
 20
-28961.46023004438
 42
0.0
 10
-559.0233344170147
 20
-28975.46023004437
 42
0.0
 97
        0
 92
        7
 72
     1
 73
     1
 93
       17
 10
-441.9233344170129
 20
-29083.46023004438
 42
0.0
 10
-362.9233344170161
 20
-29083.46023004438
 42
0.0
 10
-352.9233344170134
 20
-29093.46023004438
 42
0.0
 10
-352.9233344170134
 20
-29130.46023004438
 42
0.0
 10
-281.473334417009
 20
-29130.46023004438
 42
-0.4142135623730951
 10
-276.473334417009
 20
-29135.46023004438
 42
-0.4142135623726688
 10
-281.473334417009
 20
-29140.46023004437
 42
0.0
 10
-286.4733344170013
 20
-29140.46023004437
 42
0.0
 10
-286.4733344170004
 20
-29175.46023004438
 42
0.0
 10
-186.4733344170308
 20
-29175.46023004438
 42
0.0
 10
-186.4733344170308
 20
-29075.46023004438
 42
0.0
 10
-286.4733344170163
 20
-29075.46023004438
 42
0.0
 10
-286.4733344170163
 20
-28985.46023004438
 42
0.0
 10
-296.4733344170109
 20
-28975.46023004439
 42
0.0
 10
-413.9233344170102
 20
-28975.46023004438
 42
0.0
 10
-427.9233344170152
 20
-28961.46023004438
 42
0.0
 10
-441.9233344170124
 20
-28961.46023004439
 42
0.0
 97
        0
 92
       22
 72
     0
 73
     1
 93
        6
 10
-626.4733344170158
 20
-29145.46023004439
 10
-626.4733344170167
 20
-29140.46023004438
 10
-673.4733344170017
 20
-29140.46023004438
 10
-673.4733344170022
 20
-29175.46023004438
 10
-592.4733344170167
 20
-29175.46023004437
 10
-592.4733344170158
 20
-29145.46023004438
 97
        0
 92
        7
 72
     1
 73
     1
 93
        4
 10
-580.4733344170167
 20
-29145.46023004438
 42
0.0
 10
-580.4733344170167
 20
-29175.46023004438
 42
0.0
 10
-531.1186037771586
 20
-29175.46023004438
 42
-0.3047735316820737
 10
-486.4733344170162
 20
-29145.46023004438
 42
0.0
 97
        0
 92
        7
 72
     1
 73
     1
 93
        4
 10
-486.4733344170153
 20
-29145.46023004438
 42
-0.3047735316820574
 10
-441.8280650568735
 20
-29175.46023004438
 42
0.0
 10
-392.4733344170158
 20
-29175.46023004438
 42
0.0
 10
-392.4733344170168
 20
-29145.46023004438
 42
0.0
 97
        0
 92
        7
 72
     0
 73
     1
 93
        6
 10
-380.4733344170168
 20
-29145.46023004438
 10
-380.4733344170172
 20
-29175.46023004437
 10
-299.4733344170009
 20
-29175.46023004438
 10
-299.4733344170017
 20
-29140.46023004437
 10
-346.4733344170158
 20
-29140.46023004438
 10
-346.4733344170158
 20
-29145.46023004438
 97
        0
 75
     0
 76
     1
 52
45.0
 41
37.5
 77
     0
 78
     3
 53
45.0
 43
-4313.164785055239
 44
0.0
 45
-168.3798022700466
 46
168.3798022700466
 79
     0
 53
45.0
 43
-4334.212260338995
 44
21.04747528375583
 45
-168.3798022700466
 46
168.3798022700466
 79
     0
 53
45.0
 43
-4355.259735622751
 44
42.09495056751165
 45
-168.3798022700466
 46
168.3798022700466
 79
     0
 47
1.886419326983969
 98
        6
 10
-698.9053277653219
 20
-29043.15051470719
 10
-412.3958925563419
 20
-29031.69839443979
 10
-627.1933039219803
 20
-29158.93035338772
 10
-568.6720899001447
 20
-29157.04391910504
 10
-427.0885087442947
 20
-29157.04391910504
 10
-351.5772463642497
 20
-29158.93035338772
  0
HATCH
  5
35EAF
330
747D
100
AcDbEntity
  8
細線
 48
50.0
100
AcDbHatch
 10
0.0
 20
0.0
 30
0.0
210
0.0
220
0.0
230
1.0
  2
PLAST
 70
     0
 71
     0
 91
       15
 92
        7
 72
     1
 73
     1
 93
       43
 10
-981.4733344170162
 20
-29545.46023004438
 42
-0.4142135623735213
 10
-986.4733344170163
 20
-29550.46023004439
 42
0.0
 10
-786.4733344170162
 20
-29550.46023004439
 42
-0.4142135623735213
 10
-791.4733344170163
 20
-29545.46023004438
 42
-1.0
 10
-781.4733344170162
 20
-29545.46023004438
 42
-0.4142135623735213
 10
-786.4733344170162
 20
-29550.46023004439
 42
0.0
 10
-755.7446473267368
 20
-29550.46023004439
 42
0.0
 10
-718.7446473267227
 20
-29513.46023004438
 42
0.0
 10
-861.923334417006
 20
-29513.46023004438
 42
0.0
 10
-861.9233344170057
 20
-29500.46023004439
 42
0.0
 10
-716.4733344170017
 20
-29500.46023004438
 42
0.1260483184576957
 10
-702.0498251546596
 20
-29496.76540787232
 42
0.0
 10
-690.1681565890708
 20
-29484.88373930673
 42
0.1260483184577314
 10
-686.4733344170018
 20
-29470.46023004438
 42
0.0
 10
-686.4733344170012
 20
-29440.46023004438
 42
0.0
 10
-691.473334417009
 20
-29440.46023004438
 42
-0.4142135623730951
 10
-696.473334417009
 20
-29435.46023004438
 42
-0.4142135623730951
 10
-691.473334417009
 20
-29430.46023004438
 42
0.0
 10
-686.4733344170012
 20
-29430.46023004439
 42
0.0
 10
-686.4733344170008
 20
-29340.46023004438
 42
0.0
 10
-691.4733344170054
 20
-29340.46023004438
 42
-0.4142135623733081
 10
-696.473334417009
 20
-29335.46023004438
 42
-0.4142135623730951
 10
-691.473334417009
 20
-29330.46023004438
 42
0.0
 10
-686.4733344170012
 20
-29330.46023004438
 42
0.0
 10
-686.4733344170022
 20
-29240.46023004438
 42
0.0
 10
-691.473334417009
 20
-29240.46023004438
 42
-0.4142135623730951
 10
-696.473334417009
 20
-29235.46023004438
 42
-0.4142135623730951
 10
-691.473334417009
 20
-29230.46023004438
 42
0.0
 10
-686.4733344170012
 20
-29230.46023004438
 42
0.0
 10
-686.4733344170022
 20
-29175.46023004438
 42
0.0
 10
-1286.473334417016
 20
-29175.46023004438
 42
0.0
 10
-1286.473334417016
 20
-29625.46023004438
 42
0.0
 10
-1256.030242519222
 20
-29625.46023004438
 42
0.0
 10
-1200.350451550713
 20
-29560.46023004438
 42
0.0
 10
-1202.223334417016
 20
-29560.46023004439
 42
0.0
 10
-1202.223334417017
 20
-29550.46023004438
 42
0.0
 10
-1191.784329863246
 20
-29550.46023004438
 42
0.0
 10
-1190.279121606379
 20
-29548.70306582026
 42
-0.1782786565740319
 10
-1191.473334417016
 20
-29545.46023004439
 42
-1.0
 10
-1181.473334417016
 20
-29545.46023004439
 42
-0.4142135623730951
 10
-1186.473334417016
 20
-29550.46023004439
 42
0.0
 10
-986.4733344170163
 20
-29550.46023004439
 42
-0.4142135623735213
 10
-991.4733344170162
 20
-29545.46023004438
 42
-1.0
 97
        0
 92
       23
 72
     0
 73
     1
 93
        4
 10
-1200.350451550711
 20
-29560.46023004439
 10
-1256.030242519221
 20
-29625.46023004438
 10
-830.7446473267345
 20
-29625.46023004438
 10
-765.7446473267391
 20
-29560.46023004439
 97
        0
 92
        7
 72
     1
 73
     1
 93
       27
 10
-765.7446473267346
 20
-29560.46023004439
 42
0.0
 10
-830.7446473267322
 20
-29625.46023004438
 42
0.0
 10
-186.4733344170318
 20
-29625.46023004438
 42
0.0
 10
-186.4733344170318
 20
-29600.46023004436
 42
0.0
 10
-293.2706409364464
 20
-29493.66292352494
 42
-0.2555649155476994
 10
-329.4733344170018
 20
-29513.46023004438
 42
0.0
 10
-474.9233344170061
 20
-29513.46023004438
 42
0.0
 10
-474.9233344170057
 20
-29500.46023004439
 42
0.0
 10
-329.4733344170018
 20
-29500.46023004438
 42
0.4142135623730951
 10
-299.4733344170017
 20
-29470.46023004438
 42
0.0
 10
-299.4733344170013
 20
-29440.46023004437
 42
0.0
 10
-645.7446473267286
 20
-29440.46023004439
 42
0.0
 10
-673.4733344170012
 20
-29468.18891713466
 42
0.0
 10
-673.4733344170017
 20
-29470.46023004438
 42
-0.4142135623730951
 10
-716.4733344170017
 20
-29513.46023004438
 42
0.0
 10
-718.7446473267241
 20
-29513.46023004438
 42
0.0
 10
-755.7446473267273
 20
-29550.46023004438
 42
0.0
 10
-586.4733344170162
 20
-29550.46023004438
 42
-0.4142135623733081
 10
-591.4733344170163
 20
-29545.46023004438
 42
-1.0
 10
-581.4733344170162
 20
-29545.46023004438
 42
-0.4142135623735213
 10
-586.4733344170162
 20
-29550.46023004439
 42
0.0
 10
-386.4733344170163
 20
-29550.46023004439
 42
-0.4142135623735213
 10
-391.4733344170163
 20
-29545.46023004438
 42
-1.0
 10
-381.4733344170163
 20
-29545.46023004438
 42
-0.4142135623735213
 10
-386.4733344170163
 20
-29550.46023004439
 42
0.0
 10
-370.7537859791046
 20
-29550.46023004439
 42
0.0
 10
-370.753785979105
 20
-29560.46023004439
 42
0.0
 97
        0
 92
        7
 72
     1
 73
     1
 93
       13
 10
-186.4733344170308
 20
-29386.46618226717
 42
0.0
 10
-276.5776004293971
 20
-29334.44446002979
 42
-0.051189146983264
 10
-276.473334417009
 20
-29335.46023004438
 42
-0.4142135623726688
 10
-281.473334417009
 20
-29340.46023004437
 42
0.0
 10
-286.4733344170013
 20
-29340.46023004437
 42
0.0
 10
-286.4733344170013
 20
-29430.46023004438
 42
0.0
 10
-281.4733344170054
 20
-29430.46023004438
 42
-0.414213562372882
 10
-276.473334417009
 20
-29435.46023004438
 42
-0.4142135623726688
 10
-281.473334417009
 20
-29440.46023004437
 42
0.0
 10
-286.4733344170013
 20
-29440.46023004437
 42
0.0
 10
-286.4733344170018
 20
-29470.46023004438
 42
-0.1434619830766963
 10
-293.2706409364464
 20
-29493.66292352494
 42
0.0
 10
-186.4733344170308
 20
-29600.46023004435
 42
0.0
 97
        0
 92
        7
 72
     1
 73
     1
 93
       12
 10
-286.4733344170013
 20
-29328.73115534822
 42
0.0
 10
-283.4784891931713
 20
-29330.46023004438
 42
0.0
 10
-281.473334417009
 20
-29330.46023004438
 42
-0.3554869408474657
 10
-276.577600429398
 20
-29334.44446002979
 42
0.0
 10
-186.4733344170308
 20
-29386.46618226716
 42
0.0
 10
-186.4733344170308
 20
-29175.46023004438
 42
0.0
 10
-286.4733344170018
 20
-29175.46023004438
 42
0.0
 10
-286.4733344170022
 20
-29230.46023004438
 42
0.0
 10
-281.4733344170054
 20
-29230.46023004438
 42
-0.414213562372882
 10
-276.473334417009
 20
-29235.46023004438
 42
-0.4142135623726688
 10
-281.473334417009
 20
-29240.46023004438
 42
0.0
 10
-286.4733344170013
 20
-29240.46023004438
 42
0.0
 97
        0
 92
        7
 72
     0
 73
     1
 93
        4
 10
-592.4733344170163
 20
-29175.46023004438
 10
-673.4733344170012
 20
-29175.46023004438
 10
-673.4733344170008
 20
-29230.46023004438
 10
-592.4733344170158
 20
-29230.46023004438
 97
        0
 92
        7
 72
     0
 73
     1
 93
        4
 10
-592.4733344170163
 20
-29240.46023004438
 10
-673.4733344170017
 20
-29240.46023004438
 10
-673.4733344170017
 20
-29330.46023004438
 10
-592.4733344170163
 20
-29330.46023004438
 97
        0
 92
        7
 72
     1
 73
     1
 93
        7
 10
-673.4733344170012
 20
-29430.46023004438
 42
0.0
 10
-636.4733344170162
 20
-29430.46023004438
 42
0.0
 10
-636.4733344170168
 20
-29424.46023004438
 42
0.0
 10
-617.4733344170163
 20
-29424.46023004438
 42
0.4142135623730951
 10
-592.4733344170163
 20
-29399.46023004438
 42
0.0
 10
-592.4733344170163
 20
-29340.46023004438
 42
0.0
 10
-673.4733344170017
 20
-29340.46023004438
 42
0.0
 97
        0
 92
        7
 72
     1
 73
     1
 93
        6
 10
-580.4733344170163
 20
-29340.46023004438
 42
0.0
 10
-580.4733344170163
 20
-29399.46023004438
 42
-0.2535612698375804
 10
-597.2743245402921
 20
-29430.46023004438
 42
0.0
 10
-375.6723442937405
 20
-29430.46023004438
 42
-0.2535612698375804
 10
-392.4733344170163
 20
-29399.46023004438
 42
0.0
 10
-392.4733344170163
 20
-29340.46023004438
 42
0.0
 97
        0
 92
        7
 72
     0
 73
     1
 93
        4
 10
-392.4733344170168
 20
-29330.46023004438
 10
-392.4733344170158
 20
-29240.46023004438
 10
-580.4733344170163
 20
-29240.46023004439
 10
-580.4733344170163
 20
-29330.46023004438
 97
        0
 92
        7
 72
     0
 73
     1
 93
        4
 10
-392.4733344170168
 20
-29230.46023004438
 10
-392.4733344170168
 20
-29175.46023004438
 10
-580.4733344170163
 20
-29175.46023004438
 10
-580.4733344170163
 20
-29230.46023004438
 97
        0
 92
        7
 72
     0
 73
     1
 93
        4
 10
-380.4733344170168
 20
-29175.46023004437
 10
-380.4733344170172
 20
-29230.46023004438
 10
-299.4733344170009
 20
-29230.46023004438
 10
-299.4733344170022
 20
-29175.46023004438
 97
        0
 92
        7
 72
     0
 73
     1
 93
        4
 10
-299.4733344170017
 20
-29240.46023004438
 10
-380.4733344170163
 20
-29240.46023004438
 10
-380.4733344170163
 20
-29274.46023004438
 10
-299.4733344170013
 20
-29321.22560184875
 97
        0
 92
        7
 72
     0
 73
     1
 93
        4
 10
-299.4733344170013
 20
-29330.46023004438
 10
-299.4733344170017
 20
-29321.22560184875
 10
-380.4733344170159
 20
-29274.46023004439
 10
-380.4733344170154
 20
-29330.46023004438
 97
        0
 92
        7
 72
     1
 73
     1
 93
        7
 10
-380.4733344170163
 20
-29399.46023004438
 42
0.4142135623730951
 10
-355.4733344170163
 20
-29424.46023004438
 42
0.0
 10
-336.4733344170163
 20
-29424.46023004438
 42
0.0
 10
-336.4733344170168
 20
-29430.46023004438
 42
0.0
 10
-299.4733344170009
 20
-29430.46023004439
 42
0.0
 10
-299.4733344170013
 20
-29340.46023004437
 42
0.0
 10
-380.4733344170163
 20
-29340.46023004437
 42
0.0
 97
        0
 75
     0
 76
     1
 52
135.0
 41
37.5
 77
     0
 78
     3
 53
135.0
 43
-4313.164785055239
 44
0.0
 45
-168.3798022700466
 46
-168.3798022700466
 79
     0
 53
135.0
 43
-4334.212260338996
 44
-21.04747528375582
 45
-168.3798022700466
 46
-168.3798022700466
 79
     0
 53
135.0
 43
-4355.259735622751
 44
-42.09495056751165
 45
-168.3798022700466
 46
-168.3798022700466
 79
     0
 47
2.111092722313636
 98
       15
 10
-988.4366013388135
 20
-29360.7471388457
 10
-1001.112295372128
 20
-29588.74515952097
 10
-561.6880565167812
 20
-29584.52297507118
 10
-219.4441385835308
 20
-29481.07943592244
 10
-240.5703311124598
 20
-29293.19218764902
 10
-616.6160639944864
 20
-29204.52627394573
 10
-629.2917938345417
 20
-29278.41452194592
 10
-644.0800856367059
 20
-29371.30262009901
 10
-540.5618639878448
 20
-29369.19150774528
 10
-532.111401298971
 20
-29295.30327987393
 10
-542.6744975634355
 20
-29204.52627394573
 10
-341.9759191857374
 20
-29202.41518172083
 10
-318.7371288879512
 20
-29272.08124527123
 10
-354.6516132190518
 20
-29320.63638657267
 10
-348.3137482990278
 20
-29381.8580812235
  0
TEXT
  5
35F70
330
747D
100
AcDbEntity
  8
寸法
 62
     7
100
AcDbText
 10
-7526.276294955569
 20
-27821.42110458537
 30
0.0
 40
90.0
  1
A'
  7
STYLE1
100
AcDbText
  0
LINE
  5
35F71
330
747D
100
AcDbEntity
  8
寸法
 48
50.0
100
AcDbLine
 10
-7162.6408147931
 20
-27793.3556317836
 30
0.0
 11
-7416.77464554202
 21
-27793.3556317836
 31
0.0
  0
LINE
  5
35F72
330
747D
100
AcDbEntity
  8
寸法
 48
50.0
100
AcDbLine
 10
-7309.04127495904
 20
-27764.48856213801
 30
0.0
 11
-7309.04127495904
 21
-27830.42318105956
 31
0.0
  0
LINE
  5
35F73
330
747D
100
AcDbEntity
  8
寸法
 48
50.0
100
AcDbLine
 10
-7416.77464554202
 20
-27793.3556317836
 30
0.0
 11
-7309.04127495904
 21
-27764.48856213801
 31
0.0
  0
TEXT
  5
35F74
330
747D
100
AcDbEntity
  8
寸法
 62
     7
100
AcDbText
 10
-7527.534923814259
 20
-29093.38075975178
 30
0.0
 40
90.0
  1
A
  7
STYLE1
100
AcDbText
  0
LINE
  5
35F75
330
747D
100
AcDbEntity
  8
寸法
 48
50.0
100
AcDbLine
 10
-7309.04127495904
 20
-29080.02062638945
 30
0.0
 11
-7309.04127495904
 21
-29014.0860074679
 31
0.0
  0
LINE
  5
35F76
330
747D
100
AcDbEntity
  8
寸法
 48
50.0
100
AcDbLine
 10
-7416.77464554202
 20
-29051.15355674386
 30
0.0
 11
-7309.04127495904
 21
-29080.02062638945
 31
0.0
  0
LINE
  5
35F77
330
747D
100
AcDbEntity
  8
寸法
 48
50.0
100
AcDbLine
 10
-7162.6408147931
 20
-29051.15355674386
 30
0.0
 11
-7416.77464554202
 21
-29051.15355674386
 31
0.0
  0
LEADER
  5
35F88
330
747D
100
AcDbEntity
  8
寸法
 48
50.0
100
AcDbLeader
  3
INABA_S50G
 76
     3
 10
-4862.640814793099
 20
-28272.25459426372
 30
0.0
 10
-5474.155053773516
 20
-29331.42832572962
 30
0.0
 10
-6327.043462740661
 20
-29331.42832572962
 30
0.0
1001
ACAD
1000
DSTYLE
1002
{
1070
    41
1040
80.0
1070
   147
1040
25.0
1070
    77
1070
     0
1002
}
  0
TEXT
  5
35F89
330
747D
100
AcDbEntity
  8
寸法
 62
     7
100
AcDbText
 10
-6304.496914164309
 20
-29296.92832572963
 30
0.0
 40
90.0
  1
ｱﾝｶｰﾎﾞﾙﾄ(市販品)
  7
STYLE1
100
AcDbText
  0
DIMENSION
  5
35FB9
330
747D
100
AcDbEntity
  8
寸法
 48
50.0
100
AcDbDimension
  2
*D32
 10
-7903.512651504335
 20
-27872.25459426375
 30
0.0
 11
-7903.512651504335
 21
-27695.21916119288
 31
0.0
 70
   160
 71
     5
 42
99.99999999997818
  3
INABA_S30G
100
AcDbAlignedDimension
 13
-7562.640814793103
 23
-27972.25459426373
 33
0.0
 14
-7562.6408147931
 24
-27872.25459426375
 34
0.0
 50
90.0
100
AcDbRotatedDimension
  0
ENDSEC
  0
SECTION
  2
OBJECTS
  0
DICTIONARY
  5
7471
330
0
100
AcDbDictionary
281
     1
  3
ACAD_COLOR
350
11754
  3
ACAD_GROUP
350
7472
  3
ACAD_LAYOUT
350
11755
  3
ACAD_MATERIAL
350
11753
  3
ACAD_MLINESTYLE
350
7473
  3
ACAD_PLOTSETTINGS
350
11756
  3
ACAD_PLOTSTYLENAME
350
11751
  3
ACDBHEADERROUNDTRIPXREC
350
35FE6
  3
AcDbVariableDictionary
350
35FE2
  3
CONTENTDICTIONARY
350
E71C
  3
DRAWINGVARIABLESDICT
350
F3B9
  0
DICTIONARY
  5
11827
330
7467
100
AcDbDictionary
280
     1
281
     1
  3
ACAD_LAYERFILTERS
360
135F4
  3
ACAD_LAYERSTATES
360
11828
  0
DICTIONARY
  5
11754
102
{ACAD_REACTORS
330
7471
102
}
330
7471
100
AcDbDictionary
281
     1
  0
DICTIONARY
  5
7472
102
{ACAD_REACTORS
330
7471
102
}
330
7471
100
AcDbDictionary
281
     1
  3
*A1
350
154E2
  3
*A10
350
35548
  3
*A100
350
35955
  3
*A101
350
35070
  3
*A102
350
33AF6
  3
*A103
350
35078
  3
*A104
350
35942
  3
*A105
350
33AF9
  3
*A106
350
33B93
  3
*A107
350
3206C
  3
*A108
350
33B94
  3
*A109
350
35946
  3
*A11
350
35541
  3
*A110
350
33B95
  3
*A111
350
32DF3
  3
*A112
350
15535
  3
*A113
350
2925E
  3
*A114
350
3506A
  3
*A115
350
32DE2
  3
*A116
350
33B96
  3
*A117
350
3372B
  3
*A118
350
3506F
  3
*A119
350
32677
  3
*A12
350
32DE4
  3
*A120
350
272B4
  3
*A121
350
273ED
  3
*A122
350
2925D
  3
*A123
350
273F2
  3
*A124
350
2740E
  3
*A125
350
2925A
  3
*A126
350
35943
  3
*A127
350
27417
  3
*A128
350
32DE5
  3
*A129
350
32074
  3
*A13
350
3299F
  3
*A130
350
290DD
  3
*A131
350
3267C
  3
*A132
350
3506C
  3
*A133
350
33B5F
  3
*A134
350
273F7
  3
*A135
350
32670
  3
*A136
350
2925C
  3
*A137
350
3372D
  3
*A138
350
30D61
  3
*A139
350
30D65
  3
*A14
350
35542
  3
*A140
350
3507B
  3
*A141
350
275D7
  3
*A142
350
32DF0
  3
*A143
350
3206A
  3
*A144
350
35073
  3
*A145
350
32DF4
  3
*A146
350
329A2
  3
*A147
350
32075
  3
*A148
350
2926A
  3
*A149
350
35956
  3
*A15
350
35543
  3
*A150
350
344A6
  3
*A151
350
3295B
  3
*A152
350
32076
  3
*A153
350
3372E
  3
*A154
350
32072
  3
*A155
350
32DE7
  3
*A156
350
3206B
  3
*A157
350
35072
  3
*A158
350
27412
  3
*A159
350
3331C
  3
*A16
350
3594B
  3
*A160
350
273FC
  3
*A161
350
33AF8
  3
*A162
350
32077
  3
*A163
350
32DE3
  3
*A164
350
32962
  3
*A165
350
32DE9
  3
*A166
350
33737
  3
*A167
350
32070
  3
*A168
350
33314
  3
*A169
350
33313
  3
*A17
350
24FE6
  3
*A170
350
32676
  3
*A171
350
3266F
  3
*A172
350
3296C
  3
*A173
350
3296D
  3
*A174
350
32679
  3
*A175
350
3297C
  3
*A176
350
3299D
  3
*A177
350
344A3
  3
*A178
350
329A3
  3
*A179
350
29263
  3
*A18
350
32671
  3
*A180
350
32DEA
  3
*A181
350
35539
  3
*A182
350
33AF7
  3
*A183
350
32DEB
  3
*A184
350
32DEC
  3
*A185
350
3267B
  3
*A186
350
32DED
  3
*A187
350
35079
  3
*A188
350
35536
  3
*A189
350
290EE
  3
*A19
350
33AFB
  3
*A190
350
329A4
  3
*A191
350
32DF2
  3
*A192
350
3206D
  3
*A193
350
32DE0
  3
*A194
350
32DEE
  3
*A195
350
3449F
  3
*A196
350
33316
  3
*A197
350
3206F
  3
*A198
350
33317
  3
*A199
350
32674
  3
*A2
350
344A8
  3
*A20
350
35544
  3
*A200
350
33739
  3
*A201
350
35944
  3
*A202
350
33318
  3
*A203
350
29246
  3
*A204
350
33AFA
  3
*A205
350
35071
  3
*A206
350
3408E
  3
*A207
350
34497
  3
*A208
350
3553A
  3
*A209
350
34498
  3
*A21
350
344A0
  3
*A210
350
34499
  3
*A211
350
3206E
  3
*A212
350
3373A
  3
*A213
350
35948
  3
*A214
350
3331A
  3
*A215
350
35076
  3
*A216
350
35077
  3
*A217
350
32DF1
  3
*A218
350
32DE6
  3
*A219
350
3449A
  3
*A22
350
35069
  3
*A220
350
3507A
  3
*A221
350
32947
  3
*A222
350
3449B
  3
*A223
350
3449C
  3
*A224
350
33B8E
  3
*A225
350
3449D
  3
*A226
350
32672
  3
*A227
350
3449E
  3
*A228
350
33AFD
  3
*A229
350
32675
  3
*A23
350
35545
  3
*A230
350
344A9
  3
*A231
350
27416
  3
*A232
350
29247
  3
*A233
350
2925F
  3
*A234
350
3553B
  3
*A235
350
344AA
  3
*A236
350
32951
  3
*A237
350
344A7
  3
*A238
350
3594A
  3
*A239
350
33319
  3
*A24
350
272AF
  3
*A240
350
344AB
  3
*A241
350
33311
  3
*A242
350
344AC
  3
*A243
350
329A6
  3
*A244
350
35067
  3
*A245
350
35945
  3
*A246
350
3553C
  3
*A247
350
3372A
  3
*A248
350
3299E
  3
*A249
350
344A5
  3
*A25
350
32678
  3
*A250
350
33312
  3
*A251
350
3372F
  3
*A252
350
35068
  3
*A253
350
3553D
  3
*A254
350
3553E
  3
*A255
350
35074
  3
*A256
350
3553F
  3
*A257
350
3331D
  3
*A258
350
3372C
  3
*A26
350
35546
  3
*A27
350
33730
  3
*A28
350
35D25
  3
*A29
350
33729
  3
*A3
350
329A5
  3
*A30
350
35D26
  3
*A31
350
35D27
  3
*A32
350
35075
  3
*A33
350
35D28
  3
*A34
350
3594C
  3
*A35
350
33738
  3
*A36
350
35534
  3
*A37
350
35D29
  3
*A38
350
32673
  3
*A39
350
344A1
  3
*A4
350
24FDC
  3
*A40
350
35D2A
  3
*A41
350
35954
  3
*A42
350
35D2B
  3
*A43
350
344A4
  3
*A44
350
35D2C
  3
*A45
350
35D2D
  3
*A46
350
329A0
  3
*A47
350
275D5
  3
*A48
350
35D2E
  3
*A49
350
35535
  3
*A5
350
32DE1
  3
*A50
350
35D2F
  3
*A51
350
35D30
  3
*A52
350
35F3D
  3
*A53
350
3373B
  3
*A54
350
3594D
  3
*A55
350
3594E
  3
*A56
350
344A2
  3
*A57
350
329A1
  3
*A58
350
32071
  3
*A59
350
2926B
  3
*A6
350
33AFF
  3
*A60
350
3594F
  3
*A61
350
275D8
  3
*A62
350
35949
  3
*A63
350
33B8D
  3
*A64
350
35547
  3
*A65
350
35537
  3
*A66
350
35950
  3
*A67
350
3267A
  3
*A68
350
32DE8
  3
*A69
350
35951
  3
*A7
350
3331B
  3
*A70
350
3506D
  3
*A71
350
35952
  3
*A72
350
33AFC
  3
*A73
350
33731
  3
*A74
350
33B8F
  3
*A75
350
275D6
  3
*A76
350
35947
  3
*A77
350
3373C
  3
*A78
350
33732
  3
*A79
350
35538
  3
*A8
350
3506E
  3
*A80
350
33310
  3
*A81
350
35953
  3
*A82
350
33733
  3
*A83
350
33734
  3
*A84
350
33315
  3
*A85
350
33735
  3
*A86
350
33736
  3
*A87
350
2925B
  3
*A88
350
3373D
  3
*A89
350
32073
  3
*A9
350
35540
  3
*A90
350
32DEF
  3
*A91
350
33B90
  3
*A92
350
32956
  3
*A93
350
3506B
  3
*A94
350
33B91
  3
*A95
350
33B92
  3
*A96
350
33AFE
  3
*A97
350
27401
  3
*A98
350
275D4
  3
*A99
350
3293D
  0
DICTIONARY
  5
11755
102
{ACAD_REACTORS
330
7471
102
}
330
7471
100
AcDbDictionary
281
     1
  3
Model
350
11757
  3
レイアウト1
350
11758
  0
DICTIONARY
  5
11753
102
{ACAD_REACTORS
330
7471
102
}
330
7471
100
AcDbDictionary
281
     1
  0
DICTIONARY
  5
7473
102
{ACAD_REACTORS
330
7471
102
}
330
7471
100
AcDbDictionary
281
     1
  3
STANDARD
350
7480
  0
DICTIONARY
  5
11756
102
{ACAD_REACTORS
330
7471
102
}
330
7471
100
AcDbDictionary
281
     1
  0
ACDBDICTIONARYWDFLT
  5
11751
102
{ACAD_REACTORS
330
7471
102
}
330
7471
100
AcDbDictionary
281
     1
  3
Normal
350
11752
100
AcDbDictionaryWithDefault
340
11752
  0
DICTIONARY
  5
35FE6
102
{ACAD_REACTORS
330
7471
102
}
330
7471
100
AcDbDictionary
281
     1
  3
COLORDICT
350
35FE8
  3
MATERIALDICT
350
35FE7
  0
DICTIONARY
  5
35FE2
102
{ACAD_REACTORS
330
7471
102
}
330
7471
100
AcDbDictionary
281
     1
  3
DIMASSOC
350
35FE3
  3
PROJECTNAME
350
35FE4
  0
DICTIONARY
  5
E71C
102
{ACAD_REACTORS
330
7471
102
}
330
7471
100
AcDbDictionary
281
     1
  0
DICTIONARY
  5
F3B9
102
{ACAD_REACTORS
330
7471
102
}
330
7471
100
AcDbDictionary
281
     1
1001
DRAWINGVARIABLESXDATA
1000
POLARMODE
1000
1
  0
DICTIONARY
  5
135F4
102
{ACAD_REACTORS
330
11827
102
}
330
11827
100
AcDbDictionary
281
     1
  0
DICTIONARY
  5
11828
102
{ACAD_REACTORS
330
11827
102
}
330
11827
100
AcDbDictionary
281
     1
  0
GROUP
  5
154E2
102
{ACAD_REACTORS
330
7472
102
}
330
7472
100
AcDbGroup
300

 70
     1
 71
     1
  0
GROUP
  5
35548
102
{ACAD_REACTORS
330
7472
102
}
330
7472
100
AcDbGroup
300

 70
     1
 71
     1
  0
GROUP
  5
35955
102
{ACAD_REACTORS
330
7472
102
}
330
7472
100
AcDbGroup
300

 70
     1
 71
     1
  0
GROUP
  5
35070
102
{ACAD_REACTORS
330
7472
102
}
330
7472
100
AcDbGroup
300

 70
     1
 71
     1
  0
GROUP
  5
33AF6
102
{ACAD_REACTORS
330
7472
102
}
330
7472
100
AcDbGroup
300

 70
     1
 71
     1
  0
GROUP
  5
35078
102
{ACAD_REACTORS
330
7472
102
}
330
7472
100
AcDbGroup
300

 70
     1
 71
     1
  0
GROUP
  5
35942
102
{ACAD_REACTORS
330
7472
102
}
330
7472
100
AcDbGroup
300

 70
     1
 71
     1
  0
GROUP
  5
33AF9
102
{ACAD_REACTORS
330
7472
102
}
330
7472
100
AcDbGroup
300

 70
     1
 71
     1
  0
GROUP
  5
33B93
102
{ACAD_REACTORS
330
7472
102
}
330
7472
100
AcDbGroup
300

 70
     1
 71
     1
  0
GROUP
  5
3206C
102
{ACAD_REACTORS
330
7472
102
}
330
7472
100
AcDbGroup
300

 70
     1
 71
     1
  0
GROUP
  5
33B94
102
{ACAD_REACTORS
330
7472
102
}
330
7472
100
AcDbGroup
300

 70
     1
 71
     1
  0
GROUP
  5
35946
102
{ACAD_REACTORS
330
7472
102
}
330
7472
100
AcDbGroup
300

 70
     1
 71
     1
  0
GROUP
  5
35541
102
{ACAD_REACTORS
330
7472
102
}
330
7472
100
AcDbGroup
300

 70
     1
 71
     1
  0
GROUP
  5
33B95
102
{ACAD_REACTORS
330
7472
102
}
330
7472
100
AcDbGroup
300

 70
     1
 71
     1
  0
GROUP
  5
32DF3
102
{ACAD_REACTORS
330
7472
102
}
330
7472
100
AcDbGroup
300

 70
     1
 71
     1
  0
GROUP
  5
15535
102
{ACAD_REACTORS
330
7472
102
}
330
7472
100
AcDbGroup
300

 70
     1
 71
     1
  0
GROUP
  5
2925E
102
{ACAD_REACTORS
330
7472
102
}
330
7472
100
AcDbGroup
300

 70
     1
 71
     1
  0
GROUP
  5
3506A
102
{ACAD_REACTORS
330
7472
102
}
330
7472
100
AcDbGroup
300

 70
     1
 71
     1
  0
GROUP
  5
32DE2
102
{ACAD_REACTORS
330
7472
102
}
330
7472
100
AcDbGroup
300

 70
     1
 71
     1
  0
GROUP
  5
33B96
102
{ACAD_REACTORS
330
7472
102
}
330
7472
100
AcDbGroup
300

 70
     1
 71
     1
  0
GROUP
  5
3372B
102
{ACAD_REACTORS
330
7472
102
}
330
7472
100
AcDbGroup
300

 70
     1
 71
     1
  0
GROUP
  5
3506F
102
{ACAD_REACTORS
330
7472
102
}
330
7472
100
AcDbGroup
300

 70
     1
 71
     1
  0
GROUP
  5
32677
102
{ACAD_REACTORS
330
7472
102
}
330
7472
100
AcDbGroup
300

 70
     1
 71
     1
  0
GROUP
  5
32DE4
102
{ACAD_REACTORS
330
7472
102
}
330
7472
100
AcDbGroup
300

 70
     1
 71
     1
  0
GROUP
  5
272B4
102
{ACAD_REACTORS
330
7472
102
}
330
7472
100
AcDbGroup
300

 70
     1
 71
     1
  0
GROUP
  5
273ED
102
{ACAD_REACTORS
330
7472
102
}
330
7472
100
AcDbGroup
300

 70
     1
 71
     1
  0
GROUP
  5
2925D
102
{ACAD_REACTORS
330
7472
102
}
330
7472
100
AcDbGroup
300

 70
     1
 71
     1
  0
GROUP
  5
273F2
102
{ACAD_REACTORS
330
7472
102
}
330
7472
100
AcDbGroup
300

 70
     1
 71
     1
  0
GROUP
  5
2740E
102
{ACAD_REACTORS
330
7472
102
}
330
7472
100
AcDbGroup
300

 70
     1
 71
     1
  0
GROUP
  5
2925A
102
{ACAD_REACTORS
330
7472
102
}
330
7472
100
AcDbGroup
300

 70
     1
 71
     1
  0
GROUP
  5
35943
102
{ACAD_REACTORS
330
7472
102
}
330
7472
100
AcDbGroup
300

 70
     1
 71
     1
  0
GROUP
  5
27417
102
{ACAD_REACTORS
330
7472
102
}
330
7472
100
AcDbGroup
300

 70
     1
 71
     1
  0
GROUP
  5
32DE5
102
{ACAD_REACTORS
330
7472
102
}
330
7472
100
AcDbGroup
300

 70
     1
 71
     1
  0
GROUP
  5
32074
102
{ACAD_REACTORS
330
7472
102
}
330
7472
100
AcDbGroup
300

 70
     1
 71
     1
  0
GROUP
  5
3299F
102
{ACAD_REACTORS
330
7472
102
}
330
7472
100
AcDbGroup
300

 70
     1
 71
     1
  0
GROUP
  5
290DD
102
{ACAD_REACTORS
330
7472
102
}
330
7472
100
AcDbGroup
300

 70
     1
 71
     1
  0
GROUP
  5
3267C
102
{ACAD_REACTORS
330
7472
102
}
330
7472
100
AcDbGroup
300

 70
     1
 71
     1
  0
GROUP
  5
3506C
102
{ACAD_REACTORS
330
7472
102
}
330
7472
100
AcDbGroup
300

 70
     1
 71
     1
  0
GROUP
  5
33B5F
102
{ACAD_REACTORS
330
7472
102
}
330
7472
100
AcDbGroup
300

 70
     1
 71
     1
  0
GROUP
  5
273F7
102
{ACAD_REACTORS
330
7472
102
}
330
7472
100
AcDbGroup
300

 70
     1
 71
     1
  0
GROUP
  5
32670
102
{ACAD_REACTORS
330
7472
102
}
330
7472
100
AcDbGroup
300

 70
     1
 71
     1
  0
GROUP
  5
2925C
102
{ACAD_REACTORS
330
7472
102
}
330
7472
100
AcDbGroup
300

 70
     1
 71
     1
  0
GROUP
  5
3372D
102
{ACAD_REACTORS
330
7472
102
}
330
7472
100
AcDbGroup
300

 70
     1
 71
     1
  0
GROUP
  5
30D61
102
{ACAD_REACTORS
330
7472
102
}
330
7472
100
AcDbGroup
300

 70
     1
 71
     1
  0
GROUP
  5
30D65
102
{ACAD_REACTORS
330
7472
102
}
330
7472
100
AcDbGroup
300

 70
     1
 71
     1
  0
GROUP
  5
35542
102
{ACAD_REACTORS
330
7472
102
}
330
7472
100
AcDbGroup
300

 70
     1
 71
     1
  0
GROUP
  5
3507B
102
{ACAD_REACTORS
330
7472
102
}
330
7472
100
AcDbGroup
300

 70
     1
 71
     1
  0
GROUP
  5
275D7
102
{ACAD_REACTORS
330
7472
102
}
330
7472
100
AcDbGroup
300

 70
     1
 71
     1
  0
GROUP
  5
32DF0
102
{ACAD_REACTORS
330
7472
102
}
330
7472
100
AcDbGroup
300

 70
     1
 71
     1
  0
GROUP
  5
3206A
102
{ACAD_REACTORS
330
7472
102
}
330
7472
100
AcDbGroup
300

 70
     1
 71
     1
  0
GROUP
  5
35073
102
{ACAD_REACTORS
330
7472
102
}
330
7472
100
AcDbGroup
300

 70
     1
 71
     1
  0
GROUP
  5
32DF4
102
{ACAD_REACTORS
330
7472
102
}
330
7472
100
AcDbGroup
300

 70
     1
 71
     1
  0
GROUP
  5
329A2
102
{ACAD_REACTORS
330
7472
102
}
330
7472
100
AcDbGroup
300

 70
     1
 71
     1
  0
GROUP
  5
32075
102
{ACAD_REACTORS
330
7472
102
}
330
7472
100
AcDbGroup
300

 70
     1
 71
     1
  0
GROUP
  5
2926A
102
{ACAD_REACTORS
330
7472
102
}
330
7472
100
AcDbGroup
300

 70
     1
 71
     1
  0
GROUP
  5
35956
102
{ACAD_REACTORS
330
7472
102
}
330
7472
100
AcDbGroup
300

 70
     1
 71
     1
  0
GROUP
  5
35543
102
{ACAD_REACTORS
330
7472
102
}
330
7472
100
AcDbGroup
300

 70
     1
 71
     1
  0
GROUP
  5
344A6
102
{ACAD_REACTORS
330
7472
102
}
330
7472
100
AcDbGroup
300

 70
     1
 71
     1
  0
GROUP
  5
3295B
102
{ACAD_REACTORS
330
7472
102
}
330
7472
100
AcDbGroup
300

 70
     1
 71
     1
  0
GROUP
  5
32076
102
{ACAD_REACTORS
330
7472
102
}
330
7472
100
AcDbGroup
300

 70
     1
 71
     1
  0
GROUP
  5
3372E
102
{ACAD_REACTORS
330
7472
102
}
330
7472
100
AcDbGroup
300

 70
     1
 71
     1
  0
GROUP
  5
32072
102
{ACAD_REACTORS
330
7472
102
}
330
7472
100
AcDbGroup
300

 70
     1
 71
     1
  0
GROUP
  5
32DE7
102
{ACAD_REACTORS
330
7472
102
}
330
7472
100
AcDbGroup
300

 70
     1
 71
     1
  0
GROUP
  5
3206B
102
{ACAD_REACTORS
330
7472
102
}
330
7472
100
AcDbGroup
300

 70
     1
 71
     1
  0
GROUP
  5
35072
102
{ACAD_REACTORS
330
7472
102
}
330
7472
100
AcDbGroup
300

 70
     1
 71
     1
  0
GROUP
  5
27412
102
{ACAD_REACTORS
330
7472
102
}
330
7472
100
AcDbGroup
300

 70
     1
 71
     1
  0
GROUP
  5
3331C
102
{ACAD_REACTORS
330
7472
102
}
330
7472
100
AcDbGroup
300

 70
     1
 71
     1
  0
GROUP
  5
3594B
102
{ACAD_REACTORS
330
7472
102
}
330
7472
100
AcDbGroup
300

 70
     1
 71
     1
  0
GROUP
  5
273FC
102
{ACAD_REACTORS
330
7472
102
}
330
7472
100
AcDbGroup
300

 70
     1
 71
     1
  0
GROUP
  5
33AF8
102
{ACAD_REACTORS
330
7472
102
}
330
7472
100
AcDbGroup
300

 70
     1
 71
     1
  0
GROUP
  5
32077
102
{ACAD_REACTORS
330
7472
102
}
330
7472
100
AcDbGroup
300

 70
     1
 71
     1
  0
GROUP
  5
32DE3
102
{ACAD_REACTORS
330
7472
102
}
330
7472
100
AcDbGroup
300

 70
     1
 71
     1
  0
GROUP
  5
32962
102
{ACAD_REACTORS
330
7472
102
}
330
7472
100
AcDbGroup
300

 70
     1
 71
     1
  0
GROUP
  5
32DE9
102
{ACAD_REACTORS
330
7472
102
}
330
7472
100
AcDbGroup
300

 70
     1
 71
     1
  0
GROUP
  5
33737
102
{ACAD_REACTORS
330
7472
102
}
330
7472
100
AcDbGroup
300

 70
     1
 71
     1
  0
GROUP
  5
32070
102
{ACAD_REACTORS
330
7472
102
}
330
7472
100
AcDbGroup
300

 70
     1
 71
     1
  0
GROUP
  5
33314
102
{ACAD_REACTORS
330
7472
102
}
330
7472
100
AcDbGroup
300

 70
     1
 71
     1
  0
GROUP
  5
33313
102
{ACAD_REACTORS
330
7472
102
}
330
7472
100
AcDbGroup
300

 70
     1
 71
     1
  0
GROUP
  5
24FE6
102
{ACAD_REACTORS
330
7472
102
}
330
7472
100
AcDbGroup
300

 70
     1
 71
     1
  0
GROUP
  5
32676
102
{ACAD_REACTORS
330
7472
102
}
330
7472
100
AcDbGroup
300

 70
     1
 71
     1
  0
GROUP
  5
3266F
102
{ACAD_REACTORS
330
7472
102
}
330
7472
100
AcDbGroup
300

 70
     1
 71
     1
  0
GROUP
  5
3296C
102
{ACAD_REACTORS
330
7472
102
}
330
7472
100
AcDbGroup
300

 70
     1
 71
     1
  0
GROUP
  5
3296D
102
{ACAD_REACTORS
330
7472
102
}
330
7472
100
AcDbGroup
300

 70
     1
 71
     1
  0
GROUP
  5
32679
102
{ACAD_REACTORS
330
7472
102
}
330
7472
100
AcDbGroup
300

 70
     1
 71
     1
  0
GROUP
  5
3297C
102
{ACAD_REACTORS
330
7472
102
}
330
7472
100
AcDbGroup
300

 70
     1
 71
     1
  0
GROUP
  5
3299D
102
{ACAD_REACTORS
330
7472
102
}
330
7472
100
AcDbGroup
300

 70
     1
 71
     1
  0
GROUP
  5
344A3
102
{ACAD_REACTORS
330
7472
102
}
330
7472
100
AcDbGroup
300

 70
     1
 71
     1
  0
GROUP
  5
329A3
102
{ACAD_REACTORS
330
7472
102
}
330
7472
100
AcDbGroup
300

 70
     1
 71
     1
  0
GROUP
  5
29263
102
{ACAD_REACTORS
330
7472
102
}
330
7472
100
AcDbGroup
300

 70
     1
 71
     1
  0
GROUP
  5
32671
102
{ACAD_REACTORS
330
7472
102
}
330
7472
100
AcDbGroup
300

 70
     1
 71
     1
  0
GROUP
  5
32DEA
102
{ACAD_REACTORS
330
7472
102
}
330
7472
100
AcDbGroup
300

 70
     1
 71
     1
  0
GROUP
  5
35539
102
{ACAD_REACTORS
330
7472
102
}
330
7472
100
AcDbGroup
300

 70
     1
 71
     1
  0
GROUP
  5
33AF7
102
{ACAD_REACTORS
330
7472
102
}
330
7472
100
AcDbGroup
300

 70
     1
 71
     1
  0
GROUP
  5
32DEB
102
{ACAD_REACTORS
330
7472
102
}
330
7472
100
AcDbGroup
300

 70
     1
 71
     1
  0
GROUP
  5
32DEC
102
{ACAD_REACTORS
330
7472
102
}
330
7472
100
AcDbGroup
300

 70
     1
 71
     1
  0
GROUP
  5
3267B
102
{ACAD_REACTORS
330
7472
102
}
330
7472
100
AcDbGroup
300

 70
     1
 71
     1
  0
GROUP
  5
32DED
102
{ACAD_REACTORS
330
7472
102
}
330
7472
100
AcDbGroup
300

 70
     1
 71
     1
  0
GROUP
  5
35079
102
{ACAD_REACTORS
330
7472
102
}
330
7472
100
AcDbGroup
300

 70
     1
 71
     1
  0
GROUP
  5
35536
102
{ACAD_REACTORS
330
7472
102
}
330
7472
100
AcDbGroup
300

 70
     1
 71
     1
  0
GROUP
  5
290EE
102
{ACAD_REACTORS
330
7472
102
}
330
7472
100
AcDbGroup
300

 70
     1
 71
     1
  0
GROUP
  5
33AFB
102
{ACAD_REACTORS
330
7472
102
}
330
7472
100
AcDbGroup
300

 70
     1
 71
     1
  0
GROUP
  5
329A4
102
{ACAD_REACTORS
330
7472
102
}
330
7472
100
AcDbGroup
300

 70
     1
 71
     1
  0
GROUP
  5
32DF2
102
{ACAD_REACTORS
330
7472
102
}
330
7472
100
AcDbGroup
300

 70
     1
 71
     1
  0
GROUP
  5
3206D
102
{ACAD_REACTORS
330
7472
102
}
330
7472
100
AcDbGroup
300

 70
     1
 71
     1
  0
GROUP
  5
32DE0
102
{ACAD_REACTORS
330
7472
102
}
330
7472
100
AcDbGroup
300

 70
     1
 71
     1
  0
GROUP
  5
32DEE
102
{ACAD_REACTORS
330
7472
102
}
330
7472
100
AcDbGroup
300

 70
     1
 71
     1
  0
GROUP
  5
3449F
102
{ACAD_REACTORS
330
7472
102
}
330
7472
100
AcDbGroup
300

 70
     1
 71
     1
  0
GROUP
  5
33316
102
{ACAD_REACTORS
330
7472
102
}
330
7472
100
AcDbGroup
300

 70
     1
 71
     1
  0
GROUP
  5
3206F
102
{ACAD_REACTORS
330
7472
102
}
330
7472
100
AcDbGroup
300

 70
     1
 71
     1
  0
GROUP
  5
33317
102
{ACAD_REACTORS
330
7472
102
}
330
7472
100
AcDbGroup
300

 70
     1
 71
     1
  0
GROUP
  5
32674
102
{ACAD_REACTORS
330
7472
102
}
330
7472
100
AcDbGroup
300

 70
     1
 71
     1
  0
GROUP
  5
344A8
102
{ACAD_REACTORS
330
7472
102
}
330
7472
100
AcDbGroup
300

 70
     1
 71
     1
  0
GROUP
  5
35544
102
{ACAD_REACTORS
330
7472
102
}
330
7472
100
AcDbGroup
300

 70
     1
 71
     1
  0
GROUP
  5
33739
102
{ACAD_REACTORS
330
7472
102
}
330
7472
100
AcDbGroup
300

 70
     1
 71
     1
  0
GROUP
  5
35944
102
{ACAD_REACTORS
330
7472
102
}
330
7472
100
AcDbGroup
300

 70
     1
 71
     1
  0
GROUP
  5
33318
102
{ACAD_REACTORS
330
7472
102
}
330
7472
100
AcDbGroup
300

 70
     1
 71
     1
  0
GROUP
  5
29246
102
{ACAD_REACTORS
330
7472
102
}
330
7472
100
AcDbGroup
300

 70
     1
 71
     1
  0
GROUP
  5
33AFA
102
{ACAD_REACTORS
330
7472
102
}
330
7472
100
AcDbGroup
300

 70
     1
 71
     1
  0
GROUP
  5
35071
102
{ACAD_REACTORS
330
7472
102
}
330
7472
100
AcDbGroup
300

 70
     1
 71
     1
  0
GROUP
  5
3408E
102
{ACAD_REACTORS
330
7472
102
}
330
7472
100
AcDbGroup
300

 70
     1
 71
     1
  0
GROUP
  5
34497
102
{ACAD_REACTORS
330
7472
102
}
330
7472
100
AcDbGroup
300

 70
     1
 71
     1
  0
GROUP
  5
3553A
102
{ACAD_REACTORS
330
7472
102
}
330
7472
100
AcDbGroup
300

 70
     1
 71
     1
  0
GROUP
  5
34498
102
{ACAD_REACTORS
330
7472
102
}
330
7472
100
AcDbGroup
300

 70
     1
 71
     1
  0
GROUP
  5
344A0
102
{ACAD_REACTORS
330
7472
102
}
330
7472
100
AcDbGroup
300

 70
     1
 71
     1
  0
GROUP
  5
34499
102
{ACAD_REACTORS
330
7472
102
}
330
7472
100
AcDbGroup
300

 70
     1
 71
     1
  0
GROUP
  5
3206E
102
{ACAD_REACTORS
330
7472
102
}
330
7472
100
AcDbGroup
300

 70
     1
 71
     1
  0
GROUP
  5
3373A
102
{ACAD_REACTORS
330
7472
102
}
330
7472
100
AcDbGroup
300

 70
     1
 71
     1
  0
GROUP
  5
35948
102
{ACAD_REACTORS
330
7472
102
}
330
7472
100
AcDbGroup
300

 70
     1
 71
     1
  0
GROUP
  5
3331A
102
{ACAD_REACTORS
330
7472
102
}
330
7472
100
AcDbGroup
300

 70
     1
 71
     1
  0
GROUP
  5
35076
102
{ACAD_REACTORS
330
7472
102
}
330
7472
100
AcDbGroup
300

 70
     1
 71
     1
  0
GROUP
  5
35077
102
{ACAD_REACTORS
330
7472
102
}
330
7472
100
AcDbGroup
300

 70
     1
 71
     1
  0
GROUP
  5
32DF1
102
{ACAD_REACTORS
330
7472
102
}
330
7472
100
AcDbGroup
300

 70
     1
 71
     1
  0
GROUP
  5
32DE6
102
{ACAD_REACTORS
330
7472
102
}
330
7472
100
AcDbGroup
300

 70
     1
 71
     1
  0
GROUP
  5
3449A
102
{ACAD_REACTORS
330
7472
102
}
330
7472
100
AcDbGroup
300

 70
     1
 71
     1
  0
GROUP
  5
35069
102
{ACAD_REACTORS
330
7472
102
}
330
7472
100
AcDbGroup
300

 70
     1
 71
     1
  0
GROUP
  5
3507A
102
{ACAD_REACTORS
330
7472
102
}
330
7472
100
AcDbGroup
300

 70
     1
 71
     1
  0
GROUP
  5
32947
102
{ACAD_REACTORS
330
7472
102
}
330
7472
100
AcDbGroup
300

 70
     1
 71
     1
  0
GROUP
  5
3449B
102
{ACAD_REACTORS
330
7472
102
}
330
7472
100
AcDbGroup
300

 70
     1
 71
     1
  0
GROUP
  5
3449C
102
{ACAD_REACTORS
330
7472
102
}
330
7472
100
AcDbGroup
300

 70
     1
 71
     1
  0
GROUP
  5
33B8E
102
{ACAD_REACTORS
330
7472
102
}
330
7472
100
AcDbGroup
300

 70
     1
 71
     1
  0
GROUP
  5
3449D
102
{ACAD_REACTORS
330
7472
102
}
330
7472
100
AcDbGroup
300

 70
     1
 71
     1
  0
GROUP
  5
32672
102
{ACAD_REACTORS
330
7472
102
}
330
7472
100
AcDbGroup
300

 70
     1
 71
     1
  0
GROUP
  5
3449E
102
{ACAD_REACTORS
330
7472
102
}
330
7472
100
AcDbGroup
300

 70
     1
 71
     1
  0
GROUP
  5
33AFD
102
{ACAD_REACTORS
330
7472
102
}
330
7472
100
AcDbGroup
300

 70
     1
 71
     1
  0
GROUP
  5
32675
102
{ACAD_REACTORS
330
7472
102
}
330
7472
100
AcDbGroup
300

 70
     1
 71
     1
  0
GROUP
  5
35545
102
{ACAD_REACTORS
330
7472
102
}
330
7472
100
AcDbGroup
300

 70
     1
 71
     1
  0
GROUP
  5
344A9
102
{ACAD_REACTORS
330
7472
102
}
330
7472
100
AcDbGroup
300

 70
     1
 71
     1
  0
GROUP
  5
27416
102
{ACAD_REACTORS
330
7472
102
}
330
7472
100
AcDbGroup
300

 70
     1
 71
     1
  0
GROUP
  5
29247
102
{ACAD_REACTORS
330
7472
102
}
330
7472
100
AcDbGroup
300

 70
     1
 71
     1
  0
GROUP
  5
2925F
102
{ACAD_REACTORS
330
7472
102
}
330
7472
100
AcDbGroup
300

 70
     1
 71
     1
  0
GROUP
  5
3553B
102
{ACAD_REACTORS
330
7472
102
}
330
7472
100
AcDbGroup
300

 70
     1
 71
     1
  0
GROUP
  5
344AA
102
{ACAD_REACTORS
330
7472
102
}
330
7472
100
AcDbGroup
300

 70
     1
 71
     1
  0
GROUP
  5
32951
102
{ACAD_REACTORS
330
7472
102
}
330
7472
100
AcDbGroup
300

 70
     1
 71
     1
  0
GROUP
  5
344A7
102
{ACAD_REACTORS
330
7472
102
}
330
7472
100
AcDbGroup
300

 70
     1
 71
     1
  0
GROUP
  5
3594A
102
{ACAD_REACTORS
330
7472
102
}
330
7472
100
AcDbGroup
300

 70
     1
 71
     1
  0
GROUP
  5
33319
102
{ACAD_REACTORS
330
7472
102
}
330
7472
100
AcDbGroup
300

 70
     1
 71
     1
  0
GROUP
  5
272AF
102
{ACAD_REACTORS
330
7472
102
}
330
7472
100
AcDbGroup
300

 70
     1
 71
     1
  0
GROUP
  5
344AB
102
{ACAD_REACTORS
330
7472
102
}
330
7472
100
AcDbGroup
300

 70
     1
 71
     1
  0
GROUP
  5
33311
102
{ACAD_REACTORS
330
7472
102
}
330
7472
100
AcDbGroup
300

 70
     1
 71
     1
  0
GROUP
  5
344AC
102
{ACAD_REACTORS
330
7472
102
}
330
7472
100
AcDbGroup
300

 70
     1
 71
     1
  0
GROUP
  5
329A6
102
{ACAD_REACTORS
330
7472
102
}
330
7472
100
AcDbGroup
300

 70
     1
 71
     1
  0
GROUP
  5
35067
102
{ACAD_REACTORS
330
7472
102
}
330
7472
100
AcDbGroup
300

 70
     1
 71
     1
  0
GROUP
  5
35945
102
{ACAD_REACTORS
330
7472
102
}
330
7472
100
AcDbGroup
300

 70
     1
 71
     1
  0
GROUP
  5
3553C
102
{ACAD_REACTORS
330
7472
102
}
330
7472
100
AcDbGroup
300

 70
     1
 71
     1
  0
GROUP
  5
3372A
102
{ACAD_REACTORS
330
7472
102
}
330
7472
100
AcDbGroup
300

 70
     1
 71
     1
  0
GROUP
  5
3299E
102
{ACAD_REACTORS
330
7472
102
}
330
7472
100
AcDbGroup
300

 70
     1
 71
     1
  0
GROUP
  5
344A5
102
{ACAD_REACTORS
330
7472
102
}
330
7472
100
AcDbGroup
300

 70
     1
 71
     1
  0
GROUP
  5
32678
102
{ACAD_REACTORS
330
7472
102
}
330
7472
100
AcDbGroup
300

 70
     1
 71
     1
  0
GROUP
  5
33312
102
{ACAD_REACTORS
330
7472
102
}
330
7472
100
AcDbGroup
300

 70
     1
 71
     1
  0
GROUP
  5
3372F
102
{ACAD_REACTORS
330
7472
102
}
330
7472
100
AcDbGroup
300

 70
     1
 71
     1
  0
GROUP
  5
35068
102
{ACAD_REACTORS
330
7472
102
}
330
7472
100
AcDbGroup
300

 70
     1
 71
     1
  0
GROUP
  5
3553D
102
{ACAD_REACTORS
330
7472
102
}
330
7472
100
AcDbGroup
300

 70
     1
 71
     1
  0
GROUP
  5
3553E
102
{ACAD_REACTORS
330
7472
102
}
330
7472
100
AcDbGroup
300

 70
     1
 71
     1
  0
GROUP
  5
35074
102
{ACAD_REACTORS
330
7472
102
}
330
7472
100
AcDbGroup
300

 70
     1
 71
     1
  0
GROUP
  5
3553F
102
{ACAD_REACTORS
330
7472
102
}
330
7472
100
AcDbGroup
300

 70
     1
 71
     1
  0
GROUP
  5
3331D
102
{ACAD_REACTORS
330
7472
102
}
330
7472
100
AcDbGroup
300

 70
     1
 71
     1
  0
GROUP
  5
3372C
102
{ACAD_REACTORS
330
7472
102
}
330
7472
100
AcDbGroup
300

 70
     1
 71
     1
  0
GROUP
  5
35546
102
{ACAD_REACTORS
330
7472
102
}
330
7472
100
AcDbGroup
300

 70
     1
 71
     1
  0
GROUP
  5
33730
102
{ACAD_REACTORS
330
7472
102
}
330
7472
100
AcDbGroup
300

 70
     1
 71
     1
  0
GROUP
  5
35D25
102
{ACAD_REACTORS
330
7472
102
}
330
7472
100
AcDbGroup
300

 70
     1
 71
     1
340
35BD7
340
35BD6
340
35BD5
340
35BD4
340
35BD3
340
35BD2
340
35BCC
340
35BCB
340
35BCA
340
35BD9
340
35BD8
340
35BD1
340
35BD0
340
35BCF
340
35BCE
340
35BCD
  0
GROUP
  5
33729
102
{ACAD_REACTORS
330
7472
102
}
330
7472
100
AcDbGroup
300

 70
     1
 71
     1
  0
GROUP
  5
329A5
102
{ACAD_REACTORS
330
7472
102
}
330
7472
100
AcDbGroup
300

 70
     1
 71
     1
  0
GROUP
  5
35D26
102
{ACAD_REACTORS
330
7472
102
}
330
7472
100
AcDbGroup
300

 70
     1
 71
     1
340
35C10
340
35C11
340
35C12
340
35C13
340
35C14
340
35C15
340
35C16
340
35C17
340
35C18
340
35C19
340
35C1A
340
35C1B
340
35C1C
340
35C1D
340
35C1E
340
35C1F
340
35C20
340
35C0F
340
35C21
340
35C22
340
35C23
340
35C24
340
35C25
340
35C26
340
35C27
340
35C28
340
35C29
340
35C2A
340
35C2B
340
35C2C
340
35C2D
340
35C2E
  0
GROUP
  5
35D27
102
{ACAD_REACTORS
330
7472
102
}
330
7472
100
AcDbGroup
300

 70
     1
 71
     1
340
35C2B
340
35C2A
340
35C2D
340
35C2C
340
35C2E
340
35C29
340
35C28
340
35C27
  0
GROUP
  5
35075
102
{ACAD_REACTORS
330
7472
102
}
330
7472
100
AcDbGroup
300

 70
     1
 71
     1
  0
GROUP
  5
35D28
102
{ACAD_REACTORS
330
7472
102
}
330
7472
100
AcDbGroup
300

 70
     1
 71
     1
340
35C2D
340
35C2C
340
35C2E
  0
GROUP
  5
3594C
102
{ACAD_REACTORS
330
7472
102
}
330
7472
100
AcDbGroup
300

 70
     1
 71
     1
  0
GROUP
  5
33738
102
{ACAD_REACTORS
330
7472
102
}
330
7472
100
AcDbGroup
300

 70
     1
 71
     1
  0
GROUP
  5
35534
102
{ACAD_REACTORS
330
7472
102
}
330
7472
100
AcDbGroup
300

 70
     1
 71
     1
  0
GROUP
  5
35D29
102
{ACAD_REACTORS
330
7472
102
}
330
7472
100
AcDbGroup
300

 70
     1
 71
     1
340
35C23
340
35C22
340
35C25
340
35C24
340
35C26
340
35C21
340
35C0F
340
35C20
  0
GROUP
  5
32673
102
{ACAD_REACTORS
330
7472
102
}
330
7472
100
AcDbGroup
300

 70
     1
 71
     1
  0
GROUP
  5
344A1
102
{ACAD_REACTORS
330
7472
102
}
330
7472
100
AcDbGroup
300

 70
     1
 71
     1
  0
GROUP
  5
24FDC
102
{ACAD_REACTORS
330
7472
102
}
330
7472
100
AcDbGroup
300

 70
     1
 71
     1
  0
GROUP
  5
35D2A
102
{ACAD_REACTORS
330
7472
102
}
330
7472
100
AcDbGroup
300

 70
     1
 71
     1
340
35C25
340
35C24
340
35C26
  0
GROUP
  5
35954
102
{ACAD_REACTORS
330
7472
102
}
330
7472
100
AcDbGroup
300

 70
     1
 71
     1
  0
GROUP
  5
35D2B
102
{ACAD_REACTORS
330
7472
102
}
330
7472
100
AcDbGroup
300

 70
     1
 71
     1
340
35C1F
340
35C1E
340
35C1D
340
35C1C
  0
GROUP
  5
344A4
102
{ACAD_REACTORS
330
7472
102
}
330
7472
100
AcDbGroup
300

 70
     1
 71
     1
  0
GROUP
  5
35D2C
102
{ACAD_REACTORS
330
7472
102
}
330
7472
100
AcDbGroup
300

 70
     1
 71
     1
340
35C1A
340
35C1B
340
35C19
340
35C18
  0
GROUP
  5
35D2D
102
{ACAD_REACTORS
330
7472
102
}
330
7472
100
AcDbGroup
300

 70
     1
 71
     1
340
35C17
340
35C16
340
35C15
340
35C14
  0
GROUP
  5
329A0
102
{ACAD_REACTORS
330
7472
102
}
330
7472
100
AcDbGroup
300

 70
     1
 71
     1
  0
GROUP
  5
275D5
102
{ACAD_REACTORS
330
7472
102
}
330
7472
100
AcDbGroup
300

 70
     1
 71
     1
  0
GROUP
  5
35D2E
102
{ACAD_REACTORS
330
7472
102
}
330
7472
100
AcDbGroup
300

 70
     1
 71
     1
340
35C12
340
35C13
340
35C11
340
35C10
  0
GROUP
  5
35535
102
{ACAD_REACTORS
330
7472
102
}
330
7472
100
AcDbGroup
300

 70
     1
 71
     1
  0
GROUP
  5
32DE1
102
{ACAD_REACTORS
330
7472
102
}
330
7472
100
AcDbGroup
300

 70
     1
 71
     1
  0
GROUP
  5
35D2F
102
{ACAD_REACTORS
330
7472
102
}
330
7472
100
AcDbGroup
300

 70
     1
 71
     1
340
35C07
340
35C08
340
35C09
340
35C0A
340
35C0B
340
35C0C
340
35C06
340
35C0D
340
35C0E
  0
GROUP
  5
35D30
102
{ACAD_REACTORS
330
7472
102
}
330
7472
100
AcDbGroup
300

 70
     1
 71
     1
340
35BDB
340
35BDC
340
35BDD
340
35BDE
340
35BDF
340
35BE0
340
35BE1
340
35BE2
340
35BE3
340
35BE4
340
35BDA
340
35BE5
340
35BE6
340
35BE7
340
35BE8
340
35BE9
  0
GROUP
  5
35F3D
102
{ACAD_REACTORS
330
7472
102
}
330
7472
100
AcDbGroup
300

 70
     1
 71
     1
  0
GROUP
  5
3373B
102
{ACAD_REACTORS
330
7472
102
}
330
7472
100
AcDbGroup
300

 70
     1
 71
     1
  0
GROUP
  5
3594D
102
{ACAD_REACTORS
330
7472
102
}
330
7472
100
AcDbGroup
300

 70
     1
 71
     1
  0
GROUP
  5
3594E
102
{ACAD_REACTORS
330
7472
102
}
330
7472
100
AcDbGroup
300

 70
     1
 71
     1
  0
GROUP
  5
344A2
102
{ACAD_REACTORS
330
7472
102
}
330
7472
100
AcDbGroup
300

 70
     1
 71
     1
  0
GROUP
  5
329A1
102
{ACAD_REACTORS
330
7472
102
}
330
7472
100
AcDbGroup
300

 70
     1
 71
     1
  0
GROUP
  5
32071
102
{ACAD_REACTORS
330
7472
102
}
330
7472
100
AcDbGroup
300

 70
     1
 71
     1
  0
GROUP
  5
2926B
102
{ACAD_REACTORS
330
7472
102
}
330
7472
100
AcDbGroup
300

 70
     1
 71
     1
  0
GROUP
  5
33AFF
102
{ACAD_REACTORS
330
7472
102
}
330
7472
100
AcDbGroup
300

 70
     1
 71
     1
  0
GROUP
  5
3594F
102
{ACAD_REACTORS
330
7472
102
}
330
7472
100
AcDbGroup
300

 70
     1
 71
     1
  0
GROUP
  5
275D8
102
{ACAD_REACTORS
330
7472
102
}
330
7472
100
AcDbGroup
300

 70
     1
 71
     1
  0
GROUP
  5
35949
102
{ACAD_REACTORS
330
7472
102
}
330
7472
100
AcDbGroup
300

 70
     1
 71
     1
  0
GROUP
  5
33B8D
102
{ACAD_REACTORS
330
7472
102
}
330
7472
100
AcDbGroup
300

 70
     1
 71
     1
  0
GROUP
  5
35547
102
{ACAD_REACTORS
330
7472
102
}
330
7472
100
AcDbGroup
300

 70
     1
 71
     1
  0
GROUP
  5
35537
102
{ACAD_REACTORS
330
7472
102
}
330
7472
100
AcDbGroup
300

 70
     1
 71
     1
  0
GROUP
  5
35950
102
{ACAD_REACTORS
330
7472
102
}
330
7472
100
AcDbGroup
300

 70
     1
 71
     1
  0
GROUP
  5
3267A
102
{ACAD_REACTORS
330
7472
102
}
330
7472
100
AcDbGroup
300

 70
     1
 71
     1
  0
GROUP
  5
32DE8
102
{ACAD_REACTORS
330
7472
102
}
330
7472
100
AcDbGroup
300

 70
     1
 71
     1
  0
GROUP
  5
35951
102
{ACAD_REACTORS
330
7472
102
}
330
7472
100
AcDbGroup
300

 70
     1
 71
     1
  0
GROUP
  5
3331B
102
{ACAD_REACTORS
330
7472
102
}
330
7472
100
AcDbGroup
300

 70
     1
 71
     1
  0
GROUP
  5
3506D
102
{ACAD_REACTORS
330
7472
102
}
330
7472
100
AcDbGroup
300

 70
     1
 71
     1
  0
GROUP
  5
35952
102
{ACAD_REACTORS
330
7472
102
}
330
7472
100
AcDbGroup
300

 70
     1
 71
     1
  0
GROUP
  5
33AFC
102
{ACAD_REACTORS
330
7472
102
}
330
7472
100
AcDbGroup
300

 70
     1
 71
     1
  0
GROUP
  5
33731
102
{ACAD_REACTORS
330
7472
102
}
330
7472
100
AcDbGroup
300

 70
     1
 71
     1
  0
GROUP
  5
33B8F
102
{ACAD_REACTORS
330
7472
102
}
330
7472
100
AcDbGroup
300

 70
     1
 71
     1
  0
GROUP
  5
275D6
102
{ACAD_REACTORS
330
7472
102
}
330
7472
100
AcDbGroup
300

 70
     1
 71
     1
  0
GROUP
  5
35947
102
{ACAD_REACTORS
330
7472
102
}
330
7472
100
AcDbGroup
300

 70
     1
 71
     1
  0
GROUP
  5
3373C
102
{ACAD_REACTORS
330
7472
102
}
330
7472
100
AcDbGroup
300

 70
     1
 71
     1
  0
GROUP
  5
33732
102
{ACAD_REACTORS
330
7472
102
}
330
7472
100
AcDbGroup
300

 70
     1
 71
     1
  0
GROUP
  5
35538
102
{ACAD_REACTORS
330
7472
102
}
330
7472
100
AcDbGroup
300

 70
     1
 71
     1
  0
GROUP
  5
3506E
102
{ACAD_REACTORS
330
7472
102
}
330
7472
100
AcDbGroup
300

 70
     1
 71
     1
  0
GROUP
  5
33310
102
{ACAD_REACTORS
330
7472
102
}
330
7472
100
AcDbGroup
300

 70
     1
 71
     1
  0
GROUP
  5
35953
102
{ACAD_REACTORS
330
7472
102
}
330
7472
100
AcDbGroup
300

 70
     1
 71
     1
  0
GROUP
  5
33733
102
{ACAD_REACTORS
330
7472
102
}
330
7472
100
AcDbGroup
300

 70
     1
 71
     1
  0
GROUP
  5
33734
102
{ACAD_REACTORS
330
7472
102
}
330
7472
100
AcDbGroup
300

 70
     1
 71
     1
  0
GROUP
  5
33315
102
{ACAD_REACTORS
330
7472
102
}
330
7472
100
AcDbGroup
300

 70
     1
 71
     1
  0
GROUP
  5
33735
102
{ACAD_REACTORS
330
7472
102
}
330
7472
100
AcDbGroup
300

 70
     1
 71
     1
  0
GROUP
  5
33736
102
{ACAD_REACTORS
330
7472
102
}
330
7472
100
AcDbGroup
300

 70
     1
 71
     1
  0
GROUP
  5
2925B
102
{ACAD_REACTORS
330
7472
102
}
330
7472
100
AcDbGroup
300

 70
     1
 71
     1
  0
GROUP
  5
3373D
102
{ACAD_REACTORS
330
7472
102
}
330
7472
100
AcDbGroup
300

 70
     1
 71
     1
  0
GROUP
  5
32073
102
{ACAD_REACTORS
330
7472
102
}
330
7472
100
AcDbGroup
300

 70
     1
 71
     1
  0
GROUP
  5
35540
102
{ACAD_REACTORS
330
7472
102
}
330
7472
100
AcDbGroup
300

 70
     1
 71
     1
  0
GROUP
  5
32DEF
102
{ACAD_REACTORS
330
7472
102
}
330
7472
100
AcDbGroup
300

 70
     1
 71
     1
  0
GROUP
  5
33B90
102
{ACAD_REACTORS
330
7472
102
}
330
7472
100
AcDbGroup
300

 70
     1
 71
     1
  0
GROUP
  5
32956
102
{ACAD_REACTORS
330
7472
102
}
330
7472
100
AcDbGroup
300

 70
     1
 71
     1
  0
GROUP
  5
3506B
102
{ACAD_REACTORS
330
7472
102
}
330
7472
100
AcDbGroup
300

 70
     1
 71
     1
  0
GROUP
  5
33B91
102
{ACAD_REACTORS
330
7472
102
}
330
7472
100
AcDbGroup
300

 70
     1
 71
     1
  0
GROUP
  5
33B92
102
{ACAD_REACTORS
330
7472
102
}
330
7472
100
AcDbGroup
300

 70
     1
 71
     1
  0
GROUP
  5
33AFE
102
{ACAD_REACTORS
330
7472
102
}
330
7472
100
AcDbGroup
300

 70
     1
 71
     1
  0
GROUP
  5
27401
102
{ACAD_REACTORS
330
7472
102
}
330
7472
100
AcDbGroup
300

 70
     1
 71
     1
  0
GROUP
  5
275D4
102
{ACAD_REACTORS
330
7472
102
}
330
7472
100
AcDbGroup
300

 70
     1
 71
     1
  0
GROUP
  5
3293D
102
{ACAD_REACTORS
330
7472
102
}
330
7472
100
AcDbGroup
300

 70
     1
 71
     1
  0
LAYOUT
  5
11757
102
{ACAD_XDICTIONARY
360
35FE9
102
}
102
{ACAD_REACTORS
330
11755
102
}
330
11755
100
AcDbPlotSettings
  1

  2
Microsoft Office Document Image Writer
  4
A4
  6

 40
3.174999952316284
 41
3.174999952316284
 42
3.175003051757812
 43
3.17498779296875
 44
209.9733276367187
 45
297.0106506347656
 46
0.0
 47
0.0
 48
0.0
 49
0.0
140
0.0
141
0.0
142
1.0
143
1.0
 70
 11952
 72
     1
 73
     1
 74
     0
  7

 75
     0
147
1.0
148
-3096.011834229277
149
52.59843815948716
100
AcDbLayout
  1
Model
 70
     1
 71
     0
 10
0.0
 20
0.0
 11
12.0
 21
9.0
 12
0.0
 22
0.0
 32
0.0
 14
0.0
 24
0.0
 34
0.0
 15
0.0
 25
0.0
 35
0.0
146
0.0
 13
0.0
 23
0.0
 33
0.0
 16
1.0
 26
0.0
 36
0.0
 17
0.0
 27
1.0
 37
0.0
 76
     0
330
747D
  0
LAYOUT
  5
11758
102
{ACAD_XDICTIONARY
360
35FEB
102
}
102
{ACAD_REACTORS
330
11755
102
}
330
11755
100
AcDbPlotSettings
  1

  2
Microsoft Office Document Image Writer
  4

  6

 40
0.0
 41
0.0
 42
0.0
 43
0.0
 44
0.0
 45
0.0
 46
0.0
 47
0.0
 48
0.0
 49
0.0
140
0.0
141
0.0
142
1.0
143
1.0
 70
   688
 72
     0
 73
     0
 74
     5
  7
inaba.ctb
 75
    16
147
1.0
148
0.0
149
0.0
100
AcDbLayout
  1
レイアウト1
 70
     0
 71
     1
 10
0.0
 20
0.0
 11
420.0
 21
297.0
 12
0.0
 22
0.0
 32
0.0
 14
1.000000000000000E+20
 24
1.000000000000000E+20
 34
1.000000000000000E+20
 15
-1.000000000000000E+20
 25
-1.000000000000000E+20
 35
-1.000000000000000E+20
146
0.0
 13
0.0
 23
0.0
 33
0.0
 16
1.0
 26
0.0
 36
0.0
 17
0.0
 27
1.0
 37
0.0
 76
     0
330
747A
  0
MLINESTYLE
  5
7480
102
{ACAD_REACTORS
330
7473
102
}
330
7473
100
AcDbMlineStyle
  2
STANDARD
 70
     0
  3

 62
     0
 51
90.0
 52
90.0
 71
     2
 49
0.5
 62
   256
  6
BYLAYER
 49
-0.5
 62
   256
  6
BYLAYER
  0
ACDBPLACEHOLDER
  5
11752
102
{ACAD_REACTORS
330
11751
102
}
330
11751
  0
XRECORD
  5
35FE8
102
{ACAD_REACTORS
330
35FE6
102
}
330
35FE6
100
AcDbXrecord
280
     1
340
11754
  0
XRECORD
  5
35FE7
102
{ACAD_REACTORS
330
35FE6
102
}
330
35FE6
100
AcDbXrecord
280
     1
340
11753
  0
DICTIONARYVAR
  5
35FE3
102
{ACAD_REACTORS
330
35FE2
102
}
330
35FE2
100
DictionaryVariables
280
     0
  1
1
  0
DICTIONARYVAR
  5
35FE4
102
{ACAD_REACTORS
330
35FE2
102
}
330
35FE2
100
DictionaryVariables
280
     0
  1

  0
DICTIONARY
  5
35FE9
330
11757
100
AcDbDictionary
280
     1
281
     1
  3
ACAD_XREC_ROUNDTRIP
360
35FEA
  0
DICTIONARY
  5
35FEB
330
11758
100
AcDbDictionary
280
     1
281
     1
  3
ACAD_XREC_ROUNDTRIP
360
35FEC
  0
XRECORD
  5
35FEA
102
{ACAD_REACTORS
330
35FE9
102
}
330
35FE9
100
AcDbXrecord
280
     1
102
SHADEPLOT
 70
     0
102
SHADEPLOTRESLEVEL
 70
     2
102
SHADEPLOTCUSTOMDPI
 70
   300
  0
XRECORD
  5
35FEC
102
{ACAD_REACTORS
330
35FEB
102
}
330
35FEB
100
AcDbXrecord
280
     1
102
SHADEPLOT
 70
     0
102
SHADEPLOTRESLEVEL
 70
     2
102
SHADEPLOTCUSTOMDPI
 70
   300
  0
ENDSEC
  0
EOF
