  0
SECTION
  2
HEADER
  9
$ACADVER
  1
AC1015
  9
$ACADMAINTVER
 70
    20
  9
$DWGCODEPAGE
  3
ANSI_932
  9
$INSBASE
 10
0.0
 20
0.0
 30
0.0
  9
$EXTMIN
 10
139.9999999999995
 20
-0.0000000000000909
 30
0.0
  9
$EXTMAX
 10
16307.2
 20
11409.6
 30
0.0
  9
$LIMMIN
 10
0.0
 20
0.0
  9
$LIMMAX
 10
16800.0
 20
11880.0
  9
$ORTHOMODE
 70
     0
  9
$REGENMODE
 70
     1
  9
$FILLMODE
 70
     1
  9
$QTEXTMODE
 70
     0
  9
$MIRRTEXT
 70
     1
  9
$LTSCALE
 40
5.0
  9
$ATTMODE
 70
     1
  9
$TEXTSIZE
 40
100.0
  9
$TRACEWID
 40
1.0
  9
$TEXTSTYLE
  7
STYLE3
  9
$CLAYER
  8
寸法
  9
$CELTYPE
  6
BYLAYER
  9
$CECOLOR
 62
   256
  9
$CELTSCALE
 40
50.0
  9
$DISPSILH
 70
     0
  9
$DIMSCALE
 40
40.0
  9
$DIMASZ
 40
2.5
  9
$DIMEXO
 40
0.5
  9
$DIMDLI
 40
7.0
  9
$DIMRND
 40
0.0
  9
$DIMDLE
 40
0.0
  9
$DIMEXE
 40
1.5
  9
$DIMTP
 40
0.0
  9
$DIMTM
 40
0.0
  9
$DIMTXT
 40
3.0
  9
$DIMCEN
 40
0.0
  9
$DIMTSZ
 40
0.0
  9
$DIMTOL
 70
     0
  9
$DIMLIM
 70
     0
  9
$DIMTIH
 70
     1
  9
$DIMTOH
 70
     1
  9
$DIMSE1
 70
     0
  9
$DIMSE2
 70
     0
  9
$DIMTAD
 70
     3
  9
$DIMZIN
 70
     8
  9
$DIMBLK
  1

  9
$DIMASO
 70
     1
  9
$DIMSHO
 70
     1
  9
$DIMPOST
  1

  9
$DIMAPOST
  1

  9
$DIMALT
 70
     0
  9
$DIMALTD
 70
     2
  9
$DIMALTF
 40
0.0394
  9
$DIMLFAC
 40
1.0
  9
$DIMTOFL
 70
     1
  9
$DIMTVP
 40
0.0
  9
$DIMTIX
 70
     1
  9
$DIMSOXD
 70
     0
  9
$DIMSAH
 70
     1
  9
$DIMBLK1
  1
DOTSMALL
  9
$DIMBLK2
  1
DOTSMALL
  9
$DIMSTYLE
  2
INABA_S40G
  9
$DIMCLRD
 70
     0
  9
$DIMCLRE
 70
     0
  9
$DIMCLRT
 70
     7
  9
$DIMTFAC
 40
1.0
  9
$DIMGAP
 40
1.0
  9
$DIMJUST
 70
     0
  9
$DIMSD1
 70
     0
  9
$DIMSD2
 70
     0
  9
$DIMTOLJ
 70
     1
  9
$DIMTZIN
 70
     0
  9
$DIMALTZ
 70
     0
  9
$DIMALTTZ
 70
     0
  9
$DIMUPT
 70
     0
  9
$DIMDEC
 70
     1
  9
$DIMTDEC
 70
     1
  9
$DIMALTU
 70
     2
  9
$DIMALTTD
 70
     2
  9
$DIMTXSTY
  7
STYLE1
  9
$DIMAUNIT
 70
     0
  9
$DIMADEC
 70
     0
  9
$DIMALTRND
 40
0.0
  9
$DIMAZIN
 70
     0
  9
$DIMDSEP
 70
    46
  9
$DIMATFIT
 70
     3
  9
$DIMFRAC
 70
     0
  9
$DIMLDRBLK
  1

  9
$DIMLUNIT
 70
     2
  9
$DIMLWD
 70
    -2
  9
$DIMLWE
 70
    -2
  9
$DIMTMOVE
 70
     0
  9
$LUNITS
 70
     2
  9
$LUPREC
 70
     1
  9
$SKETCHINC
 40
1.0
  9
$FILLETRAD
 40
0.0
  9
$AUNITS
 70
     0
  9
$AUPREC
 70
     0
  9
$MENU
  1
acad
  9
$ELEVATION
 40
0.0
  9
$PELEVATION
 40
0.0
  9
$THICKNESS
 40
0.0
  9
$LIMCHECK
 70
     0
  9
$CHAMFERA
 40
0.0
  9
$CHAMFERB
 40
0.0
  9
$CHAMFERC
 40
0.0
  9
$CHAMFERD
 40
0.0
  9
$SKPOLY
 70
     0
  9
$TDCREATE
 40
2451052.600153125
  9
$TDUCREATE
 40
2451052.225153125
  9
$TDUPDATE
 40
2459716.719795636
  9
$TDUUPDATE
 40
2459716.344795637
  9
$TDINDWG
 40
0.6514677315
  9
$TDUSRTIMER
 40
0.6514677315
  9
$USRTIMER
 70
     1
  9
$ANGBASE
 50
0.0
  9
$ANGDIR
 70
     0
  9
$PDMODE
 70
     3
  9
$PDSIZE
 40
2.0
  9
$PLINEWID
 40
20.0
  9
$SPLFRAME
 70
     0
  9
$SPLINETYPE
 70
     6
  9
$SPLINESEGS
 70
     8
  9
$HANDSEED
  5
14F5B
  9
$SURFTAB1
 70
     6
  9
$SURFTAB2
 70
     6
  9
$SURFTYPE
 70
     6
  9
$SURFU
 70
     6
  9
$SURFV
 70
     6
  9
$UCSBASE
  2

  9
$UCSNAME
  2

  9
$UCSORG
 10
0.0
 20
0.0
 30
0.0
  9
$UCSXDIR
 10
1.0
 20
0.0
 30
0.0
  9
$UCSYDIR
 10
0.0
 20
1.0
 30
0.0
  9
$UCSORTHOREF
  2

  9
$UCSORTHOVIEW
 70
     0
  9
$UCSORGTOP
 10
0.0
 20
0.0
 30
0.0
  9
$UCSORGBOTTOM
 10
0.0
 20
0.0
 30
0.0
  9
$UCSORGLEFT
 10
0.0
 20
0.0
 30
0.0
  9
$UCSORGRIGHT
 10
0.0
 20
0.0
 30
0.0
  9
$UCSORGFRONT
 10
0.0
 20
0.0
 30
0.0
  9
$UCSORGBACK
 10
0.0
 20
0.0
 30
0.0
  9
$PUCSBASE
  2

  9
$PUCSNAME
  2

  9
$PUCSORG
 10
0.0
 20
0.0
 30
0.0
  9
$PUCSXDIR
 10
1.0
 20
0.0
 30
0.0
  9
$PUCSYDIR
 10
0.0
 20
1.0
 30
0.0
  9
$PUCSORTHOREF
  2

  9
$PUCSORTHOVIEW
 70
     0
  9
$PUCSORGTOP
 10
0.0
 20
0.0
 30
0.0
  9
$PUCSORGBOTTOM
 10
0.0
 20
0.0
 30
0.0
  9
$PUCSORGLEFT
 10
0.0
 20
0.0
 30
0.0
  9
$PUCSORGRIGHT
 10
0.0
 20
0.0
 30
0.0
  9
$PUCSORGFRONT
 10
0.0
 20
0.0
 30
0.0
  9
$PUCSORGBACK
 10
0.0
 20
0.0
 30
0.0
  9
$USERI1
 70
     0
  9
$USERI2
 70
     0
  9
$USERI3
 70
     0
  9
$USERI4
 70
     0
  9
$USERI5
 70
     0
  9
$USERR1
 40
0.0
  9
$USERR2
 40
0.0
  9
$USERR3
 40
0.0
  9
$USERR4
 40
0.0
  9
$USERR5
 40
0.0
  9
$WORLDVIEW
 70
     1
  9
$SHADEDGE
 70
     3
  9
$SHADEDIF
 70
    70
  9
$TILEMODE
 70
     1
  9
$MAXACTVP
 70
    16
  9
$PINSBASE
 10
0.0
 20
0.0
 30
0.0
  9
$PLIMCHECK
 70
     0
  9
$PEXTMIN
 10
1.000000000000000E+20
 20
1.000000000000000E+20
 30
1.000000000000000E+20
  9
$PEXTMAX
 10
-1.000000000000000E+20
 20
-1.000000000000000E+20
 30
-1.000000000000000E+20
  9
$PLIMMIN
 10
0.0
 20
0.0
  9
$PLIMMAX
 10
420.0
 20
297.0
  9
$UNITMODE
 70
     0
  9
$VISRETAIN
 70
     0
  9
$PLINEGEN
 70
     0
  9
$PSLTSCALE
 70
     0
  9
$TREEDEPTH
 70
  3020
  9
$CMLSTYLE
  2
STANDARD
  9
$CMLJUST
 70
     0
  9
$CMLSCALE
 40
1.0
  9
$PROXYGRAPHICS
 70
     1
  9
$MEASUREMENT
 70
     1
  9
$CELWEIGHT
370
    -1
  9
$ENDCAPS
280
     0
  9
$JOINSTYLE
280
     0
  9
$LWDISPLAY
290
     0
  9
$INSUNITS
 70
     0
  9
$HYPERLINKBASE
  1

  9
$STYLESHEET
  1
inaba.ctb
  9
$XEDIT
290
     1
  9
$CEPSNTYPE
380
     0
  9
$PSTYLEMODE
290
     1
  9
$FINGERPRINTGUID
  2
{265E0914-465E-4286-BC53-FCFE3F92B4EA}
  9
$VERSIONGUID
  2
{38B15CA6-3E7F-40E7-821B-8F520BB29B54}
  9
$EXTNAMES
290
     1
  9
$PSVPSCALE
 40
0.0
  9
$OLESTARTUP
290
     0
  0
ENDSEC
  0
SECTION
  2
CLASSES
  0
CLASS
  1
DICTIONARYVAR
  2
AcDbDictionaryVar
  3
ObjectDBX Classes
 90
        0
280
     0
281
     0
  0
CLASS
  1
ACDBDICTIONARYWDFLT
  2
AcDbDictionaryWithDefault
  3
ObjectDBX Classes
 90
        0
280
     0
281
     0
  0
CLASS
  1
MATERIAL
  2
AcDbMaterial
  3
ObjectDBX Classes
 90
     1153
280
     0
281
     0
  0
CLASS
  1
VISUALSTYLE
  2
AcDbVisualStyle
  3
ObjectDBX Classes
 90
     4095
280
     0
281
     0
  0
CLASS
  1
TABLESTYLE
  2
AcDbTableStyle
  3
ObjectDBX Classes
 90
     4095
280
     0
281
     0
  0
CLASS
  1
SCALE
  2
AcDbScale
  3
ObjectDBX Classes
 90
     1153
280
     0
281
     0
  0
CLASS
  1
MLEADERSTYLE
  2
AcDbMLeaderStyle
  3
ACDB_MLEADERSTYLE_CLASS
 90
     4095
280
     0
281
     0
  0
CLASS
  1
ACDBSECTIONVIEWSTYLE
  2
AcDbSectionViewStyle
  3
ObjectDBX Classes
 90
     1025
280
     0
281
     0
  0
CLASS
  1
ACDBDETAILVIEWSTYLE
  2
AcDbDetailViewStyle
  3
ObjectDBX Classes
 90
     1025
280
     0
281
     0
  0
CLASS
  1
SORTENTSTABLE
  2
AcDbSortentsTable
  3
ObjectDBX Classes
 90
        0
280
     0
281
     0
  0
CLASS
  1
CELLSTYLEMAP
  2
AcDbCellStyleMap
  3
ObjectDBX Classes
 90
     1152
280
     0
281
     0
  0
CLASS
  1
ACDBPLACEHOLDER
  2
AcDbPlaceHolder
  3
ObjectDBX Classes
 90
        0
280
     0
281
     0
  0
CLASS
  1
LAYOUT
  2
AcDbLayout
  3
ObjectDBX Classes
 90
        0
280
     0
281
     0
  0
ENDSEC
  0
SECTION
  2
TABLES
  0
TABLE
  2
VPORT
  5
746D
330
0
100
AcDbSymbolTable
 70
     1
  0
VPORT
  5
136B8
330
746D
100
AcDbSymbolTableRecord
100
AcDbViewportTableRecord
  2
*Active
 70
     0
 10
0.0
 20
0.0
 11
1.0
 21
1.0
 12
8481.619707715635
 22
5704.914077975558
 13
0.0
 23
0.0
 14
10.0
 24
10.0
 15
10.0
 25
10.0
 16
0.0
 26
0.0
 36
1.0
 17
0.0
 27
0.0
 37
0.0
 40
11505.87460371851
 41
1.663434903047091
 42
50.0
 43
0.0
 44
0.0
 50
0.0
 51
0.0
 71
     0
 72
     0
 73
     1
 74
     0
 75
     0
 76
     0
 77
     0
 78
     0
281
     0
 65
     1
110
0.0
120
0.0
130
0.0
111
1.0
121
0.0
131
0.0
112
0.0
122
1.0
132
0.0
 79
     0
146
0.0
1001
ACAD_NAV_VCDISPLAY
1070
     3
  0
ENDTAB
  0
TABLE
  2
LTYPE
  5
746A
330
0
100
AcDbSymbolTable
 70
     4
  0
LTYPE
  5
7477
330
746A
100
AcDbSymbolTableRecord
100
AcDbLinetypeTableRecord
  2
BYBLOCK
 70
     0
  3

 72
    65
 73
     0
 40
0.0
  0
LTYPE
  5
7478
330
746A
100
AcDbSymbolTableRecord
100
AcDbLinetypeTableRecord
  2
BYLAYER
 70
     0
  3

 72
    65
 73
     0
 40
0.0
  0
LTYPE
  5
7479
330
746A
100
AcDbSymbolTableRecord
100
AcDbLinetypeTableRecord
  2
CONTINUOUS
 70
     0
  3
Solid line
 72
    65
 73
     0
 40
0.0
  0
LTYPE
  5
7816
330
746A
100
AcDbSymbolTableRecord
100
AcDbLinetypeTableRecord
  2
CENTER
 70
     0
  3
____ _ ____ _ ____ _ ____ _ ____ _ ____ _ ____ 
 72
    65
 73
     4
 40
2.0
 49
1.25
 74
     0
 49
-0.25
 74
     0
 49
0.25
 74
     0
 49
-0.25
 74
     0
  0
LTYPE
  5
781A
330
746A
100
AcDbSymbolTableRecord
100
AcDbLinetypeTableRecord
  2
HIDDEN
 70
     0
  3
__ __ __ __ __ __ __ __ __ __ __ __ __ __ __ __
 72
    65
 73
     2
 40
0.375
 49
0.25
 74
     0
 49
-0.125
 74
     0
  0
LTYPE
  5
14644
330
746A
100
AcDbSymbolTableRecord
100
AcDbLinetypeTableRecord
  2
PHANTOM
 70
     0
  3
______  __  __  ______  __  __  ______  __  __ 
 72
    65
 73
     6
 40
2.5
 49
1.25
 74
     0
 49
-0.25
 74
     0
 49
0.25
 74
     0
 49
-0.25
 74
     0
 49
0.25
 74
     0
 49
-0.25
 74
     0
  0
ENDTAB
  0
TABLE
  2
LAYER
  5
7467
102
{ACAD_XDICTIONARY
360
1372A
102
}
330
0
100
AcDbSymbolTable
 70
    13
  0
LAYER
  5
7474
102
{ACAD_XDICTIONARY
360
13711
102
}
330
7467
100
AcDbSymbolTableRecord
100
AcDbLayerTableRecord
  2
0
 70
     0
 62
     7
  6
CONTINUOUS
370
    -3
390
13237
  0
LAYER
  5
DEB2
102
{ACAD_XDICTIONARY
360
13713
102
}
330
7467
100
AcDbSymbolTableRecord
100
AcDbLayerTableRecord
  2
センター
 70
     0
 62
     3
  6
CENTER
370
    -3
390
13237
  0
LAYER
  5
DEB3
102
{ACAD_XDICTIONARY
360
13715
102
}
330
7467
100
AcDbSymbolTableRecord
100
AcDbLayerTableRecord
  2
寸法
 70
     0
 62
     4
  6
CONTINUOUS
370
    -3
390
13237
  0
LAYER
  5
DEB4
102
{ACAD_XDICTIONARY
360
13717
102
}
330
7467
100
AcDbSymbolTableRecord
100
AcDbLayerTableRecord
  2
部品1
 70
     0
 62
     7
  6
CONTINUOUS
370
    -3
390
13237
  0
LAYER
  5
DEB6
102
{ACAD_XDICTIONARY
360
1371B
102
}
330
7467
100
AcDbSymbolTableRecord
100
AcDbLayerTableRecord
  2
文字
 70
     0
 62
     7
  6
CONTINUOUS
370
    -3
390
13237
  0
LAYER
  5
F255
330
7467
100
AcDbSymbolTableRecord
100
AcDbLayerTableRecord
  2
DEFPOINTS
 70
     0
 62
     7
  6
CONTINUOUS
290
     0
370
    -3
390
13237
  0
LAYER
  5
10B54
102
{ACAD_XDICTIONARY
360
1371D
102
}
330
7467
100
AcDbSymbolTableRecord
100
AcDbLayerTableRecord
  2
仕様書枠
 70
     0
 62
   230
  6
CONTINUOUS
370
    -3
390
13237
  0
LAYER
  5
11729
102
{ACAD_XDICTIONARY
360
1371F
102
}
330
7467
100
AcDbSymbolTableRecord
100
AcDbLayerTableRecord
  2
Ｇ．Ｌ
 70
     0
 62
   230
  6
CONTINUOUS
370
    -3
390
13237
  0
LAYER
  5
1173F
102
{ACAD_XDICTIONARY
360
13721
102
}
330
7467
100
AcDbSymbolTableRecord
100
AcDbLayerTableRecord
  2
細線
 70
     0
 62
     6
  6
CONTINUOUS
370
    -3
390
13237
  0
LAYER
  5
11740
102
{ACAD_XDICTIONARY
360
13723
102
}
330
7467
100
AcDbSymbolTableRecord
100
AcDbLayerTableRecord
  2
点線
 70
     0
 62
     2
  6
HIDDEN
370
    -3
390
13237
  0
LAYER
  5
14645
102
{ACAD_XDICTIONARY
360
14646
102
}
330
7467
100
AcDbSymbolTableRecord
100
AcDbLayerTableRecord
  2
想像線
 70
     0
 62
     6
  6
PHANTOM
370
    -3
390
13237
  0
LAYER
  5
14BE0
330
7467
100
AcDbSymbolTableRecord
100
AcDbLayerTableRecord
  2
U7
 70
     0
 62
     2
  6
CONTINUOUS
370
    -3
390
13237
  0
LAYER
  5
14BE1
330
7467
100
AcDbSymbolTableRecord
100
AcDbLayerTableRecord
  2
KIN-T
 70
     0
 62
     3
  6
CONTINUOUS
370
    -3
390
13237
  0
ENDTAB
  0
TABLE
  2
STYLE
  5
7468
330
0
100
AcDbSymbolTable
 70
     4
  0
STYLE
  5
7475
330
7468
100
AcDbSymbolTableRecord
100
AcDbTextStyleTableRecord
  2
STANDARD
 70
     0
 40
0.0
 41
1.0
 50
0.0
 71
     0
 42
4.0
  3
txt
  4
C:\AutoCAD LT\bigfont.shx
  0
STYLE
  5
F706
330
7468
100
AcDbSymbolTableRecord
100
AcDbTextStyleTableRecord
  2
STYLE1
 70
     0
 40
0.0
 41
1.0
 50
0.0
 71
     0
 42
4.0
  3
isocp.shx
  4
bigfont.shx
  0
STYLE
  5
103BF
330
7468
100
AcDbSymbolTableRecord
100
AcDbTextStyleTableRecord
  2
STYLE2
 70
     0
 40
0.0
 41
1.0
 50
0.0
 71
     0
 42
100.0
  3

  4

1001
ACAD
1000
MS PGothic
1071
    32818
  0
STYLE
  5
10BAA
330
7468
100
AcDbSymbolTableRecord
100
AcDbTextStyleTableRecord
  2
STYLE3
 70
     0
 40
0.0
 41
1.0
 50
0.0
 71
     0
 42
100.0
  3

  4

1001
ACAD
1000
DFPGothic-EB
1071
    32818
  0
ENDTAB
  0
TABLE
  2
VIEW
  5
746B
330
0
100
AcDbSymbolTable
 70
     0
  0
ENDTAB
  0
TABLE
  2
UCS
  5
746C
330
0
100
AcDbSymbolTable
 70
     0
  0
ENDTAB
  0
TABLE
  2
APPID
  5
746E
330
0
100
AcDbSymbolTable
 70
    14
  0
APPID
  5
7476
330
746E
100
AcDbSymbolTableRecord
100
AcDbRegAppTableRecord
  2
ACAD
 70
     0
  0
APPID
  5
DEA9
330
746E
100
AcDbSymbolTableRecord
100
AcDbRegAppTableRecord
  2
CONTENTBLOCKICON
 70
     0
  0
APPID
  5
DEAA
330
746E
100
AcDbSymbolTableRecord
100
AcDbRegAppTableRecord
  2
CONTENTBLOCKDESCRIPTION
 70
     0
  0
APPID
  5
E71D
330
746E
100
AcDbSymbolTableRecord
100
AcDbRegAppTableRecord
  2
CONTENTTABDATA
 70
     0
  0
APPID
  5
E71E
330
746E
100
AcDbSymbolTableRecord
100
AcDbRegAppTableRecord
  2
CONTENTCURRENTTAB
 70
     0
  0
APPID
  5
F3BA
330
746E
100
AcDbSymbolTableRecord
100
AcDbRegAppTableRecord
  2
DRAWINGVARIABLESXDATA
 70
     0
  0
APPID
  5
1370F
330
746E
100
AcDbSymbolTableRecord
100
AcDbRegAppTableRecord
  2
ACAD_EXEMPT_FROM_CAD_STANDARDS
 70
     0
  0
APPID
  5
13730
330
746E
100
AcDbSymbolTableRecord
100
AcDbRegAppTableRecord
  2
ACAD_NAV_VCDISPLAY
 70
     0
  0
APPID
  5
13753
330
746E
100
AcDbSymbolTableRecord
100
AcDbRegAppTableRecord
  2
ACAD_PSEXT
 70
     0
  0
APPID
  5
13D4E
330
746E
100
AcDbSymbolTableRecord
100
AcDbRegAppTableRecord
  2
AcadAnnoMonitorAlertIconDisabled
 70
     0
  0
APPID
  5
13FFD
330
746E
100
AcDbSymbolTableRecord
100
AcDbRegAppTableRecord
  2
ACAD_DSTYLE_DIMRADIAL_EXTENSION
 70
     0
  0
APPID
  5
14009
330
746E
100
AcDbSymbolTableRecord
100
AcDbRegAppTableRecord
  2
ACAD_DSTYLE_DIMJAG
 70
     0
  0
APPID
  5
1400A
330
746E
100
AcDbSymbolTableRecord
100
AcDbRegAppTableRecord
  2
ACAD_DSTYLE_DIMTALN
 70
     0
  0
APPID
  5
14F55
330
746E
100
AcDbSymbolTableRecord
100
AcDbRegAppTableRecord
  2
ACAD_MLEADERVER
 70
     0
  0
ENDTAB
  0
TABLE
  2
DIMSTYLE
  5
746F
330
0
100
AcDbSymbolTable
 70
     2
100
AcDbDimStyleTable
 71
     1
340
F71F
  0
DIMSTYLE
105
F71F
102
{ACAD_REACTORS
330
13CD3
330
13CE0
330
13CEF
330
13D38
330
13DC4
330
13DC6
330
13FFE
330
1452B
330
1453A
330
14547
330
14566
330
145F3
330
14969
330
14988
330
14A0C
330
14AD9
330
14B38
330
14B39
330
14B3A
330
14E07
102
}
330
746F
100
AcDbSymbolTableRecord
100
AcDbDimStyleTableRecord
  2
INABA_S40G
 70
     0
 40
40.0
 41
2.5
 42
0.5
 43
7.0
 44
1.5
 73
     0
 74
     0
 77
     3
 78
     8
140
3.0
141
0.0
143
0.0394
147
1.0
172
     1
173
     1
174
     1
178
     7
271
     1
340
F706
341
F770
343
F770
344
F770
  0
DIMSTYLE
105
1329C
102
{ACAD_REACTORS
330
14D3F
330
14D4C
330
14D4D
330
14D62
330
14D77
330
14DE3
102
}
330
746F
100
AcDbSymbolTableRecord
100
AcDbDimStyleTableRecord
  2
INABA_S40G詳細用20
 70
     0
 40
40.0
 41
2.5
 42
0.5
 43
7.0
 44
1.5
 73
     0
 74
     0
 77
     3
 78
     8
140
3.0
141
0.0
143
0.0394
144
0.5
147
1.0
172
     1
173
     1
174
     1
178
     7
271
     0
272
     0
340
F706
341
F770
343
F770
344
F770
  0
ENDTAB
  0
TABLE
  2
BLOCK_RECORD
  5
7466
330
0
100
AcDbSymbolTable
 70
    45
  0
BLOCK_RECORD
  5
747D
102
{ACAD_XDICTIONARY
360
13C2F
102
}
330
7466
100
AcDbSymbolTableRecord
100
AcDbBlockTableRecord
  2
*MODEL_SPACE
340
1323C
  0
BLOCK_RECORD
  5
747A
330
7466
100
AcDbSymbolTableRecord
100
AcDbBlockTableRecord
  2
*PAPER_SPACE
340
1323D
  0
BLOCK_RECORD
  5
DEAC
330
7466
100
AcDbSymbolTableRecord
100
AcDbBlockTableRecord
  2
_OPEN
340
0
102
{BLKREFS
331
14352
102
}
  0
BLOCK_RECORD
  5
F770
330
7466
100
AcDbSymbolTableRecord
100
AcDbBlockTableRecord
  2
_DOTSMALL
340
0
102
{BLKREFS
331
142E9
331
142EA
331
1430F
331
14310
331
14318
331
14319
331
14541
331
14542
331
1459B
331
1459C
331
145B8
331
145B9
331
145C2
331
145C3
331
145D5
331
145D6
331
1462E
331
1462F
331
149D5
331
149D6
331
14AD3
331
14AD4
331
14AE0
331
14AE1
331
14AF2
331
14AF3
331
14B63
331
14B64
331
14B6D
331
14B6E
331
14B76
331
14B77
331
14EB0
331
14EB1
331
14EC1
331
14EC2
331
14ECA
331
14ECB
331
14ED3
331
14ED4
331
14EDC
331
14EDD
331
14EE6
331
14EE7
331
14EF0
331
14EF1
102
}
  0
BLOCK_RECORD
  5
13CD4
330
7466
100
AcDbSymbolTableRecord
100
AcDbBlockTableRecord
  2
*D9
340
0
  0
BLOCK_RECORD
  5
13CE1
330
7466
100
AcDbSymbolTableRecord
100
AcDbBlockTableRecord
  2
*D10
340
0
  0
BLOCK_RECORD
  5
13CF0
330
7466
100
AcDbSymbolTableRecord
100
AcDbBlockTableRecord
  2
*D11
340
0
  0
BLOCK_RECORD
  5
13D39
330
7466
100
AcDbSymbolTableRecord
100
AcDbBlockTableRecord
  2
*D12
340
0
  0
BLOCK_RECORD
  5
13E40
330
7466
100
AcDbSymbolTableRecord
100
AcDbBlockTableRecord
  2
*D13
340
0
  0
BLOCK_RECORD
  5
13E4C
330
7466
100
AcDbSymbolTableRecord
100
AcDbBlockTableRecord
  2
*D14
340
0
  0
BLOCK_RECORD
  5
13FFF
330
7466
100
AcDbSymbolTableRecord
100
AcDbBlockTableRecord
  2
*D15
340
0
  0
BLOCK_RECORD
  5
140BC
330
7466
100
AcDbSymbolTableRecord
100
AcDbBlockTableRecord
  2
_None
340
0
  0
BLOCK_RECORD
  5
1452C
330
7466
100
AcDbSymbolTableRecord
100
AcDbBlockTableRecord
  2
*D19
340
0
  0
BLOCK_RECORD
  5
1453B
330
7466
100
AcDbSymbolTableRecord
100
AcDbBlockTableRecord
  2
*D20
340
0
  0
BLOCK_RECORD
  5
14548
330
7466
100
AcDbSymbolTableRecord
100
AcDbBlockTableRecord
  2
*D21
340
0
  0
BLOCK_RECORD
  5
14567
330
7466
100
AcDbSymbolTableRecord
100
AcDbBlockTableRecord
  2
*D22
340
0
  0
BLOCK_RECORD
  5
145F4
330
7466
100
AcDbSymbolTableRecord
100
AcDbBlockTableRecord
  2
*D23
340
0
  0
BLOCK_RECORD
  5
1496A
330
7466
100
AcDbSymbolTableRecord
100
AcDbBlockTableRecord
  2
*D24
340
0
  0
BLOCK_RECORD
  5
14989
330
7466
100
AcDbSymbolTableRecord
100
AcDbBlockTableRecord
  2
*D25
340
0
  0
BLOCK_RECORD
  5
14A0D
330
7466
100
AcDbSymbolTableRecord
100
AcDbBlockTableRecord
  2
*D26
340
0
  0
BLOCK_RECORD
  5
14ADA
330
7466
100
AcDbSymbolTableRecord
100
AcDbBlockTableRecord
  2
*D27
340
0
  0
BLOCK_RECORD
  5
14B3B
330
7466
100
AcDbSymbolTableRecord
100
AcDbBlockTableRecord
  2
*D28
340
0
  0
BLOCK_RECORD
  5
14B47
330
7466
100
AcDbSymbolTableRecord
100
AcDbBlockTableRecord
  2
*D29
340
0
  0
BLOCK_RECORD
  5
14B54
330
7466
100
AcDbSymbolTableRecord
100
AcDbBlockTableRecord
  2
*D30
340
0
  0
BLOCK_RECORD
  5
14E12
330
7466
100
AcDbSymbolTableRecord
100
AcDbBlockTableRecord
  2
*D38
340
0
  0
BLOCK_RECORD
  5
14E1E
330
7466
100
AcDbSymbolTableRecord
100
AcDbBlockTableRecord
  2
*D39
340
0
  0
BLOCK_RECORD
  5
14E2A
330
7466
100
AcDbSymbolTableRecord
100
AcDbBlockTableRecord
  2
*D40
340
0
  0
BLOCK_RECORD
  5
14E36
330
7466
100
AcDbSymbolTableRecord
100
AcDbBlockTableRecord
  2
*D41
340
0
  0
BLOCK_RECORD
  5
14E42
330
7466
100
AcDbSymbolTableRecord
100
AcDbBlockTableRecord
  2
*D42
340
0
  0
BLOCK_RECORD
  5
14E4F
330
7466
100
AcDbSymbolTableRecord
100
AcDbBlockTableRecord
  2
*D43
340
0
  0
BLOCK_RECORD
  5
14E5C
330
7466
100
AcDbSymbolTableRecord
100
AcDbBlockTableRecord
  2
*D44
340
0
  0
ENDTAB
  0
ENDSEC
  0
SECTION
  2
BLOCKS
  0
BLOCK
  5
7489
330
747D
100
AcDbEntity
  8
0
100
AcDbBlockBegin
  2
*MODEL_SPACE
 70
     0
 10
0.0
 20
0.0
 30
0.0
  3
*MODEL_SPACE
  1

  0
ENDBLK
  5
748A
330
747D
100
AcDbEntity
  8
0
100
AcDbBlockEnd
  0
BLOCK
  5
7487
330
747A
100
AcDbEntity
 67
     1
  8
0
100
AcDbBlockBegin
  2
*PAPER_SPACE
 70
     0
 10
0.0
 20
0.0
 30
0.0
  3
*PAPER_SPACE
  1

  0
ENDBLK
  5
7488
330
747A
100
AcDbEntity
 67
     1
  8
0
100
AcDbBlockEnd
  0
BLOCK
  5
DEAD
330
DEAC
100
AcDbEntity
  8
0
100
AcDbBlockBegin
  2
_OPEN
 70
     0
 10
0.0
 20
0.0
 30
0.0
  3
_OPEN
  1

  0
LINE
  5
DEAE
330
DEAC
100
AcDbEntity
  8
0
  6
ByBlock
 62
     0
100
AcDbLine
 10
-1.0
 20
0.1666666666666666
 30
0.0
 11
0.0
 21
0.0
 31
0.0
  0
LINE
  5
DEAF
330
DEAC
100
AcDbEntity
  8
0
  6
ByBlock
 62
     0
100
AcDbLine
 10
0.0
 20
0.0
 30
0.0
 11
-1.0
 21
-0.1666666666666666
 31
0.0
  0
LINE
  5
DEB0
330
DEAC
100
AcDbEntity
  8
0
  6
ByBlock
 62
     0
100
AcDbLine
 10
0.0
 20
0.0
 30
0.0
 11
-1.0
 21
0.0
 31
0.0
  0
ENDBLK
  5
DEB1
330
DEAC
100
AcDbEntity
  8
0
100
AcDbBlockEnd
  0
BLOCK
  5
F771
330
F770
100
AcDbEntity
  8
0
 48
50.0
100
AcDbBlockBegin
  2
_DOTSMALL
 70
     0
 10
0.0
 20
0.0
 30
0.0
  3
_DOTSMALL
  1

  0
LWPOLYLINE
  5
F772
330
F770
100
AcDbEntity
  8
0
  6
ByBlock
 62
     0
 48
50.0
100
AcDbPolyline
 90
        2
 70
     1
 43
0.5
 10
-0.0625
 20
0.0
 42
1.0
 10
0.0625
 20
0.0
 42
1.0
  0
ENDBLK
  5
F776
330
F770
100
AcDbEntity
  8
0
 48
50.0
100
AcDbBlockEnd
  0
BLOCK
  5
13CD5
330
13CD4
100
AcDbEntity
  8
0
 48
50.0
100
AcDbBlockBegin
  2
*D9
 70
     1
 10
0.0
 20
0.0
 30
0.0
  3
*D9
  1

  0
LINE
  5
142E6
330
13CD4
100
AcDbEntity
  8
寸法
 62
     0
 48
50.0
370
    -2
100
AcDbLine
 10
8223.600000000001
 20
6159.125000000003
 30
0.0
 11
8223.600000000001
 21
5458.802085134339
 31
0.0
  0
LINE
  5
142E7
330
13CD4
100
AcDbEntity
  8
寸法
 62
     0
 48
50.0
370
    -2
100
AcDbLine
 10
11023.6
 20
6159.125000000003
 30
0.0
 11
11023.6
 21
5458.802085134339
 31
0.0
  0
LINE
  5
142E8
330
13CD4
100
AcDbEntity
  8
寸法
 62
     0
 48
50.0
370
    -2
100
AcDbLine
 10
8223.600000000001
 20
5518.802085134339
 30
0.0
 11
11023.6
 21
5518.802085134339
 31
0.0
  0
INSERT
  5
142E9
330
13CD4
100
AcDbEntity
  8
寸法
 62
     0
 48
50.0
370
    -2
100
AcDbBlockReference
  2
_DOTSMALL
 10
8223.600000000001
 20
5518.802085134339
 30
0.0
 41
100.0
 42
100.0
 43
100.0
 50
180.0
  0
INSERT
  5
142EA
330
13CD4
100
AcDbEntity
  8
寸法
 62
     0
 48
50.0
370
    -2
100
AcDbBlockReference
  2
_DOTSMALL
 10
11023.6
 20
5518.802085134339
 30
0.0
 41
100.0
 42
100.0
 43
100.0
  0
MTEXT
  5
142EB
330
13CD4
100
AcDbEntity
  8
寸法
 62
     7
 48
50.0
100
AcDbMText
 10
9623.600000000001
 20
5618.813896157961
 30
0.0
 40
120.0
 41
0.0
 71
     5
 72
     1
  1
\A1;2800
  7
STYLE1
 73
     1
 44
1.0
1001
ACAD
1000
MTEXTBEGIN
1070
    73
1070
     1
1070
    44
1040
1.0
1070
    74
1070
     0
1000
MTEXTEND
  0
POINT
  5
142EC
330
13CD4
100
AcDbEntity
  8
DEFPOINTS
 62
     0
 48
50.0
100
AcDbPoint
 10
8223.600000000001
 20
6179.125000000002
 30
0.0
  0
POINT
  5
142ED
330
13CD4
100
AcDbEntity
  8
DEFPOINTS
 62
     0
 48
50.0
100
AcDbPoint
 10
11023.6
 20
6179.125000000002
 30
0.0
  0
POINT
  5
142EE
330
13CD4
100
AcDbEntity
  8
DEFPOINTS
 62
     0
 48
50.0
100
AcDbPoint
 10
11023.6
 20
5518.802085134339
 30
0.0
  0
ENDBLK
  5
13CD6
330
13CD4
100
AcDbEntity
  8
0
 48
50.0
100
AcDbBlockEnd
  0
BLOCK
  5
13CE2
330
13CE1
100
AcDbEntity
  8
0
 48
50.0
100
AcDbBlockBegin
  2
*D10
 70
     1
 10
0.0
 20
0.0
 30
0.0
  3
*D10
  1

  0
LINE
  5
145BE
330
13CE1
100
AcDbEntity
  8
寸法
 62
     0
 48
50.0
370
    -2
100
AcDbLine
 10
5223.600000000001
 20
5909.125000000001
 30
0.0
 11
5223.600000000001
 21
5458.802085134339
 31
0.0
  0
LINE
  5
145BF
330
13CE1
100
AcDbEntity
  8
寸法
 62
     0
 48
50.0
370
    -2
100
AcDbLine
 10
5423.6
 20
6159.125000000003
 30
0.0
 11
5423.6
 21
5458.802085134339
 31
0.0
  0
LINE
  5
145C0
330
13CE1
100
AcDbEntity
  8
寸法
 62
     0
 48
50.0
370
    -2
100
AcDbLine
 10
5423.6
 20
5518.802085134339
 30
0.0
 11
5223.600000000001
 21
5518.802085134339
 31
0.0
  0
LINE
  5
145C1
330
13CE1
100
AcDbEntity
  8
寸法
 62
     0
 48
50.0
370
    -2
100
AcDbLine
 10
5223.600000000001
 20
5518.802085134339
 30
0.0
 11
4824.458267716535
 21
5518.802085134339
 31
0.0
  0
INSERT
  5
145C2
330
13CE1
100
AcDbEntity
  8
寸法
 62
     0
 48
50.0
370
    -2
100
AcDbBlockReference
  2
_DOTSMALL
 10
5423.6
 20
5518.802085134339
 30
0.0
 41
100.0
 42
100.0
 43
100.0
  0
INSERT
  5
145C3
330
13CE1
100
AcDbEntity
  8
寸法
 62
     0
 48
50.0
370
    -2
100
AcDbBlockReference
  2
_DOTSMALL
 10
5223.600000000001
 20
5518.802085134339
 30
0.0
 41
100.0
 42
100.0
 43
100.0
 50
180.0
  0
MTEXT
  5
145C4
330
13CE1
100
AcDbEntity
  8
寸法
 62
     7
 48
50.0
100
AcDbMText
 10
4974.029133858266
 20
5618.813896157961
 30
0.0
 40
120.0
 41
0.0
 71
     5
 72
     1
  1
\A1;200
  7
STYLE1
 73
     1
 44
1.0
1001
ACAD
1000
MTEXTBEGIN
1070
    73
1070
     1
1070
    44
1040
1.0
1070
    74
1070
     0
1000
MTEXTEND
  0
POINT
  5
145C5
330
13CE1
100
AcDbEntity
  8
DEFPOINTS
 62
     0
 48
50.0
100
AcDbPoint
 10
5223.600000000001
 20
5929.125000000001
 30
0.0
  0
POINT
  5
145C6
330
13CE1
100
AcDbEntity
  8
DEFPOINTS
 62
     0
 48
50.0
100
AcDbPoint
 10
5423.6
 20
6179.125000000002
 30
0.0
  0
POINT
  5
145C7
330
13CE1
100
AcDbEntity
  8
DEFPOINTS
 62
     0
 48
50.0
100
AcDbPoint
 10
5423.6
 20
5518.802085134339
 30
0.0
  0
ENDBLK
  5
13CE3
330
13CE1
100
AcDbEntity
  8
0
 48
50.0
100
AcDbBlockEnd
  0
BLOCK
  5
13CF1
330
13CF0
100
AcDbEntity
  8
0
 48
50.0
100
AcDbBlockBegin
  2
*D11
 70
     1
 10
0.0
 20
0.0
 30
0.0
  3
*D11
  1

  0
LINE
  5
145D1
330
13CF0
100
AcDbEntity
  8
寸法
 62
     0
 48
50.0
370
    -2
100
AcDbLine
 10
11023.6
 20
6159.125000000003
 30
0.0
 11
11023.6
 21
5458.802085134339
 31
0.0
  0
LINE
  5
145D2
330
13CF0
100
AcDbEntity
  8
寸法
 62
     0
 48
50.0
370
    -2
100
AcDbLine
 10
11223.6
 20
5909.125000000002
 30
0.0
 11
11223.6
 21
5458.802085134339
 31
0.0
  0
LINE
  5
145D3
330
13CF0
100
AcDbEntity
  8
寸法
 62
     0
 48
50.0
370
    -2
100
AcDbLine
 10
11023.6
 20
5518.802085134339
 30
0.0
 11
11223.6
 21
5518.802085134339
 31
0.0
  0
LINE
  5
145D4
330
13CF0
100
AcDbEntity
  8
寸法
 62
     0
 48
50.0
370
    -2
100
AcDbLine
 10
11223.6
 20
5518.802085134339
 30
0.0
 11
11622.74173228347
 21
5518.802085134339
 31
0.0
  0
INSERT
  5
145D5
330
13CF0
100
AcDbEntity
  8
寸法
 62
     0
 48
50.0
370
    -2
100
AcDbBlockReference
  2
_DOTSMALL
 10
11023.6
 20
5518.802085134339
 30
0.0
 41
100.0
 42
100.0
 43
100.0
 50
180.0
  0
INSERT
  5
145D6
330
13CF0
100
AcDbEntity
  8
寸法
 62
     0
 48
50.0
370
    -2
100
AcDbBlockReference
  2
_DOTSMALL
 10
11223.6
 20
5518.802085134339
 30
0.0
 41
100.0
 42
100.0
 43
100.0
  0
MTEXT
  5
145D7
330
13CF0
100
AcDbEntity
  8
寸法
 62
     7
 48
50.0
100
AcDbMText
 10
11473.17086614174
 20
5618.813896157961
 30
0.0
 40
120.0
 41
0.0
 71
     5
 72
     1
  1
\A1;200
  7
STYLE1
 73
     1
 44
1.0
1001
ACAD
1000
MTEXTBEGIN
1070
    73
1070
     1
1070
    44
1040
1.0
1070
    74
1070
     0
1000
MTEXTEND
  0
POINT
  5
145D8
330
13CF0
100
AcDbEntity
  8
DEFPOINTS
 62
     0
 48
50.0
100
AcDbPoint
 10
11023.6
 20
6179.125000000002
 30
0.0
  0
POINT
  5
145D9
330
13CF0
100
AcDbEntity
  8
DEFPOINTS
 62
     0
 48
50.0
100
AcDbPoint
 10
11223.6
 20
5929.125000000002
 30
0.0
  0
POINT
  5
145DA
330
13CF0
100
AcDbEntity
  8
DEFPOINTS
 62
     0
 48
50.0
100
AcDbPoint
 10
11223.6
 20
5518.802085134339
 30
0.0
  0
ENDBLK
  5
13CF2
330
13CF0
100
AcDbEntity
  8
0
 48
50.0
100
AcDbBlockEnd
  0
BLOCK
  5
13D3A
330
13D39
100
AcDbEntity
  8
0
 48
50.0
100
AcDbBlockBegin
  2
*D12
 70
     1
 10
0.0
 20
0.0
 30
0.0
  3
*D12
  1

  0
LINE
  5
14AEF
330
13D39
100
AcDbEntity
  8
寸法
 62
     0
 48
50.0
370
    -2
100
AcDbLine
 10
5223.600000000001
 20
5909.125000000001
 30
0.0
 11
5223.600000000001
 21
5097.857797904151
 31
0.0
  0
LINE
  5
14AF0
330
13D39
100
AcDbEntity
  8
寸法
 62
     0
 48
50.0
370
    -2
100
AcDbLine
 10
11223.6
 20
5909.125000000002
 30
0.0
 11
11223.6
 21
5097.857797904151
 31
0.0
  0
LINE
  5
14AF1
330
13D39
100
AcDbEntity
  8
寸法
 62
     0
 48
50.0
370
    -2
100
AcDbLine
 10
5223.600000000001
 20
5157.857797904151
 30
0.0
 11
11223.6
 21
5157.857797904151
 31
0.0
  0
INSERT
  5
14AF2
330
13D39
100
AcDbEntity
  8
寸法
 62
     0
 48
50.0
370
    -2
100
AcDbBlockReference
  2
_DOTSMALL
 10
5223.600000000001
 20
5157.857797904151
 30
0.0
 41
100.0
 42
100.0
 43
100.0
 50
180.0
  0
INSERT
  5
14AF3
330
13D39
100
AcDbEntity
  8
寸法
 62
     0
 48
50.0
370
    -2
100
AcDbBlockReference
  2
_DOTSMALL
 10
11223.6
 20
5157.857797904151
 30
0.0
 41
100.0
 42
100.0
 43
100.0
  0
MTEXT
  5
14AF4
330
13D39
100
AcDbEntity
  8
寸法
 62
     7
 48
50.0
100
AcDbMText
 10
8223.600000000002
 20
5257.857797904151
 30
0.0
 40
120.0
 41
0.0
 71
     5
 72
     1
  1
\A1;基礎寸法 6000
  7
STYLE1
 73
     1
 44
1.0
1001
ACAD
1000
MTEXTBEGIN
1070
    73
1070
     1
1070
    44
1040
1.0
1070
    74
1070
     0
1000
MTEXTEND
  0
POINT
  5
14AF5
330
13D39
100
AcDbEntity
  8
DEFPOINTS
 62
     0
 48
50.0
100
AcDbPoint
 10
5223.600000000001
 20
5929.125000000001
 30
0.0
  0
POINT
  5
14AF6
330
13D39
100
AcDbEntity
  8
DEFPOINTS
 62
     0
 48
50.0
100
AcDbPoint
 10
11223.6
 20
5929.125000000002
 30
0.0
  0
POINT
  5
14AF7
330
13D39
100
AcDbEntity
  8
DEFPOINTS
 62
     0
 48
50.0
100
AcDbPoint
 10
11223.6
 20
5157.857797904151
 30
0.0
  0
ENDBLK
  5
13D3B
330
13D39
100
AcDbEntity
  8
0
 48
50.0
100
AcDbBlockEnd
  0
BLOCK
  5
13E41
330
13E40
100
AcDbEntity
  8
0
 48
50.0
100
AcDbBlockBegin
  2
*D13
 70
     1
 10
0.0
 20
0.0
 30
0.0
  3
*D13
  1

  0
LINE
  5
1430C
330
13E40
100
AcDbEntity
  8
寸法
 62
     0
 48
50.0
370
    -2
100
AcDbLine
 10
5073.6
 20
6799.125
 30
0.0
 11
5073.6
 21
6993.019908717608
 31
0.0
  0
LINE
  5
1430D
330
13E40
100
AcDbEntity
  8
寸法
 62
     0
 48
50.0
370
    -2
100
AcDbLine
 10
5773.6
 20
6799.125
 30
0.0
 11
5773.6
 21
6993.019908717608
 31
0.0
  0
LINE
  5
1430E
330
13E40
100
AcDbEntity
  8
寸法
 62
     0
 48
50.0
370
    -2
100
AcDbLine
 10
5073.6
 20
6933.019908717607
 30
0.0
 11
5773.6
 21
6933.019908717607
 31
0.0
  0
INSERT
  5
1430F
330
13E40
100
AcDbEntity
  8
寸法
 62
     0
 48
50.0
370
    -2
100
AcDbBlockReference
  2
_DOTSMALL
 10
5073.6
 20
6933.019908717607
 30
0.0
 41
100.0
 42
100.0
 43
100.0
 50
180.0
  0
INSERT
  5
14310
330
13E40
100
AcDbEntity
  8
寸法
 62
     0
 48
50.0
370
    -2
100
AcDbBlockReference
  2
_DOTSMALL
 10
5773.6
 20
6933.019908717607
 30
0.0
 41
100.0
 42
100.0
 43
100.0
  0
MTEXT
  5
14311
330
13E40
100
AcDbEntity
  8
寸法
 62
     7
 48
50.0
100
AcDbMText
 10
5423.6
 20
7033.019908717607
 30
0.0
 40
120.0
 41
0.0
 71
     5
 72
     1
  1
\A1;700
  7
STYLE1
 73
     1
 44
1.0
1001
ACAD
1000
MTEXTBEGIN
1070
    73
1070
     1
1070
    44
1040
1.0
1070
    74
1070
     0
1000
MTEXTEND
  0
POINT
  5
14312
330
13E40
100
AcDbEntity
  8
DEFPOINTS
 62
     0
 48
50.0
100
AcDbPoint
 10
5073.6
 20
6779.125
 30
0.0
  0
POINT
  5
14313
330
13E40
100
AcDbEntity
  8
DEFPOINTS
 62
     0
 48
50.0
100
AcDbPoint
 10
5773.6
 20
6779.125
 30
0.0
  0
POINT
  5
14314
330
13E40
100
AcDbEntity
  8
DEFPOINTS
 62
     0
 48
50.0
100
AcDbPoint
 10
5773.6
 20
6933.019908717607
 30
0.0
  0
ENDBLK
  5
13E42
330
13E40
100
AcDbEntity
  8
0
 48
50.0
100
AcDbBlockEnd
  0
BLOCK
  5
13E4D
330
13E4C
100
AcDbEntity
  8
0
 48
50.0
100
AcDbBlockBegin
  2
*D14
 70
     1
 10
0.0
 20
0.0
 30
0.0
  3
*D14
  1

  0
LINE
  5
14315
330
13E4C
100
AcDbEntity
  8
寸法
 62
     0
 48
50.0
370
    -2
100
AcDbLine
 10
5793.600000000001
 20
6779.125
 30
0.0
 11
6111.598666593931
 21
6779.125
 31
0.0
  0
LINE
  5
14316
330
13E4C
100
AcDbEntity
  8
寸法
 62
     0
 48
50.0
370
    -2
100
AcDbLine
 10
5793.600000000001
 20
6079.125000000001
 30
0.0
 11
6111.598666593929
 21
6079.125000000001
 31
0.0
  0
LINE
  5
14317
330
13E4C
100
AcDbEntity
  8
寸法
 62
     0
 48
50.0
370
    -2
100
AcDbLine
 10
6051.59866659393
 20
6779.125
 30
0.0
 11
6051.598666593929
 21
6079.125000000001
 31
0.0
  0
INSERT
  5
14318
330
13E4C
100
AcDbEntity
  8
寸法
 62
     0
 48
50.0
370
    -2
100
AcDbBlockReference
  2
_DOTSMALL
 10
6051.59866659393
 20
6779.125
 30
0.0
 41
100.0
 42
100.0
 43
100.0
 50
90.0
  0
INSERT
  5
14319
330
13E4C
100
AcDbEntity
  8
寸法
 62
     0
 48
50.0
370
    -2
100
AcDbBlockReference
  2
_DOTSMALL
 10
6051.598666593929
 20
6079.125000000001
 30
0.0
 41
100.0
 42
100.0
 43
100.0
 50
270.0
  0
MTEXT
  5
1431A
330
13E4C
100
AcDbEntity
  8
寸法
 62
     7
 48
50.0
100
AcDbMText
 10
5951.598666593928
 20
6429.125000000002
 30
0.0
 40
120.0
 41
0.0
 71
     5
 72
     1
  1
\A1;700
  7
STYLE1
 11
0.0000000000000001
 21
1.0
 31
0.0
 73
     1
 44
1.0
1001
ACAD
1000
MTEXTBEGIN
1070
    73
1070
     1
1070
    44
1040
1.0
1070
    74
1070
     0
1000
MTEXTEND
  0
POINT
  5
1431B
330
13E4C
100
AcDbEntity
  8
DEFPOINTS
 62
     0
 48
50.0
100
AcDbPoint
 10
5773.6
 20
6779.125
 30
0.0
  0
POINT
  5
1431C
330
13E4C
100
AcDbEntity
  8
DEFPOINTS
 62
     0
 48
50.0
100
AcDbPoint
 10
5773.6
 20
6079.125000000001
 30
0.0
  0
POINT
  5
1431D
330
13E4C
100
AcDbEntity
  8
DEFPOINTS
 62
     0
 48
50.0
100
AcDbPoint
 10
6051.598666593929
 20
6079.125000000001
 30
0.0
  0
ENDBLK
  5
13E4E
330
13E4C
100
AcDbEntity
  8
0
 48
50.0
100
AcDbBlockEnd
  0
BLOCK
  5
14000
330
13FFF
100
AcDbEntity
  8
0
 48
50.0
100
AcDbBlockBegin
  2
*D15
 70
     1
 10
0.0
 20
0.0
 30
0.0
  3
*D15
  1

  0
LINE
  5
1434F
330
13FFF
100
AcDbEntity
  8
寸法
 62
     0
 48
50.0
370
    -2
100
AcDbLine
 10
4783.318245188582
 20
6081.612566356158
 30
0.0
 11
4935.318245188597
 21
6081.612566356158
 31
0.0
  0
LINE
  5
14350
330
13FFF
100
AcDbEntity
  8
寸法
 62
     0
 48
50.0
370
    -2
100
AcDbLine
 10
4935.318245188597
 20
6081.612566356158
 30
0.0
 11
5342.127315317728
 21
6371.140505084007
 31
0.0
  0
MTEXT
  5
14351
330
13FFF
100
AcDbEntity
  8
寸法
 62
     7
 48
50.0
100
AcDbMText
 10
4839.318245188582
 20
6181.612566356157
 30
0.0
 40
120.0
 41
0.0
 71
     5
 72
     1
  1
\A1;柱
  7
STYLE1
 73
     1
 44
1.0
1001
ACAD
1000
MTEXTBEGIN
1070
    73
1070
     1
1070
    44
1040
1.0
1070
    74
1070
     0
1000
MTEXTEND
  0
INSERT
  5
14352
330
13FFF
100
AcDbEntity
  8
寸法
 62
     0
 48
50.0
370
    -2
100
AcDbBlockReference
  2
_OPEN
 10
5423.600000000001
 20
6429.124999999999
 30
0.0
 41
100.0
 42
100.0
 43
100.0
 50
35.43963792854195
  0
POINT
  5
14353
330
13FFF
100
AcDbEntity
  8
DEFPOINTS
 62
     0
 48
50.0
100
AcDbPoint
 10
5423.600000000001
 20
6429.124999999999
 30
0.0
  0
POINT
  5
14354
330
13FFF
100
AcDbEntity
  8
DEFPOINTS
 62
     0
 48
50.0
100
AcDbPoint
 10
5505.072684682272
 20
6487.109494915991
 30
0.0
  0
ENDBLK
  5
14001
330
13FFF
100
AcDbEntity
  8
0
 48
50.0
100
AcDbBlockEnd
  0
BLOCK
  5
140BD
330
140BC
100
AcDbEntity
  8
0
 48
50.0
100
AcDbBlockBegin
  2
_None
 70
     0
 10
0.0
 20
0.0
 30
0.0
  3
_None
  1

  0
ENDBLK
  5
140BE
330
140BC
100
AcDbEntity
  8
0
 48
50.0
100
AcDbBlockEnd
  0
BLOCK
  5
1452D
330
1452C
100
AcDbEntity
  8
0
 48
50.0
100
AcDbBlockBegin
  2
*D19
 70
     1
 10
0.0
 20
0.0
 30
0.0
  3
*D19
  1

  0
LINE
  5
1462A
330
1452C
100
AcDbEntity
  8
寸法
 62
     0
 48
50.0
370
    -2
100
AcDbLine
 10
5203.6
 20
8279.125
 30
0.0
 11
4613.596280819003
 21
8279.125
 31
0.0
  0
LINE
  5
1462B
330
1452C
100
AcDbEntity
  8
寸法
 62
     0
 48
50.0
370
    -2
100
AcDbLine
 10
5153.6
 20
8079.125000000001
 30
0.0
 11
4613.596280819003
 21
8079.125000000001
 31
0.0
  0
LINE
  5
1462C
330
1452C
100
AcDbEntity
  8
寸法
 62
     0
 48
50.0
370
    -2
100
AcDbLine
 10
4673.596280819003
 20
8079.125000000001
 30
0.0
 11
4673.596280819003
 21
8279.125
 31
0.0
  0
LINE
  5
1462D
330
1452C
100
AcDbEntity
  8
寸法
 62
     0
 48
50.0
370
    -2
100
AcDbLine
 10
4673.596280819003
 20
8279.125
 30
0.0
 11
4673.596280819003
 21
8678.266732283464
 31
0.0
  0
INSERT
  5
1462E
330
1452C
100
AcDbEntity
  8
寸法
 62
     0
 48
50.0
370
    -2
100
AcDbBlockReference
  2
_DOTSMALL
 10
4673.596280819003
 20
8079.125000000001
 30
0.0
 41
100.0
 42
100.0
 43
100.0
 50
270.0
  0
INSERT
  5
1462F
330
1452C
100
AcDbEntity
  8
寸法
 62
     0
 48
50.0
370
    -2
100
AcDbBlockReference
  2
_DOTSMALL
 10
4673.596280819003
 20
8279.125
 30
0.0
 41
100.0
 42
100.0
 43
100.0
 50
90.0
  0
MTEXT
  5
14630
330
1452C
100
AcDbEntity
  8
寸法
 62
     7
 48
50.0
100
AcDbMText
 10
4573.58446979538
 20
8528.695866141735
 30
0.0
 40
120.0
 41
0.0
 71
     5
 72
     1
  1
\A1;200
  7
STYLE1
 11
0.0000000000000001
 21
1.0
 31
0.0
 73
     1
 44
1.0
1001
ACAD
1000
MTEXTBEGIN
1070
    73
1070
     1
1070
    44
1040
1.0
1070
    74
1070
     0
1000
MTEXTEND
  0
POINT
  5
14631
330
1452C
100
AcDbEntity
  8
DEFPOINTS
 62
     0
 48
50.0
100
AcDbPoint
 10
5223.600000000001
 20
8279.125
 30
0.0
  0
POINT
  5
14632
330
1452C
100
AcDbEntity
  8
DEFPOINTS
 62
     0
 48
50.0
100
AcDbPoint
 10
5173.6
 20
8079.125000000001
 30
0.0
  0
POINT
  5
14633
330
1452C
100
AcDbEntity
  8
DEFPOINTS
 62
     0
 48
50.0
100
AcDbPoint
 10
4673.596280819003
 20
8079.125000000001
 30
0.0
  0
ENDBLK
  5
1452E
330
1452C
100
AcDbEntity
  8
0
 48
50.0
100
AcDbBlockEnd
  0
BLOCK
  5
1453C
330
1453B
100
AcDbEntity
  8
0
 48
50.0
100
AcDbBlockBegin
  2
*D20
 70
     1
 10
0.0
 20
0.0
 30
0.0
  3
*D20
  1

  0
LINE
  5
1453E
330
1453B
100
AcDbEntity
  8
寸法
 62
     0
 48
50.0
370
    -2
100
AcDbLine
 10
5153.6
 20
8079.125000000001
 30
0.0
 11
4613.596280819002
 21
8079.125000000001
 31
0.0
  0
LINE
  5
1453F
330
1453B
100
AcDbEntity
  8
寸法
 62
     0
 48
50.0
370
    -2
100
AcDbLine
 10
5153.6
 20
6429.125
 30
0.0
 11
4613.596280819002
 21
6429.125
 31
0.0
  0
LINE
  5
14540
330
1453B
100
AcDbEntity
  8
寸法
 62
     0
 48
50.0
370
    -2
100
AcDbLine
 10
4673.596280819002
 20
8079.125000000001
 30
0.0
 11
4673.596280819002
 21
6429.125
 31
0.0
  0
INSERT
  5
14541
330
1453B
100
AcDbEntity
  8
寸法
 62
     0
 48
50.0
370
    -2
100
AcDbBlockReference
  2
_DOTSMALL
 10
4673.596280819002
 20
8079.125000000001
 30
0.0
 41
100.0
 42
100.0
 43
100.0
 50
90.0
  0
INSERT
  5
14542
330
1453B
100
AcDbEntity
  8
寸法
 62
     0
 48
50.0
370
    -2
100
AcDbBlockReference
  2
_DOTSMALL
 10
4673.596280819002
 20
6429.125
 30
0.0
 41
100.0
 42
100.0
 43
100.0
 50
270.0
  0
MTEXT
  5
14543
330
1453B
100
AcDbEntity
  8
寸法
 62
     7
 48
50.0
100
AcDbMText
 10
4573.596280819001
 20
7254.125000000001
 30
0.0
 40
120.0
 41
0.0
 71
     5
 72
     1
  1
\A1;1650
  7
STYLE1
 11
0.0000000000000001
 21
1.0
 31
0.0
 73
     1
 44
1.0
1001
ACAD
1000
MTEXTBEGIN
1070
    73
1070
     1
1070
    44
1040
1.0
1070
    74
1070
     0
1000
MTEXTEND
  0
POINT
  5
14544
330
1453B
100
AcDbEntity
  8
DEFPOINTS
 62
     0
 48
50.0
100
AcDbPoint
 10
5173.6
 20
8079.125000000001
 30
0.0
  0
POINT
  5
14545
330
1453B
100
AcDbEntity
  8
DEFPOINTS
 62
     0
 48
50.0
100
AcDbPoint
 10
5173.6
 20
6429.125
 30
0.0
  0
POINT
  5
14546
330
1453B
100
AcDbEntity
  8
DEFPOINTS
 62
     0
 48
50.0
100
AcDbPoint
 10
4673.596280819002
 20
6429.125
 30
0.0
  0
ENDBLK
  5
1453D
330
1453B
100
AcDbEntity
  8
0
 48
50.0
100
AcDbBlockEnd
  0
BLOCK
  5
14549
330
14548
100
AcDbEntity
  8
0
 48
50.0
100
AcDbBlockBegin
  2
*D21
 70
     1
 10
0.0
 20
0.0
 30
0.0
  3
*D21
  1

  0
LINE
  5
14598
330
14548
100
AcDbEntity
  8
寸法
 62
     0
 48
50.0
370
    -2
100
AcDbLine
 10
5153.6
 20
6429.125
 30
0.0
 11
4613.596280819003
 21
6429.125
 31
0.0
  0
LINE
  5
14599
330
14548
100
AcDbEntity
  8
寸法
 62
     0
 48
50.0
370
    -2
100
AcDbLine
 10
5203.6
 20
5929.125000000001
 30
0.0
 11
4613.596280819002
 21
5929.125000000001
 31
0.0
  0
LINE
  5
1459A
330
14548
100
AcDbEntity
  8
寸法
 62
     0
 48
50.0
370
    -2
100
AcDbLine
 10
4673.596280819003
 20
6429.125
 30
0.0
 11
4673.596280819002
 21
5929.125000000001
 31
0.0
  0
INSERT
  5
1459B
330
14548
100
AcDbEntity
  8
寸法
 62
     0
 48
50.0
370
    -2
100
AcDbBlockReference
  2
_DOTSMALL
 10
4673.596280819003
 20
6429.125
 30
0.0
 41
100.0
 42
100.0
 43
100.0
 50
90.0
  0
INSERT
  5
1459C
330
14548
100
AcDbEntity
  8
寸法
 62
     0
 48
50.0
370
    -2
100
AcDbBlockReference
  2
_DOTSMALL
 10
4673.596280819002
 20
5929.125000000001
 30
0.0
 41
100.0
 42
100.0
 43
100.0
 50
270.0
  0
MTEXT
  5
1459D
330
14548
100
AcDbEntity
  8
寸法
 62
     7
 48
50.0
100
AcDbMText
 10
4573.596280819002
 20
6179.125000000002
 30
0.0
 40
120.0
 41
0.0
 71
     5
 72
     1
  1
\A1;500
  7
STYLE1
 11
0.0000000000000001
 21
1.0
 31
0.0
 73
     1
 44
1.0
1001
ACAD
1000
MTEXTBEGIN
1070
    73
1070
     1
1070
    44
1040
1.0
1070
    74
1070
     0
1000
MTEXTEND
  0
POINT
  5
1459E
330
14548
100
AcDbEntity
  8
DEFPOINTS
 62
     0
 48
50.0
100
AcDbPoint
 10
5173.6
 20
6429.125
 30
0.0
  0
POINT
  5
1459F
330
14548
100
AcDbEntity
  8
DEFPOINTS
 62
     0
 48
50.0
100
AcDbPoint
 10
5223.600000000001
 20
5929.125000000001
 30
0.0
  0
POINT
  5
145A0
330
14548
100
AcDbEntity
  8
DEFPOINTS
 62
     0
 48
50.0
100
AcDbPoint
 10
4673.596280819002
 20
5929.125000000001
 30
0.0
  0
ENDBLK
  5
1454A
330
14548
100
AcDbEntity
  8
0
 48
50.0
100
AcDbBlockEnd
  0
BLOCK
  5
14568
330
14567
100
AcDbEntity
  8
0
 48
50.0
100
AcDbBlockBegin
  2
*D22
 70
     1
 10
0.0
 20
0.0
 30
0.0
  3
*D22
  1

  0
LINE
  5
145B5
330
14567
100
AcDbEntity
  8
寸法
 62
     0
 48
50.0
370
    -2
100
AcDbLine
 10
5203.6
 20
8279.125
 30
0.0
 11
4341.963560707751
 21
8279.125
 31
0.0
  0
LINE
  5
145B6
330
14567
100
AcDbEntity
  8
寸法
 62
     0
 48
50.0
370
    -2
100
AcDbLine
 10
5203.6
 20
5929.125000000001
 30
0.0
 11
4341.96356070775
 21
5929.125000000001
 31
0.0
  0
LINE
  5
145B7
330
14567
100
AcDbEntity
  8
寸法
 62
     0
 48
50.0
370
    -2
100
AcDbLine
 10
4401.963560707751
 20
8279.125
 30
0.0
 11
4401.963560707749
 21
5929.125000000001
 31
0.0
  0
INSERT
  5
145B8
330
14567
100
AcDbEntity
  8
寸法
 62
     0
 48
50.0
370
    -2
100
AcDbBlockReference
  2
_DOTSMALL
 10
4401.963560707751
 20
8279.125
 30
0.0
 41
100.0
 42
100.0
 43
100.0
 50
90.0
  0
INSERT
  5
145B9
330
14567
100
AcDbEntity
  8
寸法
 62
     0
 48
50.0
370
    -2
100
AcDbBlockReference
  2
_DOTSMALL
 10
4401.963560707749
 20
5929.125000000001
 30
0.0
 41
100.0
 42
100.0
 43
100.0
 50
270.0
  0
MTEXT
  5
145BA
330
14567
100
AcDbEntity
  8
寸法
 62
     7
 48
50.0
100
AcDbMText
 10
4301.951749684127
 20
7104.125000000002
 30
0.0
 40
120.0
 41
0.0
 71
     5
 72
     1
  1
\A1;基礎寸法 2350
  7
STYLE1
 11
0.0000000000000001
 21
1.0
 31
0.0
 73
     1
 44
1.0
1001
ACAD
1000
MTEXTBEGIN
1070
    73
1070
     1
1070
    44
1040
1.0
1070
    74
1070
     0
1000
MTEXTEND
  0
POINT
  5
145BB
330
14567
100
AcDbEntity
  8
DEFPOINTS
 62
     0
 48
50.0
100
AcDbPoint
 10
5223.600000000001
 20
8279.125
 30
0.0
  0
POINT
  5
145BC
330
14567
100
AcDbEntity
  8
DEFPOINTS
 62
     0
 48
50.0
100
AcDbPoint
 10
5223.600000000001
 20
5929.125000000001
 30
0.0
  0
POINT
  5
145BD
330
14567
100
AcDbEntity
  8
DEFPOINTS
 62
     0
 48
50.0
100
AcDbPoint
 10
4401.963560707749
 20
5929.125000000001
 30
0.0
  0
ENDBLK
  5
14569
330
14567
100
AcDbEntity
  8
0
 48
50.0
100
AcDbBlockEnd
  0
BLOCK
  5
145F5
330
145F4
100
AcDbEntity
  8
0
 48
50.0
100
AcDbBlockBegin
  2
*D23
 70
     1
 10
0.0
 20
0.0
 30
0.0
  3
*D23
  1

  0
LINE
  5
14EAD
330
145F4
100
AcDbEntity
  8
寸法
 62
     0
 48
50.0
370
    -2
100
AcDbLine
 10
5193.6
 20
8372.125
 30
0.0
 11
5193.6
 21
8850.776510025568
 31
0.0
  0
LINE
  5
14EAE
330
145F4
100
AcDbEntity
  8
寸法
 62
     0
 48
50.0
370
    -2
100
AcDbLine
 10
5423.6
 20
8349.125
 30
0.0
 11
5423.6
 21
8850.776510025568
 31
0.0
  0
LINE
  5
14EAF
330
145F4
100
AcDbEntity
  8
寸法
 62
     0
 48
50.0
370
    -2
100
AcDbLine
 10
5193.6
 20
8790.776510025567
 30
0.0
 11
5423.6
 21
8790.776510025567
 31
0.0
  0
INSERT
  5
14EB0
330
145F4
100
AcDbEntity
  8
寸法
 62
     0
 48
50.0
370
    -2
100
AcDbBlockReference
  2
_DOTSMALL
 10
5193.6
 20
8790.776510025567
 30
0.0
 41
100.0
 42
100.0
 43
100.0
 50
180.0
  0
INSERT
  5
14EB1
330
145F4
100
AcDbEntity
  8
寸法
 62
     0
 48
50.0
370
    -2
100
AcDbBlockReference
  2
_DOTSMALL
 10
5423.6
 20
8790.776510025567
 30
0.0
 41
100.0
 42
100.0
 43
100.0
  0
MTEXT
  5
14EB2
330
145F4
100
AcDbEntity
  8
寸法
 62
     7
 48
50.0
100
AcDbMText
 10
5308.600000000001
 20
8890.788321049189
 30
0.0
 40
120.0
 41
0.0
 71
     5
 72
     1
  1
\A1;230
  7
STYLE1
 73
     1
 44
1.0
1001
ACAD
1000
MTEXTBEGIN
1070
    73
1070
     1
1070
    44
1040
1.0
1070
    74
1070
     0
1000
MTEXTEND
  0
POINT
  5
14EB3
330
145F4
100
AcDbEntity
  8
DEFPOINTS
 62
     0
 48
50.0
100
AcDbPoint
 10
5193.6
 20
8352.124999999999
 30
0.0
  0
POINT
  5
14EB4
330
145F4
100
AcDbEntity
  8
DEFPOINTS
 62
     0
 48
50.0
100
AcDbPoint
 10
5423.6
 20
8329.125000000001
 30
0.0
  0
POINT
  5
14EB5
330
145F4
100
AcDbEntity
  8
DEFPOINTS
 62
     0
 48
50.0
100
AcDbPoint
 10
5423.6
 20
8790.776510025567
 30
0.0
  0
ENDBLK
  5
145F6
330
145F4
100
AcDbEntity
  8
0
 48
50.0
100
AcDbBlockEnd
  0
BLOCK
  5
1496B
330
1496A
100
AcDbEntity
  8
0
 48
50.0
100
AcDbBlockBegin
  2
*D24
 70
     1
 10
0.0
 20
0.0
 30
0.0
  3
*D24
  1

  0
LINE
  5
14AD0
330
1496A
100
AcDbEntity
  8
寸法
 62
     0
 48
50.0
370
    -2
100
AcDbLine
 10
5193.6
 20
8372.125
 30
0.0
 11
5193.6
 21
9122.854561661418
 31
0.0
  0
LINE
  5
14AD1
330
1496A
100
AcDbEntity
  8
寸法
 62
     0
 48
50.0
370
    -2
100
AcDbLine
 10
11253.6
 20
8372.125
 30
0.0
 11
11253.6
 21
9122.854561661418
 31
0.0
  0
LINE
  5
14AD2
330
1496A
100
AcDbEntity
  8
寸法
 62
     0
 48
50.0
370
    -2
100
AcDbLine
 10
5193.6
 20
9062.854561661417
 30
0.0
 11
11253.6
 21
9062.854561661417
 31
0.0
  0
INSERT
  5
14AD3
330
1496A
100
AcDbEntity
  8
寸法
 62
     0
 48
50.0
370
    -2
100
AcDbBlockReference
  2
_DOTSMALL
 10
5193.6
 20
9062.854561661417
 30
0.0
 41
100.0
 42
100.0
 43
100.0
 50
180.0
  0
INSERT
  5
14AD4
330
1496A
100
AcDbEntity
  8
寸法
 62
     0
 48
50.0
370
    -2
100
AcDbBlockReference
  2
_DOTSMALL
 10
11253.6
 20
9062.854561661417
 30
0.0
 41
100.0
 42
100.0
 43
100.0
  0
MTEXT
  5
14AD5
330
1496A
100
AcDbEntity
  8
寸法
 62
     7
 48
50.0
100
AcDbMText
 10
8223.600000000001
 20
9162.854561661417
 30
0.0
 40
120.0
 41
0.0
 71
     5
 72
     1
  1
\A1;屋根寸法 6060
  7
STYLE1
 73
     1
 44
1.0
1001
ACAD
1000
MTEXTBEGIN
1070
    73
1070
     1
1070
    44
1040
1.0
1070
    74
1070
     0
1000
MTEXTEND
  0
POINT
  5
14AD6
330
1496A
100
AcDbEntity
  8
DEFPOINTS
 62
     0
 48
50.0
100
AcDbPoint
 10
5193.6
 20
8352.124999999999
 30
0.0
  0
POINT
  5
14AD7
330
1496A
100
AcDbEntity
  8
DEFPOINTS
 62
     0
 48
50.0
100
AcDbPoint
 10
11253.6
 20
8352.124999999999
 30
0.0
  0
POINT
  5
14AD8
330
1496A
100
AcDbEntity
  8
DEFPOINTS
 62
     0
 48
50.0
100
AcDbPoint
 10
11253.6
 20
9062.854561661417
 30
0.0
  0
ENDBLK
  5
1496C
330
1496A
100
AcDbEntity
  8
0
 48
50.0
100
AcDbBlockEnd
  0
BLOCK
  5
1498A
330
14989
100
AcDbEntity
  8
0
 48
50.0
100
AcDbBlockBegin
  2
*D25
 70
     1
 10
0.0
 20
0.0
 30
0.0
  3
*D25
  1

  0
LINE
  5
149D2
330
14989
100
AcDbEntity
  8
寸法
 62
     0
 48
50.0
370
    -2
100
AcDbLine
 10
11023.6
 20
8349.125
 30
0.0
 11
11023.6
 21
8850.776510025568
 31
0.0
  0
LINE
  5
149D3
330
14989
100
AcDbEntity
  8
寸法
 62
     0
 48
50.0
370
    -2
100
AcDbLine
 10
11253.6
 20
8372.125
 30
0.0
 11
11253.6
 21
8850.776510025568
 31
0.0
  0
LINE
  5
149D4
330
14989
100
AcDbEntity
  8
寸法
 62
     0
 48
50.0
370
    -2
100
AcDbLine
 10
11023.6
 20
8790.776510025567
 30
0.0
 11
11253.6
 21
8790.776510025567
 31
0.0
  0
INSERT
  5
149D5
330
14989
100
AcDbEntity
  8
寸法
 62
     0
 48
50.0
370
    -2
100
AcDbBlockReference
  2
_DOTSMALL
 10
11023.6
 20
8790.776510025567
 30
0.0
 41
100.0
 42
100.0
 43
100.0
 50
180.0
  0
INSERT
  5
149D6
330
14989
100
AcDbEntity
  8
寸法
 62
     0
 48
50.0
370
    -2
100
AcDbBlockReference
  2
_DOTSMALL
 10
11253.6
 20
8790.776510025567
 30
0.0
 41
100.0
 42
100.0
 43
100.0
  0
MTEXT
  5
149D7
330
14989
100
AcDbEntity
  8
寸法
 62
     7
 48
50.0
100
AcDbMText
 10
11138.6
 20
8890.788321049189
 30
0.0
 40
120.0
 41
0.0
 71
     5
 72
     1
  1
\A1;230
  7
STYLE1
 73
     1
 44
1.0
1001
ACAD
1000
MTEXTBEGIN
1070
    73
1070
     1
1070
    44
1040
1.0
1070
    74
1070
     0
1000
MTEXTEND
  0
POINT
  5
149D8
330
14989
100
AcDbEntity
  8
DEFPOINTS
 62
     0
 48
50.0
100
AcDbPoint
 10
11023.6
 20
8329.125000000001
 30
0.0
  0
POINT
  5
149D9
330
14989
100
AcDbEntity
  8
DEFPOINTS
 62
     0
 48
50.0
100
AcDbPoint
 10
11253.6
 20
8352.124999999999
 30
0.0
  0
POINT
  5
149DA
330
14989
100
AcDbEntity
  8
DEFPOINTS
 62
     0
 48
50.0
100
AcDbPoint
 10
11253.6
 20
8790.776510025567
 30
0.0
  0
ENDBLK
  5
1498B
330
14989
100
AcDbEntity
  8
0
 48
50.0
100
AcDbBlockEnd
  0
BLOCK
  5
14A0E
330
14A0D
100
AcDbEntity
  8
0
 48
50.0
100
AcDbBlockBegin
  2
*D26
 70
     1
 10
0.0
 20
0.0
 30
0.0
  3
*D26
  1

  0
LINE
  5
14AAB
330
14A0D
100
AcDbEntity
  8
寸法
 62
     0
 48
50.0
370
    -2
100
AcDbLine
 10
10083.67921987001
 20
8592.891342469048
 30
0.0
 11
9355.679219870017
 21
8592.891342469044
 31
0.0
  0
LINE
  5
14AAC
330
14A0D
100
AcDbEntity
  8
寸法
 62
     0
 48
50.0
370
    -2
100
AcDbLine
 10
9355.679219870017
 20
8592.891342469044
 30
0.0
 11
9181.053794020849
 21
8352.124999999999
 31
0.0
  0
MTEXT
  5
14AAD
330
14A0D
100
AcDbEntity
  8
寸法
 62
     7
 48
50.0
100
AcDbMText
 10
9739.679219870017
 20
8692.891342469044
 30
0.0
 40
120.0
 41
0.0
 71
     5
 72
     1
  1
\A1;屋根の外寸
  7
STYLE1
 73
     1
 44
1.0
1001
ACAD
1000
MTEXTBEGIN
1070
    73
1070
     1
1070
    44
1040
1.0
1070
    74
1070
     0
1000
MTEXTEND
  0
POINT
  5
14AAE
330
14A0D
100
AcDbEntity
  8
DEFPOINTS
 62
     0
 48
50.0
100
AcDbPoint
 10
9181.053794020849
 20
8352.124999999999
 30
0.0
  0
POINT
  5
14AAF
330
14A0D
100
AcDbEntity
  8
DEFPOINTS
 62
     0
 48
50.0
100
AcDbPoint
 10
9122.341649320176
 20
8271.175113868848
 30
0.0
  0
ENDBLK
  5
14A0F
330
14A0D
100
AcDbEntity
  8
0
 48
50.0
100
AcDbBlockEnd
  0
BLOCK
  5
14ADB
330
14ADA
100
AcDbEntity
  8
0
 48
50.0
100
AcDbBlockBegin
  2
*D27
 70
     1
 10
0.0
 20
0.0
 30
0.0
  3
*D27
  1

  0
LINE
  5
14ADD
330
14ADA
100
AcDbEntity
  8
寸法
 62
     0
 48
50.0
370
    -2
100
AcDbLine
 10
5423.6
 20
6159.125000000003
 30
0.0
 11
5423.6
 21
5458.802085134339
 31
0.0
  0
LINE
  5
14ADE
330
14ADA
100
AcDbEntity
  8
寸法
 62
     0
 48
50.0
370
    -2
100
AcDbLine
 10
8223.600000000001
 20
6159.125000000003
 30
0.0
 11
8223.600000000001
 21
5458.802085134339
 31
0.0
  0
LINE
  5
14ADF
330
14ADA
100
AcDbEntity
  8
寸法
 62
     0
 48
50.0
370
    -2
100
AcDbLine
 10
5423.6
 20
5518.802085134339
 30
0.0
 11
8223.600000000001
 21
5518.802085134339
 31
0.0
  0
INSERT
  5
14AE0
330
14ADA
100
AcDbEntity
  8
寸法
 62
     0
 48
50.0
370
    -2
100
AcDbBlockReference
  2
_DOTSMALL
 10
5423.6
 20
5518.802085134339
 30
0.0
 41
100.0
 42
100.0
 43
100.0
 50
180.0
  0
INSERT
  5
14AE1
330
14ADA
100
AcDbEntity
  8
寸法
 62
     0
 48
50.0
370
    -2
100
AcDbBlockReference
  2
_DOTSMALL
 10
8223.600000000001
 20
5518.802085134339
 30
0.0
 41
100.0
 42
100.0
 43
100.0
  0
MTEXT
  5
14AE2
330
14ADA
100
AcDbEntity
  8
寸法
 62
     7
 48
50.0
100
AcDbMText
 10
6823.6
 20
5618.813896157961
 30
0.0
 40
120.0
 41
0.0
 71
     5
 72
     1
  1
\A1;2800
  7
STYLE1
 73
     1
 44
1.0
1001
ACAD
1000
MTEXTBEGIN
1070
    73
1070
     1
1070
    44
1040
1.0
1070
    74
1070
     0
1000
MTEXTEND
  0
POINT
  5
14AE3
330
14ADA
100
AcDbEntity
  8
DEFPOINTS
 62
     0
 48
50.0
100
AcDbPoint
 10
5423.6
 20
6179.125000000002
 30
0.0
  0
POINT
  5
14AE4
330
14ADA
100
AcDbEntity
  8
DEFPOINTS
 62
     0
 48
50.0
100
AcDbPoint
 10
8223.600000000001
 20
6179.125000000002
 30
0.0
  0
POINT
  5
14AE5
330
14ADA
100
AcDbEntity
  8
DEFPOINTS
 62
     0
 48
50.0
100
AcDbPoint
 10
8223.600000000001
 20
5518.802085134339
 30
0.0
  0
ENDBLK
  5
14ADC
330
14ADA
100
AcDbEntity
  8
0
 48
50.0
100
AcDbBlockEnd
  0
BLOCK
  5
14B3C
330
14B3B
100
AcDbEntity
  8
0
 48
50.0
100
AcDbBlockBegin
  2
*D28
 70
     1
 10
0.0
 20
0.0
 30
0.0
  3
*D28
  1

  0
LINE
  5
14B60
330
14B3B
100
AcDbEntity
  8
寸法
 62
     0
 48
50.0
370
    -2
100
AcDbLine
 10
11293.6
 20
6429.125
 30
0.0
 11
11941.5421570064
 21
6429.125
 31
0.0
  0
LINE
  5
14B61
330
14B3B
100
AcDbEntity
  8
寸法
 62
     0
 48
50.0
370
    -2
100
AcDbLine
 10
11273.6
 20
5922.125000000001
 30
0.0
 11
11941.5421570064
 21
5922.125000000001
 31
0.0
  0
LINE
  5
14B62
330
14B3B
100
AcDbEntity
  8
寸法
 62
     0
 48
50.0
370
    -2
100
AcDbLine
 10
11881.5421570064
 20
6429.125
 30
0.0
 11
11881.5421570064
 21
5922.125000000001
 31
0.0
  0
INSERT
  5
14B63
330
14B3B
100
AcDbEntity
  8
寸法
 62
     0
 48
50.0
370
    -2
100
AcDbBlockReference
  2
_DOTSMALL
 10
11881.5421570064
 20
6429.125
 30
0.0
 41
100.0
 42
100.0
 43
100.0
 50
90.0
  0
INSERT
  5
14B64
330
14B3B
100
AcDbEntity
  8
寸法
 62
     0
 48
50.0
370
    -2
100
AcDbBlockReference
  2
_DOTSMALL
 10
11881.5421570064
 20
5922.125000000001
 30
0.0
 41
100.0
 42
100.0
 43
100.0
 50
270.0
  0
MTEXT
  5
14B65
330
14B3B
100
AcDbEntity
  8
寸法
 62
     7
 48
50.0
100
AcDbMText
 10
11675.5421570064
 20
6175.625000000003
 30
0.0
 40
120.0
 41
0.0
 71
     5
 72
     1
  1
\A1;507\P(503)
  7
STYLE1
 11
0.0000000000000001
 21
1.0
 31
0.0
 73
     1
 44
1.0
1001
ACAD
1000
MTEXTBEGIN
1070
    73
1070
     1
1070
    44
1040
1.0
1070
    74
1070
     0
1000
MTEXTEND
  0
POINT
  5
14B66
330
14B3B
100
AcDbEntity
  8
DEFPOINTS
 62
     0
 48
50.0
100
AcDbPoint
 10
11273.6
 20
6429.125
 30
0.0
  0
POINT
  5
14B67
330
14B3B
100
AcDbEntity
  8
DEFPOINTS
 62
     0
 48
50.0
100
AcDbPoint
 10
11253.6
 20
5922.125000000001
 30
0.0
  0
POINT
  5
14B68
330
14B3B
100
AcDbEntity
  8
DEFPOINTS
 62
     0
 48
50.0
100
AcDbPoint
 10
11881.5421570064
 20
5922.125000000001
 30
0.0
  0
ENDBLK
  5
14B3D
330
14B3B
100
AcDbEntity
  8
0
 48
50.0
100
AcDbBlockEnd
  0
BLOCK
  5
14B48
330
14B47
100
AcDbEntity
  8
0
 48
50.0
100
AcDbBlockBegin
  2
*D29
 70
     1
 10
0.0
 20
0.0
 30
0.0
  3
*D29
  1

  0
LINE
  5
14B69
330
14B47
100
AcDbEntity
  8
寸法
 62
     0
 48
50.0
370
    -2
100
AcDbLine
 10
11273.6
 20
8352.124999999999
 30
0.0
 11
11941.5421570064
 21
8352.124999999999
 31
0.0
  0
LINE
  5
14B6A
330
14B47
100
AcDbEntity
  8
寸法
 62
     0
 48
50.0
370
    -2
100
AcDbLine
 10
11293.6
 20
8079.125000000001
 30
0.0
 11
11941.5421570064
 21
8079.125000000001
 31
0.0
  0
LINE
  5
14B6B
330
14B47
100
AcDbEntity
  8
寸法
 62
     0
 48
50.0
370
    -2
100
AcDbLine
 10
11881.5421570064
 20
8079.125000000001
 30
0.0
 11
11881.5421570064
 21
8352.124999999999
 31
0.0
  0
LINE
  5
14B6C
330
14B47
100
AcDbEntity
  8
寸法
 62
     0
 48
50.0
370
    -2
100
AcDbLine
 10
11881.5421570064
 20
8352.124999999999
 30
0.0
 11
11881.5421570064
 21
8844.030511811025
 31
0.0
  0
INSERT
  5
14B6D
330
14B47
100
AcDbEntity
  8
寸法
 62
     0
 48
50.0
370
    -2
100
AcDbBlockReference
  2
_DOTSMALL
 10
11881.5421570064
 20
8079.125000000001
 30
0.0
 41
100.0
 42
100.0
 43
100.0
 50
270.0
  0
INSERT
  5
14B6E
330
14B47
100
AcDbEntity
  8
寸法
 62
     0
 48
50.0
370
    -2
100
AcDbBlockReference
  2
_DOTSMALL
 10
11881.5421570064
 20
8352.124999999999
 30
0.0
 41
100.0
 42
100.0
 43
100.0
 50
90.0
  0
MTEXT
  5
14B6F
330
14B47
100
AcDbEntity
  8
寸法
 62
     7
 48
50.0
100
AcDbMText
 10
11675.53034598278
 20
8648.077755905513
 30
0.0
 40
120.0
 41
0.0
 71
     5
 72
     1
  1
\A1;273\P(277)
  7
STYLE1
 11
0.0000000000000001
 21
1.0
 31
0.0
 73
     1
 44
1.0
1001
ACAD
1000
MTEXTBEGIN
1070
    73
1070
     1
1070
    44
1040
1.0
1070
    74
1070
     0
1000
MTEXTEND
  0
POINT
  5
14B70
330
14B47
100
AcDbEntity
  8
DEFPOINTS
 62
     0
 48
50.0
100
AcDbPoint
 10
11253.6
 20
8352.124999999999
 30
0.0
  0
POINT
  5
14B71
330
14B47
100
AcDbEntity
  8
DEFPOINTS
 62
     0
 48
50.0
100
AcDbPoint
 10
11273.6
 20
8079.125000000001
 30
0.0
  0
POINT
  5
14B72
330
14B47
100
AcDbEntity
  8
DEFPOINTS
 62
     0
 48
50.0
100
AcDbPoint
 10
11881.5421570064
 20
8079.125000000001
 30
0.0
  0
ENDBLK
  5
14B49
330
14B47
100
AcDbEntity
  8
0
 48
50.0
100
AcDbBlockEnd
  0
BLOCK
  5
14B55
330
14B54
100
AcDbEntity
  8
0
 48
50.0
100
AcDbBlockBegin
  2
*D30
 70
     1
 10
0.0
 20
0.0
 30
0.0
  3
*D30
  1

  0
LINE
  5
14B73
330
14B54
100
AcDbEntity
  8
寸法
 62
     0
 48
50.0
370
    -2
100
AcDbLine
 10
11273.6
 20
8352.124999999999
 30
0.0
 11
12243.2958010213
 21
8352.124999999999
 31
0.0
  0
LINE
  5
14B74
330
14B54
100
AcDbEntity
  8
寸法
 62
     0
 48
50.0
370
    -2
100
AcDbLine
 10
11273.6
 20
5922.125000000001
 30
0.0
 11
12243.2958010213
 21
5922.125000000001
 31
0.0
  0
LINE
  5
14B75
330
14B54
100
AcDbEntity
  8
寸法
 62
     0
 48
50.0
370
    -2
100
AcDbLine
 10
12183.2958010213
 20
8352.124999999999
 30
0.0
 11
12183.2958010213
 21
5922.125000000001
 31
0.0
  0
INSERT
  5
14B76
330
14B54
100
AcDbEntity
  8
寸法
 62
     0
 48
50.0
370
    -2
100
AcDbBlockReference
  2
_DOTSMALL
 10
12183.2958010213
 20
8352.124999999999
 30
0.0
 41
100.0
 42
100.0
 43
100.0
 50
90.0
  0
INSERT
  5
14B77
330
14B54
100
AcDbEntity
  8
寸法
 62
     0
 48
50.0
370
    -2
100
AcDbBlockReference
  2
_DOTSMALL
 10
12183.2958010213
 20
5922.125000000001
 30
0.0
 41
100.0
 42
100.0
 43
100.0
 50
270.0
  0
MTEXT
  5
14B78
330
14B54
100
AcDbEntity
  8
寸法
 62
     7
 48
50.0
100
AcDbMText
 10
12083.28398999768
 20
7137.125000000001
 30
0.0
 40
120.0
 41
0.0
 71
     5
 72
     1
  1
\A1;屋根寸法 2430
  7
STYLE1
 11
0.0000000000000001
 21
1.0
 31
0.0
 73
     1
 44
1.0
1001
ACAD
1000
MTEXTBEGIN
1070
    73
1070
     1
1070
    44
1040
1.0
1070
    74
1070
     0
1000
MTEXTEND
  0
POINT
  5
14B79
330
14B54
100
AcDbEntity
  8
DEFPOINTS
 62
     0
 48
50.0
100
AcDbPoint
 10
11253.6
 20
8352.124999999999
 30
0.0
  0
POINT
  5
14B7A
330
14B54
100
AcDbEntity
  8
DEFPOINTS
 62
     0
 48
50.0
100
AcDbPoint
 10
11253.6
 20
5922.125000000001
 30
0.0
  0
POINT
  5
14B7B
330
14B54
100
AcDbEntity
  8
DEFPOINTS
 62
     0
 48
50.0
100
AcDbPoint
 10
12183.2958010213
 20
5922.125000000001
 30
0.0
  0
ENDBLK
  5
14B56
330
14B54
100
AcDbEntity
  8
0
 48
50.0
100
AcDbBlockEnd
  0
BLOCK
  5
14E13
330
14E12
100
AcDbEntity
  8
0
 48
50.0
100
AcDbBlockBegin
  2
*D38
 70
     1
 10
0.0
 20
0.0
 30
0.0
  3
*D38
  1

  0
LINE
  5
14EBE
330
14E12
100
AcDbEntity
  8
寸法
 62
     0
 48
50.0
370
    -2
100
AcDbLine
 10
7523.6
 20
1275.965215385917
 30
0.0
 11
7523.6
 21
807.9441030093548
 31
0.0
  0
LINE
  5
14EBF
330
14E12
100
AcDbEntity
  8
寸法
 62
     0
 48
50.0
370
    -2
100
AcDbLine
 10
8923.6
 20
1275.965215385917
 30
0.0
 11
8923.6
 21
807.9441030093548
 31
0.0
  0
LINE
  5
14EC0
330
14E12
100
AcDbEntity
  8
寸法
 62
     0
 48
50.0
370
    -2
100
AcDbLine
 10
7523.6
 20
867.9441030093549
 30
0.0
 11
8923.6
 21
867.9441030093549
 31
0.0
  0
INSERT
  5
14EC1
330
14E12
100
AcDbEntity
  8
寸法
 62
     0
 48
50.0
370
    -2
100
AcDbBlockReference
  2
_DOTSMALL
 10
7523.6
 20
867.9441030093549
 30
0.0
 41
100.0
 42
100.0
 43
100.0
 50
180.0
  0
INSERT
  5
14EC2
330
14E12
100
AcDbEntity
  8
寸法
 62
     0
 48
50.0
370
    -2
100
AcDbBlockReference
  2
_DOTSMALL
 10
8923.6
 20
867.9441030093549
 30
0.0
 41
100.0
 42
100.0
 43
100.0
  0
MTEXT
  5
14EC3
330
14E12
100
AcDbEntity
  8
寸法
 62
     7
 48
50.0
100
AcDbMText
 10
8223.600000000001
 20
967.9441030093549
 30
0.0
 40
120.0
 41
0.0
 71
     5
 72
     1
  1
\A1;700
  7
STYLE1
 73
     1
 44
1.0
1001
ACAD
1000
MTEXTBEGIN
1070
    73
1070
     1
1070
    44
1040
1.0
1070
    74
1070
     0
1000
MTEXTEND
  0
POINT
  5
14EC4
330
14E12
100
AcDbEntity
  8
DEFPOINTS
 62
     0
 48
50.0
100
AcDbPoint
 10
7523.6
 20
1295.965215385917
 30
0.0
  0
POINT
  5
14EC5
330
14E12
100
AcDbEntity
  8
DEFPOINTS
 62
     0
 48
50.0
100
AcDbPoint
 10
8923.6
 20
1295.965215385917
 30
0.0
  0
POINT
  5
14EC6
330
14E12
100
AcDbEntity
  8
DEFPOINTS
 62
     0
 48
50.0
100
AcDbPoint
 10
8923.6
 20
867.9441030093549
 30
0.0
  0
ENDBLK
  5
14E14
330
14E12
100
AcDbEntity
  8
0
 48
50.0
100
AcDbBlockEnd
  0
BLOCK
  5
14E1F
330
14E1E
100
AcDbEntity
  8
0
 48
50.0
100
AcDbBlockBegin
  2
*D39
 70
     1
 10
0.0
 20
0.0
 30
0.0
  3
*D39
  1

  0
LINE
  5
14EC7
330
14E1E
100
AcDbEntity
  8
寸法
 62
     0
 48
50.0
370
    -2
100
AcDbLine
 10
7503.6
 20
2405.965215385917
 30
0.0
 11
7010.790083099997
 21
2405.965215385918
 31
0.0
  0
LINE
  5
14EC8
330
14E1E
100
AcDbEntity
  8
寸法
 62
     0
 48
50.0
370
    -2
100
AcDbLine
 10
7373.181219498855
 20
1505.965215385917
 30
0.0
 11
7010.790083099995
 21
1505.965215385917
 31
0.0
  0
LINE
  5
14EC9
330
14E1E
100
AcDbEntity
  8
寸法
 62
     0
 48
50.0
370
    -2
100
AcDbLine
 10
7070.790083099996
 20
2405.965215385918
 30
0.0
 11
7070.790083099995
 21
1505.965215385917
 31
0.0
  0
INSERT
  5
14ECA
330
14E1E
100
AcDbEntity
  8
寸法
 62
     0
 48
50.0
370
    -2
100
AcDbBlockReference
  2
_DOTSMALL
 10
7070.790083099996
 20
2405.965215385918
 30
0.0
 41
100.0
 42
100.0
 43
100.0
 50
90.0
  0
INSERT
  5
14ECB
330
14E1E
100
AcDbEntity
  8
寸法
 62
     0
 48
50.0
370
    -2
100
AcDbBlockReference
  2
_DOTSMALL
 10
7070.790083099995
 20
1505.965215385917
 30
0.0
 41
100.0
 42
100.0
 43
100.0
 50
270.0
  0
MTEXT
  5
14ECC
330
14E1E
100
AcDbEntity
  8
寸法
 62
     7
 48
50.0
100
AcDbMText
 10
6970.790083099995
 20
1955.965215385918
 30
0.0
 40
120.0
 41
0.0
 71
     5
 72
     1
  1
\A1;450
  7
STYLE1
 11
0.0000000000000001
 21
1.0
 31
0.0
 73
     1
 44
1.0
1001
ACAD
1000
MTEXTBEGIN
1070
    73
1070
     1
1070
    44
1040
1.0
1070
    74
1070
     0
1000
MTEXTEND
  0
POINT
  5
14ECD
330
14E1E
100
AcDbEntity
  8
DEFPOINTS
 62
     0
 48
50.0
100
AcDbPoint
 10
7523.6
 20
2405.965215385917
 30
0.0
  0
POINT
  5
14ECE
330
14E1E
100
AcDbEntity
  8
DEFPOINTS
 62
     0
 48
50.0
100
AcDbPoint
 10
7393.181219498853
 20
1505.965215385917
 30
0.0
  0
POINT
  5
14ECF
330
14E1E
100
AcDbEntity
  8
DEFPOINTS
 62
     0
 48
50.0
100
AcDbPoint
 10
7070.790083099995
 20
1505.965215385917
 30
0.0
  0
ENDBLK
  5
14E20
330
14E1E
100
AcDbEntity
  8
0
 48
50.0
100
AcDbBlockEnd
  0
BLOCK
  5
14E2B
330
14E2A
100
AcDbEntity
  8
0
 48
50.0
100
AcDbBlockBegin
  2
*D40
 70
     1
 10
0.0
 20
0.0
 30
0.0
  3
*D40
  1

  0
LINE
  5
14ED0
330
14E2A
100
AcDbEntity
  8
寸法
 62
     0
 48
50.0
370
    -2
100
AcDbLine
 10
7503.6
 20
2306.090215385917
 30
0.0
 11
7232.705848604348
 21
2306.090215385917
 31
0.0
  0
LINE
  5
14ED1
330
14E2A
100
AcDbEntity
  8
寸法
 62
     0
 48
50.0
370
    -2
100
AcDbLine
 10
7503.6
 20
1866.015215385919
 30
0.0
 11
7232.705848604348
 21
1866.015215385919
 31
0.0
  0
LINE
  5
14ED2
330
14E2A
100
AcDbEntity
  8
寸法
 62
     0
 48
50.0
370
    -2
100
AcDbLine
 10
7292.705848604349
 20
2306.090215385917
 30
0.0
 11
7292.705848604348
 21
1866.015215385919
 31
0.0
  0
INSERT
  5
14ED3
330
14E2A
100
AcDbEntity
  8
寸法
 62
     0
 48
50.0
370
    -2
100
AcDbBlockReference
  2
_DOTSMALL
 10
7292.705848604349
 20
2306.090215385917
 30
0.0
 41
100.0
 42
100.0
 43
100.0
 50
90.0
  0
INSERT
  5
14ED4
330
14E2A
100
AcDbEntity
  8
寸法
 62
     0
 48
50.0
370
    -2
100
AcDbBlockReference
  2
_DOTSMALL
 10
7292.705848604348
 20
1866.015215385919
 30
0.0
 41
100.0
 42
100.0
 43
100.0
 50
270.0
  0
MTEXT
  5
14ED5
330
14E2A
100
AcDbEntity
  8
寸法
 62
     7
 48
50.0
100
AcDbMText
 10
7192.694037580726
 20
2086.05271538592
 30
0.0
 40
120.0
 41
0.0
 71
     5
 72
     1
  1
\A1;220
  7
STYLE1
 11
0.0000000000000001
 21
1.0
 31
0.0
 73
     1
 44
1.0
1001
ACAD
1000
MTEXTBEGIN
1070
    73
1070
     1
1070
    44
1040
1.0
1070
    74
1070
     0
1000
MTEXTEND
  0
POINT
  5
14ED6
330
14E2A
100
AcDbEntity
  8
DEFPOINTS
 62
     0
 48
50.0
100
AcDbPoint
 10
7523.6
 20
2306.090215385917
 30
0.0
  0
POINT
  5
14ED7
330
14E2A
100
AcDbEntity
  8
DEFPOINTS
 62
     0
 48
50.0
100
AcDbPoint
 10
7523.6
 20
1866.015215385919
 30
0.0
  0
POINT
  5
14ED8
330
14E2A
100
AcDbEntity
  8
DEFPOINTS
 62
     0
 48
50.0
100
AcDbPoint
 10
7292.705848604348
 20
1866.015215385919
 30
0.0
  0
ENDBLK
  5
14E2C
330
14E2A
100
AcDbEntity
  8
0
 48
50.0
100
AcDbBlockEnd
  0
BLOCK
  5
14E37
330
14E36
100
AcDbEntity
  8
0
 48
50.0
100
AcDbBlockBegin
  2
*D41
 70
     1
 10
0.0
 20
0.0
 30
0.0
  3
*D41
  1

  0
LINE
  5
14ED9
330
14E36
100
AcDbEntity
  8
寸法
 62
     0
 48
50.0
370
    -2
100
AcDbLine
 10
7503.6
 20
1866.015215385919
 30
0.0
 11
7232.705848604348
 21
1866.015215385919
 31
0.0
  0
LINE
  5
14EDA
330
14E36
100
AcDbEntity
  8
寸法
 62
     0
 48
50.0
370
    -2
100
AcDbLine
 10
7373.181219498855
 20
1505.965215385917
 30
0.0
 11
7232.705848604348
 21
1505.965215385917
 31
0.0
  0
LINE
  5
14EDB
330
14E36
100
AcDbEntity
  8
寸法
 62
     0
 48
50.0
370
    -2
100
AcDbLine
 10
7292.705848604348
 20
1866.015215385919
 30
0.0
 11
7292.705848604348
 21
1505.965215385917
 31
0.0
  0
INSERT
  5
14EDC
330
14E36
100
AcDbEntity
  8
寸法
 62
     0
 48
50.0
370
    -2
100
AcDbBlockReference
  2
_DOTSMALL
 10
7292.705848604348
 20
1866.015215385919
 30
0.0
 41
100.0
 42
100.0
 43
100.0
 50
90.0
  0
INSERT
  5
14EDD
330
14E36
100
AcDbEntity
  8
寸法
 62
     0
 48
50.0
370
    -2
100
AcDbBlockReference
  2
_DOTSMALL
 10
7292.705848604348
 20
1505.965215385917
 30
0.0
 41
100.0
 42
100.0
 43
100.0
 50
270.0
  0
MTEXT
  5
14EDE
330
14E36
100
AcDbEntity
  8
寸法
 62
     7
 48
50.0
100
AcDbMText
 10
7192.705848604347
 20
1687.090215385917
 30
0.0
 40
120.0
 41
0.0
 71
     5
 72
     1
  1
\A1;180
  7
STYLE1
 11
0.0000000000000001
 21
1.0
 31
0.0
 73
     1
 44
1.0
1001
ACAD
1000
MTEXTBEGIN
1070
    73
1070
     1
1070
    44
1040
1.0
1070
    74
1070
     0
1000
MTEXTEND
  0
POINT
  5
14EDF
330
14E36
100
AcDbEntity
  8
DEFPOINTS
 62
     0
 48
50.0
100
AcDbPoint
 10
7523.6
 20
1866.015215385919
 30
0.0
  0
POINT
  5
14EE0
330
14E36
100
AcDbEntity
  8
DEFPOINTS
 62
     0
 48
50.0
100
AcDbPoint
 10
7393.181219498853
 20
1505.965215385917
 30
0.0
  0
POINT
  5
14EE1
330
14E36
100
AcDbEntity
  8
DEFPOINTS
 62
     0
 48
50.0
100
AcDbPoint
 10
7292.705848604348
 20
1505.965215385917
 30
0.0
  0
ENDBLK
  5
14E38
330
14E36
100
AcDbEntity
  8
0
 48
50.0
100
AcDbBlockEnd
  0
BLOCK
  5
14E43
330
14E42
100
AcDbEntity
  8
0
 48
50.0
100
AcDbBlockBegin
  2
*D42
 70
     1
 10
0.0
 20
0.0
 30
0.0
  3
*D42
  1

  0
LINE
  5
14EE2
330
14E42
100
AcDbEntity
  8
寸法
 62
     0
 48
50.0
370
    -2
100
AcDbLine
 10
7503.6
 20
2405.965215385917
 30
0.0
 11
7232.705848604348
 21
2405.965215385917
 31
0.0
  0
LINE
  5
14EE3
330
14E42
100
AcDbEntity
  8
寸法
 62
     0
 48
50.0
370
    -2
100
AcDbLine
 10
7503.6
 20
2306.090215385917
 30
0.0
 11
7232.705848604348
 21
2306.090215385917
 31
0.0
  0
LINE
  5
14EE4
330
14E42
100
AcDbEntity
  8
寸法
 62
     0
 48
50.0
370
    -2
100
AcDbLine
 10
7292.705848604349
 20
2306.090215385917
 30
0.0
 11
7292.705848604349
 21
2405.965215385917
 31
0.0
  0
LINE
  5
14EE5
330
14E42
100
AcDbEntity
  8
寸法
 62
     0
 48
50.0
370
    -2
100
AcDbLine
 10
7292.705848604349
 20
2405.965215385917
 30
0.0
 11
7292.705848604349
 21
2718.05970357492
 31
0.0
  0
INSERT
  5
14EE6
330
14E42
100
AcDbEntity
  8
寸法
 62
     0
 48
50.0
370
    -2
100
AcDbBlockReference
  2
_DOTSMALL
 10
7292.705848604349
 20
2306.090215385917
 30
0.0
 41
100.0
 42
100.0
 43
100.0
 50
270.0
  0
INSERT
  5
14EE7
330
14E42
100
AcDbEntity
  8
寸法
 62
     0
 48
50.0
370
    -2
100
AcDbBlockReference
  2
_DOTSMALL
 10
7292.705848604349
 20
2405.965215385917
 30
0.0
 41
100.0
 42
100.0
 43
100.0
 50
90.0
  0
MTEXT
  5
14EE8
330
14E42
100
AcDbEntity
  8
寸法
 62
     7
 48
50.0
100
AcDbMText
 10
7192.705848604347
 20
2612.012459480433
 30
0.0
 40
120.0
 41
0.0
 71
     5
 72
     1
  1
\A1;50
  7
STYLE1
 11
0.0000000000000001
 21
1.0
 31
0.0
 73
     1
 44
1.0
1001
ACAD
1000
MTEXTBEGIN
1070
    73
1070
     1
1070
    44
1040
1.0
1070
    74
1070
     0
1000
MTEXTEND
  0
POINT
  5
14EE9
330
14E42
100
AcDbEntity
  8
DEFPOINTS
 62
     0
 48
50.0
100
AcDbPoint
 10
7523.6
 20
2405.965215385917
 30
0.0
  0
POINT
  5
14EEA
330
14E42
100
AcDbEntity
  8
DEFPOINTS
 62
     0
 48
50.0
100
AcDbPoint
 10
7523.6
 20
2306.090215385917
 30
0.0
  0
POINT
  5
14EEB
330
14E42
100
AcDbEntity
  8
DEFPOINTS
 62
     0
 48
50.0
100
AcDbPoint
 10
7292.705848604349
 20
2306.090215385917
 30
0.0
  0
ENDBLK
  5
14E44
330
14E42
100
AcDbEntity
  8
0
 48
50.0
100
AcDbBlockEnd
  0
BLOCK
  5
14E50
330
14E4F
100
AcDbEntity
  8
0
 48
50.0
100
AcDbBlockBegin
  2
*D43
 70
     1
 10
0.0
 20
0.0
 30
0.0
  3
*D43
  1

  0
LINE
  5
14EEC
330
14E4F
100
AcDbEntity
  8
寸法
 62
     0
 48
50.0
370
    -2
100
AcDbLine
 10
7801.100000000001
 20
2405.965215385859
 30
0.0
 11
7010.790083099997
 21
2405.965215385859
 31
0.0
  0
LINE
  5
14EED
330
14E4F
100
AcDbEntity
  8
寸法
 62
     0
 48
50.0
370
    -2
100
AcDbLine
 10
7849.975
 20
2505.965215385859
 30
0.0
 11
7010.790083099997
 21
2505.96521538586
 31
0.0
  0
LINE
  5
14EEE
330
14E4F
100
AcDbEntity
  8
寸法
 62
     0
 48
50.0
370
    -2
100
AcDbLine
 10
7070.790083099996
 20
2405.965215385859
 30
0.0
 11
7070.790083099996
 21
2505.96521538586
 31
0.0
  0
LINE
  5
14EEF
330
14E4F
100
AcDbEntity
  8
寸法
 62
     0
 48
50.0
370
    -2
100
AcDbLine
 10
7070.790083099996
 20
2505.96521538586
 30
0.0
 11
7070.790083099996
 21
2913.870727196912
 31
0.0
  0
INSERT
  5
14EF0
330
14E4F
100
AcDbEntity
  8
寸法
 62
     0
 48
50.0
370
    -2
100
AcDbBlockReference
  2
_DOTSMALL
 10
7070.790083099996
 20
2405.965215385859
 30
0.0
 41
100.0
 42
100.0
 43
100.0
 50
270.0
  0
INSERT
  5
14EF1
330
14E4F
100
AcDbEntity
  8
寸法
 62
     0
 48
50.0
370
    -2
100
AcDbBlockReference
  2
_DOTSMALL
 10
7070.790083099996
 20
2505.96521538586
 30
0.0
 41
100.0
 42
100.0
 43
100.0
 50
90.0
  0
MTEXT
  5
14EF2
330
14E4F
100
AcDbEntity
  8
寸法
 62
     7
 48
50.0
100
AcDbMText
 10
6964.790083099996
 20
2759.917971291401
 30
0.0
 40
120.0
 41
0.0
 71
     5
 72
     1
  1
\A1;(50)
  7
STYLE1
 11
0.0000000000000001
 21
1.0
 31
0.0
 73
     1
 44
1.0
1001
ACAD
1000
MTEXTBEGIN
1070
    73
1070
     1
1070
    44
1040
1.0
1070
    74
1070
     0
1000
MTEXTEND
  0
POINT
  5
14EF3
330
14E4F
100
AcDbEntity
  8
DEFPOINTS
 62
     0
 48
50.0
100
AcDbPoint
 10
7821.1
 20
2405.965215385859
 30
0.0
  0
POINT
  5
14EF4
330
14E4F
100
AcDbEntity
  8
DEFPOINTS
 62
     0
 48
50.0
100
AcDbPoint
 10
7869.975000000001
 20
2505.965215385859
 30
0.0
  0
POINT
  5
14EF5
330
14E4F
100
AcDbEntity
  8
DEFPOINTS
 62
     0
 48
50.0
100
AcDbPoint
 10
7070.790083099996
 20
2505.96521538586
 30
0.0
  0
ENDBLK
  5
14E51
330
14E4F
100
AcDbEntity
  8
0
 48
50.0
100
AcDbBlockEnd
  0
BLOCK
  5
14E5D
330
14E5C
100
AcDbEntity
  8
0
 48
50.0
100
AcDbBlockBegin
  2
*D44
 70
     1
 10
0.0
 20
0.0
 30
0.0
  3
*D44
  1

  0
LINE
  5
14EF6
330
14E5C
100
AcDbEntity
  8
寸法
 62
     0
 48
50.0
370
    -2
100
AcDbLine
 10
9741.124565305177
 20
1719.098588306493
 30
0.0
 11
9173.124565305176
 21
1719.098588306493
 31
0.0
  0
LINE
  5
14EF7
330
14E5C
100
AcDbEntity
  8
寸法
 62
     0
 48
50.0
370
    -2
100
AcDbLine
 10
9173.124565305176
 20
1719.098588306493
 30
0.0
 11
8329.605409256933
 21
1903.450072144242
 31
0.0
  0
MTEXT
  5
14EF8
330
14E5C
100
AcDbEntity
  8
寸法
 62
     7
 48
50.0
100
AcDbMText
 10
9477.124565305178
 20
1819.098588306493
 30
0.0
 40
120.0
 41
0.0
 71
     5
 72
     1
  1
\A1;カンザシ
  7
STYLE1
 73
     1
 44
1.0
1001
ACAD
1000
MTEXTBEGIN
1070
    73
1070
     1
1070
    44
1040
1.0
1070
    74
1070
     0
1000
MTEXTEND
  0
POINT
  5
14EF9
330
14E5C
100
AcDbEntity
  8
DEFPOINTS
 62
     0
 48
50.0
100
AcDbPoint
 10
8329.605409256933
 20
1903.450072144242
 30
0.0
  0
POINT
  5
14EFA
330
14E5C
100
AcDbEntity
  8
DEFPOINTS
 62
     0
 48
50.0
100
AcDbPoint
 10
8231.911339357855
 20
1924.801154237526
 30
0.0
  0
ENDBLK
  5
14E5E
330
14E5C
100
AcDbEntity
  8
0
 48
50.0
100
AcDbBlockEnd
  0
ENDSEC
  0
SECTION
  2
ENTITIES
  0
LINE
  5
10B56
330
747D
100
AcDbEntity
  8
仕様書枠
 48
50.0
100
AcDbLine
 10
140.0
 20
0.0
 30
0.0
 11
139.9999999999995
 21
11409.6
 31
0.0
  0
LINE
  5
10B57
330
747D
100
AcDbEntity
  8
仕様書枠
 48
50.0
100
AcDbLine
 10
139.9999999999995
 20
11409.6
 30
0.0
 11
16307.2
 21
11409.6
 31
0.0
  0
LINE
  5
10B59
330
747D
100
AcDbEntity
  8
仕様書枠
  6
Continuous
 48
50.0
100
AcDbLine
 10
13107.2
 20
1200.0
 30
0.0
 11
13107.2
 21
-0.0000000000000729
 31
0.0
  0
LINE
  5
10B5C
330
747D
100
AcDbEntity
  8
仕様書枠
 48
50.0
100
AcDbLine
 10
16307.2
 20
11409.6
 30
0.0
 11
16307.2
 21
-0.0000000000000909
 31
0.0
  0
LINE
  5
10B5D
330
747D
100
AcDbEntity
  8
仕様書枠
 48
50.0
100
AcDbLine
 10
140.0
 20
0.0
 30
0.0
 11
16307.2
 21
-0.0000000000000909
 31
0.0
  0
LINE
  5
10B6C
330
747D
100
AcDbEntity
  8
仕様書枠
 48
50.0
100
AcDbLine
 10
13107.2
 20
1200.0
 30
0.0
 11
16307.2
 21
1200.0
 31
0.0
  0
LINE
  5
10B72
330
747D
100
AcDbEntity
  8
文字
 62
     7
 48
50.0
100
AcDbLine
 10
13187.2
 20
400.0
 30
0.0
 11
16227.2
 21
400.0
 31
0.0
  0
TEXT
  5
10B73
330
747D
100
AcDbEntity
  8
文字
 48
50.0
100
AcDbText
 10
13162.9790565769
 20
895.0906074299405
 30
0.0
 40
200.0
  1
基 礎 図
  7
STYLE2
100
AcDbText
  0
TEXT
  5
10B74
330
747D
100
AcDbEntity
  8
文字
 48
50.0
100
AcDbText
 10
13201.43669998441
 20
477.2740661031255
 30
0.0
 40
160.0
  1
機種名
  7
STYLE2
100
AcDbText
  0
TEXT
  5
10B75
330
747D
100
AcDbEntity
  8
文字
 48
50.0
100
AcDbText
 10
13209.4053442172
 20
228.5435242569016
 30
0.0
 40
100.0
  1
○間口奥行寸法は柱芯寸法です。
  7
STYLE2
100
AcDbText
  0
LINE
  5
10B7B
330
747D
100
AcDbEntity
  8
仕様書枠
 48
50.0
100
AcDbLine
 10
13107.2
 20
800.0
 30
0.0
 11
14251.2
 21
800.0
 31
0.0
  0
LINE
  5
10B88
330
747D
100
AcDbEntity
  8
仕様書枠
  6
Continuous
 48
50.0
100
AcDbLine
 10
14251.2
 20
1200.0
 30
0.0
 11
14251.2
 21
800.0
 31
0.0
  0
TEXT
  5
133D6
330
747D
100
AcDbEntity
  8
文字
 62
     7
 48
50.0
100
AcDbText
 10
14547.8113764045
 20
483.8967129911414
 30
0.0
 40
160.0
  1
BM-２８（S）L-２
  7
STYLE2
100
AcDbText
  0
TEXT
  5
139C0
330
747D
100
AcDbEntity
  8
文字
 62
     7
 48
50.0
100
AcDbText
 10
15295.38181818182
 20
1031.557706291229
 30
0.0
 40
100.0
  1
<縮尺> S=1/40
  7
STYLE2
 72
     2
 11
16227.2
 21
1031.557706291229
 31
0.0
100
AcDbText
  0
TEXT
  5
139C4
330
747D
100
AcDbEntity
  8
文字
 62
     7
 48
50.0
100
AcDbText
 10
14918.10909090909
 20
838.2527270729188
 30
0.0
 40
100.0
  1
～一般型（豪雪型）～
  7
STYLE2
 72
     2
 11
16227.2
 21
838.2527270729188
 31
0.0
100
AcDbText
  0
MTEXT
  5
13C2E
330
747D
100
AcDbEntity
  8
部品1
 62
     7
 48
50.0
100
AcDbMText
 10
9967.404864763784
 20
982.7035223138155
 30
0.0
 40
120.0
 41
0.0
 71
     1
 72
     1
  1
\A1;（注意）\P　基礎寸法は標準施工を示します。\P　地域の実情に合わせて設計してください。
  7
STYLE1
 73
     1
 44
1.0
1001
ACAD
1000
MTEXTBEGIN
1070
    73
1070
     1
1070
    44
1040
1.0
1070
    74
1070
     0
1000
MTEXTEND
  0
LINE
  5
13C5D
330
747D
100
AcDbEntity
  8
点線
 48
50.0
100
AcDbLine
 10
5223.6
 20
8279.125
 30
0.0
 11
5223.6
 21
5929.125000000002
 31
0.0
  0
LINE
  5
13C5E
330
747D
100
AcDbEntity
  8
点線
 48
50.0
100
AcDbLine
 10
11223.6
 20
8279.125
 30
0.0
 11
5223.600000000001
 21
8279.125
 31
0.0
  0
LINE
  5
13C5F
330
747D
100
AcDbEntity
  8
点線
 48
50.0
100
AcDbLine
 10
11223.6
 20
8279.125
 30
0.0
 11
11223.6
 21
5929.125000000002
 31
0.0
  0
LINE
  5
13C61
102
{ACAD_REACTORS
330
13C9D
102
}
330
747D
100
AcDbEntity
  8
センター
 48
50.0
100
AcDbLine
 10
5673.6
 20
6429.125
 30
0.0
 11
5173.6
 21
6429.125
 31
0.0
  0
LINE
  5
13C62
102
{ACAD_REACTORS
330
13C9D
102
}
330
747D
100
AcDbEntity
  8
センター
 48
50.0
100
AcDbLine
 10
5423.6
 20
6679.125
 30
0.0
 11
5423.6
 21
6179.125000000002
 31
0.0
  0
LINE
  5
13C63
102
{ACAD_REACTORS
330
13C9D
102
}
330
747D
100
AcDbEntity
  8
文字
 48
50.0
100
AcDbLine
 10
5453.6
 20
6399.125000000001
 30
0.0
 11
5393.600000000001
 21
6399.125000000001
 31
0.0
  0
LINE
  5
13C64
102
{ACAD_REACTORS
330
13C9D
102
}
330
747D
100
AcDbEntity
  8
文字
 48
50.0
100
AcDbLine
 10
5453.6
 20
6459.125000000002
 30
0.0
 11
5393.600000000001
 21
6459.125000000002
 31
0.0
  0
LINE
  5
13C65
102
{ACAD_REACTORS
330
13C9D
102
}
330
747D
100
AcDbEntity
  8
文字
 48
50.0
100
AcDbLine
 10
5393.600000000001
 20
6459.125000000003
 30
0.0
 11
5393.600000000001
 21
6399.125000000001
 31
0.0
  0
LINE
  5
13C66
102
{ACAD_REACTORS
330
13C9D
102
}
330
747D
100
AcDbEntity
  8
文字
 48
50.0
100
AcDbLine
 10
5453.6
 20
6459.125000000003
 30
0.0
 11
5453.6
 21
6399.125000000001
 31
0.0
  0
LINE
  5
13C67
102
{ACAD_REACTORS
330
13C9D
102
}
330
747D
100
AcDbEntity
  8
部品1
 48
50.0
100
AcDbLine
 10
5073.6
 20
6079.125000000001
 30
0.0
 11
5073.6
 21
6779.125
 31
0.0
  0
LINE
  5
13C68
102
{ACAD_REACTORS
330
13C9D
102
}
330
747D
100
AcDbEntity
  8
部品1
 48
50.0
100
AcDbLine
 10
5073.6
 20
6779.125
 30
0.0
 11
5773.6
 21
6779.125
 31
0.0
  0
LINE
  5
13C69
102
{ACAD_REACTORS
330
13C9D
102
}
330
747D
100
AcDbEntity
  8
部品1
 48
50.0
100
AcDbLine
 10
5773.6
 20
6779.125
 30
0.0
 11
5773.6
 21
6079.125000000001
 31
0.0
  0
LINE
  5
13C6A
102
{ACAD_REACTORS
330
13C9D
102
}
330
747D
100
AcDbEntity
  8
部品1
 48
50.0
100
AcDbLine
 10
5773.6
 20
6079.125000000001
 30
0.0
 11
5073.6
 21
6079.125000000001
 31
0.0
  0
LINE
  5
13C6B
102
{ACAD_REACTORS
330
13C9D
102
}
330
747D
100
AcDbEntity
  8
センター
 48
50.0
100
AcDbLine
 10
5673.6
 20
8079.125000000001
 30
0.0
 11
5173.6
 21
8079.125000000001
 31
0.0
  0
LINE
  5
13C6C
102
{ACAD_REACTORS
330
13C9D
102
}
330
747D
100
AcDbEntity
  8
センター
 48
50.0
100
AcDbLine
 10
5423.6
 20
8329.125000000001
 30
0.0
 11
5423.6
 21
7829.125000000003
 31
0.0
  0
LINE
  5
13C6D
102
{ACAD_REACTORS
330
13C9D
102
}
330
747D
100
AcDbEntity
  8
文字
 48
50.0
100
AcDbLine
 10
5453.6
 20
8049.125000000001
 30
0.0
 11
5393.600000000001
 21
8049.125000000001
 31
0.0
  0
LINE
  5
13C6E
102
{ACAD_REACTORS
330
13C9D
102
}
330
747D
100
AcDbEntity
  8
文字
 48
50.0
100
AcDbLine
 10
5453.6
 20
8109.125000000002
 30
0.0
 11
5393.600000000001
 21
8109.125000000002
 31
0.0
  0
LINE
  5
13C6F
102
{ACAD_REACTORS
330
13C9D
102
}
330
747D
100
AcDbEntity
  8
文字
 48
50.0
100
AcDbLine
 10
5393.600000000001
 20
8109.125000000004
 30
0.0
 11
5393.600000000001
 21
8049.125000000001
 31
0.0
  0
LINE
  5
13C70
102
{ACAD_REACTORS
330
13C9D
102
}
330
747D
100
AcDbEntity
  8
文字
 48
50.0
100
AcDbLine
 10
5453.6
 20
8109.125000000004
 30
0.0
 11
5453.6
 21
8049.125000000001
 31
0.0
  0
LINE
  5
13C71
102
{ACAD_REACTORS
330
13C9D
102
}
330
747D
100
AcDbEntity
  8
部品1
 48
50.0
100
AcDbLine
 10
5073.6
 20
7729.125
 30
0.0
 11
5073.6
 21
8429.125
 31
0.0
  0
LINE
  5
13C72
102
{ACAD_REACTORS
330
13C9D
102
}
330
747D
100
AcDbEntity
  8
部品1
 48
50.0
100
AcDbLine
 10
5073.6
 20
8429.125
 30
0.0
 11
5773.6
 21
8429.125
 31
0.0
  0
LINE
  5
13C73
102
{ACAD_REACTORS
330
13C9D
102
}
330
747D
100
AcDbEntity
  8
部品1
 48
50.0
100
AcDbLine
 10
5773.6
 20
8429.125
 30
0.0
 11
5773.6
 21
7729.125
 31
0.0
  0
LINE
  5
13C74
102
{ACAD_REACTORS
330
13C9D
102
}
330
747D
100
AcDbEntity
  8
部品1
 48
50.0
100
AcDbLine
 10
5773.6
 20
7729.125
 30
0.0
 11
5073.6
 21
7729.125
 31
0.0
  0
LINE
  5
13C75
102
{ACAD_REACTORS
330
13C9D
102
}
330
747D
100
AcDbEntity
  8
センター
 48
50.0
100
AcDbLine
 10
8473.600000000001
 20
6429.125
 30
0.0
 11
7973.600000000001
 21
6429.125
 31
0.0
  0
LINE
  5
13C76
102
{ACAD_REACTORS
330
13C9D
102
}
330
747D
100
AcDbEntity
  8
センター
 48
50.0
100
AcDbLine
 10
8223.600000000001
 20
6679.125
 30
0.0
 11
8223.600000000001
 21
6179.125000000002
 31
0.0
  0
LINE
  5
13C77
102
{ACAD_REACTORS
330
13C9D
102
}
330
747D
100
AcDbEntity
  8
文字
 48
50.0
100
AcDbLine
 10
8253.6
 20
6399.125000000001
 30
0.0
 11
8193.600000000001
 21
6399.125000000001
 31
0.0
  0
LINE
  5
13C78
102
{ACAD_REACTORS
330
13C9D
102
}
330
747D
100
AcDbEntity
  8
文字
 48
50.0
100
AcDbLine
 10
8253.6
 20
6459.125000000002
 30
0.0
 11
8193.600000000001
 21
6459.125000000002
 31
0.0
  0
LINE
  5
13C79
102
{ACAD_REACTORS
330
13C9D
102
}
330
747D
100
AcDbEntity
  8
文字
 48
50.0
100
AcDbLine
 10
8193.600000000001
 20
6459.125000000003
 30
0.0
 11
8193.600000000001
 21
6399.125000000001
 31
0.0
  0
LINE
  5
13C7A
102
{ACAD_REACTORS
330
13C9D
102
}
330
747D
100
AcDbEntity
  8
文字
 48
50.0
100
AcDbLine
 10
8253.6
 20
6459.125000000003
 30
0.0
 11
8253.6
 21
6399.125000000001
 31
0.0
  0
LINE
  5
13C7B
102
{ACAD_REACTORS
330
13C9D
102
}
330
747D
100
AcDbEntity
  8
部品1
 48
50.0
100
AcDbLine
 10
7873.6
 20
6079.125000000001
 30
0.0
 11
7873.6
 21
6779.125
 31
0.0
  0
LINE
  5
13C7C
102
{ACAD_REACTORS
330
13C9D
102
}
330
747D
100
AcDbEntity
  8
部品1
 48
50.0
100
AcDbLine
 10
7873.6
 20
6779.125
 30
0.0
 11
8573.6
 21
6779.125
 31
0.0
  0
LINE
  5
13C7D
102
{ACAD_REACTORS
330
13C9D
102
}
330
747D
100
AcDbEntity
  8
部品1
 48
50.0
100
AcDbLine
 10
8573.6
 20
6779.125
 30
0.0
 11
8573.6
 21
6079.125000000001
 31
0.0
  0
LINE
  5
13C7E
102
{ACAD_REACTORS
330
13C9D
102
}
330
747D
100
AcDbEntity
  8
部品1
 48
50.0
100
AcDbLine
 10
8573.6
 20
6079.125000000001
 30
0.0
 11
7873.6
 21
6079.125000000001
 31
0.0
  0
LINE
  5
13C7F
102
{ACAD_REACTORS
330
13C9D
102
}
330
747D
100
AcDbEntity
  8
センター
 48
50.0
100
AcDbLine
 10
8473.600000000001
 20
8079.125000000001
 30
0.0
 11
7973.600000000001
 21
8079.125000000001
 31
0.0
  0
LINE
  5
13C80
102
{ACAD_REACTORS
330
13C9D
102
}
330
747D
100
AcDbEntity
  8
センター
 48
50.0
100
AcDbLine
 10
8223.600000000001
 20
8329.125000000001
 30
0.0
 11
8223.600000000001
 21
7829.125000000003
 31
0.0
  0
LINE
  5
13C81
102
{ACAD_REACTORS
330
13C9D
102
}
330
747D
100
AcDbEntity
  8
文字
 48
50.0
100
AcDbLine
 10
8253.6
 20
8049.125000000001
 30
0.0
 11
8193.600000000001
 21
8049.125000000001
 31
0.0
  0
LINE
  5
13C82
102
{ACAD_REACTORS
330
13C9D
102
}
330
747D
100
AcDbEntity
  8
文字
 48
50.0
100
AcDbLine
 10
8253.6
 20
8109.125000000002
 30
0.0
 11
8193.600000000001
 21
8109.125000000002
 31
0.0
  0
LINE
  5
13C83
102
{ACAD_REACTORS
330
13C9D
102
}
330
747D
100
AcDbEntity
  8
文字
 48
50.0
100
AcDbLine
 10
8193.600000000001
 20
8109.125000000004
 30
0.0
 11
8193.600000000001
 21
8049.125000000001
 31
0.0
  0
LINE
  5
13C84
102
{ACAD_REACTORS
330
13C9D
102
}
330
747D
100
AcDbEntity
  8
文字
 48
50.0
100
AcDbLine
 10
8253.6
 20
8109.125000000004
 30
0.0
 11
8253.6
 21
8049.125000000001
 31
0.0
  0
LINE
  5
13C85
102
{ACAD_REACTORS
330
13C9D
102
}
330
747D
100
AcDbEntity
  8
部品1
 48
50.0
100
AcDbLine
 10
7873.6
 20
7729.125
 30
0.0
 11
7873.6
 21
8429.125
 31
0.0
  0
LINE
  5
13C86
102
{ACAD_REACTORS
330
13C9D
102
}
330
747D
100
AcDbEntity
  8
部品1
 48
50.0
100
AcDbLine
 10
7873.6
 20
8429.125
 30
0.0
 11
8573.6
 21
8429.125
 31
0.0
  0
LINE
  5
13C87
102
{ACAD_REACTORS
330
13C9D
102
}
330
747D
100
AcDbEntity
  8
部品1
 48
50.0
100
AcDbLine
 10
8573.6
 20
8429.125
 30
0.0
 11
8573.6
 21
7729.125
 31
0.0
  0
LINE
  5
13C88
102
{ACAD_REACTORS
330
13C9D
102
}
330
747D
100
AcDbEntity
  8
部品1
 48
50.0
100
AcDbLine
 10
8573.6
 20
7729.125
 30
0.0
 11
7873.6
 21
7729.125
 31
0.0
  0
LINE
  5
13C89
102
{ACAD_REACTORS
330
13C9D
102
}
330
747D
100
AcDbEntity
  8
センター
 48
50.0
100
AcDbLine
 10
11273.6
 20
6429.125
 30
0.0
 11
10773.6
 21
6429.125
 31
0.0
  0
LINE
  5
13C8A
102
{ACAD_REACTORS
330
13C9D
102
}
330
747D
100
AcDbEntity
  8
センター
 48
50.0
100
AcDbLine
 10
11023.6
 20
6679.125
 30
0.0
 11
11023.6
 21
6179.125000000002
 31
0.0
  0
LINE
  5
13C8B
102
{ACAD_REACTORS
330
13C9D
102
}
330
747D
100
AcDbEntity
  8
文字
 48
50.0
100
AcDbLine
 10
11053.6
 20
6399.125000000001
 30
0.0
 11
10993.6
 21
6399.125000000001
 31
0.0
  0
LINE
  5
13C8C
102
{ACAD_REACTORS
330
13C9D
102
}
330
747D
100
AcDbEntity
  8
文字
 48
50.0
100
AcDbLine
 10
11053.6
 20
6459.125000000002
 30
0.0
 11
10993.6
 21
6459.125000000002
 31
0.0
  0
LINE
  5
13C8D
102
{ACAD_REACTORS
330
13C9D
102
}
330
747D
100
AcDbEntity
  8
文字
 48
50.0
100
AcDbLine
 10
10993.6
 20
6459.125000000003
 30
0.0
 11
10993.6
 21
6399.125000000001
 31
0.0
  0
LINE
  5
13C8E
102
{ACAD_REACTORS
330
13C9D
102
}
330
747D
100
AcDbEntity
  8
文字
 48
50.0
100
AcDbLine
 10
11053.6
 20
6459.125000000003
 30
0.0
 11
11053.6
 21
6399.125000000001
 31
0.0
  0
LINE
  5
13C8F
102
{ACAD_REACTORS
330
13C9D
102
}
330
747D
100
AcDbEntity
  8
部品1
 48
50.0
100
AcDbLine
 10
10673.6
 20
6079.125000000001
 30
0.0
 11
10673.6
 21
6779.125
 31
0.0
  0
LINE
  5
13C90
102
{ACAD_REACTORS
330
13C9D
102
}
330
747D
100
AcDbEntity
  8
部品1
 48
50.0
100
AcDbLine
 10
10673.6
 20
6779.125
 30
0.0
 11
11373.6
 21
6779.125
 31
0.0
  0
LINE
  5
13C91
102
{ACAD_REACTORS
330
13C9D
102
}
330
747D
100
AcDbEntity
  8
部品1
 48
50.0
100
AcDbLine
 10
11373.6
 20
6779.125
 30
0.0
 11
11373.6
 21
6079.125000000001
 31
0.0
  0
LINE
  5
13C92
102
{ACAD_REACTORS
330
13C9D
102
}
330
747D
100
AcDbEntity
  8
部品1
 48
50.0
100
AcDbLine
 10
11373.6
 20
6079.125000000001
 30
0.0
 11
10673.6
 21
6079.125000000001
 31
0.0
  0
LINE
  5
13C93
102
{ACAD_REACTORS
330
13C9D
102
}
330
747D
100
AcDbEntity
  8
センター
 48
50.0
100
AcDbLine
 10
11273.6
 20
8079.125000000001
 30
0.0
 11
10773.6
 21
8079.125000000001
 31
0.0
  0
LINE
  5
13C94
102
{ACAD_REACTORS
330
13C9D
102
}
330
747D
100
AcDbEntity
  8
センター
 48
50.0
100
AcDbLine
 10
11023.6
 20
8329.125000000001
 30
0.0
 11
11023.6
 21
7829.125000000003
 31
0.0
  0
LINE
  5
13C95
102
{ACAD_REACTORS
330
13C9D
102
}
330
747D
100
AcDbEntity
  8
文字
 48
50.0
100
AcDbLine
 10
11053.6
 20
8049.125000000001
 30
0.0
 11
10993.6
 21
8049.125000000001
 31
0.0
  0
LINE
  5
13C96
102
{ACAD_REACTORS
330
13C9D
102
}
330
747D
100
AcDbEntity
  8
文字
 48
50.0
100
AcDbLine
 10
11053.6
 20
8109.125000000002
 30
0.0
 11
10993.6
 21
8109.125000000002
 31
0.0
  0
LINE
  5
13C97
102
{ACAD_REACTORS
330
13C9D
102
}
330
747D
100
AcDbEntity
  8
文字
 48
50.0
100
AcDbLine
 10
10993.6
 20
8109.125000000004
 30
0.0
 11
10993.6
 21
8049.125000000001
 31
0.0
  0
LINE
  5
13C98
102
{ACAD_REACTORS
330
13C9D
102
}
330
747D
100
AcDbEntity
  8
文字
 48
50.0
100
AcDbLine
 10
11053.6
 20
8109.125000000004
 30
0.0
 11
11053.6
 21
8049.125000000001
 31
0.0
  0
LINE
  5
13C99
102
{ACAD_REACTORS
330
13C9D
102
}
330
747D
100
AcDbEntity
  8
部品1
 48
50.0
100
AcDbLine
 10
10673.6
 20
7729.125
 30
0.0
 11
10673.6
 21
8429.125
 31
0.0
  0
LINE
  5
13C9A
102
{ACAD_REACTORS
330
13C9D
102
}
330
747D
100
AcDbEntity
  8
部品1
 48
50.0
100
AcDbLine
 10
10673.6
 20
8429.125
 30
0.0
 11
11373.6
 21
8429.125
 31
0.0
  0
LINE
  5
13C9B
102
{ACAD_REACTORS
330
13C9D
102
}
330
747D
100
AcDbEntity
  8
部品1
 48
50.0
100
AcDbLine
 10
11373.6
 20
8429.125
 30
0.0
 11
11373.6
 21
7729.125
 31
0.0
  0
LINE
  5
13C9C
102
{ACAD_REACTORS
330
13C9D
102
}
330
747D
100
AcDbEntity
  8
部品1
 48
50.0
100
AcDbLine
 10
11373.6
 20
7729.125
 30
0.0
 11
10673.6
 21
7729.125
 31
0.0
  0
LINE
  5
13CB0
330
747D
100
AcDbEntity
  8
点線
 48
50.0
100
AcDbLine
 10
5223.600000000001
 20
5929.125000000001
 30
0.0
 11
11223.6
 21
5929.125000000002
 31
0.0
  0
DIMENSION
  5
13CD3
330
747D
100
AcDbEntity
  8
寸法
 48
50.0
100
AcDbDimension
  2
*D9
 10
11023.6
 20
5518.802085134339
 30
0.0
 11
9623.600000000001
 21
5618.813896157961
 31
0.0
 70
    32
 71
     5
 42
2800.0
  3
INABA_S40G
100
AcDbAlignedDimension
 13
8223.600000000001
 23
6179.125000000002
 33
0.0
 14
11023.6
 24
6179.125000000002
 34
0.0
100
AcDbRotatedDimension
1001
ACAD
1000
DSTYLE
1002
{
1070
   341
1005
0
1002
}
  0
DIMENSION
  5
13CE0
330
747D
100
AcDbEntity
  8
寸法
 48
50.0
100
AcDbDimension
  2
*D10
 10
5423.6
 20
5518.802085134339
 30
0.0
 11
4974.029133858266
 21
5518.802085134339
 31
0.0
 70
   160
 71
     5
 42
200.0
  3
INABA_S40G
100
AcDbAlignedDimension
 13
5223.600000000001
 23
5929.125000000001
 33
0.0
 14
5423.6
 24
6179.125000000002
 34
0.0
100
AcDbRotatedDimension
1001
ACAD
1000
DSTYLE
1002
{
1070
   341
1005
0
1002
}
  0
DIMENSION
  5
13CEF
330
747D
100
AcDbEntity
  8
寸法
 48
50.0
100
AcDbDimension
  2
*D11
 10
11223.6
 20
5518.802085134339
 30
0.0
 11
11473.17086614174
 21
5518.802085134339
 31
0.0
 70
   160
 71
     5
 42
200.0000000000055
  3
INABA_S40G
100
AcDbAlignedDimension
 13
11023.6
 23
6179.125000000002
 33
0.0
 14
11223.6
 24
5929.125000000002
 34
0.0
100
AcDbRotatedDimension
1001
ACAD
1000
DSTYLE
1002
{
1070
   341
1005
0
1002
}
  0
DIMENSION
  5
13D38
330
747D
100
AcDbEntity
  8
寸法
 48
50.0
100
AcDbDimension
  2
*D12
 10
11223.6
 20
5157.857797904151
 30
0.0
 11
8223.600000000002
 21
5257.857797904151
 31
0.0
 70
    32
  1
基礎寸法 <>
 71
     5
 42
6000.000000000006
  3
INABA_S40G
100
AcDbAlignedDimension
 13
5223.600000000001
 23
5929.125000000001
 33
0.0
 14
11223.6
 24
5929.125000000002
 34
0.0
100
AcDbRotatedDimension
1001
ACAD
1000
DSTYLE
1002
{
1070
   341
1005
0
1002
}
  0
LINE
  5
13D9A
330
747D
100
AcDbEntity
  8
文字
 48
50.0
100
AcDbLine
 10
9360.279489323017
 20
7352.435661752614
 30
0.0
 11
9360.279489323017
 21
5994.658455561028
 31
0.0
  0
LINE
  5
13D9B
330
747D
100
AcDbEntity
  8
文字
 48
50.0
100
AcDbLine
 10
9360.279489323017
 20
5994.658455561028
 30
0.0
 11
9316.481778879266
 21
6158.113736192299
 31
0.0
  0
LINE
  5
13D9C
330
747D
100
AcDbEntity
  8
文字
 48
50.0
100
AcDbLine
 10
9360.279489323017
 20
5994.658455561028
 30
0.0
 11
9404.077199766771
 21
6158.113736192299
 31
0.0
  0
MTEXT
  5
13DA6
330
747D
100
AcDbEntity
  8
寸法
 62
     7
 48
50.0
100
AcDbMText
 10
8791.192623854515
 20
7571.720073640666
 30
0.0
 40
120.0
 41
0.0
 71
     4
 72
     1
  1
\A1;床コンクリート打コテ押エ
  7
STYLE1
 73
     1
 44
1.0
1001
ACAD
1000
MTEXTBEGIN
1070
    73
1070
     1
1070
    44
1040
1.0
1070
    74
1070
     0
1000
MTEXTEND
  0
MTEXT
  5
13DA7
330
747D
100
AcDbEntity
  8
寸法
 62
     7
 48
50.0
100
AcDbMText
 10
9241.717968139829
 20
6216.685383760501
 30
0.0
 40
120.0
 41
0.0
 71
     4
 72
     1
  1
\A1;水勾配１／１００ 
  7
STYLE1
 11
0.0000000000000001
 21
1.0
 31
0.0
 73
     1
 44
1.0
1001
ACAD
1000
MTEXTBEGIN
1070
    73
1070
     1
1070
    44
1040
1.0
1070
    74
1070
     0
1000
MTEXTEND
  0
DIMENSION
  5
13DC4
330
747D
100
AcDbEntity
  8
寸法
 48
50.0
100
AcDbDimension
  2
*D13
 10
5773.6
 20
6933.019908717607
 30
0.0
 11
5423.6
 21
7033.019908717607
 31
0.0
 70
    32
 71
     5
 42
700.0
  3
INABA_S40G
100
AcDbAlignedDimension
 13
5073.6
 23
6779.125
 33
0.0
 14
5773.6
 24
6779.125
 34
0.0
100
AcDbRotatedDimension
  0
DIMENSION
  5
13DC6
330
747D
100
AcDbEntity
  8
寸法
 48
50.0
100
AcDbDimension
  2
*D14
 10
6051.598666593929
 20
6079.125000000001
 30
0.0
 11
5951.598666593928
 21
6429.125000000002
 31
0.0
 70
    32
 71
     5
 42
700.0
  3
INABA_S40G
100
AcDbAlignedDimension
 13
5773.6
 23
6779.125
 33
0.0
 14
5773.6
 24
6079.125000000001
 34
0.0
 50
90.0
100
AcDbRotatedDimension
  0
DIMENSION
  5
13FFE
330
747D
100
AcDbEntity
  8
寸法
 48
50.0
100
AcDbDimension
  2
*D15
 10
5505.072684682272
 20
6487.109494915991
 30
0.0
 11
4839.318245188582
 21
6081.612566356157
 31
0.0
 70
   163
  1
柱
 71
     5
 42
99.99999999999728
  3
INABA_S40G
100
AcDbDiametricDimension
 15
5423.600000000001
 25
6429.124999999999
 35
0.0
 40
0.0
1001
ACAD_DSTYLE_DIMRADIAL_EXTENSION
1070
   387
1070
     1
1070
   388
1040
0.0
1070
   390
1040
0.0
1001
ACAD
1000
DSTYLE
1002
{
1070
    73
1070
     1
1070
    74
1070
     1
1070
   172
1070
     0
1070
   272
1070
     1
1070
   341
1005
0
1070
   343
1005
140BC
1070
   344
1005
DEAC
1002
}
  0
DIMENSION
  5
1452B
330
747D
100
AcDbEntity
  8
寸法
 48
50.0
100
AcDbDimension
  2
*D19
 10
4673.596280819003
 20
8079.125000000001
 30
0.0
 11
4673.596280819002
 21
8528.695866141735
 31
0.0
 70
   160
 71
     5
 42
200.0
  3
INABA_S40G
100
AcDbAlignedDimension
 13
5223.600000000001
 23
8279.125
 33
0.0
 14
5173.6
 24
8079.125000000001
 34
0.0
 50
90.0
100
AcDbRotatedDimension
1001
ACAD
1000
DSTYLE
1002
{
1070
   272
1070
     1
1070
   341
1005
0
1002
}
  0
DIMENSION
  5
1453A
330
747D
100
AcDbEntity
  8
寸法
 48
50.0
100
AcDbDimension
  2
*D20
 10
4673.596280819002
 20
6429.125
 30
0.0
 11
4573.596280819001
 21
7254.125000000001
 31
0.0
 70
    32
 71
     5
 42
1650.0
  3
INABA_S40G
100
AcDbAlignedDimension
 13
5173.6
 23
8079.125000000001
 33
0.0
 14
5173.6
 24
6429.125
 34
0.0
 50
90.0
100
AcDbRotatedDimension
1001
ACAD
1000
DSTYLE
1002
{
1070
   272
1070
     1
1070
   341
1005
0
1002
}
  0
DIMENSION
  5
14547
330
747D
100
AcDbEntity
  8
寸法
 48
50.0
100
AcDbDimension
  2
*D21
 10
4673.596280819002
 20
5929.125000000001
 30
0.0
 11
4573.596280819002
 21
6179.125000000002
 31
0.0
 70
    32
 71
     5
 42
500.0
  3
INABA_S40G
100
AcDbAlignedDimension
 13
5173.6
 23
6429.125
 33
0.0
 14
5223.600000000001
 24
5929.125000000001
 34
0.0
 50
90.0
100
AcDbRotatedDimension
1001
ACAD
1000
DSTYLE
1002
{
1070
   272
1070
     1
1070
   341
1005
0
1002
}
  0
DIMENSION
  5
14566
330
747D
100
AcDbEntity
  8
寸法
 48
50.0
100
AcDbDimension
  2
*D22
 10
4401.963560707749
 20
5929.125000000001
 30
0.0
 11
4301.951749684127
 21
7104.125000000002
 31
0.0
 70
    32
  1
基礎寸法 <>
 71
     5
 42
2350.0
  3
INABA_S40G
100
AcDbAlignedDimension
 13
5223.600000000001
 23
8279.125
 33
0.0
 14
5223.600000000001
 24
5929.125000000001
 34
0.0
 50
90.0
100
AcDbRotatedDimension
1001
ACAD
1000
DSTYLE
1002
{
1070
   272
1070
     1
1070
   341
1005
0
1002
}
  0
DIMENSION
  5
145F3
330
747D
100
AcDbEntity
  8
寸法
 48
50.0
100
AcDbDimension
  2
*D23
 10
5423.6
 20
8790.776510025567
 30
0.0
 11
5308.600000000001
 21
8790.776510025567
 31
0.0
 70
   160
 71
     5
 42
230.0
  3
INABA_S40G
100
AcDbAlignedDimension
 13
5193.6
 23
8352.124999999999
 33
0.0
 14
5423.6
 24
8329.125000000001
 34
0.0
100
AcDbRotatedDimension
1001
ACAD
1000
DSTYLE
1002
{
1070
   272
1070
     1
1070
   341
1005
0
1002
}
  0
LINE
  5
1463C
330
747D
100
AcDbEntity
  8
想像線
 48
50.0
100
AcDbLine
 10
11253.6
 20
8352.124999999999
 30
0.0
 11
11253.6
 21
5922.125000000001
 31
0.0
  0
LINE
  5
1463D
330
747D
100
AcDbEntity
  8
想像線
 48
50.0
100
AcDbLine
 10
5193.6
 20
8352.124999999999
 30
0.0
 11
5193.6
 21
7104.125
 31
0.0
  0
LINE
  5
1463F
330
747D
100
AcDbEntity
  8
想像線
 48
50.0
100
AcDbLine
 10
9623.600000000001
 20
5922.125000000001
 30
0.0
 11
11253.6
 21
5922.125000000001
 31
0.0
  0
LINE
  5
14641
330
747D
100
AcDbEntity
  8
想像線
 48
50.0
100
AcDbLine
 10
5193.6
 20
8352.124999999999
 30
0.0
 11
11253.6
 21
8352.124999999999
 31
0.0
  0
DIMENSION
  5
14969
330
747D
100
AcDbEntity
  8
寸法
 48
50.0
100
AcDbDimension
  2
*D24
 10
11253.6
 20
9062.854561661417
 30
0.0
 11
8223.600000000001
 21
9162.854561661417
 31
0.0
 70
    32
  1
屋根寸法 <>
 71
     5
 42
6060.0
  3
INABA_S40G
100
AcDbAlignedDimension
 13
5193.6
 23
8352.124999999999
 33
0.0
 14
11253.6
 24
8352.124999999999
 34
0.0
100
AcDbRotatedDimension
1001
ACAD
1000
DSTYLE
1002
{
1070
   272
1070
     1
1070
   341
1005
0
1002
}
  0
DIMENSION
  5
14988
330
747D
100
AcDbEntity
  8
寸法
 48
50.0
100
AcDbDimension
  2
*D25
 10
11253.6
 20
8790.776510025567
 30
0.0
 11
11138.6
 21
8790.776510025567
 31
0.0
 70
   160
 71
     5
 42
230.0
  3
INABA_S40G
100
AcDbAlignedDimension
 13
11023.6
 23
8329.125000000001
 33
0.0
 14
11253.6
 24
8352.124999999999
 34
0.0
100
AcDbRotatedDimension
1001
ACAD
1000
DSTYLE
1002
{
1070
   272
1070
     1
1070
   341
1005
0
1002
}
  0
DIMENSION
  5
14A0C
330
747D
100
AcDbEntity
  8
寸法
 48
50.0
100
AcDbDimension
  2
*D26
 10
9122.341649320176
 20
8271.175113868848
 30
0.0
 11
9739.679219870017
 21
8592.891342469044
 31
0.0
 70
   163
  1
屋根の外寸
 71
     5
 42
99.99999999999637
  3
INABA_S40G
100
AcDbDiametricDimension
 15
9181.053794020849
 25
8352.124999999999
 35
0.0
 40
0.0
1001
ACAD_DSTYLE_DIMRADIAL_EXTENSION
1070
   387
1070
     1
1070
   388
1040
0.0
1070
   390
1040
0.0
1001
ACAD
1000
DSTYLE
1002
{
1070
    73
1070
     1
1070
    74
1070
     1
1070
   172
1070
     0
1070
   272
1070
     1
1070
   341
1005
0
1070
   344
1005
140BC
1002
}
  0
DIMENSION
  5
14AD9
330
747D
100
AcDbEntity
  8
寸法
 48
50.0
100
AcDbDimension
  2
*D27
 10
8223.600000000001
 20
5518.802085134339
 30
0.0
 11
6823.6
 21
5618.813896157961
 31
0.0
 70
    32
 71
     5
 42
2800.0
  3
INABA_S40G
100
AcDbAlignedDimension
 13
5423.6
 23
6179.125000000002
 33
0.0
 14
8223.600000000001
 24
6179.125000000002
 34
0.0
100
AcDbRotatedDimension
1001
ACAD
1000
DSTYLE
1002
{
1070
    73
1070
     1
1070
    74
1070
     1
1070
   272
1070
     1
1070
   341
1005
0
1002
}
  0
DIMENSION
  5
14B38
330
747D
100
AcDbEntity
  8
寸法
 48
50.0
100
AcDbDimension
  2
*D28
 10
11881.5421570064
 20
5922.125000000001
 30
0.0
 11
11675.5421570064
 21
6175.625000000003
 31
0.0
 70
    32
  1
<>\P(503)
 71
     5
 42
507.0
  3
INABA_S40G
100
AcDbAlignedDimension
 13
11273.6
 23
6429.125
 33
0.0
 14
11253.6
 24
5922.125000000001
 34
0.0
 50
90.0
100
AcDbRotatedDimension
1001
ACAD
1000
DSTYLE
1002
{
1070
   272
1070
     1
1070
   341
1005
0
1002
}
  0
DIMENSION
  5
14B39
330
747D
100
AcDbEntity
  8
寸法
 48
50.0
100
AcDbDimension
  2
*D29
 10
11881.5421570064
 20
8079.125000000001
 30
0.0
 11
11881.5421570064
 21
8648.077755905513
 31
0.0
 70
   160
  1
<>\P(277)
 71
     5
 42
272.9999999999982
  3
INABA_S40G
100
AcDbAlignedDimension
 13
11253.6
 23
8352.124999999999
 33
0.0
 14
11273.6
 24
8079.125000000001
 34
0.0
 50
90.0
100
AcDbRotatedDimension
1001
ACAD
1000
DSTYLE
1002
{
1070
   272
1070
     1
1070
   341
1005
0
1002
}
  0
DIMENSION
  5
14B3A
330
747D
100
AcDbEntity
  8
寸法
 48
50.0
100
AcDbDimension
  2
*D30
 10
12183.2958010213
 20
5922.125000000001
 30
0.0
 11
12083.28398999768
 21
7137.125000000001
 31
0.0
 70
    32
  1
屋根寸法 <>
 71
     5
 42
2429.999999999998
  3
INABA_S40G
100
AcDbAlignedDimension
 13
11253.6
 23
8352.124999999999
 33
0.0
 14
11253.6
 24
5922.125000000001
 34
0.0
 50
90.0
100
AcDbRotatedDimension
1001
ACAD
1000
DSTYLE
1002
{
1070
   272
1070
     1
1070
   341
1005
0
1002
}
  0
LEADER
  5
14D39
330
747D
100
AcDbEntity
  8
寸法
 48
50.0
100
AcDbLeader
  3
INABA_S40G詳細用20
 71
     0
 73
     0
 75
     1
 40
121.6690475583121
 41
822.0944881889764
 76
     3
 10
7707.100000000001
 20
1735.965215385917
 30
0.0
 10
7298.501135756199
 20
1224.860582356754
 30
0.0
 10
7198.501135756199
 20
1224.860582356754
 30
0.0
340
14D3A
  0
MTEXT
  5
14D3A
102
{ACAD_REACTORS
330
14D39
102
}
330
747D
100
AcDbEntity
  8
部品1
 62
     0
 48
5.0
100
AcDbMText
 10
7158.501135756198
 20
1325.69510613591
 30
0.0
 40
120.0
 41
0.0
 71
     6
 72
     1
  1
\A1;差し筋8-D10
  7
STYLE1
 73
     1
 44
1.0
1001
ACAD
1000
MTEXTBEGIN
1070
    73
1070
     1
1070
    44
1040
1.0
1070
    74
1070
     0
1000
MTEXTEND
  0
LINE
  5
14D3B
330
747D
100
AcDbEntity
  8
部品1
 62
     0
 48
50.0
100
AcDbLine
 10
8280.1
 20
2306.090215385917
 30
0.0
 11
9283.927597374097
 21
2306.090215385917
 31
0.0
  0
LINE
  5
14D3C
330
747D
100
AcDbEntity
  8
細線
 48
50.0
100
AcDbLine
 10
8381.100000000001
 20
1295.965215385917
 30
0.0
 11
8457.533749195887
 21
1505.965215385917
 31
0.0
  0
LINE
  5
14D3D
330
747D
100
AcDbEntity
  8
部品1
 62
     0
 48
50.0
100
AcDbLine
 10
7393.181219498853
 20
1505.965215385917
 30
0.0
 11
9054.018780501147
 21
1505.965215385917
 31
0.0
  0
LINE
  5
14D3E
330
747D
100
AcDbEntity
  8
部品1
 62
     0
 48
50.0
100
AcDbLine
 10
7393.181219498853
 20
1295.965215385917
 30
0.0
 11
9054.018780501147
 21
1295.965215385917
 31
0.0
  0
DIMENSION
  5
14D3F
330
747D
100
AcDbEntity
  8
寸法
 48
50.0
100
AcDbDimension
  2
*D38
 10
8923.6
 20
867.9441030093549
 30
0.0
 11
8223.600000000001
 21
967.9441030093549
 31
0.0
 70
    32
 71
     5
 42
700.0
  3
INABA_S40G詳細用20
100
AcDbAlignedDimension
 13
7523.6
 23
1295.965215385917
 33
0.0
 14
8923.6
 24
1295.965215385917
 34
0.0
100
AcDbRotatedDimension
  0
LINE
  5
14D40
330
747D
100
AcDbEntity
  8
細線
 48
50.0
100
AcDbLine
 10
7999.633079738758
 20
1505.965215385917
 30
0.0
 11
8119.633079738759
 21
1625.965215385917
 31
0.0
  0
LINE
  5
14D41
330
747D
100
AcDbEntity
  8
細線
 48
50.0
100
AcDbLine
 10
8139.633079738757
 20
1645.965215385917
 30
0.0
 11
8210.600000000001
 21
1716.932135647174
 31
0.0
  0
LINE
  5
14D42
330
747D
100
AcDbEntity
  8
細線
 48
50.0
100
AcDbLine
 10
8236.600000000001
 20
1742.932135647174
 30
0.0
 11
8319.633079738729
 21
1825.965215385917
 31
0.0
  0
LINE
  5
14D43
330
747D
100
AcDbEntity
  8
細線
 48
50.0
100
AcDbLine
 10
8339.63307973873
 20
1845.965215385917
 30
0.0
 11
8359.683079738717
 21
1866.015215385919
 31
0.0
  0
LINE
  5
14D44
330
747D
100
AcDbEntity
  8
細線
 48
50.0
100
AcDbLine
 10
7969.93459492895
 20
1505.965215385917
 30
0.0
 11
8089.934594928951
 21
1625.965215385917
 31
0.0
  0
LINE
  5
14D45
330
747D
100
AcDbEntity
  8
細線
 48
50.0
100
AcDbLine
 10
8109.934594928951
 20
1645.965215385931
 30
0.0
 11
8210.600000000001
 21
1746.630620456995
 31
0.0
  0
LINE
  5
14D46
330
747D
100
AcDbEntity
  8
細線
 48
50.0
100
AcDbLine
 10
8236.600000000001
 20
1772.630620456995
 30
0.0
 11
8289.93459492892
 21
1825.965215385917
 31
0.0
  0
LINE
  5
14D47
330
747D
100
AcDbEntity
  8
細線
 48
50.0
100
AcDbLine
 10
8309.934594928922
 20
1845.965215385917
 30
0.0
 11
8329.984594928911
 21
1866.015215385919
 31
0.0
  0
LINE
  5
14D48
330
747D
100
AcDbEntity
  8
細線
 48
50.0
100
AcDbLine
 10
7940.236110119115
 20
1505.965215385917
 30
0.0
 11
8060.236110119115
 21
1625.965215385917
 31
0.0
  0
LINE
  5
14D49
330
747D
100
AcDbEntity
  8
細線
 48
50.0
100
AcDbLine
 10
8080.236110119086
 20
1645.965215385917
 30
0.0
 11
8210.600000000001
 21
1776.329105266817
 31
0.0
  0
LINE
  5
14D4A
330
747D
100
AcDbEntity
  8
細線
 48
50.0
100
AcDbLine
 10
8236.600000000001
 20
1802.329105266817
 30
0.0
 11
8260.236110119114
 21
1825.965215385917
 31
0.0
  0
LINE
  5
14D4B
330
747D
100
AcDbEntity
  8
細線
 48
50.0
100
AcDbLine
 10
8280.236110119085
 20
1845.965215385917
 30
0.0
 11
8300.286110119103
 21
1866.015215385919
 31
0.0
  0
DIMENSION
  5
14D4C
330
747D
100
AcDbEntity
  8
寸法
 48
50.0
100
AcDbDimension
  2
*D39
 10
7070.790083099995
 20
1505.965215385917
 30
0.0
 11
6970.790083099995
 21
1955.965215385918
 31
0.0
 70
    32
 71
     5
 42
450.0
  3
INABA_S40G詳細用20
100
AcDbAlignedDimension
 13
7523.6
 23
2405.965215385917
 33
0.0
 14
7393.181219498853
 24
1505.965215385917
 34
0.0
 50
90.0
100
AcDbRotatedDimension
  0
DIMENSION
  5
14D4D
330
747D
100
AcDbEntity
  8
寸法
 48
50.0
100
AcDbDimension
  2
*D40
 10
7292.705848604348
 20
1866.015215385919
 30
0.0
 11
7192.694037580726
 21
2086.05271538592
 31
0.0
 70
    32
 71
     5
 42
220.0374999999986
  3
INABA_S40G詳細用20
100
AcDbAlignedDimension
 13
7523.6
 23
2306.090215385917
 33
0.0
 14
7523.6
 24
1866.015215385919
 34
0.0
 50
90.0
100
AcDbRotatedDimension
  0
LINE
  5
14D4E
330
747D
100
AcDbEntity
  8
部品1
 62
     0
 48
50.0
100
AcDbLine
 10
7523.6
 20
1505.965215385917
 30
0.0
 11
7523.6
 21
2306.090215385917
 31
0.0
  0
LINE
  5
14D4F
330
747D
100
AcDbEntity
  8
部品1
 62
     0
 48
50.0
100
AcDbLine
 10
8163.6
 20
2985.45166654381
 30
0.0
 11
8163.6
 21
1866.015215385919
 31
0.0
  0
LINE
  5
14D50
330
747D
100
AcDbEntity
  8
部品1
 62
     0
 48
50.0
100
AcDbLine
 10
8283.599999999999
 20
1866.015215385919
 30
0.0
 11
8283.599999999999
 21
2985.45166654381
 31
0.0
  0
LINE
  5
14D51
330
747D
100
AcDbEntity
  8
細線
 48
50.0
100
AcDbLine
 10
7523.6
 20
1821.891730576081
 30
0.0
 11
7567.723484809825
 21
1866.015215385905
 31
0.0
  0
LINE
  5
14D52
330
747D
100
AcDbEntity
  8
細線
 48
50.0
100
AcDbLine
 10
7523.6
 20
1851.590215385917
 30
0.0
 11
7538.024999999989
 21
1866.015215385905
 31
0.0
  0
LINE
  5
14D53
330
747D
100
AcDbEntity
  8
細線
 48
50.0
100
AcDbLine
 10
7961.1
 20
1295.965215385917
 30
0.0
 11
8037.533749195887
 21
1505.965215385917
 31
0.0
  0
LINE
  5
14D54
330
747D
100
AcDbEntity
  8
細線
 48
50.0
100
AcDbLine
 10
8101.1
 20
1295.965215385917
 30
0.0
 11
8177.533749195887
 21
1505.965215385917
 31
0.0
  0
LINE
  5
14D55
330
747D
100
AcDbEntity
  8
細線
 48
50.0
100
AcDbLine
 10
8241.100000000001
 20
1295.965215385917
 30
0.0
 11
8317.533749195886
 21
1505.965215385917
 31
0.0
  0
LINE
  5
14D56
330
747D
100
AcDbEntity
  8
細線
 48
50.0
100
AcDbLine
 10
7401.100000000001
 20
1295.965215385917
 30
0.0
 11
7477.533749195888
 21
1505.965215385917
 31
0.0
  0
LINE
  5
14D57
330
747D
100
AcDbEntity
  8
細線
 48
50.0
100
AcDbLine
 10
7681.1
 20
1295.965215385917
 30
0.0
 11
7757.533749195888
 21
1505.965215385917
 31
0.0
  0
LINE
  5
14D58
330
747D
100
AcDbEntity
  8
細線
 48
50.0
100
AcDbLine
 10
7541.1
 20
1295.965215385917
 30
0.0
 11
7617.533749195887
 21
1505.965215385917
 31
0.0
  0
LINE
  5
14D59
330
747D
100
AcDbEntity
  8
細線
 48
50.0
100
AcDbLine
 10
7821.1
 20
1295.965215385917
 30
0.0
 11
7897.533749195886
 21
1505.965215385917
 31
0.0
  0
LINE
  5
14D5A
330
747D
100
AcDbEntity
  8
細線
 48
50.0
100
AcDbLine
 10
7413.838958199305
 20
1330.965215385917
 30
0.0
 11
7429.100000000001
 21
1295.965215385917
 31
0.0
  0
LINE
  5
14D5B
330
747D
100
AcDbEntity
  8
細線
 48
50.0
100
AcDbLine
 10
7553.838958199306
 20
1330.965215385917
 30
0.0
 11
7569.1
 21
1295.965215385917
 31
0.0
  0
LINE
  5
14D5C
330
747D
100
AcDbEntity
  8
細線
 48
50.0
100
AcDbLine
 10
7693.838958199305
 20
1330.965215385917
 30
0.0
 11
7709.100000000001
 21
1295.965215385917
 31
0.0
  0
LINE
  5
14D5D
330
747D
100
AcDbEntity
  8
細線
 48
50.0
100
AcDbLine
 10
8113.838958199306
 20
1330.965215385917
 30
0.0
 11
8129.100000000001
 21
1295.965215385917
 31
0.0
  0
LINE
  5
14D5E
330
747D
100
AcDbEntity
  8
細線
 48
50.0
100
AcDbLine
 10
7833.838958199305
 20
1330.965215385917
 30
0.0
 11
7849.099999999999
 21
1295.965215385917
 31
0.0
  0
LINE
  5
14D5F
330
747D
100
AcDbEntity
  8
細線
 48
50.0
100
AcDbLine
 10
7973.838958199305
 20
1330.965215385917
 30
0.0
 11
7989.1
 21
1295.965215385917
 31
0.0
  0
LINE
  5
14D60
330
747D
100
AcDbEntity
  8
細線
 48
50.0
100
AcDbLine
 10
8253.838958199306
 20
1330.965215385917
 30
0.0
 11
8269.099999999999
 21
1295.965215385917
 31
0.0
  0
LINE
  5
14D61
330
747D
100
AcDbEntity
  8
細線
 48
50.0
100
AcDbLine
 10
8393.838958199305
 20
1330.965215385917
 30
0.0
 11
8409.1
 21
1295.965215385917
 31
0.0
  0
DIMENSION
  5
14D62
330
747D
100
AcDbEntity
  8
寸法
 48
50.0
100
AcDbDimension
  2
*D41
 10
7292.705848604348
 20
1505.965215385917
 30
0.0
 11
7292.705848604348
 21
1687.090215385917
 31
0.0
 70
   160
 71
     5
 42
180.0250000000014
  3
INABA_S40G詳細用20
100
AcDbAlignedDimension
 13
7523.6
 23
1866.015215385919
 33
0.0
 14
7393.181219498853
 24
1505.965215385917
 34
0.0
 50
90.0
100
AcDbRotatedDimension
  0
LINE
  5
14D63
330
747D
100
AcDbEntity
  8
細線
 48
50.0
100
AcDbLine
 10
7603.653282274312
 20
1505.965215385917
 30
0.0
 11
7723.653282274341
 21
1625.965215385931
 31
0.0
  0
LINE
  5
14D64
330
747D
100
AcDbEntity
  8
細線
 48
50.0
100
AcDbLine
 10
7743.653282274312
 20
1645.965215385917
 30
0.0
 11
7923.653282274312
 21
1825.965215385917
 31
0.0
  0
LINE
  5
14D65
330
747D
100
AcDbEntity
  8
細線
 48
50.0
100
AcDbLine
 10
7943.653282274311
 20
1845.965215385917
 30
0.0
 11
7963.703282274301
 21
1866.015215385919
 31
0.0
  0
LINE
  5
14D66
330
747D
100
AcDbEntity
  8
細線
 48
50.0
100
AcDbLine
 10
7573.954797464477
 20
1505.965215385917
 30
0.0
 11
7695.408167807817
 21
1627.418585729243
 31
0.0
  0
LINE
  5
14D67
330
747D
100
AcDbEntity
  8
細線
 62
     0
 48
50.0
100
AcDbLine
 10
7710.21229468367
 20
1638.722712605126
 30
0.0
 11
7710.600000000001
 21
1639.110417921441
 31
0.0
  0
LINE
  5
14D68
330
747D
100
AcDbEntity
  8
細線
 48
50.0
100
AcDbLine
 10
7736.6
 20
1668.610417921456
 30
0.0
 11
7893.954797464475
 21
1825.965215385917
 31
0.0
  0
LINE
  5
14D69
330
747D
100
AcDbEntity
  8
細線
 48
50.0
100
AcDbLine
 10
7913.954797464476
 20
1845.965215385917
 30
0.0
 11
7934.004797464464
 21
1866.015215385919
 31
0.0
  0
LINE
  5
14D6A
330
747D
100
AcDbEntity
  8
細線
 48
50.0
100
AcDbLine
 10
7544.25631265461
 20
1505.965215385917
 30
0.0
 11
7710.600000000001
 21
1672.308902731307
 31
0.0
  0
LINE
  5
14D6B
330
747D
100
AcDbEntity
  8
細線
 48
50.0
100
AcDbLine
 10
7736.6
 20
1698.308902731307
 30
0.0
 11
7864.25631265461
 21
1825.965215385917
 31
0.0
  0
LINE
  5
14D6C
330
747D
100
AcDbEntity
  8
細線
 48
50.0
100
AcDbLine
 10
7884.25631265461
 20
1845.965215385917
 30
0.0
 11
7904.306312654627
 21
1866.015215385919
 31
0.0
  0
LINE
  5
14D6D
330
747D
100
AcDbEntity
  8
細線
 48
50.0
100
AcDbLine
 10
7449.533749195888
 20
1505.965215385917
 30
0.0
 11
7464.794790996582
 21
1470.965215385917
 31
0.0
  0
LINE
  5
14D6E
330
747D
100
AcDbEntity
  8
細線
 48
50.0
100
AcDbLine
 10
7589.533749195886
 20
1505.965215385917
 30
0.0
 11
7604.794790996582
 21
1470.965215385917
 31
0.0
  0
LINE
  5
14D6F
330
747D
100
AcDbEntity
  8
細線
 48
50.0
100
AcDbLine
 10
7729.533749195887
 20
1505.965215385917
 30
0.0
 11
7744.794790996582
 21
1470.965215385917
 31
0.0
  0
LINE
  5
14D70
330
747D
100
AcDbEntity
  8
細線
 48
50.0
100
AcDbLine
 10
7869.533749195887
 20
1505.965215385917
 30
0.0
 11
7884.794790996583
 21
1470.965215385917
 31
0.0
  0
LINE
  5
14D71
330
747D
100
AcDbEntity
  8
細線
 48
50.0
100
AcDbLine
 10
8009.533749195886
 20
1505.965215385917
 30
0.0
 11
8024.794790996583
 21
1470.965215385917
 31
0.0
  0
LINE
  5
14D72
330
747D
100
AcDbEntity
  8
細線
 48
50.0
100
AcDbLine
 10
8149.533749195887
 20
1505.965215385917
 30
0.0
 11
8164.794790996582
 21
1470.965215385917
 31
0.0
  0
LINE
  5
14D73
330
747D
100
AcDbEntity
  8
細線
 48
50.0
100
AcDbLine
 10
8289.533749195888
 20
1505.965215385917
 30
0.0
 11
8304.794790996583
 21
1470.965215385917
 31
0.0
  0
LINE
  5
14D74
330
747D
100
AcDbEntity
  8
細線
 48
50.0
100
AcDbLine
 10
8429.533749195888
 20
1505.965215385917
 30
0.0
 11
8444.794790996581
 21
1470.965215385917
 31
0.0
  0
LINE
  5
14D75
330
747D
100
AcDbEntity
  8
Ｇ．Ｌ
 48
50.0
100
AcDbLine
 10
6410.480166199903
 20
2405.965215385917
 30
0.0
 11
7821.1
 21
2405.965215385859
 31
0.0
  0
MTEXT
  5
14D76
330
747D
100
AcDbEntity
  8
寸法
 62
     0
 48
50.0
100
AcDbMText
 10
6418.791731287429
 20
2483.011753821334
 30
0.0
 40
120.0
 41
0.0
 71
     4
 72
     1
  1
▽G.L
  7
STYLE1
 73
     1
 44
1.0
1001
ACAD
1000
MTEXTBEGIN
1070
    73
1070
     1
1070
    44
1040
1.0
1070
    74
1070
     0
1000
MTEXTEND
  0
DIMENSION
  5
14D77
330
747D
100
AcDbEntity
  8
寸法
 48
50.0
100
AcDbDimension
  2
*D42
 10
7292.705848604349
 20
2306.090215385917
 30
0.0
 11
7292.705848604348
 21
2612.012459480433
 31
0.0
 70
   160
 71
     5
 42
49.9375
  3
INABA_S40G詳細用20
100
AcDbAlignedDimension
 13
7523.6
 23
2405.965215385917
 33
0.0
 14
7523.6
 24
2306.090215385917
 34
0.0
 50
90.0
100
AcDbRotatedDimension
  0
LINE
  5
14D78
330
747D
100
AcDbEntity
  8
部品1
 62
     0
 48
50.0
100
AcDbLine
 10
7523.6
 20
2306.090215385917
 30
0.0
 11
8160.099999999999
 21
2306.090215385917
 31
0.0
  0
LINE
  5
14D79
330
747D
100
AcDbEntity
  8
細線
 48
50.0
100
AcDbLine
 10
8925.233233490052
 20
2096.090215385917
 30
0.0
 11
9001.666982685938
 21
2306.090215385917
 31
0.0
  0
LINE
  5
14D7A
330
747D
100
AcDbEntity
  8
細線
 48
50.0
100
AcDbLine
 10
9065.233233490051
 20
2096.090215385917
 30
0.0
 11
9141.666982685938
 21
2306.090215385917
 31
0.0
  0
LINE
  5
14D7B
330
747D
100
AcDbEntity
  8
細線
 48
50.0
100
AcDbLine
 10
9205.233233490051
 20
2096.090215385917
 30
0.0
 11
9281.666982685939
 21
2306.090215385917
 31
0.0
  0
LINE
  5
14D7C
330
747D
100
AcDbEntity
  8
部品1
 62
     0
 48
50.0
100
AcDbLine
 10
8923.6
 20
1505.965215385917
 30
0.0
 11
8923.6
 21
2306.090215385917
 31
0.0
  0
LINE
  5
14D7D
330
747D
100
AcDbEntity
  8
細線
 48
50.0
100
AcDbLine
 10
8801.100000000001
 20
1295.965215385917
 30
0.0
 11
8877.533749195889
 21
1505.965215385917
 31
0.0
  0
LINE
  5
14D7E
330
747D
100
AcDbEntity
  8
細線
 48
50.0
100
AcDbLine
 10
8661.100000000001
 20
1295.965215385917
 30
0.0
 11
8737.533749195888
 21
1505.965215385917
 31
0.0
  0
LINE
  5
14D7F
330
747D
100
AcDbEntity
  8
細線
 48
50.0
100
AcDbLine
 10
8521.1
 20
1295.965215385917
 30
0.0
 11
8597.533749195887
 21
1505.965215385917
 31
0.0
  0
LINE
  5
14D80
330
747D
100
AcDbEntity
  8
部品1
 62
     0
 48
50.0
100
AcDbLine
 10
9054.018780501147
 20
1505.965215385917
 30
0.0
 11
9054.018780501147
 21
1295.965215385917
 31
0.0
  0
LINE
  5
14D81
330
747D
100
AcDbEntity
  8
細線
 48
50.0
100
AcDbLine
 10
8941.1
 20
1295.965215385917
 30
0.0
 11
9017.533749195887
 21
1505.965215385917
 31
0.0
  0
LINE
  5
14D82
330
747D
100
AcDbEntity
  8
細線
 48
50.0
100
AcDbLine
 10
8533.838958199305
 20
1330.965215385917
 30
0.0
 11
8549.100000000001
 21
1295.965215385917
 31
0.0
  0
LINE
  5
14D83
330
747D
100
AcDbEntity
  8
細線
 48
50.0
100
AcDbLine
 10
8673.838958199304
 20
1330.965215385917
 30
0.0
 11
8689.100000000001
 21
1295.965215385917
 31
0.0
  0
LINE
  5
14D84
330
747D
100
AcDbEntity
  8
細線
 48
50.0
100
AcDbLine
 10
8813.838958199305
 20
1330.965215385917
 30
0.0
 11
8829.100000000002
 21
1295.965215385917
 31
0.0
  0
LINE
  5
14D85
330
747D
100
AcDbEntity
  8
細線
 48
50.0
100
AcDbLine
 10
8953.838958199305
 20
1330.965215385917
 30
0.0
 11
8969.1
 21
1295.965215385917
 31
0.0
  0
LINE
  5
14D86
330
747D
100
AcDbEntity
  8
部品1
 62
     0
 48
50.0
100
AcDbLine
 10
8923.6
 20
2096.090215385917
 30
0.0
 11
9283.927597374097
 21
2096.090215385917
 31
0.0
  0
LINE
  5
14D87
330
747D
100
AcDbEntity
  8
細線
 48
50.0
100
AcDbLine
 10
8395.612877203232
 20
1505.965215385917
 30
0.0
 11
8515.612877203233
 21
1625.965215385917
 31
0.0
  0
LINE
  5
14D88
330
747D
100
AcDbEntity
  8
細線
 48
50.0
100
AcDbLine
 10
8535.612877203233
 20
1645.965215385917
 30
0.0
 11
8710.600000000001
 21
1820.952338182698
 31
0.0
  0
LINE
  5
14D89
330
747D
100
AcDbEntity
  8
細線
 48
50.0
100
AcDbLine
 10
8736.600000000001
 20
1846.952338182713
 30
0.0
 11
8755.662877203223
 21
1866.015215385919
 31
0.0
  0
LINE
  5
14D8A
330
747D
100
AcDbEntity
  8
細線
 48
50.0
100
AcDbLine
 10
8365.914392393397
 20
1505.965215385917
 30
0.0
 11
8485.914392393397
 21
1625.965215385917
 31
0.0
  0
LINE
  5
14D8B
330
747D
100
AcDbEntity
  8
細線
 48
50.0
100
AcDbLine
 10
8505.914392393398
 20
1645.965215385917
 30
0.0
 11
8685.914392393398
 21
1825.965215385917
 31
0.0
  0
LINE
  5
14D8C
330
747D
100
AcDbEntity
  8
細線
 48
50.0
100
AcDbLine
 10
8705.914392393367
 20
1845.965215385917
 30
0.0
 11
8710.600000000001
 21
1850.650822992535
 31
0.0
  0
LINE
  5
14D8D
330
747D
100
AcDbEntity
  8
細線
 48
50.0
100
AcDbLine
 10
8336.215907583591
 20
1505.965215385917
 30
0.0
 11
8456.215907583588
 21
1625.965215385917
 31
0.0
  0
LINE
  5
14D8E
330
747D
100
AcDbEntity
  8
細線
 48
50.0
100
AcDbLine
 10
8476.215907583561
 20
1645.965215385917
 30
0.0
 11
8656.21590758359
 21
1825.965215385932
 31
0.0
  0
LINE
  5
14D8F
330
747D
100
AcDbEntity
  8
細線
 48
50.0
100
AcDbLine
 10
8676.215907583589
 20
1845.965215385932
 30
0.0
 11
8696.265907583578
 21
1866.015215385919
 31
0.0
  0
LINE
  5
14D90
330
747D
100
AcDbEntity
  8
細線
 48
50.0
100
AcDbLine
 10
8732.195705048065
 20
1505.965215385917
 30
0.0
 11
8923.6
 21
1697.369510337852
 31
0.0
  0
LINE
  5
14D91
330
747D
100
AcDbEntity
  8
細線
 48
50.0
100
AcDbLine
 10
8761.894189857873
 20
1505.965215385917
 30
0.0
 11
8923.6
 21
1667.67102552803
 31
0.0
  0
LINE
  5
14D92
330
747D
100
AcDbEntity
  8
細線
 48
50.0
100
AcDbLine
 10
8569.533749195887
 20
1505.965215385917
 30
0.0
 11
8584.794790996582
 21
1470.965215385917
 31
0.0
  0
LINE
  5
14D93
330
747D
100
AcDbEntity
  8
細線
 48
50.0
100
AcDbLine
 10
8709.533749195887
 20
1505.965215385917
 30
0.0
 11
8724.794790996583
 21
1470.965215385917
 31
0.0
  0
LINE
  5
14D94
330
747D
100
AcDbEntity
  8
細線
 48
50.0
100
AcDbLine
 10
8791.592674667709
 20
1505.965215385917
 30
0.0
 11
8923.6
 21
1637.972540718194
 31
0.0
  0
LINE
  5
14D95
330
747D
100
AcDbEntity
  8
細線
 48
50.0
100
AcDbLine
 10
8849.533749195888
 20
1505.965215385917
 30
0.0
 11
8864.794790996581
 21
1470.965215385917
 31
0.0
  0
LINE
  5
14D96
330
747D
100
AcDbEntity
  8
細線
 48
50.0
100
AcDbLine
 10
8989.533749195887
 20
1505.965215385917
 30
0.0
 11
9004.794790996582
 21
1470.965215385917
 31
0.0
  0
LINE
  5
14D97
330
747D
100
AcDbEntity
  8
細線
 48
50.0
100
AcDbLine
 10
9077.972191689356
 20
2131.090215385917
 30
0.0
 11
9093.233233490051
 21
2096.090215385917
 31
0.0
  0
LINE
  5
14D98
330
747D
100
AcDbEntity
  8
細線
 48
50.0
100
AcDbLine
 10
8937.972191689356
 20
2131.090215385917
 30
0.0
 11
8953.233233490051
 21
2096.090215385917
 31
0.0
  0
LINE
  5
14D99
330
747D
100
AcDbEntity
  8
細線
 48
50.0
100
AcDbLine
 10
9217.972191689355
 20
2131.090215385917
 30
0.0
 11
9233.233233490052
 21
2096.090215385917
 31
0.0
  0
LINE
  5
14D9A
330
747D
100
AcDbEntity
  8
細線
 48
50.0
100
AcDbLine
 10
8973.666982685939
 20
2306.090215385917
 30
0.0
 11
8988.928024486632
 21
2271.090215385917
 31
0.0
  0
LINE
  5
14D9B
330
747D
100
AcDbEntity
  8
細線
 48
50.0
100
AcDbLine
 10
9253.666982685938
 20
2306.090215385917
 30
0.0
 11
9268.928024486633
 21
2271.090215385917
 31
0.0
  0
LINE
  5
14D9C
330
747D
100
AcDbEntity
  8
細線
 48
50.0
100
AcDbLine
 10
9113.666982685938
 20
2306.090215385917
 30
0.0
 11
9128.928024486633
 21
2271.090215385917
 31
0.0
  0
LINE
  5
14D9D
330
747D
100
AcDbEntity
  8
部品1
 62
     0
 48
50.0
100
AcDbLine
 10
8923.6
 20
1866.015215385919
 30
0.0
 11
8736.600000000001
 21
1866.015215385919
 31
0.0
  0
LINE
  5
14D9E
330
747D
100
AcDbEntity
  8
部品1
 62
     0
 48
50.0
100
AcDbLine
 10
8710.600000000029
 20
1866.015215385905
 30
0.0
 11
7736.6
 21
1866.015215385919
 31
0.0
  0
LINE
  5
14D9F
330
747D
100
AcDbEntity
  8
部品1
 62
     0
 48
50.0
100
AcDbLine
 10
7710.600000000001
 20
1866.015215385919
 30
0.0
 11
7523.6
 21
1866.015215385905
 31
0.0
  0
LINE
  5
14DA0
330
747D
100
AcDbEntity
  8
細線
 48
50.0
100
AcDbLine
 10
8070.202127686464
 20
2306.090215385917
 30
0.0
 11
8160.099999999999
 21
2216.192343072366
 31
0.0
  0
LINE
  5
14DA1
330
747D
100
AcDbEntity
  8
細線
 48
50.0
100
AcDbLine
 10
8283.599999999999
 20
2092.692343072366
 30
0.0
 11
8330.327127686464
 21
2045.965215385917
 31
0.0
  0
LINE
  5
14DA2
330
747D
100
AcDbEntity
  8
細線
 48
50.0
100
AcDbLine
 10
8350.327127686464
 20
2025.965215385917
 30
0.0
 11
8510.277127686446
 21
1866.015215385919
 31
0.0
  0
LINE
  5
14DA3
330
747D
100
AcDbEntity
  8
細線
 48
50.0
100
AcDbLine
 10
8040.503642876627
 20
2306.090215385917
 30
0.0
 11
8160.099999999999
 21
2186.493858262544
 31
0.0
  0
LINE
  5
14DA4
330
747D
100
AcDbEntity
  8
細線
 48
50.0
100
AcDbLine
 10
8283.599999999999
 20
2062.993858262544
 30
0.0
 11
8300.628642876628
 21
2045.965215385917
 31
0.0
  0
LINE
  5
14DA5
330
747D
100
AcDbEntity
  8
細線
 48
50.0
100
AcDbLine
 10
8320.628642876627
 20
2025.965215385917
 30
0.0
 11
8480.57864287661
 21
1866.015215385919
 31
0.0
  0
LINE
  5
14DA6
330
747D
100
AcDbEntity
  8
細線
 48
50.0
100
AcDbLine
 10
8099.90061249627
 20
2306.090215385917
 30
0.0
 11
8160.099999999999
 21
2245.890827882187
 31
0.0
  0
LINE
  5
14DA7
330
747D
100
AcDbEntity
  8
細線
 48
50.0
100
AcDbLine
 10
8283.599999999999
 20
2122.390827882202
 30
0.0
 11
8360.025612496299
 21
2045.965215385917
 31
0.0
  0
LINE
  5
14DA8
330
747D
100
AcDbEntity
  8
細線
 48
50.0
100
AcDbLine
 10
8380.0256124963
 20
2025.965215385917
 30
0.0
 11
8539.975612496311
 21
1866.015215385919
 31
0.0
  0
LINE
  5
14DA9
330
747D
100
AcDbEntity
  8
細線
 48
50.0
100
AcDbLine
 10
7523.6
 20
2060.732748143459
 30
0.0
 11
7710.600000000001
 21
1873.732748143429
 31
0.0
  0
LINE
  5
14DAA
330
747D
100
AcDbEntity
  8
細線
 48
50.0
100
AcDbLine
 10
7523.6
 20
2031.034263333608
 30
0.0
 11
7688.619047947688
 21
1866.015215385919
 31
0.0
  0
LINE
  5
14DAB
330
747D
100
AcDbEntity
  8
細線
 48
50.0
100
AcDbLine
 10
7523.6
 20
2090.431232953266
 30
0.0
 11
7710.600000000001
 21
1903.431232953266
 31
0.0
  0
LINE
  5
14DAC
330
747D
100
AcDbEntity
  8
細線
 48
50.0
100
AcDbLine
 10
7736.6
 20
1877.431232953266
 30
0.0
 11
7748.016017567362
 21
1866.015215385919
 31
0.0
  0
LINE
  5
14DAD
330
747D
100
AcDbEntity
  8
細線
 48
50.0
100
AcDbLine
 10
7703.920815031825
 20
2306.090215385917
 30
0.0
 11
7964.045815031825
 21
2045.965215385917
 31
0.0
  0
LINE
  5
14DAE
330
747D
100
AcDbEntity
  8
細線
 48
50.0
100
AcDbLine
 10
7984.045815031824
 20
2025.965215385917
 30
0.0
 11
8093.995815031808
 21
1916.01521538592
 31
0.0
  0
LINE
  5
14DAF
330
747D
100
AcDbEntity
  8
細線
 48
50.0
100
AcDbLine
 10
8113.995815031836
 20
1896.01521538592
 30
0.0
 11
8143.995815031836
 21
1866.015215385919
 31
0.0
  0
LINE
  5
14DB0
330
747D
100
AcDbEntity
  8
細線
 48
50.0
100
AcDbLine
 10
7674.222330221988
 20
2306.090215385917
 30
0.0
 11
7934.347330222017
 21
2045.965215385917
 31
0.0
  0
LINE
  5
14DB1
330
747D
100
AcDbEntity
  8
細線
 48
50.0
100
AcDbLine
 10
7954.347330221988
 20
2025.965215385917
 30
0.0
 11
8064.297330221972
 21
1916.01521538592
 31
0.0
  0
LINE
  5
14DB2
330
747D
100
AcDbEntity
  8
細線
 48
50.0
100
AcDbLine
 10
8084.297330222
 20
1896.01521538592
 30
0.0
 11
8114.297330221999
 21
1866.015215385919
 31
0.0
  0
LINE
  5
14DB3
330
747D
100
AcDbEntity
  8
細線
 48
50.0
100
AcDbLine
 10
7644.52384541218
 20
2306.090215385917
 30
0.0
 11
7904.648845412181
 21
2045.965215385917
 31
0.0
  0
LINE
  5
14DB4
330
747D
100
AcDbEntity
  8
細線
 48
50.0
100
AcDbLine
 10
7924.648845412152
 20
2025.965215385917
 30
0.0
 11
8034.598845412164
 21
1916.01521538592
 31
0.0
  0
LINE
  5
14DB5
330
747D
100
AcDbEntity
  8
細線
 48
50.0
100
AcDbLine
 10
8054.598845412163
 20
1896.01521538592
 30
0.0
 11
8084.598845412164
 21
1866.015215385919
 31
0.0
  0
LINE
  5
14DB6
330
747D
100
AcDbEntity
  8
細線
 48
50.0
100
AcDbLine
 10
8495.880409960745
 20
2306.090215385917
 30
0.0
 11
8923.6
 21
1878.370625346692
 31
0.0
  0
LINE
  5
14DB7
330
747D
100
AcDbEntity
  8
細線
 48
50.0
100
AcDbLine
 10
8466.18192515088
 20
2306.090215385917
 30
0.0
 11
8726.306925150909
 21
2045.965215385917
 31
0.0
  0
LINE
  5
14DB8
330
747D
100
AcDbEntity
  8
細線
 48
50.0
100
AcDbLine
 10
8745.905360149883
 20
2026.366780386943
 30
0.0
 11
8906.256925150922
 21
1866.015215385919
 31
0.0
  0
LINE
  5
14DB9
330
747D
100
AcDbEntity
  8
細線
 48
50.0
100
AcDbLine
 10
8436.483440341103
 20
2306.090215385917
 30
0.0
 11
8696.608440341103
 21
2045.965215385917
 31
0.0
  0
LINE
  5
14DBA
330
747D
100
AcDbEntity
  8
細線
 48
50.0
100
AcDbLine
 10
8736.600000000001
 20
2005.97365572699
 30
0.0
 11
8876.558440341085
 21
1866.015215385919
 31
0.0
  0
CIRCLE
  5
14DBB
330
747D
100
AcDbEntity
  8
U7
 62
     0
100
AcDbCircle
 10
7700.6
 20
2035.965215385917
 30
0.0
 40
10.0
  0
CIRCLE
  5
14DBC
330
747D
100
AcDbEntity
  8
U7
 62
     0
100
AcDbCircle
 10
8746.6
 20
2035.965215385917
 30
0.0
 40
10.0
  0
LINE
  5
14DBD
330
747D
100
AcDbEntity
  8
U7
 62
     0
100
AcDbLine
 10
7700.6
 20
2025.965215385917
 30
0.0
 11
7710.600000000001
 21
2025.965215385932
 31
0.0
  0
LINE
  5
14DBE
330
747D
100
AcDbEntity
  8
U7
 62
     0
100
AcDbLine
 10
7736.6
 20
2025.965215385932
 30
0.0
 11
8163.6
 21
2025.965215385917
 31
0.0
  0
LINE
  5
14DBF
330
747D
100
AcDbEntity
  8
U7
 62
     0
100
AcDbLine
 10
8283.599999999999
 20
2025.965215385903
 30
0.0
 11
8710.600000000029
 21
2025.965215385917
 31
0.0
  0
LINE
  5
14DC0
330
747D
100
AcDbEntity
  8
U7
 62
     0
100
AcDbLine
 10
8736.600000000029
 20
2025.965215385917
 30
0.0
 11
8746.6
 21
2025.965215385917
 31
0.0
  0
LINE
  5
14DC1
330
747D
100
AcDbEntity
  8
U7
 62
     0
100
AcDbLine
 10
7700.6
 20
2045.965215385917
 30
0.0
 11
8163.599999999972
 21
2045.965215385932
 31
0.0
  0
LINE
  5
14DC2
330
747D
100
AcDbEntity
  8
U7
 62
     0
100
AcDbLine
 10
8283.599999999999
 20
2045.965215385917
 30
0.0
 11
8746.6
 21
2045.965215385917
 31
0.0
  0
CIRCLE
  5
14DC3
330
747D
100
AcDbEntity
  8
U7
 62
     0
100
AcDbCircle
 10
7700.6
 20
1835.965215385917
 30
0.0
 40
10.0
  0
CIRCLE
  5
14DC4
330
747D
100
AcDbEntity
  8
U7
 62
     0
100
AcDbCircle
 10
8746.6
 20
1835.965215385917
 30
0.0
 40
10.0
  0
LINE
  5
14DC5
330
747D
100
AcDbEntity
  8
U7
 62
     0
100
AcDbLine
 10
7700.6
 20
1845.965215385917
 30
0.0
 11
7710.600000000001
 21
1845.965215385917
 31
0.0
  0
LINE
  5
14DC6
330
747D
100
AcDbEntity
  8
U7
 62
     0
100
AcDbLine
 10
7736.6
 20
1845.965215385917
 30
0.0
 11
8210.600000000029
 21
1845.965215385917
 31
0.0
  0
LINE
  5
14DC7
330
747D
100
AcDbEntity
  8
U7
 62
     0
100
AcDbLine
 10
8236.600000000029
 20
1845.965215385917
 30
0.0
 11
8710.600000000029
 21
1845.965215385932
 31
0.0
  0
LINE
  5
14DC8
330
747D
100
AcDbEntity
  8
U7
 62
     0
100
AcDbLine
 10
8736.600000000029
 20
1845.965215385932
 30
0.0
 11
8746.6
 21
1845.965215385917
 31
0.0
  0
LINE
  5
14DC9
330
747D
100
AcDbEntity
  8
U7
 62
     0
100
AcDbLine
 10
7700.6
 20
1825.965215385917
 30
0.0
 11
7710.600000000001
 21
1825.965215385932
 31
0.0
  0
LINE
  5
14DCA
330
747D
100
AcDbEntity
  8
U7
 62
     0
100
AcDbLine
 10
7736.6
 20
1825.965215385932
 30
0.0
 11
8210.600000000029
 21
1825.965215385917
 31
0.0
  0
LINE
  5
14DCB
330
747D
100
AcDbEntity
  8
U7
 62
     0
100
AcDbLine
 10
8236.600000000029
 20
1825.965215385917
 30
0.0
 11
8710.600000000029
 21
1825.965215385917
 31
0.0
  0
LINE
  5
14DCC
330
747D
100
AcDbEntity
  8
U7
 62
     0
100
AcDbLine
 10
8736.600000000029
 20
1825.965215385917
 30
0.0
 11
8746.6
 21
1825.965215385917
 31
0.0
  0
CIRCLE
  5
14DCD
330
747D
100
AcDbEntity
  8
U7
 62
     0
100
AcDbCircle
 10
7700.6
 20
1635.965215385917
 30
0.0
 40
10.0
  0
CIRCLE
  5
14DCE
330
747D
100
AcDbEntity
  8
U7
 62
     0
100
AcDbCircle
 10
8746.6
 20
1635.965215385917
 30
0.0
 40
10.0
  0
LINE
  5
14DCF
330
747D
100
AcDbEntity
  8
U7
 62
     0
100
AcDbLine
 10
7700.6
 20
1625.965215385917
 30
0.0
 11
8746.6
 21
1625.965215385931
 31
0.0
  0
LINE
  5
14DD0
330
747D
100
AcDbEntity
  8
U7
 62
     0
100
AcDbLine
 10
7700.6
 20
1645.965215385917
 30
0.0
 11
7710.600000000001
 21
1645.965215385917
 31
0.0
  0
LINE
  5
14DD1
330
747D
100
AcDbEntity
  8
U7
 62
     0
100
AcDbLine
 10
7736.6
 20
1645.965215385917
 30
0.0
 11
8210.600000000029
 21
1645.965215385931
 31
0.0
  0
LINE
  5
14DD2
330
747D
100
AcDbEntity
  8
U7
 62
     0
100
AcDbLine
 10
8236.600000000001
 20
1645.965215385931
 30
0.0
 11
8710.600000000029
 21
1645.965215385917
 31
0.0
  0
LINE
  5
14DD3
330
747D
100
AcDbEntity
  8
U7
 62
     0
100
AcDbLine
 10
8736.600000000029
 20
1645.965215385917
 30
0.0
 11
8746.6
 21
1645.965215385917
 31
0.0
  0
LINE
  5
14DD4
330
747D
100
AcDbEntity
  8
KIN-T
 62
     0
100
AcDbLine
 10
8710.600000000001
 20
2045.965215385917
 30
0.0
 11
8710.600000000001
 21
1625.965215385931
 31
0.0
  0
LINE
  5
14DD5
330
747D
100
AcDbEntity
  8
KIN-T
 62
     0
100
AcDbLine
 10
8736.600000000001
 20
2045.965215385917
 30
0.0
 11
8736.600000000001
 21
1625.965215385931
 31
0.0
  0
LINE
  5
14DD6
330
747D
100
AcDbEntity
  8
U7
 62
     0
100
AcDbLine
 10
8710.600000000001
 20
2045.965215385917
 30
0.0
 11
8736.600000000001
 21
2045.965215385917
 31
0.0
  0
LINE
  5
14DD7
330
747D
100
AcDbEntity
  8
KIN-T
 62
     0
100
AcDbLine
 10
7736.6
 20
2045.965215385917
 30
0.0
 11
7736.6
 21
1625.965215385917
 31
0.0
  0
LINE
  5
14DD8
330
747D
100
AcDbEntity
  8
U7
 62
     0
100
AcDbLine
 10
7710.600000000001
 20
2045.965215385917
 30
0.0
 11
7736.6
 21
2045.965215385917
 31
0.0
  0
LINE
  5
14DD9
330
747D
100
AcDbEntity
  8
KIN-T
 62
     0
100
AcDbLine
 10
7710.600000000001
 20
2045.965215385917
 30
0.0
 11
7710.600000000001
 21
1625.965215385917
 31
0.0
  0
LINE
  5
14DDA
330
747D
100
AcDbEntity
  8
U7
 62
     0
100
AcDbLine
 10
8710.600000000001
 20
1625.965215385931
 30
0.0
 11
8736.600000000001
 21
1625.965215385931
 31
0.0
  0
LINE
  5
14DDB
330
747D
100
AcDbEntity
  8
U7
 62
     0
100
AcDbLine
 10
7710.600000000001
 20
1625.965215385931
 30
0.0
 11
7736.6
 21
1625.965215385931
 31
0.0
  0
LINE
  5
14DDC
330
747D
100
AcDbEntity
  8
部品1
 62
     0
 48
50.0
100
AcDbLine
 10
7393.181219498853
 20
1505.965215385917
 30
0.0
 11
7393.181219498853
 21
1295.965215385917
 31
0.0
  0
LEADER
  5
14DDD
330
747D
100
AcDbEntity
  8
寸法
 48
50.0
100
AcDbLeader
  3
INABA_S40G詳細用20
 71
     0
 73
     0
 75
     1
 40
121.669047558312
 41
882.0944881889762
 76
     3
 10
7897.625588832593
 20
1625.965215385917
 30
0.0
 10
7358.479705723986
 20
951.5630502076733
 30
0.0
 10
7258.479705723987
 20
951.5630502076733
 30
0.0
340
14DDE
  0
MTEXT
  5
14DDE
102
{ACAD_REACTORS
330
14DDD
102
}
330
747D
100
AcDbEntity
  8
部品1
 62
     0
 48
5.0
100
AcDbMText
 10
7218.479705723986
 20
1052.397573986829
 30
0.0
 40
120.0
 41
0.0
 71
     6
 72
     1
  1
\A1;帯筋D10＠100
  7
STYLE1
 73
     1
 44
1.0
1001
ACAD
1000
MTEXTBEGIN
1070
    73
1070
     1
1070
    44
1040
1.0
1070
    74
1070
     0
1000
MTEXTEND
  0
LINE
  5
14DDF
330
747D
100
AcDbEntity
  8
部品1
 62
     0
 48
50.0
100
AcDbLine
 10
8350.975000000001
 20
2505.965215385859
 30
0.0
 11
9284.802597374097
 21
2505.965215385859
 31
0.0
  0
LINE
  5
14DE0
330
747D
100
AcDbEntity
  8
細線
 48
50.0
100
AcDbLine
 10
8500.916786809796
 20
2505.965215385859
 30
0.0
 11
8301.041786809795
 21
2306.090215385859
 31
0.0
  0
LINE
  5
14DE1
330
747D
100
AcDbEntity
  8
細線
 48
50.0
100
AcDbLine
 10
8471.218301999959
 20
2505.965215385859
 30
0.0
 11
8280.1
 21
2314.8469133859
 31
0.0
  0
LINE
  5
14DE2
330
747D
100
AcDbEntity
  8
細線
 48
50.0
100
AcDbLine
 10
8530.615271619632
 20
2505.965215385859
 30
0.0
 11
8330.740271619632
 21
2306.090215385859
 31
0.0
  0
DIMENSION
  5
14DE3
330
747D
100
AcDbEntity
  8
寸法
 48
50.0
100
AcDbDimension
  2
*D43
 10
7070.790083099996
 20
2505.96521538586
 30
0.0
 11
7070.790083099995
 21
2759.917971291401
 31
0.0
 70
   160
  1
(<>)
 71
     5
 42
50.0
  3
INABA_S40G詳細用20
100
AcDbAlignedDimension
 13
7821.1
 23
2405.965215385859
 33
0.0
 14
7869.975000000001
 24
2505.965215385859
 34
0.0
 50
90.0
100
AcDbRotatedDimension
  0
LINE
  5
14DE4
330
747D
100
AcDbEntity
  8
部品1
 62
     0
 48
50.0
100
AcDbLine
 10
8125.975000000002
 20
2540.965215385859
 30
0.0
 11
8090.975
 21
2505.965215385859
 31
0.0
  0
LINE
  5
14DE5
330
747D
100
AcDbEntity
  8
部品1
 62
     0
 48
50.0
100
AcDbLine
 10
7869.975000000001
 20
2505.965215385859
 30
0.0
 11
8090.975
 21
2505.965215385859
 31
0.0
  0
LINE
  5
14DE6
330
747D
100
AcDbEntity
  8
細線
 48
50.0
100
AcDbLine
 10
8075.238504535512
 20
2505.965215385859
 30
0.0
 11
7875.363504535513
 21
2306.090215385859
 31
0.0
  0
LINE
  5
14DE7
330
747D
100
AcDbEntity
  8
細線
 48
50.0
100
AcDbLine
 10
8139.936989345349
 20
2540.965215385859
 30
0.0
 11
7905.06198934535
 21
2306.090215385859
 31
0.0
  0
LINE
  5
14DE8
330
747D
100
AcDbEntity
  8
細線
 48
50.0
100
AcDbLine
 10
8160.099999999999
 20
2531.429741230703
 30
0.0
 11
7934.760474155186
 21
2306.090215385859
 31
0.0
  0
LINE
  5
14DE9
330
747D
100
AcDbEntity
  8
部品1
 62
     0
 48
50.0
100
AcDbLine
 10
7821.1
 20
2457.090215385859
 30
0.0
 11
7821.1
 21
2306.090215385859
 31
0.0
  0
LINE
  5
14DEA
330
747D
100
AcDbEntity
  8
部品1
 62
     0
 48
50.0
100
AcDbLine
 10
7821.1
 20
2457.090215385859
 30
0.0
 11
7869.975000000001
 21
2505.965215385859
 31
0.0
  0
LINE
  5
14DEB
330
747D
100
AcDbEntity
  8
部品1
 62
     0
 48
50.0
100
AcDbLine
 10
8315.974999999999
 20
2540.965215385859
 30
0.0
 11
8350.975000000001
 21
2505.965215385859
 31
0.0
  0
LINE
  5
14DEC
330
747D
100
AcDbEntity
  8
部品1
 62
     0
 48
50.0
100
AcDbLine
 10
8280.1
 20
2540.965215385859
 30
0.0
 11
8315.974999999999
 21
2540.965215385859
 31
0.0
  0
LINE
  5
14DED
330
747D
100
AcDbEntity
  8
部品1
 62
     0
 48
50.0
100
AcDbLine
 10
8125.975000000002
 20
2540.965215385859
 30
0.0
 11
8160.099999999999
 21
2540.965215385859
 31
0.0
  0
LINE
  5
14DEE
330
747D
100
AcDbEntity
  8
細線
 48
50.0
100
AcDbLine
 10
9283.927597374097
 20
2497.016431021239
 30
0.0
 11
9093.001381738746
 21
2306.090215385859
 31
0.0
  0
LINE
  5
14DEF
330
747D
100
AcDbEntity
  8
細線
 48
50.0
100
AcDbLine
 10
9263.17789692891
 20
2505.965215385859
 30
0.0
 11
9063.30289692891
 21
2306.090215385859
 31
0.0
  0
LINE
  5
14DF0
330
747D
100
AcDbEntity
  8
細線
 48
50.0
100
AcDbLine
 10
8896.896584274271
 20
2505.965215385859
 30
0.0
 11
8697.021584274272
 21
2306.090215385859
 31
0.0
  0
LINE
  5
14DF1
330
747D
100
AcDbEntity
  8
細線
 48
50.0
100
AcDbLine
 10
8867.198099464435
 20
2505.965215385859
 30
0.0
 11
8667.323099464434
 21
2306.090215385859
 31
0.0
  0
LINE
  5
14DF2
330
747D
100
AcDbEntity
  8
細線
 48
50.0
100
AcDbLine
 10
8926.595069084108
 20
2505.965215385859
 30
0.0
 11
8726.720069084107
 21
2306.090215385859
 31
0.0
  0
LINE
  5
14DF3
330
747D
100
AcDbEntity
  8
細線
 48
50.0
100
AcDbLine
 10
9283.927597374097
 20
2467.317946211402
 30
0.0
 11
9122.699866548583
 21
2306.090215385859
 31
0.0
  0
LINE
  5
14DF4
330
747D
100
AcDbEntity
  8
細線
 48
50.0
100
AcDbLine
 10
8070.202127686464
 20
2306.090215385859
 30
0.0
 11
8160.099999999999
 21
2216.192343072322
 31
0.0
  0
LINE
  5
14DF5
330
747D
100
AcDbEntity
  8
細線
 48
50.0
100
AcDbLine
 10
8040.503642876656
 20
2306.090215385859
 30
0.0
 11
8160.099999999999
 21
2186.4938582625
 31
0.0
  0
LINE
  5
14DF6
330
747D
100
AcDbEntity
  8
細線
 48
50.0
100
AcDbLine
 10
8099.90061249627
 20
2306.090215385859
 30
0.0
 11
8160.099999999999
 21
2245.890827882129
 31
0.0
  0
LINE
  5
14DF7
330
747D
100
AcDbEntity
  8
部品1
 62
     0
 48
50.0
100
AcDbLine
 10
8710.600000000001
 20
1625.965215385931
 30
0.0
 11
8736.600000000001
 21
1625.965215385931
 31
0.0
  0
LINE
  5
14DF8
330
747D
100
AcDbEntity
  8
KIN-T
 62
     0
100
AcDbLine
 10
8210.600000000001
 20
1866.015215385919
 30
0.0
 11
8210.600000000001
 21
1625.965215385917
 31
0.0
  0
LINE
  5
14DF9
330
747D
100
AcDbEntity
  8
KIN-T
 62
     0
100
AcDbLine
 10
8236.600000000001
 20
1866.015215385919
 30
0.0
 11
8236.600000000001
 21
1625.965215385917
 31
0.0
  0
LINE
  5
14DFA
330
747D
100
AcDbEntity
  8
U7
 62
     0
100
AcDbLine
 10
8423.6
 20
1916.01521538592
 30
0.0
 11
8423.6
 21
1896.01521538592
 31
0.0
  0
LINE
  5
14DFB
330
747D
100
AcDbEntity
  8
U7
 62
     0
100
AcDbLine
 10
8023.6
 20
1916.01521538592
 30
0.0
 11
8023.6
 21
1896.01521538592
 31
0.0
  0
LINE
  5
14DFC
330
747D
100
AcDbEntity
  8
U7
 62
     0
100
AcDbLine
 10
8423.6
 20
1896.01521538592
 30
0.0
 11
8283.599999999971
 21
1896.01521538592
 31
0.0
  0
LINE
  5
14DFD
330
747D
100
AcDbEntity
  8
U7
 62
     0
100
AcDbLine
 10
8163.6
 20
1896.01521538592
 30
0.0
 11
8023.6
 21
1896.01521538592
 31
0.0
  0
LINE
  5
14DFE
330
747D
100
AcDbEntity
  8
U7
 62
     0
100
AcDbLine
 10
8423.6
 20
1916.01521538592
 30
0.0
 11
8283.599999999971
 21
1916.01521538592
 31
0.0
  0
LINE
  5
14DFF
330
747D
100
AcDbEntity
  8
U7
 62
     0
100
AcDbLine
 10
8163.6
 20
1916.01521538592
 30
0.0
 11
8023.6
 21
1916.01521538592
 31
0.0
  0
LINE
  5
14E00
330
747D
100
AcDbEntity
  8
部品1
 62
     0
 48
50.0
100
AcDbLine
 10
8283.599999999999
 20
1866.015215385919
 30
0.0
 11
8283.599999999999
 21
1906.01521538592
 31
0.0
  0
LINE
  5
14E01
330
747D
100
AcDbEntity
  8
部品1
 48
50.0
100
AcDbLine
 10
8163.6
 20
1866.015215385919
 30
0.0
 11
8163.599999999972
 21
2976.01521538592
 31
0.0
  0
LINE
  5
14E02
330
747D
100
AcDbEntity
  8
文字
 48
50.0
100
AcDbLine
 10
7656.015591144702
 20
183.2228317908993
 30
0.0
 11
8791.184408855299
 21
183.2228317908993
 31
0.0
  0
TEXT
  5
14E03
330
747D
100
AcDbEntity
  8
文字
 62
     7
 48
50.0
100
AcDbText
 10
7727.03938571826
 20
249.7862569918616
 30
0.0
 40
105.0
  1
A-A' 断面 1/20
  7
STYLE2
100
AcDbText
  0
LINE
  5
14E04
330
747D
100
AcDbEntity
  8
文字
 48
50.0
100
AcDbLine
 10
7656.015591144702
 20
421.2228317908993
 30
0.0
 11
8791.184408855299
 21
421.2228317908993
 31
0.0
  0
LINE
  5
14E05
330
747D
100
AcDbEntity
  8
文字
 48
50.0
100
AcDbLine
 10
7656.015591144702
 20
421.2228317908993
 30
0.0
 11
7656.015591144702
 21
183.2228317908993
 31
0.0
  0
LINE
  5
14E06
330
747D
100
AcDbEntity
  8
文字
 48
50.0
100
AcDbLine
 10
8791.184408855299
 20
421.2228317908993
 30
0.0
 11
8791.184408855299
 21
183.2228317908993
 31
0.0
  0
DIMENSION
  5
14E07
330
747D
100
AcDbEntity
  8
寸法
 48
50.0
100
AcDbDimension
  2
*D44
 10
8231.911339357855
 20
1924.801154237526
 30
0.0
 11
9173.124565305176
 21
1719.098588306493
 31
0.0
 70
   163
  1
カンザシ
 71
     5
 42
99.99999999999909
  3
INABA_S40G
100
AcDbDiametricDimension
 15
8329.605409256933
 25
1903.450072144242
 35
0.0
 40
0.0
1001
ACAD_DSTYLE_DIMRADIAL_EXTENSION
1070
   387
1070
     1
1070
   388
1040
0.0
1070
   390
1040
0.0
1001
ACAD
1000
DSTYLE
1002
{
1070
    73
1070
     1
1070
    74
1070
     1
1070
   172
1070
     0
1070
   272
1070
     1
1070
   341
1005
0
1070
   343
1005
140BC
1070
   344
1005
140BC
1002
}
  0
LINE
  5
14EA3
330
747D
100
AcDbEntity
  8
寸法
 48
50.0
100
AcDbLine
 10
4973.600000000001
 20
8079.124999999988
 30
0.0
 11
4973.600000000001
 21
8502.681384581535
 31
0.0
  0
LINE
  5
14EA4
330
747D
100
AcDbEntity
  8
寸法
 48
50.0
100
AcDbLine
 10
4973.600000000001
 20
8502.681384581535
 30
0.0
 11
4925.488217257336
 21
8323.125766943226
 31
0.0
  0
LINE
  5
14EA5
330
747D
100
AcDbEntity
  8
寸法
 48
50.0
100
AcDbLine
 10
4925.488217257336
 20
8323.125766943226
 30
0.0
 11
5035.379248793261
 21
8323.125766943226
 31
0.0
  0
MTEXT
  5
14EA6
330
747D
100
AcDbEntity
  8
寸法
 62
     7
 48
50.0
100
AcDbMText
 10
4973.600000000001
 20
8562.681384581535
 30
0.0
 40
120.0
 41
0.0
 71
     5
 72
     1
  1
A
  7
STYLE1
 73
     1
 44
1.0
1001
ACAD
1000
MTEXTBEGIN
1070
    73
1070
     1
1070
    44
1040
1.0
1070
    74
1070
     0
1000
MTEXTEND
  0
LINE
  5
14EA7
330
747D
100
AcDbEntity
  8
寸法
 48
50.0
100
AcDbLine
 10
5873.6
 20
8079.124999999988
 30
0.0
 11
5873.6
 21
8502.681384581535
 31
0.0
  0
LINE
  5
14EA8
330
747D
100
AcDbEntity
  8
寸法
 48
50.0
100
AcDbLine
 10
5673.6
 20
8079.124999999988
 30
0.0
 11
5873.6
 21
8079.124999999988
 31
0.0
  0
LINE
  5
14EA9
330
747D
100
AcDbEntity
  8
寸法
 48
50.0
100
AcDbLine
 10
4973.600000000001
 20
8079.124999999988
 30
0.0
 11
5173.6
 21
8079.124999999988
 31
0.0
  0
LINE
  5
14EAA
330
747D
100
AcDbEntity
  8
寸法
 48
50.0
100
AcDbLine
 10
5873.6
 20
8502.681384581521
 30
0.0
 11
5825.488217257336
 21
8323.125766943212
 31
0.0
  0
LINE
  5
14EAB
330
747D
100
AcDbEntity
  8
寸法
 48
50.0
100
AcDbLine
 10
5825.488217257336
 20
8323.125766943212
 30
0.0
 11
5935.37924879326
 21
8323.125766943212
 31
0.0
  0
MTEXT
  5
14EAC
330
747D
100
AcDbEntity
  8
寸法
 62
     7
 48
50.0
100
AcDbMText
 10
5894.599782022176
 20
8562.681384581535
 30
0.0
 40
120.0
 41
0.0
 71
     5
 72
     1
  1
A'
  7
STYLE1
 73
     1
 44
1.0
1001
ACAD
1000
MTEXTBEGIN
1070
    73
1070
     1
1070
    44
1040
1.0
1070
    74
1070
     0
1000
MTEXTEND
  0
ENDSEC
  0
SECTION
  2
OBJECTS
  0
DICTIONARY
  5
7471
330
0
100
AcDbDictionary
281
     1
  3
ACAD_CIP_PREVIOUS_PRODUCT_INFO
350
1370D
  3
ACAD_COLOR
350
13239
  3
ACAD_DETAILVIEWSTYLE
350
13703
  3
ACAD_GROUP
350
7472
  3
ACAD_LAYOUT
350
1323A
  3
ACAD_MATERIAL
350
13238
  3
ACAD_MLEADERSTYLE
350
136FF
  3
ACAD_MLINESTYLE
350
7473
  3
ACAD_PLOTSETTINGS
350
1323B
  3
ACAD_PLOTSTYLENAME
350
13236
  3
ACAD_SCALELIST
350
136ED
  3
ACAD_SECTIONVIEWSTYLE
350
13701
  3
ACAD_TABLESTYLE
350
136EB
  3
ACAD_VISUALSTYLE
350
136D2
  3
ACDB_RECOMPOSE_DATA
350
14F12
  3
ACDBVARIABLEDICTIONARY
350
11B74
  3
AcDsDecomposeData
350
14F19
  3
CONTENTDICTIONARY
350
E71C
  3
DRAWINGVARIABLESDICT
350
F3B9
  3
DWGPROPS
350
14F13
  0
DICTIONARY
  5
1372A
330
7467
100
AcDbDictionary
280
     1
281
     1
  3
ACAD_LAYERSTATES
360
1372B
  0
DICTIONARY
  5
13711
330
7474
100
AcDbDictionary
280
     1
281
     1
  3
ADSK_XREC_LAYER_RECONCILED
360
13712
  0
DICTIONARY
  5
13713
330
DEB2
100
AcDbDictionary
280
     1
281
     1
  3
ADSK_XREC_LAYER_RECONCILED
360
13714
  0
DICTIONARY
  5
13715
330
DEB3
100
AcDbDictionary
280
     1
281
     1
  3
ADSK_XREC_LAYER_RECONCILED
360
13716
  0
DICTIONARY
  5
13717
330
DEB4
100
AcDbDictionary
280
     1
281
     1
  3
ADSK_XREC_LAYER_RECONCILED
360
13718
  0
DICTIONARY
  5
1371B
330
DEB6
100
AcDbDictionary
280
     1
281
     1
  3
ADSK_XREC_LAYER_RECONCILED
360
1371C
  0
DICTIONARY
  5
1371D
330
10B54
100
AcDbDictionary
280
     1
281
     1
  3
ADSK_XREC_LAYER_RECONCILED
360
1371E
  0
DICTIONARY
  5
1371F
330
11729
100
AcDbDictionary
280
     1
281
     1
  3
ADSK_XREC_LAYER_RECONCILED
360
13720
  0
DICTIONARY
  5
13721
330
1173F
100
AcDbDictionary
280
     1
281
     1
  3
ADSK_XREC_LAYER_RECONCILED
360
13722
  0
DICTIONARY
  5
13723
330
11740
100
AcDbDictionary
280
     1
281
     1
  3
ADSK_XREC_LAYER_RECONCILED
360
13724
  0
DICTIONARY
  5
14646
330
14645
100
AcDbDictionary
280
     1
281
     1
  0
DICTIONARY
  5
13C2F
330
747D
100
AcDbDictionary
280
     1
281
     1
  3
ACAD_SORTENTS
360
13C30
  0
XRECORD
  5
1370D
102
{ACAD_REACTORS
330
7471
102
}
330
7471
100
AcDbXrecord
280
     1
300
ACDLT
300
2014
300
ACDLT_F_S
  0
DICTIONARY
  5
13239
102
{ACAD_REACTORS
330
7471
102
}
330
7471
100
AcDbDictionary
281
     1
  0
DICTIONARY
  5
13703
102
{ACAD_REACTORS
330
7471
102
}
330
7471
100
AcDbDictionary
281
     1
  3
Metric50
350
13704
  0
DICTIONARY
  5
7472
102
{ACAD_REACTORS
330
7471
102
}
330
7471
100
AcDbDictionary
281
     1
  3
*A1
350
13C9D
  0
DICTIONARY
  5
1323A
102
{ACAD_REACTORS
330
7471
102
}
330
7471
100
AcDbDictionary
281
     1
  3
Model
350
1323C
  3
レイアウト1
350
1323D
  0
DICTIONARY
  5
13238
102
{ACAD_REACTORS
330
7471
102
}
330
7471
100
AcDbDictionary
281
     1
  3
ByBlock
350
136C2
  3
ByLayer
350
136BA
  3
Global
350
136CA
  0
DICTIONARY
  5
136FF
102
{ACAD_REACTORS
330
7471
102
}
330
7471
100
AcDbDictionary
281
     1
  3
Standard
350
13700
  0
DICTIONARY
  5
7473
102
{ACAD_REACTORS
330
7471
102
}
330
7471
100
AcDbDictionary
281
     1
  3
STANDARD
350
7480
  0
DICTIONARY
  5
1323B
102
{ACAD_REACTORS
330
7471
102
}
330
7471
100
AcDbDictionary
281
     1
  0
ACDBDICTIONARYWDFLT
  5
13236
102
{ACAD_REACTORS
330
7471
102
}
330
7471
100
AcDbDictionary
281
     1
  3
Normal
350
13237
100
AcDbDictionaryWithDefault
340
13237
  0
DICTIONARY
  5
136ED
102
{ACAD_REACTORS
330
7471
102
}
330
7471
100
AcDbDictionary
281
     1
  3
A0
350
136EE
  3
A1
350
136EF
  3
A2
350
136F0
  3
A3
350
136F1
  3
A4
350
136F2
  3
A5
350
136F3
  3
A6
350
136F4
  3
A7
350
136F5
  3
A8
350
136F6
  3
A9
350
136F7
  3
B0
350
136F8
  3
B1
350
136F9
  3
B2
350
136FA
  3
B3
350
136FB
  3
B4
350
136FC
  3
B5
350
136FD
  3
B6
350
136FE
  0
DICTIONARY
  5
13701
102
{ACAD_REACTORS
330
7471
102
}
330
7471
100
AcDbDictionary
281
     1
  3
Metric50
350
13702
  0
DICTIONARY
  5
136EB
102
{ACAD_REACTORS
330
7471
102
}
330
7471
100
AcDbDictionary
281
     1
  3
Standard
350
136EC
  0
DICTIONARY
  5
136D2
102
{ACAD_REACTORS
330
7471
102
}
330
7471
100
AcDbDictionary
281
     1
  3
2dWireframe
350
136D8
  3
Basic
350
136D7
  3
Brighten
350
136DE
  3
ColorChange
350
136E2
  3
Conceptual
350
136DB
  3
Dim
350
136DD
  3
EdgeColorOff
350
136EA
  3
Facepattern
350
136E1
  3
Flat
350
136D3
  3
FlatWithEdges
350
136D4
  3
Gouraud
350
136D5
  3
GouraudWithEdges
350
136D6
  3
Hidden
350
136DA
  3
JitterOff
350
136E8
  3
Linepattern
350
136E0
  3
OverhangOff
350
136E9
  3
Realistic
350
136DC
  3
Shaded
350
136E7
  3
Shaded with edges
350
136E6
  3
Shades of Gray
350
136E3
  3
Sketchy
350
136E4
  3
Thicken
350
136DF
  3
Wireframe
350
136D9
  3
X-Ray
350
136E5
  0
XRECORD
  5
14F12
102
{ACAD_REACTORS
330
7471
102
}
330
7471
100
AcDbXrecord
280
     1
 90
        1
330
136EC
  0
DICTIONARY
  5
11B74
102
{ACAD_REACTORS
330
7471
102
}
330
7471
100
AcDbDictionary
281
     1
  3
CANNOSCALE
350
1373B
  3
CMLEADERSTYLE
350
13737
  3
CTABLESTYLE
350
13736
  3
CVIEWDETAILSTYLE
350
13738
  3
CVIEWSECTIONSTYLE
350
13739
  3
DIMASSOC
350
14F0F
  3
INDEXCTL
350
14F0D
  3
LAYEREVAL
350
1373D
  3
LAYERNOTIFY
350
1373E
  3
LIGHTINGUNITS
350
1373C
  3
MSLTSCALE
350
1373A
  3
SORTENTS
350
11B75
  3
XCLIPFRAME
350
14F0E
  0
DICTIONARY
  5
14F19
102
{ACAD_REACTORS
330
7471
102
}
330
7471
100
AcDbDictionary
281
     1
  3
AcDsRecords
350
14F1B
  3
AcDsSchemas
350
14F1A
1001
ACAD
1070
     2
  0
DICTIONARY
  5
E71C
102
{ACAD_REACTORS
330
7471
102
}
330
7471
100
AcDbDictionary
281
     1
  0
DICTIONARY
  5
F3B9
102
{ACAD_REACTORS
330
7471
102
}
330
7471
100
AcDbDictionary
281
     1
1001
DRAWINGVARIABLESXDATA
1000
POLARMODE
1000
1
  0
XRECORD
  5
14F13
102
{ACAD_REACTORS
330
7471
102
}
330
7471
100
AcDbXrecord
280
     1
  1
DWGPROPS COOKIE
  2

  3

  4

  6

  7

  8
maekawa
  9

300
=
301
=
302
=
303
=
304
=
305
=
306
=
307
=
308
=
309
=
 40
0.6514654166666667
 41
2451052.600153125
 42
2459716.719795636
  1

 90
        0
  0
DICTIONARY
  5
1372B
102
{ACAD_REACTORS
330
1372A
102
}
330
1372A
100
AcDbDictionary
281
     1
  0
XRECORD
  5
13712
102
{ACAD_REACTORS
330
13711
102
}
330
13711
100
AcDbXrecord
280
     1
290
     1
  0
XRECORD
  5
13714
102
{ACAD_REACTORS
330
13713
102
}
330
13713
100
AcDbXrecord
280
     1
290
     1
  0
XRECORD
  5
13716
102
{ACAD_REACTORS
330
13715
102
}
330
13715
100
AcDbXrecord
280
     1
290
     1
  0
XRECORD
  5
13718
102
{ACAD_REACTORS
330
13717
102
}
330
13717
100
AcDbXrecord
280
     1
290
     1
  0
XRECORD
  5
1371C
102
{ACAD_REACTORS
330
1371B
102
}
330
1371B
100
AcDbXrecord
280
     1
290
     1
  0
XRECORD
  5
1371E
102
{ACAD_REACTORS
330
1371D
102
}
330
1371D
100
AcDbXrecord
280
     1
290
     1
  0
XRECORD
  5
13720
102
{ACAD_REACTORS
330
1371F
102
}
330
1371F
100
AcDbXrecord
280
     1
290
     1
  0
XRECORD
  5
13722
102
{ACAD_REACTORS
330
13721
102
}
330
13721
100
AcDbXrecord
280
     1
290
     1
  0
XRECORD
  5
13724
102
{ACAD_REACTORS
330
13723
102
}
330
13723
100
AcDbXrecord
280
     1
290
     1
  0
SORTENTSTABLE
  5
13C30
102
{ACAD_REACTORS
330
13C2F
102
}
330
13C2F
100
AcDbSortentsTable
330
747D
331
13DC6
  5
1437C
331
13CD3
  5
13DA6
331
13C74
  5
13C75
331
14566
  5
14566
331
13DA6
  5
13DB7
331
13C70
  5
13C71
331
13C6C
  5
13C6D
331
10B5D
  5
10B5D
331
13C68
  5
13C69
331
10B59
  5
10B59
331
13C9B
  5
13C9C
331
13C64
  5
13C65
331
13D9A
  5
13DB4
331
13C97
  5
13C98
331
13C93
  5
13C94
331
1463C
  5
14635
331
1453A
  5
1453A
331
13C8F
  5
13C90
331
13C8B
  5
13C8C
331
10B88
  5
10B88
331
13C87
  5
13C88
331
139C4
  5
139C4
331
13C83
  5
13C84
331
139C0
  5
139C0
331
13C7F
  5
13C80
331
13C7B
  5
13C7C
331
10B74
  5
10B74
331
10B6C
  5
10B6C
331
13C77
  5
13C78
331
13C73
  5
13C74
331
13C6F
  5
13C70
331
13C6B
  5
13C6C
331
10B5C
  5
10B5C
331
13C67
  5
13C68
331
13C63
  5
13C64
331
13C9A
  5
13C9B
331
13C5F
  5
13C5F
331
13C96
  5
13C97
331
13C92
  5
13C93
331
1463F
  5
1463F
331
13C8E
  5
13C8F
331
13C8A
  5
13C8B
331
10B7B
  5
10B7B
331
13C86
  5
13C87
331
13C82
  5
13C83
331
145F3
  5
145F3
331
13C7E
  5
13C7F
331
13C7A
  5
13C7B
331
10B73
  5
10B73
331
13C76
  5
13C77
331
13DC4
  5
13FFE
331
13C72
  5
13C73
331
13C6E
  5
13C6F
331
13C6A
  5
13C6B
331
10B57
  5
10B57
331
13C66
  5
13C67
331
13D9C
  5
13DB6
331
13C62
  5
13C63
331
13C99
  5
13C9A
331
13C5E
  5
13C5E
331
13C95
  5
13C96
331
13C91
  5
13C92
331
13D38
  5
13DB3
331
13C2E
  5
13C2E
331
13C8D
  5
13C8E
331
13C89
  5
13C8A
331
13C85
  5
13C86
331
13C81
  5
13C82
331
13C7D
  5
13C7E
331
13C79
  5
13C7A
331
13CE0
  5
13DA7
331
10B72
  5
10B72
331
13C75
  5
13C76
331
13DA7
  5
13DB8
331
13C71
  5
13C72
331
13C6D
  5
13C6E
331
13CB0
  5
13C61
331
13C69
  5
13C6A
331
10B56
  5
10B56
331
13D9B
  5
13DB5
331
13C9C
  5
13CB0
331
13C65
  5
13C66
331
14547
  5
14547
331
13C98
  5
13C99
331
13C61
  5
13C62
331
14641
  5
14641
331
13C94
  5
13C95
331
133D6
  5
133D6
331
13C5D
  5
13C5D
331
13C90
  5
13C91
331
1463D
  5
1463D
331
1452B
  5
1452B
331
13FFE
  5
14511
331
13C8C
  5
13C8D
331
13C88
  5
13C89
331
13CEF
  5
13DB2
331
13C84
  5
13C85
331
13C80
  5
13C81
331
13C7C
  5
13C7D
331
10B75
  5
10B75
331
13C78
  5
13C79
  0
ACDBDETAILVIEWSTYLE
  5
13704
102
{ACAD_XDICTIONARY
360
13733
102
}
102
{ACAD_REACTORS
330
13703
102
}
330
13703
100
AcDbModelDocViewStyle
 70
     0
  3
Metric50
290
     0
100
AcDbDetailViewStyle
 70
     0
 71
     0
 90
        3
 71
     1
340
7475
 40
5.0
340
0
 40
5.0
300

 40
0.0
280
     1
 71
     2
340
7479
 90
       25
 71
     3
340
7475
 40
5.0
 90
        0
 40
15.0
 90
        1
300
%<\AcVar ViewDetailId>% (%<\AcVar ViewScale \f "%sn">%)
 71
     4
340
7479
 90
       25
340
7479
 90
       25
280
     0
  0
GROUP
  5
13C9D
102
{ACAD_REACTORS
330
7472
102
}
330
7472
100
AcDbGroup
300

 70
     1
 71
     1
340
13C62
340
13C67
340
13C69
340
13C76
340
13C7B
340
13C7D
340
13C8A
340
13C8F
340
13C91
340
13C6A
340
13C7E
340
13C92
340
13C6C
340
13C71
340
13C73
340
13C61
340
13C68
340
13C63
340
13C64
340
13C65
340
13C66
340
13C6B
340
13C74
340
13C6D
340
13C6E
340
13C6F
340
13C70
340
13C72
340
13C80
340
13C85
340
13C87
340
13C75
340
13C7C
340
13C77
340
13C78
340
13C79
340
13C7A
340
13C7F
340
13C88
340
13C81
340
13C82
340
13C83
340
13C84
340
13C86
340
13C94
340
13C99
340
13C9B
340
13C89
340
13C90
340
13C8B
340
13C8C
340
13C8D
340
13C8E
340
13C93
340
13C9C
340
13C95
340
13C96
340
13C97
340
13C98
340
13C9A
  0
LAYOUT
  5
1323C
102
{ACAD_XDICTIONARY
360
14F1D
102
}
102
{ACAD_REACTORS
330
1323A
102
}
330
1323A
100
AcDbPlotSettings
  1

  2
DocuCentre-V C5576
  4
A3
  6

 40
4.900083065032958
 41
4.85772705078125
 42
4.900054931640625
 43
4.90008544921875
 44
297.0106506347656
 45
419.9889831542968
 46
0.0
 47
0.0
 48
0.0
 49
0.0
140
0.0
141
0.0
142
1.0
143
39.72607908327631
 70
 11952
 72
     1
 73
     1
 74
     1
  7
inaba.ctb
 75
     0
147
0.0251723810422805
148
-138.5856794190768
149
0.1019494738575304
100
AcDbLayout
  1
Model
 70
     1
 71
     0
 10
0.0
 20
0.0
 11
12.0
 21
9.0
 12
0.0
 22
0.0
 32
0.0
 14
0.0
 24
0.0
 34
0.0
 15
0.0
 25
0.0
 35
0.0
146
0.0
 13
0.0
 23
0.0
 33
0.0
 16
1.0
 26
0.0
 36
0.0
 17
0.0
 27
1.0
 37
0.0
 76
     0
330
747D
331
136B8
1001
ACAD_PSEXT
1000
DocuCentre-V C5576
1000
FX DocuCentre-V C5576
1000
128.1.2.106
1000

1070
     0
  0
LAYOUT
  5
1323D
102
{ACAD_XDICTIONARY
360
14F1F
102
}
102
{ACAD_REACTORS
330
1323A
102
}
330
1323A
100
AcDbPlotSettings
  1

  2
Microsoft XPS Document Writer
  4

  6

 40
0.0
 41
0.0
 42
0.0
 43
0.0
 44
0.0
 45
0.0
 46
0.0
 47
0.0
 48
0.0
 49
0.0
140
0.0
141
0.0
142
1.0
143
1.0
 70
   688
 72
     0
 73
     0
 74
     5
  7
inaba.ctb
 75
    16
147
1.0
148
0.0
149
0.0
100
AcDbLayout
  1
レイアウト1
 70
     0
 71
     1
 10
0.0
 20
0.0
 11
420.0
 21
297.0
 12
0.0
 22
0.0
 32
0.0
 14
1.000000000000000E+20
 24
1.000000000000000E+20
 34
1.000000000000000E+20
 15
-1.000000000000000E+20
 25
-1.000000000000000E+20
 35
-1.000000000000000E+20
146
0.0
 13
0.0
 23
0.0
 33
0.0
 16
1.0
 26
0.0
 36
0.0
 17
0.0
 27
1.0
 37
0.0
 76
     0
330
747A
  0
MATERIAL
  5
136C2
102
{ACAD_XDICTIONARY
360
136C3
102
}
102
{ACAD_REACTORS
330
13238
102
}
330
13238
100
AcDbMaterial
  1
ByBlock
 72
     0
 43
0.0208333333333333
 43
0.0
 43
0.0
 43
0.0
 43
0.0
 43
0.0208333333333333
 43
0.0
 43
0.0
 43
0.0
 43
0.0
 43
1.0
 43
0.0
 43
0.0
 43
0.0
 43
0.0
 43
1.0
 77
     0
 47
0.0208333333333333
 47
0.0
 47
0.0
 47
0.0
 47
0.0
 47
0.0208333333333333
 47
0.0
 47
0.0
 47
0.0
 47
0.0
 47
1.0
 47
0.0
 47
0.0
 47
0.0
 47
0.0
 47
1.0
171
     0
 49
0.0208333333333333
 49
0.0
 49
0.0
 49
0.0
 49
0.0
 49
0.0208333333333333
 49
0.0
 49
0.0
 49
0.0
 49
0.0
 49
1.0
 49
0.0
 49
0.0
 49
0.0
 49
0.0
 49
1.0
175
     0
142
0.0208333333333333
142
0.0
142
0.0
142
0.0
142
0.0
142
0.0208333333333333
142
0.0
142
0.0
142
0.0
142
0.0
142
1.0
142
0.0
142
0.0
142
0.0
142
0.0
142
1.0
179
     0
144
0.0208333333333333
144
0.0
144
0.0
144
0.0
144
0.0
144
0.0208333333333333
144
0.0
144
0.0
144
0.0
144
0.0
144
1.0
144
0.0
144
0.0
144
0.0
144
0.0
144
1.0
147
0.0208333333333333
147
0.0
147
0.0
147
0.0
147
0.0
147
0.0208333333333333
147
0.0
147
0.0
147
0.0
147
0.0
147
1.0
147
0.0
147
0.0
147
0.0
147
0.0
147
1.0
  0
MATERIAL
  5
136BA
102
{ACAD_XDICTIONARY
360
136BB
102
}
102
{ACAD_REACTORS
330
13238
102
}
330
13238
100
AcDbMaterial
  1
ByLayer
 72
     0
 43
0.0208333333333333
 43
0.0
 43
0.0
 43
0.0
 43
0.0
 43
0.0208333333333333
 43
0.0
 43
0.0
 43
0.0
 43
0.0
 43
1.0
 43
0.0
 43
0.0
 43
0.0
 43
0.0
 43
1.0
 77
     0
 47
0.0208333333333333
 47
0.0
 47
0.0
 47
0.0
 47
0.0
 47
0.0208333333333333
 47
0.0
 47
0.0
 47
0.0
 47
0.0
 47
1.0
 47
0.0
 47
0.0
 47
0.0
 47
0.0
 47
1.0
171
     0
 49
0.0208333333333333
 49
0.0
 49
0.0
 49
0.0
 49
0.0
 49
0.0208333333333333
 49
0.0
 49
0.0
 49
0.0
 49
0.0
 49
1.0
 49
0.0
 49
0.0
 49
0.0
 49
0.0
 49
1.0
175
     0
142
0.0208333333333333
142
0.0
142
0.0
142
0.0
142
0.0
142
0.0208333333333333
142
0.0
142
0.0
142
0.0
142
0.0
142
1.0
142
0.0
142
0.0
142
0.0
142
0.0
142
1.0
179
     0
144
0.0208333333333333
144
0.0
144
0.0
144
0.0
144
0.0
144
0.0208333333333333
144
0.0
144
0.0
144
0.0
144
0.0
144
1.0
144
0.0
144
0.0
144
0.0
144
0.0
144
1.0
147
0.0208333333333333
147
0.0
147
0.0
147
0.0
147
0.0
147
0.0208333333333333
147
0.0
147
0.0
147
0.0
147
0.0
147
1.0
147
0.0
147
0.0
147
0.0
147
0.0
147
1.0
  0
MATERIAL
  5
136CA
102
{ACAD_XDICTIONARY
360
136CB
102
}
102
{ACAD_REACTORS
330
13238
102
}
330
13238
100
AcDbMaterial
  1
Global
 72
     0
 43
0.0208333333333333
 43
0.0
 43
0.0
 43
0.0
 43
0.0
 43
0.0208333333333333
 43
0.0
 43
0.0
 43
0.0
 43
0.0
 43
1.0
 43
0.0
 43
0.0
 43
0.0
 43
0.0
 43
1.0
 77
     0
 47
0.0208333333333333
 47
0.0
 47
0.0
 47
0.0
 47
0.0
 47
0.0208333333333333
 47
0.0
 47
0.0
 47
0.0
 47
0.0
 47
1.0
 47
0.0
 47
0.0
 47
0.0
 47
0.0
 47
1.0
171
     0
 49
0.0208333333333333
 49
0.0
 49
0.0
 49
0.0
 49
0.0
 49
0.0208333333333333
 49
0.0
 49
0.0
 49
0.0
 49
0.0
 49
1.0
 49
0.0
 49
0.0
 49
0.0
 49
0.0
 49
1.0
175
     0
142
0.0208333333333333
142
0.0
142
0.0
142
0.0
142
0.0
142
0.0208333333333333
142
0.0
142
0.0
142
0.0
142
0.0
142
1.0
142
0.0
142
0.0
142
0.0
142
0.0
142
1.0
179
     0
144
0.0208333333333333
144
0.0
144
0.0
144
0.0
144
0.0
144
0.0208333333333333
144
0.0
144
0.0
144
0.0
144
0.0
144
1.0
144
0.0
144
0.0
144
0.0
144
0.0
144
1.0
147
0.0208333333333333
147
0.0
147
0.0
147
0.0
147
0.0
147
0.0208333333333333
147
0.0
147
0.0
147
0.0
147
0.0
147
1.0
147
0.0
147
0.0
147
0.0
147
0.0
147
1.0
  0
MLEADERSTYLE
  5
13700
102
{ACAD_XDICTIONARY
360
14F56
102
}
102
{ACAD_REACTORS
330
136FF
102
}
330
136FF
100
AcDbMLeaderStyle
170
     2
171
     1
172
     0
 90
        2
 40
0.0
 41
0.0
173
     1
 91
-1056964608
340
7477
 92
       -2
290
     1
 42
2.0
291
     1
 43
0.36
  3
Standard
 44
4.0
300

342
7475
174
     1
178
     6
175
     1
176
     0
 93
-1056964608
 45
4.0
292
     0
297
     0
 46
4.0
 94
-1056964608
 47
1.0
 49
1.0
140
1.0
293
     1
141
0.0
294
     1
177
     0
142
1.0
295
     0
296
     0
143
0.125
1001
ACAD_MLEADERVER
1070
     2
  0
MLINESTYLE
  5
7480
102
{ACAD_REACTORS
330
7473
102
}
330
7473
100
AcDbMlineStyle
  2
STANDARD
 70
     0
  3

 62
     0
 51
90.0
 52
90.0
 71
     2
 49
0.5
 62
   256
  6
BYLAYER
 49
-0.5
 62
   256
  6
BYLAYER
  0
ACDBPLACEHOLDER
  5
13237
102
{ACAD_REACTORS
330
13236
102
}
330
13236
  0
SCALE
  5
136EE
102
{ACAD_REACTORS
330
136ED
102
}
330
136ED
100
AcDbScale
 70
     0
300
1:1
140
1.0
141
1.0
290
     1
  0
SCALE
  5
136EF
102
{ACAD_REACTORS
330
136ED
102
}
330
136ED
100
AcDbScale
 70
     0
300
1:2
140
1.0
141
2.0
290
     0
  0
SCALE
  5
136F0
102
{ACAD_REACTORS
330
136ED
102
}
330
136ED
100
AcDbScale
 70
     0
300
1:4
140
1.0
141
4.0
290
     0
  0
SCALE
  5
136F1
102
{ACAD_REACTORS
330
136ED
102
}
330
136ED
100
AcDbScale
 70
     0
300
1:5
140
1.0
141
5.0
290
     0
  0
SCALE
  5
136F2
102
{ACAD_REACTORS
330
136ED
102
}
330
136ED
100
AcDbScale
 70
     0
300
1:8
140
1.0
141
8.0
290
     0
  0
SCALE
  5
136F3
102
{ACAD_REACTORS
330
136ED
102
}
330
136ED
100
AcDbScale
 70
     0
300
1:10
140
1.0
141
10.0
290
     0
  0
SCALE
  5
136F4
102
{ACAD_REACTORS
330
136ED
102
}
330
136ED
100
AcDbScale
 70
     0
300
1:16
140
1.0
141
16.0
290
     0
  0
SCALE
  5
136F5
102
{ACAD_REACTORS
330
136ED
102
}
330
136ED
100
AcDbScale
 70
     0
300
1:20
140
1.0
141
20.0
290
     0
  0
SCALE
  5
136F6
102
{ACAD_REACTORS
330
136ED
102
}
330
136ED
100
AcDbScale
 70
     0
300
1:30
140
1.0
141
30.0
290
     0
  0
SCALE
  5
136F7
102
{ACAD_REACTORS
330
136ED
102
}
330
136ED
100
AcDbScale
 70
     0
300
1:40
140
1.0
141
40.0
290
     0
  0
SCALE
  5
136F8
102
{ACAD_REACTORS
330
136ED
102
}
330
136ED
100
AcDbScale
 70
     0
300
1:50
140
1.0
141
50.0
290
     0
  0
SCALE
  5
136F9
102
{ACAD_REACTORS
330
136ED
102
}
330
136ED
100
AcDbScale
 70
     0
300
1:100
140
1.0
141
100.0
290
     0
  0
SCALE
  5
136FA
102
{ACAD_REACTORS
330
136ED
102
}
330
136ED
100
AcDbScale
 70
     0
300
2:1
140
2.0
141
1.0
290
     0
  0
SCALE
  5
136FB
102
{ACAD_REACTORS
330
136ED
102
}
330
136ED
100
AcDbScale
 70
     0
300
4:1
140
4.0
141
1.0
290
     0
  0
SCALE
  5
136FC
102
{ACAD_REACTORS
330
136ED
102
}
330
136ED
100
AcDbScale
 70
     0
300
8:1
140
8.0
141
1.0
290
     0
  0
SCALE
  5
136FD
102
{ACAD_REACTORS
330
136ED
102
}
330
136ED
100
AcDbScale
 70
     0
300
10:1
140
10.0
141
1.0
290
     0
  0
SCALE
  5
136FE
102
{ACAD_REACTORS
330
136ED
102
}
330
136ED
100
AcDbScale
 70
     0
300
100:1
140
100.0
141
1.0
290
     0
  0
ACDBSECTIONVIEWSTYLE
  5
13702
102
{ACAD_XDICTIONARY
360
13731
102
}
102
{ACAD_REACTORS
330
13701
102
}
330
13701
100
AcDbModelDocViewStyle
 70
     0
  3
Metric50
290
     0
100
AcDbSectionViewStyle
 70
     0
 71
     0
 90
      102
 71
     1
340
7475
 40
5.0
340
0
340
0
 40
5.0
300
I, O, Q, S, X, Z
 40
10.0
 90
        0
 40
2.5
 90
        0
 71
     2
340
7479
 90
       25
340
7479
 90
       50
 40
5.0
 40
2.5
 40
5.0
 71
     3
340
7475
 40
5.0
 90
        0
 40
15.0
 90
        1
300
%<\AcVar ViewSectionStartId>%-%<\AcVar ViewSectionEndId>% (%<\AcVar ViewScale \f "%sn">%)
 71
     4
300
ANSI31
 40
1.0
 90
        0
290
     0
290
     0
 90
        6
 40
0.0
 40
1.570796326794896
 40
0.2617993877991494
 40
1.308996938995747
 40
-0.2617993877991494
 40
1.832595714594046
  0
TABLESTYLE
  5
136EC
102
{ACAD_XDICTIONARY
360
14F10
102
}
102
{ACAD_REACTORS
330
136EB
102
}
330
136EB
100
AcDbTableStyle
  3
Standard
 70
     0
 71
     0
 40
1.5
 41
1.5
280
     0
281
     0
  7
STANDARD
140
4.5
170
     2
 62
     0
 63
     7
283
     0
274
    -2
284
     1
 64
     0
275
    -2
285
     1
 65
     0
276
    -2
286
     1
 66
     0
277
    -2
287
     1
 67
     0
278
    -2
288
     1
 68
     0
279
    -2
289
     1
 69
     0
  7
STANDARD
140
6.0
170
     5
 62
     0
 63
     7
283
     0
274
    -2
284
     1
 64
     0
275
    -2
285
     1
 65
     0
276
    -2
286
     1
 66
     0
277
    -2
287
     1
 67
     0
278
    -2
288
     1
 68
     0
279
    -2
289
     1
 69
     0
  7
STANDARD
140
4.5
170
     5
 62
     0
 63
     7
283
     0
274
    -2
284
     1
 64
     0
275
    -2
285
     1
 65
     0
276
    -2
286
     1
 66
     0
277
    -2
287
     1
 67
     0
278
    -2
288
     1
 68
     0
279
    -2
289
     1
 69
     0
  0
VISUALSTYLE
  5
136D8
102
{ACAD_XDICTIONARY
360
14F2E
102
}
102
{ACAD_REACTORS
330
136D2
102
}
330
136D2
100
AcDbVisualStyle
  2
2dWireframe
 70
     4
 71
     0
 72
     2
 73
     0
 90
        0
 40
-0.6
 41
-30.0
 62
     5
 63
     7
 74
     1
 91
        4
 64
     7
 65
   257
 75
     1
175
     1
 42
1.0
 92
        0
 66
   257
 43
1.0
 76
     1
 77
     6
 78
     2
 67
     7
 79
     5
170
     0
171
     0
290
     0
174
     0
 93
        1
 44
0.0
173
     0
291
     0
 45
0.0
1001
ACAD
1000
AcDbSavedByObjectVersion
1070
     0
  0
VISUALSTYLE
  5
136D7
102
{ACAD_XDICTIONARY
360
14F2C
102
}
102
{ACAD_REACTORS
330
136D2
102
}
330
136D2
100
AcDbVisualStyle
  2
Basic
 70
     7
 71
     1
 72
     0
 73
     1
 90
        0
 40
-0.6
 41
-30.0
 62
     5
 63
     7
 74
     0
 91
        4
 64
     7
 65
   257
 75
     1
175
     1
 42
1.0
 92
        8
 66
     7
 43
1.0
 76
     1
 77
     6
 78
     2
 67
     7
 79
     5
170
     0
171
     0
290
     0
174
     0
 93
        1
 44
0.0
173
     0
291
     1
 45
0.0
1001
ACAD
1000
AcDbSavedByObjectVersion
1070
     0
  0
VISUALSTYLE
  5
136DE
102
{ACAD_XDICTIONARY
360
14F3A
102
}
102
{ACAD_REACTORS
330
136D2
102
}
330
136D2
100
AcDbVisualStyle
  2
Brighten
 70
    12
 71
     2
 72
     2
 73
     0
 90
        0
 40
-0.6
 41
-30.0
 62
     5
 63
     7
 74
     1
 91
        4
 64
     7
 65
   257
 75
     1
175
     1
 42
1.0
 92
        8
 66
     7
 43
1.0
 76
     1
 77
     6
 78
     2
 67
     7
 79
     5
170
     0
171
     0
290
     0
174
     0
 93
        1
 44
50.0
173
     0
291
     1
 45
0.0
1001
ACAD
1000
AcDbSavedByObjectVersion
1070
     0
  0
VISUALSTYLE
  5
136E2
102
{ACAD_XDICTIONARY
360
14F42
102
}
102
{ACAD_REACTORS
330
136D2
102
}
330
136D2
100
AcDbVisualStyle
  2
ColorChange
 70
    16
 71
     2
 72
     2
 73
     3
 90
        0
 40
-0.6
 41
-30.0
 62
     5
 63
     8
 74
     1
 91
        4
 64
     7
 65
   257
 75
     1
175
     1
 42
1.0
 92
        8
 66
     8
 43
1.0
 76
     1
 77
     6
 78
     2
 67
     7
 79
     5
170
     0
171
     0
290
     0
174
     0
 93
        1
 44
0.0
173
     0
291
     1
 45
0.0
1001
ACAD
1000
AcDbSavedByObjectVersion
1070
     0
  0
VISUALSTYLE
  5
136DB
102
{ACAD_XDICTIONARY
360
14F34
102
}
102
{ACAD_REACTORS
330
136D2
102
}
330
136D2
100
AcDbVisualStyle
  2
Conceptual
 70
     9
 71
     3
 72
     2
 73
     0
 90
        0
 40
-0.6
 41
-30.0
 62
     5
 63
     7
 74
     2
 91
        2
 64
     7
 65
   257
 75
     1
175
     1
 42
179.0
 92
        8
 66
     7
 43
1.0
 76
     1
 77
     6
 78
     2
 67
     7
 79
     3
170
     0
171
     0
290
     0
174
     0
 93
        1
 44
0.0
173
     0
291
     0
 45
0.0
1001
ACAD
1000
AcDbSavedByObjectVersion
1070
     0
  0
VISUALSTYLE
  5
136DD
102
{ACAD_XDICTIONARY
360
14F38
102
}
102
{ACAD_REACTORS
330
136D2
102
}
330
136D2
100
AcDbVisualStyle
  2
Dim
 70
    11
 71
     2
 72
     2
 73
     0
 90
        0
 40
-0.6
 41
-30.0
 62
     5
 63
     7
 74
     1
 91
        4
 64
     7
 65
   257
 75
     1
175
     1
 42
1.0
 92
        8
 66
     7
 43
1.0
 76
     1
 77
     6
 78
     2
 67
     7
 79
     5
170
     0
171
     0
290
     0
174
     0
 93
        1
 44
-50.0
173
     0
291
     1
 45
0.0
1001
ACAD
1000
AcDbSavedByObjectVersion
1070
     0
  0
VISUALSTYLE
  5
136EA
102
{ACAD_XDICTIONARY
360
14F52
102
}
102
{ACAD_REACTORS
330
136D2
102
}
330
136D2
100
AcDbVisualStyle
  2
EdgeColorOff
 70
    22
 71
     2
 72
     2
 73
     0
 90
        0
 40
-0.6
 41
-30.0
 62
     5
 63
     7
 74
     1
 91
        4
 64
     7
 65
   257
 75
     1
175
     1
 42
1.0
 92
        8
 66
     7
 43
1.0
 76
     1
 77
     6
 78
     2
 67
     7
 79
     5
170
     0
171
     0
290
     0
174
     0
 93
        1
 44
0.0
173
     0
291
     1
 45
0.0
1001
ACAD
1000
AcDbSavedByObjectVersion
1070
     0
  0
VISUALSTYLE
  5
136E1
102
{ACAD_XDICTIONARY
360
14F40
102
}
102
{ACAD_REACTORS
330
136D2
102
}
330
136D2
100
AcDbVisualStyle
  2
Facepattern
 70
    15
 71
     2
 72
     2
 73
     0
 90
        0
 40
-0.6
 41
-30.0
 62
     5
 63
     7
 74
     1
 91
        4
 64
     7
 65
   257
 75
     1
175
     1
 42
1.0
 92
        8
 66
     7
 43
1.0
 76
     1
 77
     6
 78
     2
 67
     7
 79
     5
170
     0
171
     0
290
     0
174
     0
 93
        1
 44
0.0
173
     0
291
     1
 45
0.0
1001
ACAD
1000
AcDbSavedByObjectVersion
1070
     0
  0
VISUALSTYLE
  5
136D3
102
{ACAD_XDICTIONARY
360
14F24
102
}
102
{ACAD_REACTORS
330
136D2
102
}
330
136D2
100
AcDbVisualStyle
  2
Flat
 70
     0
 71
     2
 72
     1
 73
     1
 90
        2
 40
-0.6
 41
30.0
 62
     5
 63
     7
 74
     0
 91
        0
 64
     7
 65
   257
 75
     1
175
     1
 42
1.0
 92
        8
 66
     7
 43
1.0
 76
     1
 77
     6
 78
     2
 67
     7
 79
     5
170
     0
171
     0
290
     0
174
     0
 93
       13
 44
0.0
173
     0
291
     1
 45
0.0
1001
ACAD
1000
AcDbSavedByObjectVersion
1070
     0
  0
VISUALSTYLE
  5
136D4
102
{ACAD_XDICTIONARY
360
14F26
102
}
102
{ACAD_REACTORS
330
136D2
102
}
330
136D2
100
AcDbVisualStyle
  2
FlatWithEdges
 70
     1
 71
     2
 72
     1
 73
     1
 90
        2
 40
-0.6
 41
30.0
 62
     5
 63
     7
 74
     1
 91
        0
 64
     7
 65
   257
 75
     1
175
     1
 42
1.0
 92
        0
 66
   257
 43
1.0
 76
     1
 77
     6
 78
     2
 67
     7
 79
     5
170
     0
171
     0
290
     0
174
     0
 93
       13
 44
0.0
173
     0
291
     1
 45
0.0
1001
ACAD
1000
AcDbSavedByObjectVersion
1070
     0
  0
VISUALSTYLE
  5
136D5
102
{ACAD_XDICTIONARY
360
14F28
102
}
102
{ACAD_REACTORS
330
136D2
102
}
330
136D2
100
AcDbVisualStyle
  2
Gouraud
 70
     2
 71
     2
 72
     2
 73
     1
 90
        2
 40
-0.6
 41
30.0
 62
     5
 63
     7
 74
     0
 91
        0
 64
     7
 65
   257
 75
     1
175
     1
 42
1.0
 92
        0
 66
     7
 43
1.0
 76
     1
 77
     6
 78
     2
 67
     7
 79
     5
170
     0
171
     0
290
     0
174
     0
 93
       13
 44
0.0
173
     0
291
     1
 45
0.0
1001
ACAD
1000
AcDbSavedByObjectVersion
1070
     0
  0
VISUALSTYLE
  5
136D6
102
{ACAD_XDICTIONARY
360
14F2A
102
}
102
{ACAD_REACTORS
330
136D2
102
}
330
136D2
100
AcDbVisualStyle
  2
GouraudWithEdges
 70
     3
 71
     2
 72
     2
 73
     1
 90
        2
 40
-0.6
 41
30.0
 62
     5
 63
     7
 74
     1
 91
        0
 64
     7
 65
   257
 75
     1
175
     1
 42
1.0
 92
        0
 66
   257
 43
1.0
 76
     1
 77
     6
 78
     2
 67
     7
 79
     5
170
     0
171
     0
290
     0
174
     0
 93
       13
 44
0.0
173
     0
291
     1
 45
0.0
1001
ACAD
1000
AcDbSavedByObjectVersion
1070
     0
  0
VISUALSTYLE
  5
136DA
102
{ACAD_XDICTIONARY
360
14F32
102
}
102
{ACAD_REACTORS
330
136D2
102
}
330
136D2
100
AcDbVisualStyle
  2
Hidden
 70
     6
 71
     1
 72
     2
 73
     2
 90
        0
 40
-0.6
 41
-30.0
 62
     5
 63
     7
 74
     2
 91
        2
 64
     7
 65
   257
 75
     2
175
     1
 42
40.0
 92
        0
 66
   257
 43
1.0
 76
     1
 77
     6
 78
     2
 67
     7
 79
     3
170
     0
171
     0
290
     0
174
     0
 93
        1
 44
0.0
173
     0
291
     0
 45
0.0
1001
ACAD
1000
AcDbSavedByObjectVersion
1070
     0
  0
VISUALSTYLE
  5
136E8
102
{ACAD_XDICTIONARY
360
14F4E
102
}
102
{ACAD_REACTORS
330
136D2
102
}
330
136D2
100
AcDbVisualStyle
  2
JitterOff
 70
    20
 71
     2
 72
     2
 73
     0
 90
        0
 40
-0.6
 41
-30.0
 62
     5
 63
     7
 74
     1
 91
        4
 64
     7
 65
   257
 75
     1
175
     1
 42
1.0
 92
       10
 66
     7
 43
1.0
 76
     1
 77
     6
 78
     2
 67
     7
 79
     5
170
     0
171
     0
290
     0
174
     0
 93
        1
 44
0.0
173
     0
291
     1
 45
0.0
1001
ACAD
1000
AcDbSavedByObjectVersion
1070
     0
  0
VISUALSTYLE
  5
136E0
102
{ACAD_XDICTIONARY
360
14F3E
102
}
102
{ACAD_REACTORS
330
136D2
102
}
330
136D2
100
AcDbVisualStyle
  2
Linepattern
 70
    14
 71
     2
 72
     2
 73
     0
 90
        0
 40
-0.6
 41
-30.0
 62
     5
 63
     7
 74
     1
 91
        4
 64
     7
 65
   257
 75
     7
175
     7
 42
1.0
 92
        8
 66
     7
 43
1.0
 76
     1
 77
     6
 78
     2
 67
     7
 79
     5
170
     0
171
     0
290
     0
174
     0
 93
        1
 44
0.0
173
     0
291
     1
 45
0.0
1001
ACAD
1000
AcDbSavedByObjectVersion
1070
     0
  0
VISUALSTYLE
  5
136E9
102
{ACAD_XDICTIONARY
360
14F50
102
}
102
{ACAD_REACTORS
330
136D2
102
}
330
136D2
100
AcDbVisualStyle
  2
OverhangOff
 70
    21
 71
     2
 72
     2
 73
     0
 90
        0
 40
-0.6
 41
-30.0
 62
     5
 63
     7
 74
     1
 91
        4
 64
     7
 65
   257
 75
     1
175
     1
 42
1.0
 92
        9
 66
     7
 43
1.0
 76
     1
 77
     6
 78
     2
 67
     7
 79
     5
170
     0
171
     0
290
     0
174
     0
 93
        1
 44
0.0
173
     0
291
     1
 45
0.0
1001
ACAD
1000
AcDbSavedByObjectVersion
1070
     0
  0
VISUALSTYLE
  5
136DC
102
{ACAD_XDICTIONARY
360
14F36
102
}
102
{ACAD_REACTORS
330
136D2
102
}
330
136D2
100
AcDbVisualStyle
  2
Realistic
 70
     8
 71
     2
 72
     3
 73
     0
 90
        2
 40
-0.6
 41
30.0
 62
     5
 63
     7
 74
     0
 91
        0
 64
     7
 65
   257
 75
     1
175
     1
 42
1.0
 92
        8
 66
   257
 43
1.0
 76
     1
 77
     6
 78
     2
 67
     7
 79
     3
170
     0
171
     0
290
     0
174
     0
 93
       13
 44
0.0
173
     0
291
     0
 45
0.0
1001
ACAD
1000
AcDbSavedByObjectVersion
1070
     0
  0
VISUALSTYLE
  5
136E7
102
{ACAD_XDICTIONARY
360
14F4C
102
}
102
{ACAD_REACTORS
330
136D2
102
}
330
136D2
100
AcDbVisualStyle
  2
Shaded
 70
    27
 71
     2
 72
     2
 73
     1
 90
        2
 40
-0.6
 41
30.0
 62
     5
 63
     7
 74
     0
 91
        4
 64
     7
 65
   257
 75
     1
175
     1
 42
1.0
 92
        8
 66
   257
 43
1.0
 76
     1
 77
     6
 78
     2
 67
     8
 79
     3
170
     0
171
     0
290
     0
174
     0
 93
        5
 44
0.0
173
     0
291
     0
 45
0.0
1001
ACAD
1000
AcDbSavedByObjectVersion
1070
     0
  0
VISUALSTYLE
  5
136E6
102
{ACAD_XDICTIONARY
360
14F4A
102
}
102
{ACAD_REACTORS
330
136D2
102
}
330
136D2
100
AcDbVisualStyle
  2
Shaded with edges
 70
    26
 71
     2
 72
     2
 73
     1
 90
        2
 40
-0.6
 41
30.0
 62
     5
 63
     7
 74
     1
 91
       10
 64
     7
 65
   257
 75
     2
175
     1
 42
1.0
 92
        8
 66
   257
 43
1.0
 76
     1
 77
     6
 78
     2
 67
     7
 79
     3
170
     0
171
     0
290
     0
174
     0
 93
        5
 44
0.0
173
     0
291
     0
 45
0.0
1001
ACAD
1000
AcDbSavedByObjectVersion
1070
     0
  0
VISUALSTYLE
  5
136E3
102
{ACAD_XDICTIONARY
360
14F44
102
}
102
{ACAD_REACTORS
330
136D2
102
}
330
136D2
100
AcDbVisualStyle
  2
Shades of Gray
 70
    23
 71
     2
 72
     2
 73
     3
 90
        0
 40
-0.6
 41
-30.0
 62
     5
 63
     7
 74
     2
 91
        2
 64
     7
 65
     7
 75
     1
175
     1
 42
40.0
 92
        8
 66
     7
 43
1.0
 76
     1
 77
     6
 78
     2
 67
     7
 79
     3
170
     0
171
     0
290
     0
174
     0
 93
        1
 44
0.0
173
     0
291
     0
 45
0.0
1001
ACAD
1000
AcDbSavedByObjectVersion
1070
     0
  0
VISUALSTYLE
  5
136E4
102
{ACAD_XDICTIONARY
360
14F46
102
}
102
{ACAD_REACTORS
330
136D2
102
}
330
136D2
100
AcDbVisualStyle
  2
Sketchy
 70
    24
 71
     1
 72
     2
 73
     2
 90
        0
 40
-0.6
 41
-30.0
 62
     5
 63
     7
 74
     2
 91
        2
 64
     7
 65
     7
 75
     1
175
     1
 42
40.0
 92
       11
 66
     7
 43
1.0
 76
     1
 77
     6
 78
     2
 67
     7
 79
     6
170
     0
171
     0
290
     0
174
     0
 93
        1
 44
0.0
173
     0
291
     0
 45
0.0
1001
ACAD
1000
AcDbSavedByObjectVersion
1070
     0
  0
VISUALSTYLE
  5
136DF
102
{ACAD_XDICTIONARY
360
14F3C
102
}
102
{ACAD_REACTORS
330
136D2
102
}
330
136D2
100
AcDbVisualStyle
  2
Thicken
 70
    13
 71
     2
 72
     2
 73
     0
 90
        0
 40
-0.6
 41
-30.0
 62
     5
 63
     7
 74
     1
 91
        4
 64
     7
 65
   257
 75
     1
175
     1
 42
1.0
 92
       12
 66
     7
 43
1.0
 76
     1
 77
     6
 78
     2
 67
     7
 79
     5
170
     0
171
     0
290
     0
174
     0
 93
        1
 44
0.0
173
     0
291
     1
 45
0.0
1001
ACAD
1000
AcDbSavedByObjectVersion
1070
     0
  0
VISUALSTYLE
  5
136D9
102
{ACAD_XDICTIONARY
360
14F30
102
}
102
{ACAD_REACTORS
330
136D2
102
}
330
136D2
100
AcDbVisualStyle
  2
Wireframe
 70
     5
 71
     0
 72
     2
 73
     0
 90
        0
 40
-0.6
 41
-30.0
 62
     5
 63
     7
 74
     1
 91
        4
 64
     7
 65
   257
 75
     1
175
     1
 42
1.0
 92
        0
 66
   257
 43
1.0
 76
     1
 77
     6
 78
     2
 67
     7
 79
     3
170
     0
171
     0
290
     0
174
     0
 93
        1
 44
0.0
173
     0
291
     0
 45
0.0
1001
ACAD
1000
AcDbSavedByObjectVersion
1070
     0
  0
VISUALSTYLE
  5
136E5
102
{ACAD_XDICTIONARY
360
14F48
102
}
102
{ACAD_REACTORS
330
136D2
102
}
330
136D2
100
AcDbVisualStyle
  2
X-Ray
 70
    25
 71
     2
 72
     2
 73
     1
 90
        1
 40
0.5
 41
-30.0
 62
     5
 63
     7
 74
     1
 91
        0
 64
     7
 65
   257
 75
     1
175
     1
 42
1.0
 92
        8
 66
     7
 43
1.0
 76
     1
 77
     6
 78
     2
 67
     7
 79
     3
170
     0
171
     0
290
     0
174
     0
 93
       13
 44
0.0
173
     0
291
     0
 45
0.0
1001
ACAD
1000
AcDbSavedByObjectVersion
1070
     0
  0
DICTIONARYVAR
  5
1373B
102
{ACAD_REACTORS
330
11B74
102
}
330
11B74
100
DictionaryVariables
280
     0
  1
1:1
  0
DICTIONARYVAR
  5
13737
102
{ACAD_REACTORS
330
11B74
102
}
330
11B74
100
DictionaryVariables
280
     0
  1
STANDARD
  0
DICTIONARYVAR
  5
13736
102
{ACAD_REACTORS
330
11B74
102
}
330
11B74
100
DictionaryVariables
280
     0
  1
STANDARD
  0
DICTIONARYVAR
  5
13738
102
{ACAD_REACTORS
330
11B74
102
}
330
11B74
100
DictionaryVariables
280
     0
  1
Metric50
  0
DICTIONARYVAR
  5
13739
102
{ACAD_REACTORS
330
11B74
102
}
330
11B74
100
DictionaryVariables
280
     0
  1
Metric50
  0
DICTIONARYVAR
  5
14F0F
102
{ACAD_REACTORS
330
11B74
102
}
330
11B74
100
DictionaryVariables
280
     0
  1
1
  0
DICTIONARYVAR
  5
14F0D
102
{ACAD_REACTORS
330
11B74
102
}
330
11B74
100
DictionaryVariables
280
     0
  1
0
  0
DICTIONARYVAR
  5
1373D
102
{ACAD_REACTORS
330
11B74
102
}
330
11B74
100
DictionaryVariables
280
     0
  1
1
  0
DICTIONARYVAR
  5
1373E
102
{ACAD_REACTORS
330
11B74
102
}
330
11B74
100
DictionaryVariables
280
     0
  1
15
  0
DICTIONARYVAR
  5
1373C
102
{ACAD_REACTORS
330
11B74
102
}
330
11B74
100
DictionaryVariables
280
     0
  1
0
  0
DICTIONARYVAR
  5
1373A
102
{ACAD_REACTORS
330
11B74
102
}
330
11B74
100
DictionaryVariables
280
     0
  1
0
  0
DICTIONARYVAR
  5
11B75
102
{ACAD_REACTORS
330
11B74
102
}
330
11B74
100
DictionaryVariables
280
     0
  1
127
  0
DICTIONARYVAR
  5
14F0E
102
{ACAD_REACTORS
330
11B74
102
}
330
11B74
100
DictionaryVariables
280
     0
  1
0
  0
DICTIONARY
  5
14F1B
102
{ACAD_REACTORS
330
14F19
102
}
330
14F19
100
AcDbDictionary
281
     1
  0
DICTIONARY
  5
14F1A
102
{ACAD_REACTORS
330
14F19
102
}
330
14F19
100
AcDbDictionary
281
     1
  3
140686628458560
350
14F14
  3
140686628458576
350
14F15
  3
140686628458592
350
14F16
  3
140686628458608
350
14F17
  3
140686628458624
350
14F18
  0
DICTIONARY
  5
13733
330
13704
100
AcDbDictionary
280
     1
281
     1
  3
ACAD_XREC_ROUNDTRIP
360
14F59
  0
DICTIONARY
  5
14F1D
330
1323C
100
AcDbDictionary
280
     1
281
     1
  3
ACAD_XREC_ROUNDTRIP
360
14F1E
  0
DICTIONARY
  5
14F1F
330
1323D
100
AcDbDictionary
280
     1
281
     1
  3
ACAD_XREC_ROUNDTRIP
360
14F20
  0
DICTIONARY
  5
136C3
330
136C2
100
AcDbDictionary
280
     1
281
     1
  3
ACAD_XREC_ROUNDTRIP
360
14F22
  3
BUMPTILE
360
136C5
  3
DIFFUSETILE
360
136C4
  3
OPACITYTILE
360
136C8
  3
REFLECTIONTILE
360
136C7
  3
REFRACTIONTILE
360
136C9
  3
SPECULARTILE
360
136C6
  0
DICTIONARY
  5
136BB
330
136BA
100
AcDbDictionary
280
     1
281
     1
  3
ACAD_XREC_ROUNDTRIP
360
14F21
  3
BUMPTILE
360
136BD
  3
DIFFUSETILE
360
136BC
  3
OPACITYTILE
360
136C0
  3
REFLECTIONTILE
360
136BF
  3
REFRACTIONTILE
360
136C1
  3
SPECULARTILE
360
136BE
  0
DICTIONARY
  5
136CB
330
136CA
100
AcDbDictionary
280
     1
281
     1
  3
ACAD_XREC_ROUNDTRIP
360
14F23
  3
BUMPTILE
360
136CD
  3
DIFFUSETILE
360
136CC
  3
OPACITYTILE
360
136D0
  3
REFLECTIONTILE
360
136CF
  3
REFRACTIONTILE
360
136D1
  3
SPECULARTILE
360
136CE
  0
DICTIONARY
  5
14F56
330
13700
100
AcDbDictionary
280
     1
281
     1
  3
ACAD_XREC_ROUNDTRIP
360
14F57
  0
DICTIONARY
  5
13731
330
13702
100
AcDbDictionary
280
     1
281
     1
  3
ACAD_XREC_ROUNDTRIP
360
14F58
  0
DICTIONARY
  5
14F10
330
136EC
100
AcDbDictionary
280
     1
281
     1
  3
ACAD_ROUNDTRIP_2008_TABLESTYLE_CELLSTYLEMAP
360
14F11
  3
ACAD_XREC_ROUNDTRIP
360
14F54
  0
DICTIONARY
  5
14F2E
330
136D8
100
AcDbDictionary
280
     1
281
     1
  3
ACAD_XREC_ROUNDTRIP
360
14F2F
  0
DICTIONARY
  5
14F2C
330
136D7
100
AcDbDictionary
280
     1
281
     1
  3
ACAD_XREC_ROUNDTRIP
360
14F2D
  0
DICTIONARY
  5
14F3A
330
136DE
100
AcDbDictionary
280
     1
281
     1
  3
ACAD_XREC_ROUNDTRIP
360
14F3B
  0
DICTIONARY
  5
14F42
330
136E2
100
AcDbDictionary
280
     1
281
     1
  3
ACAD_XREC_ROUNDTRIP
360
14F43
  0
DICTIONARY
  5
14F34
330
136DB
100
AcDbDictionary
280
     1
281
     1
  3
ACAD_XREC_ROUNDTRIP
360
14F35
  0
DICTIONARY
  5
14F38
330
136DD
100
AcDbDictionary
280
     1
281
     1
  3
ACAD_XREC_ROUNDTRIP
360
14F39
  0
DICTIONARY
  5
14F52
330
136EA
100
AcDbDictionary
280
     1
281
     1
  3
ACAD_XREC_ROUNDTRIP
360
14F53
  0
DICTIONARY
  5
14F40
330
136E1
100
AcDbDictionary
280
     1
281
     1
  3
ACAD_XREC_ROUNDTRIP
360
14F41
  0
DICTIONARY
  5
14F24
330
136D3
100
AcDbDictionary
280
     1
281
     1
  3
ACAD_XREC_ROUNDTRIP
360
14F25
  0
DICTIONARY
  5
14F26
330
136D4
100
AcDbDictionary
280
     1
281
     1
  3
ACAD_XREC_ROUNDTRIP
360
14F27
  0
DICTIONARY
  5
14F28
330
136D5
100
AcDbDictionary
280
     1
281
     1
  3
ACAD_XREC_ROUNDTRIP
360
14F29
  0
DICTIONARY
  5
14F2A
330
136D6
100
AcDbDictionary
280
     1
281
     1
  3
ACAD_XREC_ROUNDTRIP
360
14F2B
  0
DICTIONARY
  5
14F32
330
136DA
100
AcDbDictionary
280
     1
281
     1
  3
ACAD_XREC_ROUNDTRIP
360
14F33
  0
DICTIONARY
  5
14F4E
330
136E8
100
AcDbDictionary
280
     1
281
     1
  3
ACAD_XREC_ROUNDTRIP
360
14F4F
  0
DICTIONARY
  5
14F3E
330
136E0
100
AcDbDictionary
280
     1
281
     1
  3
ACAD_XREC_ROUNDTRIP
360
14F3F
  0
DICTIONARY
  5
14F50
330
136E9
100
AcDbDictionary
280
     1
281
     1
  3
ACAD_XREC_ROUNDTRIP
360
14F51
  0
DICTIONARY
  5
14F36
330
136DC
100
AcDbDictionary
280
     1
281
     1
  3
ACAD_XREC_ROUNDTRIP
360
14F37
  0
DICTIONARY
  5
14F4C
330
136E7
100
AcDbDictionary
280
     1
281
     1
  3
ACAD_XREC_ROUNDTRIP
360
14F4D
  0
DICTIONARY
  5
14F4A
330
136E6
100
AcDbDictionary
280
     1
281
     1
  3
ACAD_XREC_ROUNDTRIP
360
14F4B
  0
DICTIONARY
  5
14F44
330
136E3
100
AcDbDictionary
280
     1
281
     1
  3
ACAD_XREC_ROUNDTRIP
360
14F45
  0
DICTIONARY
  5
14F46
330
136E4
100
AcDbDictionary
280
     1
281
     1
  3
ACAD_XREC_ROUNDTRIP
360
14F47
  0
DICTIONARY
  5
14F3C
330
136DF
100
AcDbDictionary
280
     1
281
     1
  3
ACAD_XREC_ROUNDTRIP
360
14F3D
  0
DICTIONARY
  5
14F30
330
136D9
100
AcDbDictionary
280
     1
281
     1
  3
ACAD_XREC_ROUNDTRIP
360
14F31
  0
DICTIONARY
  5
14F48
330
136E5
100
AcDbDictionary
280
     1
281
     1
  3
ACAD_XREC_ROUNDTRIP
360
14F49
  0
XRECORD
  5
14F14
102
{ACAD_REACTORS
330
14F1A
102
}
330
14F1A
100
AcDbXrecord
280
     1
  1
AcDb_Thumbnail_Schema
102
{ATTRRECORD
341
14F15
  2
AcDbDs::TreatedAsObjectData
280
     1
291
     1
102
ATTRRECORD}
102
{ATTRRECORD
341
14F16
  2
AcDbDs::Legacy
280
     1
291
     1
102
ATTRRECORD}
  2
AcDbDs::ID
280
    10
 91
        8
102
{ATTRRECORD
341
14F17
  2
AcDs:Indexable
280
     1
291
     1
102
ATTRRECORD}
102
{ATTRRECORD
341
14F18
  2
AcDbDs::HandleAttribute
280
     7
282
     1
102
ATTRRECORD}
  2
Thumbnail_Data
280
    15
 91
        0
  0
XRECORD
  5
14F15
102
{ACAD_REACTORS
330
14F1A
102
}
330
14F1A
100
AcDbXrecord
280
     1
  1
AcDbDs::TreatedAsObjectDataSchema
  2
AcDbDs::TreatedAsObjectData
280
     1
 91
        0
  0
XRECORD
  5
14F16
102
{ACAD_REACTORS
330
14F1A
102
}
330
14F1A
100
AcDbXrecord
280
     1
  1
AcDbDs::LegacySchema
  2
AcDbDs::Legacy
280
     1
 91
        0
  0
XRECORD
  5
14F17
102
{ACAD_REACTORS
330
14F1A
102
}
330
14F1A
100
AcDbXrecord
280
     1
  1
AcDbDs::IndexedPropertySchema
  2
AcDs:Indexable
280
     1
 91
        0
  0
XRECORD
  5
14F18
102
{ACAD_REACTORS
330
14F1A
102
}
330
14F1A
100
AcDbXrecord
280
     1
  1
AcDbDs::HandleAttributeSchema
  2
AcDbDs::HandleAttribute
280
     7
 91
        1
284
     1
  0
XRECORD
  5
14F59
102
{ACAD_REACTORS
330
13733
102
}
330
13733
100
AcDbXrecord
280
     1
102
DISPLAYNAME
  1
Metric50
102
FLAGS
 90
        0
  0
XRECORD
  5
14F1E
102
{ACAD_REACTORS
330
14F1D
102
}
330
14F1D
100
AcDbXrecord
280
     1
102
SHADEPLOT
 70
     0
102
SHADEPLOTRESLEVEL
 70
     2
102
SHADEPLOTCUSTOMDPI
 70
   300
  0
XRECORD
  5
14F20
102
{ACAD_REACTORS
330
14F1F
102
}
330
14F1F
100
AcDbXrecord
280
     1
102
SHADEPLOT
 70
     0
102
SHADEPLOTRESLEVEL
 70
     2
102
SHADEPLOTCUSTOMDPI
 70
   300
  0
XRECORD
  5
14F22
102
{ACAD_REACTORS
330
136C3
102
}
330
136C3
100
AcDbXrecord
280
     1
102
MATERIAL
148
0.0
149
0.0
149
0.0
 93
        0
 94
      127
282
     0
 72
     0
 77
     0
171
     0
175
     0
179
     0
273
     0
  0
XRECORD
  5
136C5
102
{ACAD_REACTORS
330
136C3
102
}
330
136C3
100
AcDbXrecord
280
     1
270
     1
271
     1
  0
XRECORD
  5
136C4
102
{ACAD_REACTORS
330
136C3
102
}
330
136C3
100
AcDbXrecord
280
     1
270
     1
271
     1
  0
XRECORD
  5
136C8
102
{ACAD_REACTORS
330
136C3
102
}
330
136C3
100
AcDbXrecord
280
     1
270
     1
271
     1
  0
XRECORD
  5
136C7
102
{ACAD_REACTORS
330
136C3
102
}
330
136C3
100
AcDbXrecord
280
     1
270
     1
271
     1
  0
XRECORD
  5
136C9
102
{ACAD_REACTORS
330
136C3
102
}
330
136C3
100
AcDbXrecord
280
     1
270
     1
271
     1
  0
XRECORD
  5
136C6
102
{ACAD_REACTORS
330
136C3
102
}
330
136C3
100
AcDbXrecord
280
     1
270
     1
271
     1
  0
XRECORD
  5
14F21
102
{ACAD_REACTORS
330
136BB
102
}
330
136BB
100
AcDbXrecord
280
     1
102
MATERIAL
148
0.0
149
0.0
149
0.0
 93
        0
 94
      127
282
     0
 72
     0
 77
     0
171
     0
175
     0
179
     0
273
     0
  0
XRECORD
  5
136BD
102
{ACAD_REACTORS
330
136BB
102
}
330
136BB
100
AcDbXrecord
280
     1
270
     1
271
     1
  0
XRECORD
  5
136BC
102
{ACAD_REACTORS
330
136BB
102
}
330
136BB
100
AcDbXrecord
280
     1
270
     1
271
     1
  0
XRECORD
  5
136C0
102
{ACAD_REACTORS
330
136BB
102
}
330
136BB
100
AcDbXrecord
280
     1
270
     1
271
     1
  0
XRECORD
  5
136BF
102
{ACAD_REACTORS
330
136BB
102
}
330
136BB
100
AcDbXrecord
280
     1
270
     1
271
     1
  0
XRECORD
  5
136C1
102
{ACAD_REACTORS
330
136BB
102
}
330
136BB
100
AcDbXrecord
280
     1
270
     1
271
     1
  0
XRECORD
  5
136BE
102
{ACAD_REACTORS
330
136BB
102
}
330
136BB
100
AcDbXrecord
280
     1
270
     1
271
     1
  0
XRECORD
  5
14F23
102
{ACAD_REACTORS
330
136CB
102
}
330
136CB
100
AcDbXrecord
280
     1
102
MATERIAL
148
0.0
149
0.0
149
0.0
 93
        0
 94
      127
282
     0
 72
     0
 77
     0
171
     0
175
     0
179
     0
273
     0
  0
XRECORD
  5
136CD
102
{ACAD_REACTORS
330
136CB
102
}
330
136CB
100
AcDbXrecord
280
     1
270
     1
271
     1
  0
XRECORD
  5
136CC
102
{ACAD_REACTORS
330
136CB
102
}
330
136CB
100
AcDbXrecord
280
     1
270
     1
271
     1
  0
XRECORD
  5
136D0
102
{ACAD_REACTORS
330
136CB
102
}
330
136CB
100
AcDbXrecord
280
     1
270
     1
271
     1
  0
XRECORD
  5
136CF
102
{ACAD_REACTORS
330
136CB
102
}
330
136CB
100
AcDbXrecord
280
     1
270
     1
271
     1
  0
XRECORD
  5
136D1
102
{ACAD_REACTORS
330
136CB
102
}
330
136CB
100
AcDbXrecord
280
     1
270
     1
271
     1
  0
XRECORD
  5
136CE
102
{ACAD_REACTORS
330
136CB
102
}
330
136CB
100
AcDbXrecord
280
     1
270
     1
271
     1
  0
XRECORD
  5
14F57
102
{ACAD_REACTORS
330
14F56
102
}
330
14F56
100
AcDbXrecord
280
     1
102
ACAD_ROUNDTRIP_2012_MLEADER_STYLE
298
     1
  0
XRECORD
  5
14F58
102
{ACAD_REACTORS
330
13731
102
}
330
13731
100
AcDbXrecord
280
     1
102
DISPLAYNAME
  1
Metric50
102
FLAGS
 90
        0
  0
CELLSTYLEMAP
  5
14F11
102
{ACAD_REACTORS
330
14F10
102
}
330
14F10
100
AcDbCellStyleMap
 90
        3
300
CELLSTYLE
  1
TABLEFORMAT_BEGIN
 90
        5
170
     1
 91
        0
 92
    32768
 62
   257
 93
        1
300
CONTENTFORMAT
  1
CONTENTFORMAT_BEGIN
 90
        0
 91
        0
 92
      512
 93
        0
300

 40
0.0
140
1.0
 94
        5
 62
     0
340
7475
144
6.0
309
CONTENTFORMAT_END
171
     1
301
MARGIN
  1
CELLMARGIN_BEGIN
 40
1.5
 40
1.5
 40
1.5
 40
1.5
 40
4.5
 40
4.5
309
CELLMARGIN_END
 94
        6
 95
        1
302
GRIDFORMAT
  1
GRIDFORMAT_BEGIN
 90
        0
 91
        1
 62
     0
 92
       -2
340
0
 93
        0
 40
1.125
309
GRIDFORMAT_END
 95
        2
302
GRIDFORMAT
  1
GRIDFORMAT_BEGIN
 90
        0
 91
        1
 62
     0
 92
       -2
340
0
 93
        0
 40
1.125
309
GRIDFORMAT_END
 95
        4
302
GRIDFORMAT
  1
GRIDFORMAT_BEGIN
 90
        0
 91
        1
 62
     0
 92
       -2
340
0
 93
        0
 40
1.125
309
GRIDFORMAT_END
 95
        8
302
GRIDFORMAT
  1
GRIDFORMAT_BEGIN
 90
        0
 91
        1
 62
     0
 92
       -2
340
0
 93
        0
 40
1.125
309
GRIDFORMAT_END
 95
       16
302
GRIDFORMAT
  1
GRIDFORMAT_BEGIN
 90
        0
 91
        1
 62
     0
 92
       -2
340
0
 93
        0
 40
1.125
309
GRIDFORMAT_END
 95
       32
302
GRIDFORMAT
  1
GRIDFORMAT_BEGIN
 90
        0
 91
        1
 62
     0
 92
       -2
340
0
 93
        0
 40
1.125
309
GRIDFORMAT_END
309
TABLEFORMAT_END
  1
CELLSTYLE_BEGIN
 90
        1
 91
        1
300
_TITLE
309
CELLSTYLE_END
300
CELLSTYLE
  1
TABLEFORMAT_BEGIN
 90
        5
170
     1
 91
        0
 92
        0
 62
   257
 93
        1
300
CONTENTFORMAT
  1
CONTENTFORMAT_BEGIN
 90
        0
 91
        0
 92
      512
 93
        0
300

 40
0.0
140
1.0
 94
        5
 62
     0
340
7475
144
4.5
309
CONTENTFORMAT_END
171
     1
301
MARGIN
  1
CELLMARGIN_BEGIN
 40
1.5
 40
1.5
 40
1.5
 40
1.5
 40
4.5
 40
4.5
309
CELLMARGIN_END
 94
        6
 95
        1
302
GRIDFORMAT
  1
GRIDFORMAT_BEGIN
 90
        0
 91
        1
 62
     0
 92
       -2
340
0
 93
        0
 40
1.125
309
GRIDFORMAT_END
 95
        2
302
GRIDFORMAT
  1
GRIDFORMAT_BEGIN
 90
        0
 91
        1
 62
     0
 92
       -2
340
0
 93
        0
 40
1.125
309
GRIDFORMAT_END
 95
        4
302
GRIDFORMAT
  1
GRIDFORMAT_BEGIN
 90
        0
 91
        1
 62
     0
 92
       -2
340
0
 93
        0
 40
1.125
309
GRIDFORMAT_END
 95
        8
302
GRIDFORMAT
  1
GRIDFORMAT_BEGIN
 90
        0
 91
        1
 62
     0
 92
       -2
340
0
 93
        0
 40
1.125
309
GRIDFORMAT_END
 95
       16
302
GRIDFORMAT
  1
GRIDFORMAT_BEGIN
 90
        0
 91
        1
 62
     0
 92
       -2
340
0
 93
        0
 40
1.125
309
GRIDFORMAT_END
 95
       32
302
GRIDFORMAT
  1
GRIDFORMAT_BEGIN
 90
        0
 91
        1
 62
     0
 92
       -2
340
0
 93
        0
 40
1.125
309
GRIDFORMAT_END
309
TABLEFORMAT_END
  1
CELLSTYLE_BEGIN
 90
        2
 91
        1
300
_HEADER
309
CELLSTYLE_END
300
CELLSTYLE
  1
TABLEFORMAT_BEGIN
 90
        5
170
     1
 91
        0
 92
        0
 62
   257
 93
        1
300
CONTENTFORMAT
  1
CONTENTFORMAT_BEGIN
 90
        0
 91
        0
 92
      512
 93
        0
300

 40
0.0
140
1.0
 94
        2
 62
     0
340
7475
144
4.5
309
CONTENTFORMAT_END
171
     1
301
MARGIN
  1
CELLMARGIN_BEGIN
 40
1.5
 40
1.5
 40
1.5
 40
1.5
 40
4.5
 40
4.5
309
CELLMARGIN_END
 94
        6
 95
        1
302
GRIDFORMAT
  1
GRIDFORMAT_BEGIN
 90
        0
 91
        1
 62
     0
 92
       -2
340
0
 93
        0
 40
1.125
309
GRIDFORMAT_END
 95
        2
302
GRIDFORMAT
  1
GRIDFORMAT_BEGIN
 90
        0
 91
        1
 62
     0
 92
       -2
340
0
 93
        0
 40
1.125
309
GRIDFORMAT_END
 95
        4
302
GRIDFORMAT
  1
GRIDFORMAT_BEGIN
 90
        0
 91
        1
 62
     0
 92
       -2
340
0
 93
        0
 40
1.125
309
GRIDFORMAT_END
 95
        8
302
GRIDFORMAT
  1
GRIDFORMAT_BEGIN
 90
        0
 91
        1
 62
     0
 92
       -2
340
0
 93
        0
 40
1.125
309
GRIDFORMAT_END
 95
       16
302
GRIDFORMAT
  1
GRIDFORMAT_BEGIN
 90
        0
 91
        1
 62
     0
 92
       -2
340
0
 93
        0
 40
1.125
309
GRIDFORMAT_END
 95
       32
302
GRIDFORMAT
  1
GRIDFORMAT_BEGIN
 90
        0
 91
        1
 62
     0
 92
       -2
340
0
 93
        0
 40
1.125
309
GRIDFORMAT_END
309
TABLEFORMAT_END
  1
CELLSTYLE_BEGIN
 90
        3
 91
        2
300
_DATA
309
CELLSTYLE_END
  0
XRECORD
  5
14F54
102
{ACAD_REACTORS
330
14F10
102
}
330
14F10
100
AcDbXrecord
280
     1
102
ACAD_ROUNDTRIP_PRE2007_TABLESTYLE
 90
      512
 91
        0
  1

 92
      512
 93
        0
  2

 94
      512
 95
        0
  3

  0
XRECORD
  5
14F2F
102
{ACAD_REACTORS
330
14F2E
102
}
330
14F2E
100
AcDbXrecord
280
     1
102
RTVSPost2010Prop28
280
     1
102
RTVSPost2010PropOp28
 70
     1
102
RTVSPost2010Prop29
280
     1
102
RTVSPost2010PropOp29
 70
     1
102
RTVSPost2010Prop30
280
     0
102
RTVSPost2010PropOp30
 70
     1
102
RTVSPost2010Prop31
280
     0
102
RTVSPost2010PropOp31
 70
     1
102
RTVSPost2010Prop32
280
     0
102
RTVSPost2010PropOp32
 70
     1
102
RTVSPost2010Prop33
280
     0
102
RTVSPost2010PropOp33
 70
     1
102
RTVSPost2010Prop34
280
     0
102
RTVSPost2010PropOp34
 70
     1
102
RTVSPost2010Prop35
280
     0
102
RTVSPost2010PropOp35
 70
     1
102
RTVSPost2010Prop36
280
     0
102
RTVSPost2010PropOp36
 70
     1
102
RTVSPost2010Prop37
 90
       50
102
RTVSPost2010PropOp37
 70
     1
102
RTVSPost2010Prop38
140
0.0
102
RTVSPost2010PropOp38
 70
     1
102
RTVSPost2010Prop39
140
1.0
102
RTVSPost2010PropOp39
 70
     1
102
RTVSPost2010Prop40
 90
        0
102
RTVSPost2010PropOp40
 70
     1
102
RTVSPost2010Prop41ColorIndex
 90
       18
102
RTVSPost2010Prop41ColorRGB
 90
        0
102
RTVSPost2010PropOp41
 70
     1
102
RTVSPost2010Prop42
 90
       50
102
RTVSPost2010PropOp42
 70
     1
102
RTVSPost2010Prop43
 90
        3
102
RTVSPost2010PropOp43
 70
     1
102
RTVSPost2010Prop44ColorIndex
 90
        5
102
RTVSPost2010Prop44ColorRGB
 90
      255
102
RTVSPost2010PropOp44
 70
     1
102
RTVSPost2010Prop45
280
     0
102
RTVSPost2010PropOp45
 70
     1
102
RTVSPost2010Prop46
 90
       50
102
RTVSPost2010PropOp46
 70
     1
102
RTVSPost2010Prop47
 90
       50
102
RTVSPost2010PropOp47
 70
     1
102
RTVSPost2010Prop48
 90
       50
102
RTVSPost2010PropOp48
 70
     1
102
RTVSPost2010Prop49
280
     0
102
RTVSPost2010PropOp49
 70
     1
102
RTVSPost2010Prop50
 90
       50
102
RTVSPost2010PropOp50
 70
     1
102
RTVSPost2010Prop51ColorIndex
 90
      256
102
RTVSPost2010Prop51ColorRGB
 90
-16777216
102
RTVSPost2010PropOp51
 70
     0
102
RTVSPost2010Prop52
140
1.0
102
RTVSPost2010PropOp52
 70
     0
102
RTVSPost2010Prop53
 90
        2
102
RTVSPost2010PropOp53
 70
     1
102
RTVSPost2010Prop54
  1
strokes_ogs.tif
102
RTVSPost2010PropOp54
 70
     1
102
RTVSPost2010Prop55
280
     0
102
RTVSPost2010PropOp55
 70
     1
102
RTVSPost2010Prop56
140
1.0
102
RTVSPost2010PropOp56
 70
     1
102
RTVSPost2010Prop57
140
1.0
102
RTVSPost2010PropOp57
 70
     1
102
RTVSPropertyOp0
 70
     1
102
RTVSPropertyOp1
 70
     1
102
RTVSPropertyOp2
 70
     1
102
RTVSPropertyOp3
 70
     1
102
RTVSPropertyOp4
 70
     1
102
RTVSPropertyOp5
 70
     1
102
RTVSPropertyOp6
 70
     1
102
RTVSPropertyOp7
 70
     1
102
RTVSPropertyOp8
 70
     1
102
RTVSPropertyOp9
 70
     1
102
RTVSPropertyOp10
 70
     1
102
RTVSPropertyOp11
 70
     1
102
RTVSPropertyOp12
 70
     1
102
RTVSPropertyOp13
 70
     1
102
RTVSPropertyOp14
 70
     1
102
RTVSPropertyOp15
 70
     1
102
RTVSPropertyOp16
 70
     1
102
RTVSPropertyOp17
 70
     1
102
RTVSPropertyOp18
 70
     1
102
RTVSPropertyOp19
 70
     1
102
RTVSPropertyOp20
 70
     1
102
RTVSPropertyOp21
 70
     1
102
RTVSPropertyOp22
 70
     1
102
RTVSPropertyOp23
 70
     1
102
RTVSPropertyOp24
 70
     1
102
RTVSPropertyOp25
 70
     1
102
RTVSPropertyOp26
 70
     1
102
RTVSPropertyOp27
 70
     1
102
RTVSPropertyOp28
 70
     1
102
RTVSPropertyOp29
 70
     1
102
RTVSPropertyOp30
 70
     1
102
RTVSPropertyOp31
 70
     1
102
RTVSPropertyOp32
 70
     1
102
RTVSPropertyOp33
 70
     1
102
RTVSPropertyOp34
 70
     1
102
RTVSPropertyOp35
 70
     1
102
RTVSPropertyOp36
 70
     1
102
RTVSPropertyOp37
 70
     1
102
RTVSPropertyOp38
 70
     1
102
RTVSPropertyOp39
 70
     1
102
RTVSPropertyOp40
 70
     1
102
RTVSPropertyOp41
 70
     1
102
RTVSPropertyOp42
 70
     1
102
RTVSPropertyOp43
 70
     1
102
RTVSPropertyOp44
 70
     1
102
RTVSPropertyOp45
 70
     1
102
RTVSPropertyOp46
 70
     1
102
RTVSPropertyOp47
 70
     1
102
RTVSPropertyOp48
 70
     1
102
RTVSPropertyOp49
 70
     1
102
RTVSPropertyOp50
 70
     1
102
RTVSPropertyOp51
 70
     0
102
RTVSPropertyOp52
 70
     0
102
RTVSPropertyOp53
 70
     1
102
RTVSPropertyOp54
 70
     1
102
RTVSPropertyOp55
 70
     1
102
RTVSPropertyOp56
 70
     1
102
RTVSPropertyOp57
 70
     1
102
RTVSPropertyOp58
 70
     1
102
RTVSPropertyOp59
 70
     1
102
RTVSPropertyOp60
 70
     1
102
RTVSPropertyOp61
 70
     1
102
RTVSPropertyOp62
 70
     1
  0
XRECORD
  5
14F2D
102
{ACAD_REACTORS
330
14F2C
102
}
330
14F2C
100
AcDbXrecord
280
     1
102
RTVSPost2010Prop28
280
     0
102
RTVSPost2010PropOp28
 70
     1
102
RTVSPost2010Prop29
280
     1
102
RTVSPost2010PropOp29
 70
     1
102
RTVSPost2010Prop30
280
     1
102
RTVSPost2010PropOp30
 70
     1
102
RTVSPost2010Prop31
280
     0
102
RTVSPost2010PropOp31
 70
     1
102
RTVSPost2010Prop32
280
     0
102
RTVSPost2010PropOp32
 70
     1
102
RTVSPost2010Prop33
280
     0
102
RTVSPost2010PropOp33
 70
     1
102
RTVSPost2010Prop34
280
     0
102
RTVSPost2010PropOp34
 70
     1
102
RTVSPost2010Prop35
280
     0
102
RTVSPost2010PropOp35
 70
     1
102
RTVSPost2010Prop36
280
     0
102
RTVSPost2010PropOp36
 70
     1
102
RTVSPost2010Prop37
 90
       50
102
RTVSPost2010PropOp37
 70
     1
102
RTVSPost2010Prop38
140
0.0
102
RTVSPost2010PropOp38
 70
     1
102
RTVSPost2010Prop39
140
1.0
102
RTVSPost2010PropOp39
 70
     1
102
RTVSPost2010Prop40
 90
        0
102
RTVSPost2010PropOp40
 70
     1
102
RTVSPost2010Prop41ColorIndex
 90
       18
102
RTVSPost2010Prop41ColorRGB
 90
        0
102
RTVSPost2010PropOp41
 70
     1
102
RTVSPost2010Prop42
 90
       50
102
RTVSPost2010PropOp42
 70
     1
102
RTVSPost2010Prop43
 90
        3
102
RTVSPost2010PropOp43
 70
     1
102
RTVSPost2010Prop44ColorIndex
 90
        5
102
RTVSPost2010Prop44ColorRGB
 90
      255
102
RTVSPost2010PropOp44
 70
     1
102
RTVSPost2010Prop45
280
     0
102
RTVSPost2010PropOp45
 70
     1
102
RTVSPost2010Prop46
 90
       50
102
RTVSPost2010PropOp46
 70
     1
102
RTVSPost2010Prop47
 90
       50
102
RTVSPost2010PropOp47
 70
     1
102
RTVSPost2010Prop48
 90
       50
102
RTVSPost2010PropOp48
 70
     1
102
RTVSPost2010Prop49
280
     0
102
RTVSPost2010PropOp49
 70
     1
102
RTVSPost2010Prop50
 90
       50
102
RTVSPost2010PropOp50
 70
     1
102
RTVSPost2010Prop51ColorIndex
 90
      256
102
RTVSPost2010Prop51ColorRGB
 90
-16777216
102
RTVSPost2010PropOp51
 70
     0
102
RTVSPost2010Prop52
140
1.0
102
RTVSPost2010PropOp52
 70
     0
102
RTVSPost2010Prop53
 90
        2
102
RTVSPost2010PropOp53
 70
     1
102
RTVSPost2010Prop54
  1
strokes_ogs.tif
102
RTVSPost2010PropOp54
 70
     1
102
RTVSPost2010Prop55
280
     0
102
RTVSPost2010PropOp55
 70
     1
102
RTVSPost2010Prop56
140
1.0
102
RTVSPost2010PropOp56
 70
     1
102
RTVSPost2010Prop57
140
1.0
102
RTVSPost2010PropOp57
 70
     1
102
RTVSPropertyOp0
 70
     1
102
RTVSPropertyOp1
 70
     1
102
RTVSPropertyOp2
 70
     1
102
RTVSPropertyOp3
 70
     1
102
RTVSPropertyOp4
 70
     1
102
RTVSPropertyOp5
 70
     1
102
RTVSPropertyOp6
 70
     1
102
RTVSPropertyOp7
 70
     1
102
RTVSPropertyOp8
 70
     1
102
RTVSPropertyOp9
 70
     1
102
RTVSPropertyOp10
 70
     1
102
RTVSPropertyOp11
 70
     1
102
RTVSPropertyOp12
 70
     1
102
RTVSPropertyOp13
 70
     1
102
RTVSPropertyOp14
 70
     1
102
RTVSPropertyOp15
 70
     1
102
RTVSPropertyOp16
 70
     1
102
RTVSPropertyOp17
 70
     1
102
RTVSPropertyOp18
 70
     1
102
RTVSPropertyOp19
 70
     1
102
RTVSPropertyOp20
 70
     1
102
RTVSPropertyOp21
 70
     1
102
RTVSPropertyOp22
 70
     1
102
RTVSPropertyOp23
 70
     1
102
RTVSPropertyOp24
 70
     1
102
RTVSPropertyOp25
 70
     1
102
RTVSPropertyOp26
 70
     1
102
RTVSPropertyOp27
 70
     1
102
RTVSPropertyOp28
 70
     1
102
RTVSPropertyOp29
 70
     1
102
RTVSPropertyOp30
 70
     1
102
RTVSPropertyOp31
 70
     1
102
RTVSPropertyOp32
 70
     1
102
RTVSPropertyOp33
 70
     1
102
RTVSPropertyOp34
 70
     1
102
RTVSPropertyOp35
 70
     1
102
RTVSPropertyOp36
 70
     1
102
RTVSPropertyOp37
 70
     1
102
RTVSPropertyOp38
 70
     1
102
RTVSPropertyOp39
 70
     1
102
RTVSPropertyOp40
 70
     1
102
RTVSPropertyOp41
 70
     1
102
RTVSPropertyOp42
 70
     1
102
RTVSPropertyOp43
 70
     1
102
RTVSPropertyOp44
 70
     1
102
RTVSPropertyOp45
 70
     1
102
RTVSPropertyOp46
 70
     1
102
RTVSPropertyOp47
 70
     1
102
RTVSPropertyOp48
 70
     1
102
RTVSPropertyOp49
 70
     1
102
RTVSPropertyOp50
 70
     1
102
RTVSPropertyOp51
 70
     0
102
RTVSPropertyOp52
 70
     0
102
RTVSPropertyOp53
 70
     1
102
RTVSPropertyOp54
 70
     1
102
RTVSPropertyOp55
 70
     1
102
RTVSPropertyOp56
 70
     1
102
RTVSPropertyOp57
 70
     1
102
RTVSPropertyOp58
 70
     1
102
RTVSPropertyOp59
 70
     1
102
RTVSPropertyOp60
 70
     1
102
RTVSPropertyOp61
 70
     1
102
RTVSPropertyOp62
 70
     1
  0
XRECORD
  5
14F3B
102
{ACAD_REACTORS
330
14F3A
102
}
330
14F3A
100
AcDbXrecord
280
     1
102
RTVSPost2010Prop28
280
     0
102
RTVSPost2010PropOp28
 70
     1
102
RTVSPost2010Prop29
280
     1
102
RTVSPost2010PropOp29
 70
     1
102
RTVSPost2010Prop30
280
     1
102
RTVSPost2010PropOp30
 70
     1
102
RTVSPost2010Prop31
280
     0
102
RTVSPost2010PropOp31
 70
     1
102
RTVSPost2010Prop32
280
     0
102
RTVSPost2010PropOp32
 70
     1
102
RTVSPost2010Prop33
280
     0
102
RTVSPost2010PropOp33
 70
     1
102
RTVSPost2010Prop34
280
     0
102
RTVSPost2010PropOp34
 70
     1
102
RTVSPost2010Prop35
280
     0
102
RTVSPost2010PropOp35
 70
     1
102
RTVSPost2010Prop36
280
     0
102
RTVSPost2010PropOp36
 70
     1
102
RTVSPost2010Prop37
 90
       50
102
RTVSPost2010PropOp37
 70
     1
102
RTVSPost2010Prop38
140
0.0
102
RTVSPost2010PropOp38
 70
     1
102
RTVSPost2010Prop39
140
1.0
102
RTVSPost2010PropOp39
 70
     1
102
RTVSPost2010Prop40
 90
        0
102
RTVSPost2010PropOp40
 70
     1
102
RTVSPost2010Prop41ColorIndex
 90
       18
102
RTVSPost2010Prop41ColorRGB
 90
        0
102
RTVSPost2010PropOp41
 70
     1
102
RTVSPost2010Prop42
 90
       50
102
RTVSPost2010PropOp42
 70
     1
102
RTVSPost2010Prop43
 90
        3
102
RTVSPost2010PropOp43
 70
     1
102
RTVSPost2010Prop44ColorIndex
 90
        5
102
RTVSPost2010Prop44ColorRGB
 90
      255
102
RTVSPost2010PropOp44
 70
     1
102
RTVSPost2010Prop45
280
     0
102
RTVSPost2010PropOp45
 70
     1
102
RTVSPost2010Prop46
 90
       50
102
RTVSPost2010PropOp46
 70
     1
102
RTVSPost2010Prop47
 90
       50
102
RTVSPost2010PropOp47
 70
     1
102
RTVSPost2010Prop48
 90
       50
102
RTVSPost2010PropOp48
 70
     1
102
RTVSPost2010Prop49
280
     0
102
RTVSPost2010PropOp49
 70
     1
102
RTVSPost2010Prop50
 90
       50
102
RTVSPost2010PropOp50
 70
     1
102
RTVSPost2010Prop51ColorIndex
 90
      256
102
RTVSPost2010Prop51ColorRGB
 90
-16777216
102
RTVSPost2010PropOp51
 70
     0
102
RTVSPost2010Prop52
140
1.0
102
RTVSPost2010PropOp52
 70
     0
102
RTVSPost2010Prop53
 90
        2
102
RTVSPost2010PropOp53
 70
     1
102
RTVSPost2010Prop54
  1
strokes_ogs.tif
102
RTVSPost2010PropOp54
 70
     1
102
RTVSPost2010Prop55
280
     0
102
RTVSPost2010PropOp55
 70
     1
102
RTVSPost2010Prop56
140
1.0
102
RTVSPost2010PropOp56
 70
     1
102
RTVSPost2010Prop57
140
1.0
102
RTVSPost2010PropOp57
 70
     1
102
RTVSPropertyOp0
 70
     1
102
RTVSPropertyOp1
 70
     1
102
RTVSPropertyOp2
 70
     1
102
RTVSPropertyOp3
 70
     1
102
RTVSPropertyOp4
 70
     1
102
RTVSPropertyOp5
 70
     1
102
RTVSPropertyOp6
 70
     1
102
RTVSPropertyOp7
 70
     1
102
RTVSPropertyOp8
 70
     1
102
RTVSPropertyOp9
 70
     1
102
RTVSPropertyOp10
 70
     1
102
RTVSPropertyOp11
 70
     1
102
RTVSPropertyOp12
 70
     1
102
RTVSPropertyOp13
 70
     1
102
RTVSPropertyOp14
 70
     1
102
RTVSPropertyOp15
 70
     1
102
RTVSPropertyOp16
 70
     1
102
RTVSPropertyOp17
 70
     1
102
RTVSPropertyOp18
 70
     1
102
RTVSPropertyOp19
 70
     1
102
RTVSPropertyOp20
 70
     1
102
RTVSPropertyOp21
 70
     1
102
RTVSPropertyOp22
 70
     1
102
RTVSPropertyOp23
 70
     1
102
RTVSPropertyOp24
 70
     1
102
RTVSPropertyOp25
 70
     1
102
RTVSPropertyOp26
 70
     1
102
RTVSPropertyOp27
 70
     1
102
RTVSPropertyOp28
 70
     1
102
RTVSPropertyOp29
 70
     1
102
RTVSPropertyOp30
 70
     1
102
RTVSPropertyOp31
 70
     1
102
RTVSPropertyOp32
 70
     1
102
RTVSPropertyOp33
 70
     1
102
RTVSPropertyOp34
 70
     1
102
RTVSPropertyOp35
 70
     1
102
RTVSPropertyOp36
 70
     1
102
RTVSPropertyOp37
 70
     1
102
RTVSPropertyOp38
 70
     1
102
RTVSPropertyOp39
 70
     1
102
RTVSPropertyOp40
 70
     1
102
RTVSPropertyOp41
 70
     1
102
RTVSPropertyOp42
 70
     1
102
RTVSPropertyOp43
 70
     1
102
RTVSPropertyOp44
 70
     1
102
RTVSPropertyOp45
 70
     1
102
RTVSPropertyOp46
 70
     1
102
RTVSPropertyOp47
 70
     1
102
RTVSPropertyOp48
 70
     1
102
RTVSPropertyOp49
 70
     1
102
RTVSPropertyOp50
 70
     1
102
RTVSPropertyOp51
 70
     0
102
RTVSPropertyOp52
 70
     0
102
RTVSPropertyOp53
 70
     1
102
RTVSPropertyOp54
 70
     1
102
RTVSPropertyOp55
 70
     1
102
RTVSPropertyOp56
 70
     1
102
RTVSPropertyOp57
 70
     1
102
RTVSPropertyOp58
 70
     1
102
RTVSPropertyOp59
 70
     1
102
RTVSPropertyOp60
 70
     1
102
RTVSPropertyOp61
 70
     1
102
RTVSPropertyOp62
 70
     1
  0
XRECORD
  5
14F43
102
{ACAD_REACTORS
330
14F42
102
}
330
14F42
100
AcDbXrecord
280
     1
102
RTVSPost2010Prop28
280
     0
102
RTVSPost2010PropOp28
 70
     1
102
RTVSPost2010Prop29
280
     1
102
RTVSPost2010PropOp29
 70
     1
102
RTVSPost2010Prop30
280
     1
102
RTVSPost2010PropOp30
 70
     1
102
RTVSPost2010Prop31
280
     0
102
RTVSPost2010PropOp31
 70
     1
102
RTVSPost2010Prop32
280
     0
102
RTVSPost2010PropOp32
 70
     1
102
RTVSPost2010Prop33
280
     0
102
RTVSPost2010PropOp33
 70
     1
102
RTVSPost2010Prop34
280
     0
102
RTVSPost2010PropOp34
 70
     1
102
RTVSPost2010Prop35
280
     0
102
RTVSPost2010PropOp35
 70
     1
102
RTVSPost2010Prop36
280
     0
102
RTVSPost2010PropOp36
 70
     1
102
RTVSPost2010Prop37
 90
       50
102
RTVSPost2010PropOp37
 70
     1
102
RTVSPost2010Prop38
140
0.0
102
RTVSPost2010PropOp38
 70
     1
102
RTVSPost2010Prop39
140
1.0
102
RTVSPost2010PropOp39
 70
     1
102
RTVSPost2010Prop40
 90
        0
102
RTVSPost2010PropOp40
 70
     1
102
RTVSPost2010Prop41ColorIndex
 90
       18
102
RTVSPost2010Prop41ColorRGB
 90
        0
102
RTVSPost2010PropOp41
 70
     1
102
RTVSPost2010Prop42
 90
       50
102
RTVSPost2010PropOp42
 70
     1
102
RTVSPost2010Prop43
 90
        3
102
RTVSPost2010PropOp43
 70
     1
102
RTVSPost2010Prop44ColorIndex
 90
        5
102
RTVSPost2010Prop44ColorRGB
 90
      255
102
RTVSPost2010PropOp44
 70
     1
102
RTVSPost2010Prop45
280
     0
102
RTVSPost2010PropOp45
 70
     1
102
RTVSPost2010Prop46
 90
       50
102
RTVSPost2010PropOp46
 70
     1
102
RTVSPost2010Prop47
 90
       50
102
RTVSPost2010PropOp47
 70
     1
102
RTVSPost2010Prop48
 90
       50
102
RTVSPost2010PropOp48
 70
     1
102
RTVSPost2010Prop49
280
     0
102
RTVSPost2010PropOp49
 70
     1
102
RTVSPost2010Prop50
 90
       50
102
RTVSPost2010PropOp50
 70
     1
102
RTVSPost2010Prop51ColorIndex
 90
      256
102
RTVSPost2010Prop51ColorRGB
 90
-16777216
102
RTVSPost2010PropOp51
 70
     0
102
RTVSPost2010Prop52
140
1.0
102
RTVSPost2010PropOp52
 70
     0
102
RTVSPost2010Prop53
 90
        2
102
RTVSPost2010PropOp53
 70
     1
102
RTVSPost2010Prop54
  1
strokes_ogs.tif
102
RTVSPost2010PropOp54
 70
     1
102
RTVSPost2010Prop55
280
     0
102
RTVSPost2010PropOp55
 70
     1
102
RTVSPost2010Prop56
140
1.0
102
RTVSPost2010PropOp56
 70
     1
102
RTVSPost2010Prop57
140
1.0
102
RTVSPost2010PropOp57
 70
     1
102
RTVSPropertyOp0
 70
     1
102
RTVSPropertyOp1
 70
     1
102
RTVSPropertyOp2
 70
     1
102
RTVSPropertyOp3
 70
     1
102
RTVSPropertyOp4
 70
     1
102
RTVSPropertyOp5
 70
     1
102
RTVSPropertyOp6
 70
     1
102
RTVSPropertyOp7
 70
     1
102
RTVSPropertyOp8
 70
     1
102
RTVSPropertyOp9
 70
     1
102
RTVSPropertyOp10
 70
     1
102
RTVSPropertyOp11
 70
     1
102
RTVSPropertyOp12
 70
     1
102
RTVSPropertyOp13
 70
     1
102
RTVSPropertyOp14
 70
     1
102
RTVSPropertyOp15
 70
     1
102
RTVSPropertyOp16
 70
     1
102
RTVSPropertyOp17
 70
     1
102
RTVSPropertyOp18
 70
     1
102
RTVSPropertyOp19
 70
     1
102
RTVSPropertyOp20
 70
     1
102
RTVSPropertyOp21
 70
     1
102
RTVSPropertyOp22
 70
     1
102
RTVSPropertyOp23
 70
     1
102
RTVSPropertyOp24
 70
     1
102
RTVSPropertyOp25
 70
     1
102
RTVSPropertyOp26
 70
     1
102
RTVSPropertyOp27
 70
     1
102
RTVSPropertyOp28
 70
     1
102
RTVSPropertyOp29
 70
     1
102
RTVSPropertyOp30
 70
     1
102
RTVSPropertyOp31
 70
     1
102
RTVSPropertyOp32
 70
     1
102
RTVSPropertyOp33
 70
     1
102
RTVSPropertyOp34
 70
     1
102
RTVSPropertyOp35
 70
     1
102
RTVSPropertyOp36
 70
     1
102
RTVSPropertyOp37
 70
     1
102
RTVSPropertyOp38
 70
     1
102
RTVSPropertyOp39
 70
     1
102
RTVSPropertyOp40
 70
     1
102
RTVSPropertyOp41
 70
     1
102
RTVSPropertyOp42
 70
     1
102
RTVSPropertyOp43
 70
     1
102
RTVSPropertyOp44
 70
     1
102
RTVSPropertyOp45
 70
     1
102
RTVSPropertyOp46
 70
     1
102
RTVSPropertyOp47
 70
     1
102
RTVSPropertyOp48
 70
     1
102
RTVSPropertyOp49
 70
     1
102
RTVSPropertyOp50
 70
     1
102
RTVSPropertyOp51
 70
     0
102
RTVSPropertyOp52
 70
     0
102
RTVSPropertyOp53
 70
     1
102
RTVSPropertyOp54
 70
     1
102
RTVSPropertyOp55
 70
     1
102
RTVSPropertyOp56
 70
     1
102
RTVSPropertyOp57
 70
     1
102
RTVSPropertyOp58
 70
     1
102
RTVSPropertyOp59
 70
     1
102
RTVSPropertyOp60
 70
     1
102
RTVSPropertyOp61
 70
     1
102
RTVSPropertyOp62
 70
     1
  0
XRECORD
  5
14F35
102
{ACAD_REACTORS
330
14F34
102
}
330
14F34
100
AcDbXrecord
280
     1
102
RTVSPost2010Prop28
280
     0
102
RTVSPost2010PropOp28
 70
     1
102
RTVSPost2010Prop29
280
     1
102
RTVSPost2010PropOp29
 70
     1
102
RTVSPost2010Prop30
280
     1
102
RTVSPost2010PropOp30
 70
     1
102
RTVSPost2010Prop31
280
     0
102
RTVSPost2010PropOp31
 70
     1
102
RTVSPost2010Prop32
280
     0
102
RTVSPost2010PropOp32
 70
     1
102
RTVSPost2010Prop33
280
     0
102
RTVSPost2010PropOp33
 70
     1
102
RTVSPost2010Prop34
280
     0
102
RTVSPost2010PropOp34
 70
     1
102
RTVSPost2010Prop35
280
     0
102
RTVSPost2010PropOp35
 70
     1
102
RTVSPost2010Prop36
280
     0
102
RTVSPost2010PropOp36
 70
     1
102
RTVSPost2010Prop37
 90
       50
102
RTVSPost2010PropOp37
 70
     1
102
RTVSPost2010Prop38
140
0.0
102
RTVSPost2010PropOp38
 70
     1
102
RTVSPost2010Prop39
140
1.0
102
RTVSPost2010PropOp39
 70
     1
102
RTVSPost2010Prop40
 90
        0
102
RTVSPost2010PropOp40
 70
     1
102
RTVSPost2010Prop41ColorIndex
 90
       18
102
RTVSPost2010Prop41ColorRGB
 90
        0
102
RTVSPost2010PropOp41
 70
     1
102
RTVSPost2010Prop42
 90
       50
102
RTVSPost2010PropOp42
 70
     1
102
RTVSPost2010Prop43
 90
        3
102
RTVSPost2010PropOp43
 70
     1
102
RTVSPost2010Prop44ColorIndex
 90
        5
102
RTVSPost2010Prop44ColorRGB
 90
      255
102
RTVSPost2010PropOp44
 70
     1
102
RTVSPost2010Prop45
280
     0
102
RTVSPost2010PropOp45
 70
     1
102
RTVSPost2010Prop46
 90
       50
102
RTVSPost2010PropOp46
 70
     1
102
RTVSPost2010Prop47
 90
       50
102
RTVSPost2010PropOp47
 70
     1
102
RTVSPost2010Prop48
 90
       50
102
RTVSPost2010PropOp48
 70
     1
102
RTVSPost2010Prop49
280
     0
102
RTVSPost2010PropOp49
 70
     1
102
RTVSPost2010Prop50
 90
       50
102
RTVSPost2010PropOp50
 70
     1
102
RTVSPost2010Prop51ColorIndex
 90
      256
102
RTVSPost2010Prop51ColorRGB
 90
-16777216
102
RTVSPost2010PropOp51
 70
     0
102
RTVSPost2010Prop52
140
1.0
102
RTVSPost2010PropOp52
 70
     0
102
RTVSPost2010Prop53
 90
        2
102
RTVSPost2010PropOp53
 70
     1
102
RTVSPost2010Prop54
  1
strokes_ogs.tif
102
RTVSPost2010PropOp54
 70
     1
102
RTVSPost2010Prop55
280
     0
102
RTVSPost2010PropOp55
 70
     1
102
RTVSPost2010Prop56
140
1.0
102
RTVSPost2010PropOp56
 70
     1
102
RTVSPost2010Prop57
140
1.0
102
RTVSPost2010PropOp57
 70
     1
102
RTVSPropertyOp0
 70
     1
102
RTVSPropertyOp1
 70
     1
102
RTVSPropertyOp2
 70
     1
102
RTVSPropertyOp3
 70
     1
102
RTVSPropertyOp4
 70
     1
102
RTVSPropertyOp5
 70
     1
102
RTVSPropertyOp6
 70
     1
102
RTVSPropertyOp7
 70
     1
102
RTVSPropertyOp8
 70
     1
102
RTVSPropertyOp9
 70
     1
102
RTVSPropertyOp10
 70
     1
102
RTVSPropertyOp11
 70
     1
102
RTVSPropertyOp12
 70
     1
102
RTVSPropertyOp13
 70
     1
102
RTVSPropertyOp14
 70
     1
102
RTVSPropertyOp15
 70
     1
102
RTVSPropertyOp16
 70
     1
102
RTVSPropertyOp17
 70
     1
102
RTVSPropertyOp18
 70
     1
102
RTVSPropertyOp19
 70
     1
102
RTVSPropertyOp20
 70
     1
102
RTVSPropertyOp21
 70
     1
102
RTVSPropertyOp22
 70
     1
102
RTVSPropertyOp23
 70
     1
102
RTVSPropertyOp24
 70
     1
102
RTVSPropertyOp25
 70
     1
102
RTVSPropertyOp26
 70
     1
102
RTVSPropertyOp27
 70
     1
102
RTVSPropertyOp28
 70
     1
102
RTVSPropertyOp29
 70
     1
102
RTVSPropertyOp30
 70
     1
102
RTVSPropertyOp31
 70
     1
102
RTVSPropertyOp32
 70
     1
102
RTVSPropertyOp33
 70
     1
102
RTVSPropertyOp34
 70
     1
102
RTVSPropertyOp35
 70
     1
102
RTVSPropertyOp36
 70
     1
102
RTVSPropertyOp37
 70
     1
102
RTVSPropertyOp38
 70
     1
102
RTVSPropertyOp39
 70
     1
102
RTVSPropertyOp40
 70
     1
102
RTVSPropertyOp41
 70
     1
102
RTVSPropertyOp42
 70
     1
102
RTVSPropertyOp43
 70
     1
102
RTVSPropertyOp44
 70
     1
102
RTVSPropertyOp45
 70
     1
102
RTVSPropertyOp46
 70
     1
102
RTVSPropertyOp47
 70
     1
102
RTVSPropertyOp48
 70
     1
102
RTVSPropertyOp49
 70
     1
102
RTVSPropertyOp50
 70
     1
102
RTVSPropertyOp51
 70
     0
102
RTVSPropertyOp52
 70
     0
102
RTVSPropertyOp53
 70
     1
102
RTVSPropertyOp54
 70
     1
102
RTVSPropertyOp55
 70
     1
102
RTVSPropertyOp56
 70
     1
102
RTVSPropertyOp57
 70
     1
102
RTVSPropertyOp58
 70
     1
102
RTVSPropertyOp59
 70
     1
102
RTVSPropertyOp60
 70
     1
102
RTVSPropertyOp61
 70
     1
102
RTVSPropertyOp62
 70
     1
  0
XRECORD
  5
14F39
102
{ACAD_REACTORS
330
14F38
102
}
330
14F38
100
AcDbXrecord
280
     1
102
RTVSPost2010Prop28
280
     0
102
RTVSPost2010PropOp28
 70
     1
102
RTVSPost2010Prop29
280
     1
102
RTVSPost2010PropOp29
 70
     1
102
RTVSPost2010Prop30
280
     1
102
RTVSPost2010PropOp30
 70
     1
102
RTVSPost2010Prop31
280
     0
102
RTVSPost2010PropOp31
 70
     1
102
RTVSPost2010Prop32
280
     0
102
RTVSPost2010PropOp32
 70
     1
102
RTVSPost2010Prop33
280
     0
102
RTVSPost2010PropOp33
 70
     1
102
RTVSPost2010Prop34
280
     0
102
RTVSPost2010PropOp34
 70
     1
102
RTVSPost2010Prop35
280
     0
102
RTVSPost2010PropOp35
 70
     1
102
RTVSPost2010Prop36
280
     0
102
RTVSPost2010PropOp36
 70
     1
102
RTVSPost2010Prop37
 90
       50
102
RTVSPost2010PropOp37
 70
     1
102
RTVSPost2010Prop38
140
0.0
102
RTVSPost2010PropOp38
 70
     1
102
RTVSPost2010Prop39
140
1.0
102
RTVSPost2010PropOp39
 70
     1
102
RTVSPost2010Prop40
 90
        0
102
RTVSPost2010PropOp40
 70
     1
102
RTVSPost2010Prop41ColorIndex
 90
       18
102
RTVSPost2010Prop41ColorRGB
 90
        0
102
RTVSPost2010PropOp41
 70
     1
102
RTVSPost2010Prop42
 90
       50
102
RTVSPost2010PropOp42
 70
     1
102
RTVSPost2010Prop43
 90
        3
102
RTVSPost2010PropOp43
 70
     1
102
RTVSPost2010Prop44ColorIndex
 90
        5
102
RTVSPost2010Prop44ColorRGB
 90
      255
102
RTVSPost2010PropOp44
 70
     1
102
RTVSPost2010Prop45
280
     0
102
RTVSPost2010PropOp45
 70
     1
102
RTVSPost2010Prop46
 90
       50
102
RTVSPost2010PropOp46
 70
     1
102
RTVSPost2010Prop47
 90
       50
102
RTVSPost2010PropOp47
 70
     1
102
RTVSPost2010Prop48
 90
       50
102
RTVSPost2010PropOp48
 70
     1
102
RTVSPost2010Prop49
280
     0
102
RTVSPost2010PropOp49
 70
     1
102
RTVSPost2010Prop50
 90
       50
102
RTVSPost2010PropOp50
 70
     1
102
RTVSPost2010Prop51ColorIndex
 90
      256
102
RTVSPost2010Prop51ColorRGB
 90
-16777216
102
RTVSPost2010PropOp51
 70
     0
102
RTVSPost2010Prop52
140
1.0
102
RTVSPost2010PropOp52
 70
     0
102
RTVSPost2010Prop53
 90
        2
102
RTVSPost2010PropOp53
 70
     1
102
RTVSPost2010Prop54
  1
strokes_ogs.tif
102
RTVSPost2010PropOp54
 70
     1
102
RTVSPost2010Prop55
280
     0
102
RTVSPost2010PropOp55
 70
     1
102
RTVSPost2010Prop56
140
1.0
102
RTVSPost2010PropOp56
 70
     1
102
RTVSPost2010Prop57
140
1.0
102
RTVSPost2010PropOp57
 70
     1
102
RTVSPropertyOp0
 70
     1
102
RTVSPropertyOp1
 70
     1
102
RTVSPropertyOp2
 70
     1
102
RTVSPropertyOp3
 70
     1
102
RTVSPropertyOp4
 70
     1
102
RTVSPropertyOp5
 70
     1
102
RTVSPropertyOp6
 70
     1
102
RTVSPropertyOp7
 70
     1
102
RTVSPropertyOp8
 70
     1
102
RTVSPropertyOp9
 70
     1
102
RTVSPropertyOp10
 70
     1
102
RTVSPropertyOp11
 70
     1
102
RTVSPropertyOp12
 70
     1
102
RTVSPropertyOp13
 70
     1
102
RTVSPropertyOp14
 70
     1
102
RTVSPropertyOp15
 70
     1
102
RTVSPropertyOp16
 70
     1
102
RTVSPropertyOp17
 70
     1
102
RTVSPropertyOp18
 70
     1
102
RTVSPropertyOp19
 70
     1
102
RTVSPropertyOp20
 70
     1
102
RTVSPropertyOp21
 70
     1
102
RTVSPropertyOp22
 70
     1
102
RTVSPropertyOp23
 70
     1
102
RTVSPropertyOp24
 70
     1
102
RTVSPropertyOp25
 70
     1
102
RTVSPropertyOp26
 70
     1
102
RTVSPropertyOp27
 70
     1
102
RTVSPropertyOp28
 70
     1
102
RTVSPropertyOp29
 70
     1
102
RTVSPropertyOp30
 70
     1
102
RTVSPropertyOp31
 70
     1
102
RTVSPropertyOp32
 70
     1
102
RTVSPropertyOp33
 70
     1
102
RTVSPropertyOp34
 70
     1
102
RTVSPropertyOp35
 70
     1
102
RTVSPropertyOp36
 70
     1
102
RTVSPropertyOp37
 70
     1
102
RTVSPropertyOp38
 70
     1
102
RTVSPropertyOp39
 70
     1
102
RTVSPropertyOp40
 70
     1
102
RTVSPropertyOp41
 70
     1
102
RTVSPropertyOp42
 70
     1
102
RTVSPropertyOp43
 70
     1
102
RTVSPropertyOp44
 70
     1
102
RTVSPropertyOp45
 70
     1
102
RTVSPropertyOp46
 70
     1
102
RTVSPropertyOp47
 70
     1
102
RTVSPropertyOp48
 70
     1
102
RTVSPropertyOp49
 70
     1
102
RTVSPropertyOp50
 70
     1
102
RTVSPropertyOp51
 70
     0
102
RTVSPropertyOp52
 70
     0
102
RTVSPropertyOp53
 70
     1
102
RTVSPropertyOp54
 70
     1
102
RTVSPropertyOp55
 70
     1
102
RTVSPropertyOp56
 70
     1
102
RTVSPropertyOp57
 70
     1
102
RTVSPropertyOp58
 70
     1
102
RTVSPropertyOp59
 70
     1
102
RTVSPropertyOp60
 70
     1
102
RTVSPropertyOp61
 70
     1
102
RTVSPropertyOp62
 70
     1
  0
XRECORD
  5
14F53
102
{ACAD_REACTORS
330
14F52
102
}
330
14F52
100
AcDbXrecord
280
     1
102
RTVSPost2010Prop28
280
     0
102
RTVSPost2010PropOp28
 70
     0
102
RTVSPost2010Prop29
280
     1
102
RTVSPost2010PropOp29
 70
     0
102
RTVSPost2010Prop30
280
     1
102
RTVSPost2010PropOp30
 70
     0
102
RTVSPost2010Prop31
280
     0
102
RTVSPost2010PropOp31
 70
     0
102
RTVSPost2010Prop32
280
     0
102
RTVSPost2010PropOp32
 70
     0
102
RTVSPost2010Prop33
280
     0
102
RTVSPost2010PropOp33
 70
     0
102
RTVSPost2010Prop34
280
     0
102
RTVSPost2010PropOp34
 70
     0
102
RTVSPost2010Prop35
280
     0
102
RTVSPost2010PropOp35
 70
     0
102
RTVSPost2010Prop36
280
     0
102
RTVSPost2010PropOp36
 70
     0
102
RTVSPost2010Prop37
 90
       50
102
RTVSPost2010PropOp37
 70
     0
102
RTVSPost2010Prop38
140
0.0
102
RTVSPost2010PropOp38
 70
     0
102
RTVSPost2010Prop39
140
1.0
102
RTVSPost2010PropOp39
 70
     0
102
RTVSPost2010Prop40
 90
        0
102
RTVSPost2010PropOp40
 70
     0
102
RTVSPost2010Prop41ColorIndex
 90
       18
102
RTVSPost2010Prop41ColorRGB
 90
        0
102
RTVSPost2010PropOp41
 70
     0
102
RTVSPost2010Prop42
 90
       50
102
RTVSPost2010PropOp42
 70
     0
102
RTVSPost2010Prop43
 90
        3
102
RTVSPost2010PropOp43
 70
     0
102
RTVSPost2010Prop44ColorIndex
 90
        5
102
RTVSPost2010Prop44ColorRGB
 90
      255
102
RTVSPost2010PropOp44
 70
     0
102
RTVSPost2010Prop45
280
     0
102
RTVSPost2010PropOp45
 70
     0
102
RTVSPost2010Prop46
 90
       50
102
RTVSPost2010PropOp46
 70
     0
102
RTVSPost2010Prop47
 90
       50
102
RTVSPost2010PropOp47
 70
     0
102
RTVSPost2010Prop48
 90
       50
102
RTVSPost2010PropOp48
 70
     0
102
RTVSPost2010Prop49
280
     0
102
RTVSPost2010PropOp49
 70
     0
102
RTVSPost2010Prop50
 90
       50
102
RTVSPost2010PropOp50
 70
     0
102
RTVSPost2010Prop51ColorIndex
 90
      256
102
RTVSPost2010Prop51ColorRGB
 90
-16777216
102
RTVSPost2010PropOp51
 70
     0
102
RTVSPost2010Prop52
140
1.0
102
RTVSPost2010PropOp52
 70
     0
102
RTVSPost2010Prop53
 90
        2
102
RTVSPost2010PropOp53
 70
     0
102
RTVSPost2010Prop54
  1
strokes_ogs.tif
102
RTVSPost2010PropOp54
 70
     0
102
RTVSPost2010Prop55
280
     0
102
RTVSPost2010PropOp55
 70
     0
102
RTVSPost2010Prop56
140
1.0
102
RTVSPost2010PropOp56
 70
     0
102
RTVSPost2010Prop57
140
1.0
102
RTVSPost2010PropOp57
 70
     0
102
RTVSPropertyOp0
 70
     0
102
RTVSPropertyOp1
 70
     0
102
RTVSPropertyOp2
 70
     0
102
RTVSPropertyOp3
 70
     0
102
RTVSPropertyOp4
 70
     0
102
RTVSPropertyOp5
 70
     0
102
RTVSPropertyOp6
 70
     0
102
RTVSPropertyOp7
 70
     0
102
RTVSPropertyOp8
 70
     0
102
RTVSPropertyOp9
 70
     0
102
RTVSPropertyOp10
 70
     0
102
RTVSPropertyOp11
 70
     0
102
RTVSPropertyOp12
 70
     0
102
RTVSPropertyOp13
 70
     0
102
RTVSPropertyOp14
 70
     2
102
RTVSPropertyOp15
 70
     0
102
RTVSPropertyOp16
 70
     0
102
RTVSPropertyOp17
 70
     0
102
RTVSPropertyOp18
 70
     0
102
RTVSPropertyOp19
 70
     0
102
RTVSPropertyOp20
 70
     0
102
RTVSPropertyOp21
 70
     0
102
RTVSPropertyOp22
 70
     0
102
RTVSPropertyOp23
 70
     0
102
RTVSPropertyOp24
 70
     0
102
RTVSPropertyOp25
 70
     0
102
RTVSPropertyOp26
 70
     0
102
RTVSPropertyOp27
 70
     0
102
RTVSPropertyOp28
 70
     0
102
RTVSPropertyOp29
 70
     0
102
RTVSPropertyOp30
 70
     0
102
RTVSPropertyOp31
 70
     0
102
RTVSPropertyOp32
 70
     0
102
RTVSPropertyOp33
 70
     0
102
RTVSPropertyOp34
 70
     0
102
RTVSPropertyOp35
 70
     0
102
RTVSPropertyOp36
 70
     0
102
RTVSPropertyOp37
 70
     0
102
RTVSPropertyOp38
 70
     0
102
RTVSPropertyOp39
 70
     0
102
RTVSPropertyOp40
 70
     0
102
RTVSPropertyOp41
 70
     0
102
RTVSPropertyOp42
 70
     0
102
RTVSPropertyOp43
 70
     0
102
RTVSPropertyOp44
 70
     0
102
RTVSPropertyOp45
 70
     0
102
RTVSPropertyOp46
 70
     0
102
RTVSPropertyOp47
 70
     0
102
RTVSPropertyOp48
 70
     0
102
RTVSPropertyOp49
 70
     0
102
RTVSPropertyOp50
 70
     0
102
RTVSPropertyOp51
 70
     0
102
RTVSPropertyOp52
 70
     0
102
RTVSPropertyOp53
 70
     0
102
RTVSPropertyOp54
 70
     0
102
RTVSPropertyOp55
 70
     0
102
RTVSPropertyOp56
 70
     0
102
RTVSPropertyOp57
 70
     0
102
RTVSPropertyOp58
 70
     1
102
RTVSPropertyOp59
 70
     1
102
RTVSPropertyOp60
 70
     1
102
RTVSPropertyOp61
 70
     1
102
RTVSPropertyOp62
 70
     1
  0
XRECORD
  5
14F41
102
{ACAD_REACTORS
330
14F40
102
}
330
14F40
100
AcDbXrecord
280
     1
102
RTVSPost2010Prop28
280
     0
102
RTVSPost2010PropOp28
 70
     1
102
RTVSPost2010Prop29
280
     1
102
RTVSPost2010PropOp29
 70
     1
102
RTVSPost2010Prop30
280
     1
102
RTVSPost2010PropOp30
 70
     1
102
RTVSPost2010Prop31
280
     0
102
RTVSPost2010PropOp31
 70
     1
102
RTVSPost2010Prop32
280
     0
102
RTVSPost2010PropOp32
 70
     1
102
RTVSPost2010Prop33
280
     0
102
RTVSPost2010PropOp33
 70
     1
102
RTVSPost2010Prop34
280
     0
102
RTVSPost2010PropOp34
 70
     1
102
RTVSPost2010Prop35
280
     0
102
RTVSPost2010PropOp35
 70
     1
102
RTVSPost2010Prop36
280
     0
102
RTVSPost2010PropOp36
 70
     1
102
RTVSPost2010Prop37
 90
       50
102
RTVSPost2010PropOp37
 70
     1
102
RTVSPost2010Prop38
140
0.0
102
RTVSPost2010PropOp38
 70
     1
102
RTVSPost2010Prop39
140
1.0
102
RTVSPost2010PropOp39
 70
     1
102
RTVSPost2010Prop40
 90
        0
102
RTVSPost2010PropOp40
 70
     1
102
RTVSPost2010Prop41ColorIndex
 90
       18
102
RTVSPost2010Prop41ColorRGB
 90
        0
102
RTVSPost2010PropOp41
 70
     1
102
RTVSPost2010Prop42
 90
       50
102
RTVSPost2010PropOp42
 70
     1
102
RTVSPost2010Prop43
 90
        3
102
RTVSPost2010PropOp43
 70
     1
102
RTVSPost2010Prop44ColorIndex
 90
        5
102
RTVSPost2010Prop44ColorRGB
 90
      255
102
RTVSPost2010PropOp44
 70
     1
102
RTVSPost2010Prop45
280
     0
102
RTVSPost2010PropOp45
 70
     1
102
RTVSPost2010Prop46
 90
       50
102
RTVSPost2010PropOp46
 70
     1
102
RTVSPost2010Prop47
 90
       50
102
RTVSPost2010PropOp47
 70
     1
102
RTVSPost2010Prop48
 90
       50
102
RTVSPost2010PropOp48
 70
     1
102
RTVSPost2010Prop49
280
     0
102
RTVSPost2010PropOp49
 70
     1
102
RTVSPost2010Prop50
 90
       50
102
RTVSPost2010PropOp50
 70
     1
102
RTVSPost2010Prop51ColorIndex
 90
      256
102
RTVSPost2010Prop51ColorRGB
 90
-16777216
102
RTVSPost2010PropOp51
 70
     0
102
RTVSPost2010Prop52
140
1.0
102
RTVSPost2010PropOp52
 70
     0
102
RTVSPost2010Prop53
 90
        2
102
RTVSPost2010PropOp53
 70
     1
102
RTVSPost2010Prop54
  1
strokes_ogs.tif
102
RTVSPost2010PropOp54
 70
     1
102
RTVSPost2010Prop55
280
     0
102
RTVSPost2010PropOp55
 70
     1
102
RTVSPost2010Prop56
140
1.0
102
RTVSPost2010PropOp56
 70
     1
102
RTVSPost2010Prop57
140
1.0
102
RTVSPost2010PropOp57
 70
     1
102
RTVSPropertyOp0
 70
     1
102
RTVSPropertyOp1
 70
     1
102
RTVSPropertyOp2
 70
     1
102
RTVSPropertyOp3
 70
     1
102
RTVSPropertyOp4
 70
     1
102
RTVSPropertyOp5
 70
     1
102
RTVSPropertyOp6
 70
     1
102
RTVSPropertyOp7
 70
     1
102
RTVSPropertyOp8
 70
     1
102
RTVSPropertyOp9
 70
     1
102
RTVSPropertyOp10
 70
     1
102
RTVSPropertyOp11
 70
     1
102
RTVSPropertyOp12
 70
     1
102
RTVSPropertyOp13
 70
     1
102
RTVSPropertyOp14
 70
     1
102
RTVSPropertyOp15
 70
     1
102
RTVSPropertyOp16
 70
     1
102
RTVSPropertyOp17
 70
     1
102
RTVSPropertyOp18
 70
     1
102
RTVSPropertyOp19
 70
     1
102
RTVSPropertyOp20
 70
     1
102
RTVSPropertyOp21
 70
     1
102
RTVSPropertyOp22
 70
     1
102
RTVSPropertyOp23
 70
     1
102
RTVSPropertyOp24
 70
     1
102
RTVSPropertyOp25
 70
     1
102
RTVSPropertyOp26
 70
     1
102
RTVSPropertyOp27
 70
     1
102
RTVSPropertyOp28
 70
     1
102
RTVSPropertyOp29
 70
     1
102
RTVSPropertyOp30
 70
     1
102
RTVSPropertyOp31
 70
     1
102
RTVSPropertyOp32
 70
     1
102
RTVSPropertyOp33
 70
     1
102
RTVSPropertyOp34
 70
     1
102
RTVSPropertyOp35
 70
     1
102
RTVSPropertyOp36
 70
     1
102
RTVSPropertyOp37
 70
     1
102
RTVSPropertyOp38
 70
     1
102
RTVSPropertyOp39
 70
     1
102
RTVSPropertyOp40
 70
     1
102
RTVSPropertyOp41
 70
     1
102
RTVSPropertyOp42
 70
     1
102
RTVSPropertyOp43
 70
     1
102
RTVSPropertyOp44
 70
     1
102
RTVSPropertyOp45
 70
     1
102
RTVSPropertyOp46
 70
     1
102
RTVSPropertyOp47
 70
     1
102
RTVSPropertyOp48
 70
     1
102
RTVSPropertyOp49
 70
     1
102
RTVSPropertyOp50
 70
     1
102
RTVSPropertyOp51
 70
     0
102
RTVSPropertyOp52
 70
     0
102
RTVSPropertyOp53
 70
     1
102
RTVSPropertyOp54
 70
     1
102
RTVSPropertyOp55
 70
     1
102
RTVSPropertyOp56
 70
     1
102
RTVSPropertyOp57
 70
     1
102
RTVSPropertyOp58
 70
     1
102
RTVSPropertyOp59
 70
     1
102
RTVSPropertyOp60
 70
     1
102
RTVSPropertyOp61
 70
     1
102
RTVSPropertyOp62
 70
     1
  0
XRECORD
  5
14F25
102
{ACAD_REACTORS
330
14F24
102
}
330
14F24
100
AcDbXrecord
280
     1
102
RTVSPost2010Prop28
280
     0
102
RTVSPost2010PropOp28
 70
     1
102
RTVSPost2010Prop29
280
     1
102
RTVSPost2010PropOp29
 70
     1
102
RTVSPost2010Prop30
280
     1
102
RTVSPost2010PropOp30
 70
     1
102
RTVSPost2010Prop31
280
     0
102
RTVSPost2010PropOp31
 70
     1
102
RTVSPost2010Prop32
280
     0
102
RTVSPost2010PropOp32
 70
     1
102
RTVSPost2010Prop33
280
     0
102
RTVSPost2010PropOp33
 70
     1
102
RTVSPost2010Prop34
280
     0
102
RTVSPost2010PropOp34
 70
     1
102
RTVSPost2010Prop35
280
     0
102
RTVSPost2010PropOp35
 70
     1
102
RTVSPost2010Prop36
280
     0
102
RTVSPost2010PropOp36
 70
     1
102
RTVSPost2010Prop37
 90
       50
102
RTVSPost2010PropOp37
 70
     1
102
RTVSPost2010Prop38
140
0.0
102
RTVSPost2010PropOp38
 70
     1
102
RTVSPost2010Prop39
140
1.0
102
RTVSPost2010PropOp39
 70
     1
102
RTVSPost2010Prop40
 90
        0
102
RTVSPost2010PropOp40
 70
     1
102
RTVSPost2010Prop41ColorIndex
 90
       18
102
RTVSPost2010Prop41ColorRGB
 90
        0
102
RTVSPost2010PropOp41
 70
     1
102
RTVSPost2010Prop42
 90
       50
102
RTVSPost2010PropOp42
 70
     1
102
RTVSPost2010Prop43
 90
        3
102
RTVSPost2010PropOp43
 70
     1
102
RTVSPost2010Prop44ColorIndex
 90
        5
102
RTVSPost2010Prop44ColorRGB
 90
      255
102
RTVSPost2010PropOp44
 70
     1
102
RTVSPost2010Prop45
280
     0
102
RTVSPost2010PropOp45
 70
     1
102
RTVSPost2010Prop46
 90
       50
102
RTVSPost2010PropOp46
 70
     1
102
RTVSPost2010Prop47
 90
       50
102
RTVSPost2010PropOp47
 70
     1
102
RTVSPost2010Prop48
 90
       50
102
RTVSPost2010PropOp48
 70
     1
102
RTVSPost2010Prop49
280
     0
102
RTVSPost2010PropOp49
 70
     1
102
RTVSPost2010Prop50
 90
       50
102
RTVSPost2010PropOp50
 70
     1
102
RTVSPost2010Prop51ColorIndex
 90
      256
102
RTVSPost2010Prop51ColorRGB
 90
-16777216
102
RTVSPost2010PropOp51
 70
     0
102
RTVSPost2010Prop52
140
1.0
102
RTVSPost2010PropOp52
 70
     0
102
RTVSPost2010Prop53
 90
        2
102
RTVSPost2010PropOp53
 70
     1
102
RTVSPost2010Prop54
  1
strokes_ogs.tif
102
RTVSPost2010PropOp54
 70
     1
102
RTVSPost2010Prop55
280
     0
102
RTVSPost2010PropOp55
 70
     1
102
RTVSPost2010Prop56
140
1.0
102
RTVSPost2010PropOp56
 70
     1
102
RTVSPost2010Prop57
140
1.0
102
RTVSPost2010PropOp57
 70
     1
102
RTVSPropertyOp0
 70
     1
102
RTVSPropertyOp1
 70
     1
102
RTVSPropertyOp2
 70
     1
102
RTVSPropertyOp3
 70
     1
102
RTVSPropertyOp4
 70
     1
102
RTVSPropertyOp5
 70
     1
102
RTVSPropertyOp6
 70
     1
102
RTVSPropertyOp7
 70
     1
102
RTVSPropertyOp8
 70
     1
102
RTVSPropertyOp9
 70
     1
102
RTVSPropertyOp10
 70
     1
102
RTVSPropertyOp11
 70
     1
102
RTVSPropertyOp12
 70
     1
102
RTVSPropertyOp13
 70
     1
102
RTVSPropertyOp14
 70
     1
102
RTVSPropertyOp15
 70
     1
102
RTVSPropertyOp16
 70
     1
102
RTVSPropertyOp17
 70
     1
102
RTVSPropertyOp18
 70
     1
102
RTVSPropertyOp19
 70
     1
102
RTVSPropertyOp20
 70
     1
102
RTVSPropertyOp21
 70
     1
102
RTVSPropertyOp22
 70
     1
102
RTVSPropertyOp23
 70
     1
102
RTVSPropertyOp24
 70
     1
102
RTVSPropertyOp25
 70
     1
102
RTVSPropertyOp26
 70
     1
102
RTVSPropertyOp27
 70
     1
102
RTVSPropertyOp28
 70
     1
102
RTVSPropertyOp29
 70
     1
102
RTVSPropertyOp30
 70
     1
102
RTVSPropertyOp31
 70
     1
102
RTVSPropertyOp32
 70
     1
102
RTVSPropertyOp33
 70
     1
102
RTVSPropertyOp34
 70
     1
102
RTVSPropertyOp35
 70
     1
102
RTVSPropertyOp36
 70
     1
102
RTVSPropertyOp37
 70
     1
102
RTVSPropertyOp38
 70
     1
102
RTVSPropertyOp39
 70
     1
102
RTVSPropertyOp40
 70
     1
102
RTVSPropertyOp41
 70
     1
102
RTVSPropertyOp42
 70
     1
102
RTVSPropertyOp43
 70
     1
102
RTVSPropertyOp44
 70
     1
102
RTVSPropertyOp45
 70
     1
102
RTVSPropertyOp46
 70
     1
102
RTVSPropertyOp47
 70
     1
102
RTVSPropertyOp48
 70
     1
102
RTVSPropertyOp49
 70
     1
102
RTVSPropertyOp50
 70
     1
102
RTVSPropertyOp51
 70
     0
102
RTVSPropertyOp52
 70
     0
102
RTVSPropertyOp53
 70
     1
102
RTVSPropertyOp54
 70
     1
102
RTVSPropertyOp55
 70
     1
102
RTVSPropertyOp56
 70
     1
102
RTVSPropertyOp57
 70
     1
102
RTVSPropertyOp58
 70
     1
102
RTVSPropertyOp59
 70
     1
102
RTVSPropertyOp60
 70
     1
102
RTVSPropertyOp61
 70
     1
102
RTVSPropertyOp62
 70
     1
  0
XRECORD
  5
14F27
102
{ACAD_REACTORS
330
14F26
102
}
330
14F26
100
AcDbXrecord
280
     1
102
RTVSPost2010Prop28
280
     0
102
RTVSPost2010PropOp28
 70
     1
102
RTVSPost2010Prop29
280
     1
102
RTVSPost2010PropOp29
 70
     1
102
RTVSPost2010Prop30
280
     1
102
RTVSPost2010PropOp30
 70
     1
102
RTVSPost2010Prop31
280
     0
102
RTVSPost2010PropOp31
 70
     1
102
RTVSPost2010Prop32
280
     0
102
RTVSPost2010PropOp32
 70
     1
102
RTVSPost2010Prop33
280
     0
102
RTVSPost2010PropOp33
 70
     1
102
RTVSPost2010Prop34
280
     0
102
RTVSPost2010PropOp34
 70
     1
102
RTVSPost2010Prop35
280
     0
102
RTVSPost2010PropOp35
 70
     1
102
RTVSPost2010Prop36
280
     0
102
RTVSPost2010PropOp36
 70
     1
102
RTVSPost2010Prop37
 90
       50
102
RTVSPost2010PropOp37
 70
     1
102
RTVSPost2010Prop38
140
0.0
102
RTVSPost2010PropOp38
 70
     1
102
RTVSPost2010Prop39
140
1.0
102
RTVSPost2010PropOp39
 70
     1
102
RTVSPost2010Prop40
 90
        0
102
RTVSPost2010PropOp40
 70
     1
102
RTVSPost2010Prop41ColorIndex
 90
       18
102
RTVSPost2010Prop41ColorRGB
 90
        0
102
RTVSPost2010PropOp41
 70
     1
102
RTVSPost2010Prop42
 90
       50
102
RTVSPost2010PropOp42
 70
     1
102
RTVSPost2010Prop43
 90
        3
102
RTVSPost2010PropOp43
 70
     1
102
RTVSPost2010Prop44ColorIndex
 90
        5
102
RTVSPost2010Prop44ColorRGB
 90
      255
102
RTVSPost2010PropOp44
 70
     1
102
RTVSPost2010Prop45
280
     0
102
RTVSPost2010PropOp45
 70
     1
102
RTVSPost2010Prop46
 90
       50
102
RTVSPost2010PropOp46
 70
     1
102
RTVSPost2010Prop47
 90
       50
102
RTVSPost2010PropOp47
 70
     1
102
RTVSPost2010Prop48
 90
       50
102
RTVSPost2010PropOp48
 70
     1
102
RTVSPost2010Prop49
280
     0
102
RTVSPost2010PropOp49
 70
     1
102
RTVSPost2010Prop50
 90
       50
102
RTVSPost2010PropOp50
 70
     1
102
RTVSPost2010Prop51ColorIndex
 90
      256
102
RTVSPost2010Prop51ColorRGB
 90
-16777216
102
RTVSPost2010PropOp51
 70
     0
102
RTVSPost2010Prop52
140
1.0
102
RTVSPost2010PropOp52
 70
     0
102
RTVSPost2010Prop53
 90
        2
102
RTVSPost2010PropOp53
 70
     1
102
RTVSPost2010Prop54
  1
strokes_ogs.tif
102
RTVSPost2010PropOp54
 70
     1
102
RTVSPost2010Prop55
280
     0
102
RTVSPost2010PropOp55
 70
     1
102
RTVSPost2010Prop56
140
1.0
102
RTVSPost2010PropOp56
 70
     1
102
RTVSPost2010Prop57
140
1.0
102
RTVSPost2010PropOp57
 70
     1
102
RTVSPropertyOp0
 70
     1
102
RTVSPropertyOp1
 70
     1
102
RTVSPropertyOp2
 70
     1
102
RTVSPropertyOp3
 70
     1
102
RTVSPropertyOp4
 70
     1
102
RTVSPropertyOp5
 70
     1
102
RTVSPropertyOp6
 70
     1
102
RTVSPropertyOp7
 70
     1
102
RTVSPropertyOp8
 70
     1
102
RTVSPropertyOp9
 70
     1
102
RTVSPropertyOp10
 70
     1
102
RTVSPropertyOp11
 70
     1
102
RTVSPropertyOp12
 70
     1
102
RTVSPropertyOp13
 70
     1
102
RTVSPropertyOp14
 70
     1
102
RTVSPropertyOp15
 70
     1
102
RTVSPropertyOp16
 70
     1
102
RTVSPropertyOp17
 70
     1
102
RTVSPropertyOp18
 70
     1
102
RTVSPropertyOp19
 70
     1
102
RTVSPropertyOp20
 70
     1
102
RTVSPropertyOp21
 70
     1
102
RTVSPropertyOp22
 70
     1
102
RTVSPropertyOp23
 70
     1
102
RTVSPropertyOp24
 70
     1
102
RTVSPropertyOp25
 70
     1
102
RTVSPropertyOp26
 70
     1
102
RTVSPropertyOp27
 70
     1
102
RTVSPropertyOp28
 70
     1
102
RTVSPropertyOp29
 70
     1
102
RTVSPropertyOp30
 70
     1
102
RTVSPropertyOp31
 70
     1
102
RTVSPropertyOp32
 70
     1
102
RTVSPropertyOp33
 70
     1
102
RTVSPropertyOp34
 70
     1
102
RTVSPropertyOp35
 70
     1
102
RTVSPropertyOp36
 70
     1
102
RTVSPropertyOp37
 70
     1
102
RTVSPropertyOp38
 70
     1
102
RTVSPropertyOp39
 70
     1
102
RTVSPropertyOp40
 70
     1
102
RTVSPropertyOp41
 70
     1
102
RTVSPropertyOp42
 70
     1
102
RTVSPropertyOp43
 70
     1
102
RTVSPropertyOp44
 70
     1
102
RTVSPropertyOp45
 70
     1
102
RTVSPropertyOp46
 70
     1
102
RTVSPropertyOp47
 70
     1
102
RTVSPropertyOp48
 70
     1
102
RTVSPropertyOp49
 70
     1
102
RTVSPropertyOp50
 70
     1
102
RTVSPropertyOp51
 70
     0
102
RTVSPropertyOp52
 70
     0
102
RTVSPropertyOp53
 70
     1
102
RTVSPropertyOp54
 70
     1
102
RTVSPropertyOp55
 70
     1
102
RTVSPropertyOp56
 70
     1
102
RTVSPropertyOp57
 70
     1
102
RTVSPropertyOp58
 70
     1
102
RTVSPropertyOp59
 70
     1
102
RTVSPropertyOp60
 70
     1
102
RTVSPropertyOp61
 70
     1
102
RTVSPropertyOp62
 70
     1
  0
XRECORD
  5
14F29
102
{ACAD_REACTORS
330
14F28
102
}
330
14F28
100
AcDbXrecord
280
     1
102
RTVSPost2010Prop28
280
     0
102
RTVSPost2010PropOp28
 70
     1
102
RTVSPost2010Prop29
280
     1
102
RTVSPost2010PropOp29
 70
     1
102
RTVSPost2010Prop30
280
     1
102
RTVSPost2010PropOp30
 70
     1
102
RTVSPost2010Prop31
280
     0
102
RTVSPost2010PropOp31
 70
     1
102
RTVSPost2010Prop32
280
     0
102
RTVSPost2010PropOp32
 70
     1
102
RTVSPost2010Prop33
280
     0
102
RTVSPost2010PropOp33
 70
     1
102
RTVSPost2010Prop34
280
     0
102
RTVSPost2010PropOp34
 70
     1
102
RTVSPost2010Prop35
280
     0
102
RTVSPost2010PropOp35
 70
     1
102
RTVSPost2010Prop36
280
     0
102
RTVSPost2010PropOp36
 70
     1
102
RTVSPost2010Prop37
 90
       50
102
RTVSPost2010PropOp37
 70
     1
102
RTVSPost2010Prop38
140
0.0
102
RTVSPost2010PropOp38
 70
     1
102
RTVSPost2010Prop39
140
1.0
102
RTVSPost2010PropOp39
 70
     1
102
RTVSPost2010Prop40
 90
        0
102
RTVSPost2010PropOp40
 70
     1
102
RTVSPost2010Prop41ColorIndex
 90
       18
102
RTVSPost2010Prop41ColorRGB
 90
        0
102
RTVSPost2010PropOp41
 70
     1
102
RTVSPost2010Prop42
 90
       50
102
RTVSPost2010PropOp42
 70
     1
102
RTVSPost2010Prop43
 90
        3
102
RTVSPost2010PropOp43
 70
     1
102
RTVSPost2010Prop44ColorIndex
 90
        5
102
RTVSPost2010Prop44ColorRGB
 90
      255
102
RTVSPost2010PropOp44
 70
     1
102
RTVSPost2010Prop45
280
     0
102
RTVSPost2010PropOp45
 70
     1
102
RTVSPost2010Prop46
 90
       50
102
RTVSPost2010PropOp46
 70
     1
102
RTVSPost2010Prop47
 90
       50
102
RTVSPost2010PropOp47
 70
     1
102
RTVSPost2010Prop48
 90
       50
102
RTVSPost2010PropOp48
 70
     1
102
RTVSPost2010Prop49
280
     0
102
RTVSPost2010PropOp49
 70
     1
102
RTVSPost2010Prop50
 90
       50
102
RTVSPost2010PropOp50
 70
     1
102
RTVSPost2010Prop51ColorIndex
 90
      256
102
RTVSPost2010Prop51ColorRGB
 90
-16777216
102
RTVSPost2010PropOp51
 70
     0
102
RTVSPost2010Prop52
140
1.0
102
RTVSPost2010PropOp52
 70
     0
102
RTVSPost2010Prop53
 90
        2
102
RTVSPost2010PropOp53
 70
     1
102
RTVSPost2010Prop54
  1
strokes_ogs.tif
102
RTVSPost2010PropOp54
 70
     1
102
RTVSPost2010Prop55
280
     0
102
RTVSPost2010PropOp55
 70
     1
102
RTVSPost2010Prop56
140
1.0
102
RTVSPost2010PropOp56
 70
     1
102
RTVSPost2010Prop57
140
1.0
102
RTVSPost2010PropOp57
 70
     1
102
RTVSPropertyOp0
 70
     1
102
RTVSPropertyOp1
 70
     1
102
RTVSPropertyOp2
 70
     1
102
RTVSPropertyOp3
 70
     1
102
RTVSPropertyOp4
 70
     1
102
RTVSPropertyOp5
 70
     1
102
RTVSPropertyOp6
 70
     1
102
RTVSPropertyOp7
 70
     1
102
RTVSPropertyOp8
 70
     1
102
RTVSPropertyOp9
 70
     1
102
RTVSPropertyOp10
 70
     1
102
RTVSPropertyOp11
 70
     1
102
RTVSPropertyOp12
 70
     1
102
RTVSPropertyOp13
 70
     1
102
RTVSPropertyOp14
 70
     1
102
RTVSPropertyOp15
 70
     1
102
RTVSPropertyOp16
 70
     1
102
RTVSPropertyOp17
 70
     1
102
RTVSPropertyOp18
 70
     1
102
RTVSPropertyOp19
 70
     1
102
RTVSPropertyOp20
 70
     1
102
RTVSPropertyOp21
 70
     1
102
RTVSPropertyOp22
 70
     1
102
RTVSPropertyOp23
 70
     1
102
RTVSPropertyOp24
 70
     1
102
RTVSPropertyOp25
 70
     1
102
RTVSPropertyOp26
 70
     1
102
RTVSPropertyOp27
 70
     1
102
RTVSPropertyOp28
 70
     1
102
RTVSPropertyOp29
 70
     1
102
RTVSPropertyOp30
 70
     1
102
RTVSPropertyOp31
 70
     1
102
RTVSPropertyOp32
 70
     1
102
RTVSPropertyOp33
 70
     1
102
RTVSPropertyOp34
 70
     1
102
RTVSPropertyOp35
 70
     1
102
RTVSPropertyOp36
 70
     1
102
RTVSPropertyOp37
 70
     1
102
RTVSPropertyOp38
 70
     1
102
RTVSPropertyOp39
 70
     1
102
RTVSPropertyOp40
 70
     1
102
RTVSPropertyOp41
 70
     1
102
RTVSPropertyOp42
 70
     1
102
RTVSPropertyOp43
 70
     1
102
RTVSPropertyOp44
 70
     1
102
RTVSPropertyOp45
 70
     1
102
RTVSPropertyOp46
 70
     1
102
RTVSPropertyOp47
 70
     1
102
RTVSPropertyOp48
 70
     1
102
RTVSPropertyOp49
 70
     1
102
RTVSPropertyOp50
 70
     1
102
RTVSPropertyOp51
 70
     0
102
RTVSPropertyOp52
 70
     0
102
RTVSPropertyOp53
 70
     1
102
RTVSPropertyOp54
 70
     1
102
RTVSPropertyOp55
 70
     1
102
RTVSPropertyOp56
 70
     1
102
RTVSPropertyOp57
 70
     1
102
RTVSPropertyOp58
 70
     1
102
RTVSPropertyOp59
 70
     1
102
RTVSPropertyOp60
 70
     1
102
RTVSPropertyOp61
 70
     1
102
RTVSPropertyOp62
 70
     1
  0
XRECORD
  5
14F2B
102
{ACAD_REACTORS
330
14F2A
102
}
330
14F2A
100
AcDbXrecord
280
     1
102
RTVSPost2010Prop28
280
     0
102
RTVSPost2010PropOp28
 70
     1
102
RTVSPost2010Prop29
280
     1
102
RTVSPost2010PropOp29
 70
     1
102
RTVSPost2010Prop30
280
     1
102
RTVSPost2010PropOp30
 70
     1
102
RTVSPost2010Prop31
280
     0
102
RTVSPost2010PropOp31
 70
     1
102
RTVSPost2010Prop32
280
     0
102
RTVSPost2010PropOp32
 70
     1
102
RTVSPost2010Prop33
280
     0
102
RTVSPost2010PropOp33
 70
     1
102
RTVSPost2010Prop34
280
     0
102
RTVSPost2010PropOp34
 70
     1
102
RTVSPost2010Prop35
280
     0
102
RTVSPost2010PropOp35
 70
     1
102
RTVSPost2010Prop36
280
     0
102
RTVSPost2010PropOp36
 70
     1
102
RTVSPost2010Prop37
 90
       50
102
RTVSPost2010PropOp37
 70
     1
102
RTVSPost2010Prop38
140
0.0
102
RTVSPost2010PropOp38
 70
     1
102
RTVSPost2010Prop39
140
1.0
102
RTVSPost2010PropOp39
 70
     1
102
RTVSPost2010Prop40
 90
        0
102
RTVSPost2010PropOp40
 70
     1
102
RTVSPost2010Prop41ColorIndex
 90
       18
102
RTVSPost2010Prop41ColorRGB
 90
        0
102
RTVSPost2010PropOp41
 70
     1
102
RTVSPost2010Prop42
 90
       50
102
RTVSPost2010PropOp42
 70
     1
102
RTVSPost2010Prop43
 90
        3
102
RTVSPost2010PropOp43
 70
     1
102
RTVSPost2010Prop44ColorIndex
 90
        5
102
RTVSPost2010Prop44ColorRGB
 90
      255
102
RTVSPost2010PropOp44
 70
     1
102
RTVSPost2010Prop45
280
     0
102
RTVSPost2010PropOp45
 70
     1
102
RTVSPost2010Prop46
 90
       50
102
RTVSPost2010PropOp46
 70
     1
102
RTVSPost2010Prop47
 90
       50
102
RTVSPost2010PropOp47
 70
     1
102
RTVSPost2010Prop48
 90
       50
102
RTVSPost2010PropOp48
 70
     1
102
RTVSPost2010Prop49
280
     0
102
RTVSPost2010PropOp49
 70
     1
102
RTVSPost2010Prop50
 90
       50
102
RTVSPost2010PropOp50
 70
     1
102
RTVSPost2010Prop51ColorIndex
 90
      256
102
RTVSPost2010Prop51ColorRGB
 90
-16777216
102
RTVSPost2010PropOp51
 70
     0
102
RTVSPost2010Prop52
140
1.0
102
RTVSPost2010PropOp52
 70
     0
102
RTVSPost2010Prop53
 90
        2
102
RTVSPost2010PropOp53
 70
     1
102
RTVSPost2010Prop54
  1
strokes_ogs.tif
102
RTVSPost2010PropOp54
 70
     1
102
RTVSPost2010Prop55
280
     0
102
RTVSPost2010PropOp55
 70
     1
102
RTVSPost2010Prop56
140
1.0
102
RTVSPost2010PropOp56
 70
     1
102
RTVSPost2010Prop57
140
1.0
102
RTVSPost2010PropOp57
 70
     1
102
RTVSPropertyOp0
 70
     1
102
RTVSPropertyOp1
 70
     1
102
RTVSPropertyOp2
 70
     1
102
RTVSPropertyOp3
 70
     1
102
RTVSPropertyOp4
 70
     1
102
RTVSPropertyOp5
 70
     1
102
RTVSPropertyOp6
 70
     1
102
RTVSPropertyOp7
 70
     1
102
RTVSPropertyOp8
 70
     1
102
RTVSPropertyOp9
 70
     1
102
RTVSPropertyOp10
 70
     1
102
RTVSPropertyOp11
 70
     1
102
RTVSPropertyOp12
 70
     1
102
RTVSPropertyOp13
 70
     1
102
RTVSPropertyOp14
 70
     1
102
RTVSPropertyOp15
 70
     1
102
RTVSPropertyOp16
 70
     1
102
RTVSPropertyOp17
 70
     1
102
RTVSPropertyOp18
 70
     1
102
RTVSPropertyOp19
 70
     1
102
RTVSPropertyOp20
 70
     1
102
RTVSPropertyOp21
 70
     1
102
RTVSPropertyOp22
 70
     1
102
RTVSPropertyOp23
 70
     1
102
RTVSPropertyOp24
 70
     1
102
RTVSPropertyOp25
 70
     1
102
RTVSPropertyOp26
 70
     1
102
RTVSPropertyOp27
 70
     1
102
RTVSPropertyOp28
 70
     1
102
RTVSPropertyOp29
 70
     1
102
RTVSPropertyOp30
 70
     1
102
RTVSPropertyOp31
 70
     1
102
RTVSPropertyOp32
 70
     1
102
RTVSPropertyOp33
 70
     1
102
RTVSPropertyOp34
 70
     1
102
RTVSPropertyOp35
 70
     1
102
RTVSPropertyOp36
 70
     1
102
RTVSPropertyOp37
 70
     1
102
RTVSPropertyOp38
 70
     1
102
RTVSPropertyOp39
 70
     1
102
RTVSPropertyOp40
 70
     1
102
RTVSPropertyOp41
 70
     1
102
RTVSPropertyOp42
 70
     1
102
RTVSPropertyOp43
 70
     1
102
RTVSPropertyOp44
 70
     1
102
RTVSPropertyOp45
 70
     1
102
RTVSPropertyOp46
 70
     1
102
RTVSPropertyOp47
 70
     1
102
RTVSPropertyOp48
 70
     1
102
RTVSPropertyOp49
 70
     1
102
RTVSPropertyOp50
 70
     1
102
RTVSPropertyOp51
 70
     0
102
RTVSPropertyOp52
 70
     0
102
RTVSPropertyOp53
 70
     1
102
RTVSPropertyOp54
 70
     1
102
RTVSPropertyOp55
 70
     1
102
RTVSPropertyOp56
 70
     1
102
RTVSPropertyOp57
 70
     1
102
RTVSPropertyOp58
 70
     1
102
RTVSPropertyOp59
 70
     1
102
RTVSPropertyOp60
 70
     1
102
RTVSPropertyOp61
 70
     1
102
RTVSPropertyOp62
 70
     1
  0
XRECORD
  5
14F33
102
{ACAD_REACTORS
330
14F32
102
}
330
14F32
100
AcDbXrecord
280
     1
102
RTVSPost2010Prop28
280
     0
102
RTVSPost2010PropOp28
 70
     1
102
RTVSPost2010Prop29
280
     1
102
RTVSPost2010PropOp29
 70
     1
102
RTVSPost2010Prop30
280
     1
102
RTVSPost2010PropOp30
 70
     1
102
RTVSPost2010Prop31
280
     0
102
RTVSPost2010PropOp31
 70
     1
102
RTVSPost2010Prop32
280
     0
102
RTVSPost2010PropOp32
 70
     1
102
RTVSPost2010Prop33
280
     0
102
RTVSPost2010PropOp33
 70
     1
102
RTVSPost2010Prop34
280
     0
102
RTVSPost2010PropOp34
 70
     1
102
RTVSPost2010Prop35
280
     0
102
RTVSPost2010PropOp35
 70
     1
102
RTVSPost2010Prop36
280
     0
102
RTVSPost2010PropOp36
 70
     1
102
RTVSPost2010Prop37
 90
       50
102
RTVSPost2010PropOp37
 70
     1
102
RTVSPost2010Prop38
140
0.0
102
RTVSPost2010PropOp38
 70
     1
102
RTVSPost2010Prop39
140
1.0
102
RTVSPost2010PropOp39
 70
     1
102
RTVSPost2010Prop40
 90
        0
102
RTVSPost2010PropOp40
 70
     1
102
RTVSPost2010Prop41ColorIndex
 90
       18
102
RTVSPost2010Prop41ColorRGB
 90
        0
102
RTVSPost2010PropOp41
 70
     1
102
RTVSPost2010Prop42
 90
       50
102
RTVSPost2010PropOp42
 70
     1
102
RTVSPost2010Prop43
 90
        3
102
RTVSPost2010PropOp43
 70
     1
102
RTVSPost2010Prop44ColorIndex
 90
        5
102
RTVSPost2010Prop44ColorRGB
 90
      255
102
RTVSPost2010PropOp44
 70
     1
102
RTVSPost2010Prop45
280
     0
102
RTVSPost2010PropOp45
 70
     1
102
RTVSPost2010Prop46
 90
       50
102
RTVSPost2010PropOp46
 70
     1
102
RTVSPost2010Prop47
 90
       50
102
RTVSPost2010PropOp47
 70
     1
102
RTVSPost2010Prop48
 90
       50
102
RTVSPost2010PropOp48
 70
     1
102
RTVSPost2010Prop49
280
     0
102
RTVSPost2010PropOp49
 70
     1
102
RTVSPost2010Prop50
 90
       50
102
RTVSPost2010PropOp50
 70
     1
102
RTVSPost2010Prop51ColorIndex
 90
      256
102
RTVSPost2010Prop51ColorRGB
 90
-16777216
102
RTVSPost2010PropOp51
 70
     0
102
RTVSPost2010Prop52
140
1.0
102
RTVSPost2010PropOp52
 70
     0
102
RTVSPost2010Prop53
 90
        2
102
RTVSPost2010PropOp53
 70
     1
102
RTVSPost2010Prop54
  1
strokes_ogs.tif
102
RTVSPost2010PropOp54
 70
     1
102
RTVSPost2010Prop55
280
     0
102
RTVSPost2010PropOp55
 70
     1
102
RTVSPost2010Prop56
140
1.0
102
RTVSPost2010PropOp56
 70
     1
102
RTVSPost2010Prop57
140
1.0
102
RTVSPost2010PropOp57
 70
     1
102
RTVSPropertyOp0
 70
     1
102
RTVSPropertyOp1
 70
     1
102
RTVSPropertyOp2
 70
     1
102
RTVSPropertyOp3
 70
     1
102
RTVSPropertyOp4
 70
     1
102
RTVSPropertyOp5
 70
     1
102
RTVSPropertyOp6
 70
     1
102
RTVSPropertyOp7
 70
     1
102
RTVSPropertyOp8
 70
     1
102
RTVSPropertyOp9
 70
     1
102
RTVSPropertyOp10
 70
     1
102
RTVSPropertyOp11
 70
     1
102
RTVSPropertyOp12
 70
     1
102
RTVSPropertyOp13
 70
     1
102
RTVSPropertyOp14
 70
     1
102
RTVSPropertyOp15
 70
     1
102
RTVSPropertyOp16
 70
     1
102
RTVSPropertyOp17
 70
     1
102
RTVSPropertyOp18
 70
     1
102
RTVSPropertyOp19
 70
     1
102
RTVSPropertyOp20
 70
     1
102
RTVSPropertyOp21
 70
     1
102
RTVSPropertyOp22
 70
     1
102
RTVSPropertyOp23
 70
     1
102
RTVSPropertyOp24
 70
     1
102
RTVSPropertyOp25
 70
     1
102
RTVSPropertyOp26
 70
     1
102
RTVSPropertyOp27
 70
     1
102
RTVSPropertyOp28
 70
     1
102
RTVSPropertyOp29
 70
     1
102
RTVSPropertyOp30
 70
     1
102
RTVSPropertyOp31
 70
     1
102
RTVSPropertyOp32
 70
     1
102
RTVSPropertyOp33
 70
     1
102
RTVSPropertyOp34
 70
     1
102
RTVSPropertyOp35
 70
     1
102
RTVSPropertyOp36
 70
     1
102
RTVSPropertyOp37
 70
     1
102
RTVSPropertyOp38
 70
     1
102
RTVSPropertyOp39
 70
     1
102
RTVSPropertyOp40
 70
     1
102
RTVSPropertyOp41
 70
     1
102
RTVSPropertyOp42
 70
     1
102
RTVSPropertyOp43
 70
     1
102
RTVSPropertyOp44
 70
     1
102
RTVSPropertyOp45
 70
     1
102
RTVSPropertyOp46
 70
     1
102
RTVSPropertyOp47
 70
     1
102
RTVSPropertyOp48
 70
     1
102
RTVSPropertyOp49
 70
     1
102
RTVSPropertyOp50
 70
     1
102
RTVSPropertyOp51
 70
     0
102
RTVSPropertyOp52
 70
     0
102
RTVSPropertyOp53
 70
     1
102
RTVSPropertyOp54
 70
     1
102
RTVSPropertyOp55
 70
     1
102
RTVSPropertyOp56
 70
     1
102
RTVSPropertyOp57
 70
     1
102
RTVSPropertyOp58
 70
     1
102
RTVSPropertyOp59
 70
     1
102
RTVSPropertyOp60
 70
     1
102
RTVSPropertyOp61
 70
     1
102
RTVSPropertyOp62
 70
     1
  0
XRECORD
  5
14F4F
102
{ACAD_REACTORS
330
14F4E
102
}
330
14F4E
100
AcDbXrecord
280
     1
102
RTVSPost2010Prop28
280
     0
102
RTVSPost2010PropOp28
 70
     0
102
RTVSPost2010Prop29
280
     1
102
RTVSPost2010PropOp29
 70
     0
102
RTVSPost2010Prop30
280
     1
102
RTVSPost2010PropOp30
 70
     0
102
RTVSPost2010Prop31
280
     0
102
RTVSPost2010PropOp31
 70
     0
102
RTVSPost2010Prop32
280
     0
102
RTVSPost2010PropOp32
 70
     0
102
RTVSPost2010Prop33
280
     0
102
RTVSPost2010PropOp33
 70
     0
102
RTVSPost2010Prop34
280
     0
102
RTVSPost2010PropOp34
 70
     0
102
RTVSPost2010Prop35
280
     0
102
RTVSPost2010PropOp35
 70
     0
102
RTVSPost2010Prop36
280
     0
102
RTVSPost2010PropOp36
 70
     0
102
RTVSPost2010Prop37
 90
       50
102
RTVSPost2010PropOp37
 70
     0
102
RTVSPost2010Prop38
140
0.0
102
RTVSPost2010PropOp38
 70
     0
102
RTVSPost2010Prop39
140
1.0
102
RTVSPost2010PropOp39
 70
     0
102
RTVSPost2010Prop40
 90
        0
102
RTVSPost2010PropOp40
 70
     0
102
RTVSPost2010Prop41ColorIndex
 90
       18
102
RTVSPost2010Prop41ColorRGB
 90
        0
102
RTVSPost2010PropOp41
 70
     0
102
RTVSPost2010Prop42
 90
       50
102
RTVSPost2010PropOp42
 70
     0
102
RTVSPost2010Prop43
 90
        3
102
RTVSPost2010PropOp43
 70
     0
102
RTVSPost2010Prop44ColorIndex
 90
        5
102
RTVSPost2010Prop44ColorRGB
 90
      255
102
RTVSPost2010PropOp44
 70
     0
102
RTVSPost2010Prop45
280
     0
102
RTVSPost2010PropOp45
 70
     0
102
RTVSPost2010Prop46
 90
       50
102
RTVSPost2010PropOp46
 70
     0
102
RTVSPost2010Prop47
 90
       50
102
RTVSPost2010PropOp47
 70
     0
102
RTVSPost2010Prop48
 90
       50
102
RTVSPost2010PropOp48
 70
     0
102
RTVSPost2010Prop49
280
     0
102
RTVSPost2010PropOp49
 70
     0
102
RTVSPost2010Prop50
 90
       50
102
RTVSPost2010PropOp50
 70
     0
102
RTVSPost2010Prop51ColorIndex
 90
      256
102
RTVSPost2010Prop51ColorRGB
 90
-16777216
102
RTVSPost2010PropOp51
 70
     0
102
RTVSPost2010Prop52
140
1.0
102
RTVSPost2010PropOp52
 70
     0
102
RTVSPost2010Prop53
 90
        2
102
RTVSPost2010PropOp53
 70
     0
102
RTVSPost2010Prop54
  1
strokes_ogs.tif
102
RTVSPost2010PropOp54
 70
     0
102
RTVSPost2010Prop55
280
     0
102
RTVSPost2010PropOp55
 70
     0
102
RTVSPost2010Prop56
140
1.0
102
RTVSPost2010PropOp56
 70
     0
102
RTVSPost2010Prop57
140
1.0
102
RTVSPost2010PropOp57
 70
     0
102
RTVSPropertyOp0
 70
     0
102
RTVSPropertyOp1
 70
     0
102
RTVSPropertyOp2
 70
     0
102
RTVSPropertyOp3
 70
     0
102
RTVSPropertyOp4
 70
     0
102
RTVSPropertyOp5
 70
     0
102
RTVSPropertyOp6
 70
     0
102
RTVSPropertyOp7
 70
     0
102
RTVSPropertyOp8
 70
     0
102
RTVSPropertyOp9
 70
     0
102
RTVSPropertyOp10
 70
     0
102
RTVSPropertyOp11
 70
     0
102
RTVSPropertyOp12
 70
     0
102
RTVSPropertyOp13
 70
     0
102
RTVSPropertyOp14
 70
     2
102
RTVSPropertyOp15
 70
     0
102
RTVSPropertyOp16
 70
     0
102
RTVSPropertyOp17
 70
     0
102
RTVSPropertyOp18
 70
     0
102
RTVSPropertyOp19
 70
     0
102
RTVSPropertyOp20
 70
     0
102
RTVSPropertyOp21
 70
     0
102
RTVSPropertyOp22
 70
     0
102
RTVSPropertyOp23
 70
     0
102
RTVSPropertyOp24
 70
     0
102
RTVSPropertyOp25
 70
     0
102
RTVSPropertyOp26
 70
     0
102
RTVSPropertyOp27
 70
     0
102
RTVSPropertyOp28
 70
     0
102
RTVSPropertyOp29
 70
     0
102
RTVSPropertyOp30
 70
     0
102
RTVSPropertyOp31
 70
     0
102
RTVSPropertyOp32
 70
     0
102
RTVSPropertyOp33
 70
     0
102
RTVSPropertyOp34
 70
     0
102
RTVSPropertyOp35
 70
     0
102
RTVSPropertyOp36
 70
     0
102
RTVSPropertyOp37
 70
     0
102
RTVSPropertyOp38
 70
     0
102
RTVSPropertyOp39
 70
     0
102
RTVSPropertyOp40
 70
     0
102
RTVSPropertyOp41
 70
     0
102
RTVSPropertyOp42
 70
     0
102
RTVSPropertyOp43
 70
     0
102
RTVSPropertyOp44
 70
     0
102
RTVSPropertyOp45
 70
     0
102
RTVSPropertyOp46
 70
     0
102
RTVSPropertyOp47
 70
     0
102
RTVSPropertyOp48
 70
     0
102
RTVSPropertyOp49
 70
     0
102
RTVSPropertyOp50
 70
     0
102
RTVSPropertyOp51
 70
     0
102
RTVSPropertyOp52
 70
     0
102
RTVSPropertyOp53
 70
     0
102
RTVSPropertyOp54
 70
     0
102
RTVSPropertyOp55
 70
     0
102
RTVSPropertyOp56
 70
     0
102
RTVSPropertyOp57
 70
     0
102
RTVSPropertyOp58
 70
     1
102
RTVSPropertyOp59
 70
     1
102
RTVSPropertyOp60
 70
     1
102
RTVSPropertyOp61
 70
     1
102
RTVSPropertyOp62
 70
     1
  0
XRECORD
  5
14F3F
102
{ACAD_REACTORS
330
14F3E
102
}
330
14F3E
100
AcDbXrecord
280
     1
102
RTVSPost2010Prop28
280
     0
102
RTVSPost2010PropOp28
 70
     1
102
RTVSPost2010Prop29
280
     1
102
RTVSPost2010PropOp29
 70
     1
102
RTVSPost2010Prop30
280
     1
102
RTVSPost2010PropOp30
 70
     1
102
RTVSPost2010Prop31
280
     0
102
RTVSPost2010PropOp31
 70
     1
102
RTVSPost2010Prop32
280
     0
102
RTVSPost2010PropOp32
 70
     1
102
RTVSPost2010Prop33
280
     0
102
RTVSPost2010PropOp33
 70
     1
102
RTVSPost2010Prop34
280
     0
102
RTVSPost2010PropOp34
 70
     1
102
RTVSPost2010Prop35
280
     0
102
RTVSPost2010PropOp35
 70
     1
102
RTVSPost2010Prop36
280
     0
102
RTVSPost2010PropOp36
 70
     1
102
RTVSPost2010Prop37
 90
       50
102
RTVSPost2010PropOp37
 70
     1
102
RTVSPost2010Prop38
140
0.0
102
RTVSPost2010PropOp38
 70
     1
102
RTVSPost2010Prop39
140
1.0
102
RTVSPost2010PropOp39
 70
     1
102
RTVSPost2010Prop40
 90
        0
102
RTVSPost2010PropOp40
 70
     1
102
RTVSPost2010Prop41ColorIndex
 90
       18
102
RTVSPost2010Prop41ColorRGB
 90
        0
102
RTVSPost2010PropOp41
 70
     1
102
RTVSPost2010Prop42
 90
       50
102
RTVSPost2010PropOp42
 70
     1
102
RTVSPost2010Prop43
 90
        3
102
RTVSPost2010PropOp43
 70
     1
102
RTVSPost2010Prop44ColorIndex
 90
        5
102
RTVSPost2010Prop44ColorRGB
 90
      255
102
RTVSPost2010PropOp44
 70
     1
102
RTVSPost2010Prop45
280
     0
102
RTVSPost2010PropOp45
 70
     1
102
RTVSPost2010Prop46
 90
       50
102
RTVSPost2010PropOp46
 70
     1
102
RTVSPost2010Prop47
 90
       50
102
RTVSPost2010PropOp47
 70
     1
102
RTVSPost2010Prop48
 90
       50
102
RTVSPost2010PropOp48
 70
     1
102
RTVSPost2010Prop49
280
     0
102
RTVSPost2010PropOp49
 70
     1
102
RTVSPost2010Prop50
 90
       50
102
RTVSPost2010PropOp50
 70
     1
102
RTVSPost2010Prop51ColorIndex
 90
      256
102
RTVSPost2010Prop51ColorRGB
 90
-16777216
102
RTVSPost2010PropOp51
 70
     0
102
RTVSPost2010Prop52
140
1.0
102
RTVSPost2010PropOp52
 70
     0
102
RTVSPost2010Prop53
 90
        2
102
RTVSPost2010PropOp53
 70
     1
102
RTVSPost2010Prop54
  1
strokes_ogs.tif
102
RTVSPost2010PropOp54
 70
     1
102
RTVSPost2010Prop55
280
     0
102
RTVSPost2010PropOp55
 70
     1
102
RTVSPost2010Prop56
140
1.0
102
RTVSPost2010PropOp56
 70
     1
102
RTVSPost2010Prop57
140
1.0
102
RTVSPost2010PropOp57
 70
     1
102
RTVSPropertyOp0
 70
     1
102
RTVSPropertyOp1
 70
     1
102
RTVSPropertyOp2
 70
     1
102
RTVSPropertyOp3
 70
     1
102
RTVSPropertyOp4
 70
     1
102
RTVSPropertyOp5
 70
     1
102
RTVSPropertyOp6
 70
     1
102
RTVSPropertyOp7
 70
     1
102
RTVSPropertyOp8
 70
     1
102
RTVSPropertyOp9
 70
     1
102
RTVSPropertyOp10
 70
     1
102
RTVSPropertyOp11
 70
     1
102
RTVSPropertyOp12
 70
     1
102
RTVSPropertyOp13
 70
     1
102
RTVSPropertyOp14
 70
     1
102
RTVSPropertyOp15
 70
     1
102
RTVSPropertyOp16
 70
     1
102
RTVSPropertyOp17
 70
     1
102
RTVSPropertyOp18
 70
     1
102
RTVSPropertyOp19
 70
     1
102
RTVSPropertyOp20
 70
     1
102
RTVSPropertyOp21
 70
     1
102
RTVSPropertyOp22
 70
     1
102
RTVSPropertyOp23
 70
     1
102
RTVSPropertyOp24
 70
     1
102
RTVSPropertyOp25
 70
     1
102
RTVSPropertyOp26
 70
     1
102
RTVSPropertyOp27
 70
     1
102
RTVSPropertyOp28
 70
     1
102
RTVSPropertyOp29
 70
     1
102
RTVSPropertyOp30
 70
     1
102
RTVSPropertyOp31
 70
     1
102
RTVSPropertyOp32
 70
     1
102
RTVSPropertyOp33
 70
     1
102
RTVSPropertyOp34
 70
     1
102
RTVSPropertyOp35
 70
     1
102
RTVSPropertyOp36
 70
     1
102
RTVSPropertyOp37
 70
     1
102
RTVSPropertyOp38
 70
     1
102
RTVSPropertyOp39
 70
     1
102
RTVSPropertyOp40
 70
     1
102
RTVSPropertyOp41
 70
     1
102
RTVSPropertyOp42
 70
     1
102
RTVSPropertyOp43
 70
     1
102
RTVSPropertyOp44
 70
     1
102
RTVSPropertyOp45
 70
     1
102
RTVSPropertyOp46
 70
     1
102
RTVSPropertyOp47
 70
     1
102
RTVSPropertyOp48
 70
     1
102
RTVSPropertyOp49
 70
     1
102
RTVSPropertyOp50
 70
     1
102
RTVSPropertyOp51
 70
     0
102
RTVSPropertyOp52
 70
     0
102
RTVSPropertyOp53
 70
     1
102
RTVSPropertyOp54
 70
     1
102
RTVSPropertyOp55
 70
     1
102
RTVSPropertyOp56
 70
     1
102
RTVSPropertyOp57
 70
     1
102
RTVSPropertyOp58
 70
     1
102
RTVSPropertyOp59
 70
     1
102
RTVSPropertyOp60
 70
     1
102
RTVSPropertyOp61
 70
     1
102
RTVSPropertyOp62
 70
     1
  0
XRECORD
  5
14F51
102
{ACAD_REACTORS
330
14F50
102
}
330
14F50
100
AcDbXrecord
280
     1
102
RTVSPost2010Prop28
280
     0
102
RTVSPost2010PropOp28
 70
     0
102
RTVSPost2010Prop29
280
     1
102
RTVSPost2010PropOp29
 70
     0
102
RTVSPost2010Prop30
280
     1
102
RTVSPost2010PropOp30
 70
     0
102
RTVSPost2010Prop31
280
     0
102
RTVSPost2010PropOp31
 70
     0
102
RTVSPost2010Prop32
280
     0
102
RTVSPost2010PropOp32
 70
     0
102
RTVSPost2010Prop33
280
     0
102
RTVSPost2010PropOp33
 70
     0
102
RTVSPost2010Prop34
280
     0
102
RTVSPost2010PropOp34
 70
     0
102
RTVSPost2010Prop35
280
     0
102
RTVSPost2010PropOp35
 70
     0
102
RTVSPost2010Prop36
280
     0
102
RTVSPost2010PropOp36
 70
     0
102
RTVSPost2010Prop37
 90
       50
102
RTVSPost2010PropOp37
 70
     0
102
RTVSPost2010Prop38
140
0.0
102
RTVSPost2010PropOp38
 70
     0
102
RTVSPost2010Prop39
140
1.0
102
RTVSPost2010PropOp39
 70
     0
102
RTVSPost2010Prop40
 90
        0
102
RTVSPost2010PropOp40
 70
     0
102
RTVSPost2010Prop41ColorIndex
 90
       18
102
RTVSPost2010Prop41ColorRGB
 90
        0
102
RTVSPost2010PropOp41
 70
     0
102
RTVSPost2010Prop42
 90
       50
102
RTVSPost2010PropOp42
 70
     0
102
RTVSPost2010Prop43
 90
        3
102
RTVSPost2010PropOp43
 70
     0
102
RTVSPost2010Prop44ColorIndex
 90
        5
102
RTVSPost2010Prop44ColorRGB
 90
      255
102
RTVSPost2010PropOp44
 70
     0
102
RTVSPost2010Prop45
280
     0
102
RTVSPost2010PropOp45
 70
     0
102
RTVSPost2010Prop46
 90
       50
102
RTVSPost2010PropOp46
 70
     0
102
RTVSPost2010Prop47
 90
       50
102
RTVSPost2010PropOp47
 70
     0
102
RTVSPost2010Prop48
 90
       50
102
RTVSPost2010PropOp48
 70
     0
102
RTVSPost2010Prop49
280
     0
102
RTVSPost2010PropOp49
 70
     0
102
RTVSPost2010Prop50
 90
       50
102
RTVSPost2010PropOp50
 70
     0
102
RTVSPost2010Prop51ColorIndex
 90
      256
102
RTVSPost2010Prop51ColorRGB
 90
-16777216
102
RTVSPost2010PropOp51
 70
     0
102
RTVSPost2010Prop52
140
1.0
102
RTVSPost2010PropOp52
 70
     0
102
RTVSPost2010Prop53
 90
        2
102
RTVSPost2010PropOp53
 70
     0
102
RTVSPost2010Prop54
  1
strokes_ogs.tif
102
RTVSPost2010PropOp54
 70
     0
102
RTVSPost2010Prop55
280
     0
102
RTVSPost2010PropOp55
 70
     0
102
RTVSPost2010Prop56
140
1.0
102
RTVSPost2010PropOp56
 70
     0
102
RTVSPost2010Prop57
140
1.0
102
RTVSPost2010PropOp57
 70
     0
102
RTVSPropertyOp0
 70
     0
102
RTVSPropertyOp1
 70
     0
102
RTVSPropertyOp2
 70
     0
102
RTVSPropertyOp3
 70
     0
102
RTVSPropertyOp4
 70
     0
102
RTVSPropertyOp5
 70
     0
102
RTVSPropertyOp6
 70
     0
102
RTVSPropertyOp7
 70
     0
102
RTVSPropertyOp8
 70
     0
102
RTVSPropertyOp9
 70
     0
102
RTVSPropertyOp10
 70
     0
102
RTVSPropertyOp11
 70
     0
102
RTVSPropertyOp12
 70
     0
102
RTVSPropertyOp13
 70
     0
102
RTVSPropertyOp14
 70
     2
102
RTVSPropertyOp15
 70
     0
102
RTVSPropertyOp16
 70
     0
102
RTVSPropertyOp17
 70
     0
102
RTVSPropertyOp18
 70
     0
102
RTVSPropertyOp19
 70
     0
102
RTVSPropertyOp20
 70
     0
102
RTVSPropertyOp21
 70
     0
102
RTVSPropertyOp22
 70
     0
102
RTVSPropertyOp23
 70
     0
102
RTVSPropertyOp24
 70
     0
102
RTVSPropertyOp25
 70
     0
102
RTVSPropertyOp26
 70
     0
102
RTVSPropertyOp27
 70
     0
102
RTVSPropertyOp28
 70
     0
102
RTVSPropertyOp29
 70
     0
102
RTVSPropertyOp30
 70
     0
102
RTVSPropertyOp31
 70
     0
102
RTVSPropertyOp32
 70
     0
102
RTVSPropertyOp33
 70
     0
102
RTVSPropertyOp34
 70
     0
102
RTVSPropertyOp35
 70
     0
102
RTVSPropertyOp36
 70
     0
102
RTVSPropertyOp37
 70
     0
102
RTVSPropertyOp38
 70
     0
102
RTVSPropertyOp39
 70
     0
102
RTVSPropertyOp40
 70
     0
102
RTVSPropertyOp41
 70
     0
102
RTVSPropertyOp42
 70
     0
102
RTVSPropertyOp43
 70
     0
102
RTVSPropertyOp44
 70
     0
102
RTVSPropertyOp45
 70
     0
102
RTVSPropertyOp46
 70
     0
102
RTVSPropertyOp47
 70
     0
102
RTVSPropertyOp48
 70
     0
102
RTVSPropertyOp49
 70
     0
102
RTVSPropertyOp50
 70
     0
102
RTVSPropertyOp51
 70
     0
102
RTVSPropertyOp52
 70
     0
102
RTVSPropertyOp53
 70
     0
102
RTVSPropertyOp54
 70
     0
102
RTVSPropertyOp55
 70
     0
102
RTVSPropertyOp56
 70
     0
102
RTVSPropertyOp57
 70
     0
102
RTVSPropertyOp58
 70
     1
102
RTVSPropertyOp59
 70
     1
102
RTVSPropertyOp60
 70
     1
102
RTVSPropertyOp61
 70
     1
102
RTVSPropertyOp62
 70
     1
  0
XRECORD
  5
14F37
102
{ACAD_REACTORS
330
14F36
102
}
330
14F36
100
AcDbXrecord
280
     1
102
RTVSPost2010Prop28
280
     0
102
RTVSPost2010PropOp28
 70
     1
102
RTVSPost2010Prop29
280
     1
102
RTVSPost2010PropOp29
 70
     1
102
RTVSPost2010Prop30
280
     1
102
RTVSPost2010PropOp30
 70
     1
102
RTVSPost2010Prop31
280
     0
102
RTVSPost2010PropOp31
 70
     1
102
RTVSPost2010Prop32
280
     0
102
RTVSPost2010PropOp32
 70
     1
102
RTVSPost2010Prop33
280
     0
102
RTVSPost2010PropOp33
 70
     1
102
RTVSPost2010Prop34
280
     0
102
RTVSPost2010PropOp34
 70
     1
102
RTVSPost2010Prop35
280
     0
102
RTVSPost2010PropOp35
 70
     1
102
RTVSPost2010Prop36
280
     0
102
RTVSPost2010PropOp36
 70
     1
102
RTVSPost2010Prop37
 90
       50
102
RTVSPost2010PropOp37
 70
     1
102
RTVSPost2010Prop38
140
0.0
102
RTVSPost2010PropOp38
 70
     1
102
RTVSPost2010Prop39
140
1.0
102
RTVSPost2010PropOp39
 70
     1
102
RTVSPost2010Prop40
 90
        0
102
RTVSPost2010PropOp40
 70
     1
102
RTVSPost2010Prop41ColorIndex
 90
       18
102
RTVSPost2010Prop41ColorRGB
 90
        0
102
RTVSPost2010PropOp41
 70
     1
102
RTVSPost2010Prop42
 90
       50
102
RTVSPost2010PropOp42
 70
     1
102
RTVSPost2010Prop43
 90
        3
102
RTVSPost2010PropOp43
 70
     1
102
RTVSPost2010Prop44ColorIndex
 90
        5
102
RTVSPost2010Prop44ColorRGB
 90
      255
102
RTVSPost2010PropOp44
 70
     1
102
RTVSPost2010Prop45
280
     0
102
RTVSPost2010PropOp45
 70
     1
102
RTVSPost2010Prop46
 90
       50
102
RTVSPost2010PropOp46
 70
     1
102
RTVSPost2010Prop47
 90
       50
102
RTVSPost2010PropOp47
 70
     1
102
RTVSPost2010Prop48
 90
       50
102
RTVSPost2010PropOp48
 70
     1
102
RTVSPost2010Prop49
280
     0
102
RTVSPost2010PropOp49
 70
     1
102
RTVSPost2010Prop50
 90
       50
102
RTVSPost2010PropOp50
 70
     1
102
RTVSPost2010Prop51ColorIndex
 90
      256
102
RTVSPost2010Prop51ColorRGB
 90
-16777216
102
RTVSPost2010PropOp51
 70
     0
102
RTVSPost2010Prop52
140
1.0
102
RTVSPost2010PropOp52
 70
     0
102
RTVSPost2010Prop53
 90
        2
102
RTVSPost2010PropOp53
 70
     1
102
RTVSPost2010Prop54
  1
strokes_ogs.tif
102
RTVSPost2010PropOp54
 70
     1
102
RTVSPost2010Prop55
280
     0
102
RTVSPost2010PropOp55
 70
     1
102
RTVSPost2010Prop56
140
1.0
102
RTVSPost2010PropOp56
 70
     1
102
RTVSPost2010Prop57
140
1.0
102
RTVSPost2010PropOp57
 70
     1
102
RTVSPropertyOp0
 70
     1
102
RTVSPropertyOp1
 70
     1
102
RTVSPropertyOp2
 70
     1
102
RTVSPropertyOp3
 70
     1
102
RTVSPropertyOp4
 70
     1
102
RTVSPropertyOp5
 70
     1
102
RTVSPropertyOp6
 70
     1
102
RTVSPropertyOp7
 70
     1
102
RTVSPropertyOp8
 70
     1
102
RTVSPropertyOp9
 70
     1
102
RTVSPropertyOp10
 70
     1
102
RTVSPropertyOp11
 70
     1
102
RTVSPropertyOp12
 70
     1
102
RTVSPropertyOp13
 70
     1
102
RTVSPropertyOp14
 70
     1
102
RTVSPropertyOp15
 70
     1
102
RTVSPropertyOp16
 70
     1
102
RTVSPropertyOp17
 70
     1
102
RTVSPropertyOp18
 70
     1
102
RTVSPropertyOp19
 70
     1
102
RTVSPropertyOp20
 70
     1
102
RTVSPropertyOp21
 70
     1
102
RTVSPropertyOp22
 70
     1
102
RTVSPropertyOp23
 70
     1
102
RTVSPropertyOp24
 70
     1
102
RTVSPropertyOp25
 70
     1
102
RTVSPropertyOp26
 70
     1
102
RTVSPropertyOp27
 70
     1
102
RTVSPropertyOp28
 70
     1
102
RTVSPropertyOp29
 70
     1
102
RTVSPropertyOp30
 70
     1
102
RTVSPropertyOp31
 70
     1
102
RTVSPropertyOp32
 70
     1
102
RTVSPropertyOp33
 70
     1
102
RTVSPropertyOp34
 70
     1
102
RTVSPropertyOp35
 70
     1
102
RTVSPropertyOp36
 70
     1
102
RTVSPropertyOp37
 70
     1
102
RTVSPropertyOp38
 70
     1
102
RTVSPropertyOp39
 70
     1
102
RTVSPropertyOp40
 70
     1
102
RTVSPropertyOp41
 70
     1
102
RTVSPropertyOp42
 70
     1
102
RTVSPropertyOp43
 70
     1
102
RTVSPropertyOp44
 70
     1
102
RTVSPropertyOp45
 70
     1
102
RTVSPropertyOp46
 70
     1
102
RTVSPropertyOp47
 70
     1
102
RTVSPropertyOp48
 70
     1
102
RTVSPropertyOp49
 70
     1
102
RTVSPropertyOp50
 70
     1
102
RTVSPropertyOp51
 70
     0
102
RTVSPropertyOp52
 70
     0
102
RTVSPropertyOp53
 70
     1
102
RTVSPropertyOp54
 70
     1
102
RTVSPropertyOp55
 70
     1
102
RTVSPropertyOp56
 70
     1
102
RTVSPropertyOp57
 70
     1
102
RTVSPropertyOp58
 70
     1
102
RTVSPropertyOp59
 70
     1
102
RTVSPropertyOp60
 70
     1
102
RTVSPropertyOp61
 70
     1
102
RTVSPropertyOp62
 70
     1
  0
XRECORD
  5
14F4D
102
{ACAD_REACTORS
330
14F4C
102
}
330
14F4C
100
AcDbXrecord
280
     1
102
RTVSPost2010Prop28
280
     0
102
RTVSPost2010PropOp28
 70
     1
102
RTVSPost2010Prop29
280
     1
102
RTVSPost2010PropOp29
 70
     1
102
RTVSPost2010Prop30
280
     1
102
RTVSPost2010PropOp30
 70
     1
102
RTVSPost2010Prop31
280
     0
102
RTVSPost2010PropOp31
 70
     1
102
RTVSPost2010Prop32
280
     0
102
RTVSPost2010PropOp32
 70
     1
102
RTVSPost2010Prop33
280
     0
102
RTVSPost2010PropOp33
 70
     1
102
RTVSPost2010Prop34
280
     0
102
RTVSPost2010PropOp34
 70
     1
102
RTVSPost2010Prop35
280
     0
102
RTVSPost2010PropOp35
 70
     1
102
RTVSPost2010Prop36
280
     0
102
RTVSPost2010PropOp36
 70
     1
102
RTVSPost2010Prop37
 90
       50
102
RTVSPost2010PropOp37
 70
     1
102
RTVSPost2010Prop38
140
0.0
102
RTVSPost2010PropOp38
 70
     1
102
RTVSPost2010Prop39
140
1.0
102
RTVSPost2010PropOp39
 70
     1
102
RTVSPost2010Prop40
 90
        0
102
RTVSPost2010PropOp40
 70
     1
102
RTVSPost2010Prop41ColorIndex
 90
       18
102
RTVSPost2010Prop41ColorRGB
 90
        0
102
RTVSPost2010PropOp41
 70
     1
102
RTVSPost2010Prop42
 90
       50
102
RTVSPost2010PropOp42
 70
     1
102
RTVSPost2010Prop43
 90
        3
102
RTVSPost2010PropOp43
 70
     1
102
RTVSPost2010Prop44ColorIndex
 90
        5
102
RTVSPost2010Prop44ColorRGB
 90
      255
102
RTVSPost2010PropOp44
 70
     1
102
RTVSPost2010Prop45
280
     0
102
RTVSPost2010PropOp45
 70
     1
102
RTVSPost2010Prop46
 90
       50
102
RTVSPost2010PropOp46
 70
     1
102
RTVSPost2010Prop47
 90
       50
102
RTVSPost2010PropOp47
 70
     1
102
RTVSPost2010Prop48
 90
       50
102
RTVSPost2010PropOp48
 70
     1
102
RTVSPost2010Prop49
280
     0
102
RTVSPost2010PropOp49
 70
     1
102
RTVSPost2010Prop50
 90
       50
102
RTVSPost2010PropOp50
 70
     1
102
RTVSPost2010Prop51ColorIndex
 90
      256
102
RTVSPost2010Prop51ColorRGB
 90
-16777216
102
RTVSPost2010PropOp51
 70
     0
102
RTVSPost2010Prop52
140
1.0
102
RTVSPost2010PropOp52
 70
     0
102
RTVSPost2010Prop53
 90
        2
102
RTVSPost2010PropOp53
 70
     1
102
RTVSPost2010Prop54
  1
strokes_ogs.tif
102
RTVSPost2010PropOp54
 70
     1
102
RTVSPost2010Prop55
280
     0
102
RTVSPost2010PropOp55
 70
     1
102
RTVSPost2010Prop56
140
1.0
102
RTVSPost2010PropOp56
 70
     1
102
RTVSPost2010Prop57
140
1.0
102
RTVSPost2010PropOp57
 70
     1
102
RTVSPropertyOp0
 70
     1
102
RTVSPropertyOp1
 70
     1
102
RTVSPropertyOp2
 70
     1
102
RTVSPropertyOp3
 70
     1
102
RTVSPropertyOp4
 70
     1
102
RTVSPropertyOp5
 70
     1
102
RTVSPropertyOp6
 70
     1
102
RTVSPropertyOp7
 70
     1
102
RTVSPropertyOp8
 70
     1
102
RTVSPropertyOp9
 70
     1
102
RTVSPropertyOp10
 70
     1
102
RTVSPropertyOp11
 70
     1
102
RTVSPropertyOp12
 70
     1
102
RTVSPropertyOp13
 70
     1
102
RTVSPropertyOp14
 70
     1
102
RTVSPropertyOp15
 70
     1
102
RTVSPropertyOp16
 70
     1
102
RTVSPropertyOp17
 70
     1
102
RTVSPropertyOp18
 70
     1
102
RTVSPropertyOp19
 70
     1
102
RTVSPropertyOp20
 70
     1
102
RTVSPropertyOp21
 70
     1
102
RTVSPropertyOp22
 70
     1
102
RTVSPropertyOp23
 70
     1
102
RTVSPropertyOp24
 70
     1
102
RTVSPropertyOp25
 70
     1
102
RTVSPropertyOp26
 70
     1
102
RTVSPropertyOp27
 70
     1
102
RTVSPropertyOp28
 70
     1
102
RTVSPropertyOp29
 70
     1
102
RTVSPropertyOp30
 70
     1
102
RTVSPropertyOp31
 70
     1
102
RTVSPropertyOp32
 70
     1
102
RTVSPropertyOp33
 70
     1
102
RTVSPropertyOp34
 70
     1
102
RTVSPropertyOp35
 70
     1
102
RTVSPropertyOp36
 70
     1
102
RTVSPropertyOp37
 70
     1
102
RTVSPropertyOp38
 70
     1
102
RTVSPropertyOp39
 70
     1
102
RTVSPropertyOp40
 70
     1
102
RTVSPropertyOp41
 70
     1
102
RTVSPropertyOp42
 70
     1
102
RTVSPropertyOp43
 70
     1
102
RTVSPropertyOp44
 70
     1
102
RTVSPropertyOp45
 70
     1
102
RTVSPropertyOp46
 70
     1
102
RTVSPropertyOp47
 70
     1
102
RTVSPropertyOp48
 70
     1
102
RTVSPropertyOp49
 70
     1
102
RTVSPropertyOp50
 70
     1
102
RTVSPropertyOp51
 70
     0
102
RTVSPropertyOp52
 70
     0
102
RTVSPropertyOp53
 70
     1
102
RTVSPropertyOp54
 70
     1
102
RTVSPropertyOp55
 70
     1
102
RTVSPropertyOp56
 70
     1
102
RTVSPropertyOp57
 70
     1
102
RTVSPropertyOp58
 70
     1
102
RTVSPropertyOp59
 70
     1
102
RTVSPropertyOp60
 70
     1
102
RTVSPropertyOp61
 70
     1
102
RTVSPropertyOp62
 70
     1
  0
XRECORD
  5
14F4B
102
{ACAD_REACTORS
330
14F4A
102
}
330
14F4A
100
AcDbXrecord
280
     1
102
RTVSPost2010Prop28
280
     0
102
RTVSPost2010PropOp28
 70
     1
102
RTVSPost2010Prop29
280
     1
102
RTVSPost2010PropOp29
 70
     1
102
RTVSPost2010Prop30
280
     1
102
RTVSPost2010PropOp30
 70
     1
102
RTVSPost2010Prop31
280
     0
102
RTVSPost2010PropOp31
 70
     1
102
RTVSPost2010Prop32
280
     0
102
RTVSPost2010PropOp32
 70
     1
102
RTVSPost2010Prop33
280
     0
102
RTVSPost2010PropOp33
 70
     1
102
RTVSPost2010Prop34
280
     0
102
RTVSPost2010PropOp34
 70
     1
102
RTVSPost2010Prop35
280
     0
102
RTVSPost2010PropOp35
 70
     1
102
RTVSPost2010Prop36
280
     0
102
RTVSPost2010PropOp36
 70
     1
102
RTVSPost2010Prop37
 90
       50
102
RTVSPost2010PropOp37
 70
     1
102
RTVSPost2010Prop38
140
0.0
102
RTVSPost2010PropOp38
 70
     1
102
RTVSPost2010Prop39
140
1.0
102
RTVSPost2010PropOp39
 70
     1
102
RTVSPost2010Prop40
 90
        0
102
RTVSPost2010PropOp40
 70
     1
102
RTVSPost2010Prop41ColorIndex
 90
       18
102
RTVSPost2010Prop41ColorRGB
 90
        0
102
RTVSPost2010PropOp41
 70
     1
102
RTVSPost2010Prop42
 90
       50
102
RTVSPost2010PropOp42
 70
     1
102
RTVSPost2010Prop43
 90
        3
102
RTVSPost2010PropOp43
 70
     1
102
RTVSPost2010Prop44ColorIndex
 90
        5
102
RTVSPost2010Prop44ColorRGB
 90
      255
102
RTVSPost2010PropOp44
 70
     1
102
RTVSPost2010Prop45
280
     0
102
RTVSPost2010PropOp45
 70
     1
102
RTVSPost2010Prop46
 90
       50
102
RTVSPost2010PropOp46
 70
     1
102
RTVSPost2010Prop47
 90
       50
102
RTVSPost2010PropOp47
 70
     1
102
RTVSPost2010Prop48
 90
       50
102
RTVSPost2010PropOp48
 70
     1
102
RTVSPost2010Prop49
280
     0
102
RTVSPost2010PropOp49
 70
     1
102
RTVSPost2010Prop50
 90
       50
102
RTVSPost2010PropOp50
 70
     1
102
RTVSPost2010Prop51ColorIndex
 90
      256
102
RTVSPost2010Prop51ColorRGB
 90
-16777216
102
RTVSPost2010PropOp51
 70
     0
102
RTVSPost2010Prop52
140
1.0
102
RTVSPost2010PropOp52
 70
     0
102
RTVSPost2010Prop53
 90
        2
102
RTVSPost2010PropOp53
 70
     1
102
RTVSPost2010Prop54
  1
strokes_ogs.tif
102
RTVSPost2010PropOp54
 70
     1
102
RTVSPost2010Prop55
280
     0
102
RTVSPost2010PropOp55
 70
     1
102
RTVSPost2010Prop56
140
1.0
102
RTVSPost2010PropOp56
 70
     1
102
RTVSPost2010Prop57
140
1.0
102
RTVSPost2010PropOp57
 70
     1
102
RTVSPropertyOp0
 70
     1
102
RTVSPropertyOp1
 70
     1
102
RTVSPropertyOp2
 70
     1
102
RTVSPropertyOp3
 70
     1
102
RTVSPropertyOp4
 70
     1
102
RTVSPropertyOp5
 70
     1
102
RTVSPropertyOp6
 70
     1
102
RTVSPropertyOp7
 70
     1
102
RTVSPropertyOp8
 70
     1
102
RTVSPropertyOp9
 70
     1
102
RTVSPropertyOp10
 70
     1
102
RTVSPropertyOp11
 70
     1
102
RTVSPropertyOp12
 70
     1
102
RTVSPropertyOp13
 70
     1
102
RTVSPropertyOp14
 70
     1
102
RTVSPropertyOp15
 70
     1
102
RTVSPropertyOp16
 70
     1
102
RTVSPropertyOp17
 70
     1
102
RTVSPropertyOp18
 70
     1
102
RTVSPropertyOp19
 70
     1
102
RTVSPropertyOp20
 70
     1
102
RTVSPropertyOp21
 70
     1
102
RTVSPropertyOp22
 70
     1
102
RTVSPropertyOp23
 70
     1
102
RTVSPropertyOp24
 70
     1
102
RTVSPropertyOp25
 70
     1
102
RTVSPropertyOp26
 70
     1
102
RTVSPropertyOp27
 70
     1
102
RTVSPropertyOp28
 70
     1
102
RTVSPropertyOp29
 70
     1
102
RTVSPropertyOp30
 70
     1
102
RTVSPropertyOp31
 70
     1
102
RTVSPropertyOp32
 70
     1
102
RTVSPropertyOp33
 70
     1
102
RTVSPropertyOp34
 70
     1
102
RTVSPropertyOp35
 70
     1
102
RTVSPropertyOp36
 70
     1
102
RTVSPropertyOp37
 70
     1
102
RTVSPropertyOp38
 70
     1
102
RTVSPropertyOp39
 70
     1
102
RTVSPropertyOp40
 70
     1
102
RTVSPropertyOp41
 70
     1
102
RTVSPropertyOp42
 70
     1
102
RTVSPropertyOp43
 70
     1
102
RTVSPropertyOp44
 70
     1
102
RTVSPropertyOp45
 70
     1
102
RTVSPropertyOp46
 70
     1
102
RTVSPropertyOp47
 70
     1
102
RTVSPropertyOp48
 70
     1
102
RTVSPropertyOp49
 70
     1
102
RTVSPropertyOp50
 70
     1
102
RTVSPropertyOp51
 70
     0
102
RTVSPropertyOp52
 70
     0
102
RTVSPropertyOp53
 70
     1
102
RTVSPropertyOp54
 70
     1
102
RTVSPropertyOp55
 70
     1
102
RTVSPropertyOp56
 70
     1
102
RTVSPropertyOp57
 70
     1
102
RTVSPropertyOp58
 70
     1
102
RTVSPropertyOp59
 70
     1
102
RTVSPropertyOp60
 70
     1
102
RTVSPropertyOp61
 70
     1
102
RTVSPropertyOp62
 70
     1
  0
XRECORD
  5
14F45
102
{ACAD_REACTORS
330
14F44
102
}
330
14F44
100
AcDbXrecord
280
     1
102
RTVSPost2010Prop28
280
     0
102
RTVSPost2010PropOp28
 70
     1
102
RTVSPost2010Prop29
280
     1
102
RTVSPost2010PropOp29
 70
     1
102
RTVSPost2010Prop30
280
     1
102
RTVSPost2010PropOp30
 70
     1
102
RTVSPost2010Prop31
280
     0
102
RTVSPost2010PropOp31
 70
     1
102
RTVSPost2010Prop32
280
     0
102
RTVSPost2010PropOp32
 70
     1
102
RTVSPost2010Prop33
280
     0
102
RTVSPost2010PropOp33
 70
     1
102
RTVSPost2010Prop34
280
     0
102
RTVSPost2010PropOp34
 70
     1
102
RTVSPost2010Prop35
280
     0
102
RTVSPost2010PropOp35
 70
     1
102
RTVSPost2010Prop36
280
     0
102
RTVSPost2010PropOp36
 70
     1
102
RTVSPost2010Prop37
 90
       50
102
RTVSPost2010PropOp37
 70
     1
102
RTVSPost2010Prop38
140
0.0
102
RTVSPost2010PropOp38
 70
     1
102
RTVSPost2010Prop39
140
1.0
102
RTVSPost2010PropOp39
 70
     1
102
RTVSPost2010Prop40
 90
        0
102
RTVSPost2010PropOp40
 70
     1
102
RTVSPost2010Prop41ColorIndex
 90
       18
102
RTVSPost2010Prop41ColorRGB
 90
        0
102
RTVSPost2010PropOp41
 70
     1
102
RTVSPost2010Prop42
 90
       50
102
RTVSPost2010PropOp42
 70
     1
102
RTVSPost2010Prop43
 90
        3
102
RTVSPost2010PropOp43
 70
     1
102
RTVSPost2010Prop44ColorIndex
 90
        5
102
RTVSPost2010Prop44ColorRGB
 90
      255
102
RTVSPost2010PropOp44
 70
     1
102
RTVSPost2010Prop45
280
     0
102
RTVSPost2010PropOp45
 70
     1
102
RTVSPost2010Prop46
 90
       50
102
RTVSPost2010PropOp46
 70
     1
102
RTVSPost2010Prop47
 90
       50
102
RTVSPost2010PropOp47
 70
     1
102
RTVSPost2010Prop48
 90
       50
102
RTVSPost2010PropOp48
 70
     1
102
RTVSPost2010Prop49
280
     0
102
RTVSPost2010PropOp49
 70
     1
102
RTVSPost2010Prop50
 90
       50
102
RTVSPost2010PropOp50
 70
     1
102
RTVSPost2010Prop51ColorIndex
 90
      256
102
RTVSPost2010Prop51ColorRGB
 90
-16777216
102
RTVSPost2010PropOp51
 70
     0
102
RTVSPost2010Prop52
140
1.0
102
RTVSPost2010PropOp52
 70
     0
102
RTVSPost2010Prop53
 90
        2
102
RTVSPost2010PropOp53
 70
     1
102
RTVSPost2010Prop54
  1
strokes_ogs.tif
102
RTVSPost2010PropOp54
 70
     1
102
RTVSPost2010Prop55
280
     0
102
RTVSPost2010PropOp55
 70
     1
102
RTVSPost2010Prop56
140
1.0
102
RTVSPost2010PropOp56
 70
     1
102
RTVSPost2010Prop57
140
1.0
102
RTVSPost2010PropOp57
 70
     1
102
RTVSPropertyOp0
 70
     1
102
RTVSPropertyOp1
 70
     1
102
RTVSPropertyOp2
 70
     1
102
RTVSPropertyOp3
 70
     1
102
RTVSPropertyOp4
 70
     1
102
RTVSPropertyOp5
 70
     1
102
RTVSPropertyOp6
 70
     1
102
RTVSPropertyOp7
 70
     1
102
RTVSPropertyOp8
 70
     1
102
RTVSPropertyOp9
 70
     1
102
RTVSPropertyOp10
 70
     1
102
RTVSPropertyOp11
 70
     1
102
RTVSPropertyOp12
 70
     1
102
RTVSPropertyOp13
 70
     1
102
RTVSPropertyOp14
 70
     1
102
RTVSPropertyOp15
 70
     1
102
RTVSPropertyOp16
 70
     1
102
RTVSPropertyOp17
 70
     1
102
RTVSPropertyOp18
 70
     1
102
RTVSPropertyOp19
 70
     1
102
RTVSPropertyOp20
 70
     1
102
RTVSPropertyOp21
 70
     1
102
RTVSPropertyOp22
 70
     1
102
RTVSPropertyOp23
 70
     1
102
RTVSPropertyOp24
 70
     1
102
RTVSPropertyOp25
 70
     1
102
RTVSPropertyOp26
 70
     1
102
RTVSPropertyOp27
 70
     1
102
RTVSPropertyOp28
 70
     1
102
RTVSPropertyOp29
 70
     1
102
RTVSPropertyOp30
 70
     1
102
RTVSPropertyOp31
 70
     1
102
RTVSPropertyOp32
 70
     1
102
RTVSPropertyOp33
 70
     1
102
RTVSPropertyOp34
 70
     1
102
RTVSPropertyOp35
 70
     1
102
RTVSPropertyOp36
 70
     1
102
RTVSPropertyOp37
 70
     1
102
RTVSPropertyOp38
 70
     1
102
RTVSPropertyOp39
 70
     1
102
RTVSPropertyOp40
 70
     1
102
RTVSPropertyOp41
 70
     1
102
RTVSPropertyOp42
 70
     1
102
RTVSPropertyOp43
 70
     1
102
RTVSPropertyOp44
 70
     1
102
RTVSPropertyOp45
 70
     1
102
RTVSPropertyOp46
 70
     1
102
RTVSPropertyOp47
 70
     1
102
RTVSPropertyOp48
 70
     1
102
RTVSPropertyOp49
 70
     1
102
RTVSPropertyOp50
 70
     1
102
RTVSPropertyOp51
 70
     0
102
RTVSPropertyOp52
 70
     0
102
RTVSPropertyOp53
 70
     1
102
RTVSPropertyOp54
 70
     1
102
RTVSPropertyOp55
 70
     1
102
RTVSPropertyOp56
 70
     1
102
RTVSPropertyOp57
 70
     1
102
RTVSPropertyOp58
 70
     1
102
RTVSPropertyOp59
 70
     1
102
RTVSPropertyOp60
 70
     1
102
RTVSPropertyOp61
 70
     1
102
RTVSPropertyOp62
 70
     1
  0
XRECORD
  5
14F47
102
{ACAD_REACTORS
330
14F46
102
}
330
14F46
100
AcDbXrecord
280
     1
102
RTVSPost2010Prop28
280
     0
102
RTVSPost2010PropOp28
 70
     1
102
RTVSPost2010Prop29
280
     1
102
RTVSPost2010PropOp29
 70
     1
102
RTVSPost2010Prop30
280
     1
102
RTVSPost2010PropOp30
 70
     1
102
RTVSPost2010Prop31
280
     0
102
RTVSPost2010PropOp31
 70
     1
102
RTVSPost2010Prop32
280
     0
102
RTVSPost2010PropOp32
 70
     1
102
RTVSPost2010Prop33
280
     0
102
RTVSPost2010PropOp33
 70
     1
102
RTVSPost2010Prop34
280
     0
102
RTVSPost2010PropOp34
 70
     1
102
RTVSPost2010Prop35
280
     0
102
RTVSPost2010PropOp35
 70
     1
102
RTVSPost2010Prop36
280
     0
102
RTVSPost2010PropOp36
 70
     1
102
RTVSPost2010Prop37
 90
       50
102
RTVSPost2010PropOp37
 70
     1
102
RTVSPost2010Prop38
140
0.0
102
RTVSPost2010PropOp38
 70
     1
102
RTVSPost2010Prop39
140
1.0
102
RTVSPost2010PropOp39
 70
     1
102
RTVSPost2010Prop40
 90
        0
102
RTVSPost2010PropOp40
 70
     1
102
RTVSPost2010Prop41ColorIndex
 90
       18
102
RTVSPost2010Prop41ColorRGB
 90
        0
102
RTVSPost2010PropOp41
 70
     1
102
RTVSPost2010Prop42
 90
       50
102
RTVSPost2010PropOp42
 70
     1
102
RTVSPost2010Prop43
 90
        3
102
RTVSPost2010PropOp43
 70
     1
102
RTVSPost2010Prop44ColorIndex
 90
        5
102
RTVSPost2010Prop44ColorRGB
 90
      255
102
RTVSPost2010PropOp44
 70
     1
102
RTVSPost2010Prop45
280
     0
102
RTVSPost2010PropOp45
 70
     1
102
RTVSPost2010Prop46
 90
       50
102
RTVSPost2010PropOp46
 70
     1
102
RTVSPost2010Prop47
 90
       50
102
RTVSPost2010PropOp47
 70
     1
102
RTVSPost2010Prop48
 90
       50
102
RTVSPost2010PropOp48
 70
     1
102
RTVSPost2010Prop49
280
     0
102
RTVSPost2010PropOp49
 70
     1
102
RTVSPost2010Prop50
 90
       50
102
RTVSPost2010PropOp50
 70
     1
102
RTVSPost2010Prop51ColorIndex
 90
      256
102
RTVSPost2010Prop51ColorRGB
 90
-16777216
102
RTVSPost2010PropOp51
 70
     0
102
RTVSPost2010Prop52
140
1.0
102
RTVSPost2010PropOp52
 70
     0
102
RTVSPost2010Prop53
 90
        2
102
RTVSPost2010PropOp53
 70
     1
102
RTVSPost2010Prop54
  1
strokes_ogs.tif
102
RTVSPost2010PropOp54
 70
     1
102
RTVSPost2010Prop55
280
     0
102
RTVSPost2010PropOp55
 70
     1
102
RTVSPost2010Prop56
140
1.0
102
RTVSPost2010PropOp56
 70
     1
102
RTVSPost2010Prop57
140
1.0
102
RTVSPost2010PropOp57
 70
     1
102
RTVSPropertyOp0
 70
     1
102
RTVSPropertyOp1
 70
     1
102
RTVSPropertyOp2
 70
     1
102
RTVSPropertyOp3
 70
     1
102
RTVSPropertyOp4
 70
     1
102
RTVSPropertyOp5
 70
     1
102
RTVSPropertyOp6
 70
     1
102
RTVSPropertyOp7
 70
     1
102
RTVSPropertyOp8
 70
     1
102
RTVSPropertyOp9
 70
     1
102
RTVSPropertyOp10
 70
     1
102
RTVSPropertyOp11
 70
     1
102
RTVSPropertyOp12
 70
     1
102
RTVSPropertyOp13
 70
     1
102
RTVSPropertyOp14
 70
     1
102
RTVSPropertyOp15
 70
     1
102
RTVSPropertyOp16
 70
     1
102
RTVSPropertyOp17
 70
     1
102
RTVSPropertyOp18
 70
     1
102
RTVSPropertyOp19
 70
     1
102
RTVSPropertyOp20
 70
     1
102
RTVSPropertyOp21
 70
     1
102
RTVSPropertyOp22
 70
     1
102
RTVSPropertyOp23
 70
     1
102
RTVSPropertyOp24
 70
     1
102
RTVSPropertyOp25
 70
     1
102
RTVSPropertyOp26
 70
     1
102
RTVSPropertyOp27
 70
     1
102
RTVSPropertyOp28
 70
     1
102
RTVSPropertyOp29
 70
     1
102
RTVSPropertyOp30
 70
     1
102
RTVSPropertyOp31
 70
     1
102
RTVSPropertyOp32
 70
     1
102
RTVSPropertyOp33
 70
     1
102
RTVSPropertyOp34
 70
     1
102
RTVSPropertyOp35
 70
     1
102
RTVSPropertyOp36
 70
     1
102
RTVSPropertyOp37
 70
     1
102
RTVSPropertyOp38
 70
     1
102
RTVSPropertyOp39
 70
     1
102
RTVSPropertyOp40
 70
     1
102
RTVSPropertyOp41
 70
     1
102
RTVSPropertyOp42
 70
     1
102
RTVSPropertyOp43
 70
     1
102
RTVSPropertyOp44
 70
     1
102
RTVSPropertyOp45
 70
     1
102
RTVSPropertyOp46
 70
     1
102
RTVSPropertyOp47
 70
     1
102
RTVSPropertyOp48
 70
     1
102
RTVSPropertyOp49
 70
     1
102
RTVSPropertyOp50
 70
     1
102
RTVSPropertyOp51
 70
     0
102
RTVSPropertyOp52
 70
     0
102
RTVSPropertyOp53
 70
     1
102
RTVSPropertyOp54
 70
     1
102
RTVSPropertyOp55
 70
     1
102
RTVSPropertyOp56
 70
     1
102
RTVSPropertyOp57
 70
     1
102
RTVSPropertyOp58
 70
     1
102
RTVSPropertyOp59
 70
     1
102
RTVSPropertyOp60
 70
     1
102
RTVSPropertyOp61
 70
     1
102
RTVSPropertyOp62
 70
     1
  0
XRECORD
  5
14F3D
102
{ACAD_REACTORS
330
14F3C
102
}
330
14F3C
100
AcDbXrecord
280
     1
102
RTVSPost2010Prop28
280
     0
102
RTVSPost2010PropOp28
 70
     1
102
RTVSPost2010Prop29
280
     1
102
RTVSPost2010PropOp29
 70
     1
102
RTVSPost2010Prop30
280
     1
102
RTVSPost2010PropOp30
 70
     1
102
RTVSPost2010Prop31
280
     0
102
RTVSPost2010PropOp31
 70
     1
102
RTVSPost2010Prop32
280
     0
102
RTVSPost2010PropOp32
 70
     1
102
RTVSPost2010Prop33
280
     0
102
RTVSPost2010PropOp33
 70
     1
102
RTVSPost2010Prop34
280
     0
102
RTVSPost2010PropOp34
 70
     1
102
RTVSPost2010Prop35
280
     0
102
RTVSPost2010PropOp35
 70
     1
102
RTVSPost2010Prop36
280
     0
102
RTVSPost2010PropOp36
 70
     1
102
RTVSPost2010Prop37
 90
       50
102
RTVSPost2010PropOp37
 70
     1
102
RTVSPost2010Prop38
140
0.0
102
RTVSPost2010PropOp38
 70
     1
102
RTVSPost2010Prop39
140
1.0
102
RTVSPost2010PropOp39
 70
     1
102
RTVSPost2010Prop40
 90
        0
102
RTVSPost2010PropOp40
 70
     1
102
RTVSPost2010Prop41ColorIndex
 90
       18
102
RTVSPost2010Prop41ColorRGB
 90
        0
102
RTVSPost2010PropOp41
 70
     1
102
RTVSPost2010Prop42
 90
       50
102
RTVSPost2010PropOp42
 70
     1
102
RTVSPost2010Prop43
 90
        3
102
RTVSPost2010PropOp43
 70
     1
102
RTVSPost2010Prop44ColorIndex
 90
        5
102
RTVSPost2010Prop44ColorRGB
 90
      255
102
RTVSPost2010PropOp44
 70
     1
102
RTVSPost2010Prop45
280
     0
102
RTVSPost2010PropOp45
 70
     1
102
RTVSPost2010Prop46
 90
       50
102
RTVSPost2010PropOp46
 70
     1
102
RTVSPost2010Prop47
 90
       50
102
RTVSPost2010PropOp47
 70
     1
102
RTVSPost2010Prop48
 90
       50
102
RTVSPost2010PropOp48
 70
     1
102
RTVSPost2010Prop49
280
     0
102
RTVSPost2010PropOp49
 70
     1
102
RTVSPost2010Prop50
 90
       50
102
RTVSPost2010PropOp50
 70
     1
102
RTVSPost2010Prop51ColorIndex
 90
      256
102
RTVSPost2010Prop51ColorRGB
 90
-16777216
102
RTVSPost2010PropOp51
 70
     0
102
RTVSPost2010Prop52
140
1.0
102
RTVSPost2010PropOp52
 70
     0
102
RTVSPost2010Prop53
 90
        2
102
RTVSPost2010PropOp53
 70
     1
102
RTVSPost2010Prop54
  1
strokes_ogs.tif
102
RTVSPost2010PropOp54
 70
     1
102
RTVSPost2010Prop55
280
     0
102
RTVSPost2010PropOp55
 70
     1
102
RTVSPost2010Prop56
140
1.0
102
RTVSPost2010PropOp56
 70
     1
102
RTVSPost2010Prop57
140
1.0
102
RTVSPost2010PropOp57
 70
     1
102
RTVSPropertyOp0
 70
     1
102
RTVSPropertyOp1
 70
     1
102
RTVSPropertyOp2
 70
     1
102
RTVSPropertyOp3
 70
     1
102
RTVSPropertyOp4
 70
     1
102
RTVSPropertyOp5
 70
     1
102
RTVSPropertyOp6
 70
     1
102
RTVSPropertyOp7
 70
     1
102
RTVSPropertyOp8
 70
     1
102
RTVSPropertyOp9
 70
     1
102
RTVSPropertyOp10
 70
     1
102
RTVSPropertyOp11
 70
     1
102
RTVSPropertyOp12
 70
     1
102
RTVSPropertyOp13
 70
     1
102
RTVSPropertyOp14
 70
     1
102
RTVSPropertyOp15
 70
     1
102
RTVSPropertyOp16
 70
     1
102
RTVSPropertyOp17
 70
     1
102
RTVSPropertyOp18
 70
     1
102
RTVSPropertyOp19
 70
     1
102
RTVSPropertyOp20
 70
     1
102
RTVSPropertyOp21
 70
     1
102
RTVSPropertyOp22
 70
     1
102
RTVSPropertyOp23
 70
     1
102
RTVSPropertyOp24
 70
     1
102
RTVSPropertyOp25
 70
     1
102
RTVSPropertyOp26
 70
     1
102
RTVSPropertyOp27
 70
     1
102
RTVSPropertyOp28
 70
     1
102
RTVSPropertyOp29
 70
     1
102
RTVSPropertyOp30
 70
     1
102
RTVSPropertyOp31
 70
     1
102
RTVSPropertyOp32
 70
     1
102
RTVSPropertyOp33
 70
     1
102
RTVSPropertyOp34
 70
     1
102
RTVSPropertyOp35
 70
     1
102
RTVSPropertyOp36
 70
     1
102
RTVSPropertyOp37
 70
     1
102
RTVSPropertyOp38
 70
     1
102
RTVSPropertyOp39
 70
     1
102
RTVSPropertyOp40
 70
     1
102
RTVSPropertyOp41
 70
     1
102
RTVSPropertyOp42
 70
     1
102
RTVSPropertyOp43
 70
     1
102
RTVSPropertyOp44
 70
     1
102
RTVSPropertyOp45
 70
     1
102
RTVSPropertyOp46
 70
     1
102
RTVSPropertyOp47
 70
     1
102
RTVSPropertyOp48
 70
     1
102
RTVSPropertyOp49
 70
     1
102
RTVSPropertyOp50
 70
     1
102
RTVSPropertyOp51
 70
     0
102
RTVSPropertyOp52
 70
     0
102
RTVSPropertyOp53
 70
     1
102
RTVSPropertyOp54
 70
     1
102
RTVSPropertyOp55
 70
     1
102
RTVSPropertyOp56
 70
     1
102
RTVSPropertyOp57
 70
     1
102
RTVSPropertyOp58
 70
     1
102
RTVSPropertyOp59
 70
     1
102
RTVSPropertyOp60
 70
     1
102
RTVSPropertyOp61
 70
     1
102
RTVSPropertyOp62
 70
     1
  0
XRECORD
  5
14F31
102
{ACAD_REACTORS
330
14F30
102
}
330
14F30
100
AcDbXrecord
280
     1
102
RTVSPost2010Prop28
280
     0
102
RTVSPost2010PropOp28
 70
     1
102
RTVSPost2010Prop29
280
     1
102
RTVSPost2010PropOp29
 70
     1
102
RTVSPost2010Prop30
280
     1
102
RTVSPost2010PropOp30
 70
     1
102
RTVSPost2010Prop31
280
     0
102
RTVSPost2010PropOp31
 70
     1
102
RTVSPost2010Prop32
280
     0
102
RTVSPost2010PropOp32
 70
     1
102
RTVSPost2010Prop33
280
     0
102
RTVSPost2010PropOp33
 70
     1
102
RTVSPost2010Prop34
280
     0
102
RTVSPost2010PropOp34
 70
     1
102
RTVSPost2010Prop35
280
     0
102
RTVSPost2010PropOp35
 70
     1
102
RTVSPost2010Prop36
280
     0
102
RTVSPost2010PropOp36
 70
     1
102
RTVSPost2010Prop37
 90
       50
102
RTVSPost2010PropOp37
 70
     1
102
RTVSPost2010Prop38
140
0.0
102
RTVSPost2010PropOp38
 70
     1
102
RTVSPost2010Prop39
140
1.0
102
RTVSPost2010PropOp39
 70
     1
102
RTVSPost2010Prop40
 90
        0
102
RTVSPost2010PropOp40
 70
     1
102
RTVSPost2010Prop41ColorIndex
 90
       18
102
RTVSPost2010Prop41ColorRGB
 90
        0
102
RTVSPost2010PropOp41
 70
     1
102
RTVSPost2010Prop42
 90
       50
102
RTVSPost2010PropOp42
 70
     1
102
RTVSPost2010Prop43
 90
        3
102
RTVSPost2010PropOp43
 70
     1
102
RTVSPost2010Prop44ColorIndex
 90
        5
102
RTVSPost2010Prop44ColorRGB
 90
      255
102
RTVSPost2010PropOp44
 70
     1
102
RTVSPost2010Prop45
280
     0
102
RTVSPost2010PropOp45
 70
     1
102
RTVSPost2010Prop46
 90
       50
102
RTVSPost2010PropOp46
 70
     1
102
RTVSPost2010Prop47
 90
       50
102
RTVSPost2010PropOp47
 70
     1
102
RTVSPost2010Prop48
 90
       50
102
RTVSPost2010PropOp48
 70
     1
102
RTVSPost2010Prop49
280
     0
102
RTVSPost2010PropOp49
 70
     1
102
RTVSPost2010Prop50
 90
       50
102
RTVSPost2010PropOp50
 70
     1
102
RTVSPost2010Prop51ColorIndex
 90
      256
102
RTVSPost2010Prop51ColorRGB
 90
-16777216
102
RTVSPost2010PropOp51
 70
     0
102
RTVSPost2010Prop52
140
1.0
102
RTVSPost2010PropOp52
 70
     0
102
RTVSPost2010Prop53
 90
        2
102
RTVSPost2010PropOp53
 70
     1
102
RTVSPost2010Prop54
  1
strokes_ogs.tif
102
RTVSPost2010PropOp54
 70
     1
102
RTVSPost2010Prop55
280
     0
102
RTVSPost2010PropOp55
 70
     1
102
RTVSPost2010Prop56
140
1.0
102
RTVSPost2010PropOp56
 70
     1
102
RTVSPost2010Prop57
140
1.0
102
RTVSPost2010PropOp57
 70
     1
102
RTVSPropertyOp0
 70
     1
102
RTVSPropertyOp1
 70
     1
102
RTVSPropertyOp2
 70
     1
102
RTVSPropertyOp3
 70
     1
102
RTVSPropertyOp4
 70
     1
102
RTVSPropertyOp5
 70
     1
102
RTVSPropertyOp6
 70
     1
102
RTVSPropertyOp7
 70
     1
102
RTVSPropertyOp8
 70
     1
102
RTVSPropertyOp9
 70
     1
102
RTVSPropertyOp10
 70
     1
102
RTVSPropertyOp11
 70
     1
102
RTVSPropertyOp12
 70
     1
102
RTVSPropertyOp13
 70
     1
102
RTVSPropertyOp14
 70
     1
102
RTVSPropertyOp15
 70
     1
102
RTVSPropertyOp16
 70
     1
102
RTVSPropertyOp17
 70
     1
102
RTVSPropertyOp18
 70
     1
102
RTVSPropertyOp19
 70
     1
102
RTVSPropertyOp20
 70
     1
102
RTVSPropertyOp21
 70
     1
102
RTVSPropertyOp22
 70
     1
102
RTVSPropertyOp23
 70
     1
102
RTVSPropertyOp24
 70
     1
102
RTVSPropertyOp25
 70
     1
102
RTVSPropertyOp26
 70
     1
102
RTVSPropertyOp27
 70
     1
102
RTVSPropertyOp28
 70
     1
102
RTVSPropertyOp29
 70
     1
102
RTVSPropertyOp30
 70
     1
102
RTVSPropertyOp31
 70
     1
102
RTVSPropertyOp32
 70
     1
102
RTVSPropertyOp33
 70
     1
102
RTVSPropertyOp34
 70
     1
102
RTVSPropertyOp35
 70
     1
102
RTVSPropertyOp36
 70
     1
102
RTVSPropertyOp37
 70
     1
102
RTVSPropertyOp38
 70
     1
102
RTVSPropertyOp39
 70
     1
102
RTVSPropertyOp40
 70
     1
102
RTVSPropertyOp41
 70
     1
102
RTVSPropertyOp42
 70
     1
102
RTVSPropertyOp43
 70
     1
102
RTVSPropertyOp44
 70
     1
102
RTVSPropertyOp45
 70
     1
102
RTVSPropertyOp46
 70
     1
102
RTVSPropertyOp47
 70
     1
102
RTVSPropertyOp48
 70
     1
102
RTVSPropertyOp49
 70
     1
102
RTVSPropertyOp50
 70
     1
102
RTVSPropertyOp51
 70
     0
102
RTVSPropertyOp52
 70
     0
102
RTVSPropertyOp53
 70
     1
102
RTVSPropertyOp54
 70
     1
102
RTVSPropertyOp55
 70
     1
102
RTVSPropertyOp56
 70
     1
102
RTVSPropertyOp57
 70
     1
102
RTVSPropertyOp58
 70
     1
102
RTVSPropertyOp59
 70
     1
102
RTVSPropertyOp60
 70
     1
102
RTVSPropertyOp61
 70
     1
102
RTVSPropertyOp62
 70
     1
  0
XRECORD
  5
14F49
102
{ACAD_REACTORS
330
14F48
102
}
330
14F48
100
AcDbXrecord
280
     1
102
RTVSPost2010Prop28
280
     0
102
RTVSPost2010PropOp28
 70
     1
102
RTVSPost2010Prop29
280
     1
102
RTVSPost2010PropOp29
 70
     1
102
RTVSPost2010Prop30
280
     1
102
RTVSPost2010PropOp30
 70
     1
102
RTVSPost2010Prop31
280
     0
102
RTVSPost2010PropOp31
 70
     1
102
RTVSPost2010Prop32
280
     0
102
RTVSPost2010PropOp32
 70
     1
102
RTVSPost2010Prop33
280
     0
102
RTVSPost2010PropOp33
 70
     1
102
RTVSPost2010Prop34
280
     0
102
RTVSPost2010PropOp34
 70
     1
102
RTVSPost2010Prop35
280
     0
102
RTVSPost2010PropOp35
 70
     1
102
RTVSPost2010Prop36
280
     0
102
RTVSPost2010PropOp36
 70
     1
102
RTVSPost2010Prop37
 90
       50
102
RTVSPost2010PropOp37
 70
     1
102
RTVSPost2010Prop38
140
0.0
102
RTVSPost2010PropOp38
 70
     1
102
RTVSPost2010Prop39
140
1.0
102
RTVSPost2010PropOp39
 70
     1
102
RTVSPost2010Prop40
 90
        0
102
RTVSPost2010PropOp40
 70
     1
102
RTVSPost2010Prop41ColorIndex
 90
       18
102
RTVSPost2010Prop41ColorRGB
 90
        0
102
RTVSPost2010PropOp41
 70
     1
102
RTVSPost2010Prop42
 90
       50
102
RTVSPost2010PropOp42
 70
     1
102
RTVSPost2010Prop43
 90
        3
102
RTVSPost2010PropOp43
 70
     1
102
RTVSPost2010Prop44ColorIndex
 90
        5
102
RTVSPost2010Prop44ColorRGB
 90
      255
102
RTVSPost2010PropOp44
 70
     1
102
RTVSPost2010Prop45
280
     0
102
RTVSPost2010PropOp45
 70
     1
102
RTVSPost2010Prop46
 90
       50
102
RTVSPost2010PropOp46
 70
     1
102
RTVSPost2010Prop47
 90
       50
102
RTVSPost2010PropOp47
 70
     1
102
RTVSPost2010Prop48
 90
       50
102
RTVSPost2010PropOp48
 70
     1
102
RTVSPost2010Prop49
280
     0
102
RTVSPost2010PropOp49
 70
     1
102
RTVSPost2010Prop50
 90
       50
102
RTVSPost2010PropOp50
 70
     1
102
RTVSPost2010Prop51ColorIndex
 90
      256
102
RTVSPost2010Prop51ColorRGB
 90
-16777216
102
RTVSPost2010PropOp51
 70
     0
102
RTVSPost2010Prop52
140
1.0
102
RTVSPost2010PropOp52
 70
     0
102
RTVSPost2010Prop53
 90
        2
102
RTVSPost2010PropOp53
 70
     1
102
RTVSPost2010Prop54
  1
strokes_ogs.tif
102
RTVSPost2010PropOp54
 70
     1
102
RTVSPost2010Prop55
280
     0
102
RTVSPost2010PropOp55
 70
     1
102
RTVSPost2010Prop56
140
1.0
102
RTVSPost2010PropOp56
 70
     1
102
RTVSPost2010Prop57
140
1.0
102
RTVSPost2010PropOp57
 70
     1
102
RTVSPropertyOp0
 70
     1
102
RTVSPropertyOp1
 70
     1
102
RTVSPropertyOp2
 70
     1
102
RTVSPropertyOp3
 70
     1
102
RTVSPropertyOp4
 70
     1
102
RTVSPropertyOp5
 70
     1
102
RTVSPropertyOp6
 70
     1
102
RTVSPropertyOp7
 70
     1
102
RTVSPropertyOp8
 70
     1
102
RTVSPropertyOp9
 70
     1
102
RTVSPropertyOp10
 70
     1
102
RTVSPropertyOp11
 70
     1
102
RTVSPropertyOp12
 70
     1
102
RTVSPropertyOp13
 70
     1
102
RTVSPropertyOp14
 70
     1
102
RTVSPropertyOp15
 70
     1
102
RTVSPropertyOp16
 70
     1
102
RTVSPropertyOp17
 70
     1
102
RTVSPropertyOp18
 70
     1
102
RTVSPropertyOp19
 70
     1
102
RTVSPropertyOp20
 70
     1
102
RTVSPropertyOp21
 70
     1
102
RTVSPropertyOp22
 70
     1
102
RTVSPropertyOp23
 70
     1
102
RTVSPropertyOp24
 70
     1
102
RTVSPropertyOp25
 70
     1
102
RTVSPropertyOp26
 70
     1
102
RTVSPropertyOp27
 70
     1
102
RTVSPropertyOp28
 70
     1
102
RTVSPropertyOp29
 70
     1
102
RTVSPropertyOp30
 70
     1
102
RTVSPropertyOp31
 70
     1
102
RTVSPropertyOp32
 70
     1
102
RTVSPropertyOp33
 70
     1
102
RTVSPropertyOp34
 70
     1
102
RTVSPropertyOp35
 70
     1
102
RTVSPropertyOp36
 70
     1
102
RTVSPropertyOp37
 70
     1
102
RTVSPropertyOp38
 70
     1
102
RTVSPropertyOp39
 70
     1
102
RTVSPropertyOp40
 70
     1
102
RTVSPropertyOp41
 70
     1
102
RTVSPropertyOp42
 70
     1
102
RTVSPropertyOp43
 70
     1
102
RTVSPropertyOp44
 70
     1
102
RTVSPropertyOp45
 70
     1
102
RTVSPropertyOp46
 70
     1
102
RTVSPropertyOp47
 70
     1
102
RTVSPropertyOp48
 70
     1
102
RTVSPropertyOp49
 70
     1
102
RTVSPropertyOp50
 70
     1
102
RTVSPropertyOp51
 70
     0
102
RTVSPropertyOp52
 70
     0
102
RTVSPropertyOp53
 70
     1
102
RTVSPropertyOp54
 70
     1
102
RTVSPropertyOp55
 70
     1
102
RTVSPropertyOp56
 70
     1
102
RTVSPropertyOp57
 70
     1
102
RTVSPropertyOp58
 70
     1
102
RTVSPropertyOp59
 70
     1
102
RTVSPropertyOp60
 70
     1
102
RTVSPropertyOp61
 70
     1
102
RTVSPropertyOp62
 70
     1
  0
ENDSEC
  0
EOF
