  0
SECTION
  2
HEADER
  9
$ACADVER
  1
AC1018
  9
$ACADMAINTVER
 70
     0
  9
$DWGCODEPAGE
  3
ANSI_932
  9
$INSBASE
 10
0.0
 20
0.0
 30
0.0
  9
$EXTMIN
 10
173.9960207766853
 20
-0.4531514603331744
 30
-0.0015258207003583
  9
$EXTMAX
 10
20385.40654231959
 20
14262.44433931126
 30
0.0000000349246037
  9
$LIMMIN
 10
0.0
 20
0.0
  9
$LIMMAX
 10
21000.0
 20
14850.0
  9
$ORTHOMODE
 70
     0
  9
$REGENMODE
 70
     1
  9
$FILLMODE
 70
     1
  9
$QTEXTMODE
 70
     0
  9
$MIRRTEXT
 70
     1
  9
$LTSCALE
 40
20.0
  9
$ATTMODE
 70
     1
  9
$TEXTSIZE
 40
150.0
  9
$TRACEWID
 40
1.0
  9
$TEXTSTYLE
  7
STYLE1
  9
$CLAYER
  8
寸法
  9
$CELTYPE
  6
BYLAYER
  9
$CECOLOR
 62
   256
  9
$CELTSCALE
 40
50.0
  9
$DISPSILH
 70
     0
  9
$DIMSCALE
 40
1.0
  9
$DIMASZ
 40
125.0
  9
$DIMEXO
 40
25.0
  9
$DIMDLI
 40
7.0
  9
$DIMRND
 40
0.0
  9
$DIMDLE
 40
0.0
  9
$DIMEXE
 40
75.0
  9
$DIMTP
 40
0.0
  9
$DIMTM
 40
0.0
  9
$DIMTXT
 40
150.0
  9
$DIMCEN
 40
0.0
  9
$DIMTSZ
 40
0.0
  9
$DIMTOL
 70
     0
  9
$DIMLIM
 70
     0
  9
$DIMTIH
 70
     0
  9
$DIMTOH
 70
     0
  9
$DIMSE1
 70
     0
  9
$DIMSE2
 70
     0
  9
$DIMTAD
 70
     3
  9
$DIMZIN
 70
     8
  9
$DIMBLK
  1

  9
$DIMASO
 70
     1
  9
$DIMSHO
 70
     1
  9
$DIMPOST
  1

  9
$DIMAPOST
  1

  9
$DIMALT
 70
     0
  9
$DIMALTD
 70
     2
  9
$DIMALTF
 40
0.0394
  9
$DIMLFAC
 40
1.0
  9
$DIMTOFL
 70
     1
  9
$DIMTVP
 40
0.0
  9
$DIMTIX
 70
     1
  9
$DIMSOXD
 70
     1
  9
$DIMSAH
 70
     1
  9
$DIMBLK1
  1
DOTSMALL
  9
$DIMBLK2
  1
DOTSMALL
  9
$DIMSTYLE
  2
INABA_S50G
  9
$DIMCLRD
 70
     0
  9
$DIMCLRE
 70
     0
  9
$DIMCLRT
 70
     7
  9
$DIMTFAC
 40
1.0
  9
$DIMGAP
 40
25.0
  9
$DIMJUST
 70
     0
  9
$DIMSD1
 70
     0
  9
$DIMSD2
 70
     0
  9
$DIMTOLJ
 70
     1
  9
$DIMTZIN
 70
     0
  9
$DIMALTZ
 70
     0
  9
$DIMALTTZ
 70
     0
  9
$DIMUPT
 70
     0
  9
$DIMDEC
 70
     1
  9
$DIMTDEC
 70
     4
  9
$DIMALTU
 70
     2
  9
$DIMALTTD
 70
     2
  9
$DIMTXSTY
  7
STYLE1
  9
$DIMAUNIT
 70
     0
  9
$DIMADEC
 70
     0
  9
$DIMALTRND
 40
0.0
  9
$DIMAZIN
 70
     0
  9
$DIMDSEP
 70
    46
  9
$DIMATFIT
 70
     3
  9
$DIMFRAC
 70
     0
  9
$DIMLDRBLK
  1
DOTSMALL
  9
$DIMLUNIT
 70
     2
  9
$DIMLWD
 70
    -2
  9
$DIMLWE
 70
    -2
  9
$DIMTMOVE
 70
     0
  9
$LUNITS
 70
     2
  9
$LUPREC
 70
     1
  9
$SKETCHINC
 40
1.0
  9
$FILLETRAD
 40
200.0
  9
$AUNITS
 70
     0
  9
$AUPREC
 70
     0
  9
$MENU
  1
acad
  9
$ELEVATION
 40
0.0
  9
$PELEVATION
 40
0.0
  9
$THICKNESS
 40
0.0
  9
$LIMCHECK
 70
     0
  9
$CHAMFERA
 40
0.0
  9
$CHAMFERB
 40
0.0
  9
$CHAMFERC
 40
30.0
  9
$CHAMFERD
 40
0.7853981633974483
  9
$SKPOLY
 70
     0
  9
$TDCREATE
 40
2450927.380327778
  9
$TDUCREATE
 40
2450927.005327778
  9
$TDUPDATE
 40
2454882.542552084
  9
$TDUUPDATE
 40
2454882.167552083
  9
$TDINDWG
 40
1.9746065394
  9
$TDUSRTIMER
 40
1.9746045486
  9
$USRTIMER
 70
     1
  9
$ANGBASE
 50
0.0
  9
$ANGDIR
 70
     0
  9
$PDMODE
 70
     3
  9
$PDSIZE
 40
2.0
  9
$PLINEWID
 40
0.0
  9
$SPLFRAME
 70
     0
  9
$SPLINETYPE
 70
     6
  9
$SPLINESEGS
 70
     8
  9
$HANDSEED
  5
1EE98
  9
$SURFTAB1
 70
     6
  9
$SURFTAB2
 70
     6
  9
$SURFTYPE
 70
     6
  9
$SURFU
 70
     6
  9
$SURFV
 70
     6
  9
$UCSBASE
  2

  9
$UCSNAME
  2

  9
$UCSORG
 10
0.0
 20
0.0
 30
0.0
  9
$UCSXDIR
 10
1.0
 20
0.0
 30
0.0
  9
$UCSYDIR
 10
0.0
 20
1.0
 30
0.0
  9
$UCSORTHOREF
  2

  9
$UCSORTHOVIEW
 70
     0
  9
$UCSORGTOP
 10
0.0
 20
0.0
 30
0.0
  9
$UCSORGBOTTOM
 10
0.0
 20
0.0
 30
0.0
  9
$UCSORGLEFT
 10
0.0
 20
0.0
 30
0.0
  9
$UCSORGRIGHT
 10
0.0
 20
0.0
 30
0.0
  9
$UCSORGFRONT
 10
0.0
 20
0.0
 30
0.0
  9
$UCSORGBACK
 10
0.0
 20
0.0
 30
0.0
  9
$PUCSBASE
  2

  9
$PUCSNAME
  2

  9
$PUCSORG
 10
0.0
 20
0.0
 30
0.0
  9
$PUCSXDIR
 10
1.0
 20
0.0
 30
0.0
  9
$PUCSYDIR
 10
0.0
 20
1.0
 30
0.0
  9
$PUCSORTHOREF
  2

  9
$PUCSORTHOVIEW
 70
     0
  9
$PUCSORGTOP
 10
0.0
 20
0.0
 30
0.0
  9
$PUCSORGBOTTOM
 10
0.0
 20
0.0
 30
0.0
  9
$PUCSORGLEFT
 10
0.0
 20
0.0
 30
0.0
  9
$PUCSORGRIGHT
 10
0.0
 20
0.0
 30
0.0
  9
$PUCSORGFRONT
 10
0.0
 20
0.0
 30
0.0
  9
$PUCSORGBACK
 10
0.0
 20
0.0
 30
0.0
  9
$USERI1
 70
     0
  9
$USERI2
 70
     0
  9
$USERI3
 70
     0
  9
$USERI4
 70
     0
  9
$USERI5
 70
     0
  9
$USERR1
 40
0.0
  9
$USERR2
 40
0.0
  9
$USERR3
 40
0.0
  9
$USERR4
 40
0.0
  9
$USERR5
 40
0.0
  9
$WORLDVIEW
 70
     1
  9
$SHADEDGE
 70
     3
  9
$SHADEDIF
 70
    70
  9
$TILEMODE
 70
     1
  9
$MAXACTVP
 70
    16
  9
$PINSBASE
 10
0.0
 20
0.0
 30
0.0
  9
$PLIMCHECK
 70
     0
  9
$PEXTMIN
 10
1.000000000000000E+20
 20
1.000000000000000E+20
 30
1.000000000000000E+20
  9
$PEXTMAX
 10
-1.000000000000000E+20
 20
-1.000000000000000E+20
 30
-1.000000000000000E+20
  9
$PLIMMIN
 10
0.0
 20
0.0
  9
$PLIMMAX
 10
420.0
 20
297.0
  9
$UNITMODE
 70
     0
  9
$VISRETAIN
 70
     0
  9
$PLINEGEN
 70
     0
  9
$PSLTSCALE
 70
     0
  9
$TREEDEPTH
 70
  3020
  9
$CMLSTYLE
  2
STANDARD
  9
$CMLJUST
 70
     0
  9
$CMLSCALE
 40
1.0
  9
$PROXYGRAPHICS
 70
     1
  9
$MEASUREMENT
 70
     1
  9
$CELWEIGHT
370
    -1
  9
$ENDCAPS
280
     0
  9
$JOINSTYLE
280
     0
  9
$LWDISPLAY
290
     0
  9
$INSUNITS
 70
     0
  9
$HYPERLINKBASE
  1

  9
$STYLESHEET
  1

  9
$XEDIT
290
     1
  9
$CEPSNTYPE
380
     0
  9
$PSTYLEMODE
290
     1
  9
$FINGERPRINTGUID
  2
{3A4AED84-7EBA-410B-8392-E919531848B6}
  9
$VERSIONGUID
  2
{A502413D-E904-4C64-A927-8EDE2B5880DE}
  9
$EXTNAMES
290
     1
  9
$PSVPSCALE
 40
0.0
  9
$OLESTARTUP
290
     0
  9
$SORTENTS
280
    96
  9
$INDEXCTL
280
     0
  9
$HIDETEXT
280
     0
  9
$XCLIPFRAME
290
     0
  9
$HALOGAP
280
     0
  9
$OBSCOLOR
 70
   257
  9
$OBSLTYPE
280
     0
  9
$INTERSECTIONDISPLAY
280
     0
  9
$INTERSECTIONCOLOR
 70
   257
  9
$DIMASSOC
280
     1
  9
$PROJECTNAME
  1

  0
ENDSEC
  0
SECTION
  2
CLASSES
  0
CLASS
  1
DICTIONARYVAR
  2
AcDbDictionaryVar
  3
ObjectDBX Classes
 90
        0
 91
        1
280
     0
281
     0
  0
CLASS
  1
ACDBDICTIONARYWDFLT
  2
AcDbDictionaryWithDefault
  3
ObjectDBX Classes
 90
        0
 91
        1
280
     0
281
     0
  0
ENDSEC
  0
SECTION
  2
TABLES
  0
TABLE
  2
VPORT
  5
746D
330
0
100
AcDbSymbolTable
 70
     3
  0
VPORT
  5
1EE97
330
746D
100
AcDbSymbolTableRecord
100
AcDbViewportTableRecord
  2
*Active
 70
     0
 10
0.0
 20
0.0
 11
1.0
 21
1.0
 12
10279.70128154813
 22
7130.995593925466
 13
0.0
 23
0.0
 14
10.0
 24
10.0
 15
10.0
 25
10.0
 16
0.0
 26
0.0
 36
1.0
 17
0.0
 27
0.0
 37
0.0
 40
17694.81119003843
 41
1.149397590361445
 42
50.0
 43
0.0
 44
0.0
 50
0.0
 51
0.0
 71
     0
 72
     0
 73
     1
 74
     0
 75
     0
 76
     0
 77
     0
 78
     0
281
     0
 65
     1
110
0.0
120
0.0
130
0.0
111
1.0
121
0.0
131
0.0
112
0.0
122
1.0
132
0.0
 79
     0
146
0.0
  0
ENDTAB
  0
TABLE
  2
LTYPE
  5
746A
330
0
100
AcDbSymbolTable
 70
     4
  0
LTYPE
  5
7477
330
746A
100
AcDbSymbolTableRecord
100
AcDbLinetypeTableRecord
  2
BYBLOCK
 70
     0
  3

 72
    65
 73
     0
 40
0.0
  0
LTYPE
  5
7478
330
746A
100
AcDbSymbolTableRecord
100
AcDbLinetypeTableRecord
  2
BYLAYER
 70
     0
  3

 72
    65
 73
     0
 40
0.0
  0
LTYPE
  5
7479
330
746A
100
AcDbSymbolTableRecord
100
AcDbLinetypeTableRecord
  2
CONTINUOUS
 70
     0
  3
Solid line
 72
    65
 73
     0
 40
0.0
  0
LTYPE
  5
7816
330
746A
100
AcDbSymbolTableRecord
100
AcDbLinetypeTableRecord
  2
CENTER
 70
     0
  3
____ _ ____ _ ____ _ ____ _ ____ _ ____ _ ____ 
 72
    65
 73
     4
 40
2.0
 49
1.25
 74
     0
 49
-0.25
 74
     0
 49
0.25
 74
     0
 49
-0.25
 74
     0
  0
LTYPE
  5
781B
330
746A
100
AcDbSymbolTableRecord
100
AcDbLinetypeTableRecord
  2
PHANTOM
 70
     0
  3
______  __  __  ______  __  __  ______  __  __ 
 72
    65
 73
     6
 40
2.5
 49
1.25
 74
     0
 49
-0.25
 74
     0
 49
0.25
 74
     0
 49
-0.25
 74
     0
 49
0.25
 74
     0
 49
-0.25
 74
     0
  0
LTYPE
  5
13F72
330
746A
100
AcDbSymbolTableRecord
100
AcDbLinetypeTableRecord
  2
HIDDEN
 70
     0
  3
__ __ __ __ __ __ __ __ __ __ __ __ __ __ __ __
 72
    65
 73
     2
 40
0.375
 49
0.25
 74
     0
 49
-0.125
 74
     0
  0
ENDTAB
  0
TABLE
  2
LAYER
  5
7467
330
0
100
AcDbSymbolTable
 70
    12
  0
LAYER
  5
7474
330
7467
100
AcDbSymbolTableRecord
100
AcDbLayerTableRecord
  2
0
 70
     0
 62
     7
  6
CONTINUOUS
370
    -3
390
1A1FA
  0
LAYER
  5
DEB2
330
7467
100
AcDbSymbolTableRecord
100
AcDbLayerTableRecord
  2
センター
 70
     0
 62
     3
  6
CENTER
370
    -3
390
1A1FA
  0
LAYER
  5
DEB3
330
7467
100
AcDbSymbolTableRecord
100
AcDbLayerTableRecord
  2
寸法
 70
     0
 62
     4
  6
CONTINUOUS
370
    -3
390
1A1FA
  0
LAYER
  5
DEB4
330
7467
100
AcDbSymbolTableRecord
100
AcDbLayerTableRecord
  2
部品1
 70
     0
 62
     7
  6
CONTINUOUS
370
    -3
390
1A1FA
  0
LAYER
  5
DEB5
330
7467
100
AcDbSymbolTableRecord
100
AcDbLayerTableRecord
  2
補助
 70
     0
 62
    -1
  6
CONTINUOUS
370
    -3
390
1A1FA
  0
LAYER
  5
DEB6
330
7467
100
AcDbSymbolTableRecord
100
AcDbLayerTableRecord
  2
文字
 70
     0
 62
     7
  6
CONTINUOUS
370
    -3
390
1A1FA
  0
LAYER
  5
F255
330
7467
100
AcDbSymbolTableRecord
100
AcDbLayerTableRecord
  2
DEFPOINTS
 70
     0
 62
     7
  6
CONTINUOUS
290
     0
370
    -3
390
1A1FA
  0
LAYER
  5
10B54
330
7467
100
AcDbSymbolTableRecord
100
AcDbLayerTableRecord
  2
仕様書枠
 70
     0
 62
   230
  6
CONTINUOUS
370
    -3
390
1A1FA
  0
LAYER
  5
13F73
330
7467
100
AcDbSymbolTableRecord
100
AcDbLayerTableRecord
  2
細線
 70
     0
 62
     5
  6
CONTINUOUS
370
    -3
390
1A1FA
  0
LAYER
  5
13F74
330
7467
100
AcDbSymbolTableRecord
100
AcDbLayerTableRecord
  2
点線
 70
     0
 62
     2
  6
HIDDEN
370
    -3
390
1A1FA
  0
LAYER
  5
1643F
330
7467
100
AcDbSymbolTableRecord
100
AcDbLayerTableRecord
  2
想像線
 70
     0
 62
     6
  6
PHANTOM
370
    -3
390
1A1FA
  0
LAYER
  5
18753
330
7467
100
AcDbSymbolTableRecord
100
AcDbLayerTableRecord
  2
Ｇ．Ｌ
 70
     0
 62
    30
  6
CONTINUOUS
370
    -3
390
1A1FA
  0
ENDTAB
  0
TABLE
  2
STYLE
  5
7468
330
0
100
AcDbSymbolTable
 70
     3
  0
STYLE
  5
7475
330
7468
100
AcDbSymbolTableRecord
100
AcDbTextStyleTableRecord
  2
STANDARD
 70
     0
 40
0.0
 41
1.0
 50
0.0
 71
     0
 42
4.0
  3
txt
  4
C:\AutoCAD LT\bigfont.shx
  0
STYLE
  5
F706
330
7468
100
AcDbSymbolTableRecord
100
AcDbTextStyleTableRecord
  2
STYLE1
 70
     0
 40
0.0
 41
1.0
 50
0.0
 71
     0
 42
150.0
  3
isocp.shx
  4
bigfont.shx
  0
STYLE
  5
103BF
330
7468
100
AcDbSymbolTableRecord
100
AcDbTextStyleTableRecord
  2
STYLE2
 70
     0
 40
0.0
 41
1.0
 50
0.0
 71
     0
 42
100.0
  3
MS PGothic.ttf
  4

1001
ACAD
1000
MS PGothic
1071
    32818
  0
ENDTAB
  0
TABLE
  2
VIEW
  5
746B
330
0
100
AcDbSymbolTable
 70
     0
  0
ENDTAB
  0
TABLE
  2
UCS
  5
746C
330
0
100
AcDbSymbolTable
 70
     0
  0
ENDTAB
  0
TABLE
  2
APPID
  5
746E
330
0
100
AcDbSymbolTable
 70
     6
  0
APPID
  5
7476
330
746E
100
AcDbSymbolTableRecord
100
AcDbRegAppTableRecord
  2
ACAD
 70
     0
  0
APPID
  5
DEA9
330
746E
100
AcDbSymbolTableRecord
100
AcDbRegAppTableRecord
  2
CONTENTBLOCKICON
 70
     0
  0
APPID
  5
DEAA
330
746E
100
AcDbSymbolTableRecord
100
AcDbRegAppTableRecord
  2
CONTENTBLOCKDESCRIPTION
 70
     0
  0
APPID
  5
E71D
330
746E
100
AcDbSymbolTableRecord
100
AcDbRegAppTableRecord
  2
CONTENTTABDATA
 70
     0
  0
APPID
  5
E71E
330
746E
100
AcDbSymbolTableRecord
100
AcDbRegAppTableRecord
  2
CONTENTCURRENTTAB
 70
     0
  0
APPID
  5
F3BA
330
746E
100
AcDbSymbolTableRecord
100
AcDbRegAppTableRecord
  2
DRAWINGVARIABLESXDATA
 70
     0
  0
ENDTAB
  0
TABLE
  2
DIMSTYLE
  5
746F
330
0
100
AcDbSymbolTable
 70
     2
100
AcDbDimStyleTable
 71
     0
  0
DIMSTYLE
105
7484
330
746F
100
AcDbSymbolTableRecord
100
AcDbDimStyleTableRecord
  2
JIS
 70
     0
 41
2.5
 42
1.0
 43
7.0
 44
1.0
 73
     0
 74
     0
 77
     1
 78
     8
140
2.5
141
0.0
143
0.0394
147
0.0
172
     1
174
     1
175
     1
340
7475
  0
DIMSTYLE
105
F71F
102
{ACAD_REACTORS
330
1E789
330
1E790
330
1E793
330
1E7A2
330
1E7A3
330
1E7A4
330
1E7A5
330
1E7A6
330
1E7AE
330
1E7B1
330
1E7B2
330
1E7BF
330
1E7F5
330
1E7F6
330
1E7F7
330
1E7F8
330
1E817
330
1E818
330
1E819
330
1E829
330
1E53E
330
1E545
330
1E548
330
1E557
330
1E558
330
1E559
330
1E55A
330
1E55B
330
1E563
330
1E566
330
1E567
330
1E574
330
1E5AA
330
1E5AB
330
1E5AC
330
1E5AD
330
1E5CC
330
1E5CD
330
1E5CE
330
1E5DE
330
1EE10
330
1EE11
330
1EE15
330
1EE1C
102
}
330
746F
100
AcDbSymbolTableRecord
100
AcDbDimStyleTableRecord
  2
INABA_S50G
 70
     0
 41
125.0
 42
25.0
 43
7.0
 44
75.0
 73
     0
 74
     0
 77
     3
 78
     8
140
150.0
141
0.0
143
0.0394
147
25.0
172
     1
173
     1
174
     1
175
     1
178
     7
271
     1
340
F706
341
F770
343
F770
344
F770
  0
ENDTAB
  0
TABLE
  2
BLOCK_RECORD
  5
7466
330
0
100
AcDbSymbolTable
 70
    57
  0
BLOCK_RECORD
  5
747D
330
7466
100
AcDbSymbolTableRecord
100
AcDbBlockTableRecord
  2
*MODEL_SPACE
340
1A1FD
  0
BLOCK_RECORD
  5
747A
330
7466
100
AcDbSymbolTableRecord
100
AcDbBlockTableRecord
  2
*PAPER_SPACE
340
1A1FE
  0
BLOCK_RECORD
  5
F770
330
7466
100
AcDbSymbolTableRecord
100
AcDbBlockTableRecord
  2
_DOTSMALL
340
0
102
{BLKREFS
331
1E475
331
1E476
331
1E4FD
331
1E4FE
331
1E48E
331
1E48F
331
1E45F
331
1E460
331
1E4F0
331
1E4F1
331
1E513
331
1E514
331
1E508
331
1E509
331
1E52A
331
1E52B
331
1E49B
331
1E49C
331
1E4A8
331
1E4A9
331
1E4E5
331
1E4E6
331
1E46A
331
1E46B
331
1E51F
331
1E520
331
1E4CC
331
1E4CD
331
1E4C0
331
1E4C1
331
1E4D9
331
1E4DA
331
1E535
331
1E536
331
1E4B4
331
1E4B5
331
1E453
331
1E454
331
1E481
331
1E482
331
1EB35
331
1EB36
331
1EB3E
331
1EB3F
331
1EB47
331
1EB48
331
1EB50
331
1EB51
331
1EB58
331
1EB59
331
1EB61
331
1EB62
331
1EB6B
331
1EB6C
331
1EB75
331
1EB76
331
1EB7D
331
1EB7E
331
1EB85
331
1EB86
331
1EB8D
331
1EB8E
331
1EB95
331
1EB96
331
1EB9E
331
1EB9F
331
1EBA8
331
1EBA9
331
1EBB2
331
1EBB3
331
1EBBA
331
1EBBB
331
1EBC3
331
1EBC4
331
1EBCC
331
1EBCD
331
1EBD5
331
1EBD6
331
1EBDD
331
1EBDE
331
1EBE6
331
1EBE7
331
1EBEF
331
1EBF0
331
1EBF8
331
1EBF9
331
1EC02
331
1EC03
331
1EC0B
331
1EC0C
331
1EC14
331
1EC15
331
1EC4F
331
1EC50
331
1EC2A
331
1EC2B
331
1EC36
331
1EC37
331
1EC43
331
1EC44
331
1EE74
331
1EE75
331
1EE7D
331
1EE7E
331
1EE86
331
1EE87
331
1EE90
331
1EE91
102
}
  0
BLOCK_RECORD
  5
18892
330
7466
100
AcDbSymbolTableRecord
100
AcDbBlockTableRecord
  2
*D1
340
0
  0
BLOCK_RECORD
  5
1889E
330
7466
100
AcDbSymbolTableRecord
100
AcDbBlockTableRecord
  2
*D2
340
0
  0
BLOCK_RECORD
  5
188AA
330
7466
100
AcDbSymbolTableRecord
100
AcDbBlockTableRecord
  2
*D3
340
0
  0
BLOCK_RECORD
  5
188B7
330
7466
100
AcDbSymbolTableRecord
100
AcDbBlockTableRecord
  2
*D4
340
0
  0
BLOCK_RECORD
  5
188C3
330
7466
100
AcDbSymbolTableRecord
100
AcDbBlockTableRecord
  2
*D5
340
0
  0
BLOCK_RECORD
  5
188CF
330
7466
100
AcDbSymbolTableRecord
100
AcDbBlockTableRecord
  2
*D6
340
0
  0
BLOCK_RECORD
  5
1E44F
330
7466
100
AcDbSymbolTableRecord
100
AcDbBlockTableRecord
  2
*D7
340
0
  0
BLOCK_RECORD
  5
1E45B
330
7466
100
AcDbSymbolTableRecord
100
AcDbBlockTableRecord
  2
*D8
340
0
  0
BLOCK_RECORD
  5
1E467
330
7466
100
AcDbSymbolTableRecord
100
AcDbBlockTableRecord
  2
*D9
340
0
  0
BLOCK_RECORD
  5
1E472
330
7466
100
AcDbSymbolTableRecord
100
AcDbBlockTableRecord
  2
*D10
340
0
  0
BLOCK_RECORD
  5
1E47D
330
7466
100
AcDbSymbolTableRecord
100
AcDbBlockTableRecord
  2
*D11
340
0
  0
BLOCK_RECORD
  5
1E489
330
7466
100
AcDbSymbolTableRecord
100
AcDbBlockTableRecord
  2
*D12
340
0
  0
BLOCK_RECORD
  5
1E496
330
7466
100
AcDbSymbolTableRecord
100
AcDbBlockTableRecord
  2
*D13
340
0
  0
BLOCK_RECORD
  5
1E4A3
330
7466
100
AcDbSymbolTableRecord
100
AcDbBlockTableRecord
  2
*D14
340
0
  0
BLOCK_RECORD
  5
1E4B0
330
7466
100
AcDbSymbolTableRecord
100
AcDbBlockTableRecord
  2
*D15
340
0
  0
BLOCK_RECORD
  5
1E4BC
330
7466
100
AcDbSymbolTableRecord
100
AcDbBlockTableRecord
  2
*D16
340
0
  0
BLOCK_RECORD
  5
1E4C8
330
7466
100
AcDbSymbolTableRecord
100
AcDbBlockTableRecord
  2
*D17
340
0
  0
BLOCK_RECORD
  5
1E4D4
330
7466
100
AcDbSymbolTableRecord
100
AcDbBlockTableRecord
  2
*D18
340
0
  0
BLOCK_RECORD
  5
1E4E1
330
7466
100
AcDbSymbolTableRecord
100
AcDbBlockTableRecord
  2
*D19
340
0
  0
BLOCK_RECORD
  5
1E4ED
330
7466
100
AcDbSymbolTableRecord
100
AcDbBlockTableRecord
  2
*D20
340
0
  0
BLOCK_RECORD
  5
1E4F8
330
7466
100
AcDbSymbolTableRecord
100
AcDbBlockTableRecord
  2
*D21
340
0
  0
BLOCK_RECORD
  5
1E505
330
7466
100
AcDbSymbolTableRecord
100
AcDbBlockTableRecord
  2
*D22
340
0
  0
BLOCK_RECORD
  5
1E510
330
7466
100
AcDbSymbolTableRecord
100
AcDbBlockTableRecord
  2
*D23
340
0
  0
BLOCK_RECORD
  5
1E51B
330
7466
100
AcDbSymbolTableRecord
100
AcDbBlockTableRecord
  2
*D24
340
0
  0
BLOCK_RECORD
  5
1E527
330
7466
100
AcDbSymbolTableRecord
100
AcDbBlockTableRecord
  2
*D25
340
0
  0
BLOCK_RECORD
  5
1E532
330
7466
100
AcDbSymbolTableRecord
100
AcDbBlockTableRecord
  2
*D26
340
0
  0
BLOCK_RECORD
  5
1E53D
330
7466
100
AcDbSymbolTableRecord
100
AcDbBlockTableRecord
  2
A$C2D9770E6
340
0
  0
BLOCK_RECORD
  5
1E834
330
7466
100
AcDbSymbolTableRecord
100
AcDbBlockTableRecord
  2
*D28
340
0
  0
BLOCK_RECORD
  5
1E83F
330
7466
100
AcDbSymbolTableRecord
100
AcDbBlockTableRecord
  2
*D29
340
0
  0
BLOCK_RECORD
  5
1E84B
330
7466
100
AcDbSymbolTableRecord
100
AcDbBlockTableRecord
  2
*D30
340
0
  0
BLOCK_RECORD
  5
1E857
330
7466
100
AcDbSymbolTableRecord
100
AcDbBlockTableRecord
  2
*D31
340
0
  0
BLOCK_RECORD
  5
1E863
330
7466
100
AcDbSymbolTableRecord
100
AcDbBlockTableRecord
  2
*D32
340
0
  0
BLOCK_RECORD
  5
1E86E
330
7466
100
AcDbSymbolTableRecord
100
AcDbBlockTableRecord
  2
*D33
340
0
  0
BLOCK_RECORD
  5
1E87B
330
7466
100
AcDbSymbolTableRecord
100
AcDbBlockTableRecord
  2
*D34
340
0
  0
BLOCK_RECORD
  5
1E888
330
7466
100
AcDbSymbolTableRecord
100
AcDbBlockTableRecord
  2
*D35
340
0
  0
BLOCK_RECORD
  5
1E894
330
7466
100
AcDbSymbolTableRecord
100
AcDbBlockTableRecord
  2
*D36
340
0
  0
BLOCK_RECORD
  5
1E89F
330
7466
100
AcDbSymbolTableRecord
100
AcDbBlockTableRecord
  2
*D37
340
0
  0
BLOCK_RECORD
  5
1E8AA
330
7466
100
AcDbSymbolTableRecord
100
AcDbBlockTableRecord
  2
*D38
340
0
  0
BLOCK_RECORD
  5
1E8B5
330
7466
100
AcDbSymbolTableRecord
100
AcDbBlockTableRecord
  2
*D39
340
0
  0
BLOCK_RECORD
  5
1E8C0
330
7466
100
AcDbSymbolTableRecord
100
AcDbBlockTableRecord
  2
*D40
340
0
  0
BLOCK_RECORD
  5
1E8CD
330
7466
100
AcDbSymbolTableRecord
100
AcDbBlockTableRecord
  2
*D41
340
0
  0
BLOCK_RECORD
  5
1E8DA
330
7466
100
AcDbSymbolTableRecord
100
AcDbBlockTableRecord
  2
*D42
340
0
  0
BLOCK_RECORD
  5
1E8E6
330
7466
100
AcDbSymbolTableRecord
100
AcDbBlockTableRecord
  2
*D43
340
0
  0
BLOCK_RECORD
  5
1E8F1
330
7466
100
AcDbSymbolTableRecord
100
AcDbBlockTableRecord
  2
*D44
340
0
  0
BLOCK_RECORD
  5
1E8FD
330
7466
100
AcDbSymbolTableRecord
100
AcDbBlockTableRecord
  2
*D45
340
0
  0
BLOCK_RECORD
  5
1E909
330
7466
100
AcDbSymbolTableRecord
100
AcDbBlockTableRecord
  2
*D46
340
0
  0
BLOCK_RECORD
  5
1E915
330
7466
100
AcDbSymbolTableRecord
100
AcDbBlockTableRecord
  2
*D47
340
0
  0
BLOCK_RECORD
  5
1EC25
330
7466
100
AcDbSymbolTableRecord
100
AcDbBlockTableRecord
  2
*D48
340
0
  0
BLOCK_RECORD
  5
1EC31
330
7466
100
AcDbSymbolTableRecord
100
AcDbBlockTableRecord
  2
*D49
340
0
  0
BLOCK_RECORD
  5
1EC3D
330
7466
100
AcDbSymbolTableRecord
100
AcDbBlockTableRecord
  2
*D50
340
0
  0
BLOCK_RECORD
  5
1EC4A
330
7466
100
AcDbSymbolTableRecord
100
AcDbBlockTableRecord
  2
*D51
340
0
  0
BLOCK_RECORD
  5
1EE40
330
7466
100
AcDbSymbolTableRecord
100
AcDbBlockTableRecord
  2
*D53
340
0
  0
BLOCK_RECORD
  5
1EE4C
330
7466
100
AcDbSymbolTableRecord
100
AcDbBlockTableRecord
  2
*D54
340
0
  0
BLOCK_RECORD
  5
1EE58
330
7466
100
AcDbSymbolTableRecord
100
AcDbBlockTableRecord
  2
*D55
340
0
  0
BLOCK_RECORD
  5
1EE64
330
7466
100
AcDbSymbolTableRecord
100
AcDbBlockTableRecord
  2
*D56
340
0
  0
ENDTAB
  0
ENDSEC
  0
SECTION
  2
BLOCKS
  0
BLOCK
  5
7489
330
747D
100
AcDbEntity
  8
0
100
AcDbBlockBegin
  2
*MODEL_SPACE
 70
     0
 10
0.0
 20
0.0
 30
0.0
  3
*MODEL_SPACE
  1

  0
ENDBLK
  5
748A
330
747D
100
AcDbEntity
  8
0
100
AcDbBlockEnd
  0
BLOCK
  5
7487
330
747A
100
AcDbEntity
 67
     1
  8
0
100
AcDbBlockBegin
  2
*PAPER_SPACE
 70
     0
 10
0.0
 20
0.0
 30
0.0
  3
*PAPER_SPACE
  1

  0
ENDBLK
  5
7488
330
747A
100
AcDbEntity
 67
     1
  8
0
100
AcDbBlockEnd
  0
BLOCK
  5
F771
330
F770
100
AcDbEntity
  8
0
 48
50.0
100
AcDbBlockBegin
  2
_DOTSMALL
 70
     0
 10
0.0
 20
0.0
 30
0.0
  3
_DOTSMALL
  1

  0
LWPOLYLINE
  5
F772
330
F770
100
AcDbEntity
  8
0
  6
ByBlock
 62
     0
 48
50.0
100
AcDbPolyline
 90
        2
 70
     1
 43
0.5
 10
-0.0625
 20
0.0
 42
1.0
 10
0.0625
 20
0.0
 42
1.0
  0
ENDBLK
  5
F776
330
F770
100
AcDbEntity
  8
0
 48
50.0
100
AcDbBlockEnd
  0
BLOCK
  5
188DB
330
18892
100
AcDbEntity
  8
0
 48
50.0
100
AcDbBlockBegin
  2
*D1
 70
     1
 10
0.0
 20
0.0
 30
0.0
  3
*D1
  1

  0
LINE
  5
1EC11
330
18892
100
AcDbEntity
  8
寸法
 62
     0
 48
50.0
370
    -2
100
AcDbLine
 10
10621.47449085893
 20
2029.373661269834
 30
0.0
 11
10190.75447588975
 21
2029.373661269834
 31
0.0
  0
LINE
  5
1EC12
330
18892
100
AcDbEntity
  8
寸法
 62
     0
 48
50.0
370
    -2
100
AcDbLine
 10
10577.47449085893
 20
1459.373661269833
 30
0.0
 11
10190.75447588975
 21
1459.373661269833
 31
0.0
  0
LINE
  5
1EC13
330
18892
100
AcDbEntity
  8
寸法
 62
     0
 48
50.0
370
    -2
100
AcDbLine
 10
10265.75447588975
 20
2029.373661269834
 30
0.0
 11
10265.75447588975
 21
1459.373661269833
 31
0.0
  0
INSERT
  5
1EC14
330
18892
100
AcDbEntity
  8
寸法
 62
     0
 48
50.0
370
    -2
100
AcDbBlockReference
  2
_DOTSMALL
 10
10265.75447588975
 20
2029.373661269834
 30
0.0
 41
125.0
 42
125.0
 43
125.0
 50
90.0
  0
INSERT
  5
1EC15
330
18892
100
AcDbEntity
  8
寸法
 62
     0
 48
50.0
370
    -2
100
AcDbBlockReference
  2
_DOTSMALL
 10
10265.75447588975
 20
1459.373661269833
 30
0.0
 41
125.0
 42
125.0
 43
125.0
 50
270.0
  0
MTEXT
  5
1EC16
330
18892
100
AcDbEntity
  8
寸法
 62
     7
 48
50.0
100
AcDbMText
 10
10165.73971211022
 20
1744.373661269835
 30
0.0
 40
150.0
 41
0.0
 71
     5
 72
     1
  1
\A1;285
  7
STYLE1
 11
0.0000000000000001
 21
1.0
 31
0.0
 73
     1
 44
1.0
  0
POINT
  5
1EC17
330
18892
100
AcDbEntity
  8
DEFPOINTS
 62
     0
 48
50.0
100
AcDbPoint
 10
10646.47449085893
 20
2029.373661269834
 30
0.0
  0
POINT
  5
1EC18
330
18892
100
AcDbEntity
  8
DEFPOINTS
 62
     0
 48
50.0
100
AcDbPoint
 10
10602.47449085893
 20
1459.373661269833
 30
0.0
  0
POINT
  5
1EC19
330
18892
100
AcDbEntity
  8
DEFPOINTS
 62
     0
 48
50.0
100
AcDbPoint
 10
10265.75447588975
 20
1459.373661269833
 30
0.0
  0
ENDBLK
  5
188E5
330
18892
100
AcDbEntity
  8
0
 48
50.0
100
AcDbBlockEnd
  0
BLOCK
  5
188E6
330
1889E
100
AcDbEntity
  8
0
 48
50.0
100
AcDbBlockBegin
  2
*D2
 70
     1
 10
0.0
 20
0.0
 30
0.0
  3
*D2
  1

  0
LINE
  5
1EC08
330
1889E
100
AcDbEntity
  8
寸法
 62
     0
 48
50.0
370
    -2
100
AcDbLine
 10
10023.30215180335
 20
1749.373661269833
 30
0.0
 11
9908.343789282213
 21
1749.373661269833
 31
0.0
  0
LINE
  5
1EC09
330
1889E
100
AcDbEntity
  8
寸法
 62
     0
 48
50.0
370
    -2
100
AcDbLine
 10
10433.47449085893
 20
1349.373661269834
 30
0.0
 11
9908.343789282213
 21
1349.373661269834
 31
0.0
  0
LINE
  5
1EC0A
330
1889E
100
AcDbEntity
  8
寸法
 62
     0
 48
50.0
370
    -2
100
AcDbLine
 10
9983.343789282216
 20
1749.373661269833
 30
0.0
 11
9983.343789282216
 21
1349.373661269834
 31
0.0
  0
INSERT
  5
1EC0B
330
1889E
100
AcDbEntity
  8
寸法
 62
     0
 48
50.0
370
    -2
100
AcDbBlockReference
  2
_DOTSMALL
 10
9983.343789282216
 20
1749.373661269833
 30
0.0
 41
125.0
 42
125.0
 43
125.0
 50
90.0
  0
INSERT
  5
1EC0C
330
1889E
100
AcDbEntity
  8
寸法
 62
     0
 48
50.0
370
    -2
100
AcDbBlockReference
  2
_DOTSMALL
 10
9983.343789282216
 20
1349.373661269834
 30
0.0
 41
125.0
 42
125.0
 43
125.0
 50
270.0
  0
MTEXT
  5
1EC0D
330
1889E
100
AcDbEntity
  8
寸法
 62
     7
 48
50.0
100
AcDbMText
 10
9883.329025502689
 20
1549.373661269835
 30
0.0
 40
150.0
 41
0.0
 71
     5
 72
     1
  1
\A1;200
  7
STYLE1
 11
0.0000000000000001
 21
1.0
 31
0.0
 73
     1
 44
1.0
  0
POINT
  5
1EC0E
330
1889E
100
AcDbEntity
  8
DEFPOINTS
 62
     0
 48
50.0
100
AcDbPoint
 10
10048.30215180335
 20
1749.373661269833
 30
0.0
  0
POINT
  5
1EC0F
330
1889E
100
AcDbEntity
  8
DEFPOINTS
 62
     0
 48
50.0
100
AcDbPoint
 10
10458.47449085893
 20
1349.373661269834
 30
0.0
  0
POINT
  5
1EC10
330
1889E
100
AcDbEntity
  8
DEFPOINTS
 62
     0
 48
50.0
100
AcDbPoint
 10
9983.343789282216
 20
1349.373661269834
 30
0.0
  0
ENDBLK
  5
188F0
330
1889E
100
AcDbEntity
  8
0
 48
50.0
100
AcDbBlockEnd
  0
BLOCK
  5
188F1
330
188AA
100
AcDbEntity
  8
0
 48
50.0
100
AcDbBlockBegin
  2
*D3
 70
     1
 10
0.0
 20
0.0
 30
0.0
  3
*D3
  1

  0
LINE
  5
1EBFE
330
188AA
100
AcDbEntity
  8
寸法
 62
     0
 48
50.0
370
    -2
100
AcDbLine
 10
10240.75447588975
 20
1949.373661269834
 30
0.0
 11
9908.992508710598
 21
1949.373661269834
 31
0.0
  0
LINE
  5
1EBFF
330
188AA
100
AcDbEntity
  8
寸法
 62
     0
 48
50.0
370
    -2
100
AcDbLine
 10
10023.30215180335
 20
1749.373661269833
 30
0.0
 11
9908.992508710598
 21
1749.373661269833
 31
0.0
  0
LINE
  5
1EC00
330
188AA
100
AcDbEntity
  8
寸法
 62
     0
 48
50.0
370
    -2
100
AcDbLine
 10
9983.992508710601
 20
1749.373661269833
 30
0.0
 11
9983.992508710601
 21
1949.373661269834
 31
0.0
  0
LINE
  5
1EC01
330
188AA
100
AcDbEntity
  8
寸法
 62
     0
 48
50.0
370
    -2
100
AcDbLine
 10
9983.992508710601
 20
1949.373661269834
 30
0.0
 11
9983.992508710601
 21
2381.396299065108
 31
0.0
  0
INSERT
  5
1EC02
330
188AA
100
AcDbEntity
  8
寸法
 62
     0
 48
50.0
370
    -2
100
AcDbBlockReference
  2
_DOTSMALL
 10
9983.992508710601
 20
1749.373661269833
 30
0.0
 41
125.0
 42
125.0
 43
125.0
 50
270.0
  0
INSERT
  5
1EC03
330
188AA
100
AcDbEntity
  8
寸法
 62
     0
 48
50.0
370
    -2
100
AcDbBlockReference
  2
_DOTSMALL
 10
9983.992508710601
 20
1949.373661269834
 30
0.0
 41
125.0
 42
125.0
 43
125.0
 50
90.0
  0
MTEXT
  5
1EC04
330
188AA
100
AcDbEntity
  8
寸法
 62
     7
 48
50.0
100
AcDbMText
 10
9883.992508710598
 20
2236.337243947
 30
0.0
 40
150.0
 41
0.0
 71
     5
 72
     1
  1
\A1;100
  7
STYLE1
 11
0.0000000000000001
 21
1.0
 31
0.0
 73
     1
 44
1.0
  0
POINT
  5
1EC05
330
188AA
100
AcDbEntity
  8
DEFPOINTS
 62
     0
 48
50.0
100
AcDbPoint
 10
10265.75447588975
 20
1949.373661269834
 30
0.0
  0
POINT
  5
1EC06
330
188AA
100
AcDbEntity
  8
DEFPOINTS
 62
     0
 48
50.0
100
AcDbPoint
 10
10048.30215180335
 20
1749.373661269833
 30
0.0
  0
POINT
  5
1EC07
330
188AA
100
AcDbEntity
  8
DEFPOINTS
 62
     0
 48
50.0
100
AcDbPoint
 10
9983.992508710601
 20
1749.373661269833
 30
0.0
  0
ENDBLK
  5
188FC
330
188AA
100
AcDbEntity
  8
0
 48
50.0
100
AcDbBlockEnd
  0
BLOCK
  5
188FD
330
188B7
100
AcDbEntity
  8
0
 48
50.0
100
AcDbBlockBegin
  2
*D4
 70
     1
 10
0.0
 20
0.0
 30
0.0
  3
*D4
  1

  0
LINE
  5
1EBF5
330
188B7
100
AcDbEntity
  8
寸法
 62
     0
 48
50.0
370
    -2
100
AcDbLine
 10
12489.69235086196
 20
1324.373661269834
 30
0.0
 11
12489.69235086196
 21
947.8906957845302
 31
0.0
  0
LINE
  5
1EBF6
330
188B7
100
AcDbEntity
  8
寸法
 62
     0
 48
50.0
370
    -2
100
AcDbLine
 10
12089.69235086196
 20
1324.373661269834
 30
0.0
 11
12089.69235086196
 21
947.8906957845302
 31
0.0
  0
LINE
  5
1EBF7
330
188B7
100
AcDbEntity
  8
寸法
 62
     0
 48
50.0
370
    -2
100
AcDbLine
 10
12489.69235086196
 20
1022.89069578453
 30
0.0
 11
12089.69235086196
 21
1022.89069578453
 31
0.0
  0
INSERT
  5
1EBF8
330
188B7
100
AcDbEntity
  8
寸法
 62
     0
 48
50.0
370
    -2
100
AcDbBlockReference
  2
_DOTSMALL
 10
12489.69235086196
 20
1022.89069578453
 30
0.0
 41
125.0
 42
125.0
 43
125.0
  0
INSERT
  5
1EBF9
330
188B7
100
AcDbEntity
  8
寸法
 62
     0
 48
50.0
370
    -2
100
AcDbBlockReference
  2
_DOTSMALL
 10
12089.69235086196
 20
1022.89069578453
 30
0.0
 41
125.0
 42
125.0
 43
125.0
 50
180.0
  0
MTEXT
  5
1EBFA
330
188B7
100
AcDbEntity
  8
寸法
 62
     7
 48
50.0
100
AcDbMText
 10
12289.69235086196
 20
1122.905459564057
 30
0.0
 40
150.0
 41
0.0
 71
     5
 72
     1
  1
\A1;200
  7
STYLE1
 73
     1
 44
1.0
  0
POINT
  5
1EBFB
330
188B7
100
AcDbEntity
  8
DEFPOINTS
 62
     0
 48
50.0
100
AcDbPoint
 10
12489.69235086196
 20
1349.373661269834
 30
0.0
  0
POINT
  5
1EBFC
330
188B7
100
AcDbEntity
  8
DEFPOINTS
 62
     0
 48
50.0
100
AcDbPoint
 10
12089.69235086196
 20
1349.373661269834
 30
0.0
  0
POINT
  5
1EBFD
330
188B7
100
AcDbEntity
  8
DEFPOINTS
 62
     0
 48
50.0
100
AcDbPoint
 10
12089.69235086196
 20
1022.89069578453
 30
0.0
  0
ENDBLK
  5
18907
330
188B7
100
AcDbEntity
  8
0
 48
50.0
100
AcDbBlockEnd
  0
BLOCK
  5
18908
330
188C3
100
AcDbEntity
  8
0
 48
50.0
100
AcDbBlockBegin
  2
*D5
 70
     1
 10
0.0
 20
0.0
 30
0.0
  3
*D5
  1

  0
LINE
  5
1EBEC
330
188C3
100
AcDbEntity
  8
寸法
 62
     0
 48
50.0
370
    -2
100
AcDbLine
 10
10858.47449085893
 20
1324.373661269834
 30
0.0
 11
10858.47449085893
 21
947.8906957845302
 31
0.0
  0
LINE
  5
1EBED
330
188C3
100
AcDbEntity
  8
寸法
 62
     0
 48
50.0
370
    -2
100
AcDbLine
 10
10458.47449085893
 20
1324.373661269834
 30
0.0
 11
10458.47449085893
 21
947.8906957845302
 31
0.0
  0
LINE
  5
1EBEE
330
188C3
100
AcDbEntity
  8
寸法
 62
     0
 48
50.0
370
    -2
100
AcDbLine
 10
10858.47449085893
 20
1022.89069578453
 30
0.0
 11
10458.47449085893
 21
1022.89069578453
 31
0.0
  0
INSERT
  5
1EBEF
330
188C3
100
AcDbEntity
  8
寸法
 62
     0
 48
50.0
370
    -2
100
AcDbBlockReference
  2
_DOTSMALL
 10
10858.47449085893
 20
1022.89069578453
 30
0.0
 41
125.0
 42
125.0
 43
125.0
  0
INSERT
  5
1EBF0
330
188C3
100
AcDbEntity
  8
寸法
 62
     0
 48
50.0
370
    -2
100
AcDbBlockReference
  2
_DOTSMALL
 10
10458.47449085893
 20
1022.89069578453
 30
0.0
 41
125.0
 42
125.0
 43
125.0
 50
180.0
  0
MTEXT
  5
1EBF1
330
188C3
100
AcDbEntity
  8
寸法
 62
     7
 48
50.0
100
AcDbMText
 10
10658.47449085893
 20
1122.905459564057
 30
0.0
 40
150.0
 41
0.0
 71
     5
 72
     1
  1
\A1;200
  7
STYLE1
 73
     1
 44
1.0
  0
POINT
  5
1EBF2
330
188C3
100
AcDbEntity
  8
DEFPOINTS
 62
     0
 48
50.0
100
AcDbPoint
 10
10858.47449085893
 20
1349.373661269834
 30
0.0
  0
POINT
  5
1EBF3
330
188C3
100
AcDbEntity
  8
DEFPOINTS
 62
     0
 48
50.0
100
AcDbPoint
 10
10458.47449085893
 20
1349.373661269834
 30
0.0
  0
POINT
  5
1EBF4
330
188C3
100
AcDbEntity
  8
DEFPOINTS
 62
     0
 48
50.0
100
AcDbPoint
 10
10458.47449085893
 20
1022.89069578453
 30
0.0
  0
ENDBLK
  5
18912
330
188C3
100
AcDbEntity
  8
0
 48
50.0
100
AcDbBlockEnd
  0
BLOCK
  5
18913
330
188CF
100
AcDbEntity
  8
0
 48
50.0
100
AcDbBlockBegin
  2
*D6
 70
     1
 10
0.0
 20
0.0
 30
0.0
  3
*D6
  1

  0
LINE
  5
1EBE3
330
188CF
100
AcDbEntity
  8
寸法
 62
     0
 48
50.0
370
    -2
100
AcDbLine
 10
11654.52001180637
 20
1749.373661269833
 30
0.0
 11
11539.56164928524
 21
1749.373661269833
 31
0.0
  0
LINE
  5
1EBE4
330
188CF
100
AcDbEntity
  8
寸法
 62
     0
 48
50.0
370
    -2
100
AcDbLine
 10
12064.69235086196
 20
1349.373661269834
 30
0.0
 11
11539.56164928524
 21
1349.373661269834
 31
0.0
  0
LINE
  5
1EBE5
330
188CF
100
AcDbEntity
  8
寸法
 62
     0
 48
50.0
370
    -2
100
AcDbLine
 10
11614.56164928524
 20
1749.373661269833
 30
0.0
 11
11614.56164928524
 21
1349.373661269834
 31
0.0
  0
INSERT
  5
1EBE6
330
188CF
100
AcDbEntity
  8
寸法
 62
     0
 48
50.0
370
    -2
100
AcDbBlockReference
  2
_DOTSMALL
 10
11614.56164928524
 20
1749.373661269833
 30
0.0
 41
125.0
 42
125.0
 43
125.0
 50
90.0
  0
INSERT
  5
1EBE7
330
188CF
100
AcDbEntity
  8
寸法
 62
     0
 48
50.0
370
    -2
100
AcDbBlockReference
  2
_DOTSMALL
 10
11614.56164928524
 20
1349.373661269834
 30
0.0
 41
125.0
 42
125.0
 43
125.0
 50
270.0
  0
MTEXT
  5
1EBE8
330
188CF
100
AcDbEntity
  8
寸法
 62
     7
 48
50.0
100
AcDbMText
 10
11514.54688550571
 20
1549.373661269835
 30
0.0
 40
150.0
 41
0.0
 71
     5
 72
     1
  1
\A1;200
  7
STYLE1
 11
0.0000000000000001
 21
1.0
 31
0.0
 73
     1
 44
1.0
  0
POINT
  5
1EBE9
330
188CF
100
AcDbEntity
  8
DEFPOINTS
 62
     0
 48
50.0
100
AcDbPoint
 10
11679.52001180637
 20
1749.373661269833
 30
0.0
  0
POINT
  5
1EBEA
330
188CF
100
AcDbEntity
  8
DEFPOINTS
 62
     0
 48
50.0
100
AcDbPoint
 10
12089.69235086196
 20
1349.373661269834
 30
0.0
  0
POINT
  5
1EBEB
330
188CF
100
AcDbEntity
  8
DEFPOINTS
 62
     0
 48
50.0
100
AcDbPoint
 10
11614.56164928524
 20
1349.373661269834
 30
0.0
  0
ENDBLK
  5
1891D
330
188CF
100
AcDbEntity
  8
0
 48
50.0
100
AcDbBlockEnd
  0
BLOCK
  5
1E459
330
1E44F
100
AcDbEntity
  8
0
 48
50.0
100
AcDbBlockBegin
  2
*D7
 70
     1
 10
0.0
 20
0.0
 30
0.0
  3
*D7
  1

  0
LINE
  5
1E450
330
1E44F
100
AcDbEntity
  8
0
  6
ByBlock
 62
     0
 48
50.0
100
AcDbLine
 10
4867.128311290873
 20
5397.526764572681
 30
0.0
 11
5977.12831129087
 21
5397.526764572681
 31
0.0
  0
LINE
  5
1E451
330
1E44F
100
AcDbEntity
  8
0
  6
ByBlock
 62
     0
 48
50.0
100
AcDbLine
 10
4867.128311290873
 20
7859.526764572682
 30
0.0
 11
5977.128311290871
 21
7859.526764572682
 31
0.0
  0
LINE
  5
1E452
330
1E44F
100
AcDbEntity
  8
0
  6
ByBlock
 62
     0
 48
50.0
100
AcDbLine
 10
5902.12831129087
 20
5397.526764572681
 30
0.0
 11
5902.128311290871
 21
7859.526764572682
 31
0.0
  0
INSERT
  5
1E453
330
1E44F
100
AcDbEntity
  8
0
  6
ByBlock
 62
     0
 48
50.0
100
AcDbBlockReference
  2
_DOTSMALL
 10
5902.12831129087
 20
5397.526764572681
 30
0.0
 41
125.0
 42
125.0
 43
125.0
 50
270.0
  0
INSERT
  5
1E454
330
1E44F
100
AcDbEntity
  8
0
  6
ByBlock
 62
     0
 48
50.0
100
AcDbBlockReference
  2
_DOTSMALL
 10
5902.128311290871
 20
7859.526764572682
 30
0.0
 41
125.0
 42
125.0
 43
125.0
 50
90.0
  0
MTEXT
  5
1E455
330
1E44F
100
AcDbEntity
  8
0
  6
ByBlock
 62
     7
 48
50.0
100
AcDbMText
 10
5802.113547511343
 20
6628.526764572682
 30
0.0
 40
150.0
 41
0.0
 71
     5
 72
     5
  1
\A1;2462
  7
STYLE1
 11
0.0000000000000001
 21
1.0
 31
0.0
 73
     1
 44
1.0
1001
ACAD
1000
MTEXTBEGIN
1070
    73
1070
     1
1070
    44
1040
1.0
1070
    74
1070
     0
1000
MTEXTEND
  0
POINT
  5
1E456
330
1E44F
100
AcDbEntity
  8
DEFPOINTS
  6
ByBlock
 62
     0
 48
50.0
100
AcDbPoint
 10
4842.128311290871
 20
5397.526764572681
 30
0.0
  0
POINT
  5
1E457
330
1E44F
100
AcDbEntity
  8
DEFPOINTS
  6
ByBlock
 62
     0
 48
50.0
100
AcDbPoint
 10
4842.128311290871
 20
7859.526764572682
 30
0.0
  0
POINT
  5
1E458
330
1E44F
100
AcDbEntity
  8
DEFPOINTS
  6
ByBlock
 62
     0
 48
50.0
100
AcDbPoint
 10
5902.128311290871
 20
7859.526764572682
 30
0.0
  0
ENDBLK
  5
1E45A
330
1E44F
100
AcDbEntity
  8
0
 48
50.0
100
AcDbBlockEnd
  0
BLOCK
  5
1E465
330
1E45B
100
AcDbEntity
  8
0
 48
50.0
100
AcDbBlockBegin
  2
*D8
 70
     1
 10
0.0
 20
0.0
 30
0.0
  3
*D8
  1

  0
LINE
  5
1E45C
330
1E45B
100
AcDbEntity
  8
0
  6
ByBlock
 62
     0
 48
50.0
100
AcDbLine
 10
1655.128311290869
 20
5227.526764572682
 30
0.0
 11
1655.128311290869
 21
4787.526764572681
 31
0.0
  0
LINE
  5
1E45D
330
1E45B
100
AcDbEntity
  8
0
  6
ByBlock
 62
     0
 48
50.0
100
AcDbLine
 10
3176.128311290871
 20
5372.526764572682
 30
0.0
 11
3176.128311290871
 21
4787.526764572681
 31
0.0
  0
LINE
  5
1E45E
330
1E45B
100
AcDbEntity
  8
0
  6
ByBlock
 62
     0
 48
50.0
100
AcDbLine
 10
1655.128311290869
 20
4862.526764572681
 30
0.0
 11
3176.128311290871
 21
4862.526764572681
 31
0.0
  0
INSERT
  5
1E45F
330
1E45B
100
AcDbEntity
  8
0
  6
ByBlock
 62
     0
 48
50.0
100
AcDbBlockReference
  2
_DOTSMALL
 10
1655.128311290869
 20
4862.526764572681
 30
0.0
 41
125.0
 42
125.0
 43
125.0
 50
180.0
  0
INSERT
  5
1E460
330
1E45B
100
AcDbEntity
  8
0
  6
ByBlock
 62
     0
 48
50.0
100
AcDbBlockReference
  2
_DOTSMALL
 10
3176.128311290871
 20
4862.526764572681
 30
0.0
 41
125.0
 42
125.0
 43
125.0
  0
MTEXT
  5
1E461
330
1E45B
100
AcDbEntity
  8
0
  6
ByBlock
 62
     7
 48
50.0
100
AcDbMText
 10
2415.628311290871
 20
4962.541528352208
 30
0.0
 40
150.0
 41
0.0
 71
     5
 72
     5
  1
\A1;1521
  7
STYLE1
 73
     1
 44
1.0
1001
ACAD
1000
MTEXTBEGIN
1070
    73
1070
     1
1070
    44
1040
1.0
1070
    74
1070
     0
1000
MTEXTEND
  0
POINT
  5
1E462
330
1E45B
100
AcDbEntity
  8
DEFPOINTS
  6
ByBlock
 62
     0
 48
50.0
100
AcDbPoint
 10
1655.128311290869
 20
5252.526764572682
 30
0.0
  0
POINT
  5
1E463
330
1E45B
100
AcDbEntity
  8
DEFPOINTS
  6
ByBlock
 62
     0
 48
50.0
100
AcDbPoint
 10
3176.128311290871
 20
5397.526764572681
 30
0.0
  0
POINT
  5
1E464
330
1E45B
100
AcDbEntity
  8
DEFPOINTS
  6
ByBlock
 62
     0
 48
50.0
100
AcDbPoint
 10
3176.128311290871
 20
4862.526764572681
 30
0.0
  0
ENDBLK
  5
1E466
330
1E45B
100
AcDbEntity
  8
0
 48
50.0
100
AcDbBlockEnd
  0
BLOCK
  5
1E470
330
1E467
100
AcDbEntity
  8
0
 48
50.0
100
AcDbBlockBegin
  2
*D9
 70
     1
 10
0.0
 20
0.0
 30
0.0
  3
*D9
  1

  0
LINE
  5
1E468
330
1E467
100
AcDbEntity
  8
寸法
 62
     0
 48
50.0
100
AcDbLine
 10
4867.128311290873
 20
5397.526764572681
 30
0.0
 11
5627.128311290871
 21
5397.526764572681
 31
0.0
  0
LINE
  5
1E469
330
1E467
100
AcDbEntity
  8
寸法
 62
     0
 48
50.0
100
AcDbLine
 10
5552.128311290871
 20
6251.52676457268
 30
0.0
 11
5552.128311290871
 21
5397.526764572681
 31
0.0
  0
INSERT
  5
1E46A
330
1E467
100
AcDbEntity
  8
寸法
 62
     0
 48
50.0
100
AcDbBlockReference
  2
_DOTSMALL
 10
5552.128311290871
 20
6251.52676457268
 30
0.0
 41
125.0
 42
125.0
 43
125.0
 50
90.0
  0
INSERT
  5
1E46B
330
1E467
100
AcDbEntity
  8
寸法
 62
     0
 48
50.0
100
AcDbBlockReference
  2
_DOTSMALL
 10
5552.128311290871
 20
5397.526764572681
 30
0.0
 41
125.0
 42
125.0
 43
125.0
 50
270.0
  0
MTEXT
  5
1E46C
330
1E467
100
AcDbEntity
  8
寸法
 62
     7
 48
50.0
100
AcDbMText
 10
5452.12831129087
 20
5824.526764572683
 30
0.0
 40
150.0
 41
0.0
 71
     5
 72
     5
  1
\A1;854
  7
STYLE1
 11
0.0000000000000001
 21
1.0
 31
0.0
 73
     1
 44
1.0
  0
POINT
  5
1E46D
330
1E467
100
AcDbEntity
  8
DEFPOINTS
 62
     0
 48
50.0
100
AcDbPoint
 10
4697.128311290871
 20
6251.52676457268
 30
0.0
  0
POINT
  5
1E46E
330
1E467
100
AcDbEntity
  8
DEFPOINTS
 62
     0
 48
50.0
100
AcDbPoint
 10
4842.128311290871
 20
5397.526764572681
 30
0.0
  0
POINT
  5
1E46F
330
1E467
100
AcDbEntity
  8
DEFPOINTS
 62
     0
 48
50.0
100
AcDbPoint
 10
5552.128311290871
 20
5397.526764572681
 30
0.0
  0
ENDBLK
  5
1E471
330
1E467
100
AcDbEntity
  8
0
 48
50.0
100
AcDbBlockEnd
  0
BLOCK
  5
1E47B
330
1E472
100
AcDbEntity
  8
0
 48
50.0
100
AcDbBlockBegin
  2
*D10
 70
     1
 10
0.0
 20
0.0
 30
0.0
  3
*D10
  1

  0
LINE
  5
1E473
330
1E472
100
AcDbEntity
  8
寸法
 62
     0
 48
50.0
100
AcDbLine
 10
4697.128311290871
 20
5227.526764572682
 30
0.0
 11
4697.128311290871
 21
4787.526764572681
 31
0.0
  0
LINE
  5
1E474
330
1E472
100
AcDbEntity
  8
寸法
 62
     0
 48
50.0
100
AcDbLine
 10
3176.128311290871
 20
4862.526764572681
 30
0.0
 11
4697.128311290871
 21
4862.526764572681
 31
0.0
  0
INSERT
  5
1E475
330
1E472
100
AcDbEntity
  8
寸法
 62
     0
 48
50.0
100
AcDbBlockReference
  2
_DOTSMALL
 10
3176.128311290871
 20
4862.526764572681
 30
0.0
 41
125.0
 42
125.0
 43
125.0
 50
180.0
  0
INSERT
  5
1E476
330
1E472
100
AcDbEntity
  8
寸法
 62
     0
 48
50.0
100
AcDbBlockReference
  2
_DOTSMALL
 10
4697.128311290871
 20
4862.526764572681
 30
0.0
 41
125.0
 42
125.0
 43
125.0
  0
MTEXT
  5
1E477
330
1E472
100
AcDbEntity
  8
寸法
 62
     7
 48
50.0
100
AcDbMText
 10
3936.628311290871
 20
4962.541528352208
 30
0.0
 40
150.0
 41
0.0
 71
     5
 72
     5
  1
\A1;1521
  7
STYLE1
 73
     1
 44
1.0
  0
POINT
  5
1E478
330
1E472
100
AcDbEntity
  8
DEFPOINTS
 62
     0
 48
50.0
100
AcDbPoint
 10
3176.128311290871
 20
5397.526764572681
 30
0.0
  0
POINT
  5
1E479
330
1E472
100
AcDbEntity
  8
DEFPOINTS
 62
     0
 48
50.0
100
AcDbPoint
 10
4697.128311290871
 20
5252.526764572682
 30
0.0
  0
POINT
  5
1E47A
330
1E472
100
AcDbEntity
  8
DEFPOINTS
 62
     0
 48
50.0
100
AcDbPoint
 10
4697.128311290871
 20
4862.526764572681
 30
0.0
  0
ENDBLK
  5
1E47C
330
1E472
100
AcDbEntity
  8
0
 48
50.0
100
AcDbBlockEnd
  0
BLOCK
  5
1E487
330
1E47D
100
AcDbEntity
  8
0
 48
50.0
100
AcDbBlockBegin
  2
*D11
 70
     1
 10
0.0
 20
0.0
 30
0.0
  3
*D11
  1

  0
LINE
  5
1E47E
330
1E47D
100
AcDbEntity
  8
0
  6
ByBlock
 62
     0
 48
50.0
100
AcDbLine
 10
1655.128311290869
 20
5227.526764572682
 30
0.0
 11
1655.128311290869
 21
4387.526764572681
 31
0.0
  0
LINE
  5
1E47F
330
1E47D
100
AcDbEntity
  8
0
  6
ByBlock
 62
     0
 48
50.0
100
AcDbLine
 10
4697.128311290871
 20
5227.526764572682
 30
0.0
 11
4697.128311290871
 21
4387.526764572681
 31
0.0
  0
LINE
  5
1E480
330
1E47D
100
AcDbEntity
  8
0
  6
ByBlock
 62
     0
 48
50.0
100
AcDbLine
 10
1655.128311290869
 20
4462.526764572682
 30
0.0
 11
4697.128311290871
 21
4462.526764572682
 31
0.0
  0
INSERT
  5
1E481
330
1E47D
100
AcDbEntity
  8
0
  6
ByBlock
 62
     0
 48
50.0
100
AcDbBlockReference
  2
_DOTSMALL
 10
1655.128311290869
 20
4462.526764572682
 30
0.0
 41
125.0
 42
125.0
 43
125.0
 50
180.0
  0
INSERT
  5
1E482
330
1E47D
100
AcDbEntity
  8
0
  6
ByBlock
 62
     0
 48
50.0
100
AcDbBlockReference
  2
_DOTSMALL
 10
4697.128311290871
 20
4462.526764572682
 30
0.0
 41
125.0
 42
125.0
 43
125.0
  0
MTEXT
  5
1E483
330
1E47D
100
AcDbEntity
  8
0
  6
ByBlock
 62
     7
 48
50.0
100
AcDbMText
 10
3176.128311290871
 20
4562.541528352208
 30
0.0
 40
150.0
 41
0.0
 71
     5
 72
     5
  1
\A1;3042
  7
STYLE1
 73
     1
 44
1.0
1001
ACAD
1000
MTEXTBEGIN
1070
    73
1070
     1
1070
    44
1040
1.0
1070
    74
1070
     0
1000
MTEXTEND
  0
POINT
  5
1E484
330
1E47D
100
AcDbEntity
  8
DEFPOINTS
  6
ByBlock
 62
     0
 48
50.0
100
AcDbPoint
 10
1655.128311290869
 20
5252.526764572682
 30
0.0
  0
POINT
  5
1E485
330
1E47D
100
AcDbEntity
  8
DEFPOINTS
  6
ByBlock
 62
     0
 48
50.0
100
AcDbPoint
 10
4697.128311290871
 20
5252.526764572682
 30
0.0
  0
POINT
  5
1E486
330
1E47D
100
AcDbEntity
  8
DEFPOINTS
  6
ByBlock
 62
     0
 48
50.0
100
AcDbPoint
 10
4697.128311290871
 20
4462.526764572682
 30
0.0
  0
ENDBLK
  5
1E488
330
1E47D
100
AcDbEntity
  8
0
 48
50.0
100
AcDbBlockEnd
  0
BLOCK
  5
1E494
330
1E489
100
AcDbEntity
  8
0
 48
50.0
100
AcDbBlockBegin
  2
*D12
 70
     1
 10
0.0
 20
0.0
 30
0.0
  3
*D12
  1

  0
LINE
  5
1E48A
330
1E489
100
AcDbEntity
  8
0
  6
ByBlock
 62
     0
 48
50.0
100
AcDbLine
 10
11401.82862299235
 20
6968.72424288985
 30
0.0
 11
11401.82862299235
 21
6118.72424288985
 31
0.0
  0
LINE
  5
1E48B
330
1E489
100
AcDbEntity
  8
0
  6
ByBlock
 62
     0
 48
50.0
100
AcDbLine
 10
11456.82862299235
 20
6958.72424288985
 30
0.0
 11
11456.82862299235
 21
6118.72424288985
 31
0.0
  0
LINE
  5
1E48C
330
1E489
100
AcDbEntity
  8
0
  6
ByBlock
 62
     0
 48
50.0
100
AcDbLine
 10
11456.82862299235
 20
6193.72424288985
 30
0.0
 11
11401.82862299235
 21
6193.72424288985
 31
0.0
  0
LINE
  5
1E48D
330
1E489
100
AcDbEntity
  8
0
  6
ByBlock
 62
     0
 48
50.0
100
AcDbLine
 10
11401.82862299235
 20
6193.72424288985
 30
0.0
 11
10941.94673322857
 21
6193.72424288985
 31
0.0
  0
INSERT
  5
1E48E
330
1E489
100
AcDbEntity
  8
0
  6
ByBlock
 62
     0
 48
50.0
100
AcDbBlockReference
  2
_DOTSMALL
 10
11456.82862299235
 20
6193.72424288985
 30
0.0
 41
125.0
 42
125.0
 43
125.0
  0
INSERT
  5
1E48F
330
1E489
100
AcDbEntity
  8
0
  6
ByBlock
 62
     0
 48
50.0
100
AcDbBlockReference
  2
_DOTSMALL
 10
11401.82862299235
 20
6193.72424288985
 30
0.0
 41
125.0
 42
125.0
 43
125.0
 50
180.0
  0
MTEXT
  5
1E490
330
1E489
100
AcDbEntity
  8
0
  6
ByBlock
 62
     7
 48
50.0
100
AcDbMText
 10
11109.38767811048
 20
6301.22424288985
 30
0.0
 40
150.0
 41
0.0
 71
     5
 72
     5
  1
\A1;(55)
  7
STYLE1
 73
     1
 44
1.0
1001
ACAD
1000
MTEXTBEGIN
1070
    73
1070
     1
1070
    44
1040
1.0
1070
    74
1070
     0
1000
MTEXTEND
  0
POINT
  5
1E491
330
1E489
100
AcDbEntity
  8
DEFPOINTS
  6
ByBlock
 62
     0
 48
50.0
100
AcDbPoint
 10
11401.82862299235
 20
6993.72424288985
 30
0.0
  0
POINT
  5
1E492
330
1E489
100
AcDbEntity
  8
DEFPOINTS
  6
ByBlock
 62
     0
 48
50.0
100
AcDbPoint
 10
11456.82862299235
 20
6983.72424288985
 30
0.0
  0
POINT
  5
1E493
330
1E489
100
AcDbEntity
  8
DEFPOINTS
  6
ByBlock
 62
     0
 48
50.0
100
AcDbPoint
 10
11456.82862299235
 20
6193.72424288985
 30
0.0
  0
ENDBLK
  5
1E495
330
1E489
100
AcDbEntity
  8
0
 48
50.0
100
AcDbBlockEnd
  0
BLOCK
  5
1E4A1
330
1E496
100
AcDbEntity
  8
0
 48
50.0
100
AcDbBlockBegin
  2
*D13
 70
     1
 10
0.0
 20
0.0
 30
0.0
  3
*D13
  1

  0
LINE
  5
1E497
330
1E496
100
AcDbEntity
  8
0
  6
ByBlock
 62
     0
 48
50.0
100
AcDbLine
 10
13918.82862299235
 20
6958.72424288985
 30
0.0
 11
13918.82862299235
 21
6118.72424288985
 31
0.0
  0
LINE
  5
1E498
330
1E496
100
AcDbEntity
  8
0
  6
ByBlock
 62
     0
 48
50.0
100
AcDbLine
 10
13973.82862299237
 20
6968.72424288985
 30
0.0
 11
13973.82862299237
 21
6118.72424288985
 31
0.0
  0
LINE
  5
1E499
330
1E496
100
AcDbEntity
  8
0
  6
ByBlock
 62
     0
 48
50.0
100
AcDbLine
 10
13918.82862299235
 20
6193.72424288985
 30
0.0
 11
13973.82862299237
 21
6193.72424288985
 31
0.0
  0
LINE
  5
1E49A
330
1E496
100
AcDbEntity
  8
0
  6
ByBlock
 62
     0
 48
50.0
100
AcDbLine
 10
13973.82862299237
 20
6193.72424288985
 30
0.0
 11
14433.71051275615
 21
6193.72424288985
 31
0.0
  0
INSERT
  5
1E49B
330
1E496
100
AcDbEntity
  8
0
  6
ByBlock
 62
     0
 48
50.0
100
AcDbBlockReference
  2
_DOTSMALL
 10
13918.82862299235
 20
6193.72424288985
 30
0.0
 41
125.0
 42
125.0
 43
125.0
 50
180.0
  0
INSERT
  5
1E49C
330
1E496
100
AcDbEntity
  8
0
  6
ByBlock
 62
     0
 48
50.0
100
AcDbBlockReference
  2
_DOTSMALL
 10
13973.82862299237
 20
6193.72424288985
 30
0.0
 41
125.0
 42
125.0
 43
125.0
  0
MTEXT
  5
1E49D
330
1E496
100
AcDbEntity
  8
0
  6
ByBlock
 62
     7
 48
50.0
100
AcDbMText
 10
14266.26956787426
 20
6301.22424288985
 30
0.0
 40
150.0
 41
0.0
 71
     5
 72
     5
  1
\A1;(55)
  7
STYLE1
 73
     1
 44
1.0
1001
ACAD
1000
MTEXTBEGIN
1070
    73
1070
     1
1070
    44
1040
1.0
1070
    74
1070
     0
1000
MTEXTEND
  0
POINT
  5
1E49E
330
1E496
100
AcDbEntity
  8
DEFPOINTS
  6
ByBlock
 62
     0
 48
50.0
100
AcDbPoint
 10
13918.82862299235
 20
6983.72424288985
 30
0.0
  0
POINT
  5
1E49F
330
1E496
100
AcDbEntity
  8
DEFPOINTS
  6
ByBlock
 62
     0
 48
50.0
100
AcDbPoint
 10
13973.82862299237
 20
6993.72424288985
 30
0.0
  0
POINT
  5
1E4A0
330
1E496
100
AcDbEntity
  8
DEFPOINTS
  6
ByBlock
 62
     0
 48
50.0
100
AcDbPoint
 10
13973.82862299237
 20
6193.72424288985
 30
0.0
  0
ENDBLK
  5
1E4A2
330
1E496
100
AcDbEntity
  8
0
 48
50.0
100
AcDbBlockEnd
  0
BLOCK
  5
1E4AE
330
1E4A3
100
AcDbEntity
  8
0
 48
50.0
100
AcDbBlockBegin
  2
*D14
 70
     1
 10
0.0
 20
0.0
 30
0.0
  3
*D14
  1

  0
LINE
  5
1E4A4
330
1E4A3
100
AcDbEntity
  8
0
  6
ByBlock
 62
     0
 48
50.0
100
AcDbLine
 10
4867.128311290873
 20
5397.526764572681
 30
0.0
 11
5977.128311290871
 21
5397.526764572681
 31
0.0
  0
LINE
  5
1E4A5
330
1E4A3
100
AcDbEntity
  8
0
  6
ByBlock
 62
     0
 48
50.0
100
AcDbLine
 10
4777.128311290871
 20
5262.526764572681
 30
0.0
 11
5977.128311290871
 21
5262.526764572681
 31
0.0
  0
LINE
  5
1E4A6
330
1E4A3
100
AcDbEntity
  8
0
  6
ByBlock
 62
     0
 48
50.0
100
AcDbLine
 10
5902.128311290871
 20
5397.526764572681
 30
0.0
 11
5902.128311290871
 21
5262.526764572681
 31
0.0
  0
LINE
  5
1E4A7
330
1E4A3
100
AcDbEntity
  8
0
  6
ByBlock
 62
     0
 48
50.0
100
AcDbLine
 10
5902.128311290871
 20
5262.526764572681
 30
0.0
 11
5902.128311290871
 21
4727.644874808902
 31
0.0
  0
INSERT
  5
1E4A8
330
1E4A3
100
AcDbEntity
  8
0
  6
ByBlock
 62
     0
 48
50.0
100
AcDbBlockReference
  2
_DOTSMALL
 10
5902.128311290871
 20
5397.526764572681
 30
0.0
 41
125.0
 42
125.0
 43
125.0
 50
90.0
  0
INSERT
  5
1E4A9
330
1E4A3
100
AcDbEntity
  8
0
  6
ByBlock
 62
     0
 48
50.0
100
AcDbBlockReference
  2
_DOTSMALL
 10
5902.128311290871
 20
5262.526764572681
 30
0.0
 41
125.0
 42
125.0
 43
125.0
 50
270.0
  0
MTEXT
  5
1E4AA
330
1E4A3
100
AcDbEntity
  8
0
  6
ByBlock
 62
     7
 48
50.0
100
AcDbMText
 10
5794.628311290871
 20
4932.585819690793
 30
0.0
 40
150.0
 41
0.0
 71
     5
 72
     5
  1
\A1;(135)
  7
STYLE1
 11
0.0000000000000001
 21
1.0
 31
0.0
 73
     1
 44
1.0
1001
ACAD
1000
MTEXTBEGIN
1070
    73
1070
     1
1070
    44
1040
1.0
1070
    74
1070
     0
1000
MTEXTEND
  0
POINT
  5
1E4AB
330
1E4A3
100
AcDbEntity
  8
DEFPOINTS
  6
ByBlock
 62
     0
 48
50.0
100
AcDbPoint
 10
4842.128311290871
 20
5397.526764572681
 30
0.0
  0
POINT
  5
1E4AC
330
1E4A3
100
AcDbEntity
  8
DEFPOINTS
  6
ByBlock
 62
     0
 48
50.0
100
AcDbPoint
 10
4752.128311290871
 20
5262.526764572681
 30
0.0
  0
POINT
  5
1E4AD
330
1E4A3
100
AcDbEntity
  8
DEFPOINTS
  6
ByBlock
 62
     0
 48
50.0
100
AcDbPoint
 10
5902.128311290871
 20
5262.526764572681
 30
0.0
  0
ENDBLK
  5
1E4AF
330
1E4A3
100
AcDbEntity
  8
0
 48
50.0
100
AcDbBlockEnd
  0
BLOCK
  5
1E4BA
330
1E4B0
100
AcDbEntity
  8
0
 48
50.0
100
AcDbBlockBegin
  2
*D15
 70
     1
 10
0.0
 20
0.0
 30
0.0
  3
*D15
  1

  0
LINE
  5
1E4B1
330
1E4B0
100
AcDbEntity
  8
0
  6
ByBlock
 62
     0
 48
50.0
100
AcDbLine
 10
4867.128311290873
 20
7859.526764572682
 30
0.0
 11
5627.128311290871
 21
7859.526764572682
 31
0.0
  0
LINE
  5
1E4B2
330
1E4B0
100
AcDbEntity
  8
0
  6
ByBlock
 62
     0
 48
50.0
100
AcDbLine
 10
4722.128311290871
 20
7005.526764572682
 30
0.0
 11
5627.128311290871
 21
7005.526764572682
 31
0.0
  0
LINE
  5
1E4B3
330
1E4B0
100
AcDbEntity
  8
0
  6
ByBlock
 62
     0
 48
50.0
100
AcDbLine
 10
5552.128311290871
 20
7859.526764572682
 30
0.0
 11
5552.128311290871
 21
7005.526764572682
 31
0.0
  0
INSERT
  5
1E4B4
330
1E4B0
100
AcDbEntity
  8
0
  6
ByBlock
 62
     0
 48
50.0
100
AcDbBlockReference
  2
_DOTSMALL
 10
5552.128311290871
 20
7859.526764572682
 30
0.0
 41
125.0
 42
125.0
 43
125.0
 50
90.0
  0
INSERT
  5
1E4B5
330
1E4B0
100
AcDbEntity
  8
0
  6
ByBlock
 62
     0
 48
50.0
100
AcDbBlockReference
  2
_DOTSMALL
 10
5552.128311290871
 20
7005.526764572682
 30
0.0
 41
125.0
 42
125.0
 43
125.0
 50
270.0
  0
MTEXT
  5
1E4B6
330
1E4B0
100
AcDbEntity
  8
0
  6
ByBlock
 62
     7
 48
50.0
100
AcDbMText
 10
5452.128311290871
 20
7432.526764572682
 30
0.0
 40
150.0
 41
0.0
 71
     5
 72
     5
  1
\A1;854
  7
STYLE1
 11
0.0000000000000001
 21
1.0
 31
0.0
 73
     1
 44
1.0
1001
ACAD
1000
MTEXTBEGIN
1070
    73
1070
     1
1070
    44
1040
1.0
1070
    74
1070
     0
1000
MTEXTEND
  0
POINT
  5
1E4B7
330
1E4B0
100
AcDbEntity
  8
DEFPOINTS
  6
ByBlock
 62
     0
 48
50.0
100
AcDbPoint
 10
4842.128311290871
 20
7859.526764572682
 30
0.0
  0
POINT
  5
1E4B8
330
1E4B0
100
AcDbEntity
  8
DEFPOINTS
  6
ByBlock
 62
     0
 48
50.0
100
AcDbPoint
 10
4697.128311290871
 20
7005.526764572682
 30
0.0
  0
POINT
  5
1E4B9
330
1E4B0
100
AcDbEntity
  8
DEFPOINTS
  6
ByBlock
 62
     0
 48
50.0
100
AcDbPoint
 10
5552.128311290871
 20
7005.526764572682
 30
0.0
  0
ENDBLK
  5
1E4BB
330
1E4B0
100
AcDbEntity
  8
0
 48
50.0
100
AcDbBlockEnd
  0
BLOCK
  5
1E4C6
330
1E4BC
100
AcDbEntity
  8
0
 48
50.0
100
AcDbBlockBegin
  2
*D16
 70
     1
 10
0.0
 20
0.0
 30
0.0
  3
*D16
  1

  0
LINE
  5
1E4BD
330
1E4BC
100
AcDbEntity
  8
0
  6
ByBlock
 62
     0
 48
50.0
100
AcDbLine
 10
11556.82862299237
 20
9135.72424288985
 30
0.0
 11
11556.82862299237
 21
9480.72424288985
 31
0.0
  0
LINE
  5
1E4BE
330
1E4BC
100
AcDbEntity
  8
0
  6
ByBlock
 62
     0
 48
50.0
100
AcDbLine
 10
11356.82862299235
 20
9135.724242889851
 30
0.0
 11
11356.82862299235
 21
9480.72424288985
 31
0.0
  0
LINE
  5
1E4BF
330
1E4BC
100
AcDbEntity
  8
0
  6
ByBlock
 62
     0
 48
50.0
100
AcDbLine
 10
11556.82862299237
 20
9405.724242889851
 30
0.0
 11
11356.82862299235
 21
9405.724242889851
 31
0.0
  0
INSERT
  5
1E4C0
330
1E4BC
100
AcDbEntity
  8
0
  6
ByBlock
 62
     0
 48
50.0
100
AcDbBlockReference
  2
_DOTSMALL
 10
11556.82862299237
 20
9405.724242889851
 30
0.0
 41
125.0
 42
125.0
 43
125.0
  0
INSERT
  5
1E4C1
330
1E4BC
100
AcDbEntity
  8
0
  6
ByBlock
 62
     0
 48
50.0
100
AcDbBlockReference
  2
_DOTSMALL
 10
11356.82862299235
 20
9405.724242889851
 30
0.0
 41
125.0
 42
125.0
 43
125.0
 50
180.0
  0
MTEXT
  5
1E4C2
330
1E4BC
100
AcDbEntity
  8
0
  6
ByBlock
 62
     7
 48
50.0
100
AcDbMText
 10
11456.82862299235
 20
9505.739006669378
 30
0.0
 40
150.0
 41
0.0
 71
     5
 72
     5
  1
\A1;200
  7
STYLE1
 73
     1
 44
1.0
1001
ACAD
1000
MTEXTBEGIN
1070
    73
1070
     1
1070
    44
1040
1.0
1070
    74
1070
     0
1000
MTEXTEND
  0
POINT
  5
1E4C3
330
1E4BC
100
AcDbEntity
  8
DEFPOINTS
  6
ByBlock
 62
     0
 48
50.0
100
AcDbPoint
 10
11556.82862299237
 20
9110.724242889849
 30
0.0
  0
POINT
  5
1E4C4
330
1E4BC
100
AcDbEntity
  8
DEFPOINTS
  6
ByBlock
 62
     0
 48
50.0
100
AcDbPoint
 10
11356.82862299235
 20
9110.724242889851
 30
0.0
  0
POINT
  5
1E4C5
330
1E4BC
100
AcDbEntity
  8
DEFPOINTS
  6
ByBlock
 62
     0
 48
50.0
100
AcDbPoint
 10
11356.82862299235
 20
9405.724242889851
 30
0.0
  0
ENDBLK
  5
1E4C7
330
1E4BC
100
AcDbEntity
  8
0
 48
50.0
100
AcDbBlockEnd
  0
BLOCK
  5
1E4D2
330
1E4C8
100
AcDbEntity
  8
0
 48
50.0
100
AcDbBlockBegin
  2
*D17
 70
     1
 10
0.0
 20
0.0
 30
0.0
  3
*D17
  1

  0
LINE
  5
1E4C9
330
1E4C8
100
AcDbEntity
  8
0
  6
ByBlock
 62
     0
 48
50.0
100
AcDbLine
 10
11331.82862299237
 20
9110.724242889849
 30
0.0
 11
11026.82862299235
 21
9110.724242889849
 31
0.0
  0
LINE
  5
1E4CA
330
1E4C8
100
AcDbEntity
  8
0
  6
ByBlock
 62
     0
 48
50.0
100
AcDbLine
 10
11331.82862299237
 20
8910.72424288985
 30
0.0
 11
11026.82862299235
 21
8910.72424288985
 31
0.0
  0
LINE
  5
1E4CB
330
1E4C8
100
AcDbEntity
  8
0
  6
ByBlock
 62
     0
 48
50.0
100
AcDbLine
 10
11101.82862299235
 20
9110.724242889849
 30
0.0
 11
11101.82862299235
 21
8910.72424288985
 31
0.0
  0
INSERT
  5
1E4CC
330
1E4C8
100
AcDbEntity
  8
0
  6
ByBlock
 62
     0
 48
50.0
100
AcDbBlockReference
  2
_DOTSMALL
 10
11101.82862299235
 20
9110.724242889849
 30
0.0
 41
125.0
 42
125.0
 43
125.0
 50
90.0
  0
INSERT
  5
1E4CD
330
1E4C8
100
AcDbEntity
  8
0
  6
ByBlock
 62
     0
 48
50.0
100
AcDbBlockReference
  2
_DOTSMALL
 10
11101.82862299235
 20
8910.72424288985
 30
0.0
 41
125.0
 42
125.0
 43
125.0
 50
270.0
  0
MTEXT
  5
1E4CE
330
1E4C8
100
AcDbEntity
  8
0
  6
ByBlock
 62
     7
 48
50.0
100
AcDbMText
 10
11001.81385921284
 20
9010.72424288985
 30
0.0
 40
150.0
 41
0.0
 71
     5
 72
     5
  1
\A1;200
  7
STYLE1
 11
0.0000000000000001
 21
1.0
 31
0.0
 73
     1
 44
1.0
1001
ACAD
1000
MTEXTBEGIN
1070
    73
1070
     1
1070
    44
1040
1.0
1070
    74
1070
     0
1000
MTEXTEND
  0
POINT
  5
1E4CF
330
1E4C8
100
AcDbEntity
  8
DEFPOINTS
  6
ByBlock
 62
     0
 48
50.0
100
AcDbPoint
 10
11356.82862299235
 20
9110.724242889849
 30
0.0
  0
POINT
  5
1E4D0
330
1E4C8
100
AcDbEntity
  8
DEFPOINTS
  6
ByBlock
 62
     0
 48
50.0
100
AcDbPoint
 10
11356.82862299235
 20
8910.72424288985
 30
0.0
  0
POINT
  5
1E4D1
330
1E4C8
100
AcDbEntity
  8
DEFPOINTS
  6
ByBlock
 62
     0
 48
50.0
100
AcDbPoint
 10
11101.82862299235
 20
8910.72424288985
 30
0.0
  0
ENDBLK
  5
1E4D3
330
1E4C8
100
AcDbEntity
  8
0
 48
50.0
100
AcDbBlockEnd
  0
BLOCK
  5
1E4DF
330
1E4D4
100
AcDbEntity
  8
0
 48
50.0
100
AcDbBlockBegin
  2
*D18
 70
     1
 10
0.0
 20
0.0
 30
0.0
  3
*D18
  1

  0
LINE
  5
1E4D5
330
1E4D4
100
AcDbEntity
  8
0
  6
ByBlock
 62
     0
 48
50.0
100
AcDbLine
 10
4867.128311290873
 20
7859.526764572682
 30
0.0
 11
5977.128311290871
 21
7859.526764572682
 31
0.0
  0
LINE
  5
1E4D6
330
1E4D4
100
AcDbEntity
  8
0
  6
ByBlock
 62
     0
 48
50.0
100
AcDbLine
 10
4777.128311290871
 20
7954.52676457268
 30
0.0
 11
5977.128311290871
 21
7954.52676457268
 31
0.0
  0
LINE
  5
1E4D7
330
1E4D4
100
AcDbEntity
  8
0
  6
ByBlock
 62
     0
 48
50.0
100
AcDbLine
 10
5902.128311290871
 20
7859.526764572682
 30
0.0
 11
5902.128311290871
 21
7954.52676457268
 31
0.0
  0
LINE
  5
1E4D8
330
1E4D4
100
AcDbEntity
  8
0
  6
ByBlock
 62
     0
 48
50.0
100
AcDbLine
 10
5902.128311290871
 20
7954.52676457268
 30
0.0
 11
5902.128311290871
 21
8414.932803910602
 31
0.0
  0
INSERT
  5
1E4D9
330
1E4D4
100
AcDbEntity
  8
0
  6
ByBlock
 62
     0
 48
50.0
100
AcDbBlockReference
  2
_DOTSMALL
 10
5902.128311290871
 20
7859.526764572682
 30
0.0
 41
125.0
 42
125.0
 43
125.0
 50
270.0
  0
INSERT
  5
1E4DA
330
1E4D4
100
AcDbEntity
  8
0
  6
ByBlock
 62
     0
 48
50.0
100
AcDbBlockReference
  2
_DOTSMALL
 10
5902.128311290871
 20
7954.52676457268
 30
0.0
 41
125.0
 42
125.0
 43
125.0
 50
90.0
  0
MTEXT
  5
1E4DB
330
1E4D4
100
AcDbEntity
  8
0
  6
ByBlock
 62
     7
 48
50.0
100
AcDbMText
 10
5794.592059364394
 20
8247.229784241641
 30
0.0
 40
150.0
 41
0.0
 71
     5
 72
     5
  1
\A1;(95)
  7
STYLE1
 11
0.0000000000000001
 21
1.0
 31
0.0
 73
     1
 44
1.0
1001
ACAD
1000
MTEXTBEGIN
1070
    73
1070
     1
1070
    44
1040
1.0
1070
    74
1070
     0
1000
MTEXTEND
  0
POINT
  5
1E4DC
330
1E4D4
100
AcDbEntity
  8
DEFPOINTS
  6
ByBlock
 62
     0
 48
50.0
100
AcDbPoint
 10
4842.128311290871
 20
7859.526764572682
 30
0.0
  0
POINT
  5
1E4DD
330
1E4D4
100
AcDbEntity
  8
DEFPOINTS
  6
ByBlock
 62
     0
 48
50.0
100
AcDbPoint
 10
4752.128311290871
 20
7954.52676457268
 30
0.0
  0
POINT
  5
1E4DE
330
1E4D4
100
AcDbEntity
  8
DEFPOINTS
  6
ByBlock
 62
     0
 48
50.0
100
AcDbPoint
 10
5902.128311290871
 20
7954.52676457268
 30
0.0
  0
ENDBLK
  5
1E4E0
330
1E4D4
100
AcDbEntity
  8
0
 48
50.0
100
AcDbBlockEnd
  0
BLOCK
  5
1E4EB
330
1E4E1
100
AcDbEntity
  8
0
 48
50.0
100
AcDbBlockBegin
  2
*D19
 70
     1
 10
0.0
 20
0.0
 30
0.0
  3
*D19
  1

  0
LINE
  5
1E4E2
330
1E4E1
100
AcDbEntity
  8
0
  6
ByBlock
 62
     0
 48
50.0
100
AcDbLine
 10
4722.128311290871
 20
6251.52676457268
 30
0.0
 11
5627.128311290871
 21
6251.52676457268
 31
0.0
  0
LINE
  5
1E4E3
330
1E4E1
100
AcDbEntity
  8
0
  6
ByBlock
 62
     0
 48
50.0
100
AcDbLine
 10
4722.128311290871
 20
7005.526764572682
 30
0.0
 11
5627.128311290871
 21
7005.526764572682
 31
0.0
  0
LINE
  5
1E4E4
330
1E4E1
100
AcDbEntity
  8
0
  6
ByBlock
 62
     0
 48
50.0
100
AcDbLine
 10
5552.128311290871
 20
6251.52676457268
 30
0.0
 11
5552.128311290871
 21
7005.526764572682
 31
0.0
  0
INSERT
  5
1E4E5
330
1E4E1
100
AcDbEntity
  8
0
  6
ByBlock
 62
     0
 48
50.0
100
AcDbBlockReference
  2
_DOTSMALL
 10
5552.128311290871
 20
6251.52676457268
 30
0.0
 41
125.0
 42
125.0
 43
125.0
 50
270.0
  0
INSERT
  5
1E4E6
330
1E4E1
100
AcDbEntity
  8
0
  6
ByBlock
 62
     0
 48
50.0
100
AcDbBlockReference
  2
_DOTSMALL
 10
5552.128311290871
 20
7005.526764572682
 30
0.0
 41
125.0
 42
125.0
 43
125.0
 50
90.0
  0
MTEXT
  5
1E4E7
330
1E4E1
100
AcDbEntity
  8
0
  6
ByBlock
 62
     7
 48
50.0
100
AcDbMText
 10
5452.12831129087
 20
6628.526764572682
 30
0.0
 40
150.0
 41
0.0
 71
     5
 72
     5
  1
\A1;754
  7
STYLE1
 11
0.0000000000000001
 21
1.0
 31
0.0
 73
     1
 44
1.0
1001
ACAD
1000
MTEXTBEGIN
1070
    73
1070
     1
1070
    44
1040
1.0
1070
    74
1070
     0
1000
MTEXTEND
  0
POINT
  5
1E4E8
330
1E4E1
100
AcDbEntity
  8
DEFPOINTS
  6
ByBlock
 62
     0
 48
50.0
100
AcDbPoint
 10
4697.128311290871
 20
6251.52676457268
 30
0.0
  0
POINT
  5
1E4E9
330
1E4E1
100
AcDbEntity
  8
DEFPOINTS
  6
ByBlock
 62
     0
 48
50.0
100
AcDbPoint
 10
4697.128311290871
 20
7005.526764572682
 30
0.0
  0
POINT
  5
1E4EA
330
1E4E1
100
AcDbEntity
  8
DEFPOINTS
  6
ByBlock
 62
     0
 48
50.0
100
AcDbPoint
 10
5552.128311290871
 20
7005.526764572682
 30
0.0
  0
ENDBLK
  5
1E4EC
330
1E4E1
100
AcDbEntity
  8
0
 48
50.0
100
AcDbBlockEnd
  0
BLOCK
  5
1E4F6
330
1E4ED
100
AcDbEntity
  8
0
 48
50.0
100
AcDbBlockBegin
  2
*D20
 70
     1
 10
0.0
 20
0.0
 30
0.0
  3
*D20
  1

  0
LINE
  5
1E4EE
330
1E4ED
100
AcDbEntity
  8
寸法
 62
     0
 48
50.0
100
AcDbLine
 10
2267.128311290873
 20
6193.526764572681
 30
0.0
 11
825.1283112908694
 21
6193.526764572681
 31
0.0
  0
LINE
  5
1E4EF
330
1E4ED
100
AcDbEntity
  8
寸法
 62
     0
 48
50.0
100
AcDbLine
 10
900.1283112908696
 20
6628.526764572683
 30
0.0
 11
900.1283112908694
 21
6193.526764572681
 31
0.0
  0
INSERT
  5
1E4F0
330
1E4ED
100
AcDbEntity
  8
寸法
 62
     0
 48
50.0
100
AcDbBlockReference
  2
_DOTSMALL
 10
900.1283112908696
 20
6628.526764572683
 30
0.0
 41
125.0
 42
125.0
 43
125.0
 50
90.0
  0
INSERT
  5
1E4F1
330
1E4ED
100
AcDbEntity
  8
寸法
 62
     0
 48
50.0
100
AcDbBlockReference
  2
_DOTSMALL
 10
900.1283112908694
 20
6193.526764572681
 30
0.0
 41
125.0
 42
125.0
 43
125.0
 50
270.0
  0
MTEXT
  5
1E4F2
330
1E4ED
100
AcDbEntity
  8
寸法
 62
     7
 48
50.0
100
AcDbMText
 10
800.1283112908685
 20
6411.026764572682
 30
0.0
 40
150.0
 41
0.0
 71
     5
 72
     5
  1
\A1;435
  7
STYLE1
 11
0.0000000000000001
 21
1.0
 31
0.0
 73
     1
 44
1.0
  0
POINT
  5
1E4F3
330
1E4ED
100
AcDbEntity
  8
DEFPOINTS
 62
     0
 48
50.0
100
AcDbPoint
 10
2292.128311290873
 20
6628.526764572682
 30
0.0
  0
POINT
  5
1E4F4
330
1E4ED
100
AcDbEntity
  8
DEFPOINTS
 62
     0
 48
50.0
100
AcDbPoint
 10
2292.128311290873
 20
6193.526764572681
 30
0.0
  0
POINT
  5
1E4F5
330
1E4ED
100
AcDbEntity
  8
DEFPOINTS
 62
     0
 48
50.0
100
AcDbPoint
 10
900.1283112908694
 20
6193.526764572681
 30
0.0
  0
ENDBLK
  5
1E4F7
330
1E4ED
100
AcDbEntity
  8
0
 48
50.0
100
AcDbBlockEnd
  0
BLOCK
  5
1E503
330
1E4F8
100
AcDbEntity
  8
0
 48
50.0
100
AcDbBlockBegin
  2
*D21
 70
     1
 10
0.0
 20
0.0
 30
0.0
  3
*D21
  1

  0
LINE
  5
1E4F9
330
1E4F8
100
AcDbEntity
  8
0
  6
ByBlock
 62
     0
 48
50.0
100
AcDbLine
 10
1485.128311290869
 20
5397.526764572681
 30
0.0
 11
825.1283112908676
 21
5397.526764572681
 31
0.0
  0
LINE
  5
1E4FA
330
1E4F8
100
AcDbEntity
  8
0
  6
ByBlock
 62
     0
 48
50.0
100
AcDbLine
 10
2212.128311290873
 20
5332.526764572682
 30
0.0
 11
825.1283112908676
 21
5332.526764572682
 31
0.0
  0
LINE
  5
1E4FB
330
1E4F8
100
AcDbEntity
  8
0
  6
ByBlock
 62
     0
 48
50.0
100
AcDbLine
 10
900.1283112908676
 20
5397.526764572681
 30
0.0
 11
900.1283112908676
 21
5332.526764572682
 31
0.0
  0
LINE
  5
1E4FC
330
1E4F8
100
AcDbEntity
  8
0
  6
ByBlock
 62
     0
 48
50.0
100
AcDbLine
 10
900.1283112908676
 20
5332.526764572682
 30
0.0
 11
900.1283112908676
 21
4423.813561137087
 31
0.0
  0
INSERT
  5
1E4FD
330
1E4F8
100
AcDbEntity
  8
0
  6
ByBlock
 62
     0
 48
50.0
100
AcDbBlockReference
  2
_DOTSMALL
 10
900.1283112908676
 20
5397.526764572681
 30
0.0
 41
125.0
 42
125.0
 43
125.0
 50
90.0
  0
INSERT
  5
1E4FE
330
1E4F8
100
AcDbEntity
  8
0
  6
ByBlock
 62
     0
 48
50.0
100
AcDbBlockReference
  2
_DOTSMALL
 10
900.1283112908676
 20
5332.526764572682
 30
0.0
 41
125.0
 42
125.0
 43
125.0
 50
270.0
  0
MTEXT
  5
1E4FF
330
1E4F8
100
AcDbEntity
  8
0
  6
ByBlock
 62
     7
 48
50.0
100
AcDbMText
 10
800.1283112908676
 20
4815.670162854885
 30
0.0
 40
150.0
 41
0.0
 71
     5
 72
     5
  1
\A1;扉の出65
  7
STYLE1
 11
0.0000000000000001
 21
1.0
 31
0.0
 73
     1
 44
1.0
1001
ACAD
1000
MTEXTBEGIN
1070
    73
1070
     1
1070
    44
1040
1.0
1070
    74
1070
     0
1000
MTEXTEND
  0
POINT
  5
1E500
330
1E4F8
100
AcDbEntity
  8
DEFPOINTS
  6
ByBlock
 62
     0
 48
50.0
100
AcDbPoint
 10
1510.128311290869
 20
5397.526764572681
 30
0.0
  0
POINT
  5
1E501
330
1E4F8
100
AcDbEntity
  8
DEFPOINTS
  6
ByBlock
 62
     0
 48
50.0
100
AcDbPoint
 10
2237.128311290873
 20
5332.526764572682
 30
0.0
  0
POINT
  5
1E502
330
1E4F8
100
AcDbEntity
  8
DEFPOINTS
  6
ByBlock
 62
     0
 48
50.0
100
AcDbPoint
 10
900.1283112908676
 20
5332.526764572682
 30
0.0
  0
ENDBLK
  5
1E504
330
1E4F8
100
AcDbEntity
  8
0
 48
50.0
100
AcDbBlockEnd
  0
BLOCK
  5
1E50E
330
1E505
100
AcDbEntity
  8
0
 48
50.0
100
AcDbBlockBegin
  2
*D22
 70
     1
 10
0.0
 20
0.0
 30
0.0
  3
*D22
  1

  0
LINE
  5
1E506
330
1E505
100
AcDbEntity
  8
寸法
 62
     0
 48
50.0
100
AcDbLine
 10
1485.128311290869
 20
5397.526764572681
 30
0.0
 11
825.1283112908694
 21
5397.526764572681
 31
0.0
  0
LINE
  5
1E507
330
1E505
100
AcDbEntity
  8
寸法
 62
     0
 48
50.0
100
AcDbLine
 10
900.1283112908694
 20
5758.526764572684
 30
0.0
 11
900.1283112908694
 21
5397.526764572681
 31
0.0
  0
INSERT
  5
1E508
330
1E505
100
AcDbEntity
  8
寸法
 62
     0
 48
50.0
100
AcDbBlockReference
  2
_DOTSMALL
 10
900.1283112908694
 20
5758.526764572684
 30
0.0
 41
125.0
 42
125.0
 43
125.0
 50
90.0
  0
INSERT
  5
1E509
330
1E505
100
AcDbEntity
  8
寸法
 62
     0
 48
50.0
100
AcDbBlockReference
  2
_DOTSMALL
 10
900.1283112908694
 20
5397.526764572681
 30
0.0
 41
125.0
 42
125.0
 43
125.0
 50
270.0
  0
MTEXT
  5
1E50A
330
1E505
100
AcDbEntity
  8
寸法
 62
     7
 48
50.0
100
AcDbMText
 10
800.1283112908685
 20
5578.026764572681
 30
0.0
 40
150.0
 41
0.0
 71
     5
 72
     5
  1
\A1;361
  7
STYLE1
 11
0.0000000000000001
 21
1.0
 31
0.0
 73
     1
 44
1.0
  0
POINT
  5
1E50B
330
1E505
100
AcDbEntity
  8
DEFPOINTS
 62
     0
 48
50.0
100
AcDbPoint
 10
2292.128311290873
 20
5758.526764572682
 30
0.0
  0
POINT
  5
1E50C
330
1E505
100
AcDbEntity
  8
DEFPOINTS
 62
     0
 48
50.0
100
AcDbPoint
 10
1510.128311290869
 20
5397.526764572681
 30
0.0
  0
POINT
  5
1E50D
330
1E505
100
AcDbEntity
  8
DEFPOINTS
 62
     0
 48
50.0
100
AcDbPoint
 10
900.1283112908694
 20
5397.526764572681
 30
0.0
  0
ENDBLK
  5
1E50F
330
1E505
100
AcDbEntity
  8
0
 48
50.0
100
AcDbBlockEnd
  0
BLOCK
  5
1E519
330
1E510
100
AcDbEntity
  8
0
 48
50.0
100
AcDbBlockBegin
  2
*D23
 70
     1
 10
0.0
 20
0.0
 30
0.0
  3
*D23
  1

  0
LINE
  5
1E511
330
1E510
100
AcDbEntity
  8
寸法
 62
     0
 48
50.0
100
AcDbLine
 10
2267.128311290873
 20
5758.526764572682
 30
0.0
 11
825.1283112908694
 21
5758.526764572684
 31
0.0
  0
LINE
  5
1E512
330
1E510
100
AcDbEntity
  8
寸法
 62
     0
 48
50.0
100
AcDbLine
 10
900.1283112908696
 20
6193.526764572681
 30
0.0
 11
900.1283112908694
 21
5758.526764572684
 31
0.0
  0
INSERT
  5
1E513
330
1E510
100
AcDbEntity
  8
寸法
 62
     0
 48
50.0
100
AcDbBlockReference
  2
_DOTSMALL
 10
900.1283112908696
 20
6193.526764572681
 30
0.0
 41
125.0
 42
125.0
 43
125.0
 50
90.0
  0
INSERT
  5
1E514
330
1E510
100
AcDbEntity
  8
寸法
 62
     0
 48
50.0
100
AcDbBlockReference
  2
_DOTSMALL
 10
900.1283112908694
 20
5758.526764572684
 30
0.0
 41
125.0
 42
125.0
 43
125.0
 50
270.0
  0
MTEXT
  5
1E515
330
1E510
100
AcDbEntity
  8
寸法
 62
     7
 48
50.0
100
AcDbMText
 10
800.1283112908685
 20
5976.026764572683
 30
0.0
 40
150.0
 41
0.0
 71
     5
 72
     5
  1
\A1;435
  7
STYLE1
 11
0.0000000000000001
 21
1.0
 31
0.0
 73
     1
 44
1.0
  0
POINT
  5
1E516
330
1E510
100
AcDbEntity
  8
DEFPOINTS
 62
     0
 48
50.0
100
AcDbPoint
 10
2292.128311290873
 20
6193.526764572681
 30
0.0
  0
POINT
  5
1E517
330
1E510
100
AcDbEntity
  8
DEFPOINTS
 62
     0
 48
50.0
100
AcDbPoint
 10
2292.128311290873
 20
5758.526764572682
 30
0.0
  0
POINT
  5
1E518
330
1E510
100
AcDbEntity
  8
DEFPOINTS
 62
     0
 48
50.0
100
AcDbPoint
 10
900.1283112908694
 20
5758.526764572684
 30
0.0
  0
ENDBLK
  5
1E51A
330
1E510
100
AcDbEntity
  8
0
 48
50.0
100
AcDbBlockEnd
  0
BLOCK
  5
1E525
330
1E51B
100
AcDbEntity
  8
0
 48
50.0
100
AcDbBlockBegin
  2
*D24
 70
     1
 10
0.0
 20
0.0
 30
0.0
  3
*D24
  1

  0
LINE
  5
1E51C
330
1E51B
100
AcDbEntity
  8
0
  6
ByBlock
 62
     0
 48
50.0
100
AcDbLine
 10
1100.098783731815
 20
7859.526764572682
 30
0.0
 11
825.1283112908694
 21
7859.526764572682
 31
0.0
  0
LINE
  5
1E51D
330
1E51B
100
AcDbEntity
  8
0
  6
ByBlock
 62
     0
 48
50.0
100
AcDbLine
 10
2267.128311290873
 20
7498.526764572682
 30
0.0
 11
825.1283112908694
 21
7498.526764572682
 31
0.0
  0
LINE
  5
1E51E
330
1E51B
100
AcDbEntity
  8
0
  6
ByBlock
 62
     0
 48
50.0
100
AcDbLine
 10
900.1283112908694
 20
7859.526764572682
 30
0.0
 11
900.1283112908694
 21
7498.526764572682
 31
0.0
  0
INSERT
  5
1E51F
330
1E51B
100
AcDbEntity
  8
0
  6
ByBlock
 62
     0
 48
50.0
100
AcDbBlockReference
  2
_DOTSMALL
 10
900.1283112908694
 20
7859.526764572682
 30
0.0
 41
125.0
 42
125.0
 43
125.0
 50
90.0
  0
INSERT
  5
1E520
330
1E51B
100
AcDbEntity
  8
0
  6
ByBlock
 62
     0
 48
50.0
100
AcDbBlockReference
  2
_DOTSMALL
 10
900.1283112908694
 20
7498.526764572682
 30
0.0
 41
125.0
 42
125.0
 43
125.0
 50
270.0
  0
MTEXT
  5
1E521
330
1E51B
100
AcDbEntity
  8
0
  6
ByBlock
 62
     7
 48
50.0
100
AcDbMText
 10
800.1283112908694
 20
7679.026764572681
 30
0.0
 40
150.0
 41
0.0
 71
     5
 72
     5
  1
\A1;361
  7
STYLE1
 11
0.0000000000000001
 21
1.0
 31
0.0
 73
     1
 44
1.0
1001
ACAD
1000
MTEXTBEGIN
1070
    73
1070
     1
1070
    44
1040
1.0
1070
    74
1070
     0
1000
MTEXTEND
  0
POINT
  5
1E522
330
1E51B
100
AcDbEntity
  8
DEFPOINTS
  6
ByBlock
 62
     0
 48
50.0
100
AcDbPoint
 10
1125.098783731815
 20
7859.526764572682
 30
0.0
  0
POINT
  5
1E523
330
1E51B
100
AcDbEntity
  8
DEFPOINTS
  6
ByBlock
 62
     0
 48
50.0
100
AcDbPoint
 10
2292.128311290873
 20
7498.526764572682
 30
0.0
  0
POINT
  5
1E524
330
1E51B
100
AcDbEntity
  8
DEFPOINTS
  6
ByBlock
 62
     0
 48
50.0
100
AcDbPoint
 10
900.1283112908694
 20
7498.526764572682
 30
0.0
  0
ENDBLK
  5
1E526
330
1E51B
100
AcDbEntity
  8
0
 48
50.0
100
AcDbBlockEnd
  0
BLOCK
  5
1E530
330
1E527
100
AcDbEntity
  8
0
 48
50.0
100
AcDbBlockBegin
  2
*D25
 70
     1
 10
0.0
 20
0.0
 30
0.0
  3
*D25
  1

  0
LINE
  5
1E528
330
1E527
100
AcDbEntity
  8
寸法
 62
     0
 48
50.0
100
AcDbLine
 10
2267.128311290873
 20
6628.526764572682
 30
0.0
 11
825.1283112908696
 21
6628.526764572683
 31
0.0
  0
LINE
  5
1E529
330
1E527
100
AcDbEntity
  8
寸法
 62
     0
 48
50.0
100
AcDbLine
 10
900.1283112908696
 20
7063.526764572682
 30
0.0
 11
900.1283112908694
 21
6628.526764572683
 31
0.0
  0
INSERT
  5
1E52A
330
1E527
100
AcDbEntity
  8
寸法
 62
     0
 48
50.0
100
AcDbBlockReference
  2
_DOTSMALL
 10
900.1283112908696
 20
7063.526764572682
 30
0.0
 41
125.0
 42
125.0
 43
125.0
 50
90.0
  0
INSERT
  5
1E52B
330
1E527
100
AcDbEntity
  8
寸法
 62
     0
 48
50.0
100
AcDbBlockReference
  2
_DOTSMALL
 10
900.1283112908694
 20
6628.526764572683
 30
0.0
 41
125.0
 42
125.0
 43
125.0
 50
270.0
  0
MTEXT
  5
1E52C
330
1E527
100
AcDbEntity
  8
寸法
 62
     7
 48
50.0
100
AcDbMText
 10
800.1283112908685
 20
6846.026764572683
 30
0.0
 40
150.0
 41
0.0
 71
     5
 72
     5
  1
\A1;435
  7
STYLE1
 11
0.0000000000000001
 21
1.0
 31
0.0
 73
     1
 44
1.0
  0
POINT
  5
1E52D
330
1E527
100
AcDbEntity
  8
DEFPOINTS
 62
     0
 48
50.0
100
AcDbPoint
 10
2292.128311290873
 20
7063.526764572682
 30
0.0
  0
POINT
  5
1E52E
330
1E527
100
AcDbEntity
  8
DEFPOINTS
 62
     0
 48
50.0
100
AcDbPoint
 10
2292.128311290873
 20
6628.526764572682
 30
0.0
  0
POINT
  5
1E52F
330
1E527
100
AcDbEntity
  8
DEFPOINTS
 62
     0
 48
50.0
100
AcDbPoint
 10
900.1283112908694
 20
6628.526764572683
 30
0.0
  0
ENDBLK
  5
1E531
330
1E527
100
AcDbEntity
  8
0
 48
50.0
100
AcDbBlockEnd
  0
BLOCK
  5
1E53B
330
1E532
100
AcDbEntity
  8
0
 48
50.0
100
AcDbBlockBegin
  2
*D26
 70
     1
 10
0.0
 20
0.0
 30
0.0
  3
*D26
  1

  0
LINE
  5
1E533
330
1E532
100
AcDbEntity
  8
寸法
 62
     0
 48
50.0
100
AcDbLine
 10
2267.128311290873
 20
7063.526764572682
 30
0.0
 11
825.1283112908694
 21
7063.526764572682
 31
0.0
  0
LINE
  5
1E534
330
1E532
100
AcDbEntity
  8
寸法
 62
     0
 48
50.0
100
AcDbLine
 10
900.1283112908696
 20
7498.526764572682
 30
0.0
 11
900.1283112908694
 21
7063.526764572682
 31
0.0
  0
INSERT
  5
1E535
330
1E532
100
AcDbEntity
  8
寸法
 62
     0
 48
50.0
100
AcDbBlockReference
  2
_DOTSMALL
 10
900.1283112908696
 20
7498.526764572682
 30
0.0
 41
125.0
 42
125.0
 43
125.0
 50
90.0
  0
INSERT
  5
1E536
330
1E532
100
AcDbEntity
  8
寸法
 62
     0
 48
50.0
100
AcDbBlockReference
  2
_DOTSMALL
 10
900.1283112908694
 20
7063.526764572682
 30
0.0
 41
125.0
 42
125.0
 43
125.0
 50
270.0
  0
MTEXT
  5
1E537
330
1E532
100
AcDbEntity
  8
寸法
 62
     7
 48
50.0
100
AcDbMText
 10
800.1283112908684
 20
7281.026764572685
 30
0.0
 40
150.0
 41
0.0
 71
     5
 72
     5
  1
\A1;435
  7
STYLE1
 11
0.0000000000000001
 21
1.0
 31
0.0
 73
     1
 44
1.0
  0
POINT
  5
1E538
330
1E532
100
AcDbEntity
  8
DEFPOINTS
 62
     0
 48
50.0
100
AcDbPoint
 10
2292.128311290873
 20
7498.526764572682
 30
0.0
  0
POINT
  5
1E539
330
1E532
100
AcDbEntity
  8
DEFPOINTS
 62
     0
 48
50.0
100
AcDbPoint
 10
2292.128311290873
 20
7063.526764572682
 30
0.0
  0
POINT
  5
1E53A
330
1E532
100
AcDbEntity
  8
DEFPOINTS
 62
     0
 48
50.0
100
AcDbPoint
 10
900.1283112908694
 20
7063.526764572682
 30
0.0
  0
ENDBLK
  5
1E53C
330
1E532
100
AcDbEntity
  8
0
 48
50.0
100
AcDbBlockEnd
  0
BLOCK
  5
1E5E9
330
1E53D
100
AcDbEntity
  8
0
 48
50.0
100
AcDbBlockBegin
  2
A$C2D9770E6
 70
     0
 10
0.0
 20
0.0
 30
0.0
  3
A$C2D9770E6
  1

  0
DIMENSION
  5
1E53E
330
1E53D
100
AcDbEntity
  8
寸法
 48
50.0
100
AcDbDimension
  2
*D26
 10
174.9999673753462
 20
3021.585416094418
 30
0.0
 11
74.99996737534525
 21
3239.08541609442
 31
0.0
 12
-725.128343915523
 22
-4041.941348478263
 32
0.0
 71
     5
 42
-1.0
  3
INABA_S50G
100
AcDbAlignedDimension
 13
1566.99996737535
 23
3456.585416094418
 33
0.0
 14
1566.99996737535
 24
3021.585416094418
 34
0.0
 50
90.0
100
AcDbRotatedDimension
1001
ACAD
1000
DSTYLE
1002
{
1070
   287
1070
     4
1070
    75
1070
     1
1070
   279
1070
     1
1002
}
  0
LINE
  5
1E53F
330
1E53D
100
AcDbEntity
  8
部品1
 48
50.0
100
AcDbLine
 10
3089.999967375346
 20
3356.585416094418
 30
0.0
 11
3089.999967375346
 21
3556.585416094418
 31
0.0
  0
LINE
  5
1E540
330
1E53D
100
AcDbEntity
  8
センター
 48
5.0
100
AcDbLine
 10
3189.999967375346
 20
3311.585416094418
 30
0.0
 11
3189.999967375346
 21
3601.585416094418
 31
0.0
  0
LINE
  5
1E541
330
1E53D
100
AcDbEntity
  8
部品1
 48
50.0
100
AcDbLine
 10
3289.999967375346
 20
3556.585416094418
 30
0.0
 11
3289.999967375346
 21
3356.585416094418
 31
0.0
  0
LINE
  5
1E542
330
1E53D
100
AcDbEntity
  8
部品1
 48
50.0
100
AcDbLine
 10
1611.99996737535
 20
3556.585416094418
 30
0.0
 11
1611.99996737535
 21
3356.585416094418
 31
0.0
  0
LINE
  5
1E543
330
1E53D
100
AcDbEntity
  8
センター
 48
5.0
100
AcDbLine
 10
1711.99996737535
 20
3311.585416094418
 30
0.0
 11
1711.99996737535
 21
3601.585416094418
 31
0.0
  0
LINE
  5
1E544
330
1E53D
100
AcDbEntity
  8
部品1
 48
50.0
100
AcDbLine
 10
1811.99996737535
 20
3356.585416094418
 30
0.0
 11
1811.99996737535
 21
3556.585416094418
 31
0.0
  0
DIMENSION
  5
1E545
330
1E53D
100
AcDbEntity
  8
寸法
 48
50.0
100
AcDbDimension
  2
*D15
 10
4826.999967375348
 20
2963.585416094418
 30
0.0
 11
4726.999967375347
 21
3390.585416094418
 31
0.0
 12
-725.128343915523
 22
-4041.941348478263
 32
0.0
 71
     5
 42
-1.0
  3
INABA_S50G
100
AcDbAlignedDimension
 13
4116.999967375348
 23
3817.585416094418
 33
0.0
 14
3971.999967375348
 24
2963.585416094418
 34
0.0
 50
90.0
100
AcDbRotatedDimension
  0
LINE
  5
1E546
330
1E53D
100
AcDbEntity
  8
想像線
 48
20.0
100
AcDbLine
 10
874.9999673753476
 20
3912.585416094417
 30
0.0
 11
874.9999673753476
 21
1220.585416094418
 31
0.0
  0
LINE
  5
1E547
330
1E53D
100
AcDbEntity
  8
想像線
 48
20.0
100
AcDbLine
 10
4026.999967375348
 20
1220.585416094418
 30
0.0
 11
4026.999967375348
 21
3912.585416094416
 31
0.0
  0
DIMENSION
  5
1E548
330
1E53D
100
AcDbEntity
  8
寸法
 48
50.0
100
AcDbDimension
  2
*D7
 10
5176.999967375348
 20
3817.585416094418
 30
0.0
 11
5076.985203595819
 21
2586.585416094418
 31
0.0
 12
-725.128343915523
 22
-4041.941348478263
 32
0.0
 71
     5
 42
-1.0
  3
INABA_S50G
100
AcDbAlignedDimension
 13
4116.999967375348
 23
1355.585416094418
 33
0.0
 14
4116.999967375348
 24
3817.585416094418
 34
0.0
 50
90.0
100
AcDbRotatedDimension
  0
LINE
  5
1E549
330
1E53D
100
AcDbEntity
  8
部品1
 48
50.0
100
AcDbLine
 10
3289.999967375346
 20
1616.585416094416
 30
0.0
 11
3089.999967375346
 21
1616.585416094416
 31
0.0
  0
LINE
  5
1E54A
330
1E53D
100
AcDbEntity
  8
部品1
 48
50.0
100
AcDbLine
 10
3089.999967375346
 20
1816.585416094417
 30
0.0
 11
3289.999967375346
 21
1816.585416094417
 31
0.0
  0
LINE
  5
1E54B
330
1E53D
100
AcDbEntity
  8
センター
 48
5.0
100
AcDbLine
 10
3044.999967375348
 20
1716.585416094418
 30
0.0
 11
3334.999967375348
 21
1716.585416094418
 31
0.0
  0
LINE
  5
1E54C
330
1E53D
100
AcDbEntity
  8
部品1
 48
50.0
100
AcDbLine
 10
3289.999967375346
 20
3356.585416094418
 30
0.0
 11
3089.999967375346
 21
3356.585416094418
 31
0.0
  0
LINE
  5
1E54D
330
1E53D
100
AcDbEntity
  8
部品1
 48
50.0
100
AcDbLine
 10
3089.999967375346
 20
3221.585416094418
 30
0.0
 11
3289.999967375346
 21
3221.585416094418
 31
0.0
  0
LINE
  5
1E54E
330
1E53D
100
AcDbEntity
  8
部品1
 48
50.0
100
AcDbLine
 10
3289.999967375346
 20
2821.585416094417
 30
0.0
 11
3089.999967375346
 21
2821.585416094417
 31
0.0
  0
LINE
  5
1E54F
330
1E53D
100
AcDbEntity
  8
部品1
 48
50.0
100
AcDbLine
 10
3289.999967375346
 20
2686.585416094418
 30
0.0
 11
3089.999967375346
 21
2686.585416094418
 31
0.0
  0
LINE
  5
1E550
330
1E53D
100
AcDbEntity
  8
部品1
 48
50.0
100
AcDbLine
 10
3089.999967375346
 20
2486.585416094416
 30
0.0
 11
3289.999967375346
 21
2486.585416094416
 31
0.0
  0
LINE
  5
1E551
330
1E53D
100
AcDbEntity
  8
部品1
 48
50.0
100
AcDbLine
 10
3289.999967375346
 20
2351.585416094418
 30
0.0
 11
3089.999967375346
 21
2351.585416094418
 31
0.0
  0
LINE
  5
1E552
330
1E53D
100
AcDbEntity
  8
部品1
 48
50.0
100
AcDbLine
 10
3089.999967375346
 20
1951.585416094417
 30
0.0
 11
3289.999967375346
 21
1951.585416094417
 31
0.0
  0
LINE
  5
1E553
330
1E53D
100
AcDbEntity
  8
センター
 48
5.0
100
AcDbLine
 10
3334.999967375348
 20
2151.585416094417
 30
0.0
 11
3044.999967375348
 21
2151.585416094417
 31
0.0
  0
LINE
  5
1E554
330
1E53D
100
AcDbEntity
  8
センター
 48
5.0
100
AcDbLine
 10
3044.999967375348
 20
2586.585416094418
 30
0.0
 11
3334.999967375348
 21
2586.585416094418
 31
0.0
  0
LINE
  5
1E555
330
1E53D
100
AcDbEntity
  8
センター
 48
5.0
100
AcDbLine
 10
3334.999967375348
 20
3021.585416094418
 30
0.0
 11
3044.999967375348
 21
3021.585416094418
 31
0.0
  0
LINE
  5
1E556
330
1E53D
100
AcDbEntity
  8
想像線
 48
20.0
100
AcDbLine
 10
874.9999673753476
 20
1220.585416094418
 30
0.0
 11
4026.999967375348
 21
1220.585416094418
 31
0.0
  0
DIMENSION
  5
1E557
330
1E53D
100
AcDbEntity
  8
寸法
 48
50.0
100
AcDbDimension
  2
*D11
 10
3971.999967375348
 20
420.5854160944181
 30
0.0
 11
2450.999967375347
 21
520.6001798739444
 31
0.0
 12
-725.128343915523
 22
-4041.941348478263
 32
0.0
 71
     5
 42
-1.0
  3
INABA_S50G
100
AcDbAlignedDimension
 13
929.9999673753466
 23
1210.585416094418
 33
0.0
 14
3971.999967375348
 24
1210.585416094418
 34
0.0
100
AcDbRotatedDimension
  0
DIMENSION
  5
1E558
330
1E53D
100
AcDbEntity
  8
寸法
 48
50.0
100
AcDbDimension
  2
*D10
 10
3971.999967375348
 20
820.5854160944181
 30
0.0
 11
3211.499967375348
 21
920.6001798739444
 31
0.0
 12
-725.128343915523
 22
-4041.941348478263
 32
0.0
 71
     5
 42
-1.0
  3
INABA_S50G
100
AcDbAlignedDimension
 13
2450.999967375347
 23
1355.585416094418
 33
0.0
 14
3971.999967375348
 24
1210.585416094418
 34
0.0
100
AcDbRotatedDimension
1001
ACAD
1000
DSTYLE
1002
{
1070
   287
1070
     4
1070
    75
1070
     1
1070
   279
1070
     1
1002
}
  0
DIMENSION
  5
1E559
330
1E53D
100
AcDbEntity
  8
寸法
 48
50.0
100
AcDbDimension
  2
*D21
 10
174.9999673753444
 20
1290.585416094418
 30
0.0
 11
174.9999673753444
 21
773.7288143766217
 31
0.0
 12
-725.128343915523
 22
-4041.941348478263
 32
0.0
 70
   128
  1
扉の出<>
 71
     5
 42
-1.0
  3
INABA_S50G
100
AcDbAlignedDimension
 13
784.9999673753459
 23
1355.585416094418
 33
0.0
 14
1511.99996737535
 24
1290.585416094418
 34
0.0
 50
90.0
100
AcDbRotatedDimension
  0
DIMENSION
  5
1E55A
330
1E53D
100
AcDbEntity
  8
寸法
 48
50.0
100
AcDbDimension
  2
*D12
 10
929.9999673753466
 20
420.5854160944181
 30
0.0
 11
582.5590224934568
 21
420.5854160944181
 31
0.0
 12
-10526.82865561702
 22
-5773.138826795431
 32
0.0
 70
   128
  1
(<>)
 71
     5
 42
-1.0
  3
INABA_S50G
100
AcDbAlignedDimension
 13
874.9999673753476
 23
1220.585416094418
 33
0.0
 14
929.9999673753466
 24
1210.585416094418
 34
0.0
100
AcDbRotatedDimension
  0
DIMENSION
  5
1E55B
330
1E53D
100
AcDbEntity
  8
寸法
 48
50.0
100
AcDbDimension
  2
*D8
 10
2450.999967375347
 20
820.5854160944181
 30
0.0
 11
1690.499967375347
 21
920.6001798739444
 31
0.0
 12
-725.128343915523
 22
-4041.941348478263
 32
0.0
 71
     5
 42
-1.0
  3
INABA_S50G
100
AcDbAlignedDimension
 13
929.9999673753466
 23
1210.585416094418
 33
0.0
 14
2450.999967375347
 24
1355.585416094418
 34
0.0
100
AcDbRotatedDimension
  0
TEXT
  5
1E55C
330
1E53D
100
AcDbEntity
  8
寸法
 48
50.0
100
AcDbText
 10
1891.909058284438
 20
46.01155245805445
 30
0.0
 40
150.0
  1
SMK-75S･H
  7
STYLE2
 72
     4
 11
2450.999967375347
 21
120.5854160944181
 31
0.0
100
AcDbText
  0
LINE
  5
1E55D
330
1E53D
100
AcDbEntity
  8
部品1
 48
50.0
100
AcDbLine
 10
1511.99996737535
 20
1290.585416094418
 30
0.0
 11
1911.99996737535
 21
1290.585416094418
 31
0.0
  0
LINE
  5
1E55E
330
1E53D
100
AcDbEntity
  8
部品1
 48
50.0
100
AcDbLine
 10
1511.99996737535
 20
1490.585416094418
 30
0.0
 11
1911.99996737535
 21
1490.585416094418
 31
0.0
  0
LINE
  5
1E55F
330
1E53D
100
AcDbEntity
  8
センター
 48
5.0
100
AcDbLine
 10
1856.99996737535
 20
1716.585416094418
 30
0.0
 11
1566.99996737535
 21
1716.585416094418
 31
0.0
  0
LINE
  5
1E560
330
1E53D
100
AcDbEntity
  8
センター
 48
5.0
100
AcDbLine
 10
1566.99996737535
 20
3021.585416094418
 30
0.0
 11
1856.99996737535
 21
3021.585416094418
 31
0.0
  0
LINE
  5
1E561
330
1E53D
100
AcDbEntity
  8
センター
 48
5.0
100
AcDbLine
 10
1856.99996737535
 20
2586.585416094418
 30
0.0
 11
1566.99996737535
 21
2586.585416094418
 31
0.0
  0
LINE
  5
1E562
330
1E53D
100
AcDbEntity
  8
センター
 48
5.0
100
AcDbLine
 10
1566.99996737535
 20
2151.585416094417
 30
0.0
 11
1856.99996737535
 21
2151.585416094417
 31
0.0
  0
DIMENSION
  5
1E563
330
1E53D
100
AcDbEntity
  8
寸法
 48
50.0
100
AcDbDimension
  2
*D20
 10
174.9999673753462
 20
2151.585416094417
 30
0.0
 11
74.99996737534536
 21
2369.085416094418
 31
0.0
 12
-725.128343915523
 22
-4041.941348478263
 32
0.0
 71
     5
 42
-1.0
  3
INABA_S50G
100
AcDbAlignedDimension
 13
1566.99996737535
 23
2586.585416094418
 33
0.0
 14
1566.99996737535
 24
2151.585416094417
 34
0.0
 50
90.0
100
AcDbRotatedDimension
1001
ACAD
1000
DSTYLE
1002
{
1070
   287
1070
     4
1070
    75
1070
     1
1070
   279
1070
     1
1002
}
  0
LINE
  5
1E564
330
1E53D
100
AcDbEntity
  8
部品1
 48
50.0
100
AcDbLine
 10
1129.999967375346
 20
2309.585416094418
 30
0.0
 11
1129.999967375346
 21
2109.585416094418
 31
0.0
  0
LINE
  5
1E565
330
1E53D
100
AcDbEntity
  8
部品1
 48
50.0
100
AcDbLine
 10
929.9999673753466
 20
2109.585416094418
 30
0.0
 11
929.9999673753466
 21
2309.585416094418
 31
0.0
  0
DIMENSION
  5
1E566
330
1E53D
100
AcDbEntity
  8
寸法
 48
50.0
100
AcDbDimension
  2
*D23
 10
174.9999673753462
 20
1716.585416094421
 30
0.0
 11
74.99996737534536
 21
1934.08541609442
 31
0.0
 12
-725.128343915523
 22
-4041.941348478263
 32
0.0
 71
     5
 42
-1.0
  3
INABA_S50G
100
AcDbAlignedDimension
 13
1566.99996737535
 23
2151.585416094417
 33
0.0
 14
1566.99996737535
 24
1716.585416094418
 34
0.0
 50
90.0
100
AcDbRotatedDimension
1001
ACAD
1000
DSTYLE
1002
{
1070
   287
1070
     4
1070
    75
1070
     1
1070
   279
1070
     1
1002
}
  0
DIMENSION
  5
1E567
330
1E53D
100
AcDbEntity
  8
寸法
 48
50.0
100
AcDbDimension
  2
*D22
 10
174.9999673753462
 20
1355.585416094418
 30
0.0
 11
74.99996737534536
 21
1536.085416094417
 31
0.0
 12
-725.128343915523
 22
-4041.941348478263
 32
0.0
 71
     5
 42
-1.0
  3
INABA_S50G
100
AcDbAlignedDimension
 13
1566.99996737535
 23
1716.585416094418
 33
0.0
 14
784.9999673753459
 24
1355.585416094418
 34
0.0
 50
90.0
100
AcDbRotatedDimension
1001
ACAD
1000
DSTYLE
1002
{
1070
   287
1070
     4
1070
    75
1070
     1
1070
   279
1070
     1
1002
}
  0
LINE
  5
1E568
330
1E53D
100
AcDbEntity
  8
部品1
 48
50.0
100
AcDbLine
 10
929.9999673753466
 20
1355.585416094418
 30
0.0
 11
1329.999967375347
 21
1355.585416094418
 31
0.0
  0
LINE
  5
1E569
330
1E53D
100
AcDbEntity
  8
部品1
 48
50.0
100
AcDbLine
 10
929.9999673753466
 20
1555.585416094416
 30
0.0
 11
1329.999967375347
 21
1555.585416094416
 31
0.0
  0
LINE
  5
1E56A
330
1E53D
100
AcDbEntity
  8
点線
 48
10.0
100
AcDbLine
 10
1029.999967375347
 20
1255.585416094416
 30
0.0
 11
1029.999967375347
 21
1455.585416094416
 31
0.0
  0
LINE
  5
1E56B
330
1E53D
100
AcDbEntity
  8
センター
 48
5.0
100
AcDbLine
 10
929.9999673753466
 20
1500.585416094418
 30
0.0
 11
929.9999673753466
 21
1210.585416094418
 31
0.0
  0
LINE
  5
1E56C
330
1E53D
100
AcDbEntity
  8
点線
 48
10.0
100
AcDbLine
 10
829.9999673753477
 20
1255.585416094416
 30
0.0
 11
829.9999673753477
 21
1455.585416094416
 31
0.0
  0
LINE
  5
1E56D
330
1E53D
100
AcDbEntity
  8
点線
 48
10.0
100
AcDbLine
 10
1029.999967375347
 20
1255.585416094416
 30
0.0
 11
829.9999673753477
 21
1255.585416094416
 31
0.0
  0
LINE
  5
1E56E
330
1E53D
100
AcDbEntity
  8
センター
 48
5.0
100
AcDbLine
 10
1074.999967375347
 20
1355.585416094418
 30
0.0
 11
784.9999673753477
 21
1355.585416094418
 31
0.0
  0
LINE
  5
1E56F
330
1E53D
100
AcDbEntity
  8
点線
 48
10.0
100
AcDbLine
 10
1029.999967375347
 20
1455.585416094416
 30
0.0
 11
829.9999673753477
 21
1455.585416094416
 31
0.0
  0
LINE
  5
1E570
330
1E53D
100
AcDbEntity
  8
部品1
 48
50.0
100
AcDbLine
 10
929.9999673753466
 20
1555.585416094416
 30
0.0
 11
929.9999673753466
 21
1355.585416094418
 31
0.0
  0
LINE
  5
1E571
330
1E53D
100
AcDbEntity
  8
部品1
 48
50.0
100
AcDbLine
 10
1511.99996737535
 20
1290.585416094418
 30
0.0
 11
1511.99996737535
 21
1490.585416094418
 31
0.0
  0
LINE
  5
1E572
330
1E53D
100
AcDbEntity
  8
部品1
 48
50.0
100
AcDbLine
 10
1329.999967375347
 20
1555.585416094416
 30
0.0
 11
1329.999967375347
 21
1355.585416094418
 31
0.0
  0
LINE
  5
1E573
330
1E53D
100
AcDbEntity
  8
部品1
 48
50.0
100
AcDbLine
 10
1129.999967375346
 20
2109.585416094418
 30
0.0
 11
929.9999673753466
 21
2109.585416094418
 31
0.0
  0
DIMENSION
  5
1E574
330
1E53D
100
AcDbEntity
  8
寸法
 48
50.0
100
AcDbDimension
  2
*D25
 10
174.9999673753462
 20
2586.58541609442
 30
0.0
 11
74.99996737534536
 21
2804.085416094419
 31
0.0
 12
-725.128343915523
 22
-4041.941348478263
 32
0.0
 71
     5
 42
-1.0
  3
INABA_S50G
100
AcDbAlignedDimension
 13
1566.99996737535
 23
3021.585416094418
 33
0.0
 14
1566.99996737535
 24
2586.585416094418
 34
0.0
 50
90.0
100
AcDbRotatedDimension
1001
ACAD
1000
DSTYLE
1002
{
1070
   287
1070
     4
1070
    75
1070
     1
1070
   279
1070
     1
1002
}
  0
LINE
  5
1E575
330
1E53D
100
AcDbEntity
  8
部品1
 48
50.0
100
AcDbLine
 10
929.9999673753466
 20
2309.585416094418
 30
0.0
 11
1129.999967375346
 21
2309.585416094418
 31
0.0
  0
LINE
  5
1E576
330
1E53D
100
AcDbEntity
  8
部品1
 48
50.0
100
AcDbLine
 10
929.9999673753466
 20
3063.585416094417
 30
0.0
 11
1129.999967375346
 21
3063.585416094417
 31
0.0
  0
LINE
  5
1E577
330
1E53D
100
AcDbEntity
  8
部品1
 48
50.0
100
AcDbLine
 10
1129.999967375346
 20
2863.585416094418
 30
0.0
 11
929.9999673753466
 21
2863.585416094418
 31
0.0
  0
LINE
  5
1E578
330
1E53D
100
AcDbEntity
  8
部品1
 48
50.0
100
AcDbLine
 10
929.9999673753466
 20
2863.585416094418
 30
0.0
 11
929.9999673753466
 21
3063.585416094417
 31
0.0
  0
LINE
  5
1E579
330
1E53D
100
AcDbEntity
  8
部品1
 48
50.0
100
AcDbLine
 10
1129.999967375346
 20
3063.585416094417
 30
0.0
 11
1129.999967375346
 21
2863.585416094418
 31
0.0
  0
LINE
  5
1E57A
330
1E53D
100
AcDbEntity
  8
センター
 48
5.0
100
AcDbLine
 10
3189.999967375346
 20
2296.585416094418
 30
0.0
 11
3189.999967375346
 21
2006.585416094418
 31
0.0
  0
LINE
  5
1E57B
330
1E53D
100
AcDbEntity
  8
部品1
 48
50.0
100
AcDbLine
 10
3089.999967375346
 20
2351.585416094418
 30
0.0
 11
3089.999967375346
 21
1951.585416094417
 31
0.0
  0
LINE
  5
1E57C
330
1E53D
100
AcDbEntity
  8
部品1
 48
50.0
100
AcDbLine
 10
1811.99996737535
 20
2351.585416094418
 30
0.0
 11
1811.99996737535
 21
1951.585416094417
 31
0.0
  0
LINE
  5
1E57D
330
1E53D
100
AcDbEntity
  8
センター
 48
5.0
100
AcDbLine
 10
1711.99996737535
 20
2296.585416094418
 30
0.0
 11
1711.99996737535
 21
2006.585416094418
 31
0.0
  0
LINE
  5
1E57E
330
1E53D
100
AcDbEntity
  8
部品1
 48
50.0
100
AcDbLine
 10
1611.99996737535
 20
1951.585416094417
 30
0.0
 11
1611.99996737535
 21
2351.585416094418
 31
0.0
  0
LINE
  5
1E57F
330
1E53D
100
AcDbEntity
  8
部品1
 48
50.0
100
AcDbLine
 10
2550.999967375346
 20
2309.585416094418
 30
0.0
 11
2550.999967375346
 21
2109.585416094418
 31
0.0
  0
LINE
  5
1E580
330
1E53D
100
AcDbEntity
  8
部品1
 48
50.0
100
AcDbLine
 10
2350.999967375347
 20
2109.585416094418
 30
0.0
 11
2350.999967375347
 21
2309.585416094418
 31
0.0
  0
LINE
  5
1E581
330
1E53D
100
AcDbEntity
  8
センター
 48
5.0
100
AcDbLine
 10
2450.999967375347
 20
2354.585416094418
 30
0.0
 11
2450.999967375347
 21
2064.585416094418
 31
0.0
  0
LINE
  5
1E582
330
1E53D
100
AcDbEntity
  8
センター
 48
5.0
100
AcDbLine
 10
2595.999967375349
 20
2209.585416094416
 30
0.0
 11
2305.999967375347
 21
2209.585416094416
 31
0.0
  0
LINE
  5
1E583
330
1E53D
100
AcDbEntity
  8
部品1
 48
50.0
100
AcDbLine
 10
2550.999967375346
 20
2109.585416094418
 30
0.0
 11
2350.999967375347
 21
2109.585416094418
 31
0.0
  0
LINE
  5
1E584
330
1E53D
100
AcDbEntity
  8
部品1
 48
50.0
100
AcDbLine
 10
2350.999967375347
 20
1555.585416094416
 30
0.0
 11
2550.999967375346
 21
1555.585416094416
 31
0.0
  0
LINE
  5
1E585
330
1E53D
100
AcDbEntity
  8
部品1
 48
50.0
100
AcDbLine
 10
2350.999967375347
 20
1355.585416094418
 30
0.0
 11
2550.999967375346
 21
1355.585416094418
 31
0.0
  0
LINE
  5
1E586
330
1E53D
100
AcDbEntity
  8
部品1
 48
50.0
100
AcDbLine
 10
1611.99996737535
 20
1816.585416094417
 30
0.0
 11
1611.99996737535
 21
1616.585416094416
 31
0.0
  0
LINE
  5
1E587
330
1E53D
100
AcDbEntity
  8
センター
 48
5.0
100
AcDbLine
 10
1711.99996737535
 20
1571.585416094418
 30
0.0
 11
1711.99996737535
 21
1861.585416094417
 31
0.0
  0
LINE
  5
1E588
330
1E53D
100
AcDbEntity
  8
部品1
 48
50.0
100
AcDbLine
 10
1811.99996737535
 20
1616.585416094416
 30
0.0
 11
1811.99996737535
 21
1816.585416094417
 31
0.0
  0
LINE
  5
1E589
330
1E53D
100
AcDbEntity
  8
部品1
 48
50.0
100
AcDbLine
 10
1911.99996737535
 20
1290.585416094418
 30
0.0
 11
1911.99996737535
 21
1490.585416094418
 31
0.0
  0
LINE
  5
1E58A
330
1E53D
100
AcDbEntity
  8
部品1
 48
50.0
100
AcDbLine
 10
1611.99996737535
 20
1616.585416094416
 30
0.0
 11
1811.99996737535
 21
1616.585416094416
 31
0.0
  0
LINE
  5
1E58B
330
1E53D
100
AcDbEntity
  8
部品1
 48
50.0
100
AcDbLine
 10
2350.999967375347
 20
1355.585416094418
 30
0.0
 11
2350.999967375347
 21
1555.585416094416
 31
0.0
  0
LINE
  5
1E58C
330
1E53D
100
AcDbEntity
  8
部品1
 48
50.0
100
AcDbLine
 10
1811.99996737535
 20
1816.585416094417
 30
0.0
 11
1611.99996737535
 21
1816.585416094417
 31
0.0
  0
LINE
  5
1E58D
330
1E53D
100
AcDbEntity
  8
部品1
 48
50.0
100
AcDbLine
 10
1811.99996737535
 20
1951.585416094417
 30
0.0
 11
1611.99996737535
 21
1951.585416094417
 31
0.0
  0
LEADER
  5
1E58E
330
1E53D
100
AcDbEntity
  8
寸法
 48
50.0
100
AcDbLeader
  3
INABA_S50G
 71
     0
 73
     0
 74
     0
 75
     1
 40
150.0
 41
231.9898538650462
 76
     3
 10
2496.3602195227
 20
1555.585416094416
 30
0.0
 10
2586.97347040817
 20
1763.199313257608
 30
0.0
 10
2711.97347040817
 20
1763.199313257608
 30
0.0
340
1E58F
1001
ACAD
1000
DSTYLE
1002
{
1070
     6
1000
DOTSMALL
1002
}
1000
LEANOF
1010
0.0
1020
0.0
1030
0.0
  0
MTEXT
  5
1E58F
102
{ACAD_REACTORS
330
1E58E
102
}
330
1E53D
100
AcDbEntity
  8
細線
 62
     7
 48
50.0
100
AcDbMText
 10
2736.97347040817
 20
1863.199313257608
 30
0.0
 40
150.0
 41
0.0
 71
     4
 72
     5
  1
\A1;C.B
  7
STYLE1
 73
     1
 44
1.0
1001
ACAD
1000
MTEXTBEGIN
1070
    73
1070
     1
1070
    44
1040
1.0
1070
    74
1070
     0
1000
MTEXTEND
  0
LINE
  5
1E590
330
1E53D
100
AcDbEntity
  8
部品1
 48
50.0
100
AcDbLine
 10
3089.999967375346
 20
1616.585416094416
 30
0.0
 11
3089.999967375346
 21
1816.585416094417
 31
0.0
  0
LINE
  5
1E591
330
1E53D
100
AcDbEntity
  8
センター
 48
5.0
100
AcDbLine
 10
3189.999967375346
 20
1571.585416094418
 30
0.0
 11
3189.999967375346
 21
1861.585416094417
 31
0.0
  0
LINE
  5
1E592
330
1E53D
100
AcDbEntity
  8
部品1
 48
50.0
100
AcDbLine
 10
2550.999967375346
 20
1355.585416094418
 30
0.0
 11
2550.999967375346
 21
1555.585416094416
 31
0.0
  0
LINE
  5
1E593
330
1E53D
100
AcDbEntity
  8
部品1
 48
50.0
100
AcDbLine
 10
2550.999967375346
 20
2863.585416094418
 30
0.0
 11
2350.999967375347
 21
2863.585416094418
 31
0.0
  0
LINE
  5
1E594
330
1E53D
100
AcDbEntity
  8
センター
 48
5.0
100
AcDbLine
 10
2595.999967375349
 20
2963.585416094418
 30
0.0
 11
2305.999967375347
 21
2963.585416094418
 31
0.0
  0
LINE
  5
1E595
330
1E53D
100
AcDbEntity
  8
部品1
 48
50.0
100
AcDbLine
 10
2550.999967375346
 20
3063.585416094417
 30
0.0
 11
2350.999967375347
 21
3063.585416094417
 31
0.0
  0
LINE
  5
1E596
330
1E53D
100
AcDbEntity
  8
部品1
 48
50.0
100
AcDbLine
 10
2350.999967375347
 20
2309.585416094418
 30
0.0
 11
2550.999967375346
 21
2309.585416094418
 31
0.0
  0
LINE
  5
1E597
330
1E53D
100
AcDbEntity
  8
部品1
 48
50.0
100
AcDbLine
 10
1811.99996737535
 20
2686.585416094418
 30
0.0
 11
1811.99996737535
 21
2486.585416094416
 31
0.0
  0
LINE
  5
1E598
330
1E53D
100
AcDbEntity
  8
センター
 48
5.0
100
AcDbLine
 10
1711.99996737535
 20
2731.585416094418
 30
0.0
 11
1711.99996737535
 21
2441.585416094417
 31
0.0
  0
LINE
  5
1E599
330
1E53D
100
AcDbEntity
  8
部品1
 48
50.0
100
AcDbLine
 10
1611.99996737535
 20
2486.585416094416
 30
0.0
 11
1611.99996737535
 21
2686.585416094418
 31
0.0
  0
LINE
  5
1E59A
330
1E53D
100
AcDbEntity
  8
部品1
 48
50.0
100
AcDbLine
 10
1611.99996737535
 20
2351.585416094418
 30
0.0
 11
1811.99996737535
 21
2351.585416094418
 31
0.0
  0
LINE
  5
1E59B
330
1E53D
100
AcDbEntity
  8
部品1
 48
50.0
100
AcDbLine
 10
1811.99996737535
 20
2486.585416094416
 30
0.0
 11
1611.99996737535
 21
2486.585416094416
 31
0.0
  0
LINE
  5
1E59C
330
1E53D
100
AcDbEntity
  8
部品1
 48
50.0
100
AcDbLine
 10
1611.99996737535
 20
2686.585416094418
 30
0.0
 11
1811.99996737535
 21
2686.585416094418
 31
0.0
  0
LINE
  5
1E59D
330
1E53D
100
AcDbEntity
  8
部品1
 48
50.0
100
AcDbLine
 10
1611.99996737535
 20
3221.585416094418
 30
0.0
 11
1611.99996737535
 21
2821.585416094417
 31
0.0
  0
LINE
  5
1E59E
330
1E53D
100
AcDbEntity
  8
センター
 48
5.0
100
AcDbLine
 10
1711.99996737535
 20
2876.585416094418
 30
0.0
 11
1711.99996737535
 21
3166.585416094418
 31
0.0
  0
LINE
  5
1E59F
330
1E53D
100
AcDbEntity
  8
部品1
 48
50.0
100
AcDbLine
 10
1811.99996737535
 20
2821.585416094417
 30
0.0
 11
1811.99996737535
 21
3221.585416094418
 31
0.0
  0
LINE
  5
1E5A0
330
1E53D
100
AcDbEntity
  8
部品1
 48
50.0
100
AcDbLine
 10
1611.99996737535
 20
2821.585416094417
 30
0.0
 11
1811.99996737535
 21
2821.585416094417
 31
0.0
  0
LINE
  5
1E5A1
330
1E53D
100
AcDbEntity
  8
部品1
 48
50.0
100
AcDbLine
 10
1611.99996737535
 20
3356.585416094418
 30
0.0
 11
1811.99996737535
 21
3356.585416094418
 31
0.0
  0
LINE
  5
1E5A2
330
1E53D
100
AcDbEntity
  8
部品1
 48
50.0
100
AcDbLine
 10
1811.99996737535
 20
3221.585416094418
 30
0.0
 11
1611.99996737535
 21
3221.585416094418
 31
0.0
  0
LINE
  5
1E5A3
330
1E53D
100
AcDbEntity
  8
部品1
 48
50.0
100
AcDbLine
 10
2350.999967375347
 20
2863.585416094418
 30
0.0
 11
2350.999967375347
 21
3063.585416094417
 31
0.0
  0
LINE
  5
1E5A4
330
1E53D
100
AcDbEntity
  8
センター
 48
5.0
100
AcDbLine
 10
3189.999967375346
 20
2731.585416094418
 30
0.0
 11
3189.999967375346
 21
2441.585416094417
 31
0.0
  0
LINE
  5
1E5A5
330
1E53D
100
AcDbEntity
  8
部品1
 48
50.0
100
AcDbLine
 10
3089.999967375346
 20
2686.585416094418
 30
0.0
 11
3089.999967375346
 21
2486.585416094416
 31
0.0
  0
LINE
  5
1E5A6
330
1E53D
100
AcDbEntity
  8
センター
 48
5.0
100
AcDbLine
 10
2450.999967375347
 20
3108.585416094416
 30
0.0
 11
2450.999967375347
 21
2818.585416094418
 31
0.0
  0
LINE
  5
1E5A7
330
1E53D
100
AcDbEntity
  8
部品1
 48
50.0
100
AcDbLine
 10
2550.999967375346
 20
3063.585416094417
 30
0.0
 11
2550.999967375346
 21
2863.585416094418
 31
0.0
  0
LINE
  5
1E5A8
330
1E53D
100
AcDbEntity
  8
部品1
 48
50.0
100
AcDbLine
 10
3089.999967375346
 20
2821.585416094417
 30
0.0
 11
3089.999967375346
 21
3221.585416094418
 31
0.0
  0
LINE
  5
1E5A9
330
1E53D
100
AcDbEntity
  8
センター
 48
5.0
100
AcDbLine
 10
3189.999967375346
 20
2876.585416094418
 30
0.0
 11
3189.999967375346
 21
3166.585416094418
 31
0.0
  0
DIMENSION
  5
1E5AA
330
1E53D
100
AcDbEntity
  8
寸法
 48
50.0
100
AcDbDimension
  2
*D13
 10
4026.999967375348
 20
420.5854160944181
 30
0.0
 11
4319.440912257238
 21
420.5854160944181
 31
0.0
 12
-9946.828655617023
 22
-5773.138826795431
 32
0.0
 70
   128
  1
(<>)
 71
     5
 42
-1.0
  3
INABA_S50G
100
AcDbAlignedDimension
 13
3971.999967375348
 23
1210.585416094418
 33
0.0
 14
4026.999967375348
 24
1220.585416094418
 34
0.0
100
AcDbRotatedDimension
  0
DIMENSION
  5
1E5AB
330
1E53D
100
AcDbEntity
  8
寸法
 48
50.0
100
AcDbDimension
  2
*D14
 10
5176.999967375348
 20
1220.585416094418
 30
0.0
 11
5176.999967375348
 21
890.6444712125294
 31
0.0
 12
-725.128343915523
 22
-4041.941348478263
 32
0.0
 70
   128
  1
(<>)
 71
     5
 42
-1.0
  3
INABA_S50G
100
AcDbAlignedDimension
 13
4116.999967375348
 23
1355.585416094418
 33
0.0
 14
4026.999967375348
 24
1220.585416094418
 34
0.0
 50
90.0
100
AcDbRotatedDimension
  0
DIMENSION
  5
1E5AC
330
1E53D
100
AcDbEntity
  8
寸法
 48
50.0
100
AcDbDimension
  2
*D19
 10
4826.999967375348
 20
2963.585416094418
 30
0.0
 11
4726.999967375347
 21
2586.585416094418
 31
0.0
 12
-725.128343915523
 22
-4041.941348478263
 32
0.0
 71
     5
 42
-1.0
  3
INABA_S50G
100
AcDbAlignedDimension
 13
3971.999967375348
 23
2209.585416094416
 33
0.0
 14
3971.999967375348
 24
2963.585416094418
 34
0.0
 50
90.0
100
AcDbRotatedDimension
  0
DIMENSION
  5
1E5AD
330
1E53D
100
AcDbEntity
  8
寸法
 48
50.0
100
AcDbDimension
  2
*D9
 10
4826.999967375348
 20
1355.585416094418
 30
0.0
 11
4726.999967375347
 21
1782.58541609442
 31
0.0
 12
-725.128343915523
 22
-4041.941348478263
 32
0.0
 71
     5
 42
-1.0
  3
INABA_S50G
100
AcDbAlignedDimension
 13
3971.999967375348
 23
2209.585416094416
 33
0.0
 14
4116.999967375348
 24
1355.585416094418
 34
0.0
 50
90.0
100
AcDbRotatedDimension
1001
ACAD
1000
DSTYLE
1002
{
1070
   287
1070
     4
1070
    75
1070
     1
1070
   279
1070
     1
1002
}
  0
LINE
  5
1E5AE
330
1E53D
100
AcDbEntity
  8
部品1
 48
50.0
100
AcDbLine
 10
3289.999967375346
 20
1951.585416094417
 30
0.0
 11
3289.999967375346
 21
2351.585416094418
 31
0.0
  0
LINE
  5
1E5AF
330
1E53D
100
AcDbEntity
  8
部品1
 48
50.0
100
AcDbLine
 10
3971.999967375348
 20
2109.585416094418
 30
0.0
 11
3971.999967375348
 21
2309.585416094418
 31
0.0
  0
LINE
  5
1E5B0
330
1E53D
100
AcDbEntity
  8
部品1
 48
50.0
100
AcDbLine
 10
3771.999967375348
 20
2309.585416094418
 30
0.0
 11
3771.999967375348
 21
2109.585416094418
 31
0.0
  0
LINE
  5
1E5B1
330
1E53D
100
AcDbEntity
  8
点線
 48
10.0
100
AcDbLine
 10
3871.999967375348
 20
1255.585416094416
 30
0.0
 11
4071.999967375349
 21
1255.585416094416
 31
0.0
  0
LINE
  5
1E5B2
330
1E53D
100
AcDbEntity
  8
センター
 48
5.0
100
AcDbLine
 10
4116.999967375348
 20
1355.585416094418
 30
0.0
 11
3826.999967375348
 21
1355.585416094418
 31
0.0
  0
LINE
  5
1E5B3
330
1E53D
100
AcDbEntity
  8
点線
 48
10.0
100
AcDbLine
 10
3871.999967375348
 20
1455.585416094416
 30
0.0
 11
4071.999967375349
 21
1455.585416094416
 31
0.0
  0
LINE
  5
1E5B4
330
1E53D
100
AcDbEntity
  8
部品1
 48
50.0
100
AcDbLine
 10
3289.999967375346
 20
1816.585416094417
 30
0.0
 11
3289.999967375346
 21
1616.585416094416
 31
0.0
  0
LINE
  5
1E5B5
330
1E53D
100
AcDbEntity
  8
部品1
 48
50.0
100
AcDbLine
 10
3571.999967375349
 20
1555.585416094416
 30
0.0
 11
3971.999967375348
 21
1555.585416094416
 31
0.0
  0
LINE
  5
1E5B6
330
1E53D
100
AcDbEntity
  8
部品1
 48
50.0
100
AcDbLine
 10
3571.999967375349
 20
1355.585416094418
 30
0.0
 11
3971.999967375348
 21
1355.585416094418
 31
0.0
  0
LINE
  5
1E5B7
330
1E53D
100
AcDbEntity
  8
部品1
 48
50.0
100
AcDbLine
 10
3571.999967375349
 20
1355.585416094418
 30
0.0
 11
3571.999967375349
 21
1555.585416094416
 31
0.0
  0
LINE
  5
1E5B8
330
1E53D
100
AcDbEntity
  8
センター
 48
5.0
100
AcDbLine
 10
3971.999967375348
 20
1500.585416094418
 30
0.0
 11
3971.999967375348
 21
1210.585416094418
 31
0.0
  0
LINE
  5
1E5B9
330
1E53D
100
AcDbEntity
  8
点線
 48
10.0
100
AcDbLine
 10
3871.999967375348
 20
1255.585416094416
 30
0.0
 11
3871.999967375348
 21
1455.585416094416
 31
0.0
  0
LINE
  5
1E5BA
330
1E53D
100
AcDbEntity
  8
部品1
 48
50.0
100
AcDbLine
 10
3971.999967375348
 20
1355.585416094418
 30
0.0
 11
3971.999967375348
 21
1555.585416094416
 31
0.0
  0
LINE
  5
1E5BB
330
1E53D
100
AcDbEntity
  8
部品1
 48
50.0
100
AcDbLine
 10
3771.999967375348
 20
2109.585416094418
 30
0.0
 11
3971.999967375348
 21
2109.585416094418
 31
0.0
  0
LINE
  5
1E5BC
330
1E53D
100
AcDbEntity
  8
点線
 48
10.0
100
AcDbLine
 10
4071.999967375349
 20
1255.585416094416
 30
0.0
 11
4071.999967375349
 21
1455.585416094416
 31
0.0
  0
LINE
  5
1E5BD
330
1E53D
100
AcDbEntity
  8
部品1
 48
50.0
100
AcDbLine
 10
3289.999967375346
 20
2486.585416094416
 30
0.0
 11
3289.999967375346
 21
2686.585416094418
 31
0.0
  0
LINE
  5
1E5BE
330
1E53D
100
AcDbEntity
  8
部品1
 48
50.0
100
AcDbLine
 10
3971.999967375348
 20
2309.585416094418
 30
0.0
 11
3771.999967375348
 21
2309.585416094418
 31
0.0
  0
LINE
  5
1E5BF
330
1E53D
100
AcDbEntity
  8
部品1
 48
50.0
100
AcDbLine
 10
3289.999967375346
 20
3221.585416094418
 30
0.0
 11
3289.999967375346
 21
2821.585416094417
 31
0.0
  0
LINE
  5
1E5C0
330
1E53D
100
AcDbEntity
  8
部品1
 48
50.0
100
AcDbLine
 10
3971.999967375348
 20
3063.585416094417
 30
0.0
 11
3771.999967375348
 21
3063.585416094417
 31
0.0
  0
LINE
  5
1E5C1
330
1E53D
100
AcDbEntity
  8
部品1
 48
50.0
100
AcDbLine
 10
3771.999967375348
 20
2863.585416094418
 30
0.0
 11
3971.999967375348
 21
2863.585416094418
 31
0.0
  0
LINE
  5
1E5C2
330
1E53D
100
AcDbEntity
  8
部品1
 48
50.0
100
AcDbLine
 10
3771.999967375348
 20
3063.585416094417
 30
0.0
 11
3771.999967375348
 21
2863.585416094418
 31
0.0
  0
LINE
  5
1E5C3
330
1E53D
100
AcDbEntity
  8
部品1
 48
50.0
100
AcDbLine
 10
3971.999967375348
 20
2863.585416094418
 30
0.0
 11
3971.999967375348
 21
3063.585416094417
 31
0.0
  0
MTEXT
  5
1E5C4
102
{ACAD_REACTORS
330
1E5C5
102
}
330
1E53D
100
AcDbEntity
  8
部品1
 62
     7
 48
50.0
100
AcDbMText
 10
3655.652036737169
 20
4214.359236269658
 30
0.0
 40
150.0
 41
0.0
 71
     6
 72
     5
  1
\A1;屋根の外寸
  7
STYLE1
 73
     1
 44
1.0
1001
ACAD
1000
MTEXTBEGIN
1070
    73
1070
     1
1070
    44
1040
1.0
1070
    74
1070
     0
1000
MTEXTEND
  0
LEADER
  5
1E5C5
330
1E53D
100
AcDbEntity
  8
寸法
 48
50.0
100
AcDbLeader
  3
INABA_S50G
 73
     0
 74
     0
 75
     1
 40
150.0
 41
854.1421356237311
 76
     3
 10
2450.999967375347
 20
3912.585416094417
 30
0.0
 10
2651.509901113438
 20
4114.359236269659
 30
0.0
 10
2776.509901113438
 20
4114.359236269659
 30
0.0
340
1E5C4
1001
ACAD
1000
DSTYLE
1002
{
1070
     6
1000

1070
    40
1040
1.0
1070
   341
1005
0
1070
   343
1005
0
1070
   344
1005
0
1002
}
1000
LEANOF
1010
0.0
1020
0.0
1030
0.0
  0
LINE
  5
1E5C6
330
1E53D
100
AcDbEntity
  8
部品1
 48
50.0
100
AcDbLine
 10
3089.999967375346
 20
3556.585416094418
 30
0.0
 11
3289.999967375346
 21
3556.585416094418
 31
0.0
  0
LINE
  5
1E5C7
330
1E53D
100
AcDbEntity
  8
センター
 48
5.0
100
AcDbLine
 10
3044.999967375348
 20
3456.585416094418
 30
0.0
 11
3334.999967375348
 21
3456.585416094418
 31
0.0
  0
LINE
  5
1E5C8
330
1E53D
100
AcDbEntity
  8
想像線
 48
20.0
100
AcDbLine
 10
4026.999967375348
 20
3912.585416094416
 30
0.0
 11
874.9999673753476
 21
3912.585416094417
 31
0.0
  0
MTEXT
  5
1E5C9
102
{ACAD_REACTORS
330
1E5CA
102
}
330
1E53D
100
AcDbEntity
  8
細線
 62
     7
 48
50.0
100
AcDbMText
 10
1559.557915272339
 20
4639.111491057229
 30
0.0
 40
150.0
 41
0.0
 71
     4
 72
     5
  1
\A1;組立後\P現場打コンクリート
  7
STYLE1
 73
     1
 44
1.0
1001
ACAD
1000
MTEXTBEGIN
1070
    73
1070
     1
1070
    44
1040
1.0
1070
    74
1070
     0
1000
MTEXTEND
  0
LEADER
  5
1E5CA
330
1E53D
100
AcDbEntity
  8
寸法
 48
50.0
100
AcDbLeader
  3
INABA_S50G
 71
     0
 73
     0
 74
     0
 75
     1
 40
400.0
 41
1602.936553006147
 76
     3
 10
980.0541906940907
 20
3867.597132829228
 30
0.0
 10
1409.55791527234
 20
4414.111491057229
 30
0.0
 10
1534.55791527234
 20
4414.111491057229
 30
0.0
340
1E5C9
1001
ACAD
1000
DSTYLE
1002
{
1070
     6
1000
DOTSMALL
1002
}
1000
LEANOF
1010
0.0
1020
0.0
1030
0.0
  0
LINE
  5
1E5CB
330
1E53D
100
AcDbEntity
  8
センター
 48
5.0
100
AcDbLine
 10
1856.99996737535
 20
3456.585416094418
 30
0.0
 11
1566.99996737535
 21
3456.585416094418
 31
0.0
  0
DIMENSION
  5
1E5CC
330
1E53D
100
AcDbEntity
  8
寸法
 48
50.0
100
AcDbDimension
  2
*D24
 10
174.9999673753462
 20
3456.585416094418
 30
0.0
 11
74.99996737534627
 21
3637.085416094418
 31
0.0
 12
-725.128343915523
 22
-4041.941348478263
 32
0.0
 71
     5
 42
-1.0
  3
INABA_S50G
100
AcDbAlignedDimension
 13
399.9704398162919
 23
3817.585416094418
 33
0.0
 14
1566.99996737535
 24
3456.585416094418
 34
0.0
 50
90.0
100
AcDbRotatedDimension
  0
DIMENSION
  5
1E5CD
330
1E53D
100
AcDbEntity
  8
寸法
 48
50.0
100
AcDbDimension
  2
*D17
 10
574.9999673753477
 20
3717.585416094418
 30
0.0
 11
574.9999673753477
 21
3817.585416094418
 31
0.0
 12
-10526.82865561702
 22
-5193.138826795431
 32
0.0
 70
   128
 71
     5
 42
-1.0
  3
INABA_S50G
100
AcDbAlignedDimension
 13
829.9999673753477
 23
3917.585416094418
 33
0.0
 14
829.9999673753477
 24
3717.585416094418
 34
0.0
 50
90.0
100
AcDbRotatedDimension
  0
DIMENSION
  5
1E5CE
330
1E53D
100
AcDbEntity
  8
寸法
 48
50.0
100
AcDbDimension
  2
*D16
 10
829.9999673753477
 20
4212.585416094418
 30
0.0
 11
929.9999673753466
 21
4212.585416094418
 31
0.0
 12
-10526.82865561702
 22
-5193.138826795431
 32
0.0
 70
   128
 71
     5
 42
-1.0
  3
INABA_S50G
100
AcDbAlignedDimension
 13
1029.999967375347
 23
3917.585416094418
 33
0.0
 14
829.9999673753477
 24
3917.58541609442
 34
0.0
100
AcDbRotatedDimension
  0
LINE
  5
1E5CF
330
1E53D
100
AcDbEntity
  8
部品1
 48
50.0
100
AcDbLine
 10
1329.999967375347
 20
3617.585416094418
 30
0.0
 11
929.9999673753466
 21
3617.585416094418
 31
0.0
  0
LINE
  5
1E5D0
330
1E53D
100
AcDbEntity
  8
部品1
 48
50.0
100
AcDbLine
 10
1329.999967375347
 20
3817.585416094418
 30
0.0
 11
929.9999673753466
 21
3817.585416094418
 31
0.0
  0
LINE
  5
1E5D1
330
1E53D
100
AcDbEntity
  8
センター
 48
5.0
100
AcDbLine
 10
929.9999673753466
 20
3962.585416094418
 30
0.0
 11
929.9999673753466
 21
3672.585416094416
 31
0.0
  0
LINE
  5
1E5D2
330
1E53D
100
AcDbEntity
  8
部品1
 48
50.0
100
AcDbLine
 10
929.9999673753466
 20
3817.585416094418
 30
0.0
 11
929.9999673753466
 21
3617.585416094418
 31
0.0
  0
LINE
  5
1E5D3
330
1E53D
100
AcDbEntity
  8
点線
 48
10.0
100
AcDbLine
 10
1029.999967375347
 20
3717.585416094418
 30
0.0
 11
829.9999673753477
 21
3717.585416094418
 31
0.0
  0
LINE
  5
1E5D4
330
1E53D
100
AcDbEntity
  8
センター
 48
5.0
100
AcDbLine
 10
1074.999967375347
 20
3817.585416094418
 30
0.0
 11
784.9999673753477
 21
3817.585416094418
 31
0.0
  0
LINE
  5
1E5D5
330
1E53D
100
AcDbEntity
  8
点線
 48
10.0
100
AcDbLine
 10
1029.999967375347
 20
3917.585416094418
 30
0.0
 11
829.9999673753477
 21
3917.585416094418
 31
0.0
  0
LINE
  5
1E5D6
330
1E53D
100
AcDbEntity
  8
点線
 48
10.0
100
AcDbLine
 10
829.9999673753477
 20
3917.585416094418
 30
0.0
 11
829.9999673753477
 21
3717.585416094418
 31
0.0
  0
LINE
  5
1E5D7
330
1E53D
100
AcDbEntity
  8
点線
 48
10.0
100
AcDbLine
 10
1029.999967375347
 20
3917.585416094418
 30
0.0
 11
1029.999967375347
 21
3717.585416094418
 31
0.0
  0
LINE
  5
1E5D8
330
1E53D
100
AcDbEntity
  8
部品1
 48
50.0
100
AcDbLine
 10
1329.999967375347
 20
3817.585416094418
 30
0.0
 11
1329.999967375347
 21
3617.585416094418
 31
0.0
  0
LINE
  5
1E5D9
330
1E53D
100
AcDbEntity
  8
部品1
 48
50.0
100
AcDbLine
 10
2350.999967375347
 20
3817.585416094418
 30
0.0
 11
2550.999967375346
 21
3817.585416094418
 31
0.0
  0
LINE
  5
1E5DA
330
1E53D
100
AcDbEntity
  8
部品1
 48
50.0
100
AcDbLine
 10
2550.999967375346
 20
3617.585416094418
 30
0.0
 11
2350.999967375347
 21
3617.585416094418
 31
0.0
  0
LINE
  5
1E5DB
330
1E53D
100
AcDbEntity
  8
部品1
 48
50.0
100
AcDbLine
 10
1811.99996737535
 20
3556.585416094418
 30
0.0
 11
1611.99996737535
 21
3556.585416094418
 31
0.0
  0
LINE
  5
1E5DC
330
1E53D
100
AcDbEntity
  8
部品1
 48
50.0
100
AcDbLine
 10
2350.999967375347
 20
3617.585416094418
 30
0.0
 11
2350.999967375347
 21
3817.585416094418
 31
0.0
  0
LINE
  5
1E5DD
330
1E53D
100
AcDbEntity
  8
部品1
 48
50.0
100
AcDbLine
 10
2550.999967375346
 20
3817.585416094418
 30
0.0
 11
2550.999967375346
 21
3617.585416094418
 31
0.0
  0
DIMENSION
  5
1E5DE
330
1E53D
100
AcDbEntity
  8
寸法
 48
50.0
100
AcDbDimension
  2
*D18
 10
5176.999967375348
 20
3912.585416094416
 30
0.0
 11
5176.999967375348
 21
4205.288435763377
 31
0.0
 12
-725.128343915523
 22
-4041.941348478263
 32
0.0
 70
   128
  1
(<>)
 71
     5
 42
-1.0
  3
INABA_S50G
100
AcDbAlignedDimension
 13
4116.999967375348
 23
3817.585416094418
 33
0.0
 14
4026.999967375348
 24
3912.585416094416
 34
0.0
 50
90.0
100
AcDbRotatedDimension
  0
LINE
  5
1E5DF
330
1E53D
100
AcDbEntity
  8
点線
 48
10.0
100
AcDbLine
 10
3871.999967375348
 20
3917.585416094418
 30
0.0
 11
4071.999967375349
 21
3917.585416094418
 31
0.0
  0
LINE
  5
1E5E0
330
1E53D
100
AcDbEntity
  8
点線
 48
10.0
100
AcDbLine
 10
3871.999967375348
 20
3717.585416094418
 30
0.0
 11
4071.999967375349
 21
3717.585416094418
 31
0.0
  0
LINE
  5
1E5E1
330
1E53D
100
AcDbEntity
  8
センター
 48
5.0
100
AcDbLine
 10
4116.999967375348
 20
3817.585416094418
 30
0.0
 11
3826.999967375348
 21
3817.585416094418
 31
0.0
  0
LINE
  5
1E5E2
330
1E53D
100
AcDbEntity
  8
部品1
 48
50.0
100
AcDbLine
 10
3971.999967375348
 20
3817.585416094418
 30
0.0
 11
3571.999967375349
 21
3817.585416094418
 31
0.0
  0
LINE
  5
1E5E3
330
1E53D
100
AcDbEntity
  8
部品1
 48
50.0
100
AcDbLine
 10
3971.999967375348
 20
3617.585416094418
 30
0.0
 11
3571.999967375349
 21
3617.585416094418
 31
0.0
  0
LINE
  5
1E5E4
330
1E53D
100
AcDbEntity
  8
部品1
 48
50.0
100
AcDbLine
 10
3571.999967375349
 20
3617.585416094418
 30
0.0
 11
3571.999967375349
 21
3817.585416094418
 31
0.0
  0
LINE
  5
1E5E5
330
1E53D
100
AcDbEntity
  8
センター
 48
5.0
100
AcDbLine
 10
3971.999967375348
 20
3962.585416094418
 30
0.0
 11
3971.999967375348
 21
3672.585416094416
 31
0.0
  0
LINE
  5
1E5E6
330
1E53D
100
AcDbEntity
  8
部品1
 48
50.0
100
AcDbLine
 10
3971.999967375348
 20
3617.585416094418
 30
0.0
 11
3971.999967375348
 21
3817.585416094418
 31
0.0
  0
LINE
  5
1E5E7
330
1E53D
100
AcDbEntity
  8
点線
 48
10.0
100
AcDbLine
 10
3871.999967375348
 20
3917.585416094418
 30
0.0
 11
3871.999967375348
 21
3717.585416094418
 31
0.0
  0
LINE
  5
1E5E8
330
1E53D
100
AcDbEntity
  8
点線
 48
10.0
100
AcDbLine
 10
4071.999967375349
 20
3917.585416094418
 30
0.0
 11
4071.999967375349
 21
3717.585416094418
 31
0.0
  0
ENDBLK
  5
1E5EA
330
1E53D
100
AcDbEntity
  8
0
 48
50.0
100
AcDbBlockEnd
  0
BLOCK
  5
1E83D
330
1E834
100
AcDbEntity
  8
0
 48
50.0
100
AcDbBlockBegin
  2
*D28
 70
     1
 10
0.0
 20
0.0
 30
0.0
  3
*D28
  1

  0
LINE
  5
1EBDB
330
1E834
100
AcDbEntity
  8
寸法
 62
     0
 48
50.0
370
    -2
100
AcDbLine
 10
9370.500000000005
 20
8063.955177899428
 30
0.0
 11
7928.499999999996
 21
8063.955177899428
 31
0.0
  0
LINE
  5
1EBDC
330
1E834
100
AcDbEntity
  8
寸法
 62
     0
 48
50.0
370
    -2
100
AcDbLine
 10
8003.499999999997
 20
8498.955177899429
 30
0.0
 11
8003.499999999997
 21
8063.955177899428
 31
0.0
  0
INSERT
  5
1EBDD
330
1E834
100
AcDbEntity
  8
寸法
 62
     0
 48
50.0
370
    -2
100
AcDbBlockReference
  2
_DOTSMALL
 10
8003.499999999997
 20
8498.955177899429
 30
0.0
 41
125.0
 42
125.0
 43
125.0
 50
90.0
  0
INSERT
  5
1EBDE
330
1E834
100
AcDbEntity
  8
寸法
 62
     0
 48
50.0
370
    -2
100
AcDbBlockReference
  2
_DOTSMALL
 10
8003.499999999997
 20
8063.955177899428
 30
0.0
 41
125.0
 42
125.0
 43
125.0
 50
270.0
  0
MTEXT
  5
1EBDF
330
1E834
100
AcDbEntity
  8
寸法
 62
     7
 48
50.0
100
AcDbMText
 10
7903.499999999997
 20
8281.455177899429
 30
0.0
 40
150.0
 41
0.0
 71
     5
 72
     1
  1
\A1;435
  7
STYLE1
 11
0.0000000000000001
 21
1.0
 31
0.0
 73
     1
 44
1.0
  0
POINT
  5
1EBE0
330
1E834
100
AcDbEntity
  8
DEFPOINTS
 62
     0
 48
50.0
100
AcDbPoint
 10
9395.500000000003
 20
8498.955177899429
 30
0.0
  0
POINT
  5
1EBE1
330
1E834
100
AcDbEntity
  8
DEFPOINTS
 62
     0
 48
50.0
100
AcDbPoint
 10
9395.500000000003
 20
8063.955177899428
 30
0.0
  0
POINT
  5
1EBE2
330
1E834
100
AcDbEntity
  8
DEFPOINTS
 62
     0
 48
50.0
100
AcDbPoint
 10
8003.499999999997
 20
8063.955177899428
 30
0.0
  0
ENDBLK
  5
1E83E
330
1E834
100
AcDbEntity
  8
0
 48
50.0
100
AcDbBlockEnd
  0
BLOCK
  5
1E849
330
1E83F
100
AcDbEntity
  8
0
 48
50.0
100
AcDbBlockBegin
  2
*D29
 70
     1
 10
0.0
 20
0.0
 30
0.0
  3
*D29
  1

  0
LINE
  5
1EBD2
330
1E83F
100
AcDbEntity
  8
寸法
 62
     0
 48
50.0
370
    -2
100
AcDbLine
 10
11970.49999999999
 20
8859.955177899427
 30
0.0
 11
12730.5
 21
8859.955177899427
 31
0.0
  0
LINE
  5
1EBD3
330
1E83F
100
AcDbEntity
  8
寸法
 62
     0
 48
50.0
370
    -2
100
AcDbLine
 10
11825.49999999999
 20
8005.955177899428
 30
0.0
 11
12730.5
 21
8005.955177899428
 31
0.0
  0
LINE
  5
1EBD4
330
1E83F
100
AcDbEntity
  8
寸法
 62
     0
 48
50.0
370
    -2
100
AcDbLine
 10
12655.49999999999
 20
8859.955177899427
 30
0.0
 11
12655.49999999999
 21
8005.955177899428
 31
0.0
  0
INSERT
  5
1EBD5
330
1E83F
100
AcDbEntity
  8
寸法
 62
     0
 48
50.0
370
    -2
100
AcDbBlockReference
  2
_DOTSMALL
 10
12655.49999999999
 20
8859.955177899427
 30
0.0
 41
125.0
 42
125.0
 43
125.0
 50
90.0
  0
INSERT
  5
1EBD6
330
1E83F
100
AcDbEntity
  8
寸法
 62
     0
 48
50.0
370
    -2
100
AcDbBlockReference
  2
_DOTSMALL
 10
12655.49999999999
 20
8005.955177899428
 30
0.0
 41
125.0
 42
125.0
 43
125.0
 50
270.0
  0
MTEXT
  5
1EBD7
330
1E83F
100
AcDbEntity
  8
寸法
 62
     7
 48
50.0
100
AcDbMText
 10
12555.49999999999
 20
8432.95517789943
 30
0.0
 40
150.0
 41
0.0
 71
     5
 72
     1
  1
\A1;854
  7
STYLE1
 11
0.0000000000000001
 21
1.0
 31
0.0
 73
     1
 44
1.0
  0
POINT
  5
1EBD8
330
1E83F
100
AcDbEntity
  8
DEFPOINTS
 62
     0
 48
50.0
100
AcDbPoint
 10
11945.5
 20
8859.955177899427
 30
0.0
  0
POINT
  5
1EBD9
330
1E83F
100
AcDbEntity
  8
DEFPOINTS
 62
     0
 48
50.0
100
AcDbPoint
 10
11800.5
 20
8005.955177899428
 30
0.0
  0
POINT
  5
1EBDA
330
1E83F
100
AcDbEntity
  8
DEFPOINTS
 62
     0
 48
50.0
100
AcDbPoint
 10
12655.49999999999
 20
8005.955177899428
 30
0.0
  0
ENDBLK
  5
1E84A
330
1E83F
100
AcDbEntity
  8
0
 48
50.0
100
AcDbBlockEnd
  0
BLOCK
  5
1E855
330
1E84B
100
AcDbEntity
  8
0
 48
50.0
100
AcDbBlockBegin
  2
*D30
 70
     1
 10
0.0
 20
0.0
 30
0.0
  3
*D30
  1

  0
LINE
  5
1EBC9
330
1E84B
100
AcDbEntity
  8
寸法
 62
     0
 48
50.0
370
    -2
100
AcDbLine
 10
11970.49999999999
 20
6397.955177899429
 30
0.0
 11
13080.5
 21
6397.955177899429
 31
0.0
  0
LINE
  5
1EBCA
330
1E84B
100
AcDbEntity
  8
寸法
 62
     0
 48
50.0
370
    -2
100
AcDbLine
 10
11970.49999999999
 20
8859.955177899427
 30
0.0
 11
13080.5
 21
8859.955177899427
 31
0.0
  0
LINE
  5
1EBCB
330
1E84B
100
AcDbEntity
  8
寸法
 62
     0
 48
50.0
370
    -2
100
AcDbLine
 10
13005.5
 20
6397.955177899429
 30
0.0
 11
13005.5
 21
8859.955177899427
 31
0.0
  0
INSERT
  5
1EBCC
330
1E84B
100
AcDbEntity
  8
寸法
 62
     0
 48
50.0
370
    -2
100
AcDbBlockReference
  2
_DOTSMALL
 10
13005.5
 20
6397.955177899429
 30
0.0
 41
125.0
 42
125.0
 43
125.0
 50
270.0
  0
INSERT
  5
1EBCD
330
1E84B
100
AcDbEntity
  8
寸法
 62
     0
 48
50.0
370
    -2
100
AcDbBlockReference
  2
_DOTSMALL
 10
13005.5
 20
8859.955177899427
 30
0.0
 41
125.0
 42
125.0
 43
125.0
 50
90.0
  0
MTEXT
  5
1EBCE
330
1E84B
100
AcDbEntity
  8
寸法
 62
     7
 48
50.0
100
AcDbMText
 10
12905.48523622047
 20
7628.955177899429
 30
0.0
 40
150.0
 41
0.0
 71
     5
 72
     1
  1
\A1;2462
  7
STYLE1
 11
0.0000000000000001
 21
1.0
 31
0.0
 73
     1
 44
1.0
  0
POINT
  5
1EBCF
330
1E84B
100
AcDbEntity
  8
DEFPOINTS
 62
     0
 48
50.0
100
AcDbPoint
 10
11945.5
 20
6397.955177899429
 30
0.0
  0
POINT
  5
1EBD0
330
1E84B
100
AcDbEntity
  8
DEFPOINTS
 62
     0
 48
50.0
100
AcDbPoint
 10
11945.5
 20
8859.955177899427
 30
0.0
  0
POINT
  5
1EBD1
330
1E84B
100
AcDbEntity
  8
DEFPOINTS
 62
     0
 48
50.0
100
AcDbPoint
 10
13005.5
 20
8859.955177899427
 30
0.0
  0
ENDBLK
  5
1E856
330
1E84B
100
AcDbEntity
  8
0
 48
50.0
100
AcDbBlockEnd
  0
BLOCK
  5
1E861
330
1E857
100
AcDbEntity
  8
0
 48
50.0
100
AcDbBlockBegin
  2
*D31
 70
     1
 10
0.0
 20
0.0
 30
0.0
  3
*D31
  1

  0
LINE
  5
1EBC0
330
1E857
100
AcDbEntity
  8
寸法
 62
     0
 48
50.0
370
    -2
100
AcDbLine
 10
8758.499999999997
 20
6227.955177899428
 30
0.0
 11
8758.499999999997
 21
5387.955177899428
 31
0.0
  0
LINE
  5
1EBC1
330
1E857
100
AcDbEntity
  8
寸法
 62
     0
 48
50.0
370
    -2
100
AcDbLine
 10
11800.5
 20
6227.955177899428
 30
0.0
 11
11800.5
 21
5387.955177899428
 31
0.0
  0
LINE
  5
1EBC2
330
1E857
100
AcDbEntity
  8
寸法
 62
     0
 48
50.0
370
    -2
100
AcDbLine
 10
8758.499999999997
 20
5462.955177899428
 30
0.0
 11
11800.5
 21
5462.955177899428
 31
0.0
  0
INSERT
  5
1EBC3
330
1E857
100
AcDbEntity
  8
寸法
 62
     0
 48
50.0
370
    -2
100
AcDbBlockReference
  2
_DOTSMALL
 10
8758.499999999997
 20
5462.955177899428
 30
0.0
 41
125.0
 42
125.0
 43
125.0
 50
180.0
  0
INSERT
  5
1EBC4
330
1E857
100
AcDbEntity
  8
寸法
 62
     0
 48
50.0
370
    -2
100
AcDbBlockReference
  2
_DOTSMALL
 10
11800.5
 20
5462.955177899428
 30
0.0
 41
125.0
 42
125.0
 43
125.0
  0
MTEXT
  5
1EBC5
330
1E857
100
AcDbEntity
  8
寸法
 62
     7
 48
50.0
100
AcDbMText
 10
10279.5
 20
5562.969941678955
 30
0.0
 40
150.0
 41
0.0
 71
     5
 72
     1
  1
\A1;3042
  7
STYLE1
 73
     1
 44
1.0
  0
POINT
  5
1EBC6
330
1E857
100
AcDbEntity
  8
DEFPOINTS
 62
     0
 48
50.0
100
AcDbPoint
 10
8758.499999999997
 20
6252.955177899427
 30
0.0
  0
POINT
  5
1EBC7
330
1E857
100
AcDbEntity
  8
DEFPOINTS
 62
     0
 48
50.0
100
AcDbPoint
 10
11800.5
 20
6252.955177899427
 30
0.0
  0
POINT
  5
1EBC8
330
1E857
100
AcDbEntity
  8
DEFPOINTS
 62
     0
 48
50.0
100
AcDbPoint
 10
11800.5
 20
5462.955177899428
 30
0.0
  0
ENDBLK
  5
1E862
330
1E857
100
AcDbEntity
  8
0
 48
50.0
100
AcDbBlockEnd
  0
BLOCK
  5
1E86C
330
1E863
100
AcDbEntity
  8
0
 48
50.0
100
AcDbBlockBegin
  2
*D32
 70
     1
 10
0.0
 20
0.0
 30
0.0
  3
*D32
  1

  0
LINE
  5
1EBB8
330
1E863
100
AcDbEntity
  8
寸法
 62
     0
 48
50.0
370
    -2
100
AcDbLine
 10
11800.5
 20
6227.955177899428
 30
0.0
 11
11800.5
 21
5787.955177899427
 31
0.0
  0
LINE
  5
1EBB9
330
1E863
100
AcDbEntity
  8
寸法
 62
     0
 48
50.0
370
    -2
100
AcDbLine
 10
10279.5
 20
5862.955177899427
 30
0.0
 11
11800.5
 21
5862.955177899427
 31
0.0
  0
INSERT
  5
1EBBA
330
1E863
100
AcDbEntity
  8
寸法
 62
     0
 48
50.0
370
    -2
100
AcDbBlockReference
  2
_DOTSMALL
 10
10279.5
 20
5862.955177899427
 30
0.0
 41
125.0
 42
125.0
 43
125.0
 50
180.0
  0
INSERT
  5
1EBBB
330
1E863
100
AcDbEntity
  8
寸法
 62
     0
 48
50.0
370
    -2
100
AcDbBlockReference
  2
_DOTSMALL
 10
11800.5
 20
5862.955177899427
 30
0.0
 41
125.0
 42
125.0
 43
125.0
  0
MTEXT
  5
1EBBC
330
1E863
100
AcDbEntity
  8
寸法
 62
     7
 48
50.0
100
AcDbMText
 10
11040.0
 20
5962.969941678956
 30
0.0
 40
150.0
 41
0.0
 71
     5
 72
     1
  1
\A1;1521
  7
STYLE1
 73
     1
 44
1.0
  0
POINT
  5
1EBBD
330
1E863
100
AcDbEntity
  8
DEFPOINTS
 62
     0
 48
50.0
100
AcDbPoint
 10
10279.5
 20
6397.955177899429
 30
0.0
  0
POINT
  5
1EBBE
330
1E863
100
AcDbEntity
  8
DEFPOINTS
 62
     0
 48
50.0
100
AcDbPoint
 10
11800.5
 20
6252.955177899427
 30
0.0
  0
POINT
  5
1EBBF
330
1E863
100
AcDbEntity
  8
DEFPOINTS
 62
     0
 48
50.0
100
AcDbPoint
 10
11800.5
 20
5862.955177899427
 30
0.0
  0
ENDBLK
  5
1E86D
330
1E863
100
AcDbEntity
  8
0
 48
50.0
100
AcDbBlockEnd
  0
BLOCK
  5
1E879
330
1E86E
100
AcDbEntity
  8
0
 48
50.0
100
AcDbBlockBegin
  2
*D33
 70
     1
 10
0.0
 20
0.0
 30
0.0
  3
*D33
  1

  0
LINE
  5
1EBAE
330
1E86E
100
AcDbEntity
  8
寸法
 62
     0
 48
50.0
370
    -2
100
AcDbLine
 10
8588.499999999998
 20
6397.955177899429
 30
0.0
 11
7928.499999999996
 21
6397.955177899429
 31
0.0
  0
LINE
  5
1EBAF
330
1E86E
100
AcDbEntity
  8
寸法
 62
     0
 48
50.0
370
    -2
100
AcDbLine
 10
9315.5
 20
6332.955177899427
 30
0.0
 11
7928.499999999996
 21
6332.955177899427
 31
0.0
  0
LINE
  5
1EBB0
330
1E86E
100
AcDbEntity
  8
寸法
 62
     0
 48
50.0
370
    -2
100
AcDbLine
 10
8003.499999999997
 20
6397.955177899429
 30
0.0
 11
8003.499999999997
 21
6332.955177899427
 31
0.0
  0
LINE
  5
1EBB1
330
1E86E
100
AcDbEntity
  8
寸法
 62
     0
 48
50.0
370
    -2
100
AcDbLine
 10
8003.499999999997
 20
6332.955177899427
 30
0.0
 11
8003.499999999997
 21
5424.241974463831
 31
0.0
  0
INSERT
  5
1EBB2
330
1E86E
100
AcDbEntity
  8
寸法
 62
     0
 48
50.0
370
    -2
100
AcDbBlockReference
  2
_DOTSMALL
 10
8003.499999999997
 20
6397.955177899429
 30
0.0
 41
125.0
 42
125.0
 43
125.0
 50
90.0
  0
INSERT
  5
1EBB3
330
1E86E
100
AcDbEntity
  8
寸法
 62
     0
 48
50.0
370
    -2
100
AcDbBlockReference
  2
_DOTSMALL
 10
8003.499999999997
 20
6332.955177899427
 30
0.0
 41
125.0
 42
125.0
 43
125.0
 50
270.0
  0
MTEXT
  5
1EBB4
330
1E86E
100
AcDbEntity
  8
寸法
 62
     7
 48
50.0
100
AcDbMText
 10
7903.499999999997
 20
5816.09857618163
 30
0.0
 40
150.0
 41
0.0
 71
     5
 72
     1
  1
\A1;扉の出65
  7
STYLE1
 11
0.0000000000000001
 21
1.0
 31
0.0
 73
     1
 44
1.0
  0
POINT
  5
1EBB5
330
1E86E
100
AcDbEntity
  8
DEFPOINTS
 62
     0
 48
50.0
100
AcDbPoint
 10
8613.499999999998
 20
6397.955177899429
 30
0.0
  0
POINT
  5
1EBB6
330
1E86E
100
AcDbEntity
  8
DEFPOINTS
 62
     0
 48
50.0
100
AcDbPoint
 10
9340.500000000002
 20
6332.955177899427
 30
0.0
  0
POINT
  5
1EBB7
330
1E86E
100
AcDbEntity
  8
DEFPOINTS
 62
     0
 48
50.0
100
AcDbPoint
 10
8003.499999999997
 20
6332.955177899427
 30
0.0
  0
ENDBLK
  5
1E87A
330
1E86E
100
AcDbEntity
  8
0
 48
50.0
100
AcDbBlockEnd
  0
BLOCK
  5
1E886
330
1E87B
100
AcDbEntity
  8
0
 48
50.0
100
AcDbBlockBegin
  2
*D34
 70
     1
 10
0.0
 20
0.0
 30
0.0
  3
*D34
  1

  0
LINE
  5
1EBA4
330
1E87B
100
AcDbEntity
  8
寸法
 62
     0
 48
50.0
370
    -2
100
AcDbLine
 10
8703.5
 20
6237.955177899427
 30
0.0
 11
8703.5
 21
5387.955177899428
 31
0.0
  0
LINE
  5
1EBA5
330
1E87B
100
AcDbEntity
  8
寸法
 62
     0
 48
50.0
370
    -2
100
AcDbLine
 10
8758.499999999997
 20
6227.955177899428
 30
0.0
 11
8758.499999999997
 21
5387.955177899428
 31
0.0
  0
LINE
  5
1EBA6
330
1E87B
100
AcDbEntity
  8
寸法
 62
     0
 48
50.0
370
    -2
100
AcDbLine
 10
8758.499999999997
 20
5462.955177899428
 30
0.0
 11
8703.5
 21
5462.955177899428
 31
0.0
  0
LINE
  5
1EBA7
330
1E87B
100
AcDbEntity
  8
寸法
 62
     0
 48
50.0
370
    -2
100
AcDbLine
 10
8703.5
 20
5462.955177899428
 30
0.0
 11
8243.618110236218
 21
5462.955177899428
 31
0.0
  0
INSERT
  5
1EBA8
330
1E87B
100
AcDbEntity
  8
寸法
 62
     0
 48
50.0
370
    -2
100
AcDbBlockReference
  2
_DOTSMALL
 10
8758.499999999997
 20
5462.955177899428
 30
0.0
 41
125.0
 42
125.0
 43
125.0
  0
INSERT
  5
1EBA9
330
1E87B
100
AcDbEntity
  8
寸法
 62
     0
 48
50.0
370
    -2
100
AcDbBlockReference
  2
_DOTSMALL
 10
8703.5
 20
5462.955177899428
 30
0.0
 41
125.0
 42
125.0
 43
125.0
 50
180.0
  0
MTEXT
  5
1EBAA
330
1E87B
100
AcDbEntity
  8
寸法
 62
     7
 48
50.0
100
AcDbMText
 10
8411.059055118109
 20
5570.455177899429
 30
0.0
 40
150.0
 41
0.0
 71
     5
 72
     1
  1
\A1;(55)
  7
STYLE1
 73
     1
 44
1.0
  0
POINT
  5
1EBAB
330
1E87B
100
AcDbEntity
  8
DEFPOINTS
 62
     0
 48
50.0
100
AcDbPoint
 10
8703.5
 20
6262.955177899428
 30
0.0
  0
POINT
  5
1EBAC
330
1E87B
100
AcDbEntity
  8
DEFPOINTS
 62
     0
 48
50.0
100
AcDbPoint
 10
8758.499999999997
 20
6252.955177899427
 30
0.0
  0
POINT
  5
1EBAD
330
1E87B
100
AcDbEntity
  8
DEFPOINTS
 62
     0
 48
50.0
100
AcDbPoint
 10
8758.499999999997
 20
5462.955177899428
 30
0.0
  0
ENDBLK
  5
1E887
330
1E87B
100
AcDbEntity
  8
0
 48
50.0
100
AcDbBlockEnd
  0
BLOCK
  5
1E892
330
1E888
100
AcDbEntity
  8
0
 48
50.0
100
AcDbBlockBegin
  2
*D35
 70
     1
 10
0.0
 20
0.0
 30
0.0
  3
*D35
  1

  0
LINE
  5
1EB9B
330
1E888
100
AcDbEntity
  8
寸法
 62
     0
 48
50.0
370
    -2
100
AcDbLine
 10
8758.499999999997
 20
6227.955177899428
 30
0.0
 11
8758.499999999997
 21
5787.955177899427
 31
0.0
  0
LINE
  5
1EB9C
330
1E888
100
AcDbEntity
  8
寸法
 62
     0
 48
50.0
370
    -2
100
AcDbLine
 10
10279.5
 20
6372.955177899427
 30
0.0
 11
10279.5
 21
5787.955177899427
 31
0.0
  0
LINE
  5
1EB9D
330
1E888
100
AcDbEntity
  8
寸法
 62
     0
 48
50.0
370
    -2
100
AcDbLine
 10
8758.499999999997
 20
5862.955177899427
 30
0.0
 11
10279.5
 21
5862.955177899427
 31
0.0
  0
INSERT
  5
1EB9E
330
1E888
100
AcDbEntity
  8
寸法
 62
     0
 48
50.0
370
    -2
100
AcDbBlockReference
  2
_DOTSMALL
 10
8758.499999999997
 20
5862.955177899427
 30
0.0
 41
125.0
 42
125.0
 43
125.0
 50
180.0
  0
INSERT
  5
1EB9F
330
1E888
100
AcDbEntity
  8
寸法
 62
     0
 48
50.0
370
    -2
100
AcDbBlockReference
  2
_DOTSMALL
 10
10279.5
 20
5862.955177899427
 30
0.0
 41
125.0
 42
125.0
 43
125.0
  0
MTEXT
  5
1EBA0
330
1E888
100
AcDbEntity
  8
寸法
 62
     7
 48
50.0
100
AcDbMText
 10
9519.0
 20
5962.969941678956
 30
0.0
 40
150.0
 41
0.0
 71
     5
 72
     1
  1
\A1;1521
  7
STYLE1
 73
     1
 44
1.0
  0
POINT
  5
1EBA1
330
1E888
100
AcDbEntity
  8
DEFPOINTS
 62
     0
 48
50.0
100
AcDbPoint
 10
8758.499999999997
 20
6252.955177899427
 30
0.0
  0
POINT
  5
1EBA2
330
1E888
100
AcDbEntity
  8
DEFPOINTS
 62
     0
 48
50.0
100
AcDbPoint
 10
10279.5
 20
6397.955177899429
 30
0.0
  0
POINT
  5
1EBA3
330
1E888
100
AcDbEntity
  8
DEFPOINTS
 62
     0
 48
50.0
100
AcDbPoint
 10
10279.5
 20
5862.955177899427
 30
0.0
  0
ENDBLK
  5
1E893
330
1E888
100
AcDbEntity
  8
0
 48
50.0
100
AcDbBlockEnd
  0
BLOCK
  5
1E89D
330
1E894
100
AcDbEntity
  8
0
 48
50.0
100
AcDbBlockBegin
  2
*D36
 70
     1
 10
0.0
 20
0.0
 30
0.0
  3
*D36
  1

  0
LINE
  5
1EB93
330
1E894
100
AcDbEntity
  8
寸法
 62
     0
 48
50.0
370
    -2
100
AcDbLine
 10
9370.500000000005
 20
7193.955177899427
 30
0.0
 11
7928.499999999996
 21
7193.955177899427
 31
0.0
  0
LINE
  5
1EB94
330
1E894
100
AcDbEntity
  8
寸法
 62
     0
 48
50.0
370
    -2
100
AcDbLine
 10
8003.499999999997
 20
7628.955177899428
 30
0.0
 11
8003.499999999997
 21
7193.955177899427
 31
0.0
  0
INSERT
  5
1EB95
330
1E894
100
AcDbEntity
  8
寸法
 62
     0
 48
50.0
370
    -2
100
AcDbBlockReference
  2
_DOTSMALL
 10
8003.499999999997
 20
7628.955177899428
 30
0.0
 41
125.0
 42
125.0
 43
125.0
 50
90.0
  0
INSERT
  5
1EB96
330
1E894
100
AcDbEntity
  8
寸法
 62
     0
 48
50.0
370
    -2
100
AcDbBlockReference
  2
_DOTSMALL
 10
8003.499999999997
 20
7193.955177899427
 30
0.0
 41
125.0
 42
125.0
 43
125.0
 50
270.0
  0
MTEXT
  5
1EB97
330
1E894
100
AcDbEntity
  8
寸法
 62
     7
 48
50.0
100
AcDbMText
 10
7903.499999999997
 20
7411.45517789943
 30
0.0
 40
150.0
 41
0.0
 71
     5
 72
     1
  1
\A1;435
  7
STYLE1
 11
0.0000000000000001
 21
1.0
 31
0.0
 73
     1
 44
1.0
  0
POINT
  5
1EB98
330
1E894
100
AcDbEntity
  8
DEFPOINTS
 62
     0
 48
50.0
100
AcDbPoint
 10
9395.500000000003
 20
7628.955177899428
 30
0.0
  0
POINT
  5
1EB99
330
1E894
100
AcDbEntity
  8
DEFPOINTS
 62
     0
 48
50.0
100
AcDbPoint
 10
9395.500000000003
 20
7193.955177899427
 30
0.0
  0
POINT
  5
1EB9A
330
1E894
100
AcDbEntity
  8
DEFPOINTS
 62
     0
 48
50.0
100
AcDbPoint
 10
8003.499999999997
 20
7193.955177899427
 30
0.0
  0
ENDBLK
  5
1E89E
330
1E894
100
AcDbEntity
  8
0
 48
50.0
100
AcDbBlockEnd
  0
BLOCK
  5
1E8A8
330
1E89F
100
AcDbEntity
  8
0
 48
50.0
100
AcDbBlockBegin
  2
*D37
 70
     1
 10
0.0
 20
0.0
 30
0.0
  3
*D37
  1

  0
LINE
  5
1EB8B
330
1E89F
100
AcDbEntity
  8
寸法
 62
     0
 48
50.0
370
    -2
100
AcDbLine
 10
9370.500000000005
 20
6758.955177899427
 30
0.0
 11
7928.499999999996
 21
6758.955177899427
 31
0.0
  0
LINE
  5
1EB8C
330
1E89F
100
AcDbEntity
  8
寸法
 62
     0
 48
50.0
370
    -2
100
AcDbLine
 10
8003.499999999997
 20
7193.955177899427
 30
0.0
 11
8003.499999999997
 21
6758.955177899427
 31
0.0
  0
INSERT
  5
1EB8D
330
1E89F
100
AcDbEntity
  8
寸法
 62
     0
 48
50.0
370
    -2
100
AcDbBlockReference
  2
_DOTSMALL
 10
8003.499999999997
 20
7193.955177899427
 30
0.0
 41
125.0
 42
125.0
 43
125.0
 50
90.0
  0
INSERT
  5
1EB8E
330
1E89F
100
AcDbEntity
  8
寸法
 62
     0
 48
50.0
370
    -2
100
AcDbBlockReference
  2
_DOTSMALL
 10
8003.499999999997
 20
6758.955177899427
 30
0.0
 41
125.0
 42
125.0
 43
125.0
 50
270.0
  0
MTEXT
  5
1EB8F
330
1E89F
100
AcDbEntity
  8
寸法
 62
     7
 48
50.0
100
AcDbMText
 10
7903.499999999997
 20
6976.455177899429
 30
0.0
 40
150.0
 41
0.0
 71
     5
 72
     1
  1
\A1;435
  7
STYLE1
 11
0.0000000000000001
 21
1.0
 31
0.0
 73
     1
 44
1.0
  0
POINT
  5
1EB90
330
1E89F
100
AcDbEntity
  8
DEFPOINTS
 62
     0
 48
50.0
100
AcDbPoint
 10
9395.500000000003
 20
7193.955177899427
 30
0.0
  0
POINT
  5
1EB91
330
1E89F
100
AcDbEntity
  8
DEFPOINTS
 62
     0
 48
50.0
100
AcDbPoint
 10
9395.500000000003
 20
6758.955177899427
 30
0.0
  0
POINT
  5
1EB92
330
1E89F
100
AcDbEntity
  8
DEFPOINTS
 62
     0
 48
50.0
100
AcDbPoint
 10
8003.499999999997
 20
6758.955177899427
 30
0.0
  0
ENDBLK
  5
1E8A9
330
1E89F
100
AcDbEntity
  8
0
 48
50.0
100
AcDbBlockEnd
  0
BLOCK
  5
1E8B3
330
1E8AA
100
AcDbEntity
  8
0
 48
50.0
100
AcDbBlockBegin
  2
*D38
 70
     1
 10
0.0
 20
0.0
 30
0.0
  3
*D38
  1

  0
LINE
  5
1EB83
330
1E8AA
100
AcDbEntity
  8
寸法
 62
     0
 48
50.0
370
    -2
100
AcDbLine
 10
8588.499999999998
 20
6397.955177899429
 30
0.0
 11
7928.499999999996
 21
6397.955177899429
 31
0.0
  0
LINE
  5
1EB84
330
1E8AA
100
AcDbEntity
  8
寸法
 62
     0
 48
50.0
370
    -2
100
AcDbLine
 10
8003.499999999997
 20
6758.955177899427
 30
0.0
 11
8003.499999999997
 21
6397.955177899429
 31
0.0
  0
INSERT
  5
1EB85
330
1E8AA
100
AcDbEntity
  8
寸法
 62
     0
 48
50.0
370
    -2
100
AcDbBlockReference
  2
_DOTSMALL
 10
8003.499999999997
 20
6758.955177899427
 30
0.0
 41
125.0
 42
125.0
 43
125.0
 50
90.0
  0
INSERT
  5
1EB86
330
1E8AA
100
AcDbEntity
  8
寸法
 62
     0
 48
50.0
370
    -2
100
AcDbBlockReference
  2
_DOTSMALL
 10
8003.499999999997
 20
6397.955177899429
 30
0.0
 41
125.0
 42
125.0
 43
125.0
 50
270.0
  0
MTEXT
  5
1EB87
330
1E8AA
100
AcDbEntity
  8
寸法
 62
     7
 48
50.0
100
AcDbMText
 10
7903.499999999997
 20
6578.45517789943
 30
0.0
 40
150.0
 41
0.0
 71
     5
 72
     1
  1
\A1;361
  7
STYLE1
 11
0.0000000000000001
 21
1.0
 31
0.0
 73
     1
 44
1.0
  0
POINT
  5
1EB88
330
1E8AA
100
AcDbEntity
  8
DEFPOINTS
 62
     0
 48
50.0
100
AcDbPoint
 10
9395.500000000003
 20
6758.955177899427
 30
0.0
  0
POINT
  5
1EB89
330
1E8AA
100
AcDbEntity
  8
DEFPOINTS
 62
     0
 48
50.0
100
AcDbPoint
 10
8613.499999999998
 20
6397.955177899429
 30
0.0
  0
POINT
  5
1EB8A
330
1E8AA
100
AcDbEntity
  8
DEFPOINTS
 62
     0
 48
50.0
100
AcDbPoint
 10
8003.499999999997
 20
6397.955177899429
 30
0.0
  0
ENDBLK
  5
1E8B4
330
1E8AA
100
AcDbEntity
  8
0
 48
50.0
100
AcDbBlockEnd
  0
BLOCK
  5
1E8BE
330
1E8B5
100
AcDbEntity
  8
0
 48
50.0
100
AcDbBlockBegin
  2
*D39
 70
     1
 10
0.0
 20
0.0
 30
0.0
  3
*D39
  1

  0
LINE
  5
1EB7B
330
1E8B5
100
AcDbEntity
  8
寸法
 62
     0
 48
50.0
370
    -2
100
AcDbLine
 10
9370.500000000005
 20
7628.955177899428
 30
0.0
 11
7928.499999999996
 21
7628.955177899428
 31
0.0
  0
LINE
  5
1EB7C
330
1E8B5
100
AcDbEntity
  8
寸法
 62
     0
 48
50.0
370
    -2
100
AcDbLine
 10
8003.499999999997
 20
8063.955177899428
 30
0.0
 11
8003.499999999997
 21
7628.955177899428
 31
0.0
  0
INSERT
  5
1EB7D
330
1E8B5
100
AcDbEntity
  8
寸法
 62
     0
 48
50.0
370
    -2
100
AcDbBlockReference
  2
_DOTSMALL
 10
8003.499999999997
 20
8063.955177899428
 30
0.0
 41
125.0
 42
125.0
 43
125.0
 50
90.0
  0
INSERT
  5
1EB7E
330
1E8B5
100
AcDbEntity
  8
寸法
 62
     0
 48
50.0
370
    -2
100
AcDbBlockReference
  2
_DOTSMALL
 10
8003.499999999997
 20
7628.955177899428
 30
0.0
 41
125.0
 42
125.0
 43
125.0
 50
270.0
  0
MTEXT
  5
1EB7F
330
1E8B5
100
AcDbEntity
  8
寸法
 62
     7
 48
50.0
100
AcDbMText
 10
7903.499999999997
 20
7846.455177899429
 30
0.0
 40
150.0
 41
0.0
 71
     5
 72
     1
  1
\A1;435
  7
STYLE1
 11
0.0000000000000001
 21
1.0
 31
0.0
 73
     1
 44
1.0
  0
POINT
  5
1EB80
330
1E8B5
100
AcDbEntity
  8
DEFPOINTS
 62
     0
 48
50.0
100
AcDbPoint
 10
9395.500000000003
 20
8063.955177899428
 30
0.0
  0
POINT
  5
1EB81
330
1E8B5
100
AcDbEntity
  8
DEFPOINTS
 62
     0
 48
50.0
100
AcDbPoint
 10
9395.500000000003
 20
7628.955177899428
 30
0.0
  0
POINT
  5
1EB82
330
1E8B5
100
AcDbEntity
  8
DEFPOINTS
 62
     0
 48
50.0
100
AcDbPoint
 10
8003.499999999997
 20
7628.955177899428
 30
0.0
  0
ENDBLK
  5
1E8BF
330
1E8B5
100
AcDbEntity
  8
0
 48
50.0
100
AcDbBlockEnd
  0
BLOCK
  5
1E8CB
330
1E8C0
100
AcDbEntity
  8
0
 48
50.0
100
AcDbBlockBegin
  2
*D40
 70
     1
 10
0.0
 20
0.0
 30
0.0
  3
*D40
  1

  0
LINE
  5
1EB71
330
1E8C0
100
AcDbEntity
  8
寸法
 62
     0
 48
50.0
370
    -2
100
AcDbLine
 10
11800.5
 20
6227.955177899428
 30
0.0
 11
11800.5
 21
5387.955177899428
 31
0.0
  0
LINE
  5
1EB72
330
1E8C0
100
AcDbEntity
  8
寸法
 62
     0
 48
50.0
370
    -2
100
AcDbLine
 10
11855.5
 20
6237.955177899427
 30
0.0
 11
11855.5
 21
5387.955177899428
 31
0.0
  0
LINE
  5
1EB73
330
1E8C0
100
AcDbEntity
  8
寸法
 62
     0
 48
50.0
370
    -2
100
AcDbLine
 10
11800.5
 20
5462.955177899428
 30
0.0
 11
11855.5
 21
5462.955177899428
 31
0.0
  0
LINE
  5
1EB74
330
1E8C0
100
AcDbEntity
  8
寸法
 62
     0
 48
50.0
370
    -2
100
AcDbLine
 10
11855.5
 20
5462.955177899428
 30
0.0
 11
12315.38188976378
 21
5462.955177899428
 31
0.0
  0
INSERT
  5
1EB75
330
1E8C0
100
AcDbEntity
  8
寸法
 62
     0
 48
50.0
370
    -2
100
AcDbBlockReference
  2
_DOTSMALL
 10
11800.5
 20
5462.955177899428
 30
0.0
 41
125.0
 42
125.0
 43
125.0
 50
180.0
  0
INSERT
  5
1EB76
330
1E8C0
100
AcDbEntity
  8
寸法
 62
     0
 48
50.0
370
    -2
100
AcDbBlockReference
  2
_DOTSMALL
 10
11855.5
 20
5462.955177899428
 30
0.0
 41
125.0
 42
125.0
 43
125.0
  0
MTEXT
  5
1EB77
330
1E8C0
100
AcDbEntity
  8
寸法
 62
     7
 48
50.0
100
AcDbMText
 10
12147.94094488189
 20
5570.455177899429
 30
0.0
 40
150.0
 41
0.0
 71
     5
 72
     1
  1
\A1;(55)
  7
STYLE1
 73
     1
 44
1.0
  0
POINT
  5
1EB78
330
1E8C0
100
AcDbEntity
  8
DEFPOINTS
 62
     0
 48
50.0
100
AcDbPoint
 10
11800.5
 20
6252.955177899427
 30
0.0
  0
POINT
  5
1EB79
330
1E8C0
100
AcDbEntity
  8
DEFPOINTS
 62
     0
 48
50.0
100
AcDbPoint
 10
11855.5
 20
6262.955177899428
 30
0.0
  0
POINT
  5
1EB7A
330
1E8C0
100
AcDbEntity
  8
DEFPOINTS
 62
     0
 48
50.0
100
AcDbPoint
 10
11855.5
 20
5462.955177899428
 30
0.0
  0
ENDBLK
  5
1E8CC
330
1E8C0
100
AcDbEntity
  8
0
 48
50.0
100
AcDbBlockEnd
  0
BLOCK
  5
1E8D8
330
1E8CD
100
AcDbEntity
  8
0
 48
50.0
100
AcDbBlockBegin
  2
*D41
 70
     1
 10
0.0
 20
0.0
 30
0.0
  3
*D41
  1

  0
LINE
  5
1EB67
330
1E8CD
100
AcDbEntity
  8
寸法
 62
     0
 48
50.0
370
    -2
100
AcDbLine
 10
11970.49999999999
 20
6397.955177899429
 30
0.0
 11
13080.5
 21
6397.955177899429
 31
0.0
  0
LINE
  5
1EB68
330
1E8CD
100
AcDbEntity
  8
寸法
 62
     0
 48
50.0
370
    -2
100
AcDbLine
 10
11880.5
 20
6262.955177899428
 30
0.0
 11
13080.5
 21
6262.955177899428
 31
0.0
  0
LINE
  5
1EB69
330
1E8CD
100
AcDbEntity
  8
寸法
 62
     0
 48
50.0
370
    -2
100
AcDbLine
 10
13005.5
 20
6397.955177899429
 30
0.0
 11
13005.5
 21
6262.955177899428
 31
0.0
  0
LINE
  5
1EB6A
330
1E8CD
100
AcDbEntity
  8
寸法
 62
     0
 48
50.0
370
    -2
100
AcDbLine
 10
13005.5
 20
6262.955177899428
 30
0.0
 11
13005.5
 21
5728.073288135647
 31
0.0
  0
INSERT
  5
1EB6B
330
1E8CD
100
AcDbEntity
  8
寸法
 62
     0
 48
50.0
370
    -2
100
AcDbBlockReference
  2
_DOTSMALL
 10
13005.5
 20
6397.955177899429
 30
0.0
 41
125.0
 42
125.0
 43
125.0
 50
90.0
  0
INSERT
  5
1EB6C
330
1E8CD
100
AcDbEntity
  8
寸法
 62
     0
 48
50.0
370
    -2
100
AcDbBlockReference
  2
_DOTSMALL
 10
13005.5
 20
6262.955177899428
 30
0.0
 41
125.0
 42
125.0
 43
125.0
 50
270.0
  0
MTEXT
  5
1EB6D
330
1E8CD
100
AcDbEntity
  8
寸法
 62
     7
 48
50.0
100
AcDbMText
 10
12898.0
 20
5933.014233017537
 30
0.0
 40
150.0
 41
0.0
 71
     5
 72
     1
  1
\A1;(135)
  7
STYLE1
 11
0.0000000000000001
 21
1.0
 31
0.0
 73
     1
 44
1.0
  0
POINT
  5
1EB6E
330
1E8CD
100
AcDbEntity
  8
DEFPOINTS
 62
     0
 48
50.0
100
AcDbPoint
 10
11945.5
 20
6397.955177899429
 30
0.0
  0
POINT
  5
1EB6F
330
1E8CD
100
AcDbEntity
  8
DEFPOINTS
 62
     0
 48
50.0
100
AcDbPoint
 10
11855.5
 20
6262.955177899428
 30
0.0
  0
POINT
  5
1EB70
330
1E8CD
100
AcDbEntity
  8
DEFPOINTS
 62
     0
 48
50.0
100
AcDbPoint
 10
13005.5
 20
6262.955177899428
 30
0.0
  0
ENDBLK
  5
1E8D9
330
1E8CD
100
AcDbEntity
  8
0
 48
50.0
100
AcDbBlockEnd
  0
BLOCK
  5
1E8E4
330
1E8DA
100
AcDbEntity
  8
0
 48
50.0
100
AcDbBlockBegin
  2
*D42
 70
     1
 10
0.0
 20
0.0
 30
0.0
  3
*D42
  1

  0
LINE
  5
1EB5E
330
1E8DA
100
AcDbEntity
  8
寸法
 62
     0
 48
50.0
370
    -2
100
AcDbLine
 10
11825.49999999999
 20
7251.955177899427
 30
0.0
 11
12730.5
 21
7251.955177899427
 31
0.0
  0
LINE
  5
1EB5F
330
1E8DA
100
AcDbEntity
  8
寸法
 62
     0
 48
50.0
370
    -2
100
AcDbLine
 10
11825.49999999999
 20
8005.955177899428
 30
0.0
 11
12730.5
 21
8005.955177899428
 31
0.0
  0
LINE
  5
1EB60
330
1E8DA
100
AcDbEntity
  8
寸法
 62
     0
 48
50.0
370
    -2
100
AcDbLine
 10
12655.49999999999
 20
7251.955177899427
 30
0.0
 11
12655.49999999999
 21
8005.955177899428
 31
0.0
  0
INSERT
  5
1EB61
330
1E8DA
100
AcDbEntity
  8
寸法
 62
     0
 48
50.0
370
    -2
100
AcDbBlockReference
  2
_DOTSMALL
 10
12655.49999999999
 20
7251.955177899427
 30
0.0
 41
125.0
 42
125.0
 43
125.0
 50
270.0
  0
INSERT
  5
1EB62
330
1E8DA
100
AcDbEntity
  8
寸法
 62
     0
 48
50.0
370
    -2
100
AcDbBlockReference
  2
_DOTSMALL
 10
12655.49999999999
 20
8005.955177899428
 30
0.0
 41
125.0
 42
125.0
 43
125.0
 50
90.0
  0
MTEXT
  5
1EB63
330
1E8DA
100
AcDbEntity
  8
寸法
 62
     7
 48
50.0
100
AcDbMText
 10
12555.49999999999
 20
7628.955177899429
 30
0.0
 40
150.0
 41
0.0
 71
     5
 72
     1
  1
\A1;754
  7
STYLE1
 11
0.0000000000000001
 21
1.0
 31
0.0
 73
     1
 44
1.0
  0
POINT
  5
1EB64
330
1E8DA
100
AcDbEntity
  8
DEFPOINTS
 62
     0
 48
50.0
100
AcDbPoint
 10
11800.5
 20
7251.955177899427
 30
0.0
  0
POINT
  5
1EB65
330
1E8DA
100
AcDbEntity
  8
DEFPOINTS
 62
     0
 48
50.0
100
AcDbPoint
 10
11800.5
 20
8005.955177899428
 30
0.0
  0
POINT
  5
1EB66
330
1E8DA
100
AcDbEntity
  8
DEFPOINTS
 62
     0
 48
50.0
100
AcDbPoint
 10
12655.49999999999
 20
8005.955177899428
 30
0.0
  0
ENDBLK
  5
1E8E5
330
1E8DA
100
AcDbEntity
  8
0
 48
50.0
100
AcDbBlockEnd
  0
BLOCK
  5
1E8EF
330
1E8E6
100
AcDbEntity
  8
0
 48
50.0
100
AcDbBlockBegin
  2
*D43
 70
     1
 10
0.0
 20
0.0
 30
0.0
  3
*D43
  1

  0
LINE
  5
1EB56
330
1E8E6
100
AcDbEntity
  8
寸法
 62
     0
 48
50.0
370
    -2
100
AcDbLine
 10
11970.49999999999
 20
6397.955177899429
 30
0.0
 11
12730.5
 21
6397.955177899429
 31
0.0
  0
LINE
  5
1EB57
330
1E8E6
100
AcDbEntity
  8
寸法
 62
     0
 48
50.0
370
    -2
100
AcDbLine
 10
12655.49999999999
 20
7251.955177899427
 30
0.0
 11
12655.49999999999
 21
6397.955177899429
 31
0.0
  0
INSERT
  5
1EB58
330
1E8E6
100
AcDbEntity
  8
寸法
 62
     0
 48
50.0
370
    -2
100
AcDbBlockReference
  2
_DOTSMALL
 10
12655.49999999999
 20
7251.955177899427
 30
0.0
 41
125.0
 42
125.0
 43
125.0
 50
90.0
  0
INSERT
  5
1EB59
330
1E8E6
100
AcDbEntity
  8
寸法
 62
     0
 48
50.0
370
    -2
100
AcDbBlockReference
  2
_DOTSMALL
 10
12655.49999999999
 20
6397.955177899429
 30
0.0
 41
125.0
 42
125.0
 43
125.0
 50
270.0
  0
MTEXT
  5
1EB5A
330
1E8E6
100
AcDbEntity
  8
寸法
 62
     7
 48
50.0
100
AcDbMText
 10
12555.49999999999
 20
6824.955177899429
 30
0.0
 40
150.0
 41
0.0
 71
     5
 72
     1
  1
\A1;854
  7
STYLE1
 11
0.0000000000000001
 21
1.0
 31
0.0
 73
     1
 44
1.0
  0
POINT
  5
1EB5B
330
1E8E6
100
AcDbEntity
  8
DEFPOINTS
 62
     0
 48
50.0
100
AcDbPoint
 10
11800.5
 20
7251.955177899427
 30
0.0
  0
POINT
  5
1EB5C
330
1E8E6
100
AcDbEntity
  8
DEFPOINTS
 62
     0
 48
50.0
100
AcDbPoint
 10
11945.5
 20
6397.955177899429
 30
0.0
  0
POINT
  5
1EB5D
330
1E8E6
100
AcDbEntity
  8
DEFPOINTS
 62
     0
 48
50.0
100
AcDbPoint
 10
12655.49999999999
 20
6397.955177899429
 30
0.0
  0
ENDBLK
  5
1E8F0
330
1E8E6
100
AcDbEntity
  8
0
 48
50.0
100
AcDbBlockEnd
  0
BLOCK
  5
1E8FB
330
1E8F1
100
AcDbEntity
  8
0
 48
50.0
100
AcDbBlockBegin
  2
*D44
 70
     1
 10
0.0
 20
0.0
 30
0.0
  3
*D44
  1

  0
LINE
  5
1EB4D
330
1E8F1
100
AcDbEntity
  8
寸法
 62
     0
 48
50.0
370
    -2
100
AcDbLine
 10
8203.470472440944
 20
8859.955177899427
 30
0.0
 11
7928.499999999996
 21
8859.955177899427
 31
0.0
  0
LINE
  5
1EB4E
330
1E8F1
100
AcDbEntity
  8
寸法
 62
     0
 48
50.0
370
    -2
100
AcDbLine
 10
9370.500000000005
 20
8498.955177899429
 30
0.0
 11
7928.499999999996
 21
8498.955177899429
 31
0.0
  0
LINE
  5
1EB4F
330
1E8F1
100
AcDbEntity
  8
寸法
 62
     0
 48
50.0
370
    -2
100
AcDbLine
 10
8003.499999999997
 20
8859.955177899427
 30
0.0
 11
8003.499999999997
 21
8498.955177899429
 31
0.0
  0
INSERT
  5
1EB50
330
1E8F1
100
AcDbEntity
  8
寸法
 62
     0
 48
50.0
370
    -2
100
AcDbBlockReference
  2
_DOTSMALL
 10
8003.499999999997
 20
8859.955177899427
 30
0.0
 41
125.0
 42
125.0
 43
125.0
 50
90.0
  0
INSERT
  5
1EB51
330
1E8F1
100
AcDbEntity
  8
寸法
 62
     0
 48
50.0
370
    -2
100
AcDbBlockReference
  2
_DOTSMALL
 10
8003.499999999997
 20
8498.955177899429
 30
0.0
 41
125.0
 42
125.0
 43
125.0
 50
270.0
  0
MTEXT
  5
1EB52
330
1E8F1
100
AcDbEntity
  8
寸法
 62
     7
 48
50.0
100
AcDbMText
 10
7903.499999999997
 20
8679.455177899432
 30
0.0
 40
150.0
 41
0.0
 71
     5
 72
     1
  1
\A1;361
  7
STYLE1
 11
0.0000000000000001
 21
1.0
 31
0.0
 73
     1
 44
1.0
  0
POINT
  5
1EB53
330
1E8F1
100
AcDbEntity
  8
DEFPOINTS
 62
     0
 48
50.0
100
AcDbPoint
 10
8228.470472440944
 20
8859.955177899427
 30
0.0
  0
POINT
  5
1EB54
330
1E8F1
100
AcDbEntity
  8
DEFPOINTS
 62
     0
 48
50.0
100
AcDbPoint
 10
9395.500000000003
 20
8498.955177899429
 30
0.0
  0
POINT
  5
1EB55
330
1E8F1
100
AcDbEntity
  8
DEFPOINTS
 62
     0
 48
50.0
100
AcDbPoint
 10
8003.499999999997
 20
8498.955177899429
 30
0.0
  0
ENDBLK
  5
1E8FC
330
1E8F1
100
AcDbEntity
  8
0
 48
50.0
100
AcDbBlockEnd
  0
BLOCK
  5
1E907
330
1E8FD
100
AcDbEntity
  8
0
 48
50.0
100
AcDbBlockBegin
  2
*D45
 70
     1
 10
0.0
 20
0.0
 30
0.0
  3
*D45
  1

  0
LINE
  5
1EB44
330
1E8FD
100
AcDbEntity
  8
寸法
 62
     0
 48
50.0
370
    -2
100
AcDbLine
 10
8633.500000000003
 20
8959.955177899429
 30
0.0
 11
8328.500000000003
 21
8959.955177899429
 31
0.0
  0
LINE
  5
1EB45
330
1E8FD
100
AcDbEntity
  8
寸法
 62
     0
 48
50.0
370
    -2
100
AcDbLine
 10
8633.500000000003
 20
8759.955177899428
 30
0.0
 11
8328.500000000003
 21
8759.955177899428
 31
0.0
  0
LINE
  5
1EB46
330
1E8FD
100
AcDbEntity
  8
寸法
 62
     0
 48
50.0
370
    -2
100
AcDbLine
 10
8403.500000000002
 20
8959.955177899429
 30
0.0
 11
8403.500000000002
 21
8759.955177899428
 31
0.0
  0
INSERT
  5
1EB47
330
1E8FD
100
AcDbEntity
  8
寸法
 62
     0
 48
50.0
370
    -2
100
AcDbBlockReference
  2
_DOTSMALL
 10
8403.500000000002
 20
8959.955177899429
 30
0.0
 41
125.0
 42
125.0
 43
125.0
 50
90.0
  0
INSERT
  5
1EB48
330
1E8FD
100
AcDbEntity
  8
寸法
 62
     0
 48
50.0
370
    -2
100
AcDbBlockReference
  2
_DOTSMALL
 10
8403.500000000002
 20
8759.955177899428
 30
0.0
 41
125.0
 42
125.0
 43
125.0
 50
270.0
  0
MTEXT
  5
1EB49
330
1E8FD
100
AcDbEntity
  8
寸法
 62
     7
 48
50.0
100
AcDbMText
 10
8303.485236220472
 20
8859.955177899427
 30
0.0
 40
150.0
 41
0.0
 71
     5
 72
     1
  1
\A1;200
  7
STYLE1
 11
0.0000000000000001
 21
1.0
 31
0.0
 73
     1
 44
1.0
  0
POINT
  5
1EB4A
330
1E8FD
100
AcDbEntity
  8
DEFPOINTS
 62
     0
 48
50.0
100
AcDbPoint
 10
8658.500000000001
 20
8959.955177899429
 30
0.0
  0
POINT
  5
1EB4B
330
1E8FD
100
AcDbEntity
  8
DEFPOINTS
 62
     0
 48
50.0
100
AcDbPoint
 10
8658.500000000001
 20
8759.955177899428
 30
0.0
  0
POINT
  5
1EB4C
330
1E8FD
100
AcDbEntity
  8
DEFPOINTS
 62
     0
 48
50.0
100
AcDbPoint
 10
8403.500000000002
 20
8759.955177899428
 30
0.0
  0
ENDBLK
  5
1E908
330
1E8FD
100
AcDbEntity
  8
0
 48
50.0
100
AcDbBlockEnd
  0
BLOCK
  5
1E913
330
1E909
100
AcDbEntity
  8
0
 48
50.0
100
AcDbBlockBegin
  2
*D46
 70
     1
 10
0.0
 20
0.0
 30
0.0
  3
*D46
  1

  0
LINE
  5
1EB3B
330
1E909
100
AcDbEntity
  8
寸法
 62
     0
 48
50.0
370
    -2
100
AcDbLine
 10
8858.500000000002
 20
8984.955177899427
 30
0.0
 11
8858.500000000002
 21
9329.955177899428
 31
0.0
  0
LINE
  5
1EB3C
330
1E909
100
AcDbEntity
  8
寸法
 62
     0
 48
50.0
370
    -2
100
AcDbLine
 10
8658.500000000001
 20
8984.955177899427
 30
0.0
 11
8658.500000000001
 21
9329.955177899428
 31
0.0
  0
LINE
  5
1EB3D
330
1E909
100
AcDbEntity
  8
寸法
 62
     0
 48
50.0
370
    -2
100
AcDbLine
 10
8858.500000000002
 20
9254.955177899429
 30
0.0
 11
8658.500000000001
 21
9254.955177899429
 31
0.0
  0
INSERT
  5
1EB3E
330
1E909
100
AcDbEntity
  8
寸法
 62
     0
 48
50.0
370
    -2
100
AcDbBlockReference
  2
_DOTSMALL
 10
8858.500000000002
 20
9254.955177899429
 30
0.0
 41
125.0
 42
125.0
 43
125.0
  0
INSERT
  5
1EB3F
330
1E909
100
AcDbEntity
  8
寸法
 62
     0
 48
50.0
370
    -2
100
AcDbBlockReference
  2
_DOTSMALL
 10
8658.500000000001
 20
9254.955177899429
 30
0.0
 41
125.0
 42
125.0
 43
125.0
 50
180.0
  0
MTEXT
  5
1EB40
330
1E909
100
AcDbEntity
  8
寸法
 62
     7
 48
50.0
100
AcDbMText
 10
8758.500000000003
 20
9354.969941678957
 30
0.0
 40
150.0
 41
0.0
 71
     5
 72
     1
  1
\A1;200
  7
STYLE1
 73
     1
 44
1.0
  0
POINT
  5
1EB41
330
1E909
100
AcDbEntity
  8
DEFPOINTS
 62
     0
 48
50.0
100
AcDbPoint
 10
8858.500000000002
 20
8959.955177899429
 30
0.0
  0
POINT
  5
1EB42
330
1E909
100
AcDbEntity
  8
DEFPOINTS
 62
     0
 48
50.0
100
AcDbPoint
 10
8658.500000000001
 20
8959.955177899429
 30
0.0
  0
POINT
  5
1EB43
330
1E909
100
AcDbEntity
  8
DEFPOINTS
 62
     0
 48
50.0
100
AcDbPoint
 10
8658.500000000001
 20
9254.955177899429
 30
0.0
  0
ENDBLK
  5
1E914
330
1E909
100
AcDbEntity
  8
0
 48
50.0
100
AcDbBlockEnd
  0
BLOCK
  5
1E920
330
1E915
100
AcDbEntity
  8
0
 48
50.0
100
AcDbBlockBegin
  2
*D47
 70
     1
 10
0.0
 20
0.0
 30
0.0
  3
*D47
  1

  0
LINE
  5
1EB31
330
1E915
100
AcDbEntity
  8
寸法
 62
     0
 48
50.0
370
    -2
100
AcDbLine
 10
11970.49999999999
 20
8859.955177899427
 30
0.0
 11
13080.5
 21
8859.955177899427
 31
0.0
  0
LINE
  5
1EB32
330
1E915
100
AcDbEntity
  8
寸法
 62
     0
 48
50.0
370
    -2
100
AcDbLine
 10
11880.5
 20
8954.955177899426
 30
0.0
 11
13080.5
 21
8954.955177899424
 31
0.0
  0
LINE
  5
1EB33
330
1E915
100
AcDbEntity
  8
寸法
 62
     0
 48
50.0
370
    -2
100
AcDbLine
 10
13005.5
 20
8859.955177899427
 30
0.0
 11
13005.5
 21
8954.955177899424
 31
0.0
  0
LINE
  5
1EB34
330
1E915
100
AcDbEntity
  8
寸法
 62
     0
 48
50.0
370
    -2
100
AcDbLine
 10
13005.5
 20
8954.955177899424
 30
0.0
 11
13005.5
 21
9415.361217237343
 31
0.0
  0
INSERT
  5
1EB35
330
1E915
100
AcDbEntity
  8
寸法
 62
     0
 48
50.0
370
    -2
100
AcDbBlockReference
  2
_DOTSMALL
 10
13005.5
 20
8859.955177899427
 30
0.0
 41
125.0
 42
125.0
 43
125.0
 50
270.0
  0
INSERT
  5
1EB36
330
1E915
100
AcDbEntity
  8
寸法
 62
     0
 48
50.0
370
    -2
100
AcDbBlockReference
  2
_DOTSMALL
 10
13005.5
 20
8954.955177899424
 30
0.0
 41
125.0
 42
125.0
 43
125.0
 50
90.0
  0
MTEXT
  5
1EB37
330
1E915
100
AcDbEntity
  8
寸法
 62
     7
 48
50.0
100
AcDbMText
 10
12897.96374807352
 20
9247.658197568387
 30
0.0
 40
150.0
 41
0.0
 71
     5
 72
     1
  1
\A1;(95)
  7
STYLE1
 11
0.0000000000000001
 21
1.0
 31
0.0
 73
     1
 44
1.0
  0
POINT
  5
1EB38
330
1E915
100
AcDbEntity
  8
DEFPOINTS
 62
     0
 48
50.0
100
AcDbPoint
 10
11945.5
 20
8859.955177899427
 30
0.0
  0
POINT
  5
1EB39
330
1E915
100
AcDbEntity
  8
DEFPOINTS
 62
     0
 48
50.0
100
AcDbPoint
 10
11855.5
 20
8954.955177899426
 30
0.0
  0
POINT
  5
1EB3A
330
1E915
100
AcDbEntity
  8
DEFPOINTS
 62
     0
 48
50.0
100
AcDbPoint
 10
13005.5
 20
8954.955177899424
 30
0.0
  0
ENDBLK
  5
1E921
330
1E915
100
AcDbEntity
  8
0
 48
50.0
100
AcDbBlockEnd
  0
BLOCK
  5
1EC26
330
1EC25
100
AcDbEntity
  8
0
 48
50.0
100
AcDbBlockBegin
  2
*D48
 70
     1
 10
0.0
 20
0.0
 30
0.0
  3
*D48
  1

  0
LINE
  5
1EC27
330
1EC25
100
AcDbEntity
  8
寸法
 62
     0
 48
50.0
370
    -2
100
AcDbLine
 10
12134.39291868346
 20
2029.373661269834
 30
0.0
 11
11703.67290371428
 21
2029.373661269834
 31
0.0
  0
LINE
  5
1EC28
330
1EC25
100
AcDbEntity
  8
寸法
 62
     0
 48
50.0
370
    -2
100
AcDbLine
 10
12090.39291868346
 20
1459.373661269833
 30
0.0
 11
11703.67290371428
 21
1459.373661269833
 31
0.0
  0
LINE
  5
1EC29
330
1EC25
100
AcDbEntity
  8
寸法
 62
     0
 48
50.0
370
    -2
100
AcDbLine
 10
11778.67290371428
 20
2029.373661269834
 30
0.0
 11
11778.67290371428
 21
1459.373661269833
 31
0.0
  0
INSERT
  5
1EC2A
330
1EC25
100
AcDbEntity
  8
寸法
 62
     0
 48
50.0
370
    -2
100
AcDbBlockReference
  2
_DOTSMALL
 10
11778.67290371428
 20
2029.373661269834
 30
0.0
 41
125.0
 42
125.0
 43
125.0
 50
90.0
  0
INSERT
  5
1EC2B
330
1EC25
100
AcDbEntity
  8
寸法
 62
     0
 48
50.0
370
    -2
100
AcDbBlockReference
  2
_DOTSMALL
 10
11778.67290371428
 20
1459.373661269833
 30
0.0
 41
125.0
 42
125.0
 43
125.0
 50
270.0
  0
MTEXT
  5
1EC2C
330
1EC25
100
AcDbEntity
  8
寸法
 62
     7
 48
50.0
100
AcDbMText
 10
11678.65813993475
 20
1744.373661269835
 30
0.0
 40
150.0
 41
0.0
 71
     5
 72
     1
  1
\A1;285
  7
STYLE1
 11
0.0000000000000001
 21
1.0
 31
0.0
 73
     1
 44
1.0
  0
POINT
  5
1EC2D
330
1EC25
100
AcDbEntity
  8
DEFPOINTS
 62
     0
 48
50.0
100
AcDbPoint
 10
12159.39291868346
 20
2029.373661269834
 30
0.0
  0
POINT
  5
1EC2E
330
1EC25
100
AcDbEntity
  8
DEFPOINTS
 62
     0
 48
50.0
100
AcDbPoint
 10
12115.39291868346
 20
1459.373661269833
 30
0.0
  0
POINT
  5
1EC2F
330
1EC25
100
AcDbEntity
  8
DEFPOINTS
 62
     0
 48
50.0
100
AcDbPoint
 10
11778.67290371428
 20
1459.373661269833
 30
0.0
  0
ENDBLK
  5
1EC30
330
1EC25
100
AcDbEntity
  8
0
 48
50.0
100
AcDbBlockEnd
  0
BLOCK
  5
1EC32
330
1EC31
100
AcDbEntity
  8
0
 48
50.0
100
AcDbBlockBegin
  2
*D49
 70
     1
 10
0.0
 20
0.0
 30
0.0
  3
*D49
  1

  0
LINE
  5
1EC33
330
1EC31
100
AcDbEntity
  8
寸法
 62
     0
 48
50.0
370
    -2
100
AcDbLine
 10
11536.22057962788
 20
1749.373661269833
 30
0.0
 11
11421.26221710674
 21
1749.373661269833
 31
0.0
  0
LINE
  5
1EC34
330
1EC31
100
AcDbEntity
  8
寸法
 62
     0
 48
50.0
370
    -2
100
AcDbLine
 10
11946.39291868346
 20
1349.373661269834
 30
0.0
 11
11421.26221710674
 21
1349.373661269834
 31
0.0
  0
LINE
  5
1EC35
330
1EC31
100
AcDbEntity
  8
寸法
 62
     0
 48
50.0
370
    -2
100
AcDbLine
 10
11496.26221710674
 20
1749.373661269833
 30
0.0
 11
11496.26221710674
 21
1349.373661269834
 31
0.0
  0
INSERT
  5
1EC36
330
1EC31
100
AcDbEntity
  8
寸法
 62
     0
 48
50.0
370
    -2
100
AcDbBlockReference
  2
_DOTSMALL
 10
11496.26221710674
 20
1749.373661269833
 30
0.0
 41
125.0
 42
125.0
 43
125.0
 50
90.0
  0
INSERT
  5
1EC37
330
1EC31
100
AcDbEntity
  8
寸法
 62
     0
 48
50.0
370
    -2
100
AcDbBlockReference
  2
_DOTSMALL
 10
11496.26221710674
 20
1349.373661269834
 30
0.0
 41
125.0
 42
125.0
 43
125.0
 50
270.0
  0
MTEXT
  5
1EC38
330
1EC31
100
AcDbEntity
  8
寸法
 62
     7
 48
50.0
100
AcDbMText
 10
11396.24745332722
 20
1549.373661269835
 30
0.0
 40
150.0
 41
0.0
 71
     5
 72
     1
  1
\A1;200
  7
STYLE1
 11
0.0000000000000001
 21
1.0
 31
0.0
 73
     1
 44
1.0
  0
POINT
  5
1EC39
330
1EC31
100
AcDbEntity
  8
DEFPOINTS
 62
     0
 48
50.0
100
AcDbPoint
 10
11561.22057962788
 20
1749.373661269833
 30
0.0
  0
POINT
  5
1EC3A
330
1EC31
100
AcDbEntity
  8
DEFPOINTS
 62
     0
 48
50.0
100
AcDbPoint
 10
11971.39291868346
 20
1349.373661269834
 30
0.0
  0
POINT
  5
1EC3B
330
1EC31
100
AcDbEntity
  8
DEFPOINTS
 62
     0
 48
50.0
100
AcDbPoint
 10
11496.26221710674
 20
1349.373661269834
 30
0.0
  0
ENDBLK
  5
1EC3C
330
1EC31
100
AcDbEntity
  8
0
 48
50.0
100
AcDbBlockEnd
  0
BLOCK
  5
1EC3E
330
1EC3D
100
AcDbEntity
  8
0
 48
50.0
100
AcDbBlockBegin
  2
*D50
 70
     1
 10
0.0
 20
0.0
 30
0.0
  3
*D50
  1

  0
LINE
  5
1EC3F
330
1EC3D
100
AcDbEntity
  8
寸法
 62
     0
 48
50.0
370
    -2
100
AcDbLine
 10
11753.67290371428
 20
1949.373661269834
 30
0.0
 11
11421.91093653513
 21
1949.373661269834
 31
0.0
  0
LINE
  5
1EC40
330
1EC3D
100
AcDbEntity
  8
寸法
 62
     0
 48
50.0
370
    -2
100
AcDbLine
 10
11536.22057962788
 20
1749.373661269833
 30
0.0
 11
11421.91093653513
 21
1749.373661269833
 31
0.0
  0
LINE
  5
1EC41
330
1EC3D
100
AcDbEntity
  8
寸法
 62
     0
 48
50.0
370
    -2
100
AcDbLine
 10
11496.91093653513
 20
1749.373661269833
 30
0.0
 11
11496.91093653513
 21
1949.373661269834
 31
0.0
  0
LINE
  5
1EC42
330
1EC3D
100
AcDbEntity
  8
寸法
 62
     0
 48
50.0
370
    -2
100
AcDbLine
 10
11496.91093653513
 20
1949.373661269834
 30
0.0
 11
11496.91093653513
 21
2381.396299065108
 31
0.0
  0
INSERT
  5
1EC43
330
1EC3D
100
AcDbEntity
  8
寸法
 62
     0
 48
50.0
370
    -2
100
AcDbBlockReference
  2
_DOTSMALL
 10
11496.91093653513
 20
1749.373661269833
 30
0.0
 41
125.0
 42
125.0
 43
125.0
 50
270.0
  0
INSERT
  5
1EC44
330
1EC3D
100
AcDbEntity
  8
寸法
 62
     0
 48
50.0
370
    -2
100
AcDbBlockReference
  2
_DOTSMALL
 10
11496.91093653513
 20
1949.373661269834
 30
0.0
 41
125.0
 42
125.0
 43
125.0
 50
90.0
  0
MTEXT
  5
1EC45
330
1EC3D
100
AcDbEntity
  8
寸法
 62
     7
 48
50.0
100
AcDbMText
 10
11396.91093653513
 20
2236.337243947
 30
0.0
 40
150.0
 41
0.0
 71
     5
 72
     1
  1
\A1;100
  7
STYLE1
 11
0.0000000000000001
 21
1.0
 31
0.0
 73
     1
 44
1.0
  0
POINT
  5
1EC46
330
1EC3D
100
AcDbEntity
  8
DEFPOINTS
 62
     0
 48
50.0
100
AcDbPoint
 10
11778.67290371428
 20
1949.373661269834
 30
0.0
  0
POINT
  5
1EC47
330
1EC3D
100
AcDbEntity
  8
DEFPOINTS
 62
     0
 48
50.0
100
AcDbPoint
 10
11561.22057962788
 20
1749.373661269833
 30
0.0
  0
POINT
  5
1EC48
330
1EC3D
100
AcDbEntity
  8
DEFPOINTS
 62
     0
 48
50.0
100
AcDbPoint
 10
11496.91093653513
 20
1749.373661269833
 30
0.0
  0
ENDBLK
  5
1EC49
330
1EC3D
100
AcDbEntity
  8
0
 48
50.0
100
AcDbBlockEnd
  0
BLOCK
  5
1EC4B
330
1EC4A
100
AcDbEntity
  8
0
 48
50.0
100
AcDbBlockBegin
  2
*D51
 70
     1
 10
0.0
 20
0.0
 30
0.0
  3
*D51
  1

  0
LINE
  5
1EC4C
330
1EC4A
100
AcDbEntity
  8
寸法
 62
     0
 48
50.0
370
    -2
100
AcDbLine
 10
12371.39291868346
 20
1324.373661269834
 30
0.0
 11
12371.39291868346
 21
947.89069578453
 31
0.0
  0
LINE
  5
1EC4D
330
1EC4A
100
AcDbEntity
  8
寸法
 62
     0
 48
50.0
370
    -2
100
AcDbLine
 10
11971.39291868346
 20
1324.373661269834
 30
0.0
 11
11971.39291868346
 21
947.89069578453
 31
0.0
  0
LINE
  5
1EC4E
330
1EC4A
100
AcDbEntity
  8
寸法
 62
     0
 48
50.0
370
    -2
100
AcDbLine
 10
12371.39291868346
 20
1022.89069578453
 30
0.0
 11
11971.39291868346
 21
1022.89069578453
 31
0.0
  0
INSERT
  5
1EC4F
330
1EC4A
100
AcDbEntity
  8
寸法
 62
     0
 48
50.0
370
    -2
100
AcDbBlockReference
  2
_DOTSMALL
 10
12371.39291868346
 20
1022.89069578453
 30
0.0
 41
125.0
 42
125.0
 43
125.0
  0
INSERT
  5
1EC50
330
1EC4A
100
AcDbEntity
  8
寸法
 62
     0
 48
50.0
370
    -2
100
AcDbBlockReference
  2
_DOTSMALL
 10
11971.39291868346
 20
1022.89069578453
 30
0.0
 41
125.0
 42
125.0
 43
125.0
 50
180.0
  0
MTEXT
  5
1EC51
330
1EC4A
100
AcDbEntity
  8
寸法
 62
     7
 48
50.0
100
AcDbMText
 10
12171.39291868346
 20
1122.905459564057
 30
0.0
 40
150.0
 41
0.0
 71
     5
 72
     1
  1
\A1;200
  7
STYLE1
 73
     1
 44
1.0
  0
POINT
  5
1EC52
330
1EC4A
100
AcDbEntity
  8
DEFPOINTS
 62
     0
 48
50.0
100
AcDbPoint
 10
12371.39291868346
 20
1349.373661269834
 30
0.0
  0
POINT
  5
1EC53
330
1EC4A
100
AcDbEntity
  8
DEFPOINTS
 62
     0
 48
50.0
100
AcDbPoint
 10
11971.39291868346
 20
1349.373661269834
 30
0.0
  0
POINT
  5
1EC54
330
1EC4A
100
AcDbEntity
  8
DEFPOINTS
 62
     0
 48
50.0
100
AcDbPoint
 10
11971.39291868346
 20
1022.89069578453
 30
0.0
  0
ENDBLK
  5
1EC55
330
1EC4A
100
AcDbEntity
  8
0
 48
50.0
100
AcDbBlockEnd
  0
BLOCK
  5
1EE4A
330
1EE40
100
AcDbEntity
  8
0
 48
50.0
100
AcDbBlockBegin
  2
*D53
 70
     1
 10
0.0
 20
0.0
 30
0.0
  3
*D53
  1

  0
LINE
  5
1EE71
330
1EE40
100
AcDbEntity
  8
寸法
 62
     0
 48
50.0
370
    -2
100
AcDbLine
 10
12371.39291868346
 20
1324.373661269834
 30
0.0
 11
12371.39291868346
 21
947.89069578453
 31
0.0
  0
LINE
  5
1EE72
330
1EE40
100
AcDbEntity
  8
寸法
 62
     0
 48
50.0
370
    -2
100
AcDbLine
 10
11971.39291868346
 20
1324.373661269834
 30
0.0
 11
11971.39291868346
 21
947.89069578453
 31
0.0
  0
LINE
  5
1EE73
330
1EE40
100
AcDbEntity
  8
寸法
 62
     0
 48
50.0
370
    -2
100
AcDbLine
 10
12371.39291868346
 20
1022.89069578453
 30
0.0
 11
11971.39291868346
 21
1022.89069578453
 31
0.0
  0
INSERT
  5
1EE74
330
1EE40
100
AcDbEntity
  8
寸法
 62
     0
 48
50.0
370
    -2
100
AcDbBlockReference
  2
_DOTSMALL
 10
12371.39291868346
 20
1022.89069578453
 30
0.0
 41
125.0
 42
125.0
 43
125.0
  0
INSERT
  5
1EE75
330
1EE40
100
AcDbEntity
  8
寸法
 62
     0
 48
50.0
370
    -2
100
AcDbBlockReference
  2
_DOTSMALL
 10
11971.39291868346
 20
1022.89069578453
 30
0.0
 41
125.0
 42
125.0
 43
125.0
 50
180.0
  0
MTEXT
  5
1EE76
330
1EE40
100
AcDbEntity
  8
寸法
 62
     7
 48
50.0
100
AcDbMText
 10
12171.39291868346
 20
1122.905459564057
 30
0.0
 40
150.0
 41
0.0
 71
     5
 72
     1
  1
\A1;200
  7
STYLE1
 73
     1
 44
1.0
  0
POINT
  5
1EE77
330
1EE40
100
AcDbEntity
  8
DEFPOINTS
 62
     0
 48
50.0
100
AcDbPoint
 10
12371.39291868346
 20
1349.373661269834
 30
0.0
  0
POINT
  5
1EE78
330
1EE40
100
AcDbEntity
  8
DEFPOINTS
 62
     0
 48
50.0
100
AcDbPoint
 10
11971.39291868346
 20
1349.373661269834
 30
0.0
  0
POINT
  5
1EE79
330
1EE40
100
AcDbEntity
  8
DEFPOINTS
 62
     0
 48
50.0
100
AcDbPoint
 10
11971.39291868346
 20
1022.89069578453
 30
0.0
  0
ENDBLK
  5
1EE4B
330
1EE40
100
AcDbEntity
  8
0
 48
50.0
100
AcDbBlockEnd
  0
BLOCK
  5
1EE56
330
1EE4C
100
AcDbEntity
  8
0
 48
50.0
100
AcDbBlockBegin
  2
*D54
 70
     1
 10
0.0
 20
0.0
 30
0.0
  3
*D54
  1

  0
LINE
  5
1EE7A
330
1EE4C
100
AcDbEntity
  8
寸法
 62
     0
 48
50.0
370
    -2
100
AcDbLine
 10
12134.39291868346
 20
2029.373661269834
 30
0.0
 11
11703.67290371428
 21
2029.373661269834
 31
0.0
  0
LINE
  5
1EE7B
330
1EE4C
100
AcDbEntity
  8
寸法
 62
     0
 48
50.0
370
    -2
100
AcDbLine
 10
12090.39291868346
 20
1459.373661269833
 30
0.0
 11
11703.67290371428
 21
1459.373661269833
 31
0.0
  0
LINE
  5
1EE7C
330
1EE4C
100
AcDbEntity
  8
寸法
 62
     0
 48
50.0
370
    -2
100
AcDbLine
 10
11778.67290371428
 20
2029.373661269834
 30
0.0
 11
11778.67290371428
 21
1459.373661269833
 31
0.0
  0
INSERT
  5
1EE7D
330
1EE4C
100
AcDbEntity
  8
寸法
 62
     0
 48
50.0
370
    -2
100
AcDbBlockReference
  2
_DOTSMALL
 10
11778.67290371428
 20
2029.373661269834
 30
0.0
 41
125.0
 42
125.0
 43
125.0
 50
90.0
  0
INSERT
  5
1EE7E
330
1EE4C
100
AcDbEntity
  8
寸法
 62
     0
 48
50.0
370
    -2
100
AcDbBlockReference
  2
_DOTSMALL
 10
11778.67290371428
 20
1459.373661269833
 30
0.0
 41
125.0
 42
125.0
 43
125.0
 50
270.0
  0
MTEXT
  5
1EE7F
330
1EE4C
100
AcDbEntity
  8
寸法
 62
     7
 48
50.0
100
AcDbMText
 10
11678.65813993475
 20
1744.373661269835
 30
0.0
 40
150.0
 41
0.0
 71
     5
 72
     1
  1
\A1;285
  7
STYLE1
 11
0.0000000000000001
 21
1.0
 31
0.0
 73
     1
 44
1.0
  0
POINT
  5
1EE80
330
1EE4C
100
AcDbEntity
  8
DEFPOINTS
 62
     0
 48
50.0
100
AcDbPoint
 10
12159.39291868346
 20
2029.373661269834
 30
0.0
  0
POINT
  5
1EE81
330
1EE4C
100
AcDbEntity
  8
DEFPOINTS
 62
     0
 48
50.0
100
AcDbPoint
 10
12115.39291868346
 20
1459.373661269833
 30
0.0
  0
POINT
  5
1EE82
330
1EE4C
100
AcDbEntity
  8
DEFPOINTS
 62
     0
 48
50.0
100
AcDbPoint
 10
11778.67290371428
 20
1459.373661269833
 30
0.0
  0
ENDBLK
  5
1EE57
330
1EE4C
100
AcDbEntity
  8
0
 48
50.0
100
AcDbBlockEnd
  0
BLOCK
  5
1EE62
330
1EE58
100
AcDbEntity
  8
0
 48
50.0
100
AcDbBlockBegin
  2
*D55
 70
     1
 10
0.0
 20
0.0
 30
0.0
  3
*D55
  1

  0
LINE
  5
1EE83
330
1EE58
100
AcDbEntity
  8
寸法
 62
     0
 48
50.0
370
    -2
100
AcDbLine
 10
11536.22057962788
 20
1749.373661269833
 30
0.0
 11
11421.26221710674
 21
1749.373661269833
 31
0.0
  0
LINE
  5
1EE84
330
1EE58
100
AcDbEntity
  8
寸法
 62
     0
 48
50.0
370
    -2
100
AcDbLine
 10
11946.39291868346
 20
1349.373661269834
 30
0.0
 11
11421.26221710674
 21
1349.373661269834
 31
0.0
  0
LINE
  5
1EE85
330
1EE58
100
AcDbEntity
  8
寸法
 62
     0
 48
50.0
370
    -2
100
AcDbLine
 10
11496.26221710674
 20
1749.373661269833
 30
0.0
 11
11496.26221710674
 21
1349.373661269834
 31
0.0
  0
INSERT
  5
1EE86
330
1EE58
100
AcDbEntity
  8
寸法
 62
     0
 48
50.0
370
    -2
100
AcDbBlockReference
  2
_DOTSMALL
 10
11496.26221710674
 20
1749.373661269833
 30
0.0
 41
125.0
 42
125.0
 43
125.0
 50
90.0
  0
INSERT
  5
1EE87
330
1EE58
100
AcDbEntity
  8
寸法
 62
     0
 48
50.0
370
    -2
100
AcDbBlockReference
  2
_DOTSMALL
 10
11496.26221710674
 20
1349.373661269834
 30
0.0
 41
125.0
 42
125.0
 43
125.0
 50
270.0
  0
MTEXT
  5
1EE88
330
1EE58
100
AcDbEntity
  8
寸法
 62
     7
 48
50.0
100
AcDbMText
 10
11396.24745332721
 20
1549.373661269835
 30
0.0
 40
150.0
 41
0.0
 71
     5
 72
     1
  1
\A1;200
  7
STYLE1
 11
0.0000000000000001
 21
1.0
 31
0.0
 73
     1
 44
1.0
  0
POINT
  5
1EE89
330
1EE58
100
AcDbEntity
  8
DEFPOINTS
 62
     0
 48
50.0
100
AcDbPoint
 10
11561.22057962788
 20
1749.373661269833
 30
0.0
  0
POINT
  5
1EE8A
330
1EE58
100
AcDbEntity
  8
DEFPOINTS
 62
     0
 48
50.0
100
AcDbPoint
 10
11971.39291868346
 20
1349.373661269834
 30
0.0
  0
POINT
  5
1EE8B
330
1EE58
100
AcDbEntity
  8
DEFPOINTS
 62
     0
 48
50.0
100
AcDbPoint
 10
11496.26221710674
 20
1349.373661269834
 30
0.0
  0
ENDBLK
  5
1EE63
330
1EE58
100
AcDbEntity
  8
0
 48
50.0
100
AcDbBlockEnd
  0
BLOCK
  5
1EE6F
330
1EE64
100
AcDbEntity
  8
0
 48
50.0
100
AcDbBlockBegin
  2
*D56
 70
     1
 10
0.0
 20
0.0
 30
0.0
  3
*D56
  1

  0
LINE
  5
1EE8C
330
1EE64
100
AcDbEntity
  8
寸法
 62
     0
 48
50.0
370
    -2
100
AcDbLine
 10
11753.67290371428
 20
1949.373661269834
 30
0.0
 11
11421.91093653513
 21
1949.373661269834
 31
0.0
  0
LINE
  5
1EE8D
330
1EE64
100
AcDbEntity
  8
寸法
 62
     0
 48
50.0
370
    -2
100
AcDbLine
 10
11536.22057962788
 20
1749.373661269833
 30
0.0
 11
11421.91093653513
 21
1749.373661269833
 31
0.0
  0
LINE
  5
1EE8E
330
1EE64
100
AcDbEntity
  8
寸法
 62
     0
 48
50.0
370
    -2
100
AcDbLine
 10
11496.91093653513
 20
1749.373661269833
 30
0.0
 11
11496.91093653513
 21
1949.373661269834
 31
0.0
  0
LINE
  5
1EE8F
330
1EE64
100
AcDbEntity
  8
寸法
 62
     0
 48
50.0
370
    -2
100
AcDbLine
 10
11496.91093653513
 20
1949.373661269834
 30
0.0
 11
11496.91093653513
 21
2381.396299065108
 31
0.0
  0
INSERT
  5
1EE90
330
1EE64
100
AcDbEntity
  8
寸法
 62
     0
 48
50.0
370
    -2
100
AcDbBlockReference
  2
_DOTSMALL
 10
11496.91093653513
 20
1749.373661269833
 30
0.0
 41
125.0
 42
125.0
 43
125.0
 50
270.0
  0
INSERT
  5
1EE91
330
1EE64
100
AcDbEntity
  8
寸法
 62
     0
 48
50.0
370
    -2
100
AcDbBlockReference
  2
_DOTSMALL
 10
11496.91093653513
 20
1949.373661269834
 30
0.0
 41
125.0
 42
125.0
 43
125.0
 50
90.0
  0
MTEXT
  5
1EE92
330
1EE64
100
AcDbEntity
  8
寸法
 62
     7
 48
50.0
100
AcDbMText
 10
11396.91093653513
 20
2236.337243947
 30
0.0
 40
150.0
 41
0.0
 71
     5
 72
     1
  1
\A1;100
  7
STYLE1
 11
0.0000000000000001
 21
1.0
 31
0.0
 73
     1
 44
1.0
  0
POINT
  5
1EE93
330
1EE64
100
AcDbEntity
  8
DEFPOINTS
 62
     0
 48
50.0
100
AcDbPoint
 10
11778.67290371428
 20
1949.373661269834
 30
0.0
  0
POINT
  5
1EE94
330
1EE64
100
AcDbEntity
  8
DEFPOINTS
 62
     0
 48
50.0
100
AcDbPoint
 10
11561.22057962788
 20
1749.373661269833
 30
0.0
  0
POINT
  5
1EE95
330
1EE64
100
AcDbEntity
  8
DEFPOINTS
 62
     0
 48
50.0
100
AcDbPoint
 10
11496.91093653513
 20
1749.373661269833
 30
0.0
  0
ENDBLK
  5
1EE70
330
1EE64
100
AcDbEntity
  8
0
 48
50.0
100
AcDbBlockEnd
  0
ENDSEC
  0
SECTION
  2
ENTITIES
  0
LINE
  5
10B56
330
747D
100
AcDbEntity
  8
補助
  6
PHANTOM
 62
     7
 48
50.0
100
AcDbLine
 10
175.0
 20
0.0
 30
0.0
 11
174.9999999999993
 21
14262.0
 31
0.0
  0
LINE
  5
10B57
330
747D
100
AcDbEntity
  8
補助
  6
PHANTOM
 62
     7
 48
50.0
100
AcDbLine
 10
174.9999999999993
 20
14262.0
 30
0.0
 11
20384.0
 21
14262.0
 31
0.0
  0
LINE
  5
10B59
330
747D
100
AcDbEntity
  8
仕様書枠
  6
Continuous
 62
     7
 48
50.0
100
AcDbLine
 10
16384.0
 20
1500.0
 30
0.0
 11
16384.0
 21
-0.0000000000000912
 31
0.0
  0
LINE
  5
10B5C
330
747D
100
AcDbEntity
  8
仕様書枠
 62
     7
 48
50.0
100
AcDbLine
 10
20384.0
 20
1500.0
 30
0.0
 11
20384.0
 21
-0.0000000000001137
 31
0.0
  0
LINE
  5
10B5D
330
747D
100
AcDbEntity
  8
仕様書枠
 62
     7
 48
50.0
100
AcDbLine
 10
175.0
 20
0.0
 30
0.0
 11
20384.0
 21
-0.0000000000001137
 31
0.0
  0
LINE
  5
10B5E
330
747D
100
AcDbEntity
  8
補助
  6
PHANTOM
 62
     7
 48
50.0
100
AcDbLine
 10
20384.0
 20
14262.0
 30
0.0
 11
20384.0
 21
1500.0
 31
0.0
  0
LINE
  5
10B6C
330
747D
100
AcDbEntity
  8
仕様書枠
 62
     7
 48
50.0
100
AcDbLine
 10
16384.0
 20
1500.0
 30
0.0
 11
20384.0
 21
1500.0
 31
0.0
  0
TEXT
  5
10B73
330
747D
100
AcDbEntity
  8
仕様書枠
 62
     7
 48
50.0
100
AcDbText
 10
16453.72382072112
 20
1118.863259287425
 30
0.0
 40
250.0
  1
基 礎 図
  7
STYLE2
100
AcDbText
  0
LINE
  5
10B7B
330
747D
100
AcDbEntity
  8
仕様書枠
 62
     7
 48
50.0
100
AcDbLine
 10
16384.0
 20
1000.0
 30
0.0
 11
17814.0
 21
1000.0
 31
0.0
  0
LINE
  5
10B88
330
747D
100
AcDbEntity
  8
仕様書枠
  6
Continuous
 62
     7
 48
50.0
100
AcDbLine
 10
17814.0
 20
1500.0
 30
0.0
 11
17814.0
 21
1000.0
 31
0.0
  0
TEXT
  5
1893F
330
747D
100
AcDbEntity
  8
文字
 62
     7
 48
50.0
100
AcDbText
 10
16511.7566802715
 20
202.8024588414045
 30
0.0
 40
100.0
  1
※寒冷地等は、地域の実情に合わせた基礎にしてください。
  7
STYLE2
100
AcDbText
  0
LINE
  5
18940
330
747D
100
AcDbEntity
  8
仕様書枠
 62
     7
 48
50.0
100
AcDbLine
 10
16484.0
 20
500.0
 30
0.0
 11
20284.0
 21
500.0
 31
0.0
  0
TEXT
  5
1A1F2
330
747D
100
AcDbEntity
  8
文字
 62
     7
 48
50.0
100
AcDbText
 10
18851.17639418858
 20
1289.447132864035
 30
0.0
 40
125.0
  1
<縮尺> S=1/50
  7
STYLE2
100
AcDbText
  0
TEXT
  5
1A1F3
330
747D
100
AcDbEntity
  8
文字
 62
     7
 48
50.0
100
AcDbText
 10
17947.84348957211
 20
604.8708912389265
 30
0.0
 40
225.0
  1
ＳＭＫ－７５Ｓ・Ｈ
  7
STYLE2
100
AcDbText
  0
TEXT
  5
1A1F4
330
747D
100
AcDbEntity
  8
文字
 62
     7
 48
50.0
100
AcDbText
 10
16501.79587498051
 20
596.5925826289065
 30
0.0
 40
200.0
  1
機種名
  7
STYLE2
100
AcDbText
  0
DIMENSION
  5
1E789
330
747D
100
AcDbEntity
  8
寸法
 62
     7
 48
50.0
100
AcDbDimension
  2
*D28
 10
8003.499999999997
 20
8063.955177899428
 30
0.0
 11
7903.499999999997
 21
8281.455177899429
 31
0.0
 70
    32
 71
     5
 42
435.0
  3
INABA_S50G
100
AcDbAlignedDimension
 13
9395.500000000003
 23
8498.955177899429
 33
0.0
 14
9395.500000000003
 24
8063.955177899428
 34
0.0
 50
90.0
100
AcDbRotatedDimension
1001
ACAD
1000
DSTYLE
1002
{
1070
   287
1070
     4
1070
    75
1070
     1
1070
   279
1070
     1
1002
}
  0
LINE
  5
1E78A
330
747D
100
AcDbEntity
  8
部品1
 62
     7
 48
50.0
100
AcDbLine
 10
10918.49999999999
 20
8398.955177899429
 30
0.0
 11
10918.49999999999
 21
8598.955177899428
 31
0.0
  0
LINE
  5
1E78B
330
747D
100
AcDbEntity
  8
センター
 62
     7
 48
5.0
100
AcDbLine
 10
11018.49999999999
 20
8353.955177899427
 30
0.0
 11
11018.49999999999
 21
8643.955177899428
 31
0.0
  0
LINE
  5
1E78C
330
747D
100
AcDbEntity
  8
部品1
 62
     7
 48
50.0
100
AcDbLine
 10
11118.49999999999
 20
8598.955177899428
 30
0.0
 11
11118.49999999999
 21
8398.955177899429
 31
0.0
  0
LINE
  5
1E78D
330
747D
100
AcDbEntity
  8
部品1
 62
     7
 48
50.0
100
AcDbLine
 10
9440.5
 20
8598.955177899428
 30
0.0
 11
9440.5
 21
8398.955177899429
 31
0.0
  0
LINE
  5
1E78E
330
747D
100
AcDbEntity
  8
センター
 62
     7
 48
5.0
100
AcDbLine
 10
9540.499999999999
 20
8353.955177899427
 30
0.0
 11
9540.499999999999
 21
8643.955177899428
 31
0.0
  0
LINE
  5
1E78F
330
747D
100
AcDbEntity
  8
部品1
 62
     7
 48
50.0
100
AcDbLine
 10
9640.500000000001
 20
8398.955177899429
 30
0.0
 11
9640.500000000001
 21
8598.955177899428
 31
0.0
  0
DIMENSION
  5
1E790
330
747D
100
AcDbEntity
  8
寸法
 62
     7
 48
50.0
100
AcDbDimension
  2
*D29
 10
12655.49999999999
 20
8005.955177899428
 30
0.0
 11
12555.49999999999
 21
8432.95517789943
 31
0.0
 70
    32
 71
     5
 42
853.999999999999
  3
INABA_S50G
100
AcDbAlignedDimension
 13
11945.5
 23
8859.955177899427
 33
0.0
 14
11800.5
 24
8005.955177899428
 34
0.0
 50
90.0
100
AcDbRotatedDimension
  0
LINE
  5
1E791
330
747D
100
AcDbEntity
  8
想像線
 62
     7
 48
20.0
100
AcDbLine
 10
8703.5
 20
8954.955177899428
 30
0.0
 11
8703.5
 21
6262.955177899428
 31
0.0
  0
LINE
  5
1E792
330
747D
100
AcDbEntity
  8
想像線
 62
     7
 48
20.0
100
AcDbLine
 10
11855.5
 20
6262.955177899428
 30
0.0
 11
11855.5
 21
8954.955177899426
 31
0.0
  0
DIMENSION
  5
1E793
330
747D
100
AcDbEntity
  8
寸法
 62
     7
 48
50.0
100
AcDbDimension
  2
*D30
 10
13005.5
 20
8859.955177899427
 30
0.0
 11
12905.48523622047
 21
7628.955177899429
 31
0.0
 70
    32
 71
     5
 42
2461.999999999999
  3
INABA_S50G
100
AcDbAlignedDimension
 13
11945.5
 23
6397.955177899429
 33
0.0
 14
11945.5
 24
8859.955177899427
 34
0.0
 50
90.0
100
AcDbRotatedDimension
  0
LINE
  5
1E794
330
747D
100
AcDbEntity
  8
部品1
 62
     7
 48
50.0
100
AcDbLine
 10
11118.49999999999
 20
6658.955177899426
 30
0.0
 11
10918.49999999999
 21
6658.955177899426
 31
0.0
  0
LINE
  5
1E795
330
747D
100
AcDbEntity
  8
部品1
 62
     7
 48
50.0
100
AcDbLine
 10
10918.49999999999
 20
6858.955177899428
 30
0.0
 11
11118.49999999999
 21
6858.955177899428
 31
0.0
  0
LINE
  5
1E796
330
747D
100
AcDbEntity
  8
センター
 62
     7
 48
5.0
100
AcDbLine
 10
10873.5
 20
6758.955177899427
 30
0.0
 11
11163.49999999999
 21
6758.955177899427
 31
0.0
  0
LINE
  5
1E797
330
747D
100
AcDbEntity
  8
部品1
 62
     7
 48
50.0
100
AcDbLine
 10
11118.49999999999
 20
8398.955177899429
 30
0.0
 11
10918.49999999999
 21
8398.955177899429
 31
0.0
  0
LINE
  5
1E798
330
747D
100
AcDbEntity
  8
部品1
 62
     7
 48
50.0
100
AcDbLine
 10
10918.49999999999
 20
8263.955177899429
 30
0.0
 11
11118.49999999999
 21
8263.955177899429
 31
0.0
  0
LINE
  5
1E799
330
747D
100
AcDbEntity
  8
部品1
 62
     7
 48
50.0
100
AcDbLine
 10
11118.49999999999
 20
7863.955177899427
 30
0.0
 11
10918.49999999999
 21
7863.955177899427
 31
0.0
  0
LINE
  5
1E79A
330
747D
100
AcDbEntity
  8
部品1
 62
     7
 48
50.0
100
AcDbLine
 10
11118.49999999999
 20
7728.955177899428
 30
0.0
 11
10918.49999999999
 21
7728.955177899428
 31
0.0
  0
LINE
  5
1E79B
330
747D
100
AcDbEntity
  8
部品1
 62
     7
 48
50.0
100
AcDbLine
 10
10918.49999999999
 20
7528.955177899426
 30
0.0
 11
11118.49999999999
 21
7528.955177899426
 31
0.0
  0
LINE
  5
1E79C
330
747D
100
AcDbEntity
  8
部品1
 62
     7
 48
50.0
100
AcDbLine
 10
11118.49999999999
 20
7393.955177899427
 30
0.0
 11
10918.49999999999
 21
7393.955177899427
 31
0.0
  0
LINE
  5
1E79D
330
747D
100
AcDbEntity
  8
部品1
 62
     7
 48
50.0
100
AcDbLine
 10
10918.49999999999
 20
6993.955177899427
 30
0.0
 11
11118.49999999999
 21
6993.955177899427
 31
0.0
  0
LINE
  5
1E79E
330
747D
100
AcDbEntity
  8
センター
 62
     7
 48
5.0
100
AcDbLine
 10
11163.49999999999
 20
7193.955177899427
 30
0.0
 11
10873.5
 21
7193.955177899427
 31
0.0
  0
LINE
  5
1E79F
330
747D
100
AcDbEntity
  8
センター
 62
     7
 48
5.0
100
AcDbLine
 10
10873.5
 20
7628.955177899428
 30
0.0
 11
11163.49999999999
 21
7628.955177899428
 31
0.0
  0
LINE
  5
1E7A0
330
747D
100
AcDbEntity
  8
センター
 62
     7
 48
5.0
100
AcDbLine
 10
11163.49999999999
 20
8063.955177899428
 30
0.0
 11
10873.5
 21
8063.955177899428
 31
0.0
  0
LINE
  5
1E7A1
330
747D
100
AcDbEntity
  8
想像線
 62
     7
 48
20.0
100
AcDbLine
 10
8703.5
 20
6262.955177899428
 30
0.0
 11
11855.5
 21
6262.955177899428
 31
0.0
  0
DIMENSION
  5
1E7A2
330
747D
100
AcDbEntity
  8
寸法
 62
     7
 48
50.0
100
AcDbDimension
  2
*D31
 10
11800.5
 20
5462.955177899428
 30
0.0
 11
10279.5
 21
5562.969941678955
 31
0.0
 70
    32
 71
     5
 42
3042.000000000002
  3
INABA_S50G
100
AcDbAlignedDimension
 13
8758.499999999997
 23
6252.955177899427
 33
0.0
 14
11800.5
 24
6252.955177899427
 34
0.0
100
AcDbRotatedDimension
  0
DIMENSION
  5
1E7A3
330
747D
100
AcDbEntity
  8
寸法
 62
     7
 48
50.0
100
AcDbDimension
  2
*D32
 10
11800.5
 20
5862.955177899427
 30
0.0
 11
11040.0
 21
5962.969941678956
 31
0.0
 70
    32
 71
     5
 42
1521.0
  3
INABA_S50G
100
AcDbAlignedDimension
 13
10279.5
 23
6397.955177899429
 33
0.0
 14
11800.5
 24
6252.955177899427
 34
0.0
100
AcDbRotatedDimension
1001
ACAD
1000
DSTYLE
1002
{
1070
   287
1070
     4
1070
    75
1070
     1
1070
   279
1070
     1
1002
}
  0
DIMENSION
  5
1E7A4
330
747D
100
AcDbEntity
  8
寸法
 62
     7
 48
50.0
100
AcDbDimension
  2
*D33
 10
8003.499999999997
 20
6332.955177899427
 30
0.0
 11
8003.499999999997
 21
5816.09857618163
 31
0.0
 70
   160
  1
扉の出<>
 71
     5
 42
65.0
  3
INABA_S50G
100
AcDbAlignedDimension
 13
8613.499999999998
 23
6397.955177899429
 33
0.0
 14
9340.500000000002
 24
6332.955177899427
 34
0.0
 50
90.0
100
AcDbRotatedDimension
  0
DIMENSION
  5
1E7A5
330
747D
100
AcDbEntity
  8
寸法
 62
     7
 48
50.0
100
AcDbDimension
  2
*D34
 10
8758.499999999997
 20
5462.955177899428
 30
0.0
 11
8411.059055118109
 21
5462.955177899428
 31
0.0
 70
   160
  1
(<>)
 71
     5
 42
54.99999999999818
  3
INABA_S50G
100
AcDbAlignedDimension
 13
8703.5
 23
6262.955177899428
 33
0.0
 14
8758.499999999997
 24
6252.955177899427
 34
0.0
100
AcDbRotatedDimension
  0
DIMENSION
  5
1E7A6
330
747D
100
AcDbEntity
  8
寸法
 62
     7
 48
50.0
100
AcDbDimension
  2
*D35
 10
10279.5
 20
5862.955177899427
 30
0.0
 11
9519.0
 21
5962.969941678956
 31
0.0
 70
    32
 71
     5
 42
1521.000000000001
  3
INABA_S50G
100
AcDbAlignedDimension
 13
8758.499999999997
 23
6252.955177899427
 33
0.0
 14
10279.5
 24
6397.955177899429
 34
0.0
100
AcDbRotatedDimension
  0
LINE
  5
1E7A8
330
747D
100
AcDbEntity
  8
部品1
 62
     7
 48
50.0
100
AcDbLine
 10
9340.500000000002
 20
6332.955177899427
 30
0.0
 11
9740.5
 21
6332.955177899427
 31
0.0
  0
LINE
  5
1E7A9
330
747D
100
AcDbEntity
  8
部品1
 62
     7
 48
50.0
100
AcDbLine
 10
9340.500000000002
 20
6532.955177899427
 30
0.0
 11
9740.5
 21
6532.955177899427
 31
0.0
  0
LINE
  5
1E7AA
330
747D
100
AcDbEntity
  8
センター
 62
     7
 48
5.0
100
AcDbLine
 10
9685.500000000001
 20
6758.955177899427
 30
0.0
 11
9395.500000000003
 21
6758.955177899427
 31
0.0
  0
LINE
  5
1E7AB
330
747D
100
AcDbEntity
  8
センター
 62
     7
 48
5.0
100
AcDbLine
 10
9395.500000000003
 20
8063.955177899428
 30
0.0
 11
9685.500000000001
 21
8063.955177899428
 31
0.0
  0
LINE
  5
1E7AC
330
747D
100
AcDbEntity
  8
センター
 62
     7
 48
5.0
100
AcDbLine
 10
9685.500000000001
 20
7628.955177899428
 30
0.0
 11
9395.500000000003
 21
7628.955177899428
 31
0.0
  0
LINE
  5
1E7AD
330
747D
100
AcDbEntity
  8
センター
 62
     7
 48
5.0
100
AcDbLine
 10
9395.500000000003
 20
7193.955177899427
 30
0.0
 11
9685.500000000001
 21
7193.955177899427
 31
0.0
  0
DIMENSION
  5
1E7AE
330
747D
100
AcDbEntity
  8
寸法
 62
     7
 48
50.0
100
AcDbDimension
  2
*D36
 10
8003.499999999997
 20
7193.955177899427
 30
0.0
 11
7903.499999999997
 21
7411.45517789943
 31
0.0
 70
    32
 71
     5
 42
435.0000000000008
  3
INABA_S50G
100
AcDbAlignedDimension
 13
9395.500000000003
 23
7628.955177899428
 33
0.0
 14
9395.500000000003
 24
7193.955177899427
 34
0.0
 50
90.0
100
AcDbRotatedDimension
1001
ACAD
1000
DSTYLE
1002
{
1070
   287
1070
     4
1070
    75
1070
     1
1070
   279
1070
     1
1002
}
  0
LINE
  5
1E7AF
330
747D
100
AcDbEntity
  8
部品1
 62
     7
 48
50.0
100
AcDbLine
 10
8958.499999999999
 20
7351.955177899426
 30
0.0
 11
8958.499999999999
 21
7151.955177899427
 31
0.0
  0
LINE
  5
1E7B0
330
747D
100
AcDbEntity
  8
部品1
 62
     7
 48
50.0
100
AcDbLine
 10
8758.499999999997
 20
7151.955177899427
 30
0.0
 11
8758.499999999997
 21
7351.955177899426
 31
0.0
  0
DIMENSION
  5
1E7B1
330
747D
100
AcDbEntity
  8
寸法
 62
     7
 48
50.0
100
AcDbDimension
  2
*D37
 10
8003.499999999997
 20
6758.955177899427
 30
0.0
 11
7903.499999999997
 21
6976.455177899429
 31
0.0
 70
    32
 71
     5
 42
434.999999999999
  3
INABA_S50G
100
AcDbAlignedDimension
 13
9395.500000000003
 23
7193.955177899427
 33
0.0
 14
9395.500000000003
 24
6758.955177899427
 34
0.0
 50
90.0
100
AcDbRotatedDimension
1001
ACAD
1000
DSTYLE
1002
{
1070
   287
1070
     4
1070
    75
1070
     1
1070
   279
1070
     1
1002
}
  0
DIMENSION
  5
1E7B2
330
747D
100
AcDbEntity
  8
寸法
 62
     7
 48
50.0
100
AcDbDimension
  2
*D38
 10
8003.499999999997
 20
6397.955177899429
 30
0.0
 11
7903.499999999997
 21
6578.45517789943
 31
0.0
 70
    32
 71
     5
 42
361.0
  3
INABA_S50G
100
AcDbAlignedDimension
 13
9395.500000000003
 23
6758.955177899427
 33
0.0
 14
8613.499999999998
 24
6397.955177899429
 34
0.0
 50
90.0
100
AcDbRotatedDimension
1001
ACAD
1000
DSTYLE
1002
{
1070
   287
1070
     4
1070
    75
1070
     1
1070
   279
1070
     1
1002
}
  0
LINE
  5
1E7B3
330
747D
100
AcDbEntity
  8
部品1
 62
     7
 48
50.0
100
AcDbLine
 10
8758.499999999997
 20
6397.955177899429
 30
0.0
 11
9158.500000000001
 21
6397.955177899429
 31
0.0
  0
LINE
  5
1E7B4
330
747D
100
AcDbEntity
  8
部品1
 62
     7
 48
50.0
100
AcDbLine
 10
8758.499999999997
 20
6597.955177899426
 30
0.0
 11
9158.500000000001
 21
6597.955177899426
 31
0.0
  0
LINE
  5
1E7B5
330
747D
100
AcDbEntity
  8
点線
 62
     7
 48
10.0
100
AcDbLine
 10
8858.500000000002
 20
6297.955177899426
 30
0.0
 11
8858.500000000002
 21
6497.955177899426
 31
0.0
  0
LINE
  5
1E7B6
330
747D
100
AcDbEntity
  8
センター
 62
     7
 48
5.0
100
AcDbLine
 10
8758.499999999997
 20
6542.955177899428
 30
0.0
 11
8758.499999999997
 21
6252.955177899427
 31
0.0
  0
LINE
  5
1E7B7
330
747D
100
AcDbEntity
  8
点線
 62
     7
 48
10.0
100
AcDbLine
 10
8658.500000000001
 20
6297.955177899426
 30
0.0
 11
8658.500000000001
 21
6497.955177899426
 31
0.0
  0
LINE
  5
1E7B8
330
747D
100
AcDbEntity
  8
点線
 62
     7
 48
10.0
100
AcDbLine
 10
8858.500000000002
 20
6297.955177899426
 30
0.0
 11
8658.500000000001
 21
6297.955177899426
 31
0.0
  0
LINE
  5
1E7B9
330
747D
100
AcDbEntity
  8
センター
 62
     7
 48
5.0
100
AcDbLine
 10
8903.499999999999
 20
6397.955177899429
 30
0.0
 11
8613.5
 21
6397.955177899429
 31
0.0
  0
LINE
  5
1E7BA
330
747D
100
AcDbEntity
  8
点線
 62
     7
 48
10.0
100
AcDbLine
 10
8858.500000000002
 20
6497.955177899426
 30
0.0
 11
8658.500000000001
 21
6497.955177899426
 31
0.0
  0
LINE
  5
1E7BB
330
747D
100
AcDbEntity
  8
部品1
 62
     7
 48
50.0
100
AcDbLine
 10
8758.499999999997
 20
6597.955177899426
 30
0.0
 11
8758.499999999997
 21
6397.955177899429
 31
0.0
  0
LINE
  5
1E7BC
330
747D
100
AcDbEntity
  8
部品1
 62
     7
 48
50.0
100
AcDbLine
 10
9340.500000000002
 20
6332.955177899427
 30
0.0
 11
9340.500000000002
 21
6532.955177899427
 31
0.0
  0
LINE
  5
1E7BD
330
747D
100
AcDbEntity
  8
部品1
 62
     7
 48
50.0
100
AcDbLine
 10
9158.500000000001
 20
6597.955177899426
 30
0.0
 11
9158.500000000001
 21
6397.955177899429
 31
0.0
  0
LINE
  5
1E7BE
330
747D
100
AcDbEntity
  8
部品1
 62
     7
 48
50.0
100
AcDbLine
 10
8958.499999999999
 20
7151.955177899427
 30
0.0
 11
8758.499999999997
 21
7151.955177899427
 31
0.0
  0
DIMENSION
  5
1E7BF
330
747D
100
AcDbEntity
  8
寸法
 62
     7
 48
50.0
100
AcDbDimension
  2
*D39
 10
8003.499999999997
 20
7628.955177899428
 30
0.0
 11
7903.499999999997
 21
7846.455177899429
 31
0.0
 70
    32
 71
     5
 42
435.0
  3
INABA_S50G
100
AcDbAlignedDimension
 13
9395.500000000003
 23
8063.955177899428
 33
0.0
 14
9395.500000000003
 24
7628.955177899428
 34
0.0
 50
90.0
100
AcDbRotatedDimension
1001
ACAD
1000
DSTYLE
1002
{
1070
   287
1070
     4
1070
    75
1070
     1
1070
   279
1070
     1
1002
}
  0
LINE
  5
1E7C0
330
747D
100
AcDbEntity
  8
部品1
 62
     7
 48
50.0
100
AcDbLine
 10
8758.499999999997
 20
7351.955177899426
 30
0.0
 11
8958.499999999999
 21
7351.955177899426
 31
0.0
  0
LINE
  5
1E7C1
330
747D
100
AcDbEntity
  8
部品1
 62
     7
 48
50.0
100
AcDbLine
 10
8758.499999999997
 20
8105.955177899428
 30
0.0
 11
8958.499999999999
 21
8105.955177899428
 31
0.0
  0
LINE
  5
1E7C2
330
747D
100
AcDbEntity
  8
部品1
 62
     7
 48
50.0
100
AcDbLine
 10
8958.499999999999
 20
7905.955177899428
 30
0.0
 11
8758.499999999997
 21
7905.955177899428
 31
0.0
  0
LINE
  5
1E7C3
330
747D
100
AcDbEntity
  8
部品1
 62
     7
 48
50.0
100
AcDbLine
 10
8758.499999999997
 20
7905.955177899428
 30
0.0
 11
8758.499999999997
 21
8105.955177899428
 31
0.0
  0
LINE
  5
1E7C4
330
747D
100
AcDbEntity
  8
部品1
 62
     7
 48
50.0
100
AcDbLine
 10
8958.499999999999
 20
8105.955177899428
 30
0.0
 11
8958.499999999999
 21
7905.955177899428
 31
0.0
  0
LINE
  5
1E7C5
330
747D
100
AcDbEntity
  8
センター
 62
     7
 48
5.0
100
AcDbLine
 10
11018.49999999999
 20
7338.955177899427
 30
0.0
 11
11018.49999999999
 21
7048.955177899427
 31
0.0
  0
LINE
  5
1E7C6
330
747D
100
AcDbEntity
  8
部品1
 62
     7
 48
50.0
100
AcDbLine
 10
10918.49999999999
 20
7393.955177899427
 30
0.0
 11
10918.49999999999
 21
6993.955177899427
 31
0.0
  0
LINE
  5
1E7C7
330
747D
100
AcDbEntity
  8
部品1
 62
     7
 48
50.0
100
AcDbLine
 10
9640.500000000001
 20
7393.955177899427
 30
0.0
 11
9640.500000000001
 21
6993.955177899427
 31
0.0
  0
LINE
  5
1E7C8
330
747D
100
AcDbEntity
  8
センター
 62
     7
 48
5.0
100
AcDbLine
 10
9540.499999999999
 20
7338.955177899427
 30
0.0
 11
9540.499999999999
 21
7048.955177899427
 31
0.0
  0
LINE
  5
1E7C9
330
747D
100
AcDbEntity
  8
部品1
 62
     7
 48
50.0
100
AcDbLine
 10
9440.5
 20
6993.955177899427
 30
0.0
 11
9440.5
 21
7393.955177899427
 31
0.0
  0
LINE
  5
1E7CA
330
747D
100
AcDbEntity
  8
部品1
 62
     7
 48
50.0
100
AcDbLine
 10
10379.5
 20
7351.955177899426
 30
0.0
 11
10379.5
 21
7151.955177899427
 31
0.0
  0
LINE
  5
1E7CB
330
747D
100
AcDbEntity
  8
部品1
 62
     7
 48
50.0
100
AcDbLine
 10
10179.5
 20
7151.955177899427
 30
0.0
 11
10179.5
 21
7351.955177899426
 31
0.0
  0
LINE
  5
1E7CC
330
747D
100
AcDbEntity
  8
センター
 62
     7
 48
5.0
100
AcDbLine
 10
10279.5
 20
7396.955177899427
 30
0.0
 11
10279.5
 21
7106.955177899428
 31
0.0
  0
LINE
  5
1E7CD
330
747D
100
AcDbEntity
  8
センター
 62
     7
 48
5.0
100
AcDbLine
 10
10424.5
 20
7251.955177899427
 30
0.0
 11
10134.49999999999
 21
7251.955177899427
 31
0.0
  0
LINE
  5
1E7CE
330
747D
100
AcDbEntity
  8
部品1
 62
     7
 48
50.0
100
AcDbLine
 10
10379.5
 20
7151.955177899427
 30
0.0
 11
10179.5
 21
7151.955177899427
 31
0.0
  0
LINE
  5
1E7CF
330
747D
100
AcDbEntity
  8
部品1
 62
     7
 48
50.0
100
AcDbLine
 10
10179.5
 20
6597.955177899426
 30
0.0
 11
10379.5
 21
6597.955177899426
 31
0.0
  0
LINE
  5
1E7D0
330
747D
100
AcDbEntity
  8
部品1
 62
     7
 48
50.0
100
AcDbLine
 10
10179.5
 20
6397.955177899429
 30
0.0
 11
10379.5
 21
6397.955177899429
 31
0.0
  0
LINE
  5
1E7D1
330
747D
100
AcDbEntity
  8
部品1
 62
     7
 48
50.0
100
AcDbLine
 10
9440.5
 20
6858.955177899428
 30
0.0
 11
9440.5
 21
6658.955177899426
 31
0.0
  0
LINE
  5
1E7D2
330
747D
100
AcDbEntity
  8
センター
 62
     7
 48
5.0
100
AcDbLine
 10
9540.499999999999
 20
6613.955177899429
 30
0.0
 11
9540.499999999999
 21
6903.955177899428
 31
0.0
  0
LINE
  5
1E7D3
330
747D
100
AcDbEntity
  8
部品1
 62
     7
 48
50.0
100
AcDbLine
 10
9640.500000000001
 20
6658.955177899426
 30
0.0
 11
9640.500000000001
 21
6858.955177899428
 31
0.0
  0
LINE
  5
1E7D4
330
747D
100
AcDbEntity
  8
部品1
 62
     7
 48
50.0
100
AcDbLine
 10
9740.5
 20
6332.955177899427
 30
0.0
 11
9740.5
 21
6532.955177899427
 31
0.0
  0
LINE
  5
1E7D5
330
747D
100
AcDbEntity
  8
部品1
 62
     7
 48
50.0
100
AcDbLine
 10
9440.5
 20
6658.955177899426
 30
0.0
 11
9640.500000000001
 21
6658.955177899426
 31
0.0
  0
LINE
  5
1E7D6
330
747D
100
AcDbEntity
  8
部品1
 62
     7
 48
50.0
100
AcDbLine
 10
10179.5
 20
6397.955177899429
 30
0.0
 11
10179.5
 21
6597.955177899426
 31
0.0
  0
LINE
  5
1E7D7
330
747D
100
AcDbEntity
  8
部品1
 62
     7
 48
50.0
100
AcDbLine
 10
9640.500000000001
 20
6858.955177899428
 30
0.0
 11
9440.5
 21
6858.955177899428
 31
0.0
  0
LINE
  5
1E7D8
330
747D
100
AcDbEntity
  8
部品1
 62
     7
 48
50.0
100
AcDbLine
 10
9640.500000000001
 20
6993.955177899427
 30
0.0
 11
9440.5
 21
6993.955177899427
 31
0.0
  0
LEADER
  5
1E7D9
330
747D
100
AcDbEntity
  8
寸法
 62
     7
 48
50.0
100
AcDbLeader
  3
INABA_S50G
 71
     0
 73
     0
 74
     0
 75
     1
 40
150.0
 41
231.9898538650462
 76
     3
 10
10324.86025214735
 20
6597.955177899426
 30
0.0
 10
10415.47350303282
 20
6805.569075062618
 30
0.0
 10
10540.47350303282
 20
6805.569075062618
 30
0.0
340
1E7DA
1001
ACAD
1000
DSTYLE
1002
{
1070
     6
1000
DOTSMALL
1002
}
1000
LEANOF
1010
0.0
1020
0.0
1030
0.0
  0
MTEXT
  5
1E7DA
102
{ACAD_REACTORS
330
1E7D9
102
}
330
747D
100
AcDbEntity
  8
細線
 62
     7
 48
50.0
100
AcDbMText
 10
10565.47350303282
 20
6905.569075062619
 30
0.0
 40
150.0
 41
0.0
 71
     4
 72
     5
  1
\A1;C.B
  7
STYLE1
 73
     1
 44
1.0
1001
ACAD
1000
MTEXTBEGIN
1070
    73
1070
     1
1070
    44
1040
1.0
1070
    74
1070
     0
1000
MTEXTEND
  0
LINE
  5
1E7DB
330
747D
100
AcDbEntity
  8
部品1
 62
     7
 48
50.0
100
AcDbLine
 10
10918.49999999999
 20
6658.955177899426
 30
0.0
 11
10918.49999999999
 21
6858.955177899428
 31
0.0
  0
LINE
  5
1E7DC
330
747D
100
AcDbEntity
  8
センター
 62
     7
 48
5.0
100
AcDbLine
 10
11018.49999999999
 20
6613.955177899429
 30
0.0
 11
11018.49999999999
 21
6903.955177899428
 31
0.0
  0
LINE
  5
1E7DD
330
747D
100
AcDbEntity
  8
部品1
 62
     7
 48
50.0
100
AcDbLine
 10
10379.5
 20
6397.955177899429
 30
0.0
 11
10379.5
 21
6597.955177899426
 31
0.0
  0
LINE
  5
1E7DE
330
747D
100
AcDbEntity
  8
部品1
 62
     7
 48
50.0
100
AcDbLine
 10
10379.5
 20
7905.955177899428
 30
0.0
 11
10179.5
 21
7905.955177899428
 31
0.0
  0
LINE
  5
1E7DF
330
747D
100
AcDbEntity
  8
センター
 62
     7
 48
5.0
100
AcDbLine
 10
10424.5
 20
8005.955177899428
 30
0.0
 11
10134.49999999999
 21
8005.955177899428
 31
0.0
  0
LINE
  5
1E7E0
330
747D
100
AcDbEntity
  8
部品1
 62
     7
 48
50.0
100
AcDbLine
 10
10379.5
 20
8105.955177899428
 30
0.0
 11
10179.5
 21
8105.955177899428
 31
0.0
  0
LINE
  5
1E7E1
330
747D
100
AcDbEntity
  8
部品1
 62
     7
 48
50.0
100
AcDbLine
 10
10179.5
 20
7351.955177899426
 30
0.0
 11
10379.5
 21
7351.955177899426
 31
0.0
  0
LINE
  5
1E7E2
330
747D
100
AcDbEntity
  8
部品1
 62
     7
 48
50.0
100
AcDbLine
 10
9640.500000000001
 20
7728.955177899428
 30
0.0
 11
9640.500000000001
 21
7528.955177899426
 31
0.0
  0
LINE
  5
1E7E3
330
747D
100
AcDbEntity
  8
センター
 62
     7
 48
5.0
100
AcDbLine
 10
9540.499999999999
 20
7773.955177899427
 30
0.0
 11
9540.499999999999
 21
7483.955177899428
 31
0.0
  0
LINE
  5
1E7E4
330
747D
100
AcDbEntity
  8
部品1
 62
     7
 48
50.0
100
AcDbLine
 10
9440.5
 20
7528.955177899426
 30
0.0
 11
9440.5
 21
7728.955177899428
 31
0.0
  0
LINE
  5
1E7E5
330
747D
100
AcDbEntity
  8
部品1
 62
     7
 48
50.0
100
AcDbLine
 10
9440.5
 20
7393.955177899427
 30
0.0
 11
9640.500000000001
 21
7393.955177899427
 31
0.0
  0
LINE
  5
1E7E6
330
747D
100
AcDbEntity
  8
部品1
 62
     7
 48
50.0
100
AcDbLine
 10
9640.500000000001
 20
7528.955177899426
 30
0.0
 11
9440.5
 21
7528.955177899426
 31
0.0
  0
LINE
  5
1E7E7
330
747D
100
AcDbEntity
  8
部品1
 62
     7
 48
50.0
100
AcDbLine
 10
9440.5
 20
7728.955177899428
 30
0.0
 11
9640.500000000001
 21
7728.955177899428
 31
0.0
  0
LINE
  5
1E7E8
330
747D
100
AcDbEntity
  8
部品1
 62
     7
 48
50.0
100
AcDbLine
 10
9440.5
 20
8263.955177899429
 30
0.0
 11
9440.5
 21
7863.955177899427
 31
0.0
  0
LINE
  5
1E7E9
330
747D
100
AcDbEntity
  8
センター
 62
     7
 48
5.0
100
AcDbLine
 10
9540.499999999999
 20
7918.955177899427
 30
0.0
 11
9540.499999999999
 21
8208.955177899428
 31
0.0
  0
LINE
  5
1E7EA
330
747D
100
AcDbEntity
  8
部品1
 62
     7
 48
50.0
100
AcDbLine
 10
9640.500000000001
 20
7863.955177899427
 30
0.0
 11
9640.500000000001
 21
8263.955177899429
 31
0.0
  0
LINE
  5
1E7EB
330
747D
100
AcDbEntity
  8
部品1
 62
     7
 48
50.0
100
AcDbLine
 10
9440.5
 20
7863.955177899427
 30
0.0
 11
9640.500000000001
 21
7863.955177899427
 31
0.0
  0
LINE
  5
1E7EC
330
747D
100
AcDbEntity
  8
部品1
 62
     7
 48
50.0
100
AcDbLine
 10
9440.5
 20
8398.955177899429
 30
0.0
 11
9640.500000000001
 21
8398.955177899429
 31
0.0
  0
LINE
  5
1E7ED
330
747D
100
AcDbEntity
  8
部品1
 62
     7
 48
50.0
100
AcDbLine
 10
9640.500000000001
 20
8263.955177899429
 30
0.0
 11
9440.5
 21
8263.955177899429
 31
0.0
  0
LINE
  5
1E7EE
330
747D
100
AcDbEntity
  8
部品1
 62
     7
 48
50.0
100
AcDbLine
 10
10179.5
 20
7905.955177899428
 30
0.0
 11
10179.5
 21
8105.955177899428
 31
0.0
  0
LINE
  5
1E7EF
330
747D
100
AcDbEntity
  8
センター
 62
     7
 48
5.0
100
AcDbLine
 10
11018.49999999999
 20
7773.955177899427
 30
0.0
 11
11018.49999999999
 21
7483.955177899428
 31
0.0
  0
LINE
  5
1E7F0
330
747D
100
AcDbEntity
  8
部品1
 62
     7
 48
50.0
100
AcDbLine
 10
10918.49999999999
 20
7728.955177899428
 30
0.0
 11
10918.49999999999
 21
7528.955177899426
 31
0.0
  0
LINE
  5
1E7F1
330
747D
100
AcDbEntity
  8
センター
 62
     7
 48
5.0
100
AcDbLine
 10
10279.5
 20
8150.955177899426
 30
0.0
 11
10279.5
 21
7860.955177899427
 31
0.0
  0
LINE
  5
1E7F2
330
747D
100
AcDbEntity
  8
部品1
 62
     7
 48
50.0
100
AcDbLine
 10
10379.5
 20
8105.955177899428
 30
0.0
 11
10379.5
 21
7905.955177899428
 31
0.0
  0
LINE
  5
1E7F3
330
747D
100
AcDbEntity
  8
部品1
 62
     7
 48
50.0
100
AcDbLine
 10
10918.49999999999
 20
7863.955177899427
 30
0.0
 11
10918.49999999999
 21
8263.955177899429
 31
0.0
  0
LINE
  5
1E7F4
330
747D
100
AcDbEntity
  8
センター
 62
     7
 48
5.0
100
AcDbLine
 10
11018.49999999999
 20
7918.955177899427
 30
0.0
 11
11018.49999999999
 21
8208.955177899428
 31
0.0
  0
DIMENSION
  5
1E7F5
330
747D
100
AcDbEntity
  8
寸法
 62
     7
 48
50.0
100
AcDbDimension
  2
*D40
 10
11855.5
 20
5462.955177899428
 30
0.0
 11
12147.94094488189
 21
5462.955177899428
 31
0.0
 70
   160
  1
(<>)
 71
     5
 42
55.0
  3
INABA_S50G
100
AcDbAlignedDimension
 13
11800.5
 23
6252.955177899427
 33
0.0
 14
11855.5
 24
6262.955177899428
 34
0.0
100
AcDbRotatedDimension
  0
DIMENSION
  5
1E7F6
330
747D
100
AcDbEntity
  8
寸法
 62
     7
 48
50.0
100
AcDbDimension
  2
*D41
 10
13005.5
 20
6262.955177899428
 30
0.0
 11
13005.5
 21
5933.014233017537
 31
0.0
 70
   160
  1
(<>)
 71
     5
 42
135.0
  3
INABA_S50G
100
AcDbAlignedDimension
 13
11945.5
 23
6397.955177899429
 33
0.0
 14
11855.5
 24
6262.955177899428
 34
0.0
 50
90.0
100
AcDbRotatedDimension
  0
DIMENSION
  5
1E7F7
330
747D
100
AcDbEntity
  8
寸法
 62
     7
 48
50.0
100
AcDbDimension
  2
*D42
 10
12655.49999999999
 20
8005.955177899428
 30
0.0
 11
12555.49999999999
 21
7628.955177899429
 31
0.0
 70
    32
 71
     5
 42
754.0000000000016
  3
INABA_S50G
100
AcDbAlignedDimension
 13
11800.5
 23
7251.955177899427
 33
0.0
 14
11800.5
 24
8005.955177899428
 34
0.0
 50
90.0
100
AcDbRotatedDimension
  0
DIMENSION
  5
1E7F8
330
747D
100
AcDbEntity
  8
寸法
 62
     7
 48
50.0
100
AcDbDimension
  2
*D43
 10
12655.49999999999
 20
6397.955177899429
 30
0.0
 11
12555.49999999999
 21
6824.955177899429
 31
0.0
 70
    32
 71
     5
 42
853.9999999999981
  3
INABA_S50G
100
AcDbAlignedDimension
 13
11800.5
 23
7251.955177899427
 33
0.0
 14
11945.5
 24
6397.955177899429
 34
0.0
 50
90.0
100
AcDbRotatedDimension
1001
ACAD
1000
DSTYLE
1002
{
1070
   287
1070
     4
1070
    75
1070
     1
1070
   279
1070
     1
1002
}
  0
LINE
  5
1E7F9
330
747D
100
AcDbEntity
  8
部品1
 62
     7
 48
50.0
100
AcDbLine
 10
11118.49999999999
 20
6993.955177899427
 30
0.0
 11
11118.49999999999
 21
7393.955177899427
 31
0.0
  0
LINE
  5
1E7FA
330
747D
100
AcDbEntity
  8
部品1
 62
     7
 48
50.0
100
AcDbLine
 10
11800.5
 20
7151.955177899427
 30
0.0
 11
11800.5
 21
7351.955177899426
 31
0.0
  0
LINE
  5
1E7FB
330
747D
100
AcDbEntity
  8
部品1
 62
     7
 48
50.0
100
AcDbLine
 10
11600.5
 20
7351.955177899426
 30
0.0
 11
11600.5
 21
7151.955177899427
 31
0.0
  0
LINE
  5
1E7FC
330
747D
100
AcDbEntity
  8
点線
 62
     7
 48
10.0
100
AcDbLine
 10
11700.5
 20
6297.955177899426
 30
0.0
 11
11900.5
 21
6297.955177899426
 31
0.0
  0
LINE
  5
1E7FD
330
747D
100
AcDbEntity
  8
センター
 62
     7
 48
5.0
100
AcDbLine
 10
11945.5
 20
6397.955177899429
 30
0.0
 11
11655.5
 21
6397.955177899429
 31
0.0
  0
LINE
  5
1E7FE
330
747D
100
AcDbEntity
  8
点線
 62
     7
 48
10.0
100
AcDbLine
 10
11700.5
 20
6497.955177899426
 30
0.0
 11
11900.5
 21
6497.955177899426
 31
0.0
  0
LINE
  5
1E7FF
330
747D
100
AcDbEntity
  8
部品1
 62
     7
 48
50.0
100
AcDbLine
 10
11118.49999999999
 20
6858.955177899428
 30
0.0
 11
11118.49999999999
 21
6658.955177899426
 31
0.0
  0
LINE
  5
1E800
330
747D
100
AcDbEntity
  8
部品1
 62
     7
 48
50.0
100
AcDbLine
 10
11400.5
 20
6597.955177899426
 30
0.0
 11
11800.5
 21
6597.955177899426
 31
0.0
  0
LINE
  5
1E801
330
747D
100
AcDbEntity
  8
部品1
 62
     7
 48
50.0
100
AcDbLine
 10
11400.5
 20
6397.955177899429
 30
0.0
 11
11800.5
 21
6397.955177899429
 31
0.0
  0
LINE
  5
1E802
330
747D
100
AcDbEntity
  8
部品1
 62
     7
 48
50.0
100
AcDbLine
 10
11400.5
 20
6397.955177899429
 30
0.0
 11
11400.5
 21
6597.955177899426
 31
0.0
  0
LINE
  5
1E803
330
747D
100
AcDbEntity
  8
センター
 62
     7
 48
5.0
100
AcDbLine
 10
11800.5
 20
6542.955177899428
 30
0.0
 11
11800.5
 21
6252.955177899427
 31
0.0
  0
LINE
  5
1E804
330
747D
100
AcDbEntity
  8
点線
 62
     7
 48
10.0
100
AcDbLine
 10
11700.5
 20
6297.955177899426
 30
0.0
 11
11700.5
 21
6497.955177899426
 31
0.0
  0
LINE
  5
1E805
330
747D
100
AcDbEntity
  8
部品1
 62
     7
 48
50.0
100
AcDbLine
 10
11800.5
 20
6397.955177899429
 30
0.0
 11
11800.5
 21
6597.955177899426
 31
0.0
  0
LINE
  5
1E806
330
747D
100
AcDbEntity
  8
部品1
 62
     7
 48
50.0
100
AcDbLine
 10
11600.5
 20
7151.955177899427
 30
0.0
 11
11800.5
 21
7151.955177899427
 31
0.0
  0
LINE
  5
1E807
330
747D
100
AcDbEntity
  8
点線
 62
     7
 48
10.0
100
AcDbLine
 10
11900.5
 20
6297.955177899426
 30
0.0
 11
11900.5
 21
6497.955177899426
 31
0.0
  0
LINE
  5
1E808
330
747D
100
AcDbEntity
  8
部品1
 62
     7
 48
50.0
100
AcDbLine
 10
11118.49999999999
 20
7528.955177899426
 30
0.0
 11
11118.49999999999
 21
7728.955177899428
 31
0.0
  0
LINE
  5
1E809
330
747D
100
AcDbEntity
  8
部品1
 62
     7
 48
50.0
100
AcDbLine
 10
11800.5
 20
7351.955177899426
 30
0.0
 11
11600.5
 21
7351.955177899426
 31
0.0
  0
LINE
  5
1E80A
330
747D
100
AcDbEntity
  8
部品1
 62
     7
 48
50.0
100
AcDbLine
 10
11118.49999999999
 20
8263.955177899429
 30
0.0
 11
11118.49999999999
 21
7863.955177899427
 31
0.0
  0
LINE
  5
1E80B
330
747D
100
AcDbEntity
  8
部品1
 62
     7
 48
50.0
100
AcDbLine
 10
11800.5
 20
8105.955177899428
 30
0.0
 11
11600.5
 21
8105.955177899428
 31
0.0
  0
LINE
  5
1E80C
330
747D
100
AcDbEntity
  8
部品1
 62
     7
 48
50.0
100
AcDbLine
 10
11600.5
 20
7905.955177899428
 30
0.0
 11
11800.5
 21
7905.955177899428
 31
0.0
  0
LINE
  5
1E80D
330
747D
100
AcDbEntity
  8
部品1
 62
     7
 48
50.0
100
AcDbLine
 10
11600.5
 20
8105.955177899428
 30
0.0
 11
11600.5
 21
7905.955177899428
 31
0.0
  0
LINE
  5
1E80E
330
747D
100
AcDbEntity
  8
部品1
 62
     7
 48
50.0
100
AcDbLine
 10
11800.5
 20
7905.955177899428
 30
0.0
 11
11800.5
 21
8105.955177899428
 31
0.0
  0
MTEXT
  5
1E80F
102
{ACAD_REACTORS
330
1E810
102
}
330
747D
100
AcDbEntity
  8
部品1
 62
     7
 48
50.0
100
AcDbMText
 10
11484.15206936182
 20
9256.728998074668
 30
0.0
 40
150.0
 41
0.0
 71
     6
 72
     5
  1
\A1;屋根の外寸
  7
STYLE1
 73
     1
 44
1.0
1001
ACAD
1000
MTEXTBEGIN
1070
    73
1070
     1
1070
    44
1040
1.0
1070
    74
1070
     0
1000
MTEXTEND
  0
LEADER
  5
1E810
330
747D
100
AcDbEntity
  8
寸法
 62
     7
 48
50.0
100
AcDbLeader
  3
INABA_S50G
 73
     0
 74
     0
 75
     1
 40
150.0
 41
840.0
 76
     3
 10
10279.5
 20
8954.955177899428
 30
0.0
 10
10494.15206936182
 20
9156.728998074667
 30
0.0
 10
10619.15206936182
 20
9156.728998074667
 30
0.0
340
1E80F
1001
ACAD
1000
DSTYLE
1002
{
1070
     6
1000

1070
    40
1040
1.0
1070
   341
1005
0
1070
   343
1005
0
1070
   344
1005
0
1002
}
1000
LEANOF
1010
0.0
1020
0.0
1030
0.0
  0
LINE
  5
1E811
330
747D
100
AcDbEntity
  8
部品1
 62
     7
 48
50.0
100
AcDbLine
 10
10918.49999999999
 20
8598.955177899428
 30
0.0
 11
11118.49999999999
 21
8598.955177899428
 31
0.0
  0
LINE
  5
1E812
330
747D
100
AcDbEntity
  8
センター
 62
     7
 48
5.0
100
AcDbLine
 10
10873.5
 20
8498.955177899429
 30
0.0
 11
11163.49999999999
 21
8498.955177899429
 31
0.0
  0
LINE
  5
1E813
330
747D
100
AcDbEntity
  8
想像線
 62
     7
 48
20.0
100
AcDbLine
 10
11855.5
 20
8954.955177899426
 30
0.0
 11
8703.5
 21
8954.955177899428
 31
0.0
  0
MTEXT
  5
1E814
102
{ACAD_REACTORS
330
1E815
102
}
330
747D
100
AcDbEntity
  8
細線
 62
     7
 48
50.0
100
AcDbMText
 10
9388.05794789699
 20
9681.481252862241
 30
0.0
 40
150.0
 41
0.0
 71
     4
 72
     5
  1
\A1;組立後\P現場打コンクリート
  7
STYLE1
 73
     1
 44
1.0
1001
ACAD
1000
MTEXTBEGIN
1070
    73
1070
     1
1070
    44
1040
1.0
1070
    74
1070
     0
1000
MTEXTEND
  0
LEADER
  5
1E815
330
747D
100
AcDbEntity
  8
寸法
 62
     7
 48
50.0
100
AcDbLeader
  3
INABA_S50G
 71
     0
 73
     0
 74
     0
 75
     1
 40
400.0
 41
1602.936553006147
 76
     3
 10
8808.554223318742
 20
8909.966894634239
 30
0.0
 10
9238.05794789699
 20
9456.481252862237
 30
0.0
 10
9363.05794789699
 20
9456.481252862237
 30
0.0
340
1E814
1001
ACAD
1000
DSTYLE
1002
{
1070
     6
1000
DOTSMALL
1002
}
1000
LEANOF
1010
0.0
1020
0.0
1030
0.0
  0
LINE
  5
1E816
330
747D
100
AcDbEntity
  8
センター
 62
     7
 48
5.0
100
AcDbLine
 10
9685.500000000001
 20
8498.955177899429
 30
0.0
 11
9395.500000000003
 21
8498.955177899429
 31
0.0
  0
DIMENSION
  5
1E817
330
747D
100
AcDbEntity
  8
寸法
 62
     7
 48
50.0
100
AcDbDimension
  2
*D44
 10
8003.499999999997
 20
8498.955177899429
 30
0.0
 11
7903.499999999997
 21
8679.455177899432
 31
0.0
 70
    32
 71
     5
 42
361.0
  3
INABA_S50G
100
AcDbAlignedDimension
 13
8228.470472440944
 23
8859.955177899427
 33
0.0
 14
9395.500000000003
 24
8498.955177899429
 34
0.0
 50
90.0
100
AcDbRotatedDimension
  0
DIMENSION
  5
1E818
330
747D
100
AcDbEntity
  8
寸法
 62
     7
 48
50.0
100
AcDbDimension
  2
*D45
 10
8403.500000000002
 20
8759.955177899428
 30
0.0
 11
8403.499999999999
 21
8859.955177899427
 31
0.0
 70
   160
 71
     5
 42
200.0
  3
INABA_S50G
100
AcDbAlignedDimension
 13
8658.500000000001
 23
8959.955177899429
 33
0.0
 14
8658.500000000001
 24
8759.955177899428
 34
0.0
 50
90.0
100
AcDbRotatedDimension
  0
DIMENSION
  5
1E819
330
747D
100
AcDbEntity
  8
寸法
 62
     7
 48
50.0
100
AcDbDimension
  2
*D46
 10
8658.500000000001
 20
9254.955177899429
 30
0.0
 11
8758.500000000003
 21
9254.955177899429
 31
0.0
 70
   160
 71
     5
 42
200.0
  3
INABA_S50G
100
AcDbAlignedDimension
 13
8858.500000000002
 23
8959.955177899429
 33
0.0
 14
8658.500000000001
 24
8959.955177899429
 34
0.0
100
AcDbRotatedDimension
  0
LINE
  5
1E81A
330
747D
100
AcDbEntity
  8
部品1
 62
     7
 48
50.0
100
AcDbLine
 10
9158.500000000001
 20
8659.955177899428
 30
0.0
 11
8758.499999999997
 21
8659.955177899428
 31
0.0
  0
LINE
  5
1E81B
330
747D
100
AcDbEntity
  8
部品1
 62
     7
 48
50.0
100
AcDbLine
 10
9158.500000000001
 20
8859.955177899427
 30
0.0
 11
8758.499999999997
 21
8859.955177899427
 31
0.0
  0
LINE
  5
1E81C
330
747D
100
AcDbEntity
  8
センター
 62
     7
 48
5.0
100
AcDbLine
 10
8758.499999999997
 20
9004.955177899429
 30
0.0
 11
8758.499999999997
 21
8714.955177899426
 31
0.0
  0
LINE
  5
1E81D
330
747D
100
AcDbEntity
  8
部品1
 62
     7
 48
50.0
100
AcDbLine
 10
8758.499999999997
 20
8859.955177899427
 30
0.0
 11
8758.499999999997
 21
8659.955177899428
 31
0.0
  0
LINE
  5
1E81E
330
747D
100
AcDbEntity
  8
点線
 62
     7
 48
10.0
100
AcDbLine
 10
8858.500000000002
 20
8759.955177899428
 30
0.0
 11
8658.500000000001
 21
8759.955177899428
 31
0.0
  0
LINE
  5
1E81F
330
747D
100
AcDbEntity
  8
センター
 62
     7
 48
5.0
100
AcDbLine
 10
8903.499999999999
 20
8859.955177899427
 30
0.0
 11
8613.5
 21
8859.955177899427
 31
0.0
  0
LINE
  5
1E820
330
747D
100
AcDbEntity
  8
点線
 62
     7
 48
10.0
100
AcDbLine
 10
8858.500000000002
 20
8959.955177899429
 30
0.0
 11
8658.500000000001
 21
8959.955177899429
 31
0.0
  0
LINE
  5
1E821
330
747D
100
AcDbEntity
  8
点線
 62
     7
 48
10.0
100
AcDbLine
 10
8658.500000000001
 20
8959.955177899429
 30
0.0
 11
8658.500000000001
 21
8759.955177899428
 31
0.0
  0
LINE
  5
1E822
330
747D
100
AcDbEntity
  8
点線
 62
     7
 48
10.0
100
AcDbLine
 10
8858.500000000002
 20
8959.955177899429
 30
0.0
 11
8858.500000000002
 21
8759.955177899428
 31
0.0
  0
LINE
  5
1E823
330
747D
100
AcDbEntity
  8
部品1
 62
     7
 48
50.0
100
AcDbLine
 10
9158.500000000001
 20
8859.955177899427
 30
0.0
 11
9158.500000000001
 21
8659.955177899428
 31
0.0
  0
LINE
  5
1E824
330
747D
100
AcDbEntity
  8
部品1
 62
     7
 48
50.0
100
AcDbLine
 10
10179.5
 20
8859.955177899427
 30
0.0
 11
10379.5
 21
8859.955177899427
 31
0.0
  0
LINE
  5
1E825
330
747D
100
AcDbEntity
  8
部品1
 62
     7
 48
50.0
100
AcDbLine
 10
10379.5
 20
8659.955177899428
 30
0.0
 11
10179.5
 21
8659.955177899428
 31
0.0
  0
LINE
  5
1E826
330
747D
100
AcDbEntity
  8
部品1
 62
     7
 48
50.0
100
AcDbLine
 10
9640.500000000001
 20
8598.955177899428
 30
0.0
 11
9440.5
 21
8598.955177899428
 31
0.0
  0
LINE
  5
1E827
330
747D
100
AcDbEntity
  8
部品1
 62
     7
 48
50.0
100
AcDbLine
 10
10179.5
 20
8659.955177899428
 30
0.0
 11
10179.5
 21
8859.955177899427
 31
0.0
  0
LINE
  5
1E828
330
747D
100
AcDbEntity
  8
部品1
 62
     7
 48
50.0
100
AcDbLine
 10
10379.5
 20
8859.955177899427
 30
0.0
 11
10379.5
 21
8659.955177899428
 31
0.0
  0
DIMENSION
  5
1E829
330
747D
100
AcDbEntity
  8
寸法
 62
     7
 48
50.0
100
AcDbDimension
  2
*D47
 10
13005.5
 20
8954.955177899424
 30
0.0
 11
13005.5
 21
9247.658197568387
 31
0.0
 70
   160
  1
(<>)
 71
     5
 42
94.99999999999818
  3
INABA_S50G
100
AcDbAlignedDimension
 13
11945.5
 23
8859.955177899427
 33
0.0
 14
11855.5
 24
8954.955177899426
 34
0.0
 50
90.0
100
AcDbRotatedDimension
  0
LINE
  5
1E82A
330
747D
100
AcDbEntity
  8
点線
 62
     7
 48
10.0
100
AcDbLine
 10
11700.5
 20
8959.955177899429
 30
0.0
 11
11900.5
 21
8959.955177899429
 31
0.0
  0
LINE
  5
1E82B
330
747D
100
AcDbEntity
  8
点線
 62
     7
 48
10.0
100
AcDbLine
 10
11700.5
 20
8759.955177899428
 30
0.0
 11
11900.5
 21
8759.955177899428
 31
0.0
  0
LINE
  5
1E82C
330
747D
100
AcDbEntity
  8
センター
 62
     7
 48
5.0
100
AcDbLine
 10
11945.5
 20
8859.955177899427
 30
0.0
 11
11655.5
 21
8859.955177899427
 31
0.0
  0
LINE
  5
1E82D
330
747D
100
AcDbEntity
  8
部品1
 62
     7
 48
50.0
100
AcDbLine
 10
11800.5
 20
8859.955177899427
 30
0.0
 11
11400.5
 21
8859.955177899427
 31
0.0
  0
LINE
  5
1E82E
330
747D
100
AcDbEntity
  8
部品1
 62
     7
 48
50.0
100
AcDbLine
 10
11800.5
 20
8659.955177899428
 30
0.0
 11
11400.5
 21
8659.955177899428
 31
0.0
  0
LINE
  5
1E82F
330
747D
100
AcDbEntity
  8
部品1
 62
     7
 48
50.0
100
AcDbLine
 10
11400.5
 20
8659.955177899428
 30
0.0
 11
11400.5
 21
8859.955177899427
 31
0.0
  0
LINE
  5
1E830
330
747D
100
AcDbEntity
  8
センター
 62
     7
 48
5.0
100
AcDbLine
 10
11800.5
 20
9004.955177899429
 30
0.0
 11
11800.5
 21
8714.955177899426
 31
0.0
  0
LINE
  5
1E831
330
747D
100
AcDbEntity
  8
部品1
 62
     7
 48
50.0
100
AcDbLine
 10
11800.5
 20
8659.955177899428
 30
0.0
 11
11800.5
 21
8859.955177899427
 31
0.0
  0
LINE
  5
1E832
330
747D
100
AcDbEntity
  8
点線
 62
     7
 48
10.0
100
AcDbLine
 10
11700.5
 20
8959.955177899429
 30
0.0
 11
11700.5
 21
8759.955177899428
 31
0.0
  0
LINE
  5
1E833
330
747D
100
AcDbEntity
  8
点線
 62
     7
 48
10.0
100
AcDbLine
 10
11900.5
 20
8959.955177899429
 30
0.0
 11
11900.5
 21
8759.955177899428
 31
0.0
  0
TEXT
  5
1ED4D
330
747D
100
AcDbEntity
  8
部品1
 62
     7
100
AcDbText
 10
10293.5807622491
 20
1772.170171482105
 30
0.0
 40
150.0
  1
G.L
  7
STYLE1
100
AcDbText
  0
LINE
  5
1ED4E
330
747D
100
AcDbEntity
  8
Ｇ．Ｌ
 62
     7
100
AcDbLine
 10
9249.236229035593
 20
1749.373661269833
 30
0.0
 11
10617.77461316698
 21
1749.373661269833
 31
0.0
  0
LINE
  5
1ED4F
330
747D
100
AcDbEntity
  8
部品1
 62
     7
100
AcDbLine
 10
8792.418427824532
 20
600.0
 30
0.0
 11
12792.41842782453
 21
600.0
 31
0.0
  0
LINE
  5
1ED50
330
747D
100
AcDbEntity
  8
部品1
 62
     7
100
AcDbLine
 10
12792.41842782453
 20
3000.0
 30
0.0
 11
8792.418427824532
 21
2999.999999999999
 31
0.0
  0
LINE
  5
1ED51
330
747D
100
AcDbEntity
  8
部品1
 62
     7
100
AcDbLine
 10
8792.418427824532
 20
3299.999999999999
 30
0.0
 11
12792.41842782453
 21
3299.999999999999
 31
0.0
  0
LINE
  5
1ED52
330
747D
100
AcDbEntity
  8
部品1
 62
     7
100
AcDbLine
 10
8792.418427824532
 20
3299.999999999999
 30
0.0
 11
8792.418427824532
 21
600.0
 31
0.0
  0
LINE
  5
1ED53
330
747D
100
AcDbEntity
  8
寸法
 62
     7
 48
50.0
100
AcDbLine
 10
8498.975097264189
 20
800.0000129302206
 30
0.0
 11
4394.414120747471
 21
800.0000129302206
 31
0.0
  0
TEXT
  5
1ED54
330
747D
100
AcDbEntity
  8
文字
 62
     7
 48
50.0
100
AcDbText
 10
4920.38977576022
 20
864.5205740729707
 30
0.0
 40
150.0
  1
重量物を入れる場合（根太部ブロック追加）
  7
STYLE1
100
AcDbText
  0
LINE
  5
1ED55
330
747D
100
AcDbEntity
  8
寸法
 62
     7
 48
50.0
100
AcDbLine
 10
7132.076727602889
 20
1279.625539643202
 30
0.0
 11
4394.414120747471
 21
1279.625539643202
 31
0.0
  0
TEXT
  5
1ED56
330
747D
100
AcDbEntity
  8
文字
 62
     7
 48
50.0
100
AcDbText
 10
4413.656703010583
 20
1344.146100785952
 30
0.0
 40
150.0
  1
（　）内寸法は屋根の出幅です。
  7
STYLE1
100
AcDbText
  0
LINE
  5
1ED57
330
747D
100
AcDbEntity
  8
細線
 62
     7
 48
10.0
100
AcDbLine
 10
4454.094974518102
 20
1084.035148905193
 30
0.0
 11
4854.094974518102
 21
1084.035148905193
 31
0.0
  0
LINE
  5
1ED58
330
747D
100
AcDbEntity
  8
細線
 62
     7
 48
10.0
100
AcDbLine
 10
4454.094974518102
 20
884.0351489051936
 30
0.0
 11
4854.094974518102
 21
884.0351489051936
 31
0.0
  0
LINE
  5
1ED59
330
747D
100
AcDbEntity
  8
細線
 62
     7
 48
10.0
100
AcDbLine
 10
4454.094974518102
 20
884.0351489051936
 30
0.0
 11
4454.094974518102
 21
1084.035148905193
 31
0.0
  0
LINE
  5
1ED5A
330
747D
100
AcDbEntity
  8
部品1
 62
     7
 48
50.0
100
AcDbLine
 10
4534.664115439055
 20
904.875
 30
0.0
 11
4534.664115439055
 21
904.875
 31
0.0
  0
LINE
  5
1ED5B
330
747D
100
AcDbEntity
  8
部品1
 62
     7
 48
50.0
100
AcDbLine
 10
4510.851615439053
 20
904.875
 30
0.0
 11
4510.851615439053
 21
904.875
 31
0.0
  0
LINE
  5
1ED5C
330
747D
100
AcDbEntity
  8
部品1
 62
     7
 48
50.0
100
AcDbLine
 10
4487.039115439052
 20
904.875
 30
0.0
 11
4487.039115439052
 21
904.875
 31
0.0
  0
LINE
  5
1ED5D
330
747D
100
AcDbEntity
  8
部品1
 62
     7
 48
50.0
100
AcDbLine
 10
4463.226615439053
 20
904.875
 30
0.0
 11
4463.226615439053
 21
904.875
 31
0.0
  0
LINE
  5
1ED5E
330
747D
100
AcDbEntity
  8
部品1
 62
     7
 48
50.0
100
AcDbLine
 10
4546.570365439056
 20
928.6875
 30
0.0
 11
4546.570365439056
 21
928.6875
 31
0.0
  0
LINE
  5
1ED5F
330
747D
100
AcDbEntity
  8
部品1
 62
     7
 48
50.0
100
AcDbLine
 10
4522.757865439056
 20
928.6875
 30
0.0
 11
4522.757865439056
 21
928.6875
 31
0.0
  0
LINE
  5
1ED60
330
747D
100
AcDbEntity
  8
部品1
 62
     7
 48
50.0
100
AcDbLine
 10
4498.945365439053
 20
928.6875
 30
0.0
 11
4498.945365439053
 21
928.6875
 31
0.0
  0
LINE
  5
1ED61
330
747D
100
AcDbEntity
  8
部品1
 62
     7
 48
50.0
100
AcDbLine
 10
4475.132865439053
 20
928.6875
 30
0.0
 11
4475.132865439053
 21
928.6875
 31
0.0
  0
LINE
  5
1ED62
330
747D
100
AcDbEntity
  8
部品1
 62
     7
 48
50.0
100
AcDbLine
 10
4534.664115439055
 20
952.5
 30
0.0
 11
4534.664115439055
 21
952.5
 31
0.0
  0
LINE
  5
1ED63
330
747D
100
AcDbEntity
  8
部品1
 62
     7
 48
50.0
100
AcDbLine
 10
4510.851615439053
 20
952.5
 30
0.0
 11
4510.851615439053
 21
952.5
 31
0.0
  0
LINE
  5
1ED64
330
747D
100
AcDbEntity
  8
部品1
 62
     7
 48
50.0
100
AcDbLine
 10
4487.039115439052
 20
952.5
 30
0.0
 11
4487.039115439052
 21
952.5
 31
0.0
  0
LINE
  5
1ED65
330
747D
100
AcDbEntity
  8
部品1
 62
     7
 48
50.0
100
AcDbLine
 10
4463.226615439053
 20
952.5
 30
0.0
 11
4463.226615439053
 21
952.5
 31
0.0
  0
LINE
  5
1ED66
330
747D
100
AcDbEntity
  8
部品1
 62
     7
 48
50.0
100
AcDbLine
 10
4546.570365439056
 20
976.3125
 30
0.0
 11
4546.570365439056
 21
976.3125
 31
0.0
  0
LINE
  5
1ED67
330
747D
100
AcDbEntity
  8
部品1
 62
     7
 48
50.0
100
AcDbLine
 10
4522.757865439056
 20
976.3125
 30
0.0
 11
4522.757865439056
 21
976.3125
 31
0.0
  0
LINE
  5
1ED68
330
747D
100
AcDbEntity
  8
部品1
 62
     7
 48
50.0
100
AcDbLine
 10
4498.945365439053
 20
976.3125
 30
0.0
 11
4498.945365439053
 21
976.3125
 31
0.0
  0
LINE
  5
1ED69
330
747D
100
AcDbEntity
  8
部品1
 62
     7
 48
50.0
100
AcDbLine
 10
4475.132865439053
 20
976.3125
 30
0.0
 11
4475.132865439053
 21
976.3125
 31
0.0
  0
LINE
  5
1ED6A
330
747D
100
AcDbEntity
  8
部品1
 62
     7
 48
50.0
100
AcDbLine
 10
4534.664115439055
 20
1000.125
 30
0.0
 11
4534.664115439055
 21
1000.125
 31
0.0
  0
LINE
  5
1ED6B
330
747D
100
AcDbEntity
  8
部品1
 62
     7
 48
50.0
100
AcDbLine
 10
4510.851615439053
 20
1000.125
 30
0.0
 11
4510.851615439053
 21
1000.125
 31
0.0
  0
LINE
  5
1ED6C
330
747D
100
AcDbEntity
  8
部品1
 62
     7
 48
50.0
100
AcDbLine
 10
4487.039115439052
 20
1000.125
 30
0.0
 11
4487.039115439052
 21
1000.125
 31
0.0
  0
LINE
  5
1ED6D
330
747D
100
AcDbEntity
  8
部品1
 62
     7
 48
50.0
100
AcDbLine
 10
4463.226615439053
 20
1000.125
 30
0.0
 11
4463.226615439053
 21
1000.125
 31
0.0
  0
LINE
  5
1ED6E
330
747D
100
AcDbEntity
  8
部品1
 62
     7
 48
50.0
100
AcDbLine
 10
4546.570365439056
 20
1023.9375
 30
0.0
 11
4546.570365439056
 21
1023.9375
 31
0.0
  0
LINE
  5
1ED6F
330
747D
100
AcDbEntity
  8
部品1
 62
     7
 48
50.0
100
AcDbLine
 10
4522.757865439056
 20
1023.9375
 30
0.0
 11
4522.757865439056
 21
1023.9375
 31
0.0
  0
LINE
  5
1ED70
330
747D
100
AcDbEntity
  8
部品1
 62
     7
 48
50.0
100
AcDbLine
 10
4498.945365439053
 20
1023.9375
 30
0.0
 11
4498.945365439053
 21
1023.9375
 31
0.0
  0
LINE
  5
1ED71
330
747D
100
AcDbEntity
  8
部品1
 62
     7
 48
50.0
100
AcDbLine
 10
4475.132865439053
 20
1023.9375
 30
0.0
 11
4475.132865439053
 21
1023.9375
 31
0.0
  0
LINE
  5
1ED72
330
747D
100
AcDbEntity
  8
部品1
 62
     7
 48
50.0
100
AcDbLine
 10
4748.976615439053
 20
904.875
 30
0.0
 11
4748.976615439053
 21
904.875
 31
0.0
  0
LINE
  5
1ED73
330
747D
100
AcDbEntity
  8
部品1
 62
     7
 48
50.0
100
AcDbLine
 10
4725.164115439056
 20
904.875
 30
0.0
 11
4725.164115439056
 21
904.875
 31
0.0
  0
LINE
  5
1ED74
330
747D
100
AcDbEntity
  8
部品1
 62
     7
 48
50.0
100
AcDbLine
 10
4701.351615439053
 20
904.875
 30
0.0
 11
4701.351615439053
 21
904.875
 31
0.0
  0
LINE
  5
1ED75
330
747D
100
AcDbEntity
  8
部品1
 62
     7
 48
50.0
100
AcDbLine
 10
4677.539115439055
 20
904.875
 30
0.0
 11
4677.539115439055
 21
904.875
 31
0.0
  0
LINE
  5
1ED76
330
747D
100
AcDbEntity
  8
部品1
 62
     7
 48
50.0
100
AcDbLine
 10
4653.726615439053
 20
904.875
 30
0.0
 11
4653.726615439053
 21
904.875
 31
0.0
  0
LINE
  5
1ED77
330
747D
100
AcDbEntity
  8
部品1
 62
     7
 48
50.0
100
AcDbLine
 10
4629.914115439055
 20
904.875
 30
0.0
 11
4629.914115439055
 21
904.875
 31
0.0
  0
LINE
  5
1ED78
330
747D
100
AcDbEntity
  8
部品1
 62
     7
 48
50.0
100
AcDbLine
 10
4606.101615439053
 20
904.875
 30
0.0
 11
4606.101615439053
 21
904.875
 31
0.0
  0
LINE
  5
1ED79
330
747D
100
AcDbEntity
  8
部品1
 62
     7
 48
50.0
100
AcDbLine
 10
4582.289115439055
 20
904.875
 30
0.0
 11
4582.289115439055
 21
904.875
 31
0.0
  0
LINE
  5
1ED7A
330
747D
100
AcDbEntity
  8
部品1
 62
     7
 48
50.0
100
AcDbLine
 10
4558.476615439053
 20
904.875
 30
0.0
 11
4558.476615439053
 21
904.875
 31
0.0
  0
LINE
  5
1ED7B
330
747D
100
AcDbEntity
  8
部品1
 62
     7
 48
50.0
100
AcDbLine
 10
4737.070365439056
 20
928.6875
 30
0.0
 11
4737.070365439056
 21
928.6875
 31
0.0
  0
LINE
  5
1ED7C
330
747D
100
AcDbEntity
  8
部品1
 62
     7
 48
50.0
100
AcDbLine
 10
4713.257865439056
 20
928.6875
 30
0.0
 11
4713.257865439056
 21
928.6875
 31
0.0
  0
LINE
  5
1ED7D
330
747D
100
AcDbEntity
  8
部品1
 62
     7
 48
50.0
100
AcDbLine
 10
4689.445365439056
 20
928.6875
 30
0.0
 11
4689.445365439056
 21
928.6875
 31
0.0
  0
LINE
  5
1ED7E
330
747D
100
AcDbEntity
  8
部品1
 62
     7
 48
50.0
100
AcDbLine
 10
4665.632865439056
 20
928.6875
 30
0.0
 11
4665.632865439056
 21
928.6875
 31
0.0
  0
LINE
  5
1ED7F
330
747D
100
AcDbEntity
  8
部品1
 62
     7
 48
50.0
100
AcDbLine
 10
4641.820365439056
 20
928.6875
 30
0.0
 11
4641.820365439056
 21
928.6875
 31
0.0
  0
LINE
  5
1ED80
330
747D
100
AcDbEntity
  8
部品1
 62
     7
 48
50.0
100
AcDbLine
 10
4618.007865439056
 20
928.6875
 30
0.0
 11
4618.007865439056
 21
928.6875
 31
0.0
  0
LINE
  5
1ED81
330
747D
100
AcDbEntity
  8
部品1
 62
     7
 48
50.0
100
AcDbLine
 10
4594.195365439056
 20
928.6875
 30
0.0
 11
4594.195365439056
 21
928.6875
 31
0.0
  0
LINE
  5
1ED82
330
747D
100
AcDbEntity
  8
部品1
 62
     7
 48
50.0
100
AcDbLine
 10
4570.382865439056
 20
928.6875
 30
0.0
 11
4570.382865439056
 21
928.6875
 31
0.0
  0
LINE
  5
1ED83
330
747D
100
AcDbEntity
  8
部品1
 62
     7
 48
50.0
100
AcDbLine
 10
4748.976615439053
 20
952.5
 30
0.0
 11
4748.976615439053
 21
952.5
 31
0.0
  0
LINE
  5
1ED84
330
747D
100
AcDbEntity
  8
部品1
 62
     7
 48
50.0
100
AcDbLine
 10
4725.164115439056
 20
952.5
 30
0.0
 11
4725.164115439056
 21
952.5
 31
0.0
  0
LINE
  5
1ED85
330
747D
100
AcDbEntity
  8
部品1
 62
     7
 48
50.0
100
AcDbLine
 10
4701.351615439053
 20
952.5
 30
0.0
 11
4701.351615439053
 21
952.5
 31
0.0
  0
LINE
  5
1ED86
330
747D
100
AcDbEntity
  8
部品1
 62
     7
 48
50.0
100
AcDbLine
 10
4677.539115439055
 20
952.5
 30
0.0
 11
4677.539115439055
 21
952.5
 31
0.0
  0
LINE
  5
1ED87
330
747D
100
AcDbEntity
  8
部品1
 62
     7
 48
50.0
100
AcDbLine
 10
4653.726615439053
 20
952.5
 30
0.0
 11
4653.726615439053
 21
952.5
 31
0.0
  0
LINE
  5
1ED88
330
747D
100
AcDbEntity
  8
部品1
 62
     7
 48
50.0
100
AcDbLine
 10
4629.914115439055
 20
952.5
 30
0.0
 11
4629.914115439055
 21
952.5
 31
0.0
  0
LINE
  5
1ED89
330
747D
100
AcDbEntity
  8
部品1
 62
     7
 48
50.0
100
AcDbLine
 10
4606.101615439053
 20
952.5
 30
0.0
 11
4606.101615439053
 21
952.5
 31
0.0
  0
LINE
  5
1ED8A
330
747D
100
AcDbEntity
  8
部品1
 62
     7
 48
50.0
100
AcDbLine
 10
4582.289115439055
 20
952.5
 30
0.0
 11
4582.289115439055
 21
952.5
 31
0.0
  0
LINE
  5
1ED8B
330
747D
100
AcDbEntity
  8
部品1
 62
     7
 48
50.0
100
AcDbLine
 10
4558.476615439053
 20
952.5
 30
0.0
 11
4558.476615439053
 21
952.5
 31
0.0
  0
LINE
  5
1ED8C
330
747D
100
AcDbEntity
  8
部品1
 62
     7
 48
50.0
100
AcDbLine
 10
4737.070365439056
 20
976.3125
 30
0.0
 11
4737.070365439056
 21
976.3125
 31
0.0
  0
LINE
  5
1ED8D
330
747D
100
AcDbEntity
  8
部品1
 62
     7
 48
50.0
100
AcDbLine
 10
4713.257865439056
 20
976.3125
 30
0.0
 11
4713.257865439056
 21
976.3125
 31
0.0
  0
LINE
  5
1ED8E
330
747D
100
AcDbEntity
  8
部品1
 62
     7
 48
50.0
100
AcDbLine
 10
4689.445365439056
 20
976.3125
 30
0.0
 11
4689.445365439056
 21
976.3125
 31
0.0
  0
LINE
  5
1ED8F
330
747D
100
AcDbEntity
  8
部品1
 62
     7
 48
50.0
100
AcDbLine
 10
4665.632865439056
 20
976.3125
 30
0.0
 11
4665.632865439056
 21
976.3125
 31
0.0
  0
LINE
  5
1ED90
330
747D
100
AcDbEntity
  8
部品1
 62
     7
 48
50.0
100
AcDbLine
 10
4641.820365439056
 20
976.3125
 30
0.0
 11
4641.820365439056
 21
976.3125
 31
0.0
  0
LINE
  5
1ED91
330
747D
100
AcDbEntity
  8
部品1
 62
     7
 48
50.0
100
AcDbLine
 10
4618.007865439056
 20
976.3125
 30
0.0
 11
4618.007865439056
 21
976.3125
 31
0.0
  0
LINE
  5
1ED92
330
747D
100
AcDbEntity
  8
部品1
 62
     7
 48
50.0
100
AcDbLine
 10
4594.195365439056
 20
976.3125
 30
0.0
 11
4594.195365439056
 21
976.3125
 31
0.0
  0
LINE
  5
1ED93
330
747D
100
AcDbEntity
  8
部品1
 62
     7
 48
50.0
100
AcDbLine
 10
4570.382865439056
 20
976.3125
 30
0.0
 11
4570.382865439056
 21
976.3125
 31
0.0
  0
LINE
  5
1ED94
330
747D
100
AcDbEntity
  8
部品1
 62
     7
 48
50.0
100
AcDbLine
 10
4748.976615439053
 20
1000.125
 30
0.0
 11
4748.976615439053
 21
1000.125
 31
0.0
  0
LINE
  5
1ED95
330
747D
100
AcDbEntity
  8
部品1
 62
     7
 48
50.0
100
AcDbLine
 10
4725.164115439056
 20
1000.125
 30
0.0
 11
4725.164115439056
 21
1000.125
 31
0.0
  0
LINE
  5
1ED96
330
747D
100
AcDbEntity
  8
部品1
 62
     7
 48
50.0
100
AcDbLine
 10
4701.351615439053
 20
1000.125
 30
0.0
 11
4701.351615439053
 21
1000.125
 31
0.0
  0
LINE
  5
1ED97
330
747D
100
AcDbEntity
  8
部品1
 62
     7
 48
50.0
100
AcDbLine
 10
4677.539115439055
 20
1000.125
 30
0.0
 11
4677.539115439055
 21
1000.125
 31
0.0
  0
LINE
  5
1ED98
330
747D
100
AcDbEntity
  8
部品1
 62
     7
 48
50.0
100
AcDbLine
 10
4653.726615439053
 20
1000.125
 30
0.0
 11
4653.726615439053
 21
1000.125
 31
0.0
  0
LINE
  5
1ED99
330
747D
100
AcDbEntity
  8
部品1
 62
     7
 48
50.0
100
AcDbLine
 10
4629.914115439055
 20
1000.125
 30
0.0
 11
4629.914115439055
 21
1000.125
 31
0.0
  0
LINE
  5
1ED9A
330
747D
100
AcDbEntity
  8
部品1
 62
     7
 48
50.0
100
AcDbLine
 10
4606.101615439053
 20
1000.125
 30
0.0
 11
4606.101615439053
 21
1000.125
 31
0.0
  0
LINE
  5
1ED9B
330
747D
100
AcDbEntity
  8
部品1
 62
     7
 48
50.0
100
AcDbLine
 10
4582.289115439055
 20
1000.125
 30
0.0
 11
4582.289115439055
 21
1000.125
 31
0.0
  0
LINE
  5
1ED9C
330
747D
100
AcDbEntity
  8
部品1
 62
     7
 48
50.0
100
AcDbLine
 10
4558.476615439053
 20
1000.125
 30
0.0
 11
4558.476615439053
 21
1000.125
 31
0.0
  0
LINE
  5
1ED9D
330
747D
100
AcDbEntity
  8
部品1
 62
     7
 48
50.0
100
AcDbLine
 10
4737.070365439056
 20
1023.9375
 30
0.0
 11
4737.070365439056
 21
1023.9375
 31
0.0
  0
LINE
  5
1ED9E
330
747D
100
AcDbEntity
  8
部品1
 62
     7
 48
50.0
100
AcDbLine
 10
4713.257865439056
 20
1023.9375
 30
0.0
 11
4713.257865439056
 21
1023.9375
 31
0.0
  0
LINE
  5
1ED9F
330
747D
100
AcDbEntity
  8
部品1
 62
     7
 48
50.0
100
AcDbLine
 10
4689.445365439056
 20
1023.9375
 30
0.0
 11
4689.445365439056
 21
1023.9375
 31
0.0
  0
LINE
  5
1EDA0
330
747D
100
AcDbEntity
  8
部品1
 62
     7
 48
50.0
100
AcDbLine
 10
4665.632865439056
 20
1023.9375
 30
0.0
 11
4665.632865439056
 21
1023.9375
 31
0.0
  0
LINE
  5
1EDA1
330
747D
100
AcDbEntity
  8
部品1
 62
     7
 48
50.0
100
AcDbLine
 10
4641.820365439056
 20
1023.9375
 30
0.0
 11
4641.820365439056
 21
1023.9375
 31
0.0
  0
LINE
  5
1EDA2
330
747D
100
AcDbEntity
  8
部品1
 62
     7
 48
50.0
100
AcDbLine
 10
4618.007865439056
 20
1023.9375
 30
0.0
 11
4618.007865439056
 21
1023.9375
 31
0.0
  0
LINE
  5
1EDA3
330
747D
100
AcDbEntity
  8
部品1
 62
     7
 48
50.0
100
AcDbLine
 10
4594.195365439056
 20
1023.9375
 30
0.0
 11
4594.195365439056
 21
1023.9375
 31
0.0
  0
LINE
  5
1EDA4
330
747D
100
AcDbEntity
  8
部品1
 62
     7
 48
50.0
100
AcDbLine
 10
4570.382865439056
 20
1023.9375
 30
0.0
 11
4570.382865439056
 21
1023.9375
 31
0.0
  0
LINE
  5
1EDA5
330
747D
100
AcDbEntity
  8
部品1
 62
     7
 48
50.0
100
AcDbLine
 10
4534.664115439055
 20
1047.75
 30
0.0
 11
4534.664115439055
 21
1047.75
 31
0.0
  0
LINE
  5
1EDA6
330
747D
100
AcDbEntity
  8
部品1
 62
     7
 48
50.0
100
AcDbLine
 10
4510.851615439053
 20
1047.75
 30
0.0
 11
4510.851615439053
 21
1047.75
 31
0.0
  0
LINE
  5
1EDA7
330
747D
100
AcDbEntity
  8
部品1
 62
     7
 48
50.0
100
AcDbLine
 10
4487.039115439052
 20
1047.75
 30
0.0
 11
4487.039115439052
 21
1047.75
 31
0.0
  0
LINE
  5
1EDA8
330
747D
100
AcDbEntity
  8
部品1
 62
     7
 48
50.0
100
AcDbLine
 10
4463.226615439053
 20
1047.75
 30
0.0
 11
4463.226615439053
 21
1047.75
 31
0.0
  0
LINE
  5
1EDA9
330
747D
100
AcDbEntity
  8
部品1
 62
     7
 48
50.0
100
AcDbLine
 10
4546.570365439056
 20
1071.5625
 30
0.0
 11
4546.570365439056
 21
1071.5625
 31
0.0
  0
LINE
  5
1EDAA
330
747D
100
AcDbEntity
  8
部品1
 62
     7
 48
50.0
100
AcDbLine
 10
4522.757865439056
 20
1071.5625
 30
0.0
 11
4522.757865439056
 21
1071.5625
 31
0.0
  0
LINE
  5
1EDAB
330
747D
100
AcDbEntity
  8
部品1
 62
     7
 48
50.0
100
AcDbLine
 10
4498.945365439053
 20
1071.5625
 30
0.0
 11
4498.945365439053
 21
1071.5625
 31
0.0
  0
LINE
  5
1EDAC
330
747D
100
AcDbEntity
  8
部品1
 62
     7
 48
50.0
100
AcDbLine
 10
4475.132865439053
 20
1071.5625
 30
0.0
 11
4475.132865439053
 21
1071.5625
 31
0.0
  0
LINE
  5
1EDAD
330
747D
100
AcDbEntity
  8
部品1
 62
     7
 48
50.0
100
AcDbLine
 10
4748.976615439053
 20
1047.75
 30
0.0
 11
4748.976615439053
 21
1047.75
 31
0.0
  0
LINE
  5
1EDAE
330
747D
100
AcDbEntity
  8
部品1
 62
     7
 48
50.0
100
AcDbLine
 10
4725.164115439056
 20
1047.75
 30
0.0
 11
4725.164115439056
 21
1047.75
 31
0.0
  0
LINE
  5
1EDAF
330
747D
100
AcDbEntity
  8
部品1
 62
     7
 48
50.0
100
AcDbLine
 10
4701.351615439053
 20
1047.75
 30
0.0
 11
4701.351615439053
 21
1047.75
 31
0.0
  0
LINE
  5
1EDB0
330
747D
100
AcDbEntity
  8
部品1
 62
     7
 48
50.0
100
AcDbLine
 10
4677.539115439055
 20
1047.75
 30
0.0
 11
4677.539115439055
 21
1047.75
 31
0.0
  0
LINE
  5
1EDB1
330
747D
100
AcDbEntity
  8
部品1
 62
     7
 48
50.0
100
AcDbLine
 10
4653.726615439053
 20
1047.75
 30
0.0
 11
4653.726615439053
 21
1047.75
 31
0.0
  0
LINE
  5
1EDB2
330
747D
100
AcDbEntity
  8
部品1
 62
     7
 48
50.0
100
AcDbLine
 10
4629.914115439055
 20
1047.75
 30
0.0
 11
4629.914115439055
 21
1047.75
 31
0.0
  0
LINE
  5
1EDB3
330
747D
100
AcDbEntity
  8
部品1
 62
     7
 48
50.0
100
AcDbLine
 10
4606.101615439053
 20
1047.75
 30
0.0
 11
4606.101615439053
 21
1047.75
 31
0.0
  0
LINE
  5
1EDB4
330
747D
100
AcDbEntity
  8
部品1
 62
     7
 48
50.0
100
AcDbLine
 10
4582.289115439055
 20
1047.75
 30
0.0
 11
4582.289115439055
 21
1047.75
 31
0.0
  0
LINE
  5
1EDB5
330
747D
100
AcDbEntity
  8
部品1
 62
     7
 48
50.0
100
AcDbLine
 10
4558.476615439053
 20
1047.75
 30
0.0
 11
4558.476615439053
 21
1047.75
 31
0.0
  0
LINE
  5
1EDB6
330
747D
100
AcDbEntity
  8
部品1
 62
     7
 48
50.0
100
AcDbLine
 10
4737.070365439056
 20
1071.5625
 30
0.0
 11
4737.070365439056
 21
1071.5625
 31
0.0
  0
LINE
  5
1EDB7
330
747D
100
AcDbEntity
  8
部品1
 62
     7
 48
50.0
100
AcDbLine
 10
4713.257865439056
 20
1071.5625
 30
0.0
 11
4713.257865439056
 21
1071.5625
 31
0.0
  0
LINE
  5
1EDB8
330
747D
100
AcDbEntity
  8
部品1
 62
     7
 48
50.0
100
AcDbLine
 10
4689.445365439056
 20
1071.5625
 30
0.0
 11
4689.445365439056
 21
1071.5625
 31
0.0
  0
LINE
  5
1EDB9
330
747D
100
AcDbEntity
  8
部品1
 62
     7
 48
50.0
100
AcDbLine
 10
4665.632865439056
 20
1071.5625
 30
0.0
 11
4665.632865439056
 21
1071.5625
 31
0.0
  0
LINE
  5
1EDBA
330
747D
100
AcDbEntity
  8
部品1
 62
     7
 48
50.0
100
AcDbLine
 10
4641.820365439056
 20
1071.5625
 30
0.0
 11
4641.820365439056
 21
1071.5625
 31
0.0
  0
LINE
  5
1EDBB
330
747D
100
AcDbEntity
  8
部品1
 62
     7
 48
50.0
100
AcDbLine
 10
4618.007865439056
 20
1071.5625
 30
0.0
 11
4618.007865439056
 21
1071.5625
 31
0.0
  0
LINE
  5
1EDBC
330
747D
100
AcDbEntity
  8
部品1
 62
     7
 48
50.0
100
AcDbLine
 10
4594.195365439056
 20
1071.5625
 30
0.0
 11
4594.195365439056
 21
1071.5625
 31
0.0
  0
LINE
  5
1EDBD
330
747D
100
AcDbEntity
  8
部品1
 62
     7
 48
50.0
100
AcDbLine
 10
4570.382865439056
 20
1071.5625
 30
0.0
 11
4570.382865439056
 21
1071.5625
 31
0.0
  0
LINE
  5
1EDBE
330
747D
100
AcDbEntity
  8
細線
 62
     7
 48
10.0
100
AcDbLine
 10
4854.094974518102
 20
1084.035148905193
 30
0.0
 11
4854.094974518102
 21
884.0351489051936
 31
0.0
  0
LINE
  5
1EDBF
330
747D
100
AcDbEntity
  8
部品1
 62
     7
 48
50.0
100
AcDbLine
 10
4844.226615439056
 20
904.875
 30
0.0
 11
4844.226615439056
 21
904.875
 31
0.0
  0
LINE
  5
1EDC0
330
747D
100
AcDbEntity
  8
部品1
 62
     7
 48
50.0
100
AcDbLine
 10
4820.414115439056
 20
904.875
 30
0.0
 11
4820.414115439056
 21
904.875
 31
0.0
  0
LINE
  5
1EDC1
330
747D
100
AcDbEntity
  8
部品1
 62
     7
 48
50.0
100
AcDbLine
 10
4796.601615439053
 20
904.875
 30
0.0
 11
4796.601615439053
 21
904.875
 31
0.0
  0
LINE
  5
1EDC2
330
747D
100
AcDbEntity
  8
部品1
 62
     7
 48
50.0
100
AcDbLine
 10
4772.789115439056
 20
904.875
 30
0.0
 11
4772.789115439056
 21
904.875
 31
0.0
  0
LINE
  5
1EDC3
330
747D
100
AcDbEntity
  8
部品1
 62
     7
 48
50.0
100
AcDbLine
 10
4832.320365439056
 20
928.6875
 30
0.0
 11
4832.320365439056
 21
928.6875
 31
0.0
  0
LINE
  5
1EDC4
330
747D
100
AcDbEntity
  8
部品1
 62
     7
 48
50.0
100
AcDbLine
 10
4808.507865439053
 20
928.6875
 30
0.0
 11
4808.507865439053
 21
928.6875
 31
0.0
  0
LINE
  5
1EDC5
330
747D
100
AcDbEntity
  8
部品1
 62
     7
 48
50.0
100
AcDbLine
 10
4784.695365439056
 20
928.6875
 30
0.0
 11
4784.695365439056
 21
928.6875
 31
0.0
  0
LINE
  5
1EDC6
330
747D
100
AcDbEntity
  8
部品1
 62
     7
 48
50.0
100
AcDbLine
 10
4760.882865439053
 20
928.6875
 30
0.0
 11
4760.882865439053
 21
928.6875
 31
0.0
  0
LINE
  5
1EDC7
330
747D
100
AcDbEntity
  8
部品1
 62
     7
 48
50.0
100
AcDbLine
 10
4844.226615439056
 20
952.5
 30
0.0
 11
4844.226615439056
 21
952.5
 31
0.0
  0
LINE
  5
1EDC8
330
747D
100
AcDbEntity
  8
部品1
 62
     7
 48
50.0
100
AcDbLine
 10
4820.414115439056
 20
952.5
 30
0.0
 11
4820.414115439056
 21
952.5
 31
0.0
  0
LINE
  5
1EDC9
330
747D
100
AcDbEntity
  8
部品1
 62
     7
 48
50.0
100
AcDbLine
 10
4796.601615439053
 20
952.5
 30
0.0
 11
4796.601615439053
 21
952.5
 31
0.0
  0
LINE
  5
1EDCA
330
747D
100
AcDbEntity
  8
部品1
 62
     7
 48
50.0
100
AcDbLine
 10
4772.789115439056
 20
952.5
 30
0.0
 11
4772.789115439056
 21
952.5
 31
0.0
  0
LINE
  5
1EDCB
330
747D
100
AcDbEntity
  8
部品1
 62
     7
 48
50.0
100
AcDbLine
 10
4832.320365439056
 20
976.3125
 30
0.0
 11
4832.320365439056
 21
976.3125
 31
0.0
  0
LINE
  5
1EDCC
330
747D
100
AcDbEntity
  8
部品1
 62
     7
 48
50.0
100
AcDbLine
 10
4808.507865439053
 20
976.3125
 30
0.0
 11
4808.507865439053
 21
976.3125
 31
0.0
  0
LINE
  5
1EDCD
330
747D
100
AcDbEntity
  8
部品1
 62
     7
 48
50.0
100
AcDbLine
 10
4784.695365439056
 20
976.3125
 30
0.0
 11
4784.695365439056
 21
976.3125
 31
0.0
  0
LINE
  5
1EDCE
330
747D
100
AcDbEntity
  8
部品1
 62
     7
 48
50.0
100
AcDbLine
 10
4760.882865439053
 20
976.3125
 30
0.0
 11
4760.882865439053
 21
976.3125
 31
0.0
  0
LINE
  5
1EDCF
330
747D
100
AcDbEntity
  8
部品1
 62
     7
 48
50.0
100
AcDbLine
 10
4844.226615439056
 20
1000.125
 30
0.0
 11
4844.226615439056
 21
1000.125
 31
0.0
  0
LINE
  5
1EDD0
330
747D
100
AcDbEntity
  8
部品1
 62
     7
 48
50.0
100
AcDbLine
 10
4820.414115439056
 20
1000.125
 30
0.0
 11
4820.414115439056
 21
1000.125
 31
0.0
  0
LINE
  5
1EDD1
330
747D
100
AcDbEntity
  8
部品1
 62
     7
 48
50.0
100
AcDbLine
 10
4796.601615439053
 20
1000.125
 30
0.0
 11
4796.601615439053
 21
1000.125
 31
0.0
  0
LINE
  5
1EDD2
330
747D
100
AcDbEntity
  8
部品1
 62
     7
 48
50.0
100
AcDbLine
 10
4772.789115439056
 20
1000.125
 30
0.0
 11
4772.789115439056
 21
1000.125
 31
0.0
  0
LINE
  5
1EDD3
330
747D
100
AcDbEntity
  8
部品1
 62
     7
 48
50.0
100
AcDbLine
 10
4832.320365439056
 20
1023.9375
 30
0.0
 11
4832.320365439056
 21
1023.9375
 31
0.0
  0
LINE
  5
1EDD4
330
747D
100
AcDbEntity
  8
部品1
 62
     7
 48
50.0
100
AcDbLine
 10
4808.507865439053
 20
1023.9375
 30
0.0
 11
4808.507865439053
 21
1023.9375
 31
0.0
  0
LINE
  5
1EDD5
330
747D
100
AcDbEntity
  8
部品1
 62
     7
 48
50.0
100
AcDbLine
 10
4784.695365439056
 20
1023.9375
 30
0.0
 11
4784.695365439056
 21
1023.9375
 31
0.0
  0
LINE
  5
1EDD6
330
747D
100
AcDbEntity
  8
部品1
 62
     7
 48
50.0
100
AcDbLine
 10
4760.882865439053
 20
1023.9375
 30
0.0
 11
4760.882865439053
 21
1023.9375
 31
0.0
  0
LINE
  5
1EDD7
330
747D
100
AcDbEntity
  8
部品1
 62
     7
 48
50.0
100
AcDbLine
 10
4844.226615439056
 20
1047.75
 30
0.0
 11
4844.226615439056
 21
1047.75
 31
0.0
  0
LINE
  5
1EDD8
330
747D
100
AcDbEntity
  8
部品1
 62
     7
 48
50.0
100
AcDbLine
 10
4820.414115439056
 20
1047.75
 30
0.0
 11
4820.414115439056
 21
1047.75
 31
0.0
  0
LINE
  5
1EDD9
330
747D
100
AcDbEntity
  8
部品1
 62
     7
 48
50.0
100
AcDbLine
 10
4796.601615439053
 20
1047.75
 30
0.0
 11
4796.601615439053
 21
1047.75
 31
0.0
  0
LINE
  5
1EDDA
330
747D
100
AcDbEntity
  8
部品1
 62
     7
 48
50.0
100
AcDbLine
 10
4772.789115439056
 20
1047.75
 30
0.0
 11
4772.789115439056
 21
1047.75
 31
0.0
  0
LINE
  5
1EDDB
330
747D
100
AcDbEntity
  8
部品1
 62
     7
 48
50.0
100
AcDbLine
 10
4832.320365439056
 20
1071.5625
 30
0.0
 11
4832.320365439056
 21
1071.5625
 31
0.0
  0
LINE
  5
1EDDC
330
747D
100
AcDbEntity
  8
部品1
 62
     7
 48
50.0
100
AcDbLine
 10
4808.507865439053
 20
1071.5625
 30
0.0
 11
4808.507865439053
 21
1071.5625
 31
0.0
  0
LINE
  5
1EDDD
330
747D
100
AcDbEntity
  8
部品1
 62
     7
 48
50.0
100
AcDbLine
 10
4784.695365439056
 20
1071.5625
 30
0.0
 11
4784.695365439056
 21
1071.5625
 31
0.0
  0
LINE
  5
1EDDE
330
747D
100
AcDbEntity
  8
部品1
 62
     7
 48
50.0
100
AcDbLine
 10
4760.882865439053
 20
1071.5625
 30
0.0
 11
4760.882865439053
 21
1071.5625
 31
0.0
  0
LINE
  5
1EDDF
330
747D
100
AcDbEntity
  8
部品1
 62
     7
100
AcDbLine
 10
10049.23622903559
 20
1749.373661269833
 30
0.0
 11
10049.23622903559
 21
1449.373661269832
 31
0.0
  0
LINE
  5
1EDE0
330
747D
100
AcDbEntity
  8
細線
 62
     7
100
AcDbLine
 10
9876.031148278705
 20
1649.373661269833
 30
0.0
 11
9862.633688657147
 21
1599.373661269833
 31
0.0
  0
LINE
  5
1EDE1
330
747D
100
AcDbEntity
  8
細線
 62
     7
100
AcDbLine
 10
9976.031148278709
 20
1649.373661269833
 30
0.0
 11
9962.633688657149
 21
1599.373661269833
 31
0.0
  0
LINE
  5
1EDE2
330
747D
100
AcDbEntity
  8
細線
 62
     7
100
AcDbLine
 10
9676.031148278706
 20
1649.373661269833
 30
0.0
 11
9662.633688657148
 21
1599.373661269833
 31
0.0
  0
LINE
  5
1EDE3
330
747D
100
AcDbEntity
  8
細線
 62
     7
100
AcDbLine
 10
9776.031148278704
 20
1649.373661269833
 30
0.0
 11
9762.63368865715
 21
1599.373661269833
 31
0.0
  0
LINE
  5
1EDE4
330
747D
100
AcDbEntity
  8
細線
 62
     7
100
AcDbLine
 10
9649.236229035594
 20
1649.373661269833
 30
0.0
 11
9702.826067521819
 21
1449.37366126983
 31
0.0
  0
LINE
  5
1EDE5
330
747D
100
AcDbEntity
  8
細線
 62
     7
100
AcDbLine
 10
9749.236229035593
 20
1649.373661269833
 30
0.0
 11
9802.82606752182
 21
1449.37366126983
 31
0.0
  0
LINE
  5
1EDE6
330
747D
100
AcDbEntity
  8
細線
 62
     7
100
AcDbLine
 10
9849.236229035597
 20
1649.373661269833
 30
0.0
 11
9902.826067521814
 21
1449.37366126983
 31
0.0
  0
LINE
  5
1EDE7
330
747D
100
AcDbEntity
  8
細線
 62
     7
100
AcDbLine
 10
9949.236229035593
 20
1649.373661269833
 30
0.0
 11
10002.82606752181
 21
1449.373661269832
 31
0.0
  0
LINE
  5
1EDE8
330
747D
100
AcDbEntity
  8
細線
 62
     7
100
AcDbLine
 10
9476.031148278705
 20
1649.37366126983
 30
0.0
 11
9462.633688657152
 21
1599.373661269829
 31
0.0
  0
LINE
  5
1EDE9
330
747D
100
AcDbEntity
  8
細線
 62
     7
100
AcDbLine
 10
9576.031148278705
 20
1649.37366126983
 30
0.0
 11
9562.633688657149
 21
1599.373661269829
 31
0.0
  0
LINE
  5
1EDEA
330
747D
100
AcDbEntity
  8
細線
 62
     7
100
AcDbLine
 10
9449.236229035593
 20
1649.37366126983
 30
0.0
 11
9502.826067521818
 21
1449.373661269826
 31
0.0
  0
LINE
  5
1EDEB
330
747D
100
AcDbEntity
  8
部品1
 62
     7
100
AcDbLine
 10
9449.236229035593
 20
1449.37366126983
 30
0.0
 11
9449.236229035593
 21
1749.373661269833
 31
0.0
  0
LINE
  5
1EDEC
330
747D
100
AcDbEntity
  8
細線
 62
     7
100
AcDbLine
 10
9549.236229035594
 20
1649.37366126983
 30
0.0
 11
9602.826067521817
 21
1449.373661269826
 31
0.0
  0
LINE
  5
1EDED
330
747D
100
AcDbEntity
  8
細線
 62
     7
100
AcDbLine
 10
9689.428607900261
 20
1499.373661269833
 30
0.0
 11
9676.031148278706
 21
1449.373661269832
 31
0.0
  0
LINE
  5
1EDEE
330
747D
100
AcDbEntity
  8
部品1
 62
     7
100
AcDbLine
 10
9449.236229035593
 20
1449.37366126983
 30
0.0
 11
10049.23622903559
 21
1449.373661269832
 31
0.0
  0
LINE
  5
1EDEF
330
747D
100
AcDbEntity
  8
細線
 62
     7
100
AcDbLine
 10
9489.42860790026
 20
1499.37366126983
 30
0.0
 11
9476.031148278705
 21
1449.37366126983
 31
0.0
  0
LINE
  5
1EDF0
330
747D
100
AcDbEntity
  8
細線
 62
     7
100
AcDbLine
 10
9589.428607900259
 20
1499.37366126983
 30
0.0
 11
9576.031148278705
 21
1449.37366126983
 31
0.0
  0
LINE
  5
1EDF1
330
747D
100
AcDbEntity
  8
細線
 62
     7
100
AcDbLine
 10
9889.428607900264
 20
1499.373661269833
 30
0.0
 11
9876.031148278705
 21
1449.373661269832
 31
0.0
  0
LINE
  5
1EDF2
330
747D
100
AcDbEntity
  8
細線
 62
     7
100
AcDbLine
 10
9789.42860790026
 20
1499.373661269833
 30
0.0
 11
9776.031148278704
 21
1449.373661269832
 31
0.0
  0
LINE
  5
1EDF3
330
747D
100
AcDbEntity
  8
細線
 62
     7
100
AcDbLine
 10
9989.42860790026
 20
1499.373661269833
 30
0.0
 11
9976.031148278709
 21
1449.373661269832
 31
0.0
  0
LINE
  5
1EDF4
330
747D
100
AcDbEntity
  8
部品1
 62
     7
100
AcDbLine
 10
9549.236229035594
 20
1949.373661269833
 30
0.0
 11
9949.236229035593
 21
1949.373661269833
 31
0.0
  0
LINE
  5
1EDF5
330
747D
100
AcDbEntity
  8
細線
 62
     7
100
AcDbLine
 10
9711.430673766246
 20
1749.373661269833
 30
0.0
 11
9549.236229035592
 21
1911.568106000485
 31
0.0
  0
LINE
  5
1EDF6
330
747D
100
AcDbEntity
  8
部品1
 62
     7
100
AcDbLine
 10
9449.236229035593
 20
1649.37366126983
 30
0.0
 11
10049.23622903559
 21
1649.373661269833
 31
0.0
  0
LINE
  5
1EDF7
330
747D
100
AcDbEntity
  8
部品1
 62
     7
100
AcDbLine
 10
9549.236229035594
 20
1749.373661269833
 30
0.0
 11
9549.236229035594
 21
1949.373661269833
 31
0.0
  0
LINE
  5
1EDF8
330
747D
100
AcDbEntity
  8
細線
 62
     7
100
AcDbLine
 10
9519.848987496159
 20
1649.37366126983
 30
0.0
 11
9619.848987496158
 21
1749.373661269833
 31
0.0
  0
LINE
  5
1EDF9
330
747D
100
AcDbEntity
  8
細線
 62
     7
100
AcDbLine
 10
9576.417529991084
 20
1649.373661269831
 30
0.0
 11
9676.417529991082
 21
1749.373661269833
 31
0.0
  0
LINE
  5
1EDFA
330
747D
100
AcDbEntity
  8
細線
 62
     7
100
AcDbLine
 10
9548.133258743623
 20
1649.373661269833
 30
0.0
 11
9648.133258743621
 21
1749.373661269833
 31
0.0
  0
LINE
  5
1EDFB
330
747D
100
AcDbEntity
  8
細線
 62
     7
100
AcDbLine
 10
9669.004266895056
 20
1749.373661269833
 30
0.0
 11
9549.236229035594
 21
1869.141699129293
 31
0.0
  0
MTEXT
  5
1EDFC
102
{ACAD_REACTORS
330
1EDFD
102
}
330
747D
100
AcDbEntity
  8
寸法
 62
     7
 48
50.0
100
AcDbMText
 10
9978.158987327649
 20
2270.806562121256
 30
0.0
 40
150.0
 41
1.0
 71
     4
 72
     1
  1
\A1;C.B
  7
STYLE1
 73
     1
 44
1.0
  0
LEADER
  5
1EDFD
330
747D
100
AcDbEntity
  8
寸法
 62
     7
 48
50.0
100
AcDbLeader
  3
INABA_S50G
 73
     0
 74
     0
 75
     1
 40
150.0
 41
231.9898538650463
 76
     3
 10
9749.236229035595
 20
1949.373661269833
 30
0.0
 10
9828.158987327649
 20
2170.806562121256
 30
0.0
 10
9953.158987327649
 20
2170.806562121256
 30
0.0
340
1EDFC
1001
ACAD
1000
DSTYLE
1002
{
1070
    40
1040
1.0
1002
}
  0
LINE
  5
1EDFE
330
747D
100
AcDbEntity
  8
細線
 62
     7
100
AcDbLine
 10
9937.704843745946
 20
1749.373661269833
 30
0.0
 11
9737.704843745945
 21
1949.373661269833
 31
0.0
  0
LINE
  5
1EDFF
330
747D
100
AcDbEntity
  8
細線
 62
     7
100
AcDbLine
 10
9895.278436874749
 20
1749.373661269833
 30
0.0
 11
9695.278436874753
 21
1949.373661269833
 31
0.0
  0
LINE
  5
1EE00
330
747D
100
AcDbEntity
  8
部品1
 62
     7
100
AcDbLine
 10
9949.236229035593
 20
1949.373661269833
 30
0.0
 11
9949.236229035593
 21
1749.373661269833
 31
0.0
  0
LINE
  5
1EE01
330
747D
100
AcDbEntity
  8
細線
 62
     7
100
AcDbLine
 10
9876.41752999108
 20
1649.373661269832
 30
0.0
 11
9976.417529991081
 21
1749.373661269833
 31
0.0
  0
LINE
  5
1EE02
330
747D
100
AcDbEntity
  8
細線
 62
     7
100
AcDbLine
 10
9848.133258743622
 20
1649.373661269833
 30
0.0
 11
9948.133258743617
 21
1749.373661269833
 31
0.0
  0
LINE
  5
1EE03
330
747D
100
AcDbEntity
  8
細線
 62
     7
100
AcDbLine
 10
9819.848987496159
 20
1649.373661269832
 30
0.0
 11
9919.848987496159
 21
1749.373661269833
 31
0.0
  0
LINE
  5
1EE04
330
747D
100
AcDbEntity
  8
文字
 62
     7
 48
50.0
100
AcDbLine
 10
10125.11696430538
 20
1878.360952452848
 30
0.0
 11
10199.04748849817
 21
1750.309528320742
 31
0.0
  0
LINE
  5
1EE05
330
747D
100
AcDbEntity
  8
文字
 62
     7
 48
50.0
100
AcDbLine
 10
10199.04748849817
 20
1750.309528320741
 30
0.0
 11
10272.97801269095
 21
1878.360952452848
 31
0.0
  0
LINE
  5
1EE06
330
747D
100
AcDbEntity
  8
文字
 62
     7
 48
50.0
100
AcDbLine
 10
10272.97801269095
 20
1878.360952452848
 30
0.0
 11
10125.11696430538
 21
1878.360952452848
 31
0.0
  0
TEXT
  5
1EE07
330
747D
100
AcDbEntity
  8
部品1
 62
     7
100
AcDbText
 10
9374.418454080537
 20
3075.560085060715
 30
0.0
 40
150.0
  1
基礎詳細
  7
STYLE2
100
AcDbText
  0
LINE
  5
1EE08
330
747D
100
AcDbEntity
  8
部品1
 62
     7
100
AcDbLine
 10
12792.41842782453
 20
600.0
 30
0.0
 11
12792.41842782453
 21
3299.999999999999
 31
0.0
  0
LINE
  5
1EE09
330
747D
100
AcDbEntity
  8
部品1
 62
     7
100
AcDbLine
 10
10792.41842782453
 20
3299.999999999999
 30
0.0
 11
10792.41842782453
 21
600.0
 31
0.0
  0
LINE
  5
1EE0A
330
747D
100
AcDbEntity
  8
部品1
 62
     7
 48
10.0
100
AcDbLine
 10
12159.39291868346
 20
1475.373661269834
 30
0.0
 11
12115.39291868346
 21
1475.373661269834
 31
0.0
  0
LINE
  5
1EE0B
330
747D
100
AcDbEntity
  8
部品1
 62
     7
 48
10.0
100
AcDbLine
 10
12159.39291868346
 20
1459.373661269833
 30
0.0
 11
12115.39291868346
 21
1459.373661269833
 31
0.0
  0
LINE
  5
1EE0C
330
747D
100
AcDbEntity
  8
細線
  6
HIDDEN
 62
     7
 48
10.0
100
AcDbLine
 10
12123.76726058689
 20
1349.373661269835
 30
0.0
 11
12371.39291868346
 21
1596.999319366418
 31
0.0
  0
LINE
  5
1EE0D
330
747D
100
AcDbEntity
  8
Ｇ．Ｌ
 62
     7
100
AcDbLine
 10
11802.01519945007
 20
1749.373661269833
 30
0.0
 11
12159.39291868346
 21
1749.373661269833
 31
0.0
  0
LINE
  5
1EE0E
330
747D
100
AcDbEntity
  8
細線
  6
HIDDEN
 62
     7
 48
10.0
100
AcDbLine
 10
11971.39291868346
 20
1349.373661269834
 30
0.0
 11
12371.39291868346
 21
1349.373661269834
 31
0.0
  0
LINE
  5
1EE0F
330
747D
100
AcDbEntity
  8
細線
  6
HIDDEN
 62
     7
 48
10.0
100
AcDbLine
 10
12095.48298933942
 20
1349.373661269834
 30
0.0
 11
12371.39291868346
 21
1625.283590613878
 31
0.0
  0
DIMENSION
  5
1EE10
330
747D
100
AcDbEntity
  8
寸法
 62
     7
 48
50.0
100
AcDbDimension
  2
*D53
 10
11971.39291868346
 20
1022.89069578453
 30
0.0
 11
12171.39291868346
 21
1122.905459564057
 31
0.0
 70
    32
  1
200
 71
     5
 42
400.0
  3
INABA_S50G
100
AcDbAlignedDimension
 13
12371.39291868346
 23
1349.373661269834
 33
0.0
 14
11971.39291868346
 24
1349.373661269834
 34
0.0
100
AcDbRotatedDimension
  0
DIMENSION
  5
1EE11
330
747D
100
AcDbEntity
  8
寸法
 62
     7
 48
50.0
100
AcDbDimension
  2
*D54
 10
11778.67290371428
 20
1459.373661269833
 30
0.0
 11
11678.65813993475
 21
1744.373661269835
 31
0.0
 70
    32
  1
285
 71
     5
 42
570.0000000000009
  3
INABA_S50G
100
AcDbAlignedDimension
 13
12159.39291868346
 23
2029.373661269834
 33
0.0
 14
12115.39291868346
 24
1459.373661269833
 34
0.0
 50
90.0
100
AcDbRotatedDimension
  0
LINE
  5
1EE12
330
747D
100
AcDbEntity
  8
細線
  6
HIDDEN
 62
     7
 48
10.0
100
AcDbLine
 10
11971.39291868346
 20
1349.373661269834
 30
0.0
 11
11971.39291868346
 21
1749.373661269833
 31
0.0
  0
LINE
  5
1EE13
330
747D
100
AcDbEntity
  8
細線
  6
HIDDEN
 62
     7
 48
10.0
100
AcDbLine
 10
11971.39291868346
 20
1595.373436971778
 30
0.0
 11
12125.3931429815
 21
1749.373661269833
 31
0.0
  0
LINE
  5
1EE14
330
747D
100
AcDbEntity
  8
細線
  6
HIDDEN
 62
     7
 48
10.0
100
AcDbLine
 10
11971.39291868346
 20
1623.657708219241
 30
0.0
 11
12097.10887173405
 21
1749.373661269833
 31
0.0
  0
DIMENSION
  5
1EE15
330
747D
100
AcDbEntity
  8
寸法
 62
     7
 48
50.0
100
AcDbDimension
  2
*D55
 10
11496.26221710674
 20
1349.373661269834
 30
0.0
 11
11496.26221710674
 21
1549.373661269835
 31
0.0
 70
   160
  1
200
 71
     5
 42
399.9999999999989
  3
INABA_S50G
100
AcDbAlignedDimension
 13
11561.22057962788
 23
1749.373661269833
 33
0.0
 14
11971.39291868346
 24
1349.373661269834
 34
0.0
 50
90.0
100
AcDbRotatedDimension
1001
ACAD
1000
DSTYLE
1002
{
1070
    40
1040
1.0
1002
}
  0
LINE
  5
1EE16
330
747D
100
AcDbEntity
  8
部品1
 62
     7
 48
10.0
100
AcDbLine
 10
12115.39291868346
 20
1459.373661269833
 30
0.0
 11
12115.39291868346
 21
1475.373661269834
 31
0.0
  0
LINE
  5
1EE17
330
747D
100
AcDbEntity
  8
Ｇ．Ｌ
 62
     7
100
AcDbLine
 10
10862.63196514754
 20
1749.373661269833
 30
0.0
 11
11561.22057962788
 21
1749.373661269833
 31
0.0
  0
LINE
  5
1EE18
330
747D
100
AcDbEntity
  8
文字
 62
     7
 48
50.0
100
AcDbLine
 10
11042.8002371624
 20
1877.425085401941
 30
0.0
 11
10894.93918877682
 21
1877.425085401941
 31
0.0
  0
LINE
  5
1EE19
330
747D
100
AcDbEntity
  8
文字
 62
     7
 48
50.0
100
AcDbLine
 10
10894.93918877682
 20
1877.425085401941
 30
0.0
 11
10968.86971296961
 21
1749.373661269833
 31
0.0
  0
TEXT
  5
1EE1A
330
747D
100
AcDbEntity
  8
部品1
 62
     7
100
AcDbText
 10
11063.40298672054
 20
1771.234304431198
 30
0.0
 40
150.0
  1
G.L
  7
STYLE1
100
AcDbText
  0
LINE
  5
1EE1B
330
747D
100
AcDbEntity
  8
文字
 62
     7
 48
50.0
100
AcDbLine
 10
10968.86971296961
 20
1749.373661269833
 30
0.0
 11
11042.8002371624
 21
1877.425085401941
 31
0.0
  0
DIMENSION
  5
1EE1C
330
747D
100
AcDbEntity
  8
寸法
 62
     7
 48
50.0
100
AcDbDimension
  2
*D56
 10
11496.91093653513
 20
1749.373661269833
 30
0.0
 11
11496.91093653513
 21
2236.337243947
 31
0.0
 70
   160
  1
100
 71
     5
 42
200.0000000000011
  3
INABA_S50G
100
AcDbAlignedDimension
 13
11778.67290371428
 23
1949.373661269834
 33
0.0
 14
11561.22057962788
 24
1749.373661269833
 34
0.0
 50
90.0
100
AcDbRotatedDimension
  0
LINE
  5
1EE1D
330
747D
100
AcDbEntity
  8
細線
  6
HIDDEN
 62
     7
 48
10.0
100
AcDbLine
 10
11971.39291868346
 20
1651.941979466702
 30
0.0
 11
12068.82460048659
 21
1749.373661269833
 31
0.0
  0
LINE
  5
1EE1E
330
747D
100
AcDbEntity
  8
寸法
 62
     7
 48
50.0
100
AcDbLine
 10
11795.42058817862
 20
1949.373661269834
 30
0.0
 11
12136.21794591976
 21
1949.373661269834
 31
0.0
  0
LINE
  5
1EE1F
330
747D
100
AcDbEntity
  8
細線
  6
HIDDEN
 62
     7
 48
10.0
100
AcDbLine
 10
12371.39291868346
 20
1349.373661269834
 30
0.0
 11
12371.39291868346
 21
1749.373661269833
 31
0.0
  0
LINE
  5
1EE20
330
747D
100
AcDbEntity
  8
部品1
 62
     7
 48
10.0
100
AcDbLine
 10
12159.39291868346
 20
2029.373661269834
 30
0.0
 11
12159.39291868346
 21
1475.373661269834
 31
0.0
  0
LINE
  5
1EE21
330
747D
100
AcDbEntity
  8
部品1
 62
     7
 48
10.0
100
AcDbLine
 10
12175.39291868346
 20
1475.373661269834
 30
0.0
 11
12175.39291868346
 21
2029.373661269834
 31
0.0
  0
LINE
  5
1EE22
330
747D
100
AcDbEntity
  8
細線
  6
HIDDEN
 62
     7
 48
10.0
100
AcDbLine
 10
12152.05153183435
 20
1349.373661269835
 30
0.0
 11
12371.39291868346
 21
1568.715048118956
 31
0.0
  0
ARC
  5
1EE23
330
747D
100
AcDbEntity
  8
部品1
 62
     7
 48
10.0
100
AcDbCircle
 10
12159.39291868346
 20
1475.373661269834
 30
0.0
 40
16.0
100
AcDbArc
 50
270.0
 51
0.0
  0
LINE
  5
1EE24
330
747D
100
AcDbEntity
  8
部品1
 62
     7
 48
10.0
100
AcDbLine
 10
12175.39291868346
 20
1949.373661269834
 30
0.0
 11
12175.39291868346
 21
2683.152017438573
 31
0.0
  0
LINE
  5
1EE25
330
747D
100
AcDbEntity
  8
部品1
 62
     7
 48
10.0
100
AcDbLine
 10
12303.39291868346
 20
1949.373661269834
 30
0.0
 11
12303.39291868346
 21
2683.152017438573
 31
0.0
  0
LINE
  5
1EE26
330
747D
100
AcDbEntity
  8
部品1
 62
     7
 48
10.0
100
AcDbLine
 10
12319.39291868346
 20
2047.373661269833
 30
0.0
 11
12319.39291868346
 21
2683.152017438573
 31
0.0
  0
LINE
  5
1EE27
330
747D
100
AcDbEntity
  8
部品1
 62
     7
 48
10.0
100
AcDbLine
 10
12335.39291868346
 20
2063.373661269833
 30
0.0
 11
12335.39291868346
 21
2683.152017438573
 31
0.0
  0
LINE
  5
1EE28
330
747D
100
AcDbEntity
  8
Ｇ．Ｌ
 62
     7
100
AcDbLine
 10
12175.39291868346
 20
1749.373661269833
 30
0.0
 11
12689.16290152045
 21
1749.373661269833
 31
0.0
  0
LINE
  5
1EE29
330
747D
100
AcDbEntity
  8
細線
 62
     7
100
AcDbLine
 10
12563.86153339381
 20
1749.373661269834
 30
0.0
 11
12363.86153339381
 21
1949.373661269834
 31
0.0
  0
LINE
  5
1EE2A
330
747D
100
AcDbEntity
  8
部品1
 62
     7
 48
10.0
100
AcDbLine
 10
12175.39291868346
 20
1949.373661269834
 30
0.0
 11
12575.39291868346
 21
1949.373661269834
 31
0.0
  0
LINE
  5
1EE2B
330
747D
100
AcDbEntity
  8
部品1
 62
     7
 48
10.0
100
AcDbLine
 10
12175.39291868346
 20
1949.373661269834
 30
0.0
 11
12690.73056603674
 21
1949.373661269834
 31
0.0
  0
LINE
  5
1EE2C
330
747D
100
AcDbEntity
  8
部品1
 62
     7
 48
10.0
100
AcDbLine
 10
12319.39291868346
 20
2063.373661269833
 30
0.0
 11
12690.73056603674
 21
2063.373661269833
 31
0.0
  0
LINE
  5
1EE2D
330
747D
100
AcDbEntity
  8
部品1
 62
     7
 48
10.0
100
AcDbLine
 10
12303.39291868346
 20
2047.373661269833
 30
0.0
 11
12690.73056603674
 21
2047.373661269833
 31
0.0
  0
LINE
  5
1EE2E
330
747D
100
AcDbEntity
  8
部品1
 62
     7
 48
10.0
100
AcDbLine
 10
12175.39291868346
 20
1749.373661269833
 30
0.0
 11
12175.39291868346
 21
1949.373661269834
 31
0.0
  0
LINE
  5
1EE2F
330
747D
100
AcDbEntity
  8
細線
 62
     7
100
AcDbLine
 10
12521.43512652261
 20
1749.373661269833
 30
0.0
 11
12321.43512652261
 21
1949.373661269834
 31
0.0
  0
LINE
  5
1EE30
330
747D
100
AcDbEntity
  8
細線
 62
     7
100
AcDbLine
 10
12295.16095654292
 20
1749.373661269833
 30
0.0
 11
12175.39291868346
 21
1869.141699129294
 31
0.0
  0
LINE
  5
1EE31
330
747D
100
AcDbEntity
  8
細線
 62
     7
100
AcDbLine
 10
12337.58736341411
 20
1749.373661269833
 30
0.0
 11
12175.39291868346
 21
1911.568106000486
 31
0.0
  0
CIRCLE
  5
1EE32
330
747D
100
AcDbEntity
  8
細線
 62
     7
100
AcDbCircle
 10
12235.39291868346
 20
1999.373661269833
 30
0.0
 40
16.0
  0
LINE
  5
1EE33
330
747D
100
AcDbEntity
  8
部品1
 62
     7
 48
10.0
100
AcDbLine
 10
12175.39291868346
 20
2029.373661269834
 30
0.0
 11
12159.39291868346
 21
2029.373661269834
 31
0.0
  0
LINE
  5
1EE34
330
747D
100
AcDbEntity
  8
細線
 62
     7
100
AcDbLine
 10
12145.39291868346
 20
1992.373661269834
 30
0.0
 11
12145.39291868346
 21
2006.373661269833
 31
0.0
  0
LINE
  5
1EE35
330
747D
100
AcDbEntity
  8
細線
 62
     7
100
AcDbLine
 10
12153.39291868346
 20
2013.373661269834
 30
0.0
 11
12152.39291868346
 21
2013.373661269834
 31
0.0
  0
LINE
  5
1EE36
330
747D
100
AcDbEntity
  8
細線
 62
     7
100
AcDbLine
 10
12153.39291868346
 20
1985.373661269834
 30
0.0
 11
12152.39291868346
 21
1985.373661269834
 31
0.0
  0
ARC
  5
1EE37
330
747D
100
AcDbEntity
  8
細線
 62
     7
100
AcDbCircle
 10
12152.39291868346
 20
2006.373661269833
 30
0.0
 40
7.0
100
AcDbArc
 50
90.0
 51
180.0
  0
ARC
  5
1EE38
330
747D
100
AcDbEntity
  8
細線
 62
     7
100
AcDbCircle
 10
12152.39291868346
 20
1992.373661269834
 30
0.0
 40
7.0
100
AcDbArc
 50
180.0
 51
270.0
  0
LINE
  5
1EE39
330
747D
100
AcDbEntity
  8
細線
 62
     7
100
AcDbLine
 10
12159.39291868346
 20
2015.373661269833
 30
0.0
 11
12153.39291868346
 21
2015.373661269833
 31
0.0
  0
LINE
  5
1EE3A
330
747D
100
AcDbEntity
  8
細線
 62
     7
100
AcDbLine
 10
12159.39291868346
 20
1983.373661269834
 30
0.0
 11
12153.39291868346
 21
1983.373661269834
 31
0.0
  0
LINE
  5
1EE3B
330
747D
100
AcDbEntity
  8
細線
 62
     7
100
AcDbLine
 10
12159.39291868346
 20
1983.373661269834
 30
0.0
 11
12159.39291868346
 21
2015.373661269833
 31
0.0
  0
LINE
  5
1EE3C
330
747D
100
AcDbEntity
  8
細線
 62
     7
100
AcDbLine
 10
12153.39291868346
 20
1983.373661269834
 30
0.0
 11
12153.39291868346
 21
2015.373661269833
 31
0.0
  0
CIRCLE
  5
1EE3D
330
747D
100
AcDbEntity
  8
細線
 62
     7
100
AcDbCircle
 10
12281.39291868346
 20
1999.373661269833
 30
0.0
 40
16.0
  0
LINE
  5
1EE3E
330
747D
100
AcDbEntity
  8
部品1
 62
     7
 48
10.0
100
AcDbLine
 10
12575.39291868346
 20
1949.373661269834
 30
0.0
 11
12575.39291868346
 21
1749.373661269833
 31
0.0
  0
TEXT
  5
1EE3F
330
747D
100
AcDbEntity
  8
部品1
 62
     7
100
AcDbText
 10
11028.92355353962
 20
3076.227094002039
 30
0.0
 40
150.0
  1
アンカー部詳細
  7
STYLE2
100
AcDbText
  0
ENDSEC
  0
SECTION
  2
OBJECTS
  0
DICTIONARY
  5
7471
330
0
100
AcDbDictionary
281
     1
  3
ACAD_COLOR
350
1EC21
  3
ACAD_GROUP
350
7472
  3
ACAD_LAYOUT
350
1A1FB
  3
ACAD_MATERIAL
350
1EC20
  3
ACAD_MLINESTYLE
350
7473
  3
ACAD_PLOTSETTINGS
350
1A1FC
  3
ACAD_PLOTSTYLENAME
350
1A1F9
  3
ACDBVARIABLEDICTIONARY
350
1152B
  3
CONTENTDICTIONARY
350
E71C
  3
DRAWINGVARIABLESDICT
350
F3B9
  0
DICTIONARY
  5
1EC21
102
{ACAD_REACTORS
330
7471
102
}
330
7471
100
AcDbDictionary
281
     1
  0
DICTIONARY
  5
7472
102
{ACAD_REACTORS
330
7471
102
}
330
7471
100
AcDbDictionary
281
     1
  0
DICTIONARY
  5
1A1FB
102
{ACAD_REACTORS
330
7471
102
}
330
7471
100
AcDbDictionary
281
     1
  3
Model
350
1A1FD
  3
ﾚｲｱｳﾄ1
350
1A1FE
  0
DICTIONARY
  5
1EC20
102
{ACAD_REACTORS
330
7471
102
}
330
7471
100
AcDbDictionary
281
     1
  0
DICTIONARY
  5
7473
102
{ACAD_REACTORS
330
7471
102
}
330
7471
100
AcDbDictionary
281
     1
  3
STANDARD
350
7480
  0
DICTIONARY
  5
1A1FC
102
{ACAD_REACTORS
330
7471
102
}
330
7471
100
AcDbDictionary
281
     1
  0
ACDBDICTIONARYWDFLT
  5
1A1F9
102
{ACAD_REACTORS
330
7471
102
}
330
7471
100
AcDbDictionary
281
     1
  3
Normal
350
1A1FA
100
AcDbDictionaryWithDefault
340
1A1FA
  0
DICTIONARY
  5
1152B
102
{ACAD_REACTORS
330
7471
102
}
330
7471
100
AcDbDictionary
281
     1
  3
SORTENTS
350
1152C
  0
DICTIONARY
  5
E71C
102
{ACAD_REACTORS
330
7471
102
}
330
7471
100
AcDbDictionary
281
     1
  0
DICTIONARY
  5
F3B9
102
{ACAD_REACTORS
330
7471
102
}
330
7471
100
AcDbDictionary
281
     1
1001
DRAWINGVARIABLESXDATA
1000
POLARMODE
1000
1
  0
LAYOUT
  5
1A1FD
102
{ACAD_REACTORS
330
1A1FB
102
}
330
1A1FB
100
AcDbPlotSettings
  1

  2
none_device
  4
Letter_(8.50_x_11.00_Inches)
  6

 40
6.349999904632568
 41
6.349999904632568
 42
6.350006103515625
 43
6.350006103515625
 44
215.8999938964844
 45
279.3999938964844
 46
0.0
 47
0.0
 48
0.0
 49
0.0
140
0.0
141
0.0
142
1.0
143
1.0
 70
 11952
 72
     1
 73
     1
 74
     0
  7

 75
     0
147
1.0
 76
     0
 77
     2
 78
   300
148
1855.629849537574
149
5012.335025218199
100
AcDbLayout
  1
Model
 70
     1
 71
     0
 10
0.0
 20
0.0
 11
12.0
 21
9.0
 12
0.0
 22
0.0
 32
0.0
 14
0.0
 24
0.0
 34
0.0
 15
0.0
 25
0.0
 35
0.0
146
0.0
 13
0.0
 23
0.0
 33
0.0
 16
1.0
 26
0.0
 36
0.0
 17
0.0
 27
1.0
 37
0.0
 76
     0
330
747D
  0
LAYOUT
  5
1A1FE
102
{ACAD_REACTORS
330
1A1FB
102
}
330
1A1FB
100
AcDbPlotSettings
  1

  2
\\NKZ-SERVER\EPSON LP-9000
  4

  6

 40
0.0
 41
0.0
 42
0.0
 43
0.0
 44
0.0
 45
0.0
 46
0.0
 47
0.0
 48
0.0
 49
0.0
140
0.0
141
0.0
142
1.0
143
1.0
 70
   688
 72
     0
 73
     0
 74
     5
  7

 75
    16
147
1.0
 76
     0
 77
     2
 78
   300
148
0.0
149
0.0
100
AcDbLayout
  1
ﾚｲｱｳﾄ1
 70
     0
 71
     1
 10
0.0
 20
0.0
 11
420.0
 21
297.0
 12
0.0
 22
0.0
 32
0.0
 14
1.000000000000000E+20
 24
1.000000000000000E+20
 34
1.000000000000000E+20
 15
-1.000000000000000E+20
 25
-1.000000000000000E+20
 35
-1.000000000000000E+20
146
0.0
 13
0.0
 23
0.0
 33
0.0
 16
1.0
 26
0.0
 36
0.0
 17
0.0
 27
1.0
 37
0.0
 76
     0
330
747A
  0
MLINESTYLE
  5
7480
102
{ACAD_REACTORS
330
7473
102
}
330
7473
100
AcDbMlineStyle
  2
STANDARD
 70
     0
  3

 62
     0
 51
90.0
 52
90.0
 71
     2
 49
0.5
 62
   256
  6
BYLAYER
 49
-0.5
 62
   256
  6
BYLAYER
  0
ACDBPLACEHOLDER
  5
1A1FA
102
{ACAD_REACTORS
330
1A1F9
102
}
330
1A1F9
  0
DICTIONARYVAR
  5
1152C
102
{ACAD_REACTORS
330
1152B
102
}
330
1152B
100
DictionaryVariables
280
     0
  1
96
  0
ENDSEC
  0
EOF
