  0
SECTION
  2
HEADER
  9
$ACADVER
  1
AC1015
  9
$ACADMAINTVER
 70
    20
  9
$DWGCODEPAGE
  3
ANSI_932
  9
$INSBASE
 10
0.0
 20
0.0
 30
0.0
  9
$EXTMIN
 10
173.9960207766853
 20
-1.110874686943134
 30
-0.0000000349181948
  9
$EXTMAX
 10
20387.00871517301
 20
14262.41831660334
 30
0.0000000814935746
  9
$LIMMIN
 10
0.0
 20
0.0
  9
$LIMMAX
 10
21000.0
 20
14850.0
  9
$ORTHOMODE
 70
     0
  9
$REGENMODE
 70
     1
  9
$FILLMODE
 70
     1
  9
$QTEXTMODE
 70
     0
  9
$MIRRTEXT
 70
     1
  9
$LTSCALE
 40
20.0
  9
$ATTMODE
 70
     1
  9
$TEXTSIZE
 40
150.0
  9
$TRACEWID
 40
1.0
  9
$TEXTSTYLE
  7
STYLE1
  9
$CLAYER
  8
0
  9
$CELTYPE
  6
BYLAYER
  9
$CECOLOR
 62
   256
  9
$CELTSCALE
 40
50.0
  9
$DISPSILH
 70
     0
  9
$DIMSCALE
 40
1.0
  9
$DIMASZ
 40
125.0
  9
$DIMEXO
 40
25.0
  9
$DIMDLI
 40
7.0
  9
$DIMRND
 40
0.0
  9
$DIMDLE
 40
0.0
  9
$DIMEXE
 40
75.0
  9
$DIMTP
 40
0.0
  9
$DIMTM
 40
0.0
  9
$DIMTXT
 40
150.0
  9
$DIMCEN
 40
0.0
  9
$DIMTSZ
 40
0.0
  9
$DIMTOL
 70
     0
  9
$DIMLIM
 70
     0
  9
$DIMTIH
 70
     0
  9
$DIMTOH
 70
     0
  9
$DIMSE1
 70
     0
  9
$DIMSE2
 70
     0
  9
$DIMTAD
 70
     3
  9
$DIMZIN
 70
     8
  9
$DIMBLK
  1

  9
$DIMASO
 70
     1
  9
$DIMSHO
 70
     1
  9
$DIMPOST
  1

  9
$DIMAPOST
  1

  9
$DIMALT
 70
     0
  9
$DIMALTD
 70
     2
  9
$DIMALTF
 40
0.0394
  9
$DIMLFAC
 40
1.0
  9
$DIMTOFL
 70
     1
  9
$DIMTVP
 40
0.0
  9
$DIMTIX
 70
     1
  9
$DIMSOXD
 70
     0
  9
$DIMSAH
 70
     1
  9
$DIMBLK1
  1
DOTSMALL
  9
$DIMBLK2
  1
DOTSMALL
  9
$DIMSTYLE
  2
INABA_S50G
  9
$DIMCLRD
 70
     0
  9
$DIMCLRE
 70
     0
  9
$DIMCLRT
 70
     7
  9
$DIMTFAC
 40
1.0
  9
$DIMGAP
 40
25.0
  9
$DIMJUST
 70
     0
  9
$DIMSD1
 70
     0
  9
$DIMSD2
 70
     0
  9
$DIMTOLJ
 70
     1
  9
$DIMTZIN
 70
     0
  9
$DIMALTZ
 70
     0
  9
$DIMALTTZ
 70
     0
  9
$DIMUPT
 70
     0
  9
$DIMDEC
 70
     1
  9
$DIMTDEC
 70
     4
  9
$DIMALTU
 70
     2
  9
$DIMALTTD
 70
     2
  9
$DIMTXSTY
  7
STYLE1
  9
$DIMAUNIT
 70
     0
  9
$DIMADEC
 70
     0
  9
$DIMALTRND
 40
0.0
  9
$DIMAZIN
 70
     0
  9
$DIMDSEP
 70
    46
  9
$DIMATFIT
 70
     3
  9
$DIMFRAC
 70
     0
  9
$DIMLDRBLK
  1

  9
$DIMLUNIT
 70
     2
  9
$DIMLWD
 70
    -2
  9
$DIMLWE
 70
    -2
  9
$DIMTMOVE
 70
     0
  9
$LUNITS
 70
     2
  9
$LUPREC
 70
     1
  9
$SKETCHINC
 40
1.0
  9
$FILLETRAD
 40
200.0
  9
$AUNITS
 70
     0
  9
$AUPREC
 70
     0
  9
$MENU
  1
acad
  9
$ELEVATION
 40
0.0
  9
$PELEVATION
 40
0.0
  9
$THICKNESS
 40
0.0
  9
$LIMCHECK
 70
     0
  9
$CHAMFERA
 40
0.0
  9
$CHAMFERB
 40
0.0
  9
$CHAMFERC
 40
30.0
  9
$CHAMFERD
 40
0.7853981633974483
  9
$SKPOLY
 70
     0
  9
$TDCREATE
 40
2450927.380327778
  9
$TDUCREATE
 40
2450927.005327778
  9
$TDUPDATE
 40
2455993.863172014
  9
$TDUUPDATE
 40
2455993.488172014
  9
$TDINDWG
 40
2.1808267708
  9
$TDUSRTIMER
 40
2.1808258681
  9
$USRTIMER
 70
     1
  9
$ANGBASE
 50
0.0
  9
$ANGDIR
 70
     0
  9
$PDMODE
 70
     3
  9
$PDSIZE
 40
2.0
  9
$PLINEWID
 40
0.0
  9
$SPLFRAME
 70
     0
  9
$SPLINETYPE
 70
     6
  9
$SPLINESEGS
 70
     8
  9
$HANDSEED
  5
1F858
  9
$SURFTAB1
 70
     6
  9
$SURFTAB2
 70
     6
  9
$SURFTYPE
 70
     6
  9
$SURFU
 70
     6
  9
$SURFV
 70
     6
  9
$UCSBASE
  2

  9
$UCSNAME
  2

  9
$UCSORG
 10
0.0
 20
0.0
 30
0.0
  9
$UCSXDIR
 10
1.0
 20
0.0
 30
0.0
  9
$UCSYDIR
 10
0.0
 20
1.0
 30
0.0
  9
$UCSORTHOREF
  2

  9
$UCSORTHOVIEW
 70
     0
  9
$UCSORGTOP
 10
0.0
 20
0.0
 30
0.0
  9
$UCSORGBOTTOM
 10
0.0
 20
0.0
 30
0.0
  9
$UCSORGLEFT
 10
0.0
 20
0.0
 30
0.0
  9
$UCSORGRIGHT
 10
0.0
 20
0.0
 30
0.0
  9
$UCSORGFRONT
 10
0.0
 20
0.0
 30
0.0
  9
$UCSORGBACK
 10
0.0
 20
0.0
 30
0.0
  9
$PUCSBASE
  2

  9
$PUCSNAME
  2

  9
$PUCSORG
 10
0.0
 20
0.0
 30
0.0
  9
$PUCSXDIR
 10
1.0
 20
0.0
 30
0.0
  9
$PUCSYDIR
 10
0.0
 20
1.0
 30
0.0
  9
$PUCSORTHOREF
  2

  9
$PUCSORTHOVIEW
 70
     0
  9
$PUCSORGTOP
 10
0.0
 20
0.0
 30
0.0
  9
$PUCSORGBOTTOM
 10
0.0
 20
0.0
 30
0.0
  9
$PUCSORGLEFT
 10
0.0
 20
0.0
 30
0.0
  9
$PUCSORGRIGHT
 10
0.0
 20
0.0
 30
0.0
  9
$PUCSORGFRONT
 10
0.0
 20
0.0
 30
0.0
  9
$PUCSORGBACK
 10
0.0
 20
0.0
 30
0.0
  9
$USERI1
 70
     0
  9
$USERI2
 70
     0
  9
$USERI3
 70
     0
  9
$USERI4
 70
     0
  9
$USERI5
 70
     0
  9
$USERR1
 40
0.0
  9
$USERR2
 40
0.0
  9
$USERR3
 40
0.0
  9
$USERR4
 40
0.0
  9
$USERR5
 40
0.0
  9
$WORLDVIEW
 70
     1
  9
$SHADEDGE
 70
     3
  9
$SHADEDIF
 70
    70
  9
$TILEMODE
 70
     1
  9
$MAXACTVP
 70
    16
  9
$PINSBASE
 10
0.0
 20
0.0
 30
0.0
  9
$PLIMCHECK
 70
     0
  9
$PEXTMIN
 10
1.000000000000000E+20
 20
1.000000000000000E+20
 30
1.000000000000000E+20
  9
$PEXTMAX
 10
-1.000000000000000E+20
 20
-1.000000000000000E+20
 30
-1.000000000000000E+20
  9
$PLIMMIN
 10
0.0
 20
0.0
  9
$PLIMMAX
 10
420.0
 20
297.0
  9
$UNITMODE
 70
     0
  9
$VISRETAIN
 70
     0
  9
$PLINEGEN
 70
     0
  9
$PSLTSCALE
 70
     0
  9
$TREEDEPTH
 70
  3020
  9
$CMLSTYLE
  2
STANDARD
  9
$CMLJUST
 70
     0
  9
$CMLSCALE
 40
1.0
  9
$PROXYGRAPHICS
 70
     1
  9
$MEASUREMENT
 70
     1
  9
$CELWEIGHT
370
    -1
  9
$ENDCAPS
280
     0
  9
$JOINSTYLE
280
     0
  9
$LWDISPLAY
290
     0
  9
$INSUNITS
 70
     0
  9
$HYPERLINKBASE
  1

  9
$STYLESHEET
  1
INABA.CTB
  9
$XEDIT
290
     1
  9
$CEPSNTYPE
380
     0
  9
$PSTYLEMODE
290
     1
  9
$FINGERPRINTGUID
  2
{4F262C7D-129B-401A-8922-7281910DC04E}
  9
$VERSIONGUID
  2
{9C4648FF-5B43-43CD-AAAA-9B5C3BFD79B3}
  9
$EXTNAMES
290
     1
  9
$PSVPSCALE
 40
0.0
  9
$OLESTARTUP
290
     0
  0
ENDSEC
  0
SECTION
  2
CLASSES
  0
CLASS
  1
DICTIONARYVAR
  2
AcDbDictionaryVar
  3
ObjectDBX Classes
 90
        0
280
     0
281
     0
  0
CLASS
  1
ACDBDICTIONARYWDFLT
  2
AcDbDictionaryWithDefault
  3
ObjectDBX Classes
 90
        0
280
     0
281
     0
  0
CLASS
  1
ACDBPLACEHOLDER
  2
AcDbPlaceHolder
  3
ObjectDBX Classes
 90
        0
280
     0
281
     0
  0
CLASS
  1
LAYOUT
  2
AcDbLayout
  3
ObjectDBX Classes
 90
        0
280
     0
281
     0
  0
ENDSEC
  0
SECTION
  2
TABLES
  0
TABLE
  2
VPORT
  5
746D
330
0
100
AcDbSymbolTable
 70
     3
  0
VPORT
  5
1F850
330
746D
100
AcDbSymbolTableRecord
100
AcDbViewportTableRecord
  2
*Active
 70
     0
 10
0.0
 20
0.0
 11
1.0
 21
1.0
 12
10280.50236797484
 22
7130.653720958197
 13
0.0
 23
0.0
 14
10.0
 24
10.0
 15
10.0
 25
10.0
 16
0.0
 26
0.0
 36
1.0
 17
0.0
 27
0.0
 37
0.0
 40
14368.27971166695
 41
1.526960784313725
 42
50.0
 43
0.0
 44
0.0
 50
0.0
 51
0.0
 71
     0
 72
     0
 73
     1
 74
     0
 75
     0
 76
     0
 77
     0
 78
     0
281
     0
 65
     1
110
0.0
120
0.0
130
0.0
111
1.0
121
0.0
131
0.0
112
0.0
122
1.0
132
0.0
 79
     0
146
0.0
  0
ENDTAB
  0
TABLE
  2
LTYPE
  5
746A
330
0
100
AcDbSymbolTable
 70
     3
  0
LTYPE
  5
7477
330
746A
100
AcDbSymbolTableRecord
100
AcDbLinetypeTableRecord
  2
BYBLOCK
 70
     0
  3

 72
    65
 73
     0
 40
0.0
  0
LTYPE
  5
7478
330
746A
100
AcDbSymbolTableRecord
100
AcDbLinetypeTableRecord
  2
BYLAYER
 70
     0
  3

 72
    65
 73
     0
 40
0.0
  0
LTYPE
  5
7479
330
746A
100
AcDbSymbolTableRecord
100
AcDbLinetypeTableRecord
  2
CONTINUOUS
 70
     0
  3
Solid line
 72
    65
 73
     0
 40
0.0
  0
LTYPE
  5
7816
330
746A
100
AcDbSymbolTableRecord
100
AcDbLinetypeTableRecord
  2
CENTER
 70
     0
  3
____ _ ____ _ ____ _ ____ _ ____ _ ____ _ ____ 
 72
    65
 73
     4
 40
2.0
 49
1.25
 74
     0
 49
-0.25
 74
     0
 49
0.25
 74
     0
 49
-0.25
 74
     0
  0
LTYPE
  5
781B
330
746A
100
AcDbSymbolTableRecord
100
AcDbLinetypeTableRecord
  2
PHANTOM
 70
     0
  3
______  __  __  ______  __  __  ______  __  __ 
 72
    65
 73
     6
 40
2.5
 49
1.25
 74
     0
 49
-0.25
 74
     0
 49
0.25
 74
     0
 49
-0.25
 74
     0
 49
0.25
 74
     0
 49
-0.25
 74
     0
  0
ENDTAB
  0
TABLE
  2
LAYER
  5
7467
102
{ACAD_XDICTIONARY
360
1DADC
102
}
330
0
100
AcDbSymbolTable
 70
    11
  0
LAYER
  5
7474
330
7467
100
AcDbSymbolTableRecord
100
AcDbLayerTableRecord
  2
0
 70
     0
 62
     7
  6
CONTINUOUS
370
    -3
390
1D3A7
  0
LAYER
  5
DEB2
330
7467
100
AcDbSymbolTableRecord
100
AcDbLayerTableRecord
  2
センター
 70
     0
 62
     3
  6
CENTER
370
    -3
390
1D3A7
  0
LAYER
  5
DEB3
330
7467
100
AcDbSymbolTableRecord
100
AcDbLayerTableRecord
  2
寸法
 70
     0
 62
     4
  6
CONTINUOUS
370
    -3
390
1D3A7
  0
LAYER
  5
DEB4
330
7467
100
AcDbSymbolTableRecord
100
AcDbLayerTableRecord
  2
部品1
 70
     0
 62
     7
  6
CONTINUOUS
370
    -3
390
1D3A7
  0
LAYER
  5
DEB5
330
7467
100
AcDbSymbolTableRecord
100
AcDbLayerTableRecord
  2
補助
 70
     0
 62
    -1
  6
CONTINUOUS
370
    -3
390
1D3A7
  0
LAYER
  5
DEB6
330
7467
100
AcDbSymbolTableRecord
100
AcDbLayerTableRecord
  2
文字
 70
     0
 62
     7
  6
CONTINUOUS
370
    -3
390
1D3A7
  0
LAYER
  5
F255
330
7467
100
AcDbSymbolTableRecord
100
AcDbLayerTableRecord
  2
DEFPOINTS
 70
     0
 62
     7
  6
CONTINUOUS
290
     0
370
    -3
390
1D3A7
  0
LAYER
  5
10B54
330
7467
100
AcDbSymbolTableRecord
100
AcDbLayerTableRecord
  2
仕様書枠
 70
     0
 62
   230
  6
CONTINUOUS
370
    -3
390
1D3A7
  0
LAYER
  5
13F73
330
7467
100
AcDbSymbolTableRecord
100
AcDbLayerTableRecord
  2
細線
 70
     0
 62
     5
  6
CONTINUOUS
370
    -3
390
1D3A7
  0
LAYER
  5
1643F
330
7467
100
AcDbSymbolTableRecord
100
AcDbLayerTableRecord
  2
想像線
 70
     0
 62
     6
  6
PHANTOM
370
    -3
390
1D3A7
  0
LAYER
  5
1825D
330
7467
100
AcDbSymbolTableRecord
100
AcDbLayerTableRecord
  2
Ｇ．Ｌ
 70
     0
 62
    30
  6
CONTINUOUS
370
    -3
390
1D3A7
  0
ENDTAB
  0
TABLE
  2
STYLE
  5
7468
330
0
100
AcDbSymbolTable
 70
     3
  0
STYLE
  5
7475
330
7468
100
AcDbSymbolTableRecord
100
AcDbTextStyleTableRecord
  2
STANDARD
 70
     0
 40
0.0
 41
1.0
 50
0.0
 71
     0
 42
4.0
  3
txt
  4
C:\AutoCAD LT\bigfont.shx
  0
STYLE
  5
F706
330
7468
100
AcDbSymbolTableRecord
100
AcDbTextStyleTableRecord
  2
STYLE1
 70
     0
 40
0.0
 41
1.0
 50
0.0
 71
     0
 42
150.0
  3
isocp.shx
  4
bigfont.shx
  0
STYLE
  5
103BF
330
7468
100
AcDbSymbolTableRecord
100
AcDbTextStyleTableRecord
  2
STYLE2
 70
     0
 40
0.0
 41
1.0
 50
0.0
 71
     0
 42
100.0
  3
MS PGothic.ttf
  4

1001
ACAD
1000
MS PGothic
1071
    32818
  0
ENDTAB
  0
TABLE
  2
VIEW
  5
746B
330
0
100
AcDbSymbolTable
 70
     0
  0
ENDTAB
  0
TABLE
  2
UCS
  5
746C
330
0
100
AcDbSymbolTable
 70
     0
  0
ENDTAB
  0
TABLE
  2
APPID
  5
746E
330
0
100
AcDbSymbolTable
 70
     6
  0
APPID
  5
7476
330
746E
100
AcDbSymbolTableRecord
100
AcDbRegAppTableRecord
  2
ACAD
 70
     0
  0
APPID
  5
DEA9
330
746E
100
AcDbSymbolTableRecord
100
AcDbRegAppTableRecord
  2
CONTENTBLOCKICON
 70
     0
  0
APPID
  5
DEAA
330
746E
100
AcDbSymbolTableRecord
100
AcDbRegAppTableRecord
  2
CONTENTBLOCKDESCRIPTION
 70
     0
  0
APPID
  5
E71D
330
746E
100
AcDbSymbolTableRecord
100
AcDbRegAppTableRecord
  2
CONTENTTABDATA
 70
     0
  0
APPID
  5
E71E
330
746E
100
AcDbSymbolTableRecord
100
AcDbRegAppTableRecord
  2
CONTENTCURRENTTAB
 70
     0
  0
APPID
  5
F3BA
330
746E
100
AcDbSymbolTableRecord
100
AcDbRegAppTableRecord
  2
DRAWINGVARIABLESXDATA
 70
     0
  0
ENDTAB
  0
TABLE
  2
DIMSTYLE
  5
746F
330
0
100
AcDbSymbolTable
 70
     2
100
AcDbDimStyleTable
 71
     1
340
F71F
  0
DIMSTYLE
105
F71F
102
{ACAD_REACTORS
330
1DFB2
330
1DFB6
330
1DFB7
330
1DFB8
330
1DFBC
330
1DFC5
330
1DFC6
330
1DFD3
330
1DFD4
330
1DFD5
330
1DFD8
330
1DFDC
330
1E082
330
1E083
330
1E08D
330
1E10A
330
1E10B
330
1E10C
330
1E10E
330
1E11C
330
1E125
330
1E128
330
1E129
330
1E132
330
1E145
330
1E146
330
1EA65
330
1F05F
330
1F08C
102
}
330
746F
100
AcDbSymbolTableRecord
100
AcDbDimStyleTableRecord
  2
INABA_S50G
 70
     0
 41
125.0
 42
25.0
 43
7.0
 44
75.0
 73
     0
 74
     0
 77
     3
 78
     8
140
150.0
141
0.0
143
0.0394
147
25.0
172
     1
173
     1
174
     1
178
     7
271
     1
340
F706
341
F770
343
F770
344
F770
  0
DIMSTYLE
105
1EAE7
102
{ACAD_REACTORS
330
1F43F
330
1F440
330
1F441
330
1F443
330
1F454
330
1F45C
330
1F45D
102
}
330
746F
100
AcDbSymbolTableRecord
100
AcDbDimStyleTableRecord
  2
INABA_S50GUP
 70
     0
 41
125.0
 42
25.0
 43
7.0
 44
75.0
 73
     0
 74
     0
 77
     3
 78
     8
140
150.0
141
0.0
143
0.0394
147
25.0
172
     1
173
     1
174
     1
178
     7
271
     1
340
F706
341
F770
343
F770
344
F770
  0
ENDTAB
  0
TABLE
  2
BLOCK_RECORD
  5
7466
330
0
100
AcDbSymbolTable
 70
    37
  0
BLOCK_RECORD
  5
747D
330
7466
100
AcDbSymbolTableRecord
100
AcDbBlockTableRecord
  2
*MODEL_SPACE
340
1D3AC
  0
BLOCK_RECORD
  5
747A
330
7466
100
AcDbSymbolTableRecord
100
AcDbBlockTableRecord
  2
*PAPER_SPACE
340
1D3AD
  0
BLOCK_RECORD
  5
F770
330
7466
100
AcDbSymbolTableRecord
100
AcDbBlockTableRecord
  2
_DOTSMALL
340
0
102
{BLKREFS
331
1F68C
331
1F68D
331
1F695
331
1F696
331
1F69F
331
1F6A0
331
1F6A8
331
1F6A9
331
1F6B1
331
1F6B2
331
1F6BA
331
1F6BB
331
1F6C3
331
1F6C4
331
1F6CE
331
1F6CF
331
1F6E1
331
1F6E2
331
1F6EA
331
1F6EB
331
1F6F3
331
1F6F4
331
1F6FD
331
1F6FE
331
1F707
331
1F708
331
1F710
331
1F711
331
1F71A
331
1F71B
331
1F724
331
1F725
331
1F72C
331
1F72D
331
1F735
331
1F736
331
1F73E
331
1F73F
331
1F747
331
1F748
331
1F750
331
1F751
331
1F758
331
1F759
331
1F761
331
1F762
331
1F76A
331
1F76B
331
1F77B
331
1F77C
331
1F784
331
1F785
331
1F798
331
1F799
331
1F7A2
331
1F7A3
331
1F7AB
331
1F7AC
331
1F7B3
331
1F7B4
331
1F7BD
331
1F7BE
331
1F7C7
331
1F7C8
331
1F7D1
331
1F7D2
331
1F7F1
331
1F7F2
331
1F7FA
331
1F7FB
331
1F804
331
1F805
102
}
  0
BLOCK_RECORD
  5
1E28E
330
7466
100
AcDbSymbolTableRecord
100
AcDbBlockTableRecord
  2
*D1
340
0
  0
BLOCK_RECORD
  5
1E29A
330
7466
100
AcDbSymbolTableRecord
100
AcDbBlockTableRecord
  2
*D2
340
0
  0
BLOCK_RECORD
  5
1E2A6
330
7466
100
AcDbSymbolTableRecord
100
AcDbBlockTableRecord
  2
*D3
340
0
  0
BLOCK_RECORD
  5
1E2B1
330
7466
100
AcDbSymbolTableRecord
100
AcDbBlockTableRecord
  2
*D4
340
0
  0
BLOCK_RECORD
  5
1E2BD
330
7466
100
AcDbSymbolTableRecord
100
AcDbBlockTableRecord
  2
*D5
340
0
  0
BLOCK_RECORD
  5
1E2C9
330
7466
100
AcDbSymbolTableRecord
100
AcDbBlockTableRecord
  2
*D6
340
0
  0
BLOCK_RECORD
  5
1E2D5
330
7466
100
AcDbSymbolTableRecord
100
AcDbBlockTableRecord
  2
*D7
340
0
  0
BLOCK_RECORD
  5
1E2E0
330
7466
100
AcDbSymbolTableRecord
100
AcDbBlockTableRecord
  2
*D8
340
0
  0
BLOCK_RECORD
  5
1E2EE
330
7466
100
AcDbSymbolTableRecord
100
AcDbBlockTableRecord
  2
*D9
340
0
  0
BLOCK_RECORD
  5
1E2FB
330
7466
100
AcDbSymbolTableRecord
100
AcDbBlockTableRecord
  2
*D10
340
0
  0
BLOCK_RECORD
  5
1E307
330
7466
100
AcDbSymbolTableRecord
100
AcDbBlockTableRecord
  2
*D11
340
0
  0
BLOCK_RECORD
  5
1E312
330
7466
100
AcDbSymbolTableRecord
100
AcDbBlockTableRecord
  2
*D12
340
0
  0
BLOCK_RECORD
  5
1E31F
330
7466
100
AcDbSymbolTableRecord
100
AcDbBlockTableRecord
  2
*D13
340
0
  0
BLOCK_RECORD
  5
1E32B
330
7466
100
AcDbSymbolTableRecord
100
AcDbBlockTableRecord
  2
*D14
340
0
  0
BLOCK_RECORD
  5
1E337
330
7466
100
AcDbSymbolTableRecord
100
AcDbBlockTableRecord
  2
*D15
340
0
  0
BLOCK_RECORD
  5
1E342
330
7466
100
AcDbSymbolTableRecord
100
AcDbBlockTableRecord
  2
*D16
340
0
  0
BLOCK_RECORD
  5
1E34F
330
7466
100
AcDbSymbolTableRecord
100
AcDbBlockTableRecord
  2
*D17
340
0
  0
BLOCK_RECORD
  5
1E35C
330
7466
100
AcDbSymbolTableRecord
100
AcDbBlockTableRecord
  2
*D18
340
0
  0
BLOCK_RECORD
  5
1E369
330
7466
100
AcDbSymbolTableRecord
100
AcDbBlockTableRecord
  2
*D19
340
0
  0
BLOCK_RECORD
  5
1E376
330
7466
100
AcDbSymbolTableRecord
100
AcDbBlockTableRecord
  2
*D20
340
0
  0
BLOCK_RECORD
  5
1E382
330
7466
100
AcDbSymbolTableRecord
100
AcDbBlockTableRecord
  2
*D21
340
0
  0
BLOCK_RECORD
  5
1E38E
330
7466
100
AcDbSymbolTableRecord
100
AcDbBlockTableRecord
  2
*D22
340
0
  0
BLOCK_RECORD
  5
1E39A
330
7466
100
AcDbSymbolTableRecord
100
AcDbBlockTableRecord
  2
*D23
340
0
  0
BLOCK_RECORD
  5
1E3A6
330
7466
100
AcDbSymbolTableRecord
100
AcDbBlockTableRecord
  2
*D24
340
0
  0
BLOCK_RECORD
  5
1E3B2
330
7466
100
AcDbSymbolTableRecord
100
AcDbBlockTableRecord
  2
*D25
340
0
  0
BLOCK_RECORD
  5
1E3BF
330
7466
100
AcDbSymbolTableRecord
100
AcDbBlockTableRecord
  2
*D26
340
0
  0
BLOCK_RECORD
  5
1EA66
330
7466
100
AcDbSymbolTableRecord
100
AcDbBlockTableRecord
  2
*D27
340
0
  0
BLOCK_RECORD
  5
1F060
330
7466
100
AcDbSymbolTableRecord
100
AcDbBlockTableRecord
  2
*D28
340
0
  0
BLOCK_RECORD
  5
1F08D
330
7466
100
AcDbSymbolTableRecord
100
AcDbBlockTableRecord
  2
*D29
340
0
  0
BLOCK_RECORD
  5
1F632
330
7466
100
AcDbSymbolTableRecord
100
AcDbBlockTableRecord
  2
*D30
340
0
  0
BLOCK_RECORD
  5
1F63F
330
7466
100
AcDbSymbolTableRecord
100
AcDbBlockTableRecord
  2
*D31
340
0
  0
BLOCK_RECORD
  5
1F64B
330
7466
100
AcDbSymbolTableRecord
100
AcDbBlockTableRecord
  2
*D32
340
0
  0
BLOCK_RECORD
  5
1F658
330
7466
100
AcDbSymbolTableRecord
100
AcDbBlockTableRecord
  2
*D33
340
0
  0
BLOCK_RECORD
  5
1F664
330
7466
100
AcDbSymbolTableRecord
100
AcDbBlockTableRecord
  2
*D34
340
0
  0
BLOCK_RECORD
  5
1F670
330
7466
100
AcDbSymbolTableRecord
100
AcDbBlockTableRecord
  2
*D35
340
0
  0
BLOCK_RECORD
  5
1F67C
330
7466
100
AcDbSymbolTableRecord
100
AcDbBlockTableRecord
  2
*D36
340
0
  0
ENDTAB
  0
ENDSEC
  0
SECTION
  2
BLOCKS
  0
BLOCK
  5
7489
330
747D
100
AcDbEntity
  8
0
100
AcDbBlockBegin
  2
*MODEL_SPACE
 70
     0
 10
0.0
 20
0.0
 30
0.0
  3
*MODEL_SPACE
  1

  0
ENDBLK
  5
748A
330
747D
100
AcDbEntity
  8
0
100
AcDbBlockEnd
  0
BLOCK
  5
7487
330
747A
100
AcDbEntity
 67
     1
  8
0
100
AcDbBlockBegin
  2
*PAPER_SPACE
 70
     0
 10
0.0
 20
0.0
 30
0.0
  3
*PAPER_SPACE
  1

  0
ENDBLK
  5
7488
330
747A
100
AcDbEntity
 67
     1
  8
0
100
AcDbBlockEnd
  0
BLOCK
  5
F771
330
F770
100
AcDbEntity
  8
0
 48
50.0
100
AcDbBlockBegin
  2
_DOTSMALL
 70
     0
 10
0.0
 20
0.0
 30
0.0
  3
_DOTSMALL
  1

  0
LWPOLYLINE
  5
F772
330
F770
100
AcDbEntity
  8
0
  6
ByBlock
 62
     0
 48
50.0
100
AcDbPolyline
 90
        2
 70
     1
 43
0.5
 10
-0.0625
 20
0.0
 42
1.0
 10
0.0625
 20
0.0
 42
1.0
  0
ENDBLK
  5
F776
330
F770
100
AcDbEntity
  8
0
 48
50.0
100
AcDbBlockEnd
  0
BLOCK
  5
1E298
330
1E28E
100
AcDbEntity
  8
0
 48
50.0
100
AcDbBlockBegin
  2
*D1
 70
     1
 10
0.0
 20
0.0
 30
0.0
  3
*D1
  1

  0
LINE
  5
1F75E
330
1E28E
100
AcDbEntity
  8
寸法
 62
     0
 48
50.0
370
    -2
100
AcDbLine
 10
9412.583243845579
 20
9888.179730466269
 30
0.0
 11
7970.583243845577
 21
9888.179730466269
 31
0.0
  0
LINE
  5
1F75F
330
1E28E
100
AcDbEntity
  8
寸法
 62
     0
 48
50.0
370
    -2
100
AcDbLine
 10
9412.583243845579
 20
9453.179730466269
 30
0.0
 11
7970.583243845577
 21
9453.179730466269
 31
0.0
  0
LINE
  5
1F760
330
1E28E
100
AcDbEntity
  8
寸法
 62
     0
 48
50.0
370
    -2
100
AcDbLine
 10
8045.583243845577
 20
9888.179730466269
 30
0.0
 11
8045.583243845577
 21
9453.179730466269
 31
0.0
  0
INSERT
  5
1F761
330
1E28E
100
AcDbEntity
  8
寸法
 62
     0
 48
50.0
370
    -2
100
AcDbBlockReference
  2
_DOTSMALL
 10
8045.583243845577
 20
9888.179730466269
 30
0.0
 41
125.0
 42
125.0
 43
125.0
 50
90.0
  0
INSERT
  5
1F762
330
1E28E
100
AcDbEntity
  8
寸法
 62
     0
 48
50.0
370
    -2
100
AcDbBlockReference
  2
_DOTSMALL
 10
8045.583243845577
 20
9453.179730466269
 30
0.0
 41
125.0
 42
125.0
 43
125.0
 50
270.0
  0
MTEXT
  5
1F763
330
1E28E
100
AcDbEntity
  8
寸法
 62
     7
 48
50.0
100
AcDbMText
 10
7945.583243845577
 20
9670.679730466268
 30
0.0
 40
150.0
 41
0.0
 71
     5
 72
     1
  1
\A1;435
  7
STYLE1
 11
0.0000000000000001
 21
1.0
 31
0.0
 73
     1
 44
1.0
1001
ACAD
1000
MTEXTBEGIN
1070
    73
1070
     1
1070
    44
1040
1.0
1070
    74
1070
     0
1000
MTEXTEND
  0
POINT
  5
1F764
330
1E28E
100
AcDbEntity
  8
DEFPOINTS
 62
     0
 48
50.0
100
AcDbPoint
 10
9437.583243845578
 20
9888.179730466269
 30
0.0
  0
POINT
  5
1F765
330
1E28E
100
AcDbEntity
  8
DEFPOINTS
 62
     0
 48
50.0
100
AcDbPoint
 10
9437.583243845578
 20
9453.179730466269
 30
0.0
  0
POINT
  5
1F766
330
1E28E
100
AcDbEntity
  8
DEFPOINTS
 62
     0
 48
50.0
100
AcDbPoint
 10
8045.583243845577
 20
9453.179730466269
 30
0.0
  0
ENDBLK
  5
1E299
330
1E28E
100
AcDbEntity
  8
0
 48
50.0
100
AcDbBlockEnd
  0
BLOCK
  5
1E2A4
330
1E29A
100
AcDbEntity
  8
0
 48
50.0
100
AcDbBlockBegin
  2
*D2
 70
     1
 10
0.0
 20
0.0
 30
0.0
  3
*D2
  1

  0
LINE
  5
1F6F0
330
1E29A
100
AcDbEntity
  8
寸法
 62
     0
 48
50.0
370
    -2
100
AcDbLine
 10
8812.563039180401
 20
8133.95354673009
 30
0.0
 11
9367.525516852294
 21
7466.247212647535
 31
0.0
  0
LINE
  5
1F6F1
330
1E29A
100
AcDbEntity
  8
寸法
 62
     0
 48
50.0
370
    -2
100
AcDbLine
 10
11862.5630391804
 20
10668.95354673009
 30
0.0
 11
12417.52551685229
 21
10001.24721264753
 31
0.0
  0
LINE
  5
1F6F2
330
1E29A
100
AcDbEntity
  8
寸法
 62
     0
 48
50.0
370
    -2
100
AcDbLine
 10
9319.586130847829
 20
7523.925763856064
 30
0.0
 11
12369.58613084783
 21
10058.92576385606
 31
0.0
  0
INSERT
  5
1F6F3
330
1E29A
100
AcDbEntity
  8
寸法
 62
     0
 48
50.0
370
    -2
100
AcDbBlockReference
  2
_DOTSMALL
 10
9319.586130847829
 20
7523.925763856064
 30
0.0
 41
125.0
 42
125.0
 43
125.0
 50
219.731581426194
  0
INSERT
  5
1F6F4
330
1E29A
100
AcDbEntity
  8
寸法
 62
     0
 48
50.0
370
    -2
100
AcDbBlockReference
  2
_DOTSMALL
 10
12369.58613084783
 20
10058.92576385606
 30
0.0
 41
125.0
 42
125.0
 43
125.0
 50
39.73158142619397
  0
MTEXT
  5
1F6F5
330
1E29A
100
AcDbEntity
  8
寸法
 62
     7
 48
50.0
100
AcDbMText
 10
10643.415169801
 20
8754.254019601225
 30
0.0
 40
150.0
 41
0.0
 71
     5
 72
     1
  1
\A1;3965.9
  7
STYLE1
 11
0.7690473494470477
 21
0.6391918133928739
 31
0.0
 73
     1
 44
1.0
1001
ACAD
1000
MTEXTBEGIN
1070
    73
1070
     1
1070
    44
1040
1.0
1070
    74
1070
     0
1000
MTEXTEND
  0
POINT
  5
1F6F6
330
1E29A
100
AcDbEntity
  8
DEFPOINTS
 62
     0
 48
50.0
100
AcDbPoint
 10
8796.583243845578
 20
8153.179730466268
 30
0.0
  0
POINT
  5
1F6F7
330
1E29A
100
AcDbEntity
  8
DEFPOINTS
 62
     0
 48
50.0
100
AcDbPoint
 10
11846.58324384558
 20
10688.17973046626
 30
0.0
  0
POINT
  5
1F6F8
330
1E29A
100
AcDbEntity
  8
DEFPOINTS
 62
     0
 48
50.0
100
AcDbPoint
 10
12369.58613084783
 20
10058.92576385606
 30
0.0
  0
ENDBLK
  5
1E2A5
330
1E29A
100
AcDbEntity
  8
0
 48
50.0
100
AcDbBlockEnd
  0
BLOCK
  5
1E2AF
330
1E2A6
100
AcDbEntity
  8
0
 48
50.0
100
AcDbBlockBegin
  2
*D3
 70
     1
 10
0.0
 20
0.0
 30
0.0
  3
*D3
  1

  0
LINE
  5
1F7B1
330
1E2A6
100
AcDbEntity
  8
寸法
 62
     0
 48
50.0
370
    -2
100
AcDbLine
 10
11951.58324384558
 20
8283.179730466267
 30
0.0
 11
12451.65146800964
 21
8283.179730466265
 31
0.0
  0
LINE
  5
1F7B2
330
1E2A6
100
AcDbEntity
  8
寸法
 62
     0
 48
50.0
370
    -2
100
AcDbLine
 10
12376.65146800964
 20
10623.17973046626
 30
0.0
 11
12376.65146800964
 21
8283.179730466265
 31
0.0
  0
INSERT
  5
1F7B3
330
1E2A6
100
AcDbEntity
  8
寸法
 62
     0
 48
50.0
370
    -2
100
AcDbBlockReference
  2
_DOTSMALL
 10
12376.65146800964
 20
10623.17973046626
 30
0.0
 41
125.0
 42
125.0
 43
125.0
 50
90.0
  0
INSERT
  5
1F7B4
330
1E2A6
100
AcDbEntity
  8
寸法
 62
     0
 48
50.0
370
    -2
100
AcDbBlockReference
  2
_DOTSMALL
 10
12376.65146800964
 20
8283.179730466265
 30
0.0
 41
125.0
 42
125.0
 43
125.0
 50
270.0
  0
MTEXT
  5
1F7B5
330
1E2A6
100
AcDbEntity
  8
寸法
 62
     7
 48
50.0
100
AcDbMText
 10
12276.63670423011
 20
9453.179730466269
 30
0.0
 40
150.0
 41
0.0
 71
     5
 72
     1
  1
\A1;2340
  7
STYLE1
 11
0.0000000000000001
 21
1.0
 31
0.0
 73
     1
 44
1.0
1001
ACAD
1000
MTEXTBEGIN
1070
    73
1070
     1
1070
    44
1040
1.0
1070
    74
1070
     0
1000
MTEXTEND
  0
POINT
  5
1F7B6
330
1E2A6
100
AcDbEntity
  8
DEFPOINTS
 62
     0
 48
50.0
100
AcDbPoint
 10
11926.58324384558
 20
10623.17973046627
 30
0.0
  0
POINT
  5
1F7B7
330
1E2A6
100
AcDbEntity
  8
DEFPOINTS
 62
     0
 48
50.0
100
AcDbPoint
 10
11926.58324384558
 20
8283.179730466267
 30
0.0
  0
POINT
  5
1F7B8
330
1E2A6
100
AcDbEntity
  8
DEFPOINTS
 62
     0
 48
50.0
100
AcDbPoint
 10
12376.65146800964
 20
8283.179730466265
 30
0.0
  0
ENDBLK
  5
1E2B0
330
1E2A6
100
AcDbEntity
  8
0
 48
50.0
100
AcDbBlockEnd
  0
BLOCK
  5
1E2BB
330
1E2B1
100
AcDbEntity
  8
0
 48
50.0
100
AcDbBlockBegin
  2
*D4
 70
     1
 10
0.0
 20
0.0
 30
0.0
  3
*D4
  1

  0
LINE
  5
1F7A8
330
1E2B1
100
AcDbEntity
  8
寸法
 62
     0
 48
50.0
370
    -2
100
AcDbLine
 10
11871.58324384558
 20
8218.179730466266
 30
0.0
 11
12772.58324384558
 21
8218.179730466266
 31
0.0
  0
LINE
  5
1F7A9
330
1E2B1
100
AcDbEntity
  8
寸法
 62
     0
 48
50.0
370
    -2
100
AcDbLine
 10
11871.58324384558
 20
10688.17973046626
 30
0.0
 11
12772.58324384558
 21
10688.17973046626
 31
0.0
  0
LINE
  5
1F7AA
330
1E2B1
100
AcDbEntity
  8
寸法
 62
     0
 48
50.0
370
    -2
100
AcDbLine
 10
12697.58324384558
 20
8218.179730466266
 30
0.0
 11
12697.58324384558
 21
10688.17973046626
 31
0.0
  0
INSERT
  5
1F7AB
330
1E2B1
100
AcDbEntity
  8
寸法
 62
     0
 48
50.0
370
    -2
100
AcDbBlockReference
  2
_DOTSMALL
 10
12697.58324384558
 20
8218.179730466266
 30
0.0
 41
125.0
 42
125.0
 43
125.0
 50
270.0
  0
INSERT
  5
1F7AC
330
1E2B1
100
AcDbEntity
  8
寸法
 62
     0
 48
50.0
370
    -2
100
AcDbBlockReference
  2
_DOTSMALL
 10
12697.58324384558
 20
10688.17973046626
 30
0.0
 41
125.0
 42
125.0
 43
125.0
 50
90.0
  0
MTEXT
  5
1F7AD
330
1E2B1
100
AcDbEntity
  8
寸法
 62
     7
 48
50.0
100
AcDbMText
 10
12597.56848006605
 20
9453.179730466269
 30
0.0
 40
150.0
 41
0.0
 71
     5
 72
     1
  1
\A1;2470
  7
STYLE1
 11
0.0000000000000001
 21
1.0
 31
0.0
 73
     1
 44
1.0
1001
ACAD
1000
MTEXTBEGIN
1070
    73
1070
     1
1070
    44
1040
1.0
1070
    74
1070
     0
1000
MTEXTEND
  0
POINT
  5
1F7AE
330
1E2B1
100
AcDbEntity
  8
DEFPOINTS
 62
     0
 48
50.0
100
AcDbPoint
 10
11846.58324384558
 20
8218.179730466266
 30
0.0
  0
POINT
  5
1F7AF
330
1E2B1
100
AcDbEntity
  8
DEFPOINTS
 62
     0
 48
50.0
100
AcDbPoint
 10
11846.58324384558
 20
10688.17973046626
 30
0.0
  0
POINT
  5
1F7B0
330
1E2B1
100
AcDbEntity
  8
DEFPOINTS
 62
     0
 48
50.0
100
AcDbPoint
 10
12697.58324384558
 20
10688.17973046626
 30
0.0
  0
ENDBLK
  5
1E2BC
330
1E2B1
100
AcDbEntity
  8
0
 48
50.0
100
AcDbBlockEnd
  0
BLOCK
  5
1E2C7
330
1E2BD
100
AcDbEntity
  8
0
 48
50.0
100
AcDbBlockBegin
  2
*D5
 70
     1
 10
0.0
 20
0.0
 30
0.0
  3
*D5
  1

  0
LINE
  5
1F781
330
1E2BD
100
AcDbEntity
  8
寸法
 62
     0
 48
50.0
370
    -2
100
AcDbLine
 10
10151.58324384557
 20
9888.179730466269
 30
0.0
 11
10021.01252048234
 21
9888.179730466269
 31
0.0
  0
LINE
  5
1F782
330
1E2BD
100
AcDbEntity
  8
寸法
 62
     0
 48
50.0
370
    -2
100
AcDbLine
 10
10151.58324384558
 20
9018.179730466265
 30
0.0
 11
10021.01252048234
 21
9018.179730466265
 31
0.0
  0
LINE
  5
1F783
330
1E2BD
100
AcDbEntity
  8
寸法
 62
     0
 48
50.0
370
    -2
100
AcDbLine
 10
10096.01252048234
 20
9888.179730466269
 30
0.0
 11
10096.01252048234
 21
9018.179730466265
 31
0.0
  0
INSERT
  5
1F784
330
1E2BD
100
AcDbEntity
  8
寸法
 62
     0
 48
50.0
370
    -2
100
AcDbBlockReference
  2
_DOTSMALL
 10
10096.01252048234
 20
9888.179730466269
 30
0.0
 41
125.0
 42
125.0
 43
125.0
 50
90.0
  0
INSERT
  5
1F785
330
1E2BD
100
AcDbEntity
  8
寸法
 62
     0
 48
50.0
370
    -2
100
AcDbBlockReference
  2
_DOTSMALL
 10
10096.01252048234
 20
9018.179730466265
 30
0.0
 41
125.0
 42
125.0
 43
125.0
 50
270.0
  0
MTEXT
  5
1F786
330
1E2BD
100
AcDbEntity
  8
寸法
 62
     7
 48
50.0
100
AcDbMText
 10
9996.012520482342
 20
9453.179730466269
 30
0.0
 40
150.0
 41
0.0
 71
     5
 72
     1
  1
\A1;870
  7
STYLE1
 11
0.0000000000000001
 21
1.0
 31
0.0
 73
     1
 44
1.0
1001
ACAD
1000
MTEXTBEGIN
1070
    73
1070
     1
1070
    44
1040
1.0
1070
    74
1070
     0
1000
MTEXTEND
  0
POINT
  5
1F787
330
1E2BD
100
AcDbEntity
  8
DEFPOINTS
 62
     0
 48
50.0
100
AcDbPoint
 10
10176.58324384557
 20
9888.179730466269
 30
0.0
  0
POINT
  5
1F788
330
1E2BD
100
AcDbEntity
  8
DEFPOINTS
 62
     0
 48
50.0
100
AcDbPoint
 10
10176.58324384558
 20
9018.179730466265
 30
0.0
  0
POINT
  5
1F789
330
1E2BD
100
AcDbEntity
  8
DEFPOINTS
 62
     0
 48
50.0
100
AcDbPoint
 10
10096.01252048234
 20
9018.179730466265
 30
0.0
  0
ENDBLK
  5
1E2C8
330
1E2BD
100
AcDbEntity
  8
0
 48
50.0
100
AcDbBlockEnd
  0
BLOCK
  5
1E2D3
330
1E2C9
100
AcDbEntity
  8
0
 48
50.0
100
AcDbBlockBegin
  2
*D6
 70
     1
 10
0.0
 20
0.0
 30
0.0
  3
*D6
  1

  0
LINE
  5
1F6E7
330
1E2C9
100
AcDbEntity
  8
寸法
 62
     0
 48
50.0
370
    -2
100
AcDbLine
 10
8796.583243845578
 20
8128.179730466269
 30
0.0
 11
8796.583243845578
 21
6672.753884220258
 31
0.0
  0
LINE
  5
1F6E8
330
1E2C9
100
AcDbEntity
  8
寸法
 62
     0
 48
50.0
370
    -2
100
AcDbLine
 10
11846.58324384558
 20
8193.179730466264
 30
0.0
 11
11846.58324384558
 21
6672.753884220258
 31
0.0
  0
LINE
  5
1F6E9
330
1E2C9
100
AcDbEntity
  8
寸法
 62
     0
 48
50.0
370
    -2
100
AcDbLine
 10
8796.583243845578
 20
6747.753884220258
 30
0.0
 11
11846.58324384558
 21
6747.753884220258
 31
0.0
  0
INSERT
  5
1F6EA
330
1E2C9
100
AcDbEntity
  8
寸法
 62
     0
 48
50.0
370
    -2
100
AcDbBlockReference
  2
_DOTSMALL
 10
8796.583243845578
 20
6747.753884220258
 30
0.0
 41
125.0
 42
125.0
 43
125.0
 50
180.0
  0
INSERT
  5
1F6EB
330
1E2C9
100
AcDbEntity
  8
寸法
 62
     0
 48
50.0
370
    -2
100
AcDbBlockReference
  2
_DOTSMALL
 10
11846.58324384558
 20
6747.753884220258
 30
0.0
 41
125.0
 42
125.0
 43
125.0
  0
MTEXT
  5
1F6EC
330
1E2C9
100
AcDbEntity
  8
寸法
 62
     7
 48
50.0
100
AcDbMText
 10
10321.58324384558
 20
6847.753884220257
 30
0.0
 40
150.0
 41
0.0
 71
     5
 72
     1
  1
\A1;3050
  7
STYLE1
 73
     1
 44
1.0
1001
ACAD
1000
MTEXTBEGIN
1070
    73
1070
     1
1070
    44
1040
1.0
1070
    74
1070
     0
1000
MTEXTEND
  0
POINT
  5
1F6ED
330
1E2C9
100
AcDbEntity
  8
DEFPOINTS
 62
     0
 48
50.0
100
AcDbPoint
 10
8796.583243845578
 20
8153.179730466268
 30
0.0
  0
POINT
  5
1F6EE
330
1E2C9
100
AcDbEntity
  8
DEFPOINTS
 62
     0
 48
50.0
100
AcDbPoint
 10
11846.58324384558
 20
8218.179730466264
 30
0.0
  0
POINT
  5
1F6EF
330
1E2C9
100
AcDbEntity
  8
DEFPOINTS
 62
     0
 48
50.0
100
AcDbPoint
 10
11846.58324384558
 20
6747.753884220258
 30
0.0
  0
ENDBLK
  5
1E2D4
330
1E2C9
100
AcDbEntity
  8
0
 48
50.0
100
AcDbBlockEnd
  0
BLOCK
  5
1E2DE
330
1E2D5
100
AcDbEntity
  8
0
 48
50.0
100
AcDbBlockBegin
  2
*D7
 70
     1
 10
0.0
 20
0.0
 30
0.0
  3
*D7
  1

  0
LINE
  5
1F72A
330
1E2D5
100
AcDbEntity
  8
寸法
 62
     0
 48
50.0
370
    -2
100
AcDbLine
 10
11781.58324384558
 20
8113.179730466267
 30
0.0
 11
11781.58324384558
 21
6953.59304972306
 31
0.0
  0
LINE
  5
1F72B
330
1E2D5
100
AcDbEntity
  8
寸法
 62
     0
 48
50.0
370
    -2
100
AcDbLine
 10
8861.583243845577
 20
7028.593049723061
 30
0.0
 11
11781.58324384558
 21
7028.593049723061
 31
0.0
  0
INSERT
  5
1F72C
330
1E2D5
100
AcDbEntity
  8
寸法
 62
     0
 48
50.0
370
    -2
100
AcDbBlockReference
  2
_DOTSMALL
 10
8861.583243845577
 20
7028.593049723061
 30
0.0
 41
125.0
 42
125.0
 43
125.0
 50
180.0
  0
INSERT
  5
1F72D
330
1E2D5
100
AcDbEntity
  8
寸法
 62
     0
 48
50.0
370
    -2
100
AcDbBlockReference
  2
_DOTSMALL
 10
11781.58324384558
 20
7028.593049723061
 30
0.0
 41
125.0
 42
125.0
 43
125.0
  0
MTEXT
  5
1F72E
330
1E2D5
100
AcDbEntity
  8
寸法
 62
     7
 48
50.0
100
AcDbMText
 10
10321.58324384558
 20
7128.644065429064
 30
0.0
 40
150.0
 41
0.0
 71
     5
 72
     1
  1
\A1;2920
  7
STYLE1
 73
     1
 44
1.0
1001
ACAD
1000
MTEXTBEGIN
1070
    73
1070
     1
1070
    44
1040
1.0
1070
    74
1070
     0
1000
MTEXTEND
  0
POINT
  5
1F72F
330
1E2D5
100
AcDbEntity
  8
DEFPOINTS
 62
     0
 48
50.0
100
AcDbPoint
 10
8861.583243845577
 20
8138.179730466267
 30
0.0
  0
POINT
  5
1F730
330
1E2D5
100
AcDbEntity
  8
DEFPOINTS
 62
     0
 48
50.0
100
AcDbPoint
 10
11781.58324384558
 20
8138.179730466267
 30
0.0
  0
POINT
  5
1F731
330
1E2D5
100
AcDbEntity
  8
DEFPOINTS
 62
     0
 48
50.0
100
AcDbPoint
 10
11781.58324384558
 20
7028.593049723061
 30
0.0
  0
ENDBLK
  5
1E2DF
330
1E2D5
100
AcDbEntity
  8
0
 48
50.0
100
AcDbBlockEnd
  0
BLOCK
  5
1E2EC
330
1E2E0
100
AcDbEntity
  8
0
 48
50.0
100
AcDbBlockBegin
  2
*D8
 70
     1
 10
0.0
 20
0.0
 30
0.0
  3
*D8
  1

  0
LINE
  5
1F720
330
1E2E0
100
AcDbEntity
  8
寸法
 62
     0
 48
50.0
370
    -2
100
AcDbLine
 10
8746.583243845577
 20
7003.593049723061
 30
0.0
 11
8746.583243845577
 21
6672.753884220258
 31
0.0
  0
LINE
  5
1F721
330
1E2E0
100
AcDbEntity
  8
寸法
 62
     0
 48
50.0
370
    -2
100
AcDbLine
 10
8796.583243845578
 20
8128.179730466269
 30
0.0
 11
8796.583243845578
 21
6672.753884220258
 31
0.0
  0
LINE
  5
1F722
330
1E2E0
100
AcDbEntity
  8
寸法
 62
     0
 48
50.0
370
    -2
100
AcDbLine
 10
8796.583243845578
 20
6747.753884220258
 30
0.0
 11
8746.583243845577
 21
6747.753884220258
 31
0.0
  0
LINE
  5
1F723
330
1E2E0
100
AcDbEntity
  8
寸法
 62
     0
 48
50.0
370
    -2
100
AcDbLine
 10
8746.583243845577
 20
6747.753884220258
 30
0.0
 11
8161.701354081799
 21
6747.753884220258
 31
0.0
  0
INSERT
  5
1F724
330
1E2E0
100
AcDbEntity
  8
寸法
 62
     0
 48
50.0
370
    -2
100
AcDbBlockReference
  2
_DOTSMALL
 10
8796.583243845578
 20
6747.753884220258
 30
0.0
 41
125.0
 42
125.0
 43
125.0
  0
INSERT
  5
1F725
330
1E2E0
100
AcDbEntity
  8
寸法
 62
     0
 48
50.0
370
    -2
100
AcDbBlockReference
  2
_DOTSMALL
 10
8746.583243845577
 20
6747.753884220258
 30
0.0
 41
125.0
 42
125.0
 43
125.0
 50
180.0
  0
MTEXT
  5
1F726
330
1E2E0
100
AcDbEntity
  8
寸法
 62
     7
 48
50.0
100
AcDbMText
 10
8329.142298963688
 20
6855.253884220258
 30
0.0
 40
150.0
 41
0.0
 71
     5
 72
     1
  1
\A1;(50)
  7
STYLE1
 73
     1
 44
1.0
1001
ACAD
1000
MTEXTBEGIN
1070
    73
1070
     1
1070
    44
1040
1.0
1070
    74
1070
     0
1000
MTEXTEND
  0
POINT
  5
1F727
330
1E2E0
100
AcDbEntity
  8
DEFPOINTS
 62
     0
 48
50.0
100
AcDbPoint
 10
8746.583243845577
 20
7028.593049723061
 30
0.0
  0
POINT
  5
1F728
330
1E2E0
100
AcDbEntity
  8
DEFPOINTS
 62
     0
 48
50.0
100
AcDbPoint
 10
8796.583243845578
 20
8153.179730466268
 30
0.0
  0
POINT
  5
1F729
330
1E2E0
100
AcDbEntity
  8
DEFPOINTS
 62
     0
 48
50.0
100
AcDbPoint
 10
8796.583243845578
 20
6747.753884220258
 30
0.0
  0
ENDBLK
  5
1E2ED
330
1E2E0
100
AcDbEntity
  8
0
 48
50.0
100
AcDbBlockEnd
  0
BLOCK
  5
1E2F9
330
1E2EE
100
AcDbEntity
  8
0
 48
50.0
100
AcDbBlockBegin
  2
*D9
 70
     1
 10
0.0
 20
0.0
 30
0.0
  3
*D9
  1

  0
LINE
  5
1F716
330
1E2EE
100
AcDbEntity
  8
寸法
 62
     0
 48
50.0
370
    -2
100
AcDbLine
 10
8796.583243845578
 20
8128.179730466269
 30
0.0
 11
8796.583243845578
 21
6953.59304972306
 31
0.0
  0
LINE
  5
1F717
330
1E2EE
100
AcDbEntity
  8
寸法
 62
     0
 48
50.0
370
    -2
100
AcDbLine
 10
8861.583243845577
 20
8113.179730466267
 30
0.0
 11
8861.583243845577
 21
6953.59304972306
 31
0.0
  0
LINE
  5
1F718
330
1E2EE
100
AcDbEntity
  8
寸法
 62
     0
 48
50.0
370
    -2
100
AcDbLine
 10
8861.583243845577
 20
7028.593049723061
 30
0.0
 11
8796.583243845578
 21
7028.593049723061
 31
0.0
  0
LINE
  5
1F719
330
1E2EE
100
AcDbEntity
  8
寸法
 62
     0
 48
50.0
370
    -2
100
AcDbLine
 10
8796.583243845578
 20
7028.593049723061
 30
0.0
 11
8441.393662457228
 21
7028.593049723061
 31
0.0
  0
INSERT
  5
1F71A
330
1E2EE
100
AcDbEntity
  8
寸法
 62
     0
 48
50.0
370
    -2
100
AcDbBlockReference
  2
_DOTSMALL
 10
8861.583243845577
 20
7028.593049723061
 30
0.0
 41
125.0
 42
125.0
 43
125.0
  0
INSERT
  5
1F71B
330
1E2EE
100
AcDbEntity
  8
寸法
 62
     0
 48
50.0
370
    -2
100
AcDbBlockReference
  2
_DOTSMALL
 10
8796.583243845578
 20
7028.593049723061
 30
0.0
 41
125.0
 42
125.0
 43
125.0
 50
180.0
  0
MTEXT
  5
1F71C
330
1E2EE
100
AcDbEntity
  8
寸法
 62
     7
 48
50.0
100
AcDbMText
 10
8556.488453151402
 20
7128.593049723061
 30
0.0
 40
150.0
 41
0.0
 71
     5
 72
     1
  1
\A1;65
  7
STYLE1
 73
     1
 44
1.0
1001
ACAD
1000
MTEXTBEGIN
1070
    73
1070
     1
1070
    44
1040
1.0
1070
    74
1070
     0
1000
MTEXTEND
  0
POINT
  5
1F71D
330
1E2EE
100
AcDbEntity
  8
DEFPOINTS
 62
     0
 48
50.0
100
AcDbPoint
 10
8796.583243845578
 20
8153.179730466268
 30
0.0
  0
POINT
  5
1F71E
330
1E2EE
100
AcDbEntity
  8
DEFPOINTS
 62
     0
 48
50.0
100
AcDbPoint
 10
8861.583243845577
 20
8138.179730466267
 30
0.0
  0
POINT
  5
1F71F
330
1E2EE
100
AcDbEntity
  8
DEFPOINTS
 62
     0
 48
50.0
100
AcDbPoint
 10
8861.583243845577
 20
7028.593049723061
 30
0.0
  0
ENDBLK
  5
1E2FA
330
1E2EE
100
AcDbEntity
  8
0
 48
50.0
100
AcDbBlockEnd
  0
BLOCK
  5
1E305
330
1E2FB
100
AcDbEntity
  8
0
 48
50.0
100
AcDbBlockBegin
  2
*D10
 70
     1
 10
0.0
 20
0.0
 30
0.0
  3
*D10
  1

  0
LINE
  5
1F70D
330
1E2FB
100
AcDbEntity
  8
寸法
 62
     0
 48
50.0
370
    -2
100
AcDbLine
 10
8796.583243845578
 20
8128.179730466269
 30
0.0
 11
8796.583243845578
 21
7290.616618730304
 31
0.0
  0
LINE
  5
1F70E
330
1E2FB
100
AcDbEntity
  8
寸法
 62
     0
 48
50.0
370
    -2
100
AcDbLine
 10
10618.58324384558
 20
8128.179730466269
 30
0.0
 11
10618.58324384558
 21
7290.616618730304
 31
0.0
  0
LINE
  5
1F70F
330
1E2FB
100
AcDbEntity
  8
寸法
 62
     0
 48
50.0
370
    -2
100
AcDbLine
 10
8796.583243845578
 20
7365.616618730304
 30
0.0
 11
10618.58324384558
 21
7365.616618730304
 31
0.0
  0
INSERT
  5
1F710
330
1E2FB
100
AcDbEntity
  8
寸法
 62
     0
 48
50.0
370
    -2
100
AcDbBlockReference
  2
_DOTSMALL
 10
8796.583243845578
 20
7365.616618730304
 30
0.0
 41
125.0
 42
125.0
 43
125.0
 50
180.0
  0
INSERT
  5
1F711
330
1E2FB
100
AcDbEntity
  8
寸法
 62
     0
 48
50.0
370
    -2
100
AcDbBlockReference
  2
_DOTSMALL
 10
10618.58324384558
 20
7365.616618730304
 30
0.0
 41
125.0
 42
125.0
 43
125.0
  0
MTEXT
  5
1F712
330
1E2FB
100
AcDbEntity
  8
寸法
 62
     7
 48
50.0
100
AcDbMText
 10
9707.583243845581
 20
7465.631382509831
 30
0.0
 40
150.0
 41
0.0
 71
     5
 72
     1
  1
\A1;1822
  7
STYLE1
 73
     1
 44
1.0
1001
ACAD
1000
MTEXTBEGIN
1070
    73
1070
     1
1070
    44
1040
1.0
1070
    74
1070
     0
1000
MTEXTEND
  0
POINT
  5
1F713
330
1E2FB
100
AcDbEntity
  8
DEFPOINTS
 62
     0
 48
50.0
100
AcDbPoint
 10
8796.583243845578
 20
8153.179730466268
 30
0.0
  0
POINT
  5
1F714
330
1E2FB
100
AcDbEntity
  8
DEFPOINTS
 62
     0
 48
50.0
100
AcDbPoint
 10
10618.58324384558
 20
8153.179730466268
 30
0.0
  0
POINT
  5
1F715
330
1E2FB
100
AcDbEntity
  8
DEFPOINTS
 62
     0
 48
50.0
100
AcDbPoint
 10
10618.58324384558
 20
7365.616618730304
 30
0.0
  0
ENDBLK
  5
1E306
330
1E2FB
100
AcDbEntity
  8
0
 48
50.0
100
AcDbBlockEnd
  0
BLOCK
  5
1E310
330
1E307
100
AcDbEntity
  8
0
 48
50.0
100
AcDbBlockBegin
  2
*D11
 70
     1
 10
0.0
 20
0.0
 30
0.0
  3
*D11
  1

  0
LINE
  5
1F756
330
1E307
100
AcDbEntity
  8
寸法
 62
     0
 48
50.0
370
    -2
100
AcDbLine
 10
8771.583243845578
 20
8218.179730466266
 30
0.0
 11
7970.583243845577
 21
8218.179730466266
 31
0.0
  0
LINE
  5
1F757
330
1E307
100
AcDbEntity
  8
寸法
 62
     0
 48
50.0
370
    -2
100
AcDbLine
 10
8045.583243845577
 20
8583.179730466268
 30
0.0
 11
8045.583243845577
 21
8218.179730466266
 31
0.0
  0
INSERT
  5
1F758
330
1E307
100
AcDbEntity
  8
寸法
 62
     0
 48
50.0
370
    -2
100
AcDbBlockReference
  2
_DOTSMALL
 10
8045.583243845577
 20
8583.179730466268
 30
0.0
 41
125.0
 42
125.0
 43
125.0
 50
90.0
  0
INSERT
  5
1F759
330
1E307
100
AcDbEntity
  8
寸法
 62
     0
 48
50.0
370
    -2
100
AcDbBlockReference
  2
_DOTSMALL
 10
8045.583243845577
 20
8218.179730466266
 30
0.0
 41
125.0
 42
125.0
 43
125.0
 50
270.0
  0
MTEXT
  5
1F75A
330
1E307
100
AcDbEntity
  8
寸法
 62
     7
 48
50.0
100
AcDbMText
 10
7945.583243845577
 20
8400.679730466269
 30
0.0
 40
150.0
 41
0.0
 71
     5
 72
     1
  1
\A1;365
  7
STYLE1
 11
0.0000000000000001
 21
1.0
 31
0.0
 73
     1
 44
1.0
1001
ACAD
1000
MTEXTBEGIN
1070
    73
1070
     1
1070
    44
1040
1.0
1070
    74
1070
     0
1000
MTEXTEND
  0
POINT
  5
1F75B
330
1E307
100
AcDbEntity
  8
DEFPOINTS
 62
     0
 48
50.0
100
AcDbPoint
 10
9582.583243845581
 20
8583.179730466268
 30
0.0
  0
POINT
  5
1F75C
330
1E307
100
AcDbEntity
  8
DEFPOINTS
 62
     0
 48
50.0
100
AcDbPoint
 10
8796.583243845578
 20
8218.179730466266
 30
0.0
  0
POINT
  5
1F75D
330
1E307
100
AcDbEntity
  8
DEFPOINTS
 62
     0
 48
50.0
100
AcDbPoint
 10
8045.583243845577
 20
8218.179730466266
 30
0.0
  0
ENDBLK
  5
1E311
330
1E307
100
AcDbEntity
  8
0
 48
50.0
100
AcDbBlockEnd
  0
BLOCK
  5
1E31D
330
1E312
100
AcDbEntity
  8
0
 48
50.0
100
AcDbBlockBegin
  2
*D12
 70
     1
 10
0.0
 20
0.0
 30
0.0
  3
*D12
  1

  0
LINE
  5
1F703
330
1E312
100
AcDbEntity
  8
寸法
 62
     0
 48
50.0
370
    -2
100
AcDbLine
 10
8771.583243845578
 20
8218.179730466266
 30
0.0
 11
7966.583243845581
 21
8218.179730466266
 31
0.0
  0
LINE
  5
1F704
330
1E312
100
AcDbEntity
  8
寸法
 62
     0
 48
50.0
370
    -2
100
AcDbLine
 10
8771.583243845578
 20
8153.179730466268
 30
0.0
 11
7966.583243845581
 21
8153.179730466268
 31
0.0
  0
LINE
  5
1F705
330
1E312
100
AcDbEntity
  8
寸法
 62
     0
 48
50.0
370
    -2
100
AcDbLine
 10
8041.583243845577
 20
8218.179730466266
 30
0.0
 11
8041.583243845577
 21
8153.179730466268
 31
0.0
  0
LINE
  5
1F706
330
1E312
100
AcDbEntity
  8
寸法
 62
     0
 48
50.0
370
    -2
100
AcDbLine
 10
8041.583243845577
 20
8153.179730466268
 30
0.0
 11
8041.583243845577
 21
7244.46652703067
 31
0.0
  0
INSERT
  5
1F707
330
1E312
100
AcDbEntity
  8
寸法
 62
     0
 48
50.0
370
    -2
100
AcDbBlockReference
  2
_DOTSMALL
 10
8041.583243845577
 20
8218.179730466266
 30
0.0
 41
125.0
 42
125.0
 43
125.0
 50
90.0
  0
INSERT
  5
1F708
330
1E312
100
AcDbEntity
  8
寸法
 62
     0
 48
50.0
370
    -2
100
AcDbBlockReference
  2
_DOTSMALL
 10
8041.583243845577
 20
8153.179730466268
 30
0.0
 41
125.0
 42
125.0
 43
125.0
 50
270.0
  0
MTEXT
  5
1F709
330
1E312
100
AcDbEntity
  8
寸法
 62
     7
 48
50.0
100
AcDbMText
 10
7941.583243845578
 20
7636.323128748469
 30
0.0
 40
150.0
 41
0.0
 71
     5
 72
     1
  1
\A1;扉の出65
  7
STYLE1
 11
0.0000000000000001
 21
1.0
 31
0.0
 73
     1
 44
1.0
1001
ACAD
1000
MTEXTBEGIN
1070
    73
1070
     1
1070
    44
1040
1.0
1070
    74
1070
     0
1000
MTEXTEND
  0
POINT
  5
1F70A
330
1E312
100
AcDbEntity
  8
DEFPOINTS
 62
     0
 48
50.0
100
AcDbPoint
 10
8796.583243845578
 20
8218.179730466266
 30
0.0
  0
POINT
  5
1F70B
330
1E312
100
AcDbEntity
  8
DEFPOINTS
 62
     0
 48
50.0
100
AcDbPoint
 10
8796.583243845578
 20
8153.179730466268
 30
0.0
  0
POINT
  5
1F70C
330
1E312
100
AcDbEntity
  8
DEFPOINTS
 62
     0
 48
50.0
100
AcDbPoint
 10
8041.583243845577
 20
8153.179730466268
 30
0.0
  0
ENDBLK
  5
1E31E
330
1E312
100
AcDbEntity
  8
0
 48
50.0
100
AcDbBlockEnd
  0
BLOCK
  5
1E329
330
1E31F
100
AcDbEntity
  8
0
 48
50.0
100
AcDbBlockBegin
  2
*D13
 70
     1
 10
0.0
 20
0.0
 30
0.0
  3
*D13
  1

  0
LINE
  5
1F74D
330
1E31F
100
AcDbEntity
  8
寸法
 62
     0
 48
50.0
370
    -2
100
AcDbLine
 10
9412.583243845579
 20
8583.179730466268
 30
0.0
 11
7970.583243845577
 21
8583.179730466268
 31
0.0
  0
LINE
  5
1F74E
330
1E31F
100
AcDbEntity
  8
寸法
 62
     0
 48
50.0
370
    -2
100
AcDbLine
 10
9412.583243845579
 20
9018.179730466265
 30
0.0
 11
7970.583243845577
 21
9018.179730466265
 31
0.0
  0
LINE
  5
1F74F
330
1E31F
100
AcDbEntity
  8
寸法
 62
     0
 48
50.0
370
    -2
100
AcDbLine
 10
8045.583243845577
 20
8583.179730466268
 30
0.0
 11
8045.583243845577
 21
9018.179730466265
 31
0.0
  0
INSERT
  5
1F750
330
1E31F
100
AcDbEntity
  8
寸法
 62
     0
 48
50.0
370
    -2
100
AcDbBlockReference
  2
_DOTSMALL
 10
8045.583243845577
 20
8583.179730466268
 30
0.0
 41
125.0
 42
125.0
 43
125.0
 50
270.0
  0
INSERT
  5
1F751
330
1E31F
100
AcDbEntity
  8
寸法
 62
     0
 48
50.0
370
    -2
100
AcDbBlockReference
  2
_DOTSMALL
 10
8045.583243845577
 20
9018.179730466265
 30
0.0
 41
125.0
 42
125.0
 43
125.0
 50
90.0
  0
MTEXT
  5
1F752
330
1E31F
100
AcDbEntity
  8
寸法
 62
     7
 48
50.0
100
AcDbMText
 10
7945.583243845577
 20
8800.679730466269
 30
0.0
 40
150.0
 41
0.0
 71
     5
 72
     1
  1
\A1;435
  7
STYLE1
 11
0.0000000000000001
 21
1.0
 31
0.0
 73
     1
 44
1.0
1001
ACAD
1000
MTEXTBEGIN
1070
    73
1070
     1
1070
    44
1040
1.0
1070
    74
1070
     0
1000
MTEXTEND
  0
POINT
  5
1F753
330
1E31F
100
AcDbEntity
  8
DEFPOINTS
 62
     0
 48
50.0
100
AcDbPoint
 10
9437.583243845578
 20
8583.179730466268
 30
0.0
  0
POINT
  5
1F754
330
1E31F
100
AcDbEntity
  8
DEFPOINTS
 62
     0
 48
50.0
100
AcDbPoint
 10
9437.583243845578
 20
9018.179730466265
 30
0.0
  0
POINT
  5
1F755
330
1E31F
100
AcDbEntity
  8
DEFPOINTS
 62
     0
 48
50.0
100
AcDbPoint
 10
8045.583243845577
 20
9018.179730466265
 30
0.0
  0
ENDBLK
  5
1E32A
330
1E31F
100
AcDbEntity
  8
0
 48
50.0
100
AcDbBlockEnd
  0
BLOCK
  5
1E335
330
1E32B
100
AcDbEntity
  8
0
 48
50.0
100
AcDbBlockBegin
  2
*D14
 70
     1
 10
0.0
 20
0.0
 30
0.0
  3
*D14
  1

  0
LINE
  5
1F744
330
1E32B
100
AcDbEntity
  8
寸法
 62
     0
 48
50.0
370
    -2
100
AcDbLine
 10
9412.583243845579
 20
9453.179730466269
 30
0.0
 11
7970.583243845577
 21
9453.179730466269
 31
0.0
  0
LINE
  5
1F745
330
1E32B
100
AcDbEntity
  8
寸法
 62
     0
 48
50.0
370
    -2
100
AcDbLine
 10
9412.583243845579
 20
9018.179730466265
 30
0.0
 11
7970.583243845577
 21
9018.179730466265
 31
0.0
  0
LINE
  5
1F746
330
1E32B
100
AcDbEntity
  8
寸法
 62
     0
 48
50.0
370
    -2
100
AcDbLine
 10
8045.583243845577
 20
9453.179730466269
 30
0.0
 11
8045.583243845577
 21
9018.179730466265
 31
0.0
  0
INSERT
  5
1F747
330
1E32B
100
AcDbEntity
  8
寸法
 62
     0
 48
50.0
370
    -2
100
AcDbBlockReference
  2
_DOTSMALL
 10
8045.583243845577
 20
9453.179730466269
 30
0.0
 41
125.0
 42
125.0
 43
125.0
 50
90.0
  0
INSERT
  5
1F748
330
1E32B
100
AcDbEntity
  8
寸法
 62
     0
 48
50.0
370
    -2
100
AcDbBlockReference
  2
_DOTSMALL
 10
8045.583243845577
 20
9018.179730466265
 30
0.0
 41
125.0
 42
125.0
 43
125.0
 50
270.0
  0
MTEXT
  5
1F749
330
1E32B
100
AcDbEntity
  8
寸法
 62
     7
 48
50.0
100
AcDbMText
 10
7945.583243845577
 20
9235.679730466269
 30
0.0
 40
150.0
 41
0.0
 71
     5
 72
     1
  1
\A1;435
  7
STYLE1
 11
0.0000000000000001
 21
1.0
 31
0.0
 73
     1
 44
1.0
1001
ACAD
1000
MTEXTBEGIN
1070
    73
1070
     1
1070
    44
1040
1.0
1070
    74
1070
     0
1000
MTEXTEND
  0
POINT
  5
1F74A
330
1E32B
100
AcDbEntity
  8
DEFPOINTS
 62
     0
 48
50.0
100
AcDbPoint
 10
9437.583243845578
 20
9453.179730466269
 30
0.0
  0
POINT
  5
1F74B
330
1E32B
100
AcDbEntity
  8
DEFPOINTS
 62
     0
 48
50.0
100
AcDbPoint
 10
9437.583243845578
 20
9018.179730466265
 30
0.0
  0
POINT
  5
1F74C
330
1E32B
100
AcDbEntity
  8
DEFPOINTS
 62
     0
 48
50.0
100
AcDbPoint
 10
8045.583243845577
 20
9018.179730466265
 30
0.0
  0
ENDBLK
  5
1E336
330
1E32B
100
AcDbEntity
  8
0
 48
50.0
100
AcDbBlockEnd
  0
BLOCK
  5
1E340
330
1E337
100
AcDbEntity
  8
0
 48
50.0
100
AcDbBlockBegin
  2
*D15
 70
     1
 10
0.0
 20
0.0
 30
0.0
  3
*D15
  1

  0
LINE
  5
1F779
330
1E337
100
AcDbEntity
  8
寸法
 62
     0
 48
50.0
370
    -2
100
AcDbLine
 10
10071.01252048234
 20
8218.179730466266
 30
0.0
 11
10021.01252048234
 21
8218.179730466266
 31
0.0
  0
LINE
  5
1F77A
330
1E337
100
AcDbEntity
  8
寸法
 62
     0
 48
50.0
370
    -2
100
AcDbLine
 10
10096.01252048234
 20
9018.179730466265
 30
0.0
 11
10096.01252048234
 21
8218.179730466266
 31
0.0
  0
INSERT
  5
1F77B
330
1E337
100
AcDbEntity
  8
寸法
 62
     0
 48
50.0
370
    -2
100
AcDbBlockReference
  2
_DOTSMALL
 10
10096.01252048234
 20
9018.179730466265
 30
0.0
 41
125.0
 42
125.0
 43
125.0
 50
90.0
  0
INSERT
  5
1F77C
330
1E337
100
AcDbEntity
  8
寸法
 62
     0
 48
50.0
370
    -2
100
AcDbBlockReference
  2
_DOTSMALL
 10
10096.01252048234
 20
8218.179730466266
 30
0.0
 41
125.0
 42
125.0
 43
125.0
 50
270.0
  0
MTEXT
  5
1F77D
330
1E337
100
AcDbEntity
  8
寸法
 62
     7
 48
50.0
100
AcDbMText
 10
9996.012520482342
 20
8618.179730466271
 30
0.0
 40
150.0
 41
0.0
 71
     5
 72
     1
  1
\A1;800
  7
STYLE1
 11
0.0000000000000001
 21
1.0
 31
0.0
 73
     1
 44
1.0
1001
ACAD
1000
MTEXTBEGIN
1070
    73
1070
     1
1070
    44
1040
1.0
1070
    74
1070
     0
1000
MTEXTEND
  0
POINT
  5
1F77E
330
1E337
100
AcDbEntity
  8
DEFPOINTS
 62
     0
 48
50.0
100
AcDbPoint
 10
10176.58324384557
 20
9018.179730466265
 30
0.0
  0
POINT
  5
1F77F
330
1E337
100
AcDbEntity
  8
DEFPOINTS
 62
     0
 48
50.0
100
AcDbPoint
 10
10096.01252048234
 20
8218.179730466266
 30
0.0
  0
POINT
  5
1F780
330
1E337
100
AcDbEntity
  8
DEFPOINTS
 62
     0
 48
50.0
100
AcDbPoint
 10
10096.01252048234
 20
8218.179730466266
 30
0.0
  0
ENDBLK
  5
1E341
330
1E337
100
AcDbEntity
  8
0
 48
50.0
100
AcDbBlockEnd
  0
BLOCK
  5
1E34D
330
1E342
100
AcDbEntity
  8
0
 48
50.0
100
AcDbBlockBegin
  2
*D16
 70
     1
 10
0.0
 20
0.0
 30
0.0
  3
*D16
  1

  0
LINE
  5
1F79E
330
1E342
100
AcDbEntity
  8
寸法
 62
     0
 48
50.0
370
    -2
100
AcDbLine
 10
11846.58324384558
 20
8193.179730466264
 30
0.0
 11
11846.58324384558
 21
6672.753884220258
 31
0.0
  0
LINE
  5
1F79F
330
1E342
100
AcDbEntity
  8
寸法
 62
     0
 48
50.0
370
    -2
100
AcDbLine
 10
11896.58324384558
 20
7003.593049723061
 30
0.0
 11
11896.58324384558
 21
6672.753884220258
 31
0.0
  0
LINE
  5
1F7A0
330
1E342
100
AcDbEntity
  8
寸法
 62
     0
 48
50.0
370
    -2
100
AcDbLine
 10
11846.58324384558
 20
6747.753884220258
 30
0.0
 11
11896.58324384558
 21
6747.753884220258
 31
0.0
  0
LINE
  5
1F7A1
330
1E342
100
AcDbEntity
  8
寸法
 62
     0
 48
50.0
370
    -2
100
AcDbLine
 10
11896.58324384558
 20
6747.753884220258
 30
0.0
 11
12356.46513360936
 21
6747.753884220258
 31
0.0
  0
INSERT
  5
1F7A2
330
1E342
100
AcDbEntity
  8
寸法
 62
     0
 48
50.0
370
    -2
100
AcDbBlockReference
  2
_DOTSMALL
 10
11846.58324384558
 20
6747.753884220258
 30
0.0
 41
125.0
 42
125.0
 43
125.0
 50
180.0
  0
INSERT
  5
1F7A3
330
1E342
100
AcDbEntity
  8
寸法
 62
     0
 48
50.0
370
    -2
100
AcDbBlockReference
  2
_DOTSMALL
 10
11896.58324384558
 20
6747.753884220258
 30
0.0
 41
125.0
 42
125.0
 43
125.0
  0
MTEXT
  5
1F7A4
330
1E342
100
AcDbEntity
  8
寸法
 62
     7
 48
50.0
100
AcDbMText
 10
12189.02418872747
 20
6855.253884220258
 30
0.0
 40
150.0
 41
0.0
 71
     5
 72
     1
  1
\A1;(50)
  7
STYLE1
 73
     1
 44
1.0
1001
ACAD
1000
MTEXTBEGIN
1070
    73
1070
     1
1070
    44
1040
1.0
1070
    74
1070
     0
1000
MTEXTEND
  0
POINT
  5
1F7A5
330
1E342
100
AcDbEntity
  8
DEFPOINTS
 62
     0
 48
50.0
100
AcDbPoint
 10
11846.58324384558
 20
8218.179730466264
 30
0.0
  0
POINT
  5
1F7A6
330
1E342
100
AcDbEntity
  8
DEFPOINTS
 62
     0
 48
50.0
100
AcDbPoint
 10
11896.58324384558
 20
7028.593049723061
 30
0.0
  0
POINT
  5
1F7A7
330
1E342
100
AcDbEntity
  8
DEFPOINTS
 62
     0
 48
50.0
100
AcDbPoint
 10
11896.58324384558
 20
6747.753884220258
 30
0.0
  0
ENDBLK
  5
1E34E
330
1E342
100
AcDbEntity
  8
0
 48
50.0
100
AcDbBlockEnd
  0
BLOCK
  5
1E35A
330
1E34F
100
AcDbEntity
  8
0
 48
50.0
100
AcDbBlockBegin
  2
*D17
 70
     1
 10
0.0
 20
0.0
 30
0.0
  3
*D17
  1

  0
LINE
  5
1F6DD
330
1E34F
100
AcDbEntity
  8
寸法
 62
     0
 48
50.0
370
    -2
100
AcDbLine
 10
11781.58324384558
 20
8113.179730466267
 30
0.0
 11
11781.58324384558
 21
6953.59304972306
 31
0.0
  0
LINE
  5
1F6DE
330
1E34F
100
AcDbEntity
  8
寸法
 62
     0
 48
50.0
370
    -2
100
AcDbLine
 10
11846.58324384558
 20
8193.179730466267
 30
0.0
 11
11846.58324384558
 21
6953.59304972306
 31
0.0
  0
LINE
  5
1F6DF
330
1E34F
100
AcDbEntity
  8
寸法
 62
     0
 48
50.0
370
    -2
100
AcDbLine
 10
11781.58324384558
 20
7028.593049723061
 30
0.0
 11
11846.58324384558
 21
7028.593049723061
 31
0.0
  0
LINE
  5
1F6E0
330
1E34F
100
AcDbEntity
  8
寸法
 62
     0
 48
50.0
370
    -2
100
AcDbLine
 10
11846.58324384558
 20
7028.593049723061
 30
0.0
 11
12201.77282523393
 21
7028.593049723061
 31
0.0
  0
INSERT
  5
1F6E1
330
1E34F
100
AcDbEntity
  8
寸法
 62
     0
 48
50.0
370
    -2
100
AcDbBlockReference
  2
_DOTSMALL
 10
11781.58324384558
 20
7028.593049723061
 30
0.0
 41
125.0
 42
125.0
 43
125.0
 50
180.0
  0
INSERT
  5
1F6E2
330
1E34F
100
AcDbEntity
  8
寸法
 62
     0
 48
50.0
370
    -2
100
AcDbBlockReference
  2
_DOTSMALL
 10
11846.58324384558
 20
7028.593049723061
 30
0.0
 41
125.0
 42
125.0
 43
125.0
  0
MTEXT
  5
1F6E3
330
1E34F
100
AcDbEntity
  8
寸法
 62
     7
 48
50.0
100
AcDbMText
 10
12086.67803453975
 20
7128.593049723061
 30
0.0
 40
150.0
 41
0.0
 71
     5
 72
     1
  1
\A1;65
  7
STYLE1
 73
     1
 44
1.0
1001
ACAD
1000
MTEXTBEGIN
1070
    73
1070
     1
1070
    44
1040
1.0
1070
    74
1070
     0
1000
MTEXTEND
  0
POINT
  5
1F6E4
330
1E34F
100
AcDbEntity
  8
DEFPOINTS
 62
     0
 48
50.0
100
AcDbPoint
 10
11781.58324384558
 20
8138.179730466267
 30
0.0
  0
POINT
  5
1F6E5
330
1E34F
100
AcDbEntity
  8
DEFPOINTS
 62
     0
 48
50.0
100
AcDbPoint
 10
11846.58324384558
 20
8218.179730466266
 30
0.0
  0
POINT
  5
1F6E6
330
1E34F
100
AcDbEntity
  8
DEFPOINTS
 62
     0
 48
50.0
100
AcDbPoint
 10
11846.58324384558
 20
7028.593049723061
 30
0.0
  0
ENDBLK
  5
1E35B
330
1E34F
100
AcDbEntity
  8
0
 48
50.0
100
AcDbBlockEnd
  0
BLOCK
  5
1E367
330
1E35C
100
AcDbEntity
  8
0
 48
50.0
100
AcDbBlockBegin
  2
*D18
 70
     1
 10
0.0
 20
0.0
 30
0.0
  3
*D18
  1

  0
LINE
  5
1F794
330
1E35C
100
AcDbEntity
  8
寸法
 62
     0
 48
50.0
370
    -2
100
AcDbLine
 10
11871.58324384558
 20
8218.179730466266
 30
0.0
 11
12772.58324384558
 21
8218.179730466266
 31
0.0
  0
LINE
  5
1F795
330
1E35C
100
AcDbEntity
  8
寸法
 62
     0
 48
50.0
370
    -2
100
AcDbLine
 10
12401.65146800964
 20
8088.179730466267
 30
0.0
 11
12772.58324384558
 21
8088.179730466267
 31
0.0
  0
LINE
  5
1F796
330
1E35C
100
AcDbEntity
  8
寸法
 62
     0
 48
50.0
370
    -2
100
AcDbLine
 10
12697.58324384558
 20
8218.179730466266
 30
0.0
 11
12697.58324384558
 21
8088.179730466267
 31
0.0
  0
LINE
  5
1F797
330
1E35C
100
AcDbEntity
  8
寸法
 62
     0
 48
50.0
370
    -2
100
AcDbLine
 10
12697.58324384558
 20
8088.179730466267
 30
0.0
 11
12697.58324384558
 21
7552.297840702488
 31
0.0
  0
INSERT
  5
1F798
330
1E35C
100
AcDbEntity
  8
寸法
 62
     0
 48
50.0
370
    -2
100
AcDbBlockReference
  2
_DOTSMALL
 10
12697.58324384558
 20
8218.179730466266
 30
0.0
 41
125.0
 42
125.0
 43
125.0
 50
90.0
  0
INSERT
  5
1F799
330
1E35C
100
AcDbEntity
  8
寸法
 62
     0
 48
50.0
370
    -2
100
AcDbBlockReference
  2
_DOTSMALL
 10
12697.58324384558
 20
8088.179730466267
 30
0.0
 41
125.0
 42
125.0
 43
125.0
 50
270.0
  0
MTEXT
  5
1F79A
330
1E35C
100
AcDbEntity
  8
寸法
 62
     7
 48
50.0
100
AcDbMText
 10
12590.08324384558
 20
7757.238785584377
 30
0.0
 40
150.0
 41
0.0
 71
     5
 72
     1
  1
\A1;(130)
  7
STYLE1
 11
0.0000000000000001
 21
1.0
 31
0.0
 73
     1
 44
1.0
1001
ACAD
1000
MTEXTBEGIN
1070
    73
1070
     1
1070
    44
1040
1.0
1070
    74
1070
     0
1000
MTEXTEND
  0
POINT
  5
1F79B
330
1E35C
100
AcDbEntity
  8
DEFPOINTS
 62
     0
 48
50.0
100
AcDbPoint
 10
11846.58324384558
 20
8218.179730466266
 30
0.0
  0
POINT
  5
1F79C
330
1E35C
100
AcDbEntity
  8
DEFPOINTS
 62
     0
 48
50.0
100
AcDbPoint
 10
12376.65146800964
 20
8088.179730466267
 30
0.0
  0
POINT
  5
1F79D
330
1E35C
100
AcDbEntity
  8
DEFPOINTS
 62
     0
 48
50.0
100
AcDbPoint
 10
12697.58324384558
 20
8088.179730466267
 30
0.0
  0
ENDBLK
  5
1E368
330
1E35C
100
AcDbEntity
  8
0
 48
50.0
100
AcDbBlockEnd
  0
BLOCK
  5
1E374
330
1E369
100
AcDbEntity
  8
0
 48
50.0
100
AcDbBlockBegin
  2
*D19
 70
     1
 10
0.0
 20
0.0
 30
0.0
  3
*D19
  1

  0
LINE
  5
1F7B9
330
1E369
100
AcDbEntity
  8
寸法
 62
     0
 48
50.0
370
    -2
100
AcDbLine
 10
11951.58324384558
 20
8283.179730466267
 30
0.0
 11
12451.65146800965
 21
8283.179730466265
 31
0.0
  0
LINE
  5
1F7BA
330
1E369
100
AcDbEntity
  8
寸法
 62
     0
 48
50.0
370
    -2
100
AcDbLine
 10
11871.58324384558
 20
8218.179730466266
 30
0.0
 11
12451.65146800965
 21
8218.179730466266
 31
0.0
  0
LINE
  5
1F7BB
330
1E369
100
AcDbEntity
  8
寸法
 62
     0
 48
50.0
370
    -2
100
AcDbLine
 10
12376.65146800965
 20
8283.179730466265
 30
0.0
 11
12376.65146800965
 21
8218.179730466266
 31
0.0
  0
LINE
  5
1F7BC
330
1E369
100
AcDbEntity
  8
寸法
 62
     0
 48
50.0
370
    -2
100
AcDbLine
 10
12376.65146800965
 20
8218.179730466266
 30
0.0
 11
12376.65146800965
 21
7862.990149077913
 31
0.0
  0
INSERT
  5
1F7BD
330
1E369
100
AcDbEntity
  8
寸法
 62
     0
 48
50.0
370
    -2
100
AcDbBlockReference
  2
_DOTSMALL
 10
12376.65146800965
 20
8283.179730466265
 30
0.0
 41
125.0
 42
125.0
 43
125.0
 50
90.0
  0
INSERT
  5
1F7BE
330
1E369
100
AcDbEntity
  8
寸法
 62
     0
 48
50.0
370
    -2
100
AcDbBlockReference
  2
_DOTSMALL
 10
12376.65146800965
 20
8218.179730466266
 30
0.0
 41
125.0
 42
125.0
 43
125.0
 50
270.0
  0
MTEXT
  5
1F7BF
330
1E369
100
AcDbEntity
  8
寸法
 62
     7
 48
50.0
100
AcDbMText
 10
12276.65146800964
 20
7978.084939772092
 30
0.0
 40
150.0
 41
0.0
 71
     5
 72
     1
  1
\A1;65
  7
STYLE1
 11
0.0000000000000001
 21
1.0
 31
0.0
 73
     1
 44
1.0
1001
ACAD
1000
MTEXTBEGIN
1070
    73
1070
     1
1070
    44
1040
1.0
1070
    74
1070
     0
1000
MTEXTEND
  0
POINT
  5
1F7C0
330
1E369
100
AcDbEntity
  8
DEFPOINTS
 62
     0
 48
50.0
100
AcDbPoint
 10
11926.58324384558
 20
8283.179730466267
 30
0.0
  0
POINT
  5
1F7C1
330
1E369
100
AcDbEntity
  8
DEFPOINTS
 62
     0
 48
50.0
100
AcDbPoint
 10
11846.58324384558
 20
8218.179730466266
 30
0.0
  0
POINT
  5
1F7C2
330
1E369
100
AcDbEntity
  8
DEFPOINTS
 62
     0
 48
50.0
100
AcDbPoint
 10
12376.65146800965
 20
8218.179730466266
 30
0.0
  0
ENDBLK
  5
1E375
330
1E369
100
AcDbEntity
  8
0
 48
50.0
100
AcDbBlockEnd
  0
BLOCK
  5
1E380
330
1E376
100
AcDbEntity
  8
0
 48
50.0
100
AcDbBlockBegin
  2
*D20
 70
     1
 10
0.0
 20
0.0
 30
0.0
  3
*D20
  1

  0
LINE
  5
1F7EE
330
1E376
100
AcDbEntity
  8
寸法
 62
     0
 48
50.0
370
    -2
100
AcDbLine
 10
10321.58324384558
 20
10058.17973046627
 30
0.0
 11
10321.58324384558
 21
11546.16090320902
 31
0.0
  0
LINE
  5
1F7EF
330
1E376
100
AcDbEntity
  8
寸法
 62
     0
 48
50.0
370
    -2
100
AcDbLine
 10
11846.58324384558
 20
10713.17973046626
 30
0.0
 11
11846.58324384558
 21
11546.16090320902
 31
0.0
  0
LINE
  5
1F7F0
330
1E376
100
AcDbEntity
  8
寸法
 62
     0
 48
50.0
370
    -2
100
AcDbLine
 10
10321.58324384558
 20
11471.16090320902
 30
0.0
 11
11846.58324384558
 21
11471.16090320902
 31
0.0
  0
INSERT
  5
1F7F1
330
1E376
100
AcDbEntity
  8
寸法
 62
     0
 48
50.0
370
    -2
100
AcDbBlockReference
  2
_DOTSMALL
 10
10321.58324384558
 20
11471.16090320902
 30
0.0
 41
125.0
 42
125.0
 43
125.0
 50
180.0
  0
INSERT
  5
1F7F2
330
1E376
100
AcDbEntity
  8
寸法
 62
     0
 48
50.0
370
    -2
100
AcDbBlockReference
  2
_DOTSMALL
 10
11846.58324384558
 20
11471.16090320902
 30
0.0
 41
125.0
 42
125.0
 43
125.0
  0
MTEXT
  5
1F7F3
330
1E376
100
AcDbEntity
  8
寸法
 62
     7
 48
50.0
100
AcDbMText
 10
11084.08324384557
 20
11571.17566698855
 30
0.0
 40
150.0
 41
0.0
 71
     5
 72
     1
  1
\A1;1525
  7
STYLE1
 73
     1
 44
1.0
1001
ACAD
1000
MTEXTBEGIN
1070
    73
1070
     1
1070
    44
1040
1.0
1070
    74
1070
     0
1000
MTEXTEND
  0
POINT
  5
1F7F4
330
1E376
100
AcDbEntity
  8
DEFPOINTS
 62
     0
 48
50.0
100
AcDbPoint
 10
10321.58324384558
 20
10033.17973046627
 30
0.0
  0
POINT
  5
1F7F5
330
1E376
100
AcDbEntity
  8
DEFPOINTS
 62
     0
 48
50.0
100
AcDbPoint
 10
11846.58324384558
 20
10688.17973046626
 30
0.0
  0
POINT
  5
1F7F6
330
1E376
100
AcDbEntity
  8
DEFPOINTS
 62
     0
 48
50.0
100
AcDbPoint
 10
11846.58324384558
 20
11471.16090320902
 30
0.0
  0
ENDBLK
  5
1E381
330
1E376
100
AcDbEntity
  8
0
 48
50.0
100
AcDbBlockEnd
  0
BLOCK
  5
1E38C
330
1E382
100
AcDbEntity
  8
0
 48
50.0
100
AcDbBlockBegin
  2
*D21
 70
     1
 10
0.0
 20
0.0
 30
0.0
  3
*D21
  1

  0
LINE
  5
1F7F7
330
1E382
100
AcDbEntity
  8
寸法
 62
     0
 48
50.0
370
    -2
100
AcDbLine
 10
8796.583243845578
 20
10713.17973046626
 30
0.0
 11
8796.583243845578
 21
11546.16090320902
 31
0.0
  0
LINE
  5
1F7F8
330
1E382
100
AcDbEntity
  8
寸法
 62
     0
 48
50.0
370
    -2
100
AcDbLine
 10
10321.58324384558
 20
10058.17973046627
 30
0.0
 11
10321.58324384558
 21
11546.16090320902
 31
0.0
  0
LINE
  5
1F7F9
330
1E382
100
AcDbEntity
  8
寸法
 62
     0
 48
50.0
370
    -2
100
AcDbLine
 10
8796.583243845578
 20
11471.16090320902
 30
0.0
 11
10321.58324384558
 21
11471.16090320902
 31
0.0
  0
INSERT
  5
1F7FA
330
1E382
100
AcDbEntity
  8
寸法
 62
     0
 48
50.0
370
    -2
100
AcDbBlockReference
  2
_DOTSMALL
 10
8796.583243845578
 20
11471.16090320902
 30
0.0
 41
125.0
 42
125.0
 43
125.0
 50
180.0
  0
INSERT
  5
1F7FB
330
1E382
100
AcDbEntity
  8
寸法
 62
     0
 48
50.0
370
    -2
100
AcDbBlockReference
  2
_DOTSMALL
 10
10321.58324384558
 20
11471.16090320902
 30
0.0
 41
125.0
 42
125.0
 43
125.0
  0
MTEXT
  5
1F7FC
330
1E382
100
AcDbEntity
  8
寸法
 62
     7
 48
50.0
100
AcDbMText
 10
9559.083243845575
 20
11571.17566698855
 30
0.0
 40
150.0
 41
0.0
 71
     5
 72
     1
  1
\A1;1525
  7
STYLE1
 73
     1
 44
1.0
1001
ACAD
1000
MTEXTBEGIN
1070
    73
1070
     1
1070
    44
1040
1.0
1070
    74
1070
     0
1000
MTEXTEND
  0
POINT
  5
1F7FD
330
1E382
100
AcDbEntity
  8
DEFPOINTS
 62
     0
 48
50.0
100
AcDbPoint
 10
8796.583243845578
 20
10688.17973046626
 30
0.0
  0
POINT
  5
1F7FE
330
1E382
100
AcDbEntity
  8
DEFPOINTS
 62
     0
 48
50.0
100
AcDbPoint
 10
10321.58324384558
 20
10033.17973046627
 30
0.0
  0
POINT
  5
1F7FF
330
1E382
100
AcDbEntity
  8
DEFPOINTS
 62
     0
 48
50.0
100
AcDbPoint
 10
10321.58324384558
 20
11471.16090320902
 30
0.0
  0
ENDBLK
  5
1E38D
330
1E382
100
AcDbEntity
  8
0
 48
50.0
100
AcDbBlockEnd
  0
BLOCK
  5
1E398
330
1E38E
100
AcDbEntity
  8
0
 48
50.0
100
AcDbBlockBegin
  2
*D22
 70
     1
 10
0.0
 20
0.0
 30
0.0
  3
*D22
  1

  0
LINE
  5
1F73B
330
1E38E
100
AcDbEntity
  8
寸法
 62
     0
 48
50.0
370
    -2
100
AcDbLine
 10
9412.583243845579
 20
10323.17973046626
 30
0.0
 11
7970.583243845577
 21
10323.17973046626
 31
0.0
  0
LINE
  5
1F73C
330
1E38E
100
AcDbEntity
  8
寸法
 62
     0
 48
50.0
370
    -2
100
AcDbLine
 10
9412.583243845579
 20
9888.179730466269
 30
0.0
 11
7970.583243845577
 21
9888.179730466269
 31
0.0
  0
LINE
  5
1F73D
330
1E38E
100
AcDbEntity
  8
寸法
 62
     0
 48
50.0
370
    -2
100
AcDbLine
 10
8045.583243845577
 20
10323.17973046626
 30
0.0
 11
8045.583243845577
 21
9888.179730466269
 31
0.0
  0
INSERT
  5
1F73E
330
1E38E
100
AcDbEntity
  8
寸法
 62
     0
 48
50.0
370
    -2
100
AcDbBlockReference
  2
_DOTSMALL
 10
8045.583243845577
 20
10323.17973046626
 30
0.0
 41
125.0
 42
125.0
 43
125.0
 50
90.0
  0
INSERT
  5
1F73F
330
1E38E
100
AcDbEntity
  8
寸法
 62
     0
 48
50.0
370
    -2
100
AcDbBlockReference
  2
_DOTSMALL
 10
8045.583243845577
 20
9888.179730466269
 30
0.0
 41
125.0
 42
125.0
 43
125.0
 50
270.0
  0
MTEXT
  5
1F740
330
1E38E
100
AcDbEntity
  8
寸法
 62
     7
 48
50.0
100
AcDbMText
 10
7945.583243845577
 20
10105.67973046627
 30
0.0
 40
150.0
 41
0.0
 71
     5
 72
     1
  1
\A1;435
  7
STYLE1
 11
0.0000000000000001
 21
1.0
 31
0.0
 73
     1
 44
1.0
1001
ACAD
1000
MTEXTBEGIN
1070
    73
1070
     1
1070
    44
1040
1.0
1070
    74
1070
     0
1000
MTEXTEND
  0
POINT
  5
1F741
330
1E38E
100
AcDbEntity
  8
DEFPOINTS
 62
     0
 48
50.0
100
AcDbPoint
 10
9437.583243845578
 20
10323.17973046626
 30
0.0
  0
POINT
  5
1F742
330
1E38E
100
AcDbEntity
  8
DEFPOINTS
 62
     0
 48
50.0
100
AcDbPoint
 10
9437.583243845578
 20
9888.179730466269
 30
0.0
  0
POINT
  5
1F743
330
1E38E
100
AcDbEntity
  8
DEFPOINTS
 62
     0
 48
50.0
100
AcDbPoint
 10
8045.583243845577
 20
9888.179730466269
 30
0.0
  0
ENDBLK
  5
1E399
330
1E38E
100
AcDbEntity
  8
0
 48
50.0
100
AcDbBlockEnd
  0
BLOCK
  5
1E3A4
330
1E39A
100
AcDbEntity
  8
0
 48
50.0
100
AcDbBlockBegin
  2
*D23
 70
     1
 10
0.0
 20
0.0
 30
0.0
  3
*D23
  1

  0
LINE
  5
1F732
330
1E39A
100
AcDbEntity
  8
寸法
 62
     0
 48
50.0
370
    -2
100
AcDbLine
 10
8771.583243845578
 20
10688.17973046626
 30
0.0
 11
7970.583243845577
 21
10688.17973046626
 31
0.0
  0
LINE
  5
1F733
330
1E39A
100
AcDbEntity
  8
寸法
 62
     0
 48
50.0
370
    -2
100
AcDbLine
 10
9412.583243845579
 20
10323.17973046626
 30
0.0
 11
7970.583243845577
 21
10323.17973046626
 31
0.0
  0
LINE
  5
1F734
330
1E39A
100
AcDbEntity
  8
寸法
 62
     0
 48
50.0
370
    -2
100
AcDbLine
 10
8045.583243845577
 20
10688.17973046626
 30
0.0
 11
8045.583243845577
 21
10323.17973046626
 31
0.0
  0
INSERT
  5
1F735
330
1E39A
100
AcDbEntity
  8
寸法
 62
     0
 48
50.0
370
    -2
100
AcDbBlockReference
  2
_DOTSMALL
 10
8045.583243845577
 20
10688.17973046626
 30
0.0
 41
125.0
 42
125.0
 43
125.0
 50
90.0
  0
INSERT
  5
1F736
330
1E39A
100
AcDbEntity
  8
寸法
 62
     0
 48
50.0
370
    -2
100
AcDbBlockReference
  2
_DOTSMALL
 10
8045.583243845577
 20
10323.17973046626
 30
0.0
 41
125.0
 42
125.0
 43
125.0
 50
270.0
  0
MTEXT
  5
1F737
330
1E39A
100
AcDbEntity
  8
寸法
 62
     7
 48
50.0
100
AcDbMText
 10
7945.583243845577
 20
10505.67973046627
 30
0.0
 40
150.0
 41
0.0
 71
     5
 72
     1
  1
\A1;365
  7
STYLE1
 11
0.0000000000000001
 21
1.0
 31
0.0
 73
     1
 44
1.0
1001
ACAD
1000
MTEXTBEGIN
1070
    73
1070
     1
1070
    44
1040
1.0
1070
    74
1070
     0
1000
MTEXTEND
  0
POINT
  5
1F738
330
1E39A
100
AcDbEntity
  8
DEFPOINTS
 62
     0
 48
50.0
100
AcDbPoint
 10
8796.583243845578
 20
10688.17973046626
 30
0.0
  0
POINT
  5
1F739
330
1E39A
100
AcDbEntity
  8
DEFPOINTS
 62
     0
 48
50.0
100
AcDbPoint
 10
9437.583243845578
 20
10323.17973046626
 30
0.0
  0
POINT
  5
1F73A
330
1E39A
100
AcDbEntity
  8
DEFPOINTS
 62
     0
 48
50.0
100
AcDbPoint
 10
8045.583243845577
 20
10323.17973046626
 30
0.0
  0
ENDBLK
  5
1E3A5
330
1E39A
100
AcDbEntity
  8
0
 48
50.0
100
AcDbBlockEnd
  0
BLOCK
  5
1E3B0
330
1E3A6
100
AcDbEntity
  8
0
 48
50.0
100
AcDbBlockBegin
  2
*D24
 70
     1
 10
0.0
 20
0.0
 30
0.0
  3
*D24
  1

  0
LINE
  5
1F767
330
1E3A6
100
AcDbEntity
  8
寸法
 62
     0
 48
50.0
370
    -2
100
AcDbLine
 10
10196.58324384558
 20
10688.17973046626
 30
0.0
 11
10021.01252048234
 21
10688.17973046626
 31
0.0
  0
LINE
  5
1F768
330
1E3A6
100
AcDbEntity
  8
寸法
 62
     0
 48
50.0
370
    -2
100
AcDbLine
 10
10151.58324384558
 20
9888.179730466269
 30
0.0
 11
10021.01252048234
 21
9888.179730466269
 31
0.0
  0
LINE
  5
1F769
330
1E3A6
100
AcDbEntity
  8
寸法
 62
     0
 48
50.0
370
    -2
100
AcDbLine
 10
10096.01252048234
 20
10688.17973046626
 30
0.0
 11
10096.01252048234
 21
9888.179730466269
 31
0.0
  0
INSERT
  5
1F76A
330
1E3A6
100
AcDbEntity
  8
寸法
 62
     0
 48
50.0
370
    -2
100
AcDbBlockReference
  2
_DOTSMALL
 10
10096.01252048234
 20
10688.17973046626
 30
0.0
 41
125.0
 42
125.0
 43
125.0
 50
90.0
  0
INSERT
  5
1F76B
330
1E3A6
100
AcDbEntity
  8
寸法
 62
     0
 48
50.0
370
    -2
100
AcDbBlockReference
  2
_DOTSMALL
 10
10096.01252048234
 20
9888.179730466269
 30
0.0
 41
125.0
 42
125.0
 43
125.0
 50
270.0
  0
MTEXT
  5
1F76C
330
1E3A6
100
AcDbEntity
  8
寸法
 62
     7
 48
50.0
100
AcDbMText
 10
9996.012520482342
 20
10288.17973046627
 30
0.0
 40
150.0
 41
0.0
 71
     5
 72
     1
  1
\A1;800
  7
STYLE1
 11
0.0000000000000001
 21
1.0
 31
0.0
 73
     1
 44
1.0
1001
ACAD
1000
MTEXTBEGIN
1070
    73
1070
     1
1070
    44
1040
1.0
1070
    74
1070
     0
1000
MTEXTEND
  0
POINT
  5
1F76D
330
1E3A6
100
AcDbEntity
  8
DEFPOINTS
 62
     0
 48
50.0
100
AcDbPoint
 10
10221.58324384558
 20
10688.17973046626
 30
0.0
  0
POINT
  5
1F76E
330
1E3A6
100
AcDbEntity
  8
DEFPOINTS
 62
     0
 48
50.0
100
AcDbPoint
 10
10176.58324384558
 20
9888.179730466269
 30
0.0
  0
POINT
  5
1F76F
330
1E3A6
100
AcDbEntity
  8
DEFPOINTS
 62
     0
 48
50.0
100
AcDbPoint
 10
10096.01252048234
 20
9888.179730466269
 30
0.0
  0
ENDBLK
  5
1E3B1
330
1E3A6
100
AcDbEntity
  8
0
 48
50.0
100
AcDbBlockEnd
  0
BLOCK
  5
1E3BD
330
1E3B2
100
AcDbEntity
  8
0
 48
50.0
100
AcDbBlockBegin
  2
*D25
 70
     1
 10
0.0
 20
0.0
 30
0.0
  3
*D25
  1

  0
LINE
  5
1F7C3
330
1E3B2
100
AcDbEntity
  8
寸法
 62
     0
 48
50.0
370
    -2
100
AcDbLine
 10
11871.58324384558
 20
10688.17973046626
 30
0.0
 11
12772.58324384558
 21
10688.17973046626
 31
0.0
  0
LINE
  5
1F7C4
330
1E3B2
100
AcDbEntity
  8
寸法
 62
     0
 48
50.0
370
    -2
100
AcDbLine
 10
12401.65146800964
 20
10778.17973046626
 30
0.0
 11
12772.58324384558
 21
10778.17973046626
 31
0.0
  0
LINE
  5
1F7C5
330
1E3B2
100
AcDbEntity
  8
寸法
 62
     0
 48
50.0
370
    -2
100
AcDbLine
 10
12697.58324384558
 20
10688.17973046626
 30
0.0
 11
12697.58324384558
 21
10778.17973046626
 31
0.0
  0
LINE
  5
1F7C6
330
1E3B2
100
AcDbEntity
  8
寸法
 62
     0
 48
50.0
370
    -2
100
AcDbLine
 10
12697.58324384558
 20
10778.17973046626
 30
0.0
 11
12697.58324384558
 21
11239.58576980418
 31
0.0
  0
INSERT
  5
1F7C7
330
1E3B2
100
AcDbEntity
  8
寸法
 62
     0
 48
50.0
370
    -2
100
AcDbBlockReference
  2
_DOTSMALL
 10
12697.58324384558
 20
10688.17973046626
 30
0.0
 41
125.0
 42
125.0
 43
125.0
 50
270.0
  0
INSERT
  5
1F7C8
330
1E3B2
100
AcDbEntity
  8
寸法
 62
     0
 48
50.0
370
    -2
100
AcDbBlockReference
  2
_DOTSMALL
 10
12697.58324384558
 20
10778.17973046626
 30
0.0
 41
125.0
 42
125.0
 43
125.0
 50
90.0
  0
MTEXT
  5
1F7C9
330
1E3B2
100
AcDbEntity
  8
寸法
 62
     7
 48
50.0
100
AcDbMText
 10
12590.0469919191
 20
11071.88275013522
 30
0.0
 40
150.0
 41
0.0
 71
     5
 72
     1
  1
\A1;(90)
  7
STYLE1
 11
0.0000000000000001
 21
1.0
 31
0.0
 73
     1
 44
1.0
1001
ACAD
1000
MTEXTBEGIN
1070
    73
1070
     1
1070
    44
1040
1.0
1070
    74
1070
     0
1000
MTEXTEND
  0
POINT
  5
1F7CA
330
1E3B2
100
AcDbEntity
  8
DEFPOINTS
 62
     0
 48
50.0
100
AcDbPoint
 10
11846.58324384558
 20
10688.17973046626
 30
0.0
  0
POINT
  5
1F7CB
330
1E3B2
100
AcDbEntity
  8
DEFPOINTS
 62
     0
 48
50.0
100
AcDbPoint
 10
12376.65146800964
 20
10778.17973046626
 30
0.0
  0
POINT
  5
1F7CC
330
1E3B2
100
AcDbEntity
  8
DEFPOINTS
 62
     0
 48
50.0
100
AcDbPoint
 10
12697.58324384558
 20
10778.17973046626
 30
0.0
  0
ENDBLK
  5
1E3BE
330
1E3B2
100
AcDbEntity
  8
0
 48
50.0
100
AcDbBlockEnd
  0
BLOCK
  5
1E3CA
330
1E3BF
100
AcDbEntity
  8
0
 48
50.0
100
AcDbBlockBegin
  2
*D26
 70
     1
 10
0.0
 20
0.0
 30
0.0
  3
*D26
  1

  0
LINE
  5
1F7CD
330
1E3BF
100
AcDbEntity
  8
寸法
 62
     0
 48
50.0
370
    -2
100
AcDbLine
 10
11871.58324384558
 20
10688.17973046626
 30
0.0
 11
12451.65146800965
 21
10688.17973046626
 31
0.0
  0
LINE
  5
1F7CE
330
1E3BF
100
AcDbEntity
  8
寸法
 62
     0
 48
50.0
370
    -2
100
AcDbLine
 10
11951.58324384558
 20
10623.17973046627
 30
0.0
 11
12451.65146800965
 21
10623.17973046626
 31
0.0
  0
LINE
  5
1F7CF
330
1E3BF
100
AcDbEntity
  8
寸法
 62
     0
 48
50.0
370
    -2
100
AcDbLine
 10
12376.65146800965
 20
10623.17973046626
 30
0.0
 11
12376.65146800965
 21
10688.17973046626
 31
0.0
  0
LINE
  5
1F7D0
330
1E3BF
100
AcDbEntity
  8
寸法
 62
     0
 48
50.0
370
    -2
100
AcDbLine
 10
12376.65146800965
 20
10688.17973046626
 30
0.0
 11
12376.65146800965
 21
11043.36931185462
 31
0.0
  0
INSERT
  5
1F7D1
330
1E3BF
100
AcDbEntity
  8
寸法
 62
     0
 48
50.0
370
    -2
100
AcDbBlockReference
  2
_DOTSMALL
 10
12376.65146800965
 20
10623.17973046626
 30
0.0
 41
125.0
 42
125.0
 43
125.0
 50
270.0
  0
INSERT
  5
1F7D2
330
1E3BF
100
AcDbEntity
  8
寸法
 62
     0
 48
50.0
370
    -2
100
AcDbBlockReference
  2
_DOTSMALL
 10
12376.65146800965
 20
10688.17973046626
 30
0.0
 41
125.0
 42
125.0
 43
125.0
 50
90.0
  0
MTEXT
  5
1F7D3
330
1E3BF
100
AcDbEntity
  8
寸法
 62
     7
 48
50.0
100
AcDbMText
 10
12276.65146800964
 20
10928.27452116045
 30
0.0
 40
150.0
 41
0.0
 71
     5
 72
     1
  1
\A1;65
  7
STYLE1
 11
0.0000000000000001
 21
1.0
 31
0.0
 73
     1
 44
1.0
1001
ACAD
1000
MTEXTBEGIN
1070
    73
1070
     1
1070
    44
1040
1.0
1070
    74
1070
     0
1000
MTEXTEND
  0
POINT
  5
1F7D4
330
1E3BF
100
AcDbEntity
  8
DEFPOINTS
 62
     0
 48
50.0
100
AcDbPoint
 10
11846.58324384558
 20
10688.17973046626
 30
0.0
  0
POINT
  5
1F7D5
330
1E3BF
100
AcDbEntity
  8
DEFPOINTS
 62
     0
 48
50.0
100
AcDbPoint
 10
11926.58324384558
 20
10623.17973046627
 30
0.0
  0
POINT
  5
1F7D6
330
1E3BF
100
AcDbEntity
  8
DEFPOINTS
 62
     0
 48
50.0
100
AcDbPoint
 10
12376.65146800965
 20
10623.17973046626
 30
0.0
  0
ENDBLK
  5
1E3CB
330
1E3BF
100
AcDbEntity
  8
0
 48
50.0
100
AcDbBlockEnd
  0
BLOCK
  5
1EA72
330
1EA66
100
AcDbEntity
  8
0
 48
50.0
100
AcDbBlockBegin
  2
*D27
 70
     1
 10
0.0
 20
0.0
 30
0.0
  3
*D27
  1

  0
LINE
  5
1F6F9
330
1EA66
100
AcDbEntity
  8
寸法
 62
     0
 48
50.0
370
    -2
100
AcDbLine
 10
10643.58324384558
 20
8153.179730466268
 30
0.0
 11
11070.64196531964
 21
8153.179730466268
 31
0.0
  0
LINE
  5
1F6FA
330
1EA66
100
AcDbEntity
  8
寸法
 62
     0
 48
50.0
370
    -2
100
AcDbLine
 10
10643.58324384558
 20
8338.179730466265
 30
0.0
 11
11070.64196531964
 21
8338.179730466265
 31
0.0
  0
LINE
  5
1F6FB
330
1EA66
100
AcDbEntity
  8
寸法
 62
     0
 48
50.0
370
    -2
100
AcDbLine
 10
10995.64196531964
 20
8338.179730466265
 30
0.0
 11
10995.64196531964
 21
8153.179730466268
 31
0.0
  0
LINE
  5
1F6FC
330
1EA66
100
AcDbEntity
  8
寸法
 62
     0
 48
50.0
370
    -2
100
AcDbLine
 10
10995.64196531964
 20
8153.179730466268
 30
0.0
 11
10995.64196531964
 21
7731.96652703067
 31
0.0
  0
INSERT
  5
1F6FD
330
1EA66
100
AcDbEntity
  8
寸法
 62
     0
 48
50.0
370
    -2
100
AcDbBlockReference
  2
_DOTSMALL
 10
10995.64196531964
 20
8338.179730466265
 30
0.0
 41
125.0
 42
125.0
 43
125.0
 50
90.0
  0
INSERT
  5
1F6FE
330
1EA66
100
AcDbEntity
  8
寸法
 62
     0
 48
50.0
370
    -2
100
AcDbBlockReference
  2
_DOTSMALL
 10
10995.64196531964
 20
8153.179730466268
 30
0.0
 41
125.0
 42
125.0
 43
125.0
 50
270.0
  0
MTEXT
  5
1F6FF
330
1EA66
100
AcDbEntity
  8
寸法
 62
     7
 48
50.0
100
AcDbMText
 10
10895.64196531963
 20
7880.073128748469
 30
0.0
 40
150.0
 41
0.0
 71
     5
 72
     1
  1
\A1;185
  7
STYLE1
 11
0.0000000000000001
 21
1.0
 31
0.0
 73
     1
 44
1.0
1001
ACAD
1000
MTEXTBEGIN
1070
    73
1070
     1
1070
    44
1040
1.0
1070
    74
1070
     0
1000
MTEXTEND
  0
POINT
  5
1F700
330
1EA66
100
AcDbEntity
  8
DEFPOINTS
 62
     0
 48
50.0
100
AcDbPoint
 10
10618.58324384558
 20
8153.179730466268
 30
0.0
  0
POINT
  5
1F701
330
1EA66
100
AcDbEntity
  8
DEFPOINTS
 62
     0
 48
50.0
100
AcDbPoint
 10
10618.58324384558
 20
8338.179730466265
 30
0.0
  0
POINT
  5
1F702
330
1EA66
100
AcDbEntity
  8
DEFPOINTS
 62
     0
 48
50.0
100
AcDbPoint
 10
10995.64196531964
 20
8338.179730466265
 30
0.0
  0
ENDBLK
  5
1EA73
330
1EA66
100
AcDbEntity
  8
0
 48
50.0
100
AcDbBlockEnd
  0
BLOCK
  5
1F06C
330
1F060
100
AcDbEntity
  8
0
 48
50.0
100
AcDbBlockBegin
  2
*D28
 70
     1
 10
0.0
 20
0.0
 30
0.0
  3
*D28
  1

  0
LINE
  5
1F800
330
1F060
100
AcDbEntity
  8
寸法
 62
     0
 48
50.0
370
    -2
100
AcDbLine
 10
10574.41728400672
 20
10568.17973046627
 30
0.0
 11
11026.98576034072
 21
10568.17973046627
 31
0.0
  0
LINE
  5
1F801
330
1F060
100
AcDbEntity
  8
寸法
 62
     0
 48
50.0
370
    -2
100
AcDbLine
 10
10574.41728400672
 20
10688.17973046626
 30
0.0
 11
11026.98576034072
 21
10688.17973046626
 31
0.0
  0
LINE
  5
1F802
330
1F060
100
AcDbEntity
  8
寸法
 62
     0
 48
50.0
370
    -2
100
AcDbLine
 10
10951.98576034072
 20
10568.17973046627
 30
0.0
 11
10951.98576034072
 21
10688.17973046626
 31
0.0
  0
LINE
  5
1F803
330
1F060
100
AcDbEntity
  8
寸法
 62
     0
 48
50.0
370
    -2
100
AcDbLine
 10
10951.98576034072
 20
10688.17973046626
 30
0.0
 11
10951.98576034072
 21
11150.1199246707
 31
0.0
  0
INSERT
  5
1F804
330
1F060
100
AcDbEntity
  8
寸法
 62
     0
 48
50.0
370
    -2
100
AcDbBlockReference
  2
_DOTSMALL
 10
10951.98576034072
 20
10568.17973046627
 30
0.0
 41
125.0
 42
125.0
 43
125.0
 50
270.0
  0
INSERT
  5
1F805
330
1F060
100
AcDbEntity
  8
寸法
 62
     0
 48
50.0
370
    -2
100
AcDbBlockReference
  2
_DOTSMALL
 10
10951.98576034072
 20
10688.17973046626
 30
0.0
 41
125.0
 42
125.0
 43
125.0
 50
90.0
  0
MTEXT
  5
1F806
330
1F060
100
AcDbEntity
  8
寸法
 62
     7
 48
50.0
100
AcDbMText
 10
10851.97099656119
 20
11005.06086955259
 30
0.0
 40
150.0
 41
0.0
 71
     5
 72
     1
  1
\A1;120
  7
STYLE1
 11
0.0000000000000001
 21
1.0
 31
0.0
 73
     1
 44
1.0
1001
ACAD
1000
MTEXTBEGIN
1070
    73
1070
     1
1070
    44
1040
1.0
1070
    74
1070
     0
1000
MTEXTEND
  0
POINT
  5
1F807
330
1F060
100
AcDbEntity
  8
DEFPOINTS
 62
     0
 48
50.0
100
AcDbPoint
 10
10549.41728400673
 20
10568.17973046627
 30
0.0
  0
POINT
  5
1F808
330
1F060
100
AcDbEntity
  8
DEFPOINTS
 62
     0
 48
50.0
100
AcDbPoint
 10
10549.41728400673
 20
10688.17973046626
 30
0.0
  0
POINT
  5
1F809
330
1F060
100
AcDbEntity
  8
DEFPOINTS
 62
     0
 48
50.0
100
AcDbPoint
 10
10951.98576034072
 20
10688.17973046626
 30
0.0
  0
ENDBLK
  5
1F06D
330
1F060
100
AcDbEntity
  8
0
 48
50.0
100
AcDbBlockEnd
  0
BLOCK
  5
1F099
330
1F08D
100
AcDbEntity
  8
0
 48
50.0
100
AcDbBlockBegin
  2
*D29
 70
     1
 10
0.0
 20
0.0
 30
0.0
  3
*D29
  1

  0
LINE
  5
1F6CA
330
1F08D
100
AcDbEntity
  8
寸法
 62
     0
 48
50.0
370
    -2
100
AcDbLine
 10
11726.58324384557
 20
8971.577675988951
 30
0.0
 11
11726.58324384557
 21
8681.576229372982
 31
0.0
  0
LINE
  5
1F6CB
330
1F08D
100
AcDbEntity
  8
寸法
 62
     0
 48
50.0
370
    -2
100
AcDbLine
 10
11846.58324384558
 20
8971.577675988951
 30
0.0
 11
11846.58324384558
 21
8681.576229372982
 31
0.0
  0
LINE
  5
1F6CC
330
1F08D
100
AcDbEntity
  8
寸法
 62
     0
 48
50.0
370
    -2
100
AcDbLine
 10
11726.58324384557
 20
8756.57622937298
 30
0.0
 11
11846.58324384558
 21
8756.57622937298
 31
0.0
  0
LINE
  5
1F6CD
330
1F08D
100
AcDbEntity
  8
寸法
 62
     0
 48
50.0
370
    -2
100
AcDbLine
 10
11846.58324384558
 20
8756.57622937298
 30
0.0
 11
12261.7013540818
 21
8756.57622937298
 31
0.0
  0
INSERT
  5
1F6CE
330
1F08D
100
AcDbEntity
  8
寸法
 62
     0
 48
50.0
370
    -2
100
AcDbBlockReference
  2
_DOTSMALL
 10
11726.58324384557
 20
8756.57622937298
 30
0.0
 41
125.0
 42
125.0
 43
125.0
 50
180.0
  0
INSERT
  5
1F6CF
330
1F08D
100
AcDbEntity
  8
寸法
 62
     0
 48
50.0
370
    -2
100
AcDbBlockReference
  2
_DOTSMALL
 10
11846.58324384558
 20
8756.57622937298
 30
0.0
 41
125.0
 42
125.0
 43
125.0
  0
MTEXT
  5
1F6D0
330
1F08D
100
AcDbEntity
  8
寸法
 62
     7
 48
50.0
100
AcDbMText
 10
12116.64229896369
 20
8856.59099315251
 30
0.0
 40
150.0
 41
0.0
 71
     5
 72
     1
  1
\A1;120
  7
STYLE1
 73
     1
 44
1.0
1001
ACAD
1000
MTEXTBEGIN
1070
    73
1070
     1
1070
    44
1040
1.0
1070
    74
1070
     0
1000
MTEXTEND
  0
POINT
  5
1F6D1
330
1F08D
100
AcDbEntity
  8
DEFPOINTS
 62
     0
 48
50.0
100
AcDbPoint
 10
11726.58324384557
 20
8996.577675988952
 30
0.0
  0
POINT
  5
1F6D2
330
1F08D
100
AcDbEntity
  8
DEFPOINTS
 62
     0
 48
50.0
100
AcDbPoint
 10
11846.58324384558
 20
8996.577675988952
 30
0.0
  0
POINT
  5
1F6D3
330
1F08D
100
AcDbEntity
  8
DEFPOINTS
 62
     0
 48
50.0
100
AcDbPoint
 10
11846.58324384558
 20
8756.57622937298
 30
0.0
  0
ENDBLK
  5
1F09A
330
1F08D
100
AcDbEntity
  8
0
 48
50.0
100
AcDbBlockEnd
  0
BLOCK
  5
1F63D
330
1F632
100
AcDbEntity
  8
0
 48
50.0
100
AcDbBlockBegin
  2
*D30
 70
     1
 10
0.0
 20
0.0
 30
0.0
  3
*D30
  1

  0
LINE
  5
1F688
330
1F632
100
AcDbEntity
  8
寸法
 62
     0
 48
50.0
370
    -2
100
AcDbLine
 10
9180.942522877465
 20
2873.697284297769
 30
0.0
 11
9180.942522877465
 21
3167.430626195716
 31
0.0
  0
LINE
  5
1F689
330
1F632
100
AcDbEntity
  8
寸法
 62
     0
 48
50.0
370
    -2
100
AcDbLine
 10
9324.442522877466
 20
2934.004976605461
 30
0.0
 11
9324.442522877466
 21
3167.430626195716
 31
0.0
  0
LINE
  5
1F68A
330
1F632
100
AcDbEntity
  8
寸法
 62
     0
 48
50.0
370
    -2
100
AcDbLine
 10
9324.442522877466
 20
3092.430626195716
 30
0.0
 11
9180.942522877465
 21
3092.430626195716
 31
0.0
  0
LINE
  5
1F68B
330
1F632
100
AcDbEntity
  8
寸法
 62
     0
 48
50.0
370
    -2
100
AcDbLine
 10
9180.942522877465
 20
3092.430626195716
 30
0.0
 11
8885.816135285232
 21
3092.430626195716
 31
0.0
  0
INSERT
  5
1F68C
330
1F632
100
AcDbEntity
  8
寸法
 62
     0
 48
50.0
370
    -2
100
AcDbBlockReference
  2
_DOTSMALL
 10
9324.442522877466
 20
3092.430626195716
 30
0.0
 41
125.0
 42
125.0
 43
125.0
  0
INSERT
  5
1F68D
330
1F632
100
AcDbEntity
  8
寸法
 62
     0
 48
50.0
370
    -2
100
AcDbBlockReference
  2
_DOTSMALL
 10
9180.942522877465
 20
3092.430626195716
 30
0.0
 41
125.0
 42
125.0
 43
125.0
 50
180.0
  0
MTEXT
  5
1F68E
330
1F632
100
AcDbEntity
  8
寸法
 62
     7
 48
50.0
100
AcDbMText
 10
8970.879329081348
 20
3167.430626195716
 30
0.0
 40
100.0
 41
0.0
 71
     5
 72
     1
  1
\A1;65
  7
STYLE1
 73
     1
 44
1.0
1001
ACAD
1000
MTEXTBEGIN
1070
    73
1070
     1
1070
    44
1040
1.0
1070
    74
1070
     0
1000
MTEXTEND
  0
POINT
  5
1F68F
330
1F632
100
AcDbEntity
  8
DEFPOINTS
 62
     0
 48
50.0
100
AcDbPoint
 10
9180.942522877465
 20
2848.697284297769
 30
0.0
  0
POINT
  5
1F690
330
1F632
100
AcDbEntity
  8
DEFPOINTS
 62
     0
 48
50.0
100
AcDbPoint
 10
9324.442522877466
 20
2909.004976605461
 30
0.0
  0
POINT
  5
1F691
330
1F632
100
AcDbEntity
  8
DEFPOINTS
 62
     0
 48
50.0
100
AcDbPoint
 10
9324.442522877466
 20
3092.430626195716
 30
0.0
  0
ENDBLK
  5
1F63E
330
1F632
100
AcDbEntity
  8
0
 48
50.0
100
AcDbBlockEnd
  0
BLOCK
  5
1F649
330
1F63F
100
AcDbEntity
  8
0
 48
50.0
100
AcDbBlockBegin
  2
*D31
 70
     1
 10
0.0
 20
0.0
 30
0.0
  3
*D31
  1

  0
LINE
  5
1F692
330
1F63F
100
AcDbEntity
  8
寸法
 62
     0
 48
50.0
370
    -2
100
AcDbLine
 10
9191.711753646696
 20
2979.235745836229
 30
0.0
 11
9191.711753646696
 21
3389.009544247691
 31
0.0
  0
LINE
  5
1F693
330
1F63F
100
AcDbEntity
  8
寸法
 62
     0
 48
50.0
370
    -2
100
AcDbLine
 10
9382.32713826208
 20
2980.312668913153
 30
0.0
 11
9382.32713826208
 21
3389.009544247691
 31
0.0
  0
LINE
  5
1F694
330
1F63F
100
AcDbEntity
  8
寸法
 62
     0
 48
50.0
370
    -2
100
AcDbLine
 10
9191.711753646696
 20
3314.009544247691
 30
0.0
 11
9382.32713826208
 21
3314.009544247691
 31
0.0
  0
INSERT
  5
1F695
330
1F63F
100
AcDbEntity
  8
寸法
 62
     0
 48
50.0
370
    -2
100
AcDbBlockReference
  2
_DOTSMALL
 10
9191.711753646696
 20
3314.009544247691
 30
0.0
 41
125.0
 42
125.0
 43
125.0
 50
180.0
  0
INSERT
  5
1F696
330
1F63F
100
AcDbEntity
  8
寸法
 62
     0
 48
50.0
370
    -2
100
AcDbBlockReference
  2
_DOTSMALL
 10
9382.32713826208
 20
3314.009544247691
 30
0.0
 41
125.0
 42
125.0
 43
125.0
  0
MTEXT
  5
1F697
330
1F63F
100
AcDbEntity
  8
寸法
 62
     7
 48
50.0
100
AcDbMText
 10
9287.01944595439
 20
3389.009544247691
 30
0.0
 40
100.0
 41
0.0
 71
     5
 72
     1
  1
\A1;88.5
  7
STYLE1
 73
     1
 44
1.0
1001
ACAD
1000
MTEXTBEGIN
1070
    73
1070
     1
1070
    44
1040
1.0
1070
    74
1070
     0
1000
MTEXTEND
  0
POINT
  5
1F698
330
1F63F
100
AcDbEntity
  8
DEFPOINTS
 62
     0
 48
50.0
100
AcDbPoint
 10
9191.711753646696
 20
2954.235745836229
 30
0.0
  0
POINT
  5
1F699
330
1F63F
100
AcDbEntity
  8
DEFPOINTS
 62
     0
 48
50.0
100
AcDbPoint
 10
9382.32713826208
 20
2955.312668913153
 30
0.0
  0
POINT
  5
1F69A
330
1F63F
100
AcDbEntity
  8
DEFPOINTS
 62
     0
 48
50.0
100
AcDbPoint
 10
9382.32713826208
 20
3314.009544247691
 30
0.0
  0
ENDBLK
  5
1F64A
330
1F63F
100
AcDbEntity
  8
0
 48
50.0
100
AcDbBlockEnd
  0
BLOCK
  5
1F656
330
1F64B
100
AcDbEntity
  8
0
 48
50.0
100
AcDbBlockBegin
  2
*D32
 70
     1
 10
0.0
 20
0.0
 30
0.0
  3
*D32
  1

  0
LINE
  5
1F69B
330
1F64B
100
AcDbEntity
  8
寸法
 62
     0
 48
50.0
370
    -2
100
AcDbLine
 10
9285.94252287746
 20
2909.004976605461
 30
0.0
 11
8564.557224956795
 21
2909.004976605461
 31
0.0
  0
LINE
  5
1F69C
330
1F64B
100
AcDbEntity
  8
寸法
 62
     0
 48
50.0
370
    -2
100
AcDbLine
 10
9155.942522877465
 20
2848.697284297769
 30
0.0
 11
8564.557224956795
 21
2848.697284297769
 31
0.0
  0
LINE
  5
1F69D
330
1F64B
100
AcDbEntity
  8
寸法
 62
     0
 48
50.0
370
    -2
100
AcDbLine
 10
8639.557224956794
 20
2848.697284297769
 30
0.0
 11
8639.557224956794
 21
2909.004976605461
 31
0.0
  0
LINE
  5
1F69E
330
1F64B
100
AcDbEntity
  8
寸法
 62
     0
 48
50.0
370
    -2
100
AcDbLine
 10
8639.557224956794
 20
2909.004976605461
 30
0.0
 11
8639.557224956794
 21
3322.417050096275
 31
0.0
  0
INSERT
  5
1F69F
330
1F64B
100
AcDbEntity
  8
寸法
 62
     0
 48
50.0
370
    -2
100
AcDbBlockReference
  2
_DOTSMALL
 10
8639.557224956794
 20
2848.697284297769
 30
0.0
 41
125.0
 42
125.0
 43
125.0
 50
270.0
  0
INSERT
  5
1F6A0
330
1F64B
100
AcDbEntity
  8
寸法
 62
     0
 48
50.0
370
    -2
100
AcDbBlockReference
  2
_DOTSMALL
 10
8639.557224956794
 20
2909.004976605461
 30
0.0
 41
125.0
 42
125.0
 43
125.0
 50
90.0
  0
MTEXT
  5
1F6A1
330
1F64B
100
AcDbEntity
  8
寸法
 62
     7
 48
50.0
100
AcDbMText
 10
8564.557224956795
 20
3178.21101335087
 30
0.0
 40
100.0
 41
0.0
 71
     5
 72
     1
  1
\A1;出30
  7
STYLE1
 11
0.0000000000000001
 21
1.0
 31
0.0
 73
     1
 44
1.0
1001
ACAD
1000
MTEXTBEGIN
1070
    73
1070
     1
1070
    44
1040
1.0
1070
    74
1070
     0
1000
MTEXTEND
  0
POINT
  5
1F6A2
330
1F64B
100
AcDbEntity
  8
DEFPOINTS
 62
     0
 48
50.0
100
AcDbPoint
 10
9310.942522877459
 20
2909.004976605461
 30
0.0
  0
POINT
  5
1F6A3
330
1F64B
100
AcDbEntity
  8
DEFPOINTS
 62
     0
 48
50.0
100
AcDbPoint
 10
9180.942522877465
 20
2848.697284297769
 30
0.0
  0
POINT
  5
1F6A4
330
1F64B
100
AcDbEntity
  8
DEFPOINTS
 62
     0
 48
50.0
100
AcDbPoint
 10
8639.557224956794
 20
2848.697284297769
 30
0.0
  0
ENDBLK
  5
1F657
330
1F64B
100
AcDbEntity
  8
0
 48
50.0
100
AcDbBlockEnd
  0
BLOCK
  5
1F662
330
1F658
100
AcDbEntity
  8
0
 48
50.0
100
AcDbBlockBegin
  2
*D33
 70
     1
 10
0.0
 20
0.0
 30
0.0
  3
*D33
  1

  0
LINE
  5
1F6A5
330
1F658
100
AcDbEntity
  8
寸法
 62
     0
 48
50.0
370
    -2
100
AcDbLine
 10
6373.518619353055
 20
2798.16756453298
 30
0.0
 11
6373.518619353055
 21
3248.167564532979
 31
0.0
  0
LINE
  5
1F6A6
330
1F658
100
AcDbEntity
  8
寸法
 62
     0
 48
50.0
370
    -2
100
AcDbLine
 10
6133.518619353055
 20
2798.16756453298
 30
0.0
 11
6133.518619353055
 21
3248.167564532979
 31
0.0
  0
LINE
  5
1F6A7
330
1F658
100
AcDbEntity
  8
寸法
 62
     0
 48
50.0
370
    -2
100
AcDbLine
 10
6373.518619353055
 20
3173.16756453298
 30
0.0
 11
6133.518619353055
 21
3173.16756453298
 31
0.0
  0
INSERT
  5
1F6A8
330
1F658
100
AcDbEntity
  8
寸法
 62
     0
 48
50.0
370
    -2
100
AcDbBlockReference
  2
_DOTSMALL
 10
6373.518619353055
 20
3173.16756453298
 30
0.0
 41
125.0
 42
125.0
 43
125.0
  0
INSERT
  5
1F6A9
330
1F658
100
AcDbEntity
  8
寸法
 62
     0
 48
50.0
370
    -2
100
AcDbBlockReference
  2
_DOTSMALL
 10
6133.518619353055
 20
3173.16756453298
 30
0.0
 41
125.0
 42
125.0
 43
125.0
 50
180.0
  0
MTEXT
  5
1F6AA
330
1F658
100
AcDbEntity
  8
寸法
 62
     7
 48
50.0
100
AcDbMText
 10
6253.518619353055
 20
3331.510740385998
 30
0.0
 40
100.0
 41
0.0
 71
     5
 72
     1
  1
\A1;120\P185
  7
STYLE1
 73
     1
 44
1.0
1001
ACAD
1000
MTEXTBEGIN
1070
    73
1070
     1
1070
    44
1040
1.0
1070
    74
1070
     0
1000
MTEXTEND
  0
POINT
  5
1F6AB
330
1F658
100
AcDbEntity
  8
DEFPOINTS
 62
     0
 48
50.0
100
AcDbPoint
 10
6373.518619353055
 20
2773.16756453298
 30
0.0
  0
POINT
  5
1F6AC
330
1F658
100
AcDbEntity
  8
DEFPOINTS
 62
     0
 48
50.0
100
AcDbPoint
 10
6133.518619353055
 20
2773.16756453298
 30
0.0
  0
POINT
  5
1F6AD
330
1F658
100
AcDbEntity
  8
DEFPOINTS
 62
     0
 48
50.0
100
AcDbPoint
 10
6133.518619353055
 20
3173.16756453298
 30
0.0
  0
ENDBLK
  5
1F663
330
1F658
100
AcDbEntity
  8
0
 48
50.0
100
AcDbBlockEnd
  0
BLOCK
  5
1F66E
330
1F664
100
AcDbEntity
  8
0
 48
50.0
100
AcDbBlockBegin
  2
*D34
 70
     1
 10
0.0
 20
0.0
 30
0.0
  3
*D34
  1

  0
LINE
  5
1F6AE
330
1F664
100
AcDbEntity
  8
寸法
 62
     0
 48
50.0
370
    -2
100
AcDbLine
 10
5953.518619353055
 20
1508.167564532979
 30
0.0
 11
5953.518619353055
 21
1159.215458077045
 31
0.0
  0
LINE
  5
1F6AF
330
1F664
100
AcDbEntity
  8
寸法
 62
     0
 48
50.0
370
    -2
100
AcDbLine
 10
6553.518619353055
 20
1508.167564532979
 30
0.0
 11
6553.518619353055
 21
1159.215458077045
 31
0.0
  0
LINE
  5
1F6B0
330
1F664
100
AcDbEntity
  8
寸法
 62
     0
 48
50.0
370
    -2
100
AcDbLine
 10
5953.518619353055
 20
1234.215458077045
 30
0.0
 11
6553.518619353055
 21
1234.215458077045
 31
0.0
  0
INSERT
  5
1F6B1
330
1F664
100
AcDbEntity
  8
寸法
 62
     0
 48
50.0
370
    -2
100
AcDbBlockReference
  2
_DOTSMALL
 10
5953.518619353055
 20
1234.215458077045
 30
0.0
 41
125.0
 42
125.0
 43
125.0
 50
180.0
  0
INSERT
  5
1F6B2
330
1F664
100
AcDbEntity
  8
寸法
 62
     0
 48
50.0
370
    -2
100
AcDbBlockReference
  2
_DOTSMALL
 10
6553.518619353055
 20
1234.215458077045
 30
0.0
 41
125.0
 42
125.0
 43
125.0
  0
MTEXT
  5
1F6B3
330
1F664
100
AcDbEntity
  8
寸法
 62
     7
 48
50.0
100
AcDbMText
 10
6253.518619353055
 20
1309.215458077045
 30
0.0
 40
100.0
 41
0.0
 71
     5
 72
     1
  1
\A1;300
  7
STYLE1
 73
     1
 44
1.0
1001
ACAD
1000
MTEXTBEGIN
1070
    73
1070
     1
1070
    44
1040
1.0
1070
    74
1070
     0
1000
MTEXTEND
  0
POINT
  5
1F6B4
330
1F664
100
AcDbEntity
  8
DEFPOINTS
 62
     0
 48
50.0
100
AcDbPoint
 10
5953.518619353055
 20
1533.16756453298
 30
0.0
  0
POINT
  5
1F6B5
330
1F664
100
AcDbEntity
  8
DEFPOINTS
 62
     0
 48
50.0
100
AcDbPoint
 10
6553.518619353055
 20
1533.16756453298
 30
0.0
  0
POINT
  5
1F6B6
330
1F664
100
AcDbEntity
  8
DEFPOINTS
 62
     0
 48
50.0
100
AcDbPoint
 10
6553.518619353055
 20
1234.215458077045
 30
0.0
  0
ENDBLK
  5
1F66F
330
1F664
100
AcDbEntity
  8
0
 48
50.0
100
AcDbBlockEnd
  0
BLOCK
  5
1F67A
330
1F670
100
AcDbEntity
  8
0
 48
50.0
100
AcDbBlockBegin
  2
*D35
 70
     1
 10
0.0
 20
0.0
 30
0.0
  3
*D35
  1

  0
LINE
  5
1F6B7
330
1F670
100
AcDbEntity
  8
寸法
 62
     0
 48
50.0
370
    -2
100
AcDbLine
 10
5948.518619353055
 20
1993.16756453298
 30
0.0
 11
5435.248275021447
 21
1993.16756453298
 31
0.0
  0
LINE
  5
1F6B8
330
1F670
100
AcDbEntity
  8
寸法
 62
     0
 48
50.0
370
    -2
100
AcDbLine
 10
5848.518619353057
 20
1693.16756453298
 30
0.0
 11
5435.248275021447
 21
1693.16756453298
 31
0.0
  0
LINE
  5
1F6B9
330
1F670
100
AcDbEntity
  8
寸法
 62
     0
 48
50.0
370
    -2
100
AcDbLine
 10
5510.248275021447
 20
1993.16756453298
 30
0.0
 11
5510.248275021447
 21
1693.16756453298
 31
0.0
  0
INSERT
  5
1F6BA
330
1F670
100
AcDbEntity
  8
寸法
 62
     0
 48
50.0
370
    -2
100
AcDbBlockReference
  2
_DOTSMALL
 10
5510.248275021447
 20
1993.16756453298
 30
0.0
 41
125.0
 42
125.0
 43
125.0
 50
90.0
  0
INSERT
  5
1F6BB
330
1F670
100
AcDbEntity
  8
寸法
 62
     0
 48
50.0
370
    -2
100
AcDbBlockReference
  2
_DOTSMALL
 10
5510.248275021447
 20
1693.16756453298
 30
0.0
 41
125.0
 42
125.0
 43
125.0
 50
270.0
  0
MTEXT
  5
1F6BC
330
1F670
100
AcDbEntity
  8
寸法
 62
     7
 48
50.0
100
AcDbMText
 10
5435.248275021447
 20
1867.494158925123
 30
0.0
 40
100.0
 41
0.0
 71
     5
 72
     1
  1
\A1;150
  7
STYLE1
 11
0.0000000000000001
 21
1.0
 31
0.0
 73
     1
 44
1.0
1001
ACAD
1000
MTEXTBEGIN
1070
    73
1070
     1
1070
    44
1040
1.0
1070
    74
1070
     0
1000
MTEXTEND
  0
POINT
  5
1F6BD
330
1F670
100
AcDbEntity
  8
DEFPOINTS
 62
     0
 48
50.0
100
AcDbPoint
 10
5973.518619353055
 20
1993.16756453298
 30
0.0
  0
POINT
  5
1F6BE
330
1F670
100
AcDbEntity
  8
DEFPOINTS
 62
     0
 48
50.0
100
AcDbPoint
 10
5873.518619353055
 20
1693.16756453298
 30
0.0
  0
POINT
  5
1F6BF
330
1F670
100
AcDbEntity
  8
DEFPOINTS
 62
     0
 48
50.0
100
AcDbPoint
 10
5510.248275021447
 20
1693.16756453298
 30
0.0
  0
ENDBLK
  5
1F67B
330
1F670
100
AcDbEntity
  8
0
 48
50.0
100
AcDbBlockEnd
  0
BLOCK
  5
1F686
330
1F67C
100
AcDbEntity
  8
0
 48
50.0
100
AcDbBlockBegin
  2
*D36
 70
     1
 10
0.0
 20
0.0
 30
0.0
  3
*D36
  1

  0
LINE
  5
1F6C0
330
1F67C
100
AcDbEntity
  8
寸法
 62
     0
 48
50.0
370
    -2
100
AcDbLine
 10
6108.518619353056
 20
2773.16756453298
 30
0.0
 11
5204.0492515539
 21
2773.16756453298
 31
0.0
  0
LINE
  5
1F6C1
330
1F67C
100
AcDbEntity
  8
寸法
 62
     0
 48
50.0
370
    -2
100
AcDbLine
 10
5848.518619353057
 20
1693.16756453298
 30
0.0
 11
5204.0492515539
 21
1693.16756453298
 31
0.0
  0
LINE
  5
1F6C2
330
1F67C
100
AcDbEntity
  8
寸法
 62
     0
 48
50.0
370
    -2
100
AcDbLine
 10
5279.0492515539
 20
2773.16756453298
 30
0.0
 11
5279.0492515539
 21
1693.16756453298
 31
0.0
  0
INSERT
  5
1F6C3
330
1F67C
100
AcDbEntity
  8
寸法
 62
     0
 48
50.0
370
    -2
100
AcDbBlockReference
  2
_DOTSMALL
 10
5279.0492515539
 20
2773.16756453298
 30
0.0
 41
125.0
 42
125.0
 43
125.0
 50
90.0
  0
INSERT
  5
1F6C4
330
1F67C
100
AcDbEntity
  8
寸法
 62
     0
 48
50.0
370
    -2
100
AcDbBlockReference
  2
_DOTSMALL
 10
5279.0492515539
 20
1693.16756453298
 30
0.0
 41
125.0
 42
125.0
 43
125.0
 50
270.0
  0
MTEXT
  5
1F6C5
330
1F67C
100
AcDbEntity
  8
寸法
 62
     7
 48
50.0
100
AcDbMText
 10
5204.0492515539
 20
2269.96250113069
 30
0.0
 40
100.0
 41
0.0
 71
     5
 72
     1
  1
\A1;540
  7
STYLE1
 11
0.0000000000000001
 21
1.0
 31
0.0
 73
     1
 44
1.0
1001
ACAD
1000
MTEXTBEGIN
1070
    73
1070
     1
1070
    44
1040
1.0
1070
    74
1070
     0
1000
MTEXTEND
  0
POINT
  5
1F6C6
330
1F67C
100
AcDbEntity
  8
DEFPOINTS
 62
     0
 48
50.0
100
AcDbPoint
 10
6133.518619353055
 20
2773.16756453298
 30
0.0
  0
POINT
  5
1F6C7
330
1F67C
100
AcDbEntity
  8
DEFPOINTS
 62
     0
 48
50.0
100
AcDbPoint
 10
5873.518619353055
 20
1693.16756453298
 30
0.0
  0
POINT
  5
1F6C8
330
1F67C
100
AcDbEntity
  8
DEFPOINTS
 62
     0
 48
50.0
100
AcDbPoint
 10
5279.0492515539
 20
1693.16756453298
 30
0.0
  0
ENDBLK
  5
1F687
330
1F67C
100
AcDbEntity
  8
0
 48
50.0
100
AcDbBlockEnd
  0
ENDSEC
  0
SECTION
  2
ENTITIES
  0
LINE
  5
10B56
330
747D
100
AcDbEntity
  8
補助
  6
PHANTOM
 62
   230
 48
50.0
100
AcDbLine
 10
175.0
 20
0.0
 30
0.0
 11
174.9999999999993
 21
14262.0
 31
0.0
  0
LINE
  5
10B57
330
747D
100
AcDbEntity
  8
補助
  6
PHANTOM
 62
   230
 48
50.0
100
AcDbLine
 10
174.9999999999993
 20
14262.0
 30
0.0
 11
20384.0
 21
14262.0
 31
0.0
  0
LINE
  5
10B5D
330
747D
100
AcDbEntity
  8
仕様書枠
 48
50.0
100
AcDbLine
 10
175.0
 20
0.0
 30
0.0
 11
20384.0
 21
-0.0000000000001137
 31
0.0
  0
LINE
  5
10B5E
330
747D
100
AcDbEntity
  8
補助
  6
PHANTOM
 62
   230
 48
50.0
100
AcDbLine
 10
20384.0
 20
14262.0
 30
0.0
 11
20384.0
 21
1500.0
 31
0.0
  0
TEXT
  5
1D3C5
330
747D
100
AcDbEntity
  8
文字
 62
     7
 48
50.0
100
AcDbText
 10
16501.79587498052
 20
596.5925826289076
 30
0.0
 40
200.0
  1
機種名
  7
STYLE2
100
AcDbText
  0
TEXT
  5
1D3C6
330
747D
100
AcDbEntity
  8
文字
 62
     7
 48
50.0
100
AcDbText
 10
16511.75668531126
 20
270.5931184260625
 30
0.0
 40
100.0
  1
※寒冷地等は、地域の実情に合わせた基礎にしてください。
  7
STYLE2
100
AcDbText
  0
TEXT
  5
1D3C7
330
747D
100
AcDbEntity
  8
文字
 62
     7
 48
50.0
100
AcDbText
 10
16511.75668531126
 20
99.75789086487921
 30
0.0
 40
100.0
  1
※布基礎には換気口を設けてください。
  7
STYLE2
100
AcDbText
  0
LINE
  5
1D3C8
330
747D
100
AcDbEntity
  8
仕様書枠
 48
50.0
100
AcDbLine
 10
16384.0
 20
1000.0
 30
0.0
 11
17814.0
 21
1000.0
 31
0.0
  0
TEXT
  5
1D3C9
330
747D
100
AcDbEntity
  8
仕様書枠
 62
     7
 48
50.0
100
AcDbText
 10
16453.72382072112
 20
1118.863259287425
 30
0.0
 40
250.0
  1
基 礎 図
  7
STYLE2
100
AcDbText
  0
LINE
  5
1D3CA
330
747D
100
AcDbEntity
  8
仕様書枠
 62
     7
 48
50.0
100
AcDbLine
 10
16484.0
 20
500.0
 30
0.0
 11
20284.0
 21
500.0
 31
0.0
  0
LINE
  5
1D3CB
330
747D
100
AcDbEntity
  8
仕様書枠
 48
50.0
100
AcDbLine
 10
16384.0
 20
1500.0
 30
0.0
 11
20384.0
 21
1500.0
 31
0.0
  0
LINE
  5
1D3CC
330
747D
100
AcDbEntity
  8
仕様書枠
  6
Continuous
 48
50.0
100
AcDbLine
 10
16384.0
 20
1500.0
 30
0.0
 11
16384.0
 21
-0.0000000000001137
 31
0.0
  0
TEXT
  5
1D3CD
330
747D
100
AcDbEntity
  8
文字
 62
     7
 48
50.0
100
AcDbText
 10
19121.91349250214
 20
1289.447132864036
 30
0.0
 40
125.0
  1
 <縮尺> S=1/50
  7
STYLE2
100
AcDbText
  0
TEXT
  5
1D3CF
330
747D
100
AcDbEntity
  8
仕様書枠
 62
     7
 48
50.0
100
AcDbText
 10
17897.89944648804
 20
604.8708912389265
 30
0.0
 40
200.0
  1
ＳＭＫ－７５Ｓ・Ｈ
  7
STYLE2
100
AcDbText
  0
LINE
  5
1D3D0
330
747D
100
AcDbEntity
  8
仕様書枠
  6
Continuous
 48
50.0
100
AcDbLine
 10
17814.0
 20
1500.0
 30
0.0
 11
17814.0
 21
1000.0
 31
0.0
  0
LINE
  5
1D3D1
330
747D
100
AcDbEntity
  8
仕様書枠
 48
50.0
100
AcDbLine
 10
20384.0
 20
1500.0
 30
0.0
 11
20384.0
 21
-0.0000000000001137
 31
0.0
  0
DIMENSION
  5
1DFB2
330
747D
100
AcDbEntity
  8
寸法
 48
50.0
100
AcDbDimension
  2
*D1
 10
8045.583243845577
 20
9453.179730466269
 30
0.0
 11
7945.583243845577
 21
9670.679730466268
 31
0.0
 70
    32
 71
     5
 42
435.0
  3
INABA_S50G
100
AcDbAlignedDimension
 13
9437.583243845578
 23
9888.179730466269
 33
0.0
 14
9437.583243845578
 24
9453.179730466269
 34
0.0
 50
90.0
100
AcDbRotatedDimension
  0
LINE
  5
1DFB3
330
747D
100
AcDbEntity
  8
部品1
 48
50.0
100
AcDbLine
 10
8916.583243845582
 20
10568.17973046627
 30
0.0
 11
8916.583243845577
 21
8338.179730466265
 31
0.0
  0
LINE
  5
1DFB4
330
747D
100
AcDbEntity
  8
想像線
 48
20.0
100
AcDbLine
 10
8746.583243845577
 20
10778.17973046626
 30
0.0
 11
8746.583243845577
 21
8088.179730466267
 31
0.0
  0
LINE
  5
1DFB5
330
747D
100
AcDbEntity
  8
部品1
 48
50.0
100
AcDbLine
 10
8796.583243845578
 20
10688.17973046626
 30
0.0
 11
8796.583243845578
 21
8153.179730466268
 31
0.0
  0
DIMENSION
  5
1DFB6
330
747D
100
AcDbEntity
  8
寸法
 48
50.0
100
AcDbDimension
  2
*D2
 10
12369.58613084783
 20
10058.92576385606
 30
0.0
 11
10707.33435114029
 21
8677.34928465652
 31
0.0
 70
   161
 71
     5
 42
3965.945662764431
  3
INABA_S50G
100
AcDbAlignedDimension
 13
8796.583243845578
 23
8153.179730466268
 33
0.0
 14
11846.58324384558
 24
10688.17973046626
 34
0.0
  0
DIMENSION
  5
1DFB7
330
747D
100
AcDbEntity
  8
寸法
 48
50.0
100
AcDbDimension
  2
*D3
 10
12376.65146800964
 20
8283.179730466265
 30
0.0
 11
12276.63670423011
 21
9453.179730466269
 31
0.0
 70
    32
 71
     5
 42
2340.0
  3
INABA_S50G
100
AcDbAlignedDimension
 13
11926.58324384558
 23
10623.17973046627
 33
0.0
 14
11926.58324384558
 24
8283.179730466267
 34
0.0
 50
90.0
100
AcDbRotatedDimension
1001
ACAD
1000
DSTYLE
1002
{
1070
    75
1070
     1
1070
   279
1070
     1
1002
}
  0
DIMENSION
  5
1DFB8
330
747D
100
AcDbEntity
  8
寸法
 48
50.0
100
AcDbDimension
  2
*D4
 10
12697.58324384558
 20
10688.17973046626
 30
0.0
 11
12597.56848006605
 21
9453.179730466269
 31
0.0
 70
    32
 71
     5
 42
2470.0
  3
INABA_S50G
100
AcDbAlignedDimension
 13
11846.58324384558
 23
8218.179730466266
 33
0.0
 14
11846.58324384558
 24
10688.17973046626
 34
0.0
 50
90.0
100
AcDbRotatedDimension
  0
LINE
  5
1DFB9
330
747D
100
AcDbEntity
  8
部品1
 48
50.0
100
AcDbLine
 10
11726.58324384557
 20
8338.179730466263
 30
0.0
 11
11726.58324384558
 21
10568.17973046627
 31
0.0
  0
LINE
  5
1DFBA
330
747D
100
AcDbEntity
  8
想像線
 48
20.0
100
AcDbLine
 10
11896.58324384558
 20
8088.179730466267
 30
0.0
 11
11896.58324384558
 21
10778.17973046626
 31
0.0
  0
LINE
  5
1DFBB
330
747D
100
AcDbEntity
  8
部品1
 48
50.0
100
AcDbLine
 10
11846.58324384558
 20
8218.179730466264
 30
0.0
 11
11846.58324384558
 21
10688.17973046626
 31
0.0
  0
DIMENSION
  5
1DFBC
330
747D
100
AcDbEntity
  8
寸法
 48
50.0
100
AcDbDimension
  2
*D5
 10
10096.01252048234
 20
9018.179730466265
 30
0.0
 11
9996.012520482342
 21
9453.179730466269
 31
0.0
 70
    32
 71
     5
 42
870.0
  3
INABA_S50G
100
AcDbAlignedDimension
 13
10176.58324384557
 23
9888.179730466269
 33
0.0
 14
10176.58324384558
 24
9018.179730466265
 34
0.0
 50
90.0
100
AcDbRotatedDimension
  0
LINE
  5
1DFBD
330
747D
100
AcDbEntity
  8
センター
 48
5.0
100
AcDbLine
 10
10321.58324384558
 20
10033.17973046627
 30
0.0
 11
10321.58324384558
 21
9743.179730466266
 31
0.0
  0
LINE
  5
1DFBE
330
747D
100
AcDbEntity
  8
部品1
 48
50.0
100
AcDbLine
 10
9482.583243845578
 20
10088.17973046626
 30
0.0
 11
9482.583243845578
 21
9688.179730466266
 31
0.0
  0
LINE
  5
1DFBF
330
747D
100
AcDbEntity
  8
センター
 48
5.0
100
AcDbLine
 10
9582.583243845581
 20
9743.179730466266
 30
0.0
 11
9582.583243845581
 21
10033.17973046627
 31
0.0
  0
LINE
  5
1DFC0
330
747D
100
AcDbEntity
  8
部品1
 48
50.0
100
AcDbLine
 10
9682.583243845581
 20
9688.179730466266
 30
0.0
 11
9682.583243845581
 21
10088.17973046626
 31
0.0
  0
LINE
  5
1DFC1
330
747D
100
AcDbEntity
  8
部品1
 48
50.0
100
AcDbLine
 10
10960.58324384557
 20
9688.179730466266
 30
0.0
 11
10960.58324384557
 21
10088.17973046626
 31
0.0
  0
LINE
  5
1DFC2
330
747D
100
AcDbEntity
  8
センター
 48
5.0
100
AcDbLine
 10
11060.58324384557
 20
9743.179730466266
 30
0.0
 11
11060.58324384557
 21
10033.17973046627
 31
0.0
  0
LINE
  5
1DFC3
330
747D
100
AcDbEntity
  8
部品1
 48
50.0
100
AcDbLine
 10
11160.58324384557
 20
10088.17973046626
 30
0.0
 11
11160.58324384557
 21
9688.179730466266
 31
0.0
  0
DIMENSION
  5
1DFC5
330
747D
100
AcDbEntity
  8
寸法
 48
50.0
100
AcDbDimension
  2
*D6
 10
11846.58324384558
 20
6747.753884220258
 30
0.0
 11
10321.58324384558
 21
6847.753884220257
 31
0.0
 70
    32
 71
     5
 42
3050.0
  3
INABA_S50G
100
AcDbAlignedDimension
 13
8796.583243845578
 23
8153.179730466268
 33
0.0
 14
11846.58324384558
 24
8218.179730466264
 34
0.0
100
AcDbRotatedDimension
  0
DIMENSION
  5
1DFC6
330
747D
100
AcDbEntity
  8
寸法
 48
50.0
100
AcDbDimension
  2
*D7
 10
11781.58324384558
 20
7028.593049723061
 30
0.0
 11
10321.58324384558
 21
7128.644065429064
 31
0.0
 70
    32
 71
     5
 42
2920.0
  3
INABA_S50G
100
AcDbAlignedDimension
 13
8861.583243845577
 23
8138.179730466267
 33
0.0
 14
11781.58324384558
 24
8138.179730466267
 34
0.0
100
AcDbRotatedDimension
1001
ACAD
1000
DSTYLE
1002
{
1070
    75
1070
     1
1070
   279
1070
     1
1002
}
  0
LINE
  5
1DFC7
330
747D
100
AcDbEntity
  8
想像線
 48
20.0
100
AcDbLine
 10
8746.583243845577
 20
8088.179730466267
 30
0.0
 11
11896.58324384558
 21
8088.179730466267
 31
0.0
  0
LINE
  5
1DFC8
330
747D
100
AcDbEntity
  8
部品1
 48
50.0
100
AcDbLine
 10
8916.583243845577
 20
8338.179730466265
 30
0.0
 11
11726.58324384558
 21
8338.179730466263
 31
0.0
  0
LINE
  5
1DFC9
330
747D
100
AcDbEntity
  8
部品1
 48
50.0
100
AcDbLine
 10
11160.58324384557
 20
8483.179730466266
 30
0.0
 11
10960.58324384557
 21
8483.179730466266
 31
0.0
  0
LINE
  5
1DFCA
330
747D
100
AcDbEntity
  8
部品1
 48
50.0
100
AcDbLine
 10
10960.58324384557
 20
8683.179730466267
 30
0.0
 11
11160.58324384557
 21
8683.179730466267
 31
0.0
  0
LINE
  5
1DFCB
330
747D
100
AcDbEntity
  8
センター
 48
5.0
100
AcDbLine
 10
10915.58324384557
 20
8583.179730466268
 30
0.0
 11
11205.58324384557
 21
8583.179730466268
 31
0.0
  0
LINE
  5
1DFCC
330
747D
100
AcDbEntity
  8
部品1
 48
50.0
100
AcDbLine
 10
11160.58324384557
 20
9688.179730466266
 30
0.0
 11
10960.58324384557
 21
9688.179730466266
 31
0.0
  0
LINE
  5
1DFCD
330
747D
100
AcDbEntity
  8
部品1
 48
50.0
100
AcDbLine
 10
11160.58324384557
 20
9553.179730466268
 30
0.0
 11
10960.58324384557
 21
9553.179730466268
 31
0.0
  0
LINE
  5
1DFCE
330
747D
100
AcDbEntity
  8
部品1
 48
50.0
100
AcDbLine
 10
10960.58324384557
 20
9353.179730466269
 30
0.0
 11
11160.58324384557
 21
9353.179730466269
 31
0.0
  0
LINE
  5
1DFCF
330
747D
100
AcDbEntity
  8
部品1
 48
50.0
100
AcDbLine
 10
11160.58324384557
 20
9218.179730466266
 30
0.0
 11
10960.58324384557
 21
9218.179730466266
 31
0.0
  0
LINE
  5
1DFD0
330
747D
100
AcDbEntity
  8
部品1
 48
50.0
100
AcDbLine
 10
10960.58324384557
 20
8818.179730466267
 30
0.0
 11
11160.58324384557
 21
8818.179730466267
 31
0.0
  0
LINE
  5
1DFD1
330
747D
100
AcDbEntity
  8
センター
 48
5.0
100
AcDbLine
 10
11205.58324384557
 20
9018.179730466265
 30
0.0
 11
10915.58324384557
 21
9018.179730466265
 31
0.0
  0
LINE
  5
1DFD2
330
747D
100
AcDbEntity
  8
センター
 48
5.0
100
AcDbLine
 10
10915.58324384557
 20
9453.179730466269
 30
0.0
 11
11205.58324384557
 21
9453.179730466269
 31
0.0
  0
DIMENSION
  5
1DFD3
330
747D
100
AcDbEntity
  8
寸法
 48
50.0
100
AcDbDimension
  2
*D8
 10
8796.583243845578
 20
6747.753884220258
 30
0.0
 11
8329.142298963688
 21
6747.753884220258
 31
0.0
 70
   160
  1
(<>)
 71
     5
 42
50.0
  3
INABA_S50G
100
AcDbAlignedDimension
 13
8746.583243845577
 23
7028.593049723061
 33
0.0
 14
8796.583243845578
 24
8153.179730466268
 34
0.0
100
AcDbRotatedDimension
  0
DIMENSION
  5
1DFD4
330
747D
100
AcDbEntity
  8
寸法
 48
50.0
100
AcDbDimension
  2
*D9
 10
8861.583243845577
 20
7028.593049723061
 30
0.0
 11
8556.488453151402
 21
7028.593049723061
 31
0.0
 70
   160
 71
     5
 42
65.0
  3
INABA_S50G
100
AcDbAlignedDimension
 13
8796.583243845578
 23
8153.179730466268
 33
0.0
 14
8861.583243845577
 24
8138.179730466267
 34
0.0
100
AcDbRotatedDimension
  0
DIMENSION
  5
1DFD5
330
747D
100
AcDbEntity
  8
寸法
 48
50.0
100
AcDbDimension
  2
*D10
 10
10618.58324384558
 20
7365.616618730304
 30
0.0
 11
9707.583243845581
 21
7465.631382509831
 31
0.0
 70
    32
 71
     5
 42
1822.000000000002
  3
INABA_S50G
100
AcDbAlignedDimension
 13
8796.583243845578
 23
8153.179730466268
 33
0.0
 14
10618.58324384558
 24
8153.179730466268
 34
0.0
100
AcDbRotatedDimension
1001
ACAD
1000
DSTYLE
1002
{
1070
   341
1005
0
1002
}
  0
LINE
  5
1DFD6
330
747D
100
AcDbEntity
  8
部品1
 48
50.0
100
AcDbLine
 10
8796.583243845578
 20
8153.179730466268
 30
0.0
 11
10618.58324384558
 21
8153.179730466268
 31
0.0
  0
LINE
  5
1DFD7
330
747D
100
AcDbEntity
  8
想像線
 48
4.0
100
AcDbLine
 10
8796.583243845578
 20
8218.179730466266
 30
0.0
 11
10618.58324384558
 21
8218.179730466266
 31
0.0
  0
DIMENSION
  5
1DFD8
330
747D
100
AcDbEntity
  8
寸法
 48
50.0
100
AcDbDimension
  2
*D11
 10
8045.583243845577
 20
8218.179730466266
 30
0.0
 11
7945.583243845577
 21
8400.679730466269
 31
0.0
 70
    32
 71
     5
 42
365.0
  3
INABA_S50G
100
AcDbAlignedDimension
 13
9582.583243845581
 23
8583.179730466268
 33
0.0
 14
8796.583243845578
 24
8218.179730466266
 34
0.0
 50
90.0
100
AcDbRotatedDimension
1001
ACAD
1000
DSTYLE
1002
{
1070
    75
1070
     1
1070
   279
1070
     1
1002
}
  0
LINE
  5
1DFD9
330
747D
100
AcDbEntity
  8
センター
 48
5.0
100
AcDbLine
 10
9727.583243845581
 20
8583.179730466268
 30
0.0
 11
9437.583243845578
 21
8583.179730466268
 31
0.0
  0
LINE
  5
1DFDA
330
747D
100
AcDbEntity
  8
センター
 48
5.0
100
AcDbLine
 10
9727.583243845581
 20
9453.179730466269
 30
0.0
 11
9437.583243845578
 21
9453.179730466269
 31
0.0
  0
LINE
  5
1DFDB
330
747D
100
AcDbEntity
  8
センター
 48
5.0
100
AcDbLine
 10
9437.583243845578
 20
9018.179730466265
 30
0.0
 11
9727.583243845581
 21
9018.179730466265
 31
0.0
  0
DIMENSION
  5
1DFDC
330
747D
100
AcDbEntity
  8
寸法
 48
50.0
100
AcDbDimension
  2
*D12
 10
8041.583243845577
 20
8153.179730466268
 30
0.0
 11
8041.583243845577
 21
7636.323128748469
 31
0.0
 70
   160
  1
扉の出<>
 71
     5
 42
65.0
  3
INABA_S50G
100
AcDbAlignedDimension
 13
8796.583243845578
 23
8218.179730466266
 33
0.0
 14
8796.583243845578
 24
8153.179730466268
 34
0.0
 50
90.0
100
AcDbRotatedDimension
  0
LINE
  5
1DFDD
330
747D
100
AcDbEntity
  8
センター
 48
5.0
100
AcDbLine
 10
8861.583243845577
 20
8138.179730466267
 30
0.0
 11
8861.583243845577
 21
8428.179730466267
 31
0.0
  0
LINE
  5
1DFDE
330
747D
100
AcDbEntity
  8
寸法
 48
50.0
100
AcDbLine
 10
8804.208243845575
 20
8160.429730466253
 30
0.0
 11
8804.208243845575
 21
8160.429730466253
 31
0.0
  0
LINE
  5
1DFDF
330
747D
100
AcDbEntity
  8
寸法
 48
50.0
100
AcDbLine
 10
8812.145743845574
 20
8176.304730466252
 30
0.0
 11
8812.145743845574
 21
8176.304730466252
 31
0.0
  0
LINE
  5
1DFE0
330
747D
100
AcDbEntity
  8
寸法
 48
50.0
100
AcDbLine
 10
8820.083243845575
 20
8160.429730466253
 30
0.0
 11
8820.083243845575
 21
8160.429730466253
 31
0.0
  0
LINE
  5
1DFE1
330
747D
100
AcDbEntity
  8
寸法
 48
50.0
100
AcDbLine
 10
9002.645743845574
 20
8176.304730466252
 30
0.0
 11
9002.645743845574
 21
8176.304730466252
 31
0.0
  0
LINE
  5
1DFE2
330
747D
100
AcDbEntity
  8
寸法
 48
50.0
100
AcDbLine
 10
9010.583243845577
 20
8160.429730466253
 30
0.0
 11
9010.583243845577
 21
8160.429730466253
 31
0.0
  0
LINE
  5
1DFE3
330
747D
100
AcDbEntity
  8
寸法
 48
50.0
100
AcDbLine
 10
9018.520743845575
 20
8176.304730466252
 30
0.0
 11
9018.520743845575
 21
8176.304730466252
 31
0.0
  0
LINE
  5
1DFE4
330
747D
100
AcDbEntity
  8
寸法
 48
50.0
100
AcDbLine
 10
9026.458243845574
 20
8160.429730466253
 30
0.0
 11
9026.458243845574
 21
8160.429730466253
 31
0.0
  0
LINE
  5
1DFE5
330
747D
100
AcDbEntity
  8
寸法
 48
50.0
100
AcDbLine
 10
8883.583243845576
 20
8160.429730466253
 30
0.0
 11
8883.583243845576
 21
8160.429730466253
 31
0.0
  0
LINE
  5
1DFE6
330
747D
100
AcDbEntity
  8
寸法
 48
50.0
100
AcDbLine
 10
8899.458243845575
 20
8160.429730466253
 30
0.0
 11
8899.458243845575
 21
8160.429730466253
 31
0.0
  0
LINE
  5
1DFE7
330
747D
100
AcDbEntity
  8
寸法
 48
50.0
100
AcDbLine
 10
8891.520743845575
 20
8176.304730466252
 30
0.0
 11
8891.520743845575
 21
8176.304730466252
 31
0.0
  0
LINE
  5
1DFE8
330
747D
100
AcDbEntity
  8
寸法
 48
50.0
100
AcDbLine
 10
8986.770743845575
 20
8176.304730466252
 30
0.0
 11
8986.770743845575
 21
8176.304730466252
 31
0.0
  0
LINE
  5
1DFE9
330
747D
100
AcDbEntity
  8
寸法
 48
50.0
100
AcDbLine
 10
8962.958243845575
 20
8160.429730466253
 30
0.0
 11
8962.958243845575
 21
8160.429730466253
 31
0.0
  0
LINE
  5
1DFEA
330
747D
100
AcDbEntity
  8
寸法
 48
50.0
100
AcDbLine
 10
8978.833243845576
 20
8160.429730466253
 30
0.0
 11
8978.833243845576
 21
8160.429730466253
 31
0.0
  0
LINE
  5
1DFEB
330
747D
100
AcDbEntity
  8
寸法
 48
50.0
100
AcDbLine
 10
8970.895743845574
 20
8176.304730466252
 30
0.0
 11
8970.895743845574
 21
8176.304730466252
 31
0.0
  0
LINE
  5
1DFEC
330
747D
100
AcDbEntity
  8
寸法
 48
50.0
100
AcDbLine
 10
8994.708243845575
 20
8160.429730466253
 30
0.0
 11
8994.708243845575
 21
8160.429730466253
 31
0.0
  0
LINE
  5
1DFED
330
747D
100
AcDbEntity
  8
寸法
 48
50.0
100
AcDbLine
 10
8915.333243845575
 20
8160.429730466253
 30
0.0
 11
8915.333243845575
 21
8160.429730466253
 31
0.0
  0
LINE
  5
1DFEE
330
747D
100
AcDbEntity
  8
寸法
 48
50.0
100
AcDbLine
 10
8931.208243845574
 20
8160.429730466253
 30
0.0
 11
8931.208243845574
 21
8160.429730466253
 31
0.0
  0
LINE
  5
1DFEF
330
747D
100
AcDbEntity
  8
寸法
 48
50.0
100
AcDbLine
 10
8947.083243845574
 20
8160.429730466253
 30
0.0
 11
8947.083243845574
 21
8160.429730466253
 31
0.0
  0
LINE
  5
1DFF0
330
747D
100
AcDbEntity
  8
寸法
 48
50.0
100
AcDbLine
 10
8907.395743845574
 20
8176.304730466252
 30
0.0
 11
8907.395743845574
 21
8176.304730466252
 31
0.0
  0
LINE
  5
1DFF1
330
747D
100
AcDbEntity
  8
寸法
 48
50.0
100
AcDbLine
 10
8923.270743845575
 20
8176.304730466252
 30
0.0
 11
8923.270743845575
 21
8176.304730466252
 31
0.0
  0
LINE
  5
1DFF2
330
747D
100
AcDbEntity
  8
寸法
 48
50.0
100
AcDbLine
 10
8939.145743845575
 20
8176.304730466252
 30
0.0
 11
8939.145743845575
 21
8176.304730466252
 31
0.0
  0
LINE
  5
1DFF3
330
747D
100
AcDbEntity
  8
寸法
 48
50.0
100
AcDbLine
 10
8955.020743845574
 20
8176.304730466252
 30
0.0
 11
8955.020743845574
 21
8176.304730466252
 31
0.0
  0
LINE
  5
1DFF4
330
747D
100
AcDbEntity
  8
寸法
 48
50.0
100
AcDbLine
 10
8851.833243845574
 20
8160.429730466253
 30
0.0
 11
8851.833243845574
 21
8160.429730466253
 31
0.0
  0
LINE
  5
1DFF5
330
747D
100
AcDbEntity
  8
寸法
 48
50.0
100
AcDbLine
 10
8843.895743845575
 20
8176.304730466252
 30
0.0
 11
8843.895743845575
 21
8176.304730466252
 31
0.0
  0
LINE
  5
1DFF6
330
747D
100
AcDbEntity
  8
寸法
 48
50.0
100
AcDbLine
 10
8835.958243845574
 20
8160.429730466253
 30
0.0
 11
8835.958243845574
 21
8160.429730466253
 31
0.0
  0
LINE
  5
1DFF7
330
747D
100
AcDbEntity
  8
寸法
 48
50.0
100
AcDbLine
 10
8828.020743845575
 20
8176.304730466252
 30
0.0
 11
8828.020743845575
 21
8176.304730466252
 31
0.0
  0
LINE
  5
1DFF8
330
747D
100
AcDbEntity
  8
寸法
 48
50.0
100
AcDbLine
 10
8867.708243845575
 20
8160.429730466253
 30
0.0
 11
8867.708243845575
 21
8160.429730466253
 31
0.0
  0
LINE
  5
1DFF9
330
747D
100
AcDbEntity
  8
寸法
 48
50.0
100
AcDbLine
 10
8859.770743845574
 20
8176.304730466252
 30
0.0
 11
8859.770743845574
 21
8176.304730466252
 31
0.0
  0
LINE
  5
1DFFA
330
747D
100
AcDbEntity
  8
寸法
 48
50.0
100
AcDbLine
 10
8875.645743845574
 20
8176.304730466252
 30
0.0
 11
8875.645743845574
 21
8176.304730466252
 31
0.0
  0
LINE
  5
1DFFB
330
747D
100
AcDbEntity
  8
センター
 48
5.0
100
AcDbLine
 10
9006.583243845579
 20
8283.179730466267
 30
0.0
 11
8716.583243845578
 21
8283.179730466267
 31
0.0
  0
LINE
  5
1DFFC
330
747D
100
AcDbEntity
  8
寸法
 48
50.0
100
AcDbLine
 10
8812.145743845574
 20
8208.054730466253
 30
0.0
 11
8812.145743845574
 21
8208.054730466253
 31
0.0
  0
LINE
  5
1DFFD
330
747D
100
AcDbEntity
  8
寸法
 48
50.0
100
AcDbLine
 10
8820.083243845575
 20
8192.179730466252
 30
0.0
 11
8820.083243845575
 21
8192.179730466252
 31
0.0
  0
LINE
  5
1DFFE
330
747D
100
AcDbEntity
  8
寸法
 48
50.0
100
AcDbLine
 10
8804.208243845575
 20
8192.179730466252
 30
0.0
 11
8804.208243845575
 21
8192.179730466252
 31
0.0
  0
LINE
  5
1DFFF
330
747D
100
AcDbEntity
  8
寸法
 48
50.0
100
AcDbLine
 10
9002.645743845574
 20
8208.054730466253
 30
0.0
 11
9002.645743845574
 21
8208.054730466253
 31
0.0
  0
LINE
  5
1E000
330
747D
100
AcDbEntity
  8
寸法
 48
50.0
100
AcDbLine
 10
9010.583243845577
 20
8192.179730466252
 30
0.0
 11
9010.583243845577
 21
8192.179730466252
 31
0.0
  0
LINE
  5
1E001
330
747D
100
AcDbEntity
  8
寸法
 48
50.0
100
AcDbLine
 10
9018.520743845575
 20
8208.054730466253
 30
0.0
 11
9018.520743845575
 21
8208.054730466253
 31
0.0
  0
LINE
  5
1E002
330
747D
100
AcDbEntity
  8
寸法
 48
50.0
100
AcDbLine
 10
9026.458243845574
 20
8192.179730466252
 30
0.0
 11
9026.458243845574
 21
8192.179730466252
 31
0.0
  0
LINE
  5
1E003
330
747D
100
AcDbEntity
  8
寸法
 48
50.0
100
AcDbLine
 10
8883.583243845576
 20
8192.179730466252
 30
0.0
 11
8883.583243845576
 21
8192.179730466252
 31
0.0
  0
LINE
  5
1E004
330
747D
100
AcDbEntity
  8
寸法
 48
50.0
100
AcDbLine
 10
8899.458243845575
 20
8192.179730466252
 30
0.0
 11
8899.458243845575
 21
8192.179730466252
 31
0.0
  0
LINE
  5
1E005
330
747D
100
AcDbEntity
  8
寸法
 48
50.0
100
AcDbLine
 10
8891.520743845575
 20
8208.054730466253
 30
0.0
 11
8891.520743845575
 21
8208.054730466253
 31
0.0
  0
LINE
  5
1E006
330
747D
100
AcDbEntity
  8
寸法
 48
50.0
100
AcDbLine
 10
8986.770743845575
 20
8208.054730466253
 30
0.0
 11
8986.770743845575
 21
8208.054730466253
 31
0.0
  0
LINE
  5
1E007
330
747D
100
AcDbEntity
  8
寸法
 48
50.0
100
AcDbLine
 10
8962.958243845575
 20
8192.179730466252
 30
0.0
 11
8962.958243845575
 21
8192.179730466252
 31
0.0
  0
LINE
  5
1E008
330
747D
100
AcDbEntity
  8
寸法
 48
50.0
100
AcDbLine
 10
8978.833243845576
 20
8192.179730466252
 30
0.0
 11
8978.833243845576
 21
8192.179730466252
 31
0.0
  0
LINE
  5
1E009
330
747D
100
AcDbEntity
  8
寸法
 48
50.0
100
AcDbLine
 10
8970.895743845574
 20
8208.054730466253
 30
0.0
 11
8970.895743845574
 21
8208.054730466253
 31
0.0
  0
LINE
  5
1E00A
330
747D
100
AcDbEntity
  8
寸法
 48
50.0
100
AcDbLine
 10
8994.708243845575
 20
8192.179730466252
 30
0.0
 11
8994.708243845575
 21
8192.179730466252
 31
0.0
  0
LINE
  5
1E00B
330
747D
100
AcDbEntity
  8
寸法
 48
50.0
100
AcDbLine
 10
8915.333243845575
 20
8192.179730466252
 30
0.0
 11
8915.333243845575
 21
8192.179730466252
 31
0.0
  0
LINE
  5
1E00C
330
747D
100
AcDbEntity
  8
寸法
 48
50.0
100
AcDbLine
 10
8931.208243845574
 20
8192.179730466252
 30
0.0
 11
8931.208243845574
 21
8192.179730466252
 31
0.0
  0
LINE
  5
1E00D
330
747D
100
AcDbEntity
  8
寸法
 48
50.0
100
AcDbLine
 10
8947.083243845574
 20
8192.179730466252
 30
0.0
 11
8947.083243845574
 21
8192.179730466252
 31
0.0
  0
LINE
  5
1E00E
330
747D
100
AcDbEntity
  8
寸法
 48
50.0
100
AcDbLine
 10
8907.395743845574
 20
8208.054730466253
 30
0.0
 11
8907.395743845574
 21
8208.054730466253
 31
0.0
  0
LINE
  5
1E00F
330
747D
100
AcDbEntity
  8
寸法
 48
50.0
100
AcDbLine
 10
8923.270743845575
 20
8208.054730466253
 30
0.0
 11
8923.270743845575
 21
8208.054730466253
 31
0.0
  0
LINE
  5
1E010
330
747D
100
AcDbEntity
  8
寸法
 48
50.0
100
AcDbLine
 10
8939.145743845575
 20
8208.054730466253
 30
0.0
 11
8939.145743845575
 21
8208.054730466253
 31
0.0
  0
LINE
  5
1E011
330
747D
100
AcDbEntity
  8
寸法
 48
50.0
100
AcDbLine
 10
8955.020743845574
 20
8208.054730466253
 30
0.0
 11
8955.020743845574
 21
8208.054730466253
 31
0.0
  0
LINE
  5
1E012
330
747D
100
AcDbEntity
  8
寸法
 48
50.0
100
AcDbLine
 10
8851.833243845574
 20
8192.179730466252
 30
0.0
 11
8851.833243845574
 21
8192.179730466252
 31
0.0
  0
LINE
  5
1E013
330
747D
100
AcDbEntity
  8
寸法
 48
50.0
100
AcDbLine
 10
8843.895743845575
 20
8208.054730466253
 30
0.0
 11
8843.895743845575
 21
8208.054730466253
 31
0.0
  0
LINE
  5
1E014
330
747D
100
AcDbEntity
  8
寸法
 48
50.0
100
AcDbLine
 10
8835.958243845574
 20
8192.179730466252
 30
0.0
 11
8835.958243845574
 21
8192.179730466252
 31
0.0
  0
LINE
  5
1E015
330
747D
100
AcDbEntity
  8
寸法
 48
50.0
100
AcDbLine
 10
8828.020743845575
 20
8208.054730466253
 30
0.0
 11
8828.020743845575
 21
8208.054730466253
 31
0.0
  0
LINE
  5
1E016
330
747D
100
AcDbEntity
  8
寸法
 48
50.0
100
AcDbLine
 10
8867.708243845575
 20
8192.179730466252
 30
0.0
 11
8867.708243845575
 21
8192.179730466252
 31
0.0
  0
LINE
  5
1E017
330
747D
100
AcDbEntity
  8
寸法
 48
50.0
100
AcDbLine
 10
8859.770743845574
 20
8208.054730466253
 30
0.0
 11
8859.770743845574
 21
8208.054730466253
 31
0.0
  0
LINE
  5
1E018
330
747D
100
AcDbEntity
  8
寸法
 48
50.0
100
AcDbLine
 10
8875.645743845574
 20
8208.054730466253
 30
0.0
 11
8875.645743845574
 21
8208.054730466253
 31
0.0
  0
TEXT
  5
1E019
330
747D
100
AcDbEntity
  8
寸法
 48
50.0
100
AcDbText
 10
9493.918374334583
 20
7948.594263858247
 30
0.0
 40
120.0
  1
扉面
  7
STYLE1
100
AcDbText
  0
LINE
  5
1E01A
330
747D
100
AcDbEntity
  8
寸法
 48
50.0
100
AcDbLine
 10
9193.145743845574
 20
8176.304730466252
 30
0.0
 11
9193.145743845574
 21
8176.304730466252
 31
0.0
  0
LINE
  5
1E01B
330
747D
100
AcDbEntity
  8
寸法
 48
50.0
100
AcDbLine
 10
9169.333243845574
 20
8160.429730466253
 30
0.0
 11
9169.333243845574
 21
8160.429730466253
 31
0.0
  0
LINE
  5
1E01C
330
747D
100
AcDbEntity
  8
寸法
 48
50.0
100
AcDbLine
 10
9185.208243845577
 20
8160.429730466253
 30
0.0
 11
9185.208243845577
 21
8160.429730466253
 31
0.0
  0
LINE
  5
1E01D
330
747D
100
AcDbEntity
  8
寸法
 48
50.0
100
AcDbLine
 10
9177.270743845577
 20
8176.304730466252
 30
0.0
 11
9177.270743845577
 21
8176.304730466252
 31
0.0
  0
LINE
  5
1E01E
330
747D
100
AcDbEntity
  8
寸法
 48
50.0
100
AcDbLine
 10
9201.083243845577
 20
8160.429730466253
 30
0.0
 11
9201.083243845577
 21
8160.429730466253
 31
0.0
  0
LINE
  5
1E01F
330
747D
100
AcDbEntity
  8
寸法
 48
50.0
100
AcDbLine
 10
9209.020743845576
 20
8176.304730466252
 30
0.0
 11
9209.020743845576
 21
8176.304730466252
 31
0.0
  0
LINE
  5
1E020
330
747D
100
AcDbEntity
  8
寸法
 48
50.0
100
AcDbLine
 10
9224.895743845577
 20
8176.304730466252
 30
0.0
 11
9224.895743845577
 21
8176.304730466252
 31
0.0
  0
LINE
  5
1E021
330
747D
100
AcDbEntity
  8
寸法
 48
50.0
100
AcDbLine
 10
9232.833243845574
 20
8160.429730466253
 30
0.0
 11
9232.833243845574
 21
8160.429730466253
 31
0.0
  0
LINE
  5
1E022
330
747D
100
AcDbEntity
  8
寸法
 48
50.0
100
AcDbLine
 10
9121.708243845574
 20
8160.429730466253
 30
0.0
 11
9121.708243845574
 21
8160.429730466253
 31
0.0
  0
LINE
  5
1E023
330
747D
100
AcDbEntity
  8
寸法
 48
50.0
100
AcDbLine
 10
9137.583243845574
 20
8160.429730466253
 30
0.0
 11
9137.583243845574
 21
8160.429730466253
 31
0.0
  0
LINE
  5
1E024
330
747D
100
AcDbEntity
  8
寸法
 48
50.0
100
AcDbLine
 10
9153.458243845577
 20
8160.429730466253
 30
0.0
 11
9153.458243845577
 21
8160.429730466253
 31
0.0
  0
LINE
  5
1E025
330
747D
100
AcDbEntity
  8
寸法
 48
50.0
100
AcDbLine
 10
9129.645743845577
 20
8176.304730466252
 30
0.0
 11
9129.645743845577
 21
8176.304730466252
 31
0.0
  0
LINE
  5
1E026
330
747D
100
AcDbEntity
  8
寸法
 48
50.0
100
AcDbLine
 10
9145.520743845574
 20
8176.304730466252
 30
0.0
 11
9145.520743845574
 21
8176.304730466252
 31
0.0
  0
LINE
  5
1E027
330
747D
100
AcDbEntity
  8
寸法
 48
50.0
100
AcDbLine
 10
9161.395743845574
 20
8176.304730466252
 30
0.0
 11
9161.395743845574
 21
8176.304730466252
 31
0.0
  0
LINE
  5
1E028
330
747D
100
AcDbEntity
  8
寸法
 48
50.0
100
AcDbLine
 10
9216.958243845574
 20
8160.429730466253
 30
0.0
 11
9216.958243845574
 21
8160.429730466253
 31
0.0
  0
LINE
  5
1E029
330
747D
100
AcDbEntity
  8
寸法
 48
50.0
100
AcDbLine
 10
9042.333243845574
 20
8160.429730466253
 30
0.0
 11
9042.333243845574
 21
8160.429730466253
 31
0.0
  0
LINE
  5
1E02A
330
747D
100
AcDbEntity
  8
寸法
 48
50.0
100
AcDbLine
 10
9034.395743845577
 20
8176.304730466252
 30
0.0
 11
9034.395743845577
 21
8176.304730466252
 31
0.0
  0
LINE
  5
1E02B
330
747D
100
AcDbEntity
  8
寸法
 48
50.0
100
AcDbLine
 10
9050.270743845574
 20
8176.304730466252
 30
0.0
 11
9050.270743845574
 21
8176.304730466252
 31
0.0
  0
LINE
  5
1E02C
330
747D
100
AcDbEntity
  8
寸法
 48
50.0
100
AcDbLine
 10
9058.208243845577
 20
8160.429730466253
 30
0.0
 11
9058.208243845577
 21
8160.429730466253
 31
0.0
  0
LINE
  5
1E02D
330
747D
100
AcDbEntity
  8
寸法
 48
50.0
100
AcDbLine
 10
9074.083243845574
 20
8160.429730466253
 30
0.0
 11
9074.083243845574
 21
8160.429730466253
 31
0.0
  0
LINE
  5
1E02E
330
747D
100
AcDbEntity
  8
寸法
 48
50.0
100
AcDbLine
 10
9089.958243845577
 20
8160.429730466253
 30
0.0
 11
9089.958243845577
 21
8160.429730466253
 31
0.0
  0
LINE
  5
1E02F
330
747D
100
AcDbEntity
  8
寸法
 48
50.0
100
AcDbLine
 10
9105.833243845577
 20
8160.429730466253
 30
0.0
 11
9105.833243845577
 21
8160.429730466253
 31
0.0
  0
LINE
  5
1E030
330
747D
100
AcDbEntity
  8
寸法
 48
50.0
100
AcDbLine
 10
9082.020743845577
 20
8176.304730466252
 30
0.0
 11
9082.020743845577
 21
8176.304730466252
 31
0.0
  0
LINE
  5
1E031
330
747D
100
AcDbEntity
  8
寸法
 48
50.0
100
AcDbLine
 10
9097.895743845574
 20
8176.304730466252
 30
0.0
 11
9097.895743845574
 21
8176.304730466252
 31
0.0
  0
LINE
  5
1E032
330
747D
100
AcDbEntity
  8
寸法
 48
50.0
100
AcDbLine
 10
9113.770743845575
 20
8176.304730466252
 30
0.0
 11
9113.770743845575
 21
8176.304730466252
 31
0.0
  0
LINE
  5
1E033
330
747D
100
AcDbEntity
  8
寸法
 48
50.0
100
AcDbLine
 10
9066.145743845574
 20
8176.304730466252
 30
0.0
 11
9066.145743845574
 21
8176.304730466252
 31
0.0
  0
LINE
  5
1E034
330
747D
100
AcDbEntity
  8
寸法
 48
50.0
100
AcDbLine
 10
9407.458243845574
 20
8160.429730466253
 30
0.0
 11
9407.458243845574
 21
8160.429730466253
 31
0.0
  0
LINE
  5
1E035
330
747D
100
AcDbEntity
  8
寸法
 48
50.0
100
AcDbLine
 10
9423.333243845574
 20
8160.429730466253
 30
0.0
 11
9423.333243845574
 21
8160.429730466253
 31
0.0
  0
LINE
  5
1E036
330
747D
100
AcDbEntity
  8
寸法
 48
50.0
100
AcDbLine
 10
9415.395743845577
 20
8176.304730466252
 30
0.0
 11
9415.395743845577
 21
8176.304730466252
 31
0.0
  0
LINE
  5
1E037
330
747D
100
AcDbEntity
  8
寸法
 48
50.0
100
AcDbLine
 10
9431.270743845574
 20
8176.304730466252
 30
0.0
 11
9431.270743845574
 21
8176.304730466252
 31
0.0
  0
LINE
  5
1E038
330
747D
100
AcDbEntity
  8
寸法
 48
50.0
100
AcDbLine
 10
9439.208243845575
 20
8160.429730466253
 30
0.0
 11
9439.208243845575
 21
8160.429730466253
 31
0.0
  0
LINE
  5
1E039
330
747D
100
AcDbEntity
  8
寸法
 48
50.0
100
AcDbLine
 10
9264.583243845574
 20
8160.429730466253
 30
0.0
 11
9264.583243845574
 21
8160.429730466253
 31
0.0
  0
LINE
  5
1E03A
330
747D
100
AcDbEntity
  8
寸法
 48
50.0
100
AcDbLine
 10
9256.645743845574
 20
8176.304730466252
 30
0.0
 11
9256.645743845574
 21
8176.304730466252
 31
0.0
  0
LINE
  5
1E03B
330
747D
100
AcDbEntity
  8
寸法
 48
50.0
100
AcDbLine
 10
9248.708243845577
 20
8160.429730466253
 30
0.0
 11
9248.708243845577
 21
8160.429730466253
 31
0.0
  0
LINE
  5
1E03C
330
747D
100
AcDbEntity
  8
寸法
 48
50.0
100
AcDbLine
 10
9375.708243845577
 20
8160.429730466253
 30
0.0
 11
9375.708243845577
 21
8160.429730466253
 31
0.0
  0
LINE
  5
1E03D
330
747D
100
AcDbEntity
  8
寸法
 48
50.0
100
AcDbLine
 10
9383.645743845574
 20
8176.304730466252
 30
0.0
 11
9383.645743845574
 21
8176.304730466252
 31
0.0
  0
LINE
  5
1E03E
330
747D
100
AcDbEntity
  8
寸法
 48
50.0
100
AcDbLine
 10
9280.458243845577
 20
8160.429730466253
 30
0.0
 11
9280.458243845577
 21
8160.429730466253
 31
0.0
  0
LINE
  5
1E03F
330
747D
100
AcDbEntity
  8
寸法
 48
50.0
100
AcDbLine
 10
9296.333243845577
 20
8160.429730466253
 30
0.0
 11
9296.333243845577
 21
8160.429730466253
 31
0.0
  0
LINE
  5
1E040
330
747D
100
AcDbEntity
  8
寸法
 48
50.0
100
AcDbLine
 10
9312.208243845574
 20
8160.429730466253
 30
0.0
 11
9312.208243845574
 21
8160.429730466253
 31
0.0
  0
LINE
  5
1E041
330
747D
100
AcDbEntity
  8
寸法
 48
50.0
100
AcDbLine
 10
9328.083243845574
 20
8160.429730466253
 30
0.0
 11
9328.083243845574
 21
8160.429730466253
 31
0.0
  0
LINE
  5
1E042
330
747D
100
AcDbEntity
  8
寸法
 48
50.0
100
AcDbLine
 10
9343.958243845575
 20
8160.429730466253
 30
0.0
 11
9343.958243845575
 21
8160.429730466253
 31
0.0
  0
LINE
  5
1E043
330
747D
100
AcDbEntity
  8
寸法
 48
50.0
100
AcDbLine
 10
9359.833243845574
 20
8160.429730466253
 30
0.0
 11
9359.833243845574
 21
8160.429730466253
 31
0.0
  0
LINE
  5
1E044
330
747D
100
AcDbEntity
  8
寸法
 48
50.0
100
AcDbLine
 10
9272.520743845573
 20
8176.304730466252
 30
0.0
 11
9272.520743845573
 21
8176.304730466252
 31
0.0
  0
LINE
  5
1E045
330
747D
100
AcDbEntity
  8
寸法
 48
50.0
100
AcDbLine
 10
9288.395743845574
 20
8176.304730466252
 30
0.0
 11
9288.395743845574
 21
8176.304730466252
 31
0.0
  0
LINE
  5
1E046
330
747D
100
AcDbEntity
  8
寸法
 48
50.0
100
AcDbLine
 10
9304.270743845576
 20
8176.304730466252
 30
0.0
 11
9304.270743845576
 21
8176.304730466252
 31
0.0
  0
LINE
  5
1E047
330
747D
100
AcDbEntity
  8
寸法
 48
50.0
100
AcDbLine
 10
9320.145743845577
 20
8176.304730466252
 30
0.0
 11
9320.145743845577
 21
8176.304730466252
 31
0.0
  0
LINE
  5
1E048
330
747D
100
AcDbEntity
  8
寸法
 48
50.0
100
AcDbLine
 10
9351.895743845574
 20
8176.304730466252
 30
0.0
 11
9351.895743845574
 21
8176.304730466252
 31
0.0
  0
LINE
  5
1E049
330
747D
100
AcDbEntity
  8
寸法
 48
50.0
100
AcDbLine
 10
9367.770743845573
 20
8176.304730466252
 30
0.0
 11
9367.770743845573
 21
8176.304730466252
 31
0.0
  0
LINE
  5
1E04A
330
747D
100
AcDbEntity
  8
寸法
 48
50.0
100
AcDbLine
 10
9336.020743845574
 20
8176.304730466252
 30
0.0
 11
9336.020743845574
 21
8176.304730466252
 31
0.0
  0
LINE
  5
1E04B
330
747D
100
AcDbEntity
  8
寸法
 48
50.0
100
AcDbLine
 10
9399.520743845576
 20
8176.304730466252
 30
0.0
 11
9399.520743845576
 21
8176.304730466252
 31
0.0
  0
LINE
  5
1E04C
330
747D
100
AcDbEntity
  8
寸法
 48
50.0
100
AcDbLine
 10
9391.583243845577
 20
8160.429730466253
 30
0.0
 11
9391.583243845577
 21
8160.429730466253
 31
0.0
  0
LINE
  5
1E04D
330
747D
100
AcDbEntity
  8
寸法
 48
50.0
100
AcDbLine
 10
9240.770743845574
 20
8176.304730466252
 30
0.0
 11
9240.770743845574
 21
8176.304730466252
 31
0.0
  0
LINE
  5
1E04E
330
747D
100
AcDbEntity
  8
寸法
 48
50.0
100
AcDbLine
 10
9193.145743845574
 20
8208.054730466253
 30
0.0
 11
9193.145743845574
 21
8208.054730466253
 31
0.0
  0
LINE
  5
1E04F
330
747D
100
AcDbEntity
  8
寸法
 48
50.0
100
AcDbLine
 10
9169.333243845574
 20
8192.179730466252
 30
0.0
 11
9169.333243845574
 21
8192.179730466252
 31
0.0
  0
LINE
  5
1E050
330
747D
100
AcDbEntity
  8
寸法
 48
50.0
100
AcDbLine
 10
9185.208243845577
 20
8192.179730466252
 30
0.0
 11
9185.208243845577
 21
8192.179730466252
 31
0.0
  0
LINE
  5
1E051
330
747D
100
AcDbEntity
  8
寸法
 48
50.0
100
AcDbLine
 10
9177.270743845577
 20
8208.054730466253
 30
0.0
 11
9177.270743845577
 21
8208.054730466253
 31
0.0
  0
LINE
  5
1E052
330
747D
100
AcDbEntity
  8
寸法
 48
50.0
100
AcDbLine
 10
9201.083243845577
 20
8192.179730466252
 30
0.0
 11
9201.083243845577
 21
8192.179730466252
 31
0.0
  0
LINE
  5
1E053
330
747D
100
AcDbEntity
  8
寸法
 48
50.0
100
AcDbLine
 10
9209.020743845576
 20
8208.054730466253
 30
0.0
 11
9209.020743845576
 21
8208.054730466253
 31
0.0
  0
LINE
  5
1E054
330
747D
100
AcDbEntity
  8
寸法
 48
50.0
100
AcDbLine
 10
9216.958243845574
 20
8192.179730466252
 30
0.0
 11
9216.958243845574
 21
8192.179730466252
 31
0.0
  0
LINE
  5
1E055
330
747D
100
AcDbEntity
  8
寸法
 48
50.0
100
AcDbLine
 10
9224.895743845577
 20
8208.054730466253
 30
0.0
 11
9224.895743845577
 21
8208.054730466253
 31
0.0
  0
LINE
  5
1E056
330
747D
100
AcDbEntity
  8
寸法
 48
50.0
100
AcDbLine
 10
9232.833243845574
 20
8192.179730466252
 30
0.0
 11
9232.833243845574
 21
8192.179730466252
 31
0.0
  0
LINE
  5
1E057
330
747D
100
AcDbEntity
  8
寸法
 48
50.0
100
AcDbLine
 10
9121.708243845574
 20
8192.179730466252
 30
0.0
 11
9121.708243845574
 21
8192.179730466252
 31
0.0
  0
LINE
  5
1E058
330
747D
100
AcDbEntity
  8
寸法
 48
50.0
100
AcDbLine
 10
9137.583243845574
 20
8192.179730466252
 30
0.0
 11
9137.583243845574
 21
8192.179730466252
 31
0.0
  0
LINE
  5
1E059
330
747D
100
AcDbEntity
  8
寸法
 48
50.0
100
AcDbLine
 10
9153.458243845577
 20
8192.179730466252
 30
0.0
 11
9153.458243845577
 21
8192.179730466252
 31
0.0
  0
LINE
  5
1E05A
330
747D
100
AcDbEntity
  8
寸法
 48
50.0
100
AcDbLine
 10
9129.645743845577
 20
8208.054730466253
 30
0.0
 11
9129.645743845577
 21
8208.054730466253
 31
0.0
  0
LINE
  5
1E05B
330
747D
100
AcDbEntity
  8
寸法
 48
50.0
100
AcDbLine
 10
9145.520743845574
 20
8208.054730466253
 30
0.0
 11
9145.520743845574
 21
8208.054730466253
 31
0.0
  0
LINE
  5
1E05C
330
747D
100
AcDbEntity
  8
寸法
 48
50.0
100
AcDbLine
 10
9161.395743845574
 20
8208.054730466253
 30
0.0
 11
9161.395743845574
 21
8208.054730466253
 31
0.0
  0
LINE
  5
1E05D
330
747D
100
AcDbEntity
  8
寸法
 48
50.0
100
AcDbLine
 10
9042.333243845574
 20
8192.179730466252
 30
0.0
 11
9042.333243845574
 21
8192.179730466252
 31
0.0
  0
LINE
  5
1E05E
330
747D
100
AcDbEntity
  8
寸法
 48
50.0
100
AcDbLine
 10
9034.395743845577
 20
8208.054730466253
 30
0.0
 11
9034.395743845577
 21
8208.054730466253
 31
0.0
  0
LINE
  5
1E05F
330
747D
100
AcDbEntity
  8
寸法
 48
50.0
100
AcDbLine
 10
9050.270743845574
 20
8208.054730466253
 30
0.0
 11
9050.270743845574
 21
8208.054730466253
 31
0.0
  0
LINE
  5
1E060
330
747D
100
AcDbEntity
  8
寸法
 48
50.0
100
AcDbLine
 10
9058.208243845577
 20
8192.179730466252
 30
0.0
 11
9058.208243845577
 21
8192.179730466252
 31
0.0
  0
LINE
  5
1E061
330
747D
100
AcDbEntity
  8
寸法
 48
50.0
100
AcDbLine
 10
9074.083243845574
 20
8192.179730466252
 30
0.0
 11
9074.083243845574
 21
8192.179730466252
 31
0.0
  0
LINE
  5
1E062
330
747D
100
AcDbEntity
  8
寸法
 48
50.0
100
AcDbLine
 10
9089.958243845577
 20
8192.179730466252
 30
0.0
 11
9089.958243845577
 21
8192.179730466252
 31
0.0
  0
LINE
  5
1E063
330
747D
100
AcDbEntity
  8
寸法
 48
50.0
100
AcDbLine
 10
9105.833243845577
 20
8192.179730466252
 30
0.0
 11
9105.833243845577
 21
8192.179730466252
 31
0.0
  0
LINE
  5
1E064
330
747D
100
AcDbEntity
  8
寸法
 48
50.0
100
AcDbLine
 10
9066.145743845574
 20
8208.054730466253
 30
0.0
 11
9066.145743845574
 21
8208.054730466253
 31
0.0
  0
LINE
  5
1E065
330
747D
100
AcDbEntity
  8
寸法
 48
50.0
100
AcDbLine
 10
9082.020743845577
 20
8208.054730466253
 30
0.0
 11
9082.020743845577
 21
8208.054730466253
 31
0.0
  0
LINE
  5
1E066
330
747D
100
AcDbEntity
  8
寸法
 48
50.0
100
AcDbLine
 10
9097.895743845574
 20
8208.054730466253
 30
0.0
 11
9097.895743845574
 21
8208.054730466253
 31
0.0
  0
LINE
  5
1E067
330
747D
100
AcDbEntity
  8
寸法
 48
50.0
100
AcDbLine
 10
9113.770743845575
 20
8208.054730466253
 30
0.0
 11
9113.770743845575
 21
8208.054730466253
 31
0.0
  0
LINE
  5
1E068
330
747D
100
AcDbEntity
  8
寸法
 48
50.0
100
AcDbLine
 10
9423.333243845574
 20
8192.179730466252
 30
0.0
 11
9423.333243845574
 21
8192.179730466252
 31
0.0
  0
LINE
  5
1E069
330
747D
100
AcDbEntity
  8
寸法
 48
50.0
100
AcDbLine
 10
9415.395743845577
 20
8208.054730466253
 30
0.0
 11
9415.395743845577
 21
8208.054730466253
 31
0.0
  0
LINE
  5
1E06A
330
747D
100
AcDbEntity
  8
寸法
 48
50.0
100
AcDbLine
 10
9431.270743845574
 20
8208.054730466253
 30
0.0
 11
9431.270743845574
 21
8208.054730466253
 31
0.0
  0
LINE
  5
1E06B
330
747D
100
AcDbEntity
  8
寸法
 48
50.0
100
AcDbLine
 10
9407.458243845574
 20
8192.179730466252
 30
0.0
 11
9407.458243845574
 21
8192.179730466252
 31
0.0
  0
LINE
  5
1E06C
330
747D
100
AcDbEntity
  8
寸法
 48
50.0
100
AcDbLine
 10
9439.208243845575
 20
8192.179730466252
 30
0.0
 11
9439.208243845575
 21
8192.179730466252
 31
0.0
  0
LINE
  5
1E06D
330
747D
100
AcDbEntity
  8
寸法
 48
50.0
100
AcDbLine
 10
9264.583243845574
 20
8192.179730466252
 30
0.0
 11
9264.583243845574
 21
8192.179730466252
 31
0.0
  0
LINE
  5
1E06E
330
747D
100
AcDbEntity
  8
寸法
 48
50.0
100
AcDbLine
 10
9256.645743845574
 20
8208.054730466253
 30
0.0
 11
9256.645743845574
 21
8208.054730466253
 31
0.0
  0
LINE
  5
1E06F
330
747D
100
AcDbEntity
  8
寸法
 48
50.0
100
AcDbLine
 10
9248.708243845577
 20
8192.179730466252
 30
0.0
 11
9248.708243845577
 21
8192.179730466252
 31
0.0
  0
LINE
  5
1E070
330
747D
100
AcDbEntity
  8
寸法
 48
50.0
100
AcDbLine
 10
9375.708243845577
 20
8192.179730466252
 30
0.0
 11
9375.708243845577
 21
8192.179730466252
 31
0.0
  0
LINE
  5
1E071
330
747D
100
AcDbEntity
  8
寸法
 48
50.0
100
AcDbLine
 10
9383.645743845574
 20
8208.054730466253
 30
0.0
 11
9383.645743845574
 21
8208.054730466253
 31
0.0
  0
LINE
  5
1E072
330
747D
100
AcDbEntity
  8
寸法
 48
50.0
100
AcDbLine
 10
9280.458243845577
 20
8192.179730466252
 30
0.0
 11
9280.458243845577
 21
8192.179730466252
 31
0.0
  0
LINE
  5
1E073
330
747D
100
AcDbEntity
  8
寸法
 48
50.0
100
AcDbLine
 10
9296.333243845577
 20
8192.179730466252
 30
0.0
 11
9296.333243845577
 21
8192.179730466252
 31
0.0
  0
LINE
  5
1E074
330
747D
100
AcDbEntity
  8
寸法
 48
50.0
100
AcDbLine
 10
9312.208243845574
 20
8192.179730466252
 30
0.0
 11
9312.208243845574
 21
8192.179730466252
 31
0.0
  0
LINE
  5
1E075
330
747D
100
AcDbEntity
  8
寸法
 48
50.0
100
AcDbLine
 10
9328.083243845574
 20
8192.179730466252
 30
0.0
 11
9328.083243845574
 21
8192.179730466252
 31
0.0
  0
LINE
  5
1E076
330
747D
100
AcDbEntity
  8
寸法
 48
50.0
100
AcDbLine
 10
9343.958243845575
 20
8192.179730466252
 30
0.0
 11
9343.958243845575
 21
8192.179730466252
 31
0.0
  0
LINE
  5
1E077
330
747D
100
AcDbEntity
  8
寸法
 48
50.0
100
AcDbLine
 10
9359.833243845574
 20
8192.179730466252
 30
0.0
 11
9359.833243845574
 21
8192.179730466252
 31
0.0
  0
LINE
  5
1E078
330
747D
100
AcDbEntity
  8
寸法
 48
50.0
100
AcDbLine
 10
9272.520743845573
 20
8208.054730466253
 30
0.0
 11
9272.520743845573
 21
8208.054730466253
 31
0.0
  0
LINE
  5
1E079
330
747D
100
AcDbEntity
  8
寸法
 48
50.0
100
AcDbLine
 10
9288.395743845574
 20
8208.054730466253
 30
0.0
 11
9288.395743845574
 21
8208.054730466253
 31
0.0
  0
LINE
  5
1E07A
330
747D
100
AcDbEntity
  8
寸法
 48
50.0
100
AcDbLine
 10
9304.270743845576
 20
8208.054730466253
 30
0.0
 11
9304.270743845576
 21
8208.054730466253
 31
0.0
  0
LINE
  5
1E07B
330
747D
100
AcDbEntity
  8
寸法
 48
50.0
100
AcDbLine
 10
9320.145743845577
 20
8208.054730466253
 30
0.0
 11
9320.145743845577
 21
8208.054730466253
 31
0.0
  0
LINE
  5
1E07C
330
747D
100
AcDbEntity
  8
寸法
 48
50.0
100
AcDbLine
 10
9336.020743845574
 20
8208.054730466253
 30
0.0
 11
9336.020743845574
 21
8208.054730466253
 31
0.0
  0
LINE
  5
1E07D
330
747D
100
AcDbEntity
  8
寸法
 48
50.0
100
AcDbLine
 10
9351.895743845574
 20
8208.054730466253
 30
0.0
 11
9351.895743845574
 21
8208.054730466253
 31
0.0
  0
LINE
  5
1E07E
330
747D
100
AcDbEntity
  8
寸法
 48
50.0
100
AcDbLine
 10
9367.770743845573
 20
8208.054730466253
 30
0.0
 11
9367.770743845573
 21
8208.054730466253
 31
0.0
  0
LINE
  5
1E07F
330
747D
100
AcDbEntity
  8
寸法
 48
50.0
100
AcDbLine
 10
9399.520743845576
 20
8208.054730466253
 30
0.0
 11
9399.520743845576
 21
8208.054730466253
 31
0.0
  0
LINE
  5
1E080
330
747D
100
AcDbEntity
  8
寸法
 48
50.0
100
AcDbLine
 10
9391.583243845577
 20
8192.179730466252
 30
0.0
 11
9391.583243845577
 21
8192.179730466252
 31
0.0
  0
LINE
  5
1E081
330
747D
100
AcDbEntity
  8
寸法
 48
50.0
100
AcDbLine
 10
9240.770743845574
 20
8208.054730466253
 30
0.0
 11
9240.770743845574
 21
8208.054730466253
 31
0.0
  0
DIMENSION
  5
1E082
330
747D
100
AcDbEntity
  8
寸法
 48
50.0
100
AcDbDimension
  2
*D13
 10
8045.583243845577
 20
9018.179730466265
 30
0.0
 11
7945.583243845577
 21
8800.679730466269
 31
0.0
 70
    32
 71
     5
 42
435.0
  3
INABA_S50G
100
AcDbAlignedDimension
 13
9437.583243845578
 23
8583.179730466268
 33
0.0
 14
9437.583243845578
 24
9018.179730466265
 34
0.0
 50
90.0
100
AcDbRotatedDimension
  0
DIMENSION
  5
1E083
330
747D
100
AcDbEntity
  8
寸法
 48
50.0
100
AcDbDimension
  2
*D14
 10
8045.583243845577
 20
9018.179730466265
 30
0.0
 11
7945.583243845577
 21
9235.679730466269
 31
0.0
 70
    32
 71
     5
 42
435.0
  3
INABA_S50G
100
AcDbAlignedDimension
 13
9437.583243845578
 23
9453.179730466269
 33
0.0
 14
9437.583243845578
 24
9018.179730466265
 34
0.0
 50
90.0
100
AcDbRotatedDimension
  0
LINE
  5
1E084
330
747D
100
AcDbEntity
  8
細線
 48
50.0
100
AcDbLine
 10
8796.583243845581
 20
9393.066158679912
 30
0.0
 11
8916.583243845582
 21
9513.066158679917
 31
0.0
  0
LINE
  5
1E085
330
747D
100
AcDbEntity
  8
細線
 48
50.0
100
AcDbLine
 10
8796.583243845578
 20
9437.967439285257
 30
0.0
 11
8911.795535026589
 21
9553.179730466268
 31
0.0
  0
LINE
  5
1E086
330
747D
100
AcDbEntity
  8
細線
 48
50.0
100
AcDbLine
 10
8801.598096237279
 20
9353.179730466269
 30
0.0
 11
8916.583243845582
 21
9468.164878074567
 31
0.0
  0
LINE
  5
1E087
330
747D
100
AcDbEntity
  8
部品1
 48
50.0
100
AcDbLine
 10
8916.583243845582
 20
9353.179730466264
 30
0.0
 11
8796.583243845578
 21
9353.179730466269
 31
0.0
  0
LINE
  5
1E088
330
747D
100
AcDbEntity
  8
細線
 48
50.0
100
AcDbLine
 10
8891.400657447972
 20
9353.179730466269
 30
0.0
 11
8916.583243845582
 21
9378.362316863888
 31
0.0
  0
LINE
  5
1E089
330
747D
100
AcDbEntity
  8
細線
 48
50.0
100
AcDbLine
 10
8846.499376842627
 20
9353.179730466269
 30
0.0
 11
8916.583243845582
 21
9423.263597469221
 31
0.0
  0
LINE
  5
1E08A
330
747D
100
AcDbEntity
  8
部品1
 48
50.0
100
AcDbLine
 10
8916.583243845582
 20
9553.179730466268
 30
0.0
 11
8796.583243845578
 21
9553.179730466268
 31
0.0
  0
LINE
  5
1E08B
330
747D
100
AcDbEntity
  8
細線
 48
50.0
100
AcDbLine
 10
8796.58324384558
 20
9482.868719890609
 30
0.0
 11
8866.894254421243
 21
9553.179730466268
 31
0.0
  0
LINE
  5
1E08C
330
747D
100
AcDbEntity
  8
細線
 48
50.0
100
AcDbLine
 10
8796.583243845581
 20
9527.77000049595
 30
0.0
 11
8821.9929738159
 21
9553.17973046627
 31
0.0
  0
DIMENSION
  5
1E08D
330
747D
100
AcDbEntity
  8
寸法
 48
50.0
100
AcDbDimension
  2
*D15
 10
10096.01252048234
 20
8218.179730466266
 30
0.0
 11
9996.012520482342
 21
8618.179730466271
 31
0.0
 70
    32
 71
     5
 42
800.0
  3
INABA_S50G
100
AcDbAlignedDimension
 13
10176.58324384557
 23
9018.179730466265
 33
0.0
 14
10096.01252048234
 24
8218.179730466266
 34
0.0
 50
90.0
100
AcDbRotatedDimension
1001
ACAD
1000
DSTYLE
1002
{
1070
    75
1070
     1
1070
   279
1070
     1
1002
}
  0
LINE
  5
1E08E
330
747D
100
AcDbEntity
  8
部品1
 48
50.0
100
AcDbLine
 10
10960.58324384557
 20
8483.179730466266
 30
0.0
 11
10960.58324384557
 21
8683.179730466267
 31
0.0
  0
LINE
  5
1E08F
330
747D
100
AcDbEntity
  8
センター
 48
5.0
100
AcDbLine
 10
11060.58324384557
 20
8438.179730466265
 30
0.0
 11
11060.58324384557
 21
8728.179730466267
 31
0.0
  0
LINE
  5
1E090
330
747D
100
AcDbEntity
  8
部品1
 48
50.0
100
AcDbLine
 10
9482.583243845578
 20
8683.179730466267
 30
0.0
 11
9482.583243845578
 21
8483.179730466266
 31
0.0
  0
LINE
  5
1E091
330
747D
100
AcDbEntity
  8
センター
 48
5.0
100
AcDbLine
 10
9582.583243845581
 20
8438.179730466265
 30
0.0
 11
9582.583243845581
 21
8728.179730466267
 31
0.0
  0
LINE
  5
1E092
330
747D
100
AcDbEntity
  8
部品1
 48
50.0
100
AcDbLine
 10
9682.583243845581
 20
8483.179730466266
 30
0.0
 11
9682.583243845581
 21
8683.179730466267
 31
0.0
  0
LINE
  5
1E093
330
747D
100
AcDbEntity
  8
細線
 48
50.0
100
AcDbLine
 10
10221.58324384558
 20
8180.203296234948
 30
0.0
 11
10379.55967807689
 21
8338.179730466265
 31
0.0
  0
LINE
  5
1E094
330
747D
100
AcDbEntity
  8
細線
 48
50.0
100
AcDbLine
 10
10221.58324384558
 20
8225.104576840294
 30
0.0
 11
10334.65839747155
 21
8338.179730466265
 31
0.0
  0
LINE
  5
1E095
330
747D
100
AcDbEntity
  8
細線
 48
50.0
100
AcDbLine
 10
10221.58324384558
 20
8270.005857445637
 30
0.0
 11
10289.7571168662
 21
8338.179730466265
 31
0.0
  0
LINE
  5
1E096
330
747D
100
AcDbEntity
  8
部品1
 48
50.0
100
AcDbLine
 10
10618.58324384558
 20
8153.179730466268
 30
0.0
 11
10618.58324384558
 21
8218.179730466266
 31
0.0
  0
LINE
  5
1E097
330
747D
100
AcDbEntity
  8
寸法
 48
50.0
100
AcDbLine
 10
9597.958243845576
 20
8160.429730466253
 30
0.0
 11
9597.958243845576
 21
8160.429730466253
 31
0.0
  0
LINE
  5
1E098
330
747D
100
AcDbEntity
  8
寸法
 48
50.0
100
AcDbLine
 10
9590.020743845576
 20
8176.304730466252
 30
0.0
 11
9590.020743845576
 21
8176.304730466252
 31
0.0
  0
LINE
  5
1E099
330
747D
100
AcDbEntity
  8
寸法
 48
50.0
100
AcDbLine
 10
9629.708243845577
 20
8160.429730466253
 30
0.0
 11
9629.708243845577
 21
8160.429730466253
 31
0.0
  0
LINE
  5
1E09A
330
747D
100
AcDbEntity
  8
寸法
 48
50.0
100
AcDbLine
 10
9621.770743845576
 20
8176.304730466252
 30
0.0
 11
9621.770743845576
 21
8176.304730466252
 31
0.0
  0
LINE
  5
1E09B
330
747D
100
AcDbEntity
  8
寸法
 48
50.0
100
AcDbLine
 10
9613.833243845576
 20
8160.429730466253
 30
0.0
 11
9613.833243845576
 21
8160.429730466253
 31
0.0
  0
LINE
  5
1E09C
330
747D
100
AcDbEntity
  8
寸法
 48
50.0
100
AcDbLine
 10
9605.895743845577
 20
8176.304730466252
 30
0.0
 11
9605.895743845577
 21
8176.304730466252
 31
0.0
  0
LINE
  5
1E09D
330
747D
100
AcDbEntity
  8
寸法
 48
50.0
100
AcDbLine
 10
9645.583243845578
 20
8160.429730466253
 30
0.0
 11
9645.583243845578
 21
8160.429730466253
 31
0.0
  0
LINE
  5
1E09E
330
747D
100
AcDbEntity
  8
寸法
 48
50.0
100
AcDbLine
 10
9637.645743845574
 20
8176.304730466252
 30
0.0
 11
9637.645743845574
 21
8176.304730466252
 31
0.0
  0
LINE
  5
1E09F
330
747D
100
AcDbEntity
  8
寸法
 48
50.0
100
AcDbLine
 10
9447.145743845574
 20
8176.304730466252
 30
0.0
 11
9447.145743845574
 21
8176.304730466252
 31
0.0
  0
LINE
  5
1E0A0
330
747D
100
AcDbEntity
  8
寸法
 48
50.0
100
AcDbLine
 10
9470.958243845574
 20
8160.429730466253
 30
0.0
 11
9470.958243845574
 21
8160.429730466253
 31
0.0
  0
LINE
  5
1E0A1
330
747D
100
AcDbEntity
  8
寸法
 48
50.0
100
AcDbLine
 10
9463.020743845573
 20
8176.304730466252
 30
0.0
 11
9463.020743845573
 21
8176.304730466252
 31
0.0
  0
LINE
  5
1E0A2
330
747D
100
AcDbEntity
  8
寸法
 48
50.0
100
AcDbLine
 10
9455.083243845574
 20
8160.429730466253
 30
0.0
 11
9455.083243845574
 21
8160.429730466253
 31
0.0
  0
LINE
  5
1E0A3
330
747D
100
AcDbEntity
  8
寸法
 48
50.0
100
AcDbLine
 10
9582.083243845577
 20
8160.429730466253
 30
0.0
 11
9582.083243845577
 21
8160.429730466253
 31
0.0
  0
LINE
  5
1E0A4
330
747D
100
AcDbEntity
  8
寸法
 48
50.0
100
AcDbLine
 10
9486.833243845577
 20
8160.429730466253
 30
0.0
 11
9486.833243845577
 21
8160.429730466253
 31
0.0
  0
LINE
  5
1E0A5
330
747D
100
AcDbEntity
  8
寸法
 48
50.0
100
AcDbLine
 10
9502.708243845574
 20
8160.429730466253
 30
0.0
 11
9502.708243845574
 21
8160.429730466253
 31
0.0
  0
LINE
  5
1E0A6
330
747D
100
AcDbEntity
  8
寸法
 48
50.0
100
AcDbLine
 10
9518.583243845574
 20
8160.429730466253
 30
0.0
 11
9518.583243845574
 21
8160.429730466253
 31
0.0
  0
LINE
  5
1E0A7
330
747D
100
AcDbEntity
  8
寸法
 48
50.0
100
AcDbLine
 10
9534.458243845575
 20
8160.429730466253
 30
0.0
 11
9534.458243845575
 21
8160.429730466253
 31
0.0
  0
LINE
  5
1E0A8
330
747D
100
AcDbEntity
  8
寸法
 48
50.0
100
AcDbLine
 10
9550.333243845576
 20
8160.429730466253
 30
0.0
 11
9550.333243845576
 21
8160.429730466253
 31
0.0
  0
LINE
  5
1E0A9
330
747D
100
AcDbEntity
  8
寸法
 48
50.0
100
AcDbLine
 10
9566.208243845574
 20
8160.429730466253
 30
0.0
 11
9566.208243845574
 21
8160.429730466253
 31
0.0
  0
LINE
  5
1E0AA
330
747D
100
AcDbEntity
  8
寸法
 48
50.0
100
AcDbLine
 10
9478.895743845574
 20
8176.304730466252
 30
0.0
 11
9478.895743845574
 21
8176.304730466252
 31
0.0
  0
LINE
  5
1E0AB
330
747D
100
AcDbEntity
  8
寸法
 48
50.0
100
AcDbLine
 10
9494.770743845576
 20
8176.304730466252
 30
0.0
 11
9494.770743845576
 21
8176.304730466252
 31
0.0
  0
LINE
  5
1E0AC
330
747D
100
AcDbEntity
  8
寸法
 48
50.0
100
AcDbLine
 10
9510.645743845577
 20
8176.304730466252
 30
0.0
 11
9510.645743845577
 21
8176.304730466252
 31
0.0
  0
LINE
  5
1E0AD
330
747D
100
AcDbEntity
  8
寸法
 48
50.0
100
AcDbLine
 10
9526.520743845576
 20
8176.304730466252
 30
0.0
 11
9526.520743845576
 21
8176.304730466252
 31
0.0
  0
LINE
  5
1E0AE
330
747D
100
AcDbEntity
  8
寸法
 48
50.0
100
AcDbLine
 10
9542.395743845574
 20
8176.304730466252
 30
0.0
 11
9542.395743845574
 21
8176.304730466252
 31
0.0
  0
LINE
  5
1E0AF
330
747D
100
AcDbEntity
  8
寸法
 48
50.0
100
AcDbLine
 10
9558.270743845573
 20
8176.304730466252
 30
0.0
 11
9558.270743845573
 21
8176.304730466252
 31
0.0
  0
LINE
  5
1E0B0
330
747D
100
AcDbEntity
  8
寸法
 48
50.0
100
AcDbLine
 10
9574.145743845576
 20
8176.304730466252
 30
0.0
 11
9574.145743845576
 21
8176.304730466252
 31
0.0
  0
LINE
  5
1E0B1
330
747D
100
AcDbEntity
  8
寸法
 48
50.0
100
AcDbLine
 10
9709.083243845576
 20
8160.429730466253
 30
0.0
 11
9709.083243845576
 21
8160.429730466253
 31
0.0
  0
LINE
  5
1E0B2
330
747D
100
AcDbEntity
  8
寸法
 48
50.0
100
AcDbLine
 10
9701.145743845577
 20
8176.304730466252
 30
0.0
 11
9701.145743845577
 21
8176.304730466252
 31
0.0
  0
LINE
  5
1E0B3
330
747D
100
AcDbEntity
  8
寸法
 48
50.0
100
AcDbLine
 10
9724.958243845577
 20
8160.429730466253
 30
0.0
 11
9724.958243845577
 21
8160.429730466253
 31
0.0
  0
LINE
  5
1E0B4
330
747D
100
AcDbEntity
  8
寸法
 48
50.0
100
AcDbLine
 10
9740.833243845578
 20
8160.429730466253
 30
0.0
 11
9740.833243845578
 21
8160.429730466253
 31
0.0
  0
LINE
  5
1E0B5
330
747D
100
AcDbEntity
  8
寸法
 48
50.0
100
AcDbLine
 10
9756.708243845574
 20
8160.429730466253
 30
0.0
 11
9756.708243845574
 21
8160.429730466253
 31
0.0
  0
LINE
  5
1E0B6
330
747D
100
AcDbEntity
  8
寸法
 48
50.0
100
AcDbLine
 10
9717.020743845576
 20
8176.304730466252
 30
0.0
 11
9717.020743845576
 21
8176.304730466252
 31
0.0
  0
LINE
  5
1E0B7
330
747D
100
AcDbEntity
  8
寸法
 48
50.0
100
AcDbLine
 10
9732.895743845574
 20
8176.304730466252
 30
0.0
 11
9732.895743845574
 21
8176.304730466252
 31
0.0
  0
LINE
  5
1E0B8
330
747D
100
AcDbEntity
  8
寸法
 48
50.0
100
AcDbLine
 10
9748.770743845577
 20
8176.304730466252
 30
0.0
 11
9748.770743845577
 21
8176.304730466252
 31
0.0
  0
LINE
  5
1E0B9
330
747D
100
AcDbEntity
  8
寸法
 48
50.0
100
AcDbLine
 10
9764.645743845576
 20
8176.304730466252
 30
0.0
 11
9764.645743845576
 21
8176.304730466252
 31
0.0
  0
LINE
  5
1E0BA
330
747D
100
AcDbEntity
  8
寸法
 48
50.0
100
AcDbLine
 10
9772.583243845577
 20
8160.429730466253
 30
0.0
 11
9772.583243845577
 21
8160.429730466253
 31
0.0
  0
LINE
  5
1E0BB
330
747D
100
AcDbEntity
  8
寸法
 48
50.0
100
AcDbLine
 10
9780.520743845578
 20
8176.304730466252
 30
0.0
 11
9780.520743845578
 21
8176.304730466252
 31
0.0
  0
LINE
  5
1E0BC
330
747D
100
AcDbEntity
  8
寸法
 48
50.0
100
AcDbLine
 10
9669.395743845576
 20
8176.304730466252
 30
0.0
 11
9669.395743845576
 21
8176.304730466252
 31
0.0
  0
LINE
  5
1E0BD
330
747D
100
AcDbEntity
  8
寸法
 48
50.0
100
AcDbLine
 10
9661.458243845574
 20
8160.429730466253
 30
0.0
 11
9661.458243845574
 21
8160.429730466253
 31
0.0
  0
LINE
  5
1E0BE
330
747D
100
AcDbEntity
  8
寸法
 48
50.0
100
AcDbLine
 10
9653.520743845577
 20
8176.304730466252
 30
0.0
 11
9653.520743845577
 21
8176.304730466252
 31
0.0
  0
LINE
  5
1E0BF
330
747D
100
AcDbEntity
  8
寸法
 48
50.0
100
AcDbLine
 10
9677.333243845577
 20
8160.429730466253
 30
0.0
 11
9677.333243845577
 21
8160.429730466253
 31
0.0
  0
LINE
  5
1E0C0
330
747D
100
AcDbEntity
  8
寸法
 48
50.0
100
AcDbLine
 10
9693.208243845576
 20
8160.429730466253
 30
0.0
 11
9693.208243845576
 21
8160.429730466253
 31
0.0
  0
LINE
  5
1E0C1
330
747D
100
AcDbEntity
  8
寸法
 48
50.0
100
AcDbLine
 10
9685.270743845578
 20
8176.304730466252
 30
0.0
 11
9685.270743845578
 21
8176.304730466252
 31
0.0
  0
LINE
  5
1E0C2
330
747D
100
AcDbEntity
  8
部品1
 48
50.0
100
AcDbLine
 10
9482.583243845578
 20
8483.179730466266
 30
0.0
 11
9682.583243845581
 21
8483.179730466266
 31
0.0
  0
LINE
  5
1E0C3
330
747D
100
AcDbEntity
  8
寸法
 48
50.0
100
AcDbLine
 10
9597.958243845576
 20
8192.179730466252
 30
0.0
 11
9597.958243845576
 21
8192.179730466252
 31
0.0
  0
LINE
  5
1E0C4
330
747D
100
AcDbEntity
  8
寸法
 48
50.0
100
AcDbLine
 10
9590.020743845576
 20
8208.054730466253
 30
0.0
 11
9590.020743845576
 21
8208.054730466253
 31
0.0
  0
LINE
  5
1E0C5
330
747D
100
AcDbEntity
  8
寸法
 48
50.0
100
AcDbLine
 10
9613.833243845576
 20
8192.179730466252
 30
0.0
 11
9613.833243845576
 21
8192.179730466252
 31
0.0
  0
LINE
  5
1E0C6
330
747D
100
AcDbEntity
  8
寸法
 48
50.0
100
AcDbLine
 10
9629.708243845577
 20
8192.179730466252
 30
0.0
 11
9629.708243845577
 21
8192.179730466252
 31
0.0
  0
LINE
  5
1E0C7
330
747D
100
AcDbEntity
  8
寸法
 48
50.0
100
AcDbLine
 10
9621.770743845576
 20
8208.054730466253
 30
0.0
 11
9621.770743845576
 21
8208.054730466253
 31
0.0
  0
LINE
  5
1E0C8
330
747D
100
AcDbEntity
  8
寸法
 48
50.0
100
AcDbLine
 10
9605.895743845577
 20
8208.054730466253
 30
0.0
 11
9605.895743845577
 21
8208.054730466253
 31
0.0
  0
LINE
  5
1E0C9
330
747D
100
AcDbEntity
  8
寸法
 48
50.0
100
AcDbLine
 10
9645.583243845578
 20
8192.179730466252
 30
0.0
 11
9645.583243845578
 21
8192.179730466252
 31
0.0
  0
LINE
  5
1E0CA
330
747D
100
AcDbEntity
  8
寸法
 48
50.0
100
AcDbLine
 10
9637.645743845574
 20
8208.054730466253
 30
0.0
 11
9637.645743845574
 21
8208.054730466253
 31
0.0
  0
LINE
  5
1E0CB
330
747D
100
AcDbEntity
  8
寸法
 48
50.0
100
AcDbLine
 10
9447.145743845574
 20
8208.054730466253
 30
0.0
 11
9447.145743845574
 21
8208.054730466253
 31
0.0
  0
LINE
  5
1E0CC
330
747D
100
AcDbEntity
  8
寸法
 48
50.0
100
AcDbLine
 10
9463.020743845573
 20
8208.054730466253
 30
0.0
 11
9463.020743845573
 21
8208.054730466253
 31
0.0
  0
LINE
  5
1E0CD
330
747D
100
AcDbEntity
  8
寸法
 48
50.0
100
AcDbLine
 10
9455.083243845574
 20
8192.179730466252
 30
0.0
 11
9455.083243845574
 21
8192.179730466252
 31
0.0
  0
LINE
  5
1E0CE
330
747D
100
AcDbEntity
  8
寸法
 48
50.0
100
AcDbLine
 10
9470.958243845574
 20
8192.179730466252
 30
0.0
 11
9470.958243845574
 21
8192.179730466252
 31
0.0
  0
LINE
  5
1E0CF
330
747D
100
AcDbEntity
  8
寸法
 48
50.0
100
AcDbLine
 10
9582.083243845577
 20
8192.179730466252
 30
0.0
 11
9582.083243845577
 21
8192.179730466252
 31
0.0
  0
LINE
  5
1E0D0
330
747D
100
AcDbEntity
  8
寸法
 48
50.0
100
AcDbLine
 10
9478.895743845574
 20
8208.054730466253
 30
0.0
 11
9478.895743845574
 21
8208.054730466253
 31
0.0
  0
LINE
  5
1E0D1
330
747D
100
AcDbEntity
  8
寸法
 48
50.0
100
AcDbLine
 10
9494.770743845576
 20
8208.054730466253
 30
0.0
 11
9494.770743845576
 21
8208.054730466253
 31
0.0
  0
LINE
  5
1E0D2
330
747D
100
AcDbEntity
  8
寸法
 48
50.0
100
AcDbLine
 10
9510.645743845577
 20
8208.054730466253
 30
0.0
 11
9510.645743845577
 21
8208.054730466253
 31
0.0
  0
LINE
  5
1E0D3
330
747D
100
AcDbEntity
  8
寸法
 48
50.0
100
AcDbLine
 10
9526.520743845576
 20
8208.054730466253
 30
0.0
 11
9526.520743845576
 21
8208.054730466253
 31
0.0
  0
LINE
  5
1E0D4
330
747D
100
AcDbEntity
  8
寸法
 48
50.0
100
AcDbLine
 10
9542.395743845574
 20
8208.054730466253
 30
0.0
 11
9542.395743845574
 21
8208.054730466253
 31
0.0
  0
LINE
  5
1E0D5
330
747D
100
AcDbEntity
  8
寸法
 48
50.0
100
AcDbLine
 10
9558.270743845573
 20
8208.054730466253
 30
0.0
 11
9558.270743845573
 21
8208.054730466253
 31
0.0
  0
LINE
  5
1E0D6
330
747D
100
AcDbEntity
  8
寸法
 48
50.0
100
AcDbLine
 10
9574.145743845576
 20
8208.054730466253
 30
0.0
 11
9574.145743845576
 21
8208.054730466253
 31
0.0
  0
LINE
  5
1E0D7
330
747D
100
AcDbEntity
  8
寸法
 48
50.0
100
AcDbLine
 10
9486.833243845577
 20
8192.179730466252
 30
0.0
 11
9486.833243845577
 21
8192.179730466252
 31
0.0
  0
LINE
  5
1E0D8
330
747D
100
AcDbEntity
  8
寸法
 48
50.0
100
AcDbLine
 10
9502.708243845574
 20
8192.179730466252
 30
0.0
 11
9502.708243845574
 21
8192.179730466252
 31
0.0
  0
LINE
  5
1E0D9
330
747D
100
AcDbEntity
  8
寸法
 48
50.0
100
AcDbLine
 10
9518.583243845574
 20
8192.179730466252
 30
0.0
 11
9518.583243845574
 21
8192.179730466252
 31
0.0
  0
LINE
  5
1E0DA
330
747D
100
AcDbEntity
  8
寸法
 48
50.0
100
AcDbLine
 10
9534.458243845575
 20
8192.179730466252
 30
0.0
 11
9534.458243845575
 21
8192.179730466252
 31
0.0
  0
LINE
  5
1E0DB
330
747D
100
AcDbEntity
  8
寸法
 48
50.0
100
AcDbLine
 10
9550.333243845576
 20
8192.179730466252
 30
0.0
 11
9550.333243845576
 21
8192.179730466252
 31
0.0
  0
LINE
  5
1E0DC
330
747D
100
AcDbEntity
  8
寸法
 48
50.0
100
AcDbLine
 10
9566.208243845574
 20
8192.179730466252
 30
0.0
 11
9566.208243845574
 21
8192.179730466252
 31
0.0
  0
LINE
  5
1E0DD
330
747D
100
AcDbEntity
  8
寸法
 48
50.0
100
AcDbLine
 10
9709.083243845576
 20
8192.179730466252
 30
0.0
 11
9709.083243845576
 21
8192.179730466252
 31
0.0
  0
LINE
  5
1E0DE
330
747D
100
AcDbEntity
  8
寸法
 48
50.0
100
AcDbLine
 10
9701.145743845577
 20
8208.054730466253
 30
0.0
 11
9701.145743845577
 21
8208.054730466253
 31
0.0
  0
LINE
  5
1E0DF
330
747D
100
AcDbEntity
  8
寸法
 48
50.0
100
AcDbLine
 10
9724.958243845577
 20
8192.179730466252
 30
0.0
 11
9724.958243845577
 21
8192.179730466252
 31
0.0
  0
LINE
  5
1E0E0
330
747D
100
AcDbEntity
  8
寸法
 48
50.0
100
AcDbLine
 10
9740.833243845578
 20
8192.179730466252
 30
0.0
 11
9740.833243845578
 21
8192.179730466252
 31
0.0
  0
LINE
  5
1E0E1
330
747D
100
AcDbEntity
  8
寸法
 48
50.0
100
AcDbLine
 10
9756.708243845574
 20
8192.179730466252
 30
0.0
 11
9756.708243845574
 21
8192.179730466252
 31
0.0
  0
LINE
  5
1E0E2
330
747D
100
AcDbEntity
  8
寸法
 48
50.0
100
AcDbLine
 10
9717.020743845576
 20
8208.054730466253
 30
0.0
 11
9717.020743845576
 21
8208.054730466253
 31
0.0
  0
LINE
  5
1E0E3
330
747D
100
AcDbEntity
  8
寸法
 48
50.0
100
AcDbLine
 10
9732.895743845574
 20
8208.054730466253
 30
0.0
 11
9732.895743845574
 21
8208.054730466253
 31
0.0
  0
LINE
  5
1E0E4
330
747D
100
AcDbEntity
  8
寸法
 48
50.0
100
AcDbLine
 10
9748.770743845577
 20
8208.054730466253
 30
0.0
 11
9748.770743845577
 21
8208.054730466253
 31
0.0
  0
LINE
  5
1E0E5
330
747D
100
AcDbEntity
  8
寸法
 48
50.0
100
AcDbLine
 10
9764.645743845576
 20
8208.054730466253
 30
0.0
 11
9764.645743845576
 21
8208.054730466253
 31
0.0
  0
LINE
  5
1E0E6
330
747D
100
AcDbEntity
  8
寸法
 48
50.0
100
AcDbLine
 10
9780.520743845578
 20
8208.054730466253
 30
0.0
 11
9780.520743845578
 21
8208.054730466253
 31
0.0
  0
LINE
  5
1E0E7
330
747D
100
AcDbEntity
  8
寸法
 48
50.0
100
AcDbLine
 10
9772.583243845577
 20
8192.179730466252
 30
0.0
 11
9772.583243845577
 21
8192.179730466252
 31
0.0
  0
LINE
  5
1E0E8
330
747D
100
AcDbEntity
  8
寸法
 48
50.0
100
AcDbLine
 10
9669.395743845576
 20
8208.054730466253
 30
0.0
 11
9669.395743845576
 21
8208.054730466253
 31
0.0
  0
LINE
  5
1E0E9
330
747D
100
AcDbEntity
  8
寸法
 48
50.0
100
AcDbLine
 10
9661.458243845574
 20
8192.179730466252
 30
0.0
 11
9661.458243845574
 21
8192.179730466252
 31
0.0
  0
LINE
  5
1E0EA
330
747D
100
AcDbEntity
  8
寸法
 48
50.0
100
AcDbLine
 10
9653.520743845577
 20
8208.054730466253
 30
0.0
 11
9653.520743845577
 21
8208.054730466253
 31
0.0
  0
LINE
  5
1E0EB
330
747D
100
AcDbEntity
  8
寸法
 48
50.0
100
AcDbLine
 10
9677.333243845577
 20
8192.179730466252
 30
0.0
 11
9677.333243845577
 21
8192.179730466252
 31
0.0
  0
LINE
  5
1E0EC
330
747D
100
AcDbEntity
  8
寸法
 48
50.0
100
AcDbLine
 10
9693.208243845576
 20
8192.179730466252
 30
0.0
 11
9693.208243845576
 21
8192.179730466252
 31
0.0
  0
LINE
  5
1E0ED
330
747D
100
AcDbEntity
  8
寸法
 48
50.0
100
AcDbLine
 10
9685.270743845578
 20
8208.054730466253
 30
0.0
 11
9685.270743845578
 21
8208.054730466253
 31
0.0
  0
LINE
  5
1E0EE
330
747D
100
AcDbEntity
  8
部品1
 48
50.0
100
AcDbLine
 10
10221.58324384558
 20
8153.179730466268
 30
0.0
 11
10221.58324384558
 21
8338.179730466265
 31
0.0
  0
LINE
  5
1E0EF
330
747D
100
AcDbEntity
  8
細線
 48
50.0
100
AcDbLine
 10
10221.58324384558
 20
8314.907138050987
 30
0.0
 11
10244.85583626088
 21
8338.179730466265
 31
0.0
  0
LINE
  5
1E0F0
330
747D
100
AcDbEntity
  8
部品1
 48
50.0
100
AcDbLine
 10
10421.58324384558
 20
8153.179730466268
 30
0.0
 11
10421.58324384558
 21
8338.179730466265
 31
0.0
  0
LINE
  5
1E0F1
330
747D
100
AcDbEntity
  8
細線
 48
50.0
100
AcDbLine
 10
10329.26351989294
 20
8153.179730466268
 30
0.0
 11
10421.58324384558
 21
8245.49945441891
 31
0.0
  0
LINE
  5
1E0F2
330
747D
100
AcDbEntity
  8
細線
 48
50.0
100
AcDbLine
 10
10284.36223928759
 20
8153.179730466268
 30
0.0
 11
10421.58324384558
 21
8290.400735024254
 31
0.0
  0
LINE
  5
1E0F3
330
747D
100
AcDbEntity
  8
細線
 48
50.0
100
AcDbLine
 10
10239.46095868224
 20
8153.179730466268
 30
0.0
 11
10421.58324384557
 21
8335.302015629601
 31
0.0
  0
LINE
  5
1E0F4
330
747D
100
AcDbEntity
  8
部品1
 48
50.0
100
AcDbLine
 10
10221.58324384558
 20
9118.179730466264
 30
0.0
 11
10421.58324384557
 21
9118.179730466264
 31
0.0
  0
LINE
  5
1E0F5
330
747D
100
AcDbEntity
  8
センター
 48
5.0
100
AcDbLine
 10
10466.58324384557
 20
9018.179730466265
 30
0.0
 11
10176.58324384557
 21
9018.179730466265
 31
0.0
  0
LINE
  5
1E0F6
330
747D
100
AcDbEntity
  8
部品1
 48
50.0
100
AcDbLine
 10
10421.58324384557
 20
8918.179730466267
 30
0.0
 11
10221.58324384558
 21
8918.179730466267
 31
0.0
  0
LINE
  5
1E0F7
330
747D
100
AcDbEntity
  8
部品1
 48
50.0
100
AcDbLine
 10
9682.583243845581
 20
9218.179730466266
 30
0.0
 11
9682.583243845581
 21
8818.179730466267
 31
0.0
  0
LINE
  5
1E0F8
330
747D
100
AcDbEntity
  8
センター
 48
5.0
100
AcDbLine
 10
9582.583243845581
 20
9163.179730466266
 30
0.0
 11
9582.583243845581
 21
8873.179730466267
 31
0.0
  0
LINE
  5
1E0F9
330
747D
100
AcDbEntity
  8
部品1
 48
50.0
100
AcDbLine
 10
9482.583243845578
 20
8818.179730466267
 30
0.0
 11
9482.583243845578
 21
9218.179730466266
 31
0.0
  0
LINE
  5
1E0FA
330
747D
100
AcDbEntity
  8
部品1
 48
50.0
100
AcDbLine
 10
9682.583243845581
 20
8683.179730466267
 30
0.0
 11
9482.583243845578
 21
8683.179730466267
 31
0.0
  0
LINE
  5
1E0FB
330
747D
100
AcDbEntity
  8
部品1
 48
50.0
100
AcDbLine
 10
9682.583243845581
 20
8818.179730466267
 30
0.0
 11
9482.583243845578
 21
8818.179730466267
 31
0.0
  0
LINE
  5
1E0FC
330
747D
100
AcDbEntity
  8
部品1
 48
50.0
100
AcDbLine
 10
10221.58324384558
 20
8918.179730466267
 30
0.0
 11
10221.58324384558
 21
9118.179730466264
 31
0.0
  0
LINE
  5
1E0FD
330
747D
100
AcDbEntity
  8
部品1
 48
50.0
100
AcDbLine
 10
9682.583243845581
 20
9553.179730466268
 30
0.0
 11
9682.583243845581
 21
9353.179730466269
 31
0.0
  0
LINE
  5
1E0FE
330
747D
100
AcDbEntity
  8
センター
 48
5.0
100
AcDbLine
 10
9582.583243845581
 20
9598.179730466268
 30
0.0
 11
9582.583243845581
 21
9308.179730466269
 31
0.0
  0
LINE
  5
1E0FF
330
747D
100
AcDbEntity
  8
部品1
 48
50.0
100
AcDbLine
 10
9482.583243845578
 20
9353.179730466269
 30
0.0
 11
9482.583243845578
 21
9553.179730466268
 31
0.0
  0
LINE
  5
1E100
330
747D
100
AcDbEntity
  8
部品1
 48
50.0
100
AcDbLine
 10
9482.583243845578
 20
9218.179730466266
 30
0.0
 11
9682.583243845581
 21
9218.179730466266
 31
0.0
  0
LINE
  5
1E101
330
747D
100
AcDbEntity
  8
部品1
 48
50.0
100
AcDbLine
 10
9682.583243845581
 20
9353.179730466269
 30
0.0
 11
9482.583243845578
 21
9353.179730466269
 31
0.0
  0
LINE
  5
1E102
330
747D
100
AcDbEntity
  8
部品1
 48
50.0
100
AcDbLine
 10
9482.583243845578
 20
9688.179730466266
 30
0.0
 11
9682.583243845581
 21
9688.179730466266
 31
0.0
  0
LINE
  5
1E103
330
747D
100
AcDbEntity
  8
部品1
 48
50.0
100
AcDbLine
 10
9482.583243845578
 20
9553.179730466268
 30
0.0
 11
9682.583243845581
 21
9553.179730466268
 31
0.0
  0
LINE
  5
1E104
330
747D
100
AcDbEntity
  8
センター
 48
5.0
100
AcDbLine
 10
11060.58324384557
 20
9163.179730466266
 30
0.0
 11
11060.58324384557
 21
8873.179730466267
 31
0.0
  0
LINE
  5
1E105
330
747D
100
AcDbEntity
  8
部品1
 48
50.0
100
AcDbLine
 10
10960.58324384557
 20
9218.179730466266
 30
0.0
 11
10960.58324384557
 21
8818.179730466267
 31
0.0
  0
LINE
  5
1E106
330
747D
100
AcDbEntity
  8
センター
 48
5.0
100
AcDbLine
 10
10321.58324384558
 20
9163.179730466266
 30
0.0
 11
10321.58324384558
 21
8873.179730466267
 31
0.0
  0
LINE
  5
1E107
330
747D
100
AcDbEntity
  8
部品1
 48
50.0
100
AcDbLine
 10
10421.58324384557
 20
9118.179730466264
 30
0.0
 11
10421.58324384557
 21
8918.179730466267
 31
0.0
  0
LINE
  5
1E108
330
747D
100
AcDbEntity
  8
センター
 48
5.0
100
AcDbLine
 10
11060.58324384557
 20
9598.179730466268
 30
0.0
 11
11060.58324384557
 21
9308.179730466269
 31
0.0
  0
LINE
  5
1E109
330
747D
100
AcDbEntity
  8
部品1
 48
50.0
100
AcDbLine
 10
10960.58324384557
 20
9553.179730466268
 30
0.0
 11
10960.58324384557
 21
9353.179730466269
 31
0.0
  0
DIMENSION
  5
1E10A
330
747D
100
AcDbEntity
  8
寸法
 48
50.0
100
AcDbDimension
  2
*D16
 10
11896.58324384558
 20
6747.753884220258
 30
0.0
 11
12189.02418872747
 21
6747.753884220258
 31
0.0
 70
   160
  1
(<>)
 71
     5
 42
50.0
  3
INABA_S50G
100
AcDbAlignedDimension
 13
11846.58324384558
 23
8218.179730466264
 33
0.0
 14
11896.58324384558
 24
7028.593049723061
 34
0.0
100
AcDbRotatedDimension
  0
DIMENSION
  5
1E10B
330
747D
100
AcDbEntity
  8
寸法
 48
50.0
100
AcDbDimension
  2
*D17
 10
11846.58324384558
 20
7028.593049723061
 30
0.0
 11
12086.67803453975
 21
7028.593049723061
 31
0.0
 70
   160
 71
     5
 42
65.0
  3
INABA_S50G
100
AcDbAlignedDimension
 13
11781.58324384558
 23
8138.179730466267
 33
0.0
 14
11846.58324384558
 24
8218.179730466266
 34
0.0
100
AcDbRotatedDimension
1001
ACAD
1000
DSTYLE
1002
{
1002
}
  0
DIMENSION
  5
1E10C
330
747D
100
AcDbEntity
  8
寸法
 48
50.0
100
AcDbDimension
  2
*D18
 10
12697.58324384558
 20
8088.179730466267
 30
0.0
 11
12697.58324384558
 21
7757.238785584377
 31
0.0
 70
   160
  1
(<>)
 71
     5
 42
129.9999999999991
  3
INABA_S50G
100
AcDbAlignedDimension
 13
11846.58324384558
 23
8218.179730466266
 33
0.0
 14
12376.65146800964
 24
8088.179730466267
 34
0.0
 50
90.0
100
AcDbRotatedDimension
  0
LINE
  5
1E10D
330
747D
100
AcDbEntity
  8
部品1
 48
50.0
100
AcDbLine
 10
11160.58324384557
 20
8683.179730466267
 30
0.0
 11
11160.58324384557
 21
8483.179730466266
 31
0.0
  0
DIMENSION
  5
1E10E
330
747D
100
AcDbEntity
  8
寸法
 48
50.0
100
AcDbDimension
  2
*D19
 10
12376.65146800965
 20
8218.179730466266
 30
0.0
 11
12376.65146800964
 21
7978.084939772092
 31
0.0
 70
   160
 71
     5
 42
65.0
  3
INABA_S50G
100
AcDbAlignedDimension
 13
11926.58324384558
 23
8283.179730466267
 33
0.0
 14
11846.58324384558
 24
8218.179730466266
 34
0.0
 50
90.0
100
AcDbRotatedDimension
1001
ACAD
1000
DSTYLE
1002
{
1002
}
  0
LINE
  5
1E10F
330
747D
100
AcDbEntity
  8
センター
 48
5.0
100
AcDbLine
 10
11636.58324384558
 20
8283.179730466267
 30
0.0
 11
11926.58324384558
 21
8283.179730466267
 31
0.0
  0
LINE
  5
1E110
330
747D
100
AcDbEntity
  8
センター
 48
5.0
100
AcDbLine
 10
11781.58324384558
 20
8138.179730466267
 30
0.0
 11
11781.58324384558
 21
8428.179730466267
 31
0.0
  0
LINE
  5
1E111
330
747D
100
AcDbEntity
  8
部品1
 48
50.0
100
AcDbLine
 10
11160.58324384557
 20
8818.179730466267
 30
0.0
 11
11160.58324384557
 21
9218.179730466266
 31
0.0
  0
LINE
  5
1E112
330
747D
100
AcDbEntity
  8
部品1
 48
50.0
100
AcDbLine
 10
11160.58324384557
 20
9353.179730466269
 30
0.0
 11
11160.58324384557
 21
9553.179730466268
 31
0.0
  0
LINE
  5
1E113
330
747D
100
AcDbEntity
  8
細線
 48
50.0
100
AcDbLine
 10
11726.58324384557
 20
9373.066158679909
 30
0.0
 11
11846.58324384558
 21
9493.066158679914
 31
0.0
  0
LINE
  5
1E114
330
747D
100
AcDbEntity
  8
細線
 48
50.0
100
AcDbLine
 10
11726.58324384558
 20
9417.967439285256
 30
0.0
 11
11846.58324384558
 21
9537.967439285257
 31
0.0
  0
LINE
  5
1E115
330
747D
100
AcDbEntity
  8
細線
 48
50.0
100
AcDbLine
 10
11796.49937684262
 20
9353.179730466269
 30
0.0
 11
11846.58324384558
 21
9403.263597469218
 31
0.0
  0
LINE
  5
1E116
330
747D
100
AcDbEntity
  8
細線
 48
50.0
100
AcDbLine
 10
11751.59809623728
 20
9353.179730466269
 30
0.0
 11
11846.58324384558
 21
9448.164878074566
 31
0.0
  0
LINE
  5
1E117
330
747D
100
AcDbEntity
  8
細線
 48
50.0
100
AcDbLine
 10
11841.40065744797
 20
9353.179730466269
 30
0.0
 11
11846.58324384558
 21
9358.362316863875
 31
0.0
  0
LINE
  5
1E118
330
747D
100
AcDbEntity
  8
部品1
 48
50.0
100
AcDbLine
 10
11846.58324384558
 20
9353.179730466269
 30
0.0
 11
11726.58324384557
 21
9353.179730466269
 31
0.0
  0
LINE
  5
1E119
330
747D
100
AcDbEntity
  8
細線
 48
50.0
100
AcDbLine
 10
11726.58324384558
 20
9507.770000495941
 30
0.0
 11
11771.9929738159
 21
9553.17973046627
 31
0.0
  0
LINE
  5
1E11A
330
747D
100
AcDbEntity
  8
部品1
 48
50.0
100
AcDbLine
 10
11846.58324384558
 20
9553.179730466268
 30
0.0
 11
11726.58324384558
 21
9553.179730466268
 31
0.0
  0
LINE
  5
1E11B
330
747D
100
AcDbEntity
  8
細線
 48
50.0
100
AcDbLine
 10
11726.58324384557
 20
9462.868719890606
 30
0.0
 11
11816.89425442124
 21
9553.179730466268
 31
0.0
  0
DIMENSION
  5
1E11C
330
747D
100
AcDbEntity
  8
寸法
 48
50.0
100
AcDbDimension
  2
*D20
 10
11846.58324384558
 20
11471.16090320902
 30
0.0
 11
11084.08324384557
 21
11571.17566698855
 31
0.0
 70
    32
 71
     5
 42
1525.000000000002
  3
INABA_S50G
100
AcDbAlignedDimension
 13
10321.58324384558
 23
10033.17973046627
 33
0.0
 14
11846.58324384558
 24
10688.17973046626
 34
0.0
100
AcDbRotatedDimension
  0
LINE
  5
1E11D
330
747D
100
AcDbEntity
  8
部品1
 48
50.0
100
AcDbLine
 10
11846.58324384558
 20
10688.17973046626
 30
0.0
 11
8796.583243845578
 21
10688.17973046626
 31
0.0
  0
LINE
  5
1E11E
330
747D
100
AcDbEntity
  8
想像線
 48
20.0
100
AcDbLine
 10
11896.58324384558
 20
10778.17973046626
 30
0.0
 11
8746.583243845577
 21
10778.17973046626
 31
0.0
  0
LINE
  5
1E11F
330
747D
100
AcDbEntity
  8
部品1
 48
50.0
100
AcDbLine
 10
11726.58324384558
 20
10568.17973046627
 30
0.0
 11
8916.583243845577
 21
10568.17973046627
 31
0.0
  0
LINE
  5
1E120
330
747D
100
AcDbEntity
  8
部品1
 48
50.0
100
AcDbLine
 10
11160.58324384557
 20
10223.17973046626
 30
0.0
 11
10960.58324384557
 21
10223.17973046626
 31
0.0
  0
LINE
  5
1E121
330
747D
100
AcDbEntity
  8
部品1
 48
50.0
100
AcDbLine
 10
10960.58324384557
 20
10423.17973046626
 30
0.0
 11
11160.58324384557
 21
10423.17973046626
 31
0.0
  0
LINE
  5
1E122
330
747D
100
AcDbEntity
  8
センター
 48
5.0
100
AcDbLine
 10
10915.58324384557
 20
10323.17973046626
 30
0.0
 11
11205.58324384557
 21
10323.17973046626
 31
0.0
  0
LINE
  5
1E123
330
747D
100
AcDbEntity
  8
部品1
 48
50.0
100
AcDbLine
 10
10960.58324384557
 20
10088.17973046626
 30
0.0
 11
11160.58324384557
 21
10088.17973046626
 31
0.0
  0
LINE
  5
1E124
330
747D
100
AcDbEntity
  8
センター
 48
5.0
100
AcDbLine
 10
11205.58324384557
 20
9888.179730466269
 30
0.0
 11
10915.58324384557
 21
9888.179730466269
 31
0.0
  0
DIMENSION
  5
1E125
330
747D
100
AcDbEntity
  8
寸法
 48
50.0
100
AcDbDimension
  2
*D21
 10
10321.58324384558
 20
11471.16090320902
 30
0.0
 11
9559.083243845575
 21
11571.17566698855
 31
0.0
 70
    32
 71
     5
 42
1524.999999999998
  3
INABA_S50G
100
AcDbAlignedDimension
 13
8796.583243845578
 23
10688.17973046626
 33
0.0
 14
10321.58324384558
 24
10033.17973046627
 34
0.0
100
AcDbRotatedDimension
  0
LINE
  5
1E126
330
747D
100
AcDbEntity
  8
センター
 48
5.0
100
AcDbLine
 10
9727.583243845581
 20
10323.17973046626
 30
0.0
 11
9437.583243845578
 21
10323.17973046626
 31
0.0
  0
LINE
  5
1E127
330
747D
100
AcDbEntity
  8
センター
 48
5.0
100
AcDbLine
 10
9437.583243845578
 20
9888.179730466269
 30
0.0
 11
9727.583243845581
 21
9888.179730466269
 31
0.0
  0
DIMENSION
  5
1E128
330
747D
100
AcDbEntity
  8
寸法
 48
50.0
100
AcDbDimension
  2
*D22
 10
8045.583243845577
 20
9888.179730466269
 30
0.0
 11
7945.583243845577
 21
10105.67973046627
 31
0.0
 70
    32
 71
     5
 42
435.0
  3
INABA_S50G
100
AcDbAlignedDimension
 13
9437.583243845578
 23
10323.17973046626
 33
0.0
 14
9437.583243845578
 24
9888.179730466269
 34
0.0
 50
90.0
100
AcDbRotatedDimension
  0
DIMENSION
  5
1E129
330
747D
100
AcDbEntity
  8
寸法
 48
50.0
100
AcDbDimension
  2
*D23
 10
8045.583243845577
 20
10323.17973046626
 30
0.0
 11
7945.583243845577
 21
10505.67973046627
 31
0.0
 70
    32
 71
     5
 42
365.0
  3
INABA_S50G
100
AcDbAlignedDimension
 13
8796.583243845578
 23
10688.17973046626
 33
0.0
 14
9437.583243845578
 24
10323.17973046626
 34
0.0
 50
90.0
100
AcDbRotatedDimension
  0
LINE
  5
1E12A
330
747D
100
AcDbEntity
  8
センター
 48
5.0
100
AcDbLine
 10
8861.583243845577
 20
10768.17973046626
 30
0.0
 11
8861.583243845577
 21
10478.17973046627
 31
0.0
  0
LINE
  5
1E12B
330
747D
100
AcDbEntity
  8
センター
 48
5.0
100
AcDbLine
 10
9006.583243845579
 20
10623.17973046627
 30
0.0
 11
8716.583243845578
 21
10623.17973046627
 31
0.0
  0
LINE
  5
1E12C
330
747D
100
AcDbEntity
  8
細線
 48
50.0
100
AcDbLine
 10
10221.58324384558
 20
10640.00585744563
 30
0.0
 11
10269.7571168662
 21
10688.17973046626
 31
0.0
  0
LINE
  5
1E12D
330
747D
100
AcDbEntity
  8
細線
 48
50.0
100
AcDbLine
 10
10221.58324384558
 20
10595.10457684029
 30
0.0
 11
10314.65839747155
 21
10688.17973046626
 31
0.0
  0
LINE
  5
1E12E
330
747D
100
AcDbEntity
  8
細線
 48
50.0
100
AcDbLine
 10
10239.5596780769
 20
10568.17973046627
 30
0.0
 11
10359.55967807689
 21
10688.17973046626
 31
0.0
  0
LINE
  5
1E12F
330
747D
100
AcDbEntity
  8
部品1
 48
50.0
100
AcDbLine
 10
10421.58324384557
 20
9788.179730466268
 30
0.0
 11
10221.58324384558
 21
9788.179730466268
 31
0.0
  0
LINE
  5
1E130
330
747D
100
AcDbEntity
  8
センター
 48
5.0
100
AcDbLine
 10
10466.58324384557
 20
9888.179730466269
 30
0.0
 11
10176.58324384557
 21
9888.179730466269
 31
0.0
  0
LINE
  5
1E131
330
747D
100
AcDbEntity
  8
部品1
 48
50.0
100
AcDbLine
 10
10421.58324384557
 20
9988.179730466269
 30
0.0
 11
10221.58324384558
 21
9988.179730466269
 31
0.0
  0
DIMENSION
  5
1E132
330
747D
100
AcDbEntity
  8
寸法
 48
50.0
100
AcDbDimension
  2
*D24
 10
10096.01252048234
 20
9888.179730466269
 30
0.0
 11
9996.012520482342
 21
10288.17973046627
 31
0.0
 70
    32
 71
     5
 42
800.0
  3
INABA_S50G
100
AcDbAlignedDimension
 13
10221.58324384558
 23
10688.17973046626
 33
0.0
 14
10176.58324384558
 24
9888.179730466269
 34
0.0
 50
90.0
100
AcDbRotatedDimension
  0
LINE
  5
1E133
330
747D
100
AcDbEntity
  8
部品1
 48
50.0
100
AcDbLine
 10
9482.583243845578
 20
10423.17973046626
 30
0.0
 11
9482.583243845578
 21
10223.17973046626
 31
0.0
  0
LINE
  5
1E134
330
747D
100
AcDbEntity
  8
センター
 48
5.0
100
AcDbLine
 10
9582.583243845581
 20
10178.17973046627
 30
0.0
 11
9582.583243845581
 21
10468.17973046626
 31
0.0
  0
LINE
  5
1E135
330
747D
100
AcDbEntity
  8
部品1
 48
50.0
100
AcDbLine
 10
9682.583243845581
 20
10223.17973046626
 30
0.0
 11
9682.583243845581
 21
10423.17973046626
 31
0.0
  0
LINE
  5
1E136
330
747D
100
AcDbEntity
  8
部品1
 48
50.0
100
AcDbLine
 10
9482.583243845578
 20
10223.17973046626
 30
0.0
 11
9682.583243845581
 21
10223.17973046626
 31
0.0
  0
LINE
  5
1E137
330
747D
100
AcDbEntity
  8
部品1
 48
50.0
100
AcDbLine
 10
9682.583243845581
 20
10088.17973046626
 30
0.0
 11
9482.583243845578
 21
10088.17973046626
 31
0.0
  0
LINE
  5
1E138
330
747D
100
AcDbEntity
  8
部品1
 48
50.0
100
AcDbLine
 10
10221.58324384558
 20
9788.179730466268
 30
0.0
 11
10221.58324384558
 21
9988.179730466269
 31
0.0
  0
LINE
  5
1E139
330
747D
100
AcDbEntity
  8
部品1
 48
50.0
100
AcDbLine
 10
9682.583243845581
 20
10423.17973046626
 30
0.0
 11
9482.583243845578
 21
10423.17973046626
 31
0.0
  0
LINE
  5
1E13A
330
747D
100
AcDbEntity
  8
細線
 48
50.0
100
AcDbLine
 10
10221.58324384558
 20
10684.90713805098
 30
0.0
 11
10224.85583626085
 21
10688.17973046626
 31
0.0
  0
LINE
  5
1E13B
330
747D
100
AcDbEntity
  8
部品1
 48
50.0
100
AcDbLine
 10
10221.58324384558
 20
10568.17973046627
 30
0.0
 11
10221.58324384558
 21
10688.17973046626
 31
0.0
  0
LINE
  5
1E13C
330
747D
100
AcDbEntity
  8
部品1
 48
50.0
100
AcDbLine
 10
10960.58324384557
 20
10223.17973046626
 30
0.0
 11
10960.58324384557
 21
10423.17973046626
 31
0.0
  0
LINE
  5
1E13D
330
747D
100
AcDbEntity
  8
センター
 48
5.0
100
AcDbLine
 10
11060.58324384557
 20
10178.17973046627
 30
0.0
 11
11060.58324384557
 21
10468.17973046626
 31
0.0
  0
MTEXT
  5
1E13E
102
{ACAD_REACTORS
330
1E13F
102
}
330
747D
100
AcDbEntity
  8
細線
 62
     7
 48
50.0
100
AcDbMText
 10
10537.49289746319
 20
10157.84646536596
 30
0.0
 40
150.0
 41
0.0
 71
     4
 72
     1
  1
\A1;C.B
  7
STYLE1
 73
     1
 44
1.0
1001
ACAD
1000
MTEXTBEGIN
1070
    73
1070
     1
1070
    44
1040
1.0
1070
    74
1070
     0
1000
MTEXTEND
  0
LEADER
  5
1E13F
330
747D
100
AcDbEntity
  8
寸法
 48
50.0
100
AcDbLeader
  3
INABA_S50G
 71
     0
 73
     0
 74
     0
 75
     1
 40
150.0
 41
231.9898538650463
 76
     3
 10
10358.4415610877
 20
9936.947018716457
 30
0.0
 10
10387.49289746319
 20
10057.84646536596
 30
0.0
 10
10512.49289746319
 20
10057.84646536596
 30
0.0
340
1E13E
  0
LINE
  5
1E140
330
747D
100
AcDbEntity
  8
部品1
 48
50.0
100
AcDbLine
 10
10421.58324384557
 20
9988.179730466269
 30
0.0
 11
10421.58324384557
 21
9788.179730466268
 31
0.0
  0
LINE
  5
1E141
330
747D
100
AcDbEntity
  8
細線
 48
50.0
100
AcDbLine
 10
10374.26351989294
 20
10568.17973046627
 30
0.0
 11
10421.58324384558
 21
10615.49945441891
 31
0.0
  0
LINE
  5
1E142
330
747D
100
AcDbEntity
  8
細線
 48
50.0
100
AcDbLine
 10
10329.3622392876
 20
10568.17973046627
 30
0.0
 11
10421.58324384558
 21
10660.40073502425
 31
0.0
  0
LINE
  5
1E143
330
747D
100
AcDbEntity
  8
細線
 48
50.0
100
AcDbLine
 10
10284.46095868225
 20
10568.17973046627
 30
0.0
 11
10404.46095868224
 21
10688.17973046626
 31
0.0
  0
LINE
  5
1E144
330
747D
100
AcDbEntity
  8
部品1
 48
50.0
100
AcDbLine
 10
10421.58324384558
 20
10568.17973046627
 30
0.0
 11
10421.58324384558
 21
10688.17973046626
 31
0.0
  0
DIMENSION
  5
1E145
330
747D
100
AcDbEntity
  8
寸法
 48
50.0
100
AcDbDimension
  2
*D25
 10
12697.58324384558
 20
10778.17973046626
 30
0.0
 11
12697.58324384558
 21
11071.88275013522
 31
0.0
 70
   160
  1
(<>)
 71
     5
 42
89.99999999999818
  3
INABA_S50G
100
AcDbAlignedDimension
 13
11846.58324384558
 23
10688.17973046626
 33
0.0
 14
12376.65146800964
 24
10778.17973046626
 34
0.0
 50
90.0
100
AcDbRotatedDimension
  0
DIMENSION
  5
1E146
330
747D
100
AcDbEntity
  8
寸法
 48
50.0
100
AcDbDimension
  2
*D26
 10
12376.65146800965
 20
10623.17973046626
 30
0.0
 11
12376.65146800964
 21
10928.27452116045
 31
0.0
 70
   160
 71
     5
 42
65.0
  3
INABA_S50G
100
AcDbAlignedDimension
 13
11846.58324384558
 23
10688.17973046626
 33
0.0
 14
11926.58324384558
 24
10623.17973046627
 34
0.0
 50
90.0
100
AcDbRotatedDimension
  0
LINE
  5
1E147
330
747D
100
AcDbEntity
  8
センター
 48
5.0
100
AcDbLine
 10
11636.58324384558
 20
10623.17973046627
 30
0.0
 11
11926.58324384558
 21
10623.17973046627
 31
0.0
  0
LINE
  5
1E148
330
747D
100
AcDbEntity
  8
部品1
 48
50.0
100
AcDbLine
 10
11160.58324384557
 20
10423.17973046626
 30
0.0
 11
11160.58324384557
 21
10223.17973046626
 31
0.0
  0
LINE
  5
1E149
330
747D
100
AcDbEntity
  8
センター
 48
5.0
100
AcDbLine
 10
11781.58324384558
 20
10768.17973046626
 30
0.0
 11
11781.58324384558
 21
10478.17973046627
 31
0.0
  0
LINE
  5
1E203
330
747D
100
AcDbEntity
  8
部品1
100
AcDbLine
 10
12749.63855241616
 20
4070.406201204415
 30
0.0
 11
10011.97594556074
 21
4070.406201204415
 31
0.0
  0
TEXT
  5
1E204
330
747D
100
AcDbEntity
  8
文字
 62
     7
 48
50.0
100
AcDbText
 10
10031.21852782385
 20
4134.926762347168
 30
0.0
 40
150.0
  1
（　）内寸法は屋根の出幅です。
  7
STYLE1
100
AcDbText
  0
TEXT
  5
1E532
330
747D
100
AcDbEntity
  8
文字
 62
     7
 48
50.0
100
AcDbText
 10
20384.0
 20
-0.0000000000001137
 30
0.0
 40
1.0
  1
KK
  7
STYLE2
100
AcDbText
  0
LINE
  5
1E8C2
330
747D
100
AcDbEntity
  8
部品1
 48
50.0
100
AcDbLine
 10
10618.58324384558
 20
8218.179730466266
 30
0.0
 11
11846.58324384558
 21
8218.179730466266
 31
0.0
  0
LINE
  5
1E8C4
330
747D
100
AcDbEntity
  8
細線
 48
50.0
100
AcDbLine
 10
10374.16480049829
 20
8153.179730466266
 30
0.0
 11
10421.58324384558
 21
8200.598173813556
 31
0.0
  0
LINE
  5
1E98F
330
747D
100
AcDbEntity
  8
寸法
 48
50.0
100
AcDbLine
 10
9907.520743845577
 20
8208.054730466253
 30
0.0
 11
9907.520743845577
 21
8208.054730466253
 31
0.0
  0
LINE
  5
1E990
330
747D
100
AcDbEntity
  8
寸法
 48
50.0
100
AcDbLine
 10
9891.645743845577
 20
8208.054730466253
 30
0.0
 11
9891.645743845577
 21
8208.054730466253
 31
0.0
  0
LINE
  5
1E991
330
747D
100
AcDbEntity
  8
寸法
 48
50.0
100
AcDbLine
 10
9899.583243845576
 20
8192.179730466252
 30
0.0
 11
9899.583243845576
 21
8192.179730466252
 31
0.0
  0
LINE
  5
1E992
330
747D
100
AcDbEntity
  8
寸法
 48
50.0
100
AcDbLine
 10
9883.708243845577
 20
8192.179730466252
 30
0.0
 11
9883.708243845577
 21
8192.179730466252
 31
0.0
  0
LINE
  5
1E993
330
747D
100
AcDbEntity
  8
寸法
 48
50.0
100
AcDbLine
 10
9939.270743845577
 20
8208.054730466253
 30
0.0
 11
9939.270743845577
 21
8208.054730466253
 31
0.0
  0
LINE
  5
1E994
330
747D
100
AcDbEntity
  8
寸法
 48
50.0
100
AcDbLine
 10
9923.395743845574
 20
8208.054730466253
 30
0.0
 11
9923.395743845574
 21
8208.054730466253
 31
0.0
  0
LINE
  5
1E995
330
747D
100
AcDbEntity
  8
寸法
 48
50.0
100
AcDbLine
 10
9931.333243845577
 20
8192.179730466252
 30
0.0
 11
9931.333243845577
 21
8192.179730466252
 31
0.0
  0
LINE
  5
1E996
330
747D
100
AcDbEntity
  8
寸法
 48
50.0
100
AcDbLine
 10
9915.458243845577
 20
8192.179730466252
 30
0.0
 11
9915.458243845577
 21
8192.179730466252
 31
0.0
  0
LINE
  5
1E997
330
747D
100
AcDbEntity
  8
寸法
 48
50.0
100
AcDbLine
 10
9907.520743845577
 20
8176.304730466252
 30
0.0
 11
9907.520743845577
 21
8176.304730466252
 31
0.0
  0
LINE
  5
1E998
330
747D
100
AcDbEntity
  8
寸法
 48
50.0
100
AcDbLine
 10
9891.645743845577
 20
8176.304730466252
 30
0.0
 11
9891.645743845577
 21
8176.304730466252
 31
0.0
  0
LINE
  5
1E999
330
747D
100
AcDbEntity
  8
寸法
 48
50.0
100
AcDbLine
 10
9899.583243845576
 20
8160.429730466253
 30
0.0
 11
9899.583243845576
 21
8160.429730466253
 31
0.0
  0
LINE
  5
1E99A
330
747D
100
AcDbEntity
  8
寸法
 48
50.0
100
AcDbLine
 10
9883.708243845577
 20
8160.429730466253
 30
0.0
 11
9883.708243845577
 21
8160.429730466253
 31
0.0
  0
LINE
  5
1E99B
330
747D
100
AcDbEntity
  8
寸法
 48
50.0
100
AcDbLine
 10
9939.270743845577
 20
8176.304730466252
 30
0.0
 11
9939.270743845577
 21
8176.304730466252
 31
0.0
  0
LINE
  5
1E99C
330
747D
100
AcDbEntity
  8
寸法
 48
50.0
100
AcDbLine
 10
9923.395743845574
 20
8176.304730466252
 30
0.0
 11
9923.395743845574
 21
8176.304730466252
 31
0.0
  0
LINE
  5
1E99D
330
747D
100
AcDbEntity
  8
寸法
 48
50.0
100
AcDbLine
 10
9931.333243845577
 20
8160.429730466253
 30
0.0
 11
9931.333243845577
 21
8160.429730466253
 31
0.0
  0
LINE
  5
1E99E
330
747D
100
AcDbEntity
  8
寸法
 48
50.0
100
AcDbLine
 10
9915.458243845577
 20
8160.429730466253
 30
0.0
 11
9915.458243845577
 21
8160.429730466253
 31
0.0
  0
LINE
  5
1E99F
330
747D
100
AcDbEntity
  8
寸法
 48
50.0
100
AcDbLine
 10
9875.770743845578
 20
8208.054730466253
 30
0.0
 11
9875.770743845578
 21
8208.054730466253
 31
0.0
  0
LINE
  5
1E9A0
330
747D
100
AcDbEntity
  8
寸法
 48
50.0
100
AcDbLine
 10
9859.895743845576
 20
8208.054730466253
 30
0.0
 11
9859.895743845576
 21
8208.054730466253
 31
0.0
  0
LINE
  5
1E9A1
330
747D
100
AcDbEntity
  8
寸法
 48
50.0
100
AcDbLine
 10
9867.833243845577
 20
8192.179730466252
 30
0.0
 11
9867.833243845577
 21
8192.179730466252
 31
0.0
  0
LINE
  5
1E9A2
330
747D
100
AcDbEntity
  8
寸法
 48
50.0
100
AcDbLine
 10
9851.958243845574
 20
8192.179730466252
 30
0.0
 11
9851.958243845574
 21
8192.179730466252
 31
0.0
  0
LINE
  5
1E9A3
330
747D
100
AcDbEntity
  8
寸法
 48
50.0
100
AcDbLine
 10
9844.020743845577
 20
8208.054730466253
 30
0.0
 11
9844.020743845577
 21
8208.054730466253
 31
0.0
  0
LINE
  5
1E9A4
330
747D
100
AcDbEntity
  8
寸法
 48
50.0
100
AcDbLine
 10
9828.145743845574
 20
8208.054730466253
 30
0.0
 11
9828.145743845574
 21
8208.054730466253
 31
0.0
  0
LINE
  5
1E9A5
330
747D
100
AcDbEntity
  8
寸法
 48
50.0
100
AcDbLine
 10
9836.083243845576
 20
8192.179730466252
 30
0.0
 11
9836.083243845576
 21
8192.179730466252
 31
0.0
  0
LINE
  5
1E9A6
330
747D
100
AcDbEntity
  8
寸法
 48
50.0
100
AcDbLine
 10
9859.895743845576
 20
8176.304730466252
 30
0.0
 11
9859.895743845576
 21
8176.304730466252
 31
0.0
  0
LINE
  5
1E9A7
330
747D
100
AcDbEntity
  8
寸法
 48
50.0
100
AcDbLine
 10
9875.770743845578
 20
8176.304730466252
 30
0.0
 11
9875.770743845578
 21
8176.304730466252
 31
0.0
  0
LINE
  5
1E9A8
330
747D
100
AcDbEntity
  8
寸法
 48
50.0
100
AcDbLine
 10
9867.833243845577
 20
8160.429730466253
 30
0.0
 11
9867.833243845577
 21
8160.429730466253
 31
0.0
  0
LINE
  5
1E9A9
330
747D
100
AcDbEntity
  8
寸法
 48
50.0
100
AcDbLine
 10
9851.958243845574
 20
8160.429730466253
 30
0.0
 11
9851.958243845574
 21
8160.429730466253
 31
0.0
  0
LINE
  5
1E9AA
330
747D
100
AcDbEntity
  8
寸法
 48
50.0
100
AcDbLine
 10
9844.020743845577
 20
8176.304730466252
 30
0.0
 11
9844.020743845577
 21
8176.304730466252
 31
0.0
  0
LINE
  5
1E9AB
330
747D
100
AcDbEntity
  8
寸法
 48
50.0
100
AcDbLine
 10
9828.145743845574
 20
8176.304730466252
 30
0.0
 11
9828.145743845574
 21
8176.304730466252
 31
0.0
  0
LINE
  5
1E9AC
330
747D
100
AcDbEntity
  8
寸法
 48
50.0
100
AcDbLine
 10
9836.083243845576
 20
8160.429730466253
 30
0.0
 11
9836.083243845576
 21
8160.429730466253
 31
0.0
  0
LINE
  5
1E9AD
330
747D
100
AcDbEntity
  8
寸法
 48
50.0
100
AcDbLine
 10
9788.458243845576
 20
8192.179730466252
 30
0.0
 11
9788.458243845576
 21
8192.179730466252
 31
0.0
  0
LINE
  5
1E9AE
330
747D
100
AcDbEntity
  8
寸法
 48
50.0
100
AcDbLine
 10
9820.208243845577
 20
8192.179730466252
 30
0.0
 11
9820.208243845577
 21
8192.179730466252
 31
0.0
  0
LINE
  5
1E9AF
330
747D
100
AcDbEntity
  8
寸法
 48
50.0
100
AcDbLine
 10
9812.270743845576
 20
8208.054730466253
 30
0.0
 11
9812.270743845576
 21
8208.054730466253
 31
0.0
  0
LINE
  5
1E9B0
330
747D
100
AcDbEntity
  8
寸法
 48
50.0
100
AcDbLine
 10
9804.333243845576
 20
8192.179730466252
 30
0.0
 11
9804.333243845576
 21
8192.179730466252
 31
0.0
  0
LINE
  5
1E9B1
330
747D
100
AcDbEntity
  8
寸法
 48
50.0
100
AcDbLine
 10
9796.395743845577
 20
8208.054730466253
 30
0.0
 11
9796.395743845577
 21
8208.054730466253
 31
0.0
  0
LINE
  5
1E9B2
330
747D
100
AcDbEntity
  8
寸法
 48
50.0
100
AcDbLine
 10
9788.458243845576
 20
8160.429730466253
 30
0.0
 11
9788.458243845576
 21
8160.429730466253
 31
0.0
  0
LINE
  5
1E9B3
330
747D
100
AcDbEntity
  8
寸法
 48
50.0
100
AcDbLine
 10
9820.208243845577
 20
8160.429730466253
 30
0.0
 11
9820.208243845577
 21
8160.429730466253
 31
0.0
  0
LINE
  5
1E9B4
330
747D
100
AcDbEntity
  8
寸法
 48
50.0
100
AcDbLine
 10
9812.270743845576
 20
8176.304730466252
 30
0.0
 11
9812.270743845576
 21
8176.304730466252
 31
0.0
  0
LINE
  5
1E9B5
330
747D
100
AcDbEntity
  8
寸法
 48
50.0
100
AcDbLine
 10
9804.333243845576
 20
8160.429730466253
 30
0.0
 11
9804.333243845576
 21
8160.429730466253
 31
0.0
  0
LINE
  5
1E9B6
330
747D
100
AcDbEntity
  8
寸法
 48
50.0
100
AcDbLine
 10
9796.395743845577
 20
8176.304730466252
 30
0.0
 11
9796.395743845577
 21
8176.304730466252
 31
0.0
  0
LINE
  5
1E9B7
330
747D
100
AcDbEntity
  8
寸法
 48
50.0
100
AcDbLine
 10
10145.64574384557
 20
8208.054730466253
 30
0.0
 11
10145.64574384557
 21
8208.054730466253
 31
0.0
  0
LINE
  5
1E9B8
330
747D
100
AcDbEntity
  8
寸法
 48
50.0
100
AcDbLine
 10
10129.77074384557
 20
8208.054730466253
 30
0.0
 11
10129.77074384557
 21
8208.054730466253
 31
0.0
  0
LINE
  5
1E9B9
330
747D
100
AcDbEntity
  8
寸法
 48
50.0
100
AcDbLine
 10
10113.89574384557
 20
8208.054730466253
 30
0.0
 11
10113.89574384557
 21
8208.054730466253
 31
0.0
  0
LINE
  5
1E9BA
330
747D
100
AcDbEntity
  8
寸法
 48
50.0
100
AcDbLine
 10
10098.02074384557
 20
8208.054730466253
 30
0.0
 11
10098.02074384557
 21
8208.054730466253
 31
0.0
  0
LINE
  5
1E9BB
330
747D
100
AcDbEntity
  8
寸法
 48
50.0
100
AcDbLine
 10
10137.70824384557
 20
8192.179730466252
 30
0.0
 11
10137.70824384557
 21
8192.179730466252
 31
0.0
  0
LINE
  5
1E9BC
330
747D
100
AcDbEntity
  8
寸法
 48
50.0
100
AcDbLine
 10
10121.83324384557
 20
8192.179730466252
 30
0.0
 11
10121.83324384557
 21
8192.179730466252
 31
0.0
  0
LINE
  5
1E9BD
330
747D
100
AcDbEntity
  8
寸法
 48
50.0
100
AcDbLine
 10
10105.95824384557
 20
8192.179730466252
 30
0.0
 11
10105.95824384557
 21
8192.179730466252
 31
0.0
  0
LINE
  5
1E9BE
330
747D
100
AcDbEntity
  8
寸法
 48
50.0
100
AcDbLine
 10
10090.08324384557
 20
8192.179730466252
 30
0.0
 11
10090.08324384557
 21
8192.179730466252
 31
0.0
  0
LINE
  5
1E9BF
330
747D
100
AcDbEntity
  8
寸法
 48
50.0
100
AcDbLine
 10
10129.77074384557
 20
8176.304730466252
 30
0.0
 11
10129.77074384557
 21
8176.304730466252
 31
0.0
  0
LINE
  5
1E9C0
330
747D
100
AcDbEntity
  8
寸法
 48
50.0
100
AcDbLine
 10
10145.64574384557
 20
8176.304730466252
 30
0.0
 11
10145.64574384557
 21
8176.304730466252
 31
0.0
  0
LINE
  5
1E9C1
330
747D
100
AcDbEntity
  8
寸法
 48
50.0
100
AcDbLine
 10
10113.89574384557
 20
8176.304730466252
 30
0.0
 11
10113.89574384557
 21
8176.304730466252
 31
0.0
  0
LINE
  5
1E9C2
330
747D
100
AcDbEntity
  8
寸法
 48
50.0
100
AcDbLine
 10
10098.02074384557
 20
8176.304730466252
 30
0.0
 11
10098.02074384557
 21
8176.304730466252
 31
0.0
  0
LINE
  5
1E9C3
330
747D
100
AcDbEntity
  8
寸法
 48
50.0
100
AcDbLine
 10
10137.70824384557
 20
8160.429730466253
 30
0.0
 11
10137.70824384557
 21
8160.429730466253
 31
0.0
  0
LINE
  5
1E9C4
330
747D
100
AcDbEntity
  8
寸法
 48
50.0
100
AcDbLine
 10
10121.83324384557
 20
8160.429730466253
 30
0.0
 11
10121.83324384557
 21
8160.429730466253
 31
0.0
  0
LINE
  5
1E9C5
330
747D
100
AcDbEntity
  8
寸法
 48
50.0
100
AcDbLine
 10
10105.95824384557
 20
8160.429730466253
 30
0.0
 11
10105.95824384557
 21
8160.429730466253
 31
0.0
  0
LINE
  5
1E9C6
330
747D
100
AcDbEntity
  8
寸法
 48
50.0
100
AcDbLine
 10
10090.08324384557
 20
8160.429730466253
 30
0.0
 11
10090.08324384557
 21
8160.429730466253
 31
0.0
  0
LINE
  5
1E9C7
330
747D
100
AcDbEntity
  8
寸法
 48
50.0
100
AcDbLine
 10
9947.208243845574
 20
8192.179730466252
 30
0.0
 11
9947.208243845574
 21
8192.179730466252
 31
0.0
  0
LINE
  5
1E9C8
330
747D
100
AcDbEntity
  8
寸法
 48
50.0
100
AcDbLine
 10
9947.208243845574
 20
8160.429730466253
 30
0.0
 11
9947.208243845574
 21
8160.429730466253
 31
0.0
  0
LINE
  5
1E9C9
330
747D
100
AcDbEntity
  8
寸法
 48
50.0
100
AcDbLine
 10
10034.52074384557
 20
8208.054730466253
 30
0.0
 11
10034.52074384557
 21
8208.054730466253
 31
0.0
  0
LINE
  5
1E9CA
330
747D
100
AcDbEntity
  8
寸法
 48
50.0
100
AcDbLine
 10
10082.14574384557
 20
8208.054730466253
 30
0.0
 11
10082.14574384557
 21
8208.054730466253
 31
0.0
  0
LINE
  5
1E9CB
330
747D
100
AcDbEntity
  8
寸法
 48
50.0
100
AcDbLine
 10
10066.27074384557
 20
8208.054730466253
 30
0.0
 11
10066.27074384557
 21
8208.054730466253
 31
0.0
  0
LINE
  5
1E9CC
330
747D
100
AcDbEntity
  8
寸法
 48
50.0
100
AcDbLine
 10
10074.20824384557
 20
8192.179730466252
 30
0.0
 11
10074.20824384557
 21
8192.179730466252
 31
0.0
  0
LINE
  5
1E9CD
330
747D
100
AcDbEntity
  8
寸法
 48
50.0
100
AcDbLine
 10
10042.45824384557
 20
8192.179730466252
 30
0.0
 11
10042.45824384557
 21
8192.179730466252
 31
0.0
  0
LINE
  5
1E9CE
330
747D
100
AcDbEntity
  8
寸法
 48
50.0
100
AcDbLine
 10
10050.39574384557
 20
8208.054730466253
 30
0.0
 11
10050.39574384557
 21
8208.054730466253
 31
0.0
  0
LINE
  5
1E9CF
330
747D
100
AcDbEntity
  8
寸法
 48
50.0
100
AcDbLine
 10
10058.33324384557
 20
8192.179730466252
 30
0.0
 11
10058.33324384557
 21
8192.179730466252
 31
0.0
  0
LINE
  5
1E9D0
330
747D
100
AcDbEntity
  8
寸法
 48
50.0
100
AcDbLine
 10
9955.145743845577
 20
8208.054730466253
 30
0.0
 11
9955.145743845577
 21
8208.054730466253
 31
0.0
  0
LINE
  5
1E9D1
330
747D
100
AcDbEntity
  8
寸法
 48
50.0
100
AcDbLine
 10
10026.58324384557
 20
8192.179730466252
 30
0.0
 11
10026.58324384557
 21
8192.179730466252
 31
0.0
  0
LINE
  5
1E9D2
330
747D
100
AcDbEntity
  8
寸法
 48
50.0
100
AcDbLine
 10
10018.64574384557
 20
8208.054730466253
 30
0.0
 11
10018.64574384557
 21
8208.054730466253
 31
0.0
  0
LINE
  5
1E9D3
330
747D
100
AcDbEntity
  8
寸法
 48
50.0
100
AcDbLine
 10
10010.70824384557
 20
8192.179730466252
 30
0.0
 11
10010.70824384557
 21
8192.179730466252
 31
0.0
  0
LINE
  5
1E9D4
330
747D
100
AcDbEntity
  8
寸法
 48
50.0
100
AcDbLine
 10
10002.77074384557
 20
8208.054730466253
 30
0.0
 11
10002.77074384557
 21
8208.054730466253
 31
0.0
  0
LINE
  5
1E9D5
330
747D
100
AcDbEntity
  8
寸法
 48
50.0
100
AcDbLine
 10
9994.833243845576
 20
8192.179730466252
 30
0.0
 11
9994.833243845576
 21
8192.179730466252
 31
0.0
  0
LINE
  5
1E9D6
330
747D
100
AcDbEntity
  8
寸法
 48
50.0
100
AcDbLine
 10
9971.020743845578
 20
8208.054730466253
 30
0.0
 11
9971.020743845578
 21
8208.054730466253
 31
0.0
  0
LINE
  5
1E9D7
330
747D
100
AcDbEntity
  8
寸法
 48
50.0
100
AcDbLine
 10
9978.958243845577
 20
8192.179730466252
 30
0.0
 11
9978.958243845577
 21
8192.179730466252
 31
0.0
  0
LINE
  5
1E9D8
330
747D
100
AcDbEntity
  8
寸法
 48
50.0
100
AcDbLine
 10
9963.083243845574
 20
8192.179730466252
 30
0.0
 11
9963.083243845574
 21
8192.179730466252
 31
0.0
  0
LINE
  5
1E9D9
330
747D
100
AcDbEntity
  8
寸法
 48
50.0
100
AcDbLine
 10
9986.895743845577
 20
8208.054730466253
 30
0.0
 11
9986.895743845577
 21
8208.054730466253
 31
0.0
  0
LINE
  5
1E9DA
330
747D
100
AcDbEntity
  8
寸法
 48
50.0
100
AcDbLine
 10
10034.52074384557
 20
8176.304730466252
 30
0.0
 11
10034.52074384557
 21
8176.304730466252
 31
0.0
  0
LINE
  5
1E9DB
330
747D
100
AcDbEntity
  8
寸法
 48
50.0
100
AcDbLine
 10
10082.14574384557
 20
8176.304730466252
 30
0.0
 11
10082.14574384557
 21
8176.304730466252
 31
0.0
  0
LINE
  5
1E9DC
330
747D
100
AcDbEntity
  8
寸法
 48
50.0
100
AcDbLine
 10
10066.27074384557
 20
8176.304730466252
 30
0.0
 11
10066.27074384557
 21
8176.304730466252
 31
0.0
  0
LINE
  5
1E9DD
330
747D
100
AcDbEntity
  8
寸法
 48
50.0
100
AcDbLine
 10
10074.20824384557
 20
8160.429730466253
 30
0.0
 11
10074.20824384557
 21
8160.429730466253
 31
0.0
  0
LINE
  5
1E9DE
330
747D
100
AcDbEntity
  8
寸法
 48
50.0
100
AcDbLine
 10
10042.45824384557
 20
8160.429730466253
 30
0.0
 11
10042.45824384557
 21
8160.429730466253
 31
0.0
  0
LINE
  5
1E9DF
330
747D
100
AcDbEntity
  8
寸法
 48
50.0
100
AcDbLine
 10
10050.39574384557
 20
8176.304730466252
 30
0.0
 11
10050.39574384557
 21
8176.304730466252
 31
0.0
  0
LINE
  5
1E9E0
330
747D
100
AcDbEntity
  8
寸法
 48
50.0
100
AcDbLine
 10
10058.33324384557
 20
8160.429730466253
 30
0.0
 11
10058.33324384557
 21
8160.429730466253
 31
0.0
  0
LINE
  5
1E9E1
330
747D
100
AcDbEntity
  8
寸法
 48
50.0
100
AcDbLine
 10
10010.70824384557
 20
8160.429730466253
 30
0.0
 11
10010.70824384557
 21
8160.429730466253
 31
0.0
  0
LINE
  5
1E9E2
330
747D
100
AcDbEntity
  8
寸法
 48
50.0
100
AcDbLine
 10
9955.145743845577
 20
8176.304730466252
 30
0.0
 11
9955.145743845577
 21
8176.304730466252
 31
0.0
  0
LINE
  5
1E9E3
330
747D
100
AcDbEntity
  8
寸法
 48
50.0
100
AcDbLine
 10
10026.58324384557
 20
8160.429730466253
 30
0.0
 11
10026.58324384557
 21
8160.429730466253
 31
0.0
  0
LINE
  5
1E9E4
330
747D
100
AcDbEntity
  8
寸法
 48
50.0
100
AcDbLine
 10
10018.64574384557
 20
8176.304730466252
 30
0.0
 11
10018.64574384557
 21
8176.304730466252
 31
0.0
  0
LINE
  5
1E9E5
330
747D
100
AcDbEntity
  8
寸法
 48
50.0
100
AcDbLine
 10
10002.77074384557
 20
8176.304730466252
 30
0.0
 11
10002.77074384557
 21
8176.304730466252
 31
0.0
  0
LINE
  5
1E9E6
330
747D
100
AcDbEntity
  8
寸法
 48
50.0
100
AcDbLine
 10
9994.833243845576
 20
8160.429730466253
 30
0.0
 11
9994.833243845576
 21
8160.429730466253
 31
0.0
  0
LINE
  5
1E9E7
330
747D
100
AcDbEntity
  8
寸法
 48
50.0
100
AcDbLine
 10
9971.020743845578
 20
8176.304730466252
 30
0.0
 11
9971.020743845578
 21
8176.304730466252
 31
0.0
  0
LINE
  5
1E9E8
330
747D
100
AcDbEntity
  8
寸法
 48
50.0
100
AcDbLine
 10
9978.958243845577
 20
8160.429730466253
 30
0.0
 11
9978.958243845577
 21
8160.429730466253
 31
0.0
  0
LINE
  5
1E9E9
330
747D
100
AcDbEntity
  8
寸法
 48
50.0
100
AcDbLine
 10
9963.083243845574
 20
8160.429730466253
 30
0.0
 11
9963.083243845574
 21
8160.429730466253
 31
0.0
  0
LINE
  5
1E9EA
330
747D
100
AcDbEntity
  8
寸法
 48
50.0
100
AcDbLine
 10
9986.895743845577
 20
8176.304730466252
 30
0.0
 11
9986.895743845577
 21
8176.304730466252
 31
0.0
  0
LINE
  5
1E9FD
330
747D
100
AcDbEntity
  8
寸法
 48
50.0
100
AcDbLine
 10
10153.58324384557
 20
8192.179730466252
 30
0.0
 11
10153.58324384557
 21
8192.179730466252
 31
0.0
  0
LINE
  5
1E9FE
330
747D
100
AcDbEntity
  8
寸法
 48
50.0
100
AcDbLine
 10
10153.58324384557
 20
8160.429730466253
 30
0.0
 11
10153.58324384557
 21
8160.429730466253
 31
0.0
  0
LINE
  5
1EA0B
330
747D
100
AcDbEntity
  8
寸法
 48
50.0
100
AcDbLine
 10
10185.33324384557
 20
8192.179730466252
 30
0.0
 11
10185.33324384557
 21
8192.179730466252
 31
0.0
  0
LINE
  5
1EA0C
330
747D
100
AcDbEntity
  8
寸法
 48
50.0
100
AcDbLine
 10
10193.27074384557
 20
8208.054730466253
 30
0.0
 11
10193.27074384557
 21
8208.054730466253
 31
0.0
  0
LINE
  5
1EA0D
330
747D
100
AcDbEntity
  8
寸法
 48
50.0
100
AcDbLine
 10
10161.52074384557
 20
8208.054730466253
 30
0.0
 11
10161.52074384557
 21
8208.054730466253
 31
0.0
  0
LINE
  5
1EA0E
330
747D
100
AcDbEntity
  8
寸法
 48
50.0
100
AcDbLine
 10
10177.39574384557
 20
8208.054730466253
 30
0.0
 11
10177.39574384557
 21
8208.054730466253
 31
0.0
  0
LINE
  5
1EA0F
330
747D
100
AcDbEntity
  8
寸法
 48
50.0
100
AcDbLine
 10
10169.45824384557
 20
8192.179730466252
 30
0.0
 11
10169.45824384557
 21
8192.179730466252
 31
0.0
  0
LINE
  5
1EA11
330
747D
100
AcDbEntity
  8
寸法
 48
50.0
100
AcDbLine
 10
10201.20824384557
 20
8192.179730466252
 30
0.0
 11
10201.20824384557
 21
8192.179730466252
 31
0.0
  0
LINE
  5
1EA13
330
747D
100
AcDbEntity
  8
寸法
 48
50.0
100
AcDbLine
 10
10209.14574384557
 20
8208.054730466253
 30
0.0
 11
10209.14574384557
 21
8208.054730466253
 31
0.0
  0
LINE
  5
1EA14
330
747D
100
AcDbEntity
  8
寸法
 48
50.0
100
AcDbLine
 10
10217.08324384557
 20
8192.179730466252
 30
0.0
 11
10217.08324384557
 21
8192.179730466252
 31
0.0
  0
LINE
  5
1EA15
330
747D
100
AcDbEntity
  8
寸法
 48
50.0
100
AcDbLine
 10
10185.33324384557
 20
8160.429730466253
 30
0.0
 11
10185.33324384557
 21
8160.429730466253
 31
0.0
  0
LINE
  5
1EA16
330
747D
100
AcDbEntity
  8
寸法
 48
50.0
100
AcDbLine
 10
10193.27074384557
 20
8176.304730466252
 30
0.0
 11
10193.27074384557
 21
8176.304730466252
 31
0.0
  0
LINE
  5
1EA17
330
747D
100
AcDbEntity
  8
寸法
 48
50.0
100
AcDbLine
 10
10161.52074384557
 20
8176.304730466252
 30
0.0
 11
10161.52074384557
 21
8176.304730466252
 31
0.0
  0
LINE
  5
1EA18
330
747D
100
AcDbEntity
  8
寸法
 48
50.0
100
AcDbLine
 10
10177.39574384557
 20
8176.304730466252
 30
0.0
 11
10177.39574384557
 21
8176.304730466252
 31
0.0
  0
LINE
  5
1EA19
330
747D
100
AcDbEntity
  8
寸法
 48
50.0
100
AcDbLine
 10
10169.45824384557
 20
8160.429730466253
 30
0.0
 11
10169.45824384557
 21
8160.429730466253
 31
0.0
  0
LINE
  5
1EA1C
330
747D
100
AcDbEntity
  8
寸法
 48
50.0
100
AcDbLine
 10
10209.14574384557
 20
8176.304730466252
 30
0.0
 11
10209.14574384557
 21
8176.304730466252
 31
0.0
  0
LINE
  5
1EA1D
330
747D
100
AcDbEntity
  8
寸法
 48
50.0
100
AcDbLine
 10
10217.08324384557
 20
8160.429730466253
 30
0.0
 11
10217.08324384557
 21
8160.429730466253
 31
0.0
  0
LINE
  5
1EA1E
330
747D
100
AcDbEntity
  8
寸法
 48
50.0
100
AcDbLine
 10
10201.20824384557
 20
8160.429730466253
 30
0.0
 11
10201.20824384557
 21
8160.429730466253
 31
0.0
  0
LINE
  5
1EA1F
330
747D
100
AcDbEntity
  8
寸法
 48
50.0
100
AcDbLine
 10
10558.39574384557
 20
8208.054730466253
 30
0.0
 11
10558.39574384557
 21
8208.054730466253
 31
0.0
  0
LINE
  5
1EA20
330
747D
100
AcDbEntity
  8
寸法
 48
50.0
100
AcDbLine
 10
10542.52074384557
 20
8208.054730466253
 30
0.0
 11
10542.52074384557
 21
8208.054730466253
 31
0.0
  0
LINE
  5
1EA21
330
747D
100
AcDbEntity
  8
寸法
 48
50.0
100
AcDbLine
 10
10526.64574384557
 20
8208.054730466253
 30
0.0
 11
10526.64574384557
 21
8208.054730466253
 31
0.0
  0
LINE
  5
1EA22
330
747D
100
AcDbEntity
  8
寸法
 48
50.0
100
AcDbLine
 10
10510.77074384557
 20
8208.054730466253
 30
0.0
 11
10510.77074384557
 21
8208.054730466253
 31
0.0
  0
LINE
  5
1EA23
330
747D
100
AcDbEntity
  8
寸法
 48
50.0
100
AcDbLine
 10
10550.45824384557
 20
8192.179730466252
 30
0.0
 11
10550.45824384557
 21
8192.179730466252
 31
0.0
  0
LINE
  5
1EA24
330
747D
100
AcDbEntity
  8
寸法
 48
50.0
100
AcDbLine
 10
10534.58324384557
 20
8192.179730466252
 30
0.0
 11
10534.58324384557
 21
8192.179730466252
 31
0.0
  0
LINE
  5
1EA25
330
747D
100
AcDbEntity
  8
寸法
 48
50.0
100
AcDbLine
 10
10518.70824384557
 20
8192.179730466252
 30
0.0
 11
10518.70824384557
 21
8192.179730466252
 31
0.0
  0
LINE
  5
1EA26
330
747D
100
AcDbEntity
  8
寸法
 48
50.0
100
AcDbLine
 10
10494.89574384557
 20
8208.054730466253
 30
0.0
 11
10494.89574384557
 21
8208.054730466253
 31
0.0
  0
LINE
  5
1EA27
330
747D
100
AcDbEntity
  8
寸法
 48
50.0
100
AcDbLine
 10
10502.83324384557
 20
8192.179730466252
 30
0.0
 11
10502.83324384557
 21
8192.179730466252
 31
0.0
  0
LINE
  5
1EA28
330
747D
100
AcDbEntity
  8
寸法
 48
50.0
100
AcDbLine
 10
10558.39574384557
 20
8176.304730466252
 30
0.0
 11
10558.39574384557
 21
8176.304730466252
 31
0.0
  0
LINE
  5
1EA29
330
747D
100
AcDbEntity
  8
寸法
 48
50.0
100
AcDbLine
 10
10542.52074384557
 20
8176.304730466252
 30
0.0
 11
10542.52074384557
 21
8176.304730466252
 31
0.0
  0
LINE
  5
1EA2A
330
747D
100
AcDbEntity
  8
寸法
 48
50.0
100
AcDbLine
 10
10526.64574384557
 20
8176.304730466252
 30
0.0
 11
10526.64574384557
 21
8176.304730466252
 31
0.0
  0
LINE
  5
1EA2B
330
747D
100
AcDbEntity
  8
寸法
 48
50.0
100
AcDbLine
 10
10510.77074384557
 20
8176.304730466252
 30
0.0
 11
10510.77074384557
 21
8176.304730466252
 31
0.0
  0
LINE
  5
1EA2C
330
747D
100
AcDbEntity
  8
寸法
 48
50.0
100
AcDbLine
 10
10550.45824384557
 20
8160.429730466253
 30
0.0
 11
10550.45824384557
 21
8160.429730466253
 31
0.0
  0
LINE
  5
1EA2D
330
747D
100
AcDbEntity
  8
寸法
 48
50.0
100
AcDbLine
 10
10534.58324384557
 20
8160.429730466253
 30
0.0
 11
10534.58324384557
 21
8160.429730466253
 31
0.0
  0
LINE
  5
1EA2E
330
747D
100
AcDbEntity
  8
寸法
 48
50.0
100
AcDbLine
 10
10518.70824384557
 20
8160.429730466253
 30
0.0
 11
10518.70824384557
 21
8160.429730466253
 31
0.0
  0
LINE
  5
1EA2F
330
747D
100
AcDbEntity
  8
寸法
 48
50.0
100
AcDbLine
 10
10494.89574384557
 20
8176.304730466252
 30
0.0
 11
10494.89574384557
 21
8176.304730466252
 31
0.0
  0
LINE
  5
1EA30
330
747D
100
AcDbEntity
  8
寸法
 48
50.0
100
AcDbLine
 10
10502.83324384557
 20
8160.429730466253
 30
0.0
 11
10502.83324384557
 21
8160.429730466253
 31
0.0
  0
LINE
  5
1EA31
330
747D
100
AcDbEntity
  8
寸法
 48
50.0
100
AcDbLine
 10
10479.02074384557
 20
8208.054730466253
 30
0.0
 11
10479.02074384557
 21
8208.054730466253
 31
0.0
  0
LINE
  5
1EA32
330
747D
100
AcDbEntity
  8
寸法
 48
50.0
100
AcDbLine
 10
10486.95824384557
 20
8192.179730466252
 30
0.0
 11
10486.95824384557
 21
8192.179730466252
 31
0.0
  0
LINE
  5
1EA33
330
747D
100
AcDbEntity
  8
寸法
 48
50.0
100
AcDbLine
 10
10471.08324384557
 20
8192.179730466252
 30
0.0
 11
10471.08324384557
 21
8192.179730466252
 31
0.0
  0
LINE
  5
1EA34
330
747D
100
AcDbEntity
  8
寸法
 48
50.0
100
AcDbLine
 10
10447.27074384557
 20
8208.054730466253
 30
0.0
 11
10447.27074384557
 21
8208.054730466253
 31
0.0
  0
LINE
  5
1EA35
330
747D
100
AcDbEntity
  8
寸法
 48
50.0
100
AcDbLine
 10
10455.20824384557
 20
8192.179730466252
 30
0.0
 11
10455.20824384557
 21
8192.179730466252
 31
0.0
  0
LINE
  5
1EA36
330
747D
100
AcDbEntity
  8
寸法
 48
50.0
100
AcDbLine
 10
10463.14574384557
 20
8208.054730466253
 30
0.0
 11
10463.14574384557
 21
8208.054730466253
 31
0.0
  0
LINE
  5
1EA3A
330
747D
100
AcDbEntity
  8
寸法
 48
50.0
100
AcDbLine
 10
10431.39574384557
 20
8208.054730466253
 30
0.0
 11
10431.39574384557
 21
8208.054730466253
 31
0.0
  0
LINE
  5
1EA3B
330
747D
100
AcDbEntity
  8
寸法
 48
50.0
100
AcDbLine
 10
10439.33324384557
 20
8192.179730466252
 30
0.0
 11
10439.33324384557
 21
8192.179730466252
 31
0.0
  0
LINE
  5
1EA3E
330
747D
100
AcDbEntity
  8
寸法
 48
50.0
100
AcDbLine
 10
10423.45824384557
 20
8192.179730466252
 30
0.0
 11
10423.45824384557
 21
8192.179730466252
 31
0.0
  0
LINE
  5
1EA42
330
747D
100
AcDbEntity
  8
寸法
 48
50.0
100
AcDbLine
 10
10479.02074384557
 20
8176.304730466252
 30
0.0
 11
10479.02074384557
 21
8176.304730466252
 31
0.0
  0
LINE
  5
1EA43
330
747D
100
AcDbEntity
  8
寸法
 48
50.0
100
AcDbLine
 10
10486.95824384557
 20
8160.429730466253
 30
0.0
 11
10486.95824384557
 21
8160.429730466253
 31
0.0
  0
LINE
  5
1EA44
330
747D
100
AcDbEntity
  8
寸法
 48
50.0
100
AcDbLine
 10
10471.08324384557
 20
8160.429730466253
 30
0.0
 11
10471.08324384557
 21
8160.429730466253
 31
0.0
  0
LINE
  5
1EA45
330
747D
100
AcDbEntity
  8
寸法
 48
50.0
100
AcDbLine
 10
10447.27074384557
 20
8176.304730466252
 30
0.0
 11
10447.27074384557
 21
8176.304730466252
 31
0.0
  0
LINE
  5
1EA46
330
747D
100
AcDbEntity
  8
寸法
 48
50.0
100
AcDbLine
 10
10455.20824384557
 20
8160.429730466253
 30
0.0
 11
10455.20824384557
 21
8160.429730466253
 31
0.0
  0
LINE
  5
1EA47
330
747D
100
AcDbEntity
  8
寸法
 48
50.0
100
AcDbLine
 10
10463.14574384557
 20
8176.304730466252
 30
0.0
 11
10463.14574384557
 21
8176.304730466252
 31
0.0
  0
LINE
  5
1EA4B
330
747D
100
AcDbEntity
  8
寸法
 48
50.0
100
AcDbLine
 10
10431.39574384557
 20
8176.304730466252
 30
0.0
 11
10431.39574384557
 21
8176.304730466252
 31
0.0
  0
LINE
  5
1EA4C
330
747D
100
AcDbEntity
  8
寸法
 48
50.0
100
AcDbLine
 10
10439.33324384557
 20
8160.429730466253
 30
0.0
 11
10439.33324384557
 21
8160.429730466253
 31
0.0
  0
LINE
  5
1EA50
330
747D
100
AcDbEntity
  8
寸法
 48
50.0
100
AcDbLine
 10
10423.45824384557
 20
8160.429730466253
 30
0.0
 11
10423.45824384557
 21
8160.429730466253
 31
0.0
  0
LINE
  5
1EA53
330
747D
100
AcDbEntity
  8
寸法
 48
50.0
100
AcDbLine
 10
10566.33324384557
 20
8192.179730466252
 30
0.0
 11
10566.33324384557
 21
8192.179730466252
 31
0.0
  0
LINE
  5
1EA54
330
747D
100
AcDbEntity
  8
寸法
 48
50.0
100
AcDbLine
 10
10574.27074384557
 20
8208.054730466253
 30
0.0
 11
10574.27074384557
 21
8208.054730466253
 31
0.0
  0
LINE
  5
1EA55
330
747D
100
AcDbEntity
  8
寸法
 48
50.0
100
AcDbLine
 10
10574.27074384557
 20
8176.304730466252
 30
0.0
 11
10574.27074384557
 21
8176.304730466252
 31
0.0
  0
LINE
  5
1EA56
330
747D
100
AcDbEntity
  8
寸法
 48
50.0
100
AcDbLine
 10
10566.33324384557
 20
8160.429730466253
 30
0.0
 11
10566.33324384557
 21
8160.429730466253
 31
0.0
  0
LINE
  5
1EA57
330
747D
100
AcDbEntity
  8
寸法
 48
50.0
100
AcDbLine
 10
10613.95824384557
 20
8160.429730466253
 30
0.0
 11
10613.95824384557
 21
8160.429730466253
 31
0.0
  0
LINE
  5
1EA5A
330
747D
100
AcDbEntity
  8
寸法
 48
50.0
100
AcDbLine
 10
10613.95824384557
 20
8192.179730466252
 30
0.0
 11
10613.95824384557
 21
8192.179730466252
 31
0.0
  0
LINE
  5
1EA5B
330
747D
100
AcDbEntity
  8
寸法
 48
50.0
100
AcDbLine
 10
10582.20824384557
 20
8160.429730466253
 30
0.0
 11
10582.20824384557
 21
8160.429730466253
 31
0.0
  0
LINE
  5
1EA5C
330
747D
100
AcDbEntity
  8
寸法
 48
50.0
100
AcDbLine
 10
10598.08324384557
 20
8160.429730466253
 30
0.0
 11
10598.08324384557
 21
8160.429730466253
 31
0.0
  0
LINE
  5
1EA5E
330
747D
100
AcDbEntity
  8
寸法
 48
50.0
100
AcDbLine
 10
10590.14574384557
 20
8176.304730466252
 30
0.0
 11
10590.14574384557
 21
8176.304730466252
 31
0.0
  0
LINE
  5
1EA5F
330
747D
100
AcDbEntity
  8
寸法
 48
50.0
100
AcDbLine
 10
10606.02074384557
 20
8176.304730466252
 30
0.0
 11
10606.02074384557
 21
8176.304730466252
 31
0.0
  0
LINE
  5
1EA60
330
747D
100
AcDbEntity
  8
寸法
 48
50.0
100
AcDbLine
 10
10582.20824384557
 20
8192.179730466252
 30
0.0
 11
10582.20824384557
 21
8192.179730466252
 31
0.0
  0
LINE
  5
1EA61
330
747D
100
AcDbEntity
  8
寸法
 48
50.0
100
AcDbLine
 10
10598.08324384557
 20
8192.179730466252
 30
0.0
 11
10598.08324384557
 21
8192.179730466252
 31
0.0
  0
LINE
  5
1EA63
330
747D
100
AcDbEntity
  8
寸法
 48
50.0
100
AcDbLine
 10
10590.14574384557
 20
8208.054730466253
 30
0.0
 11
10590.14574384557
 21
8208.054730466253
 31
0.0
  0
LINE
  5
1EA64
330
747D
100
AcDbEntity
  8
寸法
 48
50.0
100
AcDbLine
 10
10606.02074384557
 20
8208.054730466253
 30
0.0
 11
10606.02074384557
 21
8208.054730466253
 31
0.0
  0
DIMENSION
  5
1EA65
330
747D
100
AcDbEntity
  8
寸法
 48
50.0
100
AcDbDimension
  2
*D27
 10
10995.64196531964
 20
8338.179730466265
 30
0.0
 11
10995.64196531963
 21
7880.073128748469
 31
0.0
 70
   160
 71
     5
 42
184.9999999999972
  3
INABA_S50G
100
AcDbAlignedDimension
 13
10618.58324384558
 23
8153.179730466268
 33
0.0
 14
10618.58324384558
 24
8338.179730466265
 34
0.0
 50
90.0
100
AcDbRotatedDimension
1001
ACAD
1000
DSTYLE
1002
{
1070
   341
1005
0
1002
}
  0
DIMENSION
  5
1F05F
330
747D
100
AcDbEntity
  8
寸法
 48
50.0
100
AcDbDimension
  2
*D28
 10
10951.98576034072
 20
10688.17973046626
 30
0.0
 11
10951.98576034072
 21
11005.06086955259
 31
0.0
 70
   160
 71
     5
 42
119.9999999999945
  3
INABA_S50G
100
AcDbAlignedDimension
 13
10549.41728400673
 23
10568.17973046627
 33
0.0
 14
10549.41728400673
 24
10688.17973046626
 34
0.0
 50
90.0
100
AcDbRotatedDimension
1001
ACAD
1000
DSTYLE
1002
{
1070
   341
1005
0
1002
}
  0
DIMENSION
  5
1F08C
330
747D
100
AcDbEntity
  8
寸法
 48
50.0
100
AcDbDimension
  2
*D29
 10
11846.58324384558
 20
8756.57622937298
 30
0.0
 11
12116.64229896369
 21
8756.57622937298
 31
0.0
 70
   160
 71
     5
 42
120.0000000000018
  3
INABA_S50G
100
AcDbAlignedDimension
 13
11726.58324384557
 23
8996.577675988952
 33
0.0
 14
11846.58324384558
 24
8996.577675988952
 34
0.0
100
AcDbRotatedDimension
1001
ACAD
1000
DSTYLE
1002
{
1070
   341
1005
0
1002
}
  0
LINE
  5
1F437
330
747D
100
AcDbEntity
  8
細線
 48
50.0
100
AcDbLine
 10
9623.985616045755
 20
3687.383248035109
 30
0.0
 11
13180.62916541828
 21
3687.383248035111
 31
0.0
  0
TEXT
  5
1F438
330
747D
100
AcDbEntity
  8
部品1
 48
50.0
100
AcDbText
 10
9625.133812585064
 20
2466.691808870421
 30
0.0
 40
100.0
  1
M12×200(市販品)
  7
STYLE1
100
AcDbText
  0
LINE
  5
1F439
330
747D
100
AcDbEntity
  8
細線
 48
50.0
100
AcDbLine
 10
5058.05248812529
 20
781.7215747943517
 30
0.0
 11
13180.62916541829
 21
781.7215747943532
 31
0.0
  0
MTEXT
  5
1F43A
102
{ACAD_REACTORS
330
1F43B
102
}
330
747D
100
AcDbEntity
  8
寸法
 62
     7
 48
50.0
100
AcDbMText
 10
9635.642688342088
 20
2667.133572067624
 30
0.0
 40
100.0
 41
0.0
 71
     4
 72
     1
  1
アンカーボルト
  7
STYLE1
 73
     1
 44
1.0
1001
ACAD
1000
MTEXTBEGIN
1070
    73
1070
     1
1070
    44
1040
1.0
1070
    74
1070
     0
1000
MTEXTEND
  0
LEADER
  5
1F43B
330
747D
100
AcDbEntity
  8
寸法
 48
50.0
100
AcDbLeader
  3
INABA_S50G
 71
     0
 73
     0
 74
     0
 75
     1
 40
100.0
 41
828.6243686707642
 76
     3
 10
9337.942522877465
 20
2748.697284297769
 30
0.0
 10
9485.642688342087
 20
2592.133572067624
 30
0.0
 10
9610.642688342089
 20
2592.133572067624
 30
0.0
340
1F43A
  0
LINE
  5
1F43C
330
747D
100
AcDbEntity
  8
Ｇ．Ｌ
 48
50.0
100
AcDbLine
 10
9420.942522877469
 20
2372.533391435691
 30
0.0
 11
9938.617400168666
 21
2372.533391435691
 31
0.0
  0
LINE
  5
1F43D
330
747D
100
AcDbEntity
  8
部品1
100
AcDbLine
 10
9278.173292108233
 20
2970.389591990077
 30
0.0
 11
9278.173292108233
 21
2996.23574583623
 31
0.0
  0
LINE
  5
1F43E
330
747D
100
AcDbEntity
  8
部品1
100
AcDbLine
 10
9310.480984415928
 20
2996.23574583623
 30
0.0
 11
9310.480984415928
 21
2970.389591990077
 31
0.0
  0
DIMENSION
  5
1F43F
330
747D
100
AcDbEntity
  8
寸法
 48
50.0
100
AcDbDimension
  2
*D30
 10
9324.442522877466
 20
3092.430626195716
 30
0.0
 11
8970.879329081348
 21
3092.430626195716
 31
0.0
 70
   160
  1
65
 71
     5
 42
143.5
  3
INABA_S50GUP
100
AcDbAlignedDimension
 13
9180.942522877465
 23
2848.697284297769
 33
0.0
 14
9324.442522877466
 24
2909.004976605461
 34
0.0
100
AcDbRotatedDimension
1001
ACAD
1000
DSTYLE
1002
{
1070
   140
1040
100.0
1002
}
  0
DIMENSION
  5
1F440
330
747D
100
AcDbEntity
  8
寸法
 48
50.0
100
AcDbDimension
  2
*D31
 10
9382.32713826208
 20
3314.009544247691
 30
0.0
 11
9287.01944595439
 21
3314.009544247691
 31
0.0
 70
   160
  1
88.5
 71
     5
 42
190.6153846153847
  3
INABA_S50GUP
100
AcDbAlignedDimension
 13
9191.711753646696
 23
2954.235745836229
 33
0.0
 14
9382.32713826208
 24
2955.312668913153
 34
0.0
100
AcDbRotatedDimension
1001
ACAD
1000
DSTYLE
1002
{
1070
   140
1040
100.0
1002
}
  0
DIMENSION
  5
1F441
330
747D
100
AcDbEntity
  8
寸法
 48
50.0
100
AcDbDimension
  2
*D32
 10
8639.557224956794
 20
2848.697284297769
 30
0.0
 11
8639.557224956794
 21
3178.21101335087
 31
0.0
 70
   160
  1
出30
 71
     5
 42
60.30769230769191
  3
INABA_S50GUP
100
AcDbAlignedDimension
 13
9310.942522877459
 23
2909.004976605461
 33
0.0
 14
9180.942522877465
 24
2848.697284297769
 34
0.0
 50
90.0
100
AcDbRotatedDimension
1001
ACAD
1000
DSTYLE
1002
{
1070
   140
1040
100.0
1002
}
  0
MTEXT
  5
1F442
102
{ACAD_REACTORS
330
1F4FE
102
}
330
747D
100
AcDbEntity
  8
寸法
 62
     7
 48
50.0
100
AcDbMText
 10
7842.487750945991
 20
3007.515183229115
 30
0.0
 40
100.0
 41
0.0
 71
     4
 72
     1
  1
C.B
  7
STYLE1
 73
     1
 44
1.0
1001
ACAD
1000
MTEXTBEGIN
1070
    73
1070
     1
1070
    44
1040
1.0
1070
    74
1070
     0
1000
MTEXTEND
  0
DIMENSION
  5
1F443
330
747D
100
AcDbEntity
  8
寸法
 48
50.0
100
AcDbDimension
  2
*D33
 10
6133.518619353055
 20
3173.16756453298
 30
0.0
 11
6253.518619353055
 21
3173.16756453298
 31
0.0
 70
   160
  1
120\P185
 71
     5
 42
240.0
  3
INABA_S50GUP
100
AcDbAlignedDimension
 13
6373.518619353055
 23
2773.16756453298
 33
0.0
 14
6133.518619353055
 24
2773.16756453298
 34
0.0
100
AcDbRotatedDimension
1001
ACAD
1000
DSTYLE
1002
{
1070
   140
1040
100.0
1002
}
  0
LINE
  5
1F444
330
747D
100
AcDbEntity
  8
細線
 48
50.0
100
AcDbLine
 10
5058.05248812529
 20
3687.383248035111
 30
0.0
 11
5058.05248812529
 21
781.7215747943515
 31
0.0
  0
LINE
  5
1F445
330
747D
100
AcDbEntity
  8
細線
 48
50.0
100
AcDbLine
 10
6386.423633506467
 20
1833.167564532979
 30
0.0
 11
6546.423633506474
 21
1993.16756453298
 31
0.0
  0
LINE
  5
1F446
330
747D
100
AcDbEntity
  8
細線
 48
50.0
100
AcDbLine
 10
6420.099593960483
 20
1833.167564532979
 30
0.0
 11
6553.518619353052
 21
1966.586589925553
 31
0.0
  0
LINE
  5
1F447
330
747D
100
AcDbEntity
  8
細線
 48
50.0
100
AcDbLine
 10
6453.775554414495
 20
1833.167564532979
 30
0.0
 11
6553.518619353052
 21
1932.910629471541
 31
0.0
  0
LINE
  5
1F448
330
747D
100
AcDbEntity
  8
部品1
 48
50.0
100
AcDbLine
 10
6373.518619353053
 20
1993.16756453298
 30
0.0
 11
6553.518619353052
 21
1993.16756453298
 31
0.0
  0
LINE
  5
1F449
330
747D
100
AcDbEntity
  8
細線
 48
50.0
100
AcDbLine
 10
6515.831317138546
 20
1693.16756453298
 30
0.0
 11
6553.518619353052
 21
1730.854866747485
 31
0.0
  0
LEADER
  5
1F44A
330
747D
100
AcDbEntity
  8
寸法
 48
50.0
100
AcDbLeader
  3
INABA_S50G
 71
     0
 73
     0
 74
     0
 75
     1
 40
101.39087296526
 41
170.0787401574803
 76
     3
 10
6413.518619353053
 20
1843.167564532979
 30
0.0
 10
6467.800169837173
 20
2066.512016160086
 30
0.0
 10
6592.800169837173
 20
2066.512016160086
 30
0.0
340
1F44B
  0
MTEXT
  5
1F44B
102
{ACAD_REACTORS
330
1F44A
102
}
330
747D
100
AcDbEntity
  8
寸法
 62
     7
 48
50.0
100
AcDbMText
 10
6617.800169837173
 20
2142.207452642715
 30
0.0
 40
100.0
 41
0.0
 71
     4
 72
     1
  1
D10
  7
STYLE1
 73
     1
 44
1.0
1001
ACAD
1000
MTEXTBEGIN
1070
    73
1070
     1
1070
    44
1040
1.0
1070
    74
1070
     0
1000
MTEXTEND
  0
LEADER
  5
1F44C
330
747D
100
AcDbEntity
  8
寸法
 48
50.0
100
AcDbLeader
  3
INABA_S50G
 71
     0
 73
     0
 74
     0
 75
     1
 40
132.9441738241594
 41
490.0787401574802
 76
     3
 10
6457.512550505555
 20
1824.453171763072
 30
0.0
 10
6611.505585512131
 20
1588.087338153612
 30
0.0
 10
6736.505585512131
 20
1588.087338153612
 30
0.0
340
1F44D
  0
MTEXT
  5
1F44D
102
{ACAD_REACTORS
330
1F44C
102
}
330
747D
100
AcDbEntity
  8
寸法
 62
     7
 48
50.0
100
AcDbMText
 10
6761.505585512131
 20
1679.559425065692
 30
0.0
 40
100.0
 41
0.0
 71
     4
 72
     1
  1
\A1;D10@300
  7
STYLE1
 73
     1
 44
1.0
1001
ACAD
1000
MTEXTBEGIN
1070
    73
1070
     1
1070
    44
1040
1.0
1070
    74
1070
     0
1000
MTEXTEND
  0
LINE
  5
1F44E
330
747D
100
AcDbEntity
  8
部品1
 48
50.0
100
AcDbLine
 10
7020.464199206308
 20
921.2895198945933
 30
0.0
 11
6380.464199206309
 21
921.2895198945933
 31
0.0
  0
LINE
  5
1F44F
330
747D
100
AcDbEntity
  8
部品1
 48
50.0
100
AcDbLine
 10
7020.464199206308
 20
1081.289519894593
 30
0.0
 11
6380.464199206309
 21
1081.289519894593
 31
0.0
  0
TEXT
  5
1F450
330
747D
100
AcDbEntity
  8
部品1
 48
50.0
100
AcDbText
 10
6422.654700550523
 20
952.4973060992653
 30
0.0
 40
96.0
  1
基礎断面
  7
STYLE2
100
AcDbText
  0
LINE
  5
1F451
330
747D
100
AcDbEntity
  8
Ｇ．Ｌ
 48
50.0
100
AcDbLine
 10
6373.518619353053
 20
2473.16756453298
 30
0.0
 11
8401.627578965126
 21
2473.16756453298
 31
0.0
  0
LINE
  5
1F452
330
747D
100
AcDbEntity
  8
部品1
 48
50.0
100
AcDbLine
 10
6653.518619353055
 20
1533.16756453298
 30
0.0
 11
5853.518619353053
 21
1533.16756453298
 31
0.0
  0
LINE
  5
1F453
330
747D
100
AcDbEntity
  8
部品1
 48
50.0
100
AcDbLine
 10
6653.518619353055
 20
1693.16756453298
 30
0.0
 11
5853.518619353053
 21
1693.16756453298
 31
0.0
  0
DIMENSION
  5
1F454
330
747D
100
AcDbEntity
  8
寸法
 48
50.0
100
AcDbDimension
  2
*D34
 10
6553.518619353055
 20
1234.215458077045
 30
0.0
 11
6253.518619353055
 21
1234.215458077045
 31
0.0
 70
   160
  1
300
 71
     5
 42
600.0
  3
INABA_S50GUP
100
AcDbAlignedDimension
 13
5953.518619353055
 23
1533.16756453298
 33
0.0
 14
6553.518619353055
 24
1533.16756453298
 34
0.0
100
AcDbRotatedDimension
1001
ACAD
1000
DSTYLE
1002
{
1070
   140
1040
100.0
1002
}
  0
LEADER
  5
1F455
330
747D
100
AcDbEntity
  8
寸法
 48
50.0
100
AcDbLeader
  3
INABA_S50G
 71
     0
 73
     0
 74
     0
 75
     1
 40
101.39087296526
 41
174.1421356237309
 76
     3
 10
6253.518619353055
 20
1843.167564532979
 30
0.0
 10
6536.921959709355
 20
1375.263738652581
 30
0.0
 10
6661.921959709355
 20
1375.263738652581
 30
0.0
340
1F456
  0
MTEXT
  5
1F456
102
{ACAD_REACTORS
330
1F455
102
}
330
747D
100
AcDbEntity
  8
寸法
 62
     7
 48
50.0
100
AcDbMText
 10
6686.921959709355
 20
1450.959175135211
 30
0.0
 40
100.0
 41
0.0
 71
     4
 72
     1
  1
D13
  7
STYLE1
 73
     1
 44
1.0
1001
ACAD
1000
MTEXTBEGIN
1070
    73
1070
     1
1070
    44
1040
1.0
1070
    74
1070
     0
1000
MTEXTEND
  0
LINE
  5
1F457
330
747D
100
AcDbEntity
  8
部品1
 48
50.0
100
AcDbLine
 10
6483.518619353053
 20
1813.167564532979
 30
0.0
 11
6483.518619353053
 21
1833.167564532979
 31
0.0
  0
LINE
  5
1F458
330
747D
100
AcDbEntity
  8
部品1
 48
50.0
100
AcDbLine
 10
6023.518619353055
 20
1813.167564532979
 30
0.0
 11
6023.518619353055
 21
1833.167564532979
 31
0.0
  0
LINE
  5
1F459
330
747D
100
AcDbEntity
  8
部品1
 48
50.0
100
AcDbLine
 10
5953.518619353054
 20
1693.16756453298
 30
0.0
 11
5953.518619353054
 21
1993.16756453298
 31
0.0
  0
LEADER
  5
1F45A
330
747D
100
AcDbEntity
  8
寸法
 48
50.0
100
AcDbLeader
  3
INABA_S50G
 71
     0
 73
     0
 75
     1
 40
101.39087296526
 41
170.0787401574803
 76
     3
 10
6093.264243500491
 20
1843.167564532979
 30
0.0
 10
5856.367957824344
 20
1498.193874746214
 30
0.0
 10
5731.367957824344
 20
1498.193874746214
 30
0.0
340
1F45B
  0
MTEXT
  5
1F45B
102
{ACAD_REACTORS
330
1F45A
102
}
330
747D
100
AcDbEntity
  8
寸法
 62
     7
 48
50.0
100
AcDbMText
 10
5706.367957824344
 20
1573.889311228844
 30
0.0
 40
100.0
 41
0.0
 71
     6
 72
     1
  1
D10
  7
STYLE1
 73
     1
 44
1.0
1001
ACAD
1000
MTEXTBEGIN
1070
    73
1070
     1
1070
    44
1040
1.0
1070
    74
1070
     0
1000
MTEXTEND
  0
DIMENSION
  5
1F45C
330
747D
100
AcDbEntity
  8
寸法
 48
50.0
100
AcDbDimension
  2
*D35
 10
5510.248275021447
 20
1693.16756453298
 30
0.0
 11
5510.248275021447
 21
1867.494158925123
 31
0.0
 70
   160
  1
150
 71
     5
 42
300.0
  3
INABA_S50GUP
100
AcDbAlignedDimension
 13
5973.518619353055
 23
1993.16756453298
 33
0.0
 14
5873.518619353055
 24
1693.16756453298
 34
0.0
 50
90.0
100
AcDbRotatedDimension
1001
ACAD
1000
DSTYLE
1002
{
1070
   140
1040
100.0
1002
}
  0
DIMENSION
  5
1F45D
330
747D
100
AcDbEntity
  8
寸法
 48
50.0
100
AcDbDimension
  2
*D36
 10
5279.0492515539
 20
1693.16756453298
 30
0.0
 11
5279.0492515539
 21
2269.96250113069
 31
0.0
 70
   160
  1
540
 71
     5
 42
1080.0
  3
INABA_S50GUP
100
AcDbAlignedDimension
 13
6133.518619353055
 23
2773.16756453298
 33
0.0
 14
5873.518619353055
 24
1693.16756453298
 34
0.0
 50
90.0
100
AcDbRotatedDimension
1001
ACAD
1000
DSTYLE
1002
{
1070
   140
1040
100.0
1002
}
  0
LINE
  5
1F45E
330
747D
100
AcDbEntity
  8
部品1
 48
50.0
100
AcDbLine
 10
6380.464199206309
 20
1081.289519894593
 30
0.0
 11
6380.464199206309
 21
921.2895198945933
 31
0.0
  0
LINE
  5
1F45F
330
747D
100
AcDbEntity
  8
細線
 48
50.0
100
AcDbLine
 10
6084.166461437562
 20
1533.16756453298
 30
0.0
 11
6127.038332226544
 21
1693.16756453298
 31
0.0
  0
LINE
  5
1F460
330
747D
100
AcDbEntity
  8
細線
 48
50.0
100
AcDbLine
 10
6010.691910328409
 20
1693.16756453298
 30
0.0
 11
6130.691910328408
 21
1813.167564532979
 31
0.0
  0
LINE
  5
1F461
330
747D
100
AcDbEntity
  8
細線
 48
50.0
100
AcDbLine
 10
6044.367870782415
 20
1693.16756453298
 30
0.0
 11
6164.367870782415
 21
1813.167564532979
 31
0.0
  0
LINE
  5
1F462
330
747D
100
AcDbEntity
  8
部品1
 48
50.0
100
AcDbLine
 10
6023.518619353055
 20
1813.167564532979
 30
0.0
 11
6483.518619353053
 21
1813.167564532979
 31
0.0
  0
LINE
  5
1F463
330
747D
100
AcDbEntity
  8
細線
 48
50.0
100
AcDbLine
 10
5985.5564052535
 20
1533.16756453298
 30
0.0
 11
6028.428276042482
 21
1693.16756453298
 31
0.0
  0
LINE
  5
1F464
330
747D
100
AcDbEntity
  8
細線
 48
50.0
100
AcDbLine
 10
5993.594881026439
 20
1563.167564532979
 30
0.0
 11
6001.633356799373
 21
1533.16756453298
 31
0.0
  0
LINE
  5
1F465
330
747D
100
AcDbEntity
  8
細線
 48
50.0
100
AcDbLine
 10
6092.2049372105
 20
1563.167564532979
 30
0.0
 11
6100.243412983433
 21
1533.16756453298
 31
0.0
  0
LINE
  5
1F466
330
747D
100
AcDbEntity
  8
部品1
 48
50.0
100
AcDbLine
 10
5853.518619353053
 20
1533.16756453298
 30
0.0
 11
5853.518619353053
 21
1693.16756453298
 31
0.0
  0
LINE
  5
1F467
330
747D
100
AcDbEntity
  8
細線
 48
50.0
100
AcDbLine
 10
5894.984824842377
 20
1563.167564532979
 30
0.0
 11
5903.02330061531
 21
1533.16756453298
 31
0.0
  0
LINE
  5
1F468
330
747D
100
AcDbEntity
  8
細線
 48
50.0
100
AcDbLine
 10
5886.94634906944
 20
1533.16756453298
 30
0.0
 11
5929.818219858422
 21
1693.16756453298
 31
0.0
  0
LINE
  5
1F469
330
747D
100
AcDbEntity
  8
細線
 48
50.0
100
AcDbLine
 10
5921.77974408549
 20
1663.167564532979
 30
0.0
 11
5913.741268312555
 21
1693.16756453298
 31
0.0
  0
LINE
  5
1F46A
330
747D
100
AcDbEntity
  8
細線
 48
50.0
100
AcDbLine
 10
6020.389800269549
 20
1663.167564532979
 30
0.0
 11
6012.351324496616
 21
1693.16756453298
 31
0.0
  0
LINE
  5
1F46B
330
747D
100
AcDbEntity
  8
細線
 48
50.0
100
AcDbLine
 10
6118.999856453611
 20
1663.167564532979
 30
0.0
 11
6110.961380680677
 21
1693.16756453298
 31
0.0
  0
LINE
  5
1F46C
330
747D
100
AcDbEntity
  8
細線
 48
50.0
100
AcDbLine
 10
5977.015949874396
 20
1693.16756453298
 30
0.0
 11
6097.015949874396
 21
1813.167564532979
 31
0.0
  0
LINE
  5
1F46D
330
747D
100
AcDbEntity
  8
細線
 48
50.0
100
AcDbLine
 10
6379.996629989746
 20
1533.16756453298
 30
0.0
 11
6422.868500778725
 21
1693.16756453298
 31
0.0
  0
LINE
  5
1F46E
330
747D
100
AcDbEntity
  8
細線
 48
50.0
100
AcDbLine
 10
6388.035105762679
 20
1563.167564532979
 30
0.0
 11
6396.073581535613
 21
1533.16756453298
 31
0.0
  0
LINE
  5
1F46F
330
747D
100
AcDbEntity
  8
細線
 48
50.0
100
AcDbLine
 10
6478.606686173808
 20
1533.16756453298
 30
0.0
 11
6521.478556962787
 21
1693.16756453298
 31
0.0
  0
LINE
  5
1F470
330
747D
100
AcDbEntity
  8
細線
 48
50.0
100
AcDbLine
 10
6486.645161946741
 20
1563.167564532979
 30
0.0
 11
6494.683637719674
 21
1533.16756453298
 31
0.0
  0
LINE
  5
1F471
330
747D
100
AcDbEntity
  8
細線
 48
50.0
100
AcDbLine
 10
6182.776517621624
 20
1533.16756453298
 30
0.0
 11
6225.648388410601
 21
1693.16756453298
 31
0.0
  0
LINE
  5
1F472
330
747D
100
AcDbEntity
  8
細線
 48
50.0
100
AcDbLine
 10
6190.81499339456
 20
1563.167564532979
 30
0.0
 11
6198.853469167494
 21
1533.16756453298
 31
0.0
  0
LINE
  5
1F473
330
747D
100
AcDbEntity
  8
細線
 48
50.0
100
AcDbLine
 10
6289.425049578618
 20
1563.167564532979
 30
0.0
 11
6297.463525351552
 21
1533.16756453298
 31
0.0
  0
LINE
  5
1F474
330
747D
100
AcDbEntity
  8
細線
 48
50.0
100
AcDbLine
 10
6281.386573805685
 20
1533.16756453298
 30
0.0
 11
6324.258444594663
 21
1693.16756453298
 31
0.0
  0
LINE
  5
1F475
330
747D
100
AcDbEntity
  8
細線
 48
50.0
100
AcDbLine
 10
6313.77555441449
 20
1693.16756453298
 30
0.0
 11
6433.776664220918
 21
1813.168674339404
 31
0.0
  0
LINE
  5
1F476
330
747D
100
AcDbEntity
  8
細線
 48
50.0
100
AcDbLine
 10
6246.42363350647
 20
1693.16756453298
 30
0.0
 11
6366.423633506471
 21
1813.167564532979
 31
0.0
  0
LINE
  5
1F477
330
747D
100
AcDbEntity
  8
細線
 48
50.0
100
AcDbLine
 10
6280.099593960484
 20
1693.16756453298
 30
0.0
 11
6400.099593960483
 21
1813.167564532979
 31
0.0
  0
LINE
  5
1F478
330
747D
100
AcDbEntity
  8
細線
 48
50.0
100
AcDbLine
 10
6217.609912637672
 20
1663.167564532979
 30
0.0
 11
6209.571436864738
 21
1693.16756453298
 31
0.0
  0
LINE
  5
1F479
330
747D
100
AcDbEntity
  8
細線
 48
50.0
100
AcDbLine
 10
6316.219968821734
 20
1663.167564532979
 30
0.0
 11
6308.1814930488
 21
1693.16756453298
 31
0.0
  0
LINE
  5
1F47A
330
747D
100
AcDbEntity
  8
細線
 48
50.0
100
AcDbLine
 10
6414.830025005795
 20
1663.167564532979
 30
0.0
 11
6406.791549232861
 21
1693.16756453298
 31
0.0
  0
LINE
  5
1F47B
330
747D
100
AcDbEntity
  8
細線
 48
50.0
100
AcDbLine
 10
6513.440081189854
 20
1663.167564532979
 30
0.0
 11
6505.401605416922
 21
1693.16756453298
 31
0.0
  0
LEADER
  5
1F47C
330
747D
100
AcDbEntity
  8
寸法
 48
50.0
100
AcDbLeader
  3
INABA_S50G
 71
     0
 73
     0
 75
     1
 40
100.0
 41
585.0000000000001
 76
     3
 10
6233.518619353056
 20
2773.16756453298
 30
0.0
 10
6201.131362956061
 20
2963.812839535533
 30
0.0
 10
6076.131362956061
 20
2963.812839535533
 30
0.0
340
1F47D
  0
MTEXT
  5
1F47D
102
{ACAD_REACTORS
330
1F47C
102
}
330
747D
100
AcDbEntity
  8
寸法
 62
     7
 48
50.0
100
AcDbMText
 10
6051.131362956064
 20
3038.812839535533
 30
0.0
 40
100.0
 41
0.0
 71
     6
 72
     1
  1
\A1;金コテ押エ
  7
STYLE1
 73
     1
 44
1.0
1001
ACAD
1000
MTEXTBEGIN
1070
    73
1070
     1
1070
    44
1040
1.0
1070
    74
1070
     0
1000
MTEXTEND
  0
LINE
  5
1F47E
330
747D
100
AcDbEntity
  8
部品1
 48
50.0
100
AcDbLine
 10
5665.717655165179
 20
2456.637689381403
 30
0.0
 11
5713.909154215706
 21
2373.16756453298
 31
0.0
  0
LINE
  5
1F47F
330
747D
100
AcDbEntity
  8
部品1
 48
50.0
100
AcDbLine
 10
5665.717655165179
 20
2456.637689381403
 30
0.0
 11
5762.100653266237
 21
2456.637689381403
 31
0.0
  0
LINE
  5
1F480
330
747D
100
AcDbEntity
  8
Ｇ．Ｌ
 48
50.0
100
AcDbLine
 10
5615.843742061858
 20
2373.16756453298
 30
0.0
 11
6133.518619353054
 21
2373.16756453298
 31
0.0
  0
LEADER
  5
1F481
330
747D
100
AcDbEntity
  8
寸法
 48
50.0
100
AcDbLeader
  3
INABA_S50G
 71
     0
 73
     0
 75
     1
 40
132.9441738241594
 41
490.0787401574802
 76
     3
 10
6272.076414891063
 20
2470.826582904383
 30
0.0
 10
6048.80578439105
 20
2199.609530371911
 30
0.0
 10
5923.80578439105
 20
2199.609530371911
 30
0.0
340
1F482
213
-20.50276907354419
223
30.78492082892717
233
0.0
  0
MTEXT
  5
1F482
102
{ACAD_REACTORS
330
1F481
102
}
330
747D
100
AcDbEntity
  8
寸法
 62
     7
 48
50.0
100
AcDbMText
 10
5919.308553464595
 20
2260.296696455063
 30
0.0
 40
100.0
 41
0.0
 71
     6
 72
     1
  1
\A1;D10@300
  7
STYLE1
 73
     1
 44
1.0
1001
ACAD
1000
MTEXTBEGIN
1070
    73
1070
     1
1070
    44
1040
1.0
1070
    74
1070
     0
1000
MTEXTEND
  0
LINE
  5
1F483
330
747D
100
AcDbEntity
  8
部品1
 48
50.0
100
AcDbLine
 10
5762.100653266237
 20
2456.637689381403
 30
0.0
 11
5713.909154215706
 21
2373.16756453298
 31
0.0
  0
TEXT
  5
1F484
330
747D
100
AcDbEntity
  8
部品1
 48
50.0
100
AcDbText
 10
5764.192008636232
 20
2382.533391435691
 30
0.0
 40
100.0
  1
G.L
  7
STYLE1
100
AcDbText
  0
LINE
  5
1F485
330
747D
100
AcDbEntity
  8
部品1
 48
50.0
100
AcDbLine
 10
6283.518619353062
 20
1843.167564532979
 30
0.0
 11
6283.518619353055
 21
2598.485601275787
 31
0.0
  0
LINE
  5
1F486
330
747D
100
AcDbEntity
  8
部品1
 48
50.0
100
AcDbLine
 10
6263.51861935306
 20
1843.167564532979
 30
0.0
 11
6263.518619353053
 21
2598.485601275787
 31
0.0
  0
LINE
  5
1F487
330
747D
100
AcDbEntity
  8
部品1
 48
50.0
100
AcDbLine
 10
6373.518619353053
 20
2773.16756453298
 30
0.0
 11
6373.518619353053
 21
1993.16756453298
 31
0.0
  0
LINE
  5
1F488
330
747D
100
AcDbEntity
  8
部品1
 48
50.0
100
AcDbLine
 10
6133.518619353054
 20
1993.16756453298
 30
0.0
 11
6133.518619353054
 21
2773.16756453298
 31
0.0
  0
LINE
  5
1F489
330
747D
100
AcDbEntity
  8
細線
 48
50.0
100
AcDbLine
 10
6117.015949874396
 20
1833.167564532979
 30
0.0
 11
6263.518619353053
 21
1979.670234011639
 31
0.0
  0
LINE
  5
1F48A
330
747D
100
AcDbEntity
  8
部品1
 48
50.0
100
AcDbLine
 10
5953.518619353054
 20
1993.16756453298
 30
0.0
 11
6133.518619353054
 21
1993.16756453298
 31
0.0
  0
LINE
  5
1F48B
330
747D
100
AcDbEntity
  8
部品1
 48
50.0
100
AcDbLine
 10
6023.518619353055
 20
1833.167564532979
 30
0.0
 11
6483.518619353053
 21
1833.167564532979
 31
0.0
  0
LINE
  5
1F48C
330
747D
100
AcDbEntity
  8
細線
 48
50.0
100
AcDbLine
 10
5953.518619353054
 20
1905.401957189704
 30
0.0
 11
6041.284226696334
 21
1993.16756453298
 31
0.0
  0
LINE
  5
1F48D
330
747D
100
AcDbEntity
  8
細線
 48
50.0
100
AcDbLine
 10
5953.518619353056
 20
1871.725996735694
 30
0.0
 11
6074.960187150339
 21
1993.16756453298
 31
0.0
  0
LINE
  5
1F48E
330
747D
100
AcDbEntity
  8
細線
 48
50.0
100
AcDbLine
 10
5953.518619353054
 20
1939.077917643714
 30
0.0
 11
6007.60826624232
 21
1993.16756453298
 31
0.0
  0
CIRCLE
  5
1F48F
330
747D
100
AcDbEntity
  8
部品1
 48
50.0
100
AcDbCircle
 10
6093.518619353052
 20
1843.167564532979
 30
0.0
 40
10.0
  0
LINE
  5
1F490
330
747D
100
AcDbEntity
  8
細線
 48
50.0
100
AcDbLine
 10
6133.518619353054
 20
2085.401957189702
 30
0.0
 11
6263.518619353057
 21
2215.401957189701
 31
0.0
  0
LINE
  5
1F491
330
747D
100
AcDbEntity
  8
細線
 48
50.0
100
AcDbLine
 10
6133.518619353054
 20
2051.725996735693
 30
0.0
 11
6263.51861935306
 21
2181.725996735695
 31
0.0
  0
LINE
  5
1F492
330
747D
100
AcDbEntity
  8
細線
 48
50.0
100
AcDbLine
 10
6283.518619353062
 20
1932.31831310362
 30
0.0
 11
6373.518619353053
 21
2022.318313103617
 31
0.0
  0
LINE
  5
1F493
330
747D
100
AcDbEntity
  8
細線
 48
50.0
100
AcDbLine
 10
6283.518619353062
 20
1999.670234011641
 30
0.0
 11
6373.518619353053
 21
2089.670234011635
 31
0.0
  0
LINE
  5
1F494
330
747D
100
AcDbEntity
  8
細線
 48
50.0
100
AcDbLine
 10
6283.518619353062
 20
1965.994273557631
 30
0.0
 11
6373.518619353053
 21
2055.994273557626
 31
0.0
  0
LINE
  5
1F495
330
747D
100
AcDbEntity
  8
細線
 48
50.0
100
AcDbLine
 10
6233.350928699812
 20
1915.826582904383
 30
0.0
 11
6263.51861935306
 21
1945.99427355763
 31
0.0
  0
LINE
  5
1F496
330
747D
100
AcDbEntity
  8
部品1
 48
50.0
100
AcDbLine
 10
6243.518619353054
 20
1915.826582904383
 30
0.0
 11
6223.518619353054
 21
1915.826582904383
 31
0.0
  0
ARC
  5
1F497
330
747D
100
AcDbEntity
  8
部品1
 48
50.0
100
AcDbCircle
 10
6253.518619353052
 20
1843.167564532979
 30
0.0
 40
30.0
100
AcDbArc
 50
180.0
 51
199.4712206344896
  0
LINE
  5
1F498
330
747D
100
AcDbEntity
  8
細線
 48
50.0
100
AcDbLine
 10
6150.691910328409
 20
1833.167564532979
 30
0.0
 11
6223.518619353054
 21
1905.994273557628
 31
0.0
  0
LINE
  5
1F499
330
747D
100
AcDbEntity
  8
部品1
 48
50.0
100
AcDbLine
 10
6223.518619353054
 20
1915.826582904383
 30
0.0
 11
6223.518619353054
 21
1843.167564532979
 31
0.0
  0
LINE
  5
1F49A
330
747D
100
AcDbEntity
  8
細線
 48
50.0
100
AcDbLine
 10
6184.367870782415
 20
1833.167564532979
 30
0.0
 11
6223.518619353054
 21
1872.318313103616
 31
0.0
  0
LINE
  5
1F49B
330
747D
100
AcDbEntity
  8
細線
 48
50.0
100
AcDbLine
 10
6243.518619353056
 20
1892.318313103618
 30
0.0
 11
6263.51861935306
 21
1912.31831310362
 31
0.0
  0
ARC
  5
1F49C
330
747D
100
AcDbEntity
  8
部品1
 48
50.0
100
AcDbCircle
 10
6253.518619353052
 20
1843.167564532979
 30
0.0
 40
30.0
100
AcDbArc
 50
340.5287793655103
 51
0.0
  0
LINE
  5
1F49D
330
747D
100
AcDbEntity
  8
部品1
 48
50.0
100
AcDbLine
 10
6243.518619353054
 20
1915.826582904383
 30
0.0
 11
6243.518619353054
 21
1843.167564532979
 31
0.0
  0
CIRCLE
  5
1F49E
330
747D
100
AcDbEntity
  8
部品1
 48
50.0
100
AcDbCircle
 10
6253.518619353052
 20
1843.167564532979
 30
0.0
 40
10.0
  0
CIRCLE
  5
1F49F
330
747D
100
AcDbEntity
  8
部品1
 48
50.0
100
AcDbCircle
 10
6413.518619353053
 20
1843.167564532979
 30
0.0
 40
10.0
  0
LINE
  5
1F4A0
330
747D
100
AcDbEntity
  8
細線
 48
50.0
100
AcDbLine
 10
6283.518619353062
 20
2201.725996735695
 30
0.0
 11
6373.518619353053
 21
2291.725996735691
 31
0.0
  0
LINE
  5
1F4A1
330
747D
100
AcDbEntity
  8
細線
 48
50.0
100
AcDbLine
 10
6283.518619353056
 20
2269.077917643715
 30
0.0
 11
6373.518619353053
 21
2359.077917643713
 31
0.0
  0
LINE
  5
1F4A2
330
747D
100
AcDbEntity
  8
細線
 48
50.0
100
AcDbLine
 10
6283.518619353056
 20
2235.401957189703
 30
0.0
 11
6373.518619353053
 21
2325.401957189699
 31
0.0
  0
LINE
  5
1F4A3
330
747D
100
AcDbEntity
  8
細線
 48
50.0
100
AcDbLine
 10
6133.518619353054
 20
2119.077917643712
 30
0.0
 11
6263.518619353053
 21
2249.077917643713
 31
0.0
  0
LEADER
  5
1F4A4
330
747D
100
AcDbEntity
  8
寸法
 48
50.0
100
AcDbLeader
  3
INABA_S50G
 71
     0
 73
     0
 40
101.39087296526
 41
174.1421356237309
 76
     2
 10
6253.518619353055
 20
2598.485601275787
 30
0.0
 10
6018.936024949376
 20
2542.143143400608
 30
0.0
340
1F4A5
  0
MTEXT
  5
1F4A5
102
{ACAD_REACTORS
330
1F4A4
102
}
330
747D
100
AcDbEntity
  8
寸法
 62
     7
 48
50.0
100
AcDbMText
 10
5993.936024949377
 20
2617.838579883237
 30
0.0
 40
100.0
 41
0.0
 71
     6
 72
     1
  1
D13
  7
STYLE1
 73
     1
 44
1.0
1001
ACAD
1000
MTEXTBEGIN
1070
    73
1070
     1
1070
    44
1040
1.0
1070
    74
1070
     0
1000
MTEXTEND
  0
LINE
  5
1F4A6
330
747D
100
AcDbEntity
  8
細線
 48
50.0
100
AcDbLine
 10
6133.518619353054
 20
2690.541363999843
 30
0.0
 11
6175.945960400481
 21
2732.968705047268
 31
0.0
  0
LINE
  5
1F4A7
330
747D
100
AcDbEntity
  8
細線
 48
50.0
100
AcDbLine
 10
6269.134147481149
 20
2624.101129403876
 30
0.0
 11
6373.518619353053
 21
2728.485601275786
 31
0.0
  0
LINE
  5
1F4A8
330
747D
100
AcDbEntity
  8
細線
 48
50.0
100
AcDbLine
 10
6282.959503435537
 20
2604.250524904256
 30
0.0
 11
6373.518619353053
 21
2694.809640821777
 31
0.0
  0
LINE
  5
1F4A9
330
747D
100
AcDbEntity
  8
細線
 48
50.0
100
AcDbLine
 10
6283.518619353055
 20
2571.133680367768
 30
0.0
 11
6373.518619353053
 21
2661.133680367768
 31
0.0
  0
ARC
  5
1F4AA
330
747D
100
AcDbEntity
  8
部品1
 48
50.0
100
AcDbCircle
 10
6253.518619353052
 20
2598.485601275787
 30
0.0
 40
30.0
100
AcDbArc
 50
0.0
 51
180.0
  0
LINE
  5
1F4AB
330
747D
100
AcDbEntity
  8
細線
 48
50.0
100
AcDbLine
 10
6133.518619353054
 20
2421.133680367768
 30
0.0
 11
6238.211521889673
 21
2525.826582904383
 31
0.0
  0
LINE
  5
1F4AC
330
747D
100
AcDbEntity
  8
細線
 48
50.0
100
AcDbLine
 10
6133.518619353054
 20
2488.485601275787
 30
0.0
 11
6223.518619353054
 21
2578.485601275787
 31
0.0
  0
LINE
  5
1F4AD
330
747D
100
AcDbEntity
  8
細線
 48
50.0
100
AcDbLine
 10
6133.518619353054
 20
2454.809640821777
 30
0.0
 11
6223.518619353054
 21
2544.809640821777
 31
0.0
  0
LINE
  5
1F4AE
330
747D
100
AcDbEntity
  8
部品1
 48
50.0
100
AcDbLine
 10
6243.518619353054
 20
2525.826582904383
 30
0.0
 11
6223.518619353054
 21
2525.826582904385
 31
0.0
  0
LINE
  5
1F4AF
330
747D
100
AcDbEntity
  8
細線
 48
50.0
100
AcDbLine
 10
6243.518619353054
 20
2564.809640821777
 30
0.0
 11
6263.518619353053
 21
2584.809640821777
 31
0.0
  0
LINE
  5
1F4B0
330
747D
100
AcDbEntity
  8
細線
 48
50.0
100
AcDbLine
 10
6243.518619353056
 20
2531.133680367768
 30
0.0
 11
6263.518619353053
 21
2551.133680367768
 31
0.0
  0
LINE
  5
1F4B1
330
747D
100
AcDbEntity
  8
部品1
 48
50.0
100
AcDbLine
 10
6223.518619353054
 20
2525.826582904385
 30
0.0
 11
6223.518619353054
 21
2598.485601275788
 31
0.0
  0
CIRCLE
  5
1F4B2
330
747D
100
AcDbEntity
  8
部品1
 48
50.0
100
AcDbCircle
 10
6253.518619353052
 20
2598.485601275787
 30
0.0
 40
10.0
  0
LINE
  5
1F4B3
330
747D
100
AcDbEntity
  8
部品1
 48
50.0
100
AcDbLine
 10
6243.518619353054
 20
2525.826582904383
 30
0.0
 11
6243.518619353054
 21
2598.485601275787
 31
0.0
  0
LINE
  5
1F4B4
330
747D
100
AcDbEntity
  8
部品1
 48
50.0
100
AcDbLine
 10
6133.518619353054
 20
2773.16756453298
 30
0.0
 11
6373.518619353053
 21
2773.16756453298
 31
0.0
  0
LINE
  5
1F4B5
330
747D
100
AcDbEntity
  8
細線
100
AcDbLine
 10
6303.825460544262
 20
2741.157258243273
 30
0.0
 11
6333.32952922249
 21
2739.519513545884
 31
0.0
  0
LINE
  5
1F4B6
330
747D
100
AcDbEntity
  8
細線
100
AcDbLine
 10
6207.117517606516
 20
2732.968705047268
 30
0.0
 11
6248.095471905827
 21
2739.519513545884
 31
0.0
  0
LINE
  5
1F4B7
330
747D
100
AcDbEntity
  8
細線
100
AcDbLine
 10
6171.056942859082
 20
2732.968705047268
 30
0.0
 11
6207.117517606516
 21
2732.968705047268
 31
0.0
  0
LINE
  5
1F4B8
330
747D
100
AcDbEntity
  8
細線
100
AcDbLine
 10
6133.518619353054
 20
2742.794946177019
 30
0.0
 11
6171.056942859082
 21
2732.968705047268
 31
0.0
  0
LINE
  5
1F4B9
330
747D
100
AcDbEntity
  8
細線
 48
50.0
100
AcDbLine
 10
6133.518619353054
 20
2724.217324453852
 30
0.0
 11
6148.242132164362
 21
2738.940837265158
 31
0.0
  0
LINE
  5
1F4BA
330
747D
100
AcDbEntity
  8
細線
100
AcDbLine
 10
6248.095471905827
 20
2739.519513545884
 30
0.0
 11
6303.825460544262
 21
2741.157258243273
 31
0.0
  0
LINE
  5
1F4BB
330
747D
100
AcDbEntity
  8
細線
100
AcDbLine
 10
6333.32952922249
 20
2739.519513545884
 30
0.0
 11
6373.518619353053
 21
2731.33096034988
 31
0.0
  0
LINE
  5
1F4BC
330
747D
100
AcDbEntity
  8
細線
 48
50.0
100
AcDbLine
 10
8148.965825979921
 20
2163.167564532981
 30
0.0
 11
8191.837696768905
 21
2323.167564532981
 31
0.0
  0
LINE
  5
1F4BD
330
747D
100
AcDbEntity
  8
部品1
100
AcDbLine
 10
6949.687292232029
 20
2323.167564532981
 30
0.0
 11
8221.087184869688
 21
2323.167564532981
 31
0.0
  0
LINE
  5
1F4BE
330
747D
100
AcDbEntity
  8
部品1
100
AcDbLine
 10
6949.687292232029
 20
2163.167564532984
 30
0.0
 11
8221.087184869688
 21
2163.167564532984
 31
0.0
  0
LINE
  5
1F4BF
330
747D
100
AcDbEntity
  8
部品1
 48
50.0
100
AcDbLine
 10
6553.518619353052
 20
1993.16756453298
 30
0.0
 11
6553.518619353052
 21
1693.16756453298
 31
0.0
  0
LINE
  5
1F4C0
330
747D
100
AcDbEntity
  8
部品1
 48
50.0
100
AcDbLine
 10
7020.464199206308
 20
1081.289519894593
 30
0.0
 11
7020.464199206308
 21
921.2895198945933
 31
0.0
  0
LINE
  5
1F4C1
330
747D
100
AcDbEntity
  8
細線
 48
50.0
100
AcDbLine
 10
6577.216742357868
 20
1533.16756453298
 30
0.0
 11
6620.088613146847
 21
1693.16756453298
 31
0.0
  0
LINE
  5
1F4C2
330
747D
100
AcDbEntity
  8
部品1
 48
50.0
100
AcDbLine
 10
6653.518619353055
 20
1533.16756453298
 30
0.0
 11
6653.518619353055
 21
1693.16756453298
 31
0.0
  0
LINE
  5
1F4C3
330
747D
100
AcDbEntity
  8
細線
 48
50.0
100
AcDbLine
 10
6585.255218130803
 20
1563.167564532979
 30
0.0
 11
6593.293693903736
 21
1533.16756453298
 31
0.0
  0
LINE
  5
1F4C4
330
747D
100
AcDbEntity
  8
細線
 48
50.0
100
AcDbLine
 10
6612.050137373917
 20
1663.167564532979
 30
0.0
 11
6604.011661600984
 21
1693.16756453298
 31
0.0
  0
LINE
  5
1F4C5
330
747D
100
AcDbEntity
  8
細線
 48
50.0
100
AcDbLine
 10
6549.507277592558
 20
1693.16756453298
 30
0.0
 11
6553.518619353052
 21
1697.178906293476
 31
0.0
  0
LINE
  5
1F4C6
330
747D
100
AcDbEntity
  8
部品1
 48
50.0
100
AcDbLine
 10
7975.387238550858
 20
2773.16756453298
 30
0.0
 11
7195.387238550859
 21
2773.16756453298
 31
0.0
  0
LINE
  5
1F4C7
330
747D
100
AcDbEntity
  8
細線
100
AcDbLine
 10
7240.199832872284
 20
2473.16756453298
 30
0.0
 11
7540.199832872284
 21
2773.16756453298
 31
0.0
  0
LINE
  5
1F4C8
330
747D
100
AcDbEntity
  8
細線
100
AcDbLine
 10
7280.199832872288
 20
2473.16756453298
 30
0.0
 11
7580.199832872285
 21
2773.16756453298
 31
0.0
  0
LINE
  5
1F4C9
330
747D
100
AcDbEntity
  8
細線
100
AcDbLine
 10
7302.127963019699
 20
2323.167564532981
 30
0.0
 11
7152.127963019687
 21
2473.16756453298
 31
0.0
  0
LINE
  5
1F4CA
330
747D
100
AcDbEntity
  8
部品1
100
AcDbLine
 10
7049.687292232029
 20
2473.16756453298
 30
0.0
 11
7049.687292232031
 21
2323.167564532981
 31
0.0
  0
LINE
  5
1F4CB
330
747D
100
AcDbEntity
  8
細線
100
AcDbLine
 10
7262.127963019691
 20
2323.167564532981
 30
0.0
 11
7112.127963019694
 21
2473.16756453298
 31
0.0
  0
LINE
  5
1F4CC
330
747D
100
AcDbEntity
  8
細線
100
AcDbLine
 10
7222.12796301968
 20
2323.167564532981
 30
0.0
 11
7072.127963019673
 21
2473.16756453298
 31
0.0
  0
LINE
  5
1F4CD
330
747D
100
AcDbEntity
  8
細線
 48
50.0
100
AcDbLine
 10
6973.683627544129
 20
2193.167564532981
 30
0.0
 11
6981.722103317064
 21
2163.167564532981
 31
0.0
  0
LINE
  5
1F4CE
330
747D
100
AcDbEntity
  8
細線
 48
50.0
100
AcDbLine
 10
7072.293683728189
 20
2193.167564532981
 30
0.0
 11
7080.332159501122
 21
2163.167564532981
 31
0.0
  0
LINE
  5
1F4CF
330
747D
100
AcDbEntity
  8
細線
 48
50.0
100
AcDbLine
 10
6965.645151771197
 20
2163.167564532981
 30
0.0
 11
7008.517022560176
 21
2323.167564532981
 31
0.0
  0
LINE
  5
1F4D0
330
747D
100
AcDbEntity
  8
部品1
100
AcDbLine
 10
6949.687292232029
 20
2323.167564532981
 30
0.0
 11
6949.687292232029
 21
2163.167564532984
 31
0.0
  0
LINE
  5
1F4D1
330
747D
100
AcDbEntity
  8
細線
 48
50.0
100
AcDbLine
 10
7064.255207955255
 20
2163.167564532981
 30
0.0
 11
7107.127078744234
 21
2323.167564532981
 31
0.0
  0
LINE
  5
1F4D2
330
747D
100
AcDbEntity
  8
細線
 48
50.0
100
AcDbLine
 10
7000.478546787242
 20
2293.167564532981
 30
0.0
 11
6992.440071014309
 21
2323.167564532981
 31
0.0
  0
LINE
  5
1F4D3
330
747D
100
AcDbEntity
  8
細線
 48
50.0
100
AcDbLine
 10
7099.088602971299
 20
2293.167564532981
 30
0.0
 11
7091.050127198366
 21
2323.167564532981
 31
0.0
  0
LINE
  5
1F4D4
330
747D
100
AcDbEntity
  8
細線
 48
50.0
100
AcDbLine
 10
7170.903739912254
 20
2193.167564532981
 30
0.0
 11
7178.942215685187
 21
2163.167564532981
 31
0.0
  0
LINE
  5
1F4D5
330
747D
100
AcDbEntity
  8
細線
 48
50.0
100
AcDbLine
 10
7269.513796096311
 20
2193.167564532981
 30
0.0
 11
7277.552271869244
 21
2163.167564532981
 31
0.0
  0
LINE
  5
1F4D6
330
747D
100
AcDbEntity
  8
細線
 48
50.0
100
AcDbLine
 10
7162.86526413932
 20
2163.167564532981
 30
0.0
 11
7205.737134928298
 21
2323.167564532981
 31
0.0
  0
LINE
  5
1F4D7
330
747D
100
AcDbEntity
  8
細線
 48
50.0
100
AcDbLine
 10
7197.698659155365
 20
2293.167564532981
 30
0.0
 11
7189.660183382432
 21
2323.167564532981
 31
0.0
  0
LINE
  5
1F4D8
330
747D
100
AcDbEntity
  8
細線
 48
50.0
100
AcDbLine
 10
7261.475320323377
 20
2163.167564532981
 30
0.0
 11
7304.34719111236
 21
2323.167564532981
 31
0.0
  0
LINE
  5
1F4D9
330
747D
100
AcDbEntity
  8
細線
 48
50.0
100
AcDbLine
 10
7296.308715339423
 20
2293.167564532981
 30
0.0
 11
7288.27023956649
 21
2323.167564532981
 31
0.0
  0
LINE
  5
1F4DA
330
747D
100
AcDbEntity
  8
部品1
 48
50.0
100
AcDbLine
 10
7195.387238550859
 20
2773.16756453298
 30
0.0
 11
7195.387238550859
 21
2473.16756453298
 31
0.0
  0
LINE
  5
1F4DB
330
747D
100
AcDbEntity
  8
細線
100
AcDbLine
 10
7195.387238550859
 20
2708.354970211556
 30
0.0
 11
7260.199832872284
 21
2773.16756453298
 31
0.0
  0
LINE
  5
1F4DC
330
747D
100
AcDbEntity
  8
細線
100
AcDbLine
 10
7195.387238550859
 20
2748.354970211556
 30
0.0
 11
7220.199832872284
 21
2773.16756453298
 31
0.0
  0
LINE
  5
1F4DD
330
747D
100
AcDbEntity
  8
細線
100
AcDbLine
 10
8121.087184869692
 20
2384.208342682968
 30
0.0
 11
8032.127963019684
 21
2473.16756453298
 31
0.0
  0
LINE
  5
1F4DE
330
747D
100
AcDbEntity
  8
部品1
100
AcDbLine
 10
8121.087184869688
 20
2473.16756453298
 30
0.0
 11
8121.087184869688
 21
2323.167564532981
 31
0.0
  0
LINE
  5
1F4DF
330
747D
100
AcDbEntity
  8
細線
100
AcDbLine
 10
7942.127963019692
 20
2323.167564532981
 30
0.0
 11
7792.127963019696
 21
2473.16756453298
 31
0.0
  0
LINE
  5
1F4E0
330
747D
100
AcDbEntity
  8
細線
100
AcDbLine
 10
7902.127963019691
 20
2323.167564532981
 30
0.0
 11
7752.127963019685
 21
2473.16756453298
 31
0.0
  0
LINE
  5
1F4E1
330
747D
100
AcDbEntity
  8
細線
100
AcDbLine
 10
7862.127963019675
 20
2323.167564532981
 30
0.0
 11
7712.127963019686
 21
2473.16756453298
 31
0.0
  0
LINE
  5
1F4E2
330
747D
100
AcDbEntity
  8
細線
100
AcDbLine
 10
7542.12796301968
 20
2323.167564532981
 30
0.0
 11
7392.127963019682
 21
2473.16756453298
 31
0.0
  0
LINE
  5
1F4E3
330
747D
100
AcDbEntity
  8
細線
100
AcDbLine
 10
7582.127963019695
 20
2323.167564532981
 30
0.0
 11
7432.127963019681
 21
2473.16756453298
 31
0.0
  0
LINE
  5
1F4E4
330
747D
100
AcDbEntity
  8
細線
100
AcDbLine
 10
7622.127963019697
 20
2323.167564532981
 30
0.0
 11
7472.127963019684
 21
2473.16756453298
 31
0.0
  0
LINE
  5
1F4E5
330
747D
100
AcDbEntity
  8
細線
 48
50.0
100
AcDbLine
 10
7754.525601243681
 20
2163.167564532981
 30
0.0
 11
7797.39747203266
 21
2323.167564532981
 31
0.0
  0
LINE
  5
1F4E6
330
747D
100
AcDbEntity
  8
細線
 48
50.0
100
AcDbLine
 10
7368.123852280376
 20
2193.167564532981
 30
0.0
 11
7376.16232805331
 21
2163.167564532981
 31
0.0
  0
LINE
  5
1F4E7
330
747D
100
AcDbEntity
  8
細線
 48
50.0
100
AcDbLine
 10
7466.733908464433
 20
2193.167564532981
 30
0.0
 11
7474.772384237367
 21
2163.167564532981
 31
0.0
  0
LINE
  5
1F4E8
330
747D
100
AcDbEntity
  8
細線
 48
50.0
100
AcDbLine
 10
7458.6954326915
 20
2163.167564532981
 30
0.0
 11
7501.567303480479
 21
2323.167564532981
 31
0.0
  0
LINE
  5
1F4E9
330
747D
100
AcDbEntity
  8
細線
 48
50.0
100
AcDbLine
 10
7360.085376507439
 20
2163.167564532981
 30
0.0
 11
7402.95724729642
 21
2323.167564532981
 31
0.0
  0
LINE
  5
1F4EA
330
747D
100
AcDbEntity
  8
細線
 48
50.0
100
AcDbLine
 10
7394.918771523487
 20
2293.167564532981
 30
0.0
 11
7386.880295750554
 21
2323.167564532981
 31
0.0
  0
LINE
  5
1F4EB
330
747D
100
AcDbEntity
  8
細線
 48
50.0
100
AcDbLine
 10
7493.528827707546
 20
2293.167564532981
 30
0.0
 11
7485.490351934612
 21
2323.167564532981
 31
0.0
  0
LINE
  5
1F4EC
330
747D
100
AcDbEntity
  8
細線
 48
50.0
100
AcDbLine
 10
7663.954020832552
 20
2193.167564532981
 30
0.0
 11
7671.992496605486
 21
2163.167564532981
 31
0.0
  0
LINE
  5
1F4ED
330
747D
100
AcDbEntity
  8
細線
 48
50.0
100
AcDbLine
 10
7565.343964648491
 20
2193.167564532981
 30
0.0
 11
7573.382440421425
 21
2163.167564532981
 31
0.0
  0
LINE
  5
1F4EE
330
747D
100
AcDbEntity
  8
細線
 48
50.0
100
AcDbLine
 10
7655.915545059619
 20
2163.167564532981
 30
0.0
 11
7698.787415848601
 21
2323.167564532981
 31
0.0
  0
LINE
  5
1F4EF
330
747D
100
AcDbEntity
  8
細線
 48
50.0
100
AcDbLine
 10
7557.305488875558
 20
2163.167564532981
 30
0.0
 11
7600.177359664536
 21
2323.167564532981
 31
0.0
  0
LINE
  5
1F4F0
330
747D
100
AcDbEntity
  8
細線
 48
50.0
100
AcDbLine
 10
7592.138883891603
 20
2293.167564532981
 30
0.0
 11
7584.100408118669
 21
2323.167564532981
 31
0.0
  0
LINE
  5
1F4F1
330
747D
100
AcDbEntity
  8
細線
 48
50.0
100
AcDbLine
 10
7690.748940075664
 20
2293.167564532981
 30
0.0
 11
7682.710464302731
 21
2323.167564532981
 31
0.0
  0
LINE
  5
1F4F2
330
747D
100
AcDbEntity
  8
細線
 48
50.0
100
AcDbLine
 10
7951.745713611799
 20
2163.167564532981
 30
0.0
 11
7994.617584400778
 21
2323.167564532981
 31
0.0
  0
LINE
  5
1F4F3
330
747D
100
AcDbEntity
  8
細線
 48
50.0
100
AcDbLine
 10
7959.784189384733
 20
2193.167564532981
 30
0.0
 11
7967.822665157666
 21
2163.167564532981
 31
0.0
  0
LINE
  5
1F4F4
330
747D
100
AcDbEntity
  8
細線
 48
50.0
100
AcDbLine
 10
7861.174133200676
 20
2193.167564532981
 30
0.0
 11
7869.212608973609
 21
2163.167564532981
 31
0.0
  0
LINE
  5
1F4F5
330
747D
100
AcDbEntity
  8
細線
 48
50.0
100
AcDbLine
 10
7762.564077016614
 20
2193.167564532981
 30
0.0
 11
7770.602552789547
 21
2163.167564532981
 31
0.0
  0
LINE
  5
1F4F6
330
747D
100
AcDbEntity
  8
細線
 48
50.0
100
AcDbLine
 10
7853.135657427738
 20
2163.167564532981
 30
0.0
 11
7896.007528216717
 21
2323.167564532981
 31
0.0
  0
LINE
  5
1F4F7
330
747D
100
AcDbEntity
  8
細線
 48
50.0
100
AcDbLine
 10
7789.358996259726
 20
2293.167564532981
 30
0.0
 11
7781.320520486791
 21
2323.167564532981
 31
0.0
  0
LINE
  5
1F4F8
330
747D
100
AcDbEntity
  8
細線
 48
50.0
100
AcDbLine
 10
7887.969052443786
 20
2293.167564532981
 30
0.0
 11
7879.930576670853
 21
2323.167564532981
 31
0.0
  0
LINE
  5
1F4F9
330
747D
100
AcDbEntity
  8
細線
 48
50.0
100
AcDbLine
 10
8058.394245568795
 20
2193.167564532981
 30
0.0
 11
8066.432721341728
 21
2163.167564532981
 31
0.0
  0
LINE
  5
1F4FA
330
747D
100
AcDbEntity
  8
細線
 48
50.0
100
AcDbLine
 10
8157.004301752854
 20
2193.167564532981
 30
0.0
 11
8165.042777525789
 21
2163.167564532981
 31
0.0
  0
LINE
  5
1F4FB
330
747D
100
AcDbEntity
  8
細線
 48
50.0
100
AcDbLine
 10
8085.189164811909
 20
2293.167564532981
 30
0.0
 11
8077.150689038976
 21
2323.167564532981
 31
0.0
  0
LINE
  5
1F4FC
330
747D
100
AcDbEntity
  8
細線
 48
50.0
100
AcDbLine
 10
8050.355769795862
 20
2163.167564532981
 30
0.0
 11
8093.227640584839
 21
2323.167564532981
 31
0.0
  0
LINE
  5
1F4FD
330
747D
100
AcDbEntity
  8
細線
 48
50.0
100
AcDbLine
 10
7986.579108627847
 20
2293.167564532981
 30
0.0
 11
7978.540632854914
 21
2323.167564532981
 31
0.0
  0
LEADER
  5
1F4FE
330
747D
100
AcDbEntity
  8
寸法
 48
50.0
100
AcDbLeader
  3
INABA_S50G
 71
     0
 73
     0
 74
     0
 75
     1
 40
100.0
 41
154.6599025766975
 76
     3
 10
7638.206200461873
 20
2708.47529511938
 30
0.0
 10
7692.487750945992
 20
2932.515183229115
 30
0.0
 10
7817.487750945992
 20
2932.515183229115
 30
0.0
340
1F442
  0
LINE
  5
1F4FF
330
747D
100
AcDbEntity
  8
細線
100
AcDbLine
 10
7560.199832872284
 20
2473.16756453298
 30
0.0
 11
7860.199832872284
 21
2773.16756453298
 31
0.0
  0
LINE
  5
1F500
330
747D
100
AcDbEntity
  8
細線
100
AcDbLine
 10
7600.199832872286
 20
2473.16756453298
 30
0.0
 11
7900.199832872283
 21
2773.16756453298
 31
0.0
  0
LINE
  5
1F501
330
747D
100
AcDbEntity
  8
部品1
 48
50.0
100
AcDbLine
 10
7975.387238550858
 20
2473.16756453298
 30
0.0
 11
7975.387238550858
 21
2773.16756453298
 31
0.0
  0
LINE
  5
1F502
330
747D
100
AcDbEntity
  8
細線
100
AcDbLine
 10
7880.199832872285
 20
2473.16756453298
 30
0.0
 11
7975.387238550858
 21
2568.354970211553
 31
0.0
  0
LINE
  5
1F503
330
747D
100
AcDbEntity
  8
細線
100
AcDbLine
 10
7920.199832872284
 20
2473.16756453298
 30
0.0
 11
7975.387238550858
 21
2528.354970211558
 31
0.0
  0
LINE
  5
1F504
330
747D
100
AcDbEntity
  8
細線
100
AcDbLine
 10
8121.087184869688
 20
2424.208342682979
 30
0.0
 11
8072.127963019681
 21
2473.16756453298
 31
0.0
  0
LINE
  5
1F505
330
747D
100
AcDbEntity
  8
細線
100
AcDbLine
 10
8121.087184869688
 20
2464.208342682988
 30
0.0
 11
8112.127963019695
 21
2473.16756453298
 31
0.0
  0
LINE
  5
1F506
330
747D
100
AcDbEntity
  8
細線
 48
50.0
100
AcDbLine
 10
9293.847537030885
 20
1768.697284297768
 30
0.0
 11
9413.847537030884
 21
1888.697284297768
 31
0.0
  0
LINE
  5
1F507
330
747D
100
AcDbEntity
  8
細線
 48
50.0
100
AcDbLine
 10
9327.523497484895
 20
1768.697284297768
 30
0.0
 11
9447.523497484898
 21
1888.697284297768
 31
0.0
  0
LINE
  5
1F508
330
747D
100
AcDbEntity
  8
細線
 48
50.0
100
AcDbLine
 10
9361.199457938903
 20
1768.697284297768
 30
0.0
 11
9481.200567745332
 21
1888.698394104192
 31
0.0
  0
LINE
  5
1F509
330
747D
100
AcDbEntity
  8
細線
 48
50.0
100
AcDbLine
 10
9024.43985339881
 20
1768.697284297768
 30
0.0
 11
9144.439853398807
 21
1888.697284297768
 31
0.0
  0
LINE
  5
1F50A
330
747D
100
AcDbEntity
  8
細線
 48
50.0
100
AcDbLine
 10
9058.115813852822
 20
1768.697284297768
 30
0.0
 11
9178.115813852823
 21
1888.697284297768
 31
0.0
  0
LINE
  5
1F50B
330
747D
100
AcDbEntity
  8
細線
 48
50.0
100
AcDbLine
 10
9091.791774306829
 20
1768.697284297768
 30
0.0
 11
9211.79177430683
 21
1888.697284297768
 31
0.0
  0
LINE
  5
1F50C
330
747D
100
AcDbEntity
  8
部品1
 48
50.0
100
AcDbLine
 10
9000.942522877467
 20
1768.697284297768
 30
0.0
 11
9000.942522877467
 21
2068.697284297769
 31
0.0
  0
LINE
  5
1F50D
330
747D
100
AcDbEntity
  8
部品1
 48
50.0
100
AcDbLine
 10
9600.942522877469
 20
2068.697284297769
 30
0.0
 11
9600.942522877469
 21
1768.697284297768
 31
0.0
  0
TEXT
  5
1F50E
330
747D
100
AcDbEntity
  8
部品1
 48
50.0
100
AcDbText
 10
8766.38575210269
 20
955.2818116270898
 30
0.0
 40
96.0
  1
アンカー部詳細
  7
STYLE2
100
AcDbText
  0
LINE
  5
1F50F
330
747D
100
AcDbEntity
  8
部品1
 48
50.0
100
AcDbLine
 10
9745.553089142685
 20
921.2895198945933
 30
0.0
 11
8704.78331696445
 21
921.2895198945933
 31
0.0
  0
LINE
  5
1F510
330
747D
100
AcDbEntity
  8
部品1
 48
50.0
100
AcDbLine
 10
9745.553089142685
 20
1081.289519894593
 30
0.0
 11
8704.78331696445
 21
1081.289519894593
 31
0.0
  0
LINE
  5
1F511
330
747D
100
AcDbEntity
  8
部品1
 48
50.0
100
AcDbLine
 10
9700.942522877468
 20
1768.697284297768
 30
0.0
 11
8900.942522877469
 21
1768.697284297768
 31
0.0
  0
LINE
  5
1F512
330
747D
100
AcDbEntity
  8
部品1
 48
50.0
100
AcDbLine
 10
9700.942522877468
 20
1608.697284297768
 30
0.0
 11
8900.942522877469
 21
1608.697284297768
 31
0.0
  0
LINE
  5
1F513
330
747D
100
AcDbEntity
  8
部品1
 48
50.0
100
AcDbLine
 10
8704.78331696445
 20
1081.289519894593
 30
0.0
 11
8704.78331696445
 21
921.2895198945933
 31
0.0
  0
LINE
  5
1F514
330
747D
100
AcDbEntity
  8
細線
 48
50.0
100
AcDbLine
 10
8969.203647609901
 20
1738.697284297768
 30
0.0
 11
8961.165171836968
 21
1768.697284297768
 31
0.0
  0
LINE
  5
1F515
330
747D
100
AcDbEntity
  8
細線
 48
50.0
100
AcDbLine
 10
8942.408728366791
 20
1638.697284297768
 30
0.0
 11
8950.447204139724
 21
1608.697284297768
 31
0.0
  0
LINE
  5
1F516
330
747D
100
AcDbEntity
  8
細線
 48
50.0
100
AcDbLine
 10
8934.370252593854
 20
1608.697284297768
 30
0.0
 11
8977.242123382835
 21
1768.697284297768
 31
0.0
  0
LINE
  5
1F517
330
747D
100
AcDbEntity
  8
部品1
 48
50.0
100
AcDbLine
 10
8900.942522877469
 20
1608.697284297768
 30
0.0
 11
8900.942522877469
 21
1768.697284297768
 31
0.0
  0
LINE
  5
1F518
330
747D
100
AcDbEntity
  8
部品1
 48
50.0
100
AcDbLine
 10
9745.553089142685
 20
1081.289519894593
 30
0.0
 11
9745.553089142685
 21
921.2895198945933
 31
0.0
  0
LINE
  5
1F519
330
747D
100
AcDbEntity
  8
細線
 48
50.0
100
AcDbLine
 10
9067.813703793964
 20
1738.697284297768
 30
0.0
 11
9059.775228021029
 21
1768.697284297768
 31
0.0
  0
LINE
  5
1F51A
330
747D
100
AcDbEntity
  8
細線
 48
50.0
100
AcDbLine
 10
9166.423759978025
 20
1738.697284297768
 30
0.0
 11
9158.385284205092
 21
1768.697284297768
 31
0.0
  0
LINE
  5
1F51B
330
747D
100
AcDbEntity
  8
細線
 48
50.0
100
AcDbLine
 10
9041.018784550852
 20
1638.697284297768
 30
0.0
 11
9049.057260323783
 21
1608.697284297768
 31
0.0
  0
LINE
  5
1F51C
330
747D
100
AcDbEntity
  8
細線
 48
50.0
100
AcDbLine
 10
9139.628840734912
 20
1638.697284297768
 30
0.0
 11
9147.667316507847
 21
1608.697284297768
 31
0.0
  0
LINE
  5
1F51D
330
747D
100
AcDbEntity
  8
細線
 48
50.0
100
AcDbLine
 10
9032.980308777917
 20
1608.697284297768
 30
0.0
 11
9075.852179566895
 21
1768.697284297768
 31
0.0
  0
LINE
  5
1F51E
330
747D
100
AcDbEntity
  8
細線
 48
50.0
100
AcDbLine
 10
9131.590364961976
 20
1608.697284297768
 30
0.0
 11
9174.462235750958
 21
1768.697284297768
 31
0.0
  0
LINE
  5
1F51F
330
747D
100
AcDbEntity
  8
細線
 48
50.0
100
AcDbLine
 10
9265.033816162086
 20
1738.697284297768
 30
0.0
 11
9256.995340389151
 21
1768.697284297768
 31
0.0
  0
LINE
  5
1F520
330
747D
100
AcDbEntity
  8
細線
 48
50.0
100
AcDbLine
 10
9363.643872346147
 20
1738.697284297768
 30
0.0
 11
9355.605396573212
 21
1768.697284297768
 31
0.0
  0
LINE
  5
1F521
330
747D
100
AcDbEntity
  8
細線
 48
50.0
100
AcDbLine
 10
9238.238896918977
 20
1638.697284297768
 30
0.0
 11
9246.277372691908
 21
1608.697284297768
 31
0.0
  0
LINE
  5
1F522
330
747D
100
AcDbEntity
  8
細線
 48
50.0
100
AcDbLine
 10
9336.848953103032
 20
1638.697284297768
 30
0.0
 11
9344.887428875964
 21
1608.697284297768
 31
0.0
  0
LINE
  5
1F523
330
747D
100
AcDbEntity
  8
細線
 48
50.0
100
AcDbLine
 10
9230.200421146037
 20
1608.697284297768
 30
0.0
 11
9273.072291935015
 21
1768.697284297768
 31
0.0
  0
LINE
  5
1F524
330
747D
100
AcDbEntity
  8
細線
 48
50.0
100
AcDbLine
 10
9328.810477330099
 20
1608.697284297768
 30
0.0
 11
9371.682348119078
 21
1768.697284297768
 31
0.0
  0
LINE
  5
1F525
330
747D
100
AcDbEntity
  8
細線
 48
50.0
100
AcDbLine
 10
9462.253928530207
 20
1738.697284297768
 30
0.0
 11
9454.215452757274
 21
1768.697284297768
 31
0.0
  0
LINE
  5
1F526
330
747D
100
AcDbEntity
  8
細線
 48
50.0
100
AcDbLine
 10
9596.931181116971
 20
1768.697284297768
 30
0.0
 11
9600.942522877469
 21
1772.708626058265
 31
0.0
  0
LINE
  5
1F527
330
747D
100
AcDbEntity
  8
細線
 48
50.0
100
AcDbLine
 10
9560.86398471427
 20
1738.697284297768
 30
0.0
 11
9552.825508941337
 21
1768.697284297768
 31
0.0
  0
LINE
  5
1F528
330
747D
100
AcDbEntity
  8
細線
 48
50.0
100
AcDbLine
 10
9563.255220662961
 20
1768.697284297768
 30
0.0
 11
9600.942522877469
 21
1806.384586512274
 31
0.0
  0
LINE
  5
1F529
330
747D
100
AcDbEntity
  8
細線
 48
50.0
100
AcDbLine
 10
9435.459009287093
 20
1638.697284297768
 30
0.0
 11
9443.497485060026
 21
1608.697284297768
 31
0.0
  0
LINE
  5
1F52A
330
747D
100
AcDbEntity
  8
細線
 48
50.0
100
AcDbLine
 10
9534.069065471156
 20
1638.697284297768
 30
0.0
 11
9542.107541244089
 21
1608.697284297768
 31
0.0
  0
LINE
  5
1F52B
330
747D
100
AcDbEntity
  8
細線
 48
50.0
100
AcDbLine
 10
9427.42053351416
 20
1608.697284297768
 30
0.0
 11
9470.29240430314
 21
1768.697284297768
 31
0.0
  0
LINE
  5
1F52C
330
747D
100
AcDbEntity
  8
細線
 48
50.0
100
AcDbLine
 10
9526.030589698221
 20
1608.697284297768
 30
0.0
 11
9568.902460487199
 21
1768.697284297768
 31
0.0
  0
LINE
  5
1F52D
330
747D
100
AcDbEntity
  8
細線
 48
50.0
100
AcDbLine
 10
9659.474040898333
 20
1738.697284297768
 30
0.0
 11
9651.435565125398
 21
1768.697284297768
 31
0.0
  0
LINE
  5
1F52E
330
747D
100
AcDbEntity
  8
細線
 48
50.0
100
AcDbLine
 10
9632.679121655215
 20
1638.697284297768
 30
0.0
 11
9640.71759742815
 21
1608.697284297768
 31
0.0
  0
LINE
  5
1F52F
330
747D
100
AcDbEntity
  8
部品1
 48
50.0
100
AcDbLine
 10
9700.942522877468
 20
1608.697284297768
 30
0.0
 11
9700.942522877468
 21
1768.697284297768
 31
0.0
  0
LINE
  5
1F530
330
747D
100
AcDbEntity
  8
細線
 48
50.0
100
AcDbLine
 10
9624.640645882282
 20
1608.697284297768
 30
0.0
 11
9667.51251667126
 21
1768.697284297768
 31
0.0
  0
LINE
  5
1F531
330
747D
100
AcDbEntity
  8
Ｇ．Ｌ
 48
50.0
100
AcDbLine
 10
8663.267645586271
 20
2372.533391435691
 30
0.0
 11
9180.942522877469
 21
2372.533391435691
 31
0.0
  0
TEXT
  5
1F532
330
747D
100
AcDbEntity
  8
部品1
 48
50.0
100
AcDbText
 10
8823.113424987488
 20
2381.899218338398
 30
0.0
 40
100.0
  1
G.L
  7
STYLE1
100
AcDbText
  0
LINE
  5
1F533
330
747D
100
AcDbEntity
  8
部品1
 48
50.0
100
AcDbLine
 10
8724.639071516433
 20
2456.00351628411
 30
0.0
 11
8772.830570566963
 21
2372.533391435687
 31
0.0
  0
LINE
  5
1F534
330
747D
100
AcDbEntity
  8
部品1
 48
50.0
100
AcDbLine
 10
8821.022069617491
 20
2456.00351628411
 30
0.0
 11
8772.830570566963
 21
2372.533391435687
 31
0.0
  0
LINE
  5
1F535
330
747D
100
AcDbEntity
  8
部品1
100
AcDbLine
 10
8221.087184869688
 20
2323.167564532981
 30
0.0
 11
8221.087184869688
 21
2163.167564532984
 31
0.0
  0
LINE
  5
1F536
330
747D
100
AcDbEntity
  8
細線
 48
50.0
100
AcDbLine
 10
8183.79922099597
 20
2293.167564532981
 30
0.0
 11
8175.760745223037
 21
2323.167564532981
 31
0.0
  0
LINE
  5
1F537
330
747D
100
AcDbEntity
  8
部品1
 48
50.0
100
AcDbLine
 10
8724.639071516433
 20
2456.00351628411
 30
0.0
 11
8821.022069617491
 21
2456.00351628411
 31
0.0
  0
LINE
  5
1F538
330
747D
100
AcDbEntity
  8
細線
 48
50.0
100
AcDbLine
 10
9330.942522877473
 20
2344.607637408504
 30
0.0
 11
9420.942522877469
 21
2434.607637408503
 31
0.0
  0
LINE
  5
1F539
330
747D
100
AcDbEntity
  8
部品1
 48
50.0
100
AcDbLine
 10
9310.942522877473
 20
1918.697284297768
 30
0.0
 11
9310.942522877466
 21
2563.074258036655
 31
0.0
  0
LINE
  5
1F53A
330
747D
100
AcDbEntity
  8
部品1
 48
50.0
100
AcDbLine
 10
9330.942522877474
 20
1918.697284297768
 30
0.0
 11
9330.942522877469
 21
2577.04087647006
 31
0.0
  0
LINE
  5
1F53B
330
747D
100
AcDbEntity
  8
部品1
 48
50.0
100
AcDbLine
 10
9180.942522877469
 20
2068.697284297769
 30
0.0
 11
9180.942522877469
 21
2848.697284297769
 31
0.0
  0
LINE
  5
1F53C
330
747D
100
AcDbEntity
  8
部品1
 48
50.0
100
AcDbLine
 10
9420.942522877469
 20
2848.697284297769
 30
0.0
 11
9420.942522877469
 21
2068.697284297769
 31
0.0
  0
LINE
  5
1F53D
330
747D
100
AcDbEntity
  8
細線
 48
50.0
100
AcDbLine
 10
9330.942522877473
 20
2310.931676954491
 30
0.0
 11
9420.942522877469
 21
2400.931676954488
 31
0.0
  0
LINE
  5
1F53E
330
747D
100
AcDbEntity
  8
細線
 48
50.0
100
AcDbLine
 10
9330.942522877474
 20
2075.199953776429
 30
0.0
 11
9420.942522877469
 21
2165.199953776424
 31
0.0
  0
LINE
  5
1F53F
330
747D
100
AcDbEntity
  8
細線
 48
50.0
100
AcDbLine
 10
9330.942522877474
 20
2041.52399332242
 30
0.0
 11
9420.942522877469
 21
2131.523993322415
 31
0.0
  0
LINE
  5
1F540
330
747D
100
AcDbEntity
  8
細線
 48
50.0
100
AcDbLine
 10
9330.942522877474
 20
2277.255716500484
 30
0.0
 11
9420.942522877469
 21
2367.25571650048
 31
0.0
  0
LINE
  5
1F541
330
747D
100
AcDbEntity
  8
部品1
 48
50.0
100
AcDbLine
 10
9070.942522877469
 20
1908.697284297768
 30
0.0
 11
9530.942522877468
 21
1908.697284297768
 31
0.0
  0
LINE
  5
1F542
330
747D
100
AcDbEntity
  8
部品1
 48
50.0
100
AcDbLine
 10
9070.942522877469
 20
1888.697284297768
 30
0.0
 11
9530.942522877468
 21
1888.697284297768
 31
0.0
  0
LINE
  5
1F543
330
747D
100
AcDbEntity
  8
細線
 48
50.0
100
AcDbLine
 10
9330.942522877474
 20
2007.848032868409
 30
0.0
 11
9420.942522877469
 21
2097.848032868405
 31
0.0
  0
LINE
  5
1F544
330
747D
100
AcDbEntity
  8
細線
 48
50.0
100
AcDbLine
 10
9164.439853398809
 20
1908.697284297768
 30
0.0
 11
9310.942522877466
 21
2055.199953776428
 31
0.0
  0
LINE
  5
1F545
330
747D
100
AcDbEntity
  8
部品1
 48
50.0
100
AcDbLine
 10
9000.942522877467
 20
2068.697284297769
 30
0.0
 11
9180.942522877469
 21
2068.697284297769
 31
0.0
  0
LINE
  5
1F546
330
747D
100
AcDbEntity
  8
細線
 48
50.0
100
AcDbLine
 10
9000.942522877467
 20
2014.607637408504
 30
0.0
 11
9055.032169766736
 21
2068.697284297769
 31
0.0
  0
LINE
  5
1F547
330
747D
100
AcDbEntity
  8
部品1
 48
50.0
100
AcDbLine
 10
9070.942522877469
 20
1888.697284297768
 30
0.0
 11
9070.942522877469
 21
1908.697284297768
 31
0.0
  0
CIRCLE
  5
1F548
330
747D
100
AcDbEntity
  8
部品1
 48
50.0
100
AcDbCircle
 10
9140.94252287747
 20
1918.697284297768
 30
0.0
 40
10.0
  0
LINE
  5
1F549
330
747D
100
AcDbEntity
  8
細線
 48
50.0
100
AcDbLine
 10
9000.942522877471
 20
1947.255716500483
 30
0.0
 11
9122.384090674755
 21
2068.697284297769
 31
0.0
  0
LINE
  5
1F54A
330
747D
100
AcDbEntity
  8
細線
 48
50.0
100
AcDbLine
 10
9000.942522877467
 20
1980.931676954493
 30
0.0
 11
9088.708130220748
 21
2068.697284297769
 31
0.0
  0
LINE
  5
1F54B
330
747D
100
AcDbEntity
  8
細線
 48
50.0
100
AcDbLine
 10
9290.94252287747
 20
1967.848032868407
 30
0.0
 11
9310.942522877473
 21
1987.848032868409
 31
0.0
  0
CIRCLE
  5
1F54C
330
747D
100
AcDbEntity
  8
部品1
 48
50.0
100
AcDbCircle
 10
9300.942522877468
 20
1918.697284297768
 30
0.0
 40
10.0
  0
LINE
  5
1F54D
330
747D
100
AcDbEntity
  8
部品1
 48
50.0
100
AcDbLine
 10
9290.94252287747
 20
1991.356302669172
 30
0.0
 11
9290.94252287747
 21
1918.697284297768
 31
0.0
  0
LINE
  5
1F54E
330
747D
100
AcDbEntity
  8
部品1
 48
50.0
100
AcDbLine
 10
9270.942522877469
 20
1991.356302669172
 30
0.0
 11
9270.942522877469
 21
1918.697284297768
 31
0.0
  0
LINE
  5
1F54F
330
747D
100
AcDbEntity
  8
細線
 48
50.0
100
AcDbLine
 10
9198.115813852822
 20
1908.697284297768
 30
0.0
 11
9270.942522877469
 21
1981.523993322416
 31
0.0
  0
LINE
  5
1F550
330
747D
100
AcDbEntity
  8
細線
 48
50.0
100
AcDbLine
 10
9231.791774306827
 20
1908.697284297768
 30
0.0
 11
9270.942522877469
 21
1947.848032868405
 31
0.0
  0
ARC
  5
1F551
330
747D
100
AcDbEntity
  8
部品1
 48
50.0
100
AcDbCircle
 10
9300.942522877468
 20
1918.697284297768
 30
0.0
 40
30.0
100
AcDbArc
 50
180.0
 51
199.4712206344896
  0
LINE
  5
1F552
330
747D
100
AcDbEntity
  8
部品1
 48
50.0
100
AcDbLine
 10
9290.94252287747
 20
1991.356302669172
 30
0.0
 11
9270.942522877469
 21
1991.356302669172
 31
0.0
  0
ARC
  5
1F553
330
747D
100
AcDbEntity
  8
部品1
 48
50.0
100
AcDbCircle
 10
9300.942522877468
 20
1918.697284297768
 30
0.0
 40
30.0
100
AcDbArc
 50
340.5287793655103
 51
0.0
  0
LINE
  5
1F554
330
747D
100
AcDbEntity
  8
細線
 48
50.0
100
AcDbLine
 10
9280.774832224226
 20
1991.356302669172
 30
0.0
 11
9310.942522877473
 21
2021.523993322418
 31
0.0
  0
LINE
  5
1F555
330
747D
100
AcDbEntity
  8
細線
 48
50.0
100
AcDbLine
 10
9180.942522877469
 20
2194.607637408501
 30
0.0
 11
9310.942522877466
 21
2324.607637408501
 31
0.0
  0
LINE
  5
1F556
330
747D
100
AcDbEntity
  8
細線
 48
50.0
100
AcDbLine
 10
9180.942522877469
 20
2160.931676954491
 30
0.0
 11
9310.942522877473
 21
2290.931676954489
 31
0.0
  0
LINE
  5
1F557
330
747D
100
AcDbEntity
  8
細線
 48
50.0
100
AcDbLine
 10
9180.942522877469
 20
2127.255716500482
 30
0.0
 11
9310.942522877473
 21
2257.255716500484
 31
0.0
  0
LINE
  5
1F558
330
747D
100
AcDbEntity
  8
部品1
 48
50.0
100
AcDbLine
 10
9420.942522877469
 20
2068.697284297769
 30
0.0
 11
9600.942522877469
 21
2068.697284297769
 31
0.0
  0
LINE
  5
1F559
330
747D
100
AcDbEntity
  8
細線
 48
50.0
100
AcDbLine
 10
9501.199457938907
 20
1908.697284297768
 30
0.0
 11
9600.942522877469
 21
2008.44034923633
 31
0.0
  0
CIRCLE
  5
1F55A
330
747D
100
AcDbEntity
  8
部品1
 48
50.0
100
AcDbCircle
 10
9460.942522877465
 20
1918.697284297768
 30
0.0
 40
10.0
  0
LINE
  5
1F55B
330
747D
100
AcDbEntity
  8
部品1
 48
50.0
100
AcDbLine
 10
9530.942522877468
 20
1888.697284297768
 30
0.0
 11
9530.942522877468
 21
1908.697284297768
 31
0.0
  0
LINE
  5
1F55C
330
747D
100
AcDbEntity
  8
細線
 48
50.0
100
AcDbLine
 10
9467.523497484895
 20
1908.697284297768
 30
0.0
 11
9600.942522877469
 21
2042.116309690342
 31
0.0
  0
LINE
  5
1F55D
330
747D
100
AcDbEntity
  8
細線
 48
50.0
100
AcDbLine
 10
9433.847537030883
 20
1908.697284297768
 30
0.0
 11
9593.847537030887
 21
2068.697284297769
 31
0.0
  0
LINE
  5
1F55E
330
747D
100
AcDbEntity
  8
細線
100
AcDbLine
 10
9380.753432746905
 20
2815.049233310672
 30
0.0
 11
9420.942522877469
 21
2806.860680114669
 31
0.0
  0
LINE
  5
1F55F
330
747D
100
AcDbEntity
  8
細線
 48
50.0
100
AcDbLine
 10
9337.942522877465
 20
2653.663400132557
 30
0.0
 11
9420.942522877469
 21
2736.663400132556
 31
0.0
  0
LINE
  5
1F560
330
747D
100
AcDbEntity
  8
細線
 48
50.0
100
AcDbLine
 10
9337.942522877465
 20
2721.015321040571
 30
0.0
 11
9420.942522877469
 21
2804.015321040575
 31
0.0
  0
LINE
  5
1F561
330
747D
100
AcDbEntity
  8
細線
 48
50.0
100
AcDbLine
 10
9337.942522877469
 20
2687.339360586559
 30
0.0
 11
9420.942522877469
 21
2770.339360586567
 31
0.0
  0
LINE
  5
1F562
330
747D
100
AcDbEntity
  8
部品1
 48
50.0
100
AcDbLine
 10
9180.942522877469
 20
2848.697284297769
 30
0.0
 11
9420.942522877469
 21
2848.697284297769
 31
0.0
  0
ARC
  5
1F563
330
747D
100
AcDbEntity
  8
部品1
 48
50.0
100
AcDbCircle
 10
9300.942522877468
 20
2674.015321040575
 30
0.0
 40
30.0
100
AcDbArc
 50
70.52877936552873
 51
180.0
  0
LINE
  5
1F564
330
747D
100
AcDbEntity
  8
部品1
 48
50.0
100
AcDbLine
 10
9337.942522877469
 20
2598.697284297769
 30
0.0
 11
9337.942522877465
 21
2848.697284297769
 31
0.0
  0
LINE
  5
1F565
330
747D
100
AcDbEntity
  8
部品1
 48
50.0
100
AcDbLine
 10
9310.942522877466
 20
2598.697284297769
 30
0.0
 11
9310.942522877466
 21
2848.697284297769
 31
0.0
  0
LINE
  5
1F566
330
747D
100
AcDbEntity
  8
細線
 48
50.0
100
AcDbLine
 10
9180.942522877469
 20
2496.663400132557
 30
0.0
 11
9250.942522877469
 21
2566.663400132557
 31
0.0
  0
LINE
  5
1F567
330
747D
100
AcDbEntity
  8
細線
 48
50.0
100
AcDbLine
 10
9180.942522877469
 20
2530.339360586566
 30
0.0
 11
9270.942522877469
 21
2620.339360586566
 31
0.0
  0
LINE
  5
1F568
330
747D
100
AcDbEntity
  8
細線
 48
50.0
100
AcDbLine
 10
9180.942522877469
 20
2564.015321040575
 30
0.0
 11
9270.942522877469
 21
2654.015321040575
 31
0.0
  0
CIRCLE
  5
1F569
330
747D
100
AcDbEntity
  8
部品1
 48
50.0
100
AcDbCircle
 10
9300.942522877468
 20
2674.015321040575
 30
0.0
 40
10.0
  0
LINE
  5
1F56A
330
747D
100
AcDbEntity
  8
細線
 48
50.0
100
AcDbLine
 10
9290.94252287747
 20
2606.663400132557
 30
0.0
 11
9310.942522877466
 21
2626.663400132557
 31
0.0
  0
LINE
  5
1F56B
330
747D
100
AcDbEntity
  8
細線
 48
50.0
100
AcDbLine
 10
9290.94252287747
 20
2640.339360586566
 30
0.0
 11
9310.942522877466
 21
2660.339360586566
 31
0.0
  0
LINE
  5
1F56C
330
747D
100
AcDbEntity
  8
部品1
 48
50.0
100
AcDbLine
 10
9290.94252287747
 20
2601.356302669172
 30
0.0
 11
9270.942522877469
 21
2601.356302669174
 31
0.0
  0
LINE
  5
1F56D
330
747D
100
AcDbEntity
  8
部品1
 48
50.0
100
AcDbLine
 10
9270.942522877469
 20
2601.356302669174
 30
0.0
 11
9270.942522877469
 21
2674.015321040577
 31
0.0
  0
LINE
  5
1F56E
330
747D
100
AcDbEntity
  8
部品1
 48
50.0
100
AcDbLine
 10
9290.94252287747
 20
2601.356302669172
 30
0.0
 11
9290.94252287747
 21
2674.015321040575
 31
0.0
  0
LINE
  5
1F56F
330
747D
100
AcDbEntity
  8
部品1
 48
50.0
100
AcDbLine
 10
9310.942522877466
 20
2598.697284297769
 30
0.0
 11
9310.942522877466
 21
2674.015321040575
 31
0.0
  0
LINE
  5
1F570
330
747D
100
AcDbEntity
  8
部品1
 48
50.0
100
AcDbLine
 10
9310.942522877466
 20
2598.697284297769
 30
0.0
 11
9310.942522877466
 21
2674.015321040575
 31
0.0
  0
LINE
  5
1F571
330
747D
100
AcDbEntity
  8
部品1
 48
50.0
100
AcDbLine
 10
9250.942522877469
 20
2561.697284297768
 30
0.0
 11
9250.942522877469
 21
2588.697284297769
 31
0.0
  0
LINE
  5
1F572
330
747D
100
AcDbEntity
  8
部品1
 48
50.0
100
AcDbLine
 10
9300.942522877468
 20
2588.697284297769
 30
0.0
 11
9250.942522877469
 21
2588.697284297769
 31
0.0
  0
LINE
  5
1F573
330
747D
100
AcDbEntity
  8
部品1
 48
50.0
100
AcDbLine
 10
9300.942522877468
 20
2561.697284297768
 30
0.0
 11
9250.942522877469
 21
2561.697284297768
 31
0.0
  0
ARC
  5
1F574
330
747D
100
AcDbEntity
  8
部品1
 48
50.0
100
AcDbCircle
 10
9300.942522877468
 20
2598.697284297769
 30
0.0
 40
10.0
100
AcDbArc
 50
270.0
 51
0.0
  0
ARC
  5
1F575
330
747D
100
AcDbEntity
  8
部品1
 48
50.0
100
AcDbCircle
 10
9300.942522877468
 20
2598.697284297769
 30
0.0
 40
37.0
100
AcDbArc
 50
270.0
 51
0.0
  0
LINE
  5
1F576
330
747D
100
AcDbEntity
  8
細線
 48
50.0
100
AcDbLine
 10
9272.976407042682
 20
2588.697284297769
 30
0.0
 11
9285.635425414088
 21
2601.356302669172
 31
0.0
  0
LINE
  5
1F577
330
747D
100
AcDbEntity
  8
部品1
100
AcDbLine
 10
9212.173292108232
 20
2856.23574583623
 30
0.0
 11
9194.942522877466
 21
2856.23574583623
 31
0.0
  0
LINE
  5
1F578
330
747D
100
AcDbEntity
  8
細線
100
AcDbLine
 10
9180.942522877469
 20
2818.324665941807
 30
0.0
 11
9218.480846383497
 21
2808.498424812056
 31
0.0
  0
LINE
  5
1F579
330
747D
100
AcDbEntity
  8
細線
 48
50.0
100
AcDbLine
 10
9180.942522877469
 20
2766.071083764631
 30
0.0
 11
9223.369863924894
 21
2808.498424812056
 31
0.0
  0
LINE
  5
1F57A
330
747D
100
AcDbEntity
  8
部品1
100
AcDbLine
 10
9191.711753646696
 20
2954.235745836229
 30
0.0
 11
9204.634830569771
 21
2957.466515066999
 31
0.0
  0
LINE
  5
1F57B
330
747D
100
AcDbEntity
  8
部品1
100
AcDbLine
 10
9208.942522877469
 20
2851.928053528539
 30
0.0
 11
9191.711753646696
 21
2851.928053528539
 31
0.0
  0
LINE
  5
1F57C
330
747D
100
AcDbEntity
  8
部品1
100
AcDbLine
 10
9194.942522877466
 20
2856.23574583623
 30
0.0
 11
9194.942522877466
 21
2875.448422613533
 31
0.0
  0
LINE
  5
1F57D
330
747D
100
AcDbEntity
  8
部品1
100
AcDbLine
 10
9191.711753646696
 20
2851.928053528539
 30
0.0
 11
9191.711753646696
 21
2954.235745836229
 31
0.0
  0
LINE
  5
1F57E
330
747D
100
AcDbEntity
  8
細線
 48
50.0
100
AcDbLine
 10
9180.942522877469
 20
2799.747044218641
 30
0.0
 11
9195.666035688775
 21
2814.470557029947
 31
0.0
  0
LINE
  5
1F57F
330
747D
100
AcDbEntity
  8
細線
 48
50.0
100
AcDbLine
 10
9306.942522877468
 20
2904.076773375184
 30
0.0
 11
9342.142522877464
 21
2894.644961801608
 31
0.0
  0
LINE
  5
1F580
330
747D
100
AcDbEntity
  8
細線
 48
50.0
100
AcDbLine
 10
9306.942522877468
 20
2892.076773375187
 30
0.0
 11
9342.142522877464
 21
2882.644961801611
 31
0.0
  0
LINE
  5
1F581
330
747D
100
AcDbEntity
  8
部品1
100
AcDbLine
 10
9204.634830569771
 20
2957.466515066999
 30
0.0
 11
9204.634830569771
 21
2970.389591990077
 31
0.0
  0
LINE
  5
1F582
330
747D
100
AcDbEntity
  8
部品1
100
AcDbLine
 10
9204.634830569771
 20
2970.389591990077
 30
0.0
 11
9278.173292108233
 21
2970.389591990077
 31
0.0
  0
LINE
  5
1F583
330
747D
100
AcDbEntity
  8
部品1
100
AcDbLine
 10
9340.634830569772
 20
2955.312668913153
 30
0.0
 11
9382.32713826208
 21
2955.312668913153
 31
0.0
  0
LINE
  5
1F584
330
747D
100
AcDbEntity
  8
部品1
100
AcDbLine
 10
9340.634830569772
 20
2970.389591990077
 30
0.0
 11
9340.634830569772
 21
2955.312668913153
 31
0.0
  0
LINE
  5
1F585
330
747D
100
AcDbEntity
  8
部品1
100
AcDbLine
 10
9310.480984415928
 20
2970.389591990077
 30
0.0
 11
9340.634830569772
 21
2970.389591990077
 31
0.0
  0
LINE
  5
1F586
330
747D
100
AcDbEntity
  8
部品1
 48
50.0
100
AcDbLine
 10
9337.942522877469
 20
2909.004976605461
 30
0.0
 11
9310.942522877466
 21
2909.004976605461
 31
0.0
  0
LINE
  5
1F587
330
747D
100
AcDbEntity
  8
細線
 48
50.0
100
AcDbLine
 10
9306.942522877468
 20
2880.076773375184
 30
0.0
 11
9327.593211095843
 21
2874.543438143923
 31
0.0
  0
ARC
  5
1F588
330
747D
100
AcDbEntity
  8
部品1
100
AcDbCircle
 10
9306.134830569773
 20
2866.257371002145
 30
0.0
 40
7.3858052918609
100
AcDbArc
 50
43.1932563689624
 51
136.8067436310376
  0
LINE
  5
1F589
330
747D
100
AcDbEntity
  8
部品1
100
AcDbLine
 10
9296.442522877468
 20
2853.00497660546
 30
0.0
 11
9352.442522877469
 21
2853.00497660546
 31
0.0
  0
LINE
  5
1F58A
330
747D
100
AcDbEntity
  8
部品1
100
AcDbLine
 10
9303.980984415927
 20
2874.543438143923
 30
0.0
 11
9344.904061339006
 21
2874.543438143923
 31
0.0
  0
LINE
  5
1F58B
330
747D
100
AcDbEntity
  8
部品1
100
AcDbLine
 10
9300.750215185157
 20
2871.312668913155
 30
0.0
 11
9348.134830569776
 21
2871.312668913152
 31
0.0
  0
LINE
  5
1F58C
330
747D
100
AcDbEntity
  8
細線
100
AcDbLine
 10
9295.519375430242
 20
2815.049233310672
 30
0.0
 11
9351.249364068676
 21
2816.686978008062
 31
0.0
  0
LINE
  5
1F58D
330
747D
100
AcDbEntity
  8
部品1
100
AcDbLine
 10
9212.173292108232
 20
2853.00497660546
 30
0.0
 11
9379.096369031309
 21
2853.00497660546
 31
0.0
  0
LINE
  5
1F58E
330
747D
100
AcDbEntity
  8
細線
100
AcDbLine
 10
9254.541421130928
 20
2808.498424812056
 30
0.0
 11
9295.519375430242
 21
2815.049233310672
 31
0.0
  0
LINE
  5
1F58F
330
747D
100
AcDbEntity
  8
細線
100
AcDbLine
 10
9218.480846383497
 20
2808.498424812056
 30
0.0
 11
9254.541421130928
 21
2808.498424812056
 31
0.0
  0
LINE
  5
1F590
330
747D
100
AcDbEntity
  8
部品1
100
AcDbLine
 10
9300.750215185157
 20
2871.312668913153
 30
0.0
 11
9300.750215185157
 21
2853.00497660546
 31
0.0
  0
LINE
  5
1F591
330
747D
100
AcDbEntity
  8
部品1
100
AcDbLine
 10
9300.750215185157
 20
2871.312668913153
 30
0.0
 11
9303.980984415927
 21
2874.543438143923
 31
0.0
  0
LINE
  5
1F592
330
747D
100
AcDbEntity
  8
部品1
100
AcDbLine
 10
9296.442522877468
 20
2853.00497660546
 30
0.0
 11
9296.442522877468
 21
2848.697284297769
 31
0.0
  0
LINE
  5
1F593
330
747D
100
AcDbEntity
  8
部品1
100
AcDbLine
 10
9212.173292108232
 20
2856.23574583623
 30
0.0
 11
9212.173292108232
 21
2853.00497660546
 31
0.0
  0
ARC
  5
1F594
330
747D
100
AcDbEntity
  8
部品1
100
AcDbCircle
 10
9342.750215185157
 20
2866.257371002145
 30
0.0
 40
7.3858052918609
100
AcDbArc
 50
43.1932563689624
 51
136.8067436310376
  0
LINE
  5
1F595
330
747D
100
AcDbEntity
  8
部品1
100
AcDbLine
 10
9337.365599800538
 20
2871.312668913153
 30
0.0
 11
9337.365599800538
 21
2853.00497660546
 31
0.0
  0
LINE
  5
1F596
330
747D
100
AcDbEntity
  8
部品1
100
AcDbLine
 10
9348.134830569772
 20
2871.312668913155
 30
0.0
 11
9348.134830569772
 21
2853.00497660546
 31
0.0
  0
LINE
  5
1F597
330
747D
100
AcDbEntity
  8
部品1
100
AcDbLine
 10
9344.904061339006
 20
2874.543438143923
 30
0.0
 11
9348.134830569772
 21
2871.312668913155
 31
0.0
  0
LINE
  5
1F598
330
747D
100
AcDbEntity
  8
部品1
100
AcDbLine
 10
9352.442522877469
 20
2853.00497660546
 30
0.0
 11
9352.442522877469
 21
2848.697284297769
 31
0.0
  0
LINE
  5
1F599
330
747D
100
AcDbEntity
  8
部品1
100
AcDbLine
 10
9379.096369031309
 20
2875.448422613533
 30
0.0
 11
9379.096369031309
 21
2853.00497660546
 31
0.0
  0
LINE
  5
1F59A
330
747D
100
AcDbEntity
  8
細線
100
AcDbLine
 10
9351.249364068676
 20
2816.686978008062
 30
0.0
 11
9380.753432746905
 21
2815.049233310672
 31
0.0
  0
LINE
  5
1F59B
330
747D
100
AcDbEntity
  8
部品1
100
AcDbLine
 10
9311.519445954388
 20
2871.312668913155
 30
0.0
 11
9311.519445954388
 21
2853.00497660546
 31
0.0
  0
ARC
  5
1F59C
330
747D
100
AcDbEntity
  8
部品1
100
AcDbCircle
 10
9324.442522877466
 20
2838.694528595876
 30
0.0
 40
35.0848827120379
100
AcDbArc
 50
68.38687878208739
 51
111.6131212179126
  0
LINE
  5
1F59D
330
747D
100
AcDbEntity
  8
部品1
100
AcDbLine
 10
9382.32713826208
 20
2851.928053528539
 30
0.0
 11
9399.55790749285
 21
2851.928053528539
 31
0.0
  0
LINE
  5
1F59E
330
747D
100
AcDbEntity
  8
部品1
 48
50.0
100
AcDbLine
 10
9337.942522877465
 20
2874.543438143923
 30
0.0
 11
9337.942522877465
 21
2909.004976605461
 31
0.0
  0
LINE
  5
1F59F
330
747D
100
AcDbEntity
  8
部品1
 48
50.0
100
AcDbLine
 10
9310.942522877466
 20
2874.543438143923
 30
0.0
 11
9310.942522877459
 21
2909.004976605461
 31
0.0
  0
LINE
  5
1F5A0
330
747D
100
AcDbEntity
  8
部品1
100
AcDbLine
 10
9382.32713826208
 20
2955.312668913153
 30
0.0
 11
9382.32713826208
 21
2851.928053528539
 31
0.0
  0
LINE
  5
1F5A1
330
747D
100
AcDbEntity
  8
細線
 48
50.0
100
AcDbLine
 10
5058.05248812529
 20
3687.383248035111
 30
0.0
 11
8614.69603749782
 21
3687.383248035111
 31
0.0
  0
LINE
  5
1F5A2
330
747D
100
AcDbEntity
  8
細線
 48
50.0
100
AcDbLine
 10
9543.985616045755
 20
3567.38324803511
 30
0.0
 11
8694.69603749782
 21
3567.38324803511
 31
0.0
  0
TEXT
  5
1F5A3
330
747D
100
AcDbEntity
  8
部品1
 48
50.0
100
AcDbText
 10
8715.445112429494
 20
3632.470029848177
 30
0.0
 40
112.0
  1
基礎詳細図
  7
STYLE2
100
AcDbText
  0
ARC
  5
1F5A4
330
747D
100
AcDbEntity
  8
細線
 48
50.0
100
AcDbCircle
 10
8694.69603749782
 20
3647.383248035112
 30
0.0
 40
80.0
100
AcDbArc
 50
180.0
 51
270.0
  0
LINE
  5
1F5A5
330
747D
100
AcDbEntity
  8
細線
 48
50.0
100
AcDbLine
 10
8614.69603749782
 20
3647.383248035112
 30
0.0
 11
8614.69603749782
 21
3727.38324803511
 31
0.0
  0
ARC
  5
1F5A6
330
747D
100
AcDbEntity
  8
細線
 48
50.0
100
AcDbCircle
 10
8694.69603749782
 20
3727.38324803511
 30
0.0
 40
80.0
100
AcDbArc
 50
90.0
 51
180.0
  0
ARC
  5
1F5A7
330
747D
100
AcDbEntity
  8
細線
 48
50.0
100
AcDbCircle
 10
9543.985616045755
 20
3647.383248035112
 30
0.0
 40
80.0
100
AcDbArc
 50
270.0
 51
0.0
  0
LINE
  5
1F5A8
330
747D
100
AcDbEntity
  8
部品1
100
AcDbLine
 10
9278.173292108233
 20
2996.23574583623
 30
0.0
 11
9310.480984415928
 21
2996.23574583623
 31
0.0
  0
ARC
  5
1F5A9
330
747D
100
AcDbEntity
  8
細線
 48
50.0
100
AcDbCircle
 10
9543.985616045755
 20
3727.38324803511
 30
0.0
 40
80.0
100
AcDbArc
 50
0.0
 51
90.0
  0
LINE
  5
1F5AA
330
747D
100
AcDbEntity
  8
細線
 48
50.0
100
AcDbLine
 10
9623.985616045755
 20
3727.38324803511
 30
0.0
 11
9623.985616045755
 21
3647.383248035112
 31
0.0
  0
LINE
  5
1F5AB
330
747D
100
AcDbEntity
  8
細線
 48
50.0
100
AcDbLine
 10
9623.985616045755
 20
3647.383248035112
 30
0.0
 11
9623.985616045755
 21
3647.383248035112
 31
0.0
  0
LINE
  5
1F5AC
330
747D
100
AcDbEntity
  8
細線
 48
50.0
100
AcDbLine
 10
13180.62916541828
 20
3687.383248035111
 30
0.0
 11
13180.62916541828
 21
781.7215747943532
 31
0.0
  0
LINE
  5
1F5AD
330
747D
100
AcDbEntity
  8
細線
100
AcDbLine
 10
11449.91196203948
 20
2816.686978008063
 30
0.0
 11
11479.41603071771
 21
2815.049233310674
 31
0.0
  0
LINE
  5
1F5AE
330
747D
100
AcDbEntity
  8
部品1
 48
50.0
100
AcDbLine
 10
11279.60512084827
 20
2848.697284297769
 30
0.0
 11
11519.60512084827
 21
2848.697284297769
 31
0.0
  0
LINE
  5
1F5AF
330
747D
100
AcDbEntity
  8
細線
 48
50.0
100
AcDbLine
 10
11429.04600493075
 20
2679.780244669045
 30
0.0
 11
11519.60512084827
 21
2770.339360586567
 31
0.0
  0
LINE
  5
1F5B0
330
747D
100
AcDbEntity
  8
細線
 48
50.0
100
AcDbLine
 10
11415.22064897636
 20
2699.630849168664
 30
0.0
 11
11519.60512084827
 21
2804.015321040576
 31
0.0
  0
LINE
  5
1F5B1
330
747D
100
AcDbEntity
  8
細線
 48
50.0
100
AcDbLine
 10
11429.60512084827
 20
2646.663400132557
 30
0.0
 11
11519.60512084827
 21
2736.663400132558
 31
0.0
  0
LINE
  5
1F5B2
330
747D
100
AcDbEntity
  8
細線
 48
50.0
100
AcDbLine
 10
11429.60512084827
 20
2310.931676954492
 30
0.0
 11
11519.60512084827
 21
2400.931676954489
 31
0.0
  0
LINE
  5
1F5B3
330
747D
100
AcDbEntity
  8
細線
 48
50.0
100
AcDbLine
 10
11429.60512084827
 20
2344.607637408504
 30
0.0
 11
11519.60512084827
 21
2434.607637408503
 31
0.0
  0
LINE
  5
1F5B4
330
747D
100
AcDbEntity
  8
細線
 48
50.0
100
AcDbLine
 10
11429.60512084828
 20
2075.199953776431
 30
0.0
 11
11519.60512084827
 21
2165.199953776425
 31
0.0
  0
LINE
  5
1F5B5
330
747D
100
AcDbEntity
  8
細線
 48
50.0
100
AcDbLine
 10
11429.60512084828
 20
2041.523993322421
 30
0.0
 11
11519.60512084827
 21
2131.523993322415
 31
0.0
  0
LINE
  5
1F5B6
330
747D
100
AcDbEntity
  8
細線
 48
50.0
100
AcDbLine
 10
11429.60512084828
 20
2277.255716500485
 30
0.0
 11
11519.60512084827
 21
2367.255716500481
 31
0.0
  0
LINE
  5
1F5B7
330
747D
100
AcDbEntity
  8
細線
 48
50.0
100
AcDbLine
 10
11426.1860954557
 20
1768.697284297769
 30
0.0
 11
11546.1860954557
 21
1888.697284297769
 31
0.0
  0
LINE
  5
1F5B8
330
747D
100
AcDbEntity
  8
細線
 48
50.0
100
AcDbLine
 10
11392.51013500169
 20
1768.697284297769
 30
0.0
 11
11512.51013500169
 21
1888.697284297769
 31
0.0
  0
LINE
  5
1F5B9
330
747D
100
AcDbEntity
  8
細線
 48
50.0
100
AcDbLine
 10
11427.4730753009
 20
1608.697284297769
 30
0.0
 11
11470.34494608988
 21
1768.697284297769
 31
0.0
  0
LINE
  5
1F5BA
330
747D
100
AcDbEntity
  8
細線
 48
50.0
100
AcDbLine
 10
11429.60512084828
 20
2007.84803286841
 30
0.0
 11
11519.60512084827
 21
2097.848032868407
 31
0.0
  0
TEXT
  5
1F5BB
330
747D
100
AcDbEntity
  8
部品1
 48
50.0
100
AcDbText
 10
11025.41554762444
 20
958.5328589084463
 30
0.0
 40
96.0
  1
床下湿気防止用基礎
  7
STYLE2
100
AcDbText
  0
LINE
  5
1F5BC
330
747D
100
AcDbEntity
  8
部品1
 48
50.0
100
AcDbLine
 10
12356.58274507388
 20
921.2895198945933
 30
0.0
 11
10965.26947607627
 21
921.2895198945933
 31
0.0
  0
LINE
  5
1F5BD
330
747D
100
AcDbEntity
  8
部品1
 48
50.0
100
AcDbLine
 10
12356.58274507388
 20
1081.289519894593
 30
0.0
 11
10965.26947607627
 21
1081.289519894593
 31
0.0
  0
LINE
  5
1F5BE
330
747D
100
AcDbEntity
  8
部品1
 48
50.0
100
AcDbLine
 10
11799.60512084827
 20
1608.697284297769
 30
0.0
 11
10999.60512084827
 21
1608.697284297769
 31
0.0
  0
LINE
  5
1F5BF
330
747D
100
AcDbEntity
  8
部品1
 48
50.0
100
AcDbLine
 10
11799.60512084827
 20
1768.697284297769
 30
0.0
 11
10999.60512084827
 21
1768.697284297769
 31
0.0
  0
LINE
  5
1F5C0
330
747D
100
AcDbEntity
  8
部品1
 48
50.0
100
AcDbLine
 10
11169.60512084827
 20
1888.697284297769
 30
0.0
 11
11629.60512084827
 21
1888.697284297769
 31
0.0
  0
LINE
  5
1F5C1
330
747D
100
AcDbEntity
  8
部品1
 48
50.0
100
AcDbLine
 10
11169.60512084827
 20
1908.697284297769
 30
0.0
 11
11629.60512084827
 21
1908.697284297769
 31
0.0
  0
LINE
  5
1F5C2
330
747D
100
AcDbEntity
  8
部品1
 48
50.0
100
AcDbLine
 10
11099.60512084827
 20
1768.697284297769
 30
0.0
 11
11099.60512084827
 21
2068.697284297769
 31
0.0
  0
LINE
  5
1F5C3
330
747D
100
AcDbEntity
  8
細線
 48
50.0
100
AcDbLine
 10
11123.10245136961
 20
1768.697284297769
 30
0.0
 11
11243.10245136961
 21
1888.697284297769
 31
0.0
  0
LINE
  5
1F5C4
330
747D
100
AcDbEntity
  8
細線
 48
50.0
100
AcDbLine
 10
11156.77841182362
 20
1768.697284297769
 30
0.0
 11
11276.77841182362
 21
1888.697284297769
 31
0.0
  0
LINE
  5
1F5C5
330
747D
100
AcDbEntity
  8
細線
 48
50.0
100
AcDbLine
 10
11190.45437227763
 20
1768.697284297769
 30
0.0
 11
11310.45437227763
 21
1888.697284297769
 31
0.0
  0
LINE
  5
1F5C6
330
747D
100
AcDbEntity
  8
部品1
 48
50.0
100
AcDbLine
 10
10965.26947607627
 20
1081.289519894593
 30
0.0
 11
10965.26947607627
 21
921.2895198945933
 31
0.0
  0
LINE
  5
1F5C7
330
747D
100
AcDbEntity
  8
細線
 48
50.0
100
AcDbLine
 10
11041.07132633759
 20
1638.697284297769
 30
0.0
 11
11049.10980211053
 21
1608.697284297769
 31
0.0
  0
LINE
  5
1F5C8
330
747D
100
AcDbEntity
  8
細線
 48
50.0
100
AcDbLine
 10
11033.03285056466
 20
1608.697284297769
 30
0.0
 11
11075.90472135364
 21
1768.697284297769
 31
0.0
  0
LINE
  5
1F5C9
330
747D
100
AcDbEntity
  8
部品1
 48
50.0
100
AcDbLine
 10
10999.60512084827
 20
1608.697284297769
 30
0.0
 11
10999.60512084827
 21
1768.697284297769
 31
0.0
  0
LINE
  5
1F5CA
330
747D
100
AcDbEntity
  8
細線
 48
50.0
100
AcDbLine
 10
11230.25296293278
 20
1608.697284297769
 30
0.0
 11
11273.12483372176
 21
1768.697284297769
 31
0.0
  0
LINE
  5
1F5CB
330
747D
100
AcDbEntity
  8
細線
 48
50.0
100
AcDbLine
 10
11067.8662455807
 20
1738.697284297769
 30
0.0
 11
11059.82776980777
 21
1768.697284297769
 31
0.0
  0
LINE
  5
1F5CC
330
747D
100
AcDbEntity
  8
細線
 48
50.0
100
AcDbLine
 10
11166.47630176476
 20
1738.697284297769
 30
0.0
 11
11158.43782599183
 21
1768.697284297769
 31
0.0
  0
LINE
  5
1F5CD
330
747D
100
AcDbEntity
  8
細線
 48
50.0
100
AcDbLine
 10
11139.68138252165
 20
1638.697284297769
 30
0.0
 11
11147.71985829459
 21
1608.697284297769
 31
0.0
  0
LINE
  5
1F5CE
330
747D
100
AcDbEntity
  8
細線
 48
50.0
100
AcDbLine
 10
11131.64290674872
 20
1608.697284297769
 30
0.0
 11
11174.5147775377
 21
1768.697284297769
 31
0.0
  0
LINE
  5
1F5CF
330
747D
100
AcDbEntity
  8
細線
 48
50.0
100
AcDbLine
 10
11238.29143870572
 20
1638.697284297769
 30
0.0
 11
11246.32991447865
 21
1608.697284297769
 31
0.0
  0
LINE
  5
1F5D0
330
747D
100
AcDbEntity
  8
細線
 48
50.0
100
AcDbLine
 10
11363.69641413289
 20
1738.697284297769
 30
0.0
 11
11355.65793835995
 21
1768.697284297769
 31
0.0
  0
LINE
  5
1F5D1
330
747D
100
AcDbEntity
  8
細線
 48
50.0
100
AcDbLine
 10
11265.08635794883
 20
1738.697284297769
 30
0.0
 11
11257.04788217589
 21
1768.697284297769
 31
0.0
  0
LINE
  5
1F5D2
330
747D
100
AcDbEntity
  8
細線
 48
50.0
100
AcDbLine
 10
11336.90149488978
 20
1638.697284297769
 30
0.0
 11
11344.93997066271
 21
1608.697284297769
 31
0.0
  0
LINE
  5
1F5D3
330
747D
100
AcDbEntity
  8
細線
 48
50.0
100
AcDbLine
 10
11435.51155107383
 20
1638.697284297769
 30
0.0
 11
11443.55002684677
 21
1608.697284297769
 31
0.0
  0
LINE
  5
1F5D4
330
747D
100
AcDbEntity
  8
細線
 48
50.0
100
AcDbLine
 10
11328.86301911684
 20
1608.697284297769
 30
0.0
 11
11371.73488990582
 21
1768.697284297769
 31
0.0
  0
LINE
  5
1F5D5
330
747D
100
AcDbEntity
  8
部品1
 48
50.0
100
AcDbLine
 10
10919.68466758829
 20
2456.003516284111
 30
0.0
 11
10871.49316853776
 21
2372.533391435688
 31
0.0
  0
TEXT
  5
1F5D6
330
747D
100
AcDbEntity
  8
部品1
 48
50.0
100
AcDbText
 10
10921.77602295829
 20
2381.899218338399
 30
0.0
 40
100.0
  1
G.L
  7
STYLE1
100
AcDbText
  0
LINE
  5
1F5D7
330
747D
100
AcDbEntity
  8
部品1
 48
50.0
100
AcDbLine
 10
10823.30166948724
 20
2456.003516284111
 30
0.0
 11
10871.49316853776
 21
2372.533391435688
 31
0.0
  0
LINE
  5
1F5D8
330
747D
100
AcDbEntity
  8
部品1
 48
50.0
100
AcDbLine
 10
11429.60512084828
 20
1918.697284297769
 30
0.0
 11
11429.60512084827
 21
2674.015321040576
 31
0.0
  0
LINE
  5
1F5D9
330
747D
100
AcDbEntity
  8
部品1
 48
50.0
100
AcDbLine
 10
11409.60512084828
 20
1918.697284297769
 30
0.0
 11
11409.60512084827
 21
2674.015321040576
 31
0.0
  0
LINE
  5
1F5DA
330
747D
100
AcDbEntity
  8
部品1
 48
50.0
100
AcDbLine
 10
11279.60512084827
 20
2068.697284297769
 30
0.0
 11
11279.60512084827
 21
2848.697284297769
 31
0.0
  0
LINE
  5
1F5DB
330
747D
100
AcDbEntity
  8
Ｇ．Ｌ
 48
50.0
100
AcDbLine
 10
10761.93024355707
 20
2372.533391435692
 30
0.0
 11
11279.60512084827
 21
2372.533391435692
 31
0.0
  0
CIRCLE
  5
1F5DC
330
747D
100
AcDbEntity
  8
部品1
 48
50.0
100
AcDbCircle
 10
11239.60512084827
 20
1918.697284297769
 30
0.0
 40
10.0
  0
LINE
  5
1F5DD
330
747D
100
AcDbEntity
  8
部品1
 48
50.0
100
AcDbLine
 10
11099.60512084827
 20
2068.697284297769
 30
0.0
 11
11279.60512084827
 21
2068.697284297769
 31
0.0
  0
LINE
  5
1F5DE
330
747D
100
AcDbEntity
  8
細線
 48
50.0
100
AcDbLine
 10
11099.60512084827
 20
2014.607637408504
 30
0.0
 11
11153.69476773754
 21
2068.697284297769
 31
0.0
  0
LINE
  5
1F5DF
330
747D
100
AcDbEntity
  8
部品1
 48
50.0
100
AcDbLine
 10
11169.60512084827
 20
1888.697284297769
 30
0.0
 11
11169.60512084827
 21
1908.697284297769
 31
0.0
  0
LINE
  5
1F5E0
330
747D
100
AcDbEntity
  8
細線
 48
50.0
100
AcDbLine
 10
11099.60512084827
 20
1947.255716500484
 30
0.0
 11
11221.04668864555
 21
2068.697284297769
 31
0.0
  0
LINE
  5
1F5E1
330
747D
100
AcDbEntity
  8
細線
 48
50.0
100
AcDbLine
 10
11099.60512084827
 20
1980.931676954494
 30
0.0
 11
11187.37072819155
 21
2068.697284297769
 31
0.0
  0
LINE
  5
1F5E2
330
747D
100
AcDbEntity
  8
細線
 48
50.0
100
AcDbLine
 10
11330.45437227763
 20
1908.697284297769
 30
0.0
 11
11369.60512084827
 21
1947.848032868406
 31
0.0
  0
LINE
  5
1F5E3
330
747D
100
AcDbEntity
  8
細線
 48
50.0
100
AcDbLine
 10
11296.77841182362
 20
1908.697284297769
 30
0.0
 11
11369.60512084827
 21
1981.523993322417
 31
0.0
  0
LINE
  5
1F5E4
330
747D
100
AcDbEntity
  8
部品1
 48
50.0
100
AcDbLine
 10
11389.60512084827
 20
1991.356302669172
 30
0.0
 11
11389.60512084827
 21
1918.697284297769
 31
0.0
  0
LINE
  5
1F5E5
330
747D
100
AcDbEntity
  8
部品1
 48
50.0
100
AcDbLine
 10
11369.60512084827
 20
1991.356302669172
 30
0.0
 11
11369.60512084827
 21
1918.697284297769
 31
0.0
  0
ARC
  5
1F5E6
330
747D
100
AcDbEntity
  8
部品1
 48
50.0
100
AcDbCircle
 10
11399.60512084827
 20
1918.697284297769
 30
0.0
 40
30.0
100
AcDbArc
 50
340.5287793655103
 51
0.0
  0
CIRCLE
  5
1F5E7
330
747D
100
AcDbEntity
  8
部品1
 48
50.0
100
AcDbCircle
 10
11399.60512084827
 20
1918.697284297769
 30
0.0
 40
10.0
  0
ARC
  5
1F5E8
330
747D
100
AcDbEntity
  8
部品1
 48
50.0
100
AcDbCircle
 10
11399.60512084827
 20
1918.697284297769
 30
0.0
 40
30.0
100
AcDbArc
 50
180.0
 51
199.4712206344896
  0
LINE
  5
1F5E9
330
747D
100
AcDbEntity
  8
細線
 48
50.0
100
AcDbLine
 10
11389.60512084827
 20
1967.848032868408
 30
0.0
 11
11409.60512084828
 21
1987.84803286841
 31
0.0
  0
LINE
  5
1F5EA
330
747D
100
AcDbEntity
  8
部品1
 48
50.0
100
AcDbLine
 10
11389.60512084827
 20
1991.356302669172
 30
0.0
 11
11369.60512084827
 21
1991.356302669172
 31
0.0
  0
LINE
  5
1F5EB
330
747D
100
AcDbEntity
  8
細線
 48
50.0
100
AcDbLine
 10
11263.10245136961
 20
1908.697284297769
 30
0.0
 11
11409.60512084827
 21
2055.199953776428
 31
0.0
  0
LINE
  5
1F5EC
330
747D
100
AcDbEntity
  8
細線
 48
50.0
100
AcDbLine
 10
11379.43743019503
 20
1991.356302669172
 30
0.0
 11
11409.60512084828
 21
2021.52399332242
 31
0.0
  0
LINE
  5
1F5ED
330
747D
100
AcDbEntity
  8
細線
 48
50.0
100
AcDbLine
 10
11279.60512084827
 20
2127.255716500483
 30
0.0
 11
11409.60512084828
 21
2257.255716500484
 31
0.0
  0
LINE
  5
1F5EE
330
747D
100
AcDbEntity
  8
細線
 48
50.0
100
AcDbLine
 10
11279.60512084827
 20
2160.931676954492
 30
0.0
 11
11409.60512084827
 21
2290.931676954491
 31
0.0
  0
LINE
  5
1F5EF
330
747D
100
AcDbEntity
  8
細線
 48
50.0
100
AcDbLine
 10
11279.60512084827
 20
2194.607637408501
 30
0.0
 11
11409.60512084827
 21
2324.607637408503
 31
0.0
  0
LINE
  5
1F5F0
330
747D
100
AcDbEntity
  8
部品1
 48
50.0
100
AcDbLine
 10
10823.30166948724
 20
2456.003516284111
 30
0.0
 11
10919.68466758829
 21
2456.003516284111
 31
0.0
  0
ARC
  5
1F5F1
330
747D
100
AcDbEntity
  8
部品1
 48
50.0
100
AcDbCircle
 10
11399.60512084827
 20
2674.015321040576
 30
0.0
 40
30.0
100
AcDbArc
 50
0.0
 51
180.0
  0
CIRCLE
  5
1F5F2
330
747D
100
AcDbEntity
  8
部品1
 48
50.0
100
AcDbCircle
 10
11399.60512084827
 20
2674.015321040576
 30
0.0
 40
10.0
  0
LINE
  5
1F5F3
330
747D
100
AcDbEntity
  8
細線
 48
50.0
100
AcDbLine
 10
11389.60512084827
 20
2606.663400132557
 30
0.0
 11
11409.60512084827
 21
2626.663400132557
 31
0.0
  0
LINE
  5
1F5F4
330
747D
100
AcDbEntity
  8
部品1
 48
50.0
100
AcDbLine
 10
11389.60512084827
 20
2601.356302669173
 30
0.0
 11
11369.60512084827
 21
2601.356302669175
 31
0.0
  0
LINE
  5
1F5F5
330
747D
100
AcDbEntity
  8
部品1
 48
50.0
100
AcDbLine
 10
11389.60512084827
 20
2601.356302669173
 30
0.0
 11
11389.60512084827
 21
2674.015321040576
 31
0.0
  0
LINE
  5
1F5F6
330
747D
100
AcDbEntity
  8
細線
 48
50.0
100
AcDbLine
 10
11389.60512084827
 20
2640.339360586568
 30
0.0
 11
11409.60512084827
 21
2660.339360586567
 31
0.0
  0
LINE
  5
1F5F7
330
747D
100
AcDbEntity
  8
部品1
 48
50.0
100
AcDbLine
 10
11369.60512084827
 20
2601.356302669175
 30
0.0
 11
11369.60512084827
 21
2674.015321040578
 31
0.0
  0
LINE
  5
1F5F8
330
747D
100
AcDbEntity
  8
細線
 48
50.0
100
AcDbLine
 10
11279.60512084827
 20
2496.663400132558
 30
0.0
 11
11384.29802338489
 21
2601.356302669173
 31
0.0
  0
LINE
  5
1F5F9
330
747D
100
AcDbEntity
  8
細線
 48
50.0
100
AcDbLine
 10
11279.60512084827
 20
2530.339360586567
 30
0.0
 11
11369.60512084827
 21
2620.339360586567
 31
0.0
  0
LINE
  5
1F5FA
330
747D
100
AcDbEntity
  8
細線
 48
50.0
100
AcDbLine
 10
11279.60512084827
 20
2564.015321040576
 30
0.0
 11
11369.60512084827
 21
2654.015321040577
 31
0.0
  0
LINE
  5
1F5FB
330
747D
100
AcDbEntity
  8
細線
100
AcDbLine
 10
11353.20401910173
 20
2808.498424812058
 30
0.0
 11
11394.18197340104
 21
2815.049233310674
 31
0.0
  0
LINE
  5
1F5FC
330
747D
100
AcDbEntity
  8
細線
 48
50.0
100
AcDbLine
 10
11279.60512084827
 20
2799.747044218642
 30
0.0
 11
11294.32863365958
 21
2814.470557029947
 31
0.0
  0
LINE
  5
1F5FD
330
747D
100
AcDbEntity
  8
細線
100
AcDbLine
 10
11279.60512084827
 20
2818.324665941808
 30
0.0
 11
11317.1434443543
 21
2808.498424812058
 31
0.0
  0
LINE
  5
1F5FE
330
747D
100
AcDbEntity
  8
細線
100
AcDbLine
 10
11317.1434443543
 20
2808.498424812058
 30
0.0
 11
11353.20401910173
 21
2808.498424812058
 31
0.0
  0
LINE
  5
1F5FF
330
747D
100
AcDbEntity
  8
細線
 48
50.0
100
AcDbLine
 10
11279.60512084827
 20
2766.071083764632
 30
0.0
 11
11322.0324618957
 21
2808.498424812058
 31
0.0
  0
LINE
  5
1F600
330
747D
100
AcDbEntity
  8
細線
100
AcDbLine
 10
11394.18197340104
 20
2815.049233310674
 30
0.0
 11
11449.91196203948
 21
2816.686978008063
 31
0.0
  0
LINE
  5
1F601
330
747D
100
AcDbEntity
  8
細線
 48
50.0
100
AcDbLine
 10
11459.86205590971
 20
1768.697284297769
 30
0.0
 11
11579.86316571613
 21
1888.698394104194
 31
0.0
  0
LINE
  5
1F602
330
747D
100
AcDbEntity
  8
部品1
 48
50.0
100
AcDbLine
 10
11699.60512084827
 20
2068.697284297769
 30
0.0
 11
11699.60512084827
 21
1768.697284297769
 31
0.0
  0
LINE
  5
1F603
330
747D
100
AcDbEntity
  8
細線
 48
50.0
100
AcDbLine
 10
11624.69318766902
 20
1608.697284297769
 30
0.0
 11
11667.565058458
 21
1768.697284297769
 31
0.0
  0
LINE
  5
1F604
330
747D
100
AcDbEntity
  8
細線
 48
50.0
100
AcDbLine
 10
11659.52658268507
 20
1738.697284297769
 30
0.0
 11
11651.48810691214
 21
1768.697284297769
 31
0.0
  0
LINE
  5
1F605
330
747D
100
AcDbEntity
  8
細線
 48
50.0
100
AcDbLine
 10
11560.91652650101
 20
1738.697284297769
 30
0.0
 11
11552.87805072808
 21
1768.697284297769
 31
0.0
  0
LINE
  5
1F606
330
747D
100
AcDbEntity
  8
細線
 48
50.0
100
AcDbLine
 10
11462.30647031695
 20
1738.697284297769
 30
0.0
 11
11454.26799454402
 21
1768.697284297769
 31
0.0
  0
LINE
  5
1F607
330
747D
100
AcDbEntity
  8
細線
 48
50.0
100
AcDbLine
 10
11534.1216072579
 20
1638.697284297769
 30
0.0
 11
11542.16008303083
 21
1608.697284297769
 31
0.0
  0
LINE
  5
1F608
330
747D
100
AcDbEntity
  8
細線
 48
50.0
100
AcDbLine
 10
11632.73166344196
 20
1638.697284297769
 30
0.0
 11
11640.77013921489
 21
1608.697284297769
 31
0.0
  0
LINE
  5
1F609
330
747D
100
AcDbEntity
  8
細線
 48
50.0
100
AcDbLine
 10
11526.08313148496
 20
1608.697284297769
 30
0.0
 11
11568.95500227394
 21
1768.697284297769
 31
0.0
  0
LINE
  5
1F60A
330
747D
100
AcDbEntity
  8
細線
 48
50.0
100
AcDbLine
 10
11758.13663886913
 20
1738.697284297769
 30
0.0
 11
11750.0981630962
 21
1768.697284297769
 31
0.0
  0
LINE
  5
1F60B
330
747D
100
AcDbEntity
  8
細線
 48
50.0
100
AcDbLine
 10
11695.59377908777
 20
1768.697284297769
 30
0.0
 11
11699.60512084827
 21
1772.708626058266
 31
0.0
  0
LINE
  5
1F60C
330
747D
100
AcDbEntity
  8
細線
 48
50.0
100
AcDbLine
 10
11661.91781863376
 20
1768.697284297769
 30
0.0
 11
11699.60512084827
 21
1806.384586512274
 31
0.0
  0
LINE
  5
1F60D
330
747D
100
AcDbEntity
  8
細線
 48
50.0
100
AcDbLine
 10
11731.34171962602
 20
1638.697284297769
 30
0.0
 11
11739.38019539895
 21
1608.697284297769
 31
0.0
  0
LINE
  5
1F60E
330
747D
100
AcDbEntity
  8
細線
 48
50.0
100
AcDbLine
 10
11723.30324385308
 20
1608.697284297769
 30
0.0
 11
11766.17511464206
 21
1768.697284297769
 31
0.0
  0
LINE
  5
1F60F
330
747D
100
AcDbEntity
  8
部品1
 48
50.0
100
AcDbLine
 10
11799.60512084827
 20
1608.697284297769
 30
0.0
 11
11799.60512084827
 21
1768.697284297769
 31
0.0
  0
LINE
  5
1F610
330
747D
100
AcDbEntity
  8
部品1
 48
50.0
100
AcDbLine
 10
12356.58274507388
 20
1081.289519894593
 30
0.0
 11
12356.58274507388
 21
921.2895198945933
 31
0.0
  0
LWPOLYLINE
  5
1F611
330
747D
100
AcDbEntity
  8
部品1
 48
50.0
100
AcDbPolyline
 90
        4
 70
     0
 43
15.0
 10
11519.60512084827
 20
2372.533391435692
 10
12037.27999813946
 20
2372.533391435692
 42
0.1559987191059798
 10
12203.982519208
 20
2425.492477257458
 42
-0.1900569176366468
 10
12402.90433444651
 20
2456.473660701405
  0
LEADER
  5
1F612
330
747D
100
AcDbEntity
  8
寸法
 48
50.0
100
AcDbLeader
  3
INABA_S50G
 71
     0
 73
     0
 74
     0
 75
     1
 40
100.0
 41
581.9577020040977
 76
     3
 10
12203.982519208
 20
2425.492477257458
 30
0.0
 10
12351.68268467262
 20
2268.928765027313
 30
0.0
 10
12476.68268467262
 20
2268.928765027313
 30
0.0
340
1F613
  0
MTEXT
  5
1F613
102
{ACAD_REACTORS
330
1F612
102
}
330
747D
100
AcDbEntity
  8
寸法
 62
     7
 48
50.0
100
AcDbMText
 10
12501.68268467262
 20
2343.928765027313
 30
0.0
 40
100.0
 41
0.0
 71
     4
 72
     1
  1
防湿シート
  7
STYLE1
 73
     1
 44
1.0
1001
ACAD
1000
MTEXTBEGIN
1070
    73
1070
     1
1070
    44
1040
1.0
1070
    74
1070
     0
1000
MTEXTEND
  0
HATCH
  5
1F614
330
747D
100
AcDbEntity
  8
寸法
 62
     5
 48
50.0
100
AcDbHatch
 10
0.0
 20
0.0
 30
0.0
210
0.0
220
0.0
230
1.0
  2
PLAST
 70
     0
 71
     0
 91
        1
 92
        7
 72
     0
 73
     1
 93
        4
 10
12037.27999813946
 20
2622.533391435692
 10
11519.60512084827
 20
2622.533391435692
 10
11519.60512084827
 20
2392.533391435692
 10
12037.27999813946
 20
2392.533391435692
 97
        0
 75
     0
 76
     1
 52
315.0
 41
25.0
 77
     0
 78
     3
 53
315.0
 43
-1467.761842902346
 44
-2970.093706041638
 45
112.2532015133644
 46
112.2532015133644
 79
     0
 53
315.0
 43
-1453.730192713176
 44
-2956.062055852468
 45
112.2532015133644
 46
112.2532015133644
 79
     0
 53
315.0
 43
-1439.698542524005
 44
-2942.030405663297
 45
112.2532015133644
 46
112.2532015133644
 79
     0
 47
1.387886003246494
 98
        1
 10
11748.15565167423
 20
2559.218978473064
  0
LINE
  5
1F615
330
747D
100
AcDbEntity
  8
部品1
 48
50.0
100
AcDbLine
 10
11519.60512084827
 20
2848.697284297769
 30
0.0
 11
11519.60512084827
 21
2068.697284297769
 31
0.0
  0
LINE
  5
1F616
330
747D
100
AcDbEntity
  8
細線
 48
50.0
100
AcDbLine
 10
11856.90149488978
 20
2222.533391435692
 30
0.0
 11
11864.93997066271
 21
2192.533391435691
 31
0.0
  0
LINE
  5
1F617
330
747D
100
AcDbEntity
  8
細線
 48
50.0
100
AcDbLine
 10
11848.86301911684
 20
2192.533391435691
 30
0.0
 11
11891.73488990582
 21
2352.533391435692
 31
0.0
  0
LINE
  5
1F618
330
747D
100
AcDbEntity
  8
部品1
 48
50.0
100
AcDbLine
 10
11520.68995119157
 20
2192.533391435691
 30
0.0
 11
12037.27999813946
 21
2192.533391435691
 31
0.0
  0
LINE
  5
1F619
330
747D
100
AcDbEntity
  8
部品1
 48
50.0
100
AcDbLine
 10
11519.60512084827
 20
2352.533391435692
 30
0.0
 11
12037.27999813946
 21
2352.533391435692
 31
0.0
  0
LINE
  5
1F61A
330
747D
100
AcDbEntity
  8
部品1
 48
50.0
100
AcDbLine
 10
11519.60512084827
 20
2392.533391435692
 30
0.0
 11
12037.27999813946
 21
2392.533391435692
 31
0.0
  0
LINE
  5
1F61B
330
747D
100
AcDbEntity
  8
部品1
 48
50.0
100
AcDbLine
 10
11519.60512084827
 20
2372.533391435692
 30
0.0
 11
12037.27999813946
 21
2372.533391435692
 31
0.0
  0
LINE
  5
1F61C
330
747D
100
AcDbEntity
  8
部品1
 48
50.0
100
AcDbLine
 10
11519.60512084827
 20
2068.697284297769
 30
0.0
 11
11699.60512084827
 21
2068.697284297769
 31
0.0
  0
LINE
  5
1F61D
330
747D
100
AcDbEntity
  8
細線
 48
50.0
100
AcDbLine
 10
11599.86205590971
 20
1908.697284297769
 30
0.0
 11
11699.60512084827
 21
2008.440349236331
 31
0.0
  0
LINE
  5
1F61E
330
747D
100
AcDbEntity
  8
細線
 48
50.0
100
AcDbLine
 10
11532.51013500168
 20
1908.697284297769
 30
0.0
 11
11692.51013500169
 21
2068.697284297769
 31
0.0
  0
LINE
  5
1F61F
330
747D
100
AcDbEntity
  8
細線
 48
50.0
100
AcDbLine
 10
11566.1860954557
 20
1908.697284297769
 30
0.0
 11
11699.60512084827
 21
2042.116309690343
 31
0.0
  0
CIRCLE
  5
1F620
330
747D
100
AcDbEntity
  8
部品1
 48
50.0
100
AcDbCircle
 10
11559.60512084827
 20
1918.697284297769
 30
0.0
 40
10.0
  0
LINE
  5
1F621
330
747D
100
AcDbEntity
  8
部品1
 48
50.0
100
AcDbLine
 10
11629.60512084827
 20
1888.697284297769
 30
0.0
 11
11629.60512084827
 21
1908.697284297769
 31
0.0
  0
LINE
  5
1F622
330
747D
100
AcDbEntity
  8
細線
 48
50.0
100
AcDbLine
 10
11651.64290674872
 20
2192.533391435691
 30
0.0
 11
11694.5147775377
 21
2352.533391435692
 31
0.0
  0
LINE
  5
1F623
330
747D
100
AcDbEntity
  8
細線
 48
50.0
100
AcDbLine
 10
11587.8662455807
 20
2322.533391435692
 30
0.0
 11
11579.82776980777
 21
2352.533391435692
 31
0.0
  0
LINE
  5
1F624
330
747D
100
AcDbEntity
  8
細線
 48
50.0
100
AcDbLine
 10
11561.07132633759
 20
2222.533391435692
 30
0.0
 11
11569.10980211053
 21
2192.533391435691
 31
0.0
  0
LINE
  5
1F625
330
747D
100
AcDbEntity
  8
細線
 48
50.0
100
AcDbLine
 10
11553.03285056465
 20
2192.533391435691
 30
0.0
 11
11595.90472135364
 21
2352.533391435692
 31
0.0
  0
LINE
  5
1F626
330
747D
100
AcDbEntity
  8
細線
 48
50.0
100
AcDbLine
 10
11686.47630176476
 20
2322.533391435692
 30
0.0
 11
11678.43782599183
 21
2352.533391435692
 31
0.0
  0
LINE
  5
1F627
330
747D
100
AcDbEntity
  8
細線
 48
50.0
100
AcDbLine
 10
11785.08635794883
 20
2322.533391435692
 30
0.0
 11
11777.04788217589
 21
2352.533391435692
 31
0.0
  0
LINE
  5
1F628
330
747D
100
AcDbEntity
  8
細線
 48
50.0
100
AcDbLine
 10
11758.29143870571
 20
2222.533391435692
 30
0.0
 11
11766.32991447865
 21
2192.533391435691
 31
0.0
  0
LINE
  5
1F629
330
747D
100
AcDbEntity
  8
細線
 48
50.0
100
AcDbLine
 10
11659.68138252165
 20
2222.533391435692
 30
0.0
 11
11667.71985829459
 21
2192.533391435691
 31
0.0
  0
LINE
  5
1F62A
330
747D
100
AcDbEntity
  8
細線
 48
50.0
100
AcDbLine
 10
11750.25296293278
 20
2192.533391435691
 30
0.0
 11
11793.12483372176
 21
2352.533391435692
 31
0.0
  0
LINE
  5
1F62B
330
747D
100
AcDbEntity
  8
細線
 48
50.0
100
AcDbLine
 10
11982.30647031695
 20
2322.533391435692
 30
0.0
 11
11974.26799454402
 21
2352.533391435692
 31
0.0
  0
LINE
  5
1F62C
330
747D
100
AcDbEntity
  8
細線
 48
50.0
100
AcDbLine
 10
11883.69641413289
 20
2322.533391435692
 30
0.0
 11
11875.65793835996
 21
2352.533391435692
 31
0.0
  0
LINE
  5
1F62D
330
747D
100
AcDbEntity
  8
細線
 48
50.0
100
AcDbLine
 10
11955.51155107383
 20
2222.533391435692
 30
0.0
 11
11963.55002684677
 21
2192.533391435691
 31
0.0
  0
LINE
  5
1F62E
330
747D
100
AcDbEntity
  8
細線
 48
50.0
100
AcDbLine
 10
11947.4730753009
 20
2192.533391435691
 30
0.0
 11
11990.34494608988
 21
2352.533391435692
 31
0.0
  0
LINE
  5
1F62F
330
747D
100
AcDbEntity
  8
部品1
 48
50.0
100
AcDbLine
 10
11519.60512084827
 20
2622.533391435692
 30
0.0
 11
12037.27999813946
 21
2622.533391435692
 31
0.0
  0
LINE
  5
1F630
330
747D
100
AcDbEntity
  8
細線
100
AcDbLine
 10
11479.41603071771
 20
2815.049233310674
 30
0.0
 11
11519.60512084827
 21
2806.86068011467
 31
0.0
  0
LINE
  5
1F631
330
747D
100
AcDbEntity
  8
細線
 48
50.0
100
AcDbLine
 10
9543.985616045755
 20
3807.38324803511
 30
0.0
 11
8694.69603749782
 21
3807.38324803511
 31
0.0
  0
LEADER
  5
1F7EA
330
747D
100
AcDbEntity
  8
寸法
 48
50.0
100
AcDbLeader
  3
INABA_S50G
 73
     0
 74
     0
 75
     1
 40
150.0
 41
840.0
 76
     3
 10
10454.48138473295
 20
10778.17972925349
 30
0.0
 10
10660.4401466642
 20
11173.08697471925
 30
0.0
 10
10785.4401466642
 20
11173.08697471925
 30
0.0
340
1F7EB
1001
ACAD
1000
DSTYLE
1002
{
1070
   341
1005
0
1070
    40
1040
1.0
1070
   343
1005
0
1070
   344
1005
0
1002
}
  0
MTEXT
  5
1F7EB
102
{ACAD_REACTORS
330
1F7EA
102
}
330
747D
100
AcDbEntity
  8
部品1
 62
     7
 48
50.0
100
AcDbMText
 10
11650.4401466642
 20
11273.08697471925
 30
0.0
 40
150.0
 41
0.0
 71
     6
 72
     1
  1
\A1;屋根の外寸
  7
STYLE1
 73
     1
 44
1.0
1001
ACAD
1000
MTEXTBEGIN
1070
    73
1070
     1
1070
    44
1040
1.0
1070
    74
1070
     0
1000
MTEXTEND
  0
MTEXT
  5
1F7EC
102
{ACAD_REACTORS
330
1F7ED
102
}
330
747D
100
AcDbEntity
  8
部品1
 62
     7
 48
50.0
100
AcDbMText
 10
10002.86117870522
 20
11065.70047899223
 30
0.0
 40
150.0
 41
0.0
 71
     6
 72
     1
  1
\A1;床下換気口
  7
STYLE1
 73
     1
 44
1.0
1001
ACAD
1000
MTEXTBEGIN
1070
    73
1070
     1
1070
    44
1040
1.0
1070
    74
1070
     0
1000
MTEXTEND
  0
LEADER
  5
1F7ED
330
747D
100
AcDbEntity
  8
寸法
 48
50.0
100
AcDbLeader
  3
INABA_S50G
 73
     0
 75
     1
 40
150.0
 41
900.0000000000001
 76
     3
 10
10301.05190540639
 20
10688.17972925349
 30
0.0
 10
10152.86117870521
 20
10965.70047899223
 30
0.0
 10
10027.86117870521
 20
10965.70047899223
 30
0.0
340
1F7EC
1001
ACAD
1000
DSTYLE
1002
{
1070
   341
1005
0
1070
    40
1040
1.0
1070
   343
1005
0
1070
   344
1005
0
1002
}
  0
ENDSEC
  0
SECTION
  2
OBJECTS
  0
DICTIONARY
  5
7471
330
0
100
AcDbDictionary
281
     1
  3
ACAD_COLOR
350
1D3A9
  3
ACAD_GROUP
350
7472
  3
ACAD_LAYOUT
350
1D3AA
  3
ACAD_MATERIAL
350
1D3A8
  3
ACAD_MLINESTYLE
350
7473
  3
ACAD_PLOTSETTINGS
350
1D3AB
  3
ACAD_PLOTSTYLENAME
350
1D3A6
  3
AcadDim
350
1DA99
  3
ACDBHEADERROUNDTRIPXREC
350
1F851
  3
ACDBVARIABLEDICTIONARY
350
1152B
  3
CONTENTDICTIONARY
350
E71C
  3
DRAWINGVARIABLESDICT
350
F3B9
  0
DICTIONARY
  5
1DADC
330
7467
100
AcDbDictionary
280
     1
281
     1
  3
ACAD_LAYERSTATES
360
1DADD
  0
DICTIONARY
  5
1D3A9
102
{ACAD_REACTORS
330
7471
102
}
330
7471
100
AcDbDictionary
281
     1
  0
DICTIONARY
  5
7472
102
{ACAD_REACTORS
330
7471
102
}
330
7471
100
AcDbDictionary
281
     1
  3
*A1
350
1D8E4
  3
*A2
350
1E8A6
  3
*A3
350
1F187
  0
DICTIONARY
  5
1D3AA
102
{ACAD_REACTORS
330
7471
102
}
330
7471
100
AcDbDictionary
281
     1
  3
Model
350
1D3AC
  3
レイアウト1
350
1D3AD
  0
DICTIONARY
  5
1D3A8
102
{ACAD_REACTORS
330
7471
102
}
330
7471
100
AcDbDictionary
281
     1
  0
DICTIONARY
  5
7473
102
{ACAD_REACTORS
330
7471
102
}
330
7471
100
AcDbDictionary
281
     1
  3
STANDARD
350
7480
  0
DICTIONARY
  5
1D3AB
102
{ACAD_REACTORS
330
7471
102
}
330
7471
100
AcDbDictionary
281
     1
  0
ACDBDICTIONARYWDFLT
  5
1D3A6
102
{ACAD_REACTORS
330
7471
102
}
330
7471
100
AcDbDictionary
281
     1
  3
Normal
350
1D3A7
100
AcDbDictionaryWithDefault
340
1D3A7
  0
XRECORD
  5
1DA99
102
{ACAD_REACTORS
330
7471
102
}
330
7471
100
AcDbXrecord
280
     1
 90
   990106
  3

 60
     0
 61
     0
 62
     1
 63
     3
 64
     1
 65
     0
 66
     0
 67
     3
 68
     1
 69
     0
 70
     0
 71
     0
 72
     0
 40
0.0
170
     2
340
0
  0
DICTIONARY
  5
1F851
102
{ACAD_REACTORS
330
7471
102
}
330
7471
100
AcDbDictionary
281
     1
  3
COLORDICT
350
1F853
  3
MATERIALDICT
350
1F852
  0
DICTIONARY
  5
1152B
102
{ACAD_REACTORS
330
7471
102
}
330
7471
100
AcDbDictionary
281
     1
  3
DIMASSOC
350
1F833
  3
PROJECTNAME
350
1F834
  3
SORTENTS
350
1152C
  0
DICTIONARY
  5
E71C
102
{ACAD_REACTORS
330
7471
102
}
330
7471
100
AcDbDictionary
281
     1
  0
DICTIONARY
  5
F3B9
102
{ACAD_REACTORS
330
7471
102
}
330
7471
100
AcDbDictionary
281
     1
1001
DRAWINGVARIABLESXDATA
1000
POLARMODE
1000
1
  0
DICTIONARY
  5
1DADD
102
{ACAD_REACTORS
330
1DADC
102
}
330
1DADC
100
AcDbDictionary
281
     1
  0
GROUP
  5
1D8E4
102
{ACAD_REACTORS
330
7472
102
}
330
7472
100
AcDbGroup
300

 70
     1
 71
     1
  0
GROUP
  5
1E8A6
102
{ACAD_REACTORS
330
7472
102
}
330
7472
100
AcDbGroup
300

 70
     1
 71
     1
  0
GROUP
  5
1F187
102
{ACAD_REACTORS
330
7472
102
}
330
7472
100
AcDbGroup
300

 70
     1
 71
     1
  0
LAYOUT
  5
1D3AC
102
{ACAD_XDICTIONARY
360
1F854
102
}
102
{ACAD_REACTORS
330
1D3AA
102
}
330
1D3AA
100
AcDbPlotSettings
  1

  2
クセロPDF
  4
A3
  6

 40
3.174999952316283
 41
3.174999952316283
 42
3.17498779296875
 43
3.17498779296875
 44
419.9466552734373
 45
296.9259948730469
 46
0.0
 47
0.0
 48
0.0
 49
0.0
140
0.0
141
0.0
142
1.0
143
50.0
 70
 11952
 72
     1
 73
     0
 74
     2
  7
inaba.ctb
 75
    25
147
0.02
148
0.0
149
0.0
100
AcDbLayout
  1
Model
 70
     1
 71
     0
 10
0.0
 20
0.0
 11
12.0
 21
9.0
 12
0.0
 22
0.0
 32
0.0
 14
0.0
 24
0.0
 34
0.0
 15
0.0
 25
0.0
 35
0.0
146
0.0
 13
0.0
 23
0.0
 33
0.0
 16
1.0
 26
0.0
 36
0.0
 17
0.0
 27
1.0
 37
0.0
 76
     0
330
747D
  0
LAYOUT
  5
1D3AD
102
{ACAD_XDICTIONARY
360
1F856
102
}
102
{ACAD_REACTORS
330
1D3AA
102
}
330
1D3AA
100
AcDbPlotSettings
  1

  2
EPSON LP-8300
  4

  6

 40
0.0
 41
0.0
 42
0.0
 43
0.0
 44
0.0
 45
0.0
 46
0.0
 47
0.0
 48
0.0
 49
0.0
140
0.0
141
0.0
142
1.0
143
1.0
 70
   688
 72
     0
 73
     0
 74
     5
  7
inaba.ctb
 75
    16
147
1.0
148
0.0
149
0.0
100
AcDbLayout
  1
レイアウト1
 70
     0
 71
     1
 10
0.0
 20
0.0
 11
420.0
 21
297.0
 12
0.0
 22
0.0
 32
0.0
 14
1.000000000000000E+20
 24
1.000000000000000E+20
 34
1.000000000000000E+20
 15
-1.000000000000000E+20
 25
-1.000000000000000E+20
 35
-1.000000000000000E+20
146
0.0
 13
0.0
 23
0.0
 33
0.0
 16
1.0
 26
0.0
 36
0.0
 17
0.0
 27
1.0
 37
0.0
 76
     0
330
747A
  0
MLINESTYLE
  5
7480
102
{ACAD_REACTORS
330
7473
102
}
330
7473
100
AcDbMlineStyle
  2
STANDARD
 70
     0
  3

 62
     0
 51
90.0
 52
90.0
 71
     2
 49
0.5
 62
   256
  6
BYLAYER
 49
-0.5
 62
   256
  6
BYLAYER
  0
ACDBPLACEHOLDER
  5
1D3A7
102
{ACAD_REACTORS
330
1D3A6
102
}
330
1D3A6
  0
XRECORD
  5
1F853
102
{ACAD_REACTORS
330
1F851
102
}
330
1F851
100
AcDbXrecord
280
     1
340
1D3A9
  0
XRECORD
  5
1F852
102
{ACAD_REACTORS
330
1F851
102
}
330
1F851
100
AcDbXrecord
280
     1
340
1D3A8
  0
DICTIONARYVAR
  5
1F833
102
{ACAD_REACTORS
330
1152B
102
}
330
1152B
100
DictionaryVariables
280
     0
  1
1
  0
DICTIONARYVAR
  5
1F834
102
{ACAD_REACTORS
330
1152B
102
}
330
1152B
100
DictionaryVariables
280
     0
  1

  0
DICTIONARYVAR
  5
1152C
102
{ACAD_REACTORS
330
1152B
102
}
330
1152B
100
DictionaryVariables
280
     0
  1
96
  0
DICTIONARY
  5
1F854
330
1D3AC
100
AcDbDictionary
280
     1
281
     1
  3
ACAD_XREC_ROUNDTRIP
360
1F855
  0
DICTIONARY
  5
1F856
330
1D3AD
100
AcDbDictionary
280
     1
281
     1
  3
ACAD_XREC_ROUNDTRIP
360
1F857
  0
XRECORD
  5
1F855
102
{ACAD_REACTORS
330
1F854
102
}
330
1F854
100
AcDbXrecord
280
     1
102
SHADEPLOT
 70
     0
102
SHADEPLOTRESLEVEL
 70
     2
102
SHADEPLOTCUSTOMDPI
 70
   150
  0
XRECORD
  5
1F857
102
{ACAD_REACTORS
330
1F856
102
}
330
1F856
100
AcDbXrecord
280
     1
102
SHADEPLOT
 70
     0
102
SHADEPLOTRESLEVEL
 70
     2
102
SHADEPLOTCUSTOMDPI
 70
   300
  0
ENDSEC
  0
EOF
